<?xml version="1.0" standalone="no"?>
<!DOCTYPE svg PUBLIC "-//W3C//DTD SVG 1.1//EN" "http://www.w3.org/Graphics/SVG/1.1/DTD/svg11.dtd" >
<svg xmlns="http://www.w3.org/2000/svg" xmlns:xlink="http://www.w3.org/1999/xlink" version="1.1">
<metadata>
Created by FontForge 20170812 at Fri Aug  5 04:27:10 2022
 By www-data
</metadata>
<defs>
<font id="HobbyhorseRegular" horiz-adv-x="0" >
  <font-face 
    font-family="Hobbyhorse"
    font-weight="400"
    font-stretch="normal"
    units-per-em="1000"
    panose-1="0 0 0 0 0 0 0 0 0 0"
    ascent="800"
    descent="-200"
    x-height="395.994"
    cap-height="1350.98"
    bbox="-258.001 -747.054 2116.51 1585.65"
    underline-thickness="50"
    underline-position="-100"
    unicode-range="U+000A-20AC"
  />
<missing-glyph horiz-adv-x="527" 
d="M50 700h427v-700h-427v700zM78 680l185 -309l186 309h-371zM251 350l-180 300v-601zM264 329l-185 -308h370zM276 350l181 -303v605z" />
    <glyph glyph-name=".notdef" horiz-adv-x="527" 
d="M50 700h427v-700h-427v700zM78 680l185 -309l186 309h-371zM251 350l-180 300v-601zM264 329l-185 -308h370zM276 350l181 -303v605z" />
    <glyph glyph-name=".null" 
 />
    <glyph glyph-name=".null" 
 />
    <glyph glyph-name="LF" unicode="&#xa;" 
 />
    <glyph glyph-name="controlCR" unicode="&#xd;" 
 />
    <glyph glyph-name="space" unicode=" " horiz-adv-x="214" 
 />
    <glyph glyph-name="exclam" unicode="!" horiz-adv-x="218" 
d="M155.693 68.1631c3.11426 -50.0898 -84.7275 -77.0127 -88.7461 -23.2158c-19.7256 264.731 -24.0488 534.994 -3.20312 799.718c1.96094 24.833 50.5059 36.3926 52.0107 7.37305c13.5127 -261.361 23.7119 -522.626 39.9385 -783.875zM165.406 -110.583
c6.65234 -18.0605 -0.495117 -34.2715 -17.1387 -43.9658c-13.0566 -7.60547 -40.0752 -6.79688 -46.0312 10.3672c-8.10938 23.3682 -12.0801 44.8623 -12.7529 69.5986c-0.44043 16.1709 18.1719 28.7637 32.125 30.7412
c13.9453 1.97754 32.0293 -5.34766 33.8467 -21.3828c1.69727 -14.9619 5.22754 -32.542 9.95117 -45.3584z" />
    <glyph glyph-name="quotedbl" unicode="&#x22;" horiz-adv-x="265" 
d="M70.2412 760.68c4.94727 24.7607 45.1895 30.5156 45.4375 1.04004c0.552734 -65.252 -7.49316 -133.971 -17.8037 -198.342c-4.21875 -26.3623 -48.8252 -31.8857 -47.8564 -1.09668c2.0498 65.3164 7.42188 134.275 20.2227 198.398zM211.592 761.039
c8.29395 -16.4355 -3.19531 -42.2529 -5.2207 -59.6484c-3.00195 -25.6572 -4.00293 -51.3467 -4.55566 -77.1562c-0.696289 -32.5742 -60.0723 -37.7617 -57.5264 -1.32129c2.16992 31.1172 4.4834 62.0742 12.6729 92.2949
c5.69141 21.0225 13.8174 52.8203 40.4355 53.4766c5.58008 0.135742 11.5762 -2.45801 14.1943 -7.64551z" />
    <glyph glyph-name="quotedbl" unicode="&#x201d;" horiz-adv-x="265" 
d="M70.2412 760.68c4.94727 24.7607 45.1895 30.5156 45.4375 1.04004c0.552734 -65.252 -7.49316 -133.971 -17.8037 -198.342c-4.21875 -26.3623 -48.8252 -31.8857 -47.8564 -1.09668c2.0498 65.3164 7.42188 134.275 20.2227 198.398zM211.592 761.039
c8.29395 -16.4355 -3.19531 -42.2529 -5.2207 -59.6484c-3.00195 -25.6572 -4.00293 -51.3467 -4.55566 -77.1562c-0.696289 -32.5742 -60.0723 -37.7617 -57.5264 -1.32129c2.16992 31.1172 4.4834 62.0742 12.6729 92.2949
c5.69141 21.0225 13.8174 52.8203 40.4355 53.4766c5.58008 0.135742 11.5762 -2.45801 14.1943 -7.64551z" />
    <glyph glyph-name="quotedbl" unicode="&#x201c;" horiz-adv-x="265" 
d="M70.2412 760.68c4.94727 24.7607 45.1895 30.5156 45.4375 1.04004c0.552734 -65.252 -7.49316 -133.971 -17.8037 -198.342c-4.21875 -26.3623 -48.8252 -31.8857 -47.8564 -1.09668c2.0498 65.3164 7.42188 134.275 20.2227 198.398zM211.592 761.039
c8.29395 -16.4355 -3.19531 -42.2529 -5.2207 -59.6484c-3.00195 -25.6572 -4.00293 -51.3467 -4.55566 -77.1562c-0.696289 -32.5742 -60.0723 -37.7617 -57.5264 -1.32129c2.16992 31.1172 4.4834 62.0742 12.6729 92.2949
c5.69141 21.0225 13.8174 52.8203 40.4355 53.4766c5.58008 0.135742 11.5762 -2.45801 14.1943 -7.64551z" />
    <glyph glyph-name="numbersign" unicode="#" horiz-adv-x="851" 
d="M795.09 466.048c20.6377 -23.2881 -21.1426 -56.4932 -39.083 -34.3984c-33.8311 41.6846 -113.517 31.7256 -163.671 27.8594c-2.47363 -38.1377 -4.88281 -76.2832 -7.0127 -114.438c-0.576172 -10.2549 -1.0166 -20.5098 -1.53711 -30.7646
c48.4326 3.59473 95.8809 -1.35254 134.435 -25.7529c34.3672 -21.751 -7.31738 -72.3848 -36.8975 -52.083c-30.333 20.8057 -65.0928 22.9668 -100.188 20.749c-6.59668 -160.276 -6.85254 -320.809 -0.44043 -481.093
c2.19336 -54.8369 -94.2158 -85.1211 -97.8584 -25.6006c-10.1426 165.656 -4.62695 331.216 8.3418 496.424c-32.0938 -4.8916 -64.0195 -10.9199 -95.7773 -17.7725c-6.30859 -1.36133 -12.6172 -2.80273 -18.9258 -4.21191
c-4.52344 -142.096 -4.93945 -284.216 -6.52441 -426.424c-0.600586 -54.5166 -94.8564 -62.4502 -95.7129 -2.19336c-1.9375 136.061 4.69922 272.337 15.6182 408.101c-60.4971 -15.1387 -120.778 -31.6143 -180.61 -48.041
c-17.1396 -4.70703 -18.4688 17.2197 -4.09863 22.7275c62.7061 24 125.004 47.6396 188.383 68.2939c2.69824 31.1572 5.53223 62.29 8.58984 93.3672c1.96973 20.0537 4.13086 40.083 6.35645 60.1045c-82.9521 -25.6494 -164.432 -56.1904 -245.303 -87.6436
c-12.665 -4.92383 -18.6455 14.625 -6.70898 19.4043c84.0088 33.6309 169.042 67.6543 255.332 96.9463c7.30859 62.2979 15.7383 124.468 25.4004 186.47c13.9932 89.7803 37.4414 177.287 53.5801 266.468c2.42578 13.4014 26.5859 16.291 24.6562 0.560547
c-11.0391 -90.2051 -11.2314 -182.756 -17.9961 -273.474c-3.875 -51.9316 -7.17285 -103.919 -10.1826 -155.922c21.5186 6.43652 43.1016 12.6328 64.7959 18.2207c20.79 5.34766 41.7803 10.127 62.8984 14.3135c5.86816 49.0254 12.2402 97.9863 18.917 146.932
c12.665 92.8945 24.8408 187.663 48.8574 278.412c5.12305 19.3574 35.4961 16.4756 36.1367 -3.51367c3.06641 -95.9688 -8.15723 -193.291 -15.3945 -288.916c-3.03418 -40.1553 -5.86035 -80.3428 -8.58203 -120.538c18.8047 2.02539 37.6572 3.47461 56.5498 4.09082
c49.5537 1.61719 108.001 3.58691 143.657 -36.6641zM498.761 335.272c3.57031 38.3779 7.70898 76.6748 12.0879 114.94c-35.2559 -5.62012 -70.2236 -13.1055 -104.855 -21.7998c-6.85254 -1.7207 -13.6494 -3.61816 -20.4785 -5.42773
c-1.48926 -26.7939 -2.93066 -53.5879 -4.29199 -80.374c-1.18457 -23.3115 -2.20898 -46.623 -3.11328 -69.9346c17.6123 4.73926 35.3125 9.27832 53.2207 13.3213c19.9258 4.49902 41.6689 9.79102 64.2998 14.6348c1.00879 11.5439 2.0498 23.0957 3.13086 34.6396z" />
    <glyph glyph-name="dollar" unicode="$" horiz-adv-x="684" 
d="M617.632 681.786c38.666 -18.8691 0.00976562 -76.7236 -34.8057 -64.2754c-65.6367 23.4795 -154.2 -26.0977 -211.255 -56.7188c-8.24512 -4.42676 -16.4824 -8.97363 -24.6963 -13.6328c-6.37207 -89.5723 -10.8955 -179.289 -12.5527 -269.078
c-0.400391 -21.8467 -0.584961 -43.7012 -0.600586 -65.5479c2.99414 -2.15332 5.99609 -4.2832 8.98242 -6.44434c80.1104 -58.0635 202.697 -139.991 207.204 -250.13c4.35449 -106.456 -104.151 -146.019 -190.962 -119.208
c5.74805 -44.334 11.1436 -88.6758 13.585 -133.114c1.7207 -31.2373 -44.5107 -47.2324 -55.166 -14.4346c-19.5176 60.0889 -28.4756 125.173 -33.6875 189.904c-59.5205 49.4971 -92.6465 124.212 -98.9707 203.025c-1.06445 13.2168 21.9434 20.4854 23.5049 6.14746
c6.00391 -54.9648 32.334 -103.59 71.0967 -141.952c-0.696289 12.9932 -1.3291 25.9062 -1.96191 38.6748c-2.40137 48.6328 -3.52246 97.3057 -3.63477 145.994c-10.5107 7.125 -21.0459 14.2256 -31.5811 21.3662c-70.6074 47.832 -214.473 127.126 -189.184 231.013
c12.4082 50.9707 58.583 92.5186 97.9297 124.244c45.9912 37.0811 96.7539 69.8477 148.181 98.8037c0.632812 0.352539 1.28125 0.696289 1.92188 1.04883c6.33984 76.0752 12.6396 155.129 34.7744 226.497c3.59473 11.5918 27.667 15.9229 28.9795 0.712891
c5.5957 -64.9082 -2.16992 -132.594 -9.50293 -199.087c33.3984 15.9229 67.7979 29.7725 103.021 40.9316c52.1396 16.5156 107.993 30.333 159.38 5.25977zM275.834 261.358c2.96191 84.417 9.03906 168.683 16.7402 252.804
c-35 -22.7754 -68.583 -47.8809 -98.7559 -75.8438c-15.7871 -14.6338 -51.2432 -45.2861 -46.8564 -69.6543c4.11523 -22.8633 39.0107 -44.6699 55.1338 -58.0391c23.8164 -19.7578 48.5527 -38.2422 73.5537 -56.374c0.0800781 2.36914 0.104492 4.73828 0.18457 7.10742
zM380.689 53.5625c-14.5859 11.7676 -29.5469 22.9199 -44.6455 33.8789c1.30469 -33.7432 3.16211 -67.4619 5.72363 -101.141c2.21777 -29.2119 5.55566 -58.3594 9.19824 -87.499c52.2109 -22.1748 119.656 -32.542 123.619 30.1084
c3.21777 50.8262 -58.96 96.4893 -93.8955 124.652z" />
    <glyph glyph-name="percent" unicode="%" horiz-adv-x="710" 
d="M186.865 -137.993c-12.1758 -25.1934 -31.3037 -57.4443 -32.5928 -86.3115c-0.848633 -18.7246 -4.33887 -18.7168 10.1113 -14.1855c9.83887 3.08984 20.6299 16.5869 28.4756 23.7041c46.3438 42.0605 84.0488 91.4062 121.17 141.496
c68.6943 92.7109 133.146 190.297 227.329 259.52c26.5781 19.5332 74.6025 -1.10449 49.2412 -35.624c-1.4248 -1.92969 -2.82617 -3.88281 -4.24316 -5.82031c46.4551 -25.1611 70.3828 -76.6602 59.0312 -131.105c-13.873 -66.5332 -79.7334 -123.652 -142.504 -144.099
c-33.2861 -10.8389 -71.9922 -8.93359 -94.3516 21.0947c-12.168 16.3389 -15.0264 35.1758 -13.0566 54.1162c-19.1807 -26.0898 -38.0332 -52.5234 -57.3105 -78.6289c-31.6133 -42.8291 -64.7559 -85.0332 -101.557 -123.547
c-34.0312 -35.6084 -78.165 -71.9131 -131.481 -60.585c-58.3271 12.3848 -61.0088 81.0869 -50.041 127.959c13.833 59.1279 45.0938 112.476 74.6182 164.991c65.2764 116.118 138.654 228.37 213.745 338.333c37.8174 55.3896 76.9316 109.738 118.328 162.51
c25.8818 32.9902 52.4277 68.75 81.7598 100.852c-37.2168 5.03516 -76.707 6.58789 -109.562 20.8379c-32.2383 -28.7393 -64.8359 -57.0547 -98.2109 -84.4814c-36.4883 -29.9805 -74.0977 -66.2373 -115.918 -88.4766
c-30.8291 -16.3955 -75.0986 -18.2451 -94.3281 16.7705c-17.9238 32.6299 0.745117 73.4971 17.3008 102.324c41.8047 72.7695 124.477 130.48 204.467 153.496c31.3896 9.03027 77.3564 16.6357 106.809 -3.26562c11.1914 -7.55664 16.1143 -19.3164 14.7129 -30.5244
c18.292 -9.99121 49.4414 -10.0713 67.79 -13.4092c28.5312 -5.19531 58.4551 -13.625 87.5703 -13.665c32.3174 -0.0400391 44.8623 -29.9561 29.7402 -55.9336c-36.5928 -62.8428 -88.8037 -118.736 -130.696 -178.4
c-39.8105 -56.7021 -78.4844 -114.213 -115.981 -172.46c-76.8604 -119.409 -158.476 -239.435 -220.365 -367.481zM286.738 560.738c32.5342 26.7539 64.332 54.3486 95.793 82.3438c-14.042 -3.11426 -25.8262 -6.07617 -28.0674 -6.94922
c-20.1895 -7.86133 -39.6904 -18.1963 -58.0391 -29.6836c-38.3135 -23.9922 -74.7461 -55.7812 -94.2314 -97.3691c-18.6523 -39.8193 13.2168 -5.33984 27.4902 5.85156c19.1973 15.042 38.2178 30.3164 57.0547 45.8066zM521.305 42.668
c-5.35547 -10.4707 -46.4639 -94.3438 -37.8418 -98.8584c4.55469 -2.38574 37.1211 19.5332 42.8926 23.7119c15.3066 11.0879 29.7168 25.626 36.1533 43.7422c7.86133 22.127 3.24219 57.0303 -20.9824 67.3008c-7.16504 -11.752 -13.9854 -23.6963 -20.2217 -35.8965z
" />
    <glyph glyph-name="ampersand" unicode="&#x26;" horiz-adv-x="664" 
d="M589.727 253.761c5.97168 12.2725 29.499 9.3418 22.7666 -5.13965c-40.6992 -87.4189 -90.9736 -167.825 -153.568 -236.904c36.2246 -39.7471 80.2227 -73.3057 132.482 -98.4189c46.0234 -22.1191 -5.69922 -81.4551 -45.8389 -64.708
c-57.5273 24 -106.137 60.0889 -146.292 104.07c-41.2764 -36.2881 -87.1396 -68.1738 -138.223 -94.7197c-50.002 -25.9854 -170.163 -74.7305 -204.69 -0.992188c-33.0625 70.5918 71.3037 150.502 114.813 190.409c38.418 35.248 77.1807 69.9912 114.51 106.191
c-19.0127 58.3994 -29.8115 119.545 -32.6699 179.258c-4.34668 90.7412 -0.728516 193.995 40.6357 276.979c34.4951 69.2148 110.21 123.644 189.752 98.3301c79.3818 -25.2646 114.902 -111.955 111.316 -189.584c-4.27441 -92.4629 -60.5283 -178.873 -115.565 -249.753
c-32.8066 -42.2607 -69.0469 -81.3516 -106.969 -118.825c15.3779 -37.0566 34.7354 -71.9688 58.3438 -103.782c64.0117 59.4004 121.051 129.136 159.196 207.589zM193.745 -110.015c62.5947 21.3506 120.938 59.543 173.565 101.724
c-22.5117 30.6289 -41.6123 63.9951 -57.3994 99.0908c-8.53418 -7.8291 -17.1162 -15.6104 -25.7139 -23.3672c-39.3389 -35.4639 -80.1426 -69.5586 -117.151 -107.504c-11.7441 -12.04 -54.3975 -48.3369 -50.5625 -66.3174
c2.35352 -11.0391 26.7705 -13.6572 34.1436 -13.585c13.9619 0.144531 29.9648 5.46777 43.1182 9.95898zM348.85 218.55c7.02051 7.77344 13.9756 15.6104 20.7725 23.624c57.791 68.0859 122.387 150.99 137.557 241.315
c7.30078 43.4775 0.640625 92.8311 -29.7236 126.87c-26.9385 30.1963 -63.2188 35.0713 -93.4229 6.54004c-33.3906 -31.541 -42.7412 -88.3711 -49.3613 -131.272c-7.86133 -51.0029 -9.66211 -102.83 -5.35547 -154.241
c3.23438 -38.5537 9.70312 -76.4033 19.5342 -112.836z" />
    <glyph glyph-name="quotesingle" unicode="'" horiz-adv-x="185" 
d="M72.3506 776.594c5.80371 33.8945 66.9014 40.6904 61.874 1.41602c-9.47852 -74.1387 -15.6748 -148.677 -17.4922 -223.407c-0.920898 -37.7773 -68.1582 -43.8135 -66.709 -1.5293c2.57812 75.1553 9.63867 149.382 22.3271 223.521z" />
    <glyph glyph-name="quotesingle" unicode="&#x2019;" horiz-adv-x="185" 
d="M72.3506 776.594c5.80371 33.8945 66.9014 40.6904 61.874 1.41602c-9.47852 -74.1387 -15.6748 -148.677 -17.4922 -223.407c-0.920898 -37.7773 -68.1582 -43.8135 -66.709 -1.5293c2.57812 75.1553 9.63867 149.382 22.3271 223.521z" />
    <glyph glyph-name="quotesingle" unicode="&#x2018;" horiz-adv-x="185" 
d="M72.3506 776.594c5.80371 33.8945 66.9014 40.6904 61.874 1.41602c-9.47852 -74.1387 -15.6748 -148.677 -17.4922 -223.407c-0.920898 -37.7773 -68.1582 -43.8135 -66.709 -1.5293c2.57812 75.1553 9.63867 149.382 22.3271 223.521z" />
    <glyph glyph-name="parenleft" unicode="(" horiz-adv-x="456" 
d="M357.008 -245.866c47.376 13.8174 68.8779 -53.5557 24.584 -71.168c-133.795 -53.1963 -239.723 45.3027 -280.927 166.961c-48.6807 143.729 -53.3643 302.205 -49.6895 452.562c3.7627 154.192 23.6885 313.228 81.8154 457.165
c29.4922 73.0254 136.116 251.034 230.748 146.604c10.0791 -11.1191 -8.91016 -26.4258 -18.9893 -16.6992c-95.4004 92.0781 -168.738 -214.577 -177.712 -263.946c-20.6455 -113.581 -26.8174 -228.659 -26.8174 -343.93c0 -118.896 9.63867 -238.249 39.123 -353.728
c19.8613 -77.8125 74.9785 -203.834 177.864 -173.821z" />
    <glyph glyph-name="parenright" unicode=")" horiz-adv-x="455" 
d="M385.843 350.418c18.9092 -141.408 30.3857 -291.405 0.853516 -432.221c-21.0303 -100.3 -88.9238 -301.796 -227.233 -272.784c-38.3057 8.03711 -32.1094 56.3662 -2.85742 71.6963c44.5586 23.3438 70.2959 46.1514 91.3906 93.4551
c22.623 50.7461 36.8408 104.687 44.7266 159.58c15.8271 110.194 8.43848 221.702 -1.64844 332.041c-10.9277 119.537 -27.1387 239.746 -48.3047 357.906c-9.93457 55.4531 -18.9082 113.332 -38.8818 166.256c-18.2686 48.4092 -75.5391 116.711 -132.418 73.9863
c-12.5928 -9.46289 -30.1406 5.25098 -16.5479 16.1064c36.7051 29.3242 86.4912 34.6562 129.456 15.2109c52.916 -23.9443 83.1924 -79.958 102.718 -131.585c54.0449 -142.921 78.5732 -298.803 98.7471 -449.648z" />
    <glyph glyph-name="asterisk" unicode="*" horiz-adv-x="384" 
d="M318.44 458.763c33.583 -12.2324 6.23047 -52.9072 -22.6689 -41.876c-31.71 12.0967 -56.375 32.2939 -79.8232 54.8135c0.913086 -32.0215 2.19434 -64.0352 2.78711 -96.1133c0.456055 -24.9854 -44.6221 -33.4072 -49.6016 -7.03711
c-7.2207 38.25 -8.64551 77.4443 -8.50977 116.503c-30.0439 -27.1787 -59.4795 -55.0537 -91.3252 -80.0947c-9.34277 -7.34082 -25.1855 0.416016 -17.0361 12.3203c27.7549 40.5635 62.498 79.8623 100.636 116.055c-31.3096 29.0918 -64.2676 56.8467 -97.6182 83.0566
c-11.1191 8.74219 6.47656 23.5762 16.6191 18.4131c32.0459 -16.3066 61.6816 -34.1025 89.9805 -54.7646c0.488281 40.6992 1.33691 81.6465 5.92383 121.674c2.5293 22.0713 44.2051 33.5186 47.1914 6.69238c4.41113 -39.6504 2.70605 -80.0459 1.24121 -120.169
c26.3135 20.8301 53.2598 39.9873 79.9414 56.8467c19.8691 12.5605 39.4902 -13.6416 21.8545 -29.0596c-32.582 -28.4834 -67.0049 -54.8535 -100.588 -82.208c30.749 -28.9316 61.2256 -60.5615 100.996 -75.0518z" />
    <glyph glyph-name="plus" unicode="+" horiz-adv-x="375" 
d="M312.581 272.677c23.2559 -5.25977 10.5127 -35.5771 -8.82812 -35.7051c-27.667 -0.160156 -55.0059 0.560547 -82.4482 -0.0957031c0.112305 -10.375 0.248047 -20.7256 0.448242 -31.0205c1.57715 -81.4873 3.94629 -163.415 0.328125 -244.862
c-1.8252 -41.1318 -70.1113 -46.335 -71.5439 -1.64062c-2.5293 78.8936 -0.648438 158.011 -1.08887 236.944c-0.0644531 11.4395 -0.256836 22.9268 -0.489258 34.4229c-28.6992 -4.10645 -57.3506 -9.03809 -86.2666 -9.17383
c-19.0293 -0.0878906 -14.418 21.623 -0.880859 26.6982c25.8818 9.70215 55.4375 17.7236 86.1865 23.3271c-1.38477 54.0449 -2.66602 108.313 1.59277 161.758c2.36914 29.7002 56.6943 43.0371 61.6416 8.74219c7.68555 -53.2119 9.03809 -107.921 9.63867 -162.286
c32.1816 1.27246 63.6514 -0.768555 91.71 -7.1084z" />
    <glyph glyph-name="comma" unicode="," horiz-adv-x="244" 
d="M133.499 126.322c20.5977 34.6074 79.4141 9.00586 55.2373 -29.124c-23.3281 -36.7852 -46.7998 -73.874 -73.7861 -108.129c-14.5303 -18.4365 -33.2949 -44.6699 -59.7051 -34.3594c-4.38672 1.70508 -6.54004 8.48535 -4.42676 12.5117
c15.2666 55.5898 53.4287 109.963 82.6807 159.101z" />
    <glyph glyph-name="hyphen" unicode="-" horiz-adv-x="375" 
d="M307.103 261.102c33.791 -6.67676 13.7295 -48.832 -12.4326 -50.2334c-74.0342 -3.9707 -147.572 2.28906 -221.79 -4.7959c-31.3574 -2.99414 -29.1318 43.5898 -1.56934 47.7051c76.3721 11.4072 159.276 22.4463 235.792 7.32422z" />
    <glyph glyph-name="period" unicode="." horiz-adv-x="169" 
d="M112.833 25.4854c8.11719 -16.9316 6.57129 -37.8975 2.98535 -56.0215c-3.50684 -17.7803 -17.6924 -29.8203 -35.9043 -30.8926c-14.7695 -0.873047 -33.3906 12.9287 -29.3555 29.3955c4.03516 16.459 4.12305 33.6787 9.35059 49.7139
c6.57227 20.1494 42.4766 29.5957 52.9238 7.80469z" />
    <glyph glyph-name="slash" unicode="/" horiz-adv-x="594" 
d="M466.112 814.892c27.5791 43.3896 100.355 11.8154 70.3428 -37.082c-186.63 -303.974 -302.74 -639.28 -427.072 -971.673c-12.4004 -33.1504 -69.5029 -25.7217 -57.8154 13.0244c103.67 343.585 220.806 690.988 414.545 995.73z" />
    <glyph glyph-name="zero" unicode="0" horiz-adv-x="548" 
d="M346.937 682.646c114.373 -76.3477 149.88 -248.77 151.312 -376.952c0.808594 -71.8086 -12.1201 -144.05 -37.3369 -211.327c-24.5605 -65.5322 -61.3535 -137.677 -120.266 -178.473c-59.2725 -41.0439 -131.714 -39.1064 -186.135 8.83008
c-51.9951 45.8154 -76.3721 119.354 -87.1631 185.767c-20.374 125.381 -13.1855 259.888 11.0713 387.374c-10.5996 -4.25879 -24.2168 -1.75293 -26.5781 10.96c-13.0732 70.4395 45.8066 144.506 102.757 179.697c61.3057 37.8818 132.97 33.751 192.338 -5.87598z
M386.134 111.227c50.5225 126.773 51.4443 273.007 8.89551 402.15c-23.2002 70.416 -70.9365 156.475 -155.93 157.043c-26.6904 0.175781 -52.5879 -9.93457 -75.0596 -26.2334c18.4521 -3.25781 32.8701 -15.7139 28.083 -37.8564
c-33.3262 -154.024 -62.3135 -322.402 -37.4648 -479.901c8.39746 -53.1963 29.7559 -138.774 88.3311 -160.108c71.416 -26.002 123.235 94.9443 143.145 144.906z" />
    <glyph glyph-name="one" unicode="1" horiz-adv-x="412" 
d="M331.715 739.277c31.541 6.58008 40.7793 -29.4727 15.498 -44.8828c-16.2988 -9.94238 -33.543 -18.4922 -51.0986 -26.6416c9.59863 -53.5078 10.9277 -110.683 15.5068 -163.519c5.50781 -63.4746 10.1992 -127.038 15.1621 -190.562
c10.2627 -131.473 20.5176 -263.146 24.0322 -394.986c1.38477 -52.0596 -100.805 -71.8809 -104.983 -14.8818c-9.75879 133.17 -12.8086 266.933 -17.2998 400.375c-2.19336 65.1084 -4.93164 130.217 -6.78906 195.341c-1.20898 42.6533 -4.875 87.4834 -4.58691 131.474
c-5.87598 -3.0498 -11.6875 -6.1875 -17.4033 -9.48535c-43.1572 -24.9287 -83.8564 -65.3721 -131.129 -80.8867c-9.84668 -3.23438 -22.8232 6.53223 -17.3076 17.2676c23.1436 45.0781 78.5332 75.5225 120.073 102.373c15.6025 10.0791 32.2461 20.8066 49.5303 31.0859
c0.335938 2.68164 0.543945 5.39551 0.944336 8.05371c4.09082 27.0986 39.8506 39.6992 57.2783 22.4795c17.4121 7.61328 35.04 13.7295 52.5723 17.3955z" />
    <glyph glyph-name="two" unicode="2" horiz-adv-x="577" 
d="M455.812 -5.41113c59.4561 28.1631 101.664 -49.6484 42.2158 -79.3965c-67.6699 -33.8789 -317.239 -162.094 -337.005 -11.6875c-8.22949 62.6104 39.5146 131.377 69.1904 182.315c35.1514 60.3369 72.5605 119.329 106.735 180.234
c34.2148 60.9609 66.3408 123.195 88.0439 189.864c20.1494 61.8896 43.6377 166.688 -23.7676 209.005c-65.3887 41.0518 -157.883 -3.0498 -210.511 -46.6074c-19.7412 -16.3389 -141.504 -156.778 -91.9268 -175.543
c13.249 -5.01953 -0.104492 -23.5605 -11.2236 -20.7344c-108.506 27.5791 48.7129 199.047 87.2109 228.371c74.8027 56.9668 190.385 100.22 277.212 43.5098c95.7686 -62.5547 70.4473 -212.48 40.7471 -303.51c-38.498 -118 -104.999 -223.76 -165.136 -331.457
c-15.7705 -28.2432 -32.3096 -56.4785 -45.3584 -86.1143c-4.80371 -10.8877 -12.0811 -24.2969 -12.8574 -36.3535c-0.120117 -1.80078 -0.416016 -3.04199 -0.791992 -3.93848c0.232422 -0.0644531 0.432617 -0.0966797 0.688477 -0.18457
c4.61914 -1.54492 14.1533 0.873047 18.8604 1.51367c59.1436 8.03711 114.396 35.4717 167.673 60.7129z" />
    <glyph glyph-name="three" unicode="3" horiz-adv-x="675" 
d="M516.372 401.881c124.877 -60.7695 132.532 -208.361 71.3711 -318.636c-58.6553 -105.76 -160.084 -210.223 -281.438 -238.562c-55.2051 -12.8887 -115.126 -5.77148 -150.422 42.8857c-38.3301 52.8281 -31.9014 123.844 -10.3184 182.02
c11.752 31.6777 65.4287 31.8779 64.7646 -6.31543c-0.744141 -42.7725 -15.6504 -96.8975 16.7158 -132.281c30.9014 -33.7832 84.9619 -8.08594 117.56 10.1748c72.1289 40.4033 133.931 115.967 165.96 191.634c35.4805 83.8252 14.7783 175.863 -81.0303 199.936
c-86.1299 21.6465 -169.851 -24.6572 -244.598 -61.7383c-48.2803 -23.9521 -91.6621 29.1475 -50.9141 67.71c55.4854 52.5312 111.123 105.022 163.062 161.108c40.2275 43.4453 121.555 116.951 116.392 182.46c-6.9248 87.8193 -150.526 13.041 -187.728 -11.0791
c-54.1807 -35.1357 -116.703 -93.623 -132.241 -158.595c-5.5 -22.9834 -43.5654 -29.7236 -43.5098 -0.992188c0.160156 83.6084 88.6123 160.917 152.824 202.705c61.1777 39.8193 168.034 92.2949 236.561 41.0605c75.3311 -56.3184 15.1543 -166.104 -25.2168 -223.928
c-27.1299 -38.8584 -57.0537 -75.7949 -88.251 -111.707c63.2588 13.873 128.062 12.4961 190.457 -17.8604z" />
    <glyph glyph-name="four" unicode="4" horiz-adv-x="646" 
d="M563.292 161.63c3.1377 -99.1709 9.45996 -198.574 31.707 -294.976c7.4375 -32.2461 -52.4668 -58.2637 -64.043 -25.0488c-33.3984 95.8408 -48.873 194.46 -57.8154 294.376c-92.4863 -25.0732 -185.821 -47.4326 -278.107 -73.0098
c-33.0859 -9.16602 -106.224 -43.9814 -136.636 -11.375c-27.3066 29.2754 19.3252 78.9648 35.5205 101.348c64.292 88.8525 138.694 170.283 203.954 258.631c59.0557 79.9502 112.26 162.687 158.884 249.945c0.392578 8.85352 0.665039 17.7158 1.16895 26.5537
c2.60156 45.6709 92.0703 65.5244 94.3838 13.3848c6.17188 -139.11 4.08203 -278.557 7.83691 -417.755c0.536133 -19.9736 0.992188 -40.0107 1.47266 -60.0801c35.4883 0.913086 38.5225 -50.3301 1.67383 -61.9941zM322.951 154.905
c48.4326 14.4502 96.7676 29.5459 145.288 43.876c-1.22461 18.4443 -2.32129 36.9209 -3.33789 55.4219c-6.17188 112.524 -11.8799 225.913 -10.2148 338.869c-35.9043 -74.5625 -77.5088 -146.659 -123.324 -214.97
c-33.8945 -50.5303 -71.3037 -98.8193 -109.273 -146.323c-20.1816 -25.249 -40.6191 -50.2822 -60.1846 -76.0117c-8.19727 -10.791 -36.9531 -41.46 -48.1045 -62.3057c14.4502 2.12988 31.6699 9.99902 41.3086 12.7373c20.3662 5.78027 40.7324 11.5684 61.0986 17.3486
c35.6797 10.127 71.2002 20.75 106.744 31.3574z" />
    <glyph glyph-name="five" unicode="5" horiz-adv-x="655" 
d="M532.826 329.087c95.7852 -78.0205 85.5488 -214.593 29.2549 -312.451c-53.4443 -92.8867 -165.16 -207.917 -279.846 -212.112c-159.764 -5.85156 -93.583 200.2 -59.3594 283.969c17.4199 42.6533 93.4072 33.543 76.0195 -17.123
c-9.90234 -28.8672 -64.8916 -178.585 -7.42871 -181.892c51.3389 -2.9541 110.059 60.8809 141.216 94.6475c41.0195 44.4541 76.6035 99.291 80.1338 161.341c3.12988 55.0693 -22.7432 116.007 -78.6533 134.051c-61.2256 19.7578 -121.194 -19.7812 -170.468 -51.1543
c-41.2441 -26.2734 -103.759 -23.7354 -97.8428 39.7236c6.13184 65.748 27.0576 133.578 40.4424 198.294c11.5996 56.0859 24.5684 111.892 36.9043 167.833c-52.3477 -17.46 -103.999 -37.8174 -151.247 -65.3799c-28.9473 -16.8916 -57.9668 19.8535 -31.6289 42.0527
c35.9121 30.2686 81.2471 45.4629 124.5 62.2266c29.084 11.2715 58.3594 21.9912 87.9473 31.79c5.66797 3.18652 11.9277 5.1875 18.0918 5.95605c12.873 4.04297 25.8096 7.90137 38.8506 11.4561c46.9678 12.8086 95.0078 22.2627 143.537 26.6494
c38.458 3.47461 85.8584 10.6797 109.307 -25.9854c13.2568 -20.7256 -16.876 -47.9043 -37.29 -40.8516c-68.4141 23.6396 -157.995 -3.69922 -226.449 -24.249c-9.14258 -63.1631 -17.1396 -126.494 -26.8906 -189.553
c-5.50781 -35.5684 -11.208 -71.1045 -16.8037 -106.656c-1.79297 -11.3838 -3.58594 -22.7754 -5.37891 -34.167c32.0137 17.7158 64.4033 33.4629 103.622 39.5391c56.166 8.70215 114.605 -1.41699 159.46 -37.9541z" />
    <glyph glyph-name="six" unicode="6" horiz-adv-x="556" 
d="M354.127 249.361c50.2656 26.3057 122.963 22.2773 145.435 -37.8838c21.3584 -57.1504 -13.4971 -130.584 -40.2188 -180.09c-40.4111 -74.8662 -113.013 -159.596 -196.005 -177.624c-0.3125 -15.6426 -0.888672 -31.293 -2.10547 -46.9434
c-2.0332 -26.0977 -47.1279 -36.3682 -52.9717 -7.50879c-3.4502 17.0674 -6.07617 35.3438 -7.82129 54.3809c-20.3896 4.58691 -41.0596 13.8809 -61.7295 28.9395c-128.351 93.5195 -90.3564 300.22 -52.5713 429.123c22.7676 77.6924 54.2529 151.791 92.8789 222.896
c36.6572 67.4775 77.1963 137.653 139.438 184.461c23.1836 17.4355 67.4131 -2.08203 43.6445 -31.5742c-88.2041 -109.434 -148.413 -246.774 -186.967 -381.065c-20.6943 -72.0732 -35.4482 -149.325 -28.2754 -224.561
c3.99512 -41.9082 18.0371 -100.188 52.6523 -130.832c8.53418 120.018 53.4121 245.318 154.616 298.282zM386.669 40.5225c16.9551 25.9131 101.173 188.718 8.27832 168.969c-69.8076 -14.8418 -107.689 -117.743 -120.53 -177.72
c-7.125 -33.2461 -9.33496 -66.6523 -10.1357 -100.123c51.1709 8.76562 97.0742 70.1836 122.388 108.874z" />
    <glyph glyph-name="seven" unicode="7" horiz-adv-x="562" 
d="M486.996 365.088c39.6191 3.85059 29.2061 -51.957 -5.97754 -54.9346c-26.8105 -2.25781 -53.4766 -5.25195 -80.0303 -8.85449c-3.08203 -14.2734 -6.08398 -28.5635 -9.00586 -42.877c-22.0312 -108.009 -34.752 -217.747 -57.0947 -325.62
c-12.1045 -58.4238 -115.734 -73.9619 -109.738 -2.51367c9.92676 118.28 36.4883 236.576 65.252 352.062c-14.7139 -3.04199 -29.4043 -6.22852 -44.0703 -9.68652c-36.6885 -8.64551 -43.085 41.252 -8.97363 49.7373c22.3027 5.54785 44.7021 10.583 67.1738 15.21
c15.5947 59.4805 33.4873 118.32 53.5332 176.464c9.81445 28.4512 20.085 56.7588 30.9961 84.8096c3.9707 10.207 19.3174 37.7139 28.0752 59.2168c-4.92285 -0.3125 -9.8457 -0.520508 -14.7607 -0.944336c-16.1709 -1.36133 -32.2939 -3.29102 -48.3525 -5.62012
c-34.167 -4.94727 -68.1416 -11.2559 -102.125 -17.3076c-62.4258 -11.1191 -124.684 -22.335 -188.183 -16.0664c-23.6719 2.33789 -12.9844 34.3271 4.09961 38.4258c104.703 25.0967 211.071 54.1484 317.615 70.0234c32.71 4.875 92.7744 22.1348 115.149 -12.9365
c22.3594 -35.0557 -14.8896 -99.4512 -26.0488 -134.043c-23.7197 -73.4893 -43.709 -148.1 -61.1768 -223.311c24.4648 3.41797 49.0098 6.37988 73.6426 8.76562z" />
    <glyph glyph-name="eight" unicode="8" horiz-adv-x="623" 
d="M154.492 598.374c81.2793 84.7617 290.525 219.525 387.03 85.2021c50.6104 -70.4473 28.1387 -169.082 15.5938 -248.128c-12.6963 -80.0225 -24.1357 -167.073 -51.2656 -244.662c47.0156 -56.1738 42.0283 -124.18 7.02051 -188.207
c-59.9043 -109.554 -252.827 -219.54 -350.277 -89.668c-41.7646 55.6533 -42.7969 138.573 -29.4922 203.985c9.87891 48.585 28.251 96.1211 55.3174 137.813c-63.7793 26.1055 -131.385 67.1494 -137.877 141.479c-6.87695 78.7891 53.0439 149.101 103.95 202.185z
M160.12 475.163c-29.9326 -49.4258 -22.2783 -90.9863 26.7949 -121.999c19.6455 -12.416 40.9082 -22.3428 62.6025 -31.2051c7.67676 1.84082 15.4502 -1.51367 18.9482 -7.50195c9.50195 -3.62695 19.0205 -7.10938 28.459 -10.5762
c45.583 -16.7148 94.5039 -32.4697 137.806 -56.6943c5.86816 29.8525 13.1934 59.5762 18.9893 88.8438c10.3594 52.3076 19.5498 104.863 26.3867 157.747c5.95605 46.0869 18.8125 111.443 -18.9893 148.116c-32.0938 31.1328 -86.6748 10.1182 -121.347 -5.50879
c-72.9053 -32.8623 -138.254 -92.8633 -179.65 -161.222zM386.49 -43.8799c57.5107 42.0361 106.927 126.693 56.9014 186.069c-7.26855 2.64941 -13.2402 7.78906 -16.29 15.6426c-54.5254 43.2051 -126.767 58.6318 -192.715 80.0781
c-31.6689 -66.1084 -49.9053 -137.973 -39.1777 -212.567c5.86816 -40.7793 22.7676 -84.5127 65.4209 -98.4346c42.2041 -13.7773 91.6855 4.23535 125.86 29.2119z" />
    <glyph glyph-name="nine" unicode="9" horiz-adv-x="601" 
d="M500.541 562.781c33.999 -43.1172 43.4209 -112.419 48 -165.022c5.39551 -61.9297 1.47266 -125.013 -5.93262 -186.614c-13.1367 -109.33 -47.8242 -264.043 -160.517 -311.964c-61.6094 -26.1934 -100.035 44.751 -42.8281 80.543
c57.6387 36.0645 81.6064 130.696 97.3691 191.714c20.4775 79.3018 34.9434 162.062 37.6094 244.053c0.680664 21.1504 0.552734 42.5166 -0.791992 63.6426c-0.616211 9.67871 0.568359 49.7939 -5.94824 56.9424c-22.2949 24.457 -59.2637 -49.0645 -68.6221 -63.5225
c-37.5371 -58.0068 -71.5205 -118.472 -107.185 -177.64c-29.332 -48.6572 -61.3379 -112.356 -105.84 -149.021c-53.8604 -44.3818 -120.009 -14.9863 -132.554 50.6338c-12.8486 67.2139 14.2422 142.449 39.1152 203.835
c25.4336 62.7705 60.0166 124.469 104.919 175.399c51.6514 58.5752 216.354 176.095 266.94 53.2031c5.29199 -12.8564 -15.458 -24.416 -22.0869 -11.7432c-26.29 50.2656 -98.7949 -2.89844 -123.291 -25.3701c-23.7041 -21.7344 -43.1572 -48.5762 -60.0488 -75.8105
c-37.1133 -59.8242 -66.2129 -126.43 -85.4102 -194.18c-8.83789 -31.1895 -15.1543 -64.748 -13.2012 -97.3623c0.913086 -15.2988 -1.57617 -16.252 9.55957 -13.7705c11.5117 2.56934 21.7666 16.0986 29.5879 24.2959c45.2227 47.376 81.1992 101.396 116.175 156.481
c34.1748 53.8203 66.2842 112.604 107.864 161.149c21.1904 24.7451 52.6914 41.1006 77.1162 10.1279z" />
    <glyph glyph-name="colon" unicode=":" horiz-adv-x="177" 
d="M103.377 336.296c-0.0078125 -30.293 -57.1426 -34.6465 -53.1797 -1.20801c2.32129 19.4854 3.79395 38.9863 5.49902 58.5195c1.48926 17.0596 2.21777 31.9814 17.5244 41.5557c35.3838 22.1348 30.1641 -84.7139 30.1562 -98.8672zM121.518 -34.9541
c4.36328 -19.7891 5.77246 -39.2578 5.48438 -59.5117c-0.264648 -18.5889 -21.2471 -31.3096 -37.5059 -32.2705c-18.2441 -1.08105 -30.9004 13.3848 -30.6602 30.7002c0.208008 14.7061 -0.552734 29.3877 -2.08203 44.1338
c-1.86523 18.0684 10.2705 32.3184 27.1621 37.418c15.875 4.80371 33.9512 -3.91406 37.6016 -20.4697z" />
    <glyph glyph-name="semicolon" unicode=";" horiz-adv-x="246" 
d="M105.533 395.721c-1.92969 7.88574 -3.99316 15.6182 -4.91406 23.6953c-1.64062 14.3457 7.22949 26.5059 20.2939 31.6289c11.7764 4.61914 28.4912 2.57812 34.7031 -10.1182c4.5791 -9.35059 7.5166 -19.4131 10.8389 -29.2676
c2.35352 -6.96484 -1.50488 -15.4902 -5.22754 -21.2705c-4.56348 -7.07715 -12.457 -11.5439 -20.3262 -13.9219c-15.1865 -4.59473 -31.582 3.78711 -35.3682 19.2539zM195.556 67.3857c4.33105 -101.533 -26.3398 -214.553 -67.2393 -306.815
c-18.3721 -41.4277 -93.5029 -33.5186 -75.5703 17.0195c16.8438 47.4717 34.3838 94.5996 49.2422 142.752c14.834 48.0967 23.8398 97.8828 39.3467 145.715c6.79688 20.9658 52.9883 30.2363 54.2207 1.3291z" />
    <glyph glyph-name="less" unicode="&#x3c;" horiz-adv-x="436" 
d="M357.373 202.029c52.1631 -5.95605 24.418 -83.3184 -19.9482 -80.6367c-68.1338 4.11523 -135.523 -10.2148 -203.481 -5.83594c-41.2998 2.6582 -100.724 19.502 -79.4854 74.043c9.95898 25.5771 36.3213 38.5615 58.3838 52.3467
c29.6758 18.5488 60.1602 36.0645 91.1807 52.251c41.1396 21.4707 102.021 62.3379 150.357 55.0771c21.1826 -3.18652 16.2031 -30.3408 1.52148 -38.2178c-16.5791 -8.90234 -32.2617 -24.7451 -48.4727 -35.0557c-19.0771 -12.1279 -38.5547 -23.6719 -57.832 -35.4883
c-21.126 -12.9531 -42.2607 -28.7236 -63.7715 -43.0137c15.835 0.664062 31.6377 2.00098 47.4326 3.3457c41.7959 3.55469 82.3672 5.95605 124.115 1.18457z" />
    <glyph glyph-name="equal" unicode="=" horiz-adv-x="618" 
d="M535.098 391.117c50.7227 -1.00879 37.5537 -69.9365 -7.56445 -69.6719c-149.621 0.864258 -297.962 -6.30859 -445.662 -31.6533c-37.0654 -6.36426 -44.0225 42.3643 -9.05469 50.1699c151.286 33.7432 307.048 54.2295 462.281 51.1553zM512.234 240.351
c21.8711 2.35352 40.3779 -17.4502 38.4883 -38.5449c-2.16113 -24.0723 -25.1924 -38.1621 -47.0791 -40.5078c-130.312 -13.9854 -258.583 -39.7305 -388.511 -55.333c-41.708 -5.01172 -32.0771 49.5049 -1.96094 59.5273
c127.078 42.3242 266.269 60.6084 399.062 74.8584z" />
    <glyph glyph-name="greater" unicode="&#x3e;" horiz-adv-x="489" 
d="M416.586 328.547c12.8408 -2.27344 25.2988 -16.6104 22.3447 -30.1396c-12.9209 -59.1758 -83.9453 -76.3477 -132.923 -97.9463c-68.2061 -30.0762 -136.508 -61.7217 -206.251 -88.0117c-45.0225 -16.9639 -63.5635 48.8643 -23.4639 67.9336
c50.2822 23.9043 102.813 43.75 154.192 65.2207c25.7852 10.7754 51.5703 21.4863 77.54 31.7891c2.36133 0.936523 6.93262 2.31348 12.5205 4.00293c-31.0771 5.67578 -62.3066 10.4873 -93.7441 14.002c-54.373 6.08398 -111.315 4.7793 -164.848 16.2188
c-19.7656 4.21875 -12.5049 29.9004 3.59375 33.6787c110.395 25.9131 241.027 2.7373 351.038 -16.748z" />
    <glyph glyph-name="question" unicode="?" horiz-adv-x="549" 
d="M456.688 761.608c50.3457 -36.3447 45.9082 -102.491 37.0381 -157.2c-11.2314 -69.3828 -32.7656 -137.493 -52.9551 -204.683c-44.5498 -148.252 -88.0352 -294.479 -103.613 -449.104c-5.30762 -52.6914 -97.7383 -61.6494 -93.7832 -2.14551
c14.7383 221.958 115.126 424.19 172.813 635.934c11.9121 43.7178 36 126.59 -28.6035 138.35c-48.8486 8.90234 -109.649 -30.4199 -146.946 -58.2627c-52.0752 -38.874 -198.278 -191.025 -109.218 -253.22c25.417 -17.7402 -4.20312 -54.5732 -28.5078 -40.2432
c-115.271 67.9336 -15.5312 221.533 47.7998 288.45c66.5254 70.2871 209.294 171.939 305.976 102.124zM312.747 -148.55c15.7471 -9.47852 15.542 -26.1826 7.56055 -38.8555c-0.0957031 -0.960938 -0.167969 -1.80957 -0.183594 -2.39355
c-0.0957031 -3.75488 -0.271484 -7.50977 -0.34375 -11.2646c-0.135742 -7.09277 -0.191406 -14.21 0.0732422 -21.3027c0.75293 -20.1572 -11.9355 -36.6084 -32.5732 -39.4268s-34.3105 9.99023 -34.8467 29.8594c-0.463867 17.3232 -1.52832 35.9277 2.25781 52.915
c5.41992 24.2969 33.8711 45.0146 58.0557 30.4688z" />
    <glyph glyph-name="at" unicode="@" horiz-adv-x="1057" 
d="M886.071 693.682c200.319 -125.877 115.898 -420.317 2.36523 -575.942c-51.2188 -70.2314 -159.324 -191.329 -254.461 -119.576c-56.4219 42.5566 -62.4023 125.541 -53.332 201.769c-14.4902 -21.4629 -28.0918 -43.4053 -41.8047 -63.5469
c-31.749 -46.6318 -63.7305 -93.4873 -102.188 -134.932c-32.8623 -35.4082 -74.8984 -98.4512 -131.36 -80.4072c-52.0996 16.6514 -49.626 77.9971 -41.3965 121.618c20.2773 107.505 77.3564 207.749 159.492 280.094c37.7139 33.2148 89.8691 70.0879 141.561 74.123
c40.0752 3.12988 79.5498 -19.6455 75.3945 -63.6914c-0.34375 -3.66602 -2.02441 -6.78027 -4.40234 -9.27832c11.9443 -1.47266 22.0947 -9.83008 22.1191 -25.5049c0.0722656 -55.502 -6.49219 -110.371 4.20312 -165.456
c3.85059 -19.8379 8.95801 -45.2227 23.4639 -60.3691c22.0713 -23.04 43.1738 -6.0127 63.1396 11.4951c67.3496 59.0557 115.606 145.763 142.705 230.116c25.9375 80.7266 34.8154 173.773 -7.7334 250.562c-41.9883 75.7949 -130.216 99.0586 -211.639 99.3789
c-167.361 0.664062 -322.05 -97.6348 -420.492 -228.491c-96.9775 -128.911 -168.402 -326.757 -99.668 -483.543c35.6162 -81.2471 106.104 -133.763 194.428 -143.993c91.6943 -10.623 179.266 24.0566 259.776 63.9473c43.333 21.4707 73.666 -35.1992 30.9092 -58.127
c-110.923 -59.4883 -243.309 -100.636 -368.313 -62.7939c-114.029 34.5117 -189.921 131.097 -211.207 246.703c-38.5137 209.222 73.6738 437.016 225.985 575.317c81.1348 73.6816 180.931 128.646 287.931 153.6c100.692 23.4883 224.128 23.7363 314.525 -33.0703z
M604.789 310.405c2.6416 3.62598 5.94043 6.48438 9.55078 8.67773c-3.41797 1.63281 -6.13184 4.65039 -7.21289 9.38184c-11.9121 52.3799 -95.2246 -29.8438 -109.826 -43.9092c-24.9131 -23.9922 -47.3203 -49.457 -66.4453 -78.3242
c-37.9854 -57.3428 -61.6338 -122.932 -69.4229 -191.233c-0.0400391 -0.320312 -0.0322266 -0.672852 -0.0644531 -1.00098c1.84961 1.28906 3.70703 2.57031 5.56445 3.85938c12.6963 13.1445 28.0342 24.0801 40.7627 37.5449
c25.2334 26.6816 47.4326 55.9336 68.7666 85.7617c41.2764 57.7109 86.627 112.14 128.327 169.242z" />
    <glyph glyph-name="A" unicode="A" horiz-adv-x="1200" 
d="M-15.8037 98.7959c17.4756 72.3613 113.604 121.249 176.039 145.762c83.1445 32.6377 174.927 46.1992 264.035 43.8379c72.2725 -1.91309 142.809 -15.9307 209.317 -40.3867c1.85742 5.82812 3.72266 11.6562 5.58008 17.4844
c62.9062 197.334 126.43 396.509 211.407 585.652c25.0166 55.6699 79.2217 198.198 162.942 167.329c37.7451 -13.9219 44.0371 -72.4414 48.5205 -106.328c6.25195 -47.2881 8.42188 -95.3604 11.4316 -142.937c13.2969 -209.902 21.6865 -419.797 50.5303 -628.362
c27.8271 -201.288 71.6406 -399.574 123.66 -595.899c13.4971 -50.9541 -76.0039 -77.46 -91.6221 -23.9678c-11.4316 39.1709 -22.0947 78.5732 -32.126 118.144c-5.2832 11.8965 -10.2949 23.9766 -15.5869 35.9131c-18.1562 41.0117 -37.4814 81.5107 -58.4561 121.161
c-42.2363 79.8379 -92.1104 154.608 -153.56 221.054c-60.3691 65.2764 -129.399 118.864 -205.635 158.035c-63.4346 -195.54 -125.093 -392.394 -199.936 -583.522c-8.59766 -21.9512 -55.6377 -24.0967 -48.8086 4.75488c47.8086 202.121 111.531 401.088 174.895 599.07
c-60.7607 -24.3369 -121.538 -48.6572 -182.876 -71.3682c-96.7295 -35.8164 -195.965 -69.1426 -297.481 -88.5078c-47.5283 -9.0625 -172.501 -20.6943 -152.271 63.082zM1059.32 -162.454c11.624 -21.2705 22.7119 -42.8359 33.3672 -64.6104
c-32.3018 151.206 -55.333 304.494 -70.6953 458.158c-3.51465 35.1602 -6.46094 70.3516 -9.0791 105.567c-103.462 -28.043 -203.89 -65.0684 -303.597 -104.279c-1.64941 -5.02734 -3.31445 -10.0391 -4.95605 -15.0664
c76.4199 -38.5059 145.707 -91.502 203.746 -156.242c60.0566 -66.9971 108.201 -144.802 151.214 -223.527zM845.355 628.971c-41.3164 -110.923 -78.6377 -223.336 -115.999 -335.644c-4.13867 -12.4404 -8.19727 -24.9287 -12.2959 -37.3848
c96.6738 37.8096 194.212 73.21 294.432 100.188c-5.66797 80.4463 -9.55078 161.021 -13.3135 241.595c-2.94629 63.0264 -6.38867 126.029 -10.7754 188.968c-0.736328 10.5996 -4.22656 98.4746 -11.5596 138.846c-10.5273 -15.6582 -19.1172 -34.4873 -25.6094 -47.2236
c-13.2646 -26.0332 -25.0811 -52.875 -36.7607 -79.6455c-24.3848 -55.8779 -46.8398 -112.572 -68.1182 -169.699zM440.306 246.896c-82.6318 6.8291 -166.607 2.22461 -246.565 -20.9268c-46.0947 -13.3369 -90.8613 -33.8867 -128.919 -63.4023
c-16.251 -12.6006 -33.9746 -27.3389 -45.1826 -44.583c-28.8838 -44.4297 8.77344 -66.8926 48.5762 -69.4307c48.9053 -3.12207 100.332 12.9932 147.26 25.2891c41.0273 10.751 81.6387 23.0557 121.89 36.4092c86.1787 28.5791 170.612 62.0742 254.821 95.9209
c4.55469 1.83301 9.10938 3.6582 13.6562 5.49121c-52.5156 18.3965 -107.793 30.4531 -165.536 35.2324z" />
    <glyph glyph-name="A" unicode="&#xc5;" horiz-adv-x="1200" 
d="M-15.8037 98.7959c17.4756 72.3613 113.604 121.249 176.039 145.762c83.1445 32.6377 174.927 46.1992 264.035 43.8379c72.2725 -1.91309 142.809 -15.9307 209.317 -40.3867c1.85742 5.82812 3.72266 11.6562 5.58008 17.4844
c62.9062 197.334 126.43 396.509 211.407 585.652c25.0166 55.6699 79.2217 198.198 162.942 167.329c37.7451 -13.9219 44.0371 -72.4414 48.5205 -106.328c6.25195 -47.2881 8.42188 -95.3604 11.4316 -142.937c13.2969 -209.902 21.6865 -419.797 50.5303 -628.362
c27.8271 -201.288 71.6406 -399.574 123.66 -595.899c13.4971 -50.9541 -76.0039 -77.46 -91.6221 -23.9678c-11.4316 39.1709 -22.0947 78.5732 -32.126 118.144c-5.2832 11.8965 -10.2949 23.9766 -15.5869 35.9131c-18.1562 41.0117 -37.4814 81.5107 -58.4561 121.161
c-42.2363 79.8379 -92.1104 154.608 -153.56 221.054c-60.3691 65.2764 -129.399 118.864 -205.635 158.035c-63.4346 -195.54 -125.093 -392.394 -199.936 -583.522c-8.59766 -21.9512 -55.6377 -24.0967 -48.8086 4.75488c47.8086 202.121 111.531 401.088 174.895 599.07
c-60.7607 -24.3369 -121.538 -48.6572 -182.876 -71.3682c-96.7295 -35.8164 -195.965 -69.1426 -297.481 -88.5078c-47.5283 -9.0625 -172.501 -20.6943 -152.271 63.082zM1059.32 -162.454c11.624 -21.2705 22.7119 -42.8359 33.3672 -64.6104
c-32.3018 151.206 -55.333 304.494 -70.6953 458.158c-3.51465 35.1602 -6.46094 70.3516 -9.0791 105.567c-103.462 -28.043 -203.89 -65.0684 -303.597 -104.279c-1.64941 -5.02734 -3.31445 -10.0391 -4.95605 -15.0664
c76.4199 -38.5059 145.707 -91.502 203.746 -156.242c60.0566 -66.9971 108.201 -144.802 151.214 -223.527zM845.355 628.971c-41.3164 -110.923 -78.6377 -223.336 -115.999 -335.644c-4.13867 -12.4404 -8.19727 -24.9287 -12.2959 -37.3848
c96.6738 37.8096 194.212 73.21 294.432 100.188c-5.66797 80.4463 -9.55078 161.021 -13.3135 241.595c-2.94629 63.0264 -6.38867 126.029 -10.7754 188.968c-0.736328 10.5996 -4.22656 98.4746 -11.5596 138.846c-10.5273 -15.6582 -19.1172 -34.4873 -25.6094 -47.2236
c-13.2646 -26.0332 -25.0811 -52.875 -36.7607 -79.6455c-24.3848 -55.8779 -46.8398 -112.572 -68.1182 -169.699zM440.306 246.896c-82.6318 6.8291 -166.607 2.22461 -246.565 -20.9268c-46.0947 -13.3369 -90.8613 -33.8867 -128.919 -63.4023
c-16.251 -12.6006 -33.9746 -27.3389 -45.1826 -44.583c-28.8838 -44.4297 8.77344 -66.8926 48.5762 -69.4307c48.9053 -3.12207 100.332 12.9932 147.26 25.2891c41.0273 10.751 81.6387 23.0557 121.89 36.4092c86.1787 28.5791 170.612 62.0742 254.821 95.9209
c4.55469 1.83301 9.10938 3.6582 13.6562 5.49121c-52.5156 18.3965 -107.793 30.4531 -165.536 35.2324z" />
    <glyph glyph-name="A" unicode="&#xc4;" horiz-adv-x="1200" 
d="M-15.8037 98.7959c17.4756 72.3613 113.604 121.249 176.039 145.762c83.1445 32.6377 174.927 46.1992 264.035 43.8379c72.2725 -1.91309 142.809 -15.9307 209.317 -40.3867c1.85742 5.82812 3.72266 11.6562 5.58008 17.4844
c62.9062 197.334 126.43 396.509 211.407 585.652c25.0166 55.6699 79.2217 198.198 162.942 167.329c37.7451 -13.9219 44.0371 -72.4414 48.5205 -106.328c6.25195 -47.2881 8.42188 -95.3604 11.4316 -142.937c13.2969 -209.902 21.6865 -419.797 50.5303 -628.362
c27.8271 -201.288 71.6406 -399.574 123.66 -595.899c13.4971 -50.9541 -76.0039 -77.46 -91.6221 -23.9678c-11.4316 39.1709 -22.0947 78.5732 -32.126 118.144c-5.2832 11.8965 -10.2949 23.9766 -15.5869 35.9131c-18.1562 41.0117 -37.4814 81.5107 -58.4561 121.161
c-42.2363 79.8379 -92.1104 154.608 -153.56 221.054c-60.3691 65.2764 -129.399 118.864 -205.635 158.035c-63.4346 -195.54 -125.093 -392.394 -199.936 -583.522c-8.59766 -21.9512 -55.6377 -24.0967 -48.8086 4.75488c47.8086 202.121 111.531 401.088 174.895 599.07
c-60.7607 -24.3369 -121.538 -48.6572 -182.876 -71.3682c-96.7295 -35.8164 -195.965 -69.1426 -297.481 -88.5078c-47.5283 -9.0625 -172.501 -20.6943 -152.271 63.082zM1059.32 -162.454c11.624 -21.2705 22.7119 -42.8359 33.3672 -64.6104
c-32.3018 151.206 -55.333 304.494 -70.6953 458.158c-3.51465 35.1602 -6.46094 70.3516 -9.0791 105.567c-103.462 -28.043 -203.89 -65.0684 -303.597 -104.279c-1.64941 -5.02734 -3.31445 -10.0391 -4.95605 -15.0664
c76.4199 -38.5059 145.707 -91.502 203.746 -156.242c60.0566 -66.9971 108.201 -144.802 151.214 -223.527zM845.355 628.971c-41.3164 -110.923 -78.6377 -223.336 -115.999 -335.644c-4.13867 -12.4404 -8.19727 -24.9287 -12.2959 -37.3848
c96.6738 37.8096 194.212 73.21 294.432 100.188c-5.66797 80.4463 -9.55078 161.021 -13.3135 241.595c-2.94629 63.0264 -6.38867 126.029 -10.7754 188.968c-0.736328 10.5996 -4.22656 98.4746 -11.5596 138.846c-10.5273 -15.6582 -19.1172 -34.4873 -25.6094 -47.2236
c-13.2646 -26.0332 -25.0811 -52.875 -36.7607 -79.6455c-24.3848 -55.8779 -46.8398 -112.572 -68.1182 -169.699zM440.306 246.896c-82.6318 6.8291 -166.607 2.22461 -246.565 -20.9268c-46.0947 -13.3369 -90.8613 -33.8867 -128.919 -63.4023
c-16.251 -12.6006 -33.9746 -27.3389 -45.1826 -44.583c-28.8838 -44.4297 8.77344 -66.8926 48.5762 -69.4307c48.9053 -3.12207 100.332 12.9932 147.26 25.2891c41.0273 10.751 81.6387 23.0557 121.89 36.4092c86.1787 28.5791 170.612 62.0742 254.821 95.9209
c4.55469 1.83301 9.10938 3.6582 13.6562 5.49121c-52.5156 18.3965 -107.793 30.4531 -165.536 35.2324z" />
    <glyph glyph-name="A" unicode="&#xc3;" horiz-adv-x="1200" 
d="M-15.8037 98.7959c17.4756 72.3613 113.604 121.249 176.039 145.762c83.1445 32.6377 174.927 46.1992 264.035 43.8379c72.2725 -1.91309 142.809 -15.9307 209.317 -40.3867c1.85742 5.82812 3.72266 11.6562 5.58008 17.4844
c62.9062 197.334 126.43 396.509 211.407 585.652c25.0166 55.6699 79.2217 198.198 162.942 167.329c37.7451 -13.9219 44.0371 -72.4414 48.5205 -106.328c6.25195 -47.2881 8.42188 -95.3604 11.4316 -142.937c13.2969 -209.902 21.6865 -419.797 50.5303 -628.362
c27.8271 -201.288 71.6406 -399.574 123.66 -595.899c13.4971 -50.9541 -76.0039 -77.46 -91.6221 -23.9678c-11.4316 39.1709 -22.0947 78.5732 -32.126 118.144c-5.2832 11.8965 -10.2949 23.9766 -15.5869 35.9131c-18.1562 41.0117 -37.4814 81.5107 -58.4561 121.161
c-42.2363 79.8379 -92.1104 154.608 -153.56 221.054c-60.3691 65.2764 -129.399 118.864 -205.635 158.035c-63.4346 -195.54 -125.093 -392.394 -199.936 -583.522c-8.59766 -21.9512 -55.6377 -24.0967 -48.8086 4.75488c47.8086 202.121 111.531 401.088 174.895 599.07
c-60.7607 -24.3369 -121.538 -48.6572 -182.876 -71.3682c-96.7295 -35.8164 -195.965 -69.1426 -297.481 -88.5078c-47.5283 -9.0625 -172.501 -20.6943 -152.271 63.082zM1059.32 -162.454c11.624 -21.2705 22.7119 -42.8359 33.3672 -64.6104
c-32.3018 151.206 -55.333 304.494 -70.6953 458.158c-3.51465 35.1602 -6.46094 70.3516 -9.0791 105.567c-103.462 -28.043 -203.89 -65.0684 -303.597 -104.279c-1.64941 -5.02734 -3.31445 -10.0391 -4.95605 -15.0664
c76.4199 -38.5059 145.707 -91.502 203.746 -156.242c60.0566 -66.9971 108.201 -144.802 151.214 -223.527zM845.355 628.971c-41.3164 -110.923 -78.6377 -223.336 -115.999 -335.644c-4.13867 -12.4404 -8.19727 -24.9287 -12.2959 -37.3848
c96.6738 37.8096 194.212 73.21 294.432 100.188c-5.66797 80.4463 -9.55078 161.021 -13.3135 241.595c-2.94629 63.0264 -6.38867 126.029 -10.7754 188.968c-0.736328 10.5996 -4.22656 98.4746 -11.5596 138.846c-10.5273 -15.6582 -19.1172 -34.4873 -25.6094 -47.2236
c-13.2646 -26.0332 -25.0811 -52.875 -36.7607 -79.6455c-24.3848 -55.8779 -46.8398 -112.572 -68.1182 -169.699zM440.306 246.896c-82.6318 6.8291 -166.607 2.22461 -246.565 -20.9268c-46.0947 -13.3369 -90.8613 -33.8867 -128.919 -63.4023
c-16.251 -12.6006 -33.9746 -27.3389 -45.1826 -44.583c-28.8838 -44.4297 8.77344 -66.8926 48.5762 -69.4307c48.9053 -3.12207 100.332 12.9932 147.26 25.2891c41.0273 10.751 81.6387 23.0557 121.89 36.4092c86.1787 28.5791 170.612 62.0742 254.821 95.9209
c4.55469 1.83301 9.10938 3.6582 13.6562 5.49121c-52.5156 18.3965 -107.793 30.4531 -165.536 35.2324z" />
    <glyph glyph-name="A" unicode="&#xc2;" horiz-adv-x="1200" 
d="M-15.8037 98.7959c17.4756 72.3613 113.604 121.249 176.039 145.762c83.1445 32.6377 174.927 46.1992 264.035 43.8379c72.2725 -1.91309 142.809 -15.9307 209.317 -40.3867c1.85742 5.82812 3.72266 11.6562 5.58008 17.4844
c62.9062 197.334 126.43 396.509 211.407 585.652c25.0166 55.6699 79.2217 198.198 162.942 167.329c37.7451 -13.9219 44.0371 -72.4414 48.5205 -106.328c6.25195 -47.2881 8.42188 -95.3604 11.4316 -142.937c13.2969 -209.902 21.6865 -419.797 50.5303 -628.362
c27.8271 -201.288 71.6406 -399.574 123.66 -595.899c13.4971 -50.9541 -76.0039 -77.46 -91.6221 -23.9678c-11.4316 39.1709 -22.0947 78.5732 -32.126 118.144c-5.2832 11.8965 -10.2949 23.9766 -15.5869 35.9131c-18.1562 41.0117 -37.4814 81.5107 -58.4561 121.161
c-42.2363 79.8379 -92.1104 154.608 -153.56 221.054c-60.3691 65.2764 -129.399 118.864 -205.635 158.035c-63.4346 -195.54 -125.093 -392.394 -199.936 -583.522c-8.59766 -21.9512 -55.6377 -24.0967 -48.8086 4.75488c47.8086 202.121 111.531 401.088 174.895 599.07
c-60.7607 -24.3369 -121.538 -48.6572 -182.876 -71.3682c-96.7295 -35.8164 -195.965 -69.1426 -297.481 -88.5078c-47.5283 -9.0625 -172.501 -20.6943 -152.271 63.082zM1059.32 -162.454c11.624 -21.2705 22.7119 -42.8359 33.3672 -64.6104
c-32.3018 151.206 -55.333 304.494 -70.6953 458.158c-3.51465 35.1602 -6.46094 70.3516 -9.0791 105.567c-103.462 -28.043 -203.89 -65.0684 -303.597 -104.279c-1.64941 -5.02734 -3.31445 -10.0391 -4.95605 -15.0664
c76.4199 -38.5059 145.707 -91.502 203.746 -156.242c60.0566 -66.9971 108.201 -144.802 151.214 -223.527zM845.355 628.971c-41.3164 -110.923 -78.6377 -223.336 -115.999 -335.644c-4.13867 -12.4404 -8.19727 -24.9287 -12.2959 -37.3848
c96.6738 37.8096 194.212 73.21 294.432 100.188c-5.66797 80.4463 -9.55078 161.021 -13.3135 241.595c-2.94629 63.0264 -6.38867 126.029 -10.7754 188.968c-0.736328 10.5996 -4.22656 98.4746 -11.5596 138.846c-10.5273 -15.6582 -19.1172 -34.4873 -25.6094 -47.2236
c-13.2646 -26.0332 -25.0811 -52.875 -36.7607 -79.6455c-24.3848 -55.8779 -46.8398 -112.572 -68.1182 -169.699zM440.306 246.896c-82.6318 6.8291 -166.607 2.22461 -246.565 -20.9268c-46.0947 -13.3369 -90.8613 -33.8867 -128.919 -63.4023
c-16.251 -12.6006 -33.9746 -27.3389 -45.1826 -44.583c-28.8838 -44.4297 8.77344 -66.8926 48.5762 -69.4307c48.9053 -3.12207 100.332 12.9932 147.26 25.2891c41.0273 10.751 81.6387 23.0557 121.89 36.4092c86.1787 28.5791 170.612 62.0742 254.821 95.9209
c4.55469 1.83301 9.10938 3.6582 13.6562 5.49121c-52.5156 18.3965 -107.793 30.4531 -165.536 35.2324z" />
    <glyph glyph-name="A" unicode="&#xc1;" horiz-adv-x="1200" 
d="M-15.8037 98.7959c17.4756 72.3613 113.604 121.249 176.039 145.762c83.1445 32.6377 174.927 46.1992 264.035 43.8379c72.2725 -1.91309 142.809 -15.9307 209.317 -40.3867c1.85742 5.82812 3.72266 11.6562 5.58008 17.4844
c62.9062 197.334 126.43 396.509 211.407 585.652c25.0166 55.6699 79.2217 198.198 162.942 167.329c37.7451 -13.9219 44.0371 -72.4414 48.5205 -106.328c6.25195 -47.2881 8.42188 -95.3604 11.4316 -142.937c13.2969 -209.902 21.6865 -419.797 50.5303 -628.362
c27.8271 -201.288 71.6406 -399.574 123.66 -595.899c13.4971 -50.9541 -76.0039 -77.46 -91.6221 -23.9678c-11.4316 39.1709 -22.0947 78.5732 -32.126 118.144c-5.2832 11.8965 -10.2949 23.9766 -15.5869 35.9131c-18.1562 41.0117 -37.4814 81.5107 -58.4561 121.161
c-42.2363 79.8379 -92.1104 154.608 -153.56 221.054c-60.3691 65.2764 -129.399 118.864 -205.635 158.035c-63.4346 -195.54 -125.093 -392.394 -199.936 -583.522c-8.59766 -21.9512 -55.6377 -24.0967 -48.8086 4.75488c47.8086 202.121 111.531 401.088 174.895 599.07
c-60.7607 -24.3369 -121.538 -48.6572 -182.876 -71.3682c-96.7295 -35.8164 -195.965 -69.1426 -297.481 -88.5078c-47.5283 -9.0625 -172.501 -20.6943 -152.271 63.082zM1059.32 -162.454c11.624 -21.2705 22.7119 -42.8359 33.3672 -64.6104
c-32.3018 151.206 -55.333 304.494 -70.6953 458.158c-3.51465 35.1602 -6.46094 70.3516 -9.0791 105.567c-103.462 -28.043 -203.89 -65.0684 -303.597 -104.279c-1.64941 -5.02734 -3.31445 -10.0391 -4.95605 -15.0664
c76.4199 -38.5059 145.707 -91.502 203.746 -156.242c60.0566 -66.9971 108.201 -144.802 151.214 -223.527zM845.355 628.971c-41.3164 -110.923 -78.6377 -223.336 -115.999 -335.644c-4.13867 -12.4404 -8.19727 -24.9287 -12.2959 -37.3848
c96.6738 37.8096 194.212 73.21 294.432 100.188c-5.66797 80.4463 -9.55078 161.021 -13.3135 241.595c-2.94629 63.0264 -6.38867 126.029 -10.7754 188.968c-0.736328 10.5996 -4.22656 98.4746 -11.5596 138.846c-10.5273 -15.6582 -19.1172 -34.4873 -25.6094 -47.2236
c-13.2646 -26.0332 -25.0811 -52.875 -36.7607 -79.6455c-24.3848 -55.8779 -46.8398 -112.572 -68.1182 -169.699zM440.306 246.896c-82.6318 6.8291 -166.607 2.22461 -246.565 -20.9268c-46.0947 -13.3369 -90.8613 -33.8867 -128.919 -63.4023
c-16.251 -12.6006 -33.9746 -27.3389 -45.1826 -44.583c-28.8838 -44.4297 8.77344 -66.8926 48.5762 -69.4307c48.9053 -3.12207 100.332 12.9932 147.26 25.2891c41.0273 10.751 81.6387 23.0557 121.89 36.4092c86.1787 28.5791 170.612 62.0742 254.821 95.9209
c4.55469 1.83301 9.10938 3.6582 13.6562 5.49121c-52.5156 18.3965 -107.793 30.4531 -165.536 35.2324z" />
    <glyph glyph-name="B" unicode="B" horiz-adv-x="1168" 
d="M297.111 -525.795c-94.3916 51.7793 -84.3418 163.043 -49.6621 249.35c15.2822 38.0654 34.1592 74.7705 55.5977 110.074c-15.5625 129.936 -21.1826 261.248 -21.8955 391.889c-0.0957031 17.4834 0.0966797 34.999 0.18457 52.5146
c-33.999 5.86035 -47.0723 54.8613 -6.97266 80.1904c2.73828 1.7373 5.41992 3.5625 8.14941 5.2998c4.01855 180.202 17.9082 361.285 42.5488 539.27c-56.7666 -26.2422 -111.083 -58.752 -162.182 -94.5117c-28.7715 -20.126 -56.2305 -41.9092 -81.8877 -65.8857
c-5.2998 -4.95508 -95.3691 -96.2012 -62.7715 -104.791c14.626 -3.85059 4.69922 -22.9199 -7.96582 -20.4307c-61.5459 12.0879 1.96875 91.7334 20.3652 114.141c46.5439 56.7021 107.953 101.997 170.275 140.031c41.124 25.0967 84.4658 47.7041 129.24 67.4531
c7.35742 34.0947 53.9014 47.5039 76.2041 30.252c61.3691 21.7031 124.588 37.8184 188.022 47.0166c90.3252 13.1133 292.198 23.3838 304.847 -107.585c5.87598 -60.8574 -36.2725 -121.507 -71.8809 -166.617c-45.7666 -57.9756 -98.8105 -110.899 -151.919 -162.078
c-33.7432 -32.5098 -68.4062 -63.8594 -103.718 -94.416c41.084 11.2715 82.8164 19.9893 125.133 25.377c121.979 15.5225 277.492 6.56445 366.784 -90.5254c84.4648 -91.8457 69.4062 -223.062 27.7217 -330.928c-45.4707 -117.664 -117.231 -226.746 -198.887 -322.291
c-79.374 -92.8711 -169.691 -180.154 -275.291 -242.74c-88.1475 -52.2354 -221.374 -104.183 -320.041 -50.0576zM867.757 -123.015c88.7402 118.641 253.603 382.483 98.4658 500.027c-94.3916 -40.9072 -178.809 -97.9541 -260.72 -161.509
c-89.8291 -69.7031 -178.217 -141.399 -255.429 -225.225c-25.3691 -27.5391 -49.5693 -56.3662 -72.0088 -86.4746c8.14941 -120.346 21.1182 -240.371 37.665 -360.172c1.65723 -11.9844 -4.83496 -21.6387 -13.8975 -27.1543
c97.8506 13.7529 182.86 73.2969 256.021 136.443c77.3721 66.7812 148.677 142.208 209.902 224.063zM418.012 937.991c-14.6738 -170.731 -32.043 -340.591 -41.8418 -511.282c89.124 63.3711 174.037 132.962 254.676 206.516
c61.5381 56.126 319.849 267.565 159.132 332.745c-71.9932 29.1953 -160.821 20.9414 -235.416 7.7002c-45.999 -8.17383 -91.8623 -19.6211 -136.501 -34.3506c-0.0244141 -0.456055 -0.00878906 -0.87207 -0.0488281 -1.32812zM369.037 242.993
c-1.80078 -102.189 0.750977 -204.09 6.875 -305.767c20.1738 25.2412 41.3242 49.5693 63.083 72.8887c83.665 89.6611 179.858 166.321 277.276 240.371c71.8008 54.5732 145.923 103.639 226.697 141.673c-5.36328 3.00195 -10.9512 5.8916 -16.8828 8.61328
c-90.2207 41.3877 -201.472 32.7334 -295.703 11.8076c-91.4463 -20.3174 -176.512 -56.3975 -259.408 -98.2256c-0.833008 -23.7686 -1.52148 -47.5449 -1.9375 -71.3613zM277.981 -271.898c-17.7236 -44.6621 -31.3799 -99.5947 -15.8574 -146.963
c17.1953 -52.4355 62.1133 -68.5742 111.179 -67.2617c-5.58008 2.68164 -10.127 7.63672 -12.2568 15.4424c-23.6797 86.8828 -40.7236 175.19 -52.8682 264.251c-11.1514 -21.2705 -21.3105 -43.0693 -30.1963 -65.4688z" />
    <glyph glyph-name="C" unicode="C" horiz-adv-x="756" 
d="M5.98145 -44.6611c-27.8506 257.591 29.9629 526.691 131.744 763.012c44.8066 103.998 104.255 205.082 191.866 278.716c70.0791 58.8955 199.118 122.979 278.884 43.1406c65.5723 -65.6445 40.0107 -184.501 17.3477 -262.834
c-30.1328 -104.143 -89.1406 -197.542 -167.682 -271.872c-11.9277 -11.2881 -29.5635 4.39453 -16.8584 16.4111c83.5928 79.1016 143.945 181.907 168.586 294.72c10.4629 47.9209 20.1494 107.474 1.33691 154.562c-27.1865 68.0537 -99.3076 70.3115 -153.44 33.1504
c-155.825 -106.952 -234.574 -307.031 -289.139 -479.933c-62.626 -198.462 -101.26 -422.485 -66.3721 -629.97c14.0732 -83.6885 46.6631 -228.971 150.029 -242.004c103.847 -13.0967 192.843 89.1084 245.694 164.952c119.272 171.132 193.259 376.663 243.885 577.623
c2.59375 10.3193 23.4082 9.64648 20.6465 -2.00977c-33.2861 -140.479 -80.0615 -276.548 -137.532 -408.941c-50.0654 -115.35 -110.795 -235.559 -212.304 -314.38c-78.7334 -61.1377 -190.281 -94.4482 -274.963 -25.7461
c-88.4199 71.7285 -120.098 203.778 -131.729 311.403z" />
    <glyph glyph-name="D" unicode="D" horiz-adv-x="978" 
d="M865.782 914.908c135.252 -123.451 134.356 -324.403 69.4727 -483.062c-72.9375 -178.337 -203.21 -334.907 -331.953 -475.715c-67.542 -73.874 -138.494 -144.874 -211.848 -213.336c1.28125 -7.14062 1.68945 -14.5381 0.480469 -22.9199
c-1.99316 -13.8096 -19.4209 -24.8887 -32.4219 -17.2354c-2.37793 1.39258 -4.61133 2.9541 -6.75684 4.61914c-60.3125 -54.9492 -122.026 -108.337 -184.772 -160.132c-45.7266 -37.7451 -109.722 17.3086 -61.5127 59.873
c68.4307 60.417 137.333 120.226 205.019 181.347c-1.86523 7.47754 -3.55469 14.7783 -5.22754 21.623c-12.3125 50.4658 -18.4131 102.205 -24.457 153.712c-12.2646 104.543 -20.7266 209.51 -28.7803 314.444c-16.4668 214.465 -28.123 429.378 -11.168 644.203
c4.12305 52.2031 97.4023 60.3848 92.335 2.11328c-18.0605 -207.845 -10.2314 -416.682 1.66504 -624.646c5.8916 -103.006 10.6709 -206.155 18.668 -309.024c3.70605 -47.6318 7.52441 -95.5039 13.8086 -142.872c0.295898 -2.21777 0.648438 -4.42773 0.960938 -6.6377
c49.5693 46.0146 98.2178 93.0381 145.186 141.903c110.587 115.054 215.818 240.427 297.762 377.8c76.3877 128.062 129.184 295.56 58.1914 437.848c-75.123 150.55 -253.988 190.001 -408.013 184.197c-83.6963 -3.1543 -169.002 -13.5371 -250.193 -34.5596
c-38.4902 -9.9668 -75.9561 -23.0713 -111.268 -41.4756c-19.3887 -10.1025 -39.0176 -21.334 -55.8047 -35.4238c-8.70996 -7.30859 -48.001 -51.7305 -13.8262 -53.3076c16.8438 -0.776367 12.5684 -23.6641 -2.52148 -23.2236
c-24.4883 0.712891 -46.8711 20.8301 -46.8066 46.7354c0.0957031 38.1299 44.6699 65.4121 72.2969 83.376c85.8506 55.8223 189.12 75.5635 288.844 89.7969c177.977 25.4014 380.754 29.4844 522.642 -100.02z" />
    <glyph glyph-name="E" unicode="E" horiz-adv-x="1020" 
d="M775.002 485.865c-7.67676 98.1787 8.49609 197.016 -4.48828 294.866c-10.5752 79.6699 -45.5664 167.161 -125.372 198.751c-161.053 63.7471 -326.732 -92.7832 -412.687 -211.535c-83.8809 -115.895 -146.107 -271.136 -131.546 -416.45
c40.6279 -405.458 585.509 -201.399 824.23 -130.352c22.6953 8.19727 51.8428 -6.47656 56.1094 -30.5488c4.90723 -27.707 -17.4043 -46.8799 -40.5322 -55.8379c-47.3438 -18.332 -95.4004 -34.8311 -143.961 -49.6807
c-89.7012 -34.2715 -177.057 -74.1465 -261.634 -120.514c-62.5947 -34.3027 -123.853 -71.3037 -182.9 -111.427c-28.7871 -19.5576 -56.8857 -40.2197 -83.5762 -62.5713c-22.0391 -18.4521 -63.2754 -46.6953 -74.4268 -73.7939
c-13.1689 -32.0059 11.0713 -29.1162 34.4873 -29.9092c20.1494 -0.688477 40.4111 0.288086 60.4883 1.96094c43.4453 3.62598 86.3066 12.1514 128.735 21.9424c72.1924 16.6514 143.528 36.6484 214.393 58.2227c142.032 43.2373 280.902 95.8252 425.496 130.465
c15.4824 3.70605 18.1963 -17.4521 3.78613 -21.0146c-154.297 -38.1455 -302.838 -94.3037 -452.307 -147.58c-127.286 -45.3672 -263.938 -94.376 -400.951 -91.3496c-44.1816 0.976562 -95.2725 13.3525 -83.8486 69.2627
c10.7354 52.5312 71.2959 100.556 110.01 133.642c74.042 63.2744 155.337 119.929 240.843 170.659c-75.7637 -10.167 -152.735 -12.585 -226.649 6.4043c-182.147 46.7998 -263.627 211.463 -246.463 389.863c16.8594 175.23 109.658 345.258 237.673 464.259
c110.491 102.718 312.012 218.444 457.23 115.431c159.748 -113.316 116.087 -322.162 129.191 -489.731c2.27344 -29.1641 -48.9131 -44.3984 -51.3311 -13.4336z" />
    <glyph glyph-name="E" unicode="&#xcb;" horiz-adv-x="1020" 
d="M775.002 485.865c-7.67676 98.1787 8.49609 197.016 -4.48828 294.866c-10.5752 79.6699 -45.5664 167.161 -125.372 198.751c-161.053 63.7471 -326.732 -92.7832 -412.687 -211.535c-83.8809 -115.895 -146.107 -271.136 -131.546 -416.45
c40.6279 -405.458 585.509 -201.399 824.23 -130.352c22.6953 8.19727 51.8428 -6.47656 56.1094 -30.5488c4.90723 -27.707 -17.4043 -46.8799 -40.5322 -55.8379c-47.3438 -18.332 -95.4004 -34.8311 -143.961 -49.6807
c-89.7012 -34.2715 -177.057 -74.1465 -261.634 -120.514c-62.5947 -34.3027 -123.853 -71.3037 -182.9 -111.427c-28.7871 -19.5576 -56.8857 -40.2197 -83.5762 -62.5713c-22.0391 -18.4521 -63.2754 -46.6953 -74.4268 -73.7939
c-13.1689 -32.0059 11.0713 -29.1162 34.4873 -29.9092c20.1494 -0.688477 40.4111 0.288086 60.4883 1.96094c43.4453 3.62598 86.3066 12.1514 128.735 21.9424c72.1924 16.6514 143.528 36.6484 214.393 58.2227c142.032 43.2373 280.902 95.8252 425.496 130.465
c15.4824 3.70605 18.1963 -17.4521 3.78613 -21.0146c-154.297 -38.1455 -302.838 -94.3037 -452.307 -147.58c-127.286 -45.3672 -263.938 -94.376 -400.951 -91.3496c-44.1816 0.976562 -95.2725 13.3525 -83.8486 69.2627
c10.7354 52.5312 71.2959 100.556 110.01 133.642c74.042 63.2744 155.337 119.929 240.843 170.659c-75.7637 -10.167 -152.735 -12.585 -226.649 6.4043c-182.147 46.7998 -263.627 211.463 -246.463 389.863c16.8594 175.23 109.658 345.258 237.673 464.259
c110.491 102.718 312.012 218.444 457.23 115.431c159.748 -113.316 116.087 -322.162 129.191 -489.731c2.27344 -29.1641 -48.9131 -44.3984 -51.3311 -13.4336z" />
    <glyph glyph-name="E" unicode="&#xca;" horiz-adv-x="1020" 
d="M775.002 485.865c-7.67676 98.1787 8.49609 197.016 -4.48828 294.866c-10.5752 79.6699 -45.5664 167.161 -125.372 198.751c-161.053 63.7471 -326.732 -92.7832 -412.687 -211.535c-83.8809 -115.895 -146.107 -271.136 -131.546 -416.45
c40.6279 -405.458 585.509 -201.399 824.23 -130.352c22.6953 8.19727 51.8428 -6.47656 56.1094 -30.5488c4.90723 -27.707 -17.4043 -46.8799 -40.5322 -55.8379c-47.3438 -18.332 -95.4004 -34.8311 -143.961 -49.6807
c-89.7012 -34.2715 -177.057 -74.1465 -261.634 -120.514c-62.5947 -34.3027 -123.853 -71.3037 -182.9 -111.427c-28.7871 -19.5576 -56.8857 -40.2197 -83.5762 -62.5713c-22.0391 -18.4521 -63.2754 -46.6953 -74.4268 -73.7939
c-13.1689 -32.0059 11.0713 -29.1162 34.4873 -29.9092c20.1494 -0.688477 40.4111 0.288086 60.4883 1.96094c43.4453 3.62598 86.3066 12.1514 128.735 21.9424c72.1924 16.6514 143.528 36.6484 214.393 58.2227c142.032 43.2373 280.902 95.8252 425.496 130.465
c15.4824 3.70605 18.1963 -17.4521 3.78613 -21.0146c-154.297 -38.1455 -302.838 -94.3037 -452.307 -147.58c-127.286 -45.3672 -263.938 -94.376 -400.951 -91.3496c-44.1816 0.976562 -95.2725 13.3525 -83.8486 69.2627
c10.7354 52.5312 71.2959 100.556 110.01 133.642c74.042 63.2744 155.337 119.929 240.843 170.659c-75.7637 -10.167 -152.735 -12.585 -226.649 6.4043c-182.147 46.7998 -263.627 211.463 -246.463 389.863c16.8594 175.23 109.658 345.258 237.673 464.259
c110.491 102.718 312.012 218.444 457.23 115.431c159.748 -113.316 116.087 -322.162 129.191 -489.731c2.27344 -29.1641 -48.9131 -44.3984 -51.3311 -13.4336z" />
    <glyph glyph-name="E" unicode="&#xc9;" horiz-adv-x="1020" 
d="M775.002 485.865c-7.67676 98.1787 8.49609 197.016 -4.48828 294.866c-10.5752 79.6699 -45.5664 167.161 -125.372 198.751c-161.053 63.7471 -326.732 -92.7832 -412.687 -211.535c-83.8809 -115.895 -146.107 -271.136 -131.546 -416.45
c40.6279 -405.458 585.509 -201.399 824.23 -130.352c22.6953 8.19727 51.8428 -6.47656 56.1094 -30.5488c4.90723 -27.707 -17.4043 -46.8799 -40.5322 -55.8379c-47.3438 -18.332 -95.4004 -34.8311 -143.961 -49.6807
c-89.7012 -34.2715 -177.057 -74.1465 -261.634 -120.514c-62.5947 -34.3027 -123.853 -71.3037 -182.9 -111.427c-28.7871 -19.5576 -56.8857 -40.2197 -83.5762 -62.5713c-22.0391 -18.4521 -63.2754 -46.6953 -74.4268 -73.7939
c-13.1689 -32.0059 11.0713 -29.1162 34.4873 -29.9092c20.1494 -0.688477 40.4111 0.288086 60.4883 1.96094c43.4453 3.62598 86.3066 12.1514 128.735 21.9424c72.1924 16.6514 143.528 36.6484 214.393 58.2227c142.032 43.2373 280.902 95.8252 425.496 130.465
c15.4824 3.70605 18.1963 -17.4521 3.78613 -21.0146c-154.297 -38.1455 -302.838 -94.3037 -452.307 -147.58c-127.286 -45.3672 -263.938 -94.376 -400.951 -91.3496c-44.1816 0.976562 -95.2725 13.3525 -83.8486 69.2627
c10.7354 52.5312 71.2959 100.556 110.01 133.642c74.042 63.2744 155.337 119.929 240.843 170.659c-75.7637 -10.167 -152.735 -12.585 -226.649 6.4043c-182.147 46.7998 -263.627 211.463 -246.463 389.863c16.8594 175.23 109.658 345.258 237.673 464.259
c110.491 102.718 312.012 218.444 457.23 115.431c159.748 -113.316 116.087 -322.162 129.191 -489.731c2.27344 -29.1641 -48.9131 -44.3984 -51.3311 -13.4336z" />
    <glyph glyph-name="F" unicode="F" horiz-adv-x="823" 
d="M1254.7 1085.74c44.8145 -32.3818 24.4355 -84.9531 -4.52051 -120.417c-22.2393 -27.2822 -73.7383 -7.43652 -49.6738 26.1865c8.81445 12.3047 25.25 33.583 10.7598 49.0332c-6.12402 6.52441 -21.5264 7.2373 -30.1807 8.67871
c-32.0293 5.32324 -65.3555 5.63574 -97.7295 4.59473c-57.8789 -1.85742 -115.174 -10.7998 -172.021 -21.3672c-105.111 -19.5332 -209.046 -45.4863 -311.131 -77.2275c-26.3535 -8.19727 -52.7637 -16.7314 -79.1572 -25.6016
c-27.1543 -201.168 -47.0322 -404.802 -51.6436 -608.363c91.2461 31.0693 185.99 57.6875 280.59 75.2031c35.8486 6.63672 42.3008 -40.499 8.74219 -48.4561c-94.7686 -22.4795 -188.84 -44.5264 -282.127 -72.8096
c-2.67383 -0.808594 -5.33984 -1.63281 -8.00586 -2.44922c-1.9375 -185.733 9.3418 -371.235 40.0508 -554.575c4.93164 -29.4355 -48.1123 -54.8047 -59.4316 -23.2471c-62.3145 173.686 -68.1748 365.983 -67.959 550.229
c-13.1689 -4.35449 -26.3135 -8.77344 -39.418 -13.3604c-45.8867 -16.0586 -92.334 -38.0254 -140.263 -46.6475c-10.0713 -1.80957 -19.0293 9.88672 -9.1582 17.2197c53.5801 39.7949 122.354 66.1006 188.976 88.9961
c0.015625 3.08203 0.0234375 6.19629 0.0390625 9.27051c1.0166 198.671 14.5459 397.422 41.5967 594.283c-146.106 -54.3252 -289.644 -120.226 -420.124 -201.625c-16.6436 -10.3828 -30.917 10.5518 -17.7402 23.5928c44.2061 43.7578 100.204 72.3691 155.025 100.876
c60.3525 31.3896 121.738 61.0098 184.204 87.9717c35.0957 15.1465 70.5518 29.5 106.264 43.2295c0.0800781 0.480469 0.135742 0.96875 0.208008 1.44922c6.17188 40.9473 65.7881 55.085 86.6182 30.3564c58.9277 20.4863 118.496 39.123 178.568 55.7188
c127.278 35.1602 260.937 68.0303 393.395 73.29c50.0654 1.98535 122.154 7.1084 165.247 -24.0322z" />
    <glyph glyph-name="G" unicode="G" horiz-adv-x="895" 
d="M736.561 957.537c-1.40137 -11.6074 -21.7568 -13.6982 -20.7881 -0.473633c5.82031 79.2539 -78.7812 75.499 -130.616 55.7812c-41.252 -15.6982 -78.1973 -40.4033 -111.676 -68.8545c-66.8457 -56.7988 -119.777 -129.992 -166.553 -203.642
c-89.5645 -141.031 -154.521 -300.516 -187.343 -464.402c-17.0996 -85.4014 -26.9541 -173.965 -20.2217 -261.063c6.30859 -81.623 23.1357 -173.806 75.1709 -239.738c121.018 -153.336 312.035 -4.15527 401.416 107.136
c59.5039 74.1064 102.797 158.323 129.079 247.952c2.04102 46.7275 5.49902 93.375 10.3105 139.822c-52.4111 -12.833 -104.078 -28.7402 -154.912 -47.6406c-14.6738 -5.45215 -17.043 15.5703 -3.71387 20.582c52.8193 19.8691 106.504 36.376 160.98 49.6494
c5.14746 45.4707 11.5762 90.7334 19.2695 135.66c4.875 28.4668 55.1406 34.7354 52.2109 1.19238c-3.59473 -41.0918 -6.19629 -82.0879 -7.97363 -123.035c32.3184 6.31641 64.8682 11.6562 97.7148 15.7627c16.3867 2.0498 11.9121 -21.0381 -2.47363 -22.7754
c-32.2861 -3.90625 -64.3076 -9.09375 -96.0967 -15.2656c-6.57227 -185.117 4.76367 -369.065 30.293 -553.622c6.57227 -47.4883 -76.2041 -72.7217 -83.9453 -21.959c-16.1631 105.992 -23.8564 213.617 -23.8887 321.33
c-41.2041 -98.8271 -102.174 -189.528 -178.922 -265.027c-66.7734 -65.6846 -151.047 -127.343 -248.545 -129.424c-94.1201 -2.00977 -174.519 58.1514 -218.564 138.126c-102.35 185.838 -61.7217 433.525 -3.79492 626.392
c58.0557 193.274 159.517 389.359 301.805 534.401c62.9307 64.1475 145.13 126.222 236.439 139.526c68.2383 9.94238 154.769 -38.2021 145.338 -116.391z" />
    <glyph glyph-name="H" unicode="H" horiz-adv-x="1151" 
d="M-21.4023 133.787c21.9512 74.458 114.264 117.795 181.349 140.338c59.4238 19.9658 122.475 31.4854 185.509 35.4561c-7.41309 224.24 6.9082 448.464 23.2949 672.016c3.94629 53.8203 99.2744 62.4424 95.2314 2.17773
c-14.6982 -219.061 -30.9248 -438.185 -27.1699 -657.909c0.0957031 -5.2832 0.271484 -10.5586 0.391602 -15.8418c130.232 -6.95703 259.128 -47.0967 364.552 -123.917c68.2227 23.0479 136.108 47.1279 203.906 71.376
c-1.9209 65.5889 -2.28906 131.233 -1.40039 196.813c3.73047 274.498 32.2461 548.18 60.2812 821.036c4.62695 44.9746 85.2979 51.9951 79.7656 1.8252c-29.2754 -265.516 -57.3828 -531.127 -67.7656 -798.188c-5.25977 -135.243 -5.32422 -270.807 3.12988 -405.922
c4.13867 -66.1807 10.1748 -132.249 18.5244 -198.037c8.31738 -65.5244 22.7188 -132.489 24.8721 -198.478c0.583984 -17.7637 -29.7803 -37.0811 -38.6982 -15.1387c-3.37793 8.31738 -6.44434 16.8115 -9.31836 25.4092
c-0.416016 0.728516 -0.78418 1.52148 -1.04004 2.43457c-1.67285 5.88379 -3.4502 11.7754 -5.1875 17.6592c-0.335938 1.16113 -0.688477 2.29785 -1.0166 3.45898c-47.5205 159.908 -118.969 319.809 -247.984 430.283
c-7.66895 6.56445 -15.5225 12.873 -23.5117 18.9814c-112.668 -38.6982 -226.553 -74.1865 -342.295 -100.572c1.70508 -15.8584 3.48242 -31.7256 5.39551 -47.5762c12.7607 -105.552 36.1846 -209.03 53.1963 -313.861
c4.42676 -27.2666 -41.5645 -49.2812 -54.3652 -21.2627c-51.6592 113.068 -78.918 238.025 -94.1523 364.23c-4.24316 -0.768555 -8.46973 -1.63281 -12.7207 -2.37695c-70.2158 -12.2959 -421.373 -69.3184 -372.772 95.585zM1006.49 234.395
c-60.6006 -21.8945 -121.437 -43.9668 -182.605 -65.2607c8.26172 -6.65234 16.3877 -13.5049 24.3135 -20.6455c86.3701 -77.7803 146.251 -177.512 190.537 -284.072c-9.32617 63.8115 -16.5791 127.927 -21.9346 192.194
c-4.92285 59.1602 -8.2373 118.448 -10.3105 177.784zM773.055 176.482c-98.1943 67.4854 -216.347 103.126 -335.259 109.803c2.17773 -67.918 6.94141 -135.604 13.7217 -203.178c26.7783 6.33984 53.4521 13.1045 79.998 20.1816
c81.335 21.6943 161.693 46.6396 241.539 73.1934zM53.3193 192.559c-33.8467 -27.5469 -75.9639 -80.6807 -32.1982 -119.234c30.6367 -26.9941 82.4238 -26.9385 120.489 -28.1553c39.915 -1.28125 79.9424 0.503906 119.673 4.47461
c33.543 3.35449 66.8857 8.30176 100.036 14.3623c-8.13379 74.5068 -12.2803 149.182 -15.002 221.935c-57.415 -3.68262 -114.542 -13.793 -169.379 -30.9326c-44.1016 -13.7852 -87.5469 -33.0938 -123.619 -62.4492z" />
    <glyph glyph-name="I" unicode="I" horiz-adv-x="466" 
d="M249.396 1348.91c5.30762 51.0264 94.8613 59.7656 90.8984 2.07031c-3.52246 -51.0186 -6.75684 -102.029 -9.83105 -153.032c47.7842 6.93262 95.7207 12.9365 143.825 17.7402c17.7402 1.77734 13.001 -23.1113 -2.66602 -24.5605
c-47.6885 -4.42676 -95.1924 -10.0547 -142.553 -16.6348c-13.3535 -227.562 -21.4551 -455.076 -17.5967 -683.343c2.41797 -143.001 8.68652 -285.602 17.3564 -428.354c5.08301 -83.7529 15.3779 -169.219 20.0771 -254.341
c52.5312 13.3848 104.871 27.458 157.402 40.9072c35.1436 8.99023 40.6514 -38.29 8.58984 -47.6006c-54.165 -15.7305 -109.01 -29.3232 -163.991 -42.124c1.07227 -42.5332 0.263672 -84.8975 -3.90723 -126.806c-0.944336 -9.55078 -18.7324 -17.3643 -23.127 -6.14844
c-14.9785 38.2256 -26.1943 78.0762 -35.0166 118.768c-0.135742 -0.0244141 -0.271484 -0.0566406 -0.399414 -0.0888672c-69.8877 -15.6982 -147.22 -39.9629 -219.124 -38.3936c-17.4199 0.383789 -22.2236 23.7354 -5.67676 30.5801
c67.502 27.9229 145.187 37.0166 216.274 53.8438c-14.4502 83.3125 -20.7666 169.003 -28.9404 251.042c-14.2656 143.145 -22.6152 287.298 -27.2266 431.06c-7.3252 228.267 -5.9082 457.99 9.53418 686.28c-83.4805 -14.2178 -166.393 -31.7256 -248.641 -52.5957
c-14.8184 -3.7627 -17.3877 16.5547 -3.63477 20.1494c83.8965 21.9268 168.554 40.3154 253.812 55.3252c3.98633 55.5176 8.80566 110.955 14.5615 166.257z" />
    <glyph glyph-name="I" unicode="&#xcf;" horiz-adv-x="466" 
d="M249.396 1348.91c5.30762 51.0264 94.8613 59.7656 90.8984 2.07031c-3.52246 -51.0186 -6.75684 -102.029 -9.83105 -153.032c47.7842 6.93262 95.7207 12.9365 143.825 17.7402c17.7402 1.77734 13.001 -23.1113 -2.66602 -24.5605
c-47.6885 -4.42676 -95.1924 -10.0547 -142.553 -16.6348c-13.3535 -227.562 -21.4551 -455.076 -17.5967 -683.343c2.41797 -143.001 8.68652 -285.602 17.3564 -428.354c5.08301 -83.7529 15.3779 -169.219 20.0771 -254.341
c52.5312 13.3848 104.871 27.458 157.402 40.9072c35.1436 8.99023 40.6514 -38.29 8.58984 -47.6006c-54.165 -15.7305 -109.01 -29.3232 -163.991 -42.124c1.07227 -42.5332 0.263672 -84.8975 -3.90723 -126.806c-0.944336 -9.55078 -18.7324 -17.3643 -23.127 -6.14844
c-14.9785 38.2256 -26.1943 78.0762 -35.0166 118.768c-0.135742 -0.0244141 -0.271484 -0.0566406 -0.399414 -0.0888672c-69.8877 -15.6982 -147.22 -39.9629 -219.124 -38.3936c-17.4199 0.383789 -22.2236 23.7354 -5.67676 30.5801
c67.502 27.9229 145.187 37.0166 216.274 53.8438c-14.4502 83.3125 -20.7666 169.003 -28.9404 251.042c-14.2656 143.145 -22.6152 287.298 -27.2266 431.06c-7.3252 228.267 -5.9082 457.99 9.53418 686.28c-83.4805 -14.2178 -166.393 -31.7256 -248.641 -52.5957
c-14.8184 -3.7627 -17.3877 16.5547 -3.63477 20.1494c83.8965 21.9268 168.554 40.3154 253.812 55.3252c3.98633 55.5176 8.80566 110.955 14.5615 166.257z" />
    <glyph glyph-name="I" unicode="&#xce;" horiz-adv-x="466" 
d="M249.396 1348.91c5.30762 51.0264 94.8613 59.7656 90.8984 2.07031c-3.52246 -51.0186 -6.75684 -102.029 -9.83105 -153.032c47.7842 6.93262 95.7207 12.9365 143.825 17.7402c17.7402 1.77734 13.001 -23.1113 -2.66602 -24.5605
c-47.6885 -4.42676 -95.1924 -10.0547 -142.553 -16.6348c-13.3535 -227.562 -21.4551 -455.076 -17.5967 -683.343c2.41797 -143.001 8.68652 -285.602 17.3564 -428.354c5.08301 -83.7529 15.3779 -169.219 20.0771 -254.341
c52.5312 13.3848 104.871 27.458 157.402 40.9072c35.1436 8.99023 40.6514 -38.29 8.58984 -47.6006c-54.165 -15.7305 -109.01 -29.3232 -163.991 -42.124c1.07227 -42.5332 0.263672 -84.8975 -3.90723 -126.806c-0.944336 -9.55078 -18.7324 -17.3643 -23.127 -6.14844
c-14.9785 38.2256 -26.1943 78.0762 -35.0166 118.768c-0.135742 -0.0244141 -0.271484 -0.0566406 -0.399414 -0.0888672c-69.8877 -15.6982 -147.22 -39.9629 -219.124 -38.3936c-17.4199 0.383789 -22.2236 23.7354 -5.67676 30.5801
c67.502 27.9229 145.187 37.0166 216.274 53.8438c-14.4502 83.3125 -20.7666 169.003 -28.9404 251.042c-14.2656 143.145 -22.6152 287.298 -27.2266 431.06c-7.3252 228.267 -5.9082 457.99 9.53418 686.28c-83.4805 -14.2178 -166.393 -31.7256 -248.641 -52.5957
c-14.8184 -3.7627 -17.3877 16.5547 -3.63477 20.1494c83.8965 21.9268 168.554 40.3154 253.812 55.3252c3.98633 55.5176 8.80566 110.955 14.5615 166.257z" />
    <glyph glyph-name="I" unicode="&#xcd;" horiz-adv-x="466" 
d="M249.396 1348.91c5.30762 51.0264 94.8613 59.7656 90.8984 2.07031c-3.52246 -51.0186 -6.75684 -102.029 -9.83105 -153.032c47.7842 6.93262 95.7207 12.9365 143.825 17.7402c17.7402 1.77734 13.001 -23.1113 -2.66602 -24.5605
c-47.6885 -4.42676 -95.1924 -10.0547 -142.553 -16.6348c-13.3535 -227.562 -21.4551 -455.076 -17.5967 -683.343c2.41797 -143.001 8.68652 -285.602 17.3564 -428.354c5.08301 -83.7529 15.3779 -169.219 20.0771 -254.341
c52.5312 13.3848 104.871 27.458 157.402 40.9072c35.1436 8.99023 40.6514 -38.29 8.58984 -47.6006c-54.165 -15.7305 -109.01 -29.3232 -163.991 -42.124c1.07227 -42.5332 0.263672 -84.8975 -3.90723 -126.806c-0.944336 -9.55078 -18.7324 -17.3643 -23.127 -6.14844
c-14.9785 38.2256 -26.1943 78.0762 -35.0166 118.768c-0.135742 -0.0244141 -0.271484 -0.0566406 -0.399414 -0.0888672c-69.8877 -15.6982 -147.22 -39.9629 -219.124 -38.3936c-17.4199 0.383789 -22.2236 23.7354 -5.67676 30.5801
c67.502 27.9229 145.187 37.0166 216.274 53.8438c-14.4502 83.3125 -20.7666 169.003 -28.9404 251.042c-14.2656 143.145 -22.6152 287.298 -27.2266 431.06c-7.3252 228.267 -5.9082 457.99 9.53418 686.28c-83.4805 -14.2178 -166.393 -31.7256 -248.641 -52.5957
c-14.8184 -3.7627 -17.3877 16.5547 -3.63477 20.1494c83.8965 21.9268 168.554 40.3154 253.812 55.3252c3.98633 55.5176 8.80566 110.955 14.5615 166.257z" />
    <glyph glyph-name="J" unicode="J" horiz-adv-x="924" 
d="M1041.7 1225.83c28.123 3.08203 66.3613 10.0352 81.9639 -20.0254c13.585 -26.1934 -33.5674 -50.8262 -45.9434 -24.4326c-7.64551 16.2988 -121.354 -10.9355 -136.853 -14.1621c-47.1123 -9.79883 -93.7119 -21.9668 -140.176 -34.4229
c-26.6904 -7.15723 -53.332 -14.5303 -79.9424 -21.9912c20.7979 -172.797 38.9785 -346.547 48.0244 -520.633c40.0352 26.5615 81.7197 50.4092 125.918 69.5498c31.5498 13.665 43.502 -26.3701 13.1299 -38.0098c-48.4648 -18.5811 -93.792 -43.1816 -137.142 -71.1445
c4.6748 -107.064 5.75586 -214.233 1.56055 -321.354c-8.22168 -209.935 -46.0713 -465.123 -221.062 -605.818c-88.8525 -71.4326 -190.562 -85.5225 -301.389 -72.8662c-86.0342 9.82227 -190.609 33.6543 -225.345 123.979
c-37.8174 98.3389 21.5586 197.038 75.7637 275.892c66.8691 97.2734 148.22 183.868 231.836 266.796c87.2266 86.5068 178.568 169.234 273.072 247.728c27.0264 22.4473 54.373 44.8545 82.3203 66.501c-5.53125 188.392 -17.6514 376.503 -17.2432 565.087
c-45.3184 -12.9365 -90.5811 -26.0898 -135.859 -39.1631c-176.231 -50.8828 -350.102 -106.769 -524.571 -162.887c-1.3291 -5.54785 -8.1582 -11.3594 -14.1787 -9.90234c-4.16309 1.00879 -8.33398 2.00977 -12.4971 3.01855
c-9.34277 2.25781 -9.30273 15.3145 -0.75293 18.8447c195.837 80.9111 402.841 139.767 605.45 201.024c29.8604 9.03027 59.7285 18.0127 89.6123 26.9307c6.76465 6.07617 17.1074 9.01367 25.8174 7.63672c64.6758 19.1406 129.504 37.7451 194.804 54.7324
c47.3916 12.3203 94.9199 23.7441 143.681 29.0918zM689.811 420.618c-0.272461 23.9766 -0.753906 47.9531 -1.33008 71.9131c-30.7324 -23.3516 -60.7285 -47.6719 -90.4531 -71.8887c-95.4248 -77.7568 -186.294 -160.741 -272.944 -248.16
c-75.8438 -76.5078 -148.965 -156.682 -208.981 -246.446c-55.5332 -83.0566 -122.987 -223.864 -12.9766 -296.065c79.2861 -52.0352 211.855 -45.8633 297.394 -14.7227c88.5322 32.2383 152.68 105.696 194.564 188.016c95.9287 188.544 97.1133 410.606 94.7275 617.354
z" />
    <glyph glyph-name="K" unicode="K" horiz-adv-x="812" 
d="M-13.3916 97.459c-12.7529 49.8018 53.6387 111.291 82.7305 143.945c19.7656 22.1914 39.7949 44.1504 59.8809 66.0615c-1.1123 59.3926 -1.58496 118.585 -1.88965 177.272c-1.35254 261.353 13.7373 523.882 46.6475 783.146
c6.27637 49.457 94.6885 57.8711 88.4688 2.02539c-28.6992 -257.847 -46.6396 -515.941 -50.666 -775.381c-0.503906 -32.6777 -0.583984 -65.3242 -0.319336 -97.9541c96.3936 103.958 193.083 207.628 287.787 313.14c91.5498 101.989 173.629 214.289 268.846 312.659
c6.58887 6.8125 23.2402 1.14453 17.6523 -9.34277c-65.3164 -122.659 -165.784 -230.996 -256.109 -335.603c-83.7451 -96.9932 -171.204 -190.761 -257.902 -285.097c-19.7656 -21.5029 -39.499 -43.0293 -59.208 -64.5801
c1.86523 -88.3721 5.68359 -176.624 9.67871 -264.868c11.2236 -2.22559 22.4316 -4.47559 33.5596 -6.82129c67.75 -14.2979 135.492 -28.5957 203.242 -42.8936c135.571 -28.6113 271.295 -56.4941 407.011 -84.4326c38.8506 -7.99707 12.8086 -61.7939 -21.1904 -54.3408
c-168.938 37.0332 -337.925 73.7705 -507.039 109.963c-37.665 8.05371 -75.4023 15.8594 -113.107 23.8252c4.34668 -96.5615 8.38184 -193.139 9.67871 -289.893c0.335938 -25.3691 -44.6387 -33.5508 -50.082 -7.10059
c-21.2305 103.214 -34.3115 208.781 -42.5566 315.077c-8.25391 1.85742 -16.5234 3.65039 -24.7607 5.55566c-38.5303 8.92578 -118.216 18.2363 -130.352 65.6367zM130.854 237.658c-17.7324 -19.7412 -35.4395 -39.5371 -51.835 -60.4072
c-8.24512 -10.4873 -16.2666 -21.1748 -23.5674 -32.3428c-15.5869 -23.832 -14.4102 -36.0723 12.9766 -45.2627c22.7197 -7.62109 45.9912 -13.8096 69.4873 -19.2617c-3.27441 52.3799 -5.54004 104.863 -7.06152 157.274z" />
    <glyph glyph-name="L" unicode="L" horiz-adv-x="211" 
d="M-56.54 -327.597c36.4326 17.1152 73.3418 33.2178 110.871 47.8037c10.8555 4.21875 21.7588 8.3252 32.6865 12.3604c-16.1553 85.2812 -22.6152 174.149 -30.917 258.015c-12.8643 129.904 -21.9346 260.072 -26.5293 390.528
c-9.13379 259.111 -7.29297 520.048 18.0205 778.247c4.85156 49.4736 91.2539 57.8555 87.9795 2.00977c-15.0186 -255.877 -25.2891 -511.378 -17.6279 -767.728c3.88281 -129.872 10.8955 -259.768 21.415 -389.271c6.54883 -80.5742 18.6611 -163.103 24.793 -245.158
c45.5186 14.7383 91.542 27.915 137.989 39.3945c83.5527 20.6377 168.435 35.9521 253.933 45.8145c84.2812 9.72656 169.395 16.1787 251.851 -7.58105c22.6953 -6.54004 7.25293 -35.2393 -12.376 -31.7324c-154.736 27.6348 -321.793 -3.12988 -472.983 -38.4902
c-52.6035 -12.2959 -104.687 -26.7695 -156.129 -43.2363c1.60938 -31.8857 2.05762 -63.6348 0.632812 -95.1201c-0.936523 -20.75 -41.2041 -36.9287 -49.498 -13.1602c-9.44629 27.0742 -17.0918 55.0371 -23.5039 83.5205
c-34.5029 -12.4648 -68.7822 -25.626 -102.646 -39.6992c-12.8086 -5.32324 -93.7832 -31.7012 -95.2158 -44.0615c-1.05664 -9.1582 -15.2744 -16.7871 -22.2471 -8.80566l-3.50684 4.01074c-3.38672 3.875 -4.36328 8.39844 -2.5625 13.2822
c10.207 27.6748 51.2031 37.6094 75.5713 49.0576z" />
    <glyph glyph-name="M" unicode="M" horiz-adv-x="970" 
d="M713.807 1222.58c17.9326 26.7139 46.8877 70.4971 82.4961 74.8682c32.7422 4.03516 47.5918 -24.792 56.7656 -51.3936c37.0889 -107.537 31.7969 -230.788 34.0303 -343.064c2.51367 -126.365 -0.104492 -252.971 -1.60156 -379.353
c-3.06641 -259.592 -3.2666 -518.351 26.9062 -776.613c6.4043 -54.7734 -89.6123 -83.4648 -96.417 -25.2256c-32.8223 280.942 -21.2861 565.871 -4.81055 847.55c7.39746 126.565 14.5303 253.139 20.4785 379.784c2.79395 59.5527 5.72363 119.273 3.8584 178.906
c-1.00879 32.1494 -3.37012 64.4355 -9.19824 96.1133c-2.16992 11.7676 -4.84375 35.832 -15.6191 43.1094c-21.9824 14.8418 -48.5127 -22.6074 -58.5352 -35.3359c-70.6875 -89.7969 -110.875 -212.576 -148.396 -319.097
c-39.2988 -111.563 -71.7129 -225.345 -107.249 -338.125c-17.2998 -54.877 -34.7832 -109.962 -54.4209 -164.062c-13.7129 -37.7773 -32.8457 -87.3232 -67.9014 -110.667c-84.0967 -55.998 -115.357 114.317 -128.054 161.397
c-30.8213 114.302 -48.2012 231.661 -64.1885 348.788c-10.2627 75.1865 -14.0576 158.475 -31.8135 235.735c-19.0205 -167.337 -34.9756 -334.714 -41.2354 -503.244c-3.79492 -102.013 -4.01074 -204.05 -3.16992 -306.119
c0.800781 -98.082 13.4492 -200.439 3.13867 -298.042c-2.84961 -26.9307 -45.0059 -35.3848 -52.9717 -7.50977c-27.9229 97.7139 -26.5859 208.845 -31.165 309.785c-4.41113 97.25 -4.47559 194.756 -2.4502 292.069c4.23438 203.689 18.5557 408.524 52.2988 609.572
c7.78125 46.3594 88.876 56.75 87.3311 6.46777c24.5361 -46.2715 33.2305 -98.707 41.2119 -150.534c10.5273 -68.3984 18.7891 -137.141 28.291 -205.683c18.2363 -131.537 39.459 -263.57 80.8555 -390.112c6.77246 -20.7021 17.7236 -83.1523 50.6104 -61.8818
c22.5752 14.6016 36.2881 54.0762 46.1592 77.4277c22.4551 53.124 39.8828 108.514 57.7266 163.318c36.6328 112.508 70.3037 226.009 109.891 337.532c36.5684 103.006 75.875 212.368 137.148 303.638z" />
    <glyph glyph-name="N" unicode="N" horiz-adv-x="934" 
d="M824.493 1158.89c-3.27441 46.9678 79.0723 71.9424 82.9951 21.7168c19.9014 -255.429 5.92383 -513.291 -23.04 -767.463c-12.4404 -109.162 -26.2578 -218.308 -45.751 -326.461c-17.5557 -97.3779 -37.9619 -204.33 -88.6279 -290.645
c-32.4463 -55.2773 -94.5762 -112.324 -160.373 -73.1455c-32.1016 19.1094 -53.3076 53.0361 -71.8398 84.3057c-25.5771 43.1572 -48.8252 87.7471 -70.2793 133.074c-158.403 334.675 -219.389 707.167 -315.558 1063.09
c-19.6377 -187.783 -28.5312 -377.007 -23.4316 -565.702c2.89844 -107.369 9.55859 -214.754 20.4863 -321.61c5.24316 -51.2832 11.8154 -102.39 18.5957 -153.496c6.45996 -48.6807 9.10938 -100.18 31.957 -144.481
c14.8184 -28.7393 -33.8389 -63.1309 -53.7324 -37.1211c-30.0527 39.291 -37.9219 84.0654 -47.0078 131.85c-10.5596 55.5176 -18.9336 111.419 -26.3545 167.433c-14.1699 106.912 -24.2168 214.409 -28.7959 322.162c-9.34277 219.717 -1.46582 439.033 27.0811 657.133
c6.22852 47.5762 89.3408 56.6943 87.7793 6.2041c62.0264 -189.144 101.949 -385.092 151.383 -577.727c44.5898 -173.733 95.2637 -346.811 169.986 -510.281c18.9326 -41.4199 39.3701 -82.1758 61.5127 -121.979c19.1895 -34.5029 38.4346 -73.0166 68.4307 -99.5469
c107.681 -95.248 153.584 127.599 166.145 193.307c37.3535 195.372 50.9385 397.685 64.9404 595.867c14.4658 204.635 17.7725 408.772 3.49902 613.519z" />
    <glyph glyph-name="O" unicode="O" horiz-adv-x="891" 
d="M495.72 1348.06c160.276 -5.41992 260.018 -148.885 310.14 -285.905c62.1621 -169.939 79.1816 -353.008 72.6328 -532.865c-6.64453 -182.491 -42.4932 -365.896 -103.423 -538.02c-49.5693 -140.022 -133.09 -315.813 -277.331 -379.856
c-65.8926 -29.252 -137.373 -23.8887 -194.355 21.4541c-57.7754 45.9668 -87.0508 119.12 -107.465 187.839c-34.6953 116.783 -37.7695 239.442 -29.2119 361.077c-1.13672 1.00879 -2.30566 1.98535 -3.42676 3.00195c-124.02 113.156 -164.247 291.909 -162.206 453.715
c2.10547 166.737 51.5225 332.737 140.703 473.608c77.3486 122.187 198.599 241.203 353.943 235.951zM827.042 618.194c3.85059 158.003 -9.04688 324.571 -65.0771 473.704c-53.3877 142.096 -180.698 263.946 -342.664 224.376
c-147.212 -35.9688 -246.728 -179.218 -307.681 -308.617c-63.4512 -134.707 -92.7666 -285.457 -83.2002 -434.117c8.30176 -129.071 48.0967 -264.234 140.936 -358.05c4.32324 49.7773 10.2471 99.2832 16.5234 148.012c6.19629 48.1289 92.4707 56.1826 86.0508 1.96973
c-8.25391 -69.7109 -16.5879 -140.358 -20.4541 -211.022c92.7109 -48.625 208.894 -54.9971 296.729 7.28516c11.624 8.24512 27.6826 -5.43652 14.9863 -14.5869c-92.4785 -66.6367 -213.12 -66.9414 -312.972 -20.1816c-3.3623 -90.998 1.70508 -181.836 25.4014 -270.56
c17.084 -63.9717 46.5361 -148.173 110.259 -180.219c73.8096 -37.1211 148.1 34.1191 192.226 86.4268c92.4707 109.61 142.417 251.395 180.507 387.646c42.4844 151.951 64.5869 310.267 68.4297 467.934z" />
    <glyph glyph-name="O" unicode="&#xd6;" horiz-adv-x="891" 
d="M495.72 1348.06c160.276 -5.41992 260.018 -148.885 310.14 -285.905c62.1621 -169.939 79.1816 -353.008 72.6328 -532.865c-6.64453 -182.491 -42.4932 -365.896 -103.423 -538.02c-49.5693 -140.022 -133.09 -315.813 -277.331 -379.856
c-65.8926 -29.252 -137.373 -23.8887 -194.355 21.4541c-57.7754 45.9668 -87.0508 119.12 -107.465 187.839c-34.6953 116.783 -37.7695 239.442 -29.2119 361.077c-1.13672 1.00879 -2.30566 1.98535 -3.42676 3.00195c-124.02 113.156 -164.247 291.909 -162.206 453.715
c2.10547 166.737 51.5225 332.737 140.703 473.608c77.3486 122.187 198.599 241.203 353.943 235.951zM827.042 618.194c3.85059 158.003 -9.04688 324.571 -65.0771 473.704c-53.3877 142.096 -180.698 263.946 -342.664 224.376
c-147.212 -35.9688 -246.728 -179.218 -307.681 -308.617c-63.4512 -134.707 -92.7666 -285.457 -83.2002 -434.117c8.30176 -129.071 48.0967 -264.234 140.936 -358.05c4.32324 49.7773 10.2471 99.2832 16.5234 148.012c6.19629 48.1289 92.4707 56.1826 86.0508 1.96973
c-8.25391 -69.7109 -16.5879 -140.358 -20.4541 -211.022c92.7109 -48.625 208.894 -54.9971 296.729 7.28516c11.624 8.24512 27.6826 -5.43652 14.9863 -14.5869c-92.4785 -66.6367 -213.12 -66.9414 -312.972 -20.1816c-3.3623 -90.998 1.70508 -181.836 25.4014 -270.56
c17.084 -63.9717 46.5361 -148.173 110.259 -180.219c73.8096 -37.1211 148.1 34.1191 192.226 86.4268c92.4707 109.61 142.417 251.395 180.507 387.646c42.4844 151.951 64.5869 310.267 68.4297 467.934z" />
    <glyph glyph-name="O" unicode="&#xd5;" horiz-adv-x="891" 
d="M495.72 1348.06c160.276 -5.41992 260.018 -148.885 310.14 -285.905c62.1621 -169.939 79.1816 -353.008 72.6328 -532.865c-6.64453 -182.491 -42.4932 -365.896 -103.423 -538.02c-49.5693 -140.022 -133.09 -315.813 -277.331 -379.856
c-65.8926 -29.252 -137.373 -23.8887 -194.355 21.4541c-57.7754 45.9668 -87.0508 119.12 -107.465 187.839c-34.6953 116.783 -37.7695 239.442 -29.2119 361.077c-1.13672 1.00879 -2.30566 1.98535 -3.42676 3.00195c-124.02 113.156 -164.247 291.909 -162.206 453.715
c2.10547 166.737 51.5225 332.737 140.703 473.608c77.3486 122.187 198.599 241.203 353.943 235.951zM827.042 618.194c3.85059 158.003 -9.04688 324.571 -65.0771 473.704c-53.3877 142.096 -180.698 263.946 -342.664 224.376
c-147.212 -35.9688 -246.728 -179.218 -307.681 -308.617c-63.4512 -134.707 -92.7666 -285.457 -83.2002 -434.117c8.30176 -129.071 48.0967 -264.234 140.936 -358.05c4.32324 49.7773 10.2471 99.2832 16.5234 148.012c6.19629 48.1289 92.4707 56.1826 86.0508 1.96973
c-8.25391 -69.7109 -16.5879 -140.358 -20.4541 -211.022c92.7109 -48.625 208.894 -54.9971 296.729 7.28516c11.624 8.24512 27.6826 -5.43652 14.9863 -14.5869c-92.4785 -66.6367 -213.12 -66.9414 -312.972 -20.1816c-3.3623 -90.998 1.70508 -181.836 25.4014 -270.56
c17.084 -63.9717 46.5361 -148.173 110.259 -180.219c73.8096 -37.1211 148.1 34.1191 192.226 86.4268c92.4707 109.61 142.417 251.395 180.507 387.646c42.4844 151.951 64.5869 310.267 68.4297 467.934z" />
    <glyph glyph-name="O" unicode="&#xd4;" horiz-adv-x="891" 
d="M495.72 1348.06c160.276 -5.41992 260.018 -148.885 310.14 -285.905c62.1621 -169.939 79.1816 -353.008 72.6328 -532.865c-6.64453 -182.491 -42.4932 -365.896 -103.423 -538.02c-49.5693 -140.022 -133.09 -315.813 -277.331 -379.856
c-65.8926 -29.252 -137.373 -23.8887 -194.355 21.4541c-57.7754 45.9668 -87.0508 119.12 -107.465 187.839c-34.6953 116.783 -37.7695 239.442 -29.2119 361.077c-1.13672 1.00879 -2.30566 1.98535 -3.42676 3.00195c-124.02 113.156 -164.247 291.909 -162.206 453.715
c2.10547 166.737 51.5225 332.737 140.703 473.608c77.3486 122.187 198.599 241.203 353.943 235.951zM827.042 618.194c3.85059 158.003 -9.04688 324.571 -65.0771 473.704c-53.3877 142.096 -180.698 263.946 -342.664 224.376
c-147.212 -35.9688 -246.728 -179.218 -307.681 -308.617c-63.4512 -134.707 -92.7666 -285.457 -83.2002 -434.117c8.30176 -129.071 48.0967 -264.234 140.936 -358.05c4.32324 49.7773 10.2471 99.2832 16.5234 148.012c6.19629 48.1289 92.4707 56.1826 86.0508 1.96973
c-8.25391 -69.7109 -16.5879 -140.358 -20.4541 -211.022c92.7109 -48.625 208.894 -54.9971 296.729 7.28516c11.624 8.24512 27.6826 -5.43652 14.9863 -14.5869c-92.4785 -66.6367 -213.12 -66.9414 -312.972 -20.1816c-3.3623 -90.998 1.70508 -181.836 25.4014 -270.56
c17.084 -63.9717 46.5361 -148.173 110.259 -180.219c73.8096 -37.1211 148.1 34.1191 192.226 86.4268c92.4707 109.61 142.417 251.395 180.507 387.646c42.4844 151.951 64.5869 310.267 68.4297 467.934z" />
    <glyph glyph-name="O" unicode="&#xd3;" horiz-adv-x="891" 
d="M495.72 1348.06c160.276 -5.41992 260.018 -148.885 310.14 -285.905c62.1621 -169.939 79.1816 -353.008 72.6328 -532.865c-6.64453 -182.491 -42.4932 -365.896 -103.423 -538.02c-49.5693 -140.022 -133.09 -315.813 -277.331 -379.856
c-65.8926 -29.252 -137.373 -23.8887 -194.355 21.4541c-57.7754 45.9668 -87.0508 119.12 -107.465 187.839c-34.6953 116.783 -37.7695 239.442 -29.2119 361.077c-1.13672 1.00879 -2.30566 1.98535 -3.42676 3.00195c-124.02 113.156 -164.247 291.909 -162.206 453.715
c2.10547 166.737 51.5225 332.737 140.703 473.608c77.3486 122.187 198.599 241.203 353.943 235.951zM827.042 618.194c3.85059 158.003 -9.04688 324.571 -65.0771 473.704c-53.3877 142.096 -180.698 263.946 -342.664 224.376
c-147.212 -35.9688 -246.728 -179.218 -307.681 -308.617c-63.4512 -134.707 -92.7666 -285.457 -83.2002 -434.117c8.30176 -129.071 48.0967 -264.234 140.936 -358.05c4.32324 49.7773 10.2471 99.2832 16.5234 148.012c6.19629 48.1289 92.4707 56.1826 86.0508 1.96973
c-8.25391 -69.7109 -16.5879 -140.358 -20.4541 -211.022c92.7109 -48.625 208.894 -54.9971 296.729 7.28516c11.624 8.24512 27.6826 -5.43652 14.9863 -14.5869c-92.4785 -66.6367 -213.12 -66.9414 -312.972 -20.1816c-3.3623 -90.998 1.70508 -181.836 25.4014 -270.56
c17.084 -63.9717 46.5361 -148.173 110.259 -180.219c73.8096 -37.1211 148.1 34.1191 192.226 86.4268c92.4707 109.61 142.417 251.395 180.507 387.646c42.4844 151.951 64.5869 310.267 68.4297 467.934z" />
    <glyph glyph-name="P" unicode="P" horiz-adv-x="878" 
d="M-20.6074 973.275c14.5703 39.5791 62.5381 72.3594 93.5986 98.1611c61.9463 51.4268 130.545 94.6396 203.25 129.191c10.6396 20.166 36.7129 29.5244 57.3906 25.2656c154.945 62.418 345.082 102.381 507.552 49.7295
c76.748 -24.873 147.948 -71.0801 176.247 -149.886c28.3633 -78.9658 11.5361 -165.296 -22.0469 -239.778c-75.7148 -167.89 -203.642 -318.888 -326.316 -454.243c-96.0967 -106.032 -198.847 -205.548 -304.614 -301.789
c13.1211 -149.053 29.6602 -297.722 43.7256 -447.055c2.8418 -30.1328 -45.5752 -46.5596 -53.7246 -14.0576c-31.9893 127.559 -53.748 258.512 -69.0068 390.272c-11.5918 -10.2549 -23.1592 -20.542 -34.7988 -30.749
c-33.959 -29.7881 -83.0723 13.585 -46.5273 45.2783c24.3682 21.1348 48.6963 42.3408 72.9766 63.6113c-9.33398 96.2256 -15.5703 192.627 -20.0771 288.212c-11.2881 239.466 -10.7197 480.453 10.7744 719.375c-28.4434 -15.0498 -56.1904 -31.3965 -83.0244 -49.04
c-20.3096 -13.3447 -194.939 -138.846 -158.787 -160.028c15.0186 -8.79785 -0.280273 -25.6572 -13.0244 -24.0479c-30.4766 3.8584 -43.7734 33.8467 -33.5664 61.5771zM858.25 1220.91c-146.347 63.7314 -326.405 29.502 -471.127 -22.9258
c-8.42188 -3.04199 -16.7871 -6.24414 -25.1123 -9.54199c-0.0244141 -0.383789 0 -0.736328 -0.0244141 -1.12891c-17.1318 -251.362 -27.291 -502.868 -17.6045 -754.791c2.87402 -74.8506 7.62891 -149.421 13.4805 -223.855
c83.2646 74.5625 164.92 150.91 242.652 231.229c109.898 113.557 211.911 235.503 297.93 368.272c43.1416 66.5889 85.1943 140.055 87.1475 221.525c2.14551 89.1484 -46.8877 156.186 -127.342 191.217z" />
    <glyph glyph-name="Q" unicode="Q" horiz-adv-x="972" 
d="M570.659 1377.01c145.923 -18.1885 255.197 -132.265 315.75 -259.503c69.3193 -145.635 88.7002 -317.871 77.6523 -477.387c-11.6396 -167.938 -59.0879 -333.706 -139.11 -481.822c-60.2324 -111.468 -147.659 -226.409 -265.323 -282.423
c46.4072 6.56445 93.0625 11.5762 138.766 11.0156c33.375 -0.400391 31.1494 -44.6387 1.67383 -50.7705c-84.8975 -17.6523 -173.894 -21.4473 -259.84 -33.7998c-83.376 -11.9844 -167.072 -32.5342 -250.833 -40.0518
c-34.5273 -3.09766 -27.8506 42.0449 -1.64062 49.8984c61.8496 18.5322 128.166 28.3711 193.37 37.3691c-29.5645 6.78906 -57.6475 19.9336 -82.3281 40.2832c-52.8838 43.5977 -81.335 111.18 -97.1221 176.224c-18.8447 77.6602 -24.6729 157.37 -22.1592 237.225
c-11.3438 5.55566 -22.543 11.7764 -33.5186 18.8691c-141.456 91.4941 -161.902 274.786 -143.058 428.498c33.4385 272.824 238.434 667.419 567.721 626.375zM915.269 716.126c4.69141 144.313 -9.43945 299.682 -76.7334 429.914
c-62.3457 120.666 -188.951 216.274 -329.174 208.229c-152.903 -8.77441 -272.353 -120.866 -350.974 -243.533c-79.2617 -123.676 -125.525 -267.709 -134.396 -414.248c-8.1416 -134.435 21.6221 -286.89 146.146 -361.188
c3.49023 -2.08105 7.00488 -4.03418 10.5273 -5.95508c5.25977 97.8906 22.3037 195.701 43.0059 289.933c9.8623 44.8867 93.3271 52.9238 82.6641 1.89746c-22.0625 -105.607 -41.4199 -214.009 -44.1016 -322.266c110.931 -24.2002 229.651 13.2168 323.571 79.2852
c10.9277 7.69336 25.9941 -5.19531 14.0498 -13.6729c-97.5781 -69.2627 -221.654 -110.227 -337.885 -88.5322c-0.135742 -61.3379 5.29199 -122.571 19.1494 -183.148c13.9297 -60.8896 40.2832 -131.785 98.5703 -163.303
c68.4785 -37.0254 151.158 -1.32129 208.557 40.5469c110.154 80.3428 184.276 205.147 236.439 328.743c55.8301 132.281 85.9229 273.873 90.582 417.298z" />
    <glyph glyph-name="R" unicode="R" horiz-adv-x="866" 
d="M52.5771 1056.04c39.0986 31.7812 80.9365 60.0449 124.878 84.6699c89.8691 50.3457 188.872 85.8018 290.333 103.598c155.369 27.25 362.67 27.5381 453.804 -127.022c48.3604 -82.0156 26.8418 -170.115 -8.23828 -252.667
c-36.0088 -84.7451 -82.3125 -164.999 -133.516 -241.395c-106.328 -158.636 -234.087 -301.324 -343.961 -457.366c-30.1963 -42.8848 -69.8955 -92.9424 -83.9531 -144.177c-17.3955 -63.4033 61.9219 -74.5068 105.52 -82.2559
c110.387 -19.6289 221.39 -37.0088 331.28 -59.2559c54.1084 -10.959 16.835 -81.3828 -28.9883 -74.3457c-117.704 18.084 -235.84 39.1865 -352.646 62.4346c-28.6113 5.69141 -55.4932 15.5625 -77.8359 29.3877c8.90234 -64.083 20.0703 -127.622 34.4482 -190.128
c6.31641 -27.4746 -41.2676 -47.9043 -53.9082 -21.0781c-47.6562 101.141 -57.0068 220.205 -70.1514 329.991c-14.2412 118.889 -23.792 238.498 -29.3242 358.099c-10.9912 237.713 -4.91504 476.987 20.582 713.571c5.12305 47.4717 89.0762 55.5332 84.6016 1.93652
c-19.3408 -231.637 -27.4746 -463.346 -21.0225 -695.719c2.67383 -96.1533 6.32422 -193.684 13.4492 -291.037c38.5059 67.4453 90.2451 129.239 137.894 188.848c56.8467 71.1201 115.702 140.6 172.637 211.647c56.502 70.5117 111.243 142.625 159.62 219.013
c48.8486 77.124 106.76 169.57 121.481 261.137c14.8018 92.0625 -50.1143 169.892 -131.177 204.483c-90.5332 38.6338 -198.391 32.2695 -293.399 16.0342c-89.0928 -15.2266 -175.68 -44.1826 -255.958 -85.6982c-70.7764 -36.6006 -157.979 -84.8809 -203.883 -153.703
c5.75586 -0.400391 11.5039 -0.816406 17.2598 -1.22461c12.8643 5.47559 22.0303 -10.6553 9.08594 -17.0996c-18.7891 -9.34277 -34.0791 -10.2471 -54.3809 -5.1875c-6.00391 1.49707 -10.9111 6.98926 -9.99805 13.498c6.30859 45.0381 42.0049 73.8096 75.4678 101.012
z" />
    <glyph glyph-name="S" unicode="S" horiz-adv-x="1166" 
d="M53.2178 805.714c72.3926 114.478 174.591 206.568 286.938 280.786c117.968 77.9404 252.955 143.561 391.081 175.687c108.682 25.2812 265.483 41.4043 345.426 -56.7744c88.3799 -108.537 16.1875 -286.834 -31.6611 -396.98
c-13.1045 -30.1562 -68.1016 -23.8799 -54.6289 12.3047c32.3018 86.7471 72.8574 177.633 64.6035 272.449c-7.31738 84.041 -70.7764 123.283 -149.573 130.032c-164.375 14.0654 -334.603 -70.1992 -470.271 -154.424
c-116.047 -72.0488 -221.75 -164.463 -295.231 -280.573c-34.9756 -55.2695 -71.7607 -126.598 -56.166 -194.115c15.5547 -67.3252 86.3623 -91.0615 145.955 -105.743c272.784 -67.2217 629.474 -52.6357 813.847 -305.19
c75.6035 -103.558 88.6445 -234.222 16.3154 -343.096c-68.0459 -102.421 -197.67 -173.806 -320.633 -175.335c-125.765 -1.56934 -235.823 73.0811 -275.771 192.851c-44.7744 134.243 -22.8154 291.037 21.8545 422.166
c4.31445 12.6729 26.7295 9.55078 21.8457 -4.92285c-51.8428 -153.672 -85.3936 -394.379 48.585 -518.07c136.612 -126.125 361.812 -65.5244 454.812 82.7676c81.6709 130.232 16.5625 271.04 -96.6826 356.186c-121.21 91.1416 -272.16 126.742 -418.972 151.479
c-81.0469 13.6494 -162.622 24.0889 -243.356 39.5869c-65.1797 12.5127 -132.85 26.8984 -187.654 66.4209c-123.211 88.8438 -79.5254 243.62 -10.6631 352.51z" />
    <glyph glyph-name="T" unicode="T" horiz-adv-x="846" 
d="M-24.7588 867.972c7.7334 66.0449 86.7393 111.095 136.373 145.91c61.3291 43.0215 125.949 80.8867 191.794 116.535c91.3496 49.457 185.261 94.2236 281.174 134.234c2.6416 35.8965 5.36328 71.7764 8.13281 107.656c3.9707 51.3311 94.5684 59.625 90.8857 2.08203
c-1.53711 -24.0566 -3.10645 -48.1211 -4.67578 -72.1777c123.812 46.9678 250.602 86.0898 379.32 116.927c134.515 32.2295 272.792 59.0479 411.27 64.9717c93.5195 4.00293 264.035 15.5625 313.269 -87.7236c16.5869 -34.7998 -40.1074 -64.5957 -60.0811 -31.9492
c-36.7129 60.0166 -130.633 57.1904 -191.962 58.4717c-82.8643 1.72949 -165.729 -6.56445 -247.464 -19.6777c-147.956 -23.7441 -294.207 -59.208 -436.976 -104.614c-57.7754 -18.3721 -114.958 -38.5615 -171.524 -60.3525
c-15.3779 -235.632 -30.3965 -471.392 -33.0225 -707.552c-1.58496 -142.393 2.53027 -284.505 12.1367 -426.577c8.73438 -129.136 14.0742 -266.101 54.7734 -389.736c7.99707 -24.2969 -34.2715 -45.543 -50.2666 -26.7305
c-38.7305 45.5586 -47.1602 106.256 -56.6543 163.591c-11.8643 71.6084 -20.7178 143.81 -28.0752 216.019c-14.5381 142.761 -19.4531 286.723 -20.5254 430.172c-1.33691 178.825 5.37988 357.458 15.9395 535.898
c-24.6162 42.9893 -125.452 -0.824219 -159.355 -12.4004c-47.8643 -16.3555 -94.9043 -34.9277 -141.288 -55.1094c-88.9482 -38.6982 -175.511 -82.6084 -262.729 -124.989c-5.57227 -2.70605 -10.4473 -0.985352 -13.1211 2.3291
c-10.8389 1.86523 -19.124 9.59863 -17.3467 24.793zM223.337 1020.39c-34.4951 -20.7422 -68.3574 -42.5576 -100.731 -66.4941c-23.2559 -17.1953 -73.3857 -46.0791 -86.29 -76.6035c99.8916 48.8252 199.615 98.2744 303.422 138.35
c37.8574 14.6104 176.335 79.6787 231.068 45.9355c2.83398 46.1514 5.8916 92.2861 9.1416 138.413c-51.8193 -21.9668 -103.038 -45.3506 -153.593 -70.127c-69.0068 -33.8145 -137.141 -69.8633 -203.018 -109.474z" />
    <glyph glyph-name="U" unicode="U" horiz-adv-x="854" 
d="M533.344 14.1143c32.5098 63.0186 57.96 129.463 81.8164 196.132c22.8477 63.8428 43.79 128.574 63.0029 193.851c-4.65918 110.379 -8.26172 220.781 -8.37402 331.344c-0.0957031 89.1885 1.96973 178.433 8.07031 267.429
c5.60352 81.7354 12.416 165.776 39.6748 243.646c14.9619 42.749 60.7686 86.4189 100.011 38.1865c41.4277 -50.9062 25.1689 -149.261 21.3828 -208.677c-10.6553 -166.961 -46.792 -331 -85.29 -493.478c2.79395 -34.0469 5.70801 -68.0859 8.64551 -102.141
c26.6338 -308.385 29.2598 -617.202 111.259 -917.766c15.7949 -57.9033 -83.2559 -85.5781 -103.134 -26.9863c-63.6436 187.567 -71.001 391.129 -79.5264 587.365c-2.73828 63.0264 -5.76465 126.037 -8.66309 189.048
c-24.8652 -82.2559 -52.9561 -163.519 -85.7227 -242.836c-47.9121 -115.982 -123.771 -287.482 -264.627 -307.432c-173.525 -24.585 -235.303 193.299 -265.387 321.882c-39.7627 169.955 -47.3516 344.81 -45.1338 518.711
c1.16895 91.7344 6.12402 183.356 9.57422 275.019c3.44238 91.4863 4.69922 184.421 16.2188 275.13c2.48145 19.5332 34.7432 27.5547 39.9707 5.66797c20.3418 -85.2656 22.4717 -175.695 24.4814 -263.242c2.04102 -88.9238 2.72168 -177.904 4.18652 -266.845
c2.81836 -170.676 12.4648 -343.648 52.0918 -510.226c21.5586 -90.6533 87.7559 -369.346 234.255 -275.146c59.4961 38.2578 99.667 110.202 131.217 171.363zM746.657 1179.35c-11.2881 -73.3301 -11.9385 -148.245 -11.8428 -222.287
c0.120117 -94.5039 4.9873 -188.68 11.7441 -282.76c31.3574 147.195 56.6865 296.448 59.5049 447.23c0.712891 38.002 6.49316 86.1309 -10.1104 121.531c-6.06055 12.9209 -18.5967 31.5977 -30.5645 16.6836c-3.16211 -3.93848 -4.19434 -10.5908 -5.69922 -15.3301
c-6.52441 -20.5664 -9.74219 -43.7178 -13.0322 -65.0684z" />
    <glyph glyph-name="U" unicode="&#xdc;" horiz-adv-x="854" 
d="M533.344 14.1143c32.5098 63.0186 57.96 129.463 81.8164 196.132c22.8477 63.8428 43.79 128.574 63.0029 193.851c-4.65918 110.379 -8.26172 220.781 -8.37402 331.344c-0.0957031 89.1885 1.96973 178.433 8.07031 267.429
c5.60352 81.7354 12.416 165.776 39.6748 243.646c14.9619 42.749 60.7686 86.4189 100.011 38.1865c41.4277 -50.9062 25.1689 -149.261 21.3828 -208.677c-10.6553 -166.961 -46.792 -331 -85.29 -493.478c2.79395 -34.0469 5.70801 -68.0859 8.64551 -102.141
c26.6338 -308.385 29.2598 -617.202 111.259 -917.766c15.7949 -57.9033 -83.2559 -85.5781 -103.134 -26.9863c-63.6436 187.567 -71.001 391.129 -79.5264 587.365c-2.73828 63.0264 -5.76465 126.037 -8.66309 189.048
c-24.8652 -82.2559 -52.9561 -163.519 -85.7227 -242.836c-47.9121 -115.982 -123.771 -287.482 -264.627 -307.432c-173.525 -24.585 -235.303 193.299 -265.387 321.882c-39.7627 169.955 -47.3516 344.81 -45.1338 518.711
c1.16895 91.7344 6.12402 183.356 9.57422 275.019c3.44238 91.4863 4.69922 184.421 16.2188 275.13c2.48145 19.5332 34.7432 27.5547 39.9707 5.66797c20.3418 -85.2656 22.4717 -175.695 24.4814 -263.242c2.04102 -88.9238 2.72168 -177.904 4.18652 -266.845
c2.81836 -170.676 12.4648 -343.648 52.0918 -510.226c21.5586 -90.6533 87.7559 -369.346 234.255 -275.146c59.4961 38.2578 99.667 110.202 131.217 171.363zM746.657 1179.35c-11.2881 -73.3301 -11.9385 -148.245 -11.8428 -222.287
c0.120117 -94.5039 4.9873 -188.68 11.7441 -282.76c31.3574 147.195 56.6865 296.448 59.5049 447.23c0.712891 38.002 6.49316 86.1309 -10.1104 121.531c-6.06055 12.9209 -18.5967 31.5977 -30.5645 16.6836c-3.16211 -3.93848 -4.19434 -10.5908 -5.69922 -15.3301
c-6.52441 -20.5664 -9.74219 -43.7178 -13.0322 -65.0684z" />
    <glyph glyph-name="U" unicode="&#xdb;" horiz-adv-x="854" 
d="M533.344 14.1143c32.5098 63.0186 57.96 129.463 81.8164 196.132c22.8477 63.8428 43.79 128.574 63.0029 193.851c-4.65918 110.379 -8.26172 220.781 -8.37402 331.344c-0.0957031 89.1885 1.96973 178.433 8.07031 267.429
c5.60352 81.7354 12.416 165.776 39.6748 243.646c14.9619 42.749 60.7686 86.4189 100.011 38.1865c41.4277 -50.9062 25.1689 -149.261 21.3828 -208.677c-10.6553 -166.961 -46.792 -331 -85.29 -493.478c2.79395 -34.0469 5.70801 -68.0859 8.64551 -102.141
c26.6338 -308.385 29.2598 -617.202 111.259 -917.766c15.7949 -57.9033 -83.2559 -85.5781 -103.134 -26.9863c-63.6436 187.567 -71.001 391.129 -79.5264 587.365c-2.73828 63.0264 -5.76465 126.037 -8.66309 189.048
c-24.8652 -82.2559 -52.9561 -163.519 -85.7227 -242.836c-47.9121 -115.982 -123.771 -287.482 -264.627 -307.432c-173.525 -24.585 -235.303 193.299 -265.387 321.882c-39.7627 169.955 -47.3516 344.81 -45.1338 518.711
c1.16895 91.7344 6.12402 183.356 9.57422 275.019c3.44238 91.4863 4.69922 184.421 16.2188 275.13c2.48145 19.5332 34.7432 27.5547 39.9707 5.66797c20.3418 -85.2656 22.4717 -175.695 24.4814 -263.242c2.04102 -88.9238 2.72168 -177.904 4.18652 -266.845
c2.81836 -170.676 12.4648 -343.648 52.0918 -510.226c21.5586 -90.6533 87.7559 -369.346 234.255 -275.146c59.4961 38.2578 99.667 110.202 131.217 171.363zM746.657 1179.35c-11.2881 -73.3301 -11.9385 -148.245 -11.8428 -222.287
c0.120117 -94.5039 4.9873 -188.68 11.7441 -282.76c31.3574 147.195 56.6865 296.448 59.5049 447.23c0.712891 38.002 6.49316 86.1309 -10.1104 121.531c-6.06055 12.9209 -18.5967 31.5977 -30.5645 16.6836c-3.16211 -3.93848 -4.19434 -10.5908 -5.69922 -15.3301
c-6.52441 -20.5664 -9.74219 -43.7178 -13.0322 -65.0684z" />
    <glyph glyph-name="U" unicode="&#xda;" horiz-adv-x="854" 
d="M533.344 14.1143c32.5098 63.0186 57.96 129.463 81.8164 196.132c22.8477 63.8428 43.79 128.574 63.0029 193.851c-4.65918 110.379 -8.26172 220.781 -8.37402 331.344c-0.0957031 89.1885 1.96973 178.433 8.07031 267.429
c5.60352 81.7354 12.416 165.776 39.6748 243.646c14.9619 42.749 60.7686 86.4189 100.011 38.1865c41.4277 -50.9062 25.1689 -149.261 21.3828 -208.677c-10.6553 -166.961 -46.792 -331 -85.29 -493.478c2.79395 -34.0469 5.70801 -68.0859 8.64551 -102.141
c26.6338 -308.385 29.2598 -617.202 111.259 -917.766c15.7949 -57.9033 -83.2559 -85.5781 -103.134 -26.9863c-63.6436 187.567 -71.001 391.129 -79.5264 587.365c-2.73828 63.0264 -5.76465 126.037 -8.66309 189.048
c-24.8652 -82.2559 -52.9561 -163.519 -85.7227 -242.836c-47.9121 -115.982 -123.771 -287.482 -264.627 -307.432c-173.525 -24.585 -235.303 193.299 -265.387 321.882c-39.7627 169.955 -47.3516 344.81 -45.1338 518.711
c1.16895 91.7344 6.12402 183.356 9.57422 275.019c3.44238 91.4863 4.69922 184.421 16.2188 275.13c2.48145 19.5332 34.7432 27.5547 39.9707 5.66797c20.3418 -85.2656 22.4717 -175.695 24.4814 -263.242c2.04102 -88.9238 2.72168 -177.904 4.18652 -266.845
c2.81836 -170.676 12.4648 -343.648 52.0918 -510.226c21.5586 -90.6533 87.7559 -369.346 234.255 -275.146c59.4961 38.2578 99.667 110.202 131.217 171.363zM746.657 1179.35c-11.2881 -73.3301 -11.9385 -148.245 -11.8428 -222.287
c0.120117 -94.5039 4.9873 -188.68 11.7441 -282.76c31.3574 147.195 56.6865 296.448 59.5049 447.23c0.712891 38.002 6.49316 86.1309 -10.1104 121.531c-6.06055 12.9209 -18.5967 31.5977 -30.5645 16.6836c-3.16211 -3.93848 -4.19434 -10.5908 -5.69922 -15.3301
c-6.52441 -20.5664 -9.74219 -43.7178 -13.0322 -65.0684z" />
    <glyph glyph-name="V" unicode="V" horiz-adv-x="991" 
d="M340.224 86.8193c36.5605 -103.71 79.584 -215.095 141.851 -306.437c14.7139 -21.5986 35.8486 -47.6719 64.0195 -49.2646c27.915 -1.57715 48.9453 21.623 64.5723 41.9893c37.249 48.5449 61.9854 112.02 84.9453 168.29
c47.2725 115.847 80.7031 237.097 115.743 357.018c65.4365 223.943 136.061 447.198 240.684 656.444c49.9062 99.8193 106.856 197.133 172.125 287.722c56.1182 77.8926 121.019 173.405 219.109 198.927c11.0791 2.88184 22.5186 -2.39355 25.3281 -13.793
c2.26562 -9.19043 4.53125 -18.3887 6.79688 -27.5869c6.1084 -24.8086 -39.042 -38.4336 -44.6133 -11.6719c-0.52832 2.53809 -1.05664 5.07617 -1.58496 7.60547c-59.8887 -22.4473 -103.47 -77.5645 -143.2 -125.597
c-43.2451 -52.2754 -83.5605 -107.337 -119.737 -164.744c-73.041 -115.895 -130.76 -241.876 -180.705 -369.202c-92.2227 -235.095 -146.804 -480.989 -227.626 -719.623c-20.3418 -60.041 -42.5889 -119.697 -68.5664 -177.536
c-20.0693 -44.6787 -41.2998 -94.5527 -77.1084 -129.2c-31.8457 -30.8213 -74.8271 -45.335 -118.457 -34.0957c-50.3457 12.9766 -85.3057 57.6465 -112.604 98.874c-128.863 194.651 -181.066 436.888 -229.556 661.72
c-24.8809 115.374 -47.7207 231.093 -74.627 346.026c-26.6338 113.749 -63.3711 224.832 -90.5332 338.301c-4.55469 19.0127 24.5293 28.251 34.5518 13.5127c70.3438 -103.486 108.298 -230.532 140.536 -350.35c32.9502 -122.475 59.2881 -246.606 87.8838 -370.13
c25.5137 -110.211 53.124 -220.422 90.7734 -327.198z" />
    <glyph glyph-name="W" unicode="W" horiz-adv-x="1601" 
d="M439.393 -263.674c38.5781 -58.8242 109.587 -102.421 160.197 -30.5322c43.0127 61.1211 64.6113 142.456 89.7168 212.071c53.4844 148.324 98.251 299.515 142.905 450.681c0.21582 4.72363 1.55273 9.0625 3.81055 12.8887
c0.0322266 0.104492 0.0566406 0.192383 0.0888672 0.288086c1.1123 3.79492 3.65039 6.34863 6.69238 7.80566c15.0586 13.0166 41.252 13.6494 46.9678 -10.0791c25.2334 -104.703 47.4326 -209.63 69.2236 -315.077c19.3252 -93.4795 36.9209 -195.765 82.9521 -280.446
c17.4277 -32.0615 50.002 -83.2158 90.8779 -86.6338c37.5771 -3.1377 60.1201 47.2168 73.5527 75.4443c38.874 81.6797 60.457 172.469 80.6709 260.225c41.7002 181.011 73.9785 364.103 119.585 544.232c41.2275 162.847 92.9824 323.899 171.523 472.937
c19.1572 36.3525 39.6035 72.0322 61.8428 106.592c18.9248 29.4121 38.082 65.7568 66.1729 87.4355c36.2803 27.9951 109.898 4.49121 82.9678 -48.2881c-15.4346 -30.2607 -64.3076 -14.5225 -44.334 16.2266c-13.4727 0.352539 -22.9912 -5.56348 -28.5713 -17.7393
c-4.17871 -5.54785 -8.25391 -11.1758 -12.2168 -16.876c-5.33984 -7.54102 -10.5352 -15.1865 -15.6582 -22.8721c-12.8008 -19.1973 -25.0654 -38.7383 -36.8174 -58.5918c-24.9131 -42.0762 -47.3203 -85.5537 -67.75 -129.976
c-38.7305 -84.2334 -70.2314 -171.645 -96.9531 -260.377c-53.5645 -177.841 -86.6348 -360.885 -124.076 -542.56c-17.3242 -84.0488 -35.1768 -168.162 -56.1748 -251.387c-18.5723 -73.5859 -38.3057 -158.331 -82.2236 -221.622
c-39.3711 -56.7422 -109.082 -83 -173.334 -51.4668c-70.7275 34.7031 -104.751 114.069 -127.671 184.789c-49.6172 153.144 -68.0381 315.99 -84.5215 476.211c-47.9287 -164.071 -97.1377 -328.015 -156.658 -488.259
c-21.4629 -57.7754 -40.0195 -126.222 -86.8994 -169.555c-48.3848 -44.7188 -119.521 -43.9658 -174.357 -10.8398c-58.7041 35.4561 -93.9355 96.4092 -120.866 157.675c-32.9502 74.9551 -57.1982 153.784 -77.5645 232.966
c-42.0283 163.398 -66.1885 330.768 -91.9424 497.296c-12.5527 81.167 -24.2246 162.854 -41.7168 243.133c-9.39062 43.0771 -19.3174 86.1387 -35.7764 127.183c-16.0752 40.0752 -29.6602 79.0771 -66.3809 104.454c-9.53418 6.58887 1.43359 20.0459 10.624 14.9941
c68.5586 -37.6816 108.498 -89.1641 139.839 -160.06c33.7988 -76.46 54.2529 -159.628 72.2646 -241.019c33.7588 -152.591 59.6807 -306.728 93.752 -459.255c16.459 -73.6738 36.2568 -146.235 58.3438 -218.404c20.0137 -65.3887 40.0352 -135.885 77.8926 -193.612z
" />
    <glyph glyph-name="X" unicode="X" horiz-adv-x="1038" 
d="M-42.6748 -289.188c-20.2139 4.93945 -36.6162 28.4043 -25.9854 48.8818c59.2158 114.253 122.603 226.297 190.889 335.379c88.1953 140.896 184.284 276.667 287.474 406.892c-44.958 78.8369 -87.6914 158.915 -131.289 238.609
c-33.8145 61.8174 -68.6621 123.146 -107.072 182.242c-21.9111 33.7109 -44.2627 68.0938 -70.5449 98.5859c-20.7344 24.0566 -57.6475 66.2529 -93.4961 58.8242c-55.0371 -11.4072 -23.9443 76.8525 16.667 42.7334c25.3936 -21.334 54.6133 -34.8389 78.0771 -58.9756
c23.3682 -24.0322 43.1094 -51.8672 62.3145 -79.2539c44.6387 -63.6592 84.2012 -130.713 121.938 -198.639c48.001 -86.4102 95.0889 -173.005 143.946 -258.375c32.8867 40.8916 66.4053 81.2871 100.709 121.026c146.251 169.427 303.718 341.383 484.248 474.969
c29.3076 21.6943 66.125 -8.22168 38.0898 -37.0732c-99.707 -102.605 -205.37 -198.999 -303.549 -303.245c-97.2256 -103.229 -189.304 -211.278 -276.267 -323.298c-0.736328 -0.953125 -1.45703 -1.90625 -2.19336 -2.8584
c72.6895 -122.812 150.679 -242.181 242.413 -353.584c82.3115 -99.9639 173.501 -192.955 274.962 -273.594c108.506 -86.2422 237.394 -175.807 382.46 -166.584c18.1885 1.16113 13.2969 -23.9844 -2.72168 -25.0088c-145.955 -9.35059 -274.49 75.2666 -385.197 160.917
c-205.355 158.884 -367.665 366.448 -504.142 585.677c-9.46289 15.21 -18.7734 30.5166 -27.9639 45.8789c-165.496 -216.61 -312.411 -447.366 -436.911 -689.898c-10.5996 -20.6455 -32.4307 -36.1924 -56.8555 -30.2285z" />
    <glyph glyph-name="Y" unicode="Y" horiz-adv-x="1007" 
d="M1012.66 528.246c-24.8252 -22.8877 -48.9092 -46.4912 -72.4453 -70.6357c-7.4375 -173.445 -35.1123 -346.875 -70.8008 -512.771c-20.3496 -94.6162 -45.0947 -188.864 -79.2695 -279.493c-30.1729 -80.0303 -66.6934 -173.165 -130.721 -232.661
c-52.2031 -48.5049 -141.216 -67.9258 -196.533 -13.2168c-53.1562 52.5791 -54.3008 144.449 -44.8779 213.28c24.7686 180.843 126.357 345.635 227.49 493.543c63.4834 92.8467 131.497 182.651 205.867 266.845c15.2988 159.1 18.0928 319.528 -3.16992 478.292
c-11.4561 85.5303 -20.6543 181.067 -54.8457 261.073c-9.51855 22.2627 -22.4316 47.416 -43.9658 60.1367c-37.2012 21.9912 -59.584 -1.99316 -79.2695 -28.875c-23.1514 -31.6055 -42.9805 -66.1484 -61.5371 -100.588
c-77.0684 -143.001 -123.748 -299.154 -180.955 -450.505c-28.2275 -74.6904 -58.6162 -149.068 -95.8096 -219.788c-29.5645 -56.2305 -65.8691 -121.162 -132.786 -138.069c-165.8 -41.8926 -173.396 248.776 -180.385 343.368
c-13.6572 184.733 -5.15527 369.827 15.5625 553.607c4.44336 39.3867 69.3838 45.6709 69.6162 1.59277c1.19238 -228.643 -14.7305 -458.27 23.3271 -685.055c6.74023 -40.1709 10.9746 -91.5176 35.5908 -125.821c32.79 -45.7031 76.291 -16.6758 105.062 15.8262
c63.5869 71.8242 99.5635 178.696 134.011 266.964c61.8496 158.443 112.684 322.587 197.333 470.991c26.1533 45.8633 66.9893 137.461 132.729 130.08c70.2871 -7.89355 105.663 -100.668 125.925 -156.386c67.5342 -185.726 89.2129 -383.171 83.5449 -581.153
c18.4043 18.3486 37.1445 36.3926 56.3252 54.0049c10.7432 9.8623 26.4258 -4.03516 14.9863 -14.5859zM844.858 331.477c0.944336 8.1416 1.82324 16.2852 2.7041 24.4346c-77.6768 -90.8936 -148.269 -187.936 -213.809 -287.972
c-54.4766 -83.1523 -104.767 -169.467 -140.583 -262.45c-34.3916 -89.3008 -74.3311 -211.392 -23.248 -301.781c23.4082 -41.4277 63.7158 -59.8564 106.457 -32.3818c29.084 18.6924 47.7686 50.8262 63.5469 80.5898c41.1719 77.6689 72.6016 160.974 98.0186 244.982
c52.4199 173.262 86.1387 354.896 106.913 534.578z" />
    <glyph glyph-name="Y" unicode="&#x178;" horiz-adv-x="1007" 
d="M1012.66 528.246c-24.8252 -22.8877 -48.9092 -46.4912 -72.4453 -70.6357c-7.4375 -173.445 -35.1123 -346.875 -70.8008 -512.771c-20.3496 -94.6162 -45.0947 -188.864 -79.2695 -279.493c-30.1729 -80.0303 -66.6934 -173.165 -130.721 -232.661
c-52.2031 -48.5049 -141.216 -67.9258 -196.533 -13.2168c-53.1562 52.5791 -54.3008 144.449 -44.8779 213.28c24.7686 180.843 126.357 345.635 227.49 493.543c63.4834 92.8467 131.497 182.651 205.867 266.845c15.2988 159.1 18.0928 319.528 -3.16992 478.292
c-11.4561 85.5303 -20.6543 181.067 -54.8457 261.073c-9.51855 22.2627 -22.4316 47.416 -43.9658 60.1367c-37.2012 21.9912 -59.584 -1.99316 -79.2695 -28.875c-23.1514 -31.6055 -42.9805 -66.1484 -61.5371 -100.588
c-77.0684 -143.001 -123.748 -299.154 -180.955 -450.505c-28.2275 -74.6904 -58.6162 -149.068 -95.8096 -219.788c-29.5645 -56.2305 -65.8691 -121.162 -132.786 -138.069c-165.8 -41.8926 -173.396 248.776 -180.385 343.368
c-13.6572 184.733 -5.15527 369.827 15.5625 553.607c4.44336 39.3867 69.3838 45.6709 69.6162 1.59277c1.19238 -228.643 -14.7305 -458.27 23.3271 -685.055c6.74023 -40.1709 10.9746 -91.5176 35.5908 -125.821c32.79 -45.7031 76.291 -16.6758 105.062 15.8262
c63.5869 71.8242 99.5635 178.696 134.011 266.964c61.8496 158.443 112.684 322.587 197.333 470.991c26.1533 45.8633 66.9893 137.461 132.729 130.08c70.2871 -7.89355 105.663 -100.668 125.925 -156.386c67.5342 -185.726 89.2129 -383.171 83.5449 -581.153
c18.4043 18.3486 37.1445 36.3926 56.3252 54.0049c10.7432 9.8623 26.4258 -4.03516 14.9863 -14.5859zM844.858 331.477c0.944336 8.1416 1.82324 16.2852 2.7041 24.4346c-77.6768 -90.8936 -148.269 -187.936 -213.809 -287.972
c-54.4766 -83.1523 -104.767 -169.467 -140.583 -262.45c-34.3916 -89.3008 -74.3311 -211.392 -23.248 -301.781c23.4082 -41.4277 63.7158 -59.8564 106.457 -32.3818c29.084 18.6924 47.7686 50.8262 63.5469 80.5898c41.1719 77.6689 72.6016 160.974 98.0186 244.982
c52.4199 173.262 86.1387 354.896 106.913 534.578z" />
    <glyph glyph-name="Y" unicode="&#xdd;" horiz-adv-x="1007" 
d="M1012.66 528.246c-24.8252 -22.8877 -48.9092 -46.4912 -72.4453 -70.6357c-7.4375 -173.445 -35.1123 -346.875 -70.8008 -512.771c-20.3496 -94.6162 -45.0947 -188.864 -79.2695 -279.493c-30.1729 -80.0303 -66.6934 -173.165 -130.721 -232.661
c-52.2031 -48.5049 -141.216 -67.9258 -196.533 -13.2168c-53.1562 52.5791 -54.3008 144.449 -44.8779 213.28c24.7686 180.843 126.357 345.635 227.49 493.543c63.4834 92.8467 131.497 182.651 205.867 266.845c15.2988 159.1 18.0928 319.528 -3.16992 478.292
c-11.4561 85.5303 -20.6543 181.067 -54.8457 261.073c-9.51855 22.2627 -22.4316 47.416 -43.9658 60.1367c-37.2012 21.9912 -59.584 -1.99316 -79.2695 -28.875c-23.1514 -31.6055 -42.9805 -66.1484 -61.5371 -100.588
c-77.0684 -143.001 -123.748 -299.154 -180.955 -450.505c-28.2275 -74.6904 -58.6162 -149.068 -95.8096 -219.788c-29.5645 -56.2305 -65.8691 -121.162 -132.786 -138.069c-165.8 -41.8926 -173.396 248.776 -180.385 343.368
c-13.6572 184.733 -5.15527 369.827 15.5625 553.607c4.44336 39.3867 69.3838 45.6709 69.6162 1.59277c1.19238 -228.643 -14.7305 -458.27 23.3271 -685.055c6.74023 -40.1709 10.9746 -91.5176 35.5908 -125.821c32.79 -45.7031 76.291 -16.6758 105.062 15.8262
c63.5869 71.8242 99.5635 178.696 134.011 266.964c61.8496 158.443 112.684 322.587 197.333 470.991c26.1533 45.8633 66.9893 137.461 132.729 130.08c70.2871 -7.89355 105.663 -100.668 125.925 -156.386c67.5342 -185.726 89.2129 -383.171 83.5449 -581.153
c18.4043 18.3486 37.1445 36.3926 56.3252 54.0049c10.7432 9.8623 26.4258 -4.03516 14.9863 -14.5859zM844.858 331.477c0.944336 8.1416 1.82324 16.2852 2.7041 24.4346c-77.6768 -90.8936 -148.269 -187.936 -213.809 -287.972
c-54.4766 -83.1523 -104.767 -169.467 -140.583 -262.45c-34.3916 -89.3008 -74.3311 -211.392 -23.248 -301.781c23.4082 -41.4277 63.7158 -59.8564 106.457 -32.3818c29.084 18.6924 47.7686 50.8262 63.5469 80.5898c41.1719 77.6689 72.6016 160.974 98.0186 244.982
c52.4199 173.262 86.1387 354.896 106.913 534.578z" />
    <glyph glyph-name="Z" unicode="Z" horiz-adv-x="1059" 
d="M938.185 -130.768c73.8018 10.1992 150.811 14.043 217.6 -24.2305c24.5361 -14.0811 -4.64355 -50.001 -25.7139 -36.3037c-75.6113 49.1377 -173.862 33.5029 -258.096 20.2695c-84.5137 -13.2812 -167.178 -36.6172 -248.985 -61.2256
c-39.4824 -11.8799 -78.9248 -24.1758 -118.247 -36.9287c-77.5645 -108.729 -162.918 -211.343 -256.47 -304.622c-57.2148 -57.0391 -122.795 -111.02 -201.816 -133.915c-57.8467 -16.7637 -141.592 -8.1416 -166.064 56.2461
c-23 60.5205 20.165 125.068 64.8271 162.405c63.291 52.9082 139.734 87.5312 214.777 120.186c69.8477 30.3887 140.992 57.9834 212.889 83.6006c172.221 222.494 320.985 474.833 422.958 736.634c13.0166 33.4307 25.249 67.1416 36.5527 101.125
c-33.3662 -4.49902 -66.7812 -8.5498 -100.212 -12.0967c-16.6514 -1.76953 -11.6963 20.9414 2.47363 22.7744c35.5117 4.60352 70.8877 9.79102 106.191 15.3623c31.2295 98.5547 54.2207 199.447 64.6113 302.821c14.4014 143.249 13.6006 312.531 -94.8809 421.646
c-122.339 123.043 -289.132 74.2344 -427.746 8.85449c-130.016 -61.3213 -263.602 -146.787 -351.181 -262.434c-29.124 -38.4502 -82.2324 8.07715 -46.4805 33.6309c231.749 165.672 664.826 514.228 896.703 168.617c91.9102 -136.988 93.3594 -315.837 76.084 -474.128
c-6.80469 -62.3701 -18.3564 -124.14 -33.6152 -185.061c46.1592 8.13379 92.2305 16.8594 138.277 26.0332c18.3887 3.66602 21.7188 -21.0391 4.4834 -24.8652c-49.6494 -11.0156 -99.6836 -20.4141 -149.926 -28.5879
c-25.5771 -94.8643 -59.8721 -187.559 -99.2109 -277.06c-78.957 -179.634 -174.614 -356.546 -287.603 -520.577c48.4648 15.2266 97.1055 29.7881 145.826 43.6855c85.9141 24.5127 173.413 45.8955 261.993 58.1436zM213.739 -471.821
c44.542 46.4238 86.5146 95.2979 126.773 145.468c-74.6025 -27.875 -148.212 -58.2715 -219.933 -92.5586c-63.5713 -30.3965 -144.723 -70.0391 -179.41 -134.803c-18.2842 -34.1514 -12.168 -73.5225 31.8379 -77.3174c28.1074 -2.41797 57.2227 9.79785 81.3906 22.8467
c61.3457 33.1426 111.54 86.5469 159.341 136.364z" />
    <glyph glyph-name="bracketleft" unicode="[" horiz-adv-x="429" 
d="M321.465 -199.947c37.9854 22.2148 80.1279 -29.5996 42.1582 -56.0811c-51.3711 -35.832 -109.034 -70.9434 -174.559 -58.4307c-63.123 12.0645 -92.8477 66.0049 -108.891 122.812c-40.8516 144.698 -17.5322 308.104 -19.5332 456.605
c-2.12109 156.786 -8.60547 313.42 -8.75 470.246c-0.0556641 52.6514 -13.5605 141.76 32.4463 179.705c37.4814 30.9092 103.998 29.3242 140.911 0.552734c9.37402 -7.30078 -0.0966797 -22.1592 -9.28711 -23.8242
c-16.4912 -2.98633 -71.1758 -1.04102 -81.4707 -13.001c-12.7041 -14.7617 1.04883 -59.4805 2.87402 -76.5c6.06836 -56.6221 9.9668 -113.717 13.8574 -170.539c7.75684 -113.484 13.4648 -226.961 16.3945 -340.67c2.99414 -116.278 -4.61914 -233.886 3.73047 -349.868
c3.3623 -46.6553 6.2207 -105.247 29.8926 -146.755c28.7715 -50.4502 82.8721 -16.0908 120.226 5.74805z" />
    <glyph glyph-name="backslash" unicode="\" horiz-adv-x="391" 
d="M340.625 -138.649c10.3594 -52.3799 -80.3984 -79.8623 -93.0635 -24.3525c-37.9541 166.433 -71.9775 333.93 -105.624 501.283c-33.6143 167.186 -74.5859 335.291 -91.8857 505.142c-1.22461 12.0166 19.3096 23.2158 24.8809 9.73438
c64.4355 -155.905 104.471 -322.891 147.292 -485.729c44.0303 -167.434 84.8096 -336.228 118.4 -506.078z" />
    <glyph glyph-name="bracketright" unicode="]" horiz-adv-x="373" 
d="M303.948 396.161c10.9512 -135.035 22.4746 -273.483 18.0879 -409.031c-3.25 -100.62 -30.0439 -259.632 -147.075 -286.946c-52.1953 -12.1758 -73.4492 54.1416 -26.6816 77.2373c35.9365 17.7402 48.8896 76.1797 55.6221 111.796
c9.35059 49.4492 10.0068 100.604 9.31055 150.773c-1.5127 109.634 -8.5498 219.244 -14.2334 328.71c-5.88379 113.309 -14.4414 226.457 -21.3418 339.702c-2.83398 46.4795 -1.99316 96.6338 -12.9844 142.104c-7.21289 29.8438 -22.5674 34.583 -51.5469 26.3936
c-17.4121 -4.91504 -34.3838 -7.21289 -52.3877 -8.36523c-14.7383 -0.936523 -13.6016 20.2061 -0.737305 22.3271c26.8105 4.41895 45.3672 30.0928 71.4492 38.1064c19.7412 6.06836 41.0918 5.08398 59.3926 -5.00293
c39.8193 -21.959 53.8369 -74.2422 62.9873 -114.981c30.2529 -134.675 39.0107 -275.538 50.1387 -412.823z" />
    <glyph glyph-name="asciicircum" unicode="^" horiz-adv-x="330" 
d="M277.085 548.928c17.0918 -40.043 -48.4492 -76.0752 -68.9189 -36.6406c-20.6621 39.8105 -23.2637 85.0654 -40.4512 125.957c-1.45703 3.60254 -3.22656 7.06055 -4.97949 10.5352c-4.25098 -8.38184 -11.8965 -16.251 -17.1797 -23.9678
c-13.6172 -19.8857 -26.5459 -40.2676 -39.4189 -60.6338c-16.1465 -25.5449 -68.8701 -13 -53.292 19.502c23.624 49.2969 60.7852 156.449 133.843 140.975c67.4541 -14.2812 68.7188 -124.94 90.3975 -175.727z" />
    <glyph glyph-name="underscore" unicode="_" horiz-adv-x="546" 
d="M465.003 -67.873c49.7861 -3.20996 34.8545 -62.625 -7.28613 -66.9883c-63.6826 -6.58008 -127.774 -6.82812 -191.714 -9.56641c-63.1387 -2.70605 -126.941 -8.89453 -190.136 -6.48535c-35.2637 1.34473 -33.126 46.6719 -1.76855 53.8369
c62.666 14.3135 128.046 18.8369 192.018 23.5918c66.1572 4.91504 132.586 9.89453 198.887 5.61133z" />
    <glyph glyph-name="grave" unicode="`" horiz-adv-x="231" 
d="M176.861 634.362c20.958 -32.2861 -40.8027 -66.0283 -60.9688 -32.4141c-22.5029 37.5293 -47.7041 74.8828 -64.1875 115.559c-9.93457 24.5283 25.9697 52.6592 45.1826 31.2129c30.9492 -34.5596 54.7891 -75.5635 79.9736 -114.357z" />
    <glyph glyph-name="a" unicode="a" horiz-adv-x="354" 
d="M339.108 0.791016c9.92676 -4.95508 2.84375 -16.7402 -4.74512 -19.3662c-3.37012 -1.17676 -6.73242 -2.35352 -10.1025 -3.53027c-10.6709 -4.23438 -20.5977 -4.99512 -30.0039 2.73828c-46.6396 38.3623 -48.0967 123.62 -50.9785 178.441
c-2.24121 42.6367 -4.37109 86.2822 -4.16309 129.695c-24.5205 -70.416 -44.0781 -142.617 -72.6016 -211.68c-13.4092 -32.4775 -29.2998 -68.7979 -62.4258 -85.4014c-38.002 -19.0371 -75.3555 -7.33301 -91.3184 32.3574
c-18.9805 47.2002 0.848633 107.321 16.6191 152.648c15.4023 44.2617 35.0234 88.7002 61.1611 127.774c18.3809 27.4668 127.223 144.714 157.267 84.249c17.0195 29.5 76.2275 39.7871 78.4209 -1.36035c3.69824 -69.4072 -1.97754 -139.455 -1.09668 -208.99
c0.463867 -36.7285 0.87207 -73.7295 4.29004 -110.298c1.38477 -14.7861 2.96973 -29.2041 5.51562 -43.8379c1.26465 -7.26074 4.75488 -23.7363 4.16211 -23.4404zM186.551 211.484c16.7236 51.8994 33.6641 103.535 55.4551 153.457
c-1.08887 -0.295898 -2.16992 -0.488281 -3.21094 -0.408203c-20.3418 1.5293 -53.1484 -61.874 -61.8262 -76.748c-15.25 -26.1299 -27.5547 -53.6689 -38.5703 -81.8076c-22.1514 -56.5986 -43.5742 -117.256 -32.4629 -177.961
c37.7539 17.6924 71.9375 156.546 80.6152 183.468z" />
    <glyph glyph-name="a" unicode="&#xe5;" horiz-adv-x="354" 
d="M339.108 0.791016c9.92676 -4.95508 2.84375 -16.7402 -4.74512 -19.3662c-3.37012 -1.17676 -6.73242 -2.35352 -10.1025 -3.53027c-10.6709 -4.23438 -20.5977 -4.99512 -30.0039 2.73828c-46.6396 38.3623 -48.0967 123.62 -50.9785 178.441
c-2.24121 42.6367 -4.37109 86.2822 -4.16309 129.695c-24.5205 -70.416 -44.0781 -142.617 -72.6016 -211.68c-13.4092 -32.4775 -29.2998 -68.7979 -62.4258 -85.4014c-38.002 -19.0371 -75.3555 -7.33301 -91.3184 32.3574
c-18.9805 47.2002 0.848633 107.321 16.6191 152.648c15.4023 44.2617 35.0234 88.7002 61.1611 127.774c18.3809 27.4668 127.223 144.714 157.267 84.249c17.0195 29.5 76.2275 39.7871 78.4209 -1.36035c3.69824 -69.4072 -1.97754 -139.455 -1.09668 -208.99
c0.463867 -36.7285 0.87207 -73.7295 4.29004 -110.298c1.38477 -14.7861 2.96973 -29.2041 5.51562 -43.8379c1.26465 -7.26074 4.75488 -23.7363 4.16211 -23.4404zM186.551 211.484c16.7236 51.8994 33.6641 103.535 55.4551 153.457
c-1.08887 -0.295898 -2.16992 -0.488281 -3.21094 -0.408203c-20.3418 1.5293 -53.1484 -61.874 -61.8262 -76.748c-15.25 -26.1299 -27.5547 -53.6689 -38.5703 -81.8076c-22.1514 -56.5986 -43.5742 -117.256 -32.4629 -177.961
c37.7539 17.6924 71.9375 156.546 80.6152 183.468z" />
    <glyph glyph-name="a" unicode="&#xe4;" horiz-adv-x="354" 
d="M339.108 0.791016c9.92676 -4.95508 2.84375 -16.7402 -4.74512 -19.3662c-3.37012 -1.17676 -6.73242 -2.35352 -10.1025 -3.53027c-10.6709 -4.23438 -20.5977 -4.99512 -30.0039 2.73828c-46.6396 38.3623 -48.0967 123.62 -50.9785 178.441
c-2.24121 42.6367 -4.37109 86.2822 -4.16309 129.695c-24.5205 -70.416 -44.0781 -142.617 -72.6016 -211.68c-13.4092 -32.4775 -29.2998 -68.7979 -62.4258 -85.4014c-38.002 -19.0371 -75.3555 -7.33301 -91.3184 32.3574
c-18.9805 47.2002 0.848633 107.321 16.6191 152.648c15.4023 44.2617 35.0234 88.7002 61.1611 127.774c18.3809 27.4668 127.223 144.714 157.267 84.249c17.0195 29.5 76.2275 39.7871 78.4209 -1.36035c3.69824 -69.4072 -1.97754 -139.455 -1.09668 -208.99
c0.463867 -36.7285 0.87207 -73.7295 4.29004 -110.298c1.38477 -14.7861 2.96973 -29.2041 5.51562 -43.8379c1.26465 -7.26074 4.75488 -23.7363 4.16211 -23.4404zM186.551 211.484c16.7236 51.8994 33.6641 103.535 55.4551 153.457
c-1.08887 -0.295898 -2.16992 -0.488281 -3.21094 -0.408203c-20.3418 1.5293 -53.1484 -61.874 -61.8262 -76.748c-15.25 -26.1299 -27.5547 -53.6689 -38.5703 -81.8076c-22.1514 -56.5986 -43.5742 -117.256 -32.4629 -177.961
c37.7539 17.6924 71.9375 156.546 80.6152 183.468z" />
    <glyph glyph-name="a" unicode="&#xe3;" horiz-adv-x="354" 
d="M339.108 0.791016c9.92676 -4.95508 2.84375 -16.7402 -4.74512 -19.3662c-3.37012 -1.17676 -6.73242 -2.35352 -10.1025 -3.53027c-10.6709 -4.23438 -20.5977 -4.99512 -30.0039 2.73828c-46.6396 38.3623 -48.0967 123.62 -50.9785 178.441
c-2.24121 42.6367 -4.37109 86.2822 -4.16309 129.695c-24.5205 -70.416 -44.0781 -142.617 -72.6016 -211.68c-13.4092 -32.4775 -29.2998 -68.7979 -62.4258 -85.4014c-38.002 -19.0371 -75.3555 -7.33301 -91.3184 32.3574
c-18.9805 47.2002 0.848633 107.321 16.6191 152.648c15.4023 44.2617 35.0234 88.7002 61.1611 127.774c18.3809 27.4668 127.223 144.714 157.267 84.249c17.0195 29.5 76.2275 39.7871 78.4209 -1.36035c3.69824 -69.4072 -1.97754 -139.455 -1.09668 -208.99
c0.463867 -36.7285 0.87207 -73.7295 4.29004 -110.298c1.38477 -14.7861 2.96973 -29.2041 5.51562 -43.8379c1.26465 -7.26074 4.75488 -23.7363 4.16211 -23.4404zM186.551 211.484c16.7236 51.8994 33.6641 103.535 55.4551 153.457
c-1.08887 -0.295898 -2.16992 -0.488281 -3.21094 -0.408203c-20.3418 1.5293 -53.1484 -61.874 -61.8262 -76.748c-15.25 -26.1299 -27.5547 -53.6689 -38.5703 -81.8076c-22.1514 -56.5986 -43.5742 -117.256 -32.4629 -177.961
c37.7539 17.6924 71.9375 156.546 80.6152 183.468z" />
    <glyph glyph-name="a" unicode="&#xe2;" horiz-adv-x="354" 
d="M339.108 0.791016c9.92676 -4.95508 2.84375 -16.7402 -4.74512 -19.3662c-3.37012 -1.17676 -6.73242 -2.35352 -10.1025 -3.53027c-10.6709 -4.23438 -20.5977 -4.99512 -30.0039 2.73828c-46.6396 38.3623 -48.0967 123.62 -50.9785 178.441
c-2.24121 42.6367 -4.37109 86.2822 -4.16309 129.695c-24.5205 -70.416 -44.0781 -142.617 -72.6016 -211.68c-13.4092 -32.4775 -29.2998 -68.7979 -62.4258 -85.4014c-38.002 -19.0371 -75.3555 -7.33301 -91.3184 32.3574
c-18.9805 47.2002 0.848633 107.321 16.6191 152.648c15.4023 44.2617 35.0234 88.7002 61.1611 127.774c18.3809 27.4668 127.223 144.714 157.267 84.249c17.0195 29.5 76.2275 39.7871 78.4209 -1.36035c3.69824 -69.4072 -1.97754 -139.455 -1.09668 -208.99
c0.463867 -36.7285 0.87207 -73.7295 4.29004 -110.298c1.38477 -14.7861 2.96973 -29.2041 5.51562 -43.8379c1.26465 -7.26074 4.75488 -23.7363 4.16211 -23.4404zM186.551 211.484c16.7236 51.8994 33.6641 103.535 55.4551 153.457
c-1.08887 -0.295898 -2.16992 -0.488281 -3.21094 -0.408203c-20.3418 1.5293 -53.1484 -61.874 -61.8262 -76.748c-15.25 -26.1299 -27.5547 -53.6689 -38.5703 -81.8076c-22.1514 -56.5986 -43.5742 -117.256 -32.4629 -177.961
c37.7539 17.6924 71.9375 156.546 80.6152 183.468z" />
    <glyph glyph-name="a" unicode="&#xe1;" horiz-adv-x="354" 
d="M339.108 0.791016c9.92676 -4.95508 2.84375 -16.7402 -4.74512 -19.3662c-3.37012 -1.17676 -6.73242 -2.35352 -10.1025 -3.53027c-10.6709 -4.23438 -20.5977 -4.99512 -30.0039 2.73828c-46.6396 38.3623 -48.0967 123.62 -50.9785 178.441
c-2.24121 42.6367 -4.37109 86.2822 -4.16309 129.695c-24.5205 -70.416 -44.0781 -142.617 -72.6016 -211.68c-13.4092 -32.4775 -29.2998 -68.7979 -62.4258 -85.4014c-38.002 -19.0371 -75.3555 -7.33301 -91.3184 32.3574
c-18.9805 47.2002 0.848633 107.321 16.6191 152.648c15.4023 44.2617 35.0234 88.7002 61.1611 127.774c18.3809 27.4668 127.223 144.714 157.267 84.249c17.0195 29.5 76.2275 39.7871 78.4209 -1.36035c3.69824 -69.4072 -1.97754 -139.455 -1.09668 -208.99
c0.463867 -36.7285 0.87207 -73.7295 4.29004 -110.298c1.38477 -14.7861 2.96973 -29.2041 5.51562 -43.8379c1.26465 -7.26074 4.75488 -23.7363 4.16211 -23.4404zM186.551 211.484c16.7236 51.8994 33.6641 103.535 55.4551 153.457
c-1.08887 -0.295898 -2.16992 -0.488281 -3.21094 -0.408203c-20.3418 1.5293 -53.1484 -61.874 -61.8262 -76.748c-15.25 -26.1299 -27.5547 -53.6689 -38.5703 -81.8076c-22.1514 -56.5986 -43.5742 -117.256 -32.4629 -177.961
c37.7539 17.6924 71.9375 156.546 80.6152 183.468z" />
    <glyph glyph-name="b" unicode="b" horiz-adv-x="434" 
d="M357.592 436.654c47.9922 -28.8438 60.1211 -97.8906 61.5059 -148.549c1.8252 -68.6787 -11.5596 -137.693 -29.332 -203.738c-16.4434 -61.1211 -39.6914 -127.51 -80.167 -177.216c-34.1836 -41.9805 -87.3076 -87.2354 -145.604 -78.373
c-47.4082 7.21289 -71.9209 43.5898 -65.7568 90.0615c6.58008 49.626 42.877 91.4219 76.4121 126.014c40.1953 41.4678 82.3115 82.1992 133.706 109.178c0.248047 0.873047 0.512695 1.7373 0.760742 2.61035c16.0508 56.8789 29.6836 115.663 34.4072 174.663
c2.20117 27.4268 10.7188 110.915 -49.9619 84.8018c-25.5771 -10.999 -45.2061 -47.1279 -58.6387 -70.208c-59.1045 -101.573 -93.4473 -220.846 -112.132 -336.308c0.0078125 -4.01074 0.0634766 -8.02148 0.0478516 -12.0322
c-0.12793 -27.627 -43.4297 -32.6143 -51.5234 -7.30957c-48.4727 151.519 -54.9648 321.762 -58.2949 479.709c-2.87402 136.309 -2.01758 277.044 34.4707 409.333c14.9941 54.3564 39.707 118.304 89.2363 150.373c36.1201 23.3916 77.8447 21.7266 100.276 -17.8125
c28.5635 -50.3623 24.8174 -113.997 19.75 -169.499c-6.25195 -68.5107 -19.8213 -136.124 -35.2959 -203.073c-28.8672 -124.877 -58.8076 -256.982 -111.852 -374.189c3.61035 -50.7139 7.50879 -101.42 10.1348 -152.118
c9.77441 38.9385 21.5586 77.3721 35.6006 115.094c23.4082 62.875 50.7305 132.906 97.0576 182.908c27.5791 29.7637 66.7656 48.7842 105.191 25.6807zM100.627 448.542c0.375977 -33.0947 1.72754 -66.1787 3.55273 -99.249
c15.29 42.2041 31.1973 84.209 44.8623 127.006c22.2793 69.7676 39.3633 141.408 54.333 213.064c15.3945 73.6816 29.7803 151.566 24.0967 227.193c-2.14551 28.5469 -21.5342 113.62 -59.5039 65.4912c-19.6377 -24.8809 -28.0029 -66.4531 -34.7754 -96.4258
c-32.1094 -142.024 -34.2148 -292.094 -32.5654 -437.08zM249.519 -4.65039c20.0859 42.125 36.6719 86.2646 50.5537 130.967c-39.6992 -24.8486 -73.29 -58.0146 -106.072 -91.6533c-17.8525 -18.3242 -35.8965 -37.6094 -49.1699 -59.6807
c-8.67773 -14.4336 -17.4033 -32.7422 -19.6445 -49.8574c-3.1543 -24.0879 6.88477 -52.1465 36.9131 -49.4404c15.667 1.41699 42.7178 43.0928 50.6592 54.5088c14.2334 20.4619 26.0498 42.6934 36.7607 65.1562z" />
    <glyph glyph-name="c" unicode="c" horiz-adv-x="303" 
d="M275.797 135.378c3.88281 12.0166 24.3047 9.1123 20.4941 -4.60938c-21.6064 -77.5889 -90.1572 -208.886 -190.617 -193.659c-52.1875 7.90918 -77.1406 65.3877 -87.3154 111.019c-14.0898 63.1787 -6.06055 132.025 8.22949 194.363
c13.1133 57.1982 37.6494 113.925 83.793 152.198c28.6992 23.8076 73.5215 49.3125 111.724 34.0537c55.958 -22.3594 50.29 -103.494 50.1221 -152.503c-0.0556641 -15.6904 -27.2178 -17.9717 -27.5537 -0.631836c-0.592773 30.333 4.32227 90.71 -22.9922 111.908
c-41.3564 32.1016 -88.124 -130.072 -93.9844 -155.817c-8.25391 -36.2646 -12.8486 -73.5137 -14.4336 -110.65c-1.46484 -34.2314 -3.64258 -83.1367 13.3369 -114.582c49.4092 -91.502 136.572 89.8604 149.197 128.911z" />
    <glyph glyph-name="d" unicode="d" horiz-adv-x="368" 
d="M344.688 121.665c2.08984 -61.9541 4.47559 -124.981 -1.84863 -186.743c-3.48242 -34.0635 -61.8496 -48.2734 -69.8232 -9.90332c-12.6807 61.0176 -16.1309 124.389 -19.3809 186.519c-3.40234 64.9805 -6.60449 129.977 -9.22266 194.996
c-27.6025 -75.9951 -47.9766 -154.561 -78.9014 -229.443c-13.4092 -32.4775 -29.2998 -68.7979 -62.4258 -85.4014c-38.002 -19.0371 -75.3555 -7.33301 -91.3184 32.3574c-18.9805 47.2002 0.848633 107.321 16.6191 152.648
c15.4023 44.2617 35.0234 88.7002 61.1611 127.774c17.3633 25.9619 115.51 132.105 151.63 92.7432v0.0810547c-6.36426 215.97 -16.8672 436.535 3.4668 651.977c4.96289 52.5713 93.2705 60.873 92.8145 2.12891c-1.68066 -215.546 -6.13965 -430.459 -0.583984 -646.053
c2.44141 -94.5684 4.62695 -189.137 7.81348 -283.681zM185.557 211.484c16.7236 51.8994 33.6641 103.535 55.4629 153.457c-1.08887 -0.295898 -2.16992 -0.488281 -3.21094 -0.408203c-20.3418 1.5293 -53.1484 -61.874 -61.8262 -76.748
c-15.25 -26.1299 -27.5547 -53.6689 -38.5703 -81.8076c-22.1592 -56.5986 -43.582 -117.256 -32.4707 -177.961c37.7539 17.6924 71.9375 156.546 80.6152 183.468z" />
    <glyph glyph-name="e" unicode="e" horiz-adv-x="317" 
d="M289.171 206.627c5.97168 16.2988 35.7021 11.0264 27.7686 -6.26562c-38.1455 -83.0244 -88.3398 -220.91 -197.134 -227.65c-50.4258 -3.12207 -83 42.2363 -97.1133 85.4414c-18.9004 57.8633 -12.0557 125.309 0.609375 183.828
c12.1201 56.0059 34.9033 112.396 81.9756 147.925c27.0586 20.4219 79.6064 46.96 108.57 14.6338c24.6885 -27.5547 10.8867 -70.4639 -10.4473 -94.9766c-19.5654 -22.4795 -45.751 -33.7676 -73.6582 -39.5635c-12.4482 -37.6416 -20.7734 -76.0596 -24.7598 -116.808
c-4.74707 -48.5049 -1.20898 -205.899 84.5371 -121.979c47.9521 46.9434 76.9717 113.484 99.6514 175.414zM152.181 327.64c-4.85156 -10.7754 -9.24707 -21.5586 -13.3936 -32.3818c20.374 5.71582 38.7461 15.9551 50.5381 34.6641
c14.7617 23.4238 -0.488281 66.7012 -20.2695 33.5186c-6.80469 -11.416 -11.4395 -23.7363 -16.875 -35.8008z" />
    <glyph glyph-name="e" unicode="&#xeb;" horiz-adv-x="317" 
d="M289.171 206.627c5.97168 16.2988 35.7021 11.0264 27.7686 -6.26562c-38.1455 -83.0244 -88.3398 -220.91 -197.134 -227.65c-50.4258 -3.12207 -83 42.2363 -97.1133 85.4414c-18.9004 57.8633 -12.0557 125.309 0.609375 183.828
c12.1201 56.0059 34.9033 112.396 81.9756 147.925c27.0586 20.4219 79.6064 46.96 108.57 14.6338c24.6885 -27.5547 10.8867 -70.4639 -10.4473 -94.9766c-19.5654 -22.4795 -45.751 -33.7676 -73.6582 -39.5635c-12.4482 -37.6416 -20.7734 -76.0596 -24.7598 -116.808
c-4.74707 -48.5049 -1.20898 -205.899 84.5371 -121.979c47.9521 46.9434 76.9717 113.484 99.6514 175.414zM152.181 327.64c-4.85156 -10.7754 -9.24707 -21.5586 -13.3936 -32.3818c20.374 5.71582 38.7461 15.9551 50.5381 34.6641
c14.7617 23.4238 -0.488281 66.7012 -20.2695 33.5186c-6.80469 -11.416 -11.4395 -23.7363 -16.875 -35.8008z" />
    <glyph glyph-name="e" unicode="&#xea;" horiz-adv-x="317" 
d="M289.171 206.627c5.97168 16.2988 35.7021 11.0264 27.7686 -6.26562c-38.1455 -83.0244 -88.3398 -220.91 -197.134 -227.65c-50.4258 -3.12207 -83 42.2363 -97.1133 85.4414c-18.9004 57.8633 -12.0557 125.309 0.609375 183.828
c12.1201 56.0059 34.9033 112.396 81.9756 147.925c27.0586 20.4219 79.6064 46.96 108.57 14.6338c24.6885 -27.5547 10.8867 -70.4639 -10.4473 -94.9766c-19.5654 -22.4795 -45.751 -33.7676 -73.6582 -39.5635c-12.4482 -37.6416 -20.7734 -76.0596 -24.7598 -116.808
c-4.74707 -48.5049 -1.20898 -205.899 84.5371 -121.979c47.9521 46.9434 76.9717 113.484 99.6514 175.414zM152.181 327.64c-4.85156 -10.7754 -9.24707 -21.5586 -13.3936 -32.3818c20.374 5.71582 38.7461 15.9551 50.5381 34.6641
c14.7617 23.4238 -0.488281 66.7012 -20.2695 33.5186c-6.80469 -11.416 -11.4395 -23.7363 -16.875 -35.8008z" />
    <glyph glyph-name="e" unicode="&#xe9;" horiz-adv-x="317" 
d="M289.171 206.627c5.97168 16.2988 35.7021 11.0264 27.7686 -6.26562c-38.1455 -83.0244 -88.3398 -220.91 -197.134 -227.65c-50.4258 -3.12207 -83 42.2363 -97.1133 85.4414c-18.9004 57.8633 -12.0557 125.309 0.609375 183.828
c12.1201 56.0059 34.9033 112.396 81.9756 147.925c27.0586 20.4219 79.6064 46.96 108.57 14.6338c24.6885 -27.5547 10.8867 -70.4639 -10.4473 -94.9766c-19.5654 -22.4795 -45.751 -33.7676 -73.6582 -39.5635c-12.4482 -37.6416 -20.7734 -76.0596 -24.7598 -116.808
c-4.74707 -48.5049 -1.20898 -205.899 84.5371 -121.979c47.9521 46.9434 76.9717 113.484 99.6514 175.414zM152.181 327.64c-4.85156 -10.7754 -9.24707 -21.5586 -13.3936 -32.3818c20.374 5.71582 38.7461 15.9551 50.5381 34.6641
c14.7617 23.4238 -0.488281 66.7012 -20.2695 33.5186c-6.80469 -11.416 -11.4395 -23.7363 -16.875 -35.8008z" />
    <glyph glyph-name="f" unicode="f" horiz-adv-x="198" 
d="M390.729 593.704c3.57031 -12.1758 -18.0049 -18.5244 -22.0713 -5.78809c-19.9658 62.7461 -94.1357 90.5488 -140.415 35.1836c-25.209 -30.1641 -37.457 -70.6631 -47.5684 -107.96c-21.166 -78.0771 -25.1211 -159.564 -25.8975 -240.188
c8.13379 0.512695 16.2754 0.928711 24.417 1.16113c17.8125 0.503906 12.5928 -22.8877 -2.61719 -24.1201c-7.3252 -0.592773 -14.6338 -1.20898 -21.9346 -1.84961c-0.288086 -94.6396 3.69824 -188.775 11.1514 -283.127
c7.41309 -93.9033 21.3262 -187.431 26.7539 -281.446c3.0498 -52.7637 -83.8975 -84.5615 -95.9375 -25.0977c-24.7363 122.146 -31.8047 250.017 -36.0957 374.356c-2.33789 67.9023 -3.35449 136.333 -0.705078 204.531
c-15.8027 -2.33789 -31.5977 -4.97949 -47.3848 -8.10938c-16.8115 -3.33008 -19.8936 19.4609 -4.09863 22.7275c17.3799 3.59473 34.8877 6.88477 52.4678 9.82324c2.40918 45.6064 6.65234 91.0693 13.5215 136.14c13.8975 91.1738 38.4902 221.31 126.886 271.176
c72.4326 40.8672 166.353 1.59277 189.528 -77.4131z" />
    <glyph glyph-name="g" unicode="g" horiz-adv-x="375" 
d="M292.522 404.513c69.127 -142.088 74.6963 -325.332 65.5137 -480.445c-1.30469 -22.0547 -3.40234 -45.4307 -6.54883 -69.3428c0.272461 -1.84961 -0.0322266 -3.81055 -0.75293 -5.7002c-15.3389 -110.883 -54.1494 -232.461 -147.181 -291.773
c-49.2256 -31.3809 -110.523 -45.4785 -168.339 -39.5947c-53.2285 5.41992 -114.926 13.7617 -153.576 55.1494c-89.3965 95.7285 44.5986 207.388 123.22 249.264c79.0371 42.1006 168.554 60.0488 256.966 53.4688c2.76172 26.7383 4.40234 52.4434 5.55469 75.6992
c6.04395 122.243 -4.33105 244.342 -18.0762 365.728c-29.6045 -79.2217 -50.4502 -161.55 -82.792 -239.875c-13.4092 -32.4775 -29.2998 -68.7979 -62.4258 -85.4014c-38.002 -19.0371 -75.3555 -7.33301 -91.3184 32.3574
c-18.9805 47.2002 0.848633 107.321 16.6191 152.648c15.4023 44.2617 35.0234 88.7002 61.1611 127.774c17.5156 26.1855 117.239 134.003 152.575 91.7344c7.79688 19.2695 38.5615 30.5889 49.4004 8.30957zM186.553 211.486
c16.7236 51.8994 33.6641 103.535 55.4629 153.457c-1.08887 -0.295898 -2.16992 -0.488281 -3.21094 -0.408203c-20.3418 1.5293 -53.1484 -61.874 -61.8262 -76.748c-15.25 -26.1299 -27.5547 -53.6689 -38.5703 -81.8076
c-22.1592 -56.5986 -43.582 -117.256 -32.4707 -177.961c37.7539 17.6924 71.9375 156.546 80.6152 183.468zM134.046 -404.569c81.9111 49.1211 112.5 157.771 125.181 257.558c-108.193 9.0625 -218.845 -20.4775 -305.672 -87.835
c-29.2041 -22.6553 -58.5996 -49.8418 -70.0479 -86.1299c-14.8662 -47.1123 6.02832 -87.1797 50.4268 -105.849c61.6982 -25.9453 143.706 -11.5752 200.112 22.2559z" />
    <glyph glyph-name="h" unicode="h" horiz-adv-x="385" 
d="M390.127 -79.8477c3.4502 11.0156 25.3691 11.2393 23.0156 -2.22559c-6.18066 -35.0078 -40.1152 -42.957 -70.6719 -33.4385c-51.5146 16.043 -68.3184 77.8125 -76.1797 125.453c-10.8789 65.9248 -4.27441 135.764 2.66602 201.769
c3.44238 32.7744 7.1084 65.8369 7.98145 98.7793c0.600586 22.9199 5.94043 69.7598 -4.1709 90.4375c-17.5156 35.8086 -47.1602 -27.0664 -54.9893 -43.1572c-18.1318 -37.2412 -31.5254 -76.8838 -43.75 -116.383c-21.1426 -68.3184 -38.3779 -138.31 -51.4346 -208.781
c0.18457 -11.6875 0.304688 -23.3672 0.249023 -35.0469c-0.12793 -27.627 -43.4297 -32.6143 -51.5234 -7.30957c-48.4727 151.519 -54.9648 321.762 -58.2949 479.709c-2.87402 136.309 -2.01758 277.044 34.4707 409.333c14.9941 54.3564 39.707 118.304 89.2363 150.373
c36.1201 23.3916 77.8447 21.7266 100.276 -17.8125c28.5635 -50.3623 24.8174 -113.997 19.75 -169.499c-6.25195 -68.5107 -19.8213 -136.124 -35.2959 -203.073c-28.8672 -124.877 -58.8076 -256.975 -111.852 -374.19
c3.25781 -45.7432 6.72461 -91.4697 9.31055 -137.196c8.30957 35.1602 17.7236 70.0635 27.9062 104.535c17.7637 60.1123 37.4492 145.658 86.2266 189.872c18.7402 16.9873 36.0322 18.084 59.0479 7.74121c50.498 -22.6875 65.4121 -84.9453 70.6152 -135.195
c6.78027 -65.3965 -2.15332 -131.649 -1.40918 -197.198c0.392578 -34.4951 2.00977 -68.958 2.14551 -103.461c0.0478516 -12.6562 -1.0166 -25.6973 -0.0800781 -38.29c-0.52832 -8.99805 0.848633 -17.6602 4.13086 -26.002
c-1.28906 -13.9775 6.25977 -17.2197 22.623 -9.74219zM100.643 448.541c0.375977 -33.0947 1.72754 -66.1787 3.54492 -99.249c15.29 42.2041 31.1973 84.209 44.8623 127.006c22.2793 69.7676 39.3633 141.408 54.333 213.064
c15.4023 73.6816 29.7881 151.566 24.1045 227.193c-2.14551 28.5469 -21.5342 113.62 -59.5039 65.4912c-19.6377 -24.8809 -28.0029 -66.4531 -34.7754 -96.4258c-32.1094 -142.024 -34.2148 -292.094 -32.5654 -437.08z" />
    <glyph glyph-name="i" unicode="i" horiz-adv-x="137" 
d="M111.655 163.141c1.43262 -67.3252 10.999 -138.389 -0.504883 -205.098c-3.57031 -20.6943 -37.7852 -36.6895 -49.4971 -13.1611c-30.8613 61.9619 -35.3047 137.533 -39.043 205.636c-3.92285 71.5283 -6.41211 144.802 2.12207 216.05
c6.06836 50.666 90.0449 59.1436 89.917 2.05664c-0.144531 -68.5586 -4.45117 -136.877 -2.99414 -205.483zM98.9189 466.659c0.232422 -29.9883 -58.207 -41.6523 -60.6729 -8.59766c-2.07324 27.8105 -2.60938 55.4609 -0.208008 83.2637
c3.12988 36.2969 67.7979 42.0771 64.291 1.47363c-2.18555 -25.3135 -3.61035 -50.7305 -3.41016 -76.1396z" />
    <glyph glyph-name="i" unicode="&#xef;" horiz-adv-x="137" 
d="M111.655 163.141c1.43262 -67.3252 10.999 -138.389 -0.504883 -205.098c-3.57031 -20.6943 -37.7852 -36.6895 -49.4971 -13.1611c-30.8613 61.9619 -35.3047 137.533 -39.043 205.636c-3.92285 71.5283 -6.41211 144.802 2.12207 216.05
c6.06836 50.666 90.0449 59.1436 89.917 2.05664c-0.144531 -68.5586 -4.45117 -136.877 -2.99414 -205.483zM98.9189 466.659c0.232422 -29.9883 -58.207 -41.6523 -60.6729 -8.59766c-2.07324 27.8105 -2.60938 55.4609 -0.208008 83.2637
c3.12988 36.2969 67.7979 42.0771 64.291 1.47363c-2.18555 -25.3135 -3.61035 -50.7305 -3.41016 -76.1396z" />
    <glyph glyph-name="i" unicode="&#xee;" horiz-adv-x="137" 
d="M111.655 163.141c1.43262 -67.3252 10.999 -138.389 -0.504883 -205.098c-3.57031 -20.6943 -37.7852 -36.6895 -49.4971 -13.1611c-30.8613 61.9619 -35.3047 137.533 -39.043 205.636c-3.92285 71.5283 -6.41211 144.802 2.12207 216.05
c6.06836 50.666 90.0449 59.1436 89.917 2.05664c-0.144531 -68.5586 -4.45117 -136.877 -2.99414 -205.483zM98.9189 466.659c0.232422 -29.9883 -58.207 -41.6523 -60.6729 -8.59766c-2.07324 27.8105 -2.60938 55.4609 -0.208008 83.2637
c3.12988 36.2969 67.7979 42.0771 64.291 1.47363c-2.18555 -25.3135 -3.61035 -50.7305 -3.41016 -76.1396z" />
    <glyph glyph-name="i" unicode="&#xed;" horiz-adv-x="137" 
d="M111.655 163.141c1.43262 -67.3252 10.999 -138.389 -0.504883 -205.098c-3.57031 -20.6943 -37.7852 -36.6895 -49.4971 -13.1611c-30.8613 61.9619 -35.3047 137.533 -39.043 205.636c-3.92285 71.5283 -6.41211 144.802 2.12207 216.05
c6.06836 50.666 90.0449 59.1436 89.917 2.05664c-0.144531 -68.5586 -4.45117 -136.877 -2.99414 -205.483zM98.9189 466.659c0.232422 -29.9883 -58.207 -41.6523 -60.6729 -8.59766c-2.07324 27.8105 -2.60938 55.4609 -0.208008 83.2637
c3.12988 36.2969 67.7979 42.0771 64.291 1.47363c-2.18555 -25.3135 -3.61035 -50.7305 -3.41016 -76.1396z" />
    <glyph glyph-name="j" unicode="j" horiz-adv-x="153" 
d="M137.892 -1.95508c2.20117 -108.85 -3.55469 -274.348 -111.796 -336.142c-40.3232 -23.0234 -94.7441 -27.835 -132.602 3.37012c-34.1836 28.1787 -36.5693 73.625 -25.8018 113.7c15.2988 56.959 51.1475 108.706 85.1387 156.002
c29.1396 40.5479 60.4727 79.2783 93.5352 116.584c-0.480469 16.8193 -1.0166 33.5986 -1.45703 50.2744c-2.69824 102.726 -15.1543 214.369 3.25781 315.95c4.37109 24.0967 41.124 33.6553 49.1211 6.96484c20.4463 -68.1982 22.376 -145.778 27.8193 -216.506
c5.3877 -70.0078 11.3594 -139.967 12.7842 -210.198zM29.1465 -192.63c17.3076 67.6934 19.2949 137.908 18.0781 207.779c-51.0107 -59.416 -99.708 -124.916 -128.424 -195.523c-15.7549 -38.7461 -28.9883 -138.942 45.1182 -119.145
c41.0195 10.9678 56.2539 71.8086 65.2275 106.889zM50.3545 504.057c-13.6094 9.98242 -16.0674 29.7959 -18.2451 45.5342c-2.30566 16.5713 -2.30566 33.2949 -1.13672 49.9541c2.72168 38.8662 72.417 44.8701 68.6465 1.56836
c-1.18457 -13.5771 -1.70508 -27.3789 -1.02441 -41.0039c0.744141 -14.9619 4.30664 -29.4434 -2.31348 -43.5645c-8.58984 -18.3242 -29.6279 -24.4482 -45.9268 -12.4883z" />
    <glyph glyph-name="k" unicode="k" horiz-adv-x="345" 
d="M323.221 89.1553c36.1045 4.25879 26.1328 -46.292 -5.43262 -50.0225c-48.9932 -5.78809 -97.1777 1.68945 -143.064 19.6299c-17.1152 6.68457 -37.4648 14.8984 -53.6914 26.8662c1.22461 -29.3643 1.9375 -58.7285 1.80176 -88.084
c-0.12793 -27.627 -43.4297 -32.6143 -51.5234 -7.30957c-48.4648 151.519 -54.957 321.762 -58.2871 479.709c-2.87402 136.309 -2.02539 277.044 34.4717 409.333c14.9941 54.3564 39.707 118.304 89.2363 150.373c36.1201 23.3916 77.8447 21.7266 100.276 -17.8125
c28.5635 -50.3623 24.8174 -113.997 19.75 -169.499c-6.25195 -68.5107 -19.8213 -136.124 -35.2959 -203.073c-28.8672 -124.877 -58.8076 -256.975 -111.852 -374.19c1.8252 -25.625 3.70605 -51.2588 5.4834 -76.8838c12.4648 13.833 27.9873 25.8008 41.2842 36.9521
c35.8799 30.0762 79.3574 79.1494 126.63 88.4521c7.16504 1.41699 15.9395 -3.91504 12.249 -12.2168c-25.249 -56.75 -100.476 -81.6865 -135.676 -131.929c-17.084 -24.3926 -12.3604 -36.873 10.0312 -50.0176c17.0674 -10.0225 36.625 -17.2109 55.5342 -22.7031
c32.3418 -9.38281 64.708 -11.5127 98.0742 -7.57422zM100.633 448.547c0.375977 -33.0947 1.72754 -66.1787 3.54492 -99.249c15.29 42.2041 31.1973 84.209 44.8623 127.006c22.2793 69.7676 39.3633 141.408 54.333 213.064
c15.4023 73.6816 29.7881 151.566 24.1045 227.193c-2.14551 28.5469 -21.5342 113.62 -59.5039 65.4912c-19.6377 -24.8809 -28.0029 -66.4531 -34.7754 -96.4258c-32.1094 -142.024 -34.2148 -292.094 -32.5654 -437.08z" />
    <glyph glyph-name="l" unicode="l" horiz-adv-x="147" 
d="M122.954 121.665c2.08105 -61.9541 4.4668 -124.979 -1.84961 -186.74c-3.48242 -34.0635 -61.8496 -48.2734 -69.8232 -9.90332c-12.6807 61.0176 -16.1309 124.389 -19.3809 186.519c-4.97949 95.208 -9.64648 190.456 -12.4561 285.753
c-6.36426 215.97 -16.8672 436.535 3.4668 651.977c4.96289 52.5713 93.2705 60.873 92.8145 2.12891c-1.68066 -215.546 -6.13965 -430.459 -0.583984 -646.053c2.44141 -94.5684 4.63477 -189.137 7.8125 -283.681z" />
    <glyph glyph-name="m" unicode="m" horiz-adv-x="513" 
d="M511.641 -51.3076c7.94141 -44.2295 -71.3457 -66.9775 -77.7021 -20.3379c-16.9238 123.859 -13.6973 248.168 -17.0918 372.78c-0.672852 24.7852 5.14746 81.1514 -7.76562 104.271c-9.64648 17.2842 -16.7148 11.1523 -25.6973 -3.21777
c-9.71094 -15.5303 -17.748 -32.1494 -25.2012 -48.8643c-23.5039 -52.7236 -37.0654 -108.617 -50.5225 -164.543c-10.8477 -45.0947 -15.8105 -108.521 -42.4688 -146.987c-25.9775 -37.4893 -76.5479 -33.1582 -93.5518 7.98145
c-10.1426 24.5605 -10.0225 51.1221 -11.7119 77.1875c-0.848633 13.0967 -1.72168 26.1934 -2.62598 39.2822c-0.640625 8.56543 -1.22461 17.1309 -1.76855 25.6963c-1.05664 -3.80273 -2.12109 -7.61328 -3.17773 -11.4238
c-25.6094 -42.5889 -29.5801 -104.663 -34.5029 -156.218c0.488281 -8.80566 0.864258 -17.6279 1.09668 -26.458c0.536133 -20.542 -34.5518 -35.1035 -47.9209 -18.9648c-43.8057 52.8682 -46.6719 144.723 -49.626 210.495
c-3.50684 78.0127 -5.67676 161.598 12.0957 238.065c10.0391 43.2217 79.7266 54.7734 80.7275 1.84961c1.38477 -73.4492 -10.3672 -146.779 -9.31836 -220.453c0.44043 -30.6611 2.80176 -61.1455 5.47559 -91.5898c1.29688 6.37207 2.68164 12.7207 4.23438 19.0449
c5.5957 22.7432 12.7529 66.6846 36.1611 79.9258c38.2578 21.6387 62.4102 -21.4463 79.3018 -66.373c4.73145 16.3955 8.94238 32.3428 13.4492 45.1914c15.4824 44.1582 31.4697 88.0361 50.0664 131.001c16.3789 37.8418 60.9053 156.754 119.449 138.43
c31.0527 -9.71875 38.8262 -54.5166 44.3818 -81.4551c9.63086 -46.6953 16.0195 -94.207 20.9746 -141.599c10.207 -97.6338 15.8672 -195.996 33.2393 -292.718z" />
    <glyph glyph-name="n" unicode="n" horiz-adv-x="397" 
d="M364.392 265.146c12.5684 -90.1494 17.6807 -182.172 19.8506 -273.13c1.1123 -46.7676 -91.791 -64.083 -93.9043 -13.3203c-3.29004 79.2773 -4.16309 159.46 -0.200195 238.722c1.68945 33.8311 5.39551 67.6855 5.54004 101.572
c0.0400391 9.75879 2.62598 46.0234 -3.41797 55.3262c-22.2793 34.3037 -45.4385 -23.543 -51.3301 -35.0146c-35.1357 -68.3506 -54.5889 -145.499 -71.9043 -219.957c-8.49414 -36.5283 -15.5791 -73.3613 -23.7764 -109.946
c-4.81934 -21.5264 -6.85254 -47.208 -23.6875 -63.0186c-10.0791 -9.4541 -31.75 -15.4102 -44.0703 -6.74805c-61.5459 43.2451 -57.2227 148.868 -58.2793 216.313c-1.25684 80.6387 2.16113 177.393 33.7344 252.483c8.70215 20.6943 46.2158 28.5078 51.8916 1.27344
c14.9385 -71.6729 3.21875 -151.999 7.22949 -225.225c2.41797 -44.1582 8.54199 -87.9717 14.0342 -131.802c5.1875 24.2402 8.42188 48.9932 11.7998 62.2578c11.6963 45.9756 24.4971 91.7344 40.3721 136.461c13.0645 36.833 27.3457 74.1299 46.6309 108.217
c11.9043 21.0381 29.6768 55.1094 57.4395 58.6074c60.6494 7.62891 76.7402 -115.022 82.0479 -153.072z" />
    <glyph glyph-name="o" unicode="o" horiz-adv-x="303" 
d="M270.358 278.427c34.5117 -93.4951 29.3164 -206.066 -30.3643 -288.891c-61.0576 -84.7451 -177.112 -75.9629 -209.799 27.4434c-33.1904 105.007 -9.83105 228.786 20.502 331.487c4.7793 16.1865 17.6357 25.1123 31.5654 27.6182
c-5.63574 4.65918 -6.42871 14.6738 2.94531 19.9092c84.2334 47.0801 159.269 -47.4482 185.15 -117.567zM179.097 36.1201c34.9834 56.1182 40.9629 126.086 31.7891 190.161c-7.24512 50.6338 -33.2627 191.249 -113.165 149.973
c19.6777 -3.09766 36.2969 -18.8125 29.4443 -45.0225c-17.124 -65.5322 -30.5967 -132.602 -29.0039 -200.672c0.720703 -30.6123 2.16211 -66.9404 15.8115 -95.168c17.6836 -36.5605 44.8379 -31.8135 65.124 0.728516z" />
    <glyph glyph-name="o" unicode="&#xf6;" horiz-adv-x="303" 
d="M270.358 278.427c34.5117 -93.4951 29.3164 -206.066 -30.3643 -288.891c-61.0576 -84.7451 -177.112 -75.9629 -209.799 27.4434c-33.1904 105.007 -9.83105 228.786 20.502 331.487c4.7793 16.1865 17.6357 25.1123 31.5654 27.6182
c-5.63574 4.65918 -6.42871 14.6738 2.94531 19.9092c84.2334 47.0801 159.269 -47.4482 185.15 -117.567zM179.097 36.1201c34.9834 56.1182 40.9629 126.086 31.7891 190.161c-7.24512 50.6338 -33.2627 191.249 -113.165 149.973
c19.6777 -3.09766 36.2969 -18.8125 29.4443 -45.0225c-17.124 -65.5322 -30.5967 -132.602 -29.0039 -200.672c0.720703 -30.6123 2.16211 -66.9404 15.8115 -95.168c17.6836 -36.5605 44.8379 -31.8135 65.124 0.728516z" />
    <glyph glyph-name="o" unicode="&#xf5;" horiz-adv-x="303" 
d="M270.358 278.427c34.5117 -93.4951 29.3164 -206.066 -30.3643 -288.891c-61.0576 -84.7451 -177.112 -75.9629 -209.799 27.4434c-33.1904 105.007 -9.83105 228.786 20.502 331.487c4.7793 16.1865 17.6357 25.1123 31.5654 27.6182
c-5.63574 4.65918 -6.42871 14.6738 2.94531 19.9092c84.2334 47.0801 159.269 -47.4482 185.15 -117.567zM179.097 36.1201c34.9834 56.1182 40.9629 126.086 31.7891 190.161c-7.24512 50.6338 -33.2627 191.249 -113.165 149.973
c19.6777 -3.09766 36.2969 -18.8125 29.4443 -45.0225c-17.124 -65.5322 -30.5967 -132.602 -29.0039 -200.672c0.720703 -30.6123 2.16211 -66.9404 15.8115 -95.168c17.6836 -36.5605 44.8379 -31.8135 65.124 0.728516z" />
    <glyph glyph-name="o" unicode="&#xf4;" horiz-adv-x="303" 
d="M270.358 278.427c34.5117 -93.4951 29.3164 -206.066 -30.3643 -288.891c-61.0576 -84.7451 -177.112 -75.9629 -209.799 27.4434c-33.1904 105.007 -9.83105 228.786 20.502 331.487c4.7793 16.1865 17.6357 25.1123 31.5654 27.6182
c-5.63574 4.65918 -6.42871 14.6738 2.94531 19.9092c84.2334 47.0801 159.269 -47.4482 185.15 -117.567zM179.097 36.1201c34.9834 56.1182 40.9629 126.086 31.7891 190.161c-7.24512 50.6338 -33.2627 191.249 -113.165 149.973
c19.6777 -3.09766 36.2969 -18.8125 29.4443 -45.0225c-17.124 -65.5322 -30.5967 -132.602 -29.0039 -200.672c0.720703 -30.6123 2.16211 -66.9404 15.8115 -95.168c17.6836 -36.5605 44.8379 -31.8135 65.124 0.728516z" />
    <glyph glyph-name="o" unicode="&#xf3;" horiz-adv-x="303" 
d="M270.358 278.427c34.5117 -93.4951 29.3164 -206.066 -30.3643 -288.891c-61.0576 -84.7451 -177.112 -75.9629 -209.799 27.4434c-33.1904 105.007 -9.83105 228.786 20.502 331.487c4.7793 16.1865 17.6357 25.1123 31.5654 27.6182
c-5.63574 4.65918 -6.42871 14.6738 2.94531 19.9092c84.2334 47.0801 159.269 -47.4482 185.15 -117.567zM179.097 36.1201c34.9834 56.1182 40.9629 126.086 31.7891 190.161c-7.24512 50.6338 -33.2627 191.249 -113.165 149.973
c19.6777 -3.09766 36.2969 -18.8125 29.4443 -45.0225c-17.124 -65.5322 -30.5967 -132.602 -29.0039 -200.672c0.720703 -30.6123 2.16211 -66.9404 15.8115 -95.168c17.6836 -36.5605 44.8379 -31.8135 65.124 0.728516z" />
    <glyph glyph-name="p" unicode="p" horiz-adv-x="405" 
d="M372.19 472.767c38.5537 -39.1387 37.5693 -96.8887 20.4619 -145.554c-23.3193 -66.4131 -69.0781 -126.254 -114.445 -179.018c-43.2617 -50.3145 -90.918 -99.4922 -143.802 -140.151c-5.66797 -68.1904 -8.44629 -136.781 -10.8076 -205.396
c5.69141 -63.7148 11.96 -127.43 16.5635 -191.602c2.40918 -33.623 -48.6572 -51.0508 -59.4805 -15.5625c-42.1641 138.222 -54.0283 291.27 -58.1992 435.071c-4.29102 147.884 -0.512695 299.475 28.123 444.973c9.34277 47.4717 94.168 59.1992 88.4678 2.02441
c-12.6162 -126.558 -26.5381 -252.066 -29.084 -379.064c1.65723 1.50488 3.30664 3.00195 4.96387 4.49902c7.63672 65.1885 17.5156 130.104 33.8145 193.756c16.1152 62.915 38.2578 135.147 89.709 178.801c39.9795 33.9189 95.8252 35.6963 133.715 -2.77734z
M300.758 290.06c30.9014 40.0195 95.6729 123.419 39.6025 170.251c-73.2812 61.2178 -129.96 -81.0781 -145.755 -129.351c-21.2461 -64.9238 -35.6963 -130.841 -45.791 -197.382c53.7969 48.6406 106.505 97.6416 151.943 156.481z" />
    <glyph glyph-name="q" unicode="q" horiz-adv-x="397" 
d="M399.576 -136.262c14.626 0.280273 10.8242 -19.959 -2.18457 -20.1113c-8.8623 -0.0878906 -17.7158 -0.360352 -26.5693 -0.592773c-0.913086 -94.0234 0.744141 -187.814 7.83691 -282.015c4.24316 -56.2539 -92.9668 -88.1475 -100.732 -26.3535
c-12.585 100.14 -12.6895 201.593 -8.16602 302.613c-9.35059 -0.816406 -18.709 -1.625 -28.0518 -2.60938c-13.6172 -1.4248 -9.77441 17.4199 2.04199 18.7568c8.95801 1.0166 17.9316 1.85742 26.8975 2.73047c1.65723 33.0625 3.75488 66.0684 6.03613 98.9463
c4.74707 68.3906 11.2236 136.652 17.6523 204.891c3.4668 36.7686 6.3252 73.5859 9.42285 110.379c1.20117 14.29 4.49902 32.6943 5.37207 50.7061c-7.66895 -18.749 -16.4033 -38.7061 -18.7969 -44.3818c-12.7363 -30.2285 -24.4326 -60.8408 -36.1289 -91.4854
c-21.6543 -56.7344 -43.165 -113.661 -69.6709 -168.362c-20.6377 -42.5889 -42.7803 -102.718 -86.4902 -127.07c-47.4082 -26.4102 -84.9619 9.20605 -95.1445 55.1729c-11.792 53.2119 5.46777 112.708 21.0625 163.438c16.3389 53.1484 40.2588 103.519 70.1191 150.398
c33.4062 52.46 123.899 180.29 198.942 136.452c2.88965 2.87402 6.01953 5.50781 9.6377 7.58105c41.0039 23.4482 58.1514 -23.0791 64.2998 -55.5166c11.3594 -59.9766 8.59766 -124.652 9.22168 -185.43c0.680664 -65.5967 -1.1123 -131.129 -2.97754 -196.693
c-0.96875 -34.167 -1.74512 -68.2617 -2.20898 -102.325c9.51855 0.344727 19.0449 0.705078 28.5791 0.880859zM267.832 352.299c3.07422 6.37988 6.10254 13.335 9.5293 20.1074c-28.7314 -8.95801 -67.7422 -81.3027 -77.8535 -96.7529
c-21.3584 -32.6465 -40.1475 -66.9893 -55.5898 -102.813c-16.3066 -37.8418 -30.5166 -76.6924 -39.2988 -117.016c-4.14648 -19.0605 -7.94141 -38.7539 -8.73438 -58.3115c-0.34375 -8.47754 -0.0957031 -16.5947 0.888672 -24.7764
c13.1768 17.8281 23.3115 39.6748 31.9658 56.6787c12.7441 25.041 24.3359 50.6748 35.4795 76.4688c24.2002 56.0137 45.9111 113.068 69.3506 169.402c10.791 25.9453 22.0469 51.6992 34.2627 77.0127z" />
    <glyph glyph-name="r" unicode="r" horiz-adv-x="335" 
d="M329.834 188.15c8.79004 -29.5156 -43.9717 -45.2314 -53.7305 -14.0586c-20.0771 64.1719 -11.832 127.847 -22.791 192.667c-2.82617 16.7148 -0.192383 20.2051 -11.9844 -4.64355c-5.53223 -11.6641 -10.0156 -24.0967 -14.3701 -36.2246
c-10.8477 -30.2285 -19.7412 -61.1777 -27.3623 -92.3672c-14.4414 -59.1279 -24.6006 -119.257 -36.0566 -179.001c-9.09375 -47.416 -14.209 -96.8818 -38.3369 -139.326c-7.08496 -12.4648 -26.6104 -19.2295 -39.9639 -15.875
c-70.5361 17.7402 -63.5078 154.28 -64.6846 209.902c-1.9209 91.1338 0.768555 185.638 14.3457 275.811c3.7627 25.001 42.1406 33.9033 50.082 7.10156c21.1025 -71.2002 17.7246 -147.932 19.4619 -221.565c0.904297 -38.5303 2.43359 -76.9883 7.06055 -115.278
c0.488281 -4.04297 1.10449 -8.06934 1.64844 -12.0957c1.04102 6.00391 2.08984 11.8555 3.23438 17.3955c7.93359 38.2822 15.1621 76.708 23.5117 114.91c14.834 67.8779 30.6924 139.134 62.2021 201.504c15.1299 29.9482 56.5176 77.8691 80.0215 27.5146
c13.5049 -28.9316 15.6904 -69.6074 21.6543 -100.917c7.40527 -38.8818 14.7383 -77.4678 26.0576 -115.453z" />
    <glyph glyph-name="s" unicode="s" horiz-adv-x="361" 
d="M361.873 414.095c16.8994 -26.9141 -31.2617 -50.9316 -49.0254 -26.0752c-17.8281 24.9209 -132.618 -58.2715 -146.355 -69.6553c-32.6465 -27.042 -78.4932 -74.0742 -59.7764 -120.441c16.5957 -41.124 71.2568 -72.4492 105.48 -97.5225
c36.3125 -26.6016 71.4238 -54.6768 97.4014 -91.8857c19.6377 -28.1309 35.6006 -60.665 17.9404 -93.8232c-15.2744 -28.667 -44.3262 -41.7959 -75.9795 -41.3633c-78.5811 1.05664 -133.146 67.4053 -133.562 142.641
c-0.0800781 14.5303 25.4336 16.7637 25.626 0.584961c0.408203 -34.8721 13.3848 -67.6543 39.915 -90.9023c16.3389 -14.3301 72.8086 -43.7744 92.6543 -25.1855c14.1299 13.2412 10.8633 35.9287 -1.06445 47.0723c-8.79004 8.22168 -18.6611 15.5547 -28.5479 22.3994
c-19.3975 13.4414 -39.5869 26.1299 -59.8564 38.1865c-66.1973 39.3789 -171.997 89.9092 -182.765 176.567c-11.4961 92.5342 83.2637 160.044 153.039 200.279c48.2725 27.835 162.902 95.9932 204.875 29.124z" />
    <glyph glyph-name="t" unicode="t" horiz-adv-x="135" 
d="M138.621 672.51c17.8359 1.28906 13.0713 -23.4834 -2.65918 -24.5645c-10.8154 -0.736328 -21.6064 -1.68066 -32.4053 -2.60938c-2.10547 -106.608 -3.09863 -213.217 -1.21777 -319.985c1.63281 -92.7832 4.90723 -185.702 11.4072 -278.276
c3.27441 -46.5996 6.90918 -93.2793 12.2324 -139.687c2.96191 -25.8096 16.1387 -65.8291 1.76074 -89.2207c-4.35449 -7.07715 -12.9443 -8.73438 -20.4932 -9.07031c-10.6553 -0.472656 -18.3721 6.25195 -21.4141 15.9541
c-52.4199 166.961 -59.4004 346.154 -66.3809 519.784c-3.89062 96.7451 -5.69141 193.891 -4.47461 290.956c-20.3174 -2.61816 -40.6191 -5.4043 -60.8652 -8.55078c-15.1787 -2.35352 -18.1729 17.7402 -3.71484 20.582c21.5908 4.23438 43.2217 7.78125 64.8848 11.0156
c1.24902 70.1191 4.10742 140.183 9.18262 209.981c3.49023 47.9121 86.042 55.4932 84.6006 1.93652c-1.80078 -67.1094 -3.62598 -134.171 -5.05078 -201.216c11.5195 1.06445 23.0312 2.13672 34.6074 2.96973z" />
    <glyph glyph-name="u" unicode="u" horiz-adv-x="335" 
d="M323.744 8.62012c5.11523 -49.8896 -78.4707 -77.7744 -89.2139 -23.3691c-12.4727 63.0986 -10.3516 129.439 -7.19727 193.442c1.5127 30.6768 3.38574 61.3779 5.37109 92.0303c1.95312 30.1729 9.3584 61.9385 8.9502 92.0312
c-0.368164 26.7939 -0.824219 7.44531 -5.10742 -5.35547c-4.4668 -13.3369 -8.06934 -26.9619 -11.6641 -40.5547c-9.28613 -35.0879 -17.0273 -70.5518 -24.3926 -106.08c-11.3516 -54.7246 -20.582 -110.138 -34.0068 -164.398
c-9.00586 -36.4004 -20.2695 -98.9307 -67.3174 -104.078c-46.4551 -5.0752 -65.8926 50.2578 -73.0576 86.3223c-11.1113 55.9502 -8.55762 116.071 -5.40332 172.718c3.35449 60.2246 2.91406 130.08 25.0654 186.679c5.78027 14.7861 33.6875 24.417 41.709 6.15625
c23.2559 -52.9238 13.7217 -119.529 12.625 -175.951c-1.20117 -61.3857 0.744141 -121.09 10.6953 -181.787c1.96973 -12.0166 1.80957 -30.7656 7.22168 -41.085c0.416016 -2.92188 0.832031 -5.85156 1.24805 -8.77344c2.12109 12.9209 5.70703 25.4092 10.7666 37.4414
c10.1348 32.3496 18.2686 65.0039 25.2256 98.1943c12.2881 58.584 23.5918 117.384 38.1621 175.463c7.63672 30.4521 15.6025 98.1055 45.4707 116.91c26.2979 16.5469 39.0264 -19.1572 45.0146 -39.0264c17.2998 -57.3984 17.8438 -118.784 21.9189 -178.097
c4.33887 -63.2432 11.4561 -125.806 17.916 -188.832z" />
    <glyph glyph-name="u" unicode="&#xfc;" horiz-adv-x="335" 
d="M323.744 8.62012c5.11523 -49.8896 -78.4707 -77.7744 -89.2139 -23.3691c-12.4727 63.0986 -10.3516 129.439 -7.19727 193.442c1.5127 30.6768 3.38574 61.3779 5.37109 92.0303c1.95312 30.1729 9.3584 61.9385 8.9502 92.0312
c-0.368164 26.7939 -0.824219 7.44531 -5.10742 -5.35547c-4.4668 -13.3369 -8.06934 -26.9619 -11.6641 -40.5547c-9.28613 -35.0879 -17.0273 -70.5518 -24.3926 -106.08c-11.3516 -54.7246 -20.582 -110.138 -34.0068 -164.398
c-9.00586 -36.4004 -20.2695 -98.9307 -67.3174 -104.078c-46.4551 -5.0752 -65.8926 50.2578 -73.0576 86.3223c-11.1113 55.9502 -8.55762 116.071 -5.40332 172.718c3.35449 60.2246 2.91406 130.08 25.0654 186.679c5.78027 14.7861 33.6875 24.417 41.709 6.15625
c23.2559 -52.9238 13.7217 -119.529 12.625 -175.951c-1.20117 -61.3857 0.744141 -121.09 10.6953 -181.787c1.96973 -12.0166 1.80957 -30.7656 7.22168 -41.085c0.416016 -2.92188 0.832031 -5.85156 1.24805 -8.77344c2.12109 12.9209 5.70703 25.4092 10.7666 37.4414
c10.1348 32.3496 18.2686 65.0039 25.2256 98.1943c12.2881 58.584 23.5918 117.384 38.1621 175.463c7.63672 30.4521 15.6025 98.1055 45.4707 116.91c26.2979 16.5469 39.0264 -19.1572 45.0146 -39.0264c17.2998 -57.3984 17.8438 -118.784 21.9189 -178.097
c4.33887 -63.2432 11.4561 -125.806 17.916 -188.832z" />
    <glyph glyph-name="u" unicode="&#xfb;" horiz-adv-x="335" 
d="M323.744 8.62012c5.11523 -49.8896 -78.4707 -77.7744 -89.2139 -23.3691c-12.4727 63.0986 -10.3516 129.439 -7.19727 193.442c1.5127 30.6768 3.38574 61.3779 5.37109 92.0303c1.95312 30.1729 9.3584 61.9385 8.9502 92.0312
c-0.368164 26.7939 -0.824219 7.44531 -5.10742 -5.35547c-4.4668 -13.3369 -8.06934 -26.9619 -11.6641 -40.5547c-9.28613 -35.0879 -17.0273 -70.5518 -24.3926 -106.08c-11.3516 -54.7246 -20.582 -110.138 -34.0068 -164.398
c-9.00586 -36.4004 -20.2695 -98.9307 -67.3174 -104.078c-46.4551 -5.0752 -65.8926 50.2578 -73.0576 86.3223c-11.1113 55.9502 -8.55762 116.071 -5.40332 172.718c3.35449 60.2246 2.91406 130.08 25.0654 186.679c5.78027 14.7861 33.6875 24.417 41.709 6.15625
c23.2559 -52.9238 13.7217 -119.529 12.625 -175.951c-1.20117 -61.3857 0.744141 -121.09 10.6953 -181.787c1.96973 -12.0166 1.80957 -30.7656 7.22168 -41.085c0.416016 -2.92188 0.832031 -5.85156 1.24805 -8.77344c2.12109 12.9209 5.70703 25.4092 10.7666 37.4414
c10.1348 32.3496 18.2686 65.0039 25.2256 98.1943c12.2881 58.584 23.5918 117.384 38.1621 175.463c7.63672 30.4521 15.6025 98.1055 45.4707 116.91c26.2979 16.5469 39.0264 -19.1572 45.0146 -39.0264c17.2998 -57.3984 17.8438 -118.784 21.9189 -178.097
c4.33887 -63.2432 11.4561 -125.806 17.916 -188.832z" />
    <glyph glyph-name="u" unicode="&#xfa;" horiz-adv-x="335" 
d="M323.744 8.62012c5.11523 -49.8896 -78.4707 -77.7744 -89.2139 -23.3691c-12.4727 63.0986 -10.3516 129.439 -7.19727 193.442c1.5127 30.6768 3.38574 61.3779 5.37109 92.0303c1.95312 30.1729 9.3584 61.9385 8.9502 92.0312
c-0.368164 26.7939 -0.824219 7.44531 -5.10742 -5.35547c-4.4668 -13.3369 -8.06934 -26.9619 -11.6641 -40.5547c-9.28613 -35.0879 -17.0273 -70.5518 -24.3926 -106.08c-11.3516 -54.7246 -20.582 -110.138 -34.0068 -164.398
c-9.00586 -36.4004 -20.2695 -98.9307 -67.3174 -104.078c-46.4551 -5.0752 -65.8926 50.2578 -73.0576 86.3223c-11.1113 55.9502 -8.55762 116.071 -5.40332 172.718c3.35449 60.2246 2.91406 130.08 25.0654 186.679c5.78027 14.7861 33.6875 24.417 41.709 6.15625
c23.2559 -52.9238 13.7217 -119.529 12.625 -175.951c-1.20117 -61.3857 0.744141 -121.09 10.6953 -181.787c1.96973 -12.0166 1.80957 -30.7656 7.22168 -41.085c0.416016 -2.92188 0.832031 -5.85156 1.24805 -8.77344c2.12109 12.9209 5.70703 25.4092 10.7666 37.4414
c10.1348 32.3496 18.2686 65.0039 25.2256 98.1943c12.2881 58.584 23.5918 117.384 38.1621 175.463c7.63672 30.4521 15.6025 98.1055 45.4707 116.91c26.2979 16.5469 39.0264 -19.1572 45.0146 -39.0264c17.2998 -57.3984 17.8438 -118.784 21.9189 -178.097
c4.33887 -63.2432 11.4561 -125.806 17.916 -188.832z" />
    <glyph glyph-name="v" unicode="v" horiz-adv-x="343" 
d="M327.188 353.214c2.05762 -66.6611 -6.80078 -133.725 -16.8232 -199.481c-5.70801 -37.4336 -11.5762 -76.46 -21.4385 -113.989c2.22559 -5.8916 -0.223633 -12.4482 -4.78711 -17.1152c-4.4668 -14.7617 -9.6543 -29.2119 -15.8584 -43.1338
c-18.8291 -42.2441 -53.7412 -75.9551 -103.679 -64.6514c-54.8447 12.416 -81.2949 73.6816 -98.4902 121.266c-21.4541 59.3604 -31.4365 121.866 -39.7617 184.173c-8.37402 62.6348 -17.3799 128.287 -13.3691 191.466c1.28125 20.1895 30.9258 27.6748 41.6367 11.0713
c56.1182 -86.9873 59.7051 -205.235 87.668 -303.077c7.91699 -27.7227 17.2998 -55.2129 28.0352 -81.9668c6.64453 -16.5635 14.7939 -45.1348 30.3164 -55.5254c21.5664 -14.4414 39.0264 10.8877 52.043 44.7422c-38.8818 34.6074 -48.8242 90.7256 -54.7158 140.84
c-8.06152 68.4863 -6.29199 139.727 14.418 205.939c8.61426 27.5469 29.6123 84.6738 66.9736 84.0732c43.5977 -0.696289 46.9355 -75.5625 47.832 -104.63zM300.19 305.979c1.24121 28.0674 2.16113 56.7988 -3.35449 84.498
c-5.5957 28.083 -20.6455 43.2373 -43.2529 17.3154c-7.63672 -8.75781 -11.3594 -22.4473 -15.0576 -33.375c-31.9336 -94.3037 -31.5176 -220.974 27.4824 -305.183c7.2207 27.3301 11.7598 52.4512 13.4326 61.3535c10.8389 57.6475 18.1641 116.775 20.75 175.391z" />
    <glyph glyph-name="w" unicode="w" horiz-adv-x="504" 
d="M460.751 455.907c43.4697 -28.1309 29.2666 -130.524 26.0566 -172.673c-5.51562 -72.1533 -21.8066 -143.866 -43.6211 -212.785c-15.2744 -48.249 -36.2803 -129.84 -85.458 -155.001c-58.4072 -29.876 -107.265 23.3516 -127.302 73.8496
c-16.1787 40.7715 -18.3086 83.5205 -17.5156 126.502c-15.7627 -50.5303 -21.334 -107.232 -32.0049 -155.857c-5.50781 -25.0967 -11.3438 -47.7998 -38.7461 -56.2139c-24.4561 -7.50879 -43.4365 3.96289 -58.7354 22.7432
c-45.2549 55.5654 -49.2812 153.624 -56.5186 221.566c-8.5498 80.2305 -8.10938 160.749 -7.74121 241.315c0.135742 29.3398 54.6924 40.5635 59.2314 8.39746c11.1035 -78.6611 18.3008 -157.69 28.4434 -236.456c5.0752 -39.4668 11.7441 -78.6934 20.7266 -117.464
c4.29883 -18.5723 7.17285 -49.1934 17.1875 -70.752c7.74902 15.1064 15.6426 42.4209 17.6279 49.2656c5.67578 19.6055 9.56641 39.7549 14.4814 59.5605c9.32617 37.6016 21.7344 71.9287 38.9785 106.576c3.79492 7.62109 18.0684 16.2266 25.1533 6.83594
c26.4736 -35.0635 40.875 -74.3545 54.8203 -115.767c5.97168 -17.7559 11.6074 -34.6631 20.3096 -51.4102c3.40234 -6.54883 15.5469 -31.0371 25.4092 -38.5547c-2.62598 5.53125 8.18945 19.5566 10.0391 23.0547c1.9375 3.65039 3.73047 7.35645 5.54785 11.0469
c-22.0625 50.0176 -24.5918 111.059 -23.4551 163.854c1.43262 66.501 13.1846 137.237 38.1133 199.255c12.7441 31.7012 45.1816 97.4492 88.9717 69.1104zM422.155 244.08c7.38086 41.4756 23.9043 105.775 11.3838 147.275
c-9.79102 32.4619 -23.4805 1.13672 -32.0703 -17.7236c-10.7754 -23.6641 -17.7959 -50.7861 -23.0312 -76.0195c-14.3779 -69.3271 -10.9277 -139.566 5.37891 -207.236c1.46484 4.4668 2.90625 8.94141 4.31543 13.4248c14.4736 46.0156 25.5693 92.7988 34.0234 140.279
z" />
    <glyph glyph-name="x" unicode="x" horiz-adv-x="249" 
d="M249.828 -21.0234c9.12598 -19.3652 -20.1582 -39.6172 -34.9844 -24.1748c-40.123 41.6758 -66.0361 99.9072 -87.7871 156.737c-18.0605 -52.5 -34.6318 -105.432 -51.3711 -158.516c-13.6729 -43.373 -85.5137 -32.6143 -73.2891 16.5146
c20.2939 81.5674 53.8691 160.181 89.0928 236.336c-26.8584 69.4951 -55.75 138.525 -86.8672 206.1c-6.25195 13.5771 17.124 25.9619 23.416 12.4492c28.2676 -60.6973 51.7715 -123.612 78.7178 -184.878c29.2598 65.748 59.3438 138.053 103.605 192.241
c9.36621 11.4639 40.2588 14.0654 36.1123 -8.1416c-7.59668 -40.6914 -27.5303 -78.373 -43.3809 -116.358c-15.458 -37.0332 -30.8281 -74.1221 -45.3662 -111.523c-4.57129 -11.7598 -8.99023 -23.5596 -13.3291 -35.376
c12.9609 -25.4648 26.4902 -50.6494 40.8838 -75.3145c20.7578 -35.584 46.9834 -68.8545 64.5469 -106.096z" />
    <glyph glyph-name="y" unicode="y" horiz-adv-x="347" 
d="M319.446 248.663c11.5596 -71.7529 12.208 -145.295 8.98145 -217.72c-3.17773 -72.0332 -10.7031 -144.01 -26.3613 -214.481c-14.3379 -64.5635 -33.0547 -133.41 -75.6758 -185.63c-32.7344 -40.1074 -91.334 -83.7129 -140.007 -44.0781
c-47.376 38.5703 -37.0088 109.763 -23.6318 162.022c29.8037 116.423 100.1 228.707 172.461 325.597c3.92285 44.4863 6.56445 89.1006 7.4375 133.675c0.408203 20.8779 -4.90723 206.1 -7.42871 205.884c-8.80566 -0.768555 -26.0732 -80.2305 -29.2109 -91.166
c-8.79785 -30.6523 -17.5 -61.2969 -27.9473 -91.4531c-14.0732 -40.6436 -33.5664 -125.276 -82.1436 -137.021c-116.863 -28.2432 -78.9414 267.037 -69.5674 322.707c4.21094 24.9688 51.1543 40.123 55.3809 7.85352c6.03613 -46.0869 5.6123 -92.5664 8.28613 -138.901
c1.41699 -24.5205 -2.6416 -90.917 13.3135 -122.187c11.4795 15.3779 22.3506 42.332 26.3535 50.9062c7.70898 16.5156 14.0889 33.5996 20.2852 50.7314c13.2568 36.625 24.9209 73.8018 38.1777 110.427c6.98047 19.2773 31.1484 108.273 67.0771 68.5664
c42.333 -46.7754 54.6455 -136.332 64.2197 -195.732zM226.432 -8.55469c1.75293 13.665 3.25 27.3779 4.74707 41.083c-33.0459 -48.1445 -63.0898 -98.2744 -89.3721 -150.55c-16.6992 -33.1982 -32.0771 -67.0215 -43.3887 -102.478
c-11.248 -35.248 -31.2051 -102.037 -0.352539 -133.21c30.2607 -30.5723 52.2354 31.582 61.4014 54.5576c11.8965 29.8037 22.1436 60.248 31.1016 91.0693c18.9004 65.0596 27.2578 132.514 35.8633 199.527z" />
    <glyph glyph-name="y" unicode="&#xff;" horiz-adv-x="347" 
d="M319.446 248.663c11.5596 -71.7529 12.208 -145.295 8.98145 -217.72c-3.17773 -72.0332 -10.7031 -144.01 -26.3613 -214.481c-14.3379 -64.5635 -33.0547 -133.41 -75.6758 -185.63c-32.7344 -40.1074 -91.334 -83.7129 -140.007 -44.0781
c-47.376 38.5703 -37.0088 109.763 -23.6318 162.022c29.8037 116.423 100.1 228.707 172.461 325.597c3.92285 44.4863 6.56445 89.1006 7.4375 133.675c0.408203 20.8779 -4.90723 206.1 -7.42871 205.884c-8.80566 -0.768555 -26.0732 -80.2305 -29.2109 -91.166
c-8.79785 -30.6523 -17.5 -61.2969 -27.9473 -91.4531c-14.0732 -40.6436 -33.5664 -125.276 -82.1436 -137.021c-116.863 -28.2432 -78.9414 267.037 -69.5674 322.707c4.21094 24.9688 51.1543 40.123 55.3809 7.85352c6.03613 -46.0869 5.6123 -92.5664 8.28613 -138.901
c1.41699 -24.5205 -2.6416 -90.917 13.3135 -122.187c11.4795 15.3779 22.3506 42.332 26.3535 50.9062c7.70898 16.5156 14.0889 33.5996 20.2852 50.7314c13.2568 36.625 24.9209 73.8018 38.1777 110.427c6.98047 19.2773 31.1484 108.273 67.0771 68.5664
c42.333 -46.7754 54.6455 -136.332 64.2197 -195.732zM226.432 -8.55469c1.75293 13.665 3.25 27.3779 4.74707 41.083c-33.0459 -48.1445 -63.0898 -98.2744 -89.3721 -150.55c-16.6992 -33.1982 -32.0771 -67.0215 -43.3887 -102.478
c-11.248 -35.248 -31.2051 -102.037 -0.352539 -133.21c30.2607 -30.5723 52.2354 31.582 61.4014 54.5576c11.8965 29.8037 22.1436 60.248 31.1016 91.0693c18.9004 65.0596 27.2578 132.514 35.8633 199.527z" />
    <glyph glyph-name="y" unicode="&#xfd;" horiz-adv-x="347" 
d="M319.446 248.663c11.5596 -71.7529 12.208 -145.295 8.98145 -217.72c-3.17773 -72.0332 -10.7031 -144.01 -26.3613 -214.481c-14.3379 -64.5635 -33.0547 -133.41 -75.6758 -185.63c-32.7344 -40.1074 -91.334 -83.7129 -140.007 -44.0781
c-47.376 38.5703 -37.0088 109.763 -23.6318 162.022c29.8037 116.423 100.1 228.707 172.461 325.597c3.92285 44.4863 6.56445 89.1006 7.4375 133.675c0.408203 20.8779 -4.90723 206.1 -7.42871 205.884c-8.80566 -0.768555 -26.0732 -80.2305 -29.2109 -91.166
c-8.79785 -30.6523 -17.5 -61.2969 -27.9473 -91.4531c-14.0732 -40.6436 -33.5664 -125.276 -82.1436 -137.021c-116.863 -28.2432 -78.9414 267.037 -69.5674 322.707c4.21094 24.9688 51.1543 40.123 55.3809 7.85352c6.03613 -46.0869 5.6123 -92.5664 8.28613 -138.901
c1.41699 -24.5205 -2.6416 -90.917 13.3135 -122.187c11.4795 15.3779 22.3506 42.332 26.3535 50.9062c7.70898 16.5156 14.0889 33.5996 20.2852 50.7314c13.2568 36.625 24.9209 73.8018 38.1777 110.427c6.98047 19.2773 31.1484 108.273 67.0771 68.5664
c42.333 -46.7754 54.6455 -136.332 64.2197 -195.732zM226.432 -8.55469c1.75293 13.665 3.25 27.3779 4.74707 41.083c-33.0459 -48.1445 -63.0898 -98.2744 -89.3721 -150.55c-16.6992 -33.1982 -32.0771 -67.0215 -43.3887 -102.478
c-11.248 -35.248 -31.2051 -102.037 -0.352539 -133.21c30.2607 -30.5723 52.2354 31.582 61.4014 54.5576c11.8965 29.8037 22.1436 60.248 31.1016 91.0693c18.9004 65.0596 27.2578 132.514 35.8633 199.527z" />
    <glyph glyph-name="z" unicode="z" horiz-adv-x="216" 
d="M198.839 196.836c15.2822 0.0957031 11.3174 -21.0127 -2.27539 -21.0205c-8.0293 0.015625 -16.0264 -0.160156 -24.0156 -0.432617c-14.0498 -52.8594 -32.9189 -103.622 -58.1201 -152.119c18.7646 1.47266 37.7539 1.32812 56.9346 -0.521484
c17.5957 -1.69727 13.3447 -25.7695 -2.66602 -24.5605c-23.3916 1.76953 -46.2549 1.39355 -69.0547 -1.93652c-0.120117 -0.192383 -0.21582 -0.392578 -0.328125 -0.584961c-27.2021 -46.7676 -84.5127 -118.801 -146.33 -89.8047
c-6.67676 3.1377 -14.4023 12.3281 -14.8828 19.9971c-1.88086 29.9404 22.6318 48.2891 48.834 61.1699c5.96387 7.07715 11.2158 14.0654 14.1455 17.8281c13.3535 17.1475 25.0254 36 35.6885 54.9004c19.2373 34.1191 34.4717 70.5918 48.1533 107.337
c-10.6875 1.44922 -11.6807 17.2119 0.463867 19.3496c2.32129 0.408203 4.65039 0.696289 6.97949 1.08008c15.7227 43.7256 30.7012 88.8926 36.6973 135.02c3.39453 26.082 4.81152 57.1025 -25.1367 68.7666c-21.4707 8.35742 -54.1885 1.3125 -75.4668 -3.83496
c-12.8486 -3.10645 -14.3457 13.377 -3.08984 17.1553c45.3271 15.2266 109.53 20.6299 143.129 -20.8145c39.1543 -48.2969 23.2471 -128.447 10.3828 -183.196c-0.34375 -1.46484 -0.744141 -2.89746 -1.09668 -4.3623
c7.00488 0.264648 14.0176 0.544922 21.0547 0.584961z" />
    <glyph glyph-name="braceleft" unicode="{" horiz-adv-x="663" 
d="M580.521 -194.831c21.9023 11.96 45.751 -16.1865 24.1768 -32.125c-113.997 -84.2568 -268.99 -43.6855 -338.109 77.0518c-40.4189 70.5996 -48.5361 154.704 -52.5469 234.422c-1.9209 38.2656 3.49902 213.216 -79.9492 139.614
c-30.3086 -26.7383 -104.223 -7.37305 -78.8936 41.7803c38.1377 74.0098 86.1299 141.319 120.922 217.515c33.6631 73.7139 57.4395 150.838 82.6006 227.706c23.6963 72.4014 53.0361 152.304 110.387 205.403c31.9893 29.6201 92.8789 43.9336 111.859 -8.61426
c4.36328 -12.0957 -15.0498 -23.3271 -20.7656 -11.0391c-24.0967 51.8027 -62.7305 -37.6816 -70.1113 -56.1582c-11.7119 -29.332 -21.8145 -58.8564 -30.1885 -89.293c-16.9873 -61.7373 -29.0195 -124.908 -48.4326 -185.958
c-26.2422 -82.5361 -60.9619 -170.644 -108.186 -247.896c29.5244 -5.30762 54.8213 -22.8711 70.96 -48.1279c37.1611 -58.167 30.2041 -140.175 36.5361 -206.123c7.22852 -75.3389 23.6152 -151.727 69.8389 -213.641c49.0488 -65.7002 127.55 -84.0244 199.902 -44.5176
z" />
    <glyph glyph-name="verticalbar" unicode="|" horiz-adv-x="229" 
d="M177.675 -133.605c10.3672 -49.8496 -77.6865 -76.3721 -88.7578 -23.2158c-33.6064 161.605 -39.5625 327.518 -38.8662 492.117c0.688477 162.622 4.09082 325.788 10.4551 488.274c0.448242 11.3916 20.6543 18.6689 25.9062 6.88477
c30.8125 -69.167 27.458 -149.533 30.7324 -223.76c3.61035 -81.7754 3.9707 -163.687 6.86914 -245.494c5.90039 -166.297 19.7422 -331.688 53.6611 -494.807z" />
    <glyph glyph-name="braceright" unicode="}" horiz-adv-x="606" 
d="M543.067 355.309c37.0488 -31.0293 -11.3691 -75.9932 -49.3145 -72.7188c-0.375977 -0.503906 -0.648438 -0.944336 -1.10449 -1.50488c-3.93066 -8.5498 -7.46875 -17.252 -10.623 -26.1143c-4.99512 -13.9854 -9.06152 -28.2354 -12.2559 -42.7412
c-7.125 -32.3262 -10.8799 -65.3643 -15.0107 -98.1709c-7.11719 -56.5186 -14.29 -114.422 -36.9131 -167.258c-41.2363 -96.2969 -134.611 -170.924 -243.237 -150.967c-33.543 6.16406 -15.3145 52.3877 12.7607 51.5547c138.342 -4.11523 157.402 178.424 170.756 278.5
c8.34961 62.6104 17.8438 128.135 47.2881 184.869c5.86035 11.2959 13.5059 21.9434 22.416 31.1816c-24.3203 34.9355 -42.0361 74.8428 -58.1592 113.934c-25.0332 60.6973 -46.2393 123.3 -66.7412 185.646c-32.0537 97.4502 -83.8008 333.426 -232.91 249.201
c-15.4502 -8.73438 -26.5215 8.88574 -15.6826 20.8535c39.5312 43.6299 105.688 50.8428 156.803 23.4238c57.3672 -30.7646 93.3037 -95.2725 121.771 -151.246c36.8408 -72.4248 63.1787 -149.686 93.5518 -224.881c28.2988 -70.0635 57.1504 -153.769 116.606 -203.562z
" />
    <glyph glyph-name="nonbreakingspace" unicode="&#xa0;" horiz-adv-x="214" 
 />
    <glyph glyph-name="exclamdown" unicode="&#xa1;" horiz-adv-x="238" 
d="M72.5957 507.973c5.78809 53.9648 100.805 63.2266 96.1934 2.20117c-18.8691 -250.081 -40.5078 -499.786 -7.7334 -749.844c5.62793 -42.917 -67.2617 -66.1406 -76.2676 -19.957c-49.2012 252.291 -39.4824 513.18 -12.1924 767.6zM182.262 711.878
c-1.50488 -10.5107 -6.19336 -25.3057 0.163086 -34.5195c10.3105 -14.9697 -3.4668 -35.7119 -16.668 -42.7324c-16.291 -8.66211 -34.1436 -4.56348 -44.7432 10.0781c-11.4082 15.7627 -9.84668 36.665 -8.21387 55.126c1.92969 21.8711 5.86816 42.7656 15.6104 62.5547
c12.6162 25.6338 61.8252 31.7822 59.6074 -5.81152c-0.904297 -15.2188 -3.58594 -29.6289 -5.75586 -44.6953z" />
    <glyph glyph-name="cent" unicode="&#xa2;" horiz-adv-x="521" 
d="M448.023 143.782c4.42676 13.2412 27.5098 10.0342 22.7627 -5.12793c-21.2227 -67.6621 -50.4346 -135.604 -89.3008 -195.085c-24.2002 -37.0332 -52.8594 -74.8428 -90.6768 -98.6113c1.43262 -32.5576 3.00977 -65.1152 5.01953 -97.6416
c2.97852 -48.1445 11.2725 -98.1621 6.70898 -146.274c-2.53809 -26.7783 -45.4795 -35.584 -52.9727 -7.50879c-13.6572 51.1465 -11.1191 109.113 -13.0322 161.797c-0.816406 22.5117 -1.44043 45.0146 -1.89648 67.5264
c-124.309 -23.9043 -171.604 121.202 -180.45 221.662c-11.2314 127.494 0.248047 264.995 32.918 388.783c28.4033 107.625 93.2314 255.941 216.234 280.838c1.33691 0.272461 2.57812 0.376953 3.89062 0.601562c7.76562 45.375 15.9795 90.6533 24.8496 135.756
c2.55371 12.9766 26.4258 15.2578 23.6875 0.543945c-8.3418 -44.8701 -15.7949 -89.8125 -22.6475 -134.811c104.959 -7.24512 108.722 -186.902 111.756 -264.099c1.8252 -46.207 -74.082 -57.5752 -70.3037 -9.97461c2.8584 36.0566 -2.24902 73.2422 -10.1582 108.458
c-5.17969 23.0879 -10.6396 57.96 -26.5703 76.7891c-5.00293 5.9082 -10.3984 8.89453 -15.9941 9.72754c-17.9717 -135.5 -29.3711 -271.672 -33.998 -408.749c-3.6748 -108.825 -3.59473 -217.819 0.568359 -326.629
c0.0244141 -0.543945 0.0488281 -1.08789 0.0732422 -1.62402c29.1553 21.4785 53.9805 55.2295 71.3682 77.8525c39.1943 50.9941 67.75 104.807 88.1641 165.8zM246.21 219.692c9.94238 135.563 25.6846 270.997 46.4268 405.576
c-25.1055 -21.3906 -48.7852 -65.124 -57.3906 -81.9277c-52.1396 -101.797 -69.0713 -215.97 -78.79 -328.678c-5.41211 -62.8584 -10.0156 -126.878 -3.43555 -189.784c4.74707 -45.3271 11.6553 -131.313 68.7344 -143.722
c4.09863 -0.888672 8.15723 -1.3125 12.1836 -1.39258c-0.0400391 9.91895 -0.0722656 19.8379 -0.0166016 29.7568c0.608398 103.486 4.71484 206.965 12.2881 310.171z" />
    <glyph glyph-name="sterling" unicode="&#xa3;" horiz-adv-x="594" 
d="M521.766 -112.76c44.7422 -5.77148 13.8477 -65.29 -23.9062 -61.2871c-71.8486 7.56543 -151.303 -17.1396 -220.806 -34.1514c-71.0801 -17.3877 -140.487 -43.3408 -211.992 -58.4629c-16.1631 -3.41016 -20.1816 14.6816 -7.82129 22.6475
c33.3105 21.4707 70.0635 38.6426 107.953 53.3164c-10.5273 52.2998 -2.43359 109.683 0.3125 162.542c2.80176 54.0449 5.37988 108.098 8.16602 162.134c2.39355 46.5752 5.42773 93.2871 9.51855 139.911c-27.1543 -8.48535 -54.4131 -16.6191 -81.8477 -21.2139
c-11.2393 -1.88086 -22.3428 11.6084 -10.5186 19.7822c28.8838 19.9492 61.9941 35.8564 96.9541 48.9131c4.78711 45.2305 10.751 90.3174 18.5645 135.02c8.69434 49.7617 19.7334 99.6914 36.4248 147.443c14.2334 40.748 32.9258 86.5791 73.6172 107.657
c79.126 40.9795 128.8 -46.5361 134.556 -113.533c1.08105 -12.6006 -20.542 -19.7256 -22.543 -5.90039c-3.69043 25.5137 -11.3838 45.7031 -31.8301 62.5547c-26.0498 21.4785 -50.002 15.0664 -63.7715 -13.2646c-17.4033 -35.7998 -24.9043 -77.9082 -31.3643 -116.847
c-9.54199 -57.583 -14.6494 -116.11 -17.9795 -174.542c36.6885 8.77441 73.2734 15.6191 107.433 21.5195c35.7197 6.16406 42.2041 -42.9336 8.66113 -48.0332c-39.8027 -6.04395 -79.3252 -13.1846 -118.512 -22.1826
c-0.160156 -3.61816 -0.335938 -7.24414 -0.488281 -10.8623c-3.32227 -79.5977 -4.65137 -159.323 -6.58105 -238.969c-1.6416 -67.6455 2.70508 -142.472 -13.0654 -209.806c9.42285 2.8418 18.8135 5.62793 28.1162 8.35742
c73.3701 21.5264 155.682 47.1914 232.75 37.2568z" />
    <glyph glyph-name="currency" unicode="&#xa4;" horiz-adv-x="571" 
d="M483.258 442.96c20.3418 20.0615 52.1436 -8.30469 29.3525 -28.582c-26.8662 -23.8877 -56.3184 -44.4531 -83.793 -67.4443c29.292 -48.5928 36.1289 -112.332 21.5752 -169.011c-6.33203 -24.6484 -18.5244 -46.1348 -34.6875 -64.2188
c9.43848 -12.168 20.2217 -22.959 27.9072 -36.9844c8.85352 -16.1553 15.8184 -32.3018 20.1816 -50.1855c5.0918 -20.8457 -31.6455 -36.4883 -41.0039 -16.0342c-7.34082 16.043 -12.584 32.6465 -18.6523 49.2021c-3.90625 10.6553 -6.34766 22.583 -9.71777 33.8711
c-50.8828 -40.7715 -124.949 -56.4062 -187.327 -41.5723c-17.124 4.06641 -31.8135 10.0068 -44.4697 17.3955c-8.56543 -11.3438 -14.9141 -25.7939 -21.7666 -37.7061c-10.623 -18.4609 -20.5742 -36.2334 -34.1836 -52.6924
c-18.9248 -22.8877 -67.3096 -16.7158 -54.5645 19.9727c9.09375 26.2021 24.2324 48.8896 39.2188 72.0811c9.30273 14.4014 18.1328 27.0498 30.2529 36.6885c-34.5996 51.7148 -29.7002 127.246 -11.2959 193.299c-12.4961 1.98535 -21.8301 12.8164 -11.6797 27.7549
c13.2568 19.5088 29.6123 36.6006 48.0811 50.8262c-3.68262 4.80371 -7.21289 9.74316 -10.6553 14.9229c-7.52539 11.3359 -16.291 22.5918 -21.5264 35.2002c-8.5498 20.5977 18.6846 37.4971 34.9434 24.1357c10.623 -8.72559 18.9648 -20.373 27.7393 -30.9082
c4.65918 -5.5957 9.02246 -11.1836 13.1055 -16.9639c46.1914 21.2627 99.3232 26.8662 149.605 11.3438c31.7412 -9.79102 56.9023 -28.0752 75.7148 -51.459c22.3994 25.833 43.125 52.8838 67.6455 77.0684zM380.584 201.529
c15.7383 66.2529 0.945312 146.57 -71.7041 168.145c-52.2676 15.5225 -108.033 -0.704102 -149.173 -34.4785c18.5322 -1.37695 34.3105 -12.6084 30.0439 -34.583c-11.5361 -59.4482 -32.0381 -152.575 46.7432 -173.213c59.1924 -15.5146 129.352 12.1201 144.09 74.1299
z" />
    <glyph glyph-name="yen" unicode="&#xa5;" horiz-adv-x="660" 
d="M585.689 136.064c26.8105 -0.208008 34.333 -37.0713 8.76367 -47.126c-43.958 -17.252 -92.4473 -23.4961 -138.687 -33.5352c-2.3291 -18.7969 -4.60254 -37.5938 -6.67578 -56.4307c-9.31055 -84.5137 -12.6406 -169.556 -21.5586 -254.029
c-6.12402 -57.9834 -102.598 -67.2461 -102.485 -2.3457c0.160156 95.585 12.0801 192.427 27.9951 288.428c-17.876 -4.24316 -35.7764 -8.3584 -53.7969 -11.9766c-15.8105 -3.17773 -21.5664 15.4912 -7.96484 23.0479c22.4873 12.5049 45.6709 23.3281 69.335 33.0391
c3.81055 21.4785 7.74902 42.8926 11.752 64.2354c-23.248 -5.31543 -46.4473 -11.4072 -69.6475 -18.6045c-36.3926 -11.2959 -41.6045 38.6182 -8.97461 49.7373c29.0518 9.89453 59.1123 19.3008 89.7246 27.498c2.78613 14.6016 5.55566 29.1719 8.28516 43.6699
c15.8584 84.2334 34.0625 168.042 51.2979 252.003c8.35742 40.7158 16.3066 81.5195 24.7686 122.211c1.2168 5.86816 2.56934 11.7842 3.9541 17.748c-3.59473 -7.65332 -7.06934 -14.9619 -10.5039 -21.5664c-17.5156 -33.6631 -34.8955 -67.4375 -53.7959 -100.355
c-35.1836 -61.2812 -79.0371 -142.544 -144.81 -175.311c-161.405 -80.4229 -196.165 250.978 -212.44 340.662c-2.68164 14.7539 19.4932 27.7227 30.2441 16.083c44.2139 -47.8887 61.8818 -112.309 82.6318 -172.518c10.4951 -30.4443 21.9512 -63.5146 40.6514 -90.1562
c11.9678 -17.0596 20.7178 -27.1865 41.4434 -20.2295c12.2959 4.13867 27.042 22.5996 36.0244 31.8457c45.375 46.6875 78.0527 104.358 109.562 160.797c27.6992 49.6172 54.7656 124.42 101.854 158.026c15.9785 11.3994 42.46 12.9287 47.9678 -10.8076
c17.5801 -75.8037 -7.52539 -163.808 -18.8213 -239.419c-12.5283 -83.8965 -25.1533 -167.777 -37.6494 -251.674c-2.01758 -13.5127 -3.99512 -27.0342 -5.98047 -40.5469c35.376 5.62012 70.8799 8.77441 105.855 8.31055
c33.415 -0.448242 32.374 -47.1201 1.69727 -51.6514c-39.1709 -5.7959 -77.8535 -11.1279 -116.287 -17.3086c-2.18555 -15.4668 -4.32324 -30.9492 -6.4043 -46.4316c39.7793 12.873 82.1758 24.9932 122.675 24.6807z" />
    <glyph glyph-name="section" unicode="&#xa7;" horiz-adv-x="493" 
d="M443.081 271.612c-0.135742 -56.3984 -26.7832 -112.854 -71.165 -147.494c23.3037 -34.7354 37.5771 -74.666 36.5283 -121.666c-2.11328 -94.6318 -76.5312 -172.989 -170.307 -182.452c-96.9375 -9.78223 -161.957 69.415 -187.118 154.537
c-8.76562 29.6279 41.0762 55.2529 60.9141 32.3896c27.1143 -31.2529 49.3691 -74.0254 87.8516 -93.0625c34.0791 -16.8594 75.5156 -5.21191 97.7148 25.0566c57.0625 77.7891 -13.7773 164.439 -72.0889 213.305c-56.5264 47.3682 -150.39 99.7559 -130.736 187.071
c13.7695 61.1689 63.4355 98.9629 118.089 123.42c-49.9062 47.6406 -96.6094 94.6885 -114.485 142.969c-33.2383 89.7803 10.752 189.031 90.2217 238.024c66.6055 41.0596 167.85 37.8496 209.63 -36.2646c17.2754 -30.6523 -30.0205 -55.2686 -52.916 -36.5518
c-71.168 58.1758 -161.726 2.0498 -160.036 -86.7227c1.53711 -81.2627 94.6963 -148.788 145.051 -202.816c53.7324 -57.6475 113.061 -126.334 112.853 -209.742zM346.41 156.572c71.7207 105.007 -17.7803 195.831 -110.083 283.706
c-38.2256 -26.2822 -76.5957 -67.8066 -77.2441 -107.266c-0.84082 -50.7705 76.5479 -86.7393 112.156 -111.812c27.4346 -19.3252 53.3564 -40.6357 75.1709 -64.6279z" />
    <glyph glyph-name="copyright" unicode="&#xa9;" horiz-adv-x="910" 
d="M839.27 605.126c59.4561 -186.942 -14.1143 -413.696 -125.414 -567.504c-98.9629 -136.749 -317.335 -291.598 -473.953 -141.937c-68.0938 65.0762 -91.2695 174.334 -103.95 263.763c-15.6826 110.603 -11.8398 223.551 -1.16895 334.401
c4.63477 48.1602 89.7969 56.1338 85.5625 1.96094c-7.79688 -99.6836 -13.4648 -199.968 -1.23242 -299.547c9.98242 -81.2949 26.2412 -196.645 95.3115 -251.249c138.165 -109.234 304.134 74.5459 368.754 182.579c79.7344 133.298 134.523 319.624 83.6807 471.911
c-52.0107 155.785 -215.417 222.311 -367.68 175.487c-69.9189 -21.5029 -131.585 -65.1885 -182.123 -117.312c-55.8057 -57.5586 -122.154 -140.479 -108.272 -225.488c5.17969 -31.7334 -50.418 -48.5049 -56.126 -14.6816
c-17.8438 105.783 57.5752 204.786 126.918 276.659c68.6943 71.208 158.403 127.318 256.806 144.706c177.792 31.4131 347.322 -59.0557 402.888 -233.75zM448.652 478.264c-28.8271 -59.416 -46.8506 -124.411 -51.3174 -190.279
c-3.69824 -54.501 -5.25098 -145.066 71.2812 -143.842c77.1162 1.23242 105.344 101.036 123.996 160.292c3.94629 12.5527 25.5049 9.50293 21.3896 -4.81836c-24.0244 -83.6807 -66.4775 -186.446 -165.177 -200.536c-105.575 -15.0664 -142.063 85.8018 -143.704 172.78
c-1.96094 104.175 33.4951 232.214 108.986 307.2c32.79 32.5664 81.2393 50.3066 123.98 26.3945c47.1924 -26.4023 48.8652 -82.6885 61.7295 -128.912c8.66211 -31.125 -50.5537 -55.7656 -61.7373 -24.1523c-7.33301 20.7578 -13.0166 79.5654 -35.4395 88.3232
c-23.0635 8.99805 -44.6621 -43.2373 -53.9883 -62.4502z" />
    <glyph glyph-name="softhyphen" unicode="&#xad;" 
 />
    <glyph glyph-name="registered" unicode="&#xae;" horiz-adv-x="914" 
d="M847.73 544.597c49.626 -200.68 -20.79 -432.318 -160.645 -581.571c-139.895 -149.285 -374.35 -183.484 -515.317 -16.7393c-114.502 135.443 -131.569 318.88 -117.64 492.55c-0.015625 18.2607 1.8252 36.3369 5.29199 54.165
c3.04199 26.3457 6.63672 52.3311 10.5752 77.7158c3.20996 20.6621 19.4531 34.832 37.6816 40.7725c72.4814 114.95 206.62 202.065 328.559 219.085c90.5977 12.6484 186.614 -5.70801 262.729 -57.6152c78.1484 -53.292 126.373 -137.813 148.765 -228.362z
M657.658 56.9844c100.484 132.529 153.213 316.438 115.548 480.78c-38.9219 169.779 -200.223 273.97 -371.778 233.511c-88.9004 -20.958 -184.028 -87.3867 -241.219 -172.38c4.24316 -6.5 6.45312 -15.082 5.5166 -25.9775
c-16.1309 -186.975 -48 -416.498 88.6201 -569.714c53.292 -59.7607 125.693 -93.7197 206.628 -79.3818c81.1426 14.3613 148.052 69.0225 196.685 133.162zM595.758 324.51c46.832 0.432617 34.6377 -64.123 -6.99805 -64.3076
c-37.4658 -0.175781 -74.9229 -0.34375 -112.389 -0.511719c-29.9561 -0.135742 -65.6758 -5.75586 -94.9434 1.18457c-2.0498 0.480469 -3.97949 1.0166 -5.8125 1.58496c0.255859 -56.1816 4.89941 -116.566 35.1123 -160.916
c18.957 -27.8271 -30.6045 -56.0781 -52.0986 -35.9922c-56.8066 53.084 -60.8418 142.641 -64.5801 215.418c-4.73145 92.126 0.904297 183.588 8.24512 275.41c3.93066 49.1377 91.0938 57.0312 87.0186 1.99414c-1.14453 -15.4346 -2.30566 -30.8848 -3.45801 -46.3428
c18.4688 12.9365 38.3379 24 59.8809 32.6855c31.8535 12.8408 90.0605 35.5684 116.438 0.993164c27.5391 -36.1045 -7.39648 -89.917 -30.1797 -118.521c-17.6436 -22.1592 -37.8809 -42.2529 -57.9902 -62.1309c-13.2334 -13.0811 -30.3408 -26.8027 -44.0625 -42.0693
c5.2998 0.0478516 10.5918 0.0957031 15.8916 0.143555c14.9863 0.144531 29.9805 0.280273 44.9746 0.416016zM384.133 353.177c22.5908 23.2881 47.1465 44.415 70.626 66.79c18.6846 17.7881 55.9736 47.0557 59.3682 74.8105
c3.01758 24.6729 -12.8652 17.6924 -29.6689 13.0088c-17.3955 -4.85156 -34.0312 -11.752 -49.8984 -20.3496c-19.4131 -10.5273 -37.1367 -23.5283 -53.1396 -38.4902c-2.24121 -34.6475 -4.07422 -69.3193 -4.91504 -103.991
c2.56934 2.89844 5.13867 5.66016 7.62793 8.22168z" />
    <glyph glyph-name="mu" unicode="&#xb5;" horiz-adv-x="532" 
d="M481.452 248.276c8.71777 -46.7676 -73.0654 -71.5195 -82.9922 -21.71c-16.6436 83.5684 -17.9482 169.219 -15.0586 254.132c1.75293 51.3623 2.58594 104.767 6.52441 157.458c-16.7314 -41.4277 -30.6133 -84.0566 -45.9121 -126.613
c-21.4141 -59.5684 -45.8623 -131.978 -90.1406 -179.153c-45.2227 -48.1846 -89.8447 0.416016 -98.5469 50.3701c-4.39453 25.2334 -8.20508 50.6904 -11.6953 76.2441c-0.960938 -91.9102 -1.00879 -183.812 1.60938 -275.763
c4.52344 -158.707 9.2627 -319.472 35.1445 -476.37c5.76367 -34.96 -49.8818 -51.1631 -60.9209 -15.9395c-48.1201 153.552 -53.6914 320.297 -61.4727 479.94c-8.02148 164.575 -11.792 329.903 -2.69824 494.503c2.86621 51.9072 92.2549 59.833 91.3662 2.08984
c-0.0644531 -4.40332 -0.136719 -8.81445 -0.208984 -13.2178c11.7275 -68.4141 21.5898 -137.148 32.0127 -205.771c3.43457 -22.623 4.72363 -86.29 28.8682 -99.9229c29.7158 -16.7871 64.0273 65.4688 70.7197 79.5342c49.2969 103.59 72.873 217.723 126.541 319.464
c7.20508 13.665 32.1582 21.0059 36.8018 0.904297c18.1484 -78.6377 10.8154 -166.193 13.457 -246.464c2.80957 -85.3057 10.9668 -169.787 26.6016 -253.716z" />
    <glyph glyph-name="paragraph" unicode="&#xb6;" horiz-adv-x="761" 
d="M706.156 -244.241c22.0713 -32.6543 -40.7568 -74.0439 -63.8848 -44.1514c-48.457 62.5781 -59.7764 158.939 -68.0459 235.52c-9.23828 85.498 -12.7451 171.988 -13.9775 257.935c-1.34473 93.6152 -0.295898 187.375 3.25098 281.03
c-15.0264 -5.86816 -30.2051 -11.4004 -44.6309 -17.7402c-28.2188 -12.4004 -56.2295 -25.2568 -84.3848 -37.793c-1.76953 -44.2861 -2.97852 -88.6445 -3.23438 -133.154c-0.576172 -100.564 2.78613 -200.96 8.80664 -301.348
c2.80957 -46.8477 7.09277 -93.5508 10.9355 -140.318c1.92969 -23.4482 4.36328 -46.8643 6.08398 -70.3203c1.08105 -14.7617 -2.19336 -39.042 0.224609 -54.3242c0.472656 -1.5293 0.728516 -3.13086 0.736328 -4.67578
c0.0078125 -1.04883 0.015625 -2.10547 0.0234375 -3.1543c0.0722656 -8.79004 -11.2158 -17.5078 -19.5732 -16.8438c-32.7979 2.60156 -37.2891 44.5498 -43.5332 70.7432c-12.5605 52.6914 -20.9424 106.368 -28.4678 159.973
c-14.3701 102.35 -22.2637 205.243 -26.0898 308.497c-1.77734 47.8965 -2.73828 96.0654 -2.86621 144.362c-27.5869 -10.4629 -55.542 -19.9014 -84.041 -27.4502c-47.6963 -12.6328 -113.076 -30.4453 -160.988 -9.59082
c-49.9463 21.7432 -49.5303 75.6592 -30.9336 119.905c44.958 106.944 174.277 191.273 284.76 214.313c0.856445 0.175781 1.7207 0.328125 2.57715 0.496094c5.29199 63.875 12.5205 127.446 22.0312 190.329c7.93359 52.4912 100.229 63.0742 95.2334 2.17676
c-5.20312 -63.4912 -10.5752 -126.798 -15.5381 -190.072c20.9258 -3.69043 41.3154 -10.3105 60.5049 -20.4697c27.5303 -14.5859 45.1426 -33.3584 58.8076 -55.1729c2.92188 46.2637 6.48438 92.4707 10.7275 138.598c4.86719 52.8994 95.8887 61.6494 93.7832 2.14551
c-6.00391 -169.627 -17.6357 -338.989 -18.1318 -508.784c-0.255859 -86.9072 0.296875 -174.143 5.99707 -260.881c4.62695 -70.5039 2.98633 -169.339 43.8379 -229.779zM337.873 453.877c0.808594 57.9912 2.97852 116.062 6.66895 173.966
c-0.760742 -0.224609 -1.5293 -0.416992 -2.29004 -0.641602c-82.2559 -24.4082 -183.725 -85.4893 -217.708 -168.546c-28.2588 -69.0869 50.4668 -51.6992 91.5742 -42.8291c41.6045 8.98242 82.2002 22.3838 121.755 38.0508zM471.948 512.188
c25.8975 11.4795 53.6211 25.9941 81.7598 36.2969c-19.6611 24.9365 -36.0244 52.2988 -64.7959 68.8223c-13.5693 7.78906 -27.8828 13.0488 -42.5645 16.2588c-3.33789 -45.543 -6.32422 -91.1094 -8.75781 -136.732c11.4473 5.13965 22.8867 10.2715 34.3584 15.3545z
" />
    <glyph glyph-name="questiondown" unicode="&#xbf;" horiz-adv-x="560" 
d="M485.023 102.226c3.10645 12.1523 27.6025 11.4404 24.4082 -2.37695c-26.4023 -114.021 -80.3672 -215.73 -177.425 -284.81c-67.3252 -47.9121 -241.339 -116.214 -276.41 6.51758c-15.6504 54.749 4.97168 119.841 19.7012 172.532
c19.7891 70.7998 45.6143 140.095 72.9209 208.293c53.2197 132.93 111.146 263.794 163.687 397.012c19.1973 48.6729 105.407 37.9141 86.042 -19.3809c-72.001 -213.017 -199.423 -404.738 -259.047 -622.43c-11.1592 -40.7393 -40.3467 -126.43 17.9805 -142.969
c47.6084 -13.5049 106.744 14.6904 145.818 39.3955c87.2832 55.1973 156.803 148.229 182.324 248.216zM372.835 666.841c-38.5381 9.73438 -4.74707 78.4365 4.44336 100.724c6.01172 14.5381 22.8467 24.0088 38.4248 20.4307
c14.0498 -3.22656 24.2568 -19.1572 17.5723 -33.0469c-11.4473 -23.7842 -23.1914 -48.6895 -32.582 -73.2979c-3.97852 -10.4229 -16.8828 -17.5879 -27.8584 -14.8096z" />
    <glyph glyph-name="Agrave" unicode="&#xc0;" horiz-adv-x="1190" 
d="M1242.66 -455.053c13.4971 -50.9541 -76.0029 -77.4619 -91.6211 -23.9619c-11.4316 39.1709 -22.0947 78.5732 -32.126 118.144c-5.2832 11.8965 -10.2949 23.9688 -15.5869 35.9131c-18.1562 41.0039 -37.4814 81.5029 -58.4561 121.153
c-42.2363 79.8379 -92.1104 154.608 -153.56 221.054c-60.3691 65.2764 -129.399 118.856 -205.635 158.035c-63.4346 -195.549 -125.093 -392.402 -199.936 -583.531c-8.59766 -21.9424 -55.6377 -24.0957 -48.8096 4.75586
c47.8086 202.121 111.531 401.088 174.895 599.07c-60.7607 -24.3281 -121.538 -48.6484 -182.876 -71.3594c-96.7295 -35.8164 -195.965 -69.1514 -297.481 -88.5088c-47.5283 -9.0625 -172.501 -20.6943 -152.271 63.082c17.4756 72.3691 113.597 121.25 176.039 145.763
c83.1445 32.6465 174.927 46.1992 264.035 43.8379c72.2725 -1.91309 142.809 -15.9307 209.317 -40.3867c1.85742 5.82812 3.72266 11.6562 5.58008 17.4844c62.9062 197.334 126.43 396.509 211.407 585.652c25.0166 55.6777 79.2295 198.198 162.942 167.329
c37.7451 -13.9219 44.0371 -72.4414 48.5205 -106.328c6.25195 -47.2881 8.42188 -95.3604 11.4316 -142.937c13.2969 -209.902 21.6865 -419.788 50.5303 -628.361c27.8271 -201.288 71.6406 -399.574 123.66 -595.899zM587.177 206.177
c4.55469 1.83301 9.10254 3.66016 13.6572 5.48535c-52.5234 18.3965 -107.793 30.4531 -165.536 35.2246c-82.6318 6.8291 -166.608 2.22559 -246.566 -20.918c-46.0947 -13.3369 -90.8613 -33.8945 -128.919 -63.4023
c-16.251 -12.6006 -33.9746 -27.3389 -45.1826 -44.583c-28.8838 -44.4385 8.77344 -66.9014 48.5762 -69.4395c48.9053 -3.11426 100.332 12.9922 147.26 25.2969c41.0273 10.751 81.6387 23.0635 121.89 36.4082c86.1787 28.5869 170.612 62.0732 254.821 95.9277z
M724.351 293.342c-4.13867 -12.4404 -8.18945 -24.9307 -12.2959 -37.3867c96.6738 37.8018 194.212 73.21 294.432 100.181c-5.66797 80.4463 -9.55078 161.013 -13.3135 241.596c-2.94629 63.0186 -6.38867 126.021 -10.7754 188.96
c-0.736328 10.5996 -4.22656 98.4746 -11.5596 138.846c-10.5273 -15.6582 -19.1172 -34.4785 -25.6094 -47.2236c-13.2646 -26.0332 -25.0811 -52.875 -36.7607 -79.6455c-24.3848 -55.8701 -46.8398 -112.572 -68.1182 -169.699
c-41.3164 -110.923 -78.6455 -223.327 -115.999 -335.627zM1054.31 -162.448c11.624 -21.2783 22.7109 -42.8438 33.3662 -64.6182c-32.3018 151.206 -55.333 304.494 -70.6953 458.158c-3.51465 35.1602 -6.46094 70.3516 -9.0791 105.567
c-103.462 -28.043 -203.89 -65.0684 -303.597 -104.279c-1.64941 -5.01953 -3.31445 -10.0312 -4.95508 -15.0586c76.4199 -38.5137 145.707 -91.502 203.746 -156.242c60.0566 -66.9971 108.201 -144.81 151.214 -223.527zM817.692 1121.01
c-16.2031 -5.90039 -18.9727 17.3555 -4.09863 22.7188c123.035 44.4541 247.295 85.5137 372.924 122.011c15.667 4.55469 18.2529 -17.0996 3.86719 -21.4385c-125.349 -37.7773 -249.673 -78.501 -372.692 -123.291z" />
    <glyph glyph-name="AE" unicode="&#xc6;" horiz-adv-x="2015" 
d="M2103.27 -100.557c15.4902 3.71484 18.2031 -17.4473 3.79297 -21.0176c-154.297 -38.1455 -302.838 -94.3037 -452.307 -147.58c-127.286 -45.3672 -263.938 -94.376 -400.951 -91.3496c-10.6553 0.232422 -21.6943 1.16113 -32.1816 3.1709
c8.12598 -32.6299 16.4199 -65.2119 25.0342 -97.7295c13.4971 -50.9541 -76.0039 -77.4521 -91.6221 -23.9678c-11.4316 39.1709 -22.0947 78.5732 -32.126 118.144c-5.2832 11.8965 -10.2949 23.9688 -15.5869 35.9131
c-18.1562 41.0039 -37.4814 81.5029 -58.4561 121.153c-42.2363 79.8379 -92.1104 154.608 -153.56 221.054c-60.3691 65.2764 -129.399 118.856 -205.635 158.035c-63.4346 -195.549 -125.093 -392.402 -199.936 -583.531
c-8.59766 -21.9424 -55.6377 -24.0957 -48.8086 4.75586c47.8086 202.121 111.531 401.088 174.895 599.07c-60.7607 -24.3281 -121.538 -48.6484 -182.876 -71.3594c-96.7295 -35.8164 -195.965 -69.1514 -297.481 -88.5088
c-47.5283 -9.0625 -172.501 -20.6943 -152.271 63.082c17.4756 72.3691 113.597 121.25 176.039 145.763c83.1445 32.6465 174.927 46.1992 264.035 43.8379c72.2725 -1.91309 142.809 -15.9307 209.317 -40.3867c1.85742 5.82812 3.72266 11.6562 5.58008 17.4844
c62.9062 197.334 126.43 396.509 211.407 585.652c25.0166 55.6777 79.2217 198.198 162.942 167.329c37.7451 -13.9219 44.0371 -72.4414 48.5205 -106.328c6.25195 -47.2881 8.42188 -95.3604 11.4316 -142.937c4.19531 -66.2852 7.91016 -132.578 11.9287 -198.823
c41.4678 115.278 112.876 221.334 200.96 303.222c110.491 102.718 312.012 218.437 457.23 115.431c159.748 -113.325 116.087 -322.171 129.191 -489.74c2.27344 -29.1553 -48.9131 -44.3896 -51.3311 -13.4248c-7.66895 98.1709 8.50195 197.014 -4.49121 294.864
c-10.583 79.6699 -45.5664 167.153 -125.372 198.743c-161.053 63.7549 -326.732 -92.7832 -412.687 -211.535c-83.8809 -115.895 -146.107 -271.136 -131.546 -416.45c40.6279 -405.467 585.509 -201.408 824.23 -130.36
c22.6953 8.19727 51.8428 -6.47656 56.1094 -30.5488c4.90723 -27.707 -17.4043 -46.8799 -40.5322 -55.8379c-47.3438 -18.332 -95.4004 -34.8311 -143.961 -49.6807c-89.7012 -34.2637 -177.057 -74.1465 -261.634 -120.514
c-62.5859 -34.3027 -123.844 -71.3037 -182.892 -111.427c-28.7871 -19.5576 -56.8857 -40.2119 -83.5762 -62.5635c-22.0391 -18.4521 -63.2754 -46.6953 -74.4268 -73.7939c-13.1689 -32.0059 11.0713 -29.1074 34.4873 -29.9082
c20.1494 -0.680664 40.4111 0.288086 60.4883 1.96094c43.4453 3.62598 86.3066 12.1514 128.735 21.9424c72.1934 16.6514 143.529 36.6484 214.394 58.2227c142.032 43.2451 280.902 95.833 425.496 130.473zM591.182 206.175
c4.54688 1.83301 9.10254 3.66016 13.6572 5.48535c-52.5234 18.3965 -107.793 30.4531 -165.536 35.2246c-82.6318 6.8291 -166.608 2.22559 -246.566 -20.918c-46.0947 -13.3369 -90.8613 -33.8945 -128.919 -63.4023
c-16.251 -12.6006 -33.9746 -27.3389 -45.1826 -44.583c-28.8838 -44.4385 8.77344 -66.9014 48.5762 -69.4395c48.9053 -3.11426 100.332 12.9922 147.26 25.2969c41.0273 10.751 81.6387 23.0635 121.89 36.4082c86.1787 28.5869 170.612 62.0732 254.821 95.9277z
M728.355 293.34c-4.13867 -12.4404 -8.19727 -24.9307 -12.2959 -37.3867c96.6738 37.8018 194.212 73.21 294.432 100.181c-5.66797 80.4463 -9.55078 161.013 -13.3135 241.596c-2.94629 63.0186 -6.38867 126.021 -10.7754 188.96
c-0.736328 10.5996 -4.22656 98.4746 -11.5596 138.846c-10.5273 -15.6582 -19.1172 -34.4785 -25.6094 -47.2236c-13.2646 -26.0332 -25.0811 -52.875 -36.7607 -79.6455c-24.3848 -55.8701 -46.8398 -112.572 -68.1182 -169.699
c-41.3164 -110.923 -78.6455 -223.327 -115.999 -335.627zM1058.31 -162.45c11.624 -21.2783 22.7041 -42.8438 33.3672 -64.6182c-32.3018 151.206 -55.333 304.494 -70.6953 458.158c-3.51465 35.1602 -6.46094 70.3516 -9.0791 105.567
c-103.462 -28.043 -203.89 -65.0684 -303.597 -104.279c-1.64941 -5.01953 -3.31445 -10.0312 -4.95605 -15.0586c76.4199 -38.5137 145.707 -91.502 203.746 -156.242c60.0566 -66.9971 108.201 -144.81 151.214 -223.527zM1193.95 -241.615
c23.9922 32.6465 59.9375 61.7305 86.0107 84.0176c74.042 63.2744 155.337 119.929 240.843 170.659c-75.7637 -10.167 -152.735 -12.5928 -226.649 6.4043c-71.833 18.4609 -127.943 55.3018 -168.587 104.03c17.54 -122.723 40.876 -244.357 68.3828 -365.111z" />
    </font>
</defs>
</svg>
