<?xml version="1.0" standalone="no"?><!DOCTYPE svg PUBLIC "-//W3C//DTD SVG 1.1//EN" "http://www.w3.org/Graphics/SVG/1.1/DTD/svg11.dtd" ><svg version="1.1" xmlns="http://www.w3.org/2000/svg"><defs><font horiz-adv-x="0" id="font"><font-face ascent="710" bbox="20 -250 1191 960" cap-height="780" descent="-220" font-family="Petite Mort WEB" font-stretch="normal" font-style="normal" font-weight="400" units-per-em="1000" x-height="500" /><missing-glyph d="M100 -250H900V750H100ZM474 103C612 229 615 269 615 405V425C615 553 568 580 500 580C432 580 385 553 385 425V405C385 276 432 250 500 250V220C336 220 255 301 255 415C255 529 336 610 500 610C664 610 745 529 745 415C745 260 647 223 494 80ZM493 -120C450 -120 420 -92 420 -50C420 -7 450 21 493 21C537 21 566 -7 566 -50C566 -92 537 -120 493 -120Z" horiz-adv-x="1000" /><glyph glyph-name=".null" horiz-adv-x="0" /><glyph d="M315 30H192L257 193H569L629 30H515V0H855V30H758L470 720H440L153 30H55V0H315ZM409 571H429L557 225H270ZM455 730ZM698 0Z" glyph-name="A" horiz-adv-x="910" unicode="A" /><glyph d="M666 376H443L655 680H666ZM941 546 940 516C936 409 900 375 849 375H846V345H849C900 345 936 311 940 204L941 174H971C969 236 967 298 967 360C967 422 969 484 971 546ZM55 30V0H315V30H201L420 344H666V30H566V0H1072C1117 0 1160 -1 1180 -2L1184 2C1186 111 1189 183 1191 243H1161L1159 201C1153 74 1074 30 985 30H786V680H965C1055 680 1131 638 1131 511V469H1161C1162 551 1162 623 1165 710L1161 714C1107 710 896 710 896 710H466V680H618L161 30ZM726 730Z" glyph-name="AE" horiz-adv-x="1291" unicode="&#198;" /><glyph d="M357 780 584 940V960H435C435 890 395 848 341 799ZM315 30H192L257 193H569L629 30H515V0H855V30H758L470 720H440L153 30H55V0H315ZM409 571H429L557 225H270Z" glyph-name="Aacute" horiz-adv-x="910" unicode="&#193;" /><glyph d="M470 960H440C412 896 364 840 296 792L310 770L455 855L600 770L614 792C546 840 498 896 470 960ZM315 30H192L257 193H569L629 30H515V0H855V30H758L470 720H440L153 30H55V0H315ZM409 571H429L557 225H270Z" glyph-name="Acircumflex" horiz-adv-x="910" unicode="&#194;" /><glyph d="M353 795C392 795 418 820 418 857C418 895 392 920 353 920C315 920 288 895 288 857C288 820 315 795 353 795ZM557 795C596 795 622 820 622 857C622 895 596 920 557 920C519 920 492 895 492 857C492 820 519 795 557 795ZM315 30H192L257 193H569L629 30H515V0H855V30H758L470 720H440L153 30H55V0H315ZM409 571H429L557 225H270Z" glyph-name="Adieresis" horiz-adv-x="910" unicode="&#196;" /><glyph d="M553 780 569 799C515 848 475 890 475 960H326V940ZM315 30H192L257 193H569L629 30H515V0H855V30H758L470 720H440L153 30H55V0H315ZM409 571H429L557 225H270Z" glyph-name="Agrave" horiz-adv-x="910" unicode="&#192;" /><glyph d="M75 680H175V30H75V0H440C624 0 715 82 715 198C715 305 636 366 476 366V396C613 396 680 449 680 543C680 641 597 710 430 710H75ZM430 680C501 680 550 657 550 543V533C550 418 501 396 430 396H295V680ZM440 366C526 366 585 342 585 218V188C585 58 526 30 440 30H295V366Z" glyph-name="B" horiz-adv-x="820" unicode="B" /><glyph d="M460 -10C538 -10 604 16 647 77H667L703 -30H724V273H695C693 112 610 20 460 20C310 20 225 72 225 325V385C225 638 309 690 460 690C610 690 693 598 695 437H724V740H703L667 633H647C604 694 538 720 460 720C227 720 90 568 90 355C90 142 227 -10 460 -10ZM460 730ZM460 0Z" glyph-name="C" horiz-adv-x="844" unicode="C" /><glyph glyph-name="CR" horiz-adv-x="500" unicode="" /><glyph d="M401 -74C414 -65 435 -58 453 -58C490 -58 514 -69 514 -119V-127C514 -187 492 -200 460 -200C418 -200 406 -185 406 -168C406 -154 412 -145 412 -132C412 -111 398 -101 379 -101C360 -101 344 -114 344 -141C344 -189 402 -220 460 -220C538 -220 576 -180 576 -123C576 -73 535 -37 460 -37C432 -37 407 -45 391 -56ZM460 10C538 10 593 30 647 77H667L703 -30H724V273H695C693 112 610 20 460 20C310 20 225 72 225 325V385C225 638 309 690 460 690C610 690 693 598 695 437H724V740H703L667 633H647C604 694 538 720 460 720C227 720 90 568 90 355C90 153.6712 227 10 460 10Z" glyph-name="Ccedilla" horiz-adv-x="844" unicode="&#199;" /><glyph d="M75 680H175V30H75V0H420C683 0 820 138 820 355C820 572 683 710 420 710H75ZM420 680C578 680 685 630 685 385V325C685 80 578 30 420 30H295V680ZM419 730Z" glyph-name="D" horiz-adv-x="910" unicode="D" /><glyph d="M474 680C564 680 640 638 640 511V469H670C671 551 671 623 674 710L670 714C616 710 405 710 405 710H75V680H175V30H75V0H581C626 0 669 -1 689 -2L693 2C695 111 698 183 700 243H670L668 201C662 74 583 30 494 30H295V680ZM450 546 449 516C445 409 409 375 358 375H355V345H358C409 345 445 311 449 204L450 174H480C478 236 476 298 476 360C476 422 478 484 480 546ZM414 730ZM581 0Z" glyph-name="E" horiz-adv-x="800" unicode="E" /><glyph d="M316 780 543 940V960H394C394 890 354 848 300 799ZM474 680C564 680 640 638 640 511V469H670C671 551 671 623 674 710L670 714C616 710 405 710 405 710H75V680H175V30H75V0H581C626 0 669 -1 689 -2L693 2C695 111 698 183 700 243H670L668 201C662 74 583 30 494 30H295V680ZM450 546 449 516C445 409 409 375 358 375H355V345H358C409 345 445 311 449 204L450 174H480C478 236 476 298 476 360C476 422 478 484 480 546Z" glyph-name="Eacute" horiz-adv-x="800" unicode="&#201;" /><glyph d="M474 680C564 680 640 638 640 511V469H670C671 551 671 623 674 710L670 714C616 710 405 710 405 710H75V680H175V30H75V0H581C626 0 669 -1 689 -2L693 2C695 111 698 183 700 243H670L668 201C662 74 583 30 494 30H295V680ZM450 546 449 516C445 409 409 375 358 375H355V345H358C409 345 445 311 449 204L450 174H480C478 236 476 298 476 360C476 422 478 484 480 546ZM399 770H429C457 834 505 890 573 938L559 960L414 875L269 960L255 938C323 890 371 834 399 770Z" glyph-name="Ecaron" horiz-adv-x="800" unicode="&#282;" /><glyph d="M429 960H399C371 896 323 840 255 792L269 770L414 855L559 770L573 792C505 840 457 896 429 960ZM474 680C564 680 640 638 640 511V469H670C671 551 671 623 674 710L670 714C616 710 405 710 405 710H75V680H175V30H75V0H581C626 0 669 -1 689 -2L693 2C695 111 698 183 700 243H670L668 201C662 74 583 30 494 30H295V680ZM450 546 449 516C445 409 409 375 358 375H355V345H358C409 345 445 311 449 204L450 174H480C478 236 476 298 476 360C476 422 478 484 480 546Z" glyph-name="Ecircumflex" horiz-adv-x="800" unicode="&#202;" /><glyph d="M312 795C351 795 377 820 377 857C377 895 351 920 312 920C274 920 247 895 247 857C247 820 274 795 312 795ZM516 795C555 795 581 820 581 857C581 895 555 920 516 920C478 920 451 895 451 857C451 820 478 795 516 795ZM474 680C564 680 640 638 640 511V469H670C671 551 671 623 674 710L670 714C616 710 405 710 405 710H75V680H175V30H75V0H581C626 0 669 -1 689 -2L693 2C695 111 698 183 700 243H670L668 201C662 74 583 30 494 30H295V680ZM450 546 449 516C445 409 409 375 358 375H355V345H358C409 345 445 311 449 204L450 174H480C478 236 476 298 476 360C476 422 478 484 480 546Z" glyph-name="Edieresis" horiz-adv-x="800" unicode="&#203;" /><glyph d="M512 780 528 799C474 848 434 890 434 960H285V940ZM474 680C564 680 640 638 640 511V469H670C671 551 671 623 674 710L670 714C616 710 405 710 405 710H75V680H175V30H75V0H581C626 0 669 -1 689 -2L693 2C695 111 698 183 700 243H670L668 201C662 74 583 30 494 30H295V680ZM450 546 449 516C445 409 409 375 358 375H355V345H358C409 345 445 311 449 204L450 174H480C478 236 476 298 476 360C476 422 478 484 480 546Z" glyph-name="Egrave" horiz-adv-x="800" unicode="&#200;" /><glyph d="M436 20C344 20 286 60 274 243H507V273H252V437H507V467H274C286 650 344 690 436 690C554 690 619 598 621 437H650V740H629L601 642H581C546 698 496 720 436 720C285 720 184 619 152 467H50V437H147C143 411 141 384 141 355C141 326 143 299 147 273H50V243H152C184 91 285 -10 436 -10C496 -10 546 12 581 68H601L629 -30H650V273H621C619 112 554 20 436 20Z" glyph-name="Euro" horiz-adv-x="780" unicode="&#8364;" /><glyph d="M478 526 477 496C473 389 433 355 378 355H355V325H378C433 325 473 291 477 184L478 154H508C506 216 504 278 504 340C504 402 506 464 508 526ZM514 680C593 680 660 643 660 531V469H690C691 524 691 610 694 710L690 714C640 710 445 710 445 710H75V680H175V30H75V0H455V30H295V680Z" glyph-name="F" horiz-adv-x="790" unicode="F" /><glyph d="M845 310V340H430V310H625V225C625 90 571 20 450 20C305 20 225 72 225 325V385C225 638 310 690 460 690C610 690 693 598 695 437H724V740H703L667 633H647C604 694 538 720 460 720C227 720 90 568 90 355C90 142 223 -10 429 -10C524 -10 630 32 638 186H664L720 -20H745V310ZM460 730ZM450 0Z" glyph-name="G" horiz-adv-x="910" unicode="G" /><glyph d="M895 680V710H565V680H675V387H295V680H405V710H75V680H175V30H75V0H405V30H295V355H675V30H565V0H895V30H795V680ZM485 730Z" glyph-name="H" horiz-adv-x="970" unicode="H" /><glyph d="M415 680V710H75V680H185V30H75V0H415V30H305V680ZM245 730ZM245 0Z" glyph-name="I" horiz-adv-x="490" unicode="I" /><glyph d="M260 960H230C202 896 154 840 86 792L100 770L245 855L390 770L404 792C336 840 288 896 260 960ZM415 680V710H75V680H185V30H75V0H415V30H305V680Z" glyph-name="Icircumflex" horiz-adv-x="490" unicode="&#206;" /><glyph d="M143 795C182 795 208 820 208 857C208 895 182 920 143 920C105 920 78 895 78 857C78 820 105 795 143 795ZM347 795C386 795 412 820 412 857C412 895 386 920 347 920C309 920 282 895 282 857C282 820 309 795 347 795ZM415 680V710H75V680H185V30H75V0H415V30H305V680Z" glyph-name="Idieresis" horiz-adv-x="490" unicode="&#207;" /><glyph d="M247 680H397V180C397 70 356 20 276 20C195 20 175 56 175 94C175 124 196 148 196 175C196 215 170 233 133 233C100 233 70 210 70 158C70 56 173 -10 276 -10C429 -10 517 59 517 190V680H617V710H247ZM457 730Z" glyph-name="J" horiz-adv-x="692" unicode="J" /><glyph d="M623 30H503V0H868V30H796L461 420V440L719 680H837V710H507V680H668L365 380V360L623 50ZM405 680V710H75V680H175V30H75V0H405V30H295V680ZM454 0Z" glyph-name="K" horiz-adv-x="893" unicode="K" /><glyph d="M295 680H455V710H75V680H175V30H75V0H670V261H640V209C640 73 566 30 469 30H295ZM235 730ZM435 710ZM505 405ZM411 0Z" glyph-name="L" horiz-adv-x="760" unicode="L" /><glyph d="M1054 680V710H750L577 189H557L389 710H75V680H175V30H75V0H315V30H215V680H265L511 -30H537L784 680H834V30H734V0H1054V30H954V680Z" glyph-name="M" horiz-adv-x="1129" unicode="M" /><glyph d="M256 680 715 -40H745V680H845V710H585V680H705V204H694L366 710H75V680H175V30H75V0H335V30H215V680ZM460 730ZM460 0Z" glyph-name="N" horiz-adv-x="920" unicode="N" /><glyph d="M460 720C227 720 90 568 90 355C90 142 227 -10 460 -10C693 -10 830 142 830 355C830 568 693 720 460 720ZM460 690C610 690 695 638 695 385V325C695 72 610 20 460 20C310 20 225 72 225 325V385C225 638 310 690 460 690ZM460 730Z" glyph-name="O" horiz-adv-x="920" unicode="O" /><glyph d="M735 680H914C1004 680 1080 638 1080 511V469H1110C1111 551 1111 623 1114 710L1110 714C1056 710 845 710 845 710H490C227 710 90 572 90 355C90 138 227 0 490 0H1021C1066 0 1109 -1 1129 -2L1133 2C1135 111 1138 183 1140 243H1110L1108 201C1102 74 1023 30 934 30H735ZM615 30H490C332 30 225 80 225 325V385C225 630 332 680 490 680H615ZM890 546 889 516C885 409 849 375 798 375H795V345H798C849 345 885 311 889 204L890 174H920C918 236 916 298 916 360C916 422 918 484 920 546Z" glyph-name="OE" horiz-adv-x="1240" unicode="&#338;" /><glyph d="M460 720C227 720 90 568 90 355C90 142 227 -10 460 -10C693 -10 830 142 830 355C830 568 693 720 460 720ZM460 690C610 690 695 638 695 385V325C695 72 610 20 460 20C310 20 225 72 225 325V385C225 638 310 690 460 690ZM347 780 574 940V960H425C425 890 385 848 331 799Z" glyph-name="Oacute" horiz-adv-x="920" unicode="&#210;" /><glyph d="M475 960H445C417 896 369 840 301 792L315 770L460 855L605 770L619 792C551 840 503 896 475 960ZM460 720C227 720 90 568 90 355C90 142 227 -10 460 -10C693 -10 830 142 830 355C830 568 693 720 460 720ZM460 690C610 690 695 638 695 385V325C695 72 610 20 460 20C310 20 225 72 225 325V385C225 638 310 690 460 690Z" glyph-name="Ocircumflex" horiz-adv-x="920" unicode="&#212;" /><glyph d="M358 795C397 795 423 820 423 857C423 895 397 920 358 920C320 920 293 895 293 857C293 820 320 795 358 795ZM562 795C601 795 627 820 627 857C627 895 601 920 562 920C524 920 497 895 497 857C497 820 524 795 562 795ZM460 720C227 720 90 568 90 355C90 142 227 -10 460 -10C693 -10 830 142 830 355C830 568 693 720 460 720ZM460 690C610 690 695 638 695 385V325C695 72 610 20 460 20C310 20 225 72 225 325V385C225 638 310 690 460 690Z" glyph-name="Odieresis" horiz-adv-x="920" unicode="&#214;" /><glyph d="M440 680C526 680 585 651 585 505V485C585 339 526 310 440 310H385V280H440C620 280 715 363 715 495C715 627 620 710 440 710H75V680H175V30H75V0H465V30H295V680Z" glyph-name="P" horiz-adv-x="810" unicode="P" /><glyph d="M460 720C227 720 90 572 90 365C90 158 227 10 460 10C693 10 830 158 830 365C830 572 693 720 460 720ZM460 690C610 690 695 638 695 385V325C695 72 610 20 460 20C310 20 225 72 225 325V385C225 638 310 690 460 690ZM430 -96V-127C513 -137 575 -167 621 -232L645 -215C631 -159 699 -128 756 -128V-96Z" glyph-name="Q" horiz-adv-x="920" unicode="Q" /><glyph d="M420 680C506 680 565 657 565 547V507C565 396 506 374 420 374H295V680ZM440 344C511 344 560 328 560 247V127C560 21 627 -5 699 -5C762 -5 790 27 813 72L786 87C770 53 754 35 731 35C696 35 680 52 680 114V206C680 327 621 344 500 344V374C611 374 695 434 695 535C695 637 604 710 420 710H75V680H175V30H75V0H445V30H295V344ZM407 730ZM443 0Z" glyph-name="R" horiz-adv-x="838" unicode="R" /><glyph d="M420 680C506 680 565 657 565 547V507C565 396 506 374 420 374H295V680ZM440 344C511 344 560 328 560 247V127C560 21 627 -5 699 -5C762 -5 790 27 813 72L786 87C770 53 754 35 731 35C696 35 680 52 680 114V206C680 327 621 344 500 344V374C611 374 695 434 695 535C695 637 604 710 420 710H75V680H175V30H75V0H445V30H295V344ZM392 770H422C450 834 498 890 566 938L552 960L407 875L262 960L248 938C316 890 364 834 392 770Z" glyph-name="Rcaron" horiz-adv-x="838" unicode="&#344;" /><glyph d="M179 85C237 15 313 -10 403 -10C574 -10 658 77 658 198C658 490 188 367 188 566C188 652 256 690 357 690C448 690 569 657 572 481H600V744H580L555 641H535C486 701 430 720 357 720C194 720 114 637 114 522C114 235 577 370 577 159C577 62 506 19 403 20C289 21 144 62 138 267H110V-30H132L159 85ZM357 730ZM403 9Z" glyph-name="S" horiz-adv-x="768" unicode="S" /><glyph d="M615 30H475V680H554C644 680 720 636 720 501V449H750C751 504 751 610 754 710L750 714C699 710 519 710 475 710H355C311 710 131 710 80 714L76 710C79 610 79 504 80 449H110V501C110 636 186 680 276 680H355V30H215V0H615ZM415 730ZM415 0Z" glyph-name="T" horiz-adv-x="830" unicode="T" /><glyph d="M565 680H695V260C695 103 607 27 488 27C359 27 295 102 295 260V680H405V710H75V680H175V270C175 86 277 -10 456 -10C635 -10 735 86 735 270V680H835V710H565ZM485 730ZM456 0Z" glyph-name="U" horiz-adv-x="910" unicode="U" /><glyph d="M500 960H470C442 896 394 840 326 792L340 770L485 855L630 770L644 792C576 840 528 896 500 960ZM565 680H695V260C695 103 607 27 488 27C359 27 295 102 295 260V680H405V710H75V680H175V270C175 86 277 -10 456 -10C635 -10 735 86 735 270V680H835V710H565Z" glyph-name="Ucircumflex" horiz-adv-x="910" unicode="&#219;" /><glyph d="M383 795C422 795 448 820 448 857C448 895 422 920 383 920C345 920 318 895 318 857C318 820 345 795 383 795ZM587 795C626 795 652 820 652 857C652 895 626 920 587 920C549 920 522 895 522 857C522 820 549 795 587 795ZM565 680H695V260C695 103 607 27 488 27C359 27 295 102 295 260V680H405V710H75V680H175V270C175 86 277 -10 456 -10C635 -10 735 86 735 270V680H835V710H565Z" glyph-name="Udieresis" horiz-adv-x="910" unicode="&#220;" /><glyph d="M583 780 599 799C545 848 505 890 505 960H356V940ZM565 680H695V260C695 103 607 27 488 27C359 27 295 102 295 260V680H405V710H75V680H175V270C175 86 277 -10 456 -10C635 -10 735 86 735 270V680H835V710H565Z" glyph-name="Ugrave" horiz-adv-x="910" unicode="&#217;" /><glyph d="M595 680H718L501 139H481L281 680H395V710H55V680H153L440 -10H470L758 680H855V710H595Z" glyph-name="V" horiz-adv-x="910" unicode="V" /><glyph d="M760 -10H790L1078 680H1175V710H915V680H1038L821 139H801L601 680H755V710H55V680H153L440 -10H470L533 139H491L282 680H473ZM615 730Z" glyph-name="W" horiz-adv-x="1230" unicode="W" /><glyph d="M482 680H603L454 437H428L292 680H402V710H56V680H144L363 355L138 30H56V0H316V30H187L370 317H396L575 30H436V0H800V30H714L461 399L652 680H754V710H482Z" glyph-name="X" horiz-adv-x="852" unicode="X" /><glyph d="M835 680V710H575V680H699L499 353H479L288 680H415V710H55V680H149L385 311V30H245V0H645V30H505V311L741 680ZM475 730Z" glyph-name="Y" horiz-adv-x="890" unicode="Y" /><glyph d="M673 2C675 102 684 208 686 263H656L651 210C640 89 573 30 464 30H239V50L333 177L672 680V710H374C374 710 179 710 129 714L125 710C128 610 128 524 129 469H159V531C159 643 226 680 305 680H532V660L466 573L100 30V0H540C592 0 646 -1 669 -2ZM393 730Z" glyph-name="Z" horiz-adv-x="782" unicode="Z" /><glyph d="M457 100C466 20 529 -5 584 -5C643 -5 679 28 706 105L676 116C659 59 635 35 600 35C568 35 550 50 550 104V347C550 459 472 510 340 510C231 510 134 456 134 371C134 326 162 305 191 305C222 305 245 323 245 355C245 390 214 392 214 423C214 450 251 480 340 480C430 480 469 446 469 382C469 216 109 301 109 105C109 36 161 -10 266 -10C355 -10 407 31 437 100ZM219 129C219 253 370 234 440 292V191C440 86 380 29 311 29C249 29 219 59 219 129ZM344 520ZM559 0Z" glyph-name="a" horiz-adv-x="725" unicode="a" /><glyph d="M246 570 473 730V750H324C324 680 284 638 230 589ZM457 100C466 20 529 -5 584 -5C643 -5 679 28 706 105L676 116C659 59 635 35 600 35C568 35 550 50 550 104V347C550 459 472 510 340 510C231 510 134 456 134 371C134 326 162 305 191 305C222 305 245 323 245 355C245 390 214 392 214 423C214 450 251 480 340 480C430 480 469 446 469 382C469 216 109 301 109 105C109 36 161 -10 266 -10C355 -10 407 31 437 100ZM219 129C219 253 370 234 440 292V191C440 86 380 29 311 29C249 29 219 59 219 129Z" glyph-name="aacute" horiz-adv-x="725" unicode="&#225;" /><glyph d="M359 750H329C301 686 253 630 185 582L199 560L344 645L489 560L503 582C435 630 387 686 359 750ZM457 100C466 20 529 -5 584 -5C643 -5 679 28 706 105L676 116C659 59 635 35 600 35C568 35 550 50 550 104V347C550 459 472 510 340 510C231 510 134 456 134 371C134 326 162 305 191 305C222 305 245 323 245 355C245 390 214 392 214 423C214 450 251 480 340 480C430 480 469 446 469 382C469 216 109 301 109 105C109 36 161 -10 266 -10C355 -10 407 31 437 100ZM219 129C219 253 370 234 440 292V191C440 86 380 29 311 29C249 29 219 59 219 129Z" glyph-name="acircumflex" horiz-adv-x="725" unicode="&#226;" /><glyph d="M242 595C281 595 307 620 307 657C307 695 281 720 242 720C204 720 177 695 177 657C177 620 204 595 242 595ZM446 595C485 595 511 620 511 657C511 695 485 720 446 720C408 720 381 695 381 657C381 620 408 595 446 595ZM457 100C466 20 529 -5 584 -5C643 -5 679 28 706 105L676 116C659 59 635 35 600 35C568 35 550 50 550 104V347C550 459 472 510 340 510C231 510 134 456 134 371C134 326 162 305 191 305C222 305 245 323 245 355C245 390 214 392 214 423C214 450 251 480 340 480C430 480 469 446 469 382C469 216 109 301 109 105C109 36 161 -10 266 -10C355 -10 407 31 437 100ZM219 129C219 253 370 234 440 292V191C440 86 380 29 311 29C249 29 219 59 219 129Z" glyph-name="adieresis" horiz-adv-x="725" unicode="&#228;" /><glyph d="M442 570 458 589C404 638 364 680 364 750H215V730ZM457 100C466 20 529 -5 584 -5C643 -5 679 28 706 105L676 116C659 59 635 35 600 35C568 35 550 50 550 104V347C550 459 472 510 340 510C231 510 134 456 134 371C134 326 162 305 191 305C222 305 245 323 245 355C245 390 214 392 214 423C214 450 251 480 340 480C430 480 469 446 469 382C469 216 109 301 109 105C109 36 161 -10 266 -10C355 -10 407 31 437 100ZM219 129C219 253 370 234 440 292V191C440 86 380 29 311 29C249 29 219 59 219 129Z" glyph-name="agrave" horiz-adv-x="725" unicode="&#224;" /><glyph d="M636 114C671 152 685 176.7 685 247V337H775V367H455V337H575V163L511 215C317 373 270 420 270 555V575C270 670 309 690 365 690C421 690 460 670 460 575V555C460 459 421 440 365 440V410C516 410 590 474 590 565C590 656 516 720 365 720C214 720 140 656 140 565C140 500.4559 191 440 292 394V374C160 344 95 274 95 183C95 70 192 -10 390 -10C507 -10 589 21 636 72L728 0H779ZM225 173V203C225 286.1618 252.5828 327.255 300 348L568 125C546 41 480 20 390 20C292 20 225 47 225 173Z" glyph-name="ampersand" horiz-adv-x="829" unicode="&amp;" /><glyph d="M360 659V675C343 686 330 702 319 720H297C286 702 272 686 255 675V659C279 623 307 518 307 518C307 518 338 622 360 659ZM461 510 476 515C482 534 492 552 506 567L499 589C478 594 459 602 443 614L428 610C402 575 307 518 307 518C307 518 418 519 461 510ZM187 610 172 614C156 602 137 594 117 590L110 568C123 552 134 534 139 515L154 510C196 522 307 518 307 518C307 518 216 577 187 610ZM350 368 359 355C379 356 399 351 418 342L437 356C435 378 437 398 444 417L434 430C394 445 307 518 307 518C307 518 346 411 350 368ZM181 430 171 417C178 398 180 378 178 356L196 343C216 351 236 356 256 355L266 368C267 411 307 518 307 518C307 518 221 446 181 430Z" glyph-name="asterisk" horiz-adv-x="616" unicode="*" /><glyph d="M611 -93 601 -67C561 -84 517 -93 467 -93C270 -93 125 40 125 245C125 449 270 583 467 583C668 583 815 449 815 245C815 136 778 77 706 76C654 76 623 105 623 163V315C623 399 564 438 465 438C383 438 311 397 311 333C311 300 332 284 353 284C377 284 394 297 394 321C394 348 371 349 371 372C371 393 398 415 465 415C533 415 562 390 562 342C562 217 292 281 292 134C292 82 331 48 410 48C476 48 515 78 538 130H555C571 73 619 44 687 44C788 44 845 118 845 245C845 466 683 610 467 610C255 610 95 466 95 245C95 23 255 -120 467 -120C519 -120 568 -110 611 -93ZM374 152C374 245 488 231 540 274V198C540 120 495 77 443 77C397 77 374 99 374 152Z" glyph-name="at" horiz-adv-x="940" unicode="@" /><glyph d="M155 680V183C155 116 147 52 141 -10L166 -17L233 128H259C288 50 347 -10 454 -10C592 -10 675 98 675 250C675 402 592 510 454 510C367 510 308 469 269 396H243L265 500V710L261 714C199 712 131 710 65 710V680ZM420 30C368 30 265 62 265 220V280C265 438 368 470 420 470C500 470 555 438 555 280V220C555 62 500 30 420 30Z" glyph-name="b" horiz-adv-x="760" unicode="b" /><glyph d="M215 280C215 446 278 480 370 480C434 480 517 447 522 310H549V530H526L512 445H492C464 496 407 510 360 510C193 510 95 402 95 250C95 98 193 -10 360 -10C407 -10 464 4 492 55H512L526 -30H549V190H522C517 53 434 20 370 20C278 20 215 54 215 220ZM360 520ZM360 0Z" glyph-name="c" horiz-adv-x="657" unicode="c" /><glyph d="M301 -74C314 -65 335 -58 353 -58C390 -58 414 -69 414 -119V-127C414 -187 392 -200 360 -200C318 -200 306 -185 306 -168C306 -154 312 -145 312 -132C312 -111 298 -101 279 -101C260 -101 244 -114 244 -141C244 -189 302 -220 360 -220C438 -220 476 -180 476 -123C476 -73 435 -37 360 -37C332 -37 307 -45 291 -56ZM215 280C215 446 278 480 370 480C434 480 517 447 522 310H549V530H526L512 445H492C464 496 407 510 360 510C193 510 95 402 95 250C95 109.6923 196.6981 10 370 10C413.4394 10 458 26 492 55H512L526 -30H549V190H522C517 53 434 20 370 20C278 20 215 54 215 220Z" glyph-name="ccedilla" horiz-adv-x="657" unicode="&#231;" /><glyph d="M173 -10C217 -10 246 18 246 60C246 103 217 131 173 131C130 131 100 103 100 60C100 18 130 -10 173 -10ZM173 370C217 370 246 398 246 440C246 483 217 511 173 511C130 511 100 483 100 440C100 398 130 370 173 370Z" glyph-name="colon" horiz-adv-x="346" unicode=":" /><glyph d="M99 -107 111 -128C196 -85 260 -2 260 117H225C207 88 161 87 130 105L112 81C137 63 151 29 151 -7C151 -44 132 -83 99 -107Z" glyph-name="comma" horiz-adv-x="346" unicode="," /><glyph d="M695 0V30H605V710L601 714C517 712 425 710 335 710V680H495V500L517 396H491C452 469 393 510 306 510C168 510 85 402 85 250C85 98 168 -10 306 -10C399 -10 476 42 507 143H533L517 0L521 -4C578 -2 638 0 695 0ZM205 220V280C205 438 260 470 340 470C392 470 495 438 495 280V220C495 62 392 30 340 30C260 30 205 62 205 220ZM605 710Z" glyph-name="d" horiz-adv-x="770" unicode="d" /><glyph d="M381 575C381 660 321 720 238 720C155 720 95 660 95 575C95 490 155 430 238 430C321 430 381 490 381 575ZM353 575C353 505 304 456 238 456C172 456 123 505 123 575C123 645 172 694 238 694C304 694 353 645 353 575Z" glyph-name="degree" horiz-adv-x="477" unicode="&#176;" /><glyph d="M403 -10C416 -10 428 -10 440 -9V-110H475V-4C598 17 658 95 658 198C658 322 573 371 475 402V665C528 638 570 584 572 481H600V744H580L555 641H535C516 664 496 681 475 693V820H440V709C415 717 387 720 357 720C346 720 335 720 325 719V820H290V715C172 695 114 620 114 522C114 402 195 355 290 327V37C211 64 142 127 138 267H110V-30H132L159 85H179C211 47 248 22 290 7V-110H325V-3C350 -8 376 -10 403 -10ZM357 690C383 690 412 687 440 679V392L325 432V689C335 690 346 690 357 690ZM188 566C188 631 227 669 290 683V464C231.5686 484.7976 188 511.3571 188 566ZM403 20C378 20 351 22 325 28V337L440 298V22C428 20 416 20 403 20ZM577 159C577 87 538 44 475 28V267C533.4126 245.219 577 217.5763 577 159Z" glyph-name="dollar" horiz-adv-x="768" unicode="$" /><glyph d="M569 159 541 163C527 78 466 20 380 20C284 20 215 54 215 220V265H584V318C584 432 494 510 340 510C186 510 95 402 95 250C95 98 193 -10 366 -10C482 -10 553 60 569 159ZM340 480C419 480 465 449 465 320V295H215C218 448 268 480 340 480ZM340 520ZM453 0Z" glyph-name="e" horiz-adv-x="679" unicode="e" /><glyph d="M242 570 469 730V750H320C320 680 280 638 226 589ZM569 159 541 163C527 78 466 20 380 20C284 20 215 54 215 220V265H584V318C584 432 494 510 340 510C186 510 95 402 95 250C95 98 193 -10 366 -10C482 -10 553 60 569 159ZM340 480C419 480 465 449 465 320V295H215C218 448 268 480 340 480Z" glyph-name="eacute" horiz-adv-x="679" unicode="&#233;" /><glyph d="M325 570H355C383 634 431 690 499 738L485 760L340 675L195 760L181 738C249 690 297 634 325 570ZM569 159 541 163C527 78 466 20 380 20C284 20 215 54 215 220V265H584V318C584 432 494 510 340 510C186 510 95 402 95 250C95 98 193 -10 366 -10C482 -10 553 60 569 159ZM340 480C419 480 465 449 465 320V295H215C218 448 268 480 340 480Z" glyph-name="ecaron" horiz-adv-x="679" unicode="&#283;" /><glyph d="M355 750H325C297 686 249 630 181 582L195 560L340 645L485 560L499 582C431 630 383 686 355 750ZM569 159 541 163C527 78 466 20 380 20C284 20 215 54 215 220V265H584V318C584 432 494 510 340 510C186 510 95 402 95 250C95 98 193 -10 366 -10C482 -10 553 60 569 159ZM340 480C419 480 465 449 465 320V295H215C218 448 268 480 340 480Z" glyph-name="ecircumflex" horiz-adv-x="679" unicode="&#234;" /><glyph d="M238 595C277 595 303 620 303 657C303 695 277 720 238 720C200 720 173 695 173 657C173 620 200 595 238 595ZM442 595C481 595 507 620 507 657C507 695 481 720 442 720C404 720 377 695 377 657C377 620 404 595 442 595ZM569 159 541 163C527 78 466 20 380 20C284 20 215 54 215 220V265H584V318C584 432 494 510 340 510C186 510 95 402 95 250C95 98 193 -10 366 -10C482 -10 553 60 569 159ZM340 480C419 480 465 449 465 320V295H215C218 448 268 480 340 480Z" glyph-name="edieresis" horiz-adv-x="679" unicode="&#235;" /><glyph d="M438 570 454 589C400 638 360 680 360 750H211V730ZM569 159 541 163C527 78 466 20 380 20C284 20 215 54 215 220V265H584V318C584 432 494 510 340 510C186 510 95 402 95 250C95 98 193 -10 366 -10C482 -10 553 60 569 159ZM340 480C419 480 465 449 465 320V295H215C218 448 268 480 340 480Z" glyph-name="egrave" horiz-adv-x="679" unicode="&#232;" /><glyph d="M390 720C229 720 150 655 150 564C150 480 228 420 390 420C552 420 630 480 630 564C630 655 551 720 390 720ZM390 690C455 690 500 669 500 564V554C500 451 455 430 390 430C325 430 280 451 280 554V564C280 669 325 690 390 690ZM390 332C212 332 125 264 125 167C125 64 212 -10 390 -10C568 -10 655 64 655 167C655 264 568 332 390 332ZM390 322C470 322 525 299 525 187V157C525 44 470 20 390 20C310 20 255 44 255 157V187C255 299 310 322 390 322Z" glyph-name="eight" horiz-adv-x="780" unicode="8" /><glyph d="M90 315V285H1010V315Z" glyph-name="emdash" horiz-adv-x="1100" unicode="&#8212;" /><glyph d="M90 315V285H510V315Z" glyph-name="endash" horiz-adv-x="600" unicode="&#8211;" /><glyph d="M165 416V385H615V416ZM165 216V185H615V216Z" glyph-name="equal" horiz-adv-x="780" unicode="=" /><glyph d="M220 -10C264 -10 293 18 293 60C293 103 264 131 220 131C177 131 147 103 147 60C147 18 177 -10 220 -10ZM165 420C183 347 205 276 205 190H235C235 276 257 347 275 420V710H165Z" glyph-name="exclam" horiz-adv-x="440" unicode="!" /><glyph d="M465 370V400H285C218 440 204 481 204 518C204 579 241 622 304 622C342 622 376 601 396 570L421 584C413 598 407 615 407 632C407 655 415 676 433 687V720C310 720 175 616 175 447V400H55V370H175V30H55V0H435V30H285V370Z" glyph-name="f" horiz-adv-x="495" unicode="f" /><glyph d="M192 364 223 353C265 395 323 420 385 420C471 420 530 390 530 245V225C530 57 471 20 385 20C271 20 243 64 243 113C243 143 256 166 256 193C256 233 230 251 193 251C160 251 130 228 130 176C130 63 258 -10 385 -10C570 -10 660 91 660 235C660 363 568 453 386 453C324 453 275 433 239 405L273 600C425 600 556 600 607 596L611 600C615 660 622 716 627 770H597L595 756C590 722 577 710 514 710H255Z" glyph-name="five" horiz-adv-x="780" unicode="5" /><glyph d="M680 185V275H190V301L630 700V710H395C374 512 258 386 80 215V185H415V30H305V0H645V30H535V185Z" glyph-name="four" horiz-adv-x="780" unicode="4" /><glyph d="M560 340C560 391 519 424 432 444V470H615V500H425C397 507 366 510 330 510C176 510 100 448 100 360C100 274 175 212 330 212C485 212 560 265 560 340ZM330 480C395 480 440 459 440 360V350C440 250 395 232 330 232C265 232 220 250 220 350V360C220 459 265 480 330 480ZM570 -35C570 56 493 90 370 90H120V62C170 62 223 39 237 10C146 5 84 -31 84 -100C84 -181 183 -220 325 -220C470 -220 570 -150 570 -35ZM178 -100C178 -41 208 0 262 0H377C492 0 516 -34 516 -80C516 -140 455 -193 330 -193C232 -193 178 -155 178 -100ZM330 520Z" glyph-name="g" horiz-adv-x="660" unicode="g" /><glyph d="M265 539C265 664 306 690 365 690C430 690 475 669 475 564V554C475 451 430 430 365 430V420C527 420 605 480 605 564C605 655 526 720 365 720C224 720 155 649 155 549V500H55V470H155V30H55V0H265ZM365 322C445 322 500 299 500 187V157C500 44 445 20 365 20V-10C543 -10 630 64 630 167C630 264 543 332 365 332Z" glyph-name="germandbls" horiz-adv-x="755" unicode="&#223;" /><glyph d="M615 285V316L165 530V496L576 300L165 104V70Z" glyph-name="greater" horiz-adv-x="780" unicode="&gt;" /><glyph d="M340 110 240 300 340 490 318 500C267 410 189 353 100 312V288C189 247 267 190 318 100ZM560 110 460 300 560 490 538 500C487 410 409 353 320 312V288C409 247 487 190 538 100Z" glyph-name="guillemotleft" horiz-adv-x="660" unicode="&#171;" /><glyph d="M340 288V312C251 353 173 410 122 500L100 490L200 300L100 110L122 100C173 190 251 247 340 288ZM560 288V312C471 353 393 410 342 500L320 490L420 300L320 110L342 100C393 190 471 247 560 288Z" glyph-name="guillemotright" horiz-adv-x="660" unicode="&#187;" /><glyph d="M340 110 240 300 340 490 318 500C267 410 189 353 100 312V288C189 247 267 190 318 100Z" glyph-name="guilsinglleft" horiz-adv-x="440" unicode="&#8249;" /><glyph d="M340 288V312C251 353 173 410 122 500L100 490L200 300L100 110L122 100C173 190 251 247 340 288Z" glyph-name="guilsinglright" horiz-adv-x="440" unicode="&#8250;" /><glyph d="M165 680V30H75V0H365V30H275V230C275 372 336 473 433 473C496 473 515 434 515 363V30H425V0H715V30H625V337C625 452 566 510 453 510C362 510 301 448 273 347H247L275 500V710L271 714C209 712 141 710 75 710V680ZM395 730Z" glyph-name="h" horiz-adv-x="790" unicode="h" /><glyph d="M123 240 403 367 388 395C348 374 283 380 275 421H245C235 352 179 310 110 266Z" glyph-name="hyphen" horiz-adv-x="513" unicode="-" /><glyph d="M231 639C275 639 304 667 304 709C304 752 275 780 231 780C188 780 158 752 158 709C158 667 188 639 231 639ZM281 504C219 502 151 500 85 500V470H175V30H85V0H375V30H285V500ZM230 540ZM230 0Z" glyph-name="i" horiz-adv-x="450" unicode="i" /><glyph d="M245 770H215C187 706 139 650 71 602L85 580L230 665L375 580L389 602C321 650 273 706 245 770ZM281 504C219 502 151 500 85 500V470H175V30H85V0H375V30H285V500Z" glyph-name="icircumflex" horiz-adv-x="450" unicode="&#238;" /><glyph d="M128 615C167 615 193 640 193 677C193 715 167 740 128 740C90 740 63 715 63 677C63 640 90 615 128 615ZM332 615C371 615 397 640 397 677C397 715 371 740 332 740C294 740 267 715 267 677C267 640 294 615 332 615ZM281 504C219 502 151 500 85 500V470H175V30H85V0H375V30H285V500Z" glyph-name="idieresis" horiz-adv-x="450" unicode="&#239;" /><glyph d="M231 639C275 639 304 667 304 709C304 752 275 780 231 780C188 780 158 752 158 709C158 667 188 639 231 639ZM175 470V-108C175 -170 153 -187 109 -187C81 -187 59 -175 42 -158L20 -180C43 -203 76 -220 120 -220C201 -220 285 -182 285 -60V500L281 504C219 502 151 500 85 500V470ZM230 540Z" glyph-name="j" horiz-adv-x="434" unicode="j" /><glyph d="M365 0V30H275V710L271 714C209 712 141 710 75 710V680H165V30H75V0ZM526 30H435V0H740V30H684L435 303V323L594 470H703V500H395V470H543L345 280V260L526 50ZM387 0Z" glyph-name="k" horiz-adv-x="755" unicode="k" /><glyph d="M365 0V30H275V710L271 714C209 712 141 710 75 710V680H165V30H75V0ZM275 710ZM390 385ZM220 0ZM220 730Z" glyph-name="l" horiz-adv-x="440" unicode="l" /><glyph d="M615 104 204 300 615 496V530L165 316V285L615 70Z" glyph-name="less" horiz-adv-x="780" unicode="&lt;" /><glyph d="M635 230C635 372 696 473 793 473C856 473 875 434 875 363V30H785V0H1075V30H985V337C985 452 926 510 813 510C721 510 659 448 631 347H607C610 455 560 510 463 510C372 510 311 448 283 347H257L264 500L260 504C204 502 144 500 85 500V470H175V30H85V0H375V30H285V230C285 372 346 473 443 473C506 473 525 434 525 363V30H435V0H725V30H635Z" glyph-name="m" horiz-adv-x="1150" unicode="m" /><glyph d="M165 316V285H615V316Z" glyph-name="minus" horiz-adv-x="780" unicode="&#8722;" /><glyph d="M560 152 412 301 560 449 539 470 390 322 242 470 220 449 369 300 220 152 242 131 390 279 539 130Z" glyph-name="multiply" horiz-adv-x="780" unicode="&#215;" /><glyph d="M85 500V470H175V30H85V0H375V30H285V230C285 372 346 473 443 473C506 473 525 434 525 363V30H435V0H725V30H635V337C635 452 576 510 463 510C372 510 311 448 283 347H257L264 500L260 504C204 502 144 500 85 500ZM405 520ZM405 0Z" glyph-name="n" horiz-adv-x="800" unicode="n" /><glyph d="M445 348C429 343 411 340 393 340C315 340 255 368 255 505V525C255 661 310 690 385 690C477 690 545 638 545 385V325C545 72 482 20 390 20C293 20 258 65 258 103C258 133 271 156 271 183C271 223 245 241 208 241C175 241 145 218 145 166C145 65 263 -10 390 -10C569 -10 675 142 675 355C675 568 594 720 385 720C213 720 125 645 125 515C125 385 218 310 376 310C408 310 433 314 454 321Z" glyph-name="nine" horiz-adv-x="780" unicode="9" /><glyph d="M420 0H454L619 750H585ZM705 525H135V495H705ZM75 255V225H645V255ZM161 0H195L360 750H326Z" glyph-name="numbersign" horiz-adv-x="780" unicode="#" /><glyph d="M360 510C194 510 95 402 95 250C95 98 194 -10 360 -10C526 -10 625 98 625 250C625 402 526 510 360 510ZM360 480C446 480 505 446 505 280V220C505 54 446 20 360 20C274 20 215 54 215 220V280C215 446 274 480 360 480ZM360 520Z" glyph-name="o" horiz-adv-x="720" unicode="o" /><glyph d="M360 510C194 510 95 402 95 250C95 98 194 -10 360 -10C526 -10 625 98 625 250C625 402 526 510 360 510ZM360 480C446 480 505 446 505 280V220C505 54 446 20 360 20C274 20 215 54 215 220V280C215 446 274 480 360 480ZM247 570 474 730V750H325C325 680 285 638 231 589Z" glyph-name="oacute" horiz-adv-x="720" unicode="&#242;" /><glyph d="M375 750H345C317 686 269 630 201 582L215 560L360 645L505 560L519 582C451 630 403 686 375 750ZM360 510C194 510 95 402 95 250C95 98 194 -10 360 -10C526 -10 625 98 625 250C625 402 526 510 360 510ZM360 480C446 480 505 446 505 280V220C505 54 446 20 360 20C274 20 215 54 215 220V280C215 446 274 480 360 480Z" glyph-name="ocircumflex" horiz-adv-x="720" unicode="&#244;" /><glyph d="M258 595C297 595 323 620 323 657C323 695 297 720 258 720C220 720 193 695 193 657C193 620 220 595 258 595ZM462 595C501 595 527 620 527 657C527 695 501 720 462 720C424 720 397 695 397 657C397 620 424 595 462 595ZM360 510C194 510 95 402 95 250C95 98 194 -10 360 -10C526 -10 625 98 625 250C625 402 526 510 360 510ZM360 480C446 480 505 446 505 280V220C505 54 446 20 360 20C274 20 215 54 215 220V280C215 446 274 480 360 480Z" glyph-name="odieresis" horiz-adv-x="720" unicode="&#246;" /><glyph d="M360 480C446 480 505 446 505 280V220C505 54 446 20 360 20C274 20 215 54 215 220V280C215 446 274 480 360 480ZM750 480C829 480 875 449 875 320V295H625C628 448 678 480 750 480ZM776 -10C892 -10 963 60 979 159L951 163C937 78 876 20 790 20C694 20 625 54 625 220V265H994V318C994 432 904 510 750 510C677 510 606 470 573 405H552C515 469 465 510 360 510C194 510 95 402 95 250C95 98 194 -10 360 -10C465 -10 515 31 552 95H573C606.965 28.0992 689 -10 776 -10Z" glyph-name="oe" horiz-adv-x="1089" unicode="&#339;" /><glyph d="M60 500V470H190V500ZM340 710V693C340 625 301 605 260 605H250V30H60V0H560V30H370V710Z" glyph-name="one" horiz-adv-x="585" unicode="1" /><glyph d="M239 504C182 502 122 500 65 500V470H155V-180H65V-210H425V-180H265V0L243 104H269C308 31 367 -10 454 -10C592 -10 675 98 675 250C675 402 592 510 454 510C366 510 290 466 263 377H237L243 500ZM555 280V220C555 62 500 30 420 30C368 30 265 62 265 220V280C265 438 368 470 420 470C500 470 555 438 555 280Z" glyph-name="p" horiz-adv-x="760" unicode="p" /><glyph d="M130 315C130 164 198 9 323 -120L346 -103C250 17 213 170 213 315C213 464 249 612 346 733L323 750C197 619 130 465 130 315Z" glyph-name="parenleft" horiz-adv-x="446" unicode="(" /><glyph d="M316 315C316 465 249 619 123 750L100 733C197 612 233 464 233 315C233 170 196 17 100 -103L123 -120C248 9 316 164 316 315Z" glyph-name="parenright" horiz-adv-x="446" unicode=")" /><glyph d="M173 -10C217 -10 246 18 246 60C246 103 217 131 173 131C130 131 100 103 100 60C100 18 130 -10 173 -10Z" glyph-name="period" horiz-adv-x="346" unicode="." /><glyph d="M615 285V316H408V525H372V316H165V285H372V75H408V285Z" glyph-name="plus" horiz-adv-x="780" unicode="+" /><glyph d="M695 -180H605V540H580L526 379H501C471 463 407 510 306 510C168 510 85 402 85 250C85 98 168 -10 306 -10C393 -10 452 31 491 104H517L495 0V-180H335V-210H695ZM205 280C205 438 260 470 340 470C392 470 495 438 495 280V220C495 62 392 30 340 30C260 30 205 62 205 220Z" glyph-name="q" horiz-adv-x="760" unicode="q" /><glyph d="M324 213 344 190C497 333 595 370 595 525C595 639 514 720 350 720C186 720 105 639 105 525C105 411 186 330 350 330V360C279 360 230 386 230 515V535C230 663 279 690 350 690C421 690 470 663 470 535V515C470 379 465 341 324 213ZM343 -10C387 -10 416 18 416 60C416 103 387 131 343 131C300 131 270 103 270 60C270 18 300 -10 343 -10Z" glyph-name="question" horiz-adv-x="700" unicode="?" /><glyph d="M205 659V675C188 686 175 702 164 720H142C131 702 117 686 100 675V659C120 609 135 556 139 500H165C169 555 183 608 205 659ZM364 659V675C347 686 334 702 323 720H301C290 702 276 686 259 675V659C279 609 294 556 298 500H324C328 555 342 608 364 659Z" glyph-name="quotedbl" horiz-adv-x="464" unicode="&quot;" /><glyph d="M100 -224 112 -245C197 -202 261 -119 261 0H226C208 -29 162 -30 131 -12L113 -36C138 -54 152 -88 152 -124C152 -161 133 -200 100 -224ZM300 -224 312 -245C397 -202 461 -119 461 0H426C408 -29 362 -30 331 -12L313 -36C338 -54 352 -88 352 -124C352 -161 333 -200 300 -224Z" glyph-name="quotedblbase" horiz-adv-x="561" unicode="&#8222;" /><glyph d="M261 689 249 710C164 667 100 584 100 465H135C153 494 199 495 230 477L248 501C223 519 209 553 209 589C209 626 228 665 261 689ZM461 689 449 710C364 667 300 584 300 465H335C353 494 399 495 430 477L448 501C423 519 409 553 409 589C409 626 428 665 461 689Z" glyph-name="quotedblleft" horiz-adv-x="561" unicode="&#8220;" /><glyph d="M100 486 112 465C197 508 261 591 261 710H226C208 681 162 680 131 698L113 674C138 656 152 622 152 586C152 549 133 510 100 486ZM300 486 312 465C397 508 461 591 461 710H426C408 681 362 680 331 698L313 674C338 656 352 622 352 586C352 549 333 510 300 486Z" glyph-name="quotedblright" horiz-adv-x="561" unicode="&#8221;" /><glyph d="M261 689 249 710C164 667 100 584 100 465H135C153 494 199 495 230 477L248 501C223 519 209 553 209 589C209 626 228 665 261 689Z" glyph-name="quoteleft" horiz-adv-x="361" unicode="&#8216;" /><glyph d="M100 486 112 465C197 508 261 591 261 710H226C208 681 162 680 131 698L113 674C138 656 152 622 152 586C152 549 133 510 100 486Z" glyph-name="quoteright" horiz-adv-x="361" unicode="&#8217;" /><glyph d="M100 -224 112 -245C197 -202 261 -119 261 0H226C208 -29 162 -30 131 -12L113 -36C138 -54 152 -88 152 -124C152 -161 133 -200 100 -224Z" glyph-name="quotesinglbase" horiz-adv-x="361" unicode="&#8218;" /><glyph d="M205 659V675C188 686 175 702 164 720H142C131 702 117 686 100 675V659C120 609 135 556 139 500H165C169 555 183 608 205 659Z" glyph-name="quotesingle" horiz-adv-x="305" unicode="'" /><glyph d="M415 0V30H285V350C310 388 342 403 376 403C421 403 450 380 473 345L498 359C487 379 478 400 478 423C478 450 491 474 520 487V520C401 520 321 450 275 361H249L266 500L262 504C204 502 144 500 85 500V470H175V30H85V0ZM330 520ZM230 0Z" glyph-name="r" horiz-adv-x="580" unicode="r" /><glyph d="M415 0V30H285V350C310 388 342 403 376 403C421 403 450 380 473 345L498 359C487 379 478 400 478 423C478 450 491 474 520 487V520C401 520 321 450 275 361H249L266 500L262 504C204 502 144 500 85 500V470H175V30H85V0ZM315 570H345C373 634 421 690 489 738L475 760L330 675L185 760L171 738C239 690 287 634 315 570Z" glyph-name="rcaron" horiz-adv-x="580" unicode="&#345;" /><glyph d="M317 20C243 20 142 53 137 190H110V-30H133L147 55H167C196 2 264 -10 317 -10C453 -10 520 55 520 147C520 360 176 258 176 397C176 455 226 480 298 480C362 480 450 431 450 330H477V530H454L440 445H420C392 495 341 510 298 510C169 510 106 447 106 357C106 142 448 248 448 108C448 46 394 20 317 20ZM298 520ZM317 0Z" glyph-name="s" horiz-adv-x="620" unicode="s" /><glyph d="M99 -107 111 -128C196 -85 260 -2 260 117H225C207 88 161 87 130 105L112 81C137 63 151 29 151 -7C151 -44 132 -83 99 -107ZM173 370C217 370 246 398 246 440C246 483 217 511 173 511C130 511 100 483 100 440C100 398 130 370 173 370Z" glyph-name="semicolon" horiz-adv-x="346" unicode=";" /><glyph d="M586 600V574C447 398 308 220 226 7L255 -9C274 77 382 57 382 -20H412C422 239 522 475 690 690V710H404C404 710 209 710 159 714L155 710C158 606 158 516 159 459H189V501C189 575 208 600 275 600Z" glyph-name="seven" horiz-adv-x="780" unicode="7" /><glyph d="M335 362C351 367 369 370 387 370C465 370 525 342 525 205V185C525 49 470 20 395 20C303 20 235 72 235 325V385C235 638 298 690 390 690C487 690 522 645 522 607C522 577 509 554 509 527C509 487 535 469 572 469C605 469 635 492 635 544C635 645 517 720 390 720C211 720 105 568 105 355C105 142 186 -10 395 -10C567 -10 655 65 655 195C655 325 562 400 404 400C372 400 347 396 326 389Z" glyph-name="six" horiz-adv-x="780" unicode="6" /><glyph d="M550 710H505L50 0H95C95 0 550 710 550 710Z" glyph-name="slash" horiz-adv-x="600" unicode="/" /><glyph glyph-name="space" horiz-adv-x="260" unicode=" " /><glyph d="M235 710V693C235 608 206 556 155 500H25V470H155V168C155 39 234 -10 323 -10C397 -10 448 38 469 130L441 141C421 59 387 27 342 27C290 27 265 57 265 134V470H449V500H265V710ZM265 750ZM286 0Z" glyph-name="t" horiz-adv-x="490" unicode="t" /><glyph d="M655 205C655 325 571 410 400 410C387 410 375 409 363 407L650 670V710H394C394 710 199 710 149 714L145 710C148 606 148 516 149 459H179V501C179 575 198 600 265 600H505V580L281 378L300 350C328 371 361 380 400 380C474 380 525 352 525 215V195C525 51 458 20 360 20C245 20 217 65 217 115C217 145 230 168 230 195C230 235 204 253 167 253C134 253 104 230 104 178C104 64 232 -10 360 -10C558 -10 655 79 655 205Z" glyph-name="three" horiz-adv-x="780" unicode="3" /><glyph d="M620 190V110H304V130C478 292 635 359 635 525C635 639 551 720 380 720C209 720 125 639 125 525C125 411 206 330 370 330V360C302 360 255 386 255 515V535C255 663 306 690 380 690C454 690 505 663 505 535V515C505 327 426 260 150 30V0H650V190Z" glyph-name="two" horiz-adv-x="780" unicode="2" /><glyph d="M715 0V30H625V500L621 504C547 502 465 500 385 500V470H515V270C515 128 454 27 357 27C294 27 275 66 275 137V500L271 504C209 502 141 500 75 500V470H165V163C165 48 224 -10 337 -10C428 -10 489 52 517 153H543L536 0L540 -4C596 -2 656 0 715 0ZM395 540ZM595 0Z" glyph-name="u" horiz-adv-x="790" unicode="u" /><glyph d="M410 770H380C352 706 304 650 236 602L250 580L395 665L540 580L554 602C486 650 438 706 410 770ZM715 0V30H625V500L621 504C547 502 465 500 385 500V470H515V270C515 128 454 27 357 27C294 27 275 66 275 137V500L271 504C209 502 141 500 75 500V470H165V163C165 48 224 -10 337 -10C428 -10 489 52 517 153H543L536 0L540 -4C596 -2 656 0 715 0Z" glyph-name="ucircumflex" horiz-adv-x="790" unicode="&#251;" /><glyph d="M293 615C332 615 358 640 358 677C358 715 332 740 293 740C255 740 228 715 228 677C228 640 255 615 293 615ZM497 615C536 615 562 640 562 677C562 715 536 740 497 740C459 740 432 715 432 677C432 640 459 615 497 615ZM715 0V30H625V500L621 504C547 502 465 500 385 500V470H515V270C515 128 454 27 357 27C294 27 275 66 275 137V500L271 504C209 502 141 500 75 500V470H165V163C165 48 224 -10 337 -10C428 -10 489 52 517 153H543L536 0L540 -4C596 -2 656 0 715 0Z" glyph-name="udieresis" horiz-adv-x="790" unicode="&#252;" /><glyph d="M493 590 509 609C455 658 415 700 415 770H266V750ZM715 0V30H625V500L621 504C547 502 465 500 385 500V470H515V270C515 128 454 27 357 27C294 27 275 66 275 137V500L271 504C209 502 141 500 75 500V470H165V163C165 48 224 -10 337 -10C428 -10 489 52 517 153H543L536 0L540 -4C596 -2 656 0 715 0Z" glyph-name="ugrave" horiz-adv-x="790" unicode="&#249;" /><glyph d="M90 -100V-130H510V-100Z" glyph-name="underscore" horiz-adv-x="600" unicode="_" /><glyph d="M457 470H563L414 139H388L260 470H368V500H55V470H141L351 -10H371L608 470H697V500H457Z" glyph-name="v" horiz-adv-x="752" unicode="v" /><glyph d="M631 -10H651L888 470H977V500H737V470H843L694 139H668L540 470H648V500H55V470H141L351 -10H371L444 139H388L260 470H421ZM516 530Z" glyph-name="w" horiz-adv-x="1032" unicode="w" /><glyph d="M401 470H478L368 317H342L252 470H331V500H55V470H125L292 245L129 30H55V0H275V30H179L314 217H340L455 30H355V0H649V30H582L390 289L528 470H613V500H401Z" glyph-name="x" horiz-adv-x="704" unicode="x" /><glyph d="M442 470H542L416 80H396L263 470H363V500H60V470H144L285 94C345 94 404 65 360 -52L312 -180H190V-210H471V-180H352L587 470H672V500H442ZM403 520Z" glyph-name="y" horiz-adv-x="732" unicode="y" /><glyph d="M233 46 298 130 542 470V500H364C364 500 167 500 117 504L113 500C119 436 119 370 119 289H149V321C149 433 216 470 295 470H406V453L353 385L100 30V0H288C288 0 489 0 540 -4L544 0C538 64 538 130 538 211H508V179C508 67 441 30 362 30H233ZM322 520Z" glyph-name="z" horiz-adv-x="642" unicode="z" /><glyph d="M390 720C211 720 105 568 105 355C105 142 211 -10 390 -10C569 -10 675 142 675 355C675 568 569 720 390 720ZM390 690C482 690 545 638 545 385V325C545 72 482 20 390 20C298 20 235 72 235 325V385C235 638 298 690 390 690Z" glyph-name="zero" horiz-adv-x="780" unicode="0" /></font>
</defs>
</svg>
