<?xml version="1.0" standalone="no"?><!DOCTYPE svg PUBLIC "-//W3C//DTD SVG 1.1//EN" "http://www.w3.org/Graphics/SVG/1.1/DTD/svg11.dtd" ><svg version="1.1" xmlns="http://www.w3.org/2000/svg"><defs><font horiz-adv-x="0" id="font"><font-face ascent="710" bbox="-39 -250 1099 1040" cap-height="690" descent="-250" font-family="Faune" font-stretch="normal" font-style="normal" font-weight="700" units-per-em="1000" x-height="478" /><missing-glyph d="M440 0H376V690H440ZM107 630V690H427V630ZM107 0V60H427V0ZM124 0H60L376 690H440ZM124 0H60V690H124ZM124 690 440 0H376L60 690Z" horiz-adv-x="500" /><glyph d="M121 0 310 575H287L448 0H622L403 690H248L7 0ZM507 165V260H147V165Z" glyph-name="A" horiz-adv-x="637" unicode="A" /><glyph d="M119 0 263 425H250L381 0H545L361 528H212L10 0ZM443 119 442 198H135L134 119Z" glyph-name="A.small" horiz-adv-x="555" /><glyph d="M411 689 0 0H116L459 592V689ZM412 689V1H559V689ZM470 107V1H813V107ZM802 583V689H470V583ZM500 200V295H205L203 200ZM757 291V397H470V291Z" glyph-name="AE" horiz-adv-x="853" unicode="&#198;" /><glyph d="M122 0 348 411 374 527H306L6 0ZM429 146V225H147L146 146ZM345 527V1H711V92H402L488 3V525L402 435H700V527ZM401 313V221H660V313Z" glyph-name="AE.small" horiz-adv-x="745" /><glyph d="M411 689 0 0H116L459 592V689ZM412 689V1H559V689ZM470 107V1H813V107ZM802 583V689H470V583ZM500 200V295H205L203 200ZM757 291V397H470V291ZM490 765 526 730 732 805 653 901Z" glyph-name="AEacute" horiz-adv-x="853" unicode="&#508;" /><glyph d="M122 0 348 411 374 527H306L6 0ZM429 146V225H147L146 146ZM345 527V1H711V92H402L488 3V525L402 435H700V527ZM401 313V221H660V313ZM414 638 466 595 633 754 549 830Z" glyph-name="AEacute.small" horiz-adv-x="745" /><glyph d="M121 0 310 575H287L448 0H622L403 690H248L7 0ZM507 165V260H147V165ZM210 765 246 730 452 805 373 901Z" glyph-name="Aacute" horiz-adv-x="637" unicode="&#193;" /><glyph d="M119 0 263 425H250L381 0H545L361 528H212L10 0ZM443 119 442 198H135L134 119ZM211 638 263 595 430 754 346 830Z" glyph-name="Aacute.small" horiz-adv-x="555" /><glyph d="M121 0 310 575H287L448 0H622L403 690H248L7 0ZM507 165V260H147V165ZM176 898C169 813 213 738 330 738C446 738 490 813 483 898H438C431 865 410 831 330 831C247 831 228 865 221 898Z" glyph-name="Abreve" horiz-adv-x="637" unicode="&#258;" /><glyph d="M119 0 263 425H250L381 0H545L361 528H212L10 0ZM443 119 442 198H135L134 119ZM273 617C391 617 432 706 425 803H380C373 766 356 714 273 714C190 714 173 766 167 803H121C114 706 155 617 273 617Z" glyph-name="Abreve.small" horiz-adv-x="555" /><glyph d="M121 0 310 575H287L448 0H622L403 690H248L7 0ZM507 165V260H147V165ZM147 769 179 728 320 802 461 728 494 769 353 897H286Z" glyph-name="Acircumflex" horiz-adv-x="637" unicode="&#194;" /><glyph d="M119 0 263 425H250L381 0H545L361 528H212L10 0ZM443 119 442 198H135L134 119ZM100 636 142 596 273 714 404 596 447 636 311 814H236Z" glyph-name="Acircumflex.small" horiz-adv-x="555" /><glyph d="M121 0 310 575H287L448 0H622L403 690H248L7 0ZM507 165V260H147V165ZM181 747H294V868H181ZM363 747H476V868H363Z" glyph-name="Adieresis" horiz-adv-x="637" unicode="&#196;" /><glyph d="M119 0 263 425H250L381 0H545L361 528H212L10 0ZM443 119 442 198H135L134 119ZM126 655H239V775H126ZM308 655H421V775H308Z" glyph-name="Adieresis.small" horiz-adv-x="555" /><glyph d="M121 0 310 575H287L448 0H622L403 690H248L7 0ZM507 165V260H147V165ZM203 805 409 730 445 765 282 901Z" glyph-name="Agrave" horiz-adv-x="637" unicode="&#192;" /><glyph d="M119 0 263 425H250L381 0H545L361 528H212L10 0ZM443 119 442 198H135L134 119ZM141 754 308 595 360 638 225 830Z" glyph-name="Agrave.small" horiz-adv-x="555" /><glyph d="M121 0 310 575H287L448 0H622L403 690H248L7 0ZM507 165V260H147V165ZM173 862V774H469V862Z" glyph-name="Amacron" horiz-adv-x="637" unicode="&#256;" /><glyph d="M119 0 263 425H250L381 0H545L361 528H212L10 0ZM443 119 442 198H135L134 119ZM125 773V685H421V773Z" glyph-name="Amacron.small" horiz-adv-x="555" /><glyph d="M359 -135C359 -181 386 -218 448 -218C517 -218 539 -171 535 -115H506C506 -135 497 -156 476 -156C452 -156 447 -139 447 -121C447 -62 488 -7 546 0L492 25C433 -5 359 -56 359 -135ZM121 0 310 575H287L448 0H622L403 690H248L7 0ZM507 165V260H147V165Z" glyph-name="Aogonek" horiz-adv-x="637" unicode="&#260;" /><glyph d="M289 -135C289 -181 316 -218 377 -218C446 -218 469 -171 465 -115H435C435 -135 426 -156 405 -156C382 -156 377 -139 377 -121C377 -62 421 0 486 0L422 25C363 -5 289 -56 289 -135ZM119 0 263 425H250L381 0H545L361 528H212L10 0ZM443 119 442 198H135L134 119Z" glyph-name="Aogonek.small" horiz-adv-x="555" /><glyph d="M121 0 310 575H287L448 0H622L403 690H248L7 0ZM507 165V260H147V165ZM197 828C197 764 247 712 320 712C395 712 444 764 444 828C444 893 395 944 320 944C249 944 197 893 197 828ZM369 818C369 790 348 768 321 768C292 768 272 790 272 818C272 847 292 869 321 869C348 869 369 847 369 818Z" glyph-name="Aring" horiz-adv-x="637" unicode="&#197;" /><glyph d="M119 0 263 425H250L381 0H545L361 528H212L10 0ZM443 119 442 198H135L134 119ZM149 738C149 672 199 620 273 620C350 620 399 672 399 738C399 804 350 855 273 855C201 855 149 804 149 738ZM324 727C324 698 302 675 274 675C244 675 223 698 223 727C223 757 244 780 274 780C302 780 324 757 324 727Z" glyph-name="Aring.small" horiz-adv-x="555" /><glyph d="M121 0 310 575H287L448 0H622L403 690H248L7 0ZM507 165V260H147V165ZM199 751C199 687 249 635 322 635C397 635 446 687 446 751C446 816 397 867 322 867C251 867 199 816 199 751ZM371 741C371 713 350 691 323 691C294 691 274 713 274 741C274 770 294 792 323 792C350 792 371 770 371 741ZM203 904 239 869 445 944 366 1040Z" glyph-name="Aringacute" horiz-adv-x="637" unicode="&#506;" /><glyph d="M119 0 263 425H250L381 0H545L361 528H212L10 0ZM443 119 442 198H135L134 119ZM155 705C155 639 205 587 279 587C356 587 405 639 405 705C405 771 356 822 279 822C207 822 155 771 155 705ZM330 694C330 665 308 642 280 642C250 642 229 665 229 694C229 724 250 747 280 747C308 747 330 724 330 694ZM168 883 204 848 410 923 331 1019Z" glyph-name="Aringacute.small" horiz-adv-x="555" /><glyph d="M121 0 310 575H287L448 0H622L403 690H248L7 0ZM507 165V260H147V165ZM395 832C343 832 331 896 249 896C172 896 137 834 169 740H201C194 775 201 804 235 804C290 804 302 740 382 740C459 740 493 806 461 897H429C435 863 429 832 395 832Z" glyph-name="Atilde" horiz-adv-x="637" unicode="&#195;" /><glyph d="M119 0 263 425H250L381 0H545L361 528H212L10 0ZM443 119 442 198H135L134 119ZM129 626H160C152 666 159 700 194 700C250 700 259 627 340 627C416 627 450 699 418 799H385C393 759 387 725 353 725C300 725 291 798 206 798C131 798 95 730 129 626Z" glyph-name="Atilde.small" horiz-adv-x="555" /><glyph d="M70 690V0H218V683L141 587H291C363 587 411 564 411 494C411 424 362 399 290 399H143V311H317C391 311 442 281 442 207C442 131 387 103 316 103H156V0H348C483 0 586 62 586 191C586 330 470 365 313 365H179V348H274C413 348 555 372 555 515C555 641 455 690 313 690Z" glyph-name="B" horiz-adv-x="612" unicode="B" /><glyph d="M206 32V523L132 438H257C319 438 358 421 358 373C358 329 326 308 258 308H137V231H278C339 231 380 213 380 161C380 111 344 90 275 90H146ZM64 0H311C445 0 521 52 521 147C521 257 419 286 277 286H155V270H247C382 270 495 288 495 394C495 491 414 528 289 528H64Z" glyph-name="B.small" horiz-adv-x="546" /><glyph d="M32 339C32 100 162 -13 340 -13C526 -13 582 120 582 215H514C508 163 458 107 364 107C267 107 191 178 191 339C191 489 262 572 366 572C454 572 489 514 495 481H569C577 568 524 699 345 699C170 699 32 567 32 339Z" glyph-name="C" horiz-adv-x="614" unicode="C" /><glyph d="M34 260C34 78 140 -13 296 -13C457 -13 501 93 501 175H444C437 131 395 92 324 92C242 92 187 145 187 260C187 366 236 425 320 425C389 425 412 386 418 357H489C498 433 452 537 296 537C137 537 34 433 34 260Z" glyph-name="C.small" horiz-adv-x="524" /><glyph d="M32 339C32 100 162 -13 340 -13C526 -13 582 120 582 215H514C508 163 458 107 364 107C267 107 191 178 191 339C191 489 262 572 366 572C454 572 489 514 495 481H569C577 568 524 699 345 699C170 699 32 567 32 339ZM257 765 293 730 499 805 420 901Z" glyph-name="Cacute" horiz-adv-x="614" unicode="&#262;" /><glyph d="M34 260C34 78 140 -13 296 -13C457 -13 501 93 501 175H444C437 131 395 92 324 92C242 92 187 145 187 260C187 366 236 425 320 425C389 425 412 386 418 357H489C498 433 452 537 296 537C137 537 34 433 34 260ZM222 638 274 595 441 754 357 830Z" glyph-name="Cacute.small" horiz-adv-x="520" /><glyph d="M32 339C32 100 162 -13 340 -13C526 -13 582 120 582 215H514C508 163 458 107 364 107C267 107 191 178 191 339C191 489 262 572 366 572C454 572 489 514 495 481H569C577 568 524 699 345 699C170 699 32 567 32 339ZM170 859 310 731H377L517 859L485 900L343 827L202 900Z" glyph-name="Ccaron" horiz-adv-x="614" unicode="&#268;" /><glyph d="M34 260C34 78 140 -13 296 -13C457 -13 501 93 501 175H444C437 131 395 92 324 92C242 92 187 145 187 260C187 366 236 425 320 425C389 425 412 386 418 357H489C498 433 452 537 296 537C137 537 34 433 34 260ZM117 784 253 604H328L464 784L420 821L290 703L161 821Z" glyph-name="Ccaron.small" horiz-adv-x="520" /><glyph d="M32 339C32 100 162 -13 340 -13C526 -13 582 120 582 215H514C508 163 458 107 364 107C267 107 191 178 191 339C191 489 262 572 366 572C454 572 489 514 495 481H569C577 568 524 699 345 699C170 699 32 567 32 339ZM263 -116C256 -165 278 -206 345 -206C395 -206 434 -176 434 -118C434 -53 380 -29 318 -45L338 -47L340 0L304 3L284 -69L304 -82C336 -77 356 -89 356 -118C356 -141 342 -154 324 -154C300 -154 290 -142 291 -116Z" glyph-name="Ccedilla" horiz-adv-x="614" unicode="&#199;" /><glyph d="M34 260C34 78 140 -13 296 -13C457 -13 501 93 501 175H444C437 131 395 92 324 92C242 92 187 145 187 260C187 366 236 425 320 425C389 425 412 386 418 357H489C498 433 452 537 296 537C137 537 34 433 34 260ZM200 -116C193 -165 215 -206 282 -206C332 -206 371 -176 371 -118C371 -53 317 -29 255 -45L275 -47L277 0L241 3L221 -69L241 -82C273 -77 293 -89 293 -118C293 -141 279 -154 261 -154C237 -154 227 -142 228 -116Z" glyph-name="Ccedilla.small" horiz-adv-x="520" /><glyph d="M32 339C32 100 162 -13 340 -13C526 -13 582 120 582 215H514C508 163 458 107 364 107C267 107 191 178 191 339C191 489 262 572 366 572C454 572 489 514 495 481H569C577 568 524 699 345 699C170 699 32 567 32 339ZM165 769 197 728 338 802 479 728 512 769 371 897H304Z" glyph-name="Ccircumflex" horiz-adv-x="614" unicode="&#264;" /><glyph d="M34 260C34 78 140 -13 296 -13C457 -13 501 93 501 175H444C437 131 395 92 324 92C242 92 187 145 187 260C187 366 236 425 320 425C389 425 412 386 418 357H489C498 433 452 537 296 537C137 537 34 433 34 260ZM110 636 152 596 283 714 414 596 457 636 321 814H246Z" glyph-name="Ccircumflex.small" horiz-adv-x="520" /><glyph d="M32 339C32 100 162 -13 340 -13C526 -13 582 120 582 215H514C508 163 458 107 364 107C267 107 191 178 191 339C191 489 262 572 366 572C454 572 489 514 495 481H569C577 568 524 699 345 699C170 699 32 567 32 339ZM270 746H415V869H270Z" glyph-name="Cdotaccent" horiz-adv-x="614" unicode="&#266;" /><glyph d="M34 260C34 78 140 -13 296 -13C457 -13 501 93 501 175H444C437 131 395 92 324 92C242 92 187 145 187 260C187 366 236 425 320 425C389 425 412 386 418 357H489C498 433 452 537 296 537C137 537 34 433 34 260ZM218 653H363V775H218Z" glyph-name="Cdotaccent.small" horiz-adv-x="520" /><glyph d="M218 635 187 582H282C413 582 478 497 478 348C478 210 424 108 282 108H172L218 49ZM70 690V0H280C463 0 635 84 635 349C635 550 518 690 280 690Z" glyph-name="D" horiz-adv-x="668" unicode="D" /><glyph d="M206 480 178 432H254C355 432 401 370 401 268C401 161 356 95 257 95H162L206 43ZM64 528V0H251C412 0 554 66 554 268C554 424 454 528 249 528Z" glyph-name="D.small" horiz-adv-x="585" /><glyph d="M218 635 187 582H282C413 582 478 497 478 348C478 210 424 108 282 108H172L218 49ZM70 690V0H280C463 0 635 84 635 349C635 550 518 690 280 690ZM119 859 259 731H326L466 859L434 900L292 827L151 900Z" glyph-name="Dcaron" horiz-adv-x="668" unicode="&#270;" /><glyph d="M206 480 178 432H254C355 432 401 370 401 268C401 161 356 95 257 95H162L206 43ZM64 528V0H251C412 0 554 66 554 268C554 424 454 528 249 528ZM89 784 225 604H300L436 784L392 821L262 703L133 821Z" glyph-name="Dcaron.small" horiz-adv-x="577" /><glyph d="M5 392V326H342V392ZM218 635 187 582H282C413 582 478 497 478 348C478 210 424 108 282 108H172L218 49ZM70 690V0H280C463 0 635 84 635 349C635 550 518 690 280 690Z" glyph-name="Dcroat" horiz-adv-x="668" unicode="&#272;" /><glyph d="M5 293V235H289V293ZM206 480 178 432H254C355 432 401 370 401 268C401 161 356 95 257 95H162L206 43ZM64 528V0H251C412 0 554 66 554 268C554 424 454 528 249 528Z" glyph-name="Dcroat.small" horiz-adv-x="577" /><glyph d="M437 90H141L298 543ZM17 0H620V47L405 691H251L17 47Z" glyph-name="Delta" horiz-adv-x="638" unicode="&#8710;" /><glyph d="M70 689V1H218V689ZM440 309V414H128V309ZM128 107V1H496V107ZM485 583V689H128V583Z" glyph-name="E" horiz-adv-x="536" unicode="E" /><glyph d="M206 495 121 434H438V527H64V1H449V94H121L206 21ZM398 226V318H120V226Z" glyph-name="E.small" horiz-adv-x="483" /><glyph d="M70 689V1H218V689ZM440 309V414H128V309ZM128 107V1H496V107ZM485 583V689H128V583ZM175 765 211 730 417 805 338 901Z" glyph-name="Eacute" horiz-adv-x="536" unicode="&#201;" /><glyph d="M206 495 121 434H438V527H64V1H449V94H121L206 21ZM398 226V318H120V226ZM158 638 210 595 377 754 293 830Z" glyph-name="Eacute.small" horiz-adv-x="479" /><glyph d="M70 689V1H218V689ZM440 309V414H128V309ZM128 107V1H496V107ZM485 583V689H128V583ZM129 898C122 813 166 738 283 738C399 738 443 813 436 898H391C384 865 363 831 283 831C200 831 181 865 174 898Z" glyph-name="Ebreve" horiz-adv-x="536" unicode="&#276;" /><glyph d="M206 495 121 434H438V527H64V1H449V94H121L206 21ZM398 226V318H120V226ZM253 617C371 617 412 706 405 803H360C353 766 336 714 253 714C170 714 153 766 147 803H101C94 706 135 617 253 617Z" glyph-name="Ebreve.small" horiz-adv-x="479" /><glyph d="M70 689V1H218V689ZM440 309V414H128V309ZM128 107V1H496V107ZM485 583V689H128V583ZM112 859 252 731H319L459 859L427 900L285 827L144 900Z" glyph-name="Ecaron" horiz-adv-x="536" unicode="&#282;" /><glyph d="M206 495 121 434H438V527H64V1H449V94H121L206 21ZM398 226V318H120V226ZM81 784 217 604H292L428 784L384 821L254 703L125 821Z" glyph-name="Ecaron.small" horiz-adv-x="479" /><glyph d="M70 689V1H218V689ZM440 309V414H128V309ZM128 107V1H496V107ZM485 583V689H128V583ZM112 769 144 728 285 802 426 728 459 769 318 897H251Z" glyph-name="Ecircumflex" horiz-adv-x="536" unicode="&#202;" /><glyph d="M206 495 121 434H438V527H64V1H449V94H121L206 21ZM398 226V318H120V226ZM77 636 119 596 250 714 381 596 424 636 288 814H213Z" glyph-name="Ecircumflex.small" horiz-adv-x="479" /><glyph d="M70 689V1H218V689ZM440 309V414H128V309ZM128 107V1H496V107ZM485 583V689H128V583ZM135 747H248V868H135ZM317 747H430V868H317Z" glyph-name="Edieresis" horiz-adv-x="536" unicode="&#203;" /><glyph d="M206 495 121 434H438V527H64V1H449V94H121L206 21ZM398 226V318H120V226ZM107 655H220V775H107ZM289 655H402V775H289Z" glyph-name="Edieresis.small" horiz-adv-x="479" /><glyph d="M70 689V1H218V689ZM440 309V414H128V309ZM128 107V1H496V107ZM485 583V689H128V583ZM211 746H356V869H211Z" glyph-name="Edotaccent" horiz-adv-x="536" unicode="&#278;" /><glyph d="M206 495 121 434H438V527H64V1H449V94H121L206 21ZM398 226V318H120V226ZM179 653H324V775H179Z" glyph-name="Edotaccent.small" horiz-adv-x="479" /><glyph d="M70 689V1H218V689ZM440 309V414H128V309ZM128 107V1H496V107ZM485 583V689H128V583ZM154 805 360 730 396 765 233 901Z" glyph-name="Egrave" horiz-adv-x="536" unicode="&#200;" /><glyph d="M206 495 121 434H438V527H64V1H449V94H121L206 21ZM398 226V318H120V226ZM123 754 290 595 342 638 207 830Z" glyph-name="Egrave.small" horiz-adv-x="479" /><glyph d="M70 689V1H218V689ZM440 309V414H128V309ZM128 107V1H496V107ZM485 583V689H128V583ZM133 862V774H429V862Z" glyph-name="Emacron" horiz-adv-x="536" unicode="&#274;" /><glyph d="M206 495 121 434H438V527H64V1H449V94H121L206 21ZM398 226V318H120V226ZM103 773V685H399V773Z" glyph-name="Emacron.small" horiz-adv-x="479" /><glyph d="M435 -249C569 -249 611 -151 612 -5V690H496V265L215 690H70V0H185V458L496 -5C496 -115 466 -150 409 -150C357 -150 337 -122 334 -74H268C268 -164 303 -249 435 -249Z" glyph-name="Eng" horiz-adv-x="682" unicode="&#330;" /><glyph d="M390 -250C510 -250 545 -155 545 -45V528H433V219L202 528H69V0H180V341L433 9V-56C433 -121 416 -159 366 -159C323 -159 306 -135 304 -95H240C240 -184 278 -250 390 -250Z" glyph-name="Eng.small" horiz-adv-x="595" /><glyph d="M301 -131C301 -183 329 -218 390 -218C460 -218 483 -171 479 -115H449C449 -135 440 -156 419 -156C395 -156 388 -140 388 -118C388 -63 423 1 490 1L430 26C366 -2 301 -55 301 -131ZM70 689V1H218V689ZM440 309V414H128V309ZM128 107V1H496V107ZM485 583V689H128V583Z" glyph-name="Eogonek" horiz-adv-x="536" unicode="&#280;" /><glyph d="M260 -131C260 -183 288 -218 349 -218C419 -218 442 -171 438 -115H408C408 -135 399 -156 378 -156C354 -156 347 -140 347 -118C347 -63 384 1 445 1L385 26C328 -3 260 -55 260 -131ZM206 495 121 434H438V527H64V1H449V94H121L206 21ZM398 226V318H120V226Z" glyph-name="Eogonek.small" horiz-adv-x="479" /><glyph d="M5 392V326H342V392ZM218 635 187 582H282C413 582 478 497 478 348C478 210 424 108 282 108H172L218 49ZM70 690V0H280C463 0 635 84 635 349C635 550 518 690 280 690Z" glyph-name="Eth" horiz-adv-x="668" unicode="&#208;" /><glyph d="M5 293V235H289V293ZM206 480 178 432H254C355 432 401 370 401 268C401 161 356 95 257 95H162L206 43ZM64 528V0H251C412 0 554 66 554 268C554 424 454 528 249 528Z" glyph-name="Eth.small" horiz-adv-x="577" /><glyph d="M422 579C472 579 510 560 542 532L591 588C564 631 501 683 401 683C235 683 118 566 118 351C118 348 118 302 118 300C120 90 226 -13 392 -13C491 -13 556 36 591 86L552 139C525 114 481 89 419 89C321 89 275 157 273 270C273 273 273 373 273 377C273 501 324 579 422 579ZM478 449H65L45 370H459ZM451 302H40L20 223H431Z" glyph-name="Euro" horiz-adv-x="603" unicode="&#8364;" /><glyph d="M70 689V0H218V689ZM429 290V395H128V290ZM486 583V689H128V583Z" glyph-name="F" horiz-adv-x="494" unicode="F" /><glyph d="M64 527V0H206V518L121 432H439V527ZM120 306V211H390V306Z" glyph-name="F.small" horiz-adv-x="447" /><glyph d="M64 527V0H206V518L121 432H439V527ZM120 306V211H390V306ZM508 528V0H651V528Z" glyph-name="FI.small" horiz-adv-x="710" /><glyph d="M64 527V0H206V518L121 432H439V527ZM120 306V211H390V306ZM506 528V1H885V100H563L648 3V528Z" glyph-name="FL.small" horiz-adv-x="891" /><glyph d="M32 342C32 115 151 -13 353 -13C503 -13 596 64 612 184V352H395V254H501L489 265V177C483 138 446 100 366 100C253 100 191 189 191 333C191 491 271 572 373 572C466 572 506 515 512 481H586C597 567 537 699 355 699C183 699 32 577 32 342Z" glyph-name="G" horiz-adv-x="647" unicode="G" /><glyph d="M31 259C31 88 127 -13 302 -13C428 -13 508 44 522 153V271H335V186H417L408 195V138C404 113 377 86 316 86C231 86 184 152 184 251C184 356 243 425 322 425C393 425 417 387 424 357H495C505 431 459 537 296 537C146 537 31 439 31 259Z" glyph-name="G.small" horiz-adv-x="568" /><glyph d="M32 342C32 115 151 -13 353 -13C503 -13 596 64 612 184V352H395V254H501L489 265V177C483 138 446 100 366 100C253 100 191 189 191 333C191 491 271 572 373 572C466 572 506 515 512 481H586C597 567 537 699 355 699C183 699 32 577 32 342ZM186 898C179 813 223 738 340 738C456 738 500 813 493 898H448C441 865 420 831 340 831C257 831 238 865 231 898Z" glyph-name="Gbreve" horiz-adv-x="647" unicode="&#286;" /><glyph d="M31 259C31 88 127 -13 302 -13C428 -13 508 44 522 153V271H335V186H417L408 195V138C404 113 377 86 316 86C231 86 184 152 184 251C184 356 243 425 322 425C393 425 417 387 424 357H495C505 431 459 537 296 537C146 537 31 439 31 259ZM285 617C403 617 444 706 437 803H392C385 766 368 714 285 714C202 714 185 766 179 803H133C126 706 167 617 285 617Z" glyph-name="Gbreve.small" horiz-adv-x="567" /><glyph d="M32 342C32 115 151 -13 353 -13C503 -13 596 64 612 184V352H395V254H501L489 265V177C483 138 446 100 366 100C253 100 191 189 191 333C191 491 271 572 373 572C466 572 506 515 512 481H586C597 567 537 699 355 699C183 699 32 577 32 342ZM171 769 203 728 344 802 485 728 518 769 377 897H310Z" glyph-name="Gcircumflex" horiz-adv-x="647" unicode="&#284;" /><glyph d="M31 259C31 88 127 -13 302 -13C428 -13 508 44 522 153V271H335V186H417L408 195V138C404 113 377 86 316 86C231 86 184 152 184 251C184 356 243 425 322 425C393 425 417 387 424 357H495C505 431 459 537 296 537C146 537 31 439 31 259ZM111 636 153 596 284 714 415 596 458 636 322 814H247Z" glyph-name="Gcircumflex.small" horiz-adv-x="567" /><glyph d="M32 342C32 115 151 -13 353 -13C503 -13 596 64 612 184V352H395V254H501L489 265V177C483 138 446 100 366 100C253 100 191 189 191 333C191 491 271 572 373 572C466 572 506 515 512 481H586C597 567 537 699 355 699C183 699 32 577 32 342ZM268 -227 336 -240 417 -56H305Z" glyph-name="Gcommaaccent" horiz-adv-x="647" unicode="&#290;" /><glyph d="M31 259C31 88 127 -13 302 -13C428 -13 508 44 522 153V271H335V186H417L408 195V138C404 113 377 86 316 86C231 86 184 152 184 251C184 356 243 425 322 425C393 425 417 387 424 357H495C505 431 459 537 296 537C146 537 31 439 31 259ZM211 -227 279 -240 360 -56H248Z" glyph-name="Gcommaaccent.small" horiz-adv-x="567" /><glyph d="M32 342C32 115 151 -13 353 -13C503 -13 596 64 612 184V352H395V254H501L489 265V177C483 138 446 100 366 100C253 100 191 189 191 333C191 491 271 572 373 572C466 572 506 515 512 481H586C597 567 537 699 355 699C183 699 32 577 32 342ZM273 746H418V869H273Z" glyph-name="Gdotaccent" horiz-adv-x="647" unicode="&#288;" /><glyph d="M31 259C31 88 127 -13 302 -13C428 -13 508 44 522 153V271H335V186H417L408 195V138C404 113 377 86 316 86C231 86 184 152 184 251C184 356 243 425 322 425C393 425 417 387 424 357H495C505 431 459 537 296 537C146 537 31 439 31 259ZM220 653H365V775H220Z" glyph-name="Gdotaccent.small" horiz-adv-x="567" /><glyph d="M70 690V0H218V690ZM569 304V409H128V304ZM474 690V0H622V690Z" glyph-name="H" horiz-adv-x="692" unicode="H" /><glyph d="M64 528V0H206V528ZM496 222V319H121V222ZM404 528V0H546V528Z" glyph-name="H.small" horiz-adv-x="610" /><glyph d="M687 534V600H5V534ZM70 690V0H218V690ZM569 304V409H128V304ZM474 690V0H622V690Z" glyph-name="Hbar" horiz-adv-x="692" unicode="&#294;" /><glyph d="M10 459V401H592V459ZM64 528V0H206V528ZM496 222V319H121V222ZM404 528V0H546V528Z" glyph-name="Hbar.small" horiz-adv-x="602" /><glyph d="M70 690V0H218V690ZM569 304V409H128V304ZM474 690V0H622V690ZM173 769 205 728 346 802 487 728 520 769 379 897H312Z" glyph-name="Hcircumflex" horiz-adv-x="692" unicode="&#292;" /><glyph d="M64 528V0H206V528ZM496 222V319H121V222ZM404 528V0H546V528ZM128 636 170 596 301 714 432 596 475 636 339 814H264Z" glyph-name="Hcircumflex.small" horiz-adv-x="602" /><glyph d="M72 690V0H220V690Z" glyph-name="I" horiz-adv-x="292" unicode="I" /><glyph d="M66 528V0H209V528Z" glyph-name="I.small" horiz-adv-x="275" /><glyph d="M72 690V0H220V690ZM305 202C305 87 340 -13 492 -13C640 -13 683 105 683 243V690H536V253C536 162 518 108 454 108C396 108 378 153 373 202Z" glyph-name="IJ" horiz-adv-x="748" unicode="&#306;" /><glyph d="M66 528V0H209V528ZM282 161C282 67 310 -13 447 -13C573 -13 616 75 616 185V528H474V197C474 132 460 93 410 93C367 93 344 121 341 161Z" glyph-name="IJ.small" horiz-adv-x="672" /><glyph d="M72 690V0H220V690ZM49 765 85 730 291 805 212 901Z" glyph-name="Iacute" horiz-adv-x="292" unicode="&#205;" /><glyph d="M66 528V0H209V528ZM46 638 98 595 265 754 181 830Z" glyph-name="Iacute.small" horiz-adv-x="267" /><glyph d="M72 690V0H220V690ZM-7 898C-14 813 30 738 147 738C263 738 307 813 300 898H255C248 865 227 831 147 831C64 831 45 865 38 898Z" glyph-name="Ibreve" horiz-adv-x="292" unicode="&#300;" /><glyph d="M66 528V0H209V528ZM134 617C252 617 293 706 286 803H241C234 766 217 714 134 714C51 714 34 766 28 803H-18C-25 706 16 617 134 617Z" glyph-name="Ibreve.small" horiz-adv-x="267" /><glyph d="M147 804 262 729 295 767 179 897H113L-2 767L31 729ZM72 690V0H220V690Z" glyph-name="Icircumflex" horiz-adv-x="292" unicode="&#206;" /><glyph d="M66 528V0H209V528ZM-39 636 3 596 134 714 265 596 308 636 172 814H97Z" glyph-name="Icircumflex.small" horiz-adv-x="267" /><glyph d="M72 690V0H220V690ZM-2 747H111V868H-2ZM180 747H293V868H180Z" glyph-name="Idieresis" horiz-adv-x="292" unicode="&#207;" /><glyph d="M66 528V0H209V528ZM-14 655H99V775H-14ZM168 655H281V775H168Z" glyph-name="Idieresis.small" horiz-adv-x="267" /><glyph d="M72 690V0H220V690ZM74 746H219V869H74Z" glyph-name="Idotaccent" horiz-adv-x="292" unicode="&#304;" /><glyph d="M66 528V0H209V528ZM63 653H208V775H63Z" glyph-name="Idotaccent.small" horiz-adv-x="270" /><glyph d="M72 690V0H220V690ZM1 805 207 730 243 765 80 901Z" glyph-name="Igrave" horiz-adv-x="292" unicode="&#204;" /><glyph d="M66 528V0H209V528ZM5 754 172 595 224 638 89 830Z" glyph-name="Igrave.small" horiz-adv-x="267" /><glyph d="M21 862V774H272V862ZM72 690V0H220V690Z" glyph-name="Imacron" horiz-adv-x="292" unicode="&#298;" /><glyph d="M66 528V0H209V528ZM-14 773V685H282V773Z" glyph-name="Imacron.small" horiz-adv-x="267" /><glyph d="M47 -131C47 -183 77 -218 138 -218C207 -218 230 -171 226 -115H197C197 -135 187 -156 167 -156C142 -156 135 -141 135 -117C135 -64 165 -9 219 0L165 25C117 -3 47 -56 47 -131ZM72 690V0H220V690Z" glyph-name="Iogonek" horiz-adv-x="292" unicode="&#302;" /><glyph d="M35 -131C35 -183 65 -218 126 -218C195 -218 218 -171 214 -115H185C185 -135 175 -156 155 -156C130 -156 123 -141 123 -117C123 -64 153 -9 207 0L153 25C105 -3 35 -56 35 -131ZM66 528V0H209V528Z" glyph-name="Iogonek.small" horiz-adv-x="267" /><glyph d="M72 690V0H220V690ZM228 832C176 832 164 896 82 896C5 896 -30 834 2 740H34C27 775 34 804 68 804C123 804 135 740 215 740C292 740 326 806 294 897H262C268 863 262 832 228 832Z" glyph-name="Itilde" horiz-adv-x="292" unicode="&#296;" /><glyph d="M66 528V0H209V528ZM-10 626H21C13 666 20 700 55 700C111 700 120 627 201 627C277 627 311 699 279 799H246C254 759 248 725 214 725C161 725 152 798 67 798C-8 798 -44 730 -10 626Z" glyph-name="Itilde.small" horiz-adv-x="267" /><glyph d="M12 202C12 87 47 -13 199 -13C347 -13 390 105 390 243V690H243V253C243 162 225 108 161 108C103 108 85 153 80 202Z" glyph-name="J" horiz-adv-x="455" unicode="J" /><glyph d="M12 161C12 67 40 -13 177 -13C303 -13 346 75 346 185V528H204V197C204 132 190 93 140 93C97 93 74 121 71 161Z" glyph-name="J.small" horiz-adv-x="406" /><glyph d="M311 804 427 729 460 767 344 897H278L163 767L196 729ZM12 202C12 87 47 -13 199 -13C347 -13 390 105 390 243V690H243V253C243 162 225 108 161 108C103 108 85 153 80 202Z" glyph-name="Jcircumflex" horiz-adv-x="455" unicode="&#308;" /><glyph d="M12 161C12 67 40 -13 177 -13C303 -13 346 75 346 185V528H204V197C204 132 190 93 140 93C97 93 74 121 71 161ZM97 636 139 596 270 714 401 596 444 636 308 814H233Z" glyph-name="Jcircumflex.small" horiz-adv-x="402" /><glyph d="M70 0H218V690H70ZM202 228 601 690H474L198 367ZM215 372 447 0H631L320 479Z" glyph-name="K" horiz-adv-x="635" unicode="K" /><glyph d="M64 528V0H206V528ZM171 266 210 185 536 528H412ZM199 278 383 0H561L295 376Z" glyph-name="K.small" horiz-adv-x="575" /><glyph d="M70 0H218V690H70ZM202 228 601 690H474L198 367ZM215 372 447 0H631L320 479ZM229 -227 297 -240 378 -56H266Z" glyph-name="Kcommaaccent" horiz-adv-x="635" unicode="&#310;" /><glyph d="M64 528V0H206V528ZM171 266 210 185 536 528H412ZM199 278 383 0H561L295 376ZM195 -227 263 -240 344 -56H232Z" glyph-name="Kcommaaccent.small" horiz-adv-x="568" /><glyph d="M70 690V1H218V690ZM128 111V1H504V111Z" glyph-name="L" horiz-adv-x="514" unicode="L" /><glyph d="M64 528V1H443V100H121L206 3V528Z" glyph-name="L.small" horiz-adv-x="453" /><glyph d="M70 690V1H218V690ZM128 111V1H504V111ZM100 765 136 730 342 805 263 901Z" glyph-name="Lacute" horiz-adv-x="514" unicode="&#313;" /><glyph d="M64 528V1H443V100H121L206 3V528ZM92 638 144 595 311 754 227 830Z" glyph-name="Lacute.small" horiz-adv-x="449" /><glyph d="M70 690V1H218V690ZM128 111V1H504V111ZM321 485H399L455 695H340Z" glyph-name="Lcaron" horiz-adv-x="514" unicode="&#317;" /><glyph d="M63 528V1H442V100H120L205 3V528ZM302 318H380L436 528H321Z" glyph-name="Lcaron.small" horiz-adv-x="449" /><glyph d="M70 690V1H218V690ZM128 111V1H504V111ZM219 -227 287 -240 368 -56H256Z" glyph-name="Lcommaaccent" horiz-adv-x="514" unicode="&#315;" /><glyph d="M64 528V1H443V100H121L206 3V528ZM182 -227 250 -240 331 -56H219Z" glyph-name="Lcommaaccent.small" horiz-adv-x="449" /><glyph d="M70 690V1H218V690ZM128 111V1H504V111ZM328 315H473V437H328Z" glyph-name="Ldot" horiz-adv-x="514" unicode="&#319;" /><glyph d="M286 242H405V365H286ZM64 528V1H443V100H121L206 3V528Z" glyph-name="Ldot.small" horiz-adv-x="464" /><glyph d="M7 141 323 373V482L7 251ZM70 690V1H218V690ZM128 111V1H504V111Z" glyph-name="Lslash" horiz-adv-x="514" unicode="&#321;" /><glyph d="M7 105 303 325V434L7 214ZM64 528V1H443V100H121L206 3V528Z" glyph-name="Lslash.small" horiz-adv-x="449" /><glyph d="M182 0 194 628H115L374 6H454L701 597L631 628L644 0H768L755 691H628L390 126H471L237 691H78L65 0Z" glyph-name="M" horiz-adv-x="833" unicode="M" /><glyph d="M70 528 59 0H163L174 472H115L320 4H384L590 440L537 472L548 0H654L643 528H524L324 109H410L226 528Z" glyph-name="M.small" horiz-adv-x="712" /><glyph d="M89 620 495 -5H612V690H496V-2L577 119L215 690H70V0H185V689Z" glyph-name="N" horiz-adv-x="682" unicode="N" /><glyph d="M64 528V0H175V527L81 462L435 0H540V528H428V40L509 111L196 528Z" glyph-name="N.small" horiz-adv-x="603" /><glyph d="M89 620 495 -5H612V690H496V-2L577 119L215 690H70V0H185V689ZM235 765 271 730 477 805 398 901Z" glyph-name="Nacute" horiz-adv-x="682" unicode="&#323;" /><glyph d="M64 528V0H175V527L81 462L435 0H540V528H428V40L509 111L196 528ZM235 638 287 595 454 754 370 830Z" glyph-name="Nacute.small" horiz-adv-x="595" /><glyph d="M89 620 495 -5H612V690H496V-2L577 119L215 690H70V0H185V689ZM184 859 324 731H391L531 859L499 900L357 827L216 900Z" glyph-name="Ncaron" horiz-adv-x="682" unicode="&#327;" /><glyph d="M64 528V0H175V527L81 462L435 0H540V528H428V40L509 111L196 528ZM136 784 272 604H347L483 784L439 821L309 703L180 821Z" glyph-name="Ncaron.small" horiz-adv-x="595" /><glyph d="M89 620 495 -5H612V690H496V-2L577 119L215 690H70V0H185V689ZM251 -227 319 -240 400 -56H288Z" glyph-name="Ncommaaccent" horiz-adv-x="682" unicode="&#325;" /><glyph d="M64 528V0H175V527L81 462L435 0H540V528H428V40L509 111L196 528ZM211 -227 279 -240 360 -56H248Z" glyph-name="Ncommaaccent.small" horiz-adv-x="595" /><glyph d="M89 620 495 -5H612V690H496V-2L577 119L215 690H70V0H185V689ZM443 832C391 832 379 896 297 896C220 896 185 834 217 740H249C242 775 249 804 283 804C338 804 350 740 430 740C507 740 541 806 509 897H477C483 863 477 832 443 832Z" glyph-name="Ntilde" horiz-adv-x="682" unicode="&#209;" /><glyph d="M64 528V0H175V527L81 462L435 0H540V528H428V40L509 111L196 528ZM156 626H187C179 666 186 700 221 700C277 700 286 627 367 627C443 627 477 699 445 799H412C420 759 414 725 380 725C327 725 318 798 233 798C158 798 122 730 156 626Z" glyph-name="Ntilde.small" horiz-adv-x="595" /><glyph d="M32 344C32 105 168 -13 352 -13C555 -13 668 130 668 353C668 589 519 699 352 699C156 699 32 560 32 344ZM535 347C535 186 462 108 369 108C275 108 191 179 191 344C191 485 262 569 369 569C459 569 535 491 535 347Z" glyph-name="O" horiz-adv-x="700" unicode="O" /><glyph d="M31 263C31 81 143 -13 302 -13C471 -13 569 92 569 266C569 448 441 537 302 537C139 537 31 430 31 263ZM447 264C447 144 384 93 315 93C245 93 184 143 184 264C184 365 236 422 316 422C386 422 447 365 447 264Z" glyph-name="O.small" horiz-adv-x="600" /><glyph d="M32 344C32 105 161 -13 338 -13C519 -13 612 148 612 353C612 583 493 699 338 699C152 699 32 560 32 344ZM515 347C515 176 447 108 350 108C265 108 190 179 190 344C190 484 252 567 350 567C447 567 515 490 515 347ZM518 689V1H650V689ZM853 309V414H561V309ZM561 107V1H909V107ZM898 583V689H561V583Z" glyph-name="OE" horiz-adv-x="949" unicode="&#338;" /><glyph d="M31 263C31 80 141 -13 293 -13C468 -13 530 99 530 271C530 451 447 537 295 537C134 537 31 428 31 263ZM429 265C429 142 374 93 306 93C235 93 184 145 184 263C184 362 226 421 310 421C379 421 429 368 429 265ZM451 527V1H776V92H461L546 21V518L461 435H765V527ZM460 318V227H725V318Z" glyph-name="OE.small" horiz-adv-x="806" /><glyph d="M32 344C32 105 168 -13 352 -13C555 -13 668 130 668 353C668 589 519 699 352 699C156 699 32 560 32 344ZM535 347C535 186 462 108 369 108C275 108 191 179 191 344C191 485 262 569 369 569C459 569 535 491 535 347ZM253 765 289 730 495 805 416 901Z" glyph-name="Oacute" horiz-adv-x="700" unicode="&#211;" /><glyph d="M31 263C31 81 143 -13 302 -13C471 -13 569 92 569 266C569 448 441 537 302 537C139 537 31 430 31 263ZM447 264C447 144 384 93 315 93C245 93 184 143 184 264C184 365 236 422 316 422C386 422 447 365 447 264ZM219 638 271 595 438 754 354 830Z" glyph-name="Oacute.small" horiz-adv-x="599" /><glyph d="M32 344C32 105 168 -13 352 -13C555 -13 668 130 668 353C668 589 519 699 352 699C156 699 32 560 32 344ZM535 347C535 186 462 108 369 108C275 108 191 179 191 344C191 485 262 569 369 569C459 569 535 491 535 347ZM197 898C190 813 234 738 351 738C467 738 511 813 504 898H459C452 865 431 831 351 831C268 831 249 865 242 898Z" glyph-name="Obreve" horiz-adv-x="700" unicode="&#334;" /><glyph d="M31 263C31 81 143 -13 302 -13C471 -13 569 92 569 266C569 448 441 537 302 537C139 537 31 430 31 263ZM447 264C447 144 384 93 315 93C245 93 184 143 184 264C184 365 236 422 316 422C386 422 447 365 447 264ZM299 617C417 617 458 706 451 803H406C399 766 382 714 299 714C216 714 199 766 193 803H147C140 706 181 617 299 617Z" glyph-name="Obreve.small" horiz-adv-x="599" /><glyph d="M32 344C32 105 168 -13 352 -13C555 -13 668 130 668 353C668 589 519 699 352 699C156 699 32 560 32 344ZM535 347C535 186 462 108 369 108C275 108 191 179 191 344C191 485 262 569 369 569C459 569 535 491 535 347ZM179 769 211 728 352 802 493 728 526 769 385 897H318Z" glyph-name="Ocircumflex" horiz-adv-x="700" unicode="&#212;" /><glyph d="M31 263C31 81 143 -13 302 -13C471 -13 569 92 569 266C569 448 441 537 302 537C139 537 31 430 31 263ZM447 264C447 144 384 93 315 93C245 93 184 143 184 264C184 365 236 422 316 422C386 422 447 365 447 264ZM126 636 168 596 299 714 430 596 473 636 337 814H262Z" glyph-name="Ocircumflex.small" horiz-adv-x="599" /><glyph d="M32 344C32 105 168 -13 352 -13C555 -13 668 130 668 353C668 589 519 699 352 699C156 699 32 560 32 344ZM535 347C535 186 462 108 369 108C275 108 191 179 191 344C191 485 262 569 369 569C459 569 535 491 535 347ZM200 747H313V868H200ZM382 747H495V868H382Z" glyph-name="Odieresis" horiz-adv-x="700" unicode="&#214;" /><glyph d="M31 263C31 81 143 -13 302 -13C471 -13 569 92 569 266C569 448 441 537 302 537C139 537 31 430 31 263ZM447 264C447 144 384 93 315 93C245 93 184 143 184 264C184 365 236 422 316 422C386 422 447 365 447 264ZM152 655H265V775H152ZM334 655H447V775H334Z" glyph-name="Odieresis.small" horiz-adv-x="599" /><glyph d="M32 344C32 105 168 -13 352 -13C555 -13 668 130 668 353C668 589 519 699 352 699C156 699 32 560 32 344ZM535 347C535 186 462 108 369 108C275 108 191 179 191 344C191 485 262 569 369 569C459 569 535 491 535 347ZM223 805 429 730 465 765 302 901Z" glyph-name="Ograve" horiz-adv-x="700" unicode="&#210;" /><glyph d="M31 263C31 81 143 -13 302 -13C471 -13 569 92 569 266C569 448 441 537 302 537C139 537 31 430 31 263ZM447 264C447 144 384 93 315 93C245 93 184 143 184 264C184 365 236 422 316 422C386 422 447 365 447 264ZM147 754 314 595 366 638 231 830Z" glyph-name="Ograve.small" horiz-adv-x="599" /><glyph d="M32 344C32 105 168 -13 352 -13C555 -13 668 130 668 353C668 589 519 699 352 699C156 699 32 560 32 344ZM535 347C535 186 462 108 369 108C275 108 191 179 191 344C191 485 262 569 369 569C459 569 535 491 535 347ZM212 765 261 718 416 848 355 912ZM397 765 446 718 601 848 541 912Z" glyph-name="Ohungarumlaut" horiz-adv-x="700" unicode="&#336;" /><glyph d="M31 263C31 81 143 -13 302 -13C471 -13 569 92 569 266C569 448 441 537 302 537C139 537 31 430 31 263ZM447 264C447 144 384 93 315 93C245 93 184 143 184 264C184 365 236 422 316 422C386 422 447 365 447 264ZM153 629 219 597 333 791 242 828ZM338 629 405 597 523 780 436 823Z" glyph-name="Ohungarumlaut.small" horiz-adv-x="599" /><glyph d="M32 344C32 105 168 -13 352 -13C555 -13 668 130 668 353C668 589 519 699 352 699C156 699 32 560 32 344ZM535 347C535 186 462 108 369 108C275 108 191 179 191 344C191 485 262 569 369 569C459 569 535 491 535 347ZM210 862V774H506V862Z" glyph-name="Omacron" horiz-adv-x="700" unicode="&#332;" /><glyph d="M31 263C31 81 143 -13 302 -13C471 -13 569 92 569 266C569 448 441 537 302 537C139 537 31 430 31 263ZM447 264C447 144 384 93 315 93C245 93 184 143 184 264C184 365 236 422 316 422C386 422 447 365 447 264ZM151 773V685H447V773Z" glyph-name="Omacron.small" horiz-adv-x="599" /><glyph d="M326 139C323 140 199 195 199 358C199 482 260 569 379 569C502 569 559 468 559 358C559 195 436 140 433 139V0H685V105H472V98C501 107 702 135 702 384C702 565 587 699 370 699C165 699 37 565 37 384C37 134 245 107 276 98V105H52V0H326Z" glyph-name="Omega" horiz-adv-x="740" unicode="&#8486;" /><glyph d="M597 698 32 -12H106L668 698ZM32 344C32 105 168 -13 352 -13C555 -13 668 130 668 353C668 589 519 699 352 699C156 699 32 560 32 344ZM535 347C535 186 462 108 369 108C275 108 191 179 191 344C191 485 262 569 369 569C459 569 535 491 535 347Z" glyph-name="Oslash" horiz-adv-x="700" unicode="&#216;" /><glyph d="M503 528 27 -12H99L572 528ZM31 263C31 81 143 -13 302 -13C471 -13 569 92 569 266C569 448 441 537 302 537C139 537 31 430 31 263ZM447 264C447 144 384 93 315 93C245 93 184 143 184 264C184 365 236 422 316 422C386 422 447 365 447 264Z" glyph-name="Oslash.small" horiz-adv-x="599" /><glyph d="M597 698 32 -12H106L668 698ZM32 344C32 105 168 -13 352 -13C555 -13 668 130 668 353C668 589 519 699 352 699C156 699 32 560 32 344ZM535 347C535 186 462 108 369 108C275 108 191 179 191 344C191 485 262 569 369 569C459 569 535 491 535 347ZM257 765 293 730 499 805 420 901Z" glyph-name="Oslashacute" horiz-adv-x="700" unicode="&#510;" /><glyph d="M503 528 27 -12H99L572 528ZM31 263C31 81 143 -13 302 -13C471 -13 569 92 569 266C569 448 441 537 302 537C139 537 31 430 31 263ZM447 264C447 144 384 93 315 93C245 93 184 143 184 264C184 365 236 422 316 422C386 422 447 365 447 264ZM224 638 276 595 443 754 359 830Z" glyph-name="Oslashacute.small" horiz-adv-x="599" /><glyph d="M32 344C32 105 168 -13 352 -13C555 -13 668 130 668 353C668 589 519 699 352 699C156 699 32 560 32 344ZM535 347C535 186 462 108 369 108C275 108 191 179 191 344C191 485 262 569 369 569C459 569 535 491 535 347ZM434 832C382 832 370 896 288 896C211 896 176 834 208 740H240C233 775 240 804 274 804C329 804 341 740 421 740C498 740 532 806 500 897H468C474 863 468 832 434 832Z" glyph-name="Otilde" horiz-adv-x="700" unicode="&#213;" /><glyph d="M31 263C31 81 143 -13 302 -13C471 -13 569 92 569 266C569 448 441 537 302 537C139 537 31 430 31 263ZM447 264C447 144 384 93 315 93C245 93 184 143 184 264C184 365 236 422 316 422C386 422 447 365 447 264ZM155 626H186C178 666 185 700 220 700C276 700 285 627 366 627C442 627 476 699 444 799H411C419 759 413 725 379 725C326 725 317 798 232 798C157 798 121 730 155 626Z" glyph-name="Otilde.small" horiz-adv-x="599" /><glyph d="M70 690V0H218V683L141 584H296C372 584 430 548 430 468C430 382 370 351 299 351H144V245H329C470 245 574 318 574 474C574 607 473 690 331 690Z" glyph-name="P" horiz-adv-x="593" unicode="P" /><glyph d="M64 528V0H206V523L132 430H264C325 430 366 404 366 350C366 292 324 268 265 268H133V172H295C422 172 508 230 508 350C508 463 424 528 299 528Z" glyph-name="P.small" horiz-adv-x="527" /><glyph d="M288 8C291 -93 357 -161 483 -161C572 -161 636 -116 636 -27H594C589 -61 560 -76 521 -76C460 -76 427 -47 427 8ZM32 344C32 105 168 -13 352 -13C555 -13 668 130 668 353C668 589 519 699 352 699C156 699 32 560 32 344ZM535 347C535 186 462 108 369 108C275 108 191 179 191 344C191 485 262 569 369 569C459 569 535 491 535 347Z" glyph-name="Q" horiz-adv-x="700" unicode="Q" /><glyph d="M417 -130C493 -130 549 -93 549 -20H512C508 -45 482 -56 454 -56C407 -56 379 -32 379 8H246C251 -71 307 -130 417 -130ZM31 263C31 78 143 -13 302 -13C471 -13 569 103 569 271C569 442 444 537 302 537C134 537 31 426 31 263ZM447 264C447 144 384 93 315 93C245 93 184 143 184 264C184 365 236 422 316 422C386 422 447 365 447 264Z" glyph-name="Q.small" horiz-adv-x="600" /><glyph d="M602 23 597 47C582 47 563 48 552 76C545 94 543 113 543 184C543 290 477 334 377 334H128V283H292C362 283 389 257 389 176C389 45 416 -8 514 -8C549 -8 584 4 602 23ZM70 690V0H218V683L141 584H297C369 584 420 554 420 482C420 408 362 379 291 379H145V327H320C455 327 564 377 564 511C564 635 463 690 321 690Z" glyph-name="R" horiz-adv-x="622" unicode="R" /><glyph d="M526 34C507 37 497 45 492 80C486 87 484 112 482 134C479 222 440 260 346 260H115V207H266C321 207 338 184 340 126C342 33 364 -7 446 -7C477 -7 514 2 529 13ZM64 528V0H206V523L132 432H267C325 432 360 413 360 364C360 312 324 291 266 291H134V248H287C408 248 498 279 498 389C498 484 423 528 296 528Z" glyph-name="R.small" horiz-adv-x="549" /><glyph d="M602 23 597 47C582 47 563 48 552 76C545 94 543 113 543 184C543 290 477 334 377 334H128V283H292C362 283 389 257 389 176C389 45 416 -8 514 -8C549 -8 584 4 602 23ZM70 690V0H218V683L141 584H297C369 584 420 554 420 482C420 408 362 379 291 379H145V327H320C455 327 564 377 564 511C564 635 463 690 321 690ZM183 765 219 730 425 805 346 901Z" glyph-name="Racute" horiz-adv-x="622" unicode="&#340;" /><glyph d="M526 34C507 37 497 45 492 80C486 87 484 112 482 134C479 222 440 260 346 260H115V207H266C321 207 338 184 340 126C342 33 364 -7 446 -7C477 -7 514 2 529 13ZM64 528V0H206V523L132 432H267C325 432 360 413 360 364C360 312 324 291 266 291H134V248H287C408 248 498 279 498 389C498 484 423 528 296 528ZM164 638 216 595 383 754 299 830Z" glyph-name="Racute.small" horiz-adv-x="542" /><glyph d="M602 23 597 47C582 47 563 48 552 76C545 94 543 113 543 184C543 290 477 334 377 334H128V283H292C362 283 389 257 389 176C389 45 416 -8 514 -8C549 -8 584 4 602 23ZM70 690V0H218V683L141 584H297C369 584 420 554 420 482C420 408 362 379 291 379H145V327H320C455 327 564 377 564 511C564 635 463 690 321 690ZM132 859 272 731H339L479 859L447 900L305 827L164 900Z" glyph-name="Rcaron" horiz-adv-x="622" unicode="&#344;" /><glyph d="M526 34C507 37 497 45 492 80C486 87 484 112 482 134C479 222 440 260 346 260H115V207H266C321 207 338 184 340 126C342 33 364 -7 446 -7C477 -7 514 2 529 13ZM64 528V0H206V523L132 432H267C325 432 360 413 360 364C360 312 324 291 266 291H134V248H287C408 248 498 279 498 389C498 484 423 528 296 528ZM86 784 222 604H297L433 784L389 821L259 703L130 821Z" glyph-name="Rcaron.small" horiz-adv-x="542" /><glyph d="M602 23 597 47C582 47 563 48 552 76C545 94 543 113 543 184C543 290 477 334 377 334H128V283H292C362 283 389 257 389 176C389 45 416 -8 514 -8C549 -8 584 4 602 23ZM70 690V0H218V683L141 584H297C369 584 420 554 420 482C420 408 362 379 291 379H145V327H320C455 327 564 377 564 511C564 635 463 690 321 690ZM233 -227 301 -240 382 -56H270Z" glyph-name="Rcommaaccent" horiz-adv-x="622" unicode="&#342;" /><glyph d="M526 34C507 37 497 45 492 80C486 87 484 112 482 134C479 222 440 260 346 260H115V207H266C321 207 338 184 340 126C342 33 364 -7 446 -7C477 -7 514 2 529 13ZM64 528V0H206V523L132 432H267C325 432 360 413 360 364C360 312 324 291 266 291H134V248H287C408 248 498 279 498 389C498 484 423 528 296 528ZM194 -227 262 -240 343 -56H231Z" glyph-name="Rcommaaccent.small" horiz-adv-x="542" /><glyph d="M37 214C37 69 126 -13 287 -13C430 -13 534 64 534 194C534 321 449 370 348 402C269 427 203 450 203 507C203 562 244 592 309 592C377 592 434 555 442 484H516C530 620 444 699 293 699C151 699 54 617 54 494C54 372 132 326 226 294C314 264 381 244 381 177C381 117 337 90 270 90C182 90 121 123 108 214Z" glyph-name="S" horiz-adv-x="565" unicode="S" /><glyph d="M220 72C148 72 103 105 93 167H32C32 58 97 -13 246 -13C374 -13 462 51 462 154C462 261 385 290 305 313C243 333 194 342 194 387C194 423 221 446 277 446C329 446 370 415 378 366H449C458 472 386 537 250 537C120 537 44 463 44 371C44 269 105 238 178 214C246 191 306 182 306 128C306 92 274 72 220 72Z" glyph-name="S.small" horiz-adv-x="489" /><glyph d="M37 214C37 69 126 -13 287 -13C430 -13 534 64 534 194C534 321 449 370 348 402C269 427 203 450 203 507C203 562 244 592 309 592C377 592 434 555 442 484H516C530 620 444 699 293 699C151 699 54 617 54 494C54 372 132 326 226 294C314 264 381 244 381 177C381 117 337 90 270 90C182 90 121 123 108 214ZM184 765 220 730 426 805 347 901Z" glyph-name="Sacute" horiz-adv-x="565" unicode="&#346;" /><glyph d="M220 72C148 72 103 105 93 167H32C32 58 97 -13 246 -13C374 -13 462 51 462 154C462 261 385 290 305 313C243 333 194 342 194 387C194 423 221 446 277 446C329 446 370 415 378 366H449C458 472 386 537 250 537C120 537 44 463 44 371C44 269 105 238 178 214C246 191 306 182 306 128C306 92 274 72 220 72ZM158 638 210 595 377 754 293 830Z" glyph-name="Sacute.small" horiz-adv-x="489" /><glyph d="M37 214C37 69 126 -13 287 -13C430 -13 534 64 534 194C534 321 449 370 348 402C269 427 203 450 203 507C203 562 244 592 309 592C377 592 434 555 442 484H516C530 620 444 699 293 699C151 699 54 617 54 494C54 372 132 326 226 294C314 264 381 244 381 177C381 117 337 90 270 90C182 90 121 123 108 214ZM107 859 247 731H314L454 859L422 900L280 827L139 900Z" glyph-name="Scaron" horiz-adv-x="565" unicode="&#352;" /><glyph d="M220 72C148 72 103 105 93 167H32C32 58 97 -13 246 -13C374 -13 462 51 462 154C462 261 385 290 305 313C243 333 194 342 194 387C194 423 221 446 277 446C329 446 370 415 378 366H449C458 472 386 537 250 537C120 537 44 463 44 371C44 269 105 238 178 214C246 191 306 182 306 128C306 92 274 72 220 72ZM69 784 205 604H280L416 784L372 821L242 703L113 821Z" glyph-name="Scaron.small" horiz-adv-x="489" /><glyph d="M37 214C37 69 126 -13 287 -13C430 -13 534 64 534 194C534 321 449 370 348 402C269 427 203 450 203 507C203 562 244 592 309 592C377 592 434 555 442 484H516C530 620 444 699 293 699C151 699 54 617 54 494C54 372 132 326 226 294C314 264 381 244 381 177C381 117 337 90 270 90C182 90 121 123 108 214ZM223 -116C216 -165 238 -206 305 -206C355 -206 394 -176 394 -118C394 -53 340 -29 278 -45L298 -47L300 0L264 3L244 -69L264 -82C296 -77 316 -89 316 -118C316 -141 302 -154 284 -154C260 -154 250 -142 251 -116Z" glyph-name="Scedilla" horiz-adv-x="565" unicode="&#350;" /><glyph d="M220 72C148 72 103 105 93 167H32C32 58 97 -13 246 -13C374 -13 462 51 462 154C462 261 385 290 305 313C243 333 194 342 194 387C194 423 221 446 277 446C329 446 370 415 378 366H449C458 472 386 537 250 537C120 537 44 463 44 371C44 269 105 238 178 214C246 191 306 182 306 128C306 92 274 72 220 72ZM183 -116C176 -165 198 -206 265 -206C315 -206 354 -176 354 -118C354 -53 300 -29 238 -45L258 -47L260 0L224 3L204 -69L224 -82C256 -77 276 -89 276 -118C276 -141 262 -154 244 -154C220 -154 210 -142 211 -116Z" glyph-name="Scedilla.small" horiz-adv-x="489" /><glyph d="M184 260 191 266C191 266 172 108 325 108C422 108 484 179 484 323C484 324 484 348 484 349C483 506 395 567 300 567C196 567 140 515 118 464H54C73 632 196 699 328 699C514 699 641 570 641 349C641 127 517 -13 322 -13C99 -13 46 143 46 269C46 293 48 323 50 342H584V265Z" glyph-name="Schwa" horiz-adv-x="679" unicode="&#399;" /><glyph d="M530 273C530 437 429 537 261 537C120 537 39 449 39 335H86C93 392 138 438 220 438C333 438 378 364 378 268C378 267 378 246 378 245C378 146 325 93 260 93C191 93 178 140 178 175C178 188 180 204 180 210L444 215L447 270H62C57 251 54 208 54 180C54 78 115 -13 271 -13C426 -13 530 111 530 273Z" glyph-name="Schwa.small" horiz-adv-x="557" /><glyph d="M37 214C37 69 126 -13 287 -13C430 -13 534 64 534 194C534 321 449 370 348 402C269 427 203 450 203 507C203 562 244 592 309 592C377 592 434 555 442 484H516C530 620 444 699 293 699C151 699 54 617 54 494C54 372 132 326 226 294C314 264 381 244 381 177C381 117 337 90 270 90C182 90 121 123 108 214ZM112 769 144 728 285 802 426 728 459 769 318 897H251Z" glyph-name="Scircumflex" horiz-adv-x="565" unicode="&#348;" /><glyph d="M220 72C148 72 103 105 93 167H32C32 58 97 -13 246 -13C374 -13 462 51 462 154C462 261 385 290 305 313C243 333 194 342 194 387C194 423 221 446 277 446C329 446 370 415 378 366H449C458 472 386 537 250 537C120 537 44 463 44 371C44 269 105 238 178 214C246 191 306 182 306 128C306 92 274 72 220 72ZM70 636 112 596 243 714 374 596 417 636 281 814H206Z" glyph-name="Scircumflex.small" horiz-adv-x="489" /><glyph d="M37 214C37 69 126 -13 287 -13C430 -13 534 64 534 194C534 321 449 370 348 402C269 427 203 450 203 507C203 562 244 592 309 592C377 592 434 555 442 484H516C530 620 444 699 293 699C151 699 54 617 54 494C54 372 132 326 226 294C314 264 381 244 381 177C381 117 337 90 270 90C182 90 121 123 108 214ZM200 -227 268 -240 349 -56H237Z" glyph-name="Scommaaccent" horiz-adv-x="565" unicode="&#536;" /><glyph d="M220 72C148 72 103 105 93 167H32C32 58 97 -13 246 -13C374 -13 462 51 462 154C462 261 385 290 305 313C243 333 194 342 194 387C194 423 221 446 277 446C329 446 370 415 378 366H449C458 472 386 537 250 537C120 537 44 463 44 371C44 269 105 238 178 214C246 191 306 182 306 128C306 92 274 72 220 72ZM172 -227 240 -240 321 -56H209Z" glyph-name="Scommaaccent.small" horiz-adv-x="489" /><glyph d="M355 0V689H207V0ZM0 689V580H562V689Z" glyph-name="T" horiz-adv-x="562" unicode="T" /><glyph d="M180 526V0H321V526ZM6 527V428H495V527Z" glyph-name="T.small" horiz-adv-x="501" /><glyph d="M93 360V294H469V360ZM355 0V689H207V0ZM0 689V580H562V689Z" glyph-name="Tbar" horiz-adv-x="562" unicode="&#358;" /><glyph d="M93 274V217H408V274ZM180 526V0H321V526ZM6 527V428H495V527Z" glyph-name="Tbar.small" horiz-adv-x="501" /><glyph d="M355 0V689H207V0ZM0 689V580H562V689ZM108 859 248 731H315L455 859L423 900L281 827L140 900Z" glyph-name="Tcaron" horiz-adv-x="562" unicode="&#356;" /><glyph d="M180 526V0H321V526ZM6 527V428H495V527ZM77 784 213 604H288L424 784L380 821L250 703L121 821Z" glyph-name="Tcaron.small" horiz-adv-x="501" /><glyph d="M355 0V689H207V0ZM0 689V580H562V689ZM207 -116C200 -165 222 -206 289 -206C339 -206 378 -176 378 -118C378 -53 324 -29 262 -45L282 -47L284 0L248 3L228 -69L248 -82C280 -77 300 -89 300 -118C300 -141 286 -154 268 -154C244 -154 234 -142 235 -116Z" glyph-name="Tcedilla" horiz-adv-x="562" unicode="&#354;" /><glyph d="M180 526V0H321V526ZM6 527V428H495V527ZM175 -116C168 -165 190 -206 257 -206C307 -206 346 -176 346 -118C346 -53 292 -29 230 -45L250 -47L252 0L216 3L196 -69L216 -82C248 -77 268 -89 268 -118C268 -141 254 -154 236 -154C212 -154 202 -142 203 -116Z" glyph-name="Tcedilla.small" horiz-adv-x="501" /><glyph d="M355 0V689H207V0ZM0 689V580H562V689ZM193 -227 261 -240 342 -56H230Z" glyph-name="Tcommaaccent" horiz-adv-x="562" unicode="&#538;" /><glyph d="M180 526V0H321V526ZM6 527V428H495V527ZM162 -227 230 -240 311 -56H199Z" glyph-name="Tcommaaccent.small" horiz-adv-x="501" /><glyph d="M70 574V0H218V567L141 468H296C372 468 430 429 430 352C430 268 370 234 299 234H144V129H329C470 129 574 202 574 358C574 491 473 574 331 574ZM70 690V0H218V690Z" glyph-name="Thorn" horiz-adv-x="593" unicode="&#222;" /><glyph d="M261 343C322 343 363 317 363 262C363 205 321 181 263 181H203V343ZM203 0V85H291C419 85 505 143 505 263C505 376 420 441 295 441H203V528H60V0Z" glyph-name="Thorn.small" horiz-adv-x="523" /><glyph d="M65 313C65 125 114 -13 345 -13C537 -13 602 127 602 322V690H492V332C492 182 464 110 362 110C253 110 224 187 224 339V690H65Z" glyph-name="U" horiz-adv-x="667" unicode="U" /><glyph d="M59 237C59 92 101 -13 300 -13C462 -13 519 92 519 244V528H412V251C412 136 390 94 315 94C237 94 213 141 213 257V528H59Z" glyph-name="U.small" horiz-adv-x="578" /><glyph d="M65 313C65 125 114 -13 345 -13C537 -13 602 127 602 322V690H492V332C492 182 464 110 362 110C253 110 224 187 224 339V690H65ZM263 765 299 730 505 805 426 901Z" glyph-name="Uacute" horiz-adv-x="667" unicode="&#218;" /><glyph d="M59 237C59 92 101 -13 300 -13C462 -13 519 92 519 244V528H412V251C412 136 390 94 315 94C237 94 213 141 213 257V528H59ZM234 638 286 595 453 754 369 830Z" glyph-name="Uacute.small" horiz-adv-x="571" /><glyph d="M65 313C65 125 114 -13 345 -13C537 -13 602 127 602 322V690H492V332C492 182 464 110 362 110C253 110 224 187 224 339V690H65ZM204 898C197 813 241 738 358 738C474 738 518 813 511 898H466C459 865 438 831 358 831C275 831 256 865 249 898Z" glyph-name="Ubreve" horiz-adv-x="667" unicode="&#364;" /><glyph d="M59 237C59 92 101 -13 300 -13C462 -13 519 92 519 244V528H412V251C412 136 390 94 315 94C237 94 213 141 213 257V528H59ZM309 617C427 617 468 706 461 803H416C409 766 392 714 309 714C226 714 209 766 203 803H157C150 706 191 617 309 617Z" glyph-name="Ubreve.small" horiz-adv-x="571" /><glyph d="M65 313C65 125 114 -13 345 -13C537 -13 602 127 602 322V690H492V332C492 182 464 110 362 110C253 110 224 187 224 339V690H65ZM183 769 215 728 356 802 497 728 530 769 389 897H322Z" glyph-name="Ucircumflex" horiz-adv-x="667" unicode="&#219;" /><glyph d="M59 237C59 92 101 -13 300 -13C462 -13 519 92 519 244V528H412V251C412 136 390 94 315 94C237 94 213 141 213 257V528H59ZM134 636 176 596 307 714 438 596 481 636 345 814H270Z" glyph-name="Ucircumflex.small" horiz-adv-x="571" /><glyph d="M65 313C65 125 114 -13 345 -13C537 -13 602 127 602 322V690H492V332C492 182 464 110 362 110C253 110 224 187 224 339V690H65ZM211 747H324V868H211ZM393 747H506V868H393Z" glyph-name="Udieresis" horiz-adv-x="667" unicode="&#220;" /><glyph d="M59 237C59 92 101 -13 300 -13C462 -13 519 92 519 244V528H412V251C412 136 390 94 315 94C237 94 213 141 213 257V528H59ZM162 655H275V775H162ZM344 655H457V775H344Z" glyph-name="Udieresis.small" horiz-adv-x="571" /><glyph d="M65 313C65 125 114 -13 345 -13C537 -13 602 127 602 322V690H492V332C492 182 464 110 362 110C253 110 224 187 224 339V690H65ZM225 805 431 730 467 765 304 901Z" glyph-name="Ugrave" horiz-adv-x="667" unicode="&#217;" /><glyph d="M59 237C59 92 101 -13 300 -13C462 -13 519 92 519 244V528H412V251C412 136 390 94 315 94C237 94 213 141 213 257V528H59ZM170 754 337 595 389 638 254 830Z" glyph-name="Ugrave.small" horiz-adv-x="571" /><glyph d="M65 313C65 125 114 -13 345 -13C537 -13 602 127 602 322V690H492V332C492 182 464 110 362 110C253 110 224 187 224 339V690H65ZM199 765 248 718 403 848 342 912ZM384 765 433 718 588 848 528 912Z" glyph-name="Uhungarumlaut" horiz-adv-x="667" unicode="&#368;" /><glyph d="M59 237C59 92 101 -13 300 -13C462 -13 519 92 519 244V528H412V251C412 136 390 94 315 94C237 94 213 141 213 257V528H59ZM154 629 220 597 334 791 243 828ZM339 629 406 597 524 780 437 823Z" glyph-name="Uhungarumlaut.small" horiz-adv-x="571" /><glyph d="M65 313C65 125 114 -13 345 -13C537 -13 602 127 602 322V690H492V332C492 182 464 110 362 110C253 110 224 187 224 339V690H65ZM210 862V774H506V862Z" glyph-name="Umacron" horiz-adv-x="667" unicode="&#362;" /><glyph d="M59 237C59 92 101 -13 300 -13C462 -13 519 92 519 244V528H412V251C412 136 390 94 315 94C237 94 213 141 213 257V528H59ZM146 773V685H442V773Z" glyph-name="Umacron.small" horiz-adv-x="571" /><glyph d="M65 313C65 125 114 -13 345 -13C537 -13 602 127 602 322V690H492V332C492 182 464 110 362 110C253 110 224 187 224 339V690H65ZM377 -130C377 -187 409 -218 471 -218C540 -218 562 -171 559 -115H528C528 -135 519 -155 500 -155C475 -155 468 -139 468 -117C468 -58 497 15 540 75L528 77C461 13 377 -45 377 -130Z" glyph-name="Uogonek" horiz-adv-x="667" unicode="&#370;" /><glyph d="M59 237C59 92 101 -13 300 -13C462 -13 519 92 519 244V528H412V251C412 136 390 94 315 94C237 94 213 141 213 257V528H59ZM317 -130C317 -187 349 -218 411 -218C480 -218 502 -171 499 -115H468C468 -135 459 -155 440 -155C415 -155 408 -139 408 -117C408 -58 437 15 480 75L468 77C401 13 317 -45 317 -130Z" glyph-name="Uogonek.small" horiz-adv-x="571" /><glyph d="M65 313C65 125 114 -13 345 -13C537 -13 602 127 602 322V690H492V332C492 182 464 110 362 110C253 110 224 187 224 339V690H65ZM239 828C239 764 289 712 362 712C437 712 486 764 486 828C486 893 437 944 362 944C291 944 239 893 239 828ZM411 818C411 790 390 768 363 768C334 768 314 790 314 818C314 847 334 869 363 869C390 869 411 847 411 818Z" glyph-name="Uring" horiz-adv-x="667" unicode="&#366;" /><glyph d="M59 237C59 92 101 -13 300 -13C462 -13 519 92 519 244V528H412V251C412 136 390 94 315 94C237 94 213 141 213 257V528H59ZM184 738C184 672 234 620 308 620C385 620 434 672 434 738C434 804 385 855 308 855C236 855 184 804 184 738ZM359 727C359 698 337 675 309 675C279 675 258 698 258 727C258 757 279 780 309 780C337 780 359 757 359 727Z" glyph-name="Uring.small" horiz-adv-x="571" /><glyph d="M65 313C65 125 114 -13 345 -13C537 -13 602 127 602 322V690H492V332C492 182 464 110 362 110C253 110 224 187 224 339V690H65ZM440 832C388 832 376 896 294 896C217 896 182 834 214 740H246C239 775 246 804 280 804C335 804 347 740 427 740C504 740 538 806 506 897H474C480 863 474 832 440 832Z" glyph-name="Utilde" horiz-adv-x="667" unicode="&#360;" /><glyph d="M59 237C59 92 101 -13 300 -13C462 -13 519 92 519 244V528H412V251C412 136 390 94 315 94C237 94 213 141 213 257V528H59ZM157 626H188C180 666 187 700 222 700C278 700 287 627 368 627C444 627 478 699 446 799H413C421 759 415 725 381 725C328 725 319 798 234 798C159 798 123 730 157 626Z" glyph-name="Utilde.small" horiz-adv-x="571" /><glyph d="M4 690 239 -1H394L627 690H514L335 147H352L186 690Z" glyph-name="V" horiz-adv-x="624" unicode="V" /><glyph d="M4 528 197 0H345L537 528H421L287 130H306L179 528Z" glyph-name="V.small" horiz-adv-x="541" /><glyph d="M11 690 208 -1H358L496 435H483L620 -1H771L961 690H843L703 158H720L572 689H463L296 131L328 110L179 690Z" glyph-name="W" horiz-adv-x="966" unicode="W" /><glyph d="M6 528 175 0H316L430 312H421L536 0H674L839 528H727L612 140H626L503 526H403L269 115L300 97L174 528Z" glyph-name="W.small" horiz-adv-x="845" /><glyph d="M11 690 208 -1H358L496 435H483L620 -1H771L961 690H843L703 158H720L572 689H463L296 131L328 110L179 690ZM463 765 499 730 705 805 626 901Z" glyph-name="Wacute" horiz-adv-x="966" unicode="&#7810;" /><glyph d="M6 528 175 0H316L430 312H421L536 0H674L839 528H727L612 140H626L503 526H403L269 115L300 97L174 528ZM412 638 464 595 631 754 547 830Z" glyph-name="Wacute.small" horiz-adv-x="845" /><glyph d="M11 690 208 -1H358L496 435H483L620 -1H771L961 690H843L703 158H720L572 689H463L296 131L328 110L179 690ZM350 769 382 728 523 802 664 728 697 769 556 897H489Z" glyph-name="Wcircumflex" horiz-adv-x="966" unicode="&#372;" /><glyph d="M6 528 175 0H316L430 312H421L536 0H674L839 528H727L612 140H626L503 526H403L269 115L300 97L174 528ZM283 636 325 596 456 714 587 596 630 636 494 814H419Z" glyph-name="Wcircumflex.small" horiz-adv-x="845" /><glyph d="M11 690 208 -1H358L496 435H483L620 -1H771L961 690H843L703 158H720L572 689H463L296 131L328 110L179 690ZM365 747H478V868H365ZM547 747H660V868H547Z" glyph-name="Wdieresis" horiz-adv-x="966" unicode="&#7812;" /><glyph d="M6 528 175 0H316L430 312H421L536 0H674L839 528H727L612 140H626L503 526H403L269 115L300 97L174 528ZM309 655H422V775H309ZM491 655H604V775H491Z" glyph-name="Wdieresis.small" horiz-adv-x="845" /><glyph d="M11 690 208 -1H358L496 435H483L620 -1H771L961 690H843L703 158H720L572 689H463L296 131L328 110L179 690ZM356 805 562 730 598 765 435 901Z" glyph-name="Wgrave" horiz-adv-x="966" unicode="&#7808;" /><glyph d="M6 528 175 0H316L430 312H421L536 0H674L839 528H727L612 140H626L503 526H403L269 115L300 97L174 528ZM287 754 454 595 506 638 371 830Z" glyph-name="Wgrave.small" horiz-adv-x="845" /><glyph d="M9 690 221 327 258 296 414 0H612L371 408L341 445L206 690ZM457 690 300 429 247 398 5 0H128L315 323L365 355L579 690Z" glyph-name="X" horiz-adv-x="616" unicode="X" /><glyph d="M21 528 195 248 235 220 358 0H541L342 318L307 351L205 528ZM393 528 275 334 214 310 12 0H136L285 245L345 270L517 528Z" glyph-name="X.small" horiz-adv-x="555" /><glyph d="M364 273 224 276 -7 690H172L333 387H312L468 690H584ZM221 308H369V0H221Z" glyph-name="Y" horiz-adv-x="574" unicode="Y" /><glyph d="M332 196 200 200 5 528H170L302 297H284L410 528H519ZM197 226H340V0H197Z" glyph-name="Y.small" horiz-adv-x="524" /><glyph d="M364 273 224 276 -7 690H172L333 387H312L468 690H584ZM221 308H369V0H221ZM233 765 269 730 475 805 396 901Z" glyph-name="Yacute" horiz-adv-x="574" unicode="&#221;" /><glyph d="M332 196 200 200 5 528H170L302 297H284L410 528H519ZM197 226H340V0H197ZM237 638 289 595 456 754 372 830Z" glyph-name="Yacute.small" horiz-adv-x="517" /><glyph d="M364 273 224 276 -7 690H172L333 387H312L468 690H584ZM221 308H369V0H221ZM145 769 177 728 318 802 459 728 492 769 351 897H284Z" glyph-name="Ycircumflex" horiz-adv-x="574" unicode="&#374;" /><glyph d="M332 196 200 200 5 528H170L302 297H284L410 528H519ZM197 226H340V0H197ZM111 636 153 596 284 714 415 596 458 636 322 814H247Z" glyph-name="Ycircumflex.small" horiz-adv-x="517" /><glyph d="M364 273 224 276 -7 690H172L333 387H312L468 690H584ZM221 308H369V0H221ZM164 747H277V868H164ZM346 747H459V868H346Z" glyph-name="Ydieresis" horiz-adv-x="574" unicode="&#376;" /><glyph d="M332 196 200 200 5 528H170L302 297H284L410 528H519ZM197 226H340V0H197ZM142 655H255V775H142ZM324 655H437V775H324Z" glyph-name="Ydieresis.small" horiz-adv-x="517" /><glyph d="M364 273 224 276 -7 690H172L333 387H312L468 690H584ZM221 308H369V0H221ZM178 805 384 730 420 765 257 901Z" glyph-name="Ygrave" horiz-adv-x="574" unicode="&#7922;" /><glyph d="M332 196 200 200 5 528H170L302 297H284L410 528H519ZM197 226H340V0H197ZM137 754 304 595 356 638 221 830Z" glyph-name="Ygrave.small" horiz-adv-x="517" /><glyph d="M37 100V1H528V107H74L178 50L523 591V689H56V583H494L393 663Z" glyph-name="Z" horiz-adv-x="566" unicode="Z" /><glyph d="M32 87V1H462V93H68L158 43L459 441V527H44V435H431L343 504Z" glyph-name="Z.small" horiz-adv-x="495" /><glyph d="M37 100V1H528V107H74L178 50L523 591V689H56V583H494L393 663ZM202 764 238 729 444 804 365 900Z" glyph-name="Zacute" horiz-adv-x="566" unicode="&#377;" /><glyph d="M32 87V1H462V93H68L158 43L459 441V527H44V435H431L343 504ZM170 638 222 595 389 754 305 830Z" glyph-name="Zacute.small" horiz-adv-x="495" /><glyph d="M37 100V1H528V107H74L178 50L523 591V689H56V583H494L393 663ZM126 859 266 731H333L473 859L441 900L299 827L158 900Z" glyph-name="Zcaron" horiz-adv-x="566" unicode="&#381;" /><glyph d="M32 87V1H462V93H68L158 43L459 441V527H44V435H431L343 504ZM91 784 227 604H302L438 784L394 821L264 703L135 821Z" glyph-name="Zcaron.small" horiz-adv-x="495" /><glyph d="M37 100V1H528V107H74L178 50L523 591V689H56V583H494L393 663ZM220 746H365V869H220Z" glyph-name="Zdotaccent" horiz-adv-x="566" unicode="&#379;" /><glyph d="M32 87V1H462V93H68L158 43L459 441V527H44V435H431L343 504ZM189 653H334V775H189Z" glyph-name="Zdotaccent.small" horiz-adv-x="495" /><glyph d="M295 107C295 13 342 -10 410 -10C439 -10 469 1 479 13L475 33C464 36 458 43 453 50C438 63 428 87 428 151C428 171 428 295 428 317C428 429 365 495 245 495C111 495 58 410 58 316H101C110 357 143 395 200 395C262 395 295 363 295 290C295 247 295 153 295 107ZM29 116C29 45 71 -13 162 -13C294 -13 327 116 327 195H295C295 134 276 77 219 77C183 77 162 97 162 133C162 180 190 208 243 208C270 208 292 201 303 197L306 240C288 256 240 264 207 264C75 264 29 193 29 116Z" glyph-name="a" horiz-adv-x="489" unicode="a" /><glyph d="M183 469C183 412 216 398 260 398C279 398 298 403 304 409L302 422C294 424 290 431 285 438C279 451 276 469 276 498C276 520 276 564 276 590C276 659 235 699 159 699C72 699 38 647 38 590H67C73 611 91 633 126 633C165 633 183 613 183 573C183 547 183 497 183 469ZM17 474C17 431 44 396 103 396C186 396 205 473 205 519H183C183 486 173 456 143 456C122 456 112 467 112 485C112 511 126 526 155 526C172 526 183 522 188 519L190 551C179 560 150 564 130 564C46 564 17 521 17 474Z" glyph-name="a.superior" horiz-adv-x="313" /><glyph d="M295 107C295 13 342 -10 410 -10C439 -10 469 1 479 13L475 33C464 36 458 43 453 50C438 63 428 87 428 151C428 171 428 295 428 317C428 429 365 495 245 495C111 495 58 410 58 316H101C110 357 143 395 200 395C262 395 295 363 295 290C295 247 295 153 295 107ZM29 116C29 45 71 -13 162 -13C294 -13 327 116 327 195H295C295 134 276 77 219 77C183 77 162 97 162 133C162 180 190 208 243 208C270 208 292 201 303 197L306 240C288 256 240 264 207 264C75 264 29 193 29 116ZM179 588 231 545 398 704 314 780Z" glyph-name="aacute" horiz-adv-x="489" unicode="&#225;" /><glyph d="M295 107C295 13 342 -10 410 -10C439 -10 469 1 479 13L475 33C464 36 458 43 453 50C438 63 428 87 428 151C428 171 428 295 428 317C428 429 365 495 245 495C111 495 58 410 58 316H101C110 357 143 395 200 395C262 395 295 363 295 290C295 247 295 153 295 107ZM29 116C29 45 71 -13 162 -13C294 -13 327 116 327 195H295C295 134 276 77 219 77C183 77 162 97 162 133C162 180 190 208 243 208C270 208 292 201 303 197L306 240C288 256 240 264 207 264C75 264 29 193 29 116ZM265 567C383 567 424 656 417 753H372C365 716 348 664 265 664C182 664 165 716 159 753H113C106 656 147 567 265 567Z" glyph-name="abreve" horiz-adv-x="489" unicode="&#259;" /><glyph d="M295 107C295 13 342 -10 410 -10C439 -10 469 1 479 13L475 33C464 36 458 43 453 50C438 63 428 87 428 151C428 171 428 295 428 317C428 429 365 495 245 495C111 495 58 410 58 316H101C110 357 143 395 200 395C262 395 295 363 295 290C295 247 295 153 295 107ZM29 116C29 45 71 -13 162 -13C294 -13 327 116 327 195H295C295 134 276 77 219 77C183 77 162 97 162 133C162 180 190 208 243 208C270 208 292 201 303 197L306 240C288 256 240 264 207 264C75 264 29 193 29 116ZM81 586 123 546 254 664 385 546 428 586 292 764H217Z" glyph-name="acircumflex" horiz-adv-x="489" unicode="&#226;" /><glyph d="M141 588 193 545 360 704 276 780Z" glyph-name="acute" horiz-adv-x="500" unicode="&#180;" /><glyph d="M125 765 161 730 367 805 288 901Z" glyph-name="acute.cap" horiz-adv-x="500" /><glyph d="M295 107C295 13 342 -10 410 -10C439 -10 469 1 479 13L475 33C464 36 458 43 453 50C438 63 428 87 428 151C428 171 428 295 428 317C428 429 365 495 245 495C111 495 58 410 58 316H101C110 357 143 395 200 395C262 395 295 363 295 290C295 247 295 153 295 107ZM29 116C29 45 71 -13 162 -13C294 -13 327 116 327 195H295C295 134 276 77 219 77C183 77 162 97 162 133C162 180 190 208 243 208C270 208 292 201 303 197L306 240C288 256 240 264 207 264C75 264 29 193 29 116ZM110 605H223V725H110ZM292 605H405V725H292Z" glyph-name="adieresis" horiz-adv-x="489" unicode="&#228;" /><glyph d="M305 224C305 81 370 -13 519 -13C640 -13 709 68 709 173H670C665 118 624 80 554 80C458 80 428 146 428 236C428 236 428 256 428 257C429 347 468 393 520 393C577 393 586 354 586 322C586 310 584 294 583 290L365 285L362 234H690C693 251 697 297 697 324C697 416 641 495 518 495C376 495 305 372 305 224ZM407 194V287C407 399 364 495 235 495C107 495 58 410 58 316H96C105 358 137 396 197 396C263 396 295 361 295 290V247C273 258 235 264 207 264C75 264 29 193 29 116C29 45 72 -13 180 -13C328 -13 407 121 407 194ZM219 77C183 77 162 97 162 133C162 180 190 208 243 208C263 208 282 204 295 200V195C295 133 276 77 219 77Z" glyph-name="ae" horiz-adv-x="741" unicode="&#230;" /><glyph d="M305 224C305 81 370 -13 519 -13C640 -13 709 68 709 173H670C665 118 624 80 554 80C458 80 428 146 428 236C428 236 428 256 428 257C429 347 468 393 520 393C577 393 586 354 586 322C586 310 584 294 583 290L365 285L362 234H690C693 251 697 297 697 324C697 416 641 495 518 495C376 495 305 372 305 224ZM407 194V287C407 399 364 495 235 495C107 495 58 410 58 316H96C105 358 137 396 197 396C263 396 295 361 295 290V247C273 258 235 264 207 264C75 264 29 193 29 116C29 45 72 -13 180 -13C328 -13 407 121 407 194ZM219 77C183 77 162 97 162 133C162 180 190 208 243 208C263 208 282 204 295 200V195C295 133 276 77 219 77ZM348 588 400 545 567 704 483 780Z" glyph-name="aeacute" horiz-adv-x="741" unicode="&#509;" /><glyph d="M295 107C295 13 342 -10 410 -10C439 -10 469 1 479 13L475 33C464 36 458 43 453 50C438 63 428 87 428 151C428 171 428 295 428 317C428 429 365 495 245 495C111 495 58 410 58 316H101C110 357 143 395 200 395C262 395 295 363 295 290C295 247 295 153 295 107ZM29 116C29 45 71 -13 162 -13C294 -13 327 116 327 195H295C295 134 276 77 219 77C183 77 162 97 162 133C162 180 190 208 243 208C270 208 292 201 303 197L306 240C288 256 240 264 207 264C75 264 29 193 29 116ZM120 704 287 545 339 588 204 780Z" glyph-name="agrave" horiz-adv-x="489" unicode="&#224;" /><glyph d="M295 107C295 13 342 -10 410 -10C439 -10 469 1 479 13L475 33C464 36 458 43 453 50C438 63 428 87 428 151C428 171 428 295 428 317C428 429 365 495 245 495C111 495 58 410 58 316H101C110 357 143 395 200 395C262 395 295 363 295 290C295 247 295 153 295 107ZM29 116C29 45 71 -13 162 -13C294 -13 327 116 327 195H295C295 134 276 77 219 77C183 77 162 97 162 133C162 180 190 208 243 208C270 208 292 201 303 197L306 240C288 256 240 264 207 264C75 264 29 193 29 116ZM108 723V635H404V723Z" glyph-name="amacron" horiz-adv-x="489" unicode="&#257;" /><glyph d="M324 214C268 325 195 446 195 526C195 651 295 699 401 699C519 699 572 629 572 560C572 441 450 400 341 378C235 357 186 310 186 223C186 138 244 93 321 93C436 93 574 155 591 349H652C652 127 475 -13 299 -13C133 -13 32 61 32 193C32 371 208 400 318 433C398 457 474 481 474 551C474 591 453 618 411 618C367 618 340 590 340 538C340 466 409 369 466 260C539 121 565 72 631 72C669 72 695 92 698 141H746C746 45 694 -13 589 -13C502 -13 418 28 324 214Z" glyph-name="ampersand" horiz-adv-x="764" unicode="&amp;" /><glyph d="M273 158C223 243 164 330 164 399C164 496 253 537 342 537C434 537 479 489 479 425C479 337 390 309 276 282C200 264 163 230 163 171C163 108 207 71 269 71C372 71 484 127 506 272H558C558 111 397 -12 244 -12C105 -12 29 43 29 145C29 269 171 308 265 332C341 351 401 370 401 420C401 450 383 470 352 470C316 470 297 447 297 412C297 366 355 284 403 200C464 95 483 52 539 52C574 52 588 75 591 113H634C634 34 587 -12 498 -12C430 -12 355 18 273 158Z" glyph-name="ampersand.small" horiz-adv-x="650" /><glyph d="M294 -133C294 -182 323 -218 384 -218C454 -218 476 -171 472 -115H443C443 -135 434 -156 413 -156C387 -156 379 -137 379 -116C379 -57 411 -19 460 -1L432 15C373 -15 294 -54 294 -133ZM295 107C295 13 342 -10 410 -10C439 -10 469 1 479 13L475 33C464 36 458 43 453 50C438 63 428 87 428 151C428 171 428 295 428 317C428 429 365 495 245 495C111 495 58 410 58 316H101C110 357 143 395 200 395C262 395 295 363 295 290C295 247 295 153 295 107ZM29 116C29 45 71 -13 162 -13C294 -13 327 116 327 195H295C295 134 276 77 219 77C183 77 162 97 162 133C162 180 190 208 243 208C270 208 292 201 303 197L306 240C288 256 240 264 207 264C75 264 29 193 29 116Z" glyph-name="aogonek" horiz-adv-x="489" unicode="&#261;" /><glyph d="M152 343H85C86 438 124 501 214 501C262 501 292 486 321 471C347 458 371 444 405 444C447 444 463 462 466 501H533C531 404 495 342 405 342C364 342 334 354 308 368C277 383 252 399 214 399C172 399 156 374 152 343ZM152 117H85C86 213 124 275 214 275C258 275 287 262 315 247C344 233 369 218 405 218C447 218 463 237 466 275H533C531 178 495 117 405 117C359 117 329 131 301 145C273 160 249 174 214 174C172 174 156 148 152 117Z" glyph-name="approxequal" horiz-adv-x="603" unicode="&#8776;" /><glyph d="M295 107C295 13 342 -10 410 -10C439 -10 469 1 479 13L475 33C464 36 458 43 453 50C438 63 428 87 428 151C428 171 428 295 428 317C428 429 365 495 245 495C111 495 58 410 58 316H101C110 357 143 395 200 395C262 395 295 363 295 290C295 247 295 153 295 107ZM29 116C29 45 71 -13 162 -13C294 -13 327 116 327 195H295C295 134 276 77 219 77C183 77 162 97 162 133C162 180 190 208 243 208C270 208 292 201 303 197L306 240C288 256 240 264 207 264C75 264 29 193 29 116ZM133 688C133 622 183 570 257 570C334 570 383 622 383 688C383 754 334 805 257 805C185 805 133 754 133 688ZM308 677C308 648 286 625 258 625C228 625 207 648 207 677C207 707 228 730 258 730C286 730 308 707 308 677Z" glyph-name="aring" horiz-adv-x="489" unicode="&#229;" /><glyph d="M295 107C295 13 342 -10 410 -10C439 -10 469 1 479 13L475 33C464 36 458 43 453 50C438 63 428 87 428 151C428 171 428 295 428 317C428 429 365 495 245 495C111 495 58 410 58 316H101C110 357 143 395 200 395C262 395 295 363 295 290C295 247 295 153 295 107ZM29 116C29 45 71 -13 162 -13C294 -13 327 116 327 195H295C295 134 276 77 219 77C183 77 162 97 162 133C162 180 190 208 243 208C270 208 292 201 303 197L306 240C288 256 240 264 207 264C75 264 29 193 29 116ZM129 653C129 587 179 535 253 535C330 535 379 587 379 653C379 719 330 770 253 770C181 770 129 719 129 653ZM304 642C304 613 282 590 254 590C224 590 203 613 203 642C203 672 224 695 254 695C282 695 304 672 304 642ZM143 845 179 810 385 885 306 981Z" glyph-name="aringacute" horiz-adv-x="489" unicode="&#507;" /><glyph d="M235 690H340V58H235ZM238 68 460 305 529 233 288 -9 47 233 116 305 338 68Z" glyph-name="arrowdown" horiz-adv-x="576" unicode="&#8595;" /><glyph d="M574 414 500 490 95 84 170 9ZM85 0H426V101L104 89L174 20L186 341H85Z" glyph-name="arrowdownleft" horiz-adv-x="621" unicode="&#8601;" /><glyph d="M47 414 121 490 526 84 451 9ZM536 0H195V101L517 89L447 20L435 341H536Z" glyph-name="arrowdownright" horiz-adv-x="621" unicode="&#8600;" /><glyph d="M653 315V210H95V315ZM269 503 341 434 104 213 105 312 341 91 269 21 27 262Z" glyph-name="arrowleft" horiz-adv-x="703" unicode="&#8592;" /><glyph d="M50 315V210H608V315ZM434 503 362 434 599 213 598 312 362 91 434 21 676 262Z" glyph-name="arrowright" horiz-adv-x="703" unicode="&#8594;" /><glyph d="M341 0H236V632H341ZM338 622 116 385 47 457 288 699 529 457 460 385 238 622Z" glyph-name="arrowup" horiz-adv-x="576" unicode="&#8593;" /><glyph d="M574 64 500 -12 95 394 170 469ZM85 478H426V377L104 389L174 458L186 137H85Z" glyph-name="arrowupleft" horiz-adv-x="621" unicode="&#8598;" /><glyph d="M47 64 121 -12 526 394 451 469ZM536 478H195V377L517 389L447 458L435 137H536Z" glyph-name="arrowupright" horiz-adv-x="621" unicode="&#8599;" /><glyph d="M239 687 71 413 134 375 284 595H269L418 375L482 413L314 687Z" glyph-name="asciicircum" horiz-adv-x="592" unicode="^" /><glyph d="M206 399C252 399 281 384 309 367C337 351 362 335 397 335C447 335 457 361 459 399H525C524 303 495 227 397 227C352 227 321 243 293 259C266 275 241 291 206 291C157 291 145 258 144 227H77C78 323 108 399 206 399Z" glyph-name="asciitilde" horiz-adv-x="603" unicode="~" /><glyph d="M407 380 265 491 432 483 400 614 258 528 305 690H169L216 528L74 614L42 483L209 491L69 378L181 301L237 467L296 302Z" glyph-name="asterisk" horiz-adv-x="474" unicode="*" /><glyph d="M541 323C541 188 488 64 371 64C288 64 233 119 233 229C233 350 302 474 431 474C516 474 541 418 541 323ZM499 305C499 347 482 380 443 380C375 380 351 294 351 235C351 191 365 159 404 159C463 159 499 230 499 305ZM689 25 741 -41C703 -77 606 -148 447 -148C162 -148 35 18 35 249C35 467 181 684 462 684C696 684 835 540 835 340C835 132 694 63 596 63C520 63 495 101 495 165C495 184 495 206 500 233L528 405L545 463H632L609 330C608 324 593 239 592 232C581 161 589 141 619 141C668 141 739 191 739 340C739 500 643 598 460 598C232 598 134 418 134 249C134 50 247 -63 457 -63C577 -63 656 -6 689 25Z" glyph-name="at" horiz-adv-x="870" unicode="@" /><glyph d="M541 386C541 251 488 127 371 127C288 127 233 182 233 292C233 413 302 537 431 537C516 537 541 481 541 386ZM499 368C499 410 482 443 443 443C375 443 351 357 351 298C351 254 365 222 404 222C463 222 499 293 499 368ZM689 88 741 22C703 -14 606 -85 447 -85C162 -85 35 81 35 312C35 530 181 747 462 747C696 747 835 603 835 403C835 195 694 126 596 126C520 126 495 164 495 228C495 247 495 269 500 296L528 468L545 526H632L609 393C608 387 593 302 592 295C581 224 589 204 619 204C668 204 739 254 739 403C739 563 643 661 460 661C232 661 134 481 134 312C134 113 247 0 457 0C577 0 656 57 689 88Z" glyph-name="at.cap" horiz-adv-x="870" /><glyph d="M482 306C482 190 435 90 336 90C257 90 216 140 216 229C216 328 273 430 385 430C459 430 482 385 482 306ZM447 289C447 324 433 351 399 351C345 351 324 282 324 232C324 197 335 171 369 171C412 171 447 225 447 289ZM531 252C527 229 524 211 524 198C525 172 533 163 552 163C591 163 653 200 653 315C653 448 570 532 412 532C223 532 130 390 130 244C130 79 224 -13 407 -13C508 -13 579 34 608 57L648 -4C616 -35 535 -90 399 -90C147 -90 40 50 40 244C40 431 166 606 414 606C628 606 740 486 740 320C740 146 615 88 531 88C465 88 443 122 443 174C443 189 443 208 447 230L471 378L485 423H561Z" glyph-name="at.small" horiz-adv-x="776" /><glyph d="M295 107C295 13 342 -10 410 -10C439 -10 469 1 479 13L475 33C464 36 458 43 453 50C438 63 428 87 428 151C428 171 428 295 428 317C428 429 365 495 245 495C111 495 58 410 58 316H101C110 357 143 395 200 395C262 395 295 363 295 290C295 247 295 153 295 107ZM29 116C29 45 71 -13 162 -13C294 -13 327 116 327 195H295C295 134 276 77 219 77C183 77 162 97 162 133C162 180 190 208 243 208C270 208 292 201 303 197L306 240C288 256 240 264 207 264C75 264 29 193 29 116ZM101 576H132C124 616 131 650 166 650C222 650 231 577 312 577C388 577 422 649 390 749H357C365 709 359 675 325 675C272 675 263 748 178 748C103 748 67 680 101 576Z" glyph-name="atilde" horiz-adv-x="489" unicode="&#227;" /><glyph d="M180 246C180 72 230 -13 340 -13C450 -13 529 92 529 245C529 415 440 495 340 495C208 495 180 363 180 246ZM386 229C386 148 353 86 294 86C237 86 202 149 202 228C202 339 238 385 293 385C347 385 386 338 386 229ZM61 702V0H180L196 147L202 174V710Z" glyph-name="b" horiz-adv-x="562" unicode="b" /><glyph d="M121 551C121 448 147 396 220 396C289 396 338 459 338 549C338 650 284 699 220 699C134 699 121 617 121 551ZM238 540C238 495 221 462 188 462C154 462 137 499 137 539C137 602 157 625 187 625C219 625 238 600 238 540ZM38 820V404H121L133 489L137 504V826Z" glyph-name="b.superior" horiz-adv-x="359" /><glyph d="M143 710H7L305 -88H441Z" glyph-name="backslash" horiz-adv-x="448" unicode="\" /><glyph d="M200 -153H80V740H200Z" glyph-name="bar" horiz-adv-x="279" unicode="|" /><glyph d="M269 137C269 248 145 261 145 261V249C145 249 269 263 269 374C269 473 259 515 259 603C259 660 283 675 324 675H347V742H278C193 742 115 706 115 611C115 548 125 466 125 374C125 302 62 284 62 284V227C62 227 125 209 125 137C125 45 115 -37 115 -100C115 -195 193 -231 278 -231H347V-165H324C283 -165 259 -150 259 -93C259 -5 269 38 269 137Z" glyph-name="braceleft" horiz-adv-x="374" unicode="{" /><glyph d="M269 202C269 313 145 326 145 326V314C145 314 269 328 269 439C269 538 259 580 259 668C259 725 283 740 324 740H347V807H278C193 807 115 771 115 676C115 613 125 531 125 439C125 367 62 349 62 349V292C62 292 125 274 125 202C125 110 115 28 115 -35C115 -130 193 -166 278 -166H347V-100H324C283 -100 259 -85 259 -28C259 60 269 103 269 202Z" glyph-name="braceleft.cap" horiz-adv-x="374" /><glyph d="M262 143C262 255 138 268 138 268V256C138 256 262 270 262 381C262 429 258 461 258 514C258 571 280 580 310 580H334V647H269C186 647 121 616 121 521C121 463 125 438 125 381C125 309 62 291 62 291V233C62 233 125 215 125 143C125 88 121 61 121 3C121 -92 186 -123 269 -123H334V-56H310C280 -56 258 -47 258 11C258 64 262 98 262 143Z" glyph-name="braceleft.small" horiz-adv-x="359" /><glyph d="M105 374C105 263 229 250 229 250V262C229 262 105 248 105 137C105 38 115 -4 115 -92C115 -149 91 -164 50 -164H27V-231H96C181 -231 259 -195 259 -100C259 -37 249 45 249 137C249 209 312 227 312 227V284C312 284 249 302 249 374C249 466 259 548 259 611C259 706 181 742 96 742H27V676H50C91 676 115 661 115 604C115 516 105 473 105 374Z" glyph-name="braceright" horiz-adv-x="374" unicode="}" /><glyph d="M105 439C105 328 229 315 229 315V327C229 327 105 313 105 202C105 103 115 61 115 -27C115 -84 91 -99 50 -99H27V-166H96C181 -166 259 -130 259 -35C259 28 249 110 249 202C249 274 312 292 312 292V349C312 349 249 367 249 439C249 531 259 613 259 676C259 771 181 807 96 807H27V741H50C91 741 115 726 115 669C115 581 105 538 105 439Z" glyph-name="braceright.cap" horiz-adv-x="374" /><glyph d="M97 143C97 255 221 268 221 268V256C221 256 97 270 97 381C97 429 101 461 101 514C101 571 79 580 49 580H25V647H90C173 647 238 616 238 521C238 463 234 438 234 381C234 309 297 291 297 291V233C297 233 234 215 234 143C234 88 238 61 238 3C238 -92 173 -123 90 -123H25V-56H49C79 -56 101 -47 101 11C101 64 97 98 97 143Z" glyph-name="braceright.small" horiz-adv-x="359" /><glyph d="M219 672H324V745H85V-194H324V-121H219L225 -127V678Z" glyph-name="bracketleft" horiz-adv-x="343" unicode="[" /><glyph d="M219 745H324V818H85V-121H324V-48H219L225 -54V751Z" glyph-name="bracketleft.cap" horiz-adv-x="343" /><glyph d="M219 578H324V651H85V-133H324V-60H219L225 -66V584Z" glyph-name="bracketleft.small" horiz-adv-x="343" /><glyph d="M124 -121H19V-194H258V745H19V672H124L118 678V-127Z" glyph-name="bracketright" horiz-adv-x="343" unicode="]" /><glyph d="M124 -48H19V-121H258V818H19V745H124L118 751V-54Z" glyph-name="bracketright.cap" horiz-adv-x="343" /><glyph d="M124 -60H19V-133H258V651H19V578H124L118 584V-66Z" glyph-name="bracketright.small" horiz-adv-x="343" /><glyph d="M250 567C368 567 409 656 402 753H357C350 716 333 664 250 664C167 664 150 716 144 753H98C91 656 132 567 250 567Z" glyph-name="breve" horiz-adv-x="500" unicode="&#728;" /><glyph d="M97 898C90 813 134 738 251 738C367 738 411 813 404 898H359C352 865 331 831 251 831C168 831 149 865 142 898Z" glyph-name="breve.cap" horiz-adv-x="500" /><glyph d="M200 417H80V740H200ZM200 -153H80V170H200Z" glyph-name="brokenbar" horiz-adv-x="279" unicode="&#166;" /><glyph d="M197 167C283 167 353 229 353 323C353 415 283 478 197 478C112 478 42 415 42 323C42 229 112 167 197 167Z" glyph-name="bullet" horiz-adv-x="395" unicode="&#8226;" /><glyph d="M32 227C32 42 152 -13 258 -13C379 -13 441 67 441 171H399C388 112 351 81 292 81C221 81 176 137 176 236C176 321 211 389 279 389C337 389 357 354 363 315H424C427 329 428 343 427 359C423 424 381 495 258 495C121 495 32 375 32 227Z" glyph-name="c" horiz-adv-x="471" unicode="c" /><glyph d="M21 540C21 428 98 396 165 396C243 396 282 444 282 507H253C247 474 225 458 191 458C145 458 122 490 122 544C122 591 140 629 179 629C212 629 225 611 228 589H271C273 597 274 606 274 617C272 656 245 699 165 699C76 699 21 629 21 540Z" glyph-name="c.superior" horiz-adv-x="300" /><glyph d="M32 227C32 42 152 -13 258 -13C379 -13 441 67 441 171H399C388 112 351 81 292 81C221 81 176 137 176 236C176 321 211 389 279 389C337 389 357 354 363 315H424C427 329 428 343 427 359C423 424 381 495 258 495C121 495 32 375 32 227ZM170 588 222 545 389 704 305 780Z" glyph-name="cacute" horiz-adv-x="471" unicode="&#263;" /><glyph d="M81 734 217 554H292L428 734L384 771L254 653L125 771Z" glyph-name="caron" horiz-adv-x="500" unicode="&#711;" /><glyph d="M77 859 217 731H284L424 859L392 900L250 827L109 900Z" glyph-name="caron.cap" horiz-adv-x="500" /><glyph d="M190 500H268L324 710H209Z" glyph-name="caronSlovak" horiz-adv-x="500" /><glyph d="M32 227C32 42 152 -13 258 -13C379 -13 441 67 441 171H399C388 112 351 81 292 81C221 81 176 137 176 236C176 321 211 389 279 389C337 389 357 354 363 315H424C427 329 428 343 427 359C423 424 381 495 258 495C121 495 32 375 32 227ZM90 734 226 554H301L437 734L393 771L263 653L134 771Z" glyph-name="ccaron" horiz-adv-x="472" unicode="&#269;" /><glyph d="M32 227C32 42 152 -13 258 -13C379 -13 441 67 441 171H399C388 112 351 81 292 81C221 81 176 137 176 236C176 321 211 389 279 389C337 389 357 354 363 315H424C427 329 428 343 427 359C423 424 381 495 258 495C121 495 32 375 32 227ZM181 -116C174 -165 196 -206 263 -206C313 -206 352 -176 352 -118C352 -53 298 -29 236 -45L256 -47L258 0L222 3L202 -69L222 -82C254 -77 274 -89 274 -118C274 -141 260 -154 242 -154C218 -154 208 -142 209 -116Z" glyph-name="ccedilla" horiz-adv-x="471" unicode="&#231;" /><glyph d="M32 227C32 42 152 -13 258 -13C379 -13 441 67 441 171H399C388 112 351 81 292 81C221 81 176 137 176 236C176 321 211 389 279 389C337 389 357 354 363 315H424C427 329 428 343 427 359C423 424 381 495 258 495C121 495 32 375 32 227ZM92 586 134 546 265 664 396 546 439 586 303 764H228Z" glyph-name="ccircumflex" horiz-adv-x="471" unicode="&#265;" /><glyph d="M32 227C32 42 152 -13 258 -13C379 -13 441 67 441 171H399C388 112 351 81 292 81C221 81 176 137 176 236C176 321 211 389 279 389C337 389 357 354 363 315H424C427 329 428 343 427 359C423 424 381 495 258 495C121 495 32 375 32 227ZM192 603H337V725H192Z" glyph-name="cdotaccent" horiz-adv-x="471" unicode="&#267;" /><glyph d="M178 -116C171 -165 193 -206 260 -206C310 -206 349 -176 349 -118C349 -53 295 -29 233 -45L253 -47L255 0L219 3L199 -69L219 -82C251 -77 271 -89 271 -118C271 -141 257 -154 239 -154C215 -154 205 -142 206 -116Z" glyph-name="cedilla" horiz-adv-x="500" unicode="&#184;" /><glyph d="M84 332C84 148 206 93 312 93C433 93 500 172 500 277H458C448 217 404 188 349 188C272 188 228 242 228 341C228 426 263 494 334 494C395 494 417 459 421 420H483C486 433 487 446 486 461C483 527 437 601 309 601C171 601 84 480 84 332ZM355 586V690H268V586ZM355 0V118H268V0Z" glyph-name="cent" horiz-adv-x="596" unicode="&#162;" /><glyph d="M392 283 50 635V440L387 94L720 437V631L382 283Z" glyph-name="chevrondown" horiz-adv-x="770" /><glyph d="M209 338 523 690H336L27 343L333 0H519L209 348Z" glyph-name="chevronleft" horiz-adv-x="577" /><glyph d="M368 338 54 690H241L550 343L244 0H58L368 348Z" glyph-name="chevronright" horiz-adv-x="577" /><glyph d="M378 444 720 92V287L383 633L50 290V96L388 444Z" glyph-name="chevronup" horiz-adv-x="770" /><glyph d="M77 586 119 546 250 664 381 546 424 586 288 764H213Z" glyph-name="circumflex" horiz-adv-x="500" unicode="&#710;" /><glyph d="M77 769 109 728 250 802 391 728 424 769 283 897H216Z" glyph-name="circumflex.cap" horiz-adv-x="500" /><glyph d="M65 66C65 25 95 -13 144 -13C190 -13 218 25 218 66C218 103 190 141 144 141C95 141 65 103 65 66ZM65 412C65 371 95 333 144 333C190 333 218 371 218 412C218 449 190 487 144 487C95 487 65 449 65 412Z" glyph-name="colon" horiz-adv-x="283" unicode=":" /><glyph d="M55 -138 82 -177C135 -153 220 -61 220 56C220 103 193 139 141 139C98 139 66 107 66 64C66 17 92 -8 140 -8C134 -59 91 -115 55 -138Z" glyph-name="comma" horiz-adv-x="283" unicode="," /><glyph d="M131 -227 199 -240 280 -56H168Z" glyph-name="commaaccent" horiz-adv-x="500" /><glyph d="M153 563H262L298 732L229 745Z" glyph-name="commaaccent.alt" horiz-adv-x="500" /><glyph d="M385 -14C579 -14 730 125 730 343C730 562 579 698 385 698C192 698 41 562 41 343C41 125 178 -14 385 -14ZM386 57C214 57 122 179 122 343C122 511 225 627 386 627C546 627 652 508 652 343C652 173 546 57 386 57ZM483 393H532C535 403 536 412 536 421C536 474 499 533 397 533C289 533 217 458 217 332C217 185 315 152 399 152C497 152 545 214 545 292H512C504 248 474 227 431 227C378 227 345 266 345 338C345 402 372 446 420 446C461 446 479 424 483 393Z" glyph-name="copyright" horiz-adv-x="771" unicode="&#169;" /><glyph d="M292 92C179 92 96 180 96 288C96 396 179 483 292 483C407 483 488 396 488 288C488 180 407 92 292 92ZM293 197C345 197 379 238 379 288C379 337 345 377 293 377C240 377 207 337 207 288C207 238 240 197 293 197ZM217 428 154 365 61 460 124 523ZM61 128 153 223 216 160 124 65ZM371 428 464 523 528 460 434 365ZM528 128 464 65 372 160 435 223Z" glyph-name="currency" horiz-adv-x="588" unicode="&#164;" /><glyph d="M32 239C32 68 122 -13 221 -13C353 -13 382 82 382 237C382 395 332 495 221 495C111 495 32 391 32 239ZM360 243C360 132 324 85 269 85C215 85 176 133 176 242C176 323 209 384 268 384C325 384 360 323 360 243ZM373 155 390 0H501V710L360 702V198Z" glyph-name="d" horiz-adv-x="562" unicode="d" /><glyph d="M21 546C21 445 75 396 139 396C223 396 237 453 237 544C237 636 212 699 138 699C70 699 21 636 21 546ZM223 548C223 486 202 462 173 462C141 462 122 488 122 548C122 591 138 624 173 624C206 624 223 589 223 548ZM232 499 244 404H322V826L223 820V524Z" glyph-name="d.superior" horiz-adv-x="359" /><glyph d="M206 -72C172 19 147 188 130 284L204 476L136 690H329L261 476L326 284C309 188 284 19 249 -72ZM431 554V389L233 465L35 389V554L233 486Z" glyph-name="dagger" horiz-adv-x="466" unicode="&#8224;" /><glyph d="M136 -72 204 142 135 308 204 477 136 690H329L261 477L330 308L261 142L329 -72ZM431 555V390L233 465L35 390V555L233 487ZM431 229V63L233 131L35 63V229L233 153Z" glyph-name="daggerdbl" horiz-adv-x="466" unicode="&#8225;" /><glyph d="M32 239C32 68 122 -13 221 -13C353 -13 382 82 382 237C382 395 332 495 221 495C111 495 32 391 32 239ZM360 243C360 132 324 85 269 85C215 85 176 133 176 242C176 323 209 384 268 384C325 384 360 323 360 243ZM373 155 390 0H501V710L360 702V198ZM570 500H648L704 710H589Z" glyph-name="dcaron" horiz-adv-x="692" unicode="&#271;" /><glyph d="M219 632V567H568V632ZM32 239C32 68 122 -13 221 -13C353 -13 382 82 382 237C382 395 332 495 221 495C111 495 32 391 32 239ZM360 243C360 132 324 85 269 85C215 85 176 133 176 242C176 323 209 384 268 384C325 384 360 323 360 243ZM373 155 390 0H501V710L360 702V198Z" glyph-name="dcroat" horiz-adv-x="574" unicode="&#273;" /><glyph d="M198 386C93 386 35 449 35 538C35 626 93 690 198 690C303 690 361 626 361 538C361 449 303 386 198 386ZM198 463C235 463 265 489 265 538C265 587 235 614 198 614C162 614 132 586 132 538C132 489 162 463 198 463Z" glyph-name="degree" horiz-adv-x="396" unicode="&#176;" /><glyph d="M103 605H216V725H103ZM285 605H398V725H285Z" glyph-name="dieresis" horiz-adv-x="500" unicode="&#168;" /><glyph d="M103 747H216V868H103ZM285 747H398V868H285Z" glyph-name="dieresis.cap" horiz-adv-x="500" /><glyph d="M523 369H80V257H523ZM231.8119 98.8119C231.8119 58.3239 259.4174 27.0376 304.5064 27.0376C346.8349 27.0376 372.6 57.4037 372.6 98.8119C372.6 134.6991 345.9147 168.7459 303.5863 168.7459C258.4973 168.7459 231.8119 135.6193 231.8119 98.8119ZM231.8119 530.8119C231.8119 490.3239 259.4174 459.0376 304.5064 459.0376C346.8349 459.0376 372.6 489.4037 372.6 530.8119C372.6 566.6991 345.9147 600.7459 303.5863 600.7459C258.4973 600.7459 231.8119 567.6193 231.8119 530.8119Z" glyph-name="divide" horiz-adv-x="603" unicode="&#247;" /><glyph d="M464 473H529C529 598 451 683 299 683C157 683 67 603 67 483C67 363 139 315 230 286C316 257 383 236 383 173C383 117 341 87 274 87C189 87 120 121 109 204H49C49 66 136 -13 298 -13C442 -13 548 63 548 190C548 314 460 364 362 394C283 417 225 442 225 497C225 552 264 581 332 581C397 581 459 546 464 473ZM339 613V755H251V613ZM339 -91V42H251V-91Z" glyph-name="dollar" horiz-adv-x="603" unicode="$" /><glyph d="M178 603H323V725H178Z" glyph-name="dotaccent" horiz-adv-x="500" unicode="&#729;" /><glyph d="M178 746H323V869H178Z" glyph-name="dotaccent.cap" horiz-adv-x="500" /><glyph d="M63 478V0H203V485Z" glyph-name="dotlessi" horiz-adv-x="266" unicode="&#305;" /><glyph d="M-34 -112C-34 -165 -24 -249 75 -249C181 -249 219 -173 219 -22V166V485L78 478V101C78 46 85 -53 85 -83C85 -135 70 -155 43 -155C14 -155 4 -137 0 -112Z" glyph-name="dotlessj" horiz-adv-x="281" unicode="&#567;" /><glyph d="M32 224C32 71 113 -13 262 -13C383 -13 452 68 452 173H411C404 119 366 80 296 80C202 80 171 146 171 236C171 236 171 256 171 257C172 347 211 393 263 393C320 393 329 354 329 322C329 310 327 294 326 290L107 285L105 234H433C436 251 440 297 440 324C440 416 384 495 255 495C121 495 32 372 32 224Z" glyph-name="e" horiz-adv-x="485" unicode="e" /><glyph d="M21 538C21 448 73 396 167 396C246 396 289 446 289 507H260C257 478 231 456 192 456C137 456 117 495 117 545C117 546 117 555 117 556C117 605 140 633 169 633C199 633 203 611 203 593C203 586 202 577 201 574L73 571L71 538H277C280 548 282 576 282 593C282 650 245 699 164 699C77 699 21 625 21 538Z" glyph-name="e.superior" horiz-adv-x="309" /><glyph d="M32 224C32 71 113 -13 262 -13C383 -13 452 68 452 173H411C404 119 366 80 296 80C202 80 171 146 171 236C171 236 171 256 171 257C172 347 211 393 263 393C320 393 329 354 329 322C329 310 327 294 326 290L107 285L105 234H433C436 251 440 297 440 324C440 416 384 495 255 495C121 495 32 372 32 224ZM188 588 240 545 407 704 323 780Z" glyph-name="eacute" horiz-adv-x="485" unicode="&#233;" /><glyph d="M32 224C32 71 113 -13 262 -13C383 -13 452 68 452 173H411C404 119 366 80 296 80C202 80 171 146 171 236C171 236 171 256 171 257C172 347 211 393 263 393C320 393 329 354 329 322C329 310 327 294 326 290L107 285L105 234H433C436 251 440 297 440 324C440 416 384 495 255 495C121 495 32 372 32 224ZM267 567C385 567 426 656 419 753H374C367 716 350 664 267 664C184 664 167 716 161 753H115C108 656 149 567 267 567Z" glyph-name="ebreve" horiz-adv-x="485" unicode="&#277;" /><glyph d="M32 224C32 71 113 -13 262 -13C383 -13 452 68 452 173H411C404 119 366 80 296 80C202 80 171 146 171 236C171 236 171 256 171 257C172 347 211 393 263 393C320 393 329 354 329 322C329 310 327 294 326 290L107 285L105 234H433C436 251 440 297 440 324C440 416 384 495 255 495C121 495 32 372 32 224ZM84 734 220 554H295L431 734L387 771L257 653L128 771Z" glyph-name="ecaron" horiz-adv-x="485" unicode="&#283;" /><glyph d="M32 224C32 71 113 -13 262 -13C383 -13 452 68 452 173H411C404 119 366 80 296 80C202 80 171 146 171 236C171 236 171 256 171 257C172 347 211 393 263 393C320 393 329 354 329 322C329 310 327 294 326 290L107 285L105 234H433C436 251 440 297 440 324C440 416 384 495 255 495C121 495 32 372 32 224ZM92 586 134 546 265 664 396 546 439 586 303 764H228Z" glyph-name="ecircumflex" horiz-adv-x="485" unicode="&#234;" /><glyph d="M32 224C32 71 113 -13 262 -13C383 -13 452 68 452 173H411C404 119 366 80 296 80C202 80 171 146 171 236C171 236 171 256 171 257C172 347 211 393 263 393C320 393 329 354 329 322C329 310 327 294 326 290L107 285L105 234H433C436 251 440 297 440 324C440 416 384 495 255 495C121 495 32 372 32 224ZM118 605H231V725H118ZM300 605H413V725H300Z" glyph-name="edieresis" horiz-adv-x="485" unicode="&#235;" /><glyph d="M32 224C32 71 113 -13 262 -13C383 -13 452 68 452 173H411C404 119 366 80 296 80C202 80 171 146 171 236C171 236 171 256 171 257C172 347 211 393 263 393C320 393 329 354 329 322C329 310 327 294 326 290L107 285L105 234H433C436 251 440 297 440 324C440 416 384 495 255 495C121 495 32 372 32 224ZM193 603H338V725H193Z" glyph-name="edotaccent" horiz-adv-x="485" unicode="&#279;" /><glyph d="M32 224C32 71 113 -13 262 -13C383 -13 452 68 452 173H411C404 119 366 80 296 80C202 80 171 146 171 236C171 236 171 256 171 257C172 347 211 393 263 393C320 393 329 354 329 322C329 310 327 294 326 290L107 285L105 234H433C436 251 440 297 440 324C440 416 384 495 255 495C121 495 32 372 32 224ZM130 704 297 545 349 588 214 780Z" glyph-name="egrave" horiz-adv-x="485" unicode="&#232;" /><glyph d="M297 -13C468 -13 551 62 551 182C551 304 455 364 326 364V343C462 343 531 404 531 507C531 610 458 683 296 683C134 683 63 610 63 507C63 404 132 343 268 343V364C139 364 43 304 43 182C43 61 125 -13 297 -13ZM297 100C234 100 193 135 193 204C193 272 237 307 297 307C361 307 401 273 401 204C401 136 356 100 297 100ZM297 394C235 394 205 428 205 484C205 533 235 570 297 570C359 570 389 533 389 484C389 428 359 394 297 394Z" glyph-name="eight" horiz-adv-x="594" unicode="8" /><glyph d="M290 286V267C410 268 466 315 466 395C466 475 405 537 261 537C117 537 58 475 58 395C58 315 114 268 234 267V286C115 284 41 232 41 141C41 52 105 -13 262 -13C419 -13 483 52 483 141C483 233 408 285 290 286ZM262 312C211 312 195 340 195 374C195 407 215 435 262 435C308 435 328 407 328 374C328 340 313 312 262 312ZM262 87C210 87 186 118 186 161C186 205 211 234 262 234C317 234 338 205 338 161C338 119 312 87 262 87Z" glyph-name="eight.small" horiz-adv-x="523" /><glyph d="M290 286V267C410 268 466 315 466 395C466 475 405 537 261 537C117 537 58 475 58 395C58 315 114 268 234 267V286C115 284 41 232 41 141C41 52 105 -13 262 -13C419 -13 483 52 483 141C483 233 408 285 290 286ZM262 312C211 312 195 340 195 374C195 407 215 435 262 435C308 435 328 407 328 374C328 340 313 312 262 312ZM262 87C210 87 186 118 186 161C186 205 211 234 262 234C317 234 338 205 338 161C338 119 312 87 262 87Z" glyph-name="eight.small_tab" horiz-adv-x="523" /><glyph d="M302 -13C473 -13 556 62 556 182C556 304 460 364 331 364V343C467 343 536 404 536 507C536 610 463 683 301 683C139 683 68 610 68 507C68 404 137 343 273 343V364C144 364 48 304 48 182C48 61 130 -13 302 -13ZM302 100C239 100 198 135 198 204C198 272 242 307 302 307C366 307 406 273 406 204C406 136 361 100 302 100ZM302 394C240 394 210 428 210 484C210 533 240 570 302 570C364 570 394 533 394 484C394 428 364 394 302 394Z" glyph-name="eight.tab" horiz-adv-x="603" /><glyph d="M186 -106C297 -106 348 -60 348 11C348 84 288 121 205 121V108C292 108 336 144 336 206C336 267 290 313 185 313C80 313 36 267 36 206C36 144 79 108 166 108V121C84 121 24 84 24 11C24 -60 75 -106 186 -106ZM186 -29C151 -29 130 -10 130 27C130 63 153 84 186 84C222 84 242 63 242 27C242 -10 219 -29 186 -29ZM186 140C151 140 137 162 137 190C137 215 152 236 186 236C220 236 235 215 235 190C235 162 221 140 186 140Z" glyph-name="eightinferior" horiz-adv-x="373" unicode="&#8328;" /><glyph d="M186 398C297 398 348 444 348 515C348 588 288 625 205 625V612C292 612 336 648 336 710C336 771 290 817 185 817C80 817 36 771 36 710C36 648 79 612 166 612V625C84 625 24 588 24 515C24 444 75 398 186 398ZM186 475C151 475 130 494 130 531C130 567 153 588 186 588C222 588 242 567 242 531C242 494 219 475 186 475ZM186 644C151 644 137 666 137 694C137 719 152 740 186 740C220 740 235 719 235 694C235 666 221 644 186 644Z" glyph-name="eightsuperior" horiz-adv-x="373" unicode="&#8312;" /><glyph d="M65 65C65 21 95 -13 144 -13C190 -13 218 20 218 65C218 104 189 141 143 141C94 141 65 105 65 65ZM306 65C306 21 336 -13 385 -13C431 -13 459 20 459 65C459 104 430 141 384 141C335 141 306 105 306 65ZM546 65C546 21 576 -13 625 -13C671 -13 699 20 699 65C699 104 670 141 624 141C575 141 546 105 546 65Z" glyph-name="ellipsis" horiz-adv-x="764" unicode="&#8230;" /><glyph d="M32 224C32 71 113 -13 262 -13C383 -13 452 68 452 173H411C404 119 366 80 296 80C202 80 171 146 171 236C171 236 171 256 171 257C172 347 211 393 263 393C320 393 329 354 329 322C329 310 327 294 326 290L107 285L105 234H433C436 251 440 297 440 324C440 416 384 495 255 495C121 495 32 372 32 224ZM117 723V635H413V723Z" glyph-name="emacron" horiz-adv-x="485" unicode="&#275;" /><glyph d="M30 338V228H970V338Z" glyph-name="emdash" horiz-adv-x="1000" unicode="&#8212;" /><glyph d="M30 423V313H970V423Z" glyph-name="emdash.cap" horiz-adv-x="1000" /><glyph d="M30 361V251H568V361Z" glyph-name="endash" horiz-adv-x="599" unicode="&#8211;" /><glyph d="M30 453V343H568V453Z" glyph-name="endash.cap" horiz-adv-x="598" /><glyph d="M356 -212C462 -212 500 -136 500 15V305C500 420 467 495 350 495C242 495 205 421 194 329L180 485L60 478V0H200V166C200 310 228 378 288 378C339 378 359 345 359 238V138C359 56 369 -3 369 -47C369 -99 354 -119 325 -119C293 -119 283 -104 280 -80H249C249 -132 257 -212 356 -212Z" glyph-name="eng" horiz-adv-x="554" unicode="&#331;" /><glyph d="M32 224C32 71 113 -13 262 -13C383 -13 452 68 452 173H411C404 119 366 80 296 80C202 80 171 146 171 236C171 236 171 256 171 257C172 347 211 393 263 393C320 393 329 354 329 322C329 310 327 294 326 290L107 285L105 234H433C436 251 440 297 440 324C440 416 384 495 255 495C121 495 32 372 32 224ZM264 -130C264 -187 296 -218 358 -218C427 -218 449 -171 446 -115H415C415 -135 406 -155 387 -155C362 -155 355 -139 355 -117C355 -58 384 15 427 75L415 77C348 13 264 -45 264 -130Z" glyph-name="eogonek" horiz-adv-x="485" unicode="&#281;" /><glyph d="M523 253H80V141H523ZM523 485H80V373H523Z" glyph-name="equal" horiz-adv-x="603" unicode="=" /><glyph d="M709 281V301C709 469 578 607 380 607C180 607 50 469 50 301C50 135 172 -5 380 -5C533 -5 621 52 673 125L648 146C587 64 509 26 380 26C288 26 226 52 181 94V281ZM380 576C465 576 532 550 579 506V309H181V506C228 551 293 576 380 576Z" glyph-name="estimated" horiz-adv-x="760" unicode="&#8494;" /><glyph d="M268 84C197 84 173 152 173 226C173 304 199 371 266 371C330 371 359 306 359 226C359 134 321 84 268 84ZM265 -13C406 -13 499 78 499 258C499 499 366 638 178 710L101 662C232 610 338 511 360 379L357 378C326 451 278 478 213 478C107 478 32 384 32 233C32 82 121 -13 265 -13ZM317 709 123 523H191L384 709Z" glyph-name="eth" horiz-adv-x="531" unicode="&#240;" /><glyph d="M210 200 233 690H70L93 200ZM75 59C75 15 104 -13 154 -13C199 -13 228 15 228 59C228 101 199 128 154 128C104 128 75 101 75 59Z" glyph-name="exclam" horiz-adv-x="303" unicode="!" /><glyph d="M202 195 217 528H77L92 195ZM74 59C74 15 104 -13 149 -13C190 -13 219 15 219 59C219 101 190 128 149 128C104 128 74 101 74 59Z" glyph-name="exclam.small" horiz-adv-x="293" /><glyph d="M93 275 70 -215H233L210 275ZM228 416C228 460 199 488 149 488C104 488 75 460 75 416C75 374 104 347 149 347C199 347 228 374 228 416Z" glyph-name="exclamdown" horiz-adv-x="303" unicode="&#161;" /><glyph d="M93 490 70 0H233L210 490ZM228 631C228 675 199 703 149 703C104 703 75 675 75 631C75 589 104 562 149 562C199 562 228 589 228 631Z" glyph-name="exclamdown.cap" horiz-adv-x="303" /><glyph d="M91 333 76 0H216L201 333ZM219 469C219 513 189 541 144 541C103 541 74 513 74 469C74 427 103 400 144 400C189 400 219 427 219 469Z" glyph-name="exclamdown.small" horiz-adv-x="436" /><glyph d="M75 0H215V360C215 488 193 500 193 549C193 588 214 616 259 616C300 616 317 594 320 569H354C358 587 358 602 357 617C352 670 314 710 234 710C135 710 89 646 75 566C70 522 75 491 75 437ZM7 462V413H324V478H78Z" glyph-name="f" horiz-adv-x="317" unicode="f" /><glyph d="M45 404H143V614C143 692 130 697 130 725C130 748 143 764 170 764C195 764 205 750 206 736H229C231 747 232 756 231 765C230 800 204 826 151 826C89 826 56 787 47 738C43 715 45 692 45 663ZM5 676V642H210V686H50Z" glyph-name="f.superior" horiz-adv-x="207" /><glyph d="M75 0H215V360C215 488 193 500 193 549C193 588 211 616 253 616C290 616 304 594 307 569H338C342 587 343 602 341 617C336 667 308 711 228 711C124 711 80 637 72 554C70 514 75 488 75 437ZM7 462V413H424V478H77ZM377 478V0H517V485ZM387 603H522V725H387Z" glyph-name="fi" horiz-adv-x="584" unicode="&#64257;" /><glyph d="M70 689V0H218V689ZM429 290V395H128V290ZM486 583V689H128V583ZM564 690V0H712V690Z" glyph-name="fi.cap" horiz-adv-x="784" /><glyph d="M134 560H489V673H85L68 316L140 288C153 307 190 344 258 344C328 344 380 307 380 230C380 154 332 107 256 107C182 107 134 143 127 209H53C39 44 163 -13 292 -13C443 -13 530 82 530 235C530 367 455 443 328 443C195 443 155 339 155 339L188 333L211 658Z" glyph-name="five" horiz-adv-x="573" unicode="5" /><glyph d="M440 425V527H87L70 243L139 218C152 234 183 259 231 259C285 259 327 235 327 179C327 126 289 94 231 94C177 94 137 117 129 167H58C47 29 157 -13 266 -13C397 -13 472 62 472 183C472 288 407 346 299 346C189 346 154 262 154 262L186 257L209 515L134 425Z" glyph-name="five.small" horiz-adv-x="523" /><glyph d="M440 425V527H87L70 243L139 218C152 234 183 259 231 259C285 259 327 235 327 179C327 126 289 94 231 94C177 94 137 117 129 167H58C47 29 157 -13 266 -13C397 -13 472 62 472 183C472 288 407 346 299 346C189 346 154 262 154 262L186 257L209 515L134 425Z" glyph-name="five.small_tab" horiz-adv-x="523" /><glyph d="M146 560H501V673H97L80 316L152 288C165 307 202 344 270 344C340 344 392 307 392 230C392 154 344 107 268 107C194 107 146 143 139 209H65C51 44 175 -13 304 -13C455 -13 542 82 542 235C542 367 467 443 340 443C207 443 167 339 167 339L200 333L223 658Z" glyph-name="five.tab" horiz-adv-x="603" /><glyph d="M86 225H307V304H50L39 86L89 67C99 80 120 99 159 99C196 99 227 81 227 38C227 -3 200 -28 156 -28C116 -28 87 -9 82 28H29C21 -77 102 -109 182 -109C278 -109 333 -52 333 42C333 121 286 166 207 166C124 166 101 101 101 101L123 98L140 294Z" glyph-name="fiveinferior" horiz-adv-x="359" unicode="&#8325;" /><glyph d="M86 729H307V808H50L39 590L89 571C99 584 120 603 159 603C196 603 227 585 227 542C227 501 200 476 156 476C116 476 87 495 82 532H29C21 427 102 395 182 395C278 395 333 452 333 546C333 625 286 670 207 670C124 670 101 605 101 605L123 602L140 798Z" glyph-name="fivesuperior" horiz-adv-x="359" unicode="&#8309;" /><glyph d="M75 0H215V360C215 488 193 500 193 549C193 588 211 616 253 616C290 616 304 594 307 569H338C342 587 343 602 341 617C336 667 308 711 228 711C122 711 78 634 71 549C69 510 75 486 75 437ZM7 462V413H317V478H77ZM390 702V0H531V710Z" glyph-name="fl" horiz-adv-x="593" unicode="&#64258;" /><glyph d="M70 689V0H218V689ZM429 290V395H128V290ZM486 583V689H128V583ZM564 690V1H712V690ZM622 111V1H998V111Z" glyph-name="fl.cap" horiz-adv-x="1008" /><glyph d="M490 408H146V329H490ZM258 481 199 128C181 21 164 -26 108 -26C74 -26 57 -7 49 8L9 -16C11 -60 48 -120 135 -120C262 -120 310 -22 327 82L386 435C402 542 421 588 477 588C510 588 526 570 534 555L575 578C573 622 536 683 450 683C323 683 275 585 258 481Z" glyph-name="florin" horiz-adv-x="603" unicode="&#402;" /><glyph d="M330 593V0H475V675H334L27 263V168H581V278H71L82 195L379 593Z" glyph-name="four" horiz-adv-x="603" unicode="4" /><glyph d="M279 0H419V528H282L19 209V125H502V223H62L70 148L323 455H279Z" glyph-name="four.small" horiz-adv-x="523" /><glyph d="M279 0H419V528H282L19 209V125H502V223H62L70 148L323 455H279Z" glyph-name="four.small_tab" horiz-adv-x="523" /><glyph d="M330 593V0H475V675H334L27 263V168H581V278H71L82 195L379 593Z" glyph-name="four.tab" horiz-adv-x="603" /><glyph d="M201 249V-100H303V304H204L14 61V-4H365V71H46L52 14L234 249Z" glyph-name="fourinferior" horiz-adv-x="378" unicode="&#8324;" /><glyph d="M201 753V404H303V808H204L14 565V500H365V575H46L52 518L234 753Z" glyph-name="foursuperior" horiz-adv-x="378" unicode="&#8308;" /><glyph d="M350 673H459L117 0H7Z" glyph-name="fraction" horiz-adv-x="467" unicode="&#8260;" /><glyph d="M494 -72C494 -185 401 -250 233 -250C90 -250 28 -196 28 -117C28 -91 39 -73 47 -61H86C84 -68 81 -79 81 -90C81 -142 132 -168 229 -168C327 -168 360 -143 360 -103C360 -71 334 -55 277 -55H195C113 -55 40 -30 40 63C40 159 173 195 173 195L188 166C188 166 135 155 135 116C135 86 164 72 235 72C238 72 295 73 298 73C423 73 494 30 494 -72ZM399 317V406C399 480 437 495 462 495C509 495 523 466 524 438C524 424 521 411 517 402H498C498 418 491 430 474 430C454 430 440 416 440 372V324ZM38 323C38 422 114 495 244 495C352 495 440 424 440 327C440 221 373 146 244 146C125 146 38 204 38 323ZM312 314C312 359 287 400 241 400C192 400 167 356 167 312C167 252 197 223 240 223C283 223 312 255 312 314Z" glyph-name="g" horiz-adv-x="513" unicode="g" /><glyph d="M315 364C315 293 256 256 148 256C63 256 17 282 17 328C17 343 24 354 30 361H56C54 358 53 353 53 348C53 321 83 307 144 307C202 307 221 322 221 342C221 360 207 366 177 366H122C70 366 24 385 24 438C24 497 106 518 106 518L123 502C123 502 88 495 88 474C88 456 102 451 145 451C147 451 190 451 192 451C272 451 315 426 315 364ZM253 594V646C253 690 278 699 295 699C326 699 334 680 335 663C335 654 333 645 331 640H317C317 650 312 657 302 657C291 657 282 648 282 622V598ZM23 595C23 654 71 699 156 699C226 699 282 655 282 598C282 535 239 489 156 489C78 489 23 525 23 595ZM191 589C191 615 178 635 153 635C126 635 113 612 113 588C113 556 129 542 153 542C176 542 191 558 191 589Z" glyph-name="g.superior" horiz-adv-x="328" /><glyph d="M494 -72C494 -185 401 -250 233 -250C90 -250 28 -196 28 -117C28 -91 39 -73 47 -61H86C84 -68 81 -79 81 -90C81 -142 132 -168 229 -168C327 -168 360 -143 360 -103C360 -71 334 -55 277 -55H195C113 -55 40 -30 40 63C40 159 173 195 173 195L188 166C188 166 135 155 135 116C135 86 164 72 235 72C238 72 295 73 298 73C423 73 494 30 494 -72ZM399 317V406C399 480 437 495 462 495C509 495 523 466 524 438C524 424 521 411 517 402H498C498 418 491 430 474 430C454 430 440 416 440 372V324ZM38 323C38 422 114 495 244 495C352 495 440 424 440 327C440 221 373 146 244 146C125 146 38 204 38 323ZM312 314C312 359 287 400 241 400C192 400 167 356 167 312C167 252 197 223 240 223C283 223 312 255 312 314ZM248 567C366 567 407 656 400 753H355C348 716 331 664 248 664C165 664 148 716 142 753H96C89 656 130 567 248 567Z" glyph-name="gbreve" horiz-adv-x="513" unicode="&#287;" /><glyph d="M494 -72C494 -185 401 -250 233 -250C90 -250 28 -196 28 -117C28 -91 39 -73 47 -61H86C84 -68 81 -79 81 -90C81 -142 132 -168 229 -168C327 -168 360 -143 360 -103C360 -71 334 -55 277 -55H195C113 -55 40 -30 40 63C40 159 173 195 173 195L188 166C188 166 135 155 135 116C135 86 164 72 235 72C238 72 295 73 298 73C423 73 494 30 494 -72ZM399 317V406C399 480 437 495 462 495C509 495 523 466 524 438C524 424 521 411 517 402H498C498 418 491 430 474 430C454 430 440 416 440 372V324ZM38 323C38 422 114 495 244 495C352 495 440 424 440 327C440 221 373 146 244 146C125 146 38 204 38 323ZM312 314C312 359 287 400 241 400C192 400 167 356 167 312C167 252 197 223 240 223C283 223 312 255 312 314ZM76 586 118 546 249 664 380 546 423 586 287 764H212Z" glyph-name="gcircumflex" horiz-adv-x="513" unicode="&#285;" /><glyph d="M494 -72C494 -185 401 -250 233 -250C90 -250 28 -196 28 -117C28 -91 39 -73 47 -61H86C84 -68 81 -79 81 -90C81 -142 132 -168 229 -168C327 -168 360 -143 360 -103C360 -71 334 -55 277 -55H195C113 -55 40 -30 40 63C40 159 173 195 173 195L188 166C188 166 135 155 135 116C135 86 164 72 235 72C238 72 295 73 298 73C423 73 494 30 494 -72ZM399 317V406C399 480 437 495 462 495C509 495 523 466 524 438C524 424 521 411 517 402H498C498 418 491 430 474 430C454 430 440 416 440 372V324ZM38 323C38 422 114 495 244 495C352 495 440 424 440 327C440 221 373 146 244 146C125 146 38 204 38 323ZM312 314C312 359 287 400 241 400C192 400 167 356 167 312C167 252 197 223 240 223C283 223 312 255 312 314ZM209 563H318L354 732L285 745Z" glyph-name="gcommaaccent" horiz-adv-x="513" unicode="&#291;" /><glyph d="M494 -72C494 -185 401 -250 233 -250C90 -250 28 -196 28 -117C28 -91 39 -73 47 -61H86C84 -68 81 -79 81 -90C81 -142 132 -168 229 -168C327 -168 360 -143 360 -103C360 -71 334 -55 277 -55H195C113 -55 40 -30 40 63C40 159 173 195 173 195L188 166C188 166 135 155 135 116C135 86 164 72 235 72C238 72 295 73 298 73C423 73 494 30 494 -72ZM399 317V406C399 480 437 495 462 495C509 495 523 466 524 438C524 424 521 411 517 402H498C498 418 491 430 474 430C454 430 440 416 440 372V324ZM38 323C38 422 114 495 244 495C352 495 440 424 440 327C440 221 373 146 244 146C125 146 38 204 38 323ZM312 314C312 359 287 400 241 400C192 400 167 356 167 312C167 252 197 223 240 223C283 223 312 255 312 314ZM176 603H321V725H176Z" glyph-name="gdotaccent" horiz-adv-x="513" unicode="&#289;" /><glyph d="M62 455V0H203V427C203 559 240 616 320 616C373 616 405 584 405 537C405 493 378 468 355 445C321 412 284 380 284 325C284 280 307 250 358 210C401 177 438 165 438 114C438 74 408 49 370 49C323 49 304 80 298 122H254C254 33 307 -13 402 -13C507 -13 584 49 584 153C584 234 537 277 493 305C449 336 410 347 410 386C410 417 436 433 462 455C492 479 513 506 513 558C513 642 441 710 313 710C127 710 62 592 62 455Z" glyph-name="germandbls" horiz-adv-x="615" unicode="&#223;" /><glyph d="M37 214C37 69 126 -13 287 -13C430 -13 534 64 534 194C534 321 449 370 348 402C269 427 203 450 203 507C203 562 244 592 309 592C377 592 434 555 442 484H516C530 620 444 699 293 699C151 699 54 617 54 494C54 372 132 326 226 294C314 264 381 244 381 177C381 117 337 90 270 90C182 90 121 123 108 214ZM602 214C602 69 691 -13 852 -13C995 -13 1099 64 1099 194C1099 321 1014 370 913 402C834 427 768 450 768 507C768 562 809 592 874 592C942 592 999 555 1007 484H1081C1095 620 1009 699 858 699C716 699 619 617 619 494C619 372 697 326 791 294C879 264 946 244 946 177C946 117 902 90 835 90C747 90 686 123 673 214Z" glyph-name="germandbls.cap" horiz-adv-x="1130" /><glyph d="M220 72C148 72 103 105 93 167H32C32 58 97 -13 246 -13C374 -13 462 51 462 154C462 261 385 290 305 313C243 333 194 342 194 387C194 423 221 446 277 446C329 446 370 415 378 366H449C458 472 386 537 250 537C120 537 44 463 44 371C44 269 105 238 178 214C246 191 306 182 306 128C306 92 274 72 220 72ZM710 72C638 72 593 105 583 167H522C522 58 587 -13 736 -13C864 -13 952 51 952 154C952 261 875 290 795 313C733 333 684 342 684 387C684 423 711 446 767 446C819 446 860 415 868 366H939C948 472 876 537 740 537C610 537 534 463 534 371C534 269 595 238 668 214C736 191 796 182 796 128C796 92 764 72 710 72Z" glyph-name="germandbls.small" horiz-adv-x="979" /><glyph d="M135 704 302 545 354 588 219 780Z" glyph-name="grave" horiz-adv-x="500" unicode="`" /><glyph d="M125 805 331 730 367 765 204 901Z" glyph-name="grave.cap" horiz-adv-x="500" /><glyph d="M384 303 93 432 136 527 511 353V265L136 91L93 186L384 315Z" glyph-name="greater" horiz-adv-x="588" unicode="&gt;" /><glyph d="M399 366 96 487 132 587 518 416V328L132 164L96 264L399 378ZM80 105H523V0H80Z" glyph-name="greaterequal" horiz-adv-x="596" unicode="&#8805;" /><glyph d="M153 246 273 429H146L37 260V238L146 69H273L153 252ZM382 246 502 429H375L266 260V238L375 69H502L382 252Z" glyph-name="guillemotleft" horiz-adv-x="539" unicode="&#171;" /><glyph d="M153 346 273 529H146L37 360V338L146 169H273L153 352ZM382 346 502 529H375L266 360V338L375 169H502L382 352Z" glyph-name="guillemotleft.cap" horiz-adv-x="539" /><glyph d="M386 252 266 69H393L502 238V260L393 429H266L386 246ZM157 252 37 69H164L273 238V260L164 429H37L157 246Z" glyph-name="guillemotright" horiz-adv-x="539" unicode="&#187;" /><glyph d="M386 352 266 169H393L502 338V360L393 529H266L386 346ZM157 352 37 169H164L273 338V360L164 529H37L157 346Z" glyph-name="guillemotright.cap" horiz-adv-x="539" /><glyph d="M153 246 273 429H146L37 260V238L146 69H273L153 252Z" glyph-name="guilsinglleft" horiz-adv-x="310" unicode="&#8249;" /><glyph d="M153 346 273 529H146L37 360V338L146 169H273L153 352Z" glyph-name="guilsinglleft.cap" horiz-adv-x="244" /><glyph d="M157 252 37 69H164L273 238V260L164 429H37L157 246Z" glyph-name="guilsinglright" horiz-adv-x="310" unicode="&#8250;" /><glyph d="M157 352 37 169H164L273 338V360L164 529H37L157 346Z" glyph-name="guilsinglright.cap" horiz-adv-x="244" /><glyph d="M501 0V305C501 420 468 495 351 495C207 495 194 342 194 221L202 166C203 310 228 378 289 378C340 378 361 345 361 238V0ZM61 702V0H202V294V343V710Z" glyph-name="h" horiz-adv-x="556" unicode="h" /><glyph d="M322 404V587C322 655 301 699 228 699C135 699 130 613 130 532L137 495C136 583 153 621 186 621C212 621 223 603 223 542V404ZM38 820V404H137V573V602V826Z" glyph-name="h.superior" horiz-adv-x="357" /><glyph d="M6 632V567H356V632ZM501 0V305C501 420 468 495 351 495C207 495 194 342 194 221L202 166C203 310 228 378 289 378C340 378 361 345 361 238V0ZM61 702V0H202V294V343V710Z" glyph-name="hbar" horiz-adv-x="556" unicode="&#295;" /><glyph d="M139 805 262 725 295 763 168 893H110L-18 763L16 725ZM501 0V305C501 420 468 495 351 495C207 495 194 342 194 221L202 166C203 310 228 378 289 378C340 378 361 345 361 238V0ZM61 702V0H202V294V343V710Z" glyph-name="hcircumflex" horiz-adv-x="556" unicode="&#293;" /><glyph d="M77 579 143 547 257 741 166 778ZM262 579 329 547 447 730 360 773Z" glyph-name="hungarumlaut" horiz-adv-x="500" unicode="&#733;" /><glyph d="M56 765 105 718 260 848 199 912ZM241 765 290 718 445 848 385 912Z" glyph-name="hungarumlaut.cap" horiz-adv-x="500" /><glyph d="M60 361V251H322V361Z" glyph-name="hyphen" horiz-adv-x="382" unicode="-" /><glyph d="M60 461V351H322V461Z" glyph-name="hyphen.cap" horiz-adv-x="382" /><glyph d="M63 478V0H203V485ZM65 603H210V725H65Z" glyph-name="i" horiz-adv-x="270" unicode="i" /><glyph d="M63 478V0H203V485ZM65 603H210V725H65Z" glyph-name="i.TRK" horiz-adv-x="270" /><glyph d="M38 688V404H137V693ZM37 759C36 759 140 759 140 759V840C141 840 37 840 37 840Z" glyph-name="i.superior" horiz-adv-x="179" unicode="&#8305;" /><glyph d="M63 478V0H203V485ZM48 588 100 545 267 704 183 780Z" glyph-name="iacute" horiz-adv-x="266" unicode="&#237;" /><glyph d="M63 478V0H203V485ZM137 567C255 567 296 656 289 753H244C237 716 220 664 137 664C54 664 37 716 31 753H-15C-22 656 19 567 137 567Z" glyph-name="ibreve" horiz-adv-x="266" unicode="&#301;" /><glyph d="M63 478V0H203V485ZM-36 586 6 546 137 664 268 546 311 586 175 764H100Z" glyph-name="icircumflex" horiz-adv-x="266" unicode="&#238;" /><glyph d="M63 478V0H203V485ZM-11 605H102V725H-11ZM171 605H284V725H171Z" glyph-name="idieresis" horiz-adv-x="266" unicode="&#239;" /><glyph d="M63 478V0H203V485ZM5 704 172 545 224 588 89 780Z" glyph-name="igrave" horiz-adv-x="266" unicode="&#236;" /><glyph d="M63 478V0H203V485ZM65 603H210V725H65ZM235 -112C235 -165 245 -249 344 -249C450 -249 488 -173 488 -22V166V485L347 478V101C347 46 354 -53 354 -83C354 -135 339 -155 312 -155C283 -155 273 -137 269 -112ZM353 603H498V725H353Z" glyph-name="ij" horiz-adv-x="551" unicode="&#307;" /><glyph d="M63 478V0H203V485ZM-11 723V635H285V723Z" glyph-name="imacron" horiz-adv-x="266" unicode="&#299;" /><glyph d="M169 252C133 252 120 282 120 309C120 336 134 364 169 364C200 364 223 339 240 309C223 278 200 252 169 252ZM441 166C538 166 581 236 581 310C581 385 547 450 449 450C384 450 348 413 308 358C271 414 229 450 162 450C65 450 22 385 22 307C22 235 55 166 153 166C218 166 255 203 295 259C332 203 374 166 441 166ZM433 252C403 252 379 277 363 307C379 338 403 363 433 363C469 363 483 334 483 307C483 280 469 252 433 252Z" glyph-name="infinity" horiz-adv-x="603" unicode="&#8734;" /><glyph d="M315 656C335 656 348 647 357 638L397 677C382 706 345 750 272 750C165 750 116 685 116 562C116 555 116 547 116 540L134 49C134 42 134 35 134 29C134 -34 121 -67 77 -67C57 -67 45 -58 35 -49L-5 -87C12 -121 49 -161 120 -161C230 -161 274 -91 274 26C274 31 274 37 274 43L258 542C258 548 258 555 258 560C258 628 273 656 315 656Z" glyph-name="integral" horiz-adv-x="392" unicode="&#8747;" /><glyph d="M41 -130C41 -182 70 -218 132 -218C201 -218 224 -171 220 -115H191C191 -135 181 -156 160 -156C135 -156 127 -137 127 -114C127 -60 156 -6 200 0L159 24C111 -4 41 -55 41 -130ZM63 478V0H203V485ZM65 603H210V725H65Z" glyph-name="iogonek" horiz-adv-x="266" unicode="&#303;" /><glyph d="M63 478V0H203V485ZM-7 576H24C16 616 23 650 58 650C114 650 123 577 204 577C280 577 314 649 282 749H249C257 709 251 675 217 675C164 675 155 748 70 748C-5 748 -41 680 -7 576Z" glyph-name="itilde" horiz-adv-x="266" unicode="&#297;" /><glyph d="M-34 -112C-34 -165 -24 -249 75 -249C181 -249 219 -173 219 -22V166V485L78 478V101C78 46 85 -53 85 -83C85 -135 70 -155 43 -155C14 -155 4 -137 0 -112ZM84 603H229V725H84Z" glyph-name="j" horiz-adv-x="281" unicode="j" /><glyph d="M-21 345C-21 313 -14 256 51 256C122 256 146 305 146 398C146 419 146 495 146 511V693L47 688V468C47 418 54 384 54 359C54 329 44 319 28 319C9 319 4 331 2 345ZM47 759H150V840C151 840 47 840 47 840Z" glyph-name="j.superior" horiz-adv-x="184" /><glyph d="M-34 -112C-34 -165 -24 -249 75 -249C181 -249 219 -173 219 -22V166V485L78 478V101C78 46 85 -53 85 -83C85 -135 70 -155 43 -155C14 -155 4 -137 0 -112ZM-28 586 14 546 145 664 276 546 319 586 183 764H108Z" glyph-name="jcircumflex" horiz-adv-x="281" unicode="&#309;" /><glyph d="M61 702V0H202V710ZM125 232 158 147 497 478H368ZM227 265 361 0H517L310 374Z" glyph-name="k" horiz-adv-x="526" unicode="k" /><glyph d="M38 820V404H137V826ZM83 546 109 485 327 688H228ZM143 557 222 404H333L206 632Z" glyph-name="k.superior" horiz-adv-x="341" /><glyph d="M61 702V0H202V710ZM125 232 158 147 497 478H368ZM227 265 361 0H517L310 374ZM191 -227 259 -240 340 -56H228Z" glyph-name="kcommaaccent" horiz-adv-x="526" unicode="&#311;" /><glyph d="M62 702V0H203V710Z" glyph-name="l" horiz-adv-x="265" unicode="l" /><glyph d="M38 820V404H136V826Z" glyph-name="l.superior" horiz-adv-x="174" /><glyph d="M62 702V0H203V710ZM23 765 59 730 265 805 186 901Z" glyph-name="lacute" horiz-adv-x="265" unicode="&#314;" /><glyph d="M62 702V0H203V710ZM276 500H354L410 710H295Z" glyph-name="lcaron" horiz-adv-x="400" unicode="&#318;" /><glyph d="M62 702V0H203V710ZM56 -227 124 -240 205 -56H93Z" glyph-name="lcommaaccent" horiz-adv-x="265" unicode="&#316;" /><glyph d="M262 291H387V409H262ZM62 702V0H203V710Z" glyph-name="ldot" horiz-adv-x="392" unicode="&#320;" /><glyph d="M204 303 495 432 452 527 77 353V265L452 91L495 186L204 315Z" glyph-name="less" horiz-adv-x="588" unicode="&lt;" /><glyph d="M204 366 507 487 471 587 85 416V328L471 164L507 264L204 378ZM523 105H80V0H523Z" glyph-name="lessequal" horiz-adv-x="603" unicode="&#8804;" /><glyph d="M249 527V167C249 105 268 82 307 82C339 82 353 95 358 117H388C385 38 349 -13 262 -13C164 -13 111 38 112 189L113 484C113 633 174 707 285 707C368 707 420 651 420 555C420 406 323 267 31 155L7 221C276 319 348 444 348 557C348 604 328 626 300 626C272 626 249 603 249 527Z" glyph-name="litre" horiz-adv-x="448" unicode="&#8467;" /><glyph d="M515 170V455H403V170ZM493 455H72V343H493Z" glyph-name="logicalnot" horiz-adv-x="603" unicode="&#172;" /><glyph d="M529 372 344 694H230L45 372V310L230 -8H344L529 310ZM288 124 176 344 288 563 400 344Z" glyph-name="lozenge" horiz-adv-x="574" unicode="&#9674;" /><glyph d="M-1 149 276 378V488L-1 259ZM62 702V0H203V710Z" glyph-name="lslash" horiz-adv-x="265" unicode="&#322;" /><glyph d="M491 0V305C491 420 463 495 346 495C196 495 191 342 191 221L200 166C200 309 224 378 284 378C335 378 351 345 351 238V0ZM782 0V305C782 420 759 495 642 495C501 495 483 341 483 219L491 164C491 304 513 378 575 378C626 378 642 345 642 238V0ZM60 478V0H200V288L195 327L180 485Z" glyph-name="m" horiz-adv-x="837" unicode="m" /><glyph d="M317 404V587C317 655 298 699 226 699C132 699 130 605 130 532L136 495C136 584 151 621 182 621C207 621 218 603 218 541V404ZM498 404V587C498 655 483 699 410 699C321 699 311 605 311 532L317 495C317 584 330 621 362 621C388 621 399 603 399 541V404ZM37 688V404H136V570L132 595L121 693Z" glyph-name="m.superior" horiz-adv-x="532" /><glyph d="M102 723V635H398V723Z" glyph-name="macron" horiz-adv-x="500" unicode="&#175;" /><glyph d="M102 862V774H398V862Z" glyph-name="macron.cap" horiz-adv-x="500" /><glyph d="M523 369H80V257H523Z" glyph-name="minus" horiz-adv-x="603" unicode="&#8722;" /><glyph d="M379 261 359 317C359 173 334 105 273 105C222 105 200 137 200 244V417H167V177C167 62 195 -13 272 -13C366 -13 379 139 379 261ZM200 -250V485L60 478V-250ZM483 -13C567 -13 593 40 593 115H561C561 97 552 81 534 81C504 81 500 106 500 147V485L359 477V216L367 135C367 46 406 -13 483 -13Z" glyph-name="mu" horiz-adv-x="606" unicode="&#181;" /><glyph d="M498 180 185 492 106 414 419 100ZM106 180 185 100 498 414 419 492Z" glyph-name="multiply" horiz-adv-x="603" unicode="&#215;" /><glyph d="M500 0V305C500 420 467 495 350 495C200 495 190 353 190 221L200 166C200 310 228 378 288 378C339 378 359 345 359 238V0ZM60 478V0H200V288L195 327L180 485Z" glyph-name="n" horiz-adv-x="554" unicode="n" /><glyph d="M322 404V587C322 655 301 699 227 699C134 699 129 613 129 532L136 497C136 585 152 621 185 621C212 621 223 603 223 542V404ZM37 688V404H136V569L132 596L121 693Z" glyph-name="n.superior" horiz-adv-x="356" unicode="&#8319;" /><glyph d="M500 0V305C500 420 467 495 350 495C200 495 190 353 190 221L200 166C200 310 228 378 288 378C339 378 359 345 359 238V0ZM60 478V0H200V288L195 327L180 485ZM199 588 251 545 418 704 334 780Z" glyph-name="nacute" horiz-adv-x="554" unicode="&#324;" /><glyph d="M500 0V305C500 420 467 495 350 495C200 495 190 353 190 221L200 166C200 310 228 378 288 378C339 378 359 345 359 238V0ZM60 478V0H200V288L195 327L180 485ZM117 734 253 554H328L464 734L420 771L290 653L161 771Z" glyph-name="ncaron" horiz-adv-x="554" unicode="&#328;" /><glyph d="M500 0V305C500 420 467 495 350 495C200 495 190 353 190 221L200 166C200 310 228 378 288 378C339 378 359 345 359 238V0ZM60 478V0H200V288L195 327L180 485ZM198 -227 266 -240 347 -56H235Z" glyph-name="ncommaaccent" horiz-adv-x="554" unicode="&#326;" /><glyph d="M280 350C218 350 182 389 182 456C182 516 216 564 283 564C350 564 382 518 382 457C382 391 345 350 280 350ZM275 -13C461 -13 549 151 549 343C549 545 470 683 277 683C149 683 48 607 48 455C48 319 128 252 233 252C356 252 416 334 412 436L402 435C405 420 406 349 406 334C406 166 341 103 250 103C166 103 137 155 131 202H55C46 76 113 -13 275 -13Z" glyph-name="nine" horiz-adv-x="585" unicode="9" /><glyph d="M249 283C198 283 177 311 177 356C177 396 200 430 252 430C300 430 323 400 323 358C323 311 296 283 249 283ZM244 -13C403 -13 482 119 482 268C482 425 414 537 246 537C136 537 47 476 47 355C47 251 112 196 203 196C306 196 351 262 351 333H342C344 328 344 262 344 260C344 131 288 91 220 91C157 91 131 126 125 161H53C44 56 107 -13 244 -13Z" glyph-name="nine.small" horiz-adv-x="523" /><glyph d="M249 283C198 283 177 311 177 356C177 396 200 430 252 430C300 430 323 400 323 358C323 311 296 283 249 283ZM244 -13C403 -13 482 119 482 268C482 425 414 537 246 537C136 537 47 476 47 355C47 251 112 196 203 196C306 196 351 262 351 333H342C344 328 344 262 344 260C344 131 288 91 220 91C157 91 131 126 125 161H53C44 56 107 -13 244 -13Z" glyph-name="nine.small_tab" horiz-adv-x="523" /><glyph d="M286 350C224 350 188 389 188 456C188 516 222 564 289 564C356 564 388 518 388 457C388 391 351 350 286 350ZM281 -13C467 -13 555 151 555 343C555 545 476 683 283 683C155 683 54 607 54 455C54 319 134 252 239 252C362 252 422 334 418 436L408 435C411 420 412 349 412 334C412 166 347 103 256 103C172 103 143 155 137 202H61C52 76 119 -13 281 -13Z" glyph-name="nine.tab" horiz-adv-x="603" /><glyph d="M175 117C138 117 122 140 122 173C122 203 139 229 177 229C213 229 230 205 230 173C230 137 209 117 175 117ZM172 -109C288 -109 345 -8 345 106C345 225 296 311 172 311C91 311 27 265 27 172C27 91 76 50 141 50C218 50 251 100 250 155H243C244 150 244 104 244 99C244 1 203 -28 153 -28C107 -28 89 -2 84 25H31C25 -57 71 -109 172 -109Z" glyph-name="nineinferior" horiz-adv-x="367" unicode="&#8329;" /><glyph d="M175 621C138 621 122 644 122 677C122 707 139 733 177 733C213 733 230 709 230 677C230 641 209 621 175 621ZM172 395C288 395 345 496 345 610C345 729 296 815 172 815C91 815 27 769 27 676C27 595 76 554 141 554C218 554 251 604 250 659H243C244 654 244 608 244 603C244 505 203 476 153 476C107 476 89 502 84 529H31C25 447 71 395 172 395Z" glyph-name="ninesuperior" horiz-adv-x="367" unicode="&#8313;" /><glyph d="M395 578 109 49H208L492 578ZM523 250H80V145H523ZM523 480H80V376H523Z" glyph-name="notequal" horiz-adv-x="603" unicode="&#8800;" /><glyph d="M500 0V305C500 420 467 495 350 495C200 495 190 353 190 221L200 166C200 310 228 378 288 378C339 378 359 345 359 238V0ZM60 478V0H200V288L195 327L180 485ZM123 576H154C146 616 153 650 188 650C244 650 253 577 334 577C410 577 444 649 412 749H379C387 709 381 675 347 675C294 675 285 748 200 748C125 748 89 680 123 576Z" glyph-name="ntilde" horiz-adv-x="554" unicode="&#241;" /><glyph d="M228 0H100L198 665H326ZM641 498V408H61V498ZM468 0H340L439 665H567ZM603 261V171H23V261Z" glyph-name="numbersign" horiz-adv-x="663" unicode="#" /><glyph d="M89 620 495 -5H612V690H496V-2L577 119L215 690H70V0H185V689ZM700.874 324V214H1014.7238V324ZM838 386C733 386 675 449 675 538C675 626 733 690 838 690C943 690 1001 626 1001 538C1001 449 943 386 838 386ZM838 463C875 463 905 489 905 538C905 587 875 614 838 614C802 614 772 586 772 538C772 489 802 463 838 463Z" glyph-name="numero" horiz-adv-x="1068" unicode="&#8470;" /><glyph d="M32 239C32 72 131 -13 266 -13C414 -13 498 82 498 236C498 406 395 495 266 495C128 495 32 392 32 239ZM358 242C358 132 321 85 266 85C206 85 173 137 173 243C173 330 206 386 265 386C329 386 358 324 358 242Z" glyph-name="o" horiz-adv-x="530" unicode="o" /><glyph d="M21 546C21 446 84 396 171 396C266 396 320 452 320 544C320 646 253 699 171 699C81 699 21 636 21 546ZM222 547C222 487 201 462 171 462C136 462 119 490 119 548C119 595 137 626 170 626C207 626 222 591 222 547Z" glyph-name="o.superior" horiz-adv-x="340" /><glyph d="M32 239C32 72 131 -13 266 -13C414 -13 498 82 498 236C498 406 395 495 266 495C128 495 32 392 32 239ZM358 242C358 132 321 85 266 85C206 85 173 137 173 243C173 330 206 386 265 386C329 386 358 324 358 242ZM176 588 228 545 395 704 311 780Z" glyph-name="oacute" horiz-adv-x="530" unicode="&#243;" /><glyph d="M32 239C32 72 131 -13 266 -13C414 -13 498 82 498 236C498 406 395 495 266 495C128 495 32 392 32 239ZM358 242C358 132 321 85 266 85C206 85 173 137 173 243C173 330 206 386 265 386C329 386 358 324 358 242ZM269 567C387 567 428 656 421 753H376C369 716 352 664 269 664C186 664 169 716 163 753H117C110 656 151 567 269 567Z" glyph-name="obreve" horiz-adv-x="530" unicode="&#335;" /><glyph d="M32 239C32 72 131 -13 266 -13C414 -13 498 82 498 236C498 406 395 495 266 495C128 495 32 392 32 239ZM358 242C358 132 321 85 266 85C206 85 173 137 173 243C173 330 206 386 265 386C329 386 358 324 358 242ZM96 586 138 546 269 664 400 546 443 586 307 764H232Z" glyph-name="ocircumflex" horiz-adv-x="530" unicode="&#244;" /><glyph d="M32 239C32 72 131 -13 266 -13C414 -13 498 82 498 236C498 406 395 495 266 495C128 495 32 392 32 239ZM358 242C358 132 321 85 266 85C206 85 173 137 173 243C173 330 206 386 265 386C329 386 358 324 358 242ZM122 605H235V725H122ZM304 605H417V725H304Z" glyph-name="odieresis" horiz-adv-x="530" unicode="&#246;" /><glyph d="M358 242C358 132 321 85 266 85C206 85 173 137 173 243C173 330 206 386 265 386C329 386 358 324 358 242ZM32 239C32 72 131 -13 266 -13C414 -13 475 93 475 236C475 404 395 495 266 495C128 495 32 392 32 239ZM379 224C379 82 431 -13 578 -13C699 -13 768 68 768 173H729C725 118 683 80 614 80C517 80 487 146 487 236C487 236 487 256 487 257C488 347 527 393 579 393C636 393 645 354 645 322C645 310 643 294 642 290L423 285L421 234H749C752 251 756 297 756 324C756 416 701 495 576 495C453 495 379 369 379 224Z" glyph-name="oe" horiz-adv-x="801" unicode="&#339;" /><glyph d="M269 -130C269 -187 301 -218 363 -218C432 -218 454 -171 451 -115H420C420 -135 411 -155 392 -155C367 -155 360 -139 360 -117C360 -58 389 15 432 75L420 77C353 13 269 -45 269 -130Z" glyph-name="ogonek" horiz-adv-x="500" unicode="&#731;" /><glyph d="M32 239C32 72 131 -13 266 -13C414 -13 498 82 498 236C498 406 395 495 266 495C128 495 32 392 32 239ZM358 242C358 132 321 85 266 85C206 85 173 137 173 243C173 330 206 386 265 386C329 386 358 324 358 242ZM135 704 302 545 354 588 219 780Z" glyph-name="ograve" horiz-adv-x="530" unicode="&#242;" /><glyph d="M32 239C32 72 131 -13 266 -13C414 -13 498 82 498 236C498 406 395 495 266 495C128 495 32 392 32 239ZM358 242C358 132 321 85 266 85C206 85 173 137 173 243C173 330 206 386 265 386C329 386 358 324 358 242ZM118 579 184 547 298 741 207 778ZM303 579 370 547 488 730 401 773Z" glyph-name="ohungarumlaut" horiz-adv-x="530" unicode="&#337;" /><glyph d="M32 239C32 72 131 -13 266 -13C414 -13 498 82 498 236C498 406 395 495 266 495C128 495 32 392 32 239ZM358 242C358 132 321 85 266 85C206 85 173 137 173 243C173 330 206 386 265 386C329 386 358 324 358 242ZM121 723V635H417V723Z" glyph-name="omacron" horiz-adv-x="530" unicode="&#333;" /><glyph d="M264 680 34 535 57 468 263 556 201 582V0H348V680Z" glyph-name="one" horiz-adv-x="433" unicode="1" /><glyph d="M28 417 50 357 222 416 162 439V0H305V528H224Z" glyph-name="one.small" horiz-adv-x="371" /><glyph d="M62 435 75 371 273 416 212 439V1H355V528H274ZM72 1H474V88H72Z" glyph-name="one.small_tab" horiz-adv-x="523" /><glyph d="M316 680 63 568 85 499 314 554 252 582V1H400V680ZM90 1H546V96H90Z" glyph-name="one.tab" horiz-adv-x="603" /><glyph d="M20 602 135 673H187V357H91V608L132 595L34 562ZM484 174C464 233 494 319 596 319C669 319 710 277 710 216C710 125 617 82 530 15L553 70H717V0H482V41C546 93 610 143 610 200C610 225 598 242 575 242C542 242 528 215 534 174ZM475 673H584L242 0H132Z" glyph-name="onehalf" horiz-adv-x="743" unicode="&#189;" /><glyph d="M164 308 20 223 36 177 163 223 118 240V-100H223V308Z" glyph-name="oneinferior" horiz-adv-x="273" unicode="&#8321;" /><glyph d="M20 602 135 673H187V357H91V608L132 595L34 562ZM568 0V264L593 265L459 88L457 136H708V71H434V132L574 316H661V0ZM475 673H584L242 0H132Z" glyph-name="onequarter" horiz-adv-x="721" unicode="&#188;" /><glyph d="M164 812 20 727 36 681 163 727 118 744V404H223V812Z" glyph-name="onesuperior" horiz-adv-x="273" unicode="&#185;" /><glyph d="M273 400C293 400 310 407 318 415L315 433C310 433 303 433 297 440C289 449 287 466 287 503V592C287 658 253 699 166 699C70 699 43 645 43 591H79C85 614 100 636 137 636C180 636 194 613 194 578V556C181 562 161 565 141 565C54 565 24 524 24 475C24 433 51 397 112 397C159 397 184 421 199 448C207 413 237 400 273 400ZM149 452C127 452 116 463 116 485C116 514 133 529 165 529C177 529 189 526 194 524V520C194 489 185 452 149 452Z" glyph-name="ordfeminine" horiz-adv-x="337" unicode="&#170;" /><glyph d="M175 463C207 463 231 487 231 548C231 595 211 626 174 626C139 626 118 597 118 548C118 489 140 463 175 463ZM175 397C92 397 21 444 21 546C21 638 86 699 175 699C253 699 327 649 327 545C327 452 270 397 175 397Z" glyph-name="ordmasculine" horiz-adv-x="348" unicode="&#186;" /><glyph d="M441 493 36 -12H99L502 493ZM32 239C32 72 131 -13 266 -13C414 -13 498 82 498 236C498 406 395 495 266 495C128 495 32 392 32 239ZM358 242C358 132 321 85 266 85C206 85 173 137 173 243C173 330 206 386 265 386C329 386 358 324 358 242Z" glyph-name="oslash" horiz-adv-x="534" unicode="&#248;" /><glyph d="M441 493 36 -12H99L502 493ZM32 239C32 72 131 -13 266 -13C414 -13 498 82 498 236C498 406 395 495 266 495C128 495 32 392 32 239ZM358 242C358 132 321 85 266 85C206 85 173 137 173 243C173 330 206 386 265 386C329 386 358 324 358 242ZM180 588 232 545 399 704 315 780Z" glyph-name="oslashacute" horiz-adv-x="534" unicode="&#511;" /><glyph d="M32 239C32 72 131 -13 266 -13C414 -13 498 82 498 236C498 406 395 495 266 495C128 495 32 392 32 239ZM358 242C358 132 321 85 266 85C206 85 173 137 173 243C173 330 206 386 265 386C329 386 358 324 358 242ZM121 576H152C144 616 151 650 186 650C242 650 251 577 332 577C408 577 442 649 410 749H377C385 709 379 675 345 675C292 675 283 748 198 748C123 748 87 680 121 576Z" glyph-name="otilde" horiz-adv-x="530" unicode="&#245;" /><glyph d="M179 246C179 72 229 -13 339 -13C449 -13 528 92 528 245C528 415 439 495 339 495C207 495 179 373 179 246ZM384 227C384 146 352 86 292 86C236 86 200 146 200 226C200 337 236 386 292 386C345 386 384 338 384 227ZM60 478V-240H200V285L192 327L177 485Z" glyph-name="p" horiz-adv-x="560" unicode="p" /><glyph d="M121 551C121 448 147 396 220 396C289 396 338 459 338 549C338 650 284 699 219 699C135 699 121 624 121 551ZM237 538C237 495 221 462 187 462C152 462 136 497 136 537C136 601 156 626 186 626C218 626 237 599 237 538ZM37 688V262H136V571L130 597L120 693Z" glyph-name="p.superior" horiz-adv-x="358" /><glyph d="M539 -113V690H391V-113ZM311 -113V690H244C133 690 40 620 40 493C40 370 122 297 244 297V-113ZM252 586H596V690H252Z" glyph-name="paragraph" horiz-adv-x="639" unicode="&#182;" /><glyph d="M207 270C207 500 305 640 343 689L273 751C175 676 50 501 50 269C50 37 175 -128 273 -203L343 -141C305 -92 207 40 207 270Z" glyph-name="parenleft" horiz-adv-x="363" unicode="(" /><glyph d="M207 320C207 550 305 690 343 739L273 801C175 726 50 551 50 319C50 87 175 -78 273 -153L343 -91C305 -42 207 90 207 320Z" glyph-name="parenleft.cap" horiz-adv-x="363" /><glyph d="M190 259C190 453 263 566 298 610L236 664C148 597 50 454 50 258C50 62 147 -79 236 -147L298 -93C261 -47 190 65 190 259Z" glyph-name="parenleft.small" horiz-adv-x="318" /><glyph d="M156 278C156 48 58 -92 20 -141L90 -203C188 -128 313 47 313 279C313 511 188 676 90 751L20 689C58 640 156 508 156 278Z" glyph-name="parenright" horiz-adv-x="363" unicode=")" /><glyph d="M156 328C156 98 58 -42 20 -91L90 -153C188 -78 313 97 313 329C313 561 188 726 90 801L20 739C58 690 156 558 156 328Z" glyph-name="parenright.cap" horiz-adv-x="363" /><glyph d="M128 257C128 63 55 -50 20 -94L82 -148C170 -81 268 62 268 258C268 454 171 595 82 663L20 609C57 563 128 451 128 257Z" glyph-name="parenright.small" horiz-adv-x="318" /><glyph d="M260 699C186 699 130 678 101 658L135 586C159 597 190 606 224 607C298 608 380 558 380 369C380 143 335 86 262 86C206 86 173 136 173 222C173 313 204 373 277 373C359 373 372 283 374 231L409 294C404 355 377 476 241 476C98 476 32 360 32 222C32 85 112 -13 263 -13C442 -13 524 150 524 350C524 580 407 699 260 699Z" glyph-name="partialdiff" horiz-adv-x="556" unicode="&#8706;" /><glyph d="M155 435C74 435 20 487 20 565C20 647 74 696 155 696C235 696 289 647 289 565C289 487 235 435 155 435ZM155 517C183 517 203 539 203 564C203 590 183 612 155 612C126 612 108 590 108 564C108 539 126 517 155 517ZM548 -13C466 -13 413 40 413 118C413 200 466 248 548 248C628 248 681 200 681 118C681 40 628 -13 548 -13ZM547 70C575 70 595 91 595 117C595 144 575 165 547 165C518 165 500 144 500 117C500 91 518 70 547 70ZM454 673H563L221 0H111Z" glyph-name="percent" horiz-adv-x="701" unicode="%" /><glyph d="M65 65C65 21 95 -13 144 -13C190 -13 218 20 218 65C218 104 189 141 143 141C94 141 65 105 65 65Z" glyph-name="period" horiz-adv-x="283" unicode="." /><glyph d="M50 344C50 300 80 266 129 266C175 266 203 299 203 344C203 383 174 420 128 420C79 420 50 384 50 344Z" glyph-name="periodcentered" horiz-adv-x="253" unicode="&#183;" /><glyph d="M50 369C50 325 80 291 129 291C175 291 203 324 203 369C203 408 174 445 128 445C79 445 50 409 50 369Z" glyph-name="periodcentered.cap" horiz-adv-x="253" /><glyph d="M155 435C74 435 20 487 20 565C20 647 74 696 155 696C235 696 289 647 289 565C289 487 235 435 155 435ZM155 517C183 517 203 539 203 564C203 590 183 612 155 612C126 612 108 590 108 564C108 539 126 517 155 517ZM548 -13C466 -13 413 40 413 118C413 200 466 248 548 248C628 248 681 200 681 118C681 40 628 -13 548 -13ZM547 70C575 70 595 91 595 117C595 144 575 165 547 165C518 165 500 144 500 117C500 91 518 70 547 70ZM866 -13C784 -13 731 40 731 118C731 200 784 248 866 248C946 248 999 200 999 118C999 40 946 -13 866 -13ZM865 70C893 70 913 91 913 117C913 144 893 165 865 165C836 165 818 144 818 117C818 91 836 70 865 70ZM454 673H563L221 0H111Z" glyph-name="perthousand" horiz-adv-x="1019" unicode="&#8240;" /><glyph d="M366 150C366 28 421 -13 501 -13C585 -13 614 38 614 119H583C582 90 568 81 547 81C514 81 507 107 507 148V468H366ZM109 469V217C109 109 105 56 94 0H189C229 47 249 116 249 214V469ZM10 478V405H613V478Z" glyph-name="pi" horiz-adv-x="641" unicode="&#960;" /><glyph d="M358 89V537H245V89ZM523 369H80V257H523Z" glyph-name="plus" horiz-adv-x="603" unicode="+" /><glyph d="M523 379H80V274H523ZM358 94V544H245V94ZM524 94H81V-11H524Z" glyph-name="plusminus" horiz-adv-x="603" unicode="&#177;" /><glyph d="M70 690V-130H218V596L208 585H485L475 596V-130H622V690Z" glyph-name="product" horiz-adv-x="692" unicode="&#8719;" /><glyph d="M32 239C32 68 122 -13 221 -13C353 -13 384 90 384 245C384 404 332 495 221 495C111 495 32 391 32 239ZM360 243C360 132 324 85 269 85C215 85 176 134 176 243C176 324 209 385 268 385C325 385 360 323 360 243ZM360 332V-240H502V485L384 478L369 372Z" glyph-name="q" horiz-adv-x="561" unicode="q" /><glyph d="M21 546C21 445 75 396 139 396C224 396 237 453 237 544C237 638 212 699 138 699C70 699 21 636 21 546ZM223 548C223 486 202 462 173 462C141 462 122 489 122 549C122 591 138 625 173 625C206 625 223 589 223 548ZM223 603V262H322V693L239 688L228 627Z" glyph-name="q.superior" horiz-adv-x="359" /><glyph d="M253 288C342 297 466 338 466 500C466 635 370 699 252 699C136 699 34 641 43 476H107C115 535 153 576 217 576C287 576 322 534 322 469C322 374 256 335 158 335L168 200H243ZM135 59C135 15 165 -13 214 -13C260 -13 289 15 289 59C289 101 260 128 214 128C165 128 135 101 135 59Z" glyph-name="question" horiz-adv-x="516" unicode="?" /><glyph d="M226 190 231 258C297 262 387 289 387 397C387 490 317 537 215 537C118 537 36 489 43 379H105C110 423 135 454 183 454C231 454 255 426 255 381C255 319 201 296 137 293L144 190ZM117 57C117 14 146 -13 191 -13C233 -13 262 14 262 57C262 97 234 124 191 124C147 124 117 97 117 57Z" glyph-name="question.small" horiz-adv-x="437" /><glyph d="M255 187C166 178 42 137 42 -25C42 -160 138 -224 256 -224C372 -224 474 -166 465 -1H401C393 -60 355 -101 291 -101C221 -101 186 -59 186 6C186 101 252 140 350 140L340 275H265ZM373 416C373 460 343 488 294 488C248 488 219 460 219 416C219 374 248 347 294 347C343 347 373 374 373 416Z" glyph-name="questiondown" horiz-adv-x="508" unicode="&#191;" /><glyph d="M263 398C174 389 50 348 50 186C50 51 146 -13 264 -13C380 -13 482 45 473 210H409C401 151 363 110 299 110C229 110 194 152 194 217C194 312 260 351 358 351L348 486H273ZM381 627C381 671 351 699 302 699C256 699 227 671 227 627C227 585 256 558 302 558C351 558 381 585 381 627Z" glyph-name="questiondown.cap" horiz-adv-x="515" /><glyph d="M211 334 206 266C140 262 50 235 50 127C50 34 120 -13 222 -13C319 -13 401 35 394 145H332C327 101 302 70 254 70C206 70 182 98 182 143C182 205 236 228 300 231L293 334ZM320 467C320 510 291 537 246 537C204 537 175 510 175 467C175 427 203 400 246 400C290 400 320 427 320 467Z" glyph-name="questiondown.small" horiz-adv-x="436" /><glyph d="M132 532H35V710H132ZM292 532H195V710H292Z" glyph-name="quotedbl" horiz-adv-x="320" unicode="&quot;" /><glyph d="M54 -138 81 -177C134 -153 219 -61 219 56C219 103 192 139 140 139C97 139 65 107 65 64C65 17 91 -8 139 -8C133 -59 90 -115 54 -138ZM268 -138 295 -177C348 -153 433 -61 433 56C433 103 406 139 354 139C311 139 279 107 279 64C279 17 305 -8 353 -8C347 -59 304 -115 268 -138Z" glyph-name="quotedblbase" horiz-adv-x="439" unicode="&#8222;" /><glyph d="M184 669 155 710C100 680 30 601 30 500C30 453 58 417 109 417C152 417 184 449 184 492C184 539 158 563 111 563C119 607 153 647 184 669ZM397 669 368 710C313 680 243 601 243 500C243 453 271 417 322 417C365 417 397 449 397 492C397 539 371 563 324 563C332 607 366 647 397 669Z" glyph-name="quotedblleft" horiz-adv-x="436" unicode="&#8220;" /><glyph d="M39 458 67 417C123 447 193 526 193 628C193 675 165 710 113 710C70 710 39 678 39 636C39 589 64 564 112 564C104 520 70 480 39 458ZM252 458 280 417C336 447 406 526 406 628C406 675 378 710 326 710C283 710 252 678 252 636C252 589 277 564 325 564C317 520 283 480 252 458Z" glyph-name="quotedblright" horiz-adv-x="436" unicode="&#8221;" /><glyph d="M184 669 155 710C100 680 30 601 30 500C30 453 58 417 109 417C152 417 184 449 184 492C184 539 158 563 111 563C119 607 153 647 184 669Z" glyph-name="quoteleft" horiz-adv-x="223" unicode="&#8216;" /><glyph d="M39 458 67 417C123 447 193 526 193 628C193 675 165 710 113 710C70 710 39 678 39 636C39 589 64 564 112 564C104 520 70 480 39 458Z" glyph-name="quoteright" horiz-adv-x="223" unicode="&#8217;" /><glyph d="M54 -138 81 -177C134 -153 219 -61 219 56C219 103 192 139 140 139C97 139 65 107 65 64C65 17 91 -8 139 -8C133 -59 90 -115 54 -138Z" glyph-name="quotesinglbase" horiz-adv-x="226" unicode="&#8218;" /><glyph d="M132 532H35V710H132Z" glyph-name="quotesingle" horiz-adv-x="167" unicode="'" /><glyph d="M314 495C192 495 183 330 183 210L200 161C200 321 231 382 291 382C321 382 336 366 343 344C347 334 348 324 348 313H404C409 331 413 347 413 376C413 428 387 495 314 495ZM60 478V0H200V273L193 311L178 485Z" glyph-name="r" horiz-adv-x="424" unicode="r" /><glyph d="M204 699C130 699 125 600 125 528L136 496C136 592 159 624 190 624C210 624 218 612 220 597C221 595 221 592 220 590H260C264 601 266 610 266 629C266 662 248 699 204 699ZM37 688V404H136V566L131 590L120 693Z" glyph-name="r.superior" horiz-adv-x="274" /><glyph d="M314 495C192 495 183 330 183 210L200 161C200 321 231 382 291 382C321 382 336 366 343 344C347 334 348 324 348 313H404C409 331 413 347 413 376C413 428 387 495 314 495ZM60 478V0H200V273L193 311L178 485ZM149 588 201 545 368 704 284 780Z" glyph-name="racute" horiz-adv-x="424" unicode="&#341;" /><glyph d="M193 287H-5V217H77L71 225L202 -148H352L599 710H461L258 -67H306Z" glyph-name="radical" horiz-adv-x="591" unicode="&#8730;" /><glyph d="M314 495C192 495 183 330 183 210L200 161C200 321 231 382 291 382C321 382 336 366 343 344C347 334 348 324 348 313H404C409 331 413 347 413 376C413 428 387 495 314 495ZM60 478V0H200V273L193 311L178 485ZM50 734 186 554H261L397 734L353 771L223 653L94 771Z" glyph-name="rcaron" horiz-adv-x="424" unicode="&#345;" /><glyph d="M314 495C192 495 183 330 183 210L200 161C200 321 231 382 291 382C321 382 336 366 343 344C347 334 348 324 348 313H404C409 331 413 347 413 376C413 428 387 495 314 495ZM60 478V0H200V273L193 311L178 485ZM52 -227 120 -240 201 -56H89Z" glyph-name="rcommaaccent" horiz-adv-x="424" unicode="&#343;" /><glyph d="M286 210C438 210 540 318 540 460C540 603 439 710 286 710C133 710 32 603 32 460C32 318 134 210 286 210ZM286 265C153 265 93 354 93 460C93 567 153 654 286 654C410 654 478 567 478 460C478 354 419 265 286 265ZM370 327C385 327 404 332 412 340L409 351C403 353 399 355 397 370C390 370 390 383 390 399C390 438 375 454 339 457C374 465 397 483 397 522C397 570 360 591 298 591H185V331H259V433H282C306 433 315 422 315 394C315 343 329 327 370 327ZM284 542C310 542 326 532 326 508C326 485 311 474 283 474H259V542Z" glyph-name="registered" horiz-adv-x="572" unicode="&#174;" /><glyph d="M125 688C125 622 175 570 249 570C326 570 375 622 375 688C375 754 326 805 249 805C177 805 125 754 125 688ZM300 677C300 648 278 625 250 625C220 625 199 648 199 677C199 707 220 730 250 730C278 730 300 707 300 677Z" glyph-name="ring" horiz-adv-x="500" unicode="&#730;" /><glyph d="M126 828C126 764 176 712 249 712C324 712 373 764 373 828C373 893 324 944 249 944C178 944 126 893 126 828ZM298 818C298 790 277 768 250 768C221 768 201 790 201 818C201 847 221 869 250 869C277 869 298 847 298 818Z" glyph-name="ring.cap" horiz-adv-x="500" /><glyph d="M36 153C36 49 101 -13 223 -13C350 -13 418 53 418 143C418 217 379 265 281 293C206 315 187 326 187 361C187 395 215 414 258 414C312 414 337 374 342 339H399C414 436 348 495 237 495C120 495 48 427 48 335C48 247 103 204 196 178C260 161 280 145 280 109C280 70 248 56 202 56C139 56 98 92 85 153Z" glyph-name="s" horiz-adv-x="446" unicode="s" /><glyph d="M25 496C26 434 66 396 142 396C227 396 268 438 268 491C268 535 244 565 183 582C137 595 128 601 128 617C128 634 141 645 166 645C199 645 212 624 216 603H256C267 663 226 699 153 699C76 699 31 656 31 600C31 546 65 520 124 504C160 495 172 489 172 470C172 452 155 443 128 443C94 443 68 462 60 496Z" glyph-name="s.superior" horiz-adv-x="285" /><glyph d="M36 153C36 49 101 -13 223 -13C350 -13 418 53 418 143C418 217 379 265 281 293C206 315 187 326 187 361C187 395 215 414 258 414C312 414 337 374 342 339H399C414 436 348 495 237 495C120 495 48 427 48 335C48 247 103 204 196 178C260 161 280 145 280 109C280 70 248 56 202 56C139 56 98 92 85 153ZM141 588 193 545 360 704 276 780Z" glyph-name="sacute" horiz-adv-x="446" unicode="&#347;" /><glyph d="M36 153C36 49 101 -13 223 -13C350 -13 418 53 418 143C418 217 379 265 281 293C206 315 187 326 187 361C187 395 215 414 258 414C312 414 337 374 342 339H399C414 436 348 495 237 495C120 495 48 427 48 335C48 247 103 204 196 178C260 161 280 145 280 109C280 70 248 56 202 56C139 56 98 92 85 153ZM53 734 189 554H264L400 734L356 771L226 653L97 771Z" glyph-name="scaron" horiz-adv-x="446" unicode="&#353;" /><glyph d="M36 153C36 49 101 -13 223 -13C350 -13 418 53 418 143C418 217 379 265 281 293C206 315 187 326 187 361C187 395 215 414 258 414C312 414 337 374 342 339H399C414 436 348 495 237 495C120 495 48 427 48 335C48 247 103 204 196 178C260 161 280 145 280 109C280 70 248 56 202 56C139 56 98 92 85 153ZM158 -116C151 -165 173 -206 240 -206C290 -206 329 -176 329 -118C329 -53 275 -29 213 -45L233 -47L235 0L199 3L179 -69L199 -82C231 -77 251 -89 251 -118C251 -141 237 -154 219 -154C195 -154 185 -142 186 -116Z" glyph-name="scedilla" horiz-adv-x="446" unicode="&#351;" /><glyph d="M453 251C453 404 372 488 223 488C102 488 33 407 33 302H74C81 356 119 395 189 395C283 395 314 329 314 239C314 239 314 219 314 218C313 128 274 82 222 82C165 82 156 121 156 153C156 165 158 181 159 185L378 190L380 241H52C49 224 45 178 45 151C45 59 101 -20 230 -20C364 -20 453 103 453 251Z" glyph-name="schwa" horiz-adv-x="485" unicode="&#601;" /><glyph d="M36 153C36 49 101 -13 223 -13C350 -13 418 53 418 143C418 217 379 265 281 293C206 315 187 326 187 361C187 395 215 414 258 414C312 414 337 374 342 339H399C414 436 348 495 237 495C120 495 48 427 48 335C48 247 103 204 196 178C260 161 280 145 280 109C280 70 248 56 202 56C139 56 98 92 85 153ZM55 586 97 546 228 664 359 546 402 586 266 764H191Z" glyph-name="scircumflex" horiz-adv-x="446" unicode="&#349;" /><glyph d="M36 153C36 49 101 -13 223 -13C350 -13 418 53 418 143C418 217 379 265 281 293C206 315 187 326 187 361C187 395 215 414 258 414C312 414 337 374 342 339H399C414 436 348 495 237 495C120 495 48 427 48 335C48 247 103 204 196 178C260 161 280 145 280 109C280 70 248 56 202 56C139 56 98 92 85 153ZM130 -227 198 -240 279 -56H167Z" glyph-name="scommaaccent" horiz-adv-x="446" unicode="&#537;" /><glyph d="M408 528H460C460 620 394 690 270 690C139 690 66 623 66 523C66 419 157 381 243 346C309 320 353 299 353 247C353 214 340 192 316 174L385 142C431 167 478 221 478 290C478 387 407 425 327 456C265 481 217 498 217 544C217 586 245 612 298 612C367 612 401 571 408 528ZM117 17H65C65 -81 136 -155 260 -155C391 -155 477 -95 477 13C477 120 381 158 292 194C227 219 184 241 184 291C184 325 200 348 222 365L151 397C107 371 59 325 59 250C59 159 122 120 199 88C269 60 327 42 327 -8C327 -52 296 -76 231 -76C153 -76 124 -26 117 17Z" glyph-name="section" horiz-adv-x="535" unicode="&#167;" /><glyph d="M55 -137 82 -176C135 -152 220 -60 220 57C220 104 193 139 140 139C98 139 66 108 66 65C66 18 92 -7 139 -7C134 -58 90 -114 55 -137ZM65 410C65 370 95 332 144 332C190 332 218 370 218 410C218 448 190 485 144 485C95 485 65 448 65 410Z" glyph-name="semicolon" horiz-adv-x="285" unicode=";" /><glyph d="M500 673H40V560H418L397 602C199 391 121 208 106 0H261C277 159 323 344 500 594Z" glyph-name="seven" horiz-adv-x="520" unicode="7" /><glyph d="M46 527V425H366L346 463C185 312 113 179 98 0H248C263 134 304 269 445 457V527Z" glyph-name="seven.small" horiz-adv-x="474" /><glyph d="M310 0C319 137 351 272 485 457V527H60V342H142V425H349C228 293 174 162 161 0Z" glyph-name="seven.small_tab" horiz-adv-x="523" /><glyph d="M309 0C323 152 426 402 570 594V673H58V455H148V560H426C280 392 171 179 154 0Z" glyph-name="seven.tab" horiz-adv-x="603" /><glyph d="M313 305H22V226H256L240 255C118 134 72 31 61 -100H170C180 -2 205 101 313 250Z" glyph-name="seveninferior" horiz-adv-x="335" unicode="&#8327;" /><glyph d="M313 809H22V730H256L240 759C118 638 72 535 61 404H170C180 502 205 605 313 754Z" glyph-name="sevensuperior" horiz-adv-x="335" unicode="&#8311;" /><glyph d="M307 320C369 320 405 281 405 214C405 154 371 106 304 106C237 106 205 152 205 213C205 279 242 320 307 320ZM312 683C126 683 38 519 38 327C38 125 117 -13 310 -13C438 -13 539 63 539 215C539 351 459 418 354 418C231 418 171 336 175 234L185 235C182 250 181 321 181 336C181 504 246 567 337 567C421 567 450 515 456 468H532C541 594 474 683 312 683Z" glyph-name="six" horiz-adv-x="585" unicode="6" /><glyph d="M273 241C324 241 345 212 345 167C345 127 323 93 271 93C223 93 200 122 200 165C200 212 227 241 273 241ZM279 537C120 537 40 404 40 255C40 99 109 -13 277 -13C387 -13 476 48 476 169C476 273 411 327 319 327C217 327 171 262 172 190H180C179 195 178 261 178 263C178 391 235 432 303 432C366 432 393 397 398 362H470C479 467 416 537 279 537Z" glyph-name="six.small" horiz-adv-x="523" /><glyph d="M273 241C324 241 345 212 345 167C345 127 323 93 271 93C223 93 200 122 200 165C200 212 227 241 273 241ZM279 537C120 537 40 404 40 255C40 99 109 -13 277 -13C387 -13 476 48 476 169C476 273 411 327 319 327C217 327 171 262 172 190H180C179 195 178 261 178 263C178 391 235 432 303 432C366 432 393 397 398 362H470C479 467 416 537 279 537Z" glyph-name="six.small_tab" horiz-adv-x="523" /><glyph d="M320 320C382 320 418 281 418 214C418 154 384 106 317 106C250 106 218 152 218 213C218 279 255 320 320 320ZM325 683C139 683 51 519 51 327C51 125 130 -13 323 -13C451 -13 552 63 552 215C552 351 472 418 367 418C244 418 184 336 188 234L198 235C195 250 194 321 194 336C194 504 259 567 350 567C434 567 463 515 469 468H545C554 594 487 683 325 683Z" glyph-name="six.tab" horiz-adv-x="603" /><glyph d="M192 85C227 85 245 63 245 29C245 -1 227 -27 190 -27C153 -27 137 -3 137 29C137 65 158 85 192 85ZM195 311C78 311 21 211 21 96C21 -23 71 -109 195 -109C275 -109 339 -63 339 30C339 110 291 152 225 152C148 152 114 101 116 47H122C122 52 121 98 121 103C121 201 163 231 213 231C259 231 278 205 282 177H335C341 259 295 311 195 311Z" glyph-name="sixinferior" horiz-adv-x="367" unicode="&#8326;" /><glyph d="M192 589C227 589 245 567 245 533C245 503 227 477 190 477C153 477 137 501 137 533C137 569 158 589 192 589ZM195 815C78 815 21 715 21 600C21 481 71 395 195 395C275 395 339 441 339 534C339 614 291 656 225 656C148 656 114 605 116 551H122C122 556 121 602 121 607C121 705 163 735 213 735C259 735 278 709 282 681H335C341 763 295 815 195 815Z" glyph-name="sixsuperior" horiz-adv-x="367" unicode="&#8310;" /><glyph d="M143 -88 441 710H305L7 -88Z" glyph-name="slash" horiz-adv-x="448" unicode="/" /><glyph glyph-name="space" horiz-adv-x="231" unicode=" " /><glyph d="M359 566C422 566 452 530 466 483H543C538 621 455 683 339 683C194 683 118 586 118 478C118 354 157 307 157 219C157 123 61 67 61 67L90 -7C123 7 195 27 242 27C331 27 347 -9 428 -9C499 -9 546 43 564 103L536 130C518 110 497 100 471 100C423 100 409 135 336 135C271 135 211 93 180 73L183 70C243 120 294 162 294 235C294 315 253 370 253 456C253 532 298 566 359 566ZM433 378H52V296H433Z" glyph-name="sterling" horiz-adv-x="603" unicode="&#163;" /><glyph d="M62 -127H566V-22H225L431 248V315L229 585H566V690H65V597L301 277L62 -36Z" glyph-name="summation" horiz-adv-x="628" unicode="&#8721;" /><glyph d="M70 168C70 32 121 -13 216 -13C305 -13 336 39 336 120H305C305 97 293 81 260 81C224 81 210 103 210 147V592L70 581ZM2 462V413H325V478H75Z" glyph-name="t" horiz-adv-x="357" unicode="t" /><glyph d="M42 512C42 424 79 396 140 396C198 396 217 430 217 483H195C195 469 190 459 171 459C152 459 141 470 141 498V755L42 747ZM3 678V643H210V688H49Z" glyph-name="t.superior" horiz-adv-x="231" /><glyph d="M12 298V233H329V298ZM74 168C74 32 125 -13 220 -13C309 -13 340 39 340 120H309C309 97 297 81 264 81C228 81 214 103 214 147V592L74 581ZM6 462V413H329V478H79Z" glyph-name="tbar" horiz-adv-x="364" unicode="&#359;" /><glyph d="M291 523H369L425 710H309ZM70 168C70 32 121 -13 216 -13C305 -13 336 39 336 120H305C305 97 293 81 260 81C224 81 210 103 210 147V592L70 581ZM2 462V413H325V478H75Z" glyph-name="tcaron" horiz-adv-x="364" unicode="&#357;" /><glyph d="M70 168C70 32 121 -13 216 -13C305 -13 336 39 336 120H305C305 97 293 81 260 81C224 81 210 103 210 147V592L70 581ZM2 462V413H325V478H75ZM130 -116C123 -165 145 -206 212 -206C262 -206 301 -176 301 -118C301 -53 247 -29 185 -45L205 -47L207 0L171 3L151 -69L171 -82C203 -77 223 -89 223 -118C223 -141 209 -154 191 -154C167 -154 157 -142 158 -116Z" glyph-name="tcedilla" horiz-adv-x="357" unicode="&#355;" /><glyph d="M70 168C70 32 121 -13 216 -13C305 -13 336 39 336 120H305C305 97 293 81 260 81C224 81 210 103 210 147V592L70 581ZM2 462V413H325V478H75ZM126 -227 194 -240 275 -56H163Z" glyph-name="tcommaaccent" horiz-adv-x="357" unicode="&#539;" /><glyph d="M179 245C179 71 229 -14 339 -14C449 -14 528 91 528 244C528 414 439 494 339 494C207 494 179 372 179 245ZM384 226C384 145 352 85 292 85C236 85 200 145 200 225C200 336 236 385 292 385C345 385 384 337 384 226ZM60 477V-241H200V284L192 326L177 484ZM60 702V0H201V710Z" glyph-name="thorn" horiz-adv-x="560" unicode="&#254;" /><glyph d="M196 331H242C363 331 507 361 507 502C507 622 411 683 285 683C160 683 49 611 59 461H130C135 522 173 567 248 567C316 567 354 532 354 474C354 403 294 385 223 385H177V304H231C311 304 368 280 368 210C368 144 321 107 246 107C175 107 122 147 117 219H41C29 50 138 -13 281 -13C430 -13 526 63 526 189C526 335 370 358 242 358H196Z" glyph-name="three" horiz-adv-x="571" unicode="3" /><glyph d="M62 357H127C134 400 166 432 222 432C276 432 305 411 305 370C305 319 261 303 200 303H166V230H208C270 230 316 215 316 165C316 119 279 94 222 94C164 94 123 123 117 174H46C36 37 134 -13 256 -13C385 -13 468 47 468 147C468 264 328 280 220 280H175V256H220C325 256 452 278 452 393C452 488 367 537 258 537C157 537 53 480 62 357Z" glyph-name="three.small" horiz-adv-x="523" /><glyph d="M62 357H127C134 400 166 432 222 432C276 432 305 411 305 370C305 319 261 303 200 303H166V230H208C270 230 316 215 316 165C316 119 279 94 222 94C164 94 123 123 117 174H46C36 37 134 -13 256 -13C385 -13 468 47 468 147C468 264 328 280 220 280H175V256H220C325 256 452 278 452 393C452 488 367 537 258 537C157 537 53 480 62 357Z" glyph-name="three.small_tab" horiz-adv-x="523" /><glyph d="M210 331H256C377 331 521 361 521 502C521 622 425 683 299 683C174 683 63 611 73 461H144C149 522 187 567 262 567C330 567 368 532 368 474C368 403 308 385 237 385H191V304H245C325 304 382 280 382 210C382 144 335 107 260 107C189 107 136 147 131 219H55C43 50 152 -13 295 -13C444 -13 540 63 540 189C540 335 384 358 256 358H210Z" glyph-name="three.tab" horiz-adv-x="603" /><glyph d="M121 98H149C226 98 320 113 320 201C320 275 257 311 178 311C102 311 28 269 33 174H82C86 207 109 231 151 231C190 231 212 213 212 182C212 142 179 133 136 133H109V79H140C186 79 220 66 220 29C220 -7 193 -27 151 -27C109 -27 79 -5 74 35H22C15 -72 88 -109 176 -109C270 -109 331 -62 331 14C331 105 228 116 149 116H121Z" glyph-name="threeinferior" horiz-adv-x="357" unicode="&#8323;" /><glyph d="M602 0V264L627 265L493 88L491 136H742V71H468V132L608 316H695V0ZM32 568C25 647 88 677 144 677C204 677 254 647 254 590C254 523 187 511 131 511H108V525H131C190 525 263 515 263 446C263 389 216 351 141 351C72 351 16 381 23 467H69C70 441 88 425 116 425C145 425 161 439 161 463C161 484 144 495 111 495H89V539H108C140 539 155 550 155 572C155 591 141 604 118 604C92 604 76 591 75 568ZM509 673H618L276 0H166Z" glyph-name="threequarters" horiz-adv-x="755" unicode="&#190;" /><glyph d="M121 602H149C226 602 320 617 320 705C320 779 257 815 178 815C102 815 28 773 33 678H82C86 711 109 735 151 735C190 735 212 717 212 686C212 646 179 637 136 637H109V583H140C186 583 220 570 220 533C220 497 193 477 151 477C109 477 79 499 74 539H22C15 432 88 395 176 395C270 395 331 442 331 518C331 609 228 620 149 620H121Z" glyph-name="threesuperior" horiz-adv-x="357" unicode="&#179;" /><glyph d="M106 576H137C129 616 136 650 171 650C227 650 236 577 317 577C393 577 427 649 395 749H362C370 709 364 675 330 675C277 675 268 748 183 748C108 748 72 680 106 576Z" glyph-name="tilde" horiz-adv-x="500" unicode="&#732;" /><glyph d="M332 832C280 832 268 896 186 896C109 896 74 834 106 740H138C131 775 138 804 172 804C227 804 239 740 319 740C396 740 430 806 398 897H366C372 863 366 832 332 832Z" glyph-name="tilde.cap" horiz-adv-x="500" /><glyph d="M469 320 475 651H423L570 323H622L769 629L725 652L732 320H818L812 690H711L575 404H640L514 690H389L382 320ZM235 320V689H121V320ZM12 689V611H340V689Z" glyph-name="trademark" horiz-adv-x="854" unicode="&#8482;" /><glyph d="M535 1V114H132L146 26C327 173 521 273 521 462C521 593 440 682 292 682C92 682 25 515 65 388H146C128 483 168 562 262 562C332 562 364 511 364 445C364 314 221 213 60 71V1Z" glyph-name="two" horiz-adv-x="580" unicode="2" /><glyph d="M58 297H135C124 371 157 428 227 428C281 428 304 390 304 343C304 244 186 162 56 59V1H466V104H131L139 24C290 132 456 206 456 357C456 463 385 537 257 537C83 537 23 398 58 297Z" glyph-name="two.small" horiz-adv-x="523" /><glyph d="M58 297H135C124 371 157 428 227 428C281 428 304 390 304 343C304 244 186 162 56 59V1H466V104H131L139 24C290 132 456 206 456 357C456 463 385 537 257 537C83 537 23 398 58 297Z" glyph-name="two.small_tab" horiz-adv-x="523" /><glyph d="M540 1V114H137L151 26C332 173 526 273 526 462C526 593 445 682 297 682C97 682 30 515 70 388H151C133 483 173 562 267 562C337 562 369 511 369 445C369 314 226 213 65 71V1Z" glyph-name="two.tab" horiz-adv-x="603" /><glyph d="M337 -99V-22H88L97 -82C205 -1 329 59 329 176C329 257 277 311 183 311C55 311 12 206 38 129H94C86 185 108 228 161 228C201 228 218 201 218 165C218 89 131 23 36 -56V-99Z" glyph-name="twoinferior" horiz-adv-x="363" unicode="&#8322;" /><glyph d="M337 405V482H88L97 422C205 503 329 563 329 680C329 761 277 815 183 815C55 815 12 710 38 633H94C86 689 108 732 161 732C201 732 218 705 218 669C218 593 131 527 36 448V405Z" glyph-name="twosuperior" horiz-adv-x="363" unicode="&#178;" /><glyph d="M366 261 354 317C354 173 327 105 267 105C216 105 195 137 195 244V485L55 477V177C55 62 88 -13 205 -13C355 -13 366 139 366 261ZM359 134 366 0H495V485L354 477V209Z" glyph-name="u" horiz-adv-x="554" unicode="u" /><glyph d="M228 564 220 600C220 512 204 475 171 475C144 475 133 492 133 554V693L34 687V508C34 440 55 396 128 396C224 396 228 491 228 564ZM223 485 228 404H319V693L220 687V534Z" glyph-name="u.superior" horiz-adv-x="356" /><glyph d="M366 261 354 317C354 173 327 105 267 105C216 105 195 137 195 244V485L55 477V177C55 62 88 -13 205 -13C355 -13 366 139 366 261ZM359 134 366 0H495V485L354 477V209ZM199 588 251 545 418 704 334 780Z" glyph-name="uacute" horiz-adv-x="554" unicode="&#250;" /><glyph d="M366 261 354 317C354 173 327 105 267 105C216 105 195 137 195 244V485L55 477V177C55 62 88 -13 205 -13C355 -13 366 139 366 261ZM359 134 366 0H495V485L354 477V209ZM283 567C401 567 442 656 435 753H390C383 716 366 664 283 664C200 664 183 716 177 753H131C124 656 165 567 283 567Z" glyph-name="ubreve" horiz-adv-x="554" unicode="&#365;" /><glyph d="M366 261 354 317C354 173 327 105 267 105C216 105 195 137 195 244V485L55 477V177C55 62 88 -13 205 -13C355 -13 366 139 366 261ZM359 134 366 0H495V485L354 477V209ZM108 586 150 546 281 664 412 546 455 586 319 764H244Z" glyph-name="ucircumflex" horiz-adv-x="554" unicode="&#251;" /><glyph d="M366 261 354 317C354 173 327 105 267 105C216 105 195 137 195 244V485L55 477V177C55 62 88 -13 205 -13C355 -13 366 139 366 261ZM359 134 366 0H495V485L354 477V209ZM139 605H252V725H139ZM321 605H434V725H321Z" glyph-name="udieresis" horiz-adv-x="554" unicode="&#252;" /><glyph d="M366 261 354 317C354 173 327 105 267 105C216 105 195 137 195 244V485L55 477V177C55 62 88 -13 205 -13C355 -13 366 139 366 261ZM359 134 366 0H495V485L354 477V209ZM150 704 317 545 369 588 234 780Z" glyph-name="ugrave" horiz-adv-x="554" unicode="&#249;" /><glyph d="M366 261 354 317C354 173 327 105 267 105C216 105 195 137 195 244V485L55 477V177C55 62 88 -13 205 -13C355 -13 366 139 366 261ZM359 134 366 0H495V485L354 477V209ZM132 579 198 547 312 741 221 778ZM317 579 384 547 502 730 415 773Z" glyph-name="uhungarumlaut" horiz-adv-x="554" unicode="&#369;" /><glyph d="M366 261 354 317C354 173 327 105 267 105C216 105 195 137 195 244V485L55 477V177C55 62 88 -13 205 -13C355 -13 366 139 366 261ZM359 134 366 0H495V485L354 477V209ZM132 723V635H428V723Z" glyph-name="umacron" horiz-adv-x="554" unicode="&#363;" /><glyph d="M0 -140V-250H545V-140Z" glyph-name="underscore" horiz-adv-x="546" unicode="_" /><glyph d="M385 -14C178 -14 41 125 41 343C41 562 192 698 385 698C579 698 730 562 730 343C730 125 579 -14 385 -14ZM386 57C546 57 652 173 652 343C652 508 546 627 386 627C225 627 122 511 122 343C122 179 214 57 386 57ZM252 532V156H361V528L301 456H390C435 456 462 441 462 403C462 363 434 349 391 349H300V275H420C512 275 570 322 570 408C570 487 512 532 423 532Z" glyph-name="uni2117" horiz-adv-x="771" unicode="&#8471;" /><glyph d="M319 -135C319 -181 346 -218 407 -218C477 -218 499 -171 495 -115H465C465 -135 456 -156 436 -156C410 -156 404 -136 404 -118C404 -59 442 -8 492 0L451 25C392 -5 319 -56 319 -135ZM366 261 354 317C354 173 327 105 267 105C216 105 195 137 195 244V485L55 477V177C55 62 88 -13 205 -13C355 -13 366 139 366 261ZM359 134 366 0H495V485L354 477V209Z" glyph-name="uogonek" horiz-adv-x="554" unicode="&#371;" /><glyph d="M366 261 354 317C354 173 327 105 267 105C216 105 195 137 195 244V485L55 477V177C55 62 88 -13 205 -13C355 -13 366 139 366 261ZM359 134 366 0H495V485L354 477V209ZM157 688C157 622 207 570 281 570C358 570 407 622 407 688C407 754 358 805 281 805C209 805 157 754 157 688ZM332 677C332 648 310 625 282 625C252 625 231 648 231 677C231 707 252 730 282 730C310 730 332 707 332 677Z" glyph-name="uring" horiz-adv-x="554" unicode="&#367;" /><glyph d="M366 261 354 317C354 173 327 105 267 105C216 105 195 137 195 244V485L55 477V177C55 62 88 -13 205 -13C355 -13 366 139 366 261ZM359 134 366 0H495V485L354 477V209ZM142 576H173C165 616 172 650 207 650C263 650 272 577 353 577C429 577 463 649 431 749H398C406 709 400 675 366 675C313 675 304 748 219 748C144 748 108 680 142 576Z" glyph-name="utilde" horiz-adv-x="554" unicode="&#361;" /><glyph d="M-1 478 163 0H305L467 478H346L240 132H256L153 478Z" glyph-name="v" horiz-adv-x="466" unicode="v" /><glyph d="M-1 688 100 404H200L301 688H215L155 493H165L108 688Z" glyph-name="v.superior" horiz-adv-x="299" /><glyph d="M0 478 142 0H261L358 284H351L447 0H567L707 478H594L515 173L423 463H328L239 173L155 478Z" glyph-name="w" horiz-adv-x="707" unicode="w" /><glyph d="M-1 688 87 404H172L227 563H221L277 404H361L448 688H368L324 520L273 681H206L156 519L108 688Z" glyph-name="w.superior" horiz-adv-x="447" /><glyph d="M0 478 142 0H261L358 284H351L447 0H567L707 478H594L515 173L423 463H328L239 173L155 478ZM336 588 388 545 555 704 471 780Z" glyph-name="wacute" horiz-adv-x="707" unicode="&#7811;" /><glyph d="M0 478 142 0H261L358 284H351L447 0H567L707 478H594L515 173L423 463H328L239 173L155 478ZM216 586 258 546 389 664 520 546 563 586 427 764H352Z" glyph-name="wcircumflex" horiz-adv-x="707" unicode="&#373;" /><glyph d="M0 478 142 0H261L358 284H351L447 0H567L707 478H594L515 173L423 463H328L239 173L155 478ZM243 605H356V725H243ZM425 605H538V725H425Z" glyph-name="wdieresis" horiz-adv-x="707" unicode="&#7813;" /><glyph d="M0 478 142 0H261L358 284H351L447 0H567L707 478H594L515 173L423 463H328L239 173L155 478ZM233 704 400 545 452 588 317 780Z" glyph-name="wgrave" horiz-adv-x="707" unicode="&#7809;" /><glyph d="M192 209 300 0H470L301 284L275 302L183 478H14L152 231ZM164 265 4 0H120L221 192L289 210L456 478H342L230 272Z" glyph-name="x" horiz-adv-x="474" unicode="x" /><glyph d="M121 525 185 404H303L196 575L180 587L126 688H7L94 540ZM100 562 2 404H84L142 514L190 526L294 688H215L147 567Z" glyph-name="x.superior" horiz-adv-x="305" /><glyph d="M12 -111C11 -141 -3 -250 117 -250C160 -250 214 -224 253 -123L480 478H357L240 111L177 -59C151 -130 135 -156 97 -156C59 -156 44 -135 44 -111ZM-4 478 198 -27 293 51 161 478Z" glyph-name="y" horiz-adv-x="479" unicode="y" /><glyph d="M9 346C7 328 -3 256 78 256C108 256 142 272 168 335L309 688H222L152 476L115 378C97 333 87 318 63 318C40 318 31 331 31 346ZM-3 688 124 386 193 443 110 688Z" glyph-name="y.superior" horiz-adv-x="308" /><glyph d="M12 -111C11 -141 -3 -250 117 -250C160 -250 214 -224 253 -123L480 478H357L240 111L177 -59C151 -130 135 -156 97 -156C59 -156 44 -135 44 -111ZM-4 478 198 -27 293 51 161 478ZM165 588 217 545 384 704 300 780Z" glyph-name="yacute" horiz-adv-x="479" unicode="&#253;" /><glyph d="M12 -111C11 -141 -3 -250 117 -250C160 -250 214 -224 253 -123L480 478H357L240 111L177 -59C151 -130 135 -156 97 -156C59 -156 44 -135 44 -111ZM-4 478 198 -27 293 51 161 478ZM84 586 126 546 257 664 388 546 431 586 295 764H220Z" glyph-name="ycircumflex" horiz-adv-x="479" unicode="&#375;" /><glyph d="M12 -111C11 -141 -3 -250 117 -250C160 -250 214 -224 253 -123L480 478H357L240 111L177 -59C151 -130 135 -156 97 -156C59 -156 44 -135 44 -111ZM-4 478 198 -27 293 51 161 478ZM111 605H224V725H111ZM293 605H406V725H293Z" glyph-name="ydieresis" horiz-adv-x="479" unicode="&#255;" /><glyph d="M370 261 243 266 8 673H184L346 376H326L483 673H595ZM240 298H378V0H240ZM527 216V137H89V216ZM228 363 235 284H89V363ZM527 363V284H380L388 363Z" glyph-name="yen" horiz-adv-x="603" unicode="&#165;" /><glyph d="M12 -111C11 -141 -3 -250 117 -250C160 -250 214 -224 253 -123L480 478H357L240 111L177 -59C151 -130 135 -156 97 -156C59 -156 44 -135 44 -111ZM-4 478 198 -27 293 51 161 478ZM137 704 304 545 356 588 221 780Z" glyph-name="ygrave" horiz-adv-x="479" unicode="&#7923;" /><glyph d="M32 74V0H409V100H106L132 24L406 384V478H43V368H356L315 445Z" glyph-name="z" horiz-adv-x="442" unicode="z" /><glyph d="M22 454V404H262V471H75L93 421L260 625V688H28V615H225L194 667Z" glyph-name="z.superior" horiz-adv-x="284" /><glyph d="M32 74V0H409V100H106L132 24L406 384V478H43V368H356L315 445ZM144 588 196 545 363 704 279 780Z" glyph-name="zacute" horiz-adv-x="442" unicode="&#378;" /><glyph d="M32 74V0H409V100H106L132 24L406 384V478H43V368H356L315 445ZM61 734 197 554H272L408 734L364 771L234 653L105 771Z" glyph-name="zcaron" horiz-adv-x="442" unicode="&#382;" /><glyph d="M32 74V0H409V100H106L132 24L406 384V478H43V368H356L315 445ZM162 603H307V725H162Z" glyph-name="zdotaccent" horiz-adv-x="442" unicode="&#380;" /><glyph d="M317 108C241 108 189 164 189 336C189 500 237 564 317 564C390 564 446 500 446 338C446 180 396 108 317 108ZM304 -13C465 -13 576 99 576 337C576 578 461 683 304 683C142 683 32 572 32 335C32 93 147 -13 304 -13Z" glyph-name="zero" horiz-adv-x="607" unicode="0" /><glyph d="M275 96C215 96 176 135 176 263C176 386 213 429 275 429C332 429 374 383 374 263C374 146 336 96 275 96ZM263 -11C404 -11 499 75 499 262C499 451 402 537 263 537C121 537 24 449 24 262C24 73 122 -11 263 -11Z" glyph-name="zero.small" horiz-adv-x="523" /><glyph d="M275 96C215 96 176 135 176 263C176 386 213 429 275 429C332 429 374 383 374 263C374 146 336 96 275 96ZM263 -11C404 -11 499 75 499 262C499 451 402 537 263 537C121 537 24 449 24 262C24 73 122 -11 263 -11Z" glyph-name="zero.small_tab" horiz-adv-x="523" /><glyph d="M314 108C238 108 186 164 186 336C186 500 234 564 314 564C387 564 443 500 443 338C443 180 393 108 314 108ZM301 -13C462 -13 573 99 573 337C573 578 458 683 301 683C139 683 29 572 29 335C29 93 144 -13 301 -13Z" glyph-name="zero.tab" horiz-adv-x="603" /><glyph d="M201 -25C157 -25 130 5 130 101C130 196 156 229 201 229C243 229 273 194 273 102C273 13 246 -25 201 -25ZM192 -108C295 -108 364 -42 364 101C364 246 293 311 192 311C89 311 19 245 19 101C19 -44 90 -108 192 -108Z" glyph-name="zeroinferior" horiz-adv-x="383" unicode="&#8320;" /><glyph d="M304 -13C465 -13 576 99 576 337C576 578 461 683 304 683C142 683 32 572 32 335C32 93 147 -13 304 -13ZM317 101C241 101 182 155 182 336C182 505 237 571 317 571C390 571 454 506 454 338C454 173 396 101 317 101ZM442 605 138 99 185 68 488 572Z" glyph-name="zeroslash" horiz-adv-x="607" /><glyph d="M364 470 136 90 183 59 410 438ZM275 96C215 96 176 135 176 263C176 386 213 429 275 429C332 429 374 383 374 263C374 146 336 96 275 96ZM263 -11C404 -11 499 75 499 262C499 451 402 537 263 537C121 537 24 449 24 262C24 73 122 -11 263 -11Z" glyph-name="zeroslash.small" horiz-adv-x="523" /><glyph d="M364 470 136 90 183 59 410 438ZM275 96C215 96 176 135 176 263C176 386 213 429 275 429C332 429 374 383 374 263C374 146 336 96 275 96ZM263 -11C404 -11 499 75 499 262C499 451 402 537 263 537C121 537 24 449 24 262C24 73 122 -11 263 -11Z" glyph-name="zeroslash.small_tab" horiz-adv-x="523" /><glyph d="M301 -13C462 -13 573 99 573 337C573 578 458 683 301 683C139 683 29 572 29 335C29 93 144 -13 301 -13ZM314 101C238 101 179 155 179 336C179 505 234 571 314 571C387 571 451 506 451 338C451 173 393 101 314 101ZM439 605 135 99 182 68 485 572Z" glyph-name="zeroslash.tab" horiz-adv-x="603" /><glyph d="M201 479C157 479 130 509 130 605C130 700 156 733 201 733C243 733 273 698 273 606C273 517 246 479 201 479ZM192 396C295 396 364 462 364 605C364 750 293 815 192 815C89 815 19 749 19 605C19 460 90 396 192 396Z" glyph-name="zerosuperior" horiz-adv-x="383" unicode="&#8304;" /></font>
</defs>
</svg>
