<?xml version="1.0" standalone="no"?>
<!DOCTYPE svg PUBLIC "-//W3C//DTD SVG 1.1//EN" "http://www.w3.org/Graphics/SVG/1.1/DTD/svg11.dtd" >
<svg xmlns="http://www.w3.org/2000/svg" xmlns:xlink="http://www.w3.org/1999/xlink" version="1.1">
<metadata>
Created by FontForge 20170812 at Mon Jun 27 14:13:50 2022
 By www-data
</metadata>
<defs>
<font id="BabeRegular" horiz-adv-x="0" >
  <font-face 
    font-family="Babe"
    font-weight="400"
    font-stretch="normal"
    units-per-em="1000"
    panose-1="0 0 0 0 0 0 0 0 0 0"
    ascent="800"
    descent="-200"
    x-height="356.522"
    cap-height="928.778"
    bbox="-470.365 -803.241 2161.49 1221.84"
    underline-thickness="50"
    underline-position="-100"
    unicode-range="U+000A-F000"
  />
<missing-glyph horiz-adv-x="527" 
d="M50 700h427v-700h-427v700zM78 680l185 -309l186 309h-371zM251 350l-180 300v-601zM264 329l-185 -308h370zM276 350l181 -303v605z" />
    <glyph glyph-name="tt.liga" unicode="tt" horiz-adv-x="776" 
d="M-378.591 597.588c35.4131 -45.5547 89.6191 -62.042 144.901 -68.7979c68.1787 -8.33789 138.472 -6.29785 206.996 -4.4502c17.4697 0.467773 34.9053 1.14746 52.3262 1.9707c26.0352 77.4189 69.5498 146.746 141.164 188.014
c50.7441 29.2432 131.051 34.2793 176.808 -8.19531c38.8232 -36.0391 44.6289 -93.8496 34.9844 -144.017c16.5527 2.37988 33.1006 4.8291 49.6387 7.33789c26.7793 59.6143 66.3115 111.457 124.3 144.874c50.7441 29.2432 131.051 34.2793 176.808 -8.19531
c23.0537 -21.3975 34.3926 -50.4824 37.8467 -81.0752c118.942 19.4756 238.624 35.9307 359.213 39.7891c106.416 3.40039 217.823 -1.5918 308.558 -63.5957c17.3955 -11.8867 -17.6572 -36.251 -33.5645 -25.3604c-109.692 75.0977 -261.929 60.6191 -387.396 49.8955
c-82.3525 -7.03711 -164.183 -18.1748 -245.796 -30.9971c-0.792969 -18.0713 -3.86816 -35.9746 -8.5498 -52.4785c-36.2012 -127.636 -155.06 -200.984 -271.494 -246.722c-0.985352 -0.389648 -1.92188 -0.616211 -2.87305 -0.892578
c0.0146484 -4.15918 -0.00976562 -8.31348 0.0546875 -12.4775c0.960938 -60.6289 7.75684 -121.175 19.7666 -180.606c8.09668 -40.0996 24.0293 -112.576 68.5781 -127.744c56.1797 -19.126 101.06 66.7793 124.537 106.169
c30.3906 50.9951 54.0107 105.849 74.6934 161.397c5.57324 14.9814 41.9219 22.6055 35.4219 2.14453c-24.7285 -77.8623 -58.4268 -152.704 -105.662 -219.632c-40.8779 -57.9141 -110.767 -128.443 -188.896 -103.188
c-67.2129 21.7275 -97.0615 97.4121 -114.216 159.505c-5.84961 21.1807 -10.5117 42.958 -14.168 65.04c-18.9824 -42.4199 -41.5088 -83.1846 -68.4551 -121.362c-40.8779 -57.9141 -110.771 -128.443 -188.896 -103.188
c-67.2129 21.7275 -97.0615 97.4121 -114.216 159.505c-20.584 74.5166 -26.9268 156.326 -23.6494 233.331c2.44434 57.4951 9.51562 120.544 25.7432 180.522c-52.1826 -2.30664 -104.42 -3.27246 -156.662 -2.46387c-92.1494 1.42383 -207.874 1.30078 -270.14 81.5391
c-13.1328 16.918 21.0479 38.8672 32.2939 24.4033zM119.635 500.498c-2.29199 -11.7783 -4.32031 -23.4922 -6.21289 -34.9697c-7.51074 -45.584 -12.0791 -91.1387 -13.4883 -137.058c94.9033 38.5811 192.853 95.6133 228.664 194.548
c-27.6709 -3.80957 -55.3711 -7.39258 -83.1309 -10.5264c-41.8633 -4.72559 -83.8203 -8.7168 -125.832 -11.9941zM723.441 555.268c2.10938 10.2803 3.48535 21.5049 3.80566 32.958c-69.835 -11.4131 -139.557 -23.7578 -209.353 -35.5947
c-8.5752 -28.7402 -14.0449 -58.6582 -18.7314 -87.0977c-7.51074 -45.584 -12.0791 -91.1387 -13.4883 -137.058c104.774 42.5928 213.284 107.657 237.767 226.792zM550.986 626.358c-8.53516 -12.7734 -15.5732 -26.5635 -21.541 -40.9482
c65.3359 10.6543 130.632 21.7822 195.992 32.708c-5.02148 31.8057 -20.7764 60.4229 -54.7842 69.6875c-46.2295 12.5908 -95.3174 -25.0146 -119.667 -61.4473zM375.903 313.586c3.02051 70.9932 13.0781 150.457 38.7529 222.14
c-14.9766 -2.3457 -29.9629 -4.62207 -44.959 -6.83496c-40.4834 -119.396 -155.001 -189.206 -267.291 -233.316c-0.985352 -0.389648 -1.92188 -0.616211 -2.87305 -0.892578c0.0146484 -4.15918 -0.00976562 -8.31348 0.0546875 -12.4775
c0.960938 -60.6289 7.76172 -121.175 19.7666 -180.606c8.10156 -40.0996 24.0293 -112.576 68.583 -127.744c56.1797 -19.126 101.06 66.7793 124.537 106.169c25.6357 43.0215 46.4219 88.7979 64.7246 135.412c-2.32617 32.9688 -2.66602 65.9766 -1.2959 98.1514z
M165.25 626.357c-18.5537 -27.7646 -30.1904 -60.2412 -38.4795 -93.4609c70.6484 5.79004 140.986 13.9512 211.156 23.5215c9.56055 48.0781 3.13477 116.095 -53.0098 131.387c-46.2295 12.5908 -95.3174 -25.0146 -119.667 -61.4473z" />
    <glyph glyph-name=".notdef" horiz-adv-x="527" 
d="M50 700h427v-700h-427v700zM78 680l185 -309l186 309h-371zM251 350l-180 300v-601zM264 329l-185 -308h370zM276 350l181 -303v605z" />
    <glyph glyph-name=".null" 
 />
    <glyph glyph-name=".null" 
 />
    <glyph glyph-name="LF" unicode="&#xa;" 
 />
    <glyph glyph-name="controlCR" unicode="&#xd;" 
 />
    <glyph glyph-name="space" unicode=" " horiz-adv-x="335" 
 />
    <glyph glyph-name="exclam" unicode="!" horiz-adv-x="224" 
d="M173.704 48.0029c3.40527 -49.4033 -98.2197 -84.3848 -104.616 -27.8896c-13.4785 119.017 -18.0273 238.329 -18.9443 358.061c-0.458008 60.2051 0.113281 120.287 2.7002 180.443c2.2373 51.9365 0.0341797 109.27 12.3643 159.875
c0.113281 2.18262 0.744141 4.36035 1.81836 6.14941l0.489258 0.814453c4.84473 8.06738 17.293 16.2676 27.2871 13.3105c46.0322 -13.6309 43.208 -99.5898 44.8193 -137.669c2.56738 -60.7373 5.2627 -121.495 8.42676 -182.203
c6.45117 -123.752 17.125 -247.277 25.6553 -370.892zM163.169 -57.9121c7.81543 -13.5713 0.128906 -33.6328 4.38184 -48.7471c5.67676 -20.1504 -8.90527 -35.9746 -27.1582 -42.8193c-18.0664 -6.77148 -37.9365 -3.65723 -43.2832 16.4639
c-6.04688 22.7529 -6.44629 53.9717 11.6934 71.4609c13.2021 12.7295 42.2529 24.6748 54.3662 3.6416z" />
    <glyph glyph-name="quotedbl" unicode="&#x22;" horiz-adv-x="257" 
d="M56.457 654.834c7.72754 34.5605 83.8701 47.9463 74.1572 4.49121c-8.63379 -38.6357 -20.959 -79.4844 -23.2803 -119.091c-0.823242 -14.0107 -20.2988 -28.7061 -33.999 -20.6738c-19.3574 11.3545 -20.752 34.792 -22.4814 55.5732
c-2.18262 26.2363 -0.132812 54.0352 5.60352 79.7002zM130.663 645.245c5.67676 37.1523 86.6357 47.4727 75.666 4.5791c-9.53125 -37.2607 -10.7832 -76.9707 -24.3447 -113.02c-5.39648 -14.3408 -28.4004 -26.1191 -39.2178 -10.5908
c-23.5312 33.7764 -17.9775 80.6123 -12.1035 119.031z" />
    <glyph glyph-name="quotedbl" unicode="&#x201d;" horiz-adv-x="257" 
d="M56.457 654.834c7.72754 34.5605 83.8701 47.9463 74.1572 4.49121c-8.63379 -38.6357 -20.959 -79.4844 -23.2803 -119.091c-0.823242 -14.0107 -20.2988 -28.7061 -33.999 -20.6738c-19.3574 11.3545 -20.752 34.792 -22.4814 55.5732
c-2.18262 26.2363 -0.132812 54.0352 5.60352 79.7002zM130.663 645.245c5.67676 37.1523 86.6357 47.4727 75.666 4.5791c-9.53125 -37.2607 -10.7832 -76.9707 -24.3447 -113.02c-5.39648 -14.3408 -28.4004 -26.1191 -39.2178 -10.5908
c-23.5312 33.7764 -17.9775 80.6123 -12.1035 119.031z" />
    <glyph glyph-name="quotedbl" unicode="&#x201c;" horiz-adv-x="257" 
d="M56.457 654.834c7.72754 34.5605 83.8701 47.9463 74.1572 4.49121c-8.63379 -38.6357 -20.959 -79.4844 -23.2803 -119.091c-0.823242 -14.0107 -20.2988 -28.7061 -33.999 -20.6738c-19.3574 11.3545 -20.752 34.792 -22.4814 55.5732
c-2.18262 26.2363 -0.132812 54.0352 5.60352 79.7002zM130.663 645.245c5.67676 37.1523 86.6357 47.4727 75.666 4.5791c-9.53125 -37.2607 -10.7832 -76.9707 -24.3447 -113.02c-5.39648 -14.3408 -28.4004 -26.1191 -39.2178 -10.5908
c-23.5312 33.7764 -17.9775 80.6123 -12.1035 119.031z" />
    <glyph glyph-name="numbersign" unicode="#" horiz-adv-x="841" 
d="M779.138 383.059c30.3955 -9.5752 -6.89453 -47.0195 -25.4629 -46.6152c-49.6543 1.09863 -98.752 6.00195 -148.451 5.27246c-8.96875 -39.8975 -17.5732 -79.8887 -25.6104 -120.032c24.123 0.561523 48.2656 0.852539 72.3887 0.448242
c25.6406 -0.423828 54.6865 2.06934 79.4697 -4.51953c41.0801 -10.9209 4.25293 -49.5273 -20.7812 -53.0752c-27.8486 -3.95215 -58.5303 0.384766 -86.6738 1.04492c-18.46 0.438477 -36.9102 0.724609 -55.3701 0.881836
c-11.3984 -58.0615 -22.4229 -116.217 -31.5195 -174.673c-5.87891 -37.7979 -11.7432 -75.5762 -17.1494 -113.443c-4.86426 -34.0381 -4.48926 -78.6318 -27.2471 -105.736c-8.51074 -10.1367 -28.0107 -16.5625 -39.1484 -6.8252
c-23.5957 20.6191 -15.9375 75.0293 -14.8389 103.839c1.36523 35.8271 3.79492 71.7324 7.9248 107.353c7.31348 63.0684 16.7803 125.886 27.6855 188.432c-28.1387 -0.847656 -56.2578 -2.12402 -84.3477 -3.90332
c-3.52344 -0.22168 -7.04688 -0.498047 -10.5703 -0.734375c-8.91504 -48.9355 -16.6816 -98.043 -24.1865 -147.289c-11.7734 -77.2363 -17.4209 -155.932 -37.0635 -231.458c-6.41602 -24.6699 -58.7217 -45.1758 -65.1572 -10.7139
c-14.4238 77.2617 -5.14941 158.146 2.17871 236.121c4.53906 48.3242 11.3447 96.5889 19.4219 144.593c-68.5391 -6.88965 -136.9 -15.9971 -204.734 -27.2725c-26.9072 -4.46973 -25.2861 24.916 -2.55273 30.5439c71.1602 17.6123 142.951 31.6523 215.334 42.1982
c2.60645 14.1729 5.26758 28.3311 8.02246 42.4453c5.19922 26.6406 10.7676 53.3701 16.7109 80.0947c-8.25977 -0.611328 -16.5039 -1.26172 -24.7686 -1.8584c-25.4385 -1.83789 -50.8174 -4.10449 -76.1426 -7.16016
c-24.3193 -2.92773 -49.5605 -9.2998 -74.0234 -8.87598c-36.1865 0.630859 -32.4902 38.084 -4.57812 51.0986c49.4033 23.0381 111.048 23.373 164.645 25.8711c9.66895 0.453125 19.3379 0.886719 29.002 1.32031c26.8379 108.969 60.9395 216.946 105.952 318.474
c9.78711 22.0723 39.7295 34.8311 62.4326 33.7861c19.4854 -0.896484 41.1738 -15.9512 34.1904 -38.3691c-23.2549 -74.6836 -49.502 -148.387 -71.4121 -223.505c-8.18066 -28.0498 -15.8828 -56.2285 -23.1865 -84.501c8.40234 0.591797 16.7998 1.13379 25.1973 1.8291
c21.2246 1.75391 42.459 3.54785 63.709 5.13477c18.5439 87.0488 39.4336 173.614 64.5371 258.79c7.28809 24.7236 33.0762 41.8291 58.2832 43.1992c21.6885 1.18262 44.7959 -12.8965 39.0059 -37.3145c-20.5449 -86.6396 -41.918 -172.998 -62.0732 -259.652
c1.61133 0.0244141 3.21777 0.0839844 4.82422 0.103516c52.2324 0.68457 106.021 0.443359 156.135 -15.3457zM483.753 217.782c7.32812 39.5225 14.8965 79.0645 22.8701 118.553c-21.9004 -1.74414 -43.7861 -3.7002 -65.6611 -5.63184
c-8.59961 -0.758789 -17.1943 -1.41895 -25.7939 -2.14355c-6.53906 -27.3311 -12.7627 -54.7402 -18.7305 -82.2139c-2.60156 -11.9746 -5.07031 -23.9648 -7.48047 -35.9648c2.75977 0.266602 5.50977 0.591797 8.26953 0.847656
c28.8047 2.6709 57.6533 4.84375 86.5264 6.55371z" />
    <glyph glyph-name="dollar" unicode="$" horiz-adv-x="488" 
d="M431.141 73.0322c17.9033 -53.6074 -1.2168 -107.473 -36.1514 -149.696c-29.7256 -35.9355 -72.875 -61.0039 -117.72 -68.623c-0.630859 -26.0938 -1.28613 -52.1826 -1.82812 -78.2764c-0.399414 -19.2637 -40.7158 -31.5986 -40.1348 -10.6992
c0.808594 28.9863 1.72559 57.9775 2.6377 86.9639c-32.4902 2.26172 -64.0889 14.665 -90.3301 39.832c-37.5322 35.999 -48.5518 86.7178 -44.5605 137.053c3.42969 43.2627 10.8516 93.7451 50.8174 117.922c16.1191 9.75293 32.5049 -9.74707 15.4492 -20.6572
c-23.6348 -15.124 -25.4971 -57.3027 -28.0059 -82.7314c-3.09473 -31.3721 -0.896484 -64.3154 13.4297 -92.873c16.7207 -33.333 48.708 -57.1055 84.2441 -64.207c2.66602 80.918 5.75586 161.826 9.25977 242.715c-74.167 56.9629 -153.734 121.697 -185.673 212.595
c-17.6426 50.2021 -19.0078 102.986 10.7627 148.965c24.0098 37.0732 64.5674 66.3213 105.515 81.9189c29.3955 11.1963 62.1123 16.1338 93.6816 13.8369c2.80859 44.7461 5.71582 89.4824 8.78613 134.209c1.08398 15.8086 34.5498 26.2754 33.4805 8.92871
c-3.06055 -49.5068 -5.9043 -99.0283 -8.64453 -148.555c44.3916 -11.3545 82.7607 -39.2617 100.763 -87.1719c7.0127 -18.6719 -30.2383 -36.5557 -37.5117 -18.292c-12.5566 31.5342 -36.5557 54.2324 -65.3604 66.4248
c-5.73145 -106.81 -10.748 -213.654 -15.0156 -320.528c11.1279 -9.50586 22.4082 -18.8496 33.8164 -28.0547c41.376 -33.3926 90.7197 -68.3867 108.293 -120.998zM253.936 253.45c4.8291 99.4668 10.3467 198.897 16.4473 298.296
c-19.2041 2.53809 -39.291 0.936523 -58.7568 -5.21875c-47.5557 -15.04 -79.1445 -60.4121 -74.4092 -110.382c4.79492 -50.6201 39.0098 -100.255 72.1211 -137.304c14.1826 -15.8633 29.1387 -30.8984 44.5977 -45.3916zM293.225 -110.313
c45.2539 14.2227 79.2129 77.6064 68.1885 124.166c-9.19043 38.8135 -43.9424 65.6709 -76.8271 89.2266c-2.51367 -72.2744 -4.73145 -144.559 -6.5791 -216.853c5.0957 0.813477 10.1816 1.87793 15.2178 3.45996z" />
    <glyph glyph-name="percent" unicode="%" horiz-adv-x="635" 
d="M557.595 699.373c23.6152 -4.11523 34.7871 -26.585 23.2998 -47.7754c-78.6016 -144.982 -162.299 -286.343 -234.672 -434.765c-72.7871 -149.279 -134.841 -303.94 -210.875 -451.524c-11.7832 -22.8662 -75.4727 -36.335 -65.7695 3.11914
c39.1182 159.047 110.663 312.579 181.7 459.631c72.0078 149.058 147.569 300.283 239.028 438.494c14.3262 21.6484 40.3711 37.5068 67.2881 32.8203zM149.156 364.344c-65.3311 3.91309 -100.481 86.5791 -99.1162 143.68
c0.443359 18.4854 18.4697 35.3887 37.9551 42.958c17.3857 28.4102 53.2373 47.0771 87.8076 47.8164c67.3311 1.44434 83.8008 -65.2861 79.5332 -119.672c-4.55371 -58.0518 -39.5771 -118.779 -106.18 -114.782zM141.065 552.075
c-4.18848 -1.56738 -7.77148 -3.5918 -10.8369 -5.97168c3.06055 -3.73535 5.19922 -8.68848 6.00781 -15.1094c3.95703 -31.5342 9.14648 -65.1289 28.1191 -91.7891c2.60645 -3.66113 15.4639 -16.2969 14.8877 -16.3955c10.6445 1.79883 14.1777 27.4932 15.4688 35.2744
c4.51367 27.1875 8.0127 66.2617 -13.6504 87.6738c-10.8018 10.6738 -26.084 11.5215 -39.9961 6.31738zM429.28 116.81c53.627 -4.88867 99.0479 -56.7178 92.2129 -110.976c-7.7666 -61.5557 -74.9795 -115.65 -137.339 -105.784
c-71.4854 11.3047 -84.4609 102.217 -66.459 159.244c6.2832 19.8945 24.4131 34.5361 44.6377 39.0898c16.8291 15.4785 45.5742 20.3721 66.9473 18.4258zM445.729 -19.4014c17.1445 18.5391 20.6318 48.7344 10.9434 71.6494
c-5.68164 13.4482 -15.4043 22.4219 -29.1826 27.4287c-6.53906 2.375 -13.6504 3.52344 -20.5986 3.34082c2.57227 -5.06641 3.50879 -11.1768 2.05469 -18.209c-4.34668 -21.0381 -4.37598 -128.725 36.7832 -84.21z" />
    <glyph glyph-name="ampersand" unicode="&#x26;" horiz-adv-x="766" 
d="M712.743 220.843c15.5771 -17.3271 -21.8096 -41.7314 -35.2529 -26.6416c-21.4512 24.0781 -48.0723 42.3066 -77.2217 53.4736c0.472656 -113.009 -52.9424 -224.17 -128.237 -306.562c-69.8496 -76.4385 -177.822 -137.886 -284.232 -111.496
c-83.0908 20.6094 -139.782 93.5195 -137.742 179.37c1.61133 67.6172 26.2861 131.972 67.4453 185.308c18.791 24.3447 41.5293 45.7373 66.3467 64.0498c-20.1064 10.2998 -37.8125 25.3496 -51.3301 46.1455c-46.0322 70.8154 -14.5371 164.059 37.0439 222.362
c48.2207 54.5039 123.106 92.2178 196.829 82.6572c69.5938 -9.02832 123.195 -66.9424 114.492 -138.68c-2.47363 -20.3975 -46.1064 -28.4648 -42.9678 -2.59766c6.61816 54.5527 -41.0312 102.487 -94.6436 103.246c-51.71 0.729492 -84.5547 -33.3574 -106.889 -75.8516
c-21.9893 -41.8389 -41.4648 -97.3877 -12.1582 -140.848c19.5547 -28.9961 48.4131 -36.2305 78.4199 -33.7812c21.4717 8.08203 42.7109 13.8379 66.8389 10.373c43.9482 -6.3125 23.167 -56.7061 -5.15918 -69.2969
c-23.2852 -10.3535 -49.5713 -17.5684 -76.2422 -20.3477c-4.2334 -2.24219 -8.24023 -4.40039 -11.8379 -6.19434c-17.0361 -8.50098 -32.8447 -18.3223 -47.9199 -29.9873c-23.7725 -18.3916 -43.9678 -41.085 -58.8057 -67.0898
c-21.7373 -38.1035 -31.5244 -81.9727 -32.3721 -122.377c-1.47363 -70.0811 46.3232 -129.823 116.666 -140.35c93.4551 -13.9854 167.927 50.7539 219.932 120.663c55.583 74.709 87.2852 163.507 90.1436 256.617c0.0439453 1.54785 0.472656 3.0459 1.06445 4.50488
c-25.6992 4.49414 -52.4678 3.6416 -78.7686 -3.3418c-27.9912 -7.42676 -26.1387 25.8174 -2.68652 32.125c82.0215 22.0674 172.026 -1.81348 229.245 -65.4541z" />
    <glyph glyph-name="quotesingle" unicode="'" horiz-adv-x="205" 
d="M117.631 703.128c19.0908 1.04004 42.9668 -12.1094 36.1855 -34.6201c-11.458 -38.0049 -15.6172 -77.2617 -25.9902 -115.38c-5.92871 -21.7822 -56.0664 -49.2949 -68.3467 -18.46c-16.1934 40.6514 -9.50098 87.916 4.08594 128.385
c7.66309 22.8369 29.9473 38.7646 54.0654 40.0752z" />
    <glyph glyph-name="quotesingle" unicode="&#x2019;" horiz-adv-x="205" 
d="M117.631 703.128c19.0908 1.04004 42.9668 -12.1094 36.1855 -34.6201c-11.458 -38.0049 -15.6172 -77.2617 -25.9902 -115.38c-5.92871 -21.7822 -56.0664 -49.2949 -68.3467 -18.46c-16.1934 40.6514 -9.50098 87.916 4.08594 128.385
c7.66309 22.8369 29.9473 38.7646 54.0654 40.0752z" />
    <glyph glyph-name="quotesingle" unicode="&#x2018;" horiz-adv-x="205" 
d="M117.631 703.128c19.0908 1.04004 42.9668 -12.1094 36.1855 -34.6201c-11.458 -38.0049 -15.6172 -77.2617 -25.9902 -115.38c-5.92871 -21.7822 -56.0664 -49.2949 -68.3467 -18.46c-16.1934 40.6514 -9.50098 87.916 4.08594 128.385
c7.66309 22.8369 29.9473 38.7646 54.0654 40.0752z" />
    <glyph glyph-name="parenleft" unicode="(" horiz-adv-x="470" 
d="M397.144 -190.681c36.4873 -0.773438 23.9492 -41.1289 -3.84473 -46.7861c-96.4072 -19.6436 -191.986 21.1748 -250.753 99.0723c-53.4883 70.8994 -76.0537 158.17 -86.6191 245.184c-10.7188 88.2656 -6.87012 178.354 11.3047 265.378
c18.2236 87.2852 50.4531 172.688 96.9492 248.938c21.8955 35.915 48.5557 73.6689 83.1895 98.4521c19.042 13.6309 62.1768 43.9033 80.2578 14.5322c8.24414 -13.3945 -19.8701 -29.4746 -30.4307 -20.2246c-0.635742 -0.635742 -1.43945 -1.38477 -2.48926 -2.32129
c-2.26172 -2.14844 -4.15918 -4.57324 -5.68652 -7.27344c-1.97656 -2.68555 -3.79492 -5.57812 -5.70215 -8.32812c-5.25293 -7.56934 -10.3145 -15.0303 -14.9023 -23.0381c-9.8457 -17.1934 -19.1006 -34.5693 -27.7051 -52.4141
c-17.2871 -35.8516 -33.6182 -71.6143 -46.0469 -109.496c-44.416 -135.397 -58.9287 -278.507 -33.2881 -419.295c21.6533 -118.874 93.1543 -279.35 235.767 -282.38z" />
    <glyph glyph-name="parenright" unicode=")" horiz-adv-x="395" 
d="M253.343 598.433c73.1953 -132.785 100.482 -292.499 88.8574 -442.833c-6.16992 -79.7061 -21.8359 -156.479 -50.7539 -231.139c-28.0254 -72.3584 -76.0986 -138.369 -155.119 -157.697c-36.5068 -8.92969 -39.459 28.6953 -11.8867 43.7256
c69.0312 37.6299 83.6084 143.883 97.0469 212.964c16.2227 83.4219 20.3525 168.307 13.0342 253.005c-7.49023 86.6689 -28.5625 170.785 -56.6914 252.886c-13.1426 38.3691 -27.9609 76.9551 -44.6572 113.92c-17.4746 38.6797 -34.2842 74.2451 -75.8721 90.458
c-21.1611 8.24414 8.87012 32.6719 24.4971 27.7246c78.8633 -24.9648 133.121 -93.3066 171.545 -163.014z" />
    <glyph glyph-name="asterisk" unicode="*" horiz-adv-x="282" 
d="M216.434 573.408c9.26465 1.34082 16.4912 -5.54004 15.21 -14.5391c-1.44922 -10.2402 -13.9072 -15.5674 -22.7285 -16.8438c-7.41211 -1.07422 -14.8486 -1.68066 -22.2949 -2.02539c9.23047 -9.63965 18.5342 -19.2148 27.7002 -28.918
c14.2373 -15.0703 -19.0264 -36.9111 -31.4502 -23.7637c-5.70215 6.03711 -11.5078 11.9756 -17.2393 17.9932c0.305664 -12.5469 0.640625 -25.0938 1.04004 -37.6406c0.571289 -18.0811 -37.1523 -29.8496 -37.5762 -10.0146
c-0.423828 19.707 -0.561523 39.4043 -0.581055 59.1064c-10.6299 -11.6992 -20.8213 -23.793 -30.1895 -36.6309c-12 -16.4443 -45.2988 -7.81055 -29.3711 13.4092c12.5811 16.7646 26.5713 32.2139 41.1094 47.165
c-13.5869 -0.137695 -27.1338 -0.956055 -40.5967 -3.38574c-26.1484 -4.7207 -24.9209 25.7051 -2.48828 29.7559c11.748 2.11914 23.5166 3.16895 35.2949 3.66211c-10.916 11.0977 -21.7725 22.2549 -32.7764 33.2686c-14.5967 14.6113 18.6377 36.5898 31.4502 23.7627
c9.57031 -9.58008 19.0078 -19.293 28.5088 -28.9375c0.266602 11.1328 0.538086 22.2656 0.902344 33.4033c0.522461 15.9717 34.1416 27.1289 33.9941 9.05762c-0.12793 -15.5625 -0.132812 -31.1201 -0.0634766 -46.6826
c10.7236 10.8711 21.1953 21.9785 31.0957 33.6279c11.9746 14.0938 42.6807 6.58301 27.0342 -12.3408c-13.0596 -15.7939 -27.1787 -30.6123 -41.5342 -45.2041c11.8613 0.265625 23.7129 1 35.5498 2.71484z" />
    <glyph glyph-name="plus" unicode="+" horiz-adv-x="343" 
d="M277.318 258.395c27.6562 0.585938 13.1787 -32.2461 -7.82422 -32.6455c-16.5781 -0.320312 -33.1611 -0.669922 -49.709 -1.30078c-0.0146484 -0.300781 -0.0341797 -0.601562 -0.0488281 -0.907227c-2.00098 -49.2402 4.12988 -101.359 -7.0957 -149.649
c-6.41113 -27.5967 -59.8262 -51.9414 -76.5078 -20.6631c-22.8613 42.8545 -22.6738 98.8955 -24.1719 146.338c-0.147461 4.6377 -0.216797 9.29492 -0.291016 13.9521c-14.168 -2.69531 -28.2568 -5.9873 -42.2275 -10.1221
c-26.4385 -7.83105 -24.5605 23.9795 -2.55176 30.5439c14.8535 4.42578 29.835 7.96875 44.9053 10.8857c0.852539 36.3936 4.29688 72.8613 11.6592 108.304c5.14453 24.7588 32.3623 41.0703 55.3564 44.9785c17.6172 2.99609 50.2705 -3.21289 49.3789 -27.7598
c-1.37988 -37.9307 -4.46484 -75.7773 -6.72168 -113.674c18.5986 0.842773 37.2314 1.32031 55.8496 1.71973z" />
    <glyph glyph-name="comma" unicode="," horiz-adv-x="241" 
d="M109.658 79.1826c18.4355 36.8223 99.502 39.3652 77.6758 -12.8223c-19.0127 -45.4561 -39.4932 -91.7305 -66.9473 -132.825c-9.97949 -14.9365 -26.4883 -25.5117 -44.9883 -24.3438c-14.6611 0.921875 -28.873 11.1865 -24.6396 27.6465
c12.6943 49.3438 36.1816 96.9678 58.8994 142.345z" />
    <glyph glyph-name="hyphen" unicode="-" horiz-adv-x="466" 
d="M379.952 286.578c20.0566 0.625977 40.2715 -11.0186 35.3779 -33.8447c-5.02148 -23.4375 -31.1348 -36.6943 -52.8574 -39.1826c-46.4561 -5.32227 -93.376 -8.05273 -140.039 -11.1035c-45.7812 -2.99121 -93.4844 -9.91992 -139.325 -8.12598
c-52.7793 2.05957 -36.0977 61.1562 5.64746 68.6816c48.0977 8.67285 98.0283 9.85547 146.742 13.8076c48.043 3.89355 96.2832 8.27441 144.454 9.76758z" />
    <glyph glyph-name="period" unicode="." horiz-adv-x="167" 
d="M113.933 21.1104c6.44043 -16.0264 0.87793 -37.6211 -1.6748 -54.1494c-4.51855 -29.2725 -65.9365 -41.2871 -62.083 -3.75488c1.95605 19.0322 7.46094 40.5381 20.6035 55.0166c8.53516 9.39746 36.083 20.4854 43.1543 2.8877z" />
    <glyph glyph-name="slash" unicode="/" horiz-adv-x="581" 
d="M502.777 735.018c25.1035 -4.37109 34.4688 -26.9258 23.8936 -48.998c-35.6396 -74.3633 -76.2568 -146.484 -112.853 -220.435c-35.9648 -72.6787 -70.6924 -145.963 -104.168 -219.819c-34.2051 -75.4629 -67.8682 -151.098 -100.679 -227.177
c-32.791 -76.0195 -63.5615 -153.946 -109.466 -223.022c-10.8174 -16.2822 -52.1094 -28.9766 -49.3789 2.34082c7.07617 81.1689 40.0547 159.982 69.9287 235.361c29.7803 75.1426 60.6104 150.023 93.7959 223.731c33.2744 73.9004 67.8096 147.234 103.577 219.962
c37.0488 75.3301 73.3828 152.231 116.346 224.397c13.4785 22.6445 42.4014 38.291 69.0029 33.6582z" />
    <glyph glyph-name="zero" unicode="0" horiz-adv-x="532" 
d="M95.4561 -24.1787c-34.9443 56.3564 -43.3594 129.985 -45.168 194.976c-2.16309 77.5723 7.72754 155.805 37.0586 227.906c4.03613 9.91504 14.1777 17.9775 26.1426 23.1172c-2.18848 68.4404 30.3857 142.81 87.6396 178.109
c52.6113 32.4365 114.655 3.54395 159.825 -29.5078c49.0137 -35.8564 77.9062 -92.5732 96.1992 -149.146c44.707 -138.266 29.7949 -291.108 -46.3379 -415.614c-35.3242 -57.7666 -87.0391 -110.486 -158.584 -115.464
c-65.1484 -4.53418 -123.132 31.3613 -156.775 85.624zM211.459 569.642c-39.0303 -30.8545 -60.8076 -88.9609 -58.4023 -142.819c14.0791 -3.1543 23.6836 -13.0791 19.835 -32.1699c-1.83301 -9.08203 -3.65625 -18.1396 -5.43555 -27.1826
c13.2363 -26.9756 35.7871 -48.2158 69.2529 -57.1309c22.457 -5.9873 1.08887 -32.1992 -15.5479 -28.4883c-26.1484 5.83008 -47.0527 17.3271 -63.3447 32.5449c-5.71191 -35.6152 -9.5166 -71.4072 -8.93555 -108.097
c0.901367 -57.1104 6.19434 -119.46 32.8105 -171.007c15.8086 -30.6074 51.3594 -70.1299 90.3496 -64.4727c33.998 4.93262 58.4258 60.4268 71.6475 86.8359c49.6699 99.2061 52.9863 210.003 31.3281 317.044c-8.91504 44.0518 -22.4922 87.1426 -44.2842 126.68
c-21.4766 38.9609 -68.5195 108.387 -119.273 68.2627z" />
    <glyph glyph-name="one" unicode="1" horiz-adv-x="446" 
d="M86.5693 476.183c-7.76172 -16.9814 -45.0811 -17.167 -34.7861 5.74316c16.7852 37.3545 41.1094 70.3086 67.4004 101.493c25.1035 29.7754 54.2676 58.1807 94.1006 65.2822c87.2061 15.5527 101.394 -97.54 106.036 -160.097
c6.85449 -92.4199 1.04883 -186.53 -3.03125 -279c-4.27246 -96.8457 -7.56445 -193.849 -16.2432 -290.423c-0.28125 -3.13867 -1.0498 -6.15918 -2.20312 -9.04688c28.6074 3.16406 57.4951 3.53906 86.8516 -0.969727
c26.2861 -4.03613 1.47852 -36.0879 -18.0117 -32.998c-83.0078 13.1729 -163.334 -17.7207 -243.291 -35.3975c-26.7734 -5.91895 -25.251 25.4131 -2.55273 30.543c24.3643 5.5 48.6543 11.9658 72.9844 18.1309c-1.76465 3.38574 -2.74023 7.30371 -2.56738 11.8525
c6.05176 158.46 22.6836 317.187 39.7393 474.779c4.11523 38.0244 8.57031 76.0049 12.2412 114.079c1.83301 19.0225 3.00098 38.0146 4.44043 57.0664c1.30566 17.2822 7.5791 45.0566 -4.65234 59.8008c-30.1201 36.3047 -77.9121 -18.4209 -96.5352 -40.5234
c-23.5264 -27.9219 -44.6924 -56.9971 -59.9199 -90.3154z" />
    <glyph glyph-name="two" unicode="2" horiz-adv-x="526" 
d="M121.969 -132.536c-25.6113 -3.39551 -62.4141 0.0332031 -70.4619 30.0693c-6.23926 23.2549 7.83496 44.3965 25.7676 57.9092c31.3721 23.6396 71.4023 25.3496 110.181 20.2939c26.1631 26.6016 46.9941 58.2939 65.4746 90.5137
c49.7334 86.7236 73.8809 185.215 84.1357 284.086c5.10547 49.2256 7.05176 99.8662 0.867188 149.038c-5.71191 45.4014 -20.0527 111.93 -73.1572 120.795c-103.518 17.2773 -179.665 -149.979 -102.429 -218.237c15.3457 -13.5615 -17.7705 -35.6289 -31.4512 -23.7627
c-108.317 93.9521 15.3711 285.302 140.799 276.338c63.7188 -4.55371 110.806 -56.2139 133.696 -112.24c25.4043 -62.1914 26.0791 -131.923 21.5107 -197.924c-9.23047 -133.288 -53.3066 -271.987 -141.651 -374.455
c-3.58301 -4.15918 -7.33789 -8.29395 -11.167 -12.4043c60.9893 -15.582 121.757 -33.9092 185.27 -32.623c29.7451 0.606445 14.2363 -34.8652 -8.41309 -35.1416c-58.2197 -0.705078 -113.867 12.6846 -169.751 27.6064
c-12.7393 3.40039 -25.4883 6.81055 -38.2715 10.0635c-34.9004 -30.0508 -76.2559 -54.0059 -120.948 -59.9248zM117.198 -58.4541c-8.62891 -2.6123 -30.8926 -18.8066 -13.7432 -22.3398c5.79004 -1.19238 21.0029 10.1572 26.5518 13.1387
c7.04199 3.79004 13.8672 8.00879 20.5098 12.5029c-11.4082 0.606445 -22.7178 -0.09375 -33.3184 -3.30176z" />
    <glyph glyph-name="three" unicode="3" horiz-adv-x="575" 
d="M158.785 391.638c-70.7119 -18.3076 -120.308 50.1963 -106.46 115.497c28.0107 132.194 203.147 203.404 319.479 143.282c63.4775 -32.8105 85.4863 -100.344 55.8838 -164.551c-14.0352 -30.4551 -35.8369 -56.4551 -61.8271 -78
c43.9434 -18.8545 82.3477 -50.2314 110.847 -90.873c95.5986 -136.339 42.7412 -362.776 -110.264 -433.38c-67.0703 -30.9434 -157.101 -38.9072 -220.539 5.00586c-72.0283 49.8613 -64.5078 140.118 -50.2559 215.67c4.40527 23.3682 52.5322 33.4258 50.0088 3.02441
c-3.51367 -42.3418 -7.7373 -90.3408 9.63867 -130.405c16.3262 -37.6357 49.5215 -55.2588 89.5908 -58.2598c72.1807 -5.40137 126.35 41.4688 153.04 105.064c29.8291 71.0723 32.0615 155.341 -5.56348 223.953c-30.7217 56.0166 -92.3066 98.9053 -157.628 96.0518
c-21.5547 -0.946289 -42.1045 10.127 -41.0547 33.5156c1.09375 24.502 26.4482 41.8584 47.7666 48.127c48.4971 14.2568 105.169 47.5459 120.155 99.3447c18.1104 62.5957 -35.2207 112.876 -95.3281 113.442c-60.2891 0.571289 -119.307 -30.9043 -152.906 -80.8887
c-17.5439 -26.0938 -29.5186 -59.8066 -20.7217 -91.2031c7.41211 -26.4531 34.334 -52.9014 63.749 -45.8447c25.0488 6.00684 23.3291 -23.1523 2.38965 -28.5732z" />
    <glyph glyph-name="four" unicode="4" horiz-adv-x="579" 
d="M93.3857 136.913c-27.6758 2.74512 -53.2529 22.0049 -39.5879 51.7598c26.7588 58.2588 103.744 85.6582 163.575 97.3379c13.6504 32.9385 25.0684 67.1338 33.9043 101.601c20.6143 80.4053 24.1426 165.315 18.9287 247.83
c-1.10352 17.4453 34.5654 29.9473 37.0635 9.875c11.6006 -93.2676 1.17285 -185.525 -17.8398 -277.088c-4.95801 -23.8711 -10.5459 -49.3486 -18.0908 -74.3779c46.7373 5.08594 93.8887 7.27441 139.704 17.1455c-5.00195 112.088 -5.86426 224.855 4.7998 336.406
c3.81934 39.9561 98.708 66.9072 99.6592 16.3848c2.52344 -133.929 -2.11914 -267.803 2.32129 -401.771c2.20312 -66.4736 5.33203 -132.997 8.85059 -199.417c1.82812 -34.54 3.43457 -69.2969 1.61133 -103.882c-1.68066 -31.8896 -3.21289 -64.0938 -22.8262 -90.3555
c-6.10547 -8.1709 -22.3535 -12.8135 -30.623 -5.33789c-22.0332 19.9141 -24.0977 60.8955 -28.8232 88.6152c-5.4209 31.791 -10.3984 63.5078 -14.3359 95.5205c-8.05762 65.5576 -13.4834 131.164 -17.2334 197.101
c-0.665039 11.6895 -1.28613 23.3887 -1.88281 35.0977c-50.1084 -10.8662 -101.7 -12.8525 -152.77 -18.8301c-15.0703 -37.877 -36.5322 -72.3535 -69.8896 -95.3818c-28.1836 -19.4561 -61.916 -31.668 -96.5156 -28.2334zM137.106 226.505
c-7.43164 -4.27734 -54.4355 -34.0918 -43.875 -48.6641c10.5605 -14.5674 43.2773 -0.404297 53.6709 5.96289c24.7139 15.1436 41.6025 40.8584 54.6816 67.0996c-22.501 -5.30273 -44.46 -12.8867 -64.4775 -24.3984z" />
    <glyph glyph-name="five" unicode="5" horiz-adv-x="601" 
d="M184.024 573.171c-52.5479 -6.08105 -112.185 -2.97559 -132.966 44.1465c-7.54492 17.0908 27.5176 33.9639 35.0869 17.1152c18.1699 -40.459 78.7354 -33.5742 115.676 -28.5625c0.394531 0.679688 0.763672 1.37988 1.16309 2.05957
c11.7041 20.0322 59.9199 35.1025 68.376 11.0986c25.7588 5.8252 51.458 12.0146 77.498 16.3711c48.1172 8.04297 209.914 36.2852 201.502 -51.4531c-1.79883 -18.7559 -41.873 -26.207 -39.4482 -2.38477c5.79004 56.8691 -170.332 22.3389 -241.754 7.12109
c-8.18555 -39.4639 -22.541 -77.5625 -37.5273 -114.902c-7.78125 -19.3965 -15.9023 -38.6602 -22.5654 -58.4854c-1.76953 -5.27344 -4.13965 -11.5908 -6.32227 -18.125c9.82617 2.35547 19.6475 4.60254 29.6074 6.37207
c25.5176 4.5293 50.6357 5.80078 76.4336 2.47949c43.2139 -5.56348 85.1016 -24.7383 118.213 -52.9219c68.1055 -57.9736 84.7617 -153.616 74.502 -238.496c-10.2207 -84.5498 -61.6836 -163.358 -139.601 -200.338
c-71.7666 -34.0625 -158.628 -25.4189 -207.898 41.3262c-53.8486 72.9492 -31.0811 166.266 -7.48047 245.626c5.27832 17.751 45.8018 25.1582 39.4492 2.38574c-14.6016 -52.3506 -30.0957 -107.155 -18.3477 -161.679
c11.1865 -51.9365 45.5195 -81.7461 97.1309 -88.8721c82.8691 -11.4424 128.937 67.2334 138.768 138.901c10.6494 77.6309 -8.875 174.225 -83.1104 214.344c-31.1846 16.8486 -64.04 23.0039 -98.8174 15.4102c-33.5352 -7.31836 -117.124 -39.8379 -126.133 16.7559
c-3.25293 20.4121 6.27246 43.8057 12.9697 62.7539c7.9834 22.6094 17.4502 44.6768 27.1191 66.6064c15.582 35.3291 30.874 70.9541 48.4766 105.347z" />
    <glyph glyph-name="six" unicode="6" horiz-adv-x="498" 
d="M110.048 -30.9248c-38.4385 56.667 -51.6455 132.112 -57.3867 199.05c-11.2607 131.248 11.7529 273.993 97.1211 378.645c38.6846 47.4268 97.0664 90.0488 160.599 91.291c47.9648 0.936523 118.667 -18.2139 123.768 -74.8711
c1.52734 -17.0117 -33.2598 -29.0361 -36.0439 -9.60449c-9.41211 65.7695 -101.649 45.4756 -137.998 19.4209c-38.3496 -27.4932 -62.793 -72.4707 -79.6465 -115.586c-35.5752 -91.0059 -40.7842 -190.99 -28.415 -287.018
c36.0234 33.0674 83.0762 54.0312 132.13 57.2891c63.9209 4.24805 130.276 -24.083 152.787 -87.7969c40.1982 -113.778 -37.709 -260.431 -164.206 -265.098c-67.5332 -2.49316 -126.344 40.666 -162.708 94.2783zM264.182 192.572
c-42.874 -6.16016 -79.3076 -29.7256 -105.524 -63.2852c15.2822 -77.749 48.916 -161.954 125.266 -192.809c104.459 -42.2129 140.566 136.394 103.168 203.385c-24.2158 43.3809 -75.7725 59.4805 -122.909 52.709z" />
    <glyph glyph-name="seven" unicode="7" horiz-adv-x="442" 
d="M60.2334 582.193c-23.6494 4.76562 -1.22949 33.1055 16.2207 29.7246c45.9541 -8.91992 98.3682 17.1836 142.844 28.1338c38.0439 9.36816 81.085 18.4648 120.224 11.585c80.3066 -14.1143 48.417 -134.723 35.9541 -186.624
c-15.0352 -62.6055 -34.5352 -124.082 -53.0889 -185.786c17.1885 0.625977 34.4072 1.54297 51.6602 3.36621c27.4883 2.90234 12.6943 -30.4854 -7.81641 -32.6484c-17.7949 -1.88281 -35.585 -2.54785 -53.3604 -2.8584
c-4.44531 -15.2227 -8.81641 -30.4648 -12.9463 -45.7666c-23.9795 -88.8369 -39.168 -178.521 -55.2725 -268.976c-8.36328 -46.9736 -106.12 -66.9121 -100.31 -6.06543c10.4375 109.313 38.4727 214.665 73.333 317.976
c-11.0439 -1.01562 -22.083 -2.44434 -33.1172 -4.50879c-25.4434 -4.77051 -24.1719 24.6299 -2.41992 28.9668c15.3955 3.07031 30.7812 5.05664 46.1719 6.42188c16.5234 47.0723 34.2246 93.7656 52.1523 140.242c15.3604 39.8232 28.7646 80.5928 44.9531 120.066
c7.31836 17.8447 19.3818 37.1777 19.5938 56.8701c0.300781 27.8184 -25.9658 29.4639 -47.6445 29.1924c-40.9121 -0.507812 -80.7695 -11.9355 -119.908 -22.748c-38.0488 -10.5117 -77.4336 -24.5762 -117.223 -16.5635z" />
    <glyph glyph-name="eight" unicode="8" horiz-adv-x="461" 
d="M140.346 280.437c-52.8477 51.6211 -94.5264 110.593 -90.0127 188.682c3.7998 65.6855 37.2559 127.932 99.4082 155.085c52.4189 22.9053 119.268 17.3467 161.294 -23.6885c43.6133 -42.583 51.4639 -104.415 53.2432 -162.531
c2.02539 -66.1582 -7.5791 -132.1 -27.3994 -195.178c33.6533 -36.2852 60.7275 -77.7598 70.9092 -127.602c12.4092 -60.7676 -10.792 -129.863 -46.1953 -179.36c-31.9385 -44.6572 -88.2363 -68.8633 -142.878 -61.5498c-54.8828 7.34766 -98.2588 47.1416 -119.05 97.21
c-24.7188 59.5303 -19.0957 125.339 -4.5332 186.644c10.1123 42.5684 23.7773 84.4814 45.2139 122.289zM325.144 0.424805c14.4492 63.5713 -6.11816 116.251 -51.5498 161.421c-32.1504 31.9629 -72.2246 62.9111 -109.539 96.417
c-25.335 -52.1191 -38.5713 -113.606 -41.6016 -167.963c-3.66113 -65.5918 17.3867 -145.061 82.9639 -174.121c29.667 -13.1426 66.8984 -15.8184 88.8623 11.7051c16.6562 20.8652 25.0391 46.9102 30.8643 72.541zM174.132 578.5
c-51.9014 -33.6289 -22.1289 -118.572 -0.0712891 -160.623c30.6182 -58.3721 82.9736 -99.9395 130.879 -143.562c0.300781 -0.276367 0.591797 -0.552734 0.892578 -0.829102c16.3613 64.0693 22.5957 131.268 14.0947 196.874
c-4.59277 35.4473 -15.2812 74.9502 -43.0459 99.7188c-26.6504 23.7725 -72.1709 28.2324 -102.749 8.42188z" />
    <glyph glyph-name="nine" unicode="9" horiz-adv-x="573" 
d="M387.973 578.675c23.0137 7.21973 38.8779 -6.63574 54.7266 -21.5039c44.6084 -41.8535 60.7529 -108.958 71.8066 -166.921c12.6748 -66.4736 9.60449 -136.397 -0.375 -202.995c-9.25 -61.7139 -23.6152 -128.011 -52.9814 -183.613
c-30.79 -58.2939 -89.3252 -102.168 -156.942 -104.021c-56.1445 -1.54199 -121.859 34.7031 -142.32 88.5664c-10.4375 27.4785 34.8359 51.0742 55.0654 33.7324c25.0635 -21.4814 48.6094 -42.416 83.3916 -43.1797c24.5518 -0.537109 44.3672 7.07129 58.2793 27.4688
c17.2676 25.3105 25.9951 57.3379 34.6191 86.2949c11.2803 37.877 19.8398 76.5762 25.374 115.705c9.7627 69.041 10.5361 139.245 3.68164 208.602c-3.01562 30.5195 -6.53418 61.1523 -14.0938 90.9131c-2.01074 7.92383 -4.19922 16.1289 -7.85059 23.5107
c-1.6709 4.52344 -4.12988 8.55469 -7.29395 12.1475c-5.07617 -2.6709 -14.2715 -30.6328 -16.3516 -35.3242c-25.2217 -56.9922 -46.6338 -116.434 -77.9023 -170.523c-28.3359 -49.0137 -63.4336 -105.627 -121.811 -120.125
c-67.7061 -16.8145 -119.396 37.7188 -125.98 101.403c-6.89941 66.7549 22.2207 132.194 61.8076 184.22c36.7529 48.2998 86.0967 94.6973 147.638 106.692c39.1035 7.62402 85.4072 -8.3623 110.427 -40.5518c4.85449 4.12012 10.4531 7.42188 17.0859 9.50195z
M264.517 358.513c31.0908 51.917 52.1523 108.471 77.1328 163.374c1.88281 4.13965 3.77539 8.40723 5.7666 12.6748c-1.64062 1.04492 -3.09473 2.40039 -4.19336 4.23828c-17.1445 28.7061 -47.6543 31.3867 -76.2314 18.6924
c-26.0742 -11.5811 -45.2148 -38.1973 -62.1865 -59.9697c-40.4199 -51.8623 -71.6934 -116.567 -49.2559 -183.046c3.71094 -10.999 11.0684 -32.0322 23.1963 -36.7979c9.31348 -3.66113 19.9189 4.03125 27.5127 9.34863
c24.6748 17.2773 43.0908 46.1553 58.2588 71.4854z" />
    <glyph glyph-name="colon" unicode=":" horiz-adv-x="153" 
d="M76.2344 326.031c-8.32324 -2.48828 -22.5498 -0.0546875 -22.998 10.8906c-0.507812 12.5908 -0.507812 24.9307 0.0341797 37.5215c0.453125 10.5117 8.88477 18.209 18.7754 20.8213c8.40723 2.21777 20.0566 0.0839844 21.3623 -10.1221
c1.56738 -12.2705 2.5332 -24.334 3.03613 -36.7031c0.458008 -11.4082 -10.3643 -19.4658 -20.21 -22.4082zM102.447 115.16c0.985352 -5.51953 0.388672 -10.9248 -0.0449219 -16.4541c-1.08398 -13.9268 -11.1416 -22.999 -24.2793 -26.9219
c-10.373 -3.09961 -26.5566 0.0244141 -27.6211 13.0889c-1.08398 13.3154 -1.31543 31.3174 9.12695 41.3213c7.52539 7.20508 20.668 14.124 31.2432 8.63379c5.73633 -2.97656 7.9541 -5.80566 9.60449 -11.9707c0.679688 -2.53809 1.50781 -5.11035 1.9707 -7.69727z
" />
    <glyph glyph-name="semicolon" unicode=";" horiz-adv-x="203" 
d="M116.079 318.146c-10.4971 -3.13867 -29.6377 -0.119141 -29.8057 14.1182c-0.0742188 6.64258 -0.389648 13.3105 0.157227 19.9336c0.625977 7.5791 0.295898 15.5576 4.75586 22.0381c8.50098 12.3594 25.1279 20.042 38.6309 10.6299
c5.83008 -4.06055 6.89453 -12.2119 8.66895 -18.7021c1.7002 -6.22363 2.64648 -12.6201 3.78516 -18.9727c2.56738 -14.2812 -15.0498 -25.7139 -26.1924 -29.0449zM72.9102 95.3545c5.55859 37.4824 86.2139 52.207 79.1816 4.78516
c-6.93359 -46.7471 -21.8848 -90.1133 -39.8027 -133.638c-6.73145 -16.3516 -52.6406 -35.2451 -59.7764 -10.1221c-6.47559 22.8018 0.96582 42.4746 6.56445 64.9707c6.06641 24.3789 10.1514 49.1719 13.833 74.0039z" />
    <glyph glyph-name="less" unicode="&#x3c;" horiz-adv-x="395" 
d="M329.942 232.867c42.7012 -25.4141 -13.6787 -77.8115 -48.3525 -68.3252c-38.0195 10.4033 -75.6299 20.501 -113.994 29.8301c-38.6943 9.40723 -77.9756 21.6436 -108.85 47.8701c-23.2354 19.7363 5.2334 49.6836 22.6494 58.958
c35.5215 18.9189 71.166 37.7881 107.55 54.9971c32.1211 15.1885 70.0225 39.5723 106.185 41.0703c15.8086 0.660156 20.3867 -12.5078 11.7969 -24.1826c-20.2539 -27.5332 -60.5498 -44.9785 -88.832 -63.4688c-15.4443 -10.0928 -30.9326 -20.1064 -46.3867 -30.1699
c17.4307 -6.86426 35.6152 -11.6982 54.4551 -15.9561c33.8896 -7.6582 73.5947 -12.6602 103.779 -30.623z" />
    <glyph glyph-name="equal" unicode="=" horiz-adv-x="456" 
d="M391.187 312.519c37.9111 -18.7168 -8.53906 -57.7031 -32.5879 -59.709c-27.957 -2.34082 -56.2881 0.921875 -84.3535 0.31543c-26.5723 -0.571289 -53.1641 -1.19727 -79.7256 -2.23242c-28.124 -1.10352 -56.2383 -2.85742 -84.3916 -3.1582
c-19.2832 -0.202148 -46.8848 -3.76465 -57.6973 15.667c-3.68652 6.62305 0.383789 14.1631 4.43945 19.3428c17.6123 22.4717 51.5068 24.832 77.793 28.8682c28.6123 4.39062 57.2344 7.39648 86.0781 9.7666c52.71 4.33203 121.244 15.4248 170.445 -8.86035z
M362.028 224.208c16.6719 0.616211 33.333 -9.21094 29.3262 -28.0557c-3.94238 -18.5586 -25.9258 -31.7217 -43.8193 -32.4805c-51.5967 -2.18848 -103.208 -4.54395 -154.779 -7.20508c-24.8369 -1.28125 -49.6104 -2.93164 -74.374 -5.27734
c-19.5146 -1.84277 -43.1836 -8.86035 -61.4023 0.876953c-9.80664 5.23828 -8.04199 15.0303 -2.2666 22.6094c28.5283 37.4385 99.7578 36.2461 142.385 39.7061c54.9375 4.46484 109.851 7.7959 164.931 9.82617z" />
    <glyph glyph-name="greater" unicode="&#x3e;" horiz-adv-x="355" 
d="M290.488 293.901c33.166 -15.5234 0.823242 -56.6807 -23.6885 -60.8398c-57.8896 -9.83594 -105.307 -31.4648 -152.532 -65.7686c-14.4736 -10.5166 -42.2627 -19.1504 -57.1992 -4.0459c-15.4346 15.6074 -2.67578 35.4873 10.5859 47.1768
c29.7061 26.1729 64.9805 46.4023 102.468 60.999c-8.6582 4.87891 -17.2822 9.82129 -25.8369 14.8877c-14.3701 8.51074 -28.7598 16.8789 -42.4697 26.4297c-14.917 10.3887 -28.3955 24.5518 -43.9775 33.6191c-21.4668 12.4873 9.64844 37.2656 26.4971 29.9922
c18.7266 -8.08203 40.2275 -12.0195 59.7031 -18.5488c16.0156 -5.37109 31.416 -12.0391 46.9639 -18.6182c33.5742 -14.207 66.4639 -29.8242 99.4863 -45.2832z" />
    <glyph glyph-name="question" unicode="?" horiz-adv-x="455" 
d="M306.749 665.867c85.0078 -23.9795 105.919 -110.303 96.0234 -188.821c-10.9404 -86.8271 -46.8955 -166.952 -81.7559 -246.317c-16.918 -38.5078 -34.4424 -76.9414 -48.5859 -116.577c-14.5967 -40.9072 -23.2451 -82.1543 -31.4941 -124.653
c-4.6123 -23.7871 -31.3418 -39.5225 -53.207 -43.2383c-16.4941 -2.79883 -48.8857 3.08008 -47.4668 26.6855c4.77051 79.3652 36.3594 156.562 68.4756 228.403c27.9414 62.5117 58.6328 123.684 82.0996 188.112c20.4707 56.1943 46.0713 131.41 21.0176 189.891
c-29.2031 68.1543 -111.561 64.793 -163.314 24.8857c-28.666 -22.0977 -47.9346 -54.1152 -55.8838 -89.291c-5.18457 -22.9346 -12.8818 -89.1621 21.4414 -95.9531c23.7139 -4.69141 1.1875 -32.8896 -16.2178 -29.7158c-41.79 7.6084 -49.2656 55.6914 -47.6885 91.3994
c1.91699 43.2334 18.1104 85.0332 46.2393 118.007c49.1025 57.5498 136.516 88 210.317 67.1836zM212.089 -105.263c11.9014 -15.8389 10.7773 -40.1621 13.3945 -59.4014c4.50879 -33.1211 -65.8486 -55.4502 -69.3027 -18.4756
c-2.23242 23.9004 -0.941406 50.96 14.0205 70.5732c6.95312 9.1123 32.5791 19.6924 41.8877 7.30371z" />
    <glyph glyph-name="at" unicode="@" horiz-adv-x="841" 
d="M713.939 571.984c64.4932 -65.0498 81.8486 -159.843 75.7227 -248.409c-6.21875 -89.8281 -38.5117 -174.679 -106.726 -235.505c-71.7861 -64.0098 -180.937 -69.5879 -242.63 11.2959c-28.0654 36.7979 -39.1143 82.4756 -35.123 128.351
c0.231445 2.64648 0.556641 5.26855 0.896484 7.88574c-11.418 -15.7002 -23.8223 -30.5684 -39.0156 -42.2334c-28.7695 -22.0928 -74.7236 -33.2305 -106.154 -10.3398c-27.3262 19.8994 -31.3428 57.5742 -27.0898 88.709
c8.93457 65.4297 61.2803 128.942 120.312 156.929c36.1074 17.1152 109.377 34.4121 133.396 -10.6846c12.3008 -2.16309 21.334 -10.5264 19.5596 -28.085c-7.78125 -77.0693 -33.9688 -179.271 29.5039 -242.335c20.6143 -20.4756 51.873 -36.8906 80.0859 -22.708
c29.8789 15.0205 49.877 49.7676 63.2617 79.0547c29.2773 64.0645 31.9141 142.4 18.7559 210.728c-13.6113 70.6875 -59.9688 126.945 -125.57 155.907c-132.894 58.6729 -286.943 -12.9756 -372.676 -118.603c-87.5117 -107.825 -131.968 -269.74 -50.5273 -393.202
c38.3008 -58.0664 102.567 -97.8301 169.332 -114.659c80.3711 -20.2588 164.448 -5.125 241.606 21.2256c10.5117 3.58789 25.8428 -0.359375 27.3555 -12.96c1.65625 -13.7637 -13.2021 -22.7324 -24.0391 -26.6602c-179.153 -64.9512 -428.062 -18.6133 -495.32 183.238
c-55.5684 166.769 16.79 340.619 149.975 446.571c136.106 108.278 360.834 151.921 495.107 16.4893zM439.083 401.127c1.54785 1.75391 3.35645 3.40332 5.34766 4.95605c-22.8857 8.26465 -59.0273 -23.2744 -73.5703 -35.7617
c-24.8672 -21.3486 -47.0234 -55.8545 -49.7734 -89.2324c-0.768555 -9.29883 -0.295898 -20.2148 3.49414 -28.8682c0.152344 -0.354492 0.359375 -0.773438 0.585938 -1.2168c1.31055 1.67578 2.70508 3.28223 3.95703 5.00684
c7.27344 9.59961 14.1035 19.5645 21.1357 29.3369c28.4893 39.6113 56.4707 79.1641 88.8232 115.779z" />
    <glyph glyph-name="A" unicode="A" horiz-adv-x="1047" 
d="M541.85 -4.28809c-44.6875 -90.3506 -105.899 -179.967 -193.367 -233.495c-73.0674 -44.707 -178.212 -63.9854 -249.752 -5.08105c-82.5645 67.9824 -49.3936 184.954 19.3174 247.82c14.6514 13.4092 45.6094 -1.00488 27.3408 -17.957
c-41.1934 -38.2217 -65.459 -93.9678 -47.4326 -149.891c15.5674 -48.2998 58.4756 -76.2119 107.52 -81.3467c91.1436 -9.54102 169.42 55.4844 222.411 122.55c59.4316 75.2158 99.8066 164.596 130.533 255.029c-29.7158 -5.45508 -60.2002 -14.8135 -81.3809 -36.4619
c-13.5029 -13.7988 -46.6631 -5.45117 -28.5918 13.0488c31.8057 32.5596 75.2754 47.8311 120.303 55.3262c30.3965 96.4414 51.5869 195.391 77.084 293.177c13.8867 53.2715 28.8037 106.341 46.8701 158.366c11.3887 32.791 24.7432 65.3848 50.8809 88.1816
c-23.6348 60.0186 -59.6045 116.267 -115.315 150.625c-76.9414 47.4473 -160.161 27.0996 -235.279 -13.0342c-136.137 -72.7324 -240.02 -207.805 -273.639 -358.642c-18.332 -82.2686 -11.9502 -176.896 55.0459 -236.037
c29.2529 -25.8232 68.4951 -42.3027 107.929 -35.3242c42.4648 7.51562 78.1885 36.3838 110.738 62.8027c18.8203 15.2764 45.165 -3.38574 23.3682 -21.624c-70.6133 -59.0869 -160.066 -107.401 -248.672 -54.0898c-84.4609 50.8174 -109.51 149.703 -97.9434 242.503
c20.377 163.487 128.178 315.679 264.994 403.836c71.5498 46.1016 158.44 83.4062 245.119 80.1592c84.998 -3.18359 163.467 -49.8271 215.068 -116.144c121.042 -155.548 115.754 -371.967 126.122 -558.96c5.54395 -100.014 13.123 -201.062 37.6699 -298.514
c16.5234 -65.582 62.167 -186.521 151.822 -165.275c29.6367 7.02246 35.8408 -26.3447 10.082 -37.0781c-91.2861 -38.0488 -183.559 6.81055 -234.185 86.1611c-52.2324 81.8691 -67.1348 187.994 -76.9072 282.726c-0.926758 8.96387 -1.73047 17.957 -2.47949 26.9609
c-39.1777 -3.49902 -78.7988 -3.38574 -118.326 -3.57812c-29.583 -0.142578 -59.3037 -0.576172 -88.7881 -3.39453c-16.3613 -48.9453 -35.2354 -96.9932 -58.1602 -143.346zM650.758 318.916c-12.3154 -49.7979 -25.4111 -99.6152 -40.6934 -148.693
c13.9609 1.12402 27.7744 1.78906 41.1445 2.25195c51.1631 1.77441 102.794 -0.393555 153.705 3.60352c-10.457 162.014 0.339844 329.128 -46.4463 485.671c-1.17773 3.95703 -2.43457 7.90918 -3.70605 11.8613c-11.5264 -16.0508 -18.376 -35.4326 -24.7578 -54.5537
c-10.9102 -32.6826 -20.5439 -65.7793 -29.4932 -99.0479c-17.9375 -66.6807 -33.1748 -134.066 -49.7529 -201.093z" />
    <glyph glyph-name="A" unicode="&#xc5;" horiz-adv-x="1047" 
d="M541.85 -4.28809c-44.6875 -90.3506 -105.899 -179.967 -193.367 -233.495c-73.0674 -44.707 -178.212 -63.9854 -249.752 -5.08105c-82.5645 67.9824 -49.3936 184.954 19.3174 247.82c14.6514 13.4092 45.6094 -1.00488 27.3408 -17.957
c-41.1934 -38.2217 -65.459 -93.9678 -47.4326 -149.891c15.5674 -48.2998 58.4756 -76.2119 107.52 -81.3467c91.1436 -9.54102 169.42 55.4844 222.411 122.55c59.4316 75.2158 99.8066 164.596 130.533 255.029c-29.7158 -5.45508 -60.2002 -14.8135 -81.3809 -36.4619
c-13.5029 -13.7988 -46.6631 -5.45117 -28.5918 13.0488c31.8057 32.5596 75.2754 47.8311 120.303 55.3262c30.3965 96.4414 51.5869 195.391 77.084 293.177c13.8867 53.2715 28.8037 106.341 46.8701 158.366c11.3887 32.791 24.7432 65.3848 50.8809 88.1816
c-23.6348 60.0186 -59.6045 116.267 -115.315 150.625c-76.9414 47.4473 -160.161 27.0996 -235.279 -13.0342c-136.137 -72.7324 -240.02 -207.805 -273.639 -358.642c-18.332 -82.2686 -11.9502 -176.896 55.0459 -236.037
c29.2529 -25.8232 68.4951 -42.3027 107.929 -35.3242c42.4648 7.51562 78.1885 36.3838 110.738 62.8027c18.8203 15.2764 45.165 -3.38574 23.3682 -21.624c-70.6133 -59.0869 -160.066 -107.401 -248.672 -54.0898c-84.4609 50.8174 -109.51 149.703 -97.9434 242.503
c20.377 163.487 128.178 315.679 264.994 403.836c71.5498 46.1016 158.44 83.4062 245.119 80.1592c84.998 -3.18359 163.467 -49.8271 215.068 -116.144c121.042 -155.548 115.754 -371.967 126.122 -558.96c5.54395 -100.014 13.123 -201.062 37.6699 -298.514
c16.5234 -65.582 62.167 -186.521 151.822 -165.275c29.6367 7.02246 35.8408 -26.3447 10.082 -37.0781c-91.2861 -38.0488 -183.559 6.81055 -234.185 86.1611c-52.2324 81.8691 -67.1348 187.994 -76.9072 282.726c-0.926758 8.96387 -1.73047 17.957 -2.47949 26.9609
c-39.1777 -3.49902 -78.7988 -3.38574 -118.326 -3.57812c-29.583 -0.142578 -59.3037 -0.576172 -88.7881 -3.39453c-16.3613 -48.9453 -35.2354 -96.9932 -58.1602 -143.346zM650.758 318.916c-12.3154 -49.7979 -25.4111 -99.6152 -40.6934 -148.693
c13.9609 1.12402 27.7744 1.78906 41.1445 2.25195c51.1631 1.77441 102.794 -0.393555 153.705 3.60352c-10.457 162.014 0.339844 329.128 -46.4463 485.671c-1.17773 3.95703 -2.43457 7.90918 -3.70605 11.8613c-11.5264 -16.0508 -18.376 -35.4326 -24.7578 -54.5537
c-10.9102 -32.6826 -20.5439 -65.7793 -29.4932 -99.0479c-17.9375 -66.6807 -33.1748 -134.066 -49.7529 -201.093z" />
    <glyph glyph-name="A" unicode="&#xc4;" horiz-adv-x="1047" 
d="M541.85 -4.28809c-44.6875 -90.3506 -105.899 -179.967 -193.367 -233.495c-73.0674 -44.707 -178.212 -63.9854 -249.752 -5.08105c-82.5645 67.9824 -49.3936 184.954 19.3174 247.82c14.6514 13.4092 45.6094 -1.00488 27.3408 -17.957
c-41.1934 -38.2217 -65.459 -93.9678 -47.4326 -149.891c15.5674 -48.2998 58.4756 -76.2119 107.52 -81.3467c91.1436 -9.54102 169.42 55.4844 222.411 122.55c59.4316 75.2158 99.8066 164.596 130.533 255.029c-29.7158 -5.45508 -60.2002 -14.8135 -81.3809 -36.4619
c-13.5029 -13.7988 -46.6631 -5.45117 -28.5918 13.0488c31.8057 32.5596 75.2754 47.8311 120.303 55.3262c30.3965 96.4414 51.5869 195.391 77.084 293.177c13.8867 53.2715 28.8037 106.341 46.8701 158.366c11.3887 32.791 24.7432 65.3848 50.8809 88.1816
c-23.6348 60.0186 -59.6045 116.267 -115.315 150.625c-76.9414 47.4473 -160.161 27.0996 -235.279 -13.0342c-136.137 -72.7324 -240.02 -207.805 -273.639 -358.642c-18.332 -82.2686 -11.9502 -176.896 55.0459 -236.037
c29.2529 -25.8232 68.4951 -42.3027 107.929 -35.3242c42.4648 7.51562 78.1885 36.3838 110.738 62.8027c18.8203 15.2764 45.165 -3.38574 23.3682 -21.624c-70.6133 -59.0869 -160.066 -107.401 -248.672 -54.0898c-84.4609 50.8174 -109.51 149.703 -97.9434 242.503
c20.377 163.487 128.178 315.679 264.994 403.836c71.5498 46.1016 158.44 83.4062 245.119 80.1592c84.998 -3.18359 163.467 -49.8271 215.068 -116.144c121.042 -155.548 115.754 -371.967 126.122 -558.96c5.54395 -100.014 13.123 -201.062 37.6699 -298.514
c16.5234 -65.582 62.167 -186.521 151.822 -165.275c29.6367 7.02246 35.8408 -26.3447 10.082 -37.0781c-91.2861 -38.0488 -183.559 6.81055 -234.185 86.1611c-52.2324 81.8691 -67.1348 187.994 -76.9072 282.726c-0.926758 8.96387 -1.73047 17.957 -2.47949 26.9609
c-39.1777 -3.49902 -78.7988 -3.38574 -118.326 -3.57812c-29.583 -0.142578 -59.3037 -0.576172 -88.7881 -3.39453c-16.3613 -48.9453 -35.2354 -96.9932 -58.1602 -143.346zM650.758 318.916c-12.3154 -49.7979 -25.4111 -99.6152 -40.6934 -148.693
c13.9609 1.12402 27.7744 1.78906 41.1445 2.25195c51.1631 1.77441 102.794 -0.393555 153.705 3.60352c-10.457 162.014 0.339844 329.128 -46.4463 485.671c-1.17773 3.95703 -2.43457 7.90918 -3.70605 11.8613c-11.5264 -16.0508 -18.376 -35.4326 -24.7578 -54.5537
c-10.9102 -32.6826 -20.5439 -65.7793 -29.4932 -99.0479c-17.9375 -66.6807 -33.1748 -134.066 -49.7529 -201.093z" />
    <glyph glyph-name="A" unicode="&#xc3;" horiz-adv-x="1047" 
d="M541.85 -4.28809c-44.6875 -90.3506 -105.899 -179.967 -193.367 -233.495c-73.0674 -44.707 -178.212 -63.9854 -249.752 -5.08105c-82.5645 67.9824 -49.3936 184.954 19.3174 247.82c14.6514 13.4092 45.6094 -1.00488 27.3408 -17.957
c-41.1934 -38.2217 -65.459 -93.9678 -47.4326 -149.891c15.5674 -48.2998 58.4756 -76.2119 107.52 -81.3467c91.1436 -9.54102 169.42 55.4844 222.411 122.55c59.4316 75.2158 99.8066 164.596 130.533 255.029c-29.7158 -5.45508 -60.2002 -14.8135 -81.3809 -36.4619
c-13.5029 -13.7988 -46.6631 -5.45117 -28.5918 13.0488c31.8057 32.5596 75.2754 47.8311 120.303 55.3262c30.3965 96.4414 51.5869 195.391 77.084 293.177c13.8867 53.2715 28.8037 106.341 46.8701 158.366c11.3887 32.791 24.7432 65.3848 50.8809 88.1816
c-23.6348 60.0186 -59.6045 116.267 -115.315 150.625c-76.9414 47.4473 -160.161 27.0996 -235.279 -13.0342c-136.137 -72.7324 -240.02 -207.805 -273.639 -358.642c-18.332 -82.2686 -11.9502 -176.896 55.0459 -236.037
c29.2529 -25.8232 68.4951 -42.3027 107.929 -35.3242c42.4648 7.51562 78.1885 36.3838 110.738 62.8027c18.8203 15.2764 45.165 -3.38574 23.3682 -21.624c-70.6133 -59.0869 -160.066 -107.401 -248.672 -54.0898c-84.4609 50.8174 -109.51 149.703 -97.9434 242.503
c20.377 163.487 128.178 315.679 264.994 403.836c71.5498 46.1016 158.44 83.4062 245.119 80.1592c84.998 -3.18359 163.467 -49.8271 215.068 -116.144c121.042 -155.548 115.754 -371.967 126.122 -558.96c5.54395 -100.014 13.123 -201.062 37.6699 -298.514
c16.5234 -65.582 62.167 -186.521 151.822 -165.275c29.6367 7.02246 35.8408 -26.3447 10.082 -37.0781c-91.2861 -38.0488 -183.559 6.81055 -234.185 86.1611c-52.2324 81.8691 -67.1348 187.994 -76.9072 282.726c-0.926758 8.96387 -1.73047 17.957 -2.47949 26.9609
c-39.1777 -3.49902 -78.7988 -3.38574 -118.326 -3.57812c-29.583 -0.142578 -59.3037 -0.576172 -88.7881 -3.39453c-16.3613 -48.9453 -35.2354 -96.9932 -58.1602 -143.346zM650.758 318.916c-12.3154 -49.7979 -25.4111 -99.6152 -40.6934 -148.693
c13.9609 1.12402 27.7744 1.78906 41.1445 2.25195c51.1631 1.77441 102.794 -0.393555 153.705 3.60352c-10.457 162.014 0.339844 329.128 -46.4463 485.671c-1.17773 3.95703 -2.43457 7.90918 -3.70605 11.8613c-11.5264 -16.0508 -18.376 -35.4326 -24.7578 -54.5537
c-10.9102 -32.6826 -20.5439 -65.7793 -29.4932 -99.0479c-17.9375 -66.6807 -33.1748 -134.066 -49.7529 -201.093z" />
    <glyph glyph-name="A" unicode="&#xc2;" horiz-adv-x="1047" 
d="M541.85 -4.28809c-44.6875 -90.3506 -105.899 -179.967 -193.367 -233.495c-73.0674 -44.707 -178.212 -63.9854 -249.752 -5.08105c-82.5645 67.9824 -49.3936 184.954 19.3174 247.82c14.6514 13.4092 45.6094 -1.00488 27.3408 -17.957
c-41.1934 -38.2217 -65.459 -93.9678 -47.4326 -149.891c15.5674 -48.2998 58.4756 -76.2119 107.52 -81.3467c91.1436 -9.54102 169.42 55.4844 222.411 122.55c59.4316 75.2158 99.8066 164.596 130.533 255.029c-29.7158 -5.45508 -60.2002 -14.8135 -81.3809 -36.4619
c-13.5029 -13.7988 -46.6631 -5.45117 -28.5918 13.0488c31.8057 32.5596 75.2754 47.8311 120.303 55.3262c30.3965 96.4414 51.5869 195.391 77.084 293.177c13.8867 53.2715 28.8037 106.341 46.8701 158.366c11.3887 32.791 24.7432 65.3848 50.8809 88.1816
c-23.6348 60.0186 -59.6045 116.267 -115.315 150.625c-76.9414 47.4473 -160.161 27.0996 -235.279 -13.0342c-136.137 -72.7324 -240.02 -207.805 -273.639 -358.642c-18.332 -82.2686 -11.9502 -176.896 55.0459 -236.037
c29.2529 -25.8232 68.4951 -42.3027 107.929 -35.3242c42.4648 7.51562 78.1885 36.3838 110.738 62.8027c18.8203 15.2764 45.165 -3.38574 23.3682 -21.624c-70.6133 -59.0869 -160.066 -107.401 -248.672 -54.0898c-84.4609 50.8174 -109.51 149.703 -97.9434 242.503
c20.377 163.487 128.178 315.679 264.994 403.836c71.5498 46.1016 158.44 83.4062 245.119 80.1592c84.998 -3.18359 163.467 -49.8271 215.068 -116.144c121.042 -155.548 115.754 -371.967 126.122 -558.96c5.54395 -100.014 13.123 -201.062 37.6699 -298.514
c16.5234 -65.582 62.167 -186.521 151.822 -165.275c29.6367 7.02246 35.8408 -26.3447 10.082 -37.0781c-91.2861 -38.0488 -183.559 6.81055 -234.185 86.1611c-52.2324 81.8691 -67.1348 187.994 -76.9072 282.726c-0.926758 8.96387 -1.73047 17.957 -2.47949 26.9609
c-39.1777 -3.49902 -78.7988 -3.38574 -118.326 -3.57812c-29.583 -0.142578 -59.3037 -0.576172 -88.7881 -3.39453c-16.3613 -48.9453 -35.2354 -96.9932 -58.1602 -143.346zM650.758 318.916c-12.3154 -49.7979 -25.4111 -99.6152 -40.6934 -148.693
c13.9609 1.12402 27.7744 1.78906 41.1445 2.25195c51.1631 1.77441 102.794 -0.393555 153.705 3.60352c-10.457 162.014 0.339844 329.128 -46.4463 485.671c-1.17773 3.95703 -2.43457 7.90918 -3.70605 11.8613c-11.5264 -16.0508 -18.376 -35.4326 -24.7578 -54.5537
c-10.9102 -32.6826 -20.5439 -65.7793 -29.4932 -99.0479c-17.9375 -66.6807 -33.1748 -134.066 -49.7529 -201.093z" />
    <glyph glyph-name="A" unicode="&#xc1;" horiz-adv-x="1047" 
d="M541.85 -4.28809c-44.6875 -90.3506 -105.899 -179.967 -193.367 -233.495c-73.0674 -44.707 -178.212 -63.9854 -249.752 -5.08105c-82.5645 67.9824 -49.3936 184.954 19.3174 247.82c14.6514 13.4092 45.6094 -1.00488 27.3408 -17.957
c-41.1934 -38.2217 -65.459 -93.9678 -47.4326 -149.891c15.5674 -48.2998 58.4756 -76.2119 107.52 -81.3467c91.1436 -9.54102 169.42 55.4844 222.411 122.55c59.4316 75.2158 99.8066 164.596 130.533 255.029c-29.7158 -5.45508 -60.2002 -14.8135 -81.3809 -36.4619
c-13.5029 -13.7988 -46.6631 -5.45117 -28.5918 13.0488c31.8057 32.5596 75.2754 47.8311 120.303 55.3262c30.3965 96.4414 51.5869 195.391 77.084 293.177c13.8867 53.2715 28.8037 106.341 46.8701 158.366c11.3887 32.791 24.7432 65.3848 50.8809 88.1816
c-23.6348 60.0186 -59.6045 116.267 -115.315 150.625c-76.9414 47.4473 -160.161 27.0996 -235.279 -13.0342c-136.137 -72.7324 -240.02 -207.805 -273.639 -358.642c-18.332 -82.2686 -11.9502 -176.896 55.0459 -236.037
c29.2529 -25.8232 68.4951 -42.3027 107.929 -35.3242c42.4648 7.51562 78.1885 36.3838 110.738 62.8027c18.8203 15.2764 45.165 -3.38574 23.3682 -21.624c-70.6133 -59.0869 -160.066 -107.401 -248.672 -54.0898c-84.4609 50.8174 -109.51 149.703 -97.9434 242.503
c20.377 163.487 128.178 315.679 264.994 403.836c71.5498 46.1016 158.44 83.4062 245.119 80.1592c84.998 -3.18359 163.467 -49.8271 215.068 -116.144c121.042 -155.548 115.754 -371.967 126.122 -558.96c5.54395 -100.014 13.123 -201.062 37.6699 -298.514
c16.5234 -65.582 62.167 -186.521 151.822 -165.275c29.6367 7.02246 35.8408 -26.3447 10.082 -37.0781c-91.2861 -38.0488 -183.559 6.81055 -234.185 86.1611c-52.2324 81.8691 -67.1348 187.994 -76.9072 282.726c-0.926758 8.96387 -1.73047 17.957 -2.47949 26.9609
c-39.1777 -3.49902 -78.7988 -3.38574 -118.326 -3.57812c-29.583 -0.142578 -59.3037 -0.576172 -88.7881 -3.39453c-16.3613 -48.9453 -35.2354 -96.9932 -58.1602 -143.346zM650.758 318.916c-12.3154 -49.7979 -25.4111 -99.6152 -40.6934 -148.693
c13.9609 1.12402 27.7744 1.78906 41.1445 2.25195c51.1631 1.77441 102.794 -0.393555 153.705 3.60352c-10.457 162.014 0.339844 329.128 -46.4463 485.671c-1.17773 3.95703 -2.43457 7.90918 -3.70605 11.8613c-11.5264 -16.0508 -18.376 -35.4326 -24.7578 -54.5537
c-10.9102 -32.6826 -20.5439 -65.7793 -29.4932 -99.0479c-17.9375 -66.6807 -33.1748 -134.066 -49.7529 -201.093z" />
    <glyph glyph-name="B" unicode="B" horiz-adv-x="1641" 
d="M87.9766 422.547c-70.6777 94.1299 -31.2979 228.271 25.6055 318.916c84.417 134.456 258.795 232.829 418.536 187.324c196.145 -55.874 240.098 -279.941 255.395 -455.468c9.51074 -109.111 8.80078 -218.302 3.46387 -327.62
c-0.0693359 -1.42383 -0.138672 -2.85254 -0.208008 -4.27637c8.94922 31.9385 18.2734 63.7686 28.208 95.4307c37.167 118.445 82.1553 234.958 140.818 344.527c52.9121 98.8262 117.977 203.822 217.231 262.013c41.3955 24.2705 100.66 36.1865 136.156 -4.74512
c35.6934 -41.1543 21.501 -100.507 -0.399414 -144.691c-28.7305 -57.958 -74.6689 -109.121 -127.552 -151.764c52.8379 -4.55371 104.626 -17.4062 152.394 -41.7607c20.1357 14.4688 40.7197 28.3311 61.8359 41.3809c7.31348 4.51855 20.5254 9.86035 27.9619 1.97559
c6.64258 -7.04199 2.42383 -18.3467 -5.1748 -23.0625c-18.9141 -11.7334 -37.4189 -24.083 -55.5195 -36.9697c69.4854 -44.125 123.457 -111.663 153.267 -188.328c66.0801 -169.938 19.1113 -373.559 -94.7705 -512.248
c-51.7295 -62.9951 -121.904 -112.793 -201.832 -131.229c-72.3828 -16.7012 -156.021 -13.0352 -214.512 38.3291c-64.3545 56.5098 -71.0127 154.804 -61.916 234.185c10.3242 90.0693 48.0879 175.91 94.0615 253.187c55.2822 92.9229 124.679 176.975 204.902 249.081
c-2.75488 1.20215 -5.5 2.41895 -8.29883 3.54297c-71.1309 28.499 -149.122 26.459 -223.653 15.5088c-19.3232 -2.83887 -42.5439 9.53516 -44.4902 30.2129c-2.08984 22.1855 18.4746 43.5879 37.1367 51.8623c52.7842 23.4033 101.927 50.0488 147.53 85.7275
c43.5342 34.0576 89.5225 70.8154 113.892 121.767c10.5752 22.1172 24.2256 55.6621 9.39258 78.5918c-15.1582 23.4277 -47.624 20.8555 -69.8643 10.9844c-45.7324 -20.2988 -84.1064 -61.1221 -115.144 -99.2646c-66.6025 -81.8447 -115.375 -180.144 -157.057 -276.535
c-70.2783 -162.531 -116.252 -333.942 -157.445 -505.979c-4.30664 -43.3418 -10.0967 -86.4277 -18.4346 -128.784c-4.96289 -25.2266 -33.1904 -41.9033 -56.4258 -45.8506c-18.8545 -3.20801 -50.123 3.32617 -50.335 28.2969
c-0.901367 105.908 15.3613 212.304 22.2158 317.95c6.90918 106.494 9.95996 213.688 6.15039 320.375c-5.36621 150.142 -11.9404 354.072 -153.694 445.871c-75.6992 49.0186 -170.879 22.5547 -244.606 -17.6533c-56.8057 -30.9824 -104.45 -77.123 -137.853 -132.479
c-48.0879 -79.7061 -83.082 -193.75 -27.6562 -278.517c103.104 -157.687 327.915 36.374 346.257 166.228c2.2666 16.0508 36.585 22.4424 33.9141 2.0498c-20.165 -153.853 -283.04 -366.496 -409.483 -198.091zM1390.22 294.33
c-27.4043 48.4521 -66.4346 89.1807 -114.039 117.004c-82.5938 -73.8018 -153.355 -160.555 -208.052 -257.479c-40.8779 -72.4316 -73.2744 -151.896 -80.7305 -235.415c-6.58887 -73.8066 6.57422 -168.695 76.5566 -209.978
c122.644 -72.3428 261.437 52.4492 316.847 153.646c71.1553 129.947 83.668 300.944 9.41797 432.222z" />
    <glyph glyph-name="C" unicode="C" horiz-adv-x="920" 
d="M192.861 398.818c-84.9297 46.4512 -147.7 132.484 -142.565 233.425c2.88281 56.9189 25.2021 112.152 66.7158 151.853c41.1934 39.3945 110.255 63.3496 156.573 18.3516c15.5771 -15.1338 -19.4268 -38.3643 -33.1416 -25.0391
c-58.2441 56.5889 -125.146 -34.0469 -140.562 -85.5889c-16.9326 -56.6084 -8.68848 -117.208 21.0029 -168.035c20.8848 -35.7578 49.1172 -63.6992 81.7656 -84.3379c34.752 133.608 94.627 263.486 199.387 356.32c47.2402 41.8584 116.977 81.834 182.603 73.54
c57.3379 -7.24414 114.404 -34.8906 139.152 -89.6807c51.0342 -112.975 -13.4043 -242.094 -99.1719 -317.502c-86.9893 -76.4824 -211.382 -115.951 -326.781 -98.2744c-9.63965 -49.2207 -16.6719 -98.9102 -21.8662 -148.087
c-12.7539 -120.688 -12.7734 -252.867 23.5508 -369.858c13.9414 -44.9189 34.5459 -95.0225 73.7529 -123.625c44.3418 -32.3525 105.341 -27.834 150.792 -0.740234c50.502 30.1006 88.0977 78.7061 119.868 127.139c33.2295 50.6553 62.6494 103.863 88.0684 158.85
c51.71 111.871 85.8906 231.109 102.853 353.122c2.29688 16.5283 37.626 23.1123 34.9209 2.10938c-4.6123 -35.8115 -10.5557 -71.4111 -18.1699 -106.711c-30.6963 -142.336 -86.373 -279.769 -163.832 -403.082c-67.6914 -107.761 -173.171 -214.442 -312.146 -199.831
c-148.807 15.6416 -196.224 178.503 -212.506 303.251c-19.1006 146.372 -2.92676 298.736 29.7363 442.433zM356.41 565.519c-21.7227 -53.1631 -38.2402 -108.826 -50.959 -165.43c50.5811 -9.25 104.095 -6.55469 154.011 7.16016
c97.54 26.8037 188.856 97.8906 223.427 195.155c17.3223 48.7383 22.8809 109.053 -3.18359 155.716c-14.2119 25.4482 -37.0186 43.125 -65.0938 50.7979c-23.5605 6.43555 -45.7168 0.990234 -68.7061 -5.50977c-46.4658 -13.1426 -81.5088 -51.625 -108.682 -89.6787
c-32.5098 -45.5254 -59.6875 -96.4912 -80.8135 -148.211z" />
    <glyph glyph-name="D" unicode="D" horiz-adv-x="1597" 
d="M87.9756 422.547c-70.6777 94.1299 -31.3057 228.268 25.6182 318.903c84.417 134.456 258.795 232.829 418.536 187.324c196.145 -55.874 240.098 -279.941 255.395 -455.468c9.06738 -104.05 8.78613 -208.174 4.11914 -312.406
c14.9863 73.8613 30.8398 147.521 50.9512 220.194c35.7627 129.213 84.8164 268.941 172.56 372.839c41.6221 49.2852 99.0332 87.8916 164.783 92.9082c63.8721 4.87402 122.895 -24.1621 167.257 -68.4062c28.6074 -28.5283 52.0449 -61.3193 71.126 -96.7959
c3.6123 1.32031 7.18555 2.72949 10.832 3.97168c35.0576 11.9453 127.547 44.6875 146.066 -8.67773c6.75098 -19.4463 -31.9336 -37.5518 -38.4775 -18.7666c-10.083 28.9473 -66.4199 7.82617 -86.4668 1.90234c-6.15039 -1.81836 -12.2363 -3.81445 -18.2832 -5.91406
c39.498 -85.8262 56.2383 -184.214 60.1064 -275.392c6.41113 -151.088 -25.5518 -304.004 -89.0146 -441.037c-61.2998 -132.361 -169.701 -246.978 -319.641 -269.543c-64.7988 -9.75293 -134.899 4.68652 -182.538 51.6797
c-49.127 48.4619 -66.9863 116.513 -62.3389 183.987c4.83398 70.1699 28.1533 139.005 53.9023 204c26.0791 65.8086 59.2148 128.655 97.7764 187.993c72.959 112.271 163.738 218.75 271.327 299.244c23.1963 17.3564 47.457 33.2686 72.6396 47.5059
c-4.12012 11.8271 -8.65918 23.5312 -13.7256 35.0723c-21.5107 49.0039 -52.1875 108.273 -104.818 129.627c-61.2109 24.8369 -128.134 -20.1709 -166.725 -64.5527c-40.0742 -46.0918 -69.3662 -102.458 -94.874 -157.603
c-100.517 -217.306 -125.319 -459.207 -181.567 -689.966c-3.50391 -27.1436 -7.74707 -54.1191 -13 -80.8047c-4.96777 -25.2266 -33.1904 -41.9033 -56.4307 -45.8506c-18.8545 -3.20801 -50.123 3.32617 -50.335 28.2969
c-0.901367 105.908 15.3613 212.304 22.2158 317.95c6.9043 106.494 9.95996 213.688 6.14551 320.375c-5.36621 150.142 -11.9404 354.072 -153.694 445.871c-75.6992 49.0186 -170.879 22.5547 -244.606 -17.6533c-56.8057 -30.9824 -104.449 -77.123 -137.852 -132.479
c-48.0879 -79.7061 -83.082 -193.75 -27.6562 -278.517c103.104 -157.687 327.915 36.374 346.257 166.228c2.2666 16.0508 36.585 22.4424 33.9141 2.0498c-20.165 -153.853 -283.04 -366.496 -409.483 -198.091zM1348.08 111.798
c32.3428 127.927 35.665 258.12 18.082 388.451c-5.12988 38.0537 -12.0293 75.8516 -22.5459 112.645c-51.8477 -30.3516 -98.9844 -68.9531 -141.828 -110.816c-97.0479 -94.8252 -180.405 -206.149 -239.98 -328.211
c-27.2812 -55.8984 -49.1318 -114.059 -64.0635 -174.476c-15.918 -64.3848 -24.4727 -133.998 8.85059 -194.539c29.3613 -53.3311 96.6924 -68.6328 153.478 -62.6797c50.6406 5.30762 95.9639 28.5928 133.362 62.5664c85.1465 77.3506 127.236 198.639 154.646 307.06z
" />
    <glyph glyph-name="E" unicode="E" horiz-adv-x="993" 
d="M503.729 -336.26c-66.3262 -12.7441 -130.853 -10.2764 -189.792 26.2256c-54.0205 33.4609 -94.0752 84.333 -108.499 146.584c-28.7988 124.305 47.7334 242.72 146.393 320.158c-18.0566 10.1611 -34.7432 22.373 -48.832 35.6494
c-54.5684 51.4287 -78.5674 123.762 -78.6953 196.682c-43.0908 18.1699 -82.3379 44.998 -114.661 81.8789c-59.624 68.0312 -78.291 161.905 -38.8125 244.991c35.373 74.4424 145.061 154.877 222.036 86.5254c16.1094 -14.3008 -18.8203 -37.7529 -33.1416 -25.0391
c-43.1006 38.2764 -100.468 4.95801 -130.662 -32.6426c-27.208 -33.8848 -40.3506 -78.2324 -38.3994 -121.451c3.80957 -84.4912 64.0205 -152.739 136.329 -190.843c1.47852 11.7383 3.5332 23.3877 6.1748 34.8555c23.8906 103.784 80.9023 199.728 153.743 276.535
c37.8271 39.8828 81.8887 77.1777 132.643 99.4521c46.1113 20.2393 95.5391 24.6992 145.238 17.2188c98.5947 -14.8379 154.543 -97.042 142.682 -194.321c-10.6494 -87.3486 -69.0117 -162.787 -138.211 -213.679c-87.5361 -64.3799 -208.73 -100.35 -322.804 -92.041
c5.76074 -25.0889 16.0557 -49.2607 30.4258 -70.5596c5.72656 -8.48633 14.6904 -18.5146 23.7041 -26.8926c4.67188 -4.3418 9.58008 -8.36816 14.5869 -12.3105c2.29199 -1.80371 4.70215 -3.51855 7.10742 -5.18457
c0.349609 -0.211914 0.71875 -0.433594 1.14746 -0.689453c8.9541 -5.36621 18.2676 -10.1074 27.9121 -14.1094c4.14453 -1.71973 8.38281 -3.16406 12.5762 -4.75586c0.467773 -0.177734 0.827148 -0.31543 1.20703 -0.462891
c0.0693359 -0.00976562 0.0986328 -0.0146484 0.172852 -0.0244141c7.30859 -1.19238 14.3408 -3.56738 21.7627 -4.2627c19.5498 -1.83301 32.7715 -18.1846 31.9336 -36.8271c-0.946289 -21.1162 -20.1406 -39.5469 -38.2607 -48.1465
c-4.13477 -1.96094 -8.17578 -4.13379 -12.1924 -6.32227c-4.22852 -2.30176 -8.37305 -4.74609 -12.5518 -7.1416c-0.616211 -0.349609 -1.11914 -0.635742 -1.59668 -0.907227c-1.63086 -1.11328 -3.08984 -2.13867 -3.35059 -2.31152
c-13.4482 -8.78125 -26.5127 -18.1885 -39.1387 -28.1182c-7.2832 -5.73145 -14.251 -11.7979 -21.3076 -17.7949c-0.202148 -0.182617 -0.349609 -0.31543 -0.537109 -0.483398c-2.14844 -2.0498 -4.28711 -4.11426 -6.3916 -6.20898
c-2.99121 -2.97656 -5.92871 -6.00195 -8.82129 -9.06738c-25.3154 -26.8281 -42.6475 -50.1865 -55.3271 -83.7861c-15.2764 -40.4932 -19.6816 -86.1514 -8.81055 -128.267c13.0693 -50.6455 42.5879 -98.6787 87.7285 -126.61
c52.4043 -32.4268 114.147 -27.4346 167.799 -1.04004c55.0361 27.0742 97.5801 73.5449 133.919 121.879c38.3594 51.0244 71.9639 105.893 101.256 162.579c57.9834 112.221 97.0723 233.149 116.139 357.991c2.51855 16.4941 37.9219 23.0586 34.9209 2.10938
c-22.5215 -157.14 -77.3311 -308.897 -159.441 -444.733c-67.1592 -111.103 -153.828 -228.251 -289.299 -254.28zM389.833 589.407c-29.8291 -58.3525 -52.5693 -126.206 -48.5137 -192.72c138.324 -18.8691 292.517 36.7041 375.534 147.353
c44.125 58.8057 69.9375 148.86 29.459 216.315c-21.5059 35.8418 -62.2607 53.4492 -102.833 55.1494c-37.6455 1.57715 -74.4287 -15.2129 -105.372 -35.7334c-66.7939 -44.293 -112.541 -120.45 -148.274 -190.364zM422.03 245.693c-1.76465 1.14844 -5.0459 3.04102 0 0
z" />
    <glyph glyph-name="E" unicode="&#xcb;" horiz-adv-x="993" 
d="M503.729 -336.26c-66.3262 -12.7441 -130.853 -10.2764 -189.792 26.2256c-54.0205 33.4609 -94.0752 84.333 -108.499 146.584c-28.7988 124.305 47.7334 242.72 146.393 320.158c-18.0566 10.1611 -34.7432 22.373 -48.832 35.6494
c-54.5684 51.4287 -78.5674 123.762 -78.6953 196.682c-43.0908 18.1699 -82.3379 44.998 -114.661 81.8789c-59.624 68.0312 -78.291 161.905 -38.8125 244.991c35.373 74.4424 145.061 154.877 222.036 86.5254c16.1094 -14.3008 -18.8203 -37.7529 -33.1416 -25.0391
c-43.1006 38.2764 -100.468 4.95801 -130.662 -32.6426c-27.208 -33.8848 -40.3506 -78.2324 -38.3994 -121.451c3.80957 -84.4912 64.0205 -152.739 136.329 -190.843c1.47852 11.7383 3.5332 23.3877 6.1748 34.8555c23.8906 103.784 80.9023 199.728 153.743 276.535
c37.8271 39.8828 81.8887 77.1777 132.643 99.4521c46.1113 20.2393 95.5391 24.6992 145.238 17.2188c98.5947 -14.8379 154.543 -97.042 142.682 -194.321c-10.6494 -87.3486 -69.0117 -162.787 -138.211 -213.679c-87.5361 -64.3799 -208.73 -100.35 -322.804 -92.041
c5.76074 -25.0889 16.0557 -49.2607 30.4258 -70.5596c5.72656 -8.48633 14.6904 -18.5146 23.7041 -26.8926c4.67188 -4.3418 9.58008 -8.36816 14.5869 -12.3105c2.29199 -1.80371 4.70215 -3.51855 7.10742 -5.18457
c0.349609 -0.211914 0.71875 -0.433594 1.14746 -0.689453c8.9541 -5.36621 18.2676 -10.1074 27.9121 -14.1094c4.14453 -1.71973 8.38281 -3.16406 12.5762 -4.75586c0.467773 -0.177734 0.827148 -0.31543 1.20703 -0.462891
c0.0693359 -0.00976562 0.0986328 -0.0146484 0.172852 -0.0244141c7.30859 -1.19238 14.3408 -3.56738 21.7627 -4.2627c19.5498 -1.83301 32.7715 -18.1846 31.9336 -36.8271c-0.946289 -21.1162 -20.1406 -39.5469 -38.2607 -48.1465
c-4.13477 -1.96094 -8.17578 -4.13379 -12.1924 -6.32227c-4.22852 -2.30176 -8.37305 -4.74609 -12.5518 -7.1416c-0.616211 -0.349609 -1.11914 -0.635742 -1.59668 -0.907227c-1.63086 -1.11328 -3.08984 -2.13867 -3.35059 -2.31152
c-13.4482 -8.78125 -26.5127 -18.1885 -39.1387 -28.1182c-7.2832 -5.73145 -14.251 -11.7979 -21.3076 -17.7949c-0.202148 -0.182617 -0.349609 -0.31543 -0.537109 -0.483398c-2.14844 -2.0498 -4.28711 -4.11426 -6.3916 -6.20898
c-2.99121 -2.97656 -5.92871 -6.00195 -8.82129 -9.06738c-25.3154 -26.8281 -42.6475 -50.1865 -55.3271 -83.7861c-15.2764 -40.4932 -19.6816 -86.1514 -8.81055 -128.267c13.0693 -50.6455 42.5879 -98.6787 87.7285 -126.61
c52.4043 -32.4268 114.147 -27.4346 167.799 -1.04004c55.0361 27.0742 97.5801 73.5449 133.919 121.879c38.3594 51.0244 71.9639 105.893 101.256 162.579c57.9834 112.221 97.0723 233.149 116.139 357.991c2.51855 16.4941 37.9219 23.0586 34.9209 2.10938
c-22.5215 -157.14 -77.3311 -308.897 -159.441 -444.733c-67.1592 -111.103 -153.828 -228.251 -289.299 -254.28zM389.833 589.407c-29.8291 -58.3525 -52.5693 -126.206 -48.5137 -192.72c138.324 -18.8691 292.517 36.7041 375.534 147.353
c44.125 58.8057 69.9375 148.86 29.459 216.315c-21.5059 35.8418 -62.2607 53.4492 -102.833 55.1494c-37.6455 1.57715 -74.4287 -15.2129 -105.372 -35.7334c-66.7939 -44.293 -112.541 -120.45 -148.274 -190.364zM422.03 245.693c-1.76465 1.14844 -5.0459 3.04102 0 0
z" />
    <glyph glyph-name="E" unicode="&#xca;" horiz-adv-x="993" 
d="M503.729 -336.26c-66.3262 -12.7441 -130.853 -10.2764 -189.792 26.2256c-54.0205 33.4609 -94.0752 84.333 -108.499 146.584c-28.7988 124.305 47.7334 242.72 146.393 320.158c-18.0566 10.1611 -34.7432 22.373 -48.832 35.6494
c-54.5684 51.4287 -78.5674 123.762 -78.6953 196.682c-43.0908 18.1699 -82.3379 44.998 -114.661 81.8789c-59.624 68.0312 -78.291 161.905 -38.8125 244.991c35.373 74.4424 145.061 154.877 222.036 86.5254c16.1094 -14.3008 -18.8203 -37.7529 -33.1416 -25.0391
c-43.1006 38.2764 -100.468 4.95801 -130.662 -32.6426c-27.208 -33.8848 -40.3506 -78.2324 -38.3994 -121.451c3.80957 -84.4912 64.0205 -152.739 136.329 -190.843c1.47852 11.7383 3.5332 23.3877 6.1748 34.8555c23.8906 103.784 80.9023 199.728 153.743 276.535
c37.8271 39.8828 81.8887 77.1777 132.643 99.4521c46.1113 20.2393 95.5391 24.6992 145.238 17.2188c98.5947 -14.8379 154.543 -97.042 142.682 -194.321c-10.6494 -87.3486 -69.0117 -162.787 -138.211 -213.679c-87.5361 -64.3799 -208.73 -100.35 -322.804 -92.041
c5.76074 -25.0889 16.0557 -49.2607 30.4258 -70.5596c5.72656 -8.48633 14.6904 -18.5146 23.7041 -26.8926c4.67188 -4.3418 9.58008 -8.36816 14.5869 -12.3105c2.29199 -1.80371 4.70215 -3.51855 7.10742 -5.18457
c0.349609 -0.211914 0.71875 -0.433594 1.14746 -0.689453c8.9541 -5.36621 18.2676 -10.1074 27.9121 -14.1094c4.14453 -1.71973 8.38281 -3.16406 12.5762 -4.75586c0.467773 -0.177734 0.827148 -0.31543 1.20703 -0.462891
c0.0693359 -0.00976562 0.0986328 -0.0146484 0.172852 -0.0244141c7.30859 -1.19238 14.3408 -3.56738 21.7627 -4.2627c19.5498 -1.83301 32.7715 -18.1846 31.9336 -36.8271c-0.946289 -21.1162 -20.1406 -39.5469 -38.2607 -48.1465
c-4.13477 -1.96094 -8.17578 -4.13379 -12.1924 -6.32227c-4.22852 -2.30176 -8.37305 -4.74609 -12.5518 -7.1416c-0.616211 -0.349609 -1.11914 -0.635742 -1.59668 -0.907227c-1.63086 -1.11328 -3.08984 -2.13867 -3.35059 -2.31152
c-13.4482 -8.78125 -26.5127 -18.1885 -39.1387 -28.1182c-7.2832 -5.73145 -14.251 -11.7979 -21.3076 -17.7949c-0.202148 -0.182617 -0.349609 -0.31543 -0.537109 -0.483398c-2.14844 -2.0498 -4.28711 -4.11426 -6.3916 -6.20898
c-2.99121 -2.97656 -5.92871 -6.00195 -8.82129 -9.06738c-25.3154 -26.8281 -42.6475 -50.1865 -55.3271 -83.7861c-15.2764 -40.4932 -19.6816 -86.1514 -8.81055 -128.267c13.0693 -50.6455 42.5879 -98.6787 87.7285 -126.61
c52.4043 -32.4268 114.147 -27.4346 167.799 -1.04004c55.0361 27.0742 97.5801 73.5449 133.919 121.879c38.3594 51.0244 71.9639 105.893 101.256 162.579c57.9834 112.221 97.0723 233.149 116.139 357.991c2.51855 16.4941 37.9219 23.0586 34.9209 2.10938
c-22.5215 -157.14 -77.3311 -308.897 -159.441 -444.733c-67.1592 -111.103 -153.828 -228.251 -289.299 -254.28zM389.833 589.407c-29.8291 -58.3525 -52.5693 -126.206 -48.5137 -192.72c138.324 -18.8691 292.517 36.7041 375.534 147.353
c44.125 58.8057 69.9375 148.86 29.459 216.315c-21.5059 35.8418 -62.2607 53.4492 -102.833 55.1494c-37.6455 1.57715 -74.4287 -15.2129 -105.372 -35.7334c-66.7939 -44.293 -112.541 -120.45 -148.274 -190.364zM422.03 245.693c-1.76465 1.14844 -5.0459 3.04102 0 0
z" />
    <glyph glyph-name="E" unicode="&#xc9;" horiz-adv-x="993" 
d="M503.729 -336.26c-66.3262 -12.7441 -130.853 -10.2764 -189.792 26.2256c-54.0205 33.4609 -94.0752 84.333 -108.499 146.584c-28.7988 124.305 47.7334 242.72 146.393 320.158c-18.0566 10.1611 -34.7432 22.373 -48.832 35.6494
c-54.5684 51.4287 -78.5674 123.762 -78.6953 196.682c-43.0908 18.1699 -82.3379 44.998 -114.661 81.8789c-59.624 68.0312 -78.291 161.905 -38.8125 244.991c35.373 74.4424 145.061 154.877 222.036 86.5254c16.1094 -14.3008 -18.8203 -37.7529 -33.1416 -25.0391
c-43.1006 38.2764 -100.468 4.95801 -130.662 -32.6426c-27.208 -33.8848 -40.3506 -78.2324 -38.3994 -121.451c3.80957 -84.4912 64.0205 -152.739 136.329 -190.843c1.47852 11.7383 3.5332 23.3877 6.1748 34.8555c23.8906 103.784 80.9023 199.728 153.743 276.535
c37.8271 39.8828 81.8887 77.1777 132.643 99.4521c46.1113 20.2393 95.5391 24.6992 145.238 17.2188c98.5947 -14.8379 154.543 -97.042 142.682 -194.321c-10.6494 -87.3486 -69.0117 -162.787 -138.211 -213.679c-87.5361 -64.3799 -208.73 -100.35 -322.804 -92.041
c5.76074 -25.0889 16.0557 -49.2607 30.4258 -70.5596c5.72656 -8.48633 14.6904 -18.5146 23.7041 -26.8926c4.67188 -4.3418 9.58008 -8.36816 14.5869 -12.3105c2.29199 -1.80371 4.70215 -3.51855 7.10742 -5.18457
c0.349609 -0.211914 0.71875 -0.433594 1.14746 -0.689453c8.9541 -5.36621 18.2676 -10.1074 27.9121 -14.1094c4.14453 -1.71973 8.38281 -3.16406 12.5762 -4.75586c0.467773 -0.177734 0.827148 -0.31543 1.20703 -0.462891
c0.0693359 -0.00976562 0.0986328 -0.0146484 0.172852 -0.0244141c7.30859 -1.19238 14.3408 -3.56738 21.7627 -4.2627c19.5498 -1.83301 32.7715 -18.1846 31.9336 -36.8271c-0.946289 -21.1162 -20.1406 -39.5469 -38.2607 -48.1465
c-4.13477 -1.96094 -8.17578 -4.13379 -12.1924 -6.32227c-4.22852 -2.30176 -8.37305 -4.74609 -12.5518 -7.1416c-0.616211 -0.349609 -1.11914 -0.635742 -1.59668 -0.907227c-1.63086 -1.11328 -3.08984 -2.13867 -3.35059 -2.31152
c-13.4482 -8.78125 -26.5127 -18.1885 -39.1387 -28.1182c-7.2832 -5.73145 -14.251 -11.7979 -21.3076 -17.7949c-0.202148 -0.182617 -0.349609 -0.31543 -0.537109 -0.483398c-2.14844 -2.0498 -4.28711 -4.11426 -6.3916 -6.20898
c-2.99121 -2.97656 -5.92871 -6.00195 -8.82129 -9.06738c-25.3154 -26.8281 -42.6475 -50.1865 -55.3271 -83.7861c-15.2764 -40.4932 -19.6816 -86.1514 -8.81055 -128.267c13.0693 -50.6455 42.5879 -98.6787 87.7285 -126.61
c52.4043 -32.4268 114.147 -27.4346 167.799 -1.04004c55.0361 27.0742 97.5801 73.5449 133.919 121.879c38.3594 51.0244 71.9639 105.893 101.256 162.579c57.9834 112.221 97.0723 233.149 116.139 357.991c2.51855 16.4941 37.9219 23.0586 34.9209 2.10938
c-22.5215 -157.14 -77.3311 -308.897 -159.441 -444.733c-67.1592 -111.103 -153.828 -228.251 -289.299 -254.28zM389.833 589.407c-29.8291 -58.3525 -52.5693 -126.206 -48.5137 -192.72c138.324 -18.8691 292.517 36.7041 375.534 147.353
c44.125 58.8057 69.9375 148.86 29.459 216.315c-21.5059 35.8418 -62.2607 53.4492 -102.833 55.1494c-37.6455 1.57715 -74.4287 -15.2129 -105.372 -35.7334c-66.7939 -44.293 -112.541 -120.45 -148.274 -190.364zM422.03 245.693c-1.76465 1.14844 -5.0459 3.04102 0 0
z" />
    <glyph glyph-name="F" unicode="F" horiz-adv-x="878" 
d="M290.041 893.068c65.9717 21.6289 137.316 21.6543 205.579 13.1582c77.4639 -9.63965 153.104 -23.0684 229.266 -40.2178c75.6797 -17.041 150.394 -35.3389 227.31 -46.2051c73.082 -10.3242 152.167 -15.7354 224.269 2.84863
c30.499 7.86035 69.0752 19.1553 84.8643 49.3145c11.1377 21.2744 5.32715 58.8457 -21.5898 65.2129c-25.2217 5.97266 -1.22754 35.5947 17.3359 31.7705c54.6172 -11.2461 63.9561 -76.6455 34.6494 -116.967c-40.917 -56.2881 -125.373 -74.6895 -189.521 -87.2168
c-144.021 -28.1289 -289.403 12.207 -426.501 54.4795c-5.97266 1.84277 -12.0049 3.71582 -18.0566 5.59863c12.084 -132.539 28.7305 -265.596 37.8525 -398.81c54.1094 7.03223 108.332 12.8818 162.564 16.7402c28.0205 1.99121 12.2852 -30.3906 -7.81641 -32.6475
c-50.9561 -5.72168 -101.828 -11.3594 -152.636 -17.4209c3.5625 -61.1416 5.36621 -122.313 4.10449 -183.48c-3.49414 -169.352 -27.0352 -356.409 -154.868 -480.654c-101.931 -99.0732 -290.674 -141.676 -397.39 -25.0342
c-106.416 116.316 -72.2549 286.589 10.0088 405.408c42.2129 60.9697 96.8896 118.405 167.202 145.973c33.3428 13.0742 72.0869 20.8701 106.622 7.6084c33.5596 -12.8867 60.9492 -37.709 50.2305 -75.9307c-8.49609 -30.293 -76.8525 -44.9541 -68.1201 -4.12012
c3.08008 14.4141 0.828125 36.9248 -12.5908 45.5537c-19.1309 12.3057 -46.5107 4.32715 -65.8037 -3.11914c-35.1123 -13.5518 -65.7197 -37.4521 -91.6807 -64.2998c-52.4043 -54.1885 -95.0312 -122.333 -113.058 -195.997
c-30.0264 -122.692 26.1924 -274.165 164.138 -294.611c138.033 -20.4609 233.469 107.017 266.329 225.516c39.5273 142.548 27.3105 299.353 15.6016 444.916c-0.980469 12.167 -2.04492 24.3291 -3.14844 36.4814c-32.249 -4.55371 -64.4736 -9.45703 -96.6631 -14.8926
c-26.4932 -4.47461 -25.3154 26.2266 -2.51855 30.1494c31.9873 5.50488 64.0781 10.8809 96.248 15.9912c-12.9854 133.667 -30.4893 266.709 -28.7842 401.401c0.216797 17.3662 9.15137 32.0811 21.9736 42.7305c-103.311 28.0449 -211.909 43.7451 -310.056 -5.85059
c-114.35 -57.7861 -210.993 -213.117 -144.751 -337.244c31.4111 -58.8604 92.9717 -98.0576 159.071 -104.745c52.666 -5.32715 129.489 12.8174 143.815 71.7617c10.4922 43.1592 89.0352 31.4307 57.3037 -9.46191
c-86.3926 -111.329 -255.172 -131.484 -357.773 -28.7598c-44.4512 44.5049 -67.5732 107.618 -62.3154 170.233c5.45508 64.9609 40.8926 126.852 81.9131 176.156c41.6221 50.0293 95.4111 88.3643 157.391 108.683z" />
    <glyph glyph-name="G" unicode="G" horiz-adv-x="1107" 
d="M56.6445 160.135c-22.2793 93.0557 15.4922 197.048 53.7236 280.661c30.9873 67.7754 69.8936 131.894 113.802 192.173c-3.10938 5.73633 -6.0957 11.5762 -8.7959 17.6377c-39.7246 89.1084 -27.4688 190.689 5.75098 279.665
c9.16602 24.5518 33.4365 41.9521 60.3037 40.2471c26.0889 -1.65625 37.502 -21.1416 27.1582 -44.3965c-19.2441 -43.2676 -34.1074 -90.6943 -36.5469 -138.304c-1.43359 -28.0059 1.6123 -55.8936 8.74316 -82.5293c52.666 62.3291 111.931 119.218 175.557 170.228
c72.1318 57.8301 161.334 120.288 254.577 135.703c82.293 13.6064 185.446 10.748 229.375 -74.5703c40.2471 -78.1729 -25.833 -169.942 -74.7041 -227.486c-54.7256 -64.4385 -123.994 -116.893 -200.29 -153.188c-81.4648 -38.749 -175.713 -65.6416 -266.266 -48.4326
c-41.9375 7.97363 -80.041 25.2363 -111.871 50.3838c-15.1885 -24.4678 -29.583 -49.4873 -43.041 -75.1865c-40.7549 -77.8281 -81.5146 -166.173 -76.1377 -256.228c2.00098 -33.4756 9.71777 -71.9482 34.0225 -96.8154
c27.7246 -28.3701 67.7646 -34.4609 105.72 -28.7793c46.6885 6.98828 87.6602 35.2656 125.083 62.3105c38.71 27.9766 74.625 59.1465 108.387 92.9033c60.8115 60.7969 113.324 141.32 197.835 170.947c36.6201 12.8428 80.3564 15.1787 117.43 2.54785
c39.2373 -13.3701 67.0361 -44.1113 85.999 -79.8789c5.01172 -9.45215 9.67871 -19.0469 14.084 -28.7354c14.3154 3.3457 28.8486 5.46973 43.6035 6.00195c29.1445 1.05469 13.666 -33.2891 -8.21484 -34.3145c-7.64844 -0.359375 -15.124 -1.31055 -22.4766 -2.66602
c59.1709 -155.297 45.0674 -334.233 -32.7998 -481.429c-44.4502 -84.0225 -112.639 -156.829 -199.924 -196.696c-80.7256 -36.876 -196.973 -53.4287 -272.78 3.74609c-70.9639 53.5234 -51.0107 148.944 -21.4473 219.355
c32.7471 77.9912 80.5781 147.836 135.742 211.565c55.8145 64.4736 118.779 121.491 187.919 171.407c35.7725 25.833 74.7432 53.8193 116.276 74.9951c-9.94434 34.4268 -24.4775 72.4072 -51.5918 94.1152c-37.9902 30.4062 -91.4199 12.9756 -126.734 -13.1826
c-37.2754 -27.6113 -65.4287 -65.6504 -96.3125 -99.8018c-31.6621 -35.0137 -65.2119 -68.1396 -100.368 -99.6396c-35.8164 -32.0908 -74.0381 -60.7568 -114.758 -86.2988c-40.2764 -25.2607 -82.293 -48.2451 -129.893 -55.6172
c-94.8496 -14.6904 -183.14 31.5293 -206.139 127.581zM780.858 -254.98c124.729 130.459 150.936 343.453 110.393 514.381c-10.6982 -6.03223 -21.1953 -12.4883 -31.5537 -19.0273c-146.692 -92.6123 -272.524 -218.7 -339.265 -380.97
c-25.6309 -62.3193 -49.8867 -165.862 37.8516 -190.34c79.918 -22.2988 167.829 18.6924 222.574 75.9561zM390.367 699.068c-23.1123 -26.9512 -44.7363 -54.8447 -65.0791 -83.5996c12.5371 -15.918 27.1885 -30.3574 43.9043 -42.8252
c75.4033 -56.2529 189.659 -29.6709 268.113 5.14551c78.8037 34.9736 149.2 87.7578 203.689 154.681c28.3018 34.7627 56.8545 75.1523 66.5576 119.608c10.96 50.1963 -13.7588 92.124 -61.8115 108.559c-50.3105 17.2041 -98.4375 1.08496 -145.49 -16.9863
c-41.3711 -15.8877 -79.2871 -38.3496 -115.069 -64.3008c-72.0576 -52.2568 -136.891 -112.733 -194.814 -180.281z" />
    <glyph glyph-name="H" unicode="H" horiz-adv-x="1592" 
d="M1164.23 358.808c68.3467 -2.1582 136.661 3.28516 203.835 15.5703c-2.31641 23.3438 -4.50488 46.6875 -6.41211 70.0361c-11.9502 146.396 -18.9238 293.049 -20.9736 439.908c-0.77832 55.7656 114.966 96.0918 118.942 31.7021
c11.9648 -193.745 18.5928 -387.608 32.9971 -581.226c6.44043 -86.5654 11.7334 -173.688 7.9043 -260.484c-3.49414 -79.1787 -10.1025 -163.187 -39.0986 -237.723c-23.8955 -61.4131 -64.0146 -119.987 -131.07 -137.994
c-56.8594 -15.2666 -117.804 3.6123 -161.333 41.6963c-113.29 99.1221 -94.6328 264.496 -43.209 389.806c31.3467 76.3896 82.7109 156.845 153.211 201.793c-48.4082 -5.43555 -97.2002 -7.38184 -146.042 -5.49414c-95.6182 3.69141 -189.512 22.0684 -284.174 34.4668
c-18.1895 2.37988 -36.6104 4.36621 -55.1543 5.86914c2.32617 -73.6348 0.926758 -147.309 -2.6709 -221.037c-5.37598 -110.062 -10.1758 -223.057 -31.4893 -331.33c-4.96777 -25.2266 -33.1904 -41.9033 -56.4307 -45.8506
c-18.8545 -3.20801 -50.123 3.32617 -50.335 28.2969c-0.901367 105.908 15.3613 212.304 22.2158 317.95c5.47461 84.3525 8.46094 169.144 7.59863 253.772c-36.3096 -2.08984 -72.2988 -7.12109 -107.175 -16.2285c-84.1016 -21.959 -179.227 -72.7666 -180.139 -171.889
c-0.177734 -19.1455 -40.1191 -33.3135 -41.1592 -10.9697c-3.77441 81.0068 50.0889 145.929 116.617 185.338c65.168 38.6064 137.319 53.5088 211.082 56.0225c-0.211914 8.11133 -0.384766 16.2227 -0.675781 24.3291
c-5.36621 150.142 -11.9404 354.072 -153.694 445.871c-75.6992 49.0186 -170.879 22.5547 -244.606 -17.6533c-56.8057 -30.9824 -104.45 -77.123 -137.853 -132.479c-48.0879 -79.7061 -83.082 -193.75 -27.6562 -278.517
c103.104 -157.687 327.915 36.374 346.257 166.228c2.2666 16.0508 36.585 22.4424 33.9141 2.0498c-20.165 -153.853 -283.04 -366.496 -409.483 -198.091c-70.6777 94.1299 -31.3027 228.261 25.6113 318.911c84.417 134.456 258.795 232.829 418.536 187.324
c196.145 -55.874 240.098 -279.941 255.395 -455.468c1.93652 -22.1758 3.3457 -44.3516 4.47949 -66.5322c41.918 -3.98633 83.501 -10.1562 123.777 -16.4941c82.4902 -12.9854 164.783 -28.834 248.461 -31.4805zM1378.82 -192.866
c12.8672 66.9473 19.7559 133.929 18.8242 202.157c-1.4834 109.21 -14.3408 217.907 -25.665 326.585c-134.668 -20.5742 -210.406 -175.477 -238.205 -297.672c-25.3398 -111.397 2.14844 -274.362 132.691 -307.346c25.5518 -6.45605 58.2197 -7.71777 81.0215 7.62793
c21.4619 14.4443 26.7695 44.8994 31.333 68.6475z" />
    <glyph glyph-name="I" unicode="I" horiz-adv-x="899" 
d="M790.981 145.69c-5.37695 -110.058 -10.1709 -223.048 -31.4795 -331.321c-1.68066 -8.5498 -6.07617 -16.0898 -12 -22.5107c9.79199 -2.16309 19.5693 -4.42969 29.3271 -6.81445c40.415 -9.89062 87.4971 -23.3789 122.9 6.2627
c16.7646 14.0352 40.6455 -3.06543 21.042 -19.4756c-56.7266 -47.4961 -127.385 -23.2646 -191.572 -9.08691c-9.04297 1.99609 -18.1201 3.8584 -27.2119 5.62305c-10.9307 -1.60645 -25.5273 -0.0244141 -36.0088 6.29785
c-17.5586 2.77441 -35.1816 5.15918 -52.8584 6.98242c-38.5859 3.98633 -86.6143 5.74023 -104.217 -36.0547c-6.9834 -16.5781 -42.7559 -16.6963 -33.4023 5.51465c29.46 69.9482 114.877 65.5127 177.211 57.5098
c0.00976562 0 0.0244141 -0.00488281 0.0390625 -0.00488281c0.325195 102.005 15.6016 204.424 22.2002 306.147c6.9043 106.494 9.95996 213.688 6.14551 320.375c-5.36621 150.142 -11.9404 354.072 -153.694 445.871
c-75.6992 49.0186 -170.879 22.5547 -244.606 -17.6533c-56.8057 -30.9824 -104.449 -77.123 -137.852 -132.479c-48.0879 -79.7061 -83.082 -193.75 -27.6562 -278.517c103.104 -157.687 327.915 36.374 346.257 166.228c2.2666 16.0508 36.585 22.4424 33.9141 2.0498
c-20.165 -153.853 -283.04 -366.496 -409.483 -198.091c-70.6777 94.1299 -31.3027 228.261 25.6113 318.911c84.4219 134.456 258.795 232.829 418.536 187.324c196.145 -55.874 240.098 -279.941 255.395 -455.468c9.51074 -109.111 8.80078 -218.302 3.46387 -327.62z
" />
    <glyph glyph-name="I" unicode="&#xcf;" horiz-adv-x="899" 
d="M790.981 145.69c-5.37695 -110.058 -10.1709 -223.048 -31.4795 -331.321c-1.68066 -8.5498 -6.07617 -16.0898 -12 -22.5107c9.79199 -2.16309 19.5693 -4.42969 29.3271 -6.81445c40.415 -9.89062 87.4971 -23.3789 122.9 6.2627
c16.7646 14.0352 40.6455 -3.06543 21.042 -19.4756c-56.7266 -47.4961 -127.385 -23.2646 -191.572 -9.08691c-9.04297 1.99609 -18.1201 3.8584 -27.2119 5.62305c-10.9307 -1.60645 -25.5273 -0.0244141 -36.0088 6.29785
c-17.5586 2.77441 -35.1816 5.15918 -52.8584 6.98242c-38.5859 3.98633 -86.6143 5.74023 -104.217 -36.0547c-6.9834 -16.5781 -42.7559 -16.6963 -33.4023 5.51465c29.46 69.9482 114.877 65.5127 177.211 57.5098
c0.00976562 0 0.0244141 -0.00488281 0.0390625 -0.00488281c0.325195 102.005 15.6016 204.424 22.2002 306.147c6.9043 106.494 9.95996 213.688 6.14551 320.375c-5.36621 150.142 -11.9404 354.072 -153.694 445.871
c-75.6992 49.0186 -170.879 22.5547 -244.606 -17.6533c-56.8057 -30.9824 -104.449 -77.123 -137.852 -132.479c-48.0879 -79.7061 -83.082 -193.75 -27.6562 -278.517c103.104 -157.687 327.915 36.374 346.257 166.228c2.2666 16.0508 36.585 22.4424 33.9141 2.0498
c-20.165 -153.853 -283.04 -366.496 -409.483 -198.091c-70.6777 94.1299 -31.3027 228.261 25.6113 318.911c84.4219 134.456 258.795 232.829 418.536 187.324c196.145 -55.874 240.098 -279.941 255.395 -455.468c9.51074 -109.111 8.80078 -218.302 3.46387 -327.62z
" />
    <glyph glyph-name="I" unicode="&#xce;" horiz-adv-x="899" 
d="M790.981 145.69c-5.37695 -110.058 -10.1709 -223.048 -31.4795 -331.321c-1.68066 -8.5498 -6.07617 -16.0898 -12 -22.5107c9.79199 -2.16309 19.5693 -4.42969 29.3271 -6.81445c40.415 -9.89062 87.4971 -23.3789 122.9 6.2627
c16.7646 14.0352 40.6455 -3.06543 21.042 -19.4756c-56.7266 -47.4961 -127.385 -23.2646 -191.572 -9.08691c-9.04297 1.99609 -18.1201 3.8584 -27.2119 5.62305c-10.9307 -1.60645 -25.5273 -0.0244141 -36.0088 6.29785
c-17.5586 2.77441 -35.1816 5.15918 -52.8584 6.98242c-38.5859 3.98633 -86.6143 5.74023 -104.217 -36.0547c-6.9834 -16.5781 -42.7559 -16.6963 -33.4023 5.51465c29.46 69.9482 114.877 65.5127 177.211 57.5098
c0.00976562 0 0.0244141 -0.00488281 0.0390625 -0.00488281c0.325195 102.005 15.6016 204.424 22.2002 306.147c6.9043 106.494 9.95996 213.688 6.14551 320.375c-5.36621 150.142 -11.9404 354.072 -153.694 445.871
c-75.6992 49.0186 -170.879 22.5547 -244.606 -17.6533c-56.8057 -30.9824 -104.449 -77.123 -137.852 -132.479c-48.0879 -79.7061 -83.082 -193.75 -27.6562 -278.517c103.104 -157.687 327.915 36.374 346.257 166.228c2.2666 16.0508 36.585 22.4424 33.9141 2.0498
c-20.165 -153.853 -283.04 -366.496 -409.483 -198.091c-70.6777 94.1299 -31.3027 228.261 25.6113 318.911c84.4219 134.456 258.795 232.829 418.536 187.324c196.145 -55.874 240.098 -279.941 255.395 -455.468c9.51074 -109.111 8.80078 -218.302 3.46387 -327.62z
" />
    <glyph glyph-name="I" unicode="&#xcd;" horiz-adv-x="899" 
d="M790.981 145.69c-5.37695 -110.058 -10.1709 -223.048 -31.4795 -331.321c-1.68066 -8.5498 -6.07617 -16.0898 -12 -22.5107c9.79199 -2.16309 19.5693 -4.42969 29.3271 -6.81445c40.415 -9.89062 87.4971 -23.3789 122.9 6.2627
c16.7646 14.0352 40.6455 -3.06543 21.042 -19.4756c-56.7266 -47.4961 -127.385 -23.2646 -191.572 -9.08691c-9.04297 1.99609 -18.1201 3.8584 -27.2119 5.62305c-10.9307 -1.60645 -25.5273 -0.0244141 -36.0088 6.29785
c-17.5586 2.77441 -35.1816 5.15918 -52.8584 6.98242c-38.5859 3.98633 -86.6143 5.74023 -104.217 -36.0547c-6.9834 -16.5781 -42.7559 -16.6963 -33.4023 5.51465c29.46 69.9482 114.877 65.5127 177.211 57.5098
c0.00976562 0 0.0244141 -0.00488281 0.0390625 -0.00488281c0.325195 102.005 15.6016 204.424 22.2002 306.147c6.9043 106.494 9.95996 213.688 6.14551 320.375c-5.36621 150.142 -11.9404 354.072 -153.694 445.871
c-75.6992 49.0186 -170.879 22.5547 -244.606 -17.6533c-56.8057 -30.9824 -104.449 -77.123 -137.852 -132.479c-48.0879 -79.7061 -83.082 -193.75 -27.6562 -278.517c103.104 -157.687 327.915 36.374 346.257 166.228c2.2666 16.0508 36.585 22.4424 33.9141 2.0498
c-20.165 -153.853 -283.04 -366.496 -409.483 -198.091c-70.6777 94.1299 -31.3027 228.261 25.6113 318.911c84.4219 134.456 258.795 232.829 418.536 187.324c196.145 -55.874 240.098 -279.941 255.395 -455.468c9.51074 -109.111 8.80078 -218.302 3.46387 -327.62z
" />
    <glyph glyph-name="J" unicode="J" horiz-adv-x="1103" 
d="M1133.89 955.161c22.0283 15.8389 51.8633 -3.91797 26.5674 -24.5811c-73.8115 -60.2744 -162.062 -85.8906 -253.442 -91.1689c16.6367 -42.6572 30.208 -85.1904 41.3408 -130.721c7.46582 -30.5391 14.1729 -61.1768 20.2393 -91.9521
c4.05078 1.11914 8.10645 2.23242 12.1865 3.2373c30.0508 7.39648 81.9082 23.7969 107.317 -1.09473c16.3164 -15.9863 -20.4658 -40.3701 -34.8311 -26.3203c-12.8965 12.6162 -54.8682 -1.47754 -69.7656 -5.1543
c-2.9668 -0.734375 -5.90918 -1.57227 -8.86133 -2.37109c2.5625 -14.2119 4.97754 -28.459 7.22461 -42.75c17.6572 -112.363 25.9609 -225.723 16.9424 -339.294c-14.207 -178.941 -64.8477 -413.244 -252.546 -486.489
c-77.459 -30.2285 -166.666 -28.2373 -239.887 13.2617c-77.6406 44.0068 -113.517 122.993 -114.413 210.44c-1.94629 189.635 121.909 348.312 254.123 471.206c65.2568 60.6592 134.313 118.287 213.088 160.707c0.901367 0.483398 1.82324 0.936523 2.72461 1.41992
c-14.0596 88.458 -29.4248 176.714 -36.1807 266.128c-12.916 0.768555 -25.8271 1.84277 -38.7041 3.20312c-67.0361 7.0918 -132.973 22.8027 -198.89 36.4141c-62.4277 12.8916 -126.955 30.3223 -191.068 30.6865
c-60.3779 0.339844 -122.747 -8.67871 -175.477 -39.8535c-52.1289 -30.8193 -91.8828 -82.3271 -113.044 -138.704c-20.7715 -55.3516 -23.3838 -124.354 20.0811 -169.785c34.5898 -36.1523 88.0938 -51.4883 137.107 -44.3525
c118.14 17.1992 190.843 149.615 212.156 255.287c3.72559 18.4697 44.0811 25.709 39.4482 2.38477c-25.6455 -129.095 -118.691 -272.924 -259.652 -291.28c-52.2373 -6.80078 -107.885 6.32715 -149.832 38.665c-49.0186 37.7881 -64.5566 98.6836 -55.3164 158.026
c19.8301 127.359 126.822 228.413 250.294 254.552c143.43 30.3613 290.442 -8.91504 431.827 -31.2686c42.208 -6.67285 86.7422 -12.1875 131.538 -13.9023c3.48926 0.404297 6.875 0.320312 10.0342 -0.334961c91.2861 -2.30176 182.996 12.0635 257.67 65.7588z
M870.518 63.5059c16.7158 84.1357 21.0234 169.258 18.998 254.857c-1.76953 74.7725 -11.1914 148.476 -22.4326 221.913c-21.3232 -11.8662 -41.9521 -24.9746 -61.9209 -39.0635c-72.5254 -51.168 -139.625 -112.251 -199.811 -177.39
c-56.5537 -61.2061 -106.056 -129.543 -136.979 -207.4c-30.1055 -75.8027 -45.9092 -167.946 -19.3525 -247.105c50.8076 -151.442 262.278 -152.068 343.187 -28.0303c42.7402 65.5176 63.2461 146.387 78.3105 222.219z" />
    <glyph glyph-name="K" unicode="K" horiz-adv-x="1320" 
d="M1387.81 768.784c20.6289 18.6719 43.5303 50.7471 28.2637 79.3047c-14.2275 26.582 -51.9023 30.751 -78.6074 31.2295c-116.419 2.08008 -223.579 -76.2412 -305.709 -151.167c-80.6963 -73.6191 -151.107 -158.426 -219.232 -243.804
c61.9355 -11.083 86.8125 -77.375 105.169 -130.918c21.0967 -61.5508 38.5078 -124.349 58.752 -186.186c33.9541 -103.739 82.5596 -203.808 153.863 -287.293c2.29688 -2.68555 4.65234 -5.40039 7.03711 -8.13574c73.3096 42.6963 154.247 69.8008 241.853 65.7598
c47.6494 -2.19824 115.513 -11.7832 137.211 -61.793c22.3828 -51.5869 -18.1055 -108.648 -58.2295 -137.808c-100.586 -73.1025 -238.654 -37.251 -333.711 26.9414c-15.1836 10.25 -29.6523 21.0674 -43.5244 32.3477
c-21.2197 -16.583 -41.5576 -34.2305 -60.9834 -52.3359c-6.78613 -6.32227 -19.1953 -13.4336 -28.7158 -7.93848c-8.16602 4.71582 -9.3584 15.4092 -2.21289 22.0566c21.7715 20.249 44.6074 39.9414 68.4248 58.4316c-77.3398 69.8936 -132.73 156.957 -169.203 257.858
c-23.2256 64.2568 -39.6699 130.514 -58.416 196.145c-9.26465 32.416 -17.6172 65.5713 -29.2275 97.2432c-2.33594 6.36719 -4.92773 12.5811 -7.64844 18.7168c3.34082 -80.5234 1.96094 -161.097 -1.97656 -241.738
c-5.37109 -110.062 -10.1709 -223.057 -31.4844 -331.33c-4.96777 -25.2266 -33.1904 -41.9033 -56.4307 -45.8506c-18.8545 -3.20801 -50.123 3.32617 -50.335 28.2969c-0.585938 68.8193 6.07715 137.846 12.6953 206.739
c-3.09473 21.9941 -6.50488 43.9336 -10.3242 65.7793c-6.05176 34.6289 -13.9805 69.2529 -29.3359 101.083c-7.26367 15.0596 -16.0654 28.9463 -26.8086 41.7842c-8.47168 10.1221 -17.4014 17.6172 -12.7842 31.8496c4.17871 12.8867 17.5332 25.4385 25.625 35.792
l35.9854 46.0371c11.5811 14.8135 23.1572 29.6318 34.7383 44.4453c-0.236328 21.6143 -0.660156 43.2236 -1.42871 64.8086c-5.36621 150.142 -11.9404 354.072 -153.694 445.871c-75.6992 49.0186 -170.879 22.5547 -244.606 -17.6533
c-56.8057 -30.9824 -104.449 -77.123 -137.852 -132.479c-48.0879 -79.7061 -83.082 -193.75 -27.6562 -278.517c103.104 -157.687 327.915 36.374 346.257 166.228c2.2666 16.0508 36.585 22.4424 33.9141 2.0498c-20.165 -153.853 -283.04 -366.496 -409.483 -198.091
c-70.6777 94.1299 -31.3027 228.261 25.6113 318.911c84.417 134.456 258.795 232.829 418.536 187.324c186.106 -53.0107 235.18 -257.41 252.782 -428.126c21.4814 26.9219 43.1748 53.666 65.3506 80.0264c85.4521 101.581 178.05 201.171 293.321 269.267
c57.0908 33.7275 121.736 59.5752 188.684 62.2021c46.1807 1.81348 117.253 -6.00195 128.267 -62.1562c10.5557 -53.8242 -40.7598 -100.275 -81.1748 -126.083c-51.5967 -32.9482 -112.004 -49.8115 -173.195 -48.0918
c-28.2969 0.792969 -13.6504 34.1064 8.0127 33.4756c62.3838 -1.80859 126.66 16.9717 173.639 59.4902zM1332.12 -95.29c-62.7734 -3.89844 -120.919 -24.9395 -174.393 -55.4492c62.5664 -66.5576 148.698 -133.392 240.901 -105.154
c43.9033 13.4434 102.542 63.7139 77.5127 115.709c-22.3975 46.5254 -101.039 47.5654 -144.021 44.8945zM635.263 230.005c13.626 -17.0117 24.3252 -36.0293 32.5059 -56.21c3.42969 -8.45605 6.4502 -17.0605 9.1709 -25.7637
c3.25293 57.1152 5.30762 114.394 5.70703 171.652c-2.87305 -3.66113 -5.74609 -7.32227 -8.62402 -10.9834c-11.0439 -14.0449 -22.083 -28.0898 -33.127 -42.1348c-3.41504 -4.3418 -9.28906 -10.2158 -12.0488 -15.3213
c-6.47559 -11.9746 -0.645508 -12.4229 6.41602 -21.2393z" />
    <glyph glyph-name="L" unicode="L" horiz-adv-x="908" 
d="M789.808 419.349c1.02539 -106.726 -6.28809 -213.157 -9.76758 -319.779c-2.57227 -78.873 -0.576172 -157.051 3.30664 -235.45c66.8096 20.1455 134.575 37.0137 203.587 47.752c120.337 18.7266 347.577 41.2373 379.032 -122.402
c3.82422 -19.8994 -38.374 -34.2256 -42.6963 -11.3789c-21.6787 114.547 -167.933 115.705 -257.845 109.678c-95.4512 -6.40137 -188.99 -27.9619 -280.39 -55.5146c0.970703 -17.4697 1.98633 -34.9541 3.08008 -52.4688
c3.25293 -52.1338 -98.7324 -89.2119 -110.757 -29.5234c-2.95215 14.6709 -5.3418 29.4551 -7.34277 44.3027c-13.7197 -4.78027 -27.4248 -9.60938 -41.0996 -14.5078c-41.4639 -14.8428 -87.3096 -35.5205 -132.361 -32.6182
c-35.5898 2.29199 -50.1914 31.9541 -36.9199 63.8438c14.1143 33.9102 51.7393 54.6123 85.9492 62.7529c41.4102 9.85156 83.3672 3.49414 118.321 -15.5527c-4.0166 67.0264 -1.42969 134.86 1.25586 201.261c4.20898 104.055 12.0244 207.957 15.459 312.042
c2.99609 90.8672 2.2666 182.834 -9.07812 273.149c-8.97852 71.4805 -19.4902 153.956 -66.5723 212.038c-113.596 140.133 -314.304 -11.0488 -395.325 -112.837c-46.6191 -58.5693 -80.9473 -127.162 -99.8516 -199.584
c-19.7812 -75.7686 -30.9238 -169.884 10.8359 -240.246c20.2734 -34.166 54.0547 -60.7432 94.6416 -63.3701c42.6074 -2.75488 85.0176 16.0459 120.41 38.3252c59.5596 37.4922 131.444 116.01 110.949 191.793c-10.5459 39 80.6318 68.9922 85.1709 22.7031
c10.4375 -106.499 -91.4785 -195.248 -174.54 -243.346c-82.6572 -47.8662 -195.894 -72.8066 -262.865 12.9355c-55.874 71.54 -49.8418 173.022 -31.3125 256.996c17.8594 80.9521 54.1299 157.14 103.666 223.441c49.8467 66.7158 115.178 123.91 189.418 161.989
c76.6162 39.2959 176.482 59.501 257.316 20.2939c77.8623 -37.7686 116.646 -118.332 138.738 -197.752c27.9766 -100.556 36.5859 -204.94 37.5859 -308.966zM617.598 -191.598c11.3496 4.08984 22.709 8.13867 34.0732 12.1602
c-12.458 9.36816 -26.6357 16.5684 -42.3564 20.8359c-23.6104 6.40625 -49.7188 6.3623 -72.8857 -1.83789c-16.4648 -5.83008 -47.748 -24.3984 -41.2773 -47.0127c9.48145 -33.1455 101.005 8.12695 122.446 15.8545z" />
    <glyph glyph-name="M" unicode="M" horiz-adv-x="1848" 
d="M787.518 473.315c8.09668 -92.9082 8.74316 -185.867 5.47559 -278.913c5.08105 22.5801 10.3096 45.1309 15.8877 67.6025c29.9375 120.549 64.8379 244.681 120.563 356.207c23.2754 46.5898 53.9424 98.8955 98.9502 127.537
c43.2041 27.498 87.8027 17.8584 119.52 -21.2256c35.8662 -44.1943 58.4414 -102.054 77.2617 -155.158c20.4707 -57.7715 33.1113 -119.756 43.9189 -180.001c14.5771 -81.2627 26.9268 -163.575 37.4131 -245.907c21.0176 125.689 46.2148 250.763 87.8467 371.415
c22.2549 64.4932 47.8066 129.119 87.0332 185.372c31.5791 45.2881 79.2871 97.8506 140.828 88.832c61.4971 -9.00879 88.2314 -75.0684 101.202 -127.803c18.3965 -74.793 14.4785 -157.544 14.0352 -234.036c-0.881836 -153.38 -17.9326 -306.207 -7.35742 -459.681
c4.88379 -70.9092 12.3789 -142.957 32.8203 -211.318c7.89941 -26.4092 18.5586 -71.5254 42.0361 -89.2715c13.9365 -10.5361 17.8301 10.5117 16.7559 22.9258c-1.56738 18.1396 -13.7598 32.835 -26.8291 44.3027c-16.5234 14.5029 18.8008 37.5264 33.5654 25.3594
c54.2227 -44.6777 44.6133 -129.947 -28.1934 -148.787c-84.3232 -21.8213 -134.022 70.0518 -156.297 135.846c-24.5762 72.5898 -31.0811 151.812 -33.4912 227.896c-2.54297 80.2822 0.68457 160.634 6.64258 240.699c5.79492 77.877 12.3984 155.676 19.4355 233.444
c7.13574 78.8037 15.9326 160.495 7.29395 239.481c-3.7207 34.0029 -12.7344 78.4189 -58.1113 66.9912c-34.043 -8.5752 -59.9004 -47.4424 -77.9219 -75.0342c-41.0752 -62.8818 -66.9619 -135.521 -89.4043 -206.75
c-46.4463 -147.437 -71.5254 -300.446 -96.4219 -452.663c-0.167969 -1.00977 -0.463867 -1.97559 -0.858398 -2.90723c0 -0.0195312 0.00488281 -0.0341797 0.00488281 -0.0488281c2.32617 -22.2012 -19.7168 -39.6221 -37.9355 -46.625
c-14.2617 -5.47949 -47.9346 -8.47559 -53.9268 12.2617c-35.2061 121.781 -40.7744 250.467 -56.5488 375.732c-6.875 54.5977 -14.9023 108.594 -24.96 162.698c-10.166 54.7012 -19.0166 110.737 -36.6592 163.679c-9.05273 27.1631 -27.5176 57.3418 -60.5547 39.2217
c-23.6445 -12.9707 -41.7305 -38.7988 -56.2686 -60.7979c-30.8984 -46.7568 -52.2217 -99.2598 -71.6729 -151.57c-70.9785 -190.887 -111.062 -391.181 -147.003 -591.282c-4.02148 -35.876 -9.18066 -71.5254 -16.0996 -106.672
c-4.96289 -25.2266 -33.1855 -41.9033 -56.4258 -45.8506c-18.8545 -3.20801 -50.123 3.32617 -50.335 28.2969c-0.901367 105.908 15.3613 212.304 22.2158 317.95c6.90918 106.494 9.95996 213.688 6.15039 320.375c-5.36621 150.142 -11.9404 354.072 -153.694 445.871
c-75.6992 49.0186 -170.879 22.5547 -244.607 -17.6533c-56.8008 -30.9824 -104.445 -77.123 -137.848 -132.479c-48.0928 -79.7061 -83.0869 -193.75 -27.6611 -278.517c103.104 -157.687 327.915 36.374 346.257 166.228c2.2666 16.0508 36.585 22.4424 33.9141 2.0498
c-20.165 -153.853 -283.04 -366.496 -409.483 -198.091c-70.6777 94.1299 -31.3027 228.261 25.6113 318.911c84.417 134.456 258.795 232.829 418.536 187.324c196.145 -55.874 240.098 -279.941 255.395 -455.468z" />
    <glyph glyph-name="N" unicode="N" horiz-adv-x="1398" 
d="M1410.78 -290.527c17.8545 -14.8633 16.8818 18.0205 12.5449 30.0645c-5.70703 15.8193 -17.751 28.1348 -29.7012 39.4893c-15.5967 14.8232 18.7666 37.2363 32.7178 24.7236c25.3545 -22.7432 48.8115 -53.2773 40.665 -89.5332
c-7.49512 -33.3525 -41.0205 -55.7656 -74.4277 -53.8096c-88.9502 5.20898 -132.622 119.722 -156.208 190.024c-52.2861 155.854 -57.8994 323.652 -61.1221 486.622c-1.64551 83.2783 -3.51367 166.946 -10.127 249.998
c-3.31152 41.5576 -6.15527 83.1455 -9.84668 124.664c-1.61621 18.1895 -1.375 37.4189 -5.6084 55.2334c-1.76953 7.44141 -4.2041 17.5928 -11.2412 21.7275c-9.51562 5.59375 -16.5869 -3.60645 -23.9541 -10.6533
c-56.0957 -53.627 -90.5674 -125.743 -120.047 -196.361c-34.0479 -81.5635 -62.7539 -165.285 -89.0498 -249.633c-48.9502 -156.997 -89.5029 -316.458 -138.133 -473.543c-2.31641 -14.7793 -4.87402 -29.4941 -7.75195 -44.1201
c-4.96289 -25.2266 -33.1855 -41.9033 -56.4258 -45.8506c-18.8545 -3.20801 -50.123 3.32617 -50.335 28.2969c-0.901367 105.908 15.3613 212.304 22.2158 317.95c6.90918 106.494 9.95996 213.688 6.15039 320.375c-5.36621 150.142 -11.9404 354.072 -153.694 445.871
c-75.6992 49.0186 -170.879 22.5547 -244.607 -17.6533c-56.8008 -30.9824 -104.444 -77.123 -137.847 -132.479c-48.0928 -79.7061 -83.0869 -193.75 -27.6611 -278.517c103.104 -157.687 327.915 36.374 346.257 166.228c2.2666 16.0508 36.585 22.4424 33.9141 2.0498
c-20.165 -153.853 -283.04 -366.496 -409.483 -198.091c-70.6777 94.1299 -31.3027 228.261 25.6113 318.911c84.417 134.456 258.795 232.829 418.536 187.324c196.145 -55.874 240.098 -279.941 255.395 -455.468c9.50586 -109.111 8.7959 -218.302 3.45898 -327.62
c-1.60645 -32.9141 -3.16895 -66.0898 -5.12988 -99.3242c31.6875 112.58 62.6357 225.377 98.8711 336.598c25.0439 76.8721 52.4141 153.251 84.7168 227.402c29.7207 68.2236 66.3359 135.624 121.367 186.896c128.247 119.484 175.329 -202.015 184.421 -271.337
c20.9043 -159.372 17.3613 -320.938 38.8184 -480.374c10.6787 -79.3555 28.2959 -157.465 53.5762 -233.44c6.57422 -19.7617 14.5918 -38.8574 20.7666 -58.7324c4.55371 -14.666 10.1816 -33.7422 22.3984 -43.9082z" />
    <glyph glyph-name="O" unicode="O" horiz-adv-x="1061" 
d="M766.138 920.522c142.799 -67.46 215.216 -227.503 237.097 -376.457c23.8027 -161.974 -6.38184 -329.378 -81.2578 -474.651c-78.7891 -152.867 -224.875 -301.304 -410.819 -283.331c-164.837 15.9326 -251.402 182.554 -261.466 331.616
c-1.90723 28.3018 -2.6123 58.4512 -0.719727 88.6357c-59.0381 7.6084 -114.655 32.8838 -151.182 82.3613c-43.7803 59.2939 -53.8975 136.59 -44.6523 208.145c19.5146 151.034 128.118 280.365 251.481 362.215c132.238 87.7383 311.692 132.248 461.519 61.4668z
M870.666 229.175c36.8418 131.085 40.0166 272.623 5.77637 404.729c-32.5742 125.685 -110.279 244.041 -243.863 273.979c-143.149 32.0762 -288.585 -42.6816 -390.221 -139.817c-93.8438 -89.6943 -165.453 -217.345 -147.382 -351.012
c8.94434 -66.1387 42.9131 -129.178 105.07 -158.652c16.7949 -7.96387 34.4375 -13.3008 52.4893 -16.5732c5.45996 39.2666 16.3213 77.3652 35.8857 110.166c34.2002 57.3379 104.548 101.38 172.811 82.584c43.3369 -11.9355 73.9443 -46.333 97.0273 -85.6094
c20.9541 20.3086 40.0156 42.8301 56.2588 67.0312c15.834 23.5859 23.0781 42.6719 22.7139 70.752c-0.359375 27.917 30.7607 47.6436 56.3867 46.0176c28.9863 -1.83789 36.6885 -28.2373 19.0508 -49.4766c-12.1865 -14.6758 -26.1572 -27.9219 -36.5996 -43.874
c-9.64941 -14.7441 -19.9541 -29.1836 -30.416 -43.3662c-20.5156 -27.8135 -44.5889 -53.8682 -71.3525 -77.2764c8.20508 -16.9824 15.3213 -34.043 21.7227 -49.9014c29.627 -73.3877 45.0957 -151.768 78.3545 -223.751
c13.3594 -28.9131 -47.7285 -57.5791 -59.3096 -28.9277c-12.2266 30.248 -21.2842 61.3633 -29.1045 93.0059c-14.917 60.3584 -22.4717 123.935 -46.9834 181.43c-71.1855 -51.7637 -156.494 -85.1465 -243.109 -86.792
c-0.0488281 -1.53711 -0.0927734 -3.06934 -0.131836 -4.58691c-1.80859 -72.2402 11.6201 -145.515 48.8662 -208.115c31.2139 -52.4639 84.2539 -96.7959 143.016 -114.685c58.3721 -17.7705 122.215 -4.2627 172.466 28.5039
c108.529 70.7666 176.397 202.591 210.578 324.219zM297.889 237.839c32.9736 0.00976562 66.1826 5.80957 97.2588 15.1777c46.501 14.0156 90.9121 36.9805 129.543 66.8242c-31.3623 55.7607 -86.5312 109.742 -152.685 70.6533
c-51.9072 -30.667 -68.7559 -94.0068 -74.1172 -152.655z" />
    <glyph glyph-name="O" unicode="&#xd6;" horiz-adv-x="1061" 
d="M766.138 920.522c142.799 -67.46 215.216 -227.503 237.097 -376.457c23.8027 -161.974 -6.38184 -329.378 -81.2578 -474.651c-78.7891 -152.867 -224.875 -301.304 -410.819 -283.331c-164.837 15.9326 -251.402 182.554 -261.466 331.616
c-1.90723 28.3018 -2.6123 58.4512 -0.719727 88.6357c-59.0381 7.6084 -114.655 32.8838 -151.182 82.3613c-43.7803 59.2939 -53.8975 136.59 -44.6523 208.145c19.5146 151.034 128.118 280.365 251.481 362.215c132.238 87.7383 311.692 132.248 461.519 61.4668z
M870.666 229.175c36.8418 131.085 40.0166 272.623 5.77637 404.729c-32.5742 125.685 -110.279 244.041 -243.863 273.979c-143.149 32.0762 -288.585 -42.6816 -390.221 -139.817c-93.8438 -89.6943 -165.453 -217.345 -147.382 -351.012
c8.94434 -66.1387 42.9131 -129.178 105.07 -158.652c16.7949 -7.96387 34.4375 -13.3008 52.4893 -16.5732c5.45996 39.2666 16.3213 77.3652 35.8857 110.166c34.2002 57.3379 104.548 101.38 172.811 82.584c43.3369 -11.9355 73.9443 -46.333 97.0273 -85.6094
c20.9541 20.3086 40.0156 42.8301 56.2588 67.0312c15.834 23.5859 23.0781 42.6719 22.7139 70.752c-0.359375 27.917 30.7607 47.6436 56.3867 46.0176c28.9863 -1.83789 36.6885 -28.2373 19.0508 -49.4766c-12.1865 -14.6758 -26.1572 -27.9219 -36.5996 -43.874
c-9.64941 -14.7441 -19.9541 -29.1836 -30.416 -43.3662c-20.5156 -27.8135 -44.5889 -53.8682 -71.3525 -77.2764c8.20508 -16.9824 15.3213 -34.043 21.7227 -49.9014c29.627 -73.3877 45.0957 -151.768 78.3545 -223.751
c13.3594 -28.9131 -47.7285 -57.5791 -59.3096 -28.9277c-12.2266 30.248 -21.2842 61.3633 -29.1045 93.0059c-14.917 60.3584 -22.4717 123.935 -46.9834 181.43c-71.1855 -51.7637 -156.494 -85.1465 -243.109 -86.792
c-0.0488281 -1.53711 -0.0927734 -3.06934 -0.131836 -4.58691c-1.80859 -72.2402 11.6201 -145.515 48.8662 -208.115c31.2139 -52.4639 84.2539 -96.7959 143.016 -114.685c58.3721 -17.7705 122.215 -4.2627 172.466 28.5039
c108.529 70.7666 176.397 202.591 210.578 324.219zM297.889 237.839c32.9736 0.00976562 66.1826 5.80957 97.2588 15.1777c46.501 14.0156 90.9121 36.9805 129.543 66.8242c-31.3623 55.7607 -86.5312 109.742 -152.685 70.6533
c-51.9072 -30.667 -68.7559 -94.0068 -74.1172 -152.655z" />
    <glyph glyph-name="O" unicode="&#xd5;" horiz-adv-x="1061" 
d="M766.138 920.522c142.799 -67.46 215.216 -227.503 237.097 -376.457c23.8027 -161.974 -6.38184 -329.378 -81.2578 -474.651c-78.7891 -152.867 -224.875 -301.304 -410.819 -283.331c-164.837 15.9326 -251.402 182.554 -261.466 331.616
c-1.90723 28.3018 -2.6123 58.4512 -0.719727 88.6357c-59.0381 7.6084 -114.655 32.8838 -151.182 82.3613c-43.7803 59.2939 -53.8975 136.59 -44.6523 208.145c19.5146 151.034 128.118 280.365 251.481 362.215c132.238 87.7383 311.692 132.248 461.519 61.4668z
M870.666 229.175c36.8418 131.085 40.0166 272.623 5.77637 404.729c-32.5742 125.685 -110.279 244.041 -243.863 273.979c-143.149 32.0762 -288.585 -42.6816 -390.221 -139.817c-93.8438 -89.6943 -165.453 -217.345 -147.382 -351.012
c8.94434 -66.1387 42.9131 -129.178 105.07 -158.652c16.7949 -7.96387 34.4375 -13.3008 52.4893 -16.5732c5.45996 39.2666 16.3213 77.3652 35.8857 110.166c34.2002 57.3379 104.548 101.38 172.811 82.584c43.3369 -11.9355 73.9443 -46.333 97.0273 -85.6094
c20.9541 20.3086 40.0156 42.8301 56.2588 67.0312c15.834 23.5859 23.0781 42.6719 22.7139 70.752c-0.359375 27.917 30.7607 47.6436 56.3867 46.0176c28.9863 -1.83789 36.6885 -28.2373 19.0508 -49.4766c-12.1865 -14.6758 -26.1572 -27.9219 -36.5996 -43.874
c-9.64941 -14.7441 -19.9541 -29.1836 -30.416 -43.3662c-20.5156 -27.8135 -44.5889 -53.8682 -71.3525 -77.2764c8.20508 -16.9824 15.3213 -34.043 21.7227 -49.9014c29.627 -73.3877 45.0957 -151.768 78.3545 -223.751
c13.3594 -28.9131 -47.7285 -57.5791 -59.3096 -28.9277c-12.2266 30.248 -21.2842 61.3633 -29.1045 93.0059c-14.917 60.3584 -22.4717 123.935 -46.9834 181.43c-71.1855 -51.7637 -156.494 -85.1465 -243.109 -86.792
c-0.0488281 -1.53711 -0.0927734 -3.06934 -0.131836 -4.58691c-1.80859 -72.2402 11.6201 -145.515 48.8662 -208.115c31.2139 -52.4639 84.2539 -96.7959 143.016 -114.685c58.3721 -17.7705 122.215 -4.2627 172.466 28.5039
c108.529 70.7666 176.397 202.591 210.578 324.219zM297.889 237.839c32.9736 0.00976562 66.1826 5.80957 97.2588 15.1777c46.501 14.0156 90.9121 36.9805 129.543 66.8242c-31.3623 55.7607 -86.5312 109.742 -152.685 70.6533
c-51.9072 -30.667 -68.7559 -94.0068 -74.1172 -152.655z" />
    <glyph glyph-name="O" unicode="&#xd4;" horiz-adv-x="1061" 
d="M766.138 920.522c142.799 -67.46 215.216 -227.503 237.097 -376.457c23.8027 -161.974 -6.38184 -329.378 -81.2578 -474.651c-78.7891 -152.867 -224.875 -301.304 -410.819 -283.331c-164.837 15.9326 -251.402 182.554 -261.466 331.616
c-1.90723 28.3018 -2.6123 58.4512 -0.719727 88.6357c-59.0381 7.6084 -114.655 32.8838 -151.182 82.3613c-43.7803 59.2939 -53.8975 136.59 -44.6523 208.145c19.5146 151.034 128.118 280.365 251.481 362.215c132.238 87.7383 311.692 132.248 461.519 61.4668z
M870.666 229.175c36.8418 131.085 40.0166 272.623 5.77637 404.729c-32.5742 125.685 -110.279 244.041 -243.863 273.979c-143.149 32.0762 -288.585 -42.6816 -390.221 -139.817c-93.8438 -89.6943 -165.453 -217.345 -147.382 -351.012
c8.94434 -66.1387 42.9131 -129.178 105.07 -158.652c16.7949 -7.96387 34.4375 -13.3008 52.4893 -16.5732c5.45996 39.2666 16.3213 77.3652 35.8857 110.166c34.2002 57.3379 104.548 101.38 172.811 82.584c43.3369 -11.9355 73.9443 -46.333 97.0273 -85.6094
c20.9541 20.3086 40.0156 42.8301 56.2588 67.0312c15.834 23.5859 23.0781 42.6719 22.7139 70.752c-0.359375 27.917 30.7607 47.6436 56.3867 46.0176c28.9863 -1.83789 36.6885 -28.2373 19.0508 -49.4766c-12.1865 -14.6758 -26.1572 -27.9219 -36.5996 -43.874
c-9.64941 -14.7441 -19.9541 -29.1836 -30.416 -43.3662c-20.5156 -27.8135 -44.5889 -53.8682 -71.3525 -77.2764c8.20508 -16.9824 15.3213 -34.043 21.7227 -49.9014c29.627 -73.3877 45.0957 -151.768 78.3545 -223.751
c13.3594 -28.9131 -47.7285 -57.5791 -59.3096 -28.9277c-12.2266 30.248 -21.2842 61.3633 -29.1045 93.0059c-14.917 60.3584 -22.4717 123.935 -46.9834 181.43c-71.1855 -51.7637 -156.494 -85.1465 -243.109 -86.792
c-0.0488281 -1.53711 -0.0927734 -3.06934 -0.131836 -4.58691c-1.80859 -72.2402 11.6201 -145.515 48.8662 -208.115c31.2139 -52.4639 84.2539 -96.7959 143.016 -114.685c58.3721 -17.7705 122.215 -4.2627 172.466 28.5039
c108.529 70.7666 176.397 202.591 210.578 324.219zM297.889 237.839c32.9736 0.00976562 66.1826 5.80957 97.2588 15.1777c46.501 14.0156 90.9121 36.9805 129.543 66.8242c-31.3623 55.7607 -86.5312 109.742 -152.685 70.6533
c-51.9072 -30.667 -68.7559 -94.0068 -74.1172 -152.655z" />
    <glyph glyph-name="O" unicode="&#xd3;" horiz-adv-x="1061" 
d="M766.138 920.522c142.799 -67.46 215.216 -227.503 237.097 -376.457c23.8027 -161.974 -6.38184 -329.378 -81.2578 -474.651c-78.7891 -152.867 -224.875 -301.304 -410.819 -283.331c-164.837 15.9326 -251.402 182.554 -261.466 331.616
c-1.90723 28.3018 -2.6123 58.4512 -0.719727 88.6357c-59.0381 7.6084 -114.655 32.8838 -151.182 82.3613c-43.7803 59.2939 -53.8975 136.59 -44.6523 208.145c19.5146 151.034 128.118 280.365 251.481 362.215c132.238 87.7383 311.692 132.248 461.519 61.4668z
M870.666 229.175c36.8418 131.085 40.0166 272.623 5.77637 404.729c-32.5742 125.685 -110.279 244.041 -243.863 273.979c-143.149 32.0762 -288.585 -42.6816 -390.221 -139.817c-93.8438 -89.6943 -165.453 -217.345 -147.382 -351.012
c8.94434 -66.1387 42.9131 -129.178 105.07 -158.652c16.7949 -7.96387 34.4375 -13.3008 52.4893 -16.5732c5.45996 39.2666 16.3213 77.3652 35.8857 110.166c34.2002 57.3379 104.548 101.38 172.811 82.584c43.3369 -11.9355 73.9443 -46.333 97.0273 -85.6094
c20.9541 20.3086 40.0156 42.8301 56.2588 67.0312c15.834 23.5859 23.0781 42.6719 22.7139 70.752c-0.359375 27.917 30.7607 47.6436 56.3867 46.0176c28.9863 -1.83789 36.6885 -28.2373 19.0508 -49.4766c-12.1865 -14.6758 -26.1572 -27.9219 -36.5996 -43.874
c-9.64941 -14.7441 -19.9541 -29.1836 -30.416 -43.3662c-20.5156 -27.8135 -44.5889 -53.8682 -71.3525 -77.2764c8.20508 -16.9824 15.3213 -34.043 21.7227 -49.9014c29.627 -73.3877 45.0957 -151.768 78.3545 -223.751
c13.3594 -28.9131 -47.7285 -57.5791 -59.3096 -28.9277c-12.2266 30.248 -21.2842 61.3633 -29.1045 93.0059c-14.917 60.3584 -22.4717 123.935 -46.9834 181.43c-71.1855 -51.7637 -156.494 -85.1465 -243.109 -86.792
c-0.0488281 -1.53711 -0.0927734 -3.06934 -0.131836 -4.58691c-1.80859 -72.2402 11.6201 -145.515 48.8662 -208.115c31.2139 -52.4639 84.2539 -96.7959 143.016 -114.685c58.3721 -17.7705 122.215 -4.2627 172.466 28.5039
c108.529 70.7666 176.397 202.591 210.578 324.219zM297.889 237.839c32.9736 0.00976562 66.1826 5.80957 97.2588 15.1777c46.501 14.0156 90.9121 36.9805 129.543 66.8242c-31.3623 55.7607 -86.5312 109.742 -152.685 70.6533
c-51.9072 -30.667 -68.7559 -94.0068 -74.1172 -152.655z" />
    <glyph glyph-name="P" unicode="P" horiz-adv-x="1341" 
d="M113.587 741.463c84.417 134.451 258.794 232.83 418.54 187.325c196.145 -55.874 240.098 -279.941 255.395 -455.468c9.50586 -109.111 8.7959 -218.302 3.45898 -327.62c-0.729492 -14.9072 -1.44922 -29.8691 -2.19824 -44.8604
c8.02246 37.3887 15.8828 74.8125 23.4082 112.305c24.1475 120.293 43.1104 241.941 74.8027 360.583c12.4238 46.501 26.9121 92.8584 48.2451 136.136c18.5791 37.6846 43.7266 80.6621 80.8496 102.749c37.1475 22.1025 78.2617 14.9814 112.358 -9.25488
c39.3799 -27.9912 72.0479 -59.2197 95.8848 -101.542c49.5166 -87.9062 67.5527 -196.885 66.6406 -296.806c-0.960938 -105.179 -19.0566 -215.601 -68.4404 -309.543c-46.126 -87.748 -133.869 -166.01 -235.924 -175.954
c-44.9336 -4.38086 -89.1729 12.8379 -114.646 51.0049c-25.0586 37.5518 -24.3691 92.2969 -16.5088 134.89c17.4355 94.4648 75.9756 182.454 136.97 254.467c53.1729 62.7881 113.551 122.388 189.664 155.046c-0.276367 2.76465 -0.522461 5.5293 -0.823242 8.28418
c-4.71582 43.0957 -10.9502 86.4375 -21.9746 128.414c-5.25293 20.0127 -12.502 39.0098 -20.6582 57.9775c-7.97852 18.5635 -14.4639 40.5869 -28.5186 55.7012c-14.2861 15.3652 -39.3301 30.4248 -61.0039 27.6943
c-20.126 -2.53809 -34.1562 -20.5547 -45.5449 -35.8613c-26.5674 -35.708 -44.7119 -77.3887 -58.7715 -119.37c-28.6318 -85.4912 -45.8057 -174.831 -62.7725 -263.215c-17.7949 -92.6963 -35.6787 -185.338 -55.6816 -277.591
c-17.0703 -78.7295 -30.4941 -161.717 -58.9727 -237.717c-2.3457 -15.0303 -4.9375 -29.9922 -7.86426 -44.8652c-4.96777 -25.2266 -33.1904 -41.9033 -56.4307 -45.8506c-18.8545 -3.20801 -50.123 3.32617 -50.335 28.2969
c-0.901367 105.908 15.3613 212.304 22.2158 317.95c6.9043 106.494 9.95996 213.688 6.14551 320.375c-5.36621 150.142 -11.9404 354.072 -153.694 445.871c-75.6992 49.0186 -170.879 22.5547 -244.606 -17.6533c-56.8057 -30.9824 -104.449 -77.123 -137.852 -132.479
c-48.0879 -79.7061 -83.082 -193.75 -27.6562 -278.517c103.104 -157.687 327.915 36.374 346.257 166.228c2.2666 16.0508 36.585 22.4424 33.9141 2.0498c-20.165 -153.853 -283.035 -366.496 -409.483 -198.091c-70.6777 94.1299 -31.3027 228.261 25.6113 318.911z
M1167.61 260.731c15.5918 72.6387 21.374 147.708 17.0029 221.979c-75.1426 -34.4961 -134.393 -103.474 -183.353 -167.548c-28.7305 -37.6006 -54.2275 -78.3105 -73.0576 -121.815c-18.8496 -43.5635 -35.2305 -98.3828 -18.4209 -144.928
c10.6836 -29.583 45.4512 -63.9268 79.1689 -60.4326c31.9531 3.30664 59.5254 28.4004 80.75 50.5762c57.3076 59.8652 80.9521 143.173 97.9092 222.169z" />
    <glyph glyph-name="Q" unicode="Q" horiz-adv-x="1104" 
d="M766.133 920.522c142.799 -67.46 215.215 -227.504 237.096 -376.453c23.8027 -161.974 -6.38184 -329.378 -81.2578 -474.651c-69.4209 -134.688 -191.104 -265.866 -346.237 -282.888c33.4072 -9.05762 66.1191 -19.4707 97.1162 -28.0254
c110.841 -30.5977 253.882 -56.1982 345.297 34.1719c14.2324 14.0645 48.8711 5.30762 29.7598 -13.5859c-84.6191 -83.6484 -208.859 -92.2871 -320.03 -69.6572c-69.5049 14.1484 -136.373 38.4287 -205.414 54.415c-60.9893 14.1191 -127.227 22.0684 -183.696 -10.6094
c-20.9346 -12.1084 -32.0967 12.6006 -11.9854 24.5703c33.1807 19.752 68.5586 28.2871 104.819 29.7852c-113.271 52.4883 -173.614 187.22 -181.908 310.104c-1.90723 28.3018 -2.6123 58.4512 -0.719727 88.6357c-59.0381 7.6084 -114.655 32.8838 -151.182 82.3613
c-43.7803 59.2939 -53.8975 136.59 -44.6523 208.145c19.5098 151.034 128.113 280.365 251.477 362.215c132.238 87.7383 311.692 132.248 461.519 61.4668zM870.66 229.174c36.8369 131.085 40.0166 272.622 5.77637 404.728
c-32.5742 125.685 -110.279 244.041 -243.863 273.979c-143.149 32.0762 -288.585 -42.6816 -390.221 -139.817c-93.8438 -89.6943 -165.453 -217.345 -147.382 -351.012c8.93945 -66.1387 42.9131 -129.178 105.07 -158.652
c16.7949 -7.96387 34.4375 -13.3008 52.4893 -16.5732c5.45996 39.2666 16.3213 77.3652 35.8857 110.166c34.2002 57.3379 104.548 101.38 172.811 82.584c43.3369 -11.9355 73.9443 -46.333 97.0273 -85.6094c20.9541 20.3086 40.0156 42.8301 56.2588 67.0312
c15.834 23.5859 23.0781 42.6719 22.7139 70.752c-0.359375 27.917 30.7607 47.6436 56.3867 46.0176c28.9863 -1.83789 36.6885 -28.2373 19.0508 -49.4766c-12.1865 -14.6758 -26.1572 -27.9219 -36.5996 -43.874c-9.64941 -14.7441 -19.9541 -29.1836 -30.416 -43.3662
c-20.5156 -27.8135 -44.5889 -53.8682 -71.3525 -77.2764c8.20508 -16.9814 15.3213 -34.042 21.7227 -49.9004c29.6318 -73.3877 45.1006 -151.768 78.3594 -223.751c13.3545 -28.9131 -47.7334 -57.5791 -59.3145 -28.9277
c-12.2266 30.248 -21.2842 61.3633 -29.1045 93.0059c-14.9219 60.3584 -22.4766 123.935 -46.9834 181.43c-71.1855 -51.7637 -156.494 -85.1465 -243.109 -86.792c-0.0439453 -1.53711 -0.0927734 -3.06934 -0.131836 -4.58691
c-1.80859 -72.2402 11.6201 -145.515 48.8662 -208.115c31.2139 -52.4639 84.2539 -96.7959 143.016 -114.685c58.3721 -17.7705 122.215 -4.2627 172.466 28.5039c108.529 70.7666 176.397 202.591 210.578 324.219zM297.883 237.837
c32.9736 0.00976562 66.1826 5.80957 97.2588 15.1777c46.501 14.0156 90.9121 36.9805 129.543 66.8242c-31.3574 55.7607 -86.5312 109.742 -152.685 70.6533c-51.9072 -30.667 -68.7607 -94.0068 -74.1172 -152.655z" />
    <glyph glyph-name="R" unicode="R" horiz-adv-x="1476" 
d="M815.375 305.284c13.4883 57.0859 29.2539 113.618 48.5127 169.049c54.7803 157.657 138.798 332.069 286.259 422.286c65.001 39.7637 152.606 68.3018 228.315 44.9971c67.2871 -20.7129 98.6641 -92.2773 97.4912 -158.273
c-1.44922 -81.3613 -47.2012 -160.688 -93.3369 -224.998c-47.6338 -66.4053 -106.878 -125.374 -171.223 -175.576c-90.0547 -70.2539 -196.219 -124.989 -308.05 -154.331c9.78223 -3.86816 19.2441 -8.51562 28.3662 -14.0889
c39.0645 -23.8662 68.3711 -56.3916 96.8301 -91.7354c46.3232 -57.5342 85.0625 -120.672 135.525 -174.949c35.6738 -38.374 76.9463 -72.4854 123.314 -97.0371c65.8584 60.6641 179.276 143.889 266.827 71.8506c32.042 -26.3604 33.0869 -70.0078 12.0537 -103.76
c-23.8809 -38.3203 -70.6133 -57.3623 -113.122 -65.5088c-97.4814 -18.6816 -209.131 3.99219 -291.597 58.9844c-76.458 50.9854 -129.414 127.912 -181.543 201.971c-26.749 38 -52.1973 77.3457 -82.4355 112.694c-15.1387 17.6963 -31.583 34.3232 -51.6201 46.4658
c-4.60742 2.79395 -11.1074 6.84473 -18.2285 10.8311c-4.27734 -22.9551 -8.32812 -45.9492 -12.1523 -68.9775c-13.2812 -79.9814 -21.043 -161.757 -45.6826 -239.294c-2.95215 -20.6387 -6.37695 -41.1592 -10.3838 -61.5166
c-4.96777 -25.2266 -33.1904 -41.9033 -56.4307 -45.8506c-18.8545 -3.20801 -50.123 3.32617 -50.335 28.2969c-0.896484 105.908 15.3613 212.304 22.2158 317.95c6.90918 106.494 9.95996 213.688 6.15039 320.375c-5.36621 150.142 -11.9404 354.072 -153.694 445.871
c-75.6992 49.0186 -170.879 22.5547 -244.606 -17.6533c-56.8057 -30.9824 -104.45 -77.123 -137.853 -132.479c-48.0879 -79.7061 -83.082 -193.75 -27.6562 -278.517c103.104 -157.687 327.915 36.374 346.257 166.228c2.2666 16.0508 36.585 22.4424 33.9141 2.0498
c-20.165 -153.853 -283.035 -366.496 -409.483 -198.091c-70.6777 94.1299 -31.3027 228.261 25.6113 318.911c84.4219 134.456 258.795 232.829 418.536 187.324c196.149 -55.874 240.103 -279.941 255.399 -455.468c4.95801 -56.8887 7.08691 -113.803 7.28418 -170.741
c6.88965 0.808594 13.7393 1.73047 20.5693 2.71094zM1411.65 -104.649c-35.5215 -11.0342 -65.4082 -35.5762 -93.7246 -59.127c10.043 -4.17871 20.2734 -7.94824 30.7451 -11.1562c37.3203 -11.4326 79.1348 -18.2041 118.026 -11.96
c28.6465 4.59277 74.9209 27.0156 49.0732 63.0098c-21.8809 30.4746 -72.4082 29.0898 -104.12 19.2334zM1071.06 788.006c-105.701 -121.934 -165.999 -282.567 -206.424 -436.637c-3.44434 -13.1279 -6.69727 -26.3008 -9.87598 -39.4932
c121.372 23.7139 233.282 75.4678 332.562 155.07c54.0508 43.3369 100.896 94.2627 143.42 148.831c43.4453 55.751 86.6143 125.936 86.457 199.072c-0.0693359 32.1846 -7.74707 62.9893 -35.2061 82.3662c-33.624 23.7334 -80.1348 21.6484 -118.633 13.4727
c-76.7148 -16.292 -141.695 -64.3057 -192.301 -122.683z" />
    <glyph glyph-name="S" unicode="S" horiz-adv-x="1265" 
d="M821.077 393.265c140.473 5.53906 289.751 -30.3838 332.63 -181.161c49.4775 -174.033 -79.8535 -358.391 -218.932 -451.353c-71.417 -47.7373 -153.902 -80.5283 -240.448 -84.1162c-78.0156 -3.23242 -165.222 14.8682 -223.097 70.8457
c-64.4189 62.3047 -60.6836 154.784 -37.4287 235.175c24.6992 85.3779 72.5156 161.865 129.395 229.403c30.2979 35.9746 63.2764 69.835 98.3984 101.275c-90.7988 -20.5645 -179.784 -47.999 -271.563 -64.3652c-78.3506 -13.9756 -185.954 -6.67676 -203.592 88.8926
c-16.4941 89.3848 47.4424 183.283 96.8164 251.531c5.12988 7.0918 10.4277 14.0449 15.7158 21.0029c-93.918 34.5205 -180.153 90.0791 -241.985 165.739c-29.8535 36.5312 43.9727 84.6777 71.5938 54.0947c27.5576 -30.5146 57.6133 -59.7969 89.7588 -85.4717
c38.8867 -31.0615 82.1152 -56.4111 127.98 -76.0195c40.2422 46.4961 83.8301 90.0352 129.705 131.12c132.913 119.041 301.392 235.505 485.867 242.493c72.5898 2.75 172.885 -23.9307 182.992 -110.033c9.03809 -76.9658 -67.75 -152.434 -121.431 -196.973
c-136.585 -113.329 -331.443 -170.947 -507.379 -166.655c-40.5527 0.990234 -81.9531 5.9082 -122.959 14.6016c-39.8477 -52.4092 -75.7139 -109.767 -93.1641 -172.249c-8.48145 -30.376 -9.74316 -74.5703 23.1562 -92.1338
c30.1396 -16.0947 77.7686 -5.78027 109.353 -0.157227c94.3711 16.7998 185.993 46.0723 280.385 62.6797c13.8477 2.43457 28.1885 4.58789 42.8193 6.41113c36.2852 25.1973 74.3047 48.0781 113.63 68.2041c36.5215 18.6924 75.4824 39.1387 117.651 31.6436
c26.0049 -4.62207 1.37012 -35.8906 -17.7852 -32.5889c-42.2773 7.28809 -94.4111 -29.9971 -129.528 -50.6113c-6.22949 -3.65625 -12.4043 -7.41602 -18.5547 -11.2256zM625.454 825.079c-68.9971 -55.8242 -131.268 -118.935 -188.23 -186.927
c91.3408 -22.96 188.201 -25.4092 279.359 -6.86523c87.625 17.8242 173.846 50.3242 247.712 101.305c34.7822 24.0039 66.5732 51.9062 93.3867 84.6484c28.1045 34.3184 60.373 81.7158 38.4727 127.103c-42.957 89.0439 -176.107 50.8662 -245.622 21.7021
c-82.6729 -34.6836 -155.667 -84.8066 -225.078 -140.966zM783.935 -228.498c145.17 46.5205 284.127 199.895 284.127 357.315c-0.00488281 86.2793 -44.2539 158.332 -126.089 188.935c-67.6719 25.3057 -143.307 21.1074 -214.803 8.82715
c-35.0283 -28.3906 -67.9326 -59.3975 -98.0527 -92.6768c-60.127 -66.4443 -117.277 -144.268 -139.98 -232.287c-21.0283 -81.5195 -10.5713 -176.271 70.6523 -220.169c69.041 -37.3145 151.314 -33.2832 224.146 -9.94434z" />
    <glyph glyph-name="T" unicode="T" horiz-adv-x="972" 
d="M1068.5 991.979c86.8711 11.1221 173.91 22.2744 261.166 29.9814c39.8184 3.51855 79.6514 5.94824 119.612 3.54785c25.5469 -1.53223 69.4658 -1.7832 84.3486 -28.1826c34.1221 -60.5361 -115.28 -89.3799 -147.672 -96.4365
c-79.085 -17.2334 -160.27 -21.2988 -240.995 -19.9531c-94.2334 1.57227 -188.033 9.625 -281.784 18.5303c-9.69336 -5.2627 -18.623 -11.8174 -26.2217 -20.3975c-19.4463 -21.9541 -29.416 -50.3789 -36.0889 -78.4834
c-17.5879 -74.0977 -16.7402 -152.67 -16.3457 -228.364c0.418945 -81.1396 6.6377 -162.023 10.8906 -243.006c6.67285 -127.049 14.7207 -256.34 42.8896 -380.97c3.06055 -0.763672 5.91895 -2.15332 8.39746 -4.33594
c30.4844 -26.8525 60.5654 -54.2227 89.7637 -82.4746c58.7812 -56.8643 122.249 -112.24 172.998 -176.679c19.8105 -25.1523 38.6211 -58.1992 31.5049 -91.498c-6.2041 -29.0361 -26.6357 -48.8125 -50.7832 -64.1924c-67.4346 -42.957 -146.298 -11.6494 -199.89 39.001
c-55.5537 52.498 -96.2939 118.884 -123.856 189.793c-61.541 158.327 -76.0244 330.33 -83.6973 498.523c-7.75195 170.012 -20.7617 351.644 25.4336 517.521c13.7939 49.5166 36.1865 97.7373 72.2402 133.49c-52.1924 4.97266 -104.404 9.69824 -156.695 13.2119
c-88.793 5.96289 -178.02 8.08203 -266.852 1.63086c-73.1318 -5.30762 -162.768 -10.8027 -217.069 -66.9082c-51.4834 -53.1982 -62.0986 -143.706 -12.2471 -201.442c23.9844 -27.7793 98.7666 -85.4668 132.903 -42.958
c25.2412 31.4307 90.335 15.8438 58.5693 -26.7393c-18.1396 -24.3096 -46.1846 -41.1436 -75.8418 -47.0273c-57.3965 -11.3887 -119.814 9.92969 -153.434 58.7666c-35.0088 50.8672 -49.3838 123.679 -33.0029 183.387c39.8037 145.091 193.607 170.11 322.608 178.128
c147.678 9.18066 295.405 -4.42578 442.403 -18.6328c1.81836 1.03516 3.57812 2.12891 5.45117 3.10938c34.3926 18.0264 72.7227 24.5908 110.6 30.835c43.4502 7.16504 87.0137 13.6309 130.695 19.2246zM983.215 -243.997
c-38.6406 38.5713 -79.5879 74.3516 -122.309 108.044c0.921875 -2.93262 1.75977 -5.87988 2.70605 -8.80176c21.417 -66.0498 50.6797 -129.986 89.5566 -187.614c18.1348 -26.8926 40.4834 -53.7109 65.6455 -74.3398c14.8535 -12.1768 46.876 -29.7998 65.2129 -16.0215
c33.4023 25.1035 -5.03613 75.1328 -23.2998 96.1309c-24.7432 28.4492 -50.8271 55.9668 -77.5127 82.6025zM1413.23 992.642c-81.3613 1.16797 -163.98 -11.2871 -244.4 -22.3799c-73.3926 -10.127 -146.445 -26.2861 -218.557 -43.8398
c135.229 -12.6846 273.45 -21.9883 406.822 1.49902c37.3398 6.5791 74.5312 16.0557 109.993 29.5537c6.97852 2.65625 31.4365 8.69336 25.8379 21.5996c-2.36523 5.44531 -15.8975 7.5498 -20.959 8.61914c-19.002 4.02637 -39.4043 4.67188 -58.7373 4.94824z" />
    <glyph glyph-name="U" unicode="U" horiz-adv-x="1600" 
d="M1721.89 -431.237c41.9863 34.0869 9.63672 94.0781 -32.0146 107.764c-10.3291 3.39551 -7.20996 15.918 -2.21289 22.0586c6.89453 8.47168 18.707 10.9648 28.7158 7.93945c53.1533 -16.0801 83.6182 -73.0869 66.0303 -126.093
c-18.9727 -57.1602 -80.3115 -86.1172 -137.339 -84.4717c-117.065 3.38574 -189.719 133.594 -228.083 229.257c-43.2676 107.889 -60.6143 224.382 -67.4248 339.851c-0.546875 9.3584 -1.02539 18.7266 -1.44922 28.0996
c-18.7607 -31.835 -38.9463 -62.8125 -60.5703 -92.7402c-40.2031 -55.6426 -85.3584 -108.899 -147.412 -140.902c-58.3184 -30.0752 -128.079 -41.8086 -191.301 -21.8848c-63.6504 20.0615 -115.01 68.7109 -141.474 129.558
c-28.7646 66.1387 -30.416 145.84 -25.6016 216.655c10.2754 151.112 54.5439 298.622 57.4121 450.252c1.15332 60.9648 3.70605 137.305 -40.8877 185.205c-52.8975 56.8203 -128.809 48.7236 -196.943 27.3311c-120.688 -37.8916 -232.44 -110.427 -320.997 -200.121
c-43.1201 -43.6768 -81.6328 -91.9121 -113.971 -144.1c-35.8516 -57.8594 -70.6582 -124.121 -71.25 -193.848c-0.522461 -62.4082 39.0498 -120.401 95.1699 -147.273c66.3906 -31.791 147.427 -16.7705 209.697 17.6172c104.533 57.7266 184.963 154.271 213.944 270.721
c9.49609 38.167 93.3564 48.8066 79.6865 4.81934c-9.3584 -30.1104 -21.1162 -59.6143 -35.5898 -87.6445c-60.9102 -117.991 -164.463 -205.429 -291.147 -244.542c-117.124 -36.1621 -284.021 -10.1426 -312.446 130.77
c-25.5811 126.832 64.5869 259.894 141.336 352.658c81.4014 98.3877 184.846 179.158 300.161 234.031c62.3594 29.6719 130.884 56.5342 200.64 58.9346c61.9893 2.13379 134.194 -13.04 178.266 -59.4814c48.4912 -51.0986 64.7295 -122.595 70.5791 -190.532
c6.5498 -76.0342 -1.33984 -153.542 -10.4766 -229.099c-17.3174 -143.263 -49 -301.423 14.2461 -438.131c24.1074 -52.1035 70.8594 -103.113 134.125 -94.8047c70.3076 9.23535 126.61 73.3438 166.276 126.601c36.4082 48.8857 68.5879 100.788 96.4062 154.922
c-1.16309 99.5508 4.02148 199.595 13.3105 298.278c6.26855 66.5977 12.9902 133.309 22.1758 199.556c8.62402 62.1914 18.6328 122.54 53.0059 176.146c8.44629 13.168 44.5537 32.6826 53.498 9.05762c12.6504 -33.4072 23.7881 -67.9473 27.085 -103.681
c3.52832 -38.2461 1.82324 -77.2607 -0.645508 -115.521c-4.7998 -74.4229 -16.3213 -148.309 -34.8848 -220.554c-3.52344 -13.7197 -7.3623 -27.3604 -11.3643 -40.957c-4.61719 -172.106 -3.12891 -346.612 41.0459 -513.204
c12.0986 -45.6289 27.3652 -90.3457 47.3633 -133.15c18.9873 -40.6416 38.2998 -85.4814 68.8242 -118.947c19.3223 -21.1855 66.6562 -60.6094 96.4854 -36.3984z" />
    <glyph glyph-name="U" unicode="&#xdc;" horiz-adv-x="1600" 
d="M1721.89 -431.237c41.9863 34.0869 9.63672 94.0781 -32.0146 107.764c-10.3291 3.39551 -7.20996 15.918 -2.21289 22.0586c6.89453 8.47168 18.707 10.9648 28.7158 7.93945c53.1533 -16.0801 83.6182 -73.0869 66.0303 -126.093
c-18.9727 -57.1602 -80.3115 -86.1172 -137.339 -84.4717c-117.065 3.38574 -189.719 133.594 -228.083 229.257c-43.2676 107.889 -60.6143 224.382 -67.4248 339.851c-0.546875 9.3584 -1.02539 18.7266 -1.44922 28.0996
c-18.7607 -31.835 -38.9463 -62.8125 -60.5703 -92.7402c-40.2031 -55.6426 -85.3584 -108.899 -147.412 -140.902c-58.3184 -30.0752 -128.079 -41.8086 -191.301 -21.8848c-63.6504 20.0615 -115.01 68.7109 -141.474 129.558
c-28.7646 66.1387 -30.416 145.84 -25.6016 216.655c10.2754 151.112 54.5439 298.622 57.4121 450.252c1.15332 60.9648 3.70605 137.305 -40.8877 185.205c-52.8975 56.8203 -128.809 48.7236 -196.943 27.3311c-120.688 -37.8916 -232.44 -110.427 -320.997 -200.121
c-43.1201 -43.6768 -81.6328 -91.9121 -113.971 -144.1c-35.8516 -57.8594 -70.6582 -124.121 -71.25 -193.848c-0.522461 -62.4082 39.0498 -120.401 95.1699 -147.273c66.3906 -31.791 147.427 -16.7705 209.697 17.6172c104.533 57.7266 184.963 154.271 213.944 270.721
c9.49609 38.167 93.3564 48.8066 79.6865 4.81934c-9.3584 -30.1104 -21.1162 -59.6143 -35.5898 -87.6445c-60.9102 -117.991 -164.463 -205.429 -291.147 -244.542c-117.124 -36.1621 -284.021 -10.1426 -312.446 130.77
c-25.5811 126.832 64.5869 259.894 141.336 352.658c81.4014 98.3877 184.846 179.158 300.161 234.031c62.3594 29.6719 130.884 56.5342 200.64 58.9346c61.9893 2.13379 134.194 -13.04 178.266 -59.4814c48.4912 -51.0986 64.7295 -122.595 70.5791 -190.532
c6.5498 -76.0342 -1.33984 -153.542 -10.4766 -229.099c-17.3174 -143.263 -49 -301.423 14.2461 -438.131c24.1074 -52.1035 70.8594 -103.113 134.125 -94.8047c70.3076 9.23535 126.61 73.3438 166.276 126.601c36.4082 48.8857 68.5879 100.788 96.4062 154.922
c-1.16309 99.5508 4.02148 199.595 13.3105 298.278c6.26855 66.5977 12.9902 133.309 22.1758 199.556c8.62402 62.1914 18.6328 122.54 53.0059 176.146c8.44629 13.168 44.5537 32.6826 53.498 9.05762c12.6504 -33.4072 23.7881 -67.9473 27.085 -103.681
c3.52832 -38.2461 1.82324 -77.2607 -0.645508 -115.521c-4.7998 -74.4229 -16.3213 -148.309 -34.8848 -220.554c-3.52344 -13.7197 -7.3623 -27.3604 -11.3643 -40.957c-4.61719 -172.106 -3.12891 -346.612 41.0459 -513.204
c12.0986 -45.6289 27.3652 -90.3457 47.3633 -133.15c18.9873 -40.6416 38.2998 -85.4814 68.8242 -118.947c19.3223 -21.1855 66.6562 -60.6094 96.4854 -36.3984z" />
    <glyph glyph-name="U" unicode="&#xdb;" horiz-adv-x="1600" 
d="M1721.89 -431.237c41.9863 34.0869 9.63672 94.0781 -32.0146 107.764c-10.3291 3.39551 -7.20996 15.918 -2.21289 22.0586c6.89453 8.47168 18.707 10.9648 28.7158 7.93945c53.1533 -16.0801 83.6182 -73.0869 66.0303 -126.093
c-18.9727 -57.1602 -80.3115 -86.1172 -137.339 -84.4717c-117.065 3.38574 -189.719 133.594 -228.083 229.257c-43.2676 107.889 -60.6143 224.382 -67.4248 339.851c-0.546875 9.3584 -1.02539 18.7266 -1.44922 28.0996
c-18.7607 -31.835 -38.9463 -62.8125 -60.5703 -92.7402c-40.2031 -55.6426 -85.3584 -108.899 -147.412 -140.902c-58.3184 -30.0752 -128.079 -41.8086 -191.301 -21.8848c-63.6504 20.0615 -115.01 68.7109 -141.474 129.558
c-28.7646 66.1387 -30.416 145.84 -25.6016 216.655c10.2754 151.112 54.5439 298.622 57.4121 450.252c1.15332 60.9648 3.70605 137.305 -40.8877 185.205c-52.8975 56.8203 -128.809 48.7236 -196.943 27.3311c-120.688 -37.8916 -232.44 -110.427 -320.997 -200.121
c-43.1201 -43.6768 -81.6328 -91.9121 -113.971 -144.1c-35.8516 -57.8594 -70.6582 -124.121 -71.25 -193.848c-0.522461 -62.4082 39.0498 -120.401 95.1699 -147.273c66.3906 -31.791 147.427 -16.7705 209.697 17.6172c104.533 57.7266 184.963 154.271 213.944 270.721
c9.49609 38.167 93.3564 48.8066 79.6865 4.81934c-9.3584 -30.1104 -21.1162 -59.6143 -35.5898 -87.6445c-60.9102 -117.991 -164.463 -205.429 -291.147 -244.542c-117.124 -36.1621 -284.021 -10.1426 -312.446 130.77
c-25.5811 126.832 64.5869 259.894 141.336 352.658c81.4014 98.3877 184.846 179.158 300.161 234.031c62.3594 29.6719 130.884 56.5342 200.64 58.9346c61.9893 2.13379 134.194 -13.04 178.266 -59.4814c48.4912 -51.0986 64.7295 -122.595 70.5791 -190.532
c6.5498 -76.0342 -1.33984 -153.542 -10.4766 -229.099c-17.3174 -143.263 -49 -301.423 14.2461 -438.131c24.1074 -52.1035 70.8594 -103.113 134.125 -94.8047c70.3076 9.23535 126.61 73.3438 166.276 126.601c36.4082 48.8857 68.5879 100.788 96.4062 154.922
c-1.16309 99.5508 4.02148 199.595 13.3105 298.278c6.26855 66.5977 12.9902 133.309 22.1758 199.556c8.62402 62.1914 18.6328 122.54 53.0059 176.146c8.44629 13.168 44.5537 32.6826 53.498 9.05762c12.6504 -33.4072 23.7881 -67.9473 27.085 -103.681
c3.52832 -38.2461 1.82324 -77.2607 -0.645508 -115.521c-4.7998 -74.4229 -16.3213 -148.309 -34.8848 -220.554c-3.52344 -13.7197 -7.3623 -27.3604 -11.3643 -40.957c-4.61719 -172.106 -3.12891 -346.612 41.0459 -513.204
c12.0986 -45.6289 27.3652 -90.3457 47.3633 -133.15c18.9873 -40.6416 38.2998 -85.4814 68.8242 -118.947c19.3223 -21.1855 66.6562 -60.6094 96.4854 -36.3984z" />
    <glyph glyph-name="U" unicode="&#xda;" horiz-adv-x="1600" 
d="M1721.89 -431.237c41.9863 34.0869 9.63672 94.0781 -32.0146 107.764c-10.3291 3.39551 -7.20996 15.918 -2.21289 22.0586c6.89453 8.47168 18.707 10.9648 28.7158 7.93945c53.1533 -16.0801 83.6182 -73.0869 66.0303 -126.093
c-18.9727 -57.1602 -80.3115 -86.1172 -137.339 -84.4717c-117.065 3.38574 -189.719 133.594 -228.083 229.257c-43.2676 107.889 -60.6143 224.382 -67.4248 339.851c-0.546875 9.3584 -1.02539 18.7266 -1.44922 28.0996
c-18.7607 -31.835 -38.9463 -62.8125 -60.5703 -92.7402c-40.2031 -55.6426 -85.3584 -108.899 -147.412 -140.902c-58.3184 -30.0752 -128.079 -41.8086 -191.301 -21.8848c-63.6504 20.0615 -115.01 68.7109 -141.474 129.558
c-28.7646 66.1387 -30.416 145.84 -25.6016 216.655c10.2754 151.112 54.5439 298.622 57.4121 450.252c1.15332 60.9648 3.70605 137.305 -40.8877 185.205c-52.8975 56.8203 -128.809 48.7236 -196.943 27.3311c-120.688 -37.8916 -232.44 -110.427 -320.997 -200.121
c-43.1201 -43.6768 -81.6328 -91.9121 -113.971 -144.1c-35.8516 -57.8594 -70.6582 -124.121 -71.25 -193.848c-0.522461 -62.4082 39.0498 -120.401 95.1699 -147.273c66.3906 -31.791 147.427 -16.7705 209.697 17.6172c104.533 57.7266 184.963 154.271 213.944 270.721
c9.49609 38.167 93.3564 48.8066 79.6865 4.81934c-9.3584 -30.1104 -21.1162 -59.6143 -35.5898 -87.6445c-60.9102 -117.991 -164.463 -205.429 -291.147 -244.542c-117.124 -36.1621 -284.021 -10.1426 -312.446 130.77
c-25.5811 126.832 64.5869 259.894 141.336 352.658c81.4014 98.3877 184.846 179.158 300.161 234.031c62.3594 29.6719 130.884 56.5342 200.64 58.9346c61.9893 2.13379 134.194 -13.04 178.266 -59.4814c48.4912 -51.0986 64.7295 -122.595 70.5791 -190.532
c6.5498 -76.0342 -1.33984 -153.542 -10.4766 -229.099c-17.3174 -143.263 -49 -301.423 14.2461 -438.131c24.1074 -52.1035 70.8594 -103.113 134.125 -94.8047c70.3076 9.23535 126.61 73.3438 166.276 126.601c36.4082 48.8857 68.5879 100.788 96.4062 154.922
c-1.16309 99.5508 4.02148 199.595 13.3105 298.278c6.26855 66.5977 12.9902 133.309 22.1758 199.556c8.62402 62.1914 18.6328 122.54 53.0059 176.146c8.44629 13.168 44.5537 32.6826 53.498 9.05762c12.6504 -33.4072 23.7881 -67.9473 27.085 -103.681
c3.52832 -38.2461 1.82324 -77.2607 -0.645508 -115.521c-4.7998 -74.4229 -16.3213 -148.309 -34.8848 -220.554c-3.52344 -13.7197 -7.3623 -27.3604 -11.3643 -40.957c-4.61719 -172.106 -3.12891 -346.612 41.0459 -513.204
c12.0986 -45.6289 27.3652 -90.3457 47.3633 -133.15c18.9873 -40.6416 38.2998 -85.4814 68.8242 -118.947c19.3223 -21.1855 66.6562 -60.6094 96.4854 -36.3984z" />
    <glyph glyph-name="V" unicode="V" horiz-adv-x="1464" 
d="M492.545 709.539c-23.3789 26.8428 -31.6807 61.3574 -28.9707 96.332c5.67676 73.3096 51.8477 141.307 101.557 192.918c107.978 112.107 265.319 163.172 418.033 171.273c81.0264 4.29688 164.861 -2.99609 240.585 -33.8799
c77.1924 -31.4805 136.354 -92.627 169.78 -168.558c73.9941 -168.085 32.0078 -371.095 -16.7207 -540.18c-48.2061 -167.267 -116.055 -331.838 -215.877 -475.159c-49.8516 -71.5742 -106.001 -137.6 -170.805 -196.115
c-64.749 -58.4658 -143.035 -109.18 -230.793 -122.105c-175.531 -25.8525 -283.065 126.019 -345.119 267.931c-71.5996 163.733 -101.655 341.596 -133.234 516.318c-16.1094 89.1279 -32.5537 178.325 -56.2773 265.812
c-18.4805 68.1641 -55.0068 173.225 -141.947 173.688c-21.0029 0.108398 -39.0049 12.4873 -30.6768 35.2207c8.40234 22.9346 34.2305 32.4209 56.6328 31.0752c36.5068 -2.19336 70.0762 -18.0322 97.5498 -41.7754c59.9492 -51.8086 79.6465 -129.883 97.2051 -203.906
c19.2637 -81.209 34.1367 -163.447 48.7832 -245.588c28.6465 -160.644 55.8545 -323.332 117.716 -475.243c49.0039 -120.337 145.908 -304.64 305.586 -265.965c76.0146 18.4062 137.107 72.8711 188.063 129.573c50.4873 56.1846 93.5381 118.115 130.39 183.993
c76.6504 137.038 128.739 285.918 167.893 437.558c16.4893 63.8477 29.4795 128.39 36.4971 193.76c-2.75 -2.13867 -5.7959 -3.83398 -9.07812 -4.68164c-45.7568 -11.8076 -90.8428 -17.6865 -137.979 -20.7324c-94.1152 -6.08105 -186.781 -10.6299 -281.054 -3.32129
c-95.0273 7.36719 -190.375 23.1709 -281.977 49.792c-34.7822 10.1074 -71.3281 23.916 -95.7617 51.9658zM568.867 937.977c-43.9385 -50.625 -90.6338 -143.178 -37.4453 -203.724c25.0684 -28.5381 63.8965 -39.1387 99.2842 -48.3545
c43.1055 -11.2207 86.7383 -20.4111 130.682 -27.6406c87.6992 -14.4297 176.601 -20.8955 265.463 -19.1162c90.1826 1.80859 176.694 18.2637 265.62 30.9727c3.58789 0.512695 6.53027 0.40918 8.97949 -0.108398c0.901367 12.084 1.60645 24.1875 2.05957 36.3301
c2.7207 72.9346 -1.48828 151.812 -27.582 220.726c-25.9062 68.4258 -73.6982 118.085 -141.557 145.568c-63.4971 25.7197 -136.935 28.4404 -204.518 24.1084c-131.43 -8.41699 -272.603 -56.9189 -360.986 -158.762z" />
    <glyph glyph-name="W" unicode="W" horiz-adv-x="2211" 
d="M110.156 774.372c-13.7002 -9.70801 -39.5293 -18.0674 -53.6279 -3.80078c-13.7783 13.9414 -3.47852 34.2842 9.93066 44.2383c53.1289 39.4238 121.974 55.9521 186.959 40.9219c64.2412 -14.8584 113.398 -57.6338 142.616 -116.145
c27.5576 -55.1787 38.5664 -118.148 46.0029 -178.817c8.9541 -73.0381 10.9941 -146.657 15.6064 -220.04c7.92383 -126.167 24.8955 -258.558 93.1338 -368.068c26.0049 -41.7305 81.4648 -110.93 139.256 -92.8145c49.6748 15.5723 81.0166 89.8818 100.562 132.859
c46.8408 103 79.0703 214.536 161.067 296.81c20.3086 20.377 72.6543 36.7676 81.0127 -3.71582c8.3877 -40.6367 17.6768 -81.0615 28.1143 -121.215c40.9316 -157.479 100.936 -326.718 229.311 -434.883c28.7158 -24.1914 59.3535 -46.6484 95.0566 -59.21
c38.0293 -13.375 80.2178 -13.5527 119.509 -6.04785c76.1426 14.543 147.421 54.1689 208.449 100.882c121.767 93.2031 209.909 223.125 273.106 361.479c74.541 163.191 123.417 348.421 106.514 528.757c-14.9512 159.569 -86.9941 319.223 -221.484 412.392
c-116.331 80.5879 -273.318 107.761 -410.722 76.7236c-152.015 -34.3389 -282.449 -136.418 -350.071 -277.305c-68.1396 -141.961 -56.9678 -320.252 41.5732 -445.857c107.416 -136.92 307.247 -186.639 473.365 -155.972
c160.776 29.6768 300.076 141.37 343.704 301.925c6.12598 22.541 56.5449 30.3271 48.502 2.93262c-11.625 -39.6016 -28.2275 -77.5518 -50.2607 -112.491c-96.8105 -153.537 -271.779 -238.368 -451.321 -236.796c-179.744 1.57227 -366.22 80.499 -448.246 248.539
c-75.8125 155.316 -50.9014 338.728 46.6729 478.255c96.3916 137.837 246.316 224.688 411.897 248.008c158.573 22.334 326.742 -18.1055 446.488 -127.395c138.591 -126.487 195.332 -320.799 188.038 -504.042c-7.54004 -189.408 -70.4561 -380.753 -163.473 -545.235
c-84.9443 -150.211 -202.448 -279.394 -353.772 -364.225c-85.7324 -48.0625 -187.225 -82.6328 -286.524 -68.5781c-92.4053 13.0791 -167.809 67.4053 -225.732 138.206c-105.839 129.365 -157.844 288.092 -181.04 451.002
c-15.3906 -24.2363 -28.6523 -49.9756 -41.2236 -75.5078c-28.5625 -58.0078 -54.3115 -117.188 -88.0977 -172.471c-31.0664 -50.8271 -70.7373 -100.931 -130.479 -118.075c-60.8408 -17.4648 -121.771 11.3838 -164.723 53.8584
c-88.9307 87.9404 -123.432 215.275 -137.6 335.805c-16.415 139.601 -4.02637 285.366 -40.543 422.168c-14.084 52.7646 -40.917 109.142 -90.5273 136.877c-44.8896 25.0938 -104.228 26.3555 -146.979 -3.93164z" />
    <glyph glyph-name="X" unicode="X" horiz-adv-x="1471" 
d="M1365.33 -297.018c83.4062 -32.7314 147.693 -113.737 116.228 -206.039c-30.8096 -90.3701 -118.548 -147.831 -206.488 -173.836c-176.487 -52.1924 -361.573 41.4102 -478.943 169.554c-106.031 115.759 -179.311 260.219 -230.872 408.98
c-14.873 -30.1689 -30.7754 -59.791 -48.418 -88.4375c-25.5908 -41.5479 -55.4443 -80.7744 -89.7627 -115.507c-29.2676 -29.6172 -61.5117 -58.1406 -103.316 -67.4844c-88.8916 -19.8701 -152.552 55.6025 -173.639 133.436
c-25.2363 93.1689 -22.5059 194.1 -12.2158 289.255c22.2256 205.592 90.6113 404.501 94.293 612.345c0.291016 16.4395 34.7383 27.3447 34.5068 9.19531c-2.9668 -230.897 -85.8457 -451.12 -96.5547 -681.042c-2.37988 -51.1133 -0.946289 -102.434 5.89355 -153.173
c6.45605 -47.8613 16.7705 -100.256 49 -138.113c30.7998 -36.1816 78.4736 -55.6182 122.688 -31.0664c42.9473 23.8467 70.1104 69.3916 93.0654 111.191c38.0049 69.1992 66.2129 143.021 93.751 216.916c-26.8926 94.2334 -48.5957 189.921 -65.5234 286.431
c-16.7207 95.3271 -28.4199 191.522 -45.791 286.712c-16.1836 88.6504 -42.3809 181.74 -108.411 246.78c-50.9854 50.2168 -134.402 91.5625 -206.854 64.2217c-16.873 -6.36719 -45.5586 -12.2812 -55.5771 9.17578c-9.06738 19.416 9.45703 42.4004 26.9863 49.4424
c91.3896 36.7285 183.198 15.9473 261.691 -40.4443c76.9609 -55.2871 121.697 -145.386 148.807 -233.923c26.7002 -87.2012 42.1787 -177.448 61.6689 -266.414c16.3359 -74.5605 33.4414 -149.171 53.1631 -222.978c22.708 53.8193 46.6924 107.116 71.9287 159.648
c86.5215 180.119 193.598 363.348 350.357 491.229c75.3398 61.4619 166.849 111.077 265.029 120.361c88.3047 8.34766 189.561 -35.8564 178.369 -138.719c-2.43945 -22.4521 -51.8135 -37.29 -55.5195 -9.12598c-6.78613 51.6162 -61.5215 82.7617 -109.762 83.3379
c-50.0195 0.601562 -99.502 -19.8994 -142.188 -44.3477c-90.4541 -51.8086 -164.581 -134.166 -226.492 -216.676c-123.265 -164.285 -211.807 -357.055 -292.459 -544.931c-2.11426 -4.93262 -4.22363 -9.87012 -6.33301 -14.8076
c47.3232 -151.625 108.874 -300.269 197.51 -432.359c87.9648 -131.095 220.277 -260.489 389.328 -257.715c81.0361 1.33105 165.448 28.6865 205.996 104.672c45.1748 84.6582 -10.4521 163.093 -90.9707 195.017c-21.585 8.55469 8.75684 35.9395 25.832 29.2373z" />
    <glyph glyph-name="Y" unicode="Y" horiz-adv-x="1513" 
d="M1691.28 -167.918c20.8506 -6.41113 -8.14551 -33.2695 -24.8271 -28.0947c-59.9346 18.5293 -122.604 27.8535 -185.294 29.0752c-21.1016 0.40918 -42.2031 -0.0439453 -63.2754 -1.15723c-0.0693359 -0.837891 -0.118164 -1.67578 -0.182617 -2.51367
c-9.05273 -113.566 -25.1084 -226.245 -67.5537 -332.655c-43.4648 -108.968 -121.057 -203.019 -226.211 -257.094c-95.8691 -49.2949 -227.826 -66.6416 -316.737 5.58789c-78.4297 63.7139 -128.119 157.858 -93.8301 259.144
c37.877 111.881 138.088 178.414 239.26 228.384c106.593 52.6514 225.008 94.751 346.163 116.144c0.522461 8.05273 1.02539 16.1006 1.49805 24.1436c5.53906 94.5488 7.83594 189.571 7.04785 284.657c-14.8086 -31.6377 -31.1006 -62.4873 -49.0088 -92.1689
c-54.5039 -90.3555 -138.403 -194.386 -250.294 -207.824c-105.415 -12.665 -203.044 66.7598 -246.514 157.193c-51.5322 107.204 -56.7852 228.408 -55.4746 345.173c1.34082 118.938 10.1475 239.541 -12.2207 357.212
c-9.18555 48.3242 -26.5469 104.272 -60.373 141.184c-34.2002 37.3203 -82.9033 55.4951 -132.903 55.6084c-106.361 0.246094 -202.398 -61.1523 -271.292 -138.409c-69.7217 -78.1826 -121.303 -182.558 -119.036 -289.264
c1.09863 -51.7002 19.3916 -101.705 61.457 -133.781c35.5215 -27.0889 82.3525 -36.6094 126.231 -34.6484c99.2402 4.44043 188.235 66.1592 231.76 154.307c11.1328 22.5459 44.333 37.0146 68.2334 29.3076c26.6602 -8.59961 24.8662 -33.9541 10.1953 -52.7197
c-33.4219 -42.7607 -75 -81.5986 -120.16 -111.733c-84.6777 -56.5049 -191.901 -89.6709 -292.62 -60.793c-104.878 30.0703 -155.262 125.363 -143.7 230.812c11.7041 106.766 74.25 213.842 147.327 290.428c74.8223 78.4092 170.312 136.55 278.403 153.517
c108.854 17.085 213.018 -20.3828 277.412 -111.591c32.0078 -45.3379 48.0439 -109.16 56.9785 -163.112c10.2949 -62.1768 14.168 -125.452 15.7793 -188.407c3.12891 -122.195 -1.70996 -246.5 31.8154 -365.408c21.2451 -75.3496 83.3779 -213.999 184.062 -191.364
c51.251 11.5215 92.4248 57.4453 123.875 96.5049c38.4932 47.7969 68.5244 101.822 93.7363 157.607c16.2178 35.8906 30.5439 72.8359 42.9727 110.496c-4.88867 121.998 -14.833 243.765 -29.8291 364.422c-5.99707 48.25 -24.9795 124.428 28.041 153.464
c50.8428 27.8438 74.2852 -25.1328 87.9951 -65.3945c32.1064 -94.2832 26.0254 -201.443 8.2207 -300.206c10.6299 -69.0215 18.4404 -138.467 23.2012 -208.567c8.50586 -125.167 7.15039 -251.403 -1.50781 -376.604c91.8291 4.85938 183.51 -3.91211 271.179 -30.8584z
M1325.53 779.777c-2.46875 -15.1191 6.39258 -32.2598 11.168 -46.2109c10.043 -29.3115 16.7744 -59.5938 23.8164 -89.7627c0.00488281 -0.0341797 0.0146484 -0.0683594 0.0195312 -0.102539c-1.87793 35.3779 -7.82129 70.4404 -20.2305 103.542
c-3.43945 9.16602 -8.67285 17.9424 -11.7676 27.1475c-1.70996 5.08594 -1.69043 13.4189 -3.00586 5.38672zM1249.09 -454.957c28.2373 88.167 40.459 180.514 47.4912 272.717c-63.4482 -11.2852 -125.979 -28.2031 -186.594 -49.0439
c-59.0918 -20.3135 -116.725 -45.1953 -172.066 -74.2061c-52.2373 -27.3799 -102.804 -60.3682 -140.38 -106.568c-69.6973 -85.6982 -68.9141 -205.893 21.7471 -275.708c36.5117 -28.1143 90.6953 -41.7061 136.378 -41.5586
c47.4814 0.157227 93.8887 15.3457 133.569 41.1836c80.8584 52.6514 131.07 143.308 159.854 233.185z" />
    <glyph glyph-name="Y" unicode="&#x178;" horiz-adv-x="1513" 
d="M1691.28 -167.918c20.8506 -6.41113 -8.14551 -33.2695 -24.8271 -28.0947c-59.9346 18.5293 -122.604 27.8535 -185.294 29.0752c-21.1016 0.40918 -42.2031 -0.0439453 -63.2754 -1.15723c-0.0693359 -0.837891 -0.118164 -1.67578 -0.182617 -2.51367
c-9.05273 -113.566 -25.1084 -226.245 -67.5537 -332.655c-43.4648 -108.968 -121.057 -203.019 -226.211 -257.094c-95.8691 -49.2949 -227.826 -66.6416 -316.737 5.58789c-78.4297 63.7139 -128.119 157.858 -93.8301 259.144
c37.877 111.881 138.088 178.414 239.26 228.384c106.593 52.6514 225.008 94.751 346.163 116.144c0.522461 8.05273 1.02539 16.1006 1.49805 24.1436c5.53906 94.5488 7.83594 189.571 7.04785 284.657c-14.8086 -31.6377 -31.1006 -62.4873 -49.0088 -92.1689
c-54.5039 -90.3555 -138.403 -194.386 -250.294 -207.824c-105.415 -12.665 -203.044 66.7598 -246.514 157.193c-51.5322 107.204 -56.7852 228.408 -55.4746 345.173c1.34082 118.938 10.1475 239.541 -12.2207 357.212
c-9.18555 48.3242 -26.5469 104.272 -60.373 141.184c-34.2002 37.3203 -82.9033 55.4951 -132.903 55.6084c-106.361 0.246094 -202.398 -61.1523 -271.292 -138.409c-69.7217 -78.1826 -121.303 -182.558 -119.036 -289.264
c1.09863 -51.7002 19.3916 -101.705 61.457 -133.781c35.5215 -27.0889 82.3525 -36.6094 126.231 -34.6484c99.2402 4.44043 188.235 66.1592 231.76 154.307c11.1328 22.5459 44.333 37.0146 68.2334 29.3076c26.6602 -8.59961 24.8662 -33.9541 10.1953 -52.7197
c-33.4219 -42.7607 -75 -81.5986 -120.16 -111.733c-84.6777 -56.5049 -191.901 -89.6709 -292.62 -60.793c-104.878 30.0703 -155.262 125.363 -143.7 230.812c11.7041 106.766 74.25 213.842 147.327 290.428c74.8223 78.4092 170.312 136.55 278.403 153.517
c108.854 17.085 213.018 -20.3828 277.412 -111.591c32.0078 -45.3379 48.0439 -109.16 56.9785 -163.112c10.2949 -62.1768 14.168 -125.452 15.7793 -188.407c3.12891 -122.195 -1.70996 -246.5 31.8154 -365.408c21.2451 -75.3496 83.3779 -213.999 184.062 -191.364
c51.251 11.5215 92.4248 57.4453 123.875 96.5049c38.4932 47.7969 68.5244 101.822 93.7363 157.607c16.2178 35.8906 30.5439 72.8359 42.9727 110.496c-4.88867 121.998 -14.833 243.765 -29.8291 364.422c-5.99707 48.25 -24.9795 124.428 28.041 153.464
c50.8428 27.8438 74.2852 -25.1328 87.9951 -65.3945c32.1064 -94.2832 26.0254 -201.443 8.2207 -300.206c10.6299 -69.0215 18.4404 -138.467 23.2012 -208.567c8.50586 -125.167 7.15039 -251.403 -1.50781 -376.604c91.8291 4.85938 183.51 -3.91211 271.179 -30.8584z
M1325.53 779.777c-2.46875 -15.1191 6.39258 -32.2598 11.168 -46.2109c10.043 -29.3115 16.7744 -59.5938 23.8164 -89.7627c0.00488281 -0.0341797 0.0146484 -0.0683594 0.0195312 -0.102539c-1.87793 35.3779 -7.82129 70.4404 -20.2305 103.542
c-3.43945 9.16602 -8.67285 17.9424 -11.7676 27.1475c-1.70996 5.08594 -1.69043 13.4189 -3.00586 5.38672zM1249.09 -454.957c28.2373 88.167 40.459 180.514 47.4912 272.717c-63.4482 -11.2852 -125.979 -28.2031 -186.594 -49.0439
c-59.0918 -20.3135 -116.725 -45.1953 -172.066 -74.2061c-52.2373 -27.3799 -102.804 -60.3682 -140.38 -106.568c-69.6973 -85.6982 -68.9141 -205.893 21.7471 -275.708c36.5117 -28.1143 90.6953 -41.7061 136.378 -41.5586
c47.4814 0.157227 93.8887 15.3457 133.569 41.1836c80.8584 52.6514 131.07 143.308 159.854 233.185z" />
    <glyph glyph-name="Y" unicode="&#xdd;" horiz-adv-x="1513" 
d="M1691.28 -167.918c20.8506 -6.41113 -8.14551 -33.2695 -24.8271 -28.0947c-59.9346 18.5293 -122.604 27.8535 -185.294 29.0752c-21.1016 0.40918 -42.2031 -0.0439453 -63.2754 -1.15723c-0.0693359 -0.837891 -0.118164 -1.67578 -0.182617 -2.51367
c-9.05273 -113.566 -25.1084 -226.245 -67.5537 -332.655c-43.4648 -108.968 -121.057 -203.019 -226.211 -257.094c-95.8691 -49.2949 -227.826 -66.6416 -316.737 5.58789c-78.4297 63.7139 -128.119 157.858 -93.8301 259.144
c37.877 111.881 138.088 178.414 239.26 228.384c106.593 52.6514 225.008 94.751 346.163 116.144c0.522461 8.05273 1.02539 16.1006 1.49805 24.1436c5.53906 94.5488 7.83594 189.571 7.04785 284.657c-14.8086 -31.6377 -31.1006 -62.4873 -49.0088 -92.1689
c-54.5039 -90.3555 -138.403 -194.386 -250.294 -207.824c-105.415 -12.665 -203.044 66.7598 -246.514 157.193c-51.5322 107.204 -56.7852 228.408 -55.4746 345.173c1.34082 118.938 10.1475 239.541 -12.2207 357.212
c-9.18555 48.3242 -26.5469 104.272 -60.373 141.184c-34.2002 37.3203 -82.9033 55.4951 -132.903 55.6084c-106.361 0.246094 -202.398 -61.1523 -271.292 -138.409c-69.7217 -78.1826 -121.303 -182.558 -119.036 -289.264
c1.09863 -51.7002 19.3916 -101.705 61.457 -133.781c35.5215 -27.0889 82.3525 -36.6094 126.231 -34.6484c99.2402 4.44043 188.235 66.1592 231.76 154.307c11.1328 22.5459 44.333 37.0146 68.2334 29.3076c26.6602 -8.59961 24.8662 -33.9541 10.1953 -52.7197
c-33.4219 -42.7607 -75 -81.5986 -120.16 -111.733c-84.6777 -56.5049 -191.901 -89.6709 -292.62 -60.793c-104.878 30.0703 -155.262 125.363 -143.7 230.812c11.7041 106.766 74.25 213.842 147.327 290.428c74.8223 78.4092 170.312 136.55 278.403 153.517
c108.854 17.085 213.018 -20.3828 277.412 -111.591c32.0078 -45.3379 48.0439 -109.16 56.9785 -163.112c10.2949 -62.1768 14.168 -125.452 15.7793 -188.407c3.12891 -122.195 -1.70996 -246.5 31.8154 -365.408c21.2451 -75.3496 83.3779 -213.999 184.062 -191.364
c51.251 11.5215 92.4248 57.4453 123.875 96.5049c38.4932 47.7969 68.5244 101.822 93.7363 157.607c16.2178 35.8906 30.5439 72.8359 42.9727 110.496c-4.88867 121.998 -14.833 243.765 -29.8291 364.422c-5.99707 48.25 -24.9795 124.428 28.041 153.464
c50.8428 27.8438 74.2852 -25.1328 87.9951 -65.3945c32.1064 -94.2832 26.0254 -201.443 8.2207 -300.206c10.6299 -69.0215 18.4404 -138.467 23.2012 -208.567c8.50586 -125.167 7.15039 -251.403 -1.50781 -376.604c91.8291 4.85938 183.51 -3.91211 271.179 -30.8584z
M1325.53 779.777c-2.46875 -15.1191 6.39258 -32.2598 11.168 -46.2109c10.043 -29.3115 16.7744 -59.5938 23.8164 -89.7627c0.00488281 -0.0341797 0.0146484 -0.0683594 0.0195312 -0.102539c-1.87793 35.3779 -7.82129 70.4404 -20.2305 103.542
c-3.43945 9.16602 -8.67285 17.9424 -11.7676 27.1475c-1.70996 5.08594 -1.69043 13.4189 -3.00586 5.38672zM1249.09 -454.957c28.2373 88.167 40.459 180.514 47.4912 272.717c-63.4482 -11.2852 -125.979 -28.2031 -186.594 -49.0439
c-59.0918 -20.3135 -116.725 -45.1953 -172.066 -74.2061c-52.2373 -27.3799 -102.804 -60.3682 -140.38 -106.568c-69.6973 -85.6982 -68.9141 -205.893 21.7471 -275.708c36.5117 -28.1143 90.6953 -41.7061 136.378 -41.5586
c47.4814 0.157227 93.8887 15.3457 133.569 41.1836c80.8584 52.6514 131.07 143.308 159.854 233.185z" />
    <glyph glyph-name="Z" unicode="Z" horiz-adv-x="1246" 
d="M1186.24 235.603c18.248 -12.123 -18.3848 -38.0957 -35.2637 -26.6182c-27.8926 18.9434 -58.2881 31.8994 -89.9707 41.3857c-56.3818 -95.5791 -126.705 -184.411 -206.322 -260.657c-25.5908 -24.5117 -52.5713 -48.4072 -80.8926 -70.6816
c18.6182 -6.61816 36.9795 -13.626 55.0059 -20.9043c116.464 -47.0137 231.533 -123.137 263.417 -251.822c6.31738 -25.4727 -49.6055 -44.9824 -55.9971 -14.9268c-26.3203 123.762 -136.294 197.479 -246.805 240.21
c-17.0557 6.59375 -34.8164 13.2021 -53.0742 19.5693c-79.6855 -55.8291 -169.198 -96.3672 -268.178 -100.921c-53.1338 -2.44922 -148.535 1.8877 -175.915 58.708c-31.3623 65.0889 83.9678 104.941 128.177 113.274c78.9619 14.8779 159.87 8.4668 238.546 -9.39258
c70.1699 45.6533 132.332 106.515 187.693 169.258c41.292 46.7969 78.666 96.915 112.3 149.452c-27.04 4.04102 -54.0996 7.49023 -80.5137 11.7188c-25.4189 4.06543 -1.28613 34.5752 17.3418 31.7666c27.4883 -4.14453 55.2383 -7.66309 82.8252 -11.7686
c16.0557 26.749 31.2588 54.0156 45.3779 81.8389c25.9062 51.0596 49.5068 104.129 66.6172 158.825c16.8887 54.0059 31.6777 111.496 29.2832 168.533c-1.13379 27.0449 -7.60938 56.4062 -27.124 76.3203c-14.7295 15.0303 -34.2891 25.4922 -53.5527 33.4365
c-49.7783 20.5303 -106.066 24.1426 -159.279 24.4141c-125.088 0.640625 -247.992 -25.5859 -369.295 -53.4688c-112.512 -25.8574 -233.539 -48.3682 -333.085 -109.998c-45.9932 -28.4736 -92.5381 -75.2061 -84.2734 -134.062
c3.89844 -27.7891 19.0869 -48.4229 38.3066 -67.9521c9.71289 -9.87109 19.2383 -17.8447 31.1299 -24.8232c2.39453 -1.40918 4.90332 -2.74512 7.39648 -4.10547c14.5967 3.68164 29.085 1.9375 38.3008 -8.8252c33.2988 -38.8916 -23.8066 -83.835 -63.0684 -78.1436
c-38.1279 5.5293 -47.5801 47.7773 -63.9463 76.2715c-34.4316 59.9492 -46.0566 127.764 -6.47949 188.462c38.7881 59.4961 106.386 93.5684 170.386 119.149c73.2939 29.292 149.693 48.2842 226.388 66.2617c145.583 34.1318 293.951 69.3818 444.536 63.9854
c115.547 -4.13965 245.095 -40.3848 273.584 -169.045c14.5625 -65.7744 1.89746 -139.438 -15.8037 -203.246c-18.1895 -65.5723 -45.8154 -129.385 -76.4971 -190.054c-5.79004 -11.4482 -11.8467 -22.7979 -18.0361 -34.0879
c37.3203 -10.4766 73.2998 -25.1074 106.761 -47.3379zM606.779 -77.4121c2.12402 1.07422 4.20215 2.23633 6.31641 3.34473c-73.7529 14.9668 -149.324 17.9434 -217.281 -5.87402c-9.51074 -3.33105 -31.4648 -11.0928 -31.7852 -23.876
c-0.255859 -10.1719 10.3096 -12.3945 18.0615 -13.7891c23.7188 -4.26758 49.6699 -4.15918 73.6543 -2.58691c52.9814 3.46973 103.996 18.9639 151.034 42.7812z" />
    <glyph glyph-name="bracketleft" unicode="[" horiz-adv-x="354" 
d="M259.189 -156.801c39.9756 11.5068 61.9053 -31.3418 27.0889 -55.5332c-40.4834 -28.124 -99.1318 -50.5264 -145.968 -24.0479c-39.7197 22.4521 -52.4092 66.5039 -61.6885 108.141c-20.0225 89.8135 -16.1143 183.948 -19.2236 275.383
c-3.31152 97.3428 -7.72168 194.671 -9.10645 292.068c-1.35547 95.4014 1.6748 193.42 16.7002 287.776c5.64746 35.4717 12.4287 73.6543 41.3311 98.127c24.458 20.707 65.124 25.4375 93.8047 11.1953c19.9834 -9.91992 -8.74707 -31.8203 -23.502 -26.5918
c-6.73145 2.90723 -13.6895 3.57715 -20.8594 2.14844c-0.498047 -0.655273 -1.05957 -1.39453 -1.73438 -2.2666c-4.51367 -7.81543 -8.30859 -13.083 -10.3584 -22.2197c-4.48926 -20.0322 -1.36035 -41.6074 -1.12891 -61.9014
c0.546875 -47.8955 1.63574 -95.7412 2.61621 -143.622c1.98145 -96.8359 6.24414 -193.716 10.9258 -290.458c4.62207 -95.5146 7.33203 -191.212 12.876 -286.668c2.50391 -43.041 5.7168 -88.8076 19.6533 -129.917c4.14941 -12.251 10.2305 -31.5586 21.9834 -38.9609
c13.5771 -8.55469 33.1514 3.47949 46.5898 7.34766z" />
    <glyph glyph-name="backslash" unicode="\" horiz-adv-x="510" 
d="M456.821 -157.234c20.9541 -49.0137 -75.7686 -96.2295 -100.482 -49.0088c-150.093 286.683 -220.041 606.27 -305.527 915.793c-7.19531 26.0547 35.3438 47.8115 51.0742 24.9111c44.8799 -65.3262 72.3682 -139.522 97.0283 -214.359
c24.9453 -75.709 48.2793 -151.96 74.4473 -227.265c53.3457 -153.508 119.657 -300.846 183.46 -450.071z" />
    <glyph glyph-name="bracketright" unicode="]" horiz-adv-x="295" 
d="M243.057 200.441c3.70117 -84.3428 3.24219 -169.438 -9.05859 -253.121c-5.79492 -39.4434 -11.3984 -83.0762 -31.9629 -118.085c-22.0674 -37.5615 -56.5781 -58.5947 -99.0332 -65.2822c-19.1943 -3.02539 -38.1328 10.6445 -36.9844 30.1943
c1.34082 22.7773 23.7041 36.7236 43.0322 43.3516c-10.5264 -3.6123 1.05469 2.4248 3.90332 6.44141c4.29199 6.06152 6.1748 13.8281 8.12598 20.8799c5.61328 20.2637 8.39258 41.5283 11.2803 62.334c6.05176 43.6035 9.26953 87.6455 10.4912 131.633
c2.43457 87.7627 -3.16406 175.491 -9.43262 262.983c-6.32715 88.29 -12.0439 176.57 -16.7207 264.964c-2.37012 44.791 -2.73926 89.6211 -6.59766 134.338c-1.92188 22.2891 -4.28711 44.6572 -5.30762 66.9863c-0.231445 5.07617 1.05469 17.7607 -1.10352 22.4375
c-7.02734 15.2471 -25.0537 7.69727 -36.0879 4.74512c-24.8271 -6.6377 -21.3232 20.9736 -2.32129 27.7842c32.2734 11.5615 71.2441 13.5771 95.4307 -15.5723c26.4434 -31.8643 31.5781 -82.332 37.2998 -121.801c24.1523 -166.522 37.6699 -337.141 45.0469 -505.211z
" />
    <glyph glyph-name="asciicircum" unicode="^" horiz-adv-x="350" 
d="M296.469 484.059c20.249 -42.8096 -65.5176 -84.0117 -88.8564 -43.3457c-13.5869 23.6592 -19.6484 50.3984 -28.1641 76.123c-5.18457 15.6514 -12.0693 39.9658 -25.1631 53.9365c-3.0459 -3.18359 -6.07617 -6.38672 -8.88477 -9.79688
c-6.68262 -8.12598 -12.1279 -17.0264 -17.9131 -25.7881c-13.4141 -20.3232 -25.1523 -41.0752 -43.5732 -57.3232c-6.14551 -5.42578 -27.5186 -10.8809 -31.165 1.31152c-9.23535 30.8789 6.51465 68.5039 22.1758 95.0459
c20.1016 34.0625 52.1826 68.1943 93.874 72.0234c79.3066 7.28809 102.034 -108.003 127.67 -162.187zM160.88 577.273c5.59375 0.467773 4.41504 3.2373 0 0z" />
    <glyph glyph-name="underscore" unicode="_" horiz-adv-x="513" 
d="M444.97 -68.7168c38.1133 -8.48145 6.23242 -51.4785 -20.1279 -51.4189c-63.9951 0.132812 -127.596 8.97363 -191.714 8.62402c-31.4453 -0.172852 -62.5752 -2.92285 -93.9121 -5.00293c-26.9854 -1.78906 -56.1934 -4.91309 -81.415 6.74707
c-18.5488 8.5752 0.197266 30.0215 12.8428 32.9785c30.8096 7.20508 63.3545 9.44727 94.7217 13.6309c30.0117 4.00195 60.2988 6.15039 90.5566 7.03711c62.1074 1.81836 128.227 0.941406 189.048 -12.5957z" />
    <glyph glyph-name="grave" unicode="`" horiz-adv-x="180" 
d="M129.722 589.459c4.88867 -22.1465 -41.6025 -37.9746 -47.8115 -12.7383c-6.64258 27.0059 -15.9121 52.9268 -30.3213 76.7979c-9.21582 15.2715 24.2305 33.9434 34.6631 21.2295c21.0225 -25.626 36.3047 -52.8086 43.4697 -85.2891z" />
    <glyph glyph-name="a" unicode="a" horiz-adv-x="449" 
d="M443.446 243.331c4.7207 17.002 43.1045 24.0176 37.4326 2.26074c-16.0752 -61.6641 -32.5938 -124.137 -62.5312 -180.804c-25.4922 -48.2549 -69.1396 -105.73 -130.572 -100.546c-71.21 6.00684 -84.6934 82.4062 -91.5381 140.064
c-1.41406 11.9258 -2.43945 24.1426 -3.10449 36.5264c-9.95996 -31.5693 -22.1768 -62.1719 -40.3906 -90.1973c-21.3037 -32.7764 -55.8291 -59.2295 -96.9883 -53.9619c-47.5801 6.09082 -73.8662 44.7461 -83.668 88.6006
c-19.875 88.9307 23.2402 191.586 95.4697 245.09c35.8564 26.5674 81.9043 41.4844 126.079 29.5342c12.9414 -3.50391 23.9609 -9.05273 33.3047 -16.248c11.4873 10.3486 26.5869 17.1445 41.2627 19.6377c18.1943 3.09473 54.46 -3.41992 52.7305 -29.6416
c-3.48438 -52.7539 -13.2275 -104.671 -14.0107 -157.662c-0.394531 -26.5918 -0.582031 -53.2627 1.23145 -79.8096c1.38477 -20.2891 1.46387 -41.6025 9.7334 -60.457c2.79395 -6.37695 6.96289 -17.4355 15.1436 -19.2832
c12.8076 -2.8877 24.5508 16.7754 30.4492 25.3506c13.6504 19.8447 24.8271 41.5029 34.5547 63.4922c19.6279 44.3672 32.4658 91.415 45.4121 138.054zM152.126 138.18c16.7305 49.334 28.7695 99.9014 48.6738 148.014
c-15.0352 13.3105 -35.1123 22.2012 -53.9424 18.1357c-21.2891 -4.59766 -33.6631 -28.4053 -42.627 -46.0771c-25.3057 -49.9062 -41.3955 -106.884 -29.8242 -162.945c2.59668 -12.6006 7.27832 -24.8809 15.0791 -35.2939
c8.10645 -10.8174 14.9961 -16.8838 23.4629 -4.83008c17.5732 25.0244 29.4102 54.2031 39.1777 82.9971z" />
    <glyph glyph-name="a" unicode="&#xe5;" horiz-adv-x="449" 
d="M443.446 243.331c4.7207 17.002 43.1045 24.0176 37.4326 2.26074c-16.0752 -61.6641 -32.5938 -124.137 -62.5312 -180.804c-25.4922 -48.2549 -69.1396 -105.73 -130.572 -100.546c-71.21 6.00684 -84.6934 82.4062 -91.5381 140.064
c-1.41406 11.9258 -2.43945 24.1426 -3.10449 36.5264c-9.95996 -31.5693 -22.1768 -62.1719 -40.3906 -90.1973c-21.3037 -32.7764 -55.8291 -59.2295 -96.9883 -53.9619c-47.5801 6.09082 -73.8662 44.7461 -83.668 88.6006
c-19.875 88.9307 23.2402 191.586 95.4697 245.09c35.8564 26.5674 81.9043 41.4844 126.079 29.5342c12.9414 -3.50391 23.9609 -9.05273 33.3047 -16.248c11.4873 10.3486 26.5869 17.1445 41.2627 19.6377c18.1943 3.09473 54.46 -3.41992 52.7305 -29.6416
c-3.48438 -52.7539 -13.2275 -104.671 -14.0107 -157.662c-0.394531 -26.5918 -0.582031 -53.2627 1.23145 -79.8096c1.38477 -20.2891 1.46387 -41.6025 9.7334 -60.457c2.79395 -6.37695 6.96289 -17.4355 15.1436 -19.2832
c12.8076 -2.8877 24.5508 16.7754 30.4492 25.3506c13.6504 19.8447 24.8271 41.5029 34.5547 63.4922c19.6279 44.3672 32.4658 91.415 45.4121 138.054zM152.126 138.18c16.7305 49.334 28.7695 99.9014 48.6738 148.014
c-15.0352 13.3105 -35.1123 22.2012 -53.9424 18.1357c-21.2891 -4.59766 -33.6631 -28.4053 -42.627 -46.0771c-25.3057 -49.9062 -41.3955 -106.884 -29.8242 -162.945c2.59668 -12.6006 7.27832 -24.8809 15.0791 -35.2939
c8.10645 -10.8174 14.9961 -16.8838 23.4629 -4.83008c17.5732 25.0244 29.4102 54.2031 39.1777 82.9971z" />
    <glyph glyph-name="a" unicode="&#xe4;" horiz-adv-x="449" 
d="M443.446 243.331c4.7207 17.002 43.1045 24.0176 37.4326 2.26074c-16.0752 -61.6641 -32.5938 -124.137 -62.5312 -180.804c-25.4922 -48.2549 -69.1396 -105.73 -130.572 -100.546c-71.21 6.00684 -84.6934 82.4062 -91.5381 140.064
c-1.41406 11.9258 -2.43945 24.1426 -3.10449 36.5264c-9.95996 -31.5693 -22.1768 -62.1719 -40.3906 -90.1973c-21.3037 -32.7764 -55.8291 -59.2295 -96.9883 -53.9619c-47.5801 6.09082 -73.8662 44.7461 -83.668 88.6006
c-19.875 88.9307 23.2402 191.586 95.4697 245.09c35.8564 26.5674 81.9043 41.4844 126.079 29.5342c12.9414 -3.50391 23.9609 -9.05273 33.3047 -16.248c11.4873 10.3486 26.5869 17.1445 41.2627 19.6377c18.1943 3.09473 54.46 -3.41992 52.7305 -29.6416
c-3.48438 -52.7539 -13.2275 -104.671 -14.0107 -157.662c-0.394531 -26.5918 -0.582031 -53.2627 1.23145 -79.8096c1.38477 -20.2891 1.46387 -41.6025 9.7334 -60.457c2.79395 -6.37695 6.96289 -17.4355 15.1436 -19.2832
c12.8076 -2.8877 24.5508 16.7754 30.4492 25.3506c13.6504 19.8447 24.8271 41.5029 34.5547 63.4922c19.6279 44.3672 32.4658 91.415 45.4121 138.054zM152.126 138.18c16.7305 49.334 28.7695 99.9014 48.6738 148.014
c-15.0352 13.3105 -35.1123 22.2012 -53.9424 18.1357c-21.2891 -4.59766 -33.6631 -28.4053 -42.627 -46.0771c-25.3057 -49.9062 -41.3955 -106.884 -29.8242 -162.945c2.59668 -12.6006 7.27832 -24.8809 15.0791 -35.2939
c8.10645 -10.8174 14.9961 -16.8838 23.4629 -4.83008c17.5732 25.0244 29.4102 54.2031 39.1777 82.9971z" />
    <glyph glyph-name="a" unicode="&#xe3;" horiz-adv-x="449" 
d="M443.446 243.331c4.7207 17.002 43.1045 24.0176 37.4326 2.26074c-16.0752 -61.6641 -32.5938 -124.137 -62.5312 -180.804c-25.4922 -48.2549 -69.1396 -105.73 -130.572 -100.546c-71.21 6.00684 -84.6934 82.4062 -91.5381 140.064
c-1.41406 11.9258 -2.43945 24.1426 -3.10449 36.5264c-9.95996 -31.5693 -22.1768 -62.1719 -40.3906 -90.1973c-21.3037 -32.7764 -55.8291 -59.2295 -96.9883 -53.9619c-47.5801 6.09082 -73.8662 44.7461 -83.668 88.6006
c-19.875 88.9307 23.2402 191.586 95.4697 245.09c35.8564 26.5674 81.9043 41.4844 126.079 29.5342c12.9414 -3.50391 23.9609 -9.05273 33.3047 -16.248c11.4873 10.3486 26.5869 17.1445 41.2627 19.6377c18.1943 3.09473 54.46 -3.41992 52.7305 -29.6416
c-3.48438 -52.7539 -13.2275 -104.671 -14.0107 -157.662c-0.394531 -26.5918 -0.582031 -53.2627 1.23145 -79.8096c1.38477 -20.2891 1.46387 -41.6025 9.7334 -60.457c2.79395 -6.37695 6.96289 -17.4355 15.1436 -19.2832
c12.8076 -2.8877 24.5508 16.7754 30.4492 25.3506c13.6504 19.8447 24.8271 41.5029 34.5547 63.4922c19.6279 44.3672 32.4658 91.415 45.4121 138.054zM152.126 138.18c16.7305 49.334 28.7695 99.9014 48.6738 148.014
c-15.0352 13.3105 -35.1123 22.2012 -53.9424 18.1357c-21.2891 -4.59766 -33.6631 -28.4053 -42.627 -46.0771c-25.3057 -49.9062 -41.3955 -106.884 -29.8242 -162.945c2.59668 -12.6006 7.27832 -24.8809 15.0791 -35.2939
c8.10645 -10.8174 14.9961 -16.8838 23.4629 -4.83008c17.5732 25.0244 29.4102 54.2031 39.1777 82.9971z" />
    <glyph glyph-name="a" unicode="&#xe2;" horiz-adv-x="449" 
d="M443.446 243.331c4.7207 17.002 43.1045 24.0176 37.4326 2.26074c-16.0752 -61.6641 -32.5938 -124.137 -62.5312 -180.804c-25.4922 -48.2549 -69.1396 -105.73 -130.572 -100.546c-71.21 6.00684 -84.6934 82.4062 -91.5381 140.064
c-1.41406 11.9258 -2.43945 24.1426 -3.10449 36.5264c-9.95996 -31.5693 -22.1768 -62.1719 -40.3906 -90.1973c-21.3037 -32.7764 -55.8291 -59.2295 -96.9883 -53.9619c-47.5801 6.09082 -73.8662 44.7461 -83.668 88.6006
c-19.875 88.9307 23.2402 191.586 95.4697 245.09c35.8564 26.5674 81.9043 41.4844 126.079 29.5342c12.9414 -3.50391 23.9609 -9.05273 33.3047 -16.248c11.4873 10.3486 26.5869 17.1445 41.2627 19.6377c18.1943 3.09473 54.46 -3.41992 52.7305 -29.6416
c-3.48438 -52.7539 -13.2275 -104.671 -14.0107 -157.662c-0.394531 -26.5918 -0.582031 -53.2627 1.23145 -79.8096c1.38477 -20.2891 1.46387 -41.6025 9.7334 -60.457c2.79395 -6.37695 6.96289 -17.4355 15.1436 -19.2832
c12.8076 -2.8877 24.5508 16.7754 30.4492 25.3506c13.6504 19.8447 24.8271 41.5029 34.5547 63.4922c19.6279 44.3672 32.4658 91.415 45.4121 138.054zM152.126 138.18c16.7305 49.334 28.7695 99.9014 48.6738 148.014
c-15.0352 13.3105 -35.1123 22.2012 -53.9424 18.1357c-21.2891 -4.59766 -33.6631 -28.4053 -42.627 -46.0771c-25.3057 -49.9062 -41.3955 -106.884 -29.8242 -162.945c2.59668 -12.6006 7.27832 -24.8809 15.0791 -35.2939
c8.10645 -10.8174 14.9961 -16.8838 23.4629 -4.83008c17.5732 25.0244 29.4102 54.2031 39.1777 82.9971z" />
    <glyph glyph-name="a" unicode="&#xe1;" horiz-adv-x="449" 
d="M443.446 243.331c4.7207 17.002 43.1045 24.0176 37.4326 2.26074c-16.0752 -61.6641 -32.5938 -124.137 -62.5312 -180.804c-25.4922 -48.2549 -69.1396 -105.73 -130.572 -100.546c-71.21 6.00684 -84.6934 82.4062 -91.5381 140.064
c-1.41406 11.9258 -2.43945 24.1426 -3.10449 36.5264c-9.95996 -31.5693 -22.1768 -62.1719 -40.3906 -90.1973c-21.3037 -32.7764 -55.8291 -59.2295 -96.9883 -53.9619c-47.5801 6.09082 -73.8662 44.7461 -83.668 88.6006
c-19.875 88.9307 23.2402 191.586 95.4697 245.09c35.8564 26.5674 81.9043 41.4844 126.079 29.5342c12.9414 -3.50391 23.9609 -9.05273 33.3047 -16.248c11.4873 10.3486 26.5869 17.1445 41.2627 19.6377c18.1943 3.09473 54.46 -3.41992 52.7305 -29.6416
c-3.48438 -52.7539 -13.2275 -104.671 -14.0107 -157.662c-0.394531 -26.5918 -0.582031 -53.2627 1.23145 -79.8096c1.38477 -20.2891 1.46387 -41.6025 9.7334 -60.457c2.79395 -6.37695 6.96289 -17.4355 15.1436 -19.2832
c12.8076 -2.8877 24.5508 16.7754 30.4492 25.3506c13.6504 19.8447 24.8271 41.5029 34.5547 63.4922c19.6279 44.3672 32.4658 91.415 45.4121 138.054zM152.126 138.18c16.7305 49.334 28.7695 99.9014 48.6738 148.014
c-15.0352 13.3105 -35.1123 22.2012 -53.9424 18.1357c-21.2891 -4.59766 -33.6631 -28.4053 -42.627 -46.0771c-25.3057 -49.9062 -41.3955 -106.884 -29.8242 -162.945c2.59668 -12.6006 7.27832 -24.8809 15.0791 -35.2939
c8.10645 -10.8174 14.9961 -16.8838 23.4629 -4.83008c17.5732 25.0244 29.4102 54.2031 39.1777 82.9971z" />
    <glyph glyph-name="b" unicode="b" horiz-adv-x="526" 
d="M557.114 247.382c21.2646 -10.8125 -9.4082 -38.0566 -26.168 -29.6055c-25.4141 12.8027 -59.9648 -7.87012 -83.5508 -18.2734c-3.63672 -1.60645 -7.23926 -3.29688 -10.8564 -4.95312c7.16016 -38.3203 7.9043 -77.8779 4.16895 -116.735
c-6.05176 -62.9258 -29.8984 -126.798 -65.4639 -178.976c-39.9365 -58.5938 -110.875 -114.024 -186.432 -95.8896c-35.3877 8.49121 -55.9082 26.8584 -65.9023 61.29c-7.07129 24.3643 -8.55469 50.458 -2.53711 75.2461
c15.2666 62.9062 65.8477 115.616 112.087 158.175c33.4512 30.79 70.1943 57.7168 109.062 81.1992c-1.28125 28.1738 -4.47949 56.377 -10.96 83.1904c-5.45996 22.585 -13.5615 51.1475 -39.6211 56.125c-22.5801 4.3125 -47.21 -9.64355 -63.8223 -23.4766
c-39.6953 -33.0469 -62.0635 -83.6426 -77.8779 -131.582c-17.0957 -51.8379 -28.7656 -105.8 -34.3291 -160.102c-0.0693359 -0.660156 -0.286133 -1.2959 -0.478516 -1.93164c0.0839844 -2.08496 0.197266 -4.16992 0.271484 -6.25977
c1 -27.7646 -44.5645 -46.8955 -60.9795 -22.8125c-10.7285 15.7354 -20.3574 28.6465 -27.0889 46.5449c-5.86426 15.5918 -10.4375 31.4004 -14.4834 47.5645c-7.72754 30.8838 -12.7783 61.9795 -16.1396 93.627c-7.08203 66.6172 -6.6582 133.505 -3.73633 200.358
c5.07129 115.99 18.9482 240.891 92.7158 335.721c56.7656 72.9736 174.131 117.06 254.694 53.5576c87.7383 -69.1602 36.9502 -188.778 -17.3027 -260.244c-59.4414 -78.3115 -137.979 -143.041 -227.112 -184.811
c-0.0292969 -5.57812 -0.0488281 -11.1416 -0.0537109 -16.6855c-0.0595703 -47.624 3.68066 -94.8291 7.95312 -141.941c8.16602 26.9805 18.2344 53.3203 30.3965 78.5371c28.0498 58.1602 76.458 116.399 143.784 127.054
c62.3447 9.86621 112.497 -31.041 136.955 -85.0615c6.11523 -13.5029 11.0879 -27.375 15.1191 -41.4785c16.6221 7.44141 33.4805 14.3555 50.5654 20.5352c25.3643 9.17578 52.0195 14.8574 77.123 2.09375zM118.658 581.726
c-16.6963 -78.0498 -21.6836 -160.708 -23.0039 -241.453c80.1152 42.0654 151.133 100.039 203.557 174.58c26.5967 37.8125 48.999 81.8936 45.3574 129.385c-3.46973 45.21 -30.7959 82.5146 -76.252 92.1982c-86.6689 18.46 -135.254 -87.3789 -149.658 -154.71z
M341.809 120.526c0.231445 7.4707 0.345703 15.0273 0.394531 22.6211c-35.7432 -23.167 -69.3916 -49.8818 -99.1865 -80.1592c-32.7217 -33.249 -77.3203 -80.1787 -77.0488 -129.868c0.152344 -27.6855 13.0049 -43.8398 38.3594 -53.2031
c12.833 -4.74121 26.9268 -3.10547 38.3994 3.09375c33.9932 18.377 57.1104 67.002 70.9629 100.867c17.3516 42.4248 26.6855 90.9111 28.1191 136.648z" />
    <glyph glyph-name="c" unicode="c" horiz-adv-x="331" 
d="M330.701 242.228c5.7168 13.7832 41.7461 17.2617 34.916 -1.66211c-28.9023 -80.1143 -69.7949 -163.703 -132.07 -223.406c-48.8516 -46.8311 -134.964 -103.77 -201.478 -60.7725c-71.3281 46.1113 -71.3926 151.881 -58.0967 226.111
c14.207 79.3018 58.3223 163.635 133.326 200.758c29.5234 14.6113 71.4014 24.6348 100.531 4.30664c27.7939 -19.3965 30.5342 -52.665 28.7354 -83.7266c-1.08398 -18.7559 -40.9463 -32.6279 -40.6455 -10.8311c0.22168 15.8535 2.36523 43.4209 -11.4238 55.1445
c-14.4395 12.2754 -26.5527 -3.6123 -35.4131 -13.6953c-18.2578 -20.7715 -30.4199 -46.5645 -40.4834 -72.1504c-25.1768 -64.0049 -34.042 -137.604 -17.5234 -204.769c6.08594 -24.7539 17.6963 -61.8418 48.8516 -61.2207
c32.4268 0.645508 64.3896 35.0283 84.2344 57.7812c47.3486 54.2871 79.1738 122.111 106.539 188.132z" />
    <glyph glyph-name="d" unicode="d" horiz-adv-x="597" 
d="M597.64 241.424c5.57324 14.9766 41.9199 22.6055 35.4248 2.13477c-24.7285 -77.8623 -58.4268 -152.704 -105.662 -219.632c-40.8779 -57.9141 -110.771 -128.443 -188.896 -103.188c-67.2129 21.7275 -97.0615 97.4121 -114.216 159.505
c-9.53125 34.501 -15.9717 70.5742 -19.8545 107.002c-12.8271 -47.6982 -26.6553 -95.002 -53.6953 -136.614c-21.3037 -32.7764 -55.8291 -59.2295 -96.9883 -53.9619c-47.5801 6.09082 -73.8662 44.7461 -83.668 88.6006c-19.875 88.9258 23.2402 191.581 95.4746 245.1
c35.8564 26.5674 81.9033 41.4844 126.078 29.5342c4.08496 -1.10352 7.92871 -2.45898 11.6445 -3.95703c11.1377 134.969 51.4346 287.747 173.984 358.37c50.7441 29.2432 131.051 34.2793 176.808 -8.19531c44.0615 -40.8975 45.6191 -109.841 30.3076 -163.822
c-36.2012 -127.636 -155.06 -200.984 -271.494 -246.722c-0.985352 -0.389648 -1.92188 -0.616211 -2.87305 -0.892578c0.0146484 -4.15918 -0.00976562 -8.31348 0.0546875 -12.4775c0.960938 -60.6289 7.76172 -121.175 19.7666 -180.606
c8.09668 -40.0996 24.0293 -112.576 68.5781 -127.744c56.1748 -19.126 101.055 66.7793 124.532 106.169c30.3906 50.9951 54.0107 105.849 74.6934 161.397zM323.896 465.53c-7.51074 -45.584 -12.0791 -91.1387 -13.4932 -137.058
c104.774 42.5928 213.284 107.657 237.767 226.792c9.89551 48.1318 3.80957 117.124 -52.7842 132.539c-46.2295 12.5908 -95.3174 -25.0146 -119.667 -61.4473c-31.1348 -46.585 -42.8584 -106.421 -51.8223 -160.826zM150.12 138.182
c16.7305 49.334 28.7695 99.9014 48.6689 148.014c-15.0352 13.3105 -35.1123 22.2012 -53.9424 18.1357c-21.2891 -4.59766 -33.6631 -28.4053 -42.627 -46.0771c-25.3057 -49.9062 -41.3955 -106.884 -29.8242 -162.945
c2.59668 -12.6006 7.27832 -24.8809 15.0791 -35.2939c8.10645 -10.8174 14.9961 -16.8838 23.4629 -4.83008c17.5781 25.0244 29.415 54.2031 39.1826 82.9971z" />
    <glyph glyph-name="e" unicode="e" horiz-adv-x="332" 
d="M331.338 242.734c5.61816 14.4092 41.3457 22.5156 34.915 2.1084c-31.3223 -99.418 -71.0469 -206.642 -149.388 -279.152c-31.6523 -29.2969 -68.918 -54.9766 -113.645 -55.7305c-52.0107 -0.881836 -90.6807 29.8887 -111.546 76.1826
c-40.8037 90.5371 -30.0996 212.244 21.9941 296.104c25.709 41.3857 61.4023 82.958 107.721 101.246c35.9502 14.1924 88.1035 8.31836 107.189 -30.4795c17.4453 -35.4619 -10.6104 -77.9561 -38.0693 -99.2207c-26.9609 -20.8799 -61.6641 -30.9678 -95.3564 -27.2227
c-13.8525 -52.3252 -15.9619 -109.259 -8.72266 -160.353c4.27246 -30.1348 13.6504 -79.627 42.7803 -96.6826c34.959 -20.4707 69.5684 21.6396 89.0439 45.2646c54.6865 66.3457 82.3076 148.998 113.083 227.935zM121.842 294.621
c-5.8252 -10.6348 -10.8809 -21.8174 -15.3555 -33.3193c34.2002 -3.58301 82.2734 13.2021 82.5195 53.6074c0.118164 19.54 -16.4746 29.4453 -32.333 21.4082c-15.3262 -7.77148 -26.9072 -27.2324 -34.8311 -41.6963z" />
    <glyph glyph-name="e" unicode="&#xeb;" horiz-adv-x="332" 
d="M331.338 242.734c5.61816 14.4092 41.3457 22.5156 34.915 2.1084c-31.3223 -99.418 -71.0469 -206.642 -149.388 -279.152c-31.6523 -29.2969 -68.918 -54.9766 -113.645 -55.7305c-52.0107 -0.881836 -90.6807 29.8887 -111.546 76.1826
c-40.8037 90.5371 -30.0996 212.244 21.9941 296.104c25.709 41.3857 61.4023 82.958 107.721 101.246c35.9502 14.1924 88.1035 8.31836 107.189 -30.4795c17.4453 -35.4619 -10.6104 -77.9561 -38.0693 -99.2207c-26.9609 -20.8799 -61.6641 -30.9678 -95.3564 -27.2227
c-13.8525 -52.3252 -15.9619 -109.259 -8.72266 -160.353c4.27246 -30.1348 13.6504 -79.627 42.7803 -96.6826c34.959 -20.4707 69.5684 21.6396 89.0439 45.2646c54.6865 66.3457 82.3076 148.998 113.083 227.935zM121.842 294.621
c-5.8252 -10.6348 -10.8809 -21.8174 -15.3555 -33.3193c34.2002 -3.58301 82.2734 13.2021 82.5195 53.6074c0.118164 19.54 -16.4746 29.4453 -32.333 21.4082c-15.3262 -7.77148 -26.9072 -27.2324 -34.8311 -41.6963z" />
    <glyph glyph-name="e" unicode="&#xea;" horiz-adv-x="332" 
d="M331.338 242.734c5.61816 14.4092 41.3457 22.5156 34.915 2.1084c-31.3223 -99.418 -71.0469 -206.642 -149.388 -279.152c-31.6523 -29.2969 -68.918 -54.9766 -113.645 -55.7305c-52.0107 -0.881836 -90.6807 29.8887 -111.546 76.1826
c-40.8037 90.5371 -30.0996 212.244 21.9941 296.104c25.709 41.3857 61.4023 82.958 107.721 101.246c35.9502 14.1924 88.1035 8.31836 107.189 -30.4795c17.4453 -35.4619 -10.6104 -77.9561 -38.0693 -99.2207c-26.9609 -20.8799 -61.6641 -30.9678 -95.3564 -27.2227
c-13.8525 -52.3252 -15.9619 -109.259 -8.72266 -160.353c4.27246 -30.1348 13.6504 -79.627 42.7803 -96.6826c34.959 -20.4707 69.5684 21.6396 89.0439 45.2646c54.6865 66.3457 82.3076 148.998 113.083 227.935zM121.842 294.621
c-5.8252 -10.6348 -10.8809 -21.8174 -15.3555 -33.3193c34.2002 -3.58301 82.2734 13.2021 82.5195 53.6074c0.118164 19.54 -16.4746 29.4453 -32.333 21.4082c-15.3262 -7.77148 -26.9072 -27.2324 -34.8311 -41.6963z" />
    <glyph glyph-name="e" unicode="&#xe9;" horiz-adv-x="332" 
d="M331.338 242.734c5.61816 14.4092 41.3457 22.5156 34.915 2.1084c-31.3223 -99.418 -71.0469 -206.642 -149.388 -279.152c-31.6523 -29.2969 -68.918 -54.9766 -113.645 -55.7305c-52.0107 -0.881836 -90.6807 29.8887 -111.546 76.1826
c-40.8037 90.5371 -30.0996 212.244 21.9941 296.104c25.709 41.3857 61.4023 82.958 107.721 101.246c35.9502 14.1924 88.1035 8.31836 107.189 -30.4795c17.4453 -35.4619 -10.6104 -77.9561 -38.0693 -99.2207c-26.9609 -20.8799 -61.6641 -30.9678 -95.3564 -27.2227
c-13.8525 -52.3252 -15.9619 -109.259 -8.72266 -160.353c4.27246 -30.1348 13.6504 -79.627 42.7803 -96.6826c34.959 -20.4707 69.5684 21.6396 89.0439 45.2646c54.6865 66.3457 82.3076 148.998 113.083 227.935zM121.842 294.621
c-5.8252 -10.6348 -10.8809 -21.8174 -15.3555 -33.3193c34.2002 -3.58301 82.2734 13.2021 82.5195 53.6074c0.118164 19.54 -16.4746 29.4453 -32.333 21.4082c-15.3262 -7.77148 -26.9072 -27.2324 -34.8311 -41.6963z" />
    <glyph glyph-name="f" unicode="f" horiz-adv-x="437" 
d="M446.427 247.432c17.7061 14.833 42.6631 -3.00977 22.2119 -20.5391c-46.6934 -40.0303 -100.675 -70.165 -155.913 -96.6973c-23.999 -11.5264 -48.3037 -22.4072 -72.6035 -33.2881c58.8359 -5.19434 113.833 -27.9277 138.157 -87.9463
c33.8652 -83.5596 -19.1064 -169.08 -98.8564 -199.698c-40.666 -15.6123 -85.5703 -19.4268 -126.921 -3.75586c-42.2578 16.0156 -70.6533 50.4521 -93.3613 88.1416c-46.9541 77.9414 -64.9951 176.156 -71.623 265.777c-12.916 174.6 19.8262 376.21 153.124 501.5
c56.3076 52.9219 142.745 88.542 218.637 57.2637c74.1816 -30.5732 90.7598 -119.923 67.5049 -189.383c-45.0469 -134.525 -179.897 -227.936 -318.335 -243.03c-1.22754 -34.4521 -0.65625 -68.958 1.88672 -103.188c2.36523 -31.8691 5.80957 -64.1621 11.0381 -96.1543
c0.912109 0.462891 1.74023 0.970703 2.73047 1.38965c28.1787 11.9502 57.875 18.7607 86.0391 31.0264c27.2373 11.8613 54.5488 23.5654 81.5342 35.9941c54.8984 25.2861 108.225 53.6123 154.75 92.5879zM119.819 402.858
c-4.50879 -27.957 -7.73242 -56.2129 -9.70898 -84.5732c127.256 12.9756 262.855 107.854 281.868 240.945c9.2207 64.5615 -29.9424 131.893 -101.552 125.836c-56.2285 -4.75098 -97.4414 -64.3057 -120.973 -110.393
c-27.2471 -53.3604 -40.1582 -113.039 -49.6348 -171.815zM318.609 -16.1455c-31.5889 70.3574 -117.544 69.0674 -181.835 57.3438c-2.28125 -0.414062 -4.4541 -0.650391 -6.51855 -0.729492c4.67676 -20.6338 10.2705 -40.9961 17.0117 -60.8711
c16.2383 -47.8613 51.124 -130.533 113.98 -123.886c59.5449 6.29785 78.6064 80.8242 57.3613 128.143z" />
    <glyph glyph-name="g" unicode="g" horiz-adv-x="435" 
d="M437.551 230.543c12.9258 14.5527 45.6279 6.5498 28.5918 -13.0537c-41.4795 -47.7129 -88.5273 -90 -137.798 -129.739c-0.773438 -94.5342 -5.88379 -188.827 -23.8564 -281.745c-26.3604 -136.284 -93.8789 -304.23 -256.799 -307.468
c-64.4385 -1.27637 -120.194 33.1455 -143.494 94.6123c-20.6924 54.5977 -13.3691 123.407 13.0996 175.122c47.8262 93.4404 146.372 160.126 228.241 221.081c24.5957 18.3125 49.5459 36.3984 74.4375 54.6514c-0.640625 60.5996 -2.79883 121.214 -3.5625 181.818
c-16.7354 -60.3535 -29.79 -122.348 -64.123 -175.181c-21.3037 -32.7764 -55.8291 -59.2295 -96.9883 -53.9619c-47.5801 6.09082 -73.8662 44.7461 -83.668 88.6006c-19.875 88.9258 23.2402 191.581 95.4746 245.1c35.8564 26.5674 81.9043 41.4844 126.079 29.5342
c11.9502 -3.23242 22.25 -8.22949 31.1152 -14.6309c9.21094 15.3848 25.7695 26.458 43.5596 31.1543c20.3477 5.37109 58.0967 0.733398 58.1309 -27.5439c0.0888672 -73.5898 2.2373 -147.668 2.4541 -221.687c38.7539 31.9092 75.7432 65.7695 109.105 103.336z
M151.677 138.182c16.7305 49.334 28.7646 99.9014 48.6738 148.014c-15.0352 13.3105 -35.1123 22.2012 -53.9424 18.1357c-21.2891 -4.59766 -33.6631 -28.4053 -42.627 -46.0771c-25.3057 -49.9062 -41.3955 -106.884 -29.8242 -162.945
c2.59668 -12.6006 7.27832 -24.8809 15.0791 -35.2939c8.10645 -10.8174 14.9961 -16.8838 23.4629 -4.83008c17.5732 25.0244 29.4102 54.2031 39.1777 82.9971zM216.377 -110.771c2.67578 38.6162 3.65137 77.252 3.76465 115.888
c-13.2314 -9.79199 -26.4531 -19.5547 -39.6064 -29.3271c-75.8125 -56.3467 -165.212 -115.503 -215.911 -197.416c-28.1094 -45.4062 -38.9463 -107.426 -22.6494 -158.801c19.1846 -60.4912 81.4102 -105.464 143.676 -76.7041
c54.5479 25.1924 80.7256 85.8066 96.1211 140.34c18.791 66.5576 29.8252 137.093 34.6055 206.021z" />
    <glyph glyph-name="h" unicode="h" horiz-adv-x="516" 
d="M508.56 213.591c6.49023 16.9277 46.9678 23.6641 38.9551 2.37012c-28.3311 -75.2754 -52.8721 -154.932 -90.2656 -226.334c-14.6562 -27.9766 -33.0674 -56.5146 -59.9492 -74.1621c-25.374 -16.6562 -69.7705 -29.3018 -98.9395 -17.3564
c-76.0889 31.165 -60.3291 135.821 -53.0605 200.216c4.54395 40.2227 10.7832 80.2041 16.9678 120.195c3.33594 21.585 6.75586 43.2539 10.7227 64.7158c1.73438 9.3877 3.8291 18.3125 4.00684 27.9023c0.137695 7.55469 1.49316 13.1973 2.7793 19.4365
c-35.0928 14.873 -103.04 -133.13 -111.077 -153.478c-22.9502 -58.0918 -38.124 -118.943 -53.2334 -179.435c-0.182617 -0.724609 -0.50293 -1.4043 -0.798828 -2.08887c0.00976562 -0.246094 0.0244141 -0.49707 0.0341797 -0.743164
c1 -27.7646 -44.5645 -46.8955 -60.9795 -22.8125c-10.7285 15.7354 -20.3574 28.6465 -27.0889 46.5449c-5.86426 15.5918 -10.4375 31.4004 -14.4834 47.5645c-7.72754 30.8838 -12.7734 61.9795 -16.1396 93.627c-7.07617 66.6172 -6.65234 133.505 -3.73047 200.358
c5.07129 115.99 18.9482 240.891 92.7158 335.721c56.7656 72.9736 174.131 117.06 254.694 53.5576c87.7383 -69.1602 36.9502 -188.778 -17.3027 -260.244c-59.4414 -78.3115 -137.979 -143.041 -227.112 -184.811
c-0.0292969 -5.57812 -0.0488281 -11.1416 -0.0537109 -16.6855c-0.0742188 -61.5654 6.18945 -122.437 11.7529 -183.312c14.8779 50.6553 32.9238 100.29 58.3184 146.678c17.1445 31.3174 37.6299 64.6162 64.5859 88.4678
c13.6357 12.0684 30.0654 22.2842 48.4023 24.8564c15.8535 2.22266 24.4971 -3.99121 38.1719 -9.41211c9.4668 -3.75 14.9961 -2.90234 22.3193 -11.6592c6.23926 -7.46094 10.6943 -16.9131 14.2471 -25.8428c7.71191 -19.3916 10.0137 -38.8574 11.5068 -59.4961
c3.2373 -44.7656 -3.17383 -89.9209 -6.74219 -134.485c-3.50391 -43.7705 -3.46484 -87.6055 -3.25293 -131.465c0.0693359 -14.4297 -2.65137 -33.999 8.12598 -45.6338c5.84961 -6.3125 3.7207 -9.07715 14.7002 -4.22754c8.9834 3.9668 15.9961 12.2803 21.8604 19.9043
c25.5713 33.2295 40.4297 74.7773 55.7559 113.368c18.2383 45.9189 35.9004 92.0645 53.5869 138.2zM118.645 581.724c-16.6963 -78.0498 -21.6836 -160.708 -23.0039 -241.453c80.1152 42.0654 151.133 100.039 203.557 174.58
c26.5967 37.8125 48.999 81.8936 45.3574 129.385c-3.46973 45.21 -30.7959 82.5146 -76.252 92.1982c-86.6689 18.46 -135.254 -87.3789 -149.658 -154.71z" />
    <glyph glyph-name="i" unicode="i" horiz-adv-x="231" 
d="M228.18 243.331c4.7207 17.002 43.1113 24.0166 37.4346 2.25488c-16.0752 -61.6641 -32.5938 -124.137 -62.5312 -180.804c-25.4922 -48.2549 -69.1396 -105.73 -130.572 -100.546c-71.21 6.00684 -84.6934 82.4062 -91.5381 140.064
c-8.04785 67.8047 -4.0957 144.78 12.8564 210.959c6.78125 26.4531 33.624 43.6963 59.1113 48.0283c18.1943 3.09473 54.46 -3.41992 52.7305 -29.6416c-3.48926 -52.7539 -13.2324 -104.671 -14.0156 -157.662c-0.394531 -26.5918 -0.582031 -53.2627 1.23145 -79.8096
c1.38477 -20.2891 1.46387 -41.6025 9.7334 -60.457c2.79395 -6.37695 6.96289 -17.4355 15.1436 -19.2832c12.8076 -2.8877 24.5508 16.7754 30.4492 25.3506c13.6504 19.8447 24.8271 41.5029 34.5547 63.4922c19.6279 44.3672 32.4658 91.415 45.4121 138.054z
M56.7939 418.036c-11.6055 -10.0283 -32.8047 -4.77637 -33.9678 6.56348c-27.4688 32.2783 -56.4355 65.2568 -53.6807 110.595c0.990234 16.2578 24.2305 30.1699 38.0391 18.5547c12.9111 -10.8613 20.4111 -24.6104 27.4238 -39.6807
c1.81348 -3.90332 3.79004 -9.57031 5.97363 -15.6709c0.541992 1.31543 1.08887 2.57227 1.64062 3.6709c7.63379 15.252 17.5684 30.6074 29.1689 43.2285c14.8633 16.1641 48.2305 39.375 70.4414 22.9893c23.5557 -17.3809 -0.793945 -57.0215 -12.7793 -73.9248
c-20.1807 -28.4688 -45.9199 -53.5723 -72.2598 -76.3252z" />
    <glyph glyph-name="i" unicode="&#xef;" horiz-adv-x="231" 
d="M228.18 243.331c4.7207 17.002 43.1113 24.0166 37.4346 2.25488c-16.0752 -61.6641 -32.5938 -124.137 -62.5312 -180.804c-25.4922 -48.2549 -69.1396 -105.73 -130.572 -100.546c-71.21 6.00684 -84.6934 82.4062 -91.5381 140.064
c-8.04785 67.8047 -4.0957 144.78 12.8564 210.959c6.78125 26.4531 33.624 43.6963 59.1113 48.0283c18.1943 3.09473 54.46 -3.41992 52.7305 -29.6416c-3.48926 -52.7539 -13.2324 -104.671 -14.0156 -157.662c-0.394531 -26.5918 -0.582031 -53.2627 1.23145 -79.8096
c1.38477 -20.2891 1.46387 -41.6025 9.7334 -60.457c2.79395 -6.37695 6.96289 -17.4355 15.1436 -19.2832c12.8076 -2.8877 24.5508 16.7754 30.4492 25.3506c13.6504 19.8447 24.8271 41.5029 34.5547 63.4922c19.6279 44.3672 32.4658 91.415 45.4121 138.054z
M56.7939 418.036c-11.6055 -10.0283 -32.8047 -4.77637 -33.9678 6.56348c-27.4688 32.2783 -56.4355 65.2568 -53.6807 110.595c0.990234 16.2578 24.2305 30.1699 38.0391 18.5547c12.9111 -10.8613 20.4111 -24.6104 27.4238 -39.6807
c1.81348 -3.90332 3.79004 -9.57031 5.97363 -15.6709c0.541992 1.31543 1.08887 2.57227 1.64062 3.6709c7.63379 15.252 17.5684 30.6074 29.1689 43.2285c14.8633 16.1641 48.2305 39.375 70.4414 22.9893c23.5557 -17.3809 -0.793945 -57.0215 -12.7793 -73.9248
c-20.1807 -28.4688 -45.9199 -53.5723 -72.2598 -76.3252z" />
    <glyph glyph-name="i" unicode="&#xee;" horiz-adv-x="231" 
d="M228.18 243.331c4.7207 17.002 43.1113 24.0166 37.4346 2.25488c-16.0752 -61.6641 -32.5938 -124.137 -62.5312 -180.804c-25.4922 -48.2549 -69.1396 -105.73 -130.572 -100.546c-71.21 6.00684 -84.6934 82.4062 -91.5381 140.064
c-8.04785 67.8047 -4.0957 144.78 12.8564 210.959c6.78125 26.4531 33.624 43.6963 59.1113 48.0283c18.1943 3.09473 54.46 -3.41992 52.7305 -29.6416c-3.48926 -52.7539 -13.2324 -104.671 -14.0156 -157.662c-0.394531 -26.5918 -0.582031 -53.2627 1.23145 -79.8096
c1.38477 -20.2891 1.46387 -41.6025 9.7334 -60.457c2.79395 -6.37695 6.96289 -17.4355 15.1436 -19.2832c12.8076 -2.8877 24.5508 16.7754 30.4492 25.3506c13.6504 19.8447 24.8271 41.5029 34.5547 63.4922c19.6279 44.3672 32.4658 91.415 45.4121 138.054z
M56.7939 418.036c-11.6055 -10.0283 -32.8047 -4.77637 -33.9678 6.56348c-27.4688 32.2783 -56.4355 65.2568 -53.6807 110.595c0.990234 16.2578 24.2305 30.1699 38.0391 18.5547c12.9111 -10.8613 20.4111 -24.6104 27.4238 -39.6807
c1.81348 -3.90332 3.79004 -9.57031 5.97363 -15.6709c0.541992 1.31543 1.08887 2.57227 1.64062 3.6709c7.63379 15.252 17.5684 30.6074 29.1689 43.2285c14.8633 16.1641 48.2305 39.375 70.4414 22.9893c23.5557 -17.3809 -0.793945 -57.0215 -12.7793 -73.9248
c-20.1807 -28.4688 -45.9199 -53.5723 -72.2598 -76.3252z" />
    <glyph glyph-name="i" unicode="&#xed;" horiz-adv-x="231" 
d="M228.18 243.331c4.7207 17.002 43.1113 24.0166 37.4346 2.25488c-16.0752 -61.6641 -32.5938 -124.137 -62.5312 -180.804c-25.4922 -48.2549 -69.1396 -105.73 -130.572 -100.546c-71.21 6.00684 -84.6934 82.4062 -91.5381 140.064
c-8.04785 67.8047 -4.0957 144.78 12.8564 210.959c6.78125 26.4531 33.624 43.6963 59.1113 48.0283c18.1943 3.09473 54.46 -3.41992 52.7305 -29.6416c-3.48926 -52.7539 -13.2324 -104.671 -14.0156 -157.662c-0.394531 -26.5918 -0.582031 -53.2627 1.23145 -79.8096
c1.38477 -20.2891 1.46387 -41.6025 9.7334 -60.457c2.79395 -6.37695 6.96289 -17.4355 15.1436 -19.2832c12.8076 -2.8877 24.5508 16.7754 30.4492 25.3506c13.6504 19.8447 24.8271 41.5029 34.5547 63.4922c19.6279 44.3672 32.4658 91.415 45.4121 138.054z
M56.7939 418.036c-11.6055 -10.0283 -32.8047 -4.77637 -33.9678 6.56348c-27.4688 32.2783 -56.4355 65.2568 -53.6807 110.595c0.990234 16.2578 24.2305 30.1699 38.0391 18.5547c12.9111 -10.8613 20.4111 -24.6104 27.4238 -39.6807
c1.81348 -3.90332 3.79004 -9.57031 5.97363 -15.6709c0.541992 1.31543 1.08887 2.57227 1.64062 3.6709c7.63379 15.252 17.5684 30.6074 29.1689 43.2285c14.8633 16.1641 48.2305 39.375 70.4414 22.9893c23.5557 -17.3809 -0.793945 -57.0215 -12.7793 -73.9248
c-20.1807 -28.4688 -45.9199 -53.5723 -72.2598 -76.3252z" />
    <glyph glyph-name="j" unicode="j" horiz-adv-x="223" 
d="M226.565 230.543c12.9258 14.5527 45.6338 6.5498 28.5928 -13.0537c-41.4795 -47.7129 -88.5273 -90 -137.798 -129.739c-0.773438 -94.5342 -5.87891 -188.827 -23.8516 -281.745c-26.3604 -136.284 -93.8789 -304.23 -256.799 -307.468
c-64.4385 -1.27637 -120.194 33.1455 -143.494 94.6123c-20.6924 54.5977 -13.3691 123.407 13.0996 175.122c47.8262 93.4404 146.372 160.126 228.241 221.081c24.5957 18.3125 49.5459 36.3984 74.4375 54.6514c-0.970703 91.9219 -5.51465 183.874 -3.20801 275.781
c0.714844 28.5332 24.5762 49.6494 51.0889 56.6523c20.3477 5.37109 58.0967 0.733398 58.1309 -27.5439c0.0888672 -73.5898 2.2373 -147.668 2.4541 -221.687c38.7539 31.9092 75.7432 65.7695 109.105 103.336zM5.39258 -110.771
c2.68066 38.6162 3.65137 77.252 3.75488 115.888c-13.2314 -9.79199 -26.4482 -19.5547 -39.6016 -29.3271c-75.8125 -56.3467 -165.212 -115.503 -215.911 -197.416c-28.1094 -45.4062 -38.9463 -107.426 -22.6494 -158.801
c19.1895 -60.4912 81.415 -105.464 143.681 -76.7041c54.5479 25.1924 80.7256 85.8066 96.1211 140.34c18.791 66.5576 29.8252 137.093 34.6055 206.021zM75.5137 418.039c-11.6055 -10.0283 -32.8037 -4.77539 -33.9619 6.56348
c-27.4688 32.2783 -56.4355 65.2568 -53.6807 110.595c0.985352 16.2578 24.2256 30.1699 38.0342 18.5547c12.9111 -10.8613 20.4111 -24.6104 27.4238 -39.6807c1.81348 -3.90332 3.79004 -9.57031 5.97266 -15.6709c0.541992 1.31543 1.08887 2.57227 1.64062 3.6709
c7.62891 15.252 17.5684 30.6074 29.1689 43.2285c14.8633 16.1641 48.2305 39.375 70.4414 22.9893c23.5557 -17.3809 -0.793945 -57.0215 -12.7793 -73.9248c-20.1807 -28.4688 -45.9199 -53.5723 -72.2598 -76.3252z" />
    <glyph glyph-name="k" unicode="k" horiz-adv-x="512" 
d="M505.455 199.866c6.26367 16.2676 45.1777 22.7129 37.4404 2.26172c-22.585 -59.6484 -42.7354 -124.028 -76.9307 -178.256c-29.7354 -47.1514 -70.0518 -71.6875 -126.837 -66.4785c-30.9434 2.83887 -58.8262 7.79688 -82.4512 29.958
c-19.9531 18.7168 -31.8398 45.1309 -40.3506 70.6436c-9.80176 29.3955 -17.5039 59.791 -25.335 89.748c-5.80566 22.2158 -7.11621 51.7295 -22.7031 69.0859c-32.7217 -65.0693 -44.0361 -141 -53.6064 -212.579
c-0.0595703 -0.448242 -0.237305 -0.852539 -0.34082 -1.28613c0.118164 -2.70996 0.255859 -5.42578 0.354492 -8.1416c0.995117 -27.7646 -44.5693 -46.8955 -60.9844 -22.8125c-10.7236 15.7354 -20.3525 28.6465 -27.084 46.5449
c-5.86426 15.5918 -10.4375 31.4004 -14.4834 47.5645c-7.72754 30.8838 -12.7734 61.9795 -16.1396 93.627c-7.07617 66.6172 -6.65234 133.505 -3.73047 200.358c5.07129 115.99 18.9482 240.891 92.7158 335.721c56.7656 72.9736 174.131 117.06 254.694 53.5576
c87.7383 -69.1602 36.9502 -188.778 -17.3027 -260.244c-59.4414 -78.3115 -137.979 -143.041 -227.112 -184.811c-0.0292969 -5.57812 -0.0488281 -11.1416 -0.0537109 -16.6855c-0.0595703 -49.9844 4.06055 -99.5059 8.58984 -148.948
c26.4639 96.1455 74.7734 186.516 172.821 221.613c26.0195 9.31348 65.1777 16.1777 85.5059 -7.87109c18.2686 -21.6094 10.502 -52.8428 -4.33105 -73.8711c-25.9062 -36.7285 -71.5986 -52.4883 -117.228 -54.1738c20.875 -13.5566 38.3643 -30.9775 50.6592 -57.0371
c19.6377 -41.6416 30.8838 -85.5205 53.415 -126.122c8.99902 -16.2178 18.3818 -43.1787 39.1982 -45.6572c27.0645 -3.22266 45.6484 32.5889 56.4951 52.2021c26.6162 48.1318 45.4072 100.896 65.1143 152.089zM118.647 581.723
c-16.7012 -78.0498 -21.6875 -160.708 -23.0029 -241.453c80.1143 42.0654 151.132 100.039 203.556 174.58c26.5967 37.8125 48.999 81.8936 45.3574 129.385c-3.46973 45.21 -30.7959 82.5146 -76.252 92.1982c-86.6689 18.46 -135.254 -87.3789 -149.658 -154.71z
M196.797 262.884c43.2725 -10.8662 130.35 -10.8662 136.613 46.3135c4.29199 39.2119 -42.8145 27.2861 -64.1377 16.7598c-20.8105 -10.2695 -39.4482 -25.541 -55.1934 -42.459c-6.1748 -6.6377 -11.9111 -13.5225 -17.2822 -20.6143z" />
    <glyph glyph-name="l" unicode="l" horiz-adv-x="385" 
d="M384.445 241.424c5.57812 14.9766 41.9199 22.6064 35.4248 2.14062c-24.7285 -77.8623 -58.4268 -152.704 -105.662 -219.632c-40.8779 -57.9141 -110.771 -128.443 -188.896 -103.188c-67.2129 21.7275 -97.0615 97.4121 -114.216 159.505
c-20.584 74.5166 -26.9268 156.326 -23.6494 233.331c6.12012 143.883 41.0254 322.593 176.62 400.736c50.7441 29.2432 131.051 34.2793 176.808 -8.19531c44.0615 -40.8975 45.6191 -109.841 30.3076 -163.822c-36.2012 -127.636 -155.06 -200.984 -271.494 -246.722
c-0.985352 -0.389648 -1.92188 -0.616211 -2.87305 -0.892578c0.0146484 -4.15918 -0.00976562 -8.31348 0.0546875 -12.4775c0.960938 -60.6289 7.76172 -121.175 19.7666 -180.606c8.10156 -40.0996 24.0293 -112.576 68.583 -127.744
c56.1748 -19.126 101.055 66.7793 124.532 106.169c30.3906 50.9951 54.0107 105.849 74.6934 161.397zM110.707 465.531c-7.51562 -45.584 -12.084 -91.1387 -13.4883 -137.058c104.774 42.5928 213.284 107.657 237.767 226.792
c9.89062 48.1318 3.80469 117.124 -52.7891 132.539c-46.2295 12.5908 -95.3174 -25.0146 -119.667 -61.4473c-31.1348 -46.585 -42.8584 -106.421 -51.8223 -160.826z" />
    <glyph glyph-name="m" unicode="m" horiz-adv-x="675" 
d="M672.495 213.586c8.67285 16.415 46.4746 16.3809 34.7656 -5.73145c-34.9199 -66.0703 -59.3525 -138.099 -105.705 -197.634c-18.4404 -23.6895 -40.8184 -46.9053 -68.0898 -60.2207c-26.3398 -12.8623 -66.5225 -20.3779 -93.3994 -5.97363
c-35.2158 18.874 -37.084 64.0986 -34.8613 99.0928c2.52344 39.6504 10.2949 79.1338 16.7207 118.287c6.36719 38.7881 13.4883 77.5225 20.585 116.178c3.63672 19.8008 9.79688 39.3994 12.6406 59.2539c0.295898 2.06445 2.27734 12.2256 0.941406 13.7432
c-2.87305 3.2627 -14.6953 -0.605469 -17.5039 -1.94629c-7.03223 -3.35059 -13.4141 -12.502 -18.2188 -18.5137c-47.3633 -59.2939 -71.8262 -139.162 -90.6904 -211.446c-0.714844 -2.75 -2.37598 -5.19434 -4.52441 -7.32324
c-7.7373 -20.2148 -27.9668 -34.9443 -48.9404 -40.4834c-21.0029 -5.54883 -59.2002 -0.734375 -59.4912 28.1836c-0.581055 58.5645 0.818359 117.917 4.53418 176.378c1.66602 26.1582 5.16504 52.4688 5.13574 78.7002
c-0.00488281 5.72168 0.428711 17.6621 -3.95703 22.25c-6.8252 7.14062 -11.8027 1.87793 -17.1689 -2.4043c-9.58008 -7.63867 -15.8291 -23.0684 -21.1465 -33.9004c-25.3203 -51.5918 -40.001 -109.077 -53.7061 -164.675
c-11.6943 -47.4521 -20.7422 -95.4365 -26.5479 -143.928c0.108398 -11.6396 -0.926758 -22.8213 -4.42578 -32.0566c-7.74707 -20.4316 -28.4746 -33.7031 -50.6758 -30.7217c-34.7324 4.65723 -44.5391 41.4648 -51.1133 71.334
c-6.66797 30.2822 -11.2314 60.8955 -13.6113 91.8037c-5.06641 65.71 -5.21387 133.18 7.85059 198.008c5.30273 26.3105 34.5156 43.6768 58.8398 47.8115c18.3867 3.12402 53.8682 -3.40527 52.4883 -29.5088c-2.82422 -53.5039 -7.89551 -106.736 -7.83594 -160.318
c3.29688 12.9805 6.70703 25.9365 10.3486 38.833c15.627 55.3857 32.4219 131.563 78.6221 170.495c47.6045 40.1094 98.9004 -6.54883 116.129 -53.9316c14.124 -38.8477 21.3389 -80.1201 24.8867 -121.728c16.2129 42.5928 36.6641 83.5303 64.1621 118.563
c16.8389 21.4512 42.6367 45.4355 71.8105 45.3369c28.2871 -0.09375 55.3613 -20.4707 66.0303 -45.6875c14.9814 -35.418 11.0244 -77.3555 8.28906 -114.655c-2.87793 -39.2764 -8.86523 -78.0693 -13.4678 -117.158
c-4.25781 -36.1416 -10.5117 -71.5049 -1.2666 -107.135c0.956055 -3.68164 1.24219 -9.53125 3.09961 -12.8037c3.12891 -5.51465 -3.28223 -3.88379 2.36523 -4.3623c4.84961 -0.40918 16.2627 10.9795 19.7666 14.1729c12.0098 10.9502 22.502 23.9795 32.0176 37.1123
c39.582 54.627 62.9609 119.386 94.3184 178.709z" />
    <glyph glyph-name="n" unicode="n" horiz-adv-x="457" 
d="M456.486 248.318c10.3242 14.3896 47.8506 9.64551 34.2148 -10.2197c-52.1084 -75.8721 -79.7002 -164.537 -126.073 -243.558c-17.6768 -30.1299 -37.2412 -60.3242 -71.6934 -72.2891c-32.1211 -11.1572 -72.1318 -4.24316 -95.377 21.8066
c-27.7988 31.1455 -18.9434 81.7812 -14.5576 119.564c5.20898 44.8545 10.3096 89.6748 17.5537 134.249c3.8584 23.7432 8.46582 47.1514 13.0049 70.7617c3.75977 19.584 3.86328 39.1084 7.04688 58.4805c1.78418 10.8369 6.7666 26.0303 -10.3184 12.9365
c-7.06152 -5.40625 -12.2656 -15.9961 -16.79 -23.3877c-10.709 -17.499 -19.3477 -36.3535 -27.7939 -55.0156c-34.7178 -76.7041 -59.7812 -157.43 -85.4072 -237.534c-1.91211 -15.5869 -6.06641 -31.248 -15.8145 -40.7734
c-5.39648 -5.27832 -11.0195 -8.82617 -18.4219 -10.6592c-7.93457 -1.96582 -19.1953 -2.36035 -25.4297 4.19922c-35.6201 37.4775 -40.2773 102.138 -42.6924 151.502c-2.75977 56.4697 -1.10938 113.235 11.1123 168.542c5.3418 24.167 31.3467 40.0352 54.0156 43.8887
c17.0654 2.89746 49.2061 -3.13477 48.1807 -27.0898c-2.37012 -55.4355 -7.05664 -110.53 -8.18555 -166.024c16.0996 47.8115 34.1562 94.9238 55.8496 140.572c14.3311 30.1641 32.0625 67.4395 62.5322 84.5195c27.9414 15.666 58.4658 3.25684 82.4902 -14.3359
c32.3916 -23.7139 27.8828 -78.4736 26.6016 -114.217c-1.68555 -47.1514 -5.61816 -94.002 -9.87598 -140.971c-3.76465 -41.5283 -9.25977 -83.2734 -12.0537 -124.792c-0.330078 -4.88867 -2.54297 -16.2578 4.35645 -16.9824
c6.44043 -0.674805 17.2373 17.5049 20.0762 21.7529c10.9648 16.4248 20.6143 33.7861 29.7949 51.251c37.7236 71.7617 66.0938 147.53 113.654 213.822z" />
    <glyph glyph-name="o" unicode="o" horiz-adv-x="261" 
d="M263.945 248.003c13.1582 15.5625 47.0127 7.18457 29.7549 -13.5918c-23.7578 -28.6025 -56.5879 -54.6865 -93.1641 -72.3975c-7.92871 -59.9736 -35.1465 -118.307 -92.1143 -140.518c-41.6123 -16.2275 -90.4834 -6.72656 -114.281 33.6387
c-25.2754 42.874 -19.7607 102.932 -12.8662 149.787c0.669922 4.56348 2.22754 8.85059 4.4502 12.8369c-13.3701 46.7568 3.51367 103 46.7324 133.845c32.5146 23.2061 76.6992 27.5283 110.495 4.91895c35.8564 -23.9844 49.9756 -68.2676 56.5195 -108.909
c2.52832 -15.7002 3.79492 -32.7363 3.58789 -50.2109c23.8076 13.7939 45.0078 31.8252 60.8857 50.6006zM142.533 100.35c6.74121 14.2471 11.4336 29.5527 14.4541 45.2734c-27.4883 -7.37695 -55.8291 -9.32324 -83.1455 -3.80371
c-0.404297 -18.002 1.23633 -35.7773 7.30762 -52.3105c4.24805 -11.5664 11.0586 -21.6045 24.335 -22.7725c19.0518 -1.67578 30.0957 18.9229 37.0488 33.6133zM160.921 178.812c0.674805 13.3994 0.338867 26.7891 -0.868164 39.7988
c-3.50391 37.7832 -13.5371 84.4463 -46.249 108.091c-41.873 30.2627 -83.0469 -9.13672 -90.7002 -51.3555c-1.83789 -10.1514 -1.80859 -20.3428 -0.177734 -30.1592c28.8145 8.89551 61.2412 0.946289 57.6533 -34.2598
c-1.03516 -10.1865 -2.44434 -20.7666 -3.71582 -31.5146c27.0449 -10.3779 56.1846 -9.10156 84.0576 -0.600586z" />
    <glyph glyph-name="o" unicode="&#xf6;" horiz-adv-x="261" 
d="M263.945 248.003c13.1582 15.5625 47.0127 7.18457 29.7549 -13.5918c-23.7578 -28.6025 -56.5879 -54.6865 -93.1641 -72.3975c-7.92871 -59.9736 -35.1465 -118.307 -92.1143 -140.518c-41.6123 -16.2275 -90.4834 -6.72656 -114.281 33.6387
c-25.2754 42.874 -19.7607 102.932 -12.8662 149.787c0.669922 4.56348 2.22754 8.85059 4.4502 12.8369c-13.3701 46.7568 3.51367 103 46.7324 133.845c32.5146 23.2061 76.6992 27.5283 110.495 4.91895c35.8564 -23.9844 49.9756 -68.2676 56.5195 -108.909
c2.52832 -15.7002 3.79492 -32.7363 3.58789 -50.2109c23.8076 13.7939 45.0078 31.8252 60.8857 50.6006zM142.533 100.35c6.74121 14.2471 11.4336 29.5527 14.4541 45.2734c-27.4883 -7.37695 -55.8291 -9.32324 -83.1455 -3.80371
c-0.404297 -18.002 1.23633 -35.7773 7.30762 -52.3105c4.24805 -11.5664 11.0586 -21.6045 24.335 -22.7725c19.0518 -1.67578 30.0957 18.9229 37.0488 33.6133zM160.921 178.812c0.674805 13.3994 0.338867 26.7891 -0.868164 39.7988
c-3.50391 37.7832 -13.5371 84.4463 -46.249 108.091c-41.873 30.2627 -83.0469 -9.13672 -90.7002 -51.3555c-1.83789 -10.1514 -1.80859 -20.3428 -0.177734 -30.1592c28.8145 8.89551 61.2412 0.946289 57.6533 -34.2598
c-1.03516 -10.1865 -2.44434 -20.7666 -3.71582 -31.5146c27.0449 -10.3779 56.1846 -9.10156 84.0576 -0.600586z" />
    <glyph glyph-name="o" unicode="&#xf5;" horiz-adv-x="261" 
d="M263.945 248.003c13.1582 15.5625 47.0127 7.18457 29.7549 -13.5918c-23.7578 -28.6025 -56.5879 -54.6865 -93.1641 -72.3975c-7.92871 -59.9736 -35.1465 -118.307 -92.1143 -140.518c-41.6123 -16.2275 -90.4834 -6.72656 -114.281 33.6387
c-25.2754 42.874 -19.7607 102.932 -12.8662 149.787c0.669922 4.56348 2.22754 8.85059 4.4502 12.8369c-13.3701 46.7568 3.51367 103 46.7324 133.845c32.5146 23.2061 76.6992 27.5283 110.495 4.91895c35.8564 -23.9844 49.9756 -68.2676 56.5195 -108.909
c2.52832 -15.7002 3.79492 -32.7363 3.58789 -50.2109c23.8076 13.7939 45.0078 31.8252 60.8857 50.6006zM142.533 100.35c6.74121 14.2471 11.4336 29.5527 14.4541 45.2734c-27.4883 -7.37695 -55.8291 -9.32324 -83.1455 -3.80371
c-0.404297 -18.002 1.23633 -35.7773 7.30762 -52.3105c4.24805 -11.5664 11.0586 -21.6045 24.335 -22.7725c19.0518 -1.67578 30.0957 18.9229 37.0488 33.6133zM160.921 178.812c0.674805 13.3994 0.338867 26.7891 -0.868164 39.7988
c-3.50391 37.7832 -13.5371 84.4463 -46.249 108.091c-41.873 30.2627 -83.0469 -9.13672 -90.7002 -51.3555c-1.83789 -10.1514 -1.80859 -20.3428 -0.177734 -30.1592c28.8145 8.89551 61.2412 0.946289 57.6533 -34.2598
c-1.03516 -10.1865 -2.44434 -20.7666 -3.71582 -31.5146c27.0449 -10.3779 56.1846 -9.10156 84.0576 -0.600586z" />
    <glyph glyph-name="o" unicode="&#xf4;" horiz-adv-x="261" 
d="M263.945 248.003c13.1582 15.5625 47.0127 7.18457 29.7549 -13.5918c-23.7578 -28.6025 -56.5879 -54.6865 -93.1641 -72.3975c-7.92871 -59.9736 -35.1465 -118.307 -92.1143 -140.518c-41.6123 -16.2275 -90.4834 -6.72656 -114.281 33.6387
c-25.2754 42.874 -19.7607 102.932 -12.8662 149.787c0.669922 4.56348 2.22754 8.85059 4.4502 12.8369c-13.3701 46.7568 3.51367 103 46.7324 133.845c32.5146 23.2061 76.6992 27.5283 110.495 4.91895c35.8564 -23.9844 49.9756 -68.2676 56.5195 -108.909
c2.52832 -15.7002 3.79492 -32.7363 3.58789 -50.2109c23.8076 13.7939 45.0078 31.8252 60.8857 50.6006zM142.533 100.35c6.74121 14.2471 11.4336 29.5527 14.4541 45.2734c-27.4883 -7.37695 -55.8291 -9.32324 -83.1455 -3.80371
c-0.404297 -18.002 1.23633 -35.7773 7.30762 -52.3105c4.24805 -11.5664 11.0586 -21.6045 24.335 -22.7725c19.0518 -1.67578 30.0957 18.9229 37.0488 33.6133zM160.921 178.812c0.674805 13.3994 0.338867 26.7891 -0.868164 39.7988
c-3.50391 37.7832 -13.5371 84.4463 -46.249 108.091c-41.873 30.2627 -83.0469 -9.13672 -90.7002 -51.3555c-1.83789 -10.1514 -1.80859 -20.3428 -0.177734 -30.1592c28.8145 8.89551 61.2412 0.946289 57.6533 -34.2598
c-1.03516 -10.1865 -2.44434 -20.7666 -3.71582 -31.5146c27.0449 -10.3779 56.1846 -9.10156 84.0576 -0.600586z" />
    </font>
</defs>
</svg>
