<?xml version="1.0" standalone="no"?>
<!DOCTYPE svg PUBLIC "-//W3C//DTD SVG 1.1//EN" "http://www.w3.org/Graphics/SVG/1.1/DTD/svg11.dtd" >
<svg xmlns="http://www.w3.org/2000/svg" xmlns:xlink="http://www.w3.org/1999/xlink" version="1.1">
<metadata>
Created by FontForge 20170812 at Fri Feb 18 11:49:08 2022
 By www-data
</metadata>
<defs>
<font id="PinkinkRegular" horiz-adv-x="0" >
  <font-face 
    font-family="Pinkink"
    font-weight="400"
    font-stretch="normal"
    units-per-em="1000"
    panose-1="0 0 0 0 0 0 0 0 0 0"
    ascent="800"
    descent="-200"
    x-height="391.03"
    cap-height="669.591"
    bbox="-505.998 -470.692 1222.65 932.148"
    underline-thickness="50"
    underline-position="-100"
    unicode-range="U+000A-20AC"
  />
<missing-glyph horiz-adv-x="527" 
d="M50 700h427v-700h-427v700zM78 680l185 -309l186 309h-371zM251 350l-180 300v-601zM264 329l-185 -308h370zM276 350l181 -303v605z" />
    <glyph glyph-name=".notdef" horiz-adv-x="527" 
d="M50 700h427v-700h-427v700zM78 680l185 -309l186 309h-371zM251 350l-180 300v-601zM264 329l-185 -308h370zM276 350l181 -303v605z" />
    <glyph glyph-name=".null" 
 />
    <glyph glyph-name=".null" 
 />
    <glyph glyph-name="LF" unicode="&#xa;" 
 />
    <glyph glyph-name="controlCR" unicode="&#xd;" 
 />
    <glyph glyph-name="space" unicode=" " horiz-adv-x="459" 
 />
    <glyph glyph-name="exclam" unicode="!" horiz-adv-x="576" 
d="M477.154 805.202c7.46484 10.9639 51.1768 17.0283 48.8232 -3.7666c-6.9541 -61.4443 -37.2432 -115.455 -63.9531 -170.281c-27.2139 -55.8594 -54.1348 -111.862 -80.0225 -168.351c-53.7676 -117.292 -105.493 -235.343 -156.272 -353.954
c-17.0029 -39.7217 -131.499 -28.166 -112.192 17.6328c99.1992 235.268 219.853 467.516 363.617 678.72zM123.28 26.6787c9.8125 5.74707 42.3926 8.97754 46.415 -6.98633c4.68848 -18.5723 -3.78516 -36.1729 -10.54 -53.5928
c-7.63281 -19.6924 -15.5586 -39.3047 -23.54 -58.8545c-12.2344 -29.9658 -98.166 -21.3613 -84.0518 13.2051c15.0791 36.9268 36.0605 85.3525 71.7168 106.229z" />
    <glyph glyph-name="quotedbl" unicode="&#x22;" horiz-adv-x="408" 
d="M205.635 780.155c10.4717 -1.78711 42.7217 -14.2354 30.6055 -30.7275c-36.4717 -49.6523 -74.9668 -100.083 -123.181 -138.939c-11.6113 -9.35742 -27.7051 -11.4248 -41.9688 -7.83887c-8.14355 2.04883 -26.6602 10.666 -19.4629 22.6016
c29.1504 48.3701 67.1602 91.6162 100.096 137.458c11.9229 16.5928 34.4736 20.7646 53.9111 17.4463zM334.063 717.207c9.16504 -2.18555 30.1904 -12.1787 21.9971 -25.5459c-26.4541 -43.1709 -65.9521 -76.9033 -107.804 -104.36
c-8.45508 -5.54102 -52.3672 -4.7998 -41.9512 13.9219c21.4482 38.5635 48.8242 75.9072 80.3213 107.124c11.6738 11.5684 32.4688 12.4277 47.4365 8.86035z" />
    <glyph glyph-name="quotedbl" unicode="&#x201d;" horiz-adv-x="408" 
d="M205.635 780.155c10.4717 -1.78711 42.7217 -14.2354 30.6055 -30.7275c-36.4717 -49.6523 -74.9668 -100.083 -123.181 -138.939c-11.6113 -9.35742 -27.7051 -11.4248 -41.9688 -7.83887c-8.14355 2.04883 -26.6602 10.666 -19.4629 22.6016
c29.1504 48.3701 67.1602 91.6162 100.096 137.458c11.9229 16.5928 34.4736 20.7646 53.9111 17.4463zM334.063 717.207c9.16504 -2.18555 30.1904 -12.1787 21.9971 -25.5459c-26.4541 -43.1709 -65.9521 -76.9033 -107.804 -104.36
c-8.45508 -5.54102 -52.3672 -4.7998 -41.9512 13.9219c21.4482 38.5635 48.8242 75.9072 80.3213 107.124c11.6738 11.5684 32.4688 12.4277 47.4365 8.86035z" />
    <glyph glyph-name="quotedbl" unicode="&#x201c;" horiz-adv-x="408" 
d="M205.635 780.155c10.4717 -1.78711 42.7217 -14.2354 30.6055 -30.7275c-36.4717 -49.6523 -74.9668 -100.083 -123.181 -138.939c-11.6113 -9.35742 -27.7051 -11.4248 -41.9688 -7.83887c-8.14355 2.04883 -26.6602 10.666 -19.4629 22.6016
c29.1504 48.3701 67.1602 91.6162 100.096 137.458c11.9229 16.5928 34.4736 20.7646 53.9111 17.4463zM334.063 717.207c9.16504 -2.18555 30.1904 -12.1787 21.9971 -25.5459c-26.4541 -43.1709 -65.9521 -76.9033 -107.804 -104.36
c-8.45508 -5.54102 -52.3672 -4.7998 -41.9512 13.9219c21.4482 38.5635 48.8242 75.9072 80.3213 107.124c11.6738 11.5684 32.4688 12.4277 47.4365 8.86035z" />
    <glyph glyph-name="numbersign" unicode="#" horiz-adv-x="847" 
d="M795.711 777.484c-26.8525 -83.0547 -71.6592 -160.664 -110.18 -238.726c-21.0684 -42.71 -41.8506 -85.5635 -62.583 -128.436c22.7129 -1.40723 45.3008 -3.62402 67.6582 -6.87402c37.5859 -5.4668 21.4043 -36.3916 -8.61133 -36.2734
c-26.5039 0.105469 -52.9395 0.65332 -79.3564 1.18848c-9.30762 -19.2568 -18.6094 -38.5264 -27.9541 -57.7646c-2.2666 -4.66309 -4.50781 -9.35742 -6.76172 -14.0332c15.2354 -1.23242 30.4639 -2.6582 45.6807 -4.49512
c33.415 -4.03418 11.3438 -30.6191 -13.3428 -27.5938c-15.1729 1.86133 -30.3643 3.26855 -45.5557 4.46387c-68.3555 -143.877 -132.06 -291.563 -214.666 -427.614c-14.0518 -23.1416 -85.7002 -23.2783 -76.0752 11.9541
c39.417 144.231 104.491 282.256 167.754 418.238c-28.1289 -1.05176 -56.1768 -3.26172 -84.1123 -6.51758c-30.8623 -65.1182 -60.9336 -130.604 -91.8584 -195.69c-18.3105 -38.5391 -36.2285 -77.2334 -55.1934 -115.455
c-18.2607 -36.8145 -35.5693 -77.165 -62.3906 -108.575c-12.8633 -15.0674 -71.083 -17.0225 -70.79 10.9258c0.411133 39.5977 19.6748 82.2891 32.6309 119.365c13.7842 39.4414 29.2998 78.2422 44.6777 117.086c19.4629 49.1602 40.2764 97.8105 61.4824 146.273
c-41.3721 -10.5098 -82.2148 -23.416 -122.298 -38.7441c-17.6689 -6.76172 -51.0781 11.5801 -23.123 22.5498c52.2178 20.4961 105.668 36.8271 159.891 49.2041c6.89258 15.6025 13.7969 31.1982 20.708 46.7754c3.97852 8.95898 8.03809 17.8936 12.0537 26.8467
c-26.7529 -3.97852 -53.5312 -7.85156 -80.4648 -11.002c-19.7549 -2.30957 -56.8057 19.1885 -22.3389 30.2021c39.9336 12.7568 81.6855 21.2861 123.91 27.4434c58.9473 128.959 121.904 256.511 189.444 380.962c22.1895 40.8926 146.286 29.082 122.509 -19.25
c-56.9932 -115.841 -114.241 -231.495 -170.736 -347.554c0.193359 0.0126953 0.392578 0.03125 0.585938 0.0439453c26.5791 1.92969 53.4443 3.5791 80.4219 4.64355c24.0762 50.7236 48.5879 101.248 73.2363 151.685c38.2275 78.2051 74.4189 159.342 124.812 230.61
c19.5557 27.6562 116.271 31.5664 100.936 -15.8633zM458.265 328.874c6.15137 13.3984 12.415 26.7461 18.6533 40.1006c-16.1689 -0.374023 -32.3506 -0.927734 -48.5566 -1.93652c-11.0137 -0.691406 -21.9902 -1.5752 -32.9414 -2.6084
c-10.4971 -21.6602 -21.0312 -43.2959 -31.46 -64.9932c-0.722656 -1.5127 -1.43262 -3.02539 -2.15527 -4.53809c27.625 2.71484 55.3496 4.4082 83.1426 5.11133c4.46387 9.63184 8.90332 19.251 13.3174 28.8643z" />
    <glyph glyph-name="dollar" unicode="$" horiz-adv-x="676" 
d="M558.459 708.419c129.457 -58.6553 43.709 -201.189 -16.4033 -281.442c-10.8457 -14.4814 -59.0166 -5.9082 -43.7627 14.582c39.0869 52.498 108.189 142.606 66.4502 210.937c-6.66797 10.9199 -15.3721 19.3252 -25.4395 25.6504
c-68.4365 -110.014 -131.93 -222.947 -190.448 -338.384c1.94238 -4.2334 3.87891 -8.41699 5.78418 -12.4766c50.5928 -107.723 101.802 -246.015 0.678711 -342.075c-49.6338 -47.1494 -123.984 -69.8242 -188.044 -54.2344
c-18.2549 -47.6104 -35.75 -95.5322 -52.3115 -143.809c-6.10156 -17.7812 -56.6377 -13.2803 -49.3408 7.75098c18.0059 51.9004 37.1074 103.408 57.0488 154.573c-18.0557 11.1572 -34.2373 26.4355 -47.374 46.4336c-63.3057 96.3975 2.2168 255.684 86.3359 319.469
c8.75977 6.64355 22.2021 9.24023 32.6738 4.88184c6.45605 -2.68359 17.8682 -11.5059 8.56641 -18.6221c-57.3223 -43.8555 -94.1553 -123.928 -101.651 -194.917c-4.32715 -40.9297 8.69727 -88.6084 36.1602 -119.844c35.7432 89.2432 74.4004 177.298 115.996 263.927
c-5.89648 12.2715 -11.9355 24.4492 -17.9004 36.5713c-54.21 110.194 -111.938 241.656 -18.5977 348.955c39.9395 45.9043 99.7842 68.7471 157.661 81.7969c46.1162 10.3975 96.4346 14.2891 143.229 3.78613c18.0244 27.793 36.2607 55.4492 54.9512 82.8125
c9.51953 13.9336 53.6621 8.05664 43.7129 -6.86719c-19.7236 -29.5732 -38.9678 -59.4395 -57.9756 -89.4551zM230.551 -44.3447c66.2881 14.208 72.9502 92.7119 69.0088 148.291c-2.2168 31.2422 -10.3545 61.0459 -21.3242 89.9717
c-35.7188 -77.4512 -69.1279 -155.974 -100.239 -235.461c15.4658 -5.54688 33.042 -6.98535 52.5547 -2.80176zM325.759 394.407c53.5557 101.559 111.165 200.982 172.864 297.89c-48.3818 6.91699 -106.744 -11.6055 -139.854 -35.3643
c-87.3135 -62.6523 -67.7705 -171.346 -33.0107 -262.525z" />
    <glyph glyph-name="percent" unicode="%" horiz-adv-x="1003" 
d="M888.501 788.162c15.8018 8.79688 85.2676 3.35254 58.9062 -25.9092c-64.5576 -71.6367 -142.184 -132.863 -211.915 -199.5c-69.3945 -66.3135 -136.778 -134.911 -201.074 -206.18c-132.334 -146.685 -246.5 -305.285 -358.773 -467.416
c-16.9102 -24.418 -50.2695 -29.7471 -78.1436 -25.2891c-17.3828 2.7832 -59.2217 19.3379 -44.3662 44.541c102.193 173.356 232.709 333.271 369.688 480.187c70.0117 75.0918 143.248 146.952 220.282 214.834c75.9941 66.9609 156.614 135.316 245.396 184.732z
M782.425 395.666c73.7285 -40.1201 60.3545 -138.548 31.7705 -203.267c-31.3418 -70.958 -94.9033 -139.687 -165.107 -173.773c-36.8955 -17.9121 -82.3262 -22.0088 -119.801 -3.16895c-41.3965 20.8135 -51.0713 62.4531 -43.0273 105.375
c17.1338 91.4102 87.0645 155.8 157.431 210.072c21.959 16.9414 54.7578 20.5146 80.1221 8.72266c24.9355 -11.5928 26.8037 -30.7129 5.5166 -46.3838c-60.4541 -44.4912 -124.451 -95.5068 -147.419 -170.15c-8.77832 -28.5273 -15.7822 -88.3223 30.1963 -71.7803
c33.1787 11.9355 65.5723 35.4512 89.9658 60.5361c47.3545 48.7002 84.9971 117.977 82.1826 187.633c-1.5625 38.7197 -20.29 77.084 -62.7949 81.8779c-26.9209 3.03809 -116.121 -19.0332 -109.104 -59.2969c3.13184 -17.9561 -44.5908 -18.834 -48.7373 0
c-8.80371 39.9893 59.7324 71.1318 89.9658 80.3086c40.9297 12.4209 90.2148 14.3135 128.841 -6.70508zM301.509 556.396c-23.9453 -23.5469 -49.541 -46.3232 -68.9844 -73.9414c-15.4277 -21.9092 -39.7275 -57.7705 -35.8115 -86.1484
c1.41309 -10.2227 -5.95215 -7.24707 6.6123 -8.51758c5.60352 -0.566406 14.1396 2.67773 19.4502 4.24023c15.4092 4.53906 30.9053 12.1162 44.2285 21.1436c24.3379 16.4922 45.6182 39.9082 61.127 64.7314c26.8096 42.916 58.8232 151.871 -24.126 154.119
c-64.333 1.74902 -126.22 -53.8867 -157.2 -105.201c-9.73145 -16.1191 -58.8047 -9.80566 -48.4014 7.6084c45.3311 75.8887 137.363 139.506 229.533 125.124c103.899 -16.2129 91.79 -128.754 46.0293 -197.178c-43.5879 -65.1738 -141.828 -140.882 -225.574 -116.177
c-128.629 37.9414 8.36133 197.209 59.3711 241.426c19.2139 16.6543 50.8916 19.4688 74.2705 11.1006c17.5576 -6.27539 37.4746 -24.6299 19.4756 -42.3301z" />
    <glyph glyph-name="ampersand" unicode="&#x26;" horiz-adv-x="771" 
d="M720.994 789.046c-2.37793 -101.347 -75.9629 -192.937 -144.449 -260.825c-70.7207 -70.0986 -153.819 -123.68 -238.169 -175.368c3.2998 -62.6211 16.2939 -125.08 45.0518 -179.688c0.136719 -0.261719 0.291992 -0.516602 0.428711 -0.77832
c10.0547 8.28711 19.9482 16.7666 29.6982 25.3584c86.5977 76.3311 163.239 163.271 228.618 258.373c10.0488 14.6123 56.0156 8.10645 45.5869 -7.16602c-66.5186 -97.4248 -143.964 -186.874 -232.292 -265.172c-16.4551 -14.5879 -33.6143 -29.0566 -51.4023 -42.8779
c49.3594 -64.2461 128.087 -91.0244 208.564 -57.7715c20.041 8.28711 79.1631 -12.9434 43.6748 -32.2627c-96.2852 -52.4287 -224.143 -37.748 -303.854 38.7881c-3.11914 3.00098 -5.99512 6.18848 -8.94043 9.32031
c-47.791 -28.8018 -99.7842 -49.4219 -156.254 -52.4971c-36.7207 -1.99902 -79.3125 4.8125 -106.595 31.7148c-28.0732 27.6865 -38.2959 77.3076 -24.6855 113.86c30.2646 81.2861 123.032 137.14 195.217 182.396
c-0.205078 8.10645 -0.323242 16.1689 -0.273438 24.1191c0.647461 104.217 25.29 209.355 71.1191 302.951c41.9512 85.6758 104.242 178.213 197.694 212.456c47.1309 17.2705 106.141 18.5967 149.243 -10.0742c37.835 -25.165 53.0518 -70.9697 52.0186 -114.856z
M278.836 102.195c14.5811 7.16602 28.6025 15.3027 42.2441 24.0254c-36.2979 50.5742 -55.4678 112.891 -64.1221 175.848c-29.9531 -19.8857 -58.7861 -41.2656 -85.2715 -65.9824c-32.7734 -30.582 -90.9863 -99.4854 -47.3604 -143.348
c38.7939 -39 113.394 -10.7529 154.51 9.45703zM338.992 432.172c61.2451 42.6045 119.197 89.125 170.331 144.549c58.5488 63.4551 130.247 163.195 106.171 255.639c-29.4736 113.151 -156.695 -54.7266 -180.609 -94.0684
c-52.0801 -85.6758 -84.6982 -182.739 -94.0811 -282.579c-0.728516 -7.78223 -1.30762 -15.6455 -1.81152 -23.54z" />
    <glyph glyph-name="quotesingle" unicode="'" horiz-adv-x="255" 
d="M185.096 731.735c13.4541 -4.59473 28.0098 -18.5986 14.6797 -31.9033c-35.9111 -35.8242 -69.6621 -77.2334 -112.248 -105.207c-7.46484 -4.89941 -39.3174 -6.29395 -37.4492 8.8418c5.67188 46.0664 47.5479 88.4717 79.0518 119.9
c13.4111 13.3799 39.249 14.0713 55.9658 8.36816z" />
    <glyph glyph-name="quotesingle" unicode="&#x2019;" horiz-adv-x="255" 
d="M185.096 731.735c13.4541 -4.59473 28.0098 -18.5986 14.6797 -31.9033c-35.9111 -35.8242 -69.6621 -77.2334 -112.248 -105.207c-7.46484 -4.89941 -39.3174 -6.29395 -37.4492 8.8418c5.67188 46.0664 47.5479 88.4717 79.0518 119.9
c13.4111 13.3799 39.249 14.0713 55.9658 8.36816z" />
    <glyph glyph-name="quotesingle" unicode="&#x2018;" horiz-adv-x="255" 
d="M185.096 731.735c13.4541 -4.59473 28.0098 -18.5986 14.6797 -31.9033c-35.9111 -35.8242 -69.6621 -77.2334 -112.248 -105.207c-7.46484 -4.89941 -39.3174 -6.29395 -37.4492 8.8418c5.67188 46.0664 47.5479 88.4717 79.0518 119.9
c13.4111 13.3799 39.249 14.0713 55.9658 8.36816z" />
    <glyph glyph-name="parenleft" unicode="(" horiz-adv-x="770" 
d="M717.104 900.746c14.5625 -18.8584 -29.2363 -24.8984 -39.9824 -13.3369c-39.0557 42.0693 -112.379 -24.1562 -141.572 -52.2109c-40.7061 -39.1182 -75.2539 -85.3525 -105.917 -132.589c-62.3721 -96.0732 -117.403 -198.136 -163.942 -302.795
c-47.6787 -107.23 -85.0039 -222.567 -92.1201 -340.395c-3.05664 -50.6113 -5.67188 -111.613 22.9805 -156.186c32.2012 -50.1064 94.4795 -56.1895 143.678 -28.0977c15.9326 9.0957 62.4658 -5.05566 36.5283 -20.8203
c-98.9688 -60.1494 -221.702 -17.9062 -285.699 71.9229c-70.1611 98.4893 -35.9746 230.263 -3.44336 336.56c34.9648 114.271 90.3828 221.521 153.178 322.743c62.0049 99.9463 130.977 200.166 224.883 272.948c41.0918 31.8457 88.1787 60.7656 140.004 70.3604
c38.0967 7.05371 85.8809 4.96191 111.426 -28.1045z" />
    <glyph glyph-name="parenright" unicode=")" horiz-adv-x="723" 
d="M661.442 719.215c23.0361 -113.438 8.53223 -234.276 -16.7949 -346.183c-24.25 -107.1 -63.9219 -210.645 -122.11 -304.034c-55.8906 -89.6914 -129.227 -177.092 -232.043 -212.792c-73.2051 -25.4141 -204.337 -36.0107 -239.165 54.416
c-11.1885 29.0508 51.7373 27.7432 63.8779 10.0361c60.4297 -88.1289 170.735 19.4932 214.019 69.1201c68.2178 78.2168 119.949 170.125 156.782 266.902c38.084 100.07 60.5781 204.772 73.2422 310.92c4.53223 38.0156 27.3945 346.034 -74.7061 292.951
c-14.0146 -7.28418 -55.8408 4.8125 -32.4004 18.4658c41.0605 23.9199 93.0166 14.8613 130.883 -11.5869c48.3945 -33.8008 67.2031 -93.0039 78.416 -148.216z" />
    <glyph glyph-name="asterisk" unicode="*" horiz-adv-x="488" 
d="M432.391 524.104c25.1904 -30.1279 -47.8721 -40.3613 -66.0273 -21.9883c-21.3799 21.623 -70.5215 -6.41895 -101.589 -24.8232c29.3613 -43.7002 33.4082 -98.4141 26.5537 -151.684c-4.54492 -35.3574 -92.3252 -32.5557 -88.1348 0
c3.7793 29.3809 7.91309 60.3926 6.5498 90.6943c-24.1758 -30.5762 -53.2822 -56.2959 -86.7402 -73.7783c-17.3457 -9.06543 -44.2051 -11.0205 -61.2891 -0.000976562c-14.8369 9.56934 -16.3809 25.6885 0 34.9336c46.29 26.124 89.2432 54.3096 124.227 95.0215
c2.83301 3.2998 5.50977 6.72363 8.10645 10.21c-19.792 36.3408 -56.1641 41.0107 -100.705 34.1182c-23.1484 -3.58008 -43.3086 20.415 -12.4404 25.7197c50.9658 8.75977 95.7119 6.74902 136.592 -19.4688c16.5986 36.8516 24.5869 78.4414 27.2832 117.473
c1.24512 18.0742 46.2158 17.7754 45.8174 0c-0.75293 -33.957 -6.97266 -69.6572 -18.0674 -104.441c56.0898 24.0381 125.746 28.8076 159.864 -11.9854z" />
    <glyph glyph-name="plus" unicode="+" horiz-adv-x="360" 
d="M292.335 354.135c30.6572 -2.40918 17.8096 -30.9316 -7.05078 -29.7422c-21.6855 1.04004 -43.1152 0.859375 -64.4453 0.143555c-16.0879 -61.1582 -28.5273 -123.088 -38.2715 -185.634c-6.34473 -40.6934 -106.863 -36.2168 -100.787 0
c10.1484 60.4854 23.3916 120.722 40.0332 179.894c-16.3428 -1.0459 -32.7295 -1.99219 -49.2471 -2.57129c-15.8945 -0.553711 -35.0391 17.583 -11.6855 24.5938c22.8555 6.86719 46.9248 11.2998 71.5049 13.9766c2.87598 9.3457 5.82129 18.666 8.87207 27.9424
c13.3428 40.5312 28.9766 80.4961 46.2285 119.521c12.9941 29.3867 25.9004 71.9854 60.5234 81.0254c12.166 3.1748 66.4443 -1.28906 44.3232 -25.2656c-7.90039 -8.56055 -9.78027 -35.2393 -13.9023 -47.2061c-6.23828 -18.0986 -12.5449 -36.1543 -18.5527 -54.334
c-10.8018 -32.6738 -20.4893 -65.665 -29.9648 -98.7441c21.2432 -0.68457 42.2061 -2.01074 62.4219 -3.59863z" />
    <glyph glyph-name="comma" unicode="," horiz-adv-x="306" 
d="M166.17 70.8896c21.8652 30.1465 113.854 18.5898 84.543 -20.3164c-44.0801 -58.5186 -89.8223 -125.305 -152.717 -164.89c-11.7549 -7.40234 -54.1729 -7.02832 -47.2305 15.6719c9.30176 30.4141 31.2168 56.0527 50.0693 81.1875
c21.9717 29.293 43.8369 58.7109 65.335 88.3467z" />
    <glyph glyph-name="hyphen" unicode="-" horiz-adv-x="447" 
d="M344.624 370.192c16.0439 0.105469 52.6406 -6.7666 52.0928 -29.6973c-0.541992 -22.7812 -34.4922 -30.1465 -52.0928 -29.6924c-89.2188 2.30371 -181.376 -6.5 -270.04 2.88281c-23.2227 2.45898 -37.2061 29.5605 -8.43555 36.7891
c88.5459 22.2393 187.67 19.126 278.476 19.7178z" />
    <glyph glyph-name="period" unicode="." horiz-adv-x="190" 
d="M105.607 48.3203c11.3936 -0.87207 34.5947 -6.40527 34.2148 -22.082c-0.361328 -14.625 -4.02246 -29.4678 -6.37598 -43.8936c-3.06348 -18.7461 -25.5771 -23.3223 -41.6406 -23.7334c-9.41992 -0.243164 -21.2061 2.09766 -29.4434 6.94727
c-4.4082 2.59668 -13.71 10.1299 -12.1973 16.7852c3.73535 16.4619 6.3125 34.0254 12.1592 49.8701c5.49121 14.8799 30.4141 17.0898 43.2832 16.1064z" />
    <glyph glyph-name="slash" unicode="/" horiz-adv-x="764" 
d="M647.532 879.429c13.2363 15.1475 79.3564 8.03516 63.6611 -15.3057c-100.083 -148.683 -200.421 -297.409 -292.746 -451.085c-93.7012 -155.961 -172.074 -318.796 -257.239 -479.246c-19.002 -35.793 -128.306 -28.1602 -108.912 17.1152
c72.0156 168.158 169.845 328.608 267.431 482.951c98.7197 156.148 206.181 306.432 327.806 445.57z" />
    <glyph glyph-name="zero" unicode="0" horiz-adv-x="619" 
d="M297.919 414.993c-38.4951 -47.1748 -77.1475 -94.4922 -108.141 -147.07c-25.8564 -43.8438 -51.6572 -95.5068 -49.2725 -147.73c1.84961 -40.5254 30.1221 -87.3262 75.6221 -84.9912c47.125 2.42188 92.6367 46.3652 122.839 78.7217
c37.8916 40.5996 64.707 88.583 87.4883 138.908c25.707 56.7939 42.0254 117.51 48.3447 179.515c5.43555 53.4004 10.0557 118.014 -17.4385 166.757c-39.0312 69.1953 -129.7 23.4531 -171.969 -17.0342c-41.9385 -40.1768 -67.7637 -93.3965 -90.0283 -146.193
c-6.9541 -16.4922 -54.1973 -11.2812 -46.0596 7.23438c31.3975 71.4678 71.4805 142.855 140.072 184.626c53.8486 32.7861 132.869 51.1963 187.341 9.83105c119.664 -90.875 103.109 -282.411 58.5869 -407.292c-46.6143 -130.759 -164.335 -261.647 -311.512 -266.597
c-64.2959 -2.16699 -143.484 24.2373 -166.216 90.8613c-20.9883 61.5312 5.39746 131.667 33.209 186.487c31.1924 61.4814 73.542 116.221 117.198 169.254c44.833 54.459 86.2295 113.114 132.912 165.749c12.4648 14.0518 74.6816 12.7383 62.7646 -15.0859
c-23.0986 -53.9297 -68.9531 -100.861 -105.742 -145.95z" />
    <glyph glyph-name="one" unicode="1" horiz-adv-x="496" 
d="M247.55 -1.50098c-3.41211 -11.4561 -14.3779 -19.2383 -28.4111 -23.5654c26.2422 -9.24609 52.9326 -15.0049 75.4707 -0.87207c15.8389 9.93066 61.457 -4.83691 36.1855 -20.626c-30.4512 -19.0205 -65.9951 -20.5088 -100.431 -13
c-46.2715 10.0928 -94.5791 46.5771 -139.936 16.6426c-14.3633 -9.48242 -56.6504 2.62695 -33.7764 19.25c21.4238 15.5654 45.6611 22.3701 70.7646 22.4512c-2.29785 5.47852 -2.83984 11.7236 -0.984375 18.7529c41.2412 156.061 126.487 298.306 197.844 441.834
c17.2646 34.7227 34.0811 69.6689 46.9756 106.271c6.30664 17.8877 16.3682 38.627 13.3926 58.0088c-4.95605 32.2939 -36.0234 20.8252 -57.0361 11.0381c-31.6592 -14.749 -60.4355 -37.2129 -85.6943 -61.1016c-26.4668 -25.0283 -61.8301 -58.0947 -67.4775 -95.6436
c-2.80762 -18.6719 -49.335 -17.7383 -47.2803 0c4.74414 40.9297 36.3164 74.9365 64.3398 103.047c31.3477 31.4473 68.5049 60.249 109.241 78.3477c32.4004 14.3945 74.3203 24.5117 107.38 6.40039c31.7842 -17.4141 39.3242 -62.1172 37.9355 -95.4014
c-1.99219 -47.71 -20.6143 -96.4287 -35.6934 -141.2c-15.4961 -45.9912 -34.2803 -90.7441 -52.6094 -135.658c-39.834 -97.6045 -80.085 -193.753 -110.2 -294.976z" />
    <glyph glyph-name="two" unicode="2" horiz-adv-x="658" 
d="M370.014 32.8477c-23.7393 -18.6963 -48.6094 -35.2129 -74.3604 -48.8916c-65.6533 -34.8594 -157.069 -52.9961 -225.275 -13.5361c-61.8369 35.7744 33.5449 103.855 68.2734 120.248c50.1064 23.6523 104.03 24.543 155.65 8.90332
c65.7402 59.6328 119.77 130.908 161.365 209.567c26.5908 50.2939 46.4893 104.497 58.2998 160.188c10.4971 49.4902 18.666 115.704 -20.2031 155.544c-45.1016 46.2275 -111.465 -20.6084 -140.447 -56.4014c-16.082 -19.8613 -29.1689 -42.7607 -37.7109 -66.8555
c-5.16113 -14.5684 -15.5645 -45.9912 -10.1543 -63.9717c21.0879 -9.77441 -8.47949 -24.5361 -23.1855 -23.3467c-76.1816 6.16406 -9.69434 125.716 12.084 154.418c42.9717 56.6377 109.066 112.995 185.379 102c164.036 -23.6338 138.348 -242.142 96.8262 -353.5
c-35.7119 -95.7744 -101.048 -192.62 -182.266 -264.15c50.0947 -26.5479 101.708 -50.667 157.854 -38.0156c21.7969 4.91211 40.0332 -17.6885 11.6611 -24.1133c-57.2295 -12.9629 -112.734 2.82031 -164.678 27.1201c-9.64453 4.50781 -19.3389 9.56348 -29.1133 14.793
zM132.14 7.03516c42.835 -2.2168 93.1582 35.9307 124.649 60.7227c4.53906 3.58008 9.00977 7.22852 13.4551 10.9082c-14.5566 3.95312 -29.4307 6.22559 -44.709 5.87109c-28.6025 -0.660156 -55.9902 -11.9541 -77.5693 -30.6201
c-9.48828 -8.19922 -19.3066 -18.292 -24.5176 -29.8848c-5.83398 -12.9746 -6.41309 -16.2188 8.69141 -16.9971z" />
    <glyph glyph-name="three" unicode="3" horiz-adv-x="701" 
d="M623.436 170.317c-5.24219 -108.232 -84.3447 -206.833 -171.247 -264.436c-85.9502 -56.9619 -219.535 -97.0693 -320.098 -60.6602c-44.2041 16.0068 -87.7363 56.5068 -81.4912 107.541c6.23242 50.9229 40.3818 102.3 75.5713 138.242
c59.5078 60.7715 179.215 123.249 259.145 64.3018c20.7822 -15.3281 -18.0117 -27.0146 -31.0244 -17.6816c-46.7197 33.5088 -114.515 0.374023 -153.657 -31.9385c-34.585 -28.5527 -70.0049 -72.1162 -76.5918 -118.164
c-6.97949 -48.8057 19.8672 -101.017 71.7549 -105.468c42.7725 -3.66699 89.0811 14.1641 125.603 34.7412c72.8066 41.0234 131.505 107.841 162.69 185.299c19.1016 47.4541 25.8691 99.0801 -0.80957 145.184c-21.5605 37.2627 -55.4111 56.9248 -97.5732 49.5654
c-21.3301 -3.72363 -56.5068 -0.567383 -70.042 19.5928c-12.9004 19.2139 5.43555 37.082 24.2939 42.2617c52.3672 14.376 102.237 40.3945 144.307 74.793c38.832 31.7529 97.1514 80.5957 90.6699 136.854c-7.90723 68.6104 -98.9502 48.3203 -139.687 25.9258
c-44.1484 -24.2754 -75.8945 -64.3896 -91.4717 -111.975c-5.64746 -17.2588 -54.5713 -13.1807 -47.9346 7.5332c20.4463 63.8223 70.2852 113.817 132.253 138.491c56.8242 22.625 136.542 26.5781 187.421 -12.8203c68 -52.6592 24.96 -137.065 -18.8896 -188.996
c-27.1016 -32.0947 -59.2588 -58.3496 -94.4355 -79.96c71.2686 -29.001 125.484 -90.6201 121.244 -178.227z" />
    <glyph glyph-name="four" unicode="4" horiz-adv-x="759" 
d="M445.153 -25.1162c-16.835 -47.3486 -151.592 -34.2734 -130.965 20.584c42.9844 114.241 89.748 226.216 140.142 336.516c-20.5146 10.2041 -47.7529 13.79 -76.623 13.4043c-0.466797 -0.666016 -0.920898 -1.34473 -1.39453 -2.01074
c-50.7607 -71.2939 -112.778 -144.792 -200.478 -169.272c-34.3428 -9.58789 -78.6221 -12.6572 -109.136 9.59473c-34.2744 24.9971 -8.76074 62.9814 13.9395 86.8398c61.5693 64.7002 169.603 94.3359 255.764 100.45
c2.29102 0.162109 4.71289 0.305664 7.20312 0.436523c9.37012 14.2695 18.3105 28.5771 26.8779 42.5977c47.1621 77.1895 84.4688 159.69 111.546 245.982c5.04883 16.082 50.4922 12.458 44.6523 -7.0166c-30.0098 -100.033 -73.791 -195.055 -131.432 -281.97
c23.5967 -1.56934 48.7812 -5.26758 71.3633 -12.4463c47.9531 103.488 99.0811 205.558 153.391 306.643c15.2227 28.335 102.219 22.7002 86.8652 -13.6475c-93.9688 -222.448 -180.809 -449.174 -261.716 -676.685zM199.157 219.317
c49.2285 28.9072 89.2002 73.5596 123.368 121.319c-38.6631 -5.77148 -74.2881 -15.5586 -94.2236 -22.8926c-39.0059 -14.3447 -80.0977 -33.0605 -108.171 -64.7822c-9.48828 -10.7207 -19.7803 -22.9297 -18.3105 -37.959
c1.88672 -19.2939 15.9199 -20.5205 34.3984 -19.0322c22.0273 1.77441 44.1729 12.3271 62.9385 23.3467z" />
    <glyph glyph-name="five" unicode="5" horiz-adv-x="668" 
d="M439.003 52.5967c-85.8691 -64.4893 -223.188 -113.41 -323.981 -54.873c-45.1016 26.1924 -69.4326 74.2881 -64.3584 126.244c5.44141 55.71 37.7666 100.867 72.4512 142.569c20.6699 24.8545 121.948 10.6963 97.8789 -23.5215
c-30.1963 -42.9287 -67.1543 -92.2266 -59.2783 -147.943c7.0166 -49.6211 44.46 -66.8545 89.4805 -54.041c91.584 26.0625 206.136 113.631 165.99 222.599c-16.667 45.2383 -54.042 79.4062 -101.291 90.2266c-54.4336 12.4648 -111.47 -14.9727 -165.281 4.06641
c-69.6875 24.6553 -0.124023 88.8076 25.415 120.778c32.9102 41.1973 65.2725 85.875 103.637 123.044c-71.96 19.0703 -147.338 25.2656 -149.804 -38.8125c-0.678711 -17.6572 -44.665 -17.5078 -44.8457 0c-0.915039 87.7676 127.378 84.667 184.314 70.4092
c11.748 -2.94531 23.4346 -6.16406 35.0898 -9.54492c1.73047 1.41309 3.44922 2.85742 5.21094 4.23926c10.6152 8.31152 52.3916 12.0469 46.3213 -11.1328c-0.722656 -2.75195 -1.51953 -5.47852 -2.37207 -8.19922c20.0166 -6.36914 39.9893 -12.8438 60.0059 -18.9639
c51.2461 -15.665 111.632 -35.0967 158.159 2.63867c13.5352 10.9697 60.4795 0.360352 42.5049 -14.165c-62.8262 -50.792 -142.843 -37.4619 -214.604 -15.7959c-11.6299 3.51172 -32.0137 11.2129 -56.4883 19.6426
c-13.0742 -28.3154 -31.2793 -55.0938 -47.3486 -80.8379c-11.3809 -18.2422 -23.1104 -36.2725 -34.6904 -54.3896c-4.84961 -7.57715 -14.4316 -18.4668 -22.1396 -29.6426c13.2363 1.31348 26.5166 2.61426 39.8096 2.81934
c30.2646 0.460938 60.4541 -3.39258 89.7041 -11.0381c51.6572 -13.498 99.1426 -41.8389 130.92 -85.209c68.1934 -93.0596 25.2344 -206.846 -60.4102 -271.166z" />
    <glyph glyph-name="six" unicode="6" horiz-adv-x="618" 
d="M389.823 65.4092c-16.3682 -98.4521 -116.16 -154.287 -210.739 -139.09c-49.1289 7.89453 -92.1758 37.1445 -114.552 82.0586c-24.3184 48.7998 -14.5811 104.996 3.39941 154.038c37.9541 103.52 108.09 194.774 180.225 276.814
c39.249 44.6406 80.0664 88.0479 124.146 127.963c41.1045 37.2256 83.6152 75.6084 136.193 95.4883c14.4756 5.47266 47.1436 5.49805 56.3701 -10.833c4.83105 -8.55469 2.69531 -15.1855 -2.45312 -20.123c0.149414 -0.00585938 0.298828 -0.0185547 0.448242 -0.03125
c-75.4346 -64.8379 -143.541 -140.882 -207.395 -217.088c-56.1709 -67.0293 -110.885 -137.01 -149.274 -215.874c43.0654 9.23926 88.2168 12.5947 128.231 -8.81641c44.6406 -23.8887 63.4805 -75.9131 55.3994 -124.507zM189.058 160.231
c-17.7686 -44.3975 -31.1357 -96.3291 -13.7773 -142.993c17.0029 -45.6924 54.9072 -50.2002 95.4131 -29.6416c46.4893 23.5898 74.4941 73.9082 65.0869 126.051c-13.3613 74.0586 -84.2012 67.4902 -141.337 53.083
c-0.87207 -0.217773 -1.88672 -0.422852 -2.91992 -0.62793c-0.80957 -1.96777 -1.6748 -3.89746 -2.46582 -5.87109z" />
    <glyph glyph-name="seven" unicode="7" horiz-adv-x="522" 
d="M178.16 -117.84c-9.84375 -48.7119 -133.003 -49.4893 -128.01 0.000976562c12.9248 128.479 75.085 245.833 144.741 357.123c-13.3799 -2.55859 -26.7412 -5.3418 -40.0713 -8.62891c-9.1084 -2.24805 -27.7305 -4.34668 -34.3428 5.12891
c-5.9707 8.56055 -1.12695 17.0215 9.00293 19.5742c28.7139 7.23438 57.7393 13.1865 86.9512 17.8809c30.9492 48.1641 62.5088 95.2637 91.2041 141.722c25.6943 41.5957 52.5723 84.9229 71.0762 130.292c14.5186 35.5938 28.4209 92.3496 -7.42871 121.275
c-35.8613 28.9326 -107.224 -2.60254 -141.604 -21c-40.917 -21.9033 -74.8672 -52.5107 -102.635 -89.499c-9.00879 -12.0098 -53.0449 -3.89746 -42.7598 10.2725c55.8477 76.9473 145.371 134.214 242.136 139.151c44.4414 2.27246 91.7773 -10.5713 119.975 -47.0059
c29.7354 -38.4082 30.8809 -86.915 19.126 -132.159c-22.2021 -85.458 -66.0576 -164.783 -111.109 -241.681c10.1982 -0.00585938 20.3965 -0.173828 30.6006 -0.578125c31.1924 -1.23926 31.4727 -29.9785 0 -29.4434
c-16.2188 0.280273 -32.3623 0.125 -48.4629 -0.323242c-8.75977 -14.8486 -17.4697 -29.6357 -25.9619 -44.3662c-59.9316 -103.931 -108.569 -209.667 -132.428 -327.736z" />
    <glyph glyph-name="eight" unicode="8" horiz-adv-x="606" 
d="M118.661 175.286c25.2031 36.7148 55.373 68.667 89.6348 95.9678c-30.3018 49.1729 -55.0752 101.378 -56.4014 160.843c-1.6123 72.2773 35.874 142.052 90.5947 187.645c54.9385 45.7676 127.216 73.168 199.257 63.4238
c64.6758 -8.75391 114.795 -52.8467 114.035 -121.114c-0.765625 -69.2949 -45.2383 -138.839 -85.7441 -192.177c-33.6455 -44.3037 -72.7695 -81.7471 -115.903 -115.286c31.1055 -52.8154 64.2402 -106.72 69.4512 -168.525
c6.00195 -71.1572 -21.3486 -137.95 -80.7568 -178.824c-91.0801 -62.6582 -281.321 -77.2764 -292.348 71.1572c-5.05566 68.0684 30.6191 142.17 68.1807 196.891zM302.57 513.532c-31.9209 -75.6025 -9.56445 -146.094 26.335 -214.243
c40.2637 38.4824 77.4893 80.4336 106.241 127.459c22.3828 36.6152 45.1572 80.3594 48.1641 123.842c2.52734 36.54 -13.2803 85.1523 -57.79 83.2539c-61.4502 -2.62109 -102.056 -70.8145 -122.95 -120.312zM246.685 212.643
c-6.00195 8.92773 -12.0586 17.9111 -18.0605 26.9697c-38.3398 -35.7061 -70.2734 -78.2168 -93.3779 -125.435c-33.7266 -68.916 -69.9932 -211.728 45.4863 -223.601c70.79 -7.28418 139.992 41.0361 146.946 113.949c7.25293 76.0752 -40.5752 148.011 -80.9941 208.116
z" />
    <glyph glyph-name="nine" unicode="9" horiz-adv-x="631" 
d="M107.659 185.204c13.3613 15.3164 82.5322 11.1201 67.21 -16.1562c-17.9375 -31.9395 -39.3359 -71.8232 -24.7109 -108.881c10.2539 -25.9746 24.1064 -36.3779 47.8027 -30.8613c62.2598 14.5 111.632 78.0547 147.22 126.785
c45.1631 61.8428 80.6953 132.321 105.661 204.648c12.9189 37.4365 23.7393 75.5205 31.8516 114.29c4.35156 20.8135 7.84473 41.6582 9.93066 62.8262c0.155273 1.58789 0.740234 7.41504 1.41895 14.7178c-5.74023 -9.84375 -10.8457 -19.5811 -15.5088 -26.7031
c-13.9463 -21.3174 -28.54 -42.2119 -43.9248 -62.5215c-32.7236 -43.208 -69.2637 -84.2246 -111.731 -118.112c-38.6387 -30.8252 -83.9014 -61.2139 -133.454 -70.0605c-41.4717 -7.40234 -96.0049 1.36426 -108.843 48.1777
c-12.6387 46.085 22.0771 94.4736 47.6162 129.918c29.5918 41.0732 65.3975 76.9844 106.222 106.882c55.8164 40.8799 182.696 105.698 245.392 45.4365c4.2334 3.38086 8.75977 6.31348 13.6533 8.59863c75.8516 35.4443 85.209 -73.9717 87.4756 -122.036
c3.43652 -72.8506 -13.542 -146.66 -38.0908 -214.859c-45.0205 -125.056 -140.533 -269.667 -273.744 -311.425c-62.2969 -19.5244 -158.563 -20.9375 -201.124 38.4209c-42.623 59.4463 -1.35059 133.878 39.6787 180.915zM369.307 454.534
c25.0537 30.6689 47 63.375 68.542 96.541c5.07422 7.82031 10.2725 16.3438 15.9258 24.6553c-1.66895 0.796875 -3.10059 1.7373 -4.06543 2.90137c-28.708 34.6289 -94.8467 0.970703 -125.167 -16.375c-36.0605 -20.627 -68.3115 -47.623 -96.5215 -78.0244
c-25.6074 -27.5938 -48.0273 -58.4307 -66.0947 -91.4785c-9.31445 -17.041 -21.4424 -39.7969 -16.3438 -60.125c7.83887 -31.2422 36.5283 -23.0234 59.8574 -13.4355c64.6504 26.5791 120.348 82.0713 163.867 135.341z" />
    <glyph glyph-name="colon" unicode=":" horiz-adv-x="314" 
d="M243.024 503.51c15.9199 -4.91895 28.2529 -19.3633 15.7197 -34.1807c-16.125 -19.0703 -32.543 -41.0977 -54.334 -53.9727c-17.1406 -10.123 -70.7715 -9.81836 -63.4932 21.0684c2.54688 10.7773 12.7266 22.3828 19.5566 30.8623
c7.40234 9.19531 14.9736 18.2539 22.5947 27.2627c12.9932 15.3721 43.1396 14.1582 59.9561 8.95996zM96.1709 167.014c18.666 24.3379 99.5596 7.71387 72.7441 -24.2383c-17.041 -20.2969 -35.4766 -38.165 -57.3799 -53.2129
c-11.7422 -8.06934 -30.3701 -7.19727 -43.3447 -3.1875c-7.62695 2.35938 -23.4658 12.626 -16.4365 23.0234c13.5918 20.1035 29.6553 38.377 44.417 57.6152z" />
    <glyph glyph-name="semicolon" unicode=";" horiz-adv-x="453" 
d="M376.604 515.868c11.0264 -2.65234 33.0156 -13.2666 24.6787 -28.6514c-11.3379 -20.8945 -25.7881 -43.3389 -43.0029 -59.8564c-10.3848 -9.96191 -27.3066 -11.2822 -40.8418 -9.47656c-8.61035 1.15137 -27.9111 7.85059 -26.5537 19.8789
c2.83887 25.1592 17.6758 48.4258 32.5127 68.168c10.5098 13.9902 38.4268 13.4922 53.207 9.9375zM253.254 175.064c12.2773 -2.09863 45.4443 -14.8926 33.3281 -33.459c-45.0635 -69.0771 -102.062 -125.261 -170.256 -171.414
c-17.0098 -11.5117 -87.5195 0.579102 -60.0439 26.4111c51.3828 48.3076 97.7725 101.745 138.272 159.467c12.751 18.167 37.7363 22.5752 58.6992 18.9951z" />
    <glyph glyph-name="less" unicode="&#x3c;" horiz-adv-x="502" 
d="M394.073 508.813c12.5078 8.0498 67.8887 7.81348 56.5889 -18.7773c-23.4219 -55.0938 -77.8369 -94.5234 -127.502 -125.734c-40.9482 -25.7324 -83.8887 -47.667 -127.477 -68.3682c42.0127 -16.96 89.7285 -19.0586 133.733 -28.3848
c15.7832 -3.34961 42.8291 -12.2344 38.3584 -33.4961c-4.38965 -20.8818 -35.0967 -26.3232 -52.5977 -26.4668c-90.457 -0.74707 -184.127 19.3633 -257.339 74.1338c-15.665 11.7109 -5.37305 34.1621 9.22656 40.7676c56.6006 25.6201 113.587 51.2031 167.629 81.96
c55.4609 31.5654 105.954 69.9609 159.379 104.366z" />
    <glyph glyph-name="equal" unicode="=" horiz-adv-x="684" 
d="M134.839 388.982c-19.251 1.25098 -42.0205 18.5664 -14.1465 29.7607c65.7656 26.4043 147.551 27.332 217.519 31.5225c76.0938 4.55078 152.25 4.61328 228.369 0.765625c15.2725 -0.772461 48.2021 -5.60352 48.2021 -27.4756
c0 -20.627 -32.332 -28.5215 -48.2021 -27.4756c-72.0039 4.74414 -144.219 6.26953 -216.354 3.95312c-70.9639 -2.27832 -144.636 -15.6455 -215.388 -11.0508zM605.704 314.452c48.332 -8.49805 29.1123 -49.1221 -11.3252 -47.7021
c-82.376 2.88867 -164.254 9.50684 -246.786 7.9873c-82.75 -1.52539 -165.325 -8.54199 -247.222 -20.3779c-13.9092 -2.01074 -42.6611 -0.610352 -49.124 15.8945c-6.66211 17.0156 14.8799 25.626 27.8926 27.998c170.032 31.0059 355.256 46.3281 526.564 16.2002z" />
    <glyph glyph-name="greater" unicode="&#x3e;" horiz-adv-x="542" 
d="M400.545 362.354c29.374 -10.8271 120.469 -40.3945 81.4316 -85.2402c-17.0781 -19.6182 -46.1475 -33.6953 -68.835 -45.5371c-28.7266 -14.9922 -58.499 -28.1162 -88.1787 -41.1035c-59.5645 -26.0742 -120.66 -50.5615 -183.605 -67.2227
c-24.7051 -6.53711 -64.6699 -9.20215 -83.9209 12.5449c-18.373 20.7578 0.492188 40.6064 22.0088 47.835c55.1621 18.5352 110.885 35.1152 165.524 55.2559c14.5625 5.36719 124.968 41.7021 144.866 59.9941c-12.085 8.42969 -28.3721 13.5664 -41.0918 18.7646
c-19.4873 7.95703 -39.168 15.3721 -58.4502 23.8271c-32.2754 14.1455 -75.1045 34.2617 -85.4766 71.1572c-6.76758 24.1006 36.2109 23.0918 48.8623 16.2119c48.5566 -26.4111 94.9717 -47.3613 146.865 -66.4873z" />
    <glyph glyph-name="question" unicode="?" horiz-adv-x="631" 
d="M556.184 767.386c53.9043 -67.042 6.95312 -170.341 -31.1748 -233.024c-45.7422 -75.1914 -103.476 -142.383 -158.924 -210.445c-55.1191 -67.6582 -103.333 -138.242 -143.783 -215.65c-20.9629 -40.127 -142.961 -32.2881 -122.042 19.1758
c67.6396 166.415 219.43 286.421 327.769 425.161c29.2002 37.3936 55.748 78.1426 72.0166 122.92c8.28027 22.8057 16.2246 48.6807 8.84668 72.75c-9.05859 29.542 -39.8027 39.248 -68.1992 35.3135c-73.7842 -10.2295 -213.894 -111.464 -162.778 -197.924
c9.93652 -16.8105 -36.9082 -22.3828 -46.0605 -7.23535c-49.4717 81.8594 52.7588 173.07 118.636 206.641c65.1426 33.1973 154.268 46.2783 205.694 -17.6816zM136.034 39.7383c15.1172 -0.498047 55.8398 -12.6816 34.6904 -34.46
c-6.27539 -6.46289 -11.1689 -21.4736 -15.5771 -30.4453c-6.31348 -12.832 -12.9756 -25.4834 -19.376 -38.2715c-14.1699 -28.2969 -98.8184 -21.5352 -84.0498 13.2061c7.69531 18.0986 16.1934 35.4629 25.875 52.584c13.4609 23.8086 28.7021 38.377 58.4375 37.3867z
" />
    <glyph glyph-name="at" unicode="@" horiz-adv-x="1036" 
d="M958.525 690.725c47.5732 -99.7158 27.7412 -220.822 -13.3438 -319.037c-42.2246 -100.942 -112.597 -202.763 -195.845 -274.293c-41.6953 -35.8242 -92.7979 -68.71 -148.415 -75.832c-59.6699 -7.63965 -120.891 15.334 -133.766 78.7148
c-10.6406 52.3672 4.02734 107.044 22.6807 155.899c8.51074 22.3018 19.7178 44.1982 30.9492 66.1631c-28.8633 -31.167 -56.625 -63.7041 -89.4424 -90.5439c-29.0693 -23.7705 -65.709 -51.5947 -105.655 -44.8896c-51.9805 8.72852 -38.2393 54.5146 -24.71 90.5947
c31.1426 83.0605 91.2168 163.102 168.227 208.862c34.1436 20.29 80.4404 32.3564 117.983 13.4414c23.0801 -11.6299 39.8594 -36.8643 35.2207 -61.2705c7.91992 -2.74609 12.9443 -7.77637 10.9834 -16.2129c-11.4062 -49.1484 -20.0664 -98.2158 -33.3096 -147.003
c-13.3428 -49.1484 -25.9258 -101.982 -20.5283 -153.31c1.1084 -10.5654 4.38281 -18.9268 7.52734 -28.7637c18.0117 12.377 38.4951 20.6514 55.7354 35.0771c38.0469 31.8457 70.665 70.4658 100.176 110.213c54.9883 74.0518 102.188 160.388 117.765 252.202
c13.915 82.0088 7.38379 180.853 -60.125 238.829c-135.31 116.208 -337.15 -32.5811 -434.793 -132.19c-119.533 -121.942 -220.188 -309.382 -197.868 -484.837c10.6465 -83.6836 60.4043 -166.515 145.053 -190.759c85.9248 -24.6113 177.889 12.2402 257.494 42.3867
c19.8916 7.5332 56.6064 6.56836 71.9414 -10.752c16.5488 -18.6904 -1.41895 -33.4082 -18.8643 -41.0039c-122.839 -53.4746 -266.746 -90.4512 -396.465 -36.7578c-117.235 48.5254 -179.084 165.257 -177.085 289.304c3.44336 213.714 141.673 422.895 308.772 547.24
c94.4238 70.2607 205.832 124.434 325.614 125.972c108.258 1.38867 225.263 -45.1074 274.093 -147.444zM571.883 436.164c1.66895 11.4375 -3.00195 23.498 -13.0635 30.5518c-16.0195 11.2383 -36.1104 -3.80371 -49.708 -13.3486
c-24.6113 -17.2832 -46.7324 -39.2109 -66.4746 -61.7861c-21.2676 -24.3252 -39.2168 -51.3145 -53.9785 -80.0352c-6.71191 -13.0498 -12.7451 -26.4424 -18.0557 -40.127c-2.29102 -5.89648 -3.95312 -14.8994 -5.9209 -23.5596
c8.89062 6.89844 17.4512 14.2266 25.6699 21.916c20.8193 19.4746 39.8213 40.7861 59.0283 61.8174c36.5283 40.0146 74.4258 78.5469 122.503 104.571z" />
    <glyph glyph-name="A" unicode="A" horiz-adv-x="672" 
d="M585.937 518.664c-11.0947 -47.2676 -24.3604 -94.168 -40.7783 -139.892c-20.1533 -56.0713 -43.2451 -110.96 -66.9346 -165.593c27.1953 5.02441 51.3584 18.9082 69.7627 45.873c8.99023 13.1738 51.3145 8.05566 41.8389 -6.5752
c-29.4111 -45.4062 -74.5244 -63.0449 -123.025 -65.5605c-11.8975 -27.2383 -23.8389 -54.4521 -35.5684 -81.7471c-39.2803 -91.4287 -74.9678 -183.331 -105.562 -278.047c-8.34863 -25.8506 -17.333 -52.043 -22.0215 -78.877
c-1.63086 -9.34473 -2.49609 -18.8516 -1.65527 -28.3271c1.25781 -14.2266 -0.317383 -16.5176 10.8643 -11.0576c18.9834 9.27637 35.6191 34.959 48.2637 51.1963c13.498 17.333 25.9561 35.4883 37.873 53.9355c90.1582 139.543 147.07 303.523 274.616 415.791
c13.249 11.6611 60.7529 1.42578 42.9219 -14.3008c-146.13 -128.915 -199.275 -326.267 -315.72 -477.932c-24.5869 -32.0205 -53.9482 -67.0605 -96.0176 -74.6621c-42.6914 -7.71387 -86.373 12.6826 -109.951 48.7744
c-28.9258 44.2666 -19.4561 94.7656 -7.4834 142.743c12.0166 48.1396 28.54 94.7285 46.6641 140.882c28.6709 73.0127 61.3818 144.244 95.2695 214.972c-42.6416 14.6309 -82.0146 34.4043 -122.017 54.0908c-1.46289 -2.51562 -2.93848 -5.02441 -4.40137 -7.5459
c-50.1689 -86.498 -98.7881 -173.936 -151.945 -258.659c-27.4004 -43.6631 -55.8965 -86.7285 -86.5654 -128.175c-23.6709 -31.9834 -48.5439 -58.6055 -85.3896 -74.7744c-12.9746 -5.69727 -47.3857 10.0674 -26.2861 19.4189
c51.8877 22.999 82.9307 79.7305 113.158 125.111c31.7275 47.6348 61.4756 96.5527 90.3584 145.95c38.1592 65.2676 74.8242 131.412 112.609 196.903c-52.292 21.9531 -115 29.1377 -161.378 -9.625c-13.9092 -11.6299 -69.2021 -7.83789 -50.0635 16.6797
c52.7715 67.6143 155.002 53.873 229.552 24.0879c11.7549 20.0723 23.6338 40.083 35.7686 59.9375c41.6523 68.1436 252.153 432.427 355.897 278.427c25.6631 -38.0908 17.1084 -91.834 7.3457 -133.424zM489.673 551.624
c10.4971 24.9912 33.752 52.5391 33.7959 80.3447c0.0683594 41.7451 -42.6172 8.09961 -58.8359 -6.33203c-35.3203 -31.4229 -65.2109 -68.4053 -93.4463 -106.166c-53.332 -71.3184 -100.426 -147.063 -145.596 -223.786
c31.3291 -16.5234 72.9561 -40.0762 116.8 -58.1875c50.3496 104.13 102.486 207.494 147.282 314.127z" />
    <glyph glyph-name="A" unicode="&#xc5;" horiz-adv-x="672" 
d="M585.937 518.664c-11.0947 -47.2676 -24.3604 -94.168 -40.7783 -139.892c-20.1533 -56.0713 -43.2451 -110.96 -66.9346 -165.593c27.1953 5.02441 51.3584 18.9082 69.7627 45.873c8.99023 13.1738 51.3145 8.05566 41.8389 -6.5752
c-29.4111 -45.4062 -74.5244 -63.0449 -123.025 -65.5605c-11.8975 -27.2383 -23.8389 -54.4521 -35.5684 -81.7471c-39.2803 -91.4287 -74.9678 -183.331 -105.562 -278.047c-8.34863 -25.8506 -17.333 -52.043 -22.0215 -78.877
c-1.63086 -9.34473 -2.49609 -18.8516 -1.65527 -28.3271c1.25781 -14.2266 -0.317383 -16.5176 10.8643 -11.0576c18.9834 9.27637 35.6191 34.959 48.2637 51.1963c13.498 17.333 25.9561 35.4883 37.873 53.9355c90.1582 139.543 147.07 303.523 274.616 415.791
c13.249 11.6611 60.7529 1.42578 42.9219 -14.3008c-146.13 -128.915 -199.275 -326.267 -315.72 -477.932c-24.5869 -32.0205 -53.9482 -67.0605 -96.0176 -74.6621c-42.6914 -7.71387 -86.373 12.6826 -109.951 48.7744
c-28.9258 44.2666 -19.4561 94.7656 -7.4834 142.743c12.0166 48.1396 28.54 94.7285 46.6641 140.882c28.6709 73.0127 61.3818 144.244 95.2695 214.972c-42.6416 14.6309 -82.0146 34.4043 -122.017 54.0908c-1.46289 -2.51562 -2.93848 -5.02441 -4.40137 -7.5459
c-50.1689 -86.498 -98.7881 -173.936 -151.945 -258.659c-27.4004 -43.6631 -55.8965 -86.7285 -86.5654 -128.175c-23.6709 -31.9834 -48.5439 -58.6055 -85.3896 -74.7744c-12.9746 -5.69727 -47.3857 10.0674 -26.2861 19.4189
c51.8877 22.999 82.9307 79.7305 113.158 125.111c31.7275 47.6348 61.4756 96.5527 90.3584 145.95c38.1592 65.2676 74.8242 131.412 112.609 196.903c-52.292 21.9531 -115 29.1377 -161.378 -9.625c-13.9092 -11.6299 -69.2021 -7.83789 -50.0635 16.6797
c52.7715 67.6143 155.002 53.873 229.552 24.0879c11.7549 20.0723 23.6338 40.083 35.7686 59.9375c41.6523 68.1436 252.153 432.427 355.897 278.427c25.6631 -38.0908 17.1084 -91.834 7.3457 -133.424zM489.673 551.624
c10.4971 24.9912 33.752 52.5391 33.7959 80.3447c0.0683594 41.7451 -42.6172 8.09961 -58.8359 -6.33203c-35.3203 -31.4229 -65.2109 -68.4053 -93.4463 -106.166c-53.332 -71.3184 -100.426 -147.063 -145.596 -223.786
c31.3291 -16.5234 72.9561 -40.0762 116.8 -58.1875c50.3496 104.13 102.486 207.494 147.282 314.127z" />
    <glyph glyph-name="A" unicode="&#xc4;" horiz-adv-x="672" 
d="M585.937 518.664c-11.0947 -47.2676 -24.3604 -94.168 -40.7783 -139.892c-20.1533 -56.0713 -43.2451 -110.96 -66.9346 -165.593c27.1953 5.02441 51.3584 18.9082 69.7627 45.873c8.99023 13.1738 51.3145 8.05566 41.8389 -6.5752
c-29.4111 -45.4062 -74.5244 -63.0449 -123.025 -65.5605c-11.8975 -27.2383 -23.8389 -54.4521 -35.5684 -81.7471c-39.2803 -91.4287 -74.9678 -183.331 -105.562 -278.047c-8.34863 -25.8506 -17.333 -52.043 -22.0215 -78.877
c-1.63086 -9.34473 -2.49609 -18.8516 -1.65527 -28.3271c1.25781 -14.2266 -0.317383 -16.5176 10.8643 -11.0576c18.9834 9.27637 35.6191 34.959 48.2637 51.1963c13.498 17.333 25.9561 35.4883 37.873 53.9355c90.1582 139.543 147.07 303.523 274.616 415.791
c13.249 11.6611 60.7529 1.42578 42.9219 -14.3008c-146.13 -128.915 -199.275 -326.267 -315.72 -477.932c-24.5869 -32.0205 -53.9482 -67.0605 -96.0176 -74.6621c-42.6914 -7.71387 -86.373 12.6826 -109.951 48.7744
c-28.9258 44.2666 -19.4561 94.7656 -7.4834 142.743c12.0166 48.1396 28.54 94.7285 46.6641 140.882c28.6709 73.0127 61.3818 144.244 95.2695 214.972c-42.6416 14.6309 -82.0146 34.4043 -122.017 54.0908c-1.46289 -2.51562 -2.93848 -5.02441 -4.40137 -7.5459
c-50.1689 -86.498 -98.7881 -173.936 -151.945 -258.659c-27.4004 -43.6631 -55.8965 -86.7285 -86.5654 -128.175c-23.6709 -31.9834 -48.5439 -58.6055 -85.3896 -74.7744c-12.9746 -5.69727 -47.3857 10.0674 -26.2861 19.4189
c51.8877 22.999 82.9307 79.7305 113.158 125.111c31.7275 47.6348 61.4756 96.5527 90.3584 145.95c38.1592 65.2676 74.8242 131.412 112.609 196.903c-52.292 21.9531 -115 29.1377 -161.378 -9.625c-13.9092 -11.6299 -69.2021 -7.83789 -50.0635 16.6797
c52.7715 67.6143 155.002 53.873 229.552 24.0879c11.7549 20.0723 23.6338 40.083 35.7686 59.9375c41.6523 68.1436 252.153 432.427 355.897 278.427c25.6631 -38.0908 17.1084 -91.834 7.3457 -133.424zM489.673 551.624
c10.4971 24.9912 33.752 52.5391 33.7959 80.3447c0.0683594 41.7451 -42.6172 8.09961 -58.8359 -6.33203c-35.3203 -31.4229 -65.2109 -68.4053 -93.4463 -106.166c-53.332 -71.3184 -100.426 -147.063 -145.596 -223.786
c31.3291 -16.5234 72.9561 -40.0762 116.8 -58.1875c50.3496 104.13 102.486 207.494 147.282 314.127z" />
    <glyph glyph-name="A" unicode="&#xc3;" horiz-adv-x="672" 
d="M585.937 518.664c-11.0947 -47.2676 -24.3604 -94.168 -40.7783 -139.892c-20.1533 -56.0713 -43.2451 -110.96 -66.9346 -165.593c27.1953 5.02441 51.3584 18.9082 69.7627 45.873c8.99023 13.1738 51.3145 8.05566 41.8389 -6.5752
c-29.4111 -45.4062 -74.5244 -63.0449 -123.025 -65.5605c-11.8975 -27.2383 -23.8389 -54.4521 -35.5684 -81.7471c-39.2803 -91.4287 -74.9678 -183.331 -105.562 -278.047c-8.34863 -25.8506 -17.333 -52.043 -22.0215 -78.877
c-1.63086 -9.34473 -2.49609 -18.8516 -1.65527 -28.3271c1.25781 -14.2266 -0.317383 -16.5176 10.8643 -11.0576c18.9834 9.27637 35.6191 34.959 48.2637 51.1963c13.498 17.333 25.9561 35.4883 37.873 53.9355c90.1582 139.543 147.07 303.523 274.616 415.791
c13.249 11.6611 60.7529 1.42578 42.9219 -14.3008c-146.13 -128.915 -199.275 -326.267 -315.72 -477.932c-24.5869 -32.0205 -53.9482 -67.0605 -96.0176 -74.6621c-42.6914 -7.71387 -86.373 12.6826 -109.951 48.7744
c-28.9258 44.2666 -19.4561 94.7656 -7.4834 142.743c12.0166 48.1396 28.54 94.7285 46.6641 140.882c28.6709 73.0127 61.3818 144.244 95.2695 214.972c-42.6416 14.6309 -82.0146 34.4043 -122.017 54.0908c-1.46289 -2.51562 -2.93848 -5.02441 -4.40137 -7.5459
c-50.1689 -86.498 -98.7881 -173.936 -151.945 -258.659c-27.4004 -43.6631 -55.8965 -86.7285 -86.5654 -128.175c-23.6709 -31.9834 -48.5439 -58.6055 -85.3896 -74.7744c-12.9746 -5.69727 -47.3857 10.0674 -26.2861 19.4189
c51.8877 22.999 82.9307 79.7305 113.158 125.111c31.7275 47.6348 61.4756 96.5527 90.3584 145.95c38.1592 65.2676 74.8242 131.412 112.609 196.903c-52.292 21.9531 -115 29.1377 -161.378 -9.625c-13.9092 -11.6299 -69.2021 -7.83789 -50.0635 16.6797
c52.7715 67.6143 155.002 53.873 229.552 24.0879c11.7549 20.0723 23.6338 40.083 35.7686 59.9375c41.6523 68.1436 252.153 432.427 355.897 278.427c25.6631 -38.0908 17.1084 -91.834 7.3457 -133.424zM489.673 551.624
c10.4971 24.9912 33.752 52.5391 33.7959 80.3447c0.0683594 41.7451 -42.6172 8.09961 -58.8359 -6.33203c-35.3203 -31.4229 -65.2109 -68.4053 -93.4463 -106.166c-53.332 -71.3184 -100.426 -147.063 -145.596 -223.786
c31.3291 -16.5234 72.9561 -40.0762 116.8 -58.1875c50.3496 104.13 102.486 207.494 147.282 314.127z" />
    <glyph glyph-name="A" unicode="&#xc2;" horiz-adv-x="672" 
d="M585.937 518.664c-11.0947 -47.2676 -24.3604 -94.168 -40.7783 -139.892c-20.1533 -56.0713 -43.2451 -110.96 -66.9346 -165.593c27.1953 5.02441 51.3584 18.9082 69.7627 45.873c8.99023 13.1738 51.3145 8.05566 41.8389 -6.5752
c-29.4111 -45.4062 -74.5244 -63.0449 -123.025 -65.5605c-11.8975 -27.2383 -23.8389 -54.4521 -35.5684 -81.7471c-39.2803 -91.4287 -74.9678 -183.331 -105.562 -278.047c-8.34863 -25.8506 -17.333 -52.043 -22.0215 -78.877
c-1.63086 -9.34473 -2.49609 -18.8516 -1.65527 -28.3271c1.25781 -14.2266 -0.317383 -16.5176 10.8643 -11.0576c18.9834 9.27637 35.6191 34.959 48.2637 51.1963c13.498 17.333 25.9561 35.4883 37.873 53.9355c90.1582 139.543 147.07 303.523 274.616 415.791
c13.249 11.6611 60.7529 1.42578 42.9219 -14.3008c-146.13 -128.915 -199.275 -326.267 -315.72 -477.932c-24.5869 -32.0205 -53.9482 -67.0605 -96.0176 -74.6621c-42.6914 -7.71387 -86.373 12.6826 -109.951 48.7744
c-28.9258 44.2666 -19.4561 94.7656 -7.4834 142.743c12.0166 48.1396 28.54 94.7285 46.6641 140.882c28.6709 73.0127 61.3818 144.244 95.2695 214.972c-42.6416 14.6309 -82.0146 34.4043 -122.017 54.0908c-1.46289 -2.51562 -2.93848 -5.02441 -4.40137 -7.5459
c-50.1689 -86.498 -98.7881 -173.936 -151.945 -258.659c-27.4004 -43.6631 -55.8965 -86.7285 -86.5654 -128.175c-23.6709 -31.9834 -48.5439 -58.6055 -85.3896 -74.7744c-12.9746 -5.69727 -47.3857 10.0674 -26.2861 19.4189
c51.8877 22.999 82.9307 79.7305 113.158 125.111c31.7275 47.6348 61.4756 96.5527 90.3584 145.95c38.1592 65.2676 74.8242 131.412 112.609 196.903c-52.292 21.9531 -115 29.1377 -161.378 -9.625c-13.9092 -11.6299 -69.2021 -7.83789 -50.0635 16.6797
c52.7715 67.6143 155.002 53.873 229.552 24.0879c11.7549 20.0723 23.6338 40.083 35.7686 59.9375c41.6523 68.1436 252.153 432.427 355.897 278.427c25.6631 -38.0908 17.1084 -91.834 7.3457 -133.424zM489.673 551.624
c10.4971 24.9912 33.752 52.5391 33.7959 80.3447c0.0683594 41.7451 -42.6172 8.09961 -58.8359 -6.33203c-35.3203 -31.4229 -65.2109 -68.4053 -93.4463 -106.166c-53.332 -71.3184 -100.426 -147.063 -145.596 -223.786
c31.3291 -16.5234 72.9561 -40.0762 116.8 -58.1875c50.3496 104.13 102.486 207.494 147.282 314.127z" />
    <glyph glyph-name="A" unicode="&#xc1;" horiz-adv-x="672" 
d="M585.937 518.664c-11.0947 -47.2676 -24.3604 -94.168 -40.7783 -139.892c-20.1533 -56.0713 -43.2451 -110.96 -66.9346 -165.593c27.1953 5.02441 51.3584 18.9082 69.7627 45.873c8.99023 13.1738 51.3145 8.05566 41.8389 -6.5752
c-29.4111 -45.4062 -74.5244 -63.0449 -123.025 -65.5605c-11.8975 -27.2383 -23.8389 -54.4521 -35.5684 -81.7471c-39.2803 -91.4287 -74.9678 -183.331 -105.562 -278.047c-8.34863 -25.8506 -17.333 -52.043 -22.0215 -78.877
c-1.63086 -9.34473 -2.49609 -18.8516 -1.65527 -28.3271c1.25781 -14.2266 -0.317383 -16.5176 10.8643 -11.0576c18.9834 9.27637 35.6191 34.959 48.2637 51.1963c13.498 17.333 25.9561 35.4883 37.873 53.9355c90.1582 139.543 147.07 303.523 274.616 415.791
c13.249 11.6611 60.7529 1.42578 42.9219 -14.3008c-146.13 -128.915 -199.275 -326.267 -315.72 -477.932c-24.5869 -32.0205 -53.9482 -67.0605 -96.0176 -74.6621c-42.6914 -7.71387 -86.373 12.6826 -109.951 48.7744
c-28.9258 44.2666 -19.4561 94.7656 -7.4834 142.743c12.0166 48.1396 28.54 94.7285 46.6641 140.882c28.6709 73.0127 61.3818 144.244 95.2695 214.972c-42.6416 14.6309 -82.0146 34.4043 -122.017 54.0908c-1.46289 -2.51562 -2.93848 -5.02441 -4.40137 -7.5459
c-50.1689 -86.498 -98.7881 -173.936 -151.945 -258.659c-27.4004 -43.6631 -55.8965 -86.7285 -86.5654 -128.175c-23.6709 -31.9834 -48.5439 -58.6055 -85.3896 -74.7744c-12.9746 -5.69727 -47.3857 10.0674 -26.2861 19.4189
c51.8877 22.999 82.9307 79.7305 113.158 125.111c31.7275 47.6348 61.4756 96.5527 90.3584 145.95c38.1592 65.2676 74.8242 131.412 112.609 196.903c-52.292 21.9531 -115 29.1377 -161.378 -9.625c-13.9092 -11.6299 -69.2021 -7.83789 -50.0635 16.6797
c52.7715 67.6143 155.002 53.873 229.552 24.0879c11.7549 20.0723 23.6338 40.083 35.7686 59.9375c41.6523 68.1436 252.153 432.427 355.897 278.427c25.6631 -38.0908 17.1084 -91.834 7.3457 -133.424zM489.673 551.624
c10.4971 24.9912 33.752 52.5391 33.7959 80.3447c0.0683594 41.7451 -42.6172 8.09961 -58.8359 -6.33203c-35.3203 -31.4229 -65.2109 -68.4053 -93.4463 -106.166c-53.332 -71.3184 -100.426 -147.063 -145.596 -223.786
c31.3291 -16.5234 72.9561 -40.0762 116.8 -58.1875c50.3496 104.13 102.486 207.494 147.282 314.127z" />
    <glyph glyph-name="B" unicode="B" horiz-adv-x="772" 
d="M632.945 608.388c10.1729 -45.1016 -25.2598 -88.1914 -56.1162 -116.862c-21.7227 -20.1846 -45.7422 -37.1689 -71.3682 -51.4014c49.0293 -9.50684 93.2959 -37.8291 119.8 -83.1104c37.1445 -63.4619 39.1992 -143.086 23.9707 -214.411
c44.0361 13.3115 86.6719 31.3672 127.048 56.5137c15.9756 9.94922 62.0664 -4.85645 36.5273 -20.8203c-54.0918 -33.8135 -112.386 -55.9902 -172.778 -71.1318c-44.4229 -146.187 -166.396 -263.354 -309.314 -313.236
c-79.7549 -27.8369 -166.607 -39.125 -250.608 -28.8643c-68.0684 8.31836 -152.717 37.5117 -175.74 110.2c-22.918 72.377 49.0361 138.858 107.405 164.883c-6.39453 47.1621 1.83594 94.7783 12.5566 141.704c29.6104 129.562 85.9678 252.047 152.399 366.487
c15.5713 26.8213 97.6553 25.9688 86.3984 -13.5791c-26.2617 -92.2627 -56.4014 -184.134 -79.4932 -277.231c-11.3994 -45.96 -22.0088 -92.4375 -26.2178 -139.705c4.37695 10.1426 8.61035 20.3467 12.6016 30.6387c21.0752 54.3467 36.9453 110.493 53.9863 166.179
c31.3857 102.561 68.3809 214.024 148.136 289.976c42.499 40.4688 96.584 68.6162 156.298 68.8652c46.8447 0.199219 93.3779 -15.7207 104.51 -65.0928zM315.389 -177.259c123.573 46.0039 225.68 148.684 270.588 272.718
c-70.2227 -12.9941 -142.389 -18.542 -213.353 -23.4541c-28.7578 -1.99219 -57.5908 -3.94141 -86.374 -6.44434c-20.583 -44.373 -47.4854 -92.0205 -89.835 -114.727c-59.1221 -31.6963 -152.362 -20.5146 -175.76 50.2129
c-0.118164 0.367188 -0.211914 0.741211 -0.330078 1.1084c-22.5566 -14.9863 -40.4746 -34.9531 -48.8799 -62.3037c-9.51953 -30.9805 8.39844 -70.5713 29.835 -92.9287c24.001 -25.0352 58.9102 -36.4414 92.1885 -42.4619
c74.6934 -13.5166 150.663 -8.24902 221.92 18.2803zM594.861 310.095c-22.3828 66.9043 -79.4629 117.256 -153.16 102.021c-11.1074 -2.29785 -25.9062 3.79102 -29.9717 11.293c-22.1709 -52.541 -39.1553 -107.561 -55.5361 -162.35
c-16.5547 -55.3867 -33.209 -110.984 -56.0273 -164.186c98.5518 7.56445 199.979 10.8955 296.352 32.0518c15.584 58.9854 17.6943 123.337 -1.65625 181.17zM574.022 562.561c6.39453 19.0947 2.60156 59.7891 -26.9717 51.5205
c-20.9502 -5.85254 -41.0039 -33.7949 -53.8418 -49.8018c-31.7148 -39.541 -56.04 -82.9922 -76.1377 -128.498c1.49414 0.87207 3.1875 1.71289 5.28613 2.49707c56.2578 20.9814 131.294 63.4609 151.665 124.282z" />
    <glyph glyph-name="C" unicode="C" horiz-adv-x="708" 
d="M405.356 692.121c87.6064 30.2832 247.083 37.1797 288.193 -70.3057c36.0176 -94.1748 -26.9961 -212.893 -110.038 -258.971c-45.8291 -25.4336 -100.724 -34.7539 -152.643 -28.7578c-36.6152 4.22754 -91.5908 22.457 -89.9033 68.2744
c1.55664 42.3301 53.625 97.4795 89.9473 114.601c34.0752 16.0566 78.2988 14.6934 105.855 -12.9502c15.2852 -15.335 -26.8955 -23.3418 -37.8848 -12.6211c-25.8193 25.1963 -54.832 -4.90039 -71.1689 -25.7012c-14.5381 -18.5098 -42.8037 -51.3584 -31.2793 -76.748
c21.3057 -46.9316 104.037 -14.8369 133.013 4.71289c62.1729 41.9443 126.998 166.402 51.751 225.91c-48.127 38.0596 -121.737 -0.902344 -166.229 -28.6641c-65.9893 -41.1729 -123.48 -100.444 -169.82 -162.567
c-96.8701 -129.862 -155.998 -296.807 -150.961 -459.479c2.16016 -69.7812 12.0723 -173.562 73.0928 -219.354c35.3018 -26.4912 84.5117 0.0566406 116.824 19.9795c37.0264 22.8311 69.2832 55.5859 99.834 86.3232c121.332 122.066 214.653 268.558 335.985 390.531
c11.1201 11.1758 54.4775 3.71094 39.1426 -13.043c-87.4756 -95.5811 -163.938 -200.065 -247.378 -299.016c-42.6357 -50.5615 -87.4756 -99.4727 -137.041 -143.366c-43.5508 -38.5703 -88.5645 -80.0605 -146.604 -94.0693
c-119.726 -28.8945 -211.665 62.6963 -248.273 168.401c-37.7666 109.073 -23.8955 230.499 7.73242 339.155c58.8545 202.195 212.226 416.644 417.852 487.726z" />
    <glyph glyph-name="D" unicode="D" horiz-adv-x="943" 
d="M-52.0879 -46.8242c-10.8516 100.78 76.9971 165.208 163.606 194.75c1.88672 18.6406 4.4707 37.2188 7.6709 55.6543c12.6641 72.8818 33.4961 144.805 53.4873 215.955c19.7051 70.123 39.9521 140.851 73.0244 205.899
c14.5498 28.6143 105.742 33.751 104.235 -8.04395c-1.91797 -53.2754 -11.7988 -106.296 -24.0645 -158.855c32.9795 54.334 72.7139 106.303 116.818 151.864c45.3066 46.8066 101.603 93.8066 167.343 106.314c52.2734 9.94336 104.403 -2.83887 144.841 -37.6426
c44.1484 -37.9971 61.9053 -95.5625 67.7207 -151.733c11.8857 -114.77 -25.4014 -233.792 -77.8057 -336.278c70.1113 10.3789 138.616 29.5732 204.263 64.8623c15.5957 8.37988 59.8066 -6.39453 34.8096 -19.8428c-79.8984 -42.9844 -166.688 -64.875 -255.434 -75.6768
c-107.828 -193.261 -309.961 -390.151 -547.495 -373.709c-95.1084 6.58691 -221.234 57.0859 -233.021 166.482zM449.392 463.896c-41.2227 -92.251 -70.2236 -189.145 -104.709 -284.022c113.089 2.77637 227.766 -4.97461 339.311 4.20898
c11.7236 23.2725 22.3643 47.1426 31.7158 71.6104c25.1777 65.8955 38.4082 133.105 41.1162 203.534c2.52148 65.5537 -3.43652 146.174 -54.7451 193.827c-100.618 93.4395 -219.609 -115.125 -252.688 -189.158zM80.1211 99.4463
c-52.9209 -32.1758 -94.3428 -96.4482 -77.4141 -160.159c15.708 -59.1094 73.6162 -96.3223 129.059 -112.497c136.106 -39.709 274.024 35.6318 372.894 123.91c65.6533 58.6182 121.033 127.553 163.725 203.945c-36.3037 -2.55859 -72.7441 -3.6543 -109.004 -3.93457
c-75.2656 -0.591797 -150.562 1.69922 -225.804 -0.735352c-7.24121 -19.0762 -14.75 -38.0527 -22.7441 -56.8555c-13.3613 -31.4346 -25.6387 -73.9268 -56.3516 -92.7539c-33.1475 -20.3154 -90.3896 -22.6504 -122.055 2.45312
c-29.1191 23.0859 -24.7793 65.5537 -23.9326 99.4111c0.0996094 4.05957 0.385742 8.1123 0.579102 12.165c-9.96777 -4.38281 -19.6621 -9.30176 -28.9512 -14.9492z" />
    <glyph glyph-name="E" unicode="E" horiz-adv-x="608" 
d="M168.753 635.178c106.347 62.8955 283.11 100.393 386.643 13.3594c92.1016 -77.4385 47.5293 -237.721 -34.3857 -305.447c-40.9111 -33.8193 -95.5127 -53.4375 -148.832 -45.4121c-51.5635 7.76367 -101.608 46.5518 -92.1133 103.794
c3.31836 20.0039 53.0205 18.3418 50.2002 0c-10.9893 -71.5303 68.1055 -89.5605 118.94 -59.9375c40.9609 23.8701 70.2793 67.5264 82.3262 112.896c12.6074 47.498 7.0166 97.0068 -29.5674 132.489c-29.6729 28.7832 -70.4971 37.6865 -110.399 32.1201
c-73.5225 -10.2607 -140.913 -49.7275 -191.854 -102.91c-55.8594 -58.3193 -105.231 -149.213 -89.5791 -232.417c17.0029 -90.4014 103.731 -116.706 183.094 -123.256c18.1865 -1.5 46.2471 -13.3418 50.4688 -33.3896
c4.19629 -19.9355 -16.1504 -35.2764 -33.6396 -40.0146c-84.8164 -22.9863 -161.683 -101.739 -210.015 -172.242c-24.3496 -35.5127 -55.0996 -83.7578 -36.9199 -128.604c20.8262 -51.3828 94.6543 -19.792 129.899 -2.37207
c89.5732 44.2666 167.28 121.363 234.061 194.351c69.1084 75.5342 127.439 159.293 178.811 247.708c8.01953 13.8027 50.8604 9.78711 42.3057 -6.64941c-50.5303 -97.0879 -115.754 -186.568 -190.173 -266.74c-63.3867 -68.293 -134.587 -135.055 -215.812 -181.682
c-69.127 -39.6787 -175.131 -84.7178 -245.833 -24.126c-76.8037 65.8154 -22.4941 169.291 25.5771 233.519c26.2676 35.1025 56.3145 66.5811 90.5635 94c11.2881 9.03418 23.0488 17.2529 34.9844 25.1729c-108.824 34.0254 -201.647 115.916 -186.089 241.806
c15.335 124.047 102.02 231.7 207.339 293.985z" />
    <glyph glyph-name="E" unicode="&#xcb;" horiz-adv-x="608" 
d="M168.753 635.178c106.347 62.8955 283.11 100.393 386.643 13.3594c92.1016 -77.4385 47.5293 -237.721 -34.3857 -305.447c-40.9111 -33.8193 -95.5127 -53.4375 -148.832 -45.4121c-51.5635 7.76367 -101.608 46.5518 -92.1133 103.794
c3.31836 20.0039 53.0205 18.3418 50.2002 0c-10.9893 -71.5303 68.1055 -89.5605 118.94 -59.9375c40.9609 23.8701 70.2793 67.5264 82.3262 112.896c12.6074 47.498 7.0166 97.0068 -29.5674 132.489c-29.6729 28.7832 -70.4971 37.6865 -110.399 32.1201
c-73.5225 -10.2607 -140.913 -49.7275 -191.854 -102.91c-55.8594 -58.3193 -105.231 -149.213 -89.5791 -232.417c17.0029 -90.4014 103.731 -116.706 183.094 -123.256c18.1865 -1.5 46.2471 -13.3418 50.4688 -33.3896
c4.19629 -19.9355 -16.1504 -35.2764 -33.6396 -40.0146c-84.8164 -22.9863 -161.683 -101.739 -210.015 -172.242c-24.3496 -35.5127 -55.0996 -83.7578 -36.9199 -128.604c20.8262 -51.3828 94.6543 -19.792 129.899 -2.37207
c89.5732 44.2666 167.28 121.363 234.061 194.351c69.1084 75.5342 127.439 159.293 178.811 247.708c8.01953 13.8027 50.8604 9.78711 42.3057 -6.64941c-50.5303 -97.0879 -115.754 -186.568 -190.173 -266.74c-63.3867 -68.293 -134.587 -135.055 -215.812 -181.682
c-69.127 -39.6787 -175.131 -84.7178 -245.833 -24.126c-76.8037 65.8154 -22.4941 169.291 25.5771 233.519c26.2676 35.1025 56.3145 66.5811 90.5635 94c11.2881 9.03418 23.0488 17.2529 34.9844 25.1729c-108.824 34.0254 -201.647 115.916 -186.089 241.806
c15.335 124.047 102.02 231.7 207.339 293.985z" />
    <glyph glyph-name="E" unicode="&#xca;" horiz-adv-x="608" 
d="M168.753 635.178c106.347 62.8955 283.11 100.393 386.643 13.3594c92.1016 -77.4385 47.5293 -237.721 -34.3857 -305.447c-40.9111 -33.8193 -95.5127 -53.4375 -148.832 -45.4121c-51.5635 7.76367 -101.608 46.5518 -92.1133 103.794
c3.31836 20.0039 53.0205 18.3418 50.2002 0c-10.9893 -71.5303 68.1055 -89.5605 118.94 -59.9375c40.9609 23.8701 70.2793 67.5264 82.3262 112.896c12.6074 47.498 7.0166 97.0068 -29.5674 132.489c-29.6729 28.7832 -70.4971 37.6865 -110.399 32.1201
c-73.5225 -10.2607 -140.913 -49.7275 -191.854 -102.91c-55.8594 -58.3193 -105.231 -149.213 -89.5791 -232.417c17.0029 -90.4014 103.731 -116.706 183.094 -123.256c18.1865 -1.5 46.2471 -13.3418 50.4688 -33.3896
c4.19629 -19.9355 -16.1504 -35.2764 -33.6396 -40.0146c-84.8164 -22.9863 -161.683 -101.739 -210.015 -172.242c-24.3496 -35.5127 -55.0996 -83.7578 -36.9199 -128.604c20.8262 -51.3828 94.6543 -19.792 129.899 -2.37207
c89.5732 44.2666 167.28 121.363 234.061 194.351c69.1084 75.5342 127.439 159.293 178.811 247.708c8.01953 13.8027 50.8604 9.78711 42.3057 -6.64941c-50.5303 -97.0879 -115.754 -186.568 -190.173 -266.74c-63.3867 -68.293 -134.587 -135.055 -215.812 -181.682
c-69.127 -39.6787 -175.131 -84.7178 -245.833 -24.126c-76.8037 65.8154 -22.4941 169.291 25.5771 233.519c26.2676 35.1025 56.3145 66.5811 90.5635 94c11.2881 9.03418 23.0488 17.2529 34.9844 25.1729c-108.824 34.0254 -201.647 115.916 -186.089 241.806
c15.335 124.047 102.02 231.7 207.339 293.985z" />
    <glyph glyph-name="E" unicode="&#xc9;" horiz-adv-x="608" 
d="M168.753 635.178c106.347 62.8955 283.11 100.393 386.643 13.3594c92.1016 -77.4385 47.5293 -237.721 -34.3857 -305.447c-40.9111 -33.8193 -95.5127 -53.4375 -148.832 -45.4121c-51.5635 7.76367 -101.608 46.5518 -92.1133 103.794
c3.31836 20.0039 53.0205 18.3418 50.2002 0c-10.9893 -71.5303 68.1055 -89.5605 118.94 -59.9375c40.9609 23.8701 70.2793 67.5264 82.3262 112.896c12.6074 47.498 7.0166 97.0068 -29.5674 132.489c-29.6729 28.7832 -70.4971 37.6865 -110.399 32.1201
c-73.5225 -10.2607 -140.913 -49.7275 -191.854 -102.91c-55.8594 -58.3193 -105.231 -149.213 -89.5791 -232.417c17.0029 -90.4014 103.731 -116.706 183.094 -123.256c18.1865 -1.5 46.2471 -13.3418 50.4688 -33.3896
c4.19629 -19.9355 -16.1504 -35.2764 -33.6396 -40.0146c-84.8164 -22.9863 -161.683 -101.739 -210.015 -172.242c-24.3496 -35.5127 -55.0996 -83.7578 -36.9199 -128.604c20.8262 -51.3828 94.6543 -19.792 129.899 -2.37207
c89.5732 44.2666 167.28 121.363 234.061 194.351c69.1084 75.5342 127.439 159.293 178.811 247.708c8.01953 13.8027 50.8604 9.78711 42.3057 -6.64941c-50.5303 -97.0879 -115.754 -186.568 -190.173 -266.74c-63.3867 -68.293 -134.587 -135.055 -215.812 -181.682
c-69.127 -39.6787 -175.131 -84.7178 -245.833 -24.126c-76.8037 65.8154 -22.4941 169.291 25.5771 233.519c26.2676 35.1025 56.3145 66.5811 90.5635 94c11.2881 9.03418 23.0488 17.2529 34.9844 25.1729c-108.824 34.0254 -201.647 115.916 -186.089 241.806
c15.335 124.047 102.02 231.7 207.339 293.985z" />
    <glyph glyph-name="F" unicode="F" horiz-adv-x="523" 
d="M814.516 566.854c-10.7402 -15.0732 -58.4746 -8.00098 -47.4551 7.45801c22.5693 31.6846 45.126 66.8613 46.0537 107.094c1.02734 44.6963 -25.6699 76.6484 -68.3428 87.749c-79.7119 20.7393 -169.261 -9.51953 -242.547 -40.0459
c-11.0264 -4.59473 -21.9092 -9.47559 -32.7236 -14.4746c4.95605 0.130859 9.55664 0.0253906 13.4541 -0.249023c15.752 -1.11426 67.2842 -12.6133 61.1953 -39.5098c-28.9014 -127.67 -67.2539 -253.554 -104.834 -379.169
c18.0801 1.5127 36.0107 4.95605 53.7051 12.0098c13.7656 5.48535 53.7676 -10.0859 29.5303 -21.8154c-29.4492 -14.2578 -60.4551 -19.0391 -92.0771 -19.8672c-4.2832 -14.3945 -8.57324 -28.7891 -12.8008 -43.1777
c-22.1709 -75.4648 -44.0557 -150.986 -67.7891 -225.979c-11.9287 -37.6924 -23.9385 -75.2852 -37.5674 -112.411c-12.0166 -32.7236 -26.3428 -72.7314 -55.0762 -94.6963c-16.0439 -12.2656 -40.873 -14.4883 -58.7539 -4.31543
c-30.5195 17.3643 -21.3926 62.0107 -16.4492 90.9238c6.77344 39.6406 16.8037 78.8213 26.7969 117.753c19.4932 75.9512 40.3252 151.46 61.4004 226.981c4.15918 14.9111 8.25586 29.8594 12.3584 44.8076c-21.3242 -4.75684 -40.3076 -14.6504 -53.5127 -33.7764
c5.93359 -7.25977 -0.323242 -17.7568 -18.3789 -18.9277c-9.7002 -0.628906 -16.8418 1.54395 -25.5586 5.66602c-5.26074 2.49023 -7.90723 7.58301 -6.05859 13.0615c15.0293 44.5098 68.1748 59.8262 111.838 64.3965c1.24512 4.58203 2.49609 9.16406 3.74121 13.7461
c9.45117 97.4805 4.7627 201.225 -66.1572 269.318c-29.2002 -17.1904 -58.6182 -33.9756 -88.6279 -49.6211c-42.8408 -22.3389 -118.929 -65.1113 -167.373 -36.3037c-45.7178 27.1885 -0.217773 87.6807 26.2119 111.06c66.5811 58.8916 163.065 62.9697 235.455 18.6348
c59.1846 35.2451 118.089 70.9951 179.932 101.434c102.33 50.3682 224.82 96.5898 340.443 72.4268c46.6074 -9.7373 91.6895 -34.8027 104.191 -83.8701c13.6533 -53.5996 -14.1025 -104.03 -44.2236 -146.311zM94.6475 544.869
c35.6504 17.9492 70.3604 37.5869 104.777 57.7588c-47 30.4014 -103.158 27.8047 -148.452 -6.20215c-17.0029 -12.7695 -50.3809 -43.6816 -46.9629 -68.3799c4.20215 -30.4014 75.1035 9.00293 90.6377 16.8232zM338.545 469.405
c20.2217 71.4873 41.5576 142.607 65.7578 212.581c-47.5166 -25.5391 -93.7324 -53.5869 -140.098 -81.3486c3.8916 -3.54297 7.70215 -7.20996 11.3447 -11.0947c33.3467 -35.582 52.8154 -76.5557 62.9951 -120.138z" />
    <glyph glyph-name="G" unicode="G" horiz-adv-x="777" 
d="M651.42 341.622c-17.626 -66.0518 -42.7822 -129.949 -71.21 -192.054c-5.25488 -11.4746 -10.5908 -22.9678 -15.9766 -34.4609c78.8086 31.0674 157.686 64.2148 218.619 120.946c11.5801 10.7832 55.0811 2.55859 39.1426 -13.0439
c-75.459 -73.8594 -179.084 -110.524 -277.865 -150.128c-47.791 -98.6816 -101.229 -196.436 -164.628 -284.59c-38.1533 -53.0576 -81.8789 -104.927 -137.24 -140.714c-41.8818 -27.0703 -98.7812 -52.0244 -148.29 -30.4453
c-44.2236 19.2754 -62.5967 69.5566 -51.7695 114.627c13.124 54.6396 58.916 99.3857 98.2891 136.829c71.4121 67.9131 154.884 121.55 242.31 166.713c17.8379 38.2773 35.2393 76.6543 52.3857 114.776c51.2334 113.917 113.089 251.325 93.7012 379.388
c-2.37793 15.6953 -6.19434 31.1611 -9.75586 46.5645c-0.193359 0.859375 -1.0459 3.81641 -1.7373 6.4873c-2.37207 -1.30762 -4.75 -2.6084 -7.12207 -3.91602c-22.5068 -14.8613 -42.7354 -35.252 -62.0859 -53.9053
c-43.9121 -42.3301 -82.5879 -89.4795 -124.558 -133.659c-69.04 -72.6758 -170.362 -173.524 -280.998 -137.874c-118.562 38.2031 -91.124 181.071 -46.3154 268.042c50.3057 97.6426 148.035 184.576 259.792 199.494c53.5244 7.14746 115.598 -1.37598 149.199 -48.0273
c18.8525 -26.1807 26.7842 -59.8574 30.75 -93.0918c28.1416 29.4922 60.7725 56.4756 100.357 57.5713c62.5771 1.73047 118.281 -42.6982 132.265 -102.523c15.0107 -64.2021 -0.628906 -130.671 -17.2588 -193.006zM138.681 287.699
c105.537 53.0889 179.392 160.659 256.793 246.939c-0.0439453 0.236328 -0.149414 0.441406 -0.174805 0.68457c-4.3457 47.8721 -21.4736 156.615 -93.6641 131.17c-54.9814 -19.375 -107.012 -58.1562 -145.208 -101.607
c-39.5537 -44.9951 -69.2891 -100.22 -83.9824 -158.439c-6.81152 -26.9834 -15.2979 -60.2236 -11.1953 -88.1406c1.84277 -12.5576 5.16699 -31.5527 16.4111 -39.2607c17.2461 -11.8291 44.9639 0.579102 61.0205 8.6543zM253.789 -212.799
c37.8975 63.0137 72.0723 129.09 104.348 196.051c-89.3682 -51.2148 -174.297 -113.973 -235.542 -195.135c-19.7549 -26.1807 -37.2686 -58.2324 -33.5957 -92.1641c2.66504 -24.667 22.4453 -66.6367 52.9902 -52.6406c25.4834 11.6738 47.249 46.7822 63.5117 68.3301
c18.0176 23.8701 32.8975 49.9697 48.2881 75.5586z" />
    <glyph glyph-name="H" unicode="H" horiz-adv-x="940" 
d="M662.038 670.199c-5.71582 -94.2305 -32.1455 -188.084 -60.9092 -277.676c-18.4785 -57.5596 -39.1113 -114.664 -62.4521 -170.573c36.7578 1.20117 73.5469 1.83008 110.33 2.39062c3.83496 12.6387 7.69531 25.2715 11.668 37.8662
c39.4541 125.099 85.7939 248.336 144.455 365.777c20.3096 40.6621 141.903 33.4463 122.51 -19.251c-44.2168 -120.143 -88.4707 -240.267 -125.341 -362.925c-1.83008 -6.07617 -3.55469 -12.1777 -5.34766 -18.2666c54.0166 1.96094 107.971 5.29199 161.782 11.6426
c21.9717 2.59668 41.8135 -20.3584 11.9229 -24.6484c-60.4541 -8.67285 -121.164 -12.9375 -181.992 -15.3467c-13.1621 -46.2217 -25.3838 -92.7051 -36.9521 -139.356c-15.4219 -62.1855 -24.3936 -126.992 -44.0801 -187.957
c-13.9961 -43.3389 -142.949 -41.3965 -139.587 10.7715c4.19629 65.0371 24.25 130.796 39.9453 193.878c9.93652 39.9336 20.8818 79.6123 32.4805 119.098c-38.1035 -0.672852 -76.2002 -1.46387 -114.272 -2.9209
c-9.48828 -21.6289 -19.4004 -43.0586 -29.7852 -64.2334c-68.249 -139.17 -166.757 -271.853 -334.373 -283.016c-66.5059 -4.43262 -149.686 8.18164 -196.35 61.0781c-48.0645 54.4834 -7.75098 134.264 38.5762 175.156c100.426 88.6396 246.45 117.622 379.55 130.585
c8.05664 18.7588 15.7705 37.2373 23.3223 55.0557c57.2422 135.085 93.7578 280.729 164.037 409.882c13.0186 23.9268 93.1035 29.9033 90.8623 -7.01074zM200.269 -53.6943c79.6738 53.4941 129.93 145.433 170.236 235.535
c-108.239 -12.209 -219.074 -38.2461 -303.225 -103.345c-51.4326 -39.7969 -80.707 -119.266 -8.9209 -156.609c48.6064 -25.29 99.7217 -3.90332 141.909 24.4189z" />
    <glyph glyph-name="I" unicode="I" horiz-adv-x="373" 
d="M-59.1221 -79.7344c4.51367 50.3125 15.8359 100.659 30.4482 148.985c29.9902 99.2236 73.1924 193.858 117.098 287.547c42.001 89.6357 83.2422 180.155 128.294 268.315c-18.2109 -3.54297 -35.1211 -9.7627 -48.3389 -20.1104
c-12.6328 -9.88672 -46.0977 -14.5625 -54.3096 4.04688c-0.379883 0.865234 -0.759766 1.7373 -1.14551 2.60254c-2.29785 5.20508 -0.473633 10.0986 3.21875 14.0332c33.458 35.6562 98.6689 42.8594 144.455 43.9053c64.4766 1.47559 126.556 -19.1943 190.658 -18.8086
c19.9668 0.118164 45.375 -22.4072 14.998 -31.5654c-36.7148 -11.0635 -72.4707 -6.05176 -108.725 -0.0498047c-0.0625 -0.186523 -0.0869141 -0.360352 -0.155273 -0.553711c-38.3271 -108.326 -95.75 -210.327 -145.458 -313.76
c-48.3945 -100.687 -92.3066 -203.428 -130.796 -308.311c-10.3291 -28.1475 -20.6895 -56.3828 -30.3838 -84.7549c-6.99805 -20.4707 -18.4541 -50.3926 -7.58984 -71.4492c-2.77637 -6.99219 -0.796875 -8.7666 5.93359 -5.33594
c7.46484 2.68945 14.6182 6.02637 21.4727 9.99902c13.3047 7.33398 25.4395 16.5293 37.001 26.335c18.8896 16.0195 36.2168 34.0684 52.5664 52.6406c80.8877 91.8643 143.926 200.583 211.117 302.459c9.28906 14.083 54.0166 8.77832 44.1797 -6.94238
c-64.1094 -102.492 -127.683 -208.944 -206.18 -301.295c-52.9521 -62.291 -124.47 -133.037 -212.226 -104.709c-49.6338 16.0254 -60.498 58.1064 -56.1338 106.775z" />
    <glyph glyph-name="I" unicode="&#xcf;" horiz-adv-x="373" 
d="M-59.1221 -79.7344c4.51367 50.3125 15.8359 100.659 30.4482 148.985c29.9902 99.2236 73.1924 193.858 117.098 287.547c42.001 89.6357 83.2422 180.155 128.294 268.315c-18.2109 -3.54297 -35.1211 -9.7627 -48.3389 -20.1104
c-12.6328 -9.88672 -46.0977 -14.5625 -54.3096 4.04688c-0.379883 0.865234 -0.759766 1.7373 -1.14551 2.60254c-2.29785 5.20508 -0.473633 10.0986 3.21875 14.0332c33.458 35.6562 98.6689 42.8594 144.455 43.9053c64.4766 1.47559 126.556 -19.1943 190.658 -18.8086
c19.9668 0.118164 45.375 -22.4072 14.998 -31.5654c-36.7148 -11.0635 -72.4707 -6.05176 -108.725 -0.0498047c-0.0625 -0.186523 -0.0869141 -0.360352 -0.155273 -0.553711c-38.3271 -108.326 -95.75 -210.327 -145.458 -313.76
c-48.3945 -100.687 -92.3066 -203.428 -130.796 -308.311c-10.3291 -28.1475 -20.6895 -56.3828 -30.3838 -84.7549c-6.99805 -20.4707 -18.4541 -50.3926 -7.58984 -71.4492c-2.77637 -6.99219 -0.796875 -8.7666 5.93359 -5.33594
c7.46484 2.68945 14.6182 6.02637 21.4727 9.99902c13.3047 7.33398 25.4395 16.5293 37.001 26.335c18.8896 16.0195 36.2168 34.0684 52.5664 52.6406c80.8877 91.8643 143.926 200.583 211.117 302.459c9.28906 14.083 54.0166 8.77832 44.1797 -6.94238
c-64.1094 -102.492 -127.683 -208.944 -206.18 -301.295c-52.9521 -62.291 -124.47 -133.037 -212.226 -104.709c-49.6338 16.0254 -60.498 58.1064 -56.1338 106.775z" />
    <glyph glyph-name="I" unicode="&#xce;" horiz-adv-x="373" 
d="M-59.1221 -79.7344c4.51367 50.3125 15.8359 100.659 30.4482 148.985c29.9902 99.2236 73.1924 193.858 117.098 287.547c42.001 89.6357 83.2422 180.155 128.294 268.315c-18.2109 -3.54297 -35.1211 -9.7627 -48.3389 -20.1104
c-12.6328 -9.88672 -46.0977 -14.5625 -54.3096 4.04688c-0.379883 0.865234 -0.759766 1.7373 -1.14551 2.60254c-2.29785 5.20508 -0.473633 10.0986 3.21875 14.0332c33.458 35.6562 98.6689 42.8594 144.455 43.9053c64.4766 1.47559 126.556 -19.1943 190.658 -18.8086
c19.9668 0.118164 45.375 -22.4072 14.998 -31.5654c-36.7148 -11.0635 -72.4707 -6.05176 -108.725 -0.0498047c-0.0625 -0.186523 -0.0869141 -0.360352 -0.155273 -0.553711c-38.3271 -108.326 -95.75 -210.327 -145.458 -313.76
c-48.3945 -100.687 -92.3066 -203.428 -130.796 -308.311c-10.3291 -28.1475 -20.6895 -56.3828 -30.3838 -84.7549c-6.99805 -20.4707 -18.4541 -50.3926 -7.58984 -71.4492c-2.77637 -6.99219 -0.796875 -8.7666 5.93359 -5.33594
c7.46484 2.68945 14.6182 6.02637 21.4727 9.99902c13.3047 7.33398 25.4395 16.5293 37.001 26.335c18.8896 16.0195 36.2168 34.0684 52.5664 52.6406c80.8877 91.8643 143.926 200.583 211.117 302.459c9.28906 14.083 54.0166 8.77832 44.1797 -6.94238
c-64.1094 -102.492 -127.683 -208.944 -206.18 -301.295c-52.9521 -62.291 -124.47 -133.037 -212.226 -104.709c-49.6338 16.0254 -60.498 58.1064 -56.1338 106.775z" />
    <glyph glyph-name="I" unicode="&#xcd;" horiz-adv-x="373" 
d="M-59.1221 -79.7344c4.51367 50.3125 15.8359 100.659 30.4482 148.985c29.9902 99.2236 73.1924 193.858 117.098 287.547c42.001 89.6357 83.2422 180.155 128.294 268.315c-18.2109 -3.54297 -35.1211 -9.7627 -48.3389 -20.1104
c-12.6328 -9.88672 -46.0977 -14.5625 -54.3096 4.04688c-0.379883 0.865234 -0.759766 1.7373 -1.14551 2.60254c-2.29785 5.20508 -0.473633 10.0986 3.21875 14.0332c33.458 35.6562 98.6689 42.8594 144.455 43.9053c64.4766 1.47559 126.556 -19.1943 190.658 -18.8086
c19.9668 0.118164 45.375 -22.4072 14.998 -31.5654c-36.7148 -11.0635 -72.4707 -6.05176 -108.725 -0.0498047c-0.0625 -0.186523 -0.0869141 -0.360352 -0.155273 -0.553711c-38.3271 -108.326 -95.75 -210.327 -145.458 -313.76
c-48.3945 -100.687 -92.3066 -203.428 -130.796 -308.311c-10.3291 -28.1475 -20.6895 -56.3828 -30.3838 -84.7549c-6.99805 -20.4707 -18.4541 -50.3926 -7.58984 -71.4492c-2.77637 -6.99219 -0.796875 -8.7666 5.93359 -5.33594
c7.46484 2.68945 14.6182 6.02637 21.4727 9.99902c13.3047 7.33398 25.4395 16.5293 37.001 26.335c18.8896 16.0195 36.2168 34.0684 52.5664 52.6406c80.8877 91.8643 143.926 200.583 211.117 302.459c9.28906 14.083 54.0166 8.77832 44.1797 -6.94238
c-64.1094 -102.492 -127.683 -208.944 -206.18 -301.295c-52.9521 -62.291 -124.47 -133.037 -212.226 -104.709c-49.6338 16.0254 -60.498 58.1064 -56.1338 106.775z" />
    <glyph glyph-name="J" unicode="J" horiz-adv-x="640" 
d="M409.188 637.338c10.4287 44.6777 124.704 48.3789 121.211 0.00878906c-0.634766 -8.86621 -1.38184 -17.7256 -2.14746 -26.5791c54.0537 -47.0869 179.427 -50.0381 189.059 27.6934c5.65332 45.6367 -42.4053 65.373 -79.7051 68
c-40.7549 2.86426 -82.9053 -5.35449 -122.627 -13.7842c-80.7266 -17.1406 -158.851 -44.6279 -239.153 -63.5488c-39 -9.18945 -155.077 -36.9697 -153.782 35.8623c0.330078 18.2363 46.3652 18.043 46.3096 0c-0.125 -39.4297 72.2588 -14.7686 94.374 -9.25195
c26.0127 6.4873 51.7695 13.9336 77.5205 21.374c49.8389 14.4072 99.6152 29.1748 150.258 40.5439c75.6523 16.9785 187.789 40.4688 252.135 -18.6279c28.5586 -26.2305 32.207 -65.6846 11.1387 -97.8975c-20.3594 -31.124 -57.0869 -45.5312 -92.6436 -49.9893
c-38.4395 -4.8252 -92.9482 0.666016 -136.654 20.3779c-16.0195 -149.3 -49.7578 -296.688 -99.958 -438.279c66.749 13.6289 132.178 31.8271 193.759 63.0566c9.59473 4.8623 26.2061 6.94141 35.4951 -0.000976562c7.70801 -5.75879 10.2979 -14.9854 0 -20.2334
c-76.418 -38.9502 -158.115 -59.4902 -241.151 -75.3418c-46.2715 -120.561 -113.854 -234.652 -238.038 -287.175c-64.75 -27.3818 -138.87 -36.1982 -207.101 -17.0039c-51.4326 14.4688 -109.123 51.8125 -95.4443 113.369
c12.8438 57.79 78.6396 94.2744 127.128 118.102c58.624 28.8076 120.946 47.5293 184.569 61.6191c26.6602 5.9082 53.5938 10.9199 80.6328 15.6016c18.8398 46.8193 34 95.2451 48.1768 142.158c38.7568 128.243 66.2197 259.574 96.6396 389.946zM157.773 -70.8721
c39.3047 41.3281 68.666 90.5391 92.375 142.844c-56.6943 -10.6406 -113.083 -23.7217 -167.044 -44.4111c-50.3809 -19.3135 -126.089 -50.9785 -148.004 -104.853c-27.2822 -67.0723 62.1729 -81.585 107.137 -69.2637c44.9082 12.3027 83.9395 42.4551 115.536 75.6836z
" />
    <glyph glyph-name="K" unicode="K" horiz-adv-x="875" 
d="M492.796 598.706c54.3408 39.8779 139.416 65.7666 196.502 15.0127c55.1377 -49.0176 36.1924 -129.389 -3.08105 -181.102c-66.6621 -87.7861 -169.64 -146.653 -272.506 -195.328c19.1143 -2.22266 37.9795 -9.68164 55.6426 -19.668
c46.9688 -26.5537 63.25 -79.1445 69.6445 -129.481c7.17188 -56.4512 -2.27344 -113.351 -11.2578 -169.036c-8.38672 -51.9746 -14.9053 -102.567 -17.4453 -154.878c-0.298828 -4.875 -0.90918 -9.71289 -1.83691 -14.5068
c6.79883 3.45508 13.5664 6.97852 20.2969 10.5645c11.1631 6.9541 20.6387 16.3242 29.5352 25.8994c18.4355 19.8486 34.0508 42.4307 49.3916 64.6953c28.9824 42.0566 55.3936 85.8008 82.8691 128.835c49.876 78.1299 107.255 170.673 190.291 217.188
c15.6211 8.75391 60.2432 -5.8457 35.1523 -20.0352c-48.625 -27.5 -86.9336 -76.2559 -119.502 -120.697c-30.0342 -40.9736 -56.6006 -84.3623 -83.416 -127.465c-25.8818 -41.5957 -51.9629 -83.1045 -81.1562 -122.484
c-27.9053 -37.6357 -57.0742 -74.3818 -104.423 -87.0078c-41.1475 -10.9697 -103.843 -5.16113 -135.521 26.7529c-37.0195 37.3066 -20.3398 105.133 -11.9971 150.563c10.3975 56.582 25.166 112.149 33.8076 169.067c2.8457 18.7275 24.4004 166.19 -22.1074 144.735
c-3.46191 -1.59375 -8.7793 -1.96777 -14.333 -1.44434c-10.4473 -32.6553 -21.6289 -65.0244 -33.5264 -96.9453c-27.3818 -73.4727 -62.0859 -143.446 -112.286 -204.162c-52.2236 -63.1689 -141.094 -129.812 -227.666 -98.4326
c-62.0293 22.4756 -79.001 98.75 -65.5586 156.988c15.8447 68.6729 65.9268 114.771 124.357 149.263c50.0635 29.5547 104.803 51.6631 158.745 74.3066c1.06445 3.03809 2.13574 6.07617 3.19434 9.1084c27.5312 78.79 50.9287 158.894 72.9688 239.371
c22.0029 80.334 36.4287 163.98 63.8857 242.59c11.2627 32.2383 97.0752 29.3242 99.9395 -7.70801c7.44629 -96.1982 -15.1787 -198.268 -36.5957 -291.639c-8.56055 -37.3311 -18.2734 -74.6182 -28.9385 -111.676c33.8818 17.0713 67.2344 35.1514 99.4785 55.0244
c62.3779 38.4453 139.008 90.3574 167.504 161.159c13.585 33.751 13.8652 78.3232 -12.2529 106.639c-36.1299 39.1738 -87.3018 9.6748 -121.613 -14.6934c-15.2852 -10.8457 -60.4551 2.82031 -36.1865 20.627zM128.074 -16.5645
c33.0791 50.5117 56.7715 106.247 77.6719 162.811c-39.0811 -16.623 -77.502 -34.8525 -111.091 -59.0098c-52.6162 -37.8477 -103.041 -108.407 -78.9717 -176.265c3.28711 -9.27637 7.86914 -18.6719 14.6992 -25.8506
c1.37598 -1.44434 3.18164 -2.75195 5.05566 -3.92871c0.859375 0.678711 1.71191 1.37598 2.52734 2.12305c6.30664 5.77148 12.7314 11.4121 18.9268 17.3086c26.4229 25.1592 51.1592 52.2422 71.1816 82.8115z" />
    <glyph glyph-name="L" unicode="L" horiz-adv-x="395" 
d="M250.485 413.7c-19.7988 -79.8916 -46.0293 -158.677 -72.6084 -236.57c-19.3193 -56.5752 -41.0977 -117.689 -69.4385 -175.118c59.2344 11.2627 112.043 35.4941 159.255 75.6768c48.1523 40.9922 87.9805 90.6318 127.235 139.898
c11.4121 14.3262 60.168 5.33594 44.1855 -14.7178c-73.5352 -92.2939 -153.676 -186.593 -271.901 -219.403c-24.9912 -6.92969 -50.3994 -11.3125 -76.0068 -14.3193c-31.6592 -56.7871 -70.9824 -108.083 -122.409 -145.115
c-52.6846 -37.9287 -142.295 -64.1406 -203.365 -27.582c-42.623 25.5205 -66.1328 82.0957 -35.5137 125.547c31.8398 45.1758 93.0039 57.6836 144.368 63.4805c23.7705 2.67676 47.6348 3.97168 71.5176 4.89355c52.8213 93.1162 86.9463 197.769 120.66 298.424
c40.8857 122.073 81.3301 246.637 106.439 372.9c7.37793 37.0947 89.8105 38.2588 95.918 0c7.12207 -44.6279 10.5898 -82.9492 5.54688 -128.324c-4.49512 -40.4375 -14.1084 -80.2217 -23.8828 -119.67zM-183.809 -156.764
c42.4238 14.8926 80.7119 69.9551 104.296 105.692c2.61523 3.95996 5.1123 7.99414 7.63965 12.0098c-36.2725 -1.51953 -72.6631 -5.35449 -105.374 -18.1611c-28.2783 -11.0693 -61.7432 -38.5762 -48.2637 -72.5391c7.11035 -17.8994 23.6592 -33.334 41.7021 -27.002z
" />
    <glyph glyph-name="M" unicode="M" horiz-adv-x="824" 
d="M229.084 435.255c-20.9316 -63.7539 -41.7451 -127.619 -61.0332 -191.884c-9.58789 -31.9521 -18.9082 -64.0098 -27.8545 -96.167c4.00293 7.98145 8 15.957 12.0156 23.9326c46.29 91.9326 93.4834 183.573 147.656 271.167
c27.7676 44.9082 57.5898 88.4219 89.3115 130.628c35.9551 47.8408 71.2188 88.416 136.387 87.5938c42.959 -0.541992 97.1436 -24.0518 81.1113 -74.6377c-8.23047 -25.9746 -22.5996 -50.2373 -32.0566 -76.0498c-9.01562 -24.6172 -17.5332 -49.3721 -26.9971 -73.834
c-18.834 -48.7061 -37.4248 -97.6055 -53.6123 -147.271c-9.32617 -28.6143 -17.8369 -57.5586 -24.2812 -86.9697c-0.429688 -1.96094 -2.19141 -8.77246 -4.1709 -17.3086c4.25195 7.12891 8.54199 14.2451 12.6572 21.4551
c12.1963 21.3613 23.8262 43.0469 35.6934 64.5947c24.4307 44.3662 49.6025 88.4023 79.668 129.251c32.4688 44.1113 102.66 134.606 169.533 107.523c34.5479 -13.9902 18.3848 -54.8516 11.4053 -81.6416c-11.8789 -45.5869 -26.9834 -90.2832 -42.623 -134.699
c-15.665 -44.4727 -32.0273 -88.708 -46.6025 -133.554c-13.6221 -41.9199 -36.3281 -93.708 -35.0459 -138.205c0.0556641 -1.84961 1.25684 -15.0615 0.839844 -17.6826c0.579102 0.510742 1.53125 1.50684 3.15039 3.55566
c7.97559 10.0615 16.4805 19.7744 24.6299 29.6982l46.3389 56.4258c32.1826 39.1865 64.3584 78.3672 96.541 117.554c11.6182 14.1455 60.3682 5.12988 44.1865 -14.7188c-53.6621 -65.8086 -105.475 -133.803 -161.284 -197.787
c-17.1836 -19.6992 -38.1836 -31.9082 -65.1299 -27.1143c-23.4717 4.17188 -40.1445 21.499 -41.9004 45.5752c-2.02344 27.625 9.83105 59.5205 16.9531 85.8691c8.85352 32.7549 19.4316 64.9805 30.6885 96.9824c23.1855 65.8955 49.1543 130.857 69.333 197.78
c5.78418 19.1826 11.3564 38.5205 15.7578 58.0703c1.75 7.77637 4.37695 15.9512 3.74805 24.0576c-0.0556641 0.672852 27.2578 15.1797 -6.4375 -1.3877c-27.3818 -13.4609 -49.5342 -39.7529 -68.7666 -62.7764c-41.7139 -49.9385 -73.1992 -107.448 -104.516 -164.186
c-16.916 -30.6445 -33.2842 -61.8301 -51.7129 -91.6025c-10.9893 -17.7627 -23.2295 -37.4805 -44.2607 -43.8936c-67.8447 -20.6895 -46.7012 64.0957 -39.0869 98.999c14.1455 64.8496 36.2607 127.452 58.4316 189.898c11.7793 33.1846 22.8926 66.793 32.4248 100.706
c2.7832 9.90527 5.60938 20.1592 7.75098 30.4756c-18.5908 -25.4141 -35.3701 -52.3604 -51.6758 -77.4326c-37.3311 -57.4033 -71.2383 -116.949 -103.464 -177.342c-57.1172 -107.037 -108.849 -216.839 -165.754 -323.988
c-25.3398 -47.71 -52.3604 -115.99 -102.822 -141.741c-37.6426 -19.2139 -96.0547 -18.4609 -128.76 11.0938c-19.0205 17.1904 -24.7793 40.9863 -25.3711 65.7598c-1.5 62.6768 18.5605 126.687 33.8389 186.88c16.5859 65.3477 35.3887 130.011 56.5322 194.032
c20.6084 62.4033 43.0596 124.003 67.8389 184.874c25.8379 63.4619 54.042 129.271 93.627 185.18c11.6797 16.4922 32.0635 20.4395 51.2891 19.082c11.9043 -0.84082 42.8535 -7.93848 40.5312 -26.168c-8.5791 -67.3652 -33.458 -134.108 -54.6514 -198.653z
M650.665 1.1543c-0.298828 0.174805 -0.566406 -0.379883 0 0zM517.858 592.206c-0.584961 1.7373 -0.741211 1.32031 0 0z" />
    <glyph glyph-name="N" unicode="N" horiz-adv-x="550" 
d="M244.885 480.848c-21.7969 -62.7764 -44.2285 -125.363 -65.2725 -188.396c-19.9355 -59.707 -38.2402 -120.062 -54.1104 -180.995c25.3584 50.8477 50.8975 101.727 78.3916 151.429c49.584 89.6299 106.863 189.128 185.541 256.63
c28.459 24.418 78.1426 59.5078 116.376 32.4189c34.6973 -24.5801 -3.55566 -86.5225 -14.918 -114.788c-42.5488 -105.86 -102.667 -208.813 -125.46 -321.591c-3.10059 -15.335 -3.54883 -30.5078 -5.26074 -45.8984l3.94043 3.00586
c5.41699 4.25195 10.7344 8.66016 16.0137 13.0811c18.5469 15.54 36.3721 31.9141 54.4336 48.002c37.1943 33.1289 75.3906 64.8193 119.714 88.0049c16.1006 8.42383 61.6748 -6.88574 35.8369 -20.4277c-43.0283 -22.5508 -79.5186 -53.4072 -115.518 -85.6582
c-28.2158 -25.2715 -57.5771 -58.4248 -91.8262 -75.5273c-23.5781 -11.7676 -62.6338 -10.7715 -72.458 18.042c-6.76758 19.8418 2.1416 49.334 6.61816 68.9268c4.55078 19.8916 10.4092 39.4844 16.7725 58.8721c27.4004 83.4785 66.749 162.312 99.6592 243.618
c9.07715 22.4199 18.2734 45.0078 25.0469 68.2432c-0.379883 -1.29492 0.348633 2.54004 1.87988 8.13086c-0.330078 -0.267578 -0.597656 -0.485352 -0.728516 -0.597656c-29.4307 -25.4766 -54.4346 -55.7412 -77.3213 -87.0957
c-99.0303 -135.652 -167.298 -290.362 -226.476 -446.61c-14.9678 -39.5166 -21.9346 -79.6494 -67.2725 -94.3301c-38.582 -12.4951 -102.187 -6.75488 -123.354 34.25c-19.6123 37.9844 -11.3438 91.4404 -3.61133 131.43c8.19922 42.418 19.6113 84.3877 31.54 125.891
c24.9102 86.6406 56.2334 172.093 89.9219 255.677c17.7568 44.0488 36.1357 87.9043 55.293 131.355c9.69434 22.0029 19.5 43.7754 30.2402 65.292c11.4688 22.9922 26.417 42.4053 40.6865 63.748c12.9814 19.4131 86.2803 29.2754 83.6963 -6.45605
c-2.46582 -34.1621 -5.94629 -64.626 -15.2227 -97.7979c-9.40723 -33.6582 -21.3301 -66.8799 -32.792 -99.8779z" />
    <glyph glyph-name="O" unicode="O" horiz-adv-x="613" 
d="M23.2158 -129.58c-91.2295 67.1104 -63.4619 191.942 -33.4521 283.994c12.4023 38.041 27.9053 74.9678 45.4502 110.979c-6.9043 9.45703 -13.1113 19.6113 -18.4346 30.5938c-84.8047 174.994 92.0322 398.003 280.312 369.133
c212.823 -32.6367 194.413 -303.71 153.309 -470.778c59.875 11.2754 118.772 28.6396 176.992 46.0166c17.4395 5.20508 51.8691 -12.7939 23.124 -22.5498c-67.5088 -22.9053 -137.358 -42.9844 -208.285 -54.3535c-1.07715 -3.79199 -2.1543 -7.53418 -3.2373 -11.1641
c-28.7578 -96.3721 -74.5625 -191.947 -157.68 -252.726c-72.3398 -52.8965 -178.475 -87.7061 -258.099 -29.1445zM298.953 -27.3359c43.0029 52.6973 71.1816 117.968 90.6133 184.112c-36.7773 -3.44922 -73.7471 -4.27734 -110.761 -1.50098
c-46.9941 3.52441 -96.9951 13.1934 -141.748 32.457c-1.91113 -4.11523 -3.90918 -8.18066 -5.77734 -12.3271c-32.4375 -72.0225 -87.1016 -192.694 -37.2559 -268.153c25.1035 -37.9971 77.7627 -27.4189 113.126 -10.8574
c35.8867 16.8105 66.9795 45.8428 91.8027 76.2695zM243.896 637.753c-141 -18.8027 -236.11 -196.635 -183.719 -324.087c24.8359 45.5303 52.3301 89.6914 80.3906 132.844c16.7607 25.7754 53.1328 30.8809 81.4365 26.3545
c18.3359 -2.93262 61.4443 -20.0234 46.2344 -46.415c-39.9961 -69.4014 -81.4678 -137.551 -117.024 -209.193c56.9736 -29.7607 126.556 -37.002 189.046 -35.3398c19.251 0.510742 38.3838 2.02344 57.4102 4.2832c2.68945 10.4912 5.19238 20.9697 7.50879 31.373
c18.6221 83.5527 30.4639 176.85 13.8906 261.741c-16.542 84.6924 -78.9199 171.271 -175.174 158.439z" />
    <glyph glyph-name="O" unicode="&#xd6;" horiz-adv-x="613" 
d="M23.2158 -129.58c-91.2295 67.1104 -63.4619 191.942 -33.4521 283.994c12.4023 38.041 27.9053 74.9678 45.4502 110.979c-6.9043 9.45703 -13.1113 19.6113 -18.4346 30.5938c-84.8047 174.994 92.0322 398.003 280.312 369.133
c212.823 -32.6367 194.413 -303.71 153.309 -470.778c59.875 11.2754 118.772 28.6396 176.992 46.0166c17.4395 5.20508 51.8691 -12.7939 23.124 -22.5498c-67.5088 -22.9053 -137.358 -42.9844 -208.285 -54.3535c-1.07715 -3.79199 -2.1543 -7.53418 -3.2373 -11.1641
c-28.7578 -96.3721 -74.5625 -191.947 -157.68 -252.726c-72.3398 -52.8965 -178.475 -87.7061 -258.099 -29.1445zM298.953 -27.3359c43.0029 52.6973 71.1816 117.968 90.6133 184.112c-36.7773 -3.44922 -73.7471 -4.27734 -110.761 -1.50098
c-46.9941 3.52441 -96.9951 13.1934 -141.748 32.457c-1.91113 -4.11523 -3.90918 -8.18066 -5.77734 -12.3271c-32.4375 -72.0225 -87.1016 -192.694 -37.2559 -268.153c25.1035 -37.9971 77.7627 -27.4189 113.126 -10.8574
c35.8867 16.8105 66.9795 45.8428 91.8027 76.2695zM243.896 637.753c-141 -18.8027 -236.11 -196.635 -183.719 -324.087c24.8359 45.5303 52.3301 89.6914 80.3906 132.844c16.7607 25.7754 53.1328 30.8809 81.4365 26.3545
c18.3359 -2.93262 61.4443 -20.0234 46.2344 -46.415c-39.9961 -69.4014 -81.4678 -137.551 -117.024 -209.193c56.9736 -29.7607 126.556 -37.002 189.046 -35.3398c19.251 0.510742 38.3838 2.02344 57.4102 4.2832c2.68945 10.4912 5.19238 20.9697 7.50879 31.373
c18.6221 83.5527 30.4639 176.85 13.8906 261.741c-16.542 84.6924 -78.9199 171.271 -175.174 158.439z" />
    <glyph glyph-name="O" unicode="&#xd5;" horiz-adv-x="613" 
d="M23.2158 -129.58c-91.2295 67.1104 -63.4619 191.942 -33.4521 283.994c12.4023 38.041 27.9053 74.9678 45.4502 110.979c-6.9043 9.45703 -13.1113 19.6113 -18.4346 30.5938c-84.8047 174.994 92.0322 398.003 280.312 369.133
c212.823 -32.6367 194.413 -303.71 153.309 -470.778c59.875 11.2754 118.772 28.6396 176.992 46.0166c17.4395 5.20508 51.8691 -12.7939 23.124 -22.5498c-67.5088 -22.9053 -137.358 -42.9844 -208.285 -54.3535c-1.07715 -3.79199 -2.1543 -7.53418 -3.2373 -11.1641
c-28.7578 -96.3721 -74.5625 -191.947 -157.68 -252.726c-72.3398 -52.8965 -178.475 -87.7061 -258.099 -29.1445zM298.953 -27.3359c43.0029 52.6973 71.1816 117.968 90.6133 184.112c-36.7773 -3.44922 -73.7471 -4.27734 -110.761 -1.50098
c-46.9941 3.52441 -96.9951 13.1934 -141.748 32.457c-1.91113 -4.11523 -3.90918 -8.18066 -5.77734 -12.3271c-32.4375 -72.0225 -87.1016 -192.694 -37.2559 -268.153c25.1035 -37.9971 77.7627 -27.4189 113.126 -10.8574
c35.8867 16.8105 66.9795 45.8428 91.8027 76.2695zM243.896 637.753c-141 -18.8027 -236.11 -196.635 -183.719 -324.087c24.8359 45.5303 52.3301 89.6914 80.3906 132.844c16.7607 25.7754 53.1328 30.8809 81.4365 26.3545
c18.3359 -2.93262 61.4443 -20.0234 46.2344 -46.415c-39.9961 -69.4014 -81.4678 -137.551 -117.024 -209.193c56.9736 -29.7607 126.556 -37.002 189.046 -35.3398c19.251 0.510742 38.3838 2.02344 57.4102 4.2832c2.68945 10.4912 5.19238 20.9697 7.50879 31.373
c18.6221 83.5527 30.4639 176.85 13.8906 261.741c-16.542 84.6924 -78.9199 171.271 -175.174 158.439z" />
    <glyph glyph-name="O" unicode="&#xd4;" horiz-adv-x="613" 
d="M23.2158 -129.58c-91.2295 67.1104 -63.4619 191.942 -33.4521 283.994c12.4023 38.041 27.9053 74.9678 45.4502 110.979c-6.9043 9.45703 -13.1113 19.6113 -18.4346 30.5938c-84.8047 174.994 92.0322 398.003 280.312 369.133
c212.823 -32.6367 194.413 -303.71 153.309 -470.778c59.875 11.2754 118.772 28.6396 176.992 46.0166c17.4395 5.20508 51.8691 -12.7939 23.124 -22.5498c-67.5088 -22.9053 -137.358 -42.9844 -208.285 -54.3535c-1.07715 -3.79199 -2.1543 -7.53418 -3.2373 -11.1641
c-28.7578 -96.3721 -74.5625 -191.947 -157.68 -252.726c-72.3398 -52.8965 -178.475 -87.7061 -258.099 -29.1445zM298.953 -27.3359c43.0029 52.6973 71.1816 117.968 90.6133 184.112c-36.7773 -3.44922 -73.7471 -4.27734 -110.761 -1.50098
c-46.9941 3.52441 -96.9951 13.1934 -141.748 32.457c-1.91113 -4.11523 -3.90918 -8.18066 -5.77734 -12.3271c-32.4375 -72.0225 -87.1016 -192.694 -37.2559 -268.153c25.1035 -37.9971 77.7627 -27.4189 113.126 -10.8574
c35.8867 16.8105 66.9795 45.8428 91.8027 76.2695zM243.896 637.753c-141 -18.8027 -236.11 -196.635 -183.719 -324.087c24.8359 45.5303 52.3301 89.6914 80.3906 132.844c16.7607 25.7754 53.1328 30.8809 81.4365 26.3545
c18.3359 -2.93262 61.4443 -20.0234 46.2344 -46.415c-39.9961 -69.4014 -81.4678 -137.551 -117.024 -209.193c56.9736 -29.7607 126.556 -37.002 189.046 -35.3398c19.251 0.510742 38.3838 2.02344 57.4102 4.2832c2.68945 10.4912 5.19238 20.9697 7.50879 31.373
c18.6221 83.5527 30.4639 176.85 13.8906 261.741c-16.542 84.6924 -78.9199 171.271 -175.174 158.439z" />
    <glyph glyph-name="O" unicode="&#xd3;" horiz-adv-x="613" 
d="M23.2158 -129.58c-91.2295 67.1104 -63.4619 191.942 -33.4521 283.994c12.4023 38.041 27.9053 74.9678 45.4502 110.979c-6.9043 9.45703 -13.1113 19.6113 -18.4346 30.5938c-84.8047 174.994 92.0322 398.003 280.312 369.133
c212.823 -32.6367 194.413 -303.71 153.309 -470.778c59.875 11.2754 118.772 28.6396 176.992 46.0166c17.4395 5.20508 51.8691 -12.7939 23.124 -22.5498c-67.5088 -22.9053 -137.358 -42.9844 -208.285 -54.3535c-1.07715 -3.79199 -2.1543 -7.53418 -3.2373 -11.1641
c-28.7578 -96.3721 -74.5625 -191.947 -157.68 -252.726c-72.3398 -52.8965 -178.475 -87.7061 -258.099 -29.1445zM298.953 -27.3359c43.0029 52.6973 71.1816 117.968 90.6133 184.112c-36.7773 -3.44922 -73.7471 -4.27734 -110.761 -1.50098
c-46.9941 3.52441 -96.9951 13.1934 -141.748 32.457c-1.91113 -4.11523 -3.90918 -8.18066 -5.77734 -12.3271c-32.4375 -72.0225 -87.1016 -192.694 -37.2559 -268.153c25.1035 -37.9971 77.7627 -27.4189 113.126 -10.8574
c35.8867 16.8105 66.9795 45.8428 91.8027 76.2695zM243.896 637.753c-141 -18.8027 -236.11 -196.635 -183.719 -324.087c24.8359 45.5303 52.3301 89.6914 80.3906 132.844c16.7607 25.7754 53.1328 30.8809 81.4365 26.3545
c18.3359 -2.93262 61.4443 -20.0234 46.2344 -46.415c-39.9961 -69.4014 -81.4678 -137.551 -117.024 -209.193c56.9736 -29.7607 126.556 -37.002 189.046 -35.3398c19.251 0.510742 38.3838 2.02344 57.4102 4.2832c2.68945 10.4912 5.19238 20.9697 7.50879 31.373
c18.6221 83.5527 30.4639 176.85 13.8906 261.741c-16.542 84.6924 -78.9199 171.271 -175.174 158.439z" />
    <glyph glyph-name="P" unicode="P" horiz-adv-x="638" 
d="M258.117 669.583c7.81348 -75.4902 -22.3291 -149.962 -43.4229 -221.479c-13.4668 -45.7178 -26.3799 -91.6777 -38.7949 -137.756c43.333 101.745 98.3955 202.189 176.339 279.398c47.0625 46.6201 108.594 81.249 174.714 90.6133
c32.6992 4.62598 70.6338 3.30566 100.188 -13.1309c23.6836 -13.1738 29.6045 -30.4443 31.9023 -56.0518c5.22363 -58.207 -30.5879 -121.47 -61.2695 -168.656c-33.5703 -51.6318 -77.0273 -96.1475 -129.027 -129.326
c-24.8418 -15.8516 -54.2969 -30.5391 -85.9004 -42.1191c21.168 -2.30957 42.1494 -6.5 62.6582 -12.9561c57.6523 -18.1484 132.346 -88.1846 192.271 -47.2051c14.9297 10.2041 58.6055 -3.62988 34.8096 -19.8428c-51.3643 -35.0029 -115.66 -20.9443 -167.909 4.18359
c-38.1406 18.3477 -73.0498 39.1113 -115.405 46.4951c-32.4189 5.65332 -64.9248 4.73828 -97.1504 0.125c-28.1914 -71.5059 -51.9502 -144.698 -76.082 -217.654c-28.3848 -85.8193 -53.8926 -178.48 -96.416 -258.621
c-27.376 -51.5889 -99.3359 -69.1963 -150.159 -39.2559c-40.9609 24.1318 -41.6895 78.0557 -38.1035 120.013c8.13086 94.9961 30.2266 189.271 52.3164 281.808c45.3379 189.949 111.408 373.485 200.776 547.104c11.2129 21.7852 70.6777 23.2168 73.666 -5.68457z
M440.904 512.972c-54.9199 -67.1348 -95.7295 -145.507 -129.854 -224.889c-0.529297 -1.22656 -1.02148 -2.47168 -1.54492 -3.69824c55.0625 8.46094 108.476 35.2012 151.722 70.7021c38.2461 31.3975 69.9678 70.1855 94.2305 113.244
c18.958 33.6455 46.3027 84.873 41.2412 125.161c-6.5127 51.9004 -50.7607 19.7432 -74.6621 1.07129c-30.1592 -23.5654 -56.9434 -52.0244 -81.1318 -81.5918z" />
    <glyph glyph-name="Q" unicode="Q" horiz-adv-x="613" 
d="M23.2217 -129.58c-91.2354 67.1104 -63.4688 191.941 -33.459 283.993c12.4023 38.041 27.9053 74.9678 45.4502 110.979c-6.9043 9.45703 -13.1113 19.6113 -18.4346 30.5938c-84.8047 174.994 92.0322 398.003 280.312 369.133
c212.823 -32.6367 194.413 -303.71 153.309 -470.778c59.875 11.2754 118.772 28.6396 176.992 46.0166c17.4395 5.20508 51.8691 -12.7939 23.124 -22.5498c-67.5088 -22.9053 -137.358 -42.9844 -208.285 -54.3535c-1.07715 -3.79199 -2.1543 -7.53418 -3.2373 -11.1641
c-28.7578 -96.3721 -74.5625 -191.947 -157.68 -252.726c-31.6094 -23.1172 -69.6816 -42.7793 -109.173 -52.7031c1.46973 -0.990234 2.95117 -1.93652 4.4082 -2.94531c31.1738 -21.5977 65.6846 -63.6289 105.886 -65.1416c26.8154 -1.00879 26.9775 -26.2988 0 -25.2842
c-40.1328 1.50684 -69.7871 20.042 -100.513 44.3359c-19.4062 15.3467 -39.1367 29.4424 -59.6387 42.1807c-34.6416 -0.603516 -68.7725 8.1377 -99.0615 30.4141zM298.958 -27.3369c43.0029 52.6973 71.1758 117.969 90.6133 184.113
c-36.7705 -3.44922 -73.7471 -4.27734 -110.754 -1.50098c-47 3.52344 -97.001 13.1924 -141.754 32.4561c-1.91113 -4.11523 -3.91016 -8.18066 -5.77832 -12.3271c-32.4375 -72.0225 -87.1016 -192.694 -37.2559 -268.153
c25.1035 -37.9971 77.7627 -27.4189 113.126 -10.8574c35.8867 16.8105 66.9795 45.8428 91.8027 76.2695zM243.896 637.753c-141 -18.8027 -236.108 -196.635 -183.717 -324.094c24.8359 45.5371 52.3301 89.6982 80.3906 132.851
c16.7666 25.7754 53.1328 30.8809 81.4365 26.3545c18.3359 -2.93262 61.4443 -20.0234 46.2344 -46.415c-39.9961 -69.4014 -81.4678 -137.551 -117.024 -209.193c56.9805 -29.7607 126.556 -37.002 189.046 -35.3398c19.251 0.510742 38.3838 2.02344 57.4102 4.2832
c2.69629 10.4912 5.19336 20.9697 7.51562 31.373c18.6152 83.5527 30.4629 176.85 13.8828 261.741c-16.5361 84.6924 -78.9209 171.271 -175.175 158.439z" />
    <glyph glyph-name="R" unicode="R" horiz-adv-x="704" 
d="M741.086 181.515c-91.1113 -38.9688 -165.57 -129.353 -227.986 -203.629c-32.3379 -38.4951 -61.6562 -79.1074 -91.6035 -119.445c-20.6201 -27.7803 -44.3662 -67.9131 -78.9453 -79.998c-30.0596 -10.5029 -61.2334 1.99902 -76.3066 29.6982
c-19.5186 35.8809 -11.3809 83.3604 -6.4873 121.769c6.62402 51.9619 17.7314 103.202 26.1924 154.865c1.6875 10.2979 17.9121 153.627 6.49316 151.36c-0.915039 -0.186523 -1.81152 -0.254883 -2.71387 -0.341797
c-27.1455 -69.5693 -50.2373 -140.688 -73.6904 -211.578c-28.3848 -85.8193 -53.8926 -178.48 -96.416 -258.621c-27.376 -51.5889 -99.3359 -69.1963 -150.159 -39.2559c-40.9609 24.1318 -41.6895 78.0557 -38.1035 120.013
c8.13086 94.9961 30.2266 189.271 52.3164 281.808c45.3379 189.949 111.408 373.485 200.776 547.104c11.2129 21.7852 70.6777 23.2168 73.666 -5.68457c7.80762 -75.4902 -22.3389 -149.959 -43.4141 -221.496c-13.4609 -45.7178 -26.374 -91.6777 -38.7949 -137.756
c43.333 101.745 98.3896 202.189 176.339 279.398c47.0625 46.6201 108.594 81.249 174.714 90.6133c32.6992 4.62598 70.6338 3.30566 100.188 -13.1309c23.6836 -13.1738 29.6045 -30.4443 31.9023 -56.0518c5.22363 -58.207 -30.5879 -121.47 -61.2695 -168.656
c-33.5703 -51.6318 -77.0273 -96.1475 -129.027 -129.326c-40.2266 -25.6699 -92.5127 -48.3389 -146.529 -59.5771c40.1826 -31.1055 12.8379 -141.878 6.43164 -180.292c-8.28711 -49.6895 -18.5166 -99.0928 -24.4004 -149.162
c-2.00488 -17.0215 -13.0869 -133.995 23.5156 -117.054c17.9248 8.29297 33.4707 37.082 45.375 52.7715c15.2354 20.085 29.7236 40.7246 44.791 60.9277c29.0254 38.9189 59.8252 76.4932 92.4365 112.474c59.6885 65.8652 124.52 135.279 207.58 170.805
c17.5889 7.52148 50.6611 -10.7764 23.1299 -22.5498zM440.897 512.968c-54.9199 -67.1348 -95.7363 -145.507 -129.854 -224.889c-0.529297 -1.22656 -1.02148 -2.47168 -1.54492 -3.69824c55.0625 8.46094 108.476 35.2012 151.722 70.7021
c38.2461 31.3975 69.9678 70.1855 94.2305 113.244c18.958 33.6455 46.3027 84.873 41.2412 125.161c-6.5127 51.9004 -50.7607 19.7432 -74.6621 1.07129c-30.1592 -23.5654 -56.9434 -52.0244 -81.1318 -81.5918z" />
    <glyph glyph-name="S" unicode="S" horiz-adv-x="570" 
d="M381.944 383.274c72.1719 27.1084 173.8 105.273 163.179 193.439c-11.1006 92.1387 -119.29 78.0684 -179.159 51.166c-135.521 -60.9023 -278.445 -216.104 -270.016 -373.304c2.16016 -40.376 14.2266 -80.6826 41.1787 -111.645
c21.791 -25.0352 49.3223 -42.0322 76.1123 -60.8906c15.7578 -11.0947 33.6387 -23.7959 50.8662 -38.0908c23.0049 19.0332 47.1865 36.7402 71.3682 53.8926c75.6338 53.6309 155.457 100.27 239.209 140.004c8.72266 4.14062 24.4062 6.78711 32.7432 0.000976562
c6.72363 -5.47266 9.81152 -13.7656 -0.000976562 -18.665c-95.3574 -47.6035 -187.9 -102.566 -272.842 -167.099c-14.3818 -10.9199 -28.5459 -22.2393 -42.2432 -34.0996c25.6445 -26.5352 45.2129 -57.3975 46.2402 -92.5742
c1.87402 -64.1592 -66.126 -130.279 -129.719 -129.239c-31.6963 0.516602 -60.0557 18.1553 -67.8877 49.8896c-7.83203 31.7275 7.5459 63.0381 23.9766 89.3057c17.2773 27.6182 38.2402 52.1738 61.332 74.6992c-6.81152 3.90332 -13.7412 7.52051 -20.5713 10.8945
c-70.3975 34.7598 -148.813 60.373 -199.468 124.215c-112.659 141.99 2.2793 336.776 113.071 440.034c62.3037 58.0635 138.379 105.854 220.854 128.679c81.8652 22.6562 186.325 24.7793 256.031 -31.7588c62.7949 -50.9346 52.6963 -133.983 10.9883 -195.254
c-45.8916 -67.4209 -116.837 -113.319 -195.483 -132.613c-10.9395 -2.68359 -32.2695 -5.02441 -40.332 6.02637c-7.83887 10.7402 -0.473633 18.8398 10.5713 22.9863zM289.414 -74.5996c-0.765625 25.9434 -13.1182 45.6553 -30.3516 61.3887
c-7.83887 -8.0498 -15.3789 -16.3799 -22.5391 -25.0469c-19.5928 -23.7148 -79.8857 -104.036 -36.1914 -132.694c25.9062 -16.9912 61.1328 26.0117 72.751 44.1104c10.0117 15.5898 16.8848 33.4521 16.3311 52.2422z" />
    <glyph glyph-name="T" unicode="T" horiz-adv-x="447" 
d="M358.451 86.1318c-36.4287 -45.7363 -71.2959 -92.6836 -107.481 -138.601c-43.04 -54.6211 -121.481 -182.173 -207.587 -144.816c-98.8623 42.8906 -55.4238 178.643 -28.2158 254.356c36.877 102.636 89.2314 199.773 132.489 299.838
c22.8555 52.8711 44.6836 106.185 65.9824 159.703c10.167 25.5391 19.5371 51.7256 29.3242 77.7383c-99.3916 -35.874 -260.508 -69.1895 -289.764 55.0938c-3.58008 15.2168 41.7578 18.7402 45.4814 3.50488c24.6055 -100.762 147.812 -69.3701 258.684 -21.7783
c6.39453 15.6709 13.125 31.1611 20.5527 46.2158c15.2227 30.8564 81.542 37.8174 115.903 19.4941c12.2959 6.12598 22.8867 11.2314 31.2168 14.7803c66.3877 28.2725 137.943 49.4404 210.812 46.4395c49.0986 -2.02344 123.443 -21.9961 107.529 -86.2607
c-4.15234 -16.7793 -51.6816 -13.4609 -46.5264 7.30859c13.9521 56.165 -70.6338 53.6748 -104.092 50.2256c-38.6201 -3.98438 -76.0508 -15.0732 -112.242 -28.7578c-22.5508 -8.5293 -44.5723 -18.2539 -66.4004 -28.4268
c0.87793 -4.83789 0.634766 -10.1738 -1.02734 -16.0449c-16.082 -56.7627 -41.8145 -111.975 -63.668 -166.764c-21.3369 -53.5059 -43.2148 -106.794 -66.1514 -159.634c-40.1328 -92.4561 -87.4873 -181.426 -129.88 -272.817
c-20.1348 -43.4141 -37.835 -87.793 -53.0322 -133.168c-7.27832 -21.7227 -14.9053 -43.2646 -22.5264 -64.8252c-3.29395 -9.33301 -9.2334 -20.9512 0.373047 -26.8779c9.96191 -6.13867 24.7305 10.1426 32.6309 17.2031
c68.7227 61.4199 121.874 144.151 178.307 216.479c29.1875 37.4121 58.9102 74.457 90.6133 109.777c23.9199 26.6533 51.0713 68.7227 90.4385 67.1348c20.6084 -0.828125 32.0703 -22.8242 5.96484 -25.1025c-8.74707 -0.765625 -22.3076 -21.249 -28.6084 -27.8672
c-10.0488 -10.5469 -19.8799 -21.2988 -29.5361 -32.207c-20.54 -23.2041 -40.2637 -47.1123 -59.5645 -71.3438z" />
    <glyph glyph-name="U" unicode="U" horiz-adv-x="725" 
d="M554.516 505.97c8.11914 12.6387 15.7783 25.459 21.0264 39.6172c0.498047 1.33203 0.97168 3.37402 1.48242 5.54102c-46.4082 -35.8994 -80.6641 -86.9092 -112.827 -135.11c-33.4648 -50.1504 -65.0303 -101.564 -94.0371 -154.417
c-57.2979 -104.392 -113.574 -209.399 -172.479 -312.9c-23.4219 -41.1543 -53.0264 -80.6396 -98.0283 -99.5293c-53.7617 -22.5693 -138.547 -16.2002 -159.436 48.3389c-16.0508 49.5713 17.6377 115.723 35.6553 161.452
c20.0723 50.9287 44.0605 100.245 68.5908 149.138c50.9844 101.614 100.319 204.269 151.652 305.609c13.7842 27.2197 26.3604 54.1348 36.8262 82.8799c3.59863 9.88672 6.51855 19.6992 9.13965 29.8721c3.94141 15.2969 8.2002 30.1836 -14.543 31.8828
c-23.0361 1.72461 -56.9863 -26.9277 -72.626 -41.2354c-19.6494 -17.9746 -34.9277 -39.1309 -47.0371 -62.752c-7.70801 -15.042 -52.1865 -10.1045 -43.7129 6.86719c39.6904 79.5059 156.876 173.681 240.927 96.9893
c42.1006 -38.4209 20.3408 -115.437 9.70703 -163.75c-13.373 -60.7598 -39.2354 -119.029 -64.9365 -175.362c-48.2266 -105.687 -104.423 -207.644 -144.021 -317.146c-8.31836 -23.0049 -21.0195 -50.1816 -21.8105 -75.6211
c41.6826 37.5303 70.123 92.002 99.2793 138.747c65.9521 105.729 128.778 213.19 198.055 316.872c32.6611 48.8799 66.2568 98.8936 105.48 142.83c29.1006 32.5928 69.4385 75.8447 117.79 68c103.831 -16.8418 -7.81348 -223.582 -29.2002 -270.912
c-52.3672 -115.916 -114.783 -234.166 -148.192 -357.366c-7.08496 -26.124 -13.8584 -54.8945 -9.55664 -82.0273c0.0869141 -0.553711 0.205078 -1.12695 0.335938 -1.70605c1.43848 0.68457 2.87695 1.48145 4.21582 2.46484
c5.96484 4.37695 11.1631 9.68164 16.1689 15.0918c38.2773 41.3467 68.3867 91.4531 100.332 137.7c29.7666 43.084 60.7158 85.7881 97.4307 123.287c31.1357 31.8145 72.4326 75.6826 121.163 64.8057c32.2881 -7.20996 11.3691 -32.7432 -13.2178 -27.3262
c-17.5449 3.86035 -60.3672 -47.3545 -71.2939 -59.0156c-20.3027 -21.6729 -38.8809 -44.9209 -56.3818 -68.8906c-35.127 -48.1084 -66.1074 -99.0312 -100.768 -147.451c-32.1943 -44.9766 -59.0654 -95.04 -119.787 -98.9316
c-63.4238 -4.06543 -121.786 25.6445 -120.143 95.2324c1.38867 58.7178 30.626 118.637 53.1143 171.744c24.748 58.4561 52.3975 115.76 80.8564 172.491c28.9014 57.6094 61.0215 113.562 96.0244 167.673c16.4053 25.3643 32.4619 50.9219 48.7803 76.3242z" />
    <glyph glyph-name="U" unicode="&#xdc;" horiz-adv-x="725" 
d="M554.516 505.97c8.11914 12.6387 15.7783 25.459 21.0264 39.6172c0.498047 1.33203 0.97168 3.37402 1.48242 5.54102c-46.4082 -35.8994 -80.6641 -86.9092 -112.827 -135.11c-33.4648 -50.1504 -65.0303 -101.564 -94.0371 -154.417
c-57.2979 -104.392 -113.574 -209.399 -172.479 -312.9c-23.4219 -41.1543 -53.0264 -80.6396 -98.0283 -99.5293c-53.7617 -22.5693 -138.547 -16.2002 -159.436 48.3389c-16.0508 49.5713 17.6377 115.723 35.6553 161.452
c20.0723 50.9287 44.0605 100.245 68.5908 149.138c50.9844 101.614 100.319 204.269 151.652 305.609c13.7842 27.2197 26.3604 54.1348 36.8262 82.8799c3.59863 9.88672 6.51855 19.6992 9.13965 29.8721c3.94141 15.2969 8.2002 30.1836 -14.543 31.8828
c-23.0361 1.72461 -56.9863 -26.9277 -72.626 -41.2354c-19.6494 -17.9746 -34.9277 -39.1309 -47.0371 -62.752c-7.70801 -15.042 -52.1865 -10.1045 -43.7129 6.86719c39.6904 79.5059 156.876 173.681 240.927 96.9893
c42.1006 -38.4209 20.3408 -115.437 9.70703 -163.75c-13.373 -60.7598 -39.2354 -119.029 -64.9365 -175.362c-48.2266 -105.687 -104.423 -207.644 -144.021 -317.146c-8.31836 -23.0049 -21.0195 -50.1816 -21.8105 -75.6211
c41.6826 37.5303 70.123 92.002 99.2793 138.747c65.9521 105.729 128.778 213.19 198.055 316.872c32.6611 48.8799 66.2568 98.8936 105.48 142.83c29.1006 32.5928 69.4385 75.8447 117.79 68c103.831 -16.8418 -7.81348 -223.582 -29.2002 -270.912
c-52.3672 -115.916 -114.783 -234.166 -148.192 -357.366c-7.08496 -26.124 -13.8584 -54.8945 -9.55664 -82.0273c0.0869141 -0.553711 0.205078 -1.12695 0.335938 -1.70605c1.43848 0.68457 2.87695 1.48145 4.21582 2.46484
c5.96484 4.37695 11.1631 9.68164 16.1689 15.0918c38.2773 41.3467 68.3867 91.4531 100.332 137.7c29.7666 43.084 60.7158 85.7881 97.4307 123.287c31.1357 31.8145 72.4326 75.6826 121.163 64.8057c32.2881 -7.20996 11.3691 -32.7432 -13.2178 -27.3262
c-17.5449 3.86035 -60.3672 -47.3545 -71.2939 -59.0156c-20.3027 -21.6729 -38.8809 -44.9209 -56.3818 -68.8906c-35.127 -48.1084 -66.1074 -99.0312 -100.768 -147.451c-32.1943 -44.9766 -59.0654 -95.04 -119.787 -98.9316
c-63.4238 -4.06543 -121.786 25.6445 -120.143 95.2324c1.38867 58.7178 30.626 118.637 53.1143 171.744c24.748 58.4561 52.3975 115.76 80.8564 172.491c28.9014 57.6094 61.0215 113.562 96.0244 167.673c16.4053 25.3643 32.4619 50.9219 48.7803 76.3242z" />
    <glyph glyph-name="U" unicode="&#xdb;" horiz-adv-x="725" 
d="M554.516 505.97c8.11914 12.6387 15.7783 25.459 21.0264 39.6172c0.498047 1.33203 0.97168 3.37402 1.48242 5.54102c-46.4082 -35.8994 -80.6641 -86.9092 -112.827 -135.11c-33.4648 -50.1504 -65.0303 -101.564 -94.0371 -154.417
c-57.2979 -104.392 -113.574 -209.399 -172.479 -312.9c-23.4219 -41.1543 -53.0264 -80.6396 -98.0283 -99.5293c-53.7617 -22.5693 -138.547 -16.2002 -159.436 48.3389c-16.0508 49.5713 17.6377 115.723 35.6553 161.452
c20.0723 50.9287 44.0605 100.245 68.5908 149.138c50.9844 101.614 100.319 204.269 151.652 305.609c13.7842 27.2197 26.3604 54.1348 36.8262 82.8799c3.59863 9.88672 6.51855 19.6992 9.13965 29.8721c3.94141 15.2969 8.2002 30.1836 -14.543 31.8828
c-23.0361 1.72461 -56.9863 -26.9277 -72.626 -41.2354c-19.6494 -17.9746 -34.9277 -39.1309 -47.0371 -62.752c-7.70801 -15.042 -52.1865 -10.1045 -43.7129 6.86719c39.6904 79.5059 156.876 173.681 240.927 96.9893
c42.1006 -38.4209 20.3408 -115.437 9.70703 -163.75c-13.373 -60.7598 -39.2354 -119.029 -64.9365 -175.362c-48.2266 -105.687 -104.423 -207.644 -144.021 -317.146c-8.31836 -23.0049 -21.0195 -50.1816 -21.8105 -75.6211
c41.6826 37.5303 70.123 92.002 99.2793 138.747c65.9521 105.729 128.778 213.19 198.055 316.872c32.6611 48.8799 66.2568 98.8936 105.48 142.83c29.1006 32.5928 69.4385 75.8447 117.79 68c103.831 -16.8418 -7.81348 -223.582 -29.2002 -270.912
c-52.3672 -115.916 -114.783 -234.166 -148.192 -357.366c-7.08496 -26.124 -13.8584 -54.8945 -9.55664 -82.0273c0.0869141 -0.553711 0.205078 -1.12695 0.335938 -1.70605c1.43848 0.68457 2.87695 1.48145 4.21582 2.46484
c5.96484 4.37695 11.1631 9.68164 16.1689 15.0918c38.2773 41.3467 68.3867 91.4531 100.332 137.7c29.7666 43.084 60.7158 85.7881 97.4307 123.287c31.1357 31.8145 72.4326 75.6826 121.163 64.8057c32.2881 -7.20996 11.3691 -32.7432 -13.2178 -27.3262
c-17.5449 3.86035 -60.3672 -47.3545 -71.2939 -59.0156c-20.3027 -21.6729 -38.8809 -44.9209 -56.3818 -68.8906c-35.127 -48.1084 -66.1074 -99.0312 -100.768 -147.451c-32.1943 -44.9766 -59.0654 -95.04 -119.787 -98.9316
c-63.4238 -4.06543 -121.786 25.6445 -120.143 95.2324c1.38867 58.7178 30.626 118.637 53.1143 171.744c24.748 58.4561 52.3975 115.76 80.8564 172.491c28.9014 57.6094 61.0215 113.562 96.0244 167.673c16.4053 25.3643 32.4619 50.9219 48.7803 76.3242z" />
    <glyph glyph-name="U" unicode="&#xda;" horiz-adv-x="725" 
d="M554.516 505.97c8.11914 12.6387 15.7783 25.459 21.0264 39.6172c0.498047 1.33203 0.97168 3.37402 1.48242 5.54102c-46.4082 -35.8994 -80.6641 -86.9092 -112.827 -135.11c-33.4648 -50.1504 -65.0303 -101.564 -94.0371 -154.417
c-57.2979 -104.392 -113.574 -209.399 -172.479 -312.9c-23.4219 -41.1543 -53.0264 -80.6396 -98.0283 -99.5293c-53.7617 -22.5693 -138.547 -16.2002 -159.436 48.3389c-16.0508 49.5713 17.6377 115.723 35.6553 161.452
c20.0723 50.9287 44.0605 100.245 68.5908 149.138c50.9844 101.614 100.319 204.269 151.652 305.609c13.7842 27.2197 26.3604 54.1348 36.8262 82.8799c3.59863 9.88672 6.51855 19.6992 9.13965 29.8721c3.94141 15.2969 8.2002 30.1836 -14.543 31.8828
c-23.0361 1.72461 -56.9863 -26.9277 -72.626 -41.2354c-19.6494 -17.9746 -34.9277 -39.1309 -47.0371 -62.752c-7.70801 -15.042 -52.1865 -10.1045 -43.7129 6.86719c39.6904 79.5059 156.876 173.681 240.927 96.9893
c42.1006 -38.4209 20.3408 -115.437 9.70703 -163.75c-13.373 -60.7598 -39.2354 -119.029 -64.9365 -175.362c-48.2266 -105.687 -104.423 -207.644 -144.021 -317.146c-8.31836 -23.0049 -21.0195 -50.1816 -21.8105 -75.6211
c41.6826 37.5303 70.123 92.002 99.2793 138.747c65.9521 105.729 128.778 213.19 198.055 316.872c32.6611 48.8799 66.2568 98.8936 105.48 142.83c29.1006 32.5928 69.4385 75.8447 117.79 68c103.831 -16.8418 -7.81348 -223.582 -29.2002 -270.912
c-52.3672 -115.916 -114.783 -234.166 -148.192 -357.366c-7.08496 -26.124 -13.8584 -54.8945 -9.55664 -82.0273c0.0869141 -0.553711 0.205078 -1.12695 0.335938 -1.70605c1.43848 0.68457 2.87695 1.48145 4.21582 2.46484
c5.96484 4.37695 11.1631 9.68164 16.1689 15.0918c38.2773 41.3467 68.3867 91.4531 100.332 137.7c29.7666 43.084 60.7158 85.7881 97.4307 123.287c31.1357 31.8145 72.4326 75.6826 121.163 64.8057c32.2881 -7.20996 11.3691 -32.7432 -13.2178 -27.3262
c-17.5449 3.86035 -60.3672 -47.3545 -71.2939 -59.0156c-20.3027 -21.6729 -38.8809 -44.9209 -56.3818 -68.8906c-35.127 -48.1084 -66.1074 -99.0312 -100.768 -147.451c-32.1943 -44.9766 -59.0654 -95.04 -119.787 -98.9316
c-63.4238 -4.06543 -121.786 25.6445 -120.143 95.2324c1.38867 58.7178 30.626 118.637 53.1143 171.744c24.748 58.4561 52.3975 115.76 80.8564 172.491c28.9014 57.6094 61.0215 113.562 96.0244 167.673c16.4053 25.3643 32.4619 50.9219 48.7803 76.3242z" />
    <glyph glyph-name="V" unicode="V" horiz-adv-x="579" 
d="M74.3281 -166.17c-50.8291 3.00098 -98.7939 28.9805 -111.613 80.8115c-12.5762 50.8418 -1.34473 110.587 4.70117 161.938c25.7383 218.558 80.1221 441.535 170.455 642.342c11.9785 26.6289 98.6006 29.0264 94.2051 -7.26465
c-23.2852 -192.159 -82.5625 -378.484 -108.644 -570.612c-6.08301 -44.8525 -10.9082 -89.9541 -14.2705 -135.093c-1.41992 -19.0576 -3.55566 -38.75 -2.93262 -57.8828c0.0126953 -0.435547 0.0810547 -0.828125 0.106445 -1.25781
c12.6328 12.6826 24.3066 26.2803 35.6377 40.1328c23.5215 28.7578 45.2754 58.96 66.6992 89.3057c45.7607 64.8184 92.6553 129.557 135.16 196.767c-54.627 67.1846 -73.0371 157.754 -55.1689 242.745c16.0508 76.3311 62.2227 160.201 138.311 190.372
c33.1162 13.1367 75.1787 14.5752 102.666 -11.6611c26.6533 -25.4453 37.1133 -71.6982 36.2607 -107.081c-2.48438 -102.916 -48.1396 -204.624 -93.3408 -295.306c-9.73145 -19.5244 -19.4189 -39.0801 -29.1689 -58.6045
c42.3994 -29.0254 94.2061 -43.7744 151.187 -35.7051c23.6592 3.34961 44.3047 -21.7783 12.7012 -26.2549c-61.8867 -8.75977 -124.781 2.88867 -178.947 32.0508c-31.4854 -62.1289 -64.4209 -123.474 -103.271 -181.45
c-57.4033 -85.6631 -134.736 -195.141 -250.732 -188.292zM330.553 468.257c-3.125 -54.1914 11.1855 -108.57 38.374 -154.356c36.6152 61.7871 68.7041 126.039 92.0264 194.725c14.0703 41.4531 28.3965 87.1582 28.4336 131.362
c0.00585938 12.1221 -0.97168 36.0801 -13.8906 43.2461c-15.8828 8.80957 -42.9102 -11.126 -54.0801 -20.1221c-56.6133 -45.5801 -86.7725 -123.946 -90.8633 -194.854z" />
    <glyph glyph-name="W" unicode="W" horiz-adv-x="764" 
d="M798.268 517.227c-9.52539 -82.8613 -43.9248 -162.946 -80.5215 -237.104c-5.81543 -11.7793 -11.8359 -23.4717 -17.9502 -35.1143c23.1045 -12.7197 48.5068 -21.3174 75.0293 -25.1338c32.9727 -4.74414 11.2871 -30.8564 -13.2188 -27.3262
c-26.9209 3.87891 -53.2256 11.5371 -77.7871 22.7627c-30.6133 -55.5918 -64.2402 -109.64 -99.542 -162.218c-42.5176 -63.3184 -88.7959 -134.382 -150.57 -180.548c-50.7109 -37.8975 -109.534 -29.7852 -125.056 37.1943
c-19.6426 84.7354 5.36719 175.392 30.3086 256.336c13.3115 43.208 28.6709 85.7812 46.0537 127.521c1.84277 4.4209 3.77246 8.82227 5.7334 13.2236c-13.3301 -19.9854 -26.0244 -40.3877 -38.1836 -61.1074c-28.7266 -48.9365 -54.7949 -99.4297 -80.2842 -150.109
c-22.9678 -45.668 -45.0078 -91.877 -67.0791 -137.98c-18.2363 -38.0781 -31.9961 -88.0918 -65.8037 -115.66c-42.0508 -34.293 -124.146 -35.4941 -162.667 5.13086c-36.7207 38.7256 -23.0605 102.193 -18.1172 149.754c11.8789 114.31 34.6533 226.869 58.1191 339.261
c11.6865 55.9717 23.7148 112.161 37.9414 167.548c14.4316 56.1582 24.3994 113.768 47.8779 166.694c12.9443 29.1875 84.8857 26.5039 90.3828 -6.97363c11.1445 -67.8506 -1.6748 -142.893 -12.6572 -210.712c-11.0449 -68.2119 -24.207 -135.976 -36.4971 -203.97
c-12.6328 -69.9053 -24.2012 -140.109 -32.8184 -210.638c-4.07227 -33.3027 -7.68359 -66.7676 -9.70117 -100.27c-0.579102 -9.70605 -1.07715 -20.2715 -0.0751953 -30.4199c0.0810547 0.0869141 0.174805 0.167969 0.261719 0.254883
c10.7959 11.1318 19.8672 23.7266 28.5029 36.5332c16.1816 24.001 30.9619 49.0234 45.0264 74.3076c27.8428 50.0566 53.9238 100.991 80.9941 151.453c26.8281 50.0254 55.0322 99.4102 87.0459 146.329c25.4453 37.2939 54.5332 90.707 100.201 104.367
c6.92285 2.07324 40.749 3.39941 37.1445 -12.1465c-15.708 -67.7764 -53.0947 -130.516 -76.1934 -196.169c-25.5518 -72.6016 -49.9512 -149.48 -52.5352 -226.932c-0.87207 -25.9316 -4.19043 -77.0283 15.2031 -97.7178
c20.1104 -21.4482 58.2939 28.627 72.3027 44.3164c43.2646 48.4443 80.6826 102.193 115.928 156.64c31.1426 48.1143 61.8867 97.6357 89.7607 148.708c-24.6113 16.7109 -46.3965 37.5801 -63.7363 62.4775c-50.6484 72.7139 -42.1309 162.412 -8.78418 240.648
c24.1572 56.6748 70.6035 133.479 141.779 128.218c78.2422 -5.77734 91.4727 -88.0293 84.1816 -151.429zM633.085 302.037c8.82227 -11.4375 18.7158 -21.8408 29.4746 -31.1484c28.8701 56.3701 53.7432 114.59 71.3008 174.907
c12.3271 42.3555 45.2686 178.375 -23.5723 188.959c-32.917 5.06152 -60.4238 -44.1299 -74.5635 -69.7871c-14.457 -26.2363 -25.832 -54.6211 -33.3525 -83.6279c-16.1689 -62.3164 -9.23926 -127.478 30.7129 -179.303z" />
    <glyph glyph-name="X" unicode="X" horiz-adv-x="642" 
d="M551.812 75.8281c-32.332 -37.3369 -63.334 -75.8076 -95.834 -112.995c-29.9346 -34.2617 -61.1201 -66.9229 -93.8691 -98.4951c-27.3008 -26.3174 -57.9014 -39.0742 -95.9053 -26.8652c-93.8506 30.1465 -109.814 149.113 -112.317 232.181
c-0.423828 14.1084 -0.604492 28.2285 -0.648438 42.3486c-51.9561 -55.5107 -109.086 -105.132 -179.527 -137.538c-9.97363 -4.58887 -26.1797 -7.21582 -35.8359 0c-7.49609 5.60352 -10.709 15.5088 0 20.4277c87.0078 39.9521 154.187 107.386 216.304 179.77
c2.06738 67.4521 7.30371 134.898 13.1006 201.94c4.37109 50.5176 9.29004 100.873 15.5723 151.191c5.68457 45.4619 9.02148 106.228 43.5762 139.667c15.4277 14.9297 56.3018 17.9492 71.0635 0c35.918 -43.6689 23.8213 -116.918 21.8291 -169.901
c-1.74902 -46.4268 -4.96777 -92.792 -7.76367 -139.182c45.5557 49.3535 92.6924 97.3438 141.891 142.993c52.6719 48.874 116.438 115.772 189.905 129.177c23.4844 4.2832 43.4258 -19.5498 12.5693 -25.9873c-40.793 -8.51758 -78.5098 -46.8447 -109.359 -72.9873
c-31.248 -26.4854 -61.1582 -54.5088 -90.3955 -83.1855c-51.3271 -50.3555 -100.712 -102.691 -148.285 -156.608c-2.78906 -52.0996 -5.82715 -104.187 -6.58008 -156.366c-0.833984 -58.0205 4.74414 -115.106 7.42773 -172.934
c1.12109 -24.1191 -0.883789 -49.2158 5.36133 -72.8369c0.560547 -2.55859 1.33301 -5.04297 2.17969 -7.49023c10.4717 8.24316 20.29 17.2334 29.9902 26.373c38.6514 36.416 73.2119 76.5801 107.455 117.086c34.1865 40.4316 68.0244 81.249 104.92 119.277
c30.0469 30.9746 59.3467 64.8193 105.126 66.2139c30.1279 0.915039 29.5928 -27.0898 0.000976562 -28.0615c-19.8418 -0.647461 -45.7236 -35.457 -58.5742 -48.6562c-18.4229 -18.9268 -36.0859 -38.5889 -53.376 -58.5557z" />
    <glyph glyph-name="Y" unicode="Y" horiz-adv-x="724" 
d="M764.499 211.599c7.56445 -5.65332 10.2656 -14.9229 -0.0136719 -20.0527c-76.9473 -38.3027 -156.528 -70.2363 -237.049 -99.8037c-26.0811 -50.9229 -56.3896 -99.6416 -91.3047 -145.035c-78.4229 -101.95 -184.938 -173.388 -316.088 -180.23
c-47.3359 -2.47168 -114.851 0.902344 -149.137 39.3105c-35.2266 39.46 21.9404 94.834 52.3672 117.509c45.2754 33.7383 97.2871 54.7324 149.536 75.0918c61.1709 23.833 123.182 45.4307 185.199 66.9229l15.4658 5.36133
c28.3535 46.0596 53.1084 94.3984 75.3916 142.189c26.0186 55.8037 48.252 113.924 66.9297 172.585c10.123 31.8027 19.2627 64.0039 24.125 97.083c0.865234 5.87695 4.02832 24.4678 5.49121 42.71c-22.9678 -26.3174 -42.3242 -57.9824 -60.5352 -83.3408
c-34.0254 -47.3926 -67.042 -95.501 -100.151 -143.541c-28.0859 -40.749 -56.7812 -81.1055 -86.9648 -120.336c-29.0508 -37.7422 -57.124 -76.9785 -93.2471 -108.42c-40.5625 -35.3076 -91.4355 -57.3916 -146.062 -47.5293
c-47.9834 8.66016 -92.7666 41.1533 -99.46 92.2002c-6.46875 49.3281 20.0918 103.009 38.8193 147.207c20.1348 47.5234 42.2119 94.4492 66.3691 140.055c24.4062 46.0723 46.8945 93.8564 73.4922 138.652c13.6475 22.9863 30.333 44.9766 38.6016 70.6963
c0.660156 2.05469 1.15234 5.82129 1.8125 9.33887c-0.80957 -0.398438 -1.5127 -0.759766 -1.95508 -1.03418c-5.80859 -3.57324 -11.2754 -7.63281 -16.5488 -11.9727c-12.7383 -10.4844 -58.6982 -1.26953 -41.2402 13.7412
c32.6924 28.1162 99.416 62.6582 135.714 21.1123c17.4824 -20.0039 11.3125 -60.8711 8.02539 -85.5137c-4.57031 -34.2744 -16.6553 -66.1582 -29.1631 -98.2031c-26.1426 -66.9727 -57.9268 -131.53 -85.334 -197.955
c-13.6104 -32.9854 -28.0986 -66.9727 -36.9648 -101.614c-4.25879 -16.6416 -6.97949 -36.2344 -2.37891 -53.2061c0.162109 -0.584961 0.392578 -1.18848 0.660156 -1.79883c9.36426 5.49121 20.1416 10.4033 27.7061 16.8477
c10.9395 9.32031 21.125 19.5996 31.0557 29.9658c22.0771 23.0361 42.3555 47.4854 62.0605 72.5576c40.4629 51.4824 78.3857 104.864 115.892 158.514c35.8613 51.2959 71.8535 102.629 110.467 151.914c32.2324 41.1475 79.625 92.5928 138.273 72.8877
c52.7773 -17.7314 44.9385 -102.442 41.9004 -146.41c-4.2334 -61.4004 -16.8848 -124.121 -34.6289 -183.013c-14.7803 -49.0547 -32.8047 -97.2754 -54.1602 -143.952c61.7061 23.5469 122.621 49.0488 181.88 78.5098c9.56348 4.75684 25.8945 6.91699 35.1523 0z
M182.343 631.163c0.136719 1.83008 -2.58984 0.678711 0 0zM255.162 -78.7314c33.5889 31.6777 63.2988 67.7266 90.0273 106.166c-51.084 -17.8564 -102.057 -36.0615 -152.438 -55.835c-50.8105 -19.9414 -122.54 -45.5928 -153.29 -94.1494
c-10.1611 -16.0439 -8.3623 -27.8115 1.63672 -43.1895c0.591797 -0.915039 5.41113 -5.49121 7.21094 -7.73242c2.12891 -0.560547 5.16113 -1.55664 5.60352 -1.6123c21.5732 -2.7959 45.3438 3.79785 65.4785 10.7646c50.624 17.5195 96.9639 48.9854 135.771 85.5879z
" />
    <glyph glyph-name="Y" unicode="&#x178;" horiz-adv-x="724" 
d="M764.499 211.599c7.56445 -5.65332 10.2656 -14.9229 -0.0136719 -20.0527c-76.9473 -38.3027 -156.528 -70.2363 -237.049 -99.8037c-26.0811 -50.9229 -56.3896 -99.6416 -91.3047 -145.035c-78.4229 -101.95 -184.938 -173.388 -316.088 -180.23
c-47.3359 -2.47168 -114.851 0.902344 -149.137 39.3105c-35.2266 39.46 21.9404 94.834 52.3672 117.509c45.2754 33.7383 97.2871 54.7324 149.536 75.0918c61.1709 23.833 123.182 45.4307 185.199 66.9229l15.4658 5.36133
c28.3535 46.0596 53.1084 94.3984 75.3916 142.189c26.0186 55.8037 48.252 113.924 66.9297 172.585c10.123 31.8027 19.2627 64.0039 24.125 97.083c0.865234 5.87695 4.02832 24.4678 5.49121 42.71c-22.9678 -26.3174 -42.3242 -57.9824 -60.5352 -83.3408
c-34.0254 -47.3926 -67.042 -95.501 -100.151 -143.541c-28.0859 -40.749 -56.7812 -81.1055 -86.9648 -120.336c-29.0508 -37.7422 -57.124 -76.9785 -93.2471 -108.42c-40.5625 -35.3076 -91.4355 -57.3916 -146.062 -47.5293
c-47.9834 8.66016 -92.7666 41.1533 -99.46 92.2002c-6.46875 49.3281 20.0918 103.009 38.8193 147.207c20.1348 47.5234 42.2119 94.4492 66.3691 140.055c24.4062 46.0723 46.8945 93.8564 73.4922 138.652c13.6475 22.9863 30.333 44.9766 38.6016 70.6963
c0.660156 2.05469 1.15234 5.82129 1.8125 9.33887c-0.80957 -0.398438 -1.5127 -0.759766 -1.95508 -1.03418c-5.80859 -3.57324 -11.2754 -7.63281 -16.5488 -11.9727c-12.7383 -10.4844 -58.6982 -1.26953 -41.2402 13.7412
c32.6924 28.1162 99.416 62.6582 135.714 21.1123c17.4824 -20.0039 11.3125 -60.8711 8.02539 -85.5137c-4.57031 -34.2744 -16.6553 -66.1582 -29.1631 -98.2031c-26.1426 -66.9727 -57.9268 -131.53 -85.334 -197.955
c-13.6104 -32.9854 -28.0986 -66.9727 -36.9648 -101.614c-4.25879 -16.6416 -6.97949 -36.2344 -2.37891 -53.2061c0.162109 -0.584961 0.392578 -1.18848 0.660156 -1.79883c9.36426 5.49121 20.1416 10.4033 27.7061 16.8477
c10.9395 9.32031 21.125 19.5996 31.0557 29.9658c22.0771 23.0361 42.3555 47.4854 62.0605 72.5576c40.4629 51.4824 78.3857 104.864 115.892 158.514c35.8613 51.2959 71.8535 102.629 110.467 151.914c32.2324 41.1475 79.625 92.5928 138.273 72.8877
c52.7773 -17.7314 44.9385 -102.442 41.9004 -146.41c-4.2334 -61.4004 -16.8848 -124.121 -34.6289 -183.013c-14.7803 -49.0547 -32.8047 -97.2754 -54.1602 -143.952c61.7061 23.5469 122.621 49.0488 181.88 78.5098c9.56348 4.75684 25.8945 6.91699 35.1523 0z
M182.343 631.163c0.136719 1.83008 -2.58984 0.678711 0 0zM255.162 -78.7314c33.5889 31.6777 63.2988 67.7266 90.0273 106.166c-51.084 -17.8564 -102.057 -36.0615 -152.438 -55.835c-50.8105 -19.9414 -122.54 -45.5928 -153.29 -94.1494
c-10.1611 -16.0439 -8.3623 -27.8115 1.63672 -43.1895c0.591797 -0.915039 5.41113 -5.49121 7.21094 -7.73242c2.12891 -0.560547 5.16113 -1.55664 5.60352 -1.6123c21.5732 -2.7959 45.3438 3.79785 65.4785 10.7646c50.624 17.5195 96.9639 48.9854 135.771 85.5879z
" />
    <glyph glyph-name="Y" unicode="&#xdd;" horiz-adv-x="724" 
d="M764.499 211.599c7.56445 -5.65332 10.2656 -14.9229 -0.0136719 -20.0527c-76.9473 -38.3027 -156.528 -70.2363 -237.049 -99.8037c-26.0811 -50.9229 -56.3896 -99.6416 -91.3047 -145.035c-78.4229 -101.95 -184.938 -173.388 -316.088 -180.23
c-47.3359 -2.47168 -114.851 0.902344 -149.137 39.3105c-35.2266 39.46 21.9404 94.834 52.3672 117.509c45.2754 33.7383 97.2871 54.7324 149.536 75.0918c61.1709 23.833 123.182 45.4307 185.199 66.9229l15.4658 5.36133
c28.3535 46.0596 53.1084 94.3984 75.3916 142.189c26.0186 55.8037 48.252 113.924 66.9297 172.585c10.123 31.8027 19.2627 64.0039 24.125 97.083c0.865234 5.87695 4.02832 24.4678 5.49121 42.71c-22.9678 -26.3174 -42.3242 -57.9824 -60.5352 -83.3408
c-34.0254 -47.3926 -67.042 -95.501 -100.151 -143.541c-28.0859 -40.749 -56.7812 -81.1055 -86.9648 -120.336c-29.0508 -37.7422 -57.124 -76.9785 -93.2471 -108.42c-40.5625 -35.3076 -91.4355 -57.3916 -146.062 -47.5293
c-47.9834 8.66016 -92.7666 41.1533 -99.46 92.2002c-6.46875 49.3281 20.0918 103.009 38.8193 147.207c20.1348 47.5234 42.2119 94.4492 66.3691 140.055c24.4062 46.0723 46.8945 93.8564 73.4922 138.652c13.6475 22.9863 30.333 44.9766 38.6016 70.6963
c0.660156 2.05469 1.15234 5.82129 1.8125 9.33887c-0.80957 -0.398438 -1.5127 -0.759766 -1.95508 -1.03418c-5.80859 -3.57324 -11.2754 -7.63281 -16.5488 -11.9727c-12.7383 -10.4844 -58.6982 -1.26953 -41.2402 13.7412
c32.6924 28.1162 99.416 62.6582 135.714 21.1123c17.4824 -20.0039 11.3125 -60.8711 8.02539 -85.5137c-4.57031 -34.2744 -16.6553 -66.1582 -29.1631 -98.2031c-26.1426 -66.9727 -57.9268 -131.53 -85.334 -197.955
c-13.6104 -32.9854 -28.0986 -66.9727 -36.9648 -101.614c-4.25879 -16.6416 -6.97949 -36.2344 -2.37891 -53.2061c0.162109 -0.584961 0.392578 -1.18848 0.660156 -1.79883c9.36426 5.49121 20.1416 10.4033 27.7061 16.8477
c10.9395 9.32031 21.125 19.5996 31.0557 29.9658c22.0771 23.0361 42.3555 47.4854 62.0605 72.5576c40.4629 51.4824 78.3857 104.864 115.892 158.514c35.8613 51.2959 71.8535 102.629 110.467 151.914c32.2324 41.1475 79.625 92.5928 138.273 72.8877
c52.7773 -17.7314 44.9385 -102.442 41.9004 -146.41c-4.2334 -61.4004 -16.8848 -124.121 -34.6289 -183.013c-14.7803 -49.0547 -32.8047 -97.2754 -54.1602 -143.952c61.7061 23.5469 122.621 49.0488 181.88 78.5098c9.56348 4.75684 25.8945 6.91699 35.1523 0z
M182.343 631.163c0.136719 1.83008 -2.58984 0.678711 0 0zM255.162 -78.7314c33.5889 31.6777 63.2988 67.7266 90.0273 106.166c-51.084 -17.8564 -102.057 -36.0615 -152.438 -55.835c-50.8105 -19.9414 -122.54 -45.5928 -153.29 -94.1494
c-10.1611 -16.0439 -8.3623 -27.8115 1.63672 -43.1895c0.591797 -0.915039 5.41113 -5.49121 7.21094 -7.73242c2.12891 -0.560547 5.16113 -1.55664 5.60352 -1.6123c21.5732 -2.7959 45.3438 3.79785 65.4785 10.7646c50.624 17.5195 96.9639 48.9854 135.771 85.5879z
" />
    <glyph glyph-name="Z" unicode="Z" horiz-adv-x="679" 
d="M683.375 232.182c16.1064 8.57324 62.2285 -6.45996 36.1973 -20.6113c-149.075 -81.0498 -312.894 -127.657 -474.639 -177.185c-42.0693 -43.3457 -86.0127 -84.8545 -131.892 -124.277c-76.1064 -65.3857 -170.61 -153.471 -276.919 -156.335
c-39.1924 -1.05176 -107.821 10.9893 -106.091 62.9014c1.30762 39.249 63.5615 72.2344 91.7588 91.3672c73.292 49.7334 155.476 83.0615 239.028 111.402c78.7217 75.042 151.441 156.901 219.012 240.629c7.28418 9.02148 14.4688 18.0928 21.5605 27.2012
c-20.5146 -3.91016 -41.0107 -7.97559 -61.4512 -12.3213c-23.5098 -4.99316 -43.2461 19.3135 -12.5703 25.9873c33.0479 7.19141 66.207 13.7598 99.4541 19.8174c38.6201 51.875 74.4385 105.356 107.686 161.396c22.457 37.8477 122.066 196.797 15.6328 194.375
c-44.6719 -1.02148 -90.6816 -17.4834 -132.956 -30.6201c-40.2197 -12.502 -80.1406 -25.8818 -120.821 -36.877c-79.251 -21.4297 -165.469 -39.0244 -238.512 9.25781c-24.1377 15.9512 19.625 26.7412 33.7764 19.251
c51.3086 -27.1514 123.512 -1.39453 175.007 14.3506c56.3076 17.2207 111.569 37.7725 168.562 52.7773c72.3398 19.0449 222.094 50.0625 246.512 -54.8516c22.376 -96.1357 -27.7432 -199.481 -75.0234 -280.164c-4.65039 -7.94434 -9.49414 -15.7832 -14.3252 -23.6279
c15.0859 1.84961 30.1836 3.61816 45.3008 5.23047c24.2441 2.57715 45.8359 -23.5723 13.0869 -27.0586c-26.1055 -2.7832 -52.168 -5.88379 -78.1738 -9.32031c-43.4199 -66.3193 -92.6113 -129.295 -144.082 -189.127
c-10.2109 -11.8672 -20.5898 -23.5723 -31.0557 -35.1963c132.165 37.5361 263.651 76.5479 385.937 141.628zM-151.469 -149.531c18.0488 9.87402 35.3516 21.2354 51.8936 33.4316c21.3867 15.7578 42.3184 32.1943 62.9082 49.1045
c-17.1152 -8.39844 -33.9258 -17.3828 -50.2812 -27.1699c-20.3027 -12.1533 -48.7246 -27.1328 -62.8643 -46.6699c-2.74609 -3.79785 -3.80469 -6.9668 -4.36523 -10.042c0.90918 0.448242 1.84961 0.87207 2.70898 1.3457z" />
    <glyph glyph-name="bracketleft" unicode="[" horiz-adv-x="681" 
d="M623.359 824.59c23.9639 -13.1055 -15.8955 -26.9082 -29.2383 -21.6035c-54.7578 21.7783 -84.9287 -18.958 -108.276 -62.291c-23.7334 -44.0488 -44.2227 -89.8975 -64.4443 -135.634c-42.1064 -95.2451 -85.3213 -190.023 -125.815 -285.973
c-40.2451 -95.3516 -80.0479 -195.186 -100.699 -296.925c-8.63574 -42.5049 -17.7197 -93.3086 -7.62109 -136.38c12.3652 -52.7344 50.748 -54.5586 97.7109 -49.7959c10.7832 1.08984 35.9678 0.946289 40.4502 -13.0938
c4.65039 -14.5684 -11.6738 -20.4893 -22.9678 -23.0547c-53.5811 -12.1719 -111.097 -21.4922 -164.08 -1.68066c-52.7588 19.7305 -82.9424 59.7012 -87.5996 115.885c-4.01562 48.5312 8.22461 99.4287 19.998 146.161c12.751 50.5986 29.5928 100.183 48.333 148.845
c37.9844 98.6445 83.8203 193.554 132.77 287.149c48.8682 93.4463 98.1348 190.267 160.481 275.588c49.1855 67.3154 136.182 93.7139 210.999 52.8027z" />
    <glyph glyph-name="backslash" unicode="\" horiz-adv-x="321" 
d="M240.108 102.368c12.2959 -69.7002 33.2412 -142.344 31.0625 -213.544c-1.07715 -34.8535 -70.7773 -28.5898 -84.1758 -6.49414c-38.9873 64.3018 -55.5918 141.747 -72.3643 214.218c-16.5801 71.6553 -29.3682 143.827 -39.2803 216.696
c-19.9912 146.902 -31.1611 296.189 -22.2451 444.355c3.05078 50.6982 127.845 50.4736 128.996 -0.000976562c3.34375 -146.535 7.62695 -292.796 25.2275 -438.466c8.75977 -72.5078 20.0908 -144.842 32.7793 -216.765z" />
    <glyph glyph-name="bracketright" unicode="]" horiz-adv-x="649" 
d="M594.86 729.239c14.0645 -94.8838 -9.40723 -200.275 -32.3564 -292.252c-23.7705 -95.3203 -56.4814 -187.527 -97.1621 -276.938c-66.8418 -146.908 -199.182 -397.175 -400.132 -305.335c-16.1064 7.35938 -20.166 25.2656 -8.59766 37.998
c13.4111 14.7559 44.1426 18.6289 62.1299 14.4141c34.4482 -8.06934 62.2656 19.126 84.5674 42.71c29.2871 30.9746 53.7246 66.0645 75.6592 102.512c47.9219 79.6055 87.0771 165.113 120.405 251.748c34.0254 88.459 63.9355 178.755 87.8057 270.508
c11.7861 45.3066 24.3506 91.1924 30.3027 137.707c2.32812 18.1865 7.30273 47.418 -0.460938 65.0312c-15.5459 35.2637 -58.7852 4.93066 -80.1221 -7.94434c-14.2012 -8.56738 -55.6973 4.00879 -32.7422 18.665c36.0801 23.042 76.8604 42.4482 120.542 30.3203
c42.418 -11.7793 64.0469 -47.8711 70.1611 -89.1436z" />
    <glyph glyph-name="asciicircum" unicode="^" horiz-adv-x="386" 
d="M326.064 689.474c15.6025 -17.2021 8.84863 -45.6484 6.62012 -66.1816c-6.0459 -55.8477 -20.8887 -110.3 -37.7109 -163.75c-12.1592 -38.6318 -122.179 -27.7617 -105.624 16.5986c12.8936 34.5605 25.2646 69.4014 37.2373 104.292
c5.54102 16.1377 11.4492 32.1074 17.4385 48.0713c-17.4766 -15.123 -33.8008 -31.7344 -49.6152 -47.748c-33.4961 -33.9316 -67.0791 -67.2217 -102.051 -99.6279c-11.001 -10.1924 -54.4023 -4.75684 -39.1426 13.043c33.7881 39.417 62.7207 82.4756 98.5576 120.299
c29.2314 30.8564 71.1445 77.626 114.247 87.749c19.1514 4.50098 45.8418 2.91309 60.043 -12.7451z" />
    <glyph glyph-name="underscore" unicode="_" horiz-adv-x="530" 
d="M433.761 56.5322c14.6621 0.435547 46.2598 -6.23145 46.2598 -26.3662c0 -20.7695 -30.9805 -25.9434 -46.2588 -26.3672c-111.103 -3.08203 -221.906 -11.3311 -332.499 -22.2393c-14.3389 -1.41309 -43.2773 -1.07715 -50.0205 16.1875
c-6.66211 17.0713 15.0234 26.4912 28.4033 28.5146c117.285 17.7129 235.585 26.7402 354.115 30.2705z" />
    <glyph glyph-name="grave" unicode="`" horiz-adv-x="211" 
d="M159.895 701.608c-9.60645 -28.7207 -19.1973 -58.0518 -21.3887 -88.4219c-1.26367 -17.4395 6.60645 -44.8525 -7.17188 -58.1826c-25.8125 -24.9658 -67.6387 2.16699 -76.1367 29.5488c-13.3174 42.8789 1.66895 90.2217 14.5508 131.22
c10.2539 32.6426 103.09 24.543 90.1465 -14.1641z" />
    <glyph glyph-name="a" unicode="a" horiz-adv-x="516" 
d="M510.876 221.292c8.57324 13.8594 50.9443 8.25684 41.8418 -6.56738c-63.9102 -103.993 -115.112 -215.003 -176.942 -320.166c-38.165 -64.9189 -115.579 -204.967 -211.005 -143.784c-41.6455 26.6973 -47.6104 89.6543 -44.043 134.326
c4.70703 58.9414 24.9355 117.49 47.2305 171.831c11.1318 27.127 22.8115 54.0479 34.8896 80.8076c-8.79688 -12.209 -17.8057 -24.2627 -27.1758 -36.0605c-29.4053 -37.0137 -63.8223 -80.4023 -110.922 -94.7842c-40.7363 -12.4453 -84.6914 4.19727 -102.815 43.9375
c-22.2334 48.7373 1.27637 112.498 24.1689 156.802c23.7891 46.041 58.9727 86.0371 100.568 116.763c56.3262 41.6084 153.353 65.4414 214.741 25.3643c6.82324 8.72852 13.8398 17.3145 21.0244 25.7822c3.2627 5.95215 6.4873 11.9355 9.76855 17.875
c23.9082 43.2393 156.715 31.8955 131.425 -20.6523c-45.8174 -95.208 -95.6562 -188.455 -140.172 -284.298c-20.9189 -45.0391 -41.0352 -90.7754 -58.2686 -137.364c-17.0527 -46.1035 -36.8643 -93.583 -43.6318 -142.562
c-1.18945 -8.61035 -2.39062 -18.0244 -2.39062 -26.791c0 -15.7334 1.20117 -16.7607 15.291 -8.51172c20.6396 12.085 36.8643 33.6641 50.4746 52.7969c28.2227 39.6719 52.5166 82.4316 76.1816 124.918c50.1445 90.0215 95.4824 182.652 149.761 270.339z
M201.143 205.137c19.3008 29.0938 38.3281 58.3711 58.1455 87.0732c-37.3809 73.8096 -125.89 -6.01367 -159.286 -45.3936c-24.1943 -28.5273 -43.5195 -61.6064 -56.8994 -96.5215c-7.34082 -19.1641 -13.5791 -39.6602 -15.335 -60.1689
c-0.952148 -11.1133 -0.81543 -23.0801 0.0625 -34.2061c1.0459 -13.2178 -0.822266 -14.8369 14.3066 -18.4482c32.668 -7.78906 72.2402 49.752 91.2168 73.168c24.4307 30.1396 46.3525 62.1846 67.7891 94.4971z" />
    <glyph glyph-name="a" unicode="&#xe5;" horiz-adv-x="516" 
d="M510.876 221.292c8.57324 13.8594 50.9443 8.25684 41.8418 -6.56738c-63.9102 -103.993 -115.112 -215.003 -176.942 -320.166c-38.165 -64.9189 -115.579 -204.967 -211.005 -143.784c-41.6455 26.6973 -47.6104 89.6543 -44.043 134.326
c4.70703 58.9414 24.9355 117.49 47.2305 171.831c11.1318 27.127 22.8115 54.0479 34.8896 80.8076c-8.79688 -12.209 -17.8057 -24.2627 -27.1758 -36.0605c-29.4053 -37.0137 -63.8223 -80.4023 -110.922 -94.7842c-40.7363 -12.4453 -84.6914 4.19727 -102.815 43.9375
c-22.2334 48.7373 1.27637 112.498 24.1689 156.802c23.7891 46.041 58.9727 86.0371 100.568 116.763c56.3262 41.6084 153.353 65.4414 214.741 25.3643c6.82324 8.72852 13.8398 17.3145 21.0244 25.7822c3.2627 5.95215 6.4873 11.9355 9.76855 17.875
c23.9082 43.2393 156.715 31.8955 131.425 -20.6523c-45.8174 -95.208 -95.6562 -188.455 -140.172 -284.298c-20.9189 -45.0391 -41.0352 -90.7754 -58.2686 -137.364c-17.0527 -46.1035 -36.8643 -93.583 -43.6318 -142.562
c-1.18945 -8.61035 -2.39062 -18.0244 -2.39062 -26.791c0 -15.7334 1.20117 -16.7607 15.291 -8.51172c20.6396 12.085 36.8643 33.6641 50.4746 52.7969c28.2227 39.6719 52.5166 82.4316 76.1816 124.918c50.1445 90.0215 95.4824 182.652 149.761 270.339z
M201.143 205.137c19.3008 29.0938 38.3281 58.3711 58.1455 87.0732c-37.3809 73.8096 -125.89 -6.01367 -159.286 -45.3936c-24.1943 -28.5273 -43.5195 -61.6064 -56.8994 -96.5215c-7.34082 -19.1641 -13.5791 -39.6602 -15.335 -60.1689
c-0.952148 -11.1133 -0.81543 -23.0801 0.0625 -34.2061c1.0459 -13.2178 -0.822266 -14.8369 14.3066 -18.4482c32.668 -7.78906 72.2402 49.752 91.2168 73.168c24.4307 30.1396 46.3525 62.1846 67.7891 94.4971z" />
    <glyph glyph-name="a" unicode="&#xe4;" horiz-adv-x="516" 
d="M510.876 221.292c8.57324 13.8594 50.9443 8.25684 41.8418 -6.56738c-63.9102 -103.993 -115.112 -215.003 -176.942 -320.166c-38.165 -64.9189 -115.579 -204.967 -211.005 -143.784c-41.6455 26.6973 -47.6104 89.6543 -44.043 134.326
c4.70703 58.9414 24.9355 117.49 47.2305 171.831c11.1318 27.127 22.8115 54.0479 34.8896 80.8076c-8.79688 -12.209 -17.8057 -24.2627 -27.1758 -36.0605c-29.4053 -37.0137 -63.8223 -80.4023 -110.922 -94.7842c-40.7363 -12.4453 -84.6914 4.19727 -102.815 43.9375
c-22.2334 48.7373 1.27637 112.498 24.1689 156.802c23.7891 46.041 58.9727 86.0371 100.568 116.763c56.3262 41.6084 153.353 65.4414 214.741 25.3643c6.82324 8.72852 13.8398 17.3145 21.0244 25.7822c3.2627 5.95215 6.4873 11.9355 9.76855 17.875
c23.9082 43.2393 156.715 31.8955 131.425 -20.6523c-45.8174 -95.208 -95.6562 -188.455 -140.172 -284.298c-20.9189 -45.0391 -41.0352 -90.7754 -58.2686 -137.364c-17.0527 -46.1035 -36.8643 -93.583 -43.6318 -142.562
c-1.18945 -8.61035 -2.39062 -18.0244 -2.39062 -26.791c0 -15.7334 1.20117 -16.7607 15.291 -8.51172c20.6396 12.085 36.8643 33.6641 50.4746 52.7969c28.2227 39.6719 52.5166 82.4316 76.1816 124.918c50.1445 90.0215 95.4824 182.652 149.761 270.339z
M201.143 205.137c19.3008 29.0938 38.3281 58.3711 58.1455 87.0732c-37.3809 73.8096 -125.89 -6.01367 -159.286 -45.3936c-24.1943 -28.5273 -43.5195 -61.6064 -56.8994 -96.5215c-7.34082 -19.1641 -13.5791 -39.6602 -15.335 -60.1689
c-0.952148 -11.1133 -0.81543 -23.0801 0.0625 -34.2061c1.0459 -13.2178 -0.822266 -14.8369 14.3066 -18.4482c32.668 -7.78906 72.2402 49.752 91.2168 73.168c24.4307 30.1396 46.3525 62.1846 67.7891 94.4971z" />
    <glyph glyph-name="a" unicode="&#xe3;" horiz-adv-x="516" 
d="M510.876 221.292c8.57324 13.8594 50.9443 8.25684 41.8418 -6.56738c-63.9102 -103.993 -115.112 -215.003 -176.942 -320.166c-38.165 -64.9189 -115.579 -204.967 -211.005 -143.784c-41.6455 26.6973 -47.6104 89.6543 -44.043 134.326
c4.70703 58.9414 24.9355 117.49 47.2305 171.831c11.1318 27.127 22.8115 54.0479 34.8896 80.8076c-8.79688 -12.209 -17.8057 -24.2627 -27.1758 -36.0605c-29.4053 -37.0137 -63.8223 -80.4023 -110.922 -94.7842c-40.7363 -12.4453 -84.6914 4.19727 -102.815 43.9375
c-22.2334 48.7373 1.27637 112.498 24.1689 156.802c23.7891 46.041 58.9727 86.0371 100.568 116.763c56.3262 41.6084 153.353 65.4414 214.741 25.3643c6.82324 8.72852 13.8398 17.3145 21.0244 25.7822c3.2627 5.95215 6.4873 11.9355 9.76855 17.875
c23.9082 43.2393 156.715 31.8955 131.425 -20.6523c-45.8174 -95.208 -95.6562 -188.455 -140.172 -284.298c-20.9189 -45.0391 -41.0352 -90.7754 -58.2686 -137.364c-17.0527 -46.1035 -36.8643 -93.583 -43.6318 -142.562
c-1.18945 -8.61035 -2.39062 -18.0244 -2.39062 -26.791c0 -15.7334 1.20117 -16.7607 15.291 -8.51172c20.6396 12.085 36.8643 33.6641 50.4746 52.7969c28.2227 39.6719 52.5166 82.4316 76.1816 124.918c50.1445 90.0215 95.4824 182.652 149.761 270.339z
M201.143 205.137c19.3008 29.0938 38.3281 58.3711 58.1455 87.0732c-37.3809 73.8096 -125.89 -6.01367 -159.286 -45.3936c-24.1943 -28.5273 -43.5195 -61.6064 -56.8994 -96.5215c-7.34082 -19.1641 -13.5791 -39.6602 -15.335 -60.1689
c-0.952148 -11.1133 -0.81543 -23.0801 0.0625 -34.2061c1.0459 -13.2178 -0.822266 -14.8369 14.3066 -18.4482c32.668 -7.78906 72.2402 49.752 91.2168 73.168c24.4307 30.1396 46.3525 62.1846 67.7891 94.4971z" />
    <glyph glyph-name="a" unicode="&#xe2;" horiz-adv-x="516" 
d="M510.876 221.292c8.57324 13.8594 50.9443 8.25684 41.8418 -6.56738c-63.9102 -103.993 -115.112 -215.003 -176.942 -320.166c-38.165 -64.9189 -115.579 -204.967 -211.005 -143.784c-41.6455 26.6973 -47.6104 89.6543 -44.043 134.326
c4.70703 58.9414 24.9355 117.49 47.2305 171.831c11.1318 27.127 22.8115 54.0479 34.8896 80.8076c-8.79688 -12.209 -17.8057 -24.2627 -27.1758 -36.0605c-29.4053 -37.0137 -63.8223 -80.4023 -110.922 -94.7842c-40.7363 -12.4453 -84.6914 4.19727 -102.815 43.9375
c-22.2334 48.7373 1.27637 112.498 24.1689 156.802c23.7891 46.041 58.9727 86.0371 100.568 116.763c56.3262 41.6084 153.353 65.4414 214.741 25.3643c6.82324 8.72852 13.8398 17.3145 21.0244 25.7822c3.2627 5.95215 6.4873 11.9355 9.76855 17.875
c23.9082 43.2393 156.715 31.8955 131.425 -20.6523c-45.8174 -95.208 -95.6562 -188.455 -140.172 -284.298c-20.9189 -45.0391 -41.0352 -90.7754 -58.2686 -137.364c-17.0527 -46.1035 -36.8643 -93.583 -43.6318 -142.562
c-1.18945 -8.61035 -2.39062 -18.0244 -2.39062 -26.791c0 -15.7334 1.20117 -16.7607 15.291 -8.51172c20.6396 12.085 36.8643 33.6641 50.4746 52.7969c28.2227 39.6719 52.5166 82.4316 76.1816 124.918c50.1445 90.0215 95.4824 182.652 149.761 270.339z
M201.143 205.137c19.3008 29.0938 38.3281 58.3711 58.1455 87.0732c-37.3809 73.8096 -125.89 -6.01367 -159.286 -45.3936c-24.1943 -28.5273 -43.5195 -61.6064 -56.8994 -96.5215c-7.34082 -19.1641 -13.5791 -39.6602 -15.335 -60.1689
c-0.952148 -11.1133 -0.81543 -23.0801 0.0625 -34.2061c1.0459 -13.2178 -0.822266 -14.8369 14.3066 -18.4482c32.668 -7.78906 72.2402 49.752 91.2168 73.168c24.4307 30.1396 46.3525 62.1846 67.7891 94.4971z" />
    <glyph glyph-name="a" unicode="&#xe1;" horiz-adv-x="516" 
d="M510.876 221.292c8.57324 13.8594 50.9443 8.25684 41.8418 -6.56738c-63.9102 -103.993 -115.112 -215.003 -176.942 -320.166c-38.165 -64.9189 -115.579 -204.967 -211.005 -143.784c-41.6455 26.6973 -47.6104 89.6543 -44.043 134.326
c4.70703 58.9414 24.9355 117.49 47.2305 171.831c11.1318 27.127 22.8115 54.0479 34.8896 80.8076c-8.79688 -12.209 -17.8057 -24.2627 -27.1758 -36.0605c-29.4053 -37.0137 -63.8223 -80.4023 -110.922 -94.7842c-40.7363 -12.4453 -84.6914 4.19727 -102.815 43.9375
c-22.2334 48.7373 1.27637 112.498 24.1689 156.802c23.7891 46.041 58.9727 86.0371 100.568 116.763c56.3262 41.6084 153.353 65.4414 214.741 25.3643c6.82324 8.72852 13.8398 17.3145 21.0244 25.7822c3.2627 5.95215 6.4873 11.9355 9.76855 17.875
c23.9082 43.2393 156.715 31.8955 131.425 -20.6523c-45.8174 -95.208 -95.6562 -188.455 -140.172 -284.298c-20.9189 -45.0391 -41.0352 -90.7754 -58.2686 -137.364c-17.0527 -46.1035 -36.8643 -93.583 -43.6318 -142.562
c-1.18945 -8.61035 -2.39062 -18.0244 -2.39062 -26.791c0 -15.7334 1.20117 -16.7607 15.291 -8.51172c20.6396 12.085 36.8643 33.6641 50.4746 52.7969c28.2227 39.6719 52.5166 82.4316 76.1816 124.918c50.1445 90.0215 95.4824 182.652 149.761 270.339z
M201.143 205.137c19.3008 29.0938 38.3281 58.3711 58.1455 87.0732c-37.3809 73.8096 -125.89 -6.01367 -159.286 -45.3936c-24.1943 -28.5273 -43.5195 -61.6064 -56.8994 -96.5215c-7.34082 -19.1641 -13.5791 -39.6602 -15.335 -60.1689
c-0.952148 -11.1133 -0.81543 -23.0801 0.0625 -34.2061c1.0459 -13.2178 -0.822266 -14.8369 14.3066 -18.4482c32.668 -7.78906 72.2402 49.752 91.2168 73.168c24.4307 30.1396 46.3525 62.1846 67.7891 94.4971z" />
    <glyph glyph-name="b" unicode="b" horiz-adv-x="504" 
d="M501.375 206.841c11.0693 11.3623 53.4541 2.8252 38.3066 -12.7773c-57.2168 -58.8545 -117.092 -115.928 -180.921 -167.915c-18.6035 -53.332 -42.4863 -104.783 -73.1553 -152.219c-98.5137 -152.381 -262.743 -258.298 -449.293 -217.523
c-28.5273 6.23828 -67.2285 21.4111 -64.1406 57.0801c3.01367 34.8096 38.6016 58.5059 65.7402 74.5879c75.8076 44.9141 164.086 62.3965 243.686 99.0742c39.6719 18.2793 77.7559 39.2861 114.489 62.416c30.5879 53.9111 57.1357 110.331 79.0205 168.214
c15.0791 39.8779 29.1807 80.4717 40.2129 121.676c8.48633 31.6904 24.5801 82.5068 12.1846 114.284c-28.0049 71.7666 -144.312 -70.8398 -166.39 -99.1309c-27.1826 -34.8281 -51.4512 -71.7354 -73.1611 -110.106
c-18.958 -52.5352 -36.3594 -106.153 -64.7246 -154.474c-12.1348 -20.6641 -71.9482 -24.5674 -74.6191 5.75977c-5.08691 57.8018 9.86133 115.853 24.7412 171.389c14.4629 53.9854 32.4873 107.105 52.5596 159.235c41.2969 107.249 88.627 215.887 150.189 313.199
c16.1504 25.5332 52.6592 30.3828 80.2344 25.9688c19.0645 -3.05078 59.291 -19.2139 45.5566 -45.7363c-52.6777 -101.745 -106.781 -201.354 -150.208 -307.657c-2.34082 -5.72754 -4.58887 -11.4932 -6.89258 -17.2402c6.0957 7.16602 12.1787 14.3447 18.5234 21.2871
c40.6494 44.5029 143.497 134.07 199.133 60.8398c22.2832 -29.3242 35.4014 -75.3408 37.792 -111.582c3.06348 -46.4395 -2.40332 -94.0557 -12.8252 -139.3c-2.93848 -12.751 -6.14453 -25.4648 -9.5752 -38.1289c42.7793 38.0225 83.8271 78.0117 123.536 118.779z
M36.4844 -237.41c50.0947 34.4736 91.5908 80.3027 125.373 130.702c-58.917 -31.292 -120.43 -54.415 -183.394 -76.3184c-37.1006 -12.9062 -74.5869 -26.3105 -107.908 -47.5039c-24.1758 -15.3721 -81.0127 -71.8232 -15.9072 -76.1748
c62.4961 -4.18359 132.228 35.1582 181.836 69.2949z" />
    <glyph glyph-name="c" unicode="c" horiz-adv-x="335" 
d="M332.481 231.066c9.30176 12.377 50.5 5.08984 37.4688 -12.4863c-63.5928 -85.6885 -123.997 -186.861 -210.569 -251.649c-66.1514 -49.5029 -185.174 -56.8438 -213.994 39.4658c-28.5029 95.2578 31.2607 215.201 81.0068 293.786
c51.9561 82.0713 148.085 175.075 253.653 125.13c6.83008 -3.23145 13.8525 -11.2695 13.958 -19.2139c-0.130859 9.40137 5.95215 -5.33594 7.0166 -7.90137c2.66504 -6.41309 2.79004 -13.0254 2.80859 -19.7559c0.03125 -13.7598 -3.45508 -28.2783 -7.53906 -41.334
c-12.751 -40.7549 -30.3584 -79.4678 -52.8838 -115.722c-9.33301 -15.0293 -56.4883 -9.93652 -46.5264 7.30957c15.4092 26.666 61.998 105.655 44.54 143.104c-12.7568 -6.35645 -24.1689 -14.668 -37.001 -26.7217
c-27.1016 -25.4639 -48.0586 -56.0771 -66.7178 -88.0352c-38.6387 -66.1826 -74.7188 -140.26 -84.9541 -216.971c-2.90137 -21.7227 -7.24707 -70.8213 22.1953 -77.5332c37.2998 -8.50488 88.2412 54.166 110.051 78.2607
c53.7178 59.3398 99.4727 126.356 147.487 190.267z" />
    <glyph glyph-name="d" unicode="d" horiz-adv-x="616" 
d="M623.904 238.319c9.2334 12.9131 52.6045 8.53613 42.7607 -6.71094c-57.6719 -89.4805 -118.375 -177.137 -178.288 -265.129c-41.0234 -60.2432 -87.7559 -135.447 -167.747 -141.953c-37.2314 -3.02539 -71.8291 13.835 -94.1621 43.377
c-23.4033 30.9619 -27.0078 73.3115 -27.917 110.991c-1.74902 72.6641 14.7188 145.06 36.5098 214.517c-20.7451 -31.3232 -42.001 -62.2852 -65.3916 -91.7344c-29.4053 -37.0137 -63.8223 -80.4023 -110.922 -94.7842
c-40.7363 -12.4453 -84.6914 4.19727 -102.815 43.9375c-22.2334 48.7373 1.27637 112.498 24.1689 156.802c23.7959 46.041 58.9795 86.0371 100.569 116.756c55.9092 41.3037 151.92 65.0869 213.377 26.2363c16.5176 37.3682 34.6348 74.0264 54.3965 109.795
c37.5928 68.0312 79.8926 138.223 138.081 190.795c46.4648 41.9814 143.584 111.737 208.745 71.0625c62.8516 -39.2363 1.27051 -125.572 -29.1182 -165.388c-45.7178 -59.9062 -103.931 -108.762 -153.826 -164.988
c-56.4385 -63.5986 -104.217 -133.971 -143.857 -209.137c-0.660156 -1.25098 -1.66211 -2.30957 -2.79492 -3.28125c-26.0059 -74.1201 -47.8652 -151.783 -50.0693 -229.434c-0.660156 -23.3408 -3.2002 -50.1191 5.16113 -72.4951
c1.73047 -4.63184 8.09375 -19.9102 13.4668 -21.3047c4.09082 -1.06445 21.2373 13.0938 24.6182 15.8457c35.084 28.5957 60.9531 69.0713 86.2432 106.028c59.4209 86.834 117.591 174.62 178.812 260.196zM508.506 487.142
c-23.7773 -39.1611 -45.7617 -79.5049 -65.9023 -120.752c20.2969 25.1963 41.6025 49.6084 64.1533 72.9492c27.1328 28.0791 189.083 178.586 164.739 237.229c-3.62305 -2.40332 -7.17773 -4.64453 -8.85254 -5.95801
c-8.42383 -6.60547 -16.6113 -13.6533 -24.5928 -20.7822c-16.5117 -14.7432 -31.541 -31.2236 -46.2715 -47.7285c-31.541 -35.3516 -58.7178 -74.5127 -83.2734 -114.957zM195.146 205.136c19.3008 29.0938 38.3281 58.3711 58.1455 87.0732
c-37.3809 73.8096 -125.89 -6.01367 -159.286 -45.3936c-24.1943 -28.5273 -43.5195 -61.6064 -56.8994 -96.5215c-7.34082 -19.1641 -13.5791 -39.6602 -15.335 -60.1689c-0.952148 -11.1133 -0.81543 -23.0801 0.0625 -34.2061
c1.0459 -13.2178 -0.822266 -14.8369 14.3066 -18.4482c32.668 -7.78906 72.2402 49.752 91.2168 73.168c24.4307 30.1396 46.3525 62.1846 67.7891 94.4971z" />
    <glyph glyph-name="e" unicode="e" horiz-adv-x="359" 
d="M354.486 232.424c10.8955 10.877 52.3936 2.74805 37.4756 -12.4688c-78.8525 -80.4092 -132.994 -191.4 -230.132 -252.714c-37.4561 -23.6396 -90.8691 -33.5449 -131.904 -13.8584c-45.2441 21.7041 -67.0664 70.584 -70.3721 118.68
c-7.15332 103.986 56.4395 215.114 132.079 282.236c42.1689 37.418 95.7812 62.627 152.836 63.0381c34 0.249023 95.4199 -8.73535 99.0244 -52.8652c3.37402 -41.3037 -43.9688 -67.6709 -77.3525 -78.2988c-30.9121 -9.84375 -62.8145 -10.373 -93.8389 -4.27148
c-46.0166 -52.7773 -80.6826 -119.875 -91.3477 -188.155c-4.37109 -27.9795 -11.9043 -90.0586 11.7168 -112.609c23.958 -22.874 86.0996 46.1787 103.75 64.875c56.0215 59.3398 100.207 128.66 158.065 186.412zM242.607 344.743
c-15.7334 -9.77441 -30.0156 -22.1338 -43.4766 -34.8281c12.7383 -1.41992 25.7256 -0.498047 37.9785 3.11914c8.45508 2.49023 64.3398 31.541 37.4062 47.3926c4.45117 -2.61523 -2.52832 -0.654297 -7.16016 -2.70312
c-8.5918 -3.80371 -16.7412 -8.00586 -24.748 -12.9805z" />
    <glyph glyph-name="e" unicode="&#xeb;" horiz-adv-x="359" 
d="M354.486 232.424c10.8955 10.877 52.3936 2.74805 37.4756 -12.4688c-78.8525 -80.4092 -132.994 -191.4 -230.132 -252.714c-37.4561 -23.6396 -90.8691 -33.5449 -131.904 -13.8584c-45.2441 21.7041 -67.0664 70.584 -70.3721 118.68
c-7.15332 103.986 56.4395 215.114 132.079 282.236c42.1689 37.418 95.7812 62.627 152.836 63.0381c34 0.249023 95.4199 -8.73535 99.0244 -52.8652c3.37402 -41.3037 -43.9688 -67.6709 -77.3525 -78.2988c-30.9121 -9.84375 -62.8145 -10.373 -93.8389 -4.27148
c-46.0166 -52.7773 -80.6826 -119.875 -91.3477 -188.155c-4.37109 -27.9795 -11.9043 -90.0586 11.7168 -112.609c23.958 -22.874 86.0996 46.1787 103.75 64.875c56.0215 59.3398 100.207 128.66 158.065 186.412zM242.607 344.743
c-15.7334 -9.77441 -30.0156 -22.1338 -43.4766 -34.8281c12.7383 -1.41992 25.7256 -0.498047 37.9785 3.11914c8.45508 2.49023 64.3398 31.541 37.4062 47.3926c4.45117 -2.61523 -2.52832 -0.654297 -7.16016 -2.70312
c-8.5918 -3.80371 -16.7412 -8.00586 -24.748 -12.9805z" />
    <glyph glyph-name="e" unicode="&#xea;" horiz-adv-x="359" 
d="M354.486 232.424c10.8955 10.877 52.3936 2.74805 37.4756 -12.4688c-78.8525 -80.4092 -132.994 -191.4 -230.132 -252.714c-37.4561 -23.6396 -90.8691 -33.5449 -131.904 -13.8584c-45.2441 21.7041 -67.0664 70.584 -70.3721 118.68
c-7.15332 103.986 56.4395 215.114 132.079 282.236c42.1689 37.418 95.7812 62.627 152.836 63.0381c34 0.249023 95.4199 -8.73535 99.0244 -52.8652c3.37402 -41.3037 -43.9688 -67.6709 -77.3525 -78.2988c-30.9121 -9.84375 -62.8145 -10.373 -93.8389 -4.27148
c-46.0166 -52.7773 -80.6826 -119.875 -91.3477 -188.155c-4.37109 -27.9795 -11.9043 -90.0586 11.7168 -112.609c23.958 -22.874 86.0996 46.1787 103.75 64.875c56.0215 59.3398 100.207 128.66 158.065 186.412zM242.607 344.743
c-15.7334 -9.77441 -30.0156 -22.1338 -43.4766 -34.8281c12.7383 -1.41992 25.7256 -0.498047 37.9785 3.11914c8.45508 2.49023 64.3398 31.541 37.4062 47.3926c4.45117 -2.61523 -2.52832 -0.654297 -7.16016 -2.70312
c-8.5918 -3.80371 -16.7412 -8.00586 -24.748 -12.9805z" />
    <glyph glyph-name="e" unicode="&#xe9;" horiz-adv-x="359" 
d="M354.486 232.424c10.8955 10.877 52.3936 2.74805 37.4756 -12.4688c-78.8525 -80.4092 -132.994 -191.4 -230.132 -252.714c-37.4561 -23.6396 -90.8691 -33.5449 -131.904 -13.8584c-45.2441 21.7041 -67.0664 70.584 -70.3721 118.68
c-7.15332 103.986 56.4395 215.114 132.079 282.236c42.1689 37.418 95.7812 62.627 152.836 63.0381c34 0.249023 95.4199 -8.73535 99.0244 -52.8652c3.37402 -41.3037 -43.9688 -67.6709 -77.3525 -78.2988c-30.9121 -9.84375 -62.8145 -10.373 -93.8389 -4.27148
c-46.0166 -52.7773 -80.6826 -119.875 -91.3477 -188.155c-4.37109 -27.9795 -11.9043 -90.0586 11.7168 -112.609c23.958 -22.874 86.0996 46.1787 103.75 64.875c56.0215 59.3398 100.207 128.66 158.065 186.412zM242.607 344.743
c-15.7334 -9.77441 -30.0156 -22.1338 -43.4766 -34.8281c12.7383 -1.41992 25.7256 -0.498047 37.9785 3.11914c8.45508 2.49023 64.3398 31.541 37.4062 47.3926c4.45117 -2.61523 -2.52832 -0.654297 -7.16016 -2.70312
c-8.5918 -3.80371 -16.7412 -8.00586 -24.748 -12.9805z" />
    <glyph glyph-name="f" unicode="f" horiz-adv-x="475" 
d="M529.372 531.782c-131.991 -146.847 -290.126 -268.369 -413.638 -422.687c118.032 48.127 246.724 70.8643 364.258 119.975c13.3984 5.59668 49.708 -10.4854 27.4688 -20.291c-129.164 -56.9551 -273.819 -77.5693 -401.19 -138.597
c38.1777 -3.25 77.5322 -7.77637 110.431 -24.4062c43.8994 -22.1895 58.0391 -65.7715 55.3242 -112.56c-5.63477 -97.1758 -61.2139 -211.777 -158.364 -246.307c-44.4473 -15.7949 -95.1641 0.946289 -129.5 30.6318c-40.5996 35.1084 -55.3984 87.8926 -57.54 139.699
c-4.24023 102.542 13.5664 206.292 43.6504 304.077c30.8184 100.164 75.6211 195.634 132.01 283.918c54.502 85.334 117.571 171.545 198.11 234.098c42.6104 33.0908 88.7949 58.5859 141.616 70.8389c42.7227 9.91211 97.2627 19.0889 136.661 -6.29492
c81.2617 -52.3545 -7.86328 -165.998 -49.2969 -212.096zM170.785 30.3994c-28.2656 9.40723 -60.0205 11.8994 -90.7891 14.3652c-7.58984 -32.4189 -13.7656 -65.1494 -18.2422 -98.0537c-6.86719 -50.4619 -38.4014 -203.36 36.7217 -222.562
c34.1123 -8.72266 72.9434 56.8057 86.2363 80.7256c21.0938 37.96 34.666 80.3779 38.0098 123.748c3.34961 43.4512 -5.77734 86.4102 -51.9365 101.776zM118.211 173.145c98.1904 110.617 210.876 207.778 314.582 313.546
c31.3848 32.0078 63.8906 64.4268 89.7842 101.185c19.8486 28.1729 47.417 73.4541 33.5762 109.745c-16.3057 42.7666 -69.8369 -5.10547 -91.0049 -20.1846c-30.7441 -21.8965 -58.5498 -48.749 -84.3438 -76.1992c-111.171 -118.3 -199.455 -260.097 -256.747 -411.961
c-2.01758 -5.34766 -3.9043 -10.752 -5.84668 -16.1309z" />
    <glyph glyph-name="g" unicode="g" horiz-adv-x="522" 
d="M520.362 232.387c10.4102 7.44043 51.3838 -1.64746 35.2207 -15.4756c-67.2783 -57.5527 -143.117 -102.872 -222.411 -141.474c-31.0059 -77.0713 -65.5791 -152.53 -103.788 -226.333c-63.7422 -123.125 -142.682 -263.459 -288.227 -297.048
c-55.1436 -12.7256 -121.096 -0.136719 -157.885 45.9414c-41.4277 51.8936 -23.1045 125.814 5.12402 179.414c63.6484 120.871 191.574 185.254 312.975 233.929c27.5625 11.0508 55.2188 21.7529 82.7373 32.7295c17.1152 43.8867 33.7637 87.9541 49.6396 132.283
c3.25586 9.1084 6.4375 18.248 9.58789 27.4062c-22.9238 -34.8467 -46.2773 -69.3945 -72.2393 -102.081c-29.4053 -37.0137 -63.8223 -80.4023 -110.922 -94.7842c-40.7363 -12.4453 -84.6914 4.19629 -102.815 43.9365c-22.2334 48.7373 1.27637 112.498 24.1689 156.802
c23.7959 46.041 58.9785 86.0371 100.568 116.756c55.6543 41.1104 151.024 64.8379 212.513 26.7471c2.68945 6.99805 5.41016 13.9834 8.23633 20.9189c18.3164 44.9453 143.428 36.8262 128.61 -20.21c-20.334 -78.248 -50.1816 -155.002 -80.0107 -230.461
c58.8857 33.1846 113.768 71.6113 168.917 111.003zM157.966 -22.0244c3.54883 8.81641 7.02832 17.6562 10.54 26.4912c-0.136719 -0.0556641 -0.267578 -0.111328 -0.404297 -0.161133c-118.113 -46.085 -246.406 -98.7627 -318.173 -209.903
c-31.4785 -48.75 -62.2227 -124.222 -26.4111 -178.369c20.4463 -30.9121 59.2656 -45.5371 95.1211 -38.4834c28.6455 5.63477 50.8662 26.4482 68.7969 48.3389c38.8623 47.4424 62.5713 109.198 88.2539 164.336c28.8389 61.9238 56.7812 124.37 82.2764 187.751z
M196.572 205.137c19.3008 29.0938 38.3291 58.3779 58.1523 87.0732c-37.3809 73.8096 -125.89 -6.01367 -159.286 -45.3936c-24.1885 -28.5273 -43.5205 -61.6064 -56.9004 -96.5215c-7.34082 -19.1641 -13.5859 -39.6602 -15.335 -60.1689
c-0.952148 -11.1133 -0.81543 -23.0801 0.0625 -34.2061c1.04004 -13.2178 -0.821289 -14.8369 14.3076 -18.4482c32.6611 -7.78906 72.2334 49.752 91.21 73.168c24.4307 30.1396 46.3525 62.1846 67.7891 94.4971z" />
    <glyph glyph-name="h" unicode="h" horiz-adv-x="512" 
d="M510.052 219.822c14.8799 8.92188 57.5859 -4.93945 33.7969 -19.2402c-34.2363 -20.5771 -57.9326 -58.002 -80.707 -89.8662c-22.3887 -31.3164 -43.3643 -63.6045 -63.082 -96.6582c-37.5674 -62.9697 -70.9014 -128.455 -111.495 -189.601
c-29.7793 -44.8525 -63.7793 -92.5 -113.893 -116.152c-43.3145 -20.4463 -101.671 -15.1104 -134.208 22.6689c-40.5186 47.0371 6.96094 122.266 32.1514 166.489c29.9102 52.5098 63.375 102.686 95.999 153.515c33.8691 52.7656 68.5293 105.45 98.9492 160.313
c15.8076 28.5029 32.4746 57.2168 45.2881 87.2266c4.20215 9.84375 17.3203 35.5508 15.1914 47.4297c-2.22266 12.3838 -18.043 14.5195 -26.4111 13.1123c-6.99805 -1.17676 -15.8828 -6.47461 -21.9092 -9.76172c-55.4482 -30.2275 -98.6318 -89.9414 -134.574 -140.235
c-28.6895 -40.1387 -54.5332 -82.1699 -79.499 -124.706c-12.1221 -32.4619 -25.4521 -64.4141 -43.0098 -94.3242c-12.1348 -20.6641 -71.9482 -24.5674 -74.6191 5.75977c-5.08691 57.8018 9.86133 115.853 24.7412 171.389
c14.4629 53.9854 32.4873 107.105 52.5596 159.235c41.2969 107.249 88.627 215.887 150.189 313.199c16.1504 25.5332 52.666 30.3828 80.2344 25.9688c19.0645 -3.05078 59.2842 -19.2139 45.5557 -45.7363c-52.6777 -101.745 -106.781 -201.354 -150.208 -307.657
c-7.71387 -18.8896 -15.1543 -37.8789 -22.4951 -56.9053c35.4072 46.8633 76.5234 95.3018 130.018 120.038c42.1377 19.4873 92.2695 21.5605 124.383 -16.5732c37.2627 -44.2422 13.3672 -116.844 -4.04102 -164.958
c-42.542 -117.565 -118.026 -218.283 -179.104 -326.36c-16.835 -29.7852 -34.7783 -58.9043 -51.9688 -88.4717c-4.71973 -8.1123 -23.8086 -31.7832 -19.3818 -42.7783c6.72363 -16.7109 31.335 3.72266 40.002 10.4902c50.9912 39.8027 85.0039 102.324 117.192 157.188
c34.5479 58.8789 66.8486 119.041 104.722 175.903c32.6309 48.9922 68.1006 109.173 119.633 140.06z" />
    <glyph glyph-name="i" unicode="i" horiz-adv-x="266" 
d="M263.604 232.243c9.93066 11.9043 51.2773 4.23828 37.4619 -12.4971c-56.7744 -68.7471 -101.67 -146.049 -155.506 -216.981c-39.0869 -51.4893 -99.958 -139.456 -176.407 -111.812c-89.3242 32.3008 -51.4199 161.839 -26.0742 225.163
c35.8428 89.5547 78.4531 180.535 127.514 263.621c24.3252 41.2041 155.612 32.8428 130.484 -20.502c-34.4736 -73.1924 -73.8154 -144.586 -110.767 -216.583c-17.458 -34.0127 -34.4365 -68.3926 -50.1699 -103.233
c-14.9482 -33.0977 -36.0791 -70.3545 -33.3828 -107.848c2.03613 -28.3535 24.25 -1.03418 34.9277 9.44434c12.415 12.1846 24.2129 24.998 35.5439 38.1846c24.1816 28.1357 46.0469 58.1328 67.2344 88.5527c38.7314 55.5918 75.6768 112.392 119.141 164.491z
M170.743 460.592c-8.5293 1.37012 -22.3994 5.40234 -25.873 14.748c-8.16895 21.9961 4.21484 45.0576 12.7256 65.124c9.29492 21.915 45.5801 23.4775 64.6816 20.9307c10.3164 -1.37598 23.8701 -6.07617 31.4219 -13.7715
c5.59082 -5.70312 9.7002 -15.291 5.29883 -23.0918c-7.70801 -13.6475 -15.8574 -27.6992 -26.6406 -39.2109c-6.0459 -6.46289 -13.5234 -12.5391 -21.082 -17.0469c-1.46973 -0.87793 -3.05762 -1.53125 -4.60742 -2.27246l0.111328 0.0175781
c-0.280273 -0.143555 -0.573242 -0.249023 -0.853516 -0.385742c-1.15137 -0.529297 -2.26562 -1.10254 -3.44824 -1.55664c-3.32422 -1.34473 -6.75488 -2.33496 -10.2354 -3.04492c-0.927734 -0.205078 -1.86133 -0.410156 -2.80176 -0.52832
c-3.16309 -0.485352 -6.36328 -0.71582 -9.58203 -0.68457c-0.404297 -0.00585938 -0.68457 0.00683594 -0.883789 0.0380859c-2.73926 0.0683594 -5.48535 0.292969 -8.23145 0.735352z" />
    <glyph glyph-name="i" unicode="&#xef;" horiz-adv-x="266" 
d="M263.604 232.243c9.93066 11.9043 51.2773 4.23828 37.4619 -12.4971c-56.7744 -68.7471 -101.67 -146.049 -155.506 -216.981c-39.0869 -51.4893 -99.958 -139.456 -176.407 -111.812c-89.3242 32.3008 -51.4199 161.839 -26.0742 225.163
c35.8428 89.5547 78.4531 180.535 127.514 263.621c24.3252 41.2041 155.612 32.8428 130.484 -20.502c-34.4736 -73.1924 -73.8154 -144.586 -110.767 -216.583c-17.458 -34.0127 -34.4365 -68.3926 -50.1699 -103.233
c-14.9482 -33.0977 -36.0791 -70.3545 -33.3828 -107.848c2.03613 -28.3535 24.25 -1.03418 34.9277 9.44434c12.415 12.1846 24.2129 24.998 35.5439 38.1846c24.1816 28.1357 46.0469 58.1328 67.2344 88.5527c38.7314 55.5918 75.6768 112.392 119.141 164.491z
M170.743 460.592c-8.5293 1.37012 -22.3994 5.40234 -25.873 14.748c-8.16895 21.9961 4.21484 45.0576 12.7256 65.124c9.29492 21.915 45.5801 23.4775 64.6816 20.9307c10.3164 -1.37598 23.8701 -6.07617 31.4219 -13.7715
c5.59082 -5.70312 9.7002 -15.291 5.29883 -23.0918c-7.70801 -13.6475 -15.8574 -27.6992 -26.6406 -39.2109c-6.0459 -6.46289 -13.5234 -12.5391 -21.082 -17.0469c-1.46973 -0.87793 -3.05762 -1.53125 -4.60742 -2.27246l0.111328 0.0175781
c-0.280273 -0.143555 -0.573242 -0.249023 -0.853516 -0.385742c-1.15137 -0.529297 -2.26562 -1.10254 -3.44824 -1.55664c-3.32422 -1.34473 -6.75488 -2.33496 -10.2354 -3.04492c-0.927734 -0.205078 -1.86133 -0.410156 -2.80176 -0.52832
c-3.16309 -0.485352 -6.36328 -0.71582 -9.58203 -0.68457c-0.404297 -0.00585938 -0.68457 0.00683594 -0.883789 0.0380859c-2.73926 0.0683594 -5.48535 0.292969 -8.23145 0.735352z" />
    <glyph glyph-name="i" unicode="&#xee;" horiz-adv-x="266" 
d="M263.604 232.243c9.93066 11.9043 51.2773 4.23828 37.4619 -12.4971c-56.7744 -68.7471 -101.67 -146.049 -155.506 -216.981c-39.0869 -51.4893 -99.958 -139.456 -176.407 -111.812c-89.3242 32.3008 -51.4199 161.839 -26.0742 225.163
c35.8428 89.5547 78.4531 180.535 127.514 263.621c24.3252 41.2041 155.612 32.8428 130.484 -20.502c-34.4736 -73.1924 -73.8154 -144.586 -110.767 -216.583c-17.458 -34.0127 -34.4365 -68.3926 -50.1699 -103.233
c-14.9482 -33.0977 -36.0791 -70.3545 -33.3828 -107.848c2.03613 -28.3535 24.25 -1.03418 34.9277 9.44434c12.415 12.1846 24.2129 24.998 35.5439 38.1846c24.1816 28.1357 46.0469 58.1328 67.2344 88.5527c38.7314 55.5918 75.6768 112.392 119.141 164.491z
M170.743 460.592c-8.5293 1.37012 -22.3994 5.40234 -25.873 14.748c-8.16895 21.9961 4.21484 45.0576 12.7256 65.124c9.29492 21.915 45.5801 23.4775 64.6816 20.9307c10.3164 -1.37598 23.8701 -6.07617 31.4219 -13.7715
c5.59082 -5.70312 9.7002 -15.291 5.29883 -23.0918c-7.70801 -13.6475 -15.8574 -27.6992 -26.6406 -39.2109c-6.0459 -6.46289 -13.5234 -12.5391 -21.082 -17.0469c-1.46973 -0.87793 -3.05762 -1.53125 -4.60742 -2.27246l0.111328 0.0175781
c-0.280273 -0.143555 -0.573242 -0.249023 -0.853516 -0.385742c-1.15137 -0.529297 -2.26562 -1.10254 -3.44824 -1.55664c-3.32422 -1.34473 -6.75488 -2.33496 -10.2354 -3.04492c-0.927734 -0.205078 -1.86133 -0.410156 -2.80176 -0.52832
c-3.16309 -0.485352 -6.36328 -0.71582 -9.58203 -0.68457c-0.404297 -0.00585938 -0.68457 0.00683594 -0.883789 0.0380859c-2.73926 0.0683594 -5.48535 0.292969 -8.23145 0.735352z" />
    <glyph glyph-name="i" unicode="&#xed;" horiz-adv-x="266" 
d="M263.604 232.243c9.93066 11.9043 51.2773 4.23828 37.4619 -12.4971c-56.7744 -68.7471 -101.67 -146.049 -155.506 -216.981c-39.0869 -51.4893 -99.958 -139.456 -176.407 -111.812c-89.3242 32.3008 -51.4199 161.839 -26.0742 225.163
c35.8428 89.5547 78.4531 180.535 127.514 263.621c24.3252 41.2041 155.612 32.8428 130.484 -20.502c-34.4736 -73.1924 -73.8154 -144.586 -110.767 -216.583c-17.458 -34.0127 -34.4365 -68.3926 -50.1699 -103.233
c-14.9482 -33.0977 -36.0791 -70.3545 -33.3828 -107.848c2.03613 -28.3535 24.25 -1.03418 34.9277 9.44434c12.415 12.1846 24.2129 24.998 35.5439 38.1846c24.1816 28.1357 46.0469 58.1328 67.2344 88.5527c38.7314 55.5918 75.6768 112.392 119.141 164.491z
M170.743 460.592c-8.5293 1.37012 -22.3994 5.40234 -25.873 14.748c-8.16895 21.9961 4.21484 45.0576 12.7256 65.124c9.29492 21.915 45.5801 23.4775 64.6816 20.9307c10.3164 -1.37598 23.8701 -6.07617 31.4219 -13.7715
c5.59082 -5.70312 9.7002 -15.291 5.29883 -23.0918c-7.70801 -13.6475 -15.8574 -27.6992 -26.6406 -39.2109c-6.0459 -6.46289 -13.5234 -12.5391 -21.082 -17.0469c-1.46973 -0.87793 -3.05762 -1.53125 -4.60742 -2.27246l0.111328 0.0175781
c-0.280273 -0.143555 -0.573242 -0.249023 -0.853516 -0.385742c-1.15137 -0.529297 -2.26562 -1.10254 -3.44824 -1.55664c-3.32422 -1.34473 -6.75488 -2.33496 -10.2354 -3.04492c-0.927734 -0.205078 -1.86133 -0.410156 -2.80176 -0.52832
c-3.16309 -0.485352 -6.36328 -0.71582 -9.58203 -0.68457c-0.404297 -0.00585938 -0.68457 0.00683594 -0.883789 0.0380859c-2.73926 0.0683594 -5.48535 0.292969 -8.23145 0.735352z" />
    <glyph glyph-name="j" unicode="j" horiz-adv-x="256" 
d="M255.365 232.387c10.4102 7.44043 51.3857 -1.64746 35.2168 -15.4756c-67.2783 -57.5527 -143.117 -102.872 -222.411 -141.474c-31.0059 -77.0713 -65.5791 -152.53 -103.788 -226.333c-63.7422 -123.125 -142.682 -263.459 -288.227 -297.048
c-55.1436 -12.7256 -121.096 -0.136719 -157.885 45.9414c-41.4277 51.8936 -23.0986 125.814 5.12402 179.414c63.6484 120.871 191.574 185.254 312.975 233.929c27.5625 11.0508 55.2188 21.7529 82.7373 32.7295c17.1152 43.8867 33.7637 87.9541 49.6396 132.283
c23.2852 65.0303 43.04 131.729 69.1025 195.701c18.3164 44.9453 143.428 36.8262 128.609 -20.21c-20.334 -78.248 -50.1816 -155.002 -80.0107 -230.461c58.8857 33.1846 113.768 71.6113 168.917 111.003zM-107.029 -22.0244
c3.54883 8.81641 7.02832 17.6562 10.54 26.4912c-0.136719 -0.0556641 -0.267578 -0.111328 -0.404297 -0.161133c-118.113 -46.085 -246.406 -98.7627 -318.173 -209.903c-31.4785 -48.75 -62.2227 -124.222 -26.4111 -178.369
c20.4463 -30.9121 59.2656 -45.5371 95.1211 -38.4834c28.6455 5.63477 50.8662 26.4482 68.7969 48.3389c38.8623 47.4424 62.5713 109.198 88.2539 164.336c28.8389 61.9238 56.7812 124.37 82.2764 187.751zM129.184 445.933
c-8.35547 0.591797 -29.2988 4.58887 -32.0137 15.7275c-6.64355 27.2324 8.06836 54.3096 21.9092 77.1963c21.6289 35.7686 122.173 19.3691 91.2168 -21.9219c-14.6309 -19.5127 -24.5303 -43.9873 -42.7412 -60.5234
c-10.1924 -9.25195 -25.166 -11.4121 -38.3711 -10.4785z" />
    <glyph glyph-name="k" unicode="k" horiz-adv-x="449" 
d="M443.497 218.104c12.3213 9.30176 57.9541 1.28418 40.3906 -13.4463c-67.4521 -56.6445 -110.492 -130.541 -152.35 -206.778c-21.4922 -39.1426 -42.6797 -79.0576 -68.9414 -115.28c-16.4736 -22.7188 -38.8379 -40.4316 -68.374 -38.4268
c-81.7354 5.54785 -40.5508 138.187 -30.1592 184.882c10.4912 47.1436 76.3252 253.068 -6.06348 259.194c-0.958984 0.0683594 -1.80566 0.223633 -2.70215 0.348633c-19.3818 -51.2646 -38.3213 -102.691 -57.373 -154.081
c-17.7812 -47.959 -34.4424 -106.072 -72.4766 -142.059c-16.4307 -15.54 -77.9805 -23.1982 -85.8809 6.40039c-13.2236 49.5527 13.3799 109.036 29.3438 155.931c17.0654 50.126 34.6543 100.083 52.3359 149.997c36.6836 103.582 73.6973 208.284 117.161 309.22
c19.6055 45.5186 150.992 35.7812 131.424 -20.6514c-23.2041 -66.9229 -48.6377 -133.255 -74.1709 -199.487c11.4434 7.77051 23.5781 14.5566 36.3848 19.9541c32.5312 13.7158 82.8867 20.3838 110.069 -8.66016c28.1787 -30.1025 -0.162109 -64.5576 -29.4551 -78.3418
c-27.4688 -12.9248 -60.4229 -22.6748 -93.458 -28.3154c7.00391 -5.08008 13 -11.5801 17.3213 -19.9043c15.9824 -30.8066 9.30859 -74.9492 5.26172 -107.654c-10.0488 -81.1621 -38.751 -159 -45.6367 -240.666c-0.883789 -10.541 -2.20996 -22.209 -1.41895 -32.7998
c0.990234 -5.64062 1.98047 -11.2754 2.9707 -16.916c-1.96777 -11.1699 1.19531 -11.3135 9.48828 -0.423828c13.3428 9.07715 23.6221 32.126 31.9775 45.6299c23.0918 37.3184 43.3018 76.3115 64.7568 114.57c36.9453 65.8838 78.4912 131.674 139.574 177.765z
M184.791 329.918c15.6152 0.112305 31.1934 0.742188 46.6963 3.68066c21.0684 3.99707 77.127 13.3174 75.041 44.4912c-2.98242 44.5156 -67.4775 3.33105 -83.248 -8.83496c-14.7373 -11.3691 -27.7061 -24.4004 -38.4893 -39.3369z" />
    <glyph glyph-name="l" unicode="l" horiz-adv-x="284" 
d="M288.149 227.842c9.05859 13.0557 51.3848 8.01172 41.8467 -6.57617c-35.9307 -54.8887 -72.4209 -109.385 -108.899 -163.906c-30.3955 -45.4307 -58.2822 -95.207 -94.082 -136.716c-33.2783 -38.5889 -76.5176 -56.4697 -127.116 -51.2959
c-48.1709 4.9248 -79.9238 36.1357 -81.7734 85.8877c-1.92383 51.8379 18.7217 110.101 34.3799 159c19.0762 59.583 41.7891 118.48 64.7939 176.638c45.4248 114.839 91.9268 231.919 150.812 340.568c23.3848 43.1465 156.44 35.4141 133.299 -20.9434
c-39.4727 -96.1172 -85.707 -189.457 -125.902 -285.337c-38.0781 -90.8311 -75.8389 -181.967 -110.182 -274.286c-14.6123 -39.2861 -40.2324 -88.2158 -41.1729 -130.684c-0.0996094 -4.44531 -0.541992 -20.0293 2.32227 -22.4883
c7.57715 -6.49414 33.4404 12.1025 37.4375 15.1777c19.2383 14.7871 33.5273 35.5195 47.0693 55.2686c59.2656 86.4229 117.429 173.593 177.167 259.692z" />
    <glyph glyph-name="m" unicode="m" horiz-adv-x="581" 
d="M612.15 239.745c6.98535 -5.68457 10.0645 -14.1221 0.00976562 -19.2832c-37.1572 -18.9336 -64.4453 -49.0234 -93.2715 -78.3604c-20.6514 -21.0186 -44.042 -50.4609 -76.5537 -47.6348c-76.1816 6.63086 17.7441 137.894 13.1807 173.718
c-1.71875 13.5166 8.4668 12.4648 -6.61914 5.49805c-9.63184 -4.45117 -20.9629 -15.6143 -28.9326 -22.9551c-15.54 -14.3008 -29.542 -30.2266 -43.084 -46.4014c-29.8037 -35.6006 -56.6816 -73.5352 -81.5977 -112.69
c-25.4082 -39.9209 -48.2637 -81.2119 -70.5967 -122.802c-11.5684 -23.8271 -22.9248 -47.7725 -33.8701 -71.8916c-10.8701 -23.958 -18.9453 -50.873 -33.6328 -72.6143c-19.1641 -28.3652 -98.415 -39.6846 -113.601 0
c-15.8203 41.3281 8.49805 84.2812 26.6592 121.189c19.7422 40.1201 40.998 79.5 61.998 118.973c20.6396 38.7939 42.3438 77.2266 64.9004 114.932c22.1338 37.0078 48.0029 71.8916 68.8662 109.608c8.1875 14.8057 26.5293 34.0752 31.0928 50.3682
c11.748 41.9756 -50.207 -3.96582 -58.4131 -10.7461c-30.2646 -25.0156 -56.4199 -54.8564 -80.0352 -86.1045c-30.9434 -40.9482 -57.8643 -84.6484 -85.8936 -127.602c-8.22461 -18.3359 -16.3438 -36.7217 -24.6182 -55.0264
c-14.3818 -31.8145 -26.5225 -63.5361 -56.8496 -82.7373c-19.4189 -12.2959 -55.0381 -9.64941 -68.3682 10.292c-18.0615 27.0273 -0.75293 67.8887 7.87012 96.5527c9.27637 30.8438 20.9746 60.7471 33.3086 90.4883c26.2363 63.2627 57.043 125.535 94.6172 182.833
c16.623 25.3584 52.248 30.4453 80.2344 25.9688c19.0264 -3.04492 59.333 -19.2324 45.5547 -45.7363c-3.36816 -6.48145 -6.78027 -12.9375 -10.1738 -19.4062c22.6504 23.2607 48.6123 45.5996 77.5566 57.6904c27.3379 11.4189 68.8408 15.2227 87.9424 -12.9561
c25.8818 -38.1777 20.708 -86.5723 5.43555 -133.697c5.00586 5.62793 10.0303 11.2314 15.1787 16.7041c23.4785 24.9658 99.3418 98.0527 137.127 54.3027c16.6357 -19.2637 0.74707 -57.8652 -6.5498 -78.5352c-5.03027 -14.251 -28.3213 -58.25 -31.8701 -86.3047
c7.91992 8.33008 15.9639 17.8438 18.541 20.4707c9.99902 10.1855 19.7734 20.5957 29.9404 30.6133c21.2744 20.9688 44.043 39.665 70.7402 53.2812c8.80371 4.48926 25.3584 6.85547 33.7764 0.000976562z" />
    <glyph glyph-name="n" unicode="n" horiz-adv-x="488" 
d="M495.194 235.119c10.4717 11.4873 51.9053 3.36035 37.4551 -12.4727c-84.9414 -93.166 -133.479 -210.103 -195.59 -318.204c-23.0117 -40.0459 -48.6191 -92.5244 -89.001 -117.927c-35.625 -22.4131 -82.2764 -20.4082 -110.953 11.7617
c-19.668 22.0586 -30.0654 35.6807 -28.8389 66.4375c1.0957 27.457 8.77832 53.5566 19.4805 78.7529c23.7588 55.916 52.5723 109.372 80.5586 163.233c27.8115 53.5186 57.7959 106.277 90.0713 157.169c11.0889 17.4824 52.2734 71.9658 30.2959 89
c-17.7568 13.7598 -58.0078 -25.1904 -71.6182 -37.7666c-86.3418 -79.792 -152.406 -184.986 -211.84 -285.642c-10.5469 -19.5869 -22.5752 -38.0469 -37.0566 -54.3779c-17.6504 -19.9111 -73.2607 -17.1963 -79.3994 12.2588
c-13.0625 62.7021 23.2227 140.371 46.4639 197.538c26.3672 64.8564 54.291 130.933 93.2412 189.313c16.9912 25.458 52.4424 30.7061 80.8389 26.1611c20.5518 -3.29395 58.0264 -18.7598 45.8984 -46.0791c-17.2773 -38.9121 -36.9395 -76.6729 -56.0342 -114.732
c29.3115 38.3398 61.0146 75.8955 98.4209 105.413c30.4697 24.0508 70.9824 49.3906 111.532 37.3369c41.7324 -12.4023 46.8379 -74.1826 43.582 -110.536c-10.5029 -117.167 -78.9512 -222.598 -125.883 -327.954c-13.3545 -29.9717 -28.7578 -58.5176 -42.7783 -88.0225
c-5.9209 -12.458 -13.9902 -25.7314 -19.0771 -38.1709c-2.94531 -7.19727 -17.1406 -20.8389 11.4121 -13.0381c5.69043 1.55664 14.8984 12.7139 18.5596 16.6865c37.3867 40.5498 63.6602 95.5195 89.7285 143.715c50.8291 93.9873 97.916 190.503 170.53 270.146z" />
    <glyph glyph-name="o" unicode="o" horiz-adv-x="274" 
d="M281.029 235.15c16.7354 5.03711 49.0635 -12.8018 21.9053 -21.3496c-32.7861 -10.3291 -67.1787 -15.7578 -101.503 -15.6836c-0.330078 -1.0957 -0.666016 -2.22266 -0.996094 -3.3125c-19.0078 -63.1445 -40.1201 -127.073 -74.2451 -183.879
c-26.6973 -44.4287 -62.6396 -88.8389 -115.199 -102.025c-42.9346 -10.7705 -116.632 -0.205078 -128.841 50.3252c-7.1416 29.5859 5.07422 62.6836 13.9961 90.7256c9.85547 30.9932 22.3135 60.6416 37.3496 89.4805c24.7549 47.4922 55.0068 93.2598 87.5186 136.325
c-9.03418 17.2275 -11.8672 37.4932 -4.90625 60.8154c14.6992 49.2285 59.4766 93.0469 110.193 103.699c46.4209 9.75586 89.293 -10.3105 99.7461 -58.4688c10.9512 -50.4434 -2.28516 -107.23 -17.0225 -158.078c24.6982 0.523438 49.2852 4.58301 72.0039 11.4258z
M133.352 128.604c8.54199 23.8389 16.8848 48.1191 24.3438 72.668c-15.627 2.25977 -31.0859 5.77148 -46.2275 10.5654c-16.6543 -23.7891 -33.4209 -47.5098 -49.1787 -71.9219c-29.8662 -46.2588 -63.7666 -93.875 -83.7334 -145.557
c-8.15625 -21.1123 -17.6758 -71.3252 20.8691 -59.5391c23.9824 7.33398 44.0615 28.5518 59.1719 47.5352c34.1309 42.8789 56.4072 95.0469 74.7549 146.249zM180.756 301.249c3.28125 23.54 5.99512 48.4736 2.38379 72.1826
c-1.84277 12.1035 -6.34375 29.7539 -17.1768 37.4492c-21.6973 15.416 -48.8555 -5.22949 -63.7354 -18.8086c-23.1729 -21.1494 -38.5137 -49.4219 -39.585 -76.6104c39.8779 11.5557 114.839 -3.78516 92.998 -38.252
c-8.72266 -13.7656 -17.8125 -27.2822 -27.0459 -40.7051c11.748 -4.39551 23.957 -7.63281 36.4404 -9.73145c6.68652 24.6172 12.2402 49.4717 15.7207 74.4756z" />
    <glyph glyph-name="o" unicode="&#xf6;" horiz-adv-x="274" 
d="M281.029 235.15c16.7354 5.03711 49.0635 -12.8018 21.9053 -21.3496c-32.7861 -10.3291 -67.1787 -15.7578 -101.503 -15.6836c-0.330078 -1.0957 -0.666016 -2.22266 -0.996094 -3.3125c-19.0078 -63.1445 -40.1201 -127.073 -74.2451 -183.879
c-26.6973 -44.4287 -62.6396 -88.8389 -115.199 -102.025c-42.9346 -10.7705 -116.632 -0.205078 -128.841 50.3252c-7.1416 29.5859 5.07422 62.6836 13.9961 90.7256c9.85547 30.9932 22.3135 60.6416 37.3496 89.4805c24.7549 47.4922 55.0068 93.2598 87.5186 136.325
c-9.03418 17.2275 -11.8672 37.4932 -4.90625 60.8154c14.6992 49.2285 59.4766 93.0469 110.193 103.699c46.4209 9.75586 89.293 -10.3105 99.7461 -58.4688c10.9512 -50.4434 -2.28516 -107.23 -17.0225 -158.078c24.6982 0.523438 49.2852 4.58301 72.0039 11.4258z
M133.352 128.604c8.54199 23.8389 16.8848 48.1191 24.3438 72.668c-15.627 2.25977 -31.0859 5.77148 -46.2275 10.5654c-16.6543 -23.7891 -33.4209 -47.5098 -49.1787 -71.9219c-29.8662 -46.2588 -63.7666 -93.875 -83.7334 -145.557
c-8.15625 -21.1123 -17.6758 -71.3252 20.8691 -59.5391c23.9824 7.33398 44.0615 28.5518 59.1719 47.5352c34.1309 42.8789 56.4072 95.0469 74.7549 146.249zM180.756 301.249c3.28125 23.54 5.99512 48.4736 2.38379 72.1826
c-1.84277 12.1035 -6.34375 29.7539 -17.1768 37.4492c-21.6973 15.416 -48.8555 -5.22949 -63.7354 -18.8086c-23.1729 -21.1494 -38.5137 -49.4219 -39.585 -76.6104c39.8779 11.5557 114.839 -3.78516 92.998 -38.252
c-8.72266 -13.7656 -17.8125 -27.2822 -27.0459 -40.7051c11.748 -4.39551 23.957 -7.63281 36.4404 -9.73145c6.68652 24.6172 12.2402 49.4717 15.7207 74.4756z" />
    <glyph glyph-name="o" unicode="&#xf5;" horiz-adv-x="274" 
d="M281.029 235.15c16.7354 5.03711 49.0635 -12.8018 21.9053 -21.3496c-32.7861 -10.3291 -67.1787 -15.7578 -101.503 -15.6836c-0.330078 -1.0957 -0.666016 -2.22266 -0.996094 -3.3125c-19.0078 -63.1445 -40.1201 -127.073 -74.2451 -183.879
c-26.6973 -44.4287 -62.6396 -88.8389 -115.199 -102.025c-42.9346 -10.7705 -116.632 -0.205078 -128.841 50.3252c-7.1416 29.5859 5.07422 62.6836 13.9961 90.7256c9.85547 30.9932 22.3135 60.6416 37.3496 89.4805c24.7549 47.4922 55.0068 93.2598 87.5186 136.325
c-9.03418 17.2275 -11.8672 37.4932 -4.90625 60.8154c14.6992 49.2285 59.4766 93.0469 110.193 103.699c46.4209 9.75586 89.293 -10.3105 99.7461 -58.4688c10.9512 -50.4434 -2.28516 -107.23 -17.0225 -158.078c24.6982 0.523438 49.2852 4.58301 72.0039 11.4258z
M133.352 128.604c8.54199 23.8389 16.8848 48.1191 24.3438 72.668c-15.627 2.25977 -31.0859 5.77148 -46.2275 10.5654c-16.6543 -23.7891 -33.4209 -47.5098 -49.1787 -71.9219c-29.8662 -46.2588 -63.7666 -93.875 -83.7334 -145.557
c-8.15625 -21.1123 -17.6758 -71.3252 20.8691 -59.5391c23.9824 7.33398 44.0615 28.5518 59.1719 47.5352c34.1309 42.8789 56.4072 95.0469 74.7549 146.249zM180.756 301.249c3.28125 23.54 5.99512 48.4736 2.38379 72.1826
c-1.84277 12.1035 -6.34375 29.7539 -17.1768 37.4492c-21.6973 15.416 -48.8555 -5.22949 -63.7354 -18.8086c-23.1729 -21.1494 -38.5137 -49.4219 -39.585 -76.6104c39.8779 11.5557 114.839 -3.78516 92.998 -38.252
c-8.72266 -13.7656 -17.8125 -27.2822 -27.0459 -40.7051c11.748 -4.39551 23.957 -7.63281 36.4404 -9.73145c6.68652 24.6172 12.2402 49.4717 15.7207 74.4756z" />
    <glyph glyph-name="o" unicode="&#xf4;" horiz-adv-x="274" 
d="M281.029 235.15c16.7354 5.03711 49.0635 -12.8018 21.9053 -21.3496c-32.7861 -10.3291 -67.1787 -15.7578 -101.503 -15.6836c-0.330078 -1.0957 -0.666016 -2.22266 -0.996094 -3.3125c-19.0078 -63.1445 -40.1201 -127.073 -74.2451 -183.879
c-26.6973 -44.4287 -62.6396 -88.8389 -115.199 -102.025c-42.9346 -10.7705 -116.632 -0.205078 -128.841 50.3252c-7.1416 29.5859 5.07422 62.6836 13.9961 90.7256c9.85547 30.9932 22.3135 60.6416 37.3496 89.4805c24.7549 47.4922 55.0068 93.2598 87.5186 136.325
c-9.03418 17.2275 -11.8672 37.4932 -4.90625 60.8154c14.6992 49.2285 59.4766 93.0469 110.193 103.699c46.4209 9.75586 89.293 -10.3105 99.7461 -58.4688c10.9512 -50.4434 -2.28516 -107.23 -17.0225 -158.078c24.6982 0.523438 49.2852 4.58301 72.0039 11.4258z
M133.352 128.604c8.54199 23.8389 16.8848 48.1191 24.3438 72.668c-15.627 2.25977 -31.0859 5.77148 -46.2275 10.5654c-16.6543 -23.7891 -33.4209 -47.5098 -49.1787 -71.9219c-29.8662 -46.2588 -63.7666 -93.875 -83.7334 -145.557
c-8.15625 -21.1123 -17.6758 -71.3252 20.8691 -59.5391c23.9824 7.33398 44.0615 28.5518 59.1719 47.5352c34.1309 42.8789 56.4072 95.0469 74.7549 146.249zM180.756 301.249c3.28125 23.54 5.99512 48.4736 2.38379 72.1826
c-1.84277 12.1035 -6.34375 29.7539 -17.1768 37.4492c-21.6973 15.416 -48.8555 -5.22949 -63.7354 -18.8086c-23.1729 -21.1494 -38.5137 -49.4219 -39.585 -76.6104c39.8779 11.5557 114.839 -3.78516 92.998 -38.252
c-8.72266 -13.7656 -17.8125 -27.2822 -27.0459 -40.7051c11.748 -4.39551 23.957 -7.63281 36.4404 -9.73145c6.68652 24.6172 12.2402 49.4717 15.7207 74.4756z" />
    <glyph glyph-name="o" unicode="&#xf3;" horiz-adv-x="274" 
d="M281.029 235.15c16.7354 5.03711 49.0635 -12.8018 21.9053 -21.3496c-32.7861 -10.3291 -67.1787 -15.7578 -101.503 -15.6836c-0.330078 -1.0957 -0.666016 -2.22266 -0.996094 -3.3125c-19.0078 -63.1445 -40.1201 -127.073 -74.2451 -183.879
c-26.6973 -44.4287 -62.6396 -88.8389 -115.199 -102.025c-42.9346 -10.7705 -116.632 -0.205078 -128.841 50.3252c-7.1416 29.5859 5.07422 62.6836 13.9961 90.7256c9.85547 30.9932 22.3135 60.6416 37.3496 89.4805c24.7549 47.4922 55.0068 93.2598 87.5186 136.325
c-9.03418 17.2275 -11.8672 37.4932 -4.90625 60.8154c14.6992 49.2285 59.4766 93.0469 110.193 103.699c46.4209 9.75586 89.293 -10.3105 99.7461 -58.4688c10.9512 -50.4434 -2.28516 -107.23 -17.0225 -158.078c24.6982 0.523438 49.2852 4.58301 72.0039 11.4258z
M133.352 128.604c8.54199 23.8389 16.8848 48.1191 24.3438 72.668c-15.627 2.25977 -31.0859 5.77148 -46.2275 10.5654c-16.6543 -23.7891 -33.4209 -47.5098 -49.1787 -71.9219c-29.8662 -46.2588 -63.7666 -93.875 -83.7334 -145.557
c-8.15625 -21.1123 -17.6758 -71.3252 20.8691 -59.5391c23.9824 7.33398 44.0615 28.5518 59.1719 47.5352c34.1309 42.8789 56.4072 95.0469 74.7549 146.249zM180.756 301.249c3.28125 23.54 5.99512 48.4736 2.38379 72.1826
c-1.84277 12.1035 -6.34375 29.7539 -17.1768 37.4492c-21.6973 15.416 -48.8555 -5.22949 -63.7354 -18.8086c-23.1729 -21.1494 -38.5137 -49.4219 -39.585 -76.6104c39.8779 11.5557 114.839 -3.78516 92.998 -38.252
c-8.72266 -13.7656 -17.8125 -27.2822 -27.0459 -40.7051c11.748 -4.39551 23.957 -7.63281 36.4404 -9.73145c6.68652 24.6172 12.2402 49.4717 15.7207 74.4756z" />
    <glyph glyph-name="p" unicode="p" horiz-adv-x="448" 
d="M455.22 229.616c16.8604 5.28613 48.9297 -12.8809 21.8906 -21.3359c-35.9111 -11.2568 -72.7002 -18.7969 -110.044 -21.8975c-2.92578 -8.58594 -6.22559 -16.4062 -9.83691 -23.0615c-30.3086 -55.8096 -89.2754 -88.459 -152.45 -85.4082
c-24.0195 1.16406 -61.9736 7.95703 -74.127 32.4375c-0.448242 0.896484 -0.796875 1.81152 -1.14551 2.72656c-49.21 -94.9961 -93.4639 -192.949 -148.271 -284.721c-14.5254 -46.6387 -30.4951 -94.6406 -61.252 -130.988
c-13.3857 -15.8203 -68.8154 -18.7402 -75.6582 5.63477c-16.5176 58.8232 9.30176 127.976 24.375 185.155c16.3311 61.9424 36.3223 123.3 57.2539 183.829c21.6475 62.5957 45.8232 124.426 71.0635 185.652c24.0947 58.4561 45.624 124.495 83.3223 175.679
c16.2432 22.0527 42.8535 27.5996 69.165 25.7383c14.1328 -0.996094 60.0186 -11.2441 54.6582 -35.2891c-14.0459 -62.9941 -48.1523 -122.054 -72.9316 -181.462c-18.9336 -45.3809 -36.8711 -91.1416 -54.1299 -137.164
c5.08008 9.76855 10.1416 19.5557 15.3154 29.2803c27.8428 52.3232 57.4912 103.769 91.2178 152.549c25.1963 36.4404 52.7715 84.3926 100.039 92.9971c92.5186 16.835 106.714 -89.2373 90.8193 -166.022c26.6787 2.35352 53.3008 7.07324 80.7266 15.6709z
M236.53 178.034c2.48438 3.15625 4.80078 6.41309 7.06055 9.70703c-14.5381 -1.63086 -31.0186 -5.43457 -37.4375 -20.502c-3.41211 -5.31055 -4.12207 -10.8828 -2.16699 -16.7041c4.2334 1.73047 8.09375 3.34277 9.51367 4.35742
c8.90918 6.36328 16.2998 14.5938 23.0303 23.1416zM303.646 319.944c2.7959 15.1914 11.2002 41.8086 -26.5293 23.4854c-9.00879 -4.37695 -17.3018 -19.4131 -23.2666 -27.2334c-30.1465 -39.541 -56.7373 -81.1865 -81.3486 -124.009
c24.9414 16.4424 55.6855 22.2393 86.71 21.6602c4.63184 8.61035 9.05273 17.3516 13.5977 26.0244c13.5664 25.875 25.5137 51.1211 30.8369 80.0723z" />
    <glyph glyph-name="q" unicode="q" horiz-adv-x="412" 
d="M416.555 231.328c16.8164 5.82715 48.6982 -11.9785 21.9082 -21.3613c-45.7363 -15.9941 -91.6777 -35.9424 -132.812 -62.1846c-7.90723 -15.6211 -15.708 -31.292 -23.4717 -46.9814c4.22754 -8.56738 10.79 -16.25 15.665 -24.3809
c11.6426 -19.4004 18.8145 -39.4541 19.5615 -62.167c2.18555 -66.624 -54.1533 -184.464 -135.67 -168.749c-97.0449 18.709 -67.1729 155.389 -44.6904 218.595c16.2559 45.7051 35.8301 90.5879 57.1855 134.718c-22.2832 -31.4102 -44.6719 -62.7949 -68.8223 -93.0342
c-25.1533 -31.4912 -54.4463 -60.791 -97.7295 -58.5684c-47.4795 2.43457 -70.0986 42.1934 -68.6104 86.4785c3.0752 91.7959 61.332 194.83 142.793 239.477c44.6963 24.499 102.598 31.8643 151.204 15.8008c11.7051 -3.86621 23.5527 -9.56934 34.1621 -16.9102
c1.46973 0.193359 2.98242 0.318359 4.52637 0.368164c39.834 25.6758 136.505 9.37598 113.941 -32.9355c-25.4893 -47.791 -50.7422 -95.7061 -75.5586 -143.852c28.0361 13.6602 56.9375 25.4707 86.418 35.6875zM152.751 217.563
c27.3633 38.9561 54.9805 78.2129 86.7207 113.732c-11.2754 11.0195 -25.502 16.5547 -43.4199 8.44238c-27.4873 -12.4395 -51.2578 -37.3369 -69.9111 -60.3857c-39.6035 -48.9365 -67.4834 -114.272 -76.0508 -176.558
c-0.84082 -6.0957 -1.88672 -12.3906 -2.03027 -18.623c2.89551 2.2666 5.67871 4.67578 8.26855 7.30273c12.085 11.1318 22.2275 24.3809 32.2891 37.2998c22.4443 28.8076 43.1523 58.917 64.1338 88.7891zM222.039 -110.818
c28.7393 31.4785 51.8936 82.2842 50.4736 125.094c-0.529297 16.1318 -4.96875 30.0156 -11.543 43.4014c-15.5088 -32.1387 -30.5068 -64.8438 -42.9834 -97.9844c-7.55859 -20.0791 -14.2393 -40.6123 -18.9648 -61.5439
c-0.890625 -3.94141 -6.88672 -19.208 -3.30664 -23.8779c6.79297 -8.86621 21.5986 9.7373 26.3242 14.9111z" />
    <glyph glyph-name="r" unicode="r" horiz-adv-x="399" 
d="M396.145 223.863c8.38672 10.8271 49.7549 4.11621 40.0918 -9.63086c-59.7451 -85.0039 -110.443 -175.704 -167.747 -262.276c-26.3613 -39.8213 -54.3662 -78.7402 -85.6084 -114.907c-27.1699 -31.4473 -58.8662 -62.6025 -101.707 -69.4824
c-34.9648 -5.61621 -76.9219 8.75293 -87.3936 45.4805c-12.0723 42.3496 0.634766 95.7559 12.4766 137.097c24.5986 85.8564 67.5459 174.297 117.491 251.456c-59.8252 -21.9219 -131.182 -27.6807 -158.969 32.2324c-18.4102 39.6973 -0.734375 90.0225 17.6016 126.581
c19.0205 37.9229 46.0293 71.8047 79.8486 97.4492c35.1211 26.6348 74.9238 47.666 118.68 55.6787c34.0254 6.22559 83.6152 -3.35645 65.373 -48.6377c-16.5986 -41.2041 -52.7158 -80.2969 -78.9395 -115.68c-32.7422 -44.1797 -66.6055 -87.5127 -100.537 -130.783
c-0.186523 -0.243164 -0.416992 -0.460938 -0.62207 -0.685547c7.35938 -4.47656 17.9004 1.33887 29.3564 4.875c22.8682 7.06055 44.0986 17.6816 64.4082 30.1836c18.5225 18.79 47.585 23.0859 73.5479 18.9336c20.4648 -3.27441 56.5693 -18.292 45.0449 -45.2256
c-35.8613 -83.8145 -87.2129 -161.203 -127.526 -243.057c-19.917 -40.4375 -41.0479 -80.1035 -61.6309 -120.192c-8.05664 -15.6953 -20.583 -32.8418 -24.9912 -50.2314c-8.86621 -35.0088 29.542 -9.01562 43.0215 2.49023
c63.3623 54.0732 109.372 132.596 153.054 202.47c43.6191 69.7744 85.209 140.707 135.677 205.862zM82.4131 340.166c-8.58594 -16.5732 -18.4863 -39.291 -23.4355 -62.041c43.4639 54.0537 110.356 139.848 128.368 182.714
c-16.2246 -12.0664 -31.3848 -27.0459 -43.0088 -38.8438c-24.2754 -24.6367 -45.9541 -51.0039 -61.9238 -81.8291z" />
    <glyph glyph-name="s" unicode="s" horiz-adv-x="342" 
d="M366.229 236.185c30.5947 -4.56348 10.1846 -27.9424 -12.1855 -25.1846c-31.124 3.8418 -77.6201 -23.416 -105.064 -36.291c-24.1943 -11.3564 -47.959 -23.6836 -71.0449 -37.1689c-14.5684 -8.50488 -28.8574 -17.6387 -42.7041 -27.3887
c21.0879 -50.7852 40.3262 -101.509 25.2588 -158.775c-19.792 -75.2539 -137.227 -135.372 -185.173 -49.46c-30.8311 55.2373 6.28223 117.36 51.9248 165.139c-37.3809 79.4316 -81.6289 159.1 -36.9141 246.743c39.1182 76.667 135.247 135.011 222.155 128.822
c36.6895 -2.6084 77.7188 -20.5762 86.7217 -59.7939c9.75 -42.4492 -21.7656 -78.498 -48.7363 -106.783c-11.3379 -11.8916 -55.5859 -3.48633 -39.9834 13.3242c22.5879 24.3311 54.2656 59.334 38.1777 95.5254c-16.2188 36.4785 -58.8232 26.9775 -85.3457 8.81641
c-46.5078 -31.8398 -64.8867 -89.8291 -65.9326 -143.833c-0.728516 -37.4863 10.5654 -72.3271 24.1758 -106.495c34.5547 22.0146 71.207 40.8418 108.532 57.5645c42.499 19.0449 88.4531 42.3555 136.138 35.2393zM65.5986 -69.624
c0.90918 11.6055 0.865234 23.1406 -0.759766 34.6895c-2.88867 20.5332 -10.6094 40.0391 -18.5664 59.1094c-14.0332 -19.7051 -26.3984 -42.2617 -30.4326 -65.4346c-4.07812 -23.3975 0.448242 -65.666 30.5508 -61.8184
c15.6211 1.99902 14.8115 4.04785 17.6631 19.165c0.890625 4.70703 1.1709 9.52637 1.54492 14.2891z" />
    <glyph glyph-name="t" unicode="t" horiz-adv-x="239" 
d="M235.938 236.832c10.9893 10.8896 52.4678 2.49219 37.4697 -12.4941c-74.1826 -74.0273 -124.558 -165.6 -180.841 -252.981c-32.5869 -50.5859 -109.366 -171.196 -172.131 -83.4287c-28.1602 39.3857 -22.0527 94.125 -12.1162 138.771
c11.3125 50.7979 28.6025 99.3789 46.8076 148.041c29.623 79.1943 59.4707 160.27 93.2529 238.798c-21.8096 -2.27832 -43.4014 -0.547852 -62.4033 12.9502c-21.666 15.3965 18.0996 25.8311 31.3672 17.8809c11.6611 -6.98535 27.5439 -5.9834 43.3643 -2.7959
c9.5752 21.4365 19.3936 42.6982 29.7285 63.5615c20.1035 40.5869 140.209 34.541 122.509 -19.252c-1.81836 -5.52246 -3.76758 -10.9893 -5.64746 -16.4863c23.7705 0.80957 48.917 -3.33105 57.0234 -25.3711c7.10352 -19.3193 -39.6533 -23.4219 -45.5928 -7.16602
c-1.60645 4.39551 -9.61914 5.76562 -21.0127 5.28613c-59.9873 -165.338 -145.601 -320.938 -197.93 -489.301c-4.8252 -15.5342 -16.4619 -41.2783 -16.001 -59.3525c3.84766 3.49316 7.55176 7.13574 11.082 10.9521c7.29688 7.71387 14.1084 15.9512 20.5957 24.3496
c27.2012 35.2393 49.8887 74.1953 73.541 111.844c43.6006 69.4014 88.4404 138.224 146.934 196.194z" />
    <glyph glyph-name="u" unicode="u" horiz-adv-x="479" 
d="M477.241 239.484c10.8398 11.0195 52.3174 2.78418 37.4502 -12.4824c-62.7705 -64.5449 -111.165 -140.159 -163.725 -212.798c-32.6309 -45.0889 -80.8887 -127.197 -148.938 -96.1914c-77.458 35.2949 -22.6377 174.727 -1.08301 230.512
c2.06055 5.33594 4.20898 10.665 6.31348 15.9941c-21.1494 -37.8662 -42.498 -75.6641 -65.8516 -112.229c-17.6133 -27.5811 -34.8223 -58.8232 -66.7861 -71.2383c-30.9365 -12.0166 -71.6729 -7.84473 -97.1494 14.1084
c-36.6523 31.5723 -34.3486 80.415 -23.3789 123.244c23.7705 92.792 75.4209 184.999 124.45 266.728c21.6416 36.0732 137.42 28.7949 115.006 -18.0742c-35.9551 -75.1973 -79.0449 -146.665 -110.903 -223.917c-13.5479 -32.8359 -30.1396 -74.8428 -27.1074 -110.935
c0.547852 -6.4873 3.49902 -11.9785 5.00586 -17.7129c4.83105 4.68848 11.5361 10.4541 13.8457 13.374c5.74023 7.24707 10.7705 14.9922 15.8574 22.7002c78.3857 118.836 135.049 251.126 229.204 359.309c1.39453 1.59375 3.39941 2.79492 5.74023 3.69727
c32.9541 31.7529 140.614 19.8428 118.823 -27.3438c-35.582 -77.04 -74.4756 -152.518 -109.018 -230.062c-16.7607 -37.6299 -32.8242 -75.4346 -47.1562 -114.048c-7.4834 -20.1475 -14.8486 -40.3877 -21.4355 -60.8398
c-1.17676 -3.64844 -4.19629 -12.0283 -6.66797 -20.707c4.38965 4.875 8.28711 9.38281 9.99902 11.4434c11.2256 13.5166 21.7471 27.6934 32.2002 41.8018c19.1885 25.8936 37.6426 52.3232 56.3701 78.5537c36.7207 51.4326 74.5312 101.976 118.935 147.114z" />
    <glyph glyph-name="u" unicode="&#xfc;" horiz-adv-x="479" 
d="M477.241 239.484c10.8398 11.0195 52.3174 2.78418 37.4502 -12.4824c-62.7705 -64.5449 -111.165 -140.159 -163.725 -212.798c-32.6309 -45.0889 -80.8887 -127.197 -148.938 -96.1914c-77.458 35.2949 -22.6377 174.727 -1.08301 230.512
c2.06055 5.33594 4.20898 10.665 6.31348 15.9941c-21.1494 -37.8662 -42.498 -75.6641 -65.8516 -112.229c-17.6133 -27.5811 -34.8223 -58.8232 -66.7861 -71.2383c-30.9365 -12.0166 -71.6729 -7.84473 -97.1494 14.1084
c-36.6523 31.5723 -34.3486 80.415 -23.3789 123.244c23.7705 92.792 75.4209 184.999 124.45 266.728c21.6416 36.0732 137.42 28.7949 115.006 -18.0742c-35.9551 -75.1973 -79.0449 -146.665 -110.903 -223.917c-13.5479 -32.8359 -30.1396 -74.8428 -27.1074 -110.935
c0.547852 -6.4873 3.49902 -11.9785 5.00586 -17.7129c4.83105 4.68848 11.5361 10.4541 13.8457 13.374c5.74023 7.24707 10.7705 14.9922 15.8574 22.7002c78.3857 118.836 135.049 251.126 229.204 359.309c1.39453 1.59375 3.39941 2.79492 5.74023 3.69727
c32.9541 31.7529 140.614 19.8428 118.823 -27.3438c-35.582 -77.04 -74.4756 -152.518 -109.018 -230.062c-16.7607 -37.6299 -32.8242 -75.4346 -47.1562 -114.048c-7.4834 -20.1475 -14.8486 -40.3877 -21.4355 -60.8398
c-1.17676 -3.64844 -4.19629 -12.0283 -6.66797 -20.707c4.38965 4.875 8.28711 9.38281 9.99902 11.4434c11.2256 13.5166 21.7471 27.6934 32.2002 41.8018c19.1885 25.8936 37.6426 52.3232 56.3701 78.5537c36.7207 51.4326 74.5312 101.976 118.935 147.114z" />
    <glyph glyph-name="u" unicode="&#xfb;" horiz-adv-x="479" 
d="M477.241 239.484c10.8398 11.0195 52.3174 2.78418 37.4502 -12.4824c-62.7705 -64.5449 -111.165 -140.159 -163.725 -212.798c-32.6309 -45.0889 -80.8887 -127.197 -148.938 -96.1914c-77.458 35.2949 -22.6377 174.727 -1.08301 230.512
c2.06055 5.33594 4.20898 10.665 6.31348 15.9941c-21.1494 -37.8662 -42.498 -75.6641 -65.8516 -112.229c-17.6133 -27.5811 -34.8223 -58.8232 -66.7861 -71.2383c-30.9365 -12.0166 -71.6729 -7.84473 -97.1494 14.1084
c-36.6523 31.5723 -34.3486 80.415 -23.3789 123.244c23.7705 92.792 75.4209 184.999 124.45 266.728c21.6416 36.0732 137.42 28.7949 115.006 -18.0742c-35.9551 -75.1973 -79.0449 -146.665 -110.903 -223.917c-13.5479 -32.8359 -30.1396 -74.8428 -27.1074 -110.935
c0.547852 -6.4873 3.49902 -11.9785 5.00586 -17.7129c4.83105 4.68848 11.5361 10.4541 13.8457 13.374c5.74023 7.24707 10.7705 14.9922 15.8574 22.7002c78.3857 118.836 135.049 251.126 229.204 359.309c1.39453 1.59375 3.39941 2.79492 5.74023 3.69727
c32.9541 31.7529 140.614 19.8428 118.823 -27.3438c-35.582 -77.04 -74.4756 -152.518 -109.018 -230.062c-16.7607 -37.6299 -32.8242 -75.4346 -47.1562 -114.048c-7.4834 -20.1475 -14.8486 -40.3877 -21.4355 -60.8398
c-1.17676 -3.64844 -4.19629 -12.0283 -6.66797 -20.707c4.38965 4.875 8.28711 9.38281 9.99902 11.4434c11.2256 13.5166 21.7471 27.6934 32.2002 41.8018c19.1885 25.8936 37.6426 52.3232 56.3701 78.5537c36.7207 51.4326 74.5312 101.976 118.935 147.114z" />
    <glyph glyph-name="u" unicode="&#xfa;" horiz-adv-x="479" 
d="M477.241 239.484c10.8398 11.0195 52.3174 2.78418 37.4502 -12.4824c-62.7705 -64.5449 -111.165 -140.159 -163.725 -212.798c-32.6309 -45.0889 -80.8887 -127.197 -148.938 -96.1914c-77.458 35.2949 -22.6377 174.727 -1.08301 230.512
c2.06055 5.33594 4.20898 10.665 6.31348 15.9941c-21.1494 -37.8662 -42.498 -75.6641 -65.8516 -112.229c-17.6133 -27.5811 -34.8223 -58.8232 -66.7861 -71.2383c-30.9365 -12.0166 -71.6729 -7.84473 -97.1494 14.1084
c-36.6523 31.5723 -34.3486 80.415 -23.3789 123.244c23.7705 92.792 75.4209 184.999 124.45 266.728c21.6416 36.0732 137.42 28.7949 115.006 -18.0742c-35.9551 -75.1973 -79.0449 -146.665 -110.903 -223.917c-13.5479 -32.8359 -30.1396 -74.8428 -27.1074 -110.935
c0.547852 -6.4873 3.49902 -11.9785 5.00586 -17.7129c4.83105 4.68848 11.5361 10.4541 13.8457 13.374c5.74023 7.24707 10.7705 14.9922 15.8574 22.7002c78.3857 118.836 135.049 251.126 229.204 359.309c1.39453 1.59375 3.39941 2.79492 5.74023 3.69727
c32.9541 31.7529 140.614 19.8428 118.823 -27.3438c-35.582 -77.04 -74.4756 -152.518 -109.018 -230.062c-16.7607 -37.6299 -32.8242 -75.4346 -47.1562 -114.048c-7.4834 -20.1475 -14.8486 -40.3877 -21.4355 -60.8398
c-1.17676 -3.64844 -4.19629 -12.0283 -6.66797 -20.707c4.38965 4.875 8.28711 9.38281 9.99902 11.4434c11.2256 13.5166 21.7471 27.6934 32.2002 41.8018c19.1885 25.8936 37.6426 52.3232 56.3701 78.5537c36.7207 51.4326 74.5312 101.976 118.935 147.114z" />
    <glyph glyph-name="v" unicode="v" horiz-adv-x="513" 
d="M520.249 237.174c16.7852 5.9082 48.6562 -11.7656 21.8965 -21.3604c-55.3926 -19.8486 -116.594 -22.4072 -172.89 -6.18262c-37.9658 -109.397 -98.9062 -212.052 -176.644 -296.956c-41.8945 -45.7549 -95.8301 -87.1143 -159.641 -93.2031
c-30.2891 -2.89551 -69.6494 2.89453 -94.4473 21.7529c-27.5 20.9131 -35.5381 58.5615 -34.4238 91.3604c2.64648 77.5508 32.8613 156.634 59.832 228.42c29.5049 78.5225 62.123 158.464 103.899 231.289c21.9277 38.2334 142.481 34.4355 122.509 -19.251
c-23.335 -62.7266 -54.832 -122.695 -82.3506 -183.704c-27.8242 -61.6807 -52.4795 -124.438 -76.8359 -187.532c-10.5215 -27.2578 -23.5898 -55.7168 -29 -84.4805c-2.53418 -13.498 -3.49316 -27.6182 0.472656 -40.917
c1.91797 -6.43164 4.9375 -21.3057 9.66895 -25.6699c18.3604 -16.9219 70.3721 16.7666 85.5078 27.3379c19.7422 13.7969 37.374 30.7188 53.7861 48.2695c75.3408 80.5459 133.71 178.649 171.284 282.188c1.99219 5.47852 3.91016 11.0068 5.81543 16.5537
c-3.88477 1.86816 -7.74512 3.80469 -11.5488 5.87793c-61.9053 33.8076 -99.3486 95.875 -73.417 165.898c17.6191 47.5732 70.7705 106.222 127.365 82.6123c62.9199 -26.249 34.1367 -134.812 23.123 -183.219c-4.58887 -20.1533 -10.0557 -40.1572 -16.2012 -59.9932
c45.6797 -16.3926 95.7051 -15.4648 142.238 0.90918zM362.258 373.6c2.03613 24.5928 8.81055 90.2227 -33.8877 74.9131c-19.083 -6.84277 -35.5693 -45.5752 -41.166 -63.1572c-16.9287 -53.1953 6.80469 -100.737 51.3203 -129.67
c11.6299 38.5205 20.4463 78.1797 23.7334 117.914z" />
    <glyph glyph-name="w" unicode="w" horiz-adv-x="670" 
d="M682.796 243.133c22.5566 4.17188 41.5107 -18.3398 12.0615 -24.9395c-47.5664 -10.6279 -96.7949 -19.4316 -145.37 -16.1758c-11.3379 -24.5488 -23.9395 -48.4756 -37.8604 -71.375c-29.1377 -47.9219 -64.6074 -95.8867 -111.172 -128.131
c-39.9648 -27.668 -97.8789 -46.0156 -146.08 -32.418c-73.3857 20.708 -61.5439 93.1475 -49.6025 152.6c6.375 31.7646 13.5225 64.4014 22.127 96.6582c-2.06738 -3.73535 -4.19043 -7.44629 -6.23242 -11.1943c-19.1641 -35.1641 -37.1943 -70.9385 -56.8682 -105.816
c-30.8809 -54.7451 -69.2266 -126.711 -140.576 -128.548c-88.8447 -2.29102 -81.6475 100.625 -64.7129 160.992c23.1416 82.5195 70.876 158.203 117.951 228.986c15.4346 23.2168 47.8164 27.9736 73.6543 23.8398c16.0693 -2.57129 56.2207 -18.4102 41.8203 -41.9814
c-38.4893 -62.9756 -77.9873 -124.296 -108.414 -191.748c-14.793 -32.7988 -29.0322 -67.7139 -35.3203 -103.314c-1.41992 -8.02539 -8.48047 -33.8633 -3.21973 -40.7246c0.186523 -4.48242 0.454102 -4.71289 0.790039 -0.69043
c0.0185547 4.43945 2.54004 7.54004 7.57031 9.30859c4.54492 5.19824 9.69336 9.86133 14.207 15.1221c45.3877 52.958 73.9648 121.102 107.367 181.768c16.6611 30.2646 34.0693 60.1621 53.8369 88.5215c13.9834 20.0605 25.4893 35.0527 50.5674 39.2988
c0.230469 0.0371094 0.479492 0.03125 0.71582 0.0625c15.8643 8.62305 38.0039 10.0117 53.0898 8.94727c11.4189 -0.802734 42.0566 -7.34668 52.1367 -21.9404c0.0683594 3.49316 0.298828 7.03613 0.75293 10.6475c6.43164 50.7607 39.6406 98.0469 81.6533 126.139
c34.6846 23.1914 91.3477 34.6533 121.363 -2.66504c32.4561 -40.3506 12.0098 -113.979 -0.641602 -158.054c-7.52051 -26.1992 -16.6973 -52.1494 -27.2256 -77.5635c40.5996 -1.84863 82.2949 7.11719 121.631 14.3887zM438.994 97.8135
c26.0498 34.3428 47.9443 71.8174 66.2803 110.867c-4.8877 1.18262 -9.76855 2.47754 -14.6309 3.99023c-47.2549 14.7119 -94.5166 49.1416 -103.781 98.1465c-12.29 -55.4238 -33.3965 -109.154 -50.624 -163.171c-6.47461 -20.3154 -55.0371 -143.927 -21.4102 -148.029
c24.8232 -3.03223 61.0215 29.8848 77.165 45.0078c17.2588 16.1748 32.7246 34.3672 47.001 53.1885zM519.363 240.482c22.3018 54.0107 43.1084 113.361 40.6924 172.627c-0.466797 11.3379 -0.597656 27.1211 -7.91309 36.46
c-18.2793 23.335 -39.9951 8.50488 -55.8779 -3.78516c-20.6143 -15.9512 -37.0635 -37.1191 -48.1582 -60.6348c-29.0752 -61.6377 -7.78223 -120.965 57.5225 -145.563c3.86621 -1.45703 7.76953 -2.7207 11.6924 -3.86035
c0.672852 1.58789 1.38867 3.16309 2.04199 4.75684z" />
    <glyph glyph-name="x" unicode="x" horiz-adv-x="327" 
d="M324.976 234.453c10.958 9.6377 52.8887 2.91211 37.4668 -12.4912c-53.9482 -53.8486 -100.631 -114.222 -154.006 -168.531c-41.1973 -41.9131 -87.3506 -82.8867 -150.146 -63.9717c-64.8438 19.5312 -84.3994 87.5195 -83.4473 149.263
c-1.83691 -1.24512 -3.71094 -2.42188 -5.53516 -3.68555c-16.96 -11.748 -33.3838 -24.2812 -48.0215 -38.8691c-4.57617 -4.55762 -46.2031 -54.3965 -34.5479 -58.6484c26.6787 -9.7373 -5.12402 -27.4561 -21.8965 -21.3545
c-80.9004 29.4111 77.0029 139.394 103.75 156.378c3.1377 1.99902 6.30664 3.95996 9.46973 5.92773c4.57031 34.3799 12.627 68.3984 20.833 101.994c9.74414 39.8965 17.9873 80.3779 32.207 118.985c14.7178 39.9521 133.685 39.7773 131.468 -10.1426
c-1.59961 -35.9863 -10.3037 -71.917 -20.4766 -107.355c22.4512 16.6611 43.8877 34.7227 63.5869 55.1816c11.0264 11.4492 53.4062 2.87598 38.3018 -12.7637c-34.7471 -35.9736 -74.7744 -65.1553 -116.576 -91.877
c-2.40332 -8.11914 -4.75098 -16.2002 -6.96094 -24.2314c-8.44824 -30.7129 -14.6309 -61.8613 -22.0898 -92.7979c-6.45605 -26.7598 -21.0742 -56.6885 -14.5928 -84.7988c8.77246 -38.084 43.6562 -1.40625 60.1865 13.6982
c21.498 19.6426 41.4707 40.8916 60.9707 62.4893c39.1738 43.3887 76.0625 88.8887 120.056 127.602z" />
    <glyph glyph-name="y" unicode="y" horiz-adv-x="526" 
d="M523.416 232.068c11.499 10.2109 52.9873 1.39648 37.4531 -12.4873c-38.9814 -34.8467 -88.3291 -56.4385 -134.202 -80.6328c-16.4238 -8.66016 -32.8291 -17.3457 -49.2158 -26.0684c-13.5107 -36.7832 -28.6211 -72.7939 -45.2441 -107.598
c-45.251 -94.7227 -111.109 -201.088 -207.319 -250.777c-39.666 -20.4834 -90.0654 -36.7148 -131.867 -13.1309c-37.2002 20.9883 -43.9121 64.1777 -27.8057 101.359c20.9385 48.3447 66.4688 89.0127 106.757 121.133c42.4365 33.8262 88.6836 62.7021 135.379 90.209
c4.37695 2.58398 8.81641 5.06152 13.2119 7.61426c5.48535 14.0088 10.8027 28.0791 15.7334 42.2686c22.4941 64.7256 39.0303 130.709 56.0898 196.717c-5.3418 -8.19336 -10.5527 -16.4736 -15.6895 -24.792c-18.9209 -30.626 -36.6396 -61.9863 -56.0957 -92.2822
c-34.2617 -53.3447 -77.9434 -118.556 -141.99 -137.115c-31.2979 -9.06543 -66.2383 -5.0127 -90.3828 18.9072c-27.6621 27.4072 -21.3242 72.2217 -12.4648 106.819c19.4688 76.0381 65.8271 148.284 103.214 216.683c21.9033 40.0703 144.854 35.8301 125.797 -19.7676
c-21.959 -64.0781 -63.6045 -121.195 -92.5059 -182.416c-14.0957 -29.8662 -30.4141 -63.3555 -34.5791 -96.2725c-1.15137 -9.10254 -4.1582 -12.4893 1.15234 -13.0684c5.75293 -0.628906 17.1406 12.9629 22.4512 17.707
c10.8516 9.7002 20.8193 20.4961 30.3145 31.5225c42.9287 49.8643 73.2373 108.868 108.152 164.248c18.9521 30.0654 46.3213 85.6572 83.8516 100.183c33.3281 24.4307 125.031 15.4346 118.979 -24.748c-10.6904 -70.9893 -27.8613 -142.557 -50.7354 -211.995
c45.668 22.4824 94.1309 44.5596 131.562 77.7812zM117.734 -139.161c31.4541 48.2705 58.9336 99.2373 82.4365 151.946c-57.8643 -35.7373 -113.432 -75.957 -157.188 -127.633c-17.5693 -20.751 -38.5195 -47.5605 -40.0947 -76.1816
c-1.12695 -20.459 8.63574 -53.9922 33.5273 -37.6865c32.6807 21.4053 60.2803 57.2666 81.3184 89.5547z" />
    <glyph glyph-name="y" unicode="&#xff;" horiz-adv-x="526" 
d="M523.416 232.068c11.499 10.2109 52.9873 1.39648 37.4531 -12.4873c-38.9814 -34.8467 -88.3291 -56.4385 -134.202 -80.6328c-16.4238 -8.66016 -32.8291 -17.3457 -49.2158 -26.0684c-13.5107 -36.7832 -28.6211 -72.7939 -45.2441 -107.598
c-45.251 -94.7227 -111.109 -201.088 -207.319 -250.777c-39.666 -20.4834 -90.0654 -36.7148 -131.867 -13.1309c-37.2002 20.9883 -43.9121 64.1777 -27.8057 101.359c20.9385 48.3447 66.4688 89.0127 106.757 121.133c42.4365 33.8262 88.6836 62.7021 135.379 90.209
c4.37695 2.58398 8.81641 5.06152 13.2119 7.61426c5.48535 14.0088 10.8027 28.0791 15.7334 42.2686c22.4941 64.7256 39.0303 130.709 56.0898 196.717c-5.3418 -8.19336 -10.5527 -16.4736 -15.6895 -24.792c-18.9209 -30.626 -36.6396 -61.9863 -56.0957 -92.2822
c-34.2617 -53.3447 -77.9434 -118.556 -141.99 -137.115c-31.2979 -9.06543 -66.2383 -5.0127 -90.3828 18.9072c-27.6621 27.4072 -21.3242 72.2217 -12.4648 106.819c19.4688 76.0381 65.8271 148.284 103.214 216.683c21.9033 40.0703 144.854 35.8301 125.797 -19.7676
c-21.959 -64.0781 -63.6045 -121.195 -92.5059 -182.416c-14.0957 -29.8662 -30.4141 -63.3555 -34.5791 -96.2725c-1.15137 -9.10254 -4.1582 -12.4893 1.15234 -13.0684c5.75293 -0.628906 17.1406 12.9629 22.4512 17.707
c10.8516 9.7002 20.8193 20.4961 30.3145 31.5225c42.9287 49.8643 73.2373 108.868 108.152 164.248c18.9521 30.0654 46.3213 85.6572 83.8516 100.183c33.3281 24.4307 125.031 15.4346 118.979 -24.748c-10.6904 -70.9893 -27.8613 -142.557 -50.7354 -211.995
c45.668 22.4824 94.1309 44.5596 131.562 77.7812zM117.734 -139.161c31.4541 48.2705 58.9336 99.2373 82.4365 151.946c-57.8643 -35.7373 -113.432 -75.957 -157.188 -127.633c-17.5693 -20.751 -38.5195 -47.5605 -40.0947 -76.1816
c-1.12695 -20.459 8.63574 -53.9922 33.5273 -37.6865c32.6807 21.4053 60.2803 57.2666 81.3184 89.5547z" />
    <glyph glyph-name="y" unicode="&#xfd;" horiz-adv-x="526" 
d="M523.416 232.068c11.499 10.2109 52.9873 1.39648 37.4531 -12.4873c-38.9814 -34.8467 -88.3291 -56.4385 -134.202 -80.6328c-16.4238 -8.66016 -32.8291 -17.3457 -49.2158 -26.0684c-13.5107 -36.7832 -28.6211 -72.7939 -45.2441 -107.598
c-45.251 -94.7227 -111.109 -201.088 -207.319 -250.777c-39.666 -20.4834 -90.0654 -36.7148 -131.867 -13.1309c-37.2002 20.9883 -43.9121 64.1777 -27.8057 101.359c20.9385 48.3447 66.4688 89.0127 106.757 121.133c42.4365 33.8262 88.6836 62.7021 135.379 90.209
c4.37695 2.58398 8.81641 5.06152 13.2119 7.61426c5.48535 14.0088 10.8027 28.0791 15.7334 42.2686c22.4941 64.7256 39.0303 130.709 56.0898 196.717c-5.3418 -8.19336 -10.5527 -16.4736 -15.6895 -24.792c-18.9209 -30.626 -36.6396 -61.9863 -56.0957 -92.2822
c-34.2617 -53.3447 -77.9434 -118.556 -141.99 -137.115c-31.2979 -9.06543 -66.2383 -5.0127 -90.3828 18.9072c-27.6621 27.4072 -21.3242 72.2217 -12.4648 106.819c19.4688 76.0381 65.8271 148.284 103.214 216.683c21.9033 40.0703 144.854 35.8301 125.797 -19.7676
c-21.959 -64.0781 -63.6045 -121.195 -92.5059 -182.416c-14.0957 -29.8662 -30.4141 -63.3555 -34.5791 -96.2725c-1.15137 -9.10254 -4.1582 -12.4893 1.15234 -13.0684c5.75293 -0.628906 17.1406 12.9629 22.4512 17.707
c10.8516 9.7002 20.8193 20.4961 30.3145 31.5225c42.9287 49.8643 73.2373 108.868 108.152 164.248c18.9521 30.0654 46.3213 85.6572 83.8516 100.183c33.3281 24.4307 125.031 15.4346 118.979 -24.748c-10.6904 -70.9893 -27.8613 -142.557 -50.7354 -211.995
c45.668 22.4824 94.1309 44.5596 131.562 77.7812zM117.734 -139.161c31.4541 48.2705 58.9336 99.2373 82.4365 151.946c-57.8643 -35.7373 -113.432 -75.957 -157.188 -127.633c-17.5693 -20.751 -38.5195 -47.5605 -40.0947 -76.1816
c-1.12695 -20.459 8.63574 -53.9922 33.5273 -37.6865c32.6807 21.4053 60.2803 57.2666 81.3184 89.5547z" />
    </font>
</defs>
</svg>
