<?xml version="1.0" standalone="no"?>
<!DOCTYPE svg PUBLIC "-//W3C//DTD SVG 1.1//EN" "http://www.w3.org/Graphics/SVG/1.1/DTD/svg11.dtd" >
<svg xmlns="http://www.w3.org/2000/svg" xmlns:xlink="http://www.w3.org/1999/xlink" version="1.1">
<metadata>
Created by FontForge 20170812 at Fri Feb 18 12:28:24 2022
 By www-data
</metadata>
<defs>
<font id="MoomRegular" horiz-adv-x="0" >
  <font-face 
    font-family="Moom"
    font-weight="400"
    font-stretch="normal"
    units-per-em="1000"
    panose-1="0 0 0 0 0 0 0 0 0 0"
    ascent="800"
    descent="-200"
    x-height="351.918"
    cap-height="668.623"
    bbox="-233.999 -291.44 1308.4 843.439"
    underline-thickness="50"
    underline-position="-100"
    unicode-range="U+000A-20AC"
  />
<missing-glyph horiz-adv-x="527" 
d="M50 700h427v-700h-427v700zM78 680l185 -309l186 309h-371zM251 350l-180 300v-601zM264 329l-185 -308h370zM276 350l181 -303v605z" />
    <glyph glyph-name=".notdef" horiz-adv-x="527" 
d="M50 700h427v-700h-427v700zM78 680l185 -309l186 309h-371zM251 350l-180 300v-601zM264 329l-185 -308h370zM276 350l181 -303v605z" />
    <glyph glyph-name=".null" 
 />
    <glyph glyph-name=".null" 
 />
    <glyph glyph-name="LF" unicode="&#xa;" 
 />
    <glyph glyph-name="controlCR" unicode="&#xd;" 
 />
    <glyph glyph-name="space" unicode=" " horiz-adv-x="421" 
 />
    <glyph glyph-name="exclam" unicode="!" horiz-adv-x="519" 
d="M466.451 743.094c10.6201 -44.0117 -15.542 -99.2383 -30.0654 -140.665c-17.0547 -48.6738 -35.8164 -96.8301 -54.9082 -144.732c-39.0664 -98.0312 -75.8193 -197.852 -120.572 -293.457c-20.3223 -43.4111 -148.053 -33.8096 -127.372 20.0156
c37.4121 97.3535 83.3838 191.899 126.453 286.852c20.9346 46.1602 42.5283 91.9844 64.8457 137.491c22.4941 45.8604 46.3896 105.891 86.8926 138.575c10.7266 8.6543 49.9463 15.7246 54.7266 -4.0791zM134.493 77.7236c15.96 8.03027 48.5107 11.5996 61.833 -4.54297
c10.4551 -12.6689 13.6279 -18.8447 10.3779 -35.2168c-2.63184 -13.2461 -6.86426 -26.3213 -11.2793 -39.0547c-9.87891 -28.458 -21.6475 -55.8564 -34.9521 -82.8486c-18.0498 -36.6172 -127.125 -27.8516 -108.298 17.0195
c10.9502 26.0977 22.2471 51.9707 33.7979 77.8027c12.127 27.127 20.8398 52.9121 48.5205 66.8408z" />
    <glyph glyph-name="quotedbl" unicode="&#x22;" horiz-adv-x="363" 
d="M155.533 699.801c14.4111 -2.30176 41.2148 -13.3203 32.4727 -32.5947c-10.7148 -23.6309 -27.0215 -46.2725 -43.0576 -66.6416c-15.5771 -19.792 -34.5273 -39.8252 -60.2832 -44.252c-9.4248 -1.61914 -27.7979 -0.182617 -32.4785 10.5078
c-7.11719 16.2539 4.82129 38.5303 11.8623 53.1826c10.0137 20.8398 20.7812 42.5391 34.2861 61.2891c12.7568 17.7139 36.4639 21.8291 57.1982 18.5088zM278.654 679.816c12.2158 -1.9541 42.5156 -13.915 31.6777 -31.7939
c-23.3066 -38.4131 -50.7168 -76.1016 -89.0117 -100.639c-13.8164 -8.85449 -59.2344 -7.77734 -52.7354 17.4961c9.00098 35.0098 35.2217 66.6875 54.2842 96.8818c11.209 17.7607 36.6348 21.1221 55.7852 18.0547z" />
    <glyph glyph-name="quotedbl" unicode="&#x201d;" horiz-adv-x="363" 
d="M155.533 699.801c14.4111 -2.30176 41.2148 -13.3203 32.4727 -32.5947c-10.7148 -23.6309 -27.0215 -46.2725 -43.0576 -66.6416c-15.5771 -19.792 -34.5273 -39.8252 -60.2832 -44.252c-9.4248 -1.61914 -27.7979 -0.182617 -32.4785 10.5078
c-7.11719 16.2539 4.82129 38.5303 11.8623 53.1826c10.0137 20.8398 20.7812 42.5391 34.2861 61.2891c12.7568 17.7139 36.4639 21.8291 57.1982 18.5088zM278.654 679.816c12.2158 -1.9541 42.5156 -13.915 31.6777 -31.7939
c-23.3066 -38.4131 -50.7168 -76.1016 -89.0117 -100.639c-13.8164 -8.85449 -59.2344 -7.77734 -52.7354 17.4961c9.00098 35.0098 35.2217 66.6875 54.2842 96.8818c11.209 17.7607 36.6348 21.1221 55.7852 18.0547z" />
    <glyph glyph-name="quotedbl" unicode="&#x201c;" horiz-adv-x="363" 
d="M155.533 699.801c14.4111 -2.30176 41.2148 -13.3203 32.4727 -32.5947c-10.7148 -23.6309 -27.0215 -46.2725 -43.0576 -66.6416c-15.5771 -19.792 -34.5273 -39.8252 -60.2832 -44.252c-9.4248 -1.61914 -27.7979 -0.182617 -32.4785 10.5078
c-7.11719 16.2539 4.82129 38.5303 11.8623 53.1826c10.0137 20.8398 20.7812 42.5391 34.2861 61.2891c12.7568 17.7139 36.4639 21.8291 57.1982 18.5088zM278.654 679.816c12.2158 -1.9541 42.5156 -13.915 31.6777 -31.7939
c-23.3066 -38.4131 -50.7168 -76.1016 -89.0117 -100.639c-13.8164 -8.85449 -59.2344 -7.77734 -52.7354 17.4961c9.00098 35.0098 35.2217 66.6875 54.2842 96.8818c11.209 17.7607 36.6348 21.1221 55.7852 18.0547z" />
    <glyph glyph-name="numbersign" unicode="#" horiz-adv-x="716" 
d="M624.786 656.425c8.04199 12.9453 48.1348 8.0918 39.5459 -6.21387c-46.7139 -78.0088 -87.4521 -159.309 -126.354 -241.491c8.54785 0.365234 17.1016 0.759766 25.6494 1.11328c28.7812 1.20117 28.1982 -25.6143 -0.000976562 -26.792
c-12.8457 -0.536133 -25.6973 -1.1543 -38.543 -1.72559c-15.0645 -32.1904 -29.9297 -64.4629 -44.8242 -96.6943c6.53418 0.3125 13.0742 0.618164 19.6084 0.923828c27.6514 1.30078 27.0801 -24.5312 0 -25.7441
c-10.585 -0.476562 -21.1699 -0.947266 -31.7549 -1.42383c-62.0615 -133.936 -124.129 -267.877 -186.196 -401.812c-7.40039 -15.9658 -53.6904 -10.8027 -45.3252 7.12305c61.0547 130.845 122.104 261.684 183.158 392.522
c-26.5215 -1.18945 -53.0488 -2.37891 -79.5703 -3.56836c-2.4375 -5.18066 -4.88086 -10.3613 -7.31836 -15.5303c-30.7656 -65.2754 -63.6035 -129.433 -97.2598 -193.26c-32.1318 -60.9365 -62.0322 -128.267 -108.511 -179.825
c-12.5449 -13.917 -82.2178 -18.6035 -76.79 11.8564c11.8096 66.2529 50.1934 129.509 77.6914 190.346c27.0156 59.7588 53.3125 119.848 79.9277 179.789c-21.417 -1.79004 -42.7695 -4.25684 -63.9629 -8.00684c-21.7471 -3.84375 -40.374 18.915 -11.6396 24.0664
c28.8174 5.16309 57.9053 8.08301 87.0869 10.0674c14.0225 31.8838 27.7041 63.9209 41.1855 96.0527c-21.1992 -1.10645 -42.4043 -2.21875 -63.6094 -3.31348c-27.5518 -1.4248 -26.5273 23.6123 0 25.4785c24.9668 1.75977 49.9453 3.32617 74.9238 4.86816
c34.9219 83.8135 69.126 167.945 106.297 250.693c18.7793 41.8096 140.341 33.3555 122.05 -19.1807c-26.3564 -75.707 -57.5225 -150.255 -90.543 -223.907c26.9512 1.33008 53.8965 2.61914 80.8535 3.82031c41.0205 85.2031 84.2139 169.258 134.225 249.769z
M431.964 282.354c15.0703 32.3193 30.1523 64.6387 45.459 96.8291c-26.7275 -1.25977 -53.4551 -2.58398 -80.1768 -3.93164c-14.7412 -32.373 -29.7646 -64.5752 -44.8291 -96.6357c26.5156 1.24805 53.0312 2.49023 79.5469 3.73828z" />
    <glyph glyph-name="dollar" unicode="$" horiz-adv-x="614" 
d="M527.179 666.78c42.834 -39.9375 44.8105 -108.552 22.6279 -159.551c-23.3418 -53.6484 -73.1758 -86.6338 -128.896 -98.6904c-23.5947 -5.11035 -43.3809 19.3086 -12.6152 26.085c77.832 17.1367 131.975 114.231 89.4883 187.107
c-14.3701 24.6494 -37.0176 36.5352 -62.1025 39.5078c-41.7686 -92.0264 -80.6406 -185.083 -116.875 -279.122c19.0391 -29.5645 41.5684 -57.2744 62.002 -85.167c37.3418 -50.958 72.4756 -113.119 61.4727 -178.978
c-10.0781 -60.3359 -56.4971 -110.847 -105.53 -144.385c-47.373 -32.4023 -113.185 -51.4648 -170.901 -41.8398c-7.95898 -26.6504 -15.8184 -53.3418 -23.4775 -80.1221c-4.49219 -15.7129 -48.6035 -12.4277 -43.5527 6.84668
c7.61816 29.0762 15.6719 58.0635 23.9258 86.998c-23.8311 11.8564 -44.4941 30.624 -59.3057 57.957c-28.4463 52.4951 -6.91699 115.622 20.0107 164.025c28.2168 50.7109 68.5195 92.0791 117.028 123.581c8.73633 5.6748 29.123 2.20117 34.3623 -5.10449
c0.835938 2.24902 1.70117 4.48633 2.54297 6.73535c-36.6348 45.0303 -73.0049 92.2676 -89.5293 148.389c-18.6914 63.4795 -4.31543 124.122 40.7734 172.479c41.8623 44.8945 98.3721 74.4297 158.043 87.04c20.752 4.37988 43.7051 6.76367 66.7471 6.15723
c14.0645 29.6113 28.2988 59.1289 42.834 88.4463c6.81152 13.7402 47.1143 9.21289 39.5615 -6.2168c-14.1055 -28.8174 -27.8105 -57.7812 -41.3096 -86.8105c27.2275 -5.65723 52.7246 -16.7656 72.6758 -35.3682zM132.575 -20.1836
c29.1875 99.167 62.0078 197.439 97.9541 294.616c-0.141602 -0.0996094 -0.253906 -0.199219 -0.401367 -0.298828c-59.7354 -41.3506 -110.476 -103.871 -129.702 -174.869c-12.1562 -44.8887 1.40137 -91.3555 32.1494 -119.448zM341.518 88.6084
c9.02441 61.0195 -32.9141 116.77 -70.9502 163.43c-34.792 -97.3242 -67.0352 -195.632 -97.083 -294.846c12.4395 -3.42578 26.0625 -4.67383 40.7148 -3.14355c64.0742 6.70508 118.188 72.8457 127.318 134.56zM291.938 431.922
c31.166 76.2197 64.1328 151.649 98.6836 226.209c-28.3164 -6.64648 -55.5029 -21.2461 -73.959 -38.8193c-40.626 -38.6777 -48.9795 -101.021 -36.0986 -153.48c2.87305 -11.7031 6.75879 -22.9707 11.374 -33.9092z" />
    <glyph glyph-name="percent" unicode="%" horiz-adv-x="781" 
d="M702.974 683.882c22.123 -7.55273 37.4219 -25.3535 21.2969 -46.3115c-48.1201 -62.5264 -102.805 -120.066 -153.021 -180.968c-49.4453 -59.9648 -97.9424 -120.725 -145.38 -182.291c-48.6973 -63.1973 -96.8359 -126.859 -144.544 -190.805
c-46.3662 -62.1494 -91.749 -125.459 -149.672 -177.5c-13.2168 -11.874 -34.2979 -13.6758 -50.8877 -9.50195c-9.6543 2.43164 -32.5547 13.0459 -23.5947 27.4043c81.582 130.769 167.551 257.581 259.795 381.155c47.4082 63.5088 95.7588 126.312 145.993 187.619
c50.375 61.4844 100.627 124.705 158.773 179.054c20.293 18.9678 56.251 20.6748 81.2412 12.1445zM467.031 224.089c33.3555 59.0586 140.011 94.5459 193.706 43.2051c63.0439 -60.2773 13.9932 -173.355 -30.4775 -229.782
c-43.376 -55.0322 -139.04 -104.736 -190.893 -30.46c-40.7441 58.3643 -0.882812 140.854 39.832 202.803c-9.43652 1.96582 -16.2773 6.95801 -12.168 14.2344zM577.572 36.7754c37.459 40.6025 69.1621 107.01 65.1357 163.125
c-2.44922 34.1504 -21.0762 68.2188 -59.9014 63.4268c-3.85059 -0.470703 -7.74805 -1.25977 -11.6514 -2.27832c8.15332 -4.23242 12.2803 -10.5732 7.3584 -18.709c-30.5303 -50.4639 -69.0664 -100.327 -80.6875 -159.604
c-4.71582 -24.0488 -4.80371 -57.8818 15.5361 -75.5195c21.1055 -18.3027 49.3691 13.4756 64.21 29.5586zM106.541 322.575c-106.132 24.9727 -37.6299 166.25 2.41992 220.252c1.67188 2.25488 4.15039 4.0918 7.14648 5.58105
c39.4668 50.8643 105.755 92.3027 166.686 64.6807c71.3096 -32.332 45.1885 -138.428 13.6338 -189.681c-36.959 -60.0303 -115.815 -118.265 -189.886 -100.833zM143.124 445.426c-6.42285 -18.2266 -23.4473 -64.2812 -7.48145 -82.4014
c15.2002 -17.2432 53.7188 3.76172 68.8076 14.5117c20.7578 14.7881 38.1836 34.3271 51.3115 56.127c23.2656 38.6426 42.9814 100.145 18.2969 142.596c-26.3213 45.2715 -75.3135 11.4385 -109.211 -26.3154c15.5947 -4.41504 26.2559 -13.1982 18.5967 -25.0137
c-16.1836 -24.9609 -30.4121 -51.3994 -40.3203 -79.5039z" />
    <glyph glyph-name="ampersand" unicode="&#x26;" horiz-adv-x="692" 
d="M598.649 538.432c-46.4189 -67.748 -109.58 -124.6 -171.642 -177.694c-28.8057 -24.6436 -58.2354 -48.5391 -87.7471 -72.3281c2.0957 -58.123 14.3994 -115.527 39.0898 -166.933c0.835938 0.824219 1.67188 1.64844 2.49609 2.47266
c63.1152 63.1914 114.556 134.101 163.912 208.2c8.04785 12.0801 48.5684 9.30762 40.0029 -6.28711c-43.2637 -78.7686 -102.116 -151.108 -165.22 -214.806c-7.52344 -7.60059 -15.2354 -15.083 -23.1299 -22.3887c14.1641 -22.7354 31.0947 -43.9404 51.1514 -62.9854
c10.126 -9.61914 -1.24805 -19.3975 -10.4961 -22.8115c-13.2461 -4.88672 -28.9111 -2.32617 -40.0195 5.98047c-16.8721 12.6221 -31.7188 27.0273 -44.7529 42.8047c-43.752 -32.9736 -92.6436 -58.4053 -147.622 -67.707
c-49.416 -8.35938 -157.308 -5.45117 -154.623 68.7139c1.38965 38.501 44.665 74.1885 70.1084 98.2607c27.2041 25.7383 55.5381 50.2637 84.249 74.2949c23.4541 19.627 47.2139 38.8838 71.0088 58.1045c-2.28418 71.1328 9.31934 142.849 29.6885 202.819
c23.4189 68.9434 61.3604 140.912 114.968 191.217c45.8838 43.0518 123.999 75.4424 184.358 41.5625c68.6719 -38.542 27.5391 -131.852 -5.78125 -180.49zM146.367 7.09082c68.8428 -7.60059 132.712 28.2227 185.818 72.1631
c-29.8828 46.7432 -46.7197 102.429 -53.4961 160.222c-16.5781 -13.499 -33.0732 -27.1035 -49.3857 -40.9258c-31.5664 -26.7451 -63.3154 -53.9316 -92.0146 -83.7793c-15.624 -16.2539 -39.3076 -38.0537 -40.7617 -62.1084
c-1.71289 -28.2637 25.5381 -42.8867 49.8398 -45.5713zM339.78 335.605c18.1729 14.9473 36.2295 30.0293 54.0088 45.4414c61.3604 53.1719 127.348 111.124 169.422 181.456c19.6807 32.8906 50.4521 97.0479 16.1426 130.374
c-31.1367 30.2412 -76.3018 -3.80957 -99.9854 -26.7275c-56.251 -54.4375 -94.6758 -129.144 -117.141 -203.449c-12.2393 -40.4795 -20.0156 -83.584 -22.4473 -127.095z" />
    <glyph glyph-name="quotesingle" unicode="'" horiz-adv-x="232" 
d="M109.98 677.247c13.8408 16.1133 83.8018 13.875 70.2793 -16.8906c-9.53125 -21.6816 -24.5781 -40.0908 -39.1074 -58.6758c-15.3887 -19.6807 -31.4541 -38.1367 -53.3359 -50.7646c-9.10156 -5.24512 -37.0771 -6.59277 -37.7656 8.91992
c-0.936523 21.0576 11.4141 40.8086 21.3457 58.6113c11.5859 20.7812 23.0303 40.6914 38.584 58.7998z" />
    <glyph glyph-name="quotesingle" unicode="&#x2019;" horiz-adv-x="232" 
d="M109.98 677.247c13.8408 16.1133 83.8018 13.875 70.2793 -16.8906c-9.53125 -21.6816 -24.5781 -40.0908 -39.1074 -58.6758c-15.3887 -19.6807 -31.4541 -38.1367 -53.3359 -50.7646c-9.10156 -5.24512 -37.0771 -6.59277 -37.7656 8.91992
c-0.936523 21.0576 11.4141 40.8086 21.3457 58.6113c11.5859 20.7812 23.0303 40.6914 38.584 58.7998z" />
    <glyph glyph-name="quotesingle" unicode="&#x2018;" horiz-adv-x="232" 
d="M109.98 677.247c13.8408 16.1133 83.8018 13.875 70.2793 -16.8906c-9.53125 -21.6816 -24.5781 -40.0908 -39.1074 -58.6758c-15.3887 -19.6807 -31.4541 -38.1367 -53.3359 -50.7646c-9.10156 -5.24512 -37.0771 -6.59277 -37.7656 8.91992
c-0.936523 21.0576 11.4141 40.8086 21.3457 58.6113c11.5859 20.7812 23.0303 40.6914 38.584 58.7998z" />
    <glyph glyph-name="parenleft" unicode="(" horiz-adv-x="564" 
d="M511.421 794.752c13.2695 -17.0137 -25.7031 -20.9805 -35.4287 -11.8027c-10.7734 10.1729 -53.4961 -20.834 -62.4854 -27.2275c-16.207 -11.5322 -31.1074 -25.1074 -45.0713 -39.2363c-28.9697 -29.3115 -54.4785 -62.2021 -78.2207 -95.8174
c-50.4521 -71.4219 -92.1025 -148.866 -126.076 -229.383c-35.6992 -84.6143 -64.5869 -174.456 -66.3467 -267.041c-1.37793 -72.3105 16.4131 -207.718 114.638 -206.829c28.6758 0.258789 28.4053 -26.5332 0 -26.792c-88.04 -0.800781 -140.605 70.209 -155.435 150.496
c-31.9492 173.025 51.0869 361.463 136.808 507.367c41.3447 70.373 89.707 142.601 150.779 197.509c32.5557 29.2646 126.442 100.533 166.839 48.7568z" />
    <glyph glyph-name="parenright" unicode=")" horiz-adv-x="513" 
d="M459.386 653.182c12.3037 -107.586 -6.33594 -222.667 -31.3613 -327.12c-23.9717 -100.032 -58.0166 -201.007 -119.336 -284.768c-50.5225 -69.0078 -126.542 -144.285 -215.336 -156.165c-24.584 -3.29102 -66.9297 21.0225 -26.792 36.2227
c39.6904 15.0352 77.4561 25.4199 113.614 49.0391c35.2695 23.042 64.0098 52.0596 88.4941 86.2393c47.332 66.0762 77.126 143.261 99.8916 220.758c26.3799 89.8008 42.251 182.81 47.4258 276.261c2.31348 41.7744 2.26074 83.9668 -4.64453 125.341
c-5.3457 32.0312 -27.7227 129.662 -79.499 110.677c-15.8301 -5.80469 -45.8652 10.6611 -20.7041 20.1924c98.5781 37.3418 139.764 -82.5 148.247 -156.677z" />
    <glyph glyph-name="asterisk" unicode="*" horiz-adv-x="312" 
d="M239.187 515.207c28.1992 -0.8125 28.292 -26.7812 -0.0126953 -26.5342c-15.2412 0.135742 -30.5059 0.500977 -45.7764 1.08398c11.3086 -22.3232 22.9824 -44.4639 35.292 -66.2988c8.44824 -14.9766 -32.79 -20.0811 -40.4434 -6.3584
c-7.51758 13.4697 -14.8408 27.0391 -21.9756 40.6973c-8.86035 -29.4238 -17.3672 -58.9531 -25.1973 -88.6709c-3.93262 -14.918 -46.166 -11.8447 -41.333 6.49316c6.13477 23.2656 12.6689 46.3838 19.5215 69.3965c-8.4834 -7.2998 -17.002 -14.5469 -25.373 -21.9824
c-11.4385 -10.1494 -52.3477 -1.19531 -37.0117 12.333c22.7588 20.0752 46.0537 39.4727 69.6729 58.4756c-20.9404 1.77832 -41.8271 4.01562 -62.5967 6.7998c-23.6836 3.17285 -14.082 24.5547 5.51562 23.2246c22.082 -1.49512 44.1465 -2.84961 66.2051 -4.09766
c-9.89648 21.0166 -19.5098 42.1807 -28.5459 63.6211c-6.84668 16.248 33.6211 20.1221 39.5615 6.2168c3.71484 -8.69531 7.62988 -17.2842 11.4863 -25.9082c4.80957 13.417 9.69629 26.8096 14.7588 40.1494c5.35742 14.1113 45.6367 10.5088 39.5615 -6.21582
c-6.19336 -17.043 -12.1514 -34.1621 -17.9854 -51.3291c10.8906 8.05371 21.7754 16.1074 32.8193 23.9668c12.4219 8.83594 49.1035 -2.50879 29.335 -16.7197c-16.8428 -12.1094 -33.4092 -24.5723 -49.8398 -37.2002
c10.7793 -0.417969 21.5645 -0.830078 32.3613 -1.14258z" />
    <glyph glyph-name="plus" unicode="+" horiz-adv-x="348" 
d="M277.625 392.162c26.5742 -0.912109 26.5547 -24.4375 -0.00195312 -24.9619c-18.0439 -0.353516 -36.1172 -0.959961 -54.208 -1.66016c-0.594727 -1.86621 -1.21289 -3.72656 -1.80176 -5.59277c-15.2354 -48.4033 -24.8428 -103.059 -51.7168 -146.575
c-16.4834 -26.6855 -86.3799 -29.8232 -92.6904 7.15332c-7.73535 45.3652 7.27051 95.7461 19.1973 140.582c-8.9248 -0.141602 -17.8438 -0.217773 -26.7568 -0.206055c-20.0449 0.0292969 -29.2695 19.9277 -5.57422 23.4834
c13.04 1.9541 26.2861 3.43164 39.6025 4.69141c11.9863 45.8125 25.9502 92.6904 45.1299 135.631c18.3672 41.1152 135.407 34.3633 120.277 -18.9023c-10.7441 -37.8125 -24.0312 -75.1123 -36.5762 -112.524c15.165 -0.235352 30.248 -0.606445 45.1191 -1.11816z" />
    <glyph glyph-name="comma" unicode="," horiz-adv-x="294" 
d="M210.637 82.498c11.957 -2.84961 42.7236 -17.3018 30.5195 -35.4453c-34.6455 -51.4883 -79.8223 -107.191 -138.016 -132.082c-11.4092 -4.87988 -55.8096 -4.23828 -53.0137 17.3379c3.41992 26.3975 23.1182 47.5557 39.0127 67.8545
c18.4033 23.501 36.3525 47.29 55.6797 70.043c14.3291 16.8662 46.5137 16.8955 65.8174 12.292z" />
    <glyph glyph-name="hyphen" unicode="-" horiz-adv-x="491" 
d="M440.112 330.007c4.03223 -19.1562 -21.0039 -30.4678 -36.6045 -31.957c-55.2793 -5.27441 -110.806 -8.35352 -166.25 -11.4385c-53.4541 -2.97852 -109.198 -7.40527 -162.323 0.918945c-22.6006 3.54395 -38.3779 29.4941 -8.52441 37.1826
c51.5996 13.2871 106.514 14.9355 159.532 18.5029c54.6846 3.67969 109.287 8.5957 163.983 12.0459c16.1123 1.0127 46.1602 -6.12793 50.1865 -25.2549z" />
    <glyph glyph-name="period" unicode="." horiz-adv-x="218" 
d="M162.164 31.8994c4.28027 -4.3623 8.78613 -13.5059 4.50586 -19.6162c-17.208 -24.5723 -36.7588 -47.9912 -64.7754 -60.5186c-10.6729 -4.77441 -21.6523 -6.31055 -33.1318 -3.57324c-5.72852 1.36621 -20.1992 6.9707 -18.6455 15.8008
c4.02637 22.8711 19.291 41.9277 30.4238 61.8262c10.1318 18.1084 36.8174 20.1924 54.9375 17.7783c8.75977 -1.16602 20.2686 -5.16309 26.6855 -11.6973z" />
    <glyph glyph-name="slash" unicode="/" horiz-adv-x="587" 
d="M488.558 701.16c19.9043 -3.18457 58.6934 -18.9814 45.8066 -45.9854c-59.4824 -124.705 -131.475 -244.023 -196.826 -365.773c-32.9619 -61.4014 -65.9414 -122.779 -99.2559 -183.986c-32.7559 -60.1826 -66.2822 -128.566 -115.757 -176.935
c-13.4873 -13.1924 -73.8174 -18.791 -72.5049 11.1914c2.83203 64.6279 41.2393 132.924 68.8438 190.063c29.1641 60.3711 58.9873 120.342 89.7354 179.925c63.3975 122.845 124.835 248.804 199.282 365.391c16.3662 25.626 52.8418 30.5596 80.6758 26.1094z" />
    <glyph glyph-name="zero" unicode="0" horiz-adv-x="557" 
d="M50.1191 167.62c-2.66699 119.437 39.5205 252.731 117.776 345.635c13.2109 37.8535 52.5537 81.6768 69.1553 95.2344c48.415 39.5371 116.752 52.0117 172.92 21.2285c119.165 -65.3105 105.065 -230.459 78.7617 -341.512
c-26.9092 -113.632 -80.9639 -249.293 -192.776 -304.078c-55.4502 -27.1689 -123.045 -19.7988 -171.495 18.2256c-50.1396 39.3545 -72.9463 102.952 -74.3418 165.267zM288.038 604.044c-21.7588 -13.7871 -39.9443 -34.3281 -54.0967 -55.9805
c40.0674 0.806641 83.1367 -17.1191 57.4512 -50.7637c-66.8115 -87.5283 -107.126 -184.888 -125.075 -293.545c-7.88281 -47.7207 -14.1465 -102.17 7.40625 -147.229c22.1113 -46.2129 65.1982 -65.8281 112.371 -39.0654
c43.9766 24.9492 76.7441 75.0303 100.175 118.271c23.377 43.1338 40.208 89.5938 52.9473 136.891c25.208 93.5625 44.9062 211.562 -15.0352 296.507c-33.0146 46.7842 -84.6025 67.5654 -136.144 34.916z" />
    <glyph glyph-name="one" unicode="1" horiz-adv-x="450" 
d="M50.3125 -69.1621c5.22754 21.8057 35.3486 32.499 62.6348 37.8447c-0.241211 1.91309 -0.282227 3.89746 0.170898 6.0166c13.7227 64.3809 46.6191 126.854 71.8564 187.474c24.5898 59.0645 50.4219 117.623 75.1709 176.623
c24.6553 58.7588 54.0312 120.549 69.5264 182.439c3.76172 15.0352 7.84766 36.3877 1.38379 51.3877c-11.8799 27.5811 -45.3887 26.4805 -70.5205 19.3037c-32.3135 -9.22461 -60.6768 -29.2578 -88.1455 -47.9141c-12.4219 -8.43652 -48.8213 2.88965 -29.0117 16.5361
c54.9785 37.8652 129.072 81.459 197.633 50.6758c65.8936 -29.5879 63.3564 -124.051 53.7256 -182.686c-12.9336 -78.7217 -37.4121 -155.076 -63.5859 -230.242c-13.6523 -39.2197 -28.7109 -77.8916 -43.3633 -116.74
c-14.5293 -38.5303 -25.6797 -80.2871 -44.4766 -116.898c-1.43652 -2.80859 -3.2207 -5.32227 -5.2168 -7.61816c15.6885 -2.7959 31.0479 -3.50195 45.6006 1.33105c17.0254 5.64551 49.2568 -12.6045 22.0996 -21.5527
c-29.4648 -9.71387 -58.3936 -7.56543 -88.1699 -0.0537109c-3.92676 0.995117 -7.82422 2.06641 -11.7158 3.14355c-12.0684 -2.67871 -24.7959 -3.05566 -35.3223 -2.31348c-7.42383 0.524414 -22.7773 3.39746 -35.8115 9.19629
c-18.9385 -2.7666 -41.4443 -9.04785 -44.9004 -22.1699c-3.76172 -14.2881 -43.7881 -11.4268 -39.5615 6.2168z" />
    <glyph glyph-name="two" unicode="2" horiz-adv-x="698" 
d="M463.319 267.44c30.6006 55.0264 58.4912 112.944 75.3984 173.764c14.5762 52.4238 24.1895 116.41 -8.91309 164.454c-77.291 112.184 -259.895 -39.3721 -269.755 -134.807c-1.69531 -16.4131 -42.5635 -15.3945 -41.0273 0
c7.24707 72.5342 74.8301 134.048 134.884 168.563c56.2568 32.332 132.982 42.4102 188.598 2.84375c53.9785 -38.4072 61.4961 -112.672 61.7666 -173.679c0.335938 -74.8887 -17.4961 -151.408 -43.2051 -221.458c-28.3281 -77.1729 -73.8291 -149.348 -133.183 -206.481
c56.9102 -31.4834 119.771 -62.9082 180.331 -35.6279c9.31348 4.19141 24.2314 6.72852 33.2383 0c6.94043 -5.18652 9.94238 -14.3994 -0.000976562 -18.9443c-54.7314 -25.0137 -113.885 -21.0869 -169.788 -1.22363c-24.2314 8.6123 -47.1025 20.3096 -69.7559 32.4727
c-42.7285 -35.6104 -91.5791 -63.6855 -145.558 -81.0938c-45.7012 -14.7354 -99.9561 -19.957 -146.258 -4.30957c-25.1436 8.49512 -57.1221 28.0107 -59.7949 57.375c-5.79297 63.6328 74.3535 98.4014 124.164 109.257c52.4062 11.4268 103.706 6.3877 152.868 -9.91895
c55.1904 50.6699 99.626 113.408 135.99 178.813zM230.792 19.998c24.8369 12.9805 47.9609 28.3389 69.5898 45.5117c-1.38965 0.453125 -2.75586 0.953125 -4.15723 1.38281c-30.2295 9.33691 -62.9551 12.6572 -94.1797 6.36426
c-23.4775 -4.7334 -65.0518 -17.3018 -73.0107 -43.5869c-5.91602 -19.5332 14.2764 -34.0977 31.9375 -34.1035c23.207 -0.0117188 49.6455 13.8877 69.8203 24.4316z" />
    <glyph glyph-name="three" unicode="3" horiz-adv-x="557" 
d="M212.499 134.052c-26.9512 41.5684 -78.6133 -43.874 -86.166 -64.0898c-11.6621 -31.1777 -14.7939 -69.75 -1.27148 -100.986c24.4131 -56.3975 85.2793 -55.5322 125.046 -17.7607c44.3408 42.1162 77.4316 126.536 66.3291 187.514
c-12.1152 66.5 -78.127 100.557 -133.771 125.618c-23.6895 10.667 -21.3408 38.2891 0 49.1562c51.8467 26.415 105.396 52.9775 151.12 89.4062c39.4668 31.4424 86.2861 78.4033 99.5029 128.784c20.9463 79.8633 -83.6602 75.1064 -131.646 58.4287
c-23.9951 -8.3418 -46.7783 -20.9814 -65.5459 -38.2129c-10.0967 -9.27246 -40.2734 -39.9375 -38.0068 -58.8877c14.7588 -6.18164 -1.71875 -22.2002 -19.1035 -20.5928c-32.1846 2.97852 -22.7422 33.6201 -11.4033 53.6123
c16.501 29.0938 42.8867 51.9766 71.8447 68.166c59.6064 33.3262 145.787 49.7861 207.995 14.7461c30.8359 -17.3672 55.5615 -43.7295 59.1289 -80.2051c3.8916 -39.7549 -15.1943 -78.3623 -37.5537 -109.834c-39.5605 -55.668 -95.1816 -94.2041 -153.328 -128.148
c66.623 -37 124.245 -90.9482 128.761 -172.648c4.52148 -81.8828 -39.8193 -187.185 -113.996 -226.928c-73.3232 -39.2842 -172.537 -38.2188 -238.979 15.3115c-69.2549 55.7969 -40.7734 143.007 5.81641 203.508c32.9316 42.7695 114.902 94.9873 155.229 30.3301
c8.9248 -14.3057 -31.707 -19.0801 -40.002 -6.28711z" />
    <glyph glyph-name="four" unicode="4" horiz-adv-x="678" 
d="M404.938 622.658c11.5322 21.6055 75.4268 24.96 76.8867 -5.93555c2.63184 -55.6797 -22.4355 -111.83 -41.6924 -163c-19.0742 -50.6816 -40.7852 -101.311 -67.3594 -148.53c-5.75195 -10.2197 -11.8506 -20.54 -18.2852 -30.8066
c35.7871 -1.24219 71.4922 -1.08301 106.696 5.55176c33.8916 110.164 73.6699 218.273 125.734 321.12c7.10547 14.041 48.3262 9.20801 40.4434 -6.35742c-103.706 -204.856 -149.519 -426.639 -211.138 -646.09c-4.37402 -15.5537 -47.9971 -12.3398 -43.1113 6.77539
c25.3906 99.3145 50.6045 199.447 80.0869 298.155c-37.7773 -4.89844 -75.6191 -3.34473 -113.496 -1.67285c-48.8037 -70.8623 -115.457 -133.323 -206 -132.34c-34.9688 0.382812 -99.8086 18.0732 -80.0283 66.877c14.2822 35.2461 60.3662 60.2539 93.5215 72.7344
c25.332 9.53711 51.0762 14.376 77.0615 16.6016c26.3213 36.1992 48.0508 76.0547 68.4668 115.557c39.3193 76.0723 71.9688 155.947 112.213 231.36zM158.068 203.96c15.4297 12.7041 29.459 26.7334 42.4043 41.6865
c-28.458 -7.08789 -55.4502 -20.0986 -75.9014 -41.6094c-7.89453 -8.30664 -23.1953 -25.4678 -5.08105 -24.5439c12.2275 0.629883 29.5234 17.0137 38.5781 24.4668z" />
    <glyph glyph-name="five" unicode="5" horiz-adv-x="632" 
d="M237.394 195.783c-49.1328 36.082 -117.428 -26.6162 -132.498 -73.7246c-17.0195 -53.2188 22.6885 -103.3 70.5322 -122.468c93.7393 -37.5596 180.467 23.7129 226.633 102.729c42.5156 72.7695 51.8467 190.045 -50.1582 215.783
c-42.5156 10.7266 -88.9697 -4.17383 -130.826 -11.6035c-43.2227 -7.67676 -118.4 -16.0244 -142.272 32.9502c-19.4746 39.9551 28.8398 100.792 49.7568 131.993c16.501 24.6133 33.9854 51.8291 53.9951 76.0361c-4.89844 0.217773 -9.80273 0.694336 -14.7188 1.45996
c-31.4248 4.91016 -67.1357 26.2686 -59.3115 62.8037c3.70898 17.3018 47.126 16.0771 44.2471 0c-6.68164 -37.3301 23.8193 -40.7627 58.2998 -34.0928c4.5332 4.08008 9.18359 7.94824 13.9873 11.5391c0.0527344 -0.0292969 0.0996094 -0.0585938 0.152344 -0.0878906
c9.52539 8.35938 31.1074 12.168 46.0312 6.69336c7.56445 2.84961 13.8691 5.35742 18.1074 6.9707c44.3584 16.8955 88.582 34.4746 135.242 44.0703c37.8594 7.78809 83.1074 13.4395 119.489 -3.09766c27.9102 -12.6865 46.3896 -41.2441 33.0439 -71.2734
c-7.12305 -16.0303 -53.4307 -11.0674 -45.3242 7.12305c13.0986 29.3994 -15.2705 46.3359 -40.7793 47.6074c-25.8857 1.29492 -54.0488 -5.29883 -78.7451 -12.2451c-42.5869 -11.9863 -83.3076 -29.5537 -124.817 -44.6836
c1.5957 -29.1406 -14.6992 -61.6719 -26.373 -86.7031c-13.7227 -29.4297 -27.8984 -58.4883 -39.7021 -88.7656c-0.989258 -2.53711 -2.01367 -6.17578 -3.12012 -10.0498c7.55859 0.435547 15.0469 0.789062 22.2471 1.28906
c37.8594 2.63184 76.3662 2.2959 113.702 -5.28027c50.252 -10.1963 100.845 -31.7783 133.212 -72.9873c34.6152 -44.0762 37.0645 -99.6914 23.0713 -152.245c-28.9404 -108.687 -126.111 -184.341 -236.546 -196.485
c-86.6455 -9.53125 -235.087 32.0781 -223.289 145.945c10.1084 97.542 144.674 167.609 225.45 107.826c17.5732 -13.0049 -26.209 -26.21 -38.7188 -17.0264z" />
    <glyph glyph-name="six" unicode="6" horiz-adv-x="551" 
d="M98.7383 -32.71c-38.5664 34.2627 -50.5352 90.3232 -48.5273 139.916c1.52441 37.7119 10.791 74.1465 25.0498 109.068c-8.90137 4.35645 -16.3135 10.4316 -19.6572 18.4736c-8.30078 19.9863 11.8857 36.8584 29.6113 41.4795
c7.18262 1.87207 14.7412 3.43262 22.5889 4.69824c27.375 46.0479 61.2373 88.7998 94.252 127.548c38.2598 44.9121 80.3105 86.5684 125.617 124.357c42.3633 35.334 88.0762 72.416 140.123 92.1084c11.915 4.50977 48.4326 -7.9707 26.5273 -19.5977
c-89.624 -47.5732 -167.674 -115.827 -235.016 -191.357c-35.2812 -39.5664 -70.2441 -82.7715 -98.8848 -129.231c108.893 -0.647461 238.613 -51.1523 242.381 -166.268c3.34961 -102.275 -88.1465 -190.934 -188.138 -193.094
c-42.5459 -0.917969 -84.0439 13.5762 -115.928 41.8984zM290.72 109.577c-10.2021 83.29 -99.1367 102.478 -169.587 98.415c-3.01465 -7.46484 -5.89355 -14.9707 -8.4541 -22.5713c-23.625 -70.0908 -29.2412 -209.52 70.4434 -221.994
c77.4736 -9.69043 115.422 82.2881 107.598 146.15z" />
    <glyph glyph-name="seven" unicode="7" horiz-adv-x="512" 
d="M178.487 -115.77c-14.5645 -23.6719 -46.1885 -28.4902 -71.7266 -26.6826c-20.3398 1.43652 -55.5859 10.5439 -56.6689 36.5879c-1.78418 42.8164 23.0176 93.1328 38.7002 132.293c16.6074 41.4805 35.4697 82.0537 56.4512 121.497
c10.4785 19.7041 21.7285 38.9609 33.4795 57.9287c-14.5586 -1.43652 -29.1172 -2.97266 -43.6816 -4.74512c-21.3525 -2.5957 -40.3027 20.1514 -11.5156 23.8135c24.125 3.06738 48.332 5.82812 72.5869 8.26562c30.6416 47.1318 63.627 92.8623 94.6924 139.553
c24.8193 37.3057 48.6445 75.7422 69.5195 115.409c18.668 35.4756 51.665 90.7842 28.0518 131.034c-25.5264 43.5107 -84.0195 31.4131 -123.321 18.4141c-43.4053 -14.3584 -82.3711 -37.9717 -116.486 -68.2314c-10.8906 -9.66016 -50.6689 -1.60645 -35.8223 11.9336
c63.0029 57.4688 159.238 107.538 247.278 91.4014c41.0918 -7.5293 67.7656 -33.3438 86.5625 -69.6191c22.7773 -43.958 16.6494 -93.7207 2.5498 -139.245c-24.584 -79.3516 -68.1484 -149.86 -109.828 -221.146c15.7715 0.447266 31.5371 0.75293 47.291 0.735352
c27.333 -0.0292969 26.9326 -24.7314 -0.000976562 -25.4795c-20.9814 -0.583008 -41.9277 -1.28906 -62.8506 -2.17773c-5.24512 -9.20117 -10.4375 -18.4199 -15.4941 -27.7041c-25.4141 -46.666 -49.5859 -93.9033 -70.0488 -142.978
c-10.9502 -26.2676 -20.9053 -52.9238 -30.1123 -79.8516c-9.13672 -26.7334 -14.7529 -56.8691 -29.6055 -81.0059z" />
    <glyph glyph-name="eight" unicode="8" horiz-adv-x="567" 
d="M119.188 164.247c30.3887 40.3965 68.1602 74.1191 111.018 100.352c-18.9209 32.0547 -37.3594 64.374 -49.1807 99.7666c-21.1523 63.3027 -16.0537 127.972 21.3877 184.27c35.8281 53.8721 93.6855 98.3604 158.891 107.391
c60.0713 8.31836 118.854 -20.0156 142.613 -77.1846c49.0273 -117.97 -52.418 -233.691 -134.012 -310.129c1.23047 -2.30762 2.46094 -4.60938 3.66211 -6.92285c30.9775 -59.6885 47.9678 -122.421 34.8574 -189.769
c-12.7988 -65.7578 -45.1182 -124.898 -103.417 -160.256c-50.6582 -30.7305 -114.403 -47.8379 -171.772 -26.4092c-48.4443 18.0967 -85.8564 64.2627 -83.0898 117.346c3.00195 57.6992 35.0332 116.34 69.043 161.546zM367.367 595.327
c-43.6699 -37.8242 -64.5156 -109.094 -61.4893 -165.073c2.58984 -47.9141 24.5723 -89.7178 47.29 -130.897c45.0244 43.8643 86.6572 92.6504 105.49 153.357c12.0566 38.8838 13.9053 81.6055 -6.99414 117.917c-19.2031 33.3613 -52.8008 51.9707 -84.2969 24.6963z
M246.018 237.742c-45.1182 -31.4951 -82.9551 -72.4922 -110.194 -120.96c-34.1387 -60.7363 -67.6123 -151.385 3.92676 -199.329c33.4502 -22.418 83.2188 -20.1689 112.06 8.94238c20.3691 20.5635 34.7979 51.3994 43.2402 78.8389
c20.8809 67.8896 2.37793 135.484 -29.0938 196.527c-6.26953 12.1621 -13.0215 24.1064 -19.9385 35.9805z" />
    <glyph glyph-name="nine" unicode="9" horiz-adv-x="609" 
d="M123.669 251.122c15.2588 16.3369 91.7266 15.7061 76.5791 -18.3975c-13.5283 -30.46 -28.6348 -63.7686 -29.7529 -97.5664c-0.959961 -29.1934 9.90137 -49.1797 27.3037 -71.3975c0.147461 -0.194336 0.265625 -0.324219 0.407227 -0.500977
c3.06738 0.706055 6.17578 1.35938 9.1543 2.21875c16.3662 4.70996 31.4072 11.7803 46.1367 20.1924c27.7637 15.8535 52.1826 36.3164 74.0293 59.6055c91.1484 97.1533 128.366 238.937 134.942 368.486c0.318359 6.24023 5.02246 26.6914 1.05469 30.5117
c-1.44238 -1.41309 -2.87891 -2.82031 -4.32129 -4.2334c-11.3145 -12.0215 -21.9404 -24.7021 -32.3779 -37.4766c-18.8389 -23.0479 -36.7295 -46.8555 -55.833 -69.6855c-36.1699 -43.2402 -78.5449 -86.5215 -132.452 -106.714
c-39.5371 -14.8174 -103.353 -16.2949 -116.957 34.3926c-14.4404 53.8193 36.5059 107.744 71.8926 141.259c39.9844 37.8652 87.6572 68.1006 139.987 85.6436c36.7588 12.3213 98.3076 26.6504 124.552 -10.1729c15.9482 4.70996 33.1328 2.86133 51.3057 -10.3672
c53.4424 -38.9072 52.2529 -131.021 46.8721 -189.332c-5.92871 -64.2275 -22.3535 -129.562 -52.4365 -186.913c-58.3408 -111.224 -182.098 -210.579 -313.113 -207.706c-67.6006 1.4834 -130.286 36.0107 -139.564 107.402
c-8.21289 63.1914 32.001 117.287 72.5918 160.751zM386.02 516.167c10.626 13.0518 22.9844 27.9824 36.7832 40.0977c-0.530273 0.694336 -1.0127 1.41797 -1.34277 2.21875c-15.2949 37.4941 -90.7959 -2.20215 -114.55 -15.4189
c-30.8125 -17.1426 -58.6875 -39.0596 -83.3955 -64.168c-24.8613 -25.2617 -56.9932 -59.8125 -57.6172 -97.7607c-1.05957 -64.0684 67.7305 -25.9023 95.2695 -4.49121c49.6045 38.5596 85.5566 91.2725 124.853 139.522zM199.244 61.9893
c5.16309 -6.05176 4.24414 -1.64258 0 0z" />
    <glyph glyph-name="colon" unicode=":" horiz-adv-x="346" 
d="M288.687 493.189c4.73926 -4.82715 10.1553 -15.5293 5.12207 -22.3467c-19.4209 -26.3389 -40.5908 -55.0088 -69.2959 -71.7637c-15.0771 -8.80078 -60.9551 -10.7793 -62.2559 14.7002c-1.29492 25.4023 19.1035 53.0127 33.4561 72.4814
c14.4531 19.5977 39.4258 23.3359 62.5732 20.251c9.98438 -1.33008 23.0947 -5.875 30.4004 -13.3223zM143.459 133.716c9.26074 -1.23047 21.4229 -5.45117 28.1992 -12.3564c4.3916 -4.48047 9.41309 -14.4062 4.75684 -20.7285
c-19.9336 -27.0566 -46.043 -60.8662 -82.207 -64.4043c-14.5 -1.41895 -33.333 -0.258789 -41.9219 13.5703c-7.6416 12.3096 5.80469 27.7158 11.998 36.2754c6.27539 8.67773 15.4883 20.9346 21.1279 28.8584c13.0342 18.332 36.8945 21.6055 58.0469 18.7852z" />
    <glyph glyph-name="semicolon" unicode=";" horiz-adv-x="453" 
d="M371.012 520.37c12.1865 -2.9082 40.0312 -16.1406 29.1934 -33.8955c-10.9023 -17.8496 -23.4121 -34.6807 -36.4639 -51.0234c-13.9229 -17.4375 -28.1279 -34.8281 -48.7207 -44.5537c-18.0498 -8.52441 -57.8398 -11.2207 -62.8906 14.8467
c-3.54395 18.2617 10.4082 36.9941 19.6211 51.8115c11.0498 17.7793 23.1357 34.7988 36.3164 51.0586c13.2227 16.3125 44.8535 16.0713 62.9443 11.7559zM163.876 58.7881c21.4814 28.3105 116.091 11.25 85.8613 -28.6055
c-37.8535 -49.8984 -91.8262 -119.901 -162.188 -114.656c-11.4502 0.853516 -31.3545 2.80762 -36.4531 15.8184c-4.78027 12.2158 6.9707 20.9346 17.373 24.3369c18.9092 6.18164 36.376 30.4717 49.3984 44.9248c16.584 18.4092 31.0488 38.4658 46.0078 58.1816z" />
    <glyph glyph-name="less" unicode="&#x3c;" horiz-adv-x="442" 
d="M353.027 472.974c14.3057 7.67676 55.46 -5.55762 32.2588 -18.3857c-84.502 -46.7314 -168.934 -92.7383 -250.663 -143.967c45.8721 -15.9951 96.6826 -22.4766 142.366 -37.1768c40.4258 -13.0049 -1.71387 -41.9922 -26.9688 -36.4639
c-35.0342 7.66504 -69.5439 17.9492 -104.153 27.3037c-29.2998 7.91797 -60.1475 13.5986 -86.4326 29.4287c-11.5322 6.94629 -13.5869 21.3105 0 27.6572c99.9854 46.7197 196.374 99.4209 293.593 151.604z" />
    <glyph glyph-name="equal" unicode="=" horiz-adv-x="583" 
d="M494.604 445.987c16.666 -1.41895 45.9717 -15.6084 36.8115 -36.9609c-9.68457 -22.583 -44.8652 -22.6826 -64.834 -20.9814c-63.2617 5.38672 -126.659 5.75195 -190.08 4.32129c-57.6221 -1.30664 -121.779 -14.4346 -177.477 3.90918
c-24.0781 7.92969 -3.79102 24.584 11.8623 24.9609c13.9346 0.335938 29.2295 7.85938 42.7812 11.0859c14.1465 3.36719 28.4756 5.98145 42.8516 8.19531c32.0371 4.93359 64.6221 7.91211 96.9834 9.77246c67.1592 3.86816 134.136 1.40137 201.101 -4.30273z
M482.353 294.542c14.1172 -1.12402 36.7002 -12.6025 29.9062 -30.0166c-7.19434 -18.4502 -36.9473 -18.3975 -52.6719 -17.0498c-126.147 10.7969 -256.58 6.63477 -382.669 -3.37305c-21.623 -1.71289 -41.6445 17.4434 -11.8857 24.5723
c68.5547 16.4248 134.637 28.0576 205.493 31.0361c70.709 2.9668 141.318 0.429688 211.827 -5.16895z" />
    <glyph glyph-name="greater" unicode="&#x3e;" horiz-adv-x="413" 
d="M306.494 383.113c16.2422 -8.00684 72.5576 -27.9609 52.3242 -54.0703c-9.0957 -11.7324 -30.5947 -17.0547 -43.752 -20.7227c-21.8701 -6.08691 -44.041 -11.1494 -65.958 -17.1074c-45.7012 -12.4336 -90.4482 -27.1982 -134.948 -43.417
c-16.2891 -5.94043 -46.3896 -5.58691 -58.8994 8.80078c-13.1279 15.1123 0.707031 27.7402 15.4482 33.5742c72.8398 28.8408 150.271 48.1504 227.739 60.8135c-20.6455 13.3281 -45.7363 22.3584 -66.0586 34.3086c-28.876 16.9785 -56.2393 36.1934 -82.6309 56.7979
c-9.07812 7.08789 1.96582 15.6299 8.34766 18.1494c10.3086 4.07422 23.2363 1.8252 31.8428 -4.75684c36.4463 -27.8574 75.3945 -52.083 116.545 -72.3701z" />
    <glyph glyph-name="question" unicode="?" horiz-adv-x="613" 
d="M561.964 682.698c11.9688 -101.269 -64.1689 -197.952 -124.352 -271.234c-33.2852 -40.5322 -68.1367 -79.752 -101.346 -120.331c-33.5205 -40.9561 -60.7012 -84.4902 -87.8994 -129.721c-21.7109 -36.1055 -138.539 -30.625 -116.728 18.3438
c32.3018 72.5049 90.8604 136.715 144.591 194.107c55.8623 59.6768 115.074 116.687 163.689 182.674c25.085 34.0449 54.1201 74.0645 65.7002 115.38c5.94043 21.1992 4.46289 42.4629 -7.96484 60.9658c-15.5654 23.1777 -39.5312 24.1377 -64.6807 20.1992
c-37.6064 -5.88672 -73.4824 -23.0713 -102.788 -47.1963c-13.4521 -11.0791 -75.3486 -67.7295 -55.8799 -87.9219c15.7305 -16.3125 -26.8916 -20.9805 -37.4062 -12.4619c-30.5889 24.7783 9.61328 69.7725 27.6572 89.9238
c29.123 32.5137 67.1064 57.1094 108.104 71.8271c39.5723 14.2051 90.1064 23.542 130.433 7.5c38.3301 -15.2529 54.3135 -53.501 58.8701 -92.0547zM106.666 85.0869c20.3047 19.5625 102.41 21.5586 90.8721 -21.8408
c-4.40918 -16.5898 -14.3584 -32.2197 -20.9756 -48.1143c-6.87012 -16.5186 -12.4805 -33.585 -17.9609 -50.6045c-7.47656 -23.2012 -50.3105 -25.085 -68.5137 -22.1709c-19.8984 3.18457 -45.9834 15.0996 -38.9014 39.0537
c10.6025 35.8701 28.1338 77.332 55.4795 103.677z" />
    <glyph glyph-name="at" unicode="@" horiz-adv-x="984" 
d="M919.322 573.117c36.5762 -114.373 1.27539 -233.451 -51.2197 -336.668c-46.6191 -91.6436 -106.809 -178.736 -199.788 -227.946c-50.7227 -26.8447 -114.933 -37.6475 -166.062 -4.72168c-48.0615 30.9541 -60.0713 88.7646 -54.0898 142.483
c2.17188 19.5156 6.15723 38.5605 11.4258 57.2344c-42.3164 -55.3613 -97.7666 -116.121 -171.049 -91.8369c-96.082 31.8369 -58.2227 157.737 -27.21 223.784c37.877 80.6641 96.4707 156.601 170.659 206.888c42.3926 28.7344 94.5928 45.4297 145.627 35.1396
c40.4443 -8.15918 64.04 -33.3496 72.123 -66.959c24.625 2.70215 53.7891 -2.52539 49.6152 -22.7471c-23.7129 -114.95 -104.095 -213.67 -120.479 -331.198c-4.30957 -30.8955 -9.47266 -103.1 28.8516 -117.44c18.1201 -6.78223 47.8555 9.67773 63.4326 19.0557
c21.8584 13.1631 41.1211 29.123 58.5762 47.6846c63.9805 68.0479 110.847 160.139 137.986 248.974c28.4521 93.1445 28.5225 203.65 -32.8203 284.309c-132.876 174.715 -399.129 95.4463 -541.478 -22.7178c-148.729 -123.463 -233.167 -334.596 -178.206 -524.936
c25.9268 -89.7832 86.6982 -171.843 175.033 -207.889c103.164 -42.0986 207.282 5.17969 300.921 49.6152c9.34863 4.43848 24.8379 6.75781 33.8867 -0.000976562c7.17676 -5.36328 10.0322 -14.5469 0.000976562 -19.3154
c-116.528 -55.4023 -243.465 -105.248 -369.795 -49.5684c-112.266 49.4805 -181.038 157.708 -199.564 276.532c-35.7812 229.518 100.892 456.233 302.01 561.075c101.581 52.9541 223.666 82.8193 337.521 58.6182c100.951 -21.458 191.782 -86.4092 224.09 -187.448z
M480.23 300.211c29.877 43.8291 57.9229 89.0234 88.0938 132.682c-21.9053 4.29785 -39.6963 15.7832 -40.4082 34.6045c-0.324219 8.59473 -1.61328 17.2549 -2.60254 25.8027c-7.03516 -4.68066 -13.6992 -9.69043 -20.1748 -15.2422
c-28.9521 -24.8076 -55.3672 -53.5361 -78.0557 -84.1777c-43.6699 -58.9648 -88.6758 -140.241 -91.2959 -214.865c-0.56543 -16.0947 -4.22754 -42.0801 19.3203 -29.1641c17.0898 9.37793 32.3965 30.4238 45.0303 44.8467
c29.1289 33.2617 55.208 69.0078 80.0928 105.514z" />
    <glyph glyph-name="A" unicode="A" horiz-adv-x="962" 
d="M508.12 183.279c-82.4424 -97.542 -185.598 -198.995 -323.354 -191.548c-62.6318 3.39062 -129.962 31.6953 -176.894 73.7109c-48.9561 43.8291 -54.5957 109.11 -42.3389 170.259c22.624 112.854 82.4834 221.959 181.056 285.586
c47.8262 30.8594 105.901 48.5732 163.035 41.7676c44.5176 -5.29785 94.0508 -27.9395 111.683 -72.0977c19.7686 -49.5098 -6.46387 -106.167 -44.2178 -139.293c-39.9082 -35.0156 -91.0898 -48.4561 -143.243 -44.4414
c-7.69434 0.588867 -18.2148 6.36426 -15.2891 15.3477c3.10254 9.53125 19.3037 9.30176 26.9277 8.71289c63.9863 -4.92188 129.344 46.5547 137.845 110.682c9.23047 69.585 -59.1299 104.583 -119.86 95.3818c-122.668 -18.585 -206.499 -145.745 -226.456 -259.618
c-8.67188 -49.457 -7.95996 -119.931 23.4824 -161.61c27.7217 -36.7412 89.6299 -61.749 135.178 -55.9502c42.6279 5.42773 82.1768 37.5537 113.102 65.1582c39.832 35.5576 75.8311 75.3594 109.958 116.351c12.8867 15.4766 25.5029 31.207 38.042 47.0078
c-28.9873 -6.5166 -57.3447 -16.1592 -84.625 -29.4814c-7.91797 -3.86816 -22.4121 -6.16406 -29.9824 0c-6.10449 4.96875 -9.04199 12.6748 0 17.0898c43.9053 21.4463 90.3652 35.0508 137.997 42.0088c45.7012 58.293 90.9902 117.046 141.995 170.653
c38.5781 40.5381 79.1631 77.8682 124.14 111.212c37.2295 27.5986 83.7197 62.1963 131.004 69.2783c122.609 18.3613 22.5127 -177.383 1.2373 -219.34c-27.8574 -54.9492 -58.3994 -108.444 -88.7939 -162.017c24.3486 -3.89746 48.5381 -3.34961 70.8555 9.47852
c13.3164 7.65332 51.2881 -4.84473 29.9834 -17.0898c-35.8936 -20.6279 -74.624 -21.3047 -113.743 -15.1885c-23.3535 -41.3447 -46.3896 -82.8604 -67.7773 -125.271c-26.6387 -52.8184 -55.915 -110.812 -62.0967 -170.494
c-3.12598 -30.2002 3.32617 -70.0908 42.1982 -68.2891c26.209 1.21289 53.4717 20.21 73.1104 36.2754c88.8945 72.7168 146.499 184.782 203.344 282.419c7.76465 13.3281 47.9141 8.19434 39.5605 -6.2168c-38.2305 -65.9521 -76.6201 -131.999 -122.051 -193.336
c-39.2256 -52.96 -84.5381 -108.333 -147.688 -133.152c-45.8242 -18.0088 -113.007 -15.2598 -128.084 41.4912c-16.5488 62.2852 22.5176 138.999 48.6025 193.366c24.7314 51.5527 52.2949 101.61 80.3291 151.415c-28.293 6.69922 -56.3564 14.5938 -83.2598 18.7207
c-18.5439 2.84375 -37.2236 4.91602 -55.9326 6.14062c-28.4287 -39.29 -57.6338 -77.9912 -88.9766 -115.079zM728.539 481.991c-39.4551 -52.6416 -76.6797 -106.964 -114.893 -160.548c35.6162 -3.00195 70.9678 -8.54199 105.854 -16.4131
c9.83105 -2.21387 19.9453 -5.00391 30.1943 -7.75879c36.9297 65.3164 74.0596 130.527 106.103 198.417c15.165 32.126 31.543 65.6406 36.7178 101.14c1.50684 10.3086 6.14551 35.376 -3.23828 42.7402c-9.19531 7.21191 -30.9893 -13.2568 -40.3027 -20.8926
c-46.4541 -38.0771 -84.5957 -88.8643 -120.436 -136.685z" />
    <glyph glyph-name="A" unicode="&#xc5;" horiz-adv-x="962" 
d="M508.12 183.279c-82.4424 -97.542 -185.598 -198.995 -323.354 -191.548c-62.6318 3.39062 -129.962 31.6953 -176.894 73.7109c-48.9561 43.8291 -54.5957 109.11 -42.3389 170.259c22.624 112.854 82.4834 221.959 181.056 285.586
c47.8262 30.8594 105.901 48.5732 163.035 41.7676c44.5176 -5.29785 94.0508 -27.9395 111.683 -72.0977c19.7686 -49.5098 -6.46387 -106.167 -44.2178 -139.293c-39.9082 -35.0156 -91.0898 -48.4561 -143.243 -44.4414
c-7.69434 0.588867 -18.2148 6.36426 -15.2891 15.3477c3.10254 9.53125 19.3037 9.30176 26.9277 8.71289c63.9863 -4.92188 129.344 46.5547 137.845 110.682c9.23047 69.585 -59.1299 104.583 -119.86 95.3818c-122.668 -18.585 -206.499 -145.745 -226.456 -259.618
c-8.67188 -49.457 -7.95996 -119.931 23.4824 -161.61c27.7217 -36.7412 89.6299 -61.749 135.178 -55.9502c42.6279 5.42773 82.1768 37.5537 113.102 65.1582c39.832 35.5576 75.8311 75.3594 109.958 116.351c12.8867 15.4766 25.5029 31.207 38.042 47.0078
c-28.9873 -6.5166 -57.3447 -16.1592 -84.625 -29.4814c-7.91797 -3.86816 -22.4121 -6.16406 -29.9824 0c-6.10449 4.96875 -9.04199 12.6748 0 17.0898c43.9053 21.4463 90.3652 35.0508 137.997 42.0088c45.7012 58.293 90.9902 117.046 141.995 170.653
c38.5781 40.5381 79.1631 77.8682 124.14 111.212c37.2295 27.5986 83.7197 62.1963 131.004 69.2783c122.609 18.3613 22.5127 -177.383 1.2373 -219.34c-27.8574 -54.9492 -58.3994 -108.444 -88.7939 -162.017c24.3486 -3.89746 48.5381 -3.34961 70.8555 9.47852
c13.3164 7.65332 51.2881 -4.84473 29.9834 -17.0898c-35.8936 -20.6279 -74.624 -21.3047 -113.743 -15.1885c-23.3535 -41.3447 -46.3896 -82.8604 -67.7773 -125.271c-26.6387 -52.8184 -55.915 -110.812 -62.0967 -170.494
c-3.12598 -30.2002 3.32617 -70.0908 42.1982 -68.2891c26.209 1.21289 53.4717 20.21 73.1104 36.2754c88.8945 72.7168 146.499 184.782 203.344 282.419c7.76465 13.3281 47.9141 8.19434 39.5605 -6.2168c-38.2305 -65.9521 -76.6201 -131.999 -122.051 -193.336
c-39.2256 -52.96 -84.5381 -108.333 -147.688 -133.152c-45.8242 -18.0088 -113.007 -15.2598 -128.084 41.4912c-16.5488 62.2852 22.5176 138.999 48.6025 193.366c24.7314 51.5527 52.2949 101.61 80.3291 151.415c-28.293 6.69922 -56.3564 14.5938 -83.2598 18.7207
c-18.5439 2.84375 -37.2236 4.91602 -55.9326 6.14062c-28.4287 -39.29 -57.6338 -77.9912 -88.9766 -115.079zM728.539 481.991c-39.4551 -52.6416 -76.6797 -106.964 -114.893 -160.548c35.6162 -3.00195 70.9678 -8.54199 105.854 -16.4131
c9.83105 -2.21387 19.9453 -5.00391 30.1943 -7.75879c36.9297 65.3164 74.0596 130.527 106.103 198.417c15.165 32.126 31.543 65.6406 36.7178 101.14c1.50684 10.3086 6.14551 35.376 -3.23828 42.7402c-9.19531 7.21191 -30.9893 -13.2568 -40.3027 -20.8926
c-46.4541 -38.0771 -84.5957 -88.8643 -120.436 -136.685z" />
    <glyph glyph-name="A" unicode="&#xc4;" horiz-adv-x="962" 
d="M508.12 183.279c-82.4424 -97.542 -185.598 -198.995 -323.354 -191.548c-62.6318 3.39062 -129.962 31.6953 -176.894 73.7109c-48.9561 43.8291 -54.5957 109.11 -42.3389 170.259c22.624 112.854 82.4834 221.959 181.056 285.586
c47.8262 30.8594 105.901 48.5732 163.035 41.7676c44.5176 -5.29785 94.0508 -27.9395 111.683 -72.0977c19.7686 -49.5098 -6.46387 -106.167 -44.2178 -139.293c-39.9082 -35.0156 -91.0898 -48.4561 -143.243 -44.4414
c-7.69434 0.588867 -18.2148 6.36426 -15.2891 15.3477c3.10254 9.53125 19.3037 9.30176 26.9277 8.71289c63.9863 -4.92188 129.344 46.5547 137.845 110.682c9.23047 69.585 -59.1299 104.583 -119.86 95.3818c-122.668 -18.585 -206.499 -145.745 -226.456 -259.618
c-8.67188 -49.457 -7.95996 -119.931 23.4824 -161.61c27.7217 -36.7412 89.6299 -61.749 135.178 -55.9502c42.6279 5.42773 82.1768 37.5537 113.102 65.1582c39.832 35.5576 75.8311 75.3594 109.958 116.351c12.8867 15.4766 25.5029 31.207 38.042 47.0078
c-28.9873 -6.5166 -57.3447 -16.1592 -84.625 -29.4814c-7.91797 -3.86816 -22.4121 -6.16406 -29.9824 0c-6.10449 4.96875 -9.04199 12.6748 0 17.0898c43.9053 21.4463 90.3652 35.0508 137.997 42.0088c45.7012 58.293 90.9902 117.046 141.995 170.653
c38.5781 40.5381 79.1631 77.8682 124.14 111.212c37.2295 27.5986 83.7197 62.1963 131.004 69.2783c122.609 18.3613 22.5127 -177.383 1.2373 -219.34c-27.8574 -54.9492 -58.3994 -108.444 -88.7939 -162.017c24.3486 -3.89746 48.5381 -3.34961 70.8555 9.47852
c13.3164 7.65332 51.2881 -4.84473 29.9834 -17.0898c-35.8936 -20.6279 -74.624 -21.3047 -113.743 -15.1885c-23.3535 -41.3447 -46.3896 -82.8604 -67.7773 -125.271c-26.6387 -52.8184 -55.915 -110.812 -62.0967 -170.494
c-3.12598 -30.2002 3.32617 -70.0908 42.1982 -68.2891c26.209 1.21289 53.4717 20.21 73.1104 36.2754c88.8945 72.7168 146.499 184.782 203.344 282.419c7.76465 13.3281 47.9141 8.19434 39.5605 -6.2168c-38.2305 -65.9521 -76.6201 -131.999 -122.051 -193.336
c-39.2256 -52.96 -84.5381 -108.333 -147.688 -133.152c-45.8242 -18.0088 -113.007 -15.2598 -128.084 41.4912c-16.5488 62.2852 22.5176 138.999 48.6025 193.366c24.7314 51.5527 52.2949 101.61 80.3291 151.415c-28.293 6.69922 -56.3564 14.5938 -83.2598 18.7207
c-18.5439 2.84375 -37.2236 4.91602 -55.9326 6.14062c-28.4287 -39.29 -57.6338 -77.9912 -88.9766 -115.079zM728.539 481.991c-39.4551 -52.6416 -76.6797 -106.964 -114.893 -160.548c35.6162 -3.00195 70.9678 -8.54199 105.854 -16.4131
c9.83105 -2.21387 19.9453 -5.00391 30.1943 -7.75879c36.9297 65.3164 74.0596 130.527 106.103 198.417c15.165 32.126 31.543 65.6406 36.7178 101.14c1.50684 10.3086 6.14551 35.376 -3.23828 42.7402c-9.19531 7.21191 -30.9893 -13.2568 -40.3027 -20.8926
c-46.4541 -38.0771 -84.5957 -88.8643 -120.436 -136.685z" />
    <glyph glyph-name="A" unicode="&#xc3;" horiz-adv-x="962" 
d="M508.12 183.279c-82.4424 -97.542 -185.598 -198.995 -323.354 -191.548c-62.6318 3.39062 -129.962 31.6953 -176.894 73.7109c-48.9561 43.8291 -54.5957 109.11 -42.3389 170.259c22.624 112.854 82.4834 221.959 181.056 285.586
c47.8262 30.8594 105.901 48.5732 163.035 41.7676c44.5176 -5.29785 94.0508 -27.9395 111.683 -72.0977c19.7686 -49.5098 -6.46387 -106.167 -44.2178 -139.293c-39.9082 -35.0156 -91.0898 -48.4561 -143.243 -44.4414
c-7.69434 0.588867 -18.2148 6.36426 -15.2891 15.3477c3.10254 9.53125 19.3037 9.30176 26.9277 8.71289c63.9863 -4.92188 129.344 46.5547 137.845 110.682c9.23047 69.585 -59.1299 104.583 -119.86 95.3818c-122.668 -18.585 -206.499 -145.745 -226.456 -259.618
c-8.67188 -49.457 -7.95996 -119.931 23.4824 -161.61c27.7217 -36.7412 89.6299 -61.749 135.178 -55.9502c42.6279 5.42773 82.1768 37.5537 113.102 65.1582c39.832 35.5576 75.8311 75.3594 109.958 116.351c12.8867 15.4766 25.5029 31.207 38.042 47.0078
c-28.9873 -6.5166 -57.3447 -16.1592 -84.625 -29.4814c-7.91797 -3.86816 -22.4121 -6.16406 -29.9824 0c-6.10449 4.96875 -9.04199 12.6748 0 17.0898c43.9053 21.4463 90.3652 35.0508 137.997 42.0088c45.7012 58.293 90.9902 117.046 141.995 170.653
c38.5781 40.5381 79.1631 77.8682 124.14 111.212c37.2295 27.5986 83.7197 62.1963 131.004 69.2783c122.609 18.3613 22.5127 -177.383 1.2373 -219.34c-27.8574 -54.9492 -58.3994 -108.444 -88.7939 -162.017c24.3486 -3.89746 48.5381 -3.34961 70.8555 9.47852
c13.3164 7.65332 51.2881 -4.84473 29.9834 -17.0898c-35.8936 -20.6279 -74.624 -21.3047 -113.743 -15.1885c-23.3535 -41.3447 -46.3896 -82.8604 -67.7773 -125.271c-26.6387 -52.8184 -55.915 -110.812 -62.0967 -170.494
c-3.12598 -30.2002 3.32617 -70.0908 42.1982 -68.2891c26.209 1.21289 53.4717 20.21 73.1104 36.2754c88.8945 72.7168 146.499 184.782 203.344 282.419c7.76465 13.3281 47.9141 8.19434 39.5605 -6.2168c-38.2305 -65.9521 -76.6201 -131.999 -122.051 -193.336
c-39.2256 -52.96 -84.5381 -108.333 -147.688 -133.152c-45.8242 -18.0088 -113.007 -15.2598 -128.084 41.4912c-16.5488 62.2852 22.5176 138.999 48.6025 193.366c24.7314 51.5527 52.2949 101.61 80.3291 151.415c-28.293 6.69922 -56.3564 14.5938 -83.2598 18.7207
c-18.5439 2.84375 -37.2236 4.91602 -55.9326 6.14062c-28.4287 -39.29 -57.6338 -77.9912 -88.9766 -115.079zM728.539 481.991c-39.4551 -52.6416 -76.6797 -106.964 -114.893 -160.548c35.6162 -3.00195 70.9678 -8.54199 105.854 -16.4131
c9.83105 -2.21387 19.9453 -5.00391 30.1943 -7.75879c36.9297 65.3164 74.0596 130.527 106.103 198.417c15.165 32.126 31.543 65.6406 36.7178 101.14c1.50684 10.3086 6.14551 35.376 -3.23828 42.7402c-9.19531 7.21191 -30.9893 -13.2568 -40.3027 -20.8926
c-46.4541 -38.0771 -84.5957 -88.8643 -120.436 -136.685z" />
    <glyph glyph-name="A" unicode="&#xc2;" horiz-adv-x="962" 
d="M508.12 183.279c-82.4424 -97.542 -185.598 -198.995 -323.354 -191.548c-62.6318 3.39062 -129.962 31.6953 -176.894 73.7109c-48.9561 43.8291 -54.5957 109.11 -42.3389 170.259c22.624 112.854 82.4834 221.959 181.056 285.586
c47.8262 30.8594 105.901 48.5732 163.035 41.7676c44.5176 -5.29785 94.0508 -27.9395 111.683 -72.0977c19.7686 -49.5098 -6.46387 -106.167 -44.2178 -139.293c-39.9082 -35.0156 -91.0898 -48.4561 -143.243 -44.4414
c-7.69434 0.588867 -18.2148 6.36426 -15.2891 15.3477c3.10254 9.53125 19.3037 9.30176 26.9277 8.71289c63.9863 -4.92188 129.344 46.5547 137.845 110.682c9.23047 69.585 -59.1299 104.583 -119.86 95.3818c-122.668 -18.585 -206.499 -145.745 -226.456 -259.618
c-8.67188 -49.457 -7.95996 -119.931 23.4824 -161.61c27.7217 -36.7412 89.6299 -61.749 135.178 -55.9502c42.6279 5.42773 82.1768 37.5537 113.102 65.1582c39.832 35.5576 75.8311 75.3594 109.958 116.351c12.8867 15.4766 25.5029 31.207 38.042 47.0078
c-28.9873 -6.5166 -57.3447 -16.1592 -84.625 -29.4814c-7.91797 -3.86816 -22.4121 -6.16406 -29.9824 0c-6.10449 4.96875 -9.04199 12.6748 0 17.0898c43.9053 21.4463 90.3652 35.0508 137.997 42.0088c45.7012 58.293 90.9902 117.046 141.995 170.653
c38.5781 40.5381 79.1631 77.8682 124.14 111.212c37.2295 27.5986 83.7197 62.1963 131.004 69.2783c122.609 18.3613 22.5127 -177.383 1.2373 -219.34c-27.8574 -54.9492 -58.3994 -108.444 -88.7939 -162.017c24.3486 -3.89746 48.5381 -3.34961 70.8555 9.47852
c13.3164 7.65332 51.2881 -4.84473 29.9834 -17.0898c-35.8936 -20.6279 -74.624 -21.3047 -113.743 -15.1885c-23.3535 -41.3447 -46.3896 -82.8604 -67.7773 -125.271c-26.6387 -52.8184 -55.915 -110.812 -62.0967 -170.494
c-3.12598 -30.2002 3.32617 -70.0908 42.1982 -68.2891c26.209 1.21289 53.4717 20.21 73.1104 36.2754c88.8945 72.7168 146.499 184.782 203.344 282.419c7.76465 13.3281 47.9141 8.19434 39.5605 -6.2168c-38.2305 -65.9521 -76.6201 -131.999 -122.051 -193.336
c-39.2256 -52.96 -84.5381 -108.333 -147.688 -133.152c-45.8242 -18.0088 -113.007 -15.2598 -128.084 41.4912c-16.5488 62.2852 22.5176 138.999 48.6025 193.366c24.7314 51.5527 52.2949 101.61 80.3291 151.415c-28.293 6.69922 -56.3564 14.5938 -83.2598 18.7207
c-18.5439 2.84375 -37.2236 4.91602 -55.9326 6.14062c-28.4287 -39.29 -57.6338 -77.9912 -88.9766 -115.079zM728.539 481.991c-39.4551 -52.6416 -76.6797 -106.964 -114.893 -160.548c35.6162 -3.00195 70.9678 -8.54199 105.854 -16.4131
c9.83105 -2.21387 19.9453 -5.00391 30.1943 -7.75879c36.9297 65.3164 74.0596 130.527 106.103 198.417c15.165 32.126 31.543 65.6406 36.7178 101.14c1.50684 10.3086 6.14551 35.376 -3.23828 42.7402c-9.19531 7.21191 -30.9893 -13.2568 -40.3027 -20.8926
c-46.4541 -38.0771 -84.5957 -88.8643 -120.436 -136.685z" />
    <glyph glyph-name="A" unicode="&#xc1;" horiz-adv-x="962" 
d="M508.12 183.279c-82.4424 -97.542 -185.598 -198.995 -323.354 -191.548c-62.6318 3.39062 -129.962 31.6953 -176.894 73.7109c-48.9561 43.8291 -54.5957 109.11 -42.3389 170.259c22.624 112.854 82.4834 221.959 181.056 285.586
c47.8262 30.8594 105.901 48.5732 163.035 41.7676c44.5176 -5.29785 94.0508 -27.9395 111.683 -72.0977c19.7686 -49.5098 -6.46387 -106.167 -44.2178 -139.293c-39.9082 -35.0156 -91.0898 -48.4561 -143.243 -44.4414
c-7.69434 0.588867 -18.2148 6.36426 -15.2891 15.3477c3.10254 9.53125 19.3037 9.30176 26.9277 8.71289c63.9863 -4.92188 129.344 46.5547 137.845 110.682c9.23047 69.585 -59.1299 104.583 -119.86 95.3818c-122.668 -18.585 -206.499 -145.745 -226.456 -259.618
c-8.67188 -49.457 -7.95996 -119.931 23.4824 -161.61c27.7217 -36.7412 89.6299 -61.749 135.178 -55.9502c42.6279 5.42773 82.1768 37.5537 113.102 65.1582c39.832 35.5576 75.8311 75.3594 109.958 116.351c12.8867 15.4766 25.5029 31.207 38.042 47.0078
c-28.9873 -6.5166 -57.3447 -16.1592 -84.625 -29.4814c-7.91797 -3.86816 -22.4121 -6.16406 -29.9824 0c-6.10449 4.96875 -9.04199 12.6748 0 17.0898c43.9053 21.4463 90.3652 35.0508 137.997 42.0088c45.7012 58.293 90.9902 117.046 141.995 170.653
c38.5781 40.5381 79.1631 77.8682 124.14 111.212c37.2295 27.5986 83.7197 62.1963 131.004 69.2783c122.609 18.3613 22.5127 -177.383 1.2373 -219.34c-27.8574 -54.9492 -58.3994 -108.444 -88.7939 -162.017c24.3486 -3.89746 48.5381 -3.34961 70.8555 9.47852
c13.3164 7.65332 51.2881 -4.84473 29.9834 -17.0898c-35.8936 -20.6279 -74.624 -21.3047 -113.743 -15.1885c-23.3535 -41.3447 -46.3896 -82.8604 -67.7773 -125.271c-26.6387 -52.8184 -55.915 -110.812 -62.0967 -170.494
c-3.12598 -30.2002 3.32617 -70.0908 42.1982 -68.2891c26.209 1.21289 53.4717 20.21 73.1104 36.2754c88.8945 72.7168 146.499 184.782 203.344 282.419c7.76465 13.3281 47.9141 8.19434 39.5605 -6.2168c-38.2305 -65.9521 -76.6201 -131.999 -122.051 -193.336
c-39.2256 -52.96 -84.5381 -108.333 -147.688 -133.152c-45.8242 -18.0088 -113.007 -15.2598 -128.084 41.4912c-16.5488 62.2852 22.5176 138.999 48.6025 193.366c24.7314 51.5527 52.2949 101.61 80.3291 151.415c-28.293 6.69922 -56.3564 14.5938 -83.2598 18.7207
c-18.5439 2.84375 -37.2236 4.91602 -55.9326 6.14062c-28.4287 -39.29 -57.6338 -77.9912 -88.9766 -115.079zM728.539 481.991c-39.4551 -52.6416 -76.6797 -106.964 -114.893 -160.548c35.6162 -3.00195 70.9678 -8.54199 105.854 -16.4131
c9.83105 -2.21387 19.9453 -5.00391 30.1943 -7.75879c36.9297 65.3164 74.0596 130.527 106.103 198.417c15.165 32.126 31.543 65.6406 36.7178 101.14c1.50684 10.3086 6.14551 35.376 -3.23828 42.7402c-9.19531 7.21191 -30.9893 -13.2568 -40.3027 -20.8926
c-46.4541 -38.0771 -84.5957 -88.8643 -120.436 -136.685z" />
    <glyph glyph-name="B" unicode="B" horiz-adv-x="836" 
d="M254.145 213.604c38.4951 77.6084 76.7305 155.516 121.66 229.669c41.4619 68.4248 88.0518 141 153.733 188.608c26.915 19.5098 59.9004 38.2656 94.334 30.6123c31.0303 -6.89941 43.6758 -30.3535 35.334 -60.4658
c-16.5127 -59.6182 -77.1133 -101.558 -130.844 -136.392c52.2354 -0.806641 104.506 -9.72559 147.581 -41.2627c56.7451 -41.5391 68.9434 -110.482 57.2695 -176.494c-5.91016 -33.4268 -16.042 -66.5 -29.7178 -98.2012
c49.0918 12.5684 96.1406 32.0547 139.416 64.0449c11.1855 8.26562 54.3672 1.9248 37.8066 -12.5986c-54.3906 -47.7207 -122.751 -71.7812 -193.448 -85.1797c-33.8389 -63.5029 -82.7363 -119.183 -142.949 -156.906
c-50.7578 -31.8018 -109.493 -51.1055 -169.294 -54.8848c-51.6768 -3.26758 -119.819 1.46582 -157.961 41.498c-42.1162 44.2061 -14.8828 94.6641 29.6465 122.339c56.7334 35.2578 130.963 43.918 195.962 50.3408c68.8135 6.7998 139.211 9.01367 207.018 20.1816
c19.2031 39.2783 32.4141 81.2354 37.8535 123.104c6.61719 50.9346 -0.941406 106.072 -42.4453 140.817c-47.3027 39.6025 -112.337 38.0488 -170.43 35.0586c-12.7686 -0.65332 -33.585 11.5566 -16.5479 22.7773c40.8857 26.9336 83.5195 53.3838 119.431 86.9102
c14.9414 13.9463 29.0762 29.8711 36.9941 48.9922c3.04395 7.35254 9.52539 21.1162 6.06934 29.2812c-11.2324 26.5508 -34.7627 7.2998 -47.7373 -1.0127c-75.248 -48.1973 -125.883 -133.906 -169.988 -209.319c-87.499 -149.607 -151.639 -311.854 -246.09 -457.48
c-2.80859 -15.2949 -5.76953 -30.6133 -9.33691 -45.9434c-5.13965 -22.0645 -26.9219 -28.8584 -47.4971 -30.666c-15.3887 -1.35449 -54.9258 1.75391 -60.1006 22.3643c-26.5977 105.872 32.2607 227.027 80.2051 318.871c51.7295 99.085 119.089 196.969 147.17 306.227
c12.7744 49.7158 20.375 117.199 -37.2002 140.135c-44.7412 17.8262 -98.1133 2.79102 -137.774 -20.5215c-45.5654 -26.7861 -92.1611 -76.5195 -92.5908 -132.511c-0.194336 -25.0312 10.6143 -54.3779 33.8037 -66.9941
c31.3428 -17.0488 79.3574 6.36426 107.998 20.2988c13.0049 6.32227 50.1523 -6.00488 29.0117 -16.5371c-46.8135 -23.3242 -108.598 -47.4785 -160.062 -24.5957c-45.0244 20.0156 -62.3086 70.9912 -51.1289 116.774c42.834 175.398 358.591 230.896 389.433 20.0635
c16.4189 -112.242 -47.8086 -229.282 -95.1289 -326.501c-24.8789 -51.1172 -49.5811 -102.77 -68.3896 -156.488c-0.723633 -2.06055 -1.38281 -4.12695 -2.06543 -6.1875c24.7314 45.4717 47.9795 91.7734 70.998 138.175zM538.157 -2.41699
c37.2822 29.5 69.584 67.5605 94.792 109.988c-23.2773 -2.87891 -46.4844 -4.98047 -69.2197 -6.74023c-59.7236 -4.61523 -119.801 -7.27637 -178.871 -17.8379c-44.5059 -7.95898 -142.619 -26.168 -142.283 -87.0107
c0.365234 -65.3936 94.0986 -69.1318 140.329 -63.8516c56.4092 6.44629 110.829 30.2949 155.253 65.4521z" />
    <glyph glyph-name="C" unicode="C" horiz-adv-x="486" 
d="M78.7969 -150.304c-90.0654 31.2773 -118.658 138.056 -116.704 223.771c2.24316 98.4307 30.8428 197.615 74.2891 285.556c11.9385 24.1719 25.3193 48.6621 40.166 72.5283c-38.6133 37.2412 -58.0938 90.2832 -48.127 147.823
c13.999 80.8701 85.0908 143.426 169.146 126.789c31.5664 -6.24609 10.8672 -30.1826 -12.7402 -26.3389c-91.3018 14.8711 -124.228 -113.343 -101.769 -179.742c4.17969 -12.3564 9.92578 -23.4297 16.9082 -33.332c30.0352 42.1631 65.2627 80.5938 106.366 109.281
c37.9951 26.5215 83.5781 47.4561 129.839 53.4023c40.3438 5.19238 93.8682 0.977539 120.819 -33.9092c52.665 -68.1777 -6.05762 -158.661 -67.8008 -194.454c-63.2617 -36.6699 -146.304 -39.7139 -217.678 -19.8984
c-35.416 -61.2432 -61.2773 -128.361 -77.2549 -195.851c-16.9727 -71.71 -26.4395 -150.284 -10.5508 -223.095c6.05176 -27.7217 17.1484 -55.9033 37.6299 -76.249c27.7695 -27.5869 62.3916 -16.4365 93.7461 1.20117c59.2002 33.3027 109.134 91.6846 152.244 143.226
c46.8311 55.9912 87.0693 116.898 121.332 181.309c7.22949 13.5869 47.4795 8.77734 39.5615 -6.2168c-50.0342 -94.7344 -113.579 -182.051 -189.404 -257.829c-68.749 -68.7012 -157.319 -133.635 -260.019 -97.9707zM292.015 529.447
c-40.2441 -34.834 -74.8779 -76.1494 -104.03 -121.338c27.0684 -7.85938 56.0859 -10.6436 83.543 -9.16016c66.8418 3.62012 127.731 48.3672 134.166 118.57c1.52441 16.625 -0.253906 44.6123 -15.5547 55.7266c-9.44824 6.86426 -16.542 3.32617 -26.7559 -0.0644531
c-27.0566 -8.9834 -50.0098 -25.249 -71.3682 -43.7344z" />
    <glyph glyph-name="D" unicode="D" horiz-adv-x="770" 
d="M157.114 222.269c51.7295 99.085 119.087 196.965 147.168 306.223c12.7744 49.7158 20.375 117.199 -37.2002 140.135c-44.7412 17.8262 -98.1133 2.79102 -137.774 -20.5215c-45.5654 -26.7861 -92.1611 -76.5195 -92.5908 -132.511
c-0.194336 -25.0312 10.6143 -54.3779 33.8037 -66.9941c31.3428 -17.0488 79.3574 6.36426 107.998 20.2988c13.0049 6.32227 50.1523 -6.00488 29.0117 -16.5371c-46.8135 -23.3242 -108.598 -47.4785 -160.062 -24.5957
c-45.0244 20.0156 -62.3086 70.9912 -51.1289 116.774c42.834 175.398 358.591 230.896 389.433 20.0635c16.4189 -112.242 -47.8086 -229.282 -95.1289 -326.501c-9.71387 -19.957 -19.3926 -40.0078 -28.7119 -60.2236
c6.90527 0.341797 13.8164 0.612305 20.7217 0.806641c56.2686 132.717 98.9609 273.37 187.938 388.05c30.1592 38.8721 71.6924 79.5039 122.168 88.3818c47.084 8.2832 85.6738 -13.8281 100.539 -59.4287c37.1416 -113.949 7.13574 -245.4 -29.4053 -355.512
c-6.20508 -18.6914 -13.0928 -37.583 -20.6514 -56.5098c48.5625 2.54297 97.0889 5.93945 145.557 10.3545c7.64746 0.694336 24.4199 0.682617 27.7812 -8.99023c3.2207 -9.27832 -7.94141 -15.1182 -15.7715 -15.8359
c-56.1211 -5.13379 -112.324 -9.0957 -168.587 -11.9395c-73.9414 -170.982 -202.991 -339.033 -386.531 -385.705c-95.0752 -24.1719 -205.698 -3.87305 -267.3 78.2041c-63.4736 84.5732 -26.9678 196.427 51.6357 256.934
c28.7754 22.1533 60.377 37.6182 93.6152 48.4268c10.9619 23.5596 22.501 46.1309 33.4746 67.1533zM333.765 -155.105c114.038 72.7578 196.284 186.061 251.357 310.265c-58.2051 -2.25488 -116.457 -3.29102 -174.732 -2.86719
c-30.2119 0.217773 -62.0312 1.28906 -94.2275 1.31836c-33.209 -74.624 -71.457 -146.363 -124.77 -209.066c-2.0957 -10.9443 -4.33887 -21.8945 -6.8877 -32.8506c-5.13965 -22.0645 -26.9219 -28.8584 -47.4971 -30.666
c-15.3887 -1.35449 -54.9258 1.75391 -60.1006 22.3643c-17.249 68.6719 1.45996 143.761 29.8115 213.122c-20.917 -10.7021 -40.4971 -24.4014 -58.2168 -41.9092c-70.874 -70.0439 -75.9248 -182.203 5.28711 -245.906c85.4678 -67.041 196.067 -37.3408 279.976 16.1963
zM480.944 514.098c-24.2549 -38.1416 -44.9365 -78.4336 -63.7275 -119.52c-32.1611 -70.2852 -59.2588 -143.85 -89.8887 -215.412c14.2646 -0.046875 28.4229 -0.241211 42.4043 -0.458984c75.5781 -1.18945 151.132 -0.253906 226.598 2.79004
c19.1562 46.9375 34.5977 95.0938 46.4951 142.949c13.8291 55.6328 22.5654 112.938 20.9346 170.383c-1.18359 41.5449 -6.19336 158.944 -74.1064 130.527c-47.2432 -19.7686 -82.2471 -69.6436 -108.709 -111.259zM271.406 152.786
c-7.10547 -0.293945 -14.2041 -0.689453 -21.2803 -1.18359c-10.0967 -23.0186 -19.5811 -46.29 -27.876 -69.9854c-5.93457 -16.9551 -10.5088 -34.0215 -14.3887 -51.1582c24.29 38.9902 44.8418 80.123 63.5449 122.327z" />
    <glyph glyph-name="E" unicode="E" horiz-adv-x="471" 
d="M-37.874 -29.625c-16.6367 78.7451 35.6006 152.573 98.3623 201.677c-37.8594 22.9473 -63.0498 61.9785 -59.5059 113.525c3.82031 55.5967 28.9346 101.893 59.4941 145.639c-6.75195 6.39941 -13.0391 13.334 -18.626 21.0107
c-75.9072 104.318 1.08887 281.535 140.894 253.972c31.5664 -6.22266 10.8672 -30.2002 -12.7402 -26.3379c-67.9248 11.1143 -108.187 -68.4727 -109.611 -125.612c-0.806641 -32.2783 8.04785 -63.1436 25.4854 -88.3223c2.1543 2.86133 4.31445 5.72266 6.48047 8.57812
c44.459 58.6875 99.1494 110.646 169.44 136.873c52.9131 19.7451 142.755 32.3438 181.368 -21.5518c39.9316 -55.7324 4.44434 -128.237 -40.7676 -167.687c-52.2354 -45.5713 -125.358 -57.3457 -192.399 -50.3105c-18.9736 1.99023 -38.5127 5.4043 -57.5928 10.6611
c-27.6865 -44.7588 -46.1191 -94.6162 -28.0869 -140.041c4.12695 -10.3965 7.08789 -14.7295 15.5186 -21.4111c-2.08984 1.75391 1.29492 -0.271484 4.46777 -2.1377c0.948242 -0.176758 3.43848 -1.03027 5.78711 -2.0957
c0.954102 -0.176758 1.90234 -0.371094 2.81445 -0.524414c0.400391 -0.0703125 0.676758 -0.0703125 1.03027 -0.111328c0.335938 0.0292969 0.606445 0.0703125 0.995117 0.0878906c-0.105469 -0.0585938 -0.205078 -0.0996094 -0.311523 -0.164062
c1.47754 -0.112305 2.44336 0 2.97949 0.206055c17.3311 0.0351562 41.4795 -5.88086 51.4756 -20.7695c9.58984 -14.2764 2.1543 -29.2295 -12.2334 -36.8418c-82.0947 -43.4404 -170.354 -144.556 -116.452 -244.823c9.63086 -17.9199 21.9639 -39.6846 43.5752 -44.8477
c26.7217 -6.38184 58.4297 7.13477 80.583 20.5332c37.8652 22.9062 70.3906 56.4619 100.826 88.2227c66.8828 69.8027 123.068 148.647 168.439 233.95c7.22949 13.5869 47.4795 8.77734 39.5615 -6.2168c-46.8965 -88.7822 -105.626 -171.054 -175.299 -243.429
c-55.1377 -57.2812 -120.89 -120.673 -205.922 -120.173c-79.7695 0.464844 -153.058 48.1318 -170.03 128.472zM320.371 563.08c-40.7324 -23.0244 -72.4697 -57.5811 -102.117 -93.292c-14.3584 -17.29 -31.9131 -38.1709 -48.3438 -61.1123
c88.7354 -27.2275 203.68 -2.94922 220.54 100.65c3.14355 19.3096 3.78516 62.9326 -20.2041 70.6738c-15.7012 5.0625 -37.1475 -9.72559 -49.875 -16.9199z" />
    <glyph glyph-name="E" unicode="&#xcb;" horiz-adv-x="471" 
d="M-37.874 -29.625c-16.6367 78.7451 35.6006 152.573 98.3623 201.677c-37.8594 22.9473 -63.0498 61.9785 -59.5059 113.525c3.82031 55.5967 28.9346 101.893 59.4941 145.639c-6.75195 6.39941 -13.0391 13.334 -18.626 21.0107
c-75.9072 104.318 1.08887 281.535 140.894 253.972c31.5664 -6.22266 10.8672 -30.2002 -12.7402 -26.3379c-67.9248 11.1143 -108.187 -68.4727 -109.611 -125.612c-0.806641 -32.2783 8.04785 -63.1436 25.4854 -88.3223c2.1543 2.86133 4.31445 5.72266 6.48047 8.57812
c44.459 58.6875 99.1494 110.646 169.44 136.873c52.9131 19.7451 142.755 32.3438 181.368 -21.5518c39.9316 -55.7324 4.44434 -128.237 -40.7676 -167.687c-52.2354 -45.5713 -125.358 -57.3457 -192.399 -50.3105c-18.9736 1.99023 -38.5127 5.4043 -57.5928 10.6611
c-27.6865 -44.7588 -46.1191 -94.6162 -28.0869 -140.041c4.12695 -10.3965 7.08789 -14.7295 15.5186 -21.4111c-2.08984 1.75391 1.29492 -0.271484 4.46777 -2.1377c0.948242 -0.176758 3.43848 -1.03027 5.78711 -2.0957
c0.954102 -0.176758 1.90234 -0.371094 2.81445 -0.524414c0.400391 -0.0703125 0.676758 -0.0703125 1.03027 -0.111328c0.335938 0.0292969 0.606445 0.0703125 0.995117 0.0878906c-0.105469 -0.0585938 -0.205078 -0.0996094 -0.311523 -0.164062
c1.47754 -0.112305 2.44336 0 2.97949 0.206055c17.3311 0.0351562 41.4795 -5.88086 51.4756 -20.7695c9.58984 -14.2764 2.1543 -29.2295 -12.2334 -36.8418c-82.0947 -43.4404 -170.354 -144.556 -116.452 -244.823c9.63086 -17.9199 21.9639 -39.6846 43.5752 -44.8477
c26.7217 -6.38184 58.4297 7.13477 80.583 20.5332c37.8652 22.9062 70.3906 56.4619 100.826 88.2227c66.8828 69.8027 123.068 148.647 168.439 233.95c7.22949 13.5869 47.4795 8.77734 39.5615 -6.2168c-46.8965 -88.7822 -105.626 -171.054 -175.299 -243.429
c-55.1377 -57.2812 -120.89 -120.673 -205.922 -120.173c-79.7695 0.464844 -153.058 48.1318 -170.03 128.472zM320.371 563.08c-40.7324 -23.0244 -72.4697 -57.5811 -102.117 -93.292c-14.3584 -17.29 -31.9131 -38.1709 -48.3438 -61.1123
c88.7354 -27.2275 203.68 -2.94922 220.54 100.65c3.14355 19.3096 3.78516 62.9326 -20.2041 70.6738c-15.7012 5.0625 -37.1475 -9.72559 -49.875 -16.9199z" />
    <glyph glyph-name="E" unicode="&#xca;" horiz-adv-x="471" 
d="M-37.874 -29.625c-16.6367 78.7451 35.6006 152.573 98.3623 201.677c-37.8594 22.9473 -63.0498 61.9785 -59.5059 113.525c3.82031 55.5967 28.9346 101.893 59.4941 145.639c-6.75195 6.39941 -13.0391 13.334 -18.626 21.0107
c-75.9072 104.318 1.08887 281.535 140.894 253.972c31.5664 -6.22266 10.8672 -30.2002 -12.7402 -26.3379c-67.9248 11.1143 -108.187 -68.4727 -109.611 -125.612c-0.806641 -32.2783 8.04785 -63.1436 25.4854 -88.3223c2.1543 2.86133 4.31445 5.72266 6.48047 8.57812
c44.459 58.6875 99.1494 110.646 169.44 136.873c52.9131 19.7451 142.755 32.3438 181.368 -21.5518c39.9316 -55.7324 4.44434 -128.237 -40.7676 -167.687c-52.2354 -45.5713 -125.358 -57.3457 -192.399 -50.3105c-18.9736 1.99023 -38.5127 5.4043 -57.5928 10.6611
c-27.6865 -44.7588 -46.1191 -94.6162 -28.0869 -140.041c4.12695 -10.3965 7.08789 -14.7295 15.5186 -21.4111c-2.08984 1.75391 1.29492 -0.271484 4.46777 -2.1377c0.948242 -0.176758 3.43848 -1.03027 5.78711 -2.0957
c0.954102 -0.176758 1.90234 -0.371094 2.81445 -0.524414c0.400391 -0.0703125 0.676758 -0.0703125 1.03027 -0.111328c0.335938 0.0292969 0.606445 0.0703125 0.995117 0.0878906c-0.105469 -0.0585938 -0.205078 -0.0996094 -0.311523 -0.164062
c1.47754 -0.112305 2.44336 0 2.97949 0.206055c17.3311 0.0351562 41.4795 -5.88086 51.4756 -20.7695c9.58984 -14.2764 2.1543 -29.2295 -12.2334 -36.8418c-82.0947 -43.4404 -170.354 -144.556 -116.452 -244.823c9.63086 -17.9199 21.9639 -39.6846 43.5752 -44.8477
c26.7217 -6.38184 58.4297 7.13477 80.583 20.5332c37.8652 22.9062 70.3906 56.4619 100.826 88.2227c66.8828 69.8027 123.068 148.647 168.439 233.95c7.22949 13.5869 47.4795 8.77734 39.5615 -6.2168c-46.8965 -88.7822 -105.626 -171.054 -175.299 -243.429
c-55.1377 -57.2812 -120.89 -120.673 -205.922 -120.173c-79.7695 0.464844 -153.058 48.1318 -170.03 128.472zM320.371 563.08c-40.7324 -23.0244 -72.4697 -57.5811 -102.117 -93.292c-14.3584 -17.29 -31.9131 -38.1709 -48.3438 -61.1123
c88.7354 -27.2275 203.68 -2.94922 220.54 100.65c3.14355 19.3096 3.78516 62.9326 -20.2041 70.6738c-15.7012 5.0625 -37.1475 -9.72559 -49.875 -16.9199z" />
    <glyph glyph-name="E" unicode="&#xc9;" horiz-adv-x="471" 
d="M-37.874 -29.625c-16.6367 78.7451 35.6006 152.573 98.3623 201.677c-37.8594 22.9473 -63.0498 61.9785 -59.5059 113.525c3.82031 55.5967 28.9346 101.893 59.4941 145.639c-6.75195 6.39941 -13.0391 13.334 -18.626 21.0107
c-75.9072 104.318 1.08887 281.535 140.894 253.972c31.5664 -6.22266 10.8672 -30.2002 -12.7402 -26.3379c-67.9248 11.1143 -108.187 -68.4727 -109.611 -125.612c-0.806641 -32.2783 8.04785 -63.1436 25.4854 -88.3223c2.1543 2.86133 4.31445 5.72266 6.48047 8.57812
c44.459 58.6875 99.1494 110.646 169.44 136.873c52.9131 19.7451 142.755 32.3438 181.368 -21.5518c39.9316 -55.7324 4.44434 -128.237 -40.7676 -167.687c-52.2354 -45.5713 -125.358 -57.3457 -192.399 -50.3105c-18.9736 1.99023 -38.5127 5.4043 -57.5928 10.6611
c-27.6865 -44.7588 -46.1191 -94.6162 -28.0869 -140.041c4.12695 -10.3965 7.08789 -14.7295 15.5186 -21.4111c-2.08984 1.75391 1.29492 -0.271484 4.46777 -2.1377c0.948242 -0.176758 3.43848 -1.03027 5.78711 -2.0957
c0.954102 -0.176758 1.90234 -0.371094 2.81445 -0.524414c0.400391 -0.0703125 0.676758 -0.0703125 1.03027 -0.111328c0.335938 0.0292969 0.606445 0.0703125 0.995117 0.0878906c-0.105469 -0.0585938 -0.205078 -0.0996094 -0.311523 -0.164062
c1.47754 -0.112305 2.44336 0 2.97949 0.206055c17.3311 0.0351562 41.4795 -5.88086 51.4756 -20.7695c9.58984 -14.2764 2.1543 -29.2295 -12.2334 -36.8418c-82.0947 -43.4404 -170.354 -144.556 -116.452 -244.823c9.63086 -17.9199 21.9639 -39.6846 43.5752 -44.8477
c26.7217 -6.38184 58.4297 7.13477 80.583 20.5332c37.8652 22.9062 70.3906 56.4619 100.826 88.2227c66.8828 69.8027 123.068 148.647 168.439 233.95c7.22949 13.5869 47.4795 8.77734 39.5615 -6.2168c-46.8965 -88.7822 -105.626 -171.054 -175.299 -243.429
c-55.1377 -57.2812 -120.89 -120.673 -205.922 -120.173c-79.7695 0.464844 -153.058 48.1318 -170.03 128.472zM320.371 563.08c-40.7324 -23.0244 -72.4697 -57.5811 -102.117 -93.292c-14.3584 -17.29 -31.9131 -38.1709 -48.3438 -61.1123
c88.7354 -27.2275 203.68 -2.94922 220.54 100.65c3.14355 19.3096 3.78516 62.9326 -20.2041 70.6738c-15.7012 5.0625 -37.1475 -9.72559 -49.875 -16.9199z" />
    <glyph glyph-name="F" unicode="F" horiz-adv-x="474" 
d="M40.2305 50.8682c-8.90137 100.98 12.7275 204.853 49.1504 298.868c1.84277 4.74512 3.72656 9.50195 5.64551 14.2529c-64.3213 20.3809 -116.904 65.1396 -131.963 135.637c-17.7725 83.207 24.585 163.7 89.9727 213.558
c8.63086 6.57617 21.5176 8.83105 31.8438 4.75684c6.40527 -2.53125 17.3203 -11.2617 8.34863 -18.1494c-56.5625 -43.458 -94.8457 -109.758 -85.6855 -182.834c7.73535 -61.749 46.7725 -104.318 99.3027 -125.012c30.5068 69.1074 70.9326 135.625 131.799 180.984
c63.085 47.0078 198.604 100.256 257.346 19.9102c58.5645 -80.1045 -37.1943 -157.872 -101.039 -191.84c-51.6172 -27.4629 -109.893 -44.7822 -168.84 -49.5215c-5.76367 -13.7695 -11.1973 -27.6748 -16.2715 -41.6855
c-25.5615 -70.5859 -40.5439 -142.002 -45.8066 -216.873c-0.954102 -13.5811 -1.43066 -27.2158 -1.60742 -40.8623c100.133 53.1006 209.172 91.3428 296.294 165.566c11.0439 9.41309 50.2578 0.894531 35.4229 -11.8037
c-87.7754 -75.1299 -196.444 -114.673 -297.289 -168.162c63.9805 1.72461 135.949 -11.5215 151.732 -74.2891c10.8086 -43.0049 -13.5986 -90.0957 -48.4141 -115.01c-35.9697 -25.7383 -77.6562 -23.8545 -118.683 -13.5342
c-46.9961 11.8213 -78.0439 38.5664 -104.029 78.7217c-25.5908 39.543 -33.1436 90.9961 -37.2295 137.321zM309.103 -54.1025c-3.90918 70.2324 -88.3457 71.8564 -145.927 65.0156c0.388672 -7.28223 0.835938 -14.5645 1.5127 -21.8174
c2.71387 -29.2236 5.59863 -63.4629 18.9092 -89.9541c18.5908 -36.9941 47.9023 -65.9404 88.6172 -32.2314c22.2412 18.415 38.5186 49.7168 36.8877 78.9873zM417.119 578.069c-48.085 1.22461 -96.3008 -62.9678 -120.768 -97.5068
c-22.3291 -31.5137 -41.2207 -65.2871 -57.5156 -100.297c44.5 6.10449 88.0586 20.8691 126.948 42.1982c32.1436 17.6318 70.374 41.0215 86.8105 75.4131c15.4297 32.2783 7.78809 79.0918 -35.4756 80.1924z" />
    <glyph glyph-name="G" unicode="G" horiz-adv-x="546" 
d="M107.656 692.548c-7.71191 -25.0078 -8.77148 -51.0986 -3.76758 -75.6123c35.7344 31.0713 77.3789 54.8018 124.222 66.2988c58.4521 14.3525 187.566 21.8057 196.709 -63.3145c7.42383 -69.1318 -73.8232 -124.199 -132.67 -137.362
c-50.2285 -11.2383 -106.968 -4.88574 -152.634 20.4404c-32.4375 -50.7461 -53.3955 -109.699 -61.7725 -166.762c-4.79785 -32.6611 -5.71582 -66.0703 -0.447266 -98.708c3.18457 -19.7451 9.99023 -57.0625 28.5049 -69.0195
c42.2393 -27.2744 124.039 88.5 145.627 115.852c38.4307 48.7031 73.6348 99.8848 112.837 147.987c18.1611 22.2939 48.5498 72.7041 82.8066 73.2637c13.2812 3.0791 33.1504 -1.24219 30.9248 -11.333c-29.8174 -135.031 -68.2129 -269.768 -125.394 -395.962
c19.3682 8.37695 38.6484 16.9541 57.7402 25.9609c52.7363 24.8789 110.788 51.2646 142.266 102.917c7.99414 13.1162 48.0908 8 39.5605 -6.2168c-26.3213 -43.876 -68.3779 -71.2627 -112.878 -94.4521c-46.9668 -24.4727 -95.5879 -45.625 -144.38 -66.1826
c-44.3115 -92.291 -101.245 -188.361 -183.964 -247.768c-40.3203 -28.958 -90.9961 -47.9727 -141.183 -39.4072c-39.1191 6.67578 -78.2324 35.7227 -65.2158 79.834c14.7705 50.0459 69.002 86.3096 111.554 111.117c53.6602 31.29 111.076 56.21 168.204 80.3818
c24.5137 10.373 49.1445 20.499 73.7285 30.7246c57.0752 118.659 93.8984 248.521 126.024 375.11c-4.25 -5.74609 -8.05273 -10.9912 -11.0078 -14.5293c-15 -17.9375 -29.335 -36.4229 -43.3633 -55.1318c-28.1162 -37.4824 -55.0791 -75.8301 -83.9902 -112.712
c-48.915 -62.3906 -109.64 -140.082 -198.274 -132.646c-85.5625 7.17676 -124.965 94.1104 -126.295 170.96c-1.35449 78.3271 26.9443 160.457 69.4482 225.562c11.2617 17.249 23.7773 33.8154 37.4473 49.3398c-19.9922 47.9326 -16.5068 105.284 9.68457 150.891
c34.7979 60.6016 101.033 95.4707 168.828 103.766c22.2939 2.72559 41.998 -21.1055 12.0098 -24.8262c-67.9834 -8.43066 -130.15 -51.1592 -150.891 -118.46zM188.709 -100.857c34.5566 42.9346 64.1338 89.1641 89.8896 137.62
c-41.1035 -17.2139 -82.1006 -34.6865 -122.215 -54.1133c-47.5615 -23.042 -97.7129 -47.6201 -135.267 -85.6738c-17.8613 -18.1025 -44.8008 -49.3096 -31.4434 -76.8486c13.2285 -27.2686 49.6455 -25.9795 74.1006 -18.7793
c51.0938 15.0352 92.4326 57.416 124.935 97.7949zM260.52 615.876c-39.9609 -19.8213 -73.9346 -49.6992 -101.539 -85.2627c6.13379 -4.3916 12.6445 -8.41211 19.6855 -11.8203c53.749 -26.0439 143.897 -18.5029 161.605 49.0508
c4.98047 19.0029 14.123 56.7803 -9.9375 66.1055c-19.3799 7.51172 -53.1777 -9.81934 -69.8145 -18.0732z" />
    <glyph glyph-name="H" unicode="H" horiz-adv-x="638" 
d="M278.731 564.605c10.6143 -72.5693 -12.4932 -147.136 -42.9404 -217.073c66.1348 35.458 136.097 64.3223 205.723 92.792c2.03125 0.830078 4.05664 1.66016 6.08789 2.49023c16.0771 23.6953 33.3027 46.6191 51.5879 68.6543
c46.4727 56.0029 104.166 114.326 177.606 131.522c22.2998 5.22754 54.8193 6.66406 70.2666 -14.1465c17.7432 -23.8955 -2.84961 -55.8389 -19.2861 -74.3418c-44.9531 -50.6104 -123.98 -76.7842 -184.517 -102.77
c-18.7207 -8.03613 -37.5947 -15.8838 -56.5156 -23.6904c-26.3916 -39.6787 -49.4395 -81.6357 -68.9785 -125.047c-27.5576 -61.2188 -48.2451 -125.664 -60.7197 -191.651c-10.1846 -53.8662 -29.665 -145.586 13.0986 -190.928
c48.4795 -51.3936 128.502 78.4863 153.245 111.495c44.2881 59.082 84.6318 120.984 121.608 184.882c7.72363 13.3516 47.8848 8.22949 39.5605 -6.21777c-48.6973 -84.5205 -103.582 -165.303 -164.684 -241.363c-41.0859 -51.1465 -108.357 -122.45 -177.895 -69.3018
c-58.8994 45.0186 -43.8701 139.264 -32.7852 201.825c13.2754 74.9062 36.1934 148.105 68.1836 217.125c13.0225 28.0986 27.6221 55.4443 43.541 82.001c-71.6807 -29.8887 -142.596 -61.5898 -207.912 -102.717c-9.96094 -20.6631 -20.0156 -40.75 -29.4053 -60.042
c-24.8789 -51.1172 -49.5811 -102.77 -68.3896 -156.488c-19.5508 -55.833 -24.4551 -112.831 -37.748 -169.918c-5.13965 -22.0645 -26.9219 -28.8584 -47.4971 -30.666c-15.3887 -1.35449 -54.9258 1.75391 -60.1006 22.3643
c-26.5977 105.872 32.2549 227.027 80.2051 318.871c51.7295 99.085 119.089 196.969 147.17 306.227c12.7744 49.7158 20.375 117.199 -37.2002 140.135c-44.7412 17.8262 -98.1133 2.79102 -137.774 -20.5215c-45.5654 -26.7861 -92.1611 -76.5195 -92.5908 -132.511
c-0.194336 -25.0312 10.6143 -54.3779 33.8037 -66.9941c31.3428 -17.0488 79.3574 6.36426 107.998 20.2988c13.0049 6.32227 50.1523 -6.00488 29.0117 -16.5371c-46.8135 -23.3242 -108.598 -47.4785 -160.062 -24.5957
c-45.0244 20.0156 -62.3086 70.9912 -51.1289 116.774c42.834 175.398 358.591 230.896 389.433 20.0635zM651.65 600.922c-53.7188 -30.3008 -96.458 -80.0293 -133.464 -128.78c31.6543 13.4932 63.0557 27.5635 93.8271 42.9873
c27.6982 13.8877 57.4922 28.1992 78.3145 51.8594c8.53613 9.69629 34.374 46.7432 5.59863 52.3242c-11.4971 2.22559 -35.4219 -13.3984 -44.2764 -18.3906z" />
    <glyph glyph-name="I" unicode="I" horiz-adv-x="312" 
d="M-40.7012 544.537c42.834 175.404 358.59 230.896 389.426 20.0645c16.4189 -112.242 -47.8086 -229.282 -95.1289 -326.501c-24.8789 -51.1172 -49.5811 -102.77 -68.3896 -156.488c-17.1553 -49.0098 -23.0303 -98.9082 -33.2031 -148.978
c32.791 -1.44238 65.5645 -3.77344 98.2725 -0.0761719c21.3643 2.41406 40.3203 -20.5566 11.5205 -23.8125c-38.6426 -4.36816 -76.7197 -1.55957 -115.292 -0.358398c-6.46973 -19.4326 -27.0332 -25.6494 -46.5312 -27.3623
c-15.2646 -1.3418 -54.2363 1.73145 -59.9229 21.8887c-14.9766 -2.07227 -29.9004 -4.60938 -44.7529 -7.65918c-20.4336 -4.19727 -37.4473 16.4541 -10.9082 22.5469c16.9072 3.88574 33.8975 7.04688 50.9697 9.52539c-13.3105 99.8555 40.3438 209.943 84.7139 294.935
c51.7295 99.085 119.089 196.969 147.17 306.227c12.7744 49.7158 20.375 117.199 -37.2002 140.135c-44.7412 17.8262 -98.1133 2.79102 -137.774 -20.5215c-45.5654 -26.7861 -92.1611 -76.5195 -92.5908 -132.511c-0.194336 -25.0312 10.6143 -54.3779 33.8037 -66.9941
c31.3428 -17.0488 79.3574 6.36426 107.998 20.2988c13.0049 6.32227 50.1523 -6.00488 29.0117 -16.5371c-46.8135 -23.3242 -108.598 -47.4785 -160.062 -24.5957c-45.0244 20.0156 -62.3086 70.9912 -51.1289 116.774z" />
    <glyph glyph-name="I" unicode="&#xcf;" horiz-adv-x="312" 
d="M-40.7012 544.537c42.834 175.404 358.59 230.896 389.426 20.0645c16.4189 -112.242 -47.8086 -229.282 -95.1289 -326.501c-24.8789 -51.1172 -49.5811 -102.77 -68.3896 -156.488c-17.1553 -49.0098 -23.0303 -98.9082 -33.2031 -148.978
c32.791 -1.44238 65.5645 -3.77344 98.2725 -0.0761719c21.3643 2.41406 40.3203 -20.5566 11.5205 -23.8125c-38.6426 -4.36816 -76.7197 -1.55957 -115.292 -0.358398c-6.46973 -19.4326 -27.0332 -25.6494 -46.5312 -27.3623
c-15.2646 -1.3418 -54.2363 1.73145 -59.9229 21.8887c-14.9766 -2.07227 -29.9004 -4.60938 -44.7529 -7.65918c-20.4336 -4.19727 -37.4473 16.4541 -10.9082 22.5469c16.9072 3.88574 33.8975 7.04688 50.9697 9.52539c-13.3105 99.8555 40.3438 209.943 84.7139 294.935
c51.7295 99.085 119.089 196.969 147.17 306.227c12.7744 49.7158 20.375 117.199 -37.2002 140.135c-44.7412 17.8262 -98.1133 2.79102 -137.774 -20.5215c-45.5654 -26.7861 -92.1611 -76.5195 -92.5908 -132.511c-0.194336 -25.0312 10.6143 -54.3779 33.8037 -66.9941
c31.3428 -17.0488 79.3574 6.36426 107.998 20.2988c13.0049 6.32227 50.1523 -6.00488 29.0117 -16.5371c-46.8135 -23.3242 -108.598 -47.4785 -160.062 -24.5957c-45.0244 20.0156 -62.3086 70.9912 -51.1289 116.774z" />
    <glyph glyph-name="I" unicode="&#xce;" horiz-adv-x="312" 
d="M-40.7012 544.537c42.834 175.404 358.59 230.896 389.426 20.0645c16.4189 -112.242 -47.8086 -229.282 -95.1289 -326.501c-24.8789 -51.1172 -49.5811 -102.77 -68.3896 -156.488c-17.1553 -49.0098 -23.0303 -98.9082 -33.2031 -148.978
c32.791 -1.44238 65.5645 -3.77344 98.2725 -0.0761719c21.3643 2.41406 40.3203 -20.5566 11.5205 -23.8125c-38.6426 -4.36816 -76.7197 -1.55957 -115.292 -0.358398c-6.46973 -19.4326 -27.0332 -25.6494 -46.5312 -27.3623
c-15.2646 -1.3418 -54.2363 1.73145 -59.9229 21.8887c-14.9766 -2.07227 -29.9004 -4.60938 -44.7529 -7.65918c-20.4336 -4.19727 -37.4473 16.4541 -10.9082 22.5469c16.9072 3.88574 33.8975 7.04688 50.9697 9.52539c-13.3105 99.8555 40.3438 209.943 84.7139 294.935
c51.7295 99.085 119.089 196.969 147.17 306.227c12.7744 49.7158 20.375 117.199 -37.2002 140.135c-44.7412 17.8262 -98.1133 2.79102 -137.774 -20.5215c-45.5654 -26.7861 -92.1611 -76.5195 -92.5908 -132.511c-0.194336 -25.0312 10.6143 -54.3779 33.8037 -66.9941
c31.3428 -17.0488 79.3574 6.36426 107.998 20.2988c13.0049 6.32227 50.1523 -6.00488 29.0117 -16.5371c-46.8135 -23.3242 -108.598 -47.4785 -160.062 -24.5957c-45.0244 20.0156 -62.3086 70.9912 -51.1289 116.774z" />
    <glyph glyph-name="I" unicode="&#xcd;" horiz-adv-x="312" 
d="M-40.7012 544.537c42.834 175.404 358.59 230.896 389.426 20.0645c16.4189 -112.242 -47.8086 -229.282 -95.1289 -326.501c-24.8789 -51.1172 -49.5811 -102.77 -68.3896 -156.488c-17.1553 -49.0098 -23.0303 -98.9082 -33.2031 -148.978
c32.791 -1.44238 65.5645 -3.77344 98.2725 -0.0761719c21.3643 2.41406 40.3203 -20.5566 11.5205 -23.8125c-38.6426 -4.36816 -76.7197 -1.55957 -115.292 -0.358398c-6.46973 -19.4326 -27.0332 -25.6494 -46.5312 -27.3623
c-15.2646 -1.3418 -54.2363 1.73145 -59.9229 21.8887c-14.9766 -2.07227 -29.9004 -4.60938 -44.7529 -7.65918c-20.4336 -4.19727 -37.4473 16.4541 -10.9082 22.5469c16.9072 3.88574 33.8975 7.04688 50.9697 9.52539c-13.3105 99.8555 40.3438 209.943 84.7139 294.935
c51.7295 99.085 119.089 196.969 147.17 306.227c12.7744 49.7158 20.375 117.199 -37.2002 140.135c-44.7412 17.8262 -98.1133 2.79102 -137.774 -20.5215c-45.5654 -26.7861 -92.1611 -76.5195 -92.5908 -132.511c-0.194336 -25.0312 10.6143 -54.3779 33.8037 -66.9941
c31.3428 -17.0488 79.3574 6.36426 107.998 20.2988c13.0049 6.32227 50.1523 -6.00488 29.0117 -16.5371c-46.8135 -23.3242 -108.598 -47.4785 -160.062 -24.5957c-45.0244 20.0156 -62.3086 70.9912 -51.1289 116.774z" />
    <glyph glyph-name="J" unicode="J" horiz-adv-x="568" 
d="M349.973 607.91c0.929688 4.54492 3.65625 8.43359 7.49414 11.6064c-78.3623 -9.06055 -158.461 -17.5498 -231.967 -47.915c-33.6211 -13.8877 -66.2412 -33.3506 -89.5771 -61.7441c-13.252 -16.125 -24.6025 -36.2705 -27.252 -57.2812
c-2.60254 -20.5752 4.98535 -57.3398 32.4131 -58.0938c24.8613 -0.682617 24.9316 -23.7539 0 -23.3828c-78.0498 1.16016 -90.4951 82.6309 -52.8184 137.986c39.1191 57.4746 108.681 86.5156 173.391 104.076c82.7129 22.4473 168.439 27.4277 252.995 39.1309
c39.3604 5.45117 79.7686 11.3975 116.15 28.2051c19.2627 8.90137 45.707 23.2832 55.3555 43.6699c11.0029 23.248 -9.36035 39.9199 -25.8555 52.5537c-14.665 11.2266 21.9873 21.6934 32.2129 14.1699c20.9346 -15.3945 46.0605 -35.5225 38.2129 -64.9521
c-7.46484 -27.9873 -38.6836 -47.9502 -62.8672 -60.3252c-48.668 -24.8965 -104.206 -33.7451 -158.791 -40.209c5.58691 -2.63184 9.97266 -6.54688 11.915 -12.0156c28.2637 -79.5518 22.9951 -167.846 11.9746 -250.246
c-9.91406 -74.1182 -27.3984 -149.148 -50.7109 -220.229c-0.676758 -2.06641 -1.44824 -4.0918 -2.14258 -6.15234c55.373 20.5166 110.346 42.1396 164.854 64.9111c17.7139 7.40039 51.04 -11.0088 23.2588 -22.6826
c-66.5938 -27.9814 -133.859 -54.3027 -201.749 -78.8984c-43.8584 -107.521 -116.646 -199.658 -226.15 -247.29c-62.0615 -26.998 -126.201 -37.041 -193.702 -34.916c-46.0244 1.44824 -115.114 7.79492 -128.825 62.4268
c-14.0283 55.8857 57.6992 87.2402 97.7012 104.195c65.8057 27.8926 135.508 44.877 203.851 65.1934c34.0098 10.1084 67.8721 20.6992 101.604 31.6787c25.249 50.6992 43.6992 105.248 59.1699 159.026c16.8193 58.4521 30.9248 118.105 41.1855 178.07
c10.7617 62.9092 15.8242 127.007 28.6699 189.433zM138.188 -37.8115c24.3076 24.6729 44.7627 52.3018 62.3652 81.7607c-11.8506 -3.73828 -23.7012 -7.48828 -35.5869 -11.1201c-58.5166 -17.8672 -117.981 -32.9795 -175.792 -53.0898
c-34.6865 -12.0625 -142.337 -43.2168 -118.877 -99.0078c21.7354 -51.6943 108.77 -16.8848 144.263 -2.8623c47.4551 18.75 87.9053 48.0615 123.628 84.3193z" />
    <glyph glyph-name="K" unicode="K" horiz-adv-x="711" 
d="M-40.7012 544.537c42.834 175.404 358.594 230.897 389.436 20.0771c6.73438 -46.0547 -0.118164 -92.9033 -13.7939 -138.869c5.94629 3.22656 10.9736 5.94043 14.1055 8.00098c85.75 56.4092 168.675 115.479 240.702 189.073
c10.2373 10.4609 50.3281 3.49023 36.2168 -12.0693c-64.8223 -71.5039 -144.621 -127.431 -224.632 -180.573c-18.4385 -12.251 -36.9766 -24.3486 -55.4854 -36.4873c-8.23633 -5.4043 -20.1455 -11.1143 -13.9521 -19.1973
c4.20898 -5.49219 19.6094 -9.99023 26.1025 -14.252c27.7695 -18.2207 45.2188 -44.0879 47.874 -77.6084c6.70508 -84.6787 -52.3711 -162.493 -62.1201 -245.276c-2.82031 -23.9307 -4.16797 -55.6738 24.502 -62.126c23.165 -5.21582 50.3926 12.8691 70.0791 24.0371
c34.9863 19.8506 67.0059 44.2822 98.1426 69.6377c59.8242 48.7148 117.476 100.65 186.495 136.29c13.9404 7.19434 53.3125 -6.10449 30.959 -17.6494c-92.7324 -47.8848 -163.742 -125.935 -249.522 -183.992c-34.9863 -23.6836 -76.5957 -49.9043 -119.494 -54.6084
c-32.6143 -3.5791 -71.0332 7.20605 -82.6895 41.2451c-13.4814 39.3545 5.15723 91.043 17.708 128.426c16.2188 48.2969 40.9971 98.1191 42.498 149.86c0.824219 28.3047 -7.73535 52.7178 -30.4238 70.2842c-6.87598 5.32812 -15.7598 9.08398 -24.3135 13.1523
c-17.1016 -39.7959 -36.7285 -78.1436 -54.0898 -113.813c-24.8789 -51.1172 -49.5811 -102.77 -68.3896 -156.488c-19.5508 -55.833 -24.4551 -112.831 -37.748 -169.918c-5.13965 -22.0645 -26.9219 -28.8584 -47.4971 -30.666
c-15.3887 -1.35449 -54.9258 1.75391 -60.1006 22.3643c-26.5977 105.872 32.2607 227.027 80.2051 318.871c51.7295 99.085 119.089 196.969 147.17 306.227c12.7744 49.7158 20.375 117.199 -37.2002 140.135c-44.7412 17.8262 -98.1133 2.79102 -137.774 -20.5215
c-45.5654 -26.7861 -92.1611 -76.5195 -92.5908 -132.511c-0.194336 -25.0312 10.6143 -54.3779 33.8037 -66.9941c31.3428 -17.0488 79.3574 6.36426 107.998 20.2988c13.0049 6.32227 50.1523 -6.00488 29.0117 -16.5371
c-46.8135 -23.3242 -108.598 -47.4785 -160.062 -24.5957c-45.0244 20.0156 -62.3086 70.9912 -51.1289 116.774z" />
    <glyph glyph-name="L" unicode="L" horiz-adv-x="506" 
d="M173.657 42.373c32.8496 19.8447 69.6562 33.8965 106.221 47.7188c84.2725 31.8428 165.755 69.3135 240.484 120.019c12.6045 8.54785 49.71 -2.40234 29.6592 -16.9082c-64.4277 -46.5957 -136.056 -80.8994 -209.661 -110.405
c-60.583 -24.2842 -131.145 -42.8867 -177.405 -91.3076c-4.89844 -26.5029 -9.28418 -53.1357 -15.4893 -79.7861c-5.13965 -22.0645 -26.9219 -28.8584 -47.4971 -30.666c-15.3887 -1.35449 -54.9258 1.75391 -60.1006 22.3643
c-26.5977 105.872 32.2607 227.027 80.2051 318.871c51.7295 99.085 119.089 196.969 147.17 306.227c12.7744 49.7158 20.375 117.199 -37.2002 140.135c-44.7412 17.8262 -98.1133 2.79102 -137.774 -20.5215c-45.5654 -26.7861 -92.1611 -76.5195 -92.5908 -132.511
c-0.194336 -25.0312 10.6143 -54.3779 33.8037 -66.9941c31.3428 -17.0488 79.3574 6.36426 107.998 20.2988c13.0049 6.32227 50.1523 -6.00488 29.0117 -16.5371c-46.8135 -23.3242 -108.598 -47.4785 -160.062 -24.5957
c-45.0244 20.0156 -62.3086 70.9912 -51.1289 116.774c42.834 175.398 358.591 230.896 389.433 20.0635c16.4189 -112.242 -47.8086 -229.282 -95.1289 -326.501c-24.8789 -51.1172 -49.5811 -102.77 -68.3896 -156.488
c-4.55664 -13.0225 -8.30078 -26.1152 -11.5566 -39.249z" />
    <glyph glyph-name="M" unicode="M" horiz-adv-x="822" 
d="M348.731 564.605c16.4189 -112.242 -47.8145 -229.28 -95.1523 -326.511c-24.0898 -49.498 -47.9678 -99.5146 -66.5352 -151.409c69.832 145.021 133.965 293.852 240.473 416.119c24.8672 28.5459 52.583 62.167 88.0938 77.5908
c22.1055 9.60156 61.207 13.6582 70.5029 -15.665c9.73145 -30.6953 -12.6631 -77.2676 -23.625 -105.396c-15.8887 -40.7793 -35.2979 -80.2461 -48.4727 -122.056c-7.08203 -22.4707 -12.7988 -46.0781 -13.3047 -69.7324
c0.318359 -1.71289 0.642578 -3.41992 0.960938 -5.13281c1.64844 3.14941 4.875 8.14746 4.88672 8.16504c5.32812 7.90039 13.1582 14.8828 19.3164 22.1943c28.5049 33.8447 54.5254 69.6729 81.2822 104.877c45.624 60.0303 101.663 140.724 175.451 168.01
c24.4902 9.05469 57.5635 5.38086 65.7578 -23.4893c9.58984 -33.7861 -17.8027 -86.0928 -30.96 -115.692c-38.0947 -85.709 -91.249 -164.077 -132.959 -248.044c-21.1699 -42.6104 -41.6152 -86.3926 -56.6738 -131.593
c-5.11621 -15.3652 -10.6621 -32.1553 -10.9443 -48.5918c-0.223633 -13.1221 -0.947266 -12.998 8.7666 -6.02148c15.1416 10.873 27.7871 28.7871 39.8496 42.9512c50.3516 59.1406 94.7217 123.728 163.094 163.741c12.8281 7.50586 49.5576 -4.46289 29.0117 -16.5371
c-78.874 -46.3604 -123.874 -128.673 -186.317 -192.665c-19.9688 -20.4629 -52.082 -46.6719 -82.6064 -29.1055c-33.6738 19.3799 -3.8623 86.9336 5.89258 112.684c33.7441 89.083 80.1924 172.255 127.183 254.85c22 38.6719 43.7168 77.6914 60.7422 118.865
c8.79492 21.2754 16.8779 43.2754 21.8818 65.7812c1.64844 7.40625 6.53418 26.292 -1.8252 29.6943c-6.19336 2.51953 -25.7383 -13.8877 -30.4121 -17.4668c-67.1475 -51.3467 -115.892 -124.223 -166.655 -190.646
c-23.0479 -30.1533 -47.291 -68.6309 -77.9629 -91.3662c-18.6973 -13.8584 -53.5312 -17.2607 -65.6582 7.45898c-13.6104 27.7334 5.36914 75.6953 14.4355 102.387c13.5811 40.002 32.2842 77.9971 47.3906 117.405c8.25391 21.541 15.8486 43.6406 20.1641 66.3408
c1.60156 8.41797 6.34082 22.3291 -6.46387 23.2061c-7.10547 0.488281 -20.1396 -14.1523 -25.208 -18.6855c-32.3379 -28.917 -60.8486 -63.1025 -86.7812 -97.7598c-113.772 -152.067 -176.01 -334.53 -268.524 -498.943
c-0.742188 -1.3125 -1.86621 -2.40137 -3.15527 -3.37305c-1.90137 -9.77832 -3.92676 -19.5625 -6.20508 -29.3467c-5.13965 -22.0645 -26.9219 -28.8584 -47.4971 -30.666c-15.3887 -1.35449 -54.9199 1.75391 -60.1006 22.3643
c-26.5977 105.872 32.2549 227.027 80.2051 318.871c51.7295 99.085 119.089 196.969 147.17 306.227c12.7744 49.7158 20.375 117.199 -37.2002 140.135c-44.7412 17.8262 -98.1133 2.79102 -137.774 -20.5215c-45.5654 -26.7861 -92.1611 -76.5195 -92.5908 -132.511
c-0.194336 -25.0312 10.6143 -54.3779 33.8037 -66.9941c31.3428 -17.0488 79.3574 6.36426 107.998 20.2988c13.0049 6.32227 50.1523 -6.00488 29.0117 -16.5371c-46.8135 -23.3242 -108.598 -47.4785 -160.062 -24.5957
c-45.0244 20.0156 -62.3086 70.9912 -51.1289 116.774c42.834 175.398 358.591 230.896 389.433 20.0635z" />
    <glyph glyph-name="N" unicode="N" horiz-adv-x="693" 
d="M348.731 564.605c16.4189 -112.242 -47.8047 -229.286 -95.1133 -326.522c-19.0332 -39.0957 -37.9365 -78.5156 -54.1963 -118.924c52.7773 87.5986 106.614 174.604 164.178 258.965c36.7998 53.9248 76.002 107.091 121.55 154.028
c38.8193 40.002 88.2588 83.207 144.433 94.8809c52 10.8027 87.6455 -16.2773 73.3867 -70.4971c-15.9951 -60.8252 -58.2578 -117.688 -91.5547 -170.254c-33.627 -53.0889 -68.2666 -105.637 -98.3555 -160.863c-29.2119 -53.6133 -62.5439 -116.834 -69.626 -178.359
c-2.125 -18.4443 -3.83203 -53.5547 23.46 -37.0361c11.5029 6.96484 21.5107 19.375 31.1953 28.7412c21.5527 20.8457 42.1689 42.6338 63.25 63.9512c41.668 42.1338 85.5146 81.9238 138.315 109.64c13.7695 7.22949 52.7119 -5.88086 30.6357 -17.4609
c-61.8311 -32.4434 -109.793 -82.3066 -158.072 -131.693c-32.1904 -32.9258 -84.085 -104.883 -138.163 -87.5215c-51.0049 16.3721 -33.3086 84.0498 -21.5703 121.503c18.6504 59.5234 46.9727 115.462 78.4033 169.157c31.8252 54.3604 66.9941 106.649 100.091 160.228
c17.4668 28.2754 34.7744 56.8389 49.9863 86.4033c7.0293 13.6641 39.5605 73.9648 19.0498 87.54c-13.04 8.63086 -36.7002 -3.44922 -47.8857 -9.31836c-5.95215 -3.12012 -11.8096 -6.75195 -17.4492 -10.3604c-14.123 -9.03613 -27.3867 -19.291 -40.0381 -30.2705
c-22.6416 -19.6445 -43.1934 -41.5322 -62.7207 -64.2324c-45.6123 -53.0303 -85.2021 -110.8 -123.162 -169.452c-71.9336 -111.136 -140.1 -224.69 -208.147 -338.239c-4.01465 -22.2588 -7.93555 -44.5938 -13.1396 -66.9404
c-5.13965 -22.0645 -26.9219 -28.8584 -47.4971 -30.666c-15.3887 -1.35449 -54.9199 1.75391 -60.1006 22.3643c-26.5977 105.872 32.2549 227.027 80.2051 318.871c51.7295 99.085 119.089 196.969 147.17 306.227c12.7744 49.7158 20.375 117.199 -37.2002 140.135
c-44.7412 17.8262 -98.1133 2.79102 -137.774 -20.5215c-45.5654 -26.7861 -92.1611 -76.5195 -92.5908 -132.511c-0.194336 -25.0312 10.6143 -54.3779 33.8037 -66.9941c31.3428 -17.0488 79.3574 6.36426 107.998 20.2988
c12.999 6.32227 50.1465 -6.00488 29.0059 -16.5371c-46.8135 -23.3242 -108.598 -47.4785 -160.062 -24.5957c-45.0244 20.0156 -62.3086 70.9912 -51.1289 116.774c42.834 175.398 358.591 230.896 389.433 20.0635z" />
    <glyph glyph-name="O" unicode="O" horiz-adv-x="579" 
d="M-43.7305 38.0049c11.8389 48.6797 40.8799 92.3564 68.0957 133.689c28.999 44.041 59.7881 86.7988 90.2656 129.769c-10.6787 15.9775 -19.209 33.6797 -24.9258 53.3066c-24.5723 84.3672 1.31348 179.767 58.2354 245.472
c54.5137 62.9326 147.676 91.7676 224.555 52.8779c83.3311 -42.1514 110.823 -142.979 118.041 -229.059c6.40527 -76.4492 -3.82031 -155.518 -27.751 -229.205c46.0127 2.55469 91.4014 12.2861 134.712 31.0889c15.7188 6.82324 45.2715 -9.44824 20.7051 -20.1924
c-51.8057 -22.6533 -107.656 -33.668 -164.019 -35.4756c-5.47461 -14.6943 -11.4385 -29.1592 -17.9971 -43.2646c-37.5654 -80.8057 -97.3896 -153.258 -180.062 -190.128c-75.8838 -33.8447 -170.441 -38.0303 -246.696 -2.48438
c-44.3584 20.6807 -64.9395 55.1787 -53.1592 103.605zM150.123 532.334c-28.5996 -59.7295 -36.4336 -133.26 -10.0889 -194.756c20.5986 29.5234 40.8145 59.3174 59.9062 89.9121c14.8232 23.748 49.0088 28.1631 74.4521 24.0947
c16.6953 -2.67285 56.2734 -18.3555 42.2744 -42.4395c-31.5195 -54.2373 -69.5557 -104.142 -108.128 -153.593c39.4961 -27.498 87.8643 -43.4404 134.301 -52.2236c25.0557 -4.73926 50.293 -7.71777 75.4834 -8.76562c23.3242 70.1855 34.1152 144.957 29.4473 218.757
c-4.95117 78.292 -26.2031 179.514 -102.146 220.193c-81.3408 43.5703 -162.229 -31.6777 -195.502 -101.18zM72.9346 67.3633c-19.9863 -30.9717 -51.2217 -83.4883 -10.7539 -111.04c62.9443 -42.8691 153.946 -15.1299 210.979 24.4902
c64.6514 44.9062 108.039 115.062 135.809 187.46c0.311523 0.8125 0.599609 1.63672 0.905273 2.45508c-36.9062 1.90137 -73.6416 7.43555 -109.217 16.1602c-38.1953 9.36621 -76.8555 23.8604 -110.871 44.6416c-13.1104 -16.7783 -26.1738 -33.5801 -38.9482 -50.5527
c-27.6631 -36.7529 -52.9775 -74.9834 -77.9033 -113.614z" />
    <glyph glyph-name="O" unicode="&#xd6;" horiz-adv-x="579" 
d="M-43.7305 38.0049c11.8389 48.6797 40.8799 92.3564 68.0957 133.689c28.999 44.041 59.7881 86.7988 90.2656 129.769c-10.6787 15.9775 -19.209 33.6797 -24.9258 53.3066c-24.5723 84.3672 1.31348 179.767 58.2354 245.472
c54.5137 62.9326 147.676 91.7676 224.555 52.8779c83.3311 -42.1514 110.823 -142.979 118.041 -229.059c6.40527 -76.4492 -3.82031 -155.518 -27.751 -229.205c46.0127 2.55469 91.4014 12.2861 134.712 31.0889c15.7188 6.82324 45.2715 -9.44824 20.7051 -20.1924
c-51.8057 -22.6533 -107.656 -33.668 -164.019 -35.4756c-5.47461 -14.6943 -11.4385 -29.1592 -17.9971 -43.2646c-37.5654 -80.8057 -97.3896 -153.258 -180.062 -190.128c-75.8838 -33.8447 -170.441 -38.0303 -246.696 -2.48438
c-44.3584 20.6807 -64.9395 55.1787 -53.1592 103.605zM150.123 532.334c-28.5996 -59.7295 -36.4336 -133.26 -10.0889 -194.756c20.5986 29.5234 40.8145 59.3174 59.9062 89.9121c14.8232 23.748 49.0088 28.1631 74.4521 24.0947
c16.6953 -2.67285 56.2734 -18.3555 42.2744 -42.4395c-31.5195 -54.2373 -69.5557 -104.142 -108.128 -153.593c39.4961 -27.498 87.8643 -43.4404 134.301 -52.2236c25.0557 -4.73926 50.293 -7.71777 75.4834 -8.76562c23.3242 70.1855 34.1152 144.957 29.4473 218.757
c-4.95117 78.292 -26.2031 179.514 -102.146 220.193c-81.3408 43.5703 -162.229 -31.6777 -195.502 -101.18zM72.9346 67.3633c-19.9863 -30.9717 -51.2217 -83.4883 -10.7539 -111.04c62.9443 -42.8691 153.946 -15.1299 210.979 24.4902
c64.6514 44.9062 108.039 115.062 135.809 187.46c0.311523 0.8125 0.599609 1.63672 0.905273 2.45508c-36.9062 1.90137 -73.6416 7.43555 -109.217 16.1602c-38.1953 9.36621 -76.8555 23.8604 -110.871 44.6416c-13.1104 -16.7783 -26.1738 -33.5801 -38.9482 -50.5527
c-27.6631 -36.7529 -52.9775 -74.9834 -77.9033 -113.614z" />
    <glyph glyph-name="O" unicode="&#xd5;" horiz-adv-x="579" 
d="M-43.7305 38.0049c11.8389 48.6797 40.8799 92.3564 68.0957 133.689c28.999 44.041 59.7881 86.7988 90.2656 129.769c-10.6787 15.9775 -19.209 33.6797 -24.9258 53.3066c-24.5723 84.3672 1.31348 179.767 58.2354 245.472
c54.5137 62.9326 147.676 91.7676 224.555 52.8779c83.3311 -42.1514 110.823 -142.979 118.041 -229.059c6.40527 -76.4492 -3.82031 -155.518 -27.751 -229.205c46.0127 2.55469 91.4014 12.2861 134.712 31.0889c15.7188 6.82324 45.2715 -9.44824 20.7051 -20.1924
c-51.8057 -22.6533 -107.656 -33.668 -164.019 -35.4756c-5.47461 -14.6943 -11.4385 -29.1592 -17.9971 -43.2646c-37.5654 -80.8057 -97.3896 -153.258 -180.062 -190.128c-75.8838 -33.8447 -170.441 -38.0303 -246.696 -2.48438
c-44.3584 20.6807 -64.9395 55.1787 -53.1592 103.605zM150.123 532.334c-28.5996 -59.7295 -36.4336 -133.26 -10.0889 -194.756c20.5986 29.5234 40.8145 59.3174 59.9062 89.9121c14.8232 23.748 49.0088 28.1631 74.4521 24.0947
c16.6953 -2.67285 56.2734 -18.3555 42.2744 -42.4395c-31.5195 -54.2373 -69.5557 -104.142 -108.128 -153.593c39.4961 -27.498 87.8643 -43.4404 134.301 -52.2236c25.0557 -4.73926 50.293 -7.71777 75.4834 -8.76562c23.3242 70.1855 34.1152 144.957 29.4473 218.757
c-4.95117 78.292 -26.2031 179.514 -102.146 220.193c-81.3408 43.5703 -162.229 -31.6777 -195.502 -101.18zM72.9346 67.3633c-19.9863 -30.9717 -51.2217 -83.4883 -10.7539 -111.04c62.9443 -42.8691 153.946 -15.1299 210.979 24.4902
c64.6514 44.9062 108.039 115.062 135.809 187.46c0.311523 0.8125 0.599609 1.63672 0.905273 2.45508c-36.9062 1.90137 -73.6416 7.43555 -109.217 16.1602c-38.1953 9.36621 -76.8555 23.8604 -110.871 44.6416c-13.1104 -16.7783 -26.1738 -33.5801 -38.9482 -50.5527
c-27.6631 -36.7529 -52.9775 -74.9834 -77.9033 -113.614z" />
    <glyph glyph-name="O" unicode="&#xd4;" horiz-adv-x="579" 
d="M-43.7305 38.0049c11.8389 48.6797 40.8799 92.3564 68.0957 133.689c28.999 44.041 59.7881 86.7988 90.2656 129.769c-10.6787 15.9775 -19.209 33.6797 -24.9258 53.3066c-24.5723 84.3672 1.31348 179.767 58.2354 245.472
c54.5137 62.9326 147.676 91.7676 224.555 52.8779c83.3311 -42.1514 110.823 -142.979 118.041 -229.059c6.40527 -76.4492 -3.82031 -155.518 -27.751 -229.205c46.0127 2.55469 91.4014 12.2861 134.712 31.0889c15.7188 6.82324 45.2715 -9.44824 20.7051 -20.1924
c-51.8057 -22.6533 -107.656 -33.668 -164.019 -35.4756c-5.47461 -14.6943 -11.4385 -29.1592 -17.9971 -43.2646c-37.5654 -80.8057 -97.3896 -153.258 -180.062 -190.128c-75.8838 -33.8447 -170.441 -38.0303 -246.696 -2.48438
c-44.3584 20.6807 -64.9395 55.1787 -53.1592 103.605zM150.123 532.334c-28.5996 -59.7295 -36.4336 -133.26 -10.0889 -194.756c20.5986 29.5234 40.8145 59.3174 59.9062 89.9121c14.8232 23.748 49.0088 28.1631 74.4521 24.0947
c16.6953 -2.67285 56.2734 -18.3555 42.2744 -42.4395c-31.5195 -54.2373 -69.5557 -104.142 -108.128 -153.593c39.4961 -27.498 87.8643 -43.4404 134.301 -52.2236c25.0557 -4.73926 50.293 -7.71777 75.4834 -8.76562c23.3242 70.1855 34.1152 144.957 29.4473 218.757
c-4.95117 78.292 -26.2031 179.514 -102.146 220.193c-81.3408 43.5703 -162.229 -31.6777 -195.502 -101.18zM72.9346 67.3633c-19.9863 -30.9717 -51.2217 -83.4883 -10.7539 -111.04c62.9443 -42.8691 153.946 -15.1299 210.979 24.4902
c64.6514 44.9062 108.039 115.062 135.809 187.46c0.311523 0.8125 0.599609 1.63672 0.905273 2.45508c-36.9062 1.90137 -73.6416 7.43555 -109.217 16.1602c-38.1953 9.36621 -76.8555 23.8604 -110.871 44.6416c-13.1104 -16.7783 -26.1738 -33.5801 -38.9482 -50.5527
c-27.6631 -36.7529 -52.9775 -74.9834 -77.9033 -113.614z" />
    <glyph glyph-name="O" unicode="&#xd3;" horiz-adv-x="579" 
d="M-43.7305 38.0049c11.8389 48.6797 40.8799 92.3564 68.0957 133.689c28.999 44.041 59.7881 86.7988 90.2656 129.769c-10.6787 15.9775 -19.209 33.6797 -24.9258 53.3066c-24.5723 84.3672 1.31348 179.767 58.2354 245.472
c54.5137 62.9326 147.676 91.7676 224.555 52.8779c83.3311 -42.1514 110.823 -142.979 118.041 -229.059c6.40527 -76.4492 -3.82031 -155.518 -27.751 -229.205c46.0127 2.55469 91.4014 12.2861 134.712 31.0889c15.7188 6.82324 45.2715 -9.44824 20.7051 -20.1924
c-51.8057 -22.6533 -107.656 -33.668 -164.019 -35.4756c-5.47461 -14.6943 -11.4385 -29.1592 -17.9971 -43.2646c-37.5654 -80.8057 -97.3896 -153.258 -180.062 -190.128c-75.8838 -33.8447 -170.441 -38.0303 -246.696 -2.48438
c-44.3584 20.6807 -64.9395 55.1787 -53.1592 103.605zM150.123 532.334c-28.5996 -59.7295 -36.4336 -133.26 -10.0889 -194.756c20.5986 29.5234 40.8145 59.3174 59.9062 89.9121c14.8232 23.748 49.0088 28.1631 74.4521 24.0947
c16.6953 -2.67285 56.2734 -18.3555 42.2744 -42.4395c-31.5195 -54.2373 -69.5557 -104.142 -108.128 -153.593c39.4961 -27.498 87.8643 -43.4404 134.301 -52.2236c25.0557 -4.73926 50.293 -7.71777 75.4834 -8.76562c23.3242 70.1855 34.1152 144.957 29.4473 218.757
c-4.95117 78.292 -26.2031 179.514 -102.146 220.193c-81.3408 43.5703 -162.229 -31.6777 -195.502 -101.18zM72.9346 67.3633c-19.9863 -30.9717 -51.2217 -83.4883 -10.7539 -111.04c62.9443 -42.8691 153.946 -15.1299 210.979 24.4902
c64.6514 44.9062 108.039 115.062 135.809 187.46c0.311523 0.8125 0.599609 1.63672 0.905273 2.45508c-36.9062 1.90137 -73.6416 7.43555 -109.217 16.1602c-38.1953 9.36621 -76.8555 23.8604 -110.871 44.6416c-13.1104 -16.7783 -26.1738 -33.5801 -38.9482 -50.5527
c-27.6631 -36.7529 -52.9775 -74.9834 -77.9033 -113.614z" />
    <glyph glyph-name="P" unicode="P" horiz-adv-x="598" 
d="M-40.7012 544.537c42.8398 175.404 358.599 230.9 389.429 20.0625c7.95898 -54.4375 -3.06738 -109.999 -21.918 -163.883c29.4707 63.5566 59.7773 126.777 101.222 183.352c22.4121 30.5889 49.7754 59.5117 88.2295 67.9424
c34.0039 7.45312 73.335 0.0830078 94.9111 -29.2227c51.3936 -69.8027 14.0635 -167.998 -37.8311 -225.927c-42.9463 -47.9443 -102.617 -78.6807 -165.756 -92.4326c9.6543 -5.29199 18.8848 -12.25 27.6855 -21.3105c41.292 -42.5283 97.6016 -104.036 163.236 -71.7285
c7.90625 3.8916 22.4355 6.15234 29.9883 0c6.12793 -4.98633 9.0127 -12.6396 0 -17.0898c-49.4922 -24.4375 -106.22 -18.8096 -153.304 8.9834c-24.7314 14.6055 -45.8779 34.209 -65.3994 55.0898c-10.2373 10.9502 -20.375 24.2256 -33.998 31.1543
c-10.8027 5.49219 -22.9355 6.86426 -35.1455 6.80566c-3.02637 -0.0878906 -6.05273 -0.241211 -9.07324 -0.25293c-4.13867 -0.217773 -8.24219 -0.505859 -12.2803 -0.818359c-6.34668 -12.957 -12.8164 -25.8379 -19.5098 -38.5889
c-44.7354 -85.2207 -96.4707 -167.798 -135.131 -256.127c-5.61621 -29.4941 -10.2666 -59.165 -17.1836 -88.8535c-5.13965 -22.0645 -26.9219 -28.8584 -47.4971 -30.666c-15.3887 -1.35449 -54.9258 1.75391 -60.1006 22.3643
c-26.5977 105.872 32.2549 227.027 80.2051 318.871c51.7295 99.085 119.089 196.969 147.17 306.227c12.7744 49.7158 20.375 117.199 -37.2002 140.135c-44.7471 17.8262 -98.1191 2.79102 -137.78 -20.5215c-45.5654 -26.7861 -92.1611 -76.5195 -92.5908 -132.511
c-0.194336 -25.0312 10.6143 -54.3779 33.8037 -66.9941c31.3428 -17.0488 79.3574 6.36426 107.998 20.2988c13.0049 6.32227 50.1523 -6.00488 29.0117 -16.5371c-46.8135 -23.3242 -108.598 -47.4785 -160.062 -24.5957
c-45.0244 20.0156 -62.3086 70.9912 -51.1289 116.774zM441.813 538.484c-33.6152 -53.9248 -60.6475 -111.652 -87.5566 -169.41c75.6836 12.0918 136.267 56.3916 179.489 124.946c17.7549 28.1572 63.2383 97.8242 29.8115 128.189
c-45.4004 41.2441 -103.718 -54.8145 -121.744 -83.7256z" />
    <glyph glyph-name="Q" unicode="Q" horiz-adv-x="579" 
d="M-43.6982 38.0049c11.8389 48.6797 40.8809 92.3545 68.0967 133.688c28.999 44.041 59.7881 86.7988 90.2656 129.769c-10.6787 15.9775 -19.209 33.6797 -24.9258 53.3066c-24.5723 84.3672 1.31348 179.767 58.2354 245.472
c54.5137 62.9326 147.676 91.7676 224.555 52.8779c83.3311 -42.1514 110.823 -142.979 118.041 -229.059c6.41113 -76.4492 -3.81445 -155.518 -27.7451 -229.205c46.0127 2.55469 91.4014 12.2861 134.712 31.0889c15.7188 6.82324 45.2715 -9.44824 20.7051 -20.1924
c-51.8057 -22.6533 -107.656 -33.668 -164.019 -35.4756c-5.47461 -14.6943 -11.4385 -29.1592 -17.9971 -43.2646c-37.5654 -80.8057 -97.3896 -153.258 -180.062 -190.128c-48.3145 -21.5469 -104.188 -31.0078 -158.102 -25.9092
c65.9697 -45.3301 149.359 -114.031 221.022 -59.9883c7.79395 5.88672 19.6855 8.21777 29.0049 4.33789c5.68066 -2.36621 15.918 -10.2666 7.60547 -16.5361c-59.2529 -44.6826 -135.001 -34.7979 -197.687 -2.44238c-39.6904 20.4873 -74.124 49.4219 -112.343 72.3164
c-26.1973 15.7012 -53.584 26.292 -82.7598 10.8682c-19.5977 -10.3613 -35.1104 -25.0439 -48.6855 -42.3281c-9.37207 -11.9326 -49.7568 -4.53809 -36.6172 12.1992c21.7646 27.7158 51.0059 49.2744 84.9033 59.7705c6.02246 1.86621 11.9092 3.09082 17.7139 3.8623
c-23.5127 20.6514 -32.6787 48.9502 -23.9189 84.9727zM150.156 532.332c-28.5996 -59.7295 -36.4336 -133.26 -10.083 -194.756c20.5986 29.5234 40.8145 59.3174 59.9062 89.9121c14.8232 23.748 49.0088 28.1631 74.4521 24.0947
c16.6953 -2.67285 56.2676 -18.3555 42.2744 -42.4395c-31.5195 -54.2373 -69.5615 -104.142 -108.134 -153.593c39.4961 -27.498 87.8643 -43.4404 134.301 -52.2236c25.0557 -4.73926 50.293 -7.71777 75.4834 -8.76562c23.3242 70.1855 34.1211 144.957 29.4473 218.757
c-4.95703 78.292 -26.2031 179.514 -102.146 220.193c-81.3408 43.5703 -162.229 -31.6777 -195.502 -101.18zM72.9619 67.3613c-19.9805 -30.9717 -51.2217 -83.4883 -10.7539 -111.04c62.9443 -42.8691 153.946 -15.1299 210.979 24.4902
c64.6514 44.9062 108.039 115.062 135.809 187.46c0.311523 0.8125 0.599609 1.63672 0.905273 2.45508c-36.9062 1.90137 -73.6416 7.43555 -109.217 16.1602c-38.1953 9.36621 -76.8555 23.8604 -110.871 44.6416c-13.1104 -16.7783 -26.1738 -33.5801 -38.9482 -50.5527
c-27.6572 -36.7529 -52.9775 -74.9834 -77.9033 -113.614z" />
    <glyph glyph-name="R" unicode="R" horiz-adv-x="659" 
d="M-40.7012 544.537c42.8398 175.404 358.597 230.901 389.421 20.0518c7.95898 -54.4375 -3.06738 -109.999 -21.918 -163.883c29.4707 63.5566 59.7773 126.777 101.222 183.352c22.4121 30.5889 49.7754 59.5117 88.2295 67.9424
c34.0039 7.45312 73.335 0.0830078 94.9111 -29.2227c51.3936 -69.8027 14.0635 -167.998 -37.8311 -225.927c-50.5107 -56.3857 -124.157 -88.9355 -199.364 -98.0664c2.66699 -2.14258 5.20996 -4.55078 7.58203 -7.25879
c20.6689 -23.542 16.9424 -58.9941 14.2344 -87.6934c-7.11133 -75.2832 -37.0996 -157.302 -24.3545 -233.203c3.25 -19.3564 9.62012 -35.0508 38.749 -27.7686c9.44824 2.36035 18.6904 12.2324 25.9551 18.1787c11.2148 9.18359 21.7178 19.3037 31.79 29.7119
c23.4072 24.1777 44.1885 50.7227 64.9229 77.1787c39.5195 50.4346 79.4277 100.751 134.425 135.125c13.4229 8.38867 52.9072 -3.09082 31.2842 -17.832c-59.5234 -40.5791 -100.944 -99.1436 -145.397 -154.605c-36.0107 -44.9355 -84.9854 -110.164 -146.658 -117.864
c-27.3271 -3.4082 -58.7051 4.95703 -72.5986 30.6367c-16.1133 29.7822 -10.0498 71.916 -6.65918 103.836c4.42676 41.6504 13.1455 82.6709 18.9795 124.121c2.94922 20.9287 5.79297 42.1807 5.94043 63.3506c0.0527344 8.05371 -3.41504 56.5918 -19.9932 51.9883
c-4.40332 -1.22461 -11.4033 -2.17285 -17.8672 -1.50781c-4.75098 -9.55469 -9.56641 -19.0684 -14.5176 -28.5049c-44.7354 -85.2207 -96.4707 -167.798 -135.131 -256.127c-5.61621 -29.4941 -10.2666 -59.165 -17.1836 -88.8535
c-5.13965 -22.0645 -26.9219 -28.8584 -47.4971 -30.666c-15.3887 -1.35449 -54.9258 1.75391 -60.1006 22.3643c-26.5977 105.872 32.2549 227.027 80.2051 318.871c51.7295 99.085 119.089 196.969 147.17 306.227c12.7744 49.7158 20.375 117.199 -37.2002 140.135
c-44.7471 17.8262 -98.1191 2.79102 -137.78 -20.5215c-45.5654 -26.7861 -92.1611 -76.5195 -92.5908 -132.511c-0.194336 -25.0312 10.6143 -54.3779 33.8037 -66.9941c31.3428 -17.0488 79.3574 6.36426 107.998 20.2988
c13.0049 6.32227 50.1523 -6.00488 29.0117 -16.5371c-46.8135 -23.3242 -108.598 -47.4785 -160.062 -24.5957c-45.0244 20.0156 -62.3086 70.9912 -51.1289 116.774zM441.812 538.485c-33.6152 -53.9248 -60.6475 -111.652 -87.5566 -169.41
c75.6836 12.0918 136.267 56.3916 179.489 124.946c17.7549 28.1572 63.2383 97.8242 29.8115 128.189c-45.4004 41.2441 -103.718 -54.8145 -121.744 -83.7256z" />
    <glyph glyph-name="S" unicode="S" horiz-adv-x="508" 
d="M64.001 -159.593c-45.8301 61.8848 -7.79297 141.89 36.0479 192.477c3.16113 3.65039 6.5166 7.09473 9.77832 10.6445c-6.39941 6.92285 -12.7637 13.834 -18.9512 20.7803c-29.5059 33.1318 -58.3994 66.876 -82.4248 104.3
c-45.0654 70.1973 -65.0635 152.269 -32.0957 231.731c31.5605 76.0664 96.4414 134.813 164.277 178.472c69.2314 44.5527 152.916 78.9502 236.612 75.8535c66.7881 -2.47266 146.469 -32.2842 166.066 -103.329c16.5488 -59.9766 -13.1924 -126.747 -68.666 -154.569
c-58.8232 -29.5 -130.451 -19.5449 -182.033 19.5918c-8.4541 6.41113 1.98926 14.2061 7.60547 16.5371c9.34863 3.87988 21.1758 1.51953 29.0117 -4.33203c80.4756 -60.1475 190.775 4.79199 175.805 104.501c-7.37598 49.1504 -50.3105 82.5176 -97.1357 91.8545
c-53.1484 10.6025 -108.604 -7.2002 -155.153 -32.0732c-141.748 -75.748 -216.761 -241.339 -134.59 -388.468c18.8154 -33.6797 42.5928 -63.833 66.5996 -93.8271c91.1963 66.7295 203.35 104.689 315.604 112.007c25.2197 1.64844 24.3545 -21.6055 0 -23.3838
c-95.0986 -6.94629 -187.654 -40.1611 -266.376 -93.8213c-9.06055 -6.18164 -18.7451 -13.1104 -28.6475 -20.6689c21.1816 -26.9219 41.4746 -54.4795 57.4756 -85.0859c17.7852 -34.0215 31.0254 -71.333 20.1348 -109.857
c-8.13574 -28.7754 -31.9131 -61.1777 -57.498 -76.8906c-49.2275 -30.2412 -126.283 -19.9268 -161.446 27.5576zM179.794 -40.6572c-13.3809 20.6748 -29.5234 39.7969 -46.2842 58.3701c-35.6396 -42.4688 -58.6816 -92.5264 -41.6094 -144.367
c14.6826 -44.5947 84.8145 -77.8916 116.616 -29.4414c21.6172 32.9316 -10.5615 87.3809 -28.7227 115.438z" />
    <glyph glyph-name="T" unicode="T" horiz-adv-x="446" 
d="M723.552 696.233c28.4932 -37.6475 27.4268 -90.0918 -2.26172 -126.732c-53.6602 -66.2471 -220.628 -70.9277 -251.57 21.1455c-6.43457 19.1621 39.1719 22.8887 44.4404 6.98145c25.4668 -76.8906 158.166 -60.3125 181.249 10.8086
c11.3857 35.0576 -2.39551 76.5557 -33.6143 96.707c-28.8643 18.6387 -65.6055 18.4678 -98.708 16.8545c-123.828 -6.03418 -242.452 -53.9189 -349.366 -114.061c-8.34766 -4.7041 -16.5957 -9.58398 -24.8086 -14.5293
c37.5771 -19.8389 68.3896 -54.4902 81.7588 -94.9404c1.07129 -3.23828 1.9834 -6.47656 2.81934 -9.71484c15.0586 31.6367 30.4707 63.085 46.583 94.1387c20.834 40.1553 142.307 30.8477 120.719 -18.9688c-50.1572 -115.745 -107.715 -229.2 -164.59 -341.778
c-27.6162 -54.667 -54.2314 -109.811 -77.6562 -166.414c-10.7734 -26.0498 -20.8877 -52.0234 -29.3301 -78.9326c-2.89062 -9.21289 -19.2393 -50.6455 -15.8428 -69.6846c16.3184 8.2002 31.9307 23.9365 43.8994 34.415c13.2812 11.627 25.8857 24.0195 38.0186 36.8418
c25.5732 27.0215 48.8271 56.127 71.7393 85.3975c46.8906 59.9062 92.8096 120.872 151.963 169.435c11.5742 9.50195 52.0713 0.530273 36.6182 -12.1973c-68.3955 -56.333 -118.694 -129.196 -173.791 -197.71c-24.084 -29.9473 -49.2451 -59.165 -77.4561 -85.3271
c-23.6484 -21.9287 -55.3379 -52.5947 -87.499 -60.3955c-32.9141 -7.98828 -69.9141 10.1904 -81.0283 42.457c-12.9102 37.4707 0.135742 85.4795 9.2373 122.332c22.5117 91.1367 65.1455 179.413 104.342 264.346c6.49902 14.0938 12.9688 28.2168 19.4326 42.3457
c20.9814 63.3623 35.2041 131.917 -10.6445 188.485c-12.3096 15.1885 -27.0625 26.8799 -43.1104 34.9629c-33.6387 -21.2109 -67.0361 -42.834 -102.335 -61.0957c-23.9189 -12.375 -96.0586 -40.3857 -100.609 9.57129c-3.79688 41.6504 64.8926 75.2773 97.0186 84.8203
c33.168 9.85449 68.8672 10.7373 102.229 2.07715c39.5781 23.6133 80.1631 45.4893 122.155 64.5752c101.027 45.9131 214.865 80.541 327.049 75.5137c45.2363 -2.02539 94.2578 -13.8291 122.951 -51.7295zM111.865 583.559
c0.606445 0.382812 1.21387 0.754883 1.80859 1.12598c-27.6045 2.84961 -56.3096 -4.04395 -81.9062 -22.1641c-9.0127 -6.38184 -34.127 -25.0322 -31.7549 -37.4014c-2.79004 -9.40723 1.18359 -9.58398 11.9277 -0.529297
c3.17871 1.55371 6.35742 3.10156 9.53613 4.64941c6.26367 3.1377 12.4336 6.57617 18.5381 10.002c24.5547 13.7695 48.0791 29.2705 71.8506 44.3174z" />
    <glyph glyph-name="U" unicode="U" horiz-adv-x="635" 
d="M338.01 337.643c27.2861 37.8711 57.4043 86.3662 95.7764 120.122c13.2578 21.9355 27.1748 43.4463 41.5977 64.4863c15.9248 23.2246 47.8203 28.2168 74.1709 24.002c16.8662 -2.69629 55.7676 -18.1494 42.1152 -42.2744
c-37.1592 -65.6816 -77.3379 -129.468 -109.94 -197.657c-31.207 -65.2695 -52.5059 -133.359 -66.6816 -204.187c-5.9873 -29.8945 -20.8047 -78.751 -2.03125 -106.873c18.8447 -28.2344 72.6289 30.165 87.8525 46.5547c51.1758 55.085 94.54 117.093 138.71 177.759
c9.08398 12.4805 50.4346 7.54102 40.8916 -6.42285c-49.9043 -73.0576 -101.057 -153.869 -168.463 -212.245c-52.542 -45.501 -146.27 -64.5752 -183.258 11.291c-37.4355 76.7783 -10.1729 181.715 15.7061 257.746c0.682617 2.01953 1.4248 4.01562 2.125 6.0293
c-44.2705 -64.793 -87.0635 -130.64 -134.796 -192.989c-35.6758 -46.6016 -78.9453 -106.208 -139.971 -119.595c-53.0889 -11.6445 -114.267 25.585 -113.813 83.7549c0.524414 66.9824 39.0254 128.284 75.0713 182.003c36.959 55.0732 77.585 107.845 116.651 161.429
c40.4736 55.5146 77.2207 113.343 109.487 174.003c15.083 28.3574 31.6553 60.7773 31.2607 93.7744c-0.505859 41.9336 -50.1045 53.1777 -84.6787 48.833c-63.127 -7.92969 -118.542 -56.6504 -141.036 -115.103c-12.7686 -33.1738 -17.8545 -77.7803 9.70898 -105.313
c22.7891 -22.7588 56.6396 -22.9062 86.0869 -17.0488c20.6396 4.10938 37.9531 -16.8545 11.0254 -22.8008c-58.6875 -12.957 -140.494 -1.70117 -158.379 66.4297c-17.4609 66.5059 28.3398 138.239 79.8457 176.175c48.7324 35.8994 115.044 53.8662 174.45 37.2939
c63.9336 -17.832 99.4619 -80.9824 94.6758 -144.945c-5.2334 -69.9854 -42.3926 -136.273 -78.6152 -194.685c-38.8018 -62.5732 -84.2559 -120.854 -124.971 -182.191c-21.6406 -32.6025 -41.5918 -66.0996 -61.4844 -99.7852
c-17.3428 -29.376 -35.1865 -60.4238 -40.7969 -94.6748c-0.647461 -4.48047 -0.777344 -8.9668 -0.388672 -13.4707c1.81934 -6.78809 3.23828 -7.88867 4.25684 -3.30273c7 -0.359375 21.8525 10.6377 27.6572 14.6406c13.8877 9.57812 25.832 21.8701 37.1289 34.2979
c26.6914 29.3584 50.5576 61.5605 73.7764 93.6982c47.7852 66.1348 91.5791 135.042 139.275 201.241z" />
    <glyph glyph-name="U" unicode="&#xdc;" horiz-adv-x="635" 
d="M338.01 337.643c27.2861 37.8711 57.4043 86.3662 95.7764 120.122c13.2578 21.9355 27.1748 43.4463 41.5977 64.4863c15.9248 23.2246 47.8203 28.2168 74.1709 24.002c16.8662 -2.69629 55.7676 -18.1494 42.1152 -42.2744
c-37.1592 -65.6816 -77.3379 -129.468 -109.94 -197.657c-31.207 -65.2695 -52.5059 -133.359 -66.6816 -204.187c-5.9873 -29.8945 -20.8047 -78.751 -2.03125 -106.873c18.8447 -28.2344 72.6289 30.165 87.8525 46.5547c51.1758 55.085 94.54 117.093 138.71 177.759
c9.08398 12.4805 50.4346 7.54102 40.8916 -6.42285c-49.9043 -73.0576 -101.057 -153.869 -168.463 -212.245c-52.542 -45.501 -146.27 -64.5752 -183.258 11.291c-37.4355 76.7783 -10.1729 181.715 15.7061 257.746c0.682617 2.01953 1.4248 4.01562 2.125 6.0293
c-44.2705 -64.793 -87.0635 -130.64 -134.796 -192.989c-35.6758 -46.6016 -78.9453 -106.208 -139.971 -119.595c-53.0889 -11.6445 -114.267 25.585 -113.813 83.7549c0.524414 66.9824 39.0254 128.284 75.0713 182.003c36.959 55.0732 77.585 107.845 116.651 161.429
c40.4736 55.5146 77.2207 113.343 109.487 174.003c15.083 28.3574 31.6553 60.7773 31.2607 93.7744c-0.505859 41.9336 -50.1045 53.1777 -84.6787 48.833c-63.127 -7.92969 -118.542 -56.6504 -141.036 -115.103c-12.7686 -33.1738 -17.8545 -77.7803 9.70898 -105.313
c22.7891 -22.7588 56.6396 -22.9062 86.0869 -17.0488c20.6396 4.10938 37.9531 -16.8545 11.0254 -22.8008c-58.6875 -12.957 -140.494 -1.70117 -158.379 66.4297c-17.4609 66.5059 28.3398 138.239 79.8457 176.175c48.7324 35.8994 115.044 53.8662 174.45 37.2939
c63.9336 -17.832 99.4619 -80.9824 94.6758 -144.945c-5.2334 -69.9854 -42.3926 -136.273 -78.6152 -194.685c-38.8018 -62.5732 -84.2559 -120.854 -124.971 -182.191c-21.6406 -32.6025 -41.5918 -66.0996 -61.4844 -99.7852
c-17.3428 -29.376 -35.1865 -60.4238 -40.7969 -94.6748c-0.647461 -4.48047 -0.777344 -8.9668 -0.388672 -13.4707c1.81934 -6.78809 3.23828 -7.88867 4.25684 -3.30273c7 -0.359375 21.8525 10.6377 27.6572 14.6406c13.8877 9.57812 25.832 21.8701 37.1289 34.2979
c26.6914 29.3584 50.5576 61.5605 73.7764 93.6982c47.7852 66.1348 91.5791 135.042 139.275 201.241z" />
    <glyph glyph-name="U" unicode="&#xdb;" horiz-adv-x="635" 
d="M338.01 337.643c27.2861 37.8711 57.4043 86.3662 95.7764 120.122c13.2578 21.9355 27.1748 43.4463 41.5977 64.4863c15.9248 23.2246 47.8203 28.2168 74.1709 24.002c16.8662 -2.69629 55.7676 -18.1494 42.1152 -42.2744
c-37.1592 -65.6816 -77.3379 -129.468 -109.94 -197.657c-31.207 -65.2695 -52.5059 -133.359 -66.6816 -204.187c-5.9873 -29.8945 -20.8047 -78.751 -2.03125 -106.873c18.8447 -28.2344 72.6289 30.165 87.8525 46.5547c51.1758 55.085 94.54 117.093 138.71 177.759
c9.08398 12.4805 50.4346 7.54102 40.8916 -6.42285c-49.9043 -73.0576 -101.057 -153.869 -168.463 -212.245c-52.542 -45.501 -146.27 -64.5752 -183.258 11.291c-37.4355 76.7783 -10.1729 181.715 15.7061 257.746c0.682617 2.01953 1.4248 4.01562 2.125 6.0293
c-44.2705 -64.793 -87.0635 -130.64 -134.796 -192.989c-35.6758 -46.6016 -78.9453 -106.208 -139.971 -119.595c-53.0889 -11.6445 -114.267 25.585 -113.813 83.7549c0.524414 66.9824 39.0254 128.284 75.0713 182.003c36.959 55.0732 77.585 107.845 116.651 161.429
c40.4736 55.5146 77.2207 113.343 109.487 174.003c15.083 28.3574 31.6553 60.7773 31.2607 93.7744c-0.505859 41.9336 -50.1045 53.1777 -84.6787 48.833c-63.127 -7.92969 -118.542 -56.6504 -141.036 -115.103c-12.7686 -33.1738 -17.8545 -77.7803 9.70898 -105.313
c22.7891 -22.7588 56.6396 -22.9062 86.0869 -17.0488c20.6396 4.10938 37.9531 -16.8545 11.0254 -22.8008c-58.6875 -12.957 -140.494 -1.70117 -158.379 66.4297c-17.4609 66.5059 28.3398 138.239 79.8457 176.175c48.7324 35.8994 115.044 53.8662 174.45 37.2939
c63.9336 -17.832 99.4619 -80.9824 94.6758 -144.945c-5.2334 -69.9854 -42.3926 -136.273 -78.6152 -194.685c-38.8018 -62.5732 -84.2559 -120.854 -124.971 -182.191c-21.6406 -32.6025 -41.5918 -66.0996 -61.4844 -99.7852
c-17.3428 -29.376 -35.1865 -60.4238 -40.7969 -94.6748c-0.647461 -4.48047 -0.777344 -8.9668 -0.388672 -13.4707c1.81934 -6.78809 3.23828 -7.88867 4.25684 -3.30273c7 -0.359375 21.8525 10.6377 27.6572 14.6406c13.8877 9.57812 25.832 21.8701 37.1289 34.2979
c26.6914 29.3584 50.5576 61.5605 73.7764 93.6982c47.7852 66.1348 91.5791 135.042 139.275 201.241z" />
    <glyph glyph-name="U" unicode="&#xda;" horiz-adv-x="635" 
d="M338.01 337.643c27.2861 37.8711 57.4043 86.3662 95.7764 120.122c13.2578 21.9355 27.1748 43.4463 41.5977 64.4863c15.9248 23.2246 47.8203 28.2168 74.1709 24.002c16.8662 -2.69629 55.7676 -18.1494 42.1152 -42.2744
c-37.1592 -65.6816 -77.3379 -129.468 -109.94 -197.657c-31.207 -65.2695 -52.5059 -133.359 -66.6816 -204.187c-5.9873 -29.8945 -20.8047 -78.751 -2.03125 -106.873c18.8447 -28.2344 72.6289 30.165 87.8525 46.5547c51.1758 55.085 94.54 117.093 138.71 177.759
c9.08398 12.4805 50.4346 7.54102 40.8916 -6.42285c-49.9043 -73.0576 -101.057 -153.869 -168.463 -212.245c-52.542 -45.501 -146.27 -64.5752 -183.258 11.291c-37.4355 76.7783 -10.1729 181.715 15.7061 257.746c0.682617 2.01953 1.4248 4.01562 2.125 6.0293
c-44.2705 -64.793 -87.0635 -130.64 -134.796 -192.989c-35.6758 -46.6016 -78.9453 -106.208 -139.971 -119.595c-53.0889 -11.6445 -114.267 25.585 -113.813 83.7549c0.524414 66.9824 39.0254 128.284 75.0713 182.003c36.959 55.0732 77.585 107.845 116.651 161.429
c40.4736 55.5146 77.2207 113.343 109.487 174.003c15.083 28.3574 31.6553 60.7773 31.2607 93.7744c-0.505859 41.9336 -50.1045 53.1777 -84.6787 48.833c-63.127 -7.92969 -118.542 -56.6504 -141.036 -115.103c-12.7686 -33.1738 -17.8545 -77.7803 9.70898 -105.313
c22.7891 -22.7588 56.6396 -22.9062 86.0869 -17.0488c20.6396 4.10938 37.9531 -16.8545 11.0254 -22.8008c-58.6875 -12.957 -140.494 -1.70117 -158.379 66.4297c-17.4609 66.5059 28.3398 138.239 79.8457 176.175c48.7324 35.8994 115.044 53.8662 174.45 37.2939
c63.9336 -17.832 99.4619 -80.9824 94.6758 -144.945c-5.2334 -69.9854 -42.3926 -136.273 -78.6152 -194.685c-38.8018 -62.5732 -84.2559 -120.854 -124.971 -182.191c-21.6406 -32.6025 -41.5918 -66.0996 -61.4844 -99.7852
c-17.3428 -29.376 -35.1865 -60.4238 -40.7969 -94.6748c-0.647461 -4.48047 -0.777344 -8.9668 -0.388672 -13.4707c1.81934 -6.78809 3.23828 -7.88867 4.25684 -3.30273c7 -0.359375 21.8525 10.6377 27.6572 14.6406c13.8877 9.57812 25.832 21.8701 37.1289 34.2979
c26.6914 29.3584 50.5576 61.5605 73.7764 93.6982c47.7852 66.1348 91.5791 135.042 139.275 201.241z" />
    <glyph glyph-name="V" unicode="V" horiz-adv-x="589" 
d="M75.3926 -38.7617c-7.71777 -14.0049 -11.6289 -23.293 -8.23242 -34.749c28.458 3.06738 59.2939 26.833 79.751 42.6338c21.0225 16.2305 40.4854 34.4512 59.1943 53.2666c41.4502 41.6924 79.5859 86.6162 115.832 132.864
c22.9775 29.3174 45.5068 59.1592 67.4355 89.4717c-10.832 11.8623 -20.2861 25.3145 -27.9629 40.3555c-47.1787 92.4443 -26.4561 224.803 34.8457 305.791c38.9785 51.4941 136.474 125.041 202.638 75.7783c34.9277 -26.0029 24.9551 -75.8369 13.4102 -111.436
c-17.0254 -52.5068 -45.748 -102.812 -73.2109 -150.461c-31.0361 -53.8545 -65.1045 -106.179 -100.927 -157.243c39.7549 -38.6074 96.5 -55.5566 159.668 -30.7783c16.3721 6.42285 47.2197 -10.7441 21.3994 -20.8701
c-67.0352 -26.291 -144.673 -17.3662 -201.171 23.3662c-20.7988 -28.8643 -42.0625 -57.3574 -63.6973 -85.4268c-60.96 -79.1104 -129.273 -165.361 -218.126 -214.523c-43.958 -24.3252 -85.0381 -35.6934 -128.525 -23.4834
c-22.6123 6.34668 -45.9717 21.9707 -53.8076 45.1602c-7.87109 23.3066 1.71289 47.8789 11.209 69.0371c44.9531 100.15 99.0195 195.956 146.269 295.029c23.7305 49.751 45.0713 100.485 64.6104 151.991c18.209 48.0029 41.3857 107.138 23.6777 158.755
c-20.8457 60.7715 -109.993 53.6191 -152.133 21.8232c-21.293 -16.0654 -36.3457 -39.3369 -41.9561 -65.4346c-5.12793 -23.8779 -0.865234 -83.9902 38.6484 -77.6797c20.5576 3.28516 38.3662 -18.2324 11.0264 -22.8008
c-41.3506 -6.91113 -80.1045 13.6348 -91.502 55.3389c-10.7148 39.2021 4.79785 80.8828 31.8955 109.664c51.2588 54.4316 152.333 66.0176 215.431 26.1094c81.9004 -51.8057 88.0166 -145.986 67.2295 -232.461c-22.6943 -94.416 -60.1709 -181.997 -102.935 -268.896
c-21.8408 -44.3818 -43.7578 -88.7285 -65.8457 -132.987c-11.2559 -22.541 -22.0176 -45.2119 -34.1387 -67.2061zM380.456 377.088c2.44922 -36.2402 14.1055 -70.6201 32.6318 -99.0078c33.3613 47.7852 64.9863 96.7832 93.8154 147.158
c25.4854 44.5234 52.7246 91.7314 66.8359 141.354c6.33398 22.2881 15.8125 61.9668 -3.69141 81.2939c-20.3867 20.1982 -56.3623 0.188477 -75.8428 -11.874c-86.5869 -53.6133 -120.313 -161.676 -113.749 -258.924z" />
    <glyph glyph-name="W" unicode="W" horiz-adv-x="889" 
d="M923.547 215.888c-52.9004 -5.42188 -109.418 -1.09375 -162.189 13.7236c-30.9189 -63.9629 -72.9404 -123.387 -123.781 -173.056c-52.3711 -51.1641 -121.344 -101.669 -197.575 -103.146c-77.3496 -1.49512 -137.944 46.8193 -140.028 126.329
c-0.105469 3.96777 0.000976562 7.94727 0.125 11.9268c-27.4395 -38.5479 -56.9277 -75.4297 -92.3262 -107.525c-39.0664 -35.416 -87.6523 -65.7402 -142.69 -58.4346c-56.2393 7.46484 -104.283 46.7607 -94.8408 107.944
c8.63086 55.9385 46.6611 105.884 77.6211 151.544c34.4033 50.7344 70.0137 100.438 102.698 152.333c32.4727 51.5469 61.8428 107.232 78.1855 166.227c13.9873 50.4873 27.6162 137.174 -31.9902 165.131c-59.1885 27.7578 -141.619 -4.40332 -175.581 -57.4453
c-18.1973 -28.4229 -25.915 -67.7305 -1.06543 -94.9287c26.3096 -28.793 63.0029 -21.7051 92.709 -3.00195c12.5625 7.91211 49.1738 -3.4082 29.0049 -16.5361c-49.0156 -31.9014 -125.105 -37.7178 -164.749 13.0635c-40.8262 52.3008 -1.39453 120.049 44.3125 153.417
c96.1768 70.2148 255.568 49.1338 301.558 -70.3672c24.7021 -64.1865 7.25293 -136.25 -16.79 -198.005c-24.1836 -62.126 -59.0938 -118.171 -95.6465 -173.609c-37.2236 -56.4453 -72.6514 -114.268 -110.54 -170.177
c-13.4814 -19.8926 -50.3398 -71.0215 -17.8086 -90.5781c24.7666 -14.8828 65.8643 23.4238 82.2422 37.8643c69.8789 61.5957 116.976 142.572 169.87 218.769c15.9004 33.6562 35.3984 65.5996 54.2607 94.1455c15.1709 22.959 47.3027 27.6211 72.7578 23.5469
c17.2197 -2.76074 53.8428 -17.4551 41.3096 -41.4746c-33.4854 -64.1689 -74.1709 -125.094 -88.8232 -197.239c-5.03906 -24.8252 -7.30566 -55.7852 5.16309 -78.8389c17.3018 -31.9961 54.166 -26.0381 83.4658 -15.082
c55.9795 20.9404 105.213 73.2939 142.271 118.712c30.3828 37.2354 55.6084 78.7861 75.9365 122.397c-84.5322 34.2803 -153.004 98.7725 -170.347 197.321c-11.5449 65.6172 9.26562 137.851 56.6797 185.177c44.3887 44.3115 118.96 65.9053 171.525 22.2705
c55.9326 -46.4307 50.8936 -132.429 44.6182 -197.739c-6.50488 -67.707 -23.7715 -134.643 -50.8457 -197.104c44.5469 -14.3994 92.9795 -19.2148 140.276 -14.7529c20.3047 1.91895 38.7314 -19.957 11.0273 -22.8008zM608.859 398.61
c24.6309 -59.9121 69.3916 -102.634 123.293 -129.043c22.7119 54.8438 37.6709 112.695 44.1934 171.707c5.93457 53.7012 12.8281 123.026 -17.1543 170.905c-46.4844 74.2236 -123.128 3.29688 -147.947 -51.1172c-23.3301 -51.1465 -23.6895 -110.623 -2.38477 -162.452
z" />
    <glyph glyph-name="X" unicode="X" horiz-adv-x="616" 
d="M329.689 629.469c67.5771 -42.6396 88.8174 -113.311 89.2178 -186.916c31.0479 35.0098 63.3975 68.8428 98.1426 100.197c32.6025 29.418 116.487 117.877 161.617 60.6729c12.8105 -16.2422 -26.3555 -23.1416 -35.4277 -11.8027
c-18.3027 22.8711 -175.463 -147.5 -192.836 -167.292c-11.915 -13.5693 -23.6006 -27.3213 -35.1865 -41.168c-3.46777 -28.3633 -9.00781 -56.168 -15.2129 -81.9648c-16.2305 -67.4717 -39.8672 -133.13 -58.0703 -200.106
c-9.76074 -35.9287 -23.1123 -73.8945 -28.7227 -110.488c-1.32422 -8.67773 -1.85449 -17.2256 0.647461 -25.291c1.5957 0.482422 3.53809 0.935547 6.09277 1.31836c2.73145 1.3125 5.45703 2.61914 8.18848 3.93164c5.35156 2.63184 10.7734 5.4873 15.8721 8.54883
c104.277 62.5439 148.666 195.285 261.614 246.744c9.37207 4.26855 24.4961 6.77637 33.5625 0c7.0293 -5.25684 10.0195 -14.5176 0 -19.1328c-59.0762 -27.2158 -99.667 -82.5947 -139.758 -131.787c-36.1934 -44.418 -73.3408 -87.7344 -119.472 -122.18
c-38.2656 -28.5693 -94.9697 -52.4238 -135.938 -13.5283c-43.2285 41.0322 -40.9092 108.516 -29.3057 161.398c3.99121 18.2207 8.7832 36.2178 13.9873 54.1084c-32.7139 -38.1475 -67.3418 -74.9297 -105.825 -105.625
c-47.7617 -38.0889 -127.102 -54.6494 -167.381 3.1084c-10.1963 14.6289 34.6572 21.4463 44.4414 6.98145c49.4043 -73.04 167.599 82.1836 198.341 117.323c20.7695 23.7422 40.9619 47.9736 60.9131 72.3984c23.2715 68.2363 46.4668 136.443 54.1201 208.73
c5.09863 48.1445 8.57812 108.422 -23.3828 148.684c-40.4502 50.9463 -118.694 26.0557 -159.133 -11.2559c-41.2686 -38.0771 -74.9775 -102.234 -69.5908 -159.557c7.27637 -77.4502 89.6064 -99.7734 154.882 -95.499c20.2217 1.32422 28.6523 -21.1992 5.5166 -23.2246
c-66.0469 -5.78711 -139.971 4.15625 -182.434 61.1016c-40.1318 53.8135 -20.1045 126.995 12.0977 179.726c58.8701 96.4062 180.014 133.942 278.421 71.8457z" />
    <glyph glyph-name="Y" unicode="Y" horiz-adv-x="566" 
d="M608.853 200.693c-80.0518 -62.4199 -175.682 -97.6934 -267.496 -139.167c-37.1943 -79.1514 -79.3691 -157.496 -133.377 -224.185c-29.9004 -36.9121 -72.6162 -78.2158 -123.504 -78.4336c-43.2051 -0.182617 -73.335 33.9502 -63.3857 76.8721
c11.6387 50.2285 57.8867 96.9893 95.7754 129.356c40.4502 34.5449 86.1924 62.4609 133.524 86.4805c15.9131 8.07715 31.9844 15.7656 48.1211 23.2656c48.4502 100.168 89.5303 203.785 129.686 307.715c-42.1396 -65.0518 -83.5605 -130.604 -129.256 -193.259
c-34.3154 -47.0547 -71.3564 -92.2432 -113.384 -132.651c-36.7412 -35.3223 -78.9922 -73.5234 -133.371 -71.5449c-53.7129 1.94824 -98.7129 37.1523 -88.8105 93.6094c10.5557 60.1953 43.4346 110.718 74.8359 161.94c32.2021 52.5244 64.9102 104.536 93.8447 158.968
c27.6396 52.0059 64.2334 115.115 67.7129 175.01c1.81934 31.3486 -0.299805 78.751 -44.2227 72.8408c-28.7109 -3.86816 -57.6631 -24.2666 -77.6143 -44.1113c-35.4395 -35.2578 -85.6562 -132.518 -21.3994 -164.99
c20.1807 -10.1963 -13.0811 -23.501 -24.8555 -18.3613c-62.2852 27.2041 -57.5928 96.2822 -29.4707 148.735c26.8389 50.0576 75.7188 89.3301 131.257 102.44c53.3662 12.5986 107.368 -12.0625 136.55 -58.6992c31.6074 -50.5049 14.5469 -128.443 -1.77148 -181.427
c-18.6445 -60.5361 -47.8916 -117.363 -79.5225 -172.065c-32.5137 -56.2266 -63.9326 -114.132 -101.627 -167.086c-7.48242 -10.5205 -61.043 -75.8604 -15.1299 -72.04c27.1631 2.2666 59.2949 39.7432 78.2334 57.4629c48.2148 45.1064 91.0078 96.1826 129.851 149.489
c72.2275 99.126 132.935 206.069 205.881 304.748c4.31543 10.9678 8.64844 21.9238 13.0225 32.8623c6.47559 16.1895 52.8301 11.6035 45.3242 -7.12305c-53.6074 -133.741 -102.376 -269.467 -160.334 -401.437c-7.71191 -17.5547 -15.5596 -35.3037 -23.584 -53.0947
c74.2705 32.9736 148.459 65.5176 216.283 112.049c9.81348 6.73438 47.2139 -2.47266 32.2139 -14.1699zM151.9 -167.839c36.959 39.6494 64.335 88.3057 90.7441 135.325c11.6094 20.6631 22.7119 41.5684 33.5029 62.6143
c-77.6143 -40.208 -155.971 -93.1143 -198.316 -170.864c-8.90137 -16.3369 -26.5273 -71.251 8.67676 -73.7119c22.6943 -1.58984 51.6582 31.9072 65.3926 46.6367z" />
    <glyph glyph-name="Y" unicode="&#x178;" horiz-adv-x="566" 
d="M608.853 200.693c-80.0518 -62.4199 -175.682 -97.6934 -267.496 -139.167c-37.1943 -79.1514 -79.3691 -157.496 -133.377 -224.185c-29.9004 -36.9121 -72.6162 -78.2158 -123.504 -78.4336c-43.2051 -0.182617 -73.335 33.9502 -63.3857 76.8721
c11.6387 50.2285 57.8867 96.9893 95.7754 129.356c40.4502 34.5449 86.1924 62.4609 133.524 86.4805c15.9131 8.07715 31.9844 15.7656 48.1211 23.2656c48.4502 100.168 89.5303 203.785 129.686 307.715c-42.1396 -65.0518 -83.5605 -130.604 -129.256 -193.259
c-34.3154 -47.0547 -71.3564 -92.2432 -113.384 -132.651c-36.7412 -35.3223 -78.9922 -73.5234 -133.371 -71.5449c-53.7129 1.94824 -98.7129 37.1523 -88.8105 93.6094c10.5557 60.1953 43.4346 110.718 74.8359 161.94c32.2021 52.5244 64.9102 104.536 93.8447 158.968
c27.6396 52.0059 64.2334 115.115 67.7129 175.01c1.81934 31.3486 -0.299805 78.751 -44.2227 72.8408c-28.7109 -3.86816 -57.6631 -24.2666 -77.6143 -44.1113c-35.4395 -35.2578 -85.6562 -132.518 -21.3994 -164.99
c20.1807 -10.1963 -13.0811 -23.501 -24.8555 -18.3613c-62.2852 27.2041 -57.5928 96.2822 -29.4707 148.735c26.8389 50.0576 75.7188 89.3301 131.257 102.44c53.3662 12.5986 107.368 -12.0625 136.55 -58.6992c31.6074 -50.5049 14.5469 -128.443 -1.77148 -181.427
c-18.6445 -60.5361 -47.8916 -117.363 -79.5225 -172.065c-32.5137 -56.2266 -63.9326 -114.132 -101.627 -167.086c-7.48242 -10.5205 -61.043 -75.8604 -15.1299 -72.04c27.1631 2.2666 59.2949 39.7432 78.2334 57.4629c48.2148 45.1064 91.0078 96.1826 129.851 149.489
c72.2275 99.126 132.935 206.069 205.881 304.748c4.31543 10.9678 8.64844 21.9238 13.0225 32.8623c6.47559 16.1895 52.8301 11.6035 45.3242 -7.12305c-53.6074 -133.741 -102.376 -269.467 -160.334 -401.437c-7.71191 -17.5547 -15.5596 -35.3037 -23.584 -53.0947
c74.2705 32.9736 148.459 65.5176 216.283 112.049c9.81348 6.73438 47.2139 -2.47266 32.2139 -14.1699zM151.9 -167.839c36.959 39.6494 64.335 88.3057 90.7441 135.325c11.6094 20.6631 22.7119 41.5684 33.5029 62.6143
c-77.6143 -40.208 -155.971 -93.1143 -198.316 -170.864c-8.90137 -16.3369 -26.5273 -71.251 8.67676 -73.7119c22.6943 -1.58984 51.6582 31.9072 65.3926 46.6367z" />
    <glyph glyph-name="Y" unicode="&#xdd;" horiz-adv-x="566" 
d="M608.853 200.693c-80.0518 -62.4199 -175.682 -97.6934 -267.496 -139.167c-37.1943 -79.1514 -79.3691 -157.496 -133.377 -224.185c-29.9004 -36.9121 -72.6162 -78.2158 -123.504 -78.4336c-43.2051 -0.182617 -73.335 33.9502 -63.3857 76.8721
c11.6387 50.2285 57.8867 96.9893 95.7754 129.356c40.4502 34.5449 86.1924 62.4609 133.524 86.4805c15.9131 8.07715 31.9844 15.7656 48.1211 23.2656c48.4502 100.168 89.5303 203.785 129.686 307.715c-42.1396 -65.0518 -83.5605 -130.604 -129.256 -193.259
c-34.3154 -47.0547 -71.3564 -92.2432 -113.384 -132.651c-36.7412 -35.3223 -78.9922 -73.5234 -133.371 -71.5449c-53.7129 1.94824 -98.7129 37.1523 -88.8105 93.6094c10.5557 60.1953 43.4346 110.718 74.8359 161.94c32.2021 52.5244 64.9102 104.536 93.8447 158.968
c27.6396 52.0059 64.2334 115.115 67.7129 175.01c1.81934 31.3486 -0.299805 78.751 -44.2227 72.8408c-28.7109 -3.86816 -57.6631 -24.2666 -77.6143 -44.1113c-35.4395 -35.2578 -85.6562 -132.518 -21.3994 -164.99
c20.1807 -10.1963 -13.0811 -23.501 -24.8555 -18.3613c-62.2852 27.2041 -57.5928 96.2822 -29.4707 148.735c26.8389 50.0576 75.7188 89.3301 131.257 102.44c53.3662 12.5986 107.368 -12.0625 136.55 -58.6992c31.6074 -50.5049 14.5469 -128.443 -1.77148 -181.427
c-18.6445 -60.5361 -47.8916 -117.363 -79.5225 -172.065c-32.5137 -56.2266 -63.9326 -114.132 -101.627 -167.086c-7.48242 -10.5205 -61.043 -75.8604 -15.1299 -72.04c27.1631 2.2666 59.2949 39.7432 78.2334 57.4629c48.2148 45.1064 91.0078 96.1826 129.851 149.489
c72.2275 99.126 132.935 206.069 205.881 304.748c4.31543 10.9678 8.64844 21.9238 13.0225 32.8623c6.47559 16.1895 52.8301 11.6035 45.3242 -7.12305c-53.6074 -133.741 -102.376 -269.467 -160.334 -401.437c-7.71191 -17.5547 -15.5596 -35.3037 -23.584 -53.0947
c74.2705 32.9736 148.459 65.5176 216.283 112.049c9.81348 6.73438 47.2139 -2.47266 32.2139 -14.1699zM151.9 -167.839c36.959 39.6494 64.335 88.3057 90.7441 135.325c11.6094 20.6631 22.7119 41.5684 33.5029 62.6143
c-77.6143 -40.208 -155.971 -93.1143 -198.316 -170.864c-8.90137 -16.3369 -26.5273 -71.251 8.67676 -73.7119c22.6943 -1.58984 51.6582 31.9072 65.3926 46.6367z" />
    <glyph glyph-name="Z" unicode="Z" horiz-adv-x="802" 
d="M683.468 321.377c11.0674 9.54883 53.4707 2.91016 37.7998 -12.585c-25.626 -25.373 -65.0518 -24.7783 -98.79 -24.001c-3.89746 0.0878906 -7.79492 0.282227 -11.6924 0.458984c-12.5332 -39.084 -28.7871 -76.9668 -47.626 -112.684
c-14.6592 -27.7871 -31.4258 -55.5449 -50.041 -82.5957c106.826 11.1914 210.262 36.1406 302.252 98.3838c12.457 8.43066 48.8799 -3.07227 29.0049 -16.5361c-104.96 -71.1152 -225.832 -96.1055 -349.095 -106.82
c-91.8262 -123.274 -223.248 -226.339 -376.641 -238.643c-50.2344 -4.02637 -109.888 1.04785 -150.832 33.5791c-30.9248 24.5605 -53.666 59.0527 -41.4502 99.4971c29.1992 96.6709 163.7 107.05 246.172 113.525c67.5127 5.30469 137.127 6.05859 206.706 8.49609
c33.0146 39.0781 62.5029 80.3467 88.4707 119.819c20.2334 30.7539 39.6904 62.6494 56.8809 95.6758c-21.6875 4.48047 -44.1816 7.11816 -62.1367 -6.29883c-7.91797 -5.92188 -19.8682 -8.31836 -29.3223 -4.38574c-5.91602 2.46094 -15.8945 10.208 -7.68848 16.7129
c29.877 23.666 65.4697 25.874 102.069 19.8398c3.0791 -0.511719 6.14648 -1.04199 9.21387 -1.57812c19.0625 40.0615 34.3389 81.7656 43.1455 125.194c14.6348 72.1982 7.61719 195.202 -85.916 209.613c-79.2744 12.2158 -165.178 -49.5332 -217.431 -103.052
c-27.3457 -28.0107 -50.5703 -59.7422 -68.8789 -94.3398c-16.9785 -32.0781 -42.4697 -79.0098 -25.0557 -114.956c8.11816 -16.7549 -32.2666 -17.8848 -40.002 -6.28711c-27.4922 41.2031 4.13867 98.29 25.0908 136.073c24.4961 44.1768 56.9336 84.3086 95.1289 117.37
c68.3428 59.1592 169.164 112.284 261.938 86.8047c94.9404 -26.0732 109.063 -126.282 112.66 -210.696c2.24902 -52.6885 -5.10352 -105.637 -19.1973 -156.865c22.335 -1.64258 49.1738 -2.6084 65.2627 11.2793zM122.763 -98.7725
c91.4844 22.6826 169.83 83.918 235.37 156.099c-23.7598 -0.859375 -47.4316 -1.63086 -70.9033 -2.53711c-49.3926 -1.90723 -98.9971 -4.0791 -148.054 -10.4727c-42.7217 -5.56348 -94.5801 -13.7637 -126.353 -45.665
c-34.3213 -34.4629 -14.2764 -77.5557 27.3447 -93.4805c27.3809 -10.4785 54.2373 -10.9727 82.5947 -3.94336z" />
    <glyph glyph-name="bracketleft" unicode="[" horiz-adv-x="630" 
d="M572.503 791.956c23.542 -12.2334 -15.7773 -24.1904 -27.6455 -20.417c-100.479 31.8838 -168.051 -88.5234 -210.432 -158.838c-47.0312 -78.0264 -87.1396 -160.098 -121.084 -244.624c-34.0039 -84.6787 -61.7559 -171.836 -84.2207 -260.259
c-12.8926 -50.7461 -24.7139 -102.223 -27.7344 -154.646c-1.31836 -22.8125 -4.24414 -51.8242 14.5059 -68.7549c20.5635 -18.5732 52.4414 -7.91797 75.8184 -2.31934c18.9033 4.52734 47.2969 -19.0381 19.1748 -25.9199
c-41.0029 -10.0371 -86.7744 -18.9033 -125.364 4.03223c-41.4209 24.6191 -37.2529 73.2109 -32.8379 115.279c9.83105 93.6152 38.4365 187.278 67.5947 276.455c28.8936 88.3467 63.7686 174.798 105.561 257.852c39.2842 78.0684 83.0488 162.029 141.884 227.404
c50.9932 56.6631 132.817 92.1387 204.78 54.7559z" />
    <glyph glyph-name="backslash" unicode="\" horiz-adv-x="367" 
d="M278.999 104.846c14.3525 -72.2041 33.5635 -145.858 38.3379 -219.446c3.03809 -46.9082 -114.338 -49.5869 -126.571 -9.7666c-22.2002 72.2461 -31.5547 149.084 -44.3418 223.438c-12.5811 73.1523 -25.2852 146.281 -37.7422 219.451
c-12.1807 71.5859 -23.2188 143.413 -34.3809 215.164c-10.5908 68.0537 -26.8857 137.126 -23.9541 206.293c0.948242 22.3711 43.5996 17.002 52.4893 4.05078c42.6396 -62.1143 63.5088 -135.331 83.4189 -207.259c18.8799 -68.2129 33.709 -137.656 47.9971 -206.958
c15.4355 -74.877 29.8408 -149.983 44.7471 -224.967z" />
    <glyph glyph-name="bracketright" unicode="]" horiz-adv-x="505" 
d="M410.718 803.618c42.8984 -22.1475 45.6201 -72.2139 43.7012 -114.766c-4.91602 -108.422 -35.252 -213.876 -65.6582 -317.417c-29.6943 -101.121 -62.1084 -202.466 -109.511 -296.882c-39.5898 -78.8447 -89.2119 -178.924 -190.799 -177.246
c-12.1924 0.200195 -38.4482 4.76855 -38.4482 21.917c0 17.084 25.75 21.8232 38.4482 21.917c38.6777 0.282227 68.3369 41.5029 87.1338 70.5205c22.7832 35.1689 42.499 72.3047 60.2246 110.246c34.3564 73.5469 61.4189 150.148 89.6123 226.18
c31.2422 84.2432 58.9521 169.27 72.8281 258.316c6.28711 40.373 13.3398 84.9316 8.55371 125.775c-3.35547 28.6934 -19.0029 58.5938 -52.624 52.2354c-19.6514 -3.71484 -38.4014 -10.3379 -58.2588 -13.2637c-23.0537 -3.39062 -43.1406 20.9814 -12.375 25.585
c41.9102 6.27539 85.7686 28.2578 127.172 6.88184z" />
    <glyph glyph-name="asciicircum" unicode="^" horiz-adv-x="279" 
d="M181.963 655.159c83.3838 27.4805 31.4824 -106.477 21.416 -138.649c-5.2627 -16.8428 -53.0186 -12.8926 -46.6543 7.3291c6.19922 19.6924 11.9746 39.4961 16.9961 59.5293c2.16016 8.62402 6.4873 20.5742 8.18848 32.0771
c-3.37305 -2.64941 -6.68164 -5.375 -9.90137 -8.18262c-9.30176 -8.10645 -17.8906 -17.0312 -26.0674 -26.2617c-18.5498 -20.9521 -35.2393 -43.7588 -51.8174 -66.2764c-9.20703 -12.5098 -52.5596 -8.74219 -42.6631 6.70508
c31.0361 48.4385 72.4043 114.579 130.503 133.729z" />
    <glyph glyph-name="underscore" unicode="_" horiz-adv-x="426" 
d="M375.354 -3.00488c4.07422 -19.3564 -20.8945 -29.6533 -36.2715 -31.6729c-43.5586 -5.7041 -87.6348 -5.5332 -131.487 -6.44531c-42.0156 -0.871094 -87.5811 -4.17383 -128.92 4.35645c-25.2256 5.2041 -44.6348 32.9141 -9.78906 42.6924
c40.7617 11.4443 85.3145 11.8037 127.466 13.6406c42.9521 1.87207 86.3223 5.28027 129.269 2.4541c16.2656 -1.07129 45.4531 -4.70898 49.7334 -25.0254z" />
    <glyph glyph-name="grave" unicode="`" horiz-adv-x="239" 
d="M80.2383 692.395c18.7207 34.3975 124.976 29.0283 106.967 -16.8076c-16.625 -42.334 -32.2432 -85.2441 -38.7539 -130.374c-4.61523 -31.9844 -58.6641 -26.4678 -76.79 -11.8564c-42.6865 34.4102 -12.7041 119.942 8.57715 159.038z" />
    <glyph glyph-name="a" unicode="a" horiz-adv-x="452" 
d="M445.784 219.393c9.00098 12.5986 50.3555 7.63867 40.8945 -6.41992c-37.8418 -56.2324 -79.0449 -110.028 -127.354 -157.749c-32.9619 -32.5615 -73.8828 -67.9482 -122.003 -45.2363c-58.4463 27.5869 -56.4502 99.7676 -42.8633 153.61
c0.435547 1.73633 0.935547 3.47266 1.39453 5.20898c-15.4951 -25.6729 -31.0312 -51.3164 -48.1621 -75.918c-23.8076 -34.1982 -51.4355 -74.1182 -90.8672 -91.5732c-38.3545 -16.9785 -88.9707 -6.19922 -105.437 35.4688
c-17.5605 44.4531 -0.835938 100.798 19.1797 141.554c20.2451 41.2266 51.2402 79.3389 86.833 108.215c39.3193 31.8955 85.0967 57.3389 136.531 60.418c22.1768 1.32422 46.0488 -1.11914 67.4189 -8.84863c9.71387 10.4316 19.9805 20.0332 31.001 28.3105
c1.93066 1.44824 4.73242 2.38379 7.91699 2.93164c17.249 10.3379 39.9316 12.1924 59.5469 9.05469c18.9678 -3.03809 55.4619 -17.9326 43.3994 -43.5703c-21.7354 -46.1895 -50.8115 -89.5479 -75.2305 -134.419c-22.2295 -40.8506 -59.6064 -90.9902 -61.5137 -139.063
c-0.241211 -6.05762 -0.847656 -25.208 5.28711 -29.082c5.01562 -3.16113 21.0166 11.9277 26.5801 16.584c18.0615 15.1182 34.5684 32.5908 50.54 49.834c35.0693 37.8594 66.918 78.7334 96.9062 120.69zM168.674 202.488
c16.2656 26.0557 32.9727 55.1729 51.6172 82.8535c-17.832 12.4395 -34.4336 4.73926 -58.1348 -9.77246c-26.5684 -16.2656 -50.0459 -38.1943 -69.5615 -62.3955c-21.6816 -26.8857 -39.3721 -58.5342 -50.6455 -91.1719
c-5.88672 -17.043 -10.0664 -34.9746 -11.8145 -52.9355c-0.700195 -7.21777 -1.4834 -14.8301 -0.517578 -22.083c1.74219 -13.0518 1.18848 -17.8379 12.5859 -14.8418c15.1299 3.97949 30.1064 27.0625 39.5605 38.5771c11.9922 14.6055 22.9004 30.0469 33.3555 45.7832
c18.6914 28.1279 35.6758 57.3457 53.5547 85.9863z" />
    <glyph glyph-name="a" unicode="&#xe5;" horiz-adv-x="452" 
d="M445.784 219.393c9.00098 12.5986 50.3555 7.63867 40.8945 -6.41992c-37.8418 -56.2324 -79.0449 -110.028 -127.354 -157.749c-32.9619 -32.5615 -73.8828 -67.9482 -122.003 -45.2363c-58.4463 27.5869 -56.4502 99.7676 -42.8633 153.61
c0.435547 1.73633 0.935547 3.47266 1.39453 5.20898c-15.4951 -25.6729 -31.0312 -51.3164 -48.1621 -75.918c-23.8076 -34.1982 -51.4355 -74.1182 -90.8672 -91.5732c-38.3545 -16.9785 -88.9707 -6.19922 -105.437 35.4688
c-17.5605 44.4531 -0.835938 100.798 19.1797 141.554c20.2451 41.2266 51.2402 79.3389 86.833 108.215c39.3193 31.8955 85.0967 57.3389 136.531 60.418c22.1768 1.32422 46.0488 -1.11914 67.4189 -8.84863c9.71387 10.4316 19.9805 20.0332 31.001 28.3105
c1.93066 1.44824 4.73242 2.38379 7.91699 2.93164c17.249 10.3379 39.9316 12.1924 59.5469 9.05469c18.9678 -3.03809 55.4619 -17.9326 43.3994 -43.5703c-21.7354 -46.1895 -50.8115 -89.5479 -75.2305 -134.419c-22.2295 -40.8506 -59.6064 -90.9902 -61.5137 -139.063
c-0.241211 -6.05762 -0.847656 -25.208 5.28711 -29.082c5.01562 -3.16113 21.0166 11.9277 26.5801 16.584c18.0615 15.1182 34.5684 32.5908 50.54 49.834c35.0693 37.8594 66.918 78.7334 96.9062 120.69zM168.674 202.488
c16.2656 26.0557 32.9727 55.1729 51.6172 82.8535c-17.832 12.4395 -34.4336 4.73926 -58.1348 -9.77246c-26.5684 -16.2656 -50.0459 -38.1943 -69.5615 -62.3955c-21.6816 -26.8857 -39.3721 -58.5342 -50.6455 -91.1719
c-5.88672 -17.043 -10.0664 -34.9746 -11.8145 -52.9355c-0.700195 -7.21777 -1.4834 -14.8301 -0.517578 -22.083c1.74219 -13.0518 1.18848 -17.8379 12.5859 -14.8418c15.1299 3.97949 30.1064 27.0625 39.5605 38.5771c11.9922 14.6055 22.9004 30.0469 33.3555 45.7832
c18.6914 28.1279 35.6758 57.3457 53.5547 85.9863z" />
    <glyph glyph-name="a" unicode="&#xe4;" horiz-adv-x="452" 
d="M445.784 219.393c9.00098 12.5986 50.3555 7.63867 40.8945 -6.41992c-37.8418 -56.2324 -79.0449 -110.028 -127.354 -157.749c-32.9619 -32.5615 -73.8828 -67.9482 -122.003 -45.2363c-58.4463 27.5869 -56.4502 99.7676 -42.8633 153.61
c0.435547 1.73633 0.935547 3.47266 1.39453 5.20898c-15.4951 -25.6729 -31.0312 -51.3164 -48.1621 -75.918c-23.8076 -34.1982 -51.4355 -74.1182 -90.8672 -91.5732c-38.3545 -16.9785 -88.9707 -6.19922 -105.437 35.4688
c-17.5605 44.4531 -0.835938 100.798 19.1797 141.554c20.2451 41.2266 51.2402 79.3389 86.833 108.215c39.3193 31.8955 85.0967 57.3389 136.531 60.418c22.1768 1.32422 46.0488 -1.11914 67.4189 -8.84863c9.71387 10.4316 19.9805 20.0332 31.001 28.3105
c1.93066 1.44824 4.73242 2.38379 7.91699 2.93164c17.249 10.3379 39.9316 12.1924 59.5469 9.05469c18.9678 -3.03809 55.4619 -17.9326 43.3994 -43.5703c-21.7354 -46.1895 -50.8115 -89.5479 -75.2305 -134.419c-22.2295 -40.8506 -59.6064 -90.9902 -61.5137 -139.063
c-0.241211 -6.05762 -0.847656 -25.208 5.28711 -29.082c5.01562 -3.16113 21.0166 11.9277 26.5801 16.584c18.0615 15.1182 34.5684 32.5908 50.54 49.834c35.0693 37.8594 66.918 78.7334 96.9062 120.69zM168.674 202.488
c16.2656 26.0557 32.9727 55.1729 51.6172 82.8535c-17.832 12.4395 -34.4336 4.73926 -58.1348 -9.77246c-26.5684 -16.2656 -50.0459 -38.1943 -69.5615 -62.3955c-21.6816 -26.8857 -39.3721 -58.5342 -50.6455 -91.1719
c-5.88672 -17.043 -10.0664 -34.9746 -11.8145 -52.9355c-0.700195 -7.21777 -1.4834 -14.8301 -0.517578 -22.083c1.74219 -13.0518 1.18848 -17.8379 12.5859 -14.8418c15.1299 3.97949 30.1064 27.0625 39.5605 38.5771c11.9922 14.6055 22.9004 30.0469 33.3555 45.7832
c18.6914 28.1279 35.6758 57.3457 53.5547 85.9863z" />
    <glyph glyph-name="a" unicode="&#xe3;" horiz-adv-x="452" 
d="M445.784 219.393c9.00098 12.5986 50.3555 7.63867 40.8945 -6.41992c-37.8418 -56.2324 -79.0449 -110.028 -127.354 -157.749c-32.9619 -32.5615 -73.8828 -67.9482 -122.003 -45.2363c-58.4463 27.5869 -56.4502 99.7676 -42.8633 153.61
c0.435547 1.73633 0.935547 3.47266 1.39453 5.20898c-15.4951 -25.6729 -31.0312 -51.3164 -48.1621 -75.918c-23.8076 -34.1982 -51.4355 -74.1182 -90.8672 -91.5732c-38.3545 -16.9785 -88.9707 -6.19922 -105.437 35.4688
c-17.5605 44.4531 -0.835938 100.798 19.1797 141.554c20.2451 41.2266 51.2402 79.3389 86.833 108.215c39.3193 31.8955 85.0967 57.3389 136.531 60.418c22.1768 1.32422 46.0488 -1.11914 67.4189 -8.84863c9.71387 10.4316 19.9805 20.0332 31.001 28.3105
c1.93066 1.44824 4.73242 2.38379 7.91699 2.93164c17.249 10.3379 39.9316 12.1924 59.5469 9.05469c18.9678 -3.03809 55.4619 -17.9326 43.3994 -43.5703c-21.7354 -46.1895 -50.8115 -89.5479 -75.2305 -134.419c-22.2295 -40.8506 -59.6064 -90.9902 -61.5137 -139.063
c-0.241211 -6.05762 -0.847656 -25.208 5.28711 -29.082c5.01562 -3.16113 21.0166 11.9277 26.5801 16.584c18.0615 15.1182 34.5684 32.5908 50.54 49.834c35.0693 37.8594 66.918 78.7334 96.9062 120.69zM168.674 202.488
c16.2656 26.0557 32.9727 55.1729 51.6172 82.8535c-17.832 12.4395 -34.4336 4.73926 -58.1348 -9.77246c-26.5684 -16.2656 -50.0459 -38.1943 -69.5615 -62.3955c-21.6816 -26.8857 -39.3721 -58.5342 -50.6455 -91.1719
c-5.88672 -17.043 -10.0664 -34.9746 -11.8145 -52.9355c-0.700195 -7.21777 -1.4834 -14.8301 -0.517578 -22.083c1.74219 -13.0518 1.18848 -17.8379 12.5859 -14.8418c15.1299 3.97949 30.1064 27.0625 39.5605 38.5771c11.9922 14.6055 22.9004 30.0469 33.3555 45.7832
c18.6914 28.1279 35.6758 57.3457 53.5547 85.9863z" />
    <glyph glyph-name="a" unicode="&#xe2;" horiz-adv-x="452" 
d="M445.784 219.393c9.00098 12.5986 50.3555 7.63867 40.8945 -6.41992c-37.8418 -56.2324 -79.0449 -110.028 -127.354 -157.749c-32.9619 -32.5615 -73.8828 -67.9482 -122.003 -45.2363c-58.4463 27.5869 -56.4502 99.7676 -42.8633 153.61
c0.435547 1.73633 0.935547 3.47266 1.39453 5.20898c-15.4951 -25.6729 -31.0312 -51.3164 -48.1621 -75.918c-23.8076 -34.1982 -51.4355 -74.1182 -90.8672 -91.5732c-38.3545 -16.9785 -88.9707 -6.19922 -105.437 35.4688
c-17.5605 44.4531 -0.835938 100.798 19.1797 141.554c20.2451 41.2266 51.2402 79.3389 86.833 108.215c39.3193 31.8955 85.0967 57.3389 136.531 60.418c22.1768 1.32422 46.0488 -1.11914 67.4189 -8.84863c9.71387 10.4316 19.9805 20.0332 31.001 28.3105
c1.93066 1.44824 4.73242 2.38379 7.91699 2.93164c17.249 10.3379 39.9316 12.1924 59.5469 9.05469c18.9678 -3.03809 55.4619 -17.9326 43.3994 -43.5703c-21.7354 -46.1895 -50.8115 -89.5479 -75.2305 -134.419c-22.2295 -40.8506 -59.6064 -90.9902 -61.5137 -139.063
c-0.241211 -6.05762 -0.847656 -25.208 5.28711 -29.082c5.01562 -3.16113 21.0166 11.9277 26.5801 16.584c18.0615 15.1182 34.5684 32.5908 50.54 49.834c35.0693 37.8594 66.918 78.7334 96.9062 120.69zM168.674 202.488
c16.2656 26.0557 32.9727 55.1729 51.6172 82.8535c-17.832 12.4395 -34.4336 4.73926 -58.1348 -9.77246c-26.5684 -16.2656 -50.0459 -38.1943 -69.5615 -62.3955c-21.6816 -26.8857 -39.3721 -58.5342 -50.6455 -91.1719
c-5.88672 -17.043 -10.0664 -34.9746 -11.8145 -52.9355c-0.700195 -7.21777 -1.4834 -14.8301 -0.517578 -22.083c1.74219 -13.0518 1.18848 -17.8379 12.5859 -14.8418c15.1299 3.97949 30.1064 27.0625 39.5605 38.5771c11.9922 14.6055 22.9004 30.0469 33.3555 45.7832
c18.6914 28.1279 35.6758 57.3457 53.5547 85.9863z" />
    <glyph glyph-name="a" unicode="&#xe1;" horiz-adv-x="452" 
d="M445.784 219.393c9.00098 12.5986 50.3555 7.63867 40.8945 -6.41992c-37.8418 -56.2324 -79.0449 -110.028 -127.354 -157.749c-32.9619 -32.5615 -73.8828 -67.9482 -122.003 -45.2363c-58.4463 27.5869 -56.4502 99.7676 -42.8633 153.61
c0.435547 1.73633 0.935547 3.47266 1.39453 5.20898c-15.4951 -25.6729 -31.0312 -51.3164 -48.1621 -75.918c-23.8076 -34.1982 -51.4355 -74.1182 -90.8672 -91.5732c-38.3545 -16.9785 -88.9707 -6.19922 -105.437 35.4688
c-17.5605 44.4531 -0.835938 100.798 19.1797 141.554c20.2451 41.2266 51.2402 79.3389 86.833 108.215c39.3193 31.8955 85.0967 57.3389 136.531 60.418c22.1768 1.32422 46.0488 -1.11914 67.4189 -8.84863c9.71387 10.4316 19.9805 20.0332 31.001 28.3105
c1.93066 1.44824 4.73242 2.38379 7.91699 2.93164c17.249 10.3379 39.9316 12.1924 59.5469 9.05469c18.9678 -3.03809 55.4619 -17.9326 43.3994 -43.5703c-21.7354 -46.1895 -50.8115 -89.5479 -75.2305 -134.419c-22.2295 -40.8506 -59.6064 -90.9902 -61.5137 -139.063
c-0.241211 -6.05762 -0.847656 -25.208 5.28711 -29.082c5.01562 -3.16113 21.0166 11.9277 26.5801 16.584c18.0615 15.1182 34.5684 32.5908 50.54 49.834c35.0693 37.8594 66.918 78.7334 96.9062 120.69zM168.674 202.488
c16.2656 26.0557 32.9727 55.1729 51.6172 82.8535c-17.832 12.4395 -34.4336 4.73926 -58.1348 -9.77246c-26.5684 -16.2656 -50.0459 -38.1943 -69.5615 -62.3955c-21.6816 -26.8857 -39.3721 -58.5342 -50.6455 -91.1719
c-5.88672 -17.043 -10.0664 -34.9746 -11.8145 -52.9355c-0.700195 -7.21777 -1.4834 -14.8301 -0.517578 -22.083c1.74219 -13.0518 1.18848 -17.8379 12.5859 -14.8418c15.1299 3.97949 30.1064 27.0625 39.5605 38.5771c11.9922 14.6055 22.9004 30.0469 33.3555 45.7832
c18.6914 28.1279 35.6758 57.3457 53.5547 85.9863z" />
    <glyph glyph-name="b" unicode="b" horiz-adv-x="420" 
d="M423.477 207.989c18.2559 6.0166 52.8945 -13.5254 23.7246 -23.1445c-46.0186 -15.1592 -91.8428 -30.9248 -137.073 -48.2979c-24.9316 -57.8574 -60.46 -112.2 -107.662 -146.675c-28.1934 -20.5928 -75.9785 -37.9004 -106.632 -11.5674
c-36.6875 31.5078 2.33789 76.3672 28.6348 97.8965c41.4736 33.9502 91.1133 58.6289 142.884 78.9336c0.458984 1.07129 0.935547 2.14258 1.38867 3.21973c20.6396 49.0508 37.2705 100.851 37.2178 154.6c-0.0117188 8.91895 1.0127 19.8037 -1.70703 28.2754
c-6.1582 19.1738 -12.4863 13.4336 -27.7393 4.4502c-19.9863 -11.7686 -37.1592 -27.8574 -52.7773 -44.8535c-60.8008 -66.1582 -106.354 -148.288 -135.966 -233.038c-4.20898 -24.4434 -8.50684 -50.5166 -26.6562 -66.2588
c-14.4707 -12.5508 -45.3301 -16.2129 -61.5371 -4.52148c-14.4053 10.3965 -22.8174 16.666 -26.2793 34.7627c-2.81445 14.7354 -2.56738 29.4648 -1.73145 44.418c1.52441 27.3574 5.96289 54.5205 10.9609 81.4424c10.6025 57.0752 27.4102 113.484 47.1846 168.016
c31.8838 87.9287 74.1406 181.621 141.129 248.728c32.7021 32.7676 74.0234 63.998 120.778 71.7275c28.6934 4.74512 77.1201 2.16113 82.7422 -34.9033c5.61035 -36.9824 -32.4902 -84.3906 -52.959 -111.942c-29.6943 -39.9668 -62.2197 -77.6611 -91.2373 -118.176
c-14.9473 -20.8691 -29.2822 -42.1621 -42.8457 -63.8975c11.7627 12.3926 24.249 24.0078 37.8594 34.1865c27.2686 20.3926 71.9805 45.5771 105.672 23.7656c35.5576 -23.0186 21.7412 -91.1084 14.8945 -124.712c-4.8623 -23.8662 -11.6328 -49.0566 -20.2988 -74.2764
c33.2266 11.2207 66.4062 21.4287 98.0312 31.8428zM250.468 498.699c-20.2158 -29.8115 -37.7959 -61.0908 -53.6084 -93.293c18.7559 25.4082 38.2129 50.2871 57.6641 75.1777c5.95801 7.61816 63.5098 85.6982 68.1133 117.2
c-10.9971 -10.9502 -20.9463 -27.293 -27.2041 -35.7822c-15.3711 -20.834 -30.4297 -41.874 -44.9648 -63.3027zM199.438 38.4961c18.9736 21.8057 34.2637 46.4775 47.415 72.251c-30.5244 -13.6934 -60.0713 -29.6709 -85.5742 -51.2646
c-8.84277 -7.48828 -18.5859 -15.6943 -24.9854 -25.4785c-9.4541 -14.459 -12.8867 -24.8379 2.86719 -32.6084c21.8467 -10.7734 46.4189 21.1758 60.2773 37.1006z" />
    <glyph glyph-name="c" unicode="c" horiz-adv-x="306" 
d="M303.426 217.456c7.6123 10.1963 46.7627 4.57715 37.9141 -9.11621c-29.1523 -45.083 -62.5195 -87.5576 -97.8887 -127.931c-33.8975 -38.6895 -69.5674 -81.7881 -115.934 -106.025c-40.4795 -21.1523 -89.042 -24.9785 -128.721 -0.170898
c-45.5479 28.4756 -54.3486 81.7705 -47.9316 131.393c12.8105 99.0791 70.1797 201.637 157.366 253.578c40.1904 23.9424 104.317 46.7549 149.076 21.3701c40.6143 -23.0361 14.5996 -88.459 0.758789 -120.319c-7.11133 -16.3662 -53.9775 -13.3398 -47.543 7.4707
c6.24609 20.1982 8.24805 37.5771 9.97852 58.1875c1.01855 12.1631 8.55371 17.9443 -4.79199 11.8867c-6.45215 -2.93164 -12.2217 -8.81836 -17.3672 -13.6104c-23.8252 -22.1768 -46.0664 -46.9668 -65.2578 -73.2705
c-36.7178 -50.3164 -61.5371 -111.824 -70.6152 -173.426c-2.85547 -19.3682 -10.0674 -81.0879 14.5166 -88.6523c15.877 -4.88574 41.8389 17.291 53.1895 26.2393c13.5166 10.6553 25.9502 22.6475 38.0537 34.8574c50.7227 51.1816 92.2207 109.976 135.196 167.539z
" />
    <glyph glyph-name="d" unicode="d" horiz-adv-x="503" 
d="M496.964 209.066c7.76465 13.9756 49.7539 9.09082 41.3291 -6.49219c-47.0488 -87.0518 -95.4756 -176.658 -167.409 -246.125c-25.4082 -24.5371 -56.6621 -45.5889 -93.6973 -37.0234c-40.3906 9.34277 -53.4541 52.6709 -57.0928 89.3525
c-6.8291 68.8486 17.0254 140.123 46.1777 205.97c-3.59668 0.223633 -7.1582 0.647461 -10.6084 1.2832c-38.9424 -66.4941 -79.1445 -134.419 -131.598 -188.833c-27.8574 -28.8994 -61.7256 -44.1172 -102.134 -34.374
c-45.6299 11.0029 -63.8145 53.166 -63.9326 97.0947c-0.241211 91.2783 62.7031 189.621 139.888 235.569c44.1465 26.2852 99.6143 38.0947 148.694 18.8857c11.5029 -4.50391 21.4229 -10.7383 30.083 -18.2031c56.3037 89.7539 114.444 178.153 184.688 258.617
c0.800781 1.40723 1.60742 2.81445 2.4082 4.22168c9.02441 15.8125 56.4092 9.78418 46.6543 -7.3291c-44.3232 -77.7793 -88.6816 -155.588 -129.708 -235.175c-38.8779 -75.4248 -78.2441 -152.975 -100.279 -235.299
c-11.2383 -41.9805 -17.8086 -87.5986 -6.77637 -130.345c1.84863 -7.16406 3.57324 -16.4541 8.05371 -22.6709c10.9141 -15.1357 22.2168 -12.0918 35.5039 -1.60156c15.4951 12.2334 29.2939 27.6514 42.3633 42.3457c55.8271 62.7734 96.7832 137.091 137.392 210.131z
M309.924 306.351c-2.44336 -3.9502 -4.88672 -7.90039 -7.32422 -11.8564c0.264648 -0.453125 0.511719 -0.912109 0.770508 -1.36523c0.118164 0.24707 0.242188 0.494141 0.360352 0.741211c2.03125 4.17969 4.13867 8.3125 6.19336 12.4805zM131.941 100.74
c31.4424 45.124 60.9844 91.4258 90.0957 137.945c-7.33496 17.3428 -14.8408 39.2188 -28.6992 51.9521c-1.74219 1.5957 -3.06641 2.67285 -3.17285 3.26758c-8.58887 -2.01953 -20.9639 -11.374 -26.374 -15.0244c-34.5156 -23.2715 -60.2891 -59.0996 -79.292 -95.6055
c-21.9883 -42.2334 -40.8096 -93.8271 -37.5127 -142.266c-0.371094 -5.99902 0.476562 -11.8389 2.54883 -17.5078c-0.0292969 -6.8291 2.31348 -8.28906 7.03516 -4.36816c9.23047 -0.118164 21.2285 15.3115 27.2275 21.4814
c17.8965 18.4092 33.4971 39.1025 48.1436 60.125z" />
    <glyph glyph-name="e" unicode="e" horiz-adv-x="326" 
d="M319.292 222.065c8.85449 12.1924 50.8467 8.57715 41.333 -6.5c-28.2578 -44.7764 -60.6836 -86.9688 -95.1055 -127.177c-30.4473 -35.5635 -65.2812 -73.6348 -109.027 -92.7734c-36.3467 -15.9004 -72.7051 -24.8311 -110.688 -7.7002
c-40.6143 18.3203 -64.3447 58.0342 -72.3633 100.557c-16.1006 85.4092 26.4033 180.696 83.6963 242.327c31.3604 33.7383 71.6045 54.0195 116.169 64.1924c33.5859 7.66504 85.1738 13.7695 112.613 -13.2754c26.6387 -26.2559 1.83105 -62.4199 -23.4121 -77.3555
c-29.1934 -17.2725 -64.2451 -22.8184 -97.7949 -19.416c-36.1992 -44.1406 -58.7705 -99.3252 -66.3057 -155.717c-3.91504 -29.3174 -6.9707 -69.1494 5.7041 -96.9248c7.89453 -17.3018 16.2129 -19.3564 34.333 -10.2373c14.9648 7.5293 28.0811 19.25 40.4316 30.4414
c54.2607 49.1689 97.5947 110.624 140.417 169.559zM236.173 351.32c-17.3906 -8.77734 -33.0908 -24.5137 -47.2256 -39.543c14.1523 0.871094 27.9453 4.87402 39.7197 13.875c10.0137 7.65332 32.708 38.3838 7.50586 25.668z" />
    <glyph glyph-name="e" unicode="&#xeb;" horiz-adv-x="326" 
d="M319.292 222.065c8.85449 12.1924 50.8467 8.57715 41.333 -6.5c-28.2578 -44.7764 -60.6836 -86.9688 -95.1055 -127.177c-30.4473 -35.5635 -65.2812 -73.6348 -109.027 -92.7734c-36.3467 -15.9004 -72.7051 -24.8311 -110.688 -7.7002
c-40.6143 18.3203 -64.3447 58.0342 -72.3633 100.557c-16.1006 85.4092 26.4033 180.696 83.6963 242.327c31.3604 33.7383 71.6045 54.0195 116.169 64.1924c33.5859 7.66504 85.1738 13.7695 112.613 -13.2754c26.6387 -26.2559 1.83105 -62.4199 -23.4121 -77.3555
c-29.1934 -17.2725 -64.2451 -22.8184 -97.7949 -19.416c-36.1992 -44.1406 -58.7705 -99.3252 -66.3057 -155.717c-3.91504 -29.3174 -6.9707 -69.1494 5.7041 -96.9248c7.89453 -17.3018 16.2129 -19.3564 34.333 -10.2373c14.9648 7.5293 28.0811 19.25 40.4316 30.4414
c54.2607 49.1689 97.5947 110.624 140.417 169.559zM236.173 351.32c-17.3906 -8.77734 -33.0908 -24.5137 -47.2256 -39.543c14.1523 0.871094 27.9453 4.87402 39.7197 13.875c10.0137 7.65332 32.708 38.3838 7.50586 25.668z" />
    <glyph glyph-name="e" unicode="&#xea;" horiz-adv-x="326" 
d="M319.292 222.065c8.85449 12.1924 50.8467 8.57715 41.333 -6.5c-28.2578 -44.7764 -60.6836 -86.9688 -95.1055 -127.177c-30.4473 -35.5635 -65.2812 -73.6348 -109.027 -92.7734c-36.3467 -15.9004 -72.7051 -24.8311 -110.688 -7.7002
c-40.6143 18.3203 -64.3447 58.0342 -72.3633 100.557c-16.1006 85.4092 26.4033 180.696 83.6963 242.327c31.3604 33.7383 71.6045 54.0195 116.169 64.1924c33.5859 7.66504 85.1738 13.7695 112.613 -13.2754c26.6387 -26.2559 1.83105 -62.4199 -23.4121 -77.3555
c-29.1934 -17.2725 -64.2451 -22.8184 -97.7949 -19.416c-36.1992 -44.1406 -58.7705 -99.3252 -66.3057 -155.717c-3.91504 -29.3174 -6.9707 -69.1494 5.7041 -96.9248c7.89453 -17.3018 16.2129 -19.3564 34.333 -10.2373c14.9648 7.5293 28.0811 19.25 40.4316 30.4414
c54.2607 49.1689 97.5947 110.624 140.417 169.559zM236.173 351.32c-17.3906 -8.77734 -33.0908 -24.5137 -47.2256 -39.543c14.1523 0.871094 27.9453 4.87402 39.7197 13.875c10.0137 7.65332 32.708 38.3838 7.50586 25.668z" />
    <glyph glyph-name="e" unicode="&#xe9;" horiz-adv-x="326" 
d="M319.292 222.065c8.85449 12.1924 50.8467 8.57715 41.333 -6.5c-28.2578 -44.7764 -60.6836 -86.9688 -95.1055 -127.177c-30.4473 -35.5635 -65.2812 -73.6348 -109.027 -92.7734c-36.3467 -15.9004 -72.7051 -24.8311 -110.688 -7.7002
c-40.6143 18.3203 -64.3447 58.0342 -72.3633 100.557c-16.1006 85.4092 26.4033 180.696 83.6963 242.327c31.3604 33.7383 71.6045 54.0195 116.169 64.1924c33.5859 7.66504 85.1738 13.7695 112.613 -13.2754c26.6387 -26.2559 1.83105 -62.4199 -23.4121 -77.3555
c-29.1934 -17.2725 -64.2451 -22.8184 -97.7949 -19.416c-36.1992 -44.1406 -58.7705 -99.3252 -66.3057 -155.717c-3.91504 -29.3174 -6.9707 -69.1494 5.7041 -96.9248c7.89453 -17.3018 16.2129 -19.3564 34.333 -10.2373c14.9648 7.5293 28.0811 19.25 40.4316 30.4414
c54.2607 49.1689 97.5947 110.624 140.417 169.559zM236.173 351.32c-17.3906 -8.77734 -33.0908 -24.5137 -47.2256 -39.543c14.1523 0.871094 27.9453 4.87402 39.7197 13.875c10.0137 7.65332 32.708 38.3838 7.50586 25.668z" />
    <glyph glyph-name="f" unicode="f" horiz-adv-x="275" 
d="M281.295 229.118c16.46 5.02148 48.4473 -12.2969 21.6318 -21.0977c-63.3154 -20.7754 -128.272 -33.6973 -194.296 -39.8379c47.709 -38.7305 51 -113.36 32.7031 -174.579c-18.3848 -61.5078 -67.7354 -143.844 -140.381 -145.681
c-103.936 -2.62598 -82.2061 140.028 -67.1172 204.991c20.1865 86.916 58.7529 167.821 98.1787 247.361c40.6855 82.0947 79.0635 164.737 116.929 248.133c18.4443 40.626 134.719 34.0674 119.389 -18.7627c-33.4092 -115.156 -101.569 -219.498 -152.016 -327.631
c-1.14844 -2.46094 -2.26074 -4.94531 -3.39648 -7.41211c57.0693 5.95215 113.237 17.6846 168.375 34.5156zM103.568 17.0332c7.99414 36.1406 9.44727 90.3662 -14.6543 122.862c-14.3818 -34.6689 -27.4395 -69.8555 -38.9248 -105.66
c-9.98438 -31.1309 -17.3428 -61.5908 -20.9395 -94.1045c-1.36035 -12.3154 -6.82324 -39.6309 -1.64258 -55.9912c18.3203 10.8848 41.6445 49.8984 47.2021 59.4121c13.3457 22.8594 23.2422 47.6318 28.959 73.4814z" />
    <glyph glyph-name="g" unicode="g" horiz-adv-x="468" 
d="M466.251 220.217c9.29004 11.3506 48.3643 4.14746 35.4131 -11.7891c-62.3848 -76.873 -160.445 -127.955 -244.012 -178.054c-8.9834 -5.38672 -17.9668 -10.791 -26.9443 -16.207c-1.94238 -3.90332 -3.84961 -7.81836 -5.80371 -11.7158
c-21.4932 -42.8926 -44.7236 -85.0615 -72.6045 -124.175c-24.4316 -34.2803 -51.7773 -68.8955 -91.126 -86.5391c-25.2139 -11.3027 -62.0547 -16.3125 -85.1553 2.83203c-29.9707 24.8369 -1.32422 62.9434 17.2666 84.7607
c51.7061 60.6719 126.036 104.643 195.827 145.492c1.23047 2.52539 2.48438 5.05078 3.70898 7.58203c32.4551 66.9414 64.0742 134.307 95.6582 201.678c-0.147461 0.0292969 -0.283203 0.0761719 -0.430664 0.105469
c-6.34668 -8.76562 -12.5693 -17.3896 -18.7275 -25.5957c-31.9609 -42.6162 -63.168 -85.9746 -98.873 -125.601c-28.1455 -31.2363 -65.1514 -65.0693 -110.017 -63.1738c-54.5312 2.30762 -87.6045 40.6025 -89.9062 93.4209
c-4.21484 96.6943 70.6328 196.444 155.612 236.611c48.5742 22.959 108.751 26.9795 157.837 3.19043c13.4346 -6.50488 25.1025 -15.165 34.3867 -25.4141c7.21777 6.19336 14.7178 11.8975 22.5303 17.0254c10.4316 12.6045 50.2637 7.24707 42.4873 -9.16016
c-42.916 -90.5664 -84.6553 -181.845 -128.443 -272.04c75.3721 43.7764 156.678 90.0127 211.315 156.766zM208.536 192.674c15.96 21.1113 32.0049 44.5938 49.1777 67.4297c-8.94824 20.4512 -21.2637 46.0244 -37.2939 40.6963
c-27.1094 -9.0127 -48.9443 -28.9873 -67.9473 -49.6621c-38.3125 -41.6924 -77.8848 -117.028 -64.0264 -175.993c1.00098 -4.25586 3.42676 -8.53613 5.38672 -12.792c2.34277 1.33008 4.52051 2.94336 6.5166 4.8623c15.5068 10.791 28.1934 26.498 40.5498 40.6152
c23.8311 27.2275 45.8252 55.9971 67.6367 84.8438zM117.85 -102.297c16.001 23.6719 30.4004 48.3398 43.9111 73.4951c-11.5684 -7.53516 -23.042 -15.2061 -34.3623 -23.1123c-37.3477 -26.0918 -98.0957 -64.1807 -115.586 -109.229
c-9.03613 -23.2715 1.67871 -37.5537 26.2041 -25.2324c11.1914 5.62793 20.9287 13.6348 29.9473 22.2178c19.2031 18.2793 35.0859 39.9668 49.8857 61.8604z" />
    <glyph glyph-name="h" unicode="h" horiz-adv-x="422" 
d="M421.85 210.709c13.917 8.83008 54.1709 -4.05273 31.9297 -18.1992c-37.0117 -23.5654 -66.1348 -55.7383 -95.8174 -87.5928c-23.8193 -25.5615 -50.5352 -59.9775 -86.1807 -68.8145c-90.8779 -22.5293 -37.9893 106.608 -22.1182 143.509
c15.96 37.0938 34.2686 73.6113 44.8359 112.754c0.453125 1.67188 9.63672 32.4609 7.38184 35.251c3.4082 6.42871 -0.46582 5.5752 -11.6104 -2.55469c-5.61035 -2.77832 -11.0674 -5.83398 -16.3594 -9.17773c-17.5605 -11.0264 -33.043 -25.0908 -47.708 -39.667
c-62.5146 -62.1377 -105.731 -140.724 -140.653 -220.911c-3.85059 -20.4873 -9.36133 -40.7031 -24.4385 -53.7783c-14.4707 -12.5508 -45.3301 -16.2129 -61.5371 -4.52148c-14.4053 10.3965 -22.8174 16.666 -26.2793 34.7627
c-2.81445 14.7354 -2.56738 29.4648 -1.73145 44.418c1.52441 27.3574 5.96289 54.5205 10.9609 81.4424c10.6025 57.0752 27.4102 113.484 47.1846 168.016c31.8838 87.9287 74.1406 181.621 141.129 248.728c32.7021 32.7676 74.0234 63.998 120.778 71.7275
c28.6934 4.74512 77.1201 2.16113 82.7422 -34.9033c5.61621 -36.9824 -32.4844 -84.3906 -52.9531 -111.942c-29.6943 -39.9668 -62.2197 -77.6611 -91.2373 -118.176c-32.4258 -45.2773 -62.0674 -92.4854 -86.7812 -142.125
c11.5684 14.959 23.8721 29.3994 37.083 43.1396c25.9912 27.0332 55.75 53.0186 91.0078 67.0537c22.1055 8.80078 64.2979 15.7715 73.3398 -15.0059c4.39746 -14.959 -2.70215 -33.915 -6.71094 -48.627c-5.94629 -21.8232 -14.2822 -42.8984 -23.1484 -63.668
c-16.4658 -38.5898 -35.6221 -76.5078 -46.1182 -117.328c-1.73047 -6.74023 -9.45996 -30.8359 -7.67578 -38.1006c-4.24414 -7.58203 -0.900391 -6.1748 10.0381 4.22754c4.81543 4.00293 9.4541 8.2002 13.916 12.5859c13.9873 13.3633 27.0273 27.71 40.2197 41.8506
c29.6357 31.7549 59.6416 62.2266 96.5117 85.6279zM250.488 498.7c-20.2217 -29.8115 -37.8018 -61.0908 -53.6025 -93.293c18.75 25.4082 38.207 50.2871 57.6582 75.1777c5.95801 7.61816 63.5098 85.6982 68.1133 117.2
c-10.9971 -10.9502 -20.9463 -27.293 -27.2041 -35.7822c-15.3711 -20.834 -30.4297 -41.874 -44.9648 -63.3027z" />
    <glyph glyph-name="i" unicode="i" horiz-adv-x="220" 
d="M218.662 224.22c9.2959 11.2852 48.3193 4.25586 35.4209 -11.7979c-42.9463 -53.4951 -84.6738 -109.292 -132.135 -158.908c-36.4111 -38.0654 -80.4521 -73.8408 -136.485 -56.998c-138.975 41.7686 12.5166 254.331 54.0791 318.906
c15.3125 23.7949 49.0566 28.4336 75.0186 24.2773c17.8379 -2.85547 55.415 -17.9561 42.5928 -42.7637c-23.377 -45.2363 -52.6533 -87.8467 -78.085 -131.993c-23.2891 -40.4199 -48.874 -83.3066 -55.1729 -130.303
c-2.02539 -15.0889 -6.59961 -20.7578 13.8877 -8.68359c12.9336 7.61816 24.5723 19.21 35.3691 29.5537c17.0371 16.3193 32.6787 34.0215 48.0205 51.918c32.9971 38.501 65.252 77.6553 97.4893 116.792zM136.766 381.298
c-10.4844 1.39551 -27.1816 7.87598 -27.6172 20.6748c-0.882812 25.9268 16.9785 51.0703 32.5322 70.2559c22.0059 27.1514 115.021 9.86719 84.2725 -28.0742c-14.623 -18.0439 -28.7988 -38.125 -46.7129 -53.002c-11.7861 -9.79004 -27.6514 -11.833 -42.4746 -9.85449
z" />
    <glyph glyph-name="i" unicode="&#xef;" horiz-adv-x="220" 
d="M218.662 224.22c9.2959 11.2852 48.3193 4.25586 35.4209 -11.7979c-42.9463 -53.4951 -84.6738 -109.292 -132.135 -158.908c-36.4111 -38.0654 -80.4521 -73.8408 -136.485 -56.998c-138.975 41.7686 12.5166 254.331 54.0791 318.906
c15.3125 23.7949 49.0566 28.4336 75.0186 24.2773c17.8379 -2.85547 55.415 -17.9561 42.5928 -42.7637c-23.377 -45.2363 -52.6533 -87.8467 -78.085 -131.993c-23.2891 -40.4199 -48.874 -83.3066 -55.1729 -130.303
c-2.02539 -15.0889 -6.59961 -20.7578 13.8877 -8.68359c12.9336 7.61816 24.5723 19.21 35.3691 29.5537c17.0371 16.3193 32.6787 34.0215 48.0205 51.918c32.9971 38.501 65.252 77.6553 97.4893 116.792zM136.766 381.298
c-10.4844 1.39551 -27.1816 7.87598 -27.6172 20.6748c-0.882812 25.9268 16.9785 51.0703 32.5322 70.2559c22.0059 27.1514 115.021 9.86719 84.2725 -28.0742c-14.623 -18.0439 -28.7988 -38.125 -46.7129 -53.002c-11.7861 -9.79004 -27.6514 -11.833 -42.4746 -9.85449
z" />
    <glyph glyph-name="i" unicode="&#xee;" horiz-adv-x="220" 
d="M218.662 224.22c9.2959 11.2852 48.3193 4.25586 35.4209 -11.7979c-42.9463 -53.4951 -84.6738 -109.292 -132.135 -158.908c-36.4111 -38.0654 -80.4521 -73.8408 -136.485 -56.998c-138.975 41.7686 12.5166 254.331 54.0791 318.906
c15.3125 23.7949 49.0566 28.4336 75.0186 24.2773c17.8379 -2.85547 55.415 -17.9561 42.5928 -42.7637c-23.377 -45.2363 -52.6533 -87.8467 -78.085 -131.993c-23.2891 -40.4199 -48.874 -83.3066 -55.1729 -130.303
c-2.02539 -15.0889 -6.59961 -20.7578 13.8877 -8.68359c12.9336 7.61816 24.5723 19.21 35.3691 29.5537c17.0371 16.3193 32.6787 34.0215 48.0205 51.918c32.9971 38.501 65.252 77.6553 97.4893 116.792zM136.766 381.298
c-10.4844 1.39551 -27.1816 7.87598 -27.6172 20.6748c-0.882812 25.9268 16.9785 51.0703 32.5322 70.2559c22.0059 27.1514 115.021 9.86719 84.2725 -28.0742c-14.623 -18.0439 -28.7988 -38.125 -46.7129 -53.002c-11.7861 -9.79004 -27.6514 -11.833 -42.4746 -9.85449
z" />
    <glyph glyph-name="i" unicode="&#xed;" horiz-adv-x="220" 
d="M218.662 224.22c9.2959 11.2852 48.3193 4.25586 35.4209 -11.7979c-42.9463 -53.4951 -84.6738 -109.292 -132.135 -158.908c-36.4111 -38.0654 -80.4521 -73.8408 -136.485 -56.998c-138.975 41.7686 12.5166 254.331 54.0791 318.906
c15.3125 23.7949 49.0566 28.4336 75.0186 24.2773c17.8379 -2.85547 55.415 -17.9561 42.5928 -42.7637c-23.377 -45.2363 -52.6533 -87.8467 -78.085 -131.993c-23.2891 -40.4199 -48.874 -83.3066 -55.1729 -130.303
c-2.02539 -15.0889 -6.59961 -20.7578 13.8877 -8.68359c12.9336 7.61816 24.5723 19.21 35.3691 29.5537c17.0371 16.3193 32.6787 34.0215 48.0205 51.918c32.9971 38.501 65.252 77.6553 97.4893 116.792zM136.766 381.298
c-10.4844 1.39551 -27.1816 7.87598 -27.6172 20.6748c-0.882812 25.9268 16.9785 51.0703 32.5322 70.2559c22.0059 27.1514 115.021 9.86719 84.2725 -28.0742c-14.623 -18.0439 -28.7988 -38.125 -46.7129 -53.002c-11.7861 -9.79004 -27.6514 -11.833 -42.4746 -9.85449
z" />
    <glyph glyph-name="j" unicode="j" horiz-adv-x="218" 
d="M216.683 220.858c11.0557 8.73047 50.5693 0.71875 35.4219 -11.8086c-54.5078 -45.0537 -114.237 -82.248 -174.82 -118.206c-7.99414 -19.6689 -16.124 -39.2842 -24.625 -58.7471c-35.9404 -82.2656 -81.8008 -174.598 -169.146 -212.169
c-32.1436 -13.8223 -72.6523 -15.1641 -100.386 9.36719c-23.3535 20.6631 -19.8623 55.8555 -7.08789 81.3525c17.6729 35.2812 50.9639 59.7422 82.3711 81.9893c20.8633 14.7822 42.3037 28.7168 64.0146 42.2275c4.69238 12.2275 9.26074 24.5078 13.7285 36.8408
c17.0898 47.167 32.5547 94.8818 49.9277 141.954c18.3086 49.6045 35.2754 104.26 64.834 148.4c17.2373 25.7441 53.0244 31.0781 81.8057 26.4746c23.0537 -3.69141 55.8154 -18.209 46.4492 -46.6318c-17.8027 -54.0078 -45.3008 -105.702 -65.7051 -158.956
c-5.71582 -14.918 -11.4795 -29.8184 -17.29 -44.6953c41.5215 25.4854 82.1475 52.3242 120.508 82.6074zM-122.575 -69.7949c8.44238 17.3018 16.3701 34.7979 23.9111 52.4531c-7.8418 -5.48633 -15.624 -11.0498 -23.2656 -16.7959
c-30.9541 -23.2832 -78.0088 -63.3916 -64.333 -107.762c8.74805 -28.3691 24.0957 2.19629 32.7969 15.6191c11.751 18.1201 21.4297 37.0938 30.8906 56.4854zM139.172 413.689c-8.75977 0.670898 -29.96 4.67383 -32.9209 16.1709
c-6.93457 26.874 10.668 56.9805 25.2734 78.9277c13.04 19.5859 39.4785 22.6826 61.1602 19.792c9.75488 -1.30078 22.5713 -5.74512 29.7119 -13.0215c4.88574 -4.98047 9.63086 -14.8887 5.00977 -21.835c-7.41211 -11.1328 -15.042 -22.1416 -21.9473 -33.5977
c-7.51758 -12.4688 -15.4004 -26.4443 -26.833 -35.6572c-11.2383 -9.06055 -25.2666 -11.8682 -39.4541 -10.7793z" />
    <glyph glyph-name="k" unicode="k" horiz-adv-x="422" 
d="M422.058 206.836c13.958 7.72949 53.6553 -5.42871 31.29 -17.8271c-46.1133 -25.5674 -81.7715 -63.3096 -117.152 -101.699c-29.582 -32.0957 -62.3789 -76.7373 -105.442 -90.8955c-33.7207 -11.085 -65.6816 1.94336 -69.1729 39.1729
c-1.66016 17.7021 29.0996 153.987 9.13086 165.632c-32.9199 -44.7236 -60.748 -93.415 -83.9131 -143.438c-0.276367 -0.606445 -0.700195 -1.13086 -1.10059 -1.66699c-3.85645 -20.7578 -9.30762 -41.3389 -24.584 -54.585
c-14.4707 -12.5508 -45.3301 -16.2129 -61.5371 -4.52148c-14.4053 10.3965 -22.8174 16.666 -26.2793 34.7627c-2.81445 14.7354 -2.56738 29.4648 -1.73145 44.418c1.52441 27.3574 5.96289 54.5205 10.9609 81.4424c10.6025 57.0752 27.4102 113.484 47.1846 168.016
c31.8838 87.9287 74.1406 181.621 141.129 248.728c32.7021 32.7676 74.0234 63.998 120.778 71.7275c28.6934 4.74512 77.1201 2.16113 82.7422 -34.9033c5.61035 -36.9824 -32.4902 -84.3906 -52.959 -111.942c-29.6943 -39.9668 -62.2197 -77.6611 -91.2373 -118.176
c-40.4023 -56.4092 -76.4961 -115.798 -104.083 -179.189c8.19434 11.6094 16.6367 23.0654 25.4551 34.2627c34.9746 44.3945 76.625 91.0908 133.676 105.426c17.167 4.31543 44.2764 6.35254 56.5449 -9.9541c13.7051 -18.2031 -3.73828 -41.3564 -15.0234 -55.9209
c-28.0576 -36.2051 -69.3906 -59.624 -113.926 -68.0488c9.73145 -15.6709 9.02539 -38.9131 7.11816 -60.2061c-2.17188 -24.249 -7.25195 -48.0859 -10.79 -72.1406c-2.86719 -19.4746 -13.2695 -69.4854 19.3857 -44.6953
c70.3613 53.4189 114.361 132.394 193.536 176.223zM250.47 498.702c-20.2158 -29.8115 -37.8018 -61.0908 -53.6025 -93.293c18.7559 25.4082 38.2129 50.2871 57.6641 75.1777c5.95801 7.61816 63.5098 85.6982 68.1133 117.2
c-11.0029 -10.9502 -20.9521 -27.293 -27.21 -35.7822c-15.3652 -20.834 -30.4297 -41.874 -44.9648 -63.3027zM228.039 269.2c-11.9746 -12.2686 -23.2832 -25.1855 -34.2158 -38.4316c33.874 5.3457 64.3984 21.1465 87.6523 47.3262
c5.71582 6.42871 16.083 16.0889 17.8496 24.9375c5.18066 25.9619 -12.3799 10.9385 -22.7939 5.25781c-18.2969 -9.98438 -34.0215 -24.2666 -48.4922 -39.0898z" />
    <glyph glyph-name="l" unicode="l" horiz-adv-x="285" 
d="M281.479 213.906c8.93652 12.4688 48.7578 6.75684 39.5625 -6.22363c-46.5898 -65.7285 -93.0205 -131.563 -139.77 -197.181c-32.6436 -45.8184 -73.3057 -113.325 -139.782 -82.4121c-55.6562 25.8857 -65.3818 109.829 -68.0312 162.948
c-3.30859 66.3291 11.8037 133.047 30.4482 196.291c33.9326 115.115 92.3848 235.835 191.729 308.033c26.5449 19.292 55.7383 36.5234 88.335 43.0518c23.0479 4.62109 54.7559 8.38867 75.3779 -5.8877c44.5117 -30.8184 -26.1211 -100.056 -47.8564 -123.945
c-75.0713 -82.5127 -146.287 -167.568 -195.497 -267.277c-14.4229 -52.583 -24.501 -106.614 -27.9336 -161.058c-1.73047 -27.498 -1.57715 -56.0146 3.09668 -83.2539c1.86035 -10.873 5.69238 -20.7578 9.37793 -30.5889
c4.32129 4.71582 8.55957 9.50781 12.6094 14.459c9.60156 11.6211 18.4082 23.8604 27.2266 36.0762c15.3594 21.2812 30.5771 42.6748 45.8604 64.0098c31.749 44.3174 63.498 88.6406 95.2471 132.958zM250.772 512.642
c-17.3193 -20.8398 -33.002 -42.8623 -47.2725 -65.7627c4.30371 5.13965 8.63086 10.25 12.999 15.3301c17.5312 20.4102 35.7988 40.126 53.8369 60.083c17.5312 19.3975 30.4883 40.4785 45.9004 61.2363c0.0703125 0.276367 0.182617 0.517578 0.258789 0.793945
c-5.71582 -5.11035 -11.3496 -10.3262 -16.7363 -15.7188c-17.4551 -17.4785 -33.209 -36.9824 -48.9863 -55.9619z" />
    <glyph glyph-name="m" unicode="m" horiz-adv-x="486" 
d="M488.971 205.552c17.3369 6.12793 50.1221 -12.2539 22.5586 -22.0146c-41.374 -14.6348 -79.4102 -63.5029 -125.1 -63.5967c-49.4336 -0.0996094 -33.4854 47.9912 -22.7529 78.6035c4.61523 13.1631 7.05273 28.5693 12.1748 41.2148
c-0.376953 1.70703 -0.489258 3.16113 -0.477539 4.49707c-2.3252 -1.20117 -4.66211 -2.39062 -6.93457 -3.70312c-23.3535 -13.1924 -43.54 -31.1592 -62.5312 -49.915c-19.4453 -19.209 -37.4658 -39.79 -56.7344 -59.1699
c-12.7275 -12.793 -25.8262 -29.1943 -44.8477 -31.3428c-50.5986 -5.71582 -29.3877 48.5215 -19.8389 76.4668c9.06055 26.5156 21.0469 51.8945 32.3975 77.4736c5.42773 12.2334 11.5029 24.5078 15.8242 37.1943c0.888672 2.19043 1.6543 4.4043 2.36035 6.6416
c-8.54199 -8.07715 -18.9561 -15.2773 -26.8623 -23.8193c-9.13672 -9.87207 -17.6904 -20.3213 -26.0029 -30.8828c-18.5146 -23.5244 -35.3223 -48.3555 -51.0703 -73.8047c-22.9531 -37.1055 -43.752 -75.5479 -63.874 -114.284
c-1.12402 -3.94434 -2.25977 -7.88281 -3.37207 -11.833c-8.2832 -29.3701 -13.4639 -56.0205 -39.9492 -73.5635c-15.1416 -10.0312 -41.8633 -7.56445 -55.333 4.0625c-24.7139 21.335 -18.6855 58.7588 -15.8066 88.5352
c2.82617 29.2295 9.07812 58.1113 16.1426 86.5928c15.1006 60.8486 38.0654 122.409 69.8496 176.499c22.624 38.501 145.48 31.6074 122.491 -19.251c-9.07812 -20.0928 -18.0674 -40.0615 -26.7686 -60.1006c22.3535 30.2949 47.7324 58.8701 78.6162 78.668
c16.3838 10.5088 38.2715 19.5635 57.2861 10.0322c17.4961 -8.77148 13.5928 -25.9502 8.65332 -41.9043c-8.97168 -28.958 -23.9951 -56.2559 -35.8867 -84.0781c-6.16992 -14.4473 -12.0508 -29.0117 -16.9551 -43.9414
c-0.800781 -2.41992 -1.88379 -5.33398 -3.06738 -8.51855c7.70605 8.62402 15.1475 17.3662 22.583 25.1904c17.8848 18.8027 36.0693 37.3818 56.4971 53.4648c25.2139 19.8506 66.959 51.835 101.375 39.0605c38.9014 -14.4404 4.53906 -74.7061 -2.84277 -99.9795
c-2.30176 -6.98242 -3.78516 -14.1113 -4.5332 -21.376c9.63672 7.16406 20.9697 13.0273 30.9775 19.7324c19.7861 13.2637 39.207 25.1787 61.7539 33.1494z" />
    <glyph glyph-name="n" unicode="n" horiz-adv-x="378" 
d="M379.856 207.948c12.9395 8.19434 50.3252 -3.8252 29.6621 -16.9238c-36.5703 -23.1533 -64.9521 -55.1084 -92.8096 -87.7695c-21.3877 -25.0791 -42.7109 -54.6963 -70.8564 -72.7285c-17.3848 -11.1387 -50.5225 -16.7959 -62.2666 5.93945
c-13.999 27.0977 9.4375 77.7617 19.4336 102.841c16.6016 41.6328 36.9707 82.2295 51.7236 124.558c1.625 4.66211 9.51953 22.8652 3.85645 24.4844c-4.5332 1.29492 -23.2305 -17.2432 -26.4268 -19.998c-14.7295 -12.6924 -28.6406 -26.3623 -41.8809 -40.5967
c-45.4541 -48.8623 -81.8301 -104.913 -114.503 -162.9c-0.200195 -0.618164 -0.417969 -1.23047 -0.618164 -1.84863c-10.5967 -32.832 -18.3555 -69.3135 -42.333 -95.1045c-18.6445 -20.0566 -78.0039 -21.3574 -90.4551 6.74121
c-14.082 31.79 -1.66016 70.8506 6.72852 102.964c8.72461 33.3857 18.7324 66.4824 31.1719 98.6846c25.6318 66.3408 55.6855 132.905 99.3672 189.409c22.3232 28.876 138.78 21.6699 116.51 -27.999c-17.4375 -38.8896 -37.7129 -76.1602 -56.5459 -114.226
c2.64941 3.0498 5.19238 6.18164 7.90039 9.18359c25.0137 27.7754 54.8252 61.0078 89.5645 76.6318c18.3789 8.25977 54.3955 14.2178 64.3623 -10.0898c5.2627 -12.8398 -1.98438 -29.7295 -6.25293 -41.6797c-8.12988 -22.7471 -18.5146 -44.9297 -27.8398 -67.2119
c-9.34277 -22.3291 -19.1914 -44.541 -27.7568 -67.1943c-5.72266 -15.1357 -23.2891 -51.918 -16.9131 -67.9834c-3.9209 -5.59863 -3.69727 -6.21094 0.670898 -1.83105c3.42578 2.83203 6.71094 5.81641 9.86621 8.9541c6.39941 6.18164 12.3867 12.8047 18.3213 19.4277
c13.1748 14.7061 25.667 30.0127 38.5947 44.9307c26.7744 30.9014 55.0205 59.3652 89.7246 81.3359z" />
    <glyph glyph-name="o" unicode="o" horiz-adv-x="295" 
d="M302.435 220.099c15.7773 4.35645 46.5488 -12.6816 20.7109 -20.1992c-34.1328 -9.92578 -71.8564 -15.0596 -109.551 -15.6074c-6.8877 -35.2334 -18.6387 -69.5781 -35.2812 -101.203c-40.9326 -77.791 -141.972 -172.437 -231.802 -99.8438
c-48.7686 39.4141 -30.042 106.02 -6.03516 153.816c20.7988 41.3975 49.8867 79.4805 80.3223 115.309c-6.17578 10.0664 -10.5557 21.4287 -12.4043 34.2627c-12.916 89.5361 108.722 183.693 178.854 103.812c32.9619 -37.542 35.2637 -102.158 33.1973 -149.396
c-0.458984 -10.4551 -1.48926 -20.9043 -2.80762 -31.3301c33.1377 0.429688 64.0859 4.65625 84.7969 10.3789zM122.227 70.1553c21.8643 35.4639 37.2344 74.9062 45.376 115.756c-17.8496 1.55371 -35.3457 4.16211 -52.0889 7.8418
c-0.929688 0.206055 -1.86523 0.464844 -2.80078 0.682617c-18.2207 -21.4639 -35.9287 -43.3398 -52.1709 -66.5234c-17.9434 -25.6143 -78.0088 -100.326 -42.1689 -131.104c35.4932 -30.4775 89.1475 49.498 103.854 73.3467zM171.782 211.726
c5.69238 44.4355 5.54492 95.0869 -9.4082 137.126c-9.83105 27.6279 -30.6357 55.6504 -63.332 36.1523c-19.6982 -11.7441 -33.5205 -31.8311 -40.8145 -53.2656c-5.58691 -16.4014 -7.24121 -30.7715 -5.74609 -43.3281c32.9619 31.0654 148.836 8.6123 108.115 -38.6074
c-9.08984 -10.5381 -18.2324 -20.9932 -27.3398 -31.4717c12.2803 -3.06152 25.2852 -5.20996 38.5254 -6.60547z" />
    <glyph glyph-name="o" unicode="&#xf6;" horiz-adv-x="295" 
d="M302.435 220.099c15.7773 4.35645 46.5488 -12.6816 20.7109 -20.1992c-34.1328 -9.92578 -71.8564 -15.0596 -109.551 -15.6074c-6.8877 -35.2334 -18.6387 -69.5781 -35.2812 -101.203c-40.9326 -77.791 -141.972 -172.437 -231.802 -99.8438
c-48.7686 39.4141 -30.042 106.02 -6.03516 153.816c20.7988 41.3975 49.8867 79.4805 80.3223 115.309c-6.17578 10.0664 -10.5557 21.4287 -12.4043 34.2627c-12.916 89.5361 108.722 183.693 178.854 103.812c32.9619 -37.542 35.2637 -102.158 33.1973 -149.396
c-0.458984 -10.4551 -1.48926 -20.9043 -2.80762 -31.3301c33.1377 0.429688 64.0859 4.65625 84.7969 10.3789zM122.227 70.1553c21.8643 35.4639 37.2344 74.9062 45.376 115.756c-17.8496 1.55371 -35.3457 4.16211 -52.0889 7.8418
c-0.929688 0.206055 -1.86523 0.464844 -2.80078 0.682617c-18.2207 -21.4639 -35.9287 -43.3398 -52.1709 -66.5234c-17.9434 -25.6143 -78.0088 -100.326 -42.1689 -131.104c35.4932 -30.4775 89.1475 49.498 103.854 73.3467zM171.782 211.726
c5.69238 44.4355 5.54492 95.0869 -9.4082 137.126c-9.83105 27.6279 -30.6357 55.6504 -63.332 36.1523c-19.6982 -11.7441 -33.5205 -31.8311 -40.8145 -53.2656c-5.58691 -16.4014 -7.24121 -30.7715 -5.74609 -43.3281c32.9619 31.0654 148.836 8.6123 108.115 -38.6074
c-9.08984 -10.5381 -18.2324 -20.9932 -27.3398 -31.4717c12.2803 -3.06152 25.2852 -5.20996 38.5254 -6.60547z" />
    <glyph glyph-name="o" unicode="&#xf5;" horiz-adv-x="295" 
d="M302.435 220.099c15.7773 4.35645 46.5488 -12.6816 20.7109 -20.1992c-34.1328 -9.92578 -71.8564 -15.0596 -109.551 -15.6074c-6.8877 -35.2334 -18.6387 -69.5781 -35.2812 -101.203c-40.9326 -77.791 -141.972 -172.437 -231.802 -99.8438
c-48.7686 39.4141 -30.042 106.02 -6.03516 153.816c20.7988 41.3975 49.8867 79.4805 80.3223 115.309c-6.17578 10.0664 -10.5557 21.4287 -12.4043 34.2627c-12.916 89.5361 108.722 183.693 178.854 103.812c32.9619 -37.542 35.2637 -102.158 33.1973 -149.396
c-0.458984 -10.4551 -1.48926 -20.9043 -2.80762 -31.3301c33.1377 0.429688 64.0859 4.65625 84.7969 10.3789zM122.227 70.1553c21.8643 35.4639 37.2344 74.9062 45.376 115.756c-17.8496 1.55371 -35.3457 4.16211 -52.0889 7.8418
c-0.929688 0.206055 -1.86523 0.464844 -2.80078 0.682617c-18.2207 -21.4639 -35.9287 -43.3398 -52.1709 -66.5234c-17.9434 -25.6143 -78.0088 -100.326 -42.1689 -131.104c35.4932 -30.4775 89.1475 49.498 103.854 73.3467zM171.782 211.726
c5.69238 44.4355 5.54492 95.0869 -9.4082 137.126c-9.83105 27.6279 -30.6357 55.6504 -63.332 36.1523c-19.6982 -11.7441 -33.5205 -31.8311 -40.8145 -53.2656c-5.58691 -16.4014 -7.24121 -30.7715 -5.74609 -43.3281c32.9619 31.0654 148.836 8.6123 108.115 -38.6074
c-9.08984 -10.5381 -18.2324 -20.9932 -27.3398 -31.4717c12.2803 -3.06152 25.2852 -5.20996 38.5254 -6.60547z" />
    <glyph glyph-name="o" unicode="&#xf4;" horiz-adv-x="295" 
d="M302.435 220.099c15.7773 4.35645 46.5488 -12.6816 20.7109 -20.1992c-34.1328 -9.92578 -71.8564 -15.0596 -109.551 -15.6074c-6.8877 -35.2334 -18.6387 -69.5781 -35.2812 -101.203c-40.9326 -77.791 -141.972 -172.437 -231.802 -99.8438
c-48.7686 39.4141 -30.042 106.02 -6.03516 153.816c20.7988 41.3975 49.8867 79.4805 80.3223 115.309c-6.17578 10.0664 -10.5557 21.4287 -12.4043 34.2627c-12.916 89.5361 108.722 183.693 178.854 103.812c32.9619 -37.542 35.2637 -102.158 33.1973 -149.396
c-0.458984 -10.4551 -1.48926 -20.9043 -2.80762 -31.3301c33.1377 0.429688 64.0859 4.65625 84.7969 10.3789zM122.227 70.1553c21.8643 35.4639 37.2344 74.9062 45.376 115.756c-17.8496 1.55371 -35.3457 4.16211 -52.0889 7.8418
c-0.929688 0.206055 -1.86523 0.464844 -2.80078 0.682617c-18.2207 -21.4639 -35.9287 -43.3398 -52.1709 -66.5234c-17.9434 -25.6143 -78.0088 -100.326 -42.1689 -131.104c35.4932 -30.4775 89.1475 49.498 103.854 73.3467zM171.782 211.726
c5.69238 44.4355 5.54492 95.0869 -9.4082 137.126c-9.83105 27.6279 -30.6357 55.6504 -63.332 36.1523c-19.6982 -11.7441 -33.5205 -31.8311 -40.8145 -53.2656c-5.58691 -16.4014 -7.24121 -30.7715 -5.74609 -43.3281c32.9619 31.0654 148.836 8.6123 108.115 -38.6074
c-9.08984 -10.5381 -18.2324 -20.9932 -27.3398 -31.4717c12.2803 -3.06152 25.2852 -5.20996 38.5254 -6.60547z" />
    <glyph glyph-name="o" unicode="&#xf3;" horiz-adv-x="295" 
d="M302.435 220.099c15.7773 4.35645 46.5488 -12.6816 20.7109 -20.1992c-34.1328 -9.92578 -71.8564 -15.0596 -109.551 -15.6074c-6.8877 -35.2334 -18.6387 -69.5781 -35.2812 -101.203c-40.9326 -77.791 -141.972 -172.437 -231.802 -99.8438
c-48.7686 39.4141 -30.042 106.02 -6.03516 153.816c20.7988 41.3975 49.8867 79.4805 80.3223 115.309c-6.17578 10.0664 -10.5557 21.4287 -12.4043 34.2627c-12.916 89.5361 108.722 183.693 178.854 103.812c32.9619 -37.542 35.2637 -102.158 33.1973 -149.396
c-0.458984 -10.4551 -1.48926 -20.9043 -2.80762 -31.3301c33.1377 0.429688 64.0859 4.65625 84.7969 10.3789zM122.227 70.1553c21.8643 35.4639 37.2344 74.9062 45.376 115.756c-17.8496 1.55371 -35.3457 4.16211 -52.0889 7.8418
c-0.929688 0.206055 -1.86523 0.464844 -2.80078 0.682617c-18.2207 -21.4639 -35.9287 -43.3398 -52.1709 -66.5234c-17.9434 -25.6143 -78.0088 -100.326 -42.1689 -131.104c35.4932 -30.4775 89.1475 49.498 103.854 73.3467zM171.782 211.726
c5.69238 44.4355 5.54492 95.0869 -9.4082 137.126c-9.83105 27.6279 -30.6357 55.6504 -63.332 36.1523c-19.6982 -11.7441 -33.5205 -31.8311 -40.8145 -53.2656c-5.58691 -16.4014 -7.24121 -30.7715 -5.74609 -43.3281c32.9619 31.0654 148.836 8.6123 108.115 -38.6074
c-9.08984 -10.5381 -18.2324 -20.9932 -27.3398 -31.4717c12.2803 -3.06152 25.2852 -5.20996 38.5254 -6.60547z" />
    <glyph glyph-name="p" unicode="p" horiz-adv-x="417" 
d="M412.843 206.817c11.5449 9.49609 54.9297 2.16211 38.6113 -12.8555c-40.5029 -37.2646 -89.8652 -62.2607 -145.232 -65.9404c-19.2568 -1.2832 -38.9609 0.170898 -58.5176 0.335938c-7.34668 -9.29004 -15.082 -18.2207 -23.2471 -26.6455
c-24.3955 -25.1729 -63.5732 -58.9404 -101.821 -47.4551c-10.1904 3.05566 -15.8594 8.14844 -18.3555 14.2764c-32.4316 -67.2412 -60.7363 -136.708 -89.124 -204.662c-1.30078 -3.1084 -4.20312 -5.35156 -7.87109 -6.87012
c-5.76953 -21.6055 -12.2803 -43.0049 -20.6865 -64.0039c-12.457 -31.1074 -91.8262 -28.252 -96.3066 7.42969c-7.00586 55.8271 3.23145 109.829 14.9463 164.626c11.2734 52.7363 25.8555 104.613 42.9102 155.766c33.915 101.733 74.5352 212.457 139.093 299.02
c21.9229 29.3994 135.131 22.3232 115.25 -27.6934c-19.7803 -49.751 -48.5801 -96.1465 -70.5742 -145.05c-21.4814 -47.7559 -40.6787 -96.5303 -57.5215 -146.11c-0.511719 -1.50684 -0.976562 -3.03125 -1.48242 -4.54395
c20.6338 41.0625 42.8574 81.3008 67.6064 120.149c25.5498 40.1025 53.8311 79.7109 90.0889 110.906c22.9238 19.7217 69.4141 48.4854 95.7939 15.9951c23.1592 -28.5225 -8.54199 -91.9668 -21.0576 -119.354c-11.0615 -24.2188 -24.2188 -48.1436 -39.3721 -70.6318
c27.6807 -0.3125 54.7197 0.0234375 81.2109 10.8848c24.4727 10.0371 45.3662 25.7314 65.6592 42.4268zM182.198 111.448c2.80859 2.7959 5.53906 5.65723 8.21191 8.57715c-18.5029 -7.76465 -43.9639 -23.0293 -43.6104 -39.207
c11.4678 6.60547 31.1895 26.4443 35.3984 30.6299zM216.536 152.657c19.6152 27.3213 36.2344 56.8047 49.5859 87.6641c7.07031 16.3369 13.4521 32.9736 17.6201 50.2988c1.8252 7.60645 6.17578 19.5391 4.43359 27.5635
c-2.48438 11.4209 3.76172 8.91895 -6.25781 6.45801c-12.1504 -2.98438 -28.2637 -24.2246 -36.7412 -33.1787c-11.668 -12.3213 -22.4004 -25.4375 -32.5264 -39.0479c-29.9473 -40.2324 -56.0684 -83.1787 -79.8105 -127.591
c24.2314 18.3496 53.8135 25.4727 83.6963 27.833z" />
    <glyph glyph-name="q" unicode="q" horiz-adv-x="416" 
d="M413.502 221.824c11.1738 8.9248 50.498 0.491211 35.4277 -11.8184c-45.4238 -37.0586 -90.8418 -74.123 -136.266 -111.188c-3.43262 -2.80176 -8.16602 -6.09863 -13.417 -9.74902c-6.10449 -13.1455 -12.2861 -26.2617 -18.5908 -39.3311
c-5.6748 -11.7568 -11.4092 -23.4834 -17.1729 -35.1982c1.6543 -3.33203 3.19629 -6.49316 4.26758 -9.31348c3.83203 -10.0781 6.79883 -20.4102 9.07715 -30.9482c14.6289 -67.6416 -3.65625 -144.391 -50.9707 -195.737
c-49.3154 -53.5186 -135.843 -29.458 -135.896 47.8506c-0.0644531 93.8926 52.0361 182.916 87.3701 267.183c15.5713 37.1357 30.7949 74.4297 45.8955 111.766c-27.2158 -42.9521 -50.6582 -87.7881 -75.2656 -132.235
c-30.8955 -55.7969 -82.3779 -144.214 -158.639 -132.175c-91.5605 14.459 -62.5547 154.906 -35.9336 211.516c34.1738 72.6641 94.0215 138.404 165.296 176.081c44.0293 23.2773 95.5938 33.5918 144.326 19.9512c5.77539 -1.61328 11.5801 -3.62109 17.2842 -5.95801
c0.676758 0.594727 1.37695 1.1543 2.06543 1.73145c2.76074 5.12793 5.61621 10.2266 8.62402 15.2539c12.2627 20.5166 40.085 24.5605 61.8672 23.0244c12.8926 -0.912109 53.3955 -9.97852 48.8916 -31.5664c-11.4033 -54.6436 -34.3506 -104.96 -55.874 -156.254
c-5.74023 -13.6758 -11.5918 -27.293 -17.5137 -40.8799zM162.195 180.07c19.9863 32.832 41.2773 64.9502 64.0488 95.957c-2.97266 3.70312 -6.12207 6.9707 -9.96582 10.8564c-0.476562 0.476562 -0.818359 0.876953 -1.1123 1.24805
c-0.0703125 -0.0410156 -0.117188 -0.0820312 -0.193359 -0.117188c-14.7529 -7.16992 -28.6465 -14.0693 -42.1104 -23.6826c-28.9111 -20.6514 -54.9785 -46.9609 -76.6543 -75.0596c-22.4766 -29.1406 -40.6494 -63.2148 -54.2188 -97.3828
c-8.3418 -20.999 -15.0469 -42.8223 -17.6846 -65.2988c-1.16016 -9.86035 -1.9082 -19.7627 -1.60254 -29.6943c0.15332 -4.89844 2.77344 -17.8379 2.90918 -21.541c2.4668 3.77344 17.4141 16.6719 20.7754 20.1221c6.75195 6.92871 13.0918 14.2754 19.0674 21.8818
c13.2637 16.8896 24.5723 35.2988 35.2871 53.8779c20.8281 36.1113 39.7666 73.2051 61.4541 108.833zM233.373 -105.494c3.30859 20.9404 2.91309 40.3193 0.0400391 59.2871c-7.77051 -15.6768 -15.5234 -31.3594 -23.1885 -47.084
c-6.7168 -13.7754 -63.9795 -125.417 -41.6328 -129.608c13.8994 -2.60254 38.6367 43.6875 44.2764 54.7256c10.0547 19.6631 17.0605 40.8623 20.5049 62.6797z" />
    <glyph glyph-name="r" unicode="r" horiz-adv-x="343" 
d="M338.721 203.092c7.50586 13.4521 47.709 8.48145 39.5557 -6.23047c-35.2275 -63.5625 -71.333 -127.819 -113.961 -186.784c-29.877 -41.3213 -69.0195 -91.8379 -125.022 -93.5566c-76.2607 -2.33691 -85.4443 70.627 -71.4863 128.614
c10.6553 44.2822 27.8457 90.5957 49.3447 133.653c-2.24316 -1.16602 -4.52734 -2.29004 -6.87012 -3.35547c-28.7109 -13.0225 -67.1123 -19.1748 -97.1064 -7.3418c-79.0332 31.1777 -39.9551 135.514 -5.2334 186.695c23.3896 34.4805 51.5 62.6562 93.875 71.0928
c32.8965 6.54688 93.4971 3.03223 99.2012 -40.2139c4.50977 -34.1855 -28.0039 -70.6611 -46.1709 -96.7646c-22.9121 -32.9141 -49.8926 -62.4316 -76.9609 -91.9316c-0.723633 -0.789062 -1.58887 -1.49512 -2.56641 -2.11914
c0.147461 -0.753906 0.277344 -1.37207 0.401367 -1.92578c8.53613 1.8252 21.2988 10.2676 28.1865 14.5361c22.0996 13.6875 39.625 32.9209 60.1592 48.4395c17.2139 17.1309 45.1123 20.6748 68.625 16.9131c20.2627 -3.24414 52.0234 -16.873 42.4336 -42.5996
c-19.5391 -52.3945 -48.3564 -101.604 -70.9395 -152.815c-10.1963 -23.124 -20.2041 -46.4893 -28.7402 -70.2842c-4.34473 -12.0977 -9.13672 -24.4961 -11.2793 -37.2295c-0.15332 -0.900391 -1.50781 -12.2803 -3.10938 -18.3789
c1.58984 0.641602 3.3623 1.33594 5.52246 2.14844c6.65234 4.7334 12.8281 10.0078 18.5322 15.8359c9.34277 9.13672 17.7139 19.3975 25.8438 29.5996c16.0947 20.21 30.4707 41.7266 44.3643 63.4854c29.3232 45.9072 56.8682 92.9561 83.4014 140.518zM172.525 374.803
c6.84082 2.2373 4.49805 2.03125 0 0zM76.125 191.233c0.588867 -2.19043 0.624023 -1.11816 0 0z" />
    <glyph glyph-name="s" unicode="s" horiz-adv-x="241" 
d="M241.206 224.861c12.916 8.41211 50.9453 -2.52051 30.3057 -17.2969c-44.1826 -31.5957 -93.6982 -55.0088 -141.725 -80.6289c5.50391 -22.5527 10.543 -45.1885 12.0908 -68.4951c2.87305 -43.2461 -12.1445 -84.9795 -38.9775 -118.565
c-37.0293 -46.3486 -138.304 -97.2715 -184.199 -33.2734c-48.4561 67.5654 43.417 150.025 92.1201 185.501c0.777344 0.56543 1.58398 1.10156 2.36719 1.66699c-17.749 56.4092 -39.6367 112.206 -26.4795 171.294c17.9434 80.5996 86.8447 148.571 172.283 147.488
c29.0117 -0.365234 59.6709 -10.3555 67.665 -41.4092c8.58887 -33.3682 -15.1006 -61.7021 -35.9404 -84.8438c-9.78418 -10.8613 -48.9268 -3.49707 -35.4277 11.8037c14.4824 16.4131 42.8818 48.9629 27.0811 73.1582
c-18.3906 28.1572 -42.7803 -13.6816 -50.5742 -28.0928c-22.5654 -41.7275 -23.7842 -96.2236 -17.7852 -142.313c1.86621 -14.3174 4.81543 -28.4229 8.10645 -42.458c40.291 21.1406 80.9766 41.6455 119.089 66.4648zM32.168 -11.1318
c0.759766 23.4131 -2.96094 46.3506 -8.64746 69.0625c-3.04395 -2.58984 -6.10547 -5.14453 -9.06641 -7.85254c-30.0293 -27.4688 -71.2617 -71.251 -60.7891 -115.857c1.68359 -7.16406 5.42773 -19.5625 12.6572 -23.5186
c5.96973 -3.26758 30.6006 -0.359375 35.3516 2.84277c6.59961 4.45605 11.7744 14.9404 15.6064 21.8105c9.24219 16.5664 14.2695 34.5391 14.8877 53.5127z" />
    <glyph glyph-name="t" unicode="t" horiz-adv-x="204" 
d="M196.812 222.33c8.9541 12.3867 48.7842 6.78516 39.5537 -6.20801c-47.585 -67.0234 -84.2314 -140.864 -130.468 -208.741c-16.4951 -24.2197 -34.6035 -57.04 -62.4961 -69.4736c-23.3418 -10.4082 -57.5869 -5.48047 -76.2432 12.4395
c-57.6221 55.3555 -19.0742 167.798 4.00879 230.059c23.8369 64.292 51.2588 129.979 82.3896 192.247c-4.91016 -0.229492 -9.81445 -0.447266 -14.7246 -0.676758c-20.9873 -0.977539 -30.0293 21.7871 -5.75684 24.2539c11.333 1.1543 22.6836 2.07812 34.0459 2.89648
c4.28027 8.12402 8.58398 16.2246 12.999 24.1895c21.0049 37.9238 136.632 35.0273 119.83 -18.833c-0.165039 -0.541992 -0.353516 -1.07227 -0.524414 -1.6084c3.62012 -0.0234375 7.24609 -0.0292969 10.8721 -0.0644531c27.7451 -0.270508 27.6572 -26.2793 0 -26.0029
c-6.61133 0.0644531 -13.2051 -0.0478516 -19.8047 -0.0654297c-25.6611 -70.0674 -63.2734 -136.768 -92.2549 -205.287c-16.6543 -39.3721 -32.7549 -78.8389 -46.001 -119.519c-5.82227 -17.873 -12.1152 -36.0645 -15.5117 -54.5967
c-1.3125 -7.16992 -4.03809 -18.9736 -4.3916 -29.6055c14.4824 15.8359 33.333 48.5205 37.5127 54.6963c14.4287 21.3115 27.9395 43.2227 41.2676 65.2285c27.5811 45.5537 54.4727 91.4668 85.6973 134.672z" />
    <glyph glyph-name="u" unicode="u" horiz-adv-x="374" 
d="M369.61 209.22c7.73535 13.2461 47.8789 8.32324 39.5547 -6.22363c-33.8389 -59.1465 -68.9434 -118.022 -114.026 -169.451c-26.8799 -30.665 -78.7861 -72.0801 -118.671 -35.498c-40.4502 37.0996 -6.33496 122.903 9.50098 164.554
c4.7334 12.457 9.7959 24.7959 14.9941 37.0762c-12.2861 -19.6152 -24.4668 -39.3018 -36.7764 -58.8994c-19.0684 -30.3535 -38.0244 -61.0127 -60.0947 -89.3174c-17.2842 -22.1709 -37.2588 -46.0371 -66.7881 -49.9287
c-30.2891 -3.99121 -62.5205 8.23633 -80.9531 32.7324c-24.29 32.2842 -18.9736 72.2744 -8.76562 108.691c21.3584 76.1602 67.248 145.745 102.111 216.26c19.9043 40.2617 139.67 33.4971 121.161 -19.0391c-22.5947 -64.1396 -61.7314 -121.462 -92.6973 -181.751
c-14.2051 -27.6689 -28.3281 -55.6318 -35.5693 -86.1152c-2.0957 -8.80664 -4.12695 -18.2314 -2.36719 -27.2617c-0.223633 -3.15527 0.600586 -5.97559 2.47266 -8.45996c2.11914 -5.05078 2.625 -4.44434 1.51855 1.8252
c-1.54785 4.98633 0.253906 8.7832 5.39355 11.3857c2.16602 2.56641 4.33789 5.12695 6.50391 7.6875c5.54004 6.70508 10.8145 13.6631 15.9004 20.7217c38.3838 53.2715 70.8389 110.829 106.556 165.879c17.3906 26.8096 35.252 53.3428 54.5615 78.8164
c15.1299 19.957 26.998 41.957 52.9951 46.3076c3.7793 0.629883 8.17676 0.124023 12.3154 -1.10645c13.7695 0.299805 28.0752 -5.55762 22.9004 -15.7129c-24.0195 -47.1729 -47.7031 -94.5459 -69.0078 -143.02c-20.1865 -45.9248 -40.4082 -93.5684 -45.6006 -143.932
c-1.06543 -10.3086 -2.29004 -21.3174 -0.935547 -31.6729c3.53809 -27.0742 22.5 -16.9365 36.1172 -4.46191c16.9961 15.5654 31.7139 34.1748 45.6719 52.4307c30.7188 40.1846 56.5566 83.8721 82.0244 127.483z" />
    <glyph glyph-name="u" unicode="&#xfc;" horiz-adv-x="374" 
d="M369.61 209.22c7.73535 13.2461 47.8789 8.32324 39.5547 -6.22363c-33.8389 -59.1465 -68.9434 -118.022 -114.026 -169.451c-26.8799 -30.665 -78.7861 -72.0801 -118.671 -35.498c-40.4502 37.0996 -6.33496 122.903 9.50098 164.554
c4.7334 12.457 9.7959 24.7959 14.9941 37.0762c-12.2861 -19.6152 -24.4668 -39.3018 -36.7764 -58.8994c-19.0684 -30.3535 -38.0244 -61.0127 -60.0947 -89.3174c-17.2842 -22.1709 -37.2588 -46.0371 -66.7881 -49.9287
c-30.2891 -3.99121 -62.5205 8.23633 -80.9531 32.7324c-24.29 32.2842 -18.9736 72.2744 -8.76562 108.691c21.3584 76.1602 67.248 145.745 102.111 216.26c19.9043 40.2617 139.67 33.4971 121.161 -19.0391c-22.5947 -64.1396 -61.7314 -121.462 -92.6973 -181.751
c-14.2051 -27.6689 -28.3281 -55.6318 -35.5693 -86.1152c-2.0957 -8.80664 -4.12695 -18.2314 -2.36719 -27.2617c-0.223633 -3.15527 0.600586 -5.97559 2.47266 -8.45996c2.11914 -5.05078 2.625 -4.44434 1.51855 1.8252
c-1.54785 4.98633 0.253906 8.7832 5.39355 11.3857c2.16602 2.56641 4.33789 5.12695 6.50391 7.6875c5.54004 6.70508 10.8145 13.6631 15.9004 20.7217c38.3838 53.2715 70.8389 110.829 106.556 165.879c17.3906 26.8096 35.252 53.3428 54.5615 78.8164
c15.1299 19.957 26.998 41.957 52.9951 46.3076c3.7793 0.629883 8.17676 0.124023 12.3154 -1.10645c13.7695 0.299805 28.0752 -5.55762 22.9004 -15.7129c-24.0195 -47.1729 -47.7031 -94.5459 -69.0078 -143.02c-20.1865 -45.9248 -40.4082 -93.5684 -45.6006 -143.932
c-1.06543 -10.3086 -2.29004 -21.3174 -0.935547 -31.6729c3.53809 -27.0742 22.5 -16.9365 36.1172 -4.46191c16.9961 15.5654 31.7139 34.1748 45.6719 52.4307c30.7188 40.1846 56.5566 83.8721 82.0244 127.483z" />
    <glyph glyph-name="u" unicode="&#xfb;" horiz-adv-x="374" 
d="M369.61 209.22c7.73535 13.2461 47.8789 8.32324 39.5547 -6.22363c-33.8389 -59.1465 -68.9434 -118.022 -114.026 -169.451c-26.8799 -30.665 -78.7861 -72.0801 -118.671 -35.498c-40.4502 37.0996 -6.33496 122.903 9.50098 164.554
c4.7334 12.457 9.7959 24.7959 14.9941 37.0762c-12.2861 -19.6152 -24.4668 -39.3018 -36.7764 -58.8994c-19.0684 -30.3535 -38.0244 -61.0127 -60.0947 -89.3174c-17.2842 -22.1709 -37.2588 -46.0371 -66.7881 -49.9287
c-30.2891 -3.99121 -62.5205 8.23633 -80.9531 32.7324c-24.29 32.2842 -18.9736 72.2744 -8.76562 108.691c21.3584 76.1602 67.248 145.745 102.111 216.26c19.9043 40.2617 139.67 33.4971 121.161 -19.0391c-22.5947 -64.1396 -61.7314 -121.462 -92.6973 -181.751
c-14.2051 -27.6689 -28.3281 -55.6318 -35.5693 -86.1152c-2.0957 -8.80664 -4.12695 -18.2314 -2.36719 -27.2617c-0.223633 -3.15527 0.600586 -5.97559 2.47266 -8.45996c2.11914 -5.05078 2.625 -4.44434 1.51855 1.8252
c-1.54785 4.98633 0.253906 8.7832 5.39355 11.3857c2.16602 2.56641 4.33789 5.12695 6.50391 7.6875c5.54004 6.70508 10.8145 13.6631 15.9004 20.7217c38.3838 53.2715 70.8389 110.829 106.556 165.879c17.3906 26.8096 35.252 53.3428 54.5615 78.8164
c15.1299 19.957 26.998 41.957 52.9951 46.3076c3.7793 0.629883 8.17676 0.124023 12.3154 -1.10645c13.7695 0.299805 28.0752 -5.55762 22.9004 -15.7129c-24.0195 -47.1729 -47.7031 -94.5459 -69.0078 -143.02c-20.1865 -45.9248 -40.4082 -93.5684 -45.6006 -143.932
c-1.06543 -10.3086 -2.29004 -21.3174 -0.935547 -31.6729c3.53809 -27.0742 22.5 -16.9365 36.1172 -4.46191c16.9961 15.5654 31.7139 34.1748 45.6719 52.4307c30.7188 40.1846 56.5566 83.8721 82.0244 127.483z" />
    <glyph glyph-name="u" unicode="&#xfa;" horiz-adv-x="374" 
d="M369.61 209.22c7.73535 13.2461 47.8789 8.32324 39.5547 -6.22363c-33.8389 -59.1465 -68.9434 -118.022 -114.026 -169.451c-26.8799 -30.665 -78.7861 -72.0801 -118.671 -35.498c-40.4502 37.0996 -6.33496 122.903 9.50098 164.554
c4.7334 12.457 9.7959 24.7959 14.9941 37.0762c-12.2861 -19.6152 -24.4668 -39.3018 -36.7764 -58.8994c-19.0684 -30.3535 -38.0244 -61.0127 -60.0947 -89.3174c-17.2842 -22.1709 -37.2588 -46.0371 -66.7881 -49.9287
c-30.2891 -3.99121 -62.5205 8.23633 -80.9531 32.7324c-24.29 32.2842 -18.9736 72.2744 -8.76562 108.691c21.3584 76.1602 67.248 145.745 102.111 216.26c19.9043 40.2617 139.67 33.4971 121.161 -19.0391c-22.5947 -64.1396 -61.7314 -121.462 -92.6973 -181.751
c-14.2051 -27.6689 -28.3281 -55.6318 -35.5693 -86.1152c-2.0957 -8.80664 -4.12695 -18.2314 -2.36719 -27.2617c-0.223633 -3.15527 0.600586 -5.97559 2.47266 -8.45996c2.11914 -5.05078 2.625 -4.44434 1.51855 1.8252
c-1.54785 4.98633 0.253906 8.7832 5.39355 11.3857c2.16602 2.56641 4.33789 5.12695 6.50391 7.6875c5.54004 6.70508 10.8145 13.6631 15.9004 20.7217c38.3838 53.2715 70.8389 110.829 106.556 165.879c17.3906 26.8096 35.252 53.3428 54.5615 78.8164
c15.1299 19.957 26.998 41.957 52.9951 46.3076c3.7793 0.629883 8.17676 0.124023 12.3154 -1.10645c13.7695 0.299805 28.0752 -5.55762 22.9004 -15.7129c-24.0195 -47.1729 -47.7031 -94.5459 -69.0078 -143.02c-20.1865 -45.9248 -40.4082 -93.5684 -45.6006 -143.932
c-1.06543 -10.3086 -2.29004 -21.3174 -0.935547 -31.6729c3.53809 -27.0742 22.5 -16.9365 36.1172 -4.46191c16.9961 15.5654 31.7139 34.1748 45.6719 52.4307c30.7188 40.1846 56.5566 83.8721 82.0244 127.483z" />
    <glyph glyph-name="v" unicode="v" horiz-adv-x="422" 
d="M431.11 230.312c15.7949 4.3916 46.5264 -12.6875 20.7061 -20.1934c-48.7207 -14.1582 -101.228 -17.9609 -149.454 -2.44824c-17.2139 -36.8115 -37.6006 -72.0449 -60.4775 -105.766c-28.7939 -42.4512 -60.8135 -88.6465 -107.203 -113.337
c-44.0176 -23.4248 -99.2441 -21.8711 -134.726 16.4121c-40.5557 43.7578 -32.2373 105.019 -19.4688 158.149c15.1709 63.127 38.0361 127.967 68.1016 185.56c20.1748 38.6426 136.661 33.6387 118.947 -18.6914c-17.6611 -52.1768 -43.1816 -101.581 -61.7139 -153.517
c-14.9121 -41.8037 -42.6572 -99.0781 -36.6758 -144.679c8.71875 -66.459 81.9824 13.375 100.968 36.0518c33.5439 40.0615 61.7725 84.373 84.9854 131.157c3.93262 7.92969 7.8418 16.042 11.6562 24.2783c-42.292 24.2959 -75.2891 67.5947 -75.4834 117.775
c-0.15918 42.416 22.5234 84.832 61.1953 103.906c35.8994 17.708 81.3887 8.33594 94.499 -32.4199c15.6768 -48.7266 -6.85254 -109.728 -23.7773 -155.388c-2.9668 -8.0127 -6.13965 -15.9248 -9.41895 -23.79c36.2285 -15.083 78.2617 -13.917 117.34 -3.06152z
M306.647 347.575c2.45508 18.7441 6.65234 48.6279 -4.65039 65.1055c-19.792 28.8467 -45.7305 -5.52148 -55.1025 -24.8486c-20.7344 -42.7402 -8.34766 -92.1328 23.8838 -125.307c3.00781 -3.09668 6.13965 -5.94043 9.33594 -8.64844
c12.3984 30.4531 22.3945 62.1611 26.5332 93.6982z" />
    <glyph glyph-name="w" unicode="w" horiz-adv-x="633" 
d="M641.631 230.312c15.7949 4.3916 46.5273 -12.6875 20.7188 -20.1875c-48.7207 -14.1582 -101.228 -17.9609 -149.454 -2.44824c-17.208 -36.8115 -37.6006 -72.0449 -60.4775 -105.766c-28.7939 -42.4512 -60.8135 -88.6465 -107.203 -113.337
c-44.0176 -23.4248 -99.2441 -21.8711 -134.726 16.4121c-40.5557 43.7578 -32.2373 105.019 -19.4688 158.149c1.40723 5.86914 2.95508 11.7676 4.49707 17.6602c-6.85254 -13.3223 -13.6582 -26.6738 -20.4873 -40.0137
c-24.084 -47.0312 -55.0732 -125.559 -115.922 -134.177c-78.9746 -11.1914 -98.6133 73.7168 -87.0508 134.159c13.5752 70.998 45.7773 145.64 85.1855 206.105c22.082 33.8857 136.49 34.498 117.169 -18.415c-22.6299 -61.9902 -56.9805 -119.142 -79.457 -181.491
c-10.4141 -28.8877 -19.9102 -59.0352 -21.123 -89.9658c6.69922 11.4326 17.6377 22.7588 24.249 34.0918c33.9678 58.2637 61.584 119.913 96.335 177.782c14.6768 24.4434 37.7832 77.1504 70.4092 87.3584c30.3652 30.1299 129.686 22.3828 113.231 -26.2324
c-17.6611 -52.1768 -43.1816 -101.581 -61.7139 -153.517c-14.9121 -41.8037 -42.6572 -99.0781 -36.6758 -144.679c8.71875 -66.459 81.9824 13.375 100.968 36.0518c33.5439 40.0615 61.7725 84.373 84.9854 131.157c3.93262 7.92969 7.8418 16.042 11.6562 24.2783
c-42.292 24.2959 -75.2949 67.5947 -75.4834 117.775c-0.15918 42.416 22.5234 84.832 61.1953 103.906c35.8994 17.708 81.3887 8.33594 94.499 -32.4199c15.6768 -48.7266 -6.84668 -109.728 -23.7715 -155.388c-2.97266 -8.0127 -6.14551 -15.9248 -9.4248 -23.79
c36.2285 -15.083 78.2676 -13.917 117.34 -3.06152zM517.169 347.575c2.45508 18.7441 6.65234 48.6279 -4.65039 65.1055c-19.792 28.8467 -45.7305 -5.52148 -55.1025 -24.8486c-20.7344 -42.7402 -8.34766 -92.1328 23.8838 -125.307
c3.00781 -3.09668 6.13965 -5.94043 9.33594 -8.64844c12.3984 30.4531 22.4004 62.1611 26.5332 93.6982z" />
    </font>
</defs>
</svg>
