<?xml version="1.0" standalone="no"?>
<!DOCTYPE svg PUBLIC "-//W3C//DTD SVG 1.1//EN" "http://www.w3.org/Graphics/SVG/1.1/DTD/svg11.dtd" >
<svg xmlns="http://www.w3.org/2000/svg" xmlns:xlink="http://www.w3.org/1999/xlink" version="1.1">
<metadata>
Created by FontForge 20170812 at Sun Feb 20 17:28:04 2022
 By www-data
</metadata>
<defs>
<font id="BemonadeRegular" horiz-adv-x="409" >
  <font-face 
    font-family="Bemonade"
    font-weight="400"
    font-stretch="normal"
    units-per-em="1000"
    panose-1="0 0 0 0 0 0 0 0 0 0"
    ascent="800"
    descent="-200"
    x-height="329.321"
    cap-height="684.468"
    bbox="-230 -448.314 814.064 833.961"
    underline-thickness="50"
    underline-position="-100"
    unicode-range="U+000A-20AC"
  />
<missing-glyph horiz-adv-x="527" 
d="M50 700h427v-700h-427v700zM78 680l185 -309l186 309h-371zM251 350l-180 300v-601zM264 329l-185 -308h370zM276 350l181 -303v605z" />
    <glyph glyph-name=".notdef" horiz-adv-x="527" 
d="M50 700h427v-700h-427v700zM78 680l185 -309l186 309h-371zM251 350l-180 300v-601zM264 329l-185 -308h370zM276 350l181 -303v605z" />
    <glyph glyph-name=".null" horiz-adv-x="0" 
 />
    <glyph glyph-name=".null" horiz-adv-x="0" 
 />
    <glyph glyph-name="LF" unicode="&#xa;" horiz-adv-x="0" 
 />
    <glyph glyph-name="controlCR" unicode="&#xd;" horiz-adv-x="0" 
 />
    <glyph glyph-name="space" unicode=" " horiz-adv-x="313" 
 />
    <glyph glyph-name="exclam" unicode="!" horiz-adv-x="214" 
d="M145.111 82.2822c0.526367 -31.499 -79.0205 -31.6895 -80.6924 0c-5.35156 101.202 -5.96289 202.697 -8.2998 304.009c-1.15918 50.293 -2.31836 100.579 -3.64062 150.869c-0.674805 25.6875 -1.11621 51.3818 -1.78027 77.0693
c-0.332031 12.7998 -0.678711 25.6768 -0.530273 38.4834c0.0917969 8.00977 -1.70703 32.7822 4.7334 38.7344c4.76465 4.4043 7.3877 6.73047 14.3936 7.76953c8.76953 1.30078 22.6826 0.0849609 27.5107 -8.9043c11.2969 -21.0215 13.3047 -49.3525 16.4609 -72.583
c3.31543 -24.4287 6.03711 -49.0205 8.39453 -73.5596c4.93066 -51.3047 7.79395 -102.898 10.3604 -154.369c5.10449 -102.418 11.3721 -204.984 13.0898 -307.519zM163.567 -58.6084c2.62598 -21.4316 -55.7666 -23.2988 -57.7744 -0.000976562
c-1.81641 21.1104 -5.37598 42.3584 -5.64453 63.5498c-0.229492 18.2568 39.6816 16.5781 46.0518 3.55273c10.124 -20.7002 14.585 -44.376 17.3672 -67.1016z" />
    <glyph glyph-name="quotedbl" unicode="&#x22;" horiz-adv-x="249" 
d="M63.4961 670.28c5.88867 19.0029 58.7021 15.0625 52.7773 -8.29199c-7.35645 -28.9961 -12.5527 -59.4912 -21.4463 -87.9609c-4.41895 -14.1494 -32.2412 -8.88965 -38.6777 0c-8.64941 11.9551 -6.1748 32.3047 -4.44238 45.9951
c2.14258 16.9561 6.73828 33.9658 11.7891 50.2578zM145.136 661.268c9.39941 17.458 62.4912 12.7783 52.5127 -8.25c-6.91016 -14.5596 -12.7217 -29.1826 -17.501 -44.5771c-4.61621 -14.8672 -5.04785 -28.8867 -18.71 -37.8438
c-4.88477 -3.20215 -14.2588 -3.25879 -19.1758 0c-27.0586 17.9316 -9.49414 67.6943 2.87402 90.6709z" />
    <glyph glyph-name="quotedbl" unicode="&#x201d;" horiz-adv-x="249" 
d="M63.4961 670.28c5.88867 19.0029 58.7021 15.0625 52.7773 -8.29199c-7.35645 -28.9961 -12.5527 -59.4912 -21.4463 -87.9609c-4.41895 -14.1494 -32.2412 -8.88965 -38.6777 0c-8.64941 11.9551 -6.1748 32.3047 -4.44238 45.9951
c2.14258 16.9561 6.73828 33.9658 11.7891 50.2578zM145.136 661.268c9.39941 17.458 62.4912 12.7783 52.5127 -8.25c-6.91016 -14.5596 -12.7217 -29.1826 -17.501 -44.5771c-4.61621 -14.8672 -5.04785 -28.8867 -18.71 -37.8438
c-4.88477 -3.20215 -14.2588 -3.25879 -19.1758 0c-27.0586 17.9316 -9.49414 67.6943 2.87402 90.6709z" />
    <glyph glyph-name="quotedbl" unicode="&#x201c;" horiz-adv-x="249" 
d="M63.4961 670.28c5.88867 19.0029 58.7021 15.0625 52.7773 -8.29199c-7.35645 -28.9961 -12.5527 -59.4912 -21.4463 -87.9609c-4.41895 -14.1494 -32.2412 -8.88965 -38.6777 0c-8.64941 11.9551 -6.1748 32.3047 -4.44238 45.9951
c2.14258 16.9561 6.73828 33.9658 11.7891 50.2578zM145.136 661.268c9.39941 17.458 62.4912 12.7783 52.5127 -8.25c-6.91016 -14.5596 -12.7217 -29.1826 -17.501 -44.5771c-4.61621 -14.8672 -5.04785 -28.8867 -18.71 -37.8438
c-4.88477 -3.20215 -14.2588 -3.25879 -19.1758 0c-27.0586 17.9316 -9.49414 67.6943 2.87402 90.6709z" />
    <glyph glyph-name="numbersign" unicode="#" horiz-adv-x="424" 
d="M361.235 310.062c17.2744 -1.0957 17.5264 -17.5137 0.00390625 -16.4072c-22.5137 1.42773 -44.9883 1.83789 -67.4346 1.53711c-0.692383 -6.42285 -1.37109 -12.8457 -2.00391 -19.2754c-0.707031 -7.19336 -1.38184 -14.3936 -2.02832 -21.5977
c11.4912 0.551758 22.9902 1.00781 34.5 1.34668c17.4375 0.508789 17.1406 -15.7158 0 -16.2461c-11.9756 -0.371094 -23.9414 -0.883789 -35.9033 -1.48145c-4.01953 -48.2324 -6.66406 -96.6416 -7.5332 -144.994
c-0.537109 -29.873 -0.427734 -59.7881 0.109375 -89.6611c0.473633 -26.3271 6.05469 -61.9824 -5.11133 -86.3193c-7.44043 -16.2139 -38.4443 -12.0391 -47.1855 0.000976562c-9.16602 12.623 -11.3291 29.8164 -14.2383 44.9951
c-2.8418 14.8145 -5.0332 29.7666 -6.48926 44.7754c-2.90234 29.8516 -4.52441 59.6855 -5.06836 89.668c-0.823242 45.292 0.643555 90.4707 3.65918 135.606c-6.4082 -0.604492 -12.8164 -1.22656 -19.2217 -1.89453
c-2.27246 -42.3086 -3.56934 -84.6201 -3.78809 -127.073c-0.15918 -31.6328 0.364258 -63.2236 0.583008 -94.8535c0.19043 -27.9395 -1.66895 -56.0127 1.82324 -83.7754c2.47754 -19.6992 -38.1123 -14.1738 -46.3662 -7.15723
c-22.9307 19.4873 -23.2773 56.4404 -26.5898 84.1641c-3.75 31.3994 -5.41113 63.252 -6.62695 94.8457c-1.58008 41.0605 -1.51953 82.375 -0.120117 123.584c-13.2588 -1.97266 -26.5039 -4.03711 -39.7236 -6.2959c-13.5947 -2.32227 -25.2842 11.8916 -7.28125 15.0586
c15.8428 2.78516 31.7246 5.29102 47.624 7.65918c0.632812 14.8184 1.44922 29.6084 2.41406 44.3701c-12.6338 -1.49902 -25.2637 -3.02637 -37.8896 -4.5498c-13.3301 -1.60449 -25.2598 12.4609 -7.21094 14.9072c15.3975 2.08887 30.8125 4.13184 46.2422 6.08984
c9.0459 124.482 27.7871 249.474 64.7822 368.809c4.33398 13.9727 28.9326 15.8105 40.3291 15.0049c8.56836 -0.604492 34.6162 -6.45117 31.8701 -20.5762c-22.8311 -117.43 -44.7402 -234.842 -54.8848 -354.113c6.81543 0.62207 13.6309 1.20215 20.4492 1.73242
c10.7207 110.325 26.998 220.703 49.9951 329.014c3.70801 17.4619 23.5947 22.5273 39.5195 22.5273c11.4355 0 41.6689 -5.3125 39.5195 -22.5273c-13.5811 -108.71 -33.7402 -216.412 -46.3027 -325.256c21.8418 0.205078 43.7012 -0.254883 65.5781 -1.64062z
M209.9 275.92c0.445312 5.07617 0.972656 10.1553 1.43555 15.2344c-6.74805 -0.537109 -13.5 -1.12012 -20.2441 -1.73535c0 -0.0244141 -0.00390625 -0.0488281 -0.00390625 -0.0703125c-1.07422 -14.2559 -2.02539 -28.5049 -2.87695 -42.75
c6.48633 0.674805 12.9873 1.26172 19.4805 1.86621c0.685547 9.15527 1.41016 18.3066 2.20898 27.4551z" />
    <glyph glyph-name="dollar" unicode="$" horiz-adv-x="410" 
d="M279.314 612.497c108.851 -25.1504 81.0459 -171.216 64.3545 -249.579c-2.34375 -11.0078 -29.6816 -9.75684 -27.6699 -0.000976562c12.0752 58.582 26.8438 124.941 4.39746 182.958c-9.78809 25.2881 -27.7305 45.0127 -54.5664 49.2832
c-18.5117 -114.044 -34.3125 -228.522 -47.1797 -343.348c-1.68262 -15.0332 -3.29492 -30.0703 -4.84277 -45.1113c29.4805 -34.5391 61.3506 -67.5615 84.5527 -106.409c20.2549 -33.9092 38.1025 -84.4814 13.4121 -120.544
c-21.5586 -31.4883 -66.5605 -45.2666 -103.1 -42.5273c-2.26953 0.169922 -4.52148 0.407227 -6.7627 0.693359c0.0283203 -0.643555 0.0351562 -1.2832 0.0673828 -1.92676c1.63672 -34.7119 6.77637 -69.0947 8.50879 -103.746
c0.816406 -16.3311 -37.8828 -15.3447 -40.9268 0c-7.50488 37.8369 -8.6748 77.8545 -7.33496 117.737c-18.8691 9.58594 -34.8428 24.2939 -45.5283 43.7881c-11.3506 20.7139 -16.709 44.5 -21.4707 67.459c-5.14648 24.8281 -7.38086 49.5078 -2.17383 74.5098
c2.04004 9.78809 26.3701 8.74219 24.6348 0.000976562c-6.01953 -30.3643 -1.20117 -60.7637 6.84082 -90.3184c6.88965 -25.3203 16.3174 -51.9229 36.4336 -69.8652c0.763672 -0.678711 1.55566 -1.3252 2.34082 -1.97559
c1.30469 23.7188 3.22363 47.2285 4.97656 70.0312c2.59082 33.6689 5.95996 67.3096 9.67188 100.915c-20.0635 21.6475 -40.2754 43.1885 -58.667 66.2354c-28.9639 36.2881 -51.792 74.5449 -62.5166 120.119c-11.8242 50.2402 -7.17285 103.853 6.37988 153.318
c21.0996 77.002 100.679 132.774 180.356 132.393c3.09277 17.9785 6.24609 35.9492 9.47363 53.9062c1.82715 10.1699 27.0518 9.17676 25.4609 0c-3.23438 -18.6562 -6.37695 -37.3271 -9.46289 -56.0049c3.46094 -0.5625 6.91113 -1.19922 10.3398 -1.99121z
M240.684 68.126c-10.7109 16.1934 -22.2549 31.3867 -35.0615 45.9639c-1.76758 -24.6133 -3.1748 -49.2578 -4.04395 -73.9521c-0.99707 -28.25 -1.12402 -56.4971 -0.279297 -84.7402c8.5791 -1.75684 17.4053 -2.20215 26.083 -1.11719
c24.6904 3.08203 52.8809 23.1523 45.8965 51.3535c-5.42969 21.9189 -20.2764 43.8633 -32.5947 62.4922zM190.479 251.81c13.5986 114.723 30.127 229.078 49.3564 342.987c-18.3418 -3.09668 -35.8535 -11.5732 -51.3291 -21.4463
c-42.3828 -27.0449 -55.7793 -69.4346 -58.1055 -117.784c-2.46387 -51.1875 0.770508 -106.345 20.6895 -154.132c9.65723 -23.1709 22.8418 -44.0225 37.7061 -63.7783c0.558594 4.71875 1.12402 9.4375 1.68262 14.1533z" />
    <glyph glyph-name="percent" unicode="%" horiz-adv-x="593" 
d="M513.085 669.11c10.8379 -1.73535 36.8232 -12.0176 27.6045 -27.7051c-31.7881 -54.1035 -65.2803 -107.165 -97.0264 -161.294c-55.5566 -94.7334 -107.232 -191.739 -154.867 -290.692c-23.6162 -49.0596 -46.6807 -98.3564 -68.5615 -148.215
c-11.4072 -25.9883 -22.9307 -51.9307 -34.2178 -77.9717c-11.0107 -25.4043 -21.0107 -51.3818 -35.6943 -74.9238c-7.41211 -11.8838 -23.1807 -14.3408 -36.0859 -13.4287c-8.0625 0.569336 -30.5195 5.66309 -28.5186 18.4131
c4.93457 31.46 17.4482 61.2021 28.7666 90.8164c10.834 28.3496 22.2227 56.4199 34.1631 84.3203c43.6016 101.866 91.8164 201.601 144.206 299.235c52.4287 97.6982 107.303 195.291 171.622 285.712c10.7383 15.1006 31.0771 18.5361 48.6094 15.7334zM214.949 385.839
c-10.4775 -48.8125 -64.5557 -72.3604 -109.646 -54.623c-22.7822 8.96094 -38.6787 28.1865 -44.1572 51.873c-1.10645 4.77539 -1.73242 9.5293 -2.04395 14.2695c-3.38281 0.816406 -6.16504 2.45312 -7.09473 5.01562c-5.87109 16.165 1.92285 32.0645 13.1562 44.8887
c1.73926 7.42676 3.58398 14.8389 5.18555 22.251c3.56348 16.4795 22.2236 21.2656 37.3105 21.2656c6.52539 0 21.1387 -2.14941 30.0713 -7.90723c3.40039 0.0917969 6.81152 0.0175781 10.2266 -0.275391c50.5762 -4.35449 77.1719 -49.3418 66.9912 -96.7578z
M144.396 466.561c-5.70898 -29.2402 -19.2051 -59.9521 -11.793 -89.9023c1.72461 -6.9668 6.07617 -21.2334 14.418 -22.7676c11.4531 -2.10352 27.1973 16.7266 32.3477 24.5918c17.7656 27.1367 10.3672 67.4268 -19.3076 83.3867
c-5.05078 2.71484 -10.335 4.18555 -15.665 4.69141zM439.944 113.625c47.7939 -22.0361 45.0781 -86.084 15.6152 -121.874c-33.7891 -41.0459 -109.193 -49.6641 -141.003 -1.58691c-33.4248 50.5234 -1.84082 121.432 26.0703 166.663
c13.1816 21.3574 83.2061 18.1338 69.8232 -10.9717c-3.99121 -8.6748 -8.36426 -17.3213 -12.7051 -26.0205c14.334 1.54492 28.8799 -0.0703125 42.1992 -6.20996zM428.929 14.165c10.3359 12.0889 19.1973 28.6279 18.2852 44.9482
c-0.905273 16.1963 -9.98242 34.0752 -24.8926 41.4951c-9.70996 4.83203 -21.3008 3.74023 -31.3359 0.678711c-0.395508 -0.120117 -1.36035 -0.445312 -2.6543 -0.905273c-7.58203 -16.4727 -13.9873 -33.376 -16.4971 -51.29
c-1.93359 -13.8105 -3.75391 -59.4766 17.8789 -60.7275c13.9307 -0.805664 31.082 16.2891 39.2158 25.8008z" />
    <glyph glyph-name="ampersand" unicode="&#x26;" horiz-adv-x="500" 
d="M431.548 157.588c52.3857 -60.5801 -16.7959 -141.521 -67.0859 -175.521c-59.4697 -40.2051 -141.739 -56.5645 -211.128 -35.4756c-35.2422 10.7109 -65.2246 35.0166 -75.1787 71.457c-10.5547 38.6289 0.654297 77.1191 19.9688 111.089
c24.1641 42.4951 55.8818 78.3135 92.4492 108.96c-42.3154 2.2832 -83.2559 14.8213 -111.336 43.4961c-46.2461 47.2178 -31.2051 117.772 0.795898 168.129c31.5557 49.6572 77.3066 89.9014 130.842 114.412c32.541 14.8994 67.6943 25.2852 103.707 25.9111
c31.043 0.541016 68.8057 -6.07617 91.0684 -29.9043c45.249 -48.4307 -13.7783 -122.361 -55.167 -149.954c-12.3398 -8.22559 -32.5273 -7.33789 -45.543 -1.54395c-9.52637 4.23828 -19.8936 16.168 -8.93164 25.5029c19.7627 16.8262 36.0225 38.3564 44.5557 63.0576
c6.95312 20.124 6.22168 46.3916 -19.3633 47.5684c-23.9062 1.09961 -49.2969 -10.9014 -69.8623 -21.958c-23.5664 -12.6689 -44.5742 -28.7695 -63.1143 -48.041c-34.2666 -35.624 -70.2158 -91.6963 -53.9346 -143.237
c17.6318 -55.8115 86.3838 -52.7041 132.669 -41.2021c15.4688 3.8457 34.0615 4.7793 47.5322 -5.4082c10.6221 -8.03125 9.60059 -21.5762 -2.88086 -27.5752c-57.9111 -27.8369 -109.244 -74.3271 -144.323 -127.996
c-27.4014 -41.9268 -54.8311 -119.505 3.11523 -150.636c44.9062 -24.1211 106.999 -7.88184 148.614 15.5928c43.8701 24.7441 105.426 80.2832 85.0938 137.031c-22.6123 63.1035 -108.78 18.1553 -128.728 -23.0645
c-5.00488 -10.3428 -34.8105 -8.96777 -30.9434 4.86035c19.0771 68.25 139.579 99.4131 187.108 44.4502z" />
    <glyph glyph-name="quotesingle" unicode="'" horiz-adv-x="161" 
d="M62.4316 657.46c6.77637 17.2354 55.7588 11.6191 47.4521 -7.45508c-4.64453 -10.668 -8.23633 -21.5801 -11.3926 -32.7715c-3.15332 -11.1875 -3.58496 -22.6299 -12.4541 -30.8516c-6.59277 -6.11133 -21.9902 -6.94922 -28.4238 0
c-16.1396 17.4375 -2.75 51.8242 4.81836 71.0781z" />
    <glyph glyph-name="quotesingle" unicode="&#x2019;" horiz-adv-x="161" 
d="M62.4316 657.46c6.77637 17.2354 55.7588 11.6191 47.4521 -7.45508c-4.64453 -10.668 -8.23633 -21.5801 -11.3926 -32.7715c-3.15332 -11.1875 -3.58496 -22.6299 -12.4541 -30.8516c-6.59277 -6.11133 -21.9902 -6.94922 -28.4238 0
c-16.1396 17.4375 -2.75 51.8242 4.81836 71.0781z" />
    <glyph glyph-name="quotesingle" unicode="&#x2018;" horiz-adv-x="161" 
d="M62.4316 657.46c6.77637 17.2354 55.7588 11.6191 47.4521 -7.45508c-4.64453 -10.668 -8.23633 -21.5801 -11.3926 -32.7715c-3.15332 -11.1875 -3.58496 -22.6299 -12.4541 -30.8516c-6.59277 -6.11133 -21.9902 -6.94922 -28.4238 0
c-16.1396 17.4375 -2.75 51.8242 4.81836 71.0781z" />
    <glyph glyph-name="parenleft" unicode="(" horiz-adv-x="431" 
d="M380.533 679.244c5.57129 -10.8408 -21.7363 -12.4336 -26.9609 -4.23633c-21.7891 34.252 -69.2295 -13.998 -84.4824 -31.502c-23.3223 -26.7656 -40.1553 -58.8896 -54.8887 -90.9824c-58.7129 -127.868 -88.6348 -269.72 -79.0303 -410.497
c4.29492 -62.9404 15.377 -130.455 52.7822 -183.015c29.9014 -42.0146 77.749 -70.3145 129.329 -53.5986c9.58984 3.10742 24.0508 3.22363 32.2764 -3.67285c7.56055 -6.33789 5.98047 -13.5596 -1.95508 -18.7236c-71.9297 -46.8291 -181.151 -9.42383 -230.939 53.5205
c-50.6221 63.9941 -63.4707 148.169 -66.2422 227.558c-3.01562 86.3555 10.293 173.199 36.4043 255.465c25.0195 78.8193 61.0459 161.109 115.69 224.191c37.8369 43.6758 137.879 113.577 178.017 35.4932z" />
    <glyph glyph-name="parenright" unicode=")" horiz-adv-x="404" 
d="M332.994 346.262c16.1006 -79.6924 25.7812 -161.23 18.0186 -242.51c-6.94629 -72.7852 -26.7021 -152.096 -74.9775 -209.052c-55.5039 -65.4863 -150.785 -65.7871 -217.989 -18.4346c-10.1621 7.1582 -11.2793 16.7236 0 23.7295
c12.2832 7.62793 29.1475 5.77246 41.6328 0c26.377 -12.1914 54.8887 -21.3926 80.7031 -4.3125c25.1963 16.6699 41.2412 44.7295 53.2705 71.6758c54.1211 121.223 43.5771 260.66 21.0918 388.087c-10.8555 61.5273 -23.7432 123.369 -47.6523 181.344
c-11.873 28.7979 -26.0693 56.0371 -43.1533 82.085c-19.1582 29.2148 -46.2207 59.9639 -84.418 44.1777c-7.82227 -3.23438 -29.1553 6.13281 -16.0977 11.8906c84.8711 37.4375 158.183 -47.334 195.952 -112.7c38.2715 -66.2422 58.5752 -141.513 73.6191 -215.98z" />
    <glyph glyph-name="asterisk" unicode="*" horiz-adv-x="243" 
d="M184.31 586.622c18.0029 -2.50977 6.14648 -16.7646 -7.20801 -14.9014c-10.4414 1.45312 -20.8584 2.34766 -31.2539 2.79688c5.79395 -6.13281 11.7744 -12.0957 18.2363 -17.6025c5.10449 -4.34766 -0.932617 -9.1123 -4.91309 -10.6816
c-5.85059 -2.31152 -13.9453 -1.28613 -18.7422 2.7998c-2.42871 2.06836 -4.76855 4.22852 -7.06934 6.43457c-0.106445 -8.43066 0.678711 -16.8086 4.2207 -22.5811c5.41211 -8.82324 -18.7832 -10.7959 -23.7529 -3.7334
c-4.2207 5.99902 -5.75488 13.9668 -6.33789 21.9941c-4.56738 -4.35449 -9.18066 -8.66309 -13.6738 -13.1064c-7.04492 -6.9707 -33.1738 -1.26953 -23.6543 7.87891c9.69629 9.32129 19.6152 18.3877 29.6367 27.334
c-11.1875 -1.08496 -22.3613 -2.66504 -33.5312 -4.87109c-13.4814 -2.66211 -24.9092 11.4102 -7.20996 14.9062c14.3301 2.83105 28.7207 4.74023 43.1426 5.86426c-9.36035 10.1904 -19.1699 19.8613 -30.7539 27.5176c-12.8418 8.49023 10.5166 15.2842 18.3955 10.4844
c7.66699 -4.66992 14.5596 -10.1172 21.0322 -16.0029c0.615234 3.5918 1.27637 7.17969 2.00098 10.7529c2.25879 11.1348 29.7207 9.63574 27.6709 0c-1.16602 -5.48633 -2.1377 -10.9834 -3.00684 -16.4941c10.3887 8.44434 20.8799 16.7686 31.5938 24.8311
c4.69043 3.52734 11.8203 4.93066 17.4199 2.60156c3.4502 -1.43848 9.51562 -6.12891 4.56641 -9.92871c-13.8955 -10.6748 -27.4268 -21.7744 -40.7393 -33.1143c11.3115 -0.569336 22.626 -1.60547 33.9307 -3.17871z" />
    <glyph glyph-name="plus" unicode="+" horiz-adv-x="286" 
d="M222.893 236.396c17.2715 0.547852 16.9658 -15.5312 -0.000976562 -16.083c-16.2139 -0.530273 -32.3965 -1.41016 -48.5537 -2.55566c-0.279297 -7.03027 -0.501953 -14.0645 -0.576172 -21.1201c-0.211914 -20.5762 -0.105469 -41.1377 -0.229492 -61.707
c-0.109375 -17.9922 0.876953 -35.376 -11.0498 -49.8125c-7.3418 -8.88965 -25.3623 -6.29883 -33.1924 0c-16.1152 12.9658 -19.4453 33.835 -23.2773 53.2305c-3.77539 19.1123 -6.02734 38.8291 -7.05957 58.2881
c-0.237305 4.47168 -0.427734 8.96484 -0.589844 13.4609c-10.4062 -1.36133 -20.8057 -2.81055 -31.1914 -4.42285c-14.1357 -2.19531 -26.377 12.7637 -7.5752 15.6621c12.7607 1.96582 25.5498 3.7334 38.3525 5.32715
c-0.353516 30.1523 1.45996 60.5342 7.36328 89.9053c5.70508 28.3809 77.1719 29.8906 75.4473 0c-1.59375 -27.5967 -4.08887 -55.0264 -5.64062 -82.5557c15.9033 1.06055 31.8281 1.87402 47.7734 2.38281z" />
    <glyph glyph-name="comma" unicode="," horiz-adv-x="195" 
d="M77.9707 113.738c10.4629 23.1426 77.248 15.6133 65.2969 -10.2617c-7.14355 -15.4609 -14.0078 -31.0703 -20.8438 -46.6699c-6.80762 -15.5283 -12.1738 -32.3467 -24.6836 -44.2344c-9.05273 -8.60059 -41.2158 -12.2236 -45.9844 3.4248
c-4.86426 15.9561 1.38867 32.2979 6.45801 47.748c5.61719 17.126 12.3369 33.5771 19.7568 49.9932z" />
    <glyph glyph-name="hyphen" unicode="-" horiz-adv-x="326" 
d="M275.849 200.518c2.29102 -11.2969 -12.3564 -18.1309 -21.6816 -18.9336c-34.0576 -2.91602 -68.1475 -3.36816 -102.318 -2.83398c-29.8271 0.469727 -66.8291 -1.95898 -94.9346 9.65332c-8.9082 3.67969 -9.52344 11.3252 -0.000976562 14.8428
c27.7939 10.2617 62.1562 7.96777 91.4424 9.09863c32.5732 1.25879 65.168 3.1748 97.7656 3.13281c9.56836 -0.0107422 27.3486 -3.2207 29.7275 -14.96z" />
    <glyph glyph-name="period" unicode="." horiz-adv-x="163" 
d="M52.9277 61.5752c5.31641 27.8682 69.3809 18.1191 58.9072 -4.5459c-5.89648 -12.7568 -9.92969 -25.9951 -19.0176 -36.9668c-7.62793 -9.20801 -34.832 -9.11621 -39.8516 2.96973c-5.19238 12.499 -2.48438 25.7295 -0.0380859 38.543z" />
    <glyph glyph-name="slash" unicode="/" horiz-adv-x="514" 
d="M394.469 625.88c13.3584 17.002 83.0195 9.99512 67.6855 -16.2578c-33.9551 -58.1338 -71.915 -113.807 -105.673 -172.1c-32.9023 -56.8154 -64.1816 -114.515 -93.2021 -173.415c-29.0244 -58.9043 -55.7686 -118.915 -81.085 -179.502
c-26.1396 -62.5596 -45.9414 -130.792 -80.8545 -189.103c-7.69141 -12.8457 -52.5586 -17.3701 -51.3145 3.95898c3.79688 65.0088 32.5557 130.784 55.8252 190.88c24.415 63.0615 51.877 124.889 81.4385 185.705c29.5615 60.8203 61.2197 120.711 95.4297 179.05
c34.3516 58.582 69.7383 117.312 111.75 170.783z" />
    <glyph glyph-name="zero" unicode="0" horiz-adv-x="446" 
d="M118.111 -17.4521c-38.8438 42.6123 -53.4297 104.046 -61.7227 159.563c-19.5508 130.866 9.02148 263.376 41.7041 389.756c4.25195 16.4365 34.6055 18.501 48.8965 17.0059c0.34668 0.763672 0.682617 1.54883 1.03613 2.29102
c26.5537 56.0693 92.1279 64.4082 142.615 34.6064c47.5713 -28.0801 69.6357 -81.127 83.9697 -132.011c16.9248 -60.0811 23.5137 -122.347 21.248 -184.655c-2.20215 -60.5938 -11.4102 -122.152 -29.1514 -180.223
c-15.4756 -50.6572 -42.8594 -113.994 -93.1982 -138.868c-50.9189 -25.1572 -117.798 -8.70996 -155.397 32.5342zM154.738 415.296c-17.041 -82.2939 -27.9639 -165.628 -22.2021 -250.128c3.14551 -46.1396 9.11914 -95.3652 29.4404 -137.465
c15.2031 -31.4912 50.7031 -72.166 86.5283 -44.1699c35.7686 27.9531 56.0518 77.3242 69.8584 119.112c16.3379 49.4375 25.9316 101.65 31.6152 153.344c5.47559 49.8164 6.28906 100.573 0.569336 150.403c-5.61719 48.9531 -15.7412 102.198 -47.9854 141.304
c-33.4609 40.583 -96.8477 60.4385 -125.981 4.53223c-2.04004 -3.91699 -3.80762 -7.95703 -5.45508 -12.0469c6.30273 -4.78613 10.0566 -11.6299 7.71289 -21.001c-5.31641 -21.2686 -10.5088 -42.6045 -15.4082 -64.0117
c3.22754 -16.5186 10.0498 -33.5635 24.5176 -39.7422c15.8994 -6.79004 -3.19238 -16.8574 -13.2705 -12.9404c-7.90723 3.0752 -14.4785 7.46875 -19.9395 12.8096z" />
    <glyph glyph-name="one" unicode="1" horiz-adv-x="323" 
d="M80.3525 424.071c2.65137 -11.0283 -22.3535 -12.6484 -24.5596 -3.85742c-13.8174 55.2812 -3.55957 122.835 37.752 164.963c34.8711 35.5674 87.8018 11.8096 110.704 -25.002c15.1533 -24.3516 19.6562 -53.6768 22.9863 -81.6445
c3.87793 -32.5625 4.44043 -65.7402 3.7334 -98.5049c-2.87402 -133.178 -7.41602 -266.585 -16.1152 -399.533c12.3682 0.78125 24.7402 1.55859 37.1084 2.33594c6.69141 0.420898 21.1523 -3.00781 21.1523 -12.0566c0 -9.58984 -14.168 -11.7285 -21.1523 -12.0576
c-14.7441 -0.696289 -29.7461 -1.82422 -44.8506 -2.95898c-14.3975 -12.7109 -47.1973 -13.6582 -64.1748 -3.60547c-15.8926 -0.303711 -31.6719 0.0498047 -47.1543 1.58008c-15.2139 1.50586 -13.0576 14.4932 0 17.335c11.9619 2.60156 24.4258 3.88867 36.96 4.71191
c8.2041 142.817 20.5586 285.832 36.0449 428.027c3.72949 34.2168 6.94238 68.8721 7.05176 103.312c0.0878906 26.9072 -1.95508 71.9619 -35.2529 79.5508c-28.6846 6.53906 -49.7275 -46.3096 -56.6025 -67.2393c-10.0781 -30.6855 -11.1738 -63.998 -3.63086 -95.3555z
" />
    <glyph glyph-name="two" unicode="2" horiz-adv-x="433" 
d="M216.563 73.499c48.165 76.6914 68.6553 172.302 70.8359 261.379c1.2334 50.3467 -3.39355 100.901 -13.5635 150.24c-8.61816 41.8066 -25.6309 96.875 -67.5957 116.511c-49.2861 23.0645 -95.2881 -19.4736 -116.017 -61.7432
c-10.6748 -21.7676 -12.9688 -46.1963 0 -67.6348c15.5781 -25.7549 45.6064 -33.4287 71.5869 -18.3779c7.98535 4.62305 31.4004 -2.36523 18.3955 -10.4844c-48.7559 -30.4453 -122.379 -5.98828 -127.988 55.8467c-4.93066 54.3477 51.7002 114.146 102.591 124.397
c53.4922 10.7744 106.638 -21.3926 137.366 -63.2695c35.6592 -48.5898 49.7705 -116.122 57.6885 -174.701c16.126 -119.258 -3.2373 -256.157 -76.0967 -355.075c0.682617 -0.589844 1.36523 -1.18359 2.04395 -1.77344
c17.0059 -14.7441 67.0625 -62.0537 80.4316 -21.9336c3.1709 9.51172 30.166 7.20703 26.416 -4.1543c-15.5811 -47.2041 -76.751 -24.04 -103.979 -3.7998c-6.08301 4.52148 -12.1455 9.5625 -18.2471 14.8223c-36.8252 -42.7324 -90.3389 -77.5752 -148.567 -69.459
c-24.3828 3.40039 -51.2295 18.2539 -59.1826 42.7744c-7.31348 22.5518 1.08203 48.4512 16.0234 66.0332c34.376 40.4561 98.5049 44.8252 143.867 22.5342c1.35742 -0.667969 2.6582 -1.4248 3.99121 -2.13184zM204.957 56.0664
c0.314453 0.438477 0.59668 0.904297 0.908203 1.3457c-18.1934 11.1104 -37.9531 17.9678 -60.4766 15.1191c-25.4473 -3.2168 -56.0273 -21.5732 -60.375 -49.1943c-2.63379 -16.7197 7.04492 -43.7539 26.8467 -43.9482
c16.6348 -0.162109 36.8467 18.4629 48.9219 28.5869c16.7373 14.0332 31.499 30.3145 44.1748 48.0908z" />
    <glyph glyph-name="three" unicode="3" horiz-adv-x="454" 
d="M94.4805 -49.4775c-57.1152 45.3584 -48.8418 126.633 -32.0059 188.938c6.45117 23.8779 78.5361 21.541 75.1855 -5.80078c-6.10156 -49.7627 -24.292 -125.909 26.5459 -160.123c31.4883 -21.1875 81.7041 0.944336 106.438 23.3018
c36.8965 33.3506 51.6934 86.4502 53.1211 134.739c1.5127 51.0215 -12.1035 105.04 -43.3262 146.182c-22.3857 29.498 -55.6768 54.1816 -91.7568 34.8779c-23.1709 -16.4863 -91.6895 4.25195 -54.8916 31.29c5.83203 4.28418 12.1943 7.86816 18.9141 10.8408
c32.7217 20.4912 61.5586 48.0732 84.8389 78.4971c27.5576 36.0166 59.0879 85.2568 51.4531 132.811c-3.39648 21.1592 -14.9131 42.4639 -36.5146 49.1445c-25.2354 7.80859 -55.4756 -6.71973 -76.1113 -20.5439c-19.5371 -13.0859 -36.416 -31.29 -47.501 -52.0498
c-5.89648 -11.043 -10.4277 -23.0439 -11.7852 -35.5576c-0.897461 -8.25 4.29883 -26.3203 1.48828 -31.8838c4.02637 7.95996 27.9219 6.11523 23.7539 -3.73242c-7.36621 -17.4053 -34.0537 -15.4863 -44.7744 -2.60547
c-17.3701 20.8691 -6.86426 56.875 4.34473 78.0166c41.7002 78.6641 179.109 132.191 223.913 26.8643c21.1846 -49.7988 0.0078125 -106.6 -27.0898 -149.735c-14.4648 -23.0225 -31.1846 -43.1992 -49.7881 -61.5312
c0.512695 -0.106445 1.03906 -0.191406 1.54785 -0.300781c37.5039 -8.13672 71.2441 -27.96 95.9316 -57.4971c84.2314 -100.784 81.9404 -292.229 -45.7266 -357.902c-61.6719 -31.7246 -148.59 -41.9893 -206.204 3.76172z" />
    <glyph glyph-name="four" unicode="4" horiz-adv-x="435" 
d="M81.0098 229.515c-59.293 18.416 -19.9609 105.862 6.1543 135.731c15.8779 18.1582 36.7295 32.0605 59.5469 40.2998c-0.600586 6.33398 -1.2373 12.5693 -1.8457 18.6602c-5.60938 56.3135 -18.6807 111.396 -25.3154 167.494
c-1.88086 15.8926 26.1533 20.7139 36.3408 20.7139c14.7578 0 32.6758 -4.78223 36.3418 -20.7139c9.80566 -42.6016 15.3945 -86.8506 18.1514 -130.48c1.01074 -16.0059 1.58691 -32.209 1.375 -48.4092c9.67871 -1.34277 19.2373 -3.7998 28.4668 -7.5293
c25.3232 -10.2266 40.9258 -27.667 51.3955 -48.5967c-1.6084 86.1006 -0.484375 173.181 11.3857 257.733c4.125 29.3994 75.8213 30.2686 76.2734 0c1.6543 -110.951 -6.09082 -221.898 -4.16797 -332.962c0.964844 -55.5244 2.94043 -110.922 5.38672 -166.394
c2.33691 -52.9336 8.97168 -109.01 -0.168945 -161.41c-3.29102 -18.8799 -39.7168 -17.9258 -48.0586 -3.70898c-13.0361 22.2129 -15.4258 53.6162 -19.4453 78.6182c-4.41504 27.4551 -7.14355 55.3447 -9.68164 83.0332
c-3.78906 41.333 -6.30957 82.9238 -8.03125 124.469c-0.392578 0.5625 -0.704102 1.16309 -0.880859 1.83105c-13.4707 51.2158 -12.0498 129.664 -70.0742 153.697c-4.28027 1.77441 -8.60352 3.11719 -12.9404 4.09277
c-1.01465 -20.0459 -3.43555 -39.9854 -7.99902 -59.4307c-7.53613 -32.1064 -22.2832 -62 -47.9385 -83.4561c-20.3076 -16.9775 -47.0596 -31.7354 -74.2705 -23.2832zM99.6104 339.839c-12.1807 -19.6533 -20.8135 -43.498 -19.8057 -66.874
c0.611328 -14.291 7.78027 -33.8311 25.7793 -27.6455c12.2412 4.20605 20.1982 14.5098 26.1973 25.4639c18.5898 33.9443 19.4346 75.4072 16.624 114.81c-19.9717 -10.6006 -37.2998 -27.207 -48.7949 -45.7539z" />
    <glyph glyph-name="five" unicode="5" horiz-adv-x="454" 
d="M93.7568 529.115c-23.5352 0 -49.1025 15.4326 -42.7822 41.8379c1.89453 7.93164 25.9033 6.5 24.1924 -1.86719c-3.58398 -17.5254 10.4424 -25.8818 27.0137 -23.4502c8.5293 1.25488 17.4053 6.95605 25.1143 10.7139
c12.877 6.27734 25.5312 12.9619 38.1396 19.7451c2.81055 5.3125 5.70898 10.5723 8.78027 15.7256c4.70117 7.89355 25.2881 12.4961 38.8828 9.53027c15.7119 7.90039 31.6924 15.2314 48.2461 21.1982c28.8047 10.3857 62.0107 18.4131 92.7314 13.623
c25.8643 -4.0332 52.9092 -21.9512 49.5967 -51.2441c-1.33301 -11.7812 -30.6123 -10.8867 -29.3291 0.000976562c6.00586 51.0176 -65.7051 34.5703 -93.0996 25.4189c-19.4873 -6.51074 -38.084 -15.1992 -56.3486 -24.5771
c-8.24316 -50.5156 -27.4512 -99.748 -42.4385 -148.532c-2.02539 -6.58887 -4.46094 -13.2979 -6.11133 -19.9893c-0.589844 -2.38965 -0.554688 -6.53613 -1.15527 -9.34961c1.19824 -0.116211 2.39648 -0.264648 3.59473 -0.374023
c4.4541 -0.449219 8.91113 -0.806641 13.3613 -1.29492c21.3682 -2.33691 42.6514 -6.74121 62.6934 -14.6553c65.9668 -26.0449 119.558 -82.2842 137.899 -151.383c20.1025 -75.7227 4.1748 -158.052 -41.6934 -221.607
c-24.1709 -33.4922 -55.8145 -56.7334 -96.9277 -64.6094c-42.4668 -8.13379 -89.8506 0.388672 -124.534 26.8223c-70.6572 53.8418 -58.1123 149.737 -37.3594 224.739c6.94238 25.0938 83.2412 22.0684 78.71 -6.07227
c-6.77246 -42.0469 -17.2676 -86.6807 -8.44434 -129.219c5.80078 -27.9639 22.6475 -62.5029 52.7676 -70.2832c8.64258 -2.23438 17.0518 -1.04688 27.6172 4.73242c12.6338 6.91016 22.9912 18.4092 31.6758 29.6963c20.1064 26.126 34.6553 58.4092 42.4209 90.3604
c15.1924 62.5098 4.09277 131.778 -38.4023 181.41c-18.2109 21.2686 -40.7451 39.4551 -67.125 49.4404c-30.8203 11.665 -71.5127 2.86328 -98.3701 23.3506c-30.166 23.0078 -1.36816 69.1338 9.04883 95.6768c9.30762 23.7148 18.3564 47.918 28.7881 71.4033
c-18.3594 -9.29297 -37.7227 -16.918 -57.1533 -16.918z" />
    <glyph glyph-name="six" unicode="6" horiz-adv-x="399" 
d="M145.867 -38.8096c-88.4092 55.0615 -102.381 178.497 -93.6221 272.533c9.60449 103.163 39.3389 208.271 100.707 292.996c25.7832 35.5986 58.6963 64.3086 101.121 77.9639c35.7197 11.4951 86.0098 6.5 95.2217 -37.0732
c1.99023 -9.42773 -24.21 -10.4453 -26.5674 0c-6.83301 30.293 -40.6113 31.7529 -63.542 19.2607c-15.7969 -8.60742 -28.3945 -22.3154 -38.8223 -36.7236c-22.333 -30.8555 -38.3701 -65.8604 -51.4492 -101.513c-26.3594 -71.8525 -40.4277 -148.643 -43.6201 -225.051
c-1.1875 -28.4766 -0.356445 -58.0312 3.85742 -87.0127c27.9502 16.7695 60.0781 25.3984 93.6055 19.835c44.6484 -7.40918 76.8965 -39.9648 85.0371 -84.2246c6.95312 -37.8018 -4.41504 -85.2217 -35.2354 -110.315
c-36.4053 -29.6396 -88.8369 -24.249 -126.691 -0.675781zM215.049 140.483c-30.3643 5.0791 -58.6006 -8.10156 -81.8418 -26.7227c7.72363 -36.1328 21.4668 -70.6465 44.0439 -100.201c9.4375 -12.3545 20.7139 -26.1719 34.4434 -33.874
c12.2061 -6.85059 18.9609 -7.91113 31.043 -0.152344c28.7236 18.4443 39.3672 55.0469 35.3975 87.5605c-4.27734 35.0156 -26.624 67.2881 -63.0859 73.3896z" />
    <glyph glyph-name="seven" unicode="7" horiz-adv-x="319" 
d="M73.4121 575.813c-6.36621 -5.95215 -30.2568 -1.38965 -21.5078 7.16504c36.8008 36.002 92.2021 42.4463 138.646 22.0186c44.9629 -19.7734 57.9287 -64.5635 58.7451 -110.06c1.06055 -58.9854 -6.23145 -118.102 -13.792 -176.479
c-2.26953 -17.5078 -4.74707 -34.9844 -7.28906 -52.4531c7.95996 1.74219 15.9277 3.44238 23.916 5.05469c14.0293 2.83105 25.9023 -11.7998 7.50391 -15.5117c-11.3789 -2.29395 -22.7217 -4.73633 -34.0332 -7.28125
c-5.21387 -35.168 -10.6045 -70.3145 -15.3975 -105.542c-8.15527 -59.9043 -11.9902 -120.018 -18.7666 -180.024c-3.53516 -31.2939 -79.502 -31.7393 -80.418 0c-1.8877 65.4502 9.44824 132.48 19.8301 196.935c3.62305 22.4883 7.47949 44.9307 11.3965 67.3623
c-11.1631 -3.19238 -22.2979 -6.50098 -33.3975 -9.96191c-10.5088 -3.28027 -30.5967 7.98535 -13.6865 13.3477c16.6807 5.28809 33.4531 10.2617 50.2969 14.9736c6.28809 35.6416 12.707 71.2617 18.8438 106.932c5.63086 32.7393 11.3643 65.5068 16.4053 98.3486
c4.09668 26.6846 9.34961 53.666 9.20117 80.7676c-0.134766 24.3799 -5.9668 51.5312 -29.1943 64.1895c-28.4727 15.5176 -65.7295 0.399414 -87.3027 -19.7812z" />
    <glyph glyph-name="eight" unicode="8" horiz-adv-x="372" 
d="M167.501 220.972c-2.04688 2.58789 -4.0957 5.17285 -6.14258 7.75293c-65.4893 82.4385 -154.436 198.836 -87.6914 306.372c26.9355 43.3936 73.4717 76.9072 124.539 84.2627c49.2891 7.09766 92.4492 -17.9717 107.476 -66.0166
c8.25391 -26.3945 7.50098 -54.1816 5.42578 -81.4424c-2.49902 -32.8418 -6.66309 -65.5674 -12.0928 -98.0527c-9.52637 -56.9844 -22.8174 -113.237 -36.3271 -169.388c4.27734 -6.40527 8.44824 -12.8848 12.4531 -19.4775
c29.0703 -47.8398 53.9658 -106.511 44.2344 -163.615c-8.86133 -52.0146 -44.6338 -95.1143 -96.8926 -107.786c-46.9248 -11.3789 -92.5137 14.0332 -112.935 56.7334c-23.0225 48.1367 -18.4238 108.812 -1.2832 157.991c8.77344 25.168 21.6543 48.5967 37.9043 69.7031
c6.49707 8.44141 13.3789 16.6602 21.332 22.9629zM226.155 -65.5771c51.2021 29.0596 41.4629 106.673 24.6514 152.537c-15.7334 42.9199 -41.9014 80.6572 -69.7344 116.681c-6.55664 -7.59668 -12.2832 -16.4512 -15.5498 -21.1494
c-8.16211 -11.7354 -15.2207 -24.2588 -21.1377 -37.2705c-13.1455 -28.9111 -20.4453 -60.2295 -21.2549 -91.9824c-0.813477 -32.0039 4.12109 -66.5107 22.7461 -93.3613c17.9424 -25.8682 50.4561 -42.3789 80.2793 -25.4541zM131.623 498.928
c-11.499 -60.2188 11.7793 -119.854 43.0273 -170.38c20.124 -32.5381 43.9131 -62.5596 66.4688 -93.4189c14.4287 61.4561 27.8574 123.209 35.5459 185.906c4.25586 34.6973 8.69922 71.3779 3.87793 106.231c-3.81445 27.5684 -20.5518 67.2646 -52.9941 70.0889
c-24.1953 2.10645 -49.3389 -18.3672 -64.5107 -35.1963c-15.5996 -17.2998 -27.042 -40.333 -31.415 -63.2314z" />
    <glyph glyph-name="nine" unicode="9" horiz-adv-x="457" 
d="M86.96 314.828c-49.9189 28.3066 -41.3994 99.0693 -20.2617 142.65c24.917 51.3887 68.4521 93.8945 120.587 117.072c34.0898 15.1533 77.9814 22.7109 111.979 8.19727c10.6182 8.68164 35.6836 5.17188 41.7422 -5.20996
c19.0703 -32.6758 26.9707 -72.0928 34.0264 -108.979c7.30273 -38.1904 13.4922 -76.7373 18.625 -115.273c9.16211 -68.7949 15.6982 -137.989 11.9971 -207.438c-3.05078 -57.2715 -8.89355 -135.352 -60.1309 -171.796
c-51.3535 -36.5215 -131.855 -24.3613 -172.919 22.415c-40.0986 45.6807 -48.9883 112.301 -42.9082 170.806c3.2168 30.9609 73.7188 30.2715 77.9326 -0.000976562c7.2959 -52.4424 2.43164 -117.698 46.8926 -155.889
c11.043 -9.48438 17.9502 -13.5215 27.4307 -6.58594c17.2959 12.6543 25.3203 40.3174 30.5625 59.8438c14.7334 54.8604 13.7754 114.775 12.5596 171.113c-1.24414 57.7305 -7.34863 115.171 -12.8984 172.604c-2.12793 21.9932 -4.54199 43.9512 -7.03711 65.9023
c-2.62305 -6.29199 -5.33398 -12.5488 -8.2959 -18.7168c-14.7402 -30.6963 -33.5811 -59.3213 -56.2568 -84.7578c-35.207 -39.4873 -98.9189 -86.9844 -153.627 -55.959zM145.006 520.144c-38.9355 -37.5117 -71.8301 -102.71 -54.3682 -157.503
c3.50293 -10.9863 8.9502 -22.7676 18.4521 -29.8584c15.2705 -11.3965 33.7041 -2.93457 48.5537 4.94824c25.2383 13.3965 47.5498 33.0391 65.2451 55.3857c36.751 46.4121 62.5234 109.664 70.3066 168.961c-42.8809 31.4531 -114.793 -9.75586 -148.189 -41.9336z" />
    <glyph glyph-name="colon" unicode=":" horiz-adv-x="174" 
d="M66.834 399.234c5.85059 20.5801 63.8486 16.2227 57.041 -8.9668c-6.38379 -23.6123 -10.8867 -53.4033 -24.9062 -73.7988c-4.7998 -6.98438 -13.4004 -9.37012 -21.5938 -9.37012c-5.76172 0 -19.7627 2.04688 -21.5977 9.37109
c-6.60254 26.3945 3.81055 57.2607 11.0566 82.7646zM62.0859 174.364c6.72363 20.7529 65.7666 14.832 56.7744 -8.91797c-4.0791 -10.7812 -7.83691 -21.7109 -11.4355 -32.6621c-3.66211 -11.1416 -5.99902 -22.9863 -15.0732 -30.9463
c-9.94727 -8.72363 -30.6084 -8.50781 -38.4131 2.86328c-6.74805 9.83691 -3.22754 23.4951 -1.12402 34.5488c2.27246 11.9473 5.52441 23.5518 9.27148 35.1143z" />
    <glyph glyph-name="semicolon" unicode=";" horiz-adv-x="235" 
d="M128.243 383.925c8.88965 18.8301 63.6494 15.8535 55.9717 -8.79785c-3.19922 -10.2725 -7.37012 -19.958 -11.4883 -29.8877c-4.41504 -10.6436 -8.60352 -20.8906 -19.54 -25.9912c-6.79395 -3.16699 -17.5928 -4.73633 -24.252 0
c-5.92773 4.2168 -9.12305 7.18262 -10.3779 14.7119c-0.862305 5.15723 -0.508789 10.3037 0.163086 15.4473c1.57324 12.0469 4.32715 23.5137 9.52344 34.5176zM110.808 193.981c8.4834 22.9023 73.5371 15.7764 62.8975 -9.88281
c-19.668 -47.4297 -42.3506 -100.823 -78.5645 -138.204c-9.49121 -9.79883 -50.8906 -10.1484 -44.4678 10.6855c7.1543 23.1953 20.4561 45.5244 30.7461 67.4971c10.7383 22.9268 20.5938 46.1611 29.3887 69.9043z" />
    <glyph glyph-name="less" unicode="&#x3c;" horiz-adv-x="308" 
d="M252.957 370.974c8.00684 -6.33789 6.69336 -15.1807 -2.1084 -20.165c-37.6064 -21.3359 -74.8066 -44.3789 -108.511 -71.5508c-6.76172 -5.45117 -16.7578 -11.6689 -19.292 -20.4561c-2.85938 -9.91113 2.25586 -8.57129 12.1709 -10.8232
c21.7246 -4.93457 43.7002 -7.0166 65.8984 -8.05566c10.8838 -0.512695 35.7578 -4.17871 35.376 -20.167c-0.37793 -15.8145 -23.4072 -19.9746 -35.376 -20.165c-34.0439 -0.543945 -185.245 6.72754 -144.064 74.4443c15.2705 25.1113 49.3037 42.7393 73.6377 57.8223
c27.7656 17.2109 57.1191 31.1592 87.501 43.0752c10.1445 3.97656 25.9873 2.99414 34.7676 -3.95898z" />
    <glyph glyph-name="equal" unicode="=" horiz-adv-x="309" 
d="M145.864 332.023c-27.5576 -0.682617 -55.0117 1.18457 -82.4951 0.798828c-13.6094 -0.1875 -19.9404 14.291 -3.79004 15.9561c27.8154 2.86719 55.3232 8.01758 83.2627 10.5273c28.4551 2.55176 56.9883 4.60547 85.5176 6.05859
c8.22949 0.420898 25.9883 -3.62305 25.9883 -14.8105c0 -11.8877 -17.416 -14.249 -25.9883 -14.8115c-27.4619 -1.80273 -54.9805 -3.03613 -82.4951 -3.71875zM243.521 295.669c20.7031 -2.83887 21.8271 -24.1904 -0.00390625 -25.9863
c-32.5449 -2.68262 -65.376 -0.890625 -98.0195 -2.92676c-16.9355 -1.05664 -33.8174 -2.53027 -50.7314 -3.85254c-11.8633 -0.925781 -25.3984 -3.48828 -35.8193 3.65918c-2.72168 1.87012 -4.1748 3.6377 -3.23828 6.98535
c3.18164 11.3711 23.7617 12.5127 33.1572 14.2168c16.5361 3.00098 33.3867 4.97363 50.1309 6.38086c34.334 2.88477 70.251 6.22168 104.524 1.52344z" />
    <glyph glyph-name="greater" unicode="&#x3e;" horiz-adv-x="296" 
d="M243.769 307.824c14.3545 -30.251 -35.8516 -43.1318 -55.4023 -51.4355c-28.3525 -12.0576 -57.2002 -23.1641 -86.8789 -31.5137c-13.793 -3.87793 -36.5391 -5.05176 -47.2676 7.06543c-10.4775 11.8379 0.430664 22.6406 12.3926 26.9424
c20.6611 7.43066 41.4736 14.4014 62.0674 22.0225c10.375 3.83887 20.6934 7.83301 30.9482 11.9795c4.98047 2.01465 14.0186 4.1709 20.4766 7.45801c-6.71582 14.5957 -36.8076 27.5898 -48.1123 33.9736c-19.8447 11.209 -40.8809 19.915 -60.8281 30.8379
l0.137695 0.0205078c-5.1748 2.94434 -8.97852 7.5498 -6.54688 13.7959c3.87793 9.94336 21.8701 11.8906 30.6504 9.91797c29.6641 -6.66309 57.9355 -18.9609 84.7578 -33.1387c20.9297 -11.0645 52.8281 -25.2178 63.6055 -47.9258z" />
    <glyph glyph-name="question" unicode="?" horiz-adv-x="378" 
d="M276.372 629.831c67.377 -43.7607 56.5371 -138.834 38.0781 -205.624c-22.5381 -81.5977 -65.9805 -156.136 -98.3135 -233.99c-33.3506 -80.3105 -59.6357 -162.626 -72.5205 -248.805c-4.75098 -31.7744 -84.002 -30.7383 -80.9688 0
c7.97852 80.8516 31.9336 159.158 62.1143 234.298c26.4619 65.875 59.7666 128.547 90.1201 192.637c28.0703 59.2754 57.377 130.533 47.5752 197.613c-4.11426 28.1621 -19.0557 54.2275 -47.6309 62.9092c-30.8232 9.36328 -63.9268 -2.05078 -88.6035 -21.0508
c-23.6758 -18.2295 -41.9893 -45.0127 -47.9951 -74.5176c-6.81836 -33.4922 5.2959 -78.5996 44.9355 -83.043c16.6562 -1.86621 5.5459 -14.9658 -6.62109 -13.6895c-37.4727 3.93457 -63.8779 34.627 -66.3271 71.6719c-2.50586 37.8828 17.1582 75.8398 44.6133 100.951
c47.3486 43.3018 126.055 56.6807 181.544 20.6396zM113.808 -127.978c5.95996 -1.45996 13.7168 -6.74023 13.7275 -13.6367c0.0244141 -17.2891 -1.00391 -34.4014 -2.09277 -51.6514c-1.47754 -23.4785 -60.3643 -22.1738 -58.6006 0
c1.375 17.3066 2.7959 34.4609 5.27051 51.6504c1.41016 9.80566 11.6543 13.666 20.3428 15.2314c0.735352 0.130859 1.4668 0.265625 2.19824 0.396484c6.64551 1.19434 12.7744 -0.427734 19.1543 -1.99023z" />
    <glyph glyph-name="at" unicode="@" horiz-adv-x="684" 
d="M600.327 510.531c29.707 -62.085 38.2656 -136.089 31.1289 -204.018c-7.26074 -69.1123 -29.9541 -140.76 -74.3477 -195.203c-41.1172 -50.4238 -129.162 -89.4131 -178.667 -26.9844c-22.1738 27.9639 -23.457 64.5 -22.1279 98.7168
c1.01465 26.1543 3.49609 53.9805 10.3926 80.0459c-9.73145 -8.625 -18.6465 -18.4346 -27.4834 -26.7451c-17.4443 -16.4082 -36.8789 -32.043 -60.4736 -38.293c-20.5898 -5.4502 -45.751 -1.85156 -55.9209 19.1201c-9.9082 20.4346 -3.12891 45.9131 3.70703 66.1426
c16.4512 48.6924 56.3203 101.178 107.059 117.3c23.7217 7.53613 50.6992 4.57715 69.3701 -12.8672c22.3438 -20.873 24.1113 -53.0254 24.8711 -81.5869c0.134766 -5.05469 -5.72559 -7.78027 -12.1377 -8.19727c0.523438 -1.14844 0.824219 -2.44238 0.753906 -3.96582
c-1.68652 -36.2031 -7.7207 -71.1982 -4.79785 -107.656c2.47754 -30.9082 5.67969 -71.124 31.0703 -92.5664c7.05566 -5.96289 12.4424 -1.38867 22.2656 5.24219c11.873 8.01367 22.3252 18.6709 31.2861 29.7988c19.084 23.6973 32.0322 52.5166 42.4424 80.9014
c20.6543 56.3164 27.6885 117.377 21.8066 177.017c-5.29883 53.7432 -20.626 112.559 -56.6992 154.329c-31.5908 36.585 -77.7939 55.1074 -125.956 49.4902c-52.3115 -6.10156 -98.748 -36.9355 -135.326 -73.3369c-79.7207 -79.335 -122.259 -193.831 -117.964 -305.793
c2.19141 -57.1895 17.4863 -116.984 58.5254 -158.968c16.458 -16.8398 36.79 -31.0957 60.0488 -36.4258c26.3164 -6.03027 54.4111 -1.16602 80.0488 5.7373c14.3799 3.87402 37.7666 5.33789 48.9688 -7.31641c10.4668 -11.8242 0.00683594 -24.168 -12.8389 -27.9111
c-82.2129 -23.9521 -171.622 -21.4668 -236.465 40.8271c-57.0664 54.8213 -75.207 137.268 -72.6299 213.863c4.60547 136.825 76.1074 276.948 194.633 349.14c118.575 72.2236 291 54.8779 355.457 -79.8369zM383.877 301.685
c3.0752 1.62598 9.63867 2.96094 16.0684 2.87305c-0.163086 0.508789 -0.307617 1.02832 -0.335938 1.59766c-1.15918 23.6445 -2.18066 50.6084 -18.8018 69.2969c-19.9219 22.4004 -46.376 7.32812 -65.5947 -8.10449
c-31.2656 -25.1074 -53.9062 -60.0176 -64.2842 -98.748c-3.8916 -14.5215 -9.48047 -41.1104 3.94141 -52.874c13.7119 -12.0146 42.082 13.6094 52.0469 22.5771c24.8848 22.4033 46.9492 47.5391 76.96 63.3818z" />
    <glyph glyph-name="A" unicode="A" horiz-adv-x="531" 
d="M547.533 185.957c2.85254 8.56152 27.1504 6.47168 23.7607 -3.7334c-29.1689 -87.5605 -56.96 -176.935 -96.7686 -260.405c-29.5762 -62.0186 -89.9404 -137.84 -168.48 -107.875c-77.9922 29.7559 -70.2227 132.873 -66.8398 200.381
c4.24902 84.7891 15.8115 168.812 27.9072 252.773c11.1943 77.7197 23.1348 155.097 31.8623 233.11c-8.23633 -1.73242 -16.1328 -3.48535 -23.3867 -4.86035c-42.5596 -8.07031 -84.1328 -20.3535 -126.604 -28.6748
c-9.85156 -1.92969 -20.9404 -3.51367 -32.627 -4.47559c-21.5869 -60.9541 -38.4053 -123.541 -53.7744 -186.323c-18.5186 -75.6523 -35.0547 -151.81 -55.7295 -226.921c-10.0322 -36.4404 -21.0293 -72.6299 -33.6768 -108.254
c-12.1914 -34.334 -25.5918 -68.0986 -50.1621 -95.6025c-6.40527 -7.16504 -32.0293 -2.21289 -23.1777 7.72363c28.7627 32.2939 42.0605 75.4824 55.4219 115.801c13.8809 41.8809 25.7051 84.415 36.582 127.165c21.2686 83.6016 38.8613 168.104 61.1309 251.459
c10.2441 38.3496 21.5205 76.4971 34.5537 114.016c-50.2051 0.993164 -102.39 16.6387 -114.401 67.6387c-2.01172 8.54688 23.5098 10.5508 25.5498 1.97168c9.87305 -41.4951 55.8789 -55.0371 93.959 -55.207c10.7207 29.6602 22.5977 58.8857 36.0547 87.4473
c25.6768 54.5 65.2246 124.974 128.862 140.552c27.7021 6.78711 54.9375 -2.77832 73.2871 -24.415c19.8408 -23.3965 27.377 -52.2119 31.4316 -81.8477c3.44336 -25.1533 4.93164 -50.5654 5.12988 -76.0762c23.6582 -1.9834 46.5674 -10.1309 61.7393 -29.6465
c8.3877 -10.7949 -17.5264 -15.4111 -23.4189 -7.80078c-10.0068 12.9268 -23.4287 19.3105 -38.3594 21.8203c-0.678711 -54.7295 -6.8291 -109.76 -12.5771 -163.524c-8.88965 -83.1533 -20.4482 -165.974 -29.2324 -249.145
c-4.4502 -42.1318 -7.5752 -84.4121 -9.7207 -126.724c-1.76367 -34.8389 -8.32812 -76.8965 8.39551 -109.092c7.20703 -13.8779 18.8936 -28.2715 36.2246 -25.9844c17.0518 2.24805 32.5801 14.8145 44.3369 26.5391c26.624 26.5498 42.7783 61.2832 57.4941 95.3486
c32.7959 75.9238 59.1338 154.436 85.2529 232.841zM214.625 498.586c28.2539 6.6416 57.1436 13.2119 86.1465 17.7891c0.0322266 0.318359 0.0742188 0.636719 0.106445 0.955078c4.1709 39.625 5.05078 79.2148 5.70801 118.936
c0.229492 13.8525 -2.27344 28.8965 -9.62207 40.8691c-12.1562 19.8057 -34.6621 11.4707 -50.6426 1.25195c-60.6221 -38.7695 -91.4141 -115.941 -116.589 -180.088c-2.68262 -6.83301 -5.22754 -13.7148 -7.77246 -20.5967
c31.3291 4.11816 62.0645 13.6904 92.665 20.8838z" />
    <glyph glyph-name="A" unicode="&#xc5;" horiz-adv-x="531" 
d="M547.533 185.957c2.85254 8.56152 27.1504 6.47168 23.7607 -3.7334c-29.1689 -87.5605 -56.96 -176.935 -96.7686 -260.405c-29.5762 -62.0186 -89.9404 -137.84 -168.48 -107.875c-77.9922 29.7559 -70.2227 132.873 -66.8398 200.381
c4.24902 84.7891 15.8115 168.812 27.9072 252.773c11.1943 77.7197 23.1348 155.097 31.8623 233.11c-8.23633 -1.73242 -16.1328 -3.48535 -23.3867 -4.86035c-42.5596 -8.07031 -84.1328 -20.3535 -126.604 -28.6748
c-9.85156 -1.92969 -20.9404 -3.51367 -32.627 -4.47559c-21.5869 -60.9541 -38.4053 -123.541 -53.7744 -186.323c-18.5186 -75.6523 -35.0547 -151.81 -55.7295 -226.921c-10.0322 -36.4404 -21.0293 -72.6299 -33.6768 -108.254
c-12.1914 -34.334 -25.5918 -68.0986 -50.1621 -95.6025c-6.40527 -7.16504 -32.0293 -2.21289 -23.1777 7.72363c28.7627 32.2939 42.0605 75.4824 55.4219 115.801c13.8809 41.8809 25.7051 84.415 36.582 127.165c21.2686 83.6016 38.8613 168.104 61.1309 251.459
c10.2441 38.3496 21.5205 76.4971 34.5537 114.016c-50.2051 0.993164 -102.39 16.6387 -114.401 67.6387c-2.01172 8.54688 23.5098 10.5508 25.5498 1.97168c9.87305 -41.4951 55.8789 -55.0371 93.959 -55.207c10.7207 29.6602 22.5977 58.8857 36.0547 87.4473
c25.6768 54.5 65.2246 124.974 128.862 140.552c27.7021 6.78711 54.9375 -2.77832 73.2871 -24.415c19.8408 -23.3965 27.377 -52.2119 31.4316 -81.8477c3.44336 -25.1533 4.93164 -50.5654 5.12988 -76.0762c23.6582 -1.9834 46.5674 -10.1309 61.7393 -29.6465
c8.3877 -10.7949 -17.5264 -15.4111 -23.4189 -7.80078c-10.0068 12.9268 -23.4287 19.3105 -38.3594 21.8203c-0.678711 -54.7295 -6.8291 -109.76 -12.5771 -163.524c-8.88965 -83.1533 -20.4482 -165.974 -29.2324 -249.145
c-4.4502 -42.1318 -7.5752 -84.4121 -9.7207 -126.724c-1.76367 -34.8389 -8.32812 -76.8965 8.39551 -109.092c7.20703 -13.8779 18.8936 -28.2715 36.2246 -25.9844c17.0518 2.24805 32.5801 14.8145 44.3369 26.5391c26.624 26.5498 42.7783 61.2832 57.4941 95.3486
c32.7959 75.9238 59.1338 154.436 85.2529 232.841zM214.625 498.586c28.2539 6.6416 57.1436 13.2119 86.1465 17.7891c0.0322266 0.318359 0.0742188 0.636719 0.106445 0.955078c4.1709 39.625 5.05078 79.2148 5.70801 118.936
c0.229492 13.8525 -2.27344 28.8965 -9.62207 40.8691c-12.1562 19.8057 -34.6621 11.4707 -50.6426 1.25195c-60.6221 -38.7695 -91.4141 -115.941 -116.589 -180.088c-2.68262 -6.83301 -5.22754 -13.7148 -7.77246 -20.5967
c31.3291 4.11816 62.0645 13.6904 92.665 20.8838z" />
    <glyph glyph-name="A" unicode="&#xc4;" horiz-adv-x="531" 
d="M547.533 185.957c2.85254 8.56152 27.1504 6.47168 23.7607 -3.7334c-29.1689 -87.5605 -56.96 -176.935 -96.7686 -260.405c-29.5762 -62.0186 -89.9404 -137.84 -168.48 -107.875c-77.9922 29.7559 -70.2227 132.873 -66.8398 200.381
c4.24902 84.7891 15.8115 168.812 27.9072 252.773c11.1943 77.7197 23.1348 155.097 31.8623 233.11c-8.23633 -1.73242 -16.1328 -3.48535 -23.3867 -4.86035c-42.5596 -8.07031 -84.1328 -20.3535 -126.604 -28.6748
c-9.85156 -1.92969 -20.9404 -3.51367 -32.627 -4.47559c-21.5869 -60.9541 -38.4053 -123.541 -53.7744 -186.323c-18.5186 -75.6523 -35.0547 -151.81 -55.7295 -226.921c-10.0322 -36.4404 -21.0293 -72.6299 -33.6768 -108.254
c-12.1914 -34.334 -25.5918 -68.0986 -50.1621 -95.6025c-6.40527 -7.16504 -32.0293 -2.21289 -23.1777 7.72363c28.7627 32.2939 42.0605 75.4824 55.4219 115.801c13.8809 41.8809 25.7051 84.415 36.582 127.165c21.2686 83.6016 38.8613 168.104 61.1309 251.459
c10.2441 38.3496 21.5205 76.4971 34.5537 114.016c-50.2051 0.993164 -102.39 16.6387 -114.401 67.6387c-2.01172 8.54688 23.5098 10.5508 25.5498 1.97168c9.87305 -41.4951 55.8789 -55.0371 93.959 -55.207c10.7207 29.6602 22.5977 58.8857 36.0547 87.4473
c25.6768 54.5 65.2246 124.974 128.862 140.552c27.7021 6.78711 54.9375 -2.77832 73.2871 -24.415c19.8408 -23.3965 27.377 -52.2119 31.4316 -81.8477c3.44336 -25.1533 4.93164 -50.5654 5.12988 -76.0762c23.6582 -1.9834 46.5674 -10.1309 61.7393 -29.6465
c8.3877 -10.7949 -17.5264 -15.4111 -23.4189 -7.80078c-10.0068 12.9268 -23.4287 19.3105 -38.3594 21.8203c-0.678711 -54.7295 -6.8291 -109.76 -12.5771 -163.524c-8.88965 -83.1533 -20.4482 -165.974 -29.2324 -249.145
c-4.4502 -42.1318 -7.5752 -84.4121 -9.7207 -126.724c-1.76367 -34.8389 -8.32812 -76.8965 8.39551 -109.092c7.20703 -13.8779 18.8936 -28.2715 36.2246 -25.9844c17.0518 2.24805 32.5801 14.8145 44.3369 26.5391c26.624 26.5498 42.7783 61.2832 57.4941 95.3486
c32.7959 75.9238 59.1338 154.436 85.2529 232.841zM214.625 498.586c28.2539 6.6416 57.1436 13.2119 86.1465 17.7891c0.0322266 0.318359 0.0742188 0.636719 0.106445 0.955078c4.1709 39.625 5.05078 79.2148 5.70801 118.936
c0.229492 13.8525 -2.27344 28.8965 -9.62207 40.8691c-12.1562 19.8057 -34.6621 11.4707 -50.6426 1.25195c-60.6221 -38.7695 -91.4141 -115.941 -116.589 -180.088c-2.68262 -6.83301 -5.22754 -13.7148 -7.77246 -20.5967
c31.3291 4.11816 62.0645 13.6904 92.665 20.8838z" />
    <glyph glyph-name="A" unicode="&#xc3;" horiz-adv-x="531" 
d="M547.533 185.957c2.85254 8.56152 27.1504 6.47168 23.7607 -3.7334c-29.1689 -87.5605 -56.96 -176.935 -96.7686 -260.405c-29.5762 -62.0186 -89.9404 -137.84 -168.48 -107.875c-77.9922 29.7559 -70.2227 132.873 -66.8398 200.381
c4.24902 84.7891 15.8115 168.812 27.9072 252.773c11.1943 77.7197 23.1348 155.097 31.8623 233.11c-8.23633 -1.73242 -16.1328 -3.48535 -23.3867 -4.86035c-42.5596 -8.07031 -84.1328 -20.3535 -126.604 -28.6748
c-9.85156 -1.92969 -20.9404 -3.51367 -32.627 -4.47559c-21.5869 -60.9541 -38.4053 -123.541 -53.7744 -186.323c-18.5186 -75.6523 -35.0547 -151.81 -55.7295 -226.921c-10.0322 -36.4404 -21.0293 -72.6299 -33.6768 -108.254
c-12.1914 -34.334 -25.5918 -68.0986 -50.1621 -95.6025c-6.40527 -7.16504 -32.0293 -2.21289 -23.1777 7.72363c28.7627 32.2939 42.0605 75.4824 55.4219 115.801c13.8809 41.8809 25.7051 84.415 36.582 127.165c21.2686 83.6016 38.8613 168.104 61.1309 251.459
c10.2441 38.3496 21.5205 76.4971 34.5537 114.016c-50.2051 0.993164 -102.39 16.6387 -114.401 67.6387c-2.01172 8.54688 23.5098 10.5508 25.5498 1.97168c9.87305 -41.4951 55.8789 -55.0371 93.959 -55.207c10.7207 29.6602 22.5977 58.8857 36.0547 87.4473
c25.6768 54.5 65.2246 124.974 128.862 140.552c27.7021 6.78711 54.9375 -2.77832 73.2871 -24.415c19.8408 -23.3965 27.377 -52.2119 31.4316 -81.8477c3.44336 -25.1533 4.93164 -50.5654 5.12988 -76.0762c23.6582 -1.9834 46.5674 -10.1309 61.7393 -29.6465
c8.3877 -10.7949 -17.5264 -15.4111 -23.4189 -7.80078c-10.0068 12.9268 -23.4287 19.3105 -38.3594 21.8203c-0.678711 -54.7295 -6.8291 -109.76 -12.5771 -163.524c-8.88965 -83.1533 -20.4482 -165.974 -29.2324 -249.145
c-4.4502 -42.1318 -7.5752 -84.4121 -9.7207 -126.724c-1.76367 -34.8389 -8.32812 -76.8965 8.39551 -109.092c7.20703 -13.8779 18.8936 -28.2715 36.2246 -25.9844c17.0518 2.24805 32.5801 14.8145 44.3369 26.5391c26.624 26.5498 42.7783 61.2832 57.4941 95.3486
c32.7959 75.9238 59.1338 154.436 85.2529 232.841zM214.625 498.586c28.2539 6.6416 57.1436 13.2119 86.1465 17.7891c0.0322266 0.318359 0.0742188 0.636719 0.106445 0.955078c4.1709 39.625 5.05078 79.2148 5.70801 118.936
c0.229492 13.8525 -2.27344 28.8965 -9.62207 40.8691c-12.1562 19.8057 -34.6621 11.4707 -50.6426 1.25195c-60.6221 -38.7695 -91.4141 -115.941 -116.589 -180.088c-2.68262 -6.83301 -5.22754 -13.7148 -7.77246 -20.5967
c31.3291 4.11816 62.0645 13.6904 92.665 20.8838z" />
    <glyph glyph-name="A" unicode="&#xc2;" horiz-adv-x="531" 
d="M547.533 185.957c2.85254 8.56152 27.1504 6.47168 23.7607 -3.7334c-29.1689 -87.5605 -56.96 -176.935 -96.7686 -260.405c-29.5762 -62.0186 -89.9404 -137.84 -168.48 -107.875c-77.9922 29.7559 -70.2227 132.873 -66.8398 200.381
c4.24902 84.7891 15.8115 168.812 27.9072 252.773c11.1943 77.7197 23.1348 155.097 31.8623 233.11c-8.23633 -1.73242 -16.1328 -3.48535 -23.3867 -4.86035c-42.5596 -8.07031 -84.1328 -20.3535 -126.604 -28.6748
c-9.85156 -1.92969 -20.9404 -3.51367 -32.627 -4.47559c-21.5869 -60.9541 -38.4053 -123.541 -53.7744 -186.323c-18.5186 -75.6523 -35.0547 -151.81 -55.7295 -226.921c-10.0322 -36.4404 -21.0293 -72.6299 -33.6768 -108.254
c-12.1914 -34.334 -25.5918 -68.0986 -50.1621 -95.6025c-6.40527 -7.16504 -32.0293 -2.21289 -23.1777 7.72363c28.7627 32.2939 42.0605 75.4824 55.4219 115.801c13.8809 41.8809 25.7051 84.415 36.582 127.165c21.2686 83.6016 38.8613 168.104 61.1309 251.459
c10.2441 38.3496 21.5205 76.4971 34.5537 114.016c-50.2051 0.993164 -102.39 16.6387 -114.401 67.6387c-2.01172 8.54688 23.5098 10.5508 25.5498 1.97168c9.87305 -41.4951 55.8789 -55.0371 93.959 -55.207c10.7207 29.6602 22.5977 58.8857 36.0547 87.4473
c25.6768 54.5 65.2246 124.974 128.862 140.552c27.7021 6.78711 54.9375 -2.77832 73.2871 -24.415c19.8408 -23.3965 27.377 -52.2119 31.4316 -81.8477c3.44336 -25.1533 4.93164 -50.5654 5.12988 -76.0762c23.6582 -1.9834 46.5674 -10.1309 61.7393 -29.6465
c8.3877 -10.7949 -17.5264 -15.4111 -23.4189 -7.80078c-10.0068 12.9268 -23.4287 19.3105 -38.3594 21.8203c-0.678711 -54.7295 -6.8291 -109.76 -12.5771 -163.524c-8.88965 -83.1533 -20.4482 -165.974 -29.2324 -249.145
c-4.4502 -42.1318 -7.5752 -84.4121 -9.7207 -126.724c-1.76367 -34.8389 -8.32812 -76.8965 8.39551 -109.092c7.20703 -13.8779 18.8936 -28.2715 36.2246 -25.9844c17.0518 2.24805 32.5801 14.8145 44.3369 26.5391c26.624 26.5498 42.7783 61.2832 57.4941 95.3486
c32.7959 75.9238 59.1338 154.436 85.2529 232.841zM214.625 498.586c28.2539 6.6416 57.1436 13.2119 86.1465 17.7891c0.0322266 0.318359 0.0742188 0.636719 0.106445 0.955078c4.1709 39.625 5.05078 79.2148 5.70801 118.936
c0.229492 13.8525 -2.27344 28.8965 -9.62207 40.8691c-12.1562 19.8057 -34.6621 11.4707 -50.6426 1.25195c-60.6221 -38.7695 -91.4141 -115.941 -116.589 -180.088c-2.68262 -6.83301 -5.22754 -13.7148 -7.77246 -20.5967
c31.3291 4.11816 62.0645 13.6904 92.665 20.8838z" />
    <glyph glyph-name="A" unicode="&#xc1;" horiz-adv-x="531" 
d="M547.533 185.957c2.85254 8.56152 27.1504 6.47168 23.7607 -3.7334c-29.1689 -87.5605 -56.96 -176.935 -96.7686 -260.405c-29.5762 -62.0186 -89.9404 -137.84 -168.48 -107.875c-77.9922 29.7559 -70.2227 132.873 -66.8398 200.381
c4.24902 84.7891 15.8115 168.812 27.9072 252.773c11.1943 77.7197 23.1348 155.097 31.8623 233.11c-8.23633 -1.73242 -16.1328 -3.48535 -23.3867 -4.86035c-42.5596 -8.07031 -84.1328 -20.3535 -126.604 -28.6748
c-9.85156 -1.92969 -20.9404 -3.51367 -32.627 -4.47559c-21.5869 -60.9541 -38.4053 -123.541 -53.7744 -186.323c-18.5186 -75.6523 -35.0547 -151.81 -55.7295 -226.921c-10.0322 -36.4404 -21.0293 -72.6299 -33.6768 -108.254
c-12.1914 -34.334 -25.5918 -68.0986 -50.1621 -95.6025c-6.40527 -7.16504 -32.0293 -2.21289 -23.1777 7.72363c28.7627 32.2939 42.0605 75.4824 55.4219 115.801c13.8809 41.8809 25.7051 84.415 36.582 127.165c21.2686 83.6016 38.8613 168.104 61.1309 251.459
c10.2441 38.3496 21.5205 76.4971 34.5537 114.016c-50.2051 0.993164 -102.39 16.6387 -114.401 67.6387c-2.01172 8.54688 23.5098 10.5508 25.5498 1.97168c9.87305 -41.4951 55.8789 -55.0371 93.959 -55.207c10.7207 29.6602 22.5977 58.8857 36.0547 87.4473
c25.6768 54.5 65.2246 124.974 128.862 140.552c27.7021 6.78711 54.9375 -2.77832 73.2871 -24.415c19.8408 -23.3965 27.377 -52.2119 31.4316 -81.8477c3.44336 -25.1533 4.93164 -50.5654 5.12988 -76.0762c23.6582 -1.9834 46.5674 -10.1309 61.7393 -29.6465
c8.3877 -10.7949 -17.5264 -15.4111 -23.4189 -7.80078c-10.0068 12.9268 -23.4287 19.3105 -38.3594 21.8203c-0.678711 -54.7295 -6.8291 -109.76 -12.5771 -163.524c-8.88965 -83.1533 -20.4482 -165.974 -29.2324 -249.145
c-4.4502 -42.1318 -7.5752 -84.4121 -9.7207 -126.724c-1.76367 -34.8389 -8.32812 -76.8965 8.39551 -109.092c7.20703 -13.8779 18.8936 -28.2715 36.2246 -25.9844c17.0518 2.24805 32.5801 14.8145 44.3369 26.5391c26.624 26.5498 42.7783 61.2832 57.4941 95.3486
c32.7959 75.9238 59.1338 154.436 85.2529 232.841zM214.625 498.586c28.2539 6.6416 57.1436 13.2119 86.1465 17.7891c0.0322266 0.318359 0.0742188 0.636719 0.106445 0.955078c4.1709 39.625 5.05078 79.2148 5.70801 118.936
c0.229492 13.8525 -2.27344 28.8965 -9.62207 40.8691c-12.1562 19.8057 -34.6621 11.4707 -50.6426 1.25195c-60.6221 -38.7695 -91.4141 -115.941 -116.589 -180.088c-2.68262 -6.83301 -5.22754 -13.7148 -7.77246 -20.5967
c31.3291 4.11816 62.0645 13.6904 92.665 20.8838z" />
    <glyph glyph-name="B" unicode="B" horiz-adv-x="632" 
d="M89.5889 -163.618c-55.4932 19.9082 -109.365 61.6914 -126.771 120.196c-18.5615 62.3896 9.09473 128.424 57.5078 169.265c19.5938 16.5283 41.2871 28.2178 64.2461 36.1963c-0.837891 28.9785 -1.19531 57.9707 -1.17383 86.9561
c0.102539 133.075 5.15723 269.119 27.6348 400.501c5.12891 29.9678 80.1553 29.9854 77.6562 0c-8.87598 -106.489 -19.2334 -212.336 -23.666 -318.942c16.6592 81.9932 43.1846 162.633 85.3975 235.146c36.5996 62.8701 90.0107 137.447 171.53 133.746
c31.7217 -1.44238 63.4043 -14.9629 79.8867 -43.2168c20.4033 -34.9736 15.6982 -74.9131 -3.85254 -109.06c-20.8311 -36.3799 -56.2607 -63.4287 -90.2793 -86.8398c-19.4277 -13.3721 -39.9688 -25.0684 -61.2168 -35.3262
c55.2383 -16.7051 107.642 -45.0508 145.178 -88.4092c48.8154 -56.3906 61.3672 -126.553 48.3379 -197.631c41.1172 1.69629 80.4033 12.8164 111.086 44.7217c6.25977 6.51074 30.3213 1.62891 21.7461 -7.24707c-35.8926 -37.1504 -85.7832 -50.5938 -135.875 -52.1318
c-0.124023 -0.530273 -0.233398 -1.05664 -0.357422 -1.58301c-29.8936 -126.101 -118.225 -243.947 -243.679 -286.217c-64.2031 -21.6328 -139.286 -23.1035 -203.337 -0.124023zM284.285 574.569c-19.6328 -31.7744 -36.2031 -65.3877 -50.0879 -100.058
c-38.1826 -95.3408 -55.2803 -196.107 -64.001 -297.913c12.6055 0.371094 25.2812 0.124023 37.915 -0.59668c78.1729 -4.46777 155.578 -16.7969 232.867 -28.7725c8.25391 -1.2793 16.6631 -2.53809 25.1641 -3.68359c0.908203 5.18164 1.73926 10.3633 2.40039 15.5352
c7.73047 60.4414 -6.2041 119.434 -49.0107 164.149c-42.9766 44.8926 -100.262 64.6836 -160.015 75.5918c-9.70996 1.77441 -24.2979 6.39453 -26.666 17.6426c-2.25195 10.6924 8.5752 18.4404 17.7725 21.1445c43.2627 12.7178 83.8916 31.0674 121.986 55.2314
c34.1602 21.668 74.832 49.957 94.6445 86.2031c17.3594 31.7607 19.7383 75.0371 -15.1543 95.6377c-31.0713 18.3457 -68.0068 7.23926 -95.0586 -12.8633c-30.4668 -22.6367 -53.0293 -55.3262 -72.7568 -87.249zM64.2764 130.144
c-51.5098 -34.291 -78.6631 -98.7051 -60.6006 -159.126c16.6523 -55.7373 68.0625 -95.0166 122.908 -109.004c52.4707 -13.3828 109.01 -3.24121 156.638 21.4814c90.5898 47.0234 157.882 144.948 180.023 245.267c-65.8398 7.64258 -131.17 21.0117 -197.13 27.7812
c-31.6826 3.25195 -64.7969 6.35938 -97.165 4.70898c-1.92676 -24.7822 -3.40039 -49.6074 -4.58789 -74.4219c0.155273 -5.65918 0.264648 -11.3252 0.441406 -16.9844c0.97168 -30.9189 2.2832 -61.8203 3.4248 -92.7324
c0.873047 -23.6689 10.8379 -62.8066 -17.7266 -72.1104c-32.3896 -10.5479 -41.499 30.3184 -46.3096 52.3789c-6.6416 30.4736 -10.9297 61.4814 -13.5244 92.5596c-2.55957 30.6289 -4.28809 61.3184 -5.43359 92.0293
c-7.1543 -3.39648 -14.1572 -7.29883 -20.958 -11.8271z" />
    <glyph glyph-name="C" unicode="C" horiz-adv-x="376" 
d="M132.597 -103.869c-67.9746 13.8389 -106.835 81.751 -127.778 142.186c-23.4287 67.5537 -30.834 139.664 -30.8203 210.823c0.0283203 139.54 24.1289 299.809 120.601 407.603c44.4609 49.6787 113.294 82.8916 177.009 47.042
c55.1289 -31.0176 72.9404 -99.3242 74.998 -158.122c1.22266 -34.8926 -2.90625 -69.8906 -11.75 -103.645c-7.81934 -29.8477 -18.8691 -63.0928 -46.0479 -80.8408c-22.792 -14.8848 -52.6045 -15.9697 -75.793 -1.32129
c-24.7617 15.6416 -34.2529 43.5918 -40.043 70.8174c-2.24414 10.5479 27.7627 12.1133 30.1562 -0.000976562c5.71582 -28.9111 28.8545 -85.9873 67.0303 -55.9238c24.1924 19.0527 33.1357 56.4863 39.1523 85.083c12.2695 58.3174 13.1816 131.594 -18.8682 184.121
c-13.3896 21.9404 -37.748 44.2031 -65.0684 44.8926c-23.1816 0.583008 -42.2451 -20.5273 -56.1719 -36.5117c-35.5146 -40.7598 -56.7061 -92.8027 -73.9316 -143.379c-37.6953 -110.686 -45.9033 -232.142 -36.3203 -348.144
c4.6875 -56.7441 17.0986 -110.653 38.583 -163.354c9.41992 -23.1074 20.0283 -46.9316 38.5439 -64.2666c22.2344 -20.8203 49.8799 -19.7461 76.3135 -6.22559c47.335 24.2139 81.7539 78.4658 106.936 123.28c27.4023 48.7588 48.0459 101.011 68.9717 152.771
c3.39355 8.3916 27.4795 6.27734 23.7539 -3.7334c-27.4053 -73.6689 -56.3799 -147.949 -103.591 -211.551c-41.1738 -55.4688 -101.817 -106.678 -175.864 -91.6016z" />
    <glyph glyph-name="D" unicode="D" horiz-adv-x="524" 
d="M542.458 174.936c8.78418 5.30566 34.0049 -2.88086 19.9502 -11.3818c-43.7217 -26.4512 -91.8584 -39.085 -141.332 -45.6777c-0.78125 -2.83105 -1.52734 -5.67676 -2.34082 -8.50098c-25.3271 -87.9316 -69.0947 -172.888 -144.828 -227.271
c-65.2451 -46.8506 -159.161 -73.9658 -234.944 -35.5957c-70.9229 35.9102 -78.8545 129.014 -29.5723 186.663c-5.25977 25.7197 -9.34277 51.6406 -12.8496 77.1377c-8.31055 60.375 -13.6797 121.019 -15.6836 181.934
c-4.05469 123.153 1.01465 249.548 24.8643 370.675c3.3125 16.8154 22.9023 21.6582 38 21.6582c11.043 0 40.0039 -5.09375 38 -21.6582c-14.8145 -122.39 -25.6914 -243.832 -21.5518 -367.292c1.85254 -55.2949 5.72363 -110.629 11.8281 -165.642
c5.84277 65.3096 13.7676 130.406 25.542 194.948c18.4414 101.106 43.0088 208.49 101.309 294.896c21.3252 31.6084 48.0977 65.6738 86.4219 76.5576c34.5488 9.80957 65.6484 -3.80273 89.54 -28.7832c30.0137 -31.3818 44.4043 -75.1641 54.7256 -116.362
c12.1631 -48.5439 17.8506 -97.8506 20.5615 -147.741c4.89551 -90.0635 -2.42188 -180.989 -24.4971 -268.504c40.8408 6.39844 80.4062 17.9219 116.857 39.9404zM171.133 509.151c-48.501 -132.46 -66.8818 -275.424 -77.6279 -416.852
c50.7246 21.2334 108.724 28.6074 161.467 31.6045c29.8691 1.69629 60.3926 2.2373 90.8623 3.69336c31.4561 105.945 38.123 221.562 36.2002 328.334c-0.802734 44.5352 -1.91992 88.9502 -10.1025 132.877c-5.9707 32.0605 -14.207 79.9219 -49.3037 93.2656
c-40.9824 15.5781 -79.293 -37.6562 -98.5225 -66.2139c-22.2627 -33.0576 -39.293 -69.3496 -52.9727 -106.709zM266.796 -38.0674c32.7393 45.4043 56.6504 96.0205 73.9746 149.368c-15.3408 -0.713867 -30.6533 -1.25098 -45.8457 -1.82715
c-64.2207 -2.44238 -145.186 -6.28516 -203.23 -42.125c-1.37109 -19.5088 -2.62988 -38.9717 -3.81738 -58.3604c3.27344 -26.1045 5.9209 -52.2441 6.90723 -78.3838c0.78125 -20.7285 -47.0908 -20.0322 -53.7578 -4.14648
c-6.61719 15.7617 -12.2725 32.0215 -17.2139 48.5781c-4.61621 -19.8164 -4.5459 -40.5342 2.59473 -59.9971c11.6367 -31.7139 39.8018 -52.2578 73.333 -54.9268c68.749 -5.47168 129.675 49.9824 167.056 101.82z" />
    <glyph glyph-name="E" unicode="E" 
d="M55.1504 652.429c65.1816 69.1406 177.904 115.269 261.227 49.3975c68.9502 -54.5029 67.4229 -176.875 10.8057 -239.667c-25.7617 -28.5684 -71.4385 -41.4668 -106.5 -21.9268c-37.2461 20.7598 -35.0684 66.4717 -22.1943 101.42
c3.71484 10.0879 32.4639 7.30957 28.0137 -4.40137c-7.03809 -18.5186 -11.8311 -40.042 -5.98438 -59.6104c6.77637 -22.6797 28.3887 -35.4688 51.499 -28.9297c40.293 11.3994 59.7842 64.3223 63.8389 101.491c4.04004 37.041 -3.14941 80.0986 -29.7422 107.978
c-19.9326 20.9014 -47.6738 43.0752 -78.4443 40.9404c-33.0186 -2.29102 -63.5244 -27.3916 -86.0732 -49.626c-24.5312 -24.1885 -44.0684 -51.3428 -59.5654 -82.1064c-31.2051 -61.9443 -45.1289 -142.527 -14.4893 -207.401
c27.3945 -58.0059 88.8857 -82.6826 149.6 -81.5088c11.417 0.21875 28.2354 -3.18164 35.1494 -13.4785c6.09375 -9.07715 1.55176 -19.25 -7.95312 -23.9482c-57.458 -28.3955 -104.619 -76.8828 -135.146 -132.991
c-28.9355 -53.1846 -50.3984 -122.905 -31.2432 -183.001c7.33105 -23.0049 22.7998 -50.7354 48.8691 -55.3027c30.1553 -5.28418 65.415 14.9561 89.7842 30.6855c52.4639 33.8672 95.5996 86.4824 129.46 138.239c33.7646 51.6084 59.0312 108.25 74.1357 168.062
c2.33301 9.24023 28.4268 7.40527 25.6162 -4.02637c-19.2012 -78.1543 -55.9912 -150.431 -105.4 -213.796c-41.3535 -53.0361 -94.3438 -107.557 -157.507 -133.838c-33.2803 -13.8496 -71.5518 -17.3916 -105.182 -2.77148
c-29.1406 12.6689 -49.6924 39.0283 -60.6787 68.3535c-26.0234 69.4658 -6.53613 148.289 29.6885 210.321c25.1152 43.0049 58.2148 78.71 96.6309 108.756c-80.6396 15.5254 -151.272 64.8252 -170.138 152.793c-19.7988 92.3291 18.6104 192.735 81.9229 259.894z" />
    <glyph glyph-name="E" unicode="&#xcb;" 
d="M55.1504 652.429c65.1816 69.1406 177.904 115.269 261.227 49.3975c68.9502 -54.5029 67.4229 -176.875 10.8057 -239.667c-25.7617 -28.5684 -71.4385 -41.4668 -106.5 -21.9268c-37.2461 20.7598 -35.0684 66.4717 -22.1943 101.42
c3.71484 10.0879 32.4639 7.30957 28.0137 -4.40137c-7.03809 -18.5186 -11.8311 -40.042 -5.98438 -59.6104c6.77637 -22.6797 28.3887 -35.4688 51.499 -28.9297c40.293 11.3994 59.7842 64.3223 63.8389 101.491c4.04004 37.041 -3.14941 80.0986 -29.7422 107.978
c-19.9326 20.9014 -47.6738 43.0752 -78.4443 40.9404c-33.0186 -2.29102 -63.5244 -27.3916 -86.0732 -49.626c-24.5312 -24.1885 -44.0684 -51.3428 -59.5654 -82.1064c-31.2051 -61.9443 -45.1289 -142.527 -14.4893 -207.401
c27.3945 -58.0059 88.8857 -82.6826 149.6 -81.5088c11.417 0.21875 28.2354 -3.18164 35.1494 -13.4785c6.09375 -9.07715 1.55176 -19.25 -7.95312 -23.9482c-57.458 -28.3955 -104.619 -76.8828 -135.146 -132.991
c-28.9355 -53.1846 -50.3984 -122.905 -31.2432 -183.001c7.33105 -23.0049 22.7998 -50.7354 48.8691 -55.3027c30.1553 -5.28418 65.415 14.9561 89.7842 30.6855c52.4639 33.8672 95.5996 86.4824 129.46 138.239c33.7646 51.6084 59.0312 108.25 74.1357 168.062
c2.33301 9.24023 28.4268 7.40527 25.6162 -4.02637c-19.2012 -78.1543 -55.9912 -150.431 -105.4 -213.796c-41.3535 -53.0361 -94.3438 -107.557 -157.507 -133.838c-33.2803 -13.8496 -71.5518 -17.3916 -105.182 -2.77148
c-29.1406 12.6689 -49.6924 39.0283 -60.6787 68.3535c-26.0234 69.4658 -6.53613 148.289 29.6885 210.321c25.1152 43.0049 58.2148 78.71 96.6309 108.756c-80.6396 15.5254 -151.272 64.8252 -170.138 152.793c-19.7988 92.3291 18.6104 192.735 81.9229 259.894z" />
    <glyph glyph-name="E" unicode="&#xca;" 
d="M55.1504 652.429c65.1816 69.1406 177.904 115.269 261.227 49.3975c68.9502 -54.5029 67.4229 -176.875 10.8057 -239.667c-25.7617 -28.5684 -71.4385 -41.4668 -106.5 -21.9268c-37.2461 20.7598 -35.0684 66.4717 -22.1943 101.42
c3.71484 10.0879 32.4639 7.30957 28.0137 -4.40137c-7.03809 -18.5186 -11.8311 -40.042 -5.98438 -59.6104c6.77637 -22.6797 28.3887 -35.4688 51.499 -28.9297c40.293 11.3994 59.7842 64.3223 63.8389 101.491c4.04004 37.041 -3.14941 80.0986 -29.7422 107.978
c-19.9326 20.9014 -47.6738 43.0752 -78.4443 40.9404c-33.0186 -2.29102 -63.5244 -27.3916 -86.0732 -49.626c-24.5312 -24.1885 -44.0684 -51.3428 -59.5654 -82.1064c-31.2051 -61.9443 -45.1289 -142.527 -14.4893 -207.401
c27.3945 -58.0059 88.8857 -82.6826 149.6 -81.5088c11.417 0.21875 28.2354 -3.18164 35.1494 -13.4785c6.09375 -9.07715 1.55176 -19.25 -7.95312 -23.9482c-57.458 -28.3955 -104.619 -76.8828 -135.146 -132.991
c-28.9355 -53.1846 -50.3984 -122.905 -31.2432 -183.001c7.33105 -23.0049 22.7998 -50.7354 48.8691 -55.3027c30.1553 -5.28418 65.415 14.9561 89.7842 30.6855c52.4639 33.8672 95.5996 86.4824 129.46 138.239c33.7646 51.6084 59.0312 108.25 74.1357 168.062
c2.33301 9.24023 28.4268 7.40527 25.6162 -4.02637c-19.2012 -78.1543 -55.9912 -150.431 -105.4 -213.796c-41.3535 -53.0361 -94.3438 -107.557 -157.507 -133.838c-33.2803 -13.8496 -71.5518 -17.3916 -105.182 -2.77148
c-29.1406 12.6689 -49.6924 39.0283 -60.6787 68.3535c-26.0234 69.4658 -6.53613 148.289 29.6885 210.321c25.1152 43.0049 58.2148 78.71 96.6309 108.756c-80.6396 15.5254 -151.272 64.8252 -170.138 152.793c-19.7988 92.3291 18.6104 192.735 81.9229 259.894z" />
    <glyph glyph-name="E" unicode="&#xc9;" 
d="M55.1504 652.429c65.1816 69.1406 177.904 115.269 261.227 49.3975c68.9502 -54.5029 67.4229 -176.875 10.8057 -239.667c-25.7617 -28.5684 -71.4385 -41.4668 -106.5 -21.9268c-37.2461 20.7598 -35.0684 66.4717 -22.1943 101.42
c3.71484 10.0879 32.4639 7.30957 28.0137 -4.40137c-7.03809 -18.5186 -11.8311 -40.042 -5.98438 -59.6104c6.77637 -22.6797 28.3887 -35.4688 51.499 -28.9297c40.293 11.3994 59.7842 64.3223 63.8389 101.491c4.04004 37.041 -3.14941 80.0986 -29.7422 107.978
c-19.9326 20.9014 -47.6738 43.0752 -78.4443 40.9404c-33.0186 -2.29102 -63.5244 -27.3916 -86.0732 -49.626c-24.5312 -24.1885 -44.0684 -51.3428 -59.5654 -82.1064c-31.2051 -61.9443 -45.1289 -142.527 -14.4893 -207.401
c27.3945 -58.0059 88.8857 -82.6826 149.6 -81.5088c11.417 0.21875 28.2354 -3.18164 35.1494 -13.4785c6.09375 -9.07715 1.55176 -19.25 -7.95312 -23.9482c-57.458 -28.3955 -104.619 -76.8828 -135.146 -132.991
c-28.9355 -53.1846 -50.3984 -122.905 -31.2432 -183.001c7.33105 -23.0049 22.7998 -50.7354 48.8691 -55.3027c30.1553 -5.28418 65.415 14.9561 89.7842 30.6855c52.4639 33.8672 95.5996 86.4824 129.46 138.239c33.7646 51.6084 59.0312 108.25 74.1357 168.062
c2.33301 9.24023 28.4268 7.40527 25.6162 -4.02637c-19.2012 -78.1543 -55.9912 -150.431 -105.4 -213.796c-41.3535 -53.0361 -94.3438 -107.557 -157.507 -133.838c-33.2803 -13.8496 -71.5518 -17.3916 -105.182 -2.77148
c-29.1406 12.6689 -49.6924 39.0283 -60.6787 68.3535c-26.0234 69.4658 -6.53613 148.289 29.6885 210.321c25.1152 43.0049 58.2148 78.71 96.6309 108.756c-80.6396 15.5254 -151.272 64.8252 -170.138 152.793c-19.7988 92.3291 18.6104 192.735 81.9229 259.894z" />
    <glyph glyph-name="F" unicode="F" horiz-adv-x="463" 
d="M108.205 628.764c8.05957 -3.62012 15.7021 -7.71777 22.9629 -12.2139c7.82227 4.83203 15.624 9.70312 23.4111 14.5811c79.3145 49.6924 160.591 102.735 254.723 118.14c41.499 6.79395 89.1904 7.07715 123.33 -21.1982
c39.3535 -32.5947 27.4062 -80.1807 6.69922 -119.912c-4.94531 -9.49121 -32.9307 -6.14062 -27.4805 4.31934c14.8955 28.5752 29.6709 64.1357 8.94238 93.7754c-20.1348 28.791 -56.748 32.9941 -89.1309 29.4062
c-58.5361 -6.48633 -113.195 -31.0107 -164.072 -59.5508c20.3643 2.94824 45.0059 -3.90527 45.2285 -20.4521c1.71484 -127.056 1.82129 -254.129 3.08984 -381.191c0.24707 -24.9736 0.543945 -49.9473 0.830078 -74.917
c44.3262 -2.25488 89.5537 -8.17578 131.243 -0.0419922c12.3896 2.41797 22.8066 -10.1514 6.62109 -13.6895c-42.9766 -9.39551 -91.124 -2.20605 -137.702 -0.802734c0.37793 -33.7041 0.727539 -67.4053 0.928711 -101.109
c0.37793 -63.6621 1.15918 -127.261 -6.85449 -190.509c-2.39355 -18.8867 -43.1748 -17.8047 -46.7275 0c-12.5342 62.8281 -15.79 126.61 -18.6494 190.509c-1.40723 31.4316 -2.50293 62.8594 -3.39355 94.2949c-16.4756 -4.57031 -32.1738 -11.792 -46.6875 -23.04
c-7.40234 -5.7373 -34.8789 -0.926758 -24.3701 8.11914c21.6328 18.6182 45.4893 28.3457 70.5938 33.0859c-0.674805 26.0303 -1.25098 52.0605 -1.72461 78.1055c-0.413086 22.792 -0.745117 45.584 -1.03125 68.376c-3.45703 22.4424 -7.58887 44.7607 -12.5977 66.9102
c-14.5137 64.1885 -43.3086 138.851 -96.2568 182.47c-38.5469 -23.0645 -88.4375 -53.9727 -135.207 -44.8525c-42.4004 8.26758 -49.3184 56.6172 -15.3594 80.9893c36.249 26.0166 90.6211 17.4766 128.642 0.399414zM92.5781 593.588
c6.64941 3.74316 13.2285 7.61035 19.7852 11.5234c-14.6133 9.15918 -30.8027 16.1016 -48.749 20.1309c-25.0586 5.62695 -61.209 5.34375 -74.2773 -21.3896c-10.7422 -21.9727 2.32227 -43.5488 26.7266 -41.4033c26.7334 2.35059 53.6299 18.2539 76.5146 31.1387z
M242.271 661.417c-31.3008 -18.6426 -61.8701 -38.4893 -92.916 -57.5527c42.9482 -33.5879 70.6611 -82.8418 88.8652 -135.168c0.0742188 62.3291 0.883789 124.658 2.75 186.967c0.0605469 2.07812 0.541016 3.9834 1.30078 5.75391z" />
    <glyph glyph-name="G" unicode="G" horiz-adv-x="379" 
d="M296.956 462.956c14.1035 -94.4961 12.6133 -194.2 -2.37109 -288.979c36.4688 2.73242 73.5557 5.56738 104.442 27.1436c8.05957 5.62695 31.8066 -1.63672 18.9824 -10.8203c-29.9365 -21.4385 -66.2139 -27.5186 -102.131 -30.6504
c-8.02441 -0.700195 -16.0381 -1.37891 -24.0479 -2.09277c-0.286133 -1.64062 -0.543945 -3.29102 -0.84082 -4.92773c-13.5771 -75.0127 -38.1338 -162.259 -96.4297 -215.727c-26.3096 -24.1357 -64.1035 -39.958 -99.4619 -27.0986
c-29.9648 10.8975 -47.0947 41.9609 -51.1494 72.2158c-4.75391 35.4824 5.80469 75.793 26.377 104.896c21.9443 31.043 56.9463 49.6641 91.9131 62.4141c17.9111 6.53223 36.3418 11.3428 55.0127 15.0156c10.6924 73.9805 10.5088 150.325 6.27441 224.8
c-17.8857 -47.9033 -39.0098 -94.9268 -79.8506 -125.368c-64.1924 -47.8438 -141.333 -5.85059 -162.804 65.0049c-23.0996 76.2285 -13.5879 168.686 16.3799 242.033c25.9492 63.5098 86.1113 134.071 160.823 134.213
c81.043 0.152344 78.1299 -104.457 72.5557 -160.686c-0.986328 -9.93652 -25.7441 -9.41016 -24.9102 -0.000976562c3.09277 34.8848 6.75488 72.333 -7.43066 105.401c-5.75781 13.4248 -17.7373 34.001 -34.8848 33.3223
c-13.5137 -0.537109 -26.3164 -14.2275 -35.2842 -22.9443c-40.042 -38.9258 -62.3047 -95.002 -73.8525 -148.767c-12.8486 -59.8369 -19.4268 -129.872 -1.12695 -189.31c6.3418 -20.6045 20.082 -58.293 47.4736 -57.165
c26.9141 1.10645 51.3115 37.5928 63.8779 58.0312c23.8955 38.8652 37.7734 82.6475 54.9629 124.754c-0.410156 5.11133 -0.831055 10.209 -1.2627 15.292c-1.4668 17.3174 27.8652 22.4463 39.3818 22.4463c14.9629 0 36.7793 -5.02344 39.3809 -22.4463zM178.573 18.918
c16.9883 40.9824 28.4414 83.8311 35.8789 127.635c-5.67676 -1.30762 -11.3398 -2.72168 -16.9707 -4.3623c-34.1992 -9.96094 -70.2188 -25.1748 -93.9834 -52.7529c-22.7891 -26.4512 -33.2764 -64.2734 -31.3467 -98.7734
c1.06738 -19.1094 6.52832 -37.8193 22.1553 -49.8975c12.167 -9.40234 23.0752 -11.3604 35.415 -1.64355c23.8701 18.7949 37.5645 52.5625 48.8516 79.7949z" />
    <glyph glyph-name="H" unicode="H" horiz-adv-x="491" 
d="M504.662 195.937c0.788086 9.78418 25.2158 9.41211 24.6289 -0.0078125c-4.46484 -72.1777 -24.0303 -152.796 -68.0566 -211.64c-36.4756 -48.7588 -102.393 -58.4619 -141.82 -7.47559c-42.2158 54.5918 -47.8154 133.726 -53.2842 199.996
c-6.42969 77.9531 -6.16797 156.281 -3.5625 234.407c1.03906 31.1631 2.22656 62.4746 3.92676 93.7793c-6.27734 -1.44531 -12.0781 -2.91211 -17.1016 -4.20605c-39.5156 -10.1768 -77.5361 -25.3164 -116.691 -36.7021
c-10.9971 -3.19922 -22.4639 -6.44043 -34.1533 -9.19727c-2.53418 -58.9355 -4.06445 -117.914 -3.43164 -177.048c0.646484 -60.5127 2.6123 -121.142 7.69531 -181.456c5.08984 -60.3818 20.2715 -119.725 24.499 -179.982
c0.756836 -10.7598 -15.8252 -14.5488 -23.4883 -15.167c-10.5938 -0.851562 -23.6123 1.38281 -29.7236 11.0615c-32.7959 51.9297 -42.8877 117.511 -50.0391 177.521c-7.29199 61.1982 -8.74805 122.955 -9.37012 184.531
c-0.589844 58.4902 -0.0488281 117.303 2.55664 176.016c-28.4658 6.13965 -56.9775 29.5186 -50.251 61.4658c2.20898 10.4912 28.2148 9.23633 26.292 0c-4.05078 -19.4414 6.98828 -37.3662 24.7402 -44.7471c3.33301 65.0303 9.33496 129.887 19.3418 194.012
c4.3623 27.9678 74.0225 28.2119 72.4072 0.000976562c-3.61621 -63.1426 -7.56836 -126.186 -10.4814 -189.265c36.4082 8.98242 71.5547 22.5986 107.303 33.79c19.9609 6.25 40.2617 11.7568 60.8447 15.5635c2.60156 42.8564 6.30273 85.6455 12.2451 127.95
c4.17773 29.749 77.2637 30.4697 77.1045 0c-0.21875 -41.7529 -2.6543 -83.499 -5.36914 -125.234c22.1699 -4.125 42.6367 -14.1494 51.7568 -36.4893c4.46094 -10.9258 -22.6191 -13.5059 -26.415 -4.14941c-5.10059 12.5732 -14.5947 20.1836 -26.4014 24.4258
c-1.97266 -29.8271 -3.95898 -59.6504 -5.2666 -89.4668c-2.96582 -67.6885 -3.42578 -135.242 -1.85645 -202.969c1.45312 -62.6826 3.57031 -127.426 17.5293 -188.794c4.06152 -17.8477 8.75977 -54.9561 27.5654 -64.6064
c14.3125 -7.34863 33.1816 11.7783 41.8311 21.5908c9.5332 10.8164 16.917 23.4219 23.6299 36.1221c28.8975 54.6621 45.9102 114.811 50.8662 176.369z" />
    <glyph glyph-name="I" unicode="I" horiz-adv-x="224" 
d="M122.229 657.477c-2.82031 15.9561 -24.2988 12.3506 -41.457 7.64941c5.89648 -3.72949 9.69629 -9.03906 9.66113 -15.9883c-0.399414 -77.0059 -8.32129 -153.987 -11.6934 -230.915c-2.96582 -67.6885 -3.42578 -135.242 -1.85645 -202.969
c1.45312 -62.6826 3.57031 -127.426 17.5293 -188.794c4.06152 -17.8477 8.75977 -54.9561 27.5654 -64.6064c14.3125 -7.34863 33.1816 11.7783 41.8311 21.5908c9.5332 10.8164 16.917 23.4219 23.6299 36.1221c28.8936 54.6621 45.9102 114.811 50.8662 176.369
c0.788086 9.78418 25.2168 9.41992 24.6338 0c-4.46094 -72.1777 -24.0293 -152.796 -68.0557 -211.64c-36.4756 -48.7588 -102.393 -58.4619 -141.82 -7.47559c-42.2158 54.5918 -47.8154 133.726 -53.2842 199.996c-6.42969 77.9531 -6.16797 156.281 -3.5625 234.407
c2.64062 79.2119 6.09082 159.392 17.1191 237.917c0.21582 1.53809 0.657227 2.98047 1.22266 4.3623c-18.6104 0.766602 -46.2666 6.04395 -44.4746 28.335c0.794922 9.87598 25.0508 9.86523 25.1855 0c0.40625 -29.7734 86.5811 0.947266 103.768 2.62988
c21.2305 2.0752 46.9883 -2.7002 51.4141 -26.9912c1.84473 -10.1309 -26.2285 -11.2871 -28.2217 0z" />
    <glyph glyph-name="I" unicode="&#xcf;" horiz-adv-x="224" 
d="M122.229 657.477c-2.82031 15.9561 -24.2988 12.3506 -41.457 7.64941c5.89648 -3.72949 9.69629 -9.03906 9.66113 -15.9883c-0.399414 -77.0059 -8.32129 -153.987 -11.6934 -230.915c-2.96582 -67.6885 -3.42578 -135.242 -1.85645 -202.969
c1.45312 -62.6826 3.57031 -127.426 17.5293 -188.794c4.06152 -17.8477 8.75977 -54.9561 27.5654 -64.6064c14.3125 -7.34863 33.1816 11.7783 41.8311 21.5908c9.5332 10.8164 16.917 23.4219 23.6299 36.1221c28.8936 54.6621 45.9102 114.811 50.8662 176.369
c0.788086 9.78418 25.2168 9.41992 24.6338 0c-4.46094 -72.1777 -24.0293 -152.796 -68.0557 -211.64c-36.4756 -48.7588 -102.393 -58.4619 -141.82 -7.47559c-42.2158 54.5918 -47.8154 133.726 -53.2842 199.996c-6.42969 77.9531 -6.16797 156.281 -3.5625 234.407
c2.64062 79.2119 6.09082 159.392 17.1191 237.917c0.21582 1.53809 0.657227 2.98047 1.22266 4.3623c-18.6104 0.766602 -46.2666 6.04395 -44.4746 28.335c0.794922 9.87598 25.0508 9.86523 25.1855 0c0.40625 -29.7734 86.5811 0.947266 103.768 2.62988
c21.2305 2.0752 46.9883 -2.7002 51.4141 -26.9912c1.84473 -10.1309 -26.2285 -11.2871 -28.2217 0z" />
    <glyph glyph-name="I" unicode="&#xce;" horiz-adv-x="224" 
d="M122.229 657.477c-2.82031 15.9561 -24.2988 12.3506 -41.457 7.64941c5.89648 -3.72949 9.69629 -9.03906 9.66113 -15.9883c-0.399414 -77.0059 -8.32129 -153.987 -11.6934 -230.915c-2.96582 -67.6885 -3.42578 -135.242 -1.85645 -202.969
c1.45312 -62.6826 3.57031 -127.426 17.5293 -188.794c4.06152 -17.8477 8.75977 -54.9561 27.5654 -64.6064c14.3125 -7.34863 33.1816 11.7783 41.8311 21.5908c9.5332 10.8164 16.917 23.4219 23.6299 36.1221c28.8936 54.6621 45.9102 114.811 50.8662 176.369
c0.788086 9.78418 25.2168 9.41992 24.6338 0c-4.46094 -72.1777 -24.0293 -152.796 -68.0557 -211.64c-36.4756 -48.7588 -102.393 -58.4619 -141.82 -7.47559c-42.2158 54.5918 -47.8154 133.726 -53.2842 199.996c-6.42969 77.9531 -6.16797 156.281 -3.5625 234.407
c2.64062 79.2119 6.09082 159.392 17.1191 237.917c0.21582 1.53809 0.657227 2.98047 1.22266 4.3623c-18.6104 0.766602 -46.2666 6.04395 -44.4746 28.335c0.794922 9.87598 25.0508 9.86523 25.1855 0c0.40625 -29.7734 86.5811 0.947266 103.768 2.62988
c21.2305 2.0752 46.9883 -2.7002 51.4141 -26.9912c1.84473 -10.1309 -26.2285 -11.2871 -28.2217 0z" />
    <glyph glyph-name="I" unicode="&#xcd;" horiz-adv-x="224" 
d="M122.229 657.477c-2.82031 15.9561 -24.2988 12.3506 -41.457 7.64941c5.89648 -3.72949 9.69629 -9.03906 9.66113 -15.9883c-0.399414 -77.0059 -8.32129 -153.987 -11.6934 -230.915c-2.96582 -67.6885 -3.42578 -135.242 -1.85645 -202.969
c1.45312 -62.6826 3.57031 -127.426 17.5293 -188.794c4.06152 -17.8477 8.75977 -54.9561 27.5654 -64.6064c14.3125 -7.34863 33.1816 11.7783 41.8311 21.5908c9.5332 10.8164 16.917 23.4219 23.6299 36.1221c28.8936 54.6621 45.9102 114.811 50.8662 176.369
c0.788086 9.78418 25.2168 9.41992 24.6338 0c-4.46094 -72.1777 -24.0293 -152.796 -68.0557 -211.64c-36.4756 -48.7588 -102.393 -58.4619 -141.82 -7.47559c-42.2158 54.5918 -47.8154 133.726 -53.2842 199.996c-6.42969 77.9531 -6.16797 156.281 -3.5625 234.407
c2.64062 79.2119 6.09082 159.392 17.1191 237.917c0.21582 1.53809 0.657227 2.98047 1.22266 4.3623c-18.6104 0.766602 -46.2666 6.04395 -44.4746 28.335c0.794922 9.87598 25.0508 9.86523 25.1855 0c0.40625 -29.7734 86.5811 0.947266 103.768 2.62988
c21.2305 2.0752 46.9883 -2.7002 51.4141 -26.9912c1.84473 -10.1309 -26.2285 -11.2871 -28.2217 0z" />
    <glyph glyph-name="J" unicode="J" horiz-adv-x="328" 
d="M367.204 191.394c5.32715 -10.0039 -19.8828 -11.1035 -24.8135 -3.89941c-24.7861 36.168 -59.5195 53.4072 -96.833 57.1289c-0.495117 -41.5342 -2.6377 -83.0967 -8.50586 -124.14c-7.88574 -55.1572 -22.5195 -113.98 -56.1318 -159.452
c-30.4775 -41.2334 -83.0723 -67.5322 -134.596 -54.1279c-46.2744 12.0361 -75.2812 54.7227 -79.6504 100.813c-8.92188 94.0898 58.1055 186.009 138.134 228.512c19.9434 10.5938 42.5205 18.957 66.002 24.2949c-1.31836 44.167 -3.77832 88.3555 -4.62695 132.428
c-1.77832 92.2061 -5.7373 185.447 -2.48145 277.621c-21.5195 -5.65234 -39.1826 -11.1025 -47.0225 -13.0537c-29.6221 -7.37402 -59.9473 -12.6514 -90.5732 -10.4209c-23.2588 1.69336 -52.8379 6.52539 -63.5342 30.2793
c-4.58496 10.1836 19.8262 11.3574 24.2832 3.81738c18.0771 -30.583 74.083 -19.6777 102.387 -13.7393c32.874 6.89648 64.7119 17.9746 97.3945 25.6836c31.1875 7.35547 64.9736 12.8242 96.9209 7.17188c25.1396 -4.4502 54.0684 -22.2373 47.4297 -51.792
c-2.40723 -10.7109 -28.9395 -9.30078 -26.8438 -0.000976562c8.11621 36.0166 -27.4336 41.3789 -70.0596 36.3486c3.9375 -3.42188 6.5459 -7.70215 7.03027 -12.8838c5.76855 -61.6016 3.38281 -124.606 3.18457 -186.427
c-0.198242 -61.3818 0.172852 -122.707 1.10645 -184.082c0.180664 -11.7393 0.265625 -23.5029 0.272461 -35.2734c49.8555 -4.32617 95.79 -26.4756 121.527 -74.8066zM166.08 104.271c5.27051 43.8066 6.11035 87.7959 5.31152 131.825
c-35.2949 -11.0078 -68.6709 -30.9014 -94.0195 -55.3945c-28.0732 -27.123 -49.6211 -60.5479 -61.9502 -97.6426c-13.75 -41.3711 -17.6133 -93.9863 11.1279 -130.141c12.9375 -16.2705 32.7568 -29.1475 54.2344 -23.5625
c20.4873 5.32715 36.96 22.4883 47.6143 39.9287c24.0654 39.3916 32.2588 89.9072 37.6816 134.986z" />
    <glyph glyph-name="K" unicode="K" horiz-adv-x="436" 
d="M392.011 -8.09277c-34.4189 -44.8643 -94.6455 -65.9355 -145.059 -32.6055c-52.5381 34.7402 -68.3213 101.248 -73.6699 159.753c-5.88574 64.3584 -9.8125 128.71 -22.5908 192.209c-6.4082 31.8555 -14.5908 63.2832 -26.9766 93.3926
c-10.0039 24.3164 -23.7441 69.6826 -58.1523 56.4551c-0.0673828 -0.0244141 -0.145508 -0.0351562 -0.212891 -0.0595703c-2.69727 -60.9863 -4.35547 -122.012 -3.70117 -183.203c0.646484 -60.5127 2.6123 -121.142 7.69531 -181.456
c5.08984 -60.3818 20.2715 -119.725 24.499 -179.982c0.756836 -10.7598 -15.8252 -14.5488 -23.4883 -15.167c-10.5938 -0.851562 -23.6123 1.38281 -29.7236 11.0615c-32.7959 51.9297 -42.8877 117.511 -50.0391 177.521
c-7.29199 61.1982 -8.74805 122.955 -9.37012 184.531c-1.30078 128.851 2.78516 259.253 22.6787 386.743c4.3623 27.9678 74.0225 28.2119 72.4072 0.000976562c-3.38965 -59.166 -7.06543 -118.247 -9.91113 -177.35c96.7793 3.51758 163.962 95.4473 148.734 189.65
c-1.45312 9 22.9756 9.78809 24.6338 0c15.8779 -93.7822 -45.2598 -175.394 -130.65 -198.914c8.8125 -2.6123 17.2363 -6.25293 24.7334 -10.5654c28.2109 -16.2246 45.4395 -47.8223 59.0098 -76.0898c26.9668 -56.1826 39.9355 -118.027 46.9307 -179.618
c6.77246 -59.6426 7.78027 -120.771 22.7539 -179.201c5.32324 -20.7637 15.8213 -58.9219 39.6494 -65.8926c31.5908 -9.24023 61.6123 32.3154 75.8613 54.3301c33.5381 51.8135 52.1768 111.336 70.5859 169.741c3.15332 10.0107 31.5166 7.67773 27.748 -4.3584
c-20.6396 -65.9141 -41.7354 -135.349 -84.376 -190.927z" />
    <glyph glyph-name="L" unicode="L" horiz-adv-x="294" 
d="M336.162 198.361c-20.6748 -35.96 -59.3516 -52.5127 -96.1348 -67.4863c-32.8174 -13.3613 -66.2422 -25.1777 -99.1514 -38.3057c-4.2627 -39.5762 -12.4316 -78.3916 -27.4189 -115.228c-16.0195 -39.3672 -42.7393 -78.0312 -85.8213 -89.915
c-29.4697 -8.12988 -72.46 -1.8877 -88.5967 27.1299c-20.8486 37.4863 8.74805 77.6133 35.1562 102.729c26.4404 25.1436 57.5254 44.7764 90.1055 61.0049c5.56055 91.668 -2.62207 184.488 -5.60156 276.146c-1.60449 49.3564 -3.33691 98.71 -4.76172 148.073
c-1.41699 49.208 -4.93457 98.8828 -2.29395 148.073c1.71094 31.8809 77.0059 31.2441 80.417 0c6.60645 -60.5195 5.38672 -122.495 6.7832 -183.329c1.40332 -61.1094 2.80273 -122.219 4.20605 -183.328c1.29004 -56.1787 4.03613 -114.804 -0.407227 -172.244
c17.5781 6.67773 35.249 13.1289 52.8486 19.7354c41.2549 15.4893 93.1953 30.2822 116.917 70.6777c4.66211 7.93945 28.7627 4.98438 23.7539 -3.73242zM7.90625 -93.1504c15.7227 8.8584 24.0889 25.7627 30.7666 41.7969
c13.9766 33.5449 20.6221 71.1445 23.9727 107.751c-16.9746 -9.49121 -33.291 -20.1025 -48.3701 -32.3936c-27.6348 -22.5273 -67.9814 -60.7842 -51.1133 -100.653c8.04492 -19.0176 27.0449 -26.4727 44.7441 -16.501z" />
    <glyph glyph-name="M" unicode="M" horiz-adv-x="649" 
d="M146.284 570.375c-25.4609 -55.6553 -37.624 -117.354 -48.1396 -177.297c-15.1113 -86.249 -25.3057 -173.602 -32.4385 -261.088c1.84863 -51.6084 7.41992 -104.316 -0.0351562 -155.515c-2.67188 -18.3672 -45.0332 -21.0957 -51.042 -3.9375
c-18.3281 52.3154 -21.5127 109.07 -25.9346 163.994c-4.29785 53.3584 -6.02637 106.949 -6.99121 160.463c-1.96191 108.989 -0.420898 219.431 12.0996 327.794c3.56348 30.8555 80.1172 30.5264 78.7598 0c-4.18164 -94.1318 -9.48047 -187.953 -10.5762 -282.128
c6.81836 46.9531 15.2246 93.6729 26.4551 139.777c7.66016 31.4531 16.8545 62.75 30.3359 92.2549c12.248 26.8076 28.3701 57.2178 52.6016 75.0938c21.2373 15.6699 49.9648 18.7383 73.3301 5.77246c23.9727 -13.3047 34.1992 -40.0879 41.2832 -65.001
c7.61719 -26.7871 12.166 -54.1396 14.6055 -81.7324c3.89844 12.9834 8.04492 25.8926 12.4775 38.7031c13.8428 40.0039 31.8633 89.6826 69.9336 113.033c29.6924 18.2148 61.085 9.47363 85.8359 -12.1982c34.3828 -30.1025 38.084 -76.4336 39.6006 -119.229
c3.33301 -94.1143 -12.9766 -189.516 -21.8564 -283.032c-4.43262 -46.6631 -8.1084 -93.9238 -7.40527 -140.823c0.491211 -32.584 -1.12793 -96.6484 35.3652 -113.061c21.4209 -9.62891 44.2383 13.3896 57.292 27.8291c15.1465 16.7588 28.041 35.4434 39.4688 54.8955
c21.8242 37.1475 37.9004 77.25 52.0361 117.844c3.20996 9.21484 29.4033 6.89648 25.6172 -4.02637c-16.0518 -46.3271 -34.6836 -92.1846 -61.4355 -133.485c-20.8311 -32.1602 -47.5576 -70.4277 -87.1514 -79.7207c-86.875 -20.3887 -120.494 92.0996 -127.935 155.998
c-10.7666 92.4463 2.73633 184.518 14.7295 276.157c6.17188 47.1475 11.6299 94.4326 16.8154 141.7c2.61621 23.8281 13.8467 130.226 -39.6738 101.686c-37.8438 -20.1836 -55.3975 -75.8643 -68.416 -113.605c-13.6299 -39.5156 -24.7646 -79.8164 -33.6934 -120.633
c-0.576172 -14.7471 -1.44531 -29.4658 -2.48828 -44.1035c-1.99707 -28.0166 -72.1025 -26.6914 -70.1973 0c5.08984 71.3428 13.2979 142.499 8.61816 214.114c-1.375 21.0391 -5.08301 76.8076 -40.6074 55.376c-24.2949 -14.6553 -39.8408 -46.9385 -51.2441 -71.8691z
" />
    <glyph glyph-name="N" unicode="N" horiz-adv-x="472" 
d="M484.98 186.505c3.03613 9.7207 30.5869 7.46777 26.9531 -4.24316c-17.7734 -57.2812 -42.1924 -117.984 -79.1279 -165.835c-33.7783 -43.7578 -84.9482 -49.1445 -128.37 -15.2383c-39.5332 30.8691 -49.5332 74.9375 -50.0244 122.972
c-0.632812 61.5479 4.56348 122.997 8.94629 184.34c4.46484 62.457 8.44531 124.914 10.3398 187.509c0.943359 31.1699 0.0664062 62.2236 0.119141 93.3721c0.0390625 22.5059 1.75 58.7764 -21.7676 71.3213c-28.0947 14.9873 -57.4766 -29.0742 -68.6357 -48.6572
c-14.2559 -25.0195 -25.168 -52.0605 -34.2207 -79.3525c-18.9502 -57.1328 -30.042 -116.821 -39.459 -176.167c-14.8779 -93.7852 -27.3525 -188.539 -36.5957 -283.297c2.71094 -38.4873 4.82129 -77.3203 1.10645 -115.068
c-1.95508 -19.8584 -49.8232 -22.7393 -55.1152 -4.25195c-15.8535 55.3936 -20.0459 115.252 -25.8779 172.41c-5.8252 57.1221 -9.16211 114.588 -11.3965 171.954c-2.27246 58.3594 -2.61914 116.744 -0.113281 175.104c2.44238 56.9531 5.5918 115.026 18.3135 170.735
c6.34473 27.7734 77.1543 30.0283 75.1709 0c-3.76074 -57.0059 -11.166 -113.602 -13.6191 -170.734c-2.45312 -57.165 -2.43555 -114.475 -0.890625 -171.664c0.664062 -24.6797 1.78809 -49.3311 3.08496 -73.9727c7.42676 59.749 15.0586 119.512 26.0059 178.73
c10.29 55.6631 22.7676 111.661 44.1777 164.228c17.2891 42.4492 43.5742 98.1045 93.5742 108.14c49.4521 9.92578 83.1602 -34.5 95.2559 -76.6387c16.748 -58.3457 19.8691 -122.113 20.0391 -182.484c0.172852 -61.46 -3.08301 -122.931 -6.90039 -184.26
c-3.47168 -55.7373 -10.3613 -112.647 -7.2334 -168.512c1.16309 -20.8125 0.813477 -46.5742 16.7197 -62.2227c25.8398 -25.4229 54.7578 7.88184 69.166 28.9033c31.5371 46.0059 53.8281 99.873 70.375 152.881z" />
    <glyph glyph-name="O" unicode="O" 
d="M258.279 17.9092c-40.2686 -61.043 -117.914 -116.616 -192.301 -79.4053c-81.5586 40.7988 -91.2793 157.78 -84.3154 237.486c4.55957 52.1494 17.8008 102.761 33.3896 152.765c-5.23828 9.26855 -10.0107 18.8164 -14.2314 28.6436
c-32.7461 76.207 -31.7881 166.377 3.22754 241.676c30.1484 64.832 94.1211 116.928 168.632 94.2842c75.2275 -22.8633 120.247 -97.7412 143.064 -168.261c28.0947 -86.8223 32.1211 -179.943 19.6006 -269.929c-3.33301 -23.959 -7.51855 -48.5752 -12.9053 -73.1426
c37.7168 2.52344 75.0586 11.8203 110.018 27.2002c7.37012 3.24512 27.2354 -5.58496 15.0938 -11.1484c-40.5518 -18.5752 -84.4648 -29.4551 -128.773 -31.9365c-12.7432 -52.6191 -31.5449 -104.341 -60.499 -148.232zM10.3516 526.032
c-8.75879 -53.3125 -2.71094 -108.611 17.126 -158.643c9.50879 28.8721 19.2646 57.6211 28.0381 86.4189c7.74805 25.4365 79.0986 20.0137 70.6221 -11.0967c-14.5352 -53.3398 -32.6299 -105.701 -47.8086 -158.801c33.8701 -39.0381 77.8965 -69.5049 126.613 -86.4795
c28.9326 -10.0811 58.957 -15.2383 89.0596 -15.998c10.3604 43.3545 16.6982 87.7695 19.2295 131.725c4.43262 76.96 -3.87402 156.094 -31.4062 228.473c-12.0215 31.6016 -28.0518 62.4424 -50.4375 87.9922c-23.4502 26.7588 -58.0068 53.7012 -95.2881 53.8037
c-75.1328 0.205078 -115.67 -96.0654 -125.748 -157.395zM53.5576 39.6807c6.51074 -34.3691 24.5215 -81.7617 62.6514 -91.7012c36.4932 -9.51172 74.5596 25.1504 96.4863 50.4775c22.0537 25.4756 38.0244 55.7686 50.668 86.8398
c10.5938 26.0303 19.4521 52.9766 26.6807 80.4248c-39.0703 1.0459 -77.957 8.73047 -114.631 23.6084c-38.6885 15.6943 -74.3613 38.8477 -104.457 67.7344c-7.00293 -26.6953 -13.0225 -53.6484 -17.1973 -81.0781
c-6.82617 -44.8428 -8.68164 -91.5625 -0.201172 -136.306z" />
    <glyph glyph-name="O" unicode="&#xd6;" 
d="M258.279 17.9092c-40.2686 -61.043 -117.914 -116.616 -192.301 -79.4053c-81.5586 40.7988 -91.2793 157.78 -84.3154 237.486c4.55957 52.1494 17.8008 102.761 33.3896 152.765c-5.23828 9.26855 -10.0107 18.8164 -14.2314 28.6436
c-32.7461 76.207 -31.7881 166.377 3.22754 241.676c30.1484 64.832 94.1211 116.928 168.632 94.2842c75.2275 -22.8633 120.247 -97.7412 143.064 -168.261c28.0947 -86.8223 32.1211 -179.943 19.6006 -269.929c-3.33301 -23.959 -7.51855 -48.5752 -12.9053 -73.1426
c37.7168 2.52344 75.0586 11.8203 110.018 27.2002c7.37012 3.24512 27.2354 -5.58496 15.0938 -11.1484c-40.5518 -18.5752 -84.4648 -29.4551 -128.773 -31.9365c-12.7432 -52.6191 -31.5449 -104.341 -60.499 -148.232zM10.3516 526.032
c-8.75879 -53.3125 -2.71094 -108.611 17.126 -158.643c9.50879 28.8721 19.2646 57.6211 28.0381 86.4189c7.74805 25.4365 79.0986 20.0137 70.6221 -11.0967c-14.5352 -53.3398 -32.6299 -105.701 -47.8086 -158.801c33.8701 -39.0381 77.8965 -69.5049 126.613 -86.4795
c28.9326 -10.0811 58.957 -15.2383 89.0596 -15.998c10.3604 43.3545 16.6982 87.7695 19.2295 131.725c4.43262 76.96 -3.87402 156.094 -31.4062 228.473c-12.0215 31.6016 -28.0518 62.4424 -50.4375 87.9922c-23.4502 26.7588 -58.0068 53.7012 -95.2881 53.8037
c-75.1328 0.205078 -115.67 -96.0654 -125.748 -157.395zM53.5576 39.6807c6.51074 -34.3691 24.5215 -81.7617 62.6514 -91.7012c36.4932 -9.51172 74.5596 25.1504 96.4863 50.4775c22.0537 25.4756 38.0244 55.7686 50.668 86.8398
c10.5938 26.0303 19.4521 52.9766 26.6807 80.4248c-39.0703 1.0459 -77.957 8.73047 -114.631 23.6084c-38.6885 15.6943 -74.3613 38.8477 -104.457 67.7344c-7.00293 -26.6953 -13.0225 -53.6484 -17.1973 -81.0781
c-6.82617 -44.8428 -8.68164 -91.5625 -0.201172 -136.306z" />
    <glyph glyph-name="O" unicode="&#xd5;" 
d="M258.279 17.9092c-40.2686 -61.043 -117.914 -116.616 -192.301 -79.4053c-81.5586 40.7988 -91.2793 157.78 -84.3154 237.486c4.55957 52.1494 17.8008 102.761 33.3896 152.765c-5.23828 9.26855 -10.0107 18.8164 -14.2314 28.6436
c-32.7461 76.207 -31.7881 166.377 3.22754 241.676c30.1484 64.832 94.1211 116.928 168.632 94.2842c75.2275 -22.8633 120.247 -97.7412 143.064 -168.261c28.0947 -86.8223 32.1211 -179.943 19.6006 -269.929c-3.33301 -23.959 -7.51855 -48.5752 -12.9053 -73.1426
c37.7168 2.52344 75.0586 11.8203 110.018 27.2002c7.37012 3.24512 27.2354 -5.58496 15.0938 -11.1484c-40.5518 -18.5752 -84.4648 -29.4551 -128.773 -31.9365c-12.7432 -52.6191 -31.5449 -104.341 -60.499 -148.232zM10.3516 526.032
c-8.75879 -53.3125 -2.71094 -108.611 17.126 -158.643c9.50879 28.8721 19.2646 57.6211 28.0381 86.4189c7.74805 25.4365 79.0986 20.0137 70.6221 -11.0967c-14.5352 -53.3398 -32.6299 -105.701 -47.8086 -158.801c33.8701 -39.0381 77.8965 -69.5049 126.613 -86.4795
c28.9326 -10.0811 58.957 -15.2383 89.0596 -15.998c10.3604 43.3545 16.6982 87.7695 19.2295 131.725c4.43262 76.96 -3.87402 156.094 -31.4062 228.473c-12.0215 31.6016 -28.0518 62.4424 -50.4375 87.9922c-23.4502 26.7588 -58.0068 53.7012 -95.2881 53.8037
c-75.1328 0.205078 -115.67 -96.0654 -125.748 -157.395zM53.5576 39.6807c6.51074 -34.3691 24.5215 -81.7617 62.6514 -91.7012c36.4932 -9.51172 74.5596 25.1504 96.4863 50.4775c22.0537 25.4756 38.0244 55.7686 50.668 86.8398
c10.5938 26.0303 19.4521 52.9766 26.6807 80.4248c-39.0703 1.0459 -77.957 8.73047 -114.631 23.6084c-38.6885 15.6943 -74.3613 38.8477 -104.457 67.7344c-7.00293 -26.6953 -13.0225 -53.6484 -17.1973 -81.0781
c-6.82617 -44.8428 -8.68164 -91.5625 -0.201172 -136.306z" />
    <glyph glyph-name="O" unicode="&#xd4;" 
d="M258.279 17.9092c-40.2686 -61.043 -117.914 -116.616 -192.301 -79.4053c-81.5586 40.7988 -91.2793 157.78 -84.3154 237.486c4.55957 52.1494 17.8008 102.761 33.3896 152.765c-5.23828 9.26855 -10.0107 18.8164 -14.2314 28.6436
c-32.7461 76.207 -31.7881 166.377 3.22754 241.676c30.1484 64.832 94.1211 116.928 168.632 94.2842c75.2275 -22.8633 120.247 -97.7412 143.064 -168.261c28.0947 -86.8223 32.1211 -179.943 19.6006 -269.929c-3.33301 -23.959 -7.51855 -48.5752 -12.9053 -73.1426
c37.7168 2.52344 75.0586 11.8203 110.018 27.2002c7.37012 3.24512 27.2354 -5.58496 15.0938 -11.1484c-40.5518 -18.5752 -84.4648 -29.4551 -128.773 -31.9365c-12.7432 -52.6191 -31.5449 -104.341 -60.499 -148.232zM10.3516 526.032
c-8.75879 -53.3125 -2.71094 -108.611 17.126 -158.643c9.50879 28.8721 19.2646 57.6211 28.0381 86.4189c7.74805 25.4365 79.0986 20.0137 70.6221 -11.0967c-14.5352 -53.3398 -32.6299 -105.701 -47.8086 -158.801c33.8701 -39.0381 77.8965 -69.5049 126.613 -86.4795
c28.9326 -10.0811 58.957 -15.2383 89.0596 -15.998c10.3604 43.3545 16.6982 87.7695 19.2295 131.725c4.43262 76.96 -3.87402 156.094 -31.4062 228.473c-12.0215 31.6016 -28.0518 62.4424 -50.4375 87.9922c-23.4502 26.7588 -58.0068 53.7012 -95.2881 53.8037
c-75.1328 0.205078 -115.67 -96.0654 -125.748 -157.395zM53.5576 39.6807c6.51074 -34.3691 24.5215 -81.7617 62.6514 -91.7012c36.4932 -9.51172 74.5596 25.1504 96.4863 50.4775c22.0537 25.4756 38.0244 55.7686 50.668 86.8398
c10.5938 26.0303 19.4521 52.9766 26.6807 80.4248c-39.0703 1.0459 -77.957 8.73047 -114.631 23.6084c-38.6885 15.6943 -74.3613 38.8477 -104.457 67.7344c-7.00293 -26.6953 -13.0225 -53.6484 -17.1973 -81.0781
c-6.82617 -44.8428 -8.68164 -91.5625 -0.201172 -136.306z" />
    <glyph glyph-name="O" unicode="&#xd3;" 
d="M258.279 17.9092c-40.2686 -61.043 -117.914 -116.616 -192.301 -79.4053c-81.5586 40.7988 -91.2793 157.78 -84.3154 237.486c4.55957 52.1494 17.8008 102.761 33.3896 152.765c-5.23828 9.26855 -10.0107 18.8164 -14.2314 28.6436
c-32.7461 76.207 -31.7881 166.377 3.22754 241.676c30.1484 64.832 94.1211 116.928 168.632 94.2842c75.2275 -22.8633 120.247 -97.7412 143.064 -168.261c28.0947 -86.8223 32.1211 -179.943 19.6006 -269.929c-3.33301 -23.959 -7.51855 -48.5752 -12.9053 -73.1426
c37.7168 2.52344 75.0586 11.8203 110.018 27.2002c7.37012 3.24512 27.2354 -5.58496 15.0938 -11.1484c-40.5518 -18.5752 -84.4648 -29.4551 -128.773 -31.9365c-12.7432 -52.6191 -31.5449 -104.341 -60.499 -148.232zM10.3516 526.032
c-8.75879 -53.3125 -2.71094 -108.611 17.126 -158.643c9.50879 28.8721 19.2646 57.6211 28.0381 86.4189c7.74805 25.4365 79.0986 20.0137 70.6221 -11.0967c-14.5352 -53.3398 -32.6299 -105.701 -47.8086 -158.801c33.8701 -39.0381 77.8965 -69.5049 126.613 -86.4795
c28.9326 -10.0811 58.957 -15.2383 89.0596 -15.998c10.3604 43.3545 16.6982 87.7695 19.2295 131.725c4.43262 76.96 -3.87402 156.094 -31.4062 228.473c-12.0215 31.6016 -28.0518 62.4424 -50.4375 87.9922c-23.4502 26.7588 -58.0068 53.7012 -95.2881 53.8037
c-75.1328 0.205078 -115.67 -96.0654 -125.748 -157.395zM53.5576 39.6807c6.51074 -34.3691 24.5215 -81.7617 62.6514 -91.7012c36.4932 -9.51172 74.5596 25.1504 96.4863 50.4775c22.0537 25.4756 38.0244 55.7686 50.668 86.8398
c10.5938 26.0303 19.4521 52.9766 26.6807 80.4248c-39.0703 1.0459 -77.957 8.73047 -114.631 23.6084c-38.6885 15.6943 -74.3613 38.8477 -104.457 67.7344c-7.00293 -26.6953 -13.0225 -53.6484 -17.1973 -81.0781
c-6.82617 -44.8428 -8.68164 -91.5625 -0.201172 -136.306z" />
    <glyph glyph-name="P" unicode="P" horiz-adv-x="376" 
d="M-1.97852 636.505c5.04395 30.1729 80.3828 30.6221 78.4922 -0.00390625c-7.36328 -118.738 -17.0137 -236.104 -13.2949 -355.263c0.0986328 -3.19238 0.264648 -6.38477 0.374023 -9.58008c1.93359 29.7168 4.22754 59.4053 7.04102 89.0625
c9.17676 96.6846 23.9492 204.801 83.4297 285.055c23.2383 31.3535 59.4385 54.418 98.5869 35.1211c41.5449 -20.4805 59.873 -67.7979 69.5156 -110c20.29 -88.8232 8.49805 -183.337 -30.7383 -265.472c-21.8447 -45.7295 -53.0391 -91.7275 -92.9756 -123.445
c10.2227 -0.229492 20.4521 -0.94043 30.6709 -1.92969c55.3096 -5.35547 115.868 -19.9541 165.041 14.4365c8.00586 5.60254 31.5439 -1.81348 18.7832 -10.707c-42.2129 -29.4199 -95.2354 -29.0312 -144.355 -23.542c-30.3643 3.39355 -61.0186 8.83008 -91.665 6.63867
c-27.2148 -16.6807 -57.9004 -26.6064 -91.9297 -26.0371c-1.52734 -33.333 -2.91699 -66.6738 -4.2959 -100.011c0.887695 -8.44434 1.75391 -16.8926 2.67969 -25.3301c3.11426 -28.3701 7.88965 -57.0371 0.823242 -84.9795
c-4.54199 -17.96 -42.3857 -11.7529 -49.8516 0c-15.748 24.7969 -20.3643 56.3906 -25.5107 84.9805c-5.27734 29.3252 -9.68164 58.6855 -13.2197 88.2715c-7.05176 58.9814 -11.5908 118.104 -13.6309 177.472c-4.03711 117.547 -3.4043 239.003 16.0303 355.263z
M133.943 544.791c-30.0596 -90.1309 -36.2832 -187.042 -42.3418 -281.23c-1.80273 -27.9639 -3.34082 -55.9453 -4.74023 -83.9375c39.8652 4.5 70.6777 35.6875 95.167 66.1826c27.4727 34.21 47.9707 73.4639 63.6719 114.295
c27.7803 72.2266 37.6562 154.132 26.168 230.827c-3.13867 20.9609 -7.44434 42.4453 -19.335 60.4336c-6.63867 10.042 -19.5088 21.2578 -32.6826 19.7764c-10.2158 -1.14844 -19.7461 -9.83301 -26.5928 -16.8145
c-28.8516 -29.4131 -46.4727 -71.0244 -59.3145 -109.532z" />
    <glyph glyph-name="Q" unicode="Q" 
d="M4.04883 599.074c30.1445 64.832 94.1221 116.921 168.625 94.2803c75.2275 -22.8633 120.247 -97.7412 143.064 -168.261c28.0947 -86.8223 32.1211 -179.943 19.6006 -269.929c-3.33301 -23.959 -7.51855 -48.5752 -12.9053 -73.1426
c37.7168 2.52344 75.0586 11.8203 110.018 27.2002c7.37012 3.24512 27.2354 -5.58496 15.0938 -11.1484c-40.5518 -18.5752 -84.4648 -29.4551 -128.773 -31.9365c-12.7432 -52.6191 -31.541 -104.341 -60.498 -148.232
c-32.9199 -49.9014 -90.8203 -96.1152 -151.495 -91.0039c36.2705 -14.4746 81.6045 -33.5771 115.984 -4.81055c7.51465 6.28809 33.9336 0.441406 23.8916 -7.96094c-29.2861 -24.5107 -68.4912 -26.752 -104.391 -17.957
c-45.1289 11.0537 -88.582 42.8037 -136.688 34.8398c-13.7363 -2.27246 -25.5713 12.1953 -7.35645 15.2109c20.3359 3.36914 39.9189 1.59863 59.0957 -2.89453c-73.5557 44.5391 -82.3613 155.882 -75.6523 232.661c4.55957 52.1494 17.8047 102.761 33.3896 152.765
c-5.23828 9.26855 -10.0107 18.8164 -14.2314 28.6436c-32.7461 76.207 -31.7881 166.377 3.22754 241.676zM212.692 -1.54688c22.0537 25.4756 38.0244 55.7705 50.665 86.8418c10.5938 26.0303 19.4521 52.9766 26.6807 80.4248
c-39.0703 1.0459 -77.957 8.73047 -114.631 23.6084c-38.6885 15.6943 -74.3613 38.8477 -104.457 67.7344c-7.00293 -26.6953 -13.0225 -53.6484 -17.1973 -81.0781c-6.82617 -44.8428 -8.68164 -91.5625 -0.201172 -136.306
c6.51465 -34.3721 24.5205 -81.7598 62.6543 -91.7031c36.4932 -9.51172 74.5596 25.1504 96.4863 50.4775zM136.093 683.42c-75.1289 0.208984 -115.666 -96.0615 -125.747 -157.397c-8.75977 -53.3125 -2.71191 -108.611 17.125 -158.64
c9.50879 28.8721 19.2646 57.6211 28.0381 86.4189c7.74805 25.4365 79.0986 20.0137 70.6221 -11.0967c-14.5352 -53.3398 -32.6299 -105.701 -47.8086 -158.801c33.8701 -39.0381 77.8965 -69.5049 126.613 -86.4795c28.9326 -10.0811 58.957 -15.2383 89.0596 -15.998
c10.3604 43.3545 16.6982 87.7695 19.2295 131.725c4.43262 76.96 -3.87402 156.094 -31.4062 228.473c-12.0215 31.6016 -28.0518 62.4424 -50.4375 87.9922c-23.4502 26.7588 -58.0068 53.7012 -95.2881 53.8037z" />
    <glyph glyph-name="R" unicode="R" horiz-adv-x="408" 
d="M-1.97852 636.505c5.04395 30.1729 80.3799 30.6211 78.4961 -0.0078125c-7.36328 -118.738 -17.0098 -236.104 -13.291 -355.263c0.0986328 -3.19238 0.264648 -6.38477 0.374023 -9.58008c1.93359 29.7168 4.22754 59.4053 7.04102 89.0625
c9.17676 96.6846 23.9492 204.801 83.4297 285.055c23.2383 31.3535 59.4385 54.418 98.5869 35.1211c41.5449 -20.4805 59.876 -67.7979 69.5156 -110c20.29 -88.8232 8.49805 -183.337 -30.7383 -265.472c-26.9248 -56.3594 -68.0381 -113.139 -122.241 -143.054
c17.1123 -6.81836 30.7812 -21.5088 41.1562 -42.0703c18.3779 -36.4229 17.625 -83.0576 45.2461 -114.603c13.8955 -15.8711 40.4209 -34.167 61.124 -21.625c18.5049 11.2129 29.8164 33.0049 40.0391 51.2305c24.9805 44.5459 45.7471 91.2617 66.4717 137.89
c3.94141 8.86914 29.5615 6.13672 25.083 -3.94141c-22.0674 -49.6465 -44.1387 -99.4941 -71.4199 -146.561c-20.8027 -35.8926 -46.7344 -63.5635 -91.1602 -61.5947c-46.9033 2.07812 -90.4873 22.5234 -106.397 68.7627
c-6.90332 20.0596 -10.5791 41.873 -14.0781 62.7461c-1.99707 11.8984 -3.95508 23.708 -5.10059 35.709c-0.414062 4.33398 0.325195 11.4463 -1.53418 15.2285c-2.93066 5.96289 -8.12012 7.74805 -13.5918 7.6875c-18.6777 -6.9668 -38.6953 -10.7451 -60.0312 -10.3877
c-1.52734 -33.333 -2.91699 -66.6738 -4.2959 -100.011c0.887695 -8.44434 1.75391 -16.8926 2.67969 -25.3301c3.11035 -28.3701 7.88574 -57.0371 0.819336 -84.9795c-4.54199 -17.96 -42.3857 -11.7529 -49.8516 0c-15.748 24.7969 -20.3643 56.3906 -25.5107 84.9805
c-5.27734 29.3252 -9.68164 58.6855 -13.2197 88.2715c-7.05176 58.9814 -11.5908 118.104 -13.6309 177.472c-4.03711 117.547 -3.4043 239.003 16.0303 355.263zM133.94 544.79c-30.0596 -90.1309 -36.2822 -187.041 -42.3408 -281.229
c-1.80273 -27.9639 -3.33691 -55.9453 -4.74023 -83.9375c39.8652 4.5 70.6777 35.6875 95.167 66.1826c27.4727 34.21 47.9707 73.4639 63.6719 114.295c27.7803 72.2266 37.6562 154.132 26.168 230.827c-3.13867 20.9609 -7.44434 42.4453 -19.3359 60.4336
c-6.63867 10.042 -19.5088 21.2578 -32.6826 19.7764c-10.2158 -1.14844 -19.7461 -9.83301 -26.5928 -16.8145c-28.8516 -29.4131 -46.4727 -71.0254 -59.3145 -109.533z" />
    <glyph glyph-name="S" unicode="S" horiz-adv-x="384" 
d="M420.51 207.247c16.9385 -5.3584 -3.2168 -16.5781 -13.6865 -13.3477c-17.9072 5.52539 -48.4766 -9.64258 -65.5566 -15.8105c-17.501 -6.31641 -34.7725 -13.333 -51.5703 -21.3467c-15.5283 -7.40527 -30.707 -15.585 -45.4189 -24.5244
c0.901367 -1.33984 1.82422 -2.66895 2.71484 -4.01953c36.2568 -54.9844 61.6045 -124.709 26.5713 -186.861c-25.9521 -46.0479 -89.833 -75.9775 -140.236 -51.3682c-52.1348 25.4541 -55.7861 92.3818 -31.2441 138.345
c17.1152 32.0537 43.7432 59.4551 73.5732 82.5938c-18.3457 26.7656 -39.123 52.0039 -58.9531 75.9131c-44.874 54.1074 -92.1172 107.992 -123.008 171.75c-28.8799 59.6045 -36.2783 126.699 -16.9502 190.287c18.5684 61.085 61.3711 117.091 119.544 145.097
c50.8379 24.4746 111.057 27.709 158.034 -7.10156c42.2832 -31.3291 65.1602 -84.7012 50.7314 -136.306c-14.3975 -51.4844 -59.8018 -89.208 -111.608 -98.667c-13.2021 -2.41113 -24.4785 11.4736 -7.0625 14.6016c69.2471 12.4395 115.107 90.8203 88.4053 156.652
c-12.6514 31.1914 -38.4414 57.2998 -70.8799 67.4941c-35.7969 11.251 -72.2227 -3.67969 -98.9492 -27.8789c-48.876 -44.2559 -70.5723 -112.835 -66.9561 -177.486c3.80371 -68.0801 38.7881 -132.506 77.6992 -186.903
c36.8613 -51.5342 80.2158 -98.0625 117.095 -149.575c3.57324 2.04297 7.13281 4.04395 10.6787 5.98145c28.4902 15.5811 58.5078 28.54 89.2109 39.0771c27.458 9.42383 58.833 22.5732 87.8223 13.4043zM212.122 -80.3027
c19.4482 25.2637 19.8838 61.2617 12.2451 90.8838c-7.37402 28.5859 -20.3818 55.5811 -36.2109 81.1943c-47.1719 -40.8867 -107.115 -118.165 -52.7783 -176.74c22.3857 -24.1357 56.96 -21.0391 76.7441 4.66211z" />
    <glyph glyph-name="T" unicode="T" horiz-adv-x="403" 
d="M-53.5947 695.355c-3.83887 10.1162 20.7432 12.2959 24.0098 3.78027c24.3125 -63.2979 114.808 -47.8086 166.2 -35.6592c59.9473 14.1709 116.543 39.4023 174.642 59.3457c53.959 18.5225 113.276 36.2422 170.858 27.4512
c24.0791 -3.67578 51.1631 -12.2939 68.4238 -30.3604c19.2363 -20.1348 14.8252 -44.8994 7.28906 -69.3252c-2.94141 -9.5332 -29.9756 -7.32422 -26.416 4.15332c5.14355 16.582 10.7109 35.7051 0.283203 51.5273c-8.21875 12.4639 -23.0967 19.7354 -36.7656 24.3027
c-29.5332 9.86914 -61.6436 6.95605 -91.6826 1.12402c-36.2314 -7.03418 -71.2686 -18.8086 -105.963 -31.5059c9.50879 -3.74023 16.2959 -10.1387 16.4512 -19.2334c2.24805 -131.308 -1.13086 -262.594 2.44629 -393.94
c1.78906 -65.624 4.29883 -131.244 7.16211 -196.829c1.42773 -32.7783 3.01172 -65.5322 4.125 -98.3242c0.554688 -16.3945 1.13086 -32.7285 0.650391 -49.1338c-0.371094 -12.6904 -2.99414 -26.0518 -0.936523 -38.6357
c2.90527 -17.7764 -36.1504 -16.2314 -44.5947 -10.5303c-27.1787 18.3457 -27.6387 54.1777 -30.6182 84.2588c-3.24512 32.7393 -5.83984 65.4785 -7.91504 98.3135c-4.21387 66.7373 -7.21484 133.492 -9.16211 200.332
c-3.88086 133.075 -7.98828 267.624 -0.130859 400.61c-0.580078 -0.211914 -1.16309 -0.423828 -1.74609 -0.632812c-52.8809 -18.918 -107.313 -35.1924 -163.804 -37.3838c-46.1367 -1.78906 -104.186 7.18945 -122.807 56.2949z" />
    <glyph glyph-name="U" unicode="U" horiz-adv-x="499" 
d="M518.993 75.8301c-10.0283 -30.8203 -23.498 -63.4277 -46.6016 -86.9238c-18.6143 -18.9326 -45.207 -31.1523 -72.1143 -28.4092c-27.833 2.83887 -48.7451 21.5449 -63.9941 43.7891c-39.4062 57.4795 -50.3604 128.385 -54.4746 196.479
c-4.55664 75.4014 -3.29102 151.17 -1.05664 226.631c0.254883 8.5293 0.519531 17.0693 0.794922 25.6094c-8.75879 -39.9326 -17.6279 -79.8408 -26.8682 -119.664c-10.4912 -45.2207 -21.4775 -90.3281 -33.4707 -135.174
c-11.9229 -44.5771 -23.2275 -90.4834 -43.9482 -131.961c-16.624 -33.2764 -43.3682 -62.8623 -83.6045 -61.3428c-38.8232 1.4668 -70.665 31.5342 -86.54 65.0234c-18.3281 38.6533 -22.8809 84.6416 -26.2744 126.755
c-3.82812 47.4941 -3.33691 95.1006 -1.13867 142.665c4.52441 97.9707 14.542 195.688 20.9502 293.549c1.8418 28.1475 71.3994 27.9531 71.5801 0c0.628906 -98.0947 -12.8213 -195.652 -17.3604 -293.549c-3.83887 -82.8027 -2.76758 -167.165 11.626 -248.996
c2.97266 -16.9072 8.42676 -33.9414 17.4092 -48.6709c3.32227 -5.44727 8.07617 -12.3438 14.0498 -15.1436c11.6475 -5.46484 23.7148 5.24609 30.9893 13.2988c26.5039 29.335 38.54 73.5303 49.4834 110.571c44.751 151.48 74.3125 306.817 110.923 460.355
c1.14844 15.6133 2.39941 31.2129 3.86621 46.7764c2.78516 29.5723 75.7578 29.459 75.4463 0c-0.788086 -74.3799 -6.08301 -148.795 -8.79102 -223.129c-2.41406 -66.2773 -2.96875 -132.509 -2.2334 -198.822c0.639648 -57.8115 3.32227 -116.91 15.7363 -173.559
c5.18945 -23.6689 10.8447 -54.001 25.8359 -73.8105c22.333 -29.5225 56.7441 11.4141 69.0205 31.6016c31.0039 50.9863 44.0439 113.524 44.8252 172.577c0.126953 9.70703 24.7148 9.59082 24.6338 0.000976562c-0.342773 -39.6074 -6.43652 -78.833 -18.6992 -116.528z
" />
    <glyph glyph-name="U" unicode="&#xdc;" horiz-adv-x="499" 
d="M518.993 75.8301c-10.0283 -30.8203 -23.498 -63.4277 -46.6016 -86.9238c-18.6143 -18.9326 -45.207 -31.1523 -72.1143 -28.4092c-27.833 2.83887 -48.7451 21.5449 -63.9941 43.7891c-39.4062 57.4795 -50.3604 128.385 -54.4746 196.479
c-4.55664 75.4014 -3.29102 151.17 -1.05664 226.631c0.254883 8.5293 0.519531 17.0693 0.794922 25.6094c-8.75879 -39.9326 -17.6279 -79.8408 -26.8682 -119.664c-10.4912 -45.2207 -21.4775 -90.3281 -33.4707 -135.174
c-11.9229 -44.5771 -23.2275 -90.4834 -43.9482 -131.961c-16.624 -33.2764 -43.3682 -62.8623 -83.6045 -61.3428c-38.8232 1.4668 -70.665 31.5342 -86.54 65.0234c-18.3281 38.6533 -22.8809 84.6416 -26.2744 126.755
c-3.82812 47.4941 -3.33691 95.1006 -1.13867 142.665c4.52441 97.9707 14.542 195.688 20.9502 293.549c1.8418 28.1475 71.3994 27.9531 71.5801 0c0.628906 -98.0947 -12.8213 -195.652 -17.3604 -293.549c-3.83887 -82.8027 -2.76758 -167.165 11.626 -248.996
c2.97266 -16.9072 8.42676 -33.9414 17.4092 -48.6709c3.32227 -5.44727 8.07617 -12.3438 14.0498 -15.1436c11.6475 -5.46484 23.7148 5.24609 30.9893 13.2988c26.5039 29.335 38.54 73.5303 49.4834 110.571c44.751 151.48 74.3125 306.817 110.923 460.355
c1.14844 15.6133 2.39941 31.2129 3.86621 46.7764c2.78516 29.5723 75.7578 29.459 75.4463 0c-0.788086 -74.3799 -6.08301 -148.795 -8.79102 -223.129c-2.41406 -66.2773 -2.96875 -132.509 -2.2334 -198.822c0.639648 -57.8115 3.32227 -116.91 15.7363 -173.559
c5.18945 -23.6689 10.8447 -54.001 25.8359 -73.8105c22.333 -29.5225 56.7441 11.4141 69.0205 31.6016c31.0039 50.9863 44.0439 113.524 44.8252 172.577c0.126953 9.70703 24.7148 9.59082 24.6338 0.000976562c-0.342773 -39.6074 -6.43652 -78.833 -18.6992 -116.528z
" />
    <glyph glyph-name="U" unicode="&#xdb;" horiz-adv-x="499" 
d="M518.993 75.8301c-10.0283 -30.8203 -23.498 -63.4277 -46.6016 -86.9238c-18.6143 -18.9326 -45.207 -31.1523 -72.1143 -28.4092c-27.833 2.83887 -48.7451 21.5449 -63.9941 43.7891c-39.4062 57.4795 -50.3604 128.385 -54.4746 196.479
c-4.55664 75.4014 -3.29102 151.17 -1.05664 226.631c0.254883 8.5293 0.519531 17.0693 0.794922 25.6094c-8.75879 -39.9326 -17.6279 -79.8408 -26.8682 -119.664c-10.4912 -45.2207 -21.4775 -90.3281 -33.4707 -135.174
c-11.9229 -44.5771 -23.2275 -90.4834 -43.9482 -131.961c-16.624 -33.2764 -43.3682 -62.8623 -83.6045 -61.3428c-38.8232 1.4668 -70.665 31.5342 -86.54 65.0234c-18.3281 38.6533 -22.8809 84.6416 -26.2744 126.755
c-3.82812 47.4941 -3.33691 95.1006 -1.13867 142.665c4.52441 97.9707 14.542 195.688 20.9502 293.549c1.8418 28.1475 71.3994 27.9531 71.5801 0c0.628906 -98.0947 -12.8213 -195.652 -17.3604 -293.549c-3.83887 -82.8027 -2.76758 -167.165 11.626 -248.996
c2.97266 -16.9072 8.42676 -33.9414 17.4092 -48.6709c3.32227 -5.44727 8.07617 -12.3438 14.0498 -15.1436c11.6475 -5.46484 23.7148 5.24609 30.9893 13.2988c26.5039 29.335 38.54 73.5303 49.4834 110.571c44.751 151.48 74.3125 306.817 110.923 460.355
c1.14844 15.6133 2.39941 31.2129 3.86621 46.7764c2.78516 29.5723 75.7578 29.459 75.4463 0c-0.788086 -74.3799 -6.08301 -148.795 -8.79102 -223.129c-2.41406 -66.2773 -2.96875 -132.509 -2.2334 -198.822c0.639648 -57.8115 3.32227 -116.91 15.7363 -173.559
c5.18945 -23.6689 10.8447 -54.001 25.8359 -73.8105c22.333 -29.5225 56.7441 11.4141 69.0205 31.6016c31.0039 50.9863 44.0439 113.524 44.8252 172.577c0.126953 9.70703 24.7148 9.59082 24.6338 0.000976562c-0.342773 -39.6074 -6.43652 -78.833 -18.6992 -116.528z
" />
    <glyph glyph-name="U" unicode="&#xda;" horiz-adv-x="499" 
d="M518.993 75.8301c-10.0283 -30.8203 -23.498 -63.4277 -46.6016 -86.9238c-18.6143 -18.9326 -45.207 -31.1523 -72.1143 -28.4092c-27.833 2.83887 -48.7451 21.5449 -63.9941 43.7891c-39.4062 57.4795 -50.3604 128.385 -54.4746 196.479
c-4.55664 75.4014 -3.29102 151.17 -1.05664 226.631c0.254883 8.5293 0.519531 17.0693 0.794922 25.6094c-8.75879 -39.9326 -17.6279 -79.8408 -26.8682 -119.664c-10.4912 -45.2207 -21.4775 -90.3281 -33.4707 -135.174
c-11.9229 -44.5771 -23.2275 -90.4834 -43.9482 -131.961c-16.624 -33.2764 -43.3682 -62.8623 -83.6045 -61.3428c-38.8232 1.4668 -70.665 31.5342 -86.54 65.0234c-18.3281 38.6533 -22.8809 84.6416 -26.2744 126.755
c-3.82812 47.4941 -3.33691 95.1006 -1.13867 142.665c4.52441 97.9707 14.542 195.688 20.9502 293.549c1.8418 28.1475 71.3994 27.9531 71.5801 0c0.628906 -98.0947 -12.8213 -195.652 -17.3604 -293.549c-3.83887 -82.8027 -2.76758 -167.165 11.626 -248.996
c2.97266 -16.9072 8.42676 -33.9414 17.4092 -48.6709c3.32227 -5.44727 8.07617 -12.3438 14.0498 -15.1436c11.6475 -5.46484 23.7148 5.24609 30.9893 13.2988c26.5039 29.335 38.54 73.5303 49.4834 110.571c44.751 151.48 74.3125 306.817 110.923 460.355
c1.14844 15.6133 2.39941 31.2129 3.86621 46.7764c2.78516 29.5723 75.7578 29.459 75.4463 0c-0.788086 -74.3799 -6.08301 -148.795 -8.79102 -223.129c-2.41406 -66.2773 -2.96875 -132.509 -2.2334 -198.822c0.639648 -57.8115 3.32227 -116.91 15.7363 -173.559
c5.18945 -23.6689 10.8447 -54.001 25.8359 -73.8105c22.333 -29.5225 56.7441 11.4141 69.0205 31.6016c31.0039 50.9863 44.0439 113.524 44.8252 172.577c0.126953 9.70703 24.7148 9.59082 24.6338 0.000976562c-0.342773 -39.6074 -6.43652 -78.833 -18.6992 -116.528z
" />
    <glyph glyph-name="V" unicode="V" horiz-adv-x="494" 
d="M530.25 186.12c-56.2529 -17.1973 -116.822 -10.2607 -169.177 14.7129c-4.01172 -13.5488 -8.19727 -27.041 -12.6162 -40.4414c-13.7539 -41.7002 -30.2363 -82.6367 -51.4023 -121.166c-17.2607 -31.417 -38.2227 -65.0967 -71.3545 -81.7529
c-31.4492 -15.8115 -69.7031 -15.2217 -99.5508 3.86621c-33.1279 21.1875 -55.1113 59.9678 -72.7363 93.9619c-40.0879 77.3203 -54.9697 167.253 -63.1387 253.078c-9.20117 96.7051 -10.5479 194.132 -17.2324 291.042c-1.99023 28.9219 71.1914 29.2686 74.8955 0
c11.7705 -92.9688 9.69531 -187.312 17.0938 -280.667c6.65234 -83.9658 21.9189 -165.4 51.1484 -244.506c11.3223 -30.6436 24.1533 -64.9873 46.7412 -89.2471c11.6826 -12.5488 24.5811 -23.6377 42.2373 -15.8223c14.1992 6.28516 26.0625 18.6924 35.7158 30.5273
c45.7227 56.0586 70.7031 132.746 90.7734 201.151c1.36133 4.6416 2.6377 9.31152 3.95996 13.9629c-12.252 7.6709 -23.874 16.3701 -34.6514 26.0557c-66.2354 59.5225 -99.0557 147.034 -99.9287 234.952c-0.816406 82.6514 24.8184 167.763 74.1748 234.404
c19.7598 26.6768 49.4199 54.1172 85.0898 51.9648c33.4531 -2.02148 50.1582 -31.0703 57.2881 -60.6387c21.3643 -88.5928 6.76562 -185.489 -6.85059 -274.167c-10.6611 -69.4346 -24.8926 -138.837 -43.9209 -206.677c45.249 -26.0088 99.4092 -35.959 150.59 -22.0635
c9.6709 2.62598 28.96 -7.60742 12.8516 -12.5312zM325.241 251.53c5.30176 -4.98438 10.8652 -9.69238 16.627 -14.1357c18.0098 66.9072 32.0645 134.998 42.7012 203.403c12.2939 79.0596 23.3828 161.304 10.9297 241.035
c-2.53125 16.1963 -5.91797 32.8418 -14.4258 47.1123c-3.6582 6.13281 -8.50781 12.5625 -14.8916 16.0938c-12.4668 6.89648 -26.4365 -1.56543 -36.4785 -9.02051c-28.8516 -21.4248 -47.5439 -57.0137 -62.0439 -89.1201
c-29.9189 -66.2598 -40.5908 -140.858 -30.0713 -212.834c9.80176 -67.0732 37.6035 -135.45 87.6533 -182.534z" />
    <glyph glyph-name="W" unicode="W" horiz-adv-x="642" 
d="M269.748 15.417c-18.2891 32.874 -31.6465 68.5957 -38.4297 105.619c-2.78223 15.1924 -4.76855 30.4736 -6.13672 45.8008c-4.8252 -22.0674 -10.4629 -43.9443 -17.5537 -65.4824c-18.0098 -54.6943 -55.4893 -143.647 -127.999 -129.201
c-35.1895 7.0127 -55.4971 34.9902 -67.9463 66.4785c-14.1602 35.8252 -23.3154 74.2451 -28.1338 112.432c-10.0176 79.3887 -6.98828 160.233 -1.21191 239.845c5.97363 82.3154 15.8008 165.253 34.5596 245.705c3.74707 16.0762 21.502 20.7949 36.4785 20.7949
c10.042 0 39.1445 -5.05078 36.4795 -20.7949c-13.8242 -81.6611 -27.0195 -163.043 -33.3613 -245.704c-5.36621 -69.9043 -8.03125 -140.653 -4.0791 -210.706c1.87012 -33.1953 5.24219 -66.7266 11.4248 -99.4131c4.81836 -25.4863 9.07422 -68.3604 31.8281 -85.3701
c27.2461 -20.3643 60.1621 48.5332 68.5781 66.957c13.9912 30.6328 23.9209 62.9551 31.5986 95.6982c14.6162 62.3262 22.0537 126.038 36.5674 188.402c0.222656 1.6582 0.43457 3.31934 0.661133 4.97754c4.16016 30.2188 79.3311 28.374 75.998 0
c-8.38086 -71.3574 -15.8926 -143.524 -8.86914 -215.352c3.42188 -34.9668 8.61426 -70.4385 19.7314 -103.85c4.45703 -13.3965 9.16895 -30.6318 18.999 -41.3213c15.7861 -17.1719 37.8467 -1.61914 51.4346 10.5303c46.2744 41.3711 73.0049 103.456 92.9131 160.95
c4.08984 11.8027 7.84766 23.708 11.3115 35.6914c-12.5029 4.71191 -24.6348 10.3994 -36.1934 17.3135c-66.3232 39.6602 -108.744 108.713 -125.651 182.969c-16.0762 70.6113 -13.5029 148.632 12.626 216.596c20.7529 53.9727 70.7002 129.296 139.109 111.12
c63.1172 -16.7695 72.1836 -105.482 76.7295 -158.805c6.88574 -80.7949 -0.580078 -164.128 -11.9873 -244.206c-5.62012 -39.4766 -13.2451 -78.8682 -23.7188 -117.44c12.4463 -3.86035 25.2285 -6.79785 38.293 -8.88379
c29.8408 -4.76855 71.4736 -13.5811 99.4658 1.34668c7.74512 4.13184 29.9541 -3.0791 17.416 -9.92969c-33.2588 -18.1729 -75.3477 -11.9053 -111.424 -7.55371c-16.2461 1.95801 -32.4492 4.87109 -48.2783 9.05957
c-9.48438 -32.2021 -21.0537 -63.7578 -35.2705 -94.21c-24.9062 -53.3506 -70.6182 -132.484 -138.381 -133.739c-38.25 -0.707031 -60.2188 22.4775 -77.5781 53.6758zM473.383 229.396c8.39844 -5.32324 17.1016 -9.87402 26.0127 -13.8789
c12.6406 47.8613 20.8555 96.8711 26.4443 146.055c7.59277 66.8643 12.8135 135.221 7.51172 202.449c-2.55957 32.4746 -6.98145 66.2812 -18.2471 97.0098c-8.37012 22.8389 -26.1641 55.6455 -55.3477 51.124c-32.5137 -5.03711 -57.0029 -41.1484 -71.6758 -67.5107
c-14.6416 -26.3057 -24.5566 -55.1816 -30.3291 -84.6836c-12.1104 -61.8906 -9.21191 -129.215 10.5693 -189.208c18.6992 -56.7158 54.0615 -109.045 105.062 -141.356z" />
    <glyph glyph-name="X" unicode="X" horiz-adv-x="441" 
d="M-44.417 -7.88086c25.9805 59.3994 57.6514 116.978 88.4639 173.983c14.8818 27.5293 30.0811 54.8848 45.585 82.0674c-11.5625 55.4932 -19.7031 111.816 -25.8115 168.006c-8.70996 80.0781 -13.8604 160.803 -10.2725 241.326
c1.35742 30.4316 76.5928 30.2617 77.3809 0c2.0957 -80.5615 4.18848 -161.085 12.1953 -241.325c2.16309 -21.6865 4.60254 -43.3828 7.30664 -65.0615c62.3506 102.305 128.975 201.934 199.861 298.525c5.6416 7.68848 30.3115 4.0332 24.5537 -3.86035
c-75.3516 -103.263 -146.107 -209.891 -211.455 -319.764c-2.64355 -4.44727 -5.22754 -8.92969 -7.85352 -13.3838c4.63086 -32.6475 9.98242 -65.1924 16.25 -97.4824c12.4111 -63.9482 27.8057 -129.78 56.5684 -188.642
c12.1318 -24.8252 30.417 -54.125 60.1943 -58.7949c34.5596 -5.41895 64.2939 28.0879 82.332 53.2383c37.5508 52.3613 66.1895 111.824 86.9209 172.69c2.90918 8.5332 27.1123 6.49023 23.7539 -3.73242c-13.3506 -40.6572 -30.1406 -80.0352 -51.1729 -117.331
c-18.208 -32.2764 -38.5371 -66.1895 -65.9775 -91.5762c-48.71 -45.0547 -119.215 -43.4072 -166.277 3.37207c-26.4404 26.2812 -44.252 62.0039 -58.833 95.9023c-14.4258 33.5488 -25.377 68.8613 -34.7051 104.132c-2.375 8.99219 -4.62695 18.0205 -6.79395 27.0732
c-9.09473 -16.4756 -18.1123 -32.9941 -26.9814 -49.5898c-30.6543 -57.3838 -58.0176 -116.369 -88.0176 -174.05c-4.70801 -9.05664 -32.1104 -6.92188 -27.2148 4.27637z" />
    <glyph glyph-name="Y" unicode="Y" horiz-adv-x="424" 
d="M440.484 207.958c6.44434 6.70898 31.5693 1.99902 22.708 -7.57324c-33.1357 -35.7656 -74.3975 -60.0283 -116.702 -82.7539c-5.71582 -40.1309 -14.7188 -79.4482 -29.1514 -116.423c-14.5957 -37.3809 -36.876 -75.8994 -75.1758 -92.8135
c-27.7129 -12.2373 -67.3701 -14.0264 -90.3389 8.91504c-28.957 28.9219 -10.9512 71.1846 10.5332 98.1309c22.5381 28.2676 52.0254 50.2471 82.7002 68.9678c8.74121 5.33398 17.6562 10.4209 26.6631 15.3877c0.0878906 0.933594 0.186523 1.86328 0.271484 2.79297
c8.55469 90.7637 8.34961 181.938 5.1543 272.948c-1.38574 39.4521 -4.05469 78.8057 -6.36328 118.201c-7.05566 -39.1729 -15.0615 -78.1689 -24.4678 -116.875c-16.6523 -68.5186 -33.3828 -147.189 -76.458 -204.701
c-19.6045 -26.1748 -48.1123 -44.3018 -81.5371 -37.2002c-31.626 6.71973 -51.2266 33.0508 -66.9639 59.2441c-37.0801 61.7217 -44.3584 135.864 -46.9844 206.303c-3.00488 80.5977 -2.09668 165.292 13.3682 244.635
c5.56738 28.5547 76.8008 30.4248 75.998 0.000976562c-2.12109 -80.5234 -10.3398 -160.428 -10.1699 -241.135c0.126953 -61.2158 3.36133 -124.892 22.2725 -183.559c5.38672 -16.7197 16.9277 -63.835 40.6924 -62.7988
c16.6777 0.728516 29.7881 23.2344 37.4268 35.7119c7.77637 12.708 14.4219 26.1016 20.3252 39.7705c27.1328 62.8564 43.5625 131.573 58.2002 198.247c12.5801 57.2891 22.4912 115.108 30.9609 173.136c-0.589844 13.9551 -0.847656 27.8896 -0.387695 41.75
c0.929688 28.0596 63.2451 25.4512 68.5439 0.000976562c11.9512 -57.3838 15.1533 -118.501 19.0312 -176.925c3.76465 -56.6807 6.34473 -113.383 5.95215 -170.201c-0.357422 -51.2334 -1.2373 -104.931 -7.09473 -157.737
c32.9619 18.4443 64.4854 38.9531 90.9932 66.5527zM185.688 -80.5479c37.4658 -17.8301 58.4502 34.124 66.3223 61.2607c8.98242 30.9541 13.7266 62.6758 17.2227 94.5918c-26.3271 -15.8359 -51.4453 -33.8281 -72.2334 -56.6348
c-20.792 -22.8135 -54.2207 -78.7939 -11.3115 -99.2178z" />
    <glyph glyph-name="Y" unicode="&#x178;" horiz-adv-x="424" 
d="M440.484 207.958c6.44434 6.70898 31.5693 1.99902 22.708 -7.57324c-33.1357 -35.7656 -74.3975 -60.0283 -116.702 -82.7539c-5.71582 -40.1309 -14.7188 -79.4482 -29.1514 -116.423c-14.5957 -37.3809 -36.876 -75.8994 -75.1758 -92.8135
c-27.7129 -12.2373 -67.3701 -14.0264 -90.3389 8.91504c-28.957 28.9219 -10.9512 71.1846 10.5332 98.1309c22.5381 28.2676 52.0254 50.2471 82.7002 68.9678c8.74121 5.33398 17.6562 10.4209 26.6631 15.3877c0.0878906 0.933594 0.186523 1.86328 0.271484 2.79297
c8.55469 90.7637 8.34961 181.938 5.1543 272.948c-1.38574 39.4521 -4.05469 78.8057 -6.36328 118.201c-7.05566 -39.1729 -15.0615 -78.1689 -24.4678 -116.875c-16.6523 -68.5186 -33.3828 -147.189 -76.458 -204.701
c-19.6045 -26.1748 -48.1123 -44.3018 -81.5371 -37.2002c-31.626 6.71973 -51.2266 33.0508 -66.9639 59.2441c-37.0801 61.7217 -44.3584 135.864 -46.9844 206.303c-3.00488 80.5977 -2.09668 165.292 13.3682 244.635
c5.56738 28.5547 76.8008 30.4248 75.998 0.000976562c-2.12109 -80.5234 -10.3398 -160.428 -10.1699 -241.135c0.126953 -61.2158 3.36133 -124.892 22.2725 -183.559c5.38672 -16.7197 16.9277 -63.835 40.6924 -62.7988
c16.6777 0.728516 29.7881 23.2344 37.4268 35.7119c7.77637 12.708 14.4219 26.1016 20.3252 39.7705c27.1328 62.8564 43.5625 131.573 58.2002 198.247c12.5801 57.2891 22.4912 115.108 30.9609 173.136c-0.589844 13.9551 -0.847656 27.8896 -0.387695 41.75
c0.929688 28.0596 63.2451 25.4512 68.5439 0.000976562c11.9512 -57.3838 15.1533 -118.501 19.0312 -176.925c3.76465 -56.6807 6.34473 -113.383 5.95215 -170.201c-0.357422 -51.2334 -1.2373 -104.931 -7.09473 -157.737
c32.9619 18.4443 64.4854 38.9531 90.9932 66.5527zM185.688 -80.5479c37.4658 -17.8301 58.4502 34.124 66.3223 61.2607c8.98242 30.9541 13.7266 62.6758 17.2227 94.5918c-26.3271 -15.8359 -51.4453 -33.8281 -72.2334 -56.6348
c-20.792 -22.8135 -54.2207 -78.7939 -11.3115 -99.2178z" />
    <glyph glyph-name="Y" unicode="&#xdd;" horiz-adv-x="424" 
d="M440.484 207.958c6.44434 6.70898 31.5693 1.99902 22.708 -7.57324c-33.1357 -35.7656 -74.3975 -60.0283 -116.702 -82.7539c-5.71582 -40.1309 -14.7188 -79.4482 -29.1514 -116.423c-14.5957 -37.3809 -36.876 -75.8994 -75.1758 -92.8135
c-27.7129 -12.2373 -67.3701 -14.0264 -90.3389 8.91504c-28.957 28.9219 -10.9512 71.1846 10.5332 98.1309c22.5381 28.2676 52.0254 50.2471 82.7002 68.9678c8.74121 5.33398 17.6562 10.4209 26.6631 15.3877c0.0878906 0.933594 0.186523 1.86328 0.271484 2.79297
c8.55469 90.7637 8.34961 181.938 5.1543 272.948c-1.38574 39.4521 -4.05469 78.8057 -6.36328 118.201c-7.05566 -39.1729 -15.0615 -78.1689 -24.4678 -116.875c-16.6523 -68.5186 -33.3828 -147.189 -76.458 -204.701
c-19.6045 -26.1748 -48.1123 -44.3018 -81.5371 -37.2002c-31.626 6.71973 -51.2266 33.0508 -66.9639 59.2441c-37.0801 61.7217 -44.3584 135.864 -46.9844 206.303c-3.00488 80.5977 -2.09668 165.292 13.3682 244.635
c5.56738 28.5547 76.8008 30.4248 75.998 0.000976562c-2.12109 -80.5234 -10.3398 -160.428 -10.1699 -241.135c0.126953 -61.2158 3.36133 -124.892 22.2725 -183.559c5.38672 -16.7197 16.9277 -63.835 40.6924 -62.7988
c16.6777 0.728516 29.7881 23.2344 37.4268 35.7119c7.77637 12.708 14.4219 26.1016 20.3252 39.7705c27.1328 62.8564 43.5625 131.573 58.2002 198.247c12.5801 57.2891 22.4912 115.108 30.9609 173.136c-0.589844 13.9551 -0.847656 27.8896 -0.387695 41.75
c0.929688 28.0596 63.2451 25.4512 68.5439 0.000976562c11.9512 -57.3838 15.1533 -118.501 19.0312 -176.925c3.76465 -56.6807 6.34473 -113.383 5.95215 -170.201c-0.357422 -51.2334 -1.2373 -104.931 -7.09473 -157.737
c32.9619 18.4443 64.4854 38.9531 90.9932 66.5527zM185.688 -80.5479c37.4658 -17.8301 58.4502 34.124 66.3223 61.2607c8.98242 30.9541 13.7266 62.6758 17.2227 94.5918c-26.3271 -15.8359 -51.4453 -33.8281 -72.2334 -56.6348
c-20.792 -22.8135 -54.2207 -78.7939 -11.3115 -99.2178z" />
    <glyph glyph-name="Z" unicode="Z" horiz-adv-x="456" 
d="M9.80273 539.237c1.96875 74.7861 39.0479 157.925 109.15 191.943c60.127 29.1797 126.412 5.61621 166.118 -45.5859c46.8818 -60.4521 60.668 -145.182 63.1885 -219.738c0.746094 -22.0254 0.12793 -44.0439 -1.59375 -65.9844
c17.8545 1.375 35.7588 2.26562 53.7012 2.62305c15.0508 0.300781 14.8525 -13.7432 -0.000976562 -14.04c-18.3848 -0.367188 -36.709 -1.31836 -54.9766 -2.82812c-5.53516 -54.7793 -17.9844 -108.937 -34.7002 -161.255
c-10.4062 -32.5732 -22.4277 -64.7148 -36.5391 -95.8711c68.377 9.09863 135.963 24.6729 199.147 52.9268c5.60254 2.50293 14.5381 4.05078 19.957 0c4.14258 -3.09277 5.99805 -8.68164 -0.000976562 -11.375c-67.3457 -30.2402 -139.021 -47.6738 -212.036 -57.4229
c-5.08301 -0.678711 -10.2158 -1.26855 -15.3799 -1.80566c-15.7266 -32.3896 -33.8564 -63.5771 -55.0508 -92.8486c-21.5098 -29.71 -47.0068 -57.4336 -80.6973 -73.3047c-36.0869 -16.999 -81.9014 -23.2588 -120.138 -9.5752
c-30.0957 10.7705 -53.9199 29.5547 -49.3984 64.21c4.08301 31.3359 24.4043 55.0938 49.2715 73.0723c52.8701 38.2217 118.346 43.2021 181.774 47.9424c40.5547 80.1377 68.543 167.716 82.4385 256.503c-5.80762 -0.954102 -11.6045 -1.96191 -17.3984 -3.0293
c-12.2412 -2.25879 -22.6865 10.5654 -6.5498 13.5381c8.70996 1.60449 17.4414 3.03613 26.1797 4.38672c2.37891 17.165 4.2627 34.3584 5.57031 51.5371c4.95215 65.0479 0.873047 133.425 -17.8115 196.214c-8.08105 27.1582 -21.1846 54.9668 -43.9951 72.8496
c-25.0615 19.6504 -57.6875 18.8408 -84.9482 4.56348c-55.2314 -28.9258 -86.667 -94.1924 -94.1006 -153.832c-3.8457 -30.8516 -2.72168 -64.0928 7.38086 -93.7178c9.9082 -29.0596 36.7305 -65.1426 72.1279 -56.415c4.82129 1.1875 14.6768 2.30078 18.1758 -2.71484
c3.17383 -4.55273 0.583008 -8.97852 -4.76562 -10.3604c-33.75 -8.72754 -69.6709 1.69629 -92.5098 28.5859c-25.6172 30.1553 -32.6055 72.3467 -31.5908 110.809zM164.348 70.624c6.68066 11.1982 13.0283 22.625 19.1826 34.1768
c-43.4961 -3.3125 -86.6914 -9.07031 -125.065 -27.5322c-26.4365 -12.7148 -52.2334 -32.626 -62.6113 -61.0283c-5.14355 -14.083 -5.92871 -30.5371 4.22363 -42.7217c10.0811 -12.1035 26.1895 -12.5098 40.6543 -11.9121
c58.8828 2.43945 96.6807 63.8926 123.616 109.018z" />
    <glyph glyph-name="bracketleft" unicode="[" horiz-adv-x="327" 
d="M274.893 -116.551c7.49023 -11.1562 -3.31445 -20.3945 -13.6748 -23.7988c-39.7344 -13.0645 -85.4219 -6.68457 -119.713 17.4971c-33.6621 23.7363 -52.7256 59.6357 -64.6201 98.2607c-22.9512 74.5312 -27.4258 152.838 -26.832 230.339
c0.618164 80.3105 7.12891 160.19 17.1855 239.848c9.52637 75.4863 22.2129 153.394 57.6211 221.668c22.6758 43.7217 84.4678 111.099 139.296 78.0195c13.6094 -8.21094 -10.8057 -15.2979 -18.9814 -10.8193c-31.4209 17.207 -58.1904 -40.4209 -65.9883 -61.9971
c-11.4141 -31.5869 -18.6426 -63.2129 -24.5137 -96.2773c-11.2197 -63.1885 -15.5391 -128.13 -19.335 -192.131c-3.91699 -66.0195 -5.88281 -132.407 -4.63477 -198.54c1.1875 -63.2129 5.16016 -127.713 22.6895 -188.77
c7.46191 -25.9951 17.0869 -53.0928 34.3047 -74.3691c10.6748 -13.1924 29.374 -30.6367 47.7441 -27.8906c12.1494 1.81348 31.7109 0.491211 39.4521 -11.0391z" />
    <glyph glyph-name="backslash" unicode="\" horiz-adv-x="354" 
d="M303.412 -104.522c5.71973 -27.543 -73.626 -32.6768 -80.3389 -6.19727c-34.0469 134.383 -61.4277 270.692 -91.2549 406.065c-14.7822 67.1016 -28.6104 134.426 -42.8701 201.644c-14.3262 67.5293 -31.2822 136.398 -38.8789 205.062
c-2.13867 19.3389 46.5078 19.9824 52.1318 4.02246c23.248 -65.9629 38.4727 -135.963 55.3516 -203.789c16.6768 -67.0205 33.792 -133.952 49.9492 -201.1c32.4854 -134.991 67.6777 -269.756 95.9102 -405.708z" />
    <glyph glyph-name="bracketright" unicode="]" horiz-adv-x="324" 
d="M207.603 609.654c47.8086 -135.634 66.2783 -282.679 66.6885 -426.072c0.198242 -69.583 -4.96973 -144.051 -31.9971 -209.042c-24.4746 -58.8584 -76.3623 -108.562 -141.838 -115.341c-15.3799 -1.59375 -37.3203 -0.819336 -47.4336 13.2705
c-9.04199 12.5947 3.89551 25.5742 16.4512 28.6211c58.6777 14.2383 88.4658 65.3516 103.828 120.431c16.0693 57.6064 18.9893 119.738 18.9502 179.236c-0.0419922 62.2725 -3.38574 124.941 -8.52148 186.995c-4.9873 60.251 -11.1875 120.622 -21.3496 180.247
c-5.0332 29.5195 -11.042 58.8652 -19.2676 87.6631c-6.17871 21.6367 -18.5713 75.0332 -51.8906 62.3008c-9.45898 -3.61621 -27.3662 5.8291 -12.4316 12.125c67.833 28.5928 111.937 -72.5664 128.812 -120.435z" />
    <glyph glyph-name="asciicircum" unicode="^" horiz-adv-x="284" 
d="M233.161 627.594c1.50195 -36.8291 -1.48145 -75.4062 -3.91016 -112.196c-1.99023 -30.1621 -77.2539 -29.4766 -76.2744 0c0.650391 19.4805 2.10645 38.915 3.53418 58.3525c-17.25 -26.458 -32.8525 -53.9834 -48.9961 -81.1729
c-0.449219 -3.64746 -3.57422 -7.27441 -6.60742 -9.25c-1.04297 -0.682617 -2.08594 -1.36133 -3.12891 -2.04004c-12.2061 -7.95312 -53.2061 -6.88867 -47.1758 15.6533c9.15918 34.2383 25.1895 66.1934 44.1289 96.0625
c15.5996 24.5986 33.7295 58.7764 62.2656 69.9463c31.4424 12.3086 74.5596 3.88477 76.1641 -35.3555z" />
    <glyph glyph-name="underscore" unicode="_" horiz-adv-x="351" 
d="M300.234 -29.3721c5.35547 -13.7754 -12.3164 -22.7324 -23.6455 -23.7402c-67.7129 -6.02344 -138.748 -15.5391 -206.697 -10.1201c-7.37402 0.586914 -19.8906 5.9248 -19.8906 14.8887c0 9.51953 12.6016 13.4961 19.8906 14.8887
c30.6328 5.85742 62.7852 6.33105 93.8457 8.96484c31.6299 2.68262 63.2559 5.52148 94.8496 8.59668c11.9229 1.15918 36.0518 0.912109 41.6475 -13.4785z" />
    <glyph glyph-name="grave" unicode="`" horiz-adv-x="161" 
d="M56.1465 641.439c5.51465 19.7314 61.373 15.4883 54.6426 -8.58691c-7.00293 -25.0439 -7.7207 -53.0996 -1.25879 -78.3418c5.72949 -22.375 -44.1719 -25.7969 -50.3828 -7.91797c-11.0957 31.9443 -12.0996 62.3018 -3.00098 94.8467z" />
    <glyph glyph-name="a" unicode="a" horiz-adv-x="390" 
d="M394.737 195.229c3.97266 8.24316 28.1436 5.71777 23.7568 -3.74512c-26.3096 -56.6484 -51.375 -116.28 -86.8721 -167.948c-13.0537 -19.0029 -28.3281 -39.7383 -50.8555 -47.8721c-20.3994 -7.36621 -44.5947 -4.69043 -61.9297 8.5332
c-20.4873 15.6309 -29.3945 42.7959 -35.9375 66.6914c-8.09082 29.5371 -10.8369 59.9297 -11.5684 90.4531c-0.229492 9.64648 -0.19043 19.2998 0.0361328 28.9502c-6.95996 -25.8965 -14.4893 -51.626 -23.7188 -76.8467
c-17.8262 -48.7129 -54.9805 -140.473 -123.835 -100.717c-28.833 16.6494 -41.5264 55.5889 -44.5908 86.6035c-3.41797 34.6055 0.583008 68.957 9.03516 102.562c16.5283 65.7158 56.9697 141.598 131.872 150.487c23.6191 2.80273 48.041 -1.14941 66.8213 -15.1367
c1.10645 3.14258 2.2373 6.27051 3.38965 9.38867c1.08496 3.99414 2.25098 7.95703 3.5127 11.8877c7.39844 23.0361 73.6729 21.7852 73.2842 -5.65234c-0.742188 -52.3398 -13.7891 -104.892 -18.0127 -157.172c-3.99414 -49.4346 -8.40234 -101.375 -2.47754 -150.803
c1.13867 -9.50488 2.16016 -19.7168 6.81152 -28.2891c7.27832 -13.4111 19.4385 -4.51367 28.0918 3.33008c18.2607 16.5498 31.4736 38.752 43.7285 59.8799c25.4609 43.8984 47.4365 89.7305 69.458 135.414zM88.6016 28.8252
c47.8115 80.0068 62.3193 174.996 90.0645 263.504c-2.91309 3.86328 -6.19727 7.50391 -10.0215 10.8018c-29.3428 25.292 -52.9619 -5.48535 -67.1475 -29.7197c-27.3311 -46.6982 -45.7188 -97.6699 -51.2363 -151.544
c-2.53809 -24.7539 -4.10352 -51.7744 0.728516 -76.3623c2.14258 -10.9082 6.05957 -24.0117 13.7939 -32.3359c4.55664 -4.90234 4.88184 -6.40137 10.8135 -1.72852c5.55273 4.37305 9.42383 11.3936 13.0049 17.3848z" />
    <glyph glyph-name="a" unicode="&#xe5;" horiz-adv-x="390" 
d="M394.737 195.229c3.97266 8.24316 28.1436 5.71777 23.7568 -3.74512c-26.3096 -56.6484 -51.375 -116.28 -86.8721 -167.948c-13.0537 -19.0029 -28.3281 -39.7383 -50.8555 -47.8721c-20.3994 -7.36621 -44.5947 -4.69043 -61.9297 8.5332
c-20.4873 15.6309 -29.3945 42.7959 -35.9375 66.6914c-8.09082 29.5371 -10.8369 59.9297 -11.5684 90.4531c-0.229492 9.64648 -0.19043 19.2998 0.0361328 28.9502c-6.95996 -25.8965 -14.4893 -51.626 -23.7188 -76.8467
c-17.8262 -48.7129 -54.9805 -140.473 -123.835 -100.717c-28.833 16.6494 -41.5264 55.5889 -44.5908 86.6035c-3.41797 34.6055 0.583008 68.957 9.03516 102.562c16.5283 65.7158 56.9697 141.598 131.872 150.487c23.6191 2.80273 48.041 -1.14941 66.8213 -15.1367
c1.10645 3.14258 2.2373 6.27051 3.38965 9.38867c1.08496 3.99414 2.25098 7.95703 3.5127 11.8877c7.39844 23.0361 73.6729 21.7852 73.2842 -5.65234c-0.742188 -52.3398 -13.7891 -104.892 -18.0127 -157.172c-3.99414 -49.4346 -8.40234 -101.375 -2.47754 -150.803
c1.13867 -9.50488 2.16016 -19.7168 6.81152 -28.2891c7.27832 -13.4111 19.4385 -4.51367 28.0918 3.33008c18.2607 16.5498 31.4736 38.752 43.7285 59.8799c25.4609 43.8984 47.4365 89.7305 69.458 135.414zM88.6016 28.8252
c47.8115 80.0068 62.3193 174.996 90.0645 263.504c-2.91309 3.86328 -6.19727 7.50391 -10.0215 10.8018c-29.3428 25.292 -52.9619 -5.48535 -67.1475 -29.7197c-27.3311 -46.6982 -45.7188 -97.6699 -51.2363 -151.544
c-2.53809 -24.7539 -4.10352 -51.7744 0.728516 -76.3623c2.14258 -10.9082 6.05957 -24.0117 13.7939 -32.3359c4.55664 -4.90234 4.88184 -6.40137 10.8135 -1.72852c5.55273 4.37305 9.42383 11.3936 13.0049 17.3848z" />
    <glyph glyph-name="a" unicode="&#xe4;" horiz-adv-x="390" 
d="M394.737 195.229c3.97266 8.24316 28.1436 5.71777 23.7568 -3.74512c-26.3096 -56.6484 -51.375 -116.28 -86.8721 -167.948c-13.0537 -19.0029 -28.3281 -39.7383 -50.8555 -47.8721c-20.3994 -7.36621 -44.5947 -4.69043 -61.9297 8.5332
c-20.4873 15.6309 -29.3945 42.7959 -35.9375 66.6914c-8.09082 29.5371 -10.8369 59.9297 -11.5684 90.4531c-0.229492 9.64648 -0.19043 19.2998 0.0361328 28.9502c-6.95996 -25.8965 -14.4893 -51.626 -23.7188 -76.8467
c-17.8262 -48.7129 -54.9805 -140.473 -123.835 -100.717c-28.833 16.6494 -41.5264 55.5889 -44.5908 86.6035c-3.41797 34.6055 0.583008 68.957 9.03516 102.562c16.5283 65.7158 56.9697 141.598 131.872 150.487c23.6191 2.80273 48.041 -1.14941 66.8213 -15.1367
c1.10645 3.14258 2.2373 6.27051 3.38965 9.38867c1.08496 3.99414 2.25098 7.95703 3.5127 11.8877c7.39844 23.0361 73.6729 21.7852 73.2842 -5.65234c-0.742188 -52.3398 -13.7891 -104.892 -18.0127 -157.172c-3.99414 -49.4346 -8.40234 -101.375 -2.47754 -150.803
c1.13867 -9.50488 2.16016 -19.7168 6.81152 -28.2891c7.27832 -13.4111 19.4385 -4.51367 28.0918 3.33008c18.2607 16.5498 31.4736 38.752 43.7285 59.8799c25.4609 43.8984 47.4365 89.7305 69.458 135.414zM88.6016 28.8252
c47.8115 80.0068 62.3193 174.996 90.0645 263.504c-2.91309 3.86328 -6.19727 7.50391 -10.0215 10.8018c-29.3428 25.292 -52.9619 -5.48535 -67.1475 -29.7197c-27.3311 -46.6982 -45.7188 -97.6699 -51.2363 -151.544
c-2.53809 -24.7539 -4.10352 -51.7744 0.728516 -76.3623c2.14258 -10.9082 6.05957 -24.0117 13.7939 -32.3359c4.55664 -4.90234 4.88184 -6.40137 10.8135 -1.72852c5.55273 4.37305 9.42383 11.3936 13.0049 17.3848z" />
    <glyph glyph-name="a" unicode="&#xe3;" horiz-adv-x="390" 
d="M394.737 195.229c3.97266 8.24316 28.1436 5.71777 23.7568 -3.74512c-26.3096 -56.6484 -51.375 -116.28 -86.8721 -167.948c-13.0537 -19.0029 -28.3281 -39.7383 -50.8555 -47.8721c-20.3994 -7.36621 -44.5947 -4.69043 -61.9297 8.5332
c-20.4873 15.6309 -29.3945 42.7959 -35.9375 66.6914c-8.09082 29.5371 -10.8369 59.9297 -11.5684 90.4531c-0.229492 9.64648 -0.19043 19.2998 0.0361328 28.9502c-6.95996 -25.8965 -14.4893 -51.626 -23.7188 -76.8467
c-17.8262 -48.7129 -54.9805 -140.473 -123.835 -100.717c-28.833 16.6494 -41.5264 55.5889 -44.5908 86.6035c-3.41797 34.6055 0.583008 68.957 9.03516 102.562c16.5283 65.7158 56.9697 141.598 131.872 150.487c23.6191 2.80273 48.041 -1.14941 66.8213 -15.1367
c1.10645 3.14258 2.2373 6.27051 3.38965 9.38867c1.08496 3.99414 2.25098 7.95703 3.5127 11.8877c7.39844 23.0361 73.6729 21.7852 73.2842 -5.65234c-0.742188 -52.3398 -13.7891 -104.892 -18.0127 -157.172c-3.99414 -49.4346 -8.40234 -101.375 -2.47754 -150.803
c1.13867 -9.50488 2.16016 -19.7168 6.81152 -28.2891c7.27832 -13.4111 19.4385 -4.51367 28.0918 3.33008c18.2607 16.5498 31.4736 38.752 43.7285 59.8799c25.4609 43.8984 47.4365 89.7305 69.458 135.414zM88.6016 28.8252
c47.8115 80.0068 62.3193 174.996 90.0645 263.504c-2.91309 3.86328 -6.19727 7.50391 -10.0215 10.8018c-29.3428 25.292 -52.9619 -5.48535 -67.1475 -29.7197c-27.3311 -46.6982 -45.7188 -97.6699 -51.2363 -151.544
c-2.53809 -24.7539 -4.10352 -51.7744 0.728516 -76.3623c2.14258 -10.9082 6.05957 -24.0117 13.7939 -32.3359c4.55664 -4.90234 4.88184 -6.40137 10.8135 -1.72852c5.55273 4.37305 9.42383 11.3936 13.0049 17.3848z" />
    <glyph glyph-name="a" unicode="&#xe2;" horiz-adv-x="390" 
d="M394.737 195.229c3.97266 8.24316 28.1436 5.71777 23.7568 -3.74512c-26.3096 -56.6484 -51.375 -116.28 -86.8721 -167.948c-13.0537 -19.0029 -28.3281 -39.7383 -50.8555 -47.8721c-20.3994 -7.36621 -44.5947 -4.69043 -61.9297 8.5332
c-20.4873 15.6309 -29.3945 42.7959 -35.9375 66.6914c-8.09082 29.5371 -10.8369 59.9297 -11.5684 90.4531c-0.229492 9.64648 -0.19043 19.2998 0.0361328 28.9502c-6.95996 -25.8965 -14.4893 -51.626 -23.7188 -76.8467
c-17.8262 -48.7129 -54.9805 -140.473 -123.835 -100.717c-28.833 16.6494 -41.5264 55.5889 -44.5908 86.6035c-3.41797 34.6055 0.583008 68.957 9.03516 102.562c16.5283 65.7158 56.9697 141.598 131.872 150.487c23.6191 2.80273 48.041 -1.14941 66.8213 -15.1367
c1.10645 3.14258 2.2373 6.27051 3.38965 9.38867c1.08496 3.99414 2.25098 7.95703 3.5127 11.8877c7.39844 23.0361 73.6729 21.7852 73.2842 -5.65234c-0.742188 -52.3398 -13.7891 -104.892 -18.0127 -157.172c-3.99414 -49.4346 -8.40234 -101.375 -2.47754 -150.803
c1.13867 -9.50488 2.16016 -19.7168 6.81152 -28.2891c7.27832 -13.4111 19.4385 -4.51367 28.0918 3.33008c18.2607 16.5498 31.4736 38.752 43.7285 59.8799c25.4609 43.8984 47.4365 89.7305 69.458 135.414zM88.6016 28.8252
c47.8115 80.0068 62.3193 174.996 90.0645 263.504c-2.91309 3.86328 -6.19727 7.50391 -10.0215 10.8018c-29.3428 25.292 -52.9619 -5.48535 -67.1475 -29.7197c-27.3311 -46.6982 -45.7188 -97.6699 -51.2363 -151.544
c-2.53809 -24.7539 -4.10352 -51.7744 0.728516 -76.3623c2.14258 -10.9082 6.05957 -24.0117 13.7939 -32.3359c4.55664 -4.90234 4.88184 -6.40137 10.8135 -1.72852c5.55273 4.37305 9.42383 11.3936 13.0049 17.3848z" />
    <glyph glyph-name="a" unicode="&#xe1;" horiz-adv-x="390" 
d="M394.737 195.229c3.97266 8.24316 28.1436 5.71777 23.7568 -3.74512c-26.3096 -56.6484 -51.375 -116.28 -86.8721 -167.948c-13.0537 -19.0029 -28.3281 -39.7383 -50.8555 -47.8721c-20.3994 -7.36621 -44.5947 -4.69043 -61.9297 8.5332
c-20.4873 15.6309 -29.3945 42.7959 -35.9375 66.6914c-8.09082 29.5371 -10.8369 59.9297 -11.5684 90.4531c-0.229492 9.64648 -0.19043 19.2998 0.0361328 28.9502c-6.95996 -25.8965 -14.4893 -51.626 -23.7188 -76.8467
c-17.8262 -48.7129 -54.9805 -140.473 -123.835 -100.717c-28.833 16.6494 -41.5264 55.5889 -44.5908 86.6035c-3.41797 34.6055 0.583008 68.957 9.03516 102.562c16.5283 65.7158 56.9697 141.598 131.872 150.487c23.6191 2.80273 48.041 -1.14941 66.8213 -15.1367
c1.10645 3.14258 2.2373 6.27051 3.38965 9.38867c1.08496 3.99414 2.25098 7.95703 3.5127 11.8877c7.39844 23.0361 73.6729 21.7852 73.2842 -5.65234c-0.742188 -52.3398 -13.7891 -104.892 -18.0127 -157.172c-3.99414 -49.4346 -8.40234 -101.375 -2.47754 -150.803
c1.13867 -9.50488 2.16016 -19.7168 6.81152 -28.2891c7.27832 -13.4111 19.4385 -4.51367 28.0918 3.33008c18.2607 16.5498 31.4736 38.752 43.7285 59.8799c25.4609 43.8984 47.4365 89.7305 69.458 135.414zM88.6016 28.8252
c47.8115 80.0068 62.3193 174.996 90.0645 263.504c-2.91309 3.86328 -6.19727 7.50391 -10.0215 10.8018c-29.3428 25.292 -52.9619 -5.48535 -67.1475 -29.7197c-27.3311 -46.6982 -45.7188 -97.6699 -51.2363 -151.544
c-2.53809 -24.7539 -4.10352 -51.7744 0.728516 -76.3623c2.14258 -10.9082 6.05957 -24.0117 13.7939 -32.3359c4.55664 -4.90234 4.88184 -6.40137 10.8135 -1.72852c5.55273 4.37305 9.42383 11.3936 13.0049 17.3848z" />
    <glyph glyph-name="b" unicode="b" horiz-adv-x="406" 
d="M412.332 175.554c7.03027 6.60645 32.9648 1.22363 23.4141 -7.80762c-28.9541 -27.3838 -62.3789 -47.5107 -97.0342 -65.7217c-3.04395 -79.2119 -35.7236 -169.021 -108.456 -200.989c-39.8232 -17.5049 -94.3691 -13.8252 -106.486 35.9346
c-10.3076 42.3262 21.9648 77.2188 53.8945 99.6299c29.0947 20.4238 60.8906 36.3975 92.8525 52.0391c4.71582 28.1582 6.19727 56.7441 5.1582 83.9443c-0.943359 24.6094 0.619141 107.253 -42.4561 90.0068c-20.1064 -8.05273 -35.2217 -29.7637 -46.9434 -47.0312
c-10.0068 -14.7402 -18.6953 -30.3184 -26.4014 -46.373c-28.9111 -60.251 -45.4502 -125.797 -63.6826 -190.155c3.56641 -16.1113 7.0127 -32.2373 8.00977 -48.6846c0.759766 -12.4707 -18.1582 -16.7021 -27.0801 -17.4873
c-12.2588 -1.07812 -27.165 1.67871 -34.2695 12.7529c-17.876 27.8545 -25.8965 61.2051 -33.2773 93.2168c-7.38086 32.0146 -11.9863 64.7754 -15.7188 97.3984c-7.12305 62.248 -10.2129 125.271 -9.82031 187.918c0.671875 107.646 12.248 222.916 61.0215 320.522
c21.502 43.0332 54.2236 81.4531 101.625 95.9463c43.7217 13.3721 95.3018 2.5127 110.819 -45.5078c15.7686 -48.7842 -2.25586 -108.992 -14.8252 -156.751c-14.8994 -56.5996 -32.9023 -112.429 -50.9053 -168.102
c-17.5889 -54.3936 -35.5312 -108.688 -52.5898 -163.248c11.333 21.7607 24.6553 42.4043 40.8623 60.874c24.8926 28.3672 66.8086 47.3066 101.16 22.7148c38.625 -27.6533 49.8975 -75.3623 55.5811 -120.304c1.0918 -8.625 1.7666 -17.6279 2.04199 -26.8643
c26.2031 14.6592 51.2256 31.1914 73.5059 52.1279zM79.0059 77.916c26.1191 94.0967 57.3477 186.704 86.9131 279.772c15.6631 49.3066 31.0859 98.7373 44.6982 148.656c8.08789 29.6572 15.5742 59.7246 18.957 90.333
c2.55566 23.1035 5.32324 48.8438 -2.75781 71.1553c-8.02734 22.167 -24.1387 37.8408 -47.8574 26.2959c-15.1992 -7.39844 -26.8428 -21.4775 -36.2842 -35.1533c-25.376 -36.7588 -38.3203 -83.6201 -49.2637 -126.349
c-25.0439 -97.7939 -30.1768 -198.833 -26.3877 -299.366c1.88379 -49.9502 5.13184 -100.06 11.2256 -149.688c0.233398 -1.8877 0.512695 -3.76855 0.756836 -5.65625zM211.16 -46.3408c27.4336 31.1064 44.8184 70.2061 54.6025 111.372
c-11.6504 -6.05469 -23.2021 -12.2861 -34.5098 -18.9385c-30.4062 -17.8857 -70.5654 -41.6357 -76.6104 -79.8291c-1.95508 -12.3467 3.09961 -47.8896 22.085 -44.4111c6.75195 1.2373 14.6377 11.418 19.1592 15.8262c5.28418 5.15039 10.3916 10.4453 15.2734 15.9805z
" />
    <glyph glyph-name="c" unicode="c" horiz-adv-x="321" 
d="M325.697 200.753c4.07227 8.24316 28.2617 5.5752 23.751 -3.72852c-39.8193 -82.1777 -82.8271 -165.681 -145.368 -233.238c-23.4746 -25.3555 -52.2549 -45.0869 -87.9531 -45.6592c-38.3457 -0.615234 -72.499 17.3633 -95.627 47.5186
c-24.7822 32.3154 -33.6973 73.3652 -38.1543 113.146c-4.64844 41.4707 -2.36133 83.0361 6.59277 123.782c8.55762 38.9502 20.9258 76.7764 47.2852 107.494c26.0869 30.4033 66.8682 51.2129 107.497 43.7402c80.7773 -14.8564 69.8721 -126.182 62.7109 -185.025
c-1.20898 -9.92578 -25.9033 -9.34277 -24.9102 0c4.07227 38.3633 9.81641 80.876 -3.50293 118.091c-5.12891 14.3262 -13.2764 29.2148 -26.3232 37.7129c-14.2559 9.28223 -27.5293 -3.14648 -37.4619 -13.8535c-18.3496 -19.7773 -28.7666 -46.7305 -37.6641 -71.7891
c-11.0566 -31.1377 -17.1328 -63.4639 -19.6494 -96.3623c-2.52344 -33.0117 -1.06738 -65.8994 4.36523 -98.5576c4.74414 -28.501 10.5908 -63.0146 29.8701 -85.7578c8.08789 -9.54395 19.0352 -21.2373 32.3652 -21.874
c17.0273 -0.813477 33.0898 12.1309 44.9951 23.0215c23.3047 21.3223 43.209 47.2891 61.3496 73.0186c37.2852 52.8848 67.2285 110.417 95.832 168.32z" />
    <glyph glyph-name="d" unicode="d" horiz-adv-x="432" 
d="M448.75 710.512c41.958 -35.5781 29.6855 -97.1426 24.3975 -145.46c-20.042 -183.227 -99.1621 -348.349 -174.372 -513.788c1.85547 -11.8906 3.82422 -23.7637 5.88867 -35.6367c4.93066 -28.3633 13.6367 -56.5498 15.3867 -85.2773
c0.759766 -12.4707 -18.1621 -16.7021 -27.0801 -17.4873c-12.2588 -1.07812 -27.1689 1.67871 -34.2705 12.7529c-12.626 19.6885 -20.7812 42.4531 -26.9102 65.6309c-32.3369 -20.2334 -75.6309 -20.4844 -111.312 -10.0986
c-79.6074 23.1709 -122.325 103.793 -137.613 180.113c-13.1104 65.4541 -3.52051 166.868 76.3164 183.527c80.9512 16.8896 116.123 -78.5889 136.957 -138.79c2.62598 -7.58887 5.0791 -15.2236 7.45801 -22.8838c-3.91699 55.2598 -4.99902 110.912 -2.63379 166.111
c2.64062 61.6611 9.95801 123.785 26.1123 183.471c14.5527 53.7607 35.1357 111.262 75.1709 151.693c34.252 34.5918 104.228 61.9688 146.504 26.1221zM220.104 8.79688c1.6543 1.27246 3.22754 2.60156 4.74023 3.96973
c-17.5645 53.6016 -29.8691 108.809 -46.9385 162.623c-9.38867 29.6006 -20.1553 58.7949 -34.0117 86.624c-7.54297 15.1465 -36.1641 77.5254 -60.2852 62.1494c-45.3662 -28.915 -37.8408 -109.855 -30.0215 -154.125
c5.51758 -31.248 17.5781 -60.6787 32.5449 -88.5117c13.2197 -24.585 28.5576 -49.915 49.9746 -68.293c24.9453 -21.4072 57.1436 -25.1045 83.9971 -4.43652zM443.222 556.382c2.90234 25.0615 4.2627 50.2656 4.08594 75.4971
c-0.144531 21.2305 -5.48535 65.4795 -34.7461 67.1582c-19.9082 1.14551 -37.5049 -18.7559 -48.5439 -32.7432c-14.1143 -17.8857 -23.9336 -39.3389 -31.9863 -60.5303c-40.3076 -106.101 -51.7783 -221.116 -50.1807 -333.852
c0.813477 -57.377 4.19629 -114.974 10.3682 -172.025c0.0419922 -0.414062 0.102539 -0.824219 0.148438 -1.23828c24.252 51.8379 48.4795 103.647 69.5537 156.991c38.1367 96.5322 69.3281 197.335 81.3008 300.742z" />
    <glyph glyph-name="e" unicode="e" horiz-adv-x="305" 
d="M310.775 195.659c4.45703 8.04883 28.5928 5.20898 23.7539 -3.73047c-24.8428 -45.8682 -50.6826 -91.3438 -81.4492 -133.557c-26.6494 -36.5605 -57.9004 -78.5684 -99.3711 -99.1377c-38.335 -19.0137 -79.749 -19.7842 -116.137 4.66211
c-38.9785 26.1895 -52.6016 71.792 -56.9775 116.43c-4.42578 45.1436 0.515625 89.9541 12.7959 133.538c10.9932 39.0205 27.9248 79.6074 57.1719 108.61c29.3213 29.0771 80.6436 47.6064 121.054 31.9971c34.6875 -13.4004 47.7559 -58.2998 38.2646 -91.5342
c-9.89746 -34.666 -41.0498 -60.1631 -76.9209 -63.168c-19.8652 -1.66504 -40.5156 4.23145 -55.5811 16.6523c-1.02832 -3.04688 -2.02832 -6.09375 -2.97949 -9.14453c-17.918 -57.5361 -24.1182 -130.105 -5.81836 -188.381
c7.54004 -24.0156 23.7617 -56.1572 53.7227 -51.8975c32.7891 4.66211 61.3535 41.5801 81.4805 65.2598c42.3115 49.7773 75.4395 106.434 106.991 163.4zM109.956 286.442c-8.58984 -13.6191 -15.9814 -28.1904 -22.3516 -43.1777
c13.9346 -31.6934 51.5059 -34.5283 75.5811 -8.65723c11.8594 12.7432 18.1406 29.5586 18.0381 46.9609c-0.0917969 15.2949 -7.49707 38.084 -23.6582 43.333c-19.2891 6.26758 -39.4727 -25.5566 -47.6094 -38.459z" />
    <glyph glyph-name="e" unicode="&#xeb;" horiz-adv-x="305" 
d="M310.775 195.659c4.45703 8.04883 28.5928 5.20898 23.7539 -3.73047c-24.8428 -45.8682 -50.6826 -91.3438 -81.4492 -133.557c-26.6494 -36.5605 -57.9004 -78.5684 -99.3711 -99.1377c-38.335 -19.0137 -79.749 -19.7842 -116.137 4.66211
c-38.9785 26.1895 -52.6016 71.792 -56.9775 116.43c-4.42578 45.1436 0.515625 89.9541 12.7959 133.538c10.9932 39.0205 27.9248 79.6074 57.1719 108.61c29.3213 29.0771 80.6436 47.6064 121.054 31.9971c34.6875 -13.4004 47.7559 -58.2998 38.2646 -91.5342
c-9.89746 -34.666 -41.0498 -60.1631 -76.9209 -63.168c-19.8652 -1.66504 -40.5156 4.23145 -55.5811 16.6523c-1.02832 -3.04688 -2.02832 -6.09375 -2.97949 -9.14453c-17.918 -57.5361 -24.1182 -130.105 -5.81836 -188.381
c7.54004 -24.0156 23.7617 -56.1572 53.7227 -51.8975c32.7891 4.66211 61.3535 41.5801 81.4805 65.2598c42.3115 49.7773 75.4395 106.434 106.991 163.4zM109.956 286.442c-8.58984 -13.6191 -15.9814 -28.1904 -22.3516 -43.1777
c13.9346 -31.6934 51.5059 -34.5283 75.5811 -8.65723c11.8594 12.7432 18.1406 29.5586 18.0381 46.9609c-0.0917969 15.2949 -7.49707 38.084 -23.6582 43.333c-19.2891 6.26758 -39.4727 -25.5566 -47.6094 -38.459z" />
    <glyph glyph-name="e" unicode="&#xea;" horiz-adv-x="305" 
d="M310.775 195.659c4.45703 8.04883 28.5928 5.20898 23.7539 -3.73047c-24.8428 -45.8682 -50.6826 -91.3438 -81.4492 -133.557c-26.6494 -36.5605 -57.9004 -78.5684 -99.3711 -99.1377c-38.335 -19.0137 -79.749 -19.7842 -116.137 4.66211
c-38.9785 26.1895 -52.6016 71.792 -56.9775 116.43c-4.42578 45.1436 0.515625 89.9541 12.7959 133.538c10.9932 39.0205 27.9248 79.6074 57.1719 108.61c29.3213 29.0771 80.6436 47.6064 121.054 31.9971c34.6875 -13.4004 47.7559 -58.2998 38.2646 -91.5342
c-9.89746 -34.666 -41.0498 -60.1631 -76.9209 -63.168c-19.8652 -1.66504 -40.5156 4.23145 -55.5811 16.6523c-1.02832 -3.04688 -2.02832 -6.09375 -2.97949 -9.14453c-17.918 -57.5361 -24.1182 -130.105 -5.81836 -188.381
c7.54004 -24.0156 23.7617 -56.1572 53.7227 -51.8975c32.7891 4.66211 61.3535 41.5801 81.4805 65.2598c42.3115 49.7773 75.4395 106.434 106.991 163.4zM109.956 286.442c-8.58984 -13.6191 -15.9814 -28.1904 -22.3516 -43.1777
c13.9346 -31.6934 51.5059 -34.5283 75.5811 -8.65723c11.8594 12.7432 18.1406 29.5586 18.0381 46.9609c-0.0917969 15.2949 -7.49707 38.084 -23.6582 43.333c-19.2891 6.26758 -39.4727 -25.5566 -47.6094 -38.459z" />
    <glyph glyph-name="e" unicode="&#xe9;" horiz-adv-x="305" 
d="M310.775 195.659c4.45703 8.04883 28.5928 5.20898 23.7539 -3.73047c-24.8428 -45.8682 -50.6826 -91.3438 -81.4492 -133.557c-26.6494 -36.5605 -57.9004 -78.5684 -99.3711 -99.1377c-38.335 -19.0137 -79.749 -19.7842 -116.137 4.66211
c-38.9785 26.1895 -52.6016 71.792 -56.9775 116.43c-4.42578 45.1436 0.515625 89.9541 12.7959 133.538c10.9932 39.0205 27.9248 79.6074 57.1719 108.61c29.3213 29.0771 80.6436 47.6064 121.054 31.9971c34.6875 -13.4004 47.7559 -58.2998 38.2646 -91.5342
c-9.89746 -34.666 -41.0498 -60.1631 -76.9209 -63.168c-19.8652 -1.66504 -40.5156 4.23145 -55.5811 16.6523c-1.02832 -3.04688 -2.02832 -6.09375 -2.97949 -9.14453c-17.918 -57.5361 -24.1182 -130.105 -5.81836 -188.381
c7.54004 -24.0156 23.7617 -56.1572 53.7227 -51.8975c32.7891 4.66211 61.3535 41.5801 81.4805 65.2598c42.3115 49.7773 75.4395 106.434 106.991 163.4zM109.956 286.442c-8.58984 -13.6191 -15.9814 -28.1904 -22.3516 -43.1777
c13.9346 -31.6934 51.5059 -34.5283 75.5811 -8.65723c11.8594 12.7432 18.1406 29.5586 18.0381 46.9609c-0.0917969 15.2949 -7.49707 38.084 -23.6582 43.333c-19.2891 6.26758 -39.4727 -25.5566 -47.6094 -38.459z" />
    <glyph glyph-name="f" unicode="f" horiz-adv-x="195" 
d="M276.359 598.353c-8.01367 -87.9141 -44.4297 -172.783 -84.6768 -250.344c-29.2539 -56.3838 -61.9756 -114.333 -103.312 -162.982c40.4912 9.8125 81.5977 17.1328 122.457 21.2969c11.9336 1.21582 23.0713 -10.877 6.5498 -13.5391
c-44.0723 -7.10156 -87.2461 -15.6807 -130.014 -26.2783c1.59375 -22.248 3.57324 -44.4609 5.94824 -66.6133c3.14941 -29.3848 7.81543 -58.4199 13.1562 -87.4727c4.9873 -27.1514 13.6475 -54.6201 14.4961 -82.0684
c0.388672 -12.5273 -17.876 -16.6768 -27.0811 -17.4863c-12.5166 -1.09961 -26.8643 1.78125 -34.2695 12.7529c-20.583 30.502 -29.0166 70.2402 -36.1641 106.087c-6.86133 34.3936 -11.8281 69.2539 -15.0869 104.175
c-0.254883 2.71875 -0.463867 5.44434 -0.708008 8.16602c-5.37305 -1.7041 -10.749 -3.3623 -16.1182 -5.15137c-10.0986 -3.36133 -29.5645 7.05176 -13.2686 12.9404c9.21191 3.32617 18.5088 6.54297 27.876 9.64258
c-5.00488 62.3926 -6.98438 125.263 -4.31543 187.748c2.63672 61.6934 9.71387 123.928 27.4229 183.273c16.0088 53.6445 38.5684 111.898 82.6865 148.968c35.3018 29.6602 93.6475 57.4053 136.645 27.1045c33.7012 -23.75 31.1172 -73.5801 27.7764 -110.219z
M84.4014 217.987c33.9414 45.2529 61.8594 96.5156 87.0273 146.275c36.4512 72.0674 68.6777 150.865 76.126 231.979c2.9834 32.4707 8.46582 105.234 -39.6396 107.26c-49.4453 2.08203 -68.2148 -65.79 -80.3711 -102.036
c-35.2949 -105.242 -46.292 -219.084 -44.7402 -329.551c0.254883 -17.9707 0.80957 -35.9521 1.59766 -53.9268z" />
    <glyph glyph-name="g" unicode="g" horiz-adv-x="369" 
d="M298.785 229.646c3.62988 -36.8994 4.57031 -74.082 4.41113 -111.141c-0.314453 -70.4492 -5.02246 -141.456 -15.4004 -211.148c-9.08105 -60.9824 -22.5732 -122.58 -44.9482 -180.173c-20.1807 -51.9365 -47.2432 -107.783 -92.291 -142.707
c-37.3174 -28.9287 -113.729 -52.3789 -149.626 -8.4834c-35.2246 43.0791 -12.2979 111.595 -1.44922 159.746c22.8916 101.594 62.1172 198.465 103.973 293.559c-24.7471 -28.4941 -56.2949 -46.4971 -93.3711 -21.792
c-27.1758 18.1084 -35.1895 59.6777 -33.9629 89.8896c1.39648 34.3721 9.54102 68.458 22.2803 100.342c24.9805 62.5127 74.1006 130.939 147.562 135.121c23.6123 1.34277 47.96 -4.18945 65.7012 -19.5166c-0.456055 7.49023 -0.646484 14.9805 -0.399414 22.4639
c0.813477 24.4746 52.3896 22.1279 61.3506 4.7334c17.1436 -33.2764 22.5303 -73.9121 26.1709 -110.894zM75.5127 32.9805c34.793 40.6826 57.5264 92.6768 78.7568 141.273c16.1006 36.8682 31.2471 74.1602 48.667 110.399
c-2.49512 4.66992 -5.51367 9.12695 -9.42676 13.3301c-25.9209 27.8369 -51.9727 4.33398 -70.0459 -18.3311c-32.3047 -40.5127 -57.0098 -87.9141 -69.8447 -138.144c-6.40527 -25.0693 -11.4463 -52.3262 -10.3262 -78.332
c0.526367 -12.248 2.79883 -23.8135 8.42969 -34.7646c3.0293 -5.89648 3.71875 -10.5479 10.3184 -8.3418c4.79004 1.60156 10.2158 9.10645 13.4717 12.9102zM214.552 -20.2041c5.40137 58.3525 7.90625 117.217 7.72949 175.813
c-0.0742188 24.6797 -1.21973 49.2471 -2.80371 73.835c-22.2656 -63.3154 -54.2305 -124.276 -80.9922 -184.817c-41.7881 -94.5283 -81.6924 -191.036 -106.044 -291.739c-6.19629 -25.627 -10.9121 -51.4912 -14.1396 -77.6592
c-3.22363 -26.1504 -9.56836 -62.4736 13.1006 -82.0742c37.084 -32.0605 80.6152 34.5742 95.4297 61.9863c53.627 99.2402 77.416 213.305 87.7197 324.655z" />
    <glyph glyph-name="h" unicode="h" horiz-adv-x="440" 
d="M439.487 182.093c2.55176 9.91504 30.5537 7.91992 27.4854 -4.32422c-10.7246 -42.7109 -21.4629 -85.4648 -35.0684 -127.37c-12.5312 -38.5898 -26.3945 -80.0254 -48.6816 -114.235c-16.3447 -25.0898 -40.9043 -43.0186 -71.1768 -46.415
c-31.7881 -3.56348 -66.3799 14.7363 -81.0811 43.1699c-17.5713 33.9805 -5.94922 74.5566 1.00391 109.897c7.86523 39.9648 18.4023 79.2617 26.7803 119.096c5.25977 25.0156 26.1006 112.113 -27.9717 82.4277c-30.2754 -16.6211 -48.9248 -48.7598 -63.4814 -78.8623
c-30.7002 -63.4854 -45.2461 -132.255 -68.1875 -198.462c2.4248 -12.1602 4.4502 -24.3623 5.27734 -36.6709c0.837891 -12.46 -18.2217 -16.709 -27.0801 -17.4863c-12.2061 -1.07129 -27.2324 1.65723 -34.2705 12.7529
c-20.3887 32.1348 -29.4658 72.2441 -36.6592 109.313c-7.1084 36.6211 -11.8623 73.6514 -15.3408 110.781c-6.91797 73.8135 -9.19824 148.755 -4.7334 222.784c3.90234 64.7051 13.3398 129.933 33.0391 191.834c16.9102 53.1426 41.4414 111.255 89.3486 143.778
c44.1855 29.9932 116.01 38.8057 143.755 -15.4854c12.835 -25.1221 11.1416 -52.0752 9.37109 -79.5234c-1.76367 -27.3203 -5.24219 -54.6055 -9.55859 -81.6328c-17.1787 -107.628 -52.166 -211.367 -87.207 -314.233c30.2578 39.8975 81.7852 77.6709 126.857 40.4951
c26.875 -22.167 29.625 -59.5127 28.5078 -91.8105c-1.38965 -40.251 -7.91504 -79.4629 -14.5781 -119.095c-3.47852 -20.6719 -6.97461 -41.5166 -9.12402 -62.376c-1.64746 -16.0059 -3.78223 -33.998 0.530273 -49.7598
c5.79688 -21.1943 21.4561 -22.873 38.2852 -9.61719c13.8887 10.9404 23.0225 26.5293 30.9824 42.04c35.1787 68.5439 53.874 144.814 72.9766 218.989zM92.2305 76.6514c13.8281 47.1719 30.2695 93.5615 46.166 140.065c33.2305 97.2637 65.5635 195.817 82.792 297.38
c4.1709 24.6025 7.33496 49.2861 8.82324 74.2031c1.55859 26.1152 5.24219 56.9492 -4.62695 81.7354c-25.3662 63.6973 -79.6826 -4.09375 -95.7939 -35.6631c-25.6699 -50.293 -39.7812 -108.752 -49.498 -164.058
c-10.3818 -59.0635 -14.1221 -119.142 -14.0654 -179.057c0.0566406 -60.541 3.40723 -121.333 9.46191 -181.566c2.12109 -21.1025 5.00586 -42.0566 8.29688 -62.9688c2.66211 10.0879 5.55664 20.0811 8.44434 29.9287z" />
    <glyph glyph-name="i" unicode="i" horiz-adv-x="201" 
d="M206.577 195.229c3.97266 8.24316 28.1436 5.71875 23.7529 -3.7373c-26.3096 -56.6484 -51.375 -116.28 -86.8721 -167.948c-13.0537 -19.0029 -28.3271 -39.7383 -50.8545 -47.8721c-20.3994 -7.36621 -44.5947 -4.69043 -61.9297 8.5332
c-20.4912 15.6309 -29.3955 42.7959 -35.9385 66.6914c-8.09082 29.5371 -10.8369 59.9297 -11.5684 90.4531c-0.794922 33.1953 1.32227 66.4648 4.89551 99.4658c3.54492 32.7393 7.53906 66.2812 17.6309 97.7061c7.39844 23.0361 73.6729 21.7852 73.2842 -5.65234
c-0.742188 -52.3398 -13.7891 -104.892 -18.0127 -157.172c-3.99414 -49.4346 -8.40234 -101.375 -2.47754 -150.803c1.13867 -9.50488 2.16016 -19.7168 6.81152 -28.2891c7.27832 -13.4111 19.4385 -4.51367 28.0918 3.33008
c18.2607 16.5498 31.4736 38.752 43.7285 59.8799c25.4609 43.8984 47.4365 89.7305 69.458 135.414zM31.3174 390.614c-22.1807 11.8135 -53.6094 49.7471 -36.3418 76.2295c8.73145 13.3936 31.3545 16.207 43.5322 5.72949
c1.80273 -1.54785 3.36523 -3.41113 4.76172 -5.46875c13.0967 10.3076 28.8018 16.083 44.1289 9.7666c15.3408 -6.32031 10.8164 -19.123 3.0752 -29.8799c-11.0078 -15.2988 -23.1602 -29.7354 -35.9531 -43.5635
c-0.827148 -0.890625 -1.93359 -1.60156 -3.2207 -2.15625c0.477539 -0.526367 0.922852 -0.975586 1.31543 -1.29004c4.60938 -3.71191 -0.0146484 -8.22949 -3.49316 -9.97168c-5.28418 -2.64746 -12.6611 -2.13477 -17.8047 0.604492z" />
    <glyph glyph-name="i" unicode="&#xef;" horiz-adv-x="201" 
d="M206.577 195.229c3.97266 8.24316 28.1436 5.71875 23.7529 -3.7373c-26.3096 -56.6484 -51.375 -116.28 -86.8721 -167.948c-13.0537 -19.0029 -28.3271 -39.7383 -50.8545 -47.8721c-20.3994 -7.36621 -44.5947 -4.69043 -61.9297 8.5332
c-20.4912 15.6309 -29.3955 42.7959 -35.9385 66.6914c-8.09082 29.5371 -10.8369 59.9297 -11.5684 90.4531c-0.794922 33.1953 1.32227 66.4648 4.89551 99.4658c3.54492 32.7393 7.53906 66.2812 17.6309 97.7061c7.39844 23.0361 73.6729 21.7852 73.2842 -5.65234
c-0.742188 -52.3398 -13.7891 -104.892 -18.0127 -157.172c-3.99414 -49.4346 -8.40234 -101.375 -2.47754 -150.803c1.13867 -9.50488 2.16016 -19.7168 6.81152 -28.2891c7.27832 -13.4111 19.4385 -4.51367 28.0918 3.33008
c18.2607 16.5498 31.4736 38.752 43.7285 59.8799c25.4609 43.8984 47.4365 89.7305 69.458 135.414zM31.3174 390.614c-22.1807 11.8135 -53.6094 49.7471 -36.3418 76.2295c8.73145 13.3936 31.3545 16.207 43.5322 5.72949
c1.80273 -1.54785 3.36523 -3.41113 4.76172 -5.46875c13.0967 10.3076 28.8018 16.083 44.1289 9.7666c15.3408 -6.32031 10.8164 -19.123 3.0752 -29.8799c-11.0078 -15.2988 -23.1602 -29.7354 -35.9531 -43.5635
c-0.827148 -0.890625 -1.93359 -1.60156 -3.2207 -2.15625c0.477539 -0.526367 0.922852 -0.975586 1.31543 -1.29004c4.60938 -3.71191 -0.0146484 -8.22949 -3.49316 -9.97168c-5.28418 -2.64746 -12.6611 -2.13477 -17.8047 0.604492z" />
    <glyph glyph-name="i" unicode="&#xee;" horiz-adv-x="201" 
d="M206.577 195.229c3.97266 8.24316 28.1436 5.71875 23.7529 -3.7373c-26.3096 -56.6484 -51.375 -116.28 -86.8721 -167.948c-13.0537 -19.0029 -28.3271 -39.7383 -50.8545 -47.8721c-20.3994 -7.36621 -44.5947 -4.69043 -61.9297 8.5332
c-20.4912 15.6309 -29.3955 42.7959 -35.9385 66.6914c-8.09082 29.5371 -10.8369 59.9297 -11.5684 90.4531c-0.794922 33.1953 1.32227 66.4648 4.89551 99.4658c3.54492 32.7393 7.53906 66.2812 17.6309 97.7061c7.39844 23.0361 73.6729 21.7852 73.2842 -5.65234
c-0.742188 -52.3398 -13.7891 -104.892 -18.0127 -157.172c-3.99414 -49.4346 -8.40234 -101.375 -2.47754 -150.803c1.13867 -9.50488 2.16016 -19.7168 6.81152 -28.2891c7.27832 -13.4111 19.4385 -4.51367 28.0918 3.33008
c18.2607 16.5498 31.4736 38.752 43.7285 59.8799c25.4609 43.8984 47.4365 89.7305 69.458 135.414zM31.3174 390.614c-22.1807 11.8135 -53.6094 49.7471 -36.3418 76.2295c8.73145 13.3936 31.3545 16.207 43.5322 5.72949
c1.80273 -1.54785 3.36523 -3.41113 4.76172 -5.46875c13.0967 10.3076 28.8018 16.083 44.1289 9.7666c15.3408 -6.32031 10.8164 -19.123 3.0752 -29.8799c-11.0078 -15.2988 -23.1602 -29.7354 -35.9531 -43.5635
c-0.827148 -0.890625 -1.93359 -1.60156 -3.2207 -2.15625c0.477539 -0.526367 0.922852 -0.975586 1.31543 -1.29004c4.60938 -3.71191 -0.0146484 -8.22949 -3.49316 -9.97168c-5.28418 -2.64746 -12.6611 -2.13477 -17.8047 0.604492z" />
    <glyph glyph-name="i" unicode="&#xed;" horiz-adv-x="201" 
d="M206.577 195.229c3.97266 8.24316 28.1436 5.71875 23.7529 -3.7373c-26.3096 -56.6484 -51.375 -116.28 -86.8721 -167.948c-13.0537 -19.0029 -28.3271 -39.7383 -50.8545 -47.8721c-20.3994 -7.36621 -44.5947 -4.69043 -61.9297 8.5332
c-20.4912 15.6309 -29.3955 42.7959 -35.9385 66.6914c-8.09082 29.5371 -10.8369 59.9297 -11.5684 90.4531c-0.794922 33.1953 1.32227 66.4648 4.89551 99.4658c3.54492 32.7393 7.53906 66.2812 17.6309 97.7061c7.39844 23.0361 73.6729 21.7852 73.2842 -5.65234
c-0.742188 -52.3398 -13.7891 -104.892 -18.0127 -157.172c-3.99414 -49.4346 -8.40234 -101.375 -2.47754 -150.803c1.13867 -9.50488 2.16016 -19.7168 6.81152 -28.2891c7.27832 -13.4111 19.4385 -4.51367 28.0918 3.33008
c18.2607 16.5498 31.4736 38.752 43.7285 59.8799c25.4609 43.8984 47.4365 89.7305 69.458 135.414zM31.3174 390.614c-22.1807 11.8135 -53.6094 49.7471 -36.3418 76.2295c8.73145 13.3936 31.3545 16.207 43.5322 5.72949
c1.80273 -1.54785 3.36523 -3.41113 4.76172 -5.46875c13.0967 10.3076 28.8018 16.083 44.1289 9.7666c15.3408 -6.32031 10.8164 -19.123 3.0752 -29.8799c-11.0078 -15.2988 -23.1602 -29.7354 -35.9531 -43.5635
c-0.827148 -0.890625 -1.93359 -1.60156 -3.2207 -2.15625c0.477539 -0.526367 0.922852 -0.975586 1.31543 -1.29004c4.60938 -3.71191 -0.0146484 -8.22949 -3.49316 -9.97168c-5.28418 -2.64746 -12.6611 -2.13477 -17.8047 0.604492z" />
    <glyph glyph-name="j" unicode="j" horiz-adv-x="156" 
d="M85.5527 229.646c3.43555 -35.7969 4.55762 -71.8242 4.44434 -107.776c-0.226562 -70.5127 -4.79395 -141.598 -14.9844 -211.386c-8.75586 -59.9648 -21.6406 -120.675 -43.3271 -177.401c-19.4414 -50.8516 -45.0547 -105.348 -87.002 -141.707
c-35.2451 -30.5479 -107.822 -57.9316 -148.017 -20.8691c-43.0332 39.6855 -23.585 103.479 -12.8955 153.277c38.501 179.36 132.594 334.769 223.29 491.237c-0.597656 10.4521 -1.26172 20.9014 -2.03223 31.3613c-2.18457 29.71 -8.1582 59.668 -7.0166 89.4238
c0.94043 24.5107 52.3047 22.1035 61.3506 4.7334c17.2637 -33.1562 22.6475 -73.9688 26.1895 -110.894zM1.86426 -13.8809c5.06152 57.3916 7.42188 115.256 7.11035 172.862c-0.0175781 3.33691 -0.116211 6.66699 -0.172852 10.0039
c-29.0488 -48.8691 -58.0518 -97.7275 -84.1104 -148.396c-46.9814 -91.3506 -87.833 -187.706 -110.138 -288.285c-5.55273 -25.0547 -9.58203 -50.4209 -11.9893 -75.9736c-2.18066 -23.1533 -1.52344 -67.1016 28.9541 -72.9268
c20.0176 -3.82422 38.2568 13.1357 50.9434 26.3311c15.8535 16.4902 27.5605 36.416 37.582 56.8682c48.8721 99.7598 72.1133 209.48 81.8203 319.516zM21.8242 393.629c-32.3047 -0.477539 -82.2344 35.6719 -65.4082 72.7666c8.06641 17.791 35.334 18.876 50.29 9.8623
c4.0791 -2.45703 7.21777 -5.57812 9.77344 -9.10547c13.5557 10.958 30.6045 16.8857 47.6846 12.1348c43.2656 -12.0361 -10.4492 -60.9824 -23.21 -77.0088c-1.73535 -2.17773 -4.53809 -3.69043 -7.85742 -4.60547
c-1.79883 -2.25195 -5.50684 -3.95898 -11.2725 -4.04395z" />
    <glyph glyph-name="k" unicode="k" horiz-adv-x="361" 
d="M363.312 193.57c5.9209 8.69238 33.0957 4.80176 26.9414 -4.22266c-26.7939 -39.4023 -46.1436 -82.8418 -65.2178 -126.331c-17.8936 -40.7949 -35.0264 -84.8564 -61.1738 -121.233c-25.6416 -35.6729 -76.4902 -37.3135 -109.76 -9.8125
c-16.6494 13.7646 -21.4141 32.5273 -25.8223 52.7744c-1.87012 8.58594 -11.1592 72.3076 -21.0244 71.2119c-3.2168 -0.357422 -6.3418 0.296875 -8.9043 1.46289c-4.53906 -12.7607 -8.00293 -25.8145 -9.85547 -39.1084
c0.155273 -0.894531 0.299805 -1.78516 0.455078 -2.67969c4.93066 -28.3633 13.6367 -56.5498 15.3867 -85.2773c0.759766 -12.4707 -18.1621 -16.7021 -27.0801 -17.4873c-12.2588 -1.07812 -27.1689 1.67871 -34.2705 12.7529
c-19.9932 31.1738 -28.791 70.0674 -36.0547 106.087c-6.93555 34.3936 -11.541 69.2754 -15.04 104.175c-7.08398 70.6641 -9.67871 142.386 -6.63867 213.347c2.64062 61.6611 9.95801 123.785 26.1123 183.471c14.5527 53.7607 35.1357 111.262 75.1709 151.693
c34.252 34.5918 104.228 61.9688 146.504 26.1221c41.958 -35.5742 29.6855 -97.1367 24.4014 -145.461c-14.8145 -135.43 -61.9092 -260.962 -115.84 -384.048c23.8213 26.8076 55.3945 48.9961 92.4707 40.7988c20.8096 -4.60254 37.0381 -20.6367 32.8457 -43.083
c-4.39746 -23.5488 -22.9268 -44.1074 -39.2119 -60.6543c-26.5469 -26.9746 -59.0918 -47.0029 -95.3486 -54.7861c22.9307 -11.9473 41.7715 -37.7549 49.9902 -58.9316c7.3877 -19.0283 8.63867 -40.0498 23.8877 -55.0234
c5.7832 -5.67676 13.7891 -13.6553 21.2617 -9.9541c8.07031 3.99805 14.1006 17.126 18.668 24.5244c45.3018 73.3965 68.4121 158.087 117.146 229.674zM76.667 98.6553c24.252 51.8379 48.4785 103.648 69.5527 156.988c38.1406 96.5322 69.3281 197.334 81.3008 300.741
c2.89844 25.0615 4.25977 50.2646 4.08691 75.5c-0.144531 21.2305 -5.48926 65.4795 -34.7471 67.1582c-19.9111 1.14551 -37.5039 -18.7559 -48.543 -32.7432c-14.1143 -17.8857 -23.9336 -39.3389 -31.9863 -60.5303
c-40.3076 -106.101 -51.7783 -221.116 -50.1807 -333.852c0.813477 -57.377 4.19629 -114.974 10.3682 -172.025c0.0419922 -0.414062 0.102539 -0.824219 0.148438 -1.2373zM106.001 76.5605c37.0205 1.80273 69.417 21.5156 95.6387 47.4297
c13.3438 13.1885 27.3096 28.0986 34.5557 45.6523c4.31934 10.4629 7.17871 23.2803 -2.07227 32.2871c-9.65332 9.39941 -25.7188 5.05859 -36.3799 -0.554688c-31.9932 -16.8506 -53.8486 -52.6055 -70.791 -83.2207
c-7.40527 -13.376 -14.6729 -27.2744 -20.9512 -41.5938z" />
    <glyph glyph-name="l" unicode="l" horiz-adv-x="290" 
d="M294.809 192.747c2.3291 8.57227 26.5889 6.77637 23.7578 -3.73242c-15.875 -58.876 -40.4521 -117.773 -74.0859 -168.738c-27.0205 -40.9404 -71.0469 -90.1172 -126.147 -74.8818c-31.5342 8.7207 -54.7646 33.3623 -72.0781 59.8525
c-22.4395 34.3301 -39.042 72.375 -49.0947 112.057c-20.7744 82.0107 -18.4561 168.059 -10.0039 251.643c8.3877 82.9199 22.5479 168.477 58.2852 244.454c17.25 36.6699 41.9473 69.4131 75.2314 92.8311c31.7744 22.3545 80.3818 37.7588 116.999 17.1299
c51.7881 -29.1768 45.8252 -108.229 39.1055 -158.12c-8.11914 -60.29 -27.6777 -118.3 -51.9658 -173.878c-43.1992 -98.8477 -103.192 -187.423 -156.108 -280.852c0.321289 -2.08203 0.618164 -4.16406 0.960938 -6.24219
c5.38672 -32.708 10.6924 -65.6738 23.3965 -96.5225c9.79492 -23.7891 26.0654 -57.6133 57.3096 -48.6807c43.5947 12.4639 73.1143 66.4902 92.6475 103.394c21.8164 41.2197 39.5645 85.2568 51.791 130.287zM64.8057 324.729
c-5.15332 -56.5254 -6.55371 -114.06 -1.40723 -170.811c45.751 78.0488 94.1953 154.149 130.837 237.458c22.5693 51.3145 41.8379 104.99 50.4873 160.564c3.88867 24.9873 5.0127 50.5967 2.82422 75.8066c-2.22363 25.6201 -8.97168 61.6113 -37.25 70.4131
c-25.9736 8.08105 -51.7422 -35.3652 -62.958 -53.4814c-18.4092 -29.7275 -31.4062 -62.9971 -42.0635 -96.1748c-23.2764 -72.457 -33.5771 -148.19 -40.4697 -223.775z" />
    <glyph glyph-name="m" unicode="m" horiz-adv-x="556" 
d="M558.056 180.308c3.28418 9.2998 29.7334 6.94922 25.873 -4.05859c-21.417 -61.1562 -46.9414 -123.062 -91.1299 -171.602c-17.0586 -18.7344 -37.0371 -36.1152 -63.166 -38.9717c-25.3486 -2.77148 -52.333 7.5752 -68.8438 26.9355
c-44.3232 51.9648 -17.1543 127.971 -8.09766 188.342c4.94141 32.9404 8.64941 65.9736 9.84375 99.2783c0.272461 7.67383 1.01465 15.8779 0.113281 23.5381c-1.50195 12.7646 -11.502 17.5928 -23.4492 10.4453c-11.9443 -7.14746 -21.9336 -19.1025 -30.6924 -29.7178
c-33.3896 -40.4668 -52.4424 -90.5586 -68.582 -140.194c-0.512695 -11.1523 -0.947266 -22.3154 -1.06055 -33.4893c-0.272461 -26.4121 -67.7871 -25.4258 -66.334 0c2.69336 47.2354 11.7354 93.877 13.9521 141.141
c0.505859 10.7529 0.707031 21.5098 0.0390625 32.2588c-0.338867 5.46875 0.414062 28.6992 -3.67969 32.5625c-6.11914 5.77246 -15.999 0.94043 -20.6299 -3.35742c-3.42871 -3.18457 -6.70508 -6.50684 -9.85059 -9.9707
c-7.03418 -7.75586 -13.2803 -16.2148 -18.9072 -25.0342c-37.3203 -58.4941 -58.3838 -128.477 -66.8145 -198.229c2.46387 -23.2383 7.52246 -48.0811 2.74707 -71.0469c-4.35449 -20.9258 -42.7422 -19.3135 -52.6719 -4.06055
c-14.708 22.5977 -18.9004 51.834 -23.2803 78.0371c-4.14648 24.8076 -6.83691 49.6357 -8.36035 74.7402c-3.16016 52.0107 -3.52734 105.185 4.77637 156.74c4.66211 28.9287 76.7158 29.3984 75.1709 -0.000976562
c-2.41406 -45.9775 -5.5957 -91.6543 -4.68066 -137.656c1.18457 3.7998 2.39746 7.58887 3.66309 11.3643c15.8574 47.2988 37.1367 98.3838 74.3828 133.05c15.0654 14.0195 34.1816 24.5674 54.9277 16.1338c22.9053 -9.31055 33.4951 -30.459 39.667 -52.916
c5.52539 -20.1133 7.93652 -40.3291 8.75684 -60.6191c12.8984 27.9785 28.876 54.3662 49.7881 77.4805c16.8438 18.6211 37.2471 35.1182 63.7754 33.3154c24.6025 -1.67188 39.3604 -20.8906 49.4414 -41.75c29.332 -60.6895 13.6338 -132.99 7.32422 -196.984
c-1.73242 -17.5605 -2.99414 -35.2061 -4.08984 -52.8164c-0.833984 -13.4355 -3.91992 -28.6104 1.49219 -41.3848c7.24609 -17.1016 16.7617 -21.1348 33.0576 -11.4561c13.0537 7.75586 23.7217 19.7529 33.5205 31.1885
c39.1943 45.7471 62.1709 102.601 82.0078 158.766z" />
    <glyph glyph-name="n" unicode="n" horiz-adv-x="374" 
d="M375.605 177.787c4.59863 9.24316 31.96 6.51953 26.9551 -4.2334c-17.1758 -36.8789 -33.9521 -73.8779 -49.583 -111.442c-11.7148 -28.1543 -24.7725 -60.0098 -51.7568 -77.0127c-22.9229 -14.4434 -49.8193 -12.7217 -73.3047 -0.480469
c-28.8975 15.0586 -42.3047 45.9209 -42.6904 77.4404c-0.859375 69.668 20.4912 137.628 20.3955 207.469c-0.0175781 13.874 0.947266 33.3047 -6.34863 45.7471c-12.8066 21.835 -33.3369 3.54199 -44.5879 -9.3457
c-22.3262 -25.5742 -37.3809 -57.6035 -50.9619 -88.4375c-19.6182 -44.5459 -33.6729 -90.7568 -43.5488 -138.07c0.794922 -25.1182 1.02832 -50.2051 -0.99707 -75.1533c-1.53809 -18.9287 -43.8711 -19.7031 -50.2305 -3.87402
c-21.5908 53.7607 -25.0059 114.241 -24.9424 171.738c0.0634766 58.5156 5.13281 115.956 18.5859 172.938c5.19922 22.0215 71.4561 19.6641 68.6738 -5.29883c-6.2002 -55.6943 -12.5908 -111.555 -13.4316 -167.642
c-0.00390625 -0.126953 -0.00390625 -0.253906 -0.00390625 -0.380859c7.98145 22.8662 17.165 45.2949 27.4551 67.1084c18.9678 40.2119 57.2529 121.237 114.905 101.475c23.5918 -8.08789 39.5439 -36.1865 48.6602 -57.791
c13.5879 -32.1982 16.6494 -67.3594 16.2568 -101.986c-0.410156 -36.2529 -4.27734 -72.3291 -4.56348 -108.6c-0.124023 -15.5889 -0.880859 -31.5801 0.40918 -47.126c0.986328 -11.873 0.823242 -37.1934 18.0127 -27.0518
c28.0732 16.5605 39.123 53.0713 51.2295 81.2441c14.3018 33.2842 29.2646 66.335 45.4121 98.7666z" />
    <glyph glyph-name="o" unicode="o" horiz-adv-x="270" 
d="M279.822 198.714c7.52539 5.35156 29.7754 -1.42871 17.8135 -10.1455c-33.4287 -24.3623 -70.1729 -45.6953 -109.006 -61.1885c-4.75781 -36.5361 -15.9561 -72.0469 -38.4873 -101.863c-27.3916 -36.2422 -74.6631 -63.2412 -120.92 -49.9004
c-54.0293 15.5811 -57.4473 71.6572 -51.4482 118.847c1.19434 9.39551 2.63965 18.7773 4.27246 28.1406c-7.50781 4.13574 -14.6445 8.96387 -21.2793 14.5908c-81.6367 69.2256 -10.085 214.032 80.1445 235.99c114.817 27.9424 151.039 -113.361 150.682 -199.145
c-0.0390625 -8.81934 -0.357422 -17.6953 -0.975586 -26.5605c31.4277 13.8428 61.2334 31.3477 89.2041 51.2344zM146.459 72.7363c5.61328 14.1465 9.54883 28.9346 12.2109 44.0176c-10.5938 -3.27637 -21.3047 -6.11523 -32.1279 -8.40234
c-26.458 -5.58887 -55.7227 -7.83008 -83.9238 -4.39062c-5.58887 -27.1406 -25.7793 -102.739 16.2812 -111.777c21.5098 -4.62305 44.3584 16.3701 57.6279 31.0117c13.0254 14.3691 22.7988 31.5664 29.9316 49.541zM161.377 135.912
c2.37207 22.3154 2.27441 44.9785 0.744141 66.9648c-2.8877 41.6436 -12.4951 86.0088 -36.6699 120.858c-11.9727 17.2568 -29.5547 33.7578 -51.3398 36.1328c-21.1592 2.30859 -41.707 -8.54004 -56.9248 -22.3506
c-48.6885 -44.1885 -70.3428 -132.039 -28.5791 -182.057c8.5293 37.9707 20.0742 75.4189 33.2129 111.715c8.47656 23.415 74.457 18.3535 65.8281 -10.3418c-13.4961 -44.8848 -29.9189 -88.8828 -40.9082 -134.475c37.1152 -8.05273 76.543 0.275391 112.039 12.5908
c0.873047 0.300781 1.72852 0.654297 2.59766 0.961914z" />
    <glyph glyph-name="o" unicode="&#xf6;" horiz-adv-x="270" 
d="M279.822 198.714c7.52539 5.35156 29.7754 -1.42871 17.8135 -10.1455c-33.4287 -24.3623 -70.1729 -45.6953 -109.006 -61.1885c-4.75781 -36.5361 -15.9561 -72.0469 -38.4873 -101.863c-27.3916 -36.2422 -74.6631 -63.2412 -120.92 -49.9004
c-54.0293 15.5811 -57.4473 71.6572 -51.4482 118.847c1.19434 9.39551 2.63965 18.7773 4.27246 28.1406c-7.50781 4.13574 -14.6445 8.96387 -21.2793 14.5908c-81.6367 69.2256 -10.085 214.032 80.1445 235.99c114.817 27.9424 151.039 -113.361 150.682 -199.145
c-0.0390625 -8.81934 -0.357422 -17.6953 -0.975586 -26.5605c31.4277 13.8428 61.2334 31.3477 89.2041 51.2344zM146.459 72.7363c5.61328 14.1465 9.54883 28.9346 12.2109 44.0176c-10.5938 -3.27637 -21.3047 -6.11523 -32.1279 -8.40234
c-26.458 -5.58887 -55.7227 -7.83008 -83.9238 -4.39062c-5.58887 -27.1406 -25.7793 -102.739 16.2812 -111.777c21.5098 -4.62305 44.3584 16.3701 57.6279 31.0117c13.0254 14.3691 22.7988 31.5664 29.9316 49.541zM161.377 135.912
c2.37207 22.3154 2.27441 44.9785 0.744141 66.9648c-2.8877 41.6436 -12.4951 86.0088 -36.6699 120.858c-11.9727 17.2568 -29.5547 33.7578 -51.3398 36.1328c-21.1592 2.30859 -41.707 -8.54004 -56.9248 -22.3506
c-48.6885 -44.1885 -70.3428 -132.039 -28.5791 -182.057c8.5293 37.9707 20.0742 75.4189 33.2129 111.715c8.47656 23.415 74.457 18.3535 65.8281 -10.3418c-13.4961 -44.8848 -29.9189 -88.8828 -40.9082 -134.475c37.1152 -8.05273 76.543 0.275391 112.039 12.5908
c0.873047 0.300781 1.72852 0.654297 2.59766 0.961914z" />
    <glyph glyph-name="o" unicode="&#xf5;" horiz-adv-x="270" 
d="M279.822 198.714c7.52539 5.35156 29.7754 -1.42871 17.8135 -10.1455c-33.4287 -24.3623 -70.1729 -45.6953 -109.006 -61.1885c-4.75781 -36.5361 -15.9561 -72.0469 -38.4873 -101.863c-27.3916 -36.2422 -74.6631 -63.2412 -120.92 -49.9004
c-54.0293 15.5811 -57.4473 71.6572 -51.4482 118.847c1.19434 9.39551 2.63965 18.7773 4.27246 28.1406c-7.50781 4.13574 -14.6445 8.96387 -21.2793 14.5908c-81.6367 69.2256 -10.085 214.032 80.1445 235.99c114.817 27.9424 151.039 -113.361 150.682 -199.145
c-0.0390625 -8.81934 -0.357422 -17.6953 -0.975586 -26.5605c31.4277 13.8428 61.2334 31.3477 89.2041 51.2344zM146.459 72.7363c5.61328 14.1465 9.54883 28.9346 12.2109 44.0176c-10.5938 -3.27637 -21.3047 -6.11523 -32.1279 -8.40234
c-26.458 -5.58887 -55.7227 -7.83008 -83.9238 -4.39062c-5.58887 -27.1406 -25.7793 -102.739 16.2812 -111.777c21.5098 -4.62305 44.3584 16.3701 57.6279 31.0117c13.0254 14.3691 22.7988 31.5664 29.9316 49.541zM161.377 135.912
c2.37207 22.3154 2.27441 44.9785 0.744141 66.9648c-2.8877 41.6436 -12.4951 86.0088 -36.6699 120.858c-11.9727 17.2568 -29.5547 33.7578 -51.3398 36.1328c-21.1592 2.30859 -41.707 -8.54004 -56.9248 -22.3506
c-48.6885 -44.1885 -70.3428 -132.039 -28.5791 -182.057c8.5293 37.9707 20.0742 75.4189 33.2129 111.715c8.47656 23.415 74.457 18.3535 65.8281 -10.3418c-13.4961 -44.8848 -29.9189 -88.8828 -40.9082 -134.475c37.1152 -8.05273 76.543 0.275391 112.039 12.5908
c0.873047 0.300781 1.72852 0.654297 2.59766 0.961914z" />
    <glyph glyph-name="o" unicode="&#xf4;" horiz-adv-x="270" 
d="M279.822 198.714c7.52539 5.35156 29.7754 -1.42871 17.8135 -10.1455c-33.4287 -24.3623 -70.1729 -45.6953 -109.006 -61.1885c-4.75781 -36.5361 -15.9561 -72.0469 -38.4873 -101.863c-27.3916 -36.2422 -74.6631 -63.2412 -120.92 -49.9004
c-54.0293 15.5811 -57.4473 71.6572 -51.4482 118.847c1.19434 9.39551 2.63965 18.7773 4.27246 28.1406c-7.50781 4.13574 -14.6445 8.96387 -21.2793 14.5908c-81.6367 69.2256 -10.085 214.032 80.1445 235.99c114.817 27.9424 151.039 -113.361 150.682 -199.145
c-0.0390625 -8.81934 -0.357422 -17.6953 -0.975586 -26.5605c31.4277 13.8428 61.2334 31.3477 89.2041 51.2344zM146.459 72.7363c5.61328 14.1465 9.54883 28.9346 12.2109 44.0176c-10.5938 -3.27637 -21.3047 -6.11523 -32.1279 -8.40234
c-26.458 -5.58887 -55.7227 -7.83008 -83.9238 -4.39062c-5.58887 -27.1406 -25.7793 -102.739 16.2812 -111.777c21.5098 -4.62305 44.3584 16.3701 57.6279 31.0117c13.0254 14.3691 22.7988 31.5664 29.9316 49.541zM161.377 135.912
c2.37207 22.3154 2.27441 44.9785 0.744141 66.9648c-2.8877 41.6436 -12.4951 86.0088 -36.6699 120.858c-11.9727 17.2568 -29.5547 33.7578 -51.3398 36.1328c-21.1592 2.30859 -41.707 -8.54004 -56.9248 -22.3506
c-48.6885 -44.1885 -70.3428 -132.039 -28.5791 -182.057c8.5293 37.9707 20.0742 75.4189 33.2129 111.715c8.47656 23.415 74.457 18.3535 65.8281 -10.3418c-13.4961 -44.8848 -29.9189 -88.8828 -40.9082 -134.475c37.1152 -8.05273 76.543 0.275391 112.039 12.5908
c0.873047 0.300781 1.72852 0.654297 2.59766 0.961914z" />
    <glyph glyph-name="o" unicode="&#xf3;" horiz-adv-x="270" 
d="M279.822 198.714c7.52539 5.35156 29.7754 -1.42871 17.8135 -10.1455c-33.4287 -24.3623 -70.1729 -45.6953 -109.006 -61.1885c-4.75781 -36.5361 -15.9561 -72.0469 -38.4873 -101.863c-27.3916 -36.2422 -74.6631 -63.2412 -120.92 -49.9004
c-54.0293 15.5811 -57.4473 71.6572 -51.4482 118.847c1.19434 9.39551 2.63965 18.7773 4.27246 28.1406c-7.50781 4.13574 -14.6445 8.96387 -21.2793 14.5908c-81.6367 69.2256 -10.085 214.032 80.1445 235.99c114.817 27.9424 151.039 -113.361 150.682 -199.145
c-0.0390625 -8.81934 -0.357422 -17.6953 -0.975586 -26.5605c31.4277 13.8428 61.2334 31.3477 89.2041 51.2344zM146.459 72.7363c5.61328 14.1465 9.54883 28.9346 12.2109 44.0176c-10.5938 -3.27637 -21.3047 -6.11523 -32.1279 -8.40234
c-26.458 -5.58887 -55.7227 -7.83008 -83.9238 -4.39062c-5.58887 -27.1406 -25.7793 -102.739 16.2812 -111.777c21.5098 -4.62305 44.3584 16.3701 57.6279 31.0117c13.0254 14.3691 22.7988 31.5664 29.9316 49.541zM161.377 135.912
c2.37207 22.3154 2.27441 44.9785 0.744141 66.9648c-2.8877 41.6436 -12.4951 86.0088 -36.6699 120.858c-11.9727 17.2568 -29.5547 33.7578 -51.3398 36.1328c-21.1592 2.30859 -41.707 -8.54004 -56.9248 -22.3506
c-48.6885 -44.1885 -70.3428 -132.039 -28.5791 -182.057c8.5293 37.9707 20.0742 75.4189 33.2129 111.715c8.47656 23.415 74.457 18.3535 65.8281 -10.3418c-13.4961 -44.8848 -29.9189 -88.8828 -40.9082 -134.475c37.1152 -8.05273 76.543 0.275391 112.039 12.5908
c0.873047 0.300781 1.72852 0.654297 2.59766 0.961914z" />
    <glyph glyph-name="p" unicode="p" horiz-adv-x="333" 
d="M343.386 188.396c10.9365 3.77539 31.6846 -7.80566 14.2441 -13.8926c-30.1377 -10.5127 -60.3389 -16.5498 -91.2012 -20.5371c-1.30762 -5.37598 -2.76758 -10.7314 -4.41113 -16.0547c-13.1104 -42.4814 -39.2891 -90.7383 -82.7041 -107.896
c-44.0576 -17.4092 -101.021 0.96875 -88.7236 56.0166c9.99609 44.7363 53.6299 68.6846 95.4434 75.9912c6.99902 1.22266 14.0439 2.06348 21.1064 2.73828c5.50391 17.6172 9.36035 35.7471 11.3682 54.1992c3.87793 35.6377 3.6377 78.9678 -10.876 112.436
c-4.29102 9.89355 -10.7988 20.5088 -21.8906 23.6162c-14.5244 4.06836 -26.5674 -9.24023 -33.9307 -19.9688c-9.68555 -14.1074 -15.2354 -30.8027 -20.5977 -46.9004c-51.5586 -154.782 -53.7471 -320.151 -53.6484 -481.937
c3.30176 -16.2217 6.54688 -32.6484 3.96289 -48.7773c-2.4248 -15.1396 -30.2119 -14.8564 -38.9043 -6.00488c-31.9404 32.5205 -41.3184 86.8828 -48.6035 130.442c-7.80859 46.6631 -9.68164 94.5205 -9.94629 141.773c-0.5625 100.099 1.79883 202.131 20.8232 300.692
c4.96289 25.7158 69.7383 25.5605 66.8857 0c-9.55469 -85.6201 -12.998 -171.166 -12.6094 -257.15c2.45312 25.7266 5.57129 51.4033 9.61914 76.9922c8.27539 52.3086 20.1387 104.334 37.3174 154.468c13.0791 38.1758 38.3457 81.6436 85.6914 72.5625
c43.8984 -8.41992 64.5732 -55.2842 74.4004 -93.9941c8.97461 -35.3584 9.96387 -71.4912 3.66113 -106.889c25.0723 3.63379 49.54 9.79883 73.5234 18.0742zM184.099 110.643c6.48633 11.8203 12.1133 24.0527 16.9238 36.584
c-15.0088 -2.08887 -29.8193 -5.71875 -42.8594 -13.499c-18.4414 -11.0039 -41.1631 -37.7803 -31.4141 -60.8701c1.33301 -3.15625 8.57617 -14.7012 10.4854 -15.0508c4.50293 -0.827148 15.4648 10.4844 18.0273 12.9482
c11.9121 11.4531 20.9258 25.4727 28.8369 39.8877z" />
    <glyph glyph-name="q" unicode="q" horiz-adv-x="421" 
d="M428.828 196.529c6.19336 6.32422 30.0039 1.69141 21.5137 -7.15625c-33.1641 -34.5742 -71.5801 -63.0645 -109.891 -91.5908c-18.7949 -13.998 -37.5361 -28.1016 -55.4648 -43.209c-7.95703 -6.70508 -19.7842 -14.5029 -25.6807 -23.0752
c-9.63281 -13.998 7.23535 -22.3828 17.2705 -28.6357c62.3789 -38.8584 94.542 -113.128 78.4268 -185.101c-6.66699 -29.7705 -22.4785 -71.248 -54.2852 -82.3086c-38.1016 -13.252 -71.124 18.5967 -86.5674 50.0244c-39.459 80.293 -41.9541 178.292 -39.5254 265.796
c1.26172 45.5674 2.8877 91.1309 4.76465 136.677c0.208984 5.06934 0.389648 10.1484 0.566406 15.2314c-9.47656 -36.9639 -19.1865 -73.8535 -32.3145 -109.725c-17.8223 -48.7129 -54.9766 -140.473 -123.831 -100.717
c-28.833 16.6494 -41.5264 55.5889 -44.5908 86.6035c-3.41797 34.6055 0.583008 68.957 9.03516 102.562c16.5283 65.7158 56.9697 141.598 131.872 150.487c23.3936 2.77441 47.5645 -1.09668 66.2744 -14.7627c0.597656 5.16406 1.23047 10.3252 1.97656 15.4688
c4.12891 28.4521 72.0684 29.417 73.79 0c2.8916 -49.4023 -1.50195 -99.2393 -3.74316 -148.606c-1.97559 -43.5527 -4.56641 -87.0771 -6.65918 -130.622c57.2148 49.8906 123.736 88.1836 177.062 142.658zM88.5986 28.8281
c47.8115 80.0068 62.3203 174.996 90.0654 263.504c-2.91602 3.86328 -6.19629 7.50391 -10.0205 10.8018c-29.3428 25.292 -52.9619 -5.48535 -67.1475 -29.7197c-27.3311 -46.6982 -45.7158 -97.6699 -51.2373 -151.544
c-2.53418 -24.7539 -4.10059 -51.7744 0.727539 -76.3623c2.14258 -10.9082 6.05957 -24.0117 13.7939 -32.3359c4.55664 -4.90234 4.88184 -6.40137 10.8135 -1.72852c5.55273 4.37305 9.42383 11.3936 13.0049 17.3848zM320.976 -87.1973
c-12.6367 33.4355 -35.8682 61.4248 -66.0977 80.3643c-1.79199 1.12402 -3.67285 2.26953 -5.56055 3.4541c-0.887695 -25.7969 -1.38965 -51.6006 -1.03223 -77.4297c0.558594 -40.502 2.83105 -84.0928 15.3232 -122.901
c3.02539 -9.3916 6.67676 -19.1689 11.4951 -27.8154c1.79883 -3.23047 3.92676 -6.98438 6.5957 -9.65625c5.37305 -5.37305 4.6377 -5.2207 10.7568 -2.38574c13.6865 6.34473 22.8809 31.0068 27.9355 44.291c13.6094 35.7373 14.1289 76.2432 0.583984 112.079z" />
    <glyph glyph-name="r" unicode="r" horiz-adv-x="341" 
d="M343.44 177.992c2.09961 9.79492 26.4277 8.68066 24.6357 0.00292969c-12.5273 -60.5088 -26.3203 -120.986 -47.0908 -179.279c-17.4053 -48.8516 -39.2783 -102.687 -73.5059 -142.421c-32.1982 -37.3838 -86.291 -42.3965 -120.512 -4.49316
c-36.7764 40.7354 -49.6963 99.8232 -52.0186 153.093c-2.58398 59.2041 4.87793 118.907 11.2764 177.748c-44.2803 -14.6445 -92.8838 -13.2979 -123.375 29.3564c-36.3623 50.8691 -18.3525 124.627 18.4727 169.71c32.0645 39.2471 105.762 49.6504 117.837 -11.5762
c11.5234 -58.4414 -21.8525 -125.43 -57.833 -169.109c-0.423828 -0.519531 -0.950195 -0.97168 -1.54395 -1.37109c17.7451 -10.3076 37.6709 -3.68652 55.4229 4.00488c20.8027 16.5713 73.4111 11.7607 72.4814 -13.9404
c-2.38574 -65.9062 -16.3164 -131.053 -13.9199 -197.228c0.837891 -23.1318 9.71777 -164.302 52.9062 -143.514c25.0049 12.0361 40.876 48.3779 53.2051 71.5947c13.5449 25.5107 25.0547 52.0674 35.04 79.1582c21.3359 57.8857 35.6162 118.03 48.5215 178.264z
M10.3076 242.441c2.55566 -9.49121 6.81543 -19.0635 12.7822 -27.2568c25.6699 32.5273 43.8457 71.3398 50.4668 112.372c3.0752 19.0566 3.99805 41.5205 -7.21094 58.3213c-17.2148 25.8115 -32.6406 -8.7168 -39.5127 -23.7119
c-16.3486 -35.6807 -26.9492 -81.0215 -16.5254 -119.725z" />
    <glyph glyph-name="s" unicode="s" horiz-adv-x="283" 
d="M312.202 195.674c-47.8438 -39.4307 -97.5957 -81.8594 -135.8 -131.969c7.71973 -7.2002 15.1748 -14.5029 22.1309 -22.0146c30.3848 -32.8105 58.667 -77.8232 50.9326 -124.652c-6.37012 -38.5576 -33.0752 -72.4248 -71.0254 -84.0967
c-37.7734 -11.6152 -74.3301 0.40625 -86.9277 40.0068c-13.8916 43.666 -0.183594 91.1562 19.0068 131.001c4.29102 8.9082 9.02441 17.5225 14.0264 25.9561c-15.3906 13.7998 -31.8027 26.6064 -47.5713 39.5225c-33.4326 27.3809 -66.8896 58.7598 -86.7832 97.7979
c-44.3691 87.0557 14.0967 182.326 102.34 208.123c34.7646 10.1621 76.9805 10.4521 107.225 -12.0225c38.4873 -28.6006 31.6719 -79.1875 22.2236 -120.047c-2.6543 -11.4668 -31.0742 -9.92871 -28.7764 0.000976562c6.50781 28.1367 14.0439 60.3174 0.947266 87.7939
c-11.4561 24.0332 -36.6631 35.3555 -62.5664 32.4814c-54.4893 -6.04785 -85.3662 -58.6143 -85.8721 -109.396c-0.791992 -79.4346 59.1758 -126.61 113.548 -174.906c37.957 46.5254 85.0234 86.1826 131.195 123.666c6.85059 5.56055 30.9619 0.34668 21.7471 -7.24609z
M177.403 -34.9307c-8.89746 17.5889 -20.8066 32.8975 -34.2461 46.9131c-8.31348 -15.8223 -15.3623 -32.376 -20.7852 -49.7959c-7.49023 -24.0615 -11.2305 -50.4912 -5.99219 -75.4297c5.00195 -23.8145 24.1602 -56.8301 51.5723 -34.4727
c33.1211 27.0127 26.3975 79.2822 9.45117 112.785z" />
    <glyph glyph-name="t" unicode="t" horiz-adv-x="241" 
d="M244.156 199.205c2.45996 8.57227 26.5146 6.77344 23.7539 -3.74219c-15.3623 -58.3672 -31.916 -121.859 -69.9219 -170.109c-27.6035 -35.041 -75.9707 -60.3965 -120.602 -43.7295c-50.7568 18.9541 -70.4951 80.0215 -81.3359 127.933
c-13.5811 60.0244 -14.7402 123.654 -13.6299 184.927c0.597656 32.9941 1.87402 66.0234 4.32031 98.9502c-22.792 -3.15625 -48.2246 0.538086 -59.1719 23.2383c-4.62012 9.58301 20.1982 12.2168 24.2881 3.81836c7.04102 -14.4609 21.3467 -15.2666 36.0723 -12.2021
c2.14941 25.0371 5.00879 50 8.89746 74.8252c4.49316 28.6992 75.1895 29.71 74.8965 0c-0.172852 -17.2783 -0.688477 -34.5703 -1.3916 -51.8701c24.5957 4.90625 57.6641 5.27051 69.1738 -21.8486c4.35449 -10.2686 -21.3652 -12.8066 -25.0869 -3.94141
c-7.25391 17.2852 -27.1514 15.1328 -44.7549 10.584c-5.15332 -110.866 -16.4082 -222.021 5.62402 -332.046c5.03711 -25.1533 9.84766 -54.7891 26.3662 -75.3867c22.2373 -27.7305 54.6299 2.62305 70.8936 22.3193c38.3848 46.4932 55.292 111.452 71.6084 168.281z
" />
    <glyph glyph-name="u" unicode="u" horiz-adv-x="405" 
d="M409.74 195.229c3.97656 8.24316 28.1426 5.7168 23.752 -3.73926c-26.3096 -56.6484 -51.375 -116.28 -86.8721 -167.948c-13.0537 -19.0029 -28.3242 -39.7383 -50.8555 -47.8721c-20.3994 -7.36621 -44.5947 -4.69043 -61.9297 8.5332
c-20.4873 15.6309 -29.3955 42.7959 -35.9385 66.6914c-8.09082 29.5371 -10.8369 59.9297 -11.5684 90.4531c-0.505859 21.1104 0.172852 42.2451 1.64648 63.3271c-5.70508 -20.3857 -11.1914 -40.8486 -17.0977 -61.167
c-9.04883 -31.1133 -18.7305 -62.7715 -33.2588 -91.8379c-10.4629 -20.9336 -26.1641 -48.4346 -50.5615 -54.6631c-30.1484 -7.69531 -60.6826 9.22266 -77.1934 33.8994c-18.2471 27.2715 -23.0859 62.1318 -25.0518 94.2031
c-4.32617 70.5762 -1.97949 143.433 18.876 211.368c6.71289 21.8662 72.3301 20.541 70.0322 -5.40137c-5.33398 -60.2051 -11.7354 -120.057 -12.085 -180.58c-0.155273 -26.9424 0.491211 -54.1777 4.5459 -80.8545c1.84863 -12.1523 3.33691 -24.8809 7.46191 -36.4893
c1.16309 -3.2666 4.55957 -14.3301 8.80176 -14.8887c2.73242 -0.360352 9.67871 8.05566 11.1738 9.66797c18.2041 19.6074 27.8574 47.7832 36.7334 72.4883c9.07031 25.2422 16.501 51.0283 23.751 76.8398c14.4111 51.2939 28.3418 102.811 51.6826 150.866
c0.964844 3.48535 1.96875 6.95996 3.07129 10.3955c7.39844 23.0361 73.6729 21.7852 73.2842 -5.65234c-0.742188 -52.3398 -13.7891 -104.892 -18.0127 -157.172c-3.99414 -49.4346 -8.40527 -101.375 -2.47754 -150.803
c1.13867 -9.50488 2.16016 -19.7168 6.81152 -28.2891c7.27832 -13.4111 19.4385 -4.51367 28.0918 3.33008c18.2607 16.5498 31.4736 38.752 43.7285 59.8799c25.4609 43.8984 47.4365 89.7305 69.458 135.414z" />
    <glyph glyph-name="u" unicode="&#xfc;" horiz-adv-x="405" 
d="M409.74 195.229c3.97656 8.24316 28.1426 5.7168 23.752 -3.73926c-26.3096 -56.6484 -51.375 -116.28 -86.8721 -167.948c-13.0537 -19.0029 -28.3242 -39.7383 -50.8555 -47.8721c-20.3994 -7.36621 -44.5947 -4.69043 -61.9297 8.5332
c-20.4873 15.6309 -29.3955 42.7959 -35.9385 66.6914c-8.09082 29.5371 -10.8369 59.9297 -11.5684 90.4531c-0.505859 21.1104 0.172852 42.2451 1.64648 63.3271c-5.70508 -20.3857 -11.1914 -40.8486 -17.0977 -61.167
c-9.04883 -31.1133 -18.7305 -62.7715 -33.2588 -91.8379c-10.4629 -20.9336 -26.1641 -48.4346 -50.5615 -54.6631c-30.1484 -7.69531 -60.6826 9.22266 -77.1934 33.8994c-18.2471 27.2715 -23.0859 62.1318 -25.0518 94.2031
c-4.32617 70.5762 -1.97949 143.433 18.876 211.368c6.71289 21.8662 72.3301 20.541 70.0322 -5.40137c-5.33398 -60.2051 -11.7354 -120.057 -12.085 -180.58c-0.155273 -26.9424 0.491211 -54.1777 4.5459 -80.8545c1.84863 -12.1523 3.33691 -24.8809 7.46191 -36.4893
c1.16309 -3.2666 4.55957 -14.3301 8.80176 -14.8887c2.73242 -0.360352 9.67871 8.05566 11.1738 9.66797c18.2041 19.6074 27.8574 47.7832 36.7334 72.4883c9.07031 25.2422 16.501 51.0283 23.751 76.8398c14.4111 51.2939 28.3418 102.811 51.6826 150.866
c0.964844 3.48535 1.96875 6.95996 3.07129 10.3955c7.39844 23.0361 73.6729 21.7852 73.2842 -5.65234c-0.742188 -52.3398 -13.7891 -104.892 -18.0127 -157.172c-3.99414 -49.4346 -8.40527 -101.375 -2.47754 -150.803
c1.13867 -9.50488 2.16016 -19.7168 6.81152 -28.2891c7.27832 -13.4111 19.4385 -4.51367 28.0918 3.33008c18.2607 16.5498 31.4736 38.752 43.7285 59.8799c25.4609 43.8984 47.4365 89.7305 69.458 135.414z" />
    <glyph glyph-name="u" unicode="&#xfb;" horiz-adv-x="405" 
d="M409.74 195.229c3.97656 8.24316 28.1426 5.7168 23.752 -3.73926c-26.3096 -56.6484 -51.375 -116.28 -86.8721 -167.948c-13.0537 -19.0029 -28.3242 -39.7383 -50.8555 -47.8721c-20.3994 -7.36621 -44.5947 -4.69043 -61.9297 8.5332
c-20.4873 15.6309 -29.3955 42.7959 -35.9385 66.6914c-8.09082 29.5371 -10.8369 59.9297 -11.5684 90.4531c-0.505859 21.1104 0.172852 42.2451 1.64648 63.3271c-5.70508 -20.3857 -11.1914 -40.8486 -17.0977 -61.167
c-9.04883 -31.1133 -18.7305 -62.7715 -33.2588 -91.8379c-10.4629 -20.9336 -26.1641 -48.4346 -50.5615 -54.6631c-30.1484 -7.69531 -60.6826 9.22266 -77.1934 33.8994c-18.2471 27.2715 -23.0859 62.1318 -25.0518 94.2031
c-4.32617 70.5762 -1.97949 143.433 18.876 211.368c6.71289 21.8662 72.3301 20.541 70.0322 -5.40137c-5.33398 -60.2051 -11.7354 -120.057 -12.085 -180.58c-0.155273 -26.9424 0.491211 -54.1777 4.5459 -80.8545c1.84863 -12.1523 3.33691 -24.8809 7.46191 -36.4893
c1.16309 -3.2666 4.55957 -14.3301 8.80176 -14.8887c2.73242 -0.360352 9.67871 8.05566 11.1738 9.66797c18.2041 19.6074 27.8574 47.7832 36.7334 72.4883c9.07031 25.2422 16.501 51.0283 23.751 76.8398c14.4111 51.2939 28.3418 102.811 51.6826 150.866
c0.964844 3.48535 1.96875 6.95996 3.07129 10.3955c7.39844 23.0361 73.6729 21.7852 73.2842 -5.65234c-0.742188 -52.3398 -13.7891 -104.892 -18.0127 -157.172c-3.99414 -49.4346 -8.40527 -101.375 -2.47754 -150.803
c1.13867 -9.50488 2.16016 -19.7168 6.81152 -28.2891c7.27832 -13.4111 19.4385 -4.51367 28.0918 3.33008c18.2607 16.5498 31.4736 38.752 43.7285 59.8799c25.4609 43.8984 47.4365 89.7305 69.458 135.414z" />
    <glyph glyph-name="u" unicode="&#xfa;" horiz-adv-x="405" 
d="M409.74 195.229c3.97656 8.24316 28.1426 5.7168 23.752 -3.73926c-26.3096 -56.6484 -51.375 -116.28 -86.8721 -167.948c-13.0537 -19.0029 -28.3242 -39.7383 -50.8555 -47.8721c-20.3994 -7.36621 -44.5947 -4.69043 -61.9297 8.5332
c-20.4873 15.6309 -29.3955 42.7959 -35.9385 66.6914c-8.09082 29.5371 -10.8369 59.9297 -11.5684 90.4531c-0.505859 21.1104 0.172852 42.2451 1.64648 63.3271c-5.70508 -20.3857 -11.1914 -40.8486 -17.0977 -61.167
c-9.04883 -31.1133 -18.7305 -62.7715 -33.2588 -91.8379c-10.4629 -20.9336 -26.1641 -48.4346 -50.5615 -54.6631c-30.1484 -7.69531 -60.6826 9.22266 -77.1934 33.8994c-18.2471 27.2715 -23.0859 62.1318 -25.0518 94.2031
c-4.32617 70.5762 -1.97949 143.433 18.876 211.368c6.71289 21.8662 72.3301 20.541 70.0322 -5.40137c-5.33398 -60.2051 -11.7354 -120.057 -12.085 -180.58c-0.155273 -26.9424 0.491211 -54.1777 4.5459 -80.8545c1.84863 -12.1523 3.33691 -24.8809 7.46191 -36.4893
c1.16309 -3.2666 4.55957 -14.3301 8.80176 -14.8887c2.73242 -0.360352 9.67871 8.05566 11.1738 9.66797c18.2041 19.6074 27.8574 47.7832 36.7334 72.4883c9.07031 25.2422 16.501 51.0283 23.751 76.8398c14.4111 51.2939 28.3418 102.811 51.6826 150.866
c0.964844 3.48535 1.96875 6.95996 3.07129 10.3955c7.39844 23.0361 73.6729 21.7852 73.2842 -5.65234c-0.742188 -52.3398 -13.7891 -104.892 -18.0127 -157.172c-3.99414 -49.4346 -8.40527 -101.375 -2.47754 -150.803
c1.13867 -9.50488 2.16016 -19.7168 6.81152 -28.2891c7.27832 -13.4111 19.4385 -4.51367 28.0918 3.33008c18.2607 16.5498 31.4736 38.752 43.7285 59.8799c25.4609 43.8984 47.4365 89.7305 69.458 135.414z" />
    <glyph glyph-name="v" unicode="v" horiz-adv-x="327" 
d="M335.664 198.771c8.19727 5.05469 31.9287 -2.43945 18.7861 -10.707c-34.6797 -21.8203 -83.4424 -23.3477 -125.433 -8.92578c-5.89648 -25.4971 -13.2344 -50.6787 -21.6084 -75.3271c-13.8887 -40.8867 -31.9766 -97.002 -72.8848 -118.925
c-64.9453 -34.8076 -113.556 34.4609 -129.734 88.6318c-23.9697 80.2539 -26.7549 168.938 -18.7871 251.685c2.97266 30.8945 79.6777 30.3711 78.4834 0c-2.90234 -73.7148 -4.0791 -147.812 8.03809 -220.862c5.36621 -32.3643 9.82715 -72.6572 29.2188 -100.052
c20.9121 -29.5479 58.335 52.7959 64.8037 68.5576c15.543 37.8682 27.876 77.416 36.7734 117.359c0.0136719 0.0810547 0.03125 0.15918 0.0488281 0.240234c-39.1201 21.5273 -66.4756 58.8408 -59.6074 107.307c4.50293 31.75 30.5195 76.582 68.7949 67.2188
c42.3154 -10.3496 32.0996 -82.375 28.8057 -113.566c-1.92676 -18.2432 -4.8252 -36.4189 -8.47656 -54.4609c32.1602 -15.709 71.333 -17.5791 102.778 1.82715zM208.007 213.072c5.87793 31 9.5166 62.585 8.01074 94.084
c-0.501953 10.5303 -0.410156 24.1924 -5.4082 33.7822c-6.59961 12.665 -10.9473 8.38086 -18.6748 0.162109c-11.5303 -12.2627 -18.0771 -29.4102 -19.6641 -45.9922c-3.16406 -33.0791 12.0322 -62.0684 35.7363 -82.0361z" />
    <glyph glyph-name="w" unicode="w" horiz-adv-x="529" 
d="M538.159 198.771c8.19727 5.05469 31.9268 -2.43848 18.7881 -10.7061c-34.6797 -21.8203 -83.4385 -23.3477 -125.432 -8.92578c-5.89941 -25.4971 -13.2373 -50.6787 -21.6074 -75.3271c-13.8887 -40.8867 -31.9766 -97.002 -72.8848 -118.925
c-64.9453 -34.8076 -113.556 34.4609 -129.734 88.6318c-10.6572 35.6875 -17.1084 73.043 -20.3076 110.802c-4.67285 -21.2021 -9.62207 -42.333 -15.1328 -63.3125c-12.5166 -47.6455 -30.5088 -123.938 -88.5859 -133.863
c-71.5303 -12.2266 -91.9932 69.0635 -97.6631 123.21c-7.10156 67.8115 1.32227 136.903 13.4004 203.658c5.44727 30.1064 80.9336 29.2051 77.3809 0c-6.66699 -54.7754 -15.7129 -109.102 -16.9326 -164.4c-0.399414 -18.0137 1.33594 -148.099 27.1328 -142.758
c11.2939 2.33984 22.2275 21.0459 27.208 29.8262c6.51465 11.4814 11.4775 23.9023 16.0869 36.2461c9.37793 25.1074 16.4121 51.0107 22.7607 77.0234c12.8486 52.665 23.4355 105.896 34.4502 158.978c0.423828 5.44727 0.893555 10.873 1.41309 16.2744
c2.97266 30.8945 79.6777 30.3711 78.4834 0c-2.90527 -73.7148 -4.08203 -147.812 8.03516 -220.862c5.36621 -32.3643 9.82715 -72.6572 29.2188 -100.052c20.9121 -29.5479 58.335 52.7959 64.8037 68.5576c15.543 37.8682 27.876 77.416 36.7734 117.359
c0.0175781 0.0810547 0.0351562 0.15918 0.0527344 0.240234c-39.1201 21.5273 -66.4795 58.8408 -59.6074 107.307c4.5 31.75 30.5166 76.582 68.792 67.2188c42.3184 -10.3496 32.1025 -82.375 28.8086 -113.566c-1.92969 -18.2432 -4.82422 -36.4189 -8.47559 -54.4609
c32.1562 -15.709 71.3291 -17.5791 102.774 1.82715zM410.5 213.073c5.87793 31 9.5166 62.585 8.01074 94.084c-0.501953 10.5303 -0.410156 24.1924 -5.4082 33.7822c-6.59961 12.665 -10.9473 8.38086 -18.6748 0.162109
c-11.5303 -12.2627 -18.0771 -29.4102 -19.6641 -45.9922c-3.16406 -33.0791 12.0352 -62.0684 35.7363 -82.0361z" />
    <glyph glyph-name="x" unicode="x" horiz-adv-x="269" 
d="M274.24 193.549c3.01562 8.54004 27.29 6.37695 23.7588 -3.73242c-19.9434 -56.9668 -46.6846 -111.598 -80.6719 -161.545c-13.5557 -19.9219 -28.709 -38.8613 -52.0986 -47.2354c-23.2412 -8.32129 -46.9346 -5.5498 -68.4189 6.37305
c-41.2158 22.874 -60.7031 65.5713 -72.3291 109.329c-13.4004 -32.5166 -25.2773 -65.6875 -36.002 -99.0244c-3.0332 -9.42383 -29.7207 -7.22168 -26.1504 4.10742c14.8467 47.1016 31.998 93.6689 52.5918 138.483c-11.4775 61.6016 -17.3281 126.818 -11.9902 189.017
c2.44922 28.5508 69.6641 28.335 72.4072 0c2.32617 -24.0264 3.84961 -48.1055 5.39746 -72.1807c16.3057 23.584 34.1279 46.2139 53.8379 67.5469c6.86133 7.42676 33.8174 2.10645 24.3691 -8.12012c-28.8057 -31.1738 -53.5879 -65.2393 -75.3232 -101.188
c1.17383 -15.2354 2.52051 -30.4561 4.30176 -45.6523c5.51074 -47.0381 10.5342 -96.9141 28.9961 -141.039c3.8916 -9.31055 8.63184 -18.3418 15.9912 -25.4043c11.3467 -10.8838 23.5986 -9.12012 35.7266 0.332031c19.3145 15.0479 32.2236 39.3428 44.6914 60.0391
c24.7539 41.0996 44.959 84.6699 60.915 129.895z" />
    <glyph glyph-name="y" unicode="y" horiz-adv-x="330" 
d="M269.549 229.646c3.43262 -35.7969 4.55371 -71.8242 4.44727 -107.776c-0.226562 -70.5127 -4.79395 -141.598 -14.9844 -211.386c-8.75195 -59.9648 -21.6396 -120.675 -43.3262 -177.401c-19.4414 -50.8516 -45.0547 -105.348 -87.002 -141.707
c-35.2461 -30.5479 -107.823 -57.9316 -148.018 -20.8691c-43.0332 39.6855 -23.585 103.479 -12.8955 153.277c38.501 179.36 132.591 334.769 223.291 491.237c-0.597656 10.4521 -1.26172 20.9014 -2.03223 31.3613c-0.1875 2.55176 -0.43457 5.11133 -0.671875 7.6709
c-7.85449 -24.2344 -16.8896 -48.0732 -27.5049 -71.1553c-16.0059 -34.8076 -42.7109 -86.2529 -84.2588 -94.5918c-51.251 -10.2861 -85.7051 34.3799 -94.5527 79.5332c-10.4062 53.1074 0.870117 109.756 14.4512 161.29
c6.29883 23.8955 78.8115 20.124 73.8271 -5.69434c-8.34961 -43.2656 -19.1523 -85.7607 -20.7646 -130.021c-0.724609 -19.873 -0.254883 -39.8516 4.19922 -59.3281c1.85254 -8.10547 4.56055 -17.2607 9.24805 -24.3164
c6.70898 -10.0986 14.9629 -1.68945 22.1172 4.72949c29.1094 26.1152 46.8008 64.0967 61.209 99.7031c14.4717 35.7617 26.1963 72.5205 35.585 109.915c-0.0703125 3.89844 -0.0527344 7.79688 0.0957031 11.6885c0.94043 24.5107 52.3047 22.1035 61.3506 4.7334
c17.2637 -33.1562 22.6475 -73.9688 26.1895 -110.894zM185.859 -13.8809c5.06152 57.3916 7.41992 115.257 7.11621 172.863c-0.0175781 3.33691 -0.116211 6.66992 -0.172852 10.0029c-29.0459 -48.8691 -58.0527 -97.7275 -84.1113 -148.396
c-46.9814 -91.3506 -87.833 -187.706 -110.138 -288.285c-5.56055 -25.0547 -9.58691 -50.4209 -11.9941 -75.9736c-2.18066 -23.1533 -1.52344 -67.1016 28.9541 -72.9268c20.0176 -3.82422 38.2568 13.1357 50.9434 26.3311
c15.8535 16.4902 27.5645 36.416 37.582 56.8682c48.8721 99.7598 72.1133 209.48 81.8203 319.516z" />
    <glyph glyph-name="y" unicode="&#xff;" horiz-adv-x="330" 
d="M269.549 229.646c3.43262 -35.7969 4.55371 -71.8242 4.44727 -107.776c-0.226562 -70.5127 -4.79395 -141.598 -14.9844 -211.386c-8.75195 -59.9648 -21.6396 -120.675 -43.3262 -177.401c-19.4414 -50.8516 -45.0547 -105.348 -87.002 -141.707
c-35.2461 -30.5479 -107.823 -57.9316 -148.018 -20.8691c-43.0332 39.6855 -23.585 103.479 -12.8955 153.277c38.501 179.36 132.591 334.769 223.291 491.237c-0.597656 10.4521 -1.26172 20.9014 -2.03223 31.3613c-0.1875 2.55176 -0.43457 5.11133 -0.671875 7.6709
c-7.85449 -24.2344 -16.8896 -48.0732 -27.5049 -71.1553c-16.0059 -34.8076 -42.7109 -86.2529 -84.2588 -94.5918c-51.251 -10.2861 -85.7051 34.3799 -94.5527 79.5332c-10.4062 53.1074 0.870117 109.756 14.4512 161.29
c6.29883 23.8955 78.8115 20.124 73.8271 -5.69434c-8.34961 -43.2656 -19.1523 -85.7607 -20.7646 -130.021c-0.724609 -19.873 -0.254883 -39.8516 4.19922 -59.3281c1.85254 -8.10547 4.56055 -17.2607 9.24805 -24.3164
c6.70898 -10.0986 14.9629 -1.68945 22.1172 4.72949c29.1094 26.1152 46.8008 64.0967 61.209 99.7031c14.4717 35.7617 26.1963 72.5205 35.585 109.915c-0.0703125 3.89844 -0.0527344 7.79688 0.0957031 11.6885c0.94043 24.5107 52.3047 22.1035 61.3506 4.7334
c17.2637 -33.1562 22.6475 -73.9688 26.1895 -110.894zM185.859 -13.8809c5.06152 57.3916 7.41992 115.257 7.11621 172.863c-0.0175781 3.33691 -0.116211 6.66992 -0.172852 10.0029c-29.0459 -48.8691 -58.0527 -97.7275 -84.1113 -148.396
c-46.9814 -91.3506 -87.833 -187.706 -110.138 -288.285c-5.56055 -25.0547 -9.58691 -50.4209 -11.9941 -75.9736c-2.18066 -23.1533 -1.52344 -67.1016 28.9541 -72.9268c20.0176 -3.82422 38.2568 13.1357 50.9434 26.3311
c15.8535 16.4902 27.5645 36.416 37.582 56.8682c48.8721 99.7598 72.1133 209.48 81.8203 319.516z" />
    <glyph glyph-name="y" unicode="&#xfd;" horiz-adv-x="330" 
d="M269.549 229.646c3.43262 -35.7969 4.55371 -71.8242 4.44727 -107.776c-0.226562 -70.5127 -4.79395 -141.598 -14.9844 -211.386c-8.75195 -59.9648 -21.6396 -120.675 -43.3262 -177.401c-19.4414 -50.8516 -45.0547 -105.348 -87.002 -141.707
c-35.2461 -30.5479 -107.823 -57.9316 -148.018 -20.8691c-43.0332 39.6855 -23.585 103.479 -12.8955 153.277c38.501 179.36 132.591 334.769 223.291 491.237c-0.597656 10.4521 -1.26172 20.9014 -2.03223 31.3613c-0.1875 2.55176 -0.43457 5.11133 -0.671875 7.6709
c-7.85449 -24.2344 -16.8896 -48.0732 -27.5049 -71.1553c-16.0059 -34.8076 -42.7109 -86.2529 -84.2588 -94.5918c-51.251 -10.2861 -85.7051 34.3799 -94.5527 79.5332c-10.4062 53.1074 0.870117 109.756 14.4512 161.29
c6.29883 23.8955 78.8115 20.124 73.8271 -5.69434c-8.34961 -43.2656 -19.1523 -85.7607 -20.7646 -130.021c-0.724609 -19.873 -0.254883 -39.8516 4.19922 -59.3281c1.85254 -8.10547 4.56055 -17.2607 9.24805 -24.3164
c6.70898 -10.0986 14.9629 -1.68945 22.1172 4.72949c29.1094 26.1152 46.8008 64.0967 61.209 99.7031c14.4717 35.7617 26.1963 72.5205 35.585 109.915c-0.0703125 3.89844 -0.0527344 7.79688 0.0957031 11.6885c0.94043 24.5107 52.3047 22.1035 61.3506 4.7334
c17.2637 -33.1562 22.6475 -73.9688 26.1895 -110.894zM185.859 -13.8809c5.06152 57.3916 7.41992 115.257 7.11621 172.863c-0.0175781 3.33691 -0.116211 6.66992 -0.172852 10.0029c-29.0459 -48.8691 -58.0527 -97.7275 -84.1113 -148.396
c-46.9814 -91.3506 -87.833 -187.706 -110.138 -288.285c-5.56055 -25.0547 -9.58691 -50.4209 -11.9941 -75.9736c-2.18066 -23.1533 -1.52344 -67.1016 28.9541 -72.9268c20.0176 -3.82422 38.2568 13.1357 50.9434 26.3311
c15.8535 16.4902 27.5645 36.416 37.582 56.8682c48.8721 99.7598 72.1133 209.48 81.8203 319.516z" />
    <glyph glyph-name="z" unicode="z" horiz-adv-x="295" 
d="M319.026 190.22c3.88867 -1.53418 10.6465 -6.9248 5.11816 -11.1104c-36.0938 -27.3242 -72.3857 -54.4326 -108.617 -81.626c2.1416 -4.30859 4.11426 -8.73047 5.87793 -13.2656c18.6846 -48.0244 17.2637 -100.668 5.70117 -150.138
c-19.5371 -83.5908 -67.4229 -162.908 -139.671 -210.957c-62.6055 -41.6367 -203.09 -74.5137 -212.994 36.1396c-3.90625 43.6514 18.8584 85.2314 44.7119 118.529c32.1318 41.3857 71.6826 76.1328 112.831 108.274c39.332 30.7246 79.1729 60.834 119.173 90.7314
c-3.72559 9.31055 -8.30664 18.2676 -13.75 26.4717c-4.84277 7.2959 -10.7598 14.3301 -17.7158 19.71c-2.29785 1.77832 -5.52832 3.0791 -7.66699 4.99121c-1.94434 1.73926 -6.98535 1.0957 -0.697266 1.66797c-15.0762 -1.375 -57.9893 5.37988 -39.3047 29.1406
c27.3174 34.7402 54.8076 70.2578 74.1533 110.205c11.9932 24.7686 38.6982 99.3916 -16.9043 89.7627c-37.1973 -6.44434 -71.1035 -38.71 -90.8457 -69.251c-9.72461 -15.0439 -17.3281 -31.5127 -22.3613 -48.7061
c-1.54785 -5.28418 -11.4492 -50.0381 -6.65625 -51.5479c14.21 -4.47168 -0.572266 -14.8574 -9.49023 -12.832c-23.1641 5.25977 -18.2646 30.5303 -14.9775 49.0879c4.28809 24.21 13.1855 47.4795 26.3174 68.2715c24.1709 38.2646 64.5312 73.0576 110.293 80.9473
c48.6035 8.38086 86.585 -24.9102 82.5908 -74.5498c-4.07227 -50.5547 -29.5547 -95.6768 -56.3984 -137.861c22.8389 -8.68164 42.1816 -25.0088 56.6211 -45.8682c31.7568 23.5918 63.5352 47.1514 95.165 70.8701c5.33008 3.99414 13.1348 5.42578 19.4971 2.91211z
M154.197 -65.9336c9.5332 36.2354 12.8799 75.6895 5.76758 112.671c-0.487305 2.53418 -1.04199 5.07227 -1.65332 7.61035c-28.4053 -21.541 -56.6943 -43.2275 -84.7217 -65.2285c-61.6543 -48.4023 -140.607 -110.548 -154.591 -192.846
c-4.78613 -28.1729 -0.608398 -82.1709 38.8652 -81.4111c29.8018 0.576172 62.6611 24.5635 84.835 42.4004c55.3125 44.4854 93.5273 108.486 111.498 176.804z" />
    </font>
</defs>
</svg>
