<?xml version="1.0" standalone="no"?>
<!DOCTYPE svg PUBLIC "-//W3C//DTD SVG 1.1//EN" "http://www.w3.org/Graphics/SVG/1.1/DTD/svg11.dtd" >
<svg xmlns="http://www.w3.org/2000/svg" xmlns:xlink="http://www.w3.org/1999/xlink" version="1.1">
<metadata>
Created by FontForge 20170812 at Sat Feb 19 07:15:25 2022
 By www-data
</metadata>
<defs>
<font id="AmstelveenRegular" horiz-adv-x="0" >
  <font-face 
    font-family="Amstelveen"
    font-weight="400"
    font-stretch="normal"
    units-per-em="1000"
    panose-1="0 0 0 0 0 0 0 0 0 0"
    ascent="800"
    descent="-200"
    x-height="321.391"
    cap-height="733.111"
    bbox="-325.288 -424.575 1415.49 981.25"
    underline-thickness="50"
    underline-position="-100"
    unicode-range="U+000A-20AC"
  />
<missing-glyph horiz-adv-x="527" 
d="M50 700h427v-700h-427v700zM78 680l185 -309l186 309h-371zM251 350l-180 300v-601zM264 329l-185 -308h370zM276 350l181 -303v605z" />
    <glyph glyph-name=".notdef" horiz-adv-x="527" 
d="M50 700h427v-700h-427v700zM78 680l185 -309l186 309h-371zM251 350l-180 300v-601zM264 329l-185 -308h370zM276 350l181 -303v605z" />
    <glyph glyph-name=".null" 
 />
    <glyph glyph-name=".null" 
 />
    <glyph glyph-name="LF" unicode="&#xa;" 
 />
    <glyph glyph-name="controlCR" unicode="&#xd;" 
 />
    <glyph glyph-name="space" unicode=" " horiz-adv-x="491" 
 />
    <glyph glyph-name="exclam" unicode="!" horiz-adv-x="171" 
d="M241.677 783.225c19.3301 33.9658 75.9639 10.8037 56.7041 -24.0723c-111.55 -201.96 -204.716 -412.251 -289.844 -626.502c-17.1973 -43.2842 -82.7842 -15.0996 -66.3389 28.1553c81.8555 215.332 185.626 422.38 299.479 622.419zM-21.5273 43.7793
c6.25098 -6.02246 9.79883 -14.5244 11.1621 -22.9736c1.49219 -9.23047 -2.11523 -20.499 -7.73242 -27.7725c-3.01953 -4.23633 -6.85059 -7.41504 -11.4805 -9.53613c-4.28906 -2.95508 -9.08301 -4.64746 -14.3945 -5.07617
c-2.64941 -0.59375 -5.31641 -1.33984 -8.01367 -1.64551c-5.13477 -0.775391 -10.082 -0.276367 -14.8467 1.49805c-3.34863 0.504883 -6.37402 1.78613 -9.06445 3.84863c-3.1377 1.3457 -5.75195 3.37305 -7.83789 6.07617
c-2.76172 2.14453 -4.80664 4.84766 -6.12891 8.09082c-3.00781 4.35352 -4.72363 9.22461 -5.1582 14.6182c0.046875 3.35449 0.0996094 6.70898 0.152344 10.0635c0.987305 6.7334 4.20117 12.4443 7.69727 18.1318c0.452148 0.728516 0.904297 1.32812 1.45703 1.97461
c2.16211 2.53223 5.1582 5.5166 7.71387 7.66699c3.46094 2.9082 7.77344 4.99414 11.7861 6.88574c9.29492 4.38281 20.3174 3.23145 29.6299 -0.258789c6.12207 -2.29102 11.1396 -6.50391 15.0586 -11.5918z" />
    <glyph glyph-name="quotedbl" unicode="&#x22;" horiz-adv-x="313" 
d="M103.701 661.499c19.418 37.4258 79.874 12.4053 60.7559 -25.79c-28.1426 -56.2334 -41.7676 -113.524 -59.1768 -173.365c-0.164062 0.164062 -0.322266 0.328125 -0.486328 0.492188c-12.0449 -23.5605 -54.8057 -24.3359 -54.7939 7.47363
c0.0292969 65.7979 23.6777 133.312 53.7012 191.189zM197.03 629.816c19.7822 38.1836 81.5498 12.4795 61.9023 -26.2744c-23.0195 -45.4053 -38.7539 -91.0859 -51.1211 -140.339c-9.27734 -36.9385 -63.1191 -30.4229 -59.3291 8.66016
c5.29395 54.6289 23.3896 109.37 48.5479 157.953z" />
    <glyph glyph-name="quotedbl" unicode="&#x201d;" horiz-adv-x="313" 
d="M103.701 661.499c19.418 37.4258 79.874 12.4053 60.7559 -25.79c-28.1426 -56.2334 -41.7676 -113.524 -59.1768 -173.365c-0.164062 0.164062 -0.322266 0.328125 -0.486328 0.492188c-12.0449 -23.5605 -54.8057 -24.3359 -54.7939 7.47363
c0.0292969 65.7979 23.6777 133.312 53.7012 191.189zM197.03 629.816c19.7822 38.1836 81.5498 12.4795 61.9023 -26.2744c-23.0195 -45.4053 -38.7539 -91.0859 -51.1211 -140.339c-9.27734 -36.9385 -63.1191 -30.4229 -59.3291 8.66016
c5.29395 54.6289 23.3896 109.37 48.5479 157.953z" />
    <glyph glyph-name="quotedbl" unicode="&#x201c;" horiz-adv-x="313" 
d="M103.701 661.499c19.418 37.4258 79.874 12.4053 60.7559 -25.79c-28.1426 -56.2334 -41.7676 -113.524 -59.1768 -173.365c-0.164062 0.164062 -0.322266 0.328125 -0.486328 0.492188c-12.0449 -23.5605 -54.8057 -24.3359 -54.7939 7.47363
c0.0292969 65.7979 23.6777 133.312 53.7012 191.189zM197.03 629.816c19.7822 38.1836 81.5498 12.4795 61.9023 -26.2744c-23.0195 -45.4053 -38.7539 -91.0859 -51.1211 -140.339c-9.27734 -36.9385 -63.1191 -30.4229 -59.3291 8.66016
c5.29395 54.6289 23.3896 109.37 48.5479 157.953z" />
    <glyph glyph-name="numbersign" unicode="#" horiz-adv-x="653" 
d="M683.717 722.697c16.3096 25.5166 60.791 -0.823242 45.6621 -26.7217c-54.1416 -92.6426 -105.352 -187.829 -154.616 -283.58c12.2441 -0.928711 24.4766 -1.89258 36.7031 -2.92676c41.2334 -3.48438 31.8037 -67.0264 -9.27734 -63.5537
c-19.5654 1.65723 -39.1543 3.36133 -58.7432 5.00684c-5.3877 -10.6582 -10.7812 -21.3164 -16.1279 -31.9746c-5.85156 -11.6562 -11.6445 -23.3428 -17.4375 -35.0293c14.8467 -0.987305 29.6934 -2.08008 44.5283 -3.39648
c42.9375 -3.80176 33.0664 -69.7471 -9.65918 -66.1396c-22.2266 1.87988 -44.4648 3.37793 -66.7031 4.58789c-14.9121 -30.8633 -29.5889 -61.8496 -43.9189 -92.9951c-29.8057 -64.7764 -55.1465 -132.155 -86.9268 -195.927
c-20.3936 -40.9277 -79.8936 -15.3936 -65.0703 27.6201c23.7188 68.8301 57.4609 135.445 88.3652 201.284c9.87109 21.0342 19.9121 41.9912 30.0352 62.9131c-44.9639 0.869141 -89.9277 0.322266 -134.851 -1.56934
c-46.6738 -93.7412 -89.9932 -189.011 -131.62 -285.261c-17.9199 -41.4385 -81.4619 -14.3945 -64.4355 27.3496c35.0234 85.8682 74.1885 170.25 116.279 253.075c-34.2178 -2.70312 -68.3945 -6.17578 -102.519 -10.5176
c-39.5996 -5.03516 -46.4443 55.6865 -7.09668 61.4795c48.0312 7.07422 96.25 12.4209 144.569 16.0928c12.9551 24.3535 26.0752 48.6074 39.4648 72.6787c-34.2832 -3.5957 -68.46 -9.25391 -102.467 -17.873c-29.2773 -7.41504 -42.0684 43.9121 -13.1201 51.4912
c49.4941 12.9551 99.5107 21.0098 149.81 25.6104c63.6357 106.521 134.704 208.693 193.822 317.635c16.1045 29.6885 64.7529 9.71777 48.8428 -20.7344c-51.8916 -99.3174 -110.04 -195.104 -165.51 -292.417c42.9727 1.15723 86.0625 0.288086 129.152 -1.83301
c57.1904 104.223 118.688 205.232 182.864 305.625zM465.423 351.168c0.946289 1.81543 1.93164 3.60156 2.87793 5.41699c-43.249 2.76758 -86.4736 4.32422 -129.587 3.40723c-5.28223 -9.60059 -10.6113 -19.1777 -15.7988 -28.8311
c-7.89648 -14.6885 -15.6582 -29.4355 -23.3486 -44.2119c44.4238 1.65137 88.9004 1.9043 133.365 0.647461c10.6758 21.2686 21.4629 42.4844 32.4912 63.5713z" />
    <glyph glyph-name="dollar" unicode="$" horiz-adv-x="541" 
d="M471.738 542.67c29.2598 -52.8545 17.9893 -108.749 7.55469 -164.899c-6.24512 -33.6367 -57.9365 -26.416 -52.7842 7.70801c9.84668 65.2695 6.55078 135.727 -59.0596 169.439c-6.65723 3.41992 -13.6611 6.29883 -20.8994 8.70801
c-28.0664 -70.5576 -55.1641 -141.497 -80.9277 -212.924c-1.2041 -3.33691 -2.33789 -6.69141 -3.53027 -10.0342c14.7529 -12.5791 29.0537 -25.6875 41.9268 -40.499c64.6641 -74.4053 126.603 -199.298 60.4111 -291.136
c-49.958 -69.3174 -148.142 -73.0186 -224.398 -44.1592c-5.80469 -18.0254 -11.6621 -36.0273 -17.6201 -54.0117c-12.3857 -37.3789 -75.8574 -19.4062 -66.3271 18.584c6.0459 24.1182 12.5674 48.166 19.4121 72.1553c-77.5957 63.248 -93.042 166.455 -84.8574 263.486
c3.87793 45.9629 73.4365 35.0703 70.5049 -10.293c-3.88965 -60.2578 -1.62207 -126.468 37.7197 -175.621c25.6455 81.0332 54.5938 161.285 84.2412 240.638c-61.0859 52.0615 -124.569 107.584 -101.826 195.591c23.9893 92.8252 137.584 130.116 228.811 122.896
c23.2783 55.4697 47.126 111.18 75.6094 163.776c16.5977 30.6514 62.749 12.1553 50.3633 -21.3809c-19.3945 -52.5078 -42.1201 -103.929 -64.0703 -155.579c41.5449 -15.2764 77.9844 -43.1201 99.7471 -82.4443zM321.598 119.436
c-8.40137 54.2119 -42.751 106.007 -79.0898 145.789c-1.54492 1.69824 -3.16016 3.37891 -4.77539 5.06543c-26.6621 -79.1533 -51.333 -158.87 -76.4209 -238.487c22.332 -9.83496 46.6914 -14.9697 70.6279 -14.0059c59.376 2.38574 99.1465 40.4229 89.6582 101.639z
M208.055 385.94c23.7773 62.5371 48.5117 124.71 74.3867 186.413c-35.875 -1.20996 -71.7852 -11.8682 -99.4932 -31.0098c-51.3682 -35.4932 -40.3457 -88.8008 -1.40332 -130.128c8.40723 -8.91895 17.3496 -17.2207 26.5098 -25.2754z" />
    <glyph glyph-name="percent" unicode="%" horiz-adv-x="667" 
d="M476.916 400.169c-29.1592 -49.8291 -59.8643 -98.7383 -89.5527 -148.25c-31.627 -52.7314 -61.7793 -106.268 -91.6377 -160.01c-26.7148 -48.0723 -58.5654 -97.1436 -75.6982 -149.657c-13.3721 -40.9922 -72.5371 -14.2002 -60.8867 25.8408
c20.7637 71.3623 63.8945 140.498 99.2344 205.521c35.7168 65.7217 73.2666 130.345 111.997 194.333c35.334 58.3779 72.8184 117.29 99.0928 180.491c1.15137 2.76758 2.10938 5.94043 3.02051 9.23047c-5.15234 -3.38379 -9.41211 -6.1748 -10.6279 -7.19141
c-21.3271 -17.832 -40.3457 -38.0605 -58.5361 -59.0176c-36.4512 -41.9971 -69.6289 -86.8262 -107.972 -127.178c-37.2383 -39.1943 -84.1416 -88.1182 -140.609 -95.3447c-57.8604 -7.40332 -99 34.958 -104.041 90.3799c-4.71191 51.7969 14.6475 105.439 50.1406 143.2
c35.6689 37.9434 99.0117 73.7773 148.3 38.6367c30.1055 -21.4688 39.3184 -52.7959 37.709 -85.3398c27.0088 32.6729 53.0723 66.1211 81.5908 97.5254c29.2061 32.1504 67.3018 78.1016 110.057 91.8496c58.6953 18.8779 85.4043 -38.1602 74.1768 -87.0605
c-12.873 -56.0566 -47.0264 -108.858 -75.7568 -157.959zM211.784 372.534c-8.45508 8.64258 -12.6719 21.4756 -7.27832 36.1816c6.35156 17.3145 29.6416 72.3779 -3.27246 75.7852c-22.8613 2.36816 -49.2715 -27.4492 -60.7227 -44.2178
c-17.25 -25.2578 -42.9258 -124.493 18.9062 -101.556c18.6602 6.9209 36.1279 19.2471 52.3672 33.8066zM615.265 173.249c13.7773 -66.5742 -40.0078 -136.396 -96.999 -164.116c-68.6357 -33.3779 -126.825 20.4053 -132.659 89.2354
c-4.74121 55.9746 22.1328 156.484 91.2451 160.902c15.3408 0.981445 26.6865 -8.30176 31.5693 -20c47.5195 4.74707 95.4453 -10.9463 106.844 -66.0215zM496.909 74.0801c24.6592 14.7822 52.5254 46.9082 52.3496 77.4658
c-0.229492 39.7119 -55.1992 17.2861 -74.8232 8.48438c-5.5166 -2.47949 -10.7227 -3.38477 -15.5225 -3.1377c-4.71191 -14.377 -6.85645 -29.5938 -6.8623 -41.4443c-0.0175781 -29.8994 11.4102 -61.4209 44.8584 -41.3682z" />
    <glyph glyph-name="ampersand" unicode="&#x26;" horiz-adv-x="636" 
d="M568.481 638.468c25.0469 -40.252 20.8301 -89.8096 -1.67871 -130.12c-25.7871 -46.21 -71.2686 -73.0957 -115.951 -98.3301c-36.2217 -20.458 -71.4854 42.4199 -36.2041 63.46c37.0791 22.1094 129.299 74.8232 86.9082 129.899
c-36.8975 47.9434 -121.215 40.5996 -172.618 28.2617c-54.9521 -13.1904 -125.674 -45.4873 -151.79 -99.2588c-28.7363 -59.1533 22.4561 -93.3008 76.5977 -83.1016c48.3604 7.68457 56.0508 -66.1455 8.67188 -75.082
c-87.6602 -13.9131 -166.948 -89.752 -213.84 -161.654c-36.4805 -55.9336 -55.4756 -142.972 -1.8457 -195.568c54.4355 -53.3779 153.899 -41.7451 219.134 -17.873c66.4033 24.3008 132.313 73.1309 157.601 141.62c17.6084 47.6904 -15.0176 74.8701 -59.9814 81.791
c-39.0889 6.0166 -76.9375 -7.5791 -106.796 -32.5205c-26.7451 -22.3379 -59.1299 20.5703 -32.749 42.8145c43.9541 37.0674 103.895 53.3066 160.721 43.1484c57.8779 -10.3525 109.429 -48.8008 108.165 -112.066
c-2.07422 -103.536 -104.329 -190.204 -192.606 -226.432c-93.1484 -38.2197 -226.907 -48.9541 -305.026 26.5498c-81.3389 78.6123 -64.6055 203.353 -8.88379 290.784c36.6797 57.543 89.7227 112.725 151.231 150.092
c-32.8252 27.6318 -51.2617 70.5039 -41.373 121.607c18.543 95.8447 122.502 154.188 209.328 176.661c86.5791 22.4082 209.721 20.9219 262.986 -64.6826z" />
    <glyph glyph-name="quotesingle" unicode="'" horiz-adv-x="123" 
d="M152.721 669.325c18.9131 38.3135 79.8408 12.9375 61.3926 -26.0635c-23.5371 -49.7471 -43.9365 -100.316 -59.3887 -153.183c-10.0938 -34.5586 -69.5117 -17.5381 -60.54 16.9619c14.5361 55.9219 32.9258 110.398 58.5361 162.284z" />
    <glyph glyph-name="quotesingle" unicode="&#x2019;" horiz-adv-x="123" 
d="M152.721 669.325c18.9131 38.3135 79.8408 12.9375 61.3926 -26.0635c-23.5371 -49.7471 -43.9365 -100.316 -59.3887 -153.183c-10.0938 -34.5586 -69.5117 -17.5381 -60.54 16.9619c14.5361 55.9219 32.9258 110.398 58.5361 162.284z" />
    <glyph glyph-name="quotesingle" unicode="&#x2018;" horiz-adv-x="123" 
d="M152.721 669.325c18.9131 38.3135 79.8408 12.9375 61.3926 -26.0635c-23.5371 -49.7471 -43.9365 -100.316 -59.3887 -153.183c-10.0938 -34.5586 -69.5117 -17.5381 -60.54 16.9619c14.5361 55.9219 32.9258 110.398 58.5361 162.284z" />
    <glyph glyph-name="parenleft" unicode="(" horiz-adv-x="591" 
d="M511.182 959.797c34.7471 4.63574 40.6875 -48.627 6.23438 -53.9619c-51.1689 -7.9082 -94.7344 -45.7695 -130.609 -80.5166c-35.9922 -34.8701 -68.665 -73.1309 -98.5293 -113.348c-60.6631 -81.6914 -109.306 -171.649 -150.933 -264.315
c-45.2871 -100.815 -86.0625 -206.202 -98.9941 -316.706c-10.1992 -87.0967 8.16113 -210.016 110.975 -232.918c45.957 -10.2354 36.3389 -82.3789 -10.6699 -73.0898c-98.9004 19.541 -160.521 107.725 -174.476 203.558
c-14.4238 99.0586 13.4727 203.705 45.2168 296.788c31.3916 92.0557 72.4902 181.572 119.729 266.554c45.7461 82.2959 98.9297 160.703 163.165 229.768c60.7041 65.2754 127.595 126.021 218.892 138.188z" />
    <glyph glyph-name="parenright" unicode=")" horiz-adv-x="550" 
d="M583.955 709.23c9.44141 -346.194 -181.632 -695.829 -471.581 -882.818c-41.0391 -26.4688 -87.4307 33.0605 -46.4736 60.7568c71.7266 48.501 137.672 103.953 195.15 168.853c99.9277 112.824 174.656 247.499 217.364 392.08
c21.5684 73.0127 34.4004 149.346 37.7549 225.402c2.00977 45.6104 -0.668945 92.4072 -10.8506 137.013c-6.73926 29.5293 -18.5488 78.9824 -53.2021 87.666c-33.1367 8.30176 -27.4199 57.7256 7.80859 53.4658c102.802 -12.415 121.832 -161.831 124.029 -242.418z" />
    <glyph glyph-name="asterisk" unicode="*" horiz-adv-x="466" 
d="M378.703 751.368c26.3926 14.7939 52.1172 -31.0537 26.3301 -46.1475c-26.3096 -15.4111 -52.1436 -31.6738 -77.5723 -48.583c15.4346 -1.81543 30.8691 -3.70703 46.2803 -5.75195c42.6787 -5.6582 33.0371 -71.8496 -9.65918 -66.1387
c-32.2266 4.3125 -64.5176 8.01953 -96.8555 11.2803c10.5576 -35.1582 21.7852 -70.0752 33.9941 -104.575c14.6592 -41.4092 -47.5488 -66.9082 -63.4941 -25.6514c-7.27344 18.8242 -13.5957 37.8428 -19.2539 57.0137
c-10.5938 -27.25 -20.6172 -54.7998 -29.624 -82.9131c-12.1855 -38.0312 -77.9424 -19.3359 -67.249 18.8418c5.4873 19.5889 11.5801 39.1484 18.1836 58.625c-9.58887 -7.70215 -19.166 -15.4229 -28.6787 -23.1787c-32.5908 -26.5801 -71.0801 24.7295 -39.4414 51.5625
c24.0889 20.4287 48.8008 39.835 74.0176 58.4307c-24.1182 1.02832 -48.1484 2.5791 -71.3682 6.65625c-26.915 4.72363 -34.7588 45.54 -6.64551 55.3398c34.5762 12.0508 77.7715 7.9502 117.137 3.9668c-7.32031 38.3135 -14.3887 76.7266 -23.0254 114.875
c-7.6377 33.7539 45.1055 38.9834 53.1367 6.13379c5.20605 -21.2861 10.5469 -42.584 16.0166 -63.8701c8.06055 15.3701 16.292 30.5752 24.6992 45.54c19.2539 34.2646 72.9434 13.7363 57.4619 -24.3945c-6.29883 -15.5225 -12.7617 -30.916 -19.2715 -46.2686
c27.9551 16.8271 56.2803 33.167 84.8818 49.207z" />
    <glyph glyph-name="plus" unicode="+" horiz-adv-x="459" 
d="M381.389 290.834c37.3262 -3.86035 37.0508 -66.3682 -1.00391 -66.4092c-42.2559 -0.0410156 -83.9473 -0.323242 -125.463 -1.98633c-29.4414 -70.3926 -53.8301 -142.031 -74.4883 -215.72c-12.168 -43.4131 -81.7383 -35.7344 -71.3213 10.4111
c15.4932 68.6123 39.7939 135.45 67.7842 200.244c-30.5576 -2.86719 -61.1445 -6.8916 -91.9316 -12.5557c-41.5977 -7.65527 -48.5127 56.9443 -7.50879 65.041c43.1777 8.53125 87.6602 15.6055 132.454 19.9883c37.085 78.2539 77.4609 156.155 122.824 229.809
c17.5615 28.5127 62.7021 0.169922 49.5469 -29.0068c-29.8643 -66.2393 -64.0996 -130.439 -95.1631 -196.161c31.6621 0.623047 63.2012 -0.44043 94.2705 -3.6543z" />
    <glyph glyph-name="comma" unicode="," horiz-adv-x="140" 
d="M-73.5967 91.7529c27.0791 35.1699 78.8955 -5.8584 54.0957 -41.8037c-20.0586 -29.0596 -41.374 -57.3027 -62.8193 -85.3574c-17.6318 -23.0664 -35.4697 -46.209 -65.5342 -51.3203c-22.8965 -3.88965 -41.4922 27.3086 -25.3525 44.9111
c37.4492 40.8398 65.7627 89.623 99.6104 133.57z" />
    <glyph glyph-name="hyphen" unicode="-" horiz-adv-x="391" 
d="M312.954 284.636c43.3486 -2.15039 33.0781 -68.3037 -9.71191 -66.5527c-75.1758 3.07324 -150.327 6.86914 -225.484 10.3418c-43.0781 1.99219 -33.043 68.166 9.67676 66.2744c75.1689 -3.3252 150.368 -6.33301 225.52 -10.0635z" />
    <glyph glyph-name="period" unicode="." horiz-adv-x="114" 
d="M-63.7021 15.6729c1.27539 -3.18457 1.66895 -6.47363 1.1875 -9.86914c0.34082 -4.94727 -0.558594 -9.71191 -2.70898 -14.2949c-1.63379 -2.79688 -3.26758 -5.59375 -4.90723 -8.39648c-2.32617 -2.31445 -4.65918 -4.63477 -6.98535 -6.95508
c-2.95508 -1.68066 -5.91016 -3.36719 -8.86523 -5.04785c-0.182617 -0.105469 -0.365234 -0.205078 -0.547852 -0.304688c-6.42773 -2.57324 -13.0664 -3.37207 -19.9111 -2.39648c-6.62109 0.999023 -12.5908 3.53711 -17.9141 7.60254
c-0.123047 0.123047 -0.251953 0.246094 -0.380859 0.369141c-5.39355 4.19531 -9.38281 9.45996 -11.9619 15.7939c-2.13867 4.76465 -2.94922 9.68262 -2.44434 14.7588c-0.34082 4.92969 0.557617 9.67676 2.69629 14.2422
c2.62012 6.12207 6.57422 11.2275 11.8506 15.2988l0.386719 0.369141c5.62305 4.23633 11.9277 6.78613 18.9131 7.6377c6.70996 0.740234 13.1729 -0.194336 19.3887 -2.80859c0.175781 -0.0996094 0.357422 -0.199219 0.540039 -0.298828
c4.72949 -1.80371 8.68359 -4.60645 11.874 -8.40234c2.70312 -2.10352 4.70703 -4.74707 6 -7.92578c2.10352 -2.78516 3.36719 -5.91113 3.79004 -9.37207z" />
    <glyph glyph-name="slash" unicode="/" horiz-adv-x="894" 
d="M788.694 813.042c26.3984 28.3252 74.1758 -7.40918 48.207 -37.2559c-265.208 -304.69 -507.103 -628.347 -721.236 -970.922c-25.7637 -41.21 -84.7227 5.31738 -59.541 46.0098c212.395 343.239 457.333 666.866 732.57 962.168z" />
    <glyph glyph-name="zero" unicode="0" horiz-adv-x="513" 
d="M113.854 548.062c67.8486 109.641 215.466 69.3838 273.861 -26.7549c60.2578 -99.2119 52.708 -233.67 22.8086 -341.554c-27.0908 -97.7363 -85.333 -230.067 -204.438 -233.229c-132.267 -3.50781 -170.474 159.897 -151.531 263.087
c22.2148 121.015 83.7061 234.15 147.513 337.798c0.6875 1.12207 1.42188 2.16797 2.17969 3.14941c-18.0312 -4.20117 -34.7236 -15.2412 -47.7432 -35.4521c-18.9482 -29.4121 -60.6221 3.91309 -42.6494 32.9551zM346.875 215.505
c19.9053 82.3496 28.083 186.45 -13.168 263.999c-13.7598 25.875 -39.0586 49.4531 -67.2725 62.4844c6.15137 -9.50684 7.83789 -21.2637 1.20508 -32.9678c-51.0918 -90.1514 -103.395 -182.712 -129.951 -283.668c-11.5391 -43.877 -17.8965 -91.5381 -2.94922 -135.397
c12.4561 -36.5566 37.0264 -75.2812 80.7275 -68.2842c78.5537 12.5732 115.609 128.459 131.408 193.834z" />
    <glyph glyph-name="one" unicode="1" horiz-adv-x="385" 
d="M258.293 613.866c71.2686 -25.0996 78.9248 -114.147 76.4863 -178.677c-2.9668 -78.3652 -24.0186 -156.531 -44.623 -231.801c-15.2109 -55.5752 -31.0156 -111.039 -47.0029 -166.426c7.3623 0.640625 14.7363 1.2168 22.1338 1.6748
c43.29 2.66699 51.1572 -64.8115 7.75 -67.0908c-16.8037 -0.880859 -33.5371 -2.23242 -50.2051 -3.96582c-10.2168 -24.7412 -43.0361 -23.7832 -61.0732 -8.29004c-25.8047 -4.27734 -51.4746 -9.4707 -77.0205 -15.6221
c-34.7588 -8.37207 -49.4824 51.0693 -15.5107 60.8809c29.5059 8.51953 59.2588 15.4697 89.2646 20.9746c27.1973 108.101 66.3037 213.028 88.7539 322.451c11.2803 54.9932 28.1895 129.992 2.99609 183.464c-24.4707 51.9385 -88.877 0.570312 -113.776 -23.7715
c-22.7021 -22.1973 -55.8213 14.6592 -37.9834 38.1729c37.3379 49.2236 95.2871 90.7568 159.811 68.0254z" />
    <glyph glyph-name="two" unicode="2" horiz-adv-x="544" 
d="M474.525 562.604c44.5059 -81.7676 5.03516 -188.207 -31.8389 -265.38c-42.8848 -89.7461 -97.5371 -178.799 -166.132 -253.492c50.1406 7.43848 101.238 9.25977 152.365 5.39355c48.6895 -3.67773 37.5146 -78.6299 -10.9512 -74.999
c-110.821 8.30176 -219.88 -15.7051 -318.069 -67.3379c-43.9238 -22.2148 -71.2031 48.043 -28.4717 70.4756c146.355 74.1357 252.465 230.314 317.711 376.682c24.9648 56.0039 78.2188 213.61 -33.3779 211.771c-40.376 -0.664062 -80.3398 -24.2012 -110.075 -49.8291
c-24.0947 -20.7695 -73.1191 -68.9824 -51.6855 -104.329c17.4736 -28.8125 -23.7363 -61.2207 -42.1553 -32.2432c-53.583 84.2939 35.4639 178.811 105.557 218.47c72.625 41.0986 171.878 47.9492 217.124 -35.1816z" />
    <glyph glyph-name="three" unicode="3" horiz-adv-x="652" 
d="M539.265 334.252c63.1719 -50.9043 82.9375 -142.113 38.0322 -211.631c-49.4648 -76.5967 -160.633 -83.5527 -241.202 -100.844c-84.8223 -18.2021 -169.786 -45.9336 -221.812 -119.869c-27.6846 -39.3418 -82.6836 5.63965 -58.125 44.9102
c82.4141 131.772 248.975 136.661 383.215 173.964c29.2061 8.12012 62.3486 19.2305 78.0537 47.3086c13.6484 24.3945 12.8379 56.4971 -1.06934 80.6445c-35.1113 60.9629 -117.078 61.5801 -171.36 28.4727
c-0.00585938 0.0175781 -0.0175781 0.0351562 -0.0292969 0.0527344c-2.87891 -1.6748 -5.75195 -3.36133 -8.63672 -4.99512c-36.5918 -20.7051 -71.5859 42.0205 -36.5332 64.0293c5.76367 3.61914 11.668 6.97949 17.6787 10.123
c50.8047 29.1064 98.2949 65.5635 138.348 108.219c24.5352 26.1279 98.2705 114.822 20.9922 118.636c-59.2705 2.91992 -119.875 -30.4287 -166.995 -63.0605c-23.7129 -16.4219 -46.5273 -34.6357 -65.916 -56.0752
c-14.3652 -15.8926 -51.7441 -54.0879 -45.1465 -77.8301c8.93652 -32.1621 -38.1074 -52.7666 -49.2002 -19.876c-26.1104 77.4375 63.084 159.587 118.412 200.697c62.8721 46.7148 153.13 96.1094 234.498 79.5879c37.3496 -7.5791 69.3994 -32.3086 75.833 -71.5674
c7.02734 -42.8545 -13.9414 -85.4395 -38.042 -119.405c-19.9531 -28.1191 -43.4727 -53.8828 -69.2188 -77.4492c24.0947 -6.06348 47.2441 -17.1387 68.2246 -34.042z" />
    <glyph glyph-name="four" unicode="4" horiz-adv-x="372" 
d="M299.469 520.178c16.5391 38.2549 75.2031 13.29 59.5039 -25.2637c-44.2061 -108.477 -81.6904 -219.732 -119.099 -330.706c-36.9033 -109.476 -65.5459 -219.104 -84.3115 -333.151c-7.7207 -46.8975 -76.5391 -36.1924 -72.5498 10.5928
c7.67871 90.0459 32.5723 178.646 61.3262 264.873c-30.6875 -1.23926 -60.4697 -4.87598 -90.4336 -15.7158c-12.1152 -4.37695 -23.9658 -9.48828 -35.4346 -15.334c-21.8564 -29.9941 -48.3252 -55.4639 -81.5801 -72.0381
c-13.2197 -6.5918 -36.0459 -1.14551 -43.6426 11.9268c-29.2949 50.3984 28.0488 91.25 73.8711 116.285c12.2031 19.6709 22.2031 40.7637 30.8633 59.0889c21.668 45.8691 39.8994 93.4717 56.8965 141.244c17.2207 48.3955 33.1777 97.2314 48.0479 146.402
c7.95508 26.3213 15.5283 52.7549 23.6426 79.0234c5.76953 18.6719 9.14746 37.3145 28.7002 45.8105c14.2832 6.2041 34.1064 -1.48633 39.2236 -16.6504c0.211914 -0.617188 0.417969 -1.24023 0.629883 -1.85742c3.40137 -10.082 1.76172 -22.708 -5.07129 -31.0918
c5.63477 -0.587891 -4.12988 -22.3623 -5.85156 -29.4658c-3.44922 -14.2598 -7.07422 -28.4609 -10.8584 -42.6387c-6.42773 -24.1064 -13.085 -48.1484 -19.9473 -72.1377c-15.1816 -53.0254 -31.9209 -105.533 -51.1338 -157.242
c-9.40039 -25.3057 -19.3418 -52.4268 -30.8164 -79.3535c32.4258 7.41504 65.9863 10.1943 98.0654 6.82227c0.25293 0.716797 0.505859 1.43945 0.758789 2.15625c40.123 113.806 81.2979 227.629 129.2 338.421z" />
    <glyph glyph-name="five" unicode="5" horiz-adv-x="558" 
d="M495.007 549.343c34.9697 -29.1064 -6.86133 -83.4434 -43.2236 -55.958c-45.082 34.0947 -117.085 24.0947 -170.198 15.9102c-26.1807 -47.6553 -53.2188 -94.2471 -75.5273 -143.971c-10.6465 -23.7305 -20.5996 -47.7373 -29.6123 -72.1377
c-2.17969 -5.89258 -4.40625 -20.1172 -8.17285 -27.085c3.03125 -0.329102 6.30371 -0.916992 7.74902 -0.993164c83.4541 -4.27734 170.785 -10.5225 217.101 -90.9854c40.7754 -70.8389 34.5947 -164.71 -10.0938 -232.294
c-45.4229 -68.6943 -140.498 -98.2119 -210.826 -49.2051c-85.1162 59.3115 -47.3086 161.255 -2.05078 232.047c25.1934 39.4121 80.9326 -5.18164 57.0312 -44.0703c-21.6621 -35.2402 -58.7295 -94.9102 -14.3643 -128.6
c34.5469 -26.2334 80.8564 -7.78516 105.551 22.7373c48.9297 60.4697 42.3789 177.107 -38.6602 206.438c-42.5137 15.3877 -87.8418 7.59668 -131.467 14.9287c-42.6963 7.17383 -59.7344 44.8818 -49.917 84.5352c11.416 46.1221 35.1113 92.5664 56.9854 134.44
c13.8369 26.4863 28.4375 53.0664 44.583 78.542c-40.0703 -8.9541 -79.9053 -18.9717 -120.222 -26.8857c-30.4463 -5.98145 -41.7266 42.0674 -13.3193 52.2783c74.082 26.6387 152.794 49.8057 230.907 60.6982c63.877 8.90723 144.863 13.6543 197.747 -30.3701z" />
    <glyph glyph-name="six" unicode="6" horiz-adv-x="376" 
d="M314.919 594.577c28.1016 -20.376 -4.49023 -61.5381 -32.7041 -42.3135c-15.0938 10.2822 -51.5273 -33.8301 -59.2891 -42.5605c-15.0469 -16.9326 -28.5137 -35.1582 -41.8213 -53.46c-30.7227 -42.2676 -59.8584 -85.9805 -86.127 -131.162
c-22.2148 -38.207 -42.085 -77.9307 -59.1113 -118.759c34.9346 11.9561 71.9492 17.2969 109.646 14.5527c52.0674 -3.78418 106.456 -30.917 122.666 -83.6602c16.6738 -54.2412 -12.6328 -114.193 -46.4219 -155.645
c-34.2715 -42.0498 -82.085 -76.1211 -135.739 -87.3486c-51.8916 -10.8633 -104.688 8.43164 -136.174 51.4512c-35 47.8252 -38.5312 108.541 -25.9229 164.786c25.9102 115.568 85.7334 224.874 153.682 320.848c40.6162 57.373 148.259 227.841 237.317 163.271z
M143.122 148.702c-47.1377 5.88672 -96.9268 -8.99414 -136.65 -33.9287c-1.45703 -0.916992 -2.92578 -1.68066 -4.39453 -2.36816c-7.41504 -28.002 -11.1572 -56.709 -5.64062 -83.6182c9.2832 -45.2754 43.46 -69.7344 88.6064 -54.9287
c42.1738 13.8311 78.7891 49.1592 99.124 87.9072c8.90723 16.9795 21.0928 43.46 10.2236 62.2842c-9.7998 16.9736 -33.4365 22.4258 -51.2686 24.6523z" />
    <glyph glyph-name="seven" unicode="7" horiz-adv-x="506" 
d="M362.265 601.104c46.9971 18.6719 191.936 71.8809 208.516 -11.4375c7.91406 -39.7529 -35.8516 -84.958 -59.1182 -113.007c-29.9707 -36.1338 -60.957 -71.2217 -89.5117 -108.53c-28.1543 -36.792 -54.8691 -74.5645 -79.6221 -113.565
c10.9521 -0.416992 21.8213 -1.16895 32.5439 -2.34375c35.1348 -3.85449 34.9766 -62.0264 -0.939453 -62.585c-24.2598 -0.375977 -47.9785 -1.16309 -71.498 -2.46191c-9.46484 -17.1504 -18.6123 -34.4941 -27.2197 -52.1553
c-42.3379 -86.873 -83.9941 -185.25 -81.3389 -283.504c1.29883 -47.8721 -70.2803 -57.8896 -75.1631 -8.68359c-10.5811 106.714 35.917 218.786 81.2393 313.285c3.64844 7.6084 7.46191 15.1465 11.2695 22.6787c-18.3311 -2.46191 -36.7559 -5.44043 -55.4277 -9.05957
c-32.3789 -6.27441 -45.416 46.1924 -14.2939 56.1221c34.4648 10.9932 71.292 19.3008 108.612 24.1895c27.6729 47.1201 58.1895 92.6191 90.8447 136.268c28.084 37.5381 58.2539 73.4365 89.3994 108.448c15.6523 17.5967 31.6748 34.9229 46.3691 53.3359
c3.80176 4.76465 7.40918 11.1104 11.3926 16.6152c-16.874 -2.29688 -33.8242 -3.07812 -50.6045 -7.6084c-18.6777 -5.04102 -36.915 -11.792 -54.9053 -18.8604c-37.8135 -14.8467 -74.5635 -32.4082 -113.006 -45.6455
c-63.6826 -21.9326 -169.804 -46.1748 -214.933 21.6973c-19.1533 28.8066 23.0088 61.4854 42.9199 32.8311c24.0713 -34.6416 103.453 -9.82422 135.216 0.974609c44.124 15.0059 85.9922 35.8164 129.259 53.002z" />
    <glyph glyph-name="eight" unicode="8" horiz-adv-x="410" 
d="M301.821 623.819c59.1123 -9.38867 100.521 -55.9697 102.089 -116.062c1.70996 -65.2578 -36.709 -128.87 -67.1436 -184.239c-33.3311 -60.6338 -69.8057 -119.834 -108.754 -177.024c10.6465 -23.4775 18.3018 -47.8428 19.6768 -73.4766
c3.12012 -58.0312 -32.7666 -107.843 -82.8896 -133.895c-50.9219 -26.4688 -117.643 -22.1504 -162.489 14.7471c-53.1895 43.7598 -63.5596 117.812 -51.4854 181.937c11.457 60.8633 36.4043 120.51 73.6191 170.15c8.12012 10.8223 18.7783 24.1475 31.0576 36.8203
c-13.2139 87.4902 14.5586 176.819 90.8447 235.021c43.0781 32.873 100.751 54.7178 155.475 46.0225zM79.8838 -10.0273c52.5967 -8.38379 107.194 35.0947 94.8389 90.4932c-13.6953 61.4209 -61.5381 115.257 -89.6631 170.614
c-2.91992 5.74023 -5.59863 11.5625 -8.13672 17.4258c-1.78027 -2.32031 -3.22559 -4.25879 -4.20703 -5.61621c-19.8936 -27.6318 -34.5469 -58.6777 -45.3809 -90.8984c-20.0352 -59.5938 -32.9961 -168.382 52.5488 -182.019zM295.954 405.585
c15.4814 31.5566 38.959 70.8506 33.2188 107.372c-5.43457 34.582 -37.9668 41.5801 -68.2012 37.0088c-59.2354 -8.95996 -109.822 -57.5664 -128.124 -113.383c-5.60547 -17.0918 -8.00293 -33.9658 -8.01465 -50.6045
c13.6309 1.90918 27.3672 -0.852539 40.5283 -10.6406c26.3213 -19.5713 0.370117 -65.4229 -29.2832 -50.0176c-0.405273 0.211914 -0.869141 0.299805 -1.36816 0.334961c7.82031 -24.9346 19.5186 -49.1465 32.6025 -72.4541
c6.375 -11.3574 13.3369 -22.8027 20.4053 -34.3828c37.6904 61.3682 76.4209 121.932 108.236 186.767z" />
    <glyph glyph-name="nine" unicode="9" horiz-adv-x="522" 
d="M365.436 538.779c53.1426 20.916 88.5791 -41.2314 94.8359 -89.4209c7.89648 -60.7275 -2.13281 -127.248 -16.1221 -186.343c-15.5928 -65.8926 -39.5352 -129.699 -71.8906 -189.205c-28.8955 -53.1484 -62.3672 -108.33 -112.249 -144.429
c-48.3721 -35 -112.413 -50.7461 -169.316 -27.7793c-52.0264 20.999 -89.3291 70.6631 -103.548 123.8c-11.4512 42.7842 50.8867 70.4746 65.54 26.4795c20.4932 -61.5322 70.7568 -108.711 138.247 -79.3457c65.2871 28.4072 104.364 104.969 133.729 165.749
c29.0596 60.1465 50.082 123.812 60.458 189.856c5.33496 33.9541 9.69434 69.8232 6.80957 104.218c-0.570312 6.81543 -1.86914 13.1377 -3.47266 19.4062c-7.10352 -5.76953 -17.1504 -8.07812 -25.9756 -5.81641c-42.7197 -49.0537 -81.0156 -103.554 -134.822 -141.468
c-44.6826 -31.4863 -110.398 -59.8936 -165.169 -38.4658c-51.791 20.2695 -65.9922 77.9658 -52.6553 127.659c15.4346 57.502 59.8525 103.706 107.531 137.002c48.9121 34.1592 110.228 62.085 171.231 49.8291c29.3301 -5.89258 56.7148 -20.5811 76.8379 -41.7266z
M218.106 386.31c25.4463 23.748 46.8965 51.5557 69.0879 78.2764c9.58301 11.5332 19.2539 24.2061 29.7295 36.0449c-38.8008 27.1973 -99.7988 12.0449 -141.126 -13.3838c-28.4482 -17.5029 -55.416 -39.4473 -75.627 -66.1621
c-14.4355 -19.083 -35.7744 -54.1123 -23.7539 -79.3174c11.8623 -24.8818 53.918 -10.293 72.7129 -2.43164c25.8281 10.8047 48.6064 27.9609 68.9766 46.9736z" />
    <glyph glyph-name="colon" unicode=":" horiz-adv-x="167" 
d="M96.4141 404.017c1.44531 -8.96582 -2.05469 -19.9023 -7.50684 -26.959c-2.9375 -4.11816 -6.65039 -7.19727 -11.1514 -9.25977c-4.16602 -2.87305 -8.8252 -4.51855 -13.9775 -4.92969c-5.88086 -1.43359 -14.7354 0.358398 -20.2168 2.63184
c-6.33398 2.62012 -11.5156 6.55078 -15.7285 11.9619c-2.34473 3.00195 -4.24219 6.3623 -5.62891 9.90527c-3.16699 8.09082 -3.36133 16.2402 -1.03516 24.5361c1.56836 5.57031 2.78418 8.83105 6.79688 13.8955c6.0166 7.59668 15.2822 12.8965 24.9297 14.0771
c9.17773 1.12207 21.252 -1.63379 28.4199 -8.0791c3.90723 -2.79102 6.83887 -6.32227 8.79492 -10.5938c1.15723 -1.53906 1.9502 -3.22559 2.56152 -4.98242c1.82129 -3.87793 3.07227 -8.04395 3.74219 -12.2041zM28.7793 115.093
c2.13867 -2.83789 3.42578 -6.01562 3.86035 -9.54688c1.71582 -4.86523 2.0918 -9.88867 1.13379 -15.0645l-2.67773 -9.53613c-3.49023 -9.31836 -12.2793 -16.8799 -21.1338 -20.7695c-7.15039 -3.14355 -16.0576 -4.25391 -23.7959 -3.10254
c-7.33203 1.09277 -13.625 3.51953 -19.5654 7.99609c-3.12598 2.35645 -5.62891 5.42383 -8.39062 8.20312c-3.45508 4.20703 -5.61719 8.9248 -6.48047 14.1719c-1.72754 4.90625 -2.10938 9.96484 -1.13965 15.1885c1.25098 6.59766 3.86523 12.7373 7.73145 18.2246
c3.09082 4.32422 6.99219 7.56738 11.7217 9.72949c2.85547 2.15625 6.06348 3.44922 9.61816 3.88379c4.90625 1.72754 9.96484 2.10938 15.1885 1.13965c0.892578 -0.24707 1.78613 -0.5 2.67285 -0.74707c7.76758 -0.43457 15.3584 -3.73633 21.6035 -8.14258
c4.28906 -3.06152 7.50879 -6.93945 9.65332 -11.6279z" />
    <glyph glyph-name="semicolon" unicode=";" horiz-adv-x="156" 
d="M117.151 431.954c1.44531 -8.9541 -2.05957 -19.8545 -7.48828 -26.9287l-0.969727 -1.25098c-4.12402 -5.2998 -9.2998 -9.22461 -15.5332 -11.7627c-6.24512 -2.49707 -12.6963 -3.27246 -19.3477 -2.32617
c-0.152344 0.0410156 -0.310547 0.0761719 -0.462891 0.117188c-4.81738 0.53418 -9.16504 2.16797 -13.0488 4.89453c-2.95508 1.26953 -5.42285 3.17285 -7.38477 5.72266c-3.75977 3.18457 -6.48633 7.14453 -8.20215 11.8857
c-0.810547 3.16699 -1.62109 6.33398 -2.43164 9.50684c-0.0410156 0.164062 -0.0820312 0.322266 -0.123047 0.486328c-0.722656 6.52148 0.188477 12.8027 2.72656 18.8428c2.5791 6.02246 6.46875 11.04 11.6562 15.0469l1.25098 0.969727
c8.06055 6.2041 17.9727 8.24316 27.8848 7.23242c7.9082 -0.816406 15.2461 -5.28125 20.6982 -10.7568c3.80762 -3.22559 6.58105 -7.24414 8.31445 -12.0439c0.816406 -3.21387 1.63867 -6.42188 2.46094 -9.63574zM-32.2383 134.841
c26.6738 33.6602 79.4004 -7.23145 52.6797 -40.7031c-28.8896 -36.1807 -55.7109 -75.9453 -88.0781 -109.059c-10.5576 -10.793 -24.7588 -15.3115 -38.4775 -7.27441c-11.6982 6.84473 -19.5654 24.1182 -12.4854 37.1084
c23.3896 42.9199 56.0859 81.7266 86.3613 119.928z" />
    <glyph glyph-name="less" unicode="&#x3c;" horiz-adv-x="286" 
d="M191.359 455.509c31.8799 17.127 61.3867 -35.8887 31.3926 -55.042c-32.5146 -20.7637 -64.0244 -43.043 -94.0889 -67.2197c-14.4062 -11.5859 -28.542 -23.4834 -42.2314 -35.916c-12.0801 -10.9756 -31.1221 -24.1191 -38.9189 -38.6133
c-4.67676 -8.70117 -5.42871 -5.32324 0.946289 -13.0732c4.27148 -5.19336 11.751 -8.63086 17.4092 -12.2734c15.8633 -10.2109 31.7441 -19.999 46.7383 -31.5146c27.8848 -21.416 53.5127 -46.2393 75.8975 -73.3301
c30.5166 -36.9326 -27.3438 -79.5996 -58.4541 -44.7178c-32.6729 36.6328 -68.6943 64.124 -109.499 90.9102c-34.2061 22.4502 -63.1602 58.3779 -47.4082 101.392c14.7119 40.1699 60.8633 71.7324 92.9072 97.5547c39.0479 31.4688 81.1855 58.1367 125.31 81.8438z" />
    <glyph glyph-name="equal" unicode="=" horiz-adv-x="479" 
d="M29.459 289.13c-34.377 -8.17871 -49.0703 50.9062 -15.334 60.2188c118.806 32.8193 240.103 28.084 361.399 13.7246c44.0713 -5.21777 34.1006 -73.6074 -9.95898 -68.1846c-112.144 13.8125 -225.203 20.6279 -336.106 -5.75879zM376.271 260.302
c39.1533 -1.02832 37.8027 -68.9111 -1.02734 -68.5996c-62.6201 0.510742 -124.981 -1.52246 -187.413 -6.46973c-62.3262 -4.94141 -124.617 -14.2891 -187.078 -16.9619c-40.9453 -1.75098 -47.543 55.4512 -7.29102 63.124
c124.17 23.6836 256.571 32.2324 382.81 28.9072z" />
    <glyph glyph-name="greater" unicode="&#x3e;" horiz-adv-x="367" 
d="M248.184 350.41c18.4541 -36.0156 35.873 -76.958 36.748 -118.062c0.975586 -45.7578 -29.5176 -73.7012 -64.752 -97.6143c-37.0205 -25.123 -77.1318 -46.3857 -119.182 -61.7266c-45.3281 -16.5332 -73.1182 51.6445 -28.1309 69.6289
c37.2207 14.8818 73.1367 31.6387 106.686 53.7422c14.5713 9.58887 32.6553 18.3428 33.96 37.25c1.13965 16.5273 -6.32812 36.0273 -11.8389 51.2441c-12.667 34.9639 -30.6514 67.6016 -46.1094 101.332c-10.9521 23.8896 -29.8301 55.7461 -12.415 80.4229
c12.8613 18.2256 44.1885 13.9658 51.6094 -7.11523c0.164062 -0.458008 0.322266 -0.921875 0.486328 -1.38574c0.763672 -2.16797 1.19824 -4.35938 1.47461 -6.55078c0.623047 -1.45703 1.375 -3.36035 2.33301 -5.96875
c2.7793 -5.83984 5.55859 -11.6855 8.33203 -17.5312c4.25391 -8.75977 8.63672 -17.4551 13.1787 -26.0742c9.08887 -17.2617 18.7246 -34.2295 27.6201 -51.5908z" />
    <glyph glyph-name="question" unicode="?" horiz-adv-x="375" 
d="M388.269 834.059c90.4043 -17.5791 118.296 -104.945 85.0996 -184.421c-35.0703 -83.9473 -92.4434 -161.473 -140.046 -238.675c-48.5186 -78.6826 -92.6602 -159.093 -129.357 -244.01c-19.5059 -45.123 -86.8379 -15.9814 -69.8877 29.6641
c61.3096 165.074 174.258 303.58 259.333 456.093c15.9756 28.6367 41.6689 79.2939 6.07031 104.123c-29.3887 20.4932 -77.625 11.9209 -109.846 4.67676c-37.3438 -8.40137 -73.5713 -24.3408 -105.104 -45.9736c-17.3848 -11.9209 -34.2939 -25.3047 -48.4775 -40.9453
c-6.69824 -7.37988 -12.8965 -15.2178 -18.0781 -23.749c-2.9082 -4.18945 -5.28809 -8.67285 -7.13281 -13.4492c-0.0878906 -4.21289 -0.804688 -6.86816 -2.06836 -8.14355c25.0703 -11.0693 15.8984 -54.2588 -15.582 -51.0449
c-50.5518 5.16406 -49.7588 60.3867 -32.7441 96.1973c19.8291 41.7324 58.1191 75.9795 96.2734 100.921c64.7344 42.3203 153.341 73.9414 231.548 58.7363zM146.381 91.5889c21.4336 0 41.751 -11.5684 44.2129 -35.0576
c2.05664 -19.6533 -13.3428 -44.2119 -35.0586 -44.2119c-21.4336 0 -41.751 11.5684 -44.2129 35.0576c-2.05664 19.6533 13.3428 44.2119 35.0586 44.2119z" />
    <glyph glyph-name="at" unicode="@" horiz-adv-x="779" 
d="M715.092 450.479c46.4268 -24.5645 30.9346 -91.9902 19.7246 -132.178c-49.3359 -177.06 -201.261 -335.254 -383.567 -373.497c-87.1611 -18.2842 -185.896 -1.18066 -254.292 58.5479c-70.1992 61.2979 -92.8838 153.759 -89.7051 243.828
c6.42773 182.16 111.262 364.114 265.185 461.527c81.0977 51.3213 181.907 84.2939 277.452 58.0488c87.7959 -24.1182 152.014 -99.499 149.857 -191.848c-0.93457 -40.2637 -70.1758 -38.8477 -70.5049 1.05762c-0.828125 100.669 -103.994 138.318 -190.074 124.094
c-88.377 -14.6006 -168.993 -71.7207 -227.447 -137.59c-51.6621 -58.2188 -90.2871 -126.99 -112.726 -201.566c-21.7744 -72.3672 -31.6328 -157.625 -4.64746 -229.897c27.7959 -74.4346 97.4248 -117.431 175.085 -123.136
c83.0664 -6.10449 165.175 32.7197 229.498 82.2725c61.1807 47.126 111.162 108.97 143.882 178.969c8.68359 18.5781 16.4219 37.7139 22.6084 57.2676c5.04688 15.9512 5.78711 33.0605 8.94824 49.2119c-5.6875 -3.88379 -12.4795 -7.19727 -17.6797 -10.916
c-15.3408 -10.958 -29.9238 -22.9375 -44.6826 -34.6533c-29.0596 -23.0605 -61.2627 -50.5225 -98.2539 -58.9717c-36.3096 -8.29004 -70.6572 8.97168 -81.7734 45.2344c-8.06641 26.3154 -6.37402 52.9189 -0.181641 79.4873
c-23.2607 -33.6777 -46.6094 -67.4082 -73.46 -98.3594c-26.8271 -30.9219 -59.6406 -67.8779 -103.224 -71.832c-38.8828 -3.53125 -69.5049 23.9062 -81.8721 58.7822c-51.832 146.185 137.473 360.283 288.188 285.942
c5.34668 -2.64355 9.17188 -6.22168 11.7275 -10.2637c10.5459 9.25977 22.5732 15.917 36.8623 15.9463c21.0811 0.0410156 40.8984 -14.835 37.1621 -38.2949c-8.84277 -55.5166 -37.5264 -104.958 -47.7793 -159.816
c-1.77441 -9.48828 -7.07422 -27.8604 -2.7207 -37.2666c3.51953 -7.61426 0.046875 -3.75977 8.21387 -0.287109c4.09473 1.74512 7.95508 3.66602 11.833 5.86914c23.0781 13.0781 43.6768 31.0918 64.3525 47.5664c32.0029 25.499 89.6289 80.2041 134.012 56.7207z
M382.683 442.472c18.249 26.4805 36.5449 52.9785 56.5508 78.1777c-60.5459 22.7021 -129.945 -28.9658 -164.98 -74.9053c-17.2441 -22.6084 -30.7871 -48.8828 -37.4619 -76.6553c-3.97754 -16.5449 -13.6836 -82.9014 18.5605 -75.4336
c26.9619 6.25098 53.0254 47.3311 69.042 67.6895c20.5986 26.1865 39.3936 53.707 58.2891 81.127z" />
    <glyph glyph-name="A" unicode="A" horiz-adv-x="922" 
d="M805.341 145.18c-26.3809 3.58398 -52.6699 5.73926 -78.8916 6.80273c-46.1689 -101.291 -87.291 -204.773 -124.023 -309.966c-10.1582 -29.0947 -41.3447 -28.0547 -59.2236 -11.8623c-8.49023 4.7002 -14.4365 13.8477 -12.8975 26.9443
c0 0.0234375 0.00585938 0.046875 0.00585938 0.0703125c-0.111328 3.55469 0.264648 7.26758 1.25195 11.1162c9.82324 90.0166 10.9512 184.151 -4.90625 274.55c-9.42969 -1.03418 -18.8594 -2.12109 -28.2832 -3.24902
c-135.104 -120.833 -278.322 -233.893 -432.791 -328.463c-40.0586 -24.5293 -85.1758 32.6553 -44.9648 58.7832c119.44 77.6191 233.692 161.754 343.074 252.217c-30.6396 -3.9541 -61.333 -7.67871 -92.1084 -10.7158
c-105.51 -10.4111 -336.071 -38.125 -319.256 130.615c13.0547 130.997 145.521 229.557 265.495 254.991c173.512 36.7803 278.651 -66.5088 333.65 -208.751c143.348 134.887 277.723 278.486 412.539 421.857c27.5205 29.2598 76.9795 -7.33203 50.1699 -38.7656
c-0.94043 -1.10449 -1.9043 -2.19141 -2.84473 -3.2959c-0.134766 -5.49316 -1.67969 -11.2393 -5.09961 -16.8975c-78.5596 -129.951 -160.621 -256.125 -228.729 -392.21c-8.20215 -16.3867 -16.2451 -32.8379 -24.1592 -49.3535
c20.1641 -1.64551 40.2871 -3.99609 60.3164 -7.40332c36.5273 -6.21582 28.5254 -62.0264 -8.3252 -57.0146zM771.837 403.883c-63.7129 -66.1445 -128.981 -130.756 -195.984 -193.394c0.276367 -1.11035 0.570312 -2.20312 0.84082 -3.31348
c31.9502 2.83203 63.9648 4.71191 95.9385 5.09375c13.6895 28.4189 27.6904 56.6914 42.208 84.6934c18.4482 35.5986 37.3906 71.3623 56.9971 106.92zM422.43 188.604c7.66699 1.05176 15.3525 2.10742 23.0488 3.15332c18.8125 16.4746 37.4785 33.1426 55.9922 50.0107
c-6.43945 18.7832 -13.8018 37.2617 -22.2207 55.334c-24.9287 53.501 -64.5049 103.482 -119.986 127.119c-56.709 24.1592 -122.084 17.585 -178.247 -4.73535c-51.5039 -20.4697 -98.084 -54.4941 -130.851 -99.4346
c-25.9219 -35.5576 -66.3857 -115.099 -9.88867 -142.396c25.4756 -12.3086 57.8896 -12.0439 85.5098 -12.9424c31.8389 -1.03418 63.748 -0.0292969 95.5342 1.95117c67.3438 4.20117 134.294 12.7617 201.108 21.9395zM599.209 48.0918
c14.4121 34.8877 29.4473 69.5166 45.1113 103.858c-18.6016 -0.693359 -37.1855 -1.79199 -55.752 -3.2373c5.52832 -33.5127 9.0127 -67.3779 10.6406 -100.621z" />
    <glyph glyph-name="A" unicode="&#xc5;" horiz-adv-x="922" 
d="M805.341 145.18c-26.3809 3.58398 -52.6699 5.73926 -78.8916 6.80273c-46.1689 -101.291 -87.291 -204.773 -124.023 -309.966c-10.1582 -29.0947 -41.3447 -28.0547 -59.2236 -11.8623c-8.49023 4.7002 -14.4365 13.8477 -12.8975 26.9443
c0 0.0234375 0.00585938 0.046875 0.00585938 0.0703125c-0.111328 3.55469 0.264648 7.26758 1.25195 11.1162c9.82324 90.0166 10.9512 184.151 -4.90625 274.55c-9.42969 -1.03418 -18.8594 -2.12109 -28.2832 -3.24902
c-135.104 -120.833 -278.322 -233.893 -432.791 -328.463c-40.0586 -24.5293 -85.1758 32.6553 -44.9648 58.7832c119.44 77.6191 233.692 161.754 343.074 252.217c-30.6396 -3.9541 -61.333 -7.67871 -92.1084 -10.7158
c-105.51 -10.4111 -336.071 -38.125 -319.256 130.615c13.0547 130.997 145.521 229.557 265.495 254.991c173.512 36.7803 278.651 -66.5088 333.65 -208.751c143.348 134.887 277.723 278.486 412.539 421.857c27.5205 29.2598 76.9795 -7.33203 50.1699 -38.7656
c-0.94043 -1.10449 -1.9043 -2.19141 -2.84473 -3.2959c-0.134766 -5.49316 -1.67969 -11.2393 -5.09961 -16.8975c-78.5596 -129.951 -160.621 -256.125 -228.729 -392.21c-8.20215 -16.3867 -16.2451 -32.8379 -24.1592 -49.3535
c20.1641 -1.64551 40.2871 -3.99609 60.3164 -7.40332c36.5273 -6.21582 28.5254 -62.0264 -8.3252 -57.0146zM771.837 403.883c-63.7129 -66.1445 -128.981 -130.756 -195.984 -193.394c0.276367 -1.11035 0.570312 -2.20312 0.84082 -3.31348
c31.9502 2.83203 63.9648 4.71191 95.9385 5.09375c13.6895 28.4189 27.6904 56.6914 42.208 84.6934c18.4482 35.5986 37.3906 71.3623 56.9971 106.92zM422.43 188.604c7.66699 1.05176 15.3525 2.10742 23.0488 3.15332c18.8125 16.4746 37.4785 33.1426 55.9922 50.0107
c-6.43945 18.7832 -13.8018 37.2617 -22.2207 55.334c-24.9287 53.501 -64.5049 103.482 -119.986 127.119c-56.709 24.1592 -122.084 17.585 -178.247 -4.73535c-51.5039 -20.4697 -98.084 -54.4941 -130.851 -99.4346
c-25.9219 -35.5576 -66.3857 -115.099 -9.88867 -142.396c25.4756 -12.3086 57.8896 -12.0439 85.5098 -12.9424c31.8389 -1.03418 63.748 -0.0292969 95.5342 1.95117c67.3438 4.20117 134.294 12.7617 201.108 21.9395zM599.209 48.0918
c14.4121 34.8877 29.4473 69.5166 45.1113 103.858c-18.6016 -0.693359 -37.1855 -1.79199 -55.752 -3.2373c5.52832 -33.5127 9.0127 -67.3779 10.6406 -100.621z" />
    <glyph glyph-name="A" unicode="&#xc4;" horiz-adv-x="922" 
d="M805.341 145.18c-26.3809 3.58398 -52.6699 5.73926 -78.8916 6.80273c-46.1689 -101.291 -87.291 -204.773 -124.023 -309.966c-10.1582 -29.0947 -41.3447 -28.0547 -59.2236 -11.8623c-8.49023 4.7002 -14.4365 13.8477 -12.8975 26.9443
c0 0.0234375 0.00585938 0.046875 0.00585938 0.0703125c-0.111328 3.55469 0.264648 7.26758 1.25195 11.1162c9.82324 90.0166 10.9512 184.151 -4.90625 274.55c-9.42969 -1.03418 -18.8594 -2.12109 -28.2832 -3.24902
c-135.104 -120.833 -278.322 -233.893 -432.791 -328.463c-40.0586 -24.5293 -85.1758 32.6553 -44.9648 58.7832c119.44 77.6191 233.692 161.754 343.074 252.217c-30.6396 -3.9541 -61.333 -7.67871 -92.1084 -10.7158
c-105.51 -10.4111 -336.071 -38.125 -319.256 130.615c13.0547 130.997 145.521 229.557 265.495 254.991c173.512 36.7803 278.651 -66.5088 333.65 -208.751c143.348 134.887 277.723 278.486 412.539 421.857c27.5205 29.2598 76.9795 -7.33203 50.1699 -38.7656
c-0.94043 -1.10449 -1.9043 -2.19141 -2.84473 -3.2959c-0.134766 -5.49316 -1.67969 -11.2393 -5.09961 -16.8975c-78.5596 -129.951 -160.621 -256.125 -228.729 -392.21c-8.20215 -16.3867 -16.2451 -32.8379 -24.1592 -49.3535
c20.1641 -1.64551 40.2871 -3.99609 60.3164 -7.40332c36.5273 -6.21582 28.5254 -62.0264 -8.3252 -57.0146zM771.837 403.883c-63.7129 -66.1445 -128.981 -130.756 -195.984 -193.394c0.276367 -1.11035 0.570312 -2.20312 0.84082 -3.31348
c31.9502 2.83203 63.9648 4.71191 95.9385 5.09375c13.6895 28.4189 27.6904 56.6914 42.208 84.6934c18.4482 35.5986 37.3906 71.3623 56.9971 106.92zM422.43 188.604c7.66699 1.05176 15.3525 2.10742 23.0488 3.15332c18.8125 16.4746 37.4785 33.1426 55.9922 50.0107
c-6.43945 18.7832 -13.8018 37.2617 -22.2207 55.334c-24.9287 53.501 -64.5049 103.482 -119.986 127.119c-56.709 24.1592 -122.084 17.585 -178.247 -4.73535c-51.5039 -20.4697 -98.084 -54.4941 -130.851 -99.4346
c-25.9219 -35.5576 -66.3857 -115.099 -9.88867 -142.396c25.4756 -12.3086 57.8896 -12.0439 85.5098 -12.9424c31.8389 -1.03418 63.748 -0.0292969 95.5342 1.95117c67.3438 4.20117 134.294 12.7617 201.108 21.9395zM599.209 48.0918
c14.4121 34.8877 29.4473 69.5166 45.1113 103.858c-18.6016 -0.693359 -37.1855 -1.79199 -55.752 -3.2373c5.52832 -33.5127 9.0127 -67.3779 10.6406 -100.621z" />
    <glyph glyph-name="A" unicode="&#xc3;" horiz-adv-x="922" 
d="M805.341 145.18c-26.3809 3.58398 -52.6699 5.73926 -78.8916 6.80273c-46.1689 -101.291 -87.291 -204.773 -124.023 -309.966c-10.1582 -29.0947 -41.3447 -28.0547 -59.2236 -11.8623c-8.49023 4.7002 -14.4365 13.8477 -12.8975 26.9443
c0 0.0234375 0.00585938 0.046875 0.00585938 0.0703125c-0.111328 3.55469 0.264648 7.26758 1.25195 11.1162c9.82324 90.0166 10.9512 184.151 -4.90625 274.55c-9.42969 -1.03418 -18.8594 -2.12109 -28.2832 -3.24902
c-135.104 -120.833 -278.322 -233.893 -432.791 -328.463c-40.0586 -24.5293 -85.1758 32.6553 -44.9648 58.7832c119.44 77.6191 233.692 161.754 343.074 252.217c-30.6396 -3.9541 -61.333 -7.67871 -92.1084 -10.7158
c-105.51 -10.4111 -336.071 -38.125 -319.256 130.615c13.0547 130.997 145.521 229.557 265.495 254.991c173.512 36.7803 278.651 -66.5088 333.65 -208.751c143.348 134.887 277.723 278.486 412.539 421.857c27.5205 29.2598 76.9795 -7.33203 50.1699 -38.7656
c-0.94043 -1.10449 -1.9043 -2.19141 -2.84473 -3.2959c-0.134766 -5.49316 -1.67969 -11.2393 -5.09961 -16.8975c-78.5596 -129.951 -160.621 -256.125 -228.729 -392.21c-8.20215 -16.3867 -16.2451 -32.8379 -24.1592 -49.3535
c20.1641 -1.64551 40.2871 -3.99609 60.3164 -7.40332c36.5273 -6.21582 28.5254 -62.0264 -8.3252 -57.0146zM771.837 403.883c-63.7129 -66.1445 -128.981 -130.756 -195.984 -193.394c0.276367 -1.11035 0.570312 -2.20312 0.84082 -3.31348
c31.9502 2.83203 63.9648 4.71191 95.9385 5.09375c13.6895 28.4189 27.6904 56.6914 42.208 84.6934c18.4482 35.5986 37.3906 71.3623 56.9971 106.92zM422.43 188.604c7.66699 1.05176 15.3525 2.10742 23.0488 3.15332c18.8125 16.4746 37.4785 33.1426 55.9922 50.0107
c-6.43945 18.7832 -13.8018 37.2617 -22.2207 55.334c-24.9287 53.501 -64.5049 103.482 -119.986 127.119c-56.709 24.1592 -122.084 17.585 -178.247 -4.73535c-51.5039 -20.4697 -98.084 -54.4941 -130.851 -99.4346
c-25.9219 -35.5576 -66.3857 -115.099 -9.88867 -142.396c25.4756 -12.3086 57.8896 -12.0439 85.5098 -12.9424c31.8389 -1.03418 63.748 -0.0292969 95.5342 1.95117c67.3438 4.20117 134.294 12.7617 201.108 21.9395zM599.209 48.0918
c14.4121 34.8877 29.4473 69.5166 45.1113 103.858c-18.6016 -0.693359 -37.1855 -1.79199 -55.752 -3.2373c5.52832 -33.5127 9.0127 -67.3779 10.6406 -100.621z" />
    <glyph glyph-name="A" unicode="&#xc2;" horiz-adv-x="922" 
d="M805.341 145.18c-26.3809 3.58398 -52.6699 5.73926 -78.8916 6.80273c-46.1689 -101.291 -87.291 -204.773 -124.023 -309.966c-10.1582 -29.0947 -41.3447 -28.0547 -59.2236 -11.8623c-8.49023 4.7002 -14.4365 13.8477 -12.8975 26.9443
c0 0.0234375 0.00585938 0.046875 0.00585938 0.0703125c-0.111328 3.55469 0.264648 7.26758 1.25195 11.1162c9.82324 90.0166 10.9512 184.151 -4.90625 274.55c-9.42969 -1.03418 -18.8594 -2.12109 -28.2832 -3.24902
c-135.104 -120.833 -278.322 -233.893 -432.791 -328.463c-40.0586 -24.5293 -85.1758 32.6553 -44.9648 58.7832c119.44 77.6191 233.692 161.754 343.074 252.217c-30.6396 -3.9541 -61.333 -7.67871 -92.1084 -10.7158
c-105.51 -10.4111 -336.071 -38.125 -319.256 130.615c13.0547 130.997 145.521 229.557 265.495 254.991c173.512 36.7803 278.651 -66.5088 333.65 -208.751c143.348 134.887 277.723 278.486 412.539 421.857c27.5205 29.2598 76.9795 -7.33203 50.1699 -38.7656
c-0.94043 -1.10449 -1.9043 -2.19141 -2.84473 -3.2959c-0.134766 -5.49316 -1.67969 -11.2393 -5.09961 -16.8975c-78.5596 -129.951 -160.621 -256.125 -228.729 -392.21c-8.20215 -16.3867 -16.2451 -32.8379 -24.1592 -49.3535
c20.1641 -1.64551 40.2871 -3.99609 60.3164 -7.40332c36.5273 -6.21582 28.5254 -62.0264 -8.3252 -57.0146zM771.837 403.883c-63.7129 -66.1445 -128.981 -130.756 -195.984 -193.394c0.276367 -1.11035 0.570312 -2.20312 0.84082 -3.31348
c31.9502 2.83203 63.9648 4.71191 95.9385 5.09375c13.6895 28.4189 27.6904 56.6914 42.208 84.6934c18.4482 35.5986 37.3906 71.3623 56.9971 106.92zM422.43 188.604c7.66699 1.05176 15.3525 2.10742 23.0488 3.15332c18.8125 16.4746 37.4785 33.1426 55.9922 50.0107
c-6.43945 18.7832 -13.8018 37.2617 -22.2207 55.334c-24.9287 53.501 -64.5049 103.482 -119.986 127.119c-56.709 24.1592 -122.084 17.585 -178.247 -4.73535c-51.5039 -20.4697 -98.084 -54.4941 -130.851 -99.4346
c-25.9219 -35.5576 -66.3857 -115.099 -9.88867 -142.396c25.4756 -12.3086 57.8896 -12.0439 85.5098 -12.9424c31.8389 -1.03418 63.748 -0.0292969 95.5342 1.95117c67.3438 4.20117 134.294 12.7617 201.108 21.9395zM599.209 48.0918
c14.4121 34.8877 29.4473 69.5166 45.1113 103.858c-18.6016 -0.693359 -37.1855 -1.79199 -55.752 -3.2373c5.52832 -33.5127 9.0127 -67.3779 10.6406 -100.621z" />
    <glyph glyph-name="A" unicode="&#xc1;" horiz-adv-x="922" 
d="M805.341 145.18c-26.3809 3.58398 -52.6699 5.73926 -78.8916 6.80273c-46.1689 -101.291 -87.291 -204.773 -124.023 -309.966c-10.1582 -29.0947 -41.3447 -28.0547 -59.2236 -11.8623c-8.49023 4.7002 -14.4365 13.8477 -12.8975 26.9443
c0 0.0234375 0.00585938 0.046875 0.00585938 0.0703125c-0.111328 3.55469 0.264648 7.26758 1.25195 11.1162c9.82324 90.0166 10.9512 184.151 -4.90625 274.55c-9.42969 -1.03418 -18.8594 -2.12109 -28.2832 -3.24902
c-135.104 -120.833 -278.322 -233.893 -432.791 -328.463c-40.0586 -24.5293 -85.1758 32.6553 -44.9648 58.7832c119.44 77.6191 233.692 161.754 343.074 252.217c-30.6396 -3.9541 -61.333 -7.67871 -92.1084 -10.7158
c-105.51 -10.4111 -336.071 -38.125 -319.256 130.615c13.0547 130.997 145.521 229.557 265.495 254.991c173.512 36.7803 278.651 -66.5088 333.65 -208.751c143.348 134.887 277.723 278.486 412.539 421.857c27.5205 29.2598 76.9795 -7.33203 50.1699 -38.7656
c-0.94043 -1.10449 -1.9043 -2.19141 -2.84473 -3.2959c-0.134766 -5.49316 -1.67969 -11.2393 -5.09961 -16.8975c-78.5596 -129.951 -160.621 -256.125 -228.729 -392.21c-8.20215 -16.3867 -16.2451 -32.8379 -24.1592 -49.3535
c20.1641 -1.64551 40.2871 -3.99609 60.3164 -7.40332c36.5273 -6.21582 28.5254 -62.0264 -8.3252 -57.0146zM771.837 403.883c-63.7129 -66.1445 -128.981 -130.756 -195.984 -193.394c0.276367 -1.11035 0.570312 -2.20312 0.84082 -3.31348
c31.9502 2.83203 63.9648 4.71191 95.9385 5.09375c13.6895 28.4189 27.6904 56.6914 42.208 84.6934c18.4482 35.5986 37.3906 71.3623 56.9971 106.92zM422.43 188.604c7.66699 1.05176 15.3525 2.10742 23.0488 3.15332c18.8125 16.4746 37.4785 33.1426 55.9922 50.0107
c-6.43945 18.7832 -13.8018 37.2617 -22.2207 55.334c-24.9287 53.501 -64.5049 103.482 -119.986 127.119c-56.709 24.1592 -122.084 17.585 -178.247 -4.73535c-51.5039 -20.4697 -98.084 -54.4941 -130.851 -99.4346
c-25.9219 -35.5576 -66.3857 -115.099 -9.88867 -142.396c25.4756 -12.3086 57.8896 -12.0439 85.5098 -12.9424c31.8389 -1.03418 63.748 -0.0292969 95.5342 1.95117c67.3438 4.20117 134.294 12.7617 201.108 21.9395zM599.209 48.0918
c14.4121 34.8877 29.4473 69.5166 45.1113 103.858c-18.6016 -0.693359 -37.1855 -1.79199 -55.752 -3.2373c5.52832 -33.5127 9.0127 -67.3779 10.6406 -100.621z" />
    <glyph glyph-name="B" unicode="B" horiz-adv-x="696" 
d="M589.593 421.093c69.0176 -43.6074 72.8555 -129.821 41.9102 -198.533c-30.5342 -67.8311 -84.9756 -121.667 -139.663 -170.456c-53.707 -47.9199 -111.104 -91.9736 -172.76 -129.218c-61.0098 -36.8564 -125.516 -68.1484 -194.046 -88.2773
c-25.5518 -7.50879 -53.166 -14.9062 -81.3682 -20.2646c-7.16211 -4.08301 -15.417 -5.19336 -23.3076 -3.91797c-35.5869 -5.08789 -71.4678 -6.06348 -104.793 1.0459c-68.2715 14.5654 -110.434 72.5791 -100.375 142.473
c9.87695 68.6357 66.792 123.693 118.618 164.762c72.0615 57.1025 157.994 94.6113 247.911 110.434c4.28906 7.58496 8.54297 15.1992 12.8613 22.7607c36.7266 64.2939 74.8809 127.777 114.439 190.367c12.4795 19.7471 24.8711 40.1641 37.8145 60.3281
c-28.3252 -7.70801 -56.1748 -17.1318 -83.6777 -27.5488c-35.1992 -13.3311 -55.6221 38.2842 -21.7861 53.9248c51.4678 23.7891 106.232 40.7217 162.078 50.9326c10.1055 11.498 20.7754 22.4082 32.2734 32.4082c20.9043 18.1787 47.9482 -0.0234375 51.667 -22.1387
c40.4697 1.78027 83.6416 -2.94336 110.78 -28.9834c42.9492 -41.2158 13.3018 -86.6504 -36.7031 -125.874c9.52441 -3.70117 18.9131 -8.40137 28.126 -14.2236zM533.854 521.04c-27.7549 6.51562 -57.3496 5.33105 -86.3682 1.55859
c-26.4453 -35.7402 -51.457 -72.5732 -75.4756 -110.094c15.7227 7.51465 31.9854 14.3184 48.5479 19.8291c19.6299 9.45312 38.8066 19.8467 57.3555 31.3916c17.1445 10.6699 33.9248 22.0625 50 34.2891c5.2002 3.81934 10.2529 7.82031 15.165 11.998
c1.12207 3.46094 2.28516 5.72266 3.47168 6.93848c-3.6543 1.25098 -8.6543 3.13672 -12.6963 4.08887zM-113.976 -64.7441c-1.74512 -61.6914 69.0947 -57.5303 112.525 -52.8887c1.80371 0.194336 3.5957 0.470703 5.39941 0.682617
c39.999 88.0713 83.7529 174.639 129.928 259.778c-56.1865 -17.4678 -109.247 -44.9941 -155.868 -81.8916c-37.4258 -29.624 -90.5156 -73.7305 -91.9844 -125.681zM553.326 229.501c24.0479 41.2041 43.3311 104.581 -7.71973 133.547
c-32.749 18.5723 -69.9873 13.1729 -104.893 0.84668c-23.1846 -11.0049 -42.9434 -19.2949 -54.6709 -23.9482c-22.9492 -9.09473 -40.3584 4.16016 -45.7578 21.7158c-24.9883 -40.9629 -49.0596 -82.4902 -72.7256 -124.094
c19.4648 0.387695 38.9707 -0.134766 58.4297 -1.81543c46.9092 -4.05371 35.9932 -75.6455 -10.5342 -72.1377c-30.1582 2.27344 -60.3809 1.69141 -90.2334 -1.62207c-47.0791 -85.9805 -91.0566 -173.406 -133.653 -261.654
c77.0088 21.2861 149.922 57.2607 216.578 101.215c46.4746 30.6455 90.4697 65.0342 132.208 101.844c42.1553 37.1738 84.3877 77.126 112.972 126.104z" />
    <glyph glyph-name="C" unicode="C" horiz-adv-x="556" 
d="M467.802 156.995c-93.3066 -125.216 -200.613 -253.37 -345.312 -321.277c-57.1904 -26.8447 -127.9 -32.3789 -177.57 13.0674c-53.7539 49.1768 -56.8154 134.646 -49.0127 202.118c16.1748 139.893 93.624 278.856 182.277 385.888
c44.4531 53.666 95.833 104.447 153.329 144.101c50.334 34.7119 122.454 71.7793 184.639 47.8193c72.4492 -27.9141 55.4697 -110.757 37.75 -168.718c-22.4912 -73.5596 -57.5439 -142.308 -94.3652 -209.551c-19.6592 -35.8984 -77.9424 -12.8672 -59.6172 25.3047
c30.1055 62.708 61.9678 125.052 83.4775 191.391c5.6875 17.5439 27.2031 68.8711 14.0303 86.5439c-13.0078 17.4502 -52.2373 0.864258 -67.4189 -5.36328c-97.4492 -39.9697 -179.164 -135.186 -237.56 -219.838c-63.6416 -92.2607 -121.396 -205.955 -125.68 -319.984
c-1.90918 -50.8867 6.32812 -122.783 70.71 -125.321c52.4316 -2.0625 106.778 36.75 147.829 65.4863c92.5137 64.752 171.261 152.172 239.738 241.378c21.251 27.6846 63.4951 -5.20605 42.7549 -33.0439z" />
    <glyph glyph-name="D" unicode="D" horiz-adv-x="804" 
d="M306.746 280.982c26.1572 49.835 54.3926 98.6533 84.5801 146.144c23.8896 37.5791 48.5078 78.2246 77.8379 112.878c-27.25 -3.72461 -54.1592 -9.6709 -79.7578 -16.0752c-66.3682 -16.6094 -130.962 -41.8965 -191.561 -73.5586
c-31.5156 -16.4688 -61.7559 -35.2051 -90.9502 -55.499c-23.7363 -16.498 -64.6758 -38.3604 -71.2734 -68.7305c-7.28516 -33.542 -59.9814 -26.3857 -53.1953 7.76758c9.08887 45.7754 46.6738 73.3428 82.0908 99.999c37.8369 28.4834 78.2832 53.4121 120.134 75.5449
c83.665 44.2412 175.562 75.5508 269.156 90.1924c82.749 12.9434 171.685 7.02637 241.296 -43.9482c65.2051 -47.749 89.0713 -123.782 79.1768 -202.136c-20.8457 -165.127 -144.135 -311.253 -273.176 -407.744c-68.7715 -51.4268 -147.59 -95.2158 -232.56 -111.843
c-71.9434 -14.0771 -185.262 -4.00098 -188.857 91.6973c-3.08496 82.0908 81.4268 146.103 142.242 186.777c2.9082 1.94434 5.9043 3.73047 8.83594 5.63379c22.7725 55.4336 48.1191 109.816 75.9805 162.9zM534.608 534.293
c-25.6641 -47.4492 -59.8291 -90.7295 -88.1309 -136.722c-29.3887 -47.7256 -56.6387 -96.7031 -81.6973 -146.838c-12.9082 -25.8281 -25.1641 -51.9443 -36.8623 -78.2949c42.9844 20.8516 87.3203 39.0244 132.026 55.8105
c42.2617 15.875 68.5654 -49.1885 26.2744 -65.0283c-68.8242 -25.7754 -137.401 -54.1475 -200.191 -92.6836c-16.0107 -42.0439 -30.7637 -84.582 -44.2539 -127.566c-13.5371 -43.1074 -77.9785 -15.3291 -64.5654 27.4082
c2.24414 7.15039 4.64746 14.248 6.97949 21.3691c-32.8438 -33.3311 -53.3369 -69.3643 -15.9521 -87.9307c29.1885 -14.5 72.1143 -6.19238 102.302 0.881836c33.3076 7.79688 65.3457 21.416 95.7568 36.874c59.1182 30.0527 113.248 70.6455 161.573 115.868
c91.1445 85.2871 195.197 218.035 183.218 351.218c-5.5459 61.6035 -50.8682 104.864 -107.712 123.571c-21.1689 6.96777 -43.1953 10.4463 -65.5391 11.4453c-0.428711 -2.95508 -1.44531 -6.08691 -3.22559 -9.38281z" />
    <glyph glyph-name="E" unicode="E" horiz-adv-x="596" 
d="M366.016 662.082c66.1211 24.5293 259.929 78.0273 272.972 -38.9805c5.82227 -52.208 -41.4102 -105.163 -71.4277 -143.101c-34.8818 -44.0771 -73.7412 -84.752 -112.801 -125.098c-30.8105 -31.8271 -86.0098 9.75293 -55.1816 42.6377
c38.3604 40.9277 77.1729 81.6738 111.844 125.839c15.082 19.207 29.958 38.9307 42.6777 59.8057c3.20801 5.26465 18.1084 25.376 14.3896 32.2617c-3.45508 6.39844 -22.374 6.25195 -28.1611 6.63379c-101.679 6.80957 -207.482 -46.4746 -291.588 -98.665
c-75.3633 -46.7676 -165.28 -116.772 -188.993 -207.048c-12.0273 -45.7812 10.7451 -84.1182 50.9209 -105.975c21.04 -11.4453 43.7891 -17.1328 66.75 -17.9902c33.542 13.6836 68.2598 21.9736 102.39 19.9229c38.3955 -2.30273 37.667 -54.8877 8.27832 -68.9766
c-29.1123 -13.9541 -62.0791 -21.627 -95.3867 -22.8545c-17.0322 -8.38965 -33.2598 -17.9375 -47.3369 -25.957c-36.457 -20.7578 -70.7988 -45.7168 -102.449 -73.2139c-29.4883 -25.6162 -59.3584 -54.2998 -79.5752 -88.0654
c-5.78125 -9.65332 -23.2021 -38.0605 -13.9248 -46.1748c9.3125 -8.14355 35.7871 -1.61621 46.4102 0.0878906c87.5898 14.0303 171.426 66.2744 245.973 111.779c75.6279 46.1631 148.5 97.4258 216.495 154.27c26.6152 22.2559 58.1777 -20.0586 32.4961 -42.4854
c-77.4258 -67.6133 -159.135 -129.211 -247.007 -182.671c-74.5703 -45.3691 -153.259 -92.2021 -240.179 -108.248c-33.2256 -6.12793 -72.4492 -7.35547 -100.739 14.4424c-32.6729 25.1816 -30.2227 66.7207 -16.9561 101.715
c28.2783 74.5879 99.9932 135.827 163.106 181.108c11.0811 7.94922 22.791 16.1396 34.9883 24.2246c-38.7949 17.8965 -71.4326 47.3496 -90.0049 88.9766c-44.3242 99.335 36.3916 206.214 104.733 271.437c74.3408 70.9453 171.354 124.764 267.287 160.362z" />
    <glyph glyph-name="E" unicode="&#xcb;" horiz-adv-x="596" 
d="M366.016 662.082c66.1211 24.5293 259.929 78.0273 272.972 -38.9805c5.82227 -52.208 -41.4102 -105.163 -71.4277 -143.101c-34.8818 -44.0771 -73.7412 -84.752 -112.801 -125.098c-30.8105 -31.8271 -86.0098 9.75293 -55.1816 42.6377
c38.3604 40.9277 77.1729 81.6738 111.844 125.839c15.082 19.207 29.958 38.9307 42.6777 59.8057c3.20801 5.26465 18.1084 25.376 14.3896 32.2617c-3.45508 6.39844 -22.374 6.25195 -28.1611 6.63379c-101.679 6.80957 -207.482 -46.4746 -291.588 -98.665
c-75.3633 -46.7676 -165.28 -116.772 -188.993 -207.048c-12.0273 -45.7812 10.7451 -84.1182 50.9209 -105.975c21.04 -11.4453 43.7891 -17.1328 66.75 -17.9902c33.542 13.6836 68.2598 21.9736 102.39 19.9229c38.3955 -2.30273 37.667 -54.8877 8.27832 -68.9766
c-29.1123 -13.9541 -62.0791 -21.627 -95.3867 -22.8545c-17.0322 -8.38965 -33.2598 -17.9375 -47.3369 -25.957c-36.457 -20.7578 -70.7988 -45.7168 -102.449 -73.2139c-29.4883 -25.6162 -59.3584 -54.2998 -79.5752 -88.0654
c-5.78125 -9.65332 -23.2021 -38.0605 -13.9248 -46.1748c9.3125 -8.14355 35.7871 -1.61621 46.4102 0.0878906c87.5898 14.0303 171.426 66.2744 245.973 111.779c75.6279 46.1631 148.5 97.4258 216.495 154.27c26.6152 22.2559 58.1777 -20.0586 32.4961 -42.4854
c-77.4258 -67.6133 -159.135 -129.211 -247.007 -182.671c-74.5703 -45.3691 -153.259 -92.2021 -240.179 -108.248c-33.2256 -6.12793 -72.4492 -7.35547 -100.739 14.4424c-32.6729 25.1816 -30.2227 66.7207 -16.9561 101.715
c28.2783 74.5879 99.9932 135.827 163.106 181.108c11.0811 7.94922 22.791 16.1396 34.9883 24.2246c-38.7949 17.8965 -71.4326 47.3496 -90.0049 88.9766c-44.3242 99.335 36.3916 206.214 104.733 271.437c74.3408 70.9453 171.354 124.764 267.287 160.362z" />
    <glyph glyph-name="E" unicode="&#xca;" horiz-adv-x="596" 
d="M366.016 662.082c66.1211 24.5293 259.929 78.0273 272.972 -38.9805c5.82227 -52.208 -41.4102 -105.163 -71.4277 -143.101c-34.8818 -44.0771 -73.7412 -84.752 -112.801 -125.098c-30.8105 -31.8271 -86.0098 9.75293 -55.1816 42.6377
c38.3604 40.9277 77.1729 81.6738 111.844 125.839c15.082 19.207 29.958 38.9307 42.6777 59.8057c3.20801 5.26465 18.1084 25.376 14.3896 32.2617c-3.45508 6.39844 -22.374 6.25195 -28.1611 6.63379c-101.679 6.80957 -207.482 -46.4746 -291.588 -98.665
c-75.3633 -46.7676 -165.28 -116.772 -188.993 -207.048c-12.0273 -45.7812 10.7451 -84.1182 50.9209 -105.975c21.04 -11.4453 43.7891 -17.1328 66.75 -17.9902c33.542 13.6836 68.2598 21.9736 102.39 19.9229c38.3955 -2.30273 37.667 -54.8877 8.27832 -68.9766
c-29.1123 -13.9541 -62.0791 -21.627 -95.3867 -22.8545c-17.0322 -8.38965 -33.2598 -17.9375 -47.3369 -25.957c-36.457 -20.7578 -70.7988 -45.7168 -102.449 -73.2139c-29.4883 -25.6162 -59.3584 -54.2998 -79.5752 -88.0654
c-5.78125 -9.65332 -23.2021 -38.0605 -13.9248 -46.1748c9.3125 -8.14355 35.7871 -1.61621 46.4102 0.0878906c87.5898 14.0303 171.426 66.2744 245.973 111.779c75.6279 46.1631 148.5 97.4258 216.495 154.27c26.6152 22.2559 58.1777 -20.0586 32.4961 -42.4854
c-77.4258 -67.6133 -159.135 -129.211 -247.007 -182.671c-74.5703 -45.3691 -153.259 -92.2021 -240.179 -108.248c-33.2256 -6.12793 -72.4492 -7.35547 -100.739 14.4424c-32.6729 25.1816 -30.2227 66.7207 -16.9561 101.715
c28.2783 74.5879 99.9932 135.827 163.106 181.108c11.0811 7.94922 22.791 16.1396 34.9883 24.2246c-38.7949 17.8965 -71.4326 47.3496 -90.0049 88.9766c-44.3242 99.335 36.3916 206.214 104.733 271.437c74.3408 70.9453 171.354 124.764 267.287 160.362z" />
    <glyph glyph-name="E" unicode="&#xc9;" horiz-adv-x="596" 
d="M366.016 662.082c66.1211 24.5293 259.929 78.0273 272.972 -38.9805c5.82227 -52.208 -41.4102 -105.163 -71.4277 -143.101c-34.8818 -44.0771 -73.7412 -84.752 -112.801 -125.098c-30.8105 -31.8271 -86.0098 9.75293 -55.1816 42.6377
c38.3604 40.9277 77.1729 81.6738 111.844 125.839c15.082 19.207 29.958 38.9307 42.6777 59.8057c3.20801 5.26465 18.1084 25.376 14.3896 32.2617c-3.45508 6.39844 -22.374 6.25195 -28.1611 6.63379c-101.679 6.80957 -207.482 -46.4746 -291.588 -98.665
c-75.3633 -46.7676 -165.28 -116.772 -188.993 -207.048c-12.0273 -45.7812 10.7451 -84.1182 50.9209 -105.975c21.04 -11.4453 43.7891 -17.1328 66.75 -17.9902c33.542 13.6836 68.2598 21.9736 102.39 19.9229c38.3955 -2.30273 37.667 -54.8877 8.27832 -68.9766
c-29.1123 -13.9541 -62.0791 -21.627 -95.3867 -22.8545c-17.0322 -8.38965 -33.2598 -17.9375 -47.3369 -25.957c-36.457 -20.7578 -70.7988 -45.7168 -102.449 -73.2139c-29.4883 -25.6162 -59.3584 -54.2998 -79.5752 -88.0654
c-5.78125 -9.65332 -23.2021 -38.0605 -13.9248 -46.1748c9.3125 -8.14355 35.7871 -1.61621 46.4102 0.0878906c87.5898 14.0303 171.426 66.2744 245.973 111.779c75.6279 46.1631 148.5 97.4258 216.495 154.27c26.6152 22.2559 58.1777 -20.0586 32.4961 -42.4854
c-77.4258 -67.6133 -159.135 -129.211 -247.007 -182.671c-74.5703 -45.3691 -153.259 -92.2021 -240.179 -108.248c-33.2256 -6.12793 -72.4492 -7.35547 -100.739 14.4424c-32.6729 25.1816 -30.2227 66.7207 -16.9561 101.715
c28.2783 74.5879 99.9932 135.827 163.106 181.108c11.0811 7.94922 22.791 16.1396 34.9883 24.2246c-38.7949 17.8965 -71.4326 47.3496 -90.0049 88.9766c-44.3242 99.335 36.3916 206.214 104.733 271.437c74.3408 70.9453 171.354 124.764 267.287 160.362z" />
    <glyph glyph-name="F" unicode="F" horiz-adv-x="740" 
d="M803.007 591.625c25.6758 -39.4297 0.344727 -82.9678 -22.4102 -116.593c-27.6201 -40.7988 -60.7275 -77.1553 -96.8496 -110.557c-33.2139 -30.7051 -75.54 25.416 -42.626 55.7207c29.3066 26.9854 55.5049 56.9434 78.5596 89.4404
c4.88867 6.88574 29.4951 35.6982 25.5996 44.5645c-4.05957 9.24805 -40.3867 8.63086 -47.6191 8.87793c-41.2217 1.42773 -83.5771 -4.6709 -125.257 -14.3594c-41.3447 -109.44 -86.7256 -217.071 -124.722 -327.863c29.7412 6.7627 59.7354 12.3975 89.9229 16.7979
c41.5449 6.05762 48.9951 -58.7773 7.47949 -64.7646c-40.8867 -5.89258 -81.3564 -13.9004 -121.256 -24.2939c-35.4346 -111.767 -65.752 -224.902 -92.5791 -339.107c-10.8105 -46.0215 -83.8594 -36.0742 -73.3662 10.7109
c22.8438 101.838 50.3525 202.788 81.709 302.423c-18.1611 -6.46875 -36.1689 -13.3721 -53.9541 -20.8105c-14.5361 -6.0752 -28.9424 -12.4795 -43.2373 -19.1064c-10.0938 -4.68262 -26.2627 -9.02441 -33.166 -18.1719
c-24.3711 -32.291 -67.8545 4.60645 -48.3135 37.332c15.6289 26.1748 55.1348 38.7715 81.5801 50.6572c30.3525 13.6367 61.333 25.8691 92.8193 36.6211c9.6416 3.2959 19.3418 6.4043 29.0654 9.42383c2.18555 6.48633 4.30664 12.9902 6.52148 19.4648
c6.21582 18.1787 12.5088 36.416 18.8955 54.6768c0.299805 11.8037 -0.927734 23.6895 -4.2998 35.5869c-12.0918 42.6553 -50.0645 61.9619 -91.9092 65.0293c-89.3467 6.55078 -189.081 -32.6025 -264.368 -77.7314c-36.4209 -21.833 -77.4658 29.3594 -40.8682 53.4307
c167.072 109.875 345.195 206.771 540.093 256.459c0.999023 0.25293 2.00391 0.5 2.99707 0.75293c10.0703 13.8135 26.5918 15.5645 38.8184 9.37207c37.1084 8.38965 74.834 14.8584 112.725 15.5869c41.0508 0.787109 94.957 -1.08691 120.016 -39.5703z
M426.482 373.665c19.541 51.4326 40.5215 102.391 63.8115 151.973c-11.6562 -3.73633 -23.1719 -7.53809 -34.4639 -11.3457c-60.5283 -20.4111 -119.212 -45.3105 -176.385 -73.3652c21.04 -0.111328 41.9502 -2.54395 62.3203 -8.43652
c35.3164 -10.2236 64.7637 -30.6465 84.7168 -58.8252z" />
    <glyph glyph-name="G" unicode="G" horiz-adv-x="731" 
d="M482.35 377.257c-75.3809 -23.1846 -168.617 -38.7656 -255.772 -29.7588c-22.4971 -42.9316 -36.6689 -91.8555 -29.2129 -139.893c10.376 -66.9023 67.3262 -87.3193 128.513 -73.9941c60.9453 13.2666 122.173 44.6113 175.175 76.7676
c41.0742 24.9111 88.917 53.9121 123.958 90.3809c5.34082 13.4541 10.6113 26.9678 15.8525 40.5342c12.626 32.667 67.5781 17.9082 59.4873 -16.668c-28.6191 -122.308 -91.0859 -239.68 -166.202 -339.596c-0.270508 -0.352539 -0.546875 -0.705078 -0.817383 -1.06348
c36.3037 -6.96777 70.9688 -19.0127 102.126 -37.9785c29.2656 -17.8203 -0.128906 -66.4688 -30.04 -51.3164c-36.7676 18.625 -76.7197 28.7363 -117.812 32.9375c-58.6475 -67.3027 -127.46 -128.013 -204.021 -171.854
c-51.5742 -29.5234 -111.045 -49.1475 -171.12 -40.6455c-48.7188 6.8916 -106.996 36.0801 -108.235 92.1719c-1.25098 56.4912 62.6787 91.4023 106.38 112.507c56.1982 27.1387 117.537 44.959 178.788 56.2695c49.4766 9.13574 104.053 16.2217 158.212 15.8223
c29.3359 34.541 56.1982 71.2148 80.4404 109.387c18.1846 28.6309 34.166 58.0957 48.7607 88.1719c-30.2578 -21.8916 -62.126 -41.5684 -94.9102 -59.4121c-74.2178 -40.3877 -170.098 -86.791 -255.496 -55.7217c-71.7559 26.1045 -99.7461 100.657 -96.585 171.99
c1.75098 39.5879 12.7324 77.8838 29.3242 113.853c-43.3135 12.2207 -83.2188 32.4375 -116.162 63.2773c-32.2676 30.2051 9.55957 84.9932 42.3027 54.7471c30.4697 -28.1484 68.207 -45.8799 109.188 -55.8389c7.59082 11.2451 15.5752 22.1494 23.8535 32.6426
c46.0273 58.3311 103.312 107.19 167.807 143.94c67.8428 38.6543 150.991 71.1865 230.438 56.3633c32.9844 -6.15723 67.4668 -23.707 80.8916 -56.3506c13.7656 -33.4717 -0.299805 -68.2891 -19.4355 -96.2852c-44.3418 -64.8643 -122.701 -102.942 -195.673 -125.387z
M104.035 -208.235c93.248 -27.8906 188.469 51.4521 253.397 108.261c10.1934 8.91895 20.0879 18.1729 29.8408 27.5791c-36.2861 -3.17285 -72.1904 -9.23047 -106.35 -16.498c-50.375 -10.7168 -100.421 -27.168 -146.343 -50.6758
c-18.0254 -9.23047 -46.6797 -22.8203 -56.8789 -41.3691c-8.9248 -16.2451 12.373 -23.1191 26.333 -27.2969zM516.813 583.466c-97.0488 -26.1689 -185.668 -91.25 -247.806 -171.12c67.2969 -2.6377 136.791 9.80664 193.617 27.8027
c56.3271 17.832 116.961 44.4941 154.628 91.9258c8.2666 10.4053 24.6006 29.8232 17.4385 43.7539c-4.30664 8.37207 -19.3008 11.8506 -27.7324 13.7305c-29.0889 6.48633 -61.7676 1.55664 -90.1455 -6.09277z" />
    <glyph glyph-name="H" unicode="H" horiz-adv-x="1056" 
d="M508.166 249.562c-46.3506 -155.057 -78.1084 -313.018 -101.299 -473.057c-7.10352 -49.0303 -82.4902 -38.0137 -76.0918 11.1104c21.4043 164.27 59.5469 327.041 108.93 485.088c4.18359 13.3838 8.49023 26.7324 12.8496 40.0693
c-82.7432 -20.6465 -163.735 -47.9902 -243.887 -76.9561c-40.3223 -14.5771 -80.2451 -31.3809 -121.443 -43.3545c-31.7803 -9.23633 -71.6445 -19.6064 -104.67 -10.8525c-35.2344 9.33594 -50.8926 43.9062 -39.3066 77.5078
c10.8281 31.3975 39.4473 54.8457 64.7881 74.8457c64.124 50.6104 142.407 81.3037 223.546 89.5703c86.2676 8.79004 171.037 -4.01855 245.483 -38.8711c14.3828 40.4404 29.6592 80.5576 45.9873 120.211c29.8525 72.5078 59.4053 149.357 108.494 211.349
c19.2773 24.3477 64.7061 -0.046875 48.249 -28.249c-38.5898 -66.127 -66.2275 -138.594 -93.4834 -209.95c-10.0059 -26.1924 -19.6006 -52.5312 -28.9893 -78.9355c46.5215 7.80859 93.4189 13.1787 140.657 15.2939c42.0908 1.88574 99.9336 2.62598 155.99 -5.69922
c38.4834 106.338 84.1348 210.079 136.543 310.271c22.8027 43.5889 93.6064 13.9951 70.7744 -30.041c-50.1699 -96.7617 -94.5 -196.379 -132.449 -298.451c53.4072 -19.4707 95.8389 -53.1191 106.614 -110.439c7.48535 -39.7764 -54.9756 -46.7803 -62.4375 -7.20996
c-5.72852 30.3584 -37.5557 46.6211 -66.0986 56.3857c-7.59082 -22.1445 -14.9766 -44.3652 -21.9443 -66.7324c-22.7432 -73.0488 -42.1963 -146.996 -58.3359 -221.777c-8.21973 -38.0957 -15.8105 -76.3096 -22.4023 -114.723
c-3.41992 -19.9238 -7.05664 -39.8652 -9.75977 -59.8945c-0.411133 -3.07324 -0.775391 -6.1582 -1.15137 -9.2373c2.20312 -14.583 4.15918 -29.1367 5.61035 -43.5781c0.458008 -4.5127 0.111328 -8.55469 -0.799805 -12.1797
c2.64941 -17.585 -9.13086 -35.9336 -31.3691 -32.8369c-44.1592 6.14551 -44.1357 55.6279 -42.4785 90.6338c0.0292969 0.634766 0.09375 1.26367 0.123047 1.89258c-33.2607 137.695 -82.9482 280.566 -177.166 386.534c-9.5 10.6875 -19.7529 20.5283 -30.5928 29.5938
c-2.82031 -9.1123 -5.75195 -18.1895 -8.48438 -27.3311zM738.392 352.678c-60.6982 -0.452148 -121.339 -6.95605 -181.238 -17.5078c27.2324 -21.5859 52.1084 -47.0029 73.9238 -76.3799c49.7354 -66.9795 89.6699 -145.362 118.565 -227.412
c13.3428 68.9062 29.8467 137.154 48.8535 204.732c10.4346 37.1084 21.7979 73.9648 33.96 110.551c-31.1514 4.56543 -62.8135 6.25195 -94.0645 6.0166zM137.734 278.184c36.5156 13.3252 73.127 26.3965 109.948 38.8467
c34.1709 11.5508 68.6416 22.6377 103.359 32.9727c-69.1123 11.3633 -141.832 4.61816 -205.562 -19.1475c-32.6963 -12.1973 -62.9834 -28.6777 -90.8564 -49.6699c-12.8496 -9.68262 -26.0986 -19.9355 -36.9209 -31.8975
c-1.7334 -1.91504 -2.92578 -3.34863 -3.83105 -4.45312c5.79297 0.211914 11.6094 0.928711 17.0967 1.59863c37.0264 4.53613 71.9844 19.0596 106.767 31.75z" />
    <glyph glyph-name="I" unicode="I" horiz-adv-x="435" 
d="M544.147 646.407c-52.0205 9.63574 -109.705 2.91016 -164.141 -5.33301c-27.8145 -58.5654 -56.792 -116.614 -82.8906 -176.015c-33.7715 -76.8613 -65.7744 -154.533 -95.6035 -233.011c-36.9795 -97.2959 -70.4512 -195.772 -100.892 -295.201
c30.9746 8.75977 62.3906 16.3975 94.3936 22.7256c40.1406 7.9375 47.4434 -55.6221 7.30273 -63.2598c-40.957 -7.79102 -81.8438 -17.1914 -122.284 -28.3076c-12.332 -42.4199 -24.1475 -85.0049 -35.4336 -127.748
c-11.7803 -44.6055 -83.5361 -34.917 -71.8672 10.4941c7.87305 30.6455 16.21 61.168 24.7646 91.6377c-31.7744 -11.0225 -63.1133 -23.1904 -93.6885 -36.9385c-31.833 -14.3125 -51.6914 35.6221 -20.2402 50.0928c44.0713 20.2695 88.4482 38.624 133.565 54.6641
c34.6709 116.227 74.0654 231.072 118.049 344.056c48.8359 125.469 101.309 252.876 163.682 373.614c-44.917 -8.41895 -89.1289 -19.2412 -133.641 -29.3936c-2.82031 -8.53711 -9.70605 -15.6465 -21.3389 -17.1504c-18.8184 -2.44434 -32.3496 5.09375 -44.3711 19.124
c-12.0156 14.0186 -4.34277 36.5801 11.7969 43.1191c69.6113 28.1904 146.896 43.8896 220.649 56.8682c2.24414 0.393555 4.52344 0.804688 6.79102 1.20996c5.9873 10.5459 12.0449 21.0508 18.2197 31.4561c15.6172 26.3213 53.9717 6.63281 54.083 -19.0898
c48.2305 7.22656 97.7832 11.2158 143.347 2.61426c44.7705 -8.44922 34.8057 -78.5771 -10.2529 -70.2285z" />
    <glyph glyph-name="I" unicode="&#xcf;" horiz-adv-x="435" 
d="M544.147 646.407c-52.0205 9.63574 -109.705 2.91016 -164.141 -5.33301c-27.8145 -58.5654 -56.792 -116.614 -82.8906 -176.015c-33.7715 -76.8613 -65.7744 -154.533 -95.6035 -233.011c-36.9795 -97.2959 -70.4512 -195.772 -100.892 -295.201
c30.9746 8.75977 62.3906 16.3975 94.3936 22.7256c40.1406 7.9375 47.4434 -55.6221 7.30273 -63.2598c-40.957 -7.79102 -81.8438 -17.1914 -122.284 -28.3076c-12.332 -42.4199 -24.1475 -85.0049 -35.4336 -127.748
c-11.7803 -44.6055 -83.5361 -34.917 -71.8672 10.4941c7.87305 30.6455 16.21 61.168 24.7646 91.6377c-31.7744 -11.0225 -63.1133 -23.1904 -93.6885 -36.9385c-31.833 -14.3125 -51.6914 35.6221 -20.2402 50.0928c44.0713 20.2695 88.4482 38.624 133.565 54.6641
c34.6709 116.227 74.0654 231.072 118.049 344.056c48.8359 125.469 101.309 252.876 163.682 373.614c-44.917 -8.41895 -89.1289 -19.2412 -133.641 -29.3936c-2.82031 -8.53711 -9.70605 -15.6465 -21.3389 -17.1504c-18.8184 -2.44434 -32.3496 5.09375 -44.3711 19.124
c-12.0156 14.0186 -4.34277 36.5801 11.7969 43.1191c69.6113 28.1904 146.896 43.8896 220.649 56.8682c2.24414 0.393555 4.52344 0.804688 6.79102 1.20996c5.9873 10.5459 12.0449 21.0508 18.2197 31.4561c15.6172 26.3213 53.9717 6.63281 54.083 -19.0898
c48.2305 7.22656 97.7832 11.2158 143.347 2.61426c44.7705 -8.44922 34.8057 -78.5771 -10.2529 -70.2285z" />
    <glyph glyph-name="I" unicode="&#xce;" horiz-adv-x="435" 
d="M544.147 646.407c-52.0205 9.63574 -109.705 2.91016 -164.141 -5.33301c-27.8145 -58.5654 -56.792 -116.614 -82.8906 -176.015c-33.7715 -76.8613 -65.7744 -154.533 -95.6035 -233.011c-36.9795 -97.2959 -70.4512 -195.772 -100.892 -295.201
c30.9746 8.75977 62.3906 16.3975 94.3936 22.7256c40.1406 7.9375 47.4434 -55.6221 7.30273 -63.2598c-40.957 -7.79102 -81.8438 -17.1914 -122.284 -28.3076c-12.332 -42.4199 -24.1475 -85.0049 -35.4336 -127.748
c-11.7803 -44.6055 -83.5361 -34.917 -71.8672 10.4941c7.87305 30.6455 16.21 61.168 24.7646 91.6377c-31.7744 -11.0225 -63.1133 -23.1904 -93.6885 -36.9385c-31.833 -14.3125 -51.6914 35.6221 -20.2402 50.0928c44.0713 20.2695 88.4482 38.624 133.565 54.6641
c34.6709 116.227 74.0654 231.072 118.049 344.056c48.8359 125.469 101.309 252.876 163.682 373.614c-44.917 -8.41895 -89.1289 -19.2412 -133.641 -29.3936c-2.82031 -8.53711 -9.70605 -15.6465 -21.3389 -17.1504c-18.8184 -2.44434 -32.3496 5.09375 -44.3711 19.124
c-12.0156 14.0186 -4.34277 36.5801 11.7969 43.1191c69.6113 28.1904 146.896 43.8896 220.649 56.8682c2.24414 0.393555 4.52344 0.804688 6.79102 1.20996c5.9873 10.5459 12.0449 21.0508 18.2197 31.4561c15.6172 26.3213 53.9717 6.63281 54.083 -19.0898
c48.2305 7.22656 97.7832 11.2158 143.347 2.61426c44.7705 -8.44922 34.8057 -78.5771 -10.2529 -70.2285z" />
    <glyph glyph-name="I" unicode="&#xcd;" horiz-adv-x="435" 
d="M544.147 646.407c-52.0205 9.63574 -109.705 2.91016 -164.141 -5.33301c-27.8145 -58.5654 -56.792 -116.614 -82.8906 -176.015c-33.7715 -76.8613 -65.7744 -154.533 -95.6035 -233.011c-36.9795 -97.2959 -70.4512 -195.772 -100.892 -295.201
c30.9746 8.75977 62.3906 16.3975 94.3936 22.7256c40.1406 7.9375 47.4434 -55.6221 7.30273 -63.2598c-40.957 -7.79102 -81.8438 -17.1914 -122.284 -28.3076c-12.332 -42.4199 -24.1475 -85.0049 -35.4336 -127.748
c-11.7803 -44.6055 -83.5361 -34.917 -71.8672 10.4941c7.87305 30.6455 16.21 61.168 24.7646 91.6377c-31.7744 -11.0225 -63.1133 -23.1904 -93.6885 -36.9385c-31.833 -14.3125 -51.6914 35.6221 -20.2402 50.0928c44.0713 20.2695 88.4482 38.624 133.565 54.6641
c34.6709 116.227 74.0654 231.072 118.049 344.056c48.8359 125.469 101.309 252.876 163.682 373.614c-44.917 -8.41895 -89.1289 -19.2412 -133.641 -29.3936c-2.82031 -8.53711 -9.70605 -15.6465 -21.3389 -17.1504c-18.8184 -2.44434 -32.3496 5.09375 -44.3711 19.124
c-12.0156 14.0186 -4.34277 36.5801 11.7969 43.1191c69.6113 28.1904 146.896 43.8896 220.649 56.8682c2.24414 0.393555 4.52344 0.804688 6.79102 1.20996c5.9873 10.5459 12.0449 21.0508 18.2197 31.4561c15.6172 26.3213 53.9717 6.63281 54.083 -19.0898
c48.2305 7.22656 97.7832 11.2158 143.347 2.61426c44.7705 -8.44922 34.8057 -78.5771 -10.2529 -70.2285z" />
    <glyph glyph-name="J" unicode="J" horiz-adv-x="618" 
d="M123.599 -267.87c-48.9473 -57.6025 -105.849 -113.295 -177.786 -140.656c-59.9873 -22.8145 -151.396 -28.1904 -193.869 30.7041c-46.6738 64.7168 20.0586 135.298 68.9297 174.011c59.3584 47.0205 128.576 83.8711 199.851 109.123
c51.6094 18.2842 105.445 30.998 159.934 37.4609c0.323242 0.516602 0.652344 1.0332 0.975586 1.5498c122.584 197.741 215.703 411.34 300.673 627.459c-43.1016 -16.0752 -85.5039 -34.1533 -127.166 -53.5596c-51.2861 -23.8838 -101.721 -49.6768 -150.58 -78.2197
c-24.2305 -14.1533 -48.1846 -28.8066 -71.792 -43.9824c-13.7656 -8.85449 -40.6338 -22.1973 -54.2939 -33.4072c-0.911133 -2.18555 -2.16797 -4.24805 -3.8252 -6.08691c-0.504883 -0.570312 -1.01562 -1.13477 -1.52051 -1.69922
c-8.37207 -9.33008 -21.0215 -13.8545 -33.1309 -8.66113c-0.869141 0.370117 -1.73242 0.740234 -2.5957 1.11035c-12.127 5.19922 -19.2891 18.3018 -17.6084 31.3096c3.60156 27.8672 40.375 45.123 61.0391 59.418c30.2402 20.9219 61.1035 40.8984 92.6309 59.8291
c59.6582 35.8281 121.132 68.7305 184.45 97.6143c51.4209 23.4541 103.911 45.375 157.858 62.5195c3.50781 9.12988 7.02148 18.2539 10.5117 27.3838c10.5225 27.5439 55.4922 17.5557 54.7285 -9.06543c55.123 14.0244 134.74 30.082 158.735 -32.126
c16.5684 -42.9668 -47.2734 -68.3662 -66.0508 -26.6865c-2.93164 6.49805 -69.9814 -8.94238 -77.749 -10.6172c-12.3799 -2.66113 -24.6182 -5.85156 -36.7861 -9.3125c-47.1143 -154.252 -109.887 -303.769 -180.638 -448.537
c-33.0371 -67.5957 -67.708 -135.573 -105.88 -201.448c58.3604 -1.22754 114.405 -12.5908 157.061 -56.9736c28.9482 -30.1172 -22.9014 -68.9531 -51.4561 -39.3594c-33.4834 34.7061 -93.2363 36.0928 -144.663 31.7861
c-33.4775 -52.7666 -69.7637 -103.542 -109.986 -150.88zM-82.4893 -338.498c58.7246 23.3135 105.298 70.1299 145.503 117.438c24.4238 28.748 47.2266 58.8125 68.8418 89.7168c-50.6572 -10.6934 -99.8984 -27.2734 -146.942 -49.3477
c-53.9824 -25.3291 -110.897 -58.208 -151.632 -102.55c-19.0889 -20.7812 -43.4131 -51.8682 -4.77637 -64.042c28.9834 -9.12988 61.5859 -2.10254 89.0059 8.78418z" />
    <glyph glyph-name="K" unicode="K" horiz-adv-x="703" 
d="M-56.4297 66.7549c-28.1367 -35 -60.3037 -76.0225 -62.3193 -122.92c-1.65137 -38.3135 17.9023 -78.248 59.8643 -81.4619c83.2715 -6.375 143.142 97.9307 180.82 157.859c49.3232 78.46 90.7148 162.396 131.896 245.32
c42.8135 86.209 83.7529 173.388 122.76 261.383c33.9189 76.5264 60.9336 163.353 121.614 223.534c24.7529 24.5527 57.9668 -15.5 40.6875 -40.8818c-32.4258 -47.626 -54.4873 -98.3945 -76.3789 -151.467c-24.4707 -59.3115 -49.7637 -118.282 -75.9971 -176.836
c-2.02148 -4.5127 -4.08398 -9.00781 -6.11719 -13.5146c129.452 95.4277 251.618 200.591 396.135 273.48c26.5977 13.4189 51.4561 -30.4639 25.9922 -45.5576c-149.164 -88.418 -277.929 -206.248 -418.203 -307.521c25.9102 -32.626 21.1572 -77.7314 22.6436 -116.814
c3.57812 -94.1172 15.9043 -189.774 58.207 -275.091c38.1309 -76.9023 107.261 -139.681 197.307 -138.952c82.4844 0.669922 152.107 55.293 181.249 130.785c15.6172 40.458 75.0762 14.1543 61.3926 -26.0625c-59.0947 -173.717 -283.992 -229.121 -419.261 -105.703
c-67.4434 61.5332 -104.693 147.113 -125.233 234.604c-11.2627 47.9785 -16.9854 97.0615 -19.7822 146.215c-1.36914 24.0654 -1.33398 48.1543 -2.32129 72.2256c-0.223633 5.56445 -4.81836 43.6191 -10.2881 39.7002
c-1.45703 -0.969727 -2.91992 -1.77441 -4.38867 -2.50293c-27.2969 -56.5508 -55.6572 -112.59 -85.3164 -167.877c-46.4092 -86.5088 -98.0713 -185.403 -176.866 -247.083c-72.4199 -56.6855 -187.33 -60.6455 -232.8 31.5508
c-42.7842 86.7441 6.42773 177.46 65.9512 241.261c26.627 28.5312 73.9766 -6.29785 48.7539 -37.6719z" />
    <glyph glyph-name="L" unicode="L" horiz-adv-x="314" 
d="M435.364 472.619c-34.4004 -56.8916 -79.6162 -107.43 -126.684 -154.068c-82.9365 -82.1846 -183.247 -162.166 -297.67 -194.615c-23.3955 -74.6582 -40.0518 -151.479 -50.1982 -228.893c81.333 33.0605 168.441 45.6221 258.316 18.8477
c33.9424 -10.1113 17.2031 -65.0518 -16.4863 -58.8359c-93.542 17.2617 -178.782 -6.38672 -257.225 -48.0723c-5.23535 -6.16895 -12.4385 -9.85254 -20.2822 -11.2217c-49.5117 -28.6133 -96.2734 -63.8184 -140.674 -99.6641
c-37.3145 -30.123 -81.6855 28.6602 -45.0527 58.8945c42.2734 34.8877 88.0371 68.9766 136.521 97.584c12.5615 146.537 51.127 291.101 111.749 425.029c53.6484 118.529 124.382 233.034 218.358 323.855c43.8887 42.4141 95.5449 83.6006 155.785 98.9824
c52.9668 13.5254 110.839 -6.35645 120.527 -65.8857c9.04199 -55.5752 -19.0654 -115.757 -46.9854 -161.938zM36.5635 197.602c92.4668 41.0332 173.634 106.75 243.516 179.387c36.9795 38.4424 72.9834 79.8633 101.085 125.368
c14.1836 22.9668 68.1543 119.77 26.7393 136.661c-20.4111 8.3252 -51.9209 -9.54785 -68.7598 -19.1191c-20.9043 -11.8799 -40.0576 -27.3379 -58.1357 -43.0898c-41.5449 -36.2041 -77.1787 -78.6943 -108.965 -123.6
c-55.9629 -79.0703 -100.944 -165.273 -135.479 -255.607z" />
    <glyph glyph-name="M" unicode="M" horiz-adv-x="937" 
d="M895.727 514.399c5.98145 12.25 11.8896 24.5371 17.7002 36.8516c0.710938 1.50977 2.34473 5.98633 4.34863 11.251c-9.22461 -4.00684 -18.3193 -8.38965 -27.0322 -13.4131c-88.9707 -51.3037 -164.91 -133.065 -232.395 -209.204
c-70.5752 -79.6289 -133.788 -164.945 -198.265 -249.457c-17.7617 -23.2842 -54.5654 -17.4385 -65.6289 9.04785c-18.0078 43.1191 16.6152 92.6426 33.9648 131.227c20.9277 46.5449 42.5488 92.8428 62.584 139.787c10.1113 23.6895 19.5879 47.8252 26.3623 72.7012
c1.06934 3.9248 1.63379 11.2871 2.60352 18.0029c-39.5879 -20.3643 -71.6904 -56.2451 -101.896 -88.1074c-117.208 -123.642 -213.97 -264.362 -307.905 -406.111c-22.3906 -43.9775 -44.6992 -87.9961 -67.2666 -131.902
c-22.6963 -44.1533 -93.2891 -15.2637 -71.6621 30.417c73.1426 154.481 156.555 304.943 242.271 452.744c20.4346 35.2344 41.1279 70.3516 57.5264 107.707c7.53223 17.168 15.9756 35.7871 19.0371 54.4238c3.33691 20.335 -7.33301 21.7334 -25.1826 20.835
c-35.3223 -1.77441 -71.0742 -14.1719 -102.725 -29.2539c-15.9277 -7.59082 -31.0215 -16.5098 -45.3809 -26.7744c-7.63184 -5.45801 -14.9814 -11.2451 -22.1846 -17.25c-5.27637 -4.39453 -9.72949 -11.4805 -12.1387 -10.499
c-0.182617 -14.8643 -11.0752 -29.1475 -29.7939 -25.8516c-18.3135 3.22559 -29.1299 16.9268 -27.9434 35.6162c1.29297 20.376 19.8535 35.0469 33.9014 47.7725c34.0889 30.8809 75.9805 55.1523 119.235 70.6689c40.4053 14.4883 93.8535 30.2578 135.71 12.7607
c46.1689 -19.2949 49.5352 -68.8301 38.2129 -111.427c-10.9395 -41.1865 -27.8252 -80.875 -47.3721 -119.635c37.291 44.7061 76.4326 87.8896 118.229 128.841c29.0479 28.4658 69.2471 66.4502 111.932 71.6914c55.6748 6.82715 53.4951 -57.79 46.2686 -93.9297
c-7.08594 -35.4111 -18.79 -69.5938 -31.874 -103.225c33.6836 40.3936 68.5537 79.7412 105.104 117.408c40.8047 42.0498 83.4248 82.5312 129.141 119.234c42.0791 33.7832 95.5742 73.3594 150.491 81.585c25.8691 3.87793 52.5898 -4.84082 65.792 -28.665
c12.7021 -22.9199 7.20898 -48.3721 -2.09766 -71.4033c-21.5977 -53.4541 -50.2871 -104.987 -76.5381 -156.262c-105.369 -205.814 -218.37 -408.556 -261.53 -638.312c-9.36523 -49.8467 -86.0156 -39.1709 -78.2715 11.4277
c17.626 115.187 57.4492 226.349 104.805 332.411c42.4668 95.0986 91.6084 187.001 139.928 279.203c23.8066 45.4346 47.4316 90.9688 69.9346 137.066z" />
    <glyph glyph-name="N" unicode="N" horiz-adv-x="647" 
d="M618 604.769c63.9414 -5.58203 70.2139 -69.043 56.5068 -119.277c-17.0088 -62.373 -47.9541 -122.208 -75.8037 -180.298c-28.8594 -60.1875 -59.5703 -119.476 -88.8535 -179.457c-29.1709 -59.7529 -57.2432 -120.104 -81.0205 -182.236
c-12.4678 -32.5791 -24.3945 -65.6807 -33.625 -99.3408c-5.61719 -20.4756 -14.4658 -47.2734 -0.206055 -65.7334c31.1924 -40.3818 -29.0068 -84.4004 -62.0674 -47.4795c-44.1064 49.2529 -19.1123 119.352 -1.00488 174.116
c21.9561 66.4092 49.7227 130.732 79.8516 193.805c53.0254 111.003 113.817 218.135 166.032 329.531c12.9785 27.6904 28.501 56.0273 36.0918 85.7979c2.19727 8.61914 8.22559 24.7236 -0.681641 30.376c-8.55469 5.43457 -31.71 -9.21289 -38.9951 -13.0088
c-54.8701 -28.584 -100.845 -73.4717 -142.859 -118.095c-142.612 -151.461 -252.035 -329.332 -373.626 -497.474c-19.1709 -34.2119 -38.3779 -68.377 -57.5547 -102.478c-24.1826 -43.002 -95.498 -14.1064 -71.6621 30.417
c90.416 168.894 188.623 333.715 276.982 503.689c20.3408 39.1299 41.3926 78.5889 56.7041 120.034c10.2822 27.832 33.584 86.0625 -15.4814 82.7021c-35.7168 -2.44434 -72.9668 -21.2334 -101.392 -41.8975c-14.6885 -10.6758 -28.1846 -22.6846 -40.335 -36.1865
c-6.9209 -7.69043 -13.3896 -15.7275 -19.3887 -24.1592c-4.91797 -6.9209 -5.47656 -15.9453 -11.0049 -9.2998c22.4561 -26.9971 -19.1006 -56.1562 -42.2676 -32.332c-27.3672 28.1484 2.36816 70.5625 20.6465 94.793c25.5107 33.8125 59.0352 60.7861 96.1611 80.874
c54.3174 29.3945 153.576 58.4131 186.22 -16.3623c15.8574 -36.3037 5.05273 -79.7754 -5.9873 -115.744c-12.8438 -41.8389 -32.0449 -81.7852 -51.2988 -120.985c-1.60352 -3.27246 -3.27832 -6.52148 -4.89355 -9.79395c56.0215 73.0605 116.532 143.395 185.532 203.44
c39.9404 34.7588 102.524 87.0146 159.28 82.0615z" />
    <glyph glyph-name="O" unicode="O" horiz-adv-x="666" 
d="M544.631 97.248c-46.7617 -83.1836 -110.31 -156.121 -187.101 -212.959c-77.4141 -57.3145 -176.866 -109.047 -274.608 -115.122c-106.421 -6.62109 -197.407 55.2578 -209.328 164.893c-11.9443 109.887 34.9297 222.024 86.3389 316.412
c52.1143 95.6807 116.955 183.582 193.875 260.79c75.5518 75.833 164.111 149.675 265.55 187.759c42.8662 16.0928 103.312 30.1113 143.37 -0.693359c47.0557 -36.1807 36.3271 -97.4961 18.1133 -145.703c-9.72949 -25.7578 -20.8223 -50.9043 -32.8848 -75.5928
c17.8848 -12.9551 33.2197 -30.0996 44.6006 -52.0908c52.4316 -101.355 3.61328 -236.001 -47.9258 -327.692zM-51.7715 -80.6826c23.5078 -92.6074 130.82 -88.002 203.48 -64.0654c141.926 46.7207 265.755 148.512 338.099 279.521
c38.6426 69.9814 78.4424 164.957 52.8906 245.55c-5.28223 16.6562 -13.8252 29.752 -24.6182 39.7812c-32.7549 -58.583 -69.9287 -114.887 -106.873 -170.579c-26.4805 -39.9111 -84.8057 5.79883 -58.6719 45.3281c33.043 49.9873 66.3154 100.081 96.2266 152.02
c-40.7402 2.59668 -85.458 -10.2354 -116.533 -30.0762c-31.2451 -19.9473 -66.2744 24.2764 -35.4287 46.3145c50.0762 35.7812 121.215 53.666 183.482 42.1094c10 19.8818 19.3828 40.0869 27.8906 60.751c6.62695 16.0928 27.9844 55.8516 12.5615 72.4316
c-12.3789 13.3076 -44.7461 3.20801 -59.499 -1.18652c-47.0791 -14.0303 -90.8857 -41.0625 -130.756 -69.1523c-139.575 -98.3359 -253.352 -237.605 -327.675 -390.876c-36.3799 -75.0107 -76.1211 -173.006 -54.5762 -257.87z" />
    <glyph glyph-name="O" unicode="&#xd6;" horiz-adv-x="666" 
d="M544.631 97.248c-46.7617 -83.1836 -110.31 -156.121 -187.101 -212.959c-77.4141 -57.3145 -176.866 -109.047 -274.608 -115.122c-106.421 -6.62109 -197.407 55.2578 -209.328 164.893c-11.9443 109.887 34.9297 222.024 86.3389 316.412
c52.1143 95.6807 116.955 183.582 193.875 260.79c75.5518 75.833 164.111 149.675 265.55 187.759c42.8662 16.0928 103.312 30.1113 143.37 -0.693359c47.0557 -36.1807 36.3271 -97.4961 18.1133 -145.703c-9.72949 -25.7578 -20.8223 -50.9043 -32.8848 -75.5928
c17.8848 -12.9551 33.2197 -30.0996 44.6006 -52.0908c52.4316 -101.355 3.61328 -236.001 -47.9258 -327.692zM-51.7715 -80.6826c23.5078 -92.6074 130.82 -88.002 203.48 -64.0654c141.926 46.7207 265.755 148.512 338.099 279.521
c38.6426 69.9814 78.4424 164.957 52.8906 245.55c-5.28223 16.6562 -13.8252 29.752 -24.6182 39.7812c-32.7549 -58.583 -69.9287 -114.887 -106.873 -170.579c-26.4805 -39.9111 -84.8057 5.79883 -58.6719 45.3281c33.043 49.9873 66.3154 100.081 96.2266 152.02
c-40.7402 2.59668 -85.458 -10.2354 -116.533 -30.0762c-31.2451 -19.9473 -66.2744 24.2764 -35.4287 46.3145c50.0762 35.7812 121.215 53.666 183.482 42.1094c10 19.8818 19.3828 40.0869 27.8906 60.751c6.62695 16.0928 27.9844 55.8516 12.5615 72.4316
c-12.3789 13.3076 -44.7461 3.20801 -59.499 -1.18652c-47.0791 -14.0303 -90.8857 -41.0625 -130.756 -69.1523c-139.575 -98.3359 -253.352 -237.605 -327.675 -390.876c-36.3799 -75.0107 -76.1211 -173.006 -54.5762 -257.87z" />
    <glyph glyph-name="O" unicode="&#xd5;" horiz-adv-x="666" 
d="M544.631 97.248c-46.7617 -83.1836 -110.31 -156.121 -187.101 -212.959c-77.4141 -57.3145 -176.866 -109.047 -274.608 -115.122c-106.421 -6.62109 -197.407 55.2578 -209.328 164.893c-11.9443 109.887 34.9297 222.024 86.3389 316.412
c52.1143 95.6807 116.955 183.582 193.875 260.79c75.5518 75.833 164.111 149.675 265.55 187.759c42.8662 16.0928 103.312 30.1113 143.37 -0.693359c47.0557 -36.1807 36.3271 -97.4961 18.1133 -145.703c-9.72949 -25.7578 -20.8223 -50.9043 -32.8848 -75.5928
c17.8848 -12.9551 33.2197 -30.0996 44.6006 -52.0908c52.4316 -101.355 3.61328 -236.001 -47.9258 -327.692zM-51.7715 -80.6826c23.5078 -92.6074 130.82 -88.002 203.48 -64.0654c141.926 46.7207 265.755 148.512 338.099 279.521
c38.6426 69.9814 78.4424 164.957 52.8906 245.55c-5.28223 16.6562 -13.8252 29.752 -24.6182 39.7812c-32.7549 -58.583 -69.9287 -114.887 -106.873 -170.579c-26.4805 -39.9111 -84.8057 5.79883 -58.6719 45.3281c33.043 49.9873 66.3154 100.081 96.2266 152.02
c-40.7402 2.59668 -85.458 -10.2354 -116.533 -30.0762c-31.2451 -19.9473 -66.2744 24.2764 -35.4287 46.3145c50.0762 35.7812 121.215 53.666 183.482 42.1094c10 19.8818 19.3828 40.0869 27.8906 60.751c6.62695 16.0928 27.9844 55.8516 12.5615 72.4316
c-12.3789 13.3076 -44.7461 3.20801 -59.499 -1.18652c-47.0791 -14.0303 -90.8857 -41.0625 -130.756 -69.1523c-139.575 -98.3359 -253.352 -237.605 -327.675 -390.876c-36.3799 -75.0107 -76.1211 -173.006 -54.5762 -257.87z" />
    <glyph glyph-name="O" unicode="&#xd4;" horiz-adv-x="666" 
d="M544.631 97.248c-46.7617 -83.1836 -110.31 -156.121 -187.101 -212.959c-77.4141 -57.3145 -176.866 -109.047 -274.608 -115.122c-106.421 -6.62109 -197.407 55.2578 -209.328 164.893c-11.9443 109.887 34.9297 222.024 86.3389 316.412
c52.1143 95.6807 116.955 183.582 193.875 260.79c75.5518 75.833 164.111 149.675 265.55 187.759c42.8662 16.0928 103.312 30.1113 143.37 -0.693359c47.0557 -36.1807 36.3271 -97.4961 18.1133 -145.703c-9.72949 -25.7578 -20.8223 -50.9043 -32.8848 -75.5928
c17.8848 -12.9551 33.2197 -30.0996 44.6006 -52.0908c52.4316 -101.355 3.61328 -236.001 -47.9258 -327.692zM-51.7715 -80.6826c23.5078 -92.6074 130.82 -88.002 203.48 -64.0654c141.926 46.7207 265.755 148.512 338.099 279.521
c38.6426 69.9814 78.4424 164.957 52.8906 245.55c-5.28223 16.6562 -13.8252 29.752 -24.6182 39.7812c-32.7549 -58.583 -69.9287 -114.887 -106.873 -170.579c-26.4805 -39.9111 -84.8057 5.79883 -58.6719 45.3281c33.043 49.9873 66.3154 100.081 96.2266 152.02
c-40.7402 2.59668 -85.458 -10.2354 -116.533 -30.0762c-31.2451 -19.9473 -66.2744 24.2764 -35.4287 46.3145c50.0762 35.7812 121.215 53.666 183.482 42.1094c10 19.8818 19.3828 40.0869 27.8906 60.751c6.62695 16.0928 27.9844 55.8516 12.5615 72.4316
c-12.3789 13.3076 -44.7461 3.20801 -59.499 -1.18652c-47.0791 -14.0303 -90.8857 -41.0625 -130.756 -69.1523c-139.575 -98.3359 -253.352 -237.605 -327.675 -390.876c-36.3799 -75.0107 -76.1211 -173.006 -54.5762 -257.87z" />
    <glyph glyph-name="O" unicode="&#xd3;" horiz-adv-x="666" 
d="M544.631 97.248c-46.7617 -83.1836 -110.31 -156.121 -187.101 -212.959c-77.4141 -57.3145 -176.866 -109.047 -274.608 -115.122c-106.421 -6.62109 -197.407 55.2578 -209.328 164.893c-11.9443 109.887 34.9297 222.024 86.3389 316.412
c52.1143 95.6807 116.955 183.582 193.875 260.79c75.5518 75.833 164.111 149.675 265.55 187.759c42.8662 16.0928 103.312 30.1113 143.37 -0.693359c47.0557 -36.1807 36.3271 -97.4961 18.1133 -145.703c-9.72949 -25.7578 -20.8223 -50.9043 -32.8848 -75.5928
c17.8848 -12.9551 33.2197 -30.0996 44.6006 -52.0908c52.4316 -101.355 3.61328 -236.001 -47.9258 -327.692zM-51.7715 -80.6826c23.5078 -92.6074 130.82 -88.002 203.48 -64.0654c141.926 46.7207 265.755 148.512 338.099 279.521
c38.6426 69.9814 78.4424 164.957 52.8906 245.55c-5.28223 16.6562 -13.8252 29.752 -24.6182 39.7812c-32.7549 -58.583 -69.9287 -114.887 -106.873 -170.579c-26.4805 -39.9111 -84.8057 5.79883 -58.6719 45.3281c33.043 49.9873 66.3154 100.081 96.2266 152.02
c-40.7402 2.59668 -85.458 -10.2354 -116.533 -30.0762c-31.2451 -19.9473 -66.2744 24.2764 -35.4287 46.3145c50.0762 35.7812 121.215 53.666 183.482 42.1094c10 19.8818 19.3828 40.0869 27.8906 60.751c6.62695 16.0928 27.9844 55.8516 12.5615 72.4316
c-12.3789 13.3076 -44.7461 3.20801 -59.499 -1.18652c-47.0791 -14.0303 -90.8857 -41.0625 -130.756 -69.1523c-139.575 -98.3359 -253.352 -237.605 -327.675 -390.876c-36.3799 -75.0107 -76.1211 -173.006 -54.5762 -257.87z" />
    <glyph glyph-name="P" unicode="P" horiz-adv-x="785" 
d="M129.396 -254.187c-12.1504 -41.0625 -82.3076 -20.9277 -71.9668 20.165c32.7783 130.415 75.5215 259.174 122.425 385.623c-152.46 81.0391 -128.083 300.631 -89.3408 441.499c5.46387 19.876 20.9336 35.9805 43.5186 32.4316
c19.0537 -2.99023 37.4375 -23.248 32.4316 -43.5176c-26.709 -108.189 -57.9014 -288.34 41.0166 -357.334c2.6377 6.84473 5.26953 13.6953 7.91895 20.5283c30.5342 78.6709 62.8721 156.654 97.6602 233.539c33.8418 74.8047 66.5908 154.052 111.896 222.776
c17.708 26.8623 55.1748 0.129883 45.7744 -26.7969c-27.626 -79.1416 -68.084 -154.857 -100.646 -232.142c-8.67773 -20.5928 -17.2324 -41.2393 -25.7051 -61.915c11.1807 15.4639 22.6436 30.7402 34.6113 45.6699c51.915 64.7461 112.056 126.86 180.985 173.593
c60.8154 41.2334 146.73 84.4463 219.244 47.2021c72.8311 -37.4023 71.4385 -124.846 44.8408 -191.602c-29.5293 -74.1006 -84.0586 -136.045 -145.197 -186.026c-66.4326 -54.3115 -144.552 -96.2734 -226.695 -121.144
c-62.3203 -18.8662 -130.163 -32.0391 -194.963 -22.0156c-11.3984 -23.3369 -22.3682 -46.8916 -32.9795 -70.6104c-33.5723 -102.631 -64.1064 -206.119 -94.8291 -309.925zM638.914 583.106c-122.36 -59.9873 -217.36 -179.815 -289.728 -291.959
c-19.7295 -30.5811 -38.125 -61.9434 -55.4863 -93.8818c69.7461 -4.77051 143.376 17.4561 206.742 44.3359c63.9531 27.1211 123.229 65.2754 174.122 112.625c47.9023 44.5645 97.2852 106.591 107.044 173.335c5.3291 36.4033 -6.45703 68.835 -45.7158 77.0488
c-33.0664 6.9209 -67.7725 -7.17969 -96.9785 -21.5039z" />
    <glyph glyph-name="Q" unicode="Q" horiz-adv-x="670" 
d="M548.035 97.248c-46.7617 -83.1836 -110.312 -156.12 -187.097 -212.964c-59.4766 -44.0361 -131.979 -84.6875 -206.707 -103.959c42.6143 -27.7959 76.6562 -67.3721 99.958 -113.559c18.8369 -37.332 -42.3076 -62.2197 -60.4336 -24.418
c-63.3604 132.16 -213.74 136.643 -340.648 116.767c-33.8477 -5.30566 -39.3525 46.5205 -6.07422 52.584c27.0029 4.91797 54.1299 9.25977 81.251 11.9502c-27.6904 27.5791 -46.3271 64.8584 -51.2803 110.41c-11.9502 109.887 34.9238 222.024 86.333 316.412
c52.1143 95.6807 116.955 183.582 193.875 260.79c75.5518 75.833 164.111 149.675 265.55 187.759c42.8662 16.0928 103.312 30.1113 143.37 -0.693359c47.0557 -36.1807 36.3271 -97.4961 18.1133 -145.703c-9.72949 -25.7578 -20.8223 -50.9043 -32.8848 -75.5928
c17.8848 -12.9551 33.2197 -30.0996 44.6006 -52.0908c52.4316 -101.355 3.61328 -236.001 -47.9258 -327.692zM-48.3691 -80.6816c23.5078 -92.6074 130.82 -88.0029 203.48 -64.0664c141.926 46.7207 265.755 148.512 338.099 279.521
c38.6426 69.9814 78.4424 164.957 52.8906 245.55c-5.28223 16.6562 -13.8193 29.7529 -24.6182 39.7822c-32.7549 -58.583 -69.9287 -114.887 -106.873 -170.579c-26.4805 -39.9111 -84.8057 5.79883 -58.6719 45.3281c33.043 49.9873 66.3154 100.081 96.2266 152.02
c-40.7402 2.59668 -85.458 -10.2354 -116.533 -30.0762c-31.2451 -19.9473 -66.2744 24.2764 -35.4287 46.3145c50.0762 35.7812 121.215 53.666 183.482 42.1094c10 19.8818 19.3828 40.0869 27.8906 60.751c6.62109 16.0928 27.9844 55.8516 12.5615 72.4316
c-12.3789 13.3076 -44.7461 3.20801 -59.499 -1.18652c-47.0791 -14.0303 -90.8857 -41.0625 -130.756 -69.1523c-139.575 -98.3359 -253.346 -237.605 -327.675 -390.876c-36.3799 -75.0107 -76.1211 -173.006 -54.5762 -257.87z" />
    <glyph glyph-name="R" unicode="R" horiz-adv-x="536" 
d="M403.054 302.181c-79.1357 -30.6455 -164.66 -46.0439 -249.883 -45.4268c-26.9268 -39.2061 -51.6738 -79.999 -74.4883 -121.967c17.9844 -78.1543 40.9688 -154.893 78.6416 -225.896c60.8516 -114.693 174.217 -211.73 310.343 -163.981
c42.2031 14.8057 67.8135 -47.5381 26.1221 -64.6475c-152.807 -62.708 -298.933 29.1064 -378.62 159.281c-38.6543 63.1426 -63.918 131.861 -83.0186 202.977c-12.1914 -26.0225 -23.7891 -52.3086 -34.8818 -78.7598
c-22.4795 -72.3789 -43.9717 -145.081 -65.5342 -217.953c-12.1504 -41.0625 -82.3145 -20.9277 -71.9854 20.1709c36.4033 144.852 85.0986 287.652 138.142 427.521c-7.53809 40.0586 -13.8066 80.3281 -18.2656 120.516
c-3.03711 27.3848 23.1494 38.4365 42.3916 30.3105c0.0761719 -0.0175781 0.140625 -0.0234375 0.216797 -0.0351562c10.8691 -2.25586 21.8027 -4.18848 32.7607 -5.96875c19.3652 47.1377 39.3828 94 60.3877 140.427c33.8418 74.8047 66.5908 154.052 111.896 222.776
c17.708 26.8623 55.1748 0.128906 45.7744 -26.7979c-27.626 -79.1416 -68.084 -154.857 -100.646 -232.142c-15.7109 -37.2969 -31.1162 -74.7285 -46.1221 -112.313c0.875 -0.0527344 1.75 -0.111328 2.63086 -0.164062c46.1807 63.1309 98.9121 121.685 159.088 171.062
c46.415 38.084 100.827 70.8857 160.368 82.7363c46.7207 9.30078 102.36 -0.599609 126.344 -46.2568c25.793 -49.1123 0.128906 -106.773 -33.5488 -144.975c-36.9619 -41.9268 -86.4385 -70.4814 -138.112 -90.4932zM227.747 354.038
c-6.83887 -7.93164 -13.4854 -16.0225 -20.083 -24.1484c62.4023 3.57812 124.158 16.1631 183.035 39.3945c41.8037 16.4922 84.124 39.4707 111.703 76.0449c11.9561 15.8574 28.7832 45.2227 15.8398 64.9521c-9.63574 14.6943 -31.498 15.0586 -47.0146 13.6074
c-97.7598 -9.12402 -183.322 -100.039 -243.48 -169.851z" />
    <glyph glyph-name="S" unicode="S" horiz-adv-x="633" 
d="M505.464 38.5244c-4.62402 -219.674 -229.134 -354.134 -431.852 -342.077c-96.3203 5.72852 -196.337 61.292 -229.621 156.314c-36.457 104.094 21.0215 212.436 92.9238 286.083c66.2158 67.8252 159.117 121.127 256.631 116.791
c47.7549 -2.12109 93.0303 -24.8232 112.619 -70.2158c22.1504 -51.3213 2.72656 -105.551 -18.9893 -153.165c-19.7529 -43.3135 -87.3311 -14.8125 -68.1123 28.9062c19.918 45.3105 43.8545 114.716 -28.0186 119.963
c-47.8604 3.49023 -99.334 -17.1797 -138.629 -42.9551c-81.6914 -53.5889 -181.655 -169.504 -133.836 -273.51c43.7773 -95.2217 161.966 -110.51 253.646 -94.5283c94.6582 16.498 194.198 64.0713 241.706 151.661c48.46 89.3408 39.3184 199.604 -22.5547 279.979
c-62.4727 81.1504 -166.948 105.21 -250.602 157.102c-37.4434 23.2197 -69.0176 58.2432 -67.5664 104.817c1.52148 48.8652 35.6338 88.6826 69.3701 120.674c67.7314 64.2354 161.355 105.633 254.927 109.405c44.5645 1.79785 93.9707 -4.44141 127.812 -36.251
c36.1279 -33.96 30.082 -77.2852 4.68848 -115.863c-50.6631 -76.9678 -132.225 -128.143 -220.737 -149.541c-33.4189 -8.07812 -39.1416 45.0645 -6.13379 53.1377c56.9971 13.9424 110.175 44.7119 150.551 87.3086c15.5225 16.375 53.3652 54.2422 40.9795 77.6904
c-11.7627 22.2676 -59.0479 24.5938 -80.458 24.6816c-55.4873 0.223633 -112.343 -16.8086 -160.709 -43.4648c-42.5732 -23.46 -118.207 -74.2705 -119.87 -128.712c-1.49219 -48.8242 78.8418 -75.1631 114.059 -91.9141
c45.8984 -21.8213 92.7666 -43.4072 133.348 -74.4531c79.2998 -60.6631 126.526 -158.053 124.429 -257.863z" />
    <glyph glyph-name="T" unicode="T" horiz-adv-x="783" 
d="M423.834 -166.673c-2.87891 -6.75684 -5.65723 -13.5635 -8.6709 -20.2441c-2.11523 -4.69434 -4.33594 -9.3418 -6.61523 -13.96c0.200195 -6.01074 -1.40918 -12.0098 -5.47461 -16.6924c-0.558594 -0.646484 -1.11719 -1.28711 -1.67578 -1.92773
c-11.7861 -13.5781 -30.8926 -14.0361 -42.9609 -0.969727c-9.58887 5.10547 -16.21 14.6885 -12.8555 26.7334c48.6064 174.486 99.5752 358.603 87.9307 541.414c-3.61328 56.7383 -15.6758 121.973 -56.8506 163.353
c-6.29883 -2.5498 -12.6094 -5.08789 -18.8906 -7.67285c-79.3643 -32.7021 -156.878 -74.0352 -240.514 -94.9688c-28.6777 -7.17383 -66.7676 -12.3672 -82.6836 20.0176c-14.7178 29.9404 13.3193 58.7822 32.4375 78.7471
c50.3867 52.6143 119.287 89.2529 191.941 98.4189c46.7852 5.89844 91.7842 -2.75 129.369 -25.8105c12.7617 5 25.5586 9.91797 38.4434 14.6416c142.977 52.3906 293.615 88.9531 446.845 80.0225c65.2461 -3.80762 136.174 -17.4209 172.66 -77.6963
c30.3232 -50.0996 29.0957 -111.832 -2.49609 -160.674c-20.9805 -32.4375 -65.457 4.21875 -46.6797 36.0693c18.1436 30.7754 14.8125 72.8428 -6.90918 100.938c-26.3809 34.1123 -74.6475 38.3545 -114.488 41.333c-28.3545 2.11523 -56.8262 2.3916 -85.2627 1.13379
c-0.564453 -1.48633 -1.20508 -2.97852 -2.03906 -4.4707c-74.2822 -133.359 -144.751 -267.747 -207.024 -407.217c-30.7461 -68.8477 -60.2871 -138.171 -89.458 -207.694c-14.9414 -35.6104 -29.8359 -71.2324 -44.5361 -106.938
c-7.69043 -18.6953 -15.6279 -37.2852 -23.542 -55.8867zM110.208 467.559c32.6904 8.60742 64.3066 21.792 95.2695 35.0586c34.4648 14.7646 68.7832 29.8115 103.254 44.4824c-56.0391 10.2529 -118.706 -14.9521 -162.501 -47.4434
c-12.9902 -9.63574 -25.0352 -20.2939 -36.0225 -32.0977zM596.666 585.524c-53.8535 -13.6836 -106.708 -31.1504 -158.793 -50.6387c1.39844 -1.80957 2.83789 -3.55469 4.18359 -5.43457c47.3789 -66.2158 54.6113 -150.792 54.3057 -229.698
c-0.169922 -43.6895 -3.38379 -86.8145 -8.85938 -129.528c5.88672 14.0127 11.7676 28.0195 17.7725 41.9736c57.79 134.305 119.986 268.668 195.186 394.478c-34.9941 -5.26465 -69.6885 -12.4854 -103.795 -21.1514z" />
    <glyph glyph-name="U" unicode="U" horiz-adv-x="650" 
d="M733.906 689.221c27.5557 8.08496 54.2275 -20.9238 35.1211 -46.3291c-105.104 -139.887 -208.581 -286.23 -284.097 -444.536c-37.1914 -77.9717 -74.0244 -164.046 -82.3613 -250.796c-3.30762 -34.3887 -2.82031 -83.3008 28.4072 -105.88
c35.3643 -25.5693 87.7783 -7.95508 124.929 2.92578c45.0469 13.1904 73.4014 -53.8184 27.7207 -68.6064c-51.5977 -16.7041 -105.598 -31.6689 -159.151 -14.5127c-44.9346 14.3945 -76.2793 49.7471 -89.3574 94.6406c-28.3076 97.1494 12.9375 206.138 49.7471 295.607
c26.2275 63.7422 57.7783 124.141 92.6719 182.447c-23.4658 -29.2539 -46.8145 -58.6016 -70.1689 -87.9492c-93.9062 -118.013 -186.003 -245.355 -300.549 -344.508c-38.6543 -33.46 -121.039 -113.447 -175.757 -70.334
c-56.1094 44.2119 -8.74219 145.538 14.9004 194.615c66.3037 137.637 155.269 263.064 247.958 383.868c22.5674 29.4121 45.3643 58.8594 65.4404 90.0576c9.38867 14.5889 17.8613 29.5713 25.6523 45.082c3.91895 7.79688 19.8525 33.0371 17.1084 42.667
c-8.44336 29.6123 -90.4932 -6.19824 -105.939 -13.7363c-33.8945 -16.5332 -64.3525 -39.4707 -94.0762 -62.4492c-26.7568 -20.6875 -58.3486 20.9102 -31.8271 41.6094c61.5088 48.0078 134.151 98.8945 215.784 97.7256
c33.0898 -0.481445 60.8975 -15.8867 70.7744 -48.7061c10.2588 -34.0947 -5.74023 -70.4629 -20.376 -100.81c-32.3965 -67.1611 -78.4941 -125.656 -121.942 -185.768c-45.1758 -62.5137 -88.4658 -126.285 -128.389 -192.295
c-38.1543 -63.084 -82.4189 -132.555 -99.1465 -205.168c-1.80371 -7.80273 -2.89648 -15.2705 -3.45508 -22.8906c0.617188 0.510742 1.28711 1.0752 2.0625 1.7334c15.2109 12.9902 36.6914 21.4395 53.0957 33.5137c29.8994 21.9971 57.8955 46.7734 83.8877 73.2656
c108.236 110.315 201.056 236.383 297.688 356.681c50.0879 62.3496 100.733 124.282 153.529 184.369c26.3809 30.0176 53.167 59.7529 80.9336 88.5068c23.0723 23.8896 46.5029 46.3691 79.1816 55.958z" />
    <glyph glyph-name="U" unicode="&#xdc;" horiz-adv-x="650" 
d="M733.906 689.221c27.5557 8.08496 54.2275 -20.9238 35.1211 -46.3291c-105.104 -139.887 -208.581 -286.23 -284.097 -444.536c-37.1914 -77.9717 -74.0244 -164.046 -82.3613 -250.796c-3.30762 -34.3887 -2.82031 -83.3008 28.4072 -105.88
c35.3643 -25.5693 87.7783 -7.95508 124.929 2.92578c45.0469 13.1904 73.4014 -53.8184 27.7207 -68.6064c-51.5977 -16.7041 -105.598 -31.6689 -159.151 -14.5127c-44.9346 14.3945 -76.2793 49.7471 -89.3574 94.6406c-28.3076 97.1494 12.9375 206.138 49.7471 295.607
c26.2275 63.7422 57.7783 124.141 92.6719 182.447c-23.4658 -29.2539 -46.8145 -58.6016 -70.1689 -87.9492c-93.9062 -118.013 -186.003 -245.355 -300.549 -344.508c-38.6543 -33.46 -121.039 -113.447 -175.757 -70.334
c-56.1094 44.2119 -8.74219 145.538 14.9004 194.615c66.3037 137.637 155.269 263.064 247.958 383.868c22.5674 29.4121 45.3643 58.8594 65.4404 90.0576c9.38867 14.5889 17.8613 29.5713 25.6523 45.082c3.91895 7.79688 19.8525 33.0371 17.1084 42.667
c-8.44336 29.6123 -90.4932 -6.19824 -105.939 -13.7363c-33.8945 -16.5332 -64.3525 -39.4707 -94.0762 -62.4492c-26.7568 -20.6875 -58.3486 20.9102 -31.8271 41.6094c61.5088 48.0078 134.151 98.8945 215.784 97.7256
c33.0898 -0.481445 60.8975 -15.8867 70.7744 -48.7061c10.2588 -34.0947 -5.74023 -70.4629 -20.376 -100.81c-32.3965 -67.1611 -78.4941 -125.656 -121.942 -185.768c-45.1758 -62.5137 -88.4658 -126.285 -128.389 -192.295
c-38.1543 -63.084 -82.4189 -132.555 -99.1465 -205.168c-1.80371 -7.80273 -2.89648 -15.2705 -3.45508 -22.8906c0.617188 0.510742 1.28711 1.0752 2.0625 1.7334c15.2109 12.9902 36.6914 21.4395 53.0957 33.5137c29.8994 21.9971 57.8955 46.7734 83.8877 73.2656
c108.236 110.315 201.056 236.383 297.688 356.681c50.0879 62.3496 100.733 124.282 153.529 184.369c26.3809 30.0176 53.167 59.7529 80.9336 88.5068c23.0723 23.8896 46.5029 46.3691 79.1816 55.958z" />
    <glyph glyph-name="U" unicode="&#xdb;" horiz-adv-x="650" 
d="M733.906 689.221c27.5557 8.08496 54.2275 -20.9238 35.1211 -46.3291c-105.104 -139.887 -208.581 -286.23 -284.097 -444.536c-37.1914 -77.9717 -74.0244 -164.046 -82.3613 -250.796c-3.30762 -34.3887 -2.82031 -83.3008 28.4072 -105.88
c35.3643 -25.5693 87.7783 -7.95508 124.929 2.92578c45.0469 13.1904 73.4014 -53.8184 27.7207 -68.6064c-51.5977 -16.7041 -105.598 -31.6689 -159.151 -14.5127c-44.9346 14.3945 -76.2793 49.7471 -89.3574 94.6406c-28.3076 97.1494 12.9375 206.138 49.7471 295.607
c26.2275 63.7422 57.7783 124.141 92.6719 182.447c-23.4658 -29.2539 -46.8145 -58.6016 -70.1689 -87.9492c-93.9062 -118.013 -186.003 -245.355 -300.549 -344.508c-38.6543 -33.46 -121.039 -113.447 -175.757 -70.334
c-56.1094 44.2119 -8.74219 145.538 14.9004 194.615c66.3037 137.637 155.269 263.064 247.958 383.868c22.5674 29.4121 45.3643 58.8594 65.4404 90.0576c9.38867 14.5889 17.8613 29.5713 25.6523 45.082c3.91895 7.79688 19.8525 33.0371 17.1084 42.667
c-8.44336 29.6123 -90.4932 -6.19824 -105.939 -13.7363c-33.8945 -16.5332 -64.3525 -39.4707 -94.0762 -62.4492c-26.7568 -20.6875 -58.3486 20.9102 -31.8271 41.6094c61.5088 48.0078 134.151 98.8945 215.784 97.7256
c33.0898 -0.481445 60.8975 -15.8867 70.7744 -48.7061c10.2588 -34.0947 -5.74023 -70.4629 -20.376 -100.81c-32.3965 -67.1611 -78.4941 -125.656 -121.942 -185.768c-45.1758 -62.5137 -88.4658 -126.285 -128.389 -192.295
c-38.1543 -63.084 -82.4189 -132.555 -99.1465 -205.168c-1.80371 -7.80273 -2.89648 -15.2705 -3.45508 -22.8906c0.617188 0.510742 1.28711 1.0752 2.0625 1.7334c15.2109 12.9902 36.6914 21.4395 53.0957 33.5137c29.8994 21.9971 57.8955 46.7734 83.8877 73.2656
c108.236 110.315 201.056 236.383 297.688 356.681c50.0879 62.3496 100.733 124.282 153.529 184.369c26.3809 30.0176 53.167 59.7529 80.9336 88.5068c23.0723 23.8896 46.5029 46.3691 79.1816 55.958z" />
    <glyph glyph-name="U" unicode="&#xda;" horiz-adv-x="650" 
d="M733.906 689.221c27.5557 8.08496 54.2275 -20.9238 35.1211 -46.3291c-105.104 -139.887 -208.581 -286.23 -284.097 -444.536c-37.1914 -77.9717 -74.0244 -164.046 -82.3613 -250.796c-3.30762 -34.3887 -2.82031 -83.3008 28.4072 -105.88
c35.3643 -25.5693 87.7783 -7.95508 124.929 2.92578c45.0469 13.1904 73.4014 -53.8184 27.7207 -68.6064c-51.5977 -16.7041 -105.598 -31.6689 -159.151 -14.5127c-44.9346 14.3945 -76.2793 49.7471 -89.3574 94.6406c-28.3076 97.1494 12.9375 206.138 49.7471 295.607
c26.2275 63.7422 57.7783 124.141 92.6719 182.447c-23.4658 -29.2539 -46.8145 -58.6016 -70.1689 -87.9492c-93.9062 -118.013 -186.003 -245.355 -300.549 -344.508c-38.6543 -33.46 -121.039 -113.447 -175.757 -70.334
c-56.1094 44.2119 -8.74219 145.538 14.9004 194.615c66.3037 137.637 155.269 263.064 247.958 383.868c22.5674 29.4121 45.3643 58.8594 65.4404 90.0576c9.38867 14.5889 17.8613 29.5713 25.6523 45.082c3.91895 7.79688 19.8525 33.0371 17.1084 42.667
c-8.44336 29.6123 -90.4932 -6.19824 -105.939 -13.7363c-33.8945 -16.5332 -64.3525 -39.4707 -94.0762 -62.4492c-26.7568 -20.6875 -58.3486 20.9102 -31.8271 41.6094c61.5088 48.0078 134.151 98.8945 215.784 97.7256
c33.0898 -0.481445 60.8975 -15.8867 70.7744 -48.7061c10.2588 -34.0947 -5.74023 -70.4629 -20.376 -100.81c-32.3965 -67.1611 -78.4941 -125.656 -121.942 -185.768c-45.1758 -62.5137 -88.4658 -126.285 -128.389 -192.295
c-38.1543 -63.084 -82.4189 -132.555 -99.1465 -205.168c-1.80371 -7.80273 -2.89648 -15.2705 -3.45508 -22.8906c0.617188 0.510742 1.28711 1.0752 2.0625 1.7334c15.2109 12.9902 36.6914 21.4395 53.0957 33.5137c29.8994 21.9971 57.8955 46.7734 83.8877 73.2656
c108.236 110.315 201.056 236.383 297.688 356.681c50.0879 62.3496 100.733 124.282 153.529 184.369c26.3809 30.0176 53.167 59.7529 80.9336 88.5068c23.0723 23.8896 46.5029 46.3691 79.1816 55.958z" />
    <glyph glyph-name="V" unicode="V" horiz-adv-x="735" 
d="M289.854 308.485c12.4033 41.6504 23.7021 83.6621 32.3389 126.271c7.21484 35.5459 15.4346 73.9707 9.84668 110.321c-14.5361 94.5342 -119.623 100.521 -190.498 67.5254c-31.292 -14.5654 -51.0508 35.0283 -20.0352 49.582
c78.3418 36.75 183.646 35.4453 237.975 -41.9102c54.2471 -77.2373 20.6045 -187.735 -1.31641 -270.502c-23.4775 -88.6416 -54.082 -175.221 -77.3311 -263.921c-11.5508 -44.0654 -21.3564 -88.6357 -27.4844 -133.8
c-2.69727 -19.8994 -6.20508 -40.5273 -4.33105 -60.6094c0.134766 -1.44531 0.545898 -4.29492 1.28027 -6.66309c0.552734 0.352539 1.24023 0.775391 2.2041 1.375c7.85547 4.88867 14.6709 10.376 20.958 17.2031c29.3887 31.9209 49.3477 75.3633 70.0938 112.995
c23.2373 42.1494 45.2051 84.9805 66.8496 127.965c42.5264 84.4404 83.542 169.792 130.093 252.129c81.6855 144.458 183.312 299.327 327.064 389.12c64.2998 40.1641 163.235 77.6309 227.605 17.1025c61.0742 -57.4316 20.458 -132.02 -41.8975 -165.645
c-31.4395 -16.9561 -51.3096 34.2949 -20.7051 51.2393c15.9219 8.81348 38.9062 26.0928 36.2158 46.9971c-2.64941 20.6045 -24.9111 28.8066 -42.8311 29.541c-42.2734 1.73926 -86.3623 -22.9668 -120.011 -46.0684
c-71.1738 -48.8594 -131.144 -113.13 -183.581 -181.255c-100.757 -130.892 -172.442 -280.385 -249.033 -425.889c-38.4189 -72.9893 -76.6445 -148.123 -124.129 -215.725c-29.3242 -41.7441 -115.81 -117.883 -152.137 -38.8711
c-14.0361 30.5342 -7.39062 66.5439 -2.83105 98.377c5.46973 38.1777 13.6484 75.9268 23.3018 113.259c20.916 80.8916 48.501 159.815 72.3252 239.855z" />
    <glyph glyph-name="W" unicode="W" horiz-adv-x="846" 
d="M1026.61 636.213c-65.375 -46.1094 -120.491 -105.535 -167.465 -169.959c-107.138 -146.89 -167.061 -320.912 -246.349 -483.008c-34.3359 -70.1875 -72.2383 -141.326 -126.639 -198.247c-44.3184 -46.374 -116.209 -85.8389 -177.107 -43.8477
c-41.3857 28.5312 -55.2988 78.8066 -57.7783 127.313c-16.7275 -16.9854 -34.4531 -32.6963 -53.4834 -46.292c-26.8506 -19.1826 -62.8369 -40.4863 -97.0957 -36.7793c-33.3369 3.60742 -58.1367 28.0605 -68.4424 59.2881
c-12.4561 37.7314 -1.24609 80.6221 7.68457 117.907c9.02441 37.6846 20.417 74.8223 33.4775 111.297c26.498 73.9941 59.7002 145.269 90.8809 217.336c29.8115 68.9062 64.8115 142.719 77.5967 217.189c5.25879 30.6279 6.59277 69.499 -25.8154 85.3975
c-28.2021 13.8369 -65.793 4.86523 -94.3711 -3.3252c-36.2158 -10.376 -59.1357 43.2842 -22.3027 55.1992c61.4326 19.8701 140.627 29.4297 184.498 -29.6416c45.1641 -60.8154 20.5576 -143.822 0.705078 -209.145
c-47.6611 -156.808 -135.774 -299.562 -172.39 -459.988c-4.53613 -19.8818 -27.5674 -88.2773 3.61328 -93.001c11.8037 -1.79199 33.8955 13.0781 43.167 18.9707c13.002 8.25488 25.1348 18.0371 36.4268 28.4834c22.6143 20.9336 43.5537 44.2295 63.3945 68.6064
c10.1758 58.8359 28.5303 116.908 46.75 172.971c25.5283 78.5713 56.1621 155.491 91.6494 230.103c32.1387 67.584 66.5977 137.777 115.21 195.291c27.8613 32.9609 119.582 127.483 155.181 50.8623c14.0244 -30.1992 -5.39355 -70.4219 -15.8809 -98.6299
c-14.6182 -39.3301 -32.7559 -77.209 -51.8916 -114.512c-73.9531 -144.164 -153.923 -287.1 -250.626 -417.386c-10.8516 -14.624 -21.9268 -29.583 -33.3662 -44.4775c-2.96094 -20.834 -4.63574 -41.709 -4.46582 -62.5078
c0.44043 -53.2842 29.165 -127.438 92.29 -80.5518c58.5303 43.4658 95.8213 118.383 127.331 182.178c68.4482 138.588 120.81 284.891 197.46 419.454c65.6221 115.204 148.354 224.356 262.177 295.571c53.7012 33.5957 118.812 69.4297 183.964 51.2451
c69.0645 -19.2715 89.0059 -85.1875 77.7256 -150.011c-6.63281 -38.1309 -65.9092 -29.6758 -59.5986 8.70215c6.87988 41.7969 -2.49121 85.1865 -54.0127 81.4502c-40.1582 -2.9082 -80.04 -30.8926 -112.102 -53.5068zM444.268 329.676
c-31.6094 -68.4951 -59.1709 -138.84 -82.5078 -210.584c-1.27539 -3.9248 -2.55664 -7.87305 -3.83789 -11.8213c79.0293 117.719 150.092 243.681 209.944 371.758c9.24805 19.7939 18.002 39.8408 25.7578 60.2812c3.01953 7.96094 5.36426 20.8457 8.52539 32.1855
c-4.8291 -3.81934 -9.57031 -7.73242 -14.1299 -11.8809c-12.127 -11.0225 -23.0488 -23.2314 -33.3369 -35.9629c-46.6562 -57.7607 -79.4756 -126.926 -110.415 -193.976z" />
    <glyph glyph-name="X" unicode="X" horiz-adv-x="914" 
d="M460.759 122.189c-73.5537 -88.5244 -153.684 -180.321 -250.104 -244.621c-90.6748 -60.4756 -229.639 -102.338 -320.589 -18.0205c-42.3555 39.2646 -56.4678 98.3242 -46.0918 154.205c11.3105 60.9395 48.5195 111.721 85.3643 159.863
c25.9453 33.9004 77.2021 -6.13477 52.2373 -40.3643c-37.8906 -51.9678 -89.2412 -119.834 -64.9756 -188.224c21.457 -60.4512 100.469 -65.5566 153.329 -52.2842c114.828 28.8301 207.694 132.519 283.521 217.547c52.9609 59.3818 102.685 121.49 152.925 183.164
c-11.6924 134.129 -40.9639 311.213 -189.158 273.587c-28.5186 -7.23828 -40.9863 42.8018 -12.7783 50.1699c166.531 43.5127 231.302 -127.337 252.6 -262.288c6.33984 7.58496 12.668 15.1758 19.0664 22.7021c74.9873 88.1836 155.855 174.164 251.137 240.768
c42.4844 29.7002 102.107 69.2764 156.713 52.708c58.4834 -17.7432 45.3936 -78.9766 17.7969 -117.9c-19.8174 -27.9434 -60.6221 4.35938 -41.7793 32.2793c12.6963 18.8125 18.8301 32.208 -9.11328 26.0801c-16.8213 -3.68945 -32.8613 -11.75 -47.4912 -20.6396
c-28.2373 -17.1621 -54.5586 -38.4307 -79.9697 -59.4707c-49.0947 -40.6396 -93.8594 -85.9385 -136.332 -133.388c-41.2393 -46.0625 -80.1875 -94.0352 -118.753 -142.319c13.6426 -130.985 39.1357 -294.25 185.191 -321.013
c39.6709 -7.27344 30.9756 -68.9121 -9.08301 -62.1904c-152.131 25.5107 -212.765 180.69 -229.239 316.588c-17.9727 -22.4502 -36.0449 -44.8232 -54.4229 -66.9385z" />
    <glyph glyph-name="Y" unicode="Y" horiz-adv-x="930" 
d="M279.953 -104.153c-25.7168 -18.3135 -51.0439 -37.708 -71.4199 -62.0322c-17.4795 -20.8809 -43.7715 -56.8672 -33.4424 -85.6328c20.5986 -57.3906 127.342 -39.2949 170.021 -27.8262c131.749 35.4053 226.647 142.078 302.058 249.809
c70.1816 100.263 126.115 210.984 166.62 326.441c21.1338 60.2461 39.2061 122.631 49.165 185.791c3.12598 19.835 5.41699 40.0049 5.41113 60.1045c-0.00585938 10.8281 1.71582 28.0488 -3.57227 38.1074c-11.0225 20.9629 -51.1514 -21.6631 -61.5508 -32.5674
c-153.512 -161.062 -209.692 -396.294 -389.761 -535.898c-40.4404 -31.3506 -100.745 -62.5723 -153.03 -43.7295c-54.6406 19.6885 -62.707 79.8408 -55.0811 130.41c17.3906 115.245 81.0029 217.97 129.228 322.046c33.3779 72.0439 113.254 278.951 -47.0439 243.217
c-55.2578 -12.3145 -107.061 -45.998 -141.22 -91.0205c-16.8623 -22.2266 -35.6279 -57.4375 -12.5439 -82.1787c23.6074 -25.293 62.3438 -19.5996 92.3203 -12.6318c33.0137 7.67285 38.3604 -44.2949 6.02832 -52.1797
c-66.0156 -16.0986 -155.392 2.63184 -162.688 84.1641c-6.25098 69.8643 59.7881 134.193 114.006 167.665c55.7861 34.4473 139.11 64.3291 201.113 28.9824c56.6973 -32.3262 66.1621 -104.023 58.1543 -163.06c-18.584 -136.973 -99.2764 -253.176 -142.878 -381.911
c-10.6934 -31.5684 -21.8447 -66.6973 -23.5078 -100.239c-0.576172 -11.627 -0.963867 -23.707 10.4111 -29.4648c11.6807 -5.91016 33.9248 1.76855 44.5889 5.81055c60.375 22.8496 108.993 83.4541 147.43 132.931c81.9609 105.504 141.455 226.143 219.462 334.35
c35.0645 48.6367 78.3838 111.773 137.267 133.377c73.748 27.0615 89.876 -59.7354 89.7764 -112.19c-0.140625 -73.624 -18.5186 -146.338 -38.7529 -216.684c-20.1758 -70.1221 -45.8271 -138.888 -77.3604 -204.709
c-60.7451 -126.778 -141.12 -252.294 -246.478 -346.617c-96.168 -86.0977 -250.402 -159.757 -380.7 -111.18c-68.2246 25.4404 -98.5889 93.4951 -72.4961 161.085c23.6191 61.1748 76.5381 105.563 129.687 140.78c35.7637 23.6953 76.1572 -28.1133 40.7812 -53.3184z
" />
    <glyph glyph-name="Y" unicode="&#x178;" horiz-adv-x="930" 
d="M279.953 -104.153c-25.7168 -18.3135 -51.0439 -37.708 -71.4199 -62.0322c-17.4795 -20.8809 -43.7715 -56.8672 -33.4424 -85.6328c20.5986 -57.3906 127.342 -39.2949 170.021 -27.8262c131.749 35.4053 226.647 142.078 302.058 249.809
c70.1816 100.263 126.115 210.984 166.62 326.441c21.1338 60.2461 39.2061 122.631 49.165 185.791c3.12598 19.835 5.41699 40.0049 5.41113 60.1045c-0.00585938 10.8281 1.71582 28.0488 -3.57227 38.1074c-11.0225 20.9629 -51.1514 -21.6631 -61.5508 -32.5674
c-153.512 -161.062 -209.692 -396.294 -389.761 -535.898c-40.4404 -31.3506 -100.745 -62.5723 -153.03 -43.7295c-54.6406 19.6885 -62.707 79.8408 -55.0811 130.41c17.3906 115.245 81.0029 217.97 129.228 322.046c33.3779 72.0439 113.254 278.951 -47.0439 243.217
c-55.2578 -12.3145 -107.061 -45.998 -141.22 -91.0205c-16.8623 -22.2266 -35.6279 -57.4375 -12.5439 -82.1787c23.6074 -25.293 62.3438 -19.5996 92.3203 -12.6318c33.0137 7.67285 38.3604 -44.2949 6.02832 -52.1797
c-66.0156 -16.0986 -155.392 2.63184 -162.688 84.1641c-6.25098 69.8643 59.7881 134.193 114.006 167.665c55.7861 34.4473 139.11 64.3291 201.113 28.9824c56.6973 -32.3262 66.1621 -104.023 58.1543 -163.06c-18.584 -136.973 -99.2764 -253.176 -142.878 -381.911
c-10.6934 -31.5684 -21.8447 -66.6973 -23.5078 -100.239c-0.576172 -11.627 -0.963867 -23.707 10.4111 -29.4648c11.6807 -5.91016 33.9248 1.76855 44.5889 5.81055c60.375 22.8496 108.993 83.4541 147.43 132.931c81.9609 105.504 141.455 226.143 219.462 334.35
c35.0645 48.6367 78.3838 111.773 137.267 133.377c73.748 27.0615 89.876 -59.7354 89.7764 -112.19c-0.140625 -73.624 -18.5186 -146.338 -38.7529 -216.684c-20.1758 -70.1221 -45.8271 -138.888 -77.3604 -204.709
c-60.7451 -126.778 -141.12 -252.294 -246.478 -346.617c-96.168 -86.0977 -250.402 -159.757 -380.7 -111.18c-68.2246 25.4404 -98.5889 93.4951 -72.4961 161.085c23.6191 61.1748 76.5381 105.563 129.687 140.78c35.7637 23.6953 76.1572 -28.1133 40.7812 -53.3184z
" />
    <glyph glyph-name="Y" unicode="&#xdd;" horiz-adv-x="930" 
d="M279.953 -104.153c-25.7168 -18.3135 -51.0439 -37.708 -71.4199 -62.0322c-17.4795 -20.8809 -43.7715 -56.8672 -33.4424 -85.6328c20.5986 -57.3906 127.342 -39.2949 170.021 -27.8262c131.749 35.4053 226.647 142.078 302.058 249.809
c70.1816 100.263 126.115 210.984 166.62 326.441c21.1338 60.2461 39.2061 122.631 49.165 185.791c3.12598 19.835 5.41699 40.0049 5.41113 60.1045c-0.00585938 10.8281 1.71582 28.0488 -3.57227 38.1074c-11.0225 20.9629 -51.1514 -21.6631 -61.5508 -32.5674
c-153.512 -161.062 -209.692 -396.294 -389.761 -535.898c-40.4404 -31.3506 -100.745 -62.5723 -153.03 -43.7295c-54.6406 19.6885 -62.707 79.8408 -55.0811 130.41c17.3906 115.245 81.0029 217.97 129.228 322.046c33.3779 72.0439 113.254 278.951 -47.0439 243.217
c-55.2578 -12.3145 -107.061 -45.998 -141.22 -91.0205c-16.8623 -22.2266 -35.6279 -57.4375 -12.5439 -82.1787c23.6074 -25.293 62.3438 -19.5996 92.3203 -12.6318c33.0137 7.67285 38.3604 -44.2949 6.02832 -52.1797
c-66.0156 -16.0986 -155.392 2.63184 -162.688 84.1641c-6.25098 69.8643 59.7881 134.193 114.006 167.665c55.7861 34.4473 139.11 64.3291 201.113 28.9824c56.6973 -32.3262 66.1621 -104.023 58.1543 -163.06c-18.584 -136.973 -99.2764 -253.176 -142.878 -381.911
c-10.6934 -31.5684 -21.8447 -66.6973 -23.5078 -100.239c-0.576172 -11.627 -0.963867 -23.707 10.4111 -29.4648c11.6807 -5.91016 33.9248 1.76855 44.5889 5.81055c60.375 22.8496 108.993 83.4541 147.43 132.931c81.9609 105.504 141.455 226.143 219.462 334.35
c35.0645 48.6367 78.3838 111.773 137.267 133.377c73.748 27.0615 89.876 -59.7354 89.7764 -112.19c-0.140625 -73.624 -18.5186 -146.338 -38.7529 -216.684c-20.1758 -70.1221 -45.8271 -138.888 -77.3604 -204.709
c-60.7451 -126.778 -141.12 -252.294 -246.478 -346.617c-96.168 -86.0977 -250.402 -159.757 -380.7 -111.18c-68.2246 25.4404 -98.5889 93.4951 -72.4961 161.085c23.6191 61.1748 76.5381 105.563 129.687 140.78c35.7637 23.6953 76.1572 -28.1133 40.7812 -53.3184z
" />
    <glyph glyph-name="Z" unicode="Z" horiz-adv-x="733" 
d="M167.26 -171.497c-49.7412 -23.5957 -102.408 -41.4072 -156.573 -51.5479c-47.4551 -8.90137 -109.44 -18.3076 -155.532 0.763672c-44.4824 18.4014 -61.0684 68.6943 -44.9404 112.565c17.5264 47.6729 64.8584 69.1592 111.333 79.2764
c103.153 22.4619 209.927 5.75195 312.357 -16.3809c53.501 34.5469 103.529 74.7109 151.025 116.808c31.5566 27.9727 61.874 57.3965 90.5107 88.3535c-27.3555 -3.04297 -54.623 -7.0791 -81.7676 -12.2197c-33.9365 -6.43359 -39.8828 46.8203 -6.15234 53.2715
c45.7754 8.74805 91.7852 14.2646 137.995 16.9492c13.9189 17.4326 27.2617 35.335 39.9229 53.748c49.2705 71.6445 100.263 161.696 84.5693 251.93c-17.873 102.748 -125.463 134.552 -216.771 123.771c-85.2461 -10.0703 -173.436 -43.3428 -241.19 -96.5498
c-32.332 -25.3936 -66.9258 -59.3594 -82.0605 -98.4541c-24.7646 -63.9648 44.377 -74.6758 90.9688 -70.9336c33.6836 2.70312 39.8936 -49.1348 6.04004 -52.3135c-54.9346 -5.1582 -121.743 1.46875 -147.889 58.4658c-25.0879 54.6758 11.2451 113.847 46.6152 154.457
c76.251 87.543 192.008 138.4 305.108 156.438c103.371 16.4863 222.923 -10.4404 277.199 -108.488c54.8174 -99.0234 16.998 -214.968 -34.1709 -306.741c-12.209 -21.8975 -25.3818 -43.0781 -39.3242 -63.6709c9.33594 -0.200195 18.6777 -0.464844 28.0254 -0.887695
c34.7061 -1.57422 26.6982 -55.0928 -7.80762 -53.4648c-19.7295 0.928711 -39.4414 1.23438 -59.124 0.987305c-40.3633 -51.5801 -85.6855 -99.2529 -134.052 -144.094c-34.3711 -31.8682 -70.3926 -62.3145 -108.083 -90.5107
c99.3467 -24.5 210.809 -51.2324 304.18 -9.4707c31.9678 14.3008 52.2139 -36.1865 20.3398 -50.3457c-97.7422 -43.4248 -208.522 -19.9707 -308.668 1.98535c-24.6357 5.39941 -49.3535 11.2393 -74.1533 17.0205c-34.6357 -22.5498 -70.5928 -43.0078 -107.931 -60.7158
zM-79.582 -157.37c86.1094 5.16992 167.545 30.9473 243.983 70.165c-46.8799 8.34277 -94.0947 13.8184 -141.686 13.043c-43.8301 -0.716797 -104.176 -1.63965 -140.286 -29.9883c-12.1504 -9.54199 -27.0684 -32.2148 -13.3262 -46.3867
c10.8691 -11.21 37.9424 -7.6377 51.3145 -6.83301z" />
    <glyph glyph-name="bracketleft" unicode="[" horiz-adv-x="195" 
d="M510.188 953.135c29.5 -16.5918 11.8457 -62.7734 -21.0039 -49.4834c-18.1963 7.36816 -49.3008 20.124 -68.0078 8.6377c-16.9736 -10.4229 -29.0127 -42.9258 -38.2725 -59.2715c-28.0254 -49.4531 -55.0693 -99.4521 -81.5615 -149.745
c-51.2627 -97.3135 -100.95 -195.426 -150.368 -293.686c-49.6641 -98.7588 -99.6279 -197.406 -147.207 -297.193c-12.5439 -26.3037 -25.3408 -52.5898 -36.0635 -79.7051c-6.16895 -15.6045 -25.6514 -52.2783 -17.7725 -68.2119
c6.06934 -12.2734 33.4307 -14.0596 45.1699 -15.916c28.3486 -4.48926 56.6562 -5.40625 85.2988 -4.52539c48.2842 1.48633 58.2549 -71.2627 8.74316 -75.7158c-51.6504 -4.64746 -113.124 -3.14355 -161.426 18.1309c-50.2285 22.1211 -62.1787 71.2803 -49.082 121.08
c26.5332 100.909 83.9766 196.202 130.562 288.933c47.7725 95.0928 95.5332 190.209 144.769 284.556c50.0645 95.9385 101.779 190.92 156.091 284.521c21.6738 37.3555 42.4141 91.5146 85.251 109.252c40.3281 16.6982 79.9512 -2.02051 114.88 -21.6562z" />
    <glyph glyph-name="backslash" unicode="\" horiz-adv-x="320" 
d="M268.962 -98.0039c4.48926 -20.0352 -14.6777 -40.2598 -33.4844 -42.2344c-22.2852 -2.33203 -37.2734 13.3496 -42.2266 33.4844c-36.9971 150.474 -55.7041 304.901 -74.4346 458.489c-9.27148 75.998 -18.5371 152.002 -29.7002 227.753
c-11.4102 77.4023 -27.1797 154.076 -38.8066 231.402c-4.6123 30.6758 43.5537 43.3369 53.207 13.5547c47.7256 -147.195 64.0889 -306.317 85.9688 -458.906c22.2734 -155.345 45.1289 -310.308 79.4766 -463.543z" />
    <glyph glyph-name="bracketright" unicode="]" horiz-adv-x="188" 
d="M312.388 941.148c48.2725 -18.3252 34.9375 -79.3828 24.0508 -117.578c-28.2256 -99.0527 -71.3213 -195.902 -109.576 -291.441c-38.4189 -95.9443 -78.5713 -191.237 -122.549 -284.779c-42.4141 -90.2217 -85.8154 -184.921 -143.853 -266.377
c-51.9678 -72.9365 -129.306 -128.759 -222.125 -122.549c-49.4355 3.30762 -37.1914 77.1787 11.0098 75.4102c102.473 -3.76562 161.215 102.954 203.159 180.074c51.1152 93.9824 97.0371 190.756 139.897 288.757c42.9258 98.1426 82.5195 197.677 122.061 297.217
c19.7236 49.6465 43.0488 99.4697 58.125 150.791c1.23926 4.21875 8.50098 24.2246 8.83008 33.4375c-3.17871 -5.00586 -23.6367 -4.74707 -25.0059 -4.8584c-29.5703 -2.33301 -60.7275 -5.1709 -89.335 -13.3086c-33.1309 -9.42969 -53.959 40.0469 -20.3398 50.3467
c28.6719 8.7832 56.6035 18.2188 86.2686 23.2715c24.4824 4.17188 55.4277 10.6758 79.3818 1.58691z" />
    <glyph glyph-name="asciicircum" unicode="^" horiz-adv-x="363" 
d="M296.72 701.081c17.5674 -15.3525 16.5645 -37.1562 15.4307 -58.5137c-2.53809 -47.8779 -8.88965 -95.833 -18.666 -142.76c-9.25391 -44.4121 -78.6533 -34.9414 -70.2285 10.252c6.43945 34.541 12.3682 69.0293 16.6396 103.917
c0.428711 3.47266 0.411133 7.98535 0.569336 12.5391c-4.40039 -2.73242 -7.85547 -4.90039 -8.80762 -5.58789c-50.6748 -36.6914 -91.626 -83.6064 -138.74 -124.311c-24.124 -20.8398 -55.2051 14.1953 -37.8906 38.0791c26.3623 36.374 57.3779 69.2354 89.998 100.058
c28.5488 26.9678 64.1299 60.5039 101.92 73.6299c16.5391 5.75195 36.0684 4.67676 49.7754 -7.30273z" />
    <glyph glyph-name="underscore" unicode="_" horiz-adv-x="536" 
d="M478.297 -35.4072c37.4609 -1.30469 36.1387 -65.0342 -0.987305 -65.5928c-137.789 -2.08008 -274.392 -7.60254 -411.217 -25.1992c-42.7021 -5.4873 -50.3105 60.6924 -7.66699 66.4092c138.718 18.6016 279.861 29.2539 419.871 24.3828z" />
    <glyph glyph-name="grave" unicode="`" horiz-adv-x="141" 
d="M175.248 510.537c19.9355 -27.585 -17.8086 -68.9014 -43.7891 -43.5781c-34.665 33.7891 -60.4111 73.8828 -78.6777 118.688c-16.6738 40.9102 46.3281 66.1914 63.502 25.6572c15.4229 -36.3975 35.8691 -68.8057 58.9648 -100.768z" />
    <glyph glyph-name="a" unicode="a" horiz-adv-x="331" 
d="M295.517 333.552c29.1826 34.3125 76.8486 -4.94824 54.1992 -41.8809c-49.083 -80.0283 -79.9697 -172.072 -98.0957 -263.739c-9.21289 -46.5859 -82.4961 -36.1572 -73.2305 10.6934c2.74414 13.8545 5.85254 27.5205 9.27246 41.0342
c-5.91016 -6.96777 -11.8203 -13.9414 -17.9072 -20.7568c-27.4375 -30.7109 -61.2793 -66.6973 -102.653 -77.3379c-44.3301 -11.4043 -75.8164 18.1953 -82.3555 60.751c-13.7129 89.2412 36.8916 178.512 102.678 234.645
c49.5996 42.3262 140.18 89.7344 192.376 37.6611c5.16992 6.36328 10.3994 12.6797 15.7168 18.9307zM53.7852 49.6641c-0.0292969 -2.72656 1.35156 -0.875 0 0zM177.984 180.492c20.7285 27.1387 40.8232 54.7539 61.334 82.0273
c-44.5293 21.8564 -105.187 -33.4541 -132.719 -64.9521c-19.6357 -22.4678 -35.2588 -47.9199 -44.3301 -76.4746c-4.6416 -14.624 -7.5791 -30.2705 -8.30176 -45.623c-0.293945 -6.32812 1.93848 -15.0352 0.545898 -21.0576
c-0.334961 -1.43945 -0.523438 -2.56152 -0.628906 -3.43652c24.6006 8.55469 47.2266 36.5332 63.3135 54.6826c21.3154 24.0596 41.2803 49.2998 60.7861 74.834z" />
    <glyph glyph-name="a" unicode="&#xe5;" horiz-adv-x="331" 
d="M295.517 333.552c29.1826 34.3125 76.8486 -4.94824 54.1992 -41.8809c-49.083 -80.0283 -79.9697 -172.072 -98.0957 -263.739c-9.21289 -46.5859 -82.4961 -36.1572 -73.2305 10.6934c2.74414 13.8545 5.85254 27.5205 9.27246 41.0342
c-5.91016 -6.96777 -11.8203 -13.9414 -17.9072 -20.7568c-27.4375 -30.7109 -61.2793 -66.6973 -102.653 -77.3379c-44.3301 -11.4043 -75.8164 18.1953 -82.3555 60.751c-13.7129 89.2412 36.8916 178.512 102.678 234.645
c49.5996 42.3262 140.18 89.7344 192.376 37.6611c5.16992 6.36328 10.3994 12.6797 15.7168 18.9307zM53.7852 49.6641c-0.0292969 -2.72656 1.35156 -0.875 0 0zM177.984 180.492c20.7285 27.1387 40.8232 54.7539 61.334 82.0273
c-44.5293 21.8564 -105.187 -33.4541 -132.719 -64.9521c-19.6357 -22.4678 -35.2588 -47.9199 -44.3301 -76.4746c-4.6416 -14.624 -7.5791 -30.2705 -8.30176 -45.623c-0.293945 -6.32812 1.93848 -15.0352 0.545898 -21.0576
c-0.334961 -1.43945 -0.523438 -2.56152 -0.628906 -3.43652c24.6006 8.55469 47.2266 36.5332 63.3135 54.6826c21.3154 24.0596 41.2803 49.2998 60.7861 74.834z" />
    <glyph glyph-name="a" unicode="&#xe4;" horiz-adv-x="331" 
d="M295.517 333.552c29.1826 34.3125 76.8486 -4.94824 54.1992 -41.8809c-49.083 -80.0283 -79.9697 -172.072 -98.0957 -263.739c-9.21289 -46.5859 -82.4961 -36.1572 -73.2305 10.6934c2.74414 13.8545 5.85254 27.5205 9.27246 41.0342
c-5.91016 -6.96777 -11.8203 -13.9414 -17.9072 -20.7568c-27.4375 -30.7109 -61.2793 -66.6973 -102.653 -77.3379c-44.3301 -11.4043 -75.8164 18.1953 -82.3555 60.751c-13.7129 89.2412 36.8916 178.512 102.678 234.645
c49.5996 42.3262 140.18 89.7344 192.376 37.6611c5.16992 6.36328 10.3994 12.6797 15.7168 18.9307zM53.7852 49.6641c-0.0292969 -2.72656 1.35156 -0.875 0 0zM177.984 180.492c20.7285 27.1387 40.8232 54.7539 61.334 82.0273
c-44.5293 21.8564 -105.187 -33.4541 -132.719 -64.9521c-19.6357 -22.4678 -35.2588 -47.9199 -44.3301 -76.4746c-4.6416 -14.624 -7.5791 -30.2705 -8.30176 -45.623c-0.293945 -6.32812 1.93848 -15.0352 0.545898 -21.0576
c-0.334961 -1.43945 -0.523438 -2.56152 -0.628906 -3.43652c24.6006 8.55469 47.2266 36.5332 63.3135 54.6826c21.3154 24.0596 41.2803 49.2998 60.7861 74.834z" />
    <glyph glyph-name="a" unicode="&#xe3;" horiz-adv-x="331" 
d="M295.517 333.552c29.1826 34.3125 76.8486 -4.94824 54.1992 -41.8809c-49.083 -80.0283 -79.9697 -172.072 -98.0957 -263.739c-9.21289 -46.5859 -82.4961 -36.1572 -73.2305 10.6934c2.74414 13.8545 5.85254 27.5205 9.27246 41.0342
c-5.91016 -6.96777 -11.8203 -13.9414 -17.9072 -20.7568c-27.4375 -30.7109 -61.2793 -66.6973 -102.653 -77.3379c-44.3301 -11.4043 -75.8164 18.1953 -82.3555 60.751c-13.7129 89.2412 36.8916 178.512 102.678 234.645
c49.5996 42.3262 140.18 89.7344 192.376 37.6611c5.16992 6.36328 10.3994 12.6797 15.7168 18.9307zM53.7852 49.6641c-0.0292969 -2.72656 1.35156 -0.875 0 0zM177.984 180.492c20.7285 27.1387 40.8232 54.7539 61.334 82.0273
c-44.5293 21.8564 -105.187 -33.4541 -132.719 -64.9521c-19.6357 -22.4678 -35.2588 -47.9199 -44.3301 -76.4746c-4.6416 -14.624 -7.5791 -30.2705 -8.30176 -45.623c-0.293945 -6.32812 1.93848 -15.0352 0.545898 -21.0576
c-0.334961 -1.43945 -0.523438 -2.56152 -0.628906 -3.43652c24.6006 8.55469 47.2266 36.5332 63.3135 54.6826c21.3154 24.0596 41.2803 49.2998 60.7861 74.834z" />
    <glyph glyph-name="a" unicode="&#xe2;" horiz-adv-x="331" 
d="M295.517 333.552c29.1826 34.3125 76.8486 -4.94824 54.1992 -41.8809c-49.083 -80.0283 -79.9697 -172.072 -98.0957 -263.739c-9.21289 -46.5859 -82.4961 -36.1572 -73.2305 10.6934c2.74414 13.8545 5.85254 27.5205 9.27246 41.0342
c-5.91016 -6.96777 -11.8203 -13.9414 -17.9072 -20.7568c-27.4375 -30.7109 -61.2793 -66.6973 -102.653 -77.3379c-44.3301 -11.4043 -75.8164 18.1953 -82.3555 60.751c-13.7129 89.2412 36.8916 178.512 102.678 234.645
c49.5996 42.3262 140.18 89.7344 192.376 37.6611c5.16992 6.36328 10.3994 12.6797 15.7168 18.9307zM53.7852 49.6641c-0.0292969 -2.72656 1.35156 -0.875 0 0zM177.984 180.492c20.7285 27.1387 40.8232 54.7539 61.334 82.0273
c-44.5293 21.8564 -105.187 -33.4541 -132.719 -64.9521c-19.6357 -22.4678 -35.2588 -47.9199 -44.3301 -76.4746c-4.6416 -14.624 -7.5791 -30.2705 -8.30176 -45.623c-0.293945 -6.32812 1.93848 -15.0352 0.545898 -21.0576
c-0.334961 -1.43945 -0.523438 -2.56152 -0.628906 -3.43652c24.6006 8.55469 47.2266 36.5332 63.3135 54.6826c21.3154 24.0596 41.2803 49.2998 60.7861 74.834z" />
    <glyph glyph-name="a" unicode="&#xe1;" horiz-adv-x="331" 
d="M295.517 333.552c29.1826 34.3125 76.8486 -4.94824 54.1992 -41.8809c-49.083 -80.0283 -79.9697 -172.072 -98.0957 -263.739c-9.21289 -46.5859 -82.4961 -36.1572 -73.2305 10.6934c2.74414 13.8545 5.85254 27.5205 9.27246 41.0342
c-5.91016 -6.96777 -11.8203 -13.9414 -17.9072 -20.7568c-27.4375 -30.7109 -61.2793 -66.6973 -102.653 -77.3379c-44.3301 -11.4043 -75.8164 18.1953 -82.3555 60.751c-13.7129 89.2412 36.8916 178.512 102.678 234.645
c49.5996 42.3262 140.18 89.7344 192.376 37.6611c5.16992 6.36328 10.3994 12.6797 15.7168 18.9307zM53.7852 49.6641c-0.0292969 -2.72656 1.35156 -0.875 0 0zM177.984 180.492c20.7285 27.1387 40.8232 54.7539 61.334 82.0273
c-44.5293 21.8564 -105.187 -33.4541 -132.719 -64.9521c-19.6357 -22.4678 -35.2588 -47.9199 -44.3301 -76.4746c-4.6416 -14.624 -7.5791 -30.2705 -8.30176 -45.623c-0.293945 -6.32812 1.93848 -15.0352 0.545898 -21.0576
c-0.334961 -1.43945 -0.523438 -2.56152 -0.628906 -3.43652c24.6006 8.55469 47.2266 36.5332 63.3135 54.6826c21.3154 24.0596 41.2803 49.2998 60.7861 74.834z" />
    <glyph glyph-name="b" unicode="b" horiz-adv-x="356" 
d="M380.95 600.287c49.6875 -20.8457 45.6641 -75.9189 22.4854 -115.401c-44.377 -75.6045 -145.492 -118.495 -233.023 -129.194c-24.1416 -43.3896 -43.8477 -89.376 -60.1455 -136.05c-4.33008 -12.3975 -8.27832 -24.9062 -12.0566 -37.4619
c17.8789 24.6416 37.5322 47.8027 58.8008 68.7949c45.2402 44.6523 147.912 106.866 186.73 18.665c32.1562 -73.0664 -24.2002 -172.719 -70.9561 -226.713c-53.5479 -61.832 -143.899 -116.772 -222.424 -65.7451c-14.6592 -18.2432 -49.4941 -6.74512 -52.8604 17.4854
c-7.37988 53.0547 6.46289 112.66 18.7891 164.122c12.9668 54.1299 30.499 107.161 52.7256 158.194c40.9453 94.0059 97.8721 190.949 183.353 251.042c35.1582 24.7178 85.0986 50.5049 128.582 32.2617zM155.701 157.175
c-29.5703 -38.4541 -57.7793 -80.7217 -78.6777 -125.257c0.34668 -0.0996094 0.693359 -0.169922 1.04004 -0.287109c60.1699 -19.6533 112.555 20.3047 149.522 64.6816c17.9902 21.5977 32.8662 45.2637 44.4111 70.8916c7.84375 17.415 30.4053 65.8926 11.0459 82.1084
c-18.9951 15.9102 -58.2188 -19.125 -71.6611 -30.6934c-20.9746 -18.0547 -38.8477 -39.5586 -55.6807 -61.4443zM348.283 501.507c10.3232 13.502 27.9443 42.6807 -1.10938 40.6357c-15.7871 -1.11035 -36.2568 -18.3428 -48.0195 -27.5498
c-29.7588 -23.3076 -55.5518 -51.6152 -78.4365 -81.5918c-2.91406 -3.81934 -5.62891 -7.78516 -8.44922 -11.6748c52.749 13.3018 103.647 37.8311 136.015 80.1807z" />
    <glyph glyph-name="c" unicode="c" horiz-adv-x="317" 
d="M230.148 118.066c22.0684 25.9512 63.3486 -5.62988 41.9912 -32.4453c-42.6318 -53.5479 -119.094 -122.396 -193.517 -112.513c-88.501 11.7451 -99.4287 112.296 -77.9014 181.385c21.3447 68.501 73.4355 139.934 141.549 167.665
c33.4189 13.6074 75.6455 16.9795 100.258 -14.5947c24.7412 -31.7441 15.2881 -68.7178 6.39844 -104.275c-10.5283 -42.126 -76.8262 -34.1416 -68.0488 9.93555c2.4502 12.3145 15.7461 45.5107 3.68945 49.1826c-14.0186 4.27734 -42.2441 -19.4062 -52.0088 -27.9023
c-31.6738 -27.5732 -56.5264 -67.2969 -67.8604 -107.654c-11.8213 -42.1201 -5.6875 -102.354 52.4082 -87.9189c44.876 11.1514 83.8828 44.8467 113.042 79.1357z" />
    <glyph glyph-name="d" unicode="d" horiz-adv-x="420" 
d="M574.076 606.438c37.3379 -28.625 25.4053 -84.21 9.0957 -120.778c-20.7109 -46.4092 -53.542 -87.3721 -87.8486 -124.381c-65.252 -70.3926 -137.995 -135.645 -215.791 -192.33c-2.00391 -7.23828 -3.90137 -14.4941 -5.5293 -21.8145
c-5.59961 -25.1641 -9.10742 -51.0098 -7.52734 -76.8203c0.200195 -3.24902 -0.53418 -18.3193 3.27344 -21.4336c8.3252 -6.80957 26.4033 0.804688 34.5469 3.90137c29.9824 11.4043 48.3838 -26.6387 26.6035 -46.627
c-35.9453 -32.9785 -104.435 -30.9453 -125.504 18.1494c-9.35352 21.792 -11.8271 46.8916 -10.4756 72.4199c-13.9248 -17.2266 -28.4727 -33.9121 -43.8838 -49.8105c-27.3613 -28.2256 -61.4385 -56.1572 -102.272 -59.583
c-42.6143 -3.57227 -69.2705 26.1162 -72.7549 66.6445c-6.95605 80.9629 56.8623 165.862 114.459 216.414c29.459 25.8633 130.892 91.75 177.154 64.6826c22.8379 47.7139 49.6475 93.542 79.6826 135.915c28.3135 39.9404 60.9043 79.6992 99.8936 109.74
c33.3896 25.7227 87.002 56.2803 126.878 25.7109zM160.468 163.174c26.4102 37.1621 49.876 76.2158 72.7256 115.64c-7.98438 -3.03711 -17.1797 -4.15918 -25.3174 -7.44336c-12.2793 -4.95312 -24.042 -11.2461 -35.2285 -18.2969
c-23.1553 -14.5889 -44.624 -32.7559 -62.8965 -53.1143c-16.8682 -18.7832 -31.9736 -39.4648 -44.2939 -61.5029c-7.56152 -13.5312 -14.7354 -27.832 -19.4121 -42.6318c-2.00977 -6.35742 -11.2461 -39.8994 -3.99023 -44.6055
c5.04102 -3.27246 27.7197 11.7334 31.8086 14.501c11.6807 7.9082 21.9863 17.6553 31.5107 28.0078c19.9707 21.6973 38.0254 45.4336 55.0938 69.4463zM533.583 539.82c0.999023 11.5449 2.83887 12.4668 -9.31152 5.45703
c-19.0361 -10.9697 -36.4688 -22.1152 -52.7549 -37.209c-65.3457 -60.54 -112.031 -142.678 -148.124 -223.44c40.0938 33.7773 78.665 69.3115 114.828 107.572c32.0967 33.9482 64.4697 71.1572 84.3457 113.877c4.93555 10.6055 9.99414 21.9395 11.0166 33.7432z" />
    <glyph glyph-name="e" unicode="e" horiz-adv-x="322" 
d="M230.425 96.9033c24.624 20.0879 58.7646 -14.9131 38.9531 -39.1436c-49.7119 -60.8037 -180.228 -128.935 -251.179 -66.5791c-77.2666 67.9014 -13.4893 204.586 43.96 263.81c34.5 35.5635 80.2695 65.1934 131.068 67.9375
c40.6279 2.19727 90.9385 -16.4277 98.7764 -61.6855c6.8916 -39.7998 -19.9414 -77.2842 -53.0137 -96.209c-43.5771 -24.9346 -100.004 -28.2246 -147.06 -12.4785c-4.60645 1.54492 -8.22559 3.96582 -10.999 6.93262
c-22.0146 -41.5918 -51.1738 -124.622 8.11426 -126.955c53.8652 -2.12109 101.99 32.2324 141.379 64.3711zM223.044 252.323c-39.2412 7.52637 -77.3369 -15.2578 -105.732 -43.9766c28.4307 -6.15723 59.0293 -12.0498 86.7314 -0.916016
c16.498 6.62695 51.4326 38.6709 19.001 44.8926z" />
    <glyph glyph-name="e" unicode="&#xeb;" horiz-adv-x="322" 
d="M230.425 96.9033c24.624 20.0879 58.7646 -14.9131 38.9531 -39.1436c-49.7119 -60.8037 -180.228 -128.935 -251.179 -66.5791c-77.2666 67.9014 -13.4893 204.586 43.96 263.81c34.5 35.5635 80.2695 65.1934 131.068 67.9375
c40.6279 2.19727 90.9385 -16.4277 98.7764 -61.6855c6.8916 -39.7998 -19.9414 -77.2842 -53.0137 -96.209c-43.5771 -24.9346 -100.004 -28.2246 -147.06 -12.4785c-4.60645 1.54492 -8.22559 3.96582 -10.999 6.93262
c-22.0146 -41.5918 -51.1738 -124.622 8.11426 -126.955c53.8652 -2.12109 101.99 32.2324 141.379 64.3711zM223.044 252.323c-39.2412 7.52637 -77.3369 -15.2578 -105.732 -43.9766c28.4307 -6.15723 59.0293 -12.0498 86.7314 -0.916016
c16.498 6.62695 51.4326 38.6709 19.001 44.8926z" />
    <glyph glyph-name="e" unicode="&#xea;" horiz-adv-x="322" 
d="M230.425 96.9033c24.624 20.0879 58.7646 -14.9131 38.9531 -39.1436c-49.7119 -60.8037 -180.228 -128.935 -251.179 -66.5791c-77.2666 67.9014 -13.4893 204.586 43.96 263.81c34.5 35.5635 80.2695 65.1934 131.068 67.9375
c40.6279 2.19727 90.9385 -16.4277 98.7764 -61.6855c6.8916 -39.7998 -19.9414 -77.2842 -53.0137 -96.209c-43.5771 -24.9346 -100.004 -28.2246 -147.06 -12.4785c-4.60645 1.54492 -8.22559 3.96582 -10.999 6.93262
c-22.0146 -41.5918 -51.1738 -124.622 8.11426 -126.955c53.8652 -2.12109 101.99 32.2324 141.379 64.3711zM223.044 252.323c-39.2412 7.52637 -77.3369 -15.2578 -105.732 -43.9766c28.4307 -6.15723 59.0293 -12.0498 86.7314 -0.916016
c16.498 6.62695 51.4326 38.6709 19.001 44.8926z" />
    <glyph glyph-name="e" unicode="&#xe9;" horiz-adv-x="322" 
d="M230.425 96.9033c24.624 20.0879 58.7646 -14.9131 38.9531 -39.1436c-49.7119 -60.8037 -180.228 -128.935 -251.179 -66.5791c-77.2666 67.9014 -13.4893 204.586 43.96 263.81c34.5 35.5635 80.2695 65.1934 131.068 67.9375
c40.6279 2.19727 90.9385 -16.4277 98.7764 -61.6855c6.8916 -39.7998 -19.9414 -77.2842 -53.0137 -96.209c-43.5771 -24.9346 -100.004 -28.2246 -147.06 -12.4785c-4.60645 1.54492 -8.22559 3.96582 -10.999 6.93262
c-22.0146 -41.5918 -51.1738 -124.622 8.11426 -126.955c53.8652 -2.12109 101.99 32.2324 141.379 64.3711zM223.044 252.323c-39.2412 7.52637 -77.3369 -15.2578 -105.732 -43.9766c28.4307 -6.15723 59.0293 -12.0498 86.7314 -0.916016
c16.498 6.62695 51.4326 38.6709 19.001 44.8926z" />
    <glyph glyph-name="f" unicode="f" horiz-adv-x="300" 
d="M506.053 495.841c-70.0752 -71.5322 -165.963 -115.112 -262.46 -139.936c-7.0625 -14.2598 -13.9131 -28.584 -20.5527 -42.9551c27.9316 3.77246 55.9336 7.09766 83.9121 8.24316c39.2529 1.60352 45.1221 -52.3672 6.95605 -60.252
c-39.8936 -8.24316 -80.5332 -13.0967 -121.268 -17.374c-30.9453 -74.5059 -57.6777 -150.744 -83.1885 -227.259c-34.5 -103.465 -65.3574 -209.592 -111.767 -308.504c-16.457 -35.0762 -64.4941 -12.5674 -54.042 22.9375
c42.0674 142.941 88.207 285.818 138.106 426.228c9.2832 26.1221 18.9482 52.126 29.0654 77.9424c-15.8516 -1.85059 -31.6562 -3.89551 -47.373 -6.30469c-22.6025 -3.4668 -40.2812 26.3096 -24.7881 43.9121c22.2148 25.2402 64.582 27.25 99.958 29.8643
c26.4043 60.7803 56.0928 120.068 90.6514 176.789c52.126 85.5508 128.465 204.568 237.3 220.05c47.4727 6.75098 96.9434 -17.5791 103.23 -68.9062c6.35156 -51.9033 -29.5645 -99.5879 -63.7412 -134.476zM368.42 556.154
c-30.6631 -37.8018 -57.8486 -78.5527 -82.4316 -120.867c71.3037 25.7871 139.293 59.2646 189.393 119.311c18.1846 21.792 59.9463 92.6729 -1.41602 80.5693c-43.166 -8.51953 -79.0879 -46.3984 -105.545 -79.0127z" />
    <glyph glyph-name="g" unicode="g" horiz-adv-x="336" 
d="M301.264 341.971c18.8604 7.03906 44.6045 -5.03223 38.6523 -29.1211c-0.552734 -2.24414 -1.14648 -4.48242 -1.70508 -6.7207c0.0117188 -5.91016 -1.43945 -12.2383 -4.76465 -18.7656c-18.6309 -73.7539 -39.0186 -147.272 -61.7324 -219.821
c-24.7881 -79.1826 -52.5312 -158.812 -94.6748 -230.649c-38.8359 -66.2031 -95.6914 -124.375 -173.84 -139.14c-68.7002 -12.9785 -156.231 23.7129 -144.675 105.927c5.77539 41.1045 65.6748 31.21 63.0078 -9.20117
c-2.29688 -34.8232 46.9268 -33.0371 68.8301 -27.2441c27.6201 7.30859 52.6729 23.542 73.4717 42.8076c43.29 40.1055 68.877 97.085 91.3975 150.516c18.0547 42.8252 32.8135 86.8906 46.873 131.209c-12.6963 -15.4697 -25.916 -30.4873 -39.8467 -44.8525
c-27.3613 -28.2256 -61.4385 -56.1572 -102.272 -59.583c-42.6143 -3.57227 -69.2705 26.1162 -72.7549 66.6445c-6.95605 80.9629 56.8623 165.862 114.459 216.414c29.7119 26.0811 132.584 92.8311 178.294 63.9541c6.60938 5.21777 14.0127 7.55664 21.2803 7.62695z
M171.692 163.175c26.4102 37.1621 49.876 76.2158 72.7256 115.64c-7.98438 -3.03711 -17.1797 -4.15918 -25.3174 -7.44336c-12.2793 -4.95312 -24.042 -11.2461 -35.2285 -18.2969c-23.1611 -14.5889 -44.624 -32.7559 -62.8965 -53.1143
c-16.8682 -18.7832 -31.9736 -39.4648 -44.2939 -61.5029c-7.56152 -13.5312 -14.7354 -27.832 -19.4121 -42.6318c-2.00977 -6.35742 -11.2461 -39.8994 -3.99023 -44.6055c5.04102 -3.27246 27.7197 11.7334 31.8086 14.501
c11.6807 7.9082 21.9863 17.6553 31.5107 28.0078c19.9707 21.6973 38.0254 45.4336 55.0938 69.4463z" />
    <glyph glyph-name="h" unicode="h" horiz-adv-x="332" 
d="M380.95 600.287c49.6875 -20.8457 45.6631 -75.9189 22.4844 -115.401c-44.377 -75.6045 -145.492 -118.495 -233.023 -129.194c-24.1416 -43.3896 -43.8477 -89.376 -60.1455 -136.05c-1.8623 -5.34082 -3.56641 -10.7285 -5.3291 -16.0986
c31.5156 46.8271 78.3779 110.945 135.64 125.517c79.4111 20.2051 76.0859 -74.8818 65.1934 -124.84c-15.9629 -73.207 -37.4844 -145.615 -57.9131 -217.677c-5.63477 -19.8701 -33.0967 -27.7842 -50.2295 -20.293c-20.6279 9.02441 -25.9746 30.1758 -20.293 50.2285
c15.0879 53.207 30.6338 106.332 47.1084 159.128c8.89551 28.4893 19.5537 57.1494 23.3018 86.9199c0.317383 1.21582 0.422852 2.43164 0.628906 3.65332c-8.31348 -5.52246 -22.6025 -13.3076 -25.8691 -16.0459c-77.666 -65.1992 -125.245 -168.03 -163.582 -259.604
c-1.48047 -3.52539 -3.40723 -6.375 -5.61621 -8.6543c-12.1621 -24.583 -52.1797 -13.2783 -55.8047 12.791c-7.37988 53.0547 6.46289 112.66 18.7891 164.122c12.9668 54.1299 30.499 107.161 52.7256 158.194c40.9453 94.0059 97.8721 190.949 183.353 251.042
c35.1582 24.7178 85.0986 50.5049 128.582 32.2617zM348.283 501.507c10.3232 13.502 27.9443 42.6807 -1.10938 40.6357c-15.7871 -1.11035 -36.2568 -18.3428 -48.0195 -27.5498c-29.7588 -23.3076 -55.5518 -51.6152 -78.4365 -81.5918
c-2.91406 -3.81934 -5.62891 -7.78516 -8.44922 -11.6748c52.749 13.3018 103.647 37.8311 136.015 80.1807z" />
    <glyph glyph-name="i" unicode="i" horiz-adv-x="124" 
d="M75.25 303.517c20.5225 40.1113 83.209 14.6709 65.0654 -27.6201c-41.833 -97.5547 -86.3096 -194.287 -118.478 -295.613c-11.3223 -35.6514 -58.6016 -14.8408 -57.6494 16.1572c1.60938 52.332 25.6221 105.27 44.1064 153.63
c19.9111 52.0967 41.5498 103.788 66.9551 153.446zM145.933 458.38c19.7002 29.3594 68.2383 0.198242 52.9619 -31.0059c-9.24805 -18.9014 -20.999 -38.4365 -35.6523 -53.6709c-9.56543 -9.94141 -22.2793 -13.6016 -34.7354 -6.56836
c-12.5908 7.11523 -14.9766 20.6348 -11.2695 33.5078c5.875 20.3877 16.9326 40.2051 28.6953 57.7373z" />
    <glyph glyph-name="i" unicode="&#xef;" horiz-adv-x="124" 
d="M75.25 303.517c20.5225 40.1113 83.209 14.6709 65.0654 -27.6201c-41.833 -97.5547 -86.3096 -194.287 -118.478 -295.613c-11.3223 -35.6514 -58.6016 -14.8408 -57.6494 16.1572c1.60938 52.332 25.6221 105.27 44.1064 153.63
c19.9111 52.0967 41.5498 103.788 66.9551 153.446zM145.933 458.38c19.7002 29.3594 68.2383 0.198242 52.9619 -31.0059c-9.24805 -18.9014 -20.999 -38.4365 -35.6523 -53.6709c-9.56543 -9.94141 -22.2793 -13.6016 -34.7354 -6.56836
c-12.5908 7.11523 -14.9766 20.6348 -11.2695 33.5078c5.875 20.3877 16.9326 40.2051 28.6953 57.7373z" />
    <glyph glyph-name="i" unicode="&#xee;" horiz-adv-x="124" 
d="M75.25 303.517c20.5225 40.1113 83.209 14.6709 65.0654 -27.6201c-41.833 -97.5547 -86.3096 -194.287 -118.478 -295.613c-11.3223 -35.6514 -58.6016 -14.8408 -57.6494 16.1572c1.60938 52.332 25.6221 105.27 44.1064 153.63
c19.9111 52.0967 41.5498 103.788 66.9551 153.446zM145.933 458.38c19.7002 29.3594 68.2383 0.198242 52.9619 -31.0059c-9.24805 -18.9014 -20.999 -38.4365 -35.6523 -53.6709c-9.56543 -9.94141 -22.2793 -13.6016 -34.7354 -6.56836
c-12.5908 7.11523 -14.9766 20.6348 -11.2695 33.5078c5.875 20.3877 16.9326 40.2051 28.6953 57.7373z" />
    <glyph glyph-name="i" unicode="&#xed;" horiz-adv-x="124" 
d="M75.25 303.517c20.5225 40.1113 83.209 14.6709 65.0654 -27.6201c-41.833 -97.5547 -86.3096 -194.287 -118.478 -295.613c-11.3223 -35.6514 -58.6016 -14.8408 -57.6494 16.1572c1.60938 52.332 25.6221 105.27 44.1064 153.63
c19.9111 52.0967 41.5498 103.788 66.9551 153.446zM145.933 458.38c19.7002 29.3594 68.2383 0.198242 52.9619 -31.0059c-9.24805 -18.9014 -20.999 -38.4365 -35.6523 -53.6709c-9.56543 -9.94141 -22.2793 -13.6016 -34.7354 -6.56836
c-12.5908 7.11523 -14.9766 20.6348 -11.2695 33.5078c5.875 20.3877 16.9326 40.2051 28.6953 57.7373z" />
    <glyph glyph-name="j" unicode="j" horiz-adv-x="155" 
d="M106.641 327.976c13.0723 27.8672 61.9189 17.1201 53.958 -15.124c-20.3057 -82.3018 -42.8672 -164.393 -68.2021 -245.302c-24.7881 -79.1826 -52.5312 -158.812 -94.6748 -230.649c-38.8359 -66.2031 -95.6914 -124.375 -173.84 -139.14
c-68.7002 -12.9785 -156.231 23.7129 -144.675 105.927c5.77539 41.1045 65.6748 31.21 63.0078 -9.20117c-2.29688 -34.8232 46.9268 -33.0371 68.8301 -27.2441c27.6201 7.30859 52.6729 23.542 73.4717 42.8076c43.29 40.1055 68.877 97.085 91.3975 150.516
c50.5459 119.91 75.4219 249.526 130.727 367.41zM194.153 499.188c15.1523 -6.43359 26.5859 -28.0381 17.6318 -43.6367c-6.03418 -10.5049 -11.4922 -21.2568 -16.874 -32.1025c-5.63477 -11.3574 -10.7695 -24.1895 -19.6064 -33.4141
c-15.6992 -16.375 -44.124 -11.4512 -47.6084 13.249c-3.74219 26.5273 10.7109 55.4346 22.8203 78.2725c8.44922 15.9277 25.8936 25.1641 43.6367 17.6318z" />
    <glyph glyph-name="k" unicode="k" horiz-adv-x="367" 
d="M380.95 600.287c49.6875 -20.8457 45.6582 -75.918 22.4971 -115.4c-44.3828 -75.6045 -145.498 -118.495 -233.029 -129.194c-15.4814 -27.8203 -29.0771 -56.7275 -41.1689 -86.1865c14.4121 9.49414 28.8652 18.9355 43.4248 28.2188
c28.6191 18.2432 60.5518 45.0645 95.0986 49.083c27.1738 3.15527 41.5273 -32.8193 19.9648 -49.4111c-49.8408 -38.3604 -105.41 -70.9629 -157.83 -106.438c28.1484 -76.8262 81.1445 -184.286 169.745 -190.326c35.0176 -2.38574 32.2207 -56.1924 -0.898438 -59.9941
c-102.366 -11.7568 -175.355 96.3145 -214.896 188.299c-1.71582 -7.19727 -3.42578 -14.3945 -4.97656 -21.6328c-8.58398 -39.999 -11.792 -81.8555 -23.7422 -120.95c-9.2832 -30.3643 -53.8066 -19.2305 -57.6377 8.31348
c-7.37988 53.0547 6.46289 112.66 18.7891 164.122c12.9668 54.1299 30.499 107.161 52.7256 158.194c40.9453 94.0059 97.8721 190.949 183.353 251.042c35.1582 24.7178 85.0986 50.5049 128.582 32.2617zM348.284 501.508
c10.3232 13.502 27.9443 42.6807 -1.10938 40.6357c-15.7871 -1.11035 -36.2568 -18.3428 -48.0195 -27.5498c-29.7588 -23.3076 -55.5459 -51.6152 -78.4365 -81.5918c-2.91406 -3.81934 -5.62891 -7.78516 -8.44922 -11.6748
c52.749 13.3018 103.647 37.8311 136.015 80.1807z" />
    <glyph glyph-name="l" unicode="l" horiz-adv-x="232" 
d="M386.271 606.438c37.3438 -28.625 25.415 -84.208 9.09277 -120.776c-20.7109 -46.4092 -53.543 -87.3721 -87.8496 -124.381c-65.252 -70.3926 -137.995 -135.645 -215.791 -192.33c-2.00391 -7.23828 -3.90137 -14.4941 -5.5293 -21.8145
c-5.59961 -25.1641 -9.10742 -51.0098 -7.52734 -76.8203c0.200195 -3.24902 -0.53418 -18.3193 3.27344 -21.4336c8.31934 -6.80957 26.4033 0.804688 34.5469 3.90137c29.9824 11.4043 48.3838 -26.6387 26.6035 -46.627
c-35.9395 -32.9785 -104.435 -30.9453 -125.504 18.1494c-17.5381 40.8633 -10.9521 93.3711 -0.118164 138.5c-5.64648 11.627 -4.45996 26.1094 9.21777 36.2266c0.276367 0.200195 0.541016 0.412109 0.817383 0.612305c28.4834 95.8096 74.2939 189.944 131.996 271.342
c28.3135 39.9404 60.9043 79.6992 99.8936 109.74c33.3896 25.7227 87.002 56.2803 126.878 25.7109zM345.787 539.821c0.999023 11.5449 2.83789 12.4668 -9.3125 5.45703c-19.0361 -10.9697 -36.4688 -22.1152 -52.7549 -37.209
c-65.3516 -60.54 -112.037 -142.678 -148.13 -223.44c40.0996 33.7773 78.6719 69.3115 114.835 107.572c32.0967 33.9482 64.4697 71.1572 84.3457 113.877c4.93555 10.6055 9.99414 21.9395 11.0166 33.7432z" />
    <glyph glyph-name="m" unicode="m" horiz-adv-x="451" 
d="M416.517 316.272c63.8359 -19.083 20.0283 -106.496 4.27051 -145.244c-23.8662 -58.6719 -49.2539 -114.729 -59.4824 -177.694c-7.18555 -44.2119 -72.5137 -34.1885 -68.46 9.99414c4.40625 47.9902 21.791 94.4824 39.999 138.735
c9.03027 21.9443 18.5488 43.6895 27.3086 65.7451c2.34473 5.89844 4.63574 11.8271 6.8623 17.7734c-7.21484 -5.14062 -14.3184 -10.4404 -21.1924 -16.0283c-17.3496 -14.1006 -33.501 -29.5059 -48.624 -45.957c-30.3584 -33.0195 -56.709 -69.1709 -83.1016 -105.352
c-24.7529 -33.9307 -71.1562 -0.628906 -59.5527 34.8643c14.0361 42.9258 32.3086 84.2002 47.6025 126.661c1.47461 4.08301 2.87305 8.19531 4.2832 12.3018c-6.39258 -5.09375 -12.6143 -10.4229 -18.7188 -15.8516
c-65.2402 -57.9961 -118.788 -128.277 -162.936 -203.329c-1.81543 -3.09082 -4.02441 -5.43555 -6.46875 -7.1748c-1.47461 -2.29688 -2.96094 -4.57617 -4.51172 -6.79688c-12.415 -17.791 -47.168 -10.1123 -47.1152 13.1133
c0.123047 54.1006 26.9736 112.278 48.2773 161.226c23.2373 53.3779 50.54 104.646 81.3564 154.023c24.9414 39.958 81.1865 -5.05859 57.4736 -44.4062c-5.14648 -8.54297 -10.1348 -17.1738 -15.1289 -25.8047c20.2109 19.0361 41.9678 36.1689 65.6455 48.8008
c19.4766 10.3936 43.5771 19.0479 62.4785 2.35547c19.8994 -17.5615 14.5352 -43.3838 9.08301 -66.1035c-0.123047 -0.516602 -0.28125 -1.02734 -0.404297 -1.54395c20.3994 19.3828 42.3438 37.1797 66.127 52.2617c22.25 14.1123 47.6201 31.5918 74.9287 23.4307z" />
    <glyph glyph-name="n" unicode="n" horiz-adv-x="320" 
d="M306.706 308.306c15.4932 -25.4814 8.14453 -60.0664 0.583008 -86.8584c-21.1748 -75.1396 -49.165 -150.686 -78.166 -223.158c-17.8555 -44.6113 -82.79 -15.6338 -67.8604 28.8018c19.4473 57.8721 42.4375 114.904 64.8516 171.684
c8.73633 22.1504 15.1055 46.0225 24.0654 67.8613c-3.36621 -1.47461 -6.69141 -3.03711 -9.92285 -4.80566c-11.5684 -6.14551 -22.4434 -13.96 -32.79 -21.9561c-38.625 -29.8584 -69.0654 -68.6943 -97.4668 -108.03
c-33.2666 -46.0742 -64.9346 -93.165 -93.8359 -142.083c-1.54492 -3.73047 -3.67188 -6.80957 -6.22754 -9.25977c-1.99805 -2.10352 -4.27148 -3.61328 -6.7041 -4.65332c-20.1816 -9.82324 -51.9385 4.95898 -45.1172 31.1631
c26.833 103.095 69.2822 203.34 121.032 296.341c21.3574 38.3779 84.7822 12.5146 63.6777 -27.0264c-4.01855 -7.52637 -7.87305 -15.0996 -11.7686 -22.6611c29.1709 30.6748 62.8955 58.1309 101.015 72.3145c26.5215 9.87109 58.5713 8.75488 74.6348 -17.6729z" />
    <glyph glyph-name="o" unicode="o" horiz-adv-x="276" 
d="M256.829 226.544c8.58984 -81.3096 -42.3965 -179.14 -100.052 -234.168c-30.0352 -28.666 -74.8936 -51.4385 -116.949 -37.1494c-39.1592 13.3018 -57.4434 52.3203 -57.8545 91.4561c-0.787109 74.4766 41.5039 153.112 88.2949 215.538
c-13.1143 11.292 -15.082 37.1846 5.57031 47.625c36.9092 18.6543 79.4053 29.8408 118.847 11.5449c36.2568 -16.8271 58.0664 -56.2334 62.1436 -94.8467zM190.978 190.159c5.18164 25.2402 4.52344 59.1289 -19.3838 75.3447
c-2.61426 1.77441 -5.35254 3.16699 -8.16113 4.2832c-1.16309 -4.0127 -3.10156 -8.07227 -6.03906 -12.0967c-35.0527 -47.9844 -69.2822 -95.874 -90.8037 -151.784c-6.99707 -18.1729 -23.7305 -60.3164 -10.1348 -78.6826
c14.1064 -19.0596 47.1318 9.10742 58.0781 20.3584c35.9863 36.9971 66.0742 92.0605 76.4443 142.577z" />
    <glyph glyph-name="o" unicode="&#xf6;" horiz-adv-x="276" 
d="M256.829 226.544c8.58984 -81.3096 -42.3965 -179.14 -100.052 -234.168c-30.0352 -28.666 -74.8936 -51.4385 -116.949 -37.1494c-39.1592 13.3018 -57.4434 52.3203 -57.8545 91.4561c-0.787109 74.4766 41.5039 153.112 88.2949 215.538
c-13.1143 11.292 -15.082 37.1846 5.57031 47.625c36.9092 18.6543 79.4053 29.8408 118.847 11.5449c36.2568 -16.8271 58.0664 -56.2334 62.1436 -94.8467zM190.978 190.159c5.18164 25.2402 4.52344 59.1289 -19.3838 75.3447
c-2.61426 1.77441 -5.35254 3.16699 -8.16113 4.2832c-1.16309 -4.0127 -3.10156 -8.07227 -6.03906 -12.0967c-35.0527 -47.9844 -69.2822 -95.874 -90.8037 -151.784c-6.99707 -18.1729 -23.7305 -60.3164 -10.1348 -78.6826
c14.1064 -19.0596 47.1318 9.10742 58.0781 20.3584c35.9863 36.9971 66.0742 92.0605 76.4443 142.577z" />
    <glyph glyph-name="o" unicode="&#xf5;" horiz-adv-x="276" 
d="M256.829 226.544c8.58984 -81.3096 -42.3965 -179.14 -100.052 -234.168c-30.0352 -28.666 -74.8936 -51.4385 -116.949 -37.1494c-39.1592 13.3018 -57.4434 52.3203 -57.8545 91.4561c-0.787109 74.4766 41.5039 153.112 88.2949 215.538
c-13.1143 11.292 -15.082 37.1846 5.57031 47.625c36.9092 18.6543 79.4053 29.8408 118.847 11.5449c36.2568 -16.8271 58.0664 -56.2334 62.1436 -94.8467zM190.978 190.159c5.18164 25.2402 4.52344 59.1289 -19.3838 75.3447
c-2.61426 1.77441 -5.35254 3.16699 -8.16113 4.2832c-1.16309 -4.0127 -3.10156 -8.07227 -6.03906 -12.0967c-35.0527 -47.9844 -69.2822 -95.874 -90.8037 -151.784c-6.99707 -18.1729 -23.7305 -60.3164 -10.1348 -78.6826
c14.1064 -19.0596 47.1318 9.10742 58.0781 20.3584c35.9863 36.9971 66.0742 92.0605 76.4443 142.577z" />
    <glyph glyph-name="o" unicode="&#xf4;" horiz-adv-x="276" 
d="M256.829 226.544c8.58984 -81.3096 -42.3965 -179.14 -100.052 -234.168c-30.0352 -28.666 -74.8936 -51.4385 -116.949 -37.1494c-39.1592 13.3018 -57.4434 52.3203 -57.8545 91.4561c-0.787109 74.4766 41.5039 153.112 88.2949 215.538
c-13.1143 11.292 -15.082 37.1846 5.57031 47.625c36.9092 18.6543 79.4053 29.8408 118.847 11.5449c36.2568 -16.8271 58.0664 -56.2334 62.1436 -94.8467zM190.978 190.159c5.18164 25.2402 4.52344 59.1289 -19.3838 75.3447
c-2.61426 1.77441 -5.35254 3.16699 -8.16113 4.2832c-1.16309 -4.0127 -3.10156 -8.07227 -6.03906 -12.0967c-35.0527 -47.9844 -69.2822 -95.874 -90.8037 -151.784c-6.99707 -18.1729 -23.7305 -60.3164 -10.1348 -78.6826
c14.1064 -19.0596 47.1318 9.10742 58.0781 20.3584c35.9863 36.9971 66.0742 92.0605 76.4443 142.577z" />
    <glyph glyph-name="o" unicode="&#xf3;" horiz-adv-x="276" 
d="M256.829 226.544c8.58984 -81.3096 -42.3965 -179.14 -100.052 -234.168c-30.0352 -28.666 -74.8936 -51.4385 -116.949 -37.1494c-39.1592 13.3018 -57.4434 52.3203 -57.8545 91.4561c-0.787109 74.4766 41.5039 153.112 88.2949 215.538
c-13.1143 11.292 -15.082 37.1846 5.57031 47.625c36.9092 18.6543 79.4053 29.8408 118.847 11.5449c36.2568 -16.8271 58.0664 -56.2334 62.1436 -94.8467zM190.978 190.159c5.18164 25.2402 4.52344 59.1289 -19.3838 75.3447
c-2.61426 1.77441 -5.35254 3.16699 -8.16113 4.2832c-1.16309 -4.0127 -3.10156 -8.07227 -6.03906 -12.0967c-35.0527 -47.9844 -69.2822 -95.874 -90.8037 -151.784c-6.99707 -18.1729 -23.7305 -60.3164 -10.1348 -78.6826
c14.1064 -19.0596 47.1318 9.10742 58.0781 20.3584c35.9863 36.9971 66.0742 92.0605 76.4443 142.577z" />
    <glyph glyph-name="p" unicode="p" horiz-adv-x="335" 
d="M352.842 281.473c7.52051 -73.9941 -54.1406 -143.677 -108.652 -185.392c-46.4746 -35.5693 -103.143 -61.5381 -161.685 -70.3574c-2.03906 -3.80762 -4.07812 -7.60938 -6.11719 -11.4053c-41.0566 -76.4033 -82.1729 -152.777 -123.289 -229.151
c-1.42188 -4.45898 -2.87891 -8.90039 -4.27734 -13.3711c-14.4883 -46.2217 -82.4307 -16.2627 -68.8701 29.2363c56.0918 188.17 136.073 372.045 239.356 539.146c17.0264 27.5439 62.2432 0 48.3652 -28.3193c-23.9658 -48.9121 -46.9971 -98.0479 -69.0771 -147.507
c25.7168 41.6328 54.3359 81.3213 89.0361 116.162c27.1562 27.2676 59.5762 55.7334 99.9756 58.001c35.752 2.00977 61.6504 -21.7969 65.2344 -57.043zM231.828 172.025c22.5674 20.1582 64.4287 60.1592 65.0576 92.9492
c0.975586 50.8574 -77.0908 -28.7422 -88.959 -42.2734c-29.4707 -33.584 -54.1299 -70.6221 -76.7324 -108.977c36.0752 12.3203 69.6357 30.6104 100.634 58.3008z" />
    <glyph glyph-name="q" unicode="q" horiz-adv-x="291" 
d="M304.864 338.916c15.0527 -3.2959 27.6318 -17.9736 22.0977 -35.0059c-0.381836 -6.29297 -2.40332 -13.0205 -6.56934 -19.9121c-5.1582 -8.54297 -10.3398 -17.0977 -15.5518 -25.6582c-17.8438 -33.9248 -37.2559 -67.1914 -54.6113 -101.251
c-23.8008 -46.709 -46.0215 -94.1875 -67.2256 -142.131c-12.5908 -28.4717 -25.0879 -57.1729 -36.457 -86.2734c39.5352 3.74805 46.4209 -56.7568 6.75586 -61.915c-9.79395 -1.27539 -19.7412 -2.58008 -29.7705 -3.7666
c-6.98535 -23.4951 -33.9238 -123.188 15.3174 -109.182c33.7832 9.60645 66.4678 -34.8701 32.8955 -57.6484c-55.1582 -37.4258 -118.63 3.97754 -132.701 62.8369c-7.65527 32.0205 -3.25488 66.4678 5.94629 100.151c-5.69922 0.317383 -11.375 0.78125 -16.998 1.48633
c-32.6494 4.10645 -30.9277 52.8311 0.852539 56.7148c12.4736 1.52148 25.0059 2.77246 37.5498 3.95312c4.1543 10.5283 8.34375 20.7637 12.292 30.54c7.29102 18.0547 14.8936 35.9805 22.7256 53.8066c-16.0928 -9.78223 -33.625 -16.7324 -52.6436 -18.3242
c-42.6143 -3.57227 -69.2705 26.1162 -72.7549 66.6445c-6.96191 80.9629 56.8623 165.862 114.459 216.414c29.7119 26.0811 132.584 92.8311 178.294 63.9541c11.2744 8.89551 24.8643 9.44238 36.0977 4.56543zM160.483 163.177
c26.4102 37.1621 49.8701 76.2158 72.7197 115.64c-7.98438 -3.03711 -17.1797 -4.15918 -25.3174 -7.44336c-12.2793 -4.95312 -24.042 -11.2461 -35.2285 -18.2969c-23.1553 -14.5889 -44.624 -32.7559 -62.8965 -53.1143
c-16.8682 -18.7832 -31.9736 -39.4648 -44.2939 -61.5029c-7.56152 -13.5312 -14.7354 -27.832 -19.4121 -42.6318c-2.00977 -6.35742 -11.2461 -39.8994 -3.99023 -44.6055c5.04102 -3.27246 27.7197 11.7334 31.8086 14.501
c11.6865 7.9082 21.9922 17.6553 31.5166 28.0078c19.9707 21.6973 38.0254 45.4336 55.0938 69.4463z" />
    <glyph glyph-name="r" unicode="r" horiz-adv-x="302" 
d="M265.433 219.746c36.7617 4.20703 48.6221 -47.4697 15.7549 -61.8115c-35.6396 -15.5459 -70.6924 8.09082 -83.7471 41.8623c-3.4375 8.88965 -5.1416 18.4316 -6.71582 27.7969c-0.570312 3.38379 -2.92676 11.8564 -3.54395 17.7256
c-4.6416 -3.51367 -12.3027 -7.55566 -15.0527 -9.75879c-7.32031 -5.86914 -14.1475 -12.1377 -20.5635 -18.9883c-56.9561 -60.8213 -89.3584 -141.226 -115.786 -218.892c-15.4932 -45.5283 -82.7725 -15.9873 -68.3193 29
c30.5811 95.1689 61.0039 195.221 108.213 283.675c14.7295 27.5908 66.209 18.8662 56.8613 -15.9336c-0.223633 -0.822266 -0.476562 -1.63867 -0.700195 -2.46094c22.832 17.9668 50.1699 32.0908 77.373 25.1934c19.8994 -5.04688 32.667 -20.5283 39.5703 -39.3711
c4.03027 -10.999 7.0791 -59.1357 16.6562 -58.0371z" />
    <glyph glyph-name="s" unicode="s" horiz-adv-x="241" 
d="M256.412 249.41c6.375 -27.4561 -33.748 -39.8994 -49.042 -19.8115c-16.5801 21.7803 -40.2344 31.9678 -67.2373 21.0869c-28.0254 -11.2979 -28.3135 -32.332 -16.1104 -57.1494c23.3604 -47.502 52.2734 -91.9023 38.8428 -147.372
c-11.5156 -47.5498 -57.0322 -84.8994 -107.302 -74.6826c-50.5342 10.2764 -76.3447 57.9902 -86.3096 104.465c-8.07324 37.6553 51.6914 51.1982 64.582 16.4512c6.52734 -17.5967 15.5283 -53.9531 39.3643 -55.3281c30.0762 -1.73926 29.0186 42.79 23.6836 61.873
c-13.8066 49.335 -58.8418 88.4531 -45.8105 143.6c22.5732 95.5039 182.131 106.778 205.339 6.86816z" />
    <glyph glyph-name="t" unicode="t" horiz-adv-x="257" 
d="M194.111 445.688c19.2422 23.5312 60.2285 1.29395 46.7148 -27.3486c-13.2607 -28.1074 -27.6377 -55.5928 -42.0264 -83.0664c2.73242 -0.416992 5.5 -0.787109 8.17871 -1.25684c31.9326 -5.64648 33.9189 -58.6719 -0.886719 -59.0361
c-12.5674 -0.134766 -25.3115 0.0351562 -38.1084 0.34082c-12.3203 -24.7471 -24.0596 -49.7998 -34.3184 -75.6396c-10.2764 -25.8809 -63.0664 -199.034 14.7412 -176.596c42.8848 12.3672 70.1055 -50.499 26.4805 -65.54
c-43.002 -14.8291 -90.2637 -2.41406 -117.044 35.5586c-28.9482 41.0508 -26.1514 100.333 -15.9756 146.972c10.6055 48.6123 30.5352 94.4346 52.5205 138.929c-6.48633 0.469727 -13.0137 0.910156 -19.4238 1.43848c-33.1074 2.73828 -30.9453 53.7949 0.858398 57.126
c16.04 1.68066 32.9961 2.60938 50.1465 2.7207c19.9297 36.9268 41.7979 73.1777 68.1426 105.398z" />
    <glyph glyph-name="u" unicode="u" horiz-adv-x="312" 
d="M287.302 335.808c31.9092 27.5732 67.9521 -17.9385 48.4521 -48.6787c-51.1396 -80.5928 -101.58 -173.5 -109.095 -270.149c-3.625 -46.6387 -71.7441 -34.5 -70.6396 10.3115c0.241211 9.92969 1.04004 19.8594 2.32129 29.7773
c-25.3057 -26.9795 -55.2881 -49.623 -89.2012 -49.793c-72.0557 -0.364258 -77.0732 86.7383 -64.4707 138.301c14.624 59.8291 45.1348 125.046 82.7725 173.946c19.5234 25.3701 57.7783 1.06934 46.9502 -27.4912
c-17.9844 -47.4434 -46.7676 -90.2627 -60.6104 -139.498c-4.60059 -16.3691 -15.6992 -54.5947 -6.69238 -70.2646c5.35254 -9.30664 2.23828 -7.48535 13.3662 -0.552734c8.61328 5.37012 16.2803 12.4678 23.4424 19.6006
c34.5352 34.4062 61.9551 76.3271 90.0332 115.921c28.4424 40.123 55.8564 86.1621 93.3711 118.57z" />
    <glyph glyph-name="u" unicode="&#xfc;" horiz-adv-x="312" 
d="M287.302 335.808c31.9092 27.5732 67.9521 -17.9385 48.4521 -48.6787c-51.1396 -80.5928 -101.58 -173.5 -109.095 -270.149c-3.625 -46.6387 -71.7441 -34.5 -70.6396 10.3115c0.241211 9.92969 1.04004 19.8594 2.32129 29.7773
c-25.3057 -26.9795 -55.2881 -49.623 -89.2012 -49.793c-72.0557 -0.364258 -77.0732 86.7383 -64.4707 138.301c14.624 59.8291 45.1348 125.046 82.7725 173.946c19.5234 25.3701 57.7783 1.06934 46.9502 -27.4912
c-17.9844 -47.4434 -46.7676 -90.2627 -60.6104 -139.498c-4.60059 -16.3691 -15.6992 -54.5947 -6.69238 -70.2646c5.35254 -9.30664 2.23828 -7.48535 13.3662 -0.552734c8.61328 5.37012 16.2803 12.4678 23.4424 19.6006
c34.5352 34.4062 61.9551 76.3271 90.0332 115.921c28.4424 40.123 55.8564 86.1621 93.3711 118.57z" />
    <glyph glyph-name="u" unicode="&#xfb;" horiz-adv-x="312" 
d="M287.302 335.808c31.9092 27.5732 67.9521 -17.9385 48.4521 -48.6787c-51.1396 -80.5928 -101.58 -173.5 -109.095 -270.149c-3.625 -46.6387 -71.7441 -34.5 -70.6396 10.3115c0.241211 9.92969 1.04004 19.8594 2.32129 29.7773
c-25.3057 -26.9795 -55.2881 -49.623 -89.2012 -49.793c-72.0557 -0.364258 -77.0732 86.7383 -64.4707 138.301c14.624 59.8291 45.1348 125.046 82.7725 173.946c19.5234 25.3701 57.7783 1.06934 46.9502 -27.4912
c-17.9844 -47.4434 -46.7676 -90.2627 -60.6104 -139.498c-4.60059 -16.3691 -15.6992 -54.5947 -6.69238 -70.2646c5.35254 -9.30664 2.23828 -7.48535 13.3662 -0.552734c8.61328 5.37012 16.2803 12.4678 23.4424 19.6006
c34.5352 34.4062 61.9551 76.3271 90.0332 115.921c28.4424 40.123 55.8564 86.1621 93.3711 118.57z" />
    <glyph glyph-name="u" unicode="&#xfa;" horiz-adv-x="312" 
d="M287.302 335.808c31.9092 27.5732 67.9521 -17.9385 48.4521 -48.6787c-51.1396 -80.5928 -101.58 -173.5 -109.095 -270.149c-3.625 -46.6387 -71.7441 -34.5 -70.6396 10.3115c0.241211 9.92969 1.04004 19.8594 2.32129 29.7773
c-25.3057 -26.9795 -55.2881 -49.623 -89.2012 -49.793c-72.0557 -0.364258 -77.0732 86.7383 -64.4707 138.301c14.624 59.8291 45.1348 125.046 82.7725 173.946c19.5234 25.3701 57.7783 1.06934 46.9502 -27.4912
c-17.9844 -47.4434 -46.7676 -90.2627 -60.6104 -139.498c-4.60059 -16.3691 -15.6992 -54.5947 -6.69238 -70.2646c5.35254 -9.30664 2.23828 -7.48535 13.3662 -0.552734c8.61328 5.37012 16.2803 12.4678 23.4424 19.6006
c34.5352 34.4062 61.9551 76.3271 90.0332 115.921c28.4424 40.123 55.8564 86.1621 93.3711 118.57z" />
    <glyph glyph-name="v" unicode="v" horiz-adv-x="294" 
d="M287.881 328.07c22.4854 26.2686 61.8076 -4.37402 42.3135 -32.6992c-39.917 -58.0195 -70.8916 -122.948 -101.525 -186.19c-14.7529 -30.4639 -28.7188 -61.5273 -45.2695 -91.0742c-13.7305 -24.5117 -30.5811 -53.5186 -60.6045 -59.2646
c-64.7168 -12.3857 -82.4961 81.0918 -87.1084 127.049c-7.00391 69.752 -1.05176 144.909 15.8105 212.852c10.8047 43.5244 77.5605 35.8574 70.3691 -10.2764c-8.78906 -56.3975 -17.6904 -112.842 -16.7793 -170.127c0.381836 -24.083 2.08008 -48.8652 9.1543 -72.0205
c0.675781 -2.10352 1.42773 -4.18359 2.16797 -6.26367c4.68848 6.85059 10.4521 14.5234 11.6738 16.7793c50.7627 93.4707 89.9336 189.586 159.798 271.236z" />
    <glyph glyph-name="w" unicode="w" horiz-adv-x="416" 
d="M355.099 310.361c5.79883 45.0586 70.6738 33.7227 68.5762 -10.0195c-2.93164 -61.75 -25.0645 -121.426 -48.7363 -177.936c-20.3584 -48.5947 -44.1533 -108.136 -85.1924 -143.288c-45.7393 -39.1826 -104.252 -14.7705 -120.115 40.3115
c-5.93457 20.5928 -7.37402 42.085 -6.52832 63.4775c-12.4326 -20.0879 -24.8887 -40.1699 -38.6953 -59.3525c-25.3525 -35.2402 -86.3857 -95.5977 -123.019 -37.3262c-29.4062 46.7676 -5.24121 124.069 8.64258 172.177
c17.0625 59.1123 40.4287 116.703 75.5518 167.46c17.9609 25.9629 58.1191 0.522461 46.4805 -27.209c-19.5059 -46.4561 -40.252 -92.3193 -54.7754 -140.674c-7.28516 -24.2422 -13.3838 -49.0303 -17.1377 -74.083
c-1.65723 -11.0693 -2.90234 -22.2031 -3.06055 -33.3955c3.88379 3.96582 7.76758 7.79688 10.0938 10.958c7.91406 10.7285 15.2637 21.8799 22.4785 33.084c12.6553 19.6475 24.5352 39.7705 37.085 59.4766c19.8818 31.2041 46.1973 85.9219 89.6924 81.1279
c15.9395 -1.75684 26.3916 -15.4873 29.3057 -30.1992c7.4502 -37.6201 -11.2041 -82.1084 -13.1016 -120.28c-0.381836 -7.76172 -1.46289 -50.875 6.78613 -54.9756c6.38672 -3.17285 33.2373 43.2832 35.6934 47.6133c40.1816 70.9043 69.5703 152.249 79.9756 233.053z
" />
    <glyph glyph-name="x" unicode="x" horiz-adv-x="255" 
d="M266.021 342.224c28.6133 18.9951 60.6641 -21.9619 32.6621 -42.708c-60.1172 -44.5234 -114.858 -95.6504 -164.57 -151.319c5.47559 -49.4531 15.0293 -98.1016 27.5732 -146.344c4.79395 -18.4365 0.146484 -38.3721 -19.5713 -46.0986
c-16.4512 -6.44531 -40.8105 1.02246 -46.0986 19.5713c-9.38281 32.9141 -16.7393 66.3916 -22.0684 100.192c-16.9033 -21.9678 -33.166 -44.4062 -48.7295 -67.2852c-25.8516 -38.002 -81.2207 5.66406 -56.1621 43.3955c28.6426 43.125 60.6221 83.3359 95.3867 120.82
c-2.58496 56.5215 -5.82812 124.364 16.8975 176.285c12.0918 27.6201 59.0479 16.2041 51.9971 -14.5654c-7.14453 -31.1924 -7.80859 -65.7041 -6.20508 -99.752c43.2783 39.3359 89.8057 75.2285 138.889 107.808z" />
    <glyph glyph-name="y" unicode="y" horiz-adv-x="340" 
d="M319.004 343.828c15.2529 -1.21582 29.2119 -12.5752 24.6699 -30.9707c-20.3057 -82.3018 -42.8672 -164.393 -68.2021 -245.302c-24.7881 -79.1826 -52.5312 -158.812 -94.6748 -230.649c-38.8359 -66.2041 -95.6855 -124.376 -173.84 -139.141
c-68.7002 -12.9785 -156.231 23.7129 -144.675 105.927c5.77539 41.1045 65.6748 31.21 63.0078 -9.20117c-2.29688 -34.8232 46.9268 -33.0371 68.8301 -27.2441c27.6201 7.30859 52.6729 23.542 73.4717 42.8076c43.29 40.1055 68.877 97.085 91.3975 150.516
c12.626 29.959 23.6543 60.5225 33.9541 91.3623c-24.5771 -38.1895 -55.4756 -75.3691 -95.9863 -83.583c-75.2637 -15.2588 -99.041 71.6611 -91.8086 129.557c8.93066 71.4209 44.6826 139.505 79.2939 201.443c21.9912 39.3594 87.0137 13.2314 65.5742 -27.8369
c-25.0352 -47.9551 -51.915 -95.6924 -66.8213 -148.048c-6.45117 -22.667 -15.5283 -54.2764 -6.37402 -77.3721c11.0752 -27.9434 31.3096 3.48438 42.3789 17.1035c68.1191 83.8242 105.187 187.401 171.231 271.995c8.16113 10.458 19.207 12.1094 28.5723 8.63672z" />
    <glyph glyph-name="y" unicode="&#xff;" horiz-adv-x="340" 
d="M319.004 343.828c15.2529 -1.21582 29.2119 -12.5752 24.6699 -30.9707c-20.3057 -82.3018 -42.8672 -164.393 -68.2021 -245.302c-24.7881 -79.1826 -52.5312 -158.812 -94.6748 -230.649c-38.8359 -66.2041 -95.6855 -124.376 -173.84 -139.141
c-68.7002 -12.9785 -156.231 23.7129 -144.675 105.927c5.77539 41.1045 65.6748 31.21 63.0078 -9.20117c-2.29688 -34.8232 46.9268 -33.0371 68.8301 -27.2441c27.6201 7.30859 52.6729 23.542 73.4717 42.8076c43.29 40.1055 68.877 97.085 91.3975 150.516
c12.626 29.959 23.6543 60.5225 33.9541 91.3623c-24.5771 -38.1895 -55.4756 -75.3691 -95.9863 -83.583c-75.2637 -15.2588 -99.041 71.6611 -91.8086 129.557c8.93066 71.4209 44.6826 139.505 79.2939 201.443c21.9912 39.3594 87.0137 13.2314 65.5742 -27.8369
c-25.0352 -47.9551 -51.915 -95.6924 -66.8213 -148.048c-6.45117 -22.667 -15.5283 -54.2764 -6.37402 -77.3721c11.0752 -27.9434 31.3096 3.48438 42.3789 17.1035c68.1191 83.8242 105.187 187.401 171.231 271.995c8.16113 10.458 19.207 12.1094 28.5723 8.63672z" />
    <glyph glyph-name="y" unicode="&#xfd;" horiz-adv-x="340" 
d="M319.004 343.828c15.2529 -1.21582 29.2119 -12.5752 24.6699 -30.9707c-20.3057 -82.3018 -42.8672 -164.393 -68.2021 -245.302c-24.7881 -79.1826 -52.5312 -158.812 -94.6748 -230.649c-38.8359 -66.2041 -95.6855 -124.376 -173.84 -139.141
c-68.7002 -12.9785 -156.231 23.7129 -144.675 105.927c5.77539 41.1045 65.6748 31.21 63.0078 -9.20117c-2.29688 -34.8232 46.9268 -33.0371 68.8301 -27.2441c27.6201 7.30859 52.6729 23.542 73.4717 42.8076c43.29 40.1055 68.877 97.085 91.3975 150.516
c12.626 29.959 23.6543 60.5225 33.9541 91.3623c-24.5771 -38.1895 -55.4756 -75.3691 -95.9863 -83.583c-75.2637 -15.2588 -99.041 71.6611 -91.8086 129.557c8.93066 71.4209 44.6826 139.505 79.2939 201.443c21.9912 39.3594 87.0137 13.2314 65.5742 -27.8369
c-25.0352 -47.9551 -51.915 -95.6924 -66.8213 -148.048c-6.45117 -22.667 -15.5283 -54.2764 -6.37402 -77.3721c11.0752 -27.9434 31.3096 3.48438 42.3789 17.1035c68.1191 83.8242 105.187 187.401 171.231 271.995c8.16113 10.458 19.207 12.1094 28.5723 8.63672z" />
    <glyph glyph-name="z" unicode="z" horiz-adv-x="435" 
d="M334.938 52.8506c42.79 -11.6094 35.9961 -78.1348 -10.2549 -70.2383c-62.1963 10.6289 -123.559 9.3125 -186.378 6.02832c-9.54785 -0.499023 -19.1016 -1.13965 -28.6436 -1.87402c-36.7559 -24.7295 -76.6436 -44.4062 -119.669 -55.6514
c-20.7168 -5.41699 -46.6211 -9.88184 -65.2695 3.8252c-17.0977 12.5732 -21.9326 34.9287 -13.501 54.0293c17.4795 39.6055 73.1836 52.373 110.938 60.2227c19.5 4.05371 39.2119 6.76855 59.0234 8.66602c0.558594 0.387695 1.12891 0.746094 1.6875 1.13965
c41.1748 29.0771 77.8252 63.8535 111.303 101.45c18.0254 20.2402 35.4287 41.3096 50.2812 64.0234c12.1387 18.5605 33.3018 49.8584 31.9678 73.2656c-1.82715 32.0088 -44.6875 14.1475 -63.3828 5.60449c-24.7236 -11.292 -45.3398 -28.1895 -62.6484 -48.9824
c-21.9736 -26.4043 -64.1289 6.16895 -42.2139 32.6143c32.0732 38.7129 74.458 67.7256 123.858 79.042c43.0137 9.85254 89.7051 -6.31641 101.556 -52.5322c10.5879 -41.3154 -11.6211 -87.6367 -31.7031 -122.637
c-23.4893 -40.9395 -53.8066 -78.1074 -86.1445 -112.379c-4.79395 -5.07617 -9.69434 -10.0938 -14.6475 -15.0762c44.7822 1.15137 90.6865 1.16309 133.841 -10.541z" />
    <glyph glyph-name="braceleft" unicode="{" horiz-adv-x="319" 
d="M617.431 855.709c22.2441 -30.5752 -20.8125 -61.3115 -45.6592 -34.9131c-35.3818 37.5674 -99.541 -14.1064 -126.603 -38.5947c-36.3623 -32.9023 -64.5283 -74.2236 -92.4365 -114.199c-47.2031 -67.6191 -97.5664 -130.82 -154.898 -188.816
c27.5381 -14.2891 46.6504 -39.6768 48.1953 -80.0049c2.37402 -61.9795 -29.9639 -125.604 -53.459 -181.302c-24.6357 -58.4072 -144.898 -332.217 14.2598 -288.974c44.6289 12.1211 73.3066 -53.3779 27.5615 -68.2246
c-62.7549 -20.3643 -133.165 -15.2354 -166.572 49.6406c-27.7256 53.8359 -18.4072 119.758 -3.58984 175.933c18.1436 68.7891 48.5137 132.836 74.9824 198.593c12.2617 30.4697 26.333 62.4023 30.9922 95.1221c5.17578 36.3271 -12.7266 40.9863 -45.9229 39.5703
c-37.291 -1.58594 -55.5693 42.1445 -27.0264 66.8857c50.6807 43.9355 97.1904 92.0723 139.328 144.274c36.5625 45.293 68.1133 94.3936 105.157 139.311c55.5166 67.3027 197.26 193.5 275.69 85.6992z" />
    <glyph glyph-name="verticalbar" unicode="|" horiz-adv-x="367" 
d="M211.097 349.781c-1.58008 -170.861 3.98926 -341.442 9.61816 -512.181c1.50391 -45.7334 -68.7012 -54.8516 -71.4746 -8.25391c-10.3232 173.481 -10.1055 347.751 -6.375 521.45c3.73633 173.57 7.98438 350.296 31.292 522.526
c4.92969 36.4336 55.752 26.6865 54.9648 -8.02539c-3.88379 -171.913 -16.4336 -343.438 -18.0254 -515.517z" />
    <glyph glyph-name="braceright" unicode="}" horiz-adv-x="224" 
d="M211.905 845.557c52.5547 -28.1133 68.377 -84.2178 61.7197 -140.451c-15.1582 -127.848 -95.8037 -244.556 -78.46 -376.64c3.09082 -23.5195 -19.9521 -49.377 -44.8164 -43.4902c-57.8193 13.6895 -83.4355 -95.252 -96.9258 -133.706
c-20.3877 -58.1016 -38.4834 -117.354 -68.5889 -171.402c-54.2764 -97.4375 -159.604 -186.391 -278.722 -154.575c-47.585 12.7139 -38.9072 88.3418 11.3271 77.5898c124.875 -26.7266 196.354 96.9854 233.188 195.868c28.6309 76.8672 64.377 250.743 165.521 267.023
c3.33691 88.9004 33.9941 172.184 61.5908 257.253c12.7676 39.3477 41.6689 103.895 21.0166 144.758c-20.7754 41.0986 -90.1279 41.0342 -124.64 22.3447c-31.0459 -16.8096 -60.998 36.5625 -30.7285 53.8594c50.8809 29.083 116.403 29.4473 168.518 1.56836z" />
    <glyph glyph-name="nonbreakingspace" unicode="&#xa0;" horiz-adv-x="491" 
 />
    <glyph glyph-name="exclamdown" unicode="&#xa1;" horiz-adv-x="166" 
d="M151.956 622.451c17.4678 36.9561 75.1865 12.8008 58.6006 -24.8779c-95.2871 -216.448 -175.533 -437.896 -252.065 -661.513c-15.3467 -44.8525 -80.3809 -15.5811 -66.9678 28.4258c68.7422 225.502 159.764 445.012 260.433 657.965zM265.238 745.227
c0.446289 -2.76172 0.43457 -5.52148 0.123047 -8.24219c-0.0996094 -6.46289 -2.30273 -12.9375 -5.47559 -18.3662c-2.12695 -4.44141 -5.24121 -8.11914 -9.3418 -11.0332c-2.91992 -1.66895 -5.83984 -3.33203 -8.76562 -4.99512
c-8.93066 -4.08301 -19.8887 -3.04883 -28.79 0.25293c-3.33691 1.2334 -6.97363 3.52441 -9.8584 5.55762c-5.23535 3.69531 -10.0703 10.5811 -12.4854 16.3975c-4.10059 9.87695 -3.63672 20.5352 0.0527344 30.3701c2.16797 5.78711 7.41504 12.1152 12.2383 15.834
c4.95312 3.8252 8.76074 5.20605 14.3066 6.62207c5.21777 1.33398 9.86523 1.70996 15.3232 1.15137c6.22754 -0.640625 13.1484 -4.05371 18.166 -7.86133c8.27832 -6.28125 12.8848 -15.6406 14.5068 -25.6875z" />
    <glyph glyph-name="cent" unicode="&#xa2;" horiz-adv-x="492" 
d="M393.359 174.695c22.1211 25.6875 63.6846 -6.21289 41.7871 -32.2764c-79.0176 -94.041 -192.342 -200.626 -326.952 -178.623c-2.96094 0.481445 -5.80469 1.11035 -8.64844 1.7334c-8.14941 -28.9893 -16.1338 -58.0195 -23.7715 -87.1318
c-10.7812 -41.0801 -76.709 -32.4199 -66.2803 9.67676c8.9541 36.1514 18.5547 72.0967 28.6016 107.89c-62.7549 54.8877 -69.6406 163.976 -54.958 243.733c20.5635 111.679 70.0107 218.534 140.062 307.746c37.8555 48.207 110.681 125.991 183.276 140.903
c21.0693 42.5439 42.749 84.8174 65.1689 126.727c15.9873 29.8818 64.7178 9.8584 48.9717 -20.7871c-18.6895 -36.3975 -36.8086 -73.0771 -54.3643 -110.027c9.21875 -3.60156 18.2666 -8.75977 27.0557 -15.6807c41.6797 -32.8311 42.1318 -93.4004 36.7031 -141.29
c-6.99805 -61.6914 -29.6885 -120.539 -53.3486 -177.46c-18.3369 -44.1123 -84.7754 -15.4639 -67.9834 28.8604c18.9893 50.123 39.0303 100.751 45.8457 154.27c2.50293 19.6709 5.46973 43.1543 -0.699219 62.5371c-3.84277 12.0684 -11.334 16.751 -20.5586 17.3857
c-84.9053 -187.953 -155.744 -382.293 -214.298 -580.022c16.8975 -4.41797 35.6982 -4.32422 54.8574 -1.79785c91.168 12.0146 161.989 76.8086 219.532 143.635zM63.8467 83.4775c51.9443 168.829 115.745 333.532 189.599 493.918
c-46.5918 -36.0986 -84.1006 -90.9102 -112.525 -136.479c-44.7178 -71.6914 -77.1377 -155.474 -87.7256 -239.503c-4.79395 -38.1016 -4.8584 -81.585 10.6523 -117.936z" />
    <glyph glyph-name="sterling" unicode="&#xa3;" horiz-adv-x="757" 
d="M694.74 661.682c-63.3242 -59.6289 -116.766 -127.286 -160.737 -200.963c15.2051 0.546875 30.4453 0.576172 45.751 -0.0878906c41.8975 -1.81543 32.1797 -66.3096 -9.41797 -64.5059c-24.3535 1.05762 -48.5479 0.217773 -72.6484 -1.95605
c-5.30566 -10.6699 -10.4404 -21.4336 -15.3877 -32.3086c15.2588 1.7627 30.582 3.28418 46.0635 4.30078c40.2109 2.64355 47.4961 -60.0938 7.19727 -62.3027c-26.6035 -1.45703 -53.3301 -3.54297 -80.0156 -6.32812
c-20.9805 -55.1875 -39.4346 -112.319 -60.6914 -168.165c98.7939 1.14551 197.729 -24.6416 282.347 -75.8984c33.6777 -20.4053 -0.551758 -77.749 -34.6641 -59.2119c-86.4619 46.9854 -180.949 69.9521 -277.723 62.7666
c-17.3086 -37.6846 -37.1436 -74.0352 -61.4268 -107.889c-33.4424 -46.627 -82.3369 -96.1562 -141.96 -104.059c-55.3984 -7.33789 -111.149 30.3057 -111.426 88.8535c-0.293945 61.627 54.6816 106.727 103.671 134.229c48.4658 27.209 102.954 44.5645 157.877 53.7246
c7.19141 17.3789 14.0068 34.8994 20.6045 52.4023c14.0771 37.3438 27.4316 74.8223 41.3857 111.996c-23.0781 -3.97754 -46.0156 -8.60156 -68.6592 -14.1777c-29.4824 -7.26172 -42.2383 43.9951 -13.1846 51.7568c35.4287 9.46484 70.71 17.8604 106.221 24.7988
c4.44141 10.8164 9.00684 21.5801 13.7188 32.2852c-33.4658 -7.39746 -66.9141 -16.751 -100.627 -20.3936c-30.9043 -3.34277 -41.4326 40.335 -13.3193 52.2852c42.9551 18.2607 93.3594 28.0312 139.141 36.7734c2.94336 0.564453 5.88672 1.0459 8.83008 1.56836
c4.35352 8.13184 8.79492 16.2344 13.4482 24.2539c24.8057 42.7607 52.5605 83.2656 82.9365 121.679c-28.748 -6.88574 -58.1133 -11.7568 -87.7373 -15.0938c-48.7539 -5.49316 -97.8193 -7.34375 -146.755 -10.5459
c-22.5732 -1.48047 -45.2109 -2.79688 -67.7021 -5.31152c-10.4463 -1.16309 -21.5977 -1.7627 -31.4561 -5.66406c-5.42285 -2.14453 -24.1826 -21.6973 -14.835 -17.0264c30.7227 15.3525 49.1533 -33.166 19.7764 -48.9414
c-45.375 -24.3711 -90.8213 27.5498 -76.7207 71.9268c18.543 58.3662 90.5811 61.9443 141.033 66.833c127.078 12.3145 265.097 8.31348 374.954 83.4824c37.5205 25.6758 74.165 -24.9287 42.1387 -55.0869zM265.369 27.04
c2.75586 4.67676 5.39258 9.42969 8.0127 14.1885c-35.9688 -9.97656 -71.4268 -24.6357 -101.626 -45.2402c-17.1973 -11.7393 -49.2412 -34.1416 -48.6123 -58.3779c0.564453 -21.8799 26.6455 -20.916 42.2441 -15.0879c43.9893 16.4277 77.2324 65.8691 99.9814 104.518
z" />
    <glyph glyph-name="currency" unicode="&#xa4;" horiz-adv-x="454" 
d="M385.755 506.76c23.6777 18.0254 57.9756 -14.7461 37.4121 -37.584c-19.5352 -21.7031 -39.6406 -42.8896 -59.9873 -63.8467c36.4209 -48.2959 36.0859 -119.523 9.87012 -178.112c-25.9336 -57.9551 -68.0127 -112.479 -120.633 -150.434
c4.88867 -27.2559 10.1768 -54.459 16.2285 -81.5684c9.98828 -44.7705 -59.5 -51.3682 -70.2402 -8.10742c-4.41797 17.8086 -8.19043 35.7578 -11.6865 53.7598c-39.4707 -14.9238 -86.4209 -18.8486 -122.695 6.14551c-4.91797 3.38379 -9.39453 7.13184 -13.501 11.1504
c-24.2891 -30.7227 -48.3076 -61.6914 -72.2266 -92.7959c-26.3682 -34.2891 -77.9717 6.10449 -52.8955 40.8691c29.248 40.5518 60.0527 80.1221 91.833 118.917c-2.13867 12.0391 -2.96094 24.3828 -2.58496 36.5859c1.87402 60.6396 21.4805 119.951 49.4941 174.704
c-26.1455 -4.40625 -53.8184 24.2891 -31.4336 47.8906c25.5225 26.9033 57.4375 47.749 92.2783 61.3506c-7.20312 31.2627 -16.7744 62.3145 -33.7949 89.0889c-18.502 29.0947 23.6719 61.9502 42.9199 32.832c21.7627 -32.9141 37.0391 -69.0127 48.6309 -106.551
c40.3457 5.99902 81.9902 2.61523 120.456 -11.8086c3.27246 -1.2334 6.42773 -2.57324 9.50684 -3.97168c23.625 21.6387 47.9023 42.3379 73.0488 61.4854zM146.242 329.636c-19.9883 -34.2832 -37.8252 -71.5371 -48.0127 -109.539
c14.8467 16.7744 29.7939 33.4424 44.876 49.9346c3.28418 3.58398 6.58008 7.19727 9.87598 10.7988c-2.12695 16.2861 -4.34766 32.5605 -6.73926 48.8057zM97.9121 117.185c14.459 -22.7842 45.2461 -17.3965 76.3389 -2.15039
c-3.88965 26.8037 -7.33887 53.6836 -10.6289 80.5693c-22.332 -25.8223 -44.165 -52.0029 -65.71 -78.4189zM198.874 398.409c4.00684 -18.6836 7.48535 -37.4854 10.7227 -56.2275c16.3984 17.4912 33.0195 34.8818 49.958 51.9385
c-19.0713 5.21191 -39.8701 6.41602 -60.6807 4.28906zM253.926 173.446c35.998 39.541 95.6797 128.559 61.6436 183.458c-31.1924 -31.4863 -62.4141 -62.9551 -92.7188 -95.3105c5.40527 -34.2715 10.54 -68.542 15.9043 -102.777
c6.08691 5.34668 11.2871 10.3643 15.1709 14.6299z" />
    <glyph glyph-name="yen" unicode="&#xa5;" horiz-adv-x="794" 
d="M717.525 243.896c35.0527 -3.17285 34.082 -59.833 -0.90625 -61.6367c-25.9043 -1.33398 -51.2803 -2.80859 -76.3623 -4.94727c-5.00586 -12.25 -10.1758 -24.4297 -15.5107 -36.5391c11.8506 1.55664 23.6953 3.04297 35.5225 4.40625
c41.4209 4.77637 48.9004 -59.5762 7.43164 -64.3525c-25.4229 -2.93164 -50.7637 -6.38086 -76.0693 -10.0117c-9.3125 -18.3604 -18.9072 -36.5801 -29.0186 -54.5059c-45.4404 -80.5215 -99.1006 -158.476 -173.024 -215.549
c-72.6426 -56.0801 -177.042 -99.5107 -264.685 -51.0449c-89.0527 49.2471 -85.1045 151.508 -57.4492 236.277c12.3086 37.7256 76.9785 19.4062 66.8555 -18.7305c-10.7871 -40.6162 -23.4717 -95.3691 4.44824 -132.107
c27.6611 -36.3916 80.1221 -35.0869 119.205 -21.9492c91.5381 30.7637 158.899 110.258 209.745 188.724c11.751 18.1318 22.8555 36.751 33.5898 55.6055c-21.1396 -3.09082 -42.2969 -6.08105 -63.4951 -8.79004c-29.0186 -3.70703 -41.6797 41.7686 -12.9141 50.6992
c37.0029 11.4805 74.8936 20.4111 113.137 27.6377c6.45117 13.1729 12.7021 26.4395 18.7305 39.8115c-27.1445 -4.68848 -54.2715 -10.8398 -81.7217 -19.2178c-33.0254 -10.082 -53.3311 37.1094 -20.3936 50.4756c41.2451 16.7451 85.9453 30.335 131.468 38.6191
c6.54492 16.7158 12.8965 33.4785 18.8604 50.3057c17.6377 49.7881 32.6787 100.463 44.7471 151.884c3.68945 15.7402 7.0498 31.5566 10.2285 47.4141c-2.37988 -4.04199 -4.70605 -8.10742 -7.12109 -12.1201c-23.1191 -38.4482 -47.8838 -76.1387 -76.0381 -111.103
c-50.8164 -63.125 -124.247 -141.784 -207.854 -156.479c-39.2822 -6.90332 -83.6592 6.08691 -99.8984 45.7578c-16.1162 39.377 0.576172 85.9277 14.5361 123.359c16.5039 44.2705 39.3184 85.7861 57.8145 129.199c8.60742 20.2109 20.082 43.6006 22.3613 65.5742
c3.11426 30.0703 -25.1699 12.4268 -38.542 0.0234375c-25.499 -23.6484 -56.333 18.8711 -32.4141 42.373c27.4678 26.9854 64.3535 46.0039 102.021 26.9092c40.417 -20.4873 40.7754 -68.1309 30.7578 -106.362c-11.8916 -45.3877 -32.7197 -87.6025 -52.0908 -130.11
c-9.75879 -21.4102 -19.2949 -42.9902 -26.8975 -65.2754c-3.8252 -11.21 -18.6074 -44.4238 -10.7754 -55.6221c18.4541 -26.3984 88.4473 31.0859 103.935 43.6709c34.6055 28.1133 64.2881 61.1211 91.4795 96.3438c27.4912 35.6045 52.0381 73.2246 75.6572 111.474
c22.873 37.0498 41.3984 80.0518 75.9453 107.801c15.3467 12.3262 34.6475 6.5918 46.874 -6.24609c19.0889 -20.0469 14.4473 -47.4844 11.2979 -72.5723c-3.69531 -29.4121 -8.17773 -58.7305 -13.542 -87.8838c-10.3232 -56.1094 -23.9482 -111.608 -40.4639 -166.208
c-6.44531 -21.3213 -13.4844 -42.4727 -20.8818 -63.501c17.291 0.493164 34.4766 0.0585938 51.4209 -1.48047z" />
    <glyph glyph-name="section" unicode="&#xa7;" horiz-adv-x="768" 
d="M705.999 865.521c32.2734 -31.2803 -6.18652 -84.8857 -43.6416 -56.4844c-30.834 23.3721 -70.5049 14.2715 -95.792 -12.7197c-31.4219 -33.5361 -37.3203 -83.6299 -35.9043 -127.565c3.16113 -98.2305 33.2432 -193.142 54.5938 -288.352
c19.7588 -88.1074 37.3906 -188.212 -6.31641 -272.323c-32.209 -61.9854 -94.8643 -102.584 -162.008 -97.2021c-2.35059 -31.333 -7.89648 -62.3906 -18.3604 -92.8018c-13.6074 -39.541 -36.3271 -75.5098 -73.8477 -95.7861
c-36.5332 -19.7471 -83.5654 -27.7959 -124.822 -23.7773c-92.9424 9.04785 -135.039 98.5 -149.24 179.938c-8.14355 46.7207 61.7793 52.7725 72.0205 8.31348c10.3643 -44.9873 30.9863 -102.536 83.6299 -109.928c48.207 -6.76855 95.5273 11.9385 114.464 57.5312
c40.3877 97.2256 12.2861 213.229 -2.02637 313.233c-8.12598 56.7793 -16.1572 113.57 -24.6885 170.297c-7.66699 50.9805 -18.2012 102.983 -14.7695 154.792c6.52148 98.459 86.3145 161.989 180.473 172.289
c0.123047 0.0117188 0.234375 -0.00585938 0.357422 0.00585938c6.11035 29.9111 17.0918 58.4951 35.041 84.2939c46.2334 66.4561 147.119 97.9951 210.838 36.2451zM530.643 254.167c-8.8252 101.497 -44.1934 198.672 -63.042 298.371
c-8.00195 42.332 -14.6475 88.1719 -13.7549 133.159c-33.748 -12.415 -68.3184 -28.3252 -88.1533 -59.0303c-27.1387 -42.0088 -14.8184 -97.8135 -6.68066 -143.571c17.4023 -97.9248 32.7549 -196.267 46.8379 -294.72
c5.41699 -37.8789 10.2939 -76.292 11.9033 -114.623c34.1709 -2.75586 66.7031 17.8486 86.0742 46.3203c26.5801 39.0713 30.7988 88.2773 26.8154 134.094z" />
    <glyph glyph-name="copyright" unicode="&#xa9;" horiz-adv-x="704" 
d="M457.816 768.372c161.432 -18.1016 238.455 -173.892 228.42 -322.438c-10.4463 -154.505 -92.208 -303.975 -202.888 -409.561c-53.9824 -51.5039 -119.763 -96.8555 -195.396 -106.826c-77.5898 -10.2285 -152.019 22.1914 -196.489 86.5439
c-96.9902 140.362 -59.0469 328.021 -7.57324 477.696c-2.09766 4.16602 -3.33691 9.00098 -3.08398 14.583c3.63672 80.2051 79.3057 147.431 140.351 190.973c68.7949 49.0771 151.414 78.5889 236.66 69.0293zM615.12 467.237
c6.43359 124.764 -70.6211 242.307 -205.455 235.438c-60.751 -3.09668 -116.708 -29.2363 -164.728 -65.4346c-40.1055 -30.2344 -93.7656 -71.9961 -107.338 -123.547c15.4287 -9.00684 26.2451 -27.2207 19.3359 -48.8125
c-40.3164 -125.897 -88.4121 -310.884 13.6426 -421.723c94.6406 -102.789 236.613 13.4785 303.069 90.4521c79.3877 91.9492 135.162 211.225 141.473 333.626zM475.223 578.335c36.3623 -19.5889 46.5117 -54.3887 57.1523 -91.3682
c9.38281 -32.5791 -39.1299 -53.1016 -49.5762 -20.0293c-5.95215 18.8369 -18.2607 50.9043 -40.9277 55.4404c-20.1934 4.03613 -43.084 -14.5303 -57.79 -26.3164c-35.834 -28.7188 -63.29 -69.541 -81.8857 -111.174
c-9.6709 -21.6504 -46.1338 -111.661 -10.8936 -124.939c15.5693 -5.86914 47.502 17.5791 58.6416 25.293c18.3896 12.75 35.2227 27.5439 53.3418 40.6406c29.9111 21.6152 74.6348 -19.2539 47.2383 -47.4678c-43.6367 -44.9287 -126.597 -115.374 -193.452 -80.2158
c-72.1377 37.9375 -49.835 139.787 -25.6758 200.351c27.3965 68.6826 76.873 136.702 142.871 172.33c31.5977 17.0625 67.7842 25.3291 100.956 7.45605z" />
    <glyph glyph-name="softhyphen" unicode="&#xad;" 
 />
    <glyph glyph-name="registered" unicode="&#xae;" horiz-adv-x="663" 
d="M505.947 699.977c134.857 -88.8535 146.426 -267.856 103.153 -408.877c-22.1504 -72.1729 -57.2324 -141.138 -102.132 -201.83c-44.8408 -60.6162 -102.73 -120.728 -172.918 -151.344c-67.1846 -29.3066 -150.744 -24.5596 -203.758 29.9111
c-54.2881 55.7686 -70.0342 144.175 -72.6074 218.933c-5.3877 156.432 34.7998 311.383 112.337 446.739c-27.5439 -16.3633 -51.3447 -38.126 -66.8906 -66.9092c-16.4277 -30.4111 -66.2803 -9.70605 -49.8584 21.1631c41.8799 78.7178 116.814 120.762 201.426 140.721
c84.7227 19.9824 176.179 20.958 251.248 -28.5068zM547.874 334.931c30.8164 111.702 20.2998 257.739 -92.0195 321.322c-58.5303 33.1367 -131.132 26.6094 -194.216 12.2383c-9.57129 -2.17969 -19.2188 -4.78223 -28.8135 -7.75488
c14.7295 -9.83496 23.8418 -27.5605 13.7129 -45.0518c-73.4365 -126.825 -117.343 -272.646 -112.425 -420.1c1.88574 -56.7617 8.93652 -132.008 50.5752 -175.304c42.0029 -43.6719 110.339 -24.7236 154.299 4.77637c103.729 69.623 176.155 191.237 208.887 309.873z
M400.62 363.831c-14.1182 -17.8672 -29.1719 -35.1973 -41.7744 -54.2275c-2.21484 -3.34277 -16.6562 -21.6152 -14.165 -26.5039c5.0293 -9.86523 28.5547 -2.69141 36.6152 -1.43359c41.627 6.52148 48.5654 -57.5264 7.47266 -64.7646
c-38.2197 -6.7334 -85.6631 -3.10254 -103.442 37.8486c-0.123047 0.288086 -0.193359 0.582031 -0.316406 0.870117c-14.8174 -47.4961 -28.707 -95.3271 -45.4287 -142.071c-12.7256 -35.5811 -72.6895 -18.9131 -63.8291 17.8848
c17.749 73.6826 45.2461 146.091 71.0859 217.259c9.23047 25.4346 18.9014 50.6924 28.7363 75.8916c-8.01953 -3.05566 -16.0742 -6.13477 -24.4814 -8.70215c-28.9834 -8.84863 -49.6885 25.8633 -26.334 46.1514c20.7285 18.0078 49.4238 28.8184 78.2598 34.3887
c7.37988 19.1357 16.2109 37.8369 30.1182 51.127c11.6621 11.1514 31.832 5.81055 40.9092 -5.45215c0.463867 -0.576172 0.933594 -1.1582 1.39746 -1.73438c8.07324 -10.0234 6.89258 -24.2012 -0.0869141 -34.2891
c-0.334961 -0.493164 -0.675781 -0.980469 -1.0166 -1.47363c-0.922852 -1.32812 -1.96875 -2.47949 -3.06738 -3.54297c29.9463 -1.13379 64.2646 -7.66113 73.4424 -37.0557c11.3984 -36.5039 -23.4365 -74.0303 -44.0947 -100.17zM323.452 369.244
c10.8926 13.7832 22.3535 27.1094 33.2998 40.8457c6.06934 7.62012 12.168 15.3047 17.6611 23.3652c1.02246 1.39258 1.93945 2.85547 2.90332 4.2832c-0.857422 0.305664 -1.7207 0.605469 -2.70801 1.06348c-6.83301 -1.69238 -17.0381 0.52832 -25.252 1.16309
c-3.97168 -10.5811 -7.96094 -21.1445 -11.8506 -31.7559c-4.75293 -12.9609 -9.40625 -25.9629 -14.0537 -38.9648z" />
    <glyph glyph-name="mu" unicode="&#xb5;" horiz-adv-x="523" 
d="M505.172 624.438c22.8496 35.4463 77.6338 0.375 61.9814 -36.2754c-48.918 -114.517 -89.0703 -231.936 -122.631 -351.816c-12.2324 -43.6836 -82.8721 -34.8057 -71.1855 10.3936c11.8096 45.6689 25.0586 90.9678 39.5234 135.879
c-27.9082 -27.085 -60.6221 -49.4756 -99.7637 -48.0771c-109.24 3.91309 -90.1104 131.979 -74.5469 218.123c-1.66895 -2.01562 -3.38477 -3.99609 -5.03027 -6.03516c-15.6348 -19.3477 -30.0762 -39.6475 -43.7012 -60.4521
c-30.376 -46.3799 -56.5215 -95.4863 -81.498 -144.939c-105.944 -209.739 -178.869 -432.968 -258.005 -653.582c-14.1416 -39.4297 -70.8447 -13.6426 -58.9824 25.0352c38.4189 125.269 79.876 249.809 126.497 372.274c41.333 108.577 87.5488 215.444 141.562 318.357
c25 47.6377 51.2861 94.9346 81.5381 139.476c26.333 38.7656 60.9805 93.5537 103.336 116.074c22.209 11.8096 49.1182 9.9707 65.2227 -11.2217c14.6006 -19.2246 11.1455 -43.4668 7.71387 -65.8164c-7.24414 -47.2031 -37.2148 -118.4 -13.7959 -164.622
c20.458 -40.3633 93.665 54.5713 107.296 71.4453c34.6768 42.9375 64.6055 89.4473 94.4697 135.78z" />
    <glyph glyph-name="paragraph" unicode="&#xb6;" horiz-adv-x="550" 
d="M687.225 868.724c16.4043 30.0293 65.627 10.0469 49.6045 -21.0459c-180.85 -350.959 -342.287 -712.064 -500.223 -1073.73c-18.8428 -43.1543 -85.0459 -15.0117 -67.2197 28.5303c83.6709 204.439 176.196 404.701 274.573 602.096
c-24.7646 -8.84277 -50.5166 -15.5059 -76.1211 -18.3379c-4.98242 -10.082 -10.0059 -20.1465 -14.9824 -30.2344c-77.6719 -157.56 -151.607 -317.164 -231.289 -473.701c-21.333 -41.9092 -87.8887 -14.6826 -67.8535 28.8008
c74.2939 161.267 156.607 319.237 236.753 477.661c0.416992 0.816406 0.833984 1.63281 1.25098 2.45508c-10.6055 2.94336 -20.9521 6.92676 -30.9404 12.1562c-83.7295 43.8359 -88.2656 142.283 -50.5576 220.161c39.3594 81.2979 114.852 136.162 198.84 165.027
c32.8438 11.2803 67.4912 20.6748 102.632 26.2803c8.18457 14.1719 16.5039 28.2607 25.1582 42.1211c17.1445 27.4619 58.8184 0.211914 47.3027 -27.6963c-1.22168 -2.97852 -2.54395 -5.92188 -3.79492 -8.88867c25.54 -0.134766 50.8633 -3.04297 75.5283 -9.28809
c10.4111 19.2305 20.8516 38.4492 31.3389 57.6377zM322.845 452.46c29.4883 57.9902 59.083 115.927 88.9766 173.705c19.2598 37.2383 38.2139 74.8584 57.8145 112.114c-8.90137 -2.35645 -17.7441 -4.92383 -26.4805 -7.79102
c-62.3613 -20.458 -120.017 -54.1592 -157.666 -109.211c-33.0488 -48.3252 -55.6982 -133.677 12.8672 -161.955c7.97852 -3.29004 16.1689 -5.51074 24.4883 -6.8623zM491.751 499.28c44.4766 87.2373 90.0059 173.96 136.356 260.251
c-25.6523 1.89746 -52.6025 -1.45703 -77.4258 -5.2168c-26.2803 -55.4697 -54.9229 -109.999 -82.126 -164.781c-21.1221 -42.5205 -42.1504 -85.082 -63.2256 -127.626c30.4463 9.85254 60.1641 24.6289 86.4209 37.373z" />
    <glyph glyph-name="questiondown" unicode="&#xbf;" horiz-adv-x="398" 
d="M295.728 203.18c11.9033 33.0195 61.4844 11.5928 49.9805 -21.2207c-29.1123 -83.1016 -80.293 -157.895 -151.597 -210.361c-61.5205 -45.2695 -152.283 -77.8193 -219.433 -23.9951c-65.4746 52.4785 -63.2773 145.668 -39.1123 218.264
c27.0264 81.1855 79.376 154.599 128.412 223.793c50.458 71.1973 102.461 141.167 143.812 218.246c21.8037 40.6455 87.8252 13.9248 66.8447 -28.3721c-40.8809 -82.4023 -96.2734 -156.038 -149.352 -230.772c-50.082 -70.5283 -111.256 -149.705 -128.847 -236.278
c-7.33789 -36.0928 -7.68457 -86.2803 25.4346 -110.81c35.3643 -26.1982 83.2246 -9.31836 117.055 10.5811c72.4551 42.626 128.447 112.249 156.802 190.926zM233.56 720.472c-2.25 5.01758 -3.11426 10.209 -2.56738 15.5732
c-0.358398 5.19922 0.587891 10.2051 2.84375 15.0166c2.76758 6.46289 6.93359 11.8389 12.4971 16.1338c8.74219 6.08105 19.2998 9.57129 30.0576 7.79688c1.65137 -0.270508 3.30859 -0.546875 4.95996 -0.817383c10.3232 -1.7041 18.8135 -7.03906 25.4346 -14.9473
c3.46094 -4.21289 5.62305 -8.94238 6.49219 -14.207c1.31055 -3.27832 1.72168 -6.66211 1.22266 -10.1582c0.352539 -5.08789 -0.576172 -9.99414 -2.78516 -14.7061c-1.68652 -2.88477 -3.36719 -5.76367 -5.05371 -8.64258
c-5.96973 -8.4668 -16.6162 -13.332 -26.4805 -14.9541c-1.66309 -0.276367 -3.32031 -0.552734 -4.9834 -0.823242c-6.98535 -0.775391 -13.7188 0.200195 -20.1992 2.9209c-4.9707 1.89746 -9.13086 4.84082 -12.4795 8.83008
c-4.10645 3.47852 -7.09082 7.80273 -8.95898 12.9844z" />
    <glyph glyph-name="Agrave" unicode="&#xc0;" horiz-adv-x="927" 
d="M963.503 709.907c27.5146 29.2598 76.9814 -7.33203 50.1777 -38.7656c-0.94043 -1.10449 -1.9043 -2.19141 -2.84473 -3.2959c-0.134766 -5.49316 -1.67969 -11.2393 -5.09961 -16.8975c-78.5596 -129.951 -160.621 -256.125 -228.729 -392.21
c-8.20215 -16.3867 -16.2451 -32.8379 -24.1592 -49.3535c20.1641 -1.65137 40.2871 -4.00195 60.3164 -7.41016c36.5273 -6.20996 28.5254 -62.0205 -8.3252 -57.0088c-26.3809 3.58984 -52.6729 5.74023 -78.8945 6.80371
c-46.1748 -101.285 -87.2969 -204.768 -124.029 -309.96c-10.1582 -29.0947 -41.3447 -28.0547 -59.2236 -11.8623c-8.49023 4.7002 -14.4365 13.8545 -12.8975 26.9443c0 0.0234375 0.00585938 0.046875 0.00585938 0.0644531
c-0.117188 3.55469 0.264648 7.27344 1.25195 11.1221c9.82324 90.0166 10.9512 184.151 -4.90625 274.55c-9.42969 -1.03418 -18.8594 -2.12109 -28.2832 -3.24902c-135.104 -120.833 -278.322 -233.893 -432.791 -328.463
c-40.0586 -24.5293 -85.1758 32.6553 -44.9648 58.7832c119.446 77.6191 233.692 161.754 343.074 252.217c-30.6455 -3.95996 -61.333 -7.68457 -92.1084 -10.7217c-105.51 -10.4111 -336.071 -38.1191 -319.256 130.621c13.0547 130.997 145.521 229.557 265.495 254.991
c173.512 36.7803 278.651 -66.5146 333.65 -208.757c143.348 134.887 277.724 278.486 412.54 421.857zM444.963 191.541c18.8125 16.4805 37.4795 33.1475 55.999 50.0098c-6.43945 18.7832 -13.8018 37.2617 -22.2207 55.334
c-24.9287 53.501 -64.5049 103.482 -119.986 127.119c-56.709 24.1592 -122.084 17.585 -178.247 -4.73535c-51.5039 -20.4697 -98.084 -54.4941 -130.851 -99.4346c-25.9219 -35.5576 -66.3857 -115.104 -9.88867 -142.396
c25.4756 -12.3086 57.8896 -12.0439 85.5098 -12.9434c31.8389 -1.04004 63.748 -0.0292969 95.5342 1.95117c67.3438 4.20117 134.294 12.7617 201.108 21.9395c7.66699 1.05762 15.3457 2.10938 23.042 3.15527zM598.698 47.876
c14.4121 34.8936 29.4473 69.5225 45.1113 103.864c-18.6016 -0.699219 -37.1855 -1.79785 -55.752 -3.24316c5.52832 -33.5127 9.0127 -67.3779 10.6406 -100.621zM714.325 296.75c18.4541 35.5928 37.3975 71.3623 56.998 106.914
c-63.7129 -66.1445 -128.982 -130.756 -195.985 -193.399c0.276367 -1.10449 0.570312 -2.20312 0.84082 -3.30762c31.9502 2.83203 63.9648 4.71777 95.9385 5.09375c13.6895 28.4248 27.6904 56.6973 42.208 84.6992zM1120.48 868.611
c34.5645 8.06641 40.1338 -46.3389 6.31543 -54.6406c-62.373 -15.3174 -123.477 -34.377 -183.241 -57.9199c-32.0615 -12.6318 -51.9199 36.6152 -20.0342 49.5762c64.0293 26.0283 129.646 47.2676 196.96 62.9844z" />
    <glyph glyph-name="AE" unicode="&#xc6;" horiz-adv-x="1372" 
d="M1287.43 523.164c15.082 19.2129 29.9678 38.9336 42.6758 59.8027c3.20801 5.27051 18.1084 25.376 14.3896 32.2617c-3.45508 6.39844 -22.374 6.24609 -28.1611 6.63379c-101.679 6.80957 -207.482 -46.4746 -291.588 -98.665
c-75.3633 -46.7676 -165.28 -116.772 -188.993 -207.048c-12.0273 -45.7871 10.7451 -84.124 50.9209 -105.98c21.04 -11.4453 43.7891 -17.1328 66.75 -17.9902c33.542 13.6836 68.2598 21.9736 102.39 19.9229c38.3955 -2.30273 37.667 -54.8936 8.27832 -68.9766
c-29.1123 -13.96 -62.0791 -21.627 -95.3867 -22.8604c-17.0322 -8.38379 -33.2598 -17.9316 -47.3369 -25.9512c-36.457 -20.7637 -70.7988 -45.7168 -102.449 -73.2139c-29.4883 -25.6162 -59.3584 -54.3057 -79.5752 -88.0654
c-5.78125 -9.65332 -23.2021 -38.0605 -13.9248 -46.1748c9.3125 -8.14355 35.7871 -1.61621 46.4102 0.0878906c87.5898 14.0361 171.426 66.2744 245.973 111.779c75.6279 46.1689 148.494 97.4316 216.496 154.275c26.6152 22.25 58.1777 -20.0586 32.4961 -42.4844
c-77.4258 -67.6133 -159.135 -129.211 -247.007 -182.671c-74.5703 -45.3691 -153.259 -92.2021 -240.179 -108.248c-33.2256 -6.13379 -72.4492 -7.35547 -100.739 14.4424c-32.6729 25.1816 -30.2227 66.7207 -16.9561 101.715
c28.2783 74.5879 99.9932 135.821 163.106 181.108c11.0811 7.94922 22.791 16.1338 34.9883 24.2188c-9.53613 4.40039 -18.6963 9.5 -27.3682 15.3105c-5.27051 -7.89062 -14.3887 -13.1201 -26.8037 -11.4277c-26.3809 3.58984 -52.6729 5.74023 -78.8945 6.80371
c-46.1689 -101.285 -87.291 -204.768 -124.023 -309.96c-10.1582 -29.0947 -41.3447 -28.0547 -59.2236 -11.8623c-8.49023 4.7002 -14.4365 13.8545 -12.8975 26.9443c0 0.0234375 0.00585938 0.046875 0.00585938 0.0703125
c-0.111328 3.55469 0.264648 7.26758 1.25195 11.1162c9.82324 90.0166 10.9512 184.151 -4.90625 274.55c-9.42969 -1.03418 -18.8594 -2.12109 -28.2832 -3.24902c-135.104 -120.833 -278.322 -233.893 -432.792 -328.463
c-40.0586 -24.5293 -85.1758 32.6553 -44.9648 58.7832c119.446 77.6191 233.692 161.754 343.074 252.217c-30.6455 -3.95996 -61.333 -7.68457 -92.1084 -10.7217c-105.51 -10.4111 -336.071 -38.1191 -319.256 130.621c13.0547 130.997 145.521 229.557 265.495 254.991
c173.512 36.7803 278.651 -66.5146 333.65 -208.757c143.341 134.887 277.723 278.486 412.539 421.857c27.5205 29.2598 76.9795 -7.33203 50.1699 -38.7656c-0.94043 -1.10449 -1.9043 -2.19141 -2.84473 -3.2959c-0.134766 -5.49316 -1.67969 -11.2393 -5.09961 -16.8975
c-17.2031 -28.46 -34.5762 -56.7266 -51.9316 -84.9697c58.1309 39.9229 122.907 72.0195 187.225 95.8857c66.1211 24.541 259.926 78.042 272.975 -38.9717c5.82227 -52.209 -41.4102 -105.164 -71.4277 -143.102c-34.8818 -44.0771 -73.7412 -84.752 -112.801 -125.098
c-30.8105 -31.8271 -86.0098 9.75293 -55.1816 42.6377c38.3604 40.9219 77.1729 81.668 111.844 125.833zM445.964 191.538c18.8125 16.4805 37.4795 33.1465 55.999 50.0088c-6.43945 18.7832 -13.8018 37.2617 -22.2207 55.334
c-24.9287 53.501 -64.5049 103.482 -119.986 127.119c-56.709 24.1592 -122.084 17.585 -178.247 -4.73535c-51.5039 -20.4697 -98.084 -54.4941 -130.851 -99.4346c-25.9219 -35.5576 -66.3857 -115.104 -9.88867 -142.396
c25.4756 -12.3086 57.8896 -12.0439 85.5098 -12.9424c31.8389 -1.04004 63.748 -0.0292969 95.5342 1.95117c67.3438 4.20117 134.294 12.7617 201.108 21.9395c7.66699 1.05762 15.3516 2.10938 23.042 3.15527zM599.699 47.8721
c14.4121 34.8936 29.4473 69.5225 45.1113 103.864c-18.6016 -0.699219 -37.1855 -1.79785 -55.752 -3.24316c5.52832 -33.5127 9.0127 -67.3779 10.6406 -100.621zM715.326 296.746c18.4541 35.5928 37.3975 71.3564 56.998 106.908
c-63.7129 -66.1387 -128.982 -130.75 -195.985 -193.394c0.276367 -1.10449 0.570312 -2.20312 0.84082 -3.30762c31.9502 2.83203 63.9648 4.71777 95.9385 5.09375c13.6895 28.4248 27.6904 56.6973 42.208 84.6992zM753.846 209.38
c9.71191 -0.792969 19.4053 -1.7627 29.0879 -2.94336c-4.81738 7.40332 -9.18848 15.2412 -12.9307 23.625c-0.999023 2.23828 -1.8623 4.48828 -2.7373 6.73242c-4.4834 -9.13574 -9.02539 -18.2422 -13.4199 -27.4141z" />
    <glyph glyph-name="Ccedilla" unicode="&#xc7;" horiz-adv-x="556" 
d="M425.047 189.819c21.2568 27.6904 63.502 -5.2002 42.7559 -33.0381c-93.3125 -125.216 -200.62 -253.369 -345.307 -321.288c-13.9834 -6.56836 -28.7773 -11.8271 -43.8711 -15.4111c-12.1504 -32.6143 -22.9609 -65.7275 -32.1211 -99.376
c-9.1416 -33.5898 -63.4297 -26.0342 -54.1465 7.9082c8.04297 29.4062 17.0557 58.4307 27.0264 87.0791c-26.9209 2.84375 -52.708 12.9609 -74.4648 32.8662c-53.7539 49.1826 -56.8154 134.646 -49.0127 202.118c16.1748 139.893 93.624 278.862 182.277 385.894
c44.4531 53.666 95.833 104.447 153.329 144.101c50.334 34.7119 122.454 71.7793 184.639 47.8193c72.4492 -27.9141 55.4697 -110.757 37.75 -168.718c-22.4912 -73.5596 -57.5439 -142.308 -94.3652 -209.551c-19.6533 -35.8984 -77.9424 -12.8672 -59.6172 25.3047
c30.1055 62.708 61.9678 125.052 83.4775 191.391c5.6875 17.5439 27.2031 68.8711 14.0303 86.5439c-13.0078 17.4561 -52.2373 0.864258 -67.4189 -5.36328c-97.4492 -39.9697 -179.164 -135.186 -237.56 -219.838c-63.6416 -92.2607 -121.396 -205.955 -125.68 -319.984
c-1.90918 -50.8867 6.32812 -122.783 70.71 -125.321c2.49707 -0.0996094 5 -0.0234375 7.50293 0.0585938c11.4863 27.8086 23.9482 55.2461 37.5439 82.2666c15.6934 31.1924 65.8574 10.1113 50.1113 -21.2686c-6.82715 -13.6074 -13.3311 -27.3613 -19.665 -41.1865
c26.2627 13.208 51.0859 30.7402 72.3369 45.6162c92.5078 64.752 171.261 152.166 239.738 241.378z" />
    </font>
</defs>
</svg>
