<?xml version="1.0" standalone="no"?><!DOCTYPE svg PUBLIC "-//W3C//DTD SVG 1.1//EN" "http://www.w3.org/Graphics/SVG/1.1/DTD/svg11.dtd" ><svg version="1.1" xmlns="http://www.w3.org/2000/svg"><defs><font horiz-adv-x="0" id="font"><font-face ascent="840" bbox="-240 -360 1600 1080" cap-height="840" descent="-320" font-family="Avara" font-style="italic" font-weight="700" units-per-em="1000" x-height="520" /><missing-glyph d="M40 0V680H280V0ZM80 40H240V640H80Z" horiz-adv-x="360" /><glyph d="M240 0H-40L80 80L560 720V760L680 840V80L760 0H480L560 80V200L520 240H280L160 80ZM560 640 360 360 320 280H520L560 320ZM620 800Z" glyph-name="A" horiz-adv-x="800" unicode="A" /><glyph d="M240 0H-40L80 80L560 720L480 800H680V80L760 0H480L560 80V200L520 240H280L160 80ZM560 640 360 360 320 280H520L560 320ZM680 800H960L1120 840L1160 600H1120L1000 760H680ZM680 440H840L920 520V320L840 400H680ZM1000 240 960 -40 880 0H679V40H840L960 240ZM620 800Z" glyph-name="AE" horiz-adv-x="1080" unicode="&#198;" /><glyph d="M240 0H-40L80 80L560 720V760L680 840V80L760 0H480L560 80V200L520 240H280L160 80ZM560 640 360 360 320 280H520L560 320ZM620 800ZM540 880 700 1040H740L780 1000V960L580 880ZM620 800Z" glyph-name="Aacute" horiz-adv-x="800" unicode="&#193;" /><glyph d="M240 0H-40L80 80L560 720V760L680 840V80L760 0H480L560 80V200L520 240H280L160 80ZM560 640 360 360 320 280H520L560 320ZM620 800ZM460 880 700 1040H780V880H730V970L500 880ZM620 800Z" glyph-name="Acircumflex" horiz-adv-x="800" unicode="&#194;" /><glyph d="M240 0H-40L80 80L560 720V760L680 840V80L760 0H480L560 80V200L520 240H280L160 80ZM560 640 360 360 320 280H520L560 320ZM620 800ZM520 1040H600V960L560 920H520L480 960V1000ZM680 1040H760V960L720 920H680L640 960V1000ZM620 800Z" glyph-name="Adieresis" horiz-adv-x="800" unicode="&#196;" /><glyph d="M240 0H-40L80 80L560 720V760L680 840V80L760 0H480L560 80V200L520 240H280L160 80ZM560 640 360 360 320 280H520L560 320ZM620 800ZM700 880H660L540 1000V1040L580 1080H620ZM620 800Z" glyph-name="Agrave" horiz-adv-x="800" unicode="&#192;" /><glyph d="M240 0H-40L80 80L560 720V760L680 840V80L760 0H480L560 80V200L520 240H280L160 80ZM560 640 360 360 320 280H520L560 320ZM620 800ZM520 1000V960L600 880H640L720 960V1000L640 1080H600ZM560 960V1000L600 1040H640L680 1000V960L640 920H600ZM620 800Z" glyph-name="Aring" horiz-adv-x="800" unicode="&#197;" /><glyph d="M240 0H-40L80 80L560 720V760L680 840V80L760 0H480L560 80V200L520 240H280L160 80ZM560 640 360 360 320 280H520L560 320ZM620 800ZM460 1040 540 960 620 1040H700L780 960L740 920L660 1000L580 920H500L420 1000ZM620 800Z" glyph-name="Atilde" horiz-adv-x="800" unicode="&#195;" /><glyph d="M200 800H520L720 760L760 600L640 480L560 440L680 400L720 240L600 80L400 0H0L80 80L280 720ZM200 80 240 40H320L480 120L560 240L520 360L440 400H320V440H400L520 480L600 600V720L520 760H440L400 720Z" glyph-name="B" horiz-adv-x="760" unicode="B" /><glyph d="M200 800H520L720 760L760 600L640 480L560 440L680 400L720 240L600 80L400 0H0L80 80L280 720ZM200 80 240 40H320L480 120L560 240L520 360L440 400H320V440H400L520 480L600 600V720L520 760H440L400 720ZM20 240H340V200H20Z" glyph-name="BITCOIN" horiz-adv-x="760" unicode="&#579;" /><glyph d="M200 240V360L280 600L480 760H560L640 680V560H720L800 640L760 720L560 800H440L280 720L160 600L80 480L40 280L120 80L280 0H440L560 80L680 200L640 240L520 120L400 40H320L240 80ZM360 880ZM360 0Z" glyph-name="C" horiz-adv-x="720" unicode="C" /><glyph d="M200 240V360L280 600L480 760H560L640 680V560H720L800 640L760 720L560 800H440L280 720L160 600L80 480L40 280L120 80L280 0H440L560 80L680 200L640 240L520 120L400 40H320L240 80ZM360 880ZM360 0ZM440 -240 480 -160V-80L440 -40L580 100L540 140L400 -40V-80L440 -120L400 -200H360L320 -120L280 -160L320 -240ZM450 40Z" glyph-name="Ccedilla" horiz-adv-x="720" unicode="&#199;" /><glyph d="M200 800H560L760 720L840 520L800 320L720 200L600 80L440 0H-40L80 80L280 720ZM680 440V560L640 720L560 760H440L400 720L200 80L240 40H400L480 80L600 200Z" glyph-name="D" horiz-adv-x="840" unicode="D" /><glyph d="M640 240 600 -40 520 0H-40L80 80L280 720L200 800H600L760 840L800 600H760L640 760H440L400 720L320 480V440H480L560 520V320L480 400H320L280 360L200 80L240 40H480L600 240ZM520 800Z" glyph-name="E" horiz-adv-x="720" unicode="E" /><glyph d="M640 240 600 -40 520 0H-40L80 80L280 720L200 800H600L760 840L800 600H760L640 760H440L400 720L320 480V440H480L560 520V320L480 400H320L280 360L200 80L240 40H480L600 240ZM520 800ZM440 880 600 1040H640L680 1000V960L480 880ZM520 800Z" glyph-name="Eacute" horiz-adv-x="720" unicode="&#201;" /><glyph d="M640 240 600 -40 520 0H-40L80 80L280 720L200 800H600L760 840L800 600H760L640 760H440L400 720L320 480V440H480L560 520V320L480 400H320L280 360L200 80L240 40H480L600 240ZM520 800ZM360 880 600 1040H680V880H630V970L400 880ZM520 800Z" glyph-name="Ecircumflex" horiz-adv-x="720" unicode="&#202;" /><glyph d="M640 240 600 -40 520 0H-40L80 80L280 720L200 800H600L760 840L800 600H760L640 760H440L400 720L320 480V440H480L560 520V320L480 400H320L280 360L200 80L240 40H480L600 240ZM520 800ZM420 1040H500V960L460 920H420L380 960V1000ZM580 1040H660V960L620 920H580L540 960V1000ZM520 800Z" glyph-name="Edieresis" horiz-adv-x="720" unicode="&#203;" /><glyph d="M640 240 600 -40 520 0H-40L80 80L280 720L200 800H600L760 840L800 600H760L640 760H440L400 720L320 480V440H480L560 520V320L480 400H320L280 360L200 80L240 40H480L600 240ZM520 800ZM600 880H560L440 1000V1040L480 1080H520ZM520 800Z" glyph-name="Egrave" horiz-adv-x="720" unicode="&#200;" /><glyph d="M600 440H280L240 320H480V280H240V240L280 80L360 40H440L560 120L680 240L720 200L600 80L480 0H320L160 80L80 280H0V320H80L120 440H40V480H120L200 600L320 720L480 800H600L800 720L840 640L760 560H680V680L600 760H520L320 600L280 480H600Z" glyph-name="Euro" horiz-adv-x="760" unicode="&#8364;" /><glyph d="M-40 0 80 80 280 720 200 800H600L760 840L800 600H760L640 760H440L400 720L320 480V440H480L560 520V320L480 400H320L280 360L200 80L280 0Z" glyph-name="F" horiz-adv-x="640" unicode="F" /><glyph d="M200 240 240 120 360 40H400L480 80L520 120L560 240L520 320H760L680 240L600 120L520 40L440 0H280L120 80L40 280L80 480L160 600L280 720L440 800H560L760 720L800 640L720 560H640V680L560 760H480L280 600L200 360Z" glyph-name="G" horiz-adv-x="760" unicode="G" /><glyph d="M520 800 400 720 320 480V440H720L760 480L840 720L760 800H1080L960 720L760 80L840 0H520L640 80L720 360V400H320L280 360L200 80L280 0H-40L80 80L280 720L200 800Z" glyph-name="H" horiz-adv-x="920" unicode="H" /><glyph d="M200 80 280 0H-40L80 80L280 720L200 800H520L400 720ZM360 800Z" glyph-name="I" horiz-adv-x="400" unicode="I" /><glyph d="M200 80 280 0H-40L80 80L280 720L200 800H520L400 720ZM360 800ZM280 880 440 1040H480L520 1000V960L320 880ZM360 800Z" glyph-name="Iacute" horiz-adv-x="400" unicode="&#205;" /><glyph d="M200 80 280 0H-40L80 80L280 720L200 800H520L400 720ZM360 800ZM200 880 440 1040H520V880H470V970L240 880ZM360 800Z" glyph-name="Icircumflex" horiz-adv-x="400" unicode="&#206;" /><glyph d="M200 80 280 0H-40L80 80L280 720L200 800H520L400 720ZM360 800ZM260 1040H340V960L300 920H260L220 960V1000ZM420 1040H500V960L460 920H420L380 960V1000ZM360 800Z" glyph-name="Idieresis" horiz-adv-x="400" unicode="&#207;" /><glyph d="M200 80 280 0H-40L80 80L280 720L200 800H520L400 720ZM360 800ZM440 880H400L280 1000V1040L320 1080H360ZM360 800Z" glyph-name="Igrave" horiz-adv-x="400" unicode="&#204;" /><glyph d="M0 -80 120 40 160 120 360 720 280 800H600L480 720L280 120L200 0L40 -120Z" glyph-name="J" horiz-adv-x="400" unicode="J" /><glyph d="M200 80 280 0H-40L80 80L280 720L200 800H480L400 720ZM680 0 640 -40 520 80 440 280 320 400V440L680 720L600 800H880L400 440L560 320Z" glyph-name="K" horiz-adv-x="760" unicode="K" /><glyph d="M480 0H-40L80 80L280 720L200 800H520L400 720L200 80L240 40H440L560 240H600L560 -40Z" glyph-name="L" horiz-adv-x="600" unicode="L" /><glyph d="M480 160 880 800H1120L1000 720L800 80L880 0H560L680 80L880 680L440 0L360 -40V760L160 80L240 0H-40L80 80L280 720L200 800H480Z" glyph-name="M" horiz-adv-x="1000" unicode="M" /><glyph d="M680 40 560 -40 360 760 160 80 240 0H-40L80 80L280 720L200 800H480L640 120L800 720L720 800H1000L880 720ZM600 800Z" glyph-name="N" horiz-adv-x="880" unicode="N" /><glyph d="M680 40 560 -40 360 760 160 80 240 0H-40L80 80L280 720L200 800H480L640 120L800 720L720 800H1000L880 720ZM600 800ZM440 1040 520 960 600 1040H680L760 960L720 920L640 1000L560 920H480L400 1000ZM600 800Z" glyph-name="Ntilde" horiz-adv-x="880" unicode="&#209;" /><glyph d="M600 80 440 0H320L120 80L40 280L80 480L160 600L280 720L440 800H560L760 720L840 520L800 320L720 200ZM680 560 640 720 560 760H480L280 600L200 360V240L240 80L320 40H400L480 80L600 200L680 440ZM590 800Z" glyph-name="O" horiz-adv-x="840" unicode="O" /><glyph d="M880 800 1040 840 1080 600H1040L920 760H760L720 720L640 480V440H760L840 520V320L760 400H640L600 360L520 80L560 40H760L880 240H920L880 -40L800 0H360L120 80L40 280L80 480L160 600L280 720L440 800ZM600 760H480L280 600L200 360V240L240 120L400 40ZM840 800Z" glyph-name="OE" horiz-adv-x="1000" unicode="&#338;" /><glyph d="M600 80 440 0H320L120 80L40 280L80 480L160 600L280 720L440 800H560L760 720L840 520L800 320L720 200ZM680 560 640 720 560 760H480L280 600L200 360V240L240 80L320 40H400L480 80L600 200L680 440ZM590 800ZM510 880 670 1040H710L750 1000V960L550 880ZM590 800Z" glyph-name="Oacute" horiz-adv-x="840" unicode="&#211;" /><glyph d="M600 80 440 0H320L120 80L40 280L80 480L160 600L280 720L440 800H560L760 720L840 520L800 320L720 200ZM680 560 640 720 560 760H480L280 600L200 360V240L240 80L320 40H400L480 80L600 200L680 440ZM590 800ZM430 880 670 1040H750V880H700V970L470 880ZM590 800Z" glyph-name="Ocircumflex" horiz-adv-x="840" unicode="&#212;" /><glyph d="M600 80 440 0H320L120 80L40 280L80 480L160 600L280 720L440 800H560L760 720L840 520L800 320L720 200ZM680 560 640 720 560 760H480L280 600L200 360V240L240 80L320 40H400L480 80L600 200L680 440ZM590 800ZM490 1040H570V960L530 920H490L450 960V1000ZM650 1040H730V960L690 920H650L610 960V1000ZM590 800Z" glyph-name="Odieresis" horiz-adv-x="840" unicode="&#214;" /><glyph d="M600 80 440 0H320L120 80L40 280L80 480L160 600L280 720L440 800H560L760 720L840 520L800 320L720 200ZM680 560 640 720 560 760H480L280 600L200 360V240L240 80L320 40H400L480 80L600 200L680 440ZM590 800ZM670 880H630L510 1000V1040L550 1080H590ZM590 800Z" glyph-name="Ograve" horiz-adv-x="840" unicode="&#210;" /><glyph d="M760 880H800L200 -80H160ZM640 80 480 0H360L160 80L80 280L120 480L200 600L320 720L480 800H600L800 720L880 520L840 320L760 200ZM720 560 680 720 600 760H520L320 600L240 360V240L280 80L360 40H440L520 80L640 200L720 440ZM630 800Z" glyph-name="Oslash" horiz-adv-x="960" unicode="&#216;" /><glyph d="M600 80 440 0H320L120 80L40 280L80 480L160 600L280 720L440 800H560L760 720L840 520L800 320L720 200ZM680 560 640 720 560 760H480L280 600L200 360V240L240 80L320 40H400L480 80L600 200L680 440ZM590 800ZM430 1040 510 960 590 1040H670L750 960L710 920L630 1000L550 920H470L390 1000ZM590 800Z" glyph-name="Otilde" horiz-adv-x="840" unicode="&#213;" /><glyph d="M200 80 280 0H-40L80 80L280 720L200 800H520L720 760L800 600L640 400L440 320L320 360V400H400L520 440L640 600L600 720L520 760H440L400 720Z" glyph-name="P" horiz-adv-x="720" unicode="P" /><glyph d="M440 0 600 80 720 200 800 320 840 520 760 720 560 800H440L280 720L160 600L80 480L40 280L120 80L320 0L360 -40L400 -80L480 -160L640 -200L800 -160V-120H680L560 -80ZM680 560V440L600 200L480 80L400 40H320L240 80L200 240V360L280 600L480 760H560L640 720Z" glyph-name="Q" horiz-adv-x="840" unicode="Q" /><glyph d="M320 440H480L560 480L640 600L600 720L520 760H440L400 720L200 80L280 0H-40L80 80L280 720L200 800H520L720 760L800 600L680 440L440 400L560 320L680 0L640 -40L520 80L440 280L400 360L320 400Z" glyph-name="R" horiz-adv-x="760" unicode="R" /><glyph d="M680 600H640L520 760H400L360 720L320 640L400 520L480 360L520 200L480 40L320 -40L120 0L40 -40L0 240H40L160 40H280L360 80L400 120V200L320 320L240 480L200 640L240 760L360 840L560 800L640 840Z" glyph-name="S" horiz-adv-x="600" unicode="S" /><glyph d="M840 600H800L720 720L560 760L360 80L440 0H120L240 80L440 760L240 720L200 600H160V840L320 800H640L800 840Z" glyph-name="T" horiz-adv-x="680" unicode="T" /><glyph d="M640 800H320L160 840V600H200L240 720L440 760L240 80L120 0H440L360 80L560 760H880L720 400L520 40L560 0H640L800 320L920 440L1000 480L1040 440L840 80V40L880 0H960L1040 40L1240 240L1200 280L1000 80H960L1160 400V520L1040 560L920 520L840 440L1040 840ZM880 760Z" glyph-name="Th" horiz-adv-x="1240" /><glyph d="M680 240 600 120 520 40 400 0H320L160 40L80 120V240L240 720L160 800H480L360 720L200 240V160L240 80L320 40H360L480 80L520 120L600 240L720 720L640 800H960L840 720ZM600 800Z" glyph-name="U" horiz-adv-x="840" unicode="U" /><glyph d="M680 240 600 120 520 40 400 0H320L160 40L80 120V240L240 720L160 800H480L360 720L200 240V160L240 80L320 40H360L480 80L520 120L600 240L720 720L640 800H960L840 720ZM600 800ZM520 880 680 1040H720L760 1000V960L560 880ZM600 800Z" glyph-name="Uacute" horiz-adv-x="840" unicode="&#218;" /><glyph d="M680 240 600 120 520 40 400 0H320L160 40L80 120V240L240 720L160 800H480L360 720L200 240V160L240 80L320 40H360L480 80L520 120L600 240L720 720L640 800H960L840 720ZM600 800ZM440 880 680 1040H760V880H710V970L480 880ZM600 800Z" glyph-name="Ucircumflex" horiz-adv-x="840" unicode="&#219;" /><glyph d="M680 240 600 120 520 40 400 0H320L160 40L80 120V240L240 720L160 800H480L360 720L200 240V160L240 80L320 40H360L480 80L520 120L600 240L720 720L640 800H960L840 720ZM600 800ZM500 1040H580V960L540 920H500L460 960V1000ZM660 1040H740V960L700 920H660L620 960V1000ZM600 800Z" glyph-name="Udieresis" horiz-adv-x="840" unicode="&#220;" /><glyph d="M680 240 600 120 520 40 400 0H320L160 40L80 120V240L240 720L160 800H480L360 720L200 240V160L240 80L320 40H360L480 80L520 120L600 240L720 720L640 800H960L840 720ZM600 800ZM680 880H640L520 1000V1040L560 1080H600ZM600 800Z" glyph-name="Ugrave" horiz-adv-x="840" unicode="&#217;" /><glyph d="M600 720 520 800H800L680 720L160 0L80 -40V720L0 800H280L200 720V160Z" glyph-name="V" horiz-adv-x="680" unicode="V" /><glyph d="M600 760V240L880 720L800 800H1080L960 720L520 0L480 -40V600L160 0L80 -40V720L0 800H280L200 720V200L480 720Z" glyph-name="W" horiz-adv-x="960" unicode="W" /><glyph d="M720 720 640 800H920L480 400L640 80L720 0H400L480 80L440 360H400L160 80L240 0H-40L360 400L240 720L160 800H480L400 720V440H440Z" glyph-name="X" horiz-adv-x="840" unicode="X" /><glyph d="M400 520V440H440L680 720L600 800H880L760 720L440 360L360 80L440 0H120L240 80L320 360L240 720L160 800H440L360 720ZM560 800Z" glyph-name="Y" horiz-adv-x="760" unicode="Y" /><glyph d="M400 520V440H440L680 720L600 800H880L760 720L440 360L360 80L440 0H120L240 80L320 360L240 720L160 800H440L360 720ZM560 800ZM480 880 640 1040H680L720 1000V960L520 880ZM560 800Z" glyph-name="Yacute" horiz-adv-x="760" unicode="&#221;" /><glyph d="M400 520V440H440L680 720L600 800H880L760 720L440 360L360 80L440 0H120L240 80L320 360L240 720L160 800H440L360 720ZM560 800ZM460 1040H540V960L500 920H460L420 960V1000ZM620 1040H700V960L660 920H620L580 960V1000ZM560 800Z" glyph-name="Ydieresis" horiz-adv-x="760" unicode="&#376;" /><glyph d="M120 80 440 40 560 240H600L560 -40L480 0H-40V40L600 760H360L240 600H200L240 840L400 800H800Z" glyph-name="Z" horiz-adv-x="720" unicode="Z" /><glyph d="M240 80H200L160 200L240 360L360 480H440L480 400V360L360 200ZM640 520 600 560 520 440 480 520 320 560 120 400 40 200 80 40 160 0H240L360 120V40L400 0L520 40L720 240L680 280L480 80H440ZM480 560Z" glyph-name="a" horiz-adv-x="720" unicode="a" /><glyph d="M240 80H200L160 200L240 360L360 480H440L480 400V360L360 200ZM640 520 600 560 520 440 480 520 320 560 120 400 40 200 80 40 160 0H240L360 120V40L400 0L520 40L720 240L680 280L480 80H440ZM480 560ZM400 640 560 800H600L640 760V720L440 640ZM480 560Z" glyph-name="aacute" horiz-adv-x="720" unicode="&#225;" /><glyph d="M240 80H200L160 200L240 360L360 480H440L480 400V360L360 200ZM640 520 600 560 520 440 480 520 320 560 120 400 40 200 80 40 160 0H240L360 120V40L400 0L520 40L720 240L680 280L480 80H440ZM480 560ZM320 640 560 800H640V640H590V730L360 640ZM480 560Z" glyph-name="acircumflex" horiz-adv-x="720" unicode="&#226;" /><glyph d="M240 640 400 800H440L480 760V720L280 640ZM320 560Z" glyph-name="acute" horiz-adv-x="840" unicode="&#180;" /><glyph d="M240 80H200L160 200L240 360L360 480H440L480 400V360L360 200ZM640 520 600 560 520 440 480 520 320 560 120 400 40 200 80 40 160 0H240L360 120V40L400 0L520 40L720 240L680 280L480 80H440ZM480 560ZM380 800H460V720L420 680H380L340 720V760ZM540 800H620V720L580 680H540L500 720V760ZM480 560Z" glyph-name="adieresis" horiz-adv-x="720" unicode="&#228;" /><glyph d="M920 360V440L880 520L720 560L560 440H520L480 520L320 560L120 400L40 200L80 40L160 0H240L400 160L360 0H400L440 120L520 0H600L680 40L840 200L800 240L640 80H560L520 200L600 360L720 480H800V360L720 320H600V280H800ZM240 80H200L160 200L240 360L360 480H440L480 400V360L360 200ZM480 560ZM760 560Z" glyph-name="ae" horiz-adv-x="920" unicode="&#230;" /><glyph d="M240 80H200L160 200L240 360L360 480H440L480 400V360L360 200ZM640 520 600 560 520 440 480 520 320 560 120 400 40 200 80 40 160 0H240L360 120V40L400 0L520 40L720 240L680 280L480 80H440ZM480 560ZM480 640H440L320 760V800L360 840H400ZM400 560Z" glyph-name="agrave" horiz-adv-x="720" unicode="&#224;" /><glyph d="M200 240V360L280 600L480 760H520L560 720L600 600H640L680 640L640 760L520 800H440L280 720L160 600L80 480L40 280L120 80L240 0H280L360 40L440 120V40L480 0H520L600 40L800 240L760 280L560 80H520L680 400H840V440H680L800 680H720L640 480L560 440H240V400H560L520 320L440 200L320 80H280ZM360 880ZM360 0Z" glyph-name="ampersand" horiz-adv-x="800" unicode="&amp;" /><glyph d="M240 520 360 440 440 520H520L640 400L600 360L480 440L400 360H320L200 480ZM240 320 360 240 440 320H520L640 200L600 160L480 240L400 160H320L200 280Z" glyph-name="approxequal" horiz-adv-x="833" unicode="&#8776;" /><glyph d="M240 80H200L160 200L240 360L360 480H440L480 400V360L360 200ZM640 520 600 560 520 440 480 520 320 560 120 400 40 200 80 40 160 0H240L360 120V40L400 0L520 40L720 240L680 280L480 80H440ZM480 560ZM380 760V720L460 640H500L580 720V760L500 840H460ZM420 720V760L460 800H500L540 760V720L500 680H460ZM480 560Z" glyph-name="aring" horiz-adv-x="720" unicode="&#229;" /><glyph d="M160 520 400 680H480V520H430V610L200 520ZM320 440Z" glyph-name="asciicircum" horiz-adv-x="833" unicode="^" /><glyph d="M120 400 240 320 320 400H400L520 320L480 280L360 360L280 280H200L80 360Z" glyph-name="asciitilde" horiz-adv-x="600" unicode="~" /><glyph d="M40 760 80 800 200 760 160 880 200 920H240L280 880L240 760L360 800L400 760V720L360 680L240 720L280 600L240 560H200L160 600L200 720L80 680L40 720Z" glyph-name="asterisk" horiz-adv-x="440" unicode="*" /><glyph d="M560 440H520L400 360L320 200L360 80H400L520 200L600 320V360ZM80 440 240 600 480 680H560L760 600L840 520L880 360L840 200L800 120L680 40L560 0L520 40V120L400 0H320L240 40L200 200L280 400L480 520L600 480L640 400L680 480L720 440L600 80H640L720 160L760 240V360L720 520L640 600L520 640L320 560L200 440L120 240L200 0L360 -80L560 -120L520 -160L280 -120L120 -40L0 200Z" glyph-name="at" horiz-adv-x="920" unicode="@" /><glyph d="M240 80H200L160 200L240 360L360 480H440L480 400V360L360 200ZM640 520 600 560 520 440 480 520 320 560 120 400 40 200 80 40 160 0H240L360 120V40L400 0L520 40L720 240L680 280L480 80H440ZM480 560ZM320 800 400 720 480 800H560L640 720L600 680L520 760L440 680H360L280 760ZM480 560Z" glyph-name="atilde" horiz-adv-x="720" unicode="&#227;" /><glyph d="M360 440 440 480 480 360 400 200 240 80H160L120 120V160L240 320ZM320 800 160 400 -40 0 0 -40 80 80 160 0H320L520 160L600 360L560 520L480 560L360 520L280 440L480 840H200V800Z" glyph-name="b" horiz-adv-x="640" unicode="b" /><glyph d="M120 -80H40V760H120Z" glyph-name="backslash" horiz-adv-x="160" unicode="\" /><glyph d="M200 760 -80 -80H-40L240 760Z" glyph-name="bar" horiz-adv-x="160" unicode="|" /><glyph d="M240 -120 120 40 80 160V320L0 400L80 440L120 480L200 640L360 760L520 800L560 760L400 720L280 600L240 480L200 440L120 400L200 320V80L280 -80Z" glyph-name="braceleft" horiz-adv-x="480" unicode="{" /><glyph d="M240 800 360 640 400 520V360L480 280L400 240L360 200L280 40L120 -80L-40 -120L-80 -80L80 -40L200 80L240 200L280 240L360 280L280 360V600L200 760Z" glyph-name="braceright" horiz-adv-x="480" unicode="}" /><glyph d="M240 800H480V760L280 720L40 0V-80L160 -120V-160H-80Z" glyph-name="bracketleft" horiz-adv-x="360" unicode="[" /><glyph d="M120 -160H-120V-120L80 -80L320 640V720L200 760V800H440Z" glyph-name="bracketright" horiz-adv-x="360" unicode="]" /><glyph d="M400 720 320 640H280L200 720H160L200 640L280 600H320L400 640L440 720Z" glyph-name="breve" horiz-adv-x="840" unicode="&#728;" /><glyph d="M40 280H80L-40 -80H-80ZM200 760H240L120 400H80Z" glyph-name="brokenbar" horiz-adv-x="120" unicode="&#166;" /><glyph d="M200 160 80 240V320L160 440H240L360 360V280L280 160Z" glyph-name="bullet" horiz-adv-x="440" unicode="&#8226;" /><glyph d="M560 360V440L520 520L360 560L160 440L40 200L80 40L160 0H240L320 40L480 200L440 240L320 120L280 80H200L160 200L240 360L360 480H440V360ZM210 0Z" glyph-name="c" horiz-adv-x="560" unicode="c" /><glyph d="M560 360V440L520 520L360 560L160 440L40 200L80 40L160 0H240L320 40L480 200L440 240L320 120L280 80H200L160 200L240 360L360 480H440V360ZM210 0ZM200 -280 240 -200V-120L200 -80L340 60L300 100L160 -80V-120L200 -160L160 -240H120L80 -160L40 -200L80 -280ZM210 0Z" glyph-name="ccedilla" horiz-adv-x="560" unicode="&#231;" /><glyph d="M310 -240 350 -160V-80L310 -40L450 100L410 140L270 -40V-80L310 -120L270 -200H230L190 -120L150 -160L190 -240ZM320 40Z" glyph-name="cedilla" horiz-adv-x="833" unicode="&#184;" /><glyph d="M560 520V600L520 680L360 720L160 600L40 360L80 200L160 160H240L320 200L480 360L440 400L320 280L280 240H200L160 360L240 520L360 640H440V520ZM210 160ZM440 840 160 0H200L480 840Z" glyph-name="cent" horiz-adv-x="560" unicode="&#162;" /><glyph d="M160 640 400 800H480V640H430V730L200 640ZM320 560Z" glyph-name="circumflex" horiz-adv-x="833" unicode="&#710;" /><glyph d="M200 360 120 400V440L160 520H200L280 480V440L240 360ZM80 0 0 40V80L40 160H80L160 120V80L120 0Z" glyph-name="colon" horiz-adv-x="280" unicode=":" /><glyph d="M120 -120H0V-80H80L120 0L40 40V80L80 160H120L200 120V40Z" glyph-name="comma" horiz-adv-x="240" unicode="," /><glyph d="M80 161H760V840H80ZM120 800H720V201H120ZM561 680 441 720 321 640 281 520V480L321 360L441 280L561 320L601 400L681 360L601 280L481 240H361L241 320L161 440V560L241 680L361 760H481L641 720L681 640L641 560H601Z" glyph-name="copyright" horiz-adv-x="833" unicode="&#169;" /><glyph d="M400 0H440L520 40L720 240L680 280L480 80H440L800 840H520V800H640L520 440L480 520L320 560L120 400L40 200L80 40L160 0H240L360 120V40ZM240 80H200L160 200L240 360L360 480H440L480 400V360L360 200Z" glyph-name="d" horiz-adv-x="720" unicode="d" /><glyph d="M40 560 80 600 240 560 280 800 320 840H360L400 800L280 560L440 600L480 560V520L440 480L280 520L160 40L120 0H80L40 40L240 520L80 480L40 520Z" glyph-name="dagger" horiz-adv-x="440" unicode="&#8224;" /><glyph d="M400 280 360 240 200 280 160 40 120 0H80L40 40L160 280L0 240L-40 280V320L0 360L160 320L240 520L80 480L40 520V560L80 600L240 560L280 800L320 840H360L400 800L280 560L440 600L480 560V520L440 480L280 520L200 320L360 360L400 320Z" glyph-name="daggerdbl" horiz-adv-x="440" unicode="&#8225;" /><glyph d="M80 760V680L200 560H280L400 680V760L280 880H200ZM160 680V760L240 840L320 760V680L240 600Z" glyph-name="degree" horiz-adv-x="480" unicode="&#176;" /><glyph d="M220 800H300V720L260 680H220L180 720V760ZM380 800H460V720L420 680H380L340 720V760ZM320 560Z" glyph-name="dieresis" horiz-adv-x="833" unicode="&#168;" /><glyph d="M80 320H440V280H80ZM240 520H280L320 480V440L280 400H240L200 440V480ZM280 80H240L200 120V160L240 200H280L320 160V120Z" glyph-name="divide" horiz-adv-x="480" unicode="&#247;" /><glyph d="M480 880H520L200 -80H160ZM680 600H640L520 760H400L360 720L320 640L400 520L480 360L520 200L480 40L320 -40L120 0L40 -40L0 240H40L160 40H280L360 80L400 120V200L320 320L240 480L200 640L240 760L360 840L560 800L640 840Z" glyph-name="dollar" horiz-adv-x="600" unicode="$" /><glyph d="M0 320 200 520 320 560 400 520V480L160 80H200L400 280L440 240L240 40L160 0H80L40 40V80L280 480H240L40 280ZM370 560Z" glyph-name="dotlessi" horiz-adv-x="440" unicode="&#305;" /><glyph d="M560 360V440L520 520L360 560L160 440L40 200L80 40L160 0H240L320 40L480 200L440 240L280 80H200L160 200L240 360L360 480H440V360L360 320H240V280H440ZM400 560Z" glyph-name="e" horiz-adv-x="560" unicode="e" /><glyph d="M560 360V440L520 520L360 560L160 440L40 200L80 40L160 0H240L320 40L480 200L440 240L280 80H200L160 200L240 360L360 480H440V360L360 320H240V280H440ZM400 560ZM320 640 480 800H520L560 760V720L360 640ZM400 560Z" glyph-name="eacute" horiz-adv-x="560" unicode="&#233;" /><glyph d="M560 360V440L520 520L360 560L160 440L40 200L80 40L160 0H240L320 40L480 200L440 240L280 80H200L160 200L240 360L360 480H440V360L360 320H240V280H440ZM400 560ZM240 640 480 800H560V640H510V730L280 640ZM400 560Z" glyph-name="ecircumflex" horiz-adv-x="560" unicode="&#234;" /><glyph d="M560 360V440L520 520L360 560L160 440L40 200L80 40L160 0H240L320 40L480 200L440 240L280 80H200L160 200L240 360L360 480H440V360L360 320H240V280H440ZM400 560ZM300 800H380V720L340 680H300L260 720V760ZM460 800H540V720L500 680H460L420 720V760ZM400 560Z" glyph-name="edieresis" horiz-adv-x="560" unicode="&#235;" /><glyph d="M560 360V440L520 520L360 560L160 440L40 200L80 40L160 0H240L320 40L480 200L440 240L280 80H200L160 200L240 360L360 480H440V360L360 320H240V280H440ZM400 560ZM480 640H440L320 760V800L360 840H400ZM400 560Z" glyph-name="egrave" horiz-adv-x="560" unicode="&#232;" /><glyph d="M280 440 200 480 160 560V640L200 720L360 800H440L560 760L640 640V560L600 480L520 440L400 400L520 360L560 280V200L480 80L280 0H200L40 80L0 200L40 320L120 400ZM200 360 120 240V160L160 80L240 40L360 80L440 200V280L400 360L320 400ZM440 760 320 720 280 640V520L360 440L480 480L520 560V680Z" glyph-name="eight" horiz-adv-x="640" unicode="8" /><glyph d="M80 0 0 40V80L40 160H80L160 120V80L120 0ZM320 0 240 40V80L280 160H320L400 120V80L360 0ZM560 0 480 40V80L520 160H560L640 120V80L600 0Z" glyph-name="ellipsis" horiz-adv-x="640" unicode="&#8230;" /><glyph d="M80 320H720V280H80Z" glyph-name="emdash" horiz-adv-x="800" unicode="&#8212;" /><glyph d="M80 320H400V280H80Z" glyph-name="endash" horiz-adv-x="480" unicode="&#8211;" /><glyph d="M520 360H40V440H520ZM520 200H40V280H520Z" glyph-name="equal" horiz-adv-x="560" unicode="=" /><glyph d="M320 800H400L440 760L160 240H120L280 760ZM120 0 40 40V80L80 160H120L200 120V80L160 0Z" glyph-name="exclam" horiz-adv-x="240" unicode="!" /><glyph d="M-80 -320H-160L-200 -280L80 240H120L-40 -280ZM120 320 40 360V400L80 480H120L200 440V400L160 320Z" glyph-name="exclamdown" horiz-adv-x="240" unicode="&#161;" /><glyph d="M-240 -280 -120 -320 -40 -280 80 -160 360 480H520V520H360L520 760H560V680L600 640L680 680V800L560 840L440 800L360 720L280 560L200 520H120V480H240L-80 -240H-120V-160L-160 -120L-240 -160Z" glyph-name="f" horiz-adv-x="440" unicode="f" /><glyph d="M-240 -280 -120 -320 -40 -280 80 -160 360 480H520V520H360L520 760H560V680L600 640L680 680V800L560 840L440 800L360 720L280 560L200 520H120V480H240L-80 -240H-120V-160L-160 -120L-240 -160ZM120 -280 240 -320 320 -280 440 -160 720 480H880V520H720L880 760H920V680L960 640L1040 680V800L920 840L800 800L720 720L640 560L560 520H480V480H600L280 -240H240V-160L200 -120L120 -160Z" glyph-name="ff" horiz-adv-x="800" /><glyph d="M120 -280 240 -320 320 -280 440 -160 720 480H880V520H720L840 720L920 800L1040 760L1000 680L1120 640L1160 720L1120 800L920 840L800 800L720 720L640 560L560 520H480V480H600L280 -240H240V-160L200 -120L120 -160ZM880 520 1000 560 1080 520V480L840 80H880L1080 280L1120 240L920 40L840 0H760L720 40V80L960 480H880ZM-240 -280 -120 -320 -40 -280 80 -160 360 480H520V520H360L520 760H560V680L600 640L680 680V800L560 840L440 800L360 720L280 560L200 520H120V480H240L-80 -240H-120V-160L-160 -120L-240 -160Z" glyph-name="ffi" horiz-adv-x="1120" /><glyph d="M120 -280 240 -320 320 -280 440 -160 720 480H880V520H720L880 760H920H1080L760 80V40L840 0L960 40L1160 240L1120 280L920 80H880L1240 840H920L800 800L720 720L640 560L560 520H480V480H600L280 -240H240V-160L200 -120L120 -160ZM-240 -280 -120 -320 -40 -280 80 -160 360 480H520V520H360L520 760H560V680L600 640L680 680V800L560 840L440 800L360 720L280 560L200 520H120V480H240L-80 -240H-120V-160L-160 -120L-240 -160Z" glyph-name="ffl" horiz-adv-x="1160" /><glyph d="M-240 -280 -120 -320 -40 -280 80 -160 360 480H520V520H360L480 720L560 800L680 760L640 680L760 640L800 720L760 800L560 840L440 800L360 720L280 560L200 520H120V480H240L-80 -240H-120V-160L-160 -120L-240 -160ZM520 520 640 560 720 520V480L480 80H520L720 280L760 240L560 40L480 0H400L360 40V80L600 480H520Z" glyph-name="fi" horiz-adv-x="760" unicode="&#64257;" /><glyph d="M600 680H280L160 440L240 480L360 520L480 480L560 360V200L440 80L280 0H200L40 80L0 200L80 320H120V160L160 80L240 40L320 80L440 200V360L360 440H280L120 360L80 400L240 800H640Z" glyph-name="five" horiz-adv-x="640" unicode="5" /><glyph d="M-240 -280 -120 -320 -40 -280 80 -160 360 480H520V520H360L520 760H560H720L400 80V40L480 0L600 40L800 240L760 280L560 80H520L880 840H560L440 800L360 720L280 560L200 520H120V480H240L-80 -240H-120V-160L-160 -120L-240 -160Z" glyph-name="fl" horiz-adv-x="800" unicode="&#64258;" /><glyph d="M440 800 360 560 280 440 120 240 360 200 560 800H680L440 80L520 0H200L320 80L360 160H40L-40 240L200 440L280 560L320 800Z" glyph-name="four" horiz-adv-x="640" unicode="4" /><glyph d="M520 840H600L-80 -40H-160Z" glyph-name="fraction" horiz-adv-x="280" unicode="&#8260;" /><glyph d="M80 120V80L120 40L-80 -40L-120 -120L-80 -240L80 -320H160L320 -280L400 -160V-80L200 80V120H320L520 240L560 360L520 480H640V520H480L320 560L120 440L80 320L160 160ZM320 480H400L440 360V320L320 200H240L200 320V360ZM160 0 280 -120V-200L160 -280L40 -200L0 -120L40 -40Z" glyph-name="g" horiz-adv-x="600" unicode="g" /><glyph d="M-240 -280 -120 -320 -40 -280 80 -160 360 480 440 640 520 720H600L640 640V560L680 520H760L720 680L680 760L560 800L440 760L360 640L280 560L200 520H120V480H240L-80 -240H-120V-160L-160 -120L-240 -160ZM360 40V160L320 200L240 160V40L320 0H400L520 40L600 120V200L560 400V480L640 520H760L640 560L480 520L440 440V360L480 200V120L400 40Z" glyph-name="germandbls" horiz-adv-x="760" unicode="&#223;" /><glyph d="M320 640H280L160 760V800L200 840H240ZM240 560Z" glyph-name="grave" horiz-adv-x="840" unicode="`" /><glyph d="M80 40 40 120 360 320 40 520 80 600 400 359V280Z" glyph-name="greater" horiz-adv-x="480" unicode="&gt;" /><glyph d="M80 120 40 200 400 400 40 600 80 680 440 439V360ZM0 80H480V0H0Z" glyph-name="greaterequal" horiz-adv-x="520" unicode="&#8805;" /><glyph d="M40 320 320 600 360 520 120 320 240 120 200 40ZM240 280V360L480 560L520 480L280 320L400 160L360 80Z" glyph-name="guillemotleft" horiz-adv-x="520" unicode="&#171;" /><glyph d="M200 40 160 120 400 320 280 520 320 600 480 320ZM40 80 0 160 240 320 120 480 160 560 280 360V280Z" glyph-name="guillemotright" horiz-adv-x="520" unicode="&#187;" /><glyph d="M280 800 120 400 -80 40 -40 0H40L200 320L320 440L400 480L440 440L240 80V40L280 0H360L440 40L640 240L600 280L400 80H360L560 400V520L440 560L320 520L240 440L440 840H160V800Z" glyph-name="h" horiz-adv-x="640" unicode="h" /><glyph d="M40 320H280V240H40Z" glyph-name="hyphen" horiz-adv-x="320" unicode="-" /><glyph d="M0 320 200 520 320 560 400 520V480L160 80H200L400 280L440 240L240 40L160 0H80L40 40V80L280 480H240L40 280ZM440 640 360 680V720L400 800H440L520 760V720L480 640Z" glyph-name="i" horiz-adv-x="440" unicode="i" /><glyph d="M0 320 200 520 320 560 400 520V480L160 80H200L400 280L440 240L240 40L160 0H80L40 40V80L280 480H240L40 280ZM370 560ZM290 640 450 800H490L530 760V720L330 640ZM370 560Z" glyph-name="iacute" horiz-adv-x="440" unicode="&#237;" /><glyph d="M0 320 200 520 320 560 400 520V480L160 80H200L400 280L440 240L240 40L160 0H80L40 40V80L280 480H240L40 280ZM370 560ZM210 640 450 800H530V640H480V730L250 640ZM370 560Z" glyph-name="icircumflex" horiz-adv-x="440" unicode="&#238;" /><glyph d="M0 320 200 520 320 560 400 520V480L160 80H200L400 280L440 240L240 40L160 0H80L40 40V80L280 480H240L40 280ZM370 560ZM270 800H350V720L310 680H270L230 720V760ZM430 800H510V720L470 680H430L390 720V760ZM370 560Z" glyph-name="idieresis" horiz-adv-x="440" unicode="&#239;" /><glyph d="M0 320 200 520 320 560 400 520V480L160 80H200L400 280L440 240L240 40L160 0H80L40 40V80L280 480H240L40 280ZM370 560ZM450 640H410L290 760V800L330 840H370ZM370 560Z" glyph-name="igrave" horiz-adv-x="440" unicode="&#236;" /><glyph d="M440 640H480L520 720V760L440 800H400L360 720V680ZM0 320 40 280 240 480H280L40 -80L-40 -240H-80V-160L-120 -120L-200 -160V-280L-80 -320L0 -280L120 -160L400 480V520L360 560L200 520Z" glyph-name="j" horiz-adv-x="400" unicode="j" /><glyph d="M240 360H200L480 840H200V800H320L160 400L-40 40L0 0H80ZM200 200V80L240 0H320L440 80L600 240L560 280L400 120H320L280 160V240H360L480 280L600 400V480L480 560L360 520L240 360ZM280 320 400 480H440L480 400L440 320L360 280H280Z" glyph-name="k" horiz-adv-x="600" unicode="k" /><glyph d="M120 80H160L360 280L400 240L200 40L80 0L0 40V80L320 800H200V840H480Z" glyph-name="l" horiz-adv-x="400" unicode="l" /><glyph d="M80 280V359L400 600L440 520L120 320L440 120L400 40Z" glyph-name="less" horiz-adv-x="480" unicode="&lt;" /><glyph d="M80 360V439L440 680L480 600L120 400L480 200L440 120ZM40 80H520V0H40Z" glyph-name="lessequal" horiz-adv-x="520" unicode="&#8804;" /><glyph d="M40 360 240 0H320L520 360V440L320 800H240L40 440ZM120 400 280 760 440 400 280 40Z" glyph-name="lozenge" horiz-adv-x="560" unicode="&#9674;" /><glyph d="M640 360 720 440 800 480 840 440 640 80V40L680 0H760L840 40L1040 240L1000 280L800 80H760L960 400V520L840 560L720 520L640 440V520L560 560L440 520L320 400L360 480V520L320 560L200 520L0 320L40 280L240 480H280L40 40L80 0H160L320 320L440 440L520 480L560 440L360 40L400 0H480Z" glyph-name="m" horiz-adv-x="1040" unicode="m" /><glyph d="M40 360H520V280H40Z" glyph-name="minus" horiz-adv-x="560" unicode="&#8722;" /><glyph d="M81 160 281 320 80 480 161 560 321 360 481 560 561 480 361 320 561 160 481 80 321 280 161 80Z" glyph-name="multiply" horiz-adv-x="641" unicode="&#215;" /><glyph d="M0 320 40 280 240 480H280L40 40L80 0H160L320 320L440 440L520 480L560 440L360 80V40L400 0H480L560 40L760 240L720 280L520 80H480L680 400V520L560 560L440 520L320 400L360 480V520L320 560L200 520ZM510 560Z" glyph-name="n" horiz-adv-x="760" unicode="n" /><glyph d="M520 440 400 320 280 280 160 320 80 440V600L200 720L360 800H440L600 720L640 600V440L560 240L400 80L240 0H160L0 80V120L80 240H120V80L200 40L280 80L440 280ZM440 440 520 520V600L480 720L400 760L320 720L200 600V440L280 360H360Z" glyph-name="nine" horiz-adv-x="680" unicode="9" /><glyph d="M320 560H400L160 80H80ZM480 360H0V440H480ZM480 200H0V280H480Z" glyph-name="notequal" horiz-adv-x="520" unicode="&#8800;" /><glyph d="M0 320 40 280 240 480H280L40 40L80 0H160L320 320L440 440L520 480L560 440L360 80V40L400 0H480L560 40L760 240L720 280L520 80H480L680 400V520L560 560L440 520L320 400L360 480V520L320 560L200 520ZM510 560ZM350 800 430 720 510 800H590L670 720L630 680L550 760L470 680H390L310 760ZM510 560Z" glyph-name="ntilde" horiz-adv-x="760" unicode="&#241;" /><glyph d="M80 240H160L40 80H120L240 240H360L240 80H320L440 240H560L600 320H480L600 480H680L720 560H640L760 720H680L560 560H440L560 720H480L360 560H240L200 480H320L200 320H120ZM280 320 400 480H520L400 320Z" glyph-name="numbersign" horiz-adv-x="680" unicode="#" /><glyph d="M1120 760H1200L1240 720L1280 600L1160 400L1040 360H960L920 400L880 520L1000 720ZM1120 720 1080 680 1000 520V440L1040 400L1080 440L1160 600V680ZM1320 600ZM680 40 560 -40 360 760 160 80 240 0H-40L80 80L280 720L200 800H480L640 120L800 720L720 800H1000L880 720ZM600 800ZM880 280H1200V240H880Z" glyph-name="numero" horiz-adv-x="1240" /><glyph d="M360 480H440L480 360L400 200L280 80H200L160 200L240 360ZM200 0H280L480 120L600 360L520 520L360 560L160 440L40 200L120 40ZM430 560Z" glyph-name="o" horiz-adv-x="640" unicode="o" /><glyph d="M360 480H440L480 360L400 200L280 80H200L160 200L240 360ZM200 0H280L480 120L600 360L520 520L360 560L160 440L40 200L120 40ZM430 560ZM350 640 510 800H550L590 760V720L390 640ZM430 560Z" glyph-name="oacute" horiz-adv-x="640" unicode="&#243;" /><glyph d="M360 480H440L480 360L400 200L280 80H200L160 200L240 360ZM200 0H280L480 120L600 360L520 520L360 560L160 440L40 200L120 40ZM430 560ZM270 640 510 800H590V640H540V730L310 640ZM430 560Z" glyph-name="ocircumflex" horiz-adv-x="640" unicode="&#244;" /><glyph d="M360 480H440L480 360L400 200L280 80H200L160 200L240 360ZM200 0H280L480 120L600 360L520 520L360 560L160 440L40 200L120 40ZM430 560ZM330 800H410V720L370 680H330L290 720V760ZM490 800H570V720L530 680H490L450 720V760ZM430 560Z" glyph-name="odieresis" horiz-adv-x="640" unicode="&#246;" /><glyph d="M360 480H440L480 360L400 200L280 80H200L160 200L240 360ZM200 0H280L480 120L600 360L520 520L360 560L160 440L40 200L120 40ZM920 360V440L880 520L720 560L520 440L400 200L440 40L520 0H600L680 40L840 200L800 240L640 80H560L520 200L600 360L720 480H800V360L720 320H600V280H800ZM430 560ZM760 560Z" glyph-name="oe" horiz-adv-x="920" unicode="&#339;" /><glyph d="M360 480H440L480 360L400 200L280 80H200L160 200L240 360ZM200 0H280L480 120L600 360L520 520L360 560L160 440L40 200L120 40ZM430 560ZM510 640H470L350 760V800L390 840H430ZM430 560Z" glyph-name="ograve" horiz-adv-x="640" unicode="&#242;" /><glyph d="M360 760 440 800 200 80 280 0H-40L80 80L240 560H120V600L280 680Z" glyph-name="one" horiz-adv-x="480" unicode="1" /><glyph d="M320 800 200 480 280 400H0L120 480L200 680H120V720L240 760ZM480 280V160H440L400 240V280L440 360L520 400H640L720 320V240L640 160L400 40H520L640 120H680L640 0H320V40L520 160L600 240V320L560 360ZM680 840H760L80 -40H0Z" glyph-name="onehalf" horiz-adv-x="760" unicode="&#189;" /><glyph d="M360 800 240 480 320 400H40L160 480L240 680H160V720L280 760ZM640 400 600 280 480 200 560 160 680 400H760L600 80L680 0H400L520 80L560 120H400L360 160L520 280L560 400ZM720 840H800L120 -40H40Z" glyph-name="onequarter" horiz-adv-x="760" unicode="&#188;" /><glyph d="M560 640 40 -80H80L600 640ZM360 480H440L480 360L400 200L280 80H200L160 200L240 360ZM200 0H280L480 120L600 360L520 520L360 560L160 440L40 200L120 40ZM430 560Z" glyph-name="oslash" horiz-adv-x="560" unicode="&#248;" /><glyph d="M360 480H440L480 360L400 200L280 80H200L160 200L240 360ZM200 0H280L480 120L600 360L520 520L360 560L160 440L40 200L120 40ZM430 560ZM270 800 350 720 430 800H510L590 720L550 680L470 760L390 680H310L230 760ZM430 560Z" glyph-name="otilde" horiz-adv-x="640" unicode="&#245;" /><glyph d="M320 560 200 520 0 320 40 280 240 480H280L-80 -240H-160V-280H200V-240H40L200 120L240 0H400L600 160L680 360L640 520L560 560L440 520L360 440V520ZM440 440 520 480 560 360 480 200 360 80H280L240 160V200L320 320Z" glyph-name="p" horiz-adv-x="720" unicode="p" /><glyph d="M520 760H440L120 -320H80L280 360H200L120 400L80 520L120 680L240 760L360 800H560L240 -320H200Z" glyph-name="paragraph" horiz-adv-x="520" unicode="&#182;" /><glyph d="M240 -120 120 40 80 160V320L120 480L240 640L400 760L520 800L560 760L440 720L320 600L240 440L200 280V80L280 -80Z" glyph-name="parenleft" horiz-adv-x="480" unicode="(" /><glyph d="M240 800 360 640 400 520V360L360 200L240 40L80 -80L-40 -120L-80 -80L40 -40L160 80L240 240L280 400V600L200 760Z" glyph-name="parenright" horiz-adv-x="480" unicode=")" /><glyph d="M280 800H360L400 760L440 640L320 440L200 400H120L80 440L40 560L160 760ZM280 760 240 720 160 560V480L200 440L240 480L320 640V720ZM560 400H640L680 360L720 240L600 40L480 0H400L360 40L320 160L440 360ZM560 360 520 320 440 160V80L480 40L520 80L600 240V320ZM680 840H760L80 -40H0Z" glyph-name="percent" horiz-adv-x="760" unicode="%" /><glyph d="M80 0 0 40V80L40 160H80L160 120V80L120 0Z" glyph-name="period" horiz-adv-x="200" unicode="." /><glyph d="M280 800H360L400 760L440 640L320 440L200 400H120L80 440L40 560L160 760ZM280 760 240 720 160 560V480L200 440L240 480L320 640V720ZM560 400H640L680 360L720 240L600 40L480 0H400L360 40L320 160L440 360ZM560 360 520 320 440 160V80L480 40L520 80L600 240V320ZM960 400H1040L1080 360L1120 240L1000 40L880 0H800L760 40L720 160L840 360ZM960 360 920 320 840 160V80L880 40L920 80L1000 240V320ZM680 840H760L80 -40H0Z" glyph-name="perthousand" horiz-adv-x="1120" unicode="&#8240;" /><glyph d="M0 360H240V600H320V360H560V280H320V40H240V280H0Z" glyph-name="plus" horiz-adv-x="600" unicode="+" /><glyph d="M0 480H240V720H320V480H560V400H320V160H240V400H0ZM40 80H520V0H40Z" glyph-name="plusminus" horiz-adv-x="600" unicode="&#177;" /><glyph d="M240 80H200L160 200L240 360L400 480L480 440L520 400V360L400 200ZM320 -280 480 120 680 520 640 560 560 440 480 520 320 560 120 400 40 200 80 40 160 0H240L360 80L200 -280H80V-320H440V-280Z" glyph-name="q" horiz-adv-x="640" unicode="q" /><glyph d="M280 520 200 600V640L280 760L400 800H480L600 760L680 640V560L600 440L440 360L320 320L280 240H240L280 360L400 400L520 480L560 560V640L520 720L440 760L360 720L320 640V520ZM240 0 160 40V80L200 160H240L320 120V80L280 0Z" glyph-name="question" horiz-adv-x="520" unicode="?" /><glyph d="M240 -40 320 -120V-160L240 -280L120 -320H40L-80 -280L-160 -160V-80L-80 40L80 120L200 160L240 240H280L240 120L120 80L0 0L-40 -80V-160L0 -240L80 -280L160 -240L200 -160V-40ZM280 320 200 360V400L240 480H280L360 440V400L320 320Z" glyph-name="questiondown" horiz-adv-x="520" unicode="&#191;" /><glyph d="M200 600 240 760 280 800H320L360 760V720L200 560ZM360 600 400 760 440 800H480L520 760V720L360 560Z" glyph-name="quotedbl" horiz-adv-x="440" unicode="&quot;" /><glyph d="M80 40H120L40 -160L0 -200H-40L-80 -160V-120ZM240 40H280L200 -160L160 -200H120L80 -160V-120Z" glyph-name="quotedblbase" horiz-adv-x="440" unicode="&#8222;" /><glyph d="M280 800H320L240 600L200 560H160L120 600V640ZM440 800H480L400 600L360 560H320L280 600V640Z" glyph-name="quotedblleft" horiz-adv-x="440" unicode="&#8220;" /><glyph d="M120 560 200 760 240 800H280L320 760V720L160 560ZM280 560 360 760 400 800H440L480 760V720L320 560Z" glyph-name="quotedblright" horiz-adv-x="360" unicode="&#8221;" /><glyph d="M200 800H240L160 600L120 560H80L40 600V640Z" glyph-name="quoteleft" horiz-adv-x="200" unicode="&#8216;" /><glyph d="M120 560 200 760 240 800H280L320 760V720L160 560Z" glyph-name="quoteright" horiz-adv-x="200" unicode="&#8217;" /><glyph d="M80 40H120L40 -160L0 -200H-40L-80 -160V-120Z" glyph-name="quotesinglbase" horiz-adv-x="200" unicode="&#8218;" /><glyph d="M200 600 240 760 280 800H320L360 760V720L200 560Z" glyph-name="quotesingle" horiz-adv-x="280" unicode="'" /><glyph d="M0 320 40 280 240 480H280L40 40L80 0H160L320 320L440 400H560L600 520L520 560L440 520L320 360H280L360 480V520L320 560L200 520Z" glyph-name="r" horiz-adv-x="520" unicode="r" /><glyph d="M161 760H441L601 720L681 600L601 480L481 440L681 400V280L641 240L441 400L361 440V320L441 240H161L241 320V680ZM401 720 361 680V480H441L521 520L561 600L521 680L441 720ZM80 161H760V840H80ZM120 800H720V201H120Z" glyph-name="registered" horiz-adv-x="840" unicode="&#174;" /><glyph d="M220 760V720L300 640H340L420 720V760L340 840H300ZM260 720V760L300 800H340L380 760V720L340 680H300ZM320 560Z" glyph-name="ring" horiz-adv-x="840" unicode="&#730;" /><glyph d="M80 40V160L40 200L-40 160V40L40 0H120L240 40L320 120V200L280 400V480L360 520V400L400 360L480 400V520L360 560L200 520L160 440V360L200 200V120L120 40Z" glyph-name="s" horiz-adv-x="480" unicode="s" /><glyph d="M640 600H600L520 720H440L360 680V600L400 480L480 280V200L400 80L240 40L320 -80V-200L240 -280L80 -320L0 -280L-40 -320L-80 -120H-40L40 -240H120L200 -200V-120L160 0L80 200V280L160 400L320 440L240 560V680L320 760L480 800L560 760L600 800ZM200 320V160L240 80H280L360 160V320L320 400H280Z" glyph-name="section" horiz-adv-x="560" unicode="&#167;" /><glyph d="M240 360 160 400V440L200 520H240L320 480V440L280 360ZM120 -120H0V-80H80L120 0L40 40V80L80 160H120L200 120V40Z" glyph-name="semicolon" horiz-adv-x="320" unicode=";" /><glyph d="M160 0H0L200 360L400 600L560 760H280L200 720V560H160L80 680V800H600V760L440 560L280 320Z" glyph-name="seven" horiz-adv-x="520" unicode="7" /><glyph d="M160 360 280 480 400 520 520 480 600 360V200L480 80L320 0H240L80 80L40 200V360L120 560L280 720L440 800H520L680 720V680L600 560H560V720L480 760L400 720L240 520ZM240 360 160 280V200L200 80L280 40L360 80L480 200V360L400 440H320Z" glyph-name="six" horiz-adv-x="680" unicode="6" /><glyph d="M360 760H440L-40 -80H-120Z" glyph-name="slash" horiz-adv-x="320" unicode="/" /><glyph glyph-name="space" horiz-adv-x="320" unicode=" " /><glyph d="M80 400H240V440L160 600L240 720L440 800H520L680 720L720 640L640 560H560V680L520 760H480L360 680L320 600L360 440V400H520V360H360V320L240 160L40 40H400L560 240H600L520 -40L440 0H-80V40L160 200L240 320V360H80Z" glyph-name="sterling" horiz-adv-x="720" unicode="&#163;" /><glyph d="M120 80 320 480H440V520H320L400 680H320L280 560L200 520H120V480H200L0 80V40L40 0H120L200 40L400 240L360 280L160 80Z" glyph-name="t" horiz-adv-x="440" unicode="t" /><glyph d="M400 440 520 400 560 320V200L440 80L280 0H200L40 80L0 200L80 320H120V160L160 80L240 40L320 80L440 200V320L360 400H200L240 480H360L480 520L520 600L480 720L400 760L320 720L280 640V560H200L120 640L160 720L320 800H440L600 720L640 600L560 480Z" glyph-name="three" horiz-adv-x="680" unicode="3" /><glyph d="M640 400 600 280 480 200 560 160 680 400H760L600 80L680 0H400L520 80L560 120H400L360 160L520 280L560 400ZM320 640 400 600V520L320 440L200 400H160L80 440L40 520L120 560H160V480L200 440L280 480L320 560L280 600H200V640H280L320 720V760L280 800L200 760V680H160L120 720L160 800L280 840L400 800L440 720L400 680ZM720 840H800L120 -40H40Z" glyph-name="threequarters" horiz-adv-x="760" unicode="&#190;" /><glyph d="M240 800 320 720 400 800H480L560 720L520 680L440 760L360 680H280L200 760ZM400 560Z" glyph-name="tilde" horiz-adv-x="833" unicode="&#732;" /><glyph d="M200 640V480H160L80 600L120 720L280 800H400L560 720L600 600V520L440 320L280 200L80 80L320 40L480 240H520L440 -40L320 0H-80V40L280 280L400 400L480 560L440 720L320 760L240 720Z" glyph-name="two" horiz-adv-x="640" unicode="2" /><glyph d="M760 240 720 280 520 80H480L720 480L680 520H600L440 240L280 80H240L200 160L400 480V520L320 560L200 520L0 320L40 280L240 480H280L80 160L120 40L200 0H280L400 120V40L440 0H480L560 40ZM510 560Z" glyph-name="u" horiz-adv-x="760" unicode="u" /><glyph d="M760 240 720 280 520 80H480L720 480L680 520H600L440 240L280 80H240L200 160L400 480V520L320 560L200 520L0 320L40 280L240 480H280L80 160L120 40L200 0H280L400 120V40L440 0H480L560 40ZM510 560ZM430 640 590 800H630L670 760V720L470 640ZM510 560Z" glyph-name="uacute" horiz-adv-x="760" unicode="&#250;" /><glyph d="M760 240 720 280 520 80H480L720 480L680 520H600L440 240L280 80H240L200 160L400 480V520L320 560L200 520L0 320L40 280L240 480H280L80 160L120 40L200 0H280L400 120V40L440 0H480L560 40ZM510 560ZM350 640 590 800H670V640H620V730L390 640ZM510 560Z" glyph-name="ucircumflex" horiz-adv-x="760" unicode="&#251;" /><glyph d="M760 240 720 280 520 80H480L720 480L680 520H600L440 240L280 80H240L200 160L400 480V520L320 560L200 520L0 320L40 280L240 480H280L80 160L120 40L200 0H280L400 120V40L440 0H480L560 40ZM510 560ZM410 800H490V720L450 680H410L370 720V760ZM570 800H650V720L610 680H570L530 720V760ZM510 560Z" glyph-name="udieresis" horiz-adv-x="760" unicode="&#252;" /><glyph d="M760 240 720 280 520 80H480L720 480L680 520H600L440 240L280 80H240L200 160L400 480V520L320 560L200 520L0 320L40 280L240 480H280L80 160L120 40L200 0H280L400 120V40L440 0H480L560 40ZM510 560ZM590 640H550L430 760V800L470 840H510ZM510 560Z" glyph-name="ugrave" horiz-adv-x="760" unicode="&#249;" /><glyph d="M80 -80H720V-120H80Z" glyph-name="underscore" horiz-adv-x="800" unicode="_" /><glyph d="M520 400 480 280 320 120 200 80H160L400 440V520L320 560L200 520L0 320L40 280L240 480H280L40 80V40L80 0H160L360 80L520 240L600 400V480L560 520H480L440 440L480 400Z" glyph-name="v" horiz-adv-x="600" unicode="v" /><glyph d="M760 0H1080L1000 80L1040 240L1080 360L1120 400H1280L1360 320V520L1280 440H1120V480L1200 720L1240 760H1440L1560 600H1600L1560 840L1400 800H1000L1080 720L1000 480L960 440H560L760 720L880 800H600L680 720L280 160V720L360 800H80L160 720V-40L240 0L520 400H680L480 -280L360 -360H680L600 -280L800 400H960V360L880 80Z" glyph-name="velvetyne" horiz-adv-x="1558" /><glyph d="M800 400 760 280 600 120 520 80H480L640 480L600 520H520L440 280L240 80H200L360 480V520L280 560L160 520L0 320L40 280L200 480H240L80 80V40L120 0H200L280 40L400 160L360 40L400 0H480L640 80L800 240L880 400V480L840 520H760L720 440L760 400Z" glyph-name="w" horiz-adv-x="880" unicode="w" /><glyph d="M560 560 360 320V280L640 480ZM40 -40 280 240V40L320 0H400L560 160L520 200L440 120H400L320 240V520L280 560L200 520L0 320L40 280L160 400H200L280 280L-40 40Z" glyph-name="x" horiz-adv-x="600" unicode="x" /><glyph d="M480 320 280 120 240 80H200L400 480V520L320 560L200 520L0 320L40 280L240 480H280L80 80V40L120 0H200L280 40L440 200L280 -80L200 -200L160 -240H120V-160L80 -120L0 -160V-280L80 -320H120L240 -240L360 -80L720 480L680 520H600ZM520 560Z" glyph-name="y" horiz-adv-x="680" unicode="y" /><glyph d="M480 320 280 120 240 80H200L400 480V520L320 560L200 520L0 320L40 280L240 480H280L80 80V40L120 0H200L280 40L440 200L280 -80L200 -200L160 -240H120V-160L80 -120L0 -160V-280L80 -320H120L240 -240L360 -80L720 480L680 520H600ZM520 560ZM440 640 600 800H640L680 760V720L480 640ZM520 560Z" glyph-name="yacute" horiz-adv-x="680" unicode="&#253;" /><glyph d="M480 320 280 120 240 80H200L400 480V520L320 560L200 520L0 320L40 280L240 480H280L80 80V40L120 0H200L280 40L440 200L280 -80L200 -200L160 -240H120V-160L80 -120L0 -160V-280L80 -320H120L240 -240L360 -80L720 480L680 520H600ZM520 560ZM420 800H500V720L460 680H420L380 720V760ZM580 800H660V720L620 680H580L540 720V760ZM520 560Z" glyph-name="ydieresis" horiz-adv-x="680" unicode="&#255;" /><glyph d="M160 400V360H600V400H480L760 720L880 800H600L680 720L440 440H400V520L360 720L440 800H160L240 720L320 400ZM120 280V240H280L240 80L120 0H440L360 80L400 240H600V280Z" glyph-name="yen" horiz-adv-x="760" unicode="&#165;" /><glyph d="M400 160V40L320 0H120L40 80L-40 0L-80 40L360 400L160 440L120 400V320H80V520L280 560L440 480L520 560L560 520L120 120L280 80V160L360 200Z" glyph-name="z" horiz-adv-x="520" unicode="z" /><glyph d="M520 560 480 720 400 760 320 720 240 560 160 240 200 80 280 40 360 80 440 240ZM480 80 320 0H240L80 80L40 200V400L120 600L200 720L360 800H440L600 720L640 600V400L560 200Z" glyph-name="zero" horiz-adv-x="680" unicode="0" /></font>
</defs>
</svg>
