<?xml version="1.0" standalone="no"?>
<!DOCTYPE svg PUBLIC "-//W3C//DTD SVG 1.1//EN" "http://www.w3.org/Graphics/SVG/1.1/DTD/svg11.dtd" >
<svg xmlns="http://www.w3.org/2000/svg" xmlns:xlink="http://www.w3.org/1999/xlink" version="1.1">
<metadata>
Created by FontForge 20170812 at Mon May  9 15:25:22 2022
 By www-data
</metadata>
<defs>
<font id="QuiltRegular" horiz-adv-x="0" >
  <font-face 
    font-family="Quilt"
    font-weight="400"
    font-stretch="normal"
    units-per-em="1000"
    panose-1="0 0 0 0 0 0 0 0 0 0"
    ascent="800"
    descent="-200"
    x-height="352.022"
    cap-height="1028.74"
    bbox="-407.327 -1046.85 2711.05 1456.19"
    underline-thickness="50"
    underline-position="-100"
    unicode-range="U+000A-20AC"
  />
<missing-glyph horiz-adv-x="527" 
d="M50 700h427v-700h-427v700zM78 680l185 -309l186 309h-371zM251 350l-180 300v-601zM264 329l-185 -308h370zM276 350l181 -303v605z" />
    <glyph glyph-name=".notdef" horiz-adv-x="527" 
d="M50 700h427v-700h-427v700zM78 680l185 -309l186 309h-371zM251 350l-180 300v-601zM264 329l-185 -308h370zM276 350l181 -303v605z" />
    <glyph glyph-name=".null" 
 />
    <glyph glyph-name=".null" 
 />
    <glyph glyph-name="LF" unicode="&#xa;" 
 />
    <glyph glyph-name="controlCR" unicode="&#xd;" 
 />
    <glyph glyph-name="space" unicode=" " horiz-adv-x="317" 
 />
    <glyph glyph-name="exclam" unicode="!" horiz-adv-x="230" 
d="M177.88 378.416c-0.287109 -59.7861 -1.21777 -119.55 -2.2041 -179.331c-0.946289 -57.2676 3.96094 -120.204 -11.3867 -175.771c-8.11328 -29.3721 -89.0625 -29.4453 -97.2891 0c-15.5059 55.5273 -10.7559 118.509 -11.8711 175.771
c-1.16113 59.7812 -2.25977 119.545 -2.72168 179.331c-0.917969 119.398 -5.22852 239.366 0.546875 358.663c2.34961 48.5176 120.863 48.2861 123.343 -0.000976562c6.11914 -119.28 2.15234 -239.265 1.58301 -358.663zM62.1709 -112.497
c3.67383 42.8721 110.139 42.1631 108.814 0.000976562c-0.704102 -22.2334 -2.12988 -44.5059 -3.46484 -66.7168c-1.50391 -24.9883 -1.01367 -43.959 -25.0273 -56.7041c-16.79 -8.91406 -35.8057 -7.30273 -52.6641 -0.000976562
c-15.9619 6.91309 -21.0605 15.207 -24.374 31.6816c-5.96094 29.6201 -5.85938 61.7422 -3.28418 91.7393z" />
    <glyph glyph-name="quotedbl" unicode="&#x22;" horiz-adv-x="332" 
d="M54.6484 845.45c5.09375 40.3027 105.421 38.5 101.77 0c-5.40918 -57.1104 -9.47754 -116.164 -8.68262 -173.5c0.360352 -26.1436 -50.3438 -24.5713 -64.7002 -15.2744c-26.792 17.3486 -28.3135 51.5039 -31.1982 81.2031
c-3.4873 35.9639 -1.70703 71.8096 2.81152 107.571zM177.417 842.346c5.56152 41.9082 109.386 38.0039 103.971 0.00585938c-5.03125 -35.3223 -6.93555 -70.5938 -7.08203 -106.231c-0.140625 -33.8174 4.91309 -64.1357 -19.4102 -90.375
c-7.22363 -7.78711 -24.8428 -7.79883 -33.2549 -2.44043c-33.1133 21.0781 -40.415 49.8701 -45.6943 87.502c-5.2002 37.0576 -3.43652 74.5771 1.4707 111.539z" />
    <glyph glyph-name="quotedbl" unicode="&#x201d;" horiz-adv-x="332" 
d="M54.6484 845.45c5.09375 40.3027 105.421 38.5 101.77 0c-5.40918 -57.1104 -9.47754 -116.164 -8.68262 -173.5c0.360352 -26.1436 -50.3438 -24.5713 -64.7002 -15.2744c-26.792 17.3486 -28.3135 51.5039 -31.1982 81.2031
c-3.4873 35.9639 -1.70703 71.8096 2.81152 107.571zM177.417 842.346c5.56152 41.9082 109.386 38.0039 103.971 0.00585938c-5.03125 -35.3223 -6.93555 -70.5938 -7.08203 -106.231c-0.140625 -33.8174 4.91309 -64.1357 -19.4102 -90.375
c-7.22363 -7.78711 -24.8428 -7.79883 -33.2549 -2.44043c-33.1133 21.0781 -40.415 49.8701 -45.6943 87.502c-5.2002 37.0576 -3.43652 74.5771 1.4707 111.539z" />
    <glyph glyph-name="quotedbl" unicode="&#x201c;" horiz-adv-x="332" 
d="M54.6484 845.45c5.09375 40.3027 105.421 38.5 101.77 0c-5.40918 -57.1104 -9.47754 -116.164 -8.68262 -173.5c0.360352 -26.1436 -50.3438 -24.5713 -64.7002 -15.2744c-26.792 17.3486 -28.3135 51.5039 -31.1982 81.2031
c-3.4873 35.9639 -1.70703 71.8096 2.81152 107.571zM177.417 842.346c5.56152 41.9082 109.386 38.0039 103.971 0.00585938c-5.03125 -35.3223 -6.93555 -70.5938 -7.08203 -106.231c-0.140625 -33.8174 4.91309 -64.1357 -19.4102 -90.375
c-7.22363 -7.78711 -24.8428 -7.79883 -33.2549 -2.44043c-33.1133 21.0781 -40.415 49.8701 -45.6943 87.502c-5.2002 37.0576 -3.43652 74.5771 1.4707 111.539z" />
    <glyph glyph-name="numbersign" unicode="#" horiz-adv-x="691" 
d="M639.521 809.396c-21.4668 -84.2451 -52.2725 -166.153 -78.0781 -249.182c-10.1025 -32.499 -19.9404 -65.083 -29.6318 -97.7178c24.3008 -0.258789 48.5967 -0.704102 72.8975 -1.50977c26.4248 -0.873047 26.543 -25.7822 -0.000976562 -24.8867
c-26.7637 0.907227 -53.5273 1.35254 -80.2852 1.58887c-12.0352 -41.0186 -23.7373 -82.1328 -35.1133 -123.337c-4.78906 -17.3428 -9.41504 -34.7305 -14.1367 -52.0898c27.71 0.585938 55.4141 1.17188 83.1182 1.76953c26.9492 0.580078 26.5889 -24.583 0 -25.1406
c-29.9971 -0.625 -59.9893 -1.27246 -89.9814 -1.91504c-15.3203 -56.7158 -30.4482 -113.471 -45.2441 -170.344c-21.7314 -83.5352 -36.8545 -174.846 -75.4834 -252.448c-10.8799 -21.8555 -72.3057 -23.54 -74.4463 5.74219
c-6.15234 84.0479 19.7881 173.708 37.8125 255.355c11.7422 53.2051 24.4424 106.286 37.8467 159.165c-18.7119 -0.394531 -37.4238 -0.777344 -56.1357 -1.15527c-13.1904 -49.2051 -26.2119 -98.4551 -39.7061 -147.581
c-22.543 -82.0762 -40.3359 -168.35 -75.7139 -246.048c-11.3027 -24.8252 -88.6797 -27.3945 -86.9834 6.70996c4.23145 85.2822 30.1719 170.626 49.7002 253.429c10.3389 43.8467 21.3652 87.5527 32.6904 131.186c-34.5898 -0.625 -69.1797 -1.2334 -103.77 -1.7627
c-25.3662 -0.382812 -24.9609 22.9551 -0.000976562 23.6367c36.7471 1.00879 73.4893 1.93262 110.236 2.82812c7.88281 30.0479 15.8389 60.0674 23.8506 90.0596c7.17773 26.8701 14.3789 53.8311 21.6699 80.8193c-29.8623 -2.46191 -59.7021 -5.2002 -89.502 -8.46289
c-20.3623 -2.22559 -38.6572 19.5059 -11.0264 22.791c35.7275 4.24805 71.5117 7.76953 107.335 10.7725c35.7168 131.106 74.2783 262.54 125.044 387.82c15.8154 39.0234 126.12 31.4395 111.719 -17.5576c-35.6377 -121.224 -74.7178 -241.314 -111.302 -362.239
c18.0244 0.789062 36.0605 1.38672 54.1016 1.86523c11.3701 39.0234 23.0107 77.9688 34.9785 116.812c25.6592 83.293 49.8086 168.191 84.793 248.115c16.4014 37.4688 121.11 31.4121 108.748 -17.0889zM373.067 327.147
c9.96191 36.5332 20.2256 72.9844 30.7002 109.377c-18.1367 -0.518555 -36.2627 -1.16699 -54.3887 -1.98438c-10.1084 -33.8008 -20.0527 -67.6631 -29.5801 -101.667c-6.93555 -24.7578 -13.6914 -49.5664 -20.3848 -74.3857
c18.5879 0.411133 37.1758 0.816406 55.7637 1.2168c5.82617 22.5264 11.7764 45.0186 17.8896 67.4434z" />
    <glyph glyph-name="dollar" unicode="$" horiz-adv-x="556" 
d="M421.836 316.68c80.4199 -109.978 137.547 -281.466 5.52734 -377.825c-30.2344 -22.0703 -64.4121 -34.917 -99.4355 -39.5938c4.50781 -59.5049 10.1816 -118.953 17.2979 -178.334c1.93262 -16.1367 -41.2158 -17.2578 -43.2275 0
c-6.8623 58.8174 -12.2998 117.702 -16.6045 176.638c-78.791 4.00586 -155.633 47.2158 -195.98 119.155c-62.0625 110.653 -27.918 282.345 117.348 297.36c21.0273 2.1748 39.874 -20.4697 11.375 -23.5176c-89.5977 -9.57812 -124.965 -107.228 -113.532 -185.979
c10.8799 -74.9541 64.1641 -155.965 142.403 -172.327c12.1816 -2.54688 24.3242 -3.34668 36.1621 -2.58594c-8.66602 131.603 -11.6299 263.447 -11.0381 395.354c-69.0947 76.2666 -148.331 144.899 -196.206 236.053c-67.9844 129.422 3.61133 279.212 146.387 309.182
c22.2051 4.66504 44.7881 5.85352 66.8975 3.63965c1.36914 28.9102 2.76074 57.8145 4.1582 86.7021c0.754883 15.5957 39.9473 15.0947 39.2656 0c-1.41992 -31.4795 -2.83398 -62.9814 -4.21973 -94.4834c23.8613 -7.15039 46.4834 -18.5879 66.6094 -34.4482
c55.0537 -43.4014 80.1885 -110.118 92.3418 -177.105c3.11621 -17.1621 -43.3447 -18.4746 -47.1875 0.000976562c-12.8857 61.9893 -48.9912 149.091 -113.285 176.547c-5.58887 -129.76 -10.418 -259.666 -12.4521 -389.55
c37.2773 -40.3701 74.8809 -80.4141 107.396 -124.881zM274.446 485.7c2.77734 118.04 7.68066 236.068 13.1631 353.968c-3.2793 0.0957031 -6.59766 0.0791016 -9.98438 -0.128906c-76.4414 -4.64844 -115.021 -89.5303 -110.215 -157.323
c5.24023 -73.9736 55.1943 -137.163 102.044 -190.898c1.64551 -1.8877 3.33594 -3.74121 4.99219 -5.61719zM398.01 19.3018c21.168 65.832 -12.0137 144.11 -45.3916 200.263c-11.7754 19.8105 -24.96 38.5898 -39.085 56.665
c0.625 -112.333 4.02832 -224.587 11.5166 -336.66c33.626 14.0693 60.8457 42.0557 72.96 79.7324z" />
    <glyph glyph-name="percent" unicode="%" horiz-adv-x="810" 
d="M721.482 798.898c13.1113 -3.12695 50.0127 -20.3535 35.1943 -40.8799c-52.3262 -72.5029 -108.58 -142.144 -161.188 -214.478c-52.7832 -72.5713 -103.876 -146.309 -154.777 -220.209c-51.0811 -74.165 -100.478 -149.452 -151.277 -223.804
c-51.25 -75.0166 -100.416 -151.396 -159.797 -220.333c-15.3203 -17.7822 -92.7031 -15.3535 -77.7217 18.6777c35.373 80.3516 84.0146 154.026 130.284 228.445c47.1426 75.8271 96.7021 150.297 146.381 224.484c49.8076 74.3848 101.272 147.722 153.796 220.208
c52.4502 72.3789 104.647 146.1 163.194 213.712c16.7676 19.3594 53.459 19.5283 75.9121 14.1758zM187.288 421.82c-92.7021 16.8135 -97.873 103.793 -84.3115 179.941c-46.5967 48.4834 -35.7168 131.715 11.9844 183.703
c51.166 55.7578 140.562 49.3174 192.747 -1.75879c61.2285 -59.9277 65.6455 -159.685 47.4463 -238.121c-18.8926 -81.417 -80.082 -139.688 -167.866 -123.765zM165.575 785.764c-36.0146 -27.4512 -59.9834 -88.4785 -48.4502 -135.497
c23.0898 22.9268 104.281 14.2275 97.0801 -17.0205c-9.33008 -40.5 -22.0303 -84.8652 -15.2354 -126.802c4.49609 -27.7666 16.7793 -53.4482 46.8447 -36.2129c63.2119 36.2295 81.5234 132.06 72.1367 197.853c-9.13867 64.0801 -74.8076 176.796 -152.376 117.68z
M505.622 287.914c51.1719 55.7637 140.562 49.3193 192.748 -1.75098c61.2285 -59.9277 65.6455 -159.685 47.4463 -238.121c-18.8916 -81.417 -80.0811 -139.693 -167.865 -123.771c-92.6973 16.8135 -97.875 103.791 -84.3135 179.945
c-46.5967 48.4834 -35.7168 131.709 11.9844 183.697zM636.481 -27.3174c63.2119 36.2344 81.5215 132.064 72.1348 197.852c-9.13867 64.0859 -74.8076 176.796 -152.376 117.68c-36.0146 -27.4512 -59.9775 -88.4775 -48.4492 -135.496
c23.084 22.9268 104.281 14.2275 97.0801 -17.0205c-9.33008 -40.5 -22.0352 -84.8652 -15.2344 -126.802c4.49609 -27.7666 16.7793 -53.4482 46.8447 -36.2129z" />
    <glyph glyph-name="ampersand" unicode="&#x26;" horiz-adv-x="847" 
d="M776.098 -73.1133c13.9844 -4.09082 26.6172 -16.5049 17.5742 -30.5742c-9.89355 -15.4043 -34.792 -15.8213 -50.6807 -14.1816c-101.56 10.4629 -202.421 39.8965 -294.695 86.0703c-21.4727 -25.6426 -46.8213 -48.2363 -76.9766 -66.4355
c-88.792 -53.583 -225.46 -57.2002 -290.126 36.2236c-64.1133 92.6289 11.168 193.405 74.1543 262.506c2.49609 2.73828 5.05371 5.41992 7.58398 8.12988c-14.8809 20.9824 -28.6855 42.8047 -41.166 65.5225c-98.4443 179.213 -116.373 468.347 80.4082 591.277
c82.6963 51.6621 203.43 71.625 288.188 13.6807c87.8799 -60.0742 84.3076 -188.646 52.7217 -278.227c-37.0625 -105.115 -114.608 -188.955 -194.296 -263.972c-26.9775 -25.3945 -54.4336 -50.2988 -81.4053 -75.7041
c50.6416 -81.4453 117.566 -145.108 193.924 -195.835c18.5254 40.1846 31.7266 83.2764 41.4854 125.331c4.20312 18.1035 49.0752 15.6465 45.4297 0c-11.7812 -50.6133 -27.8223 -101.419 -51.2559 -147.711c86.1045 -51.0527 182.092 -87.6934 279.133 -116.102z
M284.656 845.014c-163.532 -129.923 -124.58 -386.761 -35.624 -552.187c51.2842 47.3291 103.521 93.6943 148.968 146.753c70.5195 82.3301 128.739 187.845 118.169 299.704c-5.6123 59.3525 -34.6689 117.224 -95.3516 135.146
c-47.5039 14.0352 -97.9316 0.952148 -136.161 -29.417zM320.329 -90.5312c37.9023 18.7061 68.54 45.458 93.4951 77.0674c-87.6709 49.0811 -166.236 113.775 -228.4 192.121c-27.541 -30.4258 -53.0195 -63.3418 -69.5449 -100.309
c-24.1094 -53.9326 -17.6523 -114.575 28.1895 -154.878c49.0811 -43.1484 120.063 -41.7285 176.261 -14.002z" />
    <glyph glyph-name="quotesingle" unicode="'" horiz-adv-x="207" 
d="M149.815 771.054c-1.11523 -28.0312 -9.10059 -70.6328 3.39648 -96.5283c16.6943 -34.5615 -65.8828 -39.3848 -82.1436 -19.7373c-22.7686 27.5127 -20.9434 65.5391 -21.0615 99.8135c-0.140625 40.3926 1.5498 80.6279 9.62402 120.271
c7.44336 36.5391 99.5088 38.6631 97.3682 0c-1.91602 -34.6406 -5.79785 -69.1455 -7.18359 -103.819z" />
    <glyph glyph-name="quotesingle" unicode="&#x2019;" horiz-adv-x="207" 
d="M149.815 771.054c-1.11523 -28.0312 -9.10059 -70.6328 3.39648 -96.5283c16.6943 -34.5615 -65.8828 -39.3848 -82.1436 -19.7373c-22.7686 27.5127 -20.9434 65.5391 -21.0615 99.8135c-0.140625 40.3926 1.5498 80.6279 9.62402 120.271
c7.44336 36.5391 99.5088 38.6631 97.3682 0c-1.91602 -34.6406 -5.79785 -69.1455 -7.18359 -103.819z" />
    <glyph glyph-name="quotesingle" unicode="&#x2018;" horiz-adv-x="207" 
d="M149.815 771.054c-1.11523 -28.0312 -9.10059 -70.6328 3.39648 -96.5283c16.6943 -34.5615 -65.8828 -39.3848 -82.1436 -19.7373c-22.7686 27.5127 -20.9434 65.5391 -21.0615 99.8135c-0.140625 40.3926 1.5498 80.6279 9.62402 120.271
c7.44336 36.5391 99.5088 38.6631 97.3682 0c-1.91602 -34.6406 -5.79785 -69.1455 -7.18359 -103.819z" />
    <glyph glyph-name="parenleft" unicode="(" horiz-adv-x="537" 
d="M438.754 -140.833c7.79199 16.1592 55.5361 11.9014 47.1973 -7.40234c-43.9541 -101.836 -178.171 -101.881 -263.932 -59.877c-106.405 52.1123 -141.856 168.096 -158.906 276.975c-18.9258 120.847 -14.8408 243.226 -3.61719 364.579
c10.3564 111.927 27.3164 227.883 76.1777 330.327c39.4297 82.668 119.59 180.836 223.342 149.757c25.0674 -7.51074 -5.14941 -23.0049 -19.8154 -19.3252c-60.2881 15.1279 -84.1777 -60.6152 -100.444 -102.755c-17.9678 -46.5566 -30.7129 -95.0859 -39.1758 -144.218
c-15.2236 -88.3701 -21.1455 -177.94 -24.3799 -267.487c-3.42578 -94.7705 -3.3584 -190.312 9.92188 -284.379c11.7588 -83.2705 30.7578 -174.068 83.0674 -242.284c19.8896 -25.9355 46.1631 -52.1748 80.8203 -53.1553
c38.9678 -1.10449 73.4385 25.4336 89.7441 59.2451z" />
    <glyph glyph-name="parenright" unicode=")" horiz-adv-x="537" 
d="M481.957 379.739c9.09375 -121.19 7.89551 -244.345 -17.9326 -363.579c-23.2363 -107.284 -76.707 -205.345 -187.648 -239.715c-80.4932 -24.9326 -188.048 -11.2012 -225.393 75.3145c-8.38965 19.4385 39.4688 23.4443 47.1992 7.41406
c18.2051 -37.7617 60.9814 -67.4941 104.315 -57.3809c37.8799 8.84082 65.1562 46.3262 83.7832 77.9297c44.6582 75.7539 60.9922 166.523 70.1367 252.904c9.98438 94.3818 8.32812 190.048 3.70215 284.717c-4.40039 89.9531 -10.8066 180.458 -30.1885 268.619
c-9.28027 42.2188 -23.0508 83.1924 -39.002 123.298c-15.4941 38.9502 -39.4629 98.415 -93.1982 84.9316c-14.7061 -3.68457 -44.8613 11.8213 -19.8164 19.3262c121.224 36.3076 204.911 -96.5566 240.853 -191.535c41.3057 -109.155 54.5127 -226.599 63.1895 -342.244z
" />
    <glyph glyph-name="asterisk" unicode="*" horiz-adv-x="441" 
d="M371.816 677.742c26.4199 0.636719 26.0498 -24.0322 -0.00878906 -24.6348c-38.793 -0.890625 -77.5742 -2.09668 -116.35 -3.46582c29.1016 -26.9385 59.2061 -52.8115 90.3809 -77.501c14.8018 -11.7256 -23.6758 -20.2676 -34.6631 -11.5508
c-23.6758 18.7959 -46.6865 38.3301 -69.1621 58.4277c0.738281 -37.001 2.56348 -74.0078 5.31836 -111.043c1.18848 -15.9395 -39.543 -16.2832 -41.4639 0c-4.27637 36.2012 -6.76074 72.5205 -7.77539 108.885c-22.3682 -25.5918 -43.6553 -52.1689 -63.5674 -79.8789
c-8.58105 -11.9395 -46.6748 -6.41211 -37.8623 5.9502c25.9238 36.3584 53.9326 70.9141 83.7607 103.769c-37.0068 -1.59473 -74.0078 -3.33008 -110.997 -5.3584c-26.2285 -1.43066 -25.5693 22.9717 -0.000976562 24.3916
c38.9336 2.16895 77.8789 4.0166 116.829 5.70703c-31.5859 31.2031 -61.9102 63.7021 -90.7695 97.6152c-12.875 15.1279 25.1406 22.1426 34.2852 11.4199c22.1035 -25.9121 45.0801 -50.9795 68.7842 -75.3086c0.991211 27.8506 2.66992 55.6846 5.12695 83.4678
c1.54395 17.4668 45.126 16.4697 43.667 0c-2.32129 -26.2285 -3.82031 -52.4512 -4.72168 -78.668c21.2412 19.9062 43.21 39.0967 66.0967 57.3408c11.2402 8.96387 49.9033 0.0898438 35.0459 -11.6748c-32.2119 -25.5068 -62.8516 -52.7832 -91.9424 -81.5801
c39.9873 1.45898 79.9854 2.73828 119.989 3.69043z" />
    <glyph glyph-name="plus" unicode="+" horiz-adv-x="454" 
d="M384.122 387.836c26.4482 -0.794922 26.5332 -25.7598 -0.00488281 -24.8867c-29.2422 0.958008 -58.3604 0.974609 -87.4229 0.326172c0.30957 -9.5498 0.647461 -19.1113 1.0752 -28.6611c1.98926 -44.1846 4.38379 -88.291 7.75293 -132.392
c3.24512 -42.4385 10.4404 -86.7139 -7.12793 -126.662c-9.40332 -21.3828 -58.4678 -22.4473 -71.6865 -5.34082c-28.668 37.0967 -34.9844 80.8311 -41.2607 126.503c-6.02344 43.8301 -10.2549 88.1953 -12.6777 132.363
c-0.496094 9.04883 -0.907227 18.1035 -1.30762 27.1523c-32.5781 -2.83984 -65.1504 -6.31055 -97.7793 -10.4014c-19.2188 -2.41113 -36.5391 16.9316 -10.4404 21.5801c35.4688 6.31641 71.2754 11.0264 107.245 14.418
c-2.45117 72.7568 -1.63965 145.542 3.67969 218.203c3.61133 49.3232 126.61 48.0723 124.661 0c-2.85645 -70.4521 -4.29883 -141.012 -2.77734 -211.515c29.4062 0.445312 58.7949 0.197266 88.0713 -0.6875z" />
    <glyph glyph-name="comma" unicode="," horiz-adv-x="272" 
d="M113.897 120.181c17.8389 36.6123 125.433 25.4023 105.774 -16.625c-15.6182 -33.3896 -30.8652 -66.9482 -46.501 -100.332c-15.2012 -32.46 -27.9971 -68.9482 -58.6201 -89.3506c-15.3252 -10.21 -49.6104 -9.09473 -59.3018 8.92383
c-14.7793 27.4844 5.33008 69.3535 15.1787 96.5732c12.4971 34.5332 27.3945 67.8271 43.4697 100.811z" />
    <glyph glyph-name="hyphen" unicode="-" horiz-adv-x="440" 
d="M340.025 324.472c15.3203 0.963867 50.2891 -7.09375 49.7871 -28.375c-0.541016 -22.7402 -32.9502 -27.4111 -49.7861 -28.3799c-86.9219 -5.02051 -174.976 -10.5928 -261.897 -3.52734c-37.9141 3.08203 -37.0859 41.8525 0 45.7793
c86.8145 9.18359 174.772 9.04883 261.896 14.5029z" />
    <glyph glyph-name="period" unicode="." horiz-adv-x="197" 
d="M103.896 49.8975c12.8184 0 44.7803 -5.68555 42.96 -24.4873c-2.56934 -26.4648 -5.85938 -52.7207 -9.50488 -79.0615c-2.68164 -19.3936 -27.2305 -24.8643 -43.6211 -24.8643c-12.7109 0 -45.875 5.84277 -43.6211 24.8643
c3.13867 26.459 6.60938 52.749 10.8242 79.0615c3.05371 19.0723 26.4707 24.4873 42.9629 24.4873z" />
    <glyph glyph-name="slash" unicode="/" horiz-adv-x="552" 
d="M381.744 801.924c17.5508 41.3955 137.034 31.5469 118.509 -18.6221c-119.354 -323.245 -243.181 -644.394 -343.721 -974.169c-10.6719 -34.9951 -102.698 -30.4365 -106.006 8.18164c-3.57812 41.7617 11.7812 85.1182 24.0361 124.548
c12.4297 39.998 25.0508 79.9404 37.8574 119.82c26.752 83.3047 55.1494 166.068 84.1387 248.618c57.9609 165.054 116.874 330.53 185.186 491.623z" />
    <glyph glyph-name="zero" unicode="0" horiz-adv-x="565" 
d="M111.215 -20.9922c-49.8809 80.4814 -57.0908 184.335 -60.2578 276.542c-3.57227 103.926 2.82812 207.43 20.0527 309.976c0.878906 5.24023 3.21191 9.79883 6.55859 13.749c-14.9932 70.1875 3.71875 147.356 48.3877 203.627
c46.6748 58.7891 122.243 75.8955 190.707 45.8301c81.5918 -35.8291 117.189 -121.117 145.254 -199.892c62.8174 -176.345 71.4492 -372.174 15.1504 -551.646c-24.2275 -77.2363 -69.5 -153.543 -149.818 -181.777c-85.9189 -30.2061 -169.832 9.03711 -216.034 83.5908z
M163.96 770.234c-36.9111 -47.374 -54.5332 -112.613 -46.7129 -172.924c33.2939 4.41699 71.585 -6.89648 67.8604 -31.7725c-4.2373 -28.3408 -7.86621 -56.7949 -10.9541 -85.3223c29.2871 -30.9893 67.4316 -51.5605 106.974 -38.2295
c15.1846 5.12207 44.1396 -10.9023 19.8164 -19.3262c-45.3623 -15.7031 -91.75 -4.29395 -130.396 21.0439c-4.45703 -49.8809 -7.02637 -99.9258 -7.20117 -149.942c-0.304688 -87.1982 -1.01465 -182.611 27.6025 -265.983
c9.60059 -27.9746 23.1348 -56.1914 45.3115 -76.3965c24.1826 -22.0303 46.3203 -20.4355 73.5566 -2.93555c55.876 35.9082 82.583 104.958 100.573 165.854c42.6748 144.443 49.3857 299.524 20.0586 447.27c-14.1592 71.3027 -36.3135 150.81 -86.0088 206.229
c-22.9316 25.5742 -54.625 47.498 -89.8115 50.4951c-37.5869 3.20605 -68.6094 -19.748 -90.668 -48.0605z" />
    <glyph glyph-name="one" unicode="1" horiz-adv-x="490" 
d="M90.167 630.225c-7.31348 -13.1338 -47.0439 -8.79004 -39.1328 6.15234c40.8096 77.1406 99.8076 144.212 173.443 191.569c27.4785 17.6748 60.5127 29.9863 93.0791 19.2188c28.9209 -9.55566 50.2021 -37.125 63.3135 -63.4316
c19.3994 -38.9277 27.0176 -84.9434 32.2129 -127.736c5.86523 -48.3486 10.2939 -96.7764 13.624 -145.373c6.66016 -97.1201 8.00684 -194.73 8.76758 -292.053c0.771484 -99.1543 5.76367 -198.556 4.43945 -297.67c-0.65332 -48.8447 -120.632 -48.5459 -124.221 0
c-7.98438 107.915 -1.3418 217.679 1.12598 325.758c2.39453 104.839 6.95312 209.639 9.45508 314.478c0.884766 37.0742 24.6846 274.873 -42.2461 263.171c-21.1855 -3.70215 -45.0186 -25.4736 -61.3525 -38.2754
c-17.9062 -14.0352 -34.7305 -29.3828 -50.6641 -45.6094c-32.3467 -32.9502 -59.3975 -69.8838 -81.8447 -110.198z" />
    <glyph glyph-name="two" unicode="2" horiz-adv-x="597" 
d="M150.8 -101.192c-36.5391 1.11035 -79.2031 11.4971 -95.7852 48.1377c-14.8018 32.7021 5.34668 64.4463 31.9072 83.2705c51.9551 36.8203 120.869 33.0566 178.019 10.7158c19.292 24.6729 35.2656 52.2471 49.4248 80.0137
c62.8291 123.207 98.7148 263.401 108.327 401.179c4.71582 67.5732 0.506836 136.178 -17.7539 201.599c-16.999 60.8965 -48.1797 124.452 -121.156 120.542c-64.5928 -3.46484 -112.913 -52.9014 -136.402 -109.949c-19.2471 -46.709 -43.9707 -161.561 19.5059 -186.561
c24.1377 -9.50488 -4.80566 -24.5879 -19.8154 -19.3252c-85.0342 29.7891 -70.6553 145.981 -43.5654 212.777c30.0312 74.0527 96.4385 125.776 177.168 129.776c178.548 8.85156 243.197 -211.887 246.634 -353.727c2.1748 -89.8066 -12.7285 -180.718 -37.6553 -266.834
c-24.543 -84.7979 -58.8115 -170.097 -113.279 -240.307c-5.78613 -7.45996 -11.9502 -14.5596 -18.3398 -21.4053c51.0195 -32.167 103.927 -62.2549 163.566 -49.3408c21.4844 4.64844 39.5205 -17.6416 11.4893 -23.7607
c-71.3428 -15.5674 -137.936 14.7959 -197.514 51.4082c-50.8057 -44.2637 -115.354 -70.3174 -184.774 -68.21zM139.142 22.8398c-27.9688 -13.7871 -57.3975 -64.9971 -5.40332 -65.9326c22.0977 -0.400391 43.1592 10.4004 61.6572 21.2803
c18.8809 11.0996 35.4287 24.8926 50.2246 40.4043c-34.8428 14.9766 -71.4834 21.501 -106.479 4.24805z" />
    <glyph glyph-name="three" unicode="3" horiz-adv-x="677" 
d="M91.0957 557.169c-91.9189 25.3887 -5.51074 169.178 26.7686 210.568c69.8604 89.5469 226.778 171.589 326.321 77.3311c97.1816 -92.0264 24.3799 -227.139 -66.875 -314.466c83.0791 -10.6602 159.211 -50.2529 205.047 -129.354
c106.761 -184.238 13.6133 -460.909 -197.614 -522.51c-99.5713 -29.0342 -213.622 6.29297 -254.409 106.985c-42.5 104.924 1.65625 213.481 54.8613 305.231c8.55273 14.7451 53.0195 9.16113 43.8076 -6.88574c-49.0469 -85.4512 -94.6963 -189.434 -53.9316 -287.309
c16.2324 -38.9619 45.2383 -73.9512 86.5156 -87.0508c44.2861 -14.0518 91.3506 1.54395 127.94 27.6934c63.3076 45.25 101.875 125.918 113.764 201.272c12.666 80.2734 4.72168 164.091 -34.2969 236.402c-40.4551 74.9707 -113.668 104.895 -195.705 82.126
c-25.1797 -6.99219 -56.7998 -7.60645 -78.7002 8.95312c-18.0811 13.6748 -15.3428 35.125 4.77246 45.6611c69.8438 36.584 130.604 83.3271 175.562 149.12c23.208 33.9697 48.6533 73.6699 49.6787 116.125c0.96875 40.2969 -24.9209 70.1025 -63.5332 79.7822
c-59.3467 14.875 -128.396 -22.9375 -170.153 -62.542c-27.4004 -25.9854 -50.9014 -57.5947 -68.4863 -90.9561c-12.4014 -23.5293 -53.2002 -113.578 -11.292 -126.639c25.1016 -7.82031 -4.99707 -23.6924 -20.041 -19.54z" />
    <glyph glyph-name="four" unicode="4" horiz-adv-x="656" 
d="M69.1182 34.2812c-31.5635 25.293 -18.2061 72.0762 -1.53418 102.096c20.7627 37.3838 54.4844 66.001 91.542 86.4766c26.8877 14.8574 55.5439 25.8838 84.668 35.6143c1.66797 8.56445 3.20605 17.0332 4.58691 25.2822
c30.3018 180.818 24.7236 370.398 9.31934 552.366c-1.26172 14.9482 37.7568 15.5684 39.2666 0.000976562c12.8691 -132.769 17.9229 -266.298 11.2178 -399.585c-2.67676 -53.2783 -6.49121 -108.676 -15.9795 -162.727c3.45996 1.06445 6.9248 2.12891 10.373 3.19922
c48.4336 15.0273 96.8721 30.0312 145.311 45.041c-6.91895 148.939 -9.72461 299.795 0.901367 448.521c3.45996 48.416 121.506 48.3711 123.343 0c5.72461 -150.962 -1.20605 -302.211 4.16895 -453.263c2.64258 -74.3574 7.46582 -148.669 13.8047 -222.795
c3.23438 -37.835 7.5 -75.5625 11.0273 -113.363c3.50488 -37.5586 9.07715 -75.4775 0.591797 -112.676c-6.91895 -30.3408 -62.2598 -28.5713 -77.0391 -5.94336c-41.5137 63.5449 -48.1172 152.974 -57.7012 226.57c-8.8291 67.7871 -14.1201 135.885 -17.6807 204.129
c-35.9639 -11.207 -71.9229 -22.4082 -107.882 -33.6152c-18.2891 -5.69629 -36.8652 -11.083 -55.335 -16.8525c-8.66016 -38.9951 -20.8359 -76.9141 -38.3701 -112.371c-17.9287 -36.252 -43.9258 -72.4023 -79.3438 -93.3506
c-28.2227 -16.6943 -71.4951 -24.999 -99.2559 -2.75488zM111.109 129.521c-9.15039 -16.4414 -17.0898 -35.9033 -16.1484 -55.0488c1.69043 -34.2568 31.2207 -28.0928 51.459 -12.502c49.5654 38.1787 75.1172 101.582 90.2227 163.639
c-14.0352 -5.49316 -27.8164 -11.5273 -41.0967 -18.5869c-34.0488 -18.0977 -65.4434 -43.373 -84.4365 -77.501z" />
    <glyph glyph-name="five" unicode="5" horiz-adv-x="661" 
d="M245.715 -168.957c-63.4492 -1.17773 -137.733 18.3125 -173.974 74.7295c-32.8545 51.1436 -24.8252 121.297 -0.0849609 173.984c45.1709 96.1963 200.297 215.544 295.975 111.178c15.7539 -17.1846 -29.085 -25.3828 -40.3652 -13.4492
c-50.2363 53.1602 -119.071 4.37793 -158.918 -37.4346c-39.4404 -41.3906 -64.3447 -96.6191 -52.625 -154.389c10.2207 -50.377 44.0498 -92.6631 97.3965 -97.9141c39.5195 -3.89355 77.9746 12.4346 110.4 33.6143c81.0166 52.9014 136.949 153.188 155.086 246.628
c18.6328 95.9873 1.48145 205.216 -64.4238 280.666c-27.8623 31.9023 -63.1562 57.375 -105.65 64.5361c-41.5029 6.99805 -79.332 -6.71582 -114.637 -27.8447c-21.5293 -12.8799 -52.6816 -13.5615 -76.042 -5.58887c-15.3252 5.22852 -38.8428 20.6777 -28.8359 40.3926
c22.4873 44.3086 27.626 101.098 35.5195 149.44c4.73828 29.0059 13.7588 57.8535 20.2383 86.6172c2.50684 11.1396 11.3701 38.0381 8.47949 43.96c-11.3984 23.3604 38.4941 20.8027 48.3486 16.042c15.1172 -7.29688 52.834 -2.44043 74.498 -1.41504
c36.1895 1.71289 72.3623 4.1748 108.597 4.71582c34.8428 0.518555 127.394 7.29102 140.296 -39.4238c4.62012 -16.7344 -33.0059 -19.3037 -37.8623 -5.9502c-6.55859 18.0303 -35.4971 18.2383 -51.2842 19.4834c-31.4395 2.47949 -63.3301 0.794922 -94.7754 -0.771484
c-39.1924 -1.95508 -79.6924 -6.35547 -119.623 -6.51367c2.31543 -7.56152 3.96582 -15.2354 5.48145 -21.4668c6.93066 -28.5664 11.5 -62.8574 10.4297 -92.1221c-1.02539 -27.9805 -2.32715 -58.7441 -6.29395 -88.9609
c117.527 17.7705 243.45 -28.3135 314.364 -127.344c166.75 -232.869 -4.41113 -619.929 -299.715 -625.399z" />
    <glyph glyph-name="six" unicode="6" horiz-adv-x="541" 
d="M60.6699 57.6914c-4.73828 27.124 -7.31445 54.8428 -8.89746 82.4004c-10.4688 180.34 25.1748 375.171 113.438 534.105c38.5615 69.4385 92.4824 147.509 165.69 183.834c48.9062 24.2676 128.667 28.4092 151.971 -33.4961
c6.04004 -16.0469 -32.3018 -19.1064 -37.8633 -5.9502c-16.7959 39.7393 -60.9023 40.0381 -89.3105 12.3623c-23.9121 -23.2979 -40.6523 -54.8955 -56.0908 -84.1602c-33.6318 -63.7422 -60.9131 -129.647 -82.6172 -198.354
c-38.083 -120.564 -57.4932 -247.079 -53.6445 -373.549c24.3291 16.9873 51.3066 30.127 80.9209 37.8125c65.8438 17.0889 142.95 3.41406 194.409 -42.6016c112.276 -100.404 26.4199 -291.742 -103.059 -326.613c-73.6924 -19.8496 -158.434 7.39844 -208.754 64.2158
c-36.916 41.6836 -55.4307 91.9648 -65.2461 144.776c-1.03125 1.53223 -1.3916 3.28418 -0.946289 5.2168zM386.923 168.36c-77.8896 53.166 -160.63 20.1016 -221.346 -37.7012c4.52441 -61.4707 14.3789 -124.654 45.0635 -179.049
c22.6611 -40.1787 68.0684 -87.6543 118.677 -73.7539c116.626 32.0312 160.129 220.524 57.6055 290.504z" />
    <glyph glyph-name="seven" unicode="7" horiz-adv-x="546" 
d="M262.739 -100.544c-3.78027 98.3594 15.8115 199.426 33.7686 295.791c6.82324 36.623 13.8945 73.2861 20.5547 110.033c-14.5762 -1.60059 -29.1299 -3.54492 -43.6553 -5.96191c-21.2363 -3.5332 -39.5312 18.7959 -11.376 23.5176
c19.8047 3.31836 39.6436 5.83105 59.5049 7.69629c9.01465 51.5205 16.9482 103.21 21.8896 155.21c4.59766 48.3545 7.17773 97.1592 5.8252 145.733c-1.23926 44.4219 1.75781 99.2393 -20.042 139.485c-47.8701 88.375 -179.196 40.8662 -249.762 15.709
c-15.3311 -5.46582 -44.4775 10.502 -20.041 19.5391c85.4121 31.5811 181.444 60.8799 268.09 16.4473c40.5391 -20.791 71.2578 -50.248 87.7324 -93.5029c18.915 -49.6562 26.8145 -104.299 31.3555 -156.93c6.8623 -79.5459 1.88672 -159.571 -6.95898 -239.005
c14.0576 -0.647461 28.1211 -1.52637 42.2012 -2.84473c28.876 -2.70996 9.65723 -25.7715 -11.4883 -23.7598c-11.1787 1.05957 -22.3574 1.76953 -33.5303 2.32129c-3.07031 -25.4844 -6.43945 -50.9014 -9.88184 -76.2051
c-15.1338 -111.229 -27.0791 -221.336 -35.125 -333.274c-3.63965 -50.6641 -127.117 -50.6133 -129.062 0z" />
    <glyph glyph-name="eight" unicode="8" horiz-adv-x="549" 
d="M50.0684 566.533c-1.83691 79.3828 33.4688 167.917 95.7227 218.959c57.9492 47.5088 136.813 74.3232 211.34 57.7578c69.9004 -15.54 116.688 -74.3066 132.622 -142.032c18.6953 -79.4561 5.03223 -167.347 -14.1641 -245.501
c-20.8701 -84.9609 -54.3662 -166.04 -91.2266 -245.164c32.4092 -46.9961 60.666 -98.1455 68.7002 -153.008c10.2715 -70.1025 -26.4531 -141.918 -92.1162 -170.698c-56.541 -24.7803 -127.304 -12.3115 -173.624 27.7939
c-110.851 95.9707 -81.5127 276.953 -7.78125 387.73c-8.46289 10.5303 -16.8691 21.1006 -25.0898 31.8115c-52.2988 68.1201 -102.332 143.53 -104.383 232.351zM341.424 -90.4072c36.5781 21.2139 37.2656 72.6455 27.7607 108.965
c-10.6035 40.5 -33.04 78.2275 -56.1299 112.71c-33.4287 49.9316 -72.0977 95.9756 -110.203 142.426c-40.4658 -69.8047 -57.3633 -154.084 -41.0518 -233.479c15.2803 -74.4023 91.2939 -181.839 179.624 -130.622zM206.271 734.4
c-38.8037 -75.0107 -43.4629 -168.006 -11.8486 -246.059c32.0254 -79.0674 90.8086 -145.699 142.008 -212.805c7.15527 -9.38672 14.4854 -19.0049 21.8154 -28.8027c37.5479 82.335 70.5713 167.335 87.5361 256.42c17.1006 89.7949 28.0879 209.763 -42.4492 280.778
c-31.7217 31.9355 -77.9854 43.5312 -120.53 28.1377c-35.9248 -12.998 -59.5215 -44.793 -76.5312 -77.6699z" />
    <glyph glyph-name="nine" unicode="9" horiz-adv-x="674" 
d="M594.277 621.266c16.5596 -67.4717 26.6016 -136.144 29.0469 -205.576c4.0625 -115.55 -8.0293 -238.148 -51.5947 -346.199c-42.8379 -106.253 -130.571 -175.472 -246.938 -178.515c-102.31 -2.68164 -196.257 53.4766 -219.206 156.546
c-21.1631 95.0518 19.3535 200.1 109.774 242.425c10.8467 5.07129 27.457 7.3584 38.0381 0c9.17871 -6.38379 10.0742 -15.4609 0 -21.6816c-80.6396 -49.7852 -98.8613 -172.857 -47.5996 -249.305c37.5527 -56.0117 106.428 -75.6592 162.946 -39.5088
c71.6416 45.8184 100.157 145.146 117.382 223.148c21.6924 98.2246 27.7666 196.573 24.1553 296.904c-1.81445 50.3828 -6.66602 100.782 -13.8047 150.686c-3.42578 23.9521 -5.86523 48.2363 -10.0801 72.0693c-2.31543 -9.79785 -4.41113 -18.9766 -6.89062 -25.9404
c-9.61816 -27.0615 -21.417 -53.3516 -35.2666 -78.5088c-24.4141 -44.3369 -55.2002 -87.4453 -92.5166 -121.877c-60.3896 -55.7295 -154.709 -89.1865 -231.506 -45.0576c-70.5703 40.5508 -86.0088 132.933 -54.9971 203.356
c60.5303 137.462 272.625 224.406 394.868 123.883c2.39453 5.63477 4.92969 11.2188 7.71875 16.7178c8.24316 16.2324 36.9277 12.8125 48.6533 3.62891c26.0195 -20.3848 37.2773 -50.8447 48.5684 -80.9717c11.8213 -31.5469 21.2197 -63.5049 29.249 -96.2236z
M420.746 667.738c10.5195 24.1992 17.7598 49.3848 25.9688 74.1934c-129.94 147.576 -425.678 -46.9619 -337.99 -224.918c22.1152 -44.8779 67.3711 -67.9844 116.615 -57.5273c48.1738 10.2266 86.9551 45.7119 117.814 82.2168
c31.9248 37.7617 57.8994 80.7178 77.5918 126.035z" />
    <glyph glyph-name="colon" unicode=":" horiz-adv-x="212" 
d="M85.6553 349.579c-13.5508 0.958008 -29.3604 6.0293 -32.29 20.8535c-7.20117 36.3643 -2.05664 72.2441 7.97852 107.577c5.51562 19.4277 42.584 20.8418 57.1768 18.5088c16.7734 -2.6875 38.1562 -12.5645 32.4658 -32.5947
c-9.31348 -32.8037 -15.9053 -66.1709 -24.4756 -99.1377c-3.67969 -14.1816 -29.8457 -15.9844 -40.8555 -15.207zM147.393 105.61c5.30762 -3.12109 16.6396 -12.2832 14.7744 -20.3291c-7.04297 -30.4258 -10.6436 -66.1533 -26.7744 -93.3848
c-7.5166 -12.6943 -24.4424 -16.5986 -38.2471 -16.5986c-11.0205 0 -33.9922 3.62305 -38.2461 16.5986c-9.91113 30.2402 -3.41992 62.9307 2.37793 93.3848c4.24805 22.3408 30.5215 28.7529 50.4443 28.7529c11.6572 0 25.4443 -2.40039 35.6709 -8.42383z" />
    <glyph glyph-name="semicolon" unicode=";" horiz-adv-x="272" 
d="M190.108 362.758c-8.21484 -20.5088 -66.8223 -23.6035 -73.0938 -0.000976562c-10.5361 39.6777 -7.80371 84.4766 -4.69922 125.106c2.96387 38.7812 99.751 37.5586 97.8066 0c-2.10742 -40.6123 -4.75 -86.9941 -20.0137 -125.105zM114.598 129.065
c13.2686 37.9697 121.104 28.6729 105.779 -16.6221c-28.3408 -83.7441 -51.2334 -176.346 -96.3477 -252.776c-11.4551 -19.4102 -73.6641 -24.9092 -74.0137 5.70801c-0.512695 44.9512 12.0576 88.0039 23.417 131.135c11.7871 44.7656 25.9014 88.8662 41.165 132.556z
" />
    <glyph glyph-name="less" unicode="&#x3c;" horiz-adv-x="560" 
d="M481.94 200.352c20.3799 -6.28223 39.4795 -26.3867 21.1006 -45.8652c-18.9766 -20.1035 -56.1973 -19.5117 -80.4648 -12.0234c-73.1572 22.5713 -146.314 45.1484 -219.472 67.7197c-29.5576 9.12207 -190.228 38.4941 -145.197 93.4297
c20.4307 24.9268 66.543 37.21 95.0869 51.5098c31.8516 15.957 63.3145 32.6182 94.6641 49.5273c63.8828 34.4541 127.371 73.0156 195.84 97.7285c14.0469 5.06543 64.5645 -1.22266 44.6299 -25.4395c-40.3086 -48.9736 -102.884 -83.0732 -156.929 -114.677
c-45.5654 -26.6445 -94.4658 -48.3818 -140.967 -73.5342c39.8242 -12.8291 80.8535 -23.3086 120.412 -35.5186z" />
    <glyph glyph-name="equal" unicode="=" horiz-adv-x="529" 
d="M76.0449 372.15c-25.1914 4.44531 -38.9941 28.6846 -8.99707 39.249c54.2539 19.1123 119.793 17.709 176.739 19.9287c59.9102 2.33301 119.775 3.10449 179.708 1.4873c17.0215 -0.456055 55.876 -6.7666 55.29 -31.5127
c-0.580078 -24.2842 -36.6064 -31.8457 -55.29 -31.5137c-58.0732 1.03125 -116.187 1.73535 -174.266 0.811523c-56.4287 -0.895508 -117.398 -8.30469 -173.185 1.5498zM423.497 308.938c17.0156 -0.461914 55.8779 -6.77148 55.292 -31.5176
c-0.580078 -24.2842 -36.6064 -31.8457 -55.29 -31.5137c-58.0732 1.03125 -116.187 1.72949 -174.266 0.805664c-56.4287 -0.895508 -117.398 -8.29883 -173.185 1.5498c-25.1914 4.45117 -38.9961 28.6904 -8.99902 39.2549
c54.2539 19.1172 119.793 17.7139 176.739 19.9336c59.9102 2.33301 119.775 3.10449 179.708 1.4873z" />
    <glyph glyph-name="greater" unicode="&#x3e;" horiz-adv-x="603" 
d="M538.401 340.13c23.9521 -17.0439 17.1514 -40.9053 -11.0938 -49.0918c-66.5137 -19.2861 -132.441 -39.1416 -196.284 -66.2715c-63.5898 -27.0283 -121.506 -62.6035 -180.926 -97.3623c-23.5859 -13.793 -60.6211 -13.7705 -84.1055 0
c-23 13.4834 -19.5742 33.8291 0 47.9375c60.874 43.8857 131.563 76.8643 200.433 106c42.1055 17.8213 85.4512 33.417 129.591 45.999c-12.5537 3.98926 -24.9385 7.67969 -35.6836 11.8213c-33.0117 12.7285 -66.0859 25.2871 -99.0186 38.2012
c-32.7695 12.8516 -65.3984 26.0703 -98.0947 39.1025c-30.583 12.1924 -64.6377 23.5342 -90.6465 44.0205c-23.9346 18.8467 27.5977 29.9072 38.5732 28.5996c39.0859 -4.64258 77.6143 -20.1768 114.683 -32.8486c35.8682 -12.2549 71.7871 -24.3574 107.509 -37.0176
c37.3447 -13.2354 74.6895 -26.4648 112.028 -39.7002c31.2656 -11.083 65.7314 -19.957 93.0361 -39.3896z" />
    <glyph glyph-name="question" unicode="?" horiz-adv-x="508" 
d="M450.436 672.57c26.9941 -106.851 -21.2422 -221.633 -53.0879 -322.184c-36.4033 -114.931 -60.3496 -229.687 -77.709 -348.831c-6.78418 -46.5684 -121.906 -47.4922 -120.7 0c2.63672 103.848 33.7666 208.805 68.0576 306.218
c30.6455 87.0508 68.1143 171.786 92.8945 260.82c20.2217 72.6611 41.627 177.274 -45.7061 214.084c-79.3154 33.4346 -181.845 -25.4336 -211.893 -102.056c-43.6328 -111.251 90.6406 -159.662 176.486 -129.716c16.9316 5.90527 48.9971 -12.0234 22.042 -21.4893
c-87.5977 -30.7578 -252.145 -9.97852 -250.81 112.248c1.05957 96.585 108.333 167.387 195.654 175.911c95.835 9.35352 181.264 -51.9707 204.771 -145.006zM283.585 -90.335c10.5645 -6.91895 20.1641 -12.3975 22.0352 -25.9141
c1.4082 -10.1758 -0.237305 -21.6865 -0.710938 -31.9238c-0.991211 -21.3994 -2.64746 -42.6973 -4.94043 -63.9893c-4.68262 -43.4463 -110.885 -43.8516 -111.454 0.000976562c-0.28125 21.4277 0.705078 42.6973 3.24023 63.9893
c1.2793 10.7051 2.8457 21.4043 5.18945 31.9238c3.13281 14.0576 11.3252 19.54 23.7041 25.9121c17.6865 9.10547 45.4248 11.4609 62.9365 0.000976562z" />
    <glyph glyph-name="at" unicode="@" horiz-adv-x="896" 
d="M719.582 611.188c158.174 -111.341 156.878 -360.979 54.1514 -508.521c-26.4424 -37.9756 -59.0264 -72.7168 -104.997 -85.4453c-41.4355 -11.4717 -94.1338 -5.99512 -122.548 29.5518c-27.4053 34.2852 -21.3145 83.8457 -17.1787 124.425
c2.77246 27.1631 5.93945 54.4111 9.83301 81.5518c-29.4795 -49.4473 -55.7246 -101.188 -94.917 -144.037c-33.8398 -37.001 -76.0586 -57.1104 -127.016 -44.8838c-52.7773 12.6602 -73.5908 57.792 -66.4971 108.688c12.9199 92.6797 57.4883 201.886 143.987 248.442
c55.3691 29.7998 167.69 41.1982 182.379 -42.6807c2.61426 -14.9258 -33.1924 -13.1338 -38.5615 -2.97461c-11.2178 21.2139 -37.5244 38.9844 -60.3887 23.9404c-21.9971 -14.4688 -35.1816 -43.3164 -48.3721 -65.2119
c-31.2822 -51.9209 -57.8428 -115.556 -59.7979 -176.937c-0.473633 -14.9541 2.99707 -23.7607 7.33594 -36.7764c0.146484 0.0449219 0.236328 0.0898438 0.388672 0.128906c2.7832 4 20.1367 12.4463 23.2979 15.1846c23.0557 19.957 41.4854 46.4668 57.9658 71.833
c31.6094 48.6533 60.1699 99.4922 99.7744 142.325c6.90234 7.46582 47.2217 10.2773 43.2549 -6.67676c-11.9619 -51.1436 -20.8701 -102.969 -19.3262 -155.639c1.05957 -36.2402 -2.07324 -100.235 30.5156 -125.748c32.5947 -25.5186 74.0635 37.9414 88.2734 60.4512
c22.915 36.3076 39.7676 77.1455 48.6865 119.161c29.417 138.544 -26.3799 332.435 -185.827 358.393c-146.984 23.9297 -288.926 -109.932 -353.456 -229.099c-73.2812 -135.332 -91.8799 -336.683 7.08789 -465.479c47.3965 -61.6855 121.872 -87.4346 197.919 -76.6279
c81.0674 11.5225 150.63 57.2061 215.487 104.371c16.0576 11.6748 79.1514 -2.42773 54.3379 -23.9004c-83.6201 -72.3623 -188.256 -124.666 -300.414 -127.393c-109.876 -2.67676 -213.069 44.9736 -271.802 139.315c-107.701 173.01 -69.4326 410.178 52.6416 564.323
c124.103 156.715 375.785 251.243 553.781 125.945z" />
    <glyph glyph-name="A" unicode="A" horiz-adv-x="1479" 
d="M193.522 -392.025c-114.254 48.9004 -193.88 136.733 -245.034 248.778c-50.7939 111.268 -70.0244 240.312 -51.5771 361.355c9.51074 62.3779 28.2168 123.573 55.8643 180.312c26.9043 55.2168 62.8916 113.459 111.409 152.234
c45.8076 36.6064 104.304 55.6953 162.445 41.5078c57.1494 -13.9395 96.2686 -58.665 124.829 -107.685c14.5312 -24.9492 26.9326 -51.0479 37.4238 -77.8955c7.67383 19.0664 16.249 37.7725 25.8779 55.9492c47.9941 90.6182 125.354 186.29 223.742 223.843
c49.6611 18.96 109.138 18.1543 154.123 -12.2656c36.7588 -24.8594 56.3271 -65.6357 65.207 -108.012c21.709 -103.628 -19.3828 -217.589 -70.8076 -306.336c-57.5664 -99.3516 -136.825 -184.408 -219.386 -263.346c-18.5312 -17.7197 -87.1914 -3.4082 -62.0283 20.668
c80.6846 77.2197 158.529 159.933 214.175 257.492c45.4473 79.6816 80.7744 176.041 69.5615 269.166c-4.47363 37.1592 -18.5713 80.6338 -50.6426 103.222c-41.0068 28.8818 -92.8154 -7.83789 -124.802 -34.5107c-104.428 -87.085 -170.3 -213.29 -189.372 -346.481
c6.60938 -52.0781 6.54785 -105.008 -0.500977 -156.906c-3.89355 -28.6738 -68.8408 -28.5391 -72.791 -0.000976562c-7.21191 52.1465 -6.95312 105.081 0.224609 157.075c-10.2881 78.4023 -36.3701 154.642 -79.2363 221.477
c-15.6748 24.4365 -36.2061 50.1631 -63.3184 62.3447c-27.1914 12.2207 -54.4336 -1.06543 -76.9482 -17.3203c-51.0078 -36.8154 -85.8115 -97.7686 -111.29 -154.017c-91.7617 -202.567 -61.6064 -468.894 96.4941 -631.761
c69.3428 -71.4326 167.82 -113.55 267.487 -113.212c99.4697 0.332031 198.348 44.5 274.35 107.02c183.377 150.838 259.576 398.537 306.246 622.555c26.7861 128.577 43.9199 258.968 58.6816 389.398c9.79297 86.5107 17.7207 173.455 17.5352 260.377
c-3.76367 47.2217 -6.6377 94.5391 -8.54785 141.936c-2.11328 52.5576 127.754 52.1465 134.346 0c6.11328 -48.3604 8.62012 -96.8779 8.71582 -145.44c6.12988 -77.084 14.6719 -153.965 25.7715 -230.52c31.5635 -217.719 82.0527 -432.389 152.623 -640.793
c33.2256 -98.1289 66.1416 -197.874 117.206 -288.521c39.0518 -69.3252 104.54 -178.345 197.901 -167.724c13.7314 1.56641 39.9141 -13.9053 15.6357 -21.1396c-113.409 -33.7783 -228.762 39.5928 -295.552 126.993c-69.7363 91.2598 -112.552 198.55 -151.648 305.598
c-10.4062 28.4932 -20.3281 57.1895 -29.8223 86.0371c-51.6445 -2.10156 -103.571 -3.99512 -155.143 -3.36426c-1.57715 -5.30176 -3.11523 -10.6152 -4.73242 -15.9062c-75.3428 -246.206 -216.771 -487.347 -477.745 -566.64
c-122.745 -37.2939 -258.1 -36.4033 -376.951 14.458zM1134.01 439.952c-3.91602 15.9336 -7.69727 31.8965 -11.3818 47.876c-15.0605 -91.5986 -33.71 -182.605 -58.3037 -272.079c43.3789 2.74414 87.0225 3.9668 130.537 4.90234
c-22.7012 72.4297 -42.7822 145.722 -60.8516 219.301z" />
    <glyph glyph-name="A" unicode="&#xc5;" horiz-adv-x="1479" 
d="M193.522 -392.025c-114.254 48.9004 -193.88 136.733 -245.034 248.778c-50.7939 111.268 -70.0244 240.312 -51.5771 361.355c9.51074 62.3779 28.2168 123.573 55.8643 180.312c26.9043 55.2168 62.8916 113.459 111.409 152.234
c45.8076 36.6064 104.304 55.6953 162.445 41.5078c57.1494 -13.9395 96.2686 -58.665 124.829 -107.685c14.5312 -24.9492 26.9326 -51.0479 37.4238 -77.8955c7.67383 19.0664 16.249 37.7725 25.8779 55.9492c47.9941 90.6182 125.354 186.29 223.742 223.843
c49.6611 18.96 109.138 18.1543 154.123 -12.2656c36.7588 -24.8594 56.3271 -65.6357 65.207 -108.012c21.709 -103.628 -19.3828 -217.589 -70.8076 -306.336c-57.5664 -99.3516 -136.825 -184.408 -219.386 -263.346c-18.5312 -17.7197 -87.1914 -3.4082 -62.0283 20.668
c80.6846 77.2197 158.529 159.933 214.175 257.492c45.4473 79.6816 80.7744 176.041 69.5615 269.166c-4.47363 37.1592 -18.5713 80.6338 -50.6426 103.222c-41.0068 28.8818 -92.8154 -7.83789 -124.802 -34.5107c-104.428 -87.085 -170.3 -213.29 -189.372 -346.481
c6.60938 -52.0781 6.54785 -105.008 -0.500977 -156.906c-3.89355 -28.6738 -68.8408 -28.5391 -72.791 -0.000976562c-7.21191 52.1465 -6.95312 105.081 0.224609 157.075c-10.2881 78.4023 -36.3701 154.642 -79.2363 221.477
c-15.6748 24.4365 -36.2061 50.1631 -63.3184 62.3447c-27.1914 12.2207 -54.4336 -1.06543 -76.9482 -17.3203c-51.0078 -36.8154 -85.8115 -97.7686 -111.29 -154.017c-91.7617 -202.567 -61.6064 -468.894 96.4941 -631.761
c69.3428 -71.4326 167.82 -113.55 267.487 -113.212c99.4697 0.332031 198.348 44.5 274.35 107.02c183.377 150.838 259.576 398.537 306.246 622.555c26.7861 128.577 43.9199 258.968 58.6816 389.398c9.79297 86.5107 17.7207 173.455 17.5352 260.377
c-3.76367 47.2217 -6.6377 94.5391 -8.54785 141.936c-2.11328 52.5576 127.754 52.1465 134.346 0c6.11328 -48.3604 8.62012 -96.8779 8.71582 -145.44c6.12988 -77.084 14.6719 -153.965 25.7715 -230.52c31.5635 -217.719 82.0527 -432.389 152.623 -640.793
c33.2256 -98.1289 66.1416 -197.874 117.206 -288.521c39.0518 -69.3252 104.54 -178.345 197.901 -167.724c13.7314 1.56641 39.9141 -13.9053 15.6357 -21.1396c-113.409 -33.7783 -228.762 39.5928 -295.552 126.993c-69.7363 91.2598 -112.552 198.55 -151.648 305.598
c-10.4062 28.4932 -20.3281 57.1895 -29.8223 86.0371c-51.6445 -2.10156 -103.571 -3.99512 -155.143 -3.36426c-1.57715 -5.30176 -3.11523 -10.6152 -4.73242 -15.9062c-75.3428 -246.206 -216.771 -487.347 -477.745 -566.64
c-122.745 -37.2939 -258.1 -36.4033 -376.951 14.458zM1134.01 439.952c-3.91602 15.9336 -7.69727 31.8965 -11.3818 47.876c-15.0605 -91.5986 -33.71 -182.605 -58.3037 -272.079c43.3789 2.74414 87.0225 3.9668 130.537 4.90234
c-22.7012 72.4297 -42.7822 145.722 -60.8516 219.301z" />
    <glyph glyph-name="A" unicode="&#xc4;" horiz-adv-x="1479" 
d="M193.522 -392.025c-114.254 48.9004 -193.88 136.733 -245.034 248.778c-50.7939 111.268 -70.0244 240.312 -51.5771 361.355c9.51074 62.3779 28.2168 123.573 55.8643 180.312c26.9043 55.2168 62.8916 113.459 111.409 152.234
c45.8076 36.6064 104.304 55.6953 162.445 41.5078c57.1494 -13.9395 96.2686 -58.665 124.829 -107.685c14.5312 -24.9492 26.9326 -51.0479 37.4238 -77.8955c7.67383 19.0664 16.249 37.7725 25.8779 55.9492c47.9941 90.6182 125.354 186.29 223.742 223.843
c49.6611 18.96 109.138 18.1543 154.123 -12.2656c36.7588 -24.8594 56.3271 -65.6357 65.207 -108.012c21.709 -103.628 -19.3828 -217.589 -70.8076 -306.336c-57.5664 -99.3516 -136.825 -184.408 -219.386 -263.346c-18.5312 -17.7197 -87.1914 -3.4082 -62.0283 20.668
c80.6846 77.2197 158.529 159.933 214.175 257.492c45.4473 79.6816 80.7744 176.041 69.5615 269.166c-4.47363 37.1592 -18.5713 80.6338 -50.6426 103.222c-41.0068 28.8818 -92.8154 -7.83789 -124.802 -34.5107c-104.428 -87.085 -170.3 -213.29 -189.372 -346.481
c6.60938 -52.0781 6.54785 -105.008 -0.500977 -156.906c-3.89355 -28.6738 -68.8408 -28.5391 -72.791 -0.000976562c-7.21191 52.1465 -6.95312 105.081 0.224609 157.075c-10.2881 78.4023 -36.3701 154.642 -79.2363 221.477
c-15.6748 24.4365 -36.2061 50.1631 -63.3184 62.3447c-27.1914 12.2207 -54.4336 -1.06543 -76.9482 -17.3203c-51.0078 -36.8154 -85.8115 -97.7686 -111.29 -154.017c-91.7617 -202.567 -61.6064 -468.894 96.4941 -631.761
c69.3428 -71.4326 167.82 -113.55 267.487 -113.212c99.4697 0.332031 198.348 44.5 274.35 107.02c183.377 150.838 259.576 398.537 306.246 622.555c26.7861 128.577 43.9199 258.968 58.6816 389.398c9.79297 86.5107 17.7207 173.455 17.5352 260.377
c-3.76367 47.2217 -6.6377 94.5391 -8.54785 141.936c-2.11328 52.5576 127.754 52.1465 134.346 0c6.11328 -48.3604 8.62012 -96.8779 8.71582 -145.44c6.12988 -77.084 14.6719 -153.965 25.7715 -230.52c31.5635 -217.719 82.0527 -432.389 152.623 -640.793
c33.2256 -98.1289 66.1416 -197.874 117.206 -288.521c39.0518 -69.3252 104.54 -178.345 197.901 -167.724c13.7314 1.56641 39.9141 -13.9053 15.6357 -21.1396c-113.409 -33.7783 -228.762 39.5928 -295.552 126.993c-69.7363 91.2598 -112.552 198.55 -151.648 305.598
c-10.4062 28.4932 -20.3281 57.1895 -29.8223 86.0371c-51.6445 -2.10156 -103.571 -3.99512 -155.143 -3.36426c-1.57715 -5.30176 -3.11523 -10.6152 -4.73242 -15.9062c-75.3428 -246.206 -216.771 -487.347 -477.745 -566.64
c-122.745 -37.2939 -258.1 -36.4033 -376.951 14.458zM1134.01 439.952c-3.91602 15.9336 -7.69727 31.8965 -11.3818 47.876c-15.0605 -91.5986 -33.71 -182.605 -58.3037 -272.079c43.3789 2.74414 87.0225 3.9668 130.537 4.90234
c-22.7012 72.4297 -42.7822 145.722 -60.8516 219.301z" />
    <glyph glyph-name="A" unicode="&#xc3;" horiz-adv-x="1479" 
d="M193.522 -392.025c-114.254 48.9004 -193.88 136.733 -245.034 248.778c-50.7939 111.268 -70.0244 240.312 -51.5771 361.355c9.51074 62.3779 28.2168 123.573 55.8643 180.312c26.9043 55.2168 62.8916 113.459 111.409 152.234
c45.8076 36.6064 104.304 55.6953 162.445 41.5078c57.1494 -13.9395 96.2686 -58.665 124.829 -107.685c14.5312 -24.9492 26.9326 -51.0479 37.4238 -77.8955c7.67383 19.0664 16.249 37.7725 25.8779 55.9492c47.9941 90.6182 125.354 186.29 223.742 223.843
c49.6611 18.96 109.138 18.1543 154.123 -12.2656c36.7588 -24.8594 56.3271 -65.6357 65.207 -108.012c21.709 -103.628 -19.3828 -217.589 -70.8076 -306.336c-57.5664 -99.3516 -136.825 -184.408 -219.386 -263.346c-18.5312 -17.7197 -87.1914 -3.4082 -62.0283 20.668
c80.6846 77.2197 158.529 159.933 214.175 257.492c45.4473 79.6816 80.7744 176.041 69.5615 269.166c-4.47363 37.1592 -18.5713 80.6338 -50.6426 103.222c-41.0068 28.8818 -92.8154 -7.83789 -124.802 -34.5107c-104.428 -87.085 -170.3 -213.29 -189.372 -346.481
c6.60938 -52.0781 6.54785 -105.008 -0.500977 -156.906c-3.89355 -28.6738 -68.8408 -28.5391 -72.791 -0.000976562c-7.21191 52.1465 -6.95312 105.081 0.224609 157.075c-10.2881 78.4023 -36.3701 154.642 -79.2363 221.477
c-15.6748 24.4365 -36.2061 50.1631 -63.3184 62.3447c-27.1914 12.2207 -54.4336 -1.06543 -76.9482 -17.3203c-51.0078 -36.8154 -85.8115 -97.7686 -111.29 -154.017c-91.7617 -202.567 -61.6064 -468.894 96.4941 -631.761
c69.3428 -71.4326 167.82 -113.55 267.487 -113.212c99.4697 0.332031 198.348 44.5 274.35 107.02c183.377 150.838 259.576 398.537 306.246 622.555c26.7861 128.577 43.9199 258.968 58.6816 389.398c9.79297 86.5107 17.7207 173.455 17.5352 260.377
c-3.76367 47.2217 -6.6377 94.5391 -8.54785 141.936c-2.11328 52.5576 127.754 52.1465 134.346 0c6.11328 -48.3604 8.62012 -96.8779 8.71582 -145.44c6.12988 -77.084 14.6719 -153.965 25.7715 -230.52c31.5635 -217.719 82.0527 -432.389 152.623 -640.793
c33.2256 -98.1289 66.1416 -197.874 117.206 -288.521c39.0518 -69.3252 104.54 -178.345 197.901 -167.724c13.7314 1.56641 39.9141 -13.9053 15.6357 -21.1396c-113.409 -33.7783 -228.762 39.5928 -295.552 126.993c-69.7363 91.2598 -112.552 198.55 -151.648 305.598
c-10.4062 28.4932 -20.3281 57.1895 -29.8223 86.0371c-51.6445 -2.10156 -103.571 -3.99512 -155.143 -3.36426c-1.57715 -5.30176 -3.11523 -10.6152 -4.73242 -15.9062c-75.3428 -246.206 -216.771 -487.347 -477.745 -566.64
c-122.745 -37.2939 -258.1 -36.4033 -376.951 14.458zM1134.01 439.952c-3.91602 15.9336 -7.69727 31.8965 -11.3818 47.876c-15.0605 -91.5986 -33.71 -182.605 -58.3037 -272.079c43.3789 2.74414 87.0225 3.9668 130.537 4.90234
c-22.7012 72.4297 -42.7822 145.722 -60.8516 219.301z" />
    <glyph glyph-name="A" unicode="&#xc2;" horiz-adv-x="1479" 
d="M193.522 -392.025c-114.254 48.9004 -193.88 136.733 -245.034 248.778c-50.7939 111.268 -70.0244 240.312 -51.5771 361.355c9.51074 62.3779 28.2168 123.573 55.8643 180.312c26.9043 55.2168 62.8916 113.459 111.409 152.234
c45.8076 36.6064 104.304 55.6953 162.445 41.5078c57.1494 -13.9395 96.2686 -58.665 124.829 -107.685c14.5312 -24.9492 26.9326 -51.0479 37.4238 -77.8955c7.67383 19.0664 16.249 37.7725 25.8779 55.9492c47.9941 90.6182 125.354 186.29 223.742 223.843
c49.6611 18.96 109.138 18.1543 154.123 -12.2656c36.7588 -24.8594 56.3271 -65.6357 65.207 -108.012c21.709 -103.628 -19.3828 -217.589 -70.8076 -306.336c-57.5664 -99.3516 -136.825 -184.408 -219.386 -263.346c-18.5312 -17.7197 -87.1914 -3.4082 -62.0283 20.668
c80.6846 77.2197 158.529 159.933 214.175 257.492c45.4473 79.6816 80.7744 176.041 69.5615 269.166c-4.47363 37.1592 -18.5713 80.6338 -50.6426 103.222c-41.0068 28.8818 -92.8154 -7.83789 -124.802 -34.5107c-104.428 -87.085 -170.3 -213.29 -189.372 -346.481
c6.60938 -52.0781 6.54785 -105.008 -0.500977 -156.906c-3.89355 -28.6738 -68.8408 -28.5391 -72.791 -0.000976562c-7.21191 52.1465 -6.95312 105.081 0.224609 157.075c-10.2881 78.4023 -36.3701 154.642 -79.2363 221.477
c-15.6748 24.4365 -36.2061 50.1631 -63.3184 62.3447c-27.1914 12.2207 -54.4336 -1.06543 -76.9482 -17.3203c-51.0078 -36.8154 -85.8115 -97.7686 -111.29 -154.017c-91.7617 -202.567 -61.6064 -468.894 96.4941 -631.761
c69.3428 -71.4326 167.82 -113.55 267.487 -113.212c99.4697 0.332031 198.348 44.5 274.35 107.02c183.377 150.838 259.576 398.537 306.246 622.555c26.7861 128.577 43.9199 258.968 58.6816 389.398c9.79297 86.5107 17.7207 173.455 17.5352 260.377
c-3.76367 47.2217 -6.6377 94.5391 -8.54785 141.936c-2.11328 52.5576 127.754 52.1465 134.346 0c6.11328 -48.3604 8.62012 -96.8779 8.71582 -145.44c6.12988 -77.084 14.6719 -153.965 25.7715 -230.52c31.5635 -217.719 82.0527 -432.389 152.623 -640.793
c33.2256 -98.1289 66.1416 -197.874 117.206 -288.521c39.0518 -69.3252 104.54 -178.345 197.901 -167.724c13.7314 1.56641 39.9141 -13.9053 15.6357 -21.1396c-113.409 -33.7783 -228.762 39.5928 -295.552 126.993c-69.7363 91.2598 -112.552 198.55 -151.648 305.598
c-10.4062 28.4932 -20.3281 57.1895 -29.8223 86.0371c-51.6445 -2.10156 -103.571 -3.99512 -155.143 -3.36426c-1.57715 -5.30176 -3.11523 -10.6152 -4.73242 -15.9062c-75.3428 -246.206 -216.771 -487.347 -477.745 -566.64
c-122.745 -37.2939 -258.1 -36.4033 -376.951 14.458zM1134.01 439.952c-3.91602 15.9336 -7.69727 31.8965 -11.3818 47.876c-15.0605 -91.5986 -33.71 -182.605 -58.3037 -272.079c43.3789 2.74414 87.0225 3.9668 130.537 4.90234
c-22.7012 72.4297 -42.7822 145.722 -60.8516 219.301z" />
    <glyph glyph-name="A" unicode="&#xc1;" horiz-adv-x="1479" 
d="M193.522 -392.025c-114.254 48.9004 -193.88 136.733 -245.034 248.778c-50.7939 111.268 -70.0244 240.312 -51.5771 361.355c9.51074 62.3779 28.2168 123.573 55.8643 180.312c26.9043 55.2168 62.8916 113.459 111.409 152.234
c45.8076 36.6064 104.304 55.6953 162.445 41.5078c57.1494 -13.9395 96.2686 -58.665 124.829 -107.685c14.5312 -24.9492 26.9326 -51.0479 37.4238 -77.8955c7.67383 19.0664 16.249 37.7725 25.8779 55.9492c47.9941 90.6182 125.354 186.29 223.742 223.843
c49.6611 18.96 109.138 18.1543 154.123 -12.2656c36.7588 -24.8594 56.3271 -65.6357 65.207 -108.012c21.709 -103.628 -19.3828 -217.589 -70.8076 -306.336c-57.5664 -99.3516 -136.825 -184.408 -219.386 -263.346c-18.5312 -17.7197 -87.1914 -3.4082 -62.0283 20.668
c80.6846 77.2197 158.529 159.933 214.175 257.492c45.4473 79.6816 80.7744 176.041 69.5615 269.166c-4.47363 37.1592 -18.5713 80.6338 -50.6426 103.222c-41.0068 28.8818 -92.8154 -7.83789 -124.802 -34.5107c-104.428 -87.085 -170.3 -213.29 -189.372 -346.481
c6.60938 -52.0781 6.54785 -105.008 -0.500977 -156.906c-3.89355 -28.6738 -68.8408 -28.5391 -72.791 -0.000976562c-7.21191 52.1465 -6.95312 105.081 0.224609 157.075c-10.2881 78.4023 -36.3701 154.642 -79.2363 221.477
c-15.6748 24.4365 -36.2061 50.1631 -63.3184 62.3447c-27.1914 12.2207 -54.4336 -1.06543 -76.9482 -17.3203c-51.0078 -36.8154 -85.8115 -97.7686 -111.29 -154.017c-91.7617 -202.567 -61.6064 -468.894 96.4941 -631.761
c69.3428 -71.4326 167.82 -113.55 267.487 -113.212c99.4697 0.332031 198.348 44.5 274.35 107.02c183.377 150.838 259.576 398.537 306.246 622.555c26.7861 128.577 43.9199 258.968 58.6816 389.398c9.79297 86.5107 17.7207 173.455 17.5352 260.377
c-3.76367 47.2217 -6.6377 94.5391 -8.54785 141.936c-2.11328 52.5576 127.754 52.1465 134.346 0c6.11328 -48.3604 8.62012 -96.8779 8.71582 -145.44c6.12988 -77.084 14.6719 -153.965 25.7715 -230.52c31.5635 -217.719 82.0527 -432.389 152.623 -640.793
c33.2256 -98.1289 66.1416 -197.874 117.206 -288.521c39.0518 -69.3252 104.54 -178.345 197.901 -167.724c13.7314 1.56641 39.9141 -13.9053 15.6357 -21.1396c-113.409 -33.7783 -228.762 39.5928 -295.552 126.993c-69.7363 91.2598 -112.552 198.55 -151.648 305.598
c-10.4062 28.4932 -20.3281 57.1895 -29.8223 86.0371c-51.6445 -2.10156 -103.571 -3.99512 -155.143 -3.36426c-1.57715 -5.30176 -3.11523 -10.6152 -4.73242 -15.9062c-75.3428 -246.206 -216.771 -487.347 -477.745 -566.64
c-122.745 -37.2939 -258.1 -36.4033 -376.951 14.458zM1134.01 439.952c-3.91602 15.9336 -7.69727 31.8965 -11.3818 47.876c-15.0605 -91.5986 -33.71 -182.605 -58.3037 -272.079c43.3789 2.74414 87.0225 3.9668 130.537 4.90234
c-22.7012 72.4297 -42.7822 145.722 -60.8516 219.301z" />
    <glyph glyph-name="B" unicode="B" horiz-adv-x="1829" 
d="M1631.16 -204c-97.4863 -149.971 -271.043 -237.421 -450.707 -212.19c-76.7178 10.7783 -169.167 47.21 -203.881 122.192c-34.2344 73.957 -2.62012 162.276 51.0527 217.91c94.1221 97.5479 336.986 195.671 428.81 46.1904
c10.4121 -16.9482 -35.959 -22.3682 -45.1377 -10.8457c-58.1416 72.9883 -153.262 48.7549 -225.815 13.3428c-64.9697 -31.71 -129.343 -82.6895 -140.69 -158.765c-22.1709 -148.635 152.326 -192.324 264.873 -156.754c125.331 39.6094 212.461 149.159 255.468 269.605
c45.1201 126.362 43.5479 274.411 -20.3516 394.136c-53.1045 99.5088 -161.719 182.599 -278.768 172.271c-22.2559 -1.96094 -52.7324 -1.88184 -69.4951 16.1201c-14.6885 15.7764 -6.5918 31.9756 9.62402 42.5059c85.5752 55.5723 164.181 126.244 225.482 208.123
c24.8027 33.1299 52.7441 75.6016 62.6494 116.226c16.4355 67.4102 -72.3516 9.35938 -92.9062 -7.60547c-66.2041 -54.6426 -114.536 -131.766 -155.695 -206.083c-71.2861 -128.729 -121.061 -267.565 -180.543 -401.878
c-11.9336 -69.4268 -29.5576 -137.845 -51.9658 -203.947c-51.1035 -150.771 -125.962 -308.218 -247.985 -414.764c-122.987 -107.386 -284.294 -143.823 -441.521 -98.2295c-330.575 95.8633 -453.388 498.305 -383.082 804.73
c33.418 145.666 114.294 325.685 274.479 363.947c69.1787 16.5195 150.629 6.39453 203.907 -44.2188c27.1523 -25.7939 43.1592 -59.2061 52.7773 -95.0518c31.8789 49.6221 71.7139 94.7139 119.302 123.089c36.9785 22.0469 84.6738 31.3604 124.808 11.8369
c35.4287 -17.2354 51.0928 -56.9072 51.7578 -94.6572c0.811523 -45.9424 -17.7256 -93.3047 -36.3867 -134.503c-19.3203 -42.6582 -44.2021 -82.6396 -73.377 -119.246c-55.8086 -70.0244 -131.512 -138.025 -224.626 -144.55
c-19.1797 -1.34668 -27.085 20.2949 -5.21777 21.9795c77.4619 5.9668 141.237 70.1992 187.603 127.653c44.7031 55.3916 79.1064 121.071 97.9707 189.794c10.542 38.3984 15.292 85.9248 -17.2012 115.511c-32.2178 29.3379 -68.7734 -2.75 -93.0518 -27.1582
c-52.9346 -53.2109 -91.9805 -118.941 -118.417 -188.881c-8.44629 -22.335 -68.1309 -20.8535 -70.2041 5.41406c-5.71289 72.3174 -9.77539 169.753 -84.7354 207.137c-69.168 34.499 -144.24 -7.73047 -191.58 -58.7158
c-111.454 -120.041 -151.346 -307.43 -144.9 -466.438c5.85938 -144.545 50.7988 -294.431 142.594 -408.206c86.7412 -107.516 225.364 -187.738 367.227 -162.451c129.19 23.0273 222.547 134.526 284.44 242.571c74.0752 129.304 124.694 275.657 151.768 421.926
c26.9434 145.57 32.1436 301.705 -5.31934 446.013c-33.0117 127.168 -100.473 254.765 -213.91 327.234c-114.772 73.3262 -253.987 82.499 -378.456 28.3867c-125.917 -54.7383 -226.784 -160.513 -301.907 -273.094c-12.6045 -18.8916 -74.6562 -13.2236 -61.207 9.61816
c19.1006 32.4424 39.9082 63.7021 62.6094 93.7393c91.8574 121.528 220.287 218.028 370.726 251.097c163.127 35.8574 342.627 -10.666 468.426 -120.108c119.319 -103.808 176.165 -261.255 194.787 -414.566c7.23438 -59.5557 8.87402 -119.787 5.84863 -179.906
c15.8213 38.1621 31.6875 76.3018 48.2803 114.131c41.835 95.3564 88.9102 188.842 151.001 272.8c46.4385 62.79 118.795 147.582 205.311 144.929c109.341 -3.35254 59.0371 -143.508 25.9971 -199.243c-39.1592 -66.0576 -91.4463 -125.562 -149.216 -177.382
c146.116 -26.1777 275.194 -131.163 327.301 -273.127c58.3945 -159.098 33.4346 -347.979 -58.6201 -489.594z" />
    <glyph glyph-name="C" unicode="C" horiz-adv-x="1021" 
d="M251.231 -473.695c-111.003 22.4814 -200.946 85.8613 -259.82 182.406c-55.0986 90.3418 -77.9062 198.641 -87.0449 302.938c-10.3223 117.787 -2.41113 236.977 21.8389 352.65c23.957 114.299 62.3555 225.149 115.584 329.148
c51.6113 100.839 116.39 201.108 197.654 280.723c81.2256 79.5801 183.05 132.921 298.363 135.366c104.822 2.21973 209.024 -42.2979 256.545 -140.01c51.3633 -105.616 31.626 -229.725 -3.15527 -337.229c-30.499 -94.2803 -87.9131 -199.886 -184.734 -239.507
c-30.876 -12.6377 -69.0322 -16.0244 -99.21 -1.2959c-44.2129 -72.7285 -114.068 -135.468 -196.854 -153.357c-47.4863 -10.2656 -103.604 -4.89648 -139.399 31.2373c-31.3838 31.6709 -41.6104 78.9209 -39.9648 122.103
c3.61133 94.6348 55.2002 188.577 117.753 257.356c67.3818 74.0811 155.098 122.908 252.139 145.789c28.8652 6.80664 53.1045 -23.501 15.4727 -31.9863c-41.458 -9.34766 -80.4082 -26.0703 -116.891 -47.7285c-73.123 -43.4072 -133.518 -108 -171.995 -183.822
c-31.9248 -62.9082 -69.624 -176.401 -14.5645 -237.298c70.4463 -77.9121 184.424 31.2598 225.758 90.3086c10.8691 15.5283 20.3516 31.9072 28.6113 48.8721c-15.2979 31.6934 -16.2441 72.1768 -9.02051 104.834c8.25977 37.3223 58.5693 57.0254 86.4932 25.3936
c28.0762 -31.8057 1.12109 -91.9639 -12.9199 -124.322c-2.18652 -5.03711 -4.51953 -10.0576 -6.95312 -15.0605c21.5459 -25.5635 53.1885 -11.1729 76.752 3.93262c38.9951 24.9883 69.8887 62.0342 93.2041 101.61c48.7207 82.7012 78.3633 186.616 78.1094 282.524
c-0.253906 95.8857 -41.5596 199.355 -137.677 234.993c-81.8281 30.3408 -162.118 2.13477 -230.886 -44.6641c-76.2217 -51.8701 -135.721 -130.661 -185.597 -206.996c-53.5381 -81.9404 -97.5205 -170.091 -130.988 -262.066
c-66.4297 -182.565 -90.6064 -382.305 -63.043 -575.046c23.4336 -163.865 104.591 -357.181 285.5 -392.745c46.5791 -9.15625 93.7949 -8.35059 140.296 0.759766c14.8408 2.90723 23.9062 5.02539 43.542 11.1045c30.6846 9.5 60.3613 21.8164 88.7695 36.8037
c234.644 123.799 309.13 407.242 310.978 653.312c0.118164 16.3057 41.4521 16.1816 41.4639 0c0.0341797 -53.4814 -2.59668 -106.935 -9.4707 -159.999c-19.8672 -153.356 -75.6309 -304.837 -185.484 -416.735c-62.7666 -63.9336 -142.166 -115.01 -227.003 -144.219
c-82.8701 -28.5322 -176.012 -37.5244 -262.15 -20.0801z" />
    <glyph glyph-name="D" unicode="D" horiz-adv-x="1834" 
d="M765.184 -358.208c-122.987 -107.386 -284.299 -143.821 -441.526 -98.2275c-330.581 95.8633 -453.394 498.305 -383.088 804.73c33.418 145.666 114.294 325.685 274.479 363.947c69.1787 16.5195 150.629 6.39453 203.907 -44.2188
c27.1523 -25.7939 43.1592 -59.2061 52.7773 -95.0518c31.8789 49.6221 71.7139 94.7139 119.302 123.089c36.9785 22.0469 84.6738 31.3604 124.808 11.8369c35.4287 -17.2354 51.0928 -56.9072 51.7578 -94.6572c0.805664 -45.9424 -17.7256 -93.3047 -36.3867 -134.503
c-19.3262 -42.6582 -44.208 -82.6396 -73.3828 -119.246c-55.8086 -70.0244 -131.512 -138.025 -224.626 -144.55c-19.1797 -1.34668 -27.085 20.2949 -5.21777 21.9795c77.4619 5.9668 141.237 70.1992 187.603 127.653c44.7031 55.3916 79.1064 121.071 97.9707 189.794
c10.542 38.3984 15.292 85.9248 -17.2012 115.511c-32.2178 29.3379 -68.7734 -2.75 -93.0518 -27.1582c-52.9346 -53.2109 -91.9805 -118.941 -118.417 -188.881c-8.44629 -22.335 -68.1309 -20.8535 -70.2041 5.41406c-5.71289 72.3174 -9.77539 169.753 -84.7354 207.137
c-69.168 34.499 -144.24 -7.73047 -191.58 -58.7158c-111.454 -120.041 -151.346 -307.43 -144.9 -466.438c5.85938 -144.545 50.7988 -294.431 142.594 -408.206c86.7412 -107.516 225.364 -187.738 367.227 -162.451c129.19 23.0273 222.547 134.526 284.44 242.571
c74.0752 129.304 124.694 275.657 151.768 421.926c26.9434 145.57 32.1436 301.705 -5.31934 446.013c-33.0117 127.168 -100.473 254.765 -213.91 327.234c-114.772 73.3262 -253.987 82.499 -378.456 28.3867c-125.917 -54.7383 -226.784 -160.513 -301.907 -273.094
c-12.6045 -18.8926 -74.6562 -13.2246 -61.207 9.61719c19.1006 32.4424 39.9082 63.7021 62.6094 93.7393c91.8574 121.528 220.287 218.028 370.726 251.097c163.133 35.8574 342.633 -10.666 468.432 -120.108c119.319 -103.808 176.165 -261.255 194.787 -414.566
c3.21191 -26.4082 5.21191 -52.957 6.32715 -79.5625c14.165 35.0625 29.2705 69.6348 44.6973 103.666c50.873 112.231 122.312 244.307 245.282 289.506c106.704 39.2148 230.931 -15.4219 297.225 -102.439c74.4414 -97.7061 106.918 -228.902 109.668 -350.064
c2.89648 -127.67 -24.6777 -255.869 -72.9307 -373.791c-43.8584 -107.178 -113.81 -211.571 -220.418 -264.241c-105.239 -51.9883 -252.511 -57.4873 -343.912 26.1494c-87.4004 79.9746 -51.1826 218.022 2.83984 306.663
c55.752 91.4688 150.528 168.852 257.694 188.459c51.2676 9.38086 110.559 3.61719 151.357 -31.6709c36.5957 -31.6484 52.4229 -82.251 26.9951 -125.607c-9.33008 -15.9062 -60.2031 -13.6465 -51.0195 8.01758c19.5625 46.1572 -15.4043 104.822 -63.2793 115.009
c-52.5742 11.1846 -111.082 -20.8408 -152.365 -50.4893c-80.6846 -57.9492 -143.97 -157.942 -146.696 -258.916c-1.3125 -48.5234 14.1367 -95.0186 54.7773 -124.238c33.1475 -23.8281 74.3516 -32.4658 114.327 -25.9189
c90.8486 14.8691 161.188 82.2842 208.078 157.938c106.495 171.82 150.742 390.429 122.092 590.083c-13.6973 95.458 -47.8643 207.639 -126.549 270.057c-90.8604 72.0693 -195.632 11.917 -259.982 -63.5898c-69.2744 -81.2764 -112.299 -183 -152.207 -280.932
c-17.3936 -42.6807 -33.75 -85.8457 -47.6836 -129.687c-7.97852 -109.453 -31.457 -218.146 -66.4014 -321.239c-51.1035 -150.771 -125.962 -308.218 -247.985 -414.764z" />
    <glyph glyph-name="E" unicode="E" horiz-adv-x="949" 
d="M849.822 168.489c53.1885 -167.127 -75.043 -333.022 -202.786 -426.379c-117.184 -85.6592 -267.059 -127.607 -411.671 -113.729c-141.936 13.6182 -279.877 91.418 -313.977 238.329c-33.75 145.396 28.5273 303.023 112.13 420.427
c51.9268 72.915 114.992 136.336 186.803 188.071c-64.4854 2.85059 -126.812 19.5449 -180.277 60.8281c-96.5166 74.5205 -83.0557 205.108 -33.6367 303.474c81.4678 162.157 283.742 267.503 463.417 229.364c78.2168 -16.5986 158.051 -64.5977 177.196 -147.581
c17.7988 -77.1289 -22.4424 -166.434 -93.751 -201.817c-31.9414 -15.8438 -70.9766 -20.374 -105.408 -10.3389c-1.70117 0.501953 -3.43652 1.07617 -5.18359 1.70117c-8.22656 -8.73926 -16.7627 -16.1709 -23.8281 -21.4395
c-67.1445 -50.0674 -196.662 -88.3359 -256.595 -6.71094c-28.7471 39.1533 -17.7822 93.041 -2.7666 135.53c16.126 45.627 44.9629 85.5244 81.9072 116.514c10.8184 9.07129 28.2178 11.0039 41.3174 6.1748c8.67676 -3.2002 22.1152 -14.5137 10.835 -23.5508
c-32.4316 -25.9854 -59.1221 -57.5605 -77.2256 -95.125c-18.4414 -38.2803 -35.7168 -94.2295 -5.5332 -131.411c45.9092 -56.5469 154.304 -13.585 195.756 42.5283c-12.8857 12.8516 -20.7852 29.4727 -15.6807 48.1846c8.42871 30.8994 61.499 37.3906 77.6475 10.0127
c10.5303 -17.8496 4.43945 -38.6914 -7.47168 -57.4424c6.1582 -3.00879 12.9365 -4.86816 19.8447 -5.55566c29.2031 -2.88477 56.6426 12.9365 76.8418 32.7412c42.1172 41.2891 59.2568 107.121 39.7285 163.234c-44.6865 128.419 -215.426 131.084 -319.166 83.5469
c-111.634 -51.1543 -205.041 -164.997 -201.458 -292.216c1.8877 -67.0439 34.5391 -123.821 96.3311 -152.162c67.8379 -31.1133 149.705 -8.77832 219.217 3.55566c21.9287 3.8877 58.1973 0.541016 72.1084 -20.1768
c13.9229 -20.7402 -6.34375 -36.7754 -25.0107 -43.5088c-135.102 -48.749 -254.309 -144.179 -335.438 -262.264c-72.6953 -105.813 -132.076 -240.779 -108.248 -371.745c24.7012 -135.755 152.478 -203.892 281.218 -207.988
c134.217 -4.27051 269.605 47.2393 373.74 130.656c105.262 84.3242 203.294 230.046 161.211 370.319c-4.98047 16.5986 33.5586 19.4717 37.8633 5.94922z" />
    <glyph glyph-name="E" unicode="&#xcb;" horiz-adv-x="949" 
d="M849.822 168.489c53.1885 -167.127 -75.043 -333.022 -202.786 -426.379c-117.184 -85.6592 -267.059 -127.607 -411.671 -113.729c-141.936 13.6182 -279.877 91.418 -313.977 238.329c-33.75 145.396 28.5273 303.023 112.13 420.427
c51.9268 72.915 114.992 136.336 186.803 188.071c-64.4854 2.85059 -126.812 19.5449 -180.277 60.8281c-96.5166 74.5205 -83.0557 205.108 -33.6367 303.474c81.4678 162.157 283.742 267.503 463.417 229.364c78.2168 -16.5986 158.051 -64.5977 177.196 -147.581
c17.7988 -77.1289 -22.4424 -166.434 -93.751 -201.817c-31.9414 -15.8438 -70.9766 -20.374 -105.408 -10.3389c-1.70117 0.501953 -3.43652 1.07617 -5.18359 1.70117c-8.22656 -8.73926 -16.7627 -16.1709 -23.8281 -21.4395
c-67.1445 -50.0674 -196.662 -88.3359 -256.595 -6.71094c-28.7471 39.1533 -17.7822 93.041 -2.7666 135.53c16.126 45.627 44.9629 85.5244 81.9072 116.514c10.8184 9.07129 28.2178 11.0039 41.3174 6.1748c8.67676 -3.2002 22.1152 -14.5137 10.835 -23.5508
c-32.4316 -25.9854 -59.1221 -57.5605 -77.2256 -95.125c-18.4414 -38.2803 -35.7168 -94.2295 -5.5332 -131.411c45.9092 -56.5469 154.304 -13.585 195.756 42.5283c-12.8857 12.8516 -20.7852 29.4727 -15.6807 48.1846c8.42871 30.8994 61.499 37.3906 77.6475 10.0127
c10.5303 -17.8496 4.43945 -38.6914 -7.47168 -57.4424c6.1582 -3.00879 12.9365 -4.86816 19.8447 -5.55566c29.2031 -2.88477 56.6426 12.9365 76.8418 32.7412c42.1172 41.2891 59.2568 107.121 39.7285 163.234c-44.6865 128.419 -215.426 131.084 -319.166 83.5469
c-111.634 -51.1543 -205.041 -164.997 -201.458 -292.216c1.8877 -67.0439 34.5391 -123.821 96.3311 -152.162c67.8379 -31.1133 149.705 -8.77832 219.217 3.55566c21.9287 3.8877 58.1973 0.541016 72.1084 -20.1768
c13.9229 -20.7402 -6.34375 -36.7754 -25.0107 -43.5088c-135.102 -48.749 -254.309 -144.179 -335.438 -262.264c-72.6953 -105.813 -132.076 -240.779 -108.248 -371.745c24.7012 -135.755 152.478 -203.892 281.218 -207.988
c134.217 -4.27051 269.605 47.2393 373.74 130.656c105.262 84.3242 203.294 230.046 161.211 370.319c-4.98047 16.5986 33.5586 19.4717 37.8633 5.94922z" />
    <glyph glyph-name="E" unicode="&#xca;" horiz-adv-x="949" 
d="M849.822 168.489c53.1885 -167.127 -75.043 -333.022 -202.786 -426.379c-117.184 -85.6592 -267.059 -127.607 -411.671 -113.729c-141.936 13.6182 -279.877 91.418 -313.977 238.329c-33.75 145.396 28.5273 303.023 112.13 420.427
c51.9268 72.915 114.992 136.336 186.803 188.071c-64.4854 2.85059 -126.812 19.5449 -180.277 60.8281c-96.5166 74.5205 -83.0557 205.108 -33.6367 303.474c81.4678 162.157 283.742 267.503 463.417 229.364c78.2168 -16.5986 158.051 -64.5977 177.196 -147.581
c17.7988 -77.1289 -22.4424 -166.434 -93.751 -201.817c-31.9414 -15.8438 -70.9766 -20.374 -105.408 -10.3389c-1.70117 0.501953 -3.43652 1.07617 -5.18359 1.70117c-8.22656 -8.73926 -16.7627 -16.1709 -23.8281 -21.4395
c-67.1445 -50.0674 -196.662 -88.3359 -256.595 -6.71094c-28.7471 39.1533 -17.7822 93.041 -2.7666 135.53c16.126 45.627 44.9629 85.5244 81.9072 116.514c10.8184 9.07129 28.2178 11.0039 41.3174 6.1748c8.67676 -3.2002 22.1152 -14.5137 10.835 -23.5508
c-32.4316 -25.9854 -59.1221 -57.5605 -77.2256 -95.125c-18.4414 -38.2803 -35.7168 -94.2295 -5.5332 -131.411c45.9092 -56.5469 154.304 -13.585 195.756 42.5283c-12.8857 12.8516 -20.7852 29.4727 -15.6807 48.1846c8.42871 30.8994 61.499 37.3906 77.6475 10.0127
c10.5303 -17.8496 4.43945 -38.6914 -7.47168 -57.4424c6.1582 -3.00879 12.9365 -4.86816 19.8447 -5.55566c29.2031 -2.88477 56.6426 12.9365 76.8418 32.7412c42.1172 41.2891 59.2568 107.121 39.7285 163.234c-44.6865 128.419 -215.426 131.084 -319.166 83.5469
c-111.634 -51.1543 -205.041 -164.997 -201.458 -292.216c1.8877 -67.0439 34.5391 -123.821 96.3311 -152.162c67.8379 -31.1133 149.705 -8.77832 219.217 3.55566c21.9287 3.8877 58.1973 0.541016 72.1084 -20.1768
c13.9229 -20.7402 -6.34375 -36.7754 -25.0107 -43.5088c-135.102 -48.749 -254.309 -144.179 -335.438 -262.264c-72.6953 -105.813 -132.076 -240.779 -108.248 -371.745c24.7012 -135.755 152.478 -203.892 281.218 -207.988
c134.217 -4.27051 269.605 47.2393 373.74 130.656c105.262 84.3242 203.294 230.046 161.211 370.319c-4.98047 16.5986 33.5586 19.4717 37.8633 5.94922z" />
    <glyph glyph-name="E" unicode="&#xc9;" horiz-adv-x="949" 
d="M849.822 168.489c53.1885 -167.127 -75.043 -333.022 -202.786 -426.379c-117.184 -85.6592 -267.059 -127.607 -411.671 -113.729c-141.936 13.6182 -279.877 91.418 -313.977 238.329c-33.75 145.396 28.5273 303.023 112.13 420.427
c51.9268 72.915 114.992 136.336 186.803 188.071c-64.4854 2.85059 -126.812 19.5449 -180.277 60.8281c-96.5166 74.5205 -83.0557 205.108 -33.6367 303.474c81.4678 162.157 283.742 267.503 463.417 229.364c78.2168 -16.5986 158.051 -64.5977 177.196 -147.581
c17.7988 -77.1289 -22.4424 -166.434 -93.751 -201.817c-31.9414 -15.8438 -70.9766 -20.374 -105.408 -10.3389c-1.70117 0.501953 -3.43652 1.07617 -5.18359 1.70117c-8.22656 -8.73926 -16.7627 -16.1709 -23.8281 -21.4395
c-67.1445 -50.0674 -196.662 -88.3359 -256.595 -6.71094c-28.7471 39.1533 -17.7822 93.041 -2.7666 135.53c16.126 45.627 44.9629 85.5244 81.9072 116.514c10.8184 9.07129 28.2178 11.0039 41.3174 6.1748c8.67676 -3.2002 22.1152 -14.5137 10.835 -23.5508
c-32.4316 -25.9854 -59.1221 -57.5605 -77.2256 -95.125c-18.4414 -38.2803 -35.7168 -94.2295 -5.5332 -131.411c45.9092 -56.5469 154.304 -13.585 195.756 42.5283c-12.8857 12.8516 -20.7852 29.4727 -15.6807 48.1846c8.42871 30.8994 61.499 37.3906 77.6475 10.0127
c10.5303 -17.8496 4.43945 -38.6914 -7.47168 -57.4424c6.1582 -3.00879 12.9365 -4.86816 19.8447 -5.55566c29.2031 -2.88477 56.6426 12.9365 76.8418 32.7412c42.1172 41.2891 59.2568 107.121 39.7285 163.234c-44.6865 128.419 -215.426 131.084 -319.166 83.5469
c-111.634 -51.1543 -205.041 -164.997 -201.458 -292.216c1.8877 -67.0439 34.5391 -123.821 96.3311 -152.162c67.8379 -31.1133 149.705 -8.77832 219.217 3.55566c21.9287 3.8877 58.1973 0.541016 72.1084 -20.1768
c13.9229 -20.7402 -6.34375 -36.7754 -25.0107 -43.5088c-135.102 -48.749 -254.309 -144.179 -335.438 -262.264c-72.6953 -105.813 -132.076 -240.779 -108.248 -371.745c24.7012 -135.755 152.478 -203.892 281.218 -207.988
c134.217 -4.27051 269.605 47.2393 373.74 130.656c105.262 84.3242 203.294 230.046 161.211 370.319c-4.98047 16.5986 33.5586 19.4717 37.8633 5.94922z" />
    <glyph glyph-name="F" unicode="F" horiz-adv-x="744" 
d="M1431.23 933.751c-39.7334 -87.0566 -138.697 -137.329 -226.734 -160.847c-100.478 -26.8652 -206.105 -24.3975 -305.203 7.12109c-12.3623 3.92676 -21.3721 14.3955 -11.9404 25.9512c9.63477 11.8037 32.6396 10.9131 45.5312 6.80566
c89.7949 -28.583 186.12 -27.4561 274.98 4.31641c71.0049 25.3887 143.7 71.7373 167.37 147.391c24.8135 79.3037 -21.3262 150.438 -98.5508 172.856c-130.746 37.959 -265.848 -65.624 -301.902 -187.822c-6.77246 -22.9658 -70.8018 -18.2051 -63.6689 10.0059
c22.5996 89.3838 -31.7275 182.137 -106.789 228.677c-93.8467 58.1807 -212.975 42.4268 -313.193 11.1562c-161.284 -50.3154 -321.604 -147.029 -405.371 -298.571c-83.9922 -151.954 -85.7441 -352.792 39.4854 -482.507
c82.0928 -85.0342 189.434 -136.994 286.948 -202.032c-1.58301 42.2236 -2.72656 84.4648 -3.52148 126.717c-0.878906 46.9736 -1.53223 94.167 -1.78613 141.474c-31.9248 -2.31543 -64.1758 -3.11035 -94.5957 1.81445c-20.6445 3.34082 -18.4863 19.624 0 24.002
c30.2344 7.15527 62.4795 9.17773 94.4824 10.8965c-0.0566406 165.442 5.84277 331.91 27.5693 494.846c6.45703 48.416 126.328 48.7207 124.66 0c-3.79785 -111.229 -12.835 -222.197 -16.8809 -333.442c-1.80859 -49.6953 -3.09863 -99.4131 -3.9834 -149.143
c25.4502 3.2793 50.8555 6.9248 76.21 10.9082c11.2354 1.76953 34.6514 0.394531 39.8516 -12.8965c5.30762 -13.5674 -11.9619 -21.1514 -22.6279 -22.7178c-31.2598 -4.58594 -62.5986 -8.59766 -93.9932 -12.1074
c-0.636719 -49.3516 -0.868164 -98.7148 -0.479492 -148.061c0.630859 -80.4873 2.89551 -160.952 5.97754 -241.377c47.9824 -53.3125 84.707 -117.787 91.6377 -190.285c8.55273 -89.4512 -29.4795 -174.772 -82.9775 -244.244
c-1.76953 -2.30469 -4.64844 -3.91016 -8.07422 -4.90137c-19.0723 -14.2041 -58.6709 -12.5137 -68.0244 8.16992c-22.9033 50.6592 -27.9629 112.068 -34.8984 166.693c-7.03711 55.4141 -12.3281 110.879 -16.7227 166.569
c-4.36133 55.335 -7.66895 110.738 -10.1484 166.175c-19.2246 14.1934 -38.9502 27.5078 -58.665 40.0049c-149.863 95.0186 -325.819 181.839 -376.247 367.588c-47.8643 176.306 34.499 359.683 165.819 477.205c66.9307 59.8936 145.012 105.38 227.527 140.184
c92.6572 39.0801 194.595 67.6016 295.946 64.1924c90.5225 -3.04785 180.582 -32.0088 243.665 -99.4521c26.8477 -28.7012 47.1992 -62.0342 58.6992 -97.835c34.7021 40.0322 79.71 71.3311 129.428 91.4346c79.5068 32.1445 173.46 32.9443 251.068 -5.00293
c84.8486 -41.4912 119.731 -133.123 80.1221 -219.909zM565.543 4.30566c-5.82617 12.3789 -12.457 24.2646 -19.6807 35.7646c0.366211 -8.45703 0.6875 -16.9082 1.07031 -25.3594c2.50195 -55.5381 5.57812 -111.042 8.125 -166.58
c1.30176 -28.4082 4.05664 -58.2646 4.67676 -87.918c35.6768 76.791 43.8574 163.251 5.80859 244.093z" />
    <glyph glyph-name="G" unicode="G" horiz-adv-x="1091" 
d="M996.976 339.076c8.14746 -105.268 2.23047 -213.251 -17.6641 -316.918c-32.8145 -170.959 -98.4775 -345.169 -244.437 -450.521c-123.196 -88.9277 -342.897 -135.851 -438.366 16.627c-85.3496 136.318 -3.12695 317.03 148.956 355.648
c60.9805 15.4834 144.313 10.2432 177.939 -51.8535c39.6152 -73.1514 -14.2773 -149.824 -57.8027 -206.185c-9.82031 -12.7227 -52.6191 -5.00391 -38.8428 12.9414c40.6807 52.9805 108.783 159.386 28.5322 212.619
c-64.9873 43.1143 -160.017 -11.6016 -200.725 -64.6328c-42.416 -55.2568 -53.7754 -134.803 -27.2939 -199.243c23.9521 -58.2822 77.6309 -108.315 143.306 -108.891c59.6846 -0.524414 121.043 31.3047 166.873 67.4268
c52.1289 41.0859 93.7051 93.4521 126.486 150.855c74.0137 129.597 105.453 283.122 115.471 430.67c5.18945 76.3398 3.93262 153.469 -2.23145 229.713c-4.49023 55.5322 -14.5029 110.197 -22.7969 165.088c-55.8877 -109.2 -122.029 -212.884 -197.919 -309.424
c-82.1328 -104.473 -175.844 -200.696 -293.141 -265.346c-104.861 -57.7979 -228.553 -76.7861 -325.492 7.72949c-94.9004 82.7354 -110.761 219.048 -108.67 337.696c4.24316 240.532 101.396 483.639 263.627 661.336c81.1348 88.8652 190.437 159.453 310.336 179.968
c104.879 17.9395 243.575 -13.6133 281.072 -127.157c17.6074 -53.3125 6.46777 -107.561 -11.1455 -159.329c-17.9512 -52.7715 -46.5625 -105.183 -86.1387 -144.911c-32.6006 -32.7246 -76.8193 -57.5947 -124.486 -51.0703
c-18.8184 2.5752 -36.4482 10.5137 -48.6357 24.6787c-27.1582 -47.8301 -66.2324 -90.7021 -112.395 -112.749c-64.6768 -30.8877 -149.564 -13.9277 -167.656 63.5508c-17.1455 73.416 36.9385 156.129 87.7998 204.331c56.5352 53.583 131.275 86.9043 208.911 92.8594
c11.0547 0.844727 36.6182 0.749023 39.334 -14.9375c2.79492 -16.1533 -19.9346 -19.5117 -30.9551 -20.3516c-110.608 -8.41797 -221.284 -100.534 -242.938 -210.957c-5.54395 -28.2617 -4.23633 -63.8711 17.5234 -85.5186
c24.6953 -24.5664 58.6533 -6.56445 81.7881 11.4717c50.5352 39.3955 75.7656 99.8018 88.1777 160.822c4.6543 22.8584 55.5664 26.8418 64.2998 4.95801c9.5498 -23.9346 4.05078 -52.4053 15.5732 -75.2754c14.9932 -29.7666 47.9482 -8.73926 66.5078 6.7832
c42.2129 35.2998 68.8076 85.7393 86.2236 137.136c34.2344 101.041 7.05371 236.773 -117.771 250.268c-92.8945 10.04 -184.278 -52.8564 -247.738 -114.198c-70.5537 -68.1982 -128.689 -149.204 -175.602 -235.179
c-96.4551 -176.768 -142.234 -380.315 -119.308 -581.164c9.85449 -86.3301 44.833 -205.875 146.584 -220.192c102.09 -14.3623 204.709 68.4297 274.941 132.386c155.858 141.919 276.4 327.82 366.337 517.17c0.512695 1.08789 1.29004 2.01758 2.1748 2.88574
c-0.327148 31.3838 76.999 29.9805 87.4678 4.9248c40.8271 -97.7119 55.7812 -211.622 63.9062 -316.54z" />
    <glyph glyph-name="H" unicode="H" horiz-adv-x="2136" 
d="M2119.77 163.92c3.41406 14.3398 46.6387 11.4014 43.3027 -3.34375c-25.3721 -112.728 -41.6836 -232.942 -107.849 -330.84c-34.8545 -51.5654 -82.4482 -94.5107 -140.009 -119.155c-65.3252 -27.9639 -142.065 -19.3262 -206.731 6.78906
c-144.584 58.4004 -189.496 214.591 -207.926 354.978c-7.11035 54.1807 -11.6914 108.767 -13.8887 163.487c-48.6641 -17.5625 -99.5254 -28.4648 -151.418 -31.4229c-81.5977 -4.64844 -162.423 11.0381 -242.527 24.251
c-10.5762 1.74707 -21.4619 3.40332 -32.5332 4.94141c-11.6748 -60.1924 -27.5244 -119.506 -47.0303 -177.05c-51.1035 -150.771 -125.962 -308.218 -247.985 -414.764c-122.987 -107.386 -284.294 -143.823 -441.521 -98.2295
c-330.581 95.8633 -453.394 498.305 -383.088 804.73c33.418 145.666 114.294 325.685 274.479 363.947c69.1787 16.5195 150.629 6.39453 203.907 -44.2188c27.1523 -25.7939 43.1592 -59.2061 52.7773 -95.0518c31.8789 49.6221 71.7139 94.7139 119.302 123.089
c36.9785 22.0469 84.6738 31.3604 124.808 11.8369c35.4287 -17.2354 51.0928 -56.9072 51.7578 -94.6572c0.811523 -45.9424 -17.7256 -93.3047 -36.3867 -134.503c-19.3203 -42.6582 -44.2021 -82.6396 -73.377 -119.246
c-55.8086 -70.0244 -131.512 -138.025 -224.626 -144.55c-19.1797 -1.34668 -27.085 20.2949 -5.21777 21.9795c77.4619 5.9668 141.237 70.1992 187.603 127.653c44.7031 55.3916 79.1064 121.071 97.9707 189.794c10.542 38.3984 15.292 85.9248 -17.2012 115.511
c-32.2178 29.3379 -68.7734 -2.75 -93.0518 -27.1582c-52.9346 -53.2109 -91.9805 -118.941 -118.417 -188.881c-8.44629 -22.335 -68.1309 -20.8535 -70.2041 5.41406c-5.70801 72.3174 -9.77637 169.753 -84.7363 207.137
c-69.168 34.499 -144.24 -7.73047 -191.58 -58.7158c-111.454 -120.041 -151.346 -307.43 -144.9 -466.438c5.85938 -144.545 50.7988 -294.431 142.595 -408.206c86.7412 -107.516 225.364 -187.738 367.227 -162.451c129.196 23.0273 222.553 134.526 284.446 242.571
c74.0752 129.304 124.694 275.657 151.768 421.926c0.433594 2.34961 0.816406 4.72754 1.23926 7.08301c-106.422 -1.23926 -210.055 -31.5801 -257.299 -138.763c-6.29883 -14.2939 -47.5703 -9.94434 -40.4092 6.35059c51.8135 117.899 181.99 157.521 302.104 158.225
c21.8047 136.014 23.7031 279.617 -10.9541 413.118c-33.0117 127.168 -100.473 254.765 -213.91 327.234c-114.778 73.3262 -253.993 82.499 -378.462 28.3867c-125.917 -54.7383 -226.784 -160.513 -301.907 -273.094
c-12.6045 -18.8926 -74.6562 -13.2246 -61.207 9.61719c19.1006 32.4424 39.9082 63.7021 62.6094 93.7393c91.8574 121.528 220.287 218.028 370.726 251.097c163.133 35.8574 342.633 -10.666 468.432 -120.108c119.319 -103.808 176.165 -261.255 194.787 -414.566
c13.0996 -107.842 8.16992 -217.898 -10.5479 -325.465c55.1494 -8.0625 109.927 -18.8975 165.341 -25.2979c81.9639 -9.46582 161.792 -3.19434 239.395 25.7725c5.49316 2.05078 10.8799 4.32129 16.2832 6.55273c-2.56934 104.603 3.60645 209.521 18.002 312.86
c11.6406 83.5527 27.0615 167.055 49.334 248.466c19.6982 72.0078 49.3184 142.854 100.975 198.15c44.6191 47.7627 109.651 80.6172 175.861 64.3672c54.1348 -13.292 89.293 -60.542 104.962 -111.832c43.2549 -141.569 -24.1602 -304.55 -93.959 -426.174
c-58.7607 -102.388 -138.402 -194.02 -237.883 -257.536c1.73535 -83.7725 8.60352 -167.448 21.2754 -250.065c17.0723 -111.336 53.4307 -258.016 168.738 -306.995c105.272 -44.7148 205.959 71.6465 246.864 154.9c42.168 85.8174 57.916 180.633 79.873 272.822z
M1608.65 497.287c-4.13574 -55.1719 -6.19629 -110.647 -6.06152 -166.157c69.5674 51.2051 128.3 117.482 174.665 190.262c74.2783 116.593 139.209 263.188 123.929 404.29c-5.46582 50.4785 -30.9561 130.689 -90.624 139.868
c-66.666 10.2549 -109.837 -82.5381 -127.957 -131.603c-24.4873 -66.3057 -35.6543 -137.35 -47.21 -206.788c-12.6777 -76.2051 -20.9717 -152.855 -26.7412 -229.872z" />
    <glyph glyph-name="I" unicode="I" horiz-adv-x="813" 
d="M785.605 -300.027c25.4453 -40.8887 -87.501 -54.7373 -109.897 -26.4072c-62.7842 79.3828 -83.3555 175.832 -92.2236 274.738c-9.48242 105.774 -2.99707 212.196 7.97852 317.604c9.96191 95.6553 24.9102 190.725 36.8271 286.143
c11.8213 94.6406 27.1016 190.622 27.3213 286.182c0.191406 83.7998 -27.541 180.373 -124.672 190.51c-80.2734 8.37305 -165.149 -31.5518 -232.739 -70.7949c-68.79 -39.9424 -131.05 -91.9482 -181.827 -153.262c-52.8281 -63.793 -100.467 -143.548 -110.152 -227.229
c-7.375 -63.6738 18.2109 -158.568 100.597 -137.608c75.2695 19.1514 122.525 100.23 130.188 172.999c2.94629 27.9863 72.5537 27.2764 70.959 0c-2.53516 -43.3564 0.152344 -107.774 35.7227 -139.608c38.252 -34.2461 89.333 -0.264648 117.702 29.7949
c29.3154 31.0625 56.4844 71.585 70.3115 112.181c8.05762 23.6533 10.5371 50.1973 2.46875 74.2227c-8.26562 24.6221 -34.0938 54.5127 -63.4043 40.8545c-7.4375 -3.46484 -20.6611 -5.78027 -27.7656 0.000976562c-5.57227 4.53613 -8.46289 11.8555 0 15.8281
c54.7158 25.6816 119.128 -2.73242 132.943 -62.7217c15.5566 -67.5391 -32.043 -136.223 -72.8018 -185.682c-41.3115 -50.123 -109.189 -84.6172 -174.689 -64.4238c-31.8965 9.83789 -53.3975 30.5498 -67.5176 56.4453
c-29.6768 -40.9395 -71.7148 -72.3965 -122.515 -86.0146c-86.9277 -23.2979 -191.26 11.7822 -196.759 113.331c-4.72754 87.248 44.376 181.201 93.1982 250.172c52.6475 74.374 118.919 138.505 195.034 188.595c129.483 85.209 354.521 171.472 461.518 7.2627
c57.1436 -87.6992 49.8076 -208.213 47.21 -308.308c-2.85645 -110.136 -16.1758 -219.759 -24.6729 -329.539c-8.61523 -111.273 -13.9004 -222.423 -6.33887 -333.938c6.8623 -101.205 23.5791 -203.881 77.9961 -291.326z" />
    <glyph glyph-name="I" unicode="&#xcf;" horiz-adv-x="813" 
d="M785.605 -300.027c25.4453 -40.8887 -87.501 -54.7373 -109.897 -26.4072c-62.7842 79.3828 -83.3555 175.832 -92.2236 274.738c-9.48242 105.774 -2.99707 212.196 7.97852 317.604c9.96191 95.6553 24.9102 190.725 36.8271 286.143
c11.8213 94.6406 27.1016 190.622 27.3213 286.182c0.191406 83.7998 -27.541 180.373 -124.672 190.51c-80.2734 8.37305 -165.149 -31.5518 -232.739 -70.7949c-68.79 -39.9424 -131.05 -91.9482 -181.827 -153.262c-52.8281 -63.793 -100.467 -143.548 -110.152 -227.229
c-7.375 -63.6738 18.2109 -158.568 100.597 -137.608c75.2695 19.1514 122.525 100.23 130.188 172.999c2.94629 27.9863 72.5537 27.2764 70.959 0c-2.53516 -43.3564 0.152344 -107.774 35.7227 -139.608c38.252 -34.2461 89.333 -0.264648 117.702 29.7949
c29.3154 31.0625 56.4844 71.585 70.3115 112.181c8.05762 23.6533 10.5371 50.1973 2.46875 74.2227c-8.26562 24.6221 -34.0938 54.5127 -63.4043 40.8545c-7.4375 -3.46484 -20.6611 -5.78027 -27.7656 0.000976562c-5.57227 4.53613 -8.46289 11.8555 0 15.8281
c54.7158 25.6816 119.128 -2.73242 132.943 -62.7217c15.5566 -67.5391 -32.043 -136.223 -72.8018 -185.682c-41.3115 -50.123 -109.189 -84.6172 -174.689 -64.4238c-31.8965 9.83789 -53.3975 30.5498 -67.5176 56.4453
c-29.6768 -40.9395 -71.7148 -72.3965 -122.515 -86.0146c-86.9277 -23.2979 -191.26 11.7822 -196.759 113.331c-4.72754 87.248 44.376 181.201 93.1982 250.172c52.6475 74.374 118.919 138.505 195.034 188.595c129.483 85.209 354.521 171.472 461.518 7.2627
c57.1436 -87.6992 49.8076 -208.213 47.21 -308.308c-2.85645 -110.136 -16.1758 -219.759 -24.6729 -329.539c-8.61523 -111.273 -13.9004 -222.423 -6.33887 -333.938c6.8623 -101.205 23.5791 -203.881 77.9961 -291.326z" />
    <glyph glyph-name="I" unicode="&#xce;" horiz-adv-x="813" 
d="M785.605 -300.027c25.4453 -40.8887 -87.501 -54.7373 -109.897 -26.4072c-62.7842 79.3828 -83.3555 175.832 -92.2236 274.738c-9.48242 105.774 -2.99707 212.196 7.97852 317.604c9.96191 95.6553 24.9102 190.725 36.8271 286.143
c11.8213 94.6406 27.1016 190.622 27.3213 286.182c0.191406 83.7998 -27.541 180.373 -124.672 190.51c-80.2734 8.37305 -165.149 -31.5518 -232.739 -70.7949c-68.79 -39.9424 -131.05 -91.9482 -181.827 -153.262c-52.8281 -63.793 -100.467 -143.548 -110.152 -227.229
c-7.375 -63.6738 18.2109 -158.568 100.597 -137.608c75.2695 19.1514 122.525 100.23 130.188 172.999c2.94629 27.9863 72.5537 27.2764 70.959 0c-2.53516 -43.3564 0.152344 -107.774 35.7227 -139.608c38.252 -34.2461 89.333 -0.264648 117.702 29.7949
c29.3154 31.0625 56.4844 71.585 70.3115 112.181c8.05762 23.6533 10.5371 50.1973 2.46875 74.2227c-8.26562 24.6221 -34.0938 54.5127 -63.4043 40.8545c-7.4375 -3.46484 -20.6611 -5.78027 -27.7656 0.000976562c-5.57227 4.53613 -8.46289 11.8555 0 15.8281
c54.7158 25.6816 119.128 -2.73242 132.943 -62.7217c15.5566 -67.5391 -32.043 -136.223 -72.8018 -185.682c-41.3115 -50.123 -109.189 -84.6172 -174.689 -64.4238c-31.8965 9.83789 -53.3975 30.5498 -67.5176 56.4453
c-29.6768 -40.9395 -71.7148 -72.3965 -122.515 -86.0146c-86.9277 -23.2979 -191.26 11.7822 -196.759 113.331c-4.72754 87.248 44.376 181.201 93.1982 250.172c52.6475 74.374 118.919 138.505 195.034 188.595c129.483 85.209 354.521 171.472 461.518 7.2627
c57.1436 -87.6992 49.8076 -208.213 47.21 -308.308c-2.85645 -110.136 -16.1758 -219.759 -24.6729 -329.539c-8.61523 -111.273 -13.9004 -222.423 -6.33887 -333.938c6.8623 -101.205 23.5791 -203.881 77.9961 -291.326z" />
    <glyph glyph-name="I" unicode="&#xcd;" horiz-adv-x="813" 
d="M785.605 -300.027c25.4453 -40.8887 -87.501 -54.7373 -109.897 -26.4072c-62.7842 79.3828 -83.3555 175.832 -92.2236 274.738c-9.48242 105.774 -2.99707 212.196 7.97852 317.604c9.96191 95.6553 24.9102 190.725 36.8271 286.143
c11.8213 94.6406 27.1016 190.622 27.3213 286.182c0.191406 83.7998 -27.541 180.373 -124.672 190.51c-80.2734 8.37305 -165.149 -31.5518 -232.739 -70.7949c-68.79 -39.9424 -131.05 -91.9482 -181.827 -153.262c-52.8281 -63.793 -100.467 -143.548 -110.152 -227.229
c-7.375 -63.6738 18.2109 -158.568 100.597 -137.608c75.2695 19.1514 122.525 100.23 130.188 172.999c2.94629 27.9863 72.5537 27.2764 70.959 0c-2.53516 -43.3564 0.152344 -107.774 35.7227 -139.608c38.252 -34.2461 89.333 -0.264648 117.702 29.7949
c29.3154 31.0625 56.4844 71.585 70.3115 112.181c8.05762 23.6533 10.5371 50.1973 2.46875 74.2227c-8.26562 24.6221 -34.0938 54.5127 -63.4043 40.8545c-7.4375 -3.46484 -20.6611 -5.78027 -27.7656 0.000976562c-5.57227 4.53613 -8.46289 11.8555 0 15.8281
c54.7158 25.6816 119.128 -2.73242 132.943 -62.7217c15.5566 -67.5391 -32.043 -136.223 -72.8018 -185.682c-41.3115 -50.123 -109.189 -84.6172 -174.689 -64.4238c-31.8965 9.83789 -53.3975 30.5498 -67.5176 56.4453
c-29.6768 -40.9395 -71.7148 -72.3965 -122.515 -86.0146c-86.9277 -23.2979 -191.26 11.7822 -196.759 113.331c-4.72754 87.248 44.376 181.201 93.1982 250.172c52.6475 74.374 118.919 138.505 195.034 188.595c129.483 85.209 354.521 171.472 461.518 7.2627
c57.1436 -87.6992 49.8076 -208.213 47.21 -308.308c-2.85645 -110.136 -16.1758 -219.759 -24.6729 -329.539c-8.61523 -111.273 -13.9004 -222.423 -6.33887 -333.938c6.8623 -101.205 23.5791 -203.881 77.9961 -291.326z" />
    <glyph glyph-name="J" unicode="J" horiz-adv-x="941" 
d="M957.145 1057.99c-25.2529 -0.986328 -50.4297 -4.69336 -75.2266 -9.57812c-40.8545 -8.06836 -80.9717 -19.8721 -120.621 -32.6279c0.129883 -0.546875 0.31543 -1.04785 0.422852 -1.61133c35.1357 -185.534 55.1602 -376.095 58.2988 -564.926
c2.83984 -170.823 -2.82227 -359.226 -77.8164 -516.329c-56.3096 -117.962 -157.492 -219.442 -286.249 -253.469c-130.47 -34.4766 -271.408 -0.366211 -376.963 82.0371c-223.73 174.66 -223.629 519.964 -78.1318 742.787
c73.585 112.693 188.915 209.897 327.211 223.217c132.594 12.7734 250.702 -55.4932 295.698 -182.301c41.5479 -117.1 33.8066 -273.2 -46.1055 -373.098c-36.2119 -45.2783 -98.5791 -67.7764 -150.443 -33.6885c-13.1953 8.6709 -24.1094 19.8213 -33.1416 32.5547
c-4.6543 -21.9736 -10.8799 -43.6543 -18.7627 -64.873c-14.8301 -39.9248 -54.1641 -89.6426 -101.296 -55.2617c-19.6416 14.3281 -22.8643 40.4043 -25.6025 62.8174c-4.13574 33.8291 -5.02051 68.0186 -2.69922 102.022
c2.29883 33.5869 7.82617 66.7393 16.8076 99.1992c6.06836 21.9121 14.2217 40.7764 37.5928 47.2334c7.73633 2.14062 23.9805 3.59961 29.5693 -4.41797c5.31348 -7.6123 0.789062 -14.2773 -7.75293 -16.8574c-18.3057 -5.52148 -20.2041 -53.7236 -22.751 -69.3643
c-3.29004 -20.1934 -5.79199 -40.46 -6.95801 -60.8955c-2.22559 -39.0068 -6.05664 -93.0127 9.88281 -129.619c4.93555 -11.3359 6.49609 -10.4062 12.9307 -0.619141c5.65723 8.59766 9.20117 18.627 12.8633 28.166c8.68848 22.6504 15.6416 45.999 20.3857 69.8047
c7.28516 36.5332 9.66309 73.5342 8.0293 110.597c-0.648438 7.2793 -1.09375 14.4404 -1.33008 21.3652c-0.625 18.5371 46.0615 18.6836 47.6279 0c0.28125 -3.34082 0.495117 -6.6875 0.708984 -10.0342c5.29102 -54.2256 38.3535 -192.758 108.986 -138.634
c53.9551 41.3398 76.9658 124.458 83.9414 188.634c13.0947 120.435 -19.7373 279.172 -143.457 331.972c-114.575 48.8955 -235.646 -21.7432 -312.905 -104.186c-82.5605 -88.1045 -137.586 -203.227 -154.917 -322.647
c-31.834 -219.392 70.5029 -497.387 315.745 -536.021c107.008 -16.8633 201.784 35.2549 268.76 116.21c78.4697 94.8438 109.679 221.403 121.99 341.298c27.5801 268.518 -11.7588 533.43 -44.8379 799.097c-54.6709 -20.1709 -108.976 -41.3789 -163.635 -61.5674
c-83.8398 -30.9668 -170.937 -64.7168 -259.791 -77.7656c-58.1191 -8.53613 -164.215 -8.28809 -168.137 72.7285c-0.766602 15.8555 39.9365 16.1875 41.0244 0c6.95801 -103.408 201.767 -29.0283 254.403 -11.6689c87.1865 28.7578 172.288 63.291 258.246 95.4355
c11.3701 4.24805 22.7744 8.49121 34.207 12.7002c-0.337891 2.78906 -0.6875 5.57812 -1.02539 8.36719c-3.18359 26.1826 43.1875 34.1494 59.9102 34.1494c12.6094 0 27.4277 -2.25977 39.2715 -8.37305c42.2803 13.5566 85.0625 25.4053 128.492 33.9922
c51.3799 10.1592 157.498 33.5703 189.395 -25.3594c9.20703 -17.0049 -36.792 -22.4473 -45.0742 -7.08203c-10.9307 20.2725 -37.0459 17.2578 -56.7715 16.4912z" />
    <glyph glyph-name="K" unicode="K" horiz-adv-x="1493" 
d="M765.207 -358.208c-122.987 -107.386 -284.297 -143.825 -441.547 -98.2373c-330.581 95.8633 -453.394 498.305 -383.088 804.73c33.418 145.666 114.294 325.685 274.479 363.947c69.1787 16.5195 150.629 6.39453 203.907 -44.2188
c27.1523 -25.7939 43.1592 -59.2061 52.7773 -95.0518c31.8789 49.6221 71.7139 94.7139 119.302 123.089c36.9785 22.0469 84.6738 31.3604 124.808 11.8369c35.4287 -17.2354 51.0928 -56.9072 51.7578 -94.6572c0.805664 -45.9424 -17.7256 -93.3047 -36.3867 -134.503
c-19.3203 -42.6582 -44.2021 -82.6396 -73.377 -119.246c-55.8086 -70.0244 -131.512 -138.025 -224.626 -144.55c-19.1797 -1.34668 -27.085 20.2949 -5.21777 21.9795c77.4619 5.9668 141.237 70.1992 187.603 127.653c44.6973 55.3916 79.1064 121.071 97.9707 189.794
c10.542 38.3984 15.292 85.9248 -17.2012 115.511c-32.2178 29.3379 -68.7734 -2.75 -93.0518 -27.1582c-52.9346 -53.2109 -91.9805 -118.941 -118.417 -188.881c-8.44043 -22.335 -68.125 -20.8535 -70.1982 5.41406c-5.71289 72.3174 -9.77539 169.753 -84.7354 207.137
c-69.168 34.499 -144.235 -7.73047 -191.581 -58.7158c-111.454 -120.041 -151.346 -307.43 -144.9 -466.438c5.85938 -144.545 50.7988 -294.431 142.595 -408.206c86.7412 -107.516 225.37 -187.738 367.227 -162.451c129.196 23.0273 222.553 134.526 284.446 242.571
c74.0752 129.304 124.694 275.657 151.768 421.926c26.9492 145.57 32.1445 301.705 -5.31836 446.013c-33.0117 127.168 -100.473 254.765 -213.91 327.234c-114.772 73.3262 -253.987 82.499 -378.456 28.3867c-125.917 -54.7383 -226.784 -160.513 -301.907 -273.094
c-12.6045 -18.8926 -74.6562 -13.2246 -61.207 9.61719c19.1006 32.4424 39.9082 63.7021 62.6094 93.7393c91.8574 121.528 220.288 218.028 370.727 251.097c163.133 35.8574 342.633 -10.666 468.432 -120.108c96.0771 -83.5859 151.621 -201.947 179.348 -324.924
c101.352 87.502 176.024 202.59 261.684 304.77c48.2412 57.5439 100.838 111.578 162.607 154.698c49.6895 34.6904 142.516 71.5791 180.328 -0.292969c8.07422 -15.3428 -32.1387 -19.1514 -39.5596 -6.21484c-58.3613 101.751 -281.309 -180.769 -317.278 -226.841
c-69.0039 -88.3809 -136.392 -178.937 -222.508 -250.719c26.6621 -4.21973 52.7041 -16.6436 72.999 -33.958c58.3779 -49.7969 63.9111 -148.325 74.752 -218.637c43.126 -279.68 57.9502 -587.458 253.446 -811.96c83.1914 -95.5312 213.554 -183.512 346.312 -155.971
c130.915 27.1631 222.671 179.878 140.589 299.519c-11.4824 16.7344 37.835 24.2285 47.9482 11.5234c44.0098 -55.2793 54.9238 -126.408 31.3271 -192.967c-24.3125 -68.5703 -84.8203 -117.511 -151.081 -143.103c-132.014 -50.9971 -283.742 -7.51074 -395.309 71.1396
c-108.682 76.6221 -190.375 186.797 -242.532 308.415c-60.1475 140.245 -85.5137 292.515 -103.605 443.122c-9.78125 81.4229 -18.9932 162.997 -27.0615 244.6c-3.67383 37.1699 -4.51855 73.9854 -18.9424 109.025c-8.18652 19.8945 -24.3008 43.1025 -44.6357 45.5596
c2.30469 -13.7871 4.29395 -27.5859 5.96777 -41.3447c21.4443 -176.564 -5.23438 -359.102 -62.0908 -526.837c-51.1035 -150.771 -125.962 -308.218 -247.985 -414.764z" />
    <glyph glyph-name="L" unicode="L" horiz-adv-x="1374" 
d="M1213.65 1455.86c100.174 -4.47363 187.443 -61.0127 241.635 -144.108c64.9814 -99.6494 69.9004 -222.789 49.9268 -336.817c-67.7988 -387.021 -357.367 -719.229 -714.531 -872.767c2.73828 -21.6924 5.58887 -43.3623 8.67676 -64.9814
c17.1289 -120.018 38.5957 -239.427 61.7754 -358.408c11.0996 -56.958 20.8242 -114.221 32.5947 -171.044c2.39453 -11.5791 4.92969 -23.0674 7.79199 -34.4033c23.4502 15.4609 46.8555 31.0459 70.3398 46.4336c78.3857 51.3516 159.144 99.8916 246.747 133.951
c67.7871 26.3574 169.397 60.5127 229.995 1.7627c14.6045 -14.1592 -20.7178 -20.4473 -29.2705 -16.6836c-76.5039 33.6826 -175.252 -19.3486 -242.628 -54.3662c-78.1768 -40.6299 -150.934 -90.6572 -224.102 -139.49
c-11.4492 -7.64062 -22.9941 -15.2861 -34.6182 -22.8984c6.98633 -17.0332 15.6074 -33.4346 26.7295 -48.9463c14.0693 -19.6191 -20.2666 -35.1699 -33.1582 -38.5059c-20.5205 -5.30762 -56.1299 -4.69922 -71.5117 13.3594
c-4.72168 5.54395 -9.17285 11.2119 -13.3926 16.9756c-109.724 -64.5303 -227.488 -116.288 -355.941 -121.049c-33.3896 -1.23926 -48.0957 34.9785 -9.19629 38.7363c125.467 12.1084 234.402 63.3418 338.498 126.092
c-13.376 26.6621 -23.1348 55.0879 -30.6064 84.9561c-32.1836 128.655 -55.2568 260.393 -77.248 391.116c-9.60645 57.1211 -18.0811 114.49 -25.332 172.018c-188.864 -57.7637 -408.194 -72.8135 -575.118 41.1084c-90.6631 61.8711 -149.593 153.053 -160.935 263.115
c-10.7334 104.186 16.9033 212.709 66.7676 304.042c47.5938 87.1807 116.361 161.785 198.409 217.565c84.1436 57.2061 197.834 106.304 301.507 95.1924c48.4893 -5.19531 100.016 -28.3418 123.46 -73.4678c26.335 -50.6816 2.08984 -108.868 -24.0537 -154.135
c-34.0996 -59.043 -77.3545 -111.871 -127.455 -157.392c10.3105 -2.04004 20.543 -5.09961 30.5498 -9.5791c56.6592 -25.3604 82.2676 -87.417 45.4922 -140.943c-41.5088 -60.418 -119.72 -70.9258 -183.619 -94.8721
c-71.6299 -26.8477 -138.916 -65.1895 -199.232 -112.163c-13.0605 -10.1699 -32.2686 -12.9365 -47.9375 -7.16113c-9.90527 3.65137 -25.8447 16.9932 -12.5703 27.3262c89.0908 69.3877 186.555 115.01 293.562 149.34c44.9736 14.4297 114.598 49.0527 95.6826 108.975
c-13.5391 42.8945 -48.0439 45.8691 -79.3828 32.3125c-13.5566 -9.89941 -27.4395 -19.3877 -41.7002 -28.3242c-15.1846 -9.52246 -80.5156 -0.292969 -55.0312 24.2002c15.2969 14.7002 33.0225 27.0732 52.123 36.2402c23.7549 17.9961 46.2139 37.6377 67.2188 58.9922
c36.5498 37.1533 68.3838 78.5771 94.4658 123.714c24.0928 41.6885 51.3066 100.483 16.582 144.397c-35.8682 45.3623 -97.3115 35.6094 -146.122 21.5742c-41.7568 -12.0068 -81.6143 -29.2256 -119.105 -51.166c-158.489 -92.748 -271.988 -266.236 -279.77 -451.343
c-4.41699 -104.957 30.6289 -203.401 110.282 -273.448c78.8193 -69.3145 183.038 -97.8418 286.412 -97.6387c89.1074 0.174805 178.463 16.9932 264.438 45.4863c-7.22852 62.998 -12.8906 126.165 -16.542 189.428c-14.3223 248.172 -0.270508 509.095 88.708 743.705
c73.9912 195.097 244.741 434.484 479.74 423.987zM1415.36 872.197c32.2402 106.839 51.1533 226.046 18.5527 335.201c-25.4951 85.333 -89.3662 167.826 -178.034 192.662c-91.8291 25.7207 -179.072 -39.1982 -238.74 -102.247
c-138.11 -145.931 -204.095 -345.698 -231.917 -541.144c-28.7188 -201.723 -22.9941 -406.211 -0.0791016 -608.277c54.6143 25.8848 106.924 55.8994 155.83 88.5898c149.176 99.7227 275.983 234.396 366.624 389.223c45.3291 77.4336 81.834 160.067 107.764 245.992z
" />
    <glyph glyph-name="M" unicode="M" horiz-adv-x="2058" 
d="M2650.9 -509.868c-9.71973 -99.4639 -70.6777 -197.815 -162.09 -241.392c-109.375 -52.124 -241.952 -18.0752 -338.024 47.7285c-222.412 152.337 -283.252 436.028 -309.001 687.671c-28.8428 281.877 -13.5225 566.104 -12.6494 848.798
c0.0615234 19.2861 0.759766 38.623 0.291992 57.9092c-0.304688 12.4297 0.585938 38.8828 -6.38379 49.6162c-18.9092 29.1182 -62.8633 -38.9453 -72.1934 -52.3721c-36.9844 -53.2168 -62.1191 -113.646 -86.8086 -173.224
c-55.1719 -133.135 -103.887 -268.845 -151.153 -404.949c-0.467773 -1.34668 -1.33594 -2.47949 -2.37793 -3.50488c0.433594 -6.59766 0.912109 -13.1953 1.3291 -19.793c2.90723 -45.8301 -117.68 -47.3906 -119.381 0
c-4.24805 118.508 -6.66504 236.999 -8.45703 355.563c-0.726562 48.4053 0.400391 96.7822 -1.05859 145.176c-0.65918 21.9404 -2.43359 43.6836 -6.33301 65.3027c-3.69629 20.498 -8.39551 59.1387 -34.9561 35.2041
c-34.2686 -30.8877 -57.127 -79.1797 -76.8018 -120.221c-21.0615 -43.9141 -39.6836 -89.0791 -57.9951 -134.193c-55.1553 -135.879 -103.053 -274.563 -149.351 -413.728c-11.3818 -55.4258 -26.3359 -110.04 -44.3438 -163.161
c-51.1035 -150.771 -125.962 -308.218 -247.985 -414.764c-122.987 -107.386 -284.294 -143.823 -441.521 -98.2295c-330.581 95.8633 -453.394 498.305 -383.088 804.73c33.4229 145.666 114.293 325.685 274.479 363.947
c69.1787 16.5195 150.629 6.39453 203.907 -44.2188c27.1523 -25.7939 43.1592 -59.2061 52.7773 -95.0518c31.8789 49.6221 71.7139 94.7139 119.302 123.089c36.9785 22.0469 84.6738 31.3604 124.808 11.8369c35.4287 -17.2354 51.0928 -56.9072 51.7578 -94.6572
c0.805664 -45.9424 -17.7256 -93.3047 -36.3867 -134.503c-19.3203 -42.6582 -44.2021 -82.6396 -73.377 -119.246c-55.8086 -70.0244 -131.512 -138.025 -224.626 -144.55c-19.1797 -1.34668 -27.085 20.2949 -5.21777 21.9795
c77.4619 5.9668 141.237 70.1992 187.603 127.653c44.7031 55.3916 79.1064 121.071 97.9707 189.794c10.542 38.3984 15.292 85.9248 -17.2012 115.511c-32.2178 29.3379 -68.7734 -2.75 -93.0518 -27.1582c-52.9346 -53.2109 -91.9805 -118.941 -118.417 -188.881
c-8.44629 -22.335 -68.1309 -20.8535 -70.2041 5.41406c-5.71289 72.3174 -9.77539 169.753 -84.7354 207.137c-69.168 34.499 -144.24 -7.73047 -191.58 -58.7158c-111.454 -120.041 -151.346 -307.43 -144.9 -466.438c5.85938 -144.545 50.7988 -294.431 142.594 -408.206
c86.7412 -107.516 225.364 -187.738 367.227 -162.451c129.19 23.0273 222.547 134.526 284.44 242.571c74.0752 129.304 124.694 275.657 151.768 421.926c26.9434 145.57 32.1436 301.705 -5.31934 446.013c-33.0117 127.168 -100.473 254.765 -213.91 327.234
c-114.772 73.3262 -253.987 82.499 -378.456 28.3867c-125.917 -54.7383 -226.784 -160.513 -301.907 -273.094c-12.6045 -18.8916 -74.6562 -13.2236 -61.207 9.61816c19.1006 32.4424 39.9082 63.7021 62.6094 93.7393c91.8574 121.528 220.288 218.028 370.727 251.097
c163.127 35.8574 342.627 -10.666 468.426 -120.108c119.319 -103.808 176.165 -261.255 194.787 -414.566c6.6377 -54.6426 8.64355 -109.854 6.59277 -165.02c2.25391 6.42871 4.46777 12.8691 6.74414 19.292c38.0889 107.476 78.2568 214.811 125.664 318.579
c27.1689 59.4766 89.085 205.621 178.463 162.22c41.1875 -20.002 61.2178 -74.0693 71.7539 -115.245c13.3145 -52.0449 16.0078 -107.662 20.5039 -161.037c6.63184 -78.7236 12.9258 -157.447 18.6504 -236.216c38.0488 113.245 79.7041 225.268 125.5 335.634
c24.8984 59.9951 51.5605 119.928 91.1191 171.922c31.6426 41.5869 77.7148 86.9326 131.991 51.9092c51.2168 -33.0518 52.7607 -93.3623 61.0547 -148.585c10.1699 -67.7314 16.5928 -135.936 20.1709 -204.309c6.95312 -132.746 8.9707 -265.645 14.374 -398.458
c5.375 -132.036 16.0518 -264.202 40.8711 -394.143c22.9268 -120.041 56.3496 -240.076 119.917 -345.558c53.7461 -89.1699 138.318 -175.134 241.603 -202.63c110.102 -29.3105 201.649 58.6934 236.848 156.174c35.2998 97.7568 14.1143 218.355 -62.7891 291.039
c-72.5986 68.6104 -197.49 66.3623 -252.312 -23.6699c-9.04883 -14.8633 -54.2988 -8.93066 -44.6523 7.02051c54.918 90.7812 180.79 114.136 274.078 72.9824c107.031 -47.2158 160.451 -173.082 149.504 -285.173z" />
    <glyph glyph-name="N" unicode="N" horiz-adv-x="1646" 
d="M2152.35 -225.906c111.465 -78.7744 147.741 -231.777 88.8164 -353.587c-58.3271 -120.542 -171.86 -190.526 -304.291 -199.907c-143.609 -10.1758 -280.097 50.6816 -364.771 167.229c-83.834 115.397 -114.705 264.664 -130.842 403.743
c-18.6895 161.099 -11.624 323.882 5.2168 484.794c17.2979 165.229 43.5654 329.234 66.5703 493.713c5.97266 42.6973 12.7393 85.3604 15.7871 128.401c1.50977 21.3428 1.93262 42.6123 1.30762 63.9951c-0.467773 16.0859 3.49902 42.7197 -11.2012 53.4922
c-31.3662 22.9824 -79.8389 -34.3535 -98.2236 -54.2148c-24.8867 -26.8926 -46.7764 -56.3096 -66.626 -87.0732c-85.5586 -132.577 -147.892 -282.892 -209.521 -427.634c-28.0928 -65.9727 -55.1094 -132.385 -81.5742 -199.022
c-11.8721 -65.1504 -28.7637 -129.337 -49.8311 -191.479c-51.1035 -150.771 -125.962 -308.218 -247.985 -414.764c-122.987 -107.386 -284.294 -143.823 -441.521 -98.2295c-330.581 95.8633 -453.394 498.305 -383.088 804.73
c33.4229 145.666 114.293 325.685 274.479 363.947c69.1787 16.5195 150.629 6.39453 203.907 -44.2188c27.1523 -25.7939 43.1592 -59.2061 52.7773 -95.0518c31.8789 49.6221 71.7139 94.7139 119.302 123.089c36.9785 22.0469 84.6738 31.3604 124.808 11.8369
c35.4346 -17.2354 51.0928 -56.9072 51.7578 -94.6572c0.805664 -45.9424 -17.7256 -93.3047 -36.3867 -134.503c-19.3203 -42.6582 -44.2021 -82.6396 -73.377 -119.246c-55.8086 -70.0244 -131.512 -138.025 -224.626 -144.55
c-19.1797 -1.34668 -27.085 20.2949 -5.21777 21.9795c77.4619 5.9668 141.237 70.1992 187.603 127.653c44.7031 55.3916 79.1064 121.071 97.9707 189.794c10.542 38.3984 15.292 85.9248 -17.2012 115.511c-32.2178 29.3379 -68.7734 -2.75 -93.0518 -27.1582
c-52.9346 -53.2109 -91.9805 -118.941 -118.417 -188.881c-8.44629 -22.335 -68.1309 -20.8535 -70.2041 5.41406c-5.71289 72.3174 -9.77539 169.753 -84.7354 207.137c-69.168 34.499 -144.24 -7.73047 -191.58 -58.7158
c-111.454 -120.041 -151.346 -307.43 -144.9 -466.438c5.85938 -144.545 50.7988 -294.431 142.595 -408.206c86.7412 -107.516 225.369 -187.738 367.226 -162.451c129.196 23.0273 222.553 134.526 284.446 242.571c74.0752 129.304 124.694 275.657 151.768 421.926
c26.9434 145.57 32.1436 301.705 -5.31934 446.013c-33.0117 127.168 -100.473 254.765 -213.91 327.234c-114.772 73.3262 -253.987 82.499 -378.456 28.3867c-125.923 -54.7383 -226.79 -160.513 -301.907 -273.094c-12.6045 -18.8926 -74.6562 -13.2246 -61.207 9.61719
c19.1006 32.4424 39.9082 63.7021 62.6094 93.7393c91.8574 121.528 220.287 218.028 370.726 251.097c163.127 35.8574 342.627 -10.666 468.426 -120.108c119.319 -103.808 176.165 -261.255 194.787 -414.566c7.39258 -60.8623 8.94238 -122.43 5.63477 -183.861
c11.584 28.0029 23.2695 55.9668 35.2148 83.8232c35.4795 82.7354 72.6885 164.749 112.467 245.513c33.085 67.1729 67.5615 134.138 112.186 194.516c33.7949 45.7227 79.0615 105.645 137.586 119.432c59.4199 14.001 104.816 -22.9209 116.384 -80.3242
c15.5791 -77.3154 11.8213 -156.94 7.91699 -235.196c-3.93262 -78.8584 -11.9336 -157.436 -19.0615 -236.058c-27.3545 -301.659 -66.6035 -616.694 25.293 -911.75c35.7666 -114.84 100.466 -238.531 218.056 -286.227
c115.218 -46.7314 244.076 -7.34668 324.186 85.2998c82.792 95.751 87.5078 244.532 1.96094 340.576c-82.7188 92.8711 -225.567 87.6426 -300.713 -11.3252c-13.3086 -17.5283 -71.8896 -7.18945 -53.291 17.7539c78.8584 105.769 247.851 123.044 353.27 48.54z" />
    <glyph glyph-name="O" unicode="O" horiz-adv-x="1251" 
d="M310.146 -536.485c-95.4355 45.7285 -162.828 129.072 -204.923 224.513c-42.7314 96.8828 -68.0635 202.195 -73.8223 307.925c-1.97754 36.291 -1.60547 73.0781 1.07129 109.871c-21.4951 24.7012 -39.7451 52.5127 -53.8926 83.3721
c-47.2607 103.087 -53.4473 224.886 -35.1016 335.528c36.5449 220.429 175.866 419.953 370.207 530.415c205.638 116.88 468.009 99.1143 636.308 -74.2275c160.017 -164.806 227.917 -413.659 230.171 -638.477c2.37793 -237.146 -67.3311 -479.013 -210.011 -669.872
c-73.1064 -97.7852 -168.243 -177.562 -283.714 -220.001c-121.061 -44.4951 -259.092 -45.2051 -376.293 10.9531zM-19.5508 387.689c2.98047 -77.084 19.5293 -156.359 58.2998 -223.11c22.7627 160.056 91.1699 315.192 211.024 424.403
c66.4346 60.541 191.861 132.723 279.713 71.3926c49.6104 -34.6406 28.0078 -102.456 17.0713 -151.48c-1.83105 -8.21484 -3.77539 -16.3955 -5.80371 -24.5488c21.8896 22.3398 45.3848 42.9336 71.3027 60.6084c45.8359 31.2598 152.895 68.7451 191.203 5.45996
c30.668 -50.6699 -35.0742 -129.528 -68.3955 -164.062c-88.2969 -91.5078 -213.758 -142.099 -287.692 -248.29c-10.1641 -14.5928 -30.3975 -18.1816 -47.165 -15.2627c-9.45996 1.64551 -36.9951 12.2041 -26.7744 26.8818
c78.3916 112.592 212.248 161.431 304.753 259.007c22.2559 23.4727 40.917 49.6895 53.8701 79.4277c6.05176 13.8887 21.4111 50.3096 -3.12109 56.1074c-17.8945 4.23145 -42.8662 -11.0098 -57.0479 -19.5967c-76.9092 -46.5791 -132.74 -128.858 -184.824 -200.004
c-12.875 -17.5908 -78.5039 -19.0273 -65.8828 10.3506c23.1064 53.791 42.0439 109.272 55.3857 166.31c8.07422 34.5215 39.8975 126.125 -11.9844 139.901c-42.0156 11.1621 -96.2012 -24.7461 -127.557 -48.585c-76.0645 -57.8311 -133.986 -141.411 -171.663 -228.485
c-38.043 -87.9248 -58.0615 -183.929 -60.1748 -280.367c69.0996 -60.4404 161.938 -91.4014 252.725 -96.8389c185.208 -11.0889 378.946 83.3037 461.969 253.31c6.78418 13.8887 47.5039 9.47168 39.9873 -6.28223c-21.1738 -44.3818 -49.5938 -84.8701 -84.3242 -119.73
c-142.566 -143.074 -373.554 -189.372 -563.19 -125.332c-38.1787 12.8916 -74.3008 30.5049 -106.924 52.7041c2.6875 -83.2646 18.6836 -166.022 48.0215 -243.343c61.6172 -162.405 215.391 -329.426 404.244 -296.667c200.849 34.8486 333.792 231.866 407.839 406.014
c81.9404 192.707 108.969 405.704 79.5576 613.05c-14.2715 100.619 -42.7305 200.427 -85.3828 292.78c-39.373 85.2539 -94.7646 167.538 -173.889 220.569c-187.141 125.416 -428.056 39.9033 -578.403 -102.483c-146.635 -138.876 -234.599 -341.1 -226.767 -543.808z
" />
    <glyph glyph-name="O" unicode="&#xd6;" horiz-adv-x="1251" 
d="M310.146 -536.485c-95.4355 45.7285 -162.828 129.072 -204.923 224.513c-42.7314 96.8828 -68.0635 202.195 -73.8223 307.925c-1.97754 36.291 -1.60547 73.0781 1.07129 109.871c-21.4951 24.7012 -39.7451 52.5127 -53.8926 83.3721
c-47.2607 103.087 -53.4473 224.886 -35.1016 335.528c36.5449 220.429 175.866 419.953 370.207 530.415c205.638 116.88 468.009 99.1143 636.308 -74.2275c160.017 -164.806 227.917 -413.659 230.171 -638.477c2.37793 -237.146 -67.3311 -479.013 -210.011 -669.872
c-73.1064 -97.7852 -168.243 -177.562 -283.714 -220.001c-121.061 -44.4951 -259.092 -45.2051 -376.293 10.9531zM-19.5508 387.689c2.98047 -77.084 19.5293 -156.359 58.2998 -223.11c22.7627 160.056 91.1699 315.192 211.024 424.403
c66.4346 60.541 191.861 132.723 279.713 71.3926c49.6104 -34.6406 28.0078 -102.456 17.0713 -151.48c-1.83105 -8.21484 -3.77539 -16.3955 -5.80371 -24.5488c21.8896 22.3398 45.3848 42.9336 71.3027 60.6084c45.8359 31.2598 152.895 68.7451 191.203 5.45996
c30.668 -50.6699 -35.0742 -129.528 -68.3955 -164.062c-88.2969 -91.5078 -213.758 -142.099 -287.692 -248.29c-10.1641 -14.5928 -30.3975 -18.1816 -47.165 -15.2627c-9.45996 1.64551 -36.9951 12.2041 -26.7744 26.8818
c78.3916 112.592 212.248 161.431 304.753 259.007c22.2559 23.4727 40.917 49.6895 53.8701 79.4277c6.05176 13.8887 21.4111 50.3096 -3.12109 56.1074c-17.8945 4.23145 -42.8662 -11.0098 -57.0479 -19.5967c-76.9092 -46.5791 -132.74 -128.858 -184.824 -200.004
c-12.875 -17.5908 -78.5039 -19.0273 -65.8828 10.3506c23.1064 53.791 42.0439 109.272 55.3857 166.31c8.07422 34.5215 39.8975 126.125 -11.9844 139.901c-42.0156 11.1621 -96.2012 -24.7461 -127.557 -48.585c-76.0645 -57.8311 -133.986 -141.411 -171.663 -228.485
c-38.043 -87.9248 -58.0615 -183.929 -60.1748 -280.367c69.0996 -60.4404 161.938 -91.4014 252.725 -96.8389c185.208 -11.0889 378.946 83.3037 461.969 253.31c6.78418 13.8887 47.5039 9.47168 39.9873 -6.28223c-21.1738 -44.3818 -49.5938 -84.8701 -84.3242 -119.73
c-142.566 -143.074 -373.554 -189.372 -563.19 -125.332c-38.1787 12.8916 -74.3008 30.5049 -106.924 52.7041c2.6875 -83.2646 18.6836 -166.022 48.0215 -243.343c61.6172 -162.405 215.391 -329.426 404.244 -296.667c200.849 34.8486 333.792 231.866 407.839 406.014
c81.9404 192.707 108.969 405.704 79.5576 613.05c-14.2715 100.619 -42.7305 200.427 -85.3828 292.78c-39.373 85.2539 -94.7646 167.538 -173.889 220.569c-187.141 125.416 -428.056 39.9033 -578.403 -102.483c-146.635 -138.876 -234.599 -341.1 -226.767 -543.808z
" />
    <glyph glyph-name="O" unicode="&#xd5;" horiz-adv-x="1251" 
d="M310.146 -536.485c-95.4355 45.7285 -162.828 129.072 -204.923 224.513c-42.7314 96.8828 -68.0635 202.195 -73.8223 307.925c-1.97754 36.291 -1.60547 73.0781 1.07129 109.871c-21.4951 24.7012 -39.7451 52.5127 -53.8926 83.3721
c-47.2607 103.087 -53.4473 224.886 -35.1016 335.528c36.5449 220.429 175.866 419.953 370.207 530.415c205.638 116.88 468.009 99.1143 636.308 -74.2275c160.017 -164.806 227.917 -413.659 230.171 -638.477c2.37793 -237.146 -67.3311 -479.013 -210.011 -669.872
c-73.1064 -97.7852 -168.243 -177.562 -283.714 -220.001c-121.061 -44.4951 -259.092 -45.2051 -376.293 10.9531zM-19.5508 387.689c2.98047 -77.084 19.5293 -156.359 58.2998 -223.11c22.7627 160.056 91.1699 315.192 211.024 424.403
c66.4346 60.541 191.861 132.723 279.713 71.3926c49.6104 -34.6406 28.0078 -102.456 17.0713 -151.48c-1.83105 -8.21484 -3.77539 -16.3955 -5.80371 -24.5488c21.8896 22.3398 45.3848 42.9336 71.3027 60.6084c45.8359 31.2598 152.895 68.7451 191.203 5.45996
c30.668 -50.6699 -35.0742 -129.528 -68.3955 -164.062c-88.2969 -91.5078 -213.758 -142.099 -287.692 -248.29c-10.1641 -14.5928 -30.3975 -18.1816 -47.165 -15.2627c-9.45996 1.64551 -36.9951 12.2041 -26.7744 26.8818
c78.3916 112.592 212.248 161.431 304.753 259.007c22.2559 23.4727 40.917 49.6895 53.8701 79.4277c6.05176 13.8887 21.4111 50.3096 -3.12109 56.1074c-17.8945 4.23145 -42.8662 -11.0098 -57.0479 -19.5967c-76.9092 -46.5791 -132.74 -128.858 -184.824 -200.004
c-12.875 -17.5908 -78.5039 -19.0273 -65.8828 10.3506c23.1064 53.791 42.0439 109.272 55.3857 166.31c8.07422 34.5215 39.8975 126.125 -11.9844 139.901c-42.0156 11.1621 -96.2012 -24.7461 -127.557 -48.585c-76.0645 -57.8311 -133.986 -141.411 -171.663 -228.485
c-38.043 -87.9248 -58.0615 -183.929 -60.1748 -280.367c69.0996 -60.4404 161.938 -91.4014 252.725 -96.8389c185.208 -11.0889 378.946 83.3037 461.969 253.31c6.78418 13.8887 47.5039 9.47168 39.9873 -6.28223c-21.1738 -44.3818 -49.5938 -84.8701 -84.3242 -119.73
c-142.566 -143.074 -373.554 -189.372 -563.19 -125.332c-38.1787 12.8916 -74.3008 30.5049 -106.924 52.7041c2.6875 -83.2646 18.6836 -166.022 48.0215 -243.343c61.6172 -162.405 215.391 -329.426 404.244 -296.667c200.849 34.8486 333.792 231.866 407.839 406.014
c81.9404 192.707 108.969 405.704 79.5576 613.05c-14.2715 100.619 -42.7305 200.427 -85.3828 292.78c-39.373 85.2539 -94.7646 167.538 -173.889 220.569c-187.141 125.416 -428.056 39.9033 -578.403 -102.483c-146.635 -138.876 -234.599 -341.1 -226.767 -543.808z
" />
    <glyph glyph-name="O" unicode="&#xd4;" horiz-adv-x="1251" 
d="M310.146 -536.485c-95.4355 45.7285 -162.828 129.072 -204.923 224.513c-42.7314 96.8828 -68.0635 202.195 -73.8223 307.925c-1.97754 36.291 -1.60547 73.0781 1.07129 109.871c-21.4951 24.7012 -39.7451 52.5127 -53.8926 83.3721
c-47.2607 103.087 -53.4473 224.886 -35.1016 335.528c36.5449 220.429 175.866 419.953 370.207 530.415c205.638 116.88 468.009 99.1143 636.308 -74.2275c160.017 -164.806 227.917 -413.659 230.171 -638.477c2.37793 -237.146 -67.3311 -479.013 -210.011 -669.872
c-73.1064 -97.7852 -168.243 -177.562 -283.714 -220.001c-121.061 -44.4951 -259.092 -45.2051 -376.293 10.9531zM-19.5508 387.689c2.98047 -77.084 19.5293 -156.359 58.2998 -223.11c22.7627 160.056 91.1699 315.192 211.024 424.403
c66.4346 60.541 191.861 132.723 279.713 71.3926c49.6104 -34.6406 28.0078 -102.456 17.0713 -151.48c-1.83105 -8.21484 -3.77539 -16.3955 -5.80371 -24.5488c21.8896 22.3398 45.3848 42.9336 71.3027 60.6084c45.8359 31.2598 152.895 68.7451 191.203 5.45996
c30.668 -50.6699 -35.0742 -129.528 -68.3955 -164.062c-88.2969 -91.5078 -213.758 -142.099 -287.692 -248.29c-10.1641 -14.5928 -30.3975 -18.1816 -47.165 -15.2627c-9.45996 1.64551 -36.9951 12.2041 -26.7744 26.8818
c78.3916 112.592 212.248 161.431 304.753 259.007c22.2559 23.4727 40.917 49.6895 53.8701 79.4277c6.05176 13.8887 21.4111 50.3096 -3.12109 56.1074c-17.8945 4.23145 -42.8662 -11.0098 -57.0479 -19.5967c-76.9092 -46.5791 -132.74 -128.858 -184.824 -200.004
c-12.875 -17.5908 -78.5039 -19.0273 -65.8828 10.3506c23.1064 53.791 42.0439 109.272 55.3857 166.31c8.07422 34.5215 39.8975 126.125 -11.9844 139.901c-42.0156 11.1621 -96.2012 -24.7461 -127.557 -48.585c-76.0645 -57.8311 -133.986 -141.411 -171.663 -228.485
c-38.043 -87.9248 -58.0615 -183.929 -60.1748 -280.367c69.0996 -60.4404 161.938 -91.4014 252.725 -96.8389c185.208 -11.0889 378.946 83.3037 461.969 253.31c6.78418 13.8887 47.5039 9.47168 39.9873 -6.28223c-21.1738 -44.3818 -49.5938 -84.8701 -84.3242 -119.73
c-142.566 -143.074 -373.554 -189.372 -563.19 -125.332c-38.1787 12.8916 -74.3008 30.5049 -106.924 52.7041c2.6875 -83.2646 18.6836 -166.022 48.0215 -243.343c61.6172 -162.405 215.391 -329.426 404.244 -296.667c200.849 34.8486 333.792 231.866 407.839 406.014
c81.9404 192.707 108.969 405.704 79.5576 613.05c-14.2715 100.619 -42.7305 200.427 -85.3828 292.78c-39.373 85.2539 -94.7646 167.538 -173.889 220.569c-187.141 125.416 -428.056 39.9033 -578.403 -102.483c-146.635 -138.876 -234.599 -341.1 -226.767 -543.808z
" />
    <glyph glyph-name="O" unicode="&#xd3;" horiz-adv-x="1251" 
d="M310.146 -536.485c-95.4355 45.7285 -162.828 129.072 -204.923 224.513c-42.7314 96.8828 -68.0635 202.195 -73.8223 307.925c-1.97754 36.291 -1.60547 73.0781 1.07129 109.871c-21.4951 24.7012 -39.7451 52.5127 -53.8926 83.3721
c-47.2607 103.087 -53.4473 224.886 -35.1016 335.528c36.5449 220.429 175.866 419.953 370.207 530.415c205.638 116.88 468.009 99.1143 636.308 -74.2275c160.017 -164.806 227.917 -413.659 230.171 -638.477c2.37793 -237.146 -67.3311 -479.013 -210.011 -669.872
c-73.1064 -97.7852 -168.243 -177.562 -283.714 -220.001c-121.061 -44.4951 -259.092 -45.2051 -376.293 10.9531zM-19.5508 387.689c2.98047 -77.084 19.5293 -156.359 58.2998 -223.11c22.7627 160.056 91.1699 315.192 211.024 424.403
c66.4346 60.541 191.861 132.723 279.713 71.3926c49.6104 -34.6406 28.0078 -102.456 17.0713 -151.48c-1.83105 -8.21484 -3.77539 -16.3955 -5.80371 -24.5488c21.8896 22.3398 45.3848 42.9336 71.3027 60.6084c45.8359 31.2598 152.895 68.7451 191.203 5.45996
c30.668 -50.6699 -35.0742 -129.528 -68.3955 -164.062c-88.2969 -91.5078 -213.758 -142.099 -287.692 -248.29c-10.1641 -14.5928 -30.3975 -18.1816 -47.165 -15.2627c-9.45996 1.64551 -36.9951 12.2041 -26.7744 26.8818
c78.3916 112.592 212.248 161.431 304.753 259.007c22.2559 23.4727 40.917 49.6895 53.8701 79.4277c6.05176 13.8887 21.4111 50.3096 -3.12109 56.1074c-17.8945 4.23145 -42.8662 -11.0098 -57.0479 -19.5967c-76.9092 -46.5791 -132.74 -128.858 -184.824 -200.004
c-12.875 -17.5908 -78.5039 -19.0273 -65.8828 10.3506c23.1064 53.791 42.0439 109.272 55.3857 166.31c8.07422 34.5215 39.8975 126.125 -11.9844 139.901c-42.0156 11.1621 -96.2012 -24.7461 -127.557 -48.585c-76.0645 -57.8311 -133.986 -141.411 -171.663 -228.485
c-38.043 -87.9248 -58.0615 -183.929 -60.1748 -280.367c69.0996 -60.4404 161.938 -91.4014 252.725 -96.8389c185.208 -11.0889 378.946 83.3037 461.969 253.31c6.78418 13.8887 47.5039 9.47168 39.9873 -6.28223c-21.1738 -44.3818 -49.5938 -84.8701 -84.3242 -119.73
c-142.566 -143.074 -373.554 -189.372 -563.19 -125.332c-38.1787 12.8916 -74.3008 30.5049 -106.924 52.7041c2.6875 -83.2646 18.6836 -166.022 48.0215 -243.343c61.6172 -162.405 215.391 -329.426 404.244 -296.667c200.849 34.8486 333.792 231.866 407.839 406.014
c81.9404 192.707 108.969 405.704 79.5576 613.05c-14.2715 100.619 -42.7305 200.427 -85.3828 292.78c-39.373 85.2539 -94.7646 167.538 -173.889 220.569c-187.141 125.416 -428.056 39.9033 -578.403 -102.483c-146.635 -138.876 -234.599 -341.1 -226.767 -543.808z
" />
    <glyph glyph-name="P" unicode="P" horiz-adv-x="1538" 
d="M1460.45 335.165c-44.0439 -54.5742 -107.844 -91.7793 -176.809 -104.034c-71.7598 -12.7617 -151.847 6.38379 -172.074 84.5156c-16.4639 63.6064 20.165 127.754 64.8066 170.834c41.9766 40.5166 109.843 82.2109 162.964 35.0059
c16.4473 -14.6152 -27.1182 -22.8018 -38.8438 -12.9414c-28.3633 23.8447 -72.2832 -25.4336 -89.5811 -46.2471c-19.7939 -23.8281 -36.8662 -52.9463 -37.1592 -84.6904c-0.242188 -26.1318 8.42383 -53.2783 25.8174 -73.0547
c16.6387 -18.915 31.9307 -23.0791 55.6006 -15.8223c94.8887 29.0898 155.464 124.091 174.896 216.748c12.1592 57.9609 11.2637 118.333 4.28223 176.931c-6.12988 51.4473 -19.3311 111.082 -50.0273 154.162c-45.6445 64.0518 -121.866 12.6943 -159.882 -32.2285
c-38.1895 -45.1318 -62.5586 -100.603 -81.4961 -156.096c-29.7549 -87.2031 -47.999 -177.602 -63.2119 -268.417c-7.83203 -110.141 -31.4062 -219.538 -66.5703 -323.272c-51.1094 -150.771 -125.962 -308.218 -247.985 -414.764
c-122.987 -107.386 -284.294 -143.823 -441.521 -98.2295c-330.581 95.8633 -453.394 498.305 -383.088 804.73c33.418 145.666 114.294 325.685 274.479 363.947c69.1787 16.5195 150.629 6.39453 203.907 -44.2188c27.1582 -25.7939 43.165 -59.2061 52.7832 -95.0518
c31.8789 49.6221 71.7139 94.7139 119.302 123.089c36.9785 22.0469 84.6738 31.3604 124.808 11.8369c35.4287 -17.2354 51.0928 -56.9072 51.7578 -94.6572c0.811523 -45.9424 -17.7256 -93.3047 -36.3867 -134.503c-19.3203 -42.6582 -44.2021 -82.6396 -73.377 -119.246
c-55.8086 -70.0244 -131.512 -138.025 -224.626 -144.55c-19.1797 -1.34668 -27.085 20.2949 -5.21777 21.9795c77.4619 5.9668 141.237 70.1992 187.603 127.653c44.6973 55.3916 79.1064 121.071 97.9707 189.794c10.542 38.3984 15.292 85.9248 -17.2012 115.511
c-32.2178 29.3379 -68.7734 -2.75 -93.0518 -27.1582c-52.9346 -53.2109 -91.9805 -118.941 -118.417 -188.881c-8.44043 -22.335 -68.125 -20.8535 -70.1982 5.41406c-5.71875 72.3174 -9.78125 169.753 -84.7412 207.137
c-69.168 34.499 -144.235 -7.73047 -191.581 -58.7158c-111.454 -120.041 -151.346 -307.43 -144.9 -466.438c5.85938 -144.545 50.7988 -294.431 142.595 -408.206c86.7412 -107.516 225.37 -187.738 367.227 -162.451c129.196 23.0273 222.553 134.526 284.446 242.571
c74.0693 129.304 124.694 275.657 151.768 421.926c26.9492 145.57 32.1445 301.705 -5.31836 446.013c-33.0117 127.168 -100.473 254.765 -213.91 327.234c-114.772 73.3262 -253.987 82.499 -378.456 28.3867c-125.917 -54.7383 -226.784 -160.513 -301.907 -273.094
c-12.6045 -18.8926 -74.6562 -13.2246 -61.207 9.61719c19.1006 32.4424 39.9082 63.7021 62.6094 93.7393c91.8574 121.528 220.288 218.028 370.727 251.097c163.133 35.8574 342.633 -10.666 468.432 -120.108c119.313 -103.808 176.159 -261.255 194.781 -414.566
c0.675781 -5.56641 1.16602 -11.1553 1.74609 -16.7334c20.5771 82.7578 47.1719 167.172 98.8506 235.956c39.8975 53.0928 97.8926 94.3418 166.998 89.2197c75.0273 -5.55566 123.675 -61.0547 153.368 -125.613c63.2627 -137.547 61.916 -310.016 -35.7783 -431.06z" />
    <glyph glyph-name="Q" unicode="Q" horiz-adv-x="1271" 
d="M1180.16 342.439c2.37207 -237.146 -67.3379 -479.021 -210.023 -669.868c-73.1064 -97.7852 -168.243 -177.562 -283.714 -220.001c-13.7646 -5.05957 -27.7549 -9.52246 -41.8975 -13.4268c-0.777344 -35.75 -0.157227 -71.4209 2.25977 -106.94
c103.673 20.4756 215.025 12.0127 300.477 -51.0977c132.887 -98.1396 17.1006 -279.443 -117.161 -301.276c-169.527 -27.5635 -224.598 175.996 -232.023 306.179c-39.7285 -14.2266 -77.7998 -33.0283 -112.598 -54.0166
c-107.447 -64.8066 -196.623 -158.687 -256.427 -268.89c-9.03223 -16.6436 -59.1055 -11.3018 -49.3242 7.74805c75.0898 146.269 199.17 261.143 350.487 325.386c21.1914 8.99805 43.4922 16.9766 66.4746 23.6816c-1.03711 36.1162 -0.625977 72.3057 0.850586 108.518
c-96.748 -17.4443 -198.122 -7.69727 -287.404 35.085c-95.4297 45.7285 -162.828 129.072 -204.923 224.513c-42.7314 96.8828 -68.0635 202.195 -73.8223 307.925c-1.9834 36.291 -1.60547 73.0781 1.07129 109.871c-21.4951 24.7012 -39.7451 52.5127 -53.8926 83.3721
c-47.2607 103.087 -53.4414 224.886 -35.0957 335.528c36.5449 220.429 175.866 419.953 370.207 530.415c205.638 116.88 468.009 99.1143 636.308 -74.2275c160.017 -164.806 227.917 -413.659 230.171 -638.477zM845.153 -703.913
c-63.5273 22.5488 -130.933 21.0439 -195.829 5.33496c6.27148 -61.3975 19.4053 -121.871 45.6279 -178.125c22.1035 -47.4082 61.6797 -118.587 124.633 -103.577c59.2451 14.125 112.794 75.2754 128.66 132.561c20.335 73.3936 -40.7305 121.669 -103.092 143.807z
M965.34 -92.4199c81.9355 192.707 108.97 405.699 79.541 613.039c-14.2715 100.619 -42.7305 200.427 -85.3828 292.78c-39.373 85.2539 -94.7646 167.538 -173.889 220.569c-187.141 125.416 -428.056 39.9033 -578.403 -102.483
c-146.641 -138.876 -234.604 -341.1 -226.767 -543.808c2.98047 -77.084 19.5283 -156.359 58.3213 -223.099c22.7627 160.056 91.1699 315.192 211.024 424.403c66.4346 60.541 191.861 132.723 279.713 71.3926c49.6104 -34.6406 28.0078 -102.456 17.0713 -151.48
c-1.83105 -8.21484 -3.77539 -16.3955 -5.80371 -24.5488c21.8896 22.3398 45.3848 42.9336 71.3027 60.6084c45.8359 31.2598 152.895 68.7451 191.203 5.45996c30.6738 -50.6699 -35.0742 -129.528 -68.3955 -164.062
c-88.2969 -91.5078 -213.758 -142.099 -287.692 -248.29c-10.1641 -14.5928 -30.3975 -18.1816 -47.165 -15.2627c-9.45996 1.64551 -36.9951 12.2041 -26.7744 26.8818c78.3916 112.592 212.248 161.431 304.753 259.007c22.2559 23.4727 40.917 49.6895 53.8701 79.4277
c6.05176 13.8887 21.4111 50.3096 -3.12109 56.1074c-17.8945 4.23145 -42.8662 -11.0098 -57.0479 -19.5967c-76.9092 -46.5791 -132.74 -128.858 -184.824 -200.004c-12.875 -17.5908 -78.5039 -19.0273 -65.8828 10.3506c23.1064 53.791 42.0439 109.272 55.3857 166.31
c8.08008 34.5215 39.8975 126.125 -11.9844 139.901c-42.0156 11.1621 -96.2012 -24.7461 -127.557 -48.585c-76.0586 -57.8311 -133.98 -141.411 -171.657 -228.485c-38.0488 -87.9248 -58.0674 -183.929 -60.1807 -280.367
c69.0996 -60.4404 161.938 -91.4014 252.725 -96.8389c185.208 -11.0889 378.946 83.3037 461.969 253.31c6.78418 13.8887 47.5039 9.47168 39.9873 -6.28223c-21.1738 -44.3818 -49.5938 -84.8701 -84.3242 -119.73
c-142.562 -143.074 -373.555 -189.372 -563.191 -125.332c-38.1787 12.8916 -74.3008 30.5049 -106.924 52.7041c2.68164 -83.2646 18.6777 -166.022 48.0156 -243.343c61.6172 -162.405 215.391 -329.426 404.244 -296.667c15.5117 2.69336 30.5723 6.45703 45.2783 10.998
c8.41211 103.087 23.4561 205.993 37.4238 307.429c2.40625 17.4727 45.7852 16.126 43.667 0c-12.5361 -95.334 -27.1631 -192.51 -34.6738 -289.731c150.393 69.0098 254.015 231.189 316.146 377.317z" />
    <glyph glyph-name="R" unicode="R" horiz-adv-x="1707" 
d="M2267.19 -575.458c-72.4355 -36.9395 -158.33 -38.7217 -237.245 -26.9463c-290.942 43.4297 -500.524 288.729 -611.753 545.555c-31.6543 73.1006 -57.2793 148.59 -81.4619 224.44c-2.91895 9.16113 -5.67969 18.3682 -8.33887 27.6025
c-6.75586 -0.65918 -13.5566 -1.16602 -20.4307 -1.30664c-40.4268 -0.862305 -82.7744 8.93066 -116.608 31.6377c-26.6787 17.9004 -39.959 48.7266 -45.3008 79.8398c-9.71387 56.5801 37.8291 151.198 104.146 146.094
c29.9131 -2.30469 48.0225 -24.2959 58.9424 -50.5742c15.8154 -38.0488 26.042 -78.2051 43.4414 -115.651c1.55469 -3.35254 3.09277 -6.7334 4.64258 -10.0918c21.2305 9.99023 41.2891 23.4453 59.7021 37.1201c106.439 79.0615 178.604 202.156 206.427 330.817
c24.1826 111.837 27.9805 287.494 -78.5322 361.688c-69.5566 48.4561 -155.486 5.3252 -208.235 -47.6152c-55.9551 -56.1523 -94.4043 -130.386 -126.897 -201.897c-68.3955 -150.539 -104.658 -313.074 -141 -473.609
c-0.0117188 -0.0507812 -0.0400391 -0.0898438 -0.0517578 -0.134766c-11.8379 -76.6387 -30.8037 -152.19 -55.4658 -224.953c-51.1094 -150.771 -125.962 -308.218 -247.985 -414.764c-122.987 -107.386 -284.294 -143.823 -441.521 -98.2295
c-330.581 95.8633 -453.394 498.305 -383.088 804.73c33.418 145.666 114.294 325.685 274.479 363.947c69.1787 16.5195 150.629 6.39453 203.907 -44.2188c27.1582 -25.7939 43.165 -59.2061 52.7832 -95.0518c31.8789 49.6221 71.7139 94.7139 119.302 123.089
c36.9785 22.0469 84.6738 31.3604 124.808 11.8369c35.4287 -17.2354 51.0928 -56.9072 51.7578 -94.6572c0.811523 -45.9424 -17.7256 -93.3047 -36.3867 -134.503c-19.3203 -42.6582 -44.2021 -82.6396 -73.377 -119.246
c-55.8086 -70.0244 -131.512 -138.025 -224.626 -144.55c-19.1797 -1.34668 -27.085 20.2949 -5.21777 21.9795c77.4619 5.9668 141.237 70.1992 187.603 127.653c44.6973 55.3916 79.1064 121.071 97.9707 189.794c10.542 38.3984 15.292 85.9248 -17.2012 115.511
c-32.2178 29.3379 -68.7734 -2.75 -93.0518 -27.1582c-52.9346 -53.2109 -91.9805 -118.941 -118.417 -188.881c-8.44043 -22.335 -68.125 -20.8535 -70.1982 5.41406c-5.71875 72.3174 -9.78125 169.753 -84.7412 207.137
c-69.168 34.499 -144.235 -7.73047 -191.581 -58.7158c-111.454 -120.041 -151.346 -307.43 -144.9 -466.438c5.85938 -144.545 50.7988 -294.431 142.595 -408.206c86.7412 -107.516 225.37 -187.738 367.227 -162.451c129.196 23.0273 222.553 134.526 284.446 242.571
c74.0693 129.304 124.694 275.657 151.768 421.926c26.9492 145.57 32.1445 301.705 -5.31836 446.013c-33.0117 127.168 -100.473 254.765 -213.91 327.234c-114.772 73.3262 -253.987 82.499 -378.456 28.3867c-125.917 -54.7383 -226.784 -160.513 -301.907 -273.094
c-12.6045 -18.8916 -74.6562 -13.2236 -61.207 9.61816c19.1006 32.4424 39.9082 63.7021 62.6094 93.7393c91.8574 121.528 220.287 218.028 370.726 251.097c163.133 35.8574 342.633 -10.666 468.432 -120.108c119.313 -103.808 176.159 -261.255 194.781 -414.566
c2.31543 -19.0723 3.96094 -38.2236 5.17773 -57.4092c33.4512 123.866 77.833 245.659 145.028 354.673c39.1816 63.5674 89.2373 123.349 159.346 153.459c64.8574 27.8506 142.938 28.7686 204.736 -7.74219c120.965 -71.4668 150.427 -238.441 136.87 -366.979
c-14.6777 -139.191 -85.3271 -272.946 -190.91 -364.59c-43.4189 -37.6885 -93.125 -69.9336 -147.672 -87.293c119.877 -268.975 234.688 -558.058 509.207 -703.177c106.625 -56.3662 308.055 -120.074 383.088 16.8418c33.6377 61.3926 29.1982 140.877 -10.5576 198.415
c-42.1396 60.9863 -116.79 90.7188 -189.13 89.9746c-9.71387 -0.101562 -30.6396 3.98926 -30.6396 17.4609c0 13.9053 20.5264 16.9648 30.6396 17.4658c144.358 7.13867 301.519 -92.6855 294.386 -250.753c-3.26758 -72.3623 -42.9561 -136.205 -107.65 -169.2z
M1248.7 278.803c22.25 -11.8887 40.0322 -19.4102 61.8994 -17.7646c-11.917 45.1543 -24.2334 90.1621 -42.8662 133.327c-3.08789 7.15527 -10.0127 27.0557 -18.2109 29.0898c-10.9473 2.71582 -20.2832 -12.7617 -24.9766 -19.3994
c-11.2129 -15.8555 -19.0674 -33.7109 -19.7383 -53.3125c-1.18848 -34.8486 15.1006 -56.5527 43.8926 -71.9404z" />
    <glyph glyph-name="S" unicode="S" horiz-adv-x="907" 
d="M844.554 -421.499c-85.5859 -114.609 -237.507 -166.125 -376.411 -166.063c-157.12 0.0673828 -316.646 59.1045 -430.101 168.936c-108.242 104.788 -175.162 255.288 -171.883 406.763c3.22852 149.035 93.9648 303.209 254.297 319.25
c65.9727 6.59766 136.938 -13.376 184.881 -60.5186c29.2256 -28.7295 43.627 -63.4375 50.1123 -100.483c14.1592 26.4082 29.9297 51.5938 48.0615 73.3369c27.4785 32.9551 78.5771 21.376 81.5918 -23.3438c3.63379 -53.9609 -21.9912 -118.221 -46.5576 -164.924
c-26.7129 -50.7881 -63.5166 -95.542 -107.696 -132.064c-11.3701 -9.39844 -51.4414 -0.676758 -36.1836 12.0566c69.0322 57.5947 118.502 136.104 138.504 224.007c4.93555 21.6758 5.77539 42.6641 7.79785 64.4639
c-0.146484 0.213867 -0.225586 0.394531 -0.355469 0.608398c-4.55859 -10.5195 -13.2129 -21.3711 -18.498 -30.9385c-24.8027 -44.9287 -46.1006 -91.542 -64.8916 -139.282c-6.24316 -15.8555 -53.4424 -16.1709 -52.8174 4.07324
c1.33008 42.7646 3.28516 87.9805 -9.63477 129.337c-21.4219 68.5703 -89.6035 117.178 -162.236 109.954c-77.2646 -7.68555 -140.381 -70.7402 -171.686 -138.139c-67.7705 -145.919 -25.1689 -327.577 62.3613 -455.551
c91.3896 -133.625 245.761 -221.42 407.789 -229.038c135.777 -6.38379 290.424 45.6494 349.196 178.48c67.5898 152.76 -18.5264 334.243 -111.324 456.65c-99.9824 131.89 -228.853 236.272 -347.474 350.335c-59.4648 57.1777 -116.271 116.886 -164.416 184.036
c-46.9062 65.4209 -91.502 142.273 -100.5 223.747c-8.89062 80.5156 22.042 158.985 85.7383 209.639c60.958 48.4785 135.389 82.2627 214.473 80.9277c159.154 -2.6875 255.964 -151.824 245.597 -300.527c-4.58594 -65.8037 -24.7402 -140.206 -82.9043 -178.779
c-49.9717 -33.1357 -123.489 -33.958 -168.158 8.41211c-16.6836 15.8213 28.915 25.6758 41.125 13.7031c29.9297 -29.3438 74.0469 -23.0674 104.123 3.30176c60.0967 52.6816 69.8896 151.464 58.4521 225.646c-12.3672 80.1885 -62.4121 161.679 -142.291 188.983
c-79.3887 27.1348 -163.859 -15.8047 -213.341 -78.0361c-56.3047 -70.8242 -41.2725 -156.157 -5.93945 -233.275c68.6436 -149.812 199.068 -269.03 318.066 -378.884c120.564 -111.302 244.718 -224.722 325.498 -369.672
c77.0049 -138.166 108.439 -322.14 7.63477 -457.128z" />
    <glyph glyph-name="T" unicode="T" horiz-adv-x="1367" 
d="M2156.69 992.552c86.6738 45.9766 181.238 134.589 133.752 241.901c-49.6279 112.158 -186.656 130.256 -294.994 131.664c-218.907 2.85645 -434.186 -73.0723 -624.685 -176.198c-182.887 -99.002 -348.363 -226.604 -503.748 -364.105
c-6.1748 -5.46582 -12.3047 -10.9814 -18.4463 -16.4863c35.3896 -21.9287 69.0547 -46.8213 100.585 -74.3564c1.82031 46.5908 4.24316 93.1426 7.4834 139.615c3.54395 50.8555 129.867 50.1621 129.062 -0.000976562
c-1.5498 -96.3652 -3.5332 -192.668 -4.87988 -288.971c80.1211 -118.412 128.746 -257.672 146.066 -400.059c25.6982 -211.317 -5.81445 -445.454 -119.629 -628.363c-1.53809 -2.47363 -4.40039 -4.26562 -7.86523 -5.47656
c-17.1396 -24.8818 -81.6416 -26.1045 -91.209 2.59668c-17.2578 51.752 -21.7939 108.659 -27.3604 162.704c-5.71875 55.5098 -10.8799 111.02 -14.8066 166.682c-7.71875 109.33 -13.3311 218.722 -16.4639 328.276c-4.27051 149.424 -6.52441 299.439 -2.77148 449.14
c-3.13281 3.31348 -6.1582 6.70508 -9.35254 9.96777c-38.2402 39.041 -80.8867 74.1484 -126.857 103.915c-62.5303 -57.0146 -124.147 -115.043 -188.092 -170.479c-41.9365 -36.3535 -84.9492 -71.4277 -129.624 -104.378
c-39.4629 -29.1074 -80.1992 -59.2285 -128.294 -72.0635c-78.5654 -20.9717 -195.631 17.4326 -171.127 118.311c3.60059 14.8018 9.34766 29.1865 16.5146 43.0645c-28.2451 -14.9424 -57.0088 -28.9717 -86.3018 -41.9873
c-43.7393 -19.4385 -93.6885 -39.0459 -141.547 -21.2129c-54.2363 20.2109 -44.207 74.5605 -23.7764 116.937c85.3613 177.038 299.152 265.413 485.425 274.332c124.283 5.95508 246.239 -23.4453 354.988 -79.874c84.127 74.7852 169.725 147.801 261.108 214.63
c165.538 121.066 345.935 224.182 541.301 288.61c106.952 35.2773 217.865 58.3896 330.429 64.4238c102.066 5.47656 214.404 0.203125 308.233 -44.2188c78.6113 -37.2207 147.734 -118.705 131.992 -210.771c-14.8467 -86.8545 -91.4688 -147.407 -164.936 -186.369
c-14.125 -7.49414 -36.2568 -8.97559 -50.1738 0c-11.8887 7.66797 -13.7139 21.3262 0 28.6006zM1171.89 190.412c-15.8379 98.957 -46.5732 194.954 -92.2793 283.104c-0.574219 -85.2988 -0.287109 -170.614 1.70703 -255.986
c2.51855 -107.594 6.34961 -215.222 11.7188 -322.72c2.77246 -55.5605 5.45996 -111.133 8.40137 -166.688c1.53223 -28.9326 4.11816 -58.6992 5.08691 -88.376c74.9092 172.429 95.2158 364.173 65.3652 550.665zM576.686 638.693
c62.1924 54.6143 123.145 110.337 184.56 165.458c-81.1973 43.5254 -170.863 70.334 -264.067 73.2695c-167.865 5.28516 -356.037 -63.6006 -450.278 -209.812c-9.84375 -15.2803 -59.9053 -97.165 -24.7861 -107.51c13.5566 -3.98926 38.6582 10.6885 50.1807 15.7314
c21.4443 9.38672 42.6074 19.4268 63.5166 29.9346c57.9893 29.1406 113.81 62.3662 167.156 99.2148c24.0811 21.7041 50.3828 40.9121 78.1826 57.6572c12.9082 7.78125 33.3389 8.16406 46.7998 1.58887c9.08789 -4.43945 21.1113 -16.7734 9.17773 -26.2051
c-24.583 -19.4326 -49.7119 -38.082 -75.3594 -55.9375c-21.4219 -19.4551 -40.8887 -41.0625 -57.9043 -64.6484c-27.5635 -38.1953 -72.2607 -112.327 -16.0518 -146.95c46.0947 -28.3916 105.053 22.3232 140.701 48.123
c51.5098 37.2832 100.416 78.1436 148.173 120.086z" />
    <glyph glyph-name="U" unicode="U" horiz-adv-x="1490" 
d="M1729.38 -846.382c-82.623 -16.1426 -169.427 9.23438 -238.414 55.1943c-152.545 101.622 -216.743 279.674 -242.346 453.681c-30.2061 205.255 -20.7012 417.429 -10.0859 623.833c3.89355 75.6299 8.18652 151.237 12.5479 226.84
c-1.05957 -4.56934 -2.02344 -9.14453 -3.11133 -13.7139c-31.6709 -132.661 -70.582 -264.427 -120.745 -391.336c-72.0977 -182.396 -184.932 -410.68 -389.358 -471.052c-105.172 -31.0625 -216.643 0.59668 -282.464 89.7217
c-68.3848 92.5957 -69.7197 219.899 -64.2773 330.243c11.7754 238.724 83.8447 469.835 101.525 708.17c3.99512 53.8818 14.6494 119.675 -23.5576 164.333c-17.7197 20.7119 -37.5078 31.1973 -62.5078 17.0889c-21.4727 -12.125 -38.9453 -32.4258 -52.6533 -52.5635
c-62.666 -92.0713 -77.7383 -204.838 -96.4219 -312.065c-4.04004 -23.1797 -46.3096 -20.1768 -56.9355 -4.38965c-37.9023 56.3096 -81.0732 119.206 -132.724 163.954c-13.8496 12.001 -30.6064 22.2051 -44.4111 5.46484
c-8.40625 -10.1924 -10.0684 -26.9326 -10.7725 -39.6328c-1.71875 -30.9775 5.14355 -61.8486 17.6406 -90.083c52.2754 -118.085 181.201 -185.821 305.191 -196.262c22.7012 -1.91016 13.1338 -22.7803 -5.21777 -21.9805
c-153.531 6.6709 -334.738 105.881 -365.057 268.945c-6.18652 33.2656 -5.62305 76.1094 20.5039 101.549c23.8223 23.1914 61.9785 23.4277 90.8037 10.8574c38.4551 -16.7676 66.9648 -53.8926 93.7676 -84.6787c11.6182 -13.3477 22.8252 -27 33.8633 -40.7871
c9.25195 94.0713 33.1025 188.481 89.9141 264.754c33.4346 44.8838 81.0625 77.4619 138.719 76.6621c57.0596 -0.794922 103.588 -36.7363 126.525 -87.5527c46.4834 -102.969 37.1582 -229.895 25.6475 -339.146c-12.6719 -120.322 -37.8857 -238.943 -54.5527 -358.725
c-15.8721 -114.097 -24.374 -231.343 -6.01172 -345.682c15.3477 -95.5986 69.0996 -210.168 183.962 -188.312c103.301 19.6523 184.047 104.652 240.734 187.962c66.5928 97.8691 115.206 206.939 155.12 318.01c41.2666 114.829 75.2588 232.492 102.659 351.372
c27.7441 120.373 52.4111 243.969 60.5586 367.379c0.732422 11.1221 15.207 15.7588 28.7803 15.1445c13.9053 2.09082 30.6445 -1.37988 36.5996 -8.6084c17.6973 -21.4727 25.3887 -38.7529 31.3213 -65.8486c5.29102 -24.1719 9.07715 -48.8447 11.0889 -73.5117
c4.13574 -50.5801 2.74414 -101.763 1.9834 -152.449c-1.60547 -106.389 -7.375 -212.597 -11.7412 -318.89c-7.58984 -184.819 -13.2246 -370.602 2.74902 -555.145c13.0439 -150.709 38.9287 -318.647 135.243 -441.229
c41.5703 -52.9072 100.687 -102.027 170.423 -107.233c71.1562 -5.31348 138.91 42.9053 177.534 99.4521c44.2246 64.7393 62.4688 152.111 34.5781 227.026c-23.7939 63.916 -82.3916 118.102 -152.579 122.181c-10.333 0.602539 -32.6172 3.73535 -32.6172 18.5928
c0 14.5703 21.8447 18.3965 32.6172 18.5879c88.2969 1.57227 172.469 -50.9736 211.622 -130.069c41.8125 -84.4824 26.126 -190.358 -25.3496 -267.054c-44.5225 -66.3389 -111.516 -113.605 -190.312 -128.999z" />
    <glyph glyph-name="U" unicode="&#xdc;" horiz-adv-x="1490" 
d="M1729.38 -846.382c-82.623 -16.1426 -169.427 9.23438 -238.414 55.1943c-152.545 101.622 -216.743 279.674 -242.346 453.681c-30.2061 205.255 -20.7012 417.429 -10.0859 623.833c3.89355 75.6299 8.18652 151.237 12.5479 226.84
c-1.05957 -4.56934 -2.02344 -9.14453 -3.11133 -13.7139c-31.6709 -132.661 -70.582 -264.427 -120.745 -391.336c-72.0977 -182.396 -184.932 -410.68 -389.358 -471.052c-105.172 -31.0625 -216.643 0.59668 -282.464 89.7217
c-68.3848 92.5957 -69.7197 219.899 -64.2773 330.243c11.7754 238.724 83.8447 469.835 101.525 708.17c3.99512 53.8818 14.6494 119.675 -23.5576 164.333c-17.7197 20.7119 -37.5078 31.1973 -62.5078 17.0889c-21.4727 -12.125 -38.9453 -32.4258 -52.6533 -52.5635
c-62.666 -92.0713 -77.7383 -204.838 -96.4219 -312.065c-4.04004 -23.1797 -46.3096 -20.1768 -56.9355 -4.38965c-37.9023 56.3096 -81.0732 119.206 -132.724 163.954c-13.8496 12.001 -30.6064 22.2051 -44.4111 5.46484
c-8.40625 -10.1924 -10.0684 -26.9326 -10.7725 -39.6328c-1.71875 -30.9775 5.14355 -61.8486 17.6406 -90.083c52.2754 -118.085 181.201 -185.821 305.191 -196.262c22.7012 -1.91016 13.1338 -22.7803 -5.21777 -21.9805
c-153.531 6.6709 -334.738 105.881 -365.057 268.945c-6.18652 33.2656 -5.62305 76.1094 20.5039 101.549c23.8223 23.1914 61.9785 23.4277 90.8037 10.8574c38.4551 -16.7676 66.9648 -53.8926 93.7676 -84.6787c11.6182 -13.3477 22.8252 -27 33.8633 -40.7871
c9.25195 94.0713 33.1025 188.481 89.9141 264.754c33.4346 44.8838 81.0625 77.4619 138.719 76.6621c57.0596 -0.794922 103.588 -36.7363 126.525 -87.5527c46.4834 -102.969 37.1582 -229.895 25.6475 -339.146c-12.6719 -120.322 -37.8857 -238.943 -54.5527 -358.725
c-15.8721 -114.097 -24.374 -231.343 -6.01172 -345.682c15.3477 -95.5986 69.0996 -210.168 183.962 -188.312c103.301 19.6523 184.047 104.652 240.734 187.962c66.5928 97.8691 115.206 206.939 155.12 318.01c41.2666 114.829 75.2588 232.492 102.659 351.372
c27.7441 120.373 52.4111 243.969 60.5586 367.379c0.732422 11.1221 15.207 15.7588 28.7803 15.1445c13.9053 2.09082 30.6445 -1.37988 36.5996 -8.6084c17.6973 -21.4727 25.3887 -38.7529 31.3213 -65.8486c5.29102 -24.1719 9.07715 -48.8447 11.0889 -73.5117
c4.13574 -50.5801 2.74414 -101.763 1.9834 -152.449c-1.60547 -106.389 -7.375 -212.597 -11.7412 -318.89c-7.58984 -184.819 -13.2246 -370.602 2.74902 -555.145c13.0439 -150.709 38.9287 -318.647 135.243 -441.229
c41.5703 -52.9072 100.687 -102.027 170.423 -107.233c71.1562 -5.31348 138.91 42.9053 177.534 99.4521c44.2246 64.7393 62.4688 152.111 34.5781 227.026c-23.7939 63.916 -82.3916 118.102 -152.579 122.181c-10.333 0.602539 -32.6172 3.73535 -32.6172 18.5928
c0 14.5703 21.8447 18.3965 32.6172 18.5879c88.2969 1.57227 172.469 -50.9736 211.622 -130.069c41.8125 -84.4824 26.126 -190.358 -25.3496 -267.054c-44.5225 -66.3389 -111.516 -113.605 -190.312 -128.999z" />
    <glyph glyph-name="U" unicode="&#xdb;" horiz-adv-x="1490" 
d="M1729.38 -846.382c-82.623 -16.1426 -169.427 9.23438 -238.414 55.1943c-152.545 101.622 -216.743 279.674 -242.346 453.681c-30.2061 205.255 -20.7012 417.429 -10.0859 623.833c3.89355 75.6299 8.18652 151.237 12.5479 226.84
c-1.05957 -4.56934 -2.02344 -9.14453 -3.11133 -13.7139c-31.6709 -132.661 -70.582 -264.427 -120.745 -391.336c-72.0977 -182.396 -184.932 -410.68 -389.358 -471.052c-105.172 -31.0625 -216.643 0.59668 -282.464 89.7217
c-68.3848 92.5957 -69.7197 219.899 -64.2773 330.243c11.7754 238.724 83.8447 469.835 101.525 708.17c3.99512 53.8818 14.6494 119.675 -23.5576 164.333c-17.7197 20.7119 -37.5078 31.1973 -62.5078 17.0889c-21.4727 -12.125 -38.9453 -32.4258 -52.6533 -52.5635
c-62.666 -92.0713 -77.7383 -204.838 -96.4219 -312.065c-4.04004 -23.1797 -46.3096 -20.1768 -56.9355 -4.38965c-37.9023 56.3096 -81.0732 119.206 -132.724 163.954c-13.8496 12.001 -30.6064 22.2051 -44.4111 5.46484
c-8.40625 -10.1924 -10.0684 -26.9326 -10.7725 -39.6328c-1.71875 -30.9775 5.14355 -61.8486 17.6406 -90.083c52.2754 -118.085 181.201 -185.821 305.191 -196.262c22.7012 -1.91016 13.1338 -22.7803 -5.21777 -21.9805
c-153.531 6.6709 -334.738 105.881 -365.057 268.945c-6.18652 33.2656 -5.62305 76.1094 20.5039 101.549c23.8223 23.1914 61.9785 23.4277 90.8037 10.8574c38.4551 -16.7676 66.9648 -53.8926 93.7676 -84.6787c11.6182 -13.3477 22.8252 -27 33.8633 -40.7871
c9.25195 94.0713 33.1025 188.481 89.9141 264.754c33.4346 44.8838 81.0625 77.4619 138.719 76.6621c57.0596 -0.794922 103.588 -36.7363 126.525 -87.5527c46.4834 -102.969 37.1582 -229.895 25.6475 -339.146c-12.6719 -120.322 -37.8857 -238.943 -54.5527 -358.725
c-15.8721 -114.097 -24.374 -231.343 -6.01172 -345.682c15.3477 -95.5986 69.0996 -210.168 183.962 -188.312c103.301 19.6523 184.047 104.652 240.734 187.962c66.5928 97.8691 115.206 206.939 155.12 318.01c41.2666 114.829 75.2588 232.492 102.659 351.372
c27.7441 120.373 52.4111 243.969 60.5586 367.379c0.732422 11.1221 15.207 15.7588 28.7803 15.1445c13.9053 2.09082 30.6445 -1.37988 36.5996 -8.6084c17.6973 -21.4727 25.3887 -38.7529 31.3213 -65.8486c5.29102 -24.1719 9.07715 -48.8447 11.0889 -73.5117
c4.13574 -50.5801 2.74414 -101.763 1.9834 -152.449c-1.60547 -106.389 -7.375 -212.597 -11.7412 -318.89c-7.58984 -184.819 -13.2246 -370.602 2.74902 -555.145c13.0439 -150.709 38.9287 -318.647 135.243 -441.229
c41.5703 -52.9072 100.687 -102.027 170.423 -107.233c71.1562 -5.31348 138.91 42.9053 177.534 99.4521c44.2246 64.7393 62.4688 152.111 34.5781 227.026c-23.7939 63.916 -82.3916 118.102 -152.579 122.181c-10.333 0.602539 -32.6172 3.73535 -32.6172 18.5928
c0 14.5703 21.8447 18.3965 32.6172 18.5879c88.2969 1.57227 172.469 -50.9736 211.622 -130.069c41.8125 -84.4824 26.126 -190.358 -25.3496 -267.054c-44.5225 -66.3389 -111.516 -113.605 -190.312 -128.999z" />
    <glyph glyph-name="U" unicode="&#xda;" horiz-adv-x="1490" 
d="M1729.38 -846.382c-82.623 -16.1426 -169.427 9.23438 -238.414 55.1943c-152.545 101.622 -216.743 279.674 -242.346 453.681c-30.2061 205.255 -20.7012 417.429 -10.0859 623.833c3.89355 75.6299 8.18652 151.237 12.5479 226.84
c-1.05957 -4.56934 -2.02344 -9.14453 -3.11133 -13.7139c-31.6709 -132.661 -70.582 -264.427 -120.745 -391.336c-72.0977 -182.396 -184.932 -410.68 -389.358 -471.052c-105.172 -31.0625 -216.643 0.59668 -282.464 89.7217
c-68.3848 92.5957 -69.7197 219.899 -64.2773 330.243c11.7754 238.724 83.8447 469.835 101.525 708.17c3.99512 53.8818 14.6494 119.675 -23.5576 164.333c-17.7197 20.7119 -37.5078 31.1973 -62.5078 17.0889c-21.4727 -12.125 -38.9453 -32.4258 -52.6533 -52.5635
c-62.666 -92.0713 -77.7383 -204.838 -96.4219 -312.065c-4.04004 -23.1797 -46.3096 -20.1768 -56.9355 -4.38965c-37.9023 56.3096 -81.0732 119.206 -132.724 163.954c-13.8496 12.001 -30.6064 22.2051 -44.4111 5.46484
c-8.40625 -10.1924 -10.0684 -26.9326 -10.7725 -39.6328c-1.71875 -30.9775 5.14355 -61.8486 17.6406 -90.083c52.2754 -118.085 181.201 -185.821 305.191 -196.262c22.7012 -1.91016 13.1338 -22.7803 -5.21777 -21.9805
c-153.531 6.6709 -334.738 105.881 -365.057 268.945c-6.18652 33.2656 -5.62305 76.1094 20.5039 101.549c23.8223 23.1914 61.9785 23.4277 90.8037 10.8574c38.4551 -16.7676 66.9648 -53.8926 93.7676 -84.6787c11.6182 -13.3477 22.8252 -27 33.8633 -40.7871
c9.25195 94.0713 33.1025 188.481 89.9141 264.754c33.4346 44.8838 81.0625 77.4619 138.719 76.6621c57.0596 -0.794922 103.588 -36.7363 126.525 -87.5527c46.4834 -102.969 37.1582 -229.895 25.6475 -339.146c-12.6719 -120.322 -37.8857 -238.943 -54.5527 -358.725
c-15.8721 -114.097 -24.374 -231.343 -6.01172 -345.682c15.3477 -95.5986 69.0996 -210.168 183.962 -188.312c103.301 19.6523 184.047 104.652 240.734 187.962c66.5928 97.8691 115.206 206.939 155.12 318.01c41.2666 114.829 75.2588 232.492 102.659 351.372
c27.7441 120.373 52.4111 243.969 60.5586 367.379c0.732422 11.1221 15.207 15.7588 28.7803 15.1445c13.9053 2.09082 30.6445 -1.37988 36.5996 -8.6084c17.6973 -21.4727 25.3887 -38.7529 31.3213 -65.8486c5.29102 -24.1719 9.07715 -48.8447 11.0889 -73.5117
c4.13574 -50.5801 2.74414 -101.763 1.9834 -152.449c-1.60547 -106.389 -7.375 -212.597 -11.7412 -318.89c-7.58984 -184.819 -13.2246 -370.602 2.74902 -555.145c13.0439 -150.709 38.9287 -318.647 135.243 -441.229
c41.5703 -52.9072 100.687 -102.027 170.423 -107.233c71.1562 -5.31348 138.91 42.9053 177.534 99.4521c44.2246 64.7393 62.4688 152.111 34.5781 227.026c-23.7939 63.916 -82.3916 118.102 -152.579 122.181c-10.333 0.602539 -32.6172 3.73535 -32.6172 18.5928
c0 14.5703 21.8447 18.3965 32.6172 18.5879c88.2969 1.57227 172.469 -50.9736 211.622 -130.069c41.8125 -84.4824 26.126 -190.358 -25.3496 -267.054c-44.5225 -66.3389 -111.516 -113.605 -190.312 -128.999z" />
    <glyph glyph-name="V" unicode="V" horiz-adv-x="1389" 
d="M946.297 -416.366c-78.2051 10.8184 -123.544 73.0918 -156.195 139.426c-72.5254 147.294 -114.067 308.291 -142.16 469.44c-28.876 165.656 -41.5645 333.302 -54.9912 500.756c-6.73828 83.9971 -12.8125 168.067 -19.2412 252.087
c-5.84277 76.3682 -7.93848 158.044 -28.2275 232.221c-14.2607 52.1406 -52.7383 128.515 -115.838 87.874c-63.2627 -40.748 -96.4658 -123.911 -118.085 -192.622c-50.4395 -160.293 -30.8428 -324.936 -18.6045 -488.98
c1.98926 -26.668 -60.6084 -25.4736 -69.2461 -5.3418c-20.2666 47.2109 -41.6885 93.9033 -64.5361 139.925c-19.8896 40.0664 -38.9961 86.4033 -69.4385 119.899c-5.31348 5.85449 -12.5195 13.7373 -19.7314 17.124
c-16.1309 7.56738 -25.4668 -3.55469 -33.3662 -16.1533c-10.2432 -16.3457 -14.3164 -36.2354 -16.6943 -55.043c-4.87402 -38.6064 -3.5166 -78.0303 3.1543 -116.339c13.832 -79.4502 52.2695 -155.458 108.365 -213.396
c61.0146 -63.0205 160.985 -120.485 248.442 -77.2021c7.79785 3.85938 22.1768 6.06836 29.6309 0c6.10156 -4.96973 8.85645 -12.4297 -0.000976562 -16.8926c-85.8232 -43.25 -187.304 -18.3174 -262.844 35.0625c-66.0801 46.6982 -117.122 113.427 -146.675 188.635
c-28.0195 71.3203 -42.1787 159.335 -20.5879 234.272c22.2559 77.2754 107.718 87.2256 156.821 27.5635c24.915 -30.2734 44.9736 -66.1084 65.1787 -100.349c-10.6318 155.356 3.9502 319.497 82.9219 456.277c37.4014 64.7842 98.5176 121.793 177.241 123.365
c72.9541 1.4541 125.253 -42.7705 154.743 -106.332c32.0488 -69.0771 40.9512 -150.111 53.5557 -224.435c14.9766 -88.291 26.6787 -177.438 35.6152 -266.546c17.4492 -173.967 32.8428 -348.599 62.9248 -520.966c29.5127 -169.116 76.9258 -335.061 151.812 -489.961
c9.97852 -20.6387 31.1748 -67.1562 56.7324 -73.6357c20.6045 -5.22266 51.8467 33.8232 63.8418 51.6279c50.8955 75.5234 68.0127 170.091 84.8818 257.812c69.7422 362.635 91.0068 743.784 282.328 1069.78c78.6953 134.104 185.337 253.3 317.316 336.688
c65.8438 41.5986 145.137 83.7441 224.023 89.6211c66.2041 4.93555 155.486 -28.4033 153.312 -107.679c-0.789062 -28.7861 -73.5518 -28.1211 -72.7178 0c1.03125 34.6455 -25.5352 64.8799 -60.5811 66.9756c-40.5791 2.42285 -84.8428 -20.0469 -120.576 -37.4229
c-32.8262 -15.9619 -64.4521 -34.3584 -94.6865 -54.8057c-62.4346 -42.2188 -118.401 -94.0215 -167.854 -150.776c-108.513 -124.537 -181.861 -274.976 -232.599 -431.245c-55.5273 -171.009 -83.457 -348.757 -110.107 -526.076
c-13.8887 -92.415 -27.625 -184.887 -45.334 -276.665c-15.4043 -79.8672 -31.8789 -163.093 -70.835 -235.354c-37.6992 -69.9336 -95.8125 -124.007 -181.089 -112.214z" />
    <glyph glyph-name="W" unicode="W" horiz-adv-x="2116" 
d="M96.0791 908.075c-41.2773 30.2119 -66.9062 -51.3105 -71.3008 -79.2236c-6.29395 -40.0156 -0.585938 -81.7549 8.45703 -120.874c18.6494 -80.6729 57.2959 -157.915 111.854 -220.305c50.1914 -57.4033 138.094 -118.255 210.94 -60.5137
c11.5107 9.12207 52.1631 0.546875 36.5674 -12.1816c-65.6064 -53.5547 -159.492 -42.5166 -225.809 3.93359c-67.9736 47.6104 -118.723 122.847 -150.821 198.421c-31.541 74.2666 -55.8701 167.741 -29.5742 246.921c21.0947 63.5166 89.04 105.431 148.646 59.0371
c30.7861 -23.9629 50.749 -59.2119 70.9424 -91.7676c1.36328 -2.19727 2.7207 -4.38379 4.07812 -6.5752c13.1338 59.9053 36.9219 118.249 66.0068 168.677c49.7461 86.251 129.112 190.978 241.157 176.39c105.386 -13.7139 143.626 -107.927 162.89 -199.807
c22.4873 -107.223 30.375 -217.093 34.6064 -326.372c7.92188 -204.562 2.36621 -416.533 68.458 -613.044c26.6172 -79.1406 60.9365 -177.438 131.226 -229.128c83.6992 -61.5498 168.919 34.9668 208.523 102.951c106.186 182.272 149.125 386.345 207.491 586.275
c0.0341797 2.34961 0.0625 4.69336 0.158203 7.04297c1.23926 30.375 64.4287 27.1465 75.7422 5.84277c29.834 -56.1807 44.3369 -120.892 60.4512 -182.222c14.6045 -55.5723 28.6562 -111.285 43.1592 -166.886c26.9834 -103.419 60.3447 -208.219 122.182 -296.667
c13.6299 -19.4951 28.5273 -38.4717 45.8643 -54.8174c9.96191 -9.39258 25.4619 -25.084 39.9648 -26.6279c31.3896 -3.34668 60.4297 50.625 71.8389 72.8867c48.0781 93.7783 70.4189 199.203 93.542 301.23c46.7598 206.28 84.9951 415.006 147.914 617.246
c56.7266 182.362 133.428 383.487 282.435 511.343c68.0068 58.3555 154.968 100.788 246.408 95.2832c69.6523 -4.19727 184.12 -53.8477 141.851 -143.53c-11.3643 -24.1094 -79.4844 -14.001 -66.2998 10.418c31.209 57.792 -35.6035 94.1787 -84.4082 96.2637
c-52.2363 2.23145 -103.03 -21.2529 -145.113 -50.3154c-87.6543 -60.5303 -149.188 -155.301 -195.784 -249.254c-92.5049 -186.515 -143.586 -392.693 -187.731 -595.08c-22.7119 -104.112 -43.1426 -208.709 -65.8037 -312.832
c-21.2812 -97.7793 -42.7373 -198.195 -83.7666 -289.985c-36.9336 -82.6279 -105.109 -139.395 -200.477 -119.922c-97.3906 19.8779 -158.816 112.136 -199.548 195.598c-40.9902 83.9971 -65.7705 175.646 -86.4541 266.466
c-11.1396 48.9062 -22.2061 97.9365 -32.1055 147.119c-15.9512 -59.9443 -34.3535 -119.303 -54.085 -177.506c-35.6094 -105.02 -76.4248 -218.828 -142.454 -309.001c-55.6172 -75.9512 -139.699 -125.612 -236.391 -108.827
c-88.8877 15.4326 -158.304 79.7715 -203.733 154.596c-51.4473 84.7246 -76.8643 184.978 -93.2549 281.866c-16.8135 99.4189 -21.2139 200.038 -22.2334 300.702c-1.11035 109.459 1.4248 219.104 -4.38965 328.462c-2.8457 53.4932 -7.75293 106.93 -16.2324 159.842
c-7.30762 45.6045 -15.6182 97.3623 -48.2188 132.616c-10.3789 11.2178 -27.3945 26.9717 -43.0527 23.1855c-19.5518 -4.73242 -37.5312 -26.1768 -50.7158 -40.0654c-31.9297 -33.6318 -58.8447 -71.3594 -80.875 -112.146
c-46.332 -85.7725 -62.2207 -174.351 -69.4551 -270.248c-2.49609 -33.0908 -75.9238 -33.9023 -87.1924 -6.72754c-17.4443 42.0381 -34.8828 84.082 -52.3271 126.12c-13.2354 31.8906 -24.5098 74.3115 -53.7471 95.7168z" />
    <glyph glyph-name="X" unicode="X" horiz-adv-x="1038" 
d="M453.832 -30.0049c34.2012 66.4746 65.9287 134.177 96.7207 202.279c45.21 99.999 88.5049 201.485 134.685 301.507c-11.1055 66.6553 -20.96 133.541 -30.8936 200.252c-9.05469 60.8066 -19.2695 121.388 -29.3271 182.03
c-9.84375 59.3242 -18.5264 120.553 -35.6553 178.306c-8.69922 29.3213 -33.0625 95.1309 -74.041 76.7061c-45.7227 -20.5488 -75.0557 -79.4844 -96.9395 -121.573c-51.498 -99.0527 -78.3574 -208.422 -104.727 -316.202
c-6.26562 -25.6025 -57.9277 -15.1172 -68.7236 0c-25.2139 35.3047 -50.4219 70.6094 -75.6357 105.92c-21.2871 29.8057 -41.0078 62.958 -68.4922 87.5859c-9.71387 8.70508 -21.5234 20.6553 -32.8037 13.2568c-10.9023 -7.15039 -16.4297 -25.5127 -19.0498 -37.4463
c-6.06836 -27.5918 -3.59473 -58.0908 0.817383 -85.7158c18.3789 -114.98 109.07 -235.309 222.654 -269.87c9.00977 -2.74414 13.6924 -9.5332 8.06934 -17.5449c-5.87695 -8.37305 -22.4707 -7.00391 -30.7754 -4.59766
c-78.4141 22.7461 -148.923 62.5977 -198.832 128.576c-47.1934 62.3838 -77.084 140.493 -75.3828 219.437c0.749023 34.7529 9.50488 72.6777 39.2598 94.0381c33.0625 23.7373 79.2979 22.5879 114.451 3.99414c39.5361 -20.915 64.4688 -59.0996 89.7559 -94.4551
c14.5537 -20.3457 29.1133 -40.6973 43.667 -61.0488c24.7461 96.5625 54.1855 192.55 105.408 278.475c27.0674 45.4023 60.0732 92.5566 111.059 112.745c47.2607 18.7119 104.675 9.99023 140.205 -27.6865c30.7412 -32.5947 45.8691 -77.168 59.0371 -118.958
c18.2832 -58.0117 34.9102 -116.717 48.6914 -175.957c14.249 -61.2461 26.9492 -122.779 39.2207 -184.408c43.9258 84.0762 91.9932 165.843 147.328 243.389c75.0781 105.199 162.625 206.404 272.31 276.665c50.1064 32.0938 111.499 65.0723 172.029 68.7793
c50.0449 3.06543 115.466 -24.335 109.133 -84.2793c-1.84766 -17.4951 -45.4014 -16.3232 -43.666 0c2.24805 21.1455 -6.40039 39.4912 -24.5371 51.0703c-22.042 14.0693 -48.0332 8.45703 -71.3594 1.00879c-37.7109 -12.041 -73.5459 -30.6123 -106.975 -51.6514
c-63.7588 -40.1338 -119.297 -92.2803 -169.375 -148.252c-112.299 -125.518 -197.705 -270.079 -272.315 -420.376c7.65137 -38.9619 15.2861 -77.9297 23.1855 -116.852c45.7227 -225.263 101.858 -452.261 221.68 -651.059
c98.6357 -163.646 246.482 -312.185 432.282 -370.568c92.3584 -29.0225 199.648 -34.6396 283.814 20.4082c83.6084 54.6875 119.612 162.191 124.824 257.503c1.16602 21.332 53.8867 21.1973 54.2305 0.000976562c1.73535 -107.887 -35.3164 -215.317 -123.855 -281.78
c-90.8662 -68.21 -216.068 -76.3232 -324.491 -57.1211c-199.829 35.3955 -381.262 157.966 -502.475 318.979c-136.888 181.833 -206.157 399.54 -253.108 619.681c-6.21484 29.1406 -11.9453 58.3945 -17.3379 87.7275
c-15.0439 -33.4346 -29.874 -66.8975 -44.6357 -100.253c-54.2363 -122.531 -108.208 -245.35 -170.732 -363.948c-27.1523 -51.498 -54.3838 -110.073 -100.912 -147.215c-21.8223 -17.416 -48.6924 -31.4795 -77.3936 -28.1777
c-22.9824 2.64258 -42.3086 15.3984 -43.5088 39.8916c-0.789062 16.0127 40.5781 16.3848 41.4629 0c2.07324 -38.4824 59.1719 14.7227 64.6094 20.7236c13.6973 15.1113 24.8643 32.1445 35.248 49.6338c18.627 31.3779 35.4287 63.9902 52.1182 96.4277z" />
    <glyph glyph-name="Y" unicode="Y" horiz-adv-x="1810" 
d="M850.705 -306.709c-2.92383 -18.9316 -49.8408 -17.166 -47.1875 0.0078125c10.1758 65.748 -21.3486 127.242 -72.751 167.511c-56.7266 44.4443 -128.875 50.6934 -196.471 29.9365c-127.557 -39.165 -241.354 -156.062 -275.961 -285.016
c-32.6455 -121.657 17.3652 -240.356 123.872 -305.033c94.584 -57.4365 211.227 -72.3848 319.937 -63.6738c246.465 19.7432 463.084 161.363 618.576 347.603c162.304 194.392 267.323 445.961 291.021 697.919c11.9902 127.473 1.17773 256.095 -30.375 380.107
c-21.9121 86.1104 -55.0762 167.33 -93.2432 246.601c-10.5029 -127.219 -38.4775 -254.201 -77.417 -374.625c-43.8184 -135.501 -101.875 -278.034 -203.542 -381.076c-88.0537 -89.249 -207.762 -141.091 -334.113 -130.239
c-131.219 11.2686 -235.488 96.0156 -278.411 219.747c-49.3906 142.403 -27.3711 301.648 -7.66211 447.438c10.2207 75.625 22.2842 150.985 31.5586 226.729c4.5127 36.8994 8.05078 74.2949 9.18359 111.448c0.405273 13.3701 -2.77246 59.4648 -21.9854 63.7861
c-10.6602 2.40039 -34.9443 -22.5938 -42.0156 -28.7461c-10.2148 -8.89062 -19.9121 -18.3672 -29.0625 -28.3457c-18.8584 -20.582 -35.1816 -43.1367 -49.8701 -66.8408c-30.9668 -49.9658 -54.8848 -103.864 -79.4619 -157.138
c-12.9873 -28.1436 -26.0869 -56.2539 -40.4658 -83.7217c-11.4043 -21.7773 -22.9941 -50.1582 -46.1963 -61.6465c-62.001 -30.7021 -94.8555 41.7959 -115.195 86.3867c-12.7676 27.9912 -24.25 57.3574 -41.0234 83.2871
c-16.1084 24.9043 -50.6865 64.8633 -84.0762 59.8828c-28.9268 -4.31055 -45.3115 -40.5 -52.5684 -64.8691c-8.82324 -29.6426 -8.80664 -62.3555 -5.66797 -92.8428c12.5869 -122.277 136.532 -307.029 279.324 -225.285
c12.0459 6.89648 47.4414 -3.62891 27.7607 -15.8271c-71.6748 -44.4219 -162.591 -30.7754 -228.683 17.4775c-59.7754 43.6387 -100.54 111.139 -117.297 182.689c-14.6777 62.6885 -17.3262 148.021 32.0596 197.385c49.4365 49.4131 124.802 26.3906 168.018 -18.6445
c25.8164 -26.9043 46.1787 -59.6514 65.1445 -91.5303c9.78711 -16.4521 19.4785 -32.9492 29.5469 -49.2324c2.54688 -4.10742 6.39551 -11.624 10.7676 -19.0674c3.40332 7.10449 6.73926 13.7471 7.35938 14.9189c5.24023 9.89355 10.2891 19.8945 15.2188 29.9463
c11.1846 22.7803 21.7148 45.8809 32.2285 68.9766c20.2783 44.54 40.3535 89.3105 64.6992 131.827c41.8125 73.0215 121.854 187.399 219.493 170.722c92.1055 -15.7373 84.0986 -146.196 84.7803 -215.003c1.10449 -111.995 -14.2998 -223.167 -21.5967 -334.728
c-7.16113 -109.431 -13.4492 -224.479 25.8164 -329.015c28.2568 -75.2139 86.0654 -153.712 168.88 -171.528c84.3916 -18.1543 177.854 19.2754 241.168 74.1934c71.8662 62.3223 121.499 144.427 160.444 230.25c91.04 200.635 132.059 413.637 146.212 632.324
c0.248047 3.82617 1.97754 7.04297 4.6875 9.64648c12.3672 15.9844 62.8564 16.001 74.8125 2.15723c213.797 -247.553 264.85 -612.649 191.321 -923.341c-63.916 -270.09 -211.531 -532.522 -429.757 -707.51c-219.978 -176.39 -523.107 -266.489 -801.182 -195.524
c-112.242 28.6455 -229.686 93.002 -279.646 202.816c-59.584 130.966 -4.96387 279.962 91.7109 376.698c92.9902 93.0576 227.342 163.837 362.065 146.207c113.409 -14.8408 224.113 -114.439 205.216 -236.576z" />
    <glyph glyph-name="Y" unicode="&#x178;" horiz-adv-x="1810" 
d="M850.705 -306.709c-2.92383 -18.9316 -49.8408 -17.166 -47.1875 0.0078125c10.1758 65.748 -21.3486 127.242 -72.751 167.511c-56.7266 44.4443 -128.875 50.6934 -196.471 29.9365c-127.557 -39.165 -241.354 -156.062 -275.961 -285.016
c-32.6455 -121.657 17.3652 -240.356 123.872 -305.033c94.584 -57.4365 211.227 -72.3848 319.937 -63.6738c246.465 19.7432 463.084 161.363 618.576 347.603c162.304 194.392 267.323 445.961 291.021 697.919c11.9902 127.473 1.17773 256.095 -30.375 380.107
c-21.9121 86.1104 -55.0762 167.33 -93.2432 246.601c-10.5029 -127.219 -38.4775 -254.201 -77.417 -374.625c-43.8184 -135.501 -101.875 -278.034 -203.542 -381.076c-88.0537 -89.249 -207.762 -141.091 -334.113 -130.239
c-131.219 11.2686 -235.488 96.0156 -278.411 219.747c-49.3906 142.403 -27.3711 301.648 -7.66211 447.438c10.2207 75.625 22.2842 150.985 31.5586 226.729c4.5127 36.8994 8.05078 74.2949 9.18359 111.448c0.405273 13.3701 -2.77246 59.4648 -21.9854 63.7861
c-10.6602 2.40039 -34.9443 -22.5938 -42.0156 -28.7461c-10.2148 -8.89062 -19.9121 -18.3672 -29.0625 -28.3457c-18.8584 -20.582 -35.1816 -43.1367 -49.8701 -66.8408c-30.9668 -49.9658 -54.8848 -103.864 -79.4619 -157.138
c-12.9873 -28.1436 -26.0869 -56.2539 -40.4658 -83.7217c-11.4043 -21.7773 -22.9941 -50.1582 -46.1963 -61.6465c-62.001 -30.7021 -94.8555 41.7959 -115.195 86.3867c-12.7676 27.9912 -24.25 57.3574 -41.0234 83.2871
c-16.1084 24.9043 -50.6865 64.8633 -84.0762 59.8828c-28.9268 -4.31055 -45.3115 -40.5 -52.5684 -64.8691c-8.82324 -29.6426 -8.80664 -62.3555 -5.66797 -92.8428c12.5869 -122.277 136.532 -307.029 279.324 -225.285
c12.0459 6.89648 47.4414 -3.62891 27.7607 -15.8271c-71.6748 -44.4219 -162.591 -30.7754 -228.683 17.4775c-59.7754 43.6387 -100.54 111.139 -117.297 182.689c-14.6777 62.6885 -17.3262 148.021 32.0596 197.385c49.4365 49.4131 124.802 26.3906 168.018 -18.6445
c25.8164 -26.9043 46.1787 -59.6514 65.1445 -91.5303c9.78711 -16.4521 19.4785 -32.9492 29.5469 -49.2324c2.54688 -4.10742 6.39551 -11.624 10.7676 -19.0674c3.40332 7.10449 6.73926 13.7471 7.35938 14.9189c5.24023 9.89355 10.2891 19.8945 15.2188 29.9463
c11.1846 22.7803 21.7148 45.8809 32.2285 68.9766c20.2783 44.54 40.3535 89.3105 64.6992 131.827c41.8125 73.0215 121.854 187.399 219.493 170.722c92.1055 -15.7373 84.0986 -146.196 84.7803 -215.003c1.10449 -111.995 -14.2998 -223.167 -21.5967 -334.728
c-7.16113 -109.431 -13.4492 -224.479 25.8164 -329.015c28.2568 -75.2139 86.0654 -153.712 168.88 -171.528c84.3916 -18.1543 177.854 19.2754 241.168 74.1934c71.8662 62.3223 121.499 144.427 160.444 230.25c91.04 200.635 132.059 413.637 146.212 632.324
c0.248047 3.82617 1.97754 7.04297 4.6875 9.64648c12.3672 15.9844 62.8564 16.001 74.8125 2.15723c213.797 -247.553 264.85 -612.649 191.321 -923.341c-63.916 -270.09 -211.531 -532.522 -429.757 -707.51c-219.978 -176.39 -523.107 -266.489 -801.182 -195.524
c-112.242 28.6455 -229.686 93.002 -279.646 202.816c-59.584 130.966 -4.96387 279.962 91.7109 376.698c92.9902 93.0576 227.342 163.837 362.065 146.207c113.409 -14.8408 224.113 -114.439 205.216 -236.576z" />
    <glyph glyph-name="Y" unicode="&#xdd;" horiz-adv-x="1810" 
d="M850.705 -306.709c-2.92383 -18.9316 -49.8408 -17.166 -47.1875 0.0078125c10.1758 65.748 -21.3486 127.242 -72.751 167.511c-56.7266 44.4443 -128.875 50.6934 -196.471 29.9365c-127.557 -39.165 -241.354 -156.062 -275.961 -285.016
c-32.6455 -121.657 17.3652 -240.356 123.872 -305.033c94.584 -57.4365 211.227 -72.3848 319.937 -63.6738c246.465 19.7432 463.084 161.363 618.576 347.603c162.304 194.392 267.323 445.961 291.021 697.919c11.9902 127.473 1.17773 256.095 -30.375 380.107
c-21.9121 86.1104 -55.0762 167.33 -93.2432 246.601c-10.5029 -127.219 -38.4775 -254.201 -77.417 -374.625c-43.8184 -135.501 -101.875 -278.034 -203.542 -381.076c-88.0537 -89.249 -207.762 -141.091 -334.113 -130.239
c-131.219 11.2686 -235.488 96.0156 -278.411 219.747c-49.3906 142.403 -27.3711 301.648 -7.66211 447.438c10.2207 75.625 22.2842 150.985 31.5586 226.729c4.5127 36.8994 8.05078 74.2949 9.18359 111.448c0.405273 13.3701 -2.77246 59.4648 -21.9854 63.7861
c-10.6602 2.40039 -34.9443 -22.5938 -42.0156 -28.7461c-10.2148 -8.89062 -19.9121 -18.3672 -29.0625 -28.3457c-18.8584 -20.582 -35.1816 -43.1367 -49.8701 -66.8408c-30.9668 -49.9658 -54.8848 -103.864 -79.4619 -157.138
c-12.9873 -28.1436 -26.0869 -56.2539 -40.4658 -83.7217c-11.4043 -21.7773 -22.9941 -50.1582 -46.1963 -61.6465c-62.001 -30.7021 -94.8555 41.7959 -115.195 86.3867c-12.7676 27.9912 -24.25 57.3574 -41.0234 83.2871
c-16.1084 24.9043 -50.6865 64.8633 -84.0762 59.8828c-28.9268 -4.31055 -45.3115 -40.5 -52.5684 -64.8691c-8.82324 -29.6426 -8.80664 -62.3555 -5.66797 -92.8428c12.5869 -122.277 136.532 -307.029 279.324 -225.285
c12.0459 6.89648 47.4414 -3.62891 27.7607 -15.8271c-71.6748 -44.4219 -162.591 -30.7754 -228.683 17.4775c-59.7754 43.6387 -100.54 111.139 -117.297 182.689c-14.6777 62.6885 -17.3262 148.021 32.0596 197.385c49.4365 49.4131 124.802 26.3906 168.018 -18.6445
c25.8164 -26.9043 46.1787 -59.6514 65.1445 -91.5303c9.78711 -16.4521 19.4785 -32.9492 29.5469 -49.2324c2.54688 -4.10742 6.39551 -11.624 10.7676 -19.0674c3.40332 7.10449 6.73926 13.7471 7.35938 14.9189c5.24023 9.89355 10.2891 19.8945 15.2188 29.9463
c11.1846 22.7803 21.7148 45.8809 32.2285 68.9766c20.2783 44.54 40.3535 89.3105 64.6992 131.827c41.8125 73.0215 121.854 187.399 219.493 170.722c92.1055 -15.7373 84.0986 -146.196 84.7803 -215.003c1.10449 -111.995 -14.2998 -223.167 -21.5967 -334.728
c-7.16113 -109.431 -13.4492 -224.479 25.8164 -329.015c28.2568 -75.2139 86.0654 -153.712 168.88 -171.528c84.3916 -18.1543 177.854 19.2754 241.168 74.1934c71.8662 62.3223 121.499 144.427 160.444 230.25c91.04 200.635 132.059 413.637 146.212 632.324
c0.248047 3.82617 1.97754 7.04297 4.6875 9.64648c12.3672 15.9844 62.8564 16.001 74.8125 2.15723c213.797 -247.553 264.85 -612.649 191.321 -923.341c-63.916 -270.09 -211.531 -532.522 -429.757 -707.51c-219.978 -176.39 -523.107 -266.489 -801.182 -195.524
c-112.242 28.6455 -229.686 93.002 -279.646 202.816c-59.584 130.966 -4.96387 279.962 91.7109 376.698c92.9902 93.0576 227.342 163.837 362.065 146.207c113.409 -14.8408 224.113 -114.439 205.216 -236.576z" />
    <glyph glyph-name="Z" unicode="Z" horiz-adv-x="1269" 
d="M1284.56 784.683c-52.3486 -63.8428 -115.443 -118.863 -179.123 -171.043c-63.0371 -51.6445 -126.627 -102.253 -189.371 -153.853c16.5088 -43.3965 34.5215 -86.1787 53.6104 -128.51c9.42676 -20.8926 -44.7588 -27.124 -52.292 -8.21484
c-13.9053 34.916 -26.7461 70.21 -38.5391 105.881c-55.0869 -46.0156 -109.29 -93.125 -161.605 -142.759c-124.52 -118.142 -244.144 -243.625 -349.473 -379.318c-51.9824 -66.9648 -100.539 -137.535 -141 -212.117
c-18.5088 -34.1104 -34.9385 -69.5898 -46.3477 -106.749c-5.67383 -18.4697 -9.56738 -37.2656 -11.5732 -56.4902c-0.980469 -9.36426 -1.87109 -19.0498 -1.72461 -28.4766c0.0732422 -4.23145 5.17773 -21.9287 5.03711 -25.6025
c6.7334 2.94141 15.1455 7.25195 15.8555 7.60645c17.0664 8.49707 33.6709 18.1035 50.2871 27.4336c33.2539 18.6729 66.0801 38.0889 98.6641 57.9053c68.0742 41.4072 135.027 84.6172 202.544 126.92c133.867 83.8682 270.174 165.094 418.95 219.956
c71.9678 26.5381 158.394 59.3193 235.923 43.0527c61.6348 -12.9307 119.274 -75.1396 73.9404 -135.484c-17.8613 -23.7773 -105.386 -7.88281 -84.9609 20.4189c17.3145 24.0029 3.2627 63.2129 -28.4932 64.3008c-36.0654 1.23926 -77.2246 -17.2637 -110.738 -28.7861
c-76.3398 -26.2393 -149.316 -60.3047 -220.152 -98.8779c-144.279 -78.5654 -278.4 -173.708 -417.53 -260.703c-59.9727 -37.5029 -125.574 -86.46 -194.494 -104.704c-42.8047 -11.3311 -92.1562 -8.98145 -129.704 16.4238
c-30.46 20.6045 -38.8438 53.8525 -36.8213 89.0283c4.28223 74.4697 35.8066 144.73 72.5596 208.433c39.3115 68.1426 84.6797 132.758 132.656 195.035c173.083 224.693 381.668 415.575 602.395 591.649c-7.38672 26.8926 -16.0693 53.583 -31.0684 75.9463
c-9.03711 13.4834 30.2744 17.8389 38.7148 6.08594c11.7422 -16.3623 20.0137 -35.1582 26.9668 -54.6699c21.2695 16.7344 42.6074 33.3896 64.0576 49.8818c60.7334 46.7031 120.604 94.7197 175.618 148.15c48.3877 46.9961 119.934 111.341 116.007 185.394
c-3.93848 74.3516 -97.8184 97.6494 -157.21 105.222c-70.8525 9.03223 -144.798 3.15039 -215.138 -7.66797c-146.325 -22.5098 -288.498 -78.4707 -407.829 -166.728c-55.4033 -40.9736 -108.806 -90.6348 -134.729 -155.915
c-18.5205 -46.6523 -18.999 -100.9 0.772461 -147.046c9.5957 -12.4297 17.7715 -25.8955 24.1045 -40.3086c7.70215 -17.5283 -13.416 -27.7881 -26.8428 -31.1748c-19.7598 -4.97559 -41.7568 -1.98926 -57.8877 10.8125
c-30.9219 24.543 -49.1436 58.1465 -56.9922 94.6572c-30.1211 19.8389 -69.3193 26.7188 -105.808 15.0273c-143.992 -46.1455 -172.367 -296.752 -16.8809 -345.275c75.6133 -23.5967 165.155 -0.681641 234.272 32.9326c71.7422 34.8936 133.241 87.9473 177.916 154.05
c8.19824 12.1309 46.4443 7.02051 37.8633 -5.9502c-60.9023 -92.0547 -152.359 -161.233 -257.942 -194.025c-86.2002 -26.7803 -193.411 -35.457 -274.23 12.3672c-85.085 50.3486 -100.996 161.537 -66.5586 247.912c33.5645 84.2002 114.361 142.145 205.818 140.218
c20.3848 -0.428711 41.0068 -3.80957 61.0654 -9.70898c0.34375 22.5771 3.95508 45.2783 10.5303 66.8018c24.9209 81.5635 91.8457 143.913 158.489 192.898c146.641 107.797 323.769 172.744 504.192 193.389c83.626 9.56738 170.728 13.2744 253.992 -1.36914
c71.9004 -12.6436 160.033 -40.1562 198.792 -107.864c38.8379 -67.8379 -5.10449 -143.435 -48.5342 -196.397zM167.753 -524.344c-1.35742 -0.0566406 -2.69922 -0.269531 -4.02344 -0.720703c0.253906 -0.451172 1.81445 -0.0908203 4.02344 0.720703z" />
    <glyph glyph-name="bracketleft" unicode="[" horiz-adv-x="389" 
d="M331.273 -217.167c12.1816 -10.2148 9.63477 -21.8516 -3.14355 -30.168c-46.0332 -29.9697 -114.84 -21.9014 -160.479 5.12695c-51.498 30.499 -72.875 82.7695 -84.668 138.832c-23.1572 110.085 -22.3232 226.086 -26.7236 338.041
c-4.56348 116.068 -7.28516 232.509 -5.8877 348.673c1.35742 113.263 2.56836 229.658 26.2441 340.842c8.79004 41.2891 23.2139 84.4316 66.8633 98.9961c38.6631 12.9023 77.501 6.38379 115.488 -5.49902c24.9375 -7.80957 -4.8291 -23.9971 -20.042 -19.5459
c-17.6699 5.16699 -48.7656 16.6836 -63.7305 2.24219c-13.0439 -12.5869 -12.5088 -38.7471 -13.0723 -55.3457c-1.72461 -50.8105 -3.92773 -101.492 -3.40332 -152.382c1.91602 -186.301 11.4492 -371.942 20.498 -557.99
c4.42871 -90.9668 7.64551 -182.255 19.3086 -272.653c5.3584 -41.5371 10.458 -83.8516 28.4824 -122.109c7.20117 -15.2861 29.8848 -56.9521 52.248 -51.1377c16.0527 4.1748 38.2236 5.64551 52.0166 -5.92188z" />
    <glyph glyph-name="backslash" unicode="\" horiz-adv-x="692" 
d="M641.59 -220.796c2.55273 -34.6572 -64.6064 -23.9453 -79.6504 -12.293c-38.6689 29.9521 -66.6377 78.9375 -90.9336 120.728c-24.7578 42.5957 -48.1631 85.9238 -69.8613 130.153c-42.4209 86.4707 -81.5859 174.485 -119.382 263.063
c-39.8975 93.5078 -79.2197 187.264 -117.995 281.245c-39.4688 95.666 -80.8193 190.774 -112.124 289.466c-16.8135 52.9971 100.658 58.6094 119.781 18.8193c45.165 -93.9531 81.9629 -191.574 121.578 -287.973c38.6289 -94.0039 77.8047 -187.782 117.561 -281.318
c37.5527 -88.3584 75.0498 -176.784 116.119 -263.576c20.7686 -43.8975 41.5703 -87.7949 63.4033 -131.168c19.416 -38.5732 48.2754 -83.3105 51.5039 -127.146z" />
    <glyph glyph-name="bracketright" unicode="]" horiz-adv-x="389" 
d="M321.261 876.997c18.041 -112.53 17.9336 -229.78 17.6973 -343.499c-0.258789 -116.276 -3.34082 -232.463 -7.9834 -348.639c-4.32129 -108.107 -2.41113 -225.313 -35.1699 -329.487c-15.0098 -47.7178 -46.6016 -87.2314 -93.3271 -106.737
c-43.4521 -18.1426 -100.343 -22.7178 -141.395 4.01172c-13.1113 8.53613 -15.1338 20.1152 -3.15527 30.1787c13.832 11.624 35.8008 10.1367 52.0166 5.92188c27.6816 -7.20117 52.5576 49.7959 59.4766 68.0059c17.0498 44.8613 20.7295 95.7627 25.6592 143.137
c9.44922 90.8379 12.334 182.312 16.7686 273.488c4.58105 94.0996 10.5137 188.093 13.5391 282.266c2.92969 91.2773 5.89941 182.6 5.16699 273.938c-0.354492 44.0273 -0.444336 88.7197 -4.44434 132.583c-1.2168 13.376 -4.14062 36.6123 -17.9727 43.3232
c-15.1963 7.375 -42.9902 -3.02051 -57.8535 -7.36426c-15.2471 -4.45703 -44.9736 11.7422 -20.041 19.5459c41.3623 12.9424 88.0264 20.8252 128.487 0.0849609c48.2188 -24.7178 54.9014 -93.1758 62.5303 -140.758z" />
    <glyph glyph-name="asciicircum" unicode="^" horiz-adv-x="394" 
d="M343.611 571.394c4.1416 -39.9873 -94.2061 -40.1289 -106.449 -8.20996c-12.8467 33.5361 -20.7236 68.4746 -32.4717 102.377c-2.31543 6.68848 -4.79492 13.3203 -7.375 19.9121c-3.49902 -6.79492 -6.98145 -13.6064 -10.4746 -20.4072
c-16.9766 -33.0342 -34.8379 -66.1416 -59.5557 -94.1055c-13.2354 -14.9707 -80.2061 -18.9316 -77.1855 11.917c5.00293 51.0645 31.2422 101.926 52.1172 148.28c8.80664 19.5459 18.1543 42.8721 33.4346 58.541c21.1455 21.6807 57.7295 25.3145 85.6426 19.0156
c47.5312 -10.7275 69.0889 -56.8398 86.0205 -98.2803c18.0469 -44.1738 31.3838 -91.5762 36.2969 -139.04z" />
    <glyph glyph-name="underscore" unicode="_" horiz-adv-x="517" 
d="M409.085 -59.7314c17.8271 -0.744141 58.5527 -6.90625 57.9277 -33.0156c-0.608398 -25.5859 -38.3418 -33.1582 -57.9268 -33.0176c-107.617 0.771484 -217.729 -3.34766 -324.89 6.7832c-12.6777 1.2002 -34.1953 10.0684 -34.1953 25.6025
c0 16.0801 21.6357 23.6523 34.1943 25.5967c105.6 16.3564 218.389 12.4854 324.89 8.05078z" />
    <glyph glyph-name="grave" unicode="`" horiz-adv-x="195" 
d="M138.629 788.232c0.236328 -29.3213 4.53418 -57.751 5.91992 -86.7344c1.14941 -23.9629 -45.0859 -17.5176 -55.8584 -8.62695c-24.6055 20.3008 -30.7129 54.1973 -34.9102 84.4424c-5.05371 36.4541 -5.375 73.0215 1.08203 109.233
c5.9502 33.3672 89.2041 34.6406 87.6885 0c-1.43066 -32.7471 -4.18066 -65.5225 -3.92188 -98.3145z" />
    <glyph glyph-name="a" unicode="a" horiz-adv-x="483" 
d="M476.162 168.349c5.88184 13.6123 45.2861 10.417 39.1338 -6.15918c-30.7637 -82.8428 -105.982 -207.96 -213.193 -161.099c-52.2363 22.8301 -68.9199 88.4316 -77.4561 139.35c-1.77441 10.5928 -3.22266 21.292 -4.51855 32.0371
c-12.0293 -33.8516 -26.9268 -66.2715 -46.0664 -95.3164c-42.2188 -64.0625 -148.522 -53.0928 -189.682 5.99512c-46.833 67.2295 -21.585 165.662 44.9688 209.368c53.3975 35.0625 123.518 28.3691 182.172 3.28516c2.95215 13.0156 5.70703 26.0596 8.23145 39.1201
c0.597656 3.09863 2.5752 5.53223 5.33594 7.35742c24.7744 34.1895 120.514 29.6709 119.472 -13.9902c-2.04492 -85.7666 -6.7666 -172.817 9.44336 -257.722c1.59473 -8.36133 5.78711 -39.4014 14.1768 -44.2637c13.8887 -8.04004 38.7529 25.5977 45.4131 33.959
c25.9912 32.6396 46.0605 69.8887 62.5693 108.078zM171.058 162.324c13.2803 33.4795 24.0869 68.0127 33.0908 102.985c-18.8242 8.25977 -38.8545 14.0352 -59.2168 14.0801c-25.0225 0.0566406 -39.165 -14.751 -51.459 -35.1475
c-24.583 -40.7764 -35.5527 -93.542 -15.5059 -138.437c3.89941 -8.72754 10.959 -23.8105 20.2334 -28.6504c10.4854 -5.4707 22.2607 3.57227 30.2949 10.9648c20.3574 18.7227 32.5225 48.8945 42.5625 74.2041z" />
    <glyph glyph-name="a" unicode="&#xe5;" horiz-adv-x="483" 
d="M476.162 168.349c5.88184 13.6123 45.2861 10.417 39.1338 -6.15918c-30.7637 -82.8428 -105.982 -207.96 -213.193 -161.099c-52.2363 22.8301 -68.9199 88.4316 -77.4561 139.35c-1.77441 10.5928 -3.22266 21.292 -4.51855 32.0371
c-12.0293 -33.8516 -26.9268 -66.2715 -46.0664 -95.3164c-42.2188 -64.0625 -148.522 -53.0928 -189.682 5.99512c-46.833 67.2295 -21.585 165.662 44.9688 209.368c53.3975 35.0625 123.518 28.3691 182.172 3.28516c2.95215 13.0156 5.70703 26.0596 8.23145 39.1201
c0.597656 3.09863 2.5752 5.53223 5.33594 7.35742c24.7744 34.1895 120.514 29.6709 119.472 -13.9902c-2.04492 -85.7666 -6.7666 -172.817 9.44336 -257.722c1.59473 -8.36133 5.78711 -39.4014 14.1768 -44.2637c13.8887 -8.04004 38.7529 25.5977 45.4131 33.959
c25.9912 32.6396 46.0605 69.8887 62.5693 108.078zM171.058 162.324c13.2803 33.4795 24.0869 68.0127 33.0908 102.985c-18.8242 8.25977 -38.8545 14.0352 -59.2168 14.0801c-25.0225 0.0566406 -39.165 -14.751 -51.459 -35.1475
c-24.583 -40.7764 -35.5527 -93.542 -15.5059 -138.437c3.89941 -8.72754 10.959 -23.8105 20.2334 -28.6504c10.4854 -5.4707 22.2607 3.57227 30.2949 10.9648c20.3574 18.7227 32.5225 48.8945 42.5625 74.2041z" />
    <glyph glyph-name="a" unicode="&#xe4;" horiz-adv-x="483" 
d="M476.162 168.349c5.88184 13.6123 45.2861 10.417 39.1338 -6.15918c-30.7637 -82.8428 -105.982 -207.96 -213.193 -161.099c-52.2363 22.8301 -68.9199 88.4316 -77.4561 139.35c-1.77441 10.5928 -3.22266 21.292 -4.51855 32.0371
c-12.0293 -33.8516 -26.9268 -66.2715 -46.0664 -95.3164c-42.2188 -64.0625 -148.522 -53.0928 -189.682 5.99512c-46.833 67.2295 -21.585 165.662 44.9688 209.368c53.3975 35.0625 123.518 28.3691 182.172 3.28516c2.95215 13.0156 5.70703 26.0596 8.23145 39.1201
c0.597656 3.09863 2.5752 5.53223 5.33594 7.35742c24.7744 34.1895 120.514 29.6709 119.472 -13.9902c-2.04492 -85.7666 -6.7666 -172.817 9.44336 -257.722c1.59473 -8.36133 5.78711 -39.4014 14.1768 -44.2637c13.8887 -8.04004 38.7529 25.5977 45.4131 33.959
c25.9912 32.6396 46.0605 69.8887 62.5693 108.078zM171.058 162.324c13.2803 33.4795 24.0869 68.0127 33.0908 102.985c-18.8242 8.25977 -38.8545 14.0352 -59.2168 14.0801c-25.0225 0.0566406 -39.165 -14.751 -51.459 -35.1475
c-24.583 -40.7764 -35.5527 -93.542 -15.5059 -138.437c3.89941 -8.72754 10.959 -23.8105 20.2334 -28.6504c10.4854 -5.4707 22.2607 3.57227 30.2949 10.9648c20.3574 18.7227 32.5225 48.8945 42.5625 74.2041z" />
    <glyph glyph-name="a" unicode="&#xe3;" horiz-adv-x="483" 
d="M476.162 168.349c5.88184 13.6123 45.2861 10.417 39.1338 -6.15918c-30.7637 -82.8428 -105.982 -207.96 -213.193 -161.099c-52.2363 22.8301 -68.9199 88.4316 -77.4561 139.35c-1.77441 10.5928 -3.22266 21.292 -4.51855 32.0371
c-12.0293 -33.8516 -26.9268 -66.2715 -46.0664 -95.3164c-42.2188 -64.0625 -148.522 -53.0928 -189.682 5.99512c-46.833 67.2295 -21.585 165.662 44.9688 209.368c53.3975 35.0625 123.518 28.3691 182.172 3.28516c2.95215 13.0156 5.70703 26.0596 8.23145 39.1201
c0.597656 3.09863 2.5752 5.53223 5.33594 7.35742c24.7744 34.1895 120.514 29.6709 119.472 -13.9902c-2.04492 -85.7666 -6.7666 -172.817 9.44336 -257.722c1.59473 -8.36133 5.78711 -39.4014 14.1768 -44.2637c13.8887 -8.04004 38.7529 25.5977 45.4131 33.959
c25.9912 32.6396 46.0605 69.8887 62.5693 108.078zM171.058 162.324c13.2803 33.4795 24.0869 68.0127 33.0908 102.985c-18.8242 8.25977 -38.8545 14.0352 -59.2168 14.0801c-25.0225 0.0566406 -39.165 -14.751 -51.459 -35.1475
c-24.583 -40.7764 -35.5527 -93.542 -15.5059 -138.437c3.89941 -8.72754 10.959 -23.8105 20.2334 -28.6504c10.4854 -5.4707 22.2607 3.57227 30.2949 10.9648c20.3574 18.7227 32.5225 48.8945 42.5625 74.2041z" />
    <glyph glyph-name="a" unicode="&#xe2;" horiz-adv-x="483" 
d="M476.162 168.349c5.88184 13.6123 45.2861 10.417 39.1338 -6.15918c-30.7637 -82.8428 -105.982 -207.96 -213.193 -161.099c-52.2363 22.8301 -68.9199 88.4316 -77.4561 139.35c-1.77441 10.5928 -3.22266 21.292 -4.51855 32.0371
c-12.0293 -33.8516 -26.9268 -66.2715 -46.0664 -95.3164c-42.2188 -64.0625 -148.522 -53.0928 -189.682 5.99512c-46.833 67.2295 -21.585 165.662 44.9688 209.368c53.3975 35.0625 123.518 28.3691 182.172 3.28516c2.95215 13.0156 5.70703 26.0596 8.23145 39.1201
c0.597656 3.09863 2.5752 5.53223 5.33594 7.35742c24.7744 34.1895 120.514 29.6709 119.472 -13.9902c-2.04492 -85.7666 -6.7666 -172.817 9.44336 -257.722c1.59473 -8.36133 5.78711 -39.4014 14.1768 -44.2637c13.8887 -8.04004 38.7529 25.5977 45.4131 33.959
c25.9912 32.6396 46.0605 69.8887 62.5693 108.078zM171.058 162.324c13.2803 33.4795 24.0869 68.0127 33.0908 102.985c-18.8242 8.25977 -38.8545 14.0352 -59.2168 14.0801c-25.0225 0.0566406 -39.165 -14.751 -51.459 -35.1475
c-24.583 -40.7764 -35.5527 -93.542 -15.5059 -138.437c3.89941 -8.72754 10.959 -23.8105 20.2334 -28.6504c10.4854 -5.4707 22.2607 3.57227 30.2949 10.9648c20.3574 18.7227 32.5225 48.8945 42.5625 74.2041z" />
    <glyph glyph-name="a" unicode="&#xe1;" horiz-adv-x="483" 
d="M476.162 168.349c5.88184 13.6123 45.2861 10.417 39.1338 -6.15918c-30.7637 -82.8428 -105.982 -207.96 -213.193 -161.099c-52.2363 22.8301 -68.9199 88.4316 -77.4561 139.35c-1.77441 10.5928 -3.22266 21.292 -4.51855 32.0371
c-12.0293 -33.8516 -26.9268 -66.2715 -46.0664 -95.3164c-42.2188 -64.0625 -148.522 -53.0928 -189.682 5.99512c-46.833 67.2295 -21.585 165.662 44.9688 209.368c53.3975 35.0625 123.518 28.3691 182.172 3.28516c2.95215 13.0156 5.70703 26.0596 8.23145 39.1201
c0.597656 3.09863 2.5752 5.53223 5.33594 7.35742c24.7744 34.1895 120.514 29.6709 119.472 -13.9902c-2.04492 -85.7666 -6.7666 -172.817 9.44336 -257.722c1.59473 -8.36133 5.78711 -39.4014 14.1768 -44.2637c13.8887 -8.04004 38.7529 25.5977 45.4131 33.959
c25.9912 32.6396 46.0605 69.8887 62.5693 108.078zM171.058 162.324c13.2803 33.4795 24.0869 68.0127 33.0908 102.985c-18.8242 8.25977 -38.8545 14.0352 -59.2168 14.0801c-25.0225 0.0566406 -39.165 -14.751 -51.459 -35.1475
c-24.583 -40.7764 -35.5527 -93.542 -15.5059 -138.437c3.89941 -8.72754 10.959 -23.8105 20.2334 -28.6504c10.4854 -5.4707 22.2607 3.57227 30.2949 10.9648c20.3574 18.7227 32.5225 48.8945 42.5625 74.2041z" />
    <glyph glyph-name="b" unicode="b" horiz-adv-x="478" 
d="M473.003 150.51c9.24023 12.1367 49.8398 4.98828 36.9482 -12.3096c-29.7266 -39.8516 -71.1172 -56.7832 -115.657 -61.3809c-3.91602 -14.6494 -9.17285 -28.7695 -15.9619 -41.8242c-25.5293 -49.0928 -73.6973 -74.543 -128.007 -77.7715
c-45.5254 -2.7041 -96.2178 10.7842 -111.836 58.5811c-12.0635 36.9111 5.2627 76.4932 39.666 93.8926c35.874 18.1426 74.5205 9.00391 111.804 0.394531c8.10254 35.0176 10.4072 72.1709 7.11719 107.312c-2.35547 25.1289 -6.47949 50.3486 -15.2412 74.1084
c-3.45996 9.39258 -7.44336 20.0645 -13.8496 27.9355c-13.7314 16.875 -25.5801 11.2578 -40.6631 -1.4873c-36.7695 -31.0684 -54.7939 -87.125 -69.6689 -131.242c-14.7168 -43.6436 -26.2617 -88.2568 -40.1445 -132.154
c-0.636719 -22.9492 -4.34375 -44.8955 -14.8408 -62.3848c-12.1367 -20.2334 -55.0205 -22.6338 -70.4814 -5.25195c-24.3125 27.3271 -28.6006 62.2432 -34.6523 97.3789c-5.86523 34.0371 -8.94727 68.3613 -12.1641 102.736
c-6.41211 68.5088 -10.7334 137.237 -14.5986 205.938c-6.83496 121.443 -10.5703 248.949 31 365.276c18.1094 50.6758 44.9512 103.6 88.0547 137.49c35.8857 28.2227 86.6738 48.0615 131.743 30.8262c101.312 -38.7422 58.873 -188.898 30.752 -261.621
c-40.0381 -103.532 -99.4756 -197.987 -151.977 -295.417c1.12695 -22.9316 2.37793 -45.8525 3.65723 -68.7734c2.46777 -44.2637 4.53516 -88.5498 6.91895 -132.813c5.50488 18.002 11.3418 35.9023 17.9902 53.5381c17.5908 46.6807 41.7061 105.988 91.4355 126.588
c104.975 43.4746 172.683 -83.6035 181.382 -168.429c2.49023 -24.2451 2.12988 -50.2305 -1.75781 -75.5742c27.9912 6.36133 53.4023 20.6445 73.0322 46.4385zM97.2998 446.509c40.3086 70.1484 80.8584 140.255 111.521 215.215
c19.416 47.4531 36.9668 98.4561 35.3555 150.399c-1.1377 36.7197 -31.6816 125.45 -75.1846 68.7793c-26.1436 -34.0596 -39.9365 -80.1318 -48.7939 -121.55c-10.5586 -49.3857 -17.5059 -99.3857 -20.7959 -149.785
c-3.54395 -54.3604 -3.62305 -108.715 -2.10156 -163.059zM281.171 79.3818c0.602539 1.73535 1.0918 3.53809 1.66113 5.29004c-6.02344 1.18359 -11.9902 2.42871 -17.8496 3.71875c-25.2529 5.57812 -54.5908 11.7363 -71.4375 -13.5059
c-13.4102 -20.0918 -8.2998 -56.4785 17.8496 -64.209c34.2461 -10.125 61.3867 44.6641 69.7764 68.7061z" />
    <glyph glyph-name="c" unicode="c" horiz-adv-x="381" 
d="M375.23 171.256c7.79199 12.9082 48.2998 9.00195 39.9775 -6.26758c-45.8359 -84.2627 -95.8301 -178.582 -189.592 -216.856c-83.5527 -34.1104 -171.038 -3.4541 -219.37 72.751c-45.3682 71.5283 -49.8252 167.78 -26.8594 247.304
c24.543 84.9834 109.323 160.771 201.783 148.488c37.2773 -4.95801 67.4834 -26.2227 82.1494 -61.3926c16.4805 -39.5312 6.18066 -82.5615 -3.31348 -122.447c-3.55566 -14.9258 -48.7148 -12.2041 -45.4805 3.50977c8.01758 38.9678 20.3799 94.3936 -10.4512 127.495
c-30.7578 33.0283 -60.1689 -18.6729 -73.6807 -43.4814c-34.8604 -63.9844 -47.6162 -133.8 -40.4658 -206.134c6.5918 -66.6943 37.5586 -185.259 128.024 -136.392c75.1963 40.6182 114.947 123.309 157.278 193.423z" />
    <glyph glyph-name="d" unicode="d" horiz-adv-x="607" 
d="M602.631 166.151c3.75781 13.6631 42.3623 10.7959 37.8604 -5.96094c-18.3789 -68.458 -52.9629 -151.301 -122.367 -181.884c-61.6572 -27.1689 -131.985 -3.9668 -173.691 46.5732c-27.9521 33.874 -44.8945 73.2695 -56.4736 114.632
c-23.0957 -40.4834 -50.9014 -78.1152 -83.8848 -110.018c-56.5859 -54.7324 -151.255 -61.5332 -201.243 7.53906c-48.4502 66.9473 -49.7852 163.425 -18.1367 237.438c33.2314 77.709 126.306 125.303 208.686 101.881c27.1914 -7.73047 47.4297 -23.3711 63.5889 -43.21
c-3.66797 45.0811 -5.11621 90.3594 -4.09668 135.524c1.77441 78.4756 11.1553 157.588 29.7148 233.895c16.582 68.1709 44.7598 148.518 103.346 192.021c50.8896 37.79 133.777 42.4893 172.756 -15.0322c37.4238 -55.2227 29.2148 -137.146 15.0107 -198.308
c-15.7539 -67.8096 -44.6807 -132.966 -75.8838 -194.973c-31.3271 -62.249 -67.4658 -122.244 -112.693 -175.325c3.78027 -79.5518 13.0264 -158.991 29.1406 -236.56c4.58594 -22.0811 11.46 -45.5205 24.7744 -64.0967
c21.833 -30.4541 58.3379 -16.6104 82.5205 4.33789c42.9453 37.2041 66.4072 98.1621 81.0732 151.525zM196.901 74.4072c31.3555 37.2832 57.083 79.5205 77.7891 123.97c-0.6875 3.75293 -1.3584 7.51074 -2.00684 11.2686
c-14.8916 30.1045 -27.8506 62.3896 -49.4814 87.6934c-19.2021 22.4639 -51.2275 48.0605 -79.0781 26.8018c-24.1152 -18.4072 -39.0635 -53.1826 -49.3008 -80.8535c-12.4072 -33.5303 -16.4639 -70.7061 -13.5176 -106.276
c2.37207 -28.6504 8.17578 -83.0049 33.5703 -101.953c27.8398 -20.7744 65.3477 19.5166 82.0254 39.3496zM383.514 436.373c-0.37793 -18.0186 -0.47168 -36.0898 -0.336914 -54.1709c56.6934 83.7324 103.036 175.99 132.042 272.248
c16.9092 56.1074 29.0283 128.769 2.14062 183.969c-5.74707 11.793 -19.2979 31.5918 -34.2744 35.3838c-0.512695 -0.382812 -1.08789 -0.810547 -1.86523 -1.39062c-3.17773 -2.37793 -6.63184 -6.43457 -8.9873 -9.47754
c-13.6182 -17.5908 -20.875 -39.8467 -28.2002 -60.502c-41.5195 -117.06 -57.9326 -242.346 -60.5186 -366.06z" />
    <glyph glyph-name="e" unicode="e" horiz-adv-x="288" 
d="M276.818 154.849c4.41699 15.0322 46.7305 11.8145 41.6816 -6.55371c-20.25 -73.6748 -68.6885 -159.842 -146.629 -185.017c-212.782 -68.7227 -273.543 279.043 -125.871 380.31c35.9922 24.6787 91.8008 37.2773 134.194 22.1035
c35.0908 -12.5586 49.4189 -50.8271 34.3525 -84.5098c-15.5 -34.6455 -56.7715 -48.7314 -92.3076 -43.249c-6.48535 1.00293 -12.6045 2.6875 -18.3682 4.91309c-17.6523 -56.9238 -22.2109 -115.595 -9.80371 -175.787
c4.54102 -22.0361 13.5732 -55.2393 35.9639 -65.9561c14.0352 -6.71582 31.2314 -0.929688 44.9902 4.99219c56.0566 24.1377 85.7783 94.1904 101.797 148.754zM119.686 285.712c-2.2373 -5.21191 -4.33301 -10.4395 -6.35059 -15.6738
c5.57812 -4.95801 12.1533 -8.55859 19.709 -9.76465c26.583 -4.25391 46.3037 22.3457 46.3486 46.1055c0.0449219 24.4141 -19.5625 41.6777 -36.9219 19.6582c-9.69629 -12.2998 -16.627 -25.9854 -22.7852 -40.3252z" />
    <glyph glyph-name="e" unicode="&#xeb;" horiz-adv-x="288" 
d="M276.818 154.849c4.41699 15.0322 46.7305 11.8145 41.6816 -6.55371c-20.25 -73.6748 -68.6885 -159.842 -146.629 -185.017c-212.782 -68.7227 -273.543 279.043 -125.871 380.31c35.9922 24.6787 91.8008 37.2773 134.194 22.1035
c35.0908 -12.5586 49.4189 -50.8271 34.3525 -84.5098c-15.5 -34.6455 -56.7715 -48.7314 -92.3076 -43.249c-6.48535 1.00293 -12.6045 2.6875 -18.3682 4.91309c-17.6523 -56.9238 -22.2109 -115.595 -9.80371 -175.787
c4.54102 -22.0361 13.5732 -55.2393 35.9639 -65.9561c14.0352 -6.71582 31.2314 -0.929688 44.9902 4.99219c56.0566 24.1377 85.7783 94.1904 101.797 148.754zM119.686 285.712c-2.2373 -5.21191 -4.33301 -10.4395 -6.35059 -15.6738
c5.57812 -4.95801 12.1533 -8.55859 19.709 -9.76465c26.583 -4.25391 46.3037 22.3457 46.3486 46.1055c0.0449219 24.4141 -19.5625 41.6777 -36.9219 19.6582c-9.69629 -12.2998 -16.627 -25.9854 -22.7852 -40.3252z" />
    <glyph glyph-name="e" unicode="&#xea;" horiz-adv-x="288" 
d="M276.818 154.849c4.41699 15.0322 46.7305 11.8145 41.6816 -6.55371c-20.25 -73.6748 -68.6885 -159.842 -146.629 -185.017c-212.782 -68.7227 -273.543 279.043 -125.871 380.31c35.9922 24.6787 91.8008 37.2773 134.194 22.1035
c35.0908 -12.5586 49.4189 -50.8271 34.3525 -84.5098c-15.5 -34.6455 -56.7715 -48.7314 -92.3076 -43.249c-6.48535 1.00293 -12.6045 2.6875 -18.3682 4.91309c-17.6523 -56.9238 -22.2109 -115.595 -9.80371 -175.787
c4.54102 -22.0361 13.5732 -55.2393 35.9639 -65.9561c14.0352 -6.71582 31.2314 -0.929688 44.9902 4.99219c56.0566 24.1377 85.7783 94.1904 101.797 148.754zM119.686 285.712c-2.2373 -5.21191 -4.33301 -10.4395 -6.35059 -15.6738
c5.57812 -4.95801 12.1533 -8.55859 19.709 -9.76465c26.583 -4.25391 46.3037 22.3457 46.3486 46.1055c0.0449219 24.4141 -19.5625 41.6777 -36.9219 19.6582c-9.69629 -12.2998 -16.627 -25.9854 -22.7852 -40.3252z" />
    <glyph glyph-name="e" unicode="&#xe9;" horiz-adv-x="288" 
d="M276.818 154.849c4.41699 15.0322 46.7305 11.8145 41.6816 -6.55371c-20.25 -73.6748 -68.6885 -159.842 -146.629 -185.017c-212.782 -68.7227 -273.543 279.043 -125.871 380.31c35.9922 24.6787 91.8008 37.2773 134.194 22.1035
c35.0908 -12.5586 49.4189 -50.8271 34.3525 -84.5098c-15.5 -34.6455 -56.7715 -48.7314 -92.3076 -43.249c-6.48535 1.00293 -12.6045 2.6875 -18.3682 4.91309c-17.6523 -56.9238 -22.2109 -115.595 -9.80371 -175.787
c4.54102 -22.0361 13.5732 -55.2393 35.9639 -65.9561c14.0352 -6.71582 31.2314 -0.929688 44.9902 4.99219c56.0566 24.1377 85.7783 94.1904 101.797 148.754zM119.686 285.712c-2.2373 -5.21191 -4.33301 -10.4395 -6.35059 -15.6738
c5.57812 -4.95801 12.1533 -8.55859 19.709 -9.76465c26.583 -4.25391 46.3037 22.3457 46.3486 46.1055c0.0449219 24.4141 -19.5625 41.6777 -36.9219 19.6582c-9.69629 -12.2998 -16.627 -25.9854 -22.7852 -40.3252z" />
    <glyph glyph-name="f" unicode="f" horiz-adv-x="309" 
d="M309.175 176.986c13.2012 7.95605 51.5156 -4.00195 30.251 -17.2432c-56.5801 -35.2373 -113.949 -69.0439 -172.034 -101.679c67.2803 -5.83691 131.591 -36.4883 154.168 -106.439c22.8252 -70.7227 0.546875 -172.237 -70.3789 -207.977
c-37.79 -19.0391 -83.8789 -17.2021 -121.533 1.00781c-43.1992 20.9033 -69.4951 60.4961 -86.6064 103.982c-38.0488 96.7031 -44.8379 206.005 -49.0977 308.765c-4.49609 108.523 -3.58301 217.323 2.26562 325.773c2.73242 50.6357 128.43 50.168 128.621 -0.000976562
c0.518555 -136.819 -6.00586 -275.268 0.219727 -412.605c62.0117 34.3525 123.409 69.8262 184.125 106.416zM242.149 0.729492c-31.4453 28.29 -74.1875 35.3613 -115.042 32.0371c3.44238 -53.9492 9.08203 -107.701 18.2656 -161.064
c5.48242 -31.8516 19.0439 -114.896 68.2881 -100.332c47.6279 14.0859 67.6641 69.8047 70.0869 114.396c2.27051 41.7734 -9.62891 86.2061 -41.5986 114.964z" />
    <glyph glyph-name="g" unicode="g" horiz-adv-x="538" 
d="M533.981 156.696c10.2773 10.3955 49.4922 2.58203 35.4229 -11.8135c-44.0322 -45.0244 -94.1729 -80.9941 -146.916 -113.155c3.79199 -103.352 2.45117 -206.748 -8.58691 -308.753c-16.2607 -150.274 -67.3701 -340.497 -221.77 -404.154
c-64.6768 -26.6621 -143.378 -23.8896 -201.125 17.9346c-57.5098 41.6553 -88.5605 114.699 -96.0205 183.636c-16.8584 155.779 93.3896 284.373 214.033 366.602c60.7334 41.3906 126.633 74.9209 191.608 109.696c-2.30469 48.8447 -5.36426 97.6328 -8.73926 146.415
c-23.4893 -41.8574 -51.9766 -80.7568 -85.9404 -113.605c-56.5859 -54.7324 -151.255 -61.5332 -201.243 7.53906c-48.4502 66.9482 -49.7852 163.426 -18.1367 237.439c33.2314 77.709 126.306 125.303 208.686 101.881c40.8828 -11.624 66.0518 -41.1084 85.248 -75.8896
c-1.05957 14.6553 -2.10742 29.3047 -3.12207 43.9658c-3.25684 47.002 117.922 48.3545 122.458 0c8.62012 -91.8291 16.7676 -184.875 21.1738 -278.079c40.2803 26.2451 78.5156 55.4873 112.97 90.3418zM198.77 74.4023
c32.2451 38.3418 58.5117 81.9307 79.5225 127.772c-16.5596 32.1387 -29.8008 67.7539 -53.2227 95.1592c-19.2021 22.4639 -51.2275 48.0605 -79.0781 26.8018c-24.1152 -18.4072 -39.0635 -53.1826 -49.3008 -80.8535
c-12.4072 -33.5303 -16.4639 -70.7061 -13.5166 -106.276c2.37207 -28.6504 8.17578 -83.0049 33.5703 -101.953c27.8398 -20.7744 65.3477 19.5166 82.0254 39.3496zM216.551 -585.236c80.7744 123.1 89.04 288.549 88.2852 431.093
c-0.208008 39.4971 -1.2334 78.9434 -2.7998 118.355c-50.8281 -27.3154 -101.661 -54.7041 -149.7 -86.3809c-117.122 -77.2363 -225.313 -197.976 -213.78 -347.794c5.23438 -68.0127 36.4883 -148.748 98.4219 -184.639
c66.7451 -38.6797 142.792 13.3145 179.573 69.3652z" />
    <glyph glyph-name="h" unicode="h" horiz-adv-x="571" 
d="M557.6 164.225c7.38086 16.2217 54.5576 11.4912 46.3711 -7.27148c-23.4277 -53.5947 -49.8418 -106.271 -80.29 -156.225c-26.042 -42.7256 -59.4365 -99.5371 -106.461 -122.153c-26.4307 -12.7109 -58.8955 -11.2969 -84.2725 3.375
c-45.9766 26.5889 -65.3535 74.6611 -66.2949 125.771c-1.14941 62.418 9.71387 124.723 19.54 186.12c4.89062 30.5381 9.56738 61.3809 12.8125 92.1279c1.34082 12.7393 1.63965 25.3604 1.08203 38.1504c-0.614258 13.9561 0.974609 23.0049 -13.4668 13.9502
c-45.8135 -28.7188 -71.0615 -97.6777 -92.5508 -144.618c-25.6025 -55.9102 -45.0352 -114.282 -69.9395 -170.423c-0.382812 -0.862305 -0.923828 -1.65137 -1.56055 -2.37793c-2.32715 -10.2715 -5.77539 -19.918 -10.9023 -28.4707
c-12.1426 -20.2334 -55.0205 -22.6338 -70.4814 -5.25195c-24.3066 27.3271 -28.5996 62.2432 -34.6514 97.3789c-5.86523 34.0371 -8.94727 68.3613 -12.1641 102.736c-6.41211 68.5088 -10.7334 137.237 -14.5986 205.938c-6.83496 121.443 -10.5703 248.949 31 365.276
c18.1094 50.6758 44.9512 103.6 88.0547 137.49c35.8857 28.2227 86.6738 48.0615 131.743 30.8262c101.312 -38.7422 58.873 -188.898 30.752 -261.621c-40.0381 -103.532 -99.4756 -197.987 -151.977 -295.417c1.12695 -22.9316 2.37793 -45.8525 3.65723 -68.7734
c2.91895 -52.3262 5.17871 -104.687 8.19336 -157.008c0.213867 -3.72949 0.506836 -7.62305 0.828125 -11.5898c11.6348 29.3271 24.2217 58.2705 37.417 86.5605c21.9971 47.165 47.4814 106.884 92.8662 136.487c39.0459 25.4678 86.8086 14.5879 116.333 -20.5195
c35.0625 -41.6943 29.6699 -111.527 27.2695 -162.163c-2.86816 -60.4404 -7.97266 -120.188 -7.20605 -180.752c0.203125 -15.8662 0.248047 -31.8115 -0.332031 -47.6719c-0.37793 -10.2598 2.77734 -21.4551 2.87305 -31.0898
c5.85449 3.44824 13.4326 8.25391 15.5283 10.0059c10.5762 8.84082 20.1602 19.2812 28.9326 29.8799c20.458 24.7236 37.6094 52.4951 53.8701 80.0928c25.0059 42.4326 47.6338 86.3975 68.0244 131.23zM106.303 446.51c40.3086 70.1484 80.8584 140.255 111.521 215.215
c19.416 47.4531 36.9668 98.4561 35.3555 150.399c-1.1377 36.7197 -31.6816 125.45 -75.1846 68.7793c-26.1436 -34.0596 -39.9365 -80.1318 -48.7939 -121.55c-10.5586 -49.3857 -17.5059 -99.3857 -20.7959 -149.785
c-3.54395 -54.3662 -3.62305 -108.721 -2.10156 -163.059zM383.964 -90.7197c0.00585938 -0.146484 0.518555 0.0449219 1.33008 0.439453c-0.805664 0.34375 -1.35254 0.388672 -1.33008 -0.439453z" />
    <glyph glyph-name="i" unicode="i" horiz-adv-x="279" 
d="M274.357 168.507c4.63672 13.6016 43.2041 10.3496 37.8574 -5.9502c-19.8555 -60.6143 -48.7881 -124.288 -93.6543 -170.8c-37.8916 -39.2832 -97.7061 -65.5342 -150.748 -41.8926c-63.9336 28.499 -77.8896 107.284 -84.9043 169.375
c-8.32715 73.6924 -4.86719 149.694 4.95898 223.049c6.6543 49.6562 130.047 49.3125 127.303 0c-5.90527 -106.191 -21.248 -217.601 -2.62109 -323.403c1.9834 -11.252 4.36719 -22.9824 8.24414 -33.7324c6.49609 -18.0078 15.7988 -13.9395 32.0029 -5.64551
c18.3789 9.40918 34.3467 27.7773 46.8379 43.7285c33.5645 42.8555 57.2686 94.0156 74.7236 145.271zM19.2041 442.129c-23.7324 20.5205 -33.0967 52.8564 -40.957 82.8311c-6.43457 24.498 -19.585 71.4102 6.79004 89.2939
c24.4365 16.5654 49.5098 -2.75488 60.457 -24.3008c2.79492 -5.49902 5.15039 -11.252 7.31445 -17.1006c15.5625 24.5156 36.5107 41.3115 63.46 33.7617c54.5801 -15.2969 -31.7383 -135.664 -45.7734 -162.292c-4.21484 -7.99512 -14.21 -11.2354 -24.4873 -11.2188
c-6.6543 -0.986328 -13.6465 -0.43457 -17.8613 2.26953c-1.98926 1.27344 -3.88281 2.63086 -5.70801 4.04492c-1.23926 0.833984 -2.32715 1.74707 -3.23438 2.71094z" />
    <glyph glyph-name="i" unicode="&#xef;" horiz-adv-x="279" 
d="M274.357 168.507c4.63672 13.6016 43.2041 10.3496 37.8574 -5.9502c-19.8555 -60.6143 -48.7881 -124.288 -93.6543 -170.8c-37.8916 -39.2832 -97.7061 -65.5342 -150.748 -41.8926c-63.9336 28.499 -77.8896 107.284 -84.9043 169.375
c-8.32715 73.6924 -4.86719 149.694 4.95898 223.049c6.6543 49.6562 130.047 49.3125 127.303 0c-5.90527 -106.191 -21.248 -217.601 -2.62109 -323.403c1.9834 -11.252 4.36719 -22.9824 8.24414 -33.7324c6.49609 -18.0078 15.7988 -13.9395 32.0029 -5.64551
c18.3789 9.40918 34.3467 27.7773 46.8379 43.7285c33.5645 42.8555 57.2686 94.0156 74.7236 145.271zM19.2041 442.129c-23.7324 20.5205 -33.0967 52.8564 -40.957 82.8311c-6.43457 24.498 -19.585 71.4102 6.79004 89.2939
c24.4365 16.5654 49.5098 -2.75488 60.457 -24.3008c2.79492 -5.49902 5.15039 -11.252 7.31445 -17.1006c15.5625 24.5156 36.5107 41.3115 63.46 33.7617c54.5801 -15.2969 -31.7383 -135.664 -45.7734 -162.292c-4.21484 -7.99512 -14.21 -11.2354 -24.4873 -11.2188
c-6.6543 -0.986328 -13.6465 -0.43457 -17.8613 2.26953c-1.98926 1.27344 -3.88281 2.63086 -5.70801 4.04492c-1.23926 0.833984 -2.32715 1.74707 -3.23438 2.71094z" />
    <glyph glyph-name="i" unicode="&#xee;" horiz-adv-x="279" 
d="M274.357 168.507c4.63672 13.6016 43.2041 10.3496 37.8574 -5.9502c-19.8555 -60.6143 -48.7881 -124.288 -93.6543 -170.8c-37.8916 -39.2832 -97.7061 -65.5342 -150.748 -41.8926c-63.9336 28.499 -77.8896 107.284 -84.9043 169.375
c-8.32715 73.6924 -4.86719 149.694 4.95898 223.049c6.6543 49.6562 130.047 49.3125 127.303 0c-5.90527 -106.191 -21.248 -217.601 -2.62109 -323.403c1.9834 -11.252 4.36719 -22.9824 8.24414 -33.7324c6.49609 -18.0078 15.7988 -13.9395 32.0029 -5.64551
c18.3789 9.40918 34.3467 27.7773 46.8379 43.7285c33.5645 42.8555 57.2686 94.0156 74.7236 145.271zM19.2041 442.129c-23.7324 20.5205 -33.0967 52.8564 -40.957 82.8311c-6.43457 24.498 -19.585 71.4102 6.79004 89.2939
c24.4365 16.5654 49.5098 -2.75488 60.457 -24.3008c2.79492 -5.49902 5.15039 -11.252 7.31445 -17.1006c15.5625 24.5156 36.5107 41.3115 63.46 33.7617c54.5801 -15.2969 -31.7383 -135.664 -45.7734 -162.292c-4.21484 -7.99512 -14.21 -11.2354 -24.4873 -11.2188
c-6.6543 -0.986328 -13.6465 -0.43457 -17.8613 2.26953c-1.98926 1.27344 -3.88281 2.63086 -5.70801 4.04492c-1.23926 0.833984 -2.32715 1.74707 -3.23438 2.71094z" />
    <glyph glyph-name="i" unicode="&#xed;" horiz-adv-x="279" 
d="M274.357 168.507c4.63672 13.6016 43.2041 10.3496 37.8574 -5.9502c-19.8555 -60.6143 -48.7881 -124.288 -93.6543 -170.8c-37.8916 -39.2832 -97.7061 -65.5342 -150.748 -41.8926c-63.9336 28.499 -77.8896 107.284 -84.9043 169.375
c-8.32715 73.6924 -4.86719 149.694 4.95898 223.049c6.6543 49.6562 130.047 49.3125 127.303 0c-5.90527 -106.191 -21.248 -217.601 -2.62109 -323.403c1.9834 -11.252 4.36719 -22.9824 8.24414 -33.7324c6.49609 -18.0078 15.7988 -13.9395 32.0029 -5.64551
c18.3789 9.40918 34.3467 27.7773 46.8379 43.7285c33.5645 42.8555 57.2686 94.0156 74.7236 145.271zM19.2041 442.129c-23.7324 20.5205 -33.0967 52.8564 -40.957 82.8311c-6.43457 24.498 -19.585 71.4102 6.79004 89.2939
c24.4365 16.5654 49.5098 -2.75488 60.457 -24.3008c2.79492 -5.49902 5.15039 -11.252 7.31445 -17.1006c15.5625 24.5156 36.5107 41.3115 63.46 33.7617c54.5801 -15.2969 -31.7383 -135.664 -45.7734 -162.292c-4.21484 -7.99512 -14.21 -11.2354 -24.4873 -11.2188
c-6.6543 -0.986328 -13.6465 -0.43457 -17.8613 2.26953c-1.98926 1.27344 -3.88281 2.63086 -5.70801 4.04492c-1.23926 0.833984 -2.32715 1.74707 -3.23438 2.71094z" />
    <glyph glyph-name="j" unicode="j" horiz-adv-x="236" 
d="M233.383 156.696c10.2773 10.3955 49.4961 2.58301 35.4219 -11.8125c-44.0332 -45.0244 -94.1738 -80.9941 -146.917 -113.155c3.79199 -103.352 2.45117 -206.748 -8.58691 -308.753c-16.2607 -150.274 -67.3701 -340.497 -221.77 -404.154
c-64.6768 -26.6621 -143.378 -23.8896 -201.125 17.9346c-57.5098 41.6553 -88.5605 114.699 -96.0205 183.636c-16.8584 155.779 93.3896 284.373 214.033 366.602c60.7334 41.3906 126.633 74.9209 191.608 109.696c-5.4707 116.029 -15.2236 231.788 -23.2471 347.744
c-3.25684 47.002 117.922 48.3545 122.458 0c8.62109 -91.8291 16.7686 -184.875 21.1748 -278.079c40.2803 26.2451 78.5156 55.4873 112.97 90.3418zM-84.0488 -585.237c80.7803 123.1 89.0459 288.549 88.2852 431.093
c-0.208008 39.4971 -1.2334 78.9434 -2.7998 118.355c-50.8281 -27.3154 -101.661 -54.7041 -149.7 -86.3809c-117.122 -77.2363 -225.313 -197.976 -213.78 -347.794c5.23438 -68.0127 36.4883 -148.748 98.4219 -184.639
c66.7451 -38.6797 142.792 13.3145 179.573 69.3652zM7.55469 439.349c-27.9463 18.6445 -41.8252 54.7207 -52.6885 85.1855c-7.83203 21.9736 -24.5723 69.4717 2.42188 85.5801c25.8115 15.4043 50.4619 -6.33301 62.6777 -27.1523
c2.03418 -3.46484 3.90527 -7.03125 5.70312 -10.6318c13.6748 28.1777 34.2627 48.3037 64.2656 38.9736c49.6162 -15.4326 -21.8164 -139.366 -32.9502 -167.448c-4.41699 -11.1445 -21.9795 -13.7871 -35.8799 -10.6484
c-2.28223 0.276367 -4.32715 0.805664 -5.9668 1.63379c-0.354492 0.180664 -0.675781 0.400391 -1.03027 0.585938c-2.53516 1.08203 -4.76074 2.39453 -6.55273 3.92188z" />
    <glyph glyph-name="k" unicode="k" horiz-adv-x="480" 
d="M467.189 151.874c7.31348 15.083 51.502 10.3115 43.377 -6.81152c-25.2988 -53.3691 -43.1484 -112.868 -86.8096 -154.945c-36.1836 -34.8711 -85.4561 -51.0195 -134.368 -35.3613c-56.9414 18.2324 -95.4414 70.9531 -109.696 126.835
c-6.87402 26.9385 -10.2266 54.7725 -10.79 82.5498c-0.248047 12.1367 1.40234 29.7383 0.151367 45.9092c-18.9766 -43.4189 -30.6846 -90.167 -41.6318 -136.983c0.963867 -29.4512 -1.45898 -58.7383 -14.751 -80.8926
c-12.1426 -20.2334 -55.0205 -22.6338 -70.4814 -5.25195c-24.3066 27.3271 -28.5996 62.2432 -34.6514 97.3789c-5.86523 34.0371 -8.94727 68.3613 -12.1641 102.736c-6.41211 68.5088 -10.7334 137.237 -14.5986 205.938c-6.83496 121.443 -10.5703 248.949 31 365.276
c18.1094 50.6758 44.9512 103.6 88.0547 137.49c35.8857 28.2227 86.6738 48.0615 131.743 30.8262c101.312 -38.7422 58.873 -188.898 30.752 -261.621c-40.0381 -103.532 -99.4756 -197.987 -151.977 -295.417c1.12695 -22.9316 2.37793 -45.8525 3.65723 -68.7734
c1.75195 -31.457 3.3125 -62.9307 4.89551 -94.3936c9.93945 21.709 21.2871 42.376 33.3281 61.1943c31.0342 48.5068 79.332 101.239 140.77 105.149c22.9824 1.46484 51.7119 -3.89355 65.2061 -24.8027c14.3115 -22.1709 1.49902 -47.8467 -14.751 -65.1045
c-28.2344 -29.9922 -76.1777 -45.1992 -121.151 -47.6387c23.7373 -17.3936 36.8428 -41.4072 44.3643 -76.3008c9.29102 -43.1201 20.2051 -84.1836 35.1533 -125.748c4.89648 -13.6182 13.3428 -44.0439 28.3076 -51.2051
c22.6221 -10.8232 52.0615 18.9492 65.4375 34.2412c33.8174 38.6523 49.5654 90.2461 71.624 135.727zM107.319 446.508c40.3086 70.1484 80.8584 140.255 111.521 215.215c19.416 47.4531 36.9668 98.4561 35.3555 150.399
c-1.1377 36.7197 -31.6816 125.45 -75.1846 68.7793c-26.1436 -34.0596 -39.9365 -80.1318 -48.7939 -121.55c-10.5586 -49.3857 -17.5059 -99.3857 -20.7959 -149.785c-3.54395 -54.3662 -3.62305 -108.721 -2.10156 -163.059zM228.063 301.95
c-10.3672 -11.083 -19.4893 -22.7568 -27.7432 -34.8428c40.8604 -3.43164 87.71 -0.231445 111.774 38.415c17.8105 28.6006 -3.84277 49.2393 -33.7617 35.7275c-19.2354 -8.68848 -35.9863 -24.0361 -50.2695 -39.2998z" />
    <glyph glyph-name="l" unicode="l" horiz-adv-x="323" 
d="M318.34 166.151c3.75781 13.6631 42.3604 10.7949 37.8525 -5.95605c-18.3789 -68.458 -52.9629 -151.301 -122.367 -181.884c-61.6572 -27.1689 -131.985 -3.9668 -173.691 46.5732c-48.5342 58.8174 -63.9609 134.245 -75.5508 207.791
c-12.2715 77.8955 -17.7822 157.115 -16.002 235.991c1.77441 78.4756 11.1553 157.588 29.7148 233.895c16.582 68.1709 44.7598 148.518 103.346 192.021c50.8896 37.79 133.777 42.4893 172.756 -15.0322c37.4238 -55.2227 29.2148 -137.146 15.0107 -198.308
c-15.7539 -67.8096 -44.6807 -132.966 -75.8838 -194.973c-31.3271 -62.249 -67.4658 -122.244 -112.693 -175.325c3.78027 -79.5518 13.0264 -158.991 29.1406 -236.56c4.58594 -22.0811 11.46 -45.5205 24.7744 -64.0967
c21.833 -30.4541 58.3379 -16.6104 82.5205 4.33789c42.9453 37.2041 66.4072 98.1621 81.0732 151.525zM99.2197 436.371c-0.37793 -18.0186 -0.467773 -36.0898 -0.337891 -54.1709c56.6934 83.7324 103.036 175.99 132.042 272.248
c16.9092 56.1074 29.0283 128.769 2.14062 183.969c-5.74707 11.793 -19.2979 31.5918 -34.2744 35.3838c-0.512695 -0.382812 -1.08789 -0.810547 -1.86523 -1.39062c-3.17773 -2.37793 -6.63184 -6.43457 -8.9873 -9.47754
c-13.6182 -17.5908 -20.875 -39.8467 -28.1992 -60.502c-41.5195 -117.06 -57.9326 -242.346 -60.5186 -366.06z" />
    <glyph glyph-name="m" unicode="m" horiz-adv-x="647" 
d="M631.377 147.22c4.27051 15.8105 48.7959 12.5605 43.793 -6.89453c-16.4971 -64.2207 -50.1289 -158.721 -126.644 -168.479c-35.5303 -4.53613 -77.4443 8.79492 -100.703 36.1729c-29.7666 35.0342 -30.8818 82.374 -32.2568 126.328
c-1.49316 47.7012 2.87305 95.4023 7.02539 142.884c1.66797 19.084 -0.101562 41.2607 3.80273 59.8486c-0.0390625 0.253906 -0.0615234 0.439453 -0.100586 0.675781c-1.26172 -1.35742 -2.5293 -2.7207 -3.79688 -4.07812
c-6.86816 -13.0215 -16.999 -24.876 -24.0986 -38.0264c-40.9512 -75.8555 -65.8379 -162.275 -83.248 -246.65c0.0898438 -10.9189 -0.124023 -21.7881 -0.913086 -32.5215c-3.43652 -46.9004 -113.555 -46.1738 -118.496 0
c-6.1582 57.5215 0.929688 118.361 4.6709 175.939c1.94922 30.0088 5.23926 59.9385 7.64551 89.9082c1.16602 14.5596 4.38281 36.1445 -0.259766 52.0898c-8.74414 -8.36719 -22.8916 -31.9922 -24.5762 -35.0293c-6.93066 -12.5029 -12.8076 -25.665 -18.374 -38.8154
c-11.3984 -26.9326 -20.7285 -54.6875 -29.1123 -82.6904c-8.91406 -29.7725 -16.7012 -59.8652 -24.8145 -89.8623c-6.68848 -24.7236 -11.8613 -51.9941 -23.9414 -74.915c-0.958008 -7.4541 -2.1416 -14.8691 -3.65137 -22.2275
c-5.35254 -26.0869 -53.6279 -27.6592 -69.3926 -10.7109c-37.7559 40.5957 -35.5869 113.741 -37.0234 165.921c-1.62305 59.1104 -2.27051 121.771 9.89941 179.855c8.82324 42.1006 111.967 46.1689 113.218 0.000976562
c1.2793 -47.3457 -4.33301 -95.1309 -7.44922 -142.617c3.98926 13.624 8.13086 27.209 12.7002 40.6582c15.6973 46.208 40.7197 129.771 98.2354 139.677c64.0576 11.0264 89.2148 -70.6777 97.2832 -118.271c3.78027 -22.3066 5.84766 -44.8213 7.375 -67.3818
c11.9229 37.8457 26.1387 74.875 43.4248 110.186c14.0244 28.6455 32.6797 68.4414 65.1787 80.2451c30.46 11.0664 56.7334 -6.32129 73.3496 -31.293c26.0986 -39.21 32.4766 -85.8398 35.8682 -131.76c3.49902 -47.3574 8.00684 -94.3936 12.6162 -141.632
c1.72461 -17.6865 2.41797 -34.8711 6.23242 -52.0273c1.32422 -4.02832 1.9834 -8.15234 1.97754 -12.3838c0.704102 1.23926 1.41406 2.47852 2.11816 3.72363c11.9395 0.901367 26.8477 22.8584 32.7529 31.5068c23.2646 34.082 38.9736 72.9873 49.6846 112.647z" />
    </font>
</defs>
</svg>
