<?xml version="1.0" standalone="no"?>
<!DOCTYPE svg PUBLIC "-//W3C//DTD SVG 1.1//EN" "http://www.w3.org/Graphics/SVG/1.1/DTD/svg11.dtd" >
<svg xmlns="http://www.w3.org/2000/svg" xmlns:xlink="http://www.w3.org/1999/xlink" version="1.1">
<metadata>
Created by FontForge 20170812 at Thu Jun 23 09:44:54 2022
 By www-data
</metadata>
<defs>
<font id="AnybabyRegular" horiz-adv-x="0" >
  <font-face 
    font-family="Anybaby"
    font-weight="400"
    font-stretch="normal"
    units-per-em="1000"
    panose-1="0 0 0 0 0 0 0 0 0 0"
    ascent="800"
    descent="-200"
    x-height="373.233"
    cap-height="717.425"
    bbox="-197.002 -537.474 1387.7 1069.97"
    underline-thickness="50"
    underline-position="-100"
    unicode-range="U+000A-20AC"
  />
<missing-glyph horiz-adv-x="527" 
d="M50 700h427v-700h-427v700zM78 680l185 -309l186 309h-371zM251 350l-180 300v-601zM264 329l-185 -308h370zM276 350l181 -303v605z" />
    <glyph glyph-name=".notdef" horiz-adv-x="527" 
d="M50 700h427v-700h-427v700zM78 680l185 -309l186 309h-371zM251 350l-180 300v-601zM264 329l-185 -308h370zM276 350l181 -303v605z" />
    <glyph glyph-name=".null" 
 />
    <glyph glyph-name=".null" 
 />
    <glyph glyph-name="LF" unicode="&#xa;" 
 />
    <glyph glyph-name="controlCR" unicode="&#xd;" 
 />
    <glyph glyph-name="space" unicode=" " horiz-adv-x="279" 
 />
    <glyph glyph-name="exclam" unicode="!" horiz-adv-x="201" 
d="M148.625 347.461c2.86914 -99.6055 4.76367 -201.353 -5.2168 -300.597c-2.55176 -25.3291 -18.71 -46.8857 -45.2529 -51.2637c-23.1572 -3.82031 -46.7148 10.8984 -47.5059 35.6084c-2.97461 92.9199 5.0957 186.616 7.7168 279.532
c2.42773 86.0889 3.76953 173.286 9.08008 258.628c-3.94727 6.05762 -1.29688 13.665 2.58105 18.9902c0.334961 0.462891 0.669922 0.921875 1.00879 1.38477c3.28418 4.5127 11.1279 8.2998 16.7744 7.23535c8.93066 -1.67676 15.3828 -1.69824 22.1846 -8.65625
c6.63379 -6.7832 10.8252 -15.9619 14.0254 -24.7578c8.14648 -22.3701 10.0488 -47.2256 13.417 -70.6631c6.91504 -48.126 9.79102 -96.875 11.1875 -145.441zM101.843 -32.2734c13.2129 2.18359 28.5557 -3.99805 32.7295 -17.707
c6.44043 -21.1309 8.4707 -49.2705 3.1123 -70.6162c-7.43262 -29.6084 -54.1514 -44.6885 -67.5283 -11.5107c-8.0957 20.0771 -6.32812 50.5791 0.134766 71.166c4.52734 14.4199 16.2715 26.1494 31.5518 28.668z" />
    <glyph glyph-name="quotedbl" unicode="&#x22;" horiz-adv-x="297" 
d="M73.8008 550.527c9.83398 25.501 59.6807 28.3037 59.5127 -4.53809c-0.170898 -33.4365 -9.08301 -66.2021 -11.9805 -99.3975c-1.69824 -19.4717 -14.5869 -36.082 -34.7881 -39.4141c-16.8398 -2.77734 -37.2812 8.27051 -36.5234 27.3779
c1.57422 39.6514 9.50195 78.9414 23.7793 115.972zM219.982 578.864c18.1777 -1.46875 30.8193 -18.3447 26.3174 -36.2275c-5.61719 -22.3037 -10.3193 -44.8408 -15.9834 -67.1309c-5.42773 -21.3496 -10.3701 -47.6016 -32.8203 -56.8633
c-30.3711 -12.5283 -36.6367 26.2441 -36.3672 46.8857c0.37207 28.2783 6.94434 55.8428 16.2354 82.3711c6.32422 18.0537 22.2129 32.6162 42.6182 30.9648z" />
    <glyph glyph-name="quotedbl" unicode="&#x201d;" horiz-adv-x="297" 
d="M73.8008 550.527c9.83398 25.501 59.6807 28.3037 59.5127 -4.53809c-0.170898 -33.4365 -9.08301 -66.2021 -11.9805 -99.3975c-1.69824 -19.4717 -14.5869 -36.082 -34.7881 -39.4141c-16.8398 -2.77734 -37.2812 8.27051 -36.5234 27.3779
c1.57422 39.6514 9.50195 78.9414 23.7793 115.972zM219.982 578.864c18.1777 -1.46875 30.8193 -18.3447 26.3174 -36.2275c-5.61719 -22.3037 -10.3193 -44.8408 -15.9834 -67.1309c-5.42773 -21.3496 -10.3701 -47.6016 -32.8203 -56.8633
c-30.3711 -12.5283 -36.6367 26.2441 -36.3672 46.8857c0.37207 28.2783 6.94434 55.8428 16.2354 82.3711c6.32422 18.0537 22.2129 32.6162 42.6182 30.9648z" />
    <glyph glyph-name="quotedbl" unicode="&#x201c;" horiz-adv-x="297" 
d="M73.8008 550.527c9.83398 25.501 59.6807 28.3037 59.5127 -4.53809c-0.170898 -33.4365 -9.08301 -66.2021 -11.9805 -99.3975c-1.69824 -19.4717 -14.5869 -36.082 -34.7881 -39.4141c-16.8398 -2.77734 -37.2812 8.27051 -36.5234 27.3779
c1.57422 39.6514 9.50195 78.9414 23.7793 115.972zM219.982 578.864c18.1777 -1.46875 30.8193 -18.3447 26.3174 -36.2275c-5.61719 -22.3037 -10.3193 -44.8408 -15.9834 -67.1309c-5.42773 -21.3496 -10.3701 -47.6016 -32.8203 -56.8633
c-30.3711 -12.5283 -36.6367 26.2441 -36.3672 46.8857c0.37207 28.2783 6.94434 55.8428 16.2354 82.3711c6.32422 18.0537 22.2129 32.6162 42.6182 30.9648z" />
    <glyph glyph-name="numbersign" unicode="#" horiz-adv-x="611" 
d="M539.443 246.624c-35.9326 2.15039 -71.8975 3.52637 -107.863 4.16016c-3.28027 -21.4551 -6.3457 -42.9463 -9.26953 -64.46c35.4004 1.46875 70.8008 2.87988 106.205 4.18848c9.97266 0.368164 15.7285 -10.4395 13.8223 -19.0273
c-2.31836 -10.4355 -12.4658 -15.9619 -22.3838 -16.2607c-34.0635 -1.02051 -68.123 -2.13574 -102.183 -3.30566c-6.6084 -53.2549 -11.5 -106.721 -16.3223 -160.161c-2.66797 -29.5684 -4.84375 -59.1299 -8.07324 -88.6475
c-3.34277 -30.5381 -4.41797 -62.1846 -18.3457 -90.1494c-5.86523 -11.7734 -28.3223 -20.8389 -36.9062 -6.50684c-15.043 25.1182 -16.0635 55.7188 -18.1152 84.2744c-2.16895 30.1631 -2.27832 60.2061 -1.98633 90.4346
c0.539062 55.9443 4.3623 111.762 9.5752 167.455c-11.6494 -0.448242 -23.2988 -0.841797 -34.9482 -1.30469c-7.43555 -0.294922 -14.8789 -0.583008 -22.3223 -0.867188c-4.66211 -45.9971 -8.3877 -92.1689 -10.5488 -138.312
c-1.23242 -26.3682 -3.02539 -52.7188 -4.58887 -79.0693c-1.78613 -30.0244 -1.9541 -59.7061 -16.0527 -86.8359c-8.77734 -16.8916 -33.4512 -24.0029 -46.624 -8.21973c-18.4619 22.126 -20.4814 52.6895 -23.5654 80.501
c-3.11328 28.0674 -4.80859 56.3242 -4.88867 84.5557c-0.138672 47.5938 1.79688 94.9941 5.51855 142.38c-34.5439 -2.47168 -68.9756 -6.09473 -103.137 -12.0908c-22.8184 -4.00195 -20.7295 28.0127 -0.820312 31.6465c35.3467 6.45508 71.0098 10.377 106.793 13.1104
c2.14355 22.9053 4.49414 45.8037 7.09277 68.6768c-31.249 -2.5625 -62.4619 -5.67578 -93.6094 -9.41602c-22.9307 -2.75586 -21.0391 29.0547 -0.820312 31.6465c32.7256 4.19531 65.5127 7.70898 98.3398 10.6104c9.68164 77.4834 22.541 154.569 40.5078 230.54
c13.3008 56.2471 105.754 58.5547 96.918 -7.39551c-9.67383 -72.2305 -22.2891 -144.031 -33.1768 -216.08c18.7324 0.867188 37.4678 1.51953 56.2139 1.96094c12.0215 81.3838 28.1543 162.118 48.8076 241.811c6.16699 23.7881 30.418 42.1299 55.2266 40.125
c24.043 -1.94629 39.2539 -23.6816 34.1035 -46.9404c-17.2266 -77.7822 -32.2734 -155.983 -45.0098 -234.582c36.9277 -0.532227 73.8633 -1.87402 110.773 -4.08301c24.1523 -1.44336 12.4951 -35.6084 -8.33691 -34.3613zM330.929 182.327
c2.41309 22.8623 5.13672 45.6875 8.17285 68.4688c-18.7939 -0.34668 -37.5811 -0.897461 -56.3643 -1.65918c-3.27344 -23.084 -6.28809 -46.2051 -8.90527 -69.3838c6.62695 0.302734 13.25 0.605469 19.8691 0.915039c12.4082 0.586914 24.8193 1.09375 37.2275 1.65918
z" />
    <glyph glyph-name="dollar" unicode="$" horiz-adv-x="475" 
d="M375.751 155.665c32.6484 -37.1318 55.6504 -81.7148 48.0254 -132.509c-12.1348 -80.8477 -95.7852 -108.16 -168.049 -103.134c0.929688 -20.6016 1.9541 -41.2148 3.06934 -61.835c1.12598 -20.8281 -34.7344 -29.6963 -36.7139 -6.19629
c-2.08105 24.6807 -3.80566 49.4121 -5.20898 74.1836c-76.4297 19.9131 -132.035 89.3301 -120.619 170.55c2.74121 19.501 35.6201 19.7559 32.8867 -2.50781c-7.38867 -60.1221 33.6367 -108.977 85.7832 -128.321c-2.84277 67.0254 -3.3125 134.288 -1.60254 201.565
c-66.2676 49.1387 -142.891 100.8 -159.84 185.07c-19.3848 96.4014 44.2617 189.683 138.938 212.767c18.3242 4.46875 37.0449 5.93359 55.4893 4.70898c4.98633 34.7627 10.4355 69.4014 16.3408 103.884c3.2627 19.0596 36.043 19.4424 32.4121 -2.47559
c-5.87207 -35.4297 -11.1611 -70.9512 -15.9326 -106.534c51.1436 -12.6045 96.6562 -46.168 120.608 -94.6582c11.7412 -23.7764 -29.8604 -45.3848 -45.6035 -25.7383c-21.7139 27.0977 -49.4678 50.5869 -82.5791 59.4805
c-9.10938 -78.46 -15.583 -157.215 -19.2246 -236.156c4.40723 -3.55762 8.71973 -7.03125 12.8535 -10.4033c38.6562 -31.5439 75.9521 -64.1963 108.966 -101.74zM219.212 296.688c4.61426 70.5537 11.4678 140.951 20.2998 210.94
c-37.6758 -1.80078 -73.7578 -23.3066 -86.7305 -56.5537c-24.0176 -61.5615 19.1797 -112.902 66.4307 -154.387zM324.373 -27.2412c81.9336 47.2471 -25.1025 128.673 -73.626 166.046c-0.262695 -60.5117 1.06445 -120.976 3.4043 -181.469
c24.0283 -1.73828 48.4463 2.86914 70.2217 15.4229z" />
    <glyph glyph-name="percent" unicode="%" horiz-adv-x="561" 
d="M489.795 516.931c-28.0449 -57.4355 -62.54 -111.774 -93.2393 -167.832c-30.3193 -55.3574 -58.707 -111.648 -87.0508 -168.03c-28.8867 -57.4648 -55.5107 -115.925 -82.7246 -174.177c-26.6416 -57.0273 -48.333 -118.972 -85.7129 -170.046
c-11.2959 -15.4365 -45.9092 -14.4521 -44.8994 9.44141c2.66113 62.9756 30.8115 125.255 52.6602 183.579c22.9678 61.3066 49.2812 121.45 76.4111 181.018c26.5508 58.292 55.9482 115.403 86.126 171.895c31.6758 59.2979 63.6904 119.04 103.473 173.37
c13.1807 17.999 41.2734 24.29 60.6689 14.4014c20.3281 -10.3633 23.6709 -34.4023 14.2881 -53.6191zM234.201 343.624c-3.83789 -60.3438 -43.3623 -143.013 -116.501 -132.424c-75.708 10.9609 -75.001 125.073 -59.1377 180.128
c4.58887 15.918 18.207 28.9346 34.4277 32.0547c9.93262 18.71 24.7207 34.2998 45.498 42.0488c28.8652 10.7676 59.9902 -3.21094 76.1855 -28.249c17.2305 -26.6348 21.5029 -62.5098 19.5273 -93.5586zM126.9 410.509
c4.58887 -6.875 6.43066 -15.6523 4.39648 -24.7246c-4.53125 -20.208 -6.82715 -40.3398 -5.44238 -61.0508c0.837891 -12.5576 2.17969 -39.7793 12.6338 -48.8701c18.2217 -15.8525 37.125 42.4688 39.3887 52.9336c5.23047 24.1709 10.6582 89.8984 -25.2129 94.9541
c-11.5146 1.62207 -19.8584 -4.60352 -25.7637 -13.2422zM490.664 163.606c17.2305 -26.6348 21.502 -62.5127 19.5225 -93.5576c-3.83789 -60.3438 -43.3613 -143.014 -116.496 -132.425c-75.708 10.9609 -75.001 125.073 -59.1377 180.128
c4.58887 15.9219 18.207 28.9385 34.4277 32.0547c9.93262 18.71 24.7207 34.2998 45.498 42.0488c28.8652 10.7676 59.9902 -3.21094 76.1855 -28.249zM453.862 55.2129c5.23047 24.1709 10.6602 89.9043 -25.2109 94.96
c-11.5146 1.62598 -19.8584 -4.60352 -25.7637 -13.2422c4.58887 -6.87109 6.42969 -15.6484 4.39551 -24.7285c-4.53125 -20.2051 -6.82812 -40.3408 -5.44336 -61.0518c0.837891 -12.5576 2.17969 -39.7793 12.6338 -48.8701
c18.2217 -15.8525 37.125 42.4717 39.3887 52.9326z" />
    <glyph glyph-name="ampersand" unicode="&#x26;" horiz-adv-x="526" 
d="M439.017 155.941c32.8125 -15.5312 44.0576 -48.6992 32.7539 -82.3721c-19.082 -56.8848 -73.5684 -103.107 -123.553 -132.895c-57.96 -34.5371 -134.642 -54.293 -194.348 -12.2471c-69.7412 49.1133 -43.7441 136.106 -3.41113 195.047
c14.1172 20.627 29.4922 40.2451 46.4053 58.5469c-27.9902 4.58594 -55.04 13.8076 -79.9434 29.7656c-51.4941 33.0059 -79.7803 96.5215 -61.1865 156.02c18.0537 57.7705 63.4199 102.809 117.399 128.328c45.126 21.335 101.285 30.502 149.685 15.8418
c57.3154 -17.3613 78.2236 -67.2734 74.1553 -123.327c-2.125 -29.3066 -48.6289 -43.916 -53.2803 -8.99219c-2.92676 21.9902 -5.66797 49.2773 -24.1992 63.9629c-15.8047 12.5283 -38.9326 14.2959 -58.2773 12.0615
c-20.9521 -2.42383 -39.6035 -8.72949 -56.9756 -20.7148c-15.7393 -10.8584 -30.4033 -26.0332 -38.9404 -40.4863c-5.40234 -9.14941 -10.3672 -18.3164 -13.0859 -28.1182c-2.9707 -10.7197 -2.25586 -18.9795 0.0585938 -26.999
c5.45312 -18.8848 17.7549 -33.5195 36.7891 -44.0352c41.0361 -22.6689 98.3691 -15.1641 148.42 -13.3232c21.043 0.776367 38.5498 -19.8877 39.1514 -39.6582c0.700195 -23.0039 -16.4463 -43.5 -36.5889 -52.4121
c-11.832 -5.23438 -20.4199 -11.1211 -33.5273 -21.0137c-10.1299 -7.64746 -24.874 -19.8652 -31.2529 -25.8467c-21.6553 -20.3066 -41.8057 -43.1611 -58.752 -67.5684c-14.125 -20.3428 -32.9482 -48.2676 -21.2109 -73.8447
c9.62988 -20.9814 32.2988 -32.1387 54.333 -34.6318c58.7295 -6.6416 115.53 16.5479 154.547 60.1904c16.7705 18.7607 46.543 53.9834 34.1348 80.9824c-14.332 31.1875 -59.9424 25.6328 -83.9014 12.1201c-18.0107 -10.1553 -30.9541 17.8682 -14.0117 27.5527
c29.9805 17.1387 66.3359 23.3467 98.6133 8.06641z" />
    <glyph glyph-name="quotesingle" unicode="'" horiz-adv-x="188" 
d="M111.171 587.503c16.8545 -1.36328 30.3506 -17.7285 25.2334 -34.7324c-6.96191 -23.124 -13.9678 -46.2227 -21.1084 -69.292c-3.75488 -12.1309 -6.78418 -25.2822 -13.0645 -36.4473c-2.08496 -3.70312 -4.98633 -7.75293 -7.97559 -10.7969
c-0.561523 -0.692383 -1.15918 -1.33789 -1.7793 -1.94629c-11.373 -11.5186 -30.9619 -10.4248 -38.0879 4.98633c-8.21973 17.7773 -2.90918 40.3838 0.0107422 59.0645c3.17871 20.3252 9.00684 40.1328 15.9141 59.4775c6.1709 17.2852 21.207 31.2754 40.8574 29.6865z
" />
    <glyph glyph-name="quotesingle" unicode="&#x2019;" horiz-adv-x="188" 
d="M111.171 587.503c16.8545 -1.36328 30.3506 -17.7285 25.2334 -34.7324c-6.96191 -23.124 -13.9678 -46.2227 -21.1084 -69.292c-3.75488 -12.1309 -6.78418 -25.2822 -13.0645 -36.4473c-2.08496 -3.70312 -4.98633 -7.75293 -7.97559 -10.7969
c-0.561523 -0.692383 -1.15918 -1.33789 -1.7793 -1.94629c-11.373 -11.5186 -30.9619 -10.4248 -38.0879 4.98633c-8.21973 17.7773 -2.90918 40.3838 0.0107422 59.0645c3.17871 20.3252 9.00684 40.1328 15.9141 59.4775c6.1709 17.2852 21.207 31.2754 40.8574 29.6865z
" />
    <glyph glyph-name="quotesingle" unicode="&#x2018;" horiz-adv-x="188" 
d="M111.171 587.503c16.8545 -1.36328 30.3506 -17.7285 25.2334 -34.7324c-6.96191 -23.124 -13.9678 -46.2227 -21.1084 -69.292c-3.75488 -12.1309 -6.78418 -25.2822 -13.0645 -36.4473c-2.08496 -3.70312 -4.98633 -7.75293 -7.97559 -10.7969
c-0.561523 -0.692383 -1.15918 -1.33789 -1.7793 -1.94629c-11.373 -11.5186 -30.9619 -10.4248 -38.0879 4.98633c-8.21973 17.7773 -2.90918 40.3838 0.0107422 59.0645c3.17871 20.3252 9.00684 40.1328 15.9141 59.4775c6.1709 17.2852 21.207 31.2754 40.8574 29.6865z
" />
    <glyph glyph-name="parenleft" unicode="(" horiz-adv-x="396" 
d="M308.054 -120.489c35.1562 12.2988 50.9385 -26.5264 24.6211 -48.4111c-67.8125 -56.3711 -159.304 -12.0693 -202.414 52.1455c-39.7754 59.2471 -59.9072 132.746 -71.3486 202.399c-11.6133 70.6855 -11.6787 142.158 -1.34863 213.015
c10.2568 70.3496 33.9023 139.712 68.8145 201.692c18.459 32.7725 42.3125 66.4492 73.5293 88.2832c15.3418 10.7314 32.084 19.585 50.8818 21.8887c15.9727 1.95703 26.4053 -3.52832 41.2588 -6.85254c20.3105 -4.54492 4.45117 -34.584 -12.3311 -32.5645
c-0.298828 2.47168 -1.43945 2.55957 -3.41895 0.262695c-2.47461 -1.41406 -4.97168 -2.79883 -7.4834 -4.14746c-1.85156 -1.09375 -3.55762 -1.96484 -5.34766 -3.2041c-5.16113 -3.57617 -10.21 -7.84082 -14.7148 -12.1895
c-9.76172 -9.41895 -18.4443 -21.1523 -25.9385 -32.4082c-18.5166 -27.8047 -33.6074 -59.167 -45.4795 -90.3398c-39.4395 -103.574 -49.0479 -221.179 -27.5088 -329.827c10.5596 -53.2578 24.9141 -109.694 50.7031 -157.856
c19.5742 -36.5488 61.4922 -77.9893 107.525 -61.8857z" />
    <glyph glyph-name="parenright" unicode=")" horiz-adv-x="366" 
d="M310.085 294.021c8.23438 -69.9814 8.54688 -140.585 0.196289 -210.552c-7.47949 -62.6475 -26.0293 -126.134 -60.0049 -179.76c-38.7578 -61.1748 -99.2188 -119.974 -177.62 -99.8271c-21.2324 5.45312 -26.4482 30.2793 -20.1572 47.9941
c7.47949 21.0684 29.0654 33.7461 50.8994 33.1846c8.07715 -0.208008 13.1689 3.24707 19.748 8.0332c8.05566 5.86523 4.40332 2.83984 11.2412 10.0791c4.6582 4.92773 9.16699 9.97266 13.4316 15.251c9.43359 11.668 10.9941 14.0332 18.4629 27.0059
c7.20996 12.5244 13.5342 25.5518 19.0742 38.8965c15.2471 36.7168 25.8975 90.0918 29.6152 132.615c5.08105 58.1641 4.07129 117.018 -2.07812 175.058c-6.01465 56.7432 -13.7861 114.263 -35.2227 167.561c-8.64258 21.4844 -21.1016 41.4014 -35.5723 59.4629
c-10.957 13.6729 -35.7432 43.6533 -54.9785 38.3281c-20.6455 -5.71875 -20.6787 23.4746 -5.15039 30.3818c70.543 31.3916 136.708 -27.9648 169.678 -86.4209c35.3936 -62.75 50.0977 -136.409 58.4375 -207.291z" />
    <glyph glyph-name="asterisk" unicode="*" horiz-adv-x="273" 
d="M210.498 485.011c22.7852 0.12793 11.6543 -32.4062 -7.88281 -32.5156c-11.5986 -0.0654297 -23.1787 -0.276367 -34.748 -0.640625c10.8984 -8.71582 22.4238 -16.7021 34.8643 -23.6133c18.3311 -10.1768 -6.48828 -37.0449 -23.667 -27.4072
c-8.7334 4.89941 -17.0664 10.3047 -25.0566 16.1152c0.375 -5.69336 0.801758 -11.3867 1.30859 -17.0693c1.65527 -18.542 -29.0547 -25.7041 -32.3281 -5.45605c-1.70605 10.5449 -2.93848 21.0684 -3.7627 31.584c-9.20703 -11.4131 -18.0205 -23.1318 -26.6699 -34.752
c-12.543 -16.8477 -37.0156 -0.5 -24.0498 17.4922c9.55762 13.2607 19.2969 26.3359 29.4883 38.9258c-10.7129 -0.958984 -21.4189 -2.05566 -32.1211 -3.32812c-21.9502 -2.60938 -20.1094 27.6992 -0.783203 30.2764c8.44531 1.12598 16.9014 2.13574 25.3652 3.09082
c-9.32031 10.9971 -18.2578 22.3438 -26.9512 33.8145c-11.3945 15.0361 15.0322 33.6846 27.0938 19.6836c9.58301 -11.125 19.1875 -22.2715 29.0654 -33.1152c0.652344 8.00098 1.4248 16.0059 2.41992 24.0361c2.51465 20.2959 37.3213 20.6641 34.3066 -2.62109
c-0.612305 -4.75293 -1.13672 -9.5166 -1.5957 -14.2842c12.9873 10.2285 26.9697 19.3594 42.3555 26.9414c21.375 10.5342 29.2998 -20.3252 9.75098 -29.959c-10.3809 -5.11816 -20.0479 -11.1875 -29.1934 -17.9199c10.9238 0.401367 21.8555 0.660156 32.791 0.72168z
" />
    <glyph glyph-name="plus" unicode="+" horiz-adv-x="279" 
d="M216.434 190.628c22.9717 0.648438 11.8203 -32.5391 -7.99805 -32.9766c-9.21875 -0.200195 -18.4258 -0.557617 -27.6299 -0.995117c-0.0761719 -3.56445 -0.160156 -7.12891 -0.233398 -10.6934c-0.772461 -37.46 4.14844 -78.9004 -6.10156 -115.304
c-5.58398 -19.8291 -39.8584 -39.3408 -54.1289 -16.1396c-20.7109 33.6836 -22.4316 78.4482 -25.4092 116.991c-0.466797 6.03223 -0.780273 12.0576 -1.01758 18.0791c-5.93066 -0.794922 -11.7881 -1.80469 -17.4854 -3.11328
c-14.3145 -11.2559 -35.9043 4.35547 -21.8857 20.7695c8.27832 9.69629 19.0273 10.3994 31.0195 12.1924c2.67578 0.401367 5.3623 0.740234 8.04102 1.11914c0.452148 24.8848 2.45312 49.708 5.33301 74.5566c4.89551 42.2168 85.6924 53.3887 84.3076 4.03418
c-0.65625 -23.3398 -1.20996 -46.6758 -1.73438 -70.0156c11.6348 0.645508 23.2734 1.16699 34.9229 1.49512z" />
    <glyph glyph-name="comma" unicode="," horiz-adv-x="216" 
d="M143.733 102.677c21.8047 -7.82617 27.418 -32.6328 17.7764 -52.0498c-18.2285 -36.6982 -34.7041 -79.4727 -62.8984 -109.777c-10.6436 -11.4385 -42.7275 -19.5996 -46.8467 3.57617c-8.07422 45.4316 13.0127 93.5537 33.8447 133.056
c10.4688 19.8477 36.1152 33.0938 58.124 25.1953z" />
    <glyph glyph-name="hyphen" unicode="-" horiz-adv-x="340" 
d="M260.221 256.035c20.2158 -0.382812 32.9082 -20.6387 28.4902 -39.2139c-5.13574 -21.6006 -25.457 -32.7178 -46.1357 -33.5195c-30.6406 -1.18457 -61.3213 -1.0791 -91.9834 -1.10449c-26.9512 -0.0253906 -63.3145 -5.72949 -88.0498 6.83887
c-16.0234 8.14355 -16.9277 29.1387 -1.35645 39.2646c27.7139 18.0176 64.791 19.5811 96.9365 22.8506c33.8701 3.44824 68.043 5.5293 102.099 4.88379z" />
    <glyph glyph-name="period" unicode="." horiz-adv-x="150" 
d="M99.3887 25.3574c-1.93164 -5.33984 -3.5957 -10.7432 -4.78418 -16.2979c-1.46484 -6.8418 -1.85449 -6.45508 -0.524414 -12.2109c3.22559 -13.9385 -6.84961 -27.5342 -20.832 -29.8311c-12.2588 -2.01172 -27.375 8.49316 -22.2031 22.4971
c5.25977 14.2373 8.68945 28.9346 15.1699 42.7529c3.74707 7.99023 13.585 12.6084 22.0342 10.9248c7.57812 -1.5127 14.0264 -9.86328 11.1396 -17.835z" />
    <glyph glyph-name="slash" unicode="/" horiz-adv-x="479" 
d="M364.729 575.686c25.1621 22.2529 73.2266 2.57715 62.9365 -33.4912c-9.48438 -33.2646 -29.7617 -61.9404 -47.043 -91.6113c-15.666 -26.9004 -30.6035 -54.209 -45.3701 -81.6123c-30.6445 -56.8662 -58.9307 -114.983 -85.6309 -173.797
c-26.7617 -58.9551 -52.791 -118.278 -77.9824 -177.923c-12.1855 -28.8506 -25.3408 -57.3115 -38.4336 -85.7646c-6.56445 -14.2598 -13.6611 -28.377 -21.1592 -42.1738c-4.2832 -7.88379 -8.66113 -16.0488 -13.5635 -23.5615
c-3.86035 -5.91602 -10.8047 -10.7344 -14.2891 -16.2061c-9.54297 -14.9922 -36.3447 -15.4004 -33.1738 6.91113c0.765625 5.38379 -1.65137 13.1729 -0.856445 19.3623c1.0791 8.42773 3.08398 17.0625 4.93555 25.3584c3.30957 14.8096 7.2168 29.6484 11.6416 44.1562
c9.62988 31.5625 19.625 63.0449 30.9248 94.0459c22.5742 61.9219 45.8477 123.557 71.6914 184.192c25.2637 59.2725 52.1387 117.878 81.376 175.303c15.1084 29.6816 31.2637 58.8389 48.0088 87.6279c18.8418 32.3896 37.7383 64.2002 65.9873 89.1836z" />
    <glyph glyph-name="zero" unicode="0" horiz-adv-x="441" 
d="M90.1904 245.969c-51.1836 37.8359 -46.0674 105.799 -25.374 159.145c18.9365 48.8184 55.3066 93.8164 103.064 116.733c49.4521 23.7334 102.882 12.9258 140.055 -26.9473c38.4004 -41.1816 60.8574 -100.56 71.9746 -154.846
c12.7393 -62.1992 13.7236 -123.706 6.56445 -186.656c-6.38574 -56.1562 -17.8496 -116.194 -48.7236 -164.583c-34.3438 -53.8271 -97.8848 -99.0879 -163.204 -68.9727c-61.248 28.2344 -79.9688 94.9971 -83.5186 157.276
c-3.01465 52.875 5.3584 106.181 17.3252 157.93c-6.32031 3.04004 -12.415 6.6709 -18.1631 10.9209zM99.7178 401.385c-16.3193 -37.7881 -26.6045 -91.4863 7.03906 -123.151c3.13477 -2.94922 6.57227 -5.65723 10.2314 -8.12109
c0.258789 1.00195 0.510742 2.00781 0.773438 3.00684c13.1045 50.2002 97.1455 54.2422 90.2422 -3.49219c1.07129 0.929688 2.12793 1.89551 3.14844 2.92383c14.2373 14.3398 39.1553 -1.29785 23.6934 -17.2344c-9.73926 -10.042 -21.1152 -17.6455 -33.374 -22.8906
c-7.75293 -42.5742 -15.1777 -85.2031 -14.9805 -128.646c0.149414 -33.083 1.83008 -93.7227 41.4668 -105.854c11.624 -3.55762 16.9277 1.85938 24.5791 9.73633c12.3018 12.667 20.6201 27.9219 27.666 44.1494c16.7529 38.5938 25.1953 82.8008 31.8115 124.15
c7.32324 45.7676 9.61621 93.1465 6.88965 139.413c-2.53711 43.0957 -5.17578 96.5176 -26.7295 135.067c-21.8848 39.1445 -66.0889 59.8525 -108.507 42.083c-38.875 -16.2793 -67.624 -53.3242 -83.9502 -91.1416z" />
    <glyph glyph-name="one" unicode="1" horiz-adv-x="336" 
d="M78.96 418.901c-10.1367 -14.5986 -37.1797 -2.63672 -26.5176 13.8721c28.0742 43.4893 71.7461 95.3438 123.499 110.5c48.1367 14.0957 84.6279 -32.5283 97.7031 -73.4043c17.7373 -55.4521 12.1533 -120.054 9.86035 -177.34
c-4.71289 -117.834 -15.6738 -234.738 -14.8828 -352.835c0.189453 -28.501 -23.627 -53.4482 -51.1943 -57.9971c-26.1064 -4.30469 -52.9775 12.3164 -53.7432 40.2891c-3.61621 132.203 19.2861 264.1 36.4795 394.717c4.22852 32.1201 8.12891 64.543 10.2432 96.8711
c1.62598 24.8525 5.7373 59.5576 -3.61914 83.334c-20.4814 52.041 -113.94 -58.0068 -127.828 -78.0068z" />
    <glyph glyph-name="two" unicode="2" horiz-adv-x="479" 
d="M59.8203 -134.015c-13.6504 7.96484 -11.1748 27.1055 -3.99805 38.0439c5.9668 9.09082 14.9297 14.2266 24.7822 15.6377c-0.0546875 0.164062 -0.109375 0.332031 -0.164062 0.5c65.0029 18.1777 107.209 67.1348 146.579 120.487
c33.582 45.5088 63.1104 100.757 84.5176 155.637c21.7686 55.8096 41.4043 115.964 48.2393 175.703c5.58398 48.8115 -3.04004 142.234 -72.9121 134.284c-60.5264 -6.88574 -116.077 -83.4434 -95.4502 -141.849c6.52441 -18.4736 -25.749 -33.5713 -32.915 -13.8438
c-28.7959 79.2764 44.1855 173.027 121.888 188.628c72.4932 14.5547 131.488 -55.0439 143.524 -119.978c14.6201 -78.8789 -3.4707 -165.336 -29.4307 -240.228c-26.4736 -76.375 -63.0225 -147.688 -113.109 -211.359
c-8.58008 -10.9023 -18.4434 -22.6982 -29.3057 -34.4424c44.4736 2.48633 88.9912 4.12988 133.333 8.55469c25.585 2.55176 23.5615 -32.7979 0.915039 -35.2988c-48.7568 -5.38379 -97.7578 -7.38477 -146.664 -10.8691
c-9.9834 -0.707031 -19.9961 -1.4541 -29.998 -2.2998c-44.627 -35.6455 -97.9219 -57.5811 -149.831 -27.3086z" />
    <glyph glyph-name="three" unicode="3" horiz-adv-x="492" 
d="M86.125 397.367c7.32324 -17.2744 -23.4238 -31.5703 -31.5088 -13.25c-23.6709 53.6113 49.3545 105.987 90.1426 124.392c53.4219 24.1084 121.792 32.5137 175.849 7.0127c26.7324 -12.6084 48.085 -30.8115 51.0303 -62.2393
c3.1709 -33.8369 -14.5801 -67.1201 -35.1201 -92.6064c-14.999 -18.6084 -32.2803 -34.6943 -50.9648 -49.0264c38.9258 -17.4492 73.7656 -43.9775 100.918 -78.4639c44.4697 -56.4727 65.5088 -133.358 51.7812 -204.306
c-14.208 -73.4375 -65.9785 -131.934 -135.002 -158.663c-58.46 -22.6396 -144.571 -24.7432 -189.121 27.4287c-23.959 28.0596 -23.6162 70.4082 -15.1484 104.318c9.72461 38.9551 32.083 70.4482 51.2637 104.897c9.40039 16.8838 31.6318 27.9209 49.8721 18.1631
c19.4316 -10.3994 16.3477 -31.8721 5.39453 -47.0791c-24.3604 -33.8262 -74.1445 -122.704 -14.0596 -146.266c20.3506 -7.97949 40.9053 -8.5625 62.1562 -4.08984c18.1416 3.81641 37.7959 14.4854 47.5205 23.3281c33.6113 30.5605 44.3027 76.4668 41.1426 120.751
c-3.08691 43.252 -25.5264 89.001 -57.8906 118.767c-39.3047 36.1445 -86.0635 50.3018 -138.265 51.0342c-20.6602 0.288086 -37.7373 18.75 -38.3457 38.8418c-0.663086 21.8262 15.9297 43.6055 35.835 51.3291c42.166 16.3594 79.7979 33.0068 115.297 58.1182
c26.5723 18.7939 75.668 55.5615 43.6641 90.0625c-15.8125 17.0439 -47.291 17.0625 -68.8555 16.2861s-43.4453 -4.56738 -63.8506 -11.6348c-19.8145 -6.86328 -38.4883 -16.5449 -54.709 -29.9111c-15.6445 -12.8926 -38.2803 -35.3643 -29.0254 -57.1943z" />
    <glyph glyph-name="four" unicode="4" horiz-adv-x="395" 
d="M228.429 179.552c-73.5498 -38.7109 -166.97 -76.1504 -176.797 22.4629c-11.3867 114.2 40.7305 224.646 39.3086 338.616c-0.237305 19.1182 33.25 27.3926 33.7891 5.70117c2.44922 -98.4678 -32.3105 -192.394 -36.1309 -290.201
c-0.797852 -20.4346 -3.50586 -47.3457 5.58887 -66.373c10.7383 -22.4648 36.709 -15.3975 55.4082 -8.33301c25.7959 9.74707 52.0547 21.5059 77.2715 34.8721c-3.46289 99.7217 -0.302734 201.244 18.1523 299.308c4.69824 24.9648 30.6514 42.7344 54.6318 44.0791
c22.3584 1.25391 46.2012 -14.7295 45.5381 -39.2822c-2.71191 -100.582 -10.4463 -200.807 -10.4863 -301.509c-0.0214844 -51.1836 1.9502 -102.364 3.8457 -153.508c1.85156 -50.0068 1.73828 -99.0986 0.371094 -149.068
c-0.710938 -25.8984 -36.6074 -46.6064 -55.1758 -23.46c-31.6865 39.502 -36.1631 100.411 -42.8994 148.843c-6.36816 45.7744 -10.0938 91.7314 -12.416 137.853z" />
    <glyph glyph-name="five" unicode="5" horiz-adv-x="511" 
d="M56.0117 518.98c-17.3652 11.1396 6.80762 36.9131 23.0059 26.6445c32.1572 -20.3945 70.6895 -14.4639 106.036 -7.49121c36.374 7.17676 72.7012 13.9824 109.698 17.0625c48.833 4.06055 152.973 14.0986 165.825 -53.0615
c3.68555 -19.2461 -28.8828 -35.3896 -33.8477 -14.2373c-7.99707 34.0664 -52.0439 35.2695 -80.2637 35.9619c-29.9482 0.736328 -59.8125 -1.58203 -89.4619 -5.59863c0.124023 -1.99707 0.0908203 -4.0459 -0.295898 -6.19238
c-5.92676 -32.7217 -25.7305 -65.0938 -40.3398 -94.6768c-7.14453 -14.4668 -14.6719 -28.7559 -22.0859 -43.0879c7.0791 0.444336 14.1611 0.819336 21.2432 0.990234c23.0947 0.557617 46.5869 -1.82617 68.5771 -9.30566
c38.7471 -13.1807 72.0625 -41.5352 97.1992 -73.2256c84.0439 -105.962 81.7002 -291.594 -39.1152 -371.18c-59.4834 -39.1807 -139.15 -40.2773 -192.923 10.0723c-57.4609 53.8008 -37.4746 127.799 -9.59375 191.369c9.19629 20.9668 42.9609 11.9121 33.2871 -11.7773
c-15.9248 -38.9844 -35.6953 -88.7979 -7.86523 -127.071c21.0791 -28.9932 55.9297 -39.5674 89.3838 -27.8672c120.338 42.0898 117.225 213.222 37.4346 294.736c-24.3965 24.9209 -52.4521 38.0508 -87.3828 38.2803
c-35.1641 0.229492 -93.6787 -18.7217 -110.285 25.8389c-14.584 39.1338 22.7598 80.8037 41.9287 111.83c16.1621 26.1641 32.3682 54.3984 51.8691 79.127c-45.2754 -8.37598 -91.2324 -13.3154 -132.028 12.8594z" />
    <glyph glyph-name="six" unicode="6" horiz-adv-x="400" 
d="M154.517 -103.061c-88.9141 42.833 -110.827 158.928 -103.074 248.265c8.66797 99.8604 41.3135 198.686 88.5645 286.819c35.1162 65.498 111.594 186.16 200.154 136.766c15.6377 -8.72656 -4.28223 -30.5098 -17.7539 -26.041
c-9.73926 3.2334 -4.25391 3.31348 -9.78711 -0.408203c-2.41992 -1.62891 -7.32617 -6.02148 -9.88867 -8.46777c-6.02148 -5.74805 -11.835 -11.9229 -17.3096 -18.1885c-11.0732 -12.6738 -22.0449 -25.9238 -31.1289 -40.0996
c-20.8975 -32.6123 -37.585 -68.2393 -52.1729 -104.049c-30.7354 -75.4277 -61.5107 -174.133 -55.7227 -262.904c0.386719 0.222656 0.765625 0.452148 1.17773 0.660156c41.9658 21.0977 93.1611 23.7109 136.522 4.9209
c40.3691 -17.4893 70.6924 -51.1182 65.7461 -97.3525c-9.39648 -87.8174 -112.089 -160.016 -195.327 -119.92zM157.874 77.6533c-2.67871 -1.32324 -5.15137 -2.0166 -7.39648 -2.22754c6.38281 -34.9561 19.5527 -67.5791 42.1416 -95.5771
c16.8115 -20.835 37.8213 -29.1787 64.4453 -21.9102c28.0195 7.65137 49.8242 33.4004 53.3779 62.1055c4.2793 34.584 -28.1475 55.8926 -57.1328 65.3809c-31.8105 10.4102 -65.6699 6.95117 -95.4355 -7.77148z" />
    <glyph glyph-name="seven" unicode="7" horiz-adv-x="410" 
d="M66.3799 499.713c-22.6104 -2.36914 -20.793 28.8281 -0.818359 31.1934c56.3779 6.6709 103.107 53.3496 162.733 40.8867c46.5 -9.71777 76.5059 -54.4424 84.5215 -98.4424c10.709 -58.7734 7.91309 -118.458 1.8916 -177.581
c-2.44238 -23.9736 -5.51172 -47.8711 -8.87988 -71.7246c9.28809 0.0361328 19.6289 -0.134766 26.9668 3.49219c12.9033 6.38281 28.4062 -2.77344 26.9668 -17.332c-1.2793 -12.9473 -17.7588 -26.4336 -30.9863 -20.1348
c-6.59375 3.13867 -17.584 2.35156 -27.7686 1.01758c-3.75488 -24.8994 -7.6875 -49.7773 -11.4854 -74.6699c-9.09473 -59.6445 -17.3359 -119.62 -30.6621 -178.499c-12.6191 -55.748 -103.658 -57.5557 -95.4971 7.29004
c9.86035 78.3359 26.8096 155.523 43.1797 232.81c-13.0234 -2.39453 -25.9961 -5.0625 -38.9248 -7.97168c-23.8789 -5.37305 -21.5967 28.748 -0.867188 33.4717c15.6406 3.56152 31.3545 6.72559 47.1338 9.52148c9.52051 45.9756 18.4473 92.0459 25.1289 138.477
c4.6543 32.335 8.7334 64.5723 11.0811 97.1777c1.72363 23.9775 5.72949 66.4131 -16.9971 82.5459c-24.1045 17.1133 -56.793 6.95117 -81.5498 -3.22266c-27.958 -11.4893 -54.665 -25.1113 -85.167 -28.3047z" />
    <glyph glyph-name="eight" unicode="8" horiz-adv-x="422" 
d="M142.467 227.448c-25.0156 22.3408 -48.5264 46.3408 -65.2832 74.6953c-32.3428 54.7451 -38.9473 118.202 -2.66406 172.926c56.5098 85.2217 203.61 120.889 266.859 23.6934c30.7529 -47.2617 33.6729 -105.135 29.4336 -159.749
c-4.7168 -60.7637 -18.415 -120.131 -32.7871 -179.203c22.7412 -49.9844 31.085 -107.041 5.31836 -158.123c-23.0918 -45.7822 -64.5215 -82.2871 -117.354 -84.8164c-53.4512 -2.55859 -96.6523 31.6172 -115.716 80.1582
c-20.2227 51.4863 -14.8682 115.425 2.35449 167.079c6.375 19.1143 16.3076 42.6143 29.8379 63.3398zM293.544 -11.7871c12.3096 21.0137 9.83984 49.1279 1.98828 71.0898c-17.6494 49.3574 -60.457 88.2725 -98.9785 121.781
c-9.36816 8.14648 -19.0605 16.2637 -28.7852 24.4902c-5.8252 -9.44824 -10.8955 -19.4062 -15.1641 -29.5938c-11.3613 -27.1084 -17.1865 -56.9326 -18.4189 -86.2314c-2.47461 -58.9111 20.2158 -139.839 93.252 -138.133
c25.7412 0.601562 52.7842 13.8516 66.1064 36.5967zM145.094 436.778c-5.38379 -50.6885 35.1553 -98.2666 68.4492 -130.376c34.165 -32.9473 71.3154 -63.7812 98.9922 -102.328c12.9951 56.79 23.7412 114.419 22.5752 172.692
c-1.23535 61.7178 -29.5068 143.05 -105.48 136.955c-22.585 -1.81152 -48.2607 -11.041 -62.6875 -29.3789c-11.2266 -14.2744 -20.4414 -34.293 -21.8486 -47.5645z" />
    <glyph glyph-name="nine" unicode="9" horiz-adv-x="531" 
d="M190.093 205.021c-57.2676 -24.6113 -124.473 0.689453 -137.227 65.1055c-11.8975 60.1035 14.9268 123.331 49.2197 171.625c30.9209 43.54 76.1484 81.1094 127.435 97.6475c25.6396 8.2666 57.8076 10.7412 82.791 -1.43652
c12.5977 -6.13867 25.5088 -16.166 36.5566 -27.1992c9.30957 11.085 20.416 19.9932 35.0508 21.7539c25.5195 3.07324 39.1123 -18.2939 48.374 -38.5059c24.8379 -54.1982 38.4883 -118.308 44.7578 -177.325c6.63086 -62.418 5.27832 -125.128 -4.06738 -187.188
c-8.87891 -58.9951 -23.6191 -119.496 -57.7803 -169.306c-34.1436 -49.7803 -101.1 -82.6152 -153.522 -37.4707c-46.4014 39.957 -63.1543 104.194 -53.8955 162.996c4.84082 30.7393 56.2363 37.2236 59.7832 2.86523
c3.10156 -30.0459 12.8154 -61.9297 30.7715 -86.4688c8.87891 -12.1377 27.4209 -31.6826 41.2246 -21.1738c19.8984 15.1455 33.0205 47.6016 41.4844 70.2373c11.2852 30.1885 18.542 62.2471 24.4541 93.8643c11.5547 61.7871 15.291 123.589 13.3008 186.343
c-0.984375 31.0127 -3.10254 61.9814 -7.7793 92.6768c-2.22363 14.6025 -6.1709 28.3809 -11.6973 42.083c-2.78125 6.88965 -7.10059 13.3848 -9.69922 20.252c-2.11426 5.58398 -0.999023 7.63574 -4.37109 3.06152
c-16.3701 -22.2207 -23.0225 -54.9062 -32.7803 -80.3525c-10.4395 -27.2246 -23.8311 -53.6113 -38.71 -78.668c-29.3389 -49.416 -69.333 -102.065 -123.674 -125.416zM151.37 365.24c-8.24902 -20.5693 -17.2588 -50.7568 -8.21582 -71.0342
c0.969727 -2.16504 6.38281 -10.0781 7.93555 -11.5654c1.24707 -1.19238 3.24121 -2.78516 5.41406 -3.44531c7.85156 -2.38379 16.1475 1.46875 23.3828 5.42773c20.5361 11.2373 37.4746 29.6416 52.0225 47.7471c16.9863 21.1377 30.4326 44.335 44.1377 67.6523
c15.5859 26.5146 32.3311 52.0889 49.7324 77.459c0.692383 1.01367 1.38867 2.06348 2.08887 3.11328c-43.5146 31.7891 -103.582 -13.3438 -133.763 -46.6016c-18.2871 -20.1533 -32.5068 -43.2451 -42.7354 -68.7529z" />
    <glyph glyph-name="colon" unicode=":" horiz-adv-x="154" 
d="M78.915 332.928c-8.72949 -1.79297 -20.3242 4.66895 -19.5518 14.6523c0.794922 10.2021 2.11426 20.3213 4.31934 30.3193c1.87012 8.48242 10.3047 14.6973 18.707 15.0947c7.25 0.342773 16.3477 -5.00781 15.5928 -13.4502
c-0.754883 -8.50391 -0.900391 -16.9971 -0.444336 -25.5195c0.568359 -10.585 -9.0293 -19.125 -18.623 -21.0967zM102.987 173.018c1.99707 -10.7676 1.60742 -19.7207 0.360352 -30.5684c-2.50781 -21.7578 -42.7744 -33.0615 -49.627 -8.46094
c-3.74316 13.4395 -4.76367 27.6006 -2.59473 41.4697c1.36328 8.7334 5.47168 17.6094 12.8457 22.9678c3.47363 2.52246 7.50098 4.07129 11.6895 4.79688c2.1875 0.469727 4.33105 0.44043 6.44531 -0.0224609c0.801758 -0.113281 1.59961 -0.291992 2.39453 -0.510742
c2.14648 -0.456055 3.48828 -1.00293 4.0127 -1.63672c2.19043 -1.17773 4.29688 -2.77832 6.23242 -4.97656c5.73047 -6.50293 6.72168 -14.8643 8.24121 -23.0586z" />
    <glyph glyph-name="semicolon" unicode=";" horiz-adv-x="191" 
d="M121.588 388.643c8.86523 1.46191 19.3262 -4.31934 19.0459 -14.2812c-0.401367 -14.5107 -2.02734 -28.9775 -4.87402 -43.2148c-4.34863 -21.75 -42.7461 -21.9795 -37.1543 2.83594c2.54395 11.2852 4.22461 22.5518 4.83301 34.1025
c0.536133 10.1475 7.89551 18.8662 18.1494 20.5576zM101.438 217.044c9.29883 10.7891 28.1445 9.3418 30.124 -6.33203c4.23145 -33.4834 -7.52344 -64.6855 -21.4727 -94.6152c-16.334 -35.0508 -74.9941 -19.6172 -56.5322 20.001
c13.4541 28.8691 26.9404 56.6406 47.8809 80.9463z" />
    <glyph glyph-name="less" unicode="&#x3c;" horiz-adv-x="359" 
d="M276.903 192.862c21.5752 -2.16895 35.9609 -20.957 30.8506 -42.4482c-5.44922 -22.9092 -27.6006 -36.1445 -49.9482 -36.29c-43.041 -0.28418 -86.0713 2.16504 -129.072 3.95117c-19.5557 0.8125 -42.166 2.50781 -58.627 14.2998
c-19.0312 13.6357 -24.9326 37.1133 -16.0674 58.5498c15.7393 38.0508 66.4238 61.8242 101.074 79.627c29.2295 15.0215 71.9238 33.374 104.799 21.6367c11.1572 -3.98438 9.9541 -15.9697 4.3877 -23.8467c-16.6211 -23.5107 -46.5293 -38.251 -70.1016 -53.877
c-7.37402 -4.8916 -14.6826 -9.81641 -21.8965 -14.8799c6.04688 -0.317383 12.0938 -0.634766 18.1445 -0.952148c28.8799 -1.5127 57.6758 -2.87988 86.457 -5.77051zM127.476 201.879c-1.37012 0.8125 -2.20898 0.0615234 0 0zM132.429 168.581
c-0.550781 -0.59375 -0.441406 -0.576172 0 0z" />
    <glyph glyph-name="equal" unicode="=" horiz-adv-x="277" 
d="M196.954 341.122c20.3506 -1.16992 33.4736 -20.2871 28.8555 -39.7119c-4.88086 -20.5254 -25.96 -35.1387 -46.7227 -33.9463c-33.9023 1.94629 -67.7178 -0.21875 -101.537 1.33398c-33.6699 1.54883 -24.0654 43.4092 -1.49512 53.7207
c37.0957 16.9492 80.5342 20.9219 120.899 18.6035zM189.253 237.111c40.2236 1.25 26.9414 -60.6016 -6.88867 -63.0879c-22.8506 -1.67676 -45.709 -2.86914 -68.6328 -2.93848c-18.7607 -0.0546875 -42.4395 -1.56348 -58.1025 10.3887
c-7.16602 5.47461 -7.49805 17.3682 -0.929688 23.6162c32.2773 30.7021 92.5557 30.7129 134.554 32.0215z" />
    <glyph glyph-name="greater" unicode="&#x3e;" horiz-adv-x="298" 
d="M247.485 224.174c3.06152 -35.5645 -31.958 -56.5781 -57.834 -73.0283c-28.2783 -17.9814 -63.0957 -41.7617 -97.0791 -45.2432c-40.4092 -4.14062 -56.1084 44.6738 -22.1475 66.8682c21.4873 14.041 47.1084 20.6309 70.4951 31.0049
c6.75391 2.99609 13.4131 6.20703 20.0215 9.5127c-3.05469 1.37793 -6.10156 2.77051 -9.16016 4.1377c-10.5088 4.69141 -20.9004 9.50684 -31.2598 14.5156c-11.2891 5.45703 -22.6104 10.5635 -33.21 17.2705c-10.0498 6.36035 -17.6748 15.4111 -28.4424 20.3467
c-20.1719 9.24414 -2.01953 34.1221 15.6367 29.9336c10.2832 -2.43848 20.4053 -1.1084 30.79 -2.00098c9.33887 -0.801758 18.4258 -2.63184 27.4834 -4.9541c15.8193 -4.05664 31.4854 -8.85742 46.8643 -14.3252c26.959 -9.5791 64.875 -19.6104 67.8418 -54.0381z" />
    <glyph glyph-name="question" unicode="?" horiz-adv-x="411" 
d="M215.171 577.84c74.2393 9.24414 149.295 -36.3672 145.883 -117.478c-3.10156 -73.6045 -33.9131 -146.386 -61.0107 -213.845c-26.4961 -65.9609 -47.3281 -132.246 -59.5684 -202.402c-7.80371 -44.7285 -91.666 -58.8604 -91.5166 -4.38086
c0.189453 68.7129 24.7607 133.125 50.7646 195.776c22.0781 53.1963 46.9707 105.076 67.6055 158.874c9.09082 23.707 22.2061 52.4844 19.6035 78.3975c-2.33984 23.3252 -20.5029 37.585 -42.5557 42.4697c-47.2031 10.458 -98.6826 -20.4961 -122.029 -60.4902
c-22.6719 -38.8418 -17.9883 -122.387 45.2168 -110.744c23.4668 4.32324 20.3213 -27.3818 0.831055 -32.1025c-34.7412 -8.41992 -72.4346 7.29004 -95.9053 33.3447c-24.9434 27.6914 -27.2656 68.7344 -16.0859 102.83c22.2568 67.8896 87.9844 120.937 158.768 129.75z
M207.479 -22.5254c13.3447 -7.80762 13.6729 -26.4043 12.1787 -40.0039c-1.56738 -14.2598 -4.81152 -26.4199 -11.0332 -39.4033c-6.13867 -12.8125 -20.9814 -20.4268 -34.8145 -19.8906c-12.3242 0.477539 -24.5684 11.5586 -24.0723 24.3857
c0.470703 12.2617 2.06348 23.9189 5.14355 35.8018c3.58301 13.8223 8.77734 29.707 21.6338 37.4414c10.1621 6.1123 20.3096 7.90234 30.9639 1.66895z" />
    <glyph glyph-name="at" unicode="@" horiz-adv-x="658" 
d="M471.481 560.022c141.614 -49.1611 162.692 -224.358 111.836 -346.556c-26.3066 -63.2129 -88.2178 -156.198 -169.343 -133.708c-39.3301 10.9023 -58.7803 42.0059 -67.8496 78.752c-10.334 -11.209 -21.3643 -21.7363 -33.3232 -31.2832
c-28.1182 -22.4463 -73.2803 -32.04 -99.3936 -1.21387c-18.4043 21.7207 -17.7842 51.5596 -12.1602 77.9316c12.6377 59.2324 50.5205 114.729 104.132 143.827c23.6709 12.8486 55.5029 16.4678 79.4727 2.15723c7.47559 -4.46484 14.0078 -11.4375 19.3184 -19.4893
c15.459 -4.03125 30.0068 -17.6201 28.8076 -34.6211c-2.3877 -33.8516 -5.7334 -69.9561 4.32715 -102.896c3.22949 -10.5674 7.52344 -20.3838 14.2812 -25.5342c1.99023 -1.5166 4.6875 -0.0654297 9.58984 3.28418c42.0791 28.7451 66.4209 93.8896 71.4473 145.121
c4.93555 50.251 -5.31836 105.116 -35.9951 146.131c-29.3867 39.29 -77.8477 57.7559 -125.831 59.3633c-108.937 3.64844 -196.064 -98.8291 -239.583 -187.718c-49.2373 -100.574 -66.5225 -236.134 5.94141 -330.242c34.2969 -44.543 85.251 -69.2598 141.137 -71.9902
c60.0928 -2.93457 117.911 19.6543 167.965 51.3154c20.7441 13.1182 40.5039 -13.6182 19.5488 -26.9082c-66.9521 -42.4648 -146.567 -71.0928 -226.653 -56.4902c-70.9697 12.9404 -127.505 57.5889 -159.498 121.873c-62.6445 125.871 -17.9199 285.934 58.6377 395.417
c71.9395 102.882 204.105 188.286 333.188 143.478zM286.008 185.353c0.12793 -0.911133 0.418945 -2.49707 0.896484 -2.11035c-0.200195 0.824219 -0.517578 1.50195 -0.896484 2.11035zM293.829 224.146c15.1816 18.7324 28.3994 38.791 41.1211 59.2139
c-4.6875 -3.61621 -8.63867 -7.23926 -11.2197 -10.1006c-12.9951 -14.3984 -23.165 -31.0742 -29.9014 -49.1133z" />
    <glyph glyph-name="A" unicode="A" horiz-adv-x="922" 
d="M727.361 -243.243c2.8252 -20.3066 8.00586 -40.6455 14.4316 -60.1143c3.4043 -10.2969 11.5215 -43.7041 27.7607 -40.6279c15.8301 2.99609 28.7812 35.8525 34.6758 48.1328c9.31348 19.4062 17.5293 39.3379 24.7285 59.623
c14.7441 41.5498 25.6211 84.2666 35.3643 127.228c20.041 88.3711 35.7148 178.003 67.6641 263.137c3.03613 8.0957 10.0166 15.0361 19.4502 14.1318c7.60352 -0.729492 15.0215 -8.48633 12.0146 -16.5342c-35.5391 -95.0811 -50.6768 -195.638 -74.4463 -293.916
c-11.6318 -48.0859 -25.3154 -95.7529 -44.2256 -141.527c-15.6123 -37.792 -34.5117 -90.1895 -78.9453 -101.605c-42.4395 -10.9023 -85.1777 20.999 -108.521 53.7285c-27.1924 38.124 -35.208 85.499 -42.5127 130.545
c-16.2861 100.451 -18.5205 201.98 -17.9482 303.554c0.466797 82.1455 3.43359 164.239 6.1123 246.337c-78.7041 -4.96094 -157.219 -12.5205 -235.409 -22.6318c-26.0371 -89.3262 -50.1416 -179.202 -75.3623 -268.762
c-13.1699 -46.7812 -26.7227 -93.4307 -41.2852 -139.8c-14.3721 -45.7637 -29.8203 -91.3633 -54.1221 -132.953c-9.5498 -16.3447 -38.8633 -9.10938 -28.1211 9.9502c26.8018 47.5459 41.6367 99.9951 56.7451 152.112c15.4443 53.2725 30.5352 106.644 45.2793 160.113
c19.7129 71.4834 39.0723 143.083 59.583 214.344c-120.735 -16.8877 -240.633 -39.8115 -359.134 -68.7061c-22.4502 -5.47168 -20.2998 26.8857 -0.820312 31.6465c121.982 29.8203 245.357 53.2178 369.604 70.2588c7.12207 24.2246 14.3867 48.4062 21.8994 72.5146
c27.8555 89.3916 56.8232 180.643 97.1777 265.321c17.7295 37.2012 40.7695 79.8486 74.1475 105.368c33.5674 25.6611 79.4004 12.874 104.234 -18.5029c28.5703 -36.1006 37.457 -86.6025 44.6885 -130.708c7.86621 -47.9805 11.9053 -96.5439 15.1279 -145.027
c2.5957 -39.0859 4.24316 -78.248 5.28613 -117.437c6.2002 0.233398 12.3965 0.521484 18.6006 0.725586c9.18555 0.302734 14.5 -9.58301 12.7354 -17.5293c-2.13965 -9.62988 -11.4854 -14.6895 -20.624 -14.9844
c-3.33203 -0.105469 -6.66406 -0.269531 -9.99609 -0.385742c0.980469 -52.624 1.03125 -105.277 0.911133 -157.854c-0.229492 -100.247 1.55273 -200.581 9.3418 -300.562c3.61914 -46.4199 7.49023 -92.4863 13.9092 -138.604zM377.315 359.309
c75.2959 9.53906 150.891 16.7314 226.683 21.6084c0.288086 9.25098 0.580078 18.502 0.845703 27.7529c2.89453 100.254 7.18848 200.529 -6.95801 300.12c-2.81445 19.8105 -5.72363 47.7168 -22.1152 61.4844c-18.2578 15.335 -34.4277 -10.0713 -44.8486 -23.4814
c-28.7197 -36.9609 -47.2217 -81.1133 -64.3682 -124.304c-34.1943 -86.1289 -62.8047 -174.391 -89.2383 -263.181z" />
    <glyph glyph-name="A" unicode="&#xc5;" horiz-adv-x="922" 
d="M727.361 -243.243c2.8252 -20.3066 8.00586 -40.6455 14.4316 -60.1143c3.4043 -10.2969 11.5215 -43.7041 27.7607 -40.6279c15.8301 2.99609 28.7812 35.8525 34.6758 48.1328c9.31348 19.4062 17.5293 39.3379 24.7285 59.623
c14.7441 41.5498 25.6211 84.2666 35.3643 127.228c20.041 88.3711 35.7148 178.003 67.6641 263.137c3.03613 8.0957 10.0166 15.0361 19.4502 14.1318c7.60352 -0.729492 15.0215 -8.48633 12.0146 -16.5342c-35.5391 -95.0811 -50.6768 -195.638 -74.4463 -293.916
c-11.6318 -48.0859 -25.3154 -95.7529 -44.2256 -141.527c-15.6123 -37.792 -34.5117 -90.1895 -78.9453 -101.605c-42.4395 -10.9023 -85.1777 20.999 -108.521 53.7285c-27.1924 38.124 -35.208 85.499 -42.5127 130.545
c-16.2861 100.451 -18.5205 201.98 -17.9482 303.554c0.466797 82.1455 3.43359 164.239 6.1123 246.337c-78.7041 -4.96094 -157.219 -12.5205 -235.409 -22.6318c-26.0371 -89.3262 -50.1416 -179.202 -75.3623 -268.762
c-13.1699 -46.7812 -26.7227 -93.4307 -41.2852 -139.8c-14.3721 -45.7637 -29.8203 -91.3633 -54.1221 -132.953c-9.5498 -16.3447 -38.8633 -9.10938 -28.1211 9.9502c26.8018 47.5459 41.6367 99.9951 56.7451 152.112c15.4443 53.2725 30.5352 106.644 45.2793 160.113
c19.7129 71.4834 39.0723 143.083 59.583 214.344c-120.735 -16.8877 -240.633 -39.8115 -359.134 -68.7061c-22.4502 -5.47168 -20.2998 26.8857 -0.820312 31.6465c121.982 29.8203 245.357 53.2178 369.604 70.2588c7.12207 24.2246 14.3867 48.4062 21.8994 72.5146
c27.8555 89.3916 56.8232 180.643 97.1777 265.321c17.7295 37.2012 40.7695 79.8486 74.1475 105.368c33.5674 25.6611 79.4004 12.874 104.234 -18.5029c28.5703 -36.1006 37.457 -86.6025 44.6885 -130.708c7.86621 -47.9805 11.9053 -96.5439 15.1279 -145.027
c2.5957 -39.0859 4.24316 -78.248 5.28613 -117.437c6.2002 0.233398 12.3965 0.521484 18.6006 0.725586c9.18555 0.302734 14.5 -9.58301 12.7354 -17.5293c-2.13965 -9.62988 -11.4854 -14.6895 -20.624 -14.9844
c-3.33203 -0.105469 -6.66406 -0.269531 -9.99609 -0.385742c0.980469 -52.624 1.03125 -105.277 0.911133 -157.854c-0.229492 -100.247 1.55273 -200.581 9.3418 -300.562c3.61914 -46.4199 7.49023 -92.4863 13.9092 -138.604zM377.315 359.309
c75.2959 9.53906 150.891 16.7314 226.683 21.6084c0.288086 9.25098 0.580078 18.502 0.845703 27.7529c2.89453 100.254 7.18848 200.529 -6.95801 300.12c-2.81445 19.8105 -5.72363 47.7168 -22.1152 61.4844c-18.2578 15.335 -34.4277 -10.0713 -44.8486 -23.4814
c-28.7197 -36.9609 -47.2217 -81.1133 -64.3682 -124.304c-34.1943 -86.1289 -62.8047 -174.391 -89.2383 -263.181z" />
    <glyph glyph-name="A" unicode="&#xc4;" horiz-adv-x="922" 
d="M727.361 -243.243c2.8252 -20.3066 8.00586 -40.6455 14.4316 -60.1143c3.4043 -10.2969 11.5215 -43.7041 27.7607 -40.6279c15.8301 2.99609 28.7812 35.8525 34.6758 48.1328c9.31348 19.4062 17.5293 39.3379 24.7285 59.623
c14.7441 41.5498 25.6211 84.2666 35.3643 127.228c20.041 88.3711 35.7148 178.003 67.6641 263.137c3.03613 8.0957 10.0166 15.0361 19.4502 14.1318c7.60352 -0.729492 15.0215 -8.48633 12.0146 -16.5342c-35.5391 -95.0811 -50.6768 -195.638 -74.4463 -293.916
c-11.6318 -48.0859 -25.3154 -95.7529 -44.2256 -141.527c-15.6123 -37.792 -34.5117 -90.1895 -78.9453 -101.605c-42.4395 -10.9023 -85.1777 20.999 -108.521 53.7285c-27.1924 38.124 -35.208 85.499 -42.5127 130.545
c-16.2861 100.451 -18.5205 201.98 -17.9482 303.554c0.466797 82.1455 3.43359 164.239 6.1123 246.337c-78.7041 -4.96094 -157.219 -12.5205 -235.409 -22.6318c-26.0371 -89.3262 -50.1416 -179.202 -75.3623 -268.762
c-13.1699 -46.7812 -26.7227 -93.4307 -41.2852 -139.8c-14.3721 -45.7637 -29.8203 -91.3633 -54.1221 -132.953c-9.5498 -16.3447 -38.8633 -9.10938 -28.1211 9.9502c26.8018 47.5459 41.6367 99.9951 56.7451 152.112c15.4443 53.2725 30.5352 106.644 45.2793 160.113
c19.7129 71.4834 39.0723 143.083 59.583 214.344c-120.735 -16.8877 -240.633 -39.8115 -359.134 -68.7061c-22.4502 -5.47168 -20.2998 26.8857 -0.820312 31.6465c121.982 29.8203 245.357 53.2178 369.604 70.2588c7.12207 24.2246 14.3867 48.4062 21.8994 72.5146
c27.8555 89.3916 56.8232 180.643 97.1777 265.321c17.7295 37.2012 40.7695 79.8486 74.1475 105.368c33.5674 25.6611 79.4004 12.874 104.234 -18.5029c28.5703 -36.1006 37.457 -86.6025 44.6885 -130.708c7.86621 -47.9805 11.9053 -96.5439 15.1279 -145.027
c2.5957 -39.0859 4.24316 -78.248 5.28613 -117.437c6.2002 0.233398 12.3965 0.521484 18.6006 0.725586c9.18555 0.302734 14.5 -9.58301 12.7354 -17.5293c-2.13965 -9.62988 -11.4854 -14.6895 -20.624 -14.9844
c-3.33203 -0.105469 -6.66406 -0.269531 -9.99609 -0.385742c0.980469 -52.624 1.03125 -105.277 0.911133 -157.854c-0.229492 -100.247 1.55273 -200.581 9.3418 -300.562c3.61914 -46.4199 7.49023 -92.4863 13.9092 -138.604zM377.315 359.309
c75.2959 9.53906 150.891 16.7314 226.683 21.6084c0.288086 9.25098 0.580078 18.502 0.845703 27.7529c2.89453 100.254 7.18848 200.529 -6.95801 300.12c-2.81445 19.8105 -5.72363 47.7168 -22.1152 61.4844c-18.2578 15.335 -34.4277 -10.0713 -44.8486 -23.4814
c-28.7197 -36.9609 -47.2217 -81.1133 -64.3682 -124.304c-34.1943 -86.1289 -62.8047 -174.391 -89.2383 -263.181z" />
    <glyph glyph-name="A" unicode="&#xc3;" horiz-adv-x="922" 
d="M727.361 -243.243c2.8252 -20.3066 8.00586 -40.6455 14.4316 -60.1143c3.4043 -10.2969 11.5215 -43.7041 27.7607 -40.6279c15.8301 2.99609 28.7812 35.8525 34.6758 48.1328c9.31348 19.4062 17.5293 39.3379 24.7285 59.623
c14.7441 41.5498 25.6211 84.2666 35.3643 127.228c20.041 88.3711 35.7148 178.003 67.6641 263.137c3.03613 8.0957 10.0166 15.0361 19.4502 14.1318c7.60352 -0.729492 15.0215 -8.48633 12.0146 -16.5342c-35.5391 -95.0811 -50.6768 -195.638 -74.4463 -293.916
c-11.6318 -48.0859 -25.3154 -95.7529 -44.2256 -141.527c-15.6123 -37.792 -34.5117 -90.1895 -78.9453 -101.605c-42.4395 -10.9023 -85.1777 20.999 -108.521 53.7285c-27.1924 38.124 -35.208 85.499 -42.5127 130.545
c-16.2861 100.451 -18.5205 201.98 -17.9482 303.554c0.466797 82.1455 3.43359 164.239 6.1123 246.337c-78.7041 -4.96094 -157.219 -12.5205 -235.409 -22.6318c-26.0371 -89.3262 -50.1416 -179.202 -75.3623 -268.762
c-13.1699 -46.7812 -26.7227 -93.4307 -41.2852 -139.8c-14.3721 -45.7637 -29.8203 -91.3633 -54.1221 -132.953c-9.5498 -16.3447 -38.8633 -9.10938 -28.1211 9.9502c26.8018 47.5459 41.6367 99.9951 56.7451 152.112c15.4443 53.2725 30.5352 106.644 45.2793 160.113
c19.7129 71.4834 39.0723 143.083 59.583 214.344c-120.735 -16.8877 -240.633 -39.8115 -359.134 -68.7061c-22.4502 -5.47168 -20.2998 26.8857 -0.820312 31.6465c121.982 29.8203 245.357 53.2178 369.604 70.2588c7.12207 24.2246 14.3867 48.4062 21.8994 72.5146
c27.8555 89.3916 56.8232 180.643 97.1777 265.321c17.7295 37.2012 40.7695 79.8486 74.1475 105.368c33.5674 25.6611 79.4004 12.874 104.234 -18.5029c28.5703 -36.1006 37.457 -86.6025 44.6885 -130.708c7.86621 -47.9805 11.9053 -96.5439 15.1279 -145.027
c2.5957 -39.0859 4.24316 -78.248 5.28613 -117.437c6.2002 0.233398 12.3965 0.521484 18.6006 0.725586c9.18555 0.302734 14.5 -9.58301 12.7354 -17.5293c-2.13965 -9.62988 -11.4854 -14.6895 -20.624 -14.9844
c-3.33203 -0.105469 -6.66406 -0.269531 -9.99609 -0.385742c0.980469 -52.624 1.03125 -105.277 0.911133 -157.854c-0.229492 -100.247 1.55273 -200.581 9.3418 -300.562c3.61914 -46.4199 7.49023 -92.4863 13.9092 -138.604zM377.315 359.309
c75.2959 9.53906 150.891 16.7314 226.683 21.6084c0.288086 9.25098 0.580078 18.502 0.845703 27.7529c2.89453 100.254 7.18848 200.529 -6.95801 300.12c-2.81445 19.8105 -5.72363 47.7168 -22.1152 61.4844c-18.2578 15.335 -34.4277 -10.0713 -44.8486 -23.4814
c-28.7197 -36.9609 -47.2217 -81.1133 -64.3682 -124.304c-34.1943 -86.1289 -62.8047 -174.391 -89.2383 -263.181z" />
    <glyph glyph-name="A" unicode="&#xc2;" horiz-adv-x="922" 
d="M727.361 -243.243c2.8252 -20.3066 8.00586 -40.6455 14.4316 -60.1143c3.4043 -10.2969 11.5215 -43.7041 27.7607 -40.6279c15.8301 2.99609 28.7812 35.8525 34.6758 48.1328c9.31348 19.4062 17.5293 39.3379 24.7285 59.623
c14.7441 41.5498 25.6211 84.2666 35.3643 127.228c20.041 88.3711 35.7148 178.003 67.6641 263.137c3.03613 8.0957 10.0166 15.0361 19.4502 14.1318c7.60352 -0.729492 15.0215 -8.48633 12.0146 -16.5342c-35.5391 -95.0811 -50.6768 -195.638 -74.4463 -293.916
c-11.6318 -48.0859 -25.3154 -95.7529 -44.2256 -141.527c-15.6123 -37.792 -34.5117 -90.1895 -78.9453 -101.605c-42.4395 -10.9023 -85.1777 20.999 -108.521 53.7285c-27.1924 38.124 -35.208 85.499 -42.5127 130.545
c-16.2861 100.451 -18.5205 201.98 -17.9482 303.554c0.466797 82.1455 3.43359 164.239 6.1123 246.337c-78.7041 -4.96094 -157.219 -12.5205 -235.409 -22.6318c-26.0371 -89.3262 -50.1416 -179.202 -75.3623 -268.762
c-13.1699 -46.7812 -26.7227 -93.4307 -41.2852 -139.8c-14.3721 -45.7637 -29.8203 -91.3633 -54.1221 -132.953c-9.5498 -16.3447 -38.8633 -9.10938 -28.1211 9.9502c26.8018 47.5459 41.6367 99.9951 56.7451 152.112c15.4443 53.2725 30.5352 106.644 45.2793 160.113
c19.7129 71.4834 39.0723 143.083 59.583 214.344c-120.735 -16.8877 -240.633 -39.8115 -359.134 -68.7061c-22.4502 -5.47168 -20.2998 26.8857 -0.820312 31.6465c121.982 29.8203 245.357 53.2178 369.604 70.2588c7.12207 24.2246 14.3867 48.4062 21.8994 72.5146
c27.8555 89.3916 56.8232 180.643 97.1777 265.321c17.7295 37.2012 40.7695 79.8486 74.1475 105.368c33.5674 25.6611 79.4004 12.874 104.234 -18.5029c28.5703 -36.1006 37.457 -86.6025 44.6885 -130.708c7.86621 -47.9805 11.9053 -96.5439 15.1279 -145.027
c2.5957 -39.0859 4.24316 -78.248 5.28613 -117.437c6.2002 0.233398 12.3965 0.521484 18.6006 0.725586c9.18555 0.302734 14.5 -9.58301 12.7354 -17.5293c-2.13965 -9.62988 -11.4854 -14.6895 -20.624 -14.9844
c-3.33203 -0.105469 -6.66406 -0.269531 -9.99609 -0.385742c0.980469 -52.624 1.03125 -105.277 0.911133 -157.854c-0.229492 -100.247 1.55273 -200.581 9.3418 -300.562c3.61914 -46.4199 7.49023 -92.4863 13.9092 -138.604zM377.315 359.309
c75.2959 9.53906 150.891 16.7314 226.683 21.6084c0.288086 9.25098 0.580078 18.502 0.845703 27.7529c2.89453 100.254 7.18848 200.529 -6.95801 300.12c-2.81445 19.8105 -5.72363 47.7168 -22.1152 61.4844c-18.2578 15.335 -34.4277 -10.0713 -44.8486 -23.4814
c-28.7197 -36.9609 -47.2217 -81.1133 -64.3682 -124.304c-34.1943 -86.1289 -62.8047 -174.391 -89.2383 -263.181z" />
    <glyph glyph-name="A" unicode="&#xc1;" horiz-adv-x="922" 
d="M727.361 -243.243c2.8252 -20.3066 8.00586 -40.6455 14.4316 -60.1143c3.4043 -10.2969 11.5215 -43.7041 27.7607 -40.6279c15.8301 2.99609 28.7812 35.8525 34.6758 48.1328c9.31348 19.4062 17.5293 39.3379 24.7285 59.623
c14.7441 41.5498 25.6211 84.2666 35.3643 127.228c20.041 88.3711 35.7148 178.003 67.6641 263.137c3.03613 8.0957 10.0166 15.0361 19.4502 14.1318c7.60352 -0.729492 15.0215 -8.48633 12.0146 -16.5342c-35.5391 -95.0811 -50.6768 -195.638 -74.4463 -293.916
c-11.6318 -48.0859 -25.3154 -95.7529 -44.2256 -141.527c-15.6123 -37.792 -34.5117 -90.1895 -78.9453 -101.605c-42.4395 -10.9023 -85.1777 20.999 -108.521 53.7285c-27.1924 38.124 -35.208 85.499 -42.5127 130.545
c-16.2861 100.451 -18.5205 201.98 -17.9482 303.554c0.466797 82.1455 3.43359 164.239 6.1123 246.337c-78.7041 -4.96094 -157.219 -12.5205 -235.409 -22.6318c-26.0371 -89.3262 -50.1416 -179.202 -75.3623 -268.762
c-13.1699 -46.7812 -26.7227 -93.4307 -41.2852 -139.8c-14.3721 -45.7637 -29.8203 -91.3633 -54.1221 -132.953c-9.5498 -16.3447 -38.8633 -9.10938 -28.1211 9.9502c26.8018 47.5459 41.6367 99.9951 56.7451 152.112c15.4443 53.2725 30.5352 106.644 45.2793 160.113
c19.7129 71.4834 39.0723 143.083 59.583 214.344c-120.735 -16.8877 -240.633 -39.8115 -359.134 -68.7061c-22.4502 -5.47168 -20.2998 26.8857 -0.820312 31.6465c121.982 29.8203 245.357 53.2178 369.604 70.2588c7.12207 24.2246 14.3867 48.4062 21.8994 72.5146
c27.8555 89.3916 56.8232 180.643 97.1777 265.321c17.7295 37.2012 40.7695 79.8486 74.1475 105.368c33.5674 25.6611 79.4004 12.874 104.234 -18.5029c28.5703 -36.1006 37.457 -86.6025 44.6885 -130.708c7.86621 -47.9805 11.9053 -96.5439 15.1279 -145.027
c2.5957 -39.0859 4.24316 -78.248 5.28613 -117.437c6.2002 0.233398 12.3965 0.521484 18.6006 0.725586c9.18555 0.302734 14.5 -9.58301 12.7354 -17.5293c-2.13965 -9.62988 -11.4854 -14.6895 -20.624 -14.9844
c-3.33203 -0.105469 -6.66406 -0.269531 -9.99609 -0.385742c0.980469 -52.624 1.03125 -105.277 0.911133 -157.854c-0.229492 -100.247 1.55273 -200.581 9.3418 -300.562c3.61914 -46.4199 7.49023 -92.4863 13.9092 -138.604zM377.315 359.309
c75.2959 9.53906 150.891 16.7314 226.683 21.6084c0.288086 9.25098 0.580078 18.502 0.845703 27.7529c2.89453 100.254 7.18848 200.529 -6.95801 300.12c-2.81445 19.8105 -5.72363 47.7168 -22.1152 61.4844c-18.2578 15.335 -34.4277 -10.0713 -44.8486 -23.4814
c-28.7197 -36.9609 -47.2217 -81.1133 -64.3682 -124.304c-34.1943 -86.1289 -62.8047 -174.391 -89.2383 -263.181z" />
    <glyph glyph-name="B" unicode="B" horiz-adv-x="800" 
d="M427.322 799.57c44.3418 5.63184 74.4014 -19.4971 81.9209 -62.1699c8.0625 -45.6768 -13.1846 -91.8994 -32.5869 -131.974c-25.6543 -52.9844 -58.8721 -102.856 -98.1182 -147.261c51.0889 -10.1328 99.9512 -34.2451 139.481 -66.8613
c70.7256 -58.3506 118.768 -142.945 138.849 -231.936c0.433594 -1.91016 0.783203 -3.83105 1.19141 -5.74512c55.5322 21.1338 114.014 33.917 173.505 24.4766c23.2305 -3.68555 12.084 -36.6699 -8.10938 -33.4404c-54.8652 8.78125 -108.51 -2.88672 -159.687 -22.4902
c11.7959 -79.5244 4.84082 -160.944 -16.7891 -238.526c-22.8213 -81.8535 -59.8623 -160.955 -117.024 -224.562c-54.8584 -61.04 -129.378 -111.987 -212.397 -122.303c-63.7666 -7.9248 -153.979 -5.06348 -184.758 63.376
c-31.2344 69.457 21.3418 157.168 60.1943 212.508c46.3438 66.0049 107.049 121.166 170.491 170.382c63.0596 48.9209 130.956 91.8271 201.98 128.289c-4.15527 21.1885 -9.90039 42.0742 -17.4023 62.4648c-22.4424 60.9961 -61.0693 117.258 -114.63 154.831
c-52.0918 36.5381 -111.547 51.5225 -170.845 34.252c-19.0742 -5.55469 -42.0049 7.68066 -48.0557 26.0049c-6.53906 19.8037 4.4248 43.8359 21.2217 55.0186c77.9355 51.8916 144.695 115.885 193.434 196.736c11.6572 19.333 23.8467 39.541 33.0977 60.1504
c6.89648 15.3604 13.7275 34.6133 3.60156 50.0137c-25.9014 39.3848 -83.8359 -1.7793 -106.425 -23.5c-32.0361 -30.8115 -55.7617 -69.8721 -77.7119 -108.163c-22.501 -39.2539 -42.3633 -79.9834 -59.9766 -121.646
c-68.5459 -162.154 -101.928 -336.578 -134.646 -508.928c0.488281 -23.5547 0.0839844 -47.8203 -8.07324 -69.29c-6.02148 -15.8379 -29.7578 -19.6064 -40.2852 -7.10059c-18.9434 22.5049 -23.7803 62.9072 -28.8906 91.1162
c-5.64258 31.1396 -11.1357 62.4365 -14.8213 93.8711c-7.22461 61.6055 -12.5029 123.196 -14.8467 185.185c-4.8584 128.452 -2.27734 256.456 13.4434 384.099c2.94141 23.8789 30.4512 40.9521 52.2744 42.1729c20.9551 1.17773 44.7754 -14.0947 43.5723 -37.584
c-6.4043 -125.117 -12.9834 -250.42 -11.2998 -375.748c0.707031 -52.5762 2.01172 -105.163 3.99121 -157.714c11.6201 57.7451 24.6436 115.191 40.2119 172.095c27.0752 98.9492 61.6992 196.451 109.442 287.432c23.3252 44.4482 49.0957 89.2793 81.4053 127.898
c28.709 34.3145 67.959 68.7168 114.069 74.5703zM500.94 -242.24c54.5225 95.3291 82.668 210.973 69.6006 321.152c-0.320312 -0.164062 -0.640625 -0.332031 -0.960938 -0.496094c-75.7695 -39.3301 -147.104 -87.084 -212.868 -141.49
c-54.1543 -44.8018 -105.743 -95.1982 -143.885 -154.646c-28.5957 -44.5684 -85.4619 -141.888 -23.3096 -182.895c53.2578 -35.1387 128.08 -4.55273 177.423 22.9092c57.0488 31.752 101.708 79.0029 134 135.465z" />
    <glyph glyph-name="C" unicode="C" horiz-adv-x="582" 
d="M42.8047 529.172c31.4639 85.4258 72.2207 173.01 138.966 236.915c61.6494 59.0352 161.295 95.1357 234.083 32.6553c64.6963 -55.5322 80.833 -140.882 70.2334 -221.9c-9.36426 -71.5781 -39.0645 -153.034 -113.405 -179.082
c-28.3115 -9.92188 -38.8604 29.0439 -12.3496 37.9375c71.7715 24.083 90.416 123.437 86.5303 189.201c-2.3877 40.4131 -14.4854 81.4785 -46.3145 108.317c-25.4277 21.4365 -61.6162 33.9795 -94.4111 23.7227c-27.8047 -8.69727 -46.7881 -28.3408 -66.1797 -50.667
c-23.5 -27.0576 -41.6777 -58.3545 -58.4229 -89.9102c-37.2275 -70.1494 -62.2256 -146.648 -81.3838 -223.516c-20.376 -81.7402 -32.5723 -165.241 -35.7109 -249.428c-3.08008 -82.623 -1.2207 -166.336 15.8271 -247.472
c8.19434 -38.9844 20.1572 -76.3896 36.6982 -112.629c13.0605 -28.6172 30.5098 -56.7129 56.8887 -74.8467c71.1367 -48.8984 150.556 13.873 198.153 65.957c105.856 115.829 164.797 264.664 221.995 408.407c7.46875 18.7754 37.6318 10.6318 29.4121 -10.4072
c-36.2207 -92.7344 -72.7695 -185.906 -122.047 -272.666c-46.6094 -82.0654 -107.249 -171.895 -191.278 -219.303c-36.0352 -20.3281 -80.873 -32.5684 -122.478 -30.0352c-41.9072 2.55566 -78.916 22.8623 -107.981 52.2852
c-65.0645 65.8662 -90.0254 163.598 -102.394 252.617c-13.3555 96.1494 -11.1572 193.334 -0.244141 289.589c10.9609 96.6602 32.1572 192.894 65.8125 284.257z" />
    <glyph glyph-name="D" unicode="D" horiz-adv-x="823" 
d="M225.688 -229.385c-52.9668 33.1045 -91.6299 81.2129 -124.224 133.363c3.06543 -19.749 6.0293 -39.6328 5.67578 -58.9844c-0.418945 -22.7598 -30.7568 -45.8076 -51.333 -29.2334c-27.334 22.0195 -34.752 59.3154 -40.7041 92.3398
c-6.32812 35.0908 -11.5693 70.4482 -15.4551 105.896c-7.92773 72.3584 -12.626 145.234 -16.2529 217.917c-7.33398 146.98 -5.56934 295.323 5.86523 442.019c2.0957 26.9189 20.3721 49.9229 48.1035 54.4971c23.1025 3.8125 51.8037 -11.4277 50.499 -37.8545
c-7.10742 -143.856 -10.3076 -287.457 -7.61719 -431.47c0.612305 -32.8242 1.57129 -65.6367 2.82129 -98.4346c1.46875 8.19043 2.98145 16.377 4.57422 24.5488c20.8936 107.169 49.3721 214.225 87.9297 316.443c30.6807 81.332 68.8955 166.886 129.021 231.094
c52.999 56.6006 141.006 103.235 215.584 58.208c68.5566 -41.3896 97.9502 -130.158 116.675 -203.096c23.8604 -92.9346 32.4922 -188.264 28.833 -284.045c-3.15332 -82.5098 -14.7334 -167.064 -38.0068 -246.906c16.9346 5.11719 33.6875 10.8359 50.1855 17.3027
c29.7324 11.6494 58.7324 25.4639 85.8994 42.2891c13.3848 8.29297 26.376 17.2197 38.8672 26.8066c10.0527 7.71289 33.2314 21.2031 33.8623 35.4658c0.714844 16.2168 28.0312 24.21 29.4014 4.95996c2.01172 -28.249 -24.0176 -46.5693 -43.8428 -62.127
c-22.9092 -17.9775 -47.5391 -33.5312 -73.1455 -47.3682c-42.7969 -23.1211 -87.1279 -40.1768 -132.52 -52.9707c-29.7617 -86.8184 -73.8711 -175.783 -145.176 -235.767c-34.3799 -28.9199 -76.9219 -48.3701 -122.019 -51.2168
c-45.2969 -2.86133 -85.5498 12.6006 -123.502 36.3223zM486.336 -46.5215c7.71289 14.5986 14.7881 29.5244 21.3311 44.6846c-128.824 -19.833 -262.886 -18.0283 -392.318 -32.1387c39.8076 -64.04 89.3408 -131.339 165.52 -147.355
c35.9658 -7.56348 74.1338 -4.58887 105.46 13.4434c-0.0947266 0.12793 8.71875 5.90527 8.87598 6.01465c3.02539 2.11035 6 4.31152 8.90918 6.58203c9.5752 7.46875 7.00586 5.10352 16.4248 15.084c13.1699 13.9531 25.5664 28.752 36.5742 44.4844
c0.492188 0.852539 6.16406 9.39648 6.76953 10.3555c3.42676 5.42383 6.75879 10.9092 9.99902 16.4463c4.31543 7.37402 8.46387 14.8467 12.4551 22.3994zM270.187 628.019c-42.0859 -74.5195 -71.8516 -155.066 -96.332 -236.869
c-38.2988 -127.975 -68.1953 -260.269 -77.4062 -393.882c132.994 15.8701 267.69 12.3457 400.382 31.4531c8.20898 1.18457 16.4072 2.45996 24.5938 3.82715c10.3955 28.3369 18.9395 57.3955 26.2109 86.6504c20.4014 82.083 31.8545 167.294 34.2422 251.827
c2.44922 86.7266 -5.20508 172.513 -20.9629 257.727c-12.0654 65.25 -37.3945 152.805 -120.633 145.5c-79.6123 -6.98438 -134.121 -82.5391 -170.095 -146.233z" />
    <glyph glyph-name="E" unicode="E" horiz-adv-x="639" 
d="M-24.3145 452.771c23.1719 88.3564 85.374 167.14 159.843 218.554c37.2812 25.7383 77.5957 43.7158 121.668 54.1113c47.5576 11.2158 98.2861 15.4336 144.815 -2.1543c74.2793 -28.0781 126.594 -104.541 121.243 -184.528
c-1.38184 -20.6934 -38.3682 -30.0938 -37.1982 -6.28027c3.72852 75.9414 -54.877 151.595 -133.078 156.282c-70.5176 4.22852 -144.363 -39.9639 -194.479 -86.7412c-48.7676 -45.5195 -85.583 -106.188 -94.0068 -173.319
c-7.97168 -63.5586 21.1162 -122.036 77.2939 -145.157c53.4219 -21.9873 111.994 -10.2461 162.646 15.0107c13.1074 7.78906 26.4121 15.3164 39.9385 22.5264c19.8477 10.582 46.3506 2.44238 56.6406 -16.749c11.0117 -20.5361 -0.248047 -46.2012 -18.1523 -58.9443
c-22.8838 -16.29 -47.5977 -30.2617 -73.3828 -41.2295c-58.5107 -38.1748 -111.259 -88.3564 -154.916 -144.556c-26.2627 -33.8076 -48.8252 -70.3203 -67.2109 -109.884c-18.0723 -38.8896 -35.5137 -88.0469 -27.6436 -131.591
c17.8789 -98.916 154.919 -52.5 212.639 -25.5518c169.798 79.2725 297.207 229.639 375.612 397.078c8.78418 18.7578 40.0518 10.5566 30.2754 -10.709c-49.292 -107.205 -118.002 -198.536 -197.752 -284.709c-72.0117 -77.8145 -158.359 -151.113 -259.564 -186.856
c-52.5439 -18.5566 -114.099 -31.1104 -167.299 -7.60352c-52.5801 23.2334 -79.123 71.1406 -79.3887 127.905c-0.506836 108.987 61.915 215.959 127.895 298.702c15.1416 18.9912 31.2568 36.8701 48.1553 53.8232c-30.8008 4.3125 -61.1133 14.3506 -89.8584 31.2383
c-84.6055 49.7109 -108.474 150.803 -84.7334 241.332z" />
    <glyph glyph-name="E" unicode="&#xcb;" horiz-adv-x="639" 
d="M-24.3145 452.771c23.1719 88.3564 85.374 167.14 159.843 218.554c37.2812 25.7383 77.5957 43.7158 121.668 54.1113c47.5576 11.2158 98.2861 15.4336 144.815 -2.1543c74.2793 -28.0781 126.594 -104.541 121.243 -184.528
c-1.38184 -20.6934 -38.3682 -30.0938 -37.1982 -6.28027c3.72852 75.9414 -54.877 151.595 -133.078 156.282c-70.5176 4.22852 -144.363 -39.9639 -194.479 -86.7412c-48.7676 -45.5195 -85.583 -106.188 -94.0068 -173.319
c-7.97168 -63.5586 21.1162 -122.036 77.2939 -145.157c53.4219 -21.9873 111.994 -10.2461 162.646 15.0107c13.1074 7.78906 26.4121 15.3164 39.9385 22.5264c19.8477 10.582 46.3506 2.44238 56.6406 -16.749c11.0117 -20.5361 -0.248047 -46.2012 -18.1523 -58.9443
c-22.8838 -16.29 -47.5977 -30.2617 -73.3828 -41.2295c-58.5107 -38.1748 -111.259 -88.3564 -154.916 -144.556c-26.2627 -33.8076 -48.8252 -70.3203 -67.2109 -109.884c-18.0723 -38.8896 -35.5137 -88.0469 -27.6436 -131.591
c17.8789 -98.916 154.919 -52.5 212.639 -25.5518c169.798 79.2725 297.207 229.639 375.612 397.078c8.78418 18.7578 40.0518 10.5566 30.2754 -10.709c-49.292 -107.205 -118.002 -198.536 -197.752 -284.709c-72.0117 -77.8145 -158.359 -151.113 -259.564 -186.856
c-52.5439 -18.5566 -114.099 -31.1104 -167.299 -7.60352c-52.5801 23.2334 -79.123 71.1406 -79.3887 127.905c-0.506836 108.987 61.915 215.959 127.895 298.702c15.1416 18.9912 31.2568 36.8701 48.1553 53.8232c-30.8008 4.3125 -61.1133 14.3506 -89.8584 31.2383
c-84.6055 49.7109 -108.474 150.803 -84.7334 241.332z" />
    <glyph glyph-name="E" unicode="&#xca;" horiz-adv-x="639" 
d="M-24.3145 452.771c23.1719 88.3564 85.374 167.14 159.843 218.554c37.2812 25.7383 77.5957 43.7158 121.668 54.1113c47.5576 11.2158 98.2861 15.4336 144.815 -2.1543c74.2793 -28.0781 126.594 -104.541 121.243 -184.528
c-1.38184 -20.6934 -38.3682 -30.0938 -37.1982 -6.28027c3.72852 75.9414 -54.877 151.595 -133.078 156.282c-70.5176 4.22852 -144.363 -39.9639 -194.479 -86.7412c-48.7676 -45.5195 -85.583 -106.188 -94.0068 -173.319
c-7.97168 -63.5586 21.1162 -122.036 77.2939 -145.157c53.4219 -21.9873 111.994 -10.2461 162.646 15.0107c13.1074 7.78906 26.4121 15.3164 39.9385 22.5264c19.8477 10.582 46.3506 2.44238 56.6406 -16.749c11.0117 -20.5361 -0.248047 -46.2012 -18.1523 -58.9443
c-22.8838 -16.29 -47.5977 -30.2617 -73.3828 -41.2295c-58.5107 -38.1748 -111.259 -88.3564 -154.916 -144.556c-26.2627 -33.8076 -48.8252 -70.3203 -67.2109 -109.884c-18.0723 -38.8896 -35.5137 -88.0469 -27.6436 -131.591
c17.8789 -98.916 154.919 -52.5 212.639 -25.5518c169.798 79.2725 297.207 229.639 375.612 397.078c8.78418 18.7578 40.0518 10.5566 30.2754 -10.709c-49.292 -107.205 -118.002 -198.536 -197.752 -284.709c-72.0117 -77.8145 -158.359 -151.113 -259.564 -186.856
c-52.5439 -18.5566 -114.099 -31.1104 -167.299 -7.60352c-52.5801 23.2334 -79.123 71.1406 -79.3887 127.905c-0.506836 108.987 61.915 215.959 127.895 298.702c15.1416 18.9912 31.2568 36.8701 48.1553 53.8232c-30.8008 4.3125 -61.1133 14.3506 -89.8584 31.2383
c-84.6055 49.7109 -108.474 150.803 -84.7334 241.332z" />
    <glyph glyph-name="E" unicode="&#xc9;" horiz-adv-x="639" 
d="M-24.3145 452.771c23.1719 88.3564 85.374 167.14 159.843 218.554c37.2812 25.7383 77.5957 43.7158 121.668 54.1113c47.5576 11.2158 98.2861 15.4336 144.815 -2.1543c74.2793 -28.0781 126.594 -104.541 121.243 -184.528
c-1.38184 -20.6934 -38.3682 -30.0938 -37.1982 -6.28027c3.72852 75.9414 -54.877 151.595 -133.078 156.282c-70.5176 4.22852 -144.363 -39.9639 -194.479 -86.7412c-48.7676 -45.5195 -85.583 -106.188 -94.0068 -173.319
c-7.97168 -63.5586 21.1162 -122.036 77.2939 -145.157c53.4219 -21.9873 111.994 -10.2461 162.646 15.0107c13.1074 7.78906 26.4121 15.3164 39.9385 22.5264c19.8477 10.582 46.3506 2.44238 56.6406 -16.749c11.0117 -20.5361 -0.248047 -46.2012 -18.1523 -58.9443
c-22.8838 -16.29 -47.5977 -30.2617 -73.3828 -41.2295c-58.5107 -38.1748 -111.259 -88.3564 -154.916 -144.556c-26.2627 -33.8076 -48.8252 -70.3203 -67.2109 -109.884c-18.0723 -38.8896 -35.5137 -88.0469 -27.6436 -131.591
c17.8789 -98.916 154.919 -52.5 212.639 -25.5518c169.798 79.2725 297.207 229.639 375.612 397.078c8.78418 18.7578 40.0518 10.5566 30.2754 -10.709c-49.292 -107.205 -118.002 -198.536 -197.752 -284.709c-72.0117 -77.8145 -158.359 -151.113 -259.564 -186.856
c-52.5439 -18.5566 -114.099 -31.1104 -167.299 -7.60352c-52.5801 23.2334 -79.123 71.1406 -79.3887 127.905c-0.506836 108.987 61.915 215.959 127.895 298.702c15.1416 18.9912 31.2568 36.8701 48.1553 53.8232c-30.8008 4.3125 -61.1133 14.3506 -89.8584 31.2383
c-84.6055 49.7109 -108.474 150.803 -84.7334 241.332z" />
    <glyph glyph-name="F" unicode="F" horiz-adv-x="764" 
d="M356.196 649.105c5.9668 45.8662 92.8496 58.4609 91.9854 4.41602c-0.338867 -21.4111 -0.732422 -42.8184 -1.11133 -64.2295c36.4619 12.0283 73.2402 23.1133 110.307 33.1699c70.2988 19.0713 141.797 35.5947 214.305 43.4502
c34.9561 3.78711 71.8076 8.44531 107.001 7.30762c25.6943 -0.831055 48.4395 -12.2217 52.376 -39.2207c4.02441 -27.6074 -48.1436 -39.6182 -48.8945 -8.25195c-0.302734 12.6377 -74.709 8.31445 -85.2939 7.57812
c-38.2549 -2.65332 -76.3457 -8.7002 -113.948 -16.0596c-79.918 -15.6406 -158.932 -36.6836 -236.447 -62.542c-1.80078 -98.4092 -3.75098 -196.83 -4.49121 -295.239c-0.700195 -93.3613 0.448242 -187.459 9.5752 -280.576
c44.2148 30.2354 88.1963 60.8135 132.083 91.5156c28.9932 20.2812 57.9385 40.6318 86.8252 61.0664c27.6367 19.5488 56.3311 38.1494 77.877 64.667c12.9766 15.9727 37.3516 0.0292969 23.6934 -17.2334c-20.1641 -25.4902 -46.2588 -44.6045 -72.332 -63.5957
c-30.5059 -22.2168 -61.0879 -44.3281 -91.7578 -66.3184c-44.4443 -31.8691 -89.1074 -63.4248 -133.807 -94.9326c101.519 -1.65137 203.227 -45.2939 247.069 -143.171c21.2324 -47.3936 21.8809 -106.382 -12.3896 -147.925
c-29.3242 -35.5508 -81.8164 -53.9004 -127.016 -52.3945c-54.7236 1.82227 -103.159 32.5576 -138.815 72.2598c-40.3359 44.9141 -59.2832 109.545 -72.5225 167.191c-29.791 129.728 -36.2061 261.963 -37.7041 394.6
c-0.0839844 7.29785 -0.12793 14.5918 -0.157227 21.8818c-20.584 51.8506 -57.6982 96.9512 -116.351 103.976c-78.708 9.42578 -162.928 -9.29492 -235.312 -39.498c-19.7559 -8.24512 -32 17.5879 -14.6162 28.7451c65.4873 42.0312 133.188 80.6357 202.841 115.337
c57.5117 28.6504 116.347 54.5557 176.225 77.7568c3.04688 32.1055 6.62988 64.1934 10.8037 96.2695zM675.019 -187.17c-46.5361 75.7441 -131.631 104.901 -216.156 104.322c11.9414 -86.0234 30.1924 -201.288 113.034 -248.543
c35.1348 -20.041 79.5898 -19.1621 107.365 12.7979c31.9639 36.7783 18.9727 93.6377 -4.24316 131.423zM333.224 340.493c1.20996 58.8564 4.17871 117.567 8.98242 176.198c-85.6191 -33.9463 -168.949 -73.7617 -249.134 -118.658
c4.59961 0.794922 9.19922 1.5752 13.8213 2.25c41.9912 6.12012 87.5254 9.80176 129.55 2.09961c40.9854 -7.5127 73.0146 -30.8633 96.7803 -61.8896z" />
    <glyph glyph-name="G" unicode="G" horiz-adv-x="597" 
d="M321.928 489.175c51.2383 10.8408 85.7627 58.4551 101.44 105.786c9.77637 29.5137 16.3701 65.1221 -2.04883 92.6426c-16.5996 24.7979 -48.1846 29.9414 -74.9834 19.5752c-22.5342 -8.71582 -40.9639 -27.1162 -59.8779 -41.6016
c-18.8447 -14.4307 -32.8125 -27.123 -48.8105 -44.3975c-33.2471 -35.8965 -62.5898 -72.8467 -86.4141 -113.136c-27.3271 -46.2158 -49.7148 -95.4023 -65.7021 -146.667c-16.0527 -51.4824 -29.5938 -105.899 -32.6924 -159.894
c-2.5332 -44.2148 -5.7373 -109.323 29.3467 -143.368c40.6318 -39.4287 96.0117 -8.15039 131.314 21.8887c78.8359 67.0801 122.23 167.721 157.041 262.715c1.0752 2.93457 2.94922 5.37695 5.24902 7.31934c14.8135 37.2383 81.5693 46.373 88.5137 -3.62305
c11.0049 -79.2363 19.9062 -160.631 21.5215 -241.905c44.0508 28.9014 86.2168 60.6357 124.916 97.9033c14.7295 14.1865 40.1826 -1.83398 24.0498 -17.4932c-45.8623 -44.5098 -96.1318 -81.8428 -148.756 -115.749
c-0.524414 -69.9375 -6.99805 -139.547 -22.7773 -207.363c-27.3086 -117.364 -91.9502 -241.184 -216.659 -275.845c-54.9893 -15.2842 -113.055 -14.0117 -159.603 22.625c-44.5977 35.1016 -61.9668 90.7324 -44.4814 144.887
c35.9736 111.422 150.713 183.128 247.1 237.086c35.0762 19.6357 70.3057 38.7939 105.032 58.5977c-1.70996 75.6934 -9.52832 151.296 -16.6543 226.741c-17.3145 -43.8135 -37.4756 -86.4355 -63.3887 -125.974c-36.4912 -55.6855 -86.6436 -114.75 -151.435 -137.408
c-55.416 -19.377 -120.896 -15.3418 -158.604 34.3877c-42.3779 55.8857 -40.9746 135.633 -33.4551 201.743c15.1084 132.859 68.21 268.172 152.823 372.468c39.3154 48.457 91.0244 96.4844 149.451 120.691c54.5264 22.5918 128.539 35.6592 170.781 -16.5635
c39.0713 -48.3008 21.6475 -120.564 -4.02148 -170.601c-24.2725 -47.3203 -64.4082 -86.0459 -117.386 -97.5713c-22.8838 -4.97949 -20.8896 27.8594 -0.831055 32.1025zM392.345 -57.0322c1.74609 23.8027 2.55469 47.5967 2.66406 71.3848
c-26.6348 -15.2002 -53.5537 -30.0869 -80.542 -45.0684c-46.125 -25.6025 -91.71 -52.8711 -132.841 -86.0742c-41.7939 -33.7354 -85.1699 -77.6475 -103.14 -129.433c-18.1924 -52.4307 4.49805 -103.986 53.3672 -129.225
c50.6084 -26.1348 106.104 -11.3174 148.267 23.2744c83.709 68.6807 104.767 193.626 112.225 295.141z" />
    <glyph glyph-name="H" unicode="H" horiz-adv-x="680" 
d="M139.638 85.0605c51.7998 54.877 107.945 105.273 163.565 156.221c-1.39941 79.8271 5.27148 159.756 23.4746 237.673c22.4863 96.2549 65.4912 191.967 131.146 266.665c31.1396 35.4268 70.5898 66.0674 117.433 76.5029
c22.873 5.0957 48.2432 3.5791 65.918 -13.4219c12.1641 -11.7002 17.8281 -29.0723 20.0811 -45.4639c5.30762 -38.6191 -6.9834 -81.7041 -17.7471 -118.454c-12.5938 -43.001 -30.7646 -84.4014 -52.7695 -123.389
c-44.5029 -78.8535 -103.618 -148.361 -167.654 -211.949c-5.79883 -5.75879 -11.6895 -11.4229 -17.5576 -17.1094c-1.05371 -42.917 0.328125 -85.9219 3.29199 -128.544c3.2041 -46.0879 7.71289 -92.2822 13.4717 -138.123
c4.58203 -36.4766 11.2891 -73.8164 24.5205 -108.229c6.66309 -17.3252 15.8994 -33.1123 28.4453 -46.8984c10.4873 -11.5254 24.5059 -27.75 41.3789 -20.1611c32.6816 14.6973 53.6553 61.835 68.8369 91.7607c39.4248 77.7197 62.6006 162.485 103.819 239.382
c9 16.793 37.6543 9.75391 28.1221 -9.95117c-45.7998 -94.6992 -69.5508 -200.053 -126.067 -289.546c-24.6992 -39.1113 -58.124 -74.873 -107.689 -76.4551c-50.0576 -1.59668 -92.3408 38.5869 -115.833 79.5615c-21.418 37.3545 -31.9375 76.707 -39.5264 118.76
c-9.81641 54.4131 -17.4561 108.976 -21.6475 164.122c-0.772461 10.166 -1.39258 20.3467 -1.92871 30.5342c-32.7471 -29.8789 -65.4248 -59.8301 -97.0498 -90.9004c-35.3896 -34.7744 -70.6445 -70.7695 -100.73 -110.318
c-1.05664 -1.38867 -2.10254 -2.80273 -3.14551 -4.23145c1.2793 -10.7197 2.54785 -21.4473 3.91504 -32.1494c7.43555 -58.2705 19.3037 -116.424 18.9795 -175.059c0 -0.0361328 0.00683594 -0.0654297 0.00683594 -0.0986328
c-0.00683594 -1.56738 -0.0136719 -3.13477 -0.0205078 -4.69824c-0.0654297 -13.126 -9.03613 -25.0566 -20.9951 -30.0723c-9.85254 -4.12988 -27.083 -3.82324 -33.0176 7.1084c-8.87207 16.3477 -17.9189 31.4893 -23.6895 49.6055
c-5.20508 16.3369 -9.42578 33.0859 -13.8584 49.6455c-8.60938 32.1494 -15.0469 64.9043 -21.2949 97.5859c-23.2627 121.684 -35.1387 245.903 -36.6113 369.77c-1.47949 124.465 4.57129 250.117 27.0508 372.708c4.50879 24.6113 30.2939 42.126 53.8447 43.4453
c20.8096 1.16602 47.123 -14.5518 44.8809 -38.7188c-6.28809 -67.7432 -12.9404 -135.526 -16.957 -203.448c-7.04199 -119.073 -5.59082 -238.967 3.27051 -357.905c2.51465 -33.7793 5.66797 -67.5547 9.25488 -101.282c13.6289 16.2568 27.8555 31.5117 41.083 45.5273z
M510.932 682.651c-44.7324 -72.333 -72.8408 -153.352 -89.3018 -236.51c-6.875 -34.7373 -11.3145 -69.916 -13.833 -105.276c101.213 102.783 194.33 224.587 212.709 369.919c1.93164 15.2803 5.51465 37.3438 -1.9502 51.8145
c-8.56543 16.6035 -23.7109 8.78809 -35.5752 0.130859c-29.0186 -21.1777 -53.8232 -50.6113 -72.0488 -80.0781z" />
    <glyph glyph-name="I" unicode="I" horiz-adv-x="452" 
d="M219.064 590.904c16.1875 -114.557 6.90723 -230.623 -4.62598 -345.184c-11.7227 -116.354 -20.9922 -232.836 -11.5811 -349.74c2.09961 -26.0879 3.47754 -54.1074 9.76855 -79.5391c2.50391 -10.126 4.80762 -22.333 9.73926 -30.8477
c3.91797 -6.76172 12.9062 -18.3936 19.3438 -22.1484c17.165 -10.0098 42.6807 20.8965 52.0449 33.957c15.4619 21.5605 27.29 46.3906 38.7578 70.2441c48.7744 101.457 78.9268 210.608 126.717 312.51c9.04297 19.2822 41.1631 10.8662 31.1357 -11.0146
c-54.0566 -117.973 -84.8066 -245.987 -147.939 -359.903c-26.4014 -47.6299 -57.3877 -87.46 -113.978 -97.8887c-62.1777 -11.46 -103.746 40.5547 -117.251 95.8398c-28.6943 117.459 -16.5166 244.653 -4.26562 363.442c12.375 120.021 29.7441 239.39 37.8252 359.837
c2.03418 30.3486 3.41211 61.0215 3.82422 91.4355c0.320312 23.8857 4.58887 52.54 -22.6035 61.9883c-24.3057 8.44531 -50.8018 0.542969 -73.8643 -7.99707c-25.7559 -9.53906 -51.0234 -20.1133 -78.7002 -22.2676
c-22.5889 -1.75684 -20.9053 29.4307 -0.80957 31.1914c55.9375 4.89941 104.366 46.8613 162.637 32.6055c23.5469 -5.7627 44.1484 -22.9932 58.4736 -42.1553c17.5 -23.416 21.3643 -56.1484 25.3516 -84.3652z" />
    <glyph glyph-name="I" unicode="&#xcf;" horiz-adv-x="452" 
d="M219.064 590.904c16.1875 -114.557 6.90723 -230.623 -4.62598 -345.184c-11.7227 -116.354 -20.9922 -232.836 -11.5811 -349.74c2.09961 -26.0879 3.47754 -54.1074 9.76855 -79.5391c2.50391 -10.126 4.80762 -22.333 9.73926 -30.8477
c3.91797 -6.76172 12.9062 -18.3936 19.3438 -22.1484c17.165 -10.0098 42.6807 20.8965 52.0449 33.957c15.4619 21.5605 27.29 46.3906 38.7578 70.2441c48.7744 101.457 78.9268 210.608 126.717 312.51c9.04297 19.2822 41.1631 10.8662 31.1357 -11.0146
c-54.0566 -117.973 -84.8066 -245.987 -147.939 -359.903c-26.4014 -47.6299 -57.3877 -87.46 -113.978 -97.8887c-62.1777 -11.46 -103.746 40.5547 -117.251 95.8398c-28.6943 117.459 -16.5166 244.653 -4.26562 363.442c12.375 120.021 29.7441 239.39 37.8252 359.837
c2.03418 30.3486 3.41211 61.0215 3.82422 91.4355c0.320312 23.8857 4.58887 52.54 -22.6035 61.9883c-24.3057 8.44531 -50.8018 0.542969 -73.8643 -7.99707c-25.7559 -9.53906 -51.0234 -20.1133 -78.7002 -22.2676
c-22.5889 -1.75684 -20.9053 29.4307 -0.80957 31.1914c55.9375 4.89941 104.366 46.8613 162.637 32.6055c23.5469 -5.7627 44.1484 -22.9932 58.4736 -42.1553c17.5 -23.416 21.3643 -56.1484 25.3516 -84.3652z" />
    <glyph glyph-name="I" unicode="&#xce;" horiz-adv-x="452" 
d="M219.064 590.904c16.1875 -114.557 6.90723 -230.623 -4.62598 -345.184c-11.7227 -116.354 -20.9922 -232.836 -11.5811 -349.74c2.09961 -26.0879 3.47754 -54.1074 9.76855 -79.5391c2.50391 -10.126 4.80762 -22.333 9.73926 -30.8477
c3.91797 -6.76172 12.9062 -18.3936 19.3438 -22.1484c17.165 -10.0098 42.6807 20.8965 52.0449 33.957c15.4619 21.5605 27.29 46.3906 38.7578 70.2441c48.7744 101.457 78.9268 210.608 126.717 312.51c9.04297 19.2822 41.1631 10.8662 31.1357 -11.0146
c-54.0566 -117.973 -84.8066 -245.987 -147.939 -359.903c-26.4014 -47.6299 -57.3877 -87.46 -113.978 -97.8887c-62.1777 -11.46 -103.746 40.5547 -117.251 95.8398c-28.6943 117.459 -16.5166 244.653 -4.26562 363.442c12.375 120.021 29.7441 239.39 37.8252 359.837
c2.03418 30.3486 3.41211 61.0215 3.82422 91.4355c0.320312 23.8857 4.58887 52.54 -22.6035 61.9883c-24.3057 8.44531 -50.8018 0.542969 -73.8643 -7.99707c-25.7559 -9.53906 -51.0234 -20.1133 -78.7002 -22.2676
c-22.5889 -1.75684 -20.9053 29.4307 -0.80957 31.1914c55.9375 4.89941 104.366 46.8613 162.637 32.6055c23.5469 -5.7627 44.1484 -22.9932 58.4736 -42.1553c17.5 -23.416 21.3643 -56.1484 25.3516 -84.3652z" />
    <glyph glyph-name="I" unicode="&#xcd;" horiz-adv-x="452" 
d="M219.064 590.904c16.1875 -114.557 6.90723 -230.623 -4.62598 -345.184c-11.7227 -116.354 -20.9922 -232.836 -11.5811 -349.74c2.09961 -26.0879 3.47754 -54.1074 9.76855 -79.5391c2.50391 -10.126 4.80762 -22.333 9.73926 -30.8477
c3.91797 -6.76172 12.9062 -18.3936 19.3438 -22.1484c17.165 -10.0098 42.6807 20.8965 52.0449 33.957c15.4619 21.5605 27.29 46.3906 38.7578 70.2441c48.7744 101.457 78.9268 210.608 126.717 312.51c9.04297 19.2822 41.1631 10.8662 31.1357 -11.0146
c-54.0566 -117.973 -84.8066 -245.987 -147.939 -359.903c-26.4014 -47.6299 -57.3877 -87.46 -113.978 -97.8887c-62.1777 -11.46 -103.746 40.5547 -117.251 95.8398c-28.6943 117.459 -16.5166 244.653 -4.26562 363.442c12.375 120.021 29.7441 239.39 37.8252 359.837
c2.03418 30.3486 3.41211 61.0215 3.82422 91.4355c0.320312 23.8857 4.58887 52.54 -22.6035 61.9883c-24.3057 8.44531 -50.8018 0.542969 -73.8643 -7.99707c-25.7559 -9.53906 -51.0234 -20.1133 -78.7002 -22.2676
c-22.5889 -1.75684 -20.9053 29.4307 -0.80957 31.1914c55.9375 4.89941 104.366 46.8613 162.637 32.6055c23.5469 -5.7627 44.1484 -22.9932 58.4736 -42.1553c17.5 -23.416 21.3643 -56.1484 25.3516 -84.3652z" />
    <glyph glyph-name="J" unicode="J" horiz-adv-x="654" 
d="M537.921 723.126c47.2324 3.10938 111.013 13.9443 149.493 -21.0557c16.2021 -14.7373 -9.3457 -41.8496 -24.3301 -28.1768c-19.4971 17.7842 -44.9834 18.7246 -70.1562 18.3086c-30.8848 -0.510742 -61.7656 -2.62109 -92.5332 -5.28516
c-14.5508 -1.26074 -29.084 -2.69727 -43.6025 -4.25391c4.19922 -20.5068 9.24414 -40.3838 11.9453 -61.3066c2.65723 -20.5908 4.30859 -41.2549 6.38672 -61.9111c4.29785 -42.7061 8.57031 -85.3936 12.5947 -128.128
c8.03027 -85.2871 14.7334 -170.622 14.7334 -256.354c0 -4.94238 -0.0214844 -9.88477 -0.0693359 -14.8311c51.6035 16.1582 104.556 28.2383 157.996 36.6836c24.167 3.81641 22.0889 -30.0938 0.867188 -33.4727c-53.79 -8.56543 -107.435 -20.8418 -159.596 -37.5469
c-2.00488 -61.1172 -8.05566 -122.245 -20.6855 -182.035c-14.5732 -69.001 -38.5615 -138.797 -84.2266 -193.742c-43.6494 -52.5186 -105.634 -87.7666 -174.693 -88.9297c-16.1074 -0.273438 -29.084 5.3623 -44.1162 9.95117
c-13.418 4.09668 -26.249 9.55371 -38.1318 17.1104c-28.0742 17.8467 -47.583 43.4238 -53.6885 76.3428c-11.8506 63.9092 20.9111 126.925 60.5039 174.719c41.2764 49.8242 93.5283 91.7246 148.04 126.174c32.959 20.8242 67.3066 39.0391 102.664 54.9648
c1.93555 47.958 1.40723 96.1562 -0.59375 144.453c-2.84277 68.6514 -6.83789 137.259 -9.76172 205.91c-1.44336 33.8877 -1.26465 67.8486 -0.801758 101.763c0.484375 35.5977 6.00684 68.8008 13.0273 103.411c-26.6094 -3.36035 -53.1855 -6.96875 -79.751 -10.6172
c-61.3496 -8.42383 -122.699 -17.0186 -184.363 -22.8467c-29.3535 -2.77734 -58.7578 -4.88086 -88.2139 -6.16016c-27.127 -1.17773 -55.3584 -3.94434 -81.5195 4.81445c-21.1377 7.0791 -2.33691 37.4678 16.3223 31.249
c29.3535 -9.7832 66.3984 -3.61621 96.7402 -1.65527c30.2793 1.9541 60.4971 4.7793 90.6523 8.13281c61.583 6.84863 122.89 15.9033 184.28 24.2539c61.332 8.34375 122.803 16.002 184.587 20.0664zM359.676 -124.89c20.1025 68.7129 30.834 138.53 35.6416 208.96
c-36.0684 -17.084 -70.8457 -36.8369 -103.731 -59.7021c-47.7832 -33.2246 -93.667 -72.4854 -128.2 -119.671c-31.0303 -42.3955 -66.6133 -123.305 -15.6221 -164.709c37.9346 -30.8008 98.373 -15.4365 134.142 9.30957
c39.6543 27.4326 63.9375 78.5361 77.7705 125.812z" />
    <glyph glyph-name="K" unicode="K" horiz-adv-x="615" 
d="M104.034 747.318c0.696289 -66.6572 -6.31348 -133.239 -10.3818 -199.729c-2.33301 -38.1602 -4.26465 -76.2734 -5.89062 -114.379c52.5615 39.7422 103.688 81.6934 153.895 124.366c42.5889 36.1992 90.6494 74.5889 110.322 128.882
c3.12012 8.60938 10.7051 15.9355 20.623 14.9844c8.17188 -0.78418 15.7686 -8.95605 12.7363 -17.5293c-20.4014 -57.6719 -63.8945 -98.9199 -108.853 -138.294c-48.1875 -42.2021 -98.3984 -81.9082 -147.6 -122.864c2.75195 -1.4873 5.64258 -2.86133 8.85742 -4.0498
c8.28125 -3.06543 14.875 -8.40918 21.6367 -14.0117c15.1855 -12.583 27.5166 -27.5498 38.3496 -43.96c21.6367 -32.7695 35.874 -71.6992 44.3711 -109.834c17.5146 -78.6172 24.7578 -159.461 39.7021 -238.639c7.0127 -37.1543 13.7266 -75.8027 25.832 -111.685
c9.36035 -27.7393 25.2051 -71.1631 59.709 -74.542c34.7266 -3.40039 69.5879 26.8574 91.4326 50.1641c24.2617 25.8838 43.6025 55.792 61.8203 86.0938c40.9268 68.083 75.2705 139.901 102.558 214.509c3.18945 8.72266 10.833 16.1621 20.915 15.1963
c8.22363 -0.787109 16.0898 -9.1084 12.9189 -17.7803c-32.5137 -88.8955 -73.3125 -175.637 -124.639 -255.311c-38.0254 -59.0283 -95.1836 -129.061 -171.475 -132.516c-40.5732 -1.84082 -76.043 14.2119 -103.101 44.4473
c-26.9736 30.1406 -42.1807 72.7295 -53.8232 110.908c-26.3467 86.3994 -32.8682 174.891 -44.7695 263.893c-5.11426 38.2588 -13.2979 75.5547 -26.8721 111.718c-6.33887 16.8945 -14.0049 33.374 -22.4395 49.3252c-3.61914 6.84863 -6.61914 13.9385 -9.91797 20.7324
c-3.41895 7.0459 -7.30078 10.29 -13.4424 15.0508c-2.71191 -71.5488 -4.26465 -143.098 -4.73828 -214.891c-0.393555 -59.7139 0.422852 -119.413 -0.269531 -179.119c-0.349609 -30.0576 -1.05664 -60.0166 -2.29199 -90.0518
c-1.20996 -29.3789 -3.1123 -61.8926 -14.7041 -89.1719c-6.10156 -14.3584 -33.1953 -23.5732 -42.8184 -7.5498c-16.8584 28.0674 -19.3408 65.5605 -23.2012 97.4443c-4.12207 34.0596 -6.73535 68.2207 -9.40723 102.419
c-9.31348 119.164 -10.4287 239.601 -7.92773 359.05c2.51855 120.422 5.46387 246.577 40.0225 362.756c6.09473 20.4961 23.7627 35.2588 45.1924 36.4619c19.082 1.06836 37.457 -12.2031 37.668 -32.4951z" />
    <glyph glyph-name="L" unicode="L" horiz-adv-x="317" 
d="M-4.21191 -60.334c0.273438 2.98535 0.541992 5.94727 0.804688 8.87012c10.7637 119.897 1.76074 240.166 -5.7959 360.001c-3.95508 62.7354 -7.02051 125.503 -10.1738 188.282c-3.12402 62.2324 -9.88965 128.904 7.15137 189.559
c5.97461 21.2578 35.0801 29.0068 45.8584 7.81836c17.915 -35.2295 22.1289 -74.0566 28.5879 -112.669c6.41504 -38.3496 9.49902 -77.4463 13.9424 -116.077c8.7041 -75.6719 16.9746 -151.38 24.0498 -227.223c6.26953 -67.208 9.56055 -134.766 7.51953 -202.272
c-0.349609 -11.6318 -0.827148 -23.3584 -1.47559 -35.1279c83.0566 42.9824 168.792 88.2725 218.999 169.39c10.7168 17.3145 42.582 9.21484 30.2725 -10.7129c-58.1719 -94.1631 -156.768 -145.209 -251.907 -194.818
c-3.82324 -41.4297 -10.6904 -82.7578 -23.4404 -121.812c-18.542 -56.8008 -48.9814 -110.751 -105.166 -136.908c-44.9258 -20.9121 -119.026 -14.8945 -128.106 45.1982c-7.98633 52.8496 38.3135 99.6162 73.8057 132.159
c23.1934 21.2656 48.5742 39.6406 75.0742 56.3428zM-30.2021 -195.466c11.4531 28.3145 17.6621 62.0459 21.7959 95.3838c-9.68848 -6.67383 -19.1982 -13.6064 -28.4238 -20.9512c-19.96 -15.8965 -38.043 -33.626 -53.7529 -53.7646
c-13.1729 -16.8877 -34.0186 -45.9863 -21.6582 -67.999c11.6719 -20.7881 36.4287 -15.4229 51.1006 -1.46582c13.2129 12.5723 24.4541 32.7734 30.9385 48.7969z" />
    <glyph glyph-name="M" unicode="M" horiz-adv-x="966" 
d="M544.636 624.932c12.583 21.3926 26.584 43.3887 48.6621 56.0439c44.4004 25.4609 95.3037 -21.043 115.713 -58.4082c56.7861 -103.965 44.0137 -234.731 42.9746 -348.92c-0.539062 -59.4326 -1.77148 -119.069 4.60352 -178.279
c3.13867 -29.124 7.32715 -58.6348 12.4561 -87.4531c3.21875 -18.0791 4.26465 -43.8311 18.0645 -57.3906c37.3359 -36.6836 98.165 54.2539 114.594 80.0283c29.5908 46.4238 51.3154 97.2617 72.8027 147.775c8.47461 19.917 41.04 11.2451 31.5664 -11.168
c-24.0645 -56.9248 -48.6719 -113.897 -83.8252 -165.03c-30.4473 -44.2871 -76.0215 -103.104 -136.02 -101.317c-49.5732 1.47656 -86.6367 43.3652 -106.863 84.2959c-26.5908 53.8086 -33.6006 118.053 -34.916 177.515
c-2.66797 120.834 16.0352 240.793 11.2344 361.78c-1.05371 26.5361 -3.59473 53.1562 -10.5859 78.8213c-4.79297 17.5879 -12.0244 65.7607 -39.6758 47.9258c-21.9102 -14.1318 -34.9707 -45.7129 -46.292 -68.1113
c-13.2715 -26.252 -24.5088 -53.4844 -34.208 -81.2412c-39.498 -113.037 -64.208 -232.081 -92.6504 -348.326c0.0439453 -4.75 0.0839844 -9.5 0.15332 -14.25c0.831055 -58.624 -99.6084 -84.5254 -103.964 -17.5469c-7.06055 108.561 4.98242 217.274 8.79492 325.78
c1.63281 46.46 2.77051 94.0137 -1.625 140.35c-1.85938 19.5996 -3.8457 39.2139 -9.12695 58.2412c-5.08496 18.3203 -13.9531 28.1836 -32.0654 15.1709c-32.0146 -23 -48.3887 -70.7139 -61.832 -106.006c-15.415 -40.4746 -26.8428 -82.4219 -37.0303 -124.475
c-43.085 -177.795 -63.4023 -361.011 -88.7686 -542.032c-0.116211 -12.8594 -0.914062 -25.6465 -2.97363 -38.127c0.401367 -5.64648 -0.837891 -11.5693 -2.9082 -15.9434c-0.254883 -0.539062 -0.509766 -1.0752 -0.764648 -1.61426
c-6.8125 -14.3984 -24.7461 -21.5605 -39.6074 -17.168c-16.4541 4.8623 -21.71 22.417 -25.7197 37.2852c-5.06641 18.7871 -8.30664 38.6162 -11.5029 57.7969c-6.10156 36.5889 -12.4619 73.2031 -16.9268 110.029c-8.9375 73.7471 -16.8184 147.505 -21.5752 221.649
c-9.68457 151.012 -11.6816 303.237 11.6719 453.141c4.00195 25.6904 32.1348 44 56.207 45.3486c21.9072 1.22852 48.9502 -15.1738 46.8506 -40.4121c-11.9014 -143.043 -16.7275 -286.269 -11.2676 -429.753c2.3877 -62.7861 5.7334 -125.587 9.59766 -188.314
c6.24023 47.3418 12.8379 94.6328 20.252 141.796c15.7725 100.363 33.9355 201.751 65.2393 298.601c14.1064 43.6387 30.498 89.1113 56.0791 127.486c20.9268 31.3916 55.5771 64.1172 96.1172 50.0439c40.0625 -13.9092 59.1807 -53.9795 69.9404 -92.3145
c13.9385 -49.6533 19.042 -101.369 22.6357 -152.651c3.76172 -53.6885 4.40332 -107.581 4.33008 -161.495c19.3623 85.1738 41.0137 170.063 73.2178 250.521c11.0664 27.6406 23.835 54.6465 38.9365 80.3223z" />
    <glyph glyph-name="N" unicode="N" horiz-adv-x="692" 
d="M93.8037 497.912c-6.38281 -72.0049 -11.1348 -144.183 -12.5967 -216.468c-1.45801 -72.1396 -0.875 -143.907 4.53027 -215.887c1.0791 -14.3652 2.23047 -28.7598 3.43359 -43.165c15.3457 119.176 34.8945 237.786 64.9004 354.224
c19.082 74.0498 40.8867 149.152 72.6025 218.908c24.1963 53.2217 65.6074 131.762 136.114 114.885c35.4414 -8.48535 52.5293 -36.8369 67.2842 -67.9072c16.1436 -33.9902 22.6865 -73.6045 27.8516 -110.595c10.9902 -78.6748 10.9717 -157.459 9.21484 -236.699
c-1.75684 -79.2109 -6.01465 -158.521 -1.99414 -237.728c1.97559 -38.9443 4.91016 -77.7676 9.22266 -116.521c3.60156 -32.3535 8.7998 -65.9863 22.9531 -95.6064c5.81738 -12.1709 10.2939 -25.7559 26.1533 -24.0723c16.6729 1.76758 30.4111 13.5664 41.3281 25.3438
c25.1221 27.1045 41.4844 61.2627 56.7715 94.5459c32.3643 70.4629 54.8691 144.833 77.3809 218.875c5.70117 18.7578 39.8809 19.3887 33.3594 -2.54688c-24.4434 -82.2324 -49.1533 -164.939 -86.0957 -242.612c-30.4365 -63.9932 -77.8916 -146.893 -160.974 -138.965
c-79.5713 7.59668 -105.455 95.4902 -117.185 162.235c-14.125 80.3701 -13.3994 161.21 -9.90723 242.484c3.43359 79.8965 9.99805 159.577 12.8887 239.517c2.70117 74.749 2.04883 153.154 -13.3662 226.584c-3.65918 17.4346 -6.07617 36.7969 -28.7227 30.9502
c-15.3203 -3.95508 -26.5 -18.1455 -35.3174 -30.3018c-21.7314 -29.959 -37.1934 -64.6641 -50.5234 -99.0078c-28.6543 -73.834 -50.1562 -150.76 -68.1553 -227.816c-34.1982 -146.411 -53.5645 -295.709 -70.2148 -444.992
c1.06055 -7.91016 2.15039 -15.8164 3.29883 -23.6973c3.6709 -25.1582 -38.8994 -45.4902 -53.8184 -22.8838c-41.3682 62.6914 -53.083 140.175 -63.0781 213.455c-9.80566 71.8994 -13.4941 145.529 -13.1191 218.048c0.375 73.2734 4.4248 146.521 10.0381 219.568
c5.89062 76.6152 9.72559 157.503 31.5049 231.487c6.35352 21.5752 25.0527 37.1064 47.5537 38.3672c21.291 1.19531 37.8506 -12.9512 39.6367 -34.1914c6.04004 -71.8584 -6.60449 -146.163 -12.9541 -217.814z" />
    <glyph glyph-name="O" unicode="O" horiz-adv-x="635" 
d="M33.6006 668.804c30.0605 45.4609 71.4395 86.8418 125.011 102.442c44.127 12.8447 93.7549 8.62012 134.343 -13.3232c56.2656 -30.418 88.6846 -92.041 112.181 -149.024c31.0635 -75.333 43.209 -156.498 48.0166 -237.411
c4.49414 -75.6387 0.699219 -152.134 -9.80957 -227.236c73.6045 7.33008 145.89 26.1602 214.57 54.9268c21.123 8.84668 28.3984 -20.0439 9.3418 -28.7012c-28.7891 -13.082 -58.1318 -24.2578 -88.4766 -33.1738c-45.501 -13.3662 -92.8682 -22.7012 -140.75 -27.3594
c-14.9668 -86.4648 -43.1504 -173.163 -95.3291 -244.268c-35.7832 -48.7598 -91.7168 -94.5195 -156.169 -84.6523c-68.6436 10.5088 -108.885 66.6318 -130.807 128.065c-38.1348 106.862 -35.0146 220.617 -23.3213 332.021
c-21.4658 29.707 -37.3545 63.4053 -47.7432 98.7188c-32.2373 109.556 -14.1104 233.623 48.9424 328.975zM340.333 9.04883c11.9014 31.5156 21.3916 64.1709 28.8457 97.5156c-51.3115 -0.0107422 -102.484 5.68262 -151.879 17.9697
c-29.7324 7.39551 -59.21 17.8936 -86.584 32.1973c-1.45801 -35.9766 -1.42188 -71.9277 1.80371 -108.051c4.43652 -49.6387 12.6162 -106.323 40.1221 -148.996c10.042 -15.5791 23.4707 -32.0732 42.2461 -36.8701c16.9824 -4.34082 33.4258 4.60449 45.917 15.0732
c38.3789 32.1641 62.2764 85.4844 79.5283 131.161zM250.939 736.636c-111.612 37.3076 -193.975 -66.2617 -226.146 -160.472c-30.0859 -88.0977 -27.8916 -191.224 14.5664 -275.166c0.193359 1.57129 0.386719 3.14551 0.583984 4.71289
c3.1709 25.3184 32.2441 43.416 55.4199 44.7139c21.5244 1.20605 48.3633 -14.9668 46.1943 -39.8477c-2.52637 -29.0039 -4.67285 -58.0225 -6.82324 -87.0557c-0.630859 -8.48926 -1.21777 -16.9639 -1.77148 -25.4385
c54.8105 -34.1943 121.566 -49.7842 186.696 -55.0986c18.8271 -1.53809 37.6426 -2.19043 56.4219 -2.15039c16.6289 92.082 18.8926 188.145 13.7236 279.074c-3.87793 68.2354 -11.7881 138.826 -35.1641 203.435c-17.4746 48.29 -53.4189 96.4854 -103.702 113.293z" />
    <glyph glyph-name="O" unicode="&#xd6;" horiz-adv-x="635" 
d="M33.6006 668.804c30.0605 45.4609 71.4395 86.8418 125.011 102.442c44.127 12.8447 93.7549 8.62012 134.343 -13.3232c56.2656 -30.418 88.6846 -92.041 112.181 -149.024c31.0635 -75.333 43.209 -156.498 48.0166 -237.411
c4.49414 -75.6387 0.699219 -152.134 -9.80957 -227.236c73.6045 7.33008 145.89 26.1602 214.57 54.9268c21.123 8.84668 28.3984 -20.0439 9.3418 -28.7012c-28.7891 -13.082 -58.1318 -24.2578 -88.4766 -33.1738c-45.501 -13.3662 -92.8682 -22.7012 -140.75 -27.3594
c-14.9668 -86.4648 -43.1504 -173.163 -95.3291 -244.268c-35.7832 -48.7598 -91.7168 -94.5195 -156.169 -84.6523c-68.6436 10.5088 -108.885 66.6318 -130.807 128.065c-38.1348 106.862 -35.0146 220.617 -23.3213 332.021
c-21.4658 29.707 -37.3545 63.4053 -47.7432 98.7188c-32.2373 109.556 -14.1104 233.623 48.9424 328.975zM340.333 9.04883c11.9014 31.5156 21.3916 64.1709 28.8457 97.5156c-51.3115 -0.0107422 -102.484 5.68262 -151.879 17.9697
c-29.7324 7.39551 -59.21 17.8936 -86.584 32.1973c-1.45801 -35.9766 -1.42188 -71.9277 1.80371 -108.051c4.43652 -49.6387 12.6162 -106.323 40.1221 -148.996c10.042 -15.5791 23.4707 -32.0732 42.2461 -36.8701c16.9824 -4.34082 33.4258 4.60449 45.917 15.0732
c38.3789 32.1641 62.2764 85.4844 79.5283 131.161zM250.939 736.636c-111.612 37.3076 -193.975 -66.2617 -226.146 -160.472c-30.0859 -88.0977 -27.8916 -191.224 14.5664 -275.166c0.193359 1.57129 0.386719 3.14551 0.583984 4.71289
c3.1709 25.3184 32.2441 43.416 55.4199 44.7139c21.5244 1.20605 48.3633 -14.9668 46.1943 -39.8477c-2.52637 -29.0039 -4.67285 -58.0225 -6.82324 -87.0557c-0.630859 -8.48926 -1.21777 -16.9639 -1.77148 -25.4385
c54.8105 -34.1943 121.566 -49.7842 186.696 -55.0986c18.8271 -1.53809 37.6426 -2.19043 56.4219 -2.15039c16.6289 92.082 18.8926 188.145 13.7236 279.074c-3.87793 68.2354 -11.7881 138.826 -35.1641 203.435c-17.4746 48.29 -53.4189 96.4854 -103.702 113.293z" />
    <glyph glyph-name="O" unicode="&#xd5;" horiz-adv-x="635" 
d="M33.6006 668.804c30.0605 45.4609 71.4395 86.8418 125.011 102.442c44.127 12.8447 93.7549 8.62012 134.343 -13.3232c56.2656 -30.418 88.6846 -92.041 112.181 -149.024c31.0635 -75.333 43.209 -156.498 48.0166 -237.411
c4.49414 -75.6387 0.699219 -152.134 -9.80957 -227.236c73.6045 7.33008 145.89 26.1602 214.57 54.9268c21.123 8.84668 28.3984 -20.0439 9.3418 -28.7012c-28.7891 -13.082 -58.1318 -24.2578 -88.4766 -33.1738c-45.501 -13.3662 -92.8682 -22.7012 -140.75 -27.3594
c-14.9668 -86.4648 -43.1504 -173.163 -95.3291 -244.268c-35.7832 -48.7598 -91.7168 -94.5195 -156.169 -84.6523c-68.6436 10.5088 -108.885 66.6318 -130.807 128.065c-38.1348 106.862 -35.0146 220.617 -23.3213 332.021
c-21.4658 29.707 -37.3545 63.4053 -47.7432 98.7188c-32.2373 109.556 -14.1104 233.623 48.9424 328.975zM340.333 9.04883c11.9014 31.5156 21.3916 64.1709 28.8457 97.5156c-51.3115 -0.0107422 -102.484 5.68262 -151.879 17.9697
c-29.7324 7.39551 -59.21 17.8936 -86.584 32.1973c-1.45801 -35.9766 -1.42188 -71.9277 1.80371 -108.051c4.43652 -49.6387 12.6162 -106.323 40.1221 -148.996c10.042 -15.5791 23.4707 -32.0732 42.2461 -36.8701c16.9824 -4.34082 33.4258 4.60449 45.917 15.0732
c38.3789 32.1641 62.2764 85.4844 79.5283 131.161zM250.939 736.636c-111.612 37.3076 -193.975 -66.2617 -226.146 -160.472c-30.0859 -88.0977 -27.8916 -191.224 14.5664 -275.166c0.193359 1.57129 0.386719 3.14551 0.583984 4.71289
c3.1709 25.3184 32.2441 43.416 55.4199 44.7139c21.5244 1.20605 48.3633 -14.9668 46.1943 -39.8477c-2.52637 -29.0039 -4.67285 -58.0225 -6.82324 -87.0557c-0.630859 -8.48926 -1.21777 -16.9639 -1.77148 -25.4385
c54.8105 -34.1943 121.566 -49.7842 186.696 -55.0986c18.8271 -1.53809 37.6426 -2.19043 56.4219 -2.15039c16.6289 92.082 18.8926 188.145 13.7236 279.074c-3.87793 68.2354 -11.7881 138.826 -35.1641 203.435c-17.4746 48.29 -53.4189 96.4854 -103.702 113.293z" />
    <glyph glyph-name="O" unicode="&#xd4;" horiz-adv-x="635" 
d="M33.6006 668.804c30.0605 45.4609 71.4395 86.8418 125.011 102.442c44.127 12.8447 93.7549 8.62012 134.343 -13.3232c56.2656 -30.418 88.6846 -92.041 112.181 -149.024c31.0635 -75.333 43.209 -156.498 48.0166 -237.411
c4.49414 -75.6387 0.699219 -152.134 -9.80957 -227.236c73.6045 7.33008 145.89 26.1602 214.57 54.9268c21.123 8.84668 28.3984 -20.0439 9.3418 -28.7012c-28.7891 -13.082 -58.1318 -24.2578 -88.4766 -33.1738c-45.501 -13.3662 -92.8682 -22.7012 -140.75 -27.3594
c-14.9668 -86.4648 -43.1504 -173.163 -95.3291 -244.268c-35.7832 -48.7598 -91.7168 -94.5195 -156.169 -84.6523c-68.6436 10.5088 -108.885 66.6318 -130.807 128.065c-38.1348 106.862 -35.0146 220.617 -23.3213 332.021
c-21.4658 29.707 -37.3545 63.4053 -47.7432 98.7188c-32.2373 109.556 -14.1104 233.623 48.9424 328.975zM340.333 9.04883c11.9014 31.5156 21.3916 64.1709 28.8457 97.5156c-51.3115 -0.0107422 -102.484 5.68262 -151.879 17.9697
c-29.7324 7.39551 -59.21 17.8936 -86.584 32.1973c-1.45801 -35.9766 -1.42188 -71.9277 1.80371 -108.051c4.43652 -49.6387 12.6162 -106.323 40.1221 -148.996c10.042 -15.5791 23.4707 -32.0732 42.2461 -36.8701c16.9824 -4.34082 33.4258 4.60449 45.917 15.0732
c38.3789 32.1641 62.2764 85.4844 79.5283 131.161zM250.939 736.636c-111.612 37.3076 -193.975 -66.2617 -226.146 -160.472c-30.0859 -88.0977 -27.8916 -191.224 14.5664 -275.166c0.193359 1.57129 0.386719 3.14551 0.583984 4.71289
c3.1709 25.3184 32.2441 43.416 55.4199 44.7139c21.5244 1.20605 48.3633 -14.9668 46.1943 -39.8477c-2.52637 -29.0039 -4.67285 -58.0225 -6.82324 -87.0557c-0.630859 -8.48926 -1.21777 -16.9639 -1.77148 -25.4385
c54.8105 -34.1943 121.566 -49.7842 186.696 -55.0986c18.8271 -1.53809 37.6426 -2.19043 56.4219 -2.15039c16.6289 92.082 18.8926 188.145 13.7236 279.074c-3.87793 68.2354 -11.7881 138.826 -35.1641 203.435c-17.4746 48.29 -53.4189 96.4854 -103.702 113.293z" />
    <glyph glyph-name="O" unicode="&#xd3;" horiz-adv-x="635" 
d="M33.6006 668.804c30.0605 45.4609 71.4395 86.8418 125.011 102.442c44.127 12.8447 93.7549 8.62012 134.343 -13.3232c56.2656 -30.418 88.6846 -92.041 112.181 -149.024c31.0635 -75.333 43.209 -156.498 48.0166 -237.411
c4.49414 -75.6387 0.699219 -152.134 -9.80957 -227.236c73.6045 7.33008 145.89 26.1602 214.57 54.9268c21.123 8.84668 28.3984 -20.0439 9.3418 -28.7012c-28.7891 -13.082 -58.1318 -24.2578 -88.4766 -33.1738c-45.501 -13.3662 -92.8682 -22.7012 -140.75 -27.3594
c-14.9668 -86.4648 -43.1504 -173.163 -95.3291 -244.268c-35.7832 -48.7598 -91.7168 -94.5195 -156.169 -84.6523c-68.6436 10.5088 -108.885 66.6318 -130.807 128.065c-38.1348 106.862 -35.0146 220.617 -23.3213 332.021
c-21.4658 29.707 -37.3545 63.4053 -47.7432 98.7188c-32.2373 109.556 -14.1104 233.623 48.9424 328.975zM340.333 9.04883c11.9014 31.5156 21.3916 64.1709 28.8457 97.5156c-51.3115 -0.0107422 -102.484 5.68262 -151.879 17.9697
c-29.7324 7.39551 -59.21 17.8936 -86.584 32.1973c-1.45801 -35.9766 -1.42188 -71.9277 1.80371 -108.051c4.43652 -49.6387 12.6162 -106.323 40.1221 -148.996c10.042 -15.5791 23.4707 -32.0732 42.2461 -36.8701c16.9824 -4.34082 33.4258 4.60449 45.917 15.0732
c38.3789 32.1641 62.2764 85.4844 79.5283 131.161zM250.939 736.636c-111.612 37.3076 -193.975 -66.2617 -226.146 -160.472c-30.0859 -88.0977 -27.8916 -191.224 14.5664 -275.166c0.193359 1.57129 0.386719 3.14551 0.583984 4.71289
c3.1709 25.3184 32.2441 43.416 55.4199 44.7139c21.5244 1.20605 48.3633 -14.9668 46.1943 -39.8477c-2.52637 -29.0039 -4.67285 -58.0225 -6.82324 -87.0557c-0.630859 -8.48926 -1.21777 -16.9639 -1.77148 -25.4385
c54.8105 -34.1943 121.566 -49.7842 186.696 -55.0986c18.8271 -1.53809 37.6426 -2.19043 56.4219 -2.15039c16.6289 92.082 18.8926 188.145 13.7236 279.074c-3.87793 68.2354 -11.7881 138.826 -35.1641 203.435c-17.4746 48.29 -53.4189 96.4854 -103.702 113.293z" />
    <glyph glyph-name="P" unicode="P" horiz-adv-x="652" 
d="M97.3447 682.246c-2.23828 -71.8115 -6.06152 -143.591 -7.69043 -215.428c-2.85742 -125.299 0.109375 -251.003 9.49512 -375.985c4.06445 -54.1328 8.68652 -108.287 14.2637 -162.307c12.4229 155.123 20.0449 310.738 47.0732 464.239
c14.5732 82.7578 30.5127 172.543 78.2598 243.549c20.5547 30.5674 49.8242 62.29 90.1973 59.3779c32.3613 -2.33301 66.0381 -28.7891 86.8438 -52.2451c57.5889 -64.9219 74.6299 -160.794 81.2822 -244.288c6.48828 -81.3906 3.0332 -166.171 -15.458 -246.14
c64.6201 10.5635 130.02 16.3486 195.27 21.918c24.9209 2.12891 23.0215 -32.4121 0.892578 -34.3838c-68.6729 -6.12012 -137.882 -12.0107 -205.848 -24.3203c-23.5908 -79.1494 -66.1396 -159.21 -141.429 -198.413
c-37.377 -19.4609 -91.2588 -30.8076 -127.56 -2.94434c-37.5117 28.792 -28.5518 77.4824 -3.72852 111.064c42.1445 57.0088 108.404 85.6631 175.015 104.06c14.4014 42.8369 22.916 87.9922 26.8857 132.735c6.62695 74.709 7.14453 149.893 -2.71582 224.296
c-4.68359 35.3467 -14.4922 69.7852 -25.2783 103.699c-8.63184 27.1377 -19.3887 70.9844 -55.6133 69.6797c-33.542 -1.20605 -56.3896 -49.2549 -68.7646 -75.1387c-15.6406 -32.7148 -25.3877 -67.8203 -33.7529 -102.988
c-18.8633 -79.3096 -31.1328 -160.069 -40.1943 -241.041c-17.8242 -159.253 -24.1992 -319.57 -44.8379 -478.539c0.0839844 -1.4541 0.214844 -2.89746 0.294922 -4.35156c0.50293 -9.22949 -0.456055 -17.4492 -1.66211 -26.6094
c-0.302734 -2.29297 -1.29102 -14.2959 -1.29785 -7.63281l-0.143555 0.196289c-0.0507812 -7.74902 -4.92773 -15.7021 -11.1279 -21.3809c-12.8232 -11.7441 -33.1592 -10.2461 -44.8457 1.79688c-13.5127 13.9277 -18.0654 33.2246 -23.3506 51.2969
c-10.4688 35.7949 -17.3945 72.8721 -23.7773 109.574c-23.1533 133.129 -36.7676 267.023 -42.3301 402.037c-5.61719 136.377 -3.30273 274.354 14.5 409.775c6.61621 50.3271 102.984 64.2441 101.133 4.84082zM334.136 43.5469
c3.29883 5.30371 6.52441 10.6396 9.52832 16.1182c5.05957 9.21094 9.70703 18.6621 14.0479 28.2666c-22.1367 -7.39941 -43.7773 -16.3848 -63.5371 -28.3369c-19.4062 -11.7373 -56.3604 -40.8945 -44.1162 -68.2656c8.01172 -17.9121 36.0459 1.67676 44.9727 8.16113
c1.29395 0.94043 7.31152 5.69727 9.37793 7.22461c1.55273 1.52734 4.29785 4.16309 4.76465 4.65137c5.66797 5.95996 10.7197 12.3174 15.7939 18.7695c0.28418 0.364258 1.45801 1.94629 2.33691 3.12402c2.04492 3.15332 7.34473 11.2344 6.83105 10.2871z" />
    <glyph glyph-name="Q" unicode="Q" horiz-adv-x="635" 
d="M33.6006 668.804c30.0576 45.4609 71.4375 86.8389 125.017 102.437c44.127 12.8447 93.7549 8.62012 134.343 -13.3232c56.2656 -30.418 88.6846 -92.041 112.181 -149.024c31.0635 -75.333 43.209 -156.498 48.0166 -237.411
c4.49414 -75.6387 0.699219 -152.134 -9.80957 -227.236c73.6045 7.33008 145.89 26.1602 214.57 54.9268c21.123 8.84668 28.3984 -20.0439 9.3418 -28.7012c-28.7891 -13.082 -58.1318 -24.2578 -88.4766 -33.1738c-45.501 -13.3662 -92.8682 -22.7012 -140.75 -27.3594
c-14.9668 -86.4648 -43.1504 -173.163 -95.3291 -244.268c-11.9453 -16.2715 -26.1426 -32.1963 -42.1406 -45.8467c27.6475 -63.8574 55.7578 -127.519 82.1953 -191.847c9.16699 -22.3076 -31.4102 -46.9443 -43.8398 -24.7383
c-33.418 59.7168 -60.457 123.083 -82.4736 188.111c-21.6045 -9.66699 -45.126 -14.1211 -69.9121 -10.3262c-68.6436 10.5088 -108.885 66.6318 -130.807 128.065c-38.1348 106.862 -35.0146 220.617 -23.3213 332.021c-21.4697 29.707 -37.3584 63.4053 -47.7471 98.7188
c-32.2373 109.556 -14.1104 233.623 48.9424 328.975zM340.33 9.0459c11.9014 31.5156 21.3945 64.1709 28.8486 97.5156c-51.3115 -0.0107422 -102.484 5.68262 -151.879 17.9697c-29.7324 7.39551 -59.21 17.8936 -86.584 32.1973
c-1.45801 -35.9766 -1.42188 -71.9277 1.80371 -108.051c4.43262 -49.6387 12.6162 -106.323 40.1221 -148.996c10.0381 -15.5791 23.4668 -32.0732 42.2422 -36.8701c6.61914 -1.69141 13.1514 -1.34473 19.4023 0.302734
c-5.25586 18.7432 -10.166 37.5557 -14.7109 56.4082c-4.51953 18.7432 24.8232 33.6045 32.9121 13.8447c6.2334 -15.2256 12.5791 -30.4033 18.9766 -45.5596c32.2227 32.5029 53.2764 79.9648 68.8662 121.238zM250.94 736.633
c-111.615 37.3076 -193.979 -66.2617 -226.153 -160.472c-30.0859 -88.0977 -27.8916 -191.224 14.5664 -275.166c0.197266 1.57129 0.390625 3.14551 0.587891 4.71289c3.1709 25.3184 32.248 43.416 55.4199 44.7139c21.5244 1.20605 48.3633 -14.9668 46.1943 -39.8477
c-2.52637 -29.0039 -4.67285 -58.0225 -6.82324 -87.0557c-0.630859 -8.48926 -1.21777 -16.9639 -1.77148 -25.4385c54.8105 -34.1943 121.566 -49.7842 186.696 -55.0986c18.8271 -1.53809 37.6426 -2.19043 56.4219 -2.15039
c16.6289 92.082 18.8926 188.145 13.7236 279.074c-3.87793 68.2354 -11.7881 138.826 -35.1641 203.435c-17.4707 48.29 -53.418 96.4854 -103.698 113.293z" />
    <glyph glyph-name="R" unicode="R" horiz-adv-x="665" 
d="M97.3447 682.246c-2.23828 -71.8115 -6.06543 -143.59 -7.69824 -215.427c-2.85449 -125.299 0.109375 -251.003 9.49512 -375.985c3.51758 -46.8359 7.41797 -93.7002 12.0146 -140.47c1.22461 8.35449 2.46777 16.709 3.73633 25.0566
c7.80371 51.3877 15.8193 102.775 24.7969 153.985c-4.08203 8.82129 -8.31738 17.5254 -12.7861 26.0586c-16.5488 31.5957 -0.317383 58.4414 28.7334 74.5596c1.20996 0.670898 2.44531 1.38574 3.66602 2.07422c23.3252 111.729 54.6074 224.915 110.909 324.374
c28.001 49.4668 63.5078 99.1816 109.21 133.832c40.4707 30.6807 103.429 45.8584 143 5.06641c82.2471 -84.7842 5.93359 -223.781 -48.6367 -300.998c-62.0605 -87.8174 -147.727 -162.315 -238.944 -220.644c25.2314 -54.5117 44.2734 -111.393 66.8623 -167.301
c21.3818 -52.915 47.3525 -101.387 81.999 -147.253c29.3027 -38.7939 84.4238 -101.435 137.744 -68.9316c23.7695 14.4854 40.4346 40.9883 54.2891 64.3164c16.3154 27.4805 29.8828 56.4004 41.4307 86.1875c23.0586 59.4805 38.5469 121.618 54.0859 183.377
c4.8916 19.4502 39.458 19.9492 33.834 -2.58105c-19.2236 -77.0166 -38.8701 -154.489 -71.6426 -227.084c-25.3477 -56.1484 -58.3389 -121.453 -117.946 -147.588c-64.5869 -28.3184 -141.644 -2.13184 -193.298 40.2607
c-86.5664 71.0459 -117.852 179.644 -157.167 281.647c-15.5576 -89.1143 -31.082 -178.867 -38.0186 -269.024c1.33789 -13.7822 2.47852 -27.5605 3.2334 -41.4043c0.50293 -9.22949 -0.456055 -17.4492 -1.66211 -26.6094
c-0.302734 -2.29297 -1.28711 -14.2959 -1.29785 -7.63281l-0.143555 0.196289c-0.0507812 -7.74902 -4.92773 -15.7021 -11.1279 -21.3809c-12.8232 -11.7441 -33.1592 -10.2461 -44.8457 1.79688c-13.5088 13.9277 -18.0654 33.2246 -23.3506 51.2969
c-10.4688 35.7949 -17.3945 72.8721 -23.7773 109.574c-23.1533 133.129 -36.7676 267.023 -42.3301 402.037c-5.61719 136.377 -3.30273 274.354 14.5 409.775c6.61621 50.3271 102.984 64.2441 101.133 4.84082zM260.688 456.566
c-25.8506 -64.4307 -44.7217 -131.452 -59.9688 -199.309c34.7305 22.4971 70.5684 48.957 101.84 74.9395c43.5547 36.1914 84.2666 77.2754 120.437 121.957c31.0342 38.335 59.2939 83.4395 73.3242 131.065c11.6641 39.5996 17.3174 97.7822 -39.8623 99.7725
c-52.0918 1.81152 -94.083 -52.8174 -121.8 -90.4238c-31.0234 -42.0967 -54.5488 -89.5918 -73.9697 -138.002z" />
    <glyph glyph-name="S" unicode="S" horiz-adv-x="614" 
d="M-20.7041 602.773c26.8496 69.8135 86.6348 112.599 155.898 134.841c62.542 20.0879 137.794 19.8037 193.49 -18.8525c55.2441 -38.3428 78.5215 -107.136 82.5967 -171.624c1.26465 -20.0039 -33.334 -28.4971 -35.251 -5.94824
c-6.77246 79.6191 -49.4785 157.189 -135.983 166.306c-70.3281 7.41016 -148.7 -31.3984 -177.427 -97.8809c-28.5703 -66.1104 6.13477 -143.674 44.5977 -197.909c46.7949 -65.9863 105.068 -122.051 160.415 -180.591
c52.9229 -55.9736 105.999 -113.307 144.075 -180.733c9.49219 8.47852 19.0674 16.7852 28.6719 24.9102c59.9902 50.7354 126.265 93.627 196.188 129.342c20.4092 10.4209 27.6807 -19.0898 9.34277 -28.7021c-75.9307 -39.8115 -146.648 -89.5117 -210.152 -147.114
c-2.84668 -2.58105 -5.66797 -5.20508 -8.49316 -7.82227c31.9785 -64.9297 54.0059 -141.41 30.2695 -211.552c-11.6055 -34.293 -38.0654 -64.8604 -70.2041 -81.8828c-28.7744 -15.2402 -64.8496 -24.4619 -95.5303 -9.39355
c-74.6074 36.6436 -38.5254 137.072 -5.75586 189.594c14.4414 23.1533 31.0742 45.042 49.1064 65.8701c-8.0625 13.2861 -16.6611 26.252 -25.876 38.8496c-46.0703 62.9795 -100.163 117.382 -154.008 173.549c-54.25 56.5898 -110.486 113.865 -148.432 183.154
c-39.6689 72.4424 -58.1426 154.008 -27.5391 233.591zM387.134 -182.564c4.69141 36.126 -9.31836 73.0635 -24.4668 105.1c-3.24023 6.84863 -6.63379 13.6064 -10.1367 20.3057c-2.69336 -3.24023 -5.38672 -6.48438 -8.01074 -9.77246
c-26.1172 -32.7002 -51.0205 -71.1953 -58.624 -113.052c-6.76172 -37.2197 13.0059 -82.2949 57.5342 -73.2148c32.2002 6.56836 40.1104 42.957 43.7041 70.6338z" />
    <glyph glyph-name="T" unicode="T" horiz-adv-x="682" 
d="M96.0371 614.729c37.5039 8.19043 74.8408 17.2109 112.145 26.291c64.6123 15.7393 129.229 32.0254 194.202 46.5068c6.72559 4.14844 13.9395 7.05371 20.8027 8.1875c5.91602 0.973633 11.4824 0.875 16.6475 -0.0654297
c57.916 12.1777 116.172 22.5703 175.028 29.46c63.8867 7.47949 130.485 13.6689 194.136 1.2793c52.1826 -10.1592 111.178 -33.4004 130.963 -87.293c6.94336 -18.9141 -26.4092 -34.5 -33.8486 -14.2373c-24.0205 65.4326 -121.348 74.7891 -180.092 75.1572
c-85.3232 0.532227 -171.099 -12.2588 -255.609 -29.5186c1.64746 -3.94727 2.85352 -8.2334 3.52051 -12.8301c18.834 -129.917 32.3604 -261.056 42.166 -391.965c4.78223 -63.8652 9.68164 -129.207 9.50684 -194.25c4.96777 3.58301 9.92871 7.16992 14.8789 10.7676
c39.1621 28.4785 87.4189 58.0801 108.849 103.185c8.65332 18.2148 38.375 10.4434 29.4121 -10.4062c-19.5811 -45.5449 -61.3242 -75.668 -99.8525 -104.445c-17.8975 -13.3662 -36.0576 -26.3828 -54.126 -39.5273
c-1.47266 -38.0039 -5.02344 -75.7852 -11.7812 -112.976c-8.81738 -48.501 -23.0918 -104.445 -60.0635 -139.551c-30.6768 -29.1318 -82.4473 -43.3662 -115.271 -9.78418c-72.417 74.0967 33.3408 179.093 87.4482 225.929
c7.18848 6.22168 14.5293 12.251 21.9365 18.1924c-0.193359 3.53223 -0.386719 7.06055 -0.583984 10.5742c-5.71582 102.095 -20.4707 203.34 -32.335 304.812c-12.2041 104.362 -26.752 208.414 -39.2803 312.729c-0.34668 2.86133 -0.262695 5.68945 0.0761719 8.48145
c-14.5732 -3.39746 -29.0947 -6.82031 -43.54 -10.2393c-64.6455 -15.2949 -129.068 -31.5303 -193.819 -46.3945c-32.2119 -7.39551 -64.6709 -15.6592 -97.6406 -18.8154c-26.4961 -2.53711 -55.5908 -3.83887 -77.625 13.4385
c-15.8418 12.4229 7.58105 37.377 22.3398 25.873c28.0381 -21.8594 80.0527 -5.41309 111.411 1.43555zM443.923 -123.693c5.01172 31.4209 5.70605 63.7686 4.83496 95.9365c-29.1855 -24.8486 -57.1504 -52.5908 -77.7773 -84.7617
c-17.748 -27.6846 -35.4043 -86.749 9.16797 -101.683c46.3652 -15.5352 59.0537 60.9131 63.7744 90.5078z" />
    <glyph glyph-name="U" unicode="U" horiz-adv-x="828" 
d="M541.184 680.584c27.5166 4.53809 52.6611 -12.7188 54.7461 -41.0332c6.10156 -83.1582 8.64258 -166.594 9.58984 -249.971c1.46875 -128.919 -2.50391 -261.442 48.5928 -382.43c9.33105 -22.0967 26.7725 -55.4814 53.4033 -59.374
c29.6631 -4.33398 50.4834 29.4414 63.3799 51.1553c16.7744 28.2422 28.7881 58.875 38.8887 90.0439c9.89258 30.5381 16.4902 62.6514 29.0625 92.2021c6.28418 14.7734 30.207 11.4277 27.7471 -5.78027c-5.81055 -40.6094 -20.3691 -82.9688 -34.293 -121.508
c-13.1182 -36.3125 -29.5352 -72.3838 -54.1826 -102.459c-20.2852 -24.75 -49.2012 -48.3701 -81.7881 -52.6855c-38.4121 -5.08887 -72.8037 11.9697 -98.3916 39.3984c-49.6309 53.2109 -72.7734 130.545 -85.4512 200.545
c-13.8809 76.6377 -15.8496 154.307 -19.2539 231.943c-1.16602 26.6309 -2.13965 53.2725 -2.91211 79.9248c-13.9238 -82.8965 -26.5176 -166.004 -38.2949 -249.301c-16.4717 -116.471 -36.5195 -236.087 -84.6016 -344.375
c-21.7539 -48.9932 -61.7617 -97.0645 -118.869 -102.357c-57.4756 -5.3291 -106.079 38.4951 -134.835 84.1787c-65.4727 104.016 -87.5215 232.949 -104.398 352.595c-18.0791 128.16 -34.5508 258.238 -36.3184 387.736
c-0.772461 56.6152 89.541 79.5391 99.0908 16.7236c20.1826 -132.761 24.8887 -267.57 41.9443 -400.83c7.13672 -55.7764 14.6387 -111.557 27.2764 -166.4c11.6533 -50.5684 24.0938 -103.214 49.0186 -149.152c17.2627 -31.8213 47.0391 -83.082 90.5244 -60.249
c22.3477 11.7334 36.5635 36.4141 48.0381 57.8105c12.6777 23.6416 24.291 48.3477 33.415 73.5938c37.7451 104.445 48.79 217.844 65.1162 327.014c17.752 118.709 38.6494 236.926 62.4805 354.562c0.288086 1.41406 0.750977 2.71191 1.33008 3.92188
c6.39746 22.6104 26.2051 40.6387 49.9453 44.5566z" />
    <glyph glyph-name="U" unicode="&#xdc;" horiz-adv-x="828" 
d="M541.184 680.584c27.5166 4.53809 52.6611 -12.7188 54.7461 -41.0332c6.10156 -83.1582 8.64258 -166.594 9.58984 -249.971c1.46875 -128.919 -2.50391 -261.442 48.5928 -382.43c9.33105 -22.0967 26.7725 -55.4814 53.4033 -59.374
c29.6631 -4.33398 50.4834 29.4414 63.3799 51.1553c16.7744 28.2422 28.7881 58.875 38.8887 90.0439c9.89258 30.5381 16.4902 62.6514 29.0625 92.2021c6.28418 14.7734 30.207 11.4277 27.7471 -5.78027c-5.81055 -40.6094 -20.3691 -82.9688 -34.293 -121.508
c-13.1182 -36.3125 -29.5352 -72.3838 -54.1826 -102.459c-20.2852 -24.75 -49.2012 -48.3701 -81.7881 -52.6855c-38.4121 -5.08887 -72.8037 11.9697 -98.3916 39.3984c-49.6309 53.2109 -72.7734 130.545 -85.4512 200.545
c-13.8809 76.6377 -15.8496 154.307 -19.2539 231.943c-1.16602 26.6309 -2.13965 53.2725 -2.91211 79.9248c-13.9238 -82.8965 -26.5176 -166.004 -38.2949 -249.301c-16.4717 -116.471 -36.5195 -236.087 -84.6016 -344.375
c-21.7539 -48.9932 -61.7617 -97.0645 -118.869 -102.357c-57.4756 -5.3291 -106.079 38.4951 -134.835 84.1787c-65.4727 104.016 -87.5215 232.949 -104.398 352.595c-18.0791 128.16 -34.5508 258.238 -36.3184 387.736
c-0.772461 56.6152 89.541 79.5391 99.0908 16.7236c20.1826 -132.761 24.8887 -267.57 41.9443 -400.83c7.13672 -55.7764 14.6387 -111.557 27.2764 -166.4c11.6533 -50.5684 24.0938 -103.214 49.0186 -149.152c17.2627 -31.8213 47.0391 -83.082 90.5244 -60.249
c22.3477 11.7334 36.5635 36.4141 48.0381 57.8105c12.6777 23.6416 24.291 48.3477 33.415 73.5938c37.7451 104.445 48.79 217.844 65.1162 327.014c17.752 118.709 38.6494 236.926 62.4805 354.562c0.288086 1.41406 0.750977 2.71191 1.33008 3.92188
c6.39746 22.6104 26.2051 40.6387 49.9453 44.5566z" />
    <glyph glyph-name="U" unicode="&#xdb;" horiz-adv-x="828" 
d="M541.184 680.584c27.5166 4.53809 52.6611 -12.7188 54.7461 -41.0332c6.10156 -83.1582 8.64258 -166.594 9.58984 -249.971c1.46875 -128.919 -2.50391 -261.442 48.5928 -382.43c9.33105 -22.0967 26.7725 -55.4814 53.4033 -59.374
c29.6631 -4.33398 50.4834 29.4414 63.3799 51.1553c16.7744 28.2422 28.7881 58.875 38.8887 90.0439c9.89258 30.5381 16.4902 62.6514 29.0625 92.2021c6.28418 14.7734 30.207 11.4277 27.7471 -5.78027c-5.81055 -40.6094 -20.3691 -82.9688 -34.293 -121.508
c-13.1182 -36.3125 -29.5352 -72.3838 -54.1826 -102.459c-20.2852 -24.75 -49.2012 -48.3701 -81.7881 -52.6855c-38.4121 -5.08887 -72.8037 11.9697 -98.3916 39.3984c-49.6309 53.2109 -72.7734 130.545 -85.4512 200.545
c-13.8809 76.6377 -15.8496 154.307 -19.2539 231.943c-1.16602 26.6309 -2.13965 53.2725 -2.91211 79.9248c-13.9238 -82.8965 -26.5176 -166.004 -38.2949 -249.301c-16.4717 -116.471 -36.5195 -236.087 -84.6016 -344.375
c-21.7539 -48.9932 -61.7617 -97.0645 -118.869 -102.357c-57.4756 -5.3291 -106.079 38.4951 -134.835 84.1787c-65.4727 104.016 -87.5215 232.949 -104.398 352.595c-18.0791 128.16 -34.5508 258.238 -36.3184 387.736
c-0.772461 56.6152 89.541 79.5391 99.0908 16.7236c20.1826 -132.761 24.8887 -267.57 41.9443 -400.83c7.13672 -55.7764 14.6387 -111.557 27.2764 -166.4c11.6533 -50.5684 24.0938 -103.214 49.0186 -149.152c17.2627 -31.8213 47.0391 -83.082 90.5244 -60.249
c22.3477 11.7334 36.5635 36.4141 48.0381 57.8105c12.6777 23.6416 24.291 48.3477 33.415 73.5938c37.7451 104.445 48.79 217.844 65.1162 327.014c17.752 118.709 38.6494 236.926 62.4805 354.562c0.288086 1.41406 0.750977 2.71191 1.33008 3.92188
c6.39746 22.6104 26.2051 40.6387 49.9453 44.5566z" />
    <glyph glyph-name="U" unicode="&#xda;" horiz-adv-x="828" 
d="M541.184 680.584c27.5166 4.53809 52.6611 -12.7188 54.7461 -41.0332c6.10156 -83.1582 8.64258 -166.594 9.58984 -249.971c1.46875 -128.919 -2.50391 -261.442 48.5928 -382.43c9.33105 -22.0967 26.7725 -55.4814 53.4033 -59.374
c29.6631 -4.33398 50.4834 29.4414 63.3799 51.1553c16.7744 28.2422 28.7881 58.875 38.8887 90.0439c9.89258 30.5381 16.4902 62.6514 29.0625 92.2021c6.28418 14.7734 30.207 11.4277 27.7471 -5.78027c-5.81055 -40.6094 -20.3691 -82.9688 -34.293 -121.508
c-13.1182 -36.3125 -29.5352 -72.3838 -54.1826 -102.459c-20.2852 -24.75 -49.2012 -48.3701 -81.7881 -52.6855c-38.4121 -5.08887 -72.8037 11.9697 -98.3916 39.3984c-49.6309 53.2109 -72.7734 130.545 -85.4512 200.545
c-13.8809 76.6377 -15.8496 154.307 -19.2539 231.943c-1.16602 26.6309 -2.13965 53.2725 -2.91211 79.9248c-13.9238 -82.8965 -26.5176 -166.004 -38.2949 -249.301c-16.4717 -116.471 -36.5195 -236.087 -84.6016 -344.375
c-21.7539 -48.9932 -61.7617 -97.0645 -118.869 -102.357c-57.4756 -5.3291 -106.079 38.4951 -134.835 84.1787c-65.4727 104.016 -87.5215 232.949 -104.398 352.595c-18.0791 128.16 -34.5508 258.238 -36.3184 387.736
c-0.772461 56.6152 89.541 79.5391 99.0908 16.7236c20.1826 -132.761 24.8887 -267.57 41.9443 -400.83c7.13672 -55.7764 14.6387 -111.557 27.2764 -166.4c11.6533 -50.5684 24.0938 -103.214 49.0186 -149.152c17.2627 -31.8213 47.0391 -83.082 90.5244 -60.249
c22.3477 11.7334 36.5635 36.4141 48.0381 57.8105c12.6777 23.6416 24.291 48.3477 33.415 73.5938c37.7451 104.445 48.79 217.844 65.1162 327.014c17.752 118.709 38.6494 236.926 62.4805 354.562c0.288086 1.41406 0.750977 2.71191 1.33008 3.92188
c6.39746 22.6104 26.2051 40.6387 49.9453 44.5566z" />
    <glyph glyph-name="V" unicode="V" horiz-adv-x="667" 
d="M-34.666 638.63c-3.64844 26.9951 23.3311 51.8623 46.5352 58.6309c21.4297 6.25488 55.8613 -0.623047 61.0918 -27.1953c40.54 -206.016 67.9258 -416.715 136.431 -616.1c13.7969 -40.1572 29.9229 -78.2373 53.4951 -113.686
c16.4316 -24.7061 40.1465 -59.3271 74.3262 -56.1191c42.0273 3.94434 62.4873 48.0273 76.123 82.083c17.4492 43.584 31.7158 88.5205 44.3311 133.723c16.6328 59.5859 30.0537 120.014 42.0098 180.723c-75.5078 85.4219 -117.743 204.451 -115.031 314.591
c1.96484 79.8594 24.4473 177.599 96.0586 224.307c34.0518 22.209 77.9678 21.8262 96.6816 -18.9873c18.9072 -41.2295 15.9619 -96.6895 14.2637 -140.81c-4.14844 -107.595 -26.2773 -213.939 -45.334 -319.624c-2.63574 -14.6309 -5.3291 -29.2588 -8.08105 -43.876
c45.002 -46.8096 100.801 -80.249 163.732 -100.432c17.1533 -5.5 4.1582 -31.3613 -10.7979 -28.5107c-62.0459 11.8242 -116.598 41.79 -161.837 83.1396c-14.5732 -72.5586 -31.5518 -144.64 -54.1475 -215.149c-26.1602 -81.6387 -62.3779 -209.62 -167.586 -213.062
c-99.1494 -3.24414 -160.704 114.065 -194.061 191.377c-41.4883 96.1748 -67.8564 198.671 -90.8564 300.58c-24.1992 107.238 -42.6143 215.485 -57.3477 324.396zM508.848 330.845c0.113281 -0.145508 0.229492 -0.28418 0.338867 -0.426758
c2.42383 13.082 4.81152 26.1719 7.15137 39.2617c17.0117 95.085 35.9258 190.765 39.0605 287.556c0.761719 23.5908 0.601562 47.2324 -1.38867 70.7646c-1.59668 18.8447 -2.62109 41.2695 -12.1094 58.1826c-23.0986 41.167 -70.6338 -17.1289 -83.5078 -38.6455
c-38.4229 -64.2148 -42.6143 -148.048 -31.6572 -220.424c10.6914 -70.6162 39.2139 -139.19 82.1123 -196.269z" />
    <glyph glyph-name="W" unicode="W" horiz-adv-x="933" 
d="M960.762 202.034c21.998 5.00098 19.666 -26.1865 0.802734 -30.7246c-59.291 -14.2773 -119.132 15.7725 -166.441 56.5205c-12.8818 -55.8682 -29.4229 -110.836 -51.6904 -163.795c-28.5225 -67.8242 -60.3516 -158.394 -147.45 -163.479
c-86.9092 -5.07031 -142.894 82.8994 -174.938 151.707c-22.7637 48.8799 -35.7471 101.267 -44.6006 154.386c-4.9248 -23 -9.84961 -46 -14.7773 -69.0039c-9.09766 -42.4902 -17 -85.8516 -34.7549 -125.798c-16.1953 -36.4365 -40.9932 -64.2773 -74.8672 -85
c-36.0137 -22.0342 -77.9688 -17.3174 -112.243 5.67188c-71.0791 47.6807 -102.951 143.889 -125.686 222.046c-50.6777 174.205 -47.3975 364.7 -22.8076 542.831c3.31738 24.0068 30.3457 41.1426 52.5371 42.3857c21.1309 1.18457 44.915 -14.165 43.792 -37.7744
c-4.26074 -89.8037 -10.1729 -179.837 -7.84375 -269.779c1.99414 -77.0605 8.67871 -153.658 24.2471 -229.21c14.7041 -71.3672 32.8926 -150.13 76.334 -210.062c20.5762 -28.3877 50.874 -46.3652 80.501 -18.8379c24.8848 23.1172 38.2402 55.9736 47.5312 87.9375
c22.6758 78.001 36.917 159.137 54.6943 238.377c0.458984 2.03711 1.26074 3.84863 2.2998 5.45605c4.68359 21.9395 27.8877 40.2852 48.3652 43.6641c27.0205 4.45801 47.9609 -12.2578 51.4971 -38.6006c9.99121 -74.4141 19.9971 -149.918 45.7275 -220.862
c12.1416 -33.4795 28.165 -67.2148 51.2451 -94.6475c16.9609 -20.1611 44.3867 -42.2871 71.2031 -27.2188c27.0176 15.1777 43.8105 46.3828 58.5361 72.3281c18.7461 33.0283 32.0576 68.7354 43.7363 104.8c11.832 36.5234 21.415 73.7031 29.5322 111.215
c-8.61719 9.21875 -16.5674 18.5723 -23.6934 27.7578c-55.1387 71.0859 -83.7559 158.309 -93.3682 247.022c-9.04297 83.4502 -7.00586 177.624 21.7715 257.331c10.8076 29.9404 26.8057 69.0303 60.0928 79.71c32.6924 10.4941 56.2471 -14.7881 68.498 -42.1553
c34.6064 -77.2969 41.7832 -170.45 40.6641 -254.021c-1.16602 -86.8838 -12.4727 -173.844 -27.1367 -259.39c-2.45703 -14.3291 -5.10352 -28.6289 -7.93164 -42.8916c41.4404 -41.5645 99.1094 -80.9639 156.621 -67.8965zM694.458 471.969
c14.6133 -61.3535 40.7031 -119.646 80.0986 -168.972c3.59375 19.3516 6.89258 38.7539 9.94336 58.1787c22.6982 144.421 39.8916 307.476 -17.0264 446.641c-4.57129 11.1689 -14.6426 32.6895 -29.8428 30.2842c-12.9141 -2.04102 -21.1631 -22.6357 -25.96 -32.707
c-15.3203 -32.1641 -22.8584 -67.7031 -27.2256 -102.882c-9.43359 -76.0176 -7.76758 -155.87 10.0127 -230.543z" />
    <glyph glyph-name="X" unicode="X" horiz-adv-x="643" 
d="M-161.161 -171.278c-14.9629 -16.5049 -42.0537 0.948242 -25.8438 18.791c52.5293 57.8213 106.601 114.211 160.931 170.338c61.0225 63.0381 122.413 125.81 182.123 190.116c-53.6045 145.847 -78.8828 302.975 -93.0332 456.734
c-2.48633 27.0059 22.1436 50.4512 45.7129 57.5996c20.5693 6.23633 55.4668 -0.666992 60.0049 -26.7148c15.3711 -88.207 25.7158 -177.285 42.6436 -265.208c8.31836 -43.209 17.6641 -86.2754 28.9014 -128.82c5.05957 5.81348 10.1768 11.5801 15.1924 17.4336
c44.75 52.2158 87.999 105.934 127.701 162.111c39.4648 55.8428 74.2715 115.702 93.4814 181.699c5.09961 17.5332 36.8447 18.0615 30.9873 -2.36523c-21.1592 -73.8018 -60.0625 -139.748 -104.16 -202.021c-47.5498 -67.1494 -99.2334 -130.847 -153.257 -192.579
c6.2041 -21.0762 12.9072 -42.0098 20.3574 -62.7061c24.9756 -69.3545 54.0488 -137.335 99.0176 -196.359c19.2207 -25.2275 42.8594 -49.7773 72.2354 -62.8848c36.2754 -16.1875 69.2598 0.0546875 96.5615 25.9238c27.2764 25.8467 47.3242 59.1045 65.415 91.7129
c19.2568 34.708 35.5215 70.9834 48.6807 108.429c5.87988 16.7236 37.2236 17.4893 30.5166 -2.3291c-15.6484 -46.2344 -35.2402 -90.9844 -59.6182 -133.304c-21.6807 -37.6357 -46.4893 -75.4463 -81.6309 -101.898
c-30.3887 -22.873 -72.0732 -38.1533 -110.259 -38.5107c-39.4287 -0.368164 -76.5645 19.7783 -106.057 44.4482c-64.9072 54.29 -110.132 129.102 -143.79 205.889c-4.53418 10.3408 -8.90137 20.751 -13.1113 31.2266
c-108.619 -116.788 -222.822 -228.823 -329.703 -346.752z" />
    <glyph glyph-name="Y" unicode="Y" horiz-adv-x="673" 
d="M500.093 46.999c11.959 7.64355 23.9053 15.3066 35.7988 23.0596c53.8232 35.1016 113.081 71.0605 149.823 125.31c9.24414 13.6543 35.3682 8.9082 25.5371 -9.03613c-31.5371 -57.5625 -88.1738 -94.4795 -141.355 -130.234
c-24.7246 -16.6211 -49.7549 -32.7832 -74.7705 -48.9639c-11.2305 -79.2842 -30.6768 -157.365 -63.4785 -229.253c-25.4678 -55.8135 -65.8408 -109.163 -126.207 -129.266c-47.4951 -15.8164 -114.076 -17.8467 -132.473 40.5293
c-16.8184 53.3633 17.6094 109.023 50.9072 147.844c41.2881 48.1367 93.1211 87.7734 144.83 123.991c9.18945 6.43359 18.4629 12.7393 27.7725 18.9941c9.5752 92.8945 11.4453 186.292 6.70703 279.868c-2.56934 50.75 -6.97949 101.325 -11.8379 151.856
c-5.85059 -40.5254 -12.9111 -80.8506 -21.4004 -120.812c-17.9121 -84.3027 -46.3398 -166.423 -94.3711 -238.588c-22.3848 -33.626 -51.5674 -63.3662 -92.3301 -72.4131c-44.7646 -9.93652 -87.2627 11.7988 -116.803 44.4043
c-29.8457 32.9443 -47.3818 82.0215 -58.6162 124.381c-12.5791 47.4404 -20.0625 96.459 -24.1084 145.325c-8.34766 100.805 -10.3447 202.163 -7.50195 303.241c0.801758 28.4502 22.7197 53.0693 50.958 57.7275c25.8467 4.26465 52.9297 -12.2363 53.4951 -40.0996
c2.04883 -101.249 -1.03809 -202.578 4.49121 -303.747c4.29785 -78.5986 8.7998 -165.264 44.6016 -237.064c13.7715 -27.6221 42.8262 -54.082 74.4326 -36.3994c31.373 17.5508 55.1758 53.8809 71.5459 84.7471c36.2646 68.3701 54.7012 144.468 68.8037 220.066
c14.4785 77.625 24.7354 155.957 31.0742 234.646c-1.83691 22.0273 -3.48828 44.0693 -4.81152 66.1436c-1.5166 25.2344 19.9678 46.627 42.4072 53.4326c19.2461 5.83594 51.2422 -0.663086 55.667 -24.7822c28.8945 -157.572 43.1689 -319.657 39.9609 -479.92
c-0.955078 -47.71 -3.48145 -96.4189 -8.74902 -144.989zM335.37 -277.159c30.9609 47.4189 39.9463 108.659 48.7744 163.521c2.77344 17.2227 5.2334 34.4707 7.45312 51.7373c-44.7793 -31.4492 -88.9688 -65.1367 -126.765 -104.696
c-30.0137 -31.417 -77.585 -88.71 -54.3438 -136.03c12.2441 -24.9287 43.9639 -28.4385 68.1562 -21.8887c23.6123 6.39355 43.7295 27.458 56.7246 47.3564z" />
    <glyph glyph-name="Y" unicode="&#x178;" horiz-adv-x="673" 
d="M500.093 46.999c11.959 7.64355 23.9053 15.3066 35.7988 23.0596c53.8232 35.1016 113.081 71.0605 149.823 125.31c9.24414 13.6543 35.3682 8.9082 25.5371 -9.03613c-31.5371 -57.5625 -88.1738 -94.4795 -141.355 -130.234
c-24.7246 -16.6211 -49.7549 -32.7832 -74.7705 -48.9639c-11.2305 -79.2842 -30.6768 -157.365 -63.4785 -229.253c-25.4678 -55.8135 -65.8408 -109.163 -126.207 -129.266c-47.4951 -15.8164 -114.076 -17.8467 -132.473 40.5293
c-16.8184 53.3633 17.6094 109.023 50.9072 147.844c41.2881 48.1367 93.1211 87.7734 144.83 123.991c9.18945 6.43359 18.4629 12.7393 27.7725 18.9941c9.5752 92.8945 11.4453 186.292 6.70703 279.868c-2.56934 50.75 -6.97949 101.325 -11.8379 151.856
c-5.85059 -40.5254 -12.9111 -80.8506 -21.4004 -120.812c-17.9121 -84.3027 -46.3398 -166.423 -94.3711 -238.588c-22.3848 -33.626 -51.5674 -63.3662 -92.3301 -72.4131c-44.7646 -9.93652 -87.2627 11.7988 -116.803 44.4043
c-29.8457 32.9443 -47.3818 82.0215 -58.6162 124.381c-12.5791 47.4404 -20.0625 96.459 -24.1084 145.325c-8.34766 100.805 -10.3447 202.163 -7.50195 303.241c0.801758 28.4502 22.7197 53.0693 50.958 57.7275c25.8467 4.26465 52.9297 -12.2363 53.4951 -40.0996
c2.04883 -101.249 -1.03809 -202.578 4.49121 -303.747c4.29785 -78.5986 8.7998 -165.264 44.6016 -237.064c13.7715 -27.6221 42.8262 -54.082 74.4326 -36.3994c31.373 17.5508 55.1758 53.8809 71.5459 84.7471c36.2646 68.3701 54.7012 144.468 68.8037 220.066
c14.4785 77.625 24.7354 155.957 31.0742 234.646c-1.83691 22.0273 -3.48828 44.0693 -4.81152 66.1436c-1.5166 25.2344 19.9678 46.627 42.4072 53.4326c19.2461 5.83594 51.2422 -0.663086 55.667 -24.7822c28.8945 -157.572 43.1689 -319.657 39.9609 -479.92
c-0.955078 -47.71 -3.48145 -96.4189 -8.74902 -144.989zM335.37 -277.159c30.9609 47.4189 39.9463 108.659 48.7744 163.521c2.77344 17.2227 5.2334 34.4707 7.45312 51.7373c-44.7793 -31.4492 -88.9688 -65.1367 -126.765 -104.696
c-30.0137 -31.417 -77.585 -88.71 -54.3438 -136.03c12.2441 -24.9287 43.9639 -28.4385 68.1562 -21.8887c23.6123 6.39355 43.7295 27.458 56.7246 47.3564z" />
    <glyph glyph-name="Y" unicode="&#xdd;" horiz-adv-x="673" 
d="M500.093 46.999c11.959 7.64355 23.9053 15.3066 35.7988 23.0596c53.8232 35.1016 113.081 71.0605 149.823 125.31c9.24414 13.6543 35.3682 8.9082 25.5371 -9.03613c-31.5371 -57.5625 -88.1738 -94.4795 -141.355 -130.234
c-24.7246 -16.6211 -49.7549 -32.7832 -74.7705 -48.9639c-11.2305 -79.2842 -30.6768 -157.365 -63.4785 -229.253c-25.4678 -55.8135 -65.8408 -109.163 -126.207 -129.266c-47.4951 -15.8164 -114.076 -17.8467 -132.473 40.5293
c-16.8184 53.3633 17.6094 109.023 50.9072 147.844c41.2881 48.1367 93.1211 87.7734 144.83 123.991c9.18945 6.43359 18.4629 12.7393 27.7725 18.9941c9.5752 92.8945 11.4453 186.292 6.70703 279.868c-2.56934 50.75 -6.97949 101.325 -11.8379 151.856
c-5.85059 -40.5254 -12.9111 -80.8506 -21.4004 -120.812c-17.9121 -84.3027 -46.3398 -166.423 -94.3711 -238.588c-22.3848 -33.626 -51.5674 -63.3662 -92.3301 -72.4131c-44.7646 -9.93652 -87.2627 11.7988 -116.803 44.4043
c-29.8457 32.9443 -47.3818 82.0215 -58.6162 124.381c-12.5791 47.4404 -20.0625 96.459 -24.1084 145.325c-8.34766 100.805 -10.3447 202.163 -7.50195 303.241c0.801758 28.4502 22.7197 53.0693 50.958 57.7275c25.8467 4.26465 52.9297 -12.2363 53.4951 -40.0996
c2.04883 -101.249 -1.03809 -202.578 4.49121 -303.747c4.29785 -78.5986 8.7998 -165.264 44.6016 -237.064c13.7715 -27.6221 42.8262 -54.082 74.4326 -36.3994c31.373 17.5508 55.1758 53.8809 71.5459 84.7471c36.2646 68.3701 54.7012 144.468 68.8037 220.066
c14.4785 77.625 24.7354 155.957 31.0742 234.646c-1.83691 22.0273 -3.48828 44.0693 -4.81152 66.1436c-1.5166 25.2344 19.9678 46.627 42.4072 53.4326c19.2461 5.83594 51.2422 -0.663086 55.667 -24.7822c28.8945 -157.572 43.1689 -319.657 39.9609 -479.92
c-0.955078 -47.71 -3.48145 -96.4189 -8.74902 -144.989zM335.37 -277.159c30.9609 47.4189 39.9463 108.659 48.7744 163.521c2.77344 17.2227 5.2334 34.4707 7.45312 51.7373c-44.7793 -31.4492 -88.9688 -65.1367 -126.765 -104.696
c-30.0137 -31.417 -77.585 -88.71 -54.3438 -136.03c12.2441 -24.9287 43.9639 -28.4385 68.1562 -21.8887c23.6123 6.39355 43.7295 27.458 56.7246 47.3564z" />
    <glyph glyph-name="Z" unicode="Z" horiz-adv-x="689" 
d="M138.462 -205.083c50.375 57.7451 108.924 108.085 169.852 154.312c51.0059 38.707 103.655 76.3857 158.142 111.171c-0.492188 1.47656 -0.918945 2.96777 -1.45117 4.43652c-18.251 50.4297 -61.6494 81.0117 -109.768 96.8682
c-62.9502 20.748 -129.363 10.3994 -192.846 -2.14648c-52.4199 -10.3594 -66.6719 57.1035 -27.6299 83.4141c66.6758 44.9287 130.396 94.1006 190.455 147.562c47.6484 42.4141 97.7168 86.6104 133.194 140.16c16.3477 24.6768 27.4355 53.0059 5.12012 77.8984
c-18.8486 21.0244 -55.4521 26.084 -81.8027 29.499c-137.711 17.8496 -274.368 -35.6562 -412.126 -12.0107c-22.5117 3.86328 -11.7441 35.7871 7.8877 32.5137c86.9531 -14.5 173.651 1.72754 260.182 11.1934c69.8213 7.63965 147.946 13.916 215.14 -11.2822
c25.9014 -9.71387 53.4912 -25.0957 67.0723 -50.1299c17.6934 -32.6084 10.7354 -71.8916 -3.38574 -104.515c-30.1699 -69.6973 -86.5771 -126.247 -141.089 -177.595c-20.8389 -19.6289 -42.0859 -38.7842 -63.7158 -57.4834
c40.165 -2.30762 79.623 -10.5596 115.953 -27.21c59.874 -27.4365 104.249 -71.1113 127.909 -128.16c48.9932 26.9258 99.459 50.9102 151.602 70.583c22.5049 8.49316 30.8379 -22.4756 9.88965 -30.3779c-52.1025 -19.6543 -102.412 -43.6973 -151.176 -70.7471
c2.66113 -9.9834 4.76074 -20.3027 6.2627 -30.9541c19.1621 -135.99 -54.0889 -281.825 -150.592 -373.524c-49.0439 -46.6025 -106.946 -84.3359 -170.896 -107.129c-55.4961 -19.7783 -171.792 -39.7129 -190.403 40.6426
c-15.5791 67.251 37.1357 135.92 78.2197 183.011zM474.062 27.4814c-52.2998 -33.9756 -102.849 -70.6836 -151.878 -108.421c-53.6885 -41.3311 -105.015 -85.8594 -150.104 -136.562c-21.0322 -23.6494 -40.6641 -48.3809 -54.7705 -76.8779
c-10.3809 -20.9697 -28.3945 -61.0547 -7.70508 -81.5693c19.8252 -19.6611 63.7705 -4.78906 85.6992 3.28516c23.9258 8.81055 53.7461 22.0928 72.4893 32.9697c23.7695 13.793 46.1396 30.2285 66.876 48.2354c10.3115 8.95605 14.3281 12.6016 25.5586 24.2256
c9.25488 9.58301 18.1162 19.5527 26.5215 29.8936c30.1406 37.0703 56.8955 86.541 71.2314 131.766c13.4316 42.3633 22.209 88.6592 16.082 133.056z" />
    <glyph glyph-name="bracketleft" unicode="[" horiz-adv-x="323" 
d="M244.464 -120.821c28.5557 0.583008 36.9912 -37.7881 18.791 -55.3643c-32.5254 -31.3916 -84.1982 -47.8672 -124.793 -20.5146c-30.7461 20.7188 -47.543 58.5322 -58.5439 92.5957c-21.5859 66.8359 -26.9082 140.816 -29.1504 210.619
c-2.33691 72.8682 0.673828 145.864 8.75488 218.303c7.90625 70.8857 16.8516 142.813 38.208 211.107c9.55762 30.5527 20.5625 69.3066 47.6094 89.3945c20.6387 15.3271 48.4248 16.5811 72.9746 14.5215c22.6035 -1.89941 11.0303 -31.8252 -7.66504 -31.5918
c-8.65723 0.109375 -28.4023 0.703125 -32.4736 -4.25781c-6.6377 -8.08887 -4.54883 -29.9961 -6.12012 -39.9111c-4.81543 -30.3633 -8.19434 -60.748 -10.3525 -91.4287c-8.35449 -118.73 -18.6006 -237.414 -11.6133 -356.538
c3.21094 -54.7266 6.79395 -111.331 21.0166 -164.487c6.05078 -22.625 13.8223 -46.4824 27.1309 -65.3096c3.60449 -5.09961 8.16797 -10.0713 11.9082 -10.5742c9.9873 -1.3418 23.9482 3.22559 34.3184 3.43652z" />
    <glyph glyph-name="backslash" unicode="\" horiz-adv-x="390" 
d="M338.221 -116.578c12.4736 -49.9883 -61.5645 -85.1475 -85.7969 -36.0811c-26.2188 53.1016 -42.7822 111.642 -61.8604 167.594c-18.8701 55.3428 -36.8545 110.941 -54.4014 166.722c-17.5879 55.9043 -34.5557 111.867 -50.084 168.38
c-7.96484 28.9785 -15.1455 58.0664 -22.0459 87.3145c-3.31348 14.041 -5.93457 27.9795 -8.24902 42.2207c-1.30859 8.06641 -3.27734 16.3154 -3.95508 24.459c-0.670898 8.06641 0.929688 16.2021 -1.24316 24.1953c-5.2959 19.4756 26.9014 35.2441 34.3193 14.4307
c2.91211 -8.16504 9.36719 -14.5625 13.5918 -21.9805c3.99512 -7.00977 7.19922 -14.5918 10.7568 -21.8311c6.32031 -12.8633 12.0537 -25.7344 17.4854 -38.9912c10.8115 -26.3906 21.4297 -52.792 31.5664 -79.4482c20.7188 -54.4756 40.6172 -109.202 60.6104 -163.951
c20.0039 -54.7812 40.2119 -109.494 60.2012 -164.283c20.3135 -55.6787 44.7432 -111.175 59.1045 -168.749z" />
    <glyph glyph-name="bracketright" unicode="]" horiz-adv-x="288" 
d="M237.438 135.727c1.30469 -73.4297 0.133789 -147.316 -9.51855 -220.232c-9.09473 -68.6621 -61.0117 -149.55 -140.7 -138.629c-53.9365 7.39258 -35.9297 77.6006 9.19629 84.2168c0.488281 0.0732422 5.09961 0.897461 7.38867 1.22559
c4.47949 3.5791 5.25977 3.79395 2.26367 0.575195c2.125 2.09961 4.09668 4.33008 5.98438 6.64062c-0.900391 -0.342773 5.99219 12.3057 5.04785 9.88867c3.05859 7.82617 4.89941 16.4873 6.55762 24.6963c6.73926 33.3301 7.66504 68.2393 8.99902 102.116
c2.91992 74.1406 1.81934 148.493 1.05371 222.67c-0.757812 73.7031 -1.86621 147.57 -8.02637 221.044c-2.89453 34.5264 -6.8125 68.998 -9.49121 103.506c-1.58203 20.3721 -13.9355 59.0859 -41.3359 39.8438c-18.666 -13.1045 -34.5479 10.0596 -17.7588 24.4395
c20.3799 17.4561 55.3799 26.292 81.333 17.9814c34.125 -10.9277 50.6953 -46.7188 59.7529 -78.5479c38.583 -135.593 36.7676 -281.687 39.2539 -421.435z" />
    <glyph glyph-name="asciicircum" unicode="^" horiz-adv-x="294" 
d="M242.052 420.369c6.99902 -21.3926 -6.83887 -42.7578 -24.7539 -53.1572c-15.4658 -8.97461 -45.3555 -11.3945 -55.7109 7.74609c-11.2998 20.8857 -16.8184 40.1904 -21.3018 63.3623c-1.25781 6.49512 -2.54492 12.998 -4.03906 19.4502
c-3.32812 -4.14453 -6.6084 -8.3291 -9.7793 -12.5684c-6.56445 -8.77734 -12.6914 -17.8828 -19.6426 -26.3682c-6.8457 -8.35449 -15.8857 -14.8496 -22.1514 -23.5322c-8.75586 -12.123 -31.9092 -9.86719 -32.6562 6.86719
c-0.72168 16.1699 -4.0498 28.709 -0.164062 45.2393c3.38281 14.3906 9.41504 28.6465 16.1768 41.7764c15.3604 29.8164 39.21 64.1602 72.6895 74.1807c81.7695 24.4727 85.0469 -93.2227 101.333 -142.996zM128.189 484.761c-1.53418 4.25 -2.21973 2.07422 0 0z
M156.971 482.122c4.85156 2.22754 6.42578 7.56641 0.378906 0.425781c-0.124023 -0.145508 -0.254883 -0.280273 -0.378906 -0.425781z" />
    <glyph glyph-name="underscore" unicode="_" horiz-adv-x="461" 
d="M382.844 -35.2129c49.752 -0.74707 27.3115 -79.9238 -17.5303 -72.2695c-49.9482 8.52539 -104.11 3.91797 -154.572 2.43457c-25.7783 -0.754883 -51.5635 -1.5498 -77.3555 -1.41895c-22.9717 0.120117 -55.5439 -2.35156 -74.4951 12.0752
c-18.0791 13.7637 -5.63867 37.9482 11.1064 45.792c22.5488 10.5635 54.4473 6.29102 79.1318 7.0459c25.3701 0.776367 50.6963 2.62402 76.0225 4.26758c26.6523 1.72754 53.3271 3.34961 80.0273 4.11133c26.0586 0.743164 51.6758 -1.64844 77.665 -2.03809z" />
    <glyph glyph-name="grave" unicode="`" horiz-adv-x="177" 
d="M123.148 448.535c10.873 -9.95508 -5.92773 -30.4277 -18.8164 -28.6309c-15.0654 2.09961 -22.3262 5.81738 -30.3564 19.4023c-8.98145 15.1924 -14.2627 32.3496 -17.6855 49.5947c-7.12988 35.9404 -6.80176 73.1895 -5.66406 109.618
c0.605469 19.4277 15.4629 36.2207 34.7891 39.4102c16.9531 2.7959 37.1172 -8.27734 36.5234 -27.3779c-0.929688 -29.6924 -2.88379 -59.5459 -2.07422 -89.25c0.652344 -23.9736 3.71387 -48.7129 3.28418 -72.7666z" />
    <glyph glyph-name="a" unicode="a" horiz-adv-x="431" 
d="M432.555 184.532c7.45801 16.9971 34.1494 9.65918 26.834 -9.49219c-19.6611 -51.4355 -38.3457 -106.079 -72.1387 -150.29c-28.8105 -37.6934 -83.625 -54.9346 -122.831 -21.8955c-44.6299 37.6064 -46.8896 114.065 -51.3076 167.407
c-0.204102 2.47168 -0.386719 4.96484 -0.572266 7.45117c-8.19727 -27.5605 -17.2148 -54.8691 -27.9678 -81.5508c-12.499 -31.0088 -27.0391 -66.5664 -51.0459 -90.6562c-21.499 -21.5752 -57.4463 -39.6143 -87.041 -25.7412
c-71.5928 33.5605 -73.415 131.995 -65.0352 198.987c9.04688 72.3477 43.6709 151.413 112.617 185.05c31.9854 15.6045 68.458 18.3311 99.4922 -1.16992c10.1514 -6.375 18.542 -14.4307 25.7559 -23.4814c0.907227 4.50195 1.8623 8.97852 2.92676 13.415
c10.7568 44.8779 89.7969 60.8545 93.4424 4.47656c3.10938 -48.126 -1.85547 -96.5361 -1.46582 -144.749c0.37207 -45.7529 -1.30859 -92.6143 5.27441 -138.006c1.33398 -9.18945 3.71094 -47.2842 14.5771 -51.126c14.6826 -5.19434 35.3936 30.2686 41.2471 39.8262
c23.3027 38.0439 39.3633 80.8008 57.2383 121.545zM179.411 180.537c10.1475 32.9912 18.1436 67.459 27.9746 101.077c-11.6641 20.8135 -29.168 44.8633 -51.8516 34.7412c-20.8457 -9.29883 -34.6934 -25.7197 -44.0244 -41.3135
c-25.7051 -42.9609 -38.875 -90.3467 -39.2578 -140.455c-0.193359 -25.3262 -1.1123 -51.1807 5.6709 -75.8467c2.98145 -10.8408 6.58984 -22.1074 14 -30.7568c8.20898 -9.58301 10.6689 -8.06348 19.1396 0.8125c18.3164 19.1914 29.7441 48.21 40.041 72.2568
c11.085 25.876 20.0371 52.5947 28.3076 79.4844z" />
    <glyph glyph-name="a" unicode="&#xe5;" horiz-adv-x="431" 
d="M432.555 184.532c7.45801 16.9971 34.1494 9.65918 26.834 -9.49219c-19.6611 -51.4355 -38.3457 -106.079 -72.1387 -150.29c-28.8105 -37.6934 -83.625 -54.9346 -122.831 -21.8955c-44.6299 37.6064 -46.8896 114.065 -51.3076 167.407
c-0.204102 2.47168 -0.386719 4.96484 -0.572266 7.45117c-8.19727 -27.5605 -17.2148 -54.8691 -27.9678 -81.5508c-12.499 -31.0088 -27.0391 -66.5664 -51.0459 -90.6562c-21.499 -21.5752 -57.4463 -39.6143 -87.041 -25.7412
c-71.5928 33.5605 -73.415 131.995 -65.0352 198.987c9.04688 72.3477 43.6709 151.413 112.617 185.05c31.9854 15.6045 68.458 18.3311 99.4922 -1.16992c10.1514 -6.375 18.542 -14.4307 25.7559 -23.4814c0.907227 4.50195 1.8623 8.97852 2.92676 13.415
c10.7568 44.8779 89.7969 60.8545 93.4424 4.47656c3.10938 -48.126 -1.85547 -96.5361 -1.46582 -144.749c0.37207 -45.7529 -1.30859 -92.6143 5.27441 -138.006c1.33398 -9.18945 3.71094 -47.2842 14.5771 -51.126c14.6826 -5.19434 35.3936 30.2686 41.2471 39.8262
c23.3027 38.0439 39.3633 80.8008 57.2383 121.545zM179.411 180.537c10.1475 32.9912 18.1436 67.459 27.9746 101.077c-11.6641 20.8135 -29.168 44.8633 -51.8516 34.7412c-20.8457 -9.29883 -34.6934 -25.7197 -44.0244 -41.3135
c-25.7051 -42.9609 -38.875 -90.3467 -39.2578 -140.455c-0.193359 -25.3262 -1.1123 -51.1807 5.6709 -75.8467c2.98145 -10.8408 6.58984 -22.1074 14 -30.7568c8.20898 -9.58301 10.6689 -8.06348 19.1396 0.8125c18.3164 19.1914 29.7441 48.21 40.041 72.2568
c11.085 25.876 20.0371 52.5947 28.3076 79.4844z" />
    <glyph glyph-name="a" unicode="&#xe4;" horiz-adv-x="431" 
d="M432.555 184.532c7.45801 16.9971 34.1494 9.65918 26.834 -9.49219c-19.6611 -51.4355 -38.3457 -106.079 -72.1387 -150.29c-28.8105 -37.6934 -83.625 -54.9346 -122.831 -21.8955c-44.6299 37.6064 -46.8896 114.065 -51.3076 167.407
c-0.204102 2.47168 -0.386719 4.96484 -0.572266 7.45117c-8.19727 -27.5605 -17.2148 -54.8691 -27.9678 -81.5508c-12.499 -31.0088 -27.0391 -66.5664 -51.0459 -90.6562c-21.499 -21.5752 -57.4463 -39.6143 -87.041 -25.7412
c-71.5928 33.5605 -73.415 131.995 -65.0352 198.987c9.04688 72.3477 43.6709 151.413 112.617 185.05c31.9854 15.6045 68.458 18.3311 99.4922 -1.16992c10.1514 -6.375 18.542 -14.4307 25.7559 -23.4814c0.907227 4.50195 1.8623 8.97852 2.92676 13.415
c10.7568 44.8779 89.7969 60.8545 93.4424 4.47656c3.10938 -48.126 -1.85547 -96.5361 -1.46582 -144.749c0.37207 -45.7529 -1.30859 -92.6143 5.27441 -138.006c1.33398 -9.18945 3.71094 -47.2842 14.5771 -51.126c14.6826 -5.19434 35.3936 30.2686 41.2471 39.8262
c23.3027 38.0439 39.3633 80.8008 57.2383 121.545zM179.411 180.537c10.1475 32.9912 18.1436 67.459 27.9746 101.077c-11.6641 20.8135 -29.168 44.8633 -51.8516 34.7412c-20.8457 -9.29883 -34.6934 -25.7197 -44.0244 -41.3135
c-25.7051 -42.9609 -38.875 -90.3467 -39.2578 -140.455c-0.193359 -25.3262 -1.1123 -51.1807 5.6709 -75.8467c2.98145 -10.8408 6.58984 -22.1074 14 -30.7568c8.20898 -9.58301 10.6689 -8.06348 19.1396 0.8125c18.3164 19.1914 29.7441 48.21 40.041 72.2568
c11.085 25.876 20.0371 52.5947 28.3076 79.4844z" />
    <glyph glyph-name="a" unicode="&#xe3;" horiz-adv-x="431" 
d="M432.555 184.532c7.45801 16.9971 34.1494 9.65918 26.834 -9.49219c-19.6611 -51.4355 -38.3457 -106.079 -72.1387 -150.29c-28.8105 -37.6934 -83.625 -54.9346 -122.831 -21.8955c-44.6299 37.6064 -46.8896 114.065 -51.3076 167.407
c-0.204102 2.47168 -0.386719 4.96484 -0.572266 7.45117c-8.19727 -27.5605 -17.2148 -54.8691 -27.9678 -81.5508c-12.499 -31.0088 -27.0391 -66.5664 -51.0459 -90.6562c-21.499 -21.5752 -57.4463 -39.6143 -87.041 -25.7412
c-71.5928 33.5605 -73.415 131.995 -65.0352 198.987c9.04688 72.3477 43.6709 151.413 112.617 185.05c31.9854 15.6045 68.458 18.3311 99.4922 -1.16992c10.1514 -6.375 18.542 -14.4307 25.7559 -23.4814c0.907227 4.50195 1.8623 8.97852 2.92676 13.415
c10.7568 44.8779 89.7969 60.8545 93.4424 4.47656c3.10938 -48.126 -1.85547 -96.5361 -1.46582 -144.749c0.37207 -45.7529 -1.30859 -92.6143 5.27441 -138.006c1.33398 -9.18945 3.71094 -47.2842 14.5771 -51.126c14.6826 -5.19434 35.3936 30.2686 41.2471 39.8262
c23.3027 38.0439 39.3633 80.8008 57.2383 121.545zM179.411 180.537c10.1475 32.9912 18.1436 67.459 27.9746 101.077c-11.6641 20.8135 -29.168 44.8633 -51.8516 34.7412c-20.8457 -9.29883 -34.6934 -25.7197 -44.0244 -41.3135
c-25.7051 -42.9609 -38.875 -90.3467 -39.2578 -140.455c-0.193359 -25.3262 -1.1123 -51.1807 5.6709 -75.8467c2.98145 -10.8408 6.58984 -22.1074 14 -30.7568c8.20898 -9.58301 10.6689 -8.06348 19.1396 0.8125c18.3164 19.1914 29.7441 48.21 40.041 72.2568
c11.085 25.876 20.0371 52.5947 28.3076 79.4844z" />
    <glyph glyph-name="a" unicode="&#xe2;" horiz-adv-x="431" 
d="M432.555 184.532c7.45801 16.9971 34.1494 9.65918 26.834 -9.49219c-19.6611 -51.4355 -38.3457 -106.079 -72.1387 -150.29c-28.8105 -37.6934 -83.625 -54.9346 -122.831 -21.8955c-44.6299 37.6064 -46.8896 114.065 -51.3076 167.407
c-0.204102 2.47168 -0.386719 4.96484 -0.572266 7.45117c-8.19727 -27.5605 -17.2148 -54.8691 -27.9678 -81.5508c-12.499 -31.0088 -27.0391 -66.5664 -51.0459 -90.6562c-21.499 -21.5752 -57.4463 -39.6143 -87.041 -25.7412
c-71.5928 33.5605 -73.415 131.995 -65.0352 198.987c9.04688 72.3477 43.6709 151.413 112.617 185.05c31.9854 15.6045 68.458 18.3311 99.4922 -1.16992c10.1514 -6.375 18.542 -14.4307 25.7559 -23.4814c0.907227 4.50195 1.8623 8.97852 2.92676 13.415
c10.7568 44.8779 89.7969 60.8545 93.4424 4.47656c3.10938 -48.126 -1.85547 -96.5361 -1.46582 -144.749c0.37207 -45.7529 -1.30859 -92.6143 5.27441 -138.006c1.33398 -9.18945 3.71094 -47.2842 14.5771 -51.126c14.6826 -5.19434 35.3936 30.2686 41.2471 39.8262
c23.3027 38.0439 39.3633 80.8008 57.2383 121.545zM179.411 180.537c10.1475 32.9912 18.1436 67.459 27.9746 101.077c-11.6641 20.8135 -29.168 44.8633 -51.8516 34.7412c-20.8457 -9.29883 -34.6934 -25.7197 -44.0244 -41.3135
c-25.7051 -42.9609 -38.875 -90.3467 -39.2578 -140.455c-0.193359 -25.3262 -1.1123 -51.1807 5.6709 -75.8467c2.98145 -10.8408 6.58984 -22.1074 14 -30.7568c8.20898 -9.58301 10.6689 -8.06348 19.1396 0.8125c18.3164 19.1914 29.7441 48.21 40.041 72.2568
c11.085 25.876 20.0371 52.5947 28.3076 79.4844z" />
    <glyph glyph-name="a" unicode="&#xe1;" horiz-adv-x="431" 
d="M432.555 184.532c7.45801 16.9971 34.1494 9.65918 26.834 -9.49219c-19.6611 -51.4355 -38.3457 -106.079 -72.1387 -150.29c-28.8105 -37.6934 -83.625 -54.9346 -122.831 -21.8955c-44.6299 37.6064 -46.8896 114.065 -51.3076 167.407
c-0.204102 2.47168 -0.386719 4.96484 -0.572266 7.45117c-8.19727 -27.5605 -17.2148 -54.8691 -27.9678 -81.5508c-12.499 -31.0088 -27.0391 -66.5664 -51.0459 -90.6562c-21.499 -21.5752 -57.4463 -39.6143 -87.041 -25.7412
c-71.5928 33.5605 -73.415 131.995 -65.0352 198.987c9.04688 72.3477 43.6709 151.413 112.617 185.05c31.9854 15.6045 68.458 18.3311 99.4922 -1.16992c10.1514 -6.375 18.542 -14.4307 25.7559 -23.4814c0.907227 4.50195 1.8623 8.97852 2.92676 13.415
c10.7568 44.8779 89.7969 60.8545 93.4424 4.47656c3.10938 -48.126 -1.85547 -96.5361 -1.46582 -144.749c0.37207 -45.7529 -1.30859 -92.6143 5.27441 -138.006c1.33398 -9.18945 3.71094 -47.2842 14.5771 -51.126c14.6826 -5.19434 35.3936 30.2686 41.2471 39.8262
c23.3027 38.0439 39.3633 80.8008 57.2383 121.545zM179.411 180.537c10.1475 32.9912 18.1436 67.459 27.9746 101.077c-11.6641 20.8135 -29.168 44.8633 -51.8516 34.7412c-20.8457 -9.29883 -34.6934 -25.7197 -44.0244 -41.3135
c-25.7051 -42.9609 -38.875 -90.3467 -39.2578 -140.455c-0.193359 -25.3262 -1.1123 -51.1807 5.6709 -75.8467c2.98145 -10.8408 6.58984 -22.1074 14 -30.7568c8.20898 -9.58301 10.6689 -8.06348 19.1396 0.8125c18.3164 19.1914 29.7441 48.21 40.041 72.2568
c11.085 25.876 20.0371 52.5947 28.3076 79.4844z" />
    <glyph glyph-name="b" unicode="b" horiz-adv-x="464" 
d="M476.418 171.021c20.7842 10.2246 28.4873 -19.7656 9.4707 -29.1084c-38.835 -19.1006 -79.9844 -33.6699 -120.751 -49.0088c-9.65918 -46.3398 -26.5391 -94.4912 -57.9453 -129.47c-20.6348 -22.9824 -47.9287 -44.2256 -79.623 -47.8486
c-22.3408 -2.55566 -48.5156 3.79395 -61.3789 23.6416c-23.4629 36.1953 -0.545898 79.4736 28.6582 103.371c21.7861 17.8281 47.5674 31.7158 74.1182 43.6865c21.8271 68.79 26.1504 145.88 16.2539 216.347c-2.17969 15.5283 -2.48926 45.7061 -22.7451 47.0254
c-17.7803 1.15918 -32.2549 -16.3516 -42.1836 -28.6533c-24.7861 -30.7129 -42.5342 -66.6895 -57.5449 -102.99c-27.6299 -66.832 -47.7939 -136.891 -61.9297 -207.871c-0.193359 -3.61621 -0.473633 -7.22852 -0.969727 -10.8223
c-2.3916 -17.3838 -5.44629 -34.5703 -8.98535 -51.7529c-4.1084 -19.9385 -31.9424 -25.1768 -41.1465 -7.01367c-10.3447 20.416 -21.1416 40.8613 -25.6465 63.3691c-4.34082 21.6768 -8.81348 43.2559 -12.2578 65.0967
c-6.8457 43.3877 -13.4287 86.6729 -18.1416 130.355c-9.27344 85.9473 -15.5469 171.949 -15.6709 258.436c-0.185547 127.388 9.19336 257.782 46.4609 380.264c14.6025 47.9912 31.7412 95.4971 62.083 135.932c24.1777 32.2188 63.2969 56.9141 104.406 44.0947
c26.9111 -8.39062 36.6436 -32.5137 41.5938 -58.3682c6.90039 -36.0537 8.11816 -73.2295 6.18652 -109.83c-3.91113 -74.1113 -18.0469 -148.109 -35.835 -220.03c-29.4336 -119.008 -72.0264 -234.115 -116.839 -348.137
c2.22754 -38.6592 4.76074 -77.2969 7.29785 -115.993c0.845703 -12.8857 1.72754 -25.793 2.58789 -38.7041c3.26562 10.8984 6.63379 21.7676 10.2207 32.5713c17.9668 54.0928 38.4775 108.564 70.2803 156.213c22.8438 34.2236 57.3994 76.7939 104.162 66.7188
c49.1104 -10.5781 72.9639 -59.7207 83.5742 -104.464c11.7412 -49.5186 13.7461 -100.659 6.88574 -151.009c35.5938 13.5088 71.1299 27.1162 105.354 43.9531zM82.0078 363.838c35.9805 96.6924 68.6143 194.595 91.2139 295.37
c15.2402 67.9512 27.9941 138.265 28.2021 208.097c0.0878906 29.4561 -0.703125 67.667 -15.1777 94.2324c-2.50098 4.58594 -5.18359 8.27832 -9.96973 10.2578c1.46191 -0.601562 -3.50977 -0.736328 -3.75 -0.470703
c-0.37207 -0.105469 -0.824219 -0.233398 -1.28027 -0.353516c-0.725586 -0.422852 -1.67285 -1.12598 -2.42383 -1.73145c-1.56738 -1.79004 -5.03027 -5.95996 -5.36914 -6.11719c-1.68359 -2.60645 -4.10742 -6.44824 -5.55469 -8.74512
c-0.630859 -1.15527 -3.58008 -6.22168 -4.33496 -7.61426c-2.24512 -4.12988 -4.29395 -8.36523 -6.22266 -12.6514c-0.911133 -2.02344 -5.84277 -14.4746 -3.25879 -7.46484c-2.26758 -6.15332 -4.5127 -12.3135 -6.79785 -18.4629
c-0.0546875 -0.193359 -0.248047 -0.761719 -0.664062 -1.9502c-0.674805 -1.93164 -1.36035 -3.86035 -2.0166 -5.7998c-1.78223 -5.25977 -3.46289 -10.5557 -5.06641 -15.8701c-11.7266 -38.9072 -19.0791 -78.9922 -25.9795 -118.986
c-21.9541 -127.234 -26.8672 -257.509 -22.2129 -386.351c0.185547 -5.13574 0.455078 -10.2568 0.663086 -15.3887zM210.343 -15.4277c17.6787 13.5928 31.2383 35.2002 41.7539 57.8105c-4.87305 -2.80664 -9.69922 -5.71191 -14.4668 -8.72656
c-14.8096 -9.36816 -35.6992 -21.998 -39.957 -40.3799c-0.754883 -3.25879 -1.77539 -15.0029 1.54492 -15.9688c2.43848 -0.710938 9.83105 6.26953 11.125 7.26465z" />
    <glyph glyph-name="c" unicode="c" horiz-adv-x="344" 
d="M352.888 189.249c16.5518 14.0225 32.9424 -9.51172 16.9805 -23.3848c-56.5352 -49.1465 -98.3838 -113.435 -159.209 -157.974c-27.1084 -19.8506 -59.7422 -37.7295 -93.5723 -41.5674c-37.373 -4.24316 -68.3193 9.85547 -92.9561 37.8896
c-50.9248 57.9561 -49.8711 147.821 -39.293 219.349c11.0879 74.9648 45.7236 171.067 123.578 199.619c32.2373 11.8213 69.2783 6.99121 91.0908 -21.2432c22.2461 -28.792 23.54 -61.2734 21.3457 -96.3027c-1.23242 -19.6729 -35.9922 -29.2705 -35.7373 -6.0332
c0.189453 17.3428 0.834961 35.5205 -5.63477 51.96c-3.48438 8.85352 -13.0195 24.75 -25.1396 21.0244c-6.88965 -2.11816 -12.252 -12.248 -14.8398 -16.4365c-8.25977 -13.374 -15.6777 -28.0088 -22.1221 -42.3379
c-21.4365 -47.6807 -35.5977 -102.896 -35.4551 -158.641c0.120117 -47.7617 2.91602 -99.0146 35.4482 -137.183c19.0742 -22.377 51.3291 -0.378906 70.0068 12.3975c21.2002 14.4961 40.1475 31.7812 58.0957 50.083c35.7285 36.4395 68.3633 75.6973 107.413 108.78z
" />
    <glyph glyph-name="d" unicode="d" horiz-adv-x="511" 
d="M508.924 192.188c5.37988 16.9971 36.5381 17.791 30.5127 -2.33008c-17.125 -57.2275 -33.9541 -116.847 -65.7832 -167.965c-14.8281 -23.8164 -33.2539 -46.7656 -58.6523 -59.8262c-31.6504 -16.2793 -70.3213 -10.2031 -98.5596 10.9824
c-63.1035 47.3418 -81.6533 140.291 -94.4766 213.131c-1.02832 5.84277 -1.99023 11.6963 -2.91602 17.5537c-10.1953 -36.374 -21.3457 -72.5107 -35.4775 -107.572c-12.499 -31.0088 -27.0391 -66.5664 -51.0459 -90.6562
c-21.499 -21.5752 -57.4463 -39.6143 -87.041 -25.7412c-71.5928 33.5605 -73.415 131.995 -65.0352 198.987c9.04688 72.3477 43.6709 151.413 112.617 185.05c31.9854 15.6045 68.458 18.3311 99.4922 -1.16992c4.75293 -2.98926 9.09375 -6.36816 13.1436 -10.0166
c-0.896484 30.9648 -0.768555 61.959 0.19043 92.8838c2.7959 90.0664 10.4473 179.925 23.4854 269.087c12.5029 85.502 31.9199 173.833 66.1396 253.492c15.2842 35.5762 39.6621 78.0889 76.0908 95.3594c34.3877 16.3047 66.6172 1.02832 78.9775 -33.8438
c13.6504 -38.5098 12.7832 -82.0322 10.1768 -122.23c-2.48926 -38.4121 -7.81152 -76.6631 -15.4365 -114.386c-27.666 -136.876 -83.7559 -265.368 -132.877 -395.68c-0.616211 -65.6074 2.12109 -130.752 9.1709 -196.148
c7.02441 -65.1445 15.8018 -136.376 48.2832 -194.325c6.76855 -12.0723 14.0801 -22.585 28.8936 -17.085c8.10254 3.01074 15.3926 8.63477 21.6221 14.5029c16.4502 15.4951 28.293 35.707 38.5176 55.6309c21.5967 42.0967 35.75 87.3574 49.9873 132.315z
M328.57 652.464c-4.47266 -50.6191 -9.12891 -101.183 -12.2744 -151.863c35.9951 93.4375 70.7363 187.312 91.167 285.543c7.43262 35.7471 12.9326 71.9209 15.4551 108.36c2.45703 35.5244 3.4707 71.8145 -7.24219 106.194
c-3.44434 11.0518 -10.8105 34.7188 -20.5576 15.4951c-6.26562 -12.3535 -10.2715 -27.1162 -14.4307 -40.3291c-10.5127 -33.4072 -18.6846 -67.2402 -24.5205 -101.77c-12.4004 -73.3604 -21.0498 -147.53 -27.5967 -221.631zM178.421 180.542
c10.1445 32.9912 18.1436 67.459 27.9746 101.077c-11.6641 20.8135 -29.168 44.8633 -51.8516 34.7412c-20.8457 -9.29883 -34.6934 -25.7197 -44.0244 -41.3135c-25.7051 -42.9609 -38.875 -90.3467 -39.2578 -140.455
c-0.193359 -25.3262 -1.1123 -51.1807 5.6709 -75.8467c2.98145 -10.8408 6.58984 -22.1074 14 -30.7568c8.20898 -9.58301 10.6689 -8.06348 19.1396 0.8125c18.3164 19.1914 29.7441 48.21 40.041 72.2568c11.085 25.876 20.041 52.5947 28.3076 79.4844z" />
    <glyph glyph-name="e" unicode="e" horiz-adv-x="299" 
d="M301.615 192.285c14.2852 13.9639 39.002 -0.833008 23.6963 -17.2354c-53.2656 -57.0781 -94.2979 -129.447 -162.592 -170.757c-32.0254 -19.3701 -67.915 -36.8047 -106.071 -27.2002c-36.9277 9.29492 -61.5244 47.623 -70.0215 82.6816
c-10.2168 42.1592 -8.79883 87.4199 -3.70703 130.14c4.87012 40.8535 14.5771 82.415 34.5342 118.745c19.3408 35.208 46.46 65.1416 84.7549 79.8203c30.0645 11.5186 67.2734 8.46387 81.6602 -24.2578c13.6182 -30.9756 -3.46289 -63.8682 -22.1553 -88.7275
c-19.8105 -26.3428 -46.8643 -46.3545 -75.1572 -62.8115c-0.521484 -2.48633 -1.0498 -4.96484 -1.52344 -7.46191c-5.20898 -27.3564 -7.84473 -55.3867 -8.20215 -83.2275c-0.313477 -24.251 0.0947266 -51.2715 11.7148 -73.2441
c10.5674 -19.9824 30.3926 -30.9102 51.7852 -19.7451c22.4502 11.7188 42.0684 29.416 59.4883 47.5576c35.6484 37.125 64.9297 79.6846 101.796 115.724zM106.947 287.132c-3.49609 -11.3691 -6.97559 -22.7441 -10.249 -34.1719
c15.7578 11.1025 30.2539 23.9697 41.8818 39.3555c8.84277 11.6973 17.8135 26.2812 18.2803 41.3066c0.52832 16.9746 -12.7656 28.6387 -24.7871 13.7451c-13.1846 -16.3408 -19.4102 -41.6416 -25.126 -60.2354z" />
    <glyph glyph-name="e" unicode="&#xeb;" horiz-adv-x="299" 
d="M301.615 192.285c14.2852 13.9639 39.002 -0.833008 23.6963 -17.2354c-53.2656 -57.0781 -94.2979 -129.447 -162.592 -170.757c-32.0254 -19.3701 -67.915 -36.8047 -106.071 -27.2002c-36.9277 9.29492 -61.5244 47.623 -70.0215 82.6816
c-10.2168 42.1592 -8.79883 87.4199 -3.70703 130.14c4.87012 40.8535 14.5771 82.415 34.5342 118.745c19.3408 35.208 46.46 65.1416 84.7549 79.8203c30.0645 11.5186 67.2734 8.46387 81.6602 -24.2578c13.6182 -30.9756 -3.46289 -63.8682 -22.1553 -88.7275
c-19.8105 -26.3428 -46.8643 -46.3545 -75.1572 -62.8115c-0.521484 -2.48633 -1.0498 -4.96484 -1.52344 -7.46191c-5.20898 -27.3564 -7.84473 -55.3867 -8.20215 -83.2275c-0.313477 -24.251 0.0947266 -51.2715 11.7148 -73.2441
c10.5674 -19.9824 30.3926 -30.9102 51.7852 -19.7451c22.4502 11.7188 42.0684 29.416 59.4883 47.5576c35.6484 37.125 64.9297 79.6846 101.796 115.724zM106.947 287.132c-3.49609 -11.3691 -6.97559 -22.7441 -10.249 -34.1719
c15.7578 11.1025 30.2539 23.9697 41.8818 39.3555c8.84277 11.6973 17.8135 26.2812 18.2803 41.3066c0.52832 16.9746 -12.7656 28.6387 -24.7871 13.7451c-13.1846 -16.3408 -19.4102 -41.6416 -25.126 -60.2354z" />
    <glyph glyph-name="e" unicode="&#xea;" horiz-adv-x="299" 
d="M301.615 192.285c14.2852 13.9639 39.002 -0.833008 23.6963 -17.2354c-53.2656 -57.0781 -94.2979 -129.447 -162.592 -170.757c-32.0254 -19.3701 -67.915 -36.8047 -106.071 -27.2002c-36.9277 9.29492 -61.5244 47.623 -70.0215 82.6816
c-10.2168 42.1592 -8.79883 87.4199 -3.70703 130.14c4.87012 40.8535 14.5771 82.415 34.5342 118.745c19.3408 35.208 46.46 65.1416 84.7549 79.8203c30.0645 11.5186 67.2734 8.46387 81.6602 -24.2578c13.6182 -30.9756 -3.46289 -63.8682 -22.1553 -88.7275
c-19.8105 -26.3428 -46.8643 -46.3545 -75.1572 -62.8115c-0.521484 -2.48633 -1.0498 -4.96484 -1.52344 -7.46191c-5.20898 -27.3564 -7.84473 -55.3867 -8.20215 -83.2275c-0.313477 -24.251 0.0947266 -51.2715 11.7148 -73.2441
c10.5674 -19.9824 30.3926 -30.9102 51.7852 -19.7451c22.4502 11.7188 42.0684 29.416 59.4883 47.5576c35.6484 37.125 64.9297 79.6846 101.796 115.724zM106.947 287.132c-3.49609 -11.3691 -6.97559 -22.7441 -10.249 -34.1719
c15.7578 11.1025 30.2539 23.9697 41.8818 39.3555c8.84277 11.6973 17.8135 26.2812 18.2803 41.3066c0.52832 16.9746 -12.7656 28.6387 -24.7871 13.7451c-13.1846 -16.3408 -19.4102 -41.6416 -25.126 -60.2354z" />
    <glyph glyph-name="e" unicode="&#xe9;" horiz-adv-x="299" 
d="M301.615 192.285c14.2852 13.9639 39.002 -0.833008 23.6963 -17.2354c-53.2656 -57.0781 -94.2979 -129.447 -162.592 -170.757c-32.0254 -19.3701 -67.915 -36.8047 -106.071 -27.2002c-36.9277 9.29492 -61.5244 47.623 -70.0215 82.6816
c-10.2168 42.1592 -8.79883 87.4199 -3.70703 130.14c4.87012 40.8535 14.5771 82.415 34.5342 118.745c19.3408 35.208 46.46 65.1416 84.7549 79.8203c30.0645 11.5186 67.2734 8.46387 81.6602 -24.2578c13.6182 -30.9756 -3.46289 -63.8682 -22.1553 -88.7275
c-19.8105 -26.3428 -46.8643 -46.3545 -75.1572 -62.8115c-0.521484 -2.48633 -1.0498 -4.96484 -1.52344 -7.46191c-5.20898 -27.3564 -7.84473 -55.3867 -8.20215 -83.2275c-0.313477 -24.251 0.0947266 -51.2715 11.7148 -73.2441
c10.5674 -19.9824 30.3926 -30.9102 51.7852 -19.7451c22.4502 11.7188 42.0684 29.416 59.4883 47.5576c35.6484 37.125 64.9297 79.6846 101.796 115.724zM106.947 287.132c-3.49609 -11.3691 -6.97559 -22.7441 -10.249 -34.1719
c15.7578 11.1025 30.2539 23.9697 41.8818 39.3555c8.84277 11.6973 17.8135 26.2812 18.2803 41.3066c0.52832 16.9746 -12.7656 28.6387 -24.7871 13.7451c-13.1846 -16.3408 -19.4102 -41.6416 -25.126 -60.2354z" />
    <glyph glyph-name="f" unicode="f" horiz-adv-x="283" 
d="M290.505 211.021c17.5254 14.8281 35.0723 -10.167 18.0059 -24.791c-67.5723 -57.916 -135.145 -115.836 -202.717 -173.749c0.222656 -1.43945 0.445312 -2.87891 0.678711 -4.31836c47.8594 -1.57812 94.4873 -22.8691 124.07 -62.7969
c20.8535 -28.1475 32.2041 -63.7119 31.9492 -98.708c-0.240234 -33.0752 -9.36719 -74.1621 -32.71 -98.7734c-28.1396 -29.667 -69.4385 -30.6689 -104.304 -12.9941c-36.166 18.3379 -60.3076 60.876 -77.3955 96.1934
c-35.0215 72.3877 -50.9209 152.35 -58.3564 231.962c-7.4834 80.1182 -5.66797 162.358 2.51562 242.382c8.51465 83.2383 23.9883 165.354 58.627 242.047c15.251 33.7676 35.2695 66.8213 59.3672 95.0527c24.5098 28.7119 55.6426 56.7168 94.7471 60.7188
c92.7959 9.49512 74.498 -100.342 57.3369 -157.201c-38.1387 -126.353 -98.9238 -245.207 -167.338 -358.109c-0.124023 -27.7422 0.364258 -55.4844 1.67676 -83.1865c0.860352 -18.1123 2.23828 -36.1846 4.16699 -54.1807
c63.2236 53.4844 126.451 106.969 189.679 160.453zM98.9014 303.196c-0.871094 -14.1904 -1.58496 -28.3955 -2.18652 -42.6113c48.625 83.6182 90.8672 170.688 120.447 263.309c10.29 32.2188 23.0693 67.3936 19.3477 101.664
c-0.761719 7.03125 -4.23926 30.8193 -15.5684 30.1377c-6.69922 -0.401367 -15.1152 -16.4502 -18.5967 -21.0791c-33.3447 -44.3496 -60.1143 -92.8105 -75.8936 -145.664c-18.1377 -60.749 -23.6895 -122.81 -27.5498 -185.756zM195.117 -73.7695
c-20.2334 25.5479 -50.2383 41.2168 -81.8955 45.7188c3.94727 -18.583 8.61621 -37.0234 14.1309 -55.2812c8.28125 -27.418 18.1299 -55.3643 31.7256 -80.6504c7.24609 -13.4756 16.793 -25.209 25.0674 -37.9043c3.37891 -5.18652 10.3008 -15.4434 16.6982 -14.5176
c11.7627 1.69824 18.3604 22.7305 20.4385 32.0732c2.77344 12.4443 3.41113 25.1875 2.41992 37.8867c-2.06348 26.3828 -12.1709 51.9492 -28.585 72.6748z" />
    <glyph glyph-name="g" unicode="g" horiz-adv-x="422" 
d="M430.19 180.658c17.4668 13.2129 34.415 -10.457 17.25 -23.7363c-41.5537 -32.1426 -81.0186 -66.876 -118.22 -103.888c0.824219 -46.0918 0.645508 -92.2051 -1.15918 -138.246c-4.64062 -118.537 -19.8115 -250.273 -94.3643 -347.269
c-28.5557 -37.1504 -81.9014 -75.6055 -131.624 -64.6084c-54.5342 12.0615 -75.4893 71.4326 -71.1621 121.443c5.16504 59.6738 30.3018 116.978 59.1084 168.781c27.8086 50.0107 59.9111 97.8887 94.4951 143.452c13.8516 18.251 28.2383 36.0752 43.085 53.4951
c-0.0146484 0.313477 -0.0253906 0.633789 -0.0400391 0.947266c-2.52246 59.6768 -6.74707 119.292 -10.3633 178.907c-0.452148 7.4209 -0.925781 14.8643 -1.40723 22.3223c-9.32422 -32.4922 -19.5742 -64.7256 -32.2188 -96.0947
c-12.499 -31.0088 -27.0391 -66.5664 -51.0459 -90.6562c-21.499 -21.5752 -57.4463 -39.6143 -87.041 -25.7412c-71.5928 33.5605 -73.415 131.995 -65.0352 198.987c9.04688 72.3477 43.6709 151.413 112.617 185.05c31.9854 15.6045 68.458 18.3311 99.4922 -1.16992
c7.75684 -4.87305 14.4746 -10.7412 20.4453 -17.2695c0.116211 1.49121 0.207031 2.98535 0.334961 4.47266c2.37988 27.8555 20.9111 51.6211 49.7695 56.3818c26.999 4.4502 49.2305 -12.3203 52.2451 -39.166c8.36914 -74.5566 8.13184 -150.764 11.2012 -225.714
c0.630859 -15.4219 1.16699 -30.8555 1.63379 -46.292c32.5029 30.2354 66.5693 58.8086 102.003 85.6104zM178.409 180.539c10.1475 32.9912 18.1436 67.459 27.9746 101.077c-11.6641 20.8135 -29.168 44.8633 -51.8516 34.7412
c-20.8457 -9.29883 -34.6934 -25.7197 -44.0244 -41.3135c-25.7051 -42.9609 -38.875 -90.3467 -39.2578 -140.455c-0.193359 -25.3262 -1.1123 -51.1807 5.6709 -75.8467c2.98145 -10.8408 6.58984 -22.1074 14 -30.7568c8.20898 -9.58301 10.6689 -8.06348 19.1396 0.8125
c18.3164 19.1914 29.7441 48.21 40.041 72.2568c11.085 25.876 20.0371 52.5947 28.3076 79.4844zM211.71 -328.374c20.9629 87.0186 20.9814 179.888 17.8066 269.925c-8.90527 -11.209 -17.6318 -22.5674 -26.1611 -34.0752
c-31.6572 -42.7021 -60.9814 -87.4961 -86.1582 -134.343c-24.8809 -46.2959 -48.6943 -99.0508 -50.499 -152.414c-0.900391 -26.6494 5.41992 -54.5635 26.5791 -72.4932c17.0703 -14.4639 42.4688 -17.5293 59.6738 -1.70996
c16.7236 15.3789 28.1514 40.1035 37.2129 60.4941c9.21875 20.7441 16.2354 42.5674 21.5459 64.6162z" />
    <glyph glyph-name="h" unicode="h" horiz-adv-x="469" 
d="M468.417 163.825c7.8877 18.6084 37.9512 10.5352 29.3994 -10.4053c-16.2754 -39.8916 -35.623 -78.4199 -58.335 -115.049c-18.9941 -30.6328 -41.6084 -61.1016 -78.5439 -70.1162c-30.458 -7.43262 -61.8564 3.48828 -84.959 23.8428
c-30.0859 26.5029 -38.9648 68.4287 -43.2695 106.658c-4.34473 38.5938 -6.23633 77.5088 -8.32812 116.281c-2.25586 41.7686 0.285156 82.0469 3.98828 123.575c0.382812 4.29395 1.85156 24.2617 1.36328 24.3311c-4.10059 0.576172 -13.9199 -14.584 -15.8486 -17.248
c-10.2021 -14.1025 -18.1406 -29.8379 -25.2559 -45.6826c-16.082 -35.8203 -28.5957 -73.3428 -39.8262 -110.931c-22.1035 -73.9805 -37.7295 -149.667 -53.3232 -225.222c-0.462891 -2.24512 -1.35547 -4.21387 -2.55078 -5.90527
c-0.670898 -3.4668 -1.34863 -6.92969 -2.06348 -10.3926c-4.1084 -19.9385 -31.9424 -25.1768 -41.1465 -7.01367c-10.3447 20.416 -21.1416 40.8613 -25.6465 63.3691c-4.34082 21.6768 -8.80957 43.2559 -12.2578 65.0967
c-6.8457 43.3877 -13.4287 86.6729 -18.1416 130.355c-9.27344 85.9473 -15.5469 171.949 -15.6709 258.436c-0.185547 127.388 9.19336 257.782 46.4609 380.264c14.6025 47.9912 31.7412 95.4971 62.083 135.932c24.1777 32.2188 63.2969 56.9141 104.406 44.0947
c26.9111 -8.39062 36.6436 -32.5137 41.5938 -58.3682c6.90039 -36.0537 8.11816 -73.2295 6.18652 -109.829c-3.91113 -74.1113 -18.0469 -148.109 -35.835 -220.03c-29.4336 -119.008 -72.0264 -234.115 -116.839 -348.137
c2.22754 -38.6592 4.76074 -77.2969 7.29785 -115.993c1.0791 -16.4248 2.22754 -32.8789 3.28809 -49.3398c8.48926 35.2373 17.915 70.2373 28.9854 104.781c11.252 35.1094 23.499 70.6191 39.6904 103.8c12.8887 26.416 32.3311 63.7705 63.2373 71.8701
c32.8311 8.60254 54.0195 -28.085 62.957 -53.5352c13.1299 -37.3906 19.9316 -77.1289 25.3447 -116.306c5.43848 -39.3525 10.8809 -78.6611 15.1602 -118.159c2.00098 -18.4805 4.53418 -36.6914 7.16211 -55.0879c1.75684 -12.291 0.652344 -28.8213 6.51367 -40.1172
c19.0273 -36.6729 62.1123 33.5859 70.332 47.1387c20.0225 33.0059 37.3291 67.5098 52.3906 103.042zM82.0098 363.834c35.9805 96.6924 68.6133 194.593 91.209 295.36c15.2402 67.9512 27.9941 138.265 28.2021 208.097
c0.0908203 29.4561 -0.704102 67.667 -15.1748 94.2324c-2.50098 4.58594 -5.18359 8.27832 -9.96973 10.2578c1.46191 -0.601562 -3.50977 -0.736328 -3.75 -0.470703c-0.37207 -0.109375 -0.824219 -0.233398 -1.28027 -0.353516
c-0.72168 -0.422852 -1.67285 -1.12598 -2.42383 -1.73145c-1.56738 -1.79004 -5.03027 -5.96387 -5.36914 -6.11719c-1.6875 -2.60254 -4.10742 -6.44434 -5.55469 -8.74023c-0.630859 -1.15527 -3.57617 -6.22168 -4.33398 -7.61426
c-2.24512 -4.12988 -4.29395 -8.36523 -6.22266 -12.6514c-0.911133 -2.02344 -5.83887 -14.4746 -3.25781 -7.46484c-2.26758 -6.15332 -4.5127 -12.3096 -6.79785 -18.4551c-0.0585938 -0.189453 -0.251953 -0.757812 -0.667969 -1.95312
c-0.674805 -1.93164 -1.36035 -3.86035 -2.0166 -5.7998c-1.78223 -5.25977 -3.46289 -10.5557 -5.06641 -15.8701c-11.7227 -38.9072 -19.0752 -78.9922 -25.9756 -118.986c-21.9541 -127.234 -26.8672 -257.509 -22.2129 -386.351
c0.185547 -5.13574 0.455078 -10.2568 0.663086 -15.3887z" />
    <glyph glyph-name="i" unicode="i" horiz-adv-x="247" 
d="M246.561 184.755c9.80566 16.9023 40.0381 9.37793 28.9863 -10.2549c-26.8242 -47.6377 -52.4961 -98.9893 -88.8916 -140.233c-30.2217 -34.249 -79.5322 -65.1807 -127.202 -48.8545c-53.7354 18.4004 -66.9346 97.3447 -73.707 145.062
c-8.53711 60.1475 -1.97559 122.019 5.73047 181.838c3.21484 24.9648 31.7227 42.7969 54.6318 44.0801c21.4697 1.20312 47.3496 -14.7441 45.5381 -39.2832c-3.50684 -47.5098 -9.58301 -95.0557 -10.5996 -142.708
c-0.496094 -23.1572 -0.704102 -46.4707 1.15527 -69.5693c1.61816 -20.1172 2.20117 -41.1387 9.24707 -60.2793c2.43848 -6.62988 6.90039 -17.7764 12.6484 -22.1797c8.61328 -6.59375 20.5107 0.397461 28.6865 5.61035
c17.4268 11.1064 31.4346 27.6445 43.7764 43.9854c26.5908 35.208 47.9033 74.6914 70 112.786zM44.4668 395.872c-4.94629 -1.64355 -10.1836 -1.45996 -14.2334 1.74414c-31.4609 24.8408 -60.3301 46.1533 -81.4277 81.2266
c-17.8828 29.7256 -35.4922 70.5322 -24.291 105.558c6.14551 19.21 26.9658 38.9482 48.5479 34.3047c16.7637 -3.6084 24.5674 -19.4355 31.5039 -33.4912c10.8662 -22.0127 18.8594 -45.8037 26.292 -69.6611c9.35352 20.9883 18.8486 41.7979 34.6504 59.9834
c19.2461 22.1514 57.5088 55.6748 86.4473 28.5049c27.0869 -25.4355 2.87598 -74.6621 -13.0566 -99.3242c-22.8799 -35.415 -50.0723 -68.8398 -77.5957 -100.72c-4.91016 -5.68652 -11.001 -8.06641 -16.8369 -8.125z" />
    <glyph glyph-name="i" unicode="&#xef;" horiz-adv-x="247" 
d="M246.561 184.755c9.80566 16.9023 40.0381 9.37793 28.9863 -10.2549c-26.8242 -47.6377 -52.4961 -98.9893 -88.8916 -140.233c-30.2217 -34.249 -79.5322 -65.1807 -127.202 -48.8545c-53.7354 18.4004 -66.9346 97.3447 -73.707 145.062
c-8.53711 60.1475 -1.97559 122.019 5.73047 181.838c3.21484 24.9648 31.7227 42.7969 54.6318 44.0801c21.4697 1.20312 47.3496 -14.7441 45.5381 -39.2832c-3.50684 -47.5098 -9.58301 -95.0557 -10.5996 -142.708
c-0.496094 -23.1572 -0.704102 -46.4707 1.15527 -69.5693c1.61816 -20.1172 2.20117 -41.1387 9.24707 -60.2793c2.43848 -6.62988 6.90039 -17.7764 12.6484 -22.1797c8.61328 -6.59375 20.5107 0.397461 28.6865 5.61035
c17.4268 11.1064 31.4346 27.6445 43.7764 43.9854c26.5908 35.208 47.9033 74.6914 70 112.786zM44.4668 395.872c-4.94629 -1.64355 -10.1836 -1.45996 -14.2334 1.74414c-31.4609 24.8408 -60.3301 46.1533 -81.4277 81.2266
c-17.8828 29.7256 -35.4922 70.5322 -24.291 105.558c6.14551 19.21 26.9658 38.9482 48.5479 34.3047c16.7637 -3.6084 24.5674 -19.4355 31.5039 -33.4912c10.8662 -22.0127 18.8594 -45.8037 26.292 -69.6611c9.35352 20.9883 18.8486 41.7979 34.6504 59.9834
c19.2461 22.1514 57.5088 55.6748 86.4473 28.5049c27.0869 -25.4355 2.87598 -74.6621 -13.0566 -99.3242c-22.8799 -35.415 -50.0723 -68.8398 -77.5957 -100.72c-4.91016 -5.68652 -11.001 -8.06641 -16.8369 -8.125z" />
    <glyph glyph-name="i" unicode="&#xee;" horiz-adv-x="247" 
d="M246.561 184.755c9.80566 16.9023 40.0381 9.37793 28.9863 -10.2549c-26.8242 -47.6377 -52.4961 -98.9893 -88.8916 -140.233c-30.2217 -34.249 -79.5322 -65.1807 -127.202 -48.8545c-53.7354 18.4004 -66.9346 97.3447 -73.707 145.062
c-8.53711 60.1475 -1.97559 122.019 5.73047 181.838c3.21484 24.9648 31.7227 42.7969 54.6318 44.0801c21.4697 1.20312 47.3496 -14.7441 45.5381 -39.2832c-3.50684 -47.5098 -9.58301 -95.0557 -10.5996 -142.708
c-0.496094 -23.1572 -0.704102 -46.4707 1.15527 -69.5693c1.61816 -20.1172 2.20117 -41.1387 9.24707 -60.2793c2.43848 -6.62988 6.90039 -17.7764 12.6484 -22.1797c8.61328 -6.59375 20.5107 0.397461 28.6865 5.61035
c17.4268 11.1064 31.4346 27.6445 43.7764 43.9854c26.5908 35.208 47.9033 74.6914 70 112.786zM44.4668 395.872c-4.94629 -1.64355 -10.1836 -1.45996 -14.2334 1.74414c-31.4609 24.8408 -60.3301 46.1533 -81.4277 81.2266
c-17.8828 29.7256 -35.4922 70.5322 -24.291 105.558c6.14551 19.21 26.9658 38.9482 48.5479 34.3047c16.7637 -3.6084 24.5674 -19.4355 31.5039 -33.4912c10.8662 -22.0127 18.8594 -45.8037 26.292 -69.6611c9.35352 20.9883 18.8486 41.7979 34.6504 59.9834
c19.2461 22.1514 57.5088 55.6748 86.4473 28.5049c27.0869 -25.4355 2.87598 -74.6621 -13.0566 -99.3242c-22.8799 -35.415 -50.0723 -68.8398 -77.5957 -100.72c-4.91016 -5.68652 -11.001 -8.06641 -16.8369 -8.125z" />
    <glyph glyph-name="i" unicode="&#xed;" horiz-adv-x="247" 
d="M246.561 184.755c9.80566 16.9023 40.0381 9.37793 28.9863 -10.2549c-26.8242 -47.6377 -52.4961 -98.9893 -88.8916 -140.233c-30.2217 -34.249 -79.5322 -65.1807 -127.202 -48.8545c-53.7354 18.4004 -66.9346 97.3447 -73.707 145.062
c-8.53711 60.1475 -1.97559 122.019 5.73047 181.838c3.21484 24.9648 31.7227 42.7969 54.6318 44.0801c21.4697 1.20312 47.3496 -14.7441 45.5381 -39.2832c-3.50684 -47.5098 -9.58301 -95.0557 -10.5996 -142.708
c-0.496094 -23.1572 -0.704102 -46.4707 1.15527 -69.5693c1.61816 -20.1172 2.20117 -41.1387 9.24707 -60.2793c2.43848 -6.62988 6.90039 -17.7764 12.6484 -22.1797c8.61328 -6.59375 20.5107 0.397461 28.6865 5.61035
c17.4268 11.1064 31.4346 27.6445 43.7764 43.9854c26.5908 35.208 47.9033 74.6914 70 112.786zM44.4668 395.872c-4.94629 -1.64355 -10.1836 -1.45996 -14.2334 1.74414c-31.4609 24.8408 -60.3301 46.1533 -81.4277 81.2266
c-17.8828 29.7256 -35.4922 70.5322 -24.291 105.558c6.14551 19.21 26.9658 38.9482 48.5479 34.3047c16.7637 -3.6084 24.5674 -19.4355 31.5039 -33.4912c10.8662 -22.0127 18.8594 -45.8037 26.292 -69.6611c9.35352 20.9883 18.8486 41.7979 34.6504 59.9834
c19.2461 22.1514 57.5088 55.6748 86.4473 28.5049c27.0869 -25.4355 2.87598 -74.6621 -13.0566 -99.3242c-22.8799 -35.415 -50.0723 -68.8398 -77.5957 -100.72c-4.91016 -5.68652 -11.001 -8.06641 -16.8369 -8.125z" />
    <glyph glyph-name="j" unicode="j" horiz-adv-x="195" 
d="M202.835 180.658c17.4707 13.2129 34.416 -10.4541 17.2441 -23.7334c-41.5537 -32.1426 -81.0186 -66.8799 -118.22 -103.889c0.824219 -46.0918 0.645508 -92.2051 -1.15918 -138.246c-4.64062 -118.537 -19.8115 -250.273 -94.3643 -347.269
c-28.5557 -37.1504 -81.9014 -75.6055 -131.624 -64.6084c-54.5342 12.0615 -75.4932 71.4326 -71.1631 121.443c5.16504 59.6738 30.3018 116.978 59.1084 168.781c27.8115 50.0107 59.9102 97.8887 94.4941 143.452c13.8516 18.251 28.2383 36.0752 43.085 53.4951
c-0.0146484 0.313477 -0.0253906 0.633789 -0.0400391 0.947266c-2.52637 59.6768 -6.75098 119.292 -10.3672 178.907c-3.6084 59.5098 -8.94141 120.356 -3.85254 179.898c2.37988 27.8555 20.9111 51.6211 49.7695 56.3818
c26.999 4.4502 49.2305 -12.3203 52.2451 -39.166c8.37305 -74.5566 8.13281 -150.764 11.2061 -225.714c0.630859 -15.4219 1.16699 -30.8555 1.63379 -46.292c32.5068 30.2354 66.5703 58.8086 102.004 85.6104zM-15.6514 -328.371
c20.9668 87.0186 20.9814 179.888 17.8066 269.925c-8.90527 -11.209 -17.6318 -22.5674 -26.1611 -34.0752c-31.6572 -42.7021 -60.9814 -87.4961 -86.1582 -134.343c-24.8809 -46.2959 -48.6943 -99.0508 -50.499 -152.414
c-0.900391 -26.6494 5.41992 -54.5635 26.5791 -72.4932c17.0703 -14.4639 42.4688 -17.5293 59.6738 -1.70996c16.7236 15.3789 28.1514 40.1035 37.2129 60.4941c9.21875 20.7441 16.2354 42.5674 21.5459 64.6162zM19.793 434.067
c-31.4609 24.8408 -60.3291 46.1523 -81.4229 81.2285c-17.8828 29.7256 -35.4922 70.5322 -24.291 105.558c6.14551 19.21 26.9658 38.9482 48.5479 34.3047c16.7637 -3.6084 24.5674 -19.4355 31.5039 -33.4912c10.8662 -22.0127 18.8594 -45.8037 26.292 -69.6611
c9.35352 20.9883 18.8486 41.7979 34.6504 59.9834c19.2461 22.1514 57.5088 55.6748 86.4473 28.5049c27.0869 -25.4355 2.87598 -74.6621 -13.0566 -99.3242c-22.8799 -35.415 -50.0723 -68.8398 -77.5957 -100.72c-4.91016 -5.68652 -11.001 -8.06641 -16.8369 -8.125
c-4.94629 -1.64355 -10.1846 -1.45801 -14.2383 1.74219z" />
    <glyph glyph-name="k" unicode="k" horiz-adv-x="467" 
d="M465.009 157.533c10.7168 17.5361 42.793 9.78027 30.6982 -10.8584c-23.6533 -40.3877 -48.334 -81.5439 -85.9033 -110.632c-35.6738 -27.6221 -79.8047 -43.4346 -125.251 -42.0098c-49.6533 1.55664 -94.5645 35.9082 -119.074 77.3604
c-12.2988 20.7949 -22.0059 44.1924 -27.998 67.5723c-1.9209 7.49805 -3.99512 15.0547 -5.23438 22.6914c-13.9023 -37.6025 -24.4951 -76.4258 -32.1318 -114.918c0.750977 -15.834 1.8916 -31.752 -0.266602 -47.4258
c-2.3916 -17.3838 -5.44629 -34.5703 -8.98535 -51.7529c-4.1084 -19.9385 -31.9424 -25.1768 -41.1465 -7.01367c-10.3447 20.416 -21.1416 40.8613 -25.6465 63.3691c-4.34082 21.6768 -8.80957 43.2559 -12.2578 65.0967
c-6.8457 43.3877 -13.4287 86.6729 -18.1416 130.355c-9.27344 85.9473 -15.5469 171.949 -15.6709 258.436c-0.185547 127.388 9.19336 257.782 46.4609 380.264c14.6025 47.9912 31.7412 95.4971 62.083 135.932c24.1777 32.2188 63.2969 56.9141 104.406 44.0947
c26.9111 -8.39062 36.6436 -32.5137 41.5938 -58.3682c6.90039 -36.0537 8.11816 -73.2295 6.18652 -109.83c-3.90723 -74.1113 -18.0469 -148.109 -35.835 -220.03c-29.4336 -119.008 -72.0264 -234.115 -116.839 -348.137
c2.22754 -38.6592 4.76074 -77.2969 7.29785 -115.993c0.30957 -4.73828 0.633789 -9.48438 0.954102 -14.2266c5.24121 14.8789 10.9277 29.6162 17.1094 44.1748c19.8184 46.6787 43.9482 93.4961 75.5586 133.384c23.4961 29.6455 75.3652 80.8662 117.987 63.2061
c18.4004 -7.62207 25.6318 -29.1494 21.9727 -47.5605c-4.44727 -22.3584 -21.583 -40.5186 -37.957 -55.252c-32.3936 -29.1494 -71.5635 -50.8809 -110.216 -71.6035c8.61719 -5.7666 18.04 -11.2305 24.0723 -20.9736
c10.2285 -16.5156 17.1582 -35.2441 26.6357 -52.2119c17.4492 -31.2422 38.0107 -61.3506 66.4746 -83.4766c13.1299 -10.2061 26.3066 -18.6953 43.3984 -18.1123c19.21 0.652344 38.1934 10.2715 53.1348 21.8008c31.3076 24.1592 52.2197 59.4248 72.5303 92.6494z
M82.0068 363.838c35.9805 96.6924 68.6133 194.595 91.2051 295.37c15.2402 67.9512 27.9941 138.265 28.2021 208.097c0.0908203 29.4561 -0.704102 67.667 -15.1748 94.2324c-2.49707 4.58594 -5.18359 8.27832 -9.96973 10.2578
c1.46191 -0.601562 -3.50977 -0.736328 -3.75 -0.470703c-0.37207 -0.109375 -0.824219 -0.233398 -1.28027 -0.353516c-0.72168 -0.422852 -1.67285 -1.12598 -2.42383 -1.73145c-1.56738 -1.79004 -5.03027 -5.95996 -5.36914 -6.11719
c-1.68359 -2.60254 -4.10742 -6.44824 -5.55469 -8.74512c-0.630859 -1.15527 -3.57617 -6.22168 -4.33398 -7.61426c-2.24512 -4.12988 -4.29395 -8.36523 -6.22266 -12.6514c-0.911133 -2.02344 -5.83887 -14.4746 -3.25781 -7.46484
c-2.26758 -6.15332 -4.5127 -12.3135 -6.79785 -18.4629c-0.0546875 -0.193359 -0.248047 -0.761719 -0.664062 -1.9502c-0.674805 -1.93164 -1.36035 -3.86035 -2.0166 -5.7998c-1.78223 -5.25977 -3.46289 -10.5557 -5.06641 -15.8701
c-11.7227 -38.9072 -19.0752 -78.9922 -25.9756 -118.986c-21.9541 -127.234 -26.8672 -257.509 -22.2129 -386.351c0.185547 -5.13574 0.455078 -10.2568 0.663086 -15.3887zM209.39 305.59c-12.9912 -17.0293 -24.7725 -35.1436 -35.5322 -53.9922
c37.085 19.5195 75.4854 40.832 103.101 70.8965c7.08984 7.7207 17.5107 18.8857 14.7842 30.4004c-3.67773 15.5283 -22.9746 4.58984 -31.5879 -0.203125c-20.4453 -11.373 -36.7061 -28.6797 -50.7646 -47.1016z" />
    <glyph glyph-name="l" unicode="l" horiz-adv-x="284" 
d="M281.84 192.188c5.38379 16.9971 36.5391 17.793 30.5068 -2.32812c-17.125 -57.2275 -33.9541 -116.847 -65.7832 -167.965c-14.8281 -23.8164 -33.2539 -46.7656 -58.6523 -59.8262c-31.6465 -16.2793 -70.3203 -10.2031 -98.5586 10.9824
c-63.1035 47.3418 -81.6533 140.291 -94.4766 213.13c-15.0508 85.4951 -18.7578 172.678 -16.0674 259.317c2.7959 90.0654 10.4473 179.924 23.4854 269.086c12.5029 85.502 31.9199 173.833 66.1396 253.492c15.2842 35.5762 39.6621 78.0889 76.0908 95.3594
c34.3877 16.3047 66.6172 1.02832 78.9775 -33.8438c13.6504 -38.5098 12.7832 -82.0322 10.1768 -122.23c-2.48926 -38.4121 -7.81152 -76.6631 -15.4365 -114.386c-27.666 -136.876 -83.7559 -265.368 -132.877 -395.68
c-0.616211 -65.6074 2.12109 -130.748 9.1709 -196.147c7.02441 -65.1445 15.8018 -136.376 48.2832 -194.325c6.76855 -12.0723 14.0801 -22.585 28.8936 -17.085c8.10254 3.01074 15.3926 8.63477 21.6221 14.5029c16.4502 15.4951 28.293 35.707 38.5176 55.6309
c21.5967 42.0967 35.75 87.3574 49.9873 132.315zM101.483 652.466c-4.47266 -50.6152 -9.12793 -101.183 -12.2773 -151.863c35.9951 93.4375 70.7402 187.312 91.167 285.543c7.43262 35.7471 12.9326 71.9209 15.4551 108.36
c2.45996 35.5244 3.47363 71.8145 -7.23926 106.194c-3.44434 11.0518 -10.8105 34.7188 -20.5576 15.4951c-6.26562 -12.3535 -10.2754 -27.1162 -14.4307 -40.3291c-10.5127 -33.4072 -18.6846 -67.2402 -24.5205 -101.77
c-12.4004 -73.3604 -21.0498 -147.53 -27.5967 -221.631z" />
    <glyph glyph-name="m" unicode="m" horiz-adv-x="592" 
d="M591.848 158.143c9.5498 17.4307 39.6523 10.1025 29.4062 -10.4043c-14.4053 -28.8467 -32.7363 -55.7803 -54.6143 -79.502c-19.7451 -21.4004 -45.5635 -43.0635 -76.248 -43.5811c-77.5273 -1.30859 -107.388 70.9619 -113.198 137.882
c-3.14551 36.2061 -0.87793 72.624 -1.10059 108.874c-0.0947266 15.9512 0.623047 31.8623 0.875 47.8164c0.134766 8.63477 -0.0478516 17.2373 -0.0371094 25.8652c-0.386719 3.61621 -0.298828 7.2207 0.258789 10.8145
c1.41113 5.36914 0.722656 6.56836 -2.06543 3.59766c-9.03223 -0.816406 -20.2812 -35.9297 -23.1787 -43.1328c-7.0752 -17.5879 -13.29 -35.5176 -18.8086 -53.6514c-10.5996 -34.8213 -18.3057 -70.3721 -23.584 -106.378
c-0.208008 -1.42188 -0.594727 -2.73047 -1.10156 -3.94824c-10.0898 -39.957 -78.668 -52.3066 -85.2109 -2.29297c-6.53223 49.9268 -6.70703 101.461 -8.54395 151.744c-0.357422 9.75781 3.46289 63.333 -10.2646 65.8408
c-15.0723 2.75586 -33.6074 -41.3857 -38.5176 -51.0928c-42.8916 -84.7949 -67.3135 -181.903 -86.4023 -274.729c-0.885742 -6.37891 -1.93164 -12.7178 -3.25488 -18.9873c-3.42969 -16.2568 -30.0674 -33.4326 -44.6875 -19.293
c-22.3916 21.6553 -29.0947 49.6309 -34.4307 79.3672c-5.60254 31.2236 -8.00098 62.7822 -10.042 94.4141c-4.0166 62.2939 -4.03809 125.408 -0.583008 187.71c1.47656 26.6348 20.6533 49.5078 47.6309 53.958c24.0176 3.96191 49.668 -11.417 50 -37.4795
c0.772461 -60.3369 -1.69141 -120.787 -2.62109 -181.135c-0.0947266 -6.25098 -0.0761719 -12.5566 -0.0107422 -18.8916c3.69238 12.6553 7.53809 25.2744 11.624 37.8281c17.0918 52.5186 35.8018 110.205 70.1602 154.325
c12.8779 16.5342 34.7041 33.6367 56.957 25.4795c20.1533 -7.38867 35.5352 -32.8389 45.0703 -50.6416c14.6709 -27.3965 24.9863 -58.168 32.0254 -89.7852c0.620117 2.19043 1.21777 4.38867 1.86328 6.57617c9.41504 32.0215 19.7197 66.7988 36.7207 95.7441
c14.0449 23.9121 36.0098 42.917 64.46 31.6104c32.1094 -12.7617 45.1553 -38.9912 56.2002 -70.5576c12.0684 -34.5039 13.9424 -73.0654 16.8076 -109.257c2.81738 -35.5977 7.0127 -71.1406 9.11621 -106.768c0.685547 -11.6094 0.678711 -29.8965 8.3584 -39.501
c11.5107 -14.3906 32.3203 3.22949 41.5938 11.7812c24.3525 22.4531 43.5547 50.9102 59.3779 79.7793z" />
    <glyph glyph-name="n" unicode="n" horiz-adv-x="419" 
d="M419.531 162.389c6.97266 18.2471 36.6377 10.3506 28.5527 -10.1016c-13.6943 -34.6426 -31.3945 -67.3027 -53.043 -97.626c-19.21 -26.9111 -42.4258 -57.2051 -75.6943 -66.4521c-27.6191 -7.67676 -57.877 1.19531 -80.9609 17.5107
c-30.7275 21.7178 -38.1963 63.6836 -41.6924 98.5957c-6.8125 68.002 8.7666 138.104 10.5312 206.172c0.225586 8.64941 -0.0839844 17.2842 0.105469 25.9307c0.0478516 2.08887 1.1377 8.84277 0.361328 11.5732c-2.26758 7.97168 0.757812 3.72852 -4.81152 2.08105
c-11.332 -3.34961 -23.4883 -24.5928 -29.6816 -33.8916c-18.874 -28.3369 -33.7715 -59.666 -46.2227 -91.291c-25.2314 -64.0947 -39.8916 -131.864 -54.4209 -199.003c-0.34668 -1.59668 -0.912109 -3.05078 -1.63379 -4.38086
c-0.616211 -3.73633 -1.44043 -7.44336 -2.67578 -10.8809c-1.0791 -4.24316 -3.05859 -8.02344 -5.93457 -11.3291c-0.178711 -0.170898 -0.294922 -0.280273 -0.462891 -0.44043c-4.0752 -5.33984 -10.5195 -8.19434 -17.0371 -9.52441
c-7.62207 -1.55664 -17.1279 1.14844 -21.6113 7.85938c-17.5801 26.3242 -22.4277 58.7139 -27.1846 89.46c-4.67285 30.207 -8.24512 60.4795 -9.91504 91c-3.48145 63.5986 -3.24414 127.176 5.41309 190.374c5.73047 41.8604 85.7686 53.6338 84.3037 4.03906
c-1.91406 -64.7949 -6.24121 -129.43 -4.7832 -194.294c0.12793 -5.70117 0.266602 -11.4053 0.401367 -17.1094c8.6748 30.5127 18.7021 60.6172 31.0117 89.9785c12.7686 30.4541 27.9395 60.1943 46.8613 87.3135c15.0723 21.6006 38.667 51.4277 68.5713 47.7461
c28.5156 -3.50977 45.9756 -35.5791 55.54 -59.0898c13.1006 -32.2041 15.5498 -68.0752 17.2119 -102.427c1.61816 -33.4141 0.524414 -66.9268 2.13574 -100.389c0.875 -18.1484 2.63965 -36.042 4.40039 -54.0996c1.10449 -11.3359 -0.827148 -27.4287 4.55273 -37.8096
c18.0068 -34.7559 60.1582 25.9561 69.9854 39.749c19.9346 27.9873 35.5791 58.708 47.8262 90.7559z" />
    <glyph glyph-name="o" unicode="o" horiz-adv-x="319" 
d="M332.097 199.532c20.1719 10.1191 27.3936 -18.9346 9.20801 -28.2803c-36.2031 -18.5938 -79.0693 -32.8281 -122.767 -38.668c-3.24805 -14.1211 -7.37402 -28.0381 -12.4883 -41.6162c-16.002 -42.498 -43.3398 -93.2305 -88.1709 -110.537
c-57.1221 -22.0527 -99.543 23.2119 -118.756 72.4385c-20.0518 51.3848 -17.4053 107.796 -11.3066 161.521c0.717773 6.33105 3.3457 12.1299 7.14355 17.2656c-10.5674 23.9775 -14.4932 50.5498 -10.3232 77.7422c7.05273 45.9824 36.9824 91.6592 81.2148 109.294
c44.8965 17.9014 92.042 2.57422 119.967 -36.209c28.8984 -40.1318 37.6797 -96.2334 40.8438 -144.509c1.58594 -24.2109 0.885742 -48.6367 -2.25977 -72.7236c37.8799 5.33984 75.0488 17.9082 107.694 34.2822zM140.506 41.9863
c20.8174 24.4766 34.1982 55.1309 41.9473 87.7793c-38.4336 -0.791016 -76.2549 5.83594 -109.549 22.6104c-1.31934 -21.5713 -1.19922 -43.1133 2.89062 -63.9814c5.58789 -28.5186 30.8047 -86.2705 64.7109 -46.4082zM188.336 162.484
c4.29395 34.1357 3.33105 68.9209 -1.03906 99.9365c-5.30371 37.6279 -14.4707 83.6182 -43.1934 110.88c-30.8809 29.3066 -74.7129 21.7471 -100.641 -10.0088c-28.0303 -34.333 -30.5635 -75.165 -16.2383 -110.565c3.48438 0.925781 6.93945 1.53809 10.2422 1.72363
c19.4502 1.08984 43.1143 -13.4033 41.3867 -35.7002c-0.674805 -8.70801 -1.5498 -17.5293 -2.44238 -26.4121c6.27344 -4.29395 12.9258 -8.13184 19.9385 -11.3799c28.8213 -13.3486 60.2305 -18.8164 91.9863 -18.4736z" />
    <glyph glyph-name="o" unicode="&#xf6;" horiz-adv-x="319" 
d="M332.097 199.532c20.1719 10.1191 27.3936 -18.9346 9.20801 -28.2803c-36.2031 -18.5938 -79.0693 -32.8281 -122.767 -38.668c-3.24805 -14.1211 -7.37402 -28.0381 -12.4883 -41.6162c-16.002 -42.498 -43.3398 -93.2305 -88.1709 -110.537
c-57.1221 -22.0527 -99.543 23.2119 -118.756 72.4385c-20.0518 51.3848 -17.4053 107.796 -11.3066 161.521c0.717773 6.33105 3.3457 12.1299 7.14355 17.2656c-10.5674 23.9775 -14.4932 50.5498 -10.3232 77.7422c7.05273 45.9824 36.9824 91.6592 81.2148 109.294
c44.8965 17.9014 92.042 2.57422 119.967 -36.209c28.8984 -40.1318 37.6797 -96.2334 40.8438 -144.509c1.58594 -24.2109 0.885742 -48.6367 -2.25977 -72.7236c37.8799 5.33984 75.0488 17.9082 107.694 34.2822zM140.506 41.9863
c20.8174 24.4766 34.1982 55.1309 41.9473 87.7793c-38.4336 -0.791016 -76.2549 5.83594 -109.549 22.6104c-1.31934 -21.5713 -1.19922 -43.1133 2.89062 -63.9814c5.58789 -28.5186 30.8047 -86.2705 64.7109 -46.4082zM188.336 162.484
c4.29395 34.1357 3.33105 68.9209 -1.03906 99.9365c-5.30371 37.6279 -14.4707 83.6182 -43.1934 110.88c-30.8809 29.3066 -74.7129 21.7471 -100.641 -10.0088c-28.0303 -34.333 -30.5635 -75.165 -16.2383 -110.565c3.48438 0.925781 6.93945 1.53809 10.2422 1.72363
c19.4502 1.08984 43.1143 -13.4033 41.3867 -35.7002c-0.674805 -8.70801 -1.5498 -17.5293 -2.44238 -26.4121c6.27344 -4.29395 12.9258 -8.13184 19.9385 -11.3799c28.8213 -13.3486 60.2305 -18.8164 91.9863 -18.4736z" />
    <glyph glyph-name="o" unicode="&#xf5;" horiz-adv-x="319" 
d="M332.097 199.532c20.1719 10.1191 27.3936 -18.9346 9.20801 -28.2803c-36.2031 -18.5938 -79.0693 -32.8281 -122.767 -38.668c-3.24805 -14.1211 -7.37402 -28.0381 -12.4883 -41.6162c-16.002 -42.498 -43.3398 -93.2305 -88.1709 -110.537
c-57.1221 -22.0527 -99.543 23.2119 -118.756 72.4385c-20.0518 51.3848 -17.4053 107.796 -11.3066 161.521c0.717773 6.33105 3.3457 12.1299 7.14355 17.2656c-10.5674 23.9775 -14.4932 50.5498 -10.3232 77.7422c7.05273 45.9824 36.9824 91.6592 81.2148 109.294
c44.8965 17.9014 92.042 2.57422 119.967 -36.209c28.8984 -40.1318 37.6797 -96.2334 40.8438 -144.509c1.58594 -24.2109 0.885742 -48.6367 -2.25977 -72.7236c37.8799 5.33984 75.0488 17.9082 107.694 34.2822zM140.506 41.9863
c20.8174 24.4766 34.1982 55.1309 41.9473 87.7793c-38.4336 -0.791016 -76.2549 5.83594 -109.549 22.6104c-1.31934 -21.5713 -1.19922 -43.1133 2.89062 -63.9814c5.58789 -28.5186 30.8047 -86.2705 64.7109 -46.4082zM188.336 162.484
c4.29395 34.1357 3.33105 68.9209 -1.03906 99.9365c-5.30371 37.6279 -14.4707 83.6182 -43.1934 110.88c-30.8809 29.3066 -74.7129 21.7471 -100.641 -10.0088c-28.0303 -34.333 -30.5635 -75.165 -16.2383 -110.565c3.48438 0.925781 6.93945 1.53809 10.2422 1.72363
c19.4502 1.08984 43.1143 -13.4033 41.3867 -35.7002c-0.674805 -8.70801 -1.5498 -17.5293 -2.44238 -26.4121c6.27344 -4.29395 12.9258 -8.13184 19.9385 -11.3799c28.8213 -13.3486 60.2305 -18.8164 91.9863 -18.4736z" />
    <glyph glyph-name="o" unicode="&#xf4;" horiz-adv-x="319" 
d="M332.097 199.532c20.1719 10.1191 27.3936 -18.9346 9.20801 -28.2803c-36.2031 -18.5938 -79.0693 -32.8281 -122.767 -38.668c-3.24805 -14.1211 -7.37402 -28.0381 -12.4883 -41.6162c-16.002 -42.498 -43.3398 -93.2305 -88.1709 -110.537
c-57.1221 -22.0527 -99.543 23.2119 -118.756 72.4385c-20.0518 51.3848 -17.4053 107.796 -11.3066 161.521c0.717773 6.33105 3.3457 12.1299 7.14355 17.2656c-10.5674 23.9775 -14.4932 50.5498 -10.3232 77.7422c7.05273 45.9824 36.9824 91.6592 81.2148 109.294
c44.8965 17.9014 92.042 2.57422 119.967 -36.209c28.8984 -40.1318 37.6797 -96.2334 40.8438 -144.509c1.58594 -24.2109 0.885742 -48.6367 -2.25977 -72.7236c37.8799 5.33984 75.0488 17.9082 107.694 34.2822zM140.506 41.9863
c20.8174 24.4766 34.1982 55.1309 41.9473 87.7793c-38.4336 -0.791016 -76.2549 5.83594 -109.549 22.6104c-1.31934 -21.5713 -1.19922 -43.1133 2.89062 -63.9814c5.58789 -28.5186 30.8047 -86.2705 64.7109 -46.4082zM188.336 162.484
c4.29395 34.1357 3.33105 68.9209 -1.03906 99.9365c-5.30371 37.6279 -14.4707 83.6182 -43.1934 110.88c-30.8809 29.3066 -74.7129 21.7471 -100.641 -10.0088c-28.0303 -34.333 -30.5635 -75.165 -16.2383 -110.565c3.48438 0.925781 6.93945 1.53809 10.2422 1.72363
c19.4502 1.08984 43.1143 -13.4033 41.3867 -35.7002c-0.674805 -8.70801 -1.5498 -17.5293 -2.44238 -26.4121c6.27344 -4.29395 12.9258 -8.13184 19.9385 -11.3799c28.8213 -13.3486 60.2305 -18.8164 91.9863 -18.4736z" />
    <glyph glyph-name="o" unicode="&#xf3;" horiz-adv-x="319" 
d="M332.097 199.532c20.1719 10.1191 27.3936 -18.9346 9.20801 -28.2803c-36.2031 -18.5938 -79.0693 -32.8281 -122.767 -38.668c-3.24805 -14.1211 -7.37402 -28.0381 -12.4883 -41.6162c-16.002 -42.498 -43.3398 -93.2305 -88.1709 -110.537
c-57.1221 -22.0527 -99.543 23.2119 -118.756 72.4385c-20.0518 51.3848 -17.4053 107.796 -11.3066 161.521c0.717773 6.33105 3.3457 12.1299 7.14355 17.2656c-10.5674 23.9775 -14.4932 50.5498 -10.3232 77.7422c7.05273 45.9824 36.9824 91.6592 81.2148 109.294
c44.8965 17.9014 92.042 2.57422 119.967 -36.209c28.8984 -40.1318 37.6797 -96.2334 40.8438 -144.509c1.58594 -24.2109 0.885742 -48.6367 -2.25977 -72.7236c37.8799 5.33984 75.0488 17.9082 107.694 34.2822zM140.506 41.9863
c20.8174 24.4766 34.1982 55.1309 41.9473 87.7793c-38.4336 -0.791016 -76.2549 5.83594 -109.549 22.6104c-1.31934 -21.5713 -1.19922 -43.1133 2.89062 -63.9814c5.58789 -28.5186 30.8047 -86.2705 64.7109 -46.4082zM188.336 162.484
c4.29395 34.1357 3.33105 68.9209 -1.03906 99.9365c-5.30371 37.6279 -14.4707 83.6182 -43.1934 110.88c-30.8809 29.3066 -74.7129 21.7471 -100.641 -10.0088c-28.0303 -34.333 -30.5635 -75.165 -16.2383 -110.565c3.48438 0.925781 6.93945 1.53809 10.2422 1.72363
c19.4502 1.08984 43.1143 -13.4033 41.3867 -35.7002c-0.674805 -8.70801 -1.5498 -17.5293 -2.44238 -26.4121c6.27344 -4.29395 12.9258 -8.13184 19.9385 -11.3799c28.8213 -13.3486 60.2305 -18.8164 91.9863 -18.4736z" />
    <glyph glyph-name="p" unicode="p" horiz-adv-x="472" 
d="M484.162 175.992c20.7002 9.68848 28.2275 -19.7324 9.3457 -28.6953c-33.4287 -15.8672 -68.585 -26.9189 -103.644 -38.3174c-2.10645 -9.95801 -4.58105 -19.8213 -7.46387 -29.5391c-16.5488 -55.7627 -44.6777 -118.749 -103.155 -140.926
c-15.4912 -5.87207 -34.9521 -8.94141 -51.0342 -3.1748c-11.8096 4.23535 -20.1094 15.7578 -27.6143 25.166c-15.7178 19.7051 -12.6484 46.8135 -1.33789 67.875c20.7334 38.6045 60.293 63.0625 100.05 80.5439c4.27539 16.1113 7.4248 32.5469 9.67773 49.1064
c4.56738 33.5674 4.26465 67.9912 1.11133 101.689c-2.5332 27.043 -2.78125 63.7666 -20.248 86.3008c-42.2754 54.5371 -103.738 -113.773 -111.018 -137.707c-22.1328 -72.7734 -33.8477 -148.66 -45.417 -223.69c-10.8877 -70.627 -20.1025 -141.498 -29.1641 -212.38
c0.458984 -7.7207 0.779297 -15.4551 0.75 -23.1211c-0.0253906 -7.05664 -0.120117 -15.6885 -1.64355 -22.5742c-0.30957 -1.39941 -5.07324 -13.96 -5.00781 -12.6729c-0.688477 -13.7744 -11.5908 -21.9395 -24.6768 -22.417
c-28.749 -1.0498 -40.2998 29.9951 -47.9365 52.3535c-8.88281 26.0107 -13.7891 54.1289 -17.9121 81.248c-8.45996 55.6602 -12.71 111.849 -15.7021 168.03c-6.06152 113.726 -12.4189 230.065 0.0292969 343.525c2.90918 26.5283 19.3994 49.0693 47.3896 53.6875
c24.79 4.08984 48.166 -11.5107 49.752 -37.292c6.63086 -107.945 1.77148 -216.718 4.12207 -324.849c0.441406 -20.2812 0.864258 -40.5879 1.3418 -60.8945c9.84863 69.7227 21.8623 139.066 39.0703 206.916c17.9121 70.623 74.0205 262.696 182.309 205.326
c43.8242 -23.2188 65.5156 -79.8594 74.9785 -125.481c7.53027 -36.3154 8.70801 -73.9766 4.36719 -110.941c30.0537 9.59766 59.998 19.4756 88.6807 32.9043zM278.985 54.1289c2.19043 4.39258 4.22363 8.84668 6.15918 13.334
c-8.05566 -4.63281 -15.7539 -9.78711 -22.7705 -15.7725c-8.88281 -7.57812 -35.0576 -34.5664 -25.2637 -46.96c2.75586 1.23535 5.51562 2.45996 8.32617 3.52832c-4.5166 -1.7168 4.62891 3.72852 2.80957 1.69141c1.55664 1.52734 2.99316 3.31348 4.42969 4.87402
c11.8281 12.8633 18.0029 22.6611 26.3096 39.3047z" />
    <glyph glyph-name="q" unicode="q" horiz-adv-x="417" 
d="M444.502 174.873c-43.4385 -40.1172 -85.8359 -81.3252 -127.229 -123.535c0.229492 -4.99023 0.477539 -9.98438 0.750977 -14.9707c5.34375 -0.21875 10.6514 -0.750977 15.8457 -2.09961c16.7129 -4.33789 32.5693 -13.2607 45.4004 -24.7568
c29.6309 -26.5547 44.124 -63.4941 50.8496 -101.968c10.9062 -62.3818 10.7715 -132.67 -50.0391 -168.884c-32.0146 -19.0635 -66.2344 -7.4209 -90.1973 17.9922c-26.6123 28.2197 -38.5605 70.0361 -47.9688 106.749
c-20.7402 80.9346 -30.8447 165.464 -31.1582 249.023c-0.0839844 22.002 0.302734 44.0762 1.03516 66.1328c-8.26367 -27.8447 -17.3584 -55.4414 -28.2207 -82.3965c-12.499 -31.0088 -27.0391 -66.5664 -51.0459 -90.6562
c-21.499 -21.5752 -57.4463 -39.6143 -87.041 -25.7412c-71.5928 33.5605 -73.415 131.995 -65.0352 198.987c9.04688 72.3477 43.6709 151.413 112.617 185.05c31.9854 15.6045 68.458 18.3311 99.4922 -1.16992c11.3252 -7.11133 20.4629 -16.3154 28.2119 -26.6641
c1.3418 11.5986 3.08789 23.0732 5.46484 34.3252c7.54492 35.7178 75.1504 60.5732 87.3174 14.8828c10.4326 -39.1699 7.93164 -81.1396 7.29785 -121.312c-0.626953 -39.7715 -3.99512 -79.4658 -4.84766 -119.244
c-0.368164 -17.041 -0.389648 -34.0049 -0.105469 -50.9287c35.2188 34.7197 71.0684 68.7939 107.65 102.103c14.0732 12.8125 35.2617 -7.70605 20.9551 -20.9189zM178.414 180.54c10.1475 32.9912 18.1436 67.459 27.9746 101.077
c-11.6641 20.8135 -29.168 44.8633 -51.8516 34.7412c-20.8457 -9.29883 -34.6934 -25.7197 -44.0244 -41.3135c-25.7051 -42.9609 -38.875 -90.3467 -39.2578 -140.455c-0.193359 -25.3262 -1.1123 -51.1807 5.6709 -75.8467
c2.98145 -10.8408 6.58984 -22.1074 14 -30.7568c8.20898 -9.58301 10.6689 -8.06348 19.1396 0.8125c18.3164 19.1914 29.7441 48.21 40.041 72.2568c11.085 25.876 20.0371 52.5947 28.3076 79.4844zM339.894 -7.44727c-6.38281 4.00586 -12.8955 6.375 -19.4932 7.83984
c1.47656 -19.2715 3.22949 -38.5576 5.28125 -57.9092c3.43359 -32.3613 7.46484 -64.5107 14.0039 -96.4053c3.16406 -15.4258 7.4834 -30.5742 12.6816 -45.4209c2.48926 -7.10742 7.68359 -18.5381 14.8457 -22.0889c24.1162 -11.9482 31.2969 47.3574 31.5518 60.1514
c0.56543 28.3076 -2.74805 57.9238 -10.8477 85.0576c-8.21582 27.5381 -23.2119 53.207 -48.0234 68.7754z" />
    <glyph glyph-name="r" unicode="r" horiz-adv-x="386" 
d="M388.155 188.119c14.6172 14.8281 40.248 -1.22656 24.4062 -17.75c-19.3047 -20.1426 -27.9141 -52.2373 -38.8643 -77.4756c-10.7861 -24.8633 -21.8672 -49.6348 -34.5342 -73.6045c-22.3154 -42.2314 -51.3301 -95.9521 -97.8955 -114.399
c-59.8848 -23.7217 -98.377 31.2754 -111.94 83.5352c-15.6084 60.1475 -11.5186 121.709 -3.70703 182.549c-22.4062 -6.91504 -45.8369 -12.9365 -67.6348 -10.0605c-31.5986 4.16602 -54.9053 25.0742 -68.1182 53.2793
c-24.8926 53.127 -22.3701 133.125 21.0098 176.031c18.8271 18.6191 48.7422 40.2344 76.8604 30.8994c27.418 -9.10156 36.709 -36.5781 38.0068 -62.9902c2.33984 -47.6445 -17.6826 -101.683 -51.0967 -138.031c5.36914 -6.34961 11.7148 -11.7881 19.2275 -15.3672
c17.8281 -8.49316 42.5596 1.35938 61.3203 5.61328c6.56152 3.02148 13.4912 4.84766 19.9463 5.20898c19.5889 1.09668 41.8496 -13.1777 40.7305 -35.1357c-2.50098 -49.001 -7.96484 -98.5557 -4.61914 -147.637c1.5166 -22.2314 3.68164 -45.7861 9.53223 -67.3652
c1.8877 -6.95508 6.93652 -22.3408 14.8789 -24.7871c4.83008 -1.4834 14.0918 8.11035 18.415 12.6445c31.5479 33.0713 53.5566 75.4229 73.1309 116.295c9.94043 20.751 19.2207 41.8047 28.6211 62.7998c8.84277 19.7529 16.8984 40.0996 32.3242 55.748z
M58.2129 248.658c18.7031 24.3379 29.6387 56.2842 32.9297 85.4297c1.0166 9.02148 1.11914 59.6074 -18.6992 47.3125c-10.542 -6.53906 -13.0205 -29.208 -15.4883 -39.8877c-6.8125 -29.4922 -9.55371 -63.7773 1.25781 -92.8545z" />
    <glyph glyph-name="s" unicode="s" horiz-adv-x="296" 
d="M307.504 204.132c16.7568 9.45215 28.7158 -16.5215 13.0205 -25.6191c-58.3428 -33.8408 -115.764 -73.3096 -160.004 -124.585c14.8389 -20.4268 28.584 -41.5205 39.0449 -64.6631c16.29 -36.0391 15.7324 -82.5977 -16.1543 -110.085
c-23.376 -20.1572 -68.8809 -28.125 -96.6455 -13.0967c-46.9736 25.4277 -30.5527 82.5498 -5.3584 129.557c-34.2598 38.918 -67.8057 78.0117 -87.1787 127.829c-28.5811 73.4951 -23.1826 154.073 28.1182 216.127c20.2266 24.4619 51.9785 45.3369 84.9189 38.6523
c31.4092 -6.375 51.1289 -32.6045 62.0645 -61.043c6.96973 -18.1191 -24.1992 -32.4912 -32.4443 -13.6465c-7.29004 16.6611 -22.665 40.9883 -43.9775 38.9619c-18.9834 -1.80469 -29.915 -23.085 -34.5732 -39.2803
c-5.05176 -17.5654 -2.59863 -39.3955 -0.564453 -57.3838c2.21289 -19.5303 6.54688 -38.0693 13.8369 -56.3857c16.3154 -40.9922 43.2012 -75.2627 69.5986 -109.781c46.9736 51.2822 105.925 90.4014 166.298 124.442zM142.725 -95.5137
c5.59473 10.4355 -6.01855 25.0303 -11.9307 32.7246c-8.30664 10.8115 -17.0293 21.2656 -25.9014 31.5811c-10.6729 -22.9453 -17.5332 -48.8105 -2.91602 -64.874c7.97559 -8.7666 33.8223 -12.3457 40.748 0.568359z" />
    <glyph glyph-name="t" unicode="t" horiz-adv-x="249" 
d="M247.691 190.762c9.69922 16.9717 39.8408 9.50391 28.9893 -10.252c-31.4131 -57.1797 -49.2959 -121.274 -88.2686 -174.292c-16.1367 -21.9541 -33.7168 -45.5117 -60.417 -54.8545c-31.7451 -11.1104 -61.0518 -4.03125 -83.2461 21.0029
c-42.0605 47.4482 -48.5674 126.196 -54.8809 186.216c-7.02441 66.7773 -6.875 134.94 -6.07715 202.031c0.262695 22.1543 0.532227 44.4326 1.08301 66.7334c-7.34473 -0.700195 -14.6895 -1.46191 -22.0273 -2.30371
c-23.2627 -2.67188 -21.3779 29.6348 -0.831055 32.1025c7.96094 0.955078 15.9287 1.81543 23.9043 2.61328c1.56055 38.8633 4.39648 77.6689 10.0391 115.913c7.35938 49.8828 94.2246 61.7988 98.249 4.70605c2.67578 -37.9629 2.46484 -76.3311 1.33496 -114.714
c14.4053 0.113281 28.8174 -0.0214844 43.2295 -0.429688c23.4521 -0.663086 12.1484 -34.1211 -8.11426 -33.4395c-12.1016 0.404297 -24.1963 0.583008 -36.2793 0.604492c-1.0791 -27.5859 -2.33301 -55.124 -3.03613 -82.4619
c-1.91016 -74.0898 -3.79492 -149.178 2.3252 -223.114c2.7373 -33.0537 7.34473 -65.6553 16.4902 -97.542c2.26758 -7.90625 5.31152 -24.9033 14.5449 -28.2568c12.4189 -4.50879 27.0791 11.8975 33.4473 19.8477c40.2051 50.2002 57.9199 114.562 89.541 169.89z" />
    <glyph glyph-name="u" unicode="u" horiz-adv-x="498" 
d="M496.776 184.755c9.80566 16.9023 40.0361 9.37793 28.9844 -10.251c-26.8242 -47.6377 -52.5 -98.9893 -88.8926 -140.233c-30.2246 -34.249 -79.5312 -65.1807 -127.201 -48.8545c-53.7354 18.4004 -66.9346 97.3457 -73.707 145.063
c-2.60254 18.3311 -3.78711 36.8223 -3.98047 55.3643c-6.16406 -19.5703 -12.4629 -39.0938 -19.4502 -58.3867c-19.6582 -54.29 -41.6963 -112.982 -99.5508 -136.227c-72.5 -29.1279 -106.406 65.1191 -118.796 117.674
c-16.1152 68.3555 -15.4189 138.808 -8.70117 208.217c2.68652 27.7246 20.5615 51.334 49.5322 56.1123c25.3408 4.18066 51.1406 -11.9307 51.9971 -38.9766c1.85938 -58.7002 -0.713867 -117.688 4.22559 -176.272c2.2998 -27.2393 5.4707 -54.2744 11.376 -81
c2.45312 -11.1104 8.15723 -38.9443 23.3135 -38.8057c9.24414 0.0839844 20.0625 21.291 23.8203 28.2021c6.05762 11.1357 11.3027 22.7383 16.3369 34.3623c11.6318 26.8643 21.1787 54.541 30.3643 82.3164c8.99219 27.1885 17.5547 54.5225 27.127 81.5146
c5.54395 15.6338 10.4609 35.5137 18.8994 51.7852c5.58105 22.8213 32.2012 38.8193 53.8496 40.0332c21.4697 1.20312 47.3496 -14.7441 45.5381 -39.2832c-3.50684 -47.5098 -9.58301 -95.0557 -10.5996 -142.708
c-0.496094 -23.1572 -0.704102 -46.4707 1.15527 -69.5693c1.61816 -20.1172 2.20117 -41.1387 9.24707 -60.2793c2.43848 -6.62988 6.90039 -17.7764 12.6484 -22.1797c8.61328 -6.59375 20.5107 0.397461 28.6865 5.61035
c17.4268 11.1064 31.4385 27.6445 43.7773 43.9854c26.5908 35.208 47.9033 74.6914 70 112.786z" />
    <glyph glyph-name="u" unicode="&#xfc;" horiz-adv-x="498" 
d="M496.776 184.755c9.80566 16.9023 40.0361 9.37793 28.9844 -10.251c-26.8242 -47.6377 -52.5 -98.9893 -88.8926 -140.233c-30.2246 -34.249 -79.5312 -65.1807 -127.201 -48.8545c-53.7354 18.4004 -66.9346 97.3457 -73.707 145.063
c-2.60254 18.3311 -3.78711 36.8223 -3.98047 55.3643c-6.16406 -19.5703 -12.4629 -39.0938 -19.4502 -58.3867c-19.6582 -54.29 -41.6963 -112.982 -99.5508 -136.227c-72.5 -29.1279 -106.406 65.1191 -118.796 117.674
c-16.1152 68.3555 -15.4189 138.808 -8.70117 208.217c2.68652 27.7246 20.5615 51.334 49.5322 56.1123c25.3408 4.18066 51.1406 -11.9307 51.9971 -38.9766c1.85938 -58.7002 -0.713867 -117.688 4.22559 -176.272c2.2998 -27.2393 5.4707 -54.2744 11.376 -81
c2.45312 -11.1104 8.15723 -38.9443 23.3135 -38.8057c9.24414 0.0839844 20.0625 21.291 23.8203 28.2021c6.05762 11.1357 11.3027 22.7383 16.3369 34.3623c11.6318 26.8643 21.1787 54.541 30.3643 82.3164c8.99219 27.1885 17.5547 54.5225 27.127 81.5146
c5.54395 15.6338 10.4609 35.5137 18.8994 51.7852c5.58105 22.8213 32.2012 38.8193 53.8496 40.0332c21.4697 1.20312 47.3496 -14.7441 45.5381 -39.2832c-3.50684 -47.5098 -9.58301 -95.0557 -10.5996 -142.708
c-0.496094 -23.1572 -0.704102 -46.4707 1.15527 -69.5693c1.61816 -20.1172 2.20117 -41.1387 9.24707 -60.2793c2.43848 -6.62988 6.90039 -17.7764 12.6484 -22.1797c8.61328 -6.59375 20.5107 0.397461 28.6865 5.61035
c17.4268 11.1064 31.4385 27.6445 43.7773 43.9854c26.5908 35.208 47.9033 74.6914 70 112.786z" />
    <glyph glyph-name="u" unicode="&#xfb;" horiz-adv-x="498" 
d="M496.776 184.755c9.80566 16.9023 40.0361 9.37793 28.9844 -10.251c-26.8242 -47.6377 -52.5 -98.9893 -88.8926 -140.233c-30.2246 -34.249 -79.5312 -65.1807 -127.201 -48.8545c-53.7354 18.4004 -66.9346 97.3457 -73.707 145.063
c-2.60254 18.3311 -3.78711 36.8223 -3.98047 55.3643c-6.16406 -19.5703 -12.4629 -39.0938 -19.4502 -58.3867c-19.6582 -54.29 -41.6963 -112.982 -99.5508 -136.227c-72.5 -29.1279 -106.406 65.1191 -118.796 117.674
c-16.1152 68.3555 -15.4189 138.808 -8.70117 208.217c2.68652 27.7246 20.5615 51.334 49.5322 56.1123c25.3408 4.18066 51.1406 -11.9307 51.9971 -38.9766c1.85938 -58.7002 -0.713867 -117.688 4.22559 -176.272c2.2998 -27.2393 5.4707 -54.2744 11.376 -81
c2.45312 -11.1104 8.15723 -38.9443 23.3135 -38.8057c9.24414 0.0839844 20.0625 21.291 23.8203 28.2021c6.05762 11.1357 11.3027 22.7383 16.3369 34.3623c11.6318 26.8643 21.1787 54.541 30.3643 82.3164c8.99219 27.1885 17.5547 54.5225 27.127 81.5146
c5.54395 15.6338 10.4609 35.5137 18.8994 51.7852c5.58105 22.8213 32.2012 38.8193 53.8496 40.0332c21.4697 1.20312 47.3496 -14.7441 45.5381 -39.2832c-3.50684 -47.5098 -9.58301 -95.0557 -10.5996 -142.708
c-0.496094 -23.1572 -0.704102 -46.4707 1.15527 -69.5693c1.61816 -20.1172 2.20117 -41.1387 9.24707 -60.2793c2.43848 -6.62988 6.90039 -17.7764 12.6484 -22.1797c8.61328 -6.59375 20.5107 0.397461 28.6865 5.61035
c17.4268 11.1064 31.4385 27.6445 43.7773 43.9854c26.5908 35.208 47.9033 74.6914 70 112.786z" />
    <glyph glyph-name="u" unicode="&#xfa;" horiz-adv-x="498" 
d="M496.776 184.755c9.80566 16.9023 40.0361 9.37793 28.9844 -10.251c-26.8242 -47.6377 -52.5 -98.9893 -88.8926 -140.233c-30.2246 -34.249 -79.5312 -65.1807 -127.201 -48.8545c-53.7354 18.4004 -66.9346 97.3457 -73.707 145.063
c-2.60254 18.3311 -3.78711 36.8223 -3.98047 55.3643c-6.16406 -19.5703 -12.4629 -39.0938 -19.4502 -58.3867c-19.6582 -54.29 -41.6963 -112.982 -99.5508 -136.227c-72.5 -29.1279 -106.406 65.1191 -118.796 117.674
c-16.1152 68.3555 -15.4189 138.808 -8.70117 208.217c2.68652 27.7246 20.5615 51.334 49.5322 56.1123c25.3408 4.18066 51.1406 -11.9307 51.9971 -38.9766c1.85938 -58.7002 -0.713867 -117.688 4.22559 -176.272c2.2998 -27.2393 5.4707 -54.2744 11.376 -81
c2.45312 -11.1104 8.15723 -38.9443 23.3135 -38.8057c9.24414 0.0839844 20.0625 21.291 23.8203 28.2021c6.05762 11.1357 11.3027 22.7383 16.3369 34.3623c11.6318 26.8643 21.1787 54.541 30.3643 82.3164c8.99219 27.1885 17.5547 54.5225 27.127 81.5146
c5.54395 15.6338 10.4609 35.5137 18.8994 51.7852c5.58105 22.8213 32.2012 38.8193 53.8496 40.0332c21.4697 1.20312 47.3496 -14.7441 45.5381 -39.2832c-3.50684 -47.5098 -9.58301 -95.0557 -10.5996 -142.708
c-0.496094 -23.1572 -0.704102 -46.4707 1.15527 -69.5693c1.61816 -20.1172 2.20117 -41.1387 9.24707 -60.2793c2.43848 -6.62988 6.90039 -17.7764 12.6484 -22.1797c8.61328 -6.59375 20.5107 0.397461 28.6865 5.61035
c17.4268 11.1064 31.4385 27.6445 43.7773 43.9854c26.5908 35.208 47.9033 74.6914 70 112.786z" />
    <glyph glyph-name="v" unicode="v" horiz-adv-x="433" 
d="M455.983 197.946c20.5762 -5.14648 2.44824 -34.3838 -15.6348 -29.9336c-43.9961 10.8291 -96.4082 26.1748 -138.261 52.6777c-2.20117 -6.77637 -4.42871 -13.5303 -6.64844 -20.248c-15.3672 -46.4961 -29.1416 -93.8711 -46.3027 -139.733
c-14.4014 -38.4844 -33.4072 -94.166 -78.708 -104.365c-49.4014 -11.1172 -94.3193 27.998 -116.339 68.542c-48.7891 89.8359 -69.8135 190.939 -77.957 292.119c-2.0918 25.9785 21.0293 48.334 43.8545 55.2559c19.7559 5.98926 53.1807 -0.648438 57.5654 -25.6279
c14.5107 -82.707 26.999 -165.37 54.1729 -245.132c8.82812 -25.9131 19.0596 -64.2227 42.8438 -80.9316c5.11035 -3.59082 4.13379 -3.14941 7.4541 -1.29004c5.21582 2.91602 11.0879 13.3516 14.2988 18.1338c9.75098 14.5186 16.2939 30.5967 22.3594 46.9307
c19.3008 51.9932 38.9473 104.471 54.9639 157.82c-25.9385 23.5986 -43.8027 53.9873 -46.168 93.8027c-2.1582 36.2979 16.6904 83.9277 56.6699 91.4844c49.748 9.40039 51.7637 -47.4043 48.0967 -81.748c-3.25879 -30.502 -10.5596 -60.6465 -19.3184 -90.3066
c40.1211 -31.6211 94.1191 -45.21 143.058 -57.4502zM298.661 360.422c0.273438 13.9678 -1.41699 48.6309 -22.2744 28.4922c-25.082 -24.2285 -14.9268 -68.5635 1.27148 -94.5342c2.37305 -3.80176 4.88477 -7.43945 7.52734 -10.9238
c1.66895 6.46973 3.29492 12.9541 4.82227 19.4531c4.43945 18.8926 8.27051 38.0479 8.65332 57.5127z" />
    </font>
</defs>
</svg>
