<?xml version="1.0" standalone="no"?>
<!DOCTYPE svg PUBLIC "-//W3C//DTD SVG 1.1//EN" "http://www.w3.org/Graphics/SVG/1.1/DTD/svg11.dtd" >
<svg xmlns="http://www.w3.org/2000/svg" xmlns:xlink="http://www.w3.org/1999/xlink" version="1.1">
<metadata>
Created by FontForge 20170812 at Tue Mar  8 11:50:24 2022
 By www-data
</metadata>
<defs>
<font id="SmittsonRegular" horiz-adv-x="386" >
  <font-face 
    font-family="Smittson"
    font-weight="400"
    font-stretch="normal"
    units-per-em="1000"
    panose-1="0 0 0 0 0 0 0 0 0 0"
    ascent="800"
    descent="-200"
    x-height="269.031"
    cap-height="632.552"
    bbox="-178.785 -516.501 1088.96 885.425"
    underline-thickness="50"
    underline-position="-100"
    unicode-range="U+000A-20AC"
  />
<missing-glyph horiz-adv-x="527" 
d="M50 700h427v-700h-427v700zM78 680l185 -309l186 309h-371zM251 350l-180 300v-601zM264 329l-185 -308h370zM276 350l181 -303v605z" />
    <glyph glyph-name=".notdef" horiz-adv-x="527" 
d="M50 700h427v-700h-427v700zM78 680l185 -309l186 309h-371zM251 350l-180 300v-601zM264 329l-185 -308h370zM276 350l181 -303v605z" />
    <glyph glyph-name=".null" horiz-adv-x="0" 
 />
    <glyph glyph-name=".null" horiz-adv-x="0" 
 />
    <glyph glyph-name="LF" unicode="&#xa;" horiz-adv-x="0" 
 />
    <glyph glyph-name="controlCR" unicode="&#xd;" horiz-adv-x="0" 
 />
    <glyph glyph-name="space" unicode=" " 
 />
    <glyph glyph-name="exclam" unicode="!" horiz-adv-x="199" 
d="M146.86 59.8633c0.324219 -26.1309 -53.5771 -21.2803 -63.2617 -4.88086c-23.8516 40.3984 -23.2656 91.2588 -26.1113 136.885c-3.04883 48.8936 -4.04395 97.9668 -5.12891 146.935c-2.19043 99.0439 -4.82129 198.97 2.19336 297.854
c2.36133 33.3057 83.6904 33.2627 84.8418 0c3.38867 -97.8838 -0.117188 -196.037 0.834961 -293.983c0.920898 -94.2812 5.46484 -188.68 6.63184 -282.809zM144.218 -41.2314c4.49707 -18.2383 4.38965 -37.3115 5.18945 -56.0098
c0.609375 -14.2363 -22.2891 -18.3545 -32.2041 -18.3545c-10.5127 0 -32.373 4.11035 -32.2051 18.3545c0.199219 16.9336 -1.02246 35.0078 2.55762 51.6377c2.50195 11.6406 14.3301 15.2129 25.0107 16.1494c8.06543 0.710938 28.9736 -0.924805 31.6514 -11.7773z" />
    <glyph glyph-name="quotedbl" unicode="&#x22;" horiz-adv-x="237" 
d="M52.166 583.284c2.83398 25.2881 64.7217 21.1973 60.748 0c-5.43359 -29 -2.3418 -61.1855 -11.168 -89.1904c-4.30176 -13.6514 -32.8457 -9.65039 -38.877 -0.000976562c-15.751 25.2061 -13.8848 60.8154 -10.7031 89.1914zM131.175 570.242
c5.625 23.9414 63.0439 20.2988 55.4746 -4.28223c-3.98926 -12.9443 -6.06641 -26.0566 -7.31543 -39.4971c-1.08496 -11.6797 -0.328125 -24.8545 -6.49609 -35.1016c-5.19922 -8.63867 -20.4629 -7.72949 -27.3682 -2.03809
c-22.3252 18.3936 -20.2637 55.5059 -14.2949 80.9189z" />
    <glyph glyph-name="quotedbl" unicode="&#x201d;" horiz-adv-x="237" 
d="M52.166 583.284c2.83398 25.2881 64.7217 21.1973 60.748 0c-5.43359 -29 -2.3418 -61.1855 -11.168 -89.1904c-4.30176 -13.6514 -32.8457 -9.65039 -38.877 -0.000976562c-15.751 25.2061 -13.8848 60.8154 -10.7031 89.1914zM131.175 570.242
c5.625 23.9414 63.0439 20.2988 55.4746 -4.28223c-3.98926 -12.9443 -6.06641 -26.0566 -7.31543 -39.4971c-1.08496 -11.6797 -0.328125 -24.8545 -6.49609 -35.1016c-5.19922 -8.63867 -20.4629 -7.72949 -27.3682 -2.03809
c-22.3252 18.3936 -20.2637 55.5059 -14.2949 80.9189z" />
    <glyph glyph-name="quotedbl" unicode="&#x201c;" horiz-adv-x="237" 
d="M52.166 583.284c2.83398 25.2881 64.7217 21.1973 60.748 0c-5.43359 -29 -2.3418 -61.1855 -11.168 -89.1904c-4.30176 -13.6514 -32.8457 -9.65039 -38.877 -0.000976562c-15.751 25.2061 -13.8848 60.8154 -10.7031 89.1914zM131.175 570.242
c5.625 23.9414 63.0439 20.2988 55.4746 -4.28223c-3.98926 -12.9443 -6.06641 -26.0566 -7.31543 -39.4971c-1.08496 -11.6797 -0.328125 -24.8545 -6.49609 -35.1016c-5.19922 -8.63867 -20.4629 -7.72949 -27.3682 -2.03809
c-22.3252 18.3936 -20.2637 55.5059 -14.2949 80.9189z" />
    <glyph glyph-name="numbersign" unicode="#" horiz-adv-x="408" 
d="M347.491 338.244c5.3125 -0.425781 12.582 -4.38574 10.5557 -10.6123c-2.14355 -6.57422 -13.3467 -6.44531 -18.6084 -6.01953c-6.83887 0.554688 -13.6777 1.02734 -20.5205 1.46094c-1.97559 -21.6963 -3.9043 -43.3965 -5.71973 -65.1084
c4.81348 -0.265625 9.62695 -0.453125 14.4404 -0.769531c16.6885 -1.09668 16.9424 -16.9805 0.000976562 -15.8564c-5.23438 0.347656 -10.4727 0.566406 -15.707 0.855469c-0.683594 -8.41211 -1.37891 -16.8281 -2.02344 -25.2441
c-3.97363 -51.8877 -8.41211 -103.846 -10.9336 -155.823c-1.28027 -26.3652 -2.81445 -52.7539 -3.21289 -79.1504c-0.367188 -24.4404 2.94727 -51.165 -4.80176 -74.6494c-4.80566 -14.5605 -35.9844 -10.918 -42.4062 0.000976562
c-13.1826 22.4189 -14.2246 53.0273 -16.4219 78.4131c-2.1709 25.1123 -3.36133 50.1895 -3.12695 75.3916c0.484375 52.0518 3.75586 103.912 7.32031 155.823c0.625 9.10742 1.25781 18.2266 1.89062 27.3379c-22.8828 0.0273438 -45.7539 -0.496094 -68.6016 -1.62402
c-5.00879 -54.5107 -9.89258 -109.072 -11.7471 -163.802c-0.94043 -27.8486 -1.66309 -55.6699 -1.99512 -83.5303c-0.339844 -28.3057 2.75977 -59.2461 -3.67773 -86.9424c-4.15332 -17.8516 -40.5703 -19.585 -48.585 -3.74805
c-13.1592 25.998 -16.1025 58.2734 -19.1084 86.8984c-2.9043 27.6494 -4.00098 55.7285 -3.74316 83.5225c0.5 53.8037 3.70898 107.549 8.20215 161.153c-7.45215 -0.819336 -14.9121 -1.61523 -22.3564 -2.55957c-13.5928 -1.72559 -25.5615 12.7881 -7.31152 15.1182
c10.333 1.31934 20.6816 2.50195 31.0342 3.59082c1.82715 21.2168 3.61914 42.5117 5.46582 63.8447c-8.74023 -1.08105 -17.4727 -2.22852 -26.1934 -3.50098c-14.834 -2.16309 -27.7588 13.5645 -7.95898 16.4609c11.8867 1.74121 23.7891 3.30664 35.6992 4.7002
c7.58887 85.7676 16.665 171.948 34.1455 255.713c5.96094 28.5479 78.2061 29.9609 76 0c-6.125 -83.1357 -17.6328 -165.921 -27.458 -248.827c21.7549 1.10059 43.5332 1.63965 65.3232 1.61621c5.04785 65.1445 10.915 130.242 18.8047 195.027
c3.58398 29.4453 76.8867 28.3096 74.4746 0c-5.60547 -65.8154 -12.0898 -131.537 -18.1562 -197.306c9.00586 -0.535156 18.0117 -1.13281 27.0176 -1.85547zM239.307 260.056c1.52637 21.7861 3.10352 43.5762 4.74316 65.3623
c-22.0283 -0.00390625 -44.0449 -0.621094 -66.0381 -1.83887c-2.49805 -21.6846 -4.83984 -43.377 -6.91309 -65.0928c22.7197 1.08105 45.458 1.60059 68.208 1.56934z" />
    <glyph glyph-name="dollar" unicode="$" horiz-adv-x="405" 
d="M281.883 246.845c47.1602 -64.1133 106.951 -169.111 48.5137 -244.327c-27.0488 -34.8125 -67.5215 -51.793 -108.119 -51.25c0.386719 -12.5186 0.765625 -25.041 1.19531 -37.5596c0.40625 -11.8711 -30.167 -12.043 -30.5576 0
c-0.445312 13.7686 -0.84375 27.5332 -1.23828 41.3018c-22.6924 5.36328 -44.3301 16.4141 -62.459 33.1143c-61.0762 56.2637 -69.3281 181.118 0.917969 234.157c5.39062 4.0752 13.623 5.68359 20.0684 3.00195c4.00879 -1.6709 10.9258 -7.03027 5.26172 -11.4414
c-42.9404 -33.458 -50.4824 -101.226 -37.2295 -150.974c9.70801 -36.4482 36.7295 -73.6973 72.873 -88.1133c-2.50977 93.083 -3.86816 186.201 -4.04004 279.319c-37.1748 45.4697 -76.2969 89.5186 -105.383 140.754c-22.7471 40.0752 -37.4248 85.127 -29.5352 131.521
c7.76855 45.6768 31.4404 85.5332 70.0752 111.602c21.2979 14.3652 47.8584 24.0068 74.9854 27.3643c3.18945 35.6562 8.47852 71.0508 18.585 105.435c2.9707 10.1064 31.5811 7.86621 27.9971 -4.39941c-9.48242 -32.4668 -14.5654 -66.0576 -17.5947 -99.9414
c43.1787 -2.15527 83.5273 -21.9463 101.711 -66.0811c6.77637 -16.4424 -31.0732 -17.5586 -37.9941 -5.96875c-14.9199 24.9834 -39.6416 41.96 -65.7412 45.0283c-1.6748 -27.2119 -2.43164 -54.4668 -3.42676 -81.3477
c-2.61133 -70.5742 -3.34473 -141.219 -3.68848 -211.836c-0.0273438 -5.6875 -0.0195312 -11.375 -0.0390625 -17.0625c21.7314 -27.7119 44.5283 -54.6514 64.8623 -82.2969zM191.965 573.348c0.905273 21.0645 1.75293 42.251 3.08789 63.4092
c-9.60645 -2.98242 -18.9795 -8.1543 -27.6846 -15.8604c-38.6113 -34.1807 -45.4268 -92.4854 -33.7354 -140.219c10.0518 -41.0312 30.0029 -77.46 53.8311 -111.805c0.558594 68.1699 1.56543 136.359 4.50098 204.475zM225.455 -31.4561
c48.9756 1.45996 74.5918 42.207 69.3301 87.6377c-5.1416 44.334 -29.1299 87.7383 -53.0596 124.71c-7.72559 11.9336 -15.9658 23.4922 -24.4795 34.8555c0.585938 -82.4141 2.07324 -164.82 4.48926 -247.203c1.2334 -0.0195312 2.4707 -0.0390625 3.71973 0z" />
    <glyph glyph-name="percent" unicode="%" horiz-adv-x="532" 
d="M452.515 587.048c10.0791 -1.6123 37.1875 -12.2656 27.2881 -27.3965c-70.5391 -107.765 -139.571 -215.798 -203.014 -327.966c-31.4678 -55.627 -61.4131 -112.09 -90.9326 -168.774c-14.5254 -27.8877 -28.4385 -56.0762 -42.71 -84.0928
c-15.0801 -29.6055 -28.3682 -61.7832 -50.4551 -86.9541c-7.60449 -8.66602 -43.46 -10.4307 -42.6797 6.58887c1.42871 31.1396 17.8242 62.0176 29.7461 90.3271c12.0273 28.5674 25.1396 56.7129 38.2324 84.7998c26.7754 57.4307 55.7832 113.8 85.8496 169.575
c60.6904 112.589 126.803 223.804 200.617 328.34c10.5596 14.9512 30.7764 18.3164 48.0576 15.5527zM142.573 312.891c-45.9814 7.94043 -70.1562 51.54 -50.166 94.0508c3.99707 8.50586 15.7197 13.2412 28.418 14.3965c9.90723 8.2168 22.0908 14.2363 34.2471 16.4307
c39.501 7.12793 68.2861 -25.585 62.9033 -63.9424c-5.66797 -40.3945 -33.4307 -68.1807 -75.4023 -60.9355zM176.696 416.025c-8.52539 7.85059 -16.7627 5.43066 -25.0303 0.339844c7.97168 -4.23145 12.3906 -10.9766 9.0293 -20.1504
c-5.40234 -14.7441 -8.67383 -32.459 -1.17871 -47.168c1.61621 -3.16992 5.58984 -10.8135 10.3135 -10.5635c6.88184 0.363281 12.0576 15.5566 13.8926 20.8184c6.22656 17.8438 8.33105 42.5771 -7.02637 56.7236zM401.874 172.379
c34.415 -5.07129 65.9033 -34.8008 52.0176 -71.4365c-15.0098 -39.6143 -57.8447 -67.1621 -99.5713 -53.8311c-47.8154 15.2754 -53.1865 65.8398 -35.4795 106.434c4.21582 9.66113 18.6357 14.2871 32.9307 14.2051c18.4092 5.1875 38.8486 6.28809 50.1025 4.62891z
M419.121 97.6328c11.5 19.0615 7.28809 43.1299 -13.3506 53.9355c-4.69238 2.45508 -13.1396 3.62988 -22.4268 3.30176c1.70605 -3.25586 2.06934 -7.10449 0.546875 -11.5508c-6.57422 -19.1787 -14.709 -42.6748 -2.90039 -61.5449
c1.44824 -2.31836 3.15039 -4.94141 5.32129 -6.75293c1.62793 0.492188 4.27832 1.09766 7.98242 1.82812c10.0244 4.40332 19.1318 11.3398 24.8271 20.7832z" />
    <glyph glyph-name="ampersand" unicode="&#x26;" horiz-adv-x="601" 
d="M518.801 237.312c71.9639 -62.1035 10.0781 -167.695 -44.7959 -216.542c-32.5645 -28.9844 -73.2598 -52.9375 -116.84 -67.748c5.07129 -40.1924 10.54 -80.3418 15.002 -120.62c1.79199 -16.1885 -41.0391 -17.8047 -44.6895 -3.44727
c-9.35742 36.7998 -15.5605 74.0449 -19.9053 111.555c-35.9717 -5.92969 -72.5449 -5.04395 -107.049 4.82031c-42.0225 12.0117 -82.2578 41.1094 -95.2295 84.4512c-13.7178 45.8252 3.04492 94.9453 23.8945 135.918c20.1074 39.5166 47.2803 75.9766 78.8223 107.108
c-27.8721 0.519531 -55.0371 4.7627 -79.4619 12.96c-31.6309 10.6143 -63.4062 31.2568 -73.8057 64.668c-10.7627 34.582 -2.01074 71.5811 14.3848 102.967c31.249 59.8193 86.4424 109.286 144.919 141.694c28.2822 15.6729 61.7324 30.5186 96.3027 39.5479
c0.885742 34.8008 1.59277 69.6055 1.95996 104.422c0.117188 10.9502 27.8682 10.8408 27.8135 0c-0.164062 -32.8223 -0.691406 -65.6367 -1.36719 -98.4434c27.2432 4.27441 54.502 4.16113 79.8408 -2.75977c35.3672 -9.66113 54.5107 -32.6338 61.248 -68.0674
c7.45215 -39.1846 3.85254 -80.083 -0.679688 -119.377c-3.55664 -30.835 -80.1973 -30.2139 -78.4404 0c2.22852 38.252 7.09277 78.4639 -0.804688 116.396c-1.7334 8.33008 -5.10254 23.543 -13.2451 27.8916c-7.09668 3.79004 -21.7744 -0.8125 -30.9209 -3.04492
c-6.12891 -1.49121 -12.1914 -3.24023 -18.2109 -5.14941c-1.81543 -75.6562 -3.86133 -151.301 -3.80664 -226.98c15.4121 4.3916 34.3486 2.68164 47.1367 -4.81738c15.8799 -9.31445 13.8066 -23.6875 -0.000976562 -33.3877
c-14.0371 -9.86035 -29.7568 -18.2686 -46.5312 -25.2012c0.078125 -4.09082 0.132812 -8.18555 0.226562 -12.2803c0.519531 -22.5869 1.21094 -45.1855 2.06152 -67.7803c16.8682 13.8428 35.5508 25.5225 55.9121 33.4707
c40.2979 15.7236 91.7402 17.5664 126.26 -12.2227zM225.358 -18.4814c24.0156 -10.5127 52.2275 -9.53613 78.5459 -4.4375c-2.20605 25.3545 -3.77539 50.7949 -5.07129 76.2783c-1.78418 35.0391 -2.58398 70.0625 -2.7207 105.094
c-1.7334 1.32715 -3.06445 3.12695 -3.14648 5.30176c-0.125 3.20117 1.17871 6.47266 3.12695 9.63086c0.0585938 32.8145 0.691406 65.6328 1.70996 98.4668c-35.9297 -30.5029 -66.3545 -69.3447 -88.0586 -107.214c-32.0371 -55.9082 -61.834 -149.221 15.6143 -183.12z
M300.324 345.125c2.81055 76.8438 5.94336 153.672 8.35547 230.535c-38.8457 -16.9336 -74.373 -42.0068 -103.736 -72.0693c-23.0625 -23.6133 -43.623 -50.6113 -55.3848 -81.7275c-9.54395 -25.2373 -14.6621 -62.5645 8.86914 -82.0244
c18.7451 -15.501 48.998 -15.2197 71.9355 -13.1113c24.3506 2.23633 47.5146 9.28223 69.9609 18.3975zM426.422 29.5186c54.2295 38.127 120.945 109.854 79.5195 180.202c-21.0957 35.8281 -61.7754 38.0449 -97.3105 24.124
c-19.0459 -7.46387 -36.71 -19.2607 -52.0947 -32.6191c-3.60742 -3.13086 -11.4463 -9.46289 -18.6133 -16.3564c1.9209 -42.6357 4.49707 -85.2402 7.96387 -127.747c1.80371 -22.1104 4.12988 -44.1582 6.68262 -66.1748
c26.1387 9.64941 50.9854 22.4922 73.8525 38.5713z" />
    <glyph glyph-name="quotesingle" unicode="'" horiz-adv-x="152" 
d="M58.8701 597.01c4.9502 12.7568 44.3916 12.9639 42.8887 -3.31055c-1.4209 -15.4736 -5.9375 -30.4951 -8.28711 -45.8564c-1.46387 -9.56738 -9.66504 -36.3662 -4.66406 -45.4697c6.82715 -12.418 -24.6914 -13.5771 -30.9375 -4.86035
c-9.00195 12.5576 -8.04199 32.0176 -7.6084 46.7656c0.523438 17.8516 2.11621 35.9883 8.6084 52.7314z" />
    <glyph glyph-name="quotesingle" unicode="&#x2019;" horiz-adv-x="152" 
d="M58.8701 597.01c4.9502 12.7568 44.3916 12.9639 42.8887 -3.31055c-1.4209 -15.4736 -5.9375 -30.4951 -8.28711 -45.8564c-1.46387 -9.56738 -9.66504 -36.3662 -4.66406 -45.4697c6.82715 -12.418 -24.6914 -13.5771 -30.9375 -4.86035
c-9.00195 12.5576 -8.04199 32.0176 -7.6084 46.7656c0.523438 17.8516 2.11621 35.9883 8.6084 52.7314z" />
    <glyph glyph-name="quotesingle" unicode="&#x2018;" horiz-adv-x="152" 
d="M58.8701 597.01c4.9502 12.7568 44.3916 12.9639 42.8887 -3.31055c-1.4209 -15.4736 -5.9375 -30.4951 -8.28711 -45.8564c-1.46387 -9.56738 -9.66504 -36.3662 -4.66406 -45.4697c6.82715 -12.418 -24.6914 -13.5771 -30.9375 -4.86035
c-9.00195 12.5576 -8.04199 32.0176 -7.6084 46.7656c0.523438 17.8516 2.11621 35.9883 8.6084 52.7314z" />
    <glyph glyph-name="parenleft" unicode="(" horiz-adv-x="475" 
d="M415.392 -118.291c13.0928 -8.06543 12.9131 -21.0576 -0.0078125 -29.1533c-81.5781 -51.1768 -207.975 -55.0176 -272.693 25.835c-27.5049 34.3604 -42.0928 75.5244 -54.2607 117.302c-12.9404 44.416 -22.5977 89.835 -28.9766 135.652
c-13.4756 96.7559 -12.7568 195.986 3.5332 292.383c15.4229 91.291 41.5381 184.705 83.2451 267.646c18 35.7969 43.0381 68.6074 79.9277 86.3105c27.4736 13.1826 70.168 23.4453 91.9775 -5.08301c9.04102 -11.8281 -18.8115 -16.4033 -25.335 -8.43945
c-30.2646 36.9404 -72.5918 -35.2344 -83.585 -57.3291c-17.8906 -35.9561 -28.6377 -75.3203 -39.2441 -113.896c-42.1006 -153.156 -53.1357 -318.468 -27.0596 -475.375c6.51953 -39.2314 15.5879 -77.9912 27.1348 -116.052
c9.96973 -32.8574 21.2861 -67.167 41.46 -95.3711c37.8027 -52.8555 99.2422 -52.7891 152.73 -24.4287c14.6387 7.76465 36.6748 8.91992 51.1533 0z" />
    <glyph glyph-name="parenright" unicode=")" horiz-adv-x="475" 
d="M341.389 664.801c76.9375 -177.726 102.808 -376.91 69.0449 -567.861c-8.10742 -45.8643 -19.1777 -91.541 -34.3594 -135.602c-13.2803 -38.5488 -32.2207 -77.4062 -64.0156 -104.119c-69.8828 -58.7109 -178.049 -51.1416 -252.133 -4.66895
c-13.0928 8.2168 -13.3701 21.001 0 29.1553c14.6738 8.95117 36.3428 7.85449 51.1533 0c27.4932 -14.5762 61.7012 -25.0693 92.9424 -17.9219c34.4844 7.89355 57.918 35.2734 73.5518 65.4561c34.875 67.3301 50.2598 148.292 59.9365 222.828
c10.1729 78.3506 11.0898 158.278 3.89941 236.933c-7.26855 79.5332 -21.9229 157.462 -44.5723 234.052c-9.80566 33.1611 -20.8184 65.8037 -37.1748 96.377c-11.3516 21.2207 -50.583 77.1484 -77.1475 44.7285c-6.58594 -8.03418 -34.3408 -3.33789 -25.335 8.43945
c25.4209 33.251 78.5537 15.2549 107.198 -3.43555c37.7285 -24.6201 59.5498 -64.0234 77.0107 -104.36z" />
    <glyph glyph-name="asterisk" unicode="*" horiz-adv-x="212" 
d="M155.969 486.583c15.2363 -11.0625 -13.1719 -19.876 -22.6855 -12.9238c-3.47461 2.5332 -7.07812 5.04688 -10.7471 7.56445c0.332031 -8.54102 0.691406 -17.0781 1.00391 -25.6191c0.441406 -12.0977 -30.7881 -12.2852 -31.167 0
c-0.214844 6.9248 -0.382812 13.8418 -0.582031 20.7627c-3.73535 -4.15332 -7.50195 -8.27539 -11.1484 -12.5107c-6.44922 -7.49512 -33.041 -3.13867 -24.2812 8.08789c6.33203 8.11523 12.9297 15.958 19.7295 23.6016
c-2.83398 -0.507812 -5.67188 -1.02344 -8.52148 -1.57031c-10.2002 -1.95215 -27.0449 9.8291 -10.833 14.6465c6.97559 2.07324 14.0488 3.7832 21.1768 5.21191c-8.01465 7.08105 -15.2246 14.7793 -20.9121 23.4531c-6.58594 10.0518 21.8838 13.6553 27.6494 6.64453
c1.78809 -2.17773 3.7168 -4.23145 5.6416 -6.28906c-0.128906 6.46484 -0.296875 12.9258 -0.410156 19.3906c-0.195312 11.4492 28.7656 11.5234 29.3398 0c0.292969 -5.88672 0.535156 -11.7773 0.8125 -17.6641c2.68555 2.39258 5.38672 4.76953 8.12305 7.11523
c5.40625 4.63379 14.334 5.54688 20.9043 3.12695c4.52051 -1.6709 11.0322 -7.22168 5.48145 -11.918c-7.01855 -5.92969 -13.8652 -12.0469 -20.5908 -18.2891c4.74316 0.0546875 9.48633 0.0546875 14.2178 -0.0625c18.5303 -0.457031 18.5537 -17.9609 0 -17.418
c-4.73145 0.140625 -9.41602 0.101562 -14.085 -0.00390625c7.38184 -5.12891 14.7715 -10.1768 21.8838 -15.3369z" />
    <glyph glyph-name="plus" unicode="+" horiz-adv-x="281" 
d="M223.544 291.221c18.9951 -6.24609 -3.89258 -17.7949 -15.1152 -14.7422c-10.0986 2.74414 -20.9473 3.14648 -31.917 2.62695c0.0585938 -5.08301 0.125 -10.166 0.253906 -15.2529c0.640625 -25.1709 1.94824 -50.2754 3.2168 -75.4189
c1.15137 -22.8047 4.55566 -47.6709 -10.3369 -66.3613c-8.05762 -10.1064 -29.3594 -7.35059 -37.9746 0c-19.2178 16.4033 -22.2041 46.2666 -25.0498 70.126c-2.83789 23.793 -4.87598 47.7109 -5.75781 71.6562c-0.125 3.32617 -0.199219 6.64844 -0.296875 9.97461
c-10.0322 -0.807617 -19.877 -2.26758 -28.8164 -5.50391c-11.3477 -4.10645 -32.8408 7.80762 -14.8057 14.4395c13.5615 4.98926 28.3564 6.89453 43.2451 7.9209c-0.648438 41.4648 0.81543 82.9219 5.46484 124.16c3.36914 29.8672 77.6748 28.9932 75.6953 0.000976562
c-2.70508 -39.583 -4.75879 -79.209 -4.89551 -118.87c15.9658 0.834961 31.8691 0.249023 47.0898 -4.75586z" />
    <glyph glyph-name="comma" unicode="," horiz-adv-x="204" 
d="M96.3906 70.8096c9.93066 18.2305 64.7412 16.7891 57.1133 -8.97461c-10.8447 -36.6006 -29.5 -72.9785 -50.209 -104.965c-9.85254 -15.2207 -60.5918 -15.6895 -52.4062 8.23242c12.25 35.8008 27.4004 72.4756 45.502 105.707z" />
    <glyph glyph-name="hyphen" unicode="-" horiz-adv-x="360" 
d="M289.832 286.584c8.40039 -0.81543 22.0635 -6.94531 19.8965 -17.3721c-2.2793 -11.0195 -18.2021 -13.3965 -27.2861 -13.7324c-35.2266 -1.30371 -70.457 -0.273438 -105.699 -2.02637c-34.5312 -1.71777 -70.71 -9.16992 -105.145 -7.03418
c-15.3301 0.948242 -33.4316 14.8105 -11.251 23.6797c33.915 13.5615 76.5352 13.7178 112.628 16.1924c38.8457 2.66211 78.0654 4.06348 116.856 0.292969z" />
    <glyph glyph-name="period" unicode="." horiz-adv-x="161" 
d="M60.5459 32.6553c6.69824 18.8857 59.0869 11.1904 49.7568 -7.82031c-4.7002 -9.5791 -8.5332 -19.4043 -12.5498 -29.2686c-4.53613 -11.1484 -7.87402 -19.9355 -20.1865 -23.5195c-6.99512 -2.03809 -14.9746 -1.32324 -21.1465 2.81055
c-6.27344 4.2002 -6.82422 10.0439 -6.24219 17.1719c1.12793 13.8428 5.75391 27.6152 10.3682 40.626z" />
    <glyph glyph-name="slash" unicode="/" horiz-adv-x="376" 
d="M254.708 555.171c12.2617 23.7109 83.043 16.6133 69.7549 -10.9619c-48.2334 -100.113 -92.7197 -201.636 -129.348 -306.628c-18.0938 -51.8604 -34.5205 -104.364 -49.8037 -157.118c-15.8604 -54.7412 -26.5059 -110.247 -39.7939 -165.542
c-4.34863 -18.1016 -55.0957 -16.0596 -55.4707 4.27832c-1.01855 55.1504 14.5527 111.395 27.7783 164.504c13.5498 54.4092 29.4961 108.076 47.3828 161.217c35.7227 106.141 78.0264 210.72 129.5 310.251z" />
    <glyph glyph-name="zero" unicode="0" horiz-adv-x="426" 
d="M50.6377 171.867c-3.7002 63.8252 9.31641 128.715 23.0928 190.686c0.0742188 0.332031 0.191406 0.625 0.273438 0.945312c-27.6689 49.791 -28.625 115.618 -1.03809 165.425c25.3506 45.7783 72.9756 72.2256 125.487 64.5508
c55.8418 -8.1582 99.6484 -51.9922 127.376 -98.582c31.1709 -52.375 43.666 -113.857 48.042 -174.013c4.32129 -59.3984 2.81445 -120.003 -11.2812 -178.085c-12.9795 -53.4766 -37.6816 -111.067 -84.0684 -143.804
c-47.0469 -33.1963 -110.235 -28.0049 -155.291 6.10156c-50.7549 38.4238 -69.0557 105.812 -72.5928 166.775zM120.312 518.835c-21.1738 -39.5713 -22.3857 -88.9727 -7.52832 -130.995c1.90918 0.125 3.80664 0.203125 5.65723 0.203125
c11.9883 0 48.4053 -6.29688 44.709 -25.4834c-2.26758 -11.7656 -4.67188 -23.8516 -7.06836 -36.1523c17.2656 -12.2617 38.1504 -17.3135 61.248 -8.26465c7.83887 3.06836 30.3711 -5.99219 16.6689 -12.3125c-26.9082 -12.4141 -56.123 -13.4053 -82.8555 -5.44141
c-15.9541 -86.8877 -26.4668 -181.953 17.7109 -258.801c9.06055 -15.7666 26.6621 -35.5508 46.7266 -34.6143c18.6514 0.870117 35.5654 18.5029 46.8271 31.7637c29.7109 34.9922 46.2197 82.7373 54.499 127.267c8.36914 45.001 9.55957 91.084 7.35742 136.71
c-2.38477 49.3496 -9.15332 99.0039 -27.8281 145.06c-16.4893 40.6641 -42.4834 81.582 -80.3877 105.324c-18.207 11.4023 -38.0098 17.4922 -57.8398 6.80371c-16.5557 -8.92383 -29.1562 -24.7334 -37.8965 -41.0664z" />
    <glyph glyph-name="one" unicode="1" horiz-adv-x="316" 
d="M76.0596 587.871c-7.2373 -5.60156 -33.9971 -0.850586 -23.7461 7.91699c17.6602 15.0996 37.7871 27.4824 61.9824 22.0605c22.3447 -5.00879 40.9375 -21.1973 52.5078 -40.3877c31.2568 -51.8369 31.6396 -124.09 33.2246 -182.762
c1.85449 -68.6064 2.82227 -137.174 3.38477 -205.804c0.546875 -66.8809 4.62207 -135.776 -2.7832 -202.326c-0.332031 -2.95898 -1.27246 -5.64453 -2.66211 -8.08398c13.2334 -4.71191 27.3838 -8.1123 38.4541 0.799805
c8.76758 7.05762 39.0518 0.15625 27.4385 -9.14258c-21.9697 -17.5938 -49.5879 -16.7393 -75.4844 -8.94727c-3.36914 1.01465 -6.67578 2.12305 -9.94727 3.23926c-17.1133 -5.58594 -39.9375 -3.86816 -53.1865 5.23535
c-12.0664 -3.42383 -31.5771 -10.2314 -37.9482 -14.9863c-0.015625 -0.0976562 -0.03125 -0.199219 -0.046875 -0.296875c-1.20996 -7.64355 -12.3389 -9.20898 -18.4561 -8.01465l-1.55859 0.304688c-5.44141 1.06152 -11.8633 3.79395 -10.2432 10.2822
c2.5332 10.1377 22.5625 16.0439 30.8379 19.7363c8.69336 3.87988 17.6016 7.26465 26.7559 9.73535c-0.00390625 0.046875 -0.0195312 0.0898438 -0.0234375 0.136719c-4.82129 55.2012 -0.839844 111.976 0.936523 167.306
c1.75293 54.4639 2.89258 108.99 5.59375 163.415c2.70117 54.4521 7.31934 109.209 7.1084 163.743c-0.09375 23.6406 -0.660156 47.4492 -3.98633 70.875c-1.67871 11.8359 -4.08301 23.5898 -9.04102 34.5596c-1.57324 3.48242 -3.60352 9.7793 -6.98047 12.0781
c-10.7275 7.30762 -24.7061 -4.92676 -32.1309 -10.6729z" />
    <glyph glyph-name="two" unicode="2" horiz-adv-x="426" 
d="M59.0049 -23.792c-8.81836 3.33398 -13.0469 10.9434 -3.83398 16.9707c17.3828 11.3945 35.2656 16.5703 53.4453 17.8115c0.601562 0.316406 1.24609 0.652344 1.82031 0.957031c13.1553 6.9209 24.1631 16.3525 34.7578 26.6699
c23.6836 23.0586 41.0117 50.5674 56.583 79.5439c60.2959 112.203 88.5664 240.91 90.4287 367.807c0.675781 45.7549 -5.44141 155.713 -78.9355 134.641c-29.0352 -8.32227 -54.3857 -30.7725 -70.8203 -55.5723c-7.44824 -11.2383 -13.4717 -23.5664 -17.7383 -36.3545
c-2.19043 -6.5625 -4.59863 -13.6357 -4.67285 -20.6309c-0.0351562 -3.51758 3.3457 -11.7227 0.242188 -11.1094c15.2754 -3.02148 9.63086 -16.4072 -3.65723 -15.4004c-38.5723 2.91992 -26.2402 43.4121 -15.0723 67.9111
c16.1104 35.3359 45.2471 65.1445 80.7432 81.0557c70.4727 31.584 142.3 -10.4854 162.372 -81.9727c22.0283 -78.46 18.1289 -169.169 5.2666 -248.815c-13.1045 -81.1416 -41.2305 -161.818 -85.5645 -231.28c-17.9258 -28.083 -41.0391 -53.7188 -67.7871 -72.2178
c52.2344 -15.5518 104.484 -33.8252 152.585 -5.0791c9.81738 5.86719 37.9551 -3.30664 22.2549 -12.6875c-38.5488 -23.0352 -84.6592 -22.6367 -127.393 -13.3379c-23.082 5.02441 -45.5049 12.4727 -68.2939 18.5898
c-34.957 -17.9297 -74.8096 -23.3438 -116.73 -7.49902z" />
    <glyph glyph-name="three" unicode="3" horiz-adv-x="442" 
d="M58.8076 106.965c4.46973 15.6455 50.5049 14.5352 49.4902 -3.8125c-2.06543 -37.0498 -7.88184 -73.7871 11.7266 -107.55c16.1221 -27.7588 42.9521 -31.9004 72.5928 -28.9453c31.6816 3.16211 54.085 17.1211 72.8691 42.8262
c18.4209 25.21 31.627 56.4316 37.377 87.0674c11.8633 63.2158 -0.195312 126.67 -37.585 179.486c-30.7529 43.4434 -81.5273 84.0723 -137.463 74.2119c-14.0293 -2.47461 -35.1797 -0.620117 -45.6025 10.5752c-9.16602 9.84473 -4.95801 21.7354 6.31152 27.8916
c57.6689 31.5068 103.4 86.9229 124.605 149.108c12.624 37.0107 7.3584 87.3682 -43.7363 81.7041c-34.0049 -3.7627 -71 -17.668 -89.2852 -48.1592c-5.46094 -9.10742 -33.2549 -5.65625 -27.4072 4.30957c21.2441 36.1982 62.3965 52.2227 102.081 59.0928
c41.7227 7.22168 77.9404 -4.86816 98.5869 -43.3701c22.2744 -41.5352 4.49316 -93.376 -15.6494 -132.218c-12.2148 -23.5508 -27.8682 -44.7168 -46.0557 -63.5713c47.5938 -9.75879 92.2793 -35.5303 126.202 -70.6709
c92.5127 -95.8389 105.582 -260.354 1.03809 -353.737c-27.6299 -24.6826 -61.3691 -37.9512 -98.0947 -41.3945c-33.4814 -3.13867 -70.3711 -3.56445 -102.377 8.08398c-71.7803 26.127 -78.0381 104.63 -59.625 169.071z" />
    <glyph glyph-name="four" unicode="4" horiz-adv-x="453" 
d="M111.731 207.452c-18.0078 -8.10742 -44.4141 -7.70508 -55.9648 11.0205c-28.4424 46.0752 55.9932 84.5771 86.9492 95.1211c1.35449 0.460938 2.72852 0.882812 4.09082 1.33203c13.5576 45.8994 18.1406 95.7373 20.5059 142.339
c1.69043 33.2666 1.33496 66.627 -0.828125 99.8623c-1.83887 28.251 -2.4873 60.624 -24.6016 81.29c-10.9619 10.2432 18.6904 16.2666 26.6504 8.87695c22.2158 -20.623 26.0059 -50.3301 28.3633 -79.0957c3.22461 -39.333 3.90039 -78.916 1.6875 -118.323
c-2.27539 -40.5 -6.19824 -83.873 -16.4062 -124.799c36.5029 9.02539 74.2666 14.2246 111.796 17.1211c-1.50293 94.3047 0.402344 189.03 10.0557 282.706c3.29883 32.0371 80.958 32.3535 82.0977 0c3.90332 -110.696 -2.9707 -221.486 -1.69043 -332.257
c0.628906 -54.6436 3.27539 -109.107 6.76172 -163.634c1.77637 -27.8057 4.44238 -55.5059 6.59766 -83.2764c1.80762 -23.2656 11.2822 -59.1641 -0.709961 -79.9004c-9.54102 -16.4971 -42.3438 -16.7393 -54.9053 -4.0918
c-18.8037 18.9326 -21.0283 54.7529 -25.8262 80.2129c-4.94238 26.2441 -7.97168 52.9414 -10.9619 79.4668c-6.26172 55.5059 -8.68164 111.594 -10.2471 167.404c-0.324219 11.4844 -0.59375 22.9805 -0.832031 34.4805
c-39.6455 -2.94727 -80.5166 -8.5918 -118.358 -20.2363c-4.16895 -13.124 -9.06836 -25.9004 -14.9668 -38.0918c-10.708 -22.1299 -25.9834 -47.0547 -49.2568 -57.5283zM137.841 288.664c-20.3027 -9.33789 -56.4043 -28.8633 -53.8945 -54.5381
c2.13184 -21.7666 16.9502 -6.91699 25.2686 3.08008c9.59863 11.5391 17.0195 24.8389 23.1914 38.4785c1.92871 4.2627 3.7168 8.60352 5.43457 12.9795z" />
    <glyph glyph-name="five" unicode="5" horiz-adv-x="432" 
d="M131.019 569.278c-35.1055 -1.78809 -71.4658 7.57227 -80.7803 45.2695c-3.16211 12.7881 25.8457 14.7363 28.582 4.49316c8.0918 -30.3154 33.5752 -34.8086 59.0859 -31.1436c0.210938 0.546875 0.410156 1.10156 0.625 1.64844
c4.10254 10.3799 26.2168 13.8545 39.9385 8.95117c25.5928 7.94824 51.2861 15.6973 77.4873 21.3496c43.584 9.4043 128.246 7.33496 125.307 -57.1807c-0.799805 -17.5 -44.915 -16.5635 -43.6738 0c4.96191 66.1943 -100.433 33.8018 -148.256 18.6787
c-1.52637 -48.2412 -10.0205 -96.209 -18.5342 -143.639c-0.956055 -5.32812 -0.776367 -12.5264 -2.95898 -17.5c0.175781 -0.605469 0.296875 -1.11719 0.421875 -1.63281c6.55078 -0.53125 15.1465 -1.10938 18.1055 -1.57422
c19.3467 -3.0293 38.2246 -8.58789 56.1738 -16.3525c61.959 -26.7988 112.133 -79.9785 130.363 -145.591c19.5029 -70.1953 7.4209 -148.237 -31.5566 -209.833c-41.0781 -64.918 -122.353 -104.009 -196.331 -67.7129
c-68.5713 33.6416 -75.0557 134.539 -57.4268 198.836c6.25391 22.8086 75.1104 20.6494 71.9443 -5.55176c-4.68457 -38.7988 -4.4502 -80.3223 8.5293 -117.599c7.42871 -21.333 21.79 -51.4297 48.7646 -41.7373c26.6387 9.5752 45.5674 38.2939 58.1836 62.04
c15.2988 28.7891 25.0107 60.2178 27.8838 92.7119c5.20703 58.9258 -11.5205 118.616 -53.5625 161.322c-18.5186 18.8115 -40.793 34.0127 -66.0498 42.1162c-25.4756 8.17773 -54.2061 2.9668 -77.0889 18.9404c-28.2119 19.6904 -8.31152 62.1504 -1.74121 88.8398
c7.60449 30.8936 15.9736 61.8066 26.5645 91.8496z" />
    <glyph glyph-name="six" unicode="6" horiz-adv-x="367" 
d="M176.609 -50.6064c-99.3125 19.6943 -127.504 138.549 -126.591 225.112c1.04199 99.0742 30.5615 201.471 74.9814 289.557c21.6455 42.9287 46.4844 86.2705 80.1494 121.005c24.542 25.3232 73.7939 64.8516 109.271 36.7295
c8.95117 -7.09668 -6.07031 -12.4092 -14.1465 -13.1045c-0.566406 -0.546875 -1.53418 -1.30371 -3.02539 -2.32227c-1.38965 -1.28418 -2.7793 -2.56445 -4.16895 -3.84863c-2.70898 -2.70898 -5.03516 -5.58203 -7.63867 -8.40039
c-6.36328 -6.89355 -12.625 -13.4209 -18.0703 -21.1152c-10.1572 -14.3496 -18.2373 -29.9639 -26.8838 -45.2236c-20.1895 -35.6328 -37.9863 -72.2568 -52.4922 -110.583c-26.1699 -69.1455 -46.0312 -140.727 -50.9736 -214.795
c-1.52637 -22.8906 -1.24121 -45.7109 0.605469 -68.4541c26.8457 11.7188 56.002 17.125 86.0098 12.2061c41.4258 -6.78418 78.5225 -32.9424 88.7344 -75.0742c19.7881 -81.6289 -61.7783 -136.358 -135.761 -121.688zM223.103 126.939
c-29.0078 7.47559 -57.9268 -1.17871 -83.0742 -15.9424c0.664062 -5.24609 1.38672 -10.4883 2.20996 -15.7266c5.0127 -31.8691 13.5889 -69.1963 32.252 -96.1865c15.334 -22.1689 42.6748 -30.9092 67.7402 -19.5732c28.8672 13.0537 42.1318 45.833 40.082 76.0352
c-2.34961 34.5781 -25.4355 62.6885 -59.21 71.3936z" />
    <glyph glyph-name="seven" unicode="7" horiz-adv-x="334" 
d="M74.915 568.911c-8.95117 -4.87598 -35.248 3.02832 -20.5234 11.6982c40.7617 24.0117 109.294 39.7432 146.719 0.952148c20.666 -21.4189 27.9268 -53.8779 32.0254 -82.3516c4.98535 -34.6523 6.20312 -70.2539 6.61719 -105.23
c0.535156 -45.2588 -1.2998 -90.5059 -3.97363 -135.702c11.1797 -0.0195312 22.3828 -0.320312 33.6211 -1.10059c18.6943 -1.2998 18.9678 -19.1709 0 -17.7656c-11.5898 0.854492 -23.1602 1.28027 -34.7148 1.32324
c-1.2959 -20.4043 -2.70898 -40.8008 -4.12988 -61.1777c-4.96582 -71.1826 -6.84375 -143.725 -16.7041 -214.396c-4.71582 -33.7705 -86.7197 -34.7969 -87.5898 0c-1.53027 61.0488 7.10449 123.105 13.1553 183.784c2.78711 27.958 5.46875 55.9238 8.10742 83.8936
c-8.01465 -1.50684 -16.0137 -3.1543 -23.9736 -5.11035c-5.43359 -1.33496 -16.5391 -2.5957 -20.4854 3.06055c-3.56055 5.10645 -0.675781 10.166 5.37109 11.6807c13.5381 3.39648 27.1387 6.24609 40.79 8.57227c2.30273 24.6553 4.58594 49.3145 6.83789 73.9736
c5.375 58.9062 12.2451 118.647 13.3105 177.808c0.386719 21.4229 3.43164 55.5293 -10.3994 73.8262c-17.5938 23.2734 -63.8867 3.25586 -84.0605 -7.7373z" />
    <glyph glyph-name="eight" unicode="8" horiz-adv-x="363" 
d="M117.549 -5.16016c-53.4883 75.4932 -24.7002 178.429 24.833 250.869c-59.917 72.7754 -122.332 160.479 -76.6318 256.863c21.1816 44.666 60.4912 86.0879 112.897 87.5791c48.4561 1.38184 79.5801 -35.793 95.0576 -78.042
c34.8672 -95.1592 8.43555 -197.872 -18.9443 -292.341c38.8496 -53.1797 69.4736 -110.876 53.8125 -179.654c-10.0361 -44.0684 -39.2432 -80.1729 -84.1465 -91.4775c-41.8623 -10.54 -83.0693 12.6045 -106.878 46.2031zM221.635 -29.8311
c37.4863 28.4814 30.6865 95.4873 16.8594 133.501c-16.8252 46.2539 -47.8945 84.2246 -79.0342 121.501c-23.2773 -39.2744 -37.959 -84.0918 -39.1221 -129.589c-0.788086 -30.7803 5.52441 -61.7715 21.9941 -88.1055
c14.0879 -22.5244 50.9502 -58.8516 79.3027 -37.3076zM146.567 515.642c-8.87305 -21.958 -12.8984 -46.6406 -12.4688 -70.3164c0.936523 -51.2432 24.8857 -98.4424 54.2686 -139.228c12.3594 -17.1523 26.249 -34.4062 40.1465 -52.0234
c12.0078 45.7939 21.7393 92.1221 23.3789 139.661c1.08105 31.2334 -0.046875 63.8135 -7.61621 94.2812c-5.89062 23.7188 -20.6465 61.6504 -46.001 71.1982c-26.0215 9.79395 -43.7559 -23.8906 -51.708 -43.5732z" />
    <glyph glyph-name="nine" unicode="9" horiz-adv-x="447" 
d="M376.689 456.893c5.98438 -35.375 9.18164 -71.0977 12.3984 -106.809c5.82422 -64.4844 10.1416 -129.305 6.15234 -194.039c-3.4707 -56.3027 -13.8818 -115.993 -48.8779 -161.873c-35.7578 -46.8789 -119.218 -66.998 -161.514 -16.8555
c-32.7441 38.8184 -34.3486 96.5732 -33.4551 144.939c0.351562 18.9678 44.502 18.0547 47.332 0c4.36035 -27.8096 8.60742 -54.6943 21.2979 -80.1738c6.6084 -13.2686 14.7314 -25.7949 25.6621 -35.9365c0.65625 -0.605469 3.2793 -2.51855 5.84375 -4.37695
c2.70117 2.9707 7.56543 5.75781 10.2041 8.68555c4.53223 5.02441 8.12402 10.458 11.6064 16.2393c7.55371 12.5459 13.8232 25.7832 18.8164 39.5479c9.7002 26.7559 14.2949 54.7959 17.0938 83.0273c6.35547 64.1211 4.91895 128.812 5.3916 193.152
c0.246094 33.0869 0.464844 66.1855 -0.674805 99.2607c-0.304688 8.80664 -0.742188 17.6133 -1.32812 26.4043c-19.8115 -42.1943 -40.415 -84.041 -75.4971 -115.621c-40.4375 -36.4014 -107.912 -59.6318 -154.986 -21.2275
c-47.5898 38.8262 -35.9883 111.075 -6.22656 157.213c30.2178 46.8438 81.5273 83.042 135.874 96.0957c41.2227 9.89941 91.9189 1.38965 117.195 -33.4775c5.59766 -1.01465 10.6455 -3.23926 13.8545 -6.6709c23.2266 -24.8467 28.3213 -54.8936 33.8369 -87.5049z
M298.21 541.071c0.722656 1.26855 1.68066 2.38574 2.73438 3.42773c-33.1143 44.1074 -102.338 22.0869 -139.517 -12.1914c-37.3193 -34.4072 -70.2627 -87.8643 -63.0176 -140.653c3.34961 -24.3896 20.873 -56.1455 49.6387 -51.582
c26.2402 4.16504 49.4551 26.4707 65.8115 45.9033c38.1113 45.2744 55.334 104.271 84.3496 155.096z" />
    <glyph glyph-name="colon" unicode=":" horiz-adv-x="166" 
d="M89.8555 367.646c6.74121 0 27.9541 -3.66602 25.6514 -14.6201c-3.90332 -18.5693 -4.52832 -40.1484 -12.6123 -57.4531c-4.87598 -10.4424 -31.4131 -11.2891 -35.9375 0c-7.07715 17.668 -4.41113 38.9434 -2.74805 57.4541
c1.02246 11.418 16.4727 14.6191 25.6465 14.6191zM53.4346 140.481c4.09082 25.0537 64.5586 22.0332 57.8721 -4.46094c-2.83789 -11.2344 -4.42676 -22.7539 -5.67188 -34.2656c-1.17871 -10.8877 -0.347656 -22.8174 -6.30078 -32.3467
c-6.60449 -10.5674 -29.1211 -12.1758 -37.4043 -2.78711c-16.5205 18.7217 -12.2305 50.9854 -8.49512 73.8604z" />
    <glyph glyph-name="semicolon" unicode=";" horiz-adv-x="191" 
d="M77.4229 136.988c5.41797 25.2881 67.7598 21.6953 62.8838 -0.000976562c-6.01953 -26.7793 -12.7451 -53.4648 -22.2002 -79.2715c-7.63574 -20.8457 -15.7432 -48.085 -37.5645 -57.8828c-6.46094 -2.90039 -31.6006 -6.02734 -30.5078 7.20215
c3.57617 43.249 18.2969 87.5322 27.3887 129.953zM97.1016 270.574c-20.5723 16.6221 -18.7959 55.8428 -13.0303 78.9404c4.09863 16.4072 47.8506 13.9639 49.1816 -3.79395c1.02637 -13.6592 0.0585938 -27.0879 -0.273438 -40.7783
c-0.316406 -12.917 0.230469 -23.9717 -7.91211 -34.3672c-5.96875 -7.61621 -21.5244 -5.2041 -27.9658 -0.000976562z" />
    <glyph glyph-name="less" unicode="&#x3c;" horiz-adv-x="327" 
d="M248.569 251.354c11.8828 -2.43164 34.4883 -10.5938 27.2822 -27.3994c-6.81934 -15.8955 -33.6416 -18.1055 -48.0576 -15.5527c-31.3545 5.55859 -62.5801 11.793 -93.8408 17.8516c-28.0127 5.42969 -55.8613 9.33691 -78.8613 27.3994
c-10.3096 8.0957 -3.24805 21.5635 5.99219 26.4746c58.2539 30.9639 116.758 72.249 182.925 83.4404c7.76074 1.31543 30.5195 -3.37695 20.5303 -15.2168c-18.2969 -21.6846 -46.1885 -34.3984 -70.1143 -48.8652c-16.0205 -9.68848 -32.2754 -19.2168 -48.1592 -29.2803
c9.19727 -1.64355 18.5273 -2.77539 27.3027 -4.42285c25.0225 -4.7041 50.0566 -9.32227 75.001 -14.4287z" />
    <glyph glyph-name="equal" unicode="=" horiz-adv-x="373" 
d="M303.287 340.622c8.15039 -0.916992 21.4746 -6.67578 19.3584 -16.8955c-2.12402 -10.2588 -17.7969 -13.6787 -26.5371 -13.3545c-35.0508 1.30762 -70.0586 2.50586 -105.129 1.27637c-35.0234 -1.22949 -69.6719 -6.06641 -104.605 -8.39258
c-16.7354 -1.11621 -36.792 19.4287 -12.2539 25.7842c72.709 18.8389 154.861 19.9473 229.167 11.582zM267.741 269.138c9.25195 -0.952148 24.2676 -8.16309 19.7236 -19.7998c-4.7002 -12.0547 -24.4102 -12.3047 -34.7393 -11.2432
c-30.0508 3.0918 -60.3857 3.80273 -90.5645 2.36621c-29.918 -1.42871 -59.9414 -8.90039 -89.8203 -8.43164c-9.79785 0.15625 -34.1055 12.3828 -15.5479 21.3965c30.2373 14.6855 68.5439 16.1768 101.596 18.3896c36.5732 2.44727 72.9199 1.06543 109.353 -2.67773z
" />
    <glyph glyph-name="greater" unicode="&#x3e;" horiz-adv-x="312" 
d="M258.095 275.919c17.3398 -28.0518 -27.8613 -42.6084 -45.7559 -50.5293c-32.1582 -14.2324 -64.6484 -27.8096 -97.1387 -41.2578c-14.3105 -5.92578 -41.8115 -4.54395 -52.8232 7.89355c-11.8555 13.3936 0.65918 25.0459 13.8496 30.1133
c26.2051 10.0635 52.5312 19.8027 78.8379 29.5967c12.7607 4.75098 25.791 10.6299 38.9658 14.1553c-1.62793 1.1084 -3.25586 2.21289 -4.88379 3.31738c-4.64941 1.96387 -9.26758 5.62891 -13.7959 8.04883c-41.1328 21.9814 -86.1338 32.9004 -121.97 64.2783
c-7.90918 6.9248 -0.320312 14.7207 6.29199 17.9609c9.98535 4.8877 22.3174 3.45117 32.0762 -1.08887c29.5625 -13.7529 58.9102 -26.7637 89.3389 -38.4668c23.6445 -9.0918 62.8838 -21.1738 77.0068 -44.0215z" />
    <glyph glyph-name="question" unicode="?" horiz-adv-x="432" 
d="M379.718 538.689c10.9658 -92.4697 -28.0693 -183.749 -64.2676 -266.53c-19.1631 -43.8145 -39.3096 -87.2852 -54.5068 -132.696c-15.4775 -46.2422 -21.1299 -91.9307 -26.1465 -140.152c-3.55273 -34.1572 -82.2188 -33.7197 -86.3682 0
c-5.46094 44.4082 6.61719 91.0449 20.0889 133.114c13.2607 41.4023 31.0654 81.2354 49.5684 120.514c33.002 70.0547 70.1299 140.328 85.6934 216.883c12.418 61.0801 21.6699 160.291 -47.2998 192.785c-72.5967 34.2002 -144.701 -53.9209 -166.897 -113.116
c-12.6201 -33.6533 -16.1611 -72.499 -1.19434 -106.023c13.3076 -29.8164 40.8672 -56.8027 74.9463 -58.6338c16.3643 -0.87793 16.583 -16.3047 0 -15.5049c-38.4238 1.85449 -71.6396 21.0996 -92.9766 53.1797c-23.5195 35.3594 -24.8701 79.4668 -13.1318 119.276
c21.7588 73.8105 86.3877 142.534 166.791 145.364c87.9805 3.0918 145.845 -65.3545 155.701 -148.459zM165.607 -101.439c2.3457 23.6562 57.7764 23.5703 60.1104 0c1.56152 -15.751 2.39648 -31.5059 2.15039 -47.3428c-0.398438 -25.3115 -64.0166 -25.1748 -64.4111 0
c-0.25 15.8369 0.588867 31.5879 2.15039 47.3428z" />
    <glyph glyph-name="at" unicode="@" horiz-adv-x="683" 
d="M524.39 595.132c126.752 -92.4229 125.45 -271.588 83.5332 -407.786c-22.4619 -73.0059 -70.1367 -156.317 -159.874 -137.139c-45.9111 9.81348 -74.1895 49.4551 -87.7119 94.0195c-23.0742 -18.7881 -50.7041 -30.7764 -84.1816 -30.417
c-56.583 0.609375 -90.4785 41 -93.7383 95.2646c-3.20508 53.3477 15.9111 106.281 48.0537 148.343c30.8857 40.4219 82.8984 80.875 137.069 70.5459c20.8496 -3.97363 41.5 -13.9277 53.2695 -32.1777c13.8428 -21.4619 12.6992 -49.0176 11.2354 -73.4307
c-0.671875 -11.2227 -28.6689 -11.0195 -28.4229 0c0.539062 24.3193 1.53809 54.5176 -16.7822 73.3291c-19.8652 20.4004 -48.498 9.22852 -68.2275 -5.00781c-38.2949 -27.6377 -64.4727 -71.5693 -74.9854 -117.199
c-7.70605 -33.458 -15.5684 -105.059 24.0459 -123.671c17.7695 -8.3457 37.2061 8.08887 48.3076 20.3584c16.5908 18.3271 26.0381 41.4287 36.9414 63.2734c9.53711 19.1045 70.9102 22.3643 69.4697 -5.35938c-1.9209 -36.9951 5.14844 -73.5527 23.0469 -106.188
c5.30469 -9.67285 14.9189 -27.3447 26.5791 -31.9355c0.519531 0.144531 1.35059 0.402344 2.5918 0.96875c6.7959 3.0957 12.3076 8.89648 17.1602 14.4316c22.9219 26.166 35.999 63.7617 45.6914 96.6191c10.4424 35.4023 16.4814 72.3623 19.5303 109.115
c5.11816 61.7285 -0.0146484 125.576 -28.3555 181.566c-22.7812 45.0049 -61.7471 87.418 -112.39 99.7305c-111.684 27.1533 -203.938 -79.9434 -243.881 -170.285c-48.2607 -109.162 -71.0889 -249.639 -11.5156 -358.777
c25.1514 -46.0791 65.4414 -85.6152 117.06 -99.7109c54.6084 -14.9121 114.022 0.304688 164.282 22.9229c16.1455 7.26465 37.5879 9.81738 53.5225 0c12.5068 -7.70215 14.9111 -23.3867 -0.000976562 -30.5068c-80.8135 -38.5801 -175.488 -55.7793 -262.544 -28.1338
c-73.6191 23.375 -130.776 82.1289 -159.491 152.98c-29.2969 72.292 -28.6445 153.016 -13.0068 228.388c14.7676 71.1709 39.3916 141.573 82.5 200.753c41.9482 57.5869 100.206 101.44 169.863 119.206c71.8896 18.332 150.357 10.3877 211.355 -34.0908z" />
    <glyph glyph-name="A" unicode="A" horiz-adv-x="899" 
d="M-47.3311 270.892c-6.72559 23.1758 46.4844 27.0449 52.6875 8.27246c8.33789 -25.1943 40.7031 -35.0469 64.0938 -40.9141c26.584 -6.66699 54.124 -7.49414 81.3789 -6.51855c60.71 2.17871 121.064 13.6357 180.817 23.8359
c11.332 1.93652 50.6221 8.75977 97.8525 14.6465c45.6846 99.2539 95.3975 196.787 145.146 293.793c0.203125 4.68457 0.359375 9.37305 0.59375 14.0576c1.60059 31.9824 81.1924 31.6348 81.1846 0c-0.0234375 -92.6064 -1.1084 -185.209 1.16309 -277.796
c1.9209 -78.3545 5.1416 -156.865 12.7227 -234.899c7.12793 -73.3809 15.7393 -151.185 36.6943 -222.079c7.9209 -26.7988 24.8896 -66.1787 59.1992 -50.7666c32.4746 14.5879 44.3926 61.8652 55.502 92.333c26.7207 73.2832 44.6934 149.385 54.1484 226.79
c1.34277 10.9893 28.6641 10.2705 27.5088 0c-10.7119 -95.1943 -33.0684 -192.122 -72.3857 -279.817c-13.2803 -29.625 -33.9619 -53.4844 -67.291 -59.2344c-31.7246 -5.47266 -67.498 1.61621 -91.5371 23.6836c-27.2432 25.0107 -38.8018 65.4951 -48.5527 99.8633
c-12.332 43.4668 -21.0176 87.8594 -27.5879 132.529c-10.8018 73.4395 -15.9268 147.426 -19.1201 221.521c-11.6797 0.699219 -23.543 0.347656 -35.1758 0.117188c-30.9443 -0.617188 -61.7402 -3.57617 -92.4111 -7.59668
c-30.5615 -68.5479 -59.2295 -137.924 -84.502 -208.623c-20.7168 -57.9502 -39.1807 -116.728 -54.5732 -176.32c-8.32227 -32.2207 -16.9258 -64.9102 -21.2939 -97.9355c-3.69238 -27.9072 -11.6328 -60.6357 1.55371 -86.9189
c8.89258 -17.7188 -40.5977 -25.0732 -46.5234 -7.31152c-10.29 30.8389 1.47168 63.2314 9.2832 93.4531c9.19727 35.5859 16.4541 71.6318 25.8857 107.175c33.9463 127.95 81.5322 251.087 135.633 371.53c-51.3408 -7.87402 -102.365 -17.7461 -153.749 -25.3584
c-58.5078 -8.66992 -117.972 -15.2285 -177.046 -8.83398c-42.6162 4.61426 -117.191 18.7061 -131.299 67.3223zM512.308 378.368c-16.6182 -34.5859 -32.9229 -69.3389 -48.8379 -104.272c38.5371 3.96582 79.0293 6.55762 112.261 5.08203
c-0.214844 5.75 -0.445312 11.4961 -0.640625 17.2422c-2.33789 68.2861 -3.6416 136.639 -2.38867 204.944c-20.377 -40.875 -40.6094 -81.8242 -60.3936 -122.996z" />
    <glyph glyph-name="A" unicode="&#xc5;" horiz-adv-x="899" 
d="M-47.3311 270.892c-6.72559 23.1758 46.4844 27.0449 52.6875 8.27246c8.33789 -25.1943 40.7031 -35.0469 64.0938 -40.9141c26.584 -6.66699 54.124 -7.49414 81.3789 -6.51855c60.71 2.17871 121.064 13.6357 180.817 23.8359
c11.332 1.93652 50.6221 8.75977 97.8525 14.6465c45.6846 99.2539 95.3975 196.787 145.146 293.793c0.203125 4.68457 0.359375 9.37305 0.59375 14.0576c1.60059 31.9824 81.1924 31.6348 81.1846 0c-0.0234375 -92.6064 -1.1084 -185.209 1.16309 -277.796
c1.9209 -78.3545 5.1416 -156.865 12.7227 -234.899c7.12793 -73.3809 15.7393 -151.185 36.6943 -222.079c7.9209 -26.7988 24.8896 -66.1787 59.1992 -50.7666c32.4746 14.5879 44.3926 61.8652 55.502 92.333c26.7207 73.2832 44.6934 149.385 54.1484 226.79
c1.34277 10.9893 28.6641 10.2705 27.5088 0c-10.7119 -95.1943 -33.0684 -192.122 -72.3857 -279.817c-13.2803 -29.625 -33.9619 -53.4844 -67.291 -59.2344c-31.7246 -5.47266 -67.498 1.61621 -91.5371 23.6836c-27.2432 25.0107 -38.8018 65.4951 -48.5527 99.8633
c-12.332 43.4668 -21.0176 87.8594 -27.5879 132.529c-10.8018 73.4395 -15.9268 147.426 -19.1201 221.521c-11.6797 0.699219 -23.543 0.347656 -35.1758 0.117188c-30.9443 -0.617188 -61.7402 -3.57617 -92.4111 -7.59668
c-30.5615 -68.5479 -59.2295 -137.924 -84.502 -208.623c-20.7168 -57.9502 -39.1807 -116.728 -54.5732 -176.32c-8.32227 -32.2207 -16.9258 -64.9102 -21.2939 -97.9355c-3.69238 -27.9072 -11.6328 -60.6357 1.55371 -86.9189
c8.89258 -17.7188 -40.5977 -25.0732 -46.5234 -7.31152c-10.29 30.8389 1.47168 63.2314 9.2832 93.4531c9.19727 35.5859 16.4541 71.6318 25.8857 107.175c33.9463 127.95 81.5322 251.087 135.633 371.53c-51.3408 -7.87402 -102.365 -17.7461 -153.749 -25.3584
c-58.5078 -8.66992 -117.972 -15.2285 -177.046 -8.83398c-42.6162 4.61426 -117.191 18.7061 -131.299 67.3223zM512.308 378.368c-16.6182 -34.5859 -32.9229 -69.3389 -48.8379 -104.272c38.5371 3.96582 79.0293 6.55762 112.261 5.08203
c-0.214844 5.75 -0.445312 11.4961 -0.640625 17.2422c-2.33789 68.2861 -3.6416 136.639 -2.38867 204.944c-20.377 -40.875 -40.6094 -81.8242 -60.3936 -122.996z" />
    <glyph glyph-name="A" unicode="&#xc4;" horiz-adv-x="899" 
d="M-47.3311 270.892c-6.72559 23.1758 46.4844 27.0449 52.6875 8.27246c8.33789 -25.1943 40.7031 -35.0469 64.0938 -40.9141c26.584 -6.66699 54.124 -7.49414 81.3789 -6.51855c60.71 2.17871 121.064 13.6357 180.817 23.8359
c11.332 1.93652 50.6221 8.75977 97.8525 14.6465c45.6846 99.2539 95.3975 196.787 145.146 293.793c0.203125 4.68457 0.359375 9.37305 0.59375 14.0576c1.60059 31.9824 81.1924 31.6348 81.1846 0c-0.0234375 -92.6064 -1.1084 -185.209 1.16309 -277.796
c1.9209 -78.3545 5.1416 -156.865 12.7227 -234.899c7.12793 -73.3809 15.7393 -151.185 36.6943 -222.079c7.9209 -26.7988 24.8896 -66.1787 59.1992 -50.7666c32.4746 14.5879 44.3926 61.8652 55.502 92.333c26.7207 73.2832 44.6934 149.385 54.1484 226.79
c1.34277 10.9893 28.6641 10.2705 27.5088 0c-10.7119 -95.1943 -33.0684 -192.122 -72.3857 -279.817c-13.2803 -29.625 -33.9619 -53.4844 -67.291 -59.2344c-31.7246 -5.47266 -67.498 1.61621 -91.5371 23.6836c-27.2432 25.0107 -38.8018 65.4951 -48.5527 99.8633
c-12.332 43.4668 -21.0176 87.8594 -27.5879 132.529c-10.8018 73.4395 -15.9268 147.426 -19.1201 221.521c-11.6797 0.699219 -23.543 0.347656 -35.1758 0.117188c-30.9443 -0.617188 -61.7402 -3.57617 -92.4111 -7.59668
c-30.5615 -68.5479 -59.2295 -137.924 -84.502 -208.623c-20.7168 -57.9502 -39.1807 -116.728 -54.5732 -176.32c-8.32227 -32.2207 -16.9258 -64.9102 -21.2939 -97.9355c-3.69238 -27.9072 -11.6328 -60.6357 1.55371 -86.9189
c8.89258 -17.7188 -40.5977 -25.0732 -46.5234 -7.31152c-10.29 30.8389 1.47168 63.2314 9.2832 93.4531c9.19727 35.5859 16.4541 71.6318 25.8857 107.175c33.9463 127.95 81.5322 251.087 135.633 371.53c-51.3408 -7.87402 -102.365 -17.7461 -153.749 -25.3584
c-58.5078 -8.66992 -117.972 -15.2285 -177.046 -8.83398c-42.6162 4.61426 -117.191 18.7061 -131.299 67.3223zM512.308 378.368c-16.6182 -34.5859 -32.9229 -69.3389 -48.8379 -104.272c38.5371 3.96582 79.0293 6.55762 112.261 5.08203
c-0.214844 5.75 -0.445312 11.4961 -0.640625 17.2422c-2.33789 68.2861 -3.6416 136.639 -2.38867 204.944c-20.377 -40.875 -40.6094 -81.8242 -60.3936 -122.996z" />
    <glyph glyph-name="A" unicode="&#xc3;" horiz-adv-x="899" 
d="M-47.3311 270.892c-6.72559 23.1758 46.4844 27.0449 52.6875 8.27246c8.33789 -25.1943 40.7031 -35.0469 64.0938 -40.9141c26.584 -6.66699 54.124 -7.49414 81.3789 -6.51855c60.71 2.17871 121.064 13.6357 180.817 23.8359
c11.332 1.93652 50.6221 8.75977 97.8525 14.6465c45.6846 99.2539 95.3975 196.787 145.146 293.793c0.203125 4.68457 0.359375 9.37305 0.59375 14.0576c1.60059 31.9824 81.1924 31.6348 81.1846 0c-0.0234375 -92.6064 -1.1084 -185.209 1.16309 -277.796
c1.9209 -78.3545 5.1416 -156.865 12.7227 -234.899c7.12793 -73.3809 15.7393 -151.185 36.6943 -222.079c7.9209 -26.7988 24.8896 -66.1787 59.1992 -50.7666c32.4746 14.5879 44.3926 61.8652 55.502 92.333c26.7207 73.2832 44.6934 149.385 54.1484 226.79
c1.34277 10.9893 28.6641 10.2705 27.5088 0c-10.7119 -95.1943 -33.0684 -192.122 -72.3857 -279.817c-13.2803 -29.625 -33.9619 -53.4844 -67.291 -59.2344c-31.7246 -5.47266 -67.498 1.61621 -91.5371 23.6836c-27.2432 25.0107 -38.8018 65.4951 -48.5527 99.8633
c-12.332 43.4668 -21.0176 87.8594 -27.5879 132.529c-10.8018 73.4395 -15.9268 147.426 -19.1201 221.521c-11.6797 0.699219 -23.543 0.347656 -35.1758 0.117188c-30.9443 -0.617188 -61.7402 -3.57617 -92.4111 -7.59668
c-30.5615 -68.5479 -59.2295 -137.924 -84.502 -208.623c-20.7168 -57.9502 -39.1807 -116.728 -54.5732 -176.32c-8.32227 -32.2207 -16.9258 -64.9102 -21.2939 -97.9355c-3.69238 -27.9072 -11.6328 -60.6357 1.55371 -86.9189
c8.89258 -17.7188 -40.5977 -25.0732 -46.5234 -7.31152c-10.29 30.8389 1.47168 63.2314 9.2832 93.4531c9.19727 35.5859 16.4541 71.6318 25.8857 107.175c33.9463 127.95 81.5322 251.087 135.633 371.53c-51.3408 -7.87402 -102.365 -17.7461 -153.749 -25.3584
c-58.5078 -8.66992 -117.972 -15.2285 -177.046 -8.83398c-42.6162 4.61426 -117.191 18.7061 -131.299 67.3223zM512.308 378.368c-16.6182 -34.5859 -32.9229 -69.3389 -48.8379 -104.272c38.5371 3.96582 79.0293 6.55762 112.261 5.08203
c-0.214844 5.75 -0.445312 11.4961 -0.640625 17.2422c-2.33789 68.2861 -3.6416 136.639 -2.38867 204.944c-20.377 -40.875 -40.6094 -81.8242 -60.3936 -122.996z" />
    <glyph glyph-name="A" unicode="&#xc2;" horiz-adv-x="899" 
d="M-47.3311 270.892c-6.72559 23.1758 46.4844 27.0449 52.6875 8.27246c8.33789 -25.1943 40.7031 -35.0469 64.0938 -40.9141c26.584 -6.66699 54.124 -7.49414 81.3789 -6.51855c60.71 2.17871 121.064 13.6357 180.817 23.8359
c11.332 1.93652 50.6221 8.75977 97.8525 14.6465c45.6846 99.2539 95.3975 196.787 145.146 293.793c0.203125 4.68457 0.359375 9.37305 0.59375 14.0576c1.60059 31.9824 81.1924 31.6348 81.1846 0c-0.0234375 -92.6064 -1.1084 -185.209 1.16309 -277.796
c1.9209 -78.3545 5.1416 -156.865 12.7227 -234.899c7.12793 -73.3809 15.7393 -151.185 36.6943 -222.079c7.9209 -26.7988 24.8896 -66.1787 59.1992 -50.7666c32.4746 14.5879 44.3926 61.8652 55.502 92.333c26.7207 73.2832 44.6934 149.385 54.1484 226.79
c1.34277 10.9893 28.6641 10.2705 27.5088 0c-10.7119 -95.1943 -33.0684 -192.122 -72.3857 -279.817c-13.2803 -29.625 -33.9619 -53.4844 -67.291 -59.2344c-31.7246 -5.47266 -67.498 1.61621 -91.5371 23.6836c-27.2432 25.0107 -38.8018 65.4951 -48.5527 99.8633
c-12.332 43.4668 -21.0176 87.8594 -27.5879 132.529c-10.8018 73.4395 -15.9268 147.426 -19.1201 221.521c-11.6797 0.699219 -23.543 0.347656 -35.1758 0.117188c-30.9443 -0.617188 -61.7402 -3.57617 -92.4111 -7.59668
c-30.5615 -68.5479 -59.2295 -137.924 -84.502 -208.623c-20.7168 -57.9502 -39.1807 -116.728 -54.5732 -176.32c-8.32227 -32.2207 -16.9258 -64.9102 -21.2939 -97.9355c-3.69238 -27.9072 -11.6328 -60.6357 1.55371 -86.9189
c8.89258 -17.7188 -40.5977 -25.0732 -46.5234 -7.31152c-10.29 30.8389 1.47168 63.2314 9.2832 93.4531c9.19727 35.5859 16.4541 71.6318 25.8857 107.175c33.9463 127.95 81.5322 251.087 135.633 371.53c-51.3408 -7.87402 -102.365 -17.7461 -153.749 -25.3584
c-58.5078 -8.66992 -117.972 -15.2285 -177.046 -8.83398c-42.6162 4.61426 -117.191 18.7061 -131.299 67.3223zM512.308 378.368c-16.6182 -34.5859 -32.9229 -69.3389 -48.8379 -104.272c38.5371 3.96582 79.0293 6.55762 112.261 5.08203
c-0.214844 5.75 -0.445312 11.4961 -0.640625 17.2422c-2.33789 68.2861 -3.6416 136.639 -2.38867 204.944c-20.377 -40.875 -40.6094 -81.8242 -60.3936 -122.996z" />
    <glyph glyph-name="A" unicode="&#xc1;" horiz-adv-x="899" 
d="M-47.3311 270.892c-6.72559 23.1758 46.4844 27.0449 52.6875 8.27246c8.33789 -25.1943 40.7031 -35.0469 64.0938 -40.9141c26.584 -6.66699 54.124 -7.49414 81.3789 -6.51855c60.71 2.17871 121.064 13.6357 180.817 23.8359
c11.332 1.93652 50.6221 8.75977 97.8525 14.6465c45.6846 99.2539 95.3975 196.787 145.146 293.793c0.203125 4.68457 0.359375 9.37305 0.59375 14.0576c1.60059 31.9824 81.1924 31.6348 81.1846 0c-0.0234375 -92.6064 -1.1084 -185.209 1.16309 -277.796
c1.9209 -78.3545 5.1416 -156.865 12.7227 -234.899c7.12793 -73.3809 15.7393 -151.185 36.6943 -222.079c7.9209 -26.7988 24.8896 -66.1787 59.1992 -50.7666c32.4746 14.5879 44.3926 61.8652 55.502 92.333c26.7207 73.2832 44.6934 149.385 54.1484 226.79
c1.34277 10.9893 28.6641 10.2705 27.5088 0c-10.7119 -95.1943 -33.0684 -192.122 -72.3857 -279.817c-13.2803 -29.625 -33.9619 -53.4844 -67.291 -59.2344c-31.7246 -5.47266 -67.498 1.61621 -91.5371 23.6836c-27.2432 25.0107 -38.8018 65.4951 -48.5527 99.8633
c-12.332 43.4668 -21.0176 87.8594 -27.5879 132.529c-10.8018 73.4395 -15.9268 147.426 -19.1201 221.521c-11.6797 0.699219 -23.543 0.347656 -35.1758 0.117188c-30.9443 -0.617188 -61.7402 -3.57617 -92.4111 -7.59668
c-30.5615 -68.5479 -59.2295 -137.924 -84.502 -208.623c-20.7168 -57.9502 -39.1807 -116.728 -54.5732 -176.32c-8.32227 -32.2207 -16.9258 -64.9102 -21.2939 -97.9355c-3.69238 -27.9072 -11.6328 -60.6357 1.55371 -86.9189
c8.89258 -17.7188 -40.5977 -25.0732 -46.5234 -7.31152c-10.29 30.8389 1.47168 63.2314 9.2832 93.4531c9.19727 35.5859 16.4541 71.6318 25.8857 107.175c33.9463 127.95 81.5322 251.087 135.633 371.53c-51.3408 -7.87402 -102.365 -17.7461 -153.749 -25.3584
c-58.5078 -8.66992 -117.972 -15.2285 -177.046 -8.83398c-42.6162 4.61426 -117.191 18.7061 -131.299 67.3223zM512.308 378.368c-16.6182 -34.5859 -32.9229 -69.3389 -48.8379 -104.272c38.5371 3.96582 79.0293 6.55762 112.261 5.08203
c-0.214844 5.75 -0.445312 11.4961 -0.640625 17.2422c-2.33789 68.2861 -3.6416 136.639 -2.38867 204.944c-20.377 -40.875 -40.6094 -81.8242 -60.3936 -122.996z" />
    <glyph glyph-name="B" unicode="B" horiz-adv-x="721" 
d="M81.417 -29.0967c24.4561 23.043 51.1104 43.3027 79.2715 61.2441c-1.50293 3.80566 -2.9043 7.6582 -4.2002 11.5615c-0.585938 0.679688 -1.08203 1.41016 -1.35156 2.24121c-16.9375 52.6797 -21.0518 109.154 -41.2021 160.694
c-9.26367 23.6992 -21.9033 46.0791 -40.1924 63.9854c-17.5625 17.1953 -38.2715 25.7832 -59.3477 37.4199c-15.9229 8.79492 -31.9395 20.5566 -37.2285 38.8301c-5.74219 19.834 3.25195 40.9609 12.3906 58.3789c21.1699 40.3564 55.1123 75.6611 88.8633 105.746
c67.5957 60.249 152.137 107.038 241.163 125.729c43.6504 9.16211 97.2471 11.0986 137.018 -12.5654c39.9072 -23.7461 40.2979 -67.7441 26.2646 -107.37c-14.7949 -41.7734 -39.4736 -82.3984 -63.5986 -119.378c-10.0518 -15.4082 -20.6426 -30.5117 -31.7051 -45.2637
c6.36719 0.695312 12.7305 1.23828 19.0703 1.625c44.6191 2.73242 96.5889 -3.42383 129.668 -36.7607c41.1211 -41.4453 43.6348 -108.132 33.0908 -167.779c5.35547 0.0429688 10.7109 0.0390625 16.0625 -0.0703125c46.0791 -0.936523 96.916 -6.7959 135.843 -33.6416
c14.8926 -10.2705 -12.5342 -18.8467 -21.8252 -12.4404c-38.2012 26.3418 -88.375 29.2891 -133.329 28.501c-0.101562 -0.00390625 -0.203125 -0.0117188 -0.304688 -0.0117188c-3.73926 -16.79 -8.34961 -32.7285 -13.2334 -47.0039
c-25.2373 -73.7793 -70.6836 -140.91 -122.965 -198.243c-52.3086 -57.3682 -117.562 -109.416 -191.092 -136.336c-70.8672 -25.9434 -165.211 -23.3477 -213.144 43.0264c-47.7217 66.085 7.62012 132.287 56.0137 177.882zM472.676 100.474
c2.49023 7.52246 4.85156 15.4395 7.00293 23.625c-27.7236 -4.1377 -55.2363 -9.75488 -82.3203 -16.3682c-59.585 -14.5488 -118.362 -35.5977 -172.412 -65.0195c0.152344 -10.001 -0.253906 -19.9434 -1.58887 -29.7607
c-2.79492 -20.5293 -42.9326 -18.8779 -51.5791 -3.97754c-0.117188 0.203125 -0.21875 0.410156 -0.335938 0.609375c-17.3008 -12.1797 -33.9189 -25.374 -49.6074 -39.79c-41.9053 -38.5059 -81.6797 -108.19 -34.125 -158.988
c40.9648 -43.7598 97.002 -29.0859 143.385 -3.18945c109.728 61.2715 202.076 173.653 241.581 292.859zM88.0215 309.144c14.4473 -9.31836 27.7295 -20.4551 38.9365 -33.5049c-0.511719 60.6631 3.49316 121.115 12.1748 181.31
c4.8916 33.9307 89.1328 31.2373 84.8428 0c-10.1182 -73.6738 -14.748 -148.339 -12.7412 -222.691c1.00293 -37.2178 3.56738 -74.1738 6.62793 -111.267c1.51465 -18.3203 4.16113 -37.0693 5.76953 -55.8027c58.3555 28.3057 120.981 48.3857 183.764 62.0918
c25.2764 5.51953 50.916 10.2197 76.7266 13.6748c9.46289 45.5713 10.751 96.5566 -10.3135 135.663c-28.5557 53.0195 -108.487 20.7754 -148.991 1.46387c-17.0586 -8.13086 -37.5059 -9.66113 -55.0254 -1.86523c-11.5664 5.14453 -23.9805 19.4941 -10.7939 30.8145
c37.292 32.002 71.5273 66.9395 101.933 105.574c27.5713 35.0312 55.7324 74.1338 71.6982 116.102c6.99121 18.3779 11.3008 40.7695 0.487305 58.6719c-10.3252 17.0938 -31.1396 22.0557 -49.7559 23.2578c-43.2021 2.79102 -87.8955 -13.6865 -126.822 -30.9092
c-71.5303 -31.6426 -135.405 -80.1221 -185.7 -139.957c-20.4121 -24.2842 -66.3193 -80.208 -29.0391 -107.424c14.123 -10.3135 31.5215 -15.7158 46.2227 -25.2021z" />
    <glyph glyph-name="C" unicode="C" horiz-adv-x="422" 
d="M-49.6309 70.0605c-2.50977 77.2373 5.94141 154.931 22.9102 230.275c15.6182 69.3604 37.0918 139.47 72.9785 201.245c32.6738 56.2402 83.9795 114.295 148.022 134.262c30.7256 9.5791 69.3447 9.68457 95.2412 -12.0117
c21.7549 -18.2305 29.543 -48.0469 33.7002 -74.959c9.95801 -64.4922 -4.60645 -139.407 -43.9043 -192.345c-17.7344 -23.8906 -43.1631 -40.1025 -73.6387 -39.7666c-25.0693 0.277344 -55.1699 12.2812 -61.7402 38.8262c-5.0752 20.502 41.6709 23.4961 45.6406 7.1709
c9.11523 -37.4629 39.9971 -6.97949 51.7354 11.2119c17.2969 26.8027 29.2695 58.457 34.2979 89.9443c4.80957 30.1357 4.11426 61.5371 -2.06543 91.4199c-4.07129 19.6826 -17.2812 63.9033 -44.416 50.9512c-43.4355 -20.7324 -74.2275 -68.9346 -96.6895 -109.485
c-26.6934 -48.1904 -45.8525 -101.116 -61.124 -153.917c-33.5791 -116.103 -47.1289 -241.406 -34.4385 -361.865c5.53516 -52.5547 17.2305 -111.926 52.5117 -153.598c43.9121 -51.8604 111.102 -3.24023 147.558 32.751
c78.9082 77.9014 123.246 182.387 163.485 283.769c3.71973 9.36914 30.5381 6.74609 26.2324 -4.12207c-28.5361 -72.0303 -58.7031 -144.268 -101.952 -208.928c-39.1143 -58.4805 -91.8408 -120.65 -162.556 -139.544c-64.0664 -17.1172 -126.1 9.67773 -161.561 64.6572
c-40.0518 62.1035 -47.8867 141.996 -50.2285 214.058z" />
    <glyph glyph-name="D" unicode="D" horiz-adv-x="667" 
d="M475.972 118.685c-37.1084 -84.085 -87.2314 -165.236 -159.905 -222.909c-76.7031 -60.8623 -193.157 -107.671 -288.113 -61.4902c-20.6699 10.0518 -39.4814 25.9316 -48.7451 47.4482c-8.84961 20.5645 -5.78125 40.4883 -1.4248 61.7637
c8.68164 42.4092 31.9199 79.5684 65.7529 106.516c22.6768 18.0625 48.3701 31.8857 75.7344 42.6211c-0.257812 4.92676 -0.5 9.85352 -0.71875 14.7803c-11.2734 45.3721 -25.3457 92.5635 -58.2266 126.717c-17.2852 17.9531 -39.2158 30.8701 -55.2676 50.1191
c-15.5049 18.5928 -22.7148 41.2539 -23.8428 65.2031c-4.67676 99.1836 80.7744 194.562 155.936 248.818c72.3154 52.1992 164.316 73.5596 250.399 44.751c93.126 -31.1631 136.425 -121.747 147.507 -213.814c11.9453 -99.2266 -13.4092 -201.799 -51.5361 -293.008
c56.4668 0.714844 112.938 1.39453 169.256 5.90723c5.1875 0.417969 16.5078 0.503906 18.7949 -6.08203c2.16699 -6.23828 -5.36328 -10.2783 -10.6719 -10.7119c-61.5488 -5.0127 -123.242 -5.65723 -184.928 -6.62891zM84.498 245.106
c11.9297 -12.2344 21.8496 -26.4443 29.876 -41.501c0.671875 -1.25684 1.30078 -2.5293 1.94531 -3.79395c-0.601562 94.3828 4.59766 188.664 13.0605 282.652c3.01367 33.458 86.4424 32.1348 84.2324 0c-6.9209 -100.741 -12.3545 -201.619 -13.9043 -302.595
c-0.332031 -21.4541 -0.320312 -42.9121 -0.152344 -64.3701c42.2061 8.39648 85.3379 12.4795 125.487 15.4424c24.1719 1.78418 48.3672 2.87695 72.5771 3.62207c12.9131 28.9336 24.1904 58.5117 34.0312 88.0469c28.1963 84.6113 40.6992 175.613 23.1992 263.941
c-7.87793 39.7588 -24.2852 80.2119 -55.0264 107.74c-27.1113 24.2803 -63.0674 34.8633 -98.9932 34.1953c-80.8291 -1.50684 -150.182 -57.4775 -201.069 -115.458c-27.3564 -31.1709 -51.707 -65.874 -65.6631 -105.23
c-13.4092 -37.8027 -21.4277 -89.7373 6.70215 -123.141c12.6396 -15.0098 30.0186 -25.5225 43.6973 -39.5518zM29.8789 -88.5049c16.2979 -38.4785 51.2627 -54.791 91.9033 -48.4121c20.4355 3.20508 40.1846 9.66211 59.0586 18.4844
c-7.74512 0.889648 -14.998 3.43066 -18.2578 6.74512c-32.4238 32.9746 -34.3252 95.1133 -38.5215 138.537c-1.37402 14.1973 -2.48633 28.4102 -3.42676 42.6348c-23.5156 -10.751 -45.3604 -24.7725 -63.0322 -43.8105
c-29.2695 -31.5303 -45.0752 -73.2139 -27.7236 -114.179zM208.268 -103.643c41.1055 25.167 77.084 60.6865 105.519 96.6162c29.7891 37.6387 54.6865 79.6963 75.5713 123.628c-15.334 -0.578125 -30.668 -1.29297 -45.9941 -2.25293
c-48.1357 -3.02148 -96.502 -8.5957 -143.6 -19.3975c0.289062 -21.501 0.714844 -43.002 1.24609 -64.4951c0.59375 -24.0625 2.05762 -47.9922 4.00195 -71.9766c1.64355 -20.291 6.9834 -41.96 3.25586 -62.1221z" />
    <glyph glyph-name="E" unicode="E" horiz-adv-x="413" 
d="M-50.251 -22.5029c-16.9844 94.7334 4.30371 199.219 78.5703 262.849c-20.2402 18.792 -32.9736 44.7158 -38.3291 73.084c-14.5566 77.1201 20.7832 163.18 67.3262 223.12c43.7246 56.3105 138.724 139.182 214.751 93.0557
c33.1689 -20.123 41.6748 -64.6719 44.3447 -100.27c3.17773 -42.3467 -4.04785 -86.376 -20.1309 -125.674c-14.041 -34.3135 -35.8232 -71.125 -73.1777 -83.1484c-30.5459 -9.83301 -79.2441 -0.78418 -88.1133 35.0674c-5.07129 20.502 41.667 23.4961 45.6406 7.1709
c11.4766 -47.1602 51.4775 9.16992 60.9092 27.1738c17.293 33.0059 27.0986 69.3564 28.168 106.621c0.885742 30.8936 -1.80371 66.8311 -17.4922 94.2422c-6.48438 11.332 -16.5596 22.832 -30.2852 17.2891c-13.2881 -5.36328 -24.8896 -16.0635 -35.4219 -25.4912
c-43.9629 -39.3408 -76.0859 -91.5127 -95.2725 -147.062c-15.5986 -45.1572 -27.415 -101.39 -5.97266 -146.754c6.59668 -13.959 9.06738 -15.251 19.8066 -26.2705c0.160156 -0.164062 0.273438 -0.285156 0.410156 -0.429688
c0.995117 -0.652344 1.94336 -1.4209 3.02832 -1.90137c3.47852 -1.53809 10.5713 -4.79004 -1.76855 0.467773c0.046875 -0.0703125 0.0625 -0.109375 0.0703125 -0.144531c17.1445 -8.47461 26.5293 -23.9482 5.82422 -37.0918
c-0.484375 -0.308594 -0.875 -0.554688 -1.21875 -0.769531c-4.90723 -4.11816 -9.93164 -8.0332 -14.6396 -12.4053c-15.2129 -14.123 -28.4111 -30.0654 -39.041 -47.9014c-32.9277 -55.248 -36.4922 -115.036 -31.0547 -177.814
c3.33398 -38.4941 10.8096 -77.6279 26.5879 -113.128c12.7998 -28.8008 32.252 -67.209 68.7041 -67.9619c39.4541 -0.811523 76.9834 28.4932 103.731 54.4951c27.0488 26.2988 50.373 56.127 70.6914 87.8633c39.6221 61.8926 68.0605 130.082 95.082 198.166
c3.71973 9.36914 30.5381 6.74609 26.2324 -4.12207c-34.6641 -87.5039 -72.127 -175.629 -131.712 -249.482c-48.4717 -60.0771 -116.661 -116.45 -199.075 -100.859c-88.2266 16.6885 -123.195 110.032 -137.174 188.016zM105.912 260.984
c-0.625 0.269531 -1.24512 0.535156 -1.96387 0.839844c0.756836 -0.324219 1.4873 -0.6875 2.22168 -1.03906c-0.0820312 0.0585938 -0.171875 0.128906 -0.257812 0.199219z" />
    <glyph glyph-name="E" unicode="&#xcb;" horiz-adv-x="413" 
d="M-50.251 -22.5029c-16.9844 94.7334 4.30371 199.219 78.5703 262.849c-20.2402 18.792 -32.9736 44.7158 -38.3291 73.084c-14.5566 77.1201 20.7832 163.18 67.3262 223.12c43.7246 56.3105 138.724 139.182 214.751 93.0557
c33.1689 -20.123 41.6748 -64.6719 44.3447 -100.27c3.17773 -42.3467 -4.04785 -86.376 -20.1309 -125.674c-14.041 -34.3135 -35.8232 -71.125 -73.1777 -83.1484c-30.5459 -9.83301 -79.2441 -0.78418 -88.1133 35.0674c-5.07129 20.502 41.667 23.4961 45.6406 7.1709
c11.4766 -47.1602 51.4775 9.16992 60.9092 27.1738c17.293 33.0059 27.0986 69.3564 28.168 106.621c0.885742 30.8936 -1.80371 66.8311 -17.4922 94.2422c-6.48438 11.332 -16.5596 22.832 -30.2852 17.2891c-13.2881 -5.36328 -24.8896 -16.0635 -35.4219 -25.4912
c-43.9629 -39.3408 -76.0859 -91.5127 -95.2725 -147.062c-15.5986 -45.1572 -27.415 -101.39 -5.97266 -146.754c6.59668 -13.959 9.06738 -15.251 19.8066 -26.2705c0.160156 -0.164062 0.273438 -0.285156 0.410156 -0.429688
c0.995117 -0.652344 1.94336 -1.4209 3.02832 -1.90137c3.47852 -1.53809 10.5713 -4.79004 -1.76855 0.467773c0.046875 -0.0703125 0.0625 -0.109375 0.0703125 -0.144531c17.1445 -8.47461 26.5293 -23.9482 5.82422 -37.0918
c-0.484375 -0.308594 -0.875 -0.554688 -1.21875 -0.769531c-4.90723 -4.11816 -9.93164 -8.0332 -14.6396 -12.4053c-15.2129 -14.123 -28.4111 -30.0654 -39.041 -47.9014c-32.9277 -55.248 -36.4922 -115.036 -31.0547 -177.814
c3.33398 -38.4941 10.8096 -77.6279 26.5879 -113.128c12.7998 -28.8008 32.252 -67.209 68.7041 -67.9619c39.4541 -0.811523 76.9834 28.4932 103.731 54.4951c27.0488 26.2988 50.373 56.127 70.6914 87.8633c39.6221 61.8926 68.0605 130.082 95.082 198.166
c3.71973 9.36914 30.5381 6.74609 26.2324 -4.12207c-34.6641 -87.5039 -72.127 -175.629 -131.712 -249.482c-48.4717 -60.0771 -116.661 -116.45 -199.075 -100.859c-88.2266 16.6885 -123.195 110.032 -137.174 188.016zM105.912 260.984
c-0.625 0.269531 -1.24512 0.535156 -1.96387 0.839844c0.756836 -0.324219 1.4873 -0.6875 2.22168 -1.03906c-0.0820312 0.0585938 -0.171875 0.128906 -0.257812 0.199219z" />
    <glyph glyph-name="E" unicode="&#xca;" horiz-adv-x="413" 
d="M-50.251 -22.5029c-16.9844 94.7334 4.30371 199.219 78.5703 262.849c-20.2402 18.792 -32.9736 44.7158 -38.3291 73.084c-14.5566 77.1201 20.7832 163.18 67.3262 223.12c43.7246 56.3105 138.724 139.182 214.751 93.0557
c33.1689 -20.123 41.6748 -64.6719 44.3447 -100.27c3.17773 -42.3467 -4.04785 -86.376 -20.1309 -125.674c-14.041 -34.3135 -35.8232 -71.125 -73.1777 -83.1484c-30.5459 -9.83301 -79.2441 -0.78418 -88.1133 35.0674c-5.07129 20.502 41.667 23.4961 45.6406 7.1709
c11.4766 -47.1602 51.4775 9.16992 60.9092 27.1738c17.293 33.0059 27.0986 69.3564 28.168 106.621c0.885742 30.8936 -1.80371 66.8311 -17.4922 94.2422c-6.48438 11.332 -16.5596 22.832 -30.2852 17.2891c-13.2881 -5.36328 -24.8896 -16.0635 -35.4219 -25.4912
c-43.9629 -39.3408 -76.0859 -91.5127 -95.2725 -147.062c-15.5986 -45.1572 -27.415 -101.39 -5.97266 -146.754c6.59668 -13.959 9.06738 -15.251 19.8066 -26.2705c0.160156 -0.164062 0.273438 -0.285156 0.410156 -0.429688
c0.995117 -0.652344 1.94336 -1.4209 3.02832 -1.90137c3.47852 -1.53809 10.5713 -4.79004 -1.76855 0.467773c0.046875 -0.0703125 0.0625 -0.109375 0.0703125 -0.144531c17.1445 -8.47461 26.5293 -23.9482 5.82422 -37.0918
c-0.484375 -0.308594 -0.875 -0.554688 -1.21875 -0.769531c-4.90723 -4.11816 -9.93164 -8.0332 -14.6396 -12.4053c-15.2129 -14.123 -28.4111 -30.0654 -39.041 -47.9014c-32.9277 -55.248 -36.4922 -115.036 -31.0547 -177.814
c3.33398 -38.4941 10.8096 -77.6279 26.5879 -113.128c12.7998 -28.8008 32.252 -67.209 68.7041 -67.9619c39.4541 -0.811523 76.9834 28.4932 103.731 54.4951c27.0488 26.2988 50.373 56.127 70.6914 87.8633c39.6221 61.8926 68.0605 130.082 95.082 198.166
c3.71973 9.36914 30.5381 6.74609 26.2324 -4.12207c-34.6641 -87.5039 -72.127 -175.629 -131.712 -249.482c-48.4717 -60.0771 -116.661 -116.45 -199.075 -100.859c-88.2266 16.6885 -123.195 110.032 -137.174 188.016zM105.912 260.984
c-0.625 0.269531 -1.24512 0.535156 -1.96387 0.839844c0.756836 -0.324219 1.4873 -0.6875 2.22168 -1.03906c-0.0820312 0.0585938 -0.171875 0.128906 -0.257812 0.199219z" />
    <glyph glyph-name="E" unicode="&#xc9;" horiz-adv-x="413" 
d="M-50.251 -22.5029c-16.9844 94.7334 4.30371 199.219 78.5703 262.849c-20.2402 18.792 -32.9736 44.7158 -38.3291 73.084c-14.5566 77.1201 20.7832 163.18 67.3262 223.12c43.7246 56.3105 138.724 139.182 214.751 93.0557
c33.1689 -20.123 41.6748 -64.6719 44.3447 -100.27c3.17773 -42.3467 -4.04785 -86.376 -20.1309 -125.674c-14.041 -34.3135 -35.8232 -71.125 -73.1777 -83.1484c-30.5459 -9.83301 -79.2441 -0.78418 -88.1133 35.0674c-5.07129 20.502 41.667 23.4961 45.6406 7.1709
c11.4766 -47.1602 51.4775 9.16992 60.9092 27.1738c17.293 33.0059 27.0986 69.3564 28.168 106.621c0.885742 30.8936 -1.80371 66.8311 -17.4922 94.2422c-6.48438 11.332 -16.5596 22.832 -30.2852 17.2891c-13.2881 -5.36328 -24.8896 -16.0635 -35.4219 -25.4912
c-43.9629 -39.3408 -76.0859 -91.5127 -95.2725 -147.062c-15.5986 -45.1572 -27.415 -101.39 -5.97266 -146.754c6.59668 -13.959 9.06738 -15.251 19.8066 -26.2705c0.160156 -0.164062 0.273438 -0.285156 0.410156 -0.429688
c0.995117 -0.652344 1.94336 -1.4209 3.02832 -1.90137c3.47852 -1.53809 10.5713 -4.79004 -1.76855 0.467773c0.046875 -0.0703125 0.0625 -0.109375 0.0703125 -0.144531c17.1445 -8.47461 26.5293 -23.9482 5.82422 -37.0918
c-0.484375 -0.308594 -0.875 -0.554688 -1.21875 -0.769531c-4.90723 -4.11816 -9.93164 -8.0332 -14.6396 -12.4053c-15.2129 -14.123 -28.4111 -30.0654 -39.041 -47.9014c-32.9277 -55.248 -36.4922 -115.036 -31.0547 -177.814
c3.33398 -38.4941 10.8096 -77.6279 26.5879 -113.128c12.7998 -28.8008 32.252 -67.209 68.7041 -67.9619c39.4541 -0.811523 76.9834 28.4932 103.731 54.4951c27.0488 26.2988 50.373 56.127 70.6914 87.8633c39.6221 61.8926 68.0605 130.082 95.082 198.166
c3.71973 9.36914 30.5381 6.74609 26.2324 -4.12207c-34.6641 -87.5039 -72.127 -175.629 -131.712 -249.482c-48.4717 -60.0771 -116.661 -116.45 -199.075 -100.859c-88.2266 16.6885 -123.195 110.032 -137.174 188.016zM105.912 260.984
c-0.625 0.269531 -1.24512 0.535156 -1.96387 0.839844c0.756836 -0.324219 1.4873 -0.6875 2.22168 -1.03906c-0.0820312 0.0585938 -0.171875 0.128906 -0.257812 0.199219z" />
    <glyph glyph-name="F" unicode="F" horiz-adv-x="436" 
d="M11.3633 543.027c4.35645 9.31445 31.4277 6.34082 26.5322 -4.17188c-7.49902 -16.0869 51.0869 -12.3438 55.1777 -11.6875c14.1152 2.26367 27.833 6.55371 41.3242 11.1914c19.6279 6.74902 38.8887 14.5293 57.9736 22.6992
c0.644531 7.63965 1.33203 15.2715 2.06543 22.8955c2.63867 27.3955 59.7295 31.6895 77.4795 12.585c35.9795 16.1182 72.2598 31.5684 109.957 43.2402c50.6885 15.6963 106.479 26.5684 159.64 19.3311c38.9385 -5.30078 87.5469 -35.2617 68.9814 -81.1572
c-3.95801 -9.78223 -31.9902 -6.97949 -27.4072 4.30566c13.7217 33.7861 -19.5879 57.1924 -49.0879 61.3105c-29.4336 4.10645 -60.4678 0.363281 -89.4482 -5.24219c-58.3594 -11.2852 -113.378 -35.1797 -167.33 -59.4912
c2.12012 -122.548 -5.67578 -245.204 -5.06641 -367.806c0.121094 -24.4639 0.472656 -48.9395 0.953125 -73.415c3.75098 0.834961 7.50195 1.66602 11.2529 2.49707c30.4248 6.74902 70.874 20.6973 96.4902 -4.79785
c10.4033 -10.3525 -18.3389 -16.0986 -25.8574 -8.61523c-10.3682 10.3174 -43.2842 3.5957 -81.5596 -6.16309c0.75293 -32.5254 1.83008 -65.0469 3.30176 -97.5254c1.38574 -30.6045 3.0332 -61.1934 4.36035 -91.8018
c1.24121 -28.6836 5.42969 -60.0146 -2.91602 -87.875c-5.22656 -17.457 -42.9121 -12.7568 -50.3447 0c-15.3848 26.3965 -18.5508 61.9199 -22.9971 91.6934c-4.55957 30.5107 -7.88574 61.0762 -10.5088 91.8096c-2.08496 24.3896 -3.75977 48.7871 -5.11426 73.2002
c-42.9326 -7.99902 -76.6055 -6.66797 -74.501 25.627c0.741211 11.3984 29.2461 11.043 28.7266 0c-0.916992 -19.4404 26.6738 -10.9268 38.4902 -8.28418c2.09668 0.472656 4.19727 0.929688 6.29395 1.39844c-1.49512 30.7178 -2.48633 61.4629 -3.0918 92.2471
c-2.14746 109.329 -2.50684 219.807 5.58887 329.09c-25.2529 -10.4424 -50.959 -19.5928 -77.3398 -25.5381c-23.9766 -5.40234 -49.167 -7.24902 -73.167 -0.94043c-12.499 3.28711 -36.9473 12.0859 -28.8516 29.3906z" />
    <glyph glyph-name="G" unicode="G" horiz-adv-x="738" 
d="M27.042 323.341c36.3584 30.1982 76.4824 54.9033 117.729 77.6572c14.3496 57.6025 36.374 113.327 67.584 163.915c35.3008 57.2158 88.5391 114.537 156.6 129.867c30.3506 6.83496 66.1865 5.03906 85.9551 -22.3018
c17.6172 -24.3623 12.0859 -57.6211 -1.05762 -82.7178c-32.5918 -62.2441 -101.698 -102.007 -160.882 -134.954c-18.2305 -10.1494 -36.71 -19.8652 -55.2285 -29.5146c-8.86914 -27.2588 -15.8369 -55.1348 -20.5527 -83.5381
c-10.5088 -63.2783 -12.9209 -130.394 2.03027 -193.203c6.13672 -25.7832 14.916 -60.877 33.7549 -80.7227c22.6729 -23.8867 57.0332 -6.07031 76.9727 12.2031c45.5322 41.7227 65.7842 111.465 80.9541 169.247c17.0938 65.1055 24.8311 132.885 46.1289 196.83
c2.31836 6.95996 17.4375 7.55371 23.7695 2.85352c2.01855 -0.257812 3.83789 -0.691406 5.23535 -1.28906c15.8877 -6.77246 21.4111 -22.8789 25.5762 -38.8018c5.26953 -20.1465 9.10645 -40.8203 12.4365 -61.3613c7.14355 -44.1035 11.7852 -88.6016 13.8623 -133.24
c2.83008 -60.8545 4.91504 -123.25 0.0859375 -184.584c61.334 17.1836 118.288 45.9727 165.022 94.7256c10.6299 11.0859 51.4736 2.74805 36.9209 -12.3008c-55.8223 -57.7314 -127.935 -90.2764 -204.481 -108.654
c-1.41309 -12.418 -3.10742 -24.7812 -5.21973 -37.0547c-11.2578 -65.4521 -35.8896 -128.359 -80.4111 -178.381c-40.8203 -45.8643 -95.5967 -78.5264 -155.447 -92.1387c-109.743 -24.9639 -253.741 29.2148 -278.357 149.834
c-12.4912 61.2168 29.3867 111.925 83.3389 135.042c65.7764 28.1807 143.811 21.6729 213.756 23.0781c46.1768 0.928711 93.6377 2.88086 140.169 8.98242c0.734375 7.6748 1.34766 15.334 1.83594 22.9502c4.37988 68.3018 3.57227 136.807 2.43262 205.187
c-0.46875 28.0947 -1.37402 56.1895 -2.21289 84.2764c-9.13477 -46.2578 -18.0977 -92.5859 -33.833 -137.307c-22.7461 -64.6484 -58.5938 -137.198 -133.548 -148.495c-163.898 -24.7021 -172.342 210.341 -152.266 319.55
c0.764648 4.16113 1.58008 8.31836 2.41895 12.4717c-13.167 -7.74902 -26.166 -15.7949 -38.8877 -24.3125c-29.6602 -19.8574 -57.7002 -42.3232 -82.2656 -68.2861c-17.8867 -18.9014 -66.9326 -67.1348 -40.0791 -93.8672
c11.1406 -11.0898 -19.6514 -17.2422 -27.7051 -9.22754c-23.5781 23.4727 -6.5625 53.1211 9.5791 75.4814c19.4639 26.9629 42.7334 50.877 68.2871 72.1016zM304.516 -256.376c95.0186 47.7373 132.71 145.678 145.971 244.85
c-27.1465 -3.29492 -54.3125 -5.38379 -80.998 -6.67969c-67.3926 -3.27539 -137.447 2.00977 -204.099 -9.45898c-59.2148 -10.1924 -112.414 -51.2861 -101.546 -117.082c17.6562 -106.901 149.854 -157.255 240.672 -111.629zM280.385 526.729
c-11.9141 -23.125 -22.6084 -46.8564 -31.8838 -71.1016c42.8623 22.626 85.2246 46.9375 121.747 78.4521c23.5703 20.3379 48.1123 45.7314 57.6797 76.0898c5.14062 16.3096 2.34961 36.5225 -9.98242 49.1855c-10.3877 10.6729 -19.7607 5.47754 -30.6055 -1.55664
c-48.0693 -31.1826 -81.1602 -80.9971 -106.955 -131.069z" />
    <glyph glyph-name="H" unicode="H" horiz-adv-x="734" 
d="M-13.3496 254.145c-12.2148 -13.5576 -51.6094 1.3916 -37.1934 12.3848c54.5576 41.5859 115.08 71.8311 181.216 90.0186c4.75098 1.30371 9.51758 2.55273 14.2881 3.75879c3.5293 87.9805 10.0645 175.902 19.1016 263.328
c3.55664 34.4229 89.1562 33.5801 87.2822 0.000976562c-4.55957 -81.6445 -10.8057 -163.156 -15.2988 -244.77c37.0889 6.30859 74.3418 11.8164 111.29 18.8545c13.0459 2.48633 26.4902 5.13672 40.0283 8.14648c7.35449 45.6416 18.6748 90.7871 35.6162 133.149
c20.5957 51.4971 73.7988 139.185 142.245 108.111c61.4199 -27.8838 49.5957 -112.429 18.5615 -158.316c-26.9824 -39.8877 -69.7354 -64.0908 -114.764 -80.4316c-6.88184 -44.3809 -11.3008 -89.0977 -12.335 -134.103
c-1.51855 -66.1006 3.61035 -132.342 14.665 -197.518c10.8174 -63.7588 24.8115 -129.738 47.3398 -190.499c8.7832 -23.6836 23.4844 -65.4336 55.0996 -46.4932c28.001 16.7744 39.79 52.6533 52.1299 80.9355c28.8516 66.1201 57.6992 132.24 86.5508 198.36
c4.05176 9.2832 30.8428 6.49219 26.2324 -4.12207c-19.4834 -44.8799 -38.9707 -89.7637 -58.4541 -134.644c-16.7627 -38.6074 -30.6211 -81.3291 -53.165 -117.005c-41.5703 -65.7842 -132.275 -62.915 -172.569 3.45117
c-19.4014 31.9512 -29.6523 71.3779 -39.7549 107.069c-10.2432 36.1904 -18.542 72.8457 -24.7139 109.95c-12.7842 76.8438 -17.2773 155.116 -12.4326 232.889c1.40918 22.626 3.57227 45.4932 6.65234 68.3213c-49.4082 -10.5479 -99.5195 -17.3438 -149.275 -26.084
c-2.11621 -41.2852 -3.71289 -82.6055 -4.33398 -123.984c-0.983398 -65.4326 0.582031 -130.795 3.9043 -196.142c1.52637 -30.082 3.91504 -60.0742 6.60059 -90.0703c1.38574 -15.458 3.38086 -30.8037 5.02441 -46.2266
c0.75293 -7.04199 0.163086 -22.8555 2.1582 -32.665c4.11816 -2.9043 5.875 -7.15918 2.9043 -13.2607c-0.265625 -0.542969 -0.527344 -1.08203 -0.792969 -1.625c-5.55078 -11.3945 -24.5889 -13.5928 -35.457 -11.4766
c-33.583 6.53906 -42.7881 39.7197 -49.6895 69.6104c-7.22949 31.3193 -10.9727 63.0557 -14.1777 94.999c-6.79199 67.7207 -9.12598 135.707 -9.17676 203.748c-0.03125 42.4873 0.807617 85.0176 2.2793 127.544c-58.543 -15.8096 -116.918 -40.0586 -157.586 -85.1963z
M480.14 470.147c-2.5293 -12.3164 -4.83105 -24.667 -7.01367 -37.042c20.2207 9.31055 39.0674 20.916 55.2363 35.9336c21.252 19.7412 38.4004 47.0859 41.6211 76.4062c1.62402 14.791 -0.242188 30.6631 -4.55176 44.8564
c-2.93555 9.66895 -11.6875 32.1035 -23.4883 34.04c4.08301 -0.667969 -7.81543 -8.98633 -10.9189 -12.4414c-4.68848 -5.21875 -8.59961 -10.9141 -12.1797 -16.9453c-6.56641 -11.0742 -11.7188 -22.8711 -15.9736 -35.0117
c-10.1572 -28.9805 -16.5596 -59.7686 -22.7314 -89.7959z" />
    <glyph glyph-name="I" unicode="I" horiz-adv-x="439" 
d="M225.486 610.514c-8.01074 -93.6797 -16.6396 -187.349 -22.5459 -281.2c-5.24609 -83.3232 -9.79785 -166.951 -9.2041 -250.466c0.53125 -74.5361 0.738281 -155.619 25.1436 -226.942c10.8213 -31.623 33.4473 -73.8096 72.6045 -49.1465
c31.6973 19.9629 49.1113 59.7373 63.6875 92.75c31.2295 70.7305 47.4766 146.707 61.2686 222.434c1.97949 10.8643 28.9268 9.7832 27.2051 0.000976562c-16.4072 -93.1914 -36.0234 -189.822 -83.6484 -272.813c-17.7148 -30.8701 -42.2178 -56.9189 -76.7217 -68.54
c-36.3115 -12.2266 -76.0859 0.256836 -104.638 24.1709c-30.6357 25.6631 -45.626 66.0928 -54.8154 103.864c-10.8135 44.4668 -15.1973 90.1045 -17.2471 135.727c-4.2666 95.0693 -0.144531 190.201 5.67969 285.106c5.66016 92.2236 13.1318 184.232 25.0811 275.848
c-37.9473 -5.53125 -84.3809 -9.7666 -107.721 27.123c-5.83203 9.2168 20.7949 12.6992 26.2324 4.12305c16.3994 -25.8652 48.792 -19.9551 74.7119 -16.1729c3.51758 0.515625 7.03125 1.07422 10.5488 1.62109c11.2461 19.6631 54.1357 22.7861 74.1025 10.4033
c35.6875 3.10742 71.293 1.6748 105.548 -10.5166c16.9492 -6.03125 -3.23242 -17.3359 -13.8857 -13.5381c-26.6621 9.50977 -53.9678 11.0166 -81.375 9.13477c0.0742188 -0.959961 0.0742188 -1.94727 -0.0117188 -2.96973z" />
    <glyph glyph-name="I" unicode="&#xcf;" horiz-adv-x="439" 
d="M225.486 610.514c-8.01074 -93.6797 -16.6396 -187.349 -22.5459 -281.2c-5.24609 -83.3232 -9.79785 -166.951 -9.2041 -250.466c0.53125 -74.5361 0.738281 -155.619 25.1436 -226.942c10.8213 -31.623 33.4473 -73.8096 72.6045 -49.1465
c31.6973 19.9629 49.1113 59.7373 63.6875 92.75c31.2295 70.7305 47.4766 146.707 61.2686 222.434c1.97949 10.8643 28.9268 9.7832 27.2051 0.000976562c-16.4072 -93.1914 -36.0234 -189.822 -83.6484 -272.813c-17.7148 -30.8701 -42.2178 -56.9189 -76.7217 -68.54
c-36.3115 -12.2266 -76.0859 0.256836 -104.638 24.1709c-30.6357 25.6631 -45.626 66.0928 -54.8154 103.864c-10.8135 44.4668 -15.1973 90.1045 -17.2471 135.727c-4.2666 95.0693 -0.144531 190.201 5.67969 285.106c5.66016 92.2236 13.1318 184.232 25.0811 275.848
c-37.9473 -5.53125 -84.3809 -9.7666 -107.721 27.123c-5.83203 9.2168 20.7949 12.6992 26.2324 4.12305c16.3994 -25.8652 48.792 -19.9551 74.7119 -16.1729c3.51758 0.515625 7.03125 1.07422 10.5488 1.62109c11.2461 19.6631 54.1357 22.7861 74.1025 10.4033
c35.6875 3.10742 71.293 1.6748 105.548 -10.5166c16.9492 -6.03125 -3.23242 -17.3359 -13.8857 -13.5381c-26.6621 9.50977 -53.9678 11.0166 -81.375 9.13477c0.0742188 -0.959961 0.0742188 -1.94727 -0.0117188 -2.96973z" />
    <glyph glyph-name="I" unicode="&#xce;" horiz-adv-x="439" 
d="M225.486 610.514c-8.01074 -93.6797 -16.6396 -187.349 -22.5459 -281.2c-5.24609 -83.3232 -9.79785 -166.951 -9.2041 -250.466c0.53125 -74.5361 0.738281 -155.619 25.1436 -226.942c10.8213 -31.623 33.4473 -73.8096 72.6045 -49.1465
c31.6973 19.9629 49.1113 59.7373 63.6875 92.75c31.2295 70.7305 47.4766 146.707 61.2686 222.434c1.97949 10.8643 28.9268 9.7832 27.2051 0.000976562c-16.4072 -93.1914 -36.0234 -189.822 -83.6484 -272.813c-17.7148 -30.8701 -42.2178 -56.9189 -76.7217 -68.54
c-36.3115 -12.2266 -76.0859 0.256836 -104.638 24.1709c-30.6357 25.6631 -45.626 66.0928 -54.8154 103.864c-10.8135 44.4668 -15.1973 90.1045 -17.2471 135.727c-4.2666 95.0693 -0.144531 190.201 5.67969 285.106c5.66016 92.2236 13.1318 184.232 25.0811 275.848
c-37.9473 -5.53125 -84.3809 -9.7666 -107.721 27.123c-5.83203 9.2168 20.7949 12.6992 26.2324 4.12305c16.3994 -25.8652 48.792 -19.9551 74.7119 -16.1729c3.51758 0.515625 7.03125 1.07422 10.5488 1.62109c11.2461 19.6631 54.1357 22.7861 74.1025 10.4033
c35.6875 3.10742 71.293 1.6748 105.548 -10.5166c16.9492 -6.03125 -3.23242 -17.3359 -13.8857 -13.5381c-26.6621 9.50977 -53.9678 11.0166 -81.375 9.13477c0.0742188 -0.959961 0.0742188 -1.94727 -0.0117188 -2.96973z" />
    <glyph glyph-name="I" unicode="&#xcd;" horiz-adv-x="439" 
d="M225.486 610.514c-8.01074 -93.6797 -16.6396 -187.349 -22.5459 -281.2c-5.24609 -83.3232 -9.79785 -166.951 -9.2041 -250.466c0.53125 -74.5361 0.738281 -155.619 25.1436 -226.942c10.8213 -31.623 33.4473 -73.8096 72.6045 -49.1465
c31.6973 19.9629 49.1113 59.7373 63.6875 92.75c31.2295 70.7305 47.4766 146.707 61.2686 222.434c1.97949 10.8643 28.9268 9.7832 27.2051 0.000976562c-16.4072 -93.1914 -36.0234 -189.822 -83.6484 -272.813c-17.7148 -30.8701 -42.2178 -56.9189 -76.7217 -68.54
c-36.3115 -12.2266 -76.0859 0.256836 -104.638 24.1709c-30.6357 25.6631 -45.626 66.0928 -54.8154 103.864c-10.8135 44.4668 -15.1973 90.1045 -17.2471 135.727c-4.2666 95.0693 -0.144531 190.201 5.67969 285.106c5.66016 92.2236 13.1318 184.232 25.0811 275.848
c-37.9473 -5.53125 -84.3809 -9.7666 -107.721 27.123c-5.83203 9.2168 20.7949 12.6992 26.2324 4.12305c16.3994 -25.8652 48.792 -19.9551 74.7119 -16.1729c3.51758 0.515625 7.03125 1.07422 10.5488 1.62109c11.2461 19.6631 54.1357 22.7861 74.1025 10.4033
c35.6875 3.10742 71.293 1.6748 105.548 -10.5166c16.9492 -6.03125 -3.23242 -17.3359 -13.8857 -13.5381c-26.6621 9.50977 -53.9678 11.0166 -81.375 9.13477c0.0742188 -0.959961 0.0742188 -1.94727 -0.0117188 -2.96973z" />
    <glyph glyph-name="J" unicode="J" horiz-adv-x="676" 
d="M72.3809 583.453c0.378906 -25.4092 23.3604 -42.7129 46.7744 -46.5029c32.1855 -5.19141 65.542 4.29102 96.0957 13.5586c56.3184 17.082 110.614 39.9258 165.839 60.0957c9.5293 3.48242 19.1201 6.90234 28.7656 10.2129
c8.05762 5.95312 21.0801 8.88086 30.1328 9.84863c34.7266 10.7275 70.1445 19.2842 106.198 23.0977c39.2783 4.15332 102.408 6.37012 117.422 -40.9463c3.92676 -12.375 -24.2188 -14.2139 -28.29 -4.44727c-14.0059 33.5908 -50.1104 32.1152 -81.1445 28.8789
c-25.4951 -2.6582 -50.627 -7.99023 -75.3486 -14.7002c5.42578 -3.79785 9.48926 -9.08301 10.9141 -16.2734c16.5674 -83.6279 23.832 -168.626 27.8916 -253.694c2.29102 -47.9795 3.86426 -96.1191 4.17676 -144.247
c69.9297 -1.33496 138.806 -26.3105 183.397 -82.3281c9.10352 -11.4375 -18.6396 -16.3955 -25.0693 -8.35352c-40.251 50.3379 -98.2393 72.4131 -158.254 73.4434c-0.0078125 -30.0625 -0.53125 -60.1094 -1.77246 -90.1016
c-2.99023 -72.2178 -10.0635 -144.899 -29.7812 -214.673c-17.2461 -61.0332 -51.0791 -124.026 -110.551 -152.621c-48.7295 -23.4297 -108.713 -18.1602 -147.823 21.2705c-43.7832 44.1465 -48.167 115.021 -39.6885 173.252
c17.4141 119.6 100.382 219.584 213.619 260.861c9.27539 3.38086 18.8125 6.34375 28.5322 8.87305c-0.15625 8.35352 -0.324219 16.6992 -0.496094 25.0449c-2.61133 125.857 -12.0156 250.892 -30.0781 375.473c-36.3428 -13.1045 -72.2217 -27.5439 -108.428 -40.9961
c-54.8701 -20.3848 -114.089 -42.8975 -173.592 -40.3877c-40.4062 1.70605 -99.1719 16.8799 -101.046 66.3623c-0.756836 20.0449 51.2988 20.3262 51.6035 0zM432.459 32.5156c2.95898 48.5771 3.00977 97.2939 2.2832 145.973
c-24.9912 -7.63184 -48.96 -18.4766 -70.6562 -32.0303c-94.2539 -58.8828 -149.939 -168.231 -143.873 -279.045c1.56934 -28.668 7.38965 -57.8984 22.4385 -82.7412c13.8857 -22.9219 40.8604 -48.627 69.79 -43.3965c48.5771 8.7832 77.2764 69.6797 91.1895 111.098
c19.3584 57.6338 25.1475 119.78 28.8281 180.143z" />
    <glyph glyph-name="K" unicode="K" horiz-adv-x="750" 
d="M158.371 656.275c4.28613 32.1973 84.1738 32.1748 82.7061 0.000976562c-4.53613 -99.6953 -9.0957 -199.52 -10.501 -299.352c18.0742 14.9629 35.3203 30.9248 51.6104 47.7617c66.2725 68.4893 114.131 155.4 130.354 249.775
c3.31445 19.2646 51.3799 18.1172 48.8584 0c-16.3955 -117.719 -87.3955 -219.335 -175.321 -296.385c-17.7773 -15.5791 -36.4443 -30.624 -55.9316 -44.5254c-0.0390625 -9.81348 0.03125 -19.627 0.0625 -29.4404c14.3613 -10.1182 28.1416 -20.9512 41.1797 -32.3535
c44.958 -39.3291 87.1328 -81.5898 137.588 -114.088c94.3203 -60.7568 219.132 -89.917 319.202 -24.2852c7.4248 4.86816 36.0117 -1.95898 24.4766 -10.7656c-89.4717 -68.2979 -207.939 -67.1348 -308.193 -23.75c-45.5908 19.7295 -86.9971 46.9922 -125.237 78.5527
c-31.5605 26.0488 -59.6006 55.7324 -88.7334 84.3311c0.679688 -56.4707 2.16309 -113.058 5.72754 -169.384c1.90137 -29.9844 4.50879 -60.0469 8.2832 -89.8555c3.71582 -29.3398 13.8809 -61.7598 8.77832 -91.2402
c-3.48242 -20.1035 -42.5303 -21.8525 -54.0459 -8.3418c-20.7012 24.2842 -28.4814 54.8105 -35.25 85.3564c-6.83105 30.8154 -11.4492 61.8379 -14.5254 93.2393c-6.35938 64.8828 -8.9707 130.129 -10.2549 195.289
c-0.0351562 1.62402 -0.0507812 3.24414 -0.0820312 4.86816c-43.334 -18.3779 -94.9678 -31.0996 -140.441 -16.8047c-18.3701 5.77734 -37.1191 17.1602 -41.1318 37.3691c-4.44629 22.3916 10.4658 43.3662 28.1611 55.374
c39.3018 26.6699 92.9727 17.9727 135.019 3.42383c5.96484 -2.06543 11.8828 -4.30957 17.7656 -6.66699c0.199219 107.628 5.65234 215.029 19.877 321.896zM28.3789 263.768c39.083 -0.585938 76.1396 12.3232 110.289 30.4678
c-0.0585938 5.93359 -0.109375 11.8672 -0.136719 17.7969c-23.2305 11.7227 -48.0537 20.084 -73.4238 23.3398c-25.4014 3.26367 -55.6816 -1.07324 -69.6953 -25.4551c-15.7783 -27.4541 6.90234 -45.7588 32.9668 -46.1494z" />
    <glyph glyph-name="L" unicode="L" horiz-adv-x="564" 
d="M-78.5059 -86.2227c5.32422 10.0518 35.5078 7.01855 29.7461 -4.68457c-13.0186 -26.4473 -0.600586 -59.8857 23.5049 -75.8281c28.9805 -19.167 67.248 -12.6709 98.5166 -3.34863c43.8926 13.085 84.0928 35.457 121.412 61.8379
c-20.2168 123.855 -31.6973 251.517 -30.0576 376.855c-76.0234 6.81152 -147.394 52.2344 -182.491 124.069c-11.0312 22.5791 50.6387 31.1709 58.583 9.20508c18.3086 -50.6191 56.8262 -90.2295 110.318 -102.9c4.74316 -1.12402 9.4668 -1.90039 14.1826 -2.5293
c0.128906 4.46582 0.214844 8.93945 0.378906 13.3975c2.5332 69.0361 10.2939 137.998 24.0195 205.703c11.8203 58.3164 22.9727 127.95 65.6084 172.581c33.5869 35.1602 87.1494 46.3906 128.22 16.918c42.8389 -30.7412 56.8213 -89.2568 55.998 -139.216
c-1.80762 -109.528 -63.1182 -233.337 -166.771 -279.521c-11.0859 -4.94238 -22.418 -8.81055 -33.8711 -11.7578c1.02246 -28.4697 2.54883 -56.8848 4.50098 -85.1904c5.50781 -79.9004 15.5361 -159.055 25.5488 -238.291
c42.1514 36.7646 82.6748 75.458 127.079 109.529c47.2148 36.2295 102.455 66.623 163.836 55.0254c17.9297 -3.38867 6.17578 -17.1689 -7.2334 -14.9521c-78.0498 12.9131 -149.381 -62.0996 -202.178 -109.346c-25.7754 -23.0664 -51.3877 -46.5078 -77.9092 -68.7939
c3.44727 -27.4854 6.83203 -54.9902 9.95508 -82.5537c1.95215 -17.2305 -28.2656 -22.4414 -39.3711 -22.4414c-15.4033 0 -36.1787 5.0791 -39.3721 22.4424c-1.65137 8.99414 -3.25586 18.0156 -4.82129 27.0566c-4.86035 -3.17773 -9.75195 -6.3125 -14.7217 -9.3418
c-53.3281 -32.4902 -120.24 -61.7715 -184.139 -53.6562c-50.5996 6.42578 -107.714 54.5537 -78.4717 109.731zM246.911 537.831c-8.41602 -76.9258 -10.7432 -154.801 -9.00977 -232.448c24.6709 9.4043 47.3594 24.7383 66.499 43.999
c34.4307 34.6406 57.2197 78.2949 76.1172 122.863c21.084 49.7324 32.7441 107.124 17.8203 160.351c-12.8232 45.7432 -57.3799 95.6162 -104.587 56.5684c-41.1523 -34.0439 -41.5273 -102.764 -46.8398 -151.333z" />
    <glyph glyph-name="M" unicode="M" horiz-adv-x="923" 
d="M113.451 607.594c0.788086 -119.089 -4.3457 -237.856 -0.325195 -356.988c1.67871 -49.7715 4.67676 -99.5195 8.95898 -149.143c8.81836 80.0791 20.2246 159.851 37.748 238.548c11.8828 53.3711 56.373 274.298 152.446 207.28
c37.0576 -25.8496 46.1182 -84.2129 55.9707 -125.143c11.832 -49.1553 15.0332 -100.066 17.6016 -150.471c2.5918 -50.9229 2.88086 -101.729 8.09961 -152.526c2.77539 -27.0059 6.59668 -53.9922 10.1533 -80.9082c1.44434 -10.9463 2.20898 -22.0049 3.69238 -32.9238
c0.5 -3.67285 1.93652 -7.18262 3.16211 -10.6064c2.28711 5.49219 6.38184 12.3389 7.68164 16.8555c2.25195 7.83496 3.8877 15.791 5.24609 23.8213c1.87793 11.0938 3.12695 22.2812 4.30176 33.4648c2.89648 27.6299 5.13281 55.3418 6.9209 83.0615
c3.57617 55.4316 6.13672 110.938 11.0986 166.268c8.88086 99.0557 25.8613 199.282 68.0205 290.14c17.043 36.7334 38.8369 84.4326 75.9102 105.075c36.3584 20.2441 74.3291 2.13867 96.373 -29.5117c29.3008 -42.0693 38.1035 -91.4307 43.7168 -141.374
c6.1875 -55.0342 3.26758 -110.407 1.26074 -165.62c-3.97754 -109.556 -3.64941 -217.995 11.2861 -326.802c4.1377 -30.1396 19.8262 -115.532 68.958 -86.7354c22.9336 13.4443 37.2871 39.7549 50.665 61.7793c13.9355 22.9414 26.6846 46.5391 38.54 70.6211
c4.48926 9.11523 31.21 6.14844 26.2324 -4.12207c-13.8037 -28.4814 -28.8877 -56.2949 -45.6387 -83.1602c-11.8672 -19.0342 -24.5029 -38.4082 -42.8535 -51.8213c-37.584 -27.4736 -86.6416 -18.1865 -123.953 4.69238
c-47.2148 28.9531 -60.1943 84.8809 -65.7373 136.288c-6.76074 62.7393 -7.44824 125.795 -3.89551 188.753c3.12695 55.4121 9.70508 110.5 13.8701 165.822c3.98535 52.9258 8.92383 107.437 2.74023 160.351c-2.7832 23.7969 -5.07422 48.2998 -15.8057 70.1016
c-7.03027 14.2793 -16.2549 25.1357 -33.3291 17.957c-9.18164 -3.86035 -17.0713 -13.1943 -23.2822 -20.6855c-31.0381 -37.4365 -51.501 -87.0127 -67.3184 -132.525c-34.8828 -100.359 -44.1621 -206.964 -50.8252 -312.3
c-3.50586 -55.4199 -6.13672 -110.953 -11.3906 -166.248c-2.19727 -23.1133 -4.95703 -46.3594 -11.999 -68.5791c-5.67578 -17.9062 -8.41992 -35.6211 -28.7344 -41.4609c-48.6436 -13.9824 -76 43.7061 -89.3193 80.4004
c-17.207 47.4062 -20.6504 98.8252 -21.9541 148.839c-1.33496 51.251 0.858398 102.225 1.9668 153.44c1.08496 50.1152 3.93457 101.335 -3.15039 151.122c-1.9248 13.5146 -4.0957 30.1445 -13.9561 40.4697c-14.9434 15.6455 -29.2227 -2.22559 -37.2725 -13.5693
c-14.2559 -20.0957 -24.9248 -42.7256 -33.5439 -65.7295c-18.9951 -50.6963 -30.6514 -104.539 -41.0312 -157.555c-20.7598 -106.027 -31.4834 -213.718 -43.3154 -321.018c4.47754 -21.8369 10.3486 -43.4668 9.11523 -65.7725
c-1.07324 -19.3779 -37.9707 -17.0635 -47.7959 -7.37891c-40.6133 40.0283 -47.4912 106.843 -55.8486 160.779c-9.24805 59.6826 -14.3232 119.822 -17.8682 180.091c-7.10449 120.795 -9.39551 244.619 7.52637 364.656c4.39551 31.1748 80.6689 32.0527 80.8799 0z" />
    <glyph glyph-name="N" unicode="N" horiz-adv-x="676" 
d="M449.798 240.018c1.6709 -69.165 -2.75586 -137.445 -6.10938 -206.442c-2.91992 -59.8662 -6.33984 -125.635 18.5264 -181.699c5.65625 -12.7568 13.5264 -28.1338 26.0879 -35.4453c18.0742 -10.5205 37.585 3.28711 49.917 16.3252
c21.9541 23.2109 35.9404 56.3096 49.6465 84.8027c28.376 59 50.334 120.787 66.21 184.28c2.36523 9.46289 29.1094 7.58887 26.2324 -4.12207c-17.5938 -71.5928 -42.9795 -141.055 -76.4336 -206.78c-25.6553 -50.4004 -62.5332 -112.539 -129.543 -94.2266
c-56.8213 15.5283 -89.6475 76.6748 -105.586 128.582c-19.2529 62.708 -7.84668 129.866 -3.99414 194.144c4.1377 69.0557 5.41016 138.061 4.57129 207.237c-0.764648 62.9346 -2.29102 129.043 -22.6836 189.202c-8.97852 26.4863 -22.4424 61.6152 -51.6885 70.7969
c-30.7959 9.66895 -56.6338 -16.2627 -72.4512 -39.6611c-34.9648 -51.7314 -52.543 -116.392 -67.7637 -176.219c-26.2285 -103.111 -42.667 -208.549 -49.8496 -314.65c1.54199 -21.1387 3.02539 -42.3086 4.23145 -63.4551
c1.3623 -23.9844 3.19336 -48.9131 -4.00488 -72.1162c-5.04395 -16.2627 -39.0879 -11.4336 -46.2314 0c-13.9131 22.2705 -18.582 50.4043 -23.1885 75.9307c-4.55957 25.2803 -8.43164 50.8223 -11.3125 76.3447c-5.75 50.9463 -10.2041 101.994 -12.4912 153.218
c-4.61426 103.42 -5.22363 207.78 5.95605 310.81c3.45117 31.7832 82.0977 31.6074 81.1846 0c-2.86523 -99.1836 -6.59277 -198.196 -3.73535 -297.411c9.96973 58.7773 22.9844 116.996 39.333 174.192c15.6689 54.8232 34.7266 117.781 74.5908 160.409
c35.707 38.1855 86.0762 41.3984 129.953 15.1543c52.5977 -31.46 76.0703 -96.249 89.6631 -152.84c15.3457 -63.8906 19.3779 -130.846 20.9629 -196.36z" />
    <glyph glyph-name="O" unicode="O" horiz-adv-x="561" 
d="M384.691 439.705c37.7949 -87.7539 50.5342 -184.92 47.1182 -279.899c-0.605469 -16.8252 -1.63184 -33.8447 -3.26758 -50.876c39.2861 2.5293 78.1201 9.65723 115.135 22.7188c11.5312 4.07129 33.2432 -8.25684 14.9619 -14.5889
c-41.8779 -14.498 -86.6025 -22.4971 -131.936 -25.124c-8.22461 -68.0684 -27.1104 -135.426 -68.3564 -190.658c-46.4648 -62.2207 -123.133 -110.11 -203.01 -102.33c-43.0537 4.19629 -80.833 29.5859 -101.112 67.8809
c-21.8213 41.207 -27.5674 93.1768 -28.8789 139.018c-2.0459 71.6475 11.1602 145.048 31.9277 215.075c-14.2012 17.5234 -26.5137 36.9053 -36.499 58.207c-37.7246 80.4932 -34.168 176.726 7.66699 255.025c17.8984 33.501 43.7715 65.0742 78.8105 81.3877
c37.4395 17.4336 80.4619 13.4482 117.972 -1.67871c76.3008 -30.7686 127.821 -100.675 159.468 -174.157zM214.311 -170.303c75.3018 16.8828 127.061 81.6816 154.257 150.62c13.8857 35.2031 22.626 72.6006 27.752 110.638
c-53.4648 -0.285156 -107.093 6.62012 -157.274 19.2402c-39.6494 9.96973 -77.2334 25.7246 -110.602 47.292c-11.8594 -49.502 -20.3027 -99.625 -20.5293 -151.638c-0.1875 -43.791 4.64551 -89.0225 20.166 -130.159c6.15625 -16.3174 12.8975 -32.6621 28.375 -42.3076
c17.1055 -10.6611 39.1455 -7.87793 57.8555 -3.68555zM282.729 118.444c37.7676 -6.89746 76.7422 -10.8311 115.619 -10.5811c4.0791 38.2324 4.75488 76.8867 3.37695 114.439c-3.06836 83.5498 -20.0605 167.584 -58.0859 242.526
c-32.6191 64.2891 -88.1523 130.874 -162.888 144.596c-87.3203 16.0361 -138.2 -84.1162 -151.473 -155.436c-12.8975 -69.3213 0.726562 -141.809 37.9092 -201.433c5.95703 17.9336 12.3516 35.5859 19.0498 52.8594c10.8916 28.0713 89.8037 22.4697 79.7559 -12.5342
c-10.8369 -37.7559 -22.1729 -75.2109 -31.9473 -112.912c43.0303 -32.1152 94.8008 -51.6846 148.683 -61.5254z" />
    <glyph glyph-name="O" unicode="&#xd6;" horiz-adv-x="561" 
d="M384.691 439.705c37.7949 -87.7539 50.5342 -184.92 47.1182 -279.899c-0.605469 -16.8252 -1.63184 -33.8447 -3.26758 -50.876c39.2861 2.5293 78.1201 9.65723 115.135 22.7188c11.5312 4.07129 33.2432 -8.25684 14.9619 -14.5889
c-41.8779 -14.498 -86.6025 -22.4971 -131.936 -25.124c-8.22461 -68.0684 -27.1104 -135.426 -68.3564 -190.658c-46.4648 -62.2207 -123.133 -110.11 -203.01 -102.33c-43.0537 4.19629 -80.833 29.5859 -101.112 67.8809
c-21.8213 41.207 -27.5674 93.1768 -28.8789 139.018c-2.0459 71.6475 11.1602 145.048 31.9277 215.075c-14.2012 17.5234 -26.5137 36.9053 -36.499 58.207c-37.7246 80.4932 -34.168 176.726 7.66699 255.025c17.8984 33.501 43.7715 65.0742 78.8105 81.3877
c37.4395 17.4336 80.4619 13.4482 117.972 -1.67871c76.3008 -30.7686 127.821 -100.675 159.468 -174.157zM214.311 -170.303c75.3018 16.8828 127.061 81.6816 154.257 150.62c13.8857 35.2031 22.626 72.6006 27.752 110.638
c-53.4648 -0.285156 -107.093 6.62012 -157.274 19.2402c-39.6494 9.96973 -77.2334 25.7246 -110.602 47.292c-11.8594 -49.502 -20.3027 -99.625 -20.5293 -151.638c-0.1875 -43.791 4.64551 -89.0225 20.166 -130.159c6.15625 -16.3174 12.8975 -32.6621 28.375 -42.3076
c17.1055 -10.6611 39.1455 -7.87793 57.8555 -3.68555zM282.729 118.444c37.7676 -6.89746 76.7422 -10.8311 115.619 -10.5811c4.0791 38.2324 4.75488 76.8867 3.37695 114.439c-3.06836 83.5498 -20.0605 167.584 -58.0859 242.526
c-32.6191 64.2891 -88.1523 130.874 -162.888 144.596c-87.3203 16.0361 -138.2 -84.1162 -151.473 -155.436c-12.8975 -69.3213 0.726562 -141.809 37.9092 -201.433c5.95703 17.9336 12.3516 35.5859 19.0498 52.8594c10.8916 28.0713 89.8037 22.4697 79.7559 -12.5342
c-10.8369 -37.7559 -22.1729 -75.2109 -31.9473 -112.912c43.0303 -32.1152 94.8008 -51.6846 148.683 -61.5254z" />
    <glyph glyph-name="O" unicode="&#xd5;" horiz-adv-x="561" 
d="M384.691 439.705c37.7949 -87.7539 50.5342 -184.92 47.1182 -279.899c-0.605469 -16.8252 -1.63184 -33.8447 -3.26758 -50.876c39.2861 2.5293 78.1201 9.65723 115.135 22.7188c11.5312 4.07129 33.2432 -8.25684 14.9619 -14.5889
c-41.8779 -14.498 -86.6025 -22.4971 -131.936 -25.124c-8.22461 -68.0684 -27.1104 -135.426 -68.3564 -190.658c-46.4648 -62.2207 -123.133 -110.11 -203.01 -102.33c-43.0537 4.19629 -80.833 29.5859 -101.112 67.8809
c-21.8213 41.207 -27.5674 93.1768 -28.8789 139.018c-2.0459 71.6475 11.1602 145.048 31.9277 215.075c-14.2012 17.5234 -26.5137 36.9053 -36.499 58.207c-37.7246 80.4932 -34.168 176.726 7.66699 255.025c17.8984 33.501 43.7715 65.0742 78.8105 81.3877
c37.4395 17.4336 80.4619 13.4482 117.972 -1.67871c76.3008 -30.7686 127.821 -100.675 159.468 -174.157zM214.311 -170.303c75.3018 16.8828 127.061 81.6816 154.257 150.62c13.8857 35.2031 22.626 72.6006 27.752 110.638
c-53.4648 -0.285156 -107.093 6.62012 -157.274 19.2402c-39.6494 9.96973 -77.2334 25.7246 -110.602 47.292c-11.8594 -49.502 -20.3027 -99.625 -20.5293 -151.638c-0.1875 -43.791 4.64551 -89.0225 20.166 -130.159c6.15625 -16.3174 12.8975 -32.6621 28.375 -42.3076
c17.1055 -10.6611 39.1455 -7.87793 57.8555 -3.68555zM282.729 118.444c37.7676 -6.89746 76.7422 -10.8311 115.619 -10.5811c4.0791 38.2324 4.75488 76.8867 3.37695 114.439c-3.06836 83.5498 -20.0605 167.584 -58.0859 242.526
c-32.6191 64.2891 -88.1523 130.874 -162.888 144.596c-87.3203 16.0361 -138.2 -84.1162 -151.473 -155.436c-12.8975 -69.3213 0.726562 -141.809 37.9092 -201.433c5.95703 17.9336 12.3516 35.5859 19.0498 52.8594c10.8916 28.0713 89.8037 22.4697 79.7559 -12.5342
c-10.8369 -37.7559 -22.1729 -75.2109 -31.9473 -112.912c43.0303 -32.1152 94.8008 -51.6846 148.683 -61.5254z" />
    <glyph glyph-name="O" unicode="&#xd4;" horiz-adv-x="561" 
d="M384.691 439.705c37.7949 -87.7539 50.5342 -184.92 47.1182 -279.899c-0.605469 -16.8252 -1.63184 -33.8447 -3.26758 -50.876c39.2861 2.5293 78.1201 9.65723 115.135 22.7188c11.5312 4.07129 33.2432 -8.25684 14.9619 -14.5889
c-41.8779 -14.498 -86.6025 -22.4971 -131.936 -25.124c-8.22461 -68.0684 -27.1104 -135.426 -68.3564 -190.658c-46.4648 -62.2207 -123.133 -110.11 -203.01 -102.33c-43.0537 4.19629 -80.833 29.5859 -101.112 67.8809
c-21.8213 41.207 -27.5674 93.1768 -28.8789 139.018c-2.0459 71.6475 11.1602 145.048 31.9277 215.075c-14.2012 17.5234 -26.5137 36.9053 -36.499 58.207c-37.7246 80.4932 -34.168 176.726 7.66699 255.025c17.8984 33.501 43.7715 65.0742 78.8105 81.3877
c37.4395 17.4336 80.4619 13.4482 117.972 -1.67871c76.3008 -30.7686 127.821 -100.675 159.468 -174.157zM214.311 -170.303c75.3018 16.8828 127.061 81.6816 154.257 150.62c13.8857 35.2031 22.626 72.6006 27.752 110.638
c-53.4648 -0.285156 -107.093 6.62012 -157.274 19.2402c-39.6494 9.96973 -77.2334 25.7246 -110.602 47.292c-11.8594 -49.502 -20.3027 -99.625 -20.5293 -151.638c-0.1875 -43.791 4.64551 -89.0225 20.166 -130.159c6.15625 -16.3174 12.8975 -32.6621 28.375 -42.3076
c17.1055 -10.6611 39.1455 -7.87793 57.8555 -3.68555zM282.729 118.444c37.7676 -6.89746 76.7422 -10.8311 115.619 -10.5811c4.0791 38.2324 4.75488 76.8867 3.37695 114.439c-3.06836 83.5498 -20.0605 167.584 -58.0859 242.526
c-32.6191 64.2891 -88.1523 130.874 -162.888 144.596c-87.3203 16.0361 -138.2 -84.1162 -151.473 -155.436c-12.8975 -69.3213 0.726562 -141.809 37.9092 -201.433c5.95703 17.9336 12.3516 35.5859 19.0498 52.8594c10.8916 28.0713 89.8037 22.4697 79.7559 -12.5342
c-10.8369 -37.7559 -22.1729 -75.2109 -31.9473 -112.912c43.0303 -32.1152 94.8008 -51.6846 148.683 -61.5254z" />
    <glyph glyph-name="O" unicode="&#xd3;" horiz-adv-x="561" 
d="M384.691 439.705c37.7949 -87.7539 50.5342 -184.92 47.1182 -279.899c-0.605469 -16.8252 -1.63184 -33.8447 -3.26758 -50.876c39.2861 2.5293 78.1201 9.65723 115.135 22.7188c11.5312 4.07129 33.2432 -8.25684 14.9619 -14.5889
c-41.8779 -14.498 -86.6025 -22.4971 -131.936 -25.124c-8.22461 -68.0684 -27.1104 -135.426 -68.3564 -190.658c-46.4648 -62.2207 -123.133 -110.11 -203.01 -102.33c-43.0537 4.19629 -80.833 29.5859 -101.112 67.8809
c-21.8213 41.207 -27.5674 93.1768 -28.8789 139.018c-2.0459 71.6475 11.1602 145.048 31.9277 215.075c-14.2012 17.5234 -26.5137 36.9053 -36.499 58.207c-37.7246 80.4932 -34.168 176.726 7.66699 255.025c17.8984 33.501 43.7715 65.0742 78.8105 81.3877
c37.4395 17.4336 80.4619 13.4482 117.972 -1.67871c76.3008 -30.7686 127.821 -100.675 159.468 -174.157zM214.311 -170.303c75.3018 16.8828 127.061 81.6816 154.257 150.62c13.8857 35.2031 22.626 72.6006 27.752 110.638
c-53.4648 -0.285156 -107.093 6.62012 -157.274 19.2402c-39.6494 9.96973 -77.2334 25.7246 -110.602 47.292c-11.8594 -49.502 -20.3027 -99.625 -20.5293 -151.638c-0.1875 -43.791 4.64551 -89.0225 20.166 -130.159c6.15625 -16.3174 12.8975 -32.6621 28.375 -42.3076
c17.1055 -10.6611 39.1455 -7.87793 57.8555 -3.68555zM282.729 118.444c37.7676 -6.89746 76.7422 -10.8311 115.619 -10.5811c4.0791 38.2324 4.75488 76.8867 3.37695 114.439c-3.06836 83.5498 -20.0605 167.584 -58.0859 242.526
c-32.6191 64.2891 -88.1523 130.874 -162.888 144.596c-87.3203 16.0361 -138.2 -84.1162 -151.473 -155.436c-12.8975 -69.3213 0.726562 -141.809 37.9092 -201.433c5.95703 17.9336 12.3516 35.5859 19.0498 52.8594c10.8916 28.0713 89.8037 22.4697 79.7559 -12.5342
c-10.8369 -37.7559 -22.1729 -75.2109 -31.9473 -112.912c43.0303 -32.1152 94.8008 -51.6846 148.683 -61.5254z" />
    <glyph glyph-name="P" unicode="P" horiz-adv-x="549" 
d="M114.117 618.309c-2.32617 -142.769 -12.4424 -285.299 -12.2354 -428.138c0.0507812 -33.1689 0.574219 -66.3652 1.6123 -99.5459c10.0439 83.1045 24.0811 165.706 42.7168 247.074c15.0371 65.6631 27.7236 143.846 68.1768 199.48
c34.6445 47.6523 96.8145 44.6152 131.439 -1.91602c41.7188 -56.0645 59.2812 -125.253 67.2646 -193.523c8.27539 -70.7852 5.72266 -141.68 -11.9648 -210.899c-1.70605 -6.67871 -3.54883 -13.4355 -5.54004 -20.1963c47.3867 -5.5625 94.8203 -8.17773 142.062 2.80762
c13.959 3.24805 25.6465 -11.3164 7.47461 -15.4541c-51.1729 -11.6523 -102.967 -9.04102 -154.522 -3.21289c-17.6914 -52.5156 -46.9531 -102.053 -105.277 -115.013c-32.0254 -7.11621 -67.3145 -3.14258 -92.0752 19.9512
c-19.0654 17.7852 -36.1006 46.1299 -29.2344 72.8584c15.6104 60.7842 96.3184 54.417 143.428 49.291c5.09082 -0.554688 10.1816 -1.15625 15.2764 -1.78125c14.2754 43.2021 22.2588 88.6094 26.0176 133.782c4.6377 55.7441 5.16504 112.604 -0.303711 168.321
c-2.9707 30.2451 -6.16016 62.6143 -19.4561 90.3496c-13.4561 28.0713 -45.9385 60.0811 -76.1016 33.0322c-20.9199 -18.7607 -31.8975 -48.7373 -41.0986 -74.4932c-9.86035 -27.6025 -17.0508 -56.0996 -23.9639 -84.5537
c-15.1387 -62.3301 -27.626 -125.386 -37.9785 -188.68c-16.4697 -100.706 -26.4004 -202.236 -33.3057 -303.989c0.788086 -7.95605 1.58789 -15.9082 2.39551 -23.8564c3.41992 -33.6182 11.7188 -70.6406 9.04102 -104.372
c-1.93262 -24.335 -53.7227 -23.6396 -62.6621 -4.83203c-15.4893 32.5879 -20.459 73.834 -26.4238 109.205c-5.87109 34.8242 -9.94629 69.8555 -13.2764 105.008c-6.65918 70.3008 -9.56348 140.773 -10.1064 211.375c-1.10449 144.139 5.55078 288.527 20.1816 431.92
c3.13477 30.7061 78.9395 30.6201 78.4395 0zM267.01 24.083c20.1738 14.6113 32.0977 36.9248 41.79 59.2852c3.02148 6.97559 5.84375 14.0371 8.49023 21.165c-24.6592 3.58008 -49.9395 6.58594 -73.9902 3.75586
c-32.8418 -3.86426 -61.9316 -33.0674 -41.3125 -65.9912c14.0957 -22.501 42.8262 -34.2939 65.0225 -18.2148z" />
    <glyph glyph-name="Q" unicode="Q" horiz-adv-x="561" 
d="M384.691 439.705c37.7949 -87.7539 50.5342 -184.919 47.1182 -279.895c-0.605469 -16.8252 -1.63574 -33.8447 -3.26758 -50.876c39.2861 2.5293 78.1201 9.65723 115.135 22.7188c11.5312 4.07129 33.2432 -8.25684 14.9619 -14.5889
c-41.8779 -14.498 -86.6025 -22.4971 -131.936 -25.124c-8.22461 -68.0684 -27.1104 -135.426 -68.3564 -190.658c-30.8896 -41.3672 -75.1416 -76.375 -124.8 -92.9268c14.6895 -14.6699 30.374 -28.5088 48.4482 -38.709
c28.1846 -15.9072 77.5811 -24.2568 86.6143 17.8242c2.67383 12.4639 33.5205 10.8594 31.167 -0.000976562c-13.2256 -61.0488 -91.123 -55.5332 -134.43 -33.1221c-22.6025 11.6992 -42.0273 28.7734 -59.9492 46.7812
c-16.3721 -2.95117 -33.1426 -3.8252 -50.0605 -2.17773c-43.0537 4.19629 -80.833 29.5859 -101.112 67.8809c-21.8213 41.207 -27.5674 93.1768 -28.8789 139.018c-2.0459 71.6436 11.1602 145.044 31.9277 215.071c-14.2012 17.5195 -26.5137 36.9053 -36.499 58.207
c-37.7246 80.4932 -34.168 176.726 7.66699 255.025c17.8984 33.501 43.7715 65.0742 78.8105 81.3877c37.4355 17.4336 80.4619 13.4482 117.972 -1.67871c76.3008 -30.7686 127.821 -100.675 159.468 -174.157zM156.455 -166.617
c7.63965 -4.75879 16.2646 -6.82617 25.1338 -7.29883c-7.53027 8.07617 -15.0293 16.1797 -22.5518 24.2559c-7.42871 7.97559 -20.5488 26.666 -33.8369 33.4033c0.916992 -2.70117 1.87305 -5.38672 2.87988 -8.05273c6.15625 -16.3174 12.8975 -32.6621 28.375 -42.3076
zM214.313 -170.3c75.3018 16.8838 127.06 81.6816 154.26 150.616c13.8857 35.2031 22.626 72.6006 27.752 110.638c-53.4648 -0.285156 -107.093 6.62012 -157.274 19.2402c-39.6494 9.96973 -77.2334 25.7246 -110.602 47.292
c-11.8594 -49.502 -20.3027 -99.625 -20.5293 -151.638c-0.148438 -34.0791 2.77539 -69.0244 11.3828 -102.24c13.2607 -0.328125 26.1152 -5.30566 37.3105 -14.6709c20.7168 -17.332 38.3379 -39.3604 56.7119 -59.4521
c0.328125 0.0742188 0.664062 0.140625 0.988281 0.214844zM282.731 118.446c37.7676 -6.89746 76.7422 -10.8311 115.619 -10.5811c4.0791 38.2324 4.75488 76.8867 3.37695 114.439c-3.06836 83.5498 -20.0605 167.584 -58.0859 242.526
c-32.6191 64.2891 -88.1523 130.874 -162.888 144.596c-87.3203 16.0361 -138.2 -84.1162 -151.473 -155.436c-12.8975 -69.3213 0.726562 -141.809 37.9092 -201.433c5.95703 17.9336 12.3516 35.5859 19.0498 52.8594c10.8916 28.0713 89.8037 22.4697 79.7559 -12.5342
c-10.8369 -37.7559 -22.1729 -75.2109 -31.9473 -112.912c43.0264 -32.1152 94.8008 -51.6846 148.683 -61.5254z" />
    <glyph glyph-name="R" unicode="R" horiz-adv-x="584" 
d="M250.454 630.398c65.207 17.1758 109.253 -31.6641 125.254 -90.082c20.1973 -73.7832 0 -152.114 -35.1523 -217.953c-31.7637 -59.4951 -75.8516 -122.293 -136.714 -155.295c9.03711 -10.0791 17.6016 -20.498 26.0371 -30.2803
c29.0117 -33.6455 55.334 -68.1611 80.4229 -104.816c16.9297 -24.7373 36.6709 -63.8008 70.7227 -65.5107c83.9717 -4.21582 140.852 73.8379 177.53 139.029c5.6875 10.1104 36.2061 6.60059 30.0537 -4.72363c-34.3799 -63.2783 -78.499 -117.035 -144.373 -148.822
c-32.0645 -15.4697 -67.0566 -23.0469 -102.521 -15.7822c-36.3467 7.44824 -60.0615 30.7881 -80.376 60.3662c-19.9824 29.0898 -39.9414 59.8076 -55.3027 91.5791c-10.1768 21.0488 -18.6045 45.3447 -30.9717 66.2373
c-17.0586 -5.76953 -35.5889 -8.99414 -53.7803 -8.43555c-0.00390625 -5.26953 0.0546875 -10.543 0.0898438 -15.8125c3.16992 -39.7471 6.86621 -79.4629 11.2227 -119.069c3.32227 -30.1865 6.74219 -60.373 10.2012 -90.5439
c3.62305 -31.5996 9.33789 -63.1064 1.49902 -94.2773c-4.75879 -18.9131 -44.5488 -12.3125 -52.4072 0c-17.7148 27.7471 -22.5869 62.2822 -28.7236 94.2764c-5.76953 30.0811 -10.7471 60.209 -14.9902 90.5439c-8.81445 62.9814 -15.4658 126.127 -19.9629 189.565
c-8.94727 126.201 -13.3232 254.558 -1.47949 380.692c3.10742 33.1064 84.6309 33.0713 84.5371 0c-0.179688 -65.3389 -0.925781 -130.565 -0.539062 -195.776c5.27344 27.583 11.7773 54.9512 19.8037 82.0273c18.5303 62.501 49.6074 144.341 119.92 162.863z
M121.846 187.817c5.88281 0.652344 11.918 2.51855 17.8242 5.0752c-5.46875 3.69629 -11.3164 6.80762 -17.4766 8.91602c-0.152344 -4.66113 -0.234375 -9.32617 -0.347656 -13.9912zM291.604 369.552c28.4033 56.2402 54.248 124.579 42.666 188.685
c-5.27344 29.1953 -29.043 61.5723 -62.1221 58.2109c-34.8555 -3.54102 -59.6475 -34.833 -75.5938 -63.127c-35.9756 -63.8213 -51.9961 -138.174 -62.3721 -210.001c-5.875 -40.6445 -9.3457 -81.4688 -11.1963 -122.383
c8.79883 -1.85059 17.2734 -4.7627 24.8037 -8.28418c4.68848 -2.19336 9.18945 -4.73828 13.5498 -7.52539c3.98145 2.70508 7.66211 5.40625 10.8672 7.84961c51.7119 39.4346 90.4287 99.2188 119.397 156.575z" />
    <glyph glyph-name="S" unicode="S" horiz-adv-x="558" 
d="M53.54 627.275c41.0508 60.4365 105.003 100.661 179.562 97.6201c73.4316 -3.00977 140.246 -43.502 179.185 -105.387c86.0869 -136.823 32.8291 -318.28 -69.7939 -429.999c-11.6953 -12.7295 -52.25 -0.0664062 -37.4473 12.4756
c74.3057 62.9736 116.457 154.546 118.589 252.048c1.97559 90.2178 -34.0938 189.526 -118.729 232.439c-75.2705 38.1621 -161.623 15.3809 -198.981 -62.165c-35.4531 -73.5996 -31.292 -160.292 -5.91406 -236.237c28.8984 -86.4658 83.5146 -163.005 144.802 -229.508
c43.8613 -47.5938 94 -90.1045 138.092 -137.741c44.3184 47.0391 100.688 88.4844 163.138 97.1348c13.542 1.87793 25.5381 -12.0615 7.31152 -15.1182c-49.1787 -8.24805 -91.0918 -42.499 -126.619 -75.6016c-9.0332 -8.41602 -17.75 -17.1836 -26.1191 -26.2676
c7.49121 -8.74023 14.7559 -17.668 21.6885 -26.877c44.2051 -58.7227 92.2002 -149.244 41.0938 -218.269c-42.8662 -57.8994 -144.838 -63.6689 -175.185 10.2666c-26.3496 64.1914 9.79785 143.018 48.5381 198.332c-4.86816 5.53906 -9.78711 11.0391 -14.8115 16.4492
c-58.4023 62.9229 -125.128 117.199 -180.841 182.812c-57.7627 68.0332 -102.713 143.67 -122.021 231.521c-17.0312 77.5029 -11.1289 164.948 34.4619 232.071zM398.306 -120.473c-12.457 22.1611 -26.9893 42.8652 -42.8027 62.5947
c-4.8916 -7.84277 -9.56055 -15.8301 -13.8037 -24.0781c-20.6191 -40.0947 -39.3057 -93.2705 -26.1035 -138.447c7.10059 -24.3037 26.1816 -46.1992 52.1758 -50.3799c26.3691 -4.23926 50.5684 12.9521 57.5088 38.1738
c9.99707 36.3271 -9.4707 80.9932 -26.9746 112.137z" />
    <glyph glyph-name="T" unicode="T" horiz-adv-x="540" 
d="M108.021 485.799c-59.792 32.2246 -97.127 102.646 -69.0869 168.871c24.0117 56.7393 89.2461 80.4229 146.54 83.2881c37.5762 1.87793 74.9922 -4.18457 111.976 -10.0283c15.3223 -2.42383 30.668 -4.65234 46.0449 -6.62402
c0.0546875 1.79199 0.0976562 3.58789 0.15625 5.37988c1.08496 32.2871 80.5361 32.127 82.0977 0c0.207031 -4.30566 0.371094 -8.61523 0.570312 -12.9209c36.6748 -1.8623 73.291 -1.90137 109.864 2.02539c36.417 3.90723 73.0332 10.6602 103.653 31.9619
c24.6865 17.1758 59.8154 55.1895 49.5762 88.0625c-12.1875 39.1338 -67.3691 36.7178 -96.8184 22.7275c-5.58203 -2.65039 -15.626 -4.34473 -20.9619 0c-4.14941 3.38086 -6.45215 9.0293 0.000976562 11.9492c33.1416 15.002 71.5342 20.6895 106.425 7.70996
c32.4863 -12.0859 55.7324 -38.6035 49.2832 -74.8213c-12.749 -71.5693 -95.4482 -101.108 -158.902 -107.468c-46.2158 -4.63379 -93.9033 -4.48535 -141.271 -1.44043c6.15625 -141.18 8.11621 -282.488 14.1865 -423.688
c3.20117 -74.4229 6.55859 -148.873 10.9033 -223.237c2.2207 -38.0215 5.04297 -76.0352 8.36523 -113.975c1.5459 -17.6562 3.59961 -35.2422 5.49707 -52.8594c2.08105 -19.3584 6.95312 -40.6338 4.58789 -59.9727c-0.1875 0.105469 -0.375 0.214844 -0.5625 0.320312
c-0.703125 -7.24512 -8.12012 -14.3652 -16.5908 -17.3672c-15.1426 -5.36719 -42.1016 -4.14551 -50.877 11.7969c-17.4102 31.6309 -20.5918 75.1094 -25.8145 110.508c-5.58203 37.8301 -9.05664 75.8125 -11.9297 113.932
c-5.69922 75.5869 -9.90332 151.271 -13.3545 226.989c-6.6123 145.146 -12.4326 290.471 -8.63867 435.745c-6.93652 0.87793 -13.8535 1.7832 -20.7236 2.73535c-74.8213 10.3916 -169.934 37.1357 -231.252 -23.5469
c-57.8643 -57.2705 -27.8057 -148.679 37.1553 -184.597c14.4629 -7.99902 -11.2305 -16.2393 -20.0996 -11.457z" />
    <glyph glyph-name="U" unicode="U" horiz-adv-x="713" 
d="M566.745 -122.14c32.2363 -21.4033 63.2119 6.23047 80.501 33.8643c32.834 52.5352 39.665 122.914 42.3037 183.358c0.484375 11.1367 28.4658 10.8633 28.1182 -0.000976562c-1.3623 -42.6904 -6.53809 -85.3457 -17.0586 -126.791
c-8.43555 -33.2314 -21.9854 -66.8184 -47.6094 -90.6074c-48.667 -45.1846 -122.419 -31.4512 -167.623 11.7744c-53.0117 50.6924 -66.0615 135.503 -77.7881 204.527c-10.8564 63.9102 -17.7148 128.609 -21.7314 193.582
c-2.01465 -23.3867 -4.07227 -46.7734 -6.30859 -70.1406c-4.56738 -47.7334 -10.665 -95.4014 -22.4346 -141.956c-10.5205 -41.6094 -24.7881 -86.6338 -52.8672 -120.037c-23.8984 -28.4268 -60.2295 -41.1133 -96.8418 -36.8428
c-42.9053 5.00488 -77.5615 32.5176 -100.573 67.8613c-26.541 40.7695 -40.1143 90.8848 -52.0049 137.568c-12.6084 49.498 -22.6562 99.543 -28.957 150.243c-12.6162 101.538 -14.6582 205.852 0.558594 307.218c4.81348 32.0605 84.7832 31.4395 82.0977 -0.000976562
c-8.75195 -102.494 -11.5898 -204.754 -0.4375 -307.217c5.00879 -45.9932 11.8633 -91.9121 21.1309 -137.245c8.79883 -43.042 16.6533 -88.2148 32.7441 -129.258c11.4023 -29.0898 40.1562 -75.5391 78.123 -69.1875c40.0283 6.69824 60.999 61.7275 72.9521 94.542
c31.2334 85.7559 35.7266 178.71 43.6943 268.791c4.17676 47.2656 8.21289 94.5469 12.6592 141.785c3.68066 39.0908 5.69531 78.8418 13.6826 117.379c0.164062 5.28906 0.3125 10.5781 0.496094 15.8594c1.14355 33.0098 83.1865 32.8105 83.9277 0
c1.75293 -77.6396 0.492188 -155.303 2.6084 -232.935c1.87012 -68.6025 5.89453 -137.314 13.5342 -205.531c7.27637 -65.0117 12.7529 -136.433 37.498 -197.556c9.62207 -23.7695 23.7725 -48.5537 45.6055 -63.0479z" />
    <glyph glyph-name="U" unicode="&#xdc;" horiz-adv-x="713" 
d="M566.745 -122.14c32.2363 -21.4033 63.2119 6.23047 80.501 33.8643c32.834 52.5352 39.665 122.914 42.3037 183.358c0.484375 11.1367 28.4658 10.8633 28.1182 -0.000976562c-1.3623 -42.6904 -6.53809 -85.3457 -17.0586 -126.791
c-8.43555 -33.2314 -21.9854 -66.8184 -47.6094 -90.6074c-48.667 -45.1846 -122.419 -31.4512 -167.623 11.7744c-53.0117 50.6924 -66.0615 135.503 -77.7881 204.527c-10.8564 63.9102 -17.7148 128.609 -21.7314 193.582
c-2.01465 -23.3867 -4.07227 -46.7734 -6.30859 -70.1406c-4.56738 -47.7334 -10.665 -95.4014 -22.4346 -141.956c-10.5205 -41.6094 -24.7881 -86.6338 -52.8672 -120.037c-23.8984 -28.4268 -60.2295 -41.1133 -96.8418 -36.8428
c-42.9053 5.00488 -77.5615 32.5176 -100.573 67.8613c-26.541 40.7695 -40.1143 90.8848 -52.0049 137.568c-12.6084 49.498 -22.6562 99.543 -28.957 150.243c-12.6162 101.538 -14.6582 205.852 0.558594 307.218c4.81348 32.0605 84.7832 31.4395 82.0977 -0.000976562
c-8.75195 -102.494 -11.5898 -204.754 -0.4375 -307.217c5.00879 -45.9932 11.8633 -91.9121 21.1309 -137.245c8.79883 -43.042 16.6533 -88.2148 32.7441 -129.258c11.4023 -29.0898 40.1562 -75.5391 78.123 -69.1875c40.0283 6.69824 60.999 61.7275 72.9521 94.542
c31.2334 85.7559 35.7266 178.71 43.6943 268.791c4.17676 47.2656 8.21289 94.5469 12.6592 141.785c3.68066 39.0908 5.69531 78.8418 13.6826 117.379c0.164062 5.28906 0.3125 10.5781 0.496094 15.8594c1.14355 33.0098 83.1865 32.8105 83.9277 0
c1.75293 -77.6396 0.492188 -155.303 2.6084 -232.935c1.87012 -68.6025 5.89453 -137.314 13.5342 -205.531c7.27637 -65.0117 12.7529 -136.433 37.498 -197.556c9.62207 -23.7695 23.7725 -48.5537 45.6055 -63.0479z" />
    <glyph glyph-name="U" unicode="&#xdb;" horiz-adv-x="713" 
d="M566.745 -122.14c32.2363 -21.4033 63.2119 6.23047 80.501 33.8643c32.834 52.5352 39.665 122.914 42.3037 183.358c0.484375 11.1367 28.4658 10.8633 28.1182 -0.000976562c-1.3623 -42.6904 -6.53809 -85.3457 -17.0586 -126.791
c-8.43555 -33.2314 -21.9854 -66.8184 -47.6094 -90.6074c-48.667 -45.1846 -122.419 -31.4512 -167.623 11.7744c-53.0117 50.6924 -66.0615 135.503 -77.7881 204.527c-10.8564 63.9102 -17.7148 128.609 -21.7314 193.582
c-2.01465 -23.3867 -4.07227 -46.7734 -6.30859 -70.1406c-4.56738 -47.7334 -10.665 -95.4014 -22.4346 -141.956c-10.5205 -41.6094 -24.7881 -86.6338 -52.8672 -120.037c-23.8984 -28.4268 -60.2295 -41.1133 -96.8418 -36.8428
c-42.9053 5.00488 -77.5615 32.5176 -100.573 67.8613c-26.541 40.7695 -40.1143 90.8848 -52.0049 137.568c-12.6084 49.498 -22.6562 99.543 -28.957 150.243c-12.6162 101.538 -14.6582 205.852 0.558594 307.218c4.81348 32.0605 84.7832 31.4395 82.0977 -0.000976562
c-8.75195 -102.494 -11.5898 -204.754 -0.4375 -307.217c5.00879 -45.9932 11.8633 -91.9121 21.1309 -137.245c8.79883 -43.042 16.6533 -88.2148 32.7441 -129.258c11.4023 -29.0898 40.1562 -75.5391 78.123 -69.1875c40.0283 6.69824 60.999 61.7275 72.9521 94.542
c31.2334 85.7559 35.7266 178.71 43.6943 268.791c4.17676 47.2656 8.21289 94.5469 12.6592 141.785c3.68066 39.0908 5.69531 78.8418 13.6826 117.379c0.164062 5.28906 0.3125 10.5781 0.496094 15.8594c1.14355 33.0098 83.1865 32.8105 83.9277 0
c1.75293 -77.6396 0.492188 -155.303 2.6084 -232.935c1.87012 -68.6025 5.89453 -137.314 13.5342 -205.531c7.27637 -65.0117 12.7529 -136.433 37.498 -197.556c9.62207 -23.7695 23.7725 -48.5537 45.6055 -63.0479z" />
    <glyph glyph-name="U" unicode="&#xda;" horiz-adv-x="713" 
d="M566.745 -122.14c32.2363 -21.4033 63.2119 6.23047 80.501 33.8643c32.834 52.5352 39.665 122.914 42.3037 183.358c0.484375 11.1367 28.4658 10.8633 28.1182 -0.000976562c-1.3623 -42.6904 -6.53809 -85.3457 -17.0586 -126.791
c-8.43555 -33.2314 -21.9854 -66.8184 -47.6094 -90.6074c-48.667 -45.1846 -122.419 -31.4512 -167.623 11.7744c-53.0117 50.6924 -66.0615 135.503 -77.7881 204.527c-10.8564 63.9102 -17.7148 128.609 -21.7314 193.582
c-2.01465 -23.3867 -4.07227 -46.7734 -6.30859 -70.1406c-4.56738 -47.7334 -10.665 -95.4014 -22.4346 -141.956c-10.5205 -41.6094 -24.7881 -86.6338 -52.8672 -120.037c-23.8984 -28.4268 -60.2295 -41.1133 -96.8418 -36.8428
c-42.9053 5.00488 -77.5615 32.5176 -100.573 67.8613c-26.541 40.7695 -40.1143 90.8848 -52.0049 137.568c-12.6084 49.498 -22.6562 99.543 -28.957 150.243c-12.6162 101.538 -14.6582 205.852 0.558594 307.218c4.81348 32.0605 84.7832 31.4395 82.0977 -0.000976562
c-8.75195 -102.494 -11.5898 -204.754 -0.4375 -307.217c5.00879 -45.9932 11.8633 -91.9121 21.1309 -137.245c8.79883 -43.042 16.6533 -88.2148 32.7441 -129.258c11.4023 -29.0898 40.1562 -75.5391 78.123 -69.1875c40.0283 6.69824 60.999 61.7275 72.9521 94.542
c31.2334 85.7559 35.7266 178.71 43.6943 268.791c4.17676 47.2656 8.21289 94.5469 12.6592 141.785c3.68066 39.0908 5.69531 78.8418 13.6826 117.379c0.164062 5.28906 0.3125 10.5781 0.496094 15.8594c1.14355 33.0098 83.1865 32.8105 83.9277 0
c1.75293 -77.6396 0.492188 -155.303 2.6084 -232.935c1.87012 -68.6025 5.89453 -137.314 13.5342 -205.531c7.27637 -65.0117 12.7529 -136.433 37.498 -197.556c9.62207 -23.7695 23.7725 -48.5537 45.6055 -63.0479z" />
    <glyph glyph-name="V" unicode="V" horiz-adv-x="570" 
d="M22.3643 559.824c3.25977 32.4629 83.1289 32.5127 83.0078 0.0107422c-0.34375 -97.5137 -7.26855 -194.574 -3.2168 -292.15c3.58789 -86.3877 12.0078 -176.823 43.8965 -257.941c12.2695 -31.2139 28.3057 -67.209 50.7598 -92.4932
c11.8008 -13.2881 28.1807 -26.8613 47.207 -22.458c17.4062 4.02832 33.4229 18.1514 45.7588 30.3584c52.2812 51.7236 79.9307 123.828 101.779 192.56c2.01074 6.32031 3.95898 12.6641 5.87988 19.0195c-31.0771 17.2188 -59.4492 39.3096 -83.1055 63.5898
c-64.1367 65.835 -103.372 153.499 -108.876 245.266c-2.70898 45.1885 4.2002 88.4951 17.9609 131.49c12.1641 38.0137 28.2861 80.5244 58.6367 108.018c27.2236 24.6592 65.8467 34.7109 100.515 20.4277c34.7109 -14.2988 56.3447 -48.7529 69.4375 -82.3477
c33.1064 -84.9395 30.6904 -187.492 21.3994 -276.644c-7.05762 -67.7129 -20.8418 -135.219 -40.083 -200.854c37.7129 -21.9033 79.958 -34.1455 124.932 -27.1582c13.4482 2.08887 25.1553 -11.6445 7.2334 -14.9512
c-46.918 -8.6582 -94.9717 -0.0703125 -139.161 18.9795c-5.29297 -16.8213 -10.9453 -33.5059 -16.9297 -50.0186c-25.4131 -70.1172 -66.5186 -160.175 -140.349 -190.615c-84.5918 -34.8789 -150.649 35.9062 -186.879 104.989
c-42.749 81.5156 -57.1455 174.692 -64.0195 265.44c-7.70996 101.722 -5.96875 205.996 4.21582 307.483zM355.775 208.365c15.0996 -15.7783 31.7334 -30.9326 49.6436 -44.2363c17.9805 64.4102 31.0107 130.229 36.9053 196.877
c7.02637 79.4434 8.30273 167.908 -17.1768 244.459c-10.5049 31.5537 -29.8281 74.3066 -64.3945 85.6934c-41.0977 13.5381 -69.3643 -38.1387 -82.3828 -68.4385c-30.5146 -71.0156 -36.3232 -155.854 -20.5254 -231.312
c14.4121 -68.8447 49.4707 -132.4 97.9307 -183.043z" />
    <glyph glyph-name="W" unicode="W" horiz-adv-x="864" 
d="M512.707 -125.763c73.7168 1.62012 122.978 78.0645 146.337 139.09c13.5264 35.3281 23.3125 72.167 30.1436 109.596c-31.584 10.165 -61.7783 23.9492 -88.4443 38.6113c-76.6992 42.1631 -136.675 110.5 -163.247 194.456
c-24.5303 77.499 -19.167 163.247 14.9707 237.073c14.7129 31.8145 35.4492 62.8994 67.7129 78.9082c29.9883 14.8809 66.4014 15.5137 95.1123 -2.75586c30.5928 -19.4639 49.1973 -53.7188 63.793 -85.8262c17.5742 -38.6621 28.9883 -79.877 36.9912 -121.506
c17.2578 -89.7764 21.833 -183.448 12.6943 -274.415c-1.80371 -17.957 -4.09082 -36.3584 -6.99121 -54.8613c42.8545 -11.4414 87.5986 -14.3184 127.213 1.46777c10.6963 4.2627 30.874 -6.69141 14.0371 -13.6904
c-44.8955 -18.6631 -95.4404 -17.3555 -144.275 -5.75781c-10.8057 -59.9287 -29.0713 -119.959 -61.8857 -169.344c-40.6211 -61.1309 -111.02 -101.37 -185.72 -91.084c-77.0273 10.6064 -134.966 71.4141 -163.591 140.603
c-8.82617 21.3369 -15.4893 43.334 -20.498 65.7295c-6.50391 -29.3789 -14.8027 -58.3164 -25.1279 -86.4385c-20.4473 -55.7051 -64.4727 -108.404 -129.156 -104.466c-72.2607 4.39941 -113.519 67.6543 -136.113 129.414
c-53.8467 147.191 -24.8389 307.679 5.92578 456.439c6.40234 30.96 83.6748 28.2197 78.4404 0c-14.0254 -75.625 -29.3477 -151.461 -34.6016 -228.324c-4.37598 -64.0039 -2.13965 -129.27 12.0264 -192.001c10.3174 -45.6885 29.9688 -126.447 84.0654 -139.267
c31.1943 -7.39355 58.2822 21.4814 72.5576 45.501c15.2988 25.7402 24.3672 55.0762 32.666 83.6709c13.5576 46.6953 22.2783 94.5576 26.5879 142.877c-0.967773 29.3984 -0.323242 58.832 1.11328 87.793c1.62012 32.6582 83.2529 32.1035 82.71 0
c-1.40918 -83.4717 -2.16602 -169.087 25.0498 -249.042c19.0225 -55.8926 60.7217 -133.962 129.504 -132.451zM630.681 169.013c18.9092 -9.81738 39.8203 -19.3594 61.6963 -27.1904c5.0127 32.1582 7.97168 64.6289 9.30664 96.8418
c3.13477 75.5518 -2.24023 152.411 -16.8281 226.639c-7.19824 36.6436 -17.4453 72.8496 -32.3535 107.144c-13.4756 30.9951 -30.8545 68.1699 -61.1465 86.0605c-36.7725 21.7197 -74.1113 -10.2549 -93.458 -40.1611
c-19.4795 -30.1162 -32.3105 -65.5186 -39.2666 -100.573c-13.6787 -68.9268 -4.41113 -140.777 26.7676 -203.763c31.3623 -63.3604 82.832 -112.565 145.282 -144.997z" />
    <glyph glyph-name="X" unicode="X" horiz-adv-x="636" 
d="M137.125 359.809c3.23633 -28.6484 7.08984 -57.2002 11.6572 -85.623c48.9873 96.6348 106.445 188.835 175.704 272.412c7.12402 8.5957 36.8428 3.01758 26.9121 -8.9668c-78.4912 -94.7139 -141.324 -200.96 -194.012 -311.87
c7.05762 -36.3545 15.4541 -72.4512 25.7285 -108.15c10.958 -38.0762 24.1328 -75.5273 39.8447 -111.905c14.6465 -33.9033 30.9287 -69.4502 54.4326 -98.251c24.374 -29.8672 56.8291 -50.623 96.252 -52.0283c42.8623 -1.53027 84.0732 20.7871 115.498 48.3115
c63.333 55.4746 95.2881 135.55 125.627 211.909c3.71973 9.36523 30.5303 6.75391 26.2324 -4.12207c-35.4648 -89.7139 -75.2119 -185.76 -159.991 -239.899c-70.5977 -45.083 -166.936 -51.2939 -235.647 0.113281c-68.3643 51.1455 -105.082 143.443 -133.618 221.021
c-1.97949 5.38672 -3.91211 10.7891 -5.79395 16.2109c-8.51367 -20.7246 -16.8164 -41.543 -24.9668 -62.4238c-23.8242 -61.0215 -56.0488 -126.88 -58.4727 -193.164c-0.421875 -11.4883 -29.3359 -11.2344 -29.0352 0c1.75684 65.8467 32.166 130.718 55.1309 191.482
c13.6631 36.1514 28.1221 72.0303 43.4092 107.546c-20.4238 68.7705 -33.8408 139.817 -42.4678 210.825c-11.1016 91.4082 -17.1172 184.026 -15.2314 276.109c0.6875 33.4736 83.1055 33.3096 85.1514 0c5.72266 -93.2461 7.16309 -186.613 17.6562 -279.536z" />
    <glyph glyph-name="Y" unicode="Y" horiz-adv-x="694" 
d="M697.896 116.678c5.10645 -11.3594 -22.5137 -13.1123 -27.417 -4.30176c-35.0156 63.001 -73.9541 134.036 -145.684 160.585c-14.0293 5.19531 -28.375 8.20508 -42.7832 9.33301c8.13477 -84.4121 12.4482 -169.164 13.3418 -253.967
c0.913086 -86.3369 -4.02539 -173.439 -27.8223 -256.88c-10.9893 -38.541 -25.2139 -77.0898 -49.8145 -109.197c-22.5596 -29.4414 -57.3682 -49.4355 -92.9971 -58.4414c-62.0566 -15.6846 -141.734 -10.6367 -176.676 51.0566
c-17.8828 31.5762 -21.9893 70.3359 -23.7695 105.906c-2.19824 43.8887 1.28418 87.9297 8.91602 131.171c14.3965 81.5898 40.9766 164.285 81.3096 236.878c35.0781 63.1299 84.6855 119.132 151.672 148.827c9.79004 4.34082 19.8574 8.10352 30.1045 11.2461
c-4.15332 35.0352 -8.92383 70 -14.4785 104.859c-8.08398 50.7275 -18.4678 100.835 -29.2617 150.899c-7.95996 -52.1143 -17.251 -104.143 -30.5117 -154.866c-14.9629 -57.2354 -39.166 -121.505 -88.6914 -157.844
c-41.8359 -30.6982 -112.176 -35.1172 -151.072 3.73242c-47.2695 47.2148 -56.0684 128.146 -60.4873 191.17c-5.08301 72.4834 1.18262 144.775 18.8506 215.205c6.03516 24.0469 78.8457 21.1309 74.9424 -5.78125c-11.2734 -77.792 -18.8389 -156.314 -16.2822 -235.008
c1.22168 -37.5801 4.54004 -75.4648 12.3555 -112.3c7.02246 -33.0908 22.4414 -70.6982 62.9414 -63.5c70.6445 12.5576 103.455 105.539 119.616 165.206c20.2441 74.7432 31.0967 152.82 42.0195 229.48c-0.609375 2.8457 -1.22656 5.68359 -1.83203 8.5293
c-6.06641 28.5791 73.4316 32.3027 82.1328 6.33594c32.3574 -96.5918 48.3701 -199.852 60.0537 -300.78c1.32715 -11.4688 2.55664 -22.9453 3.73926 -34.4297c30.1865 -1.51074 59.9482 -9.16992 87.2305 -24.1406c60.9824 -33.4658 102.51 -97.0527 130.354 -158.984z
M388.784 -297.453c49.2988 142.694 31.665 304.661 20.4854 452.091c-2.9043 38.2988 -6.44531 76.5391 -10.7119 114.693c-31.623 -11.9688 -60.9512 -31.042 -84.8848 -53.7305c-50.7119 -48.0732 -83.3271 -111.633 -107.748 -176.293
c-27.4893 -72.7715 -46.9023 -149.439 -50.3027 -227.396c-2.70117 -62.0215 -3.66504 -165.23 67.8262 -191.057c31.9941 -11.5586 72.1357 -7.69434 103.545 4.09473c33.7236 12.6592 50.6074 45.2314 61.791 77.5967z" />
    <glyph glyph-name="Y" unicode="&#x178;" horiz-adv-x="694" 
d="M697.896 116.678c5.10645 -11.3594 -22.5137 -13.1123 -27.417 -4.30176c-35.0156 63.001 -73.9541 134.036 -145.684 160.585c-14.0293 5.19531 -28.375 8.20508 -42.7832 9.33301c8.13477 -84.4121 12.4482 -169.164 13.3418 -253.967
c0.913086 -86.3369 -4.02539 -173.439 -27.8223 -256.88c-10.9893 -38.541 -25.2139 -77.0898 -49.8145 -109.197c-22.5596 -29.4414 -57.3682 -49.4355 -92.9971 -58.4414c-62.0566 -15.6846 -141.734 -10.6367 -176.676 51.0566
c-17.8828 31.5762 -21.9893 70.3359 -23.7695 105.906c-2.19824 43.8887 1.28418 87.9297 8.91602 131.171c14.3965 81.5898 40.9766 164.285 81.3096 236.878c35.0781 63.1299 84.6855 119.132 151.672 148.827c9.79004 4.34082 19.8574 8.10352 30.1045 11.2461
c-4.15332 35.0352 -8.92383 70 -14.4785 104.859c-8.08398 50.7275 -18.4678 100.835 -29.2617 150.899c-7.95996 -52.1143 -17.251 -104.143 -30.5117 -154.866c-14.9629 -57.2354 -39.166 -121.505 -88.6914 -157.844
c-41.8359 -30.6982 -112.176 -35.1172 -151.072 3.73242c-47.2695 47.2148 -56.0684 128.146 -60.4873 191.17c-5.08301 72.4834 1.18262 144.775 18.8506 215.205c6.03516 24.0469 78.8457 21.1309 74.9424 -5.78125c-11.2734 -77.792 -18.8389 -156.314 -16.2822 -235.008
c1.22168 -37.5801 4.54004 -75.4648 12.3555 -112.3c7.02246 -33.0908 22.4414 -70.6982 62.9414 -63.5c70.6445 12.5576 103.455 105.539 119.616 165.206c20.2441 74.7432 31.0967 152.82 42.0195 229.48c-0.609375 2.8457 -1.22656 5.68359 -1.83203 8.5293
c-6.06641 28.5791 73.4316 32.3027 82.1328 6.33594c32.3574 -96.5918 48.3701 -199.852 60.0537 -300.78c1.32715 -11.4688 2.55664 -22.9453 3.73926 -34.4297c30.1865 -1.51074 59.9482 -9.16992 87.2305 -24.1406c60.9824 -33.4658 102.51 -97.0527 130.354 -158.984z
M388.784 -297.453c49.2988 142.694 31.665 304.661 20.4854 452.091c-2.9043 38.2988 -6.44531 76.5391 -10.7119 114.693c-31.623 -11.9688 -60.9512 -31.042 -84.8848 -53.7305c-50.7119 -48.0732 -83.3271 -111.633 -107.748 -176.293
c-27.4893 -72.7715 -46.9023 -149.439 -50.3027 -227.396c-2.70117 -62.0215 -3.66504 -165.23 67.8262 -191.057c31.9941 -11.5586 72.1357 -7.69434 103.545 4.09473c33.7236 12.6592 50.6074 45.2314 61.791 77.5967z" />
    <glyph glyph-name="Y" unicode="&#xdd;" horiz-adv-x="694" 
d="M697.896 116.678c5.10645 -11.3594 -22.5137 -13.1123 -27.417 -4.30176c-35.0156 63.001 -73.9541 134.036 -145.684 160.585c-14.0293 5.19531 -28.375 8.20508 -42.7832 9.33301c8.13477 -84.4121 12.4482 -169.164 13.3418 -253.967
c0.913086 -86.3369 -4.02539 -173.439 -27.8223 -256.88c-10.9893 -38.541 -25.2139 -77.0898 -49.8145 -109.197c-22.5596 -29.4414 -57.3682 -49.4355 -92.9971 -58.4414c-62.0566 -15.6846 -141.734 -10.6367 -176.676 51.0566
c-17.8828 31.5762 -21.9893 70.3359 -23.7695 105.906c-2.19824 43.8887 1.28418 87.9297 8.91602 131.171c14.3965 81.5898 40.9766 164.285 81.3096 236.878c35.0781 63.1299 84.6855 119.132 151.672 148.827c9.79004 4.34082 19.8574 8.10352 30.1045 11.2461
c-4.15332 35.0352 -8.92383 70 -14.4785 104.859c-8.08398 50.7275 -18.4678 100.835 -29.2617 150.899c-7.95996 -52.1143 -17.251 -104.143 -30.5117 -154.866c-14.9629 -57.2354 -39.166 -121.505 -88.6914 -157.844
c-41.8359 -30.6982 -112.176 -35.1172 -151.072 3.73242c-47.2695 47.2148 -56.0684 128.146 -60.4873 191.17c-5.08301 72.4834 1.18262 144.775 18.8506 215.205c6.03516 24.0469 78.8457 21.1309 74.9424 -5.78125c-11.2734 -77.792 -18.8389 -156.314 -16.2822 -235.008
c1.22168 -37.5801 4.54004 -75.4648 12.3555 -112.3c7.02246 -33.0908 22.4414 -70.6982 62.9414 -63.5c70.6445 12.5576 103.455 105.539 119.616 165.206c20.2441 74.7432 31.0967 152.82 42.0195 229.48c-0.609375 2.8457 -1.22656 5.68359 -1.83203 8.5293
c-6.06641 28.5791 73.4316 32.3027 82.1328 6.33594c32.3574 -96.5918 48.3701 -199.852 60.0537 -300.78c1.32715 -11.4688 2.55664 -22.9453 3.73926 -34.4297c30.1865 -1.51074 59.9482 -9.16992 87.2305 -24.1406c60.9824 -33.4658 102.51 -97.0527 130.354 -158.984z
M388.784 -297.453c49.2988 142.694 31.665 304.661 20.4854 452.091c-2.9043 38.2988 -6.44531 76.5391 -10.7119 114.693c-31.623 -11.9688 -60.9512 -31.042 -84.8848 -53.7305c-50.7119 -48.0732 -83.3271 -111.633 -107.748 -176.293
c-27.4893 -72.7715 -46.9023 -149.439 -50.3027 -227.396c-2.70117 -62.0215 -3.66504 -165.23 67.8262 -191.057c31.9941 -11.5586 72.1357 -7.69434 103.545 4.09473c33.7236 12.6592 50.6074 45.2314 61.791 77.5967z" />
    <glyph glyph-name="Z" unicode="Z" horiz-adv-x="644" 
d="M410.262 298.322c-1.21387 -49.2598 -6.18848 -98.4746 -13.6094 -146.56c-4.38379 -28.3955 -9.97363 -56.873 -16.9844 -85.0576c83.7842 8.56055 167.682 16.0791 251.122 27.6963c14.9707 2.08496 28.0674 -13.8105 8.04199 -16.6289
c-87.6992 -12.3438 -175.906 -20.1787 -263.961 -29.4307c-15.1934 -55.7363 -36.1992 -109.97 -64.8203 -159.675c-47.1758 -81.9414 -116.771 -159.159 -207.687 -191.899c-47.9404 -17.2617 -101.865 -20.3848 -150.384 -3.40039
c-38.5215 13.4834 -77.3984 42.542 -89.9443 83.0225c-28.957 93.4062 28.7393 179.485 113.765 215.605c47.5586 20.2012 100 30.4561 150.521 40.2383c54.5889 10.5713 109.673 18.25 164.874 24.8125c1.3584 0.164062 2.7207 0.304688 4.0791 0.464844
c10.5635 35.5391 18.9287 71.3984 25.5645 106.438c7.4834 39.5244 13.1084 79.4277 16.918 119.507c-10.8525 -2.61914 -21.6816 -5.37109 -32.4639 -8.33789c-5.30859 -1.46387 -16.4414 -2.4707 -20.2783 3.0293c-3.58398 5.13672 -0.605469 9.92285 5.31641 11.5586
c16.2744 4.49707 32.6309 8.5957 49.0537 12.374c3.64648 45.0869 5.02051 90.3574 4.1543 135.526c-1.58496 82.6055 -12.2109 192.071 -97.9785 231.236c-78.5801 35.8828 -159.858 -28.5703 -187.066 -100.077c-14.7441 -38.748 -17.8008 -81.5557 -12.5977 -122.478
c5.04785 -39.7041 23.7461 -98.4619 72.2529 -101.304c16.5088 -0.967773 16.8096 -16.3877 0 -15.6807c-110.552 4.63379 -117.922 152.945 -92.8643 232.463c28.126 89.2451 121.17 154.159 215.643 129.273c98.4697 -25.9355 138.646 -134.566 156.236 -223.894
c9.74316 -49.4668 13.6504 -100.21 13.3652 -151.039c14.6348 2.39258 29.3203 4.5166 44.0684 6.32422c14.7988 1.81152 27.8369 -14.0488 7.96387 -16.4609c-17.5117 -2.12793 -34.9414 -4.7002 -52.3008 -7.64746zM103.223 -239.51
c94.2852 65.3154 151.241 169.227 186.233 278.158c-43.1904 -5.35156 -86.2832 -11.5547 -129.095 -19.3936c-52.04 -9.52539 -105.645 -19.6357 -155.139 -38.7988c-40.4648 -15.665 -76.4141 -41.3857 -96.1475 -80.9375
c-19.1162 -38.3145 -19.3389 -81.2197 2.63086 -118.254c20.0605 -33.8174 51.8164 -56.1504 92.001 -56.9619c36.4365 -0.737305 70.207 15.8848 99.5156 36.1875z" />
    <glyph glyph-name="bracketleft" unicode="[" horiz-adv-x="363" 
d="M283.884 -82.3936c17.2891 2.99414 45.4199 -14.6182 18.3516 -24.8223c-72.9004 -27.458 -166.35 -4.25098 -209.185 62.6611c-21.1699 33.0635 -29.3164 73.8721 -34.8633 112.19c-6.30078 43.4941 -7.81543 87.6523 -8.14355 131.549
c-0.664062 88.1836 6.40137 176.418 18.0107 263.801c11.1523 83.9365 22.0479 170.02 46.3047 251.376c9.52148 31.9355 27.5371 63.8359 58.501 78.9863c25.1475 12.3047 59.8779 13.5811 83.6553 -2.44336c14.666 -9.88379 -12.043 -17.207 -20.959 -11.9492
c-34.7617 20.498 -56.3486 -34.9453 -62.0283 -59.9443c-8.41602 -37.0303 -12.6826 -74.958 -16.1807 -112.726c-13.1123 -141.48 -26.7129 -283.995 -23.2344 -426.24c1.64355 -67.127 5.69531 -137.791 30.2412 -201.062
c20.6348 -53.1836 65.7451 -70.6914 119.529 -61.377z" />
    <glyph glyph-name="backslash" unicode="\" horiz-adv-x="485" 
d="M434.305 -235.932c10.5947 -37.748 -73.627 -43.1748 -85.3379 -13.4092c-30.1201 76.5156 -54.0459 155.627 -80.3252 233.532c-25.4521 75.4541 -51.2432 150.799 -76.8477 226.202c-25.5537 75.2549 -51.0176 150.58 -75.2666 226.264
c-24.4795 76.4102 -50.1729 152.883 -66.2949 231.564c-3.94238 19.2295 43.9434 17.6328 50.9775 3.93066c37.4707 -72.9668 66.1738 -150.196 95.4395 -226.743c28.5244 -74.6064 55.6279 -149.834 82.0986 -225.194c26.8535 -76.4492 53.4453 -152.988 79.916 -229.57
c25.9746 -75.1416 54.1514 -150.006 75.6406 -226.576z" />
    <glyph glyph-name="bracketright" unicode="]" horiz-adv-x="364" 
d="M299.724 428.649c9.87207 -87.7422 15.791 -175.585 13.1914 -263.917c-2.25977 -76.8164 -5.33594 -172.671 -60.1514 -232.701c-45.458 -49.7832 -130.022 -62.3564 -191.411 -39.2354c-27.4502 10.3369 1.37402 27.7549 18.3545 24.8115
c27.1533 -4.7002 55.0566 -5.1377 79.3643 9.53223c27.583 16.6455 39.5088 46.4736 48.2646 76.0322c19.7881 66.7988 22.2432 138.31 22.5908 207.506c0.359375 71.4092 -2.89648 142.975 -8.43164 214.154c-5.45703 70.2266 -10.3994 140.707 -18.2031 210.719
c-3.59961 32.2598 -7.09766 65.9521 -16.6963 97.0918c-7.1123 23.0742 -29.125 63.6719 -58.5586 46.3164c-8.9707 -5.28906 -35.5977 2.08496 -20.959 11.9492c27.8877 18.7959 69.1221 13.8965 95.7959 -4.73535c33.5361 -23.4297 45.3057 -64.6797 54.4834 -102.346
c20.3496 -83.5381 32.7598 -169.797 42.3662 -255.178z" />
    <glyph glyph-name="asciicircum" unicode="^" horiz-adv-x="274" 
d="M223.889 453.617c3.36133 -24.8076 -61.1543 -25.5967 -65.9365 0.00390625c-3.5957 19.2451 -6.34766 38.6348 -10.208 57.833c-0.355469 1.78027 -0.773438 3.54492 -1.14844 5.32129c-4.31348 -7.7373 -8.41602 -15.5918 -12.3975 -23.5127
c-12.1133 -24.1094 -19.7061 -50.6934 -32.6191 -74.252c-7.65527 -13.9668 -51.4932 -17.0117 -51.5791 3.97852c-0.128906 30.6084 14.8848 64.9844 28.3682 91.9277c11.6914 23.3633 26.4551 57.4385 50.7236 70.0508c28.4502 14.7871 62.8809 4.87207 72.5693 -25.9043
c10.7393 -34.1064 17.4297 -70.0674 22.2275 -105.446z" />
    <glyph glyph-name="underscore" unicode="_" horiz-adv-x="408" 
d="M322.334 18.5156c10.8564 0.273438 35.6221 -4.72656 35.2549 -20.0996c-0.378906 -16.0166 -23.3281 -19.5225 -35.2539 -20.0928c-42.8701 -2.05762 -85.8184 -3.28711 -128.724 -4.38379c-41.6445 -1.06152 -83.6514 -3.49316 -125.198 0.4375
c-25.6436 2.42773 -23.4346 25.9785 -0.000976562 30.0225c41.0469 7.08496 83.6709 7.09277 125.198 9.07227c42.8779 2.04199 85.8066 3.96289 128.724 5.04395z" />
    <glyph glyph-name="grave" unicode="`" horiz-adv-x="197" 
d="M132.235 529.902c4.81348 -17.0234 14.3066 -35.4629 14.791 -53.2285c0.410156 -14.877 -28.7109 -13.874 -36.7568 -8.67871c-36.4482 23.5312 -49.3809 70.9414 -59.6592 110.563c-7.72559 29.7812 60.6309 34.251 66.5215 10.4541
c4.88379 -19.7373 9.57227 -39.5449 15.1035 -59.1104z" />
    <glyph glyph-name="a" unicode="a" horiz-adv-x="350" 
d="M345.267 151.036c4.14551 9.10352 30.7246 6.69336 26.2354 -4.12012c-24.6475 -59.3594 -81.3125 -195.378 -168.626 -146.895c-38.3887 21.3135 -49.9434 67.127 -53.207 108.529c-6.47656 -19.7529 -14.3936 -38.7168 -24.5742 -56.127
c-24.2686 -41.5078 -75.1445 -69.0596 -118.245 -34.4502c-41.5703 33.3838 -42.0742 99.957 -29.4541 147.051c14.7129 54.9053 58.6523 104.196 117.832 107.979c22.4463 1.43652 45.1816 -2.61523 63.5479 -13.0146c1.21387 6.34766 2.5293 12.6523 3.95801 18.8945
c4.36426 19.042 25.5225 24.6162 43.1865 24.6162c13.0771 0 44.7588 -5.67188 43.1816 -24.6162c-6.42969 -77.3271 -22.8408 -154.339 -10.9697 -232.15c1.10449 -7.22949 3.7002 -32.7637 13.459 -34.1416c13.667 -1.9248 35.0781 34.332 41.0078 43.0879
c20.4395 30.1748 37.5762 62.2197 52.668 95.3574zM112.748 93.2207c16.9883 45.8682 27.2236 94.2871 37.0293 142.239c-8.69336 9.74707 -20.2441 16.418 -33.4775 14.3682c-22.4697 -3.48242 -37.2139 -28.6807 -46.8984 -46.6533
c-21.3721 -39.665 -29.9521 -83.7217 -24.4521 -128.48c1.81543 -14.7793 7.28418 -63.4619 30.585 -43.374c18.207 15.6963 29.0361 39.8174 37.2139 61.9004z" />
    <glyph glyph-name="a" unicode="&#xe5;" horiz-adv-x="350" 
d="M345.267 151.036c4.14551 9.10352 30.7246 6.69336 26.2354 -4.12012c-24.6475 -59.3594 -81.3125 -195.378 -168.626 -146.895c-38.3887 21.3135 -49.9434 67.127 -53.207 108.529c-6.47656 -19.7529 -14.3936 -38.7168 -24.5742 -56.127
c-24.2686 -41.5078 -75.1445 -69.0596 -118.245 -34.4502c-41.5703 33.3838 -42.0742 99.957 -29.4541 147.051c14.7129 54.9053 58.6523 104.196 117.832 107.979c22.4463 1.43652 45.1816 -2.61523 63.5479 -13.0146c1.21387 6.34766 2.5293 12.6523 3.95801 18.8945
c4.36426 19.042 25.5225 24.6162 43.1865 24.6162c13.0771 0 44.7588 -5.67188 43.1816 -24.6162c-6.42969 -77.3271 -22.8408 -154.339 -10.9697 -232.15c1.10449 -7.22949 3.7002 -32.7637 13.459 -34.1416c13.667 -1.9248 35.0781 34.332 41.0078 43.0879
c20.4395 30.1748 37.5762 62.2197 52.668 95.3574zM112.748 93.2207c16.9883 45.8682 27.2236 94.2871 37.0293 142.239c-8.69336 9.74707 -20.2441 16.418 -33.4775 14.3682c-22.4697 -3.48242 -37.2139 -28.6807 -46.8984 -46.6533
c-21.3721 -39.665 -29.9521 -83.7217 -24.4521 -128.48c1.81543 -14.7793 7.28418 -63.4619 30.585 -43.374c18.207 15.6963 29.0361 39.8174 37.2139 61.9004z" />
    <glyph glyph-name="a" unicode="&#xe4;" horiz-adv-x="350" 
d="M345.267 151.036c4.14551 9.10352 30.7246 6.69336 26.2354 -4.12012c-24.6475 -59.3594 -81.3125 -195.378 -168.626 -146.895c-38.3887 21.3135 -49.9434 67.127 -53.207 108.529c-6.47656 -19.7529 -14.3936 -38.7168 -24.5742 -56.127
c-24.2686 -41.5078 -75.1445 -69.0596 -118.245 -34.4502c-41.5703 33.3838 -42.0742 99.957 -29.4541 147.051c14.7129 54.9053 58.6523 104.196 117.832 107.979c22.4463 1.43652 45.1816 -2.61523 63.5479 -13.0146c1.21387 6.34766 2.5293 12.6523 3.95801 18.8945
c4.36426 19.042 25.5225 24.6162 43.1865 24.6162c13.0771 0 44.7588 -5.67188 43.1816 -24.6162c-6.42969 -77.3271 -22.8408 -154.339 -10.9697 -232.15c1.10449 -7.22949 3.7002 -32.7637 13.459 -34.1416c13.667 -1.9248 35.0781 34.332 41.0078 43.0879
c20.4395 30.1748 37.5762 62.2197 52.668 95.3574zM112.748 93.2207c16.9883 45.8682 27.2236 94.2871 37.0293 142.239c-8.69336 9.74707 -20.2441 16.418 -33.4775 14.3682c-22.4697 -3.48242 -37.2139 -28.6807 -46.8984 -46.6533
c-21.3721 -39.665 -29.9521 -83.7217 -24.4521 -128.48c1.81543 -14.7793 7.28418 -63.4619 30.585 -43.374c18.207 15.6963 29.0361 39.8174 37.2139 61.9004z" />
    <glyph glyph-name="a" unicode="&#xe3;" horiz-adv-x="350" 
d="M345.267 151.036c4.14551 9.10352 30.7246 6.69336 26.2354 -4.12012c-24.6475 -59.3594 -81.3125 -195.378 -168.626 -146.895c-38.3887 21.3135 -49.9434 67.127 -53.207 108.529c-6.47656 -19.7529 -14.3936 -38.7168 -24.5742 -56.127
c-24.2686 -41.5078 -75.1445 -69.0596 -118.245 -34.4502c-41.5703 33.3838 -42.0742 99.957 -29.4541 147.051c14.7129 54.9053 58.6523 104.196 117.832 107.979c22.4463 1.43652 45.1816 -2.61523 63.5479 -13.0146c1.21387 6.34766 2.5293 12.6523 3.95801 18.8945
c4.36426 19.042 25.5225 24.6162 43.1865 24.6162c13.0771 0 44.7588 -5.67188 43.1816 -24.6162c-6.42969 -77.3271 -22.8408 -154.339 -10.9697 -232.15c1.10449 -7.22949 3.7002 -32.7637 13.459 -34.1416c13.667 -1.9248 35.0781 34.332 41.0078 43.0879
c20.4395 30.1748 37.5762 62.2197 52.668 95.3574zM112.748 93.2207c16.9883 45.8682 27.2236 94.2871 37.0293 142.239c-8.69336 9.74707 -20.2441 16.418 -33.4775 14.3682c-22.4697 -3.48242 -37.2139 -28.6807 -46.8984 -46.6533
c-21.3721 -39.665 -29.9521 -83.7217 -24.4521 -128.48c1.81543 -14.7793 7.28418 -63.4619 30.585 -43.374c18.207 15.6963 29.0361 39.8174 37.2139 61.9004z" />
    <glyph glyph-name="a" unicode="&#xe2;" horiz-adv-x="350" 
d="M345.267 151.036c4.14551 9.10352 30.7246 6.69336 26.2354 -4.12012c-24.6475 -59.3594 -81.3125 -195.378 -168.626 -146.895c-38.3887 21.3135 -49.9434 67.127 -53.207 108.529c-6.47656 -19.7529 -14.3936 -38.7168 -24.5742 -56.127
c-24.2686 -41.5078 -75.1445 -69.0596 -118.245 -34.4502c-41.5703 33.3838 -42.0742 99.957 -29.4541 147.051c14.7129 54.9053 58.6523 104.196 117.832 107.979c22.4463 1.43652 45.1816 -2.61523 63.5479 -13.0146c1.21387 6.34766 2.5293 12.6523 3.95801 18.8945
c4.36426 19.042 25.5225 24.6162 43.1865 24.6162c13.0771 0 44.7588 -5.67188 43.1816 -24.6162c-6.42969 -77.3271 -22.8408 -154.339 -10.9697 -232.15c1.10449 -7.22949 3.7002 -32.7637 13.459 -34.1416c13.667 -1.9248 35.0781 34.332 41.0078 43.0879
c20.4395 30.1748 37.5762 62.2197 52.668 95.3574zM112.748 93.2207c16.9883 45.8682 27.2236 94.2871 37.0293 142.239c-8.69336 9.74707 -20.2441 16.418 -33.4775 14.3682c-22.4697 -3.48242 -37.2139 -28.6807 -46.8984 -46.6533
c-21.3721 -39.665 -29.9521 -83.7217 -24.4521 -128.48c1.81543 -14.7793 7.28418 -63.4619 30.585 -43.374c18.207 15.6963 29.0361 39.8174 37.2139 61.9004z" />
    <glyph glyph-name="a" unicode="&#xe1;" horiz-adv-x="350" 
d="M345.267 151.036c4.14551 9.10352 30.7246 6.69336 26.2354 -4.12012c-24.6475 -59.3594 -81.3125 -195.378 -168.626 -146.895c-38.3887 21.3135 -49.9434 67.127 -53.207 108.529c-6.47656 -19.7529 -14.3936 -38.7168 -24.5742 -56.127
c-24.2686 -41.5078 -75.1445 -69.0596 -118.245 -34.4502c-41.5703 33.3838 -42.0742 99.957 -29.4541 147.051c14.7129 54.9053 58.6523 104.196 117.832 107.979c22.4463 1.43652 45.1816 -2.61523 63.5479 -13.0146c1.21387 6.34766 2.5293 12.6523 3.95801 18.8945
c4.36426 19.042 25.5225 24.6162 43.1865 24.6162c13.0771 0 44.7588 -5.67188 43.1816 -24.6162c-6.42969 -77.3271 -22.8408 -154.339 -10.9697 -232.15c1.10449 -7.22949 3.7002 -32.7637 13.459 -34.1416c13.667 -1.9248 35.0781 34.332 41.0078 43.0879
c20.4395 30.1748 37.5762 62.2197 52.668 95.3574zM112.748 93.2207c16.9883 45.8682 27.2236 94.2871 37.0293 142.239c-8.69336 9.74707 -20.2441 16.418 -33.4775 14.3682c-22.4697 -3.48242 -37.2139 -28.6807 -46.8984 -46.6533
c-21.3721 -39.665 -29.9521 -83.7217 -24.4521 -128.48c1.81543 -14.7793 7.28418 -63.4619 30.585 -43.374c18.207 15.6963 29.0361 39.8174 37.2139 61.9004z" />
    <glyph glyph-name="b" unicode="b" horiz-adv-x="406" 
d="M427.905 167.779c6.48438 -1.8584 10.0469 -7.04492 5.86621 -12.7402c-4.44238 -6.05469 -16.2002 -5.09082 -22.3643 -3.3418c-41.5859 11.8008 -88.1602 4.79395 -131.327 -8.12305c8.6582 -36.0576 10.2549 -74.3057 7.72949 -110.013
c-4.36035 -61.6348 -22.4229 -127.399 -54.2217 -180.571c-30.874 -51.6299 -78.5615 -94.8398 -137.858 -110.115c-50.7861 -13.085 -122.383 -12.9326 -157.172 33.7236c-34.6953 46.5312 -7.44043 118.136 19.7129 161.806
c15.665 25.1904 34.0742 48.5693 54.4785 70.0938c-15.2754 38.5371 -15.2324 85.4277 -18.0273 125.147c-3.38086 48.0615 -4.42285 96.2246 -4.3291 144.399c0.195312 98.2158 4.42285 198.766 21.6143 295.604c5.91797 33.333 89.4326 33.876 86.9775 0
c-7.15527 -98.6572 -17.0391 -196.6 -19.334 -295.604c-0.799805 -34.4033 -0.823242 -68.8301 -0.506836 -103.249c8.79883 25.666 19.085 52.2812 36.1904 73.041c16.4775 19.9941 40.6768 29.792 66.3857 24.9902c29.7383 -5.55469 48.5537 -29.543 65.0469 -52.918
c12.3086 -17.4453 21.3965 -36.8818 27.959 -57.3291c50.0527 13.3115 103.236 19.5146 153.18 5.2002zM122.575 211.935c-18.9404 -40.1611 -32.0898 -83.2822 -40.8652 -126.94c0.246094 -5.06738 0.445312 -10.1582 0.585938 -15.2529
c42.8701 31.7598 90.0811 57.7109 140.122 76.2686c-1.54199 17.9297 -4.18848 35.6953 -8.05273 53.1367c-5.35547 24.168 -18.8662 69.2393 -54.1436 57.6689c-18.6123 -6.10547 -29.8701 -28.3916 -37.6465 -44.8809zM177.86 -100.358
c31.4014 68.6494 48.5303 147.111 45.9346 223.697c-50.002 -20.748 -97.002 -50.291 -137.9 -85.6387c-1.45605 -1.25684 -2.88867 -2.54102 -4.3291 -3.81738c-1.38965 -16.7275 -4.58301 -32.9629 -11.1494 -47.9258
c-5.46484 -12.4492 -26.7627 -12.8008 -39.0947 -6.12988c-12.3711 -16.626 -23.0361 -34.501 -31.4248 -53.7812c-16.1221 -37.0459 -37.3506 -98.1885 -8.80273 -134.445c25.0342 -31.7949 69.3486 -15.54 97.877 1.4873c40.6914 24.292 69.4727 64.1016 88.8896 106.554z
" />
    <glyph glyph-name="c" unicode="c" horiz-adv-x="244" 
d="M239.224 158.293c3.5293 9.37305 30.2705 6.95312 26.2266 -4.11719c-26.5918 -72.9473 -52.1885 -152.734 -102.538 -213.362c-18.3857 -22.1416 -44.5752 -41.0234 -74.3838 -41.9873c-32.2559 -1.04199 -60.5967 17.1729 -78.3389 43.0381
c-37.7246 54.999 -43.6699 133.502 -34.6836 197.885c8.44336 60.5146 37.1309 137.85 100.663 159.078c24.5146 8.18945 56.583 9.95801 77.1787 -8.37793c22.7734 -20.2754 24.71 -50.9307 24.7021 -79.3535c0 -11.1367 -28.083 -11.1367 -28.4229 0
c-0.503906 16.583 -0.804688 33.8447 -7.51465 49.3223c-3.7627 8.68164 -8.8916 16.875 -18.2881 19.9277c-10.5947 3.44336 -14.3105 -0.272461 -20.2363 -9.25098c-14.3184 -21.7041 -23.1641 -48.3818 -30.917 -73.002
c-18.1367 -57.5908 -21.7441 -119.026 -13.0469 -178.689c4.28223 -29.3828 10.9805 -58.8984 25.9121 -84.8965c20.9902 -36.5498 63.2939 28.7275 74.415 46.5283c34.3135 54.9053 56.5684 116.946 79.2725 177.258z" />
    <glyph glyph-name="d" unicode="d" horiz-adv-x="420" 
d="M410.151 147.897c2.33398 11.0127 29.7637 9.90332 27.8193 -0.00390625c-11.7148 -59.4639 -26.0332 -127.816 -67.6777 -174.457c-31.7324 -35.5391 -91.1387 -31.3506 -122.478 3.47363c-37.9277 42.1436 -44.373 112.405 -49.4365 166.197
c-1.14355 12.1602 -2.11914 24.3828 -3.0127 36.6328c-5.06348 -33.7822 -11.3799 -67.4121 -20.5732 -100.316c-10.3682 -37.1084 -23.3281 -82.6367 -53.0664 -109.225c-27.7432 -24.7998 -61.9668 -31.5605 -96.623 -16.9141
c-37.3311 15.7783 -56.5996 50.9697 -62.0684 89.8232c-11.4336 81.2197 27.2637 180.31 104.728 215.282c35.0781 15.8369 74.7197 16.9023 109.642 5.21094c1.75293 16.7666 3.37305 33.5293 4.96973 50.2334c7.09668 74.1729 13.6709 148.396 20.4785 222.597
c0.203125 2.20508 1.47949 3.92676 3.34961 5.22266c7.83496 30.3076 85.0879 29.2109 83.1318 -2.30371c-8.63477 -139.126 -17.2852 -278.51 -9.99316 -417.964c1.70996 -32.7051 5.27051 -65.792 12.4922 -97.7705c3.01367 -13.3389 6.66406 -26.3379 12.6055 -38.7207
c2.08887 -4.36035 5.13379 -11.0938 8.70215 -14.4316c8.91602 -8.33789 18.4258 -1.57715 26.0459 5.33984c20.9277 18.999 33.7588 48.8857 43.7754 74.7275c12.2109 31.4951 20.2061 64.3799 27.1895 97.3662zM150.304 97.543
c9.62598 37.748 16.1328 76.292 21.1768 115.048c-9.37305 8.60742 -20.1982 15.123 -32.5068 17.1885c-28.875 4.84473 -56.6846 -24.3545 -70.6553 -46.1641c-18.1094 -28.2744 -29.1367 -62.0293 -33.0283 -95.2451
c-3.54102 -30.2217 -4.86035 -67.1934 10.5361 -94.6162c6.52734 -11.6211 17.8125 -24.792 32.3418 -23.9609c16.3135 0.936523 29.2695 19.8027 36.6592 32.5791c16.8291 29.0977 27.209 62.7588 35.4766 95.1709z" />
    <glyph glyph-name="e" unicode="e" horiz-adv-x="201" 
d="M194.252 154.628c2.97461 9.45898 29.7617 7.27344 26.2246 -4.125c-11.5234 -37.2217 -23.8047 -74.3887 -40.9258 -109.479c-13.2998 -27.2627 -30.1055 -61.2793 -56.5996 -78.1318c-58.1641 -36.9951 -117.34 16.1533 -134.056 71.2061
c-18.5928 61.252 -19.0771 142.179 11.8008 199.82c14.7012 27.4385 39.3525 51.1025 71.0498 56.415c23.8242 3.99316 57.4072 -4.00586 63.7666 -30.7969c8.86914 -37.3701 -28.04 -60.5068 -64.4766 -74.4658c-0.827148 -4.58301 -1.61914 -9.13477 -2.37207 -13.585
c-4.79395 -28.3096 -6.62891 -57.1299 -4.64551 -85.79c1.9209 -27.7666 6.29688 -55.8535 14.9551 -82.3516c2.54883 -7.7998 5.76953 -22.1611 12.5459 -27.5244c12.6826 -10.0322 29.1719 15.5918 35.5703 24.8984c31.916 46.4414 50.3994 100.581 67.1621 153.909z
M89.501 247.282c-5.55469 -10.8096 -9.54199 -22.7607 -12.6807 -35.0068c3.05273 2.09277 5.99609 4.35254 8.7832 6.83887c8.86914 7.90527 18.4062 19.71 16.8369 32.5137c-0.791992 2.54492 -1.58008 5.09375 -2.37207 7.63867
c0.952148 4.06348 0.144531 4.25488 -2.42773 0.582031c-3.49023 -1.94824 -6.52734 -9.43555 -8.13965 -12.5664z" />
    <glyph glyph-name="e" unicode="&#xeb;" horiz-adv-x="201" 
d="M194.252 154.628c2.97461 9.45898 29.7617 7.27344 26.2246 -4.125c-11.5234 -37.2217 -23.8047 -74.3887 -40.9258 -109.479c-13.2998 -27.2627 -30.1055 -61.2793 -56.5996 -78.1318c-58.1641 -36.9951 -117.34 16.1533 -134.056 71.2061
c-18.5928 61.252 -19.0771 142.179 11.8008 199.82c14.7012 27.4385 39.3525 51.1025 71.0498 56.415c23.8242 3.99316 57.4072 -4.00586 63.7666 -30.7969c8.86914 -37.3701 -28.04 -60.5068 -64.4766 -74.4658c-0.827148 -4.58301 -1.61914 -9.13477 -2.37207 -13.585
c-4.79395 -28.3096 -6.62891 -57.1299 -4.64551 -85.79c1.9209 -27.7666 6.29688 -55.8535 14.9551 -82.3516c2.54883 -7.7998 5.76953 -22.1611 12.5459 -27.5244c12.6826 -10.0322 29.1719 15.5918 35.5703 24.8984c31.916 46.4414 50.3994 100.581 67.1621 153.909z
M89.501 247.282c-5.55469 -10.8096 -9.54199 -22.7607 -12.6807 -35.0068c3.05273 2.09277 5.99609 4.35254 8.7832 6.83887c8.86914 7.90527 18.4062 19.71 16.8369 32.5137c-0.791992 2.54492 -1.58008 5.09375 -2.37207 7.63867
c0.952148 4.06348 0.144531 4.25488 -2.42773 0.582031c-3.49023 -1.94824 -6.52734 -9.43555 -8.13965 -12.5664z" />
    <glyph glyph-name="e" unicode="&#xea;" horiz-adv-x="201" 
d="M194.252 154.628c2.97461 9.45898 29.7617 7.27344 26.2246 -4.125c-11.5234 -37.2217 -23.8047 -74.3887 -40.9258 -109.479c-13.2998 -27.2627 -30.1055 -61.2793 -56.5996 -78.1318c-58.1641 -36.9951 -117.34 16.1533 -134.056 71.2061
c-18.5928 61.252 -19.0771 142.179 11.8008 199.82c14.7012 27.4385 39.3525 51.1025 71.0498 56.415c23.8242 3.99316 57.4072 -4.00586 63.7666 -30.7969c8.86914 -37.3701 -28.04 -60.5068 -64.4766 -74.4658c-0.827148 -4.58301 -1.61914 -9.13477 -2.37207 -13.585
c-4.79395 -28.3096 -6.62891 -57.1299 -4.64551 -85.79c1.9209 -27.7666 6.29688 -55.8535 14.9551 -82.3516c2.54883 -7.7998 5.76953 -22.1611 12.5459 -27.5244c12.6826 -10.0322 29.1719 15.5918 35.5703 24.8984c31.916 46.4414 50.3994 100.581 67.1621 153.909z
M89.501 247.282c-5.55469 -10.8096 -9.54199 -22.7607 -12.6807 -35.0068c3.05273 2.09277 5.99609 4.35254 8.7832 6.83887c8.86914 7.90527 18.4062 19.71 16.8369 32.5137c-0.791992 2.54492 -1.58008 5.09375 -2.37207 7.63867
c0.952148 4.06348 0.144531 4.25488 -2.42773 0.582031c-3.49023 -1.94824 -6.52734 -9.43555 -8.13965 -12.5664z" />
    <glyph glyph-name="e" unicode="&#xe9;" horiz-adv-x="201" 
d="M194.252 154.628c2.97461 9.45898 29.7617 7.27344 26.2246 -4.125c-11.5234 -37.2217 -23.8047 -74.3887 -40.9258 -109.479c-13.2998 -27.2627 -30.1055 -61.2793 -56.5996 -78.1318c-58.1641 -36.9951 -117.34 16.1533 -134.056 71.2061
c-18.5928 61.252 -19.0771 142.179 11.8008 199.82c14.7012 27.4385 39.3525 51.1025 71.0498 56.415c23.8242 3.99316 57.4072 -4.00586 63.7666 -30.7969c8.86914 -37.3701 -28.04 -60.5068 -64.4766 -74.4658c-0.827148 -4.58301 -1.61914 -9.13477 -2.37207 -13.585
c-4.79395 -28.3096 -6.62891 -57.1299 -4.64551 -85.79c1.9209 -27.7666 6.29688 -55.8535 14.9551 -82.3516c2.54883 -7.7998 5.76953 -22.1611 12.5459 -27.5244c12.6826 -10.0322 29.1719 15.5918 35.5703 24.8984c31.916 46.4414 50.3994 100.581 67.1621 153.909z
M89.501 247.282c-5.55469 -10.8096 -9.54199 -22.7607 -12.6807 -35.0068c3.05273 2.09277 5.99609 4.35254 8.7832 6.83887c8.86914 7.90527 18.4062 19.71 16.8369 32.5137c-0.791992 2.54492 -1.58008 5.09375 -2.37207 7.63867
c0.952148 4.06348 0.144531 4.25488 -2.42773 0.582031c-3.49023 -1.94824 -6.52734 -9.43555 -8.13965 -12.5664z" />
    <glyph glyph-name="f" unicode="f" horiz-adv-x="291" 
d="M298.598 174.185c8.58789 4.10254 33.2998 -3.99707 19.2393 -10.9609c-73.627 -36.4678 -147.488 -72.459 -221.357 -108.435c49.5176 1.28027 98.9297 -14.4785 135.843 -49.7793c53.1758 -50.8525 66.7959 -134.113 23.1143 -195.588
c-39.4502 -55.5176 -113.627 -72.3076 -166.58 -24.5039c-58.4648 52.7773 -75.8945 140.57 -85.5713 215.044c-11.2852 86.8525 -10.9922 174.704 -0.104492 261.584c9.77441 78.0342 26.1816 158.145 64.4258 227.634c33.6064 61.0645 98.501 137.092 177.472 113.154
c78.2412 -23.7188 60.4326 -117.75 43.0303 -177.141c-38.041 -129.828 -118.858 -239.845 -205.137 -342.272c0.15625 -4.21191 0.351562 -8.41992 0.554688 -12.624c71.6123 34.7969 143.232 69.5625 215.071 103.888zM129.931 437.256
c-32.4941 -96.5332 -47.0088 -200.051 -47.75 -302.654c65.1406 81.3135 122.872 168.584 157.271 267.674c11.0234 31.7598 21.6846 65.6006 22.6172 99.4219c0.601562 21.7471 -8.51758 71.8662 -39.3447 72.8145c-23.6406 0.729492 -45.8682 -37.1943 -55.7285 -54.249
c-15.1895 -26.2676 -27.3965 -54.2764 -37.0654 -83.0068zM208.701 -5.55957c-33.8213 33.5947 -78.5283 46.6494 -123.167 42.4102c5.00879 -66.2256 14.5723 -134.255 41.0742 -195.671c8.72852 -20.2363 23.1836 -48.5811 44.5596 -58.2031
c27.4307 -12.3477 56.8643 30.0068 66.959 50.7588c26.459 54.3857 12.9834 118.577 -29.4258 160.705z" />
    <glyph glyph-name="g" unicode="g" horiz-adv-x="316" 
d="M314.394 162.517c4.10645 9.62207 31.8096 6.77441 27.1172 -4.26855c-14.9355 -35.1133 -56.3809 -56.0371 -85.998 -77.1602c-3.57227 -2.54883 -7.14453 -5.10156 -10.7129 -7.6543c-0.866211 -51.4111 -5.09766 -102.705 -12.5342 -152.543
c-12.332 -82.6445 -36.6592 -166.37 -106.472 -218.316c-27.5205 -20.4785 -65.2686 -28.0869 -95.5957 -8.93945c-28.8867 18.2383 -41.7842 53.2578 -43.7441 85.9824c-5.26953 87.9922 58.7539 159.972 120.373 214.217c18.0156 15.8643 36.7373 30.8779 55.8145 45.4385
c-0.335938 33.0986 -1.58496 66.1396 -3.31055 99.1641c-7.75684 -30.4873 -18.0039 -59.9678 -33.2363 -86.0166c-24.2686 -41.5078 -75.1445 -69.0596 -118.245 -34.4502c-41.5703 33.3838 -42.0742 99.957 -29.4541 147.051
c14.7129 54.9053 58.6523 104.196 117.832 107.979c20.2988 1.2998 40.8047 -1.93652 58.1328 -10.2432c11.9805 22.1025 74.6963 18.8818 78.9043 -9.00195c7.62012 -50.4824 11.3945 -102.464 11.6797 -154.547c8.41992 5.98828 16.8438 11.9727 25.2363 17.9961
c17.5742 12.6123 35.4531 24.792 44.2129 45.3135zM113.753 93.2207c16.9883 45.8682 27.2236 94.2871 37.0293 142.239c-8.69336 9.74707 -20.2441 16.418 -33.4775 14.3682c-22.4697 -3.48242 -37.2139 -28.6807 -46.8984 -46.6533
c-21.3721 -39.665 -29.9521 -83.7217 -24.4521 -128.48c1.81543 -14.7793 7.28418 -63.4619 30.585 -43.374c18.207 15.6963 29.0361 39.8174 37.2139 61.9004zM162.525 -6.10547c0.117188 6.01172 0.112305 12.0117 0.151367 18.0156
c-5.08691 -4.09863 -10.1465 -8.23242 -15.1514 -12.4365c-59.3242 -49.834 -122.935 -111.938 -131.569 -193.204c-3.68066 -34.6445 2.95898 -80.1494 34.7422 -100.937c39.0127 -25.5146 72.7363 28.4375 83.6396 58.8936
c25.8848 72.3154 26.708 153.762 28.1875 229.668z" />
    <glyph glyph-name="h" unicode="h" horiz-adv-x="396" 
d="M386.025 132.396c3.2793 9.43945 30.0947 7.06836 26.2383 -4.11914c-14.0645 -40.7148 -28.1328 -81.4414 -43.8252 -121.563c-14.416 -36.8545 -28.9062 -75.583 -50.2861 -109.072c-14.3262 -22.4385 -33.8057 -43.877 -61.2363 -48.71
c-27.4502 -4.83691 -48.8027 9.0293 -65.8027 29.5469c-18.8232 22.7236 -26.4004 61.6816 -27.0801 90.291c-0.834961 35.1328 5.3877 70.6523 10.0684 105.383c4.84082 35.9219 10.3057 71.8398 12.835 108.03c1.03027 14.7754 1.95508 30.7178 -0.480469 45.4268
c-1.22949 7.4248 -3.99707 17.5234 -11.7852 21.0254c-10.3369 4.64941 -20.6777 -5.52734 -27.3447 -12.4014c-24.1523 -24.9092 -35.0986 -62.4893 -45.4629 -94.7178c-8.36914 -26.0176 -15.1533 -52.4492 -20.5908 -79.1855
c0.335938 -26.6152 -1.78027 -53.0352 -12.0273 -76.3867c-6.81152 -15.5205 -38.2754 -12.2646 -46.2314 0.000976562c-26.9277 41.5117 -26.0967 99.832 -29.4658 147.694c-3.38086 48.0615 -4.42285 96.2246 -4.3291 144.399
c0.195312 98.2158 4.42285 198.766 21.6143 295.604c5.91797 33.333 89.4326 33.876 86.9775 0c-7.15527 -98.6572 -17.0391 -196.6 -19.334 -295.604c-0.928711 -40.0049 -0.823242 -80.0371 -0.331055 -120.054c10.2627 31.5107 22.2236 65.6289 46.3604 88.8086
c17.5 16.8057 43.3027 25.874 66.5176 15.6074c22.6807 -10.0322 36.5547 -37.2402 44.4639 -59.3311c24.9326 -69.6533 14.0176 -141.234 9.84473 -213.253c-1.93652 -33.3994 -8.40527 -66.0459 -10.084 -99.4258c-0.644531 -12.7959 -2.80762 -21.4268 12.8887 -22.5938
c12.4258 -0.920898 17.8516 3.7168 26.7285 12.6289c12.5303 12.5771 21.5439 28.625 29.5 44.3408c33.5752 66.3076 57.3174 137.58 81.6602 207.631z" />
    <glyph glyph-name="i" unicode="i" horiz-adv-x="190" 
d="M185.704 151.036c4.14551 9.10352 30.7227 6.69238 26.2295 -4.12109c-24.6475 -59.3594 -81.3086 -195.378 -168.625 -146.895c-42.6045 23.6562 -52.1953 77.5068 -54.0342 121.989c-2.13965 51.7744 2.31836 106.34 13.8926 156.873
c4.36426 19.042 25.5225 24.6162 43.1865 24.6162c13.0811 0 44.7627 -5.67188 43.1855 -24.6162c-6.42969 -77.3271 -22.8408 -154.339 -10.9697 -232.15c1.10449 -7.22949 3.7002 -32.7637 13.459 -34.1416c13.6709 -1.9248 35.082 34.332 41.0117 43.0879
c20.4355 30.1748 37.5723 62.2197 52.6641 95.3574zM72.5264 364.645c-8.02246 -11.6523 -33.5723 -14.6348 -43.2568 -3.2207c-18.4521 21.7432 -14.9893 59.3545 -10.918 85.8447c4.09082 26.6309 70.5273 25.5967 67.7637 0
c-1.53027 -14.1699 -3.30273 -28.3008 -4.58301 -42.498c-1.20996 -13.4639 -1.16699 -28.7393 -9.00586 -40.126z" />
    <glyph glyph-name="i" unicode="&#xef;" horiz-adv-x="190" 
d="M185.704 151.036c4.14551 9.10352 30.7227 6.69238 26.2295 -4.12109c-24.6475 -59.3594 -81.3086 -195.378 -168.625 -146.895c-42.6045 23.6562 -52.1953 77.5068 -54.0342 121.989c-2.13965 51.7744 2.31836 106.34 13.8926 156.873
c4.36426 19.042 25.5225 24.6162 43.1865 24.6162c13.0811 0 44.7627 -5.67188 43.1855 -24.6162c-6.42969 -77.3271 -22.8408 -154.339 -10.9697 -232.15c1.10449 -7.22949 3.7002 -32.7637 13.459 -34.1416c13.6709 -1.9248 35.082 34.332 41.0117 43.0879
c20.4355 30.1748 37.5723 62.2197 52.6641 95.3574zM72.5264 364.645c-8.02246 -11.6523 -33.5723 -14.6348 -43.2568 -3.2207c-18.4521 21.7432 -14.9893 59.3545 -10.918 85.8447c4.09082 26.6309 70.5273 25.5967 67.7637 0
c-1.53027 -14.1699 -3.30273 -28.3008 -4.58301 -42.498c-1.20996 -13.4639 -1.16699 -28.7393 -9.00586 -40.126z" />
    <glyph glyph-name="i" unicode="&#xee;" horiz-adv-x="190" 
d="M185.704 151.036c4.14551 9.10352 30.7227 6.69238 26.2295 -4.12109c-24.6475 -59.3594 -81.3086 -195.378 -168.625 -146.895c-42.6045 23.6562 -52.1953 77.5068 -54.0342 121.989c-2.13965 51.7744 2.31836 106.34 13.8926 156.873
c4.36426 19.042 25.5225 24.6162 43.1865 24.6162c13.0811 0 44.7627 -5.67188 43.1855 -24.6162c-6.42969 -77.3271 -22.8408 -154.339 -10.9697 -232.15c1.10449 -7.22949 3.7002 -32.7637 13.459 -34.1416c13.6709 -1.9248 35.082 34.332 41.0117 43.0879
c20.4355 30.1748 37.5723 62.2197 52.6641 95.3574zM72.5264 364.645c-8.02246 -11.6523 -33.5723 -14.6348 -43.2568 -3.2207c-18.4521 21.7432 -14.9893 59.3545 -10.918 85.8447c4.09082 26.6309 70.5273 25.5967 67.7637 0
c-1.53027 -14.1699 -3.30273 -28.3008 -4.58301 -42.498c-1.20996 -13.4639 -1.16699 -28.7393 -9.00586 -40.126z" />
    <glyph glyph-name="i" unicode="&#xed;" horiz-adv-x="190" 
d="M185.704 151.036c4.14551 9.10352 30.7227 6.69238 26.2295 -4.12109c-24.6475 -59.3594 -81.3086 -195.378 -168.625 -146.895c-42.6045 23.6562 -52.1953 77.5068 -54.0342 121.989c-2.13965 51.7744 2.31836 106.34 13.8926 156.873
c4.36426 19.042 25.5225 24.6162 43.1865 24.6162c13.0811 0 44.7627 -5.67188 43.1855 -24.6162c-6.42969 -77.3271 -22.8408 -154.339 -10.9697 -232.15c1.10449 -7.22949 3.7002 -32.7637 13.459 -34.1416c13.6709 -1.9248 35.082 34.332 41.0117 43.0879
c20.4355 30.1748 37.5723 62.2197 52.6641 95.3574zM72.5264 364.645c-8.02246 -11.6523 -33.5723 -14.6348 -43.2568 -3.2207c-18.4521 21.7432 -14.9893 59.3545 -10.918 85.8447c4.09082 26.6309 70.5273 25.5967 67.7637 0
c-1.53027 -14.1699 -3.30273 -28.3008 -4.58301 -42.498c-1.20996 -13.4639 -1.16699 -28.7393 -9.00586 -40.126z" />
    <glyph glyph-name="j" unicode="j" horiz-adv-x="149" 
d="M149.456 162.517c4.10645 9.62207 31.8086 6.77441 27.1201 -4.26855c-14.9355 -35.1133 -56.3809 -56.0371 -85.998 -77.1602c-3.57227 -2.54883 -7.14453 -5.10156 -10.7129 -7.6543c-0.866211 -51.4111 -5.09766 -102.705 -12.5342 -152.543
c-12.332 -82.6445 -36.6592 -166.37 -106.472 -218.316c-27.5205 -20.4785 -65.2686 -28.0869 -95.5957 -8.93945c-28.8867 18.2383 -41.7842 53.2578 -43.7441 85.9824c-5.26953 87.9922 58.7539 159.972 120.373 214.217c18.0156 15.8643 36.7373 30.8779 55.8145 45.4385
c-0.722656 71.6162 -5.84082 142.947 -10.2598 214.481c-1.94824 31.5537 76.168 31.2178 80.8799 0c7.62012 -50.4824 11.3945 -102.464 11.6797 -154.547c8.41992 5.98828 16.8438 11.9727 25.2363 17.9961c17.5742 12.6123 35.4531 24.792 44.2129 45.3135z
M-2.41406 -6.10742c0.117188 6.01172 0.112305 12.0117 0.151367 18.0156c-5.08691 -4.09863 -10.1465 -8.23242 -15.1514 -12.4365c-59.3242 -49.834 -122.935 -111.938 -131.569 -193.204c-3.68066 -34.6445 2.95898 -80.1494 34.7422 -100.937
c39.0127 -25.5146 72.7363 28.4375 83.6396 58.8936c25.8848 72.3154 26.708 153.762 28.1875 229.668zM3.85059 318.474c-10.7979 8.24805 -12.2119 21.5771 -14.5146 34.3652c-2.30664 12.8037 -3.65723 25.8613 -4.48828 38.833
c-1.59277 24.835 63.0713 25.6543 64.7148 -0.000976562c1.31934 -20.5801 6.58105 -58.1719 -10.3721 -73.1973c-9.50586 -8.42383 -25.6982 -7.37012 -35.3398 0z" />
    <glyph glyph-name="k" unicode="k" 
d="M372.843 143.67c5.44922 11.0625 37.874 7.43262 31.8154 -5.00879c-35.668 -73.2402 -59.5664 -203.638 -159.07 -213.975c-56.7041 -5.89062 -90.8105 42.1748 -114.225 86.9531c-11.3516 21.7119 -20.6777 44.3262 -31.1084 66.4639
c-5.11035 10.8447 -10.6729 21.6309 -17.8594 31.2686c-1.03418 1.38965 -2.16211 2.72461 -3.31738 4.04785c1.93262 -42.2725 7.04297 -89.0264 -9.83301 -127.478c-6.81152 -15.5205 -38.2754 -12.2646 -46.2314 0.000976562
c-26.9277 41.5117 -26.0967 99.832 -29.4658 147.694c-3.38086 48.0615 -4.42285 96.2246 -4.3291 144.399c0.195312 98.2158 4.42285 198.766 21.6143 295.604c5.91797 33.333 89.4326 33.876 86.9775 0c-7.15527 -98.6572 -17.0391 -196.6 -19.334 -295.604
c-0.394531 -17 -0.558594 -34.0078 -0.632812 -51.0195c6.78809 13.4053 15.4463 25.9434 25.7793 37.1738c24.8662 27.0215 70.1445 56.1934 108.408 41.75c50.0723 -18.9014 -5.46484 -82.4297 -26.1699 -102.295c-26.7207 -25.6357 -58.0557 -45.7275 -90.1787 -64.0869
c14.5059 -3.05273 27.3408 -7.27637 40.5039 -17.7578c16.7627 -13.3506 28.751 -31.8848 38.0068 -50.9775c9.44336 -19.4795 19.0068 -38.7012 29.3594 -57.7197c9.50195 -17.4648 17.2588 -39.3135 29.5635 -54.8965c30.3857 -38.4746 80.0439 49.5215 90.5527 71.1592
c18.1367 37.3467 30.8154 77.0469 49.1738 114.304zM115.253 237.167c-15.0059 -22.7158 -23.2432 -48.7412 -25.2031 -75.6182c15.6143 9.26758 30.835 19.1592 45.1924 30.2646c24.0977 18.6396 65.4531 51.5322 65.9844 85.0137
c0.46875 29.4023 -38.7197 5.99219 -50.1885 -2.2168c-14.0449 -10.0518 -26.2793 -23.0547 -35.7852 -37.4434z" />
    <glyph glyph-name="l" unicode="l" horiz-adv-x="218" 
d="M208.256 147.897c2.33008 11.0117 29.7637 9.90234 27.8193 -0.000976562c-11.7148 -59.4639 -26.0332 -127.816 -67.6777 -174.457c-31.7324 -35.5391 -91.1387 -31.3506 -122.478 3.47363c-37.9277 42.1436 -44.373 112.405 -49.4365 166.197
c-12.2695 130.362 -10.126 266.494 7.33105 396.24c4.39551 32.666 85.627 32.2988 83.624 0c-8.63477 -139.126 -17.2852 -278.51 -9.99316 -417.964c1.70996 -32.7051 5.27051 -65.792 12.4922 -97.7705c3.01367 -13.3389 6.66406 -26.3379 12.6055 -38.7207
c2.08887 -4.36035 5.13379 -11.0938 8.70215 -14.4316c8.91602 -8.33789 18.4258 -1.57715 26.0459 5.33984c20.9277 18.999 33.7588 48.8857 43.7754 74.7275c12.2109 31.4951 20.2061 64.3799 27.1895 97.3662z" />
    <glyph glyph-name="m" unicode="m" horiz-adv-x="523" 
d="M511.627 132.482c4.49316 9.60254 32.4434 6.58594 27.4033 -4.30566c-23.8398 -51.5596 -51.4189 -121.201 -103.724 -150.58c-24.4912 -13.7568 -56.6416 -13.0225 -80.6143 1.39746c-29.5703 17.7891 -33.0566 46.7188 -31.6592 78.5957
c1.53027 34.9297 7.62402 69.7578 10.9814 104.543c1.70215 17.6406 3.72852 36.7646 1.55371 54.4561c-2.91992 23.7773 -21.5361 30.8389 -38.6064 12.5693c-21.0527 -22.5322 -33.1621 -55.3936 -42.8936 -84.1279
c-7.43262 -21.9463 -16.4189 -47.1406 -21.0918 -71.7021c0.308594 -14.6621 0.046875 -29.2852 -0.709961 -43.7129c-1.58496 -30.2139 -76.9219 -29.7842 -76.6094 0.000976562c0.40625 38.627 4.86035 77.0977 5.3291 115.732
c0.214844 17.6562 0.0546875 35.3203 -1.06934 52.9375c-1.02246 15.9893 -1.03027 51.833 -27.4736 32.5293c-24.8545 -18.1445 -37.042 -62.8379 -46.3408 -90.4365c-10.1963 -30.2764 -17.4531 -61.2871 -21.9854 -92.8447
c0.355469 -15.4854 0.484375 -31.998 -7.58887 -44.7041c-9.36523 -14.7441 -40.4463 -16.9502 -52.1729 -3.88867c-14.8145 16.5049 -16.6143 39.29 -18.8896 60.7637c-2.25977 21.333 -3.11426 42.5771 -2.9541 64.0195c0.324219 43.9473 4.7666 87.0049 16.0205 129.547
c6.55078 24.7646 80.4434 22.6172 77.9375 -6.0127c-2.07324 -23.6719 -4.70801 -47.3047 -6.96387 -70.9688c12.999 32.3848 30.9912 73.8379 69.9609 79.459c41.8398 6.03906 67.5449 -38.8291 77.6436 -72.7285c3.20117 -10.7432 5.82422 -21.7051 7.99121 -32.7871
c8.81836 26.8184 20.0137 53.3633 36.2178 76.4375c14.2949 20.3535 34.8438 35.4492 60.7246 32.9434c25.9668 -2.51367 44.458 -23.917 56.29 -45.5352c33.4658 -61.1426 21.2744 -141.456 28.9531 -208.392c2.12402 -18.5186 3.43945 -20.8018 20.4707 -6.47559
c14.5137 12.207 26.3066 28.3916 36.6904 44.0918c18.5967 28.1143 32.9229 58.7227 47.1787 89.1787z" />
    <glyph glyph-name="n" unicode="n" horiz-adv-x="379" 
d="M370.636 145.755c3.11133 10.0791 31.2979 7.95312 28.0029 -4.40234c-8.7793 -32.9121 -21.127 -64.3955 -37.3701 -94.3525c-12.2812 -22.6494 -27.2871 -47.3828 -51.9619 -58.0127c-29.0859 -12.5264 -54.1748 -1.50195 -79.2207 14.0811
c-32.2559 20.0684 -37.3154 52.9062 -39.0371 87.5703c-1.69434 34.0752 -1.03809 68.0762 -1.87305 102.163c-0.289062 11.7422 0.62793 28.9492 -5.68848 39.6494c-13.0537 22.1064 -37.9316 -12.8896 -44.9229 -23.5977
c-35.5977 -54.5264 -50.2715 -124.335 -65.4844 -187.359c-0.511719 -13.5459 -2.20605 -26.9512 -6.77734 -39.3105c-5.89453 -15.9424 -37.21 -10.9258 -44.9121 0.000976562c-15.2871 21.6807 -20.2998 51.5596 -24.0312 77.4326
c-3.90723 27.1113 -5.25391 54.4443 -5.58984 81.8086c-0.667969 54.0498 1.88477 109.271 17.7295 161.248c7.08496 23.2461 74.5791 21.8135 73.7441 -5.6875c-1.6123 -53.2188 -9.84863 -105.961 -10.9531 -159.285
c-0.0859375 -4.2041 -0.105469 -8.41211 -0.140625 -12.6162c9.77051 31.2021 21.9658 61.373 39.083 88.0625c13.4521 20.9824 32.1582 41.5586 58.4883 43.3818c23.8008 1.65137 45.2393 -15.3447 59.292 -33.1416c20.8418 -26.4004 29.4141 -58.4414 34.7852 -91.0332
c2.66211 -16.1416 3.94629 -32.4707 5.59766 -48.7451c1.76465 -17.4023 0.398438 -36.0967 5.77734 -52.7031c1.65137 -5.09082 3.14648 -14.0654 5.1416 -18.4688c5.44531 -12.0156 10.957 -9.29883 20.501 -1.6748c13.3389 10.6533 22.1064 26.3105 30.2764 40.9844
c16.583 29.7773 29.5 61.4668 39.5439 94.0078z" />
    <glyph glyph-name="o" unicode="o" horiz-adv-x="249" 
d="M256.198 158.137c10.8721 3.86816 31.5117 -7.52246 14.1875 -13.8311c-23.6211 -8.61523 -48.2959 -14.0605 -73.2559 -16.1924c-0.148438 -4.45801 -0.394531 -8.79102 -0.746094 -12.9404c-3.40039 -40.0947 -15.5684 -82.0391 -43.9795 -111.75
c-25.998 -27.1885 -64.1641 -40.0469 -100.37 -26.6533c-87.5312 32.3848 -69.1416 143.275 -46.6602 218.698c-36.2451 59.8584 23.4922 144.392 94.1953 126.942c70.1016 -17.3008 95.8965 -108.092 97.6182 -177.413c20.1699 1.95215 40.0898 6.40625 59.0107 13.1396z
M151.624 49.9512c10.6494 24.207 15.5371 50.7539 16.5283 77.1973c-14.0684 0.269531 -28.1367 1.58105 -42.0654 4.03613c-16.4854 2.9082 -34.0791 7.21387 -50.9775 13.4912c-4.08691 -16.9219 -7.61621 -33.9727 -9.64258 -51.4414
c-3.2168 -27.7393 -6.53125 -72.7402 17.3125 -93.3945c27.1689 -23.5352 59.8662 29.7031 68.8447 50.1113zM80.1172 164.607c27.4893 -13.2998 57.7178 -19.8955 88.1816 -20.6104c-0.772461 32.7754 -7.47852 65.2148 -19.7324 95.6201
c-11.3047 28.0518 -29.9561 62.1895 -62.7705 68.0996c-34.7539 6.25781 -58.7539 -39.1885 -60.835 -68.126c-0.191406 -2.68945 -0.167969 -5.29297 -0.0429688 -7.85742c24.1836 12.2266 73.1943 3.11133 66.2617 -24.835
c-3.51758 -14.1816 -7.37793 -28.2266 -11.0625 -42.291z" />
    <glyph glyph-name="o" unicode="&#xf6;" horiz-adv-x="249" 
d="M256.198 158.137c10.8721 3.86816 31.5117 -7.52246 14.1875 -13.8311c-23.6211 -8.61523 -48.2959 -14.0605 -73.2559 -16.1924c-0.148438 -4.45801 -0.394531 -8.79102 -0.746094 -12.9404c-3.40039 -40.0947 -15.5684 -82.0391 -43.9795 -111.75
c-25.998 -27.1885 -64.1641 -40.0469 -100.37 -26.6533c-87.5312 32.3848 -69.1416 143.275 -46.6602 218.698c-36.2451 59.8584 23.4922 144.392 94.1953 126.942c70.1016 -17.3008 95.8965 -108.092 97.6182 -177.413c20.1699 1.95215 40.0898 6.40625 59.0107 13.1396z
M151.624 49.9512c10.6494 24.207 15.5371 50.7539 16.5283 77.1973c-14.0684 0.269531 -28.1367 1.58105 -42.0654 4.03613c-16.4854 2.9082 -34.0791 7.21387 -50.9775 13.4912c-4.08691 -16.9219 -7.61621 -33.9727 -9.64258 -51.4414
c-3.2168 -27.7393 -6.53125 -72.7402 17.3125 -93.3945c27.1689 -23.5352 59.8662 29.7031 68.8447 50.1113zM80.1172 164.607c27.4893 -13.2998 57.7178 -19.8955 88.1816 -20.6104c-0.772461 32.7754 -7.47852 65.2148 -19.7324 95.6201
c-11.3047 28.0518 -29.9561 62.1895 -62.7705 68.0996c-34.7539 6.25781 -58.7539 -39.1885 -60.835 -68.126c-0.191406 -2.68945 -0.167969 -5.29297 -0.0429688 -7.85742c24.1836 12.2266 73.1943 3.11133 66.2617 -24.835
c-3.51758 -14.1816 -7.37793 -28.2266 -11.0625 -42.291z" />
    <glyph glyph-name="o" unicode="&#xf5;" horiz-adv-x="249" 
d="M256.198 158.137c10.8721 3.86816 31.5117 -7.52246 14.1875 -13.8311c-23.6211 -8.61523 -48.2959 -14.0605 -73.2559 -16.1924c-0.148438 -4.45801 -0.394531 -8.79102 -0.746094 -12.9404c-3.40039 -40.0947 -15.5684 -82.0391 -43.9795 -111.75
c-25.998 -27.1885 -64.1641 -40.0469 -100.37 -26.6533c-87.5312 32.3848 -69.1416 143.275 -46.6602 218.698c-36.2451 59.8584 23.4922 144.392 94.1953 126.942c70.1016 -17.3008 95.8965 -108.092 97.6182 -177.413c20.1699 1.95215 40.0898 6.40625 59.0107 13.1396z
M151.624 49.9512c10.6494 24.207 15.5371 50.7539 16.5283 77.1973c-14.0684 0.269531 -28.1367 1.58105 -42.0654 4.03613c-16.4854 2.9082 -34.0791 7.21387 -50.9775 13.4912c-4.08691 -16.9219 -7.61621 -33.9727 -9.64258 -51.4414
c-3.2168 -27.7393 -6.53125 -72.7402 17.3125 -93.3945c27.1689 -23.5352 59.8662 29.7031 68.8447 50.1113zM80.1172 164.607c27.4893 -13.2998 57.7178 -19.8955 88.1816 -20.6104c-0.772461 32.7754 -7.47852 65.2148 -19.7324 95.6201
c-11.3047 28.0518 -29.9561 62.1895 -62.7705 68.0996c-34.7539 6.25781 -58.7539 -39.1885 -60.835 -68.126c-0.191406 -2.68945 -0.167969 -5.29297 -0.0429688 -7.85742c24.1836 12.2266 73.1943 3.11133 66.2617 -24.835
c-3.51758 -14.1816 -7.37793 -28.2266 -11.0625 -42.291z" />
    <glyph glyph-name="o" unicode="&#xf4;" horiz-adv-x="249" 
d="M256.198 158.137c10.8721 3.86816 31.5117 -7.52246 14.1875 -13.8311c-23.6211 -8.61523 -48.2959 -14.0605 -73.2559 -16.1924c-0.148438 -4.45801 -0.394531 -8.79102 -0.746094 -12.9404c-3.40039 -40.0947 -15.5684 -82.0391 -43.9795 -111.75
c-25.998 -27.1885 -64.1641 -40.0469 -100.37 -26.6533c-87.5312 32.3848 -69.1416 143.275 -46.6602 218.698c-36.2451 59.8584 23.4922 144.392 94.1953 126.942c70.1016 -17.3008 95.8965 -108.092 97.6182 -177.413c20.1699 1.95215 40.0898 6.40625 59.0107 13.1396z
M151.624 49.9512c10.6494 24.207 15.5371 50.7539 16.5283 77.1973c-14.0684 0.269531 -28.1367 1.58105 -42.0654 4.03613c-16.4854 2.9082 -34.0791 7.21387 -50.9775 13.4912c-4.08691 -16.9219 -7.61621 -33.9727 -9.64258 -51.4414
c-3.2168 -27.7393 -6.53125 -72.7402 17.3125 -93.3945c27.1689 -23.5352 59.8662 29.7031 68.8447 50.1113zM80.1172 164.607c27.4893 -13.2998 57.7178 -19.8955 88.1816 -20.6104c-0.772461 32.7754 -7.47852 65.2148 -19.7324 95.6201
c-11.3047 28.0518 -29.9561 62.1895 -62.7705 68.0996c-34.7539 6.25781 -58.7539 -39.1885 -60.835 -68.126c-0.191406 -2.68945 -0.167969 -5.29297 -0.0429688 -7.85742c24.1836 12.2266 73.1943 3.11133 66.2617 -24.835
c-3.51758 -14.1816 -7.37793 -28.2266 -11.0625 -42.291z" />
    <glyph glyph-name="o" unicode="&#xf3;" horiz-adv-x="249" 
d="M256.198 158.137c10.8721 3.86816 31.5117 -7.52246 14.1875 -13.8311c-23.6211 -8.61523 -48.2959 -14.0605 -73.2559 -16.1924c-0.148438 -4.45801 -0.394531 -8.79102 -0.746094 -12.9404c-3.40039 -40.0947 -15.5684 -82.0391 -43.9795 -111.75
c-25.998 -27.1885 -64.1641 -40.0469 -100.37 -26.6533c-87.5312 32.3848 -69.1416 143.275 -46.6602 218.698c-36.2451 59.8584 23.4922 144.392 94.1953 126.942c70.1016 -17.3008 95.8965 -108.092 97.6182 -177.413c20.1699 1.95215 40.0898 6.40625 59.0107 13.1396z
M151.624 49.9512c10.6494 24.207 15.5371 50.7539 16.5283 77.1973c-14.0684 0.269531 -28.1367 1.58105 -42.0654 4.03613c-16.4854 2.9082 -34.0791 7.21387 -50.9775 13.4912c-4.08691 -16.9219 -7.61621 -33.9727 -9.64258 -51.4414
c-3.2168 -27.7393 -6.53125 -72.7402 17.3125 -93.3945c27.1689 -23.5352 59.8662 29.7031 68.8447 50.1113zM80.1172 164.607c27.4893 -13.2998 57.7178 -19.8955 88.1816 -20.6104c-0.772461 32.7754 -7.47852 65.2148 -19.7324 95.6201
c-11.3047 28.0518 -29.9561 62.1895 -62.7705 68.0996c-34.7539 6.25781 -58.7539 -39.1885 -60.835 -68.126c-0.191406 -2.68945 -0.167969 -5.29297 -0.0429688 -7.85742c24.1836 12.2266 73.1943 3.11133 66.2617 -24.835
c-3.51758 -14.1816 -7.37793 -28.2266 -11.0625 -42.291z" />
    <glyph glyph-name="p" unicode="p" horiz-adv-x="363" 
d="M369.086 146.848c13.4482 1.74902 25.2686 -12.6104 7.2373 -14.9521c-29.1406 -3.79004 -58.5781 -5.34375 -87.8555 -7.93555c0.597656 -28.9531 -4.06738 -57.9219 -15.7822 -84.6738c-18.2383 -41.6484 -60.7021 -63.3486 -105.356 -53.8125
c-18.9131 4.04004 -36.9365 13.748 -39.7197 34.4336c-2.25586 16.7705 -0.510742 34.458 6.8125 49.8965c16.2822 34.3174 52.6719 53.5352 88.2344 61.3311c2.22461 0.488281 4.46094 0.925781 6.69727 1.36719c0.347656 2.5332 0.683594 5.05078 1 7.5293
c4.0791 32.0488 6.71777 76.1562 -8.53418 105.914c-5.77734 11.2734 -16.8789 24.21 -30.0615 17.4961c-7.08887 -3.61133 -12.5889 -11.957 -16.8594 -18.3008c-9.21289 -13.6787 -15.9424 -28.9736 -21.5127 -44.4395
c-26.0098 -72.2217 -33.5713 -150.557 -39.8994 -226.557c-6.09375 -73.1855 -10.4268 -146.543 -14.3496 -219.881c0.421875 -6.64746 0.304688 -13.7012 3.20117 -19.5723c10.2783 -20.8379 -36.5029 -22.5518 -46.4375 -15.4082
c-33.5947 24.1641 -39.7549 79.5527 -47.5234 117.473c-9.11523 44.4902 -13.999 89.7295 -17.0439 135.016c-6.23438 92.7197 -4.33301 187.879 4.20801 280.38c3.0918 33.4854 85.6348 33.3994 85.4551 0c-0.476562 -88.6602 -6.81641 -176.945 -4.1543 -265.672
c0.480469 -16.0635 1.27637 -32.0762 2.2168 -48.0693c3.84082 52.0283 9.40723 103.857 17.7021 154.952c8.49023 52.332 34.2578 222.277 122.293 187.664c36.8975 -14.5098 53.874 -67.084 62.1768 -101.822c3.07227 -12.8545 5.22754 -26.0215 6.36719 -39.2744
c27.2471 2.19043 54.6816 3.43164 81.4883 6.91797zM180.527 20.7578c1.41699 -0.160156 2.02637 0.210938 0 0zM200.635 39.5537c14.1152 21.4346 21.4307 48.792 25.9824 75.1416c-29.5156 -8.43945 -58.8867 -25.8457 -64.2812 -57.7812
c-1.35449 -8.00684 -0.69043 -19.2881 4.24414 -26.127c3.01758 -4.18066 7.02637 -4.73145 10.1729 -8.19434c0.870117 -0.959961 1.95117 -1.44043 2.89941 -1.6748c9.15039 2.79492 15.8799 10.8828 20.9824 18.6357z" />
    <glyph glyph-name="q" unicode="q" horiz-adv-x="340" 
d="M259.181 72.0693c-12.4062 -10.2979 -47.4561 -36.5391 -31.627 -54.0234c6.59766 -7.27637 18.8672 -11.8516 27.1738 -17.0273c8.64258 -5.38281 17.0312 -11.1328 25.166 -17.2578c62.665 -47.1875 87.1133 -118.191 78.916 -195.125
c-2.98242 -27.9932 -8.35352 -62.5322 -37.2324 -75.2695c-34.3408 -15.1504 -74.2559 -2.42871 -102.464 19.2559c-34.5039 26.5254 -49.9229 65.9678 -60.4785 106.812c-11.0156 42.6357 -16.6094 86.6299 -19.1387 130.554
c-1.9834 34.458 -2.6748 69.4111 -2.03418 104.438c-3.45898 -7.5498 -7.21777 -14.9121 -11.3672 -22.0049c-24.2686 -41.5078 -75.1445 -69.0596 -118.245 -34.4502c-41.5703 33.3838 -42.0742 99.957 -29.4541 147.051c14.7129 54.9053 58.6523 104.196 117.832 107.979
c22.6416 1.44824 45.5596 -2.70117 64.0078 -13.2998c1.21387 0.519531 2.54492 0.914062 3.93848 1.19141c21.2939 11.5078 61.7627 6.70605 61.6182 -15.6582c-0.390625 -59.8115 -5.09863 -119.233 -6.65234 -178.818c10.7627 10.5049 22.5791 19.7998 34.7197 28.6494
c28.5205 20.7949 59.0586 38.6191 85.7129 61.9121c7.50684 6.5625 34.3838 0.78125 24.2812 -8.08789c-32.6621 -28.6719 -71.3086 -49.1191 -104.673 -76.8193zM148.978 226.688c0.421875 3.10742 0.873047 6.20312 1.31836 9.30273
c-8.63867 9.45117 -19.998 15.8496 -32.9854 13.835c-22.4697 -3.48242 -37.2139 -28.6807 -46.8984 -46.6533c-21.3721 -39.665 -29.9521 -83.7217 -24.4521 -128.48c1.81543 -14.7793 7.28418 -63.4619 30.585 -43.374c18.2109 15.6963 29.0361 39.8174 37.2139 61.9004
c15.9541 43.0732 25.9395 88.3945 35.2188 133.47zM253.609 -23.5859c-7.91699 5.82031 -21.9199 12.2227 -34.3535 20.0928c0.304688 -8.83008 0.703125 -17.668 1.30078 -26.5176c2.82617 -41.9092 8.7168 -83.2607 16.6807 -124.491
c6.28516 -32.5488 13.8232 -71.2969 35.1523 -97.8418c5.20312 -6.48047 12.1826 -13.7568 19.627 -17.6719c11.375 -5.98047 19.877 1.21387 25.4082 11.1445c7.44824 13.3701 9.61914 29.3516 11.4463 44.3223c4.3916 35.9648 2.8457 73.6895 -9.84082 107.929
c-12.7061 34.29 -36.1904 61.5488 -65.4209 83.0342z" />
    <glyph glyph-name="r" unicode="r" horiz-adv-x="291" 
d="M293.886 157.626c8.55664 4.96191 33.585 -2.60352 19.6641 -11.2109c-17.4805 -10.8135 -37.6309 -12.9219 -57.8203 -11.3994c-21.4814 1.62012 -47.0586 2.39258 -65.6865 14.0098c-20.7715 12.9521 -25.2295 33.5283 -27.9463 56.3213
c-3.05273 25.6553 -8.07324 50.7559 -13.2998 76.0244c-1.12402 5.4375 -0.967773 10.707 -5.55078 14.373c-7.14355 5.71875 -10.665 -2.63867 -14.9668 -9.56348c-6.15234 -9.91113 -10.2275 -21.3604 -13.9434 -32.3535
c-9.79395 -28.9727 -16.083 -59.2881 -22.3408 -89.1826c-10.8604 -51.8682 -18.9297 -104.247 -24.5586 -156.923c0.105469 -21.5596 1.53027 -48.3311 -19.7178 -58.4336c-53.8389 -25.6006 -54.3857 93.9219 -56.0605 120.486
c-3.81738 60.6201 -4.34473 123.059 3.98535 183.315c4.0791 29.4961 76.7568 30.0547 76.3037 0c-0.234375 -15.6846 -0.703125 -31.3574 -1.24219 -47.0225c3.99707 17.6719 8.4082 35.2891 14.1543 52.3906c6.67871 19.8848 15.4307 43.9043 35.2305 54.3584
c44.3184 23.4062 79.9512 -28.2549 92.0059 -63.7002c8.06152 -23.7031 6.125 -54.8076 20.3496 -75.7549c13.71 -20.1855 39.0371 -28.7305 61.4404 -15.7354z" />
    <glyph glyph-name="s" unicode="s" horiz-adv-x="210" 
d="M215.382 165.862c8.28711 4.14941 33.2568 -2.96777 19.2354 -10.9629c-38.2676 -21.8213 -74.7627 -50.8916 -105.543 -85.0723c31.5957 -56.3066 62.5752 -112.878 74.0479 -177.331c7.81543 -43.9004 1.68652 -91.5098 -33.4424 -122.087
c-28.9492 -25.1982 -65.0029 -34.2783 -101.002 -17.5039c-81.1729 37.8184 -65.4727 152.574 -36.7031 219.521c8.36133 19.4561 18.6709 38.3145 30.5225 56.3418c-9.60645 15.8604 -19.334 31.6387 -28.8438 47.499c-48.9717 81.6836 -87.9336 171.358 -61.0918 267.79
c10.5986 38.0684 39.2979 69.3955 79.5215 75.6689c40.4375 6.30469 63.8477 -16.9922 77.6592 -52.2812c4.57129 -11.6758 -23.4297 -13.8584 -27.7002 -4.35254c-5.26953 11.7188 -10.6562 25.5811 -21.4619 33.3066c-14.7246 10.5283 -29.4727 1.70996 -37.0068 -12.4756
c-11.1406 -20.9746 -11.7344 -48.1211 -10.2197 -71.2188c3.63867 -55.5254 27.2598 -109.622 50.9707 -159.249c9.67676 -20.252 20.416 -40.0781 31.4053 -59.8076c29.5742 29.3008 63.4775 54.0928 99.6523 72.2139zM147.96 -180.131
c0.71875 47.0469 -23.0039 94.6309 -43.9043 135.662c-7.78809 15.2871 -16.1533 30.2812 -24.8037 45.123c-14.0684 -25.2686 -24.8232 -52.0752 -31.2412 -79.877c-9.43164 -40.8633 -11.7734 -91.5596 12.5654 -127.949
c13.542 -20.2402 41.0391 -38.9307 65.0625 -24.4834c16.833 10.1221 22.04 33.1729 22.3213 51.5244z" />
    <glyph glyph-name="t" unicode="t" horiz-adv-x="212" 
d="M198.954 149.787c2.2793 10.79 29.3076 9.97363 27.5 0.0117188c-14.5059 -80.3838 -30.1592 -161.131 -57.3516 -238.36c-8.50977 -24.1719 -18.6201 -49.8389 -45.1963 -58.3564c-26.877 -8.61523 -57.8604 5.35547 -75.5322 25.6582
c-21.6025 24.8232 -31.6816 56.9854 -39.832 88.2695c-9.24414 35.4844 -14.6387 71.8857 -17.3828 108.42c-5.71484 76.0781 -4.48926 152.676 -1.9209 228.863c0.230469 6.75684 0.484375 13.5176 0.738281 20.2744
c-9.10742 -0.554688 -18.2109 -1.16016 -27.3066 -1.87109c-5.1875 -0.40625 -16.5078 -0.511719 -18.7949 6.08203c-2.16699 6.23438 5.36328 10.2861 10.6719 10.7119c12.043 0.967773 24.082 1.79492 36.1289 2.52832c2.66211 63.6377 6.99512 127.213 17.0664 190.144
c5.31641 33.2119 87.9492 33.8604 86.3682 0c-2.9082 -62.3809 -8.22461 -124.602 -11.7461 -186.943c12.7646 0.105469 25.5293 0.0859375 38.3057 -0.101562c18.9365 -0.277344 18.9053 -18.082 0 -17.7656c-13.0811 0.21875 -26.1621 0.292969 -39.2393 0.222656
c-0.328125 -6.49609 -0.664062 -12.9883 -0.9375 -19.4883c-5.33594 -126.674 -6.37793 -254.577 12.1055 -380.306c1.92871 -13.1201 4.54785 -26.7129 10.6768 -38.6074c2.20508 -4.28223 5.30078 -10.5713 9.16895 -13.5889
c5.40625 -4.21582 2.54883 -3.41211 7.53418 1.43262c9.99316 9.71191 14.498 26.4199 19.1201 39.126c5.04004 13.8584 9.69727 27.8564 14.0459 41.9443c19.3896 62.8408 32.2363 127.427 45.8096 191.7z" />
    <glyph glyph-name="u" unicode="u" horiz-adv-x="358" 
d="M348.573 148.913c3.25977 9.41602 29.9766 7.14258 26.2334 -4.12305c-20.8926 -62.8096 -26.041 -129.242 -44.248 -192.728c-12.9443 -45.1455 -49.1348 -101.896 -104.832 -76.3584c-26.9121 12.3398 -41.5508 41.5938 -49.1396 68.7168
c-9.27539 33.1455 -13.9951 67.0996 -15.4082 101.46c-0.117188 2.83398 -0.148438 5.67969 -0.238281 8.51758c-13.4678 -38.8535 -35.1758 -79.2988 -82.9404 -74.3916c-57.5791 5.91797 -77.4951 73.623 -86.751 121.528
c-10.7471 55.6191 -11.1182 117.121 -2.01465 172.982c4.90332 30.0781 77.4414 31.5693 78.7451 0.000976562c1.86621 -45.1494 -3.56738 -90.1621 -1.01074 -135.386c2.27148 -40.1572 5.50781 -85.5449 21.6221 -122.915
c1.10449 -2.56055 2.83789 -9.61426 5.66406 -11.0156c6.45703 -3.20117 13.8857 5.42578 17.0283 9.41895c6.38672 8.11914 10.4775 17.4961 14.1855 27.083c8.62695 22.3096 15.4854 45.4541 21.4814 68.5947c8.23242 31.7871 14.1504 64.1172 18.585 96.6465
c1.39355 17.0664 2.99805 34.0898 4.77051 51.0312c3.20508 30.6357 78.5264 30.7451 78.4404 0c-0.164062 -58.1094 -2.47461 -116.348 -4.30957 -174.43c-1.70605 -54.0459 -8.03027 -110.384 0.807617 -164.094c1.51465 -9.20898 3.1582 -31.6357 18.0312 -28.0244
c11.4961 2.79102 21.3564 21.501 26.0723 31.042c11.207 22.6768 17.043 48.46 22.6094 72.9746c11.6562 51.3564 19.3232 103.54 36.6162 153.468z" />
    <glyph glyph-name="u" unicode="&#xfc;" horiz-adv-x="358" 
d="M348.573 148.913c3.25977 9.41602 29.9766 7.14258 26.2334 -4.12305c-20.8926 -62.8096 -26.041 -129.242 -44.248 -192.728c-12.9443 -45.1455 -49.1348 -101.896 -104.832 -76.3584c-26.9121 12.3398 -41.5508 41.5938 -49.1396 68.7168
c-9.27539 33.1455 -13.9951 67.0996 -15.4082 101.46c-0.117188 2.83398 -0.148438 5.67969 -0.238281 8.51758c-13.4678 -38.8535 -35.1758 -79.2988 -82.9404 -74.3916c-57.5791 5.91797 -77.4951 73.623 -86.751 121.528
c-10.7471 55.6191 -11.1182 117.121 -2.01465 172.982c4.90332 30.0781 77.4414 31.5693 78.7451 0.000976562c1.86621 -45.1494 -3.56738 -90.1621 -1.01074 -135.386c2.27148 -40.1572 5.50781 -85.5449 21.6221 -122.915
c1.10449 -2.56055 2.83789 -9.61426 5.66406 -11.0156c6.45703 -3.20117 13.8857 5.42578 17.0283 9.41895c6.38672 8.11914 10.4775 17.4961 14.1855 27.083c8.62695 22.3096 15.4854 45.4541 21.4814 68.5947c8.23242 31.7871 14.1504 64.1172 18.585 96.6465
c1.39355 17.0664 2.99805 34.0898 4.77051 51.0312c3.20508 30.6357 78.5264 30.7451 78.4404 0c-0.164062 -58.1094 -2.47461 -116.348 -4.30957 -174.43c-1.70605 -54.0459 -8.03027 -110.384 0.807617 -164.094c1.51465 -9.20898 3.1582 -31.6357 18.0312 -28.0244
c11.4961 2.79102 21.3564 21.501 26.0723 31.042c11.207 22.6768 17.043 48.46 22.6094 72.9746c11.6562 51.3564 19.3232 103.54 36.6162 153.468z" />
    <glyph glyph-name="u" unicode="&#xfb;" horiz-adv-x="358" 
d="M348.573 148.913c3.25977 9.41602 29.9766 7.14258 26.2334 -4.12305c-20.8926 -62.8096 -26.041 -129.242 -44.248 -192.728c-12.9443 -45.1455 -49.1348 -101.896 -104.832 -76.3584c-26.9121 12.3398 -41.5508 41.5938 -49.1396 68.7168
c-9.27539 33.1455 -13.9951 67.0996 -15.4082 101.46c-0.117188 2.83398 -0.148438 5.67969 -0.238281 8.51758c-13.4678 -38.8535 -35.1758 -79.2988 -82.9404 -74.3916c-57.5791 5.91797 -77.4951 73.623 -86.751 121.528
c-10.7471 55.6191 -11.1182 117.121 -2.01465 172.982c4.90332 30.0781 77.4414 31.5693 78.7451 0.000976562c1.86621 -45.1494 -3.56738 -90.1621 -1.01074 -135.386c2.27148 -40.1572 5.50781 -85.5449 21.6221 -122.915
c1.10449 -2.56055 2.83789 -9.61426 5.66406 -11.0156c6.45703 -3.20117 13.8857 5.42578 17.0283 9.41895c6.38672 8.11914 10.4775 17.4961 14.1855 27.083c8.62695 22.3096 15.4854 45.4541 21.4814 68.5947c8.23242 31.7871 14.1504 64.1172 18.585 96.6465
c1.39355 17.0664 2.99805 34.0898 4.77051 51.0312c3.20508 30.6357 78.5264 30.7451 78.4404 0c-0.164062 -58.1094 -2.47461 -116.348 -4.30957 -174.43c-1.70605 -54.0459 -8.03027 -110.384 0.807617 -164.094c1.51465 -9.20898 3.1582 -31.6357 18.0312 -28.0244
c11.4961 2.79102 21.3564 21.501 26.0723 31.042c11.207 22.6768 17.043 48.46 22.6094 72.9746c11.6562 51.3564 19.3232 103.54 36.6162 153.468z" />
    <glyph glyph-name="u" unicode="&#xfa;" horiz-adv-x="358" 
d="M348.573 148.913c3.25977 9.41602 29.9766 7.14258 26.2334 -4.12305c-20.8926 -62.8096 -26.041 -129.242 -44.248 -192.728c-12.9443 -45.1455 -49.1348 -101.896 -104.832 -76.3584c-26.9121 12.3398 -41.5508 41.5938 -49.1396 68.7168
c-9.27539 33.1455 -13.9951 67.0996 -15.4082 101.46c-0.117188 2.83398 -0.148438 5.67969 -0.238281 8.51758c-13.4678 -38.8535 -35.1758 -79.2988 -82.9404 -74.3916c-57.5791 5.91797 -77.4951 73.623 -86.751 121.528
c-10.7471 55.6191 -11.1182 117.121 -2.01465 172.982c4.90332 30.0781 77.4414 31.5693 78.7451 0.000976562c1.86621 -45.1494 -3.56738 -90.1621 -1.01074 -135.386c2.27148 -40.1572 5.50781 -85.5449 21.6221 -122.915
c1.10449 -2.56055 2.83789 -9.61426 5.66406 -11.0156c6.45703 -3.20117 13.8857 5.42578 17.0283 9.41895c6.38672 8.11914 10.4775 17.4961 14.1855 27.083c8.62695 22.3096 15.4854 45.4541 21.4814 68.5947c8.23242 31.7871 14.1504 64.1172 18.585 96.6465
c1.39355 17.0664 2.99805 34.0898 4.77051 51.0312c3.20508 30.6357 78.5264 30.7451 78.4404 0c-0.164062 -58.1094 -2.47461 -116.348 -4.30957 -174.43c-1.70605 -54.0459 -8.03027 -110.384 0.807617 -164.094c1.51465 -9.20898 3.1582 -31.6357 18.0312 -28.0244
c11.4961 2.79102 21.3564 21.501 26.0723 31.042c11.207 22.6768 17.043 48.46 22.6094 72.9746c11.6562 51.3564 19.3232 103.54 36.6162 153.468z" />
    <glyph glyph-name="v" unicode="v" horiz-adv-x="316" 
d="M328.344 165.718c13.4482 1.9873 25.2188 -12.0566 7.23438 -14.9492c-26.7793 -4.30566 -57.4424 -5.88672 -87.9531 -3.18555c-5.02051 -22.1104 -11.5322 -43.9082 -18.832 -65.2607c-14.1543 -41.4141 -31.8496 -88.2812 -66.5059 -117.16
c-31.6387 -26.3652 -74.0322 -28.3486 -107.385 -3.56055c-37.8887 28.1611 -52.9766 74.7158 -59.5508 119.623c-7.84277 53.5771 -6.61328 108.229 -3.12695 162.114c2.20117 34.0049 87 33.3174 86.0635 0c-1.24121 -44.2871 -3.94629 -88.4688 -2.2793 -132.795
c1.38574 -36.835 3.41602 -77.3779 17.4648 -111.84c5.15625 -12.6475 14.7158 -36.499 32.1572 -30.9561c13.7217 4.36035 26.6973 23.4922 34.2627 34.7578c19.335 28.7969 31.4951 61.9658 42.2695 94.7178c5.83203 17.7344 11.0352 36.0039 15.165 54.5537
c-61.1777 11.7539 -116.138 43.709 -130.53 109.763c-8.9043 40.8789 9.69238 84.6738 42.7051 109.696c29.7109 22.5205 70.4492 19.9053 94.3906 -9.78223c28.9062 -35.8477 35.1016 -92.8213 33.9268 -137.12c-0.542969 -20.498 -3.03711 -40.8555 -6.88965 -60.9824
c26.0566 -2.62305 52.7734 -1.27246 77.4131 2.36621zM220.709 168.385c9.58691 51.9346 9.84961 105.512 -8.83691 155.475c-6.78418 18.1445 -18.46 45.2793 -41.1602 43.5967c-17.9805 -1.33105 -32.5176 -19.6855 -41.3398 -34.2266
c-18.0078 -29.6836 -19.1904 -64.9883 -3.19336 -95.7607c20.1855 -38.8301 55.2168 -59.6641 94.5303 -69.084z" />
    <glyph glyph-name="w" unicode="w" horiz-adv-x="472" 
d="M482.615 159.62c10.2705 2.46289 25.874 -10.2041 10.4736 -14.1738c-29.0312 -7.47559 -58.9961 -8.89258 -87.8789 -4.77051c-4.00488 -25.998 -9.7627 -51.7148 -17.4805 -76.874c-12.542 -40.8789 -28.8047 -97.3848 -74.8877 -110.888
c-44.7051 -13.0967 -91.2949 12.5742 -118.039 47.6758c-6.74902 8.86133 -12.1396 18.293 -16.4961 28.1104c-3.87598 -14.791 -9.22363 -29.0156 -16.7383 -42.1982c-22.0049 -38.6035 -67.0879 -56.9551 -109.806 -42.0625
c-54.9912 19.1748 -63.0986 90.752 -66.9434 140.34c-4.77441 61.5723 2.12695 124.487 17.418 184.162c6.57422 25.6631 84.4092 21.5918 79.1357 -6.10449c-8.90039 -46.75 -16.2705 -93.8672 -18.6982 -141.449c-2.23633 -43.8223 -4.51562 -89.7373 4.0957 -133.028
c1.64355 -8.25977 3.90332 -19.9199 10.2236 -26.0645c9.42383 -9.1582 22.8643 -4.62598 32.7871 1.65137c18.874 11.9414 29.3672 34.3604 36.1162 54.8271c14.4316 43.7715 14.5996 90.998 15.1855 136.597c0.0234375 1.85059 0.893555 3.35742 2.24805 4.56348
c6.97949 27.4268 78.2559 25.9512 78.1777 -3.50977c-0.121094 -46.0283 -0.874023 -91.3301 14.7559 -135.199c5.98438 -16.7979 15.4863 -36.2695 30.8086 -46.4268c20.6152 -13.667 35.7188 11.7969 44.0137 28.083c22.7773 44.7363 36.417 94.168 43.373 144.385
c-56.0527 16.3096 -104.72 54.6201 -129.422 111.457c-17.2852 39.7744 -22.0088 85.0293 -11.4766 127.212c10.1729 40.7617 40.0283 84.3223 87.2588 80.1768c45.3838 -3.98145 65.2178 -50.3799 75.4648 -88.9326c13.8115 -51.9697 17.2666 -107.651 15.7285 -161.24
c-0.558594 -19.4443 -2.01074 -38.8809 -4.40723 -58.2002c24.4521 -4.54395 50.0137 -4.11035 75.0088 1.88184zM376.749 166.365c2.47852 23.5312 3.60645 47.125 3.54395 70.3789c-0.101562 41.4727 -3.02148 83.9014 -12.0898 124.452
c-5.58203 24.9717 -27.1416 105.809 -66.7637 81.9883c-32.752 -19.6865 -41.8828 -69.2939 -41.6797 -104.169c0.210938 -35.9062 10.6885 -71.293 29.7578 -101.706c20.9316 -33.376 51.9736 -57.6445 87.2314 -70.9443z" />
    <glyph glyph-name="x" unicode="x" horiz-adv-x="278" 
d="M268.005 138.229c2.27148 10.9658 29.4736 9.71387 27.5059 0.00195312c-11.8633 -58.5273 -33.708 -119.136 -70.4023 -166.959c-32.0723 -41.7969 -89.4131 -44.9668 -133.899 -19.9678c-31.7246 17.832 -50.3525 48.2881 -62.2432 81.8594
c-12.499 -24.3936 -30.4248 -55.3418 -28.6406 -81.9141c0.772461 -11.4844 -29.0596 -11.8633 -29.9492 0c-2.08105 27.7236 15.915 58.4883 27.3564 82.8232c6.38281 13.5732 12.9922 27.0449 19.7529 40.4424c-2.45898 11.3359 -4.46582 22.6016 -6.23828 33.458
c-10.9385 66.9277 -10.4385 137.268 -4.22363 204.652c3.10352 33.6729 85.5293 33.7783 86.0645 0c0.535156 -33.9775 -0.374023 -68.4199 -0.573242 -102.886c15.9502 26.2207 32.459 52.1016 49.4629 77.6357c6.49609 9.75488 36.835 5.49219 30.0547 -4.72363
c-27.7979 -41.8779 -54.0459 -84.6934 -78.877 -128.363c1.74512 -50.3457 7.51074 -100.238 24.1289 -148.292c6.07422 -17.5703 15.7432 -39.7471 32.9541 -49.2607c24.9561 -13.792 47.4219 17.1875 58.8906 35.168c28.4697 44.6348 48.1445 94.5508 58.876 146.325z" />
    <glyph glyph-name="y" unicode="y" 
d="M406.469 151.392c1.83105 -47.3711 -50.0586 -82.4912 -84.1924 -106.994c-15.958 -11.4492 -32.5098 -21.9736 -49.3818 -31.9785c-1.14355 -47.9756 -4.71973 -96.2598 -14.584 -142.955c-19.3857 -91.7588 -66.7764 -193.371 -164.465 -221.228
c-36.5615 -10.4229 -78.124 -9.59961 -110.165 13.1426c-35.6875 25.3311 -43.1357 71.125 -33.4121 111.474c22.0947 91.666 111.195 146.816 188.276 188.89c16.3447 8.91992 32.8379 17.5898 49.2959 26.3301c0.916992 43.4199 -0.261719 86.7969 -2.20605 130.162
c-1.6084 -7.53027 -3.28711 -15.0488 -5.05957 -22.5518c-10.0049 -42.3037 -24.9365 -85.1895 -74.9814 -89.4873c-54.4639 -4.67676 -85.5723 45.3994 -96.3857 91.5801c-12.8701 54.9678 -13.6543 111.852 -11.2227 168.002c1.41309 32.5801 82.6289 32.2402 82.7109 0
c0.109375 -43.998 -1.60449 -87.9023 1.7373 -131.826c1.52246 -20.0098 3.12305 -40.4492 7.63574 -60.0693c2.52539 -10.9854 8.54883 -39.1699 20.4434 -44.3965c37.7754 -16.5986 64.3945 210.547 66.752 236.768c0.09375 1.03027 0.464844 1.93555 0.953125 2.77832
c3.99316 29.8633 82.4922 29.1914 85.2988 -3.25195c5.96875 -69.0127 9.83301 -138.693 9.85645 -207.983c0.00390625 -7.03418 -0.0273438 -14.0957 -0.0898438 -21.165c21.7041 13.7646 42.6709 28.6885 62.0098 45.6533
c20.7598 18.2148 43.8691 39.2871 42.7529 69.1074c-0.414062 11.0234 27.9893 11.207 28.4229 0zM186.203 -55.2471c0.390625 6.86621 0.709961 13.7305 0.975586 20.5967c-74.6768 -39.6064 -159.409 -83.4521 -196.985 -163.259
c-17.8438 -37.9043 -24.96 -91.8213 8.4082 -123.851c33.7666 -32.4082 83.5225 -22.4424 112.847 9.54785c28.2354 30.7998 44.3379 74.2002 54.7373 113.979c12.1602 46.5352 17.2969 95.0693 20.0176 142.986z" />
    <glyph glyph-name="y" unicode="&#xff;" 
d="M406.469 151.392c1.83105 -47.3711 -50.0586 -82.4912 -84.1924 -106.994c-15.958 -11.4492 -32.5098 -21.9736 -49.3818 -31.9785c-1.14355 -47.9756 -4.71973 -96.2598 -14.584 -142.955c-19.3857 -91.7588 -66.7764 -193.371 -164.465 -221.228
c-36.5615 -10.4229 -78.124 -9.59961 -110.165 13.1426c-35.6875 25.3311 -43.1357 71.125 -33.4121 111.474c22.0947 91.666 111.195 146.816 188.276 188.89c16.3447 8.91992 32.8379 17.5898 49.2959 26.3301c0.916992 43.4199 -0.261719 86.7969 -2.20605 130.162
c-1.6084 -7.53027 -3.28711 -15.0488 -5.05957 -22.5518c-10.0049 -42.3037 -24.9365 -85.1895 -74.9814 -89.4873c-54.4639 -4.67676 -85.5723 45.3994 -96.3857 91.5801c-12.8701 54.9678 -13.6543 111.852 -11.2227 168.002c1.41309 32.5801 82.6289 32.2402 82.7109 0
c0.109375 -43.998 -1.60449 -87.9023 1.7373 -131.826c1.52246 -20.0098 3.12305 -40.4492 7.63574 -60.0693c2.52539 -10.9854 8.54883 -39.1699 20.4434 -44.3965c37.7754 -16.5986 64.3945 210.547 66.752 236.768c0.09375 1.03027 0.464844 1.93555 0.953125 2.77832
c3.99316 29.8633 82.4922 29.1914 85.2988 -3.25195c5.96875 -69.0127 9.83301 -138.693 9.85645 -207.983c0.00390625 -7.03418 -0.0273438 -14.0957 -0.0898438 -21.165c21.7041 13.7646 42.6709 28.6885 62.0098 45.6533
c20.7598 18.2148 43.8691 39.2871 42.7529 69.1074c-0.414062 11.0234 27.9893 11.207 28.4229 0zM186.203 -55.2471c0.390625 6.86621 0.709961 13.7305 0.975586 20.5967c-74.6768 -39.6064 -159.409 -83.4521 -196.985 -163.259
c-17.8438 -37.9043 -24.96 -91.8213 8.4082 -123.851c33.7666 -32.4082 83.5225 -22.4424 112.847 9.54785c28.2354 30.7998 44.3379 74.2002 54.7373 113.979c12.1602 46.5352 17.2969 95.0693 20.0176 142.986z" />
    <glyph glyph-name="y" unicode="&#xfd;" 
d="M406.469 151.392c1.83105 -47.3711 -50.0586 -82.4912 -84.1924 -106.994c-15.958 -11.4492 -32.5098 -21.9736 -49.3818 -31.9785c-1.14355 -47.9756 -4.71973 -96.2598 -14.584 -142.955c-19.3857 -91.7588 -66.7764 -193.371 -164.465 -221.228
c-36.5615 -10.4229 -78.124 -9.59961 -110.165 13.1426c-35.6875 25.3311 -43.1357 71.125 -33.4121 111.474c22.0947 91.666 111.195 146.816 188.276 188.89c16.3447 8.91992 32.8379 17.5898 49.2959 26.3301c0.916992 43.4199 -0.261719 86.7969 -2.20605 130.162
c-1.6084 -7.53027 -3.28711 -15.0488 -5.05957 -22.5518c-10.0049 -42.3037 -24.9365 -85.1895 -74.9814 -89.4873c-54.4639 -4.67676 -85.5723 45.3994 -96.3857 91.5801c-12.8701 54.9678 -13.6543 111.852 -11.2227 168.002c1.41309 32.5801 82.6289 32.2402 82.7109 0
c0.109375 -43.998 -1.60449 -87.9023 1.7373 -131.826c1.52246 -20.0098 3.12305 -40.4492 7.63574 -60.0693c2.52539 -10.9854 8.54883 -39.1699 20.4434 -44.3965c37.7754 -16.5986 64.3945 210.547 66.752 236.768c0.09375 1.03027 0.464844 1.93555 0.953125 2.77832
c3.99316 29.8633 82.4922 29.1914 85.2988 -3.25195c5.96875 -69.0127 9.83301 -138.693 9.85645 -207.983c0.00390625 -7.03418 -0.0273438 -14.0957 -0.0898438 -21.165c21.7041 13.7646 42.6709 28.6885 62.0098 45.6533
c20.7598 18.2148 43.8691 39.2871 42.7529 69.1074c-0.414062 11.0234 27.9893 11.207 28.4229 0zM186.203 -55.2471c0.390625 6.86621 0.709961 13.7305 0.975586 20.5967c-74.6768 -39.6064 -159.409 -83.4521 -196.985 -163.259
c-17.8438 -37.9043 -24.96 -91.8213 8.4082 -123.851c33.7666 -32.4082 83.5225 -22.4424 112.847 9.54785c28.2354 30.7998 44.3379 74.2002 54.7373 113.979c12.1602 46.5352 17.2969 95.0693 20.0176 142.986z" />
    <glyph glyph-name="z" unicode="z" horiz-adv-x="395" 
d="M416.544 138.678c3.57617 -5.12598 0.710938 -10.3115 -5.4375 -11.7988c-53.082 -12.8311 -101.21 -37.7363 -147.426 -66.2725c-4.96191 -3.06445 -9.90039 -6.16016 -14.8271 -9.2793c27.8447 -26.6582 45.7666 -62.5059 52.8438 -102.218
c18.1367 -101.741 -40.9609 -215.864 -124.015 -272.9c-43.0342 -29.5508 -97.998 -46.208 -150.279 -39.6807c-50.0684 6.25 -89.1318 35.8672 -90.584 89.1992c-1.44824 53.0508 31.7402 101.722 62.7041 141.953c32.0449 41.6328 69.7227 78.6826 110.25 112.016
c21.3994 17.6016 43.5918 34.2432 66.334 50.1035c-6.31641 5.57422 -13.2803 10.415 -21.0176 14.1895c-28.583 13.9434 -60.3193 11.1289 -89.542 0.963867c-16.4033 -5.70703 -44.1582 -5.27344 -56.9971 8.51855c-12.999 13.9668 0.785156 27.5479 14.9473 32.4902
c37.6035 13.1201 72.1855 35.3945 100.542 63.3213c27.583 27.1621 61.6855 62.4004 66.6475 102.811c7.13965 58.1328 -72.5889 36.5811 -100.418 20.8809c-36.167 -20.4043 -76.4961 -61.4746 -70.1133 -106.323
c1.51855 -10.6533 -26.8965 -11.3564 -28.7275 -0.000976562c-8.74414 54.2139 44.7285 104.431 89.1719 125.85c39.04 18.8154 101.147 31.3105 134.512 -5.34082c39.2471 -43.1123 12.6514 -101.87 -15.6816 -142.565
c-12.5225 -17.9883 -27.4307 -33.7471 -43.9902 -47.543c15.3535 -2.86523 30.3945 -7.28809 44.8027 -13.4912c11.168 -4.80957 21.4502 -10.7119 30.9014 -17.4883c3.65039 2.2832 7.30078 4.58203 10.9697 6.83398c48.0771 29.5156 98.6104 55.5371 153.733 68.8643
c5.5 1.33105 16.7031 2.63477 20.6963 -3.0918zM146.638 -285.776c58.3516 59.8271 90.0918 152.238 72.666 234.887c-4.69238 22.2471 -13.7061 45.1299 -27.6768 63.7891c-17.0352 -12.1445 -33.7432 -24.7451 -49.9707 -37.9512
c-33.9072 -27.5869 -65.8311 -57.7148 -94.3086 -90.915c-28.8438 -33.626 -58.625 -72.1748 -71.2959 -115.291c-13.624 -46.3633 -0.242188 -106.081 57.4189 -106.722c43.8535 -0.484375 83.2256 21.5049 113.167 52.2031z" />
    <glyph glyph-name="braceleft" unicode="{" horiz-adv-x="541" 
d="M456.786 -80.0322c7.97168 13.542 43.5557 5.03516 32.1182 -7.72168c-39.7549 -44.2715 -89.2998 -81.2314 -151.544 -82.6211c-65.4873 -1.45996 -119.736 41.3828 -137.33 103.654c-19.6826 69.665 -25.1357 145.403 -29.6445 217.352
c-2.03809 32.4902 -3.38477 66.249 -18.6055 95.7764c-5.61328 10.8916 -13.1943 20.3506 -23.3281 27.4277c-4.08301 2.85352 -8.51758 4.71973 -12.96 6.82422c-2.05762 1.4248 -3.88867 1.62012 -5.49316 0.582031c4.1377 0.6875 4.49316 0.527344 1.07324 -0.475586
c-14.752 -7.03418 -32.4277 -8.35742 -47.5742 -1.61621c-12.4492 5.53906 -17.9258 15.2275 -9.33398 26.6416c63.9375 84.9512 114.463 180.712 151.677 280.224c29.793 79.6738 66.8975 187.462 167.951 191.026c16.6729 0.585938 16.3096 -14.8252 0 -15.5088
c-48.6943 -2.03418 -81.626 -45.8994 -98.7393 -87.1221c-17.082 -41.1484 -19.5293 -88.6562 -31.3965 -131.671c-21.8721 -79.291 -57.9141 -154.413 -102.989 -223.176c31.21 -6.94434 59.75 -25.7129 77.5312 -54.0498
c16.3643 -26.0801 21.3262 -58.5234 23.9492 -88.6787c3.00977 -34.6133 4.50879 -69.2734 8.31055 -103.832c3.92676 -35.7305 8.84961 -71.4883 15.6729 -106.789c5.98438 -30.9717 13.9951 -64.0156 33.5059 -89.4561
c8.61133 -11.2344 14.5293 -20.9111 29.4883 -24.0068c17.0781 -3.53711 35.5225 1.4209 51.4336 7.3623c29.8398 11.1445 59.8789 32.0723 76.2275 59.8545z" />
    <glyph glyph-name="verticalbar" unicode="|" horiz-adv-x="191" 
d="M137.368 245.279c0.117188 -63.4775 0.930664 -126.963 0.918945 -190.433c-0.0078125 -32.3848 0.394531 -64.75 -0.304688 -97.123c-0.660156 -30.5186 0.831055 -63.8516 -8.37012 -93.207c-4.92676 -15.7119 -43.5889 -14.1934 -49.4639 0
c-12.2812 29.668 -13.3623 65.3984 -16.4736 97.0918c-3.04492 31.0107 -4.6416 62.1309 -6.40234 93.2393c-3.58398 63.3525 -5.08301 126.986 -5.99219 190.433c-1.83105 128.028 -2.87305 256.95 5.33594 384.768c2.14355 33.3877 84.8467 33.0908 84.8428 0
c-0.0195312 -128.263 -4.3291 -256.475 -4.09082 -384.769z" />
    <glyph glyph-name="braceright" unicode="}" horiz-adv-x="541" 
d="M486.982 305.794c8.84961 -11.7617 2.80078 -20.9951 -9.32422 -26.6396c-14.9629 -6.95215 -32.9941 -5.33594 -47.5742 1.61621c-3.42383 1.00684 -3.06445 1.16699 1.06934 0.475586c-1.60059 1.03809 -3.43164 0.842773 -5.48926 -0.582031
c-4.44629 -2.1084 -8.87695 -3.9707 -12.9639 -6.82422c-10.1143 -7.06152 -17.7148 -16.5674 -23.3281 -27.4277c-15.248 -29.5039 -16.5674 -63.3018 -18.6016 -95.7764c-4.50879 -71.9404 -9.96191 -147.698 -29.6445 -217.352
c-17.5977 -62.2793 -71.8545 -105.118 -137.33 -103.654c-62.2207 1.38574 -111.801 38.3613 -151.544 82.6211c-11.4414 12.7451 24.0781 21.3643 32.1084 7.7168c16.3643 -27.8096 46.3447 -48.6904 76.2275 -59.8545c15.9111 -5.94531 34.3555 -10.8994 51.4336 -7.3623
c15.79 3.27148 22.0127 14.3145 31.1826 26.1543c18.7686 24.2334 26.1152 57.8086 31.8145 87.3086c6.81934 35.3008 11.7422 71.0625 15.6729 106.789c3.79785 34.5586 5.30078 69.2227 8.31055 103.832c2.70117 31.0889 8.01367 64.3242 25.3613 90.9434
c17.7344 27.208 45.6611 45.1221 76.0898 51.8281c-45.0635 68.7432 -81.1445 143.865 -102.962 223.137c-12.1211 44.041 -14.5957 92.751 -32.6504 134.695c-17.2734 40.1221 -50.0684 82.1172 -97.4863 84.0967c-16.4229 0.6875 -16.5635 16.0908 0 15.5088
c101.042 -3.56445 138.154 -111.353 167.951 -191.026c37.21 -99.5117 87.7393 -195.276 151.677 -280.224z" />
    <glyph glyph-name="nonbreakingspace" unicode="&#xa0;" 
 />
    <glyph glyph-name="exclamdown" unicode="&#xa1;" horiz-adv-x="206" 
d="M151.72 200.727c3.24805 -99.0049 6.95117 -198.894 0.986328 -297.844c-2.01074 -33.3447 -83.3398 -33.2432 -84.8428 0c-4.42676 97.8486 -1.97168 196.041 -3.9707 293.976c-1.9209 94.2266 -7.46777 188.527 -9.64648 282.598
c-0.609375 26.2754 53.5381 20.9863 63.2578 4.87988c24.2451 -40.1729 24.1865 -91.1152 27.5205 -136.726c3.56836 -48.8623 5.08691 -97.9238 6.69531 -146.884zM87.4141 568.749c-8.16211 -0.71875 -28.8555 0.928711 -31.6504 11.7812
c-4.68457 18.1836 -4.74316 37.3193 -5.74219 55.9941c-0.760742 14.2207 22.415 18.3584 32.2051 18.3584c10.626 0 32.2207 -4.10254 32.2051 -18.3584c-0.0195312 -16.918 1.39746 -34.9727 -2.00684 -51.626c-2.38086 -11.6523 -14.4199 -15.2168 -25.0107 -16.1494z
" />
    <glyph glyph-name="cent" unicode="&#xa2;" horiz-adv-x="477" 
d="M400.209 216.295c1.92871 10.876 28.8926 9.7998 27.2021 -0.00195312c-10.4971 -60.8857 -25.917 -121.498 -53.6406 -177.012c-25.0068 -50.0762 -58.9102 -93.5039 -115.252 -107.967c-2.83398 -0.725586 -5.625 -1.32324 -8.38867 -1.84668
c2.10059 -23.2305 4.42285 -46.4414 7.02637 -69.6289c1.26074 -11.2266 -28.626 -11.9453 -29.9492 0c-2.49805 22.583 -4.72656 45.1855 -6.74512 67.8076c-88.4297 6.46094 -135.613 121.794 -152.855 198.2c-24.5068 108.604 -24.8428 231.447 7.97168 338.263
c15.7197 51.165 43.7051 99.1836 83.0967 135.772c20.877 19.3896 48.5967 35.7031 77.5537 41.332c4.66504 34.8125 9.87988 69.5625 15.6846 104.223c1.90527 11.3867 30.125 10.2705 28.4229 0c-5.64453 -34.0713 -10.7158 -68.2207 -15.2598 -102.433
c9.78613 -0.756836 19.5059 -2.97363 28.9453 -6.99805c44.5332 -18.9834 51.8994 -76.4297 56.0879 -118.694c5.93359 -59.8662 -0.975586 -120.068 -7.79102 -179.548c-1.49902 -13.0693 -34.0127 -12.2266 -32.6934 0c5.88672 54.6201 11.8086 109.708 7.87402 164.691
c-1.78809 24.9873 -12.9834 123.848 -55.627 115.635c-27.626 -221.302 -32.1934 -445.137 -13.5928 -667.419c12.5811 -0.363281 26.4512 4.46191 41.6953 16.2666c35.0859 27.1768 56.3486 71.7217 72.6426 111.914c17.9219 44.2051 29.2656 90.5684 37.5918 137.443z
M217.503 -37.0508c-16.4502 210.622 -12.1045 422.536 12.9141 632.264c-6.70996 -8.50586 -12.5264 -18.0117 -17.5273 -25.9834c-10.2471 -16.3291 -19.085 -33.3525 -27.376 -50.751c-18.332 -38.4629 -31.4287 -80.1152 -38.5449 -122.095
c-15.248 -89.9131 -14.3506 -187.478 2.29883 -277.207c7.29199 -39.2861 28.6992 -124.429 68.2354 -156.228z" />
    </font>
</defs>
</svg>
