<?xml version="1.0" standalone="no"?>
<!DOCTYPE svg PUBLIC "-//W3C//DTD SVG 1.1//EN" "http://www.w3.org/Graphics/SVG/1.1/DTD/svg11.dtd" >
<svg xmlns="http://www.w3.org/2000/svg" xmlns:xlink="http://www.w3.org/1999/xlink" version="1.1">
<metadata>
Created by FontForge 20170812 at Mon May  9 15:38:29 2022
 By www-data
</metadata>
<defs>
<font id="BerbecRegular" horiz-adv-x="767" >
  <font-face 
    font-family="Berbec"
    font-weight="400"
    font-stretch="normal"
    units-per-em="1000"
    panose-1="0 0 0 0 0 0 0 0 0 0"
    ascent="800"
    descent="-200"
    x-height="156.474"
    cap-height="536.3"
    bbox="-327.995 -580.343 1255.18 798.359"
    underline-thickness="50"
    underline-position="-100"
    unicode-range="U+000A-F000"
  />
<missing-glyph horiz-adv-x="527" 
d="M50 700h427v-700h-427v700zM78 680l185 -309l186 309h-371zM251 350l-180 300v-601zM264 329l-185 -308h370zM276 350l181 -303v605z" />
    <glyph glyph-name=".notdef" horiz-adv-x="527" 
d="M50 700h427v-700h-427v700zM78 680l185 -309l186 309h-371zM251 350l-180 300v-601zM264 329l-185 -308h370zM276 350l181 -303v605z" />
    <glyph glyph-name=".null" horiz-adv-x="0" 
 />
    <glyph glyph-name=".null" horiz-adv-x="0" 
 />
    <glyph glyph-name="LF" unicode="&#xa;" horiz-adv-x="0" 
 />
    <glyph glyph-name="controlCR" unicode="&#xd;" horiz-adv-x="0" 
 />
    <glyph glyph-name="space" unicode=" " horiz-adv-x="476" 
 />
    <glyph glyph-name="exclam" unicode="!" horiz-adv-x="159" 
d="M108.104 171.937c-0.130859 -27.1641 -0.552734 -54.3174 -1.00098 -81.4795c-0.429688 -26.0205 1.7998 -54.6162 -5.17383 -79.8633c-3.68652 -13.3457 -40.4668 -13.3789 -44.2041 0c-7.04492 25.2295 -4.88672 53.8457 -5.39355 79.8633
c-0.527344 27.1621 -1.02637 54.3164 -1.23633 81.4805c-0.416992 54.25 -2.375 108.758 0.249023 162.961c1.06738 22.0439 54.915 21.9395 56.041 0c2.78027 -54.1963 0.977539 -108.712 0.71875 -162.962zM55.5312 -51.1123
c1.66895 19.4795 50.043 19.1553 49.4414 -0.000976562c-0.320312 -10.1016 -0.967773 -20.2217 -1.57422 -30.3135c-0.683594 -11.3535 -0.460938 -19.9727 -11.3721 -25.7637c-7.62891 -4.0498 -16.2686 -3.31738 -23.9277 0
c-7.25293 3.1416 -9.56934 6.91016 -11.0742 14.3955c-2.70898 13.458 -2.66309 28.0527 -1.49316 41.6826z" />
    <glyph glyph-name="quotedbl" unicode="&#x22;" horiz-adv-x="205" 
d="M52.1123 384.137c2.31445 18.3115 47.9004 17.4941 46.2412 0.000976562c-2.45801 -25.9482 -4.30664 -52.7803 -3.94531 -78.8311c0.164062 -11.8789 -22.874 -11.165 -29.3975 -6.94141c-12.1729 7.88281 -12.8643 23.4014 -14.1748 36.8955
c-1.58496 16.3408 -0.776367 32.6279 1.27637 48.876zM107.895 382.729c2.52637 19.041 49.7002 17.2666 47.2402 0.00195312c-2.28613 -16.0488 -3.15137 -32.0742 -3.21777 -48.2666c-0.0644531 -15.3652 2.23145 -29.1406 -8.82031 -41.0625
c-3.28223 -3.53809 -11.2871 -3.54297 -15.1094 -1.1084c-15.0449 9.57715 -18.3623 22.6592 -20.7607 39.7578c-2.36328 16.8369 -1.56152 33.8838 0.667969 50.6777z" />
    <glyph glyph-name="quotedbl" unicode="&#x201d;" horiz-adv-x="205" 
d="M52.1123 384.137c2.31445 18.3115 47.9004 17.4941 46.2412 0.000976562c-2.45801 -25.9482 -4.30664 -52.7803 -3.94531 -78.8311c0.164062 -11.8789 -22.874 -11.165 -29.3975 -6.94141c-12.1729 7.88281 -12.8643 23.4014 -14.1748 36.8955
c-1.58496 16.3408 -0.776367 32.6279 1.27637 48.876zM107.895 382.729c2.52637 19.041 49.7002 17.2666 47.2402 0.00195312c-2.28613 -16.0488 -3.15137 -32.0742 -3.21777 -48.2666c-0.0644531 -15.3652 2.23145 -29.1406 -8.82031 -41.0625
c-3.28223 -3.53809 -11.2871 -3.54297 -15.1094 -1.1084c-15.0449 9.57715 -18.3623 22.6592 -20.7607 39.7578c-2.36328 16.8369 -1.56152 33.8838 0.667969 50.6777z" />
    <glyph glyph-name="quotedbl" unicode="&#x201c;" horiz-adv-x="205" 
d="M52.1123 384.137c2.31445 18.3115 47.9004 17.4941 46.2412 0.000976562c-2.45801 -25.9482 -4.30664 -52.7803 -3.94531 -78.8311c0.164062 -11.8789 -22.874 -11.165 -29.3975 -6.94141c-12.1729 7.88281 -12.8643 23.4014 -14.1748 36.8955
c-1.58496 16.3408 -0.776367 32.6279 1.27637 48.876zM107.895 382.729c2.52637 19.041 49.7002 17.2666 47.2402 0.00195312c-2.28613 -16.0488 -3.15137 -32.0742 -3.21777 -48.2666c-0.0644531 -15.3652 2.23145 -29.1406 -8.82031 -41.0625
c-3.28223 -3.53809 -11.2871 -3.54297 -15.1094 -1.1084c-15.0449 9.57715 -18.3623 22.6592 -20.7607 39.7578c-2.36328 16.8369 -1.56152 33.8838 0.667969 50.6777z" />
    <glyph glyph-name="numbersign" unicode="#" horiz-adv-x="368" 
d="M317.854 367.756c-9.75391 -38.2773 -23.748 -75.4893 -35.4727 -113.214c-4.58984 -14.7666 -9.05957 -29.5713 -13.4629 -44.3994c11.041 -0.118164 22.0801 -0.320312 33.1211 -0.686523c12.0068 -0.396484 12.0605 -11.7148 0 -11.3076
c-12.1602 0.412109 -24.3203 0.614258 -36.4775 0.72168c-5.46777 -18.6367 -10.7852 -37.3174 -15.9541 -56.0391c-2.17578 -7.87988 -4.27734 -15.7803 -6.42285 -23.668c12.5898 0.266602 25.1777 0.533203 37.7656 0.804688
c12.2441 0.263672 12.0801 -11.1689 -0.000976562 -11.4229c-13.6299 -0.28418 -27.2568 -0.578125 -40.8838 -0.870117c-6.96094 -25.7695 -13.835 -51.5566 -20.5576 -77.3975c-9.87402 -37.9551 -16.7451 -79.4434 -34.2969 -114.703
c-4.94336 -9.93066 -32.8525 -10.6963 -33.8252 2.6084c-2.7959 38.1875 8.99023 78.9248 17.1797 116.022c5.33496 24.1748 11.1055 48.293 17.1953 72.3184c-8.50195 -0.179688 -17.0039 -0.353516 -25.5059 -0.525391
c-5.99316 -22.3564 -11.9092 -44.7334 -18.04 -67.0547c-10.2432 -37.292 -18.3281 -76.4912 -34.4023 -111.794c-5.13574 -11.2793 -40.293 -12.4463 -39.5225 3.0498c1.92285 38.749 13.709 77.5254 22.582 115.147c4.69727 19.9219 9.70703 39.7803 14.8525 59.6055
c-15.7158 -0.28418 -31.4316 -0.560547 -47.1475 -0.800781c-11.5254 -0.173828 -11.3408 10.4297 0 10.7393c16.6963 0.458008 33.3906 0.87793 50.0869 1.28516c3.58105 13.6523 7.19629 27.292 10.8369 40.9189c3.26172 12.209 6.5332 24.459 9.8457 36.7217
c-13.5684 -1.11914 -27.126 -2.36328 -40.666 -3.8457c-9.25195 -1.01074 -17.5645 8.86328 -5.00977 10.3555c16.2334 1.93066 32.4922 3.53027 48.7686 4.89453c16.2285 59.5693 33.749 119.287 56.8145 176.209c7.18555 17.7305 57.3037 14.2842 50.7607 -7.97754
c-16.1924 -55.0791 -33.9492 -109.644 -50.5713 -164.587c8.18945 0.358398 16.3838 0.629883 24.5811 0.847656c5.16602 17.7305 10.4551 35.4258 15.8926 53.0742c11.6582 37.8447 22.6309 76.4189 38.5264 112.733c7.45215 17.0244 55.0273 14.2725 49.4102 -7.76465z
M196.791 148.646c4.52637 16.5996 9.19043 33.1602 13.9492 49.6953c-8.24023 -0.235352 -16.4756 -0.529297 -24.7109 -0.900391c-4.59277 -15.3574 -9.11133 -30.7432 -13.4404 -46.1934c-3.15137 -11.249 -6.2207 -22.5205 -9.26172 -33.7979
c8.44531 0.186523 16.8906 0.371094 25.3359 0.552734c2.64746 10.2354 5.35059 20.4551 8.12793 30.6436z" />
    <glyph glyph-name="dollar" unicode="$" horiz-adv-x="307" 
d="M218.947 143.886c36.5391 -49.9688 62.499 -127.886 2.51465 -171.667c-13.7373 -10.0273 -29.2666 -15.8643 -45.1797 -17.9893c2.04785 -27.0361 4.62598 -54.0469 7.85938 -81.0273c0.87793 -7.33203 -18.7266 -7.8418 -19.6406 0
c-3.11816 26.7246 -5.58887 53.4795 -7.54492 80.2578c-35.7998 1.82031 -70.7139 21.4531 -89.0459 54.1396c-28.1982 50.2764 -12.6846 128.285 53.3184 135.107c9.55371 0.988281 18.1172 -9.30078 5.16895 -10.6855c-40.71 -4.35156 -56.7793 -48.7197 -51.585 -84.501
c4.94336 -34.0557 29.1533 -70.8633 64.7021 -78.2979c5.53516 -1.15723 11.0518 -1.52051 16.4307 -1.1748c-3.9375 59.7949 -5.28418 119.699 -5.01562 179.632c-31.3936 34.6523 -67.3955 65.8359 -89.1484 107.252c-30.8896 58.8037 1.64062 126.862 66.5117 140.479
c10.0889 2.12012 20.3496 2.66016 30.3955 1.6543c0.62207 13.1357 1.25488 26.2686 1.88965 39.3936c0.342773 7.08594 18.1504 6.8584 17.8408 0c-0.645508 -14.3027 -1.28809 -28.6162 -1.91797 -42.9297c10.8418 -3.24902 21.1201 -8.44629 30.2646 -15.6523
c25.0137 -19.7197 36.4336 -50.0332 41.9551 -80.4697c1.41602 -7.79785 -19.6943 -8.39453 -21.4404 0c-5.85449 28.165 -22.2588 67.7402 -51.4717 80.2148c-2.54004 -58.957 -4.73438 -117.981 -5.6582 -176.995c16.9375 -18.3428 34.0234 -36.5371 48.7969 -56.7412z
M151.983 220.682c1.26172 53.6328 3.48828 107.26 5.97949 160.828c-1.49023 0.0439453 -2.99805 0.0361328 -4.53613 -0.0585938c-34.7314 -2.1123 -52.2598 -40.6787 -50.0762 -71.4814c2.38086 -33.6104 25.0781 -62.3213 46.3652 -86.7363
c0.74707 -0.857422 1.51465 -1.69922 2.26758 -2.55176zM208.124 8.76953c9.61816 29.9111 -5.45703 65.4775 -20.623 90.9912c-5.35059 9.00098 -11.3408 17.5332 -17.7588 25.7461c0.28418 -51.0391 1.83008 -102.043 5.23242 -152.965
c15.2783 6.39258 27.6455 19.1084 33.1494 36.2275z" />
    <glyph glyph-name="percent" unicode="%" horiz-adv-x="423" 
d="M355.094 362.986c5.95703 -1.4209 22.7207 -9.25098 15.9883 -18.5771c-23.7754 -32.9424 -49.335 -64.584 -73.2383 -97.4492c-23.9824 -32.9736 -47.1963 -66.4766 -70.3232 -100.054c-23.209 -33.6973 -45.6523 -67.9043 -68.7334 -101.687
c-23.2861 -34.084 -45.625 -68.7881 -72.6055 -100.11c-6.96094 -8.0791 -42.1201 -6.97559 -35.3135 8.4873c16.0723 36.5088 38.1729 69.9834 59.1963 103.796c21.4199 34.4531 43.9375 68.2891 66.5098 101.997c22.6309 33.7979 46.0146 67.1191 69.8789 100.054
c23.8311 32.8857 47.5469 66.3809 74.1484 97.1016c7.61914 8.7959 24.29 8.87305 34.4922 6.44141zM112.375 191.654c-42.1201 7.63867 -44.4707 47.1582 -38.3086 81.7568c-21.1719 22.0293 -16.2285 59.8457 5.44434 83.4668
c23.248 25.334 63.8652 22.4082 87.5762 -0.798828c27.8203 -27.2285 29.8271 -72.5537 21.5586 -108.191c-8.58398 -36.9922 -36.3857 -63.4678 -76.2705 -56.2334zM102.509 357.015c-16.3633 -12.4727 -27.2549 -40.2002 -22.0146 -61.5635
c10.4912 10.417 47.3809 6.46387 44.1094 -7.73438c-4.23926 -18.4014 -10.0098 -38.5586 -6.92188 -57.6133c2.04297 -12.6162 7.62402 -24.2852 21.2842 -16.4541c28.7207 16.4609 37.041 60.002 32.7764 89.8955c-4.15234 29.1152 -33.9893 80.3291 -69.2334 53.4697z
M257.011 130.813c23.25 25.3369 63.8652 22.4072 87.5762 -0.796875c27.8203 -27.2285 29.8271 -72.5537 21.5586 -108.191c-8.58398 -36.9922 -36.3857 -63.4707 -76.2715 -56.2363c-42.1172 7.63867 -44.4697 47.1582 -38.3076 81.7598
c-21.1719 22.0293 -16.2285 59.8438 5.44434 83.4648zM316.468 -12.416c28.7207 16.4639 37.0391 60.0049 32.7744 89.8955c-4.15234 29.1182 -33.9893 80.3291 -69.2334 53.4697c-16.3633 -12.4727 -27.251 -40.2002 -22.0127 -61.5635
c10.4883 10.417 47.3809 6.46387 44.1094 -7.73438c-4.23926 -18.4014 -10.0117 -38.5586 -6.92188 -57.6133c2.04297 -12.6162 7.62402 -24.2852 21.2842 -16.4541z" />
    <glyph glyph-name="ampersand" unicode="&#x26;" horiz-adv-x="439" 
d="M379.908 -33.2197c6.35352 -1.8584 12.0957 -7.50488 7.9873 -13.8975c-4.49512 -6.99902 -15.8076 -7.18848 -23.0273 -6.44336c-46.1445 4.75391 -91.9717 18.1279 -133.897 39.1074c-9.75586 -11.6504 -21.2734 -21.916 -34.9746 -30.1846
c-40.3438 -24.3457 -102.439 -25.9893 -131.821 16.459c-29.1309 42.0869 5.07324 87.876 33.6914 119.272c1.13379 1.24414 2.2959 2.46289 3.44531 3.69434c-6.76074 9.5332 -13.0332 19.4482 -18.7041 29.7705c-44.7285 81.4268 -52.875 212.797 36.5342 268.651
c37.5732 23.4727 92.4297 32.543 130.94 6.21582c39.9287 -27.2949 38.3057 -85.7119 23.9541 -126.414c-16.8398 -47.7598 -52.0732 -85.8525 -88.2793 -119.937c-12.2578 -11.5381 -24.7324 -22.8535 -36.9873 -34.3965
c23.0098 -37.0049 53.418 -65.9307 88.1113 -88.9785c8.41699 18.2578 14.415 37.8369 18.8486 56.9453c1.91016 8.22559 22.2979 7.10938 20.6416 0c-5.35352 -22.9971 -12.6416 -46.0811 -23.2891 -67.1143c39.1221 -23.1963 82.7344 -39.8438 126.826 -52.751z
M156.62 383.934c-74.3027 -59.0312 -56.6055 -175.728 -16.1875 -250.89c23.3018 21.5039 47.0361 42.5703 67.6855 66.6777c32.041 37.4072 58.4941 85.3486 53.6914 136.173c-2.5498 26.9678 -15.752 53.2617 -43.3232 61.4053
c-21.584 6.37695 -44.4961 0.432617 -61.8662 -13.3662zM172.828 -41.1387c17.2217 8.49902 31.1436 20.6533 42.4814 35.0146c-39.834 22.3008 -75.5312 51.6953 -103.776 87.293c-12.5137 -13.8242 -24.0898 -28.7803 -31.5986 -45.5762
c-10.9541 -24.5049 -8.02051 -52.0586 12.8076 -70.3701c22.3008 -19.6045 54.5518 -18.959 80.0859 -6.36133z" />
    <glyph glyph-name="quotesingle" unicode="'" horiz-adv-x="149" 
d="M95.3516 350.334c-0.506836 -12.7363 -4.13379 -32.0908 1.54395 -43.8564c7.58496 -15.7031 -29.9346 -17.8945 -37.3232 -8.96777c-10.3447 12.501 -9.51562 29.7783 -9.56934 45.3506c-0.0644531 18.3525 0.703125 36.6338 4.37207 54.6465
c3.38184 16.6016 45.2129 17.5664 44.2402 -0.000976562c-0.870117 -15.7393 -2.63379 -31.417 -3.26367 -47.1719z" />
    <glyph glyph-name="quotesingle" unicode="&#x2019;" horiz-adv-x="149" 
d="M95.3516 350.334c-0.506836 -12.7363 -4.13379 -32.0908 1.54395 -43.8564c7.58496 -15.7031 -29.9346 -17.8945 -37.3232 -8.96777c-10.3447 12.501 -9.51562 29.7783 -9.56934 45.3506c-0.0644531 18.3525 0.703125 36.6338 4.37207 54.6465
c3.38184 16.6016 45.2129 17.5664 44.2402 -0.000976562c-0.870117 -15.7393 -2.63379 -31.417 -3.26367 -47.1719z" />
    <glyph glyph-name="quotesingle" unicode="&#x2018;" horiz-adv-x="149" 
d="M95.3516 350.334c-0.506836 -12.7363 -4.13379 -32.0908 1.54395 -43.8564c7.58496 -15.7031 -29.9346 -17.8945 -37.3232 -8.96777c-10.3447 12.501 -9.51562 29.7783 -9.56934 45.3506c-0.0644531 18.3525 0.703125 36.6338 4.37207 54.6465
c3.38184 16.6016 45.2129 17.5664 44.2402 -0.000976562c-0.870117 -15.7393 -2.63379 -31.417 -3.26367 -47.1719z" />
    <glyph glyph-name="parenleft" unicode="(" horiz-adv-x="299" 
d="M226.634 -63.9883c3.54004 7.3418 25.2324 5.40527 21.4434 -3.36523c-19.9707 -46.2695 -80.9531 -46.29 -119.919 -27.2051c-48.3457 23.6777 -64.4531 76.376 -72.2002 125.846c-8.59961 54.9072 -6.74316 110.511 -1.64355 165.648
c4.70508 50.8555 12.4111 103.541 34.6113 150.088c17.915 37.5605 54.3369 82.1641 101.478 68.043c11.3896 -3.41211 -2.33984 -10.4521 -9.00391 -8.78027c-27.3926 6.87402 -38.2471 -27.54 -45.6377 -46.6865c-8.16406 -21.1533 -13.9551 -43.2031 -17.7998 -65.5264
c-6.91699 -40.1514 -9.60742 -80.8486 -11.0771 -121.535c-1.55664 -43.0596 -1.52637 -86.4697 4.50781 -129.209c5.34277 -37.835 13.9756 -79.0898 37.7432 -110.084c9.03711 -11.7842 20.9746 -23.7061 36.7217 -24.1514
c17.7051 -0.501953 33.3672 11.5557 40.7764 26.918z" />
    <glyph glyph-name="parenright" unicode=")" horiz-adv-x="299" 
d="M246.264 172.538c4.13184 -55.0635 3.58496 -111.023 -8.15039 -165.199c-10.5576 -48.7451 -34.8525 -93.2998 -85.2598 -108.916c-36.5723 -11.3281 -85.4404 -5.08887 -102.408 34.2207c-3.81152 8.83203 17.9336 10.6523 21.4463 3.36914
c8.27148 -17.1572 27.707 -30.667 47.3965 -26.0713c17.2109 4.0166 29.6045 21.0488 38.0684 35.4082c20.291 34.4199 27.7129 75.6621 31.8682 114.91c4.53613 42.8828 3.7832 86.3496 1.68164 129.363c-1.99902 40.8711 -4.91016 81.9932 -13.7168 122.05
c-4.2168 19.1826 -10.4736 37.7988 -17.7207 56.0215c-7.04004 17.6973 -17.9307 44.7158 -42.3457 38.5898c-6.68164 -1.67383 -20.3828 5.37109 -9.00391 8.78125c55.0791 16.4971 93.1035 -43.8711 109.434 -87.0254c18.7676 -49.5957 24.7686 -102.957 28.7109 -155.502
z" />
    <glyph glyph-name="asterisk" unicode="*" horiz-adv-x="255" 
d="M196.22 307.938c12.0039 0.289062 11.8369 -10.9238 -0.00292969 -11.1973c-17.626 -0.404297 -35.2471 -0.952148 -52.8652 -1.57422c13.2227 -12.2393 26.9014 -23.9951 41.0664 -35.2129c6.72559 -5.32715 -10.7568 -9.20801 -15.749 -5.24805
c-10.7568 8.54004 -21.2119 17.416 -31.4238 26.5479c0.334961 -16.8115 1.16406 -33.626 2.41602 -50.4531c0.540039 -7.24219 -17.9668 -7.39844 -18.8398 0c-1.94336 16.4482 -3.07227 32.9502 -3.5332 49.4727c-10.1631 -11.6279 -19.835 -23.7031 -28.8818 -36.293
c-3.89941 -5.4248 -21.208 -2.91309 -17.2041 2.7041c11.7783 16.5195 24.5039 32.2197 38.0566 47.1475c-16.8145 -0.724609 -33.626 -1.5127 -50.4326 -2.43457c-11.917 -0.650391 -11.6172 10.4375 0 11.083c17.6895 0.985352 35.3848 1.8252 53.082 2.59277
c-14.3516 14.1777 -28.1299 28.9443 -41.2422 44.3535c-5.84961 6.87402 11.4229 10.0615 15.5781 5.18945c10.043 -11.7734 20.4824 -23.1631 31.2529 -34.2178c0.450195 12.6543 1.21289 25.3008 2.3291 37.9238c0.701172 7.93652 20.5029 7.4834 19.8398 0
c-1.05469 -11.917 -1.73535 -23.8311 -2.14453 -35.7432c9.65137 9.04492 19.6328 17.7646 30.0312 26.0537c5.10742 4.07324 22.6748 0.0410156 15.9238 -5.30469c-14.6357 -11.5889 -28.5576 -23.9824 -41.7754 -37.0664
c18.1689 0.663086 36.3428 1.24414 54.5186 1.67676z" />
    <glyph glyph-name="plus" unicode="+" horiz-adv-x="261" 
d="M201.811 176.217c12.0166 -0.361328 12.0557 -11.707 -0.00195312 -11.3105c-13.2861 0.435547 -26.5166 0.443359 -39.7217 0.149414c0.140625 -4.33887 0.293945 -8.68359 0.488281 -13.0225c0.90332 -20.0762 1.99121 -40.1162 3.52246 -60.1533
c1.47461 -19.2822 4.74414 -39.3994 -3.23828 -57.5498c-4.27246 -9.71484 -26.5654 -10.1982 -32.5713 -2.42578c-13.0254 16.8555 -15.8955 36.7266 -18.7471 57.4785c-2.73633 19.9141 -4.65918 40.0713 -5.75977 60.1396
c-0.225586 4.11133 -0.412109 8.22559 -0.59375 12.3369c-14.8018 -1.29004 -29.6016 -2.86719 -44.4268 -4.72559c-8.73242 -1.0957 -16.6016 7.69336 -4.74316 9.80566c16.1152 2.87012 32.3838 5.01074 48.7266 6.55176
c-1.11328 33.0576 -0.745117 66.1279 1.67188 99.1416c1.64062 22.4102 57.5264 21.8418 56.6406 0c-1.29785 -32.0107 -1.95312 -64.0703 -1.26172 -96.1035c13.3604 0.202148 26.7139 0.0898438 40.0156 -0.3125z" />
    <glyph glyph-name="comma" unicode="," horiz-adv-x="178" 
d="M79.0322 54.6045c8.10547 16.6348 56.9932 11.541 48.0615 -7.55469c-7.09668 -15.1709 -14.0244 -30.418 -21.1289 -45.5859c-6.90723 -14.748 -12.7207 -31.3271 -26.6348 -40.5967c-6.96289 -4.63867 -22.541 -4.13184 -26.9443 4.05469
c-6.71484 12.4883 2.42188 31.5117 6.89648 43.8789c5.67773 15.6904 12.4463 30.8174 19.75 45.8037z" />
    <glyph glyph-name="hyphen" unicode="-" horiz-adv-x="254" 
d="M181.775 147.427c6.96094 0.4375 22.8467 -3.22266 22.6191 -12.8916c-0.246094 -10.332 -14.9717 -12.4541 -22.6211 -12.8945c-39.4932 -2.28125 -79.501 -4.81348 -118.994 -1.60352c-17.2266 1.40039 -16.8506 19.0156 0 20.7998
c39.4453 4.17285 79.4102 4.11133 118.996 6.58984z" />
    <glyph glyph-name="period" unicode="." horiz-adv-x="144" 
d="M74.4873 22.6709c5.82422 0 20.3467 -2.58301 19.5195 -11.126c-1.16699 -12.0244 -2.66211 -23.9541 -4.31836 -35.9219c-1.21875 -8.81152 -12.373 -11.2969 -19.8203 -11.2969c-5.77539 0 -20.8438 2.6543 -19.8193 11.2969
c1.42578 12.0215 3.00293 23.9668 4.91797 35.9219c1.3877 8.66602 12.0273 11.126 19.5205 11.126z" />
    <glyph glyph-name="slash" unicode="/" horiz-adv-x="305" 
d="M200.73 364.361c7.97461 18.8086 62.2627 14.335 53.8457 -8.45996c-54.2295 -146.869 -110.491 -292.786 -156.173 -442.622c-4.84863 -15.9004 -46.6611 -13.8291 -48.1641 3.71777c-1.62598 18.9746 5.35254 38.6738 10.9209 56.5889
c5.64746 18.1738 11.3818 36.3223 17.2012 54.4424c12.1553 37.8496 25.0576 75.4541 38.2285 112.961c26.335 74.9932 53.1025 150.179 84.1406 223.372z" />
    <glyph glyph-name="zero" unicode="0" horiz-adv-x="311" 
d="M77.8135 -9.53809c-22.6641 36.5674 -25.9395 83.7539 -27.3779 125.648c-1.62305 47.2197 1.28516 94.2471 9.11133 140.84c0.399414 2.38086 1.45898 4.45215 2.97949 6.24707c-6.8125 31.8906 1.68945 66.9531 21.9854 92.5205
c21.207 26.7109 55.542 34.4834 86.6484 20.8232c37.0723 -16.2793 53.2461 -55.0303 65.998 -90.8223c28.542 -80.124 32.4639 -169.101 6.88379 -250.646c-11.0078 -35.0928 -31.5781 -69.7637 -68.0713 -82.5918c-39.0381 -13.7246 -77.165 4.10645 -98.1572 37.9805z
M101.779 349.962c-16.7705 -21.5244 -24.7764 -51.168 -21.2227 -78.5703c15.127 2.00684 32.5254 -3.13379 30.833 -14.4365c-1.9248 -12.877 -3.57324 -25.8047 -4.97656 -38.7656c13.3066 -14.0801 30.6377 -23.4268 48.6035 -17.3701
c6.89941 2.32715 20.0557 -4.95312 9.00391 -8.78027c-20.6104 -7.13477 -41.6875 -1.95117 -59.2471 9.56152c-2.02539 -22.6641 -3.19238 -45.4023 -3.27148 -68.1279c-0.138672 -39.6191 -0.460938 -82.9707 12.541 -120.852
c4.3623 -12.7109 10.5117 -25.5312 20.5879 -34.7119c10.9873 -10.0098 21.0459 -9.28516 33.4209 -1.33398c25.3877 16.3154 37.5225 47.6885 45.6963 75.3574c19.3896 65.6289 22.4385 136.091 9.11328 203.22c-6.43359 32.3975 -16.5 68.5225 -39.0791 93.7031
c-10.4189 11.6201 -24.8193 21.5811 -40.8066 22.9434c-17.0781 1.45703 -31.1738 -8.97266 -41.1963 -21.8369z" />
    <glyph glyph-name="one" unicode="1" horiz-adv-x="277" 
d="M68.25 286.348c-3.32324 -5.96777 -21.3721 -3.99219 -17.7773 2.79688c18.542 35.0498 45.3477 65.5244 78.8047 87.041c12.4854 8.03125 27.4951 13.625 42.292 8.73242c13.1406 -4.3418 22.8096 -16.8682 28.7666 -28.8213
c8.81445 -17.6875 12.2754 -38.5957 14.6357 -58.0391c2.66504 -21.9678 4.67676 -43.9717 6.18945 -66.0518c3.02637 -44.127 3.63867 -88.4766 3.98438 -132.696c0.350586 -45.0518 2.61914 -90.2158 2.01758 -135.249c-0.296875 -22.1934 -54.8105 -22.0576 -56.4414 0
c-3.62793 49.0322 -0.609375 98.9043 0.511719 148.011c1.08789 47.6348 3.15918 95.251 4.2959 142.886c0.402344 16.8447 11.2158 124.891 -19.1943 119.573c-9.62598 -1.68164 -20.4551 -11.5732 -27.877 -17.3896
c-8.13574 -6.37695 -15.7803 -13.3506 -23.0205 -20.7236c-14.6973 -14.9707 -26.9883 -31.752 -37.1875 -50.0693z" />
    <glyph glyph-name="two" unicode="2" horiz-adv-x="326" 
d="M95.7988 -45.9775c-16.6016 0.503906 -35.9854 5.22461 -43.5195 21.8721c-6.72559 14.8584 2.42871 29.2812 14.4971 37.834c23.6064 16.7295 54.918 15.0195 80.8848 4.86914c8.76562 11.21 16.0234 23.7383 22.457 36.3545
c28.5469 55.9805 44.8516 119.679 49.2188 182.279c2.14258 30.7021 0.230469 61.873 -8.06641 91.5977c-7.72363 27.6689 -21.8906 56.5459 -55.0479 54.7695c-29.3486 -1.57422 -51.3037 -24.0361 -61.9766 -49.9561c-8.74512 -21.2227 -19.9785 -73.4062 8.8623 -84.7646
c10.9668 -4.31836 -2.18359 -11.1719 -9.00391 -8.78125c-38.6357 13.5352 -32.1025 66.3281 -19.7939 96.6777c13.6445 33.6465 43.8174 57.1475 80.4971 58.9648c81.125 4.02148 110.499 -96.2725 112.061 -160.719c0.988281 -40.8047 -5.7832 -82.1104 -17.1084 -121.238
c-11.1514 -38.5283 -26.7217 -77.2842 -51.4697 -109.185c-2.62891 -3.38965 -5.42969 -6.61523 -8.33301 -9.72559c23.1807 -14.6152 47.2197 -28.2861 74.3174 -22.4189c9.76172 2.1123 17.9561 -8.01562 5.21973 -10.7959
c-32.415 -7.07324 -62.6719 6.72266 -89.7412 23.3574c-23.084 -20.1113 -52.4121 -31.9492 -83.9541 -30.9922zM90.5029 10.3789c-12.708 -6.26465 -26.0791 -29.5322 -2.45508 -29.957c10.04 -0.181641 19.6094 4.72559 28.0137 9.66895
c8.5791 5.04297 16.0977 11.3096 22.8203 18.3574c-15.8311 6.80469 -32.4785 9.76953 -48.3789 1.93066z" />
    <glyph glyph-name="three" unicode="3" horiz-adv-x="362" 
d="M68.6719 253.154c-41.7646 11.5352 -2.50488 76.8662 12.1611 95.6719c31.7422 40.6865 103.039 77.9629 148.268 35.1357c44.1553 -41.8125 11.0771 -103.202 -30.3848 -142.88c37.748 -4.84375 72.3389 -22.833 93.165 -58.7734
c48.5078 -83.71 6.18555 -209.418 -89.7871 -237.407c-45.2412 -13.1914 -97.0615 2.86035 -115.594 48.6104c-19.3105 47.6729 0.751953 96.9971 24.9268 138.685c3.88574 6.69922 24.0898 4.16211 19.9043 -3.12891
c-22.2852 -38.8252 -43.0264 -86.0703 -24.5049 -130.541c7.375 -17.7021 20.5537 -33.5996 39.3086 -39.5518c20.1221 -6.38477 41.5059 0.701172 58.1309 12.582c28.7646 20.5596 46.2881 57.2119 51.6895 91.4502c5.75488 36.4727 2.14551 74.5557 -15.583 107.411
c-18.3809 34.0635 -51.6455 47.6602 -88.9199 37.3154c-11.4404 -3.17676 -25.8076 -3.45605 -35.7588 4.06738c-8.21484 6.21289 -6.9707 15.959 2.16895 20.7461c31.7344 16.6221 59.3418 37.8604 79.7686 67.7539c10.5449 15.4346 22.1064 33.4727 22.5723 52.7627
c0.44043 18.3096 -11.3232 31.8525 -28.8672 36.251c-26.9648 6.75879 -58.3379 -10.4219 -77.3105 -28.416c-12.4492 -11.8066 -23.127 -26.168 -31.1172 -41.3262c-5.63477 -10.6904 -24.1719 -51.6045 -5.13086 -57.5391
c11.4053 -3.55371 -2.27051 -10.7656 -9.10547 -8.87891z" />
    <glyph glyph-name="four" unicode="4" horiz-adv-x="353" 
d="M58.6865 15.5762c-14.3408 11.4922 -8.27148 32.751 -0.696289 46.3906c9.43359 16.9854 24.7559 29.9873 41.5928 39.29c12.2168 6.75098 25.2373 11.7607 38.4697 16.1816c0.757812 3.8916 1.45703 7.73926 2.08398 11.4873
c13.7676 82.1562 11.2334 168.294 4.23438 250.973c-0.573242 6.79199 17.1553 7.07324 17.8418 0c5.84668 -60.3242 8.14258 -120.994 5.0957 -181.555c-1.21582 -24.208 -2.94922 -49.3779 -7.26074 -73.9365c1.57227 0.483398 3.14648 0.966797 4.71289 1.45312
c22.0059 6.82715 44.0146 13.6445 66.0234 20.4648c-3.14355 67.6719 -4.41895 136.214 0.40918 203.788c1.57227 21.998 55.207 21.9775 56.042 0c2.60059 -68.5908 -0.547852 -137.312 1.89453 -205.944c1.2002 -33.7852 3.3916 -67.5498 6.27148 -101.229
c1.46973 -17.1904 3.40723 -34.332 5.00977 -51.5068c1.59277 -17.0654 4.125 -34.2939 0.269531 -51.1953c-3.14355 -13.7861 -28.2881 -12.9824 -35.0029 -2.70117c-18.8623 28.8721 -21.8623 69.5049 -26.2168 102.944
c-4.01172 30.7998 -6.41602 61.7402 -8.03418 92.7471c-16.3408 -5.0918 -32.6787 -10.1807 -49.0166 -15.2725c-8.30957 -2.58789 -16.75 -5.03516 -25.1416 -7.65625c-3.93457 -17.7178 -9.4668 -34.9463 -17.4336 -51.0566
c-8.14648 -16.4717 -19.958 -32.8965 -36.0508 -42.415c-12.8232 -7.58496 -32.4844 -11.3584 -45.0977 -1.25098zM77.7666 58.8506c-4.15723 -7.46973 -7.7627 -16.3115 -7.33496 -25.0107c0.767578 -15.5654 14.1846 -12.7646 23.3799 -5.68066
c22.5205 17.3467 34.1299 46.1543 40.9932 74.3506c-6.37695 -2.49609 -12.6387 -5.23828 -18.6729 -8.44629c-15.4707 -8.22266 -29.7354 -19.707 -38.3652 -35.2129z" />
    <glyph glyph-name="five" unicode="5" horiz-adv-x="355" 
d="M138.925 -76.7666c-28.8281 -0.535156 -62.5811 8.31836 -79.0469 33.9521c-14.9277 23.2373 -11.2793 55.1123 -0.0380859 79.0508c20.5234 43.707 91.0059 97.9336 134.478 50.5137c7.1582 -7.80762 -13.2148 -11.5322 -18.3398 -6.11035
c-22.8252 24.1543 -54.1006 1.98926 -72.2051 -17.0088c-17.9199 -18.8057 -29.2354 -43.8994 -23.9102 -70.1475c4.64355 -22.8896 20.0137 -42.1025 44.252 -44.4883c17.9561 -1.76855 35.4287 5.65039 50.1621 15.2734c36.8105 24.0361 62.2236 69.6025 70.4648 112.058
c8.46582 43.6123 0.672852 93.2412 -29.2715 127.522c-12.6592 14.4951 -28.6953 26.0693 -48.0029 29.3232c-18.8574 3.17969 -36.0459 -3.05176 -52.0869 -12.6523c-9.78223 -5.85254 -23.9365 -6.16211 -34.5508 -2.54004
c-6.96289 2.37598 -17.6484 9.39551 -13.1016 18.3535c10.2168 20.1318 12.5518 45.9346 16.1387 67.8994c2.15332 13.1787 6.25195 26.2861 9.19629 39.3555c1.13965 5.06152 5.16699 17.2832 3.85352 19.9736c-5.17871 10.6143 17.4902 9.45215 21.9678 7.28906
c6.86816 -3.31543 24.0049 -1.1084 33.8486 -0.642578c16.4434 0.77832 32.8789 1.89746 49.3428 2.14355c15.8311 0.235352 57.8818 3.3125 63.7441 -17.9131c2.09961 -7.60352 -14.9961 -8.77051 -17.2031 -2.70312c-2.97949 8.19238 -16.1279 8.28711 -23.3008 8.85254
c-14.2852 1.12598 -28.7754 0.360352 -43.0625 -0.351562c-17.8076 -0.888672 -36.209 -2.8877 -54.3516 -2.95898c1.05176 -3.43555 1.80176 -6.92188 2.49023 -9.75293c3.14844 -12.9795 5.22461 -28.5596 4.73828 -41.8564
c-0.46582 -12.7129 -1.05762 -26.6904 -2.86035 -40.4199c53.3994 8.07422 110.613 -12.8643 142.834 -57.8594c75.7637 -105.806 -2.00488 -281.67 -136.179 -284.155z" />
    <glyph glyph-name="six" unicode="6" horiz-adv-x="300" 
d="M54.8477 26.2129c-2.15332 12.3242 -3.32031 24.9189 -4.04004 37.4404c-4.75684 81.9385 11.4375 170.462 51.54 242.675c17.5205 31.5498 42.0195 67.0215 75.2822 83.5264c22.2207 11.0264 58.4609 12.9082 69.0488 -15.2188
c2.74414 -7.29102 -14.6768 -8.68066 -17.2031 -2.70312c-7.63184 18.0557 -27.6719 18.1914 -40.5791 5.61621c-10.8652 -10.5859 -18.4707 -24.9424 -25.4854 -38.2393c-15.2812 -28.9619 -27.6768 -58.9062 -37.5381 -90.123
c-17.3037 -54.7793 -26.123 -112.262 -24.375 -169.725c11.0547 7.71875 23.3125 13.6885 36.7676 17.1807c29.917 7.76465 64.9512 1.55176 88.332 -19.3564c51.0137 -45.6201 12.0039 -132.557 -46.8252 -148.4c-33.4824 -9.01855 -71.9854 3.36133 -94.8486 29.1768
c-16.7734 18.9395 -25.1855 41.7852 -29.6455 65.7803c-0.46875 0.696289 -0.632812 1.49219 -0.430664 2.37012zM203.087 76.4961c-35.3896 24.1562 -72.9844 9.13477 -100.571 -17.1289c2.05566 -27.9297 6.5332 -56.6377 20.4756 -81.3525
c10.2969 -18.2559 30.9277 -39.8271 53.9219 -33.5117c52.9902 14.5537 72.7559 100.197 26.1738 131.993z" />
    <glyph glyph-name="seven" unicode="7" horiz-adv-x="303" 
d="M146.659 -45.6826c-1.71777 44.6904 7.18359 90.6064 15.3428 134.391c3.10059 16.6406 6.31348 33.2988 9.33984 49.9951c-6.62305 -0.726562 -13.2354 -1.60938 -19.835 -2.70801c-9.64844 -1.60547 -17.9609 8.54004 -5.16895 10.6855
c8.99805 1.50781 18.0117 2.64941 27.0361 3.49707c4.0957 23.4092 7.7002 46.8945 9.94531 70.5215c2.08887 21.9697 3.26172 44.1445 2.64746 66.2148c-0.563477 20.1836 0.798828 45.0898 -9.10547 63.376c-21.75 40.1543 -81.4189 18.5684 -113.48 7.1377
c-6.96582 -2.4834 -20.209 4.77148 -9.10645 8.87793c38.8076 14.3486 82.4404 27.6611 121.809 7.47266c18.4189 -9.44629 32.376 -22.8301 39.8613 -42.4834c8.59375 -22.5615 12.1826 -47.3887 14.2461 -71.3018c3.11816 -36.1426 0.857422 -72.5029 -3.16211 -108.594
c6.3877 -0.293945 12.7773 -0.693359 19.1748 -1.29199c13.1201 -1.23145 4.3877 -11.71 -5.21973 -10.7959c-5.0791 0.481445 -10.1582 0.803711 -15.2344 1.05469c-1.39551 -11.5791 -2.92676 -23.127 -4.49121 -34.624
c-6.87598 -50.5371 -12.3037 -100.565 -15.959 -151.426c-1.65332 -23.0195 -57.7568 -22.9961 -58.6396 0.000976562z" />
    <glyph glyph-name="eight" unicode="8" horiz-adv-x="304" 
d="M50.0312 257.409c-0.834961 36.0684 15.2051 76.29 43.4912 99.4814c26.3301 21.5859 62.1631 33.7695 96.0244 26.2432c31.7598 -7.06055 53.0186 -33.7617 60.2588 -64.5332c8.49414 -36.1016 2.28613 -76.0352 -6.43555 -111.545
c-9.48242 -38.6025 -24.7021 -75.4414 -41.4502 -111.392c14.7256 -21.3535 27.5645 -44.5938 31.2148 -69.5205c4.66699 -31.8516 -12.0195 -64.4814 -41.8545 -77.5576c-25.6895 -11.2588 -57.8408 -5.59375 -78.8867 12.6289
c-50.3662 43.6055 -37.0361 125.836 -3.53516 176.169c-3.84473 4.78516 -7.66406 9.58789 -11.3994 14.4541c-23.7627 30.9512 -46.4961 65.2148 -47.4277 105.571zM182.409 -41.0811c16.6201 9.63867 16.9326 33.0078 12.6143 49.5098
c-4.81836 18.4014 -15.0127 35.543 -25.5039 51.21c-15.1885 22.6865 -32.7578 43.6074 -50.0713 64.7119c-18.3857 -31.7158 -26.0635 -70.0088 -18.6523 -106.082c6.94238 -33.8057 41.4795 -82.6201 81.6133 -59.3496zM121.002 333.678
c-17.6309 -34.082 -19.7461 -76.333 -5.38184 -111.797c14.5508 -35.9248 41.2598 -66.2002 64.5225 -96.6904c3.25098 -4.26465 6.58203 -8.63477 9.91309 -13.0869c17.0596 37.4102 32.0635 76.0303 39.7715 116.507c7.76953 40.7988 12.7617 95.3066 -19.2871 127.573
c-14.4131 14.5098 -35.4336 19.7783 -54.7646 12.7842c-16.3232 -5.90625 -27.0449 -20.3525 -34.7734 -35.29z" />
    <glyph glyph-name="nine" unicode="9" horiz-adv-x="361" 
d="M297.297 282.277c7.52441 -30.6562 12.084 -61.8574 13.1953 -93.4043c1.8457 -52.501 -3.64844 -108.205 -23.4424 -157.299c-19.4639 -48.2773 -59.3262 -79.7275 -112.198 -81.1104c-46.4854 -1.21875 -89.1709 24.2969 -99.5977 71.1279
c-9.61523 43.1875 8.79395 90.917 49.877 110.147c4.92773 2.30371 12.4746 3.34277 17.2822 -0.000976562c4.16992 -2.90039 4.57715 -7.02441 0 -9.85059c-36.6387 -22.6201 -44.918 -78.5391 -21.627 -113.273c17.0625 -25.4492 48.3564 -34.376 74.0361 -17.9512
c32.5508 20.8184 45.5068 65.9492 53.333 101.391c9.85645 44.6289 12.6162 89.3145 10.9756 134.901c-0.824219 22.8916 -3.02832 45.791 -6.27148 68.4648c-1.55664 10.8828 -2.66504 21.917 -4.58008 32.7461c-1.05176 -4.45215 -2.00391 -8.62207 -3.12988 -11.7861
c-4.37012 -12.2959 -9.73047 -24.2412 -16.0234 -35.6719c-11.0928 -20.1445 -25.0811 -39.7314 -42.0361 -55.376c-27.4385 -25.3213 -70.293 -40.5225 -105.187 -20.4727c-32.0645 18.4248 -39.0791 60.3994 -24.9883 92.3975
c27.502 62.457 123.869 101.961 179.411 56.2871c1.08789 2.55957 2.24023 5.09668 3.50781 7.5957c3.74512 7.375 16.7783 5.82129 22.1055 1.64844c11.8223 -9.26172 16.9375 -23.1016 22.0674 -36.79c5.37109 -14.334 9.6416 -28.8545 13.29 -43.7207zM218.448 303.393
c4.7793 10.9951 8.06836 22.4395 11.7979 33.7109c-59.0391 67.0527 -193.41 -21.3369 -153.568 -102.193c10.0479 -20.3906 30.6104 -30.8896 52.9854 -26.1387c21.8887 4.64648 39.5098 20.7695 53.5312 37.3564c14.5049 17.1572 26.3066 36.6748 35.2539 57.2646z" />
    <glyph glyph-name="colon" unicode=":" horiz-adv-x="151" 
d="M66.2002 158.834c-6.15723 0.435547 -13.3408 2.73633 -14.6719 9.47168c-3.27148 16.5225 -0.93457 32.8252 3.625 48.8789c2.50586 8.82715 19.3486 9.46973 25.9795 8.41016c7.62109 -1.2207 17.3359 -5.70801 14.75 -14.8086
c-4.23145 -14.9043 -7.22656 -30.0645 -11.1201 -45.043c-1.67188 -6.44336 -13.5605 -7.2627 -18.5625 -6.90918zM94.25 47.9814c2.41113 -1.41797 7.55859 -5.58008 6.71094 -9.23535c-3.2002 -13.8242 -4.83594 -30.0576 -12.165 -42.4307
c-3.41504 -5.76758 -11.1055 -7.54199 -17.3779 -7.54199c-5.00781 0 -15.4453 1.64648 -17.3779 7.54199c-4.50293 13.7393 -1.55371 28.5928 1.08105 42.4297c1.93066 10.1504 13.8682 13.0635 22.9209 13.0635c5.29688 0 11.5615 -1.09082 16.208 -3.82715z" />
    <glyph glyph-name="semicolon" unicode=";" horiz-adv-x="178" 
d="M113.659 164.822c-3.73242 -9.31836 -30.3623 -10.7217 -33.2119 0.00195312c-4.78711 18.0273 -3.5459 38.3818 -2.13574 56.8418c1.34668 17.6211 45.3232 17.0654 44.4404 0c-0.957031 -18.4531 -2.15723 -39.5273 -9.09277 -56.8438zM79.3496 58.6445
c6.0293 17.252 55.0254 13.0283 48.0625 -7.55176c-12.877 -38.0498 -23.2783 -80.124 -43.7764 -114.851c-5.2041 -8.81934 -33.4697 -11.3184 -33.6289 2.59277c-0.233398 20.4238 5.47754 39.9854 10.6387 59.582c5.35547 20.3398 11.7686 40.377 18.7041 60.2275z" />
    <glyph glyph-name="less" unicode="&#x3c;" horiz-adv-x="309" 
d="M246.256 91.0312c9.25977 -2.85449 17.9385 -11.9893 9.58789 -20.8389c-8.62207 -9.13379 -25.5332 -8.86523 -36.5596 -5.46289c-33.2393 10.2559 -66.4785 20.5137 -99.7178 30.7695c-13.4297 4.14453 -86.4316 17.4902 -65.9717 42.4502
c9.28223 11.3252 30.2334 16.9062 43.2021 23.4033c14.4717 7.25 28.7666 14.8203 43.0107 22.5029c29.0254 15.6543 57.8721 33.1748 88.9814 44.4033c6.38184 2.30176 29.335 -0.555664 20.2773 -11.5586c-18.3145 -22.252 -46.7461 -37.7451 -71.3018 -52.1045
c-20.7031 -12.1064 -42.9219 -21.9834 -64.0498 -33.4111c18.0947 -5.8291 36.7373 -10.5908 54.7109 -16.1387z" />
    <glyph glyph-name="equal" unicode="=" horiz-adv-x="295" 
d="M61.834 169.09c-11.4463 2.01953 -17.7178 13.0322 -4.08789 17.832c24.6504 8.68359 54.4287 8.0459 80.3027 9.05469c27.2207 1.05957 54.4209 1.41016 81.6523 0.675781c7.7334 -0.207031 25.3877 -3.07422 25.1211 -14.3174
c-0.263672 -11.0342 -16.6328 -14.4697 -25.1221 -14.3184c-26.3857 0.46875 -52.79 0.789062 -79.1787 0.369141c-25.6387 -0.407227 -53.3408 -3.77344 -78.6875 0.704102zM219.702 140.368c7.73145 -0.209961 25.3887 -3.07715 25.1221 -14.3203
c-0.263672 -11.0342 -16.6328 -14.4697 -25.1221 -14.3184c-26.3857 0.46875 -52.79 0.786133 -79.1787 0.366211c-25.6387 -0.407227 -53.3408 -3.77148 -78.6875 0.703125c-11.4463 2.02246 -17.7188 13.0361 -4.08887 17.8359
c24.6504 8.68652 54.4287 8.04883 80.3027 9.05762c27.2207 1.05957 54.4209 1.41016 81.6523 0.675781z" />
    <glyph glyph-name="greater" unicode="&#x3e;" horiz-adv-x="329" 
d="M271.909 154.541c10.8828 -7.74414 7.78906 -18.5879 -5.04395 -22.3076c-30.2207 -8.7627 -60.1758 -17.7842 -89.1836 -30.1104c-28.8926 -12.2803 -55.207 -28.4443 -82.2051 -44.2373c-10.7158 -6.2666 -27.543 -6.25684 -38.2129 0
c-10.4502 6.12598 -8.89355 15.3701 0 21.7803c27.6582 19.9404 59.7764 34.9238 91.0674 48.1621c19.1309 8.09766 38.8252 15.1836 58.8809 20.9004c-5.7041 1.8125 -11.3311 3.48926 -16.2129 5.37109c-14.999 5.7832 -30.0264 11.4893 -44.9893 17.3564
c-14.8887 5.83984 -29.7139 11.8457 -44.5693 17.7666c-13.8955 5.54004 -29.3682 10.6934 -41.1855 20.002c-10.875 8.56348 12.5391 13.5889 17.5264 12.9951c17.7588 -2.10938 35.2646 -9.16699 52.1074 -14.9248c16.2969 -5.56836 32.6172 -11.0674 48.8477 -16.8193
c16.9678 -6.01367 33.9355 -12.0244 50.9004 -18.0381c14.2061 -5.03516 29.8662 -9.06738 42.2725 -17.8965z" />
    <glyph glyph-name="question" unicode="?" horiz-adv-x="286" 
d="M231.941 305.588c12.2646 -48.5488 -9.65332 -100.699 -24.123 -146.386c-16.54 -52.2197 -27.4199 -104.359 -35.3076 -158.494c-3.08203 -21.1582 -55.3887 -21.5781 -54.8408 0c1.19824 47.1836 15.3428 94.8721 30.9229 139.133
c13.9238 39.5527 30.9482 78.0527 42.207 118.506c9.1875 33.0137 18.9131 80.5459 -20.7676 97.2705c-36.0371 15.1914 -82.6221 -11.5557 -96.2744 -46.3691c-19.8252 -50.5479 41.1826 -72.5439 80.1875 -58.9375c7.69336 2.68262 22.2627 -5.46387 10.0156 -9.76465
c-39.8008 -13.9756 -114.563 -4.53418 -113.957 51.001c0.481445 43.8838 49.2217 76.0527 88.8975 79.9258c43.5439 4.25 82.3594 -23.6133 93.04 -65.8848zM156.129 -41.042c4.7998 -3.14355 9.15918 -5.63281 10.0088 -11.7744
c0.639648 -4.62305 -0.107422 -9.85352 -0.322266 -14.5049c-0.450195 -9.72266 -1.20312 -19.3994 -2.24512 -29.0742c-2.12695 -19.7402 -50.3809 -19.9248 -50.6396 0c-0.12793 9.73535 0.320312 19.3994 1.47266 29.0742
c0.581055 4.86426 1.29297 9.72559 2.3584 14.5049c1.42383 6.3877 5.14648 8.87891 10.7705 11.7744c8.03613 4.13672 20.6396 5.20703 28.5967 0z" />
    <glyph glyph-name="at" unicode="@" horiz-adv-x="461" 
d="M354.23 277.698c71.8682 -50.5889 71.2793 -164.013 24.6045 -231.05c-12.0146 -17.2549 -26.8193 -33.04 -47.707 -38.8232c-18.8262 -5.21191 -42.7705 -2.72363 -55.6807 13.4277c-12.4521 15.5781 -9.68457 38.0957 -7.80566 56.5332
c1.25977 12.3418 2.69824 24.7217 4.4668 37.0537c-13.3945 -22.4668 -25.3193 -45.9756 -43.127 -65.4443c-15.376 -16.8115 -34.5586 -25.9482 -57.7119 -20.3926c-23.9795 5.75195 -33.4365 26.2578 -30.2139 49.3828c5.87012 42.1104 26.1201 91.7285 65.4219 112.882
c25.1572 13.54 76.1914 18.7188 82.8652 -19.3926c1.1875 -6.78125 -15.0811 -5.9668 -17.5205 -1.35156c-5.09668 9.63867 -17.0498 17.7129 -27.4385 10.8779c-9.99414 -6.57422 -15.9844 -19.6816 -21.9775 -29.6299
c-14.2129 -23.5908 -26.2812 -52.5039 -27.1699 -80.3926c-0.214844 -6.79395 1.3623 -10.7949 3.33398 -16.709c0.0664062 0.0205078 0.107422 0.0410156 0.176758 0.0585938c1.26465 1.81738 9.14941 5.65527 10.5859 6.89941
c10.4756 9.06738 18.8496 21.1123 26.3379 32.6377c14.3613 22.1055 27.3379 45.2051 45.332 64.666c3.13574 3.3916 21.4551 4.66895 19.6523 -3.03418c-5.43457 -23.2373 -9.48242 -46.7842 -8.78125 -70.7158c0.481445 -16.4658 -0.942383 -45.543 13.8652 -57.1348
c14.8096 -11.5947 33.6514 17.2393 40.1074 27.4668c10.4121 16.4971 18.0693 35.0518 22.1221 54.1416c13.3662 62.9482 -11.9854 151.044 -84.4316 162.838c-66.7832 10.8721 -131.275 -49.9492 -160.596 -104.094c-33.2959 -61.4893 -41.7461 -152.975 3.2207 -211.494
c21.5352 -28.0273 55.374 -39.7266 89.9268 -34.8164c36.834 5.23535 68.4404 25.9922 97.9092 47.4219c7.2959 5.30469 35.9629 -1.10352 24.6885 -10.8594c-37.9932 -32.8789 -85.5352 -56.6436 -136.495 -57.8828c-49.9229 -1.21582 -96.8096 20.4346 -123.495 63.2998
c-48.9346 78.6084 -31.5469 186.368 23.9189 256.405c56.3877 71.2051 170.741 114.154 251.615 57.2246z" />
    <glyph glyph-name="A" unicode="A" horiz-adv-x="711" 
d="M895.929 -76.1875c75.0117 -42.1455 132.812 -120.069 109.385 -209.228c-10.7598 -40.9473 -38.377 -73.7998 -78.1777 -89.083c-47.8447 -18.3711 -103.628 -9.75391 -148.132 13.4912c-43.9531 22.958 -78.5293 60.5977 -106.8 100.649
c-29.7451 42.1406 -52.5371 89.0176 -70.5439 137.248c-5.89062 15.7822 -11.1924 31.7334 -16.1025 47.79c-53.0391 -20.4678 -101.244 -53.1924 -137.914 -96.1553c-28.9336 -33.8945 -51.5312 -76.4219 -52.376 -121.84
c-0.798828 -42.8164 17.2881 -87.5244 56.5049 -108.427c39.0967 -20.8389 89.2607 -14.3359 124.674 11.083c37.2812 26.7578 54.7383 77.2207 34.8701 119.789c-6.1748 13.2354 27.7939 16.7832 33.2109 5.21973c9.79199 -20.8975 12.0342 -43.9482 6.93945 -66.4229
c-21.7959 -96.1416 -154.07 -128.16 -231.34 -79.7041c-38.0166 23.8418 -58.5586 66.625 -59.9414 110.812c-1.47754 47.3066 19.4434 91.6152 47.7705 128.336c43.2744 56.0928 103.924 96.5332 171.073 119.627c-17.8047 63.709 -29.3711 129.12 -40.1055 194.482
c-20.8105 -7.59863 -41.5264 -15.5088 -62.5059 -22.6104c-26.8369 -67.418 -59.1729 -132.491 -99.9668 -192.859c-56.6309 -83.7998 -134.896 -171.98 -243.091 -178.193c-110.106 -6.32617 -220.134 80.6709 -194.641 198.191
c21.3613 98.4688 128.03 185.054 231.381 156.218c47.916 -13.3682 87.8984 -57.8184 75.6562 -109.956c-11.3252 -48.2334 -67.2461 -68.4453 -110.178 -49.0098c-6.04199 2.73633 -4.62598 8.7168 0 11.7041c5.98535 3.86816 14.4229 2.76953 20.5332 0
c21.4043 -9.70215 45.9297 5.89062 55.7393 24.9961c11.6562 22.6973 8.72461 51.0654 -5.00488 72.1855c-32.791 50.4502 -100.051 44.4805 -146.344 18.4219c-76.458 -43.0371 -126.873 -149.667 -79.1289 -230.953c23.9951 -40.8506 67.8252 -68.7012 114.126 -76.8164
c47.1152 -8.25879 93.1982 5.84473 132.745 31.3809c38.5693 24.9062 70.5186 59.1494 98.5332 95.1943c30.5186 39.2686 57.0146 81.6064 80.2441 125.552c16.5762 31.3555 31.4961 63.5098 45.1309 96.2119c-3.92676 -1.16211 -7.86133 -2.30664 -11.8213 -3.37402
c-34.6602 -9.33105 -73.7285 -16.8701 -108.455 -3.66504c-26.4453 10.0586 -48.5029 32.8584 -49.3711 62.2217c-0.227539 7.71582 19.5566 7.81055 19.8408 0c1.37695 -37.9238 38.4463 -57.792 72.7354 -57.4287c28.0938 0.296875 56.2871 8.25879 83.3086 17.4805
c21.4736 53.3154 39.6602 107.995 55.9082 163.077c-4.52637 24.29 -9.65918 48.4385 -16.0391 72.1699c-10.1787 37.8682 -27.4336 83.9131 -66.748 99.9258c-45.9551 18.7188 -98.1641 -16.2666 -129.399 -47.5967c-34.2275 -34.333 -68.8164 -88.6797 -53.5254 -139.033
c5.13281 -16.9014 -34.9219 -19.7197 -38.2246 -6.00586c-5.49609 22.8408 -3.17676 44.5879 4.35742 66.7139c14.6104 42.9082 45.8682 80.9707 81.7363 108.035c36.0449 27.1982 80.5713 46.9102 126.667 40.502c91.2393 -12.6846 118.601 -119.799 137.005 -194.593
c9.56934 -38.8896 17.5723 -78.752 25.332 -118.927c0.970703 0.271484 1.93359 0.571289 2.90918 0.834961c31.7012 8.59961 64.6465 12.7852 96.4189 2.30469c12.9355 -4.27051 -2.44043 -12.9258 -10.5195 -10.2578c-28.1094 9.27539 -58.0283 3.72559 -86.4648 -5.05566
c12.6875 -66.0977 25.0879 -132.855 43.0488 -197.353c89.8574 18.3379 185.961 7.14844 265.076 -37.3018zM483.718 135.323c17.708 6.35156 35.3027 13.1074 53.0283 19.4951c-2.36328 14.4922 -4.70801 28.9766 -7.08887 43.4326
c-2.76758 16.791 -5.44824 33.6748 -8.25098 50.5654c-11.6172 -38.3467 -24.3457 -76.4297 -38.6895 -113.853c0.333008 0.118164 0.667969 0.241211 1.00098 0.359375zM953.499 -315.091c47.2637 73.0068 7.53906 161.295 -56.8408 207.949
c-75.2344 54.5186 -171.005 67.5361 -259.781 47.4424c23.6621 -78.7109 56.71 -153.518 110.079 -218.96c27.1055 -33.2373 61.6914 -66.2051 104.771 -76.1914c39.3887 -9.13184 79.584 5.48828 101.771 39.7598z" />
    <glyph glyph-name="A" unicode="&#xc5;" horiz-adv-x="711" 
d="M895.929 -76.1875c75.0117 -42.1455 132.812 -120.069 109.385 -209.228c-10.7598 -40.9473 -38.377 -73.7998 -78.1777 -89.083c-47.8447 -18.3711 -103.628 -9.75391 -148.132 13.4912c-43.9531 22.958 -78.5293 60.5977 -106.8 100.649
c-29.7451 42.1406 -52.5371 89.0176 -70.5439 137.248c-5.89062 15.7822 -11.1924 31.7334 -16.1025 47.79c-53.0391 -20.4678 -101.244 -53.1924 -137.914 -96.1553c-28.9336 -33.8945 -51.5312 -76.4219 -52.376 -121.84
c-0.798828 -42.8164 17.2881 -87.5244 56.5049 -108.427c39.0967 -20.8389 89.2607 -14.3359 124.674 11.083c37.2812 26.7578 54.7383 77.2207 34.8701 119.789c-6.1748 13.2354 27.7939 16.7832 33.2109 5.21973c9.79199 -20.8975 12.0342 -43.9482 6.93945 -66.4229
c-21.7959 -96.1416 -154.07 -128.16 -231.34 -79.7041c-38.0166 23.8418 -58.5586 66.625 -59.9414 110.812c-1.47754 47.3066 19.4434 91.6152 47.7705 128.336c43.2744 56.0928 103.924 96.5332 171.073 119.627c-17.8047 63.709 -29.3711 129.12 -40.1055 194.482
c-20.8105 -7.59863 -41.5264 -15.5088 -62.5059 -22.6104c-26.8369 -67.418 -59.1729 -132.491 -99.9668 -192.859c-56.6309 -83.7998 -134.896 -171.98 -243.091 -178.193c-110.106 -6.32617 -220.134 80.6709 -194.641 198.191
c21.3613 98.4688 128.03 185.054 231.381 156.218c47.916 -13.3682 87.8984 -57.8184 75.6562 -109.956c-11.3252 -48.2334 -67.2461 -68.4453 -110.178 -49.0098c-6.04199 2.73633 -4.62598 8.7168 0 11.7041c5.98535 3.86816 14.4229 2.76953 20.5332 0
c21.4043 -9.70215 45.9297 5.89062 55.7393 24.9961c11.6562 22.6973 8.72461 51.0654 -5.00488 72.1855c-32.791 50.4502 -100.051 44.4805 -146.344 18.4219c-76.458 -43.0371 -126.873 -149.667 -79.1289 -230.953c23.9951 -40.8506 67.8252 -68.7012 114.126 -76.8164
c47.1152 -8.25879 93.1982 5.84473 132.745 31.3809c38.5693 24.9062 70.5186 59.1494 98.5332 95.1943c30.5186 39.2686 57.0146 81.6064 80.2441 125.552c16.5762 31.3555 31.4961 63.5098 45.1309 96.2119c-3.92676 -1.16211 -7.86133 -2.30664 -11.8213 -3.37402
c-34.6602 -9.33105 -73.7285 -16.8701 -108.455 -3.66504c-26.4453 10.0586 -48.5029 32.8584 -49.3711 62.2217c-0.227539 7.71582 19.5566 7.81055 19.8408 0c1.37695 -37.9238 38.4463 -57.792 72.7354 -57.4287c28.0938 0.296875 56.2871 8.25879 83.3086 17.4805
c21.4736 53.3154 39.6602 107.995 55.9082 163.077c-4.52637 24.29 -9.65918 48.4385 -16.0391 72.1699c-10.1787 37.8682 -27.4336 83.9131 -66.748 99.9258c-45.9551 18.7188 -98.1641 -16.2666 -129.399 -47.5967c-34.2275 -34.333 -68.8164 -88.6797 -53.5254 -139.033
c5.13281 -16.9014 -34.9219 -19.7197 -38.2246 -6.00586c-5.49609 22.8408 -3.17676 44.5879 4.35742 66.7139c14.6104 42.9082 45.8682 80.9707 81.7363 108.035c36.0449 27.1982 80.5713 46.9102 126.667 40.502c91.2393 -12.6846 118.601 -119.799 137.005 -194.593
c9.56934 -38.8896 17.5723 -78.752 25.332 -118.927c0.970703 0.271484 1.93359 0.571289 2.90918 0.834961c31.7012 8.59961 64.6465 12.7852 96.4189 2.30469c12.9355 -4.27051 -2.44043 -12.9258 -10.5195 -10.2578c-28.1094 9.27539 -58.0283 3.72559 -86.4648 -5.05566
c12.6875 -66.0977 25.0879 -132.855 43.0488 -197.353c89.8574 18.3379 185.961 7.14844 265.076 -37.3018zM483.718 135.323c17.708 6.35156 35.3027 13.1074 53.0283 19.4951c-2.36328 14.4922 -4.70801 28.9766 -7.08887 43.4326
c-2.76758 16.791 -5.44824 33.6748 -8.25098 50.5654c-11.6172 -38.3467 -24.3457 -76.4297 -38.6895 -113.853c0.333008 0.118164 0.667969 0.241211 1.00098 0.359375zM953.499 -315.091c47.2637 73.0068 7.53906 161.295 -56.8408 207.949
c-75.2344 54.5186 -171.005 67.5361 -259.781 47.4424c23.6621 -78.7109 56.71 -153.518 110.079 -218.96c27.1055 -33.2373 61.6914 -66.2051 104.771 -76.1914c39.3887 -9.13184 79.584 5.48828 101.771 39.7598z" />
    <glyph glyph-name="A" unicode="&#xc4;" horiz-adv-x="711" 
d="M895.929 -76.1875c75.0117 -42.1455 132.812 -120.069 109.385 -209.228c-10.7598 -40.9473 -38.377 -73.7998 -78.1777 -89.083c-47.8447 -18.3711 -103.628 -9.75391 -148.132 13.4912c-43.9531 22.958 -78.5293 60.5977 -106.8 100.649
c-29.7451 42.1406 -52.5371 89.0176 -70.5439 137.248c-5.89062 15.7822 -11.1924 31.7334 -16.1025 47.79c-53.0391 -20.4678 -101.244 -53.1924 -137.914 -96.1553c-28.9336 -33.8945 -51.5312 -76.4219 -52.376 -121.84
c-0.798828 -42.8164 17.2881 -87.5244 56.5049 -108.427c39.0967 -20.8389 89.2607 -14.3359 124.674 11.083c37.2812 26.7578 54.7383 77.2207 34.8701 119.789c-6.1748 13.2354 27.7939 16.7832 33.2109 5.21973c9.79199 -20.8975 12.0342 -43.9482 6.93945 -66.4229
c-21.7959 -96.1416 -154.07 -128.16 -231.34 -79.7041c-38.0166 23.8418 -58.5586 66.625 -59.9414 110.812c-1.47754 47.3066 19.4434 91.6152 47.7705 128.336c43.2744 56.0928 103.924 96.5332 171.073 119.627c-17.8047 63.709 -29.3711 129.12 -40.1055 194.482
c-20.8105 -7.59863 -41.5264 -15.5088 -62.5059 -22.6104c-26.8369 -67.418 -59.1729 -132.491 -99.9668 -192.859c-56.6309 -83.7998 -134.896 -171.98 -243.091 -178.193c-110.106 -6.32617 -220.134 80.6709 -194.641 198.191
c21.3613 98.4688 128.03 185.054 231.381 156.218c47.916 -13.3682 87.8984 -57.8184 75.6562 -109.956c-11.3252 -48.2334 -67.2461 -68.4453 -110.178 -49.0098c-6.04199 2.73633 -4.62598 8.7168 0 11.7041c5.98535 3.86816 14.4229 2.76953 20.5332 0
c21.4043 -9.70215 45.9297 5.89062 55.7393 24.9961c11.6562 22.6973 8.72461 51.0654 -5.00488 72.1855c-32.791 50.4502 -100.051 44.4805 -146.344 18.4219c-76.458 -43.0371 -126.873 -149.667 -79.1289 -230.953c23.9951 -40.8506 67.8252 -68.7012 114.126 -76.8164
c47.1152 -8.25879 93.1982 5.84473 132.745 31.3809c38.5693 24.9062 70.5186 59.1494 98.5332 95.1943c30.5186 39.2686 57.0146 81.6064 80.2441 125.552c16.5762 31.3555 31.4961 63.5098 45.1309 96.2119c-3.92676 -1.16211 -7.86133 -2.30664 -11.8213 -3.37402
c-34.6602 -9.33105 -73.7285 -16.8701 -108.455 -3.66504c-26.4453 10.0586 -48.5029 32.8584 -49.3711 62.2217c-0.227539 7.71582 19.5566 7.81055 19.8408 0c1.37695 -37.9238 38.4463 -57.792 72.7354 -57.4287c28.0938 0.296875 56.2871 8.25879 83.3086 17.4805
c21.4736 53.3154 39.6602 107.995 55.9082 163.077c-4.52637 24.29 -9.65918 48.4385 -16.0391 72.1699c-10.1787 37.8682 -27.4336 83.9131 -66.748 99.9258c-45.9551 18.7188 -98.1641 -16.2666 -129.399 -47.5967c-34.2275 -34.333 -68.8164 -88.6797 -53.5254 -139.033
c5.13281 -16.9014 -34.9219 -19.7197 -38.2246 -6.00586c-5.49609 22.8408 -3.17676 44.5879 4.35742 66.7139c14.6104 42.9082 45.8682 80.9707 81.7363 108.035c36.0449 27.1982 80.5713 46.9102 126.667 40.502c91.2393 -12.6846 118.601 -119.799 137.005 -194.593
c9.56934 -38.8896 17.5723 -78.752 25.332 -118.927c0.970703 0.271484 1.93359 0.571289 2.90918 0.834961c31.7012 8.59961 64.6465 12.7852 96.4189 2.30469c12.9355 -4.27051 -2.44043 -12.9258 -10.5195 -10.2578c-28.1094 9.27539 -58.0283 3.72559 -86.4648 -5.05566
c12.6875 -66.0977 25.0879 -132.855 43.0488 -197.353c89.8574 18.3379 185.961 7.14844 265.076 -37.3018zM483.718 135.323c17.708 6.35156 35.3027 13.1074 53.0283 19.4951c-2.36328 14.4922 -4.70801 28.9766 -7.08887 43.4326
c-2.76758 16.791 -5.44824 33.6748 -8.25098 50.5654c-11.6172 -38.3467 -24.3457 -76.4297 -38.6895 -113.853c0.333008 0.118164 0.667969 0.241211 1.00098 0.359375zM953.499 -315.091c47.2637 73.0068 7.53906 161.295 -56.8408 207.949
c-75.2344 54.5186 -171.005 67.5361 -259.781 47.4424c23.6621 -78.7109 56.71 -153.518 110.079 -218.96c27.1055 -33.2373 61.6914 -66.2051 104.771 -76.1914c39.3887 -9.13184 79.584 5.48828 101.771 39.7598z" />
    <glyph glyph-name="A" unicode="&#xc3;" horiz-adv-x="711" 
d="M895.929 -76.1875c75.0117 -42.1455 132.812 -120.069 109.385 -209.228c-10.7598 -40.9473 -38.377 -73.7998 -78.1777 -89.083c-47.8447 -18.3711 -103.628 -9.75391 -148.132 13.4912c-43.9531 22.958 -78.5293 60.5977 -106.8 100.649
c-29.7451 42.1406 -52.5371 89.0176 -70.5439 137.248c-5.89062 15.7822 -11.1924 31.7334 -16.1025 47.79c-53.0391 -20.4678 -101.244 -53.1924 -137.914 -96.1553c-28.9336 -33.8945 -51.5312 -76.4219 -52.376 -121.84
c-0.798828 -42.8164 17.2881 -87.5244 56.5049 -108.427c39.0967 -20.8389 89.2607 -14.3359 124.674 11.083c37.2812 26.7578 54.7383 77.2207 34.8701 119.789c-6.1748 13.2354 27.7939 16.7832 33.2109 5.21973c9.79199 -20.8975 12.0342 -43.9482 6.93945 -66.4229
c-21.7959 -96.1416 -154.07 -128.16 -231.34 -79.7041c-38.0166 23.8418 -58.5586 66.625 -59.9414 110.812c-1.47754 47.3066 19.4434 91.6152 47.7705 128.336c43.2744 56.0928 103.924 96.5332 171.073 119.627c-17.8047 63.709 -29.3711 129.12 -40.1055 194.482
c-20.8105 -7.59863 -41.5264 -15.5088 -62.5059 -22.6104c-26.8369 -67.418 -59.1729 -132.491 -99.9668 -192.859c-56.6309 -83.7998 -134.896 -171.98 -243.091 -178.193c-110.106 -6.32617 -220.134 80.6709 -194.641 198.191
c21.3613 98.4688 128.03 185.054 231.381 156.218c47.916 -13.3682 87.8984 -57.8184 75.6562 -109.956c-11.3252 -48.2334 -67.2461 -68.4453 -110.178 -49.0098c-6.04199 2.73633 -4.62598 8.7168 0 11.7041c5.98535 3.86816 14.4229 2.76953 20.5332 0
c21.4043 -9.70215 45.9297 5.89062 55.7393 24.9961c11.6562 22.6973 8.72461 51.0654 -5.00488 72.1855c-32.791 50.4502 -100.051 44.4805 -146.344 18.4219c-76.458 -43.0371 -126.873 -149.667 -79.1289 -230.953c23.9951 -40.8506 67.8252 -68.7012 114.126 -76.8164
c47.1152 -8.25879 93.1982 5.84473 132.745 31.3809c38.5693 24.9062 70.5186 59.1494 98.5332 95.1943c30.5186 39.2686 57.0146 81.6064 80.2441 125.552c16.5762 31.3555 31.4961 63.5098 45.1309 96.2119c-3.92676 -1.16211 -7.86133 -2.30664 -11.8213 -3.37402
c-34.6602 -9.33105 -73.7285 -16.8701 -108.455 -3.66504c-26.4453 10.0586 -48.5029 32.8584 -49.3711 62.2217c-0.227539 7.71582 19.5566 7.81055 19.8408 0c1.37695 -37.9238 38.4463 -57.792 72.7354 -57.4287c28.0938 0.296875 56.2871 8.25879 83.3086 17.4805
c21.4736 53.3154 39.6602 107.995 55.9082 163.077c-4.52637 24.29 -9.65918 48.4385 -16.0391 72.1699c-10.1787 37.8682 -27.4336 83.9131 -66.748 99.9258c-45.9551 18.7188 -98.1641 -16.2666 -129.399 -47.5967c-34.2275 -34.333 -68.8164 -88.6797 -53.5254 -139.033
c5.13281 -16.9014 -34.9219 -19.7197 -38.2246 -6.00586c-5.49609 22.8408 -3.17676 44.5879 4.35742 66.7139c14.6104 42.9082 45.8682 80.9707 81.7363 108.035c36.0449 27.1982 80.5713 46.9102 126.667 40.502c91.2393 -12.6846 118.601 -119.799 137.005 -194.593
c9.56934 -38.8896 17.5723 -78.752 25.332 -118.927c0.970703 0.271484 1.93359 0.571289 2.90918 0.834961c31.7012 8.59961 64.6465 12.7852 96.4189 2.30469c12.9355 -4.27051 -2.44043 -12.9258 -10.5195 -10.2578c-28.1094 9.27539 -58.0283 3.72559 -86.4648 -5.05566
c12.6875 -66.0977 25.0879 -132.855 43.0488 -197.353c89.8574 18.3379 185.961 7.14844 265.076 -37.3018zM483.718 135.323c17.708 6.35156 35.3027 13.1074 53.0283 19.4951c-2.36328 14.4922 -4.70801 28.9766 -7.08887 43.4326
c-2.76758 16.791 -5.44824 33.6748 -8.25098 50.5654c-11.6172 -38.3467 -24.3457 -76.4297 -38.6895 -113.853c0.333008 0.118164 0.667969 0.241211 1.00098 0.359375zM953.499 -315.091c47.2637 73.0068 7.53906 161.295 -56.8408 207.949
c-75.2344 54.5186 -171.005 67.5361 -259.781 47.4424c23.6621 -78.7109 56.71 -153.518 110.079 -218.96c27.1055 -33.2373 61.6914 -66.2051 104.771 -76.1914c39.3887 -9.13184 79.584 5.48828 101.771 39.7598z" />
    <glyph glyph-name="A" unicode="&#xc2;" horiz-adv-x="711" 
d="M895.929 -76.1875c75.0117 -42.1455 132.812 -120.069 109.385 -209.228c-10.7598 -40.9473 -38.377 -73.7998 -78.1777 -89.083c-47.8447 -18.3711 -103.628 -9.75391 -148.132 13.4912c-43.9531 22.958 -78.5293 60.5977 -106.8 100.649
c-29.7451 42.1406 -52.5371 89.0176 -70.5439 137.248c-5.89062 15.7822 -11.1924 31.7334 -16.1025 47.79c-53.0391 -20.4678 -101.244 -53.1924 -137.914 -96.1553c-28.9336 -33.8945 -51.5312 -76.4219 -52.376 -121.84
c-0.798828 -42.8164 17.2881 -87.5244 56.5049 -108.427c39.0967 -20.8389 89.2607 -14.3359 124.674 11.083c37.2812 26.7578 54.7383 77.2207 34.8701 119.789c-6.1748 13.2354 27.7939 16.7832 33.2109 5.21973c9.79199 -20.8975 12.0342 -43.9482 6.93945 -66.4229
c-21.7959 -96.1416 -154.07 -128.16 -231.34 -79.7041c-38.0166 23.8418 -58.5586 66.625 -59.9414 110.812c-1.47754 47.3066 19.4434 91.6152 47.7705 128.336c43.2744 56.0928 103.924 96.5332 171.073 119.627c-17.8047 63.709 -29.3711 129.12 -40.1055 194.482
c-20.8105 -7.59863 -41.5264 -15.5088 -62.5059 -22.6104c-26.8369 -67.418 -59.1729 -132.491 -99.9668 -192.859c-56.6309 -83.7998 -134.896 -171.98 -243.091 -178.193c-110.106 -6.32617 -220.134 80.6709 -194.641 198.191
c21.3613 98.4688 128.03 185.054 231.381 156.218c47.916 -13.3682 87.8984 -57.8184 75.6562 -109.956c-11.3252 -48.2334 -67.2461 -68.4453 -110.178 -49.0098c-6.04199 2.73633 -4.62598 8.7168 0 11.7041c5.98535 3.86816 14.4229 2.76953 20.5332 0
c21.4043 -9.70215 45.9297 5.89062 55.7393 24.9961c11.6562 22.6973 8.72461 51.0654 -5.00488 72.1855c-32.791 50.4502 -100.051 44.4805 -146.344 18.4219c-76.458 -43.0371 -126.873 -149.667 -79.1289 -230.953c23.9951 -40.8506 67.8252 -68.7012 114.126 -76.8164
c47.1152 -8.25879 93.1982 5.84473 132.745 31.3809c38.5693 24.9062 70.5186 59.1494 98.5332 95.1943c30.5186 39.2686 57.0146 81.6064 80.2441 125.552c16.5762 31.3555 31.4961 63.5098 45.1309 96.2119c-3.92676 -1.16211 -7.86133 -2.30664 -11.8213 -3.37402
c-34.6602 -9.33105 -73.7285 -16.8701 -108.455 -3.66504c-26.4453 10.0586 -48.5029 32.8584 -49.3711 62.2217c-0.227539 7.71582 19.5566 7.81055 19.8408 0c1.37695 -37.9238 38.4463 -57.792 72.7354 -57.4287c28.0938 0.296875 56.2871 8.25879 83.3086 17.4805
c21.4736 53.3154 39.6602 107.995 55.9082 163.077c-4.52637 24.29 -9.65918 48.4385 -16.0391 72.1699c-10.1787 37.8682 -27.4336 83.9131 -66.748 99.9258c-45.9551 18.7188 -98.1641 -16.2666 -129.399 -47.5967c-34.2275 -34.333 -68.8164 -88.6797 -53.5254 -139.033
c5.13281 -16.9014 -34.9219 -19.7197 -38.2246 -6.00586c-5.49609 22.8408 -3.17676 44.5879 4.35742 66.7139c14.6104 42.9082 45.8682 80.9707 81.7363 108.035c36.0449 27.1982 80.5713 46.9102 126.667 40.502c91.2393 -12.6846 118.601 -119.799 137.005 -194.593
c9.56934 -38.8896 17.5723 -78.752 25.332 -118.927c0.970703 0.271484 1.93359 0.571289 2.90918 0.834961c31.7012 8.59961 64.6465 12.7852 96.4189 2.30469c12.9355 -4.27051 -2.44043 -12.9258 -10.5195 -10.2578c-28.1094 9.27539 -58.0283 3.72559 -86.4648 -5.05566
c12.6875 -66.0977 25.0879 -132.855 43.0488 -197.353c89.8574 18.3379 185.961 7.14844 265.076 -37.3018zM483.718 135.323c17.708 6.35156 35.3027 13.1074 53.0283 19.4951c-2.36328 14.4922 -4.70801 28.9766 -7.08887 43.4326
c-2.76758 16.791 -5.44824 33.6748 -8.25098 50.5654c-11.6172 -38.3467 -24.3457 -76.4297 -38.6895 -113.853c0.333008 0.118164 0.667969 0.241211 1.00098 0.359375zM953.499 -315.091c47.2637 73.0068 7.53906 161.295 -56.8408 207.949
c-75.2344 54.5186 -171.005 67.5361 -259.781 47.4424c23.6621 -78.7109 56.71 -153.518 110.079 -218.96c27.1055 -33.2373 61.6914 -66.2051 104.771 -76.1914c39.3887 -9.13184 79.584 5.48828 101.771 39.7598z" />
    <glyph glyph-name="A" unicode="&#xc1;" horiz-adv-x="711" 
d="M895.929 -76.1875c75.0117 -42.1455 132.812 -120.069 109.385 -209.228c-10.7598 -40.9473 -38.377 -73.7998 -78.1777 -89.083c-47.8447 -18.3711 -103.628 -9.75391 -148.132 13.4912c-43.9531 22.958 -78.5293 60.5977 -106.8 100.649
c-29.7451 42.1406 -52.5371 89.0176 -70.5439 137.248c-5.89062 15.7822 -11.1924 31.7334 -16.1025 47.79c-53.0391 -20.4678 -101.244 -53.1924 -137.914 -96.1553c-28.9336 -33.8945 -51.5312 -76.4219 -52.376 -121.84
c-0.798828 -42.8164 17.2881 -87.5244 56.5049 -108.427c39.0967 -20.8389 89.2607 -14.3359 124.674 11.083c37.2812 26.7578 54.7383 77.2207 34.8701 119.789c-6.1748 13.2354 27.7939 16.7832 33.2109 5.21973c9.79199 -20.8975 12.0342 -43.9482 6.93945 -66.4229
c-21.7959 -96.1416 -154.07 -128.16 -231.34 -79.7041c-38.0166 23.8418 -58.5586 66.625 -59.9414 110.812c-1.47754 47.3066 19.4434 91.6152 47.7705 128.336c43.2744 56.0928 103.924 96.5332 171.073 119.627c-17.8047 63.709 -29.3711 129.12 -40.1055 194.482
c-20.8105 -7.59863 -41.5264 -15.5088 -62.5059 -22.6104c-26.8369 -67.418 -59.1729 -132.491 -99.9668 -192.859c-56.6309 -83.7998 -134.896 -171.98 -243.091 -178.193c-110.106 -6.32617 -220.134 80.6709 -194.641 198.191
c21.3613 98.4688 128.03 185.054 231.381 156.218c47.916 -13.3682 87.8984 -57.8184 75.6562 -109.956c-11.3252 -48.2334 -67.2461 -68.4453 -110.178 -49.0098c-6.04199 2.73633 -4.62598 8.7168 0 11.7041c5.98535 3.86816 14.4229 2.76953 20.5332 0
c21.4043 -9.70215 45.9297 5.89062 55.7393 24.9961c11.6562 22.6973 8.72461 51.0654 -5.00488 72.1855c-32.791 50.4502 -100.051 44.4805 -146.344 18.4219c-76.458 -43.0371 -126.873 -149.667 -79.1289 -230.953c23.9951 -40.8506 67.8252 -68.7012 114.126 -76.8164
c47.1152 -8.25879 93.1982 5.84473 132.745 31.3809c38.5693 24.9062 70.5186 59.1494 98.5332 95.1943c30.5186 39.2686 57.0146 81.6064 80.2441 125.552c16.5762 31.3555 31.4961 63.5098 45.1309 96.2119c-3.92676 -1.16211 -7.86133 -2.30664 -11.8213 -3.37402
c-34.6602 -9.33105 -73.7285 -16.8701 -108.455 -3.66504c-26.4453 10.0586 -48.5029 32.8584 -49.3711 62.2217c-0.227539 7.71582 19.5566 7.81055 19.8408 0c1.37695 -37.9238 38.4463 -57.792 72.7354 -57.4287c28.0938 0.296875 56.2871 8.25879 83.3086 17.4805
c21.4736 53.3154 39.6602 107.995 55.9082 163.077c-4.52637 24.29 -9.65918 48.4385 -16.0391 72.1699c-10.1787 37.8682 -27.4336 83.9131 -66.748 99.9258c-45.9551 18.7188 -98.1641 -16.2666 -129.399 -47.5967c-34.2275 -34.333 -68.8164 -88.6797 -53.5254 -139.033
c5.13281 -16.9014 -34.9219 -19.7197 -38.2246 -6.00586c-5.49609 22.8408 -3.17676 44.5879 4.35742 66.7139c14.6104 42.9082 45.8682 80.9707 81.7363 108.035c36.0449 27.1982 80.5713 46.9102 126.667 40.502c91.2393 -12.6846 118.601 -119.799 137.005 -194.593
c9.56934 -38.8896 17.5723 -78.752 25.332 -118.927c0.970703 0.271484 1.93359 0.571289 2.90918 0.834961c31.7012 8.59961 64.6465 12.7852 96.4189 2.30469c12.9355 -4.27051 -2.44043 -12.9258 -10.5195 -10.2578c-28.1094 9.27539 -58.0283 3.72559 -86.4648 -5.05566
c12.6875 -66.0977 25.0879 -132.855 43.0488 -197.353c89.8574 18.3379 185.961 7.14844 265.076 -37.3018zM483.718 135.323c17.708 6.35156 35.3027 13.1074 53.0283 19.4951c-2.36328 14.4922 -4.70801 28.9766 -7.08887 43.4326
c-2.76758 16.791 -5.44824 33.6748 -8.25098 50.5654c-11.6172 -38.3467 -24.3457 -76.4297 -38.6895 -113.853c0.333008 0.118164 0.667969 0.241211 1.00098 0.359375zM953.499 -315.091c47.2637 73.0068 7.53906 161.295 -56.8408 207.949
c-75.2344 54.5186 -171.005 67.5361 -259.781 47.4424c23.6621 -78.7109 56.71 -153.518 110.079 -218.96c27.1055 -33.2373 61.6914 -66.2051 104.771 -76.1914c39.3887 -9.13184 79.584 5.48828 101.771 39.7598z" />
    <glyph glyph-name="B" unicode="B" 
d="M649.525 -169.948c-29.0791 -39.7725 -72.6621 -62 -120.176 -71.3799c-49.6699 -9.80273 -104.7 4.67188 -145.963 33.165c-40.7988 28.1709 -65.7744 67.4746 -80.1025 113.602c-37.5176 -27.4229 -70.3164 -61.0586 -95.1738 -99.4082
c-24.4199 -37.6738 -43.8018 -81.9756 -43.5176 -127.593c0.287109 -46.3496 26.2178 -87.3789 74.6611 -93.5664c45.0615 -5.75488 98.5684 14.5127 128.072 49.0527c15.6621 18.335 24.7197 43.5361 20.7979 67.6768c-3.85254 23.7285 -24.3994 47.1602 -49.7051 47.0527
c-13.8447 -0.0566406 -13.6377 12.541 0 12.9043c20.8359 0.555664 41.0449 -7.33691 54.7695 -23.3066c32.5205 -37.8428 16.4463 -91.6211 -17.9268 -122.157c-33.7051 -29.9424 -83.0186 -46.5771 -127.937 -44.6318c-43.2871 1.87695 -84.1455 23.5293 -98.5459 66.4277
c-14.3359 42.7119 -3.09961 89.9219 14.9609 129.664c28.6826 63.1094 77.4053 115.429 134.957 154.211c-29.2666 115.975 -13.5508 237.205 -8.58984 355.046c2.47852 58.8418 6.07031 122.494 -8.71387 180.077c-12.874 50.1406 -47.8975 97.4961 -104.331 96.9766
c-54.9199 -0.503906 -99.9248 -40.4043 -131.992 -81.2705c-33.5078 -42.7012 -57.3623 -95.9014 -49.3467 -151.188c7.61133 -52.4932 46.6035 -90.9648 97.8633 -101.955c52.3398 -11.2207 103.976 11.6943 145.404 42.2383
c5.81641 4.28809 16.6611 3.6582 22.874 0.775391c4.41895 -2.05078 10.3711 -8.33594 4.48828 -12.8105c-19.3535 -14.7129 -39.749 -26.9141 -62.2949 -36.1074c-44.3701 -18.0947 -96.3027 -22.8311 -141.892 -6.26758
c-42.9268 15.5928 -79.2822 48.5684 -91.6494 93.415c-13.2324 47.9824 -1.4668 97.6338 22.6201 140.128c23.4473 41.3623 57.1113 80.4697 98.2764 104.908c41.5771 24.6865 95.2354 33.4287 140.594 13.8525c43.1465 -18.624 72.8682 -60.1377 87.4453 -103.628
c17.4951 -52.1963 19.333 -109.781 19.4102 -164.351c0.0488281 -34.2656 -1.2334 -68.4883 -2.48242 -102.713c4.71289 15.6826 10.0684 31.1738 16.0488 46.4473c21.4199 54.708 50.6201 106.82 87.2051 152.857c30.541 38.4287 76.248 80.1748 128.815 79.3301
c25.5771 -0.40918 47.5293 -15.7744 44.5928 -43.4814c-2.875 -27.1182 -18.0586 -52.877 -33.6309 -74.6143c-16.2949 -22.748 -35.2852 -43.502 -56.2852 -62.001c46.4854 -0.202148 93.8457 -11.8604 133.214 -29.5293
c26.8057 -12.0322 53.4834 -29.5791 67.5537 -56.252c14.8994 -28.2393 10.6016 -63.6064 -5.33691 -90.4307c-34.4092 -57.9102 -111.107 -85.9473 -174.891 -92.4297c-51.6123 -5.24512 -163.127 -2.80078 -146.251 77.2998
c6.60742 31.3633 31.4453 58.9453 54.7061 79.7178c24.8857 22.2236 55.7676 44.6621 90.7578 40.3994c5.44727 -0.666016 14.3916 -4.76465 11.6777 -11.7256c-2.7959 -7.16797 -14.4385 -7.23438 -20.5674 -6.65625c-12.4336 1.17773 -30.5537 -15.2783 -39.4297 -22.5254
c-11.0723 -9.03906 -21.335 -19.1074 -30.4307 -30.1387c-17.1572 -20.8076 -37.2129 -51.4512 -24.4023 -79.1895c10.1533 -21.9834 38.6768 -23.0127 59.6738 -23.1201c25.6436 -0.130859 50.9902 4.21094 75.1855 12.6797
c42.125 14.7461 91.2695 44.3984 100.575 91.8818c10.3506 52.8164 -35.8066 80.8818 -79.2686 94.9541c-45.876 14.8535 -101.147 18.8701 -144.558 -5.19922c-11.3613 -6.21582 -28.1963 -6.62012 -39.4863 0c-10.1787 5.96973 -9.96094 16.4912 0 22.5068
c6.52246 3.93945 13.291 7.40527 20.252 10.4463c43.0342 23.8594 79.9062 55.5195 111.494 93.8867c15.084 18.3223 35.6133 43.4131 38.1992 68.002c3.30762 31.4629 -35.7305 15.8105 -50.5098 8.11035c-43.8887 -22.8662 -75.3535 -66.4023 -101.354 -107.174
c-27.6455 -43.3545 -50.1123 -89.8672 -66.4453 -138.641c-8.42285 -25.1494 -15.4736 -50.8115 -20.7119 -76.8135c-5.29199 -26.2764 -10.1455 -53.2256 -6.16699 -80.0059c0.168945 -1.13672 -0.186523 -2.08691 -0.84668 -2.88574
c1.6875 -28.5166 4.83594 -56.9277 10.1943 -84.9912c11.5635 5.91895 23.332 11.3408 35.2383 16.2305c50.0566 20.5498 104.831 32.001 159.062 30.2041c39.6826 -1.31348 85.5508 -11.5488 113.007 -42.5742c32.1436 -36.3213 23.0068 -86.8379 -3.7373 -123.416z
M532.856 -222.033c47.7773 8.3916 93.5566 40.5703 111.8 86.3438c18.4189 46.2158 -2.58105 90.2998 -48.083 108.123c-45.2256 17.7129 -98.2949 12.7285 -144.529 1.87109c-35.4541 -8.32227 -70.2939 -21.8389 -102.906 -39.7178
c9.91016 -42.6602 27.8428 -85.3076 59.4414 -116.103c31.9082 -31.1016 79.8477 -48.3203 124.277 -40.5176z" />
    <glyph glyph-name="C" unicode="C" horiz-adv-x="579" 
d="M80.1387 -96.8076c-16.5273 57.5059 -16.2021 119.84 -9.80957 178.899c2.74707 25.3857 6.95801 50.6582 12.5488 75.626c-13.4346 3.03906 -26.6035 7.55469 -39.2939 13.7861c-49.8643 24.4785 -78.1807 72.7891 -77.5742 128.055
c0.606445 55.2559 24.3789 109.519 56.7705 153.413c31.6494 42.8906 78.3057 88.8711 133.116 97.3887c5.38672 0.834961 16.5967 0.195312 19.0928 -6.17871c2.54688 -6.50977 -5.73438 -10.1172 -10.8389 -10.8828c-24.8779 -3.72461 -46.3945 -19.2559 -65.249 -35.0771
c-37.2002 -31.2168 -66.3896 -71.1045 -84.9316 -115.992c-18.4502 -44.6621 -27.2744 -98.6533 -5.63184 -143.863c15.3223 -32 45.2207 -53.7061 78.6875 -63.252c6.88379 27.3975 15.4238 54.375 25.582 80.6641c21.374 55.3271 49.3477 108.448 83.6162 156.884
c33.3701 47.1611 71.1484 91.9746 119.718 124.108c39.7471 26.2969 110.217 55.1357 150.286 13.6221c37.9297 -39.2969 16.5508 -112.411 -2.9082 -155.245c-46.6689 -102.731 -142.261 -189.642 -248.666 -226.762
c-25.1699 -8.78125 -51.7686 -14.3643 -78.3418 -15.3701c-7.44727 -34.0762 -12.2295 -68.7266 -14.1035 -103.573c-2.69824 -50.1357 -1.23438 -102.521 14.9043 -150.488c28.5801 -84.957 114.055 -142.095 203.863 -130.444
c48.5664 6.2998 94.4707 29.2686 130.9 61.666c35.3516 31.4395 66.6865 76.6953 60.7754 126.288c-5.85742 49.1553 -48.4229 84.709 -94.5371 95.5811c-46.667 11.0029 -97.0098 -1.49512 -136.381 -27.8428c-33.8975 -22.6846 -85.4902 -75.5361 -58.9277 -120.07
c11.5742 -19.4053 36.5088 -26.5479 57.7881 -22.6289c26.4814 4.87988 49.3096 22.3574 70.2432 38.2422c3.87305 2.94141 9.625 3.95996 14.2559 2.13184c2.85449 -1.12598 7.76953 -5.05273 3.7373 -8.125c-21.5273 -16.3994 -43.835 -33.04 -70.1416 -40.8301
c-41.5752 -12.3135 -102.007 2.87793 -103.983 54.6445c-1.96875 51.6328 49.7539 96.3564 91.3232 117.933c48.1562 24.9961 104.94 32.6123 157.58 18.3193c51.5205 -13.9902 97.3037 -56.1338 102.316 -111.392c5.04883 -55.6475 -32.6602 -106.674 -73.2441 -140.518
c-43.4131 -36.2041 -97.4424 -60.1738 -153.843 -65.9727c-109.354 -11.2383 -226.932 46.7236 -258.699 157.256zM288.696 464.221c-64.9297 -75.6973 -112.041 -169.051 -140.375 -264.299c-2.93848 -9.88477 -5.58008 -19.8506 -8.05078 -29.8604
c46.5596 3.22266 91.6416 23.3955 130.858 47.5498c41.6211 25.6309 78.4697 58.7783 109.369 96.5977c32.5742 39.8701 61.2109 86.7158 71.7891 137.673c4.58203 22.0781 7.55469 48.4746 -0.701172 70.0557c-9.07227 23.7158 -29.0352 32.0791 -52.7158 25.0674
c-43.8428 -12.9844 -81.1787 -48.9785 -110.174 -82.7842z" />
    <glyph glyph-name="D" unicode="D" horiz-adv-x="934" 
d="M822.728 456.85c79.5479 -90.5635 89.4385 -228.081 69.957 -341.733c-18.7959 -109.605 -63.0586 -216.382 -135.546 -301.49c-75.3848 -88.5049 -183.26 -144.104 -299.229 -153.517c-60.9697 -4.94824 -125.948 -0.140625 -181.839 26.5322
c-50.5146 24.1074 -84.2715 71.2734 -100.477 123.877c-33.1631 107.651 -1.11426 232.228 82.0273 308.79c37.1328 34.1943 85.0723 61.2031 135.961 75.1299c1.3877 34.8828 1.75879 69.7842 -0.104492 104.726c-4.56152 85.5771 -15.3369 201.508 -103.604 243.364
c-87.6094 41.542 -184.962 -4.62793 -239.649 -76.6367c-56.2461 -74.0645 -90.0918 -191.975 -28.6406 -272.7c28.3623 -37.2559 74.3887 -55.1885 120.367 -47.373c44.752 7.60547 90.9609 35.0264 110.156 77.4209c5.08203 11.2256 37.6025 7.75391 31.8604 -5.00781
c-23.4707 -52.1738 -82.8174 -83.4365 -137.399 -91.1963c-57.8311 -8.2207 -112.304 10.457 -146.765 58.3477c-63.3047 87.9775 -26.0254 213.147 36.0449 291.18c60.1914 75.6719 164.5 117.08 257.708 79.0068c99.6797 -40.7148 134.396 -153.356 144.468 -251.457
c3.43555 -33.4414 4.91797 -66.9521 5.30957 -100.501c12.585 1.17969 25.1934 1.48926 37.7197 0.823242c20.624 67.6357 45.5869 133.861 78.5322 196.342c25.1982 47.791 60.959 94.7061 115.858 108.794c53.9658 13.8477 111.644 -12.1445 147.284 -52.7207z
M476.872 190.526c-11.1006 0.427734 -22.2871 -0.0136719 -33.4385 -1.27051c0.12793 -46.1367 -1.59277 -92.335 -3.01855 -138.523c11.0156 46.6875 22.7842 93.5312 36.457 139.794zM852.304 217.953c1.50488 53.5762 -4.41016 107.429 -22.4531 158.122
c-16.5938 46.626 -43.3789 102.473 -92.9873 121.194c-56.9326 21.4863 -110.022 -20.7744 -140.09 -65.708c-30.1211 -45.0107 -51.2285 -97.2178 -70.2139 -147.699c-10.0605 -26.7598 -19.1816 -53.8164 -27.5967 -81.0908
c21.2637 -2.75684 42.1279 -8.41699 62.0166 -17.5c104.078 -47.5371 145.748 -175.634 101.132 -278.754c-19.5557 -45.1973 -57.209 -86.2188 -106.446 -97.8105c-46.8438 -11.0283 -102.717 1.04004 -133.509 40.0244c-14.2617 18.0557 31.5527 26.7852 41.3447 9.93457
c9.9043 -17.0391 26.0938 -28.8438 45.0664 -34.002c45.7451 -12.4365 90.6992 17.8945 115.293 54.623c28.9795 43.2803 39.1943 98.0264 31.3193 149.212c-7.73633 50.292 -34.9541 96.6953 -75.8203 127.2c-25.2705 18.8652 -54.3164 29.5508 -84.5322 33.3701
c-22.0986 -73.8232 -39.3428 -149.119 -56.1855 -224.302c-0.0693359 -14.8818 0.0283203 -29.7578 0.378906 -44.626c0.509766 -21.7549 -54.9043 -21.96 -55.8408 0c-3.67578 86.0781 5.54004 171.938 9.67969 257.894
c-82.3047 -27.167 -148.755 -94.3809 -176.47 -176.857c-30.252 -90.0312 -16.2793 -213.652 63.1357 -275.478c39.6826 -30.8945 94.0732 -37.082 142.804 -36.1963c50.1865 0.914062 100.635 12.708 146.344 33.4209c89.0479 40.3516 157.437 114.977 203.489 199.949
c48.8271 90.1006 77.2666 192.64 80.1416 295.079z" />
    <glyph glyph-name="E" unicode="E" horiz-adv-x="512" 
d="M147.678 -189.886c-54.3496 4.76953 -108.689 28.416 -144.098 70.8867c-34.5273 41.4082 -45.3516 95.9678 -34.584 148.282c15.7158 76.3633 67.8486 145.274 134.269 189.117c-32.6377 10.1992 -62.9639 28.0195 -82.7891 55.7422
c-33.0342 46.1982 -16.0898 106.413 14.9023 148.825c29.6123 40.5225 72.9922 68.9795 119.641 86.4131c51.0703 19.085 111.064 27.5459 164.205 12.583c46.5693 -13.1123 86.8389 -49.6719 102.435 -95.7119c16.0332 -47.332 8.50684 -110.801 -31.084 -145.046
c-30.6201 -26.4863 -91.9375 -28.5264 -108.166 15.9922c-4.16016 11.4131 23.8848 13.9551 26.8438 4.21973c4.35254 -14.3213 16.2871 -24.8633 31.5146 -26.0791c16.8779 -1.34668 31.6572 10.5088 41.7412 22.8301c22.6055 27.625 29.3438 66.5986 23.9805 101.2
c-10.2656 66.2021 -68.4785 115.048 -135.229 114.287c-56.8477 -0.647461 -116.763 -25.2314 -157.964 -64.3535c-39.4521 -37.4639 -72.3945 -103.172 -43.4229 -156.028c11.7197 -21.3838 33.3369 -35.7305 55.8477 -43.8096
c7.25 -2.60059 14.7461 -4.75098 22.3496 -6.35059c11.1387 5.00977 22.4971 9.35449 34.0146 12.8955c16.627 5.10938 36.8457 8.62988 52.7305 -0.726562c9.96094 -5.86719 14.8379 -17.2871 8.30762 -27.4863c-8.01562 -12.5137 -28.6729 -16.1338 -42.2021 -18.3711
c-12.1572 -2.01172 -24.4658 -2.30566 -36.7305 -1.68652c-9.70508 -5.37891 -19.1416 -11.252 -28.2344 -17.6035c-24.6279 -17.2031 -46.5908 -38.7148 -65.123 -62.3105c-37.0918 -47.2275 -60.1885 -110.153 -49.7568 -170.485
c8.84473 -51.1523 47.2832 -92.9014 94.3721 -112.567c37.415 -15.624 79.625 -17.1016 119.521 -8.94043c-5.46777 8.625 -9.85059 18.4482 -12.8818 29.5742c-25.291 92.7988 30.6562 201.241 118.386 238.6c40.0312 17.0498 98.6973 17.6846 118.294 -29.2842
c19.7607 -47.3682 -12.291 -102.383 -40.2109 -139.475c-38.5391 -51.2002 -92.1846 -90.1025 -152.148 -110.429c2.94922 -3.08984 6.13086 -5.99023 9.63281 -8.60938c20.8232 -15.5752 47.7754 -19.5049 73.1348 -17.3643
c52.3857 4.41895 120.56 33.6191 118.719 95.0879c-0.470703 15.7207 39.3223 12.3389 36.4395 0c-5.74512 -24.5918 -19.6816 -44.5986 -38.0117 -61.6943c-54.4131 -50.7529 -164.39 -66.9199 -218.125 -12.9648c-32.4121 -8.76562 -66.3477 -12.1572 -100.519 -9.15918z
M238.86 -109.248c1.92773 -17.3877 6.74121 -35.0381 15.6348 -50.124c10.0732 2.90527 19.917 6.39941 29.3994 10.4189c48.502 20.5674 91.8281 54.7334 121.75 98.2002c15.4238 22.4102 29.9141 48.2002 35.5312 75.0527
c5.49902 26.2842 0.317383 58.8936 -25.4268 72.8154c-23.5371 12.7285 -53.9297 2.67773 -75.5547 -9.3877c-22.6074 -12.6133 -42.3398 -30.1416 -58.2734 -50.499c-32.0674 -40.9678 -48.8154 -94.5488 -43.0605 -146.477z" />
    <glyph glyph-name="E" unicode="&#xcb;" horiz-adv-x="512" 
d="M147.678 -189.886c-54.3496 4.76953 -108.689 28.416 -144.098 70.8867c-34.5273 41.4082 -45.3516 95.9678 -34.584 148.282c15.7158 76.3633 67.8486 145.274 134.269 189.117c-32.6377 10.1992 -62.9639 28.0195 -82.7891 55.7422
c-33.0342 46.1982 -16.0898 106.413 14.9023 148.825c29.6123 40.5225 72.9922 68.9795 119.641 86.4131c51.0703 19.085 111.064 27.5459 164.205 12.583c46.5693 -13.1123 86.8389 -49.6719 102.435 -95.7119c16.0332 -47.332 8.50684 -110.801 -31.084 -145.046
c-30.6201 -26.4863 -91.9375 -28.5264 -108.166 15.9922c-4.16016 11.4131 23.8848 13.9551 26.8438 4.21973c4.35254 -14.3213 16.2871 -24.8633 31.5146 -26.0791c16.8779 -1.34668 31.6572 10.5088 41.7412 22.8301c22.6055 27.625 29.3438 66.5986 23.9805 101.2
c-10.2656 66.2021 -68.4785 115.048 -135.229 114.287c-56.8477 -0.647461 -116.763 -25.2314 -157.964 -64.3535c-39.4521 -37.4639 -72.3945 -103.172 -43.4229 -156.028c11.7197 -21.3838 33.3369 -35.7305 55.8477 -43.8096
c7.25 -2.60059 14.7461 -4.75098 22.3496 -6.35059c11.1387 5.00977 22.4971 9.35449 34.0146 12.8955c16.627 5.10938 36.8457 8.62988 52.7305 -0.726562c9.96094 -5.86719 14.8379 -17.2871 8.30762 -27.4863c-8.01562 -12.5137 -28.6729 -16.1338 -42.2021 -18.3711
c-12.1572 -2.01172 -24.4658 -2.30566 -36.7305 -1.68652c-9.70508 -5.37891 -19.1416 -11.252 -28.2344 -17.6035c-24.6279 -17.2031 -46.5908 -38.7148 -65.123 -62.3105c-37.0918 -47.2275 -60.1885 -110.153 -49.7568 -170.485
c8.84473 -51.1523 47.2832 -92.9014 94.3721 -112.567c37.415 -15.624 79.625 -17.1016 119.521 -8.94043c-5.46777 8.625 -9.85059 18.4482 -12.8818 29.5742c-25.291 92.7988 30.6562 201.241 118.386 238.6c40.0312 17.0498 98.6973 17.6846 118.294 -29.2842
c19.7607 -47.3682 -12.291 -102.383 -40.2109 -139.475c-38.5391 -51.2002 -92.1846 -90.1025 -152.148 -110.429c2.94922 -3.08984 6.13086 -5.99023 9.63281 -8.60938c20.8232 -15.5752 47.7754 -19.5049 73.1348 -17.3643
c52.3857 4.41895 120.56 33.6191 118.719 95.0879c-0.470703 15.7207 39.3223 12.3389 36.4395 0c-5.74512 -24.5918 -19.6816 -44.5986 -38.0117 -61.6943c-54.4131 -50.7529 -164.39 -66.9199 -218.125 -12.9648c-32.4121 -8.76562 -66.3477 -12.1572 -100.519 -9.15918z
M238.86 -109.248c1.92773 -17.3877 6.74121 -35.0381 15.6348 -50.124c10.0732 2.90527 19.917 6.39941 29.3994 10.4189c48.502 20.5674 91.8281 54.7334 121.75 98.2002c15.4238 22.4102 29.9141 48.2002 35.5312 75.0527
c5.49902 26.2842 0.317383 58.8936 -25.4268 72.8154c-23.5371 12.7285 -53.9297 2.67773 -75.5547 -9.3877c-22.6074 -12.6133 -42.3398 -30.1416 -58.2734 -50.499c-32.0674 -40.9678 -48.8154 -94.5488 -43.0605 -146.477z" />
    <glyph glyph-name="E" unicode="&#xca;" horiz-adv-x="512" 
d="M147.678 -189.886c-54.3496 4.76953 -108.689 28.416 -144.098 70.8867c-34.5273 41.4082 -45.3516 95.9678 -34.584 148.282c15.7158 76.3633 67.8486 145.274 134.269 189.117c-32.6377 10.1992 -62.9639 28.0195 -82.7891 55.7422
c-33.0342 46.1982 -16.0898 106.413 14.9023 148.825c29.6123 40.5225 72.9922 68.9795 119.641 86.4131c51.0703 19.085 111.064 27.5459 164.205 12.583c46.5693 -13.1123 86.8389 -49.6719 102.435 -95.7119c16.0332 -47.332 8.50684 -110.801 -31.084 -145.046
c-30.6201 -26.4863 -91.9375 -28.5264 -108.166 15.9922c-4.16016 11.4131 23.8848 13.9551 26.8438 4.21973c4.35254 -14.3213 16.2871 -24.8633 31.5146 -26.0791c16.8779 -1.34668 31.6572 10.5088 41.7412 22.8301c22.6055 27.625 29.3438 66.5986 23.9805 101.2
c-10.2656 66.2021 -68.4785 115.048 -135.229 114.287c-56.8477 -0.647461 -116.763 -25.2314 -157.964 -64.3535c-39.4521 -37.4639 -72.3945 -103.172 -43.4229 -156.028c11.7197 -21.3838 33.3369 -35.7305 55.8477 -43.8096
c7.25 -2.60059 14.7461 -4.75098 22.3496 -6.35059c11.1387 5.00977 22.4971 9.35449 34.0146 12.8955c16.627 5.10938 36.8457 8.62988 52.7305 -0.726562c9.96094 -5.86719 14.8379 -17.2871 8.30762 -27.4863c-8.01562 -12.5137 -28.6729 -16.1338 -42.2021 -18.3711
c-12.1572 -2.01172 -24.4658 -2.30566 -36.7305 -1.68652c-9.70508 -5.37891 -19.1416 -11.252 -28.2344 -17.6035c-24.6279 -17.2031 -46.5908 -38.7148 -65.123 -62.3105c-37.0918 -47.2275 -60.1885 -110.153 -49.7568 -170.485
c8.84473 -51.1523 47.2832 -92.9014 94.3721 -112.567c37.415 -15.624 79.625 -17.1016 119.521 -8.94043c-5.46777 8.625 -9.85059 18.4482 -12.8818 29.5742c-25.291 92.7988 30.6562 201.241 118.386 238.6c40.0312 17.0498 98.6973 17.6846 118.294 -29.2842
c19.7607 -47.3682 -12.291 -102.383 -40.2109 -139.475c-38.5391 -51.2002 -92.1846 -90.1025 -152.148 -110.429c2.94922 -3.08984 6.13086 -5.99023 9.63281 -8.60938c20.8232 -15.5752 47.7754 -19.5049 73.1348 -17.3643
c52.3857 4.41895 120.56 33.6191 118.719 95.0879c-0.470703 15.7207 39.3223 12.3389 36.4395 0c-5.74512 -24.5918 -19.6816 -44.5986 -38.0117 -61.6943c-54.4131 -50.7529 -164.39 -66.9199 -218.125 -12.9648c-32.4121 -8.76562 -66.3477 -12.1572 -100.519 -9.15918z
M238.86 -109.248c1.92773 -17.3877 6.74121 -35.0381 15.6348 -50.124c10.0732 2.90527 19.917 6.39941 29.3994 10.4189c48.502 20.5674 91.8281 54.7334 121.75 98.2002c15.4238 22.4102 29.9141 48.2002 35.5312 75.0527
c5.49902 26.2842 0.317383 58.8936 -25.4268 72.8154c-23.5371 12.7285 -53.9297 2.67773 -75.5547 -9.3877c-22.6074 -12.6133 -42.3398 -30.1416 -58.2734 -50.499c-32.0674 -40.9678 -48.8154 -94.5488 -43.0605 -146.477z" />
    <glyph glyph-name="E" unicode="&#xc9;" horiz-adv-x="512" 
d="M147.678 -189.886c-54.3496 4.76953 -108.689 28.416 -144.098 70.8867c-34.5273 41.4082 -45.3516 95.9678 -34.584 148.282c15.7158 76.3633 67.8486 145.274 134.269 189.117c-32.6377 10.1992 -62.9639 28.0195 -82.7891 55.7422
c-33.0342 46.1982 -16.0898 106.413 14.9023 148.825c29.6123 40.5225 72.9922 68.9795 119.641 86.4131c51.0703 19.085 111.064 27.5459 164.205 12.583c46.5693 -13.1123 86.8389 -49.6719 102.435 -95.7119c16.0332 -47.332 8.50684 -110.801 -31.084 -145.046
c-30.6201 -26.4863 -91.9375 -28.5264 -108.166 15.9922c-4.16016 11.4131 23.8848 13.9551 26.8438 4.21973c4.35254 -14.3213 16.2871 -24.8633 31.5146 -26.0791c16.8779 -1.34668 31.6572 10.5088 41.7412 22.8301c22.6055 27.625 29.3438 66.5986 23.9805 101.2
c-10.2656 66.2021 -68.4785 115.048 -135.229 114.287c-56.8477 -0.647461 -116.763 -25.2314 -157.964 -64.3535c-39.4521 -37.4639 -72.3945 -103.172 -43.4229 -156.028c11.7197 -21.3838 33.3369 -35.7305 55.8477 -43.8096
c7.25 -2.60059 14.7461 -4.75098 22.3496 -6.35059c11.1387 5.00977 22.4971 9.35449 34.0146 12.8955c16.627 5.10938 36.8457 8.62988 52.7305 -0.726562c9.96094 -5.86719 14.8379 -17.2871 8.30762 -27.4863c-8.01562 -12.5137 -28.6729 -16.1338 -42.2021 -18.3711
c-12.1572 -2.01172 -24.4658 -2.30566 -36.7305 -1.68652c-9.70508 -5.37891 -19.1416 -11.252 -28.2344 -17.6035c-24.6279 -17.2031 -46.5908 -38.7148 -65.123 -62.3105c-37.0918 -47.2275 -60.1885 -110.153 -49.7568 -170.485
c8.84473 -51.1523 47.2832 -92.9014 94.3721 -112.567c37.415 -15.624 79.625 -17.1016 119.521 -8.94043c-5.46777 8.625 -9.85059 18.4482 -12.8818 29.5742c-25.291 92.7988 30.6562 201.241 118.386 238.6c40.0312 17.0498 98.6973 17.6846 118.294 -29.2842
c19.7607 -47.3682 -12.291 -102.383 -40.2109 -139.475c-38.5391 -51.2002 -92.1846 -90.1025 -152.148 -110.429c2.94922 -3.08984 6.13086 -5.99023 9.63281 -8.60938c20.8232 -15.5752 47.7754 -19.5049 73.1348 -17.3643
c52.3857 4.41895 120.56 33.6191 118.719 95.0879c-0.470703 15.7207 39.3223 12.3389 36.4395 0c-5.74512 -24.5918 -19.6816 -44.5986 -38.0117 -61.6943c-54.4131 -50.7529 -164.39 -66.9199 -218.125 -12.9648c-32.4121 -8.76562 -66.3477 -12.1572 -100.519 -9.15918z
M238.86 -109.248c1.92773 -17.3877 6.74121 -35.0381 15.6348 -50.124c10.0732 2.90527 19.917 6.39941 29.3994 10.4189c48.502 20.5674 91.8281 54.7334 121.75 98.2002c15.4238 22.4102 29.9141 48.2002 35.5312 75.0527
c5.49902 26.2842 0.317383 58.8936 -25.4268 72.8154c-23.5371 12.7285 -53.9297 2.67773 -75.5547 -9.3877c-22.6074 -12.6133 -42.3398 -30.1416 -58.2734 -50.499c-32.0674 -40.9678 -48.8154 -94.5488 -43.0605 -146.477z" />
    <glyph glyph-name="F" unicode="F" horiz-adv-x="402" 
d="M713.502 654.259c-57.3828 27.3799 -122.586 23.5273 -182.815 9.53906c-104.946 -24.3896 -201.587 -77.9043 -291.309 -136.043c-13.9805 -9.05957 -27.7998 -18.3525 -41.5732 -27.7148c16.75 -20.8281 29.8066 -45.1533 39.6729 -68.5566
c24.4482 -57.9951 35.9912 -120.938 44.3525 -183.02c0.00976562 -0.0791016 0.0175781 -0.15625 0.0273438 -0.235352c15.9336 2.73145 31.8623 5.46289 47.7656 8.28613c10.2559 1.82031 19.0342 -8.97266 5.48633 -11.3457
c-17.2422 -3.02051 -34.4785 -6.14648 -51.7207 -9.26953c7.40137 -59.5391 10.4756 -119.487 9.0293 -179.472c82.5303 -32.8242 129.063 -128.356 126.698 -217.927c-1.4541 -55.0947 -19.1826 -115.864 -56.6055 -157.549
c-33.124 -36.8955 -95.5762 -53.1055 -135.126 -16.3691c-5.61914 5.21973 0.708984 10.7695 5.7832 12.5723c6.85059 2.42969 16.5195 1.79492 22.0547 -3.29688c17.3184 -15.9258 41.2012 -14.9609 60.5322 -3.22559c44.3447 26.9209 65.9766 88.8789 72.9092 137.471
c7.5957 53.2285 -0.491211 109.048 -26.2578 156.521c-16.3457 30.1162 -40.6406 56.4385 -70.542 72.4131c-2.29395 -62.3525 -7.4834 -127.459 -26.4229 -186.967c-15.9902 -50.248 -54.3604 -96.3105 -111.656 -91.999c-47.5625 3.57617 -84.9238 39.4092 -93.9707 85.5
c-10.4551 53.2637 11.4482 112.004 42.5859 154.718c31.1201 42.6885 75.1064 70.6797 129.208 69.999c1.75586 -0.0234375 3.49902 -0.0742188 5.23242 -0.145508c-0.120117 17.3594 -0.532227 34.7109 -1.32031 52.0449
c-1.60742 35.3311 -4.52051 70.5625 -8.83398 105.625c-17.8643 -3.08496 -35.7412 -6.0498 -53.6514 -8.74023c-9.40039 -1.41309 -17.582 7.92383 -5.06055 10.4658c18.9824 3.85254 38.0371 7.40332 57.1221 10.8184c-2.82617 21.2461 -6.16406 42.4307 -10.1143 63.5254
c-10.3242 55.1279 -25.0879 109.961 -51.541 159.74c-1.9043 3.58691 -3.88281 7.19629 -5.93848 10.793c-7.75391 -5.35352 -15.5078 -10.709 -23.2754 -16.0439c-30.6514 -21.0537 -62.7363 -45.251 -100.704 -49.9336c-22.2598 -2.74414 -46.3398 2.19141 -60.9189 20.46
c-15.834 19.8398 -14.7051 46.6045 -1.23438 67.4102c30.7207 47.4551 98.4697 71.0225 152.22 57.1982c25.1348 -6.4668 46.25 -20.9873 63.832 -39.5654c5.88574 3.98633 11.7715 7.97266 17.6982 11.9023c79.5117 52.7314 163.158 101.192 253.625 132.553
c46.375 16.0742 95.7627 28.792 145.015 30.6045c50.0029 1.84082 107.202 -8.22559 148.383 -38.2852c37.2129 -27.1592 54.2217 -73.8486 27.293 -114.789c-26.9209 -40.9268 -78.6748 -53.6504 -124.512 -43.1133c-5.83203 1.3418 -14.0371 4.70312 -9.99219 11.8613
c3.83496 6.78418 15.7676 5.75293 21.876 4.2041c27.3721 -6.94238 60.1709 -2.86426 81.2344 17.2344c19.8867 18.9746 29.5225 49.0264 20.2549 75.4512c-8.91699 25.4258 -31.1455 43.4102 -54.7949 54.6943zM231.605 -62.8584
c3.33789 38.4873 5.12402 77.1436 5.28516 115.795c-50.248 2.90332 -94.124 -29.4141 -120.82 -70.2109c-28.4316 -43.4463 -49.0068 -102.468 -31 -153.74c7.46484 -21.2529 21.8193 -38.7812 41.6387 -49.6611c19.0283 -10.4453 44.708 -15.0762 61.791 1.30566
c17.7432 17.0166 24.1787 44.542 30.4023 67.4131c7.83887 28.8076 10.1299 59.4482 12.7031 89.0986zM112.74 460.662c12.2217 8.33594 24.3877 16.751 36.5605 25.1611c-8.06445 12.2266 -17.4619 23.6055 -29.0127 32.2842
c-20.0908 15.0889 -43.0977 15.3809 -66.2734 7.53711c-24.6201 -8.33594 -50.4121 -24.3818 -60.1533 -49.6875c-8.08203 -21 -3.97852 -52.6191 22.4307 -57.0459c33.8867 -5.68066 69.9678 23.6904 96.4482 41.751z" />
    <glyph glyph-name="G" unicode="G" horiz-adv-x="581" 
d="M78.9473 54.6943c-69.6279 45.21 -75.2393 143.691 -63.3633 217.769c0.115234 0.72168 0.260742 1.44336 0.378906 2.16504c-47.8008 43.3262 -55.5244 117.915 -39.1816 177.39c8.74219 31.8164 25.8896 62.9668 53.6377 81.9082
c23.4756 16.0234 64.3896 27.4824 85.9756 2.25586c11.2637 -13.1611 -25.1318 -21.8066 -31.8389 -7.65234c-7.93066 16.7373 -32.5225 0.806641 -42.0146 -6.72754c-12.915 -10.25 -22.876 -23.708 -30.4766 -38.2461
c-15.2656 -29.1924 -21.6865 -62.7412 -20.7471 -95.5381c0.918945 -32.0332 9.36914 -65.0703 28.8584 -91.0039c15.0508 71.7734 45.6582 143.547 90.8525 200.636c48.8662 61.7275 128.957 109.072 209.89 89.9951c32.4609 -7.65234 60.6621 -25.2832 75.9023 -55.7012
c17.4258 -34.7881 15.4004 -74.3096 3.63477 -110.601c-23.8008 -73.417 -86.1455 -126.714 -155.281 -156.428c-52.8057 -22.6943 -118.496 -37.6553 -174.873 -20.5879c-1.85352 -18.3115 -2.38379 -36.7412 -1.29297 -55.1943
c3.58887 -60.8037 26.5781 -137.298 100.248 -136.51c67.1133 0.719727 130.953 48.1592 177.101 92.8936c44.7363 43.3691 80.5537 95.1201 109.219 150.283c-3.42773 15.9463 32.9121 16.8652 39.374 4.73828c61.2637 -114.983 46.1826 -262.151 -22.8975 -370.535
c-25.8486 -40.5557 -59.6387 -78.3086 -102.158 -101.359c25.5928 -34.9902 54.5723 -67.4561 91.9844 -89.8867c48.2617 -28.9355 114.224 -36.7568 158.292 4.69043c41.9971 39.499 57.9023 125.605 7.13477 164.764c-23.2246 17.9121 -53.2383 20.5332 -79.0664 6.80078
c-12.5674 -6.68164 -23.5752 -16.1201 -30.9707 -28.3721c-3.31543 -5.49414 -13.4707 -25.0635 -4.04199 -29.7607c8.77539 -4.37207 7.40625 -13.1533 0 -17.751c-8.01074 -4.97656 -23.2734 -5.75195 -31.1406 0c-27.7119 20.2656 -0.00683594 52.3193 18.1973 68.6426
c22.3389 20.0322 50.1738 32.584 80.4463 33.1396c30.4443 0.560547 62.3936 -11.5146 82.9229 -34.4189c22.2646 -24.8398 27.6768 -59.3213 22.5439 -91.4473c-9.4541 -59.1729 -51.4717 -102.583 -110.024 -114.341c-57.8311 -11.6152 -115.389 8.62695 -161.055 43.8711
c-26.8672 20.7363 -49.0781 46.0371 -69.2305 73.0635c-2.58789 -0.980469 -5.19434 -1.9248 -7.83887 -2.79492c-51.5029 -16.9453 -116.197 -10.666 -156.901 27.8242c-38.7588 36.6494 -43.8613 110.524 13.499 132.277
c67.2217 25.4932 108.566 -46.8945 138.818 -92.9268c4.73828 -7.21191 9.52344 -14.4697 14.3799 -21.7197c35.0342 24.0596 62.6846 61.0518 82.7578 96.7178c53.958 95.8652 62.127 211.125 32.0977 315.899c-4.32617 -8.03125 -8.81152 -15.9746 -13.4961 -23.8086
c-37.4863 -62.6699 -87.2969 -118.947 -147.844 -160.12c-63.3994 -43.1133 -150.031 -81.2861 -222.411 -34.292zM310.938 -158.726c4.79199 1.68457 9.47754 3.63477 14.0547 5.80273c-9.98926 14.6846 -19.666 29.5664 -29.3789 44.2529
c-15.5215 23.4727 -37.3203 66.3223 -69.3613 69.3076c-32.6377 3.03906 -41.0322 -43.3662 -33.6846 -66.1943c15.8184 -49.1475 72.1953 -69.4102 118.37 -53.1689zM114.518 398.528c-20.042 -44.2471 -35.749 -91.5547 -42.4844 -139.927
c15.0918 -5.77246 31.3555 -8.81348 47.7471 -9.20801c37.8018 -0.90918 75.8057 10.0938 110.402 24.5811c31.5703 13.2227 61.3945 31.3223 86.5137 54.667c46.1445 42.8857 85.5508 115.885 62.9609 179.957c-10.0146 28.4033 -36.3906 47.9082 -65.1777 55.0537
c-28.8643 7.16602 -57.4346 -1.96289 -82.0771 -17.1846c-54.3447 -33.5752 -92.0439 -90.8867 -117.885 -147.939z" />
    <glyph glyph-name="H" unicode="H" horiz-adv-x="818" 
d="M891.098 393.553c-33.2627 -47.4785 -83.9785 -79.3164 -135.996 -102.812c-12.7539 -5.75977 -25.6387 -11.1514 -38.6201 -16.2666c0.0253906 -4.06836 0.0742188 -8.13086 0.15625 -12.1807c1.36426 -67.8457 10.46 -135.259 23.8945 -201.707
c12.3672 -61.1621 26.7646 -126.438 61.9297 -179c7.46777 -11.1621 -13 -19.0059 -20.0605 -20.1377c-12.5977 -2.01758 -27.6758 0.447266 -35.3301 11.4326c-21.2812 30.5391 -31.1602 66.5742 -39.2598 102.474c-8.53809 37.8447 -15.4297 76.1787 -21.3584 114.516
c-8.57129 55.417 -14.3027 112.075 -13.9365 168.463c-97.0332 -33.1729 -198.595 -53.2998 -297.281 -80.4619c-13.1582 -3.62012 -26.4014 -7.33008 -39.6465 -11.1904c-0.542969 -15.8975 -1.01953 -31.7979 -1.2832 -47.7061
c-0.931641 -56.5742 1.00391 -113.655 11.6406 -169.366c11.5635 5.91895 23.332 11.3408 35.2383 16.2305c50.0566 20.5498 104.831 32.001 159.062 30.2041c39.6826 -1.31348 85.5508 -11.5488 113.007 -42.5742c32.1465 -36.3213 23.0098 -86.8379 -3.73438 -123.416
c-29.0791 -39.7725 -72.6562 -62.0039 -120.17 -71.3809c-49.6699 -9.80273 -104.7 4.67188 -145.963 33.165c-40.7988 28.1709 -65.7744 67.4746 -80.1025 113.602c-37.5176 -27.4229 -70.3164 -61.0586 -95.1738 -99.4082
c-24.4199 -37.6738 -43.8018 -81.9756 -43.5176 -127.593c0.287109 -46.3496 26.2178 -87.3789 74.6611 -93.5664c45.0586 -5.75488 98.5684 14.5127 128.072 49.0527c15.6621 18.335 24.7197 43.5361 20.7979 67.6768c-3.85547 23.7285 -24.4023 47.1602 -49.708 47.0527
c-13.8447 -0.0566406 -13.6377 12.541 0 12.9043c20.8359 0.555664 41.0449 -7.33691 54.7695 -23.3066c32.5225 -37.8428 16.4482 -91.6211 -17.9277 -122.157c-33.7051 -29.9424 -83.0186 -46.5771 -127.937 -44.6318c-43.2871 1.87695 -84.1455 23.5293 -98.5459 66.4277
c-14.3359 42.7119 -3.09961 89.9219 14.9609 129.664c28.6826 63.1094 77.4053 115.429 134.957 154.211c-18.8672 74.7656 -19.0459 151.713 -15.4512 228.531c-31.9697 -10.8594 -63.3271 -23.3955 -92.9004 -38.9326
c-26.4531 -13.9014 -52.3066 -31.9551 -68.6143 -57.5703c-14.7637 -23.1885 -21.9629 -56.6123 -3.01855 -79.6064c6.71484 -8.14648 -13.4199 -11.8252 -18.166 -6.05273c-39.5244 48.0615 8.24805 108.479 48.8887 136.104c26.084 17.7285 55.627 30.0703 84.8809 41.501
c16.374 6.39746 32.9219 12.3291 49.5898 17.9023c1.96387 37.8838 4.62891 75.7002 6.20605 113.174c2.47852 58.8428 6.07031 122.495 -8.71387 180.078c-12.8721 50.1406 -47.8955 97.4961 -104.329 96.9766c-54.918 -0.503906 -99.9229 -40.4043 -131.992 -81.2705
c-33.5078 -42.7012 -57.3623 -95.9014 -49.3467 -151.188c7.61133 -52.4932 46.6035 -90.9648 97.8633 -101.955c52.3398 -11.2207 103.976 11.6943 145.404 42.2383c5.81641 4.28809 16.6611 3.6582 22.874 0.775391c4.41602 -2.05078 10.3711 -8.33594 4.48535 -12.8105
c-19.3535 -14.7129 -39.749 -26.9141 -62.2949 -36.1074c-44.3701 -18.0947 -96.3027 -22.8311 -141.892 -6.26758c-42.9268 15.5928 -79.2812 48.5684 -91.6484 93.415c-13.2324 47.9824 -1.4668 97.6338 22.6201 140.128c23.4473 41.3623 57.1113 80.4697 98.2764 104.908
c41.5771 24.6865 95.2354 33.4287 140.594 13.8525c43.1465 -18.624 72.8682 -60.1377 87.4453 -103.628c17.4951 -52.1963 19.333 -109.781 19.4102 -164.351c0.0537109 -37.2666 -1.4668 -74.4814 -2.80566 -111.707c111.633 32.5791 226.722 53.4385 336.67 91.6035
c0.375977 15.8291 1.22559 31.627 2.68262 47.3613c5.4834 59.2549 21.1865 119.137 58.7266 166.492c33.7256 42.5449 93.8174 69.3975 145.548 42.1641c52.4316 -27.6045 39.8184 -93.4229 11.4121 -133.971zM452.038 -25.6943
c-35.4512 -8.3252 -70.2939 -21.8428 -102.903 -39.7197c9.91016 -42.6602 27.8428 -85.3076 59.4414 -116.103c31.9082 -31.1016 79.8477 -48.3203 124.277 -40.5176c47.7773 8.38965 93.5537 40.5723 111.797 86.3457c18.4189 46.2158 -2.58105 90.2998 -48.083 108.123
c-45.2256 17.7129 -98.2949 12.7285 -144.529 1.87109zM743.706 434.227c-20.6289 -45.8506 -26.6045 -96.4551 -27.1826 -146.458c49.8818 19.9912 99.0732 45.4229 136.444 84.6348c19.8428 20.8203 36.8008 45.6396 41.7773 74.4883
c4.69043 27.1846 -3.68359 56.2178 -30.377 68.542c-54.5137 25.1699 -101.519 -38.6572 -120.662 -81.207z" />
    <glyph glyph-name="I" unicode="I" horiz-adv-x="374" 
d="M163.584 -210.021c-29.3018 -36.7744 -53.9912 -82.3994 -56.1084 -130.262c-2.11426 -47.7832 24.5713 -88.5801 73.3604 -96.3701c44.8359 -7.16016 100.199 9.21387 130.315 44.0127c15.6904 18.1279 25.083 43.5977 20.2314 67.5957
c-4.53613 22.4463 -23.5801 42.4756 -46.8711 44.3447c-13.0361 1.04688 -7.62695 13.2891 3.00977 12.6748c20.334 -1.1748 38.7461 -9.05762 51.5459 -25.3057c31.0195 -39.3809 11.4199 -92.6191 -24.874 -120.774
c-35.3545 -27.4258 -84.1895 -39.8525 -128.488 -36.0537c-44.0479 3.77637 -84.9268 28.0146 -96.7158 72.7617c-11.9502 45.3662 4.6416 93.6865 27.3545 132.857c34.0537 58.7295 86.1064 105.755 145.581 138.981
c-0.0771484 0.460938 -0.168945 0.911133 -0.246094 1.36914c-19.3818 117.986 8.08008 238.29 22.8594 355.166c7.24023 57.2529 15.1582 117.893 6.62305 175.403c-7.55762 50.916 -37.5762 101.848 -93.0166 108.455
c-54.7363 6.52344 -103.697 -28.9561 -139.354 -66.6035c-36.8516 -38.9072 -65.8359 -88.375 -64.2158 -143.533c1.5791 -53.8838 35.1514 -96.749 85.6816 -114.014c51.8506 -17.7129 106.052 -0.489258 151.029 27.0488
c6.56348 4.01953 18.1348 4.19141 24.6348 0.000976562c6.2002 -3.99902 6.2998 -10.0615 0 -14.042c-21.873 -13.8164 -45.5068 -24.8604 -70.541 -31.5801c-46.6074 -12.5137 -97.0684 -11.6377 -140.804 10.2168c-40.0078 19.9912 -69.6533 56.3311 -77.4131 100.707
c-8.81934 50.4355 10.3428 100.469 39.6855 140.814c27.6846 38.0674 64.2422 72.8809 107.54 92.3555c42.7266 19.2207 94.8613 22.6719 137.089 0.0927734c41.6055 -22.2471 67.0596 -66.9941 77.6553 -111.544c12.6494 -53.1719 9.47754 -110.068 4.8418 -164.075
c-4.86426 -56.6787 -13.3408 -112.92 -19.1729 -169.491c-5.85254 -56.7637 -8.86816 -114.287 -2.90039 -171.179c0.0507812 -0.494141 0.117188 -0.993164 0.170898 -1.4873c12.4541 5.06641 25.083 9.58496 37.8115 13.499
c51.5771 15.8594 106.347 22.3232 160.082 16.2227c39.7725 -4.51367 84.3584 -19.0186 108.991 -52.6006c29.0049 -39.5371 13.542 -89.7236 -16.7305 -123.534c-32.6406 -36.4551 -79.4453 -55.4424 -127.541 -59.4463
c-51.0957 -4.25195 -102.112 14.1621 -141.55 46.3418c-37.8838 30.915 -57.9873 73.0635 -68.1152 119.402c-38.7334 -23.5342 -73.5039 -53.374 -101.437 -88.4287zM420.07 -65.6094c-36.2266 -5.19922 -72.1201 -15.5947 -106.125 -30.5244
c6.3877 -43.7871 20.6807 -88.46 50.4824 -121.691c29.7861 -33.2139 74.9629 -54.2217 120.056 -50.7041c48.2285 3.76367 96.9941 33.3809 118.232 77.4365c21.5527 44.7139 3.42285 88.8662 -39.5703 110.701c-42.96 21.8145 -96.5391 21.4609 -143.075 14.7822z" />
    <glyph glyph-name="I" unicode="&#xcf;" horiz-adv-x="374" 
d="M163.584 -210.021c-29.3018 -36.7744 -53.9912 -82.3994 -56.1084 -130.262c-2.11426 -47.7832 24.5713 -88.5801 73.3604 -96.3701c44.8359 -7.16016 100.199 9.21387 130.315 44.0127c15.6904 18.1279 25.083 43.5977 20.2314 67.5957
c-4.53613 22.4463 -23.5801 42.4756 -46.8711 44.3447c-13.0361 1.04688 -7.62695 13.2891 3.00977 12.6748c20.334 -1.1748 38.7461 -9.05762 51.5459 -25.3057c31.0195 -39.3809 11.4199 -92.6191 -24.874 -120.774
c-35.3545 -27.4258 -84.1895 -39.8525 -128.488 -36.0537c-44.0479 3.77637 -84.9268 28.0146 -96.7158 72.7617c-11.9502 45.3662 4.6416 93.6865 27.3545 132.857c34.0537 58.7295 86.1064 105.755 145.581 138.981
c-0.0771484 0.460938 -0.168945 0.911133 -0.246094 1.36914c-19.3818 117.986 8.08008 238.29 22.8594 355.166c7.24023 57.2529 15.1582 117.893 6.62305 175.403c-7.55762 50.916 -37.5762 101.848 -93.0166 108.455
c-54.7363 6.52344 -103.697 -28.9561 -139.354 -66.6035c-36.8516 -38.9072 -65.8359 -88.375 -64.2158 -143.533c1.5791 -53.8838 35.1514 -96.749 85.6816 -114.014c51.8506 -17.7129 106.052 -0.489258 151.029 27.0488
c6.56348 4.01953 18.1348 4.19141 24.6348 0.000976562c6.2002 -3.99902 6.2998 -10.0615 0 -14.042c-21.873 -13.8164 -45.5068 -24.8604 -70.541 -31.5801c-46.6074 -12.5137 -97.0684 -11.6377 -140.804 10.2168c-40.0078 19.9912 -69.6533 56.3311 -77.4131 100.707
c-8.81934 50.4355 10.3428 100.469 39.6855 140.814c27.6846 38.0674 64.2422 72.8809 107.54 92.3555c42.7266 19.2207 94.8613 22.6719 137.089 0.0927734c41.6055 -22.2471 67.0596 -66.9941 77.6553 -111.544c12.6494 -53.1719 9.47754 -110.068 4.8418 -164.075
c-4.86426 -56.6787 -13.3408 -112.92 -19.1729 -169.491c-5.85254 -56.7637 -8.86816 -114.287 -2.90039 -171.179c0.0507812 -0.494141 0.117188 -0.993164 0.170898 -1.4873c12.4541 5.06641 25.083 9.58496 37.8115 13.499
c51.5771 15.8594 106.347 22.3232 160.082 16.2227c39.7725 -4.51367 84.3584 -19.0186 108.991 -52.6006c29.0049 -39.5371 13.542 -89.7236 -16.7305 -123.534c-32.6406 -36.4551 -79.4453 -55.4424 -127.541 -59.4463
c-51.0957 -4.25195 -102.112 14.1621 -141.55 46.3418c-37.8838 30.915 -57.9873 73.0635 -68.1152 119.402c-38.7334 -23.5342 -73.5039 -53.374 -101.437 -88.4287zM420.07 -65.6094c-36.2266 -5.19922 -72.1201 -15.5947 -106.125 -30.5244
c6.3877 -43.7871 20.6807 -88.46 50.4824 -121.691c29.7861 -33.2139 74.9629 -54.2217 120.056 -50.7041c48.2285 3.76367 96.9941 33.3809 118.232 77.4365c21.5527 44.7139 3.42285 88.8662 -39.5703 110.701c-42.96 21.8145 -96.5391 21.4609 -143.075 14.7822z" />
    <glyph glyph-name="I" unicode="&#xce;" horiz-adv-x="374" 
d="M163.584 -210.021c-29.3018 -36.7744 -53.9912 -82.3994 -56.1084 -130.262c-2.11426 -47.7832 24.5713 -88.5801 73.3604 -96.3701c44.8359 -7.16016 100.199 9.21387 130.315 44.0127c15.6904 18.1279 25.083 43.5977 20.2314 67.5957
c-4.53613 22.4463 -23.5801 42.4756 -46.8711 44.3447c-13.0361 1.04688 -7.62695 13.2891 3.00977 12.6748c20.334 -1.1748 38.7461 -9.05762 51.5459 -25.3057c31.0195 -39.3809 11.4199 -92.6191 -24.874 -120.774
c-35.3545 -27.4258 -84.1895 -39.8525 -128.488 -36.0537c-44.0479 3.77637 -84.9268 28.0146 -96.7158 72.7617c-11.9502 45.3662 4.6416 93.6865 27.3545 132.857c34.0537 58.7295 86.1064 105.755 145.581 138.981
c-0.0771484 0.460938 -0.168945 0.911133 -0.246094 1.36914c-19.3818 117.986 8.08008 238.29 22.8594 355.166c7.24023 57.2529 15.1582 117.893 6.62305 175.403c-7.55762 50.916 -37.5762 101.848 -93.0166 108.455
c-54.7363 6.52344 -103.697 -28.9561 -139.354 -66.6035c-36.8516 -38.9072 -65.8359 -88.375 -64.2158 -143.533c1.5791 -53.8838 35.1514 -96.749 85.6816 -114.014c51.8506 -17.7129 106.052 -0.489258 151.029 27.0488
c6.56348 4.01953 18.1348 4.19141 24.6348 0.000976562c6.2002 -3.99902 6.2998 -10.0615 0 -14.042c-21.873 -13.8164 -45.5068 -24.8604 -70.541 -31.5801c-46.6074 -12.5137 -97.0684 -11.6377 -140.804 10.2168c-40.0078 19.9912 -69.6533 56.3311 -77.4131 100.707
c-8.81934 50.4355 10.3428 100.469 39.6855 140.814c27.6846 38.0674 64.2422 72.8809 107.54 92.3555c42.7266 19.2207 94.8613 22.6719 137.089 0.0927734c41.6055 -22.2471 67.0596 -66.9941 77.6553 -111.544c12.6494 -53.1719 9.47754 -110.068 4.8418 -164.075
c-4.86426 -56.6787 -13.3408 -112.92 -19.1729 -169.491c-5.85254 -56.7637 -8.86816 -114.287 -2.90039 -171.179c0.0507812 -0.494141 0.117188 -0.993164 0.170898 -1.4873c12.4541 5.06641 25.083 9.58496 37.8115 13.499
c51.5771 15.8594 106.347 22.3232 160.082 16.2227c39.7725 -4.51367 84.3584 -19.0186 108.991 -52.6006c29.0049 -39.5371 13.542 -89.7236 -16.7305 -123.534c-32.6406 -36.4551 -79.4453 -55.4424 -127.541 -59.4463
c-51.0957 -4.25195 -102.112 14.1621 -141.55 46.3418c-37.8838 30.915 -57.9873 73.0635 -68.1152 119.402c-38.7334 -23.5342 -73.5039 -53.374 -101.437 -88.4287zM420.07 -65.6094c-36.2266 -5.19922 -72.1201 -15.5947 -106.125 -30.5244
c6.3877 -43.7871 20.6807 -88.46 50.4824 -121.691c29.7861 -33.2139 74.9629 -54.2217 120.056 -50.7041c48.2285 3.76367 96.9941 33.3809 118.232 77.4365c21.5527 44.7139 3.42285 88.8662 -39.5703 110.701c-42.96 21.8145 -96.5391 21.4609 -143.075 14.7822z" />
    <glyph glyph-name="I" unicode="&#xcd;" horiz-adv-x="374" 
d="M163.584 -210.021c-29.3018 -36.7744 -53.9912 -82.3994 -56.1084 -130.262c-2.11426 -47.7832 24.5713 -88.5801 73.3604 -96.3701c44.8359 -7.16016 100.199 9.21387 130.315 44.0127c15.6904 18.1279 25.083 43.5977 20.2314 67.5957
c-4.53613 22.4463 -23.5801 42.4756 -46.8711 44.3447c-13.0361 1.04688 -7.62695 13.2891 3.00977 12.6748c20.334 -1.1748 38.7461 -9.05762 51.5459 -25.3057c31.0195 -39.3809 11.4199 -92.6191 -24.874 -120.774
c-35.3545 -27.4258 -84.1895 -39.8525 -128.488 -36.0537c-44.0479 3.77637 -84.9268 28.0146 -96.7158 72.7617c-11.9502 45.3662 4.6416 93.6865 27.3545 132.857c34.0537 58.7295 86.1064 105.755 145.581 138.981
c-0.0771484 0.460938 -0.168945 0.911133 -0.246094 1.36914c-19.3818 117.986 8.08008 238.29 22.8594 355.166c7.24023 57.2529 15.1582 117.893 6.62305 175.403c-7.55762 50.916 -37.5762 101.848 -93.0166 108.455
c-54.7363 6.52344 -103.697 -28.9561 -139.354 -66.6035c-36.8516 -38.9072 -65.8359 -88.375 -64.2158 -143.533c1.5791 -53.8838 35.1514 -96.749 85.6816 -114.014c51.8506 -17.7129 106.052 -0.489258 151.029 27.0488
c6.56348 4.01953 18.1348 4.19141 24.6348 0.000976562c6.2002 -3.99902 6.2998 -10.0615 0 -14.042c-21.873 -13.8164 -45.5068 -24.8604 -70.541 -31.5801c-46.6074 -12.5137 -97.0684 -11.6377 -140.804 10.2168c-40.0078 19.9912 -69.6533 56.3311 -77.4131 100.707
c-8.81934 50.4355 10.3428 100.469 39.6855 140.814c27.6846 38.0674 64.2422 72.8809 107.54 92.3555c42.7266 19.2207 94.8613 22.6719 137.089 0.0927734c41.6055 -22.2471 67.0596 -66.9941 77.6553 -111.544c12.6494 -53.1719 9.47754 -110.068 4.8418 -164.075
c-4.86426 -56.6787 -13.3408 -112.92 -19.1729 -169.491c-5.85254 -56.7637 -8.86816 -114.287 -2.90039 -171.179c0.0507812 -0.494141 0.117188 -0.993164 0.170898 -1.4873c12.4541 5.06641 25.083 9.58496 37.8115 13.499
c51.5771 15.8594 106.347 22.3232 160.082 16.2227c39.7725 -4.51367 84.3584 -19.0186 108.991 -52.6006c29.0049 -39.5371 13.542 -89.7236 -16.7305 -123.534c-32.6406 -36.4551 -79.4453 -55.4424 -127.541 -59.4463
c-51.0957 -4.25195 -102.112 14.1621 -141.55 46.3418c-37.8838 30.915 -57.9873 73.0635 -68.1152 119.402c-38.7334 -23.5342 -73.5039 -53.374 -101.437 -88.4287zM420.07 -65.6094c-36.2266 -5.19922 -72.1201 -15.5947 -106.125 -30.5244
c6.3877 -43.7871 20.6807 -88.46 50.4824 -121.691c29.7861 -33.2139 74.9629 -54.2217 120.056 -50.7041c48.2285 3.76367 96.9941 33.3809 118.232 77.4365c21.5527 44.7139 3.42285 88.8662 -39.5703 110.701c-42.96 21.8145 -96.5391 21.4609 -143.075 14.7822z" />
    <glyph glyph-name="J" unicode="J" horiz-adv-x="598" 
d="M767.986 514.775c-12.9004 -84.1201 -122.117 -110.479 -192.037 -121.544c-21.8682 -3.45605 -43.7998 -5.57617 -65.7695 -6.75879c5.91406 -20.0703 10.6934 -40.3789 14.7178 -60.9561c19.4561 -99.5186 21.8193 -201.928 15.793 -302.918
c-5.91602 -99.1475 -21.7754 -199.229 -58.0303 -292.133c-16.2148 -41.5469 -37.9346 -82.4404 -70.3418 -113.716c-33.9609 -32.7734 -78.3799 -52.5986 -125.59 -54.918c-44.1582 -2.16797 -88.001 14.2832 -118.842 46.1045
c-30.0625 31.0176 -47.6191 71.6064 -57.9229 113.007c-4.71094 18.9316 -7.98047 38.1113 -10.1973 57.4189c-3.72949 -0.56543 -7.49512 -1.03418 -11.3457 -1.28223c-89.8291 -5.78613 -132.732 88.2461 -134.368 165.08
c-0.918945 43.1748 10.0068 87.2939 31.0068 125.044c9.56934 17.2012 21.4199 34.6172 39.752 43.2646c18.542 8.74512 40.1924 8.45801 58.2148 -1.34668c5.95508 -3.23828 5.36133 -9.10059 0.000976562 -12.4287c-6.16504 -3.83008 -15.5859 -3.38672 -21.8096 0
c-18.5908 10.1123 -38.917 -12.3057 -48.2998 -25.9863c-42.7041 -62.2646 -49.5059 -152.029 -15.8926 -219.763c16.415 -33.0752 45.7686 -62.71 85.1162 -61.9082c5.58105 0.115234 11.0264 0.740234 16.3389 1.79004
c-2.29395 25.0342 -2.94141 50.2451 -2.68262 75.3926c0.49707 48.4258 2.89551 97.0762 10.0635 145.013c6.72559 44.9844 19.208 89.8672 40.5693 130.167c18.2402 34.417 52.04 77.5176 96.9609 58.3682c38.1523 -16.2637 40.6973 -77.5947 40.9404 -112.293
c0.322266 -45.8115 -7.69336 -91.6826 -22.9717 -134.85c-19.3311 -54.6211 -54.1396 -118.66 -105.553 -152.351c5.1123 -60.875 19.1592 -124.532 58.9219 -169.486c19.5967 -22.1572 45.5889 -38.8281 76.1377 -35.0137c34.9141 4.35938 64.8564 26.5547 87.042 52.7412
c24.6816 29.1357 40.9561 64.958 54.168 100.483c15.0098 40.3486 26.335 82 34.4941 124.256c16.3408 84.6426 21.8857 171.592 21.0947 257.701c-0.791016 86.1885 -11.3584 170.659 -31.6035 254.362c-52.9365 0.427734 -105.965 4.84668 -158.707 8.61035
c-47.7959 3.41016 -96.0859 6.9043 -144.022 4.92578c-23.2891 -0.962891 -47.2793 -4.33984 -68.5381 -14.4033c-16.377 -7.75195 -43.5439 -25.6982 -40.5977 -46.6748c1.02441 -7.29395 -17.666 -7.34473 -19.2402 0c-4.00391 18.6934 13.8193 35.6104 27.3135 45.8271
c16.1133 12.2041 34.9248 20.1553 54.5625 24.6221c46.9385 10.6729 97.9932 7.10645 145.663 4.50586c68.4502 -3.73242 136.957 -11.1338 205.54 -11.4209c9.52051 10.3447 36.4287 10.9824 45.9238 0.998047c4.03418 0.202148 8.07129 0.401367 12.1055 0.672852
c42.8066 2.87207 85.5869 10.0576 126.253 23.9453c35.4492 12.1064 73.0283 30.1982 89.8711 65.8135c17.9941 38.0547 1.39746 75.7891 -33.2422 96.9609c-30.5771 18.6885 -68.0664 21.6914 -102.842 16.3076c-72.1494 -11.167 -134.763 -54.8613 -178.616 -111.976
c-5.27832 -6.87598 -31.5391 -2.69043 -25.4414 6.11328c48.0566 69.377 129.599 117.012 213.934 123.903c36.9434 3.02051 75.6328 -1.69531 108.485 -19.8076c32.4326 -17.877 59.5049 -50.4355 53.5195 -89.4658zM153.141 -145.649
c0.243164 -11.2256 0.636719 -22.8145 1.29688 -34.5908c10.3574 8.84766 19.7324 18.9238 28.0322 29.2949c49.9668 62.4443 77.5713 143.528 80.2109 223.092c0.675781 20.3086 0.104492 40.9473 -3.32812 61.0078c-2.77246 16.1924 -9.42578 49.5469 -28.0938 55.3379
c-18.2168 5.65234 -31.6465 -24.7578 -37.7471 -37.5195c-8.43555 -17.6514 -14.8838 -36.0938 -20.042 -54.9404c-21.21 -77.5098 -22.042 -161.807 -20.3291 -241.682z" />
    <glyph glyph-name="K" unicode="K" horiz-adv-x="668" 
d="M529.353 -241.327c-49.6719 -9.80469 -104.701 4.67578 -145.959 33.166c-40.7969 28.1709 -65.7754 67.4746 -80.1035 113.602c-37.5176 -27.4229 -70.3164 -61.0586 -95.1738 -99.4082c-24.4199 -37.6738 -43.8018 -81.9756 -43.5176 -127.593
c0.287109 -46.3496 26.2178 -87.3789 74.6611 -93.5664c45.0586 -5.75488 98.5684 14.5127 128.072 49.0527c15.6621 18.335 24.7197 43.5361 20.7979 67.6768c-3.85547 23.7285 -24.4023 47.1602 -49.708 47.0527c-13.8447 -0.0566406 -13.6377 12.541 0 12.9043
c20.8359 0.555664 41.0449 -7.33691 54.7695 -23.3066c32.5205 -37.8428 16.4482 -91.6211 -17.9277 -122.157c-33.7051 -29.9424 -83.0186 -46.5771 -127.937 -44.6318c-43.2871 1.87695 -84.1455 23.5293 -98.5459 66.4277
c-14.3359 42.7119 -3.10254 89.9219 14.9609 129.664c28.6826 63.1094 77.4053 115.429 134.957 154.211c-29.2666 115.975 -13.5508 237.205 -8.58984 355.046c2.47852 58.8418 6.07031 122.494 -8.71387 180.077c-12.8721 50.1406 -47.8955 97.4961 -104.329 96.9766
c-54.918 -0.503906 -99.9229 -40.4043 -131.992 -81.2705c-33.5078 -42.7012 -57.3623 -95.9014 -49.3467 -151.188c7.61133 -52.4932 46.6055 -90.9648 97.8623 -101.955c52.3398 -11.2207 103.973 11.6943 145.404 42.2383
c5.81641 4.28809 16.6611 3.6582 22.874 0.775391c4.41895 -2.05078 10.3711 -8.33594 4.48828 -12.8105c-19.3535 -14.7129 -39.749 -26.9141 -62.2949 -36.1074c-44.3701 -18.0947 -96.3057 -22.8311 -141.893 -6.26758
c-42.9268 15.5928 -79.2822 48.5684 -91.6494 93.415c-13.2324 47.9824 -1.4668 97.6338 22.6201 140.128c23.4473 41.3623 57.1113 80.4697 98.2764 104.908c41.5771 24.6865 95.2354 33.4287 140.594 13.8525c43.1465 -18.624 72.8682 -60.1377 87.4453 -103.628
c17.4951 -52.1963 19.333 -109.781 19.4102 -164.351c0.0253906 -17.4521 -0.31543 -34.8936 -0.801758 -52.332c16.4893 12.2598 32.6504 25.0723 48.917 37.25c26.0381 19.4922 51.8994 39.207 77.2002 59.6484c23.2812 18.8115 46.3623 38.0908 66.6914 60.1328
c10.1553 11.0137 20.1289 22.7744 26.4883 36.4805c5.91406 12.749 6.25488 27.7842 4.49121 41.5879c-1.56152 12.2109 31.166 13.1016 32.8398 -0.000976562c3.67871 -28.7666 -19.3232 -55.6396 -37.249 -76.0537c-20.8818 -23.7852 -45.1719 -44.2471 -69.8379 -63.9619
c-27.7432 -22.1748 -55.8037 -43.9834 -84.0381 -65.5312c-18.8164 -14.3594 -38.6895 -27.9688 -57.6924 -42.4277c23.207 1.47168 45.7021 -5.69141 63.0391 -25.5752c27.9893 -32.1006 39.2939 -75.6777 61.0898 -111.669
c18.668 -30.8281 56.5381 -71.9805 97.4551 -57.1963c18.0225 6.5127 33.416 24.4561 33.5898 44.1299c0.161133 18.2197 -12.252 38.5459 -31.1963 41.3232c-15.125 2.21973 -5.20996 14.2646 6.07227 12.5547c32.5303 -4.93359 54.4795 -37.082 45.0713 -69.2305
c-8.86035 -30.2695 -40.3896 -48.126 -70.2598 -50.2529c-37.4893 -2.66797 -72.8818 16.7393 -96.4062 45.0195c-25.1934 30.2881 -37.5713 66.9473 -51.4395 103.167c-6.15918 16.0928 -13.0713 33.7852 -26.127 45.6514
c-12.0703 10.9697 -25.8564 9.70508 -39.624 5.81348c-1.06738 -30.3799 -2.32422 -60.7549 -2.82617 -91.1582c-0.931641 -56.5742 1.00391 -113.655 11.6406 -169.366c11.5635 5.91895 23.332 11.3408 35.2383 16.2305c50.0566 20.5498 104.831 32.001 159.062 30.2041
c39.6826 -1.31348 85.5508 -11.5488 113.007 -42.5742c32.1436 -36.3213 23.0068 -86.8379 -3.73828 -123.416c-29.0791 -39.7725 -72.6562 -62.0039 -120.17 -71.3809zM349.143 -65.4111c9.90723 -42.6602 27.8438 -85.3066 59.4395 -116.104
c31.9111 -31.1016 79.8477 -48.3203 124.279 -40.5176c47.7773 8.38965 93.5537 40.5713 111.797 86.3447c18.4189 46.2158 -2.58105 90.2998 -48.083 108.123c-45.2256 17.7129 -98.2949 12.7285 -144.529 1.87109c-35.4512 -8.32227 -70.291 -21.8389 -102.903 -39.7178z
" />
    <glyph glyph-name="L" unicode="L" horiz-adv-x="421" 
d="M669.999 -447.64c-105.911 -58.5586 -226.508 2.88281 -306.847 76.5576c-41.0088 37.6045 -75.7002 81.6699 -105.949 128.242c-14.9023 -18.1914 -31.8477 -34.624 -51.2041 -48.333c-46.4521 -32.8965 -109.07 -45.8506 -163.686 -26.96
c-103.474 35.7871 -101.896 169.773 -36.7998 240.75c17.1035 18.6494 39.2627 32.0176 64.835 34.0293c26.916 2.12012 52.585 -8.47363 74.1172 -23.9414c39.0889 -28.0811 67.1113 -69.2002 93.7002 -109.413c53.7764 98.8477 71.8652 216.466 75.6494 327.525
c2.16113 63.4404 -1.80957 126.799 -13.3916 189.243c-10.207 55.0332 -25.0146 115.755 -57.9775 162.012c-33.6084 47.1611 -93.2646 77.6533 -149.724 52.2324c-51.0088 -22.9658 -89.084 -77.3232 -102.946 -130.369
c-13.8809 -53.1152 -0.604492 -114.008 42.7168 -150.109c20.1709 -16.8066 45.4355 -25.2363 71.6758 -22.2461c22.1621 2.52637 42.2607 17.5381 55.4883 34.9512c9.10645 11.9883 48.2695 3.15625 35.0928 -11.6924
c-16.6553 -18.7676 -38.0625 -29.6299 -62.6006 -34.1738c-49.1035 -9.09277 -98.7939 2.71875 -131.967 41.9951c-34.7803 41.1836 -42.8906 97.335 -28.2627 148.361c14.8457 51.7764 51.6641 102.13 99.6699 127.718c47.8164 25.4854 101.71 18.292 147.258 -8.52148
c50.502 -29.7324 84.5889 -83.5029 104.519 -137.422c22.3262 -60.3984 35.2744 -124.005 40.7734 -188.085c5.56543 -64.8252 2.89258 -130.403 -5.44336 -194.88c-7.98242 -61.75 -22.3135 -123.89 -47.1045 -181.16
c-11.1152 -25.6797 -24.5762 -50.7402 -40.8223 -73.6904c63.4941 -90.7275 143.323 -181.747 251.858 -214.817c52.4854 -15.9951 105.752 -7.60352 146.584 30.1367c37.8701 35.001 57.7178 84.3633 53.2578 135.851c-4.35742 50.2891 -31.3271 101.743 -73.0635 130.933
c-19.2793 13.4834 -42.7881 23.3115 -66.5039 23.9258c-12.3701 0.320312 -24.876 -0.680664 -36.5654 -4.94531c-5.69141 -2.07324 -11.0928 -4.76367 -16.2051 -8.02246c-2.22461 -1.41797 -5.28125 -3.16895 -6.99902 -4.95312
c-1.13379 -1.17773 -3.22266 -6.88867 -5.25293 -9.65137c10.6113 -1.44141 20.4551 -8 9.63867 -15.1729c-18.6963 -12.3955 -49.6133 5.46094 -29.2148 25.9561c34.7676 34.9346 79.709 42.4658 126.834 31.3193c48.9141 -11.5684 89.0293 -44.7158 114.469 -87.584
c25.6006 -43.1367 33.2627 -96.0547 19.9736 -144.455c-12.9336 -47.1074 -47.0918 -87.6484 -89.5811 -111.14zM111.218 -295.433c49.3906 10.5527 87.7275 54.2451 113.274 95.2002c0.957031 1.53613 1.87305 3.09473 2.8125 4.64062
c-21.7119 34.3711 -44.1865 68.1895 -72.6973 97.5635c-19.2031 19.7842 -44.5293 40.9248 -73.3857 42.5117c-29.2764 1.60742 -52.3477 -21.1152 -66.4863 -44.3652c-23.5547 -38.7334 -30.459 -93.416 -13.6162 -136.051
c17.9736 -45.4971 62.1035 -69.7529 110.099 -59.5z" />
    <glyph glyph-name="M" unicode="M" horiz-adv-x="876" 
d="M676.147 376.979c-9.73828 -23.8135 -18.542 -48.0234 -26.4678 -72.4922c-14.0771 -43.4561 -25.0928 -87.832 -33.8555 -132.65c0.762695 -14.4541 1.77637 -28.8955 3.26855 -43.3135c2.06836 -19.9609 -49.8105 -20.7188 -52.6416 0
c-8.81934 64.5488 -2.06641 130.162 -3.2207 195.062c-0.501953 28.2139 -3.24609 56.0137 -7.00684 83.9414c-1.61328 11.9756 -2.90625 24.8271 -8.66602 35.6738c-8.67871 16.3408 -24.0596 9.74316 -35.6104 -0.0615234
c-20.708 -17.5771 -35.1035 -42.5498 -47.2871 -66.4404c-13.4531 -26.3809 -24.8506 -53.8018 -35.1855 -81.5371c-20.3496 -54.6133 -37.7939 -110.599 -53.5176 -166.707c-15.8691 -56.6279 -27.8887 -114.349 -31.0479 -173.163
c0.34082 -1.8916 0.673828 -3.7832 1.03516 -5.67285c11.5635 5.91895 23.332 11.3408 35.2383 16.2305c50.0566 20.5498 104.831 32.001 159.062 30.2041c39.6826 -1.31348 85.5508 -11.5488 113.007 -42.5742c32.1465 -36.3213 23.0098 -86.8379 -3.73535 -123.416
c-29.0791 -39.7725 -72.6562 -62.0039 -120.17 -71.3809c-49.6699 -9.80273 -104.7 4.67188 -145.963 33.165c-40.7988 28.1709 -65.7744 67.4746 -80.1025 113.602c-37.5176 -27.4229 -70.3164 -61.0586 -95.1738 -99.4082
c-24.4199 -37.6738 -43.8018 -81.9756 -43.5176 -127.593c0.287109 -46.3496 26.2178 -87.3789 74.6611 -93.5664c45.0615 -5.75488 98.5713 14.5127 128.075 49.0527c15.6621 18.335 24.7197 43.5361 20.7979 67.6768c-3.85547 23.7285 -24.4023 47.1602 -49.708 47.0527
c-13.8447 -0.0566406 -13.6377 12.541 0 12.9043c20.8359 0.555664 41.0449 -7.33691 54.7695 -23.3066c32.5225 -37.8428 16.4482 -91.6211 -17.9277 -122.157c-33.7051 -29.9424 -83.0186 -46.5771 -127.937 -44.6318c-43.2871 1.87695 -84.1455 23.5293 -98.5459 66.4277
c-14.3359 42.7119 -3.09961 89.9219 14.9609 129.664c28.6826 63.1094 77.4053 115.429 134.957 154.211c-29.2666 115.975 -13.5508 237.205 -8.58984 355.046c2.47852 58.8428 6.07031 122.495 -8.71387 180.078c-12.8721 50.1406 -47.8955 97.4961 -104.329 96.9766
c-54.918 -0.503906 -99.9229 -40.4043 -131.992 -81.2705c-33.5078 -42.7012 -57.3643 -95.9014 -49.3467 -151.188c7.61133 -52.4932 46.6035 -90.9648 97.8633 -101.955c52.3398 -11.2207 103.973 11.6943 145.404 42.2383
c5.81641 4.28809 16.6611 3.6582 22.874 0.775391c4.41895 -2.05078 10.3711 -8.33594 4.48828 -12.8105c-19.3535 -14.7129 -39.749 -26.9141 -62.2949 -36.1074c-44.3701 -18.0947 -96.3027 -22.8311 -141.892 -6.26758
c-42.9268 15.5928 -79.2812 48.5684 -91.6484 93.415c-13.2324 47.9824 -1.4668 97.6338 22.6201 140.128c23.4473 41.3623 57.1113 80.4697 98.2764 104.908c41.5771 24.6865 95.2354 33.4287 140.594 13.8525c43.1465 -18.624 72.8682 -60.1377 87.4453 -103.628
c17.4951 -52.1963 19.333 -109.781 19.4102 -164.351c0.0820312 -57.5957 -3.60156 -115.063 -4.55176 -172.634c-0.458008 -27.7588 -0.214844 -55.6396 1.39551 -83.4209c7.50391 44.2861 18.8193 87.9629 31.6865 131.01
c18.9463 63.3887 38.6689 127.246 65.9512 187.622c12.3164 27.2539 26.0557 54.3008 45.1025 77.541c15.5186 18.9316 37.2969 37.6221 63.6348 33.2363c24.0898 -4.01172 37.3916 -24.8145 45.9521 -45.7432c12.3623 -30.2158 17.5869 -63.3018 20.7461 -95.6426
c2.37305 -24.2969 3.47168 -48.668 4.27344 -73.0576c5.37305 20.7393 11.4023 41.3145 18.0459 61.7021c8.67578 26.624 18.1533 53.1533 29.2949 78.8584c8.70703 20.083 19.5107 40.3584 36.1992 54.9971c29.0303 25.4619 70.1523 25.7334 92.793 -7.66211
c11.7168 -17.2852 15.4805 -39.8291 19.333 -59.9531c4.9541 -25.8691 7.1377 -52.5547 8.25098 -78.8467c4.39844 -103.745 -3.33008 -207.634 0.287109 -311.453c1.83008 -52.5498 5.98535 -105.008 12.8311 -157.147c5.68555 -43.3213 11.3916 -88.5264 26.6855 -129.717
c6.14453 -16.5508 13.7939 -33.9053 25.4854 -47.3252c10.9238 -12.5391 30.0781 -27.6562 47.7627 -21.0361c23.834 8.91895 30.1953 39.667 31.0918 61.8623c0.450195 11.1592 0.552734 22.9531 -1.73828 33.9385c-1.4873 7.125 -8.11035 28.0381 -17.4395 25.8438
c-7.4834 -1.76172 -28.7012 1.6123 -24.0137 13.6855c4.08789 10.5293 25.0312 9.8916 32.624 4.91016c16.6455 -10.9238 27.5947 -28.9238 30.5898 -48.4824c3.68945 -24.0771 3.42578 -51.3848 -6.91699 -73.834c-22.3154 -48.4355 -81.9873 -46.6406 -121.125 -19.8008
c-33.8486 23.2148 -52.9082 59.1572 -63.6016 97.9668c-13.5088 49.0293 -20.5078 100.33 -25.0723 150.898c-9.64648 106.86 -6.11328 213.645 -0.798828 320.613c2.70117 54.3721 5.71387 108.734 3.19238 163.184c-1.01367 21.8652 0.00488281 44.9053 -6.40039 66.0742
c-3.04102 10.0527 -8.63965 23.9951 -21.5117 22.9639c-11.1416 -0.893555 -22.1289 -10.499 -29.499 -18.1201c-15.5723 -16.0996 -24.8857 -37.2021 -33.2549 -57.667zM452.037 -25.6895c-35.4512 -8.3252 -70.292 -21.8418 -102.907 -39.7188
c9.91016 -42.6602 27.8428 -85.3076 59.4414 -116.103c31.9111 -31.1016 79.8506 -48.3203 124.28 -40.5176c47.7783 8.38965 93.5547 40.5713 111.798 86.3447c18.4189 46.2158 -2.58105 90.2998 -48.083 108.123c-45.2256 17.7129 -98.2949 12.7285 -144.529 1.87109z" />
    <glyph glyph-name="N" unicode="N" horiz-adv-x="840" 
d="M902.295 -397.289c-43.7744 34.9854 -74.4736 84.1602 -97.3887 134.646c-28.002 61.6758 -47.957 126.862 -63.3271 192.729c-15.6953 67.2568 -25.999 135.472 -33.3486 204.108c-7.48828 69.9531 -9.44434 140.211 -15.7236 210.238
c-2.94629 32.8682 -4.08008 67.7715 -14.082 99.4004c-4.85352 15.3525 -12.3369 30.0264 -28.5752 35.5791c-16.6807 5.70605 -32.875 -4.51367 -45.998 -14.0195c-52.2705 -37.8574 -86.5879 -95.1689 -116.753 -150.932
c-62.1523 -114.907 -109.633 -237.622 -141.229 -364.364c0.0302734 -0.161133 0.0556641 -0.320312 0.0859375 -0.481445c11.5664 5.91895 23.335 11.3408 35.2412 16.2305c50.0566 20.5498 104.831 32.001 159.062 30.2041
c39.6826 -1.31348 85.5479 -11.5488 113.007 -42.5742c32.1436 -36.3213 23.0068 -86.8379 -3.73828 -123.416c-29.0791 -39.7725 -72.6533 -62.0039 -120.17 -71.3809c-49.6699 -9.80273 -104.7 4.67188 -145.963 33.165
c-40.7969 28.1709 -65.7754 67.4746 -80.1035 113.602c-37.5176 -27.4229 -70.3164 -61.0586 -95.1738 -99.4082c-24.4199 -37.6738 -43.8018 -81.9756 -43.5176 -127.593c0.287109 -46.3496 26.2178 -87.3789 74.6611 -93.5664
c45.0615 -5.75488 98.5713 14.5127 128.075 49.0527c15.6621 18.335 24.7197 43.5361 20.7979 67.6768c-3.85547 23.7285 -24.4023 47.1602 -49.708 47.0527c-13.8447 -0.0566406 -13.6377 12.541 0 12.9043c20.8389 0.555664 41.0449 -7.33691 54.7695 -23.3066
c32.5225 -37.8428 16.4482 -91.6211 -17.9248 -122.157c-33.7051 -29.9424 -83.0215 -46.5771 -127.939 -44.6318c-43.2871 1.87695 -84.1455 23.5293 -98.5459 66.4277c-14.3359 42.7119 -3.10254 89.9219 14.9609 129.664
c28.6826 63.1094 77.4053 115.429 134.957 154.211c-29.2686 115.975 -13.5498 237.205 -8.58887 355.046c2.47852 58.8418 6.07031 122.494 -8.71387 180.077c-12.874 50.1406 -47.8975 97.4961 -104.331 96.9766c-54.918 -0.503906 -99.9229 -40.4043 -131.992 -81.2705
c-33.5078 -42.7012 -57.3623 -95.9014 -49.3467 -151.188c7.61133 -52.4932 46.6035 -90.9648 97.8633 -101.955c52.3398 -11.2207 103.973 11.6943 145.404 42.2383c5.81641 4.28809 16.6611 3.6582 22.874 0.775391c4.41602 -2.05078 10.3682 -8.33594 4.48535 -12.8105
c-19.3535 -14.7129 -39.749 -26.9141 -62.2949 -36.1074c-44.3682 -18.0947 -96.3037 -22.8311 -141.893 -6.26758c-42.9268 15.5928 -79.2822 48.5684 -91.6494 93.415c-13.2324 47.9824 -1.4668 97.6338 22.6201 140.128c23.4473 41.3623 57.1113 80.4697 98.2764 104.908
c41.5771 24.6865 95.2354 33.4287 140.594 13.8525c43.1465 -18.624 72.8682 -60.1377 87.4453 -103.628c17.4951 -52.1963 19.333 -109.781 19.4102 -164.351c0.0820312 -57.5957 -3.60156 -115.063 -4.55176 -172.634
c-0.663086 -40.1309 0.132812 -80.5156 4.43848 -120.485c34.0381 121.829 82.3232 240.172 145.615 349.572c28.9434 50.0283 65.001 103.108 115.938 133.048c23.752 13.9619 51.6025 16.5068 75.2109 0.901367c26.1943 -17.3184 39.5479 -42.1611 48.0957 -71.7783
c19.2666 -66.7734 23.1836 -137 31.25 -205.706c8.07715 -68.7773 16.0469 -137.394 28.7803 -205.514c12.3672 -66.167 29.1504 -131.537 52.5928 -194.686c20.3193 -54.7383 44.957 -110.362 82.4619 -155.713c31.3809 -37.9502 78.124 -73.7236 130.189 -69.1152
c27.8398 2.46289 52.4033 18.4502 64.8525 43.5996c11.167 22.5586 13.1865 51.4766 -3.02637 72.1484c-10.1738 12.9668 21.5293 17.7871 29.0967 6.99121c15.9463 -22.7539 17.8838 -52.1299 8.65234 -77.9043c-10.1758 -28.4111 -33.2393 -47.4268 -60.6035 -58.458
c-62.7031 -25.2803 -134.725 -3.80176 -185.564 36.8311zM452.043 -25.6914c-35.4512 -8.3252 -70.292 -21.8418 -102.904 -39.7188c9.91016 -42.6602 27.8428 -85.3076 59.4414 -116.103c31.9082 -31.1016 79.8477 -48.3203 124.277 -40.5176
c47.7783 8.38965 93.5547 40.5713 111.798 86.3447c18.4189 46.2158 -2.58105 90.2998 -48.083 108.123c-45.2256 17.7129 -98.2949 12.7285 -144.529 1.87109z" />
    <glyph glyph-name="O" unicode="O" 
d="M612.076 -175.645c-47.3936 -65.0273 -111.346 -119.402 -187.714 -146.858c-80.252 -28.8545 -171.294 -21.6738 -241.912 27.9502c-94.8184 66.627 -138.208 181.759 -141.945 296.428c-52.4756 48.8965 -70.5547 124.827 -70.5039 194.258
c0.0537109 74.6221 19.5127 149.272 54.2344 215.214c70.6904 134.253 218.092 249.815 377.019 230.354c75.1064 -9.19824 144.673 -52.0254 193.817 -108.484c54.3721 -62.4697 84.3037 -140.556 101.433 -220.667c35.3076 -165.152 17.126 -348.857 -84.4277 -488.194z
M509.209 -219.631c50.21 48.2178 87.7363 108.262 112.566 173.125c28.1709 73.6064 38.7666 153.151 37.4355 231.703c-1.28809 76.0049 -12.0889 154.203 -38.2549 225.827c-24.1543 66.1182 -62.8516 128.49 -120.793 170.045
c-58.8018 42.1709 -130.127 54.623 -199.908 35.2461c-134.806 -37.4307 -237.043 -157.9 -278.004 -288.255c-26.4141 -84.0508 -33.5537 -207.203 18.5664 -285.788c1.51855 31.7773 6.00586 63.0684 13.2256 92.8105c18.2939 75.3594 54.8994 148.72 108.777 205.013
c49.501 51.7207 118.404 90.249 191.849 86.1143c74.0361 -4.16797 139.967 -49.9844 175.912 -113.88c38.6924 -68.7832 44.1504 -153.644 26.1865 -229.448c-16.9521 -71.5322 -56.2744 -138.738 -115.042 -183.777
c-30.7822 -23.5908 -66.4561 -40.6201 -105.801 -41.1777c-33.2031 -0.46875 -75.6406 14.3896 -91.4717 46.1084c-9.3418 18.7139 39.7773 24.1436 48.0586 7.55176c6.67676 -13.3711 12.3604 -22.9404 25.8975 -30.5234
c14.2363 -7.97461 28.9541 -9.0625 44.8594 -5.75977c36.3525 7.55176 68.5322 34.2168 93.4922 60.5234c23.7188 24.999 42.8008 54.1299 57.0986 85.4521c29 63.5322 38.4648 136.024 25.4854 204.748c-13.4629 71.2793 -54.6719 137.486 -121.084 170.047
c-64.9043 31.8213 -134.471 13.7529 -189.353 -28.9766c-108.775 -84.6885 -155.768 -234.76 -145.246 -368.931c12.2422 -8.4707 26.0742 -15.4746 41.6621 -20.6895c62.3369 -20.8516 133.209 -4.69531 183.099 37.2529c23.9238 20.1172 42.958 45.2461 53.3213 74.8838
c10.3574 29.625 12.5312 67.04 -11.7451 90.5078c-14.8535 14.3564 27.3203 25.7842 38.0264 12.6689c22.459 -27.5127 20.6748 -63.9961 10.7393 -96.3398c-38.0879 -123.982 -199.449 -180.369 -312.078 -126.071c9.0166 -64.7969 31.9287 -129.496 71.6934 -181.575
c39.4014 -51.6055 99.7695 -94.5371 166.827 -95.123c69.8809 -0.612305 135.139 39.7598 184.002 86.6875z" />
    <glyph glyph-name="O" unicode="&#xd6;" 
d="M612.076 -175.645c-47.3936 -65.0273 -111.346 -119.402 -187.714 -146.858c-80.252 -28.8545 -171.294 -21.6738 -241.912 27.9502c-94.8184 66.627 -138.208 181.759 -141.945 296.428c-52.4756 48.8965 -70.5547 124.827 -70.5039 194.258
c0.0537109 74.6221 19.5127 149.272 54.2344 215.214c70.6904 134.253 218.092 249.815 377.019 230.354c75.1064 -9.19824 144.673 -52.0254 193.817 -108.484c54.3721 -62.4697 84.3037 -140.556 101.433 -220.667c35.3076 -165.152 17.126 -348.857 -84.4277 -488.194z
M509.209 -219.631c50.21 48.2178 87.7363 108.262 112.566 173.125c28.1709 73.6064 38.7666 153.151 37.4355 231.703c-1.28809 76.0049 -12.0889 154.203 -38.2549 225.827c-24.1543 66.1182 -62.8516 128.49 -120.793 170.045
c-58.8018 42.1709 -130.127 54.623 -199.908 35.2461c-134.806 -37.4307 -237.043 -157.9 -278.004 -288.255c-26.4141 -84.0508 -33.5537 -207.203 18.5664 -285.788c1.51855 31.7773 6.00586 63.0684 13.2256 92.8105c18.2939 75.3594 54.8994 148.72 108.777 205.013
c49.501 51.7207 118.404 90.249 191.849 86.1143c74.0361 -4.16797 139.967 -49.9844 175.912 -113.88c38.6924 -68.7832 44.1504 -153.644 26.1865 -229.448c-16.9521 -71.5322 -56.2744 -138.738 -115.042 -183.777
c-30.7822 -23.5908 -66.4561 -40.6201 -105.801 -41.1777c-33.2031 -0.46875 -75.6406 14.3896 -91.4717 46.1084c-9.3418 18.7139 39.7773 24.1436 48.0586 7.55176c6.67676 -13.3711 12.3604 -22.9404 25.8975 -30.5234
c14.2363 -7.97461 28.9541 -9.0625 44.8594 -5.75977c36.3525 7.55176 68.5322 34.2168 93.4922 60.5234c23.7188 24.999 42.8008 54.1299 57.0986 85.4521c29 63.5322 38.4648 136.024 25.4854 204.748c-13.4629 71.2793 -54.6719 137.486 -121.084 170.047
c-64.9043 31.8213 -134.471 13.7529 -189.353 -28.9766c-108.775 -84.6885 -155.768 -234.76 -145.246 -368.931c12.2422 -8.4707 26.0742 -15.4746 41.6621 -20.6895c62.3369 -20.8516 133.209 -4.69531 183.099 37.2529c23.9238 20.1172 42.958 45.2461 53.3213 74.8838
c10.3574 29.625 12.5312 67.04 -11.7451 90.5078c-14.8535 14.3564 27.3203 25.7842 38.0264 12.6689c22.459 -27.5127 20.6748 -63.9961 10.7393 -96.3398c-38.0879 -123.982 -199.449 -180.369 -312.078 -126.071c9.0166 -64.7969 31.9287 -129.496 71.6934 -181.575
c39.4014 -51.6055 99.7695 -94.5371 166.827 -95.123c69.8809 -0.612305 135.139 39.7598 184.002 86.6875z" />
    <glyph glyph-name="O" unicode="&#xd5;" 
d="M612.076 -175.645c-47.3936 -65.0273 -111.346 -119.402 -187.714 -146.858c-80.252 -28.8545 -171.294 -21.6738 -241.912 27.9502c-94.8184 66.627 -138.208 181.759 -141.945 296.428c-52.4756 48.8965 -70.5547 124.827 -70.5039 194.258
c0.0537109 74.6221 19.5127 149.272 54.2344 215.214c70.6904 134.253 218.092 249.815 377.019 230.354c75.1064 -9.19824 144.673 -52.0254 193.817 -108.484c54.3721 -62.4697 84.3037 -140.556 101.433 -220.667c35.3076 -165.152 17.126 -348.857 -84.4277 -488.194z
M509.209 -219.631c50.21 48.2178 87.7363 108.262 112.566 173.125c28.1709 73.6064 38.7666 153.151 37.4355 231.703c-1.28809 76.0049 -12.0889 154.203 -38.2549 225.827c-24.1543 66.1182 -62.8516 128.49 -120.793 170.045
c-58.8018 42.1709 -130.127 54.623 -199.908 35.2461c-134.806 -37.4307 -237.043 -157.9 -278.004 -288.255c-26.4141 -84.0508 -33.5537 -207.203 18.5664 -285.788c1.51855 31.7773 6.00586 63.0684 13.2256 92.8105c18.2939 75.3594 54.8994 148.72 108.777 205.013
c49.501 51.7207 118.404 90.249 191.849 86.1143c74.0361 -4.16797 139.967 -49.9844 175.912 -113.88c38.6924 -68.7832 44.1504 -153.644 26.1865 -229.448c-16.9521 -71.5322 -56.2744 -138.738 -115.042 -183.777
c-30.7822 -23.5908 -66.4561 -40.6201 -105.801 -41.1777c-33.2031 -0.46875 -75.6406 14.3896 -91.4717 46.1084c-9.3418 18.7139 39.7773 24.1436 48.0586 7.55176c6.67676 -13.3711 12.3604 -22.9404 25.8975 -30.5234
c14.2363 -7.97461 28.9541 -9.0625 44.8594 -5.75977c36.3525 7.55176 68.5322 34.2168 93.4922 60.5234c23.7188 24.999 42.8008 54.1299 57.0986 85.4521c29 63.5322 38.4648 136.024 25.4854 204.748c-13.4629 71.2793 -54.6719 137.486 -121.084 170.047
c-64.9043 31.8213 -134.471 13.7529 -189.353 -28.9766c-108.775 -84.6885 -155.768 -234.76 -145.246 -368.931c12.2422 -8.4707 26.0742 -15.4746 41.6621 -20.6895c62.3369 -20.8516 133.209 -4.69531 183.099 37.2529c23.9238 20.1172 42.958 45.2461 53.3213 74.8838
c10.3574 29.625 12.5312 67.04 -11.7451 90.5078c-14.8535 14.3564 27.3203 25.7842 38.0264 12.6689c22.459 -27.5127 20.6748 -63.9961 10.7393 -96.3398c-38.0879 -123.982 -199.449 -180.369 -312.078 -126.071c9.0166 -64.7969 31.9287 -129.496 71.6934 -181.575
c39.4014 -51.6055 99.7695 -94.5371 166.827 -95.123c69.8809 -0.612305 135.139 39.7598 184.002 86.6875z" />
    <glyph glyph-name="O" unicode="&#xd4;" 
d="M612.076 -175.645c-47.3936 -65.0273 -111.346 -119.402 -187.714 -146.858c-80.252 -28.8545 -171.294 -21.6738 -241.912 27.9502c-94.8184 66.627 -138.208 181.759 -141.945 296.428c-52.4756 48.8965 -70.5547 124.827 -70.5039 194.258
c0.0537109 74.6221 19.5127 149.272 54.2344 215.214c70.6904 134.253 218.092 249.815 377.019 230.354c75.1064 -9.19824 144.673 -52.0254 193.817 -108.484c54.3721 -62.4697 84.3037 -140.556 101.433 -220.667c35.3076 -165.152 17.126 -348.857 -84.4277 -488.194z
M509.209 -219.631c50.21 48.2178 87.7363 108.262 112.566 173.125c28.1709 73.6064 38.7666 153.151 37.4355 231.703c-1.28809 76.0049 -12.0889 154.203 -38.2549 225.827c-24.1543 66.1182 -62.8516 128.49 -120.793 170.045
c-58.8018 42.1709 -130.127 54.623 -199.908 35.2461c-134.806 -37.4307 -237.043 -157.9 -278.004 -288.255c-26.4141 -84.0508 -33.5537 -207.203 18.5664 -285.788c1.51855 31.7773 6.00586 63.0684 13.2256 92.8105c18.2939 75.3594 54.8994 148.72 108.777 205.013
c49.501 51.7207 118.404 90.249 191.849 86.1143c74.0361 -4.16797 139.967 -49.9844 175.912 -113.88c38.6924 -68.7832 44.1504 -153.644 26.1865 -229.448c-16.9521 -71.5322 -56.2744 -138.738 -115.042 -183.777
c-30.7822 -23.5908 -66.4561 -40.6201 -105.801 -41.1777c-33.2031 -0.46875 -75.6406 14.3896 -91.4717 46.1084c-9.3418 18.7139 39.7773 24.1436 48.0586 7.55176c6.67676 -13.3711 12.3604 -22.9404 25.8975 -30.5234
c14.2363 -7.97461 28.9541 -9.0625 44.8594 -5.75977c36.3525 7.55176 68.5322 34.2168 93.4922 60.5234c23.7188 24.999 42.8008 54.1299 57.0986 85.4521c29 63.5322 38.4648 136.024 25.4854 204.748c-13.4629 71.2793 -54.6719 137.486 -121.084 170.047
c-64.9043 31.8213 -134.471 13.7529 -189.353 -28.9766c-108.775 -84.6885 -155.768 -234.76 -145.246 -368.931c12.2422 -8.4707 26.0742 -15.4746 41.6621 -20.6895c62.3369 -20.8516 133.209 -4.69531 183.099 37.2529c23.9238 20.1172 42.958 45.2461 53.3213 74.8838
c10.3574 29.625 12.5312 67.04 -11.7451 90.5078c-14.8535 14.3564 27.3203 25.7842 38.0264 12.6689c22.459 -27.5127 20.6748 -63.9961 10.7393 -96.3398c-38.0879 -123.982 -199.449 -180.369 -312.078 -126.071c9.0166 -64.7969 31.9287 -129.496 71.6934 -181.575
c39.4014 -51.6055 99.7695 -94.5371 166.827 -95.123c69.8809 -0.612305 135.139 39.7598 184.002 86.6875z" />
    <glyph glyph-name="O" unicode="&#xd3;" 
d="M612.076 -175.645c-47.3936 -65.0273 -111.346 -119.402 -187.714 -146.858c-80.252 -28.8545 -171.294 -21.6738 -241.912 27.9502c-94.8184 66.627 -138.208 181.759 -141.945 296.428c-52.4756 48.8965 -70.5547 124.827 -70.5039 194.258
c0.0537109 74.6221 19.5127 149.272 54.2344 215.214c70.6904 134.253 218.092 249.815 377.019 230.354c75.1064 -9.19824 144.673 -52.0254 193.817 -108.484c54.3721 -62.4697 84.3037 -140.556 101.433 -220.667c35.3076 -165.152 17.126 -348.857 -84.4277 -488.194z
M509.209 -219.631c50.21 48.2178 87.7363 108.262 112.566 173.125c28.1709 73.6064 38.7666 153.151 37.4355 231.703c-1.28809 76.0049 -12.0889 154.203 -38.2549 225.827c-24.1543 66.1182 -62.8516 128.49 -120.793 170.045
c-58.8018 42.1709 -130.127 54.623 -199.908 35.2461c-134.806 -37.4307 -237.043 -157.9 -278.004 -288.255c-26.4141 -84.0508 -33.5537 -207.203 18.5664 -285.788c1.51855 31.7773 6.00586 63.0684 13.2256 92.8105c18.2939 75.3594 54.8994 148.72 108.777 205.013
c49.501 51.7207 118.404 90.249 191.849 86.1143c74.0361 -4.16797 139.967 -49.9844 175.912 -113.88c38.6924 -68.7832 44.1504 -153.644 26.1865 -229.448c-16.9521 -71.5322 -56.2744 -138.738 -115.042 -183.777
c-30.7822 -23.5908 -66.4561 -40.6201 -105.801 -41.1777c-33.2031 -0.46875 -75.6406 14.3896 -91.4717 46.1084c-9.3418 18.7139 39.7773 24.1436 48.0586 7.55176c6.67676 -13.3711 12.3604 -22.9404 25.8975 -30.5234
c14.2363 -7.97461 28.9541 -9.0625 44.8594 -5.75977c36.3525 7.55176 68.5322 34.2168 93.4922 60.5234c23.7188 24.999 42.8008 54.1299 57.0986 85.4521c29 63.5322 38.4648 136.024 25.4854 204.748c-13.4629 71.2793 -54.6719 137.486 -121.084 170.047
c-64.9043 31.8213 -134.471 13.7529 -189.353 -28.9766c-108.775 -84.6885 -155.768 -234.76 -145.246 -368.931c12.2422 -8.4707 26.0742 -15.4746 41.6621 -20.6895c62.3369 -20.8516 133.209 -4.69531 183.099 37.2529c23.9238 20.1172 42.958 45.2461 53.3213 74.8838
c10.3574 29.625 12.5312 67.04 -11.7451 90.5078c-14.8535 14.3564 27.3203 25.7842 38.0264 12.6689c22.459 -27.5127 20.6748 -63.9961 10.7393 -96.3398c-38.0879 -123.982 -199.449 -180.369 -312.078 -126.071c9.0166 -64.7969 31.9287 -129.496 71.6934 -181.575
c39.4014 -51.6055 99.7695 -94.5371 166.827 -95.123c69.8809 -0.612305 135.139 39.7598 184.002 86.6875z" />
    <glyph glyph-name="P" unicode="P" 
d="M776.193 299.979c-7.78027 -51.9072 -29.7051 -101.889 -66.5801 -139.772c-36.2266 -37.2354 -86.2646 -60.7129 -138.154 -63.5908c-44.0967 -2.44531 -101.931 13.46 -114.475 61.834c-12.2314 47.1689 13.2256 93.1084 50.4893 120.908
c18.4502 13.7656 40.7588 26.0898 64.2295 27.1416c20.3193 0.90918 42.5068 -7.57715 50.0283 -27.8574c3.18457 -8.58594 -17.5771 -10.3955 -20.2881 -3.18945c-11.7686 31.3037 -46.5674 15.8975 -66.625 2.78516
c-19.1465 -12.5186 -36.1631 -29.5762 -44.9619 -50.9648c-17.2852 -42.0176 4.31934 -91.8945 50.2871 -101.254c35.4873 -7.22656 74.3281 8.5 102.608 29.1162c34.3066 25.0068 58.5273 61.2285 73.2266 100.687c27.042 72.5898 33.084 183.749 -42.752 230.544
c-36.2451 22.3672 -79.543 14.8252 -114.393 -6.41504c-36.5928 -22.3027 -61.4785 -58.5557 -78.4668 -97.1816c-18.3428 -41.7051 -28.7236 -86.7568 -37.4199 -131.307c-9.43359 -48.333 -15.9717 -97.1631 -22.1055 -146.006
c-0.0996094 -0.795898 -0.429688 -1.48242 -0.865234 -2.10938c-3.04883 -21.3662 -6.91699 -42.5557 -11.8223 -63.4434c-21.7959 -92.8242 -67.6152 -193.219 -158.348 -236.432c-82.8652 -39.4658 -186.101 -21.5664 -240.013 56.248
c-49.9463 72.0928 -37.5889 174.338 28.1191 232.016c58.9033 51.7051 170.042 72.4824 215.885 -7.0166c20.375 -35.334 15.5469 -79.0771 -9.68945 -110.647c-24.7891 -31.0098 -72.8535 -49.5137 -108.925 -26.8008c-6.64062 4.18066 -4.71289 9.80273 1.53125 12.8623
c6.73535 3.2998 16.415 2.43164 22.2188 -2.41699c16.5664 -13.8477 39.8857 -3.11133 54.1885 8.84375c29.1279 24.3438 40.9424 66.4277 27.0439 101.94c-15.1934 38.8252 -52.0039 60.4238 -93.1973 57.2725c-77.0645 -5.89844 -139.975 -72.833 -145.537 -148.933
c-5.72461 -78.3193 47.6777 -150.151 125.334 -164.201c76.832 -13.9014 142.84 43.0391 179.262 105.319c43.8047 74.9062 61.1592 162.045 67.1191 247.706c6.00879 86.3604 7.04004 176.717 -6.69727 262.394c-11.6582 72.71 -39.79 163.002 -111.673 197.675
c-76.9033 37.0918 -163.578 -11.4824 -209.503 -74.2109c-46.0752 -62.9385 -75.6641 -155.801 -34.2607 -228.16c19.9912 -34.9365 54.6846 -57.6543 95.3252 -58.9316c41.8467 -1.31055 82.165 15.6064 115.732 39.5176c5.16113 3.67871 14.7617 3.36914 20.248 0.688477
c3.82715 -1.86914 9.24707 -7.35059 3.9707 -11.3389c-18.376 -13.8955 -38.0449 -24.7754 -59.7998 -32.4736c-43.5508 -15.4111 -96.5508 -20.0811 -139.29 0.407227c-37.6064 18.0273 -63.5039 55.7695 -73.1172 95.6289
c-21.1455 87.6865 26.2812 189.824 94.2471 245.372c68.5322 56.0137 170.88 66.9707 243.096 11.2725c77.9883 -60.1504 103.916 -168.529 112.075 -261.701c2.16602 -24.7197 3.75293 -49.7236 4.62109 -74.8428c2.08691 9.65137 4.28809 19.2852 6.65332 28.8828
c13.3945 54.3447 32.6738 109.711 71.5068 151.424c30.917 33.209 75.1621 54.6055 120.661 56.4844c47.752 1.97363 91.667 -22.4102 119.5 -60.4678c31.8984 -43.6182 37.5693 -101.157 29.751 -153.305z" />
    <glyph glyph-name="Q" unicode="Q" 
d="M612.078 -175.645c-47.3936 -65.0273 -111.344 -119.401 -187.709 -146.855c-25.7207 -9.24902 -52.5498 -14.7734 -79.458 -16.4062c-1.33887 -18.207 -1.73047 -36.4111 -0.957031 -54.4443c19.8223 0.15625 39.3242 -1.33398 57.29 -3.79883
c41.5186 -5.70117 85.6025 -19.9678 109.147 -57.2109c19.7148 -31.1865 12.7334 -71.0127 -14.6465 -95.292c-29.7373 -26.3682 -73.3652 -26.1143 -106.866 -6.95508c-33.877 19.377 -53.3896 55.0869 -61.9707 92.0918
c-4.1084 17.7227 -5.78809 35.7891 -6.07227 53.9395c-46.2295 -4.25 -89.8545 -21.9883 -113.973 -65.8906c-14.8125 -26.9619 -20.5801 -72.6377 14.1953 -87.1816c34.207 -14.3057 68.5039 15.1396 92.9834 35.3662c6.03125 4.98438 27.3047 0.366211 19.2021 -6.39746
c-33.8389 -28.2549 -74.3076 -56.4463 -120.562 -41.5371c-43.5566 14.042 -49.4092 63.0645 -32.4307 100.366c25.3984 55.7988 82.418 76.9883 140.672 81.5293c0.46875 18.3857 2.06152 36.7822 3.7334 54.917c-50.2588 0.639648 -99.9004 15.1221 -142.207 44.8516
c-94.8184 66.627 -138.208 181.759 -141.945 296.428c-52.4785 48.8965 -70.5547 124.827 -70.5039 194.258c0.0537109 74.6221 19.5127 149.272 54.2344 215.214c70.6875 134.253 218.092 249.815 377.016 230.354c75.1084 -9.19824 144.675 -52.0254 193.819 -108.484
c54.375 -62.4697 84.3066 -140.556 101.434 -220.667c35.3105 -165.152 17.1289 -348.857 -84.4248 -488.194zM391.205 -412.895c-14.9502 2.08594 -30.5771 3.36621 -46.2393 3.38672c0.980469 -11.7402 2.47266 -23.3857 4.57715 -34.8799
c5.69629 -31.1016 17.0859 -62.2627 40.0088 -84.8906c22.9844 -22.6924 57.1885 -34.6787 82.9014 -9.4082c21.3535 20.9824 25.2471 52.624 9.73047 78.1035c-19.292 31.6748 -56.3643 42.8574 -90.9785 47.6885zM509.211 -219.63
c50.207 48.2178 87.7344 108.264 112.554 173.13c28.1709 73.6064 38.7666 153.151 37.4355 231.703c-1.28809 76.0049 -12.0859 154.203 -38.252 225.827c-24.1543 66.1182 -62.8516 128.49 -120.793 170.045c-58.8018 42.1709 -130.124 54.623 -199.908 35.2461
c-134.806 -37.4307 -237.04 -157.9 -278.003 -288.255c-26.4121 -84.0508 -33.5518 -207.203 18.5684 -285.788c1.51855 31.7773 6.00391 63.0684 13.2256 92.8105c18.2939 75.3594 54.8994 148.72 108.777 205.013c49.501 51.7207 118.404 90.249 191.849 86.1143
c74.0391 -4.16797 139.968 -49.9844 175.913 -113.88c38.6953 -68.7832 44.1533 -153.644 26.1895 -229.448c-16.9502 -71.5322 -56.2744 -138.738 -115.042 -183.777c-30.7793 -23.5908 -66.4531 -40.6201 -105.798 -41.1777
c-33.2031 -0.46875 -75.6377 14.3896 -91.4717 46.1084c-9.3418 18.7139 39.7773 24.1436 48.0586 7.55176c6.67676 -13.3711 12.3604 -22.9404 25.8975 -30.5234c14.2363 -7.97461 28.9541 -9.0625 44.8594 -5.75977c36.3525 7.55176 68.5293 34.2168 93.4893 60.5234
c23.7188 24.999 42.8008 54.1299 57.0986 85.4521c29 63.5322 38.4619 136.024 25.4824 204.748c-13.4609 71.2793 -54.6699 137.486 -121.082 170.047c-64.9072 31.8213 -134.471 13.7529 -189.353 -28.9766c-108.775 -84.6885 -155.768 -234.76 -145.246 -368.931
c12.2422 -8.4707 26.0713 -15.4746 41.6592 -20.6895c62.3389 -20.8516 133.208 -4.69531 183.098 37.2529c23.9258 20.1172 42.957 45.2461 53.3203 74.8838c10.3604 29.625 12.5312 67.04 -11.7432 90.5078c-14.8535 14.3564 27.3203 25.7842 38.0264 12.6689
c22.459 -27.5127 20.6748 -63.9961 10.7393 -96.3398c-38.0879 -123.982 -199.449 -180.37 -312.078 -126.072c9.0166 -64.7969 31.9316 -129.496 71.6943 -181.575c39.4043 -51.6055 99.7695 -94.5371 166.829 -95.123
c1.10059 -0.00976562 2.19629 0.0205078 3.29492 0.0302734c5.25293 37.9805 13.4453 75.5127 24.3203 112.306c1.97656 6.68945 20.8467 5.24023 18.5527 -2.91602c-9.71777 -34.5732 -18.002 -71.1123 -22.9453 -108.115c61.0312 7.20605 117.375 43.6914 160.783 85.3789
z" />
    <glyph glyph-name="R" unicode="R" horiz-adv-x="719" 
d="M512.17 -128.657c-53.6143 -29.9707 -100.021 -78.623 -118.86 -137.973c-17.8486 -56.2051 -0.432617 -137.46 66.917 -149.656c59.9658 -10.8574 104.146 53.6836 82.0664 107.575c-5.14844 12.5645 26.5859 15.8691 30.5107 4.79492
c4.75684 -13.4277 6.67969 -27.4512 4.83887 -41.6309c-8.24805 -63.5684 -70.0264 -98.7383 -130.474 -85.3008c-67.7383 15.0576 -99.7109 84.9238 -86.2402 149.495c13.7061 65.7002 61.9775 120.928 117.612 156.003c16.4844 10.3887 33.9004 19.0391 51.9209 26.1123
c-1.52832 5.21191 -3.02344 10.4297 -4.4541 15.6572c-9.13965 33.3984 -16.4795 67.3057 -22.3799 101.421c-2.94434 17.0166 -4.49316 34.7939 -12.0068 50.5742c-3.09766 6.50781 -6.86621 10.1328 -11.5967 14.6973
c-10.7959 -6.06445 -26.0156 -6.01367 -37.1338 -1.06543c-7.49805 3.33594 -16.7783 13.6123 -7.3623 21.0156c1.47168 1.15723 3.00781 2.22949 4.57422 3.25098c-0.0361328 0.015625 -0.0693359 0.03125 -0.105469 0.046875
c1.04492 0.591797 2.07617 1.20898 3.11816 1.80566c0.396484 0.227539 0.788086 0.467773 1.19043 0.6875c56.9277 32.7637 108.317 73.8213 152.324 122.702c20.7793 23.084 40.4707 47.0664 57.4639 73.1016c16.2461 24.8916 32.0693 53.3691 39.0635 82.4844
c7.01172 29.1895 1.94043 62.79 -30.6357 72.6689c-32.5967 9.88672 -64.8887 -11.1953 -87.9492 -32.2539c-44.4189 -40.5635 -72.6455 -96.2158 -96.6611 -150.496c-26.9189 -60.8418 -46.9463 -124.574 -59.9795 -189.804
c-0.115234 -0.573242 -0.366211 -1.07715 -0.670898 -1.55078c-2.5625 -15.3887 -5.53711 -30.6797 -9.08789 -45.8047c-21.7988 -92.8242 -67.6152 -193.219 -158.351 -236.432c-82.8652 -39.4658 -186.104 -21.5664 -240.013 56.248
c-49.9492 72.0928 -37.5918 174.338 28.1162 232.016c58.9033 51.7051 170.042 72.4824 215.885 -7.0166c20.375 -35.334 15.5469 -79.0771 -9.68945 -110.647c-24.7891 -31.0098 -72.8535 -49.5137 -108.925 -26.8008c-6.64062 4.18066 -4.71289 9.80273 1.53125 12.8623
c6.73242 3.2998 16.4141 2.43164 22.2148 -2.41699c16.5684 -13.8477 39.8877 -3.11133 54.1904 8.84375c29.125 24.3438 40.9395 66.4277 27.041 101.94c-15.1934 38.8252 -52.0039 60.4238 -93.1973 57.2725c-77.0625 -5.89844 -139.976 -72.833 -145.538 -148.933
c-5.72461 -78.3193 47.6777 -150.151 125.334 -164.201c76.832 -13.9014 142.843 43.0391 179.262 105.319c43.8047 74.9062 61.1621 162.045 67.1191 247.706c6.00879 86.3604 7.04297 176.717 -6.69629 262.394c-11.6582 72.71 -39.79 163.002 -111.673 197.675
c-76.9033 37.0918 -163.578 -11.4824 -209.503 -74.2109c-46.0781 -62.9385 -75.667 -155.801 -34.2637 -228.16c19.9912 -34.9365 54.6846 -57.6543 95.3252 -58.9316c41.8467 -1.31055 82.1621 15.6064 115.731 39.5176c5.16113 3.67871 14.7637 3.36914 20.2471 0.688477
c3.82715 -1.86914 9.24707 -7.35059 3.9707 -11.3389c-18.376 -13.8955 -38.0449 -24.7754 -59.7998 -32.4736c-43.5508 -15.4111 -96.5508 -20.0811 -139.29 0.407227c-37.6064 18.0273 -63.5059 55.7695 -73.1162 95.6289
c-21.1455 87.6865 26.2812 189.824 94.2471 245.372c68.5342 56.0137 170.882 66.9707 243.095 11.2725c77.9883 -60.1504 103.916 -168.529 112.075 -261.701c4.49512 -51.3516 6.5918 -103.906 4.62793 -156.221c13.6348 41.8867 30.2412 82.7988 49.8994 122.312
c27.8555 55.9902 66.0947 119.766 125.992 145.927c25.4414 11.1133 55.2168 12.959 80.4668 0.194336c27.3896 -13.8477 39.6826 -43.4873 39.9717 -72.9023c0.655273 -66.4277 -45.2334 -129.103 -86.7568 -177.402
c-34.5498 -40.1846 -74.5371 -75.7461 -118.293 -105.717c6.6377 -3.76074 12.6465 -8.56836 17.6338 -14.4512c22.5381 -26.5957 22.7041 -67.3105 29.0859 -100.056c5.0332 -25.8408 11.0957 -51.4492 18.3154 -76.7012c32.5479 6.77637 66.1172 8.94238 99.293 6.63086
c71.1152 -4.95605 146.293 -27.4688 201.104 -74.6729c50.3223 -43.3408 80.6768 -113.978 56.0234 -178.866c-10.6729 -28.0908 -31.6016 -53.1045 -58.7021 -66.5654c-33.2441 -16.5117 -71.3965 -16.583 -106.687 -7.1416
c-67.9971 18.1943 -125.564 75.6641 -165.25 131.547c-33.4189 47.0557 -56.9326 100.447 -74.3818 155.388c-8.04395 -3.53809 -15.9492 -7.44238 -23.6758 -11.7607zM707.888 -95.5986c-39.4932 5.91602 -79.9033 4.81934 -118.604 -3.85449
c10.8057 -35.085 23.9336 -69.4248 39.8467 -102.667c25.8643 -54.0293 60.0049 -106.653 104.708 -147.002c23.4219 -21.1436 52.0586 -39.6016 84.2764 -42.1875c33.168 -2.66211 62.5469 13.9678 81.2656 40.8018c36.6494 52.5469 22.2568 121.946 -17.168 168.656
c-42.8477 50.7656 -110.12 76.6377 -174.325 86.2529z" />
    <glyph glyph-name="S" unicode="S" horiz-adv-x="593" 
d="M352.604 -326.719c-107.774 6.51562 -231.786 61.8154 -247.459 180.908c-39.8828 -6.18262 -82.3564 -0.350586 -113.42 24.9297c-44.2988 36.0508 -46.2832 100.23 -23.0176 148.628c12.3877 25.7666 31.5752 48.9346 53.6299 67.0186
c23.8828 19.582 52.251 34.9961 83.7295 26.3633c7.38086 -2.02246 10.9854 -8.71191 4.69238 -14.0039c-6.57715 -5.5293 -17.7539 -4.43066 -24.9531 -0.961914c-13.6855 6.59766 -33.0928 -8.49902 -43.7324 -16.1611
c-12.4824 -8.99121 -24.2305 -19.5049 -33.9922 -31.4219c-34.9033 -42.6064 -51.6641 -108.266 -17.5078 -156.438c25.8662 -36.4834 71.0176 -44.7705 113.479 -37.1113c-3.75781 54.2344 18.1787 109.923 56.8271 148.031
c18.1299 17.877 44.8027 32.6504 71.0635 29.2861c25.4189 -3.25391 39.4199 -22.4619 34.3848 -47.5762c-5.3252 -26.5576 -23.2559 -52.4443 -40.5078 -72.7861c-19.085 -22.5 -43.0801 -41.0273 -70.083 -53.0107c-9.41797 -4.17773 -19.4844 -7.71582 -29.9219 -10.4707
c4.70801 -39.4346 22.9658 -76.5039 52.4443 -104.574c41.6797 -39.6885 99.2803 -60.1816 155.708 -66.3721c58.1992 -6.38184 128.367 3.73047 174.69 42.333c22.6641 18.8857 35.8789 44.7725 34.1611 74.5791c-1.7334 30.0654 -15.9668 57.8291 -34.0615 81.3633
c-34.7373 45.1768 -82.8916 77.0283 -131.063 106.151c-51.7002 31.2559 -105.701 58.6816 -156.3 91.7627c-92.9287 60.7568 -198.384 158.602 -179.662 281.583c8.39648 55.1631 38.4873 104.188 83.2363 137.384c54.1162 40.1436 123.516 58.2861 190.174 60.2031
c65.0098 1.87109 132.948 -10.2812 187.838 -46.8691c49.7051 -33.1348 84.0146 -84.5303 84.0586 -145.679c0.0439453 -57.9336 -24.9492 -116.587 -65.8555 -157.463c-41.4141 -41.3828 -100.264 -62.9404 -158.448 -62.9893
c-47.1299 -0.0410156 -128.782 19.7637 -124.44 81.2861c2.06836 29.3125 21.7783 56.1797 41.3525 76.7959c20.3066 21.3867 45.6738 37.5635 74.4004 44.7646c5.77832 1.44922 17.583 2.49609 21.3076 -4.0957c3.92676 -6.9502 -4.10645 -10.3682 -9.7334 -11.5537
c-30.9561 -6.52539 -57.8896 -26.583 -78.1064 -50.3604c-20.6387 -24.2715 -36.5156 -62.5596 -12.3105 -89.916c21.1582 -23.916 56.8838 -32.2314 87.5322 -32.4209c64.167 -0.394531 126.645 32.5859 162.661 85.7139c35.8047 52.8164 48.0469 127.323 20.002 186.158
c-27.5459 57.79 -89.9111 92.6729 -150.804 104.282c-121.056 23.084 -282.115 -32.8301 -297.059 -171.845c-13.4658 -125.275 93.0107 -216.881 189.544 -276.302c53.3848 -32.8633 109.598 -61.1084 161.677 -96.0889
c48.3105 -32.4482 97.6016 -71.3965 125.327 -123.839c13.96 -26.4043 21.9268 -57.5166 15.8232 -87.2031c-6.71191 -32.6455 -28.2598 -56.8271 -56.1592 -73.8867c-52.3271 -31.9951 -120.724 -41.7773 -181.146 -38.127zM126.496 -95.5967
c-1.71289 -11.4717 -2.23438 -22.9492 -1.65039 -34.293c14.9639 4.60547 29.0928 11.0488 41.2939 18.7773c25.7871 16.3301 47.0195 39.2578 62.8408 65.252c10.9365 17.9688 35.625 60.7109 7.05273 75.1191c-16.3789 8.26074 -37.2734 -4.39844 -49.7559 -14.498
c-10.9414 -8.84961 -20.124 -20.1113 -28.0879 -31.6465c-16.1719 -23.4238 -27.4844 -50.5068 -31.6934 -78.7109z" />
    <glyph glyph-name="T" unicode="T" horiz-adv-x="528" 
d="M-15.9824 277.12c-6.28516 -1.39746 -30.2549 1.91309 -23.9805 13.6709c18.1094 33.9229 52.1426 52.626 88.7588 59.1025c15.9414 13.8623 31.96 27.6357 48.1807 41.168c39.9746 33.3545 81.043 65.4883 123.775 95.2539
c76.5527 53.3232 159.549 98.3438 248.955 125.943c85.0264 26.248 179.063 38.8174 267.246 21.9805c40.0898 -7.6543 80.8301 -22.8477 110.396 -51.9863c26.2578 -25.8789 44.1494 -63.624 40.46 -101.052c-3.72461 -37.8115 -29.7783 -69.1592 -62.8691 -86.1709
c-39.1484 -20.1191 -84.9248 -20.8721 -127.326 -12.5439c-18.7441 3.68164 -6.55371 18.6221 7.61328 15.7422c45.4072 -9.23633 94.8828 -5.84473 129.349 28.5361c30.5254 30.4492 33.582 74.7373 15.0781 112.437c-37.4277 76.2559 -133.14 88.3984 -208.924 86.5039
c-85.3125 -2.13281 -169.476 -25.7129 -246.727 -61.1953c-78.4082 -36.0146 -150.78 -84.2559 -218.365 -137.62c-30.4004 -24.0029 -59.9717 -49.0303 -89.1377 -74.5156c5.91406 -0.240234 11.7812 -0.751953 17.541 -1.56055
c61.8271 -8.67871 109.879 -51.5078 143.211 -101.971c67.7129 -102.517 83.4619 -228.731 105.327 -346.77c5.44531 -29.3965 8.2334 -64.2744 24.0439 -90.3047c5.21777 -8.58887 15.1562 -21.5703 26.0693 -16.7168c10.3574 4.60254 18.2832 17.9121 23.4033 27.3096
c28.1094 51.5898 22.8643 116.742 12.373 172.5c-10.5605 56.1182 -30.6182 110.698 -59.2012 160.143c-14.1465 24.4766 -29.8291 49.0166 -47.583 71.0459c-17.0986 21.2148 -38.7539 38.2363 -53.6426 61.3633c-12.5156 19.4434 -18.3369 43.6104 -7.20117 65.1045
c10.4756 20.2188 32.8096 33.2598 54.8281 36.7461c47.0967 7.46289 97.9854 -27.2334 106.902 -73.9619c2.30957 -12.1035 -33.6592 -14.5127 -34.6396 0c-1.87695 27.7764 -18.9395 53.6221 -46.4902 61.2559c-29.1738 8.08496 -63.4014 -11.3662 -67.4229 -42.4346
c-3.97559 -30.6895 19.7588 -55.998 39.7578 -75.9434c21.4072 -21.3506 44.1504 -41.6904 63.3506 -65.1299c34.2891 -41.8594 60.3447 -91.4932 77.9756 -142.499c17.334 -50.1484 27.9424 -106.563 23.4775 -159.704
c-4.10645 -48.8916 -25.5771 -115.16 -82.9248 -120.864c-28.0889 -2.79297 -54.2217 11.6025 -68.4961 35.5801c-14.0703 23.6338 -17.8057 54.4258 -24.0264 80.8604c-26.6602 113.269 -45.9375 234.225 -105.914 335.87
c-23.957 40.5996 -58.7656 82.5918 -105.793 96.3652c-16.4736 4.82324 -34.4219 5.10742 -51.2979 1.0166c-6.04199 -5.58105 -12.0732 -11.1719 -18.1504 -16.7246c-14.0957 -12.8818 -29.2539 -21.6699 -47.96 -25.8301z" />
    <glyph glyph-name="U" unicode="U" horiz-adv-x="856" 
d="M772.326 15.3828c60.959 9.80469 123.687 -11.207 157.571 -65.7256c36.0811 -58.0381 36.8799 -138.866 -4.35156 -194.473c-17.5361 -23.6523 -43.8047 -37.4102 -73.5518 -35.4795c-33.04 2.14746 -60.9414 22.3613 -80.3076 48.1846
c-43.8613 58.4814 -51.5186 140.438 -54.6602 212.027c-101.306 -57.334 -168.87 -182.366 -165.114 -297.662c1.98145 -60.8672 35.8125 -117.146 94.7676 -138.159c58.1123 -20.7109 115.613 6.38965 151.554 53.126c5.05078 6.56641 30.5771 2.87012 24.7119 -5.93848
c-8.51758 -12.7979 -18.3838 -24.1104 -30.8359 -33.2441c-50.2686 -36.877 -118.567 -45.4453 -174.894 -17.7305c-26.9541 13.2637 -50.0684 34.3584 -65.6943 60.0098c-18.7627 30.8027 -24.0361 67.5645 -22.1084 103.095
c3.68945 67.9385 28.709 134.993 68.4023 190.028c30.6641 42.5146 70.6924 81.5293 118.547 104.224c-1.12598 35.0264 -0.480469 70.0068 1.31641 104.954c-15.6133 -39.0742 -34.8389 -76.5449 -59.5068 -110.248c-43.0469 -58.8086 -109.021 -110.864 -185.216 -111.417
c-35.5488 -0.258789 -71.584 13.4678 -94.4961 41.3848c-23.3145 28.4062 -32.6689 64.124 -36.2354 100.101c-8.16895 82.4199 7.80566 164.09 10.3525 246.277c0.996094 32.1436 3.9707 77.8633 -34.3633 88.9326c-31.5625 9.11328 -67.1748 -1.34473 -94.7715 -17.2451
c-10.7471 -6.19238 -20.8135 -13.5986 -29.9609 -22.0059c9.41602 -24.1387 8.0332 -51.6846 -8.33594 -73.5469c-8.37598 -11.1875 -20.7559 -20.8486 -35.5908 -17.9893c-14.6943 2.83105 -22.0723 16.251 -19.0078 30.4229
c5.07422 23.4727 21.543 45.6914 40.1719 63.3809c-12.8184 26.8037 -39.8447 45.6562 -69.4463 49.3633c-34.9238 4.37793 -67.1826 -12.5205 -87.1201 -40.8604c-37.707 -53.6016 -32.9375 -131.989 6.10547 -183.525c19.5586 -25.8184 47.6777 -44.0225 79.7852 -49.3652
c32.29 -5.37109 60.8604 3.11523 85.7539 24.082c5.875 4.94824 15.3467 5.96973 22.4658 3.3584c4.63379 -1.7002 12.1221 -7.97754 5.89062 -12.8057c-13.9824 -10.834 -28.0752 -17.7539 -45.2275 -22.1318c-67.252 -17.1602 -137.491 2.09082 -175.825 62.8047
c-36.3398 57.5547 -36.2012 140.336 9.6875 192.814c45.2021 51.6943 135.323 51.8457 177.976 -3.50977c1.79199 -2.32715 3.45605 -4.73633 5.00781 -7.20898c2.76758 2.17578 5.53223 4.26953 8.26074 6.20703c27.5 19.5381 60.9443 31.6855 94.7314 33.0752
c31.6445 1.30273 69.3389 -9.46777 88.416 -36.3506c11.6484 -16.417 15.665 -35.9092 17.6748 -55.5576c2.4248 -23.6904 3.81445 -47.7725 3.73242 -71.5938c-0.15625 -46.0986 -4.55469 -92.0977 -3.64844 -138.229c0.816406 -41.7031 3.37109 -87.5713 25.8223 -124.031
c8.20508 -13.3223 20.2939 -26.4248 34.8096 -32.8477c17.124 -7.58008 37.1182 -3.14648 53.9043 3.05371c38.1572 14.0928 70.46 42.3066 95.7656 73.5518c52.5117 64.833 80.6924 149.345 101.7 228.926c22.7432 86.1445 34.6904 174.76 44.3516 263.201
c0.0283203 0.614258 0.0644531 1.22852 0.0898438 1.84277c0.0380859 0.890625 0.197266 1.73047 0.407227 2.54688c1.27441 10.6035 16.499 14.8965 29.4834 13.5732c12.9209 -0.538086 25.1377 -5.92969 25.1504 -16.1211
c0.214844 -157.239 -33.7461 -312.328 -34.0967 -469.545zM170.639 257.709c6.95801 13.2607 9.10742 28.7021 6.50684 43.3916c-7.7334 -9.46484 -14.4072 -19.7871 -19.7803 -30.7744c-2.9209 -5.97266 -11.2285 -22.1982 -4.30664 -28.1396
c6.34375 -5.44727 15.4092 11.3828 17.5801 15.5225zM915.578 -222.974c30.3564 54.4824 22.3574 132.385 -15.8438 181.141c-31.7393 40.5078 -80.5664 52.1865 -127.363 42.9854c0.678711 -67.1875 3.28516 -138.63 29.9277 -201.271
c9.64648 -22.6816 23.6348 -49.7158 48.1318 -59.2549c26.3018 -10.2402 53.3506 15.2266 65.1475 36.4004z" />
    <glyph glyph-name="U" unicode="&#xdc;" horiz-adv-x="856" 
d="M772.326 15.3828c60.959 9.80469 123.687 -11.207 157.571 -65.7256c36.0811 -58.0381 36.8799 -138.866 -4.35156 -194.473c-17.5361 -23.6523 -43.8047 -37.4102 -73.5518 -35.4795c-33.04 2.14746 -60.9414 22.3613 -80.3076 48.1846
c-43.8613 58.4814 -51.5186 140.438 -54.6602 212.027c-101.306 -57.334 -168.87 -182.366 -165.114 -297.662c1.98145 -60.8672 35.8125 -117.146 94.7676 -138.159c58.1123 -20.7109 115.613 6.38965 151.554 53.126c5.05078 6.56641 30.5771 2.87012 24.7119 -5.93848
c-8.51758 -12.7979 -18.3838 -24.1104 -30.8359 -33.2441c-50.2686 -36.877 -118.567 -45.4453 -174.894 -17.7305c-26.9541 13.2637 -50.0684 34.3584 -65.6943 60.0098c-18.7627 30.8027 -24.0361 67.5645 -22.1084 103.095
c3.68945 67.9385 28.709 134.993 68.4023 190.028c30.6641 42.5146 70.6924 81.5293 118.547 104.224c-1.12598 35.0264 -0.480469 70.0068 1.31641 104.954c-15.6133 -39.0742 -34.8389 -76.5449 -59.5068 -110.248c-43.0469 -58.8086 -109.021 -110.864 -185.216 -111.417
c-35.5488 -0.258789 -71.584 13.4678 -94.4961 41.3848c-23.3145 28.4062 -32.6689 64.124 -36.2354 100.101c-8.16895 82.4199 7.80566 164.09 10.3525 246.277c0.996094 32.1436 3.9707 77.8633 -34.3633 88.9326c-31.5625 9.11328 -67.1748 -1.34473 -94.7715 -17.2451
c-10.7471 -6.19238 -20.8135 -13.5986 -29.9609 -22.0059c9.41602 -24.1387 8.0332 -51.6846 -8.33594 -73.5469c-8.37598 -11.1875 -20.7559 -20.8486 -35.5908 -17.9893c-14.6943 2.83105 -22.0723 16.251 -19.0078 30.4229
c5.07422 23.4727 21.543 45.6914 40.1719 63.3809c-12.8184 26.8037 -39.8447 45.6562 -69.4463 49.3633c-34.9238 4.37793 -67.1826 -12.5205 -87.1201 -40.8604c-37.707 -53.6016 -32.9375 -131.989 6.10547 -183.525c19.5586 -25.8184 47.6777 -44.0225 79.7852 -49.3652
c32.29 -5.37109 60.8604 3.11523 85.7539 24.082c5.875 4.94824 15.3467 5.96973 22.4658 3.3584c4.63379 -1.7002 12.1221 -7.97754 5.89062 -12.8057c-13.9824 -10.834 -28.0752 -17.7539 -45.2275 -22.1318c-67.252 -17.1602 -137.491 2.09082 -175.825 62.8047
c-36.3398 57.5547 -36.2012 140.336 9.6875 192.814c45.2021 51.6943 135.323 51.8457 177.976 -3.50977c1.79199 -2.32715 3.45605 -4.73633 5.00781 -7.20898c2.76758 2.17578 5.53223 4.26953 8.26074 6.20703c27.5 19.5381 60.9443 31.6855 94.7314 33.0752
c31.6445 1.30273 69.3389 -9.46777 88.416 -36.3506c11.6484 -16.417 15.665 -35.9092 17.6748 -55.5576c2.4248 -23.6904 3.81445 -47.7725 3.73242 -71.5938c-0.15625 -46.0986 -4.55469 -92.0977 -3.64844 -138.229c0.816406 -41.7031 3.37109 -87.5713 25.8223 -124.031
c8.20508 -13.3223 20.2939 -26.4248 34.8096 -32.8477c17.124 -7.58008 37.1182 -3.14648 53.9043 3.05371c38.1572 14.0928 70.46 42.3066 95.7656 73.5518c52.5117 64.833 80.6924 149.345 101.7 228.926c22.7432 86.1445 34.6904 174.76 44.3516 263.201
c0.0283203 0.614258 0.0644531 1.22852 0.0898438 1.84277c0.0380859 0.890625 0.197266 1.73047 0.407227 2.54688c1.27441 10.6035 16.499 14.8965 29.4834 13.5732c12.9209 -0.538086 25.1377 -5.92969 25.1504 -16.1211
c0.214844 -157.239 -33.7461 -312.328 -34.0967 -469.545zM170.639 257.709c6.95801 13.2607 9.10742 28.7021 6.50684 43.3916c-7.7334 -9.46484 -14.4072 -19.7871 -19.7803 -30.7744c-2.9209 -5.97266 -11.2285 -22.1982 -4.30664 -28.1396
c6.34375 -5.44727 15.4092 11.3828 17.5801 15.5225zM915.578 -222.974c30.3564 54.4824 22.3574 132.385 -15.8438 181.141c-31.7393 40.5078 -80.5664 52.1865 -127.363 42.9854c0.678711 -67.1875 3.28516 -138.63 29.9277 -201.271
c9.64648 -22.6816 23.6348 -49.7158 48.1318 -59.2549c26.3018 -10.2402 53.3506 15.2266 65.1475 36.4004z" />
    <glyph glyph-name="U" unicode="&#xdb;" horiz-adv-x="856" 
d="M772.326 15.3828c60.959 9.80469 123.687 -11.207 157.571 -65.7256c36.0811 -58.0381 36.8799 -138.866 -4.35156 -194.473c-17.5361 -23.6523 -43.8047 -37.4102 -73.5518 -35.4795c-33.04 2.14746 -60.9414 22.3613 -80.3076 48.1846
c-43.8613 58.4814 -51.5186 140.438 -54.6602 212.027c-101.306 -57.334 -168.87 -182.366 -165.114 -297.662c1.98145 -60.8672 35.8125 -117.146 94.7676 -138.159c58.1123 -20.7109 115.613 6.38965 151.554 53.126c5.05078 6.56641 30.5771 2.87012 24.7119 -5.93848
c-8.51758 -12.7979 -18.3838 -24.1104 -30.8359 -33.2441c-50.2686 -36.877 -118.567 -45.4453 -174.894 -17.7305c-26.9541 13.2637 -50.0684 34.3584 -65.6943 60.0098c-18.7627 30.8027 -24.0361 67.5645 -22.1084 103.095
c3.68945 67.9385 28.709 134.993 68.4023 190.028c30.6641 42.5146 70.6924 81.5293 118.547 104.224c-1.12598 35.0264 -0.480469 70.0068 1.31641 104.954c-15.6133 -39.0742 -34.8389 -76.5449 -59.5068 -110.248c-43.0469 -58.8086 -109.021 -110.864 -185.216 -111.417
c-35.5488 -0.258789 -71.584 13.4678 -94.4961 41.3848c-23.3145 28.4062 -32.6689 64.124 -36.2354 100.101c-8.16895 82.4199 7.80566 164.09 10.3525 246.277c0.996094 32.1436 3.9707 77.8633 -34.3633 88.9326c-31.5625 9.11328 -67.1748 -1.34473 -94.7715 -17.2451
c-10.7471 -6.19238 -20.8135 -13.5986 -29.9609 -22.0059c9.41602 -24.1387 8.0332 -51.6846 -8.33594 -73.5469c-8.37598 -11.1875 -20.7559 -20.8486 -35.5908 -17.9893c-14.6943 2.83105 -22.0723 16.251 -19.0078 30.4229
c5.07422 23.4727 21.543 45.6914 40.1719 63.3809c-12.8184 26.8037 -39.8447 45.6562 -69.4463 49.3633c-34.9238 4.37793 -67.1826 -12.5205 -87.1201 -40.8604c-37.707 -53.6016 -32.9375 -131.989 6.10547 -183.525c19.5586 -25.8184 47.6777 -44.0225 79.7852 -49.3652
c32.29 -5.37109 60.8604 3.11523 85.7539 24.082c5.875 4.94824 15.3467 5.96973 22.4658 3.3584c4.63379 -1.7002 12.1221 -7.97754 5.89062 -12.8057c-13.9824 -10.834 -28.0752 -17.7539 -45.2275 -22.1318c-67.252 -17.1602 -137.491 2.09082 -175.825 62.8047
c-36.3398 57.5547 -36.2012 140.336 9.6875 192.814c45.2021 51.6943 135.323 51.8457 177.976 -3.50977c1.79199 -2.32715 3.45605 -4.73633 5.00781 -7.20898c2.76758 2.17578 5.53223 4.26953 8.26074 6.20703c27.5 19.5381 60.9443 31.6855 94.7314 33.0752
c31.6445 1.30273 69.3389 -9.46777 88.416 -36.3506c11.6484 -16.417 15.665 -35.9092 17.6748 -55.5576c2.4248 -23.6904 3.81445 -47.7725 3.73242 -71.5938c-0.15625 -46.0986 -4.55469 -92.0977 -3.64844 -138.229c0.816406 -41.7031 3.37109 -87.5713 25.8223 -124.031
c8.20508 -13.3223 20.2939 -26.4248 34.8096 -32.8477c17.124 -7.58008 37.1182 -3.14648 53.9043 3.05371c38.1572 14.0928 70.46 42.3066 95.7656 73.5518c52.5117 64.833 80.6924 149.345 101.7 228.926c22.7432 86.1445 34.6904 174.76 44.3516 263.201
c0.0283203 0.614258 0.0644531 1.22852 0.0898438 1.84277c0.0380859 0.890625 0.197266 1.73047 0.407227 2.54688c1.27441 10.6035 16.499 14.8965 29.4834 13.5732c12.9209 -0.538086 25.1377 -5.92969 25.1504 -16.1211
c0.214844 -157.239 -33.7461 -312.328 -34.0967 -469.545zM170.639 257.709c6.95801 13.2607 9.10742 28.7021 6.50684 43.3916c-7.7334 -9.46484 -14.4072 -19.7871 -19.7803 -30.7744c-2.9209 -5.97266 -11.2285 -22.1982 -4.30664 -28.1396
c6.34375 -5.44727 15.4092 11.3828 17.5801 15.5225zM915.578 -222.974c30.3564 54.4824 22.3574 132.385 -15.8438 181.141c-31.7393 40.5078 -80.5664 52.1865 -127.363 42.9854c0.678711 -67.1875 3.28516 -138.63 29.9277 -201.271
c9.64648 -22.6816 23.6348 -49.7158 48.1318 -59.2549c26.3018 -10.2402 53.3506 15.2266 65.1475 36.4004z" />
    <glyph glyph-name="U" unicode="&#xda;" horiz-adv-x="856" 
d="M772.326 15.3828c60.959 9.80469 123.687 -11.207 157.571 -65.7256c36.0811 -58.0381 36.8799 -138.866 -4.35156 -194.473c-17.5361 -23.6523 -43.8047 -37.4102 -73.5518 -35.4795c-33.04 2.14746 -60.9414 22.3613 -80.3076 48.1846
c-43.8613 58.4814 -51.5186 140.438 -54.6602 212.027c-101.306 -57.334 -168.87 -182.366 -165.114 -297.662c1.98145 -60.8672 35.8125 -117.146 94.7676 -138.159c58.1123 -20.7109 115.613 6.38965 151.554 53.126c5.05078 6.56641 30.5771 2.87012 24.7119 -5.93848
c-8.51758 -12.7979 -18.3838 -24.1104 -30.8359 -33.2441c-50.2686 -36.877 -118.567 -45.4453 -174.894 -17.7305c-26.9541 13.2637 -50.0684 34.3584 -65.6943 60.0098c-18.7627 30.8027 -24.0361 67.5645 -22.1084 103.095
c3.68945 67.9385 28.709 134.993 68.4023 190.028c30.6641 42.5146 70.6924 81.5293 118.547 104.224c-1.12598 35.0264 -0.480469 70.0068 1.31641 104.954c-15.6133 -39.0742 -34.8389 -76.5449 -59.5068 -110.248c-43.0469 -58.8086 -109.021 -110.864 -185.216 -111.417
c-35.5488 -0.258789 -71.584 13.4678 -94.4961 41.3848c-23.3145 28.4062 -32.6689 64.124 -36.2354 100.101c-8.16895 82.4199 7.80566 164.09 10.3525 246.277c0.996094 32.1436 3.9707 77.8633 -34.3633 88.9326c-31.5625 9.11328 -67.1748 -1.34473 -94.7715 -17.2451
c-10.7471 -6.19238 -20.8135 -13.5986 -29.9609 -22.0059c9.41602 -24.1387 8.0332 -51.6846 -8.33594 -73.5469c-8.37598 -11.1875 -20.7559 -20.8486 -35.5908 -17.9893c-14.6943 2.83105 -22.0723 16.251 -19.0078 30.4229
c5.07422 23.4727 21.543 45.6914 40.1719 63.3809c-12.8184 26.8037 -39.8447 45.6562 -69.4463 49.3633c-34.9238 4.37793 -67.1826 -12.5205 -87.1201 -40.8604c-37.707 -53.6016 -32.9375 -131.989 6.10547 -183.525c19.5586 -25.8184 47.6777 -44.0225 79.7852 -49.3652
c32.29 -5.37109 60.8604 3.11523 85.7539 24.082c5.875 4.94824 15.3467 5.96973 22.4658 3.3584c4.63379 -1.7002 12.1221 -7.97754 5.89062 -12.8057c-13.9824 -10.834 -28.0752 -17.7539 -45.2275 -22.1318c-67.252 -17.1602 -137.491 2.09082 -175.825 62.8047
c-36.3398 57.5547 -36.2012 140.336 9.6875 192.814c45.2021 51.6943 135.323 51.8457 177.976 -3.50977c1.79199 -2.32715 3.45605 -4.73633 5.00781 -7.20898c2.76758 2.17578 5.53223 4.26953 8.26074 6.20703c27.5 19.5381 60.9443 31.6855 94.7314 33.0752
c31.6445 1.30273 69.3389 -9.46777 88.416 -36.3506c11.6484 -16.417 15.665 -35.9092 17.6748 -55.5576c2.4248 -23.6904 3.81445 -47.7725 3.73242 -71.5938c-0.15625 -46.0986 -4.55469 -92.0977 -3.64844 -138.229c0.816406 -41.7031 3.37109 -87.5713 25.8223 -124.031
c8.20508 -13.3223 20.2939 -26.4248 34.8096 -32.8477c17.124 -7.58008 37.1182 -3.14648 53.9043 3.05371c38.1572 14.0928 70.46 42.3066 95.7656 73.5518c52.5117 64.833 80.6924 149.345 101.7 228.926c22.7432 86.1445 34.6904 174.76 44.3516 263.201
c0.0283203 0.614258 0.0644531 1.22852 0.0898438 1.84277c0.0380859 0.890625 0.197266 1.73047 0.407227 2.54688c1.27441 10.6035 16.499 14.8965 29.4834 13.5732c12.9209 -0.538086 25.1377 -5.92969 25.1504 -16.1211
c0.214844 -157.239 -33.7461 -312.328 -34.0967 -469.545zM170.639 257.709c6.95801 13.2607 9.10742 28.7021 6.50684 43.3916c-7.7334 -9.46484 -14.4072 -19.7871 -19.7803 -30.7744c-2.9209 -5.97266 -11.2285 -22.1982 -4.30664 -28.1396
c6.34375 -5.44727 15.4092 11.3828 17.5801 15.5225zM915.578 -222.974c30.3564 54.4824 22.3574 132.385 -15.8438 181.141c-31.7393 40.5078 -80.5664 52.1865 -127.363 42.9854c0.678711 -67.1875 3.28516 -138.63 29.9277 -201.271
c9.64648 -22.6816 23.6348 -49.7158 48.1318 -59.2549c26.3018 -10.2402 53.3506 15.2266 65.1475 36.4004z" />
    <glyph glyph-name="V" unicode="V" horiz-adv-x="715" 
d="M741.358 458.874c-41.9482 -69.2637 -69.3564 -146.147 -91.2246 -223.788c-24.5713 -87.2686 -41.6084 -176.504 -68.2383 -263.212c-11.0469 -35.9707 -26.5654 -72.5176 -63.3604 -88.3232c-34.7656 -14.9355 -77.6689 -5.64551 -102.133 23.5469
c-24.709 29.4863 -40.8525 67.7793 -54.0518 103.543c-14.293 38.7256 -25.0479 78.5518 -33.7773 118.87c-17.3516 80.1211 -26.7676 161.532 -39.2832 242.47c-5.97754 38.6436 -10.3555 77.8789 -18.7451 116.085c-6.8457 31.1836 -21.5225 75.252 -60.957 72.2568
c-24.5176 -1.86133 -45.5586 -17.4395 -61.8018 -36.9365c13.0762 -7.21973 24.9521 -17.0527 34.7754 -29.71c21.7197 -27.9893 26.7861 -65.8164 15.2451 -99.1016c-10.3682 -29.9092 -40.6992 -64.6279 -75.9717 -53.8447
c-34.8936 10.6699 -36.8906 57.3262 -33.6084 86.9453c3.66895 33.1064 16.167 65.9951 36.4248 92.7344c-22.2266 8.98047 -47.3584 10.0117 -70.0195 0.365234c-33.0322 -14.0625 -50.5527 -43.6152 -61.2871 -76.4346
c-3.98828 -12.1963 -38.2129 -9.55957 -33.9814 5.33984c5.7041 20.083 16.2822 32.7607 30.3984 47.6143c36.5371 38.4414 95.2617 51.2061 143.05 33.0527c2.03027 2.28906 4.10352 4.53906 6.25879 6.70703c26.0225 26.1689 65.6748 43.8438 102.076 29.4229
c34.9033 -13.8271 54.8105 -45.1416 67.3467 -78.9873c31.668 -85.4971 42.2559 -178.92 58.1357 -268.244c16.0254 -90.1465 37.1504 -179.837 75.8965 -263.225c8.15332 -17.5488 16.8066 -35.7119 30.915 -49.3721c15.2754 -14.7939 33.1191 -4.24414 45.9961 9.17285
c15.5264 16.1797 23.5107 37.9941 30.3359 58.915c8.06934 24.7324 15.2627 49.7568 22.1572 74.8398c26.1787 95.251 47.1582 192.521 81.9824 285.144c31.0918 82.6992 73.9619 161.407 137.008 224.187c28.7188 28.5977 64.3418 53.54 105.079 60.3037
c28.8281 4.78516 80.4814 -0.759766 85.0225 -37.8086c1.71289 -13.9697 -36.5137 -12.165 -33.8408 0c4.35742 19.8252 -15.9541 26.0361 -32.0059 25.5449c-39.5732 -1.21387 -74.208 -27.0781 -101.337 -53.7412c-28.3955 -27.9092 -51.8965 -60.3496 -72.4795 -94.3311z
M155.915 500.614c-4.98438 4.63086 -10.4238 8.73242 -16.1895 12.2578c-6.73828 -9.53906 -12.3906 -19.5566 -16.8242 -29.0752c-14.9023 -31.9854 -24.8789 -76.0127 -12.1299 -110.355c2.82617 -7.6084 6.88672 -15.2881 13.5605 -20.1748
c10.957 -8.02051 23.0117 -0.975586 31.834 6.89355c12.4932 11.1465 21.0645 26.2607 25.7109 42.251c10.0684 34.6504 0.639648 73.5039 -25.9619 98.2031z" />
    <glyph glyph-name="W" unicode="W" horiz-adv-x="1116" 
d="M1055.74 597.011c60.8594 13.8066 144.459 11.7646 184.656 -44.4561c17.6357 -24.6631 22.4893 -60.498 -2.21289 -82.5352c-24.4102 -21.7754 -60.3604 -20.5283 -90.5127 -14.6533c-6.63281 1.29297 -17.4131 5.99805 -12.0654 14.3232
c5.13574 7.99707 18.6504 7.09375 26.415 5.07617c15.1143 -3.92676 32.4766 -5.72656 47.6553 -1.09766c45.6914 13.9316 19.9883 71.4326 -4.96973 91.5752c-31.2422 25.2188 -74.0205 30.1006 -112.729 25.7002c-56.123 -6.37988 -108.629 -29.1514 -158.232 -56.5186
c35.582 -33.4209 62.9824 -76.207 82.1855 -120.721c34.7725 -80.6055 44.3545 -170.171 34.3701 -256.972c-5.33008 -46.3516 -16.2842 -92.6289 -31.7598 -136.646c-13.6758 -38.9023 -31.791 -78.8076 -64.1621 -105.731
c-29.6582 -24.666 -69.5615 -40.0439 -108.42 -33.0527c-37.499 6.74609 -70.1982 31.251 -93.418 60.6064c-35.7637 45.2148 -50.9854 99.5537 -58.5273 155.411c-8.20996 -42.3809 -18.7217 -84.2607 -34.6299 -124.443
c-23.5264 -59.4287 -62.0703 -125.649 -130.077 -139.01c-60.6143 -11.9062 -123.447 19.3154 -156.356 70.2061c-35.0391 54.1826 -39.5195 124.033 -39.8955 186.744c-0.435547 72.3691 4.03418 144.521 2.5293 216.917
c-0.775391 37.2969 -0.726562 157.923 -68.7158 129.809c-10.4424 -4.31836 -19.9609 -10.6982 -28.3115 -18.4502c15.5449 -13.5967 26.9805 -31.3066 31.2451 -53.4258c5.47852 -28.4238 -7.2041 -61.9658 -38.4189 -68.1025
c-31.8418 -6.26172 -54.001 20.7822 -51.6328 50.9033c1.74121 22.1387 12.1934 45.6367 27.873 64.9492c-21.1865 15.8418 -47.6953 23.4092 -74.0947 22.4414c-57.4219 -2.10645 -103.62 -46.3076 -123.696 -97.7207
c-11.0488 -28.2988 -16.1514 -62.293 -5.66016 -91.5312c7.20898 -20.083 29.7939 -48.5225 54.8438 -42.0869c8.37891 2.15332 21.8135 3.14648 28.3496 -4.23633c6.01074 -6.78906 0.0585938 -14.085 -7.43164 -16.1582
c-35.2979 -9.77148 -72.8252 0.962891 -95.5225 30.3184c-23.8086 30.792 -24.1748 71.0586 -14.3877 107.258c18.5859 68.7295 77.9248 124.057 149.604 131.269c34.125 3.43262 73.8389 -3.79199 104.119 -22.8672c23.376 20.252 53.3232 31.1602 83.1016 21.6416
c27.5332 -8.80176 45.5352 -32.2744 56.6562 -57.8877c14.6719 -33.8027 20.583 -74.0947 23.0918 -110.604c5.64258 -82.1055 -0.982422 -164.533 6.2959 -246.58c5.59375 -63.0352 22.7637 -144.326 87.4424 -172.796c65.3828 -28.7803 111.469 54.4209 132.676 102.943
c30.708 70.252 42.1211 146.661 53.3828 221.924c2.57324 17.2109 45.2109 15.5977 42.8408 -0.000976562c-0.547852 -3.61719 -1.10059 -7.23926 -1.65332 -10.8613c1.26465 -19.126 2.61914 -38.252 4.6543 -57.3135c8.3252 -77.9736 31.3145 -170.296 104.173 -213.327
c35.4795 -20.9561 72.8711 -10.667 100.568 17.7109c27.7178 28.4033 41.5908 67.6895 52.3379 105.027c45.4482 157.9 42.3477 341.394 -69.2568 472.26c-2.39355 2.80566 -4.85156 5.58594 -7.35254 8.34277c-8.26074 -4.99219 -16.4424 -10.0176 -24.5479 -15.0254
c-35.0234 -21.6348 -69.6943 -43.8887 -105.709 -63.8623c-35.0439 -19.4355 -72.9814 -40.3945 -113.903 -42.2148c-35.7715 -1.58984 -70.0654 15.4932 -74.4375 53.9395c-4.39062 38.5869 24.9033 71.0527 52.293 94.1055
c61.2383 51.541 144.923 78.1221 222.513 50.0127c27.3691 -9.91797 51.9375 -24.835 73.7158 -43.2158c42.1768 22.751 86.0713 42.0205 133.112 52.6904zM242.963 329.816c9.96875 25.0068 -3.0293 51.584 -20.6523 70.4131
c-6.2998 -9.10645 -11.3457 -19.0312 -14.8633 -29.1973c-5.51465 -15.9414 -9.0293 -36.332 1.03711 -51.2441c12.04 -17.8359 28.2656 -5.55762 34.4785 10.0283zM849.832 501.696c10.7803 6.65137 21.6299 13.2578 32.5615 19.7422
c-18.9062 18.9209 -40.6406 35.3584 -65.6777 44.7412c-34.1328 12.792 -71.6035 11.4072 -105.675 -0.857422c-36.7314 -13.2227 -73.5703 -36.8105 -97.3994 -68.2168c-11.3867 -15.0068 -19.0439 -32.7764 -17.7871 -51.9023
c1.36426 -20.7393 13.8906 -38.3115 34.9395 -42.5176c40.6299 -8.11816 84.6162 19.6455 118.624 38.5283c34.1709 18.9746 67.1621 39.9639 100.414 60.4824z" />
    <glyph glyph-name="X" unicode="X" horiz-adv-x="437" 
d="M596.618 -41.1143c38.7432 -9.52832 78.0674 -26.377 105.234 -56.6113c25.2139 -28.0576 38.3594 -67.6816 28.1445 -104.705c-9.42383 -34.1582 -39.4502 -57.0811 -72.6689 -66.1133c-39.96 -10.8623 -80.6719 -4.35449 -117.697 13.2197
c-38.0801 18.0762 -69.8223 49.2295 -96.5078 81.2373c-25.1885 30.2109 -47 63.0615 -65.5908 97.6885c-27.7637 -12.3652 -53.9424 -28.3984 -77.4229 -47.6523c-28.9355 -23.7266 -58.4883 -54.3604 -65.0469 -92.7324
c-6.02344 -35.2412 9.16992 -78.2393 48.5557 -84.4375c40.5479 -6.37988 74.2432 26.7031 96.4717 56.3223c6.00879 8.00488 32.6533 3.2666 24.2129 -8.06641c-11.9609 -16.0537 -25.4756 -30.7178 -41.8779 -42.3301
c-31.3682 -22.2109 -73.9111 -30.5078 -109.931 -14.6924c-33.5547 14.7305 -50.1357 50.3945 -46.959 85.9785c3.50195 39.2021 29.2969 72.1553 57.4775 97.7119c29.3613 26.6299 63.2812 47.9092 99.5752 63.7305c2.11719 0.923828 4.24707 1.82227 6.38184 2.70801
c-40.3232 80.5615 -64.4336 167.569 -84.0303 255.191c-8.57129 38.3105 -16.1768 76.8232 -23.7881 115.334c-15.2246 -27.541 -29.9316 -55.3809 -44.3652 -83.3672c-34.8857 -67.6387 -66.3711 -138.572 -113.562 -198.841
c-22.4541 -28.6777 -49.7363 -56.9785 -81.8848 -74.7861c-26.3916 -14.6201 -64.7998 -19.1465 -86.0732 6.8125c-6.25391 7.63184 12.5264 11.0166 16.96 5.65039c33.416 -40.4385 92.0303 20.9795 115.037 46.4316c28.9922 32.0742 51.6719 69.2178 72.1396 107.132
c39.6396 73.4189 74.9805 149.009 115.61 221.934c-8.68359 43.29 -19.0059 87.2148 -42.6143 125.118c-20.0117 32.1309 -54.0449 60.7627 -93.0088 64.4414c-35.252 3.33105 -67.6084 -18.4395 -88.8213 -44.8613c-24.2178 -30.165 -34.8496 -69.6279 -30.2725 -107.897
c4.52148 -37.7959 30.0195 -78.6055 69.7002 -87.082c5.89355 -1.25977 16.1719 -4.93359 13.0049 -13.0566c-3.00586 -7.71094 -16.1973 -8.47656 -22.9043 -7.41406c-18.0664 2.8623 -34.5762 9.2832 -49.3223 20.1533c-61.6357 45.4326 -56.498 140.202 -15.3203 196.986
c42.1025 58.0566 117.07 79.0928 181.921 46.4219c56.5762 -28.501 87.1611 -83.6572 106.974 -141.621c33.9102 57.3604 70.7646 113.016 113.668 164.096c49.4209 58.835 107.626 112.785 177.057 147.025c34.0947 16.8145 74.5684 34.0771 113.394 28.8799
c32.1006 -4.2959 64.3516 -30.5596 55.0742 -65.7725c-2.66504 -10.1074 -31.3428 -8.00293 -28.0049 4.40039c5.95215 22.1113 -13.5088 43.1113 -34.6729 45.6533c-22.1826 2.66211 -45.9756 -7.31152 -66.1152 -15.5596
c-40.4229 -16.5586 -77.5664 -41.0098 -110.891 -69.0654c-61.5967 -51.8584 -112.516 -116.226 -157.764 -182.461c-18.7393 -27.4277 -36.4033 -55.498 -53.3096 -84.0195c2.74414 -9.4873 5.26855 -18.9541 7.63184 -28.2959
c22.707 -89.752 41.1465 -180.625 69.9727 -268.729c12.5391 -38.3291 27.3154 -76.4453 45.1309 -113.01c58.9443 15.8672 121.683 17.5342 181.099 2.92188zM658.734 -242.467c33.8076 15.3623 49.9434 49.5166 43.873 85.6543
c-6.78906 40.4229 -38.1494 69.707 -73.8643 86.5264c-63.0557 29.6963 -138.648 29.5654 -205.348 10.5469c16.6094 -32.0312 35.7256 -62.6777 57.9316 -90.9912c39.0869 -49.8359 106.513 -123.949 177.407 -91.7363z" />
    <glyph glyph-name="Y" unicode="Y" horiz-adv-x="751" 
d="M703.66 -153.372c53.9346 25.5059 129.795 22.3066 164.655 -32.8105c31.9209 -50.4766 0.18457 -117.227 -47.6807 -144.348c-59.5566 -33.7441 -135.026 -21.2969 -194.7 5.26562c-56.5791 25.1855 -104.418 66.7812 -145.109 113.112
c-40.1436 -13.9082 -83.5186 -17.5176 -125.216 -6.48145c-58.7012 15.5342 -115.268 76.5654 -93.5684 140.799c10.2021 30.2002 38.3955 48.1201 70.0576 45.4521c35.8584 -3.02344 63.3633 -30.3545 85.1387 -56.6152
c22.0576 -26.6016 40.6279 -55.8682 61.7305 -83.2217c23.8291 13.7324 45.3359 32.1367 62.8262 51.2783c50.125 54.8584 76.5166 127.889 92.1074 199.437c17.2012 78.9385 25.0859 159.227 24.4023 239.988c-0.0644531 7.41406 -0.256836 14.8096 -0.507812 22.1982
c-11.3975 -65.1963 -31.9033 -129.399 -65.8232 -186.48c-31.1963 -52.501 -75.9971 -97.4932 -138.06 -109.185c-60.4248 -11.3848 -117.234 15.4932 -151.086 65.4082c-35.2412 51.9609 -37.7832 117.656 -39.8359 178.309
c-1.17773 34.7344 -3.84277 69.1953 -9.3291 103.53c-4.31348 27.0029 -6.52539 59.3438 -22.4951 82.5967c-19.1904 27.9453 -55.8164 23.9492 -84.2812 14.7949c-26.7266 -8.59375 -50.7988 -24.1025 -71.2637 -43.1621
c-43.9893 -40.9707 -76.3428 -99.6875 -85.6406 -159.203c-8.48438 -54.3008 7.53418 -143.047 82.1953 -126.791c58.8525 12.8125 97.21 65.498 113.177 120.219c3.31055 11.3516 35.6846 8.59668 31.2812 -4.91504c-19.4258 -59.6182 -76.5146 -114.761 -138.613 -127.387
c-29.7988 -6.05664 -62.7793 -0.680664 -84.2295 22.3242c-21 22.5234 -27.9482 54.8926 -27.7871 84.8291c0.598633 111.609 91.2646 241.759 208.422 252.252c28.5342 2.55469 59.6436 -3.28711 80.8457 -23.7852c21.9316 -21.2051 32.7451 -52.9727 41.375 -81.4092
c20.8643 -68.752 15.1885 -140.655 29.9854 -210.25c10.0225 -47.1348 40.502 -110.731 93.5049 -120.528c29.5303 -5.45801 60.8525 10.1992 82.6484 29.0029c24.0928 20.7852 42.4453 47.0303 58.0283 74.5605c32.6631 57.708 51.4053 122.042 61.1279 187.382
c9.60547 64.5381 13.4434 131.585 9.88965 196.758c-0.578125 10.6289 20.8516 13.2451 30.749 7.36719c3.46582 -1.3291 6.12598 -3.31055 7.08594 -5.95508c6.90723 -19.0264 12.9971 -38.124 17.6738 -57.8232c36.8975 -155.474 35.085 -326.253 -9.73633 -480.023
c-20.3574 -69.8428 -54.8896 -138.152 -111.088 -185.991c-18.7441 -15.9541 -39.9004 -29.5303 -62.4775 -39.9111c15.3193 -17.6182 31.5547 -34.4404 48.9551 -50.0078c51.416 -45.9932 119.541 -87.1201 190.797 -85.1006
c35.2598 1.00098 69.7666 14.2314 92.4814 41.9209c19.4053 23.6543 29.876 57.3594 20.8213 87.3574c-9.66113 32.0107 -40.0947 54.3623 -72.6895 58.4229c-35.5254 4.42676 -69.0928 -17.1924 -91.9463 -42.4551c-9.70801 -10.7344 -44.1357 -0.348633 -31.6377 10.542
c13.0098 11.3379 27.208 21.3428 42.8398 28.7334zM370.036 -191.521c29.6455 -7.79297 59.3086 -3.27637 86.79 8.2793c-18.5322 23.7012 -35.626 48.4922 -54.5244 71.9189c-11.5586 14.3311 -23.8799 28.1914 -37.7783 40.3076
c-11.0488 9.63574 -30.2773 25.0264 -45.8115 17.7461c-27.2461 -12.7695 -27.2764 -54.6768 -17.7246 -78.1318c11.9805 -29.415 38.459 -52.0791 69.0488 -60.1201z" />
    <glyph glyph-name="Y" unicode="&#x178;" horiz-adv-x="751" 
d="M703.66 -153.372c53.9346 25.5059 129.795 22.3066 164.655 -32.8105c31.9209 -50.4766 0.18457 -117.227 -47.6807 -144.348c-59.5566 -33.7441 -135.026 -21.2969 -194.7 5.26562c-56.5791 25.1855 -104.418 66.7812 -145.109 113.112
c-40.1436 -13.9082 -83.5186 -17.5176 -125.216 -6.48145c-58.7012 15.5342 -115.268 76.5654 -93.5684 140.799c10.2021 30.2002 38.3955 48.1201 70.0576 45.4521c35.8584 -3.02344 63.3633 -30.3545 85.1387 -56.6152
c22.0576 -26.6016 40.6279 -55.8682 61.7305 -83.2217c23.8291 13.7324 45.3359 32.1367 62.8262 51.2783c50.125 54.8584 76.5166 127.889 92.1074 199.437c17.2012 78.9385 25.0859 159.227 24.4023 239.988c-0.0644531 7.41406 -0.256836 14.8096 -0.507812 22.1982
c-11.3975 -65.1963 -31.9033 -129.399 -65.8232 -186.48c-31.1963 -52.501 -75.9971 -97.4932 -138.06 -109.185c-60.4248 -11.3848 -117.234 15.4932 -151.086 65.4082c-35.2412 51.9609 -37.7832 117.656 -39.8359 178.309
c-1.17773 34.7344 -3.84277 69.1953 -9.3291 103.53c-4.31348 27.0029 -6.52539 59.3438 -22.4951 82.5967c-19.1904 27.9453 -55.8164 23.9492 -84.2812 14.7949c-26.7266 -8.59375 -50.7988 -24.1025 -71.2637 -43.1621
c-43.9893 -40.9707 -76.3428 -99.6875 -85.6406 -159.203c-8.48438 -54.3008 7.53418 -143.047 82.1953 -126.791c58.8525 12.8125 97.21 65.498 113.177 120.219c3.31055 11.3516 35.6846 8.59668 31.2812 -4.91504c-19.4258 -59.6182 -76.5146 -114.761 -138.613 -127.387
c-29.7988 -6.05664 -62.7793 -0.680664 -84.2295 22.3242c-21 22.5234 -27.9482 54.8926 -27.7871 84.8291c0.598633 111.609 91.2646 241.759 208.422 252.252c28.5342 2.55469 59.6436 -3.28711 80.8457 -23.7852c21.9316 -21.2051 32.7451 -52.9727 41.375 -81.4092
c20.8643 -68.752 15.1885 -140.655 29.9854 -210.25c10.0225 -47.1348 40.502 -110.731 93.5049 -120.528c29.5303 -5.45801 60.8525 10.1992 82.6484 29.0029c24.0928 20.7852 42.4453 47.0303 58.0283 74.5605c32.6631 57.708 51.4053 122.042 61.1279 187.382
c9.60547 64.5381 13.4434 131.585 9.88965 196.758c-0.578125 10.6289 20.8516 13.2451 30.749 7.36719c3.46582 -1.3291 6.12598 -3.31055 7.08594 -5.95508c6.90723 -19.0264 12.9971 -38.124 17.6738 -57.8232c36.8975 -155.474 35.085 -326.253 -9.73633 -480.023
c-20.3574 -69.8428 -54.8896 -138.152 -111.088 -185.991c-18.7441 -15.9541 -39.9004 -29.5303 -62.4775 -39.9111c15.3193 -17.6182 31.5547 -34.4404 48.9551 -50.0078c51.416 -45.9932 119.541 -87.1201 190.797 -85.1006
c35.2598 1.00098 69.7666 14.2314 92.4814 41.9209c19.4053 23.6543 29.876 57.3594 20.8213 87.3574c-9.66113 32.0107 -40.0947 54.3623 -72.6895 58.4229c-35.5254 4.42676 -69.0928 -17.1924 -91.9463 -42.4551c-9.70801 -10.7344 -44.1357 -0.348633 -31.6377 10.542
c13.0098 11.3379 27.208 21.3428 42.8398 28.7334zM370.036 -191.521c29.6455 -7.79297 59.3086 -3.27637 86.79 8.2793c-18.5322 23.7012 -35.626 48.4922 -54.5244 71.9189c-11.5586 14.3311 -23.8799 28.1914 -37.7783 40.3076
c-11.0488 9.63574 -30.2773 25.0264 -45.8115 17.7461c-27.2461 -12.7695 -27.2764 -54.6768 -17.7246 -78.1318c11.9805 -29.415 38.459 -52.0791 69.0488 -60.1201z" />
    <glyph glyph-name="Y" unicode="&#xdd;" horiz-adv-x="751" 
d="M703.66 -153.372c53.9346 25.5059 129.795 22.3066 164.655 -32.8105c31.9209 -50.4766 0.18457 -117.227 -47.6807 -144.348c-59.5566 -33.7441 -135.026 -21.2969 -194.7 5.26562c-56.5791 25.1855 -104.418 66.7812 -145.109 113.112
c-40.1436 -13.9082 -83.5186 -17.5176 -125.216 -6.48145c-58.7012 15.5342 -115.268 76.5654 -93.5684 140.799c10.2021 30.2002 38.3955 48.1201 70.0576 45.4521c35.8584 -3.02344 63.3633 -30.3545 85.1387 -56.6152
c22.0576 -26.6016 40.6279 -55.8682 61.7305 -83.2217c23.8291 13.7324 45.3359 32.1367 62.8262 51.2783c50.125 54.8584 76.5166 127.889 92.1074 199.437c17.2012 78.9385 25.0859 159.227 24.4023 239.988c-0.0644531 7.41406 -0.256836 14.8096 -0.507812 22.1982
c-11.3975 -65.1963 -31.9033 -129.399 -65.8232 -186.48c-31.1963 -52.501 -75.9971 -97.4932 -138.06 -109.185c-60.4248 -11.3848 -117.234 15.4932 -151.086 65.4082c-35.2412 51.9609 -37.7832 117.656 -39.8359 178.309
c-1.17773 34.7344 -3.84277 69.1953 -9.3291 103.53c-4.31348 27.0029 -6.52539 59.3438 -22.4951 82.5967c-19.1904 27.9453 -55.8164 23.9492 -84.2812 14.7949c-26.7266 -8.59375 -50.7988 -24.1025 -71.2637 -43.1621
c-43.9893 -40.9707 -76.3428 -99.6875 -85.6406 -159.203c-8.48438 -54.3008 7.53418 -143.047 82.1953 -126.791c58.8525 12.8125 97.21 65.498 113.177 120.219c3.31055 11.3516 35.6846 8.59668 31.2812 -4.91504c-19.4258 -59.6182 -76.5146 -114.761 -138.613 -127.387
c-29.7988 -6.05664 -62.7793 -0.680664 -84.2295 22.3242c-21 22.5234 -27.9482 54.8926 -27.7871 84.8291c0.598633 111.609 91.2646 241.759 208.422 252.252c28.5342 2.55469 59.6436 -3.28711 80.8457 -23.7852c21.9316 -21.2051 32.7451 -52.9727 41.375 -81.4092
c20.8643 -68.752 15.1885 -140.655 29.9854 -210.25c10.0225 -47.1348 40.502 -110.731 93.5049 -120.528c29.5303 -5.45801 60.8525 10.1992 82.6484 29.0029c24.0928 20.7852 42.4453 47.0303 58.0283 74.5605c32.6631 57.708 51.4053 122.042 61.1279 187.382
c9.60547 64.5381 13.4434 131.585 9.88965 196.758c-0.578125 10.6289 20.8516 13.2451 30.749 7.36719c3.46582 -1.3291 6.12598 -3.31055 7.08594 -5.95508c6.90723 -19.0264 12.9971 -38.124 17.6738 -57.8232c36.8975 -155.474 35.085 -326.253 -9.73633 -480.023
c-20.3574 -69.8428 -54.8896 -138.152 -111.088 -185.991c-18.7441 -15.9541 -39.9004 -29.5303 -62.4775 -39.9111c15.3193 -17.6182 31.5547 -34.4404 48.9551 -50.0078c51.416 -45.9932 119.541 -87.1201 190.797 -85.1006
c35.2598 1.00098 69.7666 14.2314 92.4814 41.9209c19.4053 23.6543 29.876 57.3594 20.8213 87.3574c-9.66113 32.0107 -40.0947 54.3623 -72.6895 58.4229c-35.5254 4.42676 -69.0928 -17.1924 -91.9463 -42.4551c-9.70801 -10.7344 -44.1357 -0.348633 -31.6377 10.542
c13.0098 11.3379 27.208 21.3428 42.8398 28.7334zM370.036 -191.521c29.6455 -7.79297 59.3086 -3.27637 86.79 8.2793c-18.5322 23.7012 -35.626 48.4922 -54.5244 71.9189c-11.5586 14.3311 -23.8799 28.1914 -37.7783 40.3076
c-11.0488 9.63574 -30.2773 25.0264 -45.8115 17.7461c-27.2461 -12.7695 -27.2764 -54.6768 -17.7246 -78.1318c11.9805 -29.415 38.459 -52.0791 69.0488 -60.1201z" />
    <glyph glyph-name="Z" unicode="Z" horiz-adv-x="589" 
d="M589.445 579.162c16.2949 -5.36035 19.332 -24.3096 18.1182 -39.291c-1.57715 -19.4307 -10.0303 -38.0879 -21.7324 -53.4941c-12.8262 -16.8887 -29.292 -31.5449 -47.21 -44.2783c-2.40918 -11.5635 -4.7793 -23.1318 -7.30371 -34.6494
c-12.8281 -58.5195 -25.6611 -117.321 -41.2598 -175.304c13.0762 0.350586 26.1885 0.173828 39.3242 -0.573242c13.2656 -0.75293 13.4043 -13.3994 0 -12.5625c-14.2617 0.888672 -28.5156 1.12695 -42.7314 0.699219
c-11.8047 -42.665 -25.1963 -84.8496 -41.3477 -126.089c-15.7139 -40.1133 -34.1797 -79.499 -55.9805 -116.855c57.0449 -27.7021 106.492 -72.001 112.176 -136.201c3.76074 -42.4707 -16.8779 -83.9795 -56.0566 -102.548
c-18.25 -8.65039 -39.1631 -11.5918 -59.0498 -7.77246c-15.3984 2.95703 -43.9961 12.959 -35.7754 33.7998c6.62012 16.7832 51.6152 7.77441 38.2393 -9.18848c-4.27246 -5.41699 17.2188 -9.05176 18.7373 -9.10254c8.7627 -0.28125 17.5234 2.06934 25.4902 5.55859
c42.9316 18.8008 52.1533 70.6543 38.416 111.592c-14.6152 43.5537 -51.5127 75.0781 -90.7891 96.3594c-0.489258 0.266602 -0.988281 0.512695 -1.47754 0.776367c-25.6748 -41.3057 -55.6729 -79.8037 -90.8652 -113.609
c-68.5986 -65.8926 -174.062 -122.53 -271.187 -89.209c-21.0947 7.2373 -40.6201 19.8145 -52.1504 39.3555c-10.5674 17.9121 -12.4775 39.8184 -10.1533 60.1143c5.0791 44.3701 35.835 79.4941 72.0264 103.101c79.2305 51.6797 182.942 66.123 274.674 46.708
c12.3545 -2.61426 25.2412 -5.97852 38.2568 -10.1104c38.3164 67.6611 65.7373 142.204 88.2197 217.689c-11.9609 -1.95801 -23.8672 -4.40039 -35.6846 -7.36719c-3.7373 -0.939453 -11.4102 -1.77637 -14.1211 2.10938
c-2.46484 3.5332 -0.455078 6.98145 3.70215 8.04883c16.502 4.24707 33.1523 7.61816 49.9053 10.1318c12.626 43.4766 23.7598 87.1426 34.5068 129.861c4.26758 16.9678 8.58105 34.0127 13.1152 51.0166c-76.3838 -36.4854 -161.559 -49.5156 -245.448 -53.9287
c-44.7158 -2.35254 -89.8213 0.412109 -134.417 -3.49219c-23.4395 -2.05078 -47.209 -6.14453 -68.9844 -15.373c-15.8418 -6.71484 -48.1133 -26.7705 -31.0068 -47.9805c11.4385 -14.1826 -23.2188 -20.4395 -31.29 -10.4268
c-13.875 17.2012 -9.38477 38.6572 6.36426 53.1084c17.2012 15.7822 42.4043 23.959 64.6045 29.4121c24.3232 5.97559 49.2168 8.17676 74.1895 9.21875c49.2676 2.05273 98.5068 0.0634766 147.739 3.90332c77.4844 6.04688 157.555 22.2725 225.391 61.4639
c6.49219 22.7744 13.5762 45.3643 21.7891 67.4492c11.6504 31.332 36.4336 92.5957 81.0371 77.9297zM225.489 -148.263c42.3945 37.8447 76.7432 81.6641 105.331 129.212c-67.8359 22.9277 -143.093 23.5264 -211.215 1.14648
c-40.6689 -13.3604 -83.084 -34.5293 -108.971 -69.8604c-23.3525 -31.8701 -28.0967 -79.4043 1.10059 -109.477c26.8496 -27.6562 69.6631 -25.8281 103.965 -15.5625c41.1572 12.3164 77.9346 36.1016 109.789 64.541zM585.213 547.649
c0.212891 3.00781 1.34863 13.3057 -1.47266 15.3252c0.660156 2.34766 -0.162109 2.18164 -2.45801 -0.496094c-0.460938 -0.404297 -0.918945 -0.808594 -1.37988 -1.21094c-1.8584 -1.65625 -3.47168 -3.41992 -4.93555 -5.43164
c-13.75 -18.9111 -20.4932 -45.2666 -26.0586 -67.6133c-0.834961 -3.36133 -1.64648 -6.72754 -2.4375 -10.1016c10.5674 10.2783 20.1035 21.6914 27.2842 34.3486c6.13867 10.8184 10.5674 22.6914 11.458 35.1797z" />
    <glyph glyph-name="bracketleft" unicode="[" horiz-adv-x="231" 
d="M177.799 -98.6719c5.53516 -4.6416 4.37695 -9.92773 -1.42969 -13.7061c-20.915 -13.6172 -52.1777 -9.95117 -72.9141 2.3291c-23.3984 13.8574 -33.1113 37.6064 -38.4697 63.0791c-10.5215 50.0176 -10.1426 102.724 -12.1416 153.592
c-2.07324 52.7363 -3.30957 105.642 -2.6748 158.422c0.617188 51.4619 1.16797 104.347 11.9248 154.863c3.99316 18.7598 10.5469 38.3623 30.3799 44.9805c17.5674 5.8623 35.2139 2.90039 52.4736 -2.49902c11.3311 -3.54785 -2.19336 -10.9023 -9.10547 -8.87988
c-8.02832 2.34766 -22.1572 7.58008 -28.957 1.01855c-5.92676 -5.71875 -5.68359 -17.6045 -5.93945 -25.1465c-0.783203 -23.0859 -1.78418 -46.1133 -1.5459 -69.2354c0.870117 -84.6475 5.20215 -168.995 9.31348 -253.527
c2.01172 -41.332 3.47363 -82.8096 8.77246 -123.883c2.43457 -18.8721 4.75098 -38.0977 12.9404 -55.4805c3.27148 -6.94531 13.5781 -25.877 23.7393 -23.2354c7.29395 1.89648 17.3672 2.56445 23.6338 -2.69141z" />
    <glyph glyph-name="backslash" unicode="\" horiz-adv-x="369" 
d="M318.794 -100.32c1.16016 -15.7471 -29.3564 -10.8789 -36.1914 -5.58496c-17.5693 13.6094 -30.2773 35.8662 -41.3164 54.8535c-11.249 19.3535 -21.8838 39.04 -31.7422 59.1367c-19.2744 39.2891 -37.0693 79.2793 -54.2422 119.525
c-18.1279 42.4863 -35.9941 85.085 -53.6123 127.786c-17.9326 43.4668 -36.7207 86.6797 -50.9443 131.521c-7.63867 24.0801 45.7354 26.6299 54.4238 8.55078c20.5215 -42.6885 37.2412 -87.0439 55.2412 -130.844c17.5518 -42.7119 35.3516 -85.3213 53.415 -127.82
c17.0625 -40.1465 34.0996 -80.3232 52.7598 -119.758c9.43652 -19.9453 18.8877 -39.8906 28.8076 -59.5977c8.82227 -17.5264 21.9346 -37.8525 23.4014 -57.7695z" />
    <glyph glyph-name="bracketright" unicode="]" horiz-adv-x="231" 
d="M173.25 398.471c8.19727 -51.1289 8.15234 -104.402 8.04492 -156.071c-0.118164 -52.8311 -1.51855 -105.621 -3.62793 -158.406c-1.96387 -49.1191 -1.0957 -102.373 -15.9795 -149.705c-6.82031 -21.6807 -21.1748 -39.6338 -42.4053 -48.4971
c-19.7432 -8.24316 -45.5918 -10.3223 -64.2441 1.82227c-5.95703 3.87891 -6.87598 9.13965 -1.43359 13.7119c6.28516 5.28125 16.2666 4.60547 23.6348 2.69043c12.5771 -3.27148 23.8799 22.626 27.0234 30.9004c7.74707 20.3828 9.41895 43.5098 11.6592 65.0342
c4.29297 41.2725 5.60352 82.835 7.61816 124.262c2.08105 42.7549 4.77637 85.4609 6.15137 128.249c1.33105 41.4727 2.68066 82.9658 2.34766 124.467c-0.161133 20.0039 -0.202148 40.3105 -2.01953 60.2402c-0.552734 6.07715 -1.88184 16.6348 -8.16699 19.6836
c-6.9043 3.35156 -19.5332 -1.37207 -26.2861 -3.3457c-6.92773 -2.02539 -20.4346 5.33496 -9.10645 8.88086c18.793 5.88086 39.9951 9.46191 58.3789 0.0380859c21.9092 -11.2305 24.9453 -42.335 28.4111 -63.9541z" />
    <glyph glyph-name="asciicircum" unicode="^" horiz-adv-x="233" 
d="M183.404 259.617c1.88184 -18.1689 -42.8057 -18.2334 -48.3682 -3.73047c-5.83691 15.2373 -9.41602 31.1123 -14.7539 46.5156c-1.05176 3.03906 -2.17773 6.05176 -3.35059 9.04688c-1.58984 -3.08789 -3.17188 -6.18262 -4.75879 -9.27246
c-7.71289 -15.0098 -15.8281 -30.0527 -27.0586 -42.7578c-6.01367 -6.80176 -36.4424 -8.60156 -35.0703 5.41504c2.27344 23.2012 14.1953 46.3105 23.6807 67.3721c4.00098 8.88086 8.24805 19.4795 15.1904 26.5986c9.60742 9.85059 26.2295 11.502 38.9121 8.63965
c21.5967 -4.87402 31.3916 -25.8252 39.085 -44.6543c8.2002 -20.0703 14.2598 -41.6074 16.4922 -63.1729z" />
    <glyph glyph-name="underscore" unicode="_" horiz-adv-x="289" 
d="M213.153 -27.1396c8.09961 -0.337891 26.6025 -3.1377 26.3184 -15.001c-0.276367 -11.625 -17.4209 -15.0654 -26.3193 -15.001c-48.8965 0.350586 -98.9268 -1.52051 -147.616 3.08203c-5.75977 0.544922 -15.5361 4.57422 -15.5361 11.6318
c0 7.30664 9.83008 10.7471 15.5361 11.6299c47.9805 7.43164 99.2275 5.67285 147.617 3.6582z" />
    <glyph glyph-name="grave" unicode="`" horiz-adv-x="143" 
d="M90.2695 358.14c0.107422 -13.3223 2.05957 -26.2393 2.68945 -39.4082c0.522461 -10.8877 -20.4854 -7.95898 -25.3799 -3.91895c-11.1797 9.22363 -13.9551 24.625 -15.8623 38.3672c-2.2959 16.5635 -2.44141 33.1777 0.492188 49.6309
c2.70312 15.1602 40.5303 15.7383 39.8418 -0.000976562c-0.650391 -14.8789 -1.89941 -29.7705 -1.78125 -44.6699z" />
    <glyph glyph-name="a" unicode="a" horiz-adv-x="266" 
d="M270.808 73.2539c1.94824 6.33887 19.8398 4.93555 17.5918 -2.75977c-14.1289 -48.415 -49.04 -169.729 -121.965 -117.105c-30.874 22.2773 -41.0479 63.123 -45.9424 98.8584c-0.287109 2.10449 -0.5 4.21875 -0.758789 6.3252
c-2.93164 -10.5039 -6.38281 -20.7695 -10.5479 -30.6279c-13.9961 -33.1221 -45.5664 -55.1592 -81.96 -41.3711c-39.3965 14.9248 -50.1738 63.0586 -43.2822 100.469c7.81348 42.4199 32.6279 72.1211 75.3623 82.0869c18.4883 4.31152 38.1494 3.74023 56.1465 -2.54492
c0.0507812 3.94727 0.104492 7.89258 0.170898 11.8271c0.371094 21.9492 53.5938 21.665 55.6396 -0.000976562c5.89355 -62.4473 -3.45605 -128.722 15.209 -189.563c2.73633 -8.92188 10.8975 -36.8008 24.4609 -32.7178
c12.6719 3.81445 22.4512 24.0947 28.2773 34.7012c14.2207 25.8926 22.9551 54.3145 31.5977 82.4238zM96.9658 52.0303c8.41992 28.0938 13.5205 57.5264 17.0791 86.8799c-7.94336 5.79102 -16.3838 10.4502 -27.1641 10.5322
c-14.2822 0.107422 -26.6191 -9.61523 -34.4043 -20.9561c-19.5557 -28.4902 -24.9219 -68.4141 -17.2598 -101.651c4.13184 -17.9229 15.5703 -41.3496 36.0918 -23.376c13.7656 12.0605 20.5547 31.5498 25.6572 48.5713z" />
    <glyph glyph-name="a" unicode="&#xe5;" horiz-adv-x="266" 
d="M270.808 73.2539c1.94824 6.33887 19.8398 4.93555 17.5918 -2.75977c-14.1289 -48.415 -49.04 -169.729 -121.965 -117.105c-30.874 22.2773 -41.0479 63.123 -45.9424 98.8584c-0.287109 2.10449 -0.5 4.21875 -0.758789 6.3252
c-2.93164 -10.5039 -6.38281 -20.7695 -10.5479 -30.6279c-13.9961 -33.1221 -45.5664 -55.1592 -81.96 -41.3711c-39.3965 14.9248 -50.1738 63.0586 -43.2822 100.469c7.81348 42.4199 32.6279 72.1211 75.3623 82.0869c18.4883 4.31152 38.1494 3.74023 56.1465 -2.54492
c0.0507812 3.94727 0.104492 7.89258 0.170898 11.8271c0.371094 21.9492 53.5938 21.665 55.6396 -0.000976562c5.89355 -62.4473 -3.45605 -128.722 15.209 -189.563c2.73633 -8.92188 10.8975 -36.8008 24.4609 -32.7178
c12.6719 3.81445 22.4512 24.0947 28.2773 34.7012c14.2207 25.8926 22.9551 54.3145 31.5977 82.4238zM96.9658 52.0303c8.41992 28.0938 13.5205 57.5264 17.0791 86.8799c-7.94336 5.79102 -16.3838 10.4502 -27.1641 10.5322
c-14.2822 0.107422 -26.6191 -9.61523 -34.4043 -20.9561c-19.5557 -28.4902 -24.9219 -68.4141 -17.2598 -101.651c4.13184 -17.9229 15.5703 -41.3496 36.0918 -23.376c13.7656 12.0605 20.5547 31.5498 25.6572 48.5713z" />
    <glyph glyph-name="a" unicode="&#xe4;" horiz-adv-x="266" 
d="M270.808 73.2539c1.94824 6.33887 19.8398 4.93555 17.5918 -2.75977c-14.1289 -48.415 -49.04 -169.729 -121.965 -117.105c-30.874 22.2773 -41.0479 63.123 -45.9424 98.8584c-0.287109 2.10449 -0.5 4.21875 -0.758789 6.3252
c-2.93164 -10.5039 -6.38281 -20.7695 -10.5479 -30.6279c-13.9961 -33.1221 -45.5664 -55.1592 -81.96 -41.3711c-39.3965 14.9248 -50.1738 63.0586 -43.2822 100.469c7.81348 42.4199 32.6279 72.1211 75.3623 82.0869c18.4883 4.31152 38.1494 3.74023 56.1465 -2.54492
c0.0507812 3.94727 0.104492 7.89258 0.170898 11.8271c0.371094 21.9492 53.5938 21.665 55.6396 -0.000976562c5.89355 -62.4473 -3.45605 -128.722 15.209 -189.563c2.73633 -8.92188 10.8975 -36.8008 24.4609 -32.7178
c12.6719 3.81445 22.4512 24.0947 28.2773 34.7012c14.2207 25.8926 22.9551 54.3145 31.5977 82.4238zM96.9658 52.0303c8.41992 28.0938 13.5205 57.5264 17.0791 86.8799c-7.94336 5.79102 -16.3838 10.4502 -27.1641 10.5322
c-14.2822 0.107422 -26.6191 -9.61523 -34.4043 -20.9561c-19.5557 -28.4902 -24.9219 -68.4141 -17.2598 -101.651c4.13184 -17.9229 15.5703 -41.3496 36.0918 -23.376c13.7656 12.0605 20.5547 31.5498 25.6572 48.5713z" />
    <glyph glyph-name="a" unicode="&#xe3;" horiz-adv-x="266" 
d="M270.808 73.2539c1.94824 6.33887 19.8398 4.93555 17.5918 -2.75977c-14.1289 -48.415 -49.04 -169.729 -121.965 -117.105c-30.874 22.2773 -41.0479 63.123 -45.9424 98.8584c-0.287109 2.10449 -0.5 4.21875 -0.758789 6.3252
c-2.93164 -10.5039 -6.38281 -20.7695 -10.5479 -30.6279c-13.9961 -33.1221 -45.5664 -55.1592 -81.96 -41.3711c-39.3965 14.9248 -50.1738 63.0586 -43.2822 100.469c7.81348 42.4199 32.6279 72.1211 75.3623 82.0869c18.4883 4.31152 38.1494 3.74023 56.1465 -2.54492
c0.0507812 3.94727 0.104492 7.89258 0.170898 11.8271c0.371094 21.9492 53.5938 21.665 55.6396 -0.000976562c5.89355 -62.4473 -3.45605 -128.722 15.209 -189.563c2.73633 -8.92188 10.8975 -36.8008 24.4609 -32.7178
c12.6719 3.81445 22.4512 24.0947 28.2773 34.7012c14.2207 25.8926 22.9551 54.3145 31.5977 82.4238zM96.9658 52.0303c8.41992 28.0938 13.5205 57.5264 17.0791 86.8799c-7.94336 5.79102 -16.3838 10.4502 -27.1641 10.5322
c-14.2822 0.107422 -26.6191 -9.61523 -34.4043 -20.9561c-19.5557 -28.4902 -24.9219 -68.4141 -17.2598 -101.651c4.13184 -17.9229 15.5703 -41.3496 36.0918 -23.376c13.7656 12.0605 20.5547 31.5498 25.6572 48.5713z" />
    <glyph glyph-name="a" unicode="&#xe2;" horiz-adv-x="266" 
d="M270.808 73.2539c1.94824 6.33887 19.8398 4.93555 17.5918 -2.75977c-14.1289 -48.415 -49.04 -169.729 -121.965 -117.105c-30.874 22.2773 -41.0479 63.123 -45.9424 98.8584c-0.287109 2.10449 -0.5 4.21875 -0.758789 6.3252
c-2.93164 -10.5039 -6.38281 -20.7695 -10.5479 -30.6279c-13.9961 -33.1221 -45.5664 -55.1592 -81.96 -41.3711c-39.3965 14.9248 -50.1738 63.0586 -43.2822 100.469c7.81348 42.4199 32.6279 72.1211 75.3623 82.0869c18.4883 4.31152 38.1494 3.74023 56.1465 -2.54492
c0.0507812 3.94727 0.104492 7.89258 0.170898 11.8271c0.371094 21.9492 53.5938 21.665 55.6396 -0.000976562c5.89355 -62.4473 -3.45605 -128.722 15.209 -189.563c2.73633 -8.92188 10.8975 -36.8008 24.4609 -32.7178
c12.6719 3.81445 22.4512 24.0947 28.2773 34.7012c14.2207 25.8926 22.9551 54.3145 31.5977 82.4238zM96.9658 52.0303c8.41992 28.0938 13.5205 57.5264 17.0791 86.8799c-7.94336 5.79102 -16.3838 10.4502 -27.1641 10.5322
c-14.2822 0.107422 -26.6191 -9.61523 -34.4043 -20.9561c-19.5557 -28.4902 -24.9219 -68.4141 -17.2598 -101.651c4.13184 -17.9229 15.5703 -41.3496 36.0918 -23.376c13.7656 12.0605 20.5547 31.5498 25.6572 48.5713z" />
    <glyph glyph-name="a" unicode="&#xe1;" horiz-adv-x="266" 
d="M270.808 73.2539c1.94824 6.33887 19.8398 4.93555 17.5918 -2.75977c-14.1289 -48.415 -49.04 -169.729 -121.965 -117.105c-30.874 22.2773 -41.0479 63.123 -45.9424 98.8584c-0.287109 2.10449 -0.5 4.21875 -0.758789 6.3252
c-2.93164 -10.5039 -6.38281 -20.7695 -10.5479 -30.6279c-13.9961 -33.1221 -45.5664 -55.1592 -81.96 -41.3711c-39.3965 14.9248 -50.1738 63.0586 -43.2822 100.469c7.81348 42.4199 32.6279 72.1211 75.3623 82.0869c18.4883 4.31152 38.1494 3.74023 56.1465 -2.54492
c0.0507812 3.94727 0.104492 7.89258 0.170898 11.8271c0.371094 21.9492 53.5938 21.665 55.6396 -0.000976562c5.89355 -62.4473 -3.45605 -128.722 15.209 -189.563c2.73633 -8.92188 10.8975 -36.8008 24.4609 -32.7178
c12.6719 3.81445 22.4512 24.0947 28.2773 34.7012c14.2207 25.8926 22.9551 54.3145 31.5977 82.4238zM96.9658 52.0303c8.41992 28.0938 13.5205 57.5264 17.0791 86.8799c-7.94336 5.79102 -16.3838 10.4502 -27.1641 10.5322
c-14.2822 0.107422 -26.6191 -9.61523 -34.4043 -20.9561c-19.5557 -28.4902 -24.9219 -68.4141 -17.2598 -101.651c4.13184 -17.9229 15.5703 -41.3496 36.0918 -23.376c13.7656 12.0605 20.5547 31.5498 25.6572 48.5713z" />
    <glyph glyph-name="b" unicode="b" horiz-adv-x="301" 
d="M304.076 76.2393c1.83008 7.04297 21.749 5.61035 19.5195 -3.07031c-10.6211 -41.2783 -27.3896 -81.8652 -60.877 -109.849c-30.3154 -25.3311 -68.624 -39.1318 -107.787 -42.1172c-6.92773 -0.527344 -13.8496 -0.699219 -20.7568 -0.583984
c-59.0039 -37.7139 -137.566 -51.5664 -195.6 -9.04395c-14.5615 10.6699 -26.8955 27.71 -21.123 46.7002c5.77539 19.001 23.8418 23.2246 41.6875 21.7676c46.1826 -3.76855 85.8857 -31.2246 130.423 -41.9209c18.5068 11.0693 35.0059 24.8066 47.3711 38.7969
c23.0811 26.1201 39.708 57.6777 48.5508 91.3955c8.80664 33.5879 11.1592 79.0186 -19.5381 102.602c-36.2705 27.8662 -71.9219 -28.2295 -85.5645 -55.5859c-17.0859 -34.2559 -25.5752 -71.8809 -32.6201 -109.277
c0.0996094 -5.10938 0.148438 -10.2188 0.0664062 -15.3262c-0.248047 -15.4346 -35.0439 -15.1963 -40.1104 -3.09277c-13.9775 33.3906 -17.2061 70.1709 -18.7041 105.985c-1.44141 34.502 -0.993164 69.0215 -0.015625 103.525
c1.60547 56.7354 6.86914 116.563 41.3525 164.05c24.0107 33.0625 78.9902 73.2676 119.326 41.4414c18.5752 -14.6562 17.8682 -40.5352 12.9678 -61.4609c-6.33398 -27.0596 -20.3574 -51.6641 -35.0186 -74.9961c-25.1904 -40.0879 -54.9814 -76.916 -83.8506 -114.382
c-0.00976562 -0.424805 -0.0146484 -0.849609 -0.0244141 -1.27441c-0.573242 -26.3682 -0.634766 -52.7598 0.680664 -79.1074c0.0205078 -0.422852 0.0488281 -0.845703 0.0693359 -1.26855c21.1846 70.3193 62.1709 146.703 138.675 111.528
c87.3076 -40.1416 47.6807 -162.964 0.46582 -218.438c-9.1875 -10.7959 -19.9316 -20.9385 -31.7715 -30.1318c28.9971 2.19141 57.2236 10.9854 81.9307 27.7021c39.6826 26.8496 58.6191 70.5566 70.2754 115.432zM54.7695 304.177
c-8.59961 -41.4287 -9.75195 -84 -10.5098 -126.289c22.0215 28.3701 43.915 56.8379 63.2764 87.1025c13.0225 20.3574 25.6816 41.6445 33.4355 64.6514c6.76074 20.0576 13.4883 52.2422 -7.4834 66.6553c-43.3027 29.7578 -73.1221 -65.1553 -78.7188 -92.1201z
M-49.5723 -61.2305c34.0586 -33.7646 81.6016 -29.1787 122.803 -9.4541c-12.4141 3.28418 -24.625 7.40625 -36.5342 12.2373c-18.4395 7.47754 -36.4854 16.2637 -55.6396 21.832c-8.78906 2.55469 -29.3691 9.47461 -36.9033 1.69727
c-7.71094 -7.96191 0.291992 -20.3809 6.27441 -26.3125z" />
    <glyph glyph-name="c" unicode="c" horiz-adv-x="202" 
d="M207.771 76.5205c2.9668 6.15723 21.0469 4.31836 17.7852 -2.79883c-21.7988 -47.499 -53.9736 -95.9863 -99.2832 -123.842c-40.3721 -24.8174 -96.4062 -15.9951 -123.693 23.6523c-26.2734 38.1748 -22.8018 95.9346 -8.83691 138.047
c13.8164 41.6592 45.9854 87.5967 91.2744 97.4736c17.4414 3.80664 42.0508 1.97656 50.9932 -16.2197c10.6084 -21.5859 4.83789 -49.6055 1.06445 -72.1084c-1.40527 -8.38184 -22.3076 -7.89258 -21.2402 0c1.63574 12.0908 3.37891 24.2793 3.12793 36.5137
c-0.181641 8.80371 -0.383789 33.6025 -12.7842 34.7158c-7.55762 0.678711 -15.9902 -9.5 -20.3496 -14.3721c-6.82031 -7.62598 -12.043 -16.0713 -17.0068 -24.9854c-21.2051 -38.0801 -32.5156 -80.2314 -30.2061 -123.937
c1.12598 -21.3428 5.65723 -45.3408 19.8965 -62.1553c15.3652 -18.1455 40.4609 -14.0674 59.3281 -3.45605c20.3418 11.4434 36.8535 31.6396 50.9385 49.8135c15.2988 19.7402 28.1582 41.1758 38.9922 63.6582z" />
    <glyph glyph-name="d" unicode="d" horiz-adv-x="320" 
d="M323.993 76.5947c1.88379 6.625 20.499 5.24023 18.3613 -2.875c-11.2617 -42.7578 -30.6279 -91.8057 -63.8721 -122.446c-33.9307 -31.2734 -84.9854 -21.1309 -113.819 12.8438c-24.4941 28.8594 -35.5537 70.2959 -41.4268 108.169
c-3.55371 -15.3037 -8.08984 -30.2266 -14.0518 -44.335c-13.9961 -33.1221 -45.5664 -55.1592 -81.96 -41.3711c-39.3965 14.9248 -50.1738 63.0586 -43.2822 100.469c7.81348 42.4199 32.6279 72.1211 75.3623 82.0869c18.6191 4.33887 38.4365 3.74219 56.5381 -2.66797
c0.358398 -0.12793 0.734375 -0.273438 1.09766 -0.40625c0.0820312 0.852539 0.173828 1.71289 0.25293 2.56543c0.0791016 0.834961 0.40918 1.55957 0.882812 2.20215c0.795898 17.4287 2.40625 34.8213 4.71289 52.0967c5.97754 44.7676 16.2891 89.125 33.8379 130.846
c15.6602 37.2275 39.7451 75.0518 76.2383 94.7021c32.7988 17.6592 81.4551 16.1562 94.8545 -24.8525c12.083 -36.9873 -1.70508 -80.2109 -19.249 -113.11c-32.1768 -60.3369 -86.6748 -102.102 -134.363 -149.672
c-0.583984 -23.7646 0.391602 -47.5654 3.30957 -71.1641c4.38574 -35.4746 11.4229 -73.0479 26.5986 -105.696c6.47168 -13.9219 16.6738 -32.8145 33.9775 -34.668c17.3545 -1.8584 30.7412 15.1299 39.6094 27.7529c21.0977 30.0371 36.3711 64.3105 46.3906 99.5312z
M176.616 201.952c-0.517578 -5.35352 -0.943359 -10.7158 -1.31445 -16.084c40.6582 38.3164 83.2725 74.9551 110.693 124.228c16.1338 28.9902 27.9795 64.9531 22.3555 98.4814c-2.77539 16.54 -16.4795 41.9688 -36.2197 30.4893
c-13.125 -7.63184 -24.5732 -20.335 -33.1416 -32.7002c-19.3691 -27.9551 -31.9033 -61.4834 -41.501 -93.875c-10.6494 -35.9424 -17.2725 -73.252 -20.8721 -110.539zM96.9629 52.0322c8.41992 28.0938 13.5205 57.5264 17.0791 86.8799
c-7.94336 5.79102 -16.3838 10.4502 -27.1641 10.5322c-14.2822 0.107422 -26.6191 -9.61523 -34.4043 -20.9561c-19.5557 -28.4902 -24.9219 -68.4141 -17.2598 -101.651c4.13184 -17.9229 15.5703 -41.3496 36.0918 -23.376
c13.7656 12.0605 20.5547 31.5498 25.6572 48.5713z" />
    <glyph glyph-name="e" unicode="e" horiz-adv-x="153" 
d="M157.654 73.5176c1.90234 6.55664 20.1582 5.20508 18.1738 -2.85645c-6.08789 -24.666 -17.0273 -47.0918 -32.8691 -66.9854c-13.9033 -17.459 -30.9971 -35.9121 -52.6348 -43.3027c-47.7012 -16.2969 -91.4365 18.6348 -102.526 64.2012
c-10.8672 44.6494 -3.69141 99.3779 25.874 135.751c14.2568 17.541 36.4727 29.2305 59.2949 29.4658c18.1943 0.186523 34.6807 -9.48828 38.5078 -28.166c3.42773 -16.7402 -7.80273 -31.8721 -22.4004 -38.8535c-13.3252 -6.37207 -28.3164 -6.14648 -42.0078 -1.67383
c-8.37598 -25.582 -11.4688 -53.543 -9.45703 -79.6064c1.35449 -17.5234 5.69336 -35.0059 15.0811 -50.0439c11.0801 -17.749 25.3213 -17.4824 42.7861 -7.87207c31.9951 17.6055 52.332 56.0293 62.1777 89.9424zM59.1113 149.402
c-2.79297 -5.16113 -5.28711 -10.5391 -7.54785 -16.0586c10.3301 -4.81836 21.8223 -5.69434 30.8594 2.79688c5.83203 5.48145 9.41602 13.1797 8.62793 21.29c-1.09863 11.29 -10.207 21.3506 -19.252 11.1152c-5.09473 -5.7627 -9.03711 -12.4004 -12.6875 -19.1436z
" />
    <glyph glyph-name="e" unicode="&#xeb;" horiz-adv-x="153" 
d="M157.654 73.5176c1.90234 6.55664 20.1582 5.20508 18.1738 -2.85645c-6.08789 -24.666 -17.0273 -47.0918 -32.8691 -66.9854c-13.9033 -17.459 -30.9971 -35.9121 -52.6348 -43.3027c-47.7012 -16.2969 -91.4365 18.6348 -102.526 64.2012
c-10.8672 44.6494 -3.69141 99.3779 25.874 135.751c14.2568 17.541 36.4727 29.2305 59.2949 29.4658c18.1943 0.186523 34.6807 -9.48828 38.5078 -28.166c3.42773 -16.7402 -7.80273 -31.8721 -22.4004 -38.8535c-13.3252 -6.37207 -28.3164 -6.14648 -42.0078 -1.67383
c-8.37598 -25.582 -11.4688 -53.543 -9.45703 -79.6064c1.35449 -17.5234 5.69336 -35.0059 15.0811 -50.0439c11.0801 -17.749 25.3213 -17.4824 42.7861 -7.87207c31.9951 17.6055 52.332 56.0293 62.1777 89.9424zM59.1113 149.402
c-2.79297 -5.16113 -5.28711 -10.5391 -7.54785 -16.0586c10.3301 -4.81836 21.8223 -5.69434 30.8594 2.79688c5.83203 5.48145 9.41602 13.1797 8.62793 21.29c-1.09863 11.29 -10.207 21.3506 -19.252 11.1152c-5.09473 -5.7627 -9.03711 -12.4004 -12.6875 -19.1436z
" />
    <glyph glyph-name="e" unicode="&#xea;" horiz-adv-x="153" 
d="M157.654 73.5176c1.90234 6.55664 20.1582 5.20508 18.1738 -2.85645c-6.08789 -24.666 -17.0273 -47.0918 -32.8691 -66.9854c-13.9033 -17.459 -30.9971 -35.9121 -52.6348 -43.3027c-47.7012 -16.2969 -91.4365 18.6348 -102.526 64.2012
c-10.8672 44.6494 -3.69141 99.3779 25.874 135.751c14.2568 17.541 36.4727 29.2305 59.2949 29.4658c18.1943 0.186523 34.6807 -9.48828 38.5078 -28.166c3.42773 -16.7402 -7.80273 -31.8721 -22.4004 -38.8535c-13.3252 -6.37207 -28.3164 -6.14648 -42.0078 -1.67383
c-8.37598 -25.582 -11.4688 -53.543 -9.45703 -79.6064c1.35449 -17.5234 5.69336 -35.0059 15.0811 -50.0439c11.0801 -17.749 25.3213 -17.4824 42.7861 -7.87207c31.9951 17.6055 52.332 56.0293 62.1777 89.9424zM59.1113 149.402
c-2.79297 -5.16113 -5.28711 -10.5391 -7.54785 -16.0586c10.3301 -4.81836 21.8223 -5.69434 30.8594 2.79688c5.83203 5.48145 9.41602 13.1797 8.62793 21.29c-1.09863 11.29 -10.207 21.3506 -19.252 11.1152c-5.09473 -5.7627 -9.03711 -12.4004 -12.6875 -19.1436z
" />
    <glyph glyph-name="e" unicode="&#xe9;" horiz-adv-x="153" 
d="M157.654 73.5176c1.90234 6.55664 20.1582 5.20508 18.1738 -2.85645c-6.08789 -24.666 -17.0273 -47.0918 -32.8691 -66.9854c-13.9033 -17.459 -30.9971 -35.9121 -52.6348 -43.3027c-47.7012 -16.2969 -91.4365 18.6348 -102.526 64.2012
c-10.8672 44.6494 -3.69141 99.3779 25.874 135.751c14.2568 17.541 36.4727 29.2305 59.2949 29.4658c18.1943 0.186523 34.6807 -9.48828 38.5078 -28.166c3.42773 -16.7402 -7.80273 -31.8721 -22.4004 -38.8535c-13.3252 -6.37207 -28.3164 -6.14648 -42.0078 -1.67383
c-8.37598 -25.582 -11.4688 -53.543 -9.45703 -79.6064c1.35449 -17.5234 5.69336 -35.0059 15.0811 -50.0439c11.0801 -17.749 25.3213 -17.4824 42.7861 -7.87207c31.9951 17.6055 52.332 56.0293 62.1777 89.9424zM59.1113 149.402
c-2.79297 -5.16113 -5.28711 -10.5391 -7.54785 -16.0586c10.3301 -4.81836 21.8223 -5.69434 30.8594 2.79688c5.83203 5.48145 9.41602 13.1797 8.62793 21.29c-1.09863 11.29 -10.207 21.3506 -19.252 11.1152c-5.09473 -5.7627 -9.03711 -12.4004 -12.6875 -19.1436z
" />
    </font>
</defs>
</svg>
