<?xml version="1.0" standalone="no"?>
<!DOCTYPE svg PUBLIC "-//W3C//DTD SVG 1.1//EN" "http://www.w3.org/Graphics/SVG/1.1/DTD/svg11.dtd" >
<svg xmlns="http://www.w3.org/2000/svg" xmlns:xlink="http://www.w3.org/1999/xlink" version="1.1">
<metadata>
Created by FontForge 20170812 at Sat May 28 17:46:44 2022
 By www-data
</metadata>
<defs>
<font id="MinihomeRegular" horiz-adv-x="224" >
  <font-face 
    font-family="Minihome"
    font-weight="400"
    font-stretch="normal"
    units-per-em="1000"
    panose-1="0 0 0 0 0 0 0 0 0 0"
    ascent="800"
    descent="-200"
    x-height="692.123"
    cap-height="684.24"
    bbox="-34.9977 -326.767 506.265 945.092"
    underline-thickness="50"
    underline-position="-100"
    unicode-range="U+000A-20AC"
  />
<missing-glyph horiz-adv-x="527" 
d="M50 700h427v-700h-427v700zM78 680l185 -309l186 309h-371zM251 350l-180 300v-601zM264 329l-185 -308h370zM276 350l181 -303v605z" />
    <glyph glyph-name=".notdef" horiz-adv-x="527" 
d="M50 700h427v-700h-427v700zM78 680l185 -309l186 309h-371zM251 350l-180 300v-601zM264 329l-185 -308h370zM276 350l181 -303v605z" />
    <glyph glyph-name=".null" horiz-adv-x="0" 
 />
    <glyph glyph-name=".null" horiz-adv-x="0" 
 />
    <glyph glyph-name="controlLF" unicode="&#xa;" horiz-adv-x="0" 
 />
    <glyph glyph-name="controlCR" unicode="&#xd;" horiz-adv-x="0" 
 />
    <glyph glyph-name="space" unicode=" " horiz-adv-x="127" 
 />
    <glyph glyph-name="exclam" unicode="!" horiz-adv-x="114" 
d="M83.042 227.707c-0.214844 -19.002 -52.4912 -18.7061 -52.2822 -0.000976562c2.09668 186.373 0.522461 372.775 -4.74902 559.085c-0.52832 18.7051 51.7451 18.9756 52.2822 0c5.26855 -186.312 6.84277 -372.711 4.74902 -559.084zM85.0195 32.1445
c0.856445 -30.6572 0.737305 -61.3057 -0.354492 -91.957c-0.682617 -19.1553 -52.9414 -18.5078 -52.2822 0c1.0918 30.6514 1.20801 61.2998 0.354492 91.957c-0.522461 18.708 51.7539 18.9727 52.2822 0z" />
    <glyph glyph-name="quotedbl" unicode="&#x22;" horiz-adv-x="154" 
d="M22.3125 835.073c1.35059 19.3301 53.5547 18.1943 52.2822 0c-4.14453 -59.2676 -5.81445 -118.657 -5.18457 -178.063c0.200195 -18.8477 -52.082 -18.8623 -52.2822 0c-0.629883 59.4062 1.04004 118.796 5.18457 178.063zM142.126 835.073
c-4.14453 -59.2705 -5.81641 -118.657 -5.18359 -178.063c0.200195 -18.8477 -52.082 -18.8623 -52.2822 0c-0.629883 59.4062 1.04004 118.796 5.18457 178.063c1.35059 19.3301 53.5537 18.1973 52.2812 0z" />
    <glyph glyph-name="quotedbl" unicode="&#x201d;" horiz-adv-x="154" 
d="M22.3125 835.073c1.35059 19.3301 53.5547 18.1943 52.2822 0c-4.14453 -59.2676 -5.81445 -118.657 -5.18457 -178.063c0.200195 -18.8477 -52.082 -18.8623 -52.2822 0c-0.629883 59.4062 1.04004 118.796 5.18457 178.063zM142.126 835.073
c-4.14453 -59.2705 -5.81641 -118.657 -5.18359 -178.063c0.200195 -18.8477 -52.082 -18.8623 -52.2822 0c-0.629883 59.4062 1.04004 118.796 5.18457 178.063c1.35059 19.3301 53.5537 18.1973 52.2812 0z" />
    <glyph glyph-name="quotedbl" unicode="&#x201c;" horiz-adv-x="154" 
d="M22.3125 835.073c1.35059 19.3301 53.5547 18.1943 52.2822 0c-4.14453 -59.2676 -5.81445 -118.657 -5.18457 -178.063c0.200195 -18.8477 -52.082 -18.8623 -52.2822 0c-0.629883 59.4062 1.04004 118.796 5.18457 178.063zM142.126 835.073
c-4.14453 -59.2705 -5.81641 -118.657 -5.18359 -178.063c0.200195 -18.8477 -52.082 -18.8623 -52.2822 0c-0.629883 59.4062 1.04004 118.796 5.18457 178.063c1.35059 19.3301 53.5537 18.1973 52.2812 0z" />
    <glyph glyph-name="numbersign" unicode="#" horiz-adv-x="309" 
d="M265.663 439.184c7.39453 -0.607422 22.8789 -6.4873 18.2607 -16.7285c-4.79297 -10.6221 -22.7666 -10.2676 -32.1572 -9.49512c-9.79102 0.804688 -19.5879 1.41211 -29.3848 1.92285c-1.62109 -33.4053 -3.1543 -66.8135 -4.61816 -100.228
c13.0557 -0.638672 26.1172 -1.41992 39.1904 -2.49414c7.3916 -0.607422 22.876 -6.48633 18.2578 -16.7217c-4.79297 -10.6221 -22.7666 -10.2676 -32.1572 -9.49512c-8.81543 0.726562 -17.6367 1.30176 -26.4609 1.79004
c-4.10156 -96.4014 -7.58691 -192.826 -10.3926 -289.274c-0.557617 -19.1182 -52.8223 -18.5635 -52.2822 -0.000976562c2.82031 96.9424 6.3291 193.864 10.4561 290.757c-4.68164 0.0146484 -9.36133 0.0322266 -14.041 -0.0205078
c-4.12695 -96.8867 -7.63574 -193.8 -10.4561 -290.736c-0.557617 -19.1182 -52.8223 -18.5635 -52.2822 -0.000976562c2.7998 96.2969 6.2793 192.574 10.3721 288.825c-15.0342 -0.929688 -30.0566 -2.16406 -45.0586 -3.74414
c-8.55957 -0.900391 -27.915 -0.923828 -32.1553 9.49512c-4.22949 10.3896 10.3281 15.8877 18.2578 16.7217c20.0586 2.11133 40.0996 3.64453 60.1377 4.70801c1.45215 33.2139 2.97949 66.4248 4.58887 99.6299c-14.0518 -0.90918 -28.0928 -2.05957 -42.1162 -3.53516
c-8.55957 -0.900391 -27.915 -0.920898 -32.1553 9.49512c-4.22852 10.3896 10.3291 15.8848 18.2588 16.7217c19.1152 2.0127 38.2188 3.51758 57.3193 4.57812c4.36523 87.7344 9.27637 175.443 14.7402 263.12c1.20215 19.2949 53.4199 18.2695 52.2812 0
c-5.42871 -87.0957 -10.3057 -174.227 -14.6504 -261.38c4.67969 0.0498047 9.35938 -0.00292969 14.0391 -0.0117188c4.34473 87.1592 9.22168 174.29 14.6504 261.392c1.20215 19.2949 53.4199 18.2695 52.2812 0c-5.45508 -87.5225 -10.3555 -175.077 -14.7178 -262.661
c13.9912 -0.65332 27.9854 -1.47559 41.9941 -2.62891zM165.544 316.064c1.4668 33.3936 3 66.7832 4.62402 100.168c-4.67969 0.00292969 -9.3623 0.0322266 -14.042 -0.03125c-1.62109 -33.3701 -3.15723 -66.7461 -4.62109 -100.125
c4.67969 0.0380859 9.35938 0.00878906 14.0391 -0.0117188z" />
    <glyph glyph-name="dollar" unicode="$" horiz-adv-x="261" 
d="M224.792 270.903c9.38184 -40.4111 12.417 -83.0518 7.92676 -124.328c-3.91797 -36.0049 -13.7822 -74.749 -39.8301 -101.372c-10.21 -10.4365 -23.1582 -17.5322 -37.0391 -21.1484c0.188477 -34.3721 0.351562 -68.7412 0.586914 -103.11
c0.12793 -18.874 -52.1543 -18.8359 -52.2822 0c-0.241211 35.4209 -0.401367 70.8418 -0.598633 106.263c-32.3271 13.0615 -50.7881 46.1504 -60.251 78.1729c-6.1084 20.6631 45.5371 23.7246 50.4141 7.22656c2.55566 -8.64648 5.61426 -17.4941 9.50391 -25.9346
c-0.0634766 12.8906 -0.162109 25.7812 -0.217773 38.6719c-0.423828 97.1133 -0.594727 194.229 -0.632812 291.346c-19.7568 28.209 -40.4023 55.8428 -56.1416 86.5928c-19.5039 38.1074 -26.0508 79.8135 -20.1143 122.188
c6.74707 48.1748 28.5254 98.7891 76.8076 115.911c0.154297 41.0352 0.296875 82.0674 0.514648 123.103c0.101562 18.9609 52.3809 18.749 52.2822 0c-0.214844 -40.1494 -0.328125 -80.2988 -0.485352 -120.448c10.6768 -3.16602 20.5635 -8.9668 28.8359 -17.9307
c25.4209 -27.541 36.2461 -67.124 38.8457 -103.692c1.30078 -18.3223 -50.917 -19.2021 -52.2822 0c-1.56836 22.0742 -6.3584 43.5879 -15.6328 63.6787c-0.0410156 -13.291 -0.125 -26.582 -0.160156 -39.873c-0.200195 -75.0303 -0.238281 -150.063 -0.206055 -225.097
c9.59375 -13.7412 18.958 -27.6338 27.3984 -42.1387c19.6465 -33.7627 33.9248 -70.0293 42.7578 -108.079zM102.334 500.268c0.046875 64.6406 0.18457 129.282 0.390625 193.923c-18.5342 -26.1094 -25.2119 -60.5195 -26.4551 -91.8193
c-1.4873 -37.4482 8.9541 -70.4209 26.0645 -102.104zM181.81 163.626c3.06738 55.6279 -6.64551 109.676 -27.0732 160.072c0.151367 -85.498 0.435547 -170.999 0.865234 -256.497c19.6084 26.2451 24.5811 66.8945 26.208 96.4248z" />
    <glyph glyph-name="percent" unicode="%" horiz-adv-x="374" 
d="M264.249 713.033c-7.98145 -51.8086 -15.625 -103.67 -23.0605 -155.562c-27.2188 -189.957 -53.1475 -380.048 -84.8857 -569.328c-3.28223 -19.5732 -55.1484 -17.0986 -52.2812 0c10.0205 59.7666 19.6201 119.604 28.7871 179.507
c27.7881 181.592 51.1846 363.82 79.1582 545.384c3.01465 19.5625 54.9424 17.2705 52.2822 0zM144.786 371.711c-4.62988 -18.3135 -9.24414 -40.5439 -26.2266 -51.5605c-16.5498 -10.7324 -42.7754 -9.44824 -57.8379 3.53809
c-25.5684 22.0459 -29.9365 70.1338 -33.3174 101.276c-7.40039 68.1641 -5.9043 141.432 7.8252 208.803c7.40039 36.3213 18.0947 80.5693 65.4014 72.6055c23.3994 -3.93848 33.748 -22.6494 40.0508 -43.5596c7.83398 -25.9932 11.5488 -53.1885 14.1074 -80.1514
c6.59082 -69.4473 5.95801 -142.816 -10.0029 -210.951zM104.67 683.201c2.17871 0.145508 1.27441 2.28906 -0.0234375 -0.00292969c0.00878906 0 0.0146484 0.00292969 0.0234375 0.00292969zM104.559 683.187c0.238281 0.619141 0.144531 0.467773 -0.0966797 -0.0146484
c0.0322266 0.00585938 0.0644531 0.0117188 0.0966797 0.0146484zM78.2363 682.435c-1.14453 0.966797 -2.17188 -0.269531 -0.231445 0.0996094c0.078125 -0.0380859 0.15332 -0.0644531 0.231445 -0.0996094zM92.502 371.71
c14.7549 62.9971 16.0293 130.438 11.3555 194.757c-1.63574 22.4639 -4.10156 44.9541 -8.38281 67.0811c-1.13867 5.87891 -2.42871 11.7373 -3.9707 17.5264c-2.11426 -7.78418 -3.75195 -15.7109 -5.21875 -23.5645
c-10.1133 -54.1611 -11.2959 -110.173 -9.20996 -165.083c1.17383 -30.8574 3.79688 -62.7461 12.749 -92.457c0.383789 -1.27832 0.795898 -2.55371 1.20801 -3.8291c0.510742 1.85938 1.00195 3.72168 1.46973 5.56934zM346.001 267.598
c6.59375 -69.4473 5.95605 -142.818 -10.002 -210.959c-4.62988 -18.3135 -9.24219 -40.542 -26.2275 -51.5557c-16.5498 -10.7324 -42.7754 -9.44824 -57.8379 3.53809c-25.5713 22.0488 -29.9365 70.1367 -33.3174 101.279
c-7.40039 68.1641 -5.9043 141.432 7.8252 208.803c7.40039 36.3213 18.0947 80.5693 65.4014 72.6055c23.3994 -3.94141 33.748 -22.6494 40.0508 -43.5596c7.83398 -25.9932 11.5488 -53.1885 14.1074 -80.1514zM295.884 368.134
c2.17578 0.148438 1.27246 2.28906 -0.0234375 -0.00292969c0.00878906 0 0.0146484 0.00292969 0.0234375 0.00292969zM295.771 368.119c0.238281 0.62207 0.147461 0.470703 -0.09375 -0.0146484c0.0292969 0.00585938 0.0615234 0.00878906 0.09375 0.0146484z
M269.448 367.367c-1.14453 0.966797 -2.17188 -0.266602 -0.231445 0.0996094c0.078125 -0.0380859 0.15332 -0.0644531 0.231445 -0.0996094zM283.714 56.6455c14.7578 62.9941 16.0322 130.436 11.3555 194.754c-1.63281 22.4639 -4.09863 44.9541 -8.37988 67.0811
c-1.13867 5.88184 -2.42871 11.7402 -3.9707 17.5293c-2.11426 -7.78418 -3.75195 -15.7109 -5.21875 -23.5645c-10.1133 -54.1611 -11.2959 -110.173 -9.20996 -165.083c1.1709 -30.8574 3.79395 -62.7461 12.7461 -92.457
c0.383789 -1.27832 0.798828 -2.55371 1.20801 -3.8291c0.510742 1.85938 1.00195 3.72168 1.46973 5.56934z" />
    <glyph glyph-name="ampersand" unicode="&#x26;" horiz-adv-x="239" 
d="M161.834 288.964c1.92871 19.4434 54.0557 17.9043 52.29 0.00390625c-6.95605 -70.1855 -18.3506 -140.476 -38.8652 -208.082c8.08301 -18.583 17.4795 -36.5068 28.7461 -53.208c6.59082 -9.76758 -12.3965 -15.8643 -18.2578 -16.7207
c-10.6514 -1.55957 -25.5957 -0.226562 -32.1572 9.49512c-0.0498047 0.0693359 -0.09375 0.144531 -0.143555 0.216797c-5.81738 -12.2285 -12.7275 -23.8174 -21.3975 -33.9834c-18.1973 -21.334 -50.7979 -28.8945 -75.6025 -14.0029
c-23.2773 13.9736 -28.5547 48.7236 -30.6748 73.2812c-2.71289 31.3926 1.95801 62.6484 9.9248 92.9717c10.1309 38.5752 24.5986 75.7646 38.1484 113.266c-10.6973 54.1582 -18.0889 109.043 -22.3818 163.988c-5.40234 69.1543 -6.59863 139.758 2.60547 208.647
c3.56641 26.7041 7.7373 57.0479 20.9854 81.002c12.9893 23.4893 42.1016 32.2461 66.6338 20.5088c22.7021 -10.8633 29.7109 -39.0752 34.3955 -61.5713c6.27051 -30.1289 7.72852 -61.3184 7.7666 -92.0166c0.0839844 -67.0713 -7.92969 -134.384 -22.2988 -199.861
c-9.14648 -41.6807 -21.375 -82.2227 -35.2236 -122.372c5.12695 -25.9346 11.0469 -51.6953 17.9365 -77.1533c0.25293 -0.929688 0.514648 -1.8623 0.767578 -2.79492c7.61621 39.1533 12.8818 78.8086 16.8027 118.386zM102.096 581.904
c-4.77539 -69.5488 -1.86719 -139.625 5.70508 -208.866c0.154297 -1.40625 0.336914 -2.8125 0.494141 -4.21875c9.19336 40.9131 15.7432 82.4248 19.5166 124.184c3.01465 33.3525 4.47852 66.9141 3.43262 100.397c-0.926758 29.5596 -2.53906 61.1934 -12.2988 89.4053
c-0.816406 -1.91699 -1.58008 -3.86914 -2.21289 -5.91992c-9.41113 -30.46 -12.4609 -63.3105 -14.6367 -94.9814zM92.9062 9.53711c13.1172 21.499 21.8613 45.7764 29.3262 69.9219c-11.209 26.6494 -19.8525 54.585 -27.3232 82.4072
c-14.7666 -46.0889 -24.4736 -94.3682 -12.8525 -141.913c1.40918 -5.7627 3.2334 -11.499 5.67871 -16.9248c2.08008 2.31445 3.99707 4.58594 5.1709 6.50879z" />
    <glyph glyph-name="quotesingle" unicode="'" horiz-adv-x="87" 
d="M74.5947 835.073c-4.14453 -59.2705 -5.81641 -118.657 -5.18359 -178.063c0.200195 -18.8477 -52.082 -18.8623 -52.2822 0c-0.629883 59.4062 1.04004 118.796 5.18457 178.063c1.35059 19.3301 53.5537 18.1973 52.2812 0z" />
    <glyph glyph-name="quotesingle" unicode="&#x2019;" horiz-adv-x="87" 
d="M74.5947 835.073c-4.14453 -59.2705 -5.81641 -118.657 -5.18359 -178.063c0.200195 -18.8477 -52.082 -18.8623 -52.2822 0c-0.629883 59.4062 1.04004 118.796 5.18457 178.063c1.35059 19.3301 53.5537 18.1973 52.2812 0z" />
    <glyph glyph-name="quotesingle" unicode="&#x2018;" horiz-adv-x="87" 
d="M74.5947 835.073c-4.14453 -59.2705 -5.81641 -118.657 -5.18359 -178.063c0.200195 -18.8477 -52.082 -18.8623 -52.2822 0c-0.629883 59.4062 1.04004 118.796 5.18457 178.063c1.35059 19.3301 53.5537 18.1973 52.2812 0z" />
    <glyph glyph-name="parenleft" unicode="(" horiz-adv-x="141" 
d="M154.349 -174.407c10.3867 -16.0156 -40.4941 -22.5234 -50.4102 -7.21973c-16.8867 26.0391 -26.6807 56.4209 -34.7148 86.1748c-9.69531 35.9033 -16.6084 72.4629 -21.9238 109.255c-20.5791 142.456 -22.9844 288.578 -15.2002 432.135
c3.69727 68.1934 10.1572 136.308 20.666 203.801c4.69043 30.1289 10.2031 60.1387 16.8604 89.8984c6.86621 30.6895 13.8633 62.5234 27.9795 90.8311c8.11523 16.2773 59.3809 10.75 50.4141 -7.22656c-15.9521 -31.9873 -23.1006 -68.251 -30.2861 -103.021
c-6.9502 -33.623 -12.5645 -67.5166 -17.2236 -101.528c-18.5859 -135.683 -23.2656 -273.564 -17.7324 -410.328c2.87305 -71.0049 8.31348 -142.16 19.5049 -212.375c9.1084 -57.1387 19.9971 -120.942 52.0664 -170.396z" />
    <glyph glyph-name="parenright" unicode=")" horiz-adv-x="142" 
d="M92.4893 625.926c19.6055 -138.866 24.4541 -280.171 18.625 -420.214c-3.02637 -72.6426 -8.68457 -145.474 -20.6162 -217.242c-9.45117 -56.8477 -20.7959 -120.884 -52.7109 -170.102c-10.0205 -15.4551 -60.7051 -8.64062 -50.4141 7.22656
c36.5391 56.3486 46.8506 130.815 55.8633 195.953c19.2598 139.191 21.6826 281.578 14.25 421.754c-3.53516 66.6855 -9.7334 133.299 -19.7217 199.34c-4.48145 29.626 -9.74414 59.1387 -16.0645 88.4277c-6.73535 31.209 -13.6572 63.4229 -27.9941 92.1689
c-9.03906 18.124 42.377 23.3408 50.4141 7.22656c16.0244 -32.1328 23.3848 -68.8086 30.7852 -103.716c7.07812 -33.3818 12.8145 -67.04 17.584 -100.823z" />
    <glyph glyph-name="asterisk" unicode="*" horiz-adv-x="210" 
d="M188.971 650.31c4.28125 -10.5146 -10.3809 -15.6914 -18.2607 -16.7256c-12.0625 -1.58008 -24.1396 -2.80273 -36.2285 -3.73828c8.68457 -28.1562 17.7002 -56.2109 27.1084 -84.1465c6.80566 -20.21 -44.8545 -23.7363 -50.4141 -7.22656
c-2.39355 7.11328 -4.75195 14.2354 -7.09863 21.3633c-2.21582 -6.06445 -4.43164 -12.1318 -6.68555 -18.1816c-6.19824 -16.6426 -57.7305 -12.416 -50.4141 7.22754c9.76758 26.2256 19.1641 52.5781 28.2441 79.0381
c-9.68652 0.136719 -19.3789 0.467773 -29.0771 1.05176c-7.18848 0.432617 -26.4512 2.29395 -26.1406 13.5928c0.295898 10.7471 18.04 14.0811 26.1406 13.5928c9.37891 -0.563477 18.7344 -0.915039 28.0752 -1.05176
c-8.64941 29.0166 -16.959 58.1318 -24.9062 87.3604c-5.68457 20.9043 45.9346 23.6953 50.4131 7.22656c2.30078 -8.45801 4.62988 -16.9102 6.98828 -25.3506c2.30078 7.41504 4.58984 14.833 6.84375 22.2627c5.05664 16.666 56.6182 13.2188 50.4141 -7.22656
c-8.29785 -27.332 -16.9297 -54.5537 -25.8818 -81.665c6.23926 0.604492 12.4814 1.27539 18.7236 2.0918c8.49023 1.10938 27.9766 0.772461 32.1562 -9.49512z" />
    <glyph glyph-name="plus" unicode="+" horiz-adv-x="183" 
d="M144.048 284.874c7.16797 -1.25488 23.0762 -6.0498 18.2607 -16.7207c-4.54883 -10.085 -23.0391 -11.0928 -32.1562 -9.49512c-4.42969 0.775391 -8.83301 1.36523 -13.2275 1.8623c0.220703 -62.8047 0.0410156 -125.612 -0.578125 -188.42
c-0.185547 -18.9932 -52.4648 -18.7139 -52.2822 0c0.613281 62.2852 0.795898 124.57 0.581055 186.855c-2.26562 -0.417969 -4.53418 -0.835938 -6.81152 -1.35254c-10.4131 -2.36426 -27.3906 -3.91797 -35.7676 4.87695
c-7.67676 8.06055 0.40625 16.5596 9.37793 18.5986c11.0371 2.50684 22.0537 4.42676 33.0762 5.73926c-0.333984 62.0322 -1.06055 124.062 -2.20801 186.088c-0.348633 18.7842 51.9336 18.915 52.2822 0.000976562c1.13867 -61.5674 1.85938 -123.138 2.19922 -184.711
c9.05078 -0.635742 18.1309 -1.72461 27.2539 -3.32227z" />
    <glyph glyph-name="comma" unicode="," horiz-adv-x="87" 
d="M18.9961 71.9131c2.8584 19.5537 54.8203 17.3662 52.2822 0c-9.96582 -68.1758 -19.9346 -136.352 -29.9033 -204.527c-2.8584 -19.5537 -54.8203 -17.3662 -52.2822 0c9.96582 68.1758 19.9346 136.352 29.9033 204.527z" />
    <glyph glyph-name="hyphen" unicode="-" horiz-adv-x="173" 
d="M131.241 374.021c7.18848 -0.40332 26.4512 -2.31543 26.1377 -13.5938c-0.295898 -10.7676 -18.0371 -14.0498 -26.1406 -13.5938c-27.8193 1.55957 -55.5811 1.32422 -83.3369 -1.19727c-8.59766 -0.78125 -27.8809 -1.00781 -32.1562 9.49512
c-4.2002 10.3174 10.2988 15.999 18.2568 16.7227c32.418 2.94824 64.7256 3.99121 97.2393 2.16699z" />
    <glyph glyph-name="period" unicode="." horiz-adv-x="47" 
d="M-3.13965 24.833c1.3125 19.3213 53.5195 18.2158 52.2822 0.000976562c-1.37402 -20.1982 -2.31543 -40.4141 -2.85547 -60.6533c-0.508789 -19.1006 -52.7764 -18.584 -52.2822 -0.000976562c0.537109 20.2393 1.48145 40.4551 2.85547 60.6533z" />
    <glyph glyph-name="slash" unicode="/" horiz-adv-x="163" 
d="M88.2471 722.237c1.69922 19.4023 53.8594 18.0195 52.2822 0c-4.71094 -53.749 -9.35254 -107.503 -13.9795 -161.26c-16.707 -194.11 -34.0039 -388.151 -53.2266 -582.032c-1.92871 -19.4434 -54.0566 -17.8984 -52.2822 -0.000976562
c6.22168 62.7559 12.3125 125.523 18.2178 188.311c17.3867 184.9 32.7783 369.978 48.9883 554.982z" />
    <glyph glyph-name="zero" unicode="0" horiz-adv-x="259" 
d="M79.9346 678.445c15.917 26.0215 46.7285 35.7109 75.3584 22.6318c30.9482 -14.1396 41.6484 -54.1875 49.4414 -84.1621c12.5186 -48.1543 18.6299 -97.9473 22.7256 -147.452c4.75488 -57.4609 5.6582 -115.168 3.74121 -172.782
c-2.28027 -68.5127 -7.99902 -137.655 -23.8516 -204.492c-7.34277 -29.7109 -15.6465 -71.3418 -43.7803 -88.8906c-26.9922 -16.8379 -61.8174 -8.19727 -80.7578 16.0117c-20.3438 26.002 -29.002 60.5488 -36.1934 92.1562
c-8.3623 36.7539 -13.1719 74.3389 -15.8848 111.906c-5.08594 70.4502 -4.73145 141.801 -0.417969 212.288c3.15723 51.5938 8.67578 103.35 19.6553 153.915c6.48633 29.873 13.8086 62.4561 29.9639 88.8701zM139.992 682.544
c-0.453125 -0.665039 -1.30664 -1.19141 -2.07031 -1.74023c0.740234 0.307617 1.4375 0.810547 2.07031 1.74023zM175.332 467.659c-3.57812 43.9746 -8.81055 88.0898 -18.4824 131.179c-5.38477 23.9941 -12.1816 51.7412 -26.8379 71.7305
c-1.96973 -3.29102 -3.77344 -6.68066 -5.42871 -10.1367c-12.9248 -26.998 -19.8203 -56.9414 -25.4697 -86.1729c-20.8086 -107.643 -22.708 -219.767 -17.4219 -328.942c2.8291 -58.4805 9.12598 -119.79 29.0771 -175.221
c4.62988 -12.8584 10.082 -25.7139 17.7148 -37.1113c0.729492 -1.08594 1.48438 -2.14355 2.2627 -3.18066c2.28027 2.92773 4.4209 5.75977 5.16406 7.15723c2.3584 4.42969 4.37988 9.04785 6.25293 13.6982c5.42285 13.4512 9.43066 27.4629 12.9072 41.5264
c15.6465 65.9619 21.3975 134.163 23.7617 201.775c2.02441 57.9111 1.20215 115.933 -3.5 173.698z" />
    <glyph glyph-name="one" unicode="1" horiz-adv-x="161" 
d="M130.443 697.549c-0.429688 -53.0801 -0.766602 -106.165 -0.978516 -159.248c-0.726562 -178.867 -0.0527344 -357.737 1.80371 -536.6c0.194336 -18.8477 -52.0879 -18.8594 -52.2822 0c-0.522461 50.3096 -0.963867 100.619 -1.29785 150.932
c-1.06055 159.154 -0.967773 318.312 0.0429688 477.466c-3.07324 -4.16211 -6.08496 -8.37402 -8.93457 -12.7188c-10.1045 -15.4053 -60.7539 -8.53613 -50.4141 7.22656c18.1123 27.6104 41.4971 50.9629 60.333 77.9404c4.96094 14.3486 43.6289 14.6533 50.6348 1.3916
c1.47559 -1.87305 2.05957 -4.01367 1.09277 -6.38965z" />
    <glyph glyph-name="two" unicode="2" horiz-adv-x="219" 
d="M40.2236 649.28c5.82031 20.0381 14.6387 41.7285 31.1572 55.4404c30.666 25.4668 76.0586 15.0859 97.1133 -16.6807c33.46 -50.4814 26.457 -124.42 19.2041 -180.884c-11.0371 -85.9053 -33.042 -169.867 -55.7959 -253.277
c-11.3711 -41.6885 -22.9287 -83.334 -33.1406 -125.325c-8.85645 -36.4141 -22.0811 -76.8623 -21.4043 -115.252c25.5566 -0.232422 51.4619 0.0205078 74.5967 3.00098c8.49609 1.09473 27.9736 0.78418 32.1562 -9.49512
c4.27539 -10.5059 -10.375 -15.7051 -18.2578 -16.7217c-37.501 -4.83301 -76.1055 -4.12109 -113.855 -3.66211c-8.51367 0.104492 -24.916 2.45996 -26.1416 13.5928c-4.6416 42.1797 10.75 87.9346 20.6221 128.534c10.1895 41.8955 21.6045 83.4736 32.9639 125.061
c20.6426 75.5703 40.7451 151.478 52.5264 229.023c8.91699 58.6865 19.0977 129.468 -6.88965 185.465c-2.5332 5.45215 -7.36328 13.8086 -9.86426 16.7715c-0.769531 0.90918 -1.6123 1.75195 -2.45215 2.59766c-1.05469 -1.05469 -2.01367 -2.02734 -2.16211 -2.20703
c-11.8682 -14.4238 -18.1221 -34.5176 -22.3535 -52.3486c-7.7207 -32.5225 -9.89355 -66.2617 -10.4863 -99.5801c-0.339844 -19.0449 -52.6162 -18.6523 -52.2822 0.000976562c0.694336 39.002 3.81641 78.332 14.7461 115.946zM118.144 692.147
c1.7373 0.163086 2.62793 0.310547 0.588867 0.322266c-0.223633 -0.125 -0.415039 -0.229492 -0.588867 -0.322266z" />
    <glyph glyph-name="three" unicode="3" horiz-adv-x="211" 
d="M90.79 719.894c81.6582 10.5898 94.9414 -99.5537 91.9521 -156.852c-2.16992 -41.6631 -11.6182 -83.5928 -27.2969 -122.258c-8.24023 -20.3203 -19.2861 -42.7344 -36.0947 -58.0615c19.2979 -12.6494 31.6074 -35.2646 40.4229 -60.2471
c16.1895 -45.8916 22.4688 -94.9287 21.6006 -143.435c-0.847656 -47.2217 -6.42773 -97.0088 -23.9482 -141.222c-13.0068 -32.8184 -38.5322 -59.5547 -77.0723 -49.1045c-37.2939 10.1104 -49.0488 54.8057 -57.1377 87.6416
c-3.98535 16.1787 47.5068 19.3828 52.2822 0.000976562c4.35645 -17.6943 10.0605 -37.8428 20.665 -53.3535c21.9355 32.7256 27.2773 78.4551 30.7656 116.493c4.31934 47.1172 2.85547 94.9902 -7.65625 141.233c-4.87109 21.4355 -11.5693 43.0537 -21.9414 62.5225
c-3.53809 6.63672 -7.46191 13.3633 -12.707 18.8066c-1.10059 1.14453 -3.86328 2.95117 -5.32129 4.44727c-7.16309 0.238281 -14.6133 1.7168 -19.3652 6.55566c-5.81445 5.91992 -3.20605 13.0742 4.08691 16.4727c26.5244 12.3555 39.3418 51.8633 47.9248 77.1562
c13.7676 40.5732 20.5879 84.0254 18.6445 126.882c-1.40332 30.96 -6.77051 70.1396 -28.5342 94.3379c-0.40625 0.453125 -0.850586 0.879883 -1.30371 1.29492c-0.557617 -0.435547 -1.07129 -0.868164 -1.46875 -1.29785
c-11.9082 -12.8057 -18.4697 -31.7168 -22.7363 -48.3164c-5.00781 -19.4775 -56.3662 -15.8877 -52.2822 0c8.9834 34.9531 25.9658 75.042 66.5215 80.3018zM87.6543 12.4512c-0.485352 -0.569336 -0.882812 -1.26367 0 0zM105.474 12.3438
c0.540039 -0.554688 0.71582 -0.632812 0.486328 -0.179688c-0.160156 0.0664062 -0.326172 0.116211 -0.486328 0.179688zM84.2002 366.513c1.72852 -0.0869141 3.47656 -0.0263672 5.2627 0.304688c-1.64355 -0.130859 -3.41797 -0.244141 -5.2627 -0.304688z
M95.7764 693.603c-0.589844 0.322266 -1.17969 0.642578 -1.77246 0.964844c0.566406 -0.392578 1.16211 -0.700195 1.77246 -0.964844zM105.562 693.2c0.740234 0.151367 1.02539 1.7373 0.470703 0.688477c-0.12207 -0.232422 -0.288086 -0.458984 -0.470703 -0.688477z
" />
    <glyph glyph-name="four" unicode="4" horiz-adv-x="227" 
d="M194.95 699.477c-0.435547 -53.7256 -0.77832 -107.446 -0.999023 -161.169c-0.726562 -178.867 -0.0527344 -357.737 1.80371 -536.6c0.194336 -18.8477 -52.0879 -18.8594 -52.2822 0c-0.522461 50.3096 -0.963867 100.619 -1.29785 150.932
c-0.0810547 12.3643 -0.104492 24.7256 -0.173828 37.0898c-19.6953 -1.01074 -38.7051 -3.20996 -59.6436 -4.27637c-14.4355 -0.734375 -62.5693 -6.25293 -64.3154 16.0166c-0.473633 6.05859 3.06445 14.2578 4.4209 20.0645
c3.71191 15.8672 7.54297 31.709 11.3828 47.5449c11.7461 48.4307 23.71 96.8086 35.752 145.166c23.7334 95.3008 47.1123 190.779 73.0938 285.499c0.0605469 1.74902 0.563477 3.33203 1.43457 4.74902c3.44727 7.38379 16.8779 10.2822 29.0049 8.94043
c11.5195 -0.935547 21.8857 -5.60352 21.8193 -13.957zM56.5459 212.05c-1.75098 0.581055 -2.4043 0.744141 -0.257812 0.0175781c0.0205078 -0.00585938 0.0292969 -0.0117188 0.0498047 -0.0175781h0.208008zM103.126 213.9
c12.0801 0.810547 25.4102 2.10352 38.7539 2.88477c-0.444336 92.0801 -0.53418 184.16 -0.27832 276.237c-13.0156 -51.6836 -25.8916 -103.402 -38.6396 -155.152c-7.87695 -31.9736 -15.7217 -63.9551 -23.3867 -95.9805
c-2.34961 -9.81445 -4.70215 -19.6289 -6.93555 -29.4697c-0.0146484 -0.0527344 -0.0351562 -0.119141 -0.046875 -0.171875c10.1865 0.342773 20.3643 0.969727 30.5332 1.65234z" />
    <glyph glyph-name="five" unicode="5" horiz-adv-x="219" 
d="M110.59 40.9961c20.9678 40.5938 25.626 89.9111 28.4902 134.786c2.65137 41.5469 3.18262 83.3896 0.109375 124.928c-2.9248 39.5312 -6.00977 96.292 -37.501 124.913c-4.42676 4.02539 -10.5645 7.22656 -13.3271 8.26074
c-0.389648 0.145508 -0.697266 0.261719 -0.970703 0.363281c-1.0459 0.197266 -2.10938 0.397461 -3.15234 0.504883c-0.148438 0.0146484 -0.255859 0.0263672 -0.386719 0.0410156c-0.569336 0.0205078 -1.15625 0.0322266 -1.56836 0.0234375
c-0.0410156 -0.00585938 -0.0703125 -0.00878906 -0.117188 -0.0117188c-0.926758 -0.113281 -1.9375 -0.354492 -2.8584 -0.392578c-0.0751953 -0.00292969 -0.12207 -0.00292969 -0.191406 -0.00585938c-1.02246 -0.28125 -2.04785 -0.557617 -3.04688 -0.926758
c-8.3623 -3.08496 -40.3066 -3.64258 -39.334 11.7373c5.41113 85.5127 10.5146 171.136 18.2354 256.478c0.107422 3.88672 2.37891 6.7041 5.6084 8.74316c0.0117188 0.00878906 0.0263672 0.0175781 0.0380859 0.0263672
c0.261719 0.163086 0.514648 0.333984 0.788086 0.488281c6.71484 4.17676 17.5166 5.54492 26.9707 4.33398h65.3438c7.19727 0 26.4424 -2.60547 26.1406 -13.5938c-0.304688 -11.0781 -18.0049 -13.5938 -26.1406 -13.5938h-47.6484
c-6.56152 -75.1953 -11.2432 -150.589 -15.9863 -225.924c22.0518 -1.63281 43.8936 -10.0732 58.8545 -24.8281c19.0156 -18.7578 27.2529 -44.1787 33.0791 -69.5879c6.49414 -28.3193 9.26172 -57.4609 10.6035 -86.4395
c2.2832 -49.3711 1.13574 -99.8027 -5.33887 -148.857c-6.58789 -49.9316 -21.0264 -144.507 -90.4512 -136.792c-60.3418 6.7041 -68.4248 94.5664 -71.8086 141.185c-1.32715 18.3076 50.8877 19.208 52.2822 0c2.17578 -29.9404 6.37012 -60.624 17.8027 -88.5977
c2.16113 -5.29199 4.58105 -10.5176 7.49121 -15.4434c0.301758 -0.516602 0.807617 -1.15527 1.37988 -1.83789c2.38477 3.14258 4.70801 6.33496 6.61035 10.0205z" />
    <glyph glyph-name="six" unicode="6" horiz-adv-x="207" 
d="M27.043 167.894c-4.33105 99.2168 5.32227 200.017 20.1729 298.042c6.76172 44.6426 15.1875 89.0732 26.1289 132.889c9.88672 39.5889 19.6348 82.626 39.7949 118.407c8.99219 15.9629 60.0312 9.84277 50.4141 -7.22754
c-19.2773 -34.2129 -29.0801 -75.4434 -38.4707 -113.356c-10.0586 -40.6143 -17.9648 -81.7568 -24.416 -123.092c-6.72656 -43.0977 -12.1084 -86.5645 -15.916 -130.156c14.4297 3.16309 30.2539 1.69336 43.1592 -4.60645
c36.2773 -17.709 43.4658 -70.8682 48.584 -106.149c6.72656 -46.3887 7.15039 -94.1738 1.03027 -140.655c-4.29883 -32.6533 -11.1162 -82.9053 -46.4902 -96.5244c-37.1143 -14.2871 -66.6885 9.27734 -80.6475 42.0205
c-17.2793 40.5332 -21.4414 86.8438 -23.3438 130.409zM92.0283 303.479c-4.70508 -7.37793 -8.31641 -15.3184 -11.6191 -23.4014c-0.915039 -18.4873 -1.56543 -36.9775 -1.82129 -55.4502c-0.548828 -39.7666 0.517578 -79.8701 6.44238 -119.256
c2.81738 -18.7227 6.71777 -37.3701 13.5176 -55.0908c2.86426 -7.46191 6.6084 -13.8232 10.5908 -20.1523c1.99219 4.03711 3.62695 8.29199 5.09668 12.2803c5.3418 14.4912 8.18848 29.7949 10.3818 45.041c5.50098 38.25 6.21582 77.4531 2.93066 115.927
c-2.89844 33.9629 -7.06055 72.2852 -24.0488 102.62c-0.160156 0.287109 -1.8916 2.74121 -3.88379 5.39844c-3.13672 -3.09375 -6.5498 -6.29199 -7.58691 -7.91602z" />
    <glyph glyph-name="seven" unicode="7" horiz-adv-x="200" 
d="M129.037 706.064c12.9688 -0.211914 45.6885 2.34375 48.584 -15.4434c1.37402 -8.44629 -1.60938 -19.3242 -2.52148 -27.6982c-11.7373 -107.921 -25.7783 -215.615 -39.0664 -323.354c-13.8486 -112.284 -28.2783 -224.53 -40.75 -336.979
c-2.16113 -19.4775 -54.2539 -17.7695 -52.2812 0c5.33594 48.0967 11.2236 96.1318 17.0674 144.167c14.1543 116.318 28.665 232.59 42.8828 348.899c5.59375 45.7725 11.1904 91.5449 16.4883 137.353c1.60938 13.8984 3.21875 27.8027 4.62793 41.7217
c0.160156 1.57422 0.238281 3.20898 0.331055 4.84961c-26.751 1.04883 -54.6982 -1.67871 -81.252 -1.18457c-7.19727 0.133789 -26.4453 2.50977 -26.1406 13.5938c0.301758 10.9736 18.0137 13.7441 26.1406 13.5928c28.6357 -0.53418 57.2598 0.953125 85.8896 0.482422
zM125.482 688.521c0.148438 2.12598 -0.551758 1.64648 0 0z" />
    <glyph glyph-name="eight" unicode="8" horiz-adv-x="211" 
d="M36.0732 467.909c-11.1445 59.3955 -9.31836 122.102 7.26074 180.344c5.74219 20.1719 14.0752 43.2021 30.9248 56.9316c17.1836 14 44.8408 16.1934 64.3594 5.94336c19.0186 -9.99121 27.2324 -31.0322 32.3066 -50.6934
c6.76172 -26.208 9.16113 -53.6992 10.6543 -80.6592c5.7627 -104.044 -10.4473 -206.986 -19.3701 -310.315c-0.0957031 -1.10352 -0.37207 -2.13184 -0.775391 -3.10156c11.5137 -41.9297 18.583 -85.9277 19.0801 -128.346
c0.345703 -29.3994 -3.21484 -59.1328 -11.4346 -87.3965c-5.69824 -19.5996 -14.7402 -41.4131 -33.2832 -52.1426c-18.1299 -10.4912 -44.4717 -9.53027 -61.1934 3.27344c-14.6123 11.1885 -22.1064 30.2861 -27.5293 47.2344
c-18.0488 56.3975 -21.1768 117.837 -17.959 176.59c2.82031 51.4336 8.77148 109.771 33.4482 156.11c-1.66406 3.79297 -3.29102 7.59766 -4.85059 11.4375c-9.78516 24.0791 -16.8486 49.2529 -21.6387 74.79zM98.2002 17.3154c-2.6377 -0.772461 -1.61523 -1.04883 0 0z
M116.624 17.9199c2.75977 -2.4248 3.08496 -1.12695 0 0zM113.763 43.2998c10.918 27.8516 14.3311 59.3379 14.4883 89.0684c0.313477 59.1279 -12.6465 121.703 -33.4375 176.95c-0.676758 1.79785 -1.41113 3.56934 -2.11719 5.35547
c-1.44629 -6.91309 -2.71289 -13.8691 -3.875 -20.8252c-5.67285 -33.9688 -8.33594 -68.4717 -8.41699 -102.902c-0.0810547 -34.0674 2.46582 -68.2861 8.9082 -101.77c3.48535 -18.1182 7.83301 -41.4531 17.9238 -58.8809
c2.44238 4.08105 4.67578 8.28418 6.52637 13.0039zM104.041 691.049c-3.79883 9.37012 -0.950195 -3.56934 -0.360352 0.0849609c0.12207 -0.0380859 0.238281 -0.0498047 0.360352 -0.0849609zM98.8379 656.784c-20.9102 -56.4004 -21.7266 -122.939 -11.7842 -181.629
c4.64746 -27.4277 12.3125 -54.0215 23.083 -79.6719c1.25195 -2.9834 2.54785 -5.94629 3.85742 -8.90625c1.07129 -1.25195 1.73633 -2.6377 1.86133 -4.1543c1.4668 -3.25586 2.95117 -6.50293 4.45605 -9.74121c8.58594 82.7422 15.6406 165.745 5.33789 248.589
c-1.83887 14.7754 -3.83984 29.8271 -8.6123 43.9863c-1.7832 5.28906 -4.7832 10.0117 -7.56543 14.7256c-4.50195 -7.20312 -7.77832 -15.498 -10.6338 -23.1982z" />
    <glyph glyph-name="nine" unicode="9" horiz-adv-x="218" 
d="M181.53 722.368c4.14746 -71.1318 6.64648 -142.343 7.34668 -213.594c1.20508 -124.916 1.81836 -252.513 -14.7988 -376.534c-3.61914 -27.0098 -8.49316 -53.9756 -16.1406 -80.1602c-5.07715 -17.3867 -11.5488 -37.9189 -26.0283 -49.9785
c-19.792 -16.4834 -53.1885 -13.5615 -71.0488 4.32129c-18.1299 18.1562 -26.8955 45.3281 -35.1992 68.9189c-7.05176 20.0322 44.6055 23.7266 50.415 7.22559c4.88281 -13.8662 9.97461 -27.7324 16.4922 -40.9307c1.58301 -3.20703 3.24707 -6.41113 5.04785 -9.52441
c0.429688 0.932617 0.885742 1.85645 1.29785 2.79199c4.74316 10.7705 8.19336 22.1504 11.0977 33.5361c13.0127 51.0127 17.1953 104.438 20.4336 156.828c2.9834 48.2734 4.45605 96.6572 5.37402 145.021c-7.55762 -10.9414 -17.9678 -18.9873 -32.8682 -21.3516
c-14.918 -2.36719 -32.7285 0.0869141 -44.3848 10.4326c-13.5586 12.0361 -18.9258 31.5254 -23.1982 48.4062c-11.8682 46.876 -11.1943 97.4932 -6.63672 145.316c3.89453 40.8613 10.1104 83.1777 25.6152 121.472c8.10645 20.0234 19.9717 40.3496 39.3652 51.2246
c14.125 7.9209 29.4316 9.96582 43.3906 7.18359c14.3945 6.89844 43.5967 3.65723 44.4277 -10.6045zM119.961 707.271c0.665039 -0.0986328 0.984375 0.189453 -0.720703 0.282227c0.194336 -0.130859 0.40918 -0.223633 0.609375 -0.267578
c0.0527344 -0.00585938 0.09375 -0.0117188 0.0966797 -0.0117188c0.00585938 -0.00292969 0.00878906 -0.00292969 0.0146484 -0.00292969zM119.069 707.564c-3.03809 0.116211 -0.6875 -0.129883 0.398438 -0.237305
c-0.0898438 0.0751953 -0.179688 0.150391 -0.269531 0.228516c-0.0498047 0.00292969 -0.0761719 0.00585938 -0.128906 0.00878906zM80.457 372.137c0.200195 0.40625 0.652344 0.811523 1.15527 1.21191c-0.519531 -0.336914 -0.919922 -0.732422 -1.15527 -1.21191z
M118.599 532.231c4.87988 52.0723 7.01562 104.363 11.9531 156.422c-0.40332 1.70801 -3.07812 8.2168 -5.80273 12.8379c-0.176758 -0.173828 -0.362305 -0.339844 -0.539062 -0.519531c-3.06152 -3.12207 -4.50781 -5.17871 -7.26172 -9.4541
c-14.0488 -21.8193 -21.3018 -48.0391 -26.4834 -73.1982c-8.64648 -41.9736 -12.6084 -85.2363 -12.0127 -128.069c0.444336 -31.9561 1.49609 -68.6953 14.5234 -99.0186c7.77246 17.8164 11.5654 37.5146 14.9023 56.4902
c4.91992 27.9707 8.07129 56.2461 10.7207 84.5098z" />
    <glyph glyph-name="colon" unicode=":" horiz-adv-x="97" 
d="M72.7656 381.186c-0.589844 -19.126 -52.8535 -18.5488 -52.2812 0c0.828125 26.8262 2.17285 53.6172 4.06641 80.3887c1.36816 19.333 53.5684 18.1885 52.2812 0c-1.89355 -26.7715 -3.23828 -53.5654 -4.06641 -80.3887zM22.3145 -1.08203
c1.34766 19.3301 53.5518 18.2002 52.2822 0c-2.07129 -29.7109 -4.48828 -59.3955 -7.27344 -89.0479c-1.82422 -19.4258 -53.9697 -17.9531 -52.2822 0c2.78516 29.6523 5.20215 59.3369 7.27344 89.0479z" />
    <glyph glyph-name="semicolon" unicode=";" horiz-adv-x="112" 
d="M39.457 464.053c1.75098 19.4141 53.9053 17.9912 52.2812 0c-2.0127 -22.3125 -4.02832 -44.6279 -6.04395 -66.9404c-1.75391 -19.4111 -53.9053 -17.9912 -52.2812 0c2.01562 22.3154 4.02832 44.6279 6.04395 66.9404zM23.0723 32.3242
c1.49902 19.3613 53.6855 18.1211 52.2822 0c-5.68457 -73.4004 -12.0166 -146.749 -19.0342 -220.033c-1.85938 -19.4316 -53.999 -17.9355 -52.2822 0c7.01758 73.2842 13.3525 146.633 19.0342 220.033z" />
    <glyph glyph-name="less" unicode="&#x3c;" horiz-adv-x="211" 
d="M122.463 241.48c21.1855 -22.5303 42.5488 -44.8896 63.3105 -67.8125c16.5498 -18.2666 -33.7129 -26.3379 -45.1426 -13.7207c-26.2627 28.9902 -53.502 57.0684 -80.0869 85.7598c-10.8281 11.6846 -22.377 23.2334 -31.5811 36.2949
c-4.17383 5.92285 -10.7646 14.3262 -9.88184 21.7441c0.929688 7.81934 8.02832 17.3574 11.5254 24.4385c32.8906 66.5635 68.4658 131.8 107.506 194.962c9.66895 15.6465 60.4873 9.07031 50.4141 -7.22754c-42.7344 -69.1426 -81.2139 -140.78 -116.736 -213.87
c12.4258 -23.1494 32.8359 -41.6045 50.6729 -60.5684z" />
    <glyph glyph-name="equal" unicode="=" 
d="M51.9473 393.435c-8.35352 -1.48145 -28.0869 -0.504883 -32.1562 9.49512c-4.37109 10.7412 10.4824 15.3447 18.2578 16.7217c48.9531 8.66992 98.1006 10.2646 147.513 4.78125c7.32812 -0.813477 22.9375 -6.34668 18.2578 -16.7217
c-4.71387 -10.4531 -22.8438 -10.5283 -32.1553 -9.49414c-40.2539 4.4668 -79.9043 2.26758 -119.717 -4.78223zM185.562 335.101c7.32812 -0.813477 22.9375 -6.34863 18.2578 -16.7207c-4.71387 -10.4531 -22.8438 -10.5283 -32.1553 -9.49414
c-40.2539 4.4668 -79.9043 2.26758 -119.717 -4.78223c-8.35645 -1.47852 -28.0869 -0.50293 -32.1562 9.49414c-4.37109 10.7412 10.4824 15.3447 18.2578 16.7217c48.9531 8.66992 98.1006 10.2676 147.513 4.78125z" />
    <glyph glyph-name="greater" unicode="&#x3e;" horiz-adv-x="212" 
d="M180.251 328.184c3.5498 -7.18262 11.7656 -18.0918 11.9893 -26.2363c0.173828 -6.2334 -6.90137 -15.0811 -10.3486 -19.9375c-9.77344 -13.7734 -21.9697 -25.9463 -33.4277 -38.291c-25.9961 -28.0029 -52.5869 -55.4482 -78.2402 -83.7676
c-11.5605 -12.7627 -61.5996 -4.44727 -45.1426 13.7207c20.7617 22.9199 42.1279 45.2822 63.3135 67.8096c17.8252 18.9551 38.2529 37.4307 50.6729 60.5684c-35.5225 73.0898 -73.999 144.728 -116.736 213.87c-10.166 16.4453 40.8408 22.7129 50.4141 7.22559
c39.04 -63.165 74.6182 -128.398 107.506 -194.962z" />
    <glyph glyph-name="question" unicode="?" horiz-adv-x="186" 
d="M155.389 691.641c12.7305 -53.6963 4.89258 -112.027 -1.57324 -166.052c-14.0381 -117.263 -36.208 -233.282 -36.2656 -351.813c-0.00878906 -18.9258 -52.291 -18.7832 -52.2822 0c0.0292969 57.458 4.7002 114.715 11.7383 171.708
c6.07617 49.1855 13.8164 98.1445 20.3604 147.267c6.56738 49.29 13.3955 99.376 11.6006 149.209c-0.650391 18.0664 -1.29492 38.7119 -7.78613 56.2471c-19.2139 -32.165 -24.8545 -73.4414 -28.8486 -109.713c-2.14355 -19.4746 -54.2393 -17.7812 -52.2812 0
c3.24121 29.4404 8.41699 58.9014 17.8682 87.0439c5.96582 17.7588 13.9795 36.9932 28.2412 49.8105c14.1572 12.7246 35.5869 16.2393 53.6475 11.165c21.6797 -6.08789 30.6982 -24.2822 35.5811 -44.8721zM112.575 713.008
c0.638672 0.107422 0.996094 0.237305 0.874023 0.397461c-0.110352 0.142578 -0.429688 -0.03125 -0.874023 -0.397461zM92.9023 5.82617c8.36523 0 25.5312 -2.5 26.1416 -13.5928c0.850586 -15.5078 1.29785 -31.0234 1.36426 -46.5537
c0.078125 -18.8945 -52.2041 -18.8193 -52.2822 -0.000976562c-0.0634766 15.5303 -0.513672 31.0459 -1.36426 46.5537c-0.604492 10.9971 18.9434 13.5938 26.1406 13.5938z" />
    <glyph glyph-name="at" unicode="@" horiz-adv-x="312" 
d="M275.938 611.395c12.5938 -73.0811 11.6064 -149.03 5.16992 -222.692c-3.00293 -34.3545 -7.15332 -69.3545 -17.2119 -102.464c-4.11914 -13.5586 -9.63184 -29.1621 -22.4844 -36.8008c-12.5596 -7.46484 -31.8164 -7.98438 -44.7158 -0.894531
c-2.4834 1.36523 -4.60352 3.02637 -6.45996 4.89648c-0.0439453 -0.157227 -0.0849609 -0.314453 -0.128906 -0.47168c-7.6416 -27.1631 -16.875 -59.2666 -50.8291 -59.2666c-35.0088 0 -41.5996 29.501 -45.1377 58.3838
c-7.33984 59.9385 -4.58887 124.277 5.3418 183.769c3.77637 22.6123 8.05469 50.2256 21.1543 69.6367c12.1406 17.9883 38.0693 22.6064 57.2129 13.0332c14.293 -7.14844 20.6709 -23.0918 25.3965 -37.4053c2.32031 -7.03809 4.31836 -14.1895 6.09277 -21.4014
c6.24805 -2.29492 10.6543 -6.19238 10.6279 -11.7051c-0.176758 -37.2334 -0.432617 -74.5479 2.30664 -111.706c0.0869141 -1.21387 0.182617 -2.43359 0.275391 -3.65039c1.85645 12.5654 3.12598 25.1475 4.42676 37.1406
c3.78418 34.8867 5.64844 70.0312 6.01758 105.115c0.632812 60.2578 -2.34473 122.633 -19.3047 180.811c-5.90234 20.248 -13.4336 40.4697 -24.6484 58.4316c-3.92969 6.28809 -8.2666 12.1934 -13.7471 17.2236c-2.00684 1.8418 -4.83594 3.97949 -5.27148 4.2666
c-0.0986328 0.0664062 -0.200195 0.147461 -0.304688 0.231445c-0.5 -0.458984 -1.06641 -0.961914 -1.65332 -1.42676c-4.35938 -3.44727 -8.44629 -7.01074 -12.1143 -11.208c-7.90039 -9.03906 -13.9307 -19.8525 -19.2842 -30.541
c-10.9121 -21.793 -18.7598 -45.1016 -25.3154 -68.5293c-16.5557 -59.1709 -24.0664 -120.974 -28.3125 -182.135c-4.56641 -65.7207 -5.1123 -131.947 -0.848633 -197.697c3.88379 -59.8975 11.4004 -120.829 30.5322 -177.973
c6.5 -19.417 14.29 -38.9121 25.6406 -56.0605c3.79883 -5.73926 8.07715 -11.2285 13.459 -15.582c2.12012 1.71973 4.26953 3.70898 6.18359 5.68945c5.71289 5.91113 10.1826 12.9229 14.2637 20.0273c13.6865 23.8262 22.377 50.5742 29.0869 77.0928
c4.93164 19.4863 56.3164 15.9453 52.2822 -0.000976562c-12.585 -49.7373 -34.3926 -128.834 -97.5166 -132.183c-56.6904 -3.00586 -81.2656 54.1934 -95.7646 99.7598c-21.8193 68.5732 -29.4209 141.248 -32.1719 212.862
c-2.99414 78.0127 -0.447266 156.688 9.34961 234.173c7.99316 63.209 19.9277 130.286 48.7178 187.787c12.7627 25.4932 31.2559 51.4336 59.668 60.4023c24.0176 7.58105 51.3613 3.44238 71.1328 -12.3174c38.3545 -30.5762 51.0674 -91.252 58.8867 -136.621z
M168.154 737.128c0.0810547 -0.00878906 0.163086 -0.0205078 0.244141 -0.0292969c-0.276367 0.261719 -0.404297 0.348633 -0.244141 0.0292969zM170.815 736.8c0.754883 0.882812 0.553711 0.662109 -0.111328 0.0146484
c0.0380859 -0.00585938 0.0761719 -0.00878906 0.111328 -0.0146484zM141.061 499.301c-0.206055 0.604492 -0.182617 -0.663086 0.383789 -0.796875c-0.130859 0.264648 -0.296875 0.535156 -0.383789 0.796875zM153.788 327.517
c4.84766 29.8301 8.41309 59.8604 11.251 89.9482v0.00292969c-2.05078 14.3369 -4.26953 29.583 -8.09473 44.2275c-1.28711 -5.44629 -2.39941 -10.8984 -3.43652 -16.2021c-7.42383 -37.9277 -9.62305 -77.0928 -10.1777 -115.668
c-0.24707 -17.1807 -0.0439453 -34.3955 0.916992 -51.5586c3.79004 16.2891 6.86035 32.752 9.54102 49.25z" />
    <glyph glyph-name="A" unicode="A" horiz-adv-x="309" 
d="M13.084 -1.96973c7.79297 53.8389 16.5908 107.527 25.5371 161.183c28.6709 171.949 59.291 343.594 90.6836 515.069c3.4502 18.8477 49.1621 19.0713 52.2812 0c3.50586 -21.4326 7.02344 -42.8594 10.5439 -64.2891
c16.835 -102.49 33.7598 -204.966 50.8447 -307.415c16.8291 -100.912 33.5273 -201.862 51.5039 -302.577c3.05273 -17.0986 -48.8105 -19.4512 -52.2812 0.000976562c-9.11133 51.0449 -17.79 102.168 -26.4424 153.294
c-8.40039 49.6357 -16.707 99.2861 -24.9883 148.942c-25.4121 0.214844 -50.8213 0.0693359 -76.2334 -0.0292969c-17.6768 -101.206 -34.4619 -202.563 -49.168 -304.179c-2.8291 -19.5508 -54.7969 -17.3838 -52.2812 0zM154.149 523.214
c-11.7373 -64.5654 -23.4453 -129.157 -34.8369 -193.807c22.3008 0.0957031 44.5986 0.197266 66.8994 0.0488281c-9.17285 55.125 -18.2988 110.259 -27.3984 165.396c-1.5625 9.45117 -3.10449 18.9082 -4.66406 28.3623z" />
    <glyph glyph-name="A" unicode="&#xc5;" horiz-adv-x="309" 
d="M13.084 -1.96973c7.79297 53.8389 16.5908 107.527 25.5371 161.183c28.6709 171.949 59.291 343.594 90.6836 515.069c3.4502 18.8477 49.1621 19.0713 52.2812 0c3.50586 -21.4326 7.02344 -42.8594 10.5439 -64.2891
c16.835 -102.49 33.7598 -204.966 50.8447 -307.415c16.8291 -100.912 33.5273 -201.862 51.5039 -302.577c3.05273 -17.0986 -48.8105 -19.4512 -52.2812 0.000976562c-9.11133 51.0449 -17.79 102.168 -26.4424 153.294
c-8.40039 49.6357 -16.707 99.2861 -24.9883 148.942c-25.4121 0.214844 -50.8213 0.0693359 -76.2334 -0.0292969c-17.6768 -101.206 -34.4619 -202.563 -49.168 -304.179c-2.8291 -19.5508 -54.7969 -17.3838 -52.2812 0zM154.149 523.214
c-11.7373 -64.5654 -23.4453 -129.157 -34.8369 -193.807c22.3008 0.0957031 44.5986 0.197266 66.8994 0.0488281c-9.17285 55.125 -18.2988 110.259 -27.3984 165.396c-1.5625 9.45117 -3.10449 18.9082 -4.66406 28.3623z" />
    <glyph glyph-name="A" unicode="&#xc4;" horiz-adv-x="309" 
d="M13.084 -1.96973c7.79297 53.8389 16.5908 107.527 25.5371 161.183c28.6709 171.949 59.291 343.594 90.6836 515.069c3.4502 18.8477 49.1621 19.0713 52.2812 0c3.50586 -21.4326 7.02344 -42.8594 10.5439 -64.2891
c16.835 -102.49 33.7598 -204.966 50.8447 -307.415c16.8291 -100.912 33.5273 -201.862 51.5039 -302.577c3.05273 -17.0986 -48.8105 -19.4512 -52.2812 0.000976562c-9.11133 51.0449 -17.79 102.168 -26.4424 153.294
c-8.40039 49.6357 -16.707 99.2861 -24.9883 148.942c-25.4121 0.214844 -50.8213 0.0693359 -76.2334 -0.0292969c-17.6768 -101.206 -34.4619 -202.563 -49.168 -304.179c-2.8291 -19.5508 -54.7969 -17.3838 -52.2812 0zM154.149 523.214
c-11.7373 -64.5654 -23.4453 -129.157 -34.8369 -193.807c22.3008 0.0957031 44.5986 0.197266 66.8994 0.0488281c-9.17285 55.125 -18.2988 110.259 -27.3984 165.396c-1.5625 9.45117 -3.10449 18.9082 -4.66406 28.3623z" />
    <glyph glyph-name="A" unicode="&#xc3;" horiz-adv-x="309" 
d="M13.084 -1.96973c7.79297 53.8389 16.5908 107.527 25.5371 161.183c28.6709 171.949 59.291 343.594 90.6836 515.069c3.4502 18.8477 49.1621 19.0713 52.2812 0c3.50586 -21.4326 7.02344 -42.8594 10.5439 -64.2891
c16.835 -102.49 33.7598 -204.966 50.8447 -307.415c16.8291 -100.912 33.5273 -201.862 51.5039 -302.577c3.05273 -17.0986 -48.8105 -19.4512 -52.2812 0.000976562c-9.11133 51.0449 -17.79 102.168 -26.4424 153.294
c-8.40039 49.6357 -16.707 99.2861 -24.9883 148.942c-25.4121 0.214844 -50.8213 0.0693359 -76.2334 -0.0292969c-17.6768 -101.206 -34.4619 -202.563 -49.168 -304.179c-2.8291 -19.5508 -54.7969 -17.3838 -52.2812 0zM154.149 523.214
c-11.7373 -64.5654 -23.4453 -129.157 -34.8369 -193.807c22.3008 0.0957031 44.5986 0.197266 66.8994 0.0488281c-9.17285 55.125 -18.2988 110.259 -27.3984 165.396c-1.5625 9.45117 -3.10449 18.9082 -4.66406 28.3623z" />
    <glyph glyph-name="A" unicode="&#xc2;" horiz-adv-x="309" 
d="M13.084 -1.96973c7.79297 53.8389 16.5908 107.527 25.5371 161.183c28.6709 171.949 59.291 343.594 90.6836 515.069c3.4502 18.8477 49.1621 19.0713 52.2812 0c3.50586 -21.4326 7.02344 -42.8594 10.5439 -64.2891
c16.835 -102.49 33.7598 -204.966 50.8447 -307.415c16.8291 -100.912 33.5273 -201.862 51.5039 -302.577c3.05273 -17.0986 -48.8105 -19.4512 -52.2812 0.000976562c-9.11133 51.0449 -17.79 102.168 -26.4424 153.294
c-8.40039 49.6357 -16.707 99.2861 -24.9883 148.942c-25.4121 0.214844 -50.8213 0.0693359 -76.2334 -0.0292969c-17.6768 -101.206 -34.4619 -202.563 -49.168 -304.179c-2.8291 -19.5508 -54.7969 -17.3838 -52.2812 0zM154.149 523.214
c-11.7373 -64.5654 -23.4453 -129.157 -34.8369 -193.807c22.3008 0.0957031 44.5986 0.197266 66.8994 0.0488281c-9.17285 55.125 -18.2988 110.259 -27.3984 165.396c-1.5625 9.45117 -3.10449 18.9082 -4.66406 28.3623z" />
    <glyph glyph-name="A" unicode="&#xc1;" horiz-adv-x="309" 
d="M13.084 -1.96973c7.79297 53.8389 16.5908 107.527 25.5371 161.183c28.6709 171.949 59.291 343.594 90.6836 515.069c3.4502 18.8477 49.1621 19.0713 52.2812 0c3.50586 -21.4326 7.02344 -42.8594 10.5439 -64.2891
c16.835 -102.49 33.7598 -204.966 50.8447 -307.415c16.8291 -100.912 33.5273 -201.862 51.5039 -302.577c3.05273 -17.0986 -48.8105 -19.4512 -52.2812 0.000976562c-9.11133 51.0449 -17.79 102.168 -26.4424 153.294
c-8.40039 49.6357 -16.707 99.2861 -24.9883 148.942c-25.4121 0.214844 -50.8213 0.0693359 -76.2334 -0.0292969c-17.6768 -101.206 -34.4619 -202.563 -49.168 -304.179c-2.8291 -19.5508 -54.7969 -17.3838 -52.2812 0zM154.149 523.214
c-11.7373 -64.5654 -23.4453 -129.157 -34.8369 -193.807c22.3008 0.0957031 44.5986 0.197266 66.8994 0.0488281c-9.17285 55.125 -18.2988 110.259 -27.3984 165.396c-1.5625 9.45117 -3.10449 18.9082 -4.66406 28.3623z" />
    <glyph glyph-name="B" unicode="B" horiz-adv-x="241" 
d="M31.042 687.328c0.0722656 7.13672 7.49707 11.5518 16.7246 13.292c34.4482 12.4434 75.5332 8.46387 106.745 -10.5352c37.7412 -22.9717 52.708 -60.7715 59.3887 -102.73c7.27344 -45.6738 8.5918 -93.0264 -0.310547 -138.575
c-7.55176 -38.6338 -22.0771 -75.7627 -48.7236 -105.281c-10.6221 -11.7637 -23.0566 -21.3633 -36.627 -28.959c6.41016 -2.55859 12.6348 -5.87598 18.5889 -10.2383c28.4473 -20.8428 40.2656 -58.5322 48.5352 -91.293
c9.66309 -38.2852 12.2334 -78.3682 4.05664 -117.188c-8.21973 -39.0342 -25.833 -87.5078 -62.5664 -108.165c-28.5957 -16.082 -66.1572 -15.002 -94.668 0.804688c-4.83008 1.55957 -8.7334 3.99609 -10.6533 7.31641
c-1.49023 1.83008 -1.80078 3.71777 -1.30664 5.54199c-1.88184 228.669 -1.59473 457.344 0.816406 686.01zM149.821 178.356c-4.33984 33.0859 -13.7764 73.7568 -35.25 100.24c-6.9707 8.60059 -16.8809 14.9648 -24.2959 16.2861
c-1.87012 0.333984 -1.97168 0.432617 -1.97168 0.447266c-0.00878906 -0.0117188 -0.226562 -0.101562 -3.02051 -0.0576172c-1.32715 0.0205078 -2.6543 0.00292969 -3.98145 -0.0234375c0.0117188 -96.6748 0.389648 -193.353 1.17676 -290.027
c5.97461 -3.11621 10.6426 -2.25977 17.4072 1.6582c17.4971 10.1338 27.5791 33.5039 35.1689 51.2715c16.1846 37.8838 20.0996 79.5527 14.7666 120.205zM94.4111 680.058c-4.85059 0.775391 -7.82422 1.07715 -11.1553 0.391602
c-1.21387 -117.169 -1.86133 -234.341 -1.9541 -351.516c18.1797 8.04297 33.8789 20.9102 46.1016 37.8232c42.209 58.4072 45.1719 138.419 36.1533 207.277c-4.53711 34.6221 -12.0625 71.0068 -41.335 93.4707c-8.3418 6.40137 -20.1543 11.3301 -27.8105 12.5527z" />
    <glyph glyph-name="C" unicode="C" 
d="M111.468 632.623c-19.7188 -51.0186 -27.459 -107.4 -32.6436 -161.585c-8.13574 -85.0537 -9.7334 -171.142 -3.19531 -256.361c3.19531 -41.6367 8.13574 -83.4912 17.3545 -124.263c6.33789 -28.0264 15.0078 -53.0166 32.1592 -75.541
c3.42188 3.88965 8.33301 10.5029 10.9209 15.3447c16.1318 30.1641 19.9102 66.2998 22.4023 99.8301c1.4375 19.3496 53.6289 18.1533 52.2812 0c-2.93066 -39.4434 -7.55176 -87.2783 -32.5371 -119.911c-20.0557 -26.1934 -58.0996 -34.3467 -87.2588 -17.8955
c-29.04 16.3848 -39.4785 55.1514 -47.083 85.0244c-12.0449 47.3242 -17.6533 96.4316 -21.084 145.06c-6.65723 94.4238 -4.82129 191.058 7.85156 284.933c4.44141 32.8994 10.582 65.6162 19.2432 97.6768c7.06641 26.1641 15.6982 57.7715 36.3115 76.9121
c21.8916 20.3291 61.4199 19.0391 81.252 -3.4541c25.6699 -29.1094 30.0352 -76.7871 33.3115 -113.611c1.61523 -18.1445 -50.5674 -19.2744 -52.2812 0c-1.9668 22.1094 -4.73145 44.5059 -11.0723 65.8428c-2.41113 8.12109 -5.29199 16.1758 -9.11133 23.751
c-1.03418 2.05078 -2.31543 3.87793 -3.64258 5.65234c-5.63477 -8.33594 -9.62891 -18.2197 -13.1787 -27.4043z" />
    <glyph glyph-name="D" unicode="D" horiz-adv-x="246" 
d="M31.0439 -2.4082c-2.41406 228.756 -2.70215 457.52 -0.814453 686.284c-0.417969 1.74023 -0.0927734 3.52344 1.27832 5.24316c1.99219 3.50586 6.16895 6.02441 11.3184 7.57227c32.9932 17.4736 75.9688 13.0439 105.808 -9.34766
c21.4854 -16.1201 33.9082 -41.9033 42.7725 -66.5713c19.0771 -53.0889 26.6787 -110.529 31.041 -166.503c5.12109 -65.7041 4.80176 -132.023 -0.999023 -197.672c-4.93457 -55.8545 -13.1084 -113.295 -32.9375 -166.047
c-11.4502 -30.46 -27.0996 -63.4697 -51.3086 -85.9307c-22.9463 -21.2871 -53.8477 -26.8721 -83.5781 -21.0283c-11.7314 0.807617 -22.4902 5.4668 -22.5801 14zM122.298 653.182c-7.62695 11.8916 -25.3828 31.4766 -39.8213 26.1963
c-1.80957 -222.642 -1.55078 -445.283 0.714844 -667.917c1.79199 1.07129 3.51172 2.28223 5.2168 3.65039c12.6787 10.1602 21.5117 24.5547 29.2607 38.6006c13.6748 24.7783 24.0029 51.0293 31.3018 78.3408c27.8809 104.313 29.6064 218.837 20.9043 325.835
c-3.97656 48.9062 -10.335 98.7773 -25.4736 145.631c-5.55664 17.2012 -12.3066 34.3877 -22.1035 49.6631z" />
    <glyph glyph-name="E" unicode="E" horiz-adv-x="228" 
d="M108.852 690.305c21.2266 10.3516 52.3301 7.71387 68.874 -10.3145c14.1338 -15.3945 18.877 -37.9014 22.8965 -57.71c7.45898 -36.748 10.1865 -74.5186 12.6289 -111.868c4.06934 -62.2354 5.84961 -124.613 7.39746 -186.953
c0.00878906 -0.342773 -0.0380859 -0.665039 -0.0644531 -0.996094c0.0146484 -0.25 0.0722656 -0.485352 0.0634766 -0.74707c-0.307617 -11.1357 -18.002 -13.5088 -26.1406 -13.5928c-37.7041 -0.389648 -75.4111 -0.166016 -113.118 -0.0556641
c0.185547 -20.8633 0.769531 -41.7178 1.8584 -62.5459c3.01465 -57.6611 8.12988 -117.233 23.8291 -173.013c5.2627 -18.6904 11.7256 -40.4512 24.6973 -55.4561c0.482422 -0.557617 1.56543 -1.49902 2.66602 -2.46289c10.2119 9.78223 15.9453 24.2207 20.3135 37.3086
c8.37988 25.1006 11.3662 51.8809 13.3184 78.1494c1.4375 19.3496 53.6289 18.1533 52.2812 0c-3.2793 -44.1318 -8.79785 -115.474 -54.457 -138.916c-20.4189 -10.4824 -47.832 -9.79688 -67.2949 2.38184c-20.709 12.957 -31.0488 37.5762 -38.3301 59.8516
c-20.0469 61.3174 -25.9609 128.069 -29.3037 192.152c-3.56348 68.373 -2.20117 137.08 3.38672 205.308c3.8916 47.5156 10.2725 94.8564 21.9375 141.141c8.25195 32.7344 18.8301 81.8906 52.5605 98.3389zM137.728 10.9697c1.16504 -2.63184 2.40234 0.510742 0 0z
M128.86 10.1826c-0.831055 -0.610352 -0.412109 -1.20508 0 0zM161.093 508.557c-2.42578 37.6309 -5.15137 75.6709 -12.5459 112.716c-2.66895 13.3721 -5.97168 27.6826 -12.9336 39.8994c-20.4512 -27.5381 -27.6309 -68.3125 -34.1689 -100.785
c-8.64355 -42.9434 -13.3662 -86.4219 -16.3525 -130.101c-2.16113 -31.6191 -3.41895 -63.3223 -3.71191 -95.0312c28.8975 -0.0839844 57.7949 -0.206055 86.6924 -0.0986328c-1.46973 57.8262 -3.25879 115.673 -6.97949 173.4zM143.699 670.017
c1.16797 0.276367 0.862305 0.607422 0 0z" />
    <glyph glyph-name="E" unicode="&#xcb;" horiz-adv-x="228" 
d="M108.852 690.305c21.2266 10.3516 52.3301 7.71387 68.874 -10.3145c14.1338 -15.3945 18.877 -37.9014 22.8965 -57.71c7.45898 -36.748 10.1865 -74.5186 12.6289 -111.868c4.06934 -62.2354 5.84961 -124.613 7.39746 -186.953
c0.00878906 -0.342773 -0.0380859 -0.665039 -0.0644531 -0.996094c0.0146484 -0.25 0.0722656 -0.485352 0.0634766 -0.74707c-0.307617 -11.1357 -18.002 -13.5088 -26.1406 -13.5928c-37.7041 -0.389648 -75.4111 -0.166016 -113.118 -0.0556641
c0.185547 -20.8633 0.769531 -41.7178 1.8584 -62.5459c3.01465 -57.6611 8.12988 -117.233 23.8291 -173.013c5.2627 -18.6904 11.7256 -40.4512 24.6973 -55.4561c0.482422 -0.557617 1.56543 -1.49902 2.66602 -2.46289c10.2119 9.78223 15.9453 24.2207 20.3135 37.3086
c8.37988 25.1006 11.3662 51.8809 13.3184 78.1494c1.4375 19.3496 53.6289 18.1533 52.2812 0c-3.2793 -44.1318 -8.79785 -115.474 -54.457 -138.916c-20.4189 -10.4824 -47.832 -9.79688 -67.2949 2.38184c-20.709 12.957 -31.0488 37.5762 -38.3301 59.8516
c-20.0469 61.3174 -25.9609 128.069 -29.3037 192.152c-3.56348 68.373 -2.20117 137.08 3.38672 205.308c3.8916 47.5156 10.2725 94.8564 21.9375 141.141c8.25195 32.7344 18.8301 81.8906 52.5605 98.3389zM137.728 10.9697c1.16504 -2.63184 2.40234 0.510742 0 0z
M128.86 10.1826c-0.831055 -0.610352 -0.412109 -1.20508 0 0zM161.093 508.557c-2.42578 37.6309 -5.15137 75.6709 -12.5459 112.716c-2.66895 13.3721 -5.97168 27.6826 -12.9336 39.8994c-20.4512 -27.5381 -27.6309 -68.3125 -34.1689 -100.785
c-8.64355 -42.9434 -13.3662 -86.4219 -16.3525 -130.101c-2.16113 -31.6191 -3.41895 -63.3223 -3.71191 -95.0312c28.8975 -0.0839844 57.7949 -0.206055 86.6924 -0.0986328c-1.46973 57.8262 -3.25879 115.673 -6.97949 173.4zM143.699 670.017
c1.16797 0.276367 0.862305 0.607422 0 0z" />
    <glyph glyph-name="E" unicode="&#xca;" horiz-adv-x="228" 
d="M108.852 690.305c21.2266 10.3516 52.3301 7.71387 68.874 -10.3145c14.1338 -15.3945 18.877 -37.9014 22.8965 -57.71c7.45898 -36.748 10.1865 -74.5186 12.6289 -111.868c4.06934 -62.2354 5.84961 -124.613 7.39746 -186.953
c0.00878906 -0.342773 -0.0380859 -0.665039 -0.0644531 -0.996094c0.0146484 -0.25 0.0722656 -0.485352 0.0634766 -0.74707c-0.307617 -11.1357 -18.002 -13.5088 -26.1406 -13.5928c-37.7041 -0.389648 -75.4111 -0.166016 -113.118 -0.0556641
c0.185547 -20.8633 0.769531 -41.7178 1.8584 -62.5459c3.01465 -57.6611 8.12988 -117.233 23.8291 -173.013c5.2627 -18.6904 11.7256 -40.4512 24.6973 -55.4561c0.482422 -0.557617 1.56543 -1.49902 2.66602 -2.46289c10.2119 9.78223 15.9453 24.2207 20.3135 37.3086
c8.37988 25.1006 11.3662 51.8809 13.3184 78.1494c1.4375 19.3496 53.6289 18.1533 52.2812 0c-3.2793 -44.1318 -8.79785 -115.474 -54.457 -138.916c-20.4189 -10.4824 -47.832 -9.79688 -67.2949 2.38184c-20.709 12.957 -31.0488 37.5762 -38.3301 59.8516
c-20.0469 61.3174 -25.9609 128.069 -29.3037 192.152c-3.56348 68.373 -2.20117 137.08 3.38672 205.308c3.8916 47.5156 10.2725 94.8564 21.9375 141.141c8.25195 32.7344 18.8301 81.8906 52.5605 98.3389zM137.728 10.9697c1.16504 -2.63184 2.40234 0.510742 0 0z
M128.86 10.1826c-0.831055 -0.610352 -0.412109 -1.20508 0 0zM161.093 508.557c-2.42578 37.6309 -5.15137 75.6709 -12.5459 112.716c-2.66895 13.3721 -5.97168 27.6826 -12.9336 39.8994c-20.4512 -27.5381 -27.6309 -68.3125 -34.1689 -100.785
c-8.64355 -42.9434 -13.3662 -86.4219 -16.3525 -130.101c-2.16113 -31.6191 -3.41895 -63.3223 -3.71191 -95.0312c28.8975 -0.0839844 57.7949 -0.206055 86.6924 -0.0986328c-1.46973 57.8262 -3.25879 115.673 -6.97949 173.4zM143.699 670.017
c1.16797 0.276367 0.862305 0.607422 0 0z" />
    <glyph glyph-name="E" unicode="&#xc9;" horiz-adv-x="228" 
d="M108.852 690.305c21.2266 10.3516 52.3301 7.71387 68.874 -10.3145c14.1338 -15.3945 18.877 -37.9014 22.8965 -57.71c7.45898 -36.748 10.1865 -74.5186 12.6289 -111.868c4.06934 -62.2354 5.84961 -124.613 7.39746 -186.953
c0.00878906 -0.342773 -0.0380859 -0.665039 -0.0644531 -0.996094c0.0146484 -0.25 0.0722656 -0.485352 0.0634766 -0.74707c-0.307617 -11.1357 -18.002 -13.5088 -26.1406 -13.5928c-37.7041 -0.389648 -75.4111 -0.166016 -113.118 -0.0556641
c0.185547 -20.8633 0.769531 -41.7178 1.8584 -62.5459c3.01465 -57.6611 8.12988 -117.233 23.8291 -173.013c5.2627 -18.6904 11.7256 -40.4512 24.6973 -55.4561c0.482422 -0.557617 1.56543 -1.49902 2.66602 -2.46289c10.2119 9.78223 15.9453 24.2207 20.3135 37.3086
c8.37988 25.1006 11.3662 51.8809 13.3184 78.1494c1.4375 19.3496 53.6289 18.1533 52.2812 0c-3.2793 -44.1318 -8.79785 -115.474 -54.457 -138.916c-20.4189 -10.4824 -47.832 -9.79688 -67.2949 2.38184c-20.709 12.957 -31.0488 37.5762 -38.3301 59.8516
c-20.0469 61.3174 -25.9609 128.069 -29.3037 192.152c-3.56348 68.373 -2.20117 137.08 3.38672 205.308c3.8916 47.5156 10.2725 94.8564 21.9375 141.141c8.25195 32.7344 18.8301 81.8906 52.5605 98.3389zM137.728 10.9697c1.16504 -2.63184 2.40234 0.510742 0 0z
M128.86 10.1826c-0.831055 -0.610352 -0.412109 -1.20508 0 0zM161.093 508.557c-2.42578 37.6309 -5.15137 75.6709 -12.5459 112.716c-2.66895 13.3721 -5.97168 27.6826 -12.9336 39.8994c-20.4512 -27.5381 -27.6309 -68.3125 -34.1689 -100.785
c-8.64355 -42.9434 -13.3662 -86.4219 -16.3525 -130.101c-2.16113 -31.6191 -3.41895 -63.3223 -3.71191 -95.0312c28.8975 -0.0839844 57.7949 -0.206055 86.6924 -0.0986328c-1.46973 57.8262 -3.25879 115.673 -6.97949 173.4zM143.699 670.017
c1.16797 0.276367 0.862305 0.607422 0 0z" />
    <glyph glyph-name="F" unicode="F" horiz-adv-x="178" 
d="M56.3271 701.258c30.2568 0.0839844 60.5947 1.51367 90.8311 0c7.19141 -0.360352 26.4512 -2.34668 26.1406 -13.5928c-0.295898 -10.8018 -18.0342 -14 -26.1406 -13.5938c-21.543 1.08008 -43.1357 0.662109 -64.7139 0.304688
c-0.90918 -114.015 -1.28125 -228.032 -1.12109 -342.047c16.6572 -0.354492 33.3262 -0.667969 49.9287 0.401367c7.18555 0.461914 26.4336 -2.93652 26.1406 -13.5938c-0.313477 -11.4326 -18.002 -13.0703 -26.1406 -13.5928
c-16.582 -1.06641 -33.2275 -0.755859 -49.8623 -0.401367c0.220703 -103.141 0.853516 -206.278 1.93652 -309.416c0.197266 -18.8477 -52.085 -18.8623 -52.2822 0c-2.41406 229.518 -2.70117 459.046 -0.810547 688.568
c0.00292969 0.470703 0.0634766 0.923828 0.129883 1.37109c-0.130859 0.632812 -0.197266 1.29785 -0.176758 1.99805c0.304688 11.0928 18.0049 13.5732 26.1406 13.5938z" />
    <glyph glyph-name="G" unicode="G" horiz-adv-x="245" 
d="M71.3506 672.459c20.5645 24.8945 53.4619 34.3213 85.0137 26.4268c6.75 -1.69043 12.8057 -4.22949 18.2773 -7.43652c13.1572 9.12891 46.8125 6.21289 47.0801 -8.95215c1.08887 -62.0352 3.77246 -124.035 4.83594 -186.076
c1.34766 -78.6846 1.44922 -157.468 -2.10547 -236.1c-3.01758 -66.7725 -7.01172 -135.366 -24.5898 -200.167c-5.54199 -20.4336 -12.667 -41.6514 -27.1582 -57.6172c-16.9072 -18.6299 -45.9727 -23.0156 -68.9072 -14.2031
c-29.3965 11.2959 -40.0479 46.252 -47.0713 73.9209c-13.7295 54.0967 -15.9688 110.982 -15.9629 166.538c0.00292969 18.9229 52.2852 18.7861 52.2822 0c-0.00878906 -57.2568 1.25195 -118.011 17.9297 -173.305c3.80176 -12.6084 9.70117 -28.9229 17.1426 -38.5547
c0.176758 0.261719 0.385742 0.566406 0.665039 0.972656c5.11523 7.42383 9.05078 15.4756 12.3594 23.8496c8.86719 22.4551 13.5605 46.4375 17.4121 70.1846c11.1182 68.5439 14.0107 138.488 15.6084 207.809c0.203125 8.8125 0.351562 17.6191 0.473633 26.4287
c-10.2178 -11.5518 -23.0615 -20.4658 -39.4082 -25.0176c-36.2637 -10.0938 -72.0879 2.15137 -90.7207 35.2607c-15.4609 27.4707 -21.6016 61.3643 -23.9395 92.498c-5.50977 73.334 1.76367 164.191 50.7832 223.54zM121.827 10.6777
c-0.0175781 -0.0117188 -0.0224609 -0.0175781 -0.0371094 -0.0322266c0.0527344 0.0175781 0.0996094 0.0292969 0.157227 0.0585938c-0.0380859 -0.00878906 -0.0849609 -0.0175781 -0.120117 -0.0263672zM136.252 9.43164
c1.44336 0.0957031 0.147461 0.450195 -1.34863 0.757812c0.182617 -0.170898 0.371094 -0.333984 0.547852 -0.513672c-0.139648 0.139648 -1.8623 -0.420898 0.800781 -0.244141zM108.176 344.834c0.479492 -0.0556641 0.825195 -0.111328 1.11816 -0.161133
c0.0146484 0.00878906 0.0322266 0.0146484 0.046875 0.0205078c-0.369141 0.0439453 -0.732422 0.0878906 -1.16504 0.140625zM147.55 662.887c-3.84863 4.91699 -8.19824 8.40918 -13.3193 11.0693c-0.566406 -0.136719 -1.25488 -0.333984 -2.12012 -0.629883
c0.740234 0.255859 -2.1875 -1.13574 -2.83789 -1.47852c4.01367 2.11426 -3.99707 -3.49707 -5.87598 -5.36133c-3.14844 -3.12207 -5.6084 -6.12793 -8.10352 -9.56152c-7.90918 -10.8887 -14.1885 -22.9951 -19.4746 -35.3398
c-26.8408 -62.6885 -31.3691 -139.505 -18.5254 -206.042c4.97559 -25.7725 13.1689 -50.9287 32.0859 -69.5908c0.333984 -0.328125 0.804688 -0.607422 1.30176 -0.842773c0.598633 0.151367 0.833984 0.171875 0.851562 0.119141
c0.292969 0.148438 0.635742 0.316406 1.09766 0.540039c0.947266 0.458984 -1.61133 -0.891602 1.8916 0.969727c5.21094 2.77051 11.5254 8.42578 16.5039 15.1846c28.2266 38.3193 32.833 93.9766 36.1445 139.781c2.66016 36.792 1.86719 73.4473 1.76855 110.274
c-3.98535 17.5547 -10.1338 36.5361 -21.3887 50.9082zM134.695 674.07c1.62109 -0.276367 2.12598 0.441406 0 0z" />
    <glyph glyph-name="H" unicode="H" horiz-adv-x="243" 
d="M81.5586 523.067c-0.255859 -63.6592 -0.27832 -127.317 -0.191406 -190.977c26.4658 -0.790039 52.9229 -2.28613 79.3945 -2.68359c-0.148438 118.279 0.220703 236.559 1.18164 354.835c0.154297 18.9814 52.4336 18.7285 52.2822 0
c-0.435547 -53.7227 -0.775391 -107.448 -0.993164 -161.174c-0.726562 -178.867 -0.0527344 -357.737 1.80371 -536.6c0.194336 -18.8477 -52.0879 -18.8594 -52.2822 0c-0.522461 50.3096 -0.963867 100.619 -1.29785 150.932
c-0.366211 54.9395 -0.560547 109.882 -0.670898 164.821c-26.4629 0.397461 -52.918 1.89355 -79.375 2.68359c0.223633 -106.146 0.850586 -212.293 1.95117 -318.437c0.194336 -18.8477 -52.0879 -18.8594 -52.2822 0
c-0.522461 50.3096 -0.963867 100.619 -1.29785 150.932c-1.21387 182.28 -0.993164 364.563 0.488281 546.841c0.154297 18.9814 52.4336 18.7285 52.2822 0c-0.435547 -53.7227 -0.775391 -107.448 -0.993164 -161.174z" />
    <glyph glyph-name="I" unicode="I" horiz-adv-x="112" 
d="M82.5518 684.24c-0.435547 -53.7227 -0.776367 -107.447 -0.994141 -161.173c-0.726562 -178.867 -0.0527344 -357.737 1.80371 -536.6c0.194336 -18.8477 -52.0879 -18.8594 -52.2822 0c-0.522461 50.3096 -0.963867 100.619 -1.29785 150.932
c-1.21387 182.28 -0.993164 364.563 0.488281 546.841c0.154297 18.9814 52.4336 18.7285 52.2822 0z" />
    <glyph glyph-name="I" unicode="&#xcf;" horiz-adv-x="112" 
d="M82.5518 684.24c-0.435547 -53.7227 -0.776367 -107.447 -0.994141 -161.173c-0.726562 -178.867 -0.0527344 -357.737 1.80371 -536.6c0.194336 -18.8477 -52.0879 -18.8594 -52.2822 0c-0.522461 50.3096 -0.963867 100.619 -1.29785 150.932
c-1.21387 182.28 -0.993164 364.563 0.488281 546.841c0.154297 18.9814 52.4336 18.7285 52.2822 0z" />
    <glyph glyph-name="I" unicode="&#xce;" horiz-adv-x="112" 
d="M82.5518 684.24c-0.435547 -53.7227 -0.776367 -107.447 -0.994141 -161.173c-0.726562 -178.867 -0.0527344 -357.737 1.80371 -536.6c0.194336 -18.8477 -52.0879 -18.8594 -52.2822 0c-0.522461 50.3096 -0.963867 100.619 -1.29785 150.932
c-1.21387 182.28 -0.993164 364.563 0.488281 546.841c0.154297 18.9814 52.4336 18.7285 52.2822 0z" />
    <glyph glyph-name="I" unicode="&#xcd;" horiz-adv-x="112" 
d="M82.5518 684.24c-0.435547 -53.7227 -0.776367 -107.447 -0.994141 -161.173c-0.726562 -178.867 -0.0527344 -357.737 1.80371 -536.6c0.194336 -18.8477 -52.0879 -18.8594 -52.2822 0c-0.522461 50.3096 -0.963867 100.619 -1.29785 150.932
c-1.21387 182.28 -0.993164 364.563 0.488281 546.841c0.154297 18.9814 52.4336 18.7285 52.2822 0z" />
    <glyph glyph-name="J" unicode="J" horiz-adv-x="172" 
d="M80.3857 56.2549c6.4043 26.1377 9.11621 53.248 10.499 80.0713c3.02344 58.5469 0.679688 117.651 0.592773 176.271c-0.176758 118.604 -0.525391 237.203 -1.53027 355.805c-2.85254 -0.0576172 -5.69629 -0.115234 -8.51074 -0.202148
c-7.36914 -0.226562 -14.7412 -0.386719 -22.1104 -0.657227c-2.3125 -0.0869141 -4.62988 -0.167969 -6.94238 -0.290039c-0.354492 -0.0751953 -4.54297 -0.464844 -5.27734 -0.575195c-8.42871 -1.27832 -28.0283 -0.651367 -32.1553 9.49414
c-4.32227 10.6191 10.4238 15.5303 18.2578 16.7207c22.4287 3.40723 47.2188 0.775391 67.7129 3.18066c15.3096 5.33301 41.0674 1.39746 41.1865 -11.8301c0.749023 -83.1514 1.22559 -166.303 1.4375 -249.457c0.157227 -60.8037 0.189453 -121.607 0.323242 -182.411
c0.142578 -64.1494 3.92188 -129.867 -10.4473 -192.89c-8.09473 -35.499 -22.3789 -78.4629 -65.8975 -78.4775c-43.9688 -0.0175781 -56.5225 43.1182 -63.3799 78.9287c-3.24121 16.9307 48.5586 19.4521 52.2822 0c2.26855 -11.8506 6.05566 -27.5234 11.4785 -39.2002
c5.94238 11.0459 9.62207 23.8516 12.4805 35.5195zM77.8545 6.53125c2.38477 -2.25977 0.650391 -0.101562 0 0z" />
    <glyph glyph-name="K" unicode="K" horiz-adv-x="223" 
d="M82.5518 684.24c-0.435547 -53.7227 -0.774414 -107.448 -0.992188 -161.174c-0.0634766 -16.0039 -0.0576172 -32.0049 -0.101562 -48.0088c24.8945 74.7715 50.0391 149.462 74.5967 224.344c5.4668 16.6719 57.0312 12.9453 50.415 -7.22656
c-24.0703 -73.3916 -48.5029 -146.664 -72.9131 -219.942c-15.3242 -45.9932 -30.8662 -91.9258 -45.6943 -138.082c-1.39746 -4.35645 -2.46094 -9.0498 -4.10742 -13.3545c2.58496 -4.91406 3.78711 -12.1924 5.61133 -17.0635
c38.3223 -102.432 82.8809 -202.749 126.716 -302.892c8.29492 -18.9521 -43.2637 -23.5615 -50.415 -7.22656c-28.499 65.1084 -56.6094 130.399 -83.834 196.057c0.351562 -67.7344 0.825195 -135.469 1.52832 -203.203c0.194336 -18.8477 -52.0879 -18.8594 -52.2822 0
c-0.522461 50.3096 -0.963867 100.619 -1.29785 150.932c-1.21387 182.28 -0.993164 364.563 0.488281 546.841c0.154297 18.9814 52.4336 18.7285 52.2822 0zM83.2959 319.552c-0.255859 -0.604492 0.175781 -0.25 0.225586 0.615234
c-0.078125 -0.203125 -0.141602 -0.415039 -0.225586 -0.615234z" />
    <glyph glyph-name="L" unicode="L" horiz-adv-x="155" 
d="M83.25 0.533203c15.458 -0.447266 30.9219 -0.910156 46.3594 -0.271484c7.19434 0.295898 26.4365 -2.81738 26.1406 -13.5928c-0.310547 -11.3076 -17.999 -13.2568 -26.1406 -13.5938c-24.1133 -0.999023 -48.3057 0.700195 -72.4248 0.810547
c-7.19727 0.0351562 -26.4424 2.58203 -26.1406 13.5928c0.0234375 0.882812 0.194336 1.69043 0.426758 2.46875c-0.25 0.836914 -0.418945 1.70215 -0.427734 2.62891c-2.41406 230.551 -2.70117 461.11 -0.810547 691.667c0.157227 18.9814 52.4365 18.7285 52.2822 0
c-1.87012 -227.905 -1.60254 -455.813 0.735352 -683.71z" />
    <glyph glyph-name="M" unicode="M" horiz-adv-x="270" 
d="M130.514 454.627c16.2773 80.7549 34.3447 161.209 55.9746 240.541c0.0527344 1.77148 0.560547 3.37207 1.44336 4.80371c3.45605 7.38086 16.9014 10.2734 29.0303 8.92285c11.499 -0.941406 21.8447 -5.60645 21.7891 -13.9541
c-1.56836 -234.983 0.429688 -469.958 2.46582 -704.93c0.163086 -18.8594 -52.1191 -18.8506 -52.2822 0c-1.38867 160.183 -2.73047 320.371 -2.96582 480.56c-10.2588 -50.2568 -19.7803 -100.653 -29.0195 -150.969c-3.5 -19.0654 -48.625 -18.8594 -52.2822 0
c-2.1084 10.8857 -4.23145 21.7695 -6.35449 32.6533c-5.65234 28.9668 -11.3076 57.9395 -16.9922 86.9062c-0.176758 -149.721 0.375 -299.438 1.66504 -449.153c0.163086 -18.8623 -52.1191 -18.8477 -52.2822 0c-2.0127 233.862 -2.24512 467.733 -0.676758 701.599
v0.00292969c-0.383789 1.79199 -0.09375 3.41602 0.678711 4.87695c6.06445 15.3945 51.7295 14.0557 51.6104 -3.46191c-0.00292969 -0.470703 -0.00585938 -0.944336 -0.00878906 -1.41797c6.98828 -32.6963 13.7236 -65.4482 20.3867 -98.2148
c9.39941 -46.2285 18.6621 -92.4863 27.8203 -138.765z" />
    <glyph glyph-name="N" unicode="N" horiz-adv-x="255" 
d="M30.0635 684.24c0.12793 18.9727 52.4082 18.7363 52.2803 0.00195312c-0.00585938 -0.856445 -0.00878906 -1.71582 -0.0146484 -2.57227c0.647461 -1.1123 1.12109 -2.31445 1.3623 -3.62402c10.1631 -55.2705 20.6631 -110.478 31.5176 -165.617
c18.1885 -92.3848 37.4424 -184.549 56.7783 -276.698c-0.482422 149.503 -0.220703 299.009 0.795898 448.512c0.12793 18.9727 52.4102 18.7373 52.2822 0c-0.366211 -53.7227 -0.647461 -107.448 -0.830078 -161.174
c-0.607422 -178.867 -0.046875 -357.737 1.50684 -536.6c0.157227 -18.1045 -47.9707 -18.8105 -51.9873 -2.17285c-1.49902 1.6377 -2.57031 3.52832 -3.01172 5.70996c-10.1426 50.0537 -20.4941 100.064 -30.9531 150.052
c-19.6377 93.8574 -39.3535 187.688 -58.4512 281.642c-0.139648 -145.079 0.426758 -290.158 1.6875 -435.231c0.163086 -18.8594 -52.1191 -18.8506 -52.2822 0c-0.438477 50.3096 -0.804688 100.619 -1.08691 150.932c-1.0166 182.28 -0.833984 364.563 0.40625 546.841z
" />
    <glyph glyph-name="O" unicode="O" horiz-adv-x="243" 
d="M41.9727 580.62c6.48633 29.873 13.8057 62.4541 29.9551 88.8711c15.917 26.0244 46.7314 35.7139 75.3672 22.6318c30.9482 -14.1396 41.6484 -54.1875 49.4414 -84.1621c12.5186 -48.1543 18.6299 -97.9443 22.7256 -147.452
c4.75488 -57.4609 5.6582 -115.168 3.74121 -172.782c-2.28027 -68.5127 -7.99902 -137.655 -23.8516 -204.492c-7.34277 -29.7109 -15.6465 -71.3418 -43.7803 -88.8906c-26.9922 -16.8379 -61.8174 -8.19727 -80.7578 16.0117
c-20.3408 26.002 -29.002 60.5488 -36.1934 92.1562c-8.3623 36.7539 -13.1719 74.3389 -15.8848 111.906c-5.08594 70.4521 -4.73145 141.803 -0.417969 212.287c3.15723 51.5908 8.67578 103.35 19.6553 153.915zM131.993 673.59
c-0.453125 -0.662109 -1.30664 -1.19141 -2.07031 -1.74023c0.737305 0.307617 1.4375 0.813477 2.07031 1.74023zM91.1143 565.308c-20.8086 -107.643 -22.7031 -219.766 -17.4229 -328.944c2.83203 -58.4805 9.12598 -119.79 29.0771 -175.221
c4.62988 -12.8584 10.082 -25.7139 17.7148 -37.1113c0.729492 -1.08594 1.4873 -2.14355 2.2627 -3.18066c2.27734 2.92773 4.4209 5.75977 5.16406 7.15723c2.3584 4.42969 4.37988 9.04785 6.25293 13.6982c5.41992 13.4512 9.42773 27.4629 12.9043 41.5264
c15.6465 65.9619 21.3975 134.163 23.7617 201.775c2.02441 57.9111 1.20215 115.933 -3.5 173.698c-3.57812 43.9746 -8.8125 88.0889 -18.4785 131.181c-5.38477 23.9941 -12.1816 51.7412 -26.8379 71.7305c-1.96973 -3.29102 -3.77637 -6.68066 -5.42871 -10.1367
c-12.9248 -26.998 -19.8203 -56.9414 -25.4697 -86.1729z" />
    <glyph glyph-name="O" unicode="&#xd6;" horiz-adv-x="243" 
d="M41.9727 580.62c6.48633 29.873 13.8057 62.4541 29.9551 88.8711c15.917 26.0244 46.7314 35.7139 75.3672 22.6318c30.9482 -14.1396 41.6484 -54.1875 49.4414 -84.1621c12.5186 -48.1543 18.6299 -97.9443 22.7256 -147.452
c4.75488 -57.4609 5.6582 -115.168 3.74121 -172.782c-2.28027 -68.5127 -7.99902 -137.655 -23.8516 -204.492c-7.34277 -29.7109 -15.6465 -71.3418 -43.7803 -88.8906c-26.9922 -16.8379 -61.8174 -8.19727 -80.7578 16.0117
c-20.3408 26.002 -29.002 60.5488 -36.1934 92.1562c-8.3623 36.7539 -13.1719 74.3389 -15.8848 111.906c-5.08594 70.4521 -4.73145 141.803 -0.417969 212.287c3.15723 51.5908 8.67578 103.35 19.6553 153.915zM131.993 673.59
c-0.453125 -0.662109 -1.30664 -1.19141 -2.07031 -1.74023c0.737305 0.307617 1.4375 0.813477 2.07031 1.74023zM91.1143 565.308c-20.8086 -107.643 -22.7031 -219.766 -17.4229 -328.944c2.83203 -58.4805 9.12598 -119.79 29.0771 -175.221
c4.62988 -12.8584 10.082 -25.7139 17.7148 -37.1113c0.729492 -1.08594 1.4873 -2.14355 2.2627 -3.18066c2.27734 2.92773 4.4209 5.75977 5.16406 7.15723c2.3584 4.42969 4.37988 9.04785 6.25293 13.6982c5.41992 13.4512 9.42773 27.4629 12.9043 41.5264
c15.6465 65.9619 21.3975 134.163 23.7617 201.775c2.02441 57.9111 1.20215 115.933 -3.5 173.698c-3.57812 43.9746 -8.8125 88.0889 -18.4785 131.181c-5.38477 23.9941 -12.1816 51.7412 -26.8379 71.7305c-1.96973 -3.29102 -3.77637 -6.68066 -5.42871 -10.1367
c-12.9248 -26.998 -19.8203 -56.9414 -25.4697 -86.1729z" />
    <glyph glyph-name="O" unicode="&#xd5;" horiz-adv-x="243" 
d="M41.9727 580.62c6.48633 29.873 13.8057 62.4541 29.9551 88.8711c15.917 26.0244 46.7314 35.7139 75.3672 22.6318c30.9482 -14.1396 41.6484 -54.1875 49.4414 -84.1621c12.5186 -48.1543 18.6299 -97.9443 22.7256 -147.452
c4.75488 -57.4609 5.6582 -115.168 3.74121 -172.782c-2.28027 -68.5127 -7.99902 -137.655 -23.8516 -204.492c-7.34277 -29.7109 -15.6465 -71.3418 -43.7803 -88.8906c-26.9922 -16.8379 -61.8174 -8.19727 -80.7578 16.0117
c-20.3408 26.002 -29.002 60.5488 -36.1934 92.1562c-8.3623 36.7539 -13.1719 74.3389 -15.8848 111.906c-5.08594 70.4521 -4.73145 141.803 -0.417969 212.287c3.15723 51.5908 8.67578 103.35 19.6553 153.915zM131.993 673.59
c-0.453125 -0.662109 -1.30664 -1.19141 -2.07031 -1.74023c0.737305 0.307617 1.4375 0.813477 2.07031 1.74023zM91.1143 565.308c-20.8086 -107.643 -22.7031 -219.766 -17.4229 -328.944c2.83203 -58.4805 9.12598 -119.79 29.0771 -175.221
c4.62988 -12.8584 10.082 -25.7139 17.7148 -37.1113c0.729492 -1.08594 1.4873 -2.14355 2.2627 -3.18066c2.27734 2.92773 4.4209 5.75977 5.16406 7.15723c2.3584 4.42969 4.37988 9.04785 6.25293 13.6982c5.41992 13.4512 9.42773 27.4629 12.9043 41.5264
c15.6465 65.9619 21.3975 134.163 23.7617 201.775c2.02441 57.9111 1.20215 115.933 -3.5 173.698c-3.57812 43.9746 -8.8125 88.0889 -18.4785 131.181c-5.38477 23.9941 -12.1816 51.7412 -26.8379 71.7305c-1.96973 -3.29102 -3.77637 -6.68066 -5.42871 -10.1367
c-12.9248 -26.998 -19.8203 -56.9414 -25.4697 -86.1729z" />
    <glyph glyph-name="O" unicode="&#xd4;" horiz-adv-x="243" 
d="M41.9727 580.62c6.48633 29.873 13.8057 62.4541 29.9551 88.8711c15.917 26.0244 46.7314 35.7139 75.3672 22.6318c30.9482 -14.1396 41.6484 -54.1875 49.4414 -84.1621c12.5186 -48.1543 18.6299 -97.9443 22.7256 -147.452
c4.75488 -57.4609 5.6582 -115.168 3.74121 -172.782c-2.28027 -68.5127 -7.99902 -137.655 -23.8516 -204.492c-7.34277 -29.7109 -15.6465 -71.3418 -43.7803 -88.8906c-26.9922 -16.8379 -61.8174 -8.19727 -80.7578 16.0117
c-20.3408 26.002 -29.002 60.5488 -36.1934 92.1562c-8.3623 36.7539 -13.1719 74.3389 -15.8848 111.906c-5.08594 70.4521 -4.73145 141.803 -0.417969 212.287c3.15723 51.5908 8.67578 103.35 19.6553 153.915zM131.993 673.59
c-0.453125 -0.662109 -1.30664 -1.19141 -2.07031 -1.74023c0.737305 0.307617 1.4375 0.813477 2.07031 1.74023zM91.1143 565.308c-20.8086 -107.643 -22.7031 -219.766 -17.4229 -328.944c2.83203 -58.4805 9.12598 -119.79 29.0771 -175.221
c4.62988 -12.8584 10.082 -25.7139 17.7148 -37.1113c0.729492 -1.08594 1.4873 -2.14355 2.2627 -3.18066c2.27734 2.92773 4.4209 5.75977 5.16406 7.15723c2.3584 4.42969 4.37988 9.04785 6.25293 13.6982c5.41992 13.4512 9.42773 27.4629 12.9043 41.5264
c15.6465 65.9619 21.3975 134.163 23.7617 201.775c2.02441 57.9111 1.20215 115.933 -3.5 173.698c-3.57812 43.9746 -8.8125 88.0889 -18.4785 131.181c-5.38477 23.9941 -12.1816 51.7412 -26.8379 71.7305c-1.96973 -3.29102 -3.77637 -6.68066 -5.42871 -10.1367
c-12.9248 -26.998 -19.8203 -56.9414 -25.4697 -86.1729z" />
    <glyph glyph-name="O" unicode="&#xd3;" horiz-adv-x="243" 
d="M41.9727 580.62c6.48633 29.873 13.8057 62.4541 29.9551 88.8711c15.917 26.0244 46.7314 35.7139 75.3672 22.6318c30.9482 -14.1396 41.6484 -54.1875 49.4414 -84.1621c12.5186 -48.1543 18.6299 -97.9443 22.7256 -147.452
c4.75488 -57.4609 5.6582 -115.168 3.74121 -172.782c-2.28027 -68.5127 -7.99902 -137.655 -23.8516 -204.492c-7.34277 -29.7109 -15.6465 -71.3418 -43.7803 -88.8906c-26.9922 -16.8379 -61.8174 -8.19727 -80.7578 16.0117
c-20.3408 26.002 -29.002 60.5488 -36.1934 92.1562c-8.3623 36.7539 -13.1719 74.3389 -15.8848 111.906c-5.08594 70.4521 -4.73145 141.803 -0.417969 212.287c3.15723 51.5908 8.67578 103.35 19.6553 153.915zM131.993 673.59
c-0.453125 -0.662109 -1.30664 -1.19141 -2.07031 -1.74023c0.737305 0.307617 1.4375 0.813477 2.07031 1.74023zM91.1143 565.308c-20.8086 -107.643 -22.7031 -219.766 -17.4229 -328.944c2.83203 -58.4805 9.12598 -119.79 29.0771 -175.221
c4.62988 -12.8584 10.082 -25.7139 17.7148 -37.1113c0.729492 -1.08594 1.4873 -2.14355 2.2627 -3.18066c2.27734 2.92773 4.4209 5.75977 5.16406 7.15723c2.3584 4.42969 4.37988 9.04785 6.25293 13.6982c5.41992 13.4512 9.42773 27.4629 12.9043 41.5264
c15.6465 65.9619 21.3975 134.163 23.7617 201.775c2.02441 57.9111 1.20215 115.933 -3.5 173.698c-3.57812 43.9746 -8.8125 88.0889 -18.4785 131.181c-5.38477 23.9941 -12.1816 51.7412 -26.8379 71.7305c-1.96973 -3.29102 -3.77637 -6.68066 -5.42871 -10.1367
c-12.9248 -26.998 -19.8203 -56.9414 -25.4697 -86.1729z" />
    <glyph glyph-name="P" unicode="P" horiz-adv-x="221" 
d="M174.052 669.299c20.3926 -28.2178 28.248 -65.3857 32.3838 -99.3105c4.82422 -39.5625 4.02832 -80.1914 -2.16699 -119.557c-5.43164 -34.5176 -14.3926 -70.0312 -37.5625 -97.1191c-14.2529 -16.6631 -33.1152 -27.9648 -53.5518 -35.4385
c-9.63477 -3.52637 -19.583 -5.83301 -29.6006 -7.9707c-0.720703 -0.151367 -1.44434 -0.293945 -2.16797 -0.442383c0.211914 -103.959 0.847656 -207.918 1.94238 -311.874c0.197266 -18.8477 -52.085 -18.8623 -52.2822 0
c-2.41406 228.934 -2.70117 457.876 -0.810547 686.815c0.0117188 1.21387 0.241211 2.34961 0.650391 3.40723c-0.0634766 3.49121 2.13281 6.93262 7.00977 9.34668c44.5469 22.0254 106.173 13.6367 136.156 -27.8574zM152.758 455.562
c4.83594 33.623 5.73633 67.9785 2.72168 101.811c-2.75977 30.9678 -8.47266 62.877 -23.1494 90.6299c-9.9248 18.7754 -28.1768 37.8379 -49.8301 32.7002c-0.926758 -113.751 -1.31934 -227.502 -1.17969 -341.256c1.28711 0.429688 2.57129 0.850586 3.91602 1.35645
c18.0137 6.75293 32.9287 19.542 43.042 35.8506c14.5518 23.4629 20.6016 51.9365 24.4795 78.9082z" />
    <glyph glyph-name="Q" unicode="Q" horiz-adv-x="243" 
d="M71.9355 669.491c15.9141 26.0215 46.7275 35.708 75.3633 22.626c30.9482 -14.1396 41.6484 -54.1875 49.4414 -84.1621c12.5186 -48.1543 18.6299 -97.9443 22.7256 -147.452c4.75195 -57.4609 5.65527 -115.168 3.73828 -172.782
c-2.28027 -68.5127 -7.99902 -137.655 -23.8516 -204.492c-6.09375 -24.6504 -12.8877 -57.46 -31.0791 -77.96c7.06934 -33.957 13.7354 -67.9951 19.9746 -102.12c3.11621 -17.0439 -48.7266 -19.4521 -52.2812 0c-5.05078 27.6279 -10.4102 55.1982 -16.001 82.7188
c-17.3281 1.43457 -33.9971 10.2295 -45.1533 24.4883c-20.3438 26.002 -29.002 60.5488 -36.1934 92.1562c-8.3623 36.7539 -13.1719 74.3389 -15.8848 111.906c-5.08594 70.4531 -4.73145 141.804 -0.417969 212.288c3.15723 51.5908 8.67578 103.35 19.6553 153.915
c6.48633 29.873 13.8086 62.4561 29.9639 88.8701zM131.992 673.587c-0.453125 -0.662109 -1.30664 -1.19141 -2.07031 -1.74023c0.737305 0.307617 1.4375 0.813477 2.07031 1.74023zM116.587 651.477c-12.9248 -26.998 -19.8184 -56.9385 -25.4678 -86.1699
c-20.8086 -107.643 -22.708 -219.767 -17.4219 -328.942c2.8291 -58.4805 9.12598 -119.79 29.0771 -175.221c0.90332 -2.51562 1.85352 -5.02832 2.83203 -7.53223c-2.83789 12.8145 -5.69922 25.626 -8.6709 38.415c-3.78711 16.2979 47.2656 19.377 52.1973 0.267578
c14.0811 63.1357 19.4424 128.188 21.6992 192.71c2.02441 57.9111 1.20215 115.933 -3.5 173.698c-3.57812 43.9746 -8.8125 88.0889 -18.4785 131.181c-5.38477 23.9941 -12.1816 51.7412 -26.8379 71.7305c-1.96973 -3.29102 -3.77344 -6.68066 -5.42871 -10.1367z" />
    <glyph glyph-name="R" unicode="R" horiz-adv-x="226" 
d="M30.8867 687.812c-0.0634766 3.48828 2.13477 6.93066 7.01172 9.3418c44.5469 22.0254 106.173 13.6367 136.156 -27.8574c20.3896 -28.2178 28.2432 -65.3848 32.3789 -99.3096c4.82422 -39.5625 4.02832 -80.1914 -2.16699 -119.557
c-5.43164 -34.5176 -14.3926 -70.0312 -37.5625 -97.1191c-14.2529 -16.6631 -33.1152 -27.9648 -53.5518 -35.4385c-5.59961 -2.04785 -11.3096 -3.66016 -17.0723 -5.0918c32.624 -103.934 70.6006 -206.104 103.735 -309.871
c6.51758 -20.4072 -45.1426 -23.7383 -50.4141 -7.22559c-21.4326 67.1152 -44.8809 133.565 -67.6094 200.251c0.339844 -66.1162 0.839844 -132.232 1.53711 -198.346c0.197266 -18.8477 -52.085 -18.8623 -52.2822 0
c-2.41406 228.934 -2.70117 457.876 -0.810547 686.815c0.0117188 1.21387 0.241211 2.34961 0.650391 3.40723zM132.327 648.001c-9.92773 18.7754 -28.1807 37.8389 -49.834 32.6982c-0.926758 -113.751 -1.32129 -227.502 -1.17871 -341.256
c1.29004 0.429688 2.57422 0.850586 3.91895 1.35645c18.0137 6.75293 32.9287 19.542 43.042 35.8506c14.5518 23.4629 20.6016 51.9365 24.4795 78.9082c4.83594 33.623 5.73633 67.9805 2.72168 101.812c-2.75977 30.9678 -8.47266 62.877 -23.1494 90.6299z" />
    <glyph glyph-name="S" unicode="S" horiz-adv-x="247" 
d="M24.0654 596.064c7.47363 37.6396 24.2188 87.1123 60.6504 106.41c25.6562 13.5957 60.8125 11.8965 82.8955 -7.89258c30.5068 -27.3379 36.2842 -77.1855 39.8828 -115.253c1.71094 -18.0869 -50.458 -19.2949 -52.2822 0
c-2.5791 27.291 -6.375 55.5518 -18.3301 80.5508c-3.07617 6.43652 -6.61719 12.9307 -11.5117 18.168c-0.525391 0.563477 -3.7002 3.44727 -4.83008 4.53027c-0.226562 -0.12793 -0.444336 -0.264648 -0.667969 -0.392578
c0.49707 0.167969 -3.67383 -2.96875 -4.60352 -3.82812c-19.0859 -17.6426 -29.9023 -46.8447 -36.417 -71.3535c-21.9209 -82.457 -2.8584 -167.952 42.293 -238.454c38.8711 -60.6992 84.9316 -114.39 101.874 -186.309
c11.5342 -48.959 10.9443 -104.764 -13.4805 -149.961c-23.0039 -42.5752 -70.9932 -64.0107 -117.893 -49.0059c-23.0068 7.36035 -38.54 26.832 -48.3896 48.1455c-19.5508 42.3047 -20.8496 91.6904 -17.5996 137.304c1.37695 19.3359 53.5771 18.1826 52.2812 0
c-3.35156 -47.042 -3.06445 -100.909 22.3652 -142.598c3.39844 -5.56836 6.11133 -9.33887 9.9541 -13.1318c1.74609 -1.72559 3.59961 -3.2793 5.46387 -4.87109c0.453125 -0.386719 0.757812 -0.667969 0.969727 -0.885742
c0.223633 -0.0556641 0.507812 -0.136719 0.916992 -0.282227c2.90137 -1.02246 4.99512 -1.60645 7.83301 -0.697266c9.53516 3.05859 17.6826 10.4482 23.916 18.1045c32.7139 40.1904 33.0244 101.357 23.1982 149.57
c-7.35742 36.1006 -23.2539 69.6602 -42.7402 100.719c-37.9336 60.4609 -85.0654 113.489 -102.81 184.415c-11.0576 44.1953 -11.8066 92.3291 -2.93945 136.998zM117.92 683.93c-0.953125 0.453125 -1.80371 0.902344 -1.8418 1.14648
c0.342773 -2.12305 1.45801 -1.74512 1.8418 -1.14648z" />
    <glyph glyph-name="T" unicode="T" horiz-adv-x="191" 
d="M25.1406 701.267c22.7539 -0.142578 45.5312 -1.50879 68.2734 -2.2002c15.0049 -0.456055 30.0098 -0.882812 45.0205 -1.05957c5.39648 -0.0634766 10.7988 -0.119141 16.1953 -0.0410156c1.80664 0.0263672 3.66016 0.154297 5.48438 0.160156
c8.5332 1.20215 27.8633 0.594727 31.9795 -9.51562c4.31055 -10.5898 -10.4102 -15.5742 -18.2578 -16.7217c-16.8838 -2.46875 -34.5869 -1.99512 -52.0488 -1.19922c-1.86426 -228.076 -1.57422 -456.152 0.831055 -684.223
c0.197266 -18.8477 -52.085 -18.8623 -52.2822 0c-2.41406 228.771 -2.70117 457.55 -0.816406 686.326c-14.793 0.601562 -29.5918 1.19434 -44.3789 1.28711c-7.19727 0.046875 -26.4424 2.57422 -26.1406 13.5938c0.304688 11.043 18.0078 13.6455 26.1406 13.5928z" />
    <glyph glyph-name="U" unicode="U" horiz-adv-x="253" 
d="M160.136 152.244c7.73145 60.2695 11.3994 121.06 13.9756 181.741c5.24316 123.814 4.9873 247.812 3.70605 371.706c-0.194336 18.8477 52.0879 18.8623 52.2822 0c0.139648 -13.4307 0.267578 -26.8643 0.375 -40.2979
c1.05762 -132.767 0.822266 -265.824 -7.58301 -398.379c-3.64551 -57.4863 -8.29297 -115.449 -19.6152 -172.013c-5.99512 -29.9434 -12.8584 -72.623 -38.8135 -92.8506c-28.4619 -22.1816 -69.6514 -10.2734 -88.7256 17.5869
c-19.9482 29.1357 -26.5244 68.6494 -32.4004 102.682c-18.5947 107.683 -19.9482 218.813 -20.3145 327.812c-0.279297 83.0322 1.74805 166.035 4.72266 249.01c0.688477 19.1553 52.9473 18.5078 52.2822 0c-0.188477 -5.32715 -0.382812 -10.6543 -0.571289 -15.9814
c-3.06152 -86.3027 -4.78418 -172.669 -3.98828 -259.027c0.953125 -103.483 2.75391 -209.247 21.8486 -311.264c5.47754 -29.2637 11.9434 -63.4297 30.248 -87.9648c1.64355 2.57324 3.11621 5.25684 4.4873 7.98438c18.1387 36.1182 23.0156 79.7383 28.084 119.255z
M134.887 17.6807c0.958984 -0.167969 0.714844 -0.12207 0 0zM120.317 16.4629c-0.485352 -0.52832 -0.341797 -0.40918 0.117188 0.0410156c-0.0410156 -0.0146484 -0.0791016 -0.0292969 -0.117188 -0.0410156zM134.176 17.8018
c0.139648 -0.0546875 0.276367 -0.0761719 0.424805 -0.0732422c-0.00585938 0 -0.0117188 0.00292969 -0.0175781 0.00292969c-0.12793 0.0234375 -0.264648 0.046875 -0.407227 0.0703125zM134.809 17.6904
c-0.00878906 -0.0527344 0.0957031 -0.114258 0.301758 -0.183594c-0.078125 0.0605469 -0.150391 0.113281 -0.222656 0.168945c-0.0263672 0.00585938 -0.0527344 0.0117188 -0.0791016 0.0146484zM135.116 17.5068c1.64648 -0.551758 8.6416 -1.44629 -0.222656 0.168945
c0.0751953 -0.0556641 0.150391 -0.111328 0.222656 -0.168945z" />
    <glyph glyph-name="U" unicode="&#xdc;" horiz-adv-x="253" 
d="M160.136 152.244c7.73145 60.2695 11.3994 121.06 13.9756 181.741c5.24316 123.814 4.9873 247.812 3.70605 371.706c-0.194336 18.8477 52.0879 18.8623 52.2822 0c0.139648 -13.4307 0.267578 -26.8643 0.375 -40.2979
c1.05762 -132.767 0.822266 -265.824 -7.58301 -398.379c-3.64551 -57.4863 -8.29297 -115.449 -19.6152 -172.013c-5.99512 -29.9434 -12.8584 -72.623 -38.8135 -92.8506c-28.4619 -22.1816 -69.6514 -10.2734 -88.7256 17.5869
c-19.9482 29.1357 -26.5244 68.6494 -32.4004 102.682c-18.5947 107.683 -19.9482 218.813 -20.3145 327.812c-0.279297 83.0322 1.74805 166.035 4.72266 249.01c0.688477 19.1553 52.9473 18.5078 52.2822 0c-0.188477 -5.32715 -0.382812 -10.6543 -0.571289 -15.9814
c-3.06152 -86.3027 -4.78418 -172.669 -3.98828 -259.027c0.953125 -103.483 2.75391 -209.247 21.8486 -311.264c5.47754 -29.2637 11.9434 -63.4297 30.248 -87.9648c1.64355 2.57324 3.11621 5.25684 4.4873 7.98438c18.1387 36.1182 23.0156 79.7383 28.084 119.255z
M134.887 17.6807c0.958984 -0.167969 0.714844 -0.12207 0 0zM120.317 16.4629c-0.485352 -0.52832 -0.341797 -0.40918 0.117188 0.0410156c-0.0410156 -0.0146484 -0.0791016 -0.0292969 -0.117188 -0.0410156zM134.176 17.8018
c0.139648 -0.0546875 0.276367 -0.0761719 0.424805 -0.0732422c-0.00585938 0 -0.0117188 0.00292969 -0.0175781 0.00292969c-0.12793 0.0234375 -0.264648 0.046875 -0.407227 0.0703125zM134.809 17.6904
c-0.00878906 -0.0527344 0.0957031 -0.114258 0.301758 -0.183594c-0.078125 0.0605469 -0.150391 0.113281 -0.222656 0.168945c-0.0263672 0.00585938 -0.0527344 0.0117188 -0.0791016 0.0146484zM135.116 17.5068c1.64648 -0.551758 8.6416 -1.44629 -0.222656 0.168945
c0.0751953 -0.0556641 0.150391 -0.111328 0.222656 -0.168945z" />
    <glyph glyph-name="U" unicode="&#xdb;" horiz-adv-x="253" 
d="M160.136 152.244c7.73145 60.2695 11.3994 121.06 13.9756 181.741c5.24316 123.814 4.9873 247.812 3.70605 371.706c-0.194336 18.8477 52.0879 18.8623 52.2822 0c0.139648 -13.4307 0.267578 -26.8643 0.375 -40.2979
c1.05762 -132.767 0.822266 -265.824 -7.58301 -398.379c-3.64551 -57.4863 -8.29297 -115.449 -19.6152 -172.013c-5.99512 -29.9434 -12.8584 -72.623 -38.8135 -92.8506c-28.4619 -22.1816 -69.6514 -10.2734 -88.7256 17.5869
c-19.9482 29.1357 -26.5244 68.6494 -32.4004 102.682c-18.5947 107.683 -19.9482 218.813 -20.3145 327.812c-0.279297 83.0322 1.74805 166.035 4.72266 249.01c0.688477 19.1553 52.9473 18.5078 52.2822 0c-0.188477 -5.32715 -0.382812 -10.6543 -0.571289 -15.9814
c-3.06152 -86.3027 -4.78418 -172.669 -3.98828 -259.027c0.953125 -103.483 2.75391 -209.247 21.8486 -311.264c5.47754 -29.2637 11.9434 -63.4297 30.248 -87.9648c1.64355 2.57324 3.11621 5.25684 4.4873 7.98438c18.1387 36.1182 23.0156 79.7383 28.084 119.255z
M134.887 17.6807c0.958984 -0.167969 0.714844 -0.12207 0 0zM120.317 16.4629c-0.485352 -0.52832 -0.341797 -0.40918 0.117188 0.0410156c-0.0410156 -0.0146484 -0.0791016 -0.0292969 -0.117188 -0.0410156zM134.176 17.8018
c0.139648 -0.0546875 0.276367 -0.0761719 0.424805 -0.0732422c-0.00585938 0 -0.0117188 0.00292969 -0.0175781 0.00292969c-0.12793 0.0234375 -0.264648 0.046875 -0.407227 0.0703125zM134.809 17.6904
c-0.00878906 -0.0527344 0.0957031 -0.114258 0.301758 -0.183594c-0.078125 0.0605469 -0.150391 0.113281 -0.222656 0.168945c-0.0263672 0.00585938 -0.0527344 0.0117188 -0.0791016 0.0146484zM135.116 17.5068c1.64648 -0.551758 8.6416 -1.44629 -0.222656 0.168945
c0.0751953 -0.0556641 0.150391 -0.111328 0.222656 -0.168945z" />
    <glyph glyph-name="U" unicode="&#xda;" horiz-adv-x="253" 
d="M160.136 152.244c7.73145 60.2695 11.3994 121.06 13.9756 181.741c5.24316 123.814 4.9873 247.812 3.70605 371.706c-0.194336 18.8477 52.0879 18.8623 52.2822 0c0.139648 -13.4307 0.267578 -26.8643 0.375 -40.2979
c1.05762 -132.767 0.822266 -265.824 -7.58301 -398.379c-3.64551 -57.4863 -8.29297 -115.449 -19.6152 -172.013c-5.99512 -29.9434 -12.8584 -72.623 -38.8135 -92.8506c-28.4619 -22.1816 -69.6514 -10.2734 -88.7256 17.5869
c-19.9482 29.1357 -26.5244 68.6494 -32.4004 102.682c-18.5947 107.683 -19.9482 218.813 -20.3145 327.812c-0.279297 83.0322 1.74805 166.035 4.72266 249.01c0.688477 19.1553 52.9473 18.5078 52.2822 0c-0.188477 -5.32715 -0.382812 -10.6543 -0.571289 -15.9814
c-3.06152 -86.3027 -4.78418 -172.669 -3.98828 -259.027c0.953125 -103.483 2.75391 -209.247 21.8486 -311.264c5.47754 -29.2637 11.9434 -63.4297 30.248 -87.9648c1.64355 2.57324 3.11621 5.25684 4.4873 7.98438c18.1387 36.1182 23.0156 79.7383 28.084 119.255z
M134.887 17.6807c0.958984 -0.167969 0.714844 -0.12207 0 0zM120.317 16.4629c-0.485352 -0.52832 -0.341797 -0.40918 0.117188 0.0410156c-0.0410156 -0.0146484 -0.0791016 -0.0292969 -0.117188 -0.0410156zM134.176 17.8018
c0.139648 -0.0546875 0.276367 -0.0761719 0.424805 -0.0732422c-0.00585938 0 -0.0117188 0.00292969 -0.0175781 0.00292969c-0.12793 0.0234375 -0.264648 0.046875 -0.407227 0.0703125zM134.809 17.6904
c-0.00878906 -0.0527344 0.0957031 -0.114258 0.301758 -0.183594c-0.078125 0.0605469 -0.150391 0.113281 -0.222656 0.168945c-0.0263672 0.00585938 -0.0527344 0.0117188 -0.0791016 0.0146484zM135.116 17.5068c1.64648 -0.551758 8.6416 -1.44629 -0.222656 0.168945
c0.0751953 -0.0556641 0.150391 -0.111328 0.222656 -0.168945z" />
    <glyph glyph-name="V" unicode="V" horiz-adv-x="245" 
d="M59.334 697.717c5.78613 -55.9355 12.4629 -111.776 19.2246 -167.596c14.1133 -116.583 28.999 -233.072 44.0938 -349.53c23.0127 175.801 45.3398 351.764 63.168 528.125c1.9668 19.4492 54.0889 17.8779 52.2822 0
c-6.20703 -61.4082 -13.2646 -122.726 -20.5234 -184.015c-21.4619 -181.232 -44.7012 -362.272 -68.8613 -543.165c-2.53613 -18.9844 -49.7666 -18.9238 -52.2822 -0.000976562c-2.96582 22.3242 -5.90527 44.6484 -8.83887 66.9756
c-14.1309 107.544 -28.0586 215.113 -41.6348 322.727c-13.7178 108.72 -27.6309 217.472 -38.9092 326.479c-1.8623 17.9883 50.2832 19.3242 52.2812 0z" />
    <glyph glyph-name="W" unicode="W" horiz-adv-x="352" 
d="M202.341 316.601c11.5254 -55.79 23.0898 -111.57 34.6875 -167.347c19.1641 186.323 37.9219 372.751 52.7061 559.455c1.5332 19.3672 53.7129 18.1035 52.2812 -0.000976562c-4.88281 -61.6465 -10.4395 -123.24 -16.1523 -184.816
c-16.7852 -180.896 -34.959 -361.675 -53.8643 -542.36c-2.05078 -19.6055 -48.4717 -18.2344 -52.2822 0c-14.7285 70.4756 -29.4023 140.966 -44.0381 211.462c-14.9521 -70.3828 -29.498 -140.858 -43.3555 -211.459c-3.63965 -18.5459 -49.709 -19.3359 -52.2822 0
c-3.96777 29.8154 -6.9541 59.7783 -10.1719 89.6777c-22.4492 208.491 -44.7129 417.34 -59.8457 626.505c-1.32422 18.3105 50.8936 19.208 52.2822 0c3.79297 -52.4062 8.40527 -104.752 13.1543 -157.08c10.4102 -114.706 21.749 -229.325 33.5215 -343.897
c1.66406 -16.1953 3.2793 -32.4023 4.89746 -48.6152c11.7754 56.2207 23.8643 112.377 36.1797 168.476c-1.91992 9.29199 13.1777 14.25 27.6719 13.501c13.5176 -0.0634766 26.4775 -4.99219 24.6104 -13.5z" />
    <glyph glyph-name="X" unicode="X" 
d="M10.1924 -18.4648c4.17383 18.2754 8.28711 36.5654 12.3916 54.8613c21.4326 95.4287 42.5811 190.953 63.0664 286.623c-26.6836 124.6 -52.2119 249.448 -75.4629 374.701c-3.15723 17.0059 48.6719 19.4512 52.2822 -0.000976562
c12.7422 -68.6484 26.3359 -137.135 40.3271 -205.537c3.0293 -14.8076 6.09375 -29.6094 9.15234 -44.4111c17.1748 83.1689 33.667 166.469 49.1631 249.948c3.63379 19.5762 55.4131 16.8691 52.2822 0c-12.7422 -68.6484 -26.3359 -137.135 -40.3271 -205.537
c-11.4844 -56.1562 -23.2129 -112.272 -35.1328 -168.345c24.2969 -114.288 49.4561 -228.401 75.4629 -342.3c3.75293 -16.4307 -47.8467 -19.417 -52.2822 0c-4.17383 18.2754 -8.29004 36.5654 -12.3975 54.8555c-12.4229 55.3174 -24.7646 110.663 -36.9346 166.053
c-16.0879 -73.7178 -32.5156 -147.359 -49.3096 -220.911c-4.46094 -19.5391 -56.002 -16.2949 -52.2812 0z" />
    <glyph glyph-name="Y" unicode="Y" horiz-adv-x="234" 
d="M72.8281 549.942c1.56836 -55.8516 4.01953 -113.139 16.6543 -167.759c2.27148 -9.80859 5.10059 -19.5361 8.91113 -28.8652c1.69629 -4.15039 3.56641 -8.24902 5.80273 -12.1387c0.0898438 -0.157227 0.194336 -0.305664 0.28418 -0.462891
c11.8213 18.4463 17.2734 41.3896 21.7314 62.4736c6.79688 32.1387 10.7617 64.873 13.8721 97.5518c6.48633 68.1406 8.69922 136.636 10.1514 205.044c-0.101562 9.50098 13.1348 14.209 26.3154 14.1338c0.429688 -0.00292969 0.862305 -0.0205078 1.29199 -0.0292969
c0.304688 -0.0117188 0.612305 -0.0117188 0.916992 -0.0263672c12.3271 -0.525391 23.9424 -5.25977 23.7568 -14.0781c1.03418 -95.4199 2.09473 -190.84 2.85547 -286.26c0.569336 -71.4668 0.941406 -142.938 0.991211 -214.407
c0.0410156 -59.7578 -0.107422 -130.588 -32.4639 -183.523c-22.0049 -35.999 -68.666 -51.5264 -105.065 -25.3682c-38.7119 27.8193 -47.2979 88.4053 -51.7852 131.89c-1.85938 17.9932 50.2861 19.3232 52.2812 -0.000976562
c3.01465 -29.2051 7.99023 -58.8809 20.3486 -85.7539c3.78711 -8.23145 8.50977 -17.041 14.2695 -23.5703c1.89648 -2.14941 3.99316 -4.20898 6.23828 -6.03906c0.351562 0.307617 0.738281 0.65625 1.21191 1.10352c2.25684 2.12891 4.7373 4.53125 6.51465 6.73828
c12.748 15.8418 19.8555 37.1494 24.7383 56.5752c15.9404 63.4209 11.5107 130.635 11.2959 195.436c-0.0634766 19.6523 -0.200195 39.3018 -0.304688 58.9541c-5.64648 -8.5625 -12.8037 -15.9199 -22.2432 -20.5762
c-21.2178 -10.4678 -51.2744 -7.81055 -67.9785 9.80859c-14.4268 15.2197 -20.2383 36.9053 -25.1006 56.7021c-14.3428 58.4131 -16.5332 120.219 -17.9736 180.093c-1.12988 47.0068 -0.961914 94.1475 1.16406 141.129c0.868164 19.208 53.1152 18.4238 52.2812 0
c-2.23926 -49.5225 -2.35254 -99.2275 -0.963867 -148.773zM115.031 9.83008c-0.0527344 -0.00878906 -0.138672 -0.00878906 -0.243164 -0.0117188l0.0263672 -0.0263672c0.0722656 0.0117188 0.129883 0.0263672 0.216797 0.0380859zM106.548 10.2627
c-5.35059 -0.342773 -2.6084 -0.847656 -0.751953 -0.522461c0.185547 0.136719 0.429688 0.307617 0.751953 0.522461zM112.371 330.841c0.581055 0.238281 0.176758 0.369141 -0.505859 0.467773c0.0146484 -0.0175781 0.0322266 -0.0322266 0.046875 -0.046875
c0.191406 -0.182617 0.310547 -0.319336 0.423828 -0.447266c0.0175781 0.00878906 0.0146484 0.0205078 0.0351562 0.0263672zM96.334 331.207c-0.24707 -0.0576172 -0.296875 -0.0732422 -0.0292969 -0.0234375
c0.00878906 0.00585938 0.0205078 0.0175781 0.0292969 0.0234375zM95.7266 331.04c0.142578 0.53125 -0.140625 0.21875 -0.21875 -0.0517578c-4.70508 -1.13574 -0.220703 -0.999023 0.136719 -0.206055c0.116211 0.0234375 0.336914 0.157227 0.638672 0.386719
c-0.197266 -0.0439453 -0.382812 -0.0878906 -0.556641 -0.128906z" />
    <glyph glyph-name="Y" unicode="&#x178;" horiz-adv-x="234" 
d="M72.8281 549.942c1.56836 -55.8516 4.01953 -113.139 16.6543 -167.759c2.27148 -9.80859 5.10059 -19.5361 8.91113 -28.8652c1.69629 -4.15039 3.56641 -8.24902 5.80273 -12.1387c0.0898438 -0.157227 0.194336 -0.305664 0.28418 -0.462891
c11.8213 18.4463 17.2734 41.3896 21.7314 62.4736c6.79688 32.1387 10.7617 64.873 13.8721 97.5518c6.48633 68.1406 8.69922 136.636 10.1514 205.044c-0.101562 9.50098 13.1348 14.209 26.3154 14.1338c0.429688 -0.00292969 0.862305 -0.0205078 1.29199 -0.0292969
c0.304688 -0.0117188 0.612305 -0.0117188 0.916992 -0.0263672c12.3271 -0.525391 23.9424 -5.25977 23.7568 -14.0781c1.03418 -95.4199 2.09473 -190.84 2.85547 -286.26c0.569336 -71.4668 0.941406 -142.938 0.991211 -214.407
c0.0410156 -59.7578 -0.107422 -130.588 -32.4639 -183.523c-22.0049 -35.999 -68.666 -51.5264 -105.065 -25.3682c-38.7119 27.8193 -47.2979 88.4053 -51.7852 131.89c-1.85938 17.9932 50.2861 19.3232 52.2812 -0.000976562
c3.01465 -29.2051 7.99023 -58.8809 20.3486 -85.7539c3.78711 -8.23145 8.50977 -17.041 14.2695 -23.5703c1.89648 -2.14941 3.99316 -4.20898 6.23828 -6.03906c0.351562 0.307617 0.738281 0.65625 1.21191 1.10352c2.25684 2.12891 4.7373 4.53125 6.51465 6.73828
c12.748 15.8418 19.8555 37.1494 24.7383 56.5752c15.9404 63.4209 11.5107 130.635 11.2959 195.436c-0.0634766 19.6523 -0.200195 39.3018 -0.304688 58.9541c-5.64648 -8.5625 -12.8037 -15.9199 -22.2432 -20.5762
c-21.2178 -10.4678 -51.2744 -7.81055 -67.9785 9.80859c-14.4268 15.2197 -20.2383 36.9053 -25.1006 56.7021c-14.3428 58.4131 -16.5332 120.219 -17.9736 180.093c-1.12988 47.0068 -0.961914 94.1475 1.16406 141.129c0.868164 19.208 53.1152 18.4238 52.2812 0
c-2.23926 -49.5225 -2.35254 -99.2275 -0.963867 -148.773zM115.031 9.83008c-0.0527344 -0.00878906 -0.138672 -0.00878906 -0.243164 -0.0117188l0.0263672 -0.0263672c0.0722656 0.0117188 0.129883 0.0263672 0.216797 0.0380859zM106.548 10.2627
c-5.35059 -0.342773 -2.6084 -0.847656 -0.751953 -0.522461c0.185547 0.136719 0.429688 0.307617 0.751953 0.522461zM112.371 330.841c0.581055 0.238281 0.176758 0.369141 -0.505859 0.467773c0.0146484 -0.0175781 0.0322266 -0.0322266 0.046875 -0.046875
c0.191406 -0.182617 0.310547 -0.319336 0.423828 -0.447266c0.0175781 0.00878906 0.0146484 0.0205078 0.0351562 0.0263672zM96.334 331.207c-0.24707 -0.0576172 -0.296875 -0.0732422 -0.0292969 -0.0234375
c0.00878906 0.00585938 0.0205078 0.0175781 0.0292969 0.0234375zM95.7266 331.04c0.142578 0.53125 -0.140625 0.21875 -0.21875 -0.0517578c-4.70508 -1.13574 -0.220703 -0.999023 0.136719 -0.206055c0.116211 0.0234375 0.336914 0.157227 0.638672 0.386719
c-0.197266 -0.0439453 -0.382812 -0.0878906 -0.556641 -0.128906z" />
    <glyph glyph-name="Y" unicode="&#xdd;" horiz-adv-x="234" 
d="M72.8281 549.942c1.56836 -55.8516 4.01953 -113.139 16.6543 -167.759c2.27148 -9.80859 5.10059 -19.5361 8.91113 -28.8652c1.69629 -4.15039 3.56641 -8.24902 5.80273 -12.1387c0.0898438 -0.157227 0.194336 -0.305664 0.28418 -0.462891
c11.8213 18.4463 17.2734 41.3896 21.7314 62.4736c6.79688 32.1387 10.7617 64.873 13.8721 97.5518c6.48633 68.1406 8.69922 136.636 10.1514 205.044c-0.101562 9.50098 13.1348 14.209 26.3154 14.1338c0.429688 -0.00292969 0.862305 -0.0205078 1.29199 -0.0292969
c0.304688 -0.0117188 0.612305 -0.0117188 0.916992 -0.0263672c12.3271 -0.525391 23.9424 -5.25977 23.7568 -14.0781c1.03418 -95.4199 2.09473 -190.84 2.85547 -286.26c0.569336 -71.4668 0.941406 -142.938 0.991211 -214.407
c0.0410156 -59.7578 -0.107422 -130.588 -32.4639 -183.523c-22.0049 -35.999 -68.666 -51.5264 -105.065 -25.3682c-38.7119 27.8193 -47.2979 88.4053 -51.7852 131.89c-1.85938 17.9932 50.2861 19.3232 52.2812 -0.000976562
c3.01465 -29.2051 7.99023 -58.8809 20.3486 -85.7539c3.78711 -8.23145 8.50977 -17.041 14.2695 -23.5703c1.89648 -2.14941 3.99316 -4.20898 6.23828 -6.03906c0.351562 0.307617 0.738281 0.65625 1.21191 1.10352c2.25684 2.12891 4.7373 4.53125 6.51465 6.73828
c12.748 15.8418 19.8555 37.1494 24.7383 56.5752c15.9404 63.4209 11.5107 130.635 11.2959 195.436c-0.0634766 19.6523 -0.200195 39.3018 -0.304688 58.9541c-5.64648 -8.5625 -12.8037 -15.9199 -22.2432 -20.5762
c-21.2178 -10.4678 -51.2744 -7.81055 -67.9785 9.80859c-14.4268 15.2197 -20.2383 36.9053 -25.1006 56.7021c-14.3428 58.4131 -16.5332 120.219 -17.9736 180.093c-1.12988 47.0068 -0.961914 94.1475 1.16406 141.129c0.868164 19.208 53.1152 18.4238 52.2812 0
c-2.23926 -49.5225 -2.35254 -99.2275 -0.963867 -148.773zM115.031 9.83008c-0.0527344 -0.00878906 -0.138672 -0.00878906 -0.243164 -0.0117188l0.0263672 -0.0263672c0.0722656 0.0117188 0.129883 0.0263672 0.216797 0.0380859zM106.548 10.2627
c-5.35059 -0.342773 -2.6084 -0.847656 -0.751953 -0.522461c0.185547 0.136719 0.429688 0.307617 0.751953 0.522461zM112.371 330.841c0.581055 0.238281 0.176758 0.369141 -0.505859 0.467773c0.0146484 -0.0175781 0.0322266 -0.0322266 0.046875 -0.046875
c0.191406 -0.182617 0.310547 -0.319336 0.423828 -0.447266c0.0175781 0.00878906 0.0146484 0.0205078 0.0351562 0.0263672zM96.334 331.207c-0.24707 -0.0576172 -0.296875 -0.0732422 -0.0292969 -0.0234375
c0.00878906 0.00585938 0.0205078 0.0175781 0.0292969 0.0234375zM95.7266 331.04c0.142578 0.53125 -0.140625 0.21875 -0.21875 -0.0517578c-4.70508 -1.13574 -0.220703 -0.999023 0.136719 -0.206055c0.116211 0.0234375 0.336914 0.157227 0.638672 0.386719
c-0.197266 -0.0439453 -0.382812 -0.0878906 -0.556641 -0.128906z" />
    <glyph glyph-name="Z" unicode="Z" horiz-adv-x="207" 
d="M6.15527 -0.454102c3.83691 18.2695 7.63672 36.5479 11.4385 54.8291c44.1494 212.389 87.6016 424.973 127.664 638.175c-37.6543 -0.795898 -75.2998 -2.61426 -112.96 -2.77148c-7.19727 -0.0292969 -26.4424 2.625 -26.1406 13.5928
c0.304688 11.1016 18.0049 13.5586 26.1406 13.5938c46.4727 0.194336 92.9219 2.93066 139.397 3.12793c14.6475 0.917969 30.2627 -4.08984 28.4883 -13.5732c-0.0263672 -0.981445 -0.232422 -1.87305 -0.513672 -2.72363
c-12.6465 -67.4902 -25.7227 -134.898 -39.0107 -202.264c-32.3594 -164.043 -65.7383 -327.897 -100.047 -491.545c34.4512 -1.01074 69.126 -2.94238 103.342 -0.62793c7.18555 0.485352 26.4336 -2.95117 26.1406 -13.5938
c-0.313477 -11.4521 -18.002 -13.041 -26.1406 -13.5928c-43.6084 -2.95117 -87.9727 1.02246 -131.657 1.15918c-7.06641 0.0205078 -25.7051 2.51562 -26.0947 13.0215c-0.244141 1.00195 -0.285156 2.0625 -0.046875 3.19238z" />
    <glyph glyph-name="bracketleft" unicode="[" horiz-adv-x="113" 
d="M116.118 -244.746c7.39453 -2.42578 18.793 -10.916 9.37598 -18.5986c-15.8506 -12.9424 -38.3955 -17.3193 -58.4082 -16.25c-15.3799 0.822266 -33.2461 5.36816 -34.6289 22.4668c-0.583984 7.20312 -0.438477 14.5342 -0.566406 21.7549
c-0.513672 29.1445 -0.696289 58.2979 -0.887695 87.4482c-0.65625 100.137 -0.819336 200.276 -0.929688 300.416c-0.130859 119.47 -0.0869141 238.942 0.12793 358.412c0.173828 96.9307 0.391602 193.864 1.07715 290.795
c0.188477 26.8994 0.345703 53.8066 0.862305 80.7031c0.104492 5.5127 -0.423828 11.6094 0.511719 17.0703c0.807617 4.71387 2.2334 7.89746 6.25 11.168c6.05566 4.93164 14.127 6.43945 21.7168 6.98828c4.65332 0.336914 8.9873 -0.479492 13.5479 -0.929688
c0.999023 -0.0986328 1.69922 -0.176758 2.25977 -0.246094c0.261719 0.00878906 0.514648 0.0175781 0.863281 0.0263672c13.5645 0.304688 25.4297 -0.648438 37.8643 -6.44629c10.2998 -4.80371 8.77246 -14.1738 0.000976562 -19.2217
c-8.52148 -4.90625 -20.0586 -5.19043 -29.876 -2.5498c0.0869141 -12.6611 -1.16504 -25.6992 -1.29883 -38.1221c-0.354492 -32.7861 -0.548828 -65.5723 -0.719727 -98.3584c-0.513672 -97.6416 -0.722656 -195.281 -0.853516 -292.923
c-0.151367 -112.348 -0.163086 -224.698 -0.00878906 -337.049c0.12793 -91.7197 0.301758 -183.437 0.928711 -275.153c0.185547 -27.1836 0.368164 -54.3701 0.841797 -81.5479c0.0693359 -4.01367 0.176758 -8.02148 0.28418 -12.0322
c9.30859 5.03027 22.1348 5.30371 31.665 2.17871zM84.8955 898.166c0.938477 2.07715 -0.298828 3.77539 -0.0146484 0.28125c0.00585938 -0.0927734 0.00878906 -0.188477 0.0146484 -0.28125zM74.6514 -252.468c-0.453125 1.41406 -3.125 -3.05566 0 0z" />
    <glyph glyph-name="backslash" unicode="\" horiz-adv-x="183" 
d="M176.435 -113.318c2.24805 -17.7324 -49.8242 -19.3877 -52.2812 -0.00292969c-8.96387 70.7139 -17.9277 141.425 -26.8887 212.136c-31.7324 250.357 -63.4619 500.715 -95.1943 751.072c-2.24805 17.7324 49.8242 19.3877 52.2812 0
c8.96387 -70.7109 17.9248 -141.422 26.8887 -212.133c31.7324 -250.357 63.4619 -500.715 95.1943 -751.072z" />
    <glyph glyph-name="bracketright" unicode="]" horiz-adv-x="113" 
d="M82.9932 467.381c0.168945 -119.324 0.186523 -238.647 0.00976562 -357.975c-0.142578 -94.4355 -0.308594 -188.877 -1.06348 -283.312c-0.197266 -24.7617 -0.310547 -49.5371 -0.966797 -74.293c-0.110352 -4.20312 0.328125 -9.02734 -0.604492 -13.166
c-2.99121 -13.2881 -19.123 -16.7939 -30.8457 -17.9902c-20.8779 -2.12891 -45.3252 2.48926 -61.8838 16.0098c-9.57617 7.81934 1.97852 16.1963 9.37891 18.5986c9.66602 3.13672 22.3906 2.88965 31.7021 -2.1875c0.229492 9.21582 0.357422 18.4316 0.479492 27.6475
c0.40625 31.0381 0.600586 62.0791 0.777344 93.1172c0.542969 95.7021 0.710938 191.407 0.806641 287.112c0.113281 112.473 0.0722656 224.948 -0.116211 337.421c-0.157227 93.916 -0.37793 187.834 -0.956055 281.747
c-0.179688 29.0596 -0.368164 58.1191 -0.765625 87.1758c-0.0957031 7.06055 -0.200195 14.1211 -0.376953 21.1787c-9.94824 -2.81152 -22.0283 -2.6748 -30.5908 2.34668c-8.62695 5.05664 -10.1025 14.5107 -0.000976562 19.2217
c12.6924 5.91992 23.5381 5.71094 36.6201 6.18457c0.746094 0.154297 2.86621 0.488281 7.48438 1.16504c4.48438 0.65625 9.46289 0.629883 13.8984 0c5.6084 -0.795898 11.5049 -2.11719 16.1982 -5.36719c12.9336 -8.95801 8.84961 -30.4287 9.03809 -44.1934
c0.432617 -31.125 0.621094 -62.2529 0.806641 -93.3779c0.610352 -102.354 0.825195 -204.707 0.970703 -307.063zM28.251 898.454c0.290039 3.55762 -1.3418 1.93652 -0.0117188 -0.410156c0.00878906 0.136719 0 0.276367 0.0117188 0.410156z" />
    <glyph glyph-name="asciicircum" unicode="^" horiz-adv-x="183" 
d="M162.518 542.6c2.77637 -17.3311 -49.1689 -19.4375 -52.2822 0.00292969c-6.19238 38.6621 -12.2891 77.3389 -18.3535 116.021c-6.61328 -40.3125 -13.1543 -80.6367 -19.4951 -120.992c-3.07324 -19.5654 -54.9893 -17.2334 -52.2822 -0.000976562
c14.8535 94.5312 30.6748 188.914 46.4521 283.294c3.16309 18.9141 49.3193 19.0039 52.2822 -0.000976562c14.4648 -92.7881 28.8281 -185.597 43.6787 -278.324z" />
    <glyph glyph-name="underscore" unicode="_" horiz-adv-x="260" 
d="M203.791 -131.939c7.19727 -0.0986328 26.4453 -2.53125 26.1406 -13.5918c-0.301758 -11 -18.0107 -13.707 -26.1406 -13.5938c-49.3457 0.679688 -98.2959 -7.42969 -147.647 -6.74707c-7.19727 0.0986328 -26.4453 2.53223 -26.1406 13.5928
c0.301758 10.999 18.0107 13.7061 26.1406 13.5928c49.3457 -0.679688 98.2959 7.42969 147.647 6.74707z" />
    <glyph glyph-name="grave" unicode="`" horiz-adv-x="90" 
d="M67.3174 812.92c-0.313477 -51.666 1.44629 -103.298 5.47754 -154.81c1.42871 -18.252 -50.7744 -19.2334 -52.2822 0.000976562c-4.03125 51.5117 -5.79102 103.14 -5.47754 154.809c0.116211 18.9668 52.3955 18.7432 52.2822 0z" />
    <glyph glyph-name="a" unicode="a" horiz-adv-x="309" 
d="M13.084 -1.96973c7.79297 53.8389 16.5908 107.527 25.5371 161.183c28.6709 171.949 59.291 343.594 90.6836 515.069c3.4502 18.8477 49.1621 19.0713 52.2812 0c3.50586 -21.4326 7.02344 -42.8594 10.5439 -64.2891
c16.835 -102.49 33.7598 -204.966 50.8447 -307.415c16.8291 -100.912 33.5273 -201.862 51.5039 -302.577c3.05273 -17.0986 -48.8105 -19.4512 -52.2812 0.000976562c-9.11133 51.0449 -17.79 102.168 -26.4424 153.294
c-8.40039 49.6357 -16.707 99.2861 -24.9883 148.942c-25.4121 0.214844 -50.8213 0.0693359 -76.2334 -0.0292969c-17.6768 -101.206 -34.4619 -202.563 -49.168 -304.179c-2.8291 -19.5508 -54.7969 -17.3838 -52.2812 0zM154.149 523.214
c-11.7373 -64.5654 -23.4453 -129.157 -34.8369 -193.807c22.3008 0.0957031 44.5986 0.197266 66.8994 0.0488281c-9.17285 55.125 -18.2988 110.259 -27.3984 165.396c-1.5625 9.45117 -3.10449 18.9082 -4.66406 28.3623z" />
    <glyph glyph-name="a" unicode="&#xe5;" horiz-adv-x="309" 
d="M13.084 -1.96973c7.79297 53.8389 16.5908 107.527 25.5371 161.183c28.6709 171.949 59.291 343.594 90.6836 515.069c3.4502 18.8477 49.1621 19.0713 52.2812 0c3.50586 -21.4326 7.02344 -42.8594 10.5439 -64.2891
c16.835 -102.49 33.7598 -204.966 50.8447 -307.415c16.8291 -100.912 33.5273 -201.862 51.5039 -302.577c3.05273 -17.0986 -48.8105 -19.4512 -52.2812 0.000976562c-9.11133 51.0449 -17.79 102.168 -26.4424 153.294
c-8.40039 49.6357 -16.707 99.2861 -24.9883 148.942c-25.4121 0.214844 -50.8213 0.0693359 -76.2334 -0.0292969c-17.6768 -101.206 -34.4619 -202.563 -49.168 -304.179c-2.8291 -19.5508 -54.7969 -17.3838 -52.2812 0zM154.149 523.214
c-11.7373 -64.5654 -23.4453 -129.157 -34.8369 -193.807c22.3008 0.0957031 44.5986 0.197266 66.8994 0.0488281c-9.17285 55.125 -18.2988 110.259 -27.3984 165.396c-1.5625 9.45117 -3.10449 18.9082 -4.66406 28.3623z" />
    <glyph glyph-name="a" unicode="&#xe4;" horiz-adv-x="309" 
d="M13.084 -1.96973c7.79297 53.8389 16.5908 107.527 25.5371 161.183c28.6709 171.949 59.291 343.594 90.6836 515.069c3.4502 18.8477 49.1621 19.0713 52.2812 0c3.50586 -21.4326 7.02344 -42.8594 10.5439 -64.2891
c16.835 -102.49 33.7598 -204.966 50.8447 -307.415c16.8291 -100.912 33.5273 -201.862 51.5039 -302.577c3.05273 -17.0986 -48.8105 -19.4512 -52.2812 0.000976562c-9.11133 51.0449 -17.79 102.168 -26.4424 153.294
c-8.40039 49.6357 -16.707 99.2861 -24.9883 148.942c-25.4121 0.214844 -50.8213 0.0693359 -76.2334 -0.0292969c-17.6768 -101.206 -34.4619 -202.563 -49.168 -304.179c-2.8291 -19.5508 -54.7969 -17.3838 -52.2812 0zM154.149 523.214
c-11.7373 -64.5654 -23.4453 -129.157 -34.8369 -193.807c22.3008 0.0957031 44.5986 0.197266 66.8994 0.0488281c-9.17285 55.125 -18.2988 110.259 -27.3984 165.396c-1.5625 9.45117 -3.10449 18.9082 -4.66406 28.3623z" />
    <glyph glyph-name="a" unicode="&#xe3;" horiz-adv-x="309" 
d="M13.084 -1.96973c7.79297 53.8389 16.5908 107.527 25.5371 161.183c28.6709 171.949 59.291 343.594 90.6836 515.069c3.4502 18.8477 49.1621 19.0713 52.2812 0c3.50586 -21.4326 7.02344 -42.8594 10.5439 -64.2891
c16.835 -102.49 33.7598 -204.966 50.8447 -307.415c16.8291 -100.912 33.5273 -201.862 51.5039 -302.577c3.05273 -17.0986 -48.8105 -19.4512 -52.2812 0.000976562c-9.11133 51.0449 -17.79 102.168 -26.4424 153.294
c-8.40039 49.6357 -16.707 99.2861 -24.9883 148.942c-25.4121 0.214844 -50.8213 0.0693359 -76.2334 -0.0292969c-17.6768 -101.206 -34.4619 -202.563 -49.168 -304.179c-2.8291 -19.5508 -54.7969 -17.3838 -52.2812 0zM154.149 523.214
c-11.7373 -64.5654 -23.4453 -129.157 -34.8369 -193.807c22.3008 0.0957031 44.5986 0.197266 66.8994 0.0488281c-9.17285 55.125 -18.2988 110.259 -27.3984 165.396c-1.5625 9.45117 -3.10449 18.9082 -4.66406 28.3623z" />
    <glyph glyph-name="a" unicode="&#xe2;" horiz-adv-x="309" 
d="M13.084 -1.96973c7.79297 53.8389 16.5908 107.527 25.5371 161.183c28.6709 171.949 59.291 343.594 90.6836 515.069c3.4502 18.8477 49.1621 19.0713 52.2812 0c3.50586 -21.4326 7.02344 -42.8594 10.5439 -64.2891
c16.835 -102.49 33.7598 -204.966 50.8447 -307.415c16.8291 -100.912 33.5273 -201.862 51.5039 -302.577c3.05273 -17.0986 -48.8105 -19.4512 -52.2812 0.000976562c-9.11133 51.0449 -17.79 102.168 -26.4424 153.294
c-8.40039 49.6357 -16.707 99.2861 -24.9883 148.942c-25.4121 0.214844 -50.8213 0.0693359 -76.2334 -0.0292969c-17.6768 -101.206 -34.4619 -202.563 -49.168 -304.179c-2.8291 -19.5508 -54.7969 -17.3838 -52.2812 0zM154.149 523.214
c-11.7373 -64.5654 -23.4453 -129.157 -34.8369 -193.807c22.3008 0.0957031 44.5986 0.197266 66.8994 0.0488281c-9.17285 55.125 -18.2988 110.259 -27.3984 165.396c-1.5625 9.45117 -3.10449 18.9082 -4.66406 28.3623z" />
    <glyph glyph-name="a" unicode="&#xe1;" horiz-adv-x="309" 
d="M13.084 -1.96973c7.79297 53.8389 16.5908 107.527 25.5371 161.183c28.6709 171.949 59.291 343.594 90.6836 515.069c3.4502 18.8477 49.1621 19.0713 52.2812 0c3.50586 -21.4326 7.02344 -42.8594 10.5439 -64.2891
c16.835 -102.49 33.7598 -204.966 50.8447 -307.415c16.8291 -100.912 33.5273 -201.862 51.5039 -302.577c3.05273 -17.0986 -48.8105 -19.4512 -52.2812 0.000976562c-9.11133 51.0449 -17.79 102.168 -26.4424 153.294
c-8.40039 49.6357 -16.707 99.2861 -24.9883 148.942c-25.4121 0.214844 -50.8213 0.0693359 -76.2334 -0.0292969c-17.6768 -101.206 -34.4619 -202.563 -49.168 -304.179c-2.8291 -19.5508 -54.7969 -17.3838 -52.2812 0zM154.149 523.214
c-11.7373 -64.5654 -23.4453 -129.157 -34.8369 -193.807c22.3008 0.0957031 44.5986 0.197266 66.8994 0.0488281c-9.17285 55.125 -18.2988 110.259 -27.3984 165.396c-1.5625 9.45117 -3.10449 18.9082 -4.66406 28.3623z" />
    <glyph glyph-name="b" unicode="b" horiz-adv-x="242" 
d="M32.042 687.328c0.0722656 7.13672 7.49707 11.5518 16.7246 13.292c34.4482 12.4434 75.5332 8.46387 106.745 -10.5352c37.7412 -22.9717 52.708 -60.7715 59.3887 -102.73c7.27344 -45.6738 8.5918 -93.0264 -0.310547 -138.575
c-7.55176 -38.6338 -22.0771 -75.7627 -48.7236 -105.281c-10.6221 -11.7637 -23.0566 -21.3633 -36.627 -28.959c6.41016 -2.55859 12.6348 -5.87598 18.5889 -10.2383c28.4473 -20.8428 40.2656 -58.5322 48.5352 -91.293
c9.66309 -38.2852 12.2334 -78.3682 4.05664 -117.188c-8.21973 -39.0342 -25.833 -87.5078 -62.5664 -108.165c-28.5957 -16.082 -66.1572 -15.002 -94.668 0.804688c-4.83008 1.55957 -8.7334 3.99609 -10.6533 7.31641
c-1.49023 1.83008 -1.80078 3.71777 -1.30664 5.54199c-1.88184 228.669 -1.59473 457.344 0.816406 686.01zM150.821 178.356c-4.33984 33.0859 -13.7764 73.7568 -35.25 100.24c-6.9707 8.60059 -16.8809 14.9648 -24.2959 16.2861
c-1.87012 0.333984 -1.97168 0.432617 -1.97168 0.447266c-0.00878906 -0.0117188 -0.226562 -0.101562 -3.02051 -0.0576172c-1.32715 0.0205078 -2.6543 0.00292969 -3.98145 -0.0234375c0.0117188 -96.6748 0.389648 -193.353 1.17676 -290.027
c5.97461 -3.11621 10.6426 -2.25977 17.4072 1.6582c17.4971 10.1338 27.5791 33.5039 35.1689 51.2715c16.1846 37.8838 20.0996 79.5527 14.7666 120.205zM95.4111 680.058c-4.85059 0.775391 -7.82422 1.07715 -11.1553 0.391602
c-1.21387 -117.169 -1.86133 -234.341 -1.9541 -351.516c18.1797 8.04297 33.8789 20.9102 46.1016 37.8232c42.209 58.4072 45.1719 138.419 36.1533 207.277c-4.53711 34.6221 -12.0625 71.0068 -41.335 93.4707c-8.3418 6.40137 -20.1543 11.3301 -27.8105 12.5527z" />
    <glyph glyph-name="c" unicode="c" 
d="M111.468 632.623c-19.7188 -51.0186 -27.459 -107.4 -32.6436 -161.585c-8.13574 -85.0537 -9.7334 -171.142 -3.19531 -256.361c3.19531 -41.6367 8.13574 -83.4912 17.3545 -124.263c6.33789 -28.0264 15.0078 -53.0166 32.1592 -75.541
c3.42188 3.88965 8.33301 10.5029 10.9209 15.3447c16.1318 30.1641 19.9102 66.2998 22.4023 99.8301c1.4375 19.3496 53.6289 18.1533 52.2812 0c-2.93066 -39.4434 -7.55176 -87.2783 -32.5371 -119.911c-20.0557 -26.1934 -58.0996 -34.3467 -87.2588 -17.8955
c-29.04 16.3848 -39.4785 55.1514 -47.083 85.0244c-12.0449 47.3242 -17.6533 96.4316 -21.084 145.06c-6.65723 94.4238 -4.82129 191.058 7.85156 284.933c4.44141 32.8994 10.582 65.6162 19.2432 97.6768c7.06641 26.1641 15.6982 57.7715 36.3115 76.9121
c21.8916 20.3291 61.4199 19.0391 81.252 -3.4541c25.6699 -29.1094 30.0352 -76.7871 33.3115 -113.611c1.61523 -18.1445 -50.5674 -19.2744 -52.2812 0c-1.9668 22.1094 -4.73145 44.5059 -11.0723 65.8428c-2.41113 8.12109 -5.29199 16.1758 -9.11133 23.751
c-1.03418 2.05078 -2.31543 3.87793 -3.64258 5.65234c-5.63477 -8.33594 -9.62891 -18.2197 -13.1787 -27.4043z" />
    <glyph glyph-name="d" unicode="d" horiz-adv-x="247" 
d="M32.0439 -2.4082c-2.41406 228.756 -2.70215 457.52 -0.814453 686.284c-0.417969 1.74023 -0.0927734 3.52344 1.27832 5.24316c1.99219 3.50586 6.16895 6.02441 11.3184 7.57227c32.9932 17.4736 75.9688 13.0439 105.808 -9.34766
c21.4854 -16.1201 33.9082 -41.9033 42.7725 -66.5713c19.0771 -53.0889 26.6787 -110.529 31.041 -166.503c5.12109 -65.7041 4.80176 -132.023 -0.999023 -197.672c-4.93457 -55.8545 -13.1084 -113.295 -32.9375 -166.047
c-11.4502 -30.46 -27.0996 -63.4697 -51.3086 -85.9307c-22.9463 -21.2871 -53.8477 -26.8721 -83.5781 -21.0283c-11.7314 0.807617 -22.4902 5.4668 -22.5801 14zM123.298 653.182c-7.62695 11.8916 -25.3828 31.4766 -39.8213 26.1963
c-1.80957 -222.642 -1.55078 -445.283 0.714844 -667.917c1.79199 1.07129 3.51172 2.28223 5.2168 3.65039c12.6787 10.1602 21.5117 24.5547 29.2607 38.6006c13.6748 24.7783 24.0029 51.0293 31.3018 78.3408c27.8809 104.313 29.6064 218.837 20.9043 325.835
c-3.97656 48.9062 -10.335 98.7773 -25.4736 145.631c-5.55664 17.2012 -12.3066 34.3877 -22.1035 49.6631z" />
    <glyph glyph-name="e" unicode="e" horiz-adv-x="230" 
d="M109.852 690.305c21.2266 10.3516 52.3301 7.71387 68.874 -10.3145c14.1338 -15.3945 18.877 -37.9014 22.8965 -57.71c7.45898 -36.748 10.1865 -74.5186 12.6289 -111.868c4.06934 -62.2354 5.84961 -124.613 7.39746 -186.953
c0.00878906 -0.342773 -0.0380859 -0.665039 -0.0644531 -0.996094c0.0146484 -0.25 0.0722656 -0.485352 0.0634766 -0.74707c-0.307617 -11.1357 -18.002 -13.5088 -26.1406 -13.5928c-37.7041 -0.389648 -75.4111 -0.166016 -113.118 -0.0556641
c0.185547 -20.8633 0.769531 -41.7178 1.8584 -62.5459c3.01465 -57.6611 8.12988 -117.233 23.8291 -173.013c5.2627 -18.6904 11.7256 -40.4512 24.6973 -55.4561c0.482422 -0.557617 1.56543 -1.49902 2.66602 -2.46289c10.2119 9.78223 15.9453 24.2207 20.3135 37.3086
c8.37988 25.1006 11.3662 51.8809 13.3184 78.1494c1.4375 19.3496 53.6289 18.1533 52.2812 0c-3.2793 -44.1318 -8.79785 -115.474 -54.457 -138.916c-20.4189 -10.4824 -47.832 -9.79688 -67.2949 2.38184c-20.709 12.957 -31.0488 37.5762 -38.3301 59.8516
c-20.0469 61.3174 -25.9609 128.069 -29.3037 192.152c-3.56348 68.373 -2.20117 137.08 3.38672 205.308c3.8916 47.5156 10.2725 94.8564 21.9375 141.141c8.25195 32.7344 18.8301 81.8906 52.5605 98.3389zM138.728 10.9697c1.16504 -2.63184 2.40234 0.510742 0 0z
M129.86 10.1826c-0.831055 -0.610352 -0.412109 -1.20508 0 0zM162.093 508.557c-2.42578 37.6309 -5.15137 75.6709 -12.5459 112.716c-2.66895 13.3721 -5.97168 27.6826 -12.9336 39.8994c-20.4512 -27.5381 -27.6309 -68.3125 -34.1689 -100.785
c-8.64355 -42.9434 -13.3662 -86.4219 -16.3525 -130.101c-2.16113 -31.6191 -3.41895 -63.3223 -3.71191 -95.0312c28.8975 -0.0839844 57.7949 -0.206055 86.6924 -0.0986328c-1.46973 57.8262 -3.25879 115.673 -6.97949 173.4zM144.699 670.017
c1.16797 0.276367 0.862305 0.607422 0 0z" />
    <glyph glyph-name="e" unicode="&#xeb;" horiz-adv-x="230" 
d="M109.852 690.305c21.2266 10.3516 52.3301 7.71387 68.874 -10.3145c14.1338 -15.3945 18.877 -37.9014 22.8965 -57.71c7.45898 -36.748 10.1865 -74.5186 12.6289 -111.868c4.06934 -62.2354 5.84961 -124.613 7.39746 -186.953
c0.00878906 -0.342773 -0.0380859 -0.665039 -0.0644531 -0.996094c0.0146484 -0.25 0.0722656 -0.485352 0.0634766 -0.74707c-0.307617 -11.1357 -18.002 -13.5088 -26.1406 -13.5928c-37.7041 -0.389648 -75.4111 -0.166016 -113.118 -0.0556641
c0.185547 -20.8633 0.769531 -41.7178 1.8584 -62.5459c3.01465 -57.6611 8.12988 -117.233 23.8291 -173.013c5.2627 -18.6904 11.7256 -40.4512 24.6973 -55.4561c0.482422 -0.557617 1.56543 -1.49902 2.66602 -2.46289c10.2119 9.78223 15.9453 24.2207 20.3135 37.3086
c8.37988 25.1006 11.3662 51.8809 13.3184 78.1494c1.4375 19.3496 53.6289 18.1533 52.2812 0c-3.2793 -44.1318 -8.79785 -115.474 -54.457 -138.916c-20.4189 -10.4824 -47.832 -9.79688 -67.2949 2.38184c-20.709 12.957 -31.0488 37.5762 -38.3301 59.8516
c-20.0469 61.3174 -25.9609 128.069 -29.3037 192.152c-3.56348 68.373 -2.20117 137.08 3.38672 205.308c3.8916 47.5156 10.2725 94.8564 21.9375 141.141c8.25195 32.7344 18.8301 81.8906 52.5605 98.3389zM138.728 10.9697c1.16504 -2.63184 2.40234 0.510742 0 0z
M129.86 10.1826c-0.831055 -0.610352 -0.412109 -1.20508 0 0zM162.093 508.557c-2.42578 37.6309 -5.15137 75.6709 -12.5459 112.716c-2.66895 13.3721 -5.97168 27.6826 -12.9336 39.8994c-20.4512 -27.5381 -27.6309 -68.3125 -34.1689 -100.785
c-8.64355 -42.9434 -13.3662 -86.4219 -16.3525 -130.101c-2.16113 -31.6191 -3.41895 -63.3223 -3.71191 -95.0312c28.8975 -0.0839844 57.7949 -0.206055 86.6924 -0.0986328c-1.46973 57.8262 -3.25879 115.673 -6.97949 173.4zM144.699 670.017
c1.16797 0.276367 0.862305 0.607422 0 0z" />
    <glyph glyph-name="e" unicode="&#xea;" horiz-adv-x="230" 
d="M109.852 690.305c21.2266 10.3516 52.3301 7.71387 68.874 -10.3145c14.1338 -15.3945 18.877 -37.9014 22.8965 -57.71c7.45898 -36.748 10.1865 -74.5186 12.6289 -111.868c4.06934 -62.2354 5.84961 -124.613 7.39746 -186.953
c0.00878906 -0.342773 -0.0380859 -0.665039 -0.0644531 -0.996094c0.0146484 -0.25 0.0722656 -0.485352 0.0634766 -0.74707c-0.307617 -11.1357 -18.002 -13.5088 -26.1406 -13.5928c-37.7041 -0.389648 -75.4111 -0.166016 -113.118 -0.0556641
c0.185547 -20.8633 0.769531 -41.7178 1.8584 -62.5459c3.01465 -57.6611 8.12988 -117.233 23.8291 -173.013c5.2627 -18.6904 11.7256 -40.4512 24.6973 -55.4561c0.482422 -0.557617 1.56543 -1.49902 2.66602 -2.46289c10.2119 9.78223 15.9453 24.2207 20.3135 37.3086
c8.37988 25.1006 11.3662 51.8809 13.3184 78.1494c1.4375 19.3496 53.6289 18.1533 52.2812 0c-3.2793 -44.1318 -8.79785 -115.474 -54.457 -138.916c-20.4189 -10.4824 -47.832 -9.79688 -67.2949 2.38184c-20.709 12.957 -31.0488 37.5762 -38.3301 59.8516
c-20.0469 61.3174 -25.9609 128.069 -29.3037 192.152c-3.56348 68.373 -2.20117 137.08 3.38672 205.308c3.8916 47.5156 10.2725 94.8564 21.9375 141.141c8.25195 32.7344 18.8301 81.8906 52.5605 98.3389zM138.728 10.9697c1.16504 -2.63184 2.40234 0.510742 0 0z
M129.86 10.1826c-0.831055 -0.610352 -0.412109 -1.20508 0 0zM162.093 508.557c-2.42578 37.6309 -5.15137 75.6709 -12.5459 112.716c-2.66895 13.3721 -5.97168 27.6826 -12.9336 39.8994c-20.4512 -27.5381 -27.6309 -68.3125 -34.1689 -100.785
c-8.64355 -42.9434 -13.3662 -86.4219 -16.3525 -130.101c-2.16113 -31.6191 -3.41895 -63.3223 -3.71191 -95.0312c28.8975 -0.0839844 57.7949 -0.206055 86.6924 -0.0986328c-1.46973 57.8262 -3.25879 115.673 -6.97949 173.4zM144.699 670.017
c1.16797 0.276367 0.862305 0.607422 0 0z" />
    <glyph glyph-name="e" unicode="&#xe9;" horiz-adv-x="230" 
d="M109.852 690.305c21.2266 10.3516 52.3301 7.71387 68.874 -10.3145c14.1338 -15.3945 18.877 -37.9014 22.8965 -57.71c7.45898 -36.748 10.1865 -74.5186 12.6289 -111.868c4.06934 -62.2354 5.84961 -124.613 7.39746 -186.953
c0.00878906 -0.342773 -0.0380859 -0.665039 -0.0644531 -0.996094c0.0146484 -0.25 0.0722656 -0.485352 0.0634766 -0.74707c-0.307617 -11.1357 -18.002 -13.5088 -26.1406 -13.5928c-37.7041 -0.389648 -75.4111 -0.166016 -113.118 -0.0556641
c0.185547 -20.8633 0.769531 -41.7178 1.8584 -62.5459c3.01465 -57.6611 8.12988 -117.233 23.8291 -173.013c5.2627 -18.6904 11.7256 -40.4512 24.6973 -55.4561c0.482422 -0.557617 1.56543 -1.49902 2.66602 -2.46289c10.2119 9.78223 15.9453 24.2207 20.3135 37.3086
c8.37988 25.1006 11.3662 51.8809 13.3184 78.1494c1.4375 19.3496 53.6289 18.1533 52.2812 0c-3.2793 -44.1318 -8.79785 -115.474 -54.457 -138.916c-20.4189 -10.4824 -47.832 -9.79688 -67.2949 2.38184c-20.709 12.957 -31.0488 37.5762 -38.3301 59.8516
c-20.0469 61.3174 -25.9609 128.069 -29.3037 192.152c-3.56348 68.373 -2.20117 137.08 3.38672 205.308c3.8916 47.5156 10.2725 94.8564 21.9375 141.141c8.25195 32.7344 18.8301 81.8906 52.5605 98.3389zM138.728 10.9697c1.16504 -2.63184 2.40234 0.510742 0 0z
M129.86 10.1826c-0.831055 -0.610352 -0.412109 -1.20508 0 0zM162.093 508.557c-2.42578 37.6309 -5.15137 75.6709 -12.5459 112.716c-2.66895 13.3721 -5.97168 27.6826 -12.9336 39.8994c-20.4512 -27.5381 -27.6309 -68.3125 -34.1689 -100.785
c-8.64355 -42.9434 -13.3662 -86.4219 -16.3525 -130.101c-2.16113 -31.6191 -3.41895 -63.3223 -3.71191 -95.0312c28.8975 -0.0839844 57.7949 -0.206055 86.6924 -0.0986328c-1.46973 57.8262 -3.25879 115.673 -6.97949 173.4zM144.699 670.017
c1.16797 0.276367 0.862305 0.607422 0 0z" />
    <glyph glyph-name="f" unicode="f" horiz-adv-x="179" 
d="M57.3271 701.258c30.2568 0.0839844 60.5947 1.51367 90.8311 0c7.19141 -0.360352 26.4512 -2.34668 26.1406 -13.5928c-0.295898 -10.8018 -18.0342 -14 -26.1406 -13.5938c-21.543 1.08008 -43.1357 0.662109 -64.7139 0.304688
c-0.90918 -114.015 -1.28125 -228.032 -1.12109 -342.047c16.6572 -0.354492 33.3262 -0.667969 49.9287 0.401367c7.18555 0.461914 26.4336 -2.93652 26.1406 -13.5938c-0.313477 -11.4326 -18.002 -13.0703 -26.1406 -13.5928
c-16.582 -1.06641 -33.2275 -0.755859 -49.8623 -0.401367c0.220703 -103.141 0.853516 -206.278 1.93652 -309.416c0.197266 -18.8477 -52.085 -18.8623 -52.2822 0c-2.41406 229.518 -2.70117 459.046 -0.810547 688.568
c0.00292969 0.470703 0.0634766 0.923828 0.129883 1.37109c-0.130859 0.632812 -0.197266 1.29785 -0.176758 1.99805c0.304688 11.0928 18.0049 13.5732 26.1406 13.5938z" />
    <glyph glyph-name="g" unicode="g" horiz-adv-x="245" 
d="M71.3506 672.459c20.5645 24.8945 53.4619 34.3213 85.0137 26.4268c6.75 -1.69043 12.8057 -4.22949 18.2773 -7.43652c13.1572 9.12891 46.8125 6.21289 47.0801 -8.95215c1.08887 -62.0352 3.77246 -124.035 4.83594 -186.076
c1.34766 -78.6846 1.44922 -157.468 -2.10547 -236.1c-3.01758 -66.7725 -7.01172 -135.366 -24.5898 -200.167c-5.54199 -20.4336 -12.667 -41.6514 -27.1582 -57.6172c-16.9072 -18.6299 -45.9727 -23.0156 -68.9072 -14.2031
c-29.3965 11.2959 -40.0479 46.252 -47.0713 73.9209c-13.7295 54.0967 -15.9688 110.982 -15.9629 166.538c0.00292969 18.9229 52.2852 18.7861 52.2822 0c-0.00878906 -57.2568 1.25195 -118.011 17.9297 -173.305c3.80176 -12.6084 9.70117 -28.9229 17.1426 -38.5547
c0.176758 0.261719 0.385742 0.566406 0.665039 0.972656c5.11523 7.42383 9.05078 15.4756 12.3594 23.8496c8.86719 22.4551 13.5605 46.4375 17.4121 70.1846c11.1182 68.5439 14.0107 138.488 15.6084 207.809c0.203125 8.8125 0.351562 17.6191 0.473633 26.4287
c-10.2178 -11.5518 -23.0615 -20.4658 -39.4082 -25.0176c-36.2637 -10.0938 -72.0879 2.15137 -90.7207 35.2607c-15.4609 27.4707 -21.6016 61.3643 -23.9395 92.498c-5.50977 73.334 1.76367 164.191 50.7832 223.54zM121.827 10.6777
c-0.0175781 -0.0117188 -0.0224609 -0.0175781 -0.0371094 -0.0322266c0.0527344 0.0175781 0.0996094 0.0292969 0.157227 0.0585938c-0.0380859 -0.00878906 -0.0849609 -0.0175781 -0.120117 -0.0263672zM136.252 9.43164
c1.44336 0.0957031 0.147461 0.450195 -1.34863 0.757812c0.182617 -0.170898 0.371094 -0.333984 0.547852 -0.513672c-0.139648 0.139648 -1.8623 -0.420898 0.800781 -0.244141zM108.176 344.834c0.479492 -0.0556641 0.825195 -0.111328 1.11816 -0.161133
c0.0146484 0.00878906 0.0322266 0.0146484 0.046875 0.0205078c-0.369141 0.0439453 -0.732422 0.0878906 -1.16504 0.140625zM147.55 662.887c-3.84863 4.91699 -8.19824 8.40918 -13.3193 11.0693c-0.566406 -0.136719 -1.25488 -0.333984 -2.12012 -0.629883
c0.740234 0.255859 -2.1875 -1.13574 -2.83789 -1.47852c4.01367 2.11426 -3.99707 -3.49707 -5.87598 -5.36133c-3.14844 -3.12207 -5.6084 -6.12793 -8.10352 -9.56152c-7.90918 -10.8887 -14.1885 -22.9951 -19.4746 -35.3398
c-26.8408 -62.6885 -31.3691 -139.505 -18.5254 -206.042c4.97559 -25.7725 13.1689 -50.9287 32.0859 -69.5908c0.333984 -0.328125 0.804688 -0.607422 1.30176 -0.842773c0.598633 0.151367 0.833984 0.171875 0.851562 0.119141
c0.292969 0.148438 0.635742 0.316406 1.09766 0.540039c0.947266 0.458984 -1.61133 -0.891602 1.8916 0.969727c5.21094 2.77051 11.5254 8.42578 16.5039 15.1846c28.2266 38.3193 32.833 93.9766 36.1445 139.781c2.66016 36.792 1.86719 73.4473 1.76855 110.274
c-3.98535 17.5547 -10.1338 36.5361 -21.3887 50.9082zM134.695 674.07c1.62109 -0.276367 2.12598 0.441406 0 0z" />
    <glyph glyph-name="h" unicode="h" horiz-adv-x="245" 
d="M82.5586 523.067c-0.255859 -63.6592 -0.27832 -127.317 -0.191406 -190.977c26.4658 -0.790039 52.9229 -2.28613 79.3945 -2.68359c-0.148438 118.279 0.220703 236.559 1.18164 354.835c0.154297 18.9814 52.4336 18.7285 52.2822 0
c-0.435547 -53.7227 -0.775391 -107.448 -0.993164 -161.174c-0.726562 -178.867 -0.0527344 -357.737 1.80371 -536.6c0.194336 -18.8477 -52.0879 -18.8594 -52.2822 0c-0.522461 50.3096 -0.963867 100.619 -1.29785 150.932
c-0.366211 54.9395 -0.560547 109.882 -0.670898 164.821c-26.4629 0.397461 -52.918 1.89355 -79.375 2.68359c0.223633 -106.146 0.850586 -212.293 1.95117 -318.437c0.194336 -18.8477 -52.0879 -18.8594 -52.2822 0
c-0.522461 50.3096 -0.963867 100.619 -1.29785 150.932c-1.21387 182.28 -0.993164 364.563 0.488281 546.841c0.154297 18.9814 52.4336 18.7285 52.2822 0c-0.435547 -53.7227 -0.775391 -107.448 -0.993164 -161.174z" />
    <glyph glyph-name="i" unicode="i" horiz-adv-x="114" 
d="M83.5518 684.24c-0.435547 -53.7227 -0.776367 -107.447 -0.994141 -161.173c-0.726562 -178.867 -0.0527344 -357.737 1.80371 -536.6c0.194336 -18.8477 -52.0879 -18.8594 -52.2822 0c-0.522461 50.3096 -0.963867 100.619 -1.29785 150.932
c-1.21387 182.28 -0.993164 364.563 0.488281 546.841c0.154297 18.9814 52.4336 18.7285 52.2822 0z" />
    <glyph glyph-name="i" unicode="&#xef;" horiz-adv-x="114" 
d="M83.5518 684.24c-0.435547 -53.7227 -0.776367 -107.447 -0.994141 -161.173c-0.726562 -178.867 -0.0527344 -357.737 1.80371 -536.6c0.194336 -18.8477 -52.0879 -18.8594 -52.2822 0c-0.522461 50.3096 -0.963867 100.619 -1.29785 150.932
c-1.21387 182.28 -0.993164 364.563 0.488281 546.841c0.154297 18.9814 52.4336 18.7285 52.2822 0z" />
    <glyph glyph-name="i" unicode="&#xee;" horiz-adv-x="114" 
d="M83.5518 684.24c-0.435547 -53.7227 -0.776367 -107.447 -0.994141 -161.173c-0.726562 -178.867 -0.0527344 -357.737 1.80371 -536.6c0.194336 -18.8477 -52.0879 -18.8594 -52.2822 0c-0.522461 50.3096 -0.963867 100.619 -1.29785 150.932
c-1.21387 182.28 -0.993164 364.563 0.488281 546.841c0.154297 18.9814 52.4336 18.7285 52.2822 0z" />
    <glyph glyph-name="i" unicode="&#xed;" horiz-adv-x="114" 
d="M83.5518 684.24c-0.435547 -53.7227 -0.776367 -107.447 -0.994141 -161.173c-0.726562 -178.867 -0.0527344 -357.737 1.80371 -536.6c0.194336 -18.8477 -52.0879 -18.8594 -52.2822 0c-0.522461 50.3096 -0.963867 100.619 -1.29785 150.932
c-1.21387 182.28 -0.993164 364.563 0.488281 546.841c0.154297 18.9814 52.4336 18.7285 52.2822 0z" />
    <glyph glyph-name="j" unicode="j" horiz-adv-x="174" 
d="M81.3857 56.2549c6.4043 26.1377 9.11621 53.248 10.499 80.0713c3.02344 58.5469 0.679688 117.651 0.592773 176.271c-0.176758 118.604 -0.525391 237.203 -1.53027 355.805c-2.85254 -0.0576172 -5.69629 -0.115234 -8.51074 -0.202148
c-7.36914 -0.226562 -14.7412 -0.386719 -22.1104 -0.657227c-2.3125 -0.0869141 -4.62988 -0.167969 -6.94238 -0.290039c-0.354492 -0.0751953 -4.54297 -0.464844 -5.27734 -0.575195c-8.42871 -1.27832 -28.0283 -0.651367 -32.1553 9.49414
c-4.32227 10.6191 10.4238 15.5303 18.2578 16.7207c22.4287 3.40723 47.2188 0.775391 67.7129 3.18066c15.3096 5.33301 41.0674 1.39746 41.1865 -11.8301c0.749023 -83.1514 1.22559 -166.303 1.4375 -249.457c0.157227 -60.8037 0.189453 -121.607 0.323242 -182.411
c0.142578 -64.1494 3.92188 -129.867 -10.4473 -192.89c-8.09473 -35.499 -22.3789 -78.4629 -65.8975 -78.4775c-43.9688 -0.0175781 -56.5225 43.1182 -63.3799 78.9287c-3.24121 16.9307 48.5586 19.4521 52.2822 0c2.26855 -11.8506 6.05566 -27.5234 11.4785 -39.2002
c5.94238 11.0459 9.62207 23.8516 12.4805 35.5195zM78.8545 6.53125c2.38477 -2.25977 0.650391 -0.101562 0 0z" />
    <glyph glyph-name="k" unicode="k" horiz-adv-x="225" 
d="M83.5518 684.24c-0.435547 -53.7227 -0.774414 -107.448 -0.992188 -161.174c-0.0634766 -16.0039 -0.0576172 -32.0049 -0.101562 -48.0088c24.8945 74.7715 50.0391 149.462 74.5967 224.344c5.4668 16.6719 57.0312 12.9453 50.415 -7.22656
c-24.0703 -73.3916 -48.5029 -146.664 -72.9131 -219.942c-15.3242 -45.9932 -30.8662 -91.9258 -45.6943 -138.082c-1.39746 -4.35645 -2.46094 -9.0498 -4.10742 -13.3545c2.58496 -4.91406 3.78711 -12.1924 5.61133 -17.0635
c38.3223 -102.432 82.8809 -202.749 126.716 -302.892c8.29492 -18.9521 -43.2637 -23.5615 -50.415 -7.22656c-28.499 65.1084 -56.6094 130.399 -83.834 196.057c0.351562 -67.7344 0.825195 -135.469 1.52832 -203.203c0.194336 -18.8477 -52.0879 -18.8594 -52.2822 0
c-0.522461 50.3096 -0.963867 100.619 -1.29785 150.932c-1.21387 182.28 -0.993164 364.563 0.488281 546.841c0.154297 18.9814 52.4336 18.7285 52.2822 0zM84.2959 319.552c-0.255859 -0.604492 0.175781 -0.25 0.225586 0.615234
c-0.078125 -0.203125 -0.141602 -0.415039 -0.225586 -0.615234z" />
    <glyph glyph-name="l" unicode="l" horiz-adv-x="157" 
d="M84.25 0.533203c15.458 -0.447266 30.9219 -0.910156 46.3594 -0.271484c7.19434 0.295898 26.4365 -2.81738 26.1406 -13.5928c-0.310547 -11.3076 -17.999 -13.2568 -26.1406 -13.5938c-24.1133 -0.999023 -48.3057 0.700195 -72.4248 0.810547
c-7.19727 0.0351562 -26.4424 2.58203 -26.1406 13.5928c0.0234375 0.882812 0.194336 1.69043 0.426758 2.46875c-0.25 0.836914 -0.418945 1.70215 -0.427734 2.62891c-2.41406 230.551 -2.70117 461.11 -0.810547 691.667c0.157227 18.9814 52.4365 18.7285 52.2822 0
c-1.87012 -227.905 -1.60254 -455.813 0.735352 -683.71z" />
    <glyph glyph-name="m" unicode="m" horiz-adv-x="272" 
d="M131.514 454.627c16.2773 80.7549 34.3447 161.209 55.9746 240.541c0.0527344 1.77148 0.560547 3.37207 1.44336 4.80371c3.45605 7.38086 16.9014 10.2734 29.0303 8.92285c11.499 -0.941406 21.8447 -5.60645 21.7891 -13.9541
c-1.56836 -234.983 0.429688 -469.958 2.46582 -704.93c0.163086 -18.8594 -52.1191 -18.8506 -52.2822 0c-1.38867 160.183 -2.73047 320.371 -2.96582 480.56c-10.2588 -50.2568 -19.7803 -100.653 -29.0195 -150.969c-3.5 -19.0654 -48.625 -18.8594 -52.2822 0
c-2.1084 10.8857 -4.23145 21.7695 -6.35449 32.6533c-5.65234 28.9668 -11.3076 57.9395 -16.9922 86.9062c-0.176758 -149.721 0.375 -299.438 1.66504 -449.153c0.163086 -18.8623 -52.1191 -18.8477 -52.2822 0c-2.0127 233.862 -2.24512 467.733 -0.676758 701.599
v0.00292969c-0.383789 1.79199 -0.09375 3.41602 0.678711 4.87695c6.06445 15.3945 51.7295 14.0557 51.6104 -3.46191c-0.00292969 -0.470703 -0.00585938 -0.944336 -0.00878906 -1.41797c6.98828 -32.6963 13.7236 -65.4482 20.3867 -98.2148
c9.39941 -46.2285 18.6621 -92.4863 27.8203 -138.765z" />
    <glyph glyph-name="n" unicode="n" horiz-adv-x="256" 
d="M31.0635 684.24c0.12793 18.9727 52.4082 18.7363 52.2803 0.00195312c-0.00585938 -0.856445 -0.00878906 -1.71582 -0.0146484 -2.57227c0.647461 -1.1123 1.12109 -2.31445 1.3623 -3.62402c10.1631 -55.2705 20.6631 -110.478 31.5176 -165.617
c18.1885 -92.3848 37.4424 -184.549 56.7783 -276.698c-0.482422 149.503 -0.220703 299.009 0.795898 448.512c0.12793 18.9727 52.4102 18.7373 52.2822 0c-0.366211 -53.7227 -0.647461 -107.448 -0.830078 -161.174
c-0.607422 -178.867 -0.046875 -357.737 1.50684 -536.6c0.157227 -18.1045 -47.9707 -18.8105 -51.9873 -2.17285c-1.49902 1.6377 -2.57031 3.52832 -3.01172 5.70996c-10.1426 50.0537 -20.4941 100.064 -30.9531 150.052
c-19.6377 93.8574 -39.3535 187.688 -58.4512 281.642c-0.139648 -145.079 0.426758 -290.158 1.6875 -435.231c0.163086 -18.8594 -52.1191 -18.8506 -52.2822 0c-0.438477 50.3096 -0.804688 100.619 -1.08691 150.932c-1.0166 182.28 -0.833984 364.563 0.40625 546.841z
" />
    <glyph glyph-name="o" unicode="o" horiz-adv-x="244" 
d="M41.9727 580.62c6.48633 29.873 13.8057 62.4541 29.9551 88.8711c15.917 26.0244 46.7314 35.7139 75.3672 22.6318c30.9482 -14.1396 41.6484 -54.1875 49.4414 -84.1621c12.5186 -48.1543 18.6299 -97.9443 22.7256 -147.452
c4.75488 -57.4609 5.6582 -115.168 3.74121 -172.782c-2.28027 -68.5127 -7.99902 -137.655 -23.8516 -204.492c-7.34277 -29.7109 -15.6465 -71.3418 -43.7803 -88.8906c-26.9922 -16.8379 -61.8174 -8.19727 -80.7578 16.0117
c-20.3408 26.002 -29.002 60.5488 -36.1934 92.1562c-8.3623 36.7539 -13.1719 74.3389 -15.8848 111.906c-5.08594 70.4521 -4.73145 141.803 -0.417969 212.287c3.15723 51.5908 8.67578 103.35 19.6553 153.915zM131.993 673.59
c-0.453125 -0.662109 -1.30664 -1.19141 -2.07031 -1.74023c0.737305 0.307617 1.4375 0.813477 2.07031 1.74023zM91.1143 565.308c-20.8086 -107.643 -22.7031 -219.766 -17.4229 -328.944c2.83203 -58.4805 9.12598 -119.79 29.0771 -175.221
c4.62988 -12.8584 10.082 -25.7139 17.7148 -37.1113c0.729492 -1.08594 1.4873 -2.14355 2.2627 -3.18066c2.27734 2.92773 4.4209 5.75977 5.16406 7.15723c2.3584 4.42969 4.37988 9.04785 6.25293 13.6982c5.41992 13.4512 9.42773 27.4629 12.9043 41.5264
c15.6465 65.9619 21.3975 134.163 23.7617 201.775c2.02441 57.9111 1.20215 115.933 -3.5 173.698c-3.57812 43.9746 -8.8125 88.0889 -18.4785 131.181c-5.38477 23.9941 -12.1816 51.7412 -26.8379 71.7305c-1.96973 -3.29102 -3.77637 -6.68066 -5.42871 -10.1367
c-12.9248 -26.998 -19.8203 -56.9414 -25.4697 -86.1729z" />
    <glyph glyph-name="o" unicode="&#xf6;" horiz-adv-x="244" 
d="M41.9727 580.62c6.48633 29.873 13.8057 62.4541 29.9551 88.8711c15.917 26.0244 46.7314 35.7139 75.3672 22.6318c30.9482 -14.1396 41.6484 -54.1875 49.4414 -84.1621c12.5186 -48.1543 18.6299 -97.9443 22.7256 -147.452
c4.75488 -57.4609 5.6582 -115.168 3.74121 -172.782c-2.28027 -68.5127 -7.99902 -137.655 -23.8516 -204.492c-7.34277 -29.7109 -15.6465 -71.3418 -43.7803 -88.8906c-26.9922 -16.8379 -61.8174 -8.19727 -80.7578 16.0117
c-20.3408 26.002 -29.002 60.5488 -36.1934 92.1562c-8.3623 36.7539 -13.1719 74.3389 -15.8848 111.906c-5.08594 70.4521 -4.73145 141.803 -0.417969 212.287c3.15723 51.5908 8.67578 103.35 19.6553 153.915zM131.993 673.59
c-0.453125 -0.662109 -1.30664 -1.19141 -2.07031 -1.74023c0.737305 0.307617 1.4375 0.813477 2.07031 1.74023zM91.1143 565.308c-20.8086 -107.643 -22.7031 -219.766 -17.4229 -328.944c2.83203 -58.4805 9.12598 -119.79 29.0771 -175.221
c4.62988 -12.8584 10.082 -25.7139 17.7148 -37.1113c0.729492 -1.08594 1.4873 -2.14355 2.2627 -3.18066c2.27734 2.92773 4.4209 5.75977 5.16406 7.15723c2.3584 4.42969 4.37988 9.04785 6.25293 13.6982c5.41992 13.4512 9.42773 27.4629 12.9043 41.5264
c15.6465 65.9619 21.3975 134.163 23.7617 201.775c2.02441 57.9111 1.20215 115.933 -3.5 173.698c-3.57812 43.9746 -8.8125 88.0889 -18.4785 131.181c-5.38477 23.9941 -12.1816 51.7412 -26.8379 71.7305c-1.96973 -3.29102 -3.77637 -6.68066 -5.42871 -10.1367
c-12.9248 -26.998 -19.8203 -56.9414 -25.4697 -86.1729z" />
    <glyph glyph-name="o" unicode="&#xf5;" horiz-adv-x="244" 
d="M41.9727 580.62c6.48633 29.873 13.8057 62.4541 29.9551 88.8711c15.917 26.0244 46.7314 35.7139 75.3672 22.6318c30.9482 -14.1396 41.6484 -54.1875 49.4414 -84.1621c12.5186 -48.1543 18.6299 -97.9443 22.7256 -147.452
c4.75488 -57.4609 5.6582 -115.168 3.74121 -172.782c-2.28027 -68.5127 -7.99902 -137.655 -23.8516 -204.492c-7.34277 -29.7109 -15.6465 -71.3418 -43.7803 -88.8906c-26.9922 -16.8379 -61.8174 -8.19727 -80.7578 16.0117
c-20.3408 26.002 -29.002 60.5488 -36.1934 92.1562c-8.3623 36.7539 -13.1719 74.3389 -15.8848 111.906c-5.08594 70.4521 -4.73145 141.803 -0.417969 212.287c3.15723 51.5908 8.67578 103.35 19.6553 153.915zM131.993 673.59
c-0.453125 -0.662109 -1.30664 -1.19141 -2.07031 -1.74023c0.737305 0.307617 1.4375 0.813477 2.07031 1.74023zM91.1143 565.308c-20.8086 -107.643 -22.7031 -219.766 -17.4229 -328.944c2.83203 -58.4805 9.12598 -119.79 29.0771 -175.221
c4.62988 -12.8584 10.082 -25.7139 17.7148 -37.1113c0.729492 -1.08594 1.4873 -2.14355 2.2627 -3.18066c2.27734 2.92773 4.4209 5.75977 5.16406 7.15723c2.3584 4.42969 4.37988 9.04785 6.25293 13.6982c5.41992 13.4512 9.42773 27.4629 12.9043 41.5264
c15.6465 65.9619 21.3975 134.163 23.7617 201.775c2.02441 57.9111 1.20215 115.933 -3.5 173.698c-3.57812 43.9746 -8.8125 88.0889 -18.4785 131.181c-5.38477 23.9941 -12.1816 51.7412 -26.8379 71.7305c-1.96973 -3.29102 -3.77637 -6.68066 -5.42871 -10.1367
c-12.9248 -26.998 -19.8203 -56.9414 -25.4697 -86.1729z" />
    <glyph glyph-name="o" unicode="&#xf4;" horiz-adv-x="244" 
d="M41.9727 580.62c6.48633 29.873 13.8057 62.4541 29.9551 88.8711c15.917 26.0244 46.7314 35.7139 75.3672 22.6318c30.9482 -14.1396 41.6484 -54.1875 49.4414 -84.1621c12.5186 -48.1543 18.6299 -97.9443 22.7256 -147.452
c4.75488 -57.4609 5.6582 -115.168 3.74121 -172.782c-2.28027 -68.5127 -7.99902 -137.655 -23.8516 -204.492c-7.34277 -29.7109 -15.6465 -71.3418 -43.7803 -88.8906c-26.9922 -16.8379 -61.8174 -8.19727 -80.7578 16.0117
c-20.3408 26.002 -29.002 60.5488 -36.1934 92.1562c-8.3623 36.7539 -13.1719 74.3389 -15.8848 111.906c-5.08594 70.4521 -4.73145 141.803 -0.417969 212.287c3.15723 51.5908 8.67578 103.35 19.6553 153.915zM131.993 673.59
c-0.453125 -0.662109 -1.30664 -1.19141 -2.07031 -1.74023c0.737305 0.307617 1.4375 0.813477 2.07031 1.74023zM91.1143 565.308c-20.8086 -107.643 -22.7031 -219.766 -17.4229 -328.944c2.83203 -58.4805 9.12598 -119.79 29.0771 -175.221
c4.62988 -12.8584 10.082 -25.7139 17.7148 -37.1113c0.729492 -1.08594 1.4873 -2.14355 2.2627 -3.18066c2.27734 2.92773 4.4209 5.75977 5.16406 7.15723c2.3584 4.42969 4.37988 9.04785 6.25293 13.6982c5.41992 13.4512 9.42773 27.4629 12.9043 41.5264
c15.6465 65.9619 21.3975 134.163 23.7617 201.775c2.02441 57.9111 1.20215 115.933 -3.5 173.698c-3.57812 43.9746 -8.8125 88.0889 -18.4785 131.181c-5.38477 23.9941 -12.1816 51.7412 -26.8379 71.7305c-1.96973 -3.29102 -3.77637 -6.68066 -5.42871 -10.1367
c-12.9248 -26.998 -19.8203 -56.9414 -25.4697 -86.1729z" />
    <glyph glyph-name="o" unicode="&#xf3;" horiz-adv-x="244" 
d="M41.9727 580.62c6.48633 29.873 13.8057 62.4541 29.9551 88.8711c15.917 26.0244 46.7314 35.7139 75.3672 22.6318c30.9482 -14.1396 41.6484 -54.1875 49.4414 -84.1621c12.5186 -48.1543 18.6299 -97.9443 22.7256 -147.452
c4.75488 -57.4609 5.6582 -115.168 3.74121 -172.782c-2.28027 -68.5127 -7.99902 -137.655 -23.8516 -204.492c-7.34277 -29.7109 -15.6465 -71.3418 -43.7803 -88.8906c-26.9922 -16.8379 -61.8174 -8.19727 -80.7578 16.0117
c-20.3408 26.002 -29.002 60.5488 -36.1934 92.1562c-8.3623 36.7539 -13.1719 74.3389 -15.8848 111.906c-5.08594 70.4521 -4.73145 141.803 -0.417969 212.287c3.15723 51.5908 8.67578 103.35 19.6553 153.915zM131.993 673.59
c-0.453125 -0.662109 -1.30664 -1.19141 -2.07031 -1.74023c0.737305 0.307617 1.4375 0.813477 2.07031 1.74023zM91.1143 565.308c-20.8086 -107.643 -22.7031 -219.766 -17.4229 -328.944c2.83203 -58.4805 9.12598 -119.79 29.0771 -175.221
c4.62988 -12.8584 10.082 -25.7139 17.7148 -37.1113c0.729492 -1.08594 1.4873 -2.14355 2.2627 -3.18066c2.27734 2.92773 4.4209 5.75977 5.16406 7.15723c2.3584 4.42969 4.37988 9.04785 6.25293 13.6982c5.41992 13.4512 9.42773 27.4629 12.9043 41.5264
c15.6465 65.9619 21.3975 134.163 23.7617 201.775c2.02441 57.9111 1.20215 115.933 -3.5 173.698c-3.57812 43.9746 -8.8125 88.0889 -18.4785 131.181c-5.38477 23.9941 -12.1816 51.7412 -26.8379 71.7305c-1.96973 -3.29102 -3.77637 -6.68066 -5.42871 -10.1367
c-12.9248 -26.998 -19.8203 -56.9414 -25.4697 -86.1729z" />
    <glyph glyph-name="p" unicode="p" horiz-adv-x="222" 
d="M175.052 669.299c20.3926 -28.2178 28.248 -65.3857 32.3838 -99.3105c4.82422 -39.5625 4.02832 -80.1914 -2.16699 -119.557c-5.43164 -34.5176 -14.3926 -70.0312 -37.5625 -97.1191c-14.2529 -16.6631 -33.1152 -27.9648 -53.5518 -35.4385
c-9.63477 -3.52637 -19.583 -5.83301 -29.6006 -7.9707c-0.720703 -0.151367 -1.44434 -0.293945 -2.16797 -0.442383c0.211914 -103.959 0.847656 -207.918 1.94238 -311.874c0.197266 -18.8477 -52.085 -18.8623 -52.2822 0
c-2.41406 228.934 -2.70117 457.876 -0.810547 686.815c0.0117188 1.21387 0.241211 2.34961 0.650391 3.40723c-0.0634766 3.49121 2.13281 6.93262 7.00977 9.34668c44.5469 22.0254 106.173 13.6367 136.156 -27.8574zM153.758 455.562
c4.83594 33.623 5.73633 67.9785 2.72168 101.811c-2.75977 30.9678 -8.47266 62.877 -23.1494 90.6299c-9.9248 18.7754 -28.1768 37.8379 -49.8301 32.7002c-0.926758 -113.751 -1.31934 -227.502 -1.17969 -341.256c1.28711 0.429688 2.57129 0.850586 3.91602 1.35645
c18.0137 6.75293 32.9287 19.542 43.042 35.8506c14.5518 23.4629 20.6016 51.9365 24.4795 78.9082z" />
    <glyph glyph-name="q" unicode="q" horiz-adv-x="244" 
d="M71.9355 669.491c15.9141 26.0215 46.7275 35.708 75.3633 22.626c30.9482 -14.1396 41.6484 -54.1875 49.4414 -84.1621c12.5186 -48.1543 18.6299 -97.9443 22.7256 -147.452c4.75195 -57.4609 5.65527 -115.168 3.73828 -172.782
c-2.28027 -68.5127 -7.99902 -137.655 -23.8516 -204.492c-6.09375 -24.6504 -12.8877 -57.46 -31.0791 -77.96c7.06934 -33.957 13.7354 -67.9951 19.9746 -102.12c3.11621 -17.0439 -48.7266 -19.4521 -52.2812 0c-5.05078 27.6279 -10.4102 55.1982 -16.001 82.7188
c-17.3281 1.43457 -33.9971 10.2295 -45.1533 24.4883c-20.3438 26.002 -29.002 60.5488 -36.1934 92.1562c-8.3623 36.7539 -13.1719 74.3389 -15.8848 111.906c-5.08594 70.4531 -4.73145 141.804 -0.417969 212.288c3.15723 51.5908 8.67578 103.35 19.6553 153.915
c6.48633 29.873 13.8086 62.4561 29.9639 88.8701zM131.992 673.587c-0.453125 -0.662109 -1.30664 -1.19141 -2.07031 -1.74023c0.737305 0.307617 1.4375 0.813477 2.07031 1.74023zM116.587 651.477c-12.9248 -26.998 -19.8184 -56.9385 -25.4678 -86.1699
c-20.8086 -107.643 -22.708 -219.767 -17.4219 -328.942c2.8291 -58.4805 9.12598 -119.79 29.0771 -175.221c0.90332 -2.51562 1.85352 -5.02832 2.83203 -7.53223c-2.83789 12.8145 -5.69922 25.626 -8.6709 38.415c-3.78711 16.2979 47.2656 19.377 52.1973 0.267578
c14.0811 63.1357 19.4424 128.188 21.6992 192.71c2.02441 57.9111 1.20215 115.933 -3.5 173.698c-3.57812 43.9746 -8.8125 88.0889 -18.4785 131.181c-5.38477 23.9941 -12.1816 51.7412 -26.8379 71.7305c-1.96973 -3.29102 -3.77344 -6.68066 -5.42871 -10.1367z" />
    <glyph glyph-name="r" unicode="r" horiz-adv-x="228" 
d="M31.8867 687.812c-0.0634766 3.48828 2.13477 6.93066 7.01172 9.3418c44.5469 22.0254 106.173 13.6367 136.156 -27.8574c20.3896 -28.2178 28.2432 -65.3848 32.3789 -99.3096c4.82422 -39.5625 4.02832 -80.1914 -2.16699 -119.557
c-5.43164 -34.5176 -14.3926 -70.0312 -37.5625 -97.1191c-14.2529 -16.6631 -33.1152 -27.9648 -53.5518 -35.4385c-5.59961 -2.04785 -11.3096 -3.66016 -17.0723 -5.0918c32.624 -103.934 70.6006 -206.104 103.735 -309.871
c6.51758 -20.4072 -45.1426 -23.7383 -50.4141 -7.22559c-21.4326 67.1152 -44.8809 133.565 -67.6094 200.251c0.339844 -66.1162 0.839844 -132.232 1.53711 -198.346c0.197266 -18.8477 -52.085 -18.8623 -52.2822 0
c-2.41406 228.934 -2.70117 457.876 -0.810547 686.815c0.0117188 1.21387 0.241211 2.34961 0.650391 3.40723zM133.327 648.001c-9.92773 18.7754 -28.1807 37.8389 -49.834 32.6982c-0.926758 -113.751 -1.32129 -227.502 -1.17871 -341.256
c1.29004 0.429688 2.57422 0.850586 3.91895 1.35645c18.0137 6.75293 32.9287 19.542 43.042 35.8506c14.5518 23.4629 20.6016 51.9365 24.4795 78.9082c4.83594 33.623 5.73633 67.9805 2.72168 101.812c-2.75977 30.9678 -8.47266 62.877 -23.1494 90.6299z" />
    <glyph glyph-name="s" unicode="s" horiz-adv-x="249" 
d="M25.0654 596.064c7.47363 37.6396 24.2188 87.1123 60.6504 106.41c25.6562 13.5957 60.8125 11.8965 82.8955 -7.89258c30.5068 -27.3379 36.2842 -77.1855 39.8828 -115.253c1.71094 -18.0869 -50.458 -19.2949 -52.2822 0
c-2.5791 27.291 -6.375 55.5518 -18.3301 80.5508c-3.07617 6.43652 -6.61719 12.9307 -11.5117 18.168c-0.525391 0.563477 -3.7002 3.44727 -4.83008 4.53027c-0.226562 -0.12793 -0.444336 -0.264648 -0.667969 -0.392578
c0.49707 0.167969 -3.67383 -2.96875 -4.60352 -3.82812c-19.0859 -17.6426 -29.9023 -46.8447 -36.417 -71.3535c-21.9209 -82.457 -2.8584 -167.952 42.293 -238.454c38.8711 -60.6992 84.9316 -114.39 101.874 -186.309
c11.5342 -48.959 10.9443 -104.764 -13.4805 -149.961c-23.0039 -42.5752 -70.9932 -64.0107 -117.893 -49.0059c-23.0068 7.36035 -38.54 26.832 -48.3896 48.1455c-19.5508 42.3047 -20.8496 91.6904 -17.5996 137.304c1.37695 19.3359 53.5771 18.1826 52.2812 0
c-3.35156 -47.042 -3.06445 -100.909 22.3652 -142.598c3.39844 -5.56836 6.11133 -9.33887 9.9541 -13.1318c1.74609 -1.72559 3.59961 -3.2793 5.46387 -4.87109c0.453125 -0.386719 0.757812 -0.667969 0.969727 -0.885742
c0.223633 -0.0556641 0.507812 -0.136719 0.916992 -0.282227c2.90137 -1.02246 4.99512 -1.60645 7.83301 -0.697266c9.53516 3.05859 17.6826 10.4482 23.916 18.1045c32.7139 40.1904 33.0244 101.357 23.1982 149.57
c-7.35742 36.1006 -23.2539 69.6602 -42.7402 100.719c-37.9336 60.4609 -85.0654 113.489 -102.81 184.415c-11.0576 44.1953 -11.8066 92.3291 -2.93945 136.998zM118.92 683.93c-0.953125 0.453125 -1.80371 0.902344 -1.8418 1.14648
c0.342773 -2.12305 1.45801 -1.74512 1.8418 -1.14648z" />
    <glyph glyph-name="t" unicode="t" horiz-adv-x="192" 
d="M25.1406 701.267c22.7539 -0.142578 45.5312 -1.50879 68.2734 -2.2002c15.0049 -0.456055 30.0098 -0.882812 45.0205 -1.05957c5.39648 -0.0634766 10.7988 -0.119141 16.1953 -0.0410156c1.80664 0.0263672 3.66016 0.154297 5.48438 0.160156
c8.5332 1.20215 27.8633 0.594727 31.9795 -9.51562c4.31055 -10.5898 -10.4102 -15.5742 -18.2578 -16.7217c-16.8838 -2.46875 -34.5869 -1.99512 -52.0488 -1.19922c-1.86426 -228.076 -1.57422 -456.152 0.831055 -684.223
c0.197266 -18.8477 -52.085 -18.8623 -52.2822 0c-2.41406 228.771 -2.70117 457.55 -0.816406 686.326c-14.793 0.601562 -29.5918 1.19434 -44.3789 1.28711c-7.19727 0.046875 -26.4424 2.57422 -26.1406 13.5938c0.304688 11.043 18.0078 13.6455 26.1406 13.5928z" />
    <glyph glyph-name="u" unicode="u" horiz-adv-x="256" 
d="M161.136 152.244c7.73145 60.2695 11.3994 121.06 13.9756 181.741c5.24316 123.814 4.9873 247.812 3.70605 371.706c-0.194336 18.8477 52.0879 18.8623 52.2822 0c0.139648 -13.4307 0.267578 -26.8643 0.375 -40.2979
c1.05762 -132.767 0.822266 -265.824 -7.58301 -398.379c-3.64551 -57.4863 -8.29297 -115.449 -19.6152 -172.013c-5.99512 -29.9434 -12.8584 -72.623 -38.8135 -92.8506c-28.4619 -22.1816 -69.6514 -10.2734 -88.7256 17.5869
c-19.9482 29.1357 -26.5244 68.6494 -32.4004 102.682c-18.5947 107.683 -19.9482 218.813 -20.3145 327.812c-0.279297 83.0322 1.74805 166.035 4.72266 249.01c0.688477 19.1553 52.9473 18.5078 52.2822 0c-0.188477 -5.32715 -0.382812 -10.6543 -0.571289 -15.9814
c-3.06152 -86.3027 -4.78418 -172.669 -3.98828 -259.027c0.953125 -103.483 2.75391 -209.247 21.8486 -311.264c5.47754 -29.2637 11.9434 -63.4297 30.248 -87.9648c1.64355 2.57324 3.11621 5.25684 4.4873 7.98438c18.1387 36.1182 23.0156 79.7383 28.084 119.255z
M135.887 17.6807c0.958984 -0.167969 0.714844 -0.12207 0 0zM121.317 16.4629c-0.485352 -0.52832 -0.341797 -0.40918 0.117188 0.0410156c-0.0410156 -0.0146484 -0.0791016 -0.0292969 -0.117188 -0.0410156zM135.176 17.8018
c0.139648 -0.0546875 0.276367 -0.0761719 0.424805 -0.0732422c-0.00585938 0 -0.0117188 0.00292969 -0.0175781 0.00292969c-0.12793 0.0234375 -0.264648 0.046875 -0.407227 0.0703125zM135.809 17.6904
c-0.00878906 -0.0527344 0.0957031 -0.114258 0.301758 -0.183594c-0.078125 0.0605469 -0.150391 0.113281 -0.222656 0.168945c-0.0263672 0.00585938 -0.0527344 0.0117188 -0.0791016 0.0146484zM136.116 17.5068c1.64648 -0.551758 8.6416 -1.44629 -0.222656 0.168945
c0.0751953 -0.0556641 0.150391 -0.111328 0.222656 -0.168945z" />
    <glyph glyph-name="u" unicode="&#xfc;" horiz-adv-x="256" 
d="M161.136 152.244c7.73145 60.2695 11.3994 121.06 13.9756 181.741c5.24316 123.814 4.9873 247.812 3.70605 371.706c-0.194336 18.8477 52.0879 18.8623 52.2822 0c0.139648 -13.4307 0.267578 -26.8643 0.375 -40.2979
c1.05762 -132.767 0.822266 -265.824 -7.58301 -398.379c-3.64551 -57.4863 -8.29297 -115.449 -19.6152 -172.013c-5.99512 -29.9434 -12.8584 -72.623 -38.8135 -92.8506c-28.4619 -22.1816 -69.6514 -10.2734 -88.7256 17.5869
c-19.9482 29.1357 -26.5244 68.6494 -32.4004 102.682c-18.5947 107.683 -19.9482 218.813 -20.3145 327.812c-0.279297 83.0322 1.74805 166.035 4.72266 249.01c0.688477 19.1553 52.9473 18.5078 52.2822 0c-0.188477 -5.32715 -0.382812 -10.6543 -0.571289 -15.9814
c-3.06152 -86.3027 -4.78418 -172.669 -3.98828 -259.027c0.953125 -103.483 2.75391 -209.247 21.8486 -311.264c5.47754 -29.2637 11.9434 -63.4297 30.248 -87.9648c1.64355 2.57324 3.11621 5.25684 4.4873 7.98438c18.1387 36.1182 23.0156 79.7383 28.084 119.255z
M135.887 17.6807c0.958984 -0.167969 0.714844 -0.12207 0 0zM121.317 16.4629c-0.485352 -0.52832 -0.341797 -0.40918 0.117188 0.0410156c-0.0410156 -0.0146484 -0.0791016 -0.0292969 -0.117188 -0.0410156zM135.176 17.8018
c0.139648 -0.0546875 0.276367 -0.0761719 0.424805 -0.0732422c-0.00585938 0 -0.0117188 0.00292969 -0.0175781 0.00292969c-0.12793 0.0234375 -0.264648 0.046875 -0.407227 0.0703125zM135.809 17.6904
c-0.00878906 -0.0527344 0.0957031 -0.114258 0.301758 -0.183594c-0.078125 0.0605469 -0.150391 0.113281 -0.222656 0.168945c-0.0263672 0.00585938 -0.0527344 0.0117188 -0.0791016 0.0146484zM136.116 17.5068c1.64648 -0.551758 8.6416 -1.44629 -0.222656 0.168945
c0.0751953 -0.0556641 0.150391 -0.111328 0.222656 -0.168945z" />
    <glyph glyph-name="u" unicode="&#xfb;" horiz-adv-x="256" 
d="M161.136 152.244c7.73145 60.2695 11.3994 121.06 13.9756 181.741c5.24316 123.814 4.9873 247.812 3.70605 371.706c-0.194336 18.8477 52.0879 18.8623 52.2822 0c0.139648 -13.4307 0.267578 -26.8643 0.375 -40.2979
c1.05762 -132.767 0.822266 -265.824 -7.58301 -398.379c-3.64551 -57.4863 -8.29297 -115.449 -19.6152 -172.013c-5.99512 -29.9434 -12.8584 -72.623 -38.8135 -92.8506c-28.4619 -22.1816 -69.6514 -10.2734 -88.7256 17.5869
c-19.9482 29.1357 -26.5244 68.6494 -32.4004 102.682c-18.5947 107.683 -19.9482 218.813 -20.3145 327.812c-0.279297 83.0322 1.74805 166.035 4.72266 249.01c0.688477 19.1553 52.9473 18.5078 52.2822 0c-0.188477 -5.32715 -0.382812 -10.6543 -0.571289 -15.9814
c-3.06152 -86.3027 -4.78418 -172.669 -3.98828 -259.027c0.953125 -103.483 2.75391 -209.247 21.8486 -311.264c5.47754 -29.2637 11.9434 -63.4297 30.248 -87.9648c1.64355 2.57324 3.11621 5.25684 4.4873 7.98438c18.1387 36.1182 23.0156 79.7383 28.084 119.255z
M135.887 17.6807c0.958984 -0.167969 0.714844 -0.12207 0 0zM121.317 16.4629c-0.485352 -0.52832 -0.341797 -0.40918 0.117188 0.0410156c-0.0410156 -0.0146484 -0.0791016 -0.0292969 -0.117188 -0.0410156zM135.176 17.8018
c0.139648 -0.0546875 0.276367 -0.0761719 0.424805 -0.0732422c-0.00585938 0 -0.0117188 0.00292969 -0.0175781 0.00292969c-0.12793 0.0234375 -0.264648 0.046875 -0.407227 0.0703125zM135.809 17.6904
c-0.00878906 -0.0527344 0.0957031 -0.114258 0.301758 -0.183594c-0.078125 0.0605469 -0.150391 0.113281 -0.222656 0.168945c-0.0263672 0.00585938 -0.0527344 0.0117188 -0.0791016 0.0146484zM136.116 17.5068c1.64648 -0.551758 8.6416 -1.44629 -0.222656 0.168945
c0.0751953 -0.0556641 0.150391 -0.111328 0.222656 -0.168945z" />
    <glyph glyph-name="u" unicode="&#xfa;" horiz-adv-x="256" 
d="M161.136 152.244c7.73145 60.2695 11.3994 121.06 13.9756 181.741c5.24316 123.814 4.9873 247.812 3.70605 371.706c-0.194336 18.8477 52.0879 18.8623 52.2822 0c0.139648 -13.4307 0.267578 -26.8643 0.375 -40.2979
c1.05762 -132.767 0.822266 -265.824 -7.58301 -398.379c-3.64551 -57.4863 -8.29297 -115.449 -19.6152 -172.013c-5.99512 -29.9434 -12.8584 -72.623 -38.8135 -92.8506c-28.4619 -22.1816 -69.6514 -10.2734 -88.7256 17.5869
c-19.9482 29.1357 -26.5244 68.6494 -32.4004 102.682c-18.5947 107.683 -19.9482 218.813 -20.3145 327.812c-0.279297 83.0322 1.74805 166.035 4.72266 249.01c0.688477 19.1553 52.9473 18.5078 52.2822 0c-0.188477 -5.32715 -0.382812 -10.6543 -0.571289 -15.9814
c-3.06152 -86.3027 -4.78418 -172.669 -3.98828 -259.027c0.953125 -103.483 2.75391 -209.247 21.8486 -311.264c5.47754 -29.2637 11.9434 -63.4297 30.248 -87.9648c1.64355 2.57324 3.11621 5.25684 4.4873 7.98438c18.1387 36.1182 23.0156 79.7383 28.084 119.255z
M135.887 17.6807c0.958984 -0.167969 0.714844 -0.12207 0 0zM121.317 16.4629c-0.485352 -0.52832 -0.341797 -0.40918 0.117188 0.0410156c-0.0410156 -0.0146484 -0.0791016 -0.0292969 -0.117188 -0.0410156zM135.176 17.8018
c0.139648 -0.0546875 0.276367 -0.0761719 0.424805 -0.0732422c-0.00585938 0 -0.0117188 0.00292969 -0.0175781 0.00292969c-0.12793 0.0234375 -0.264648 0.046875 -0.407227 0.0703125zM135.809 17.6904
c-0.00878906 -0.0527344 0.0957031 -0.114258 0.301758 -0.183594c-0.078125 0.0605469 -0.150391 0.113281 -0.222656 0.168945c-0.0263672 0.00585938 -0.0527344 0.0117188 -0.0791016 0.0146484zM136.116 17.5068c1.64648 -0.551758 8.6416 -1.44629 -0.222656 0.168945
c0.0751953 -0.0556641 0.150391 -0.111328 0.222656 -0.168945z" />
    <glyph glyph-name="v" unicode="v" horiz-adv-x="247" 
d="M60.334 697.717c5.78613 -55.9355 12.4629 -111.776 19.2246 -167.596c14.1133 -116.583 28.999 -233.072 44.0938 -349.53c23.0127 175.801 45.3398 351.764 63.168 528.125c1.9668 19.4492 54.0889 17.8779 52.2822 0
c-6.20703 -61.4082 -13.2646 -122.726 -20.5234 -184.015c-21.4619 -181.232 -44.7012 -362.272 -68.8613 -543.165c-2.53613 -18.9844 -49.7666 -18.9238 -52.2822 -0.000976562c-2.96582 22.3242 -5.90527 44.6484 -8.83887 66.9756
c-14.1309 107.544 -28.0586 215.113 -41.6348 322.727c-13.7178 108.72 -27.6309 217.472 -38.9092 326.479c-1.8623 17.9883 50.2832 19.3242 52.2812 0z" />
    <glyph glyph-name="w" unicode="w" horiz-adv-x="354" 
d="M203.341 316.601c11.5254 -55.79 23.0898 -111.57 34.6875 -167.347c19.1641 186.323 37.9219 372.751 52.7061 559.455c1.5332 19.3672 53.7129 18.1035 52.2812 -0.000976562c-4.88281 -61.6465 -10.4395 -123.24 -16.1523 -184.816
c-16.7852 -180.896 -34.959 -361.675 -53.8643 -542.36c-2.05078 -19.6055 -48.4717 -18.2344 -52.2822 0c-14.7285 70.4756 -29.4023 140.966 -44.0381 211.462c-14.9521 -70.3828 -29.498 -140.858 -43.3555 -211.459c-3.63965 -18.5459 -49.709 -19.3359 -52.2822 0
c-3.96777 29.8154 -6.9541 59.7783 -10.1719 89.6777c-22.4492 208.491 -44.7129 417.34 -59.8457 626.505c-1.32422 18.3105 50.8936 19.208 52.2822 0c3.79297 -52.4062 8.40527 -104.752 13.1543 -157.08c10.4102 -114.706 21.749 -229.325 33.5215 -343.897
c1.66406 -16.1953 3.2793 -32.4023 4.89746 -48.6152c11.7754 56.2207 23.8643 112.377 36.1797 168.476c-1.91992 9.29199 13.1777 14.25 27.6719 13.501c13.5176 -0.0634766 26.4775 -4.99219 24.6104 -13.5z" />
    <glyph glyph-name="x" unicode="x" horiz-adv-x="226" 
d="M11.1924 -18.4648c4.17383 18.2754 8.28711 36.5654 12.3916 54.8613c21.4326 95.4287 42.5811 190.953 63.0664 286.623c-26.6836 124.6 -52.2119 249.448 -75.4629 374.701c-3.15723 17.0059 48.6719 19.4512 52.2822 -0.000976562
c12.7422 -68.6484 26.3359 -137.135 40.3271 -205.537c3.0293 -14.8076 6.09375 -29.6094 9.15234 -44.4111c17.1748 83.1689 33.667 166.469 49.1631 249.948c3.63379 19.5762 55.4131 16.8691 52.2822 0c-12.7422 -68.6484 -26.3359 -137.135 -40.3271 -205.537
c-11.4844 -56.1562 -23.2129 -112.272 -35.1328 -168.345c24.2969 -114.288 49.4561 -228.401 75.4629 -342.3c3.75293 -16.4307 -47.8467 -19.417 -52.2822 0c-4.17383 18.2754 -8.29004 36.5654 -12.3975 54.8555c-12.4229 55.3174 -24.7646 110.663 -36.9346 166.053
c-16.0879 -73.7178 -32.5156 -147.359 -49.3096 -220.911c-4.46094 -19.5391 -56.002 -16.2949 -52.2812 0z" />
    <glyph glyph-name="y" unicode="y" horiz-adv-x="236" 
d="M73.8281 549.942c1.56836 -55.8516 4.01953 -113.139 16.6543 -167.759c2.27148 -9.80859 5.10059 -19.5361 8.91113 -28.8652c1.69629 -4.15039 3.56641 -8.24902 5.80273 -12.1387c0.0898438 -0.157227 0.194336 -0.305664 0.28418 -0.462891
c11.8213 18.4463 17.2734 41.3896 21.7314 62.4736c6.79688 32.1387 10.7617 64.873 13.8721 97.5518c6.48633 68.1406 8.69922 136.636 10.1514 205.044c-0.101562 9.50098 13.1348 14.209 26.3154 14.1338c0.429688 -0.00292969 0.862305 -0.0205078 1.29199 -0.0292969
c0.304688 -0.0117188 0.612305 -0.0117188 0.916992 -0.0263672c12.3271 -0.525391 23.9424 -5.25977 23.7568 -14.0781c1.03418 -95.4199 2.09473 -190.84 2.85547 -286.26c0.569336 -71.4668 0.941406 -142.938 0.991211 -214.407
c0.0410156 -59.7578 -0.107422 -130.588 -32.4639 -183.523c-22.0049 -35.999 -68.666 -51.5264 -105.065 -25.3682c-38.7119 27.8193 -47.2979 88.4053 -51.7852 131.89c-1.85938 17.9932 50.2861 19.3232 52.2812 -0.000976562
c3.01465 -29.2051 7.99023 -58.8809 20.3486 -85.7539c3.78711 -8.23145 8.50977 -17.041 14.2695 -23.5703c1.89648 -2.14941 3.99316 -4.20898 6.23828 -6.03906c0.351562 0.307617 0.738281 0.65625 1.21191 1.10352c2.25684 2.12891 4.7373 4.53125 6.51465 6.73828
c12.748 15.8418 19.8555 37.1494 24.7383 56.5752c15.9404 63.4209 11.5107 130.635 11.2959 195.436c-0.0634766 19.6523 -0.200195 39.3018 -0.304688 58.9541c-5.64648 -8.5625 -12.8037 -15.9199 -22.2432 -20.5762
c-21.2178 -10.4678 -51.2744 -7.81055 -67.9785 9.80859c-14.4268 15.2197 -20.2383 36.9053 -25.1006 56.7021c-14.3428 58.4131 -16.5332 120.219 -17.9736 180.093c-1.12988 47.0068 -0.961914 94.1475 1.16406 141.129c0.868164 19.208 53.1152 18.4238 52.2812 0
c-2.23926 -49.5225 -2.35254 -99.2275 -0.963867 -148.773zM116.031 9.83008c-0.0527344 -0.00878906 -0.138672 -0.00878906 -0.243164 -0.0117188l0.0263672 -0.0263672c0.0722656 0.0117188 0.129883 0.0263672 0.216797 0.0380859zM107.548 10.2627
c-5.35059 -0.342773 -2.6084 -0.847656 -0.751953 -0.522461c0.185547 0.136719 0.429688 0.307617 0.751953 0.522461zM113.371 330.841c0.581055 0.238281 0.176758 0.369141 -0.505859 0.467773c0.0146484 -0.0175781 0.0322266 -0.0322266 0.046875 -0.046875
c0.191406 -0.182617 0.310547 -0.319336 0.423828 -0.447266c0.0175781 0.00878906 0.0146484 0.0205078 0.0351562 0.0263672zM97.334 331.207c-0.24707 -0.0576172 -0.296875 -0.0732422 -0.0292969 -0.0234375
c0.00878906 0.00585938 0.0205078 0.0175781 0.0292969 0.0234375zM96.7266 331.04c0.142578 0.53125 -0.140625 0.21875 -0.21875 -0.0517578c-4.70508 -1.13574 -0.220703 -0.999023 0.136719 -0.206055c0.116211 0.0234375 0.336914 0.157227 0.638672 0.386719
c-0.197266 -0.0439453 -0.382812 -0.0878906 -0.556641 -0.128906z" />
    <glyph glyph-name="y" unicode="&#xff;" horiz-adv-x="236" 
d="M73.8281 549.942c1.56836 -55.8516 4.01953 -113.139 16.6543 -167.759c2.27148 -9.80859 5.10059 -19.5361 8.91113 -28.8652c1.69629 -4.15039 3.56641 -8.24902 5.80273 -12.1387c0.0898438 -0.157227 0.194336 -0.305664 0.28418 -0.462891
c11.8213 18.4463 17.2734 41.3896 21.7314 62.4736c6.79688 32.1387 10.7617 64.873 13.8721 97.5518c6.48633 68.1406 8.69922 136.636 10.1514 205.044c-0.101562 9.50098 13.1348 14.209 26.3154 14.1338c0.429688 -0.00292969 0.862305 -0.0205078 1.29199 -0.0292969
c0.304688 -0.0117188 0.612305 -0.0117188 0.916992 -0.0263672c12.3271 -0.525391 23.9424 -5.25977 23.7568 -14.0781c1.03418 -95.4199 2.09473 -190.84 2.85547 -286.26c0.569336 -71.4668 0.941406 -142.938 0.991211 -214.407
c0.0410156 -59.7578 -0.107422 -130.588 -32.4639 -183.523c-22.0049 -35.999 -68.666 -51.5264 -105.065 -25.3682c-38.7119 27.8193 -47.2979 88.4053 -51.7852 131.89c-1.85938 17.9932 50.2861 19.3232 52.2812 -0.000976562
c3.01465 -29.2051 7.99023 -58.8809 20.3486 -85.7539c3.78711 -8.23145 8.50977 -17.041 14.2695 -23.5703c1.89648 -2.14941 3.99316 -4.20898 6.23828 -6.03906c0.351562 0.307617 0.738281 0.65625 1.21191 1.10352c2.25684 2.12891 4.7373 4.53125 6.51465 6.73828
c12.748 15.8418 19.8555 37.1494 24.7383 56.5752c15.9404 63.4209 11.5107 130.635 11.2959 195.436c-0.0634766 19.6523 -0.200195 39.3018 -0.304688 58.9541c-5.64648 -8.5625 -12.8037 -15.9199 -22.2432 -20.5762
c-21.2178 -10.4678 -51.2744 -7.81055 -67.9785 9.80859c-14.4268 15.2197 -20.2383 36.9053 -25.1006 56.7021c-14.3428 58.4131 -16.5332 120.219 -17.9736 180.093c-1.12988 47.0068 -0.961914 94.1475 1.16406 141.129c0.868164 19.208 53.1152 18.4238 52.2812 0
c-2.23926 -49.5225 -2.35254 -99.2275 -0.963867 -148.773zM116.031 9.83008c-0.0527344 -0.00878906 -0.138672 -0.00878906 -0.243164 -0.0117188l0.0263672 -0.0263672c0.0722656 0.0117188 0.129883 0.0263672 0.216797 0.0380859zM107.548 10.2627
c-5.35059 -0.342773 -2.6084 -0.847656 -0.751953 -0.522461c0.185547 0.136719 0.429688 0.307617 0.751953 0.522461zM113.371 330.841c0.581055 0.238281 0.176758 0.369141 -0.505859 0.467773c0.0146484 -0.0175781 0.0322266 -0.0322266 0.046875 -0.046875
c0.191406 -0.182617 0.310547 -0.319336 0.423828 -0.447266c0.0175781 0.00878906 0.0146484 0.0205078 0.0351562 0.0263672zM97.334 331.207c-0.24707 -0.0576172 -0.296875 -0.0732422 -0.0292969 -0.0234375
c0.00878906 0.00585938 0.0205078 0.0175781 0.0292969 0.0234375zM96.7266 331.04c0.142578 0.53125 -0.140625 0.21875 -0.21875 -0.0517578c-4.70508 -1.13574 -0.220703 -0.999023 0.136719 -0.206055c0.116211 0.0234375 0.336914 0.157227 0.638672 0.386719
c-0.197266 -0.0439453 -0.382812 -0.0878906 -0.556641 -0.128906z" />
    <glyph glyph-name="y" unicode="&#xfd;" horiz-adv-x="236" 
d="M73.8281 549.942c1.56836 -55.8516 4.01953 -113.139 16.6543 -167.759c2.27148 -9.80859 5.10059 -19.5361 8.91113 -28.8652c1.69629 -4.15039 3.56641 -8.24902 5.80273 -12.1387c0.0898438 -0.157227 0.194336 -0.305664 0.28418 -0.462891
c11.8213 18.4463 17.2734 41.3896 21.7314 62.4736c6.79688 32.1387 10.7617 64.873 13.8721 97.5518c6.48633 68.1406 8.69922 136.636 10.1514 205.044c-0.101562 9.50098 13.1348 14.209 26.3154 14.1338c0.429688 -0.00292969 0.862305 -0.0205078 1.29199 -0.0292969
c0.304688 -0.0117188 0.612305 -0.0117188 0.916992 -0.0263672c12.3271 -0.525391 23.9424 -5.25977 23.7568 -14.0781c1.03418 -95.4199 2.09473 -190.84 2.85547 -286.26c0.569336 -71.4668 0.941406 -142.938 0.991211 -214.407
c0.0410156 -59.7578 -0.107422 -130.588 -32.4639 -183.523c-22.0049 -35.999 -68.666 -51.5264 -105.065 -25.3682c-38.7119 27.8193 -47.2979 88.4053 -51.7852 131.89c-1.85938 17.9932 50.2861 19.3232 52.2812 -0.000976562
c3.01465 -29.2051 7.99023 -58.8809 20.3486 -85.7539c3.78711 -8.23145 8.50977 -17.041 14.2695 -23.5703c1.89648 -2.14941 3.99316 -4.20898 6.23828 -6.03906c0.351562 0.307617 0.738281 0.65625 1.21191 1.10352c2.25684 2.12891 4.7373 4.53125 6.51465 6.73828
c12.748 15.8418 19.8555 37.1494 24.7383 56.5752c15.9404 63.4209 11.5107 130.635 11.2959 195.436c-0.0634766 19.6523 -0.200195 39.3018 -0.304688 58.9541c-5.64648 -8.5625 -12.8037 -15.9199 -22.2432 -20.5762
c-21.2178 -10.4678 -51.2744 -7.81055 -67.9785 9.80859c-14.4268 15.2197 -20.2383 36.9053 -25.1006 56.7021c-14.3428 58.4131 -16.5332 120.219 -17.9736 180.093c-1.12988 47.0068 -0.961914 94.1475 1.16406 141.129c0.868164 19.208 53.1152 18.4238 52.2812 0
c-2.23926 -49.5225 -2.35254 -99.2275 -0.963867 -148.773zM116.031 9.83008c-0.0527344 -0.00878906 -0.138672 -0.00878906 -0.243164 -0.0117188l0.0263672 -0.0263672c0.0722656 0.0117188 0.129883 0.0263672 0.216797 0.0380859zM107.548 10.2627
c-5.35059 -0.342773 -2.6084 -0.847656 -0.751953 -0.522461c0.185547 0.136719 0.429688 0.307617 0.751953 0.522461zM113.371 330.841c0.581055 0.238281 0.176758 0.369141 -0.505859 0.467773c0.0146484 -0.0175781 0.0322266 -0.0322266 0.046875 -0.046875
c0.191406 -0.182617 0.310547 -0.319336 0.423828 -0.447266c0.0175781 0.00878906 0.0146484 0.0205078 0.0351562 0.0263672zM97.334 331.207c-0.24707 -0.0576172 -0.296875 -0.0732422 -0.0292969 -0.0234375
c0.00878906 0.00585938 0.0205078 0.0175781 0.0292969 0.0234375zM96.7266 331.04c0.142578 0.53125 -0.140625 0.21875 -0.21875 -0.0517578c-4.70508 -1.13574 -0.220703 -0.999023 0.136719 -0.206055c0.116211 0.0234375 0.336914 0.157227 0.638672 0.386719
c-0.197266 -0.0439453 -0.382812 -0.0878906 -0.556641 -0.128906z" />
    <glyph glyph-name="z" unicode="z" horiz-adv-x="209" 
d="M7.15527 -0.454102c3.83691 18.2695 7.63672 36.5479 11.4385 54.8291c44.1494 212.389 87.6016 424.973 127.664 638.175c-37.6543 -0.795898 -75.2998 -2.61426 -112.96 -2.77148c-7.19727 -0.0292969 -26.4424 2.625 -26.1406 13.5928
c0.304688 11.1016 18.0049 13.5586 26.1406 13.5938c46.4727 0.194336 92.9219 2.93066 139.397 3.12793c14.6475 0.917969 30.2627 -4.08984 28.4883 -13.5732c-0.0263672 -0.981445 -0.232422 -1.87305 -0.513672 -2.72363
c-12.6465 -67.4902 -25.7227 -134.898 -39.0107 -202.264c-32.3594 -164.043 -65.7383 -327.897 -100.047 -491.545c34.4512 -1.01074 69.126 -2.94238 103.342 -0.62793c7.18555 0.485352 26.4336 -2.95117 26.1406 -13.5938
c-0.313477 -11.4521 -18.002 -13.041 -26.1406 -13.5928c-43.6084 -2.95117 -87.9727 1.02246 -131.657 1.15918c-7.06641 0.0205078 -25.7051 2.51562 -26.0947 13.0215c-0.244141 1.00195 -0.285156 2.0625 -0.046875 3.19238z" />
    <glyph glyph-name="braceleft" unicode="{" horiz-adv-x="150" 
d="M144.751 -216.319c17.125 4.9668 45.1582 -1.3252 38.832 -15.5049c-11.0781 -24.8076 -40.5186 -33.832 -65.042 -21.6064c-19.6611 9.80273 -26.376 33.6689 -31.3691 53.3125c-12.5273 49.2812 -15.1211 101.456 -17.5439 152.056
c-2.59082 54.0859 -2.94824 108.247 -3.41895 162.382c-0.456055 52.4355 2.20703 106.695 -5.56543 158.675c-2.71875 18.1855 -6.90723 36.2637 -14.2793 53.168c-2.34668 5.38184 -4.97559 11.0459 -8.4668 15.8359c-1.5166 0.310547 -2.98926 0.694336 -4.38965 1.15332
c-8.64062 2.83496 -17.3135 10.0176 -9.37793 18.5977c11.8682 12.835 17.6074 32.3125 22.3154 48.7402c6.91309 24.1133 10.8604 49.1797 13.7588 74.0654c11.1621 95.7979 5.14355 192.595 10.1943 288.735c2.32617 44.2393 5.20703 90.7871 18.7979 133.246
c5.33301 16.6602 13.6455 31.4414 31.5342 36.4053c20.3525 5.64941 42.3984 -0.740234 51.8262 -20.2588c5.74805 -11.9023 -13.8984 -18.2021 -30.5381 -16.7471c-0.342773 -0.787109 -0.697266 -1.57129 -0.987305 -2.37891
c-4.08105 -11.3857 -6.42773 -23.3643 -8.51367 -35.2559c-4.55762 -25.9961 -7.125 -52.3428 -8.87109 -78.6641c-3.59863 -54.3037 -3.30273 -108.755 -3.97949 -163.146c-0.667969 -53.6182 -1.85059 -107.597 -9.64355 -160.735
c-5.01855 -34.2275 -11.0459 -75.5068 -31.1777 -105.546c8.54492 -7.29883 14.2002 -18.0107 18.5166 -28.168c17.0645 -40.1436 18.9062 -84.4609 19.8906 -127.404c1.24902 -54.5127 1.16211 -109.046 2.02148 -163.567
c0.842773 -53.4062 2.50977 -106.867 7.57812 -160.058c2.37305 -24.8975 5.1582 -49.9785 10.9355 -74.3535c1.82422 -7.70312 3.98828 -15.543 6.96289 -22.9785z" />
    <glyph glyph-name="verticalbar" unicode="|" horiz-adv-x="116" 
d="M83.5752 274.24c0.650391 -137.048 1.22266 -274.1 2.51562 -411.142c0.176758 -18.8535 -52.1055 -18.8535 -52.2822 0c-0.670898 70.9287 -1.10352 141.86 -1.50391 212.792c-0.847656 150.217 -1.46387 300.434 -2.19336 450.65
c-0.479492 98.8877 -0.285156 197.825 -2.10645 296.702c-0.345703 18.7861 51.9336 18.9141 52.2822 0c0.801758 -43.4404 0.935547 -86.9014 1.20898 -130.348c0.882812 -139.552 1.41699 -279.104 2.0791 -418.655z" />
    <glyph glyph-name="braceright" unicode="}" horiz-adv-x="150" 
d="M125.372 361.746c8.04883 -8.70215 -0.579102 -15.7412 -9.37402 -18.5879c-1.37988 -0.447266 -2.82031 -0.825195 -4.30176 -1.12988c-0.488281 -0.676758 -0.988281 -1.38574 -1.41211 -2.05664c-4.14746 -6.53809 -7.30762 -13.7119 -10.0381 -20.9355
c-7.87695 -20.8574 -11.6875 -43.1436 -13.665 -65.2822c-4.79004 -53.6035 -2.99219 -108.232 -3.48047 -162.007c-0.491211 -53.9492 -1.14746 -107.933 -4.40918 -161.798c-2.93652 -48.4795 -5.40234 -99.8613 -20.9883 -146.256
c-6.4248 -19.1348 -16.7822 -36.1406 -37.7041 -40.7793c-23.1318 -5.13184 -44.3936 3.59668 -54.0713 25.2676c-6.36426 14.25 21.5713 20.3984 38.7109 15.4951c4.4873 11.1914 7.2959 23.0098 9.59961 34.8164c5.41113 27.7383 8.07715 56.0166 10.2812 84.1641
c8.45801 107.95 4.8916 216.342 8.3252 324.478c1.21387 38.2471 5.52441 80.5664 24.0352 114.907c3.56055 6.60449 8.54199 12.5586 14.3916 17.3076c-20.6074 30.1084 -26.7246 71.8408 -31.793 106.402c-7.79297 53.1387 -8.97559 107.117 -9.64355 160.735
c-0.676758 54.3906 -0.380859 108.845 -3.97949 163.146c-1.74609 26.3184 -4.31348 52.668 -8.87109 78.6641c-2.08594 11.8857 -4.43262 23.8701 -8.5166 35.2559c-0.28418 0.795898 -0.638672 1.56543 -0.972656 2.34375
c-16.6318 -1.43164 -36.2607 4.96973 -30.5537 16.7822c10.4883 21.7168 38.3486 27.8682 59.5459 17.5078c18.0781 -8.83594 23.5732 -30.9424 27.9766 -48.8232c22.626 -91.8652 16.2734 -190.486 17.9375 -284.291c0.836914 -47.1699 2.50391 -94.584 9.35547 -141.321
c3.15137 -21.5078 7.19727 -43.0713 13.8867 -63.7861c4.43848 -13.7324 9.75098 -29.4316 19.7285 -40.2188zM21.1289 -232.571c0.787109 -1.33301 1.35352 -2.32617 1.34766 -2.4248c0.0576172 1.26953 -0.453125 2.02441 -1.34766 2.4248z" />
    <glyph glyph-name="nonbreakingspace" unicode="&#xa0;" horiz-adv-x="127" 
 />
    <glyph glyph-name="exclamdown" unicode="&#xa1;" horiz-adv-x="112" 
d="M81.9297 499.386c-2.81152 -186.396 -1.94922 -372.836 2.60254 -559.2c0.456055 -18.7373 -51.8203 -18.9521 -52.2822 0c-4.55176 186.364 -5.41699 372.804 -2.60254 559.2c0.287109 19.0273 52.5635 18.6758 52.2822 0zM80.7041 695.004
c0.450195 -18.7402 -51.8252 -18.9492 -52.2812 0c-0.737305 30.6514 -0.504883 61.2881 0.706055 91.9248c0.757812 19.1758 53.0107 18.4756 52.2812 0c-1.21094 -30.6367 -1.44336 -61.2734 -0.706055 -91.9248z" />
    <glyph glyph-name="cent" unicode="&#xa2;" horiz-adv-x="270" 
d="M194.36 129.141c4.29297 19.5537 55.8838 16.415 52.2852 0.00390625c-8.66699 -39.4844 -20.3662 -85.4746 -50.4395 -114.691c-7.78125 -7.55762 -17.2061 -12.8848 -27.2881 -15.998c0.151367 -25.8359 0.267578 -51.6748 0.441406 -77.5107
c0.12793 -18.874 -52.1543 -18.8359 -52.2822 0c-0.185547 27.1543 -0.298828 54.3115 -0.458984 81.4688c-3.49707 1.7373 -6.86914 3.77344 -10.0557 6.15234c-23.335 17.4219 -35.9121 48.4424 -45.1025 74.999c-14.2324 41.1221 -22.333 84.4082 -27.375 127.541
c-10.7988 92.376 -8.76855 186.797 2.7627 278.999c5.64941 45.1855 13.4834 90.6123 27.2803 134.1c9.28027 29.2461 22.9697 66.4326 51.5684 82.1289c0.176758 52.7178 0.379883 105.436 0.661133 158.153c0.101562 18.9609 52.3809 18.749 52.2822 0
c-0.273438 -50.873 -0.439453 -101.743 -0.616211 -152.616c57.0684 -20.082 61.7334 -135.706 64.4229 -183.756c1.03418 -18.4639 -51.21 -19.1289 -52.2812 0c-1.89648 33.8701 -3.88574 69.7178 -12.4248 103.181
c-0.470703 -192.76 -0.136719 -385.522 0.865234 -578.279c12.7803 23.498 20.1348 50.5215 25.7549 76.125zM110.478 94.9023c1.77148 -5.3125 3.65332 -10.8604 5.70996 -16.46c-0.078125 15.6318 -0.197266 31.2607 -0.263672 46.8896
c-0.717773 165.182 -0.822266 330.363 -0.447266 495.545c-20.5645 -59.4033 -27.2246 -125.278 -32.0283 -186.907c-5.96582 -76.5381 -5.78906 -154.109 3.82227 -230.348c4.63574 -36.7568 11.4697 -73.5166 23.207 -108.72z" />
    <glyph glyph-name="sterling" unicode="&#xa3;" horiz-adv-x="246" 
d="M157.5 671.274c-5.55957 -21.8652 -8.83984 -44.3721 -11.8721 -66.708c-10.5 -77.1123 -16.001 -155.082 -20.2305 -233.069c12.4521 -0.589844 24.9072 -1.81836 37.3447 -3.69434c7.22949 -1.08887 23.0244 -6.16016 18.2578 -16.7207
c-4.6123 -10.2236 -22.96 -10.8828 -32.1553 -9.49414c-8.35938 1.26074 -16.6436 2.08887 -24.8896 2.55371c-2.03613 -39.9082 -3.85156 -79.793 -5.94238 -119.545c-3.76172 -71.4893 -7.36328 -142.987 -10.8311 -214.491
c3.71191 -0.0605469 7.42383 -0.138672 11.1357 -0.173828c18.8418 -0.179688 40.498 -0.319336 55.6572 1.68164c8.4873 1.12109 27.9795 0.763672 32.1562 -9.49512c4.28125 -10.5205 -10.3809 -15.6816 -18.2578 -16.7217
c-35.3398 -4.66504 -71.9316 -3.13477 -107.472 -1.79297c-6.89551 0.261719 -26.6787 2.44629 -26.1416 13.5938c1.62109 33.6348 3.29102 67.2666 4.97852 100.898c4.07812 81.2949 8.10938 162.607 12.8613 243.871
c-5.69824 -0.775391 -11.4053 -1.66406 -17.1445 -2.78223c-8.30078 -1.61816 -28.127 -0.404297 -32.1553 9.49414c-4.40625 10.8252 10.5264 15.2139 18.2578 16.7217c10.875 2.11719 21.7871 3.69727 32.7168 4.77734c1.66699 27.4248 3.41602 54.8438 5.30371 82.2539
c3.25879 47.3262 6.875 94.6758 12.8965 141.744c2.77344 21.6855 5.89844 43.3887 10.4414 64.7832c3.69434 17.4043 7.46484 36.9609 16.7451 52.4395c19.0537 31.7842 64.9023 24.7666 80.6104 -6.00098c19.4551 -38.1045 21.7725 -87.0059 25.3223 -128.771
c1.54492 -18.1855 -50.6465 -19.2598 -52.2812 0c-2.72168 32.043 -5.05957 65.8955 -14.6855 97.0029c-0.203125 -0.78418 -0.426758 -1.57129 -0.626953 -2.35547z" />
    <glyph glyph-name="currency" unicode="&#xa4;" horiz-adv-x="259" 
d="M227.469 470.475c4.75195 -57.4609 5.65234 -115.165 3.73242 -172.779c-2.28027 -68.5127 -7.99902 -137.655 -23.8516 -204.492c-7.34277 -29.7139 -15.6465 -71.3418 -43.7803 -88.8906c-26.9922 -16.8379 -61.8174 -8.19727 -80.7578 16.0117
c-20.3438 26.002 -29.002 60.5459 -36.1934 92.1562c-8.3623 36.7539 -13.1719 74.3389 -15.8848 111.906c-5.08594 70.4502 -4.73145 141.804 -0.417969 212.288c3.15723 51.5908 8.67578 103.35 19.6553 153.915c6.48633 29.873 13.8086 62.4561 29.9639 88.8701
c15.917 26.0215 46.7314 35.7109 75.3672 22.6289c30.9482 -14.1396 41.6484 -54.1875 49.4414 -84.1621c12.5186 -48.1543 18.6299 -97.9443 22.7256 -147.452zM139.992 683.561c-0.453125 -0.665039 -1.30664 -1.19141 -2.07031 -1.74023
c0.737305 0.307617 1.4375 0.813477 2.07031 1.74023zM178.832 294.975c2.02441 57.9141 1.2041 115.937 -3.50098 173.699c-3.57812 43.9746 -8.8125 88.0889 -18.4785 131.181c-5.38184 23.9941 -12.1816 51.7412 -26.8379 71.7305
c-1.96973 -3.29102 -3.77344 -6.68359 -5.42871 -10.1396c-12.9248 -26.998 -19.8203 -56.9414 -25.4697 -86.1729c-20.8086 -107.643 -22.708 -219.767 -17.4219 -328.942c2.83203 -58.4805 9.12598 -119.79 29.0771 -175.221
c4.62988 -12.8555 10.082 -25.7139 17.7148 -37.1113c0.729492 -1.08594 1.4873 -2.14355 2.2627 -3.18066c2.28027 2.93066 4.4209 5.7627 5.16406 7.15723c2.3584 4.42969 4.37988 9.04785 6.25293 13.6982c5.41992 13.4512 9.42773 27.4629 12.9043 41.5264
c15.6465 65.959 21.3975 134.163 23.7617 201.775z" />
    <glyph glyph-name="yen" unicode="&#xa5;" horiz-adv-x="212" 
d="M178.146 643.969c-14.0352 -96.71 -29.1992 -193.264 -44.9502 -289.712c-0.0322266 -2.05078 -0.0556641 -4.10156 -0.0849609 -6.15234c12.8232 -0.619141 25.6523 -1.80957 38.4727 -3.60156c7.25879 -1.01367 23.001 -6.20996 18.2578 -16.7217
c-4.6416 -10.2881 -22.9258 -10.7852 -32.1562 -9.49512c-8.35352 1.16797 -16.6602 1.97266 -24.9443 2.47266c-0.397461 -33.2051 -0.629883 -66.4131 -0.69043 -99.6182c13.1777 -0.601562 26.3613 -1.81543 39.5332 -3.65723
c7.25879 -1.01367 23.001 -6.20996 18.2578 -16.7217c-4.6416 -10.2881 -22.9258 -10.7852 -32.1562 -9.49512c-8.58594 1.19922 -17.1221 2.0332 -25.6328 2.52734c0.0605469 -64.0332 0.716797 -128.066 2.00977 -192.097
c0.37793 -18.7725 -51.8984 -18.9268 -52.2822 -0.000976562c-1.28418 63.6094 -1.94336 127.225 -2.00977 190.84c-8.58887 -0.900391 -17.1895 -2.13184 -25.8213 -3.68848c-8.34473 -1.50488 -28.0928 -0.485352 -32.1562 9.49512
c-4.37695 10.7559 10.4912 15.3223 18.2578 16.7227c13.21 2.38184 26.4521 4.0957 39.7168 5.16992c0.0576172 33.126 0.28125 66.2549 0.673828 99.3809c-8.80957 -0.90625 -17.6338 -2.15234 -26.4922 -3.75c-8.34473 -1.50488 -28.0928 -0.485352 -32.1562 9.49512
c-4.37695 10.7559 10.4912 15.3223 18.2578 16.7227c13.5557 2.44531 27.1494 4.19336 40.7656 5.2627c0.0263672 1.70801 0.0439453 3.41309 0.0703125 5.12109c-0.0498047 0.223633 -0.12207 0.432617 -0.160156 0.662109
c-1.99805 12.2832 -3.97559 24.5693 -5.9502 36.8584c-18.6934 116.28 -38.2178 232.622 -53.0488 349.472c-2.25098 17.7295 49.8213 19.3877 52.2812 0c3.88086 -30.5762 8.33887 -61.0771 12.8584 -91.5605c6.49414 -43.8096 13.2119 -87.5869 20.0518 -131.344
c11.9609 76.1396 23.3291 152.384 32.8066 228.834c2.41992 19.5127 54.4668 17.625 52.2822 0c-4.19727 -33.8613 -8.96094 -67.6523 -13.8613 -101.421z" />
    <glyph glyph-name="section" unicode="&#xa7;" horiz-adv-x="208" 
d="M178.569 366.228c3.19531 -45.6475 -6.37109 -98.959 -33.4854 -136.703c12.8818 -23.9795 20.7529 -50.0977 25.4062 -77.0137c5.63184 -32.5654 7.38281 -66.6504 2.14258 -99.3848c-3.27637 -20.4512 -8.13574 -42.6709 -19.3477 -60.4238
c-18.9756 -30.042 -63.6299 -38.79 -90.3428 -12.8672c-31.8828 30.9365 -33.7363 89.0186 -33.8789 129.979c-0.0634766 18.8994 52.2188 18.8125 52.2822 0c0.0957031 -27.6602 1.57129 -56.4736 9.88086 -83.0645c2.75977 -8.82422 6.19629 -17.5928 11.0498 -25.4932
c0.232422 -0.380859 0.491211 -0.717773 0.732422 -1.08691c10.3545 16.2217 14.8506 36.2715 17.6738 55.0293c8.4873 56.3682 0.404297 121.282 -28.1738 171.106c-11.3887 19.8525 -26.1582 37.46 -38.1719 56.9092c-14.4766 23.4336 -23.9893 48.9355 -26.4551 76.4883
c-4.36816 48.8164 7.88574 101.177 27.0469 146.145c-14.0205 22.7393 -20.0879 47.4131 -21.918 75.0645c-2.7041 40.8379 -1.98047 92.6611 23.6289 127.231c20.5059 27.6807 61.8408 36.1797 90.541 15.3428c28.5898 -20.7529 32.502 -63.4385 31.9531 -95.7139
c-0.322266 -19.0391 -52.5986 -18.6611 -52.2822 0.000976562c0.342773 20.1631 -0.754883 41.3545 -8.67285 60.1816c-2.26562 5.39062 -5.95703 12.2363 -8.7627 15.417c-0.0146484 0.0146484 -0.0292969 0.0263672 -0.0410156 0.0410156
c-0.915039 -0.90625 -1.77441 -1.80371 -2.4043 -2.58203c-8.66113 -10.6914 -13.9971 -26.1084 -17.1133 -39.7041c-5.29785 -23.1055 -6.09082 -47.2773 -5.07715 -70.877c1.20801 -28.1562 5.30957 -53.7773 20.5908 -77.6357
c0.923828 -0.960938 1.62988 -2.0127 2.06836 -3.15137c14.4531 -21.084 34.3525 -37.7129 47.3535 -59.959c14.5664 -24.9268 21.7725 -54.6602 23.7764 -83.2754zM114.58 707.948c-0.0576172 -0.0380859 -0.078125 -0.0439453 -0.12793 -0.0791016
c0.220703 0.0322266 0.244141 0.0585938 0.12793 0.0791016zM103.566 708.64c0.0263672 -0.0263672 0.0439453 -0.0429688 0.0673828 -0.0634766c-0.0498047 0.00292969 -0.0703125 0 -0.125977 0.00292969
c0.0498047 -0.00585938 0.0849609 -0.00878906 0.134766 -0.0117188c0.629883 -0.607422 0.928711 -0.863281 0.975586 -0.87207c-0.325195 0.282227 -0.641602 0.572266 -0.955078 0.868164h0.00878906
c-0.00292969 0.00292969 -0.00878906 0.00585938 -0.0117188 0.00878906h-0.00585938c-0.00878906 0.00585938 -0.0146484 0.0117188 -0.0205078 0.0175781c-0.0205078 0.0175781 -0.0439453 0.0322266 -0.0673828 0.0498047zM114.883 275.428
c17.0732 46.5859 16.4785 102.937 -0.669922 146.52c-5.65234 14.3691 -13.8398 26.4346 -22.9248 37.8984c-14.9785 -50.1758 -19.2715 -106.323 3.9043 -152.372c5.67285 -11.2725 12.5479 -21.7461 19.6904 -32.0459z" />
    <glyph glyph-name="copyright" unicode="&#xa9;" horiz-adv-x="332" 
d="M299.24 499.633c6.61328 -66.9639 7.61621 -134.402 4.48242 -201.599c-3.70605 -79.5615 -12.9307 -159.773 -35.9404 -236.259c-11.9756 -38.4355 -28.9639 -88.6875 -70.8037 -103.564c-36.1562 -12.8525 -72.4258 2.01562 -95.5518 30.7412
c-25.002 31.0527 -38.1396 70.377 -48.1484 108.447c-11.3447 43.1582 -18.2314 87.4004 -21.749 131.866c-6.40723 81.0166 -5.87891 163.291 0.737305 244.27c4.95801 60.6875 13.8193 121.354 30.1895 180.084c9.56445 34.3115 21.4414 70.8125 43.6934 99.2275
c22.7168 29.0107 60.708 37.8496 94.7461 21.6426c38.3457 -18.2607 55.4189 -65.6045 66.9033 -103.404c16.8955 -55.6191 25.7402 -113.719 31.4414 -171.452zM167.569 755.543c-0.046875 -0.0292969 -0.0625 -0.0537109 -0.103516 -0.0800781
c0.453125 0.142578 0.801758 0.255859 0.90625 0.291016c-0.25293 -0.0839844 -0.529297 -0.15332 -0.802734 -0.210938zM165.896 755.112c-0.0175781 -0.00585938 -0.0263672 -0.00878906 -0.0410156 -0.0146484c0.125 -0.0117188 0.229492 -0.0205078 0.366211 -0.0292969
c0.00585938 0.00292969 0.0146484 0.00585938 0.0205078 0.00585938c-0.125 0.0117188 -0.241211 0.0263672 -0.345703 0.0380859zM166.825 754.851c-1.29004 -1.56543 -0.389648 -0.592773 0 0zM163.427 755.292
c-1.03418 0.0751953 -1.85156 0.133789 -0.210938 0.00878906c0.0605469 0 0.138672 -0.00585938 0.210938 -0.00878906zM252.009 311.442c2.51562 66.9062 0.895508 133.918 -6.32227 200.499c-5.53906 51.082 -13.335 102.661 -28.2988 151.919
c-6.28516 20.6895 -13.8047 41.3291 -24.5723 60.1504c-7.40918 12.9512 -16.335 23.9619 -27.1777 30.2412c-0.0605469 -0.0498047 -0.101562 -0.0849609 -0.165039 -0.140625c-9.43359 -8.19043 -12.9482 -13.0146 -19.4629 -23.9678
c-18.9111 -31.7959 -29.9395 -68.666 -38.4561 -104.418c-30.1436 -126.527 -33.5479 -261.815 -24.1514 -391.024c5.08008 -69.8809 16.0654 -145.149 48.7705 -208.062c6.48047 -12.4658 13.9072 -24.8564 23.9395 -34.8076
c3.16602 -3.13965 8.64648 -5.82031 11.2666 -9.16016c0.276367 -0.354492 1.06641 -0.848633 1.81836 -1.26367c27.5469 14.8447 39.6729 60.3096 48.1748 87.5918c23.5293 78.2051 31.5781 161.13 34.6367 242.442zM170.508 249.975
c3.51172 19.5791 55.3223 16.9521 52.2783 -0.00488281c-3.35156 -18.6875 -7.1709 -42.1504 -20.8574 -56.5361c-13.1982 -13.875 -38.1455 -15.9805 -54.6143 -6.81348c-12.6143 7.02051 -18.4668 21.3662 -22.5625 34.457
c-6.42773 20.5469 -9.9043 42.0088 -12.0127 63.3916c-4.59473 46.583 -3.59277 94.0723 1.77441 140.548c3.77344 32.6611 6.75977 94.0371 48.7656 99.4453c52.2529 6.72363 52.6738 -55.6191 54.3701 -91.9697c0.787109 -16.8643 -42.3193 -18.8311 -50.833 -4.71484
c-3.19824 -25.9873 -4.32227 -52.3662 -4.5166 -78.2598c-0.25 -33.4141 0.626953 -68.5908 7.80078 -101.705c0.133789 0.720703 0.276367 1.43848 0.407227 2.16211z" />
    <glyph glyph-name="softhyphen" unicode="&#xad;" horiz-adv-x="0" 
 />
    <glyph glyph-name="registered" unicode="&#xae;" horiz-adv-x="332" 
d="M299.241 499.633c6.61328 -66.9639 7.61523 -134.402 4.48145 -201.599c-3.70605 -79.5615 -12.9307 -159.773 -35.9404 -236.259c-11.9756 -38.4355 -28.9639 -88.6875 -70.8037 -103.564c-36.1562 -12.8525 -72.4248 2.01562 -95.5508 30.7412
c-25.002 31.0527 -38.1396 70.377 -48.1484 108.447c-11.3447 43.1582 -18.2314 87.4004 -21.749 131.866c-6.40723 81.0166 -5.87891 163.291 0.737305 244.27c4.95801 60.6875 13.8193 121.354 30.1895 180.084c9.56445 34.3115 21.4414 70.8125 43.6934 99.2275
c22.7168 29.0107 60.708 37.8496 94.7461 21.6426c38.3457 -18.2607 55.4189 -65.6045 66.9033 -103.404c16.8955 -55.6191 25.7402 -113.719 31.4414 -171.452zM167.569 755.543c-0.046875 -0.0292969 -0.0625 -0.0537109 -0.103516 -0.0800781
c0.453125 0.142578 0.801758 0.255859 0.90625 0.291016c-0.25293 -0.0839844 -0.529297 -0.15332 -0.802734 -0.210938zM165.896 755.112c-0.0175781 -0.00585938 -0.0263672 -0.00878906 -0.0410156 -0.0146484c0.125 -0.0117188 0.229492 -0.0205078 0.366211 -0.0292969
c0.00585938 0.00292969 0.0146484 0.00585938 0.0205078 0.00585938c-0.125 0.0117188 -0.241211 0.0263672 -0.345703 0.0380859zM166.825 754.851c-1.29004 -1.56543 -0.389648 -0.592773 0 0zM163.427 755.292
c-1.03418 0.0751953 -1.85156 0.133789 -0.210938 0.00878906c0.0605469 0 0.138672 -0.00585938 0.210938 -0.00878906zM252.009 311.442c2.51562 66.9062 0.895508 133.918 -6.32227 200.499c-5.53906 51.082 -13.335 102.661 -28.2988 151.919
c-6.28516 20.6895 -13.8047 41.3291 -24.5723 60.1504c-7.40918 12.9512 -16.335 23.9619 -27.1777 30.2412c-0.0605469 -0.0498047 -0.101562 -0.0849609 -0.165039 -0.140625c-9.43359 -8.19043 -12.9482 -13.0146 -19.4629 -23.9678
c-18.9111 -31.7959 -29.9395 -68.666 -38.4561 -104.418c-30.1436 -126.527 -33.5479 -261.815 -24.1514 -391.024c5.08008 -69.8809 16.0654 -145.149 48.7705 -208.062c6.48047 -12.4658 13.9072 -24.8564 23.9395 -34.8076
c3.16602 -3.13965 8.64648 -5.82031 11.2666 -9.16016c0.276367 -0.354492 1.06641 -0.848633 1.81836 -1.26367c27.5469 14.8447 39.6729 60.3096 48.1748 87.5918c23.5293 78.2051 31.5781 161.13 34.6367 242.442zM223.926 457.626
c12.5713 -52.9902 -0.920898 -114.595 -48.541 -142.792c2.06543 -1.39453 3.64551 -3.09961 4.54004 -5.12695c15.5947 -35.3652 28.6016 -71.7793 45.2764 -106.681c8.79785 -18.4121 -42.6738 -23.4258 -50.4141 -7.22754
c-4.46094 9.3291 -8.64355 18.7744 -12.6982 28.2725c0.107422 -10.1602 0.173828 -20.3174 0.304688 -30.4775c0.244141 -18.8271 -52.0381 -18.877 -52.2822 0c-1.3623 105.455 -1.52246 210.913 -0.458984 316.371c0.101562 10.0967 14.9268 14.7471 28.7607 14.0762
c20.1514 5.35645 43.3271 1.24609 58.4307 -13.2129c14.6074 -13.9795 22.5049 -33.9072 27.082 -53.2021zM167.78 370.808c8.70215 19.9336 9.75586 42.4922 7.66797 63.8896c-1.52734 15.5918 -5.04785 30.498 -11.9404 44.582
c-0.566406 1.15332 -1.16504 2.32422 -1.76953 3.48926c-0.336914 -41.5234 -0.516602 -83.0469 -0.475586 -124.57c2.54395 4.22949 4.73438 8.52246 6.51758 12.6094z" />
    <glyph glyph-name="mu" unicode="&#xb5;" horiz-adv-x="261" 
d="M231.262 476.661c1.31836 -177.546 -1.53418 -355.151 1.90234 -532.677c0.363281 -18.7783 -51.916 -18.9209 -52.2822 -0.000976562c-0.836914 43.1992 -1.10156 86.4102 -1.28125 129.615c-1.53027 -4.78125 -3.14551 -9.5332 -4.90527 -14.2207
c-9.62012 -25.6123 -25.0146 -46.9199 -55.085 -46.8848c-18.9023 0.0205078 -30.8545 8.65039 -39.0342 21.3516v-0.0673828c-0.101562 -55.6543 -0.261719 -111.312 -0.0410156 -166.966c0.238281 -59.709 -1.26953 -120.274 6.04102 -179.641
c2.1875 -17.7725 -49.8936 -19.3789 -52.2812 0c-8.22559 66.8105 -5.97168 135.222 -6.1084 202.412c-0.429688 212.078 0.572266 424.186 2.04199 636.258c-0.375 8.24316 9.72168 12.917 21.1396 13.9072c0.479492 0.046875 0.961914 0.0761719 1.44727 0.108398
c0.185547 0.0117188 0.371094 0.0292969 0.556641 0.0380859c14.0234 0.775391 29.208 -3.93848 29.1387 -14.0488c3.56055 -78.2139 4.77441 -156.479 9.52344 -234.655c2.64941 -43.5596 5.92871 -87.1162 11.0752 -130.458
c3.86328 -32.5312 7.77246 -66.1514 17.8076 -97.4736c0.298828 -0.938477 0.615234 -1.87402 0.928711 -2.80957c0.0605469 0.145508 0.126953 0.293945 0.1875 0.442383c5.33301 12.8584 9.22754 26.3389 12.5361 39.8447
c20.0996 82.0479 26.7393 167.958 33.0391 251.969c4.80371 64.0654 8.69629 128.381 9.79688 192.632c0.325195 19.002 50.2168 18.7549 52.2822 0c2.48633 -22.6035 1.40625 -45.9854 1.57422 -68.6758zM108.242 37.4697
c0.0146484 0.0205078 0.0263672 0.0351562 0.0410156 0.0556641c-0.119141 -0.0322266 -0.232422 -0.0703125 -0.354492 -0.102539c0.136719 0.0351562 0.235352 0.046875 0.313477 0.046875zM132.928 37.252c1.35352 -1.19922 2.42676 -0.828125 1.43359 -0.357422
c1.51074 -0.380859 2.62891 -0.651367 -1.66992 0.574219c0.0634766 -0.0634766 0.124023 -0.116211 0.1875 -0.173828c-0.157227 0.0263672 -0.305664 0.0527344 -0.485352 0.0761719c0.0634766 -0.00585938 0.263672 -0.0556641 0.53418 -0.119141z" />
    <glyph glyph-name="paragraph" unicode="&#xb6;" horiz-adv-x="280" 
d="M246.814 632.635c1.52734 -228.434 1.73633 -456.878 4.0166 -685.303c0.188477 -18.8506 -52.0938 -18.8564 -52.2822 0c-0.586914 58.7969 -0.967773 117.597 -1.31934 176.396c-0.397461 66.3076 -0.510742 132.636 -0.621094 198.964
c-10.5693 -8.92871 -21.8916 -16.8643 -33.7334 -23.0049c0.519531 -117.454 1.09473 -234.908 2.26855 -352.356c0.188477 -18.8506 -52.0938 -18.8564 -52.2822 0c-0.563477 56.3799 -0.935547 112.76 -1.27246 169.143
c-0.339844 56.793 -0.456055 113.6 -0.548828 170.409c-12.873 0.545898 -25.9521 4.05762 -39.0078 11.4521c-24.9033 14.1045 -35.3887 41.0879 -41.8369 67.5225c-8.23438 33.7568 -9.23047 69.0645 -7.4502 103.629c3.24707 63.0254 14.4004 132.563 45.3311 188.502
c20.207 36.5449 53.6787 63.9023 97.7236 56.9229c10.5469 -1.67285 19.917 -5.30078 28.2617 -10.375c-0.197266 12.0771 -0.354492 24.1543 -0.589844 36.2314c-0.363281 18.7783 51.916 18.9209 52.2822 0.000976562c0.700195 -36.04 0.819336 -72.0908 1.06055 -108.134
zM103.185 322.384c2.71582 -2.7627 5.28711 -4.53711 7.81152 -5.58887c-0.170898 104.9 -0.415039 209.812 -1.91992 314.681c-0.65332 -1.52441 -1.30957 -3.04883 -1.93652 -4.56836c-20.7734 -50.2139 -29.7051 -105.984 -32.2412 -160.021
c-1.28418 -27.375 -0.767578 -55.1826 3.73438 -82.2646c3.45898 -20.8193 9.17188 -46.5947 24.5518 -62.2383zM194.408 382.343c0.632812 0.859375 1.3418 1.63184 2.08496 2.36426c-0.160156 80.1797 -0.470703 160.359 -1.3418 240.524
c-0.292969 0.494141 -0.542969 1.00488 -0.743164 1.53906c-6.52051 17.5117 -14.543 35.9814 -27.4277 49.8418c-2.16406 2.3291 -4.30762 4.3916 -6.46289 6.20117c0.53125 -31.1104 0.679688 -62.2324 0.888672 -93.3457
c0.548828 -81.3994 0.912109 -162.802 1.26953 -244.201c11.7461 11.3594 22.2344 24.1826 31.7324 37.0762z" />
    <glyph glyph-name="questiondown" unicode="&#xbf;" horiz-adv-x="186" 
d="M113.98 80.5947c2.21875 19.4863 54.3037 17.7383 52.2793 0c-3.32617 -29.2256 -8.56055 -58.5088 -18.1426 -86.3926c-5.98633 -17.4248 -14.0957 -36.4814 -28.3916 -48.8291c-14.3809 -12.4199 -35.6562 -15.6465 -53.667 -10.4824
c-21.7549 6.23926 -30.6777 25.1445 -35.4707 45.7344c-12.5098 53.7432 -4.55469 111.982 2.11719 165.978c14.4297 116.795 36.9746 232.288 37.4189 350.407c0.0722656 18.9492 52.3516 18.7607 52.2822 0c-0.214844 -57.3184 -5.0625 -114.419 -12.3008 -171.249
c-6.2334 -48.9268 -14.1396 -97.6182 -20.8438 -146.479c-6.73828 -49.1328 -13.7119 -99.0479 -12.0879 -148.756c0.610352 -18.627 1.23145 -39.874 8.04883 -57.8359c19.1846 31.3691 24.7236 72.4746 28.7578 107.904zM73.6289 -41.6943
c0 -0.0175781 0.111328 0.0839844 0.296875 0.269531c-0.168945 -0.0693359 -0.288086 -0.15332 -0.296875 -0.269531zM92.1699 -40.6055c-0.157227 -3.5498 3.58691 1.3916 -0.0117188 0.0410156c0 -0.0117188 0.0117188 -0.0322266 0.0117188 -0.0410156zM95.377 665.008
c-8.33594 0 -25.5693 2.50293 -26.1416 13.5928c-0.798828 15.5273 -1.19629 31.0547 -1.21094 46.6025c-0.0175781 18.917 52.2646 18.7949 52.2822 0c0.0117188 -15.5449 0.412109 -31.0781 1.21094 -46.6025c0.566406 -11.002 -18.9141 -13.5928 -26.1406 -13.5928z" />
    <glyph glyph-name="Agrave" unicode="&#xc0;" horiz-adv-x="308" 
d="M80.374 754.687c-8.62109 5.05371 -10.1094 14.5195 -0.00195312 19.2217c36.876 17.1572 73.4844 34.8721 109.853 53.0811c10.4072 5.21094 26.6963 6.02441 36.9697 0c8.83008 -5.17578 9.87305 -14.2783 0.000976562 -19.2217
c-36.3682 -18.209 -72.9766 -35.9238 -109.853 -53.0811c-10.665 -4.96094 -26.4541 -6.16602 -36.9688 0zM294.484 -0.000976562c3.0498 -17.0986 -48.8135 -19.4521 -52.29 0.00585938c-9.11133 51.0449 -17.79 102.168 -26.4424 153.294
c-8.40039 49.6357 -16.707 99.2861 -24.9883 148.942c-25.4121 0.214844 -50.8213 0.0693359 -76.2334 -0.0292969c-17.6768 -101.209 -34.4619 -202.563 -49.168 -304.179c-2.8291 -19.5508 -54.7969 -17.3838 -52.2812 0c7.79297 53.8359 16.5938 107.526 25.54 161.182
c28.6709 171.949 59.291 343.593 90.6924 515.062c3.4502 18.8477 49.1621 19.0713 52.2812 0c3.50586 -21.4297 7.02344 -42.8594 10.5439 -64.2861c16.835 -102.49 33.7598 -204.966 50.8447 -307.415c16.8262 -100.912 33.5244 -201.862 51.501 -302.577z
M119.312 329.408c22.3008 0.0927734 44.5986 0.199219 66.8994 0.0507812c-9.17285 55.1221 -18.2988 110.256 -27.3984 165.393c-1.5625 9.4541 -3.10449 18.9111 -4.66406 28.3652c-11.7344 -64.5654 -23.4453 -129.159 -34.8369 -193.809z" />
    <glyph glyph-name="AE" unicode="&#xc6;" horiz-adv-x="422" 
d="M387.991 308.121c-37.7041 -0.386719 -75.4072 -0.165039 -113.126 -0.0517578c0.185547 -20.8604 0.769531 -41.7178 1.8584 -62.5459c3.01465 -57.6611 8.12988 -117.233 23.8291 -173.013c5.2627 -18.6934 11.7256 -40.4541 24.6973 -55.459
c0.482422 -0.557617 1.56543 -1.49609 2.66602 -2.46289c10.2119 9.78223 15.9453 24.2207 20.3135 37.3086c8.37988 25.1035 11.3662 51.8838 13.3184 78.1523c1.4375 19.3496 53.6289 18.1533 52.2812 0c-3.2793 -44.1318 -8.79785 -115.471 -54.457 -138.916
c-20.291 -10.4189 -47.4805 -9.79492 -66.9209 2.16602c-9.47754 -10.6074 -47.3037 -9.81738 -50.252 6.70117c-9.11133 51.0449 -17.79 102.168 -26.4424 153.294c-8.40039 49.6357 -16.707 99.2861 -24.9883 148.942
c-25.4121 0.214844 -50.8213 0.0693359 -76.2334 -0.0292969c-17.6768 -101.209 -34.4619 -202.563 -49.168 -304.179c-2.8291 -19.5508 -54.7969 -17.3838 -52.2812 0c7.79297 53.8359 16.5938 107.526 25.54 161.182c28.668 171.949 59.2881 343.594 90.6895 515.066
c3.4502 18.8477 49.1621 19.0713 52.2812 0c3.50586 -21.4297 7.02344 -42.8594 10.5439 -64.2861c10.9268 -66.5254 21.915 -133.045 32.9375 -199.556c0.766602 13.4775 1.65527 26.9463 2.75586 40.3916c3.8916 47.5156 10.2725 94.8564 21.9375 141.141
c8.25195 32.7344 18.8301 81.8906 52.5605 98.3389c21.2295 10.3516 52.3281 7.71387 68.8779 -10.3145c14.1338 -15.3945 18.877 -37.9023 22.8965 -57.7109c7.45898 -36.748 10.1865 -74.5186 12.6289 -111.868c4.06934 -62.2354 5.84961 -124.616 7.39746 -186.953
c0.00878906 -0.342773 -0.0380859 -0.665039 -0.0644531 -0.996094c0.0146484 -0.25293 0.0722656 -0.488281 0.0634766 -0.75c-0.307617 -11.1328 -18.002 -13.5088 -26.1406 -13.5928zM119.322 329.406c22.2979 0.0927734 44.5957 0.199219 66.8994 0.0507812
c-9.17285 55.1221 -18.2988 110.256 -27.3984 165.393c-1.5625 9.4541 -3.10449 18.9111 -4.66406 28.3652c-11.7344 -64.5654 -23.4453 -129.159 -34.8369 -193.809zM331.212 10.9688c1.16504 -2.63184 2.40234 0.513672 0 0zM322.345 10.1816
c-0.831055 -0.610352 -0.412109 -1.20508 0 0zM337.188 670.014c1.16504 0.276367 0.859375 0.607422 0 0zM274.866 335.253c28.8945 -0.0839844 57.793 -0.204102 86.6875 -0.0966797c-1.46973 57.8232 -3.25879 115.673 -6.97949 173.4
c-2.4248 37.6309 -5.14941 75.6689 -12.541 112.714c-2.66895 13.3721 -5.97168 27.6826 -12.9336 39.8994c-20.4512 -27.5381 -27.6309 -68.3125 -34.1689 -100.785c-8.64355 -42.9434 -13.3662 -86.4219 -16.3525 -130.101
c-2.16113 -31.6191 -3.41895 -63.3223 -3.71191 -95.0312z" />
    <glyph glyph-name="Ccedilla" unicode="&#xc7;" 
d="M158.463 130.05c1.4375 19.3467 53.6338 18.1582 52.2803 0.00488281c-2.93066 -39.4434 -7.55176 -87.2783 -32.5371 -119.911c-7.33105 -9.57617 -17.082 -16.7129 -27.9102 -21.1455c-0.24707 -20.251 -0.592773 -40.501 -1.10645 -60.749
c-0.485352 -19.0947 -52.7559 -18.5918 -52.2822 0c0.513672 20.2041 0.856445 40.4111 1.10645 60.6182c-2.39648 0.993164 -4.76367 2.08203 -7.06445 3.37988c-29.04 16.3848 -39.4785 55.1514 -47.083 85.0244c-12.0449 47.3242 -17.6533 96.4316 -21.084 145.06
c-6.65723 94.4238 -4.82129 191.058 7.85156 284.933c4.44141 32.8994 10.582 65.6162 19.2432 97.6768c7.06641 26.1611 15.6982 57.7686 36.3115 76.9092c21.8916 20.3291 61.4199 19.0361 81.252 -3.4541c25.6699 -29.1094 30.0352 -76.7842 33.3115 -113.611
c1.6123 -18.1445 -50.5674 -19.2744 -52.2812 0c-1.9668 22.1094 -4.73145 44.5059 -11.0723 65.8428c-2.41406 8.12109 -5.29199 16.1787 -9.11133 23.751c-1.03418 2.05078 -2.31543 3.875 -3.64258 5.65234c-5.63184 -8.33594 -9.62891 -18.2197 -13.1787 -27.4043
c-19.7188 -51.0186 -27.4619 -107.398 -32.6465 -161.586c-8.13574 -85.0537 -9.73633 -171.145 -3.19531 -256.361c3.19531 -41.6367 8.13574 -83.4912 17.3545 -124.263c1.58887 -7.01465 3.32617 -13.8379 5.29883 -20.4834
c-0.119141 22.8613 -0.345703 45.7197 -0.804688 68.5781c-0.37793 18.7725 51.9014 18.9238 52.2822 0.000976562c0.456055 -22.7168 0.679688 -45.4336 0.801758 -68.1504c4.53711 19.6494 6.45117 40.1094 7.90625 59.6885z" />
    <glyph glyph-name="Egrave" unicode="&#xc8;" horiz-adv-x="228" 
d="M51.4492 754.687c-8.62109 5.05371 -10.1104 14.5195 -0.00292969 19.2217c36.876 17.1572 73.4854 34.8721 109.854 53.0811c10.4102 5.21094 26.6963 6.02441 36.9697 0c8.83008 -5.17578 9.87305 -14.2783 0.000976562 -19.2217
c-36.3682 -18.209 -72.9766 -35.9238 -109.853 -53.0811c-10.665 -4.96094 -26.4541 -6.16602 -36.9688 0zM194.511 308.121c-37.7012 -0.386719 -75.4092 -0.162109 -113.122 -0.0517578c0.185547 -20.8604 0.769531 -41.7178 1.8584 -62.5459
c3.01465 -57.6611 8.12988 -117.233 23.8291 -173.013c5.2627 -18.6934 11.7256 -40.4541 24.6973 -55.459c0.482422 -0.557617 1.56543 -1.49609 2.66602 -2.46289c10.2119 9.78223 15.9453 24.2207 20.3135 37.3086c8.37988 25.1035 11.3662 51.8838 13.3184 78.1523
c1.4375 19.3496 53.6289 18.1533 52.2812 0c-3.2793 -44.1318 -8.79785 -115.471 -54.457 -138.916c-20.4189 -10.4854 -47.832 -9.79688 -67.2949 2.38184c-20.709 12.957 -31.0488 37.5762 -38.3301 59.8516c-20.0469 61.3174 -25.9609 128.069 -29.3037 192.152
c-3.56348 68.373 -2.20117 137.08 3.38672 205.308c3.8916 47.5156 10.2725 94.8564 21.9375 141.141c8.25195 32.7344 18.8301 81.8906 52.5605 98.3389c21.2295 10.3516 52.3281 7.71387 68.8779 -10.3145c14.1338 -15.3945 18.877 -37.9023 22.8965 -57.7109
c7.45898 -36.748 10.1865 -74.5186 12.6289 -111.868c4.06934 -62.2354 5.84961 -124.616 7.39746 -186.953c0.00878906 -0.342773 -0.0380859 -0.665039 -0.0644531 -0.996094c0.0146484 -0.25293 0.0722656 -0.488281 0.0634766 -0.75
c-0.307617 -11.1328 -18.002 -13.5088 -26.1406 -13.5928zM137.729 10.9697c1.16797 -2.63184 2.40527 0.513672 0 0zM128.864 10.1826c-0.833984 -0.610352 -0.415039 -1.20508 0 0zM143.704 670.015c1.16504 0.276367 0.859375 0.607422 0 0zM81.3828 335.254
c28.8975 -0.0839844 57.7939 -0.204102 86.6885 -0.0966797c-1.46973 57.8232 -3.25879 115.673 -6.97949 173.4c-2.42578 37.6309 -5.15039 75.6689 -12.542 112.714c-2.66895 13.3721 -5.97168 27.6826 -12.9336 39.8994
c-20.4512 -27.5352 -27.6309 -68.3125 -34.1689 -100.785c-8.64355 -42.9434 -13.3662 -86.4219 -16.3525 -130.101c-2.16113 -31.6191 -3.41895 -63.3223 -3.71191 -95.0312z" />
    <glyph glyph-name="Igrave" unicode="&#xcc;" horiz-adv-x="167" 
d="M152.854 826.989c8.83008 -5.17578 9.87109 -14.2783 -0.000976562 -19.2246c-36.3682 -18.209 -72.9766 -35.9238 -109.853 -53.0811c-10.665 -4.96094 -26.4541 -6.16602 -36.9688 0c-8.62109 5.05664 -10.1084 14.5225 -0.000976562 19.2246
c36.876 17.1572 73.4854 34.8721 109.854 53.0811c10.4102 5.21094 26.6963 6.02441 36.9697 0zM119.061 523.069c-0.723633 -178.87 -0.0537109 -357.739 1.80273 -536.599c0.194336 -18.8477 -52.0879 -18.8594 -52.2822 0
c-0.522461 50.3096 -0.963867 100.619 -1.29785 150.932c-1.21387 182.28 -0.993164 364.563 0.488281 546.841c0.154297 18.9814 52.4336 18.7285 52.2822 0c-0.435547 -53.7227 -0.775391 -107.448 -0.993164 -161.174z" />
    <glyph glyph-name="Ntilde" unicode="&#xd1;" horiz-adv-x="255" 
d="M87.2568 745.639c-1.00781 -19.2451 -53.2412 -18.3574 -52.2773 -0.000976562c0.990234 18.8682 4.49609 41.3643 18.29 55.5996c13.9766 14.4268 37.4043 16.2939 55.6328 9.78809c21.4414 -7.65039 32.5889 -27.5928 47.3701 -43.417
c5.53906 8.64648 8.91113 18.7285 11.8447 28.4561c5.02441 16.6631 56.5859 13.2354 50.4141 -7.22754c-5.58008 -18.4961 -14 -38.4443 -31.4307 -48.7412c-17.1221 -10.1162 -40.4834 -10.2148 -57.9141 -0.78125c-10.5322 5.69824 -18.3047 14.6035 -25.8682 23.6602
c-1.12109 1.34473 -6.09961 6.41309 -11.168 11.6641c-3.34277 -9.30371 -4.37695 -19.1562 -4.89355 -29zM224.237 523.071c-0.604492 -178.87 -0.0449219 -357.738 1.50586 -536.601c0.157227 -18.1016 -47.9678 -18.8105 -51.9873 -2.17285
c-1.50195 1.6377 -2.57422 3.52832 -3.01562 5.70996c-10.1426 50.0537 -20.4941 100.064 -30.9531 150.052c-19.6377 93.8574 -39.3535 187.688 -58.4512 281.642c-0.139648 -145.079 0.426758 -290.158 1.6875 -435.231c0.163086 -18.8594 -52.1191 -18.8506 -52.2822 0
c-0.435547 50.3096 -0.804688 100.619 -1.08398 150.932c-1.0166 182.28 -0.833984 364.563 0.40625 546.841c0.12793 18.9727 52.4102 18.7373 52.2822 0c-0.00585938 -0.856445 -0.00878906 -1.71582 -0.0146484 -2.57227
c0.647461 -1.1123 1.12109 -2.31445 1.3623 -3.62402c10.1631 -55.2705 20.6631 -110.478 31.5176 -165.617c18.1885 -92.3848 37.4424 -184.549 56.7783 -276.698c-0.482422 149.506 -0.220703 299.012 0.795898 448.515c0.12793 18.9727 52.4102 18.7373 52.2822 0
c-0.366211 -53.7256 -0.647461 -107.448 -0.830078 -161.174z" />
    <glyph glyph-name="Ograve" unicode="&#xd2;" horiz-adv-x="243" 
d="M48.3301 754.687c-8.62109 5.05371 -10.1133 14.5195 -0.00292969 19.2217c36.876 17.1572 73.4854 34.8721 109.854 53.0811c10.4102 5.21094 26.6963 6.02441 36.9697 0c8.83008 -5.17578 9.87305 -14.2783 0.000976562 -19.2217
c-36.3682 -18.209 -72.9766 -35.9238 -109.853 -53.0811c-10.665 -4.96094 -26.4541 -6.16602 -36.9688 0zM219.467 460.506c4.75195 -57.4609 5.65234 -115.168 3.73242 -172.782c-2.28027 -68.5127 -7.99902 -137.655 -23.8516 -204.492
c-7.34277 -29.7109 -15.6465 -71.3418 -43.7803 -88.8906c-26.9922 -16.8379 -61.8174 -8.19727 -80.7578 16.0117c-20.3438 26.002 -29.002 60.5488 -36.1934 92.1562c-8.3623 36.7539 -13.1719 74.3359 -15.8848 111.906
c-5.08594 70.4502 -4.73145 141.804 -0.417969 212.288c3.15723 51.5938 8.67578 103.35 19.6553 153.915c6.48633 29.873 13.8086 62.459 29.9639 88.873c15.917 26.0215 46.7314 35.7109 75.3672 22.6289c30.9482 -14.1396 41.6484 -54.1875 49.4414 -84.1621
c12.5186 -48.1543 18.6299 -97.9443 22.7256 -147.452zM131.99 673.592c-0.453125 -0.665039 -1.30664 -1.19141 -2.07031 -1.74023c0.737305 0.307617 1.4375 0.810547 2.07031 1.74023zM170.83 285.006c2.02441 57.9111 1.2041 115.937 -3.50098 173.693
c-3.57812 43.9746 -8.8125 88.0918 -18.4785 131.181c-5.38184 23.9941 -12.1816 51.7441 -26.8379 71.7305c-1.96973 -3.29102 -3.77344 -6.68359 -5.42871 -10.1367c-12.9248 -26.998 -19.8203 -56.9414 -25.4697 -86.1729
c-20.8086 -107.643 -22.708 -219.767 -17.4219 -328.942c2.83203 -58.4805 9.12598 -119.787 29.0771 -175.221c4.62988 -12.8584 10.082 -25.7139 17.7148 -37.1113c0.729492 -1.08594 1.4873 -2.14355 2.2627 -3.18066c2.28027 2.92773 4.4209 5.7627 5.16406 7.15723
c2.3584 4.42969 4.37988 9.04785 6.25293 13.6982c5.41992 13.4541 9.42773 27.4658 12.9043 41.5293c15.6465 65.9619 21.3975 134.163 23.7617 201.775z" />
    <glyph glyph-name="Oslash" unicode="&#xd8;" horiz-adv-x="260" 
d="M236.495 460.506c4.75488 -57.4609 5.65332 -115.17 3.72754 -172.784c-2.28027 -68.5127 -7.99902 -137.655 -23.8516 -204.492c-7.34277 -29.7109 -15.6465 -71.3418 -43.7803 -88.8906c-23.1084 -14.415 -51.9277 -10.1133 -71.6348 6.59961
c-9.49805 -61.2686 -19.3037 -122.496 -29.5625 -183.66c-3.28223 -19.5732 -55.1514 -17.0986 -52.2812 0c13.7734 82.1084 26.957 164.315 39.5479 246.615c0.819336 5.35645 1.60059 10.7158 2.41406 16.0693c-1.97754 7.57812 -3.74902 15.1416 -5.43359 22.5449
c-8.3623 36.7539 -13.1719 74.3359 -15.8848 111.906c-5.08594 70.4502 -4.73145 141.804 -0.417969 212.288c3.15723 51.5938 8.67578 103.35 19.6553 153.915c6.48633 29.873 13.8086 62.459 29.9639 88.873c13.2676 21.6914 36.8877 31.9766 60.9697 27.2422
c5.64648 38.3105 11.3623 76.6123 17.2617 114.889c3.01465 19.5625 54.9424 17.2705 52.2822 0c-7.87109 -51.0732 -15.4893 -102.185 -22.9424 -153.319c8.2168 -16.0908 13.1455 -34.5957 17.2412 -50.3438c12.5186 -48.1543 18.6299 -97.9443 22.7256 -147.452z
M89.2939 271.781c18.2666 127.582 35.9072 255.252 54.4648 382.785c-1.4668 2.44824 -3.05566 4.7832 -4.7168 7.04883c-1.96973 -3.29102 -3.77637 -6.68359 -5.42871 -10.1367c-12.9277 -26.998 -19.8203 -56.9414 -25.4727 -86.1729
c-18.5654 -96.0361 -22.0596 -195.633 -18.8467 -293.524zM187.857 285.007c2.02441 57.9111 1.20312 115.936 -3.49902 173.695c-1.79785 22.0625 -4.01074 44.1631 -6.99121 66.1504c-21.0547 -147.94 -41.8457 -295.896 -64.1318 -443.635
c2.00684 -6.76465 4.18262 -13.4658 6.56152 -20.0791c4.62988 -12.8584 10.082 -25.7139 17.7148 -37.1113c0.729492 -1.08594 1.4873 -2.14355 2.2627 -3.18066c2.27734 2.92773 4.4209 5.7627 5.16406 7.15723c2.3584 4.42969 4.37988 9.04785 6.25293 13.6982
c5.41992 13.4541 9.42773 27.4658 12.9043 41.5293c15.6465 65.9619 21.3975 134.163 23.7617 201.775z" />
    </font>
</defs>
</svg>
