<?xml version="1.0" standalone="no"?>
<!DOCTYPE svg PUBLIC "-//W3C//DTD SVG 1.1//EN" "http://www.w3.org/Graphics/SVG/1.1/DTD/svg11.dtd" >
<svg xmlns="http://www.w3.org/2000/svg" xmlns:xlink="http://www.w3.org/1999/xlink" version="1.1">
<metadata>
Created by FontForge 20170812 at Sun May 29 14:13:28 2022
 By www-data
</metadata>
<defs>
<font id="MarbleRegular" horiz-adv-x="0" >
  <font-face 
    font-family="Marble"
    font-weight="400"
    font-stretch="normal"
    units-per-em="1000"
    panose-1="0 0 0 0 0 0 0 0 0 0"
    ascent="800"
    descent="-200"
    x-height="249.854"
    cap-height="594.552"
    bbox="-204.999 -582.04 1283.51 773.528"
    underline-thickness="50"
    underline-position="-100"
    unicode-range="U+000A-20AC"
  />
<missing-glyph horiz-adv-x="527" 
d="M50 700h427v-700h-427v700zM78 680l185 -309l186 309h-371zM251 350l-180 300v-601zM264 329l-185 -308h370zM276 350l181 -303v605z" />
    <glyph glyph-name=".notdef" horiz-adv-x="527" 
d="M50 700h427v-700h-427v700zM78 680l185 -309l186 309h-371zM251 350l-180 300v-601zM264 329l-185 -308h370zM276 350l181 -303v605z" />
    <glyph glyph-name=".null" 
 />
    <glyph glyph-name=".null" 
 />
    <glyph glyph-name="LF" unicode="&#xa;" 
 />
    <glyph glyph-name="controlCR" unicode="&#xd;" 
 />
    <glyph glyph-name="space" unicode=" " horiz-adv-x="361" 
 />
    <glyph glyph-name="exclam" unicode="!" horiz-adv-x="109" 
d="M86.0254 258.847c2.23145 -40.6992 3.41309 -81.2607 2.10352 -122.003c-0.520508 -16.1992 -23.6611 -25.4521 -36.6348 -26.4482c-14.3232 -1.10059 -30.4307 4.83203 -30.4844 21.124c-0.133789 40.8252 1.20312 81.5557 2.40332 122.361
c0.59082 20.0879 1.38281 40.1055 2.47168 60.1719c0.821289 15.1562 1.375 30.6631 4.38184 45.6133c1.08398 5.40527 2.48633 10.7402 4.34766 15.9609c4.65234 13.042 28.9961 15.1221 34.9805 2.88477c0.548828 -1.12305 1.06934 -2.26562 1.56055 -3.41992
c0.133789 -0.313477 0.25 -0.636719 0.378906 -0.953125c0.344727 -0.848633 0.692383 -1.69434 1.01074 -2.55469c0.0439453 -0.114258 0.078125 -0.230469 0.119141 -0.344727c5.98438 -16.4492 6.93262 -35.3145 8.75586 -52.3525
c2.13867 -19.9932 3.50684 -39.9619 4.60547 -60.04zM66.6328 70.2139c11.8535 -16.2676 9.49219 -45.1914 9.85938 -64.4727c0.240234 -12.5293 -18.9658 -19.8623 -28.5303 -20.5967c-10.3535 -0.794922 -24.7715 3.71387 -23.7383 16.4521
c1.58203 19.5459 -1.82812 44.1279 6.17773 62.2324c5.0166 11.3428 28.2178 17.3828 36.2314 6.38477z" />
    <glyph glyph-name="quotedbl" unicode="&#x22;" horiz-adv-x="144" 
d="M39.9463 363.65c7.4834 5.77246 19.165 6.56445 26.1357 -0.114258c9.65137 -9.24316 3.75977 -28.4268 2.3916 -40.4023c-1.70898 -14.9453 -3.75781 -29.8027 -6.20312 -44.6406c-3.29102 -19.9668 -48.9775 -27.8369 -47.2207 -3.74609
c1.1543 15.8125 3.28613 31.4531 6.54102 46.9814c3.30078 15.7568 4.99512 31.6162 18.3555 41.9219zM126.25 359.664c5.05273 -18.5059 -1.15918 -42.6455 -5.82617 -60.7695c-4.10254 -15.9365 -42.748 -23.0801 -39.498 -3.13281
c3.25488 19.9785 8.07422 44.7549 19.5195 61.7734c4.36719 6.49414 22.5742 13.958 25.8047 2.12891z" />
    <glyph glyph-name="quotedbl" unicode="&#x201d;" horiz-adv-x="144" 
d="M39.9463 363.65c7.4834 5.77246 19.165 6.56445 26.1357 -0.114258c9.65137 -9.24316 3.75977 -28.4268 2.3916 -40.4023c-1.70898 -14.9453 -3.75781 -29.8027 -6.20312 -44.6406c-3.29102 -19.9668 -48.9775 -27.8369 -47.2207 -3.74609
c1.1543 15.8125 3.28613 31.4531 6.54102 46.9814c3.30078 15.7568 4.99512 31.6162 18.3555 41.9219zM126.25 359.664c5.05273 -18.5059 -1.15918 -42.6455 -5.82617 -60.7695c-4.10254 -15.9365 -42.748 -23.0801 -39.498 -3.13281
c3.25488 19.9785 8.07422 44.7549 19.5195 61.7734c4.36719 6.49414 22.5742 13.958 25.8047 2.12891z" />
    <glyph glyph-name="quotedbl" unicode="&#x201c;" horiz-adv-x="144" 
d="M39.9463 363.65c7.4834 5.77246 19.165 6.56445 26.1357 -0.114258c9.65137 -9.24316 3.75977 -28.4268 2.3916 -40.4023c-1.70898 -14.9453 -3.75781 -29.8027 -6.20312 -44.6406c-3.29102 -19.9668 -48.9775 -27.8369 -47.2207 -3.74609
c1.1543 15.8125 3.28613 31.4531 6.54102 46.9814c3.30078 15.7568 4.99512 31.6162 18.3555 41.9219zM126.25 359.664c5.05273 -18.5059 -1.15918 -42.6455 -5.82617 -60.7695c-4.10254 -15.9365 -42.748 -23.0801 -39.498 -3.13281
c3.25488 19.9785 8.07422 44.7549 19.5195 61.7734c4.36719 6.49414 22.5742 13.958 25.8047 2.12891z" />
    <glyph glyph-name="numbersign" unicode="#" horiz-adv-x="385" 
d="M342.396 408.598c10.1475 -0.0947266 30.4453 -6.72754 26.4541 -21.2568c-15.8906 -57.8877 -32.0117 -115.49 -45.7412 -173.811c8.21289 0.104492 16.4307 0.150391 24.6533 0.0703125c20.5156 -0.197266 14.3076 -21.8457 -2.80273 -21.6807
c-8.93164 0.0878906 -17.8594 0.0439453 -26.7871 -0.0751953c-1.96191 -8.76465 -3.8457 -17.5508 -5.67578 -26.3564c5.13281 0.378906 10.2637 0.733398 15.3867 1.05176c20.8486 1.2959 14.2354 -20.8604 -2.8291 -21.8906
c-5.68262 -0.344727 -11.3477 -0.741211 -17.0059 -1.18066c-6.92188 -35.4268 -13.0859 -70.9775 -19.9766 -106.409c-4.00293 -20.584 -7.88184 -41.0752 -13.124 -61.3848c-1.81543 -7.02637 -3.91797 -13.9463 -6.09277 -20.8584
c-0.746094 -2.37012 -1.5 -4.74023 -2.25391 -7.1123c-3.71094 -11.6807 -11.6074 -22.2773 -14.8936 -33.8535c-2.96289 -10.4346 -28.3955 -16.4697 -27.0244 -2.14453c0.981445 10.2666 -2.95801 21.5078 -3.01367 31.9854
c-0.0214844 3.99805 -0.0234375 7.99121 0.0107422 11.9844c0.00976562 1.43848 0.0390625 2.87695 0.0585938 4.31348c0.03125 1.91016 0.0751953 3.82031 0.135742 5.73047c0.0488281 1.91797 0.0585938 3.83789 0.136719 5.75781
c0.821289 20.3193 2.67578 40.4629 4.57617 60.707c3.25684 34.7031 8.44336 69.4912 14.6025 103.878c-13.2441 -1.88574 -26.4346 -4.02246 -39.5889 -6.36035c-8.58691 -34.4941 -17.208 -68.9785 -25.7783 -103.478
c-4.65723 -18.751 -9.83691 -37.4248 -15.5264 -55.8867c-6.20312 -20.1221 -12.0947 -41.4932 -25.0205 -58.4727c-6.9248 -9.09961 -27.5547 -11.8701 -32.5615 0.290039c-7.05859 17.1396 -3.35449 40.0693 -1.60449 58.0498
c1.80078 18.501 4.65137 37.002 8.03418 55.2773c5.5 29.7129 11.4453 59.2773 17.9668 88.752c-20.0469 -4.73242 -40.0498 -9.86523 -60.0479 -15.3555c-5.35645 -1.47266 -14.9766 -1.04004 -16.7871 5.72168c-1.87402 6.99707 6.30664 11.5547 11.6777 13.3486
c23.1436 7.73145 46.7266 14.4033 70.584 20.1807c0.189453 0.811523 0.364258 1.62793 0.553711 2.43945c2.71973 11.6152 5.42285 23.2764 8.14062 34.957c-18.0781 -3.1377 -36.0879 -6.70605 -54.0078 -10.7646c-5.53223 -1.25195 -15.2373 -1.24512 -17.1357 5.83984
c-1.81543 6.77637 6.28516 12.3252 11.9189 13.626c21.3184 4.92383 42.7529 9.23828 64.2822 12.9492c13.8027 58.6943 28.5801 117.612 48.8477 173.98c5.50977 15.3242 27.9189 22.0176 42.252 21.8838c11.4746 -0.107422 32.0195 -7.11719 28.4268 -22.8379
c-8.74707 -38.2832 -20.7559 -75.9219 -31.1807 -113.784c-4.47656 -16.2598 -8.84668 -32.5469 -13.1484 -48.8535c11.4111 1.19336 22.8398 2.21191 34.2822 3.05566c12.6602 59.9893 27.7656 119.702 47.3096 177.611c4.81934 14.2812 26.21 20.4863 39.3174 20.3652z
M245.396 158.757c1.91797 10.082 3.88867 20.165 5.9209 30.2471c-11.8467 -0.853516 -23.6807 -1.87891 -35.4932 -3.1084c-2.81445 -10.877 -5.58984 -21.7637 -8.3291 -32.6592c12.6074 2.05664 25.2461 3.89648 37.9014 5.52051z" />
    <glyph glyph-name="dollar" unicode="$" horiz-adv-x="278" 
d="M163.152 154.614c41.8604 -40.6064 98.5742 -91.4492 99.8525 -154.564c0.18457 -9.10254 -1.00879 -17.4365 -3.34473 -25.0029c-7.34766 -24.5166 -26.9375 -40.9102 -50.7148 -49.2324c-12.4365 -4.39453 -26.0205 -6.54102 -39.624 -6.47559
c1.07715 -15.8711 2.24609 -31.7324 3.59766 -47.582c1.18652 -13.9053 -28.1641 -20.541 -29.0508 -7.78613c-1.37109 19.6602 -2.54785 39.3252 -3.56836 58.998c-6.30957 1.58984 -12.4414 3.6748 -18.248 6.31152c-27.3379 12.4219 -47.6914 34.6201 -60.4443 61.5771
c-7.19434 15.2051 -11.9287 31.5215 -14.2012 48.1875c-1.80566 13.2461 -2.05371 26.252 7.6875 36.5303c4.44336 4.69043 12.6074 7.50781 18.8828 5.06055c5.50293 -2.14648 7.70703 -8.00195 3.39062 -12.6514c-10.458 -11.2656 0.205078 -39.3281 4.52441 -51.8135
c5.62695 -16.2598 14.0635 -31.3848 25.4873 -44.291c7.82617 -8.84473 19.167 -17.7207 31.7324 -23.875c-1.9541 44.0508 -3.02832 88.1211 -3.17383 132.188c-2.30371 2.27051 -4.62012 4.5332 -6.96582 6.76953c-22.2031 21.167 -45.2568 41.4229 -66.1885 63.8975
c-23.2871 25.0049 -43.8516 53.4365 -45.6523 88.7148c-3.21777 62.9814 53.6514 113.652 114.022 117.273c2.12695 0.128906 4.25879 0.208984 6.39258 0.21875c3.3418 0.0117188 6.64258 -0.15332 9.90723 -0.447266c0.617188 7.03125 1.22266 14.0625 1.89062 21.0889
c1.0625 11.1582 26.6777 14.7969 25.54 2.02441c-0.845703 -9.50781 -1.63574 -19.0205 -2.39453 -28.5361c42.502 -14.8945 72.0518 -56.5312 66.0342 -104.765c-1.56055 -12.5195 -30.3477 -16.6465 -28.8066 -2.28418c3.32227 30.9912 -11.3799 64.916 -39.2363 80.2432
c-4.01758 -56.5068 -6.49707 -113.13 -7.32812 -169.777zM137.197 180.61c1.46582 50.6934 4.20508 101.354 8.23535 151.953c-23.2041 3.0498 -46.5049 -5.77734 -55.8066 -29.7109c-10.9199 -28.0938 -4.60547 -53.4365 11.4824 -77.9121
c10.4443 -15.8906 22.9082 -30.4668 36.0889 -44.3301zM195.673 -52.3223c23.9062 17.1963 4.72559 51.7236 -7.50195 70.2881c-7.55176 11.4668 -15.8516 22.292 -24.6719 32.6748c0.777344 -36.9141 2.25 -73.8145 4.47363 -110.668
c9.80469 -0.46875 19.3564 1.7041 27.7002 7.70508z" />
    <glyph glyph-name="percent" unicode="%" horiz-adv-x="404" 
d="M315.742 338.546c12.8477 -1.52344 28.8936 -13.1592 20.3896 -27.6914c-37.7139 -64.4883 -75.8799 -128.559 -111.373 -194.33c-35.748 -66.2461 -69.4883 -133.544 -104.113 -200.371c-6.12988 -11.832 -21.9668 -17.6191 -34.625 -16.1191
c-3.74023 0.442383 -7.19141 1.61133 -10.0156 3.37793c-4.5957 2.23145 -7.50488 6.06934 -7.23242 11.7637c-0.0654297 2.06152 0.296875 4.2832 1.20117 6.65039c26.3955 69.0947 58.0625 136.014 91.9385 201.732c34.0518 66.0586 69.8818 131.797 109.83 194.504
c9.28223 14.5732 26.6582 22.54 44 20.4834zM149.427 181.712c-20.5039 -34.5498 -69.4209 -46.1533 -100.786 -17.8721c-34.0029 30.6582 -32.8311 81.6523 -34.6299 123.697c-0.670898 15.6719 24.125 24.9639 35.8232 25.8633
c10.4629 0.801758 21.4463 -2.16602 26.6768 -10.1064c20.3457 7.87988 42.7041 7.4209 60.8574 -9.0625c27.0439 -24.5605 29.7568 -73.501 15.7646 -105.312c-1.10059 -2.50293 -2.33984 -4.90625 -3.70605 -7.20801zM79.7822 284.738
c0.374023 -24.8184 0.435547 -50.2568 8.61621 -73.8818c2.53027 -7.31055 8.16699 -24.0371 16.7734 -26.4746c2.04883 -0.581055 3.98828 0.25 5.78906 1.71582c2.33594 1.91504 4.4209 4.85156 6.25391 7.23633c16.5176 21.4951 19.3125 52.6641 5.28125 76.1426
c-6.75195 11.2969 -17.9102 20.6621 -31.8975 18.708c-3.85254 -0.540039 -7.44238 -1.76465 -10.8164 -3.44629zM387.25 70.1309c4.07812 -13.1709 5.03418 -27.5586 2.76172 -41.4121c-3.7793 -23.0703 -16.4883 -44.6729 -38.5479 -56.7402
c-32.4883 -17.7744 -73.374 -9.41602 -98.2988 16.9863c-26.0254 27.5693 -26.9512 68.1973 -23.915 103.717c1.80566 21.1045 38.5723 31.2158 55.6709 21.8027c13.5352 5.19141 28.2061 7.4668 42.6602 5.99414c31.5283 -3.21582 51.6484 -24.4316 59.6689 -50.3477z
M344.32 14.8691c5.24219 12.0654 5.51367 27.7002 1.63965 41.6465c-2.8125 10.1162 -7.77539 19.3447 -14.6367 25.6279c-10.5098 9.625 -26.3174 10.4688 -39.0361 4.89355c-2.2334 -23.8457 -2.54199 -49.5918 11.1104 -70.0254
c5.01855 -7.5127 13.9697 -17.3242 23.8838 -17.6865c6.34082 -0.230469 11.6514 5.78027 14.8447 11.1934c0.814453 1.38281 1.53613 2.84375 2.19434 4.35059z" />
    <glyph glyph-name="ampersand" unicode="&#x26;" horiz-adv-x="335" 
d="M293.349 99.0342c24.9609 -11.9092 32.6426 -40.0596 24.3057 -65.2061c-8.21777 -24.7646 -28.3398 -46.7627 -48.501 -62.6514c-45.4893 -35.8477 -115.563 -52.9805 -172.226 -39.3818c-28.7402 6.89746 -53.7383 26.0596 -61.4482 55.5635
c-7.88672 30.1865 3.39844 61.4551 20.0283 86.499c14.6611 22.0791 32.2188 41.7471 52.2002 58.1387c-19.4102 3.71387 -38.001 9.96777 -54.458 19.1045c-43.749 24.2852 -44.4785 78.9014 -20.3242 117.673c22.7588 36.5303 58.4414 61.166 98.499 75.542
c27.6426 9.9209 60.8994 16.2617 90.7002 9.88867c10.7305 -2.28516 21.0312 -6.22266 30.4785 -12.2822c35.9326 -23.0439 31.876 -66.1299 23.1016 -102.252c-2.94824 -12.1357 -31.9512 -16.4863 -29.1055 -2.30957c3.7627 18.749 7.90625 39.1357 2.21191 57.9238
c-5.9502 19.6387 -24.8428 29.4404 -44.457 29.1221c-31.4336 -0.510742 -68.457 -15.3975 -90.9736 -37.3252c-22.1738 -21.5947 -41.0664 -64.7754 -12.5586 -89.4912c13.1855 -11.4336 35.1748 -14.4912 51.8457 -16.5713
c20.9023 -2.61035 40.2031 -1.88867 61.3125 -0.163086c12.1279 2.0127 28.3711 -4.20898 29.6807 -17.6543c1.38281 -14.209 -15.0303 -24.3389 -26.8623 -27.4326c-7.34766 -1.92285 -14.9795 -3.50488 -22.791 -4.75195
c-4.49902 -1.37598 -9.00977 -3.02148 -12.5801 -4.68164c-10.9082 -5.06543 -19.3496 -10.5361 -29.001 -18.0439c-17.6357 -13.7197 -34.5596 -31.7783 -45.9121 -51.0811c-19.7695 -33.6143 -18.8926 -80.1904 25.7412 -90.1582
c37.4492 -8.36621 81.6309 1.20801 114.527 19.9912c18.2578 10.4268 36.5596 25.8145 43.9092 46.1338c8.20312 22.6787 -0.610352 46.7188 -25.1855 52.5127c-40.1152 9.45996 -82.3428 -13.666 -101.755 -48.6211c-5.52734 -9.94824 -32.2803 -9.99414 -25.2002 2.82227
c27.6787 50.1025 99.5293 85.5098 154.797 59.1436z" />
    <glyph glyph-name="quotesingle" unicode="'" horiz-adv-x="89" 
d="M71.0166 362.382c4.57617 -12.6309 1.87012 -26.5137 0.09375 -39.4756c-1.91992 -14.0049 -4.16309 -27.9346 -6.45703 -41.8828c-3.82031 -23.2236 -56.0859 -26.2617 -50.1895 -3.98145c7.41504 28.0117 12.2031 62.1846 30.1787 85.5762
c5.43262 7.06543 22.6963 9.91602 26.374 -0.236328z" />
    <glyph glyph-name="quotesingle" unicode="&#x2019;" horiz-adv-x="89" 
d="M71.0166 362.382c4.57617 -12.6309 1.87012 -26.5137 0.09375 -39.4756c-1.91992 -14.0049 -4.16309 -27.9346 -6.45703 -41.8828c-3.82031 -23.2236 -56.0859 -26.2617 -50.1895 -3.98145c7.41504 28.0117 12.2031 62.1846 30.1787 85.5762
c5.43262 7.06543 22.6963 9.91602 26.374 -0.236328z" />
    <glyph glyph-name="quotesingle" unicode="&#x2018;" horiz-adv-x="89" 
d="M71.0166 362.382c4.57617 -12.6309 1.87012 -26.5137 0.09375 -39.4756c-1.91992 -14.0049 -4.16309 -27.9346 -6.45703 -41.8828c-3.82031 -23.2236 -56.0859 -26.2617 -50.1895 -3.98145c7.41504 28.0117 12.2031 62.1846 30.1787 85.5762
c5.43262 7.06543 22.6963 9.91602 26.374 -0.236328z" />
    <glyph glyph-name="parenleft" unicode="(" horiz-adv-x="273" 
d="M198.858 -79.4189c14.1484 -0.354492 26.1973 -11.7666 22.4883 -25.8096c-4.07324 -15.4287 -23.6875 -23.9355 -38.2002 -25c-52.2803 -3.83789 -102.567 23.3906 -130.729 67.29c-26.2373 40.8984 -33.2881 88.4541 -34.3037 136.141
c-1.05273 49.3389 5.19824 98.3379 18.1113 145.954c12.2617 45.2148 28.7354 91.0059 54.5547 130.39c4.25293 6.4873 8.91504 12.9697 13.9512 19.2432c15.7646 19.6484 35.3086 37.1602 58.168 45.9023c0.259766 0.0976562 0.512695 0.208984 0.772461 0.306641
c0.291992 0.106445 0.585938 0.199219 0.87793 0.303711c10.1299 3.66016 20.8994 5.58984 32.2715 5.22266c1.75195 -0.0556641 3.5166 -0.150391 5.29785 -0.318359c16.9336 -1.59961 5.76562 -19.2568 -6.03711 -19.5293
c-18.4766 -0.422852 -35.2227 -24.0547 -45.2217 -37.8086c-12.1035 -16.6543 -21.3926 -35.4785 -29.0947 -54.5098c-30.0723 -74.293 -41.6367 -160.153 -33.3584 -239.859c3.81348 -36.7275 12.1016 -75.7861 34.6299 -105.902
c9.83105 -13.1416 21.7236 -23.9912 36.1045 -31.9971c13.1543 -7.32031 24.0869 -9.62695 39.7178 -10.0186z" />
    <glyph glyph-name="parenright" unicode=")" horiz-adv-x="241" 
d="M167.177 327.285c45.4209 -69.9717 61.2354 -158.177 53.9102 -240.562c-7.52734 -84.6865 -37.7559 -186.199 -117.07 -229.858c-12.2422 -6.74023 -32.3643 -7.60059 -43.1318 2.41309c-10.2207 9.50586 -4.66016 25.0537 6.21387 31.7959
c33.5381 20.7959 53.6357 54.2012 69.2178 91.082c31.001 73.375 41.7969 159.23 29.4082 237.974c-1.95215 12.415 -4.3291 25.0557 -7.33594 37.5967c-5.54199 23.0703 -13.2344 45.8008 -24.6191 66.1367c-16.9092 30.2061 -45.0107 63.3828 -77.8105 76.4443
c-16.2236 6.45996 4.59082 22.6738 16.0049 18.2939c42.1719 -16.1826 71.4424 -54.6963 95.2129 -91.3164z" />
    <glyph glyph-name="asterisk" unicode="*" horiz-adv-x="189" 
d="M164.599 227.981c5.76758 -0.21875 10.252 -5.11621 7.88965 -10.7207c-2.62695 -6.23438 -11.0166 -8.18359 -17.0244 -7.92578c-9.94336 0.427734 -19.9131 0.845703 -29.8926 1.1377c10.918 -17.1152 21.2764 -34.6025 31.0078 -52.5127
c6.74219 -12.4053 -19.3447 -22.3457 -25.0146 -11.9111c-9.65918 17.7744 -19.8457 35.2695 -30.5156 52.4629c-10.0723 -15.7666 -20.2998 -31.4268 -30.4883 -47.0596c-3.9248 -6.02246 -11.2432 -9.66797 -18.5566 -8.6377
c-5.06738 0.714844 -12.624 5.63672 -8.60156 11.6787c12.3027 18.4795 24.2705 37.1748 36.1943 55.8945c-16.9287 -0.726562 -33.7939 -2.40137 -50.4941 -5.70215c-4.83398 -0.955078 -13.21 -1.18066 -14.8848 5.07324
c-1.55273 5.79688 5.43262 10.8398 10.3545 11.8359c18.9873 3.83984 38.0596 5.88867 57.1904 6.86621c-10.6699 15.9248 -21.7891 31.5459 -33.3633 46.8193c-7.75098 10.2275 16.2305 19.7236 23.1309 11.0156c10.5625 -13.3311 20.7002 -26.9375 30.4785 -40.7793
c7.12598 11.1094 14.2988 22.1904 21.5811 33.2002c3.52441 5.32812 9.93164 8.57324 16.4531 7.65918c4.87793 -0.682617 10.6914 -4.7998 7.62695 -10.3535c-8.73047 -15.8174 -17.9229 -31.4043 -27.3896 -46.8408c14.751 -0.133789 29.5264 -0.636719 44.3184 -1.2002z
" />
    <glyph glyph-name="plus" unicode="+" horiz-adv-x="176" 
d="M150.24 125.157c5.48828 0.692383 13.2295 -2.13281 12.6777 -8.78516c-0.576172 -6.94434 -9.45215 -10.2891 -15.2363 -11.001c-9.68359 -1.19336 -19.374 -2.32617 -29.0693 -3.41504c0.646484 -17.9756 1.19824 -35.9492 2.18262 -53.9131
c1.01367 -18.4814 3.95215 -38.9443 -2.99414 -56.4707c-0.0800781 0.0166016 -0.158203 0.0332031 -0.238281 0.0498047c-6.37305 -11.4961 -30.457 -20.2236 -39.9746 -7.1377c-11.0586 15.2031 -11.5078 38.0039 -13.3672 56.1572
c-1.88574 18.4033 -3.62109 36.8486 -4.81445 55.3135c-11.6299 -1.05469 -23.2676 -2.05566 -34.9121 -2.96191c-18.4648 -1.43848 -12.498 18.1465 2.50293 19.3662c10.4004 0.84375 20.7959 1.75 31.1865 2.71289c-2.05371 32.8555 -3.71094 66.5645 -0.320312 98.9678
c1.34375 12.8574 16.5684 20.0322 27.5713 22.0303c8.34668 1.51465 28.6221 0.316406 29.7012 -12.1182c2.94824 -34.0029 2.13379 -68.4551 2.88281 -102.672c10.748 1.23242 21.4883 2.51855 32.2217 3.87695z" />
    <glyph glyph-name="comma" unicode="," horiz-adv-x="124" 
d="M90.7988 87.1172c12.1406 -1.43848 24.6494 -11.3555 18.0898 -24.5625c-8.67676 -17.4658 -18.9531 -34.1289 -28.9062 -50.8896c-10.1348 -17.0674 -20.6367 -35.624 -33.4209 -50.834c-11.8975 -14.1553 -58.5879 -17.8203 -48.0156 10.502
c6.26074 16.7656 16.7822 33.1445 25.5439 48.7461c9.16797 16.3232 17.8379 32.9434 27.6816 48.8701c8.0332 12.9961 23.8174 19.9717 39.0273 18.168z" />
    <glyph glyph-name="hyphen" unicode="-" horiz-adv-x="159" 
d="M146.406 133.073c3.34473 -12.4854 -11.6895 -23.293 -22.2744 -25.4609c-28.998 -5.94238 -58.0107 -9.72949 -87.6094 -10.5391c-10.1494 -0.277344 -25.9893 3.32715 -24.4141 16.9189c1.4873 12.8525 17.9033 20.5742 29.3389 21.1816
c24.4482 1.30273 48.9209 4.01758 72.9395 8.8125c10.3955 2.0752 28.4199 2.52246 32.0195 -10.9131z" />
    <glyph glyph-name="period" unicode="." horiz-adv-x="82" 
d="M71.127 -6.16309c3.81543 -13.6279 -12.6113 -23.2686 -23.1162 -26.4209c-10.8477 -3.25977 -29.5508 -1.81348 -33.2305 11.3262c-3.02148 10.7812 -3.50781 22.1631 -1.81348 33.2197c3.59277 23.4541 56.7793 32.6172 55.2383 4.38184
c-0.125977 -2.33789 -0.165039 -4.65137 -0.116211 -6.99219c0.0439453 -1.41211 0.0458984 -1.33691 0.00683594 0.225586c0.102539 -0.994141 0.231445 -1.9834 0.389648 -2.96777c0.646484 -4.31934 1.46289 -8.56738 2.6416 -12.7725z" />
    <glyph glyph-name="slash" unicode="/" horiz-adv-x="266" 
d="M192.194 372.111c15.8662 -1.88086 28.2891 -13.3887 21.9062 -29.7412c-28.4932 -72.9424 -62.0098 -143.854 -90.5977 -216.801c-14.3838 -36.7031 -28.4346 -73.5762 -42.1689 -110.524c-6.77637 -18.2285 -13.7734 -36.3623 -20.7002 -54.5352
c-3.35938 -8.80566 -6.88574 -17.4971 -10.5312 -26.1865c-2.15137 -5.12598 -4.13477 -10.3203 -6.70605 -15.2344c-1.67676 -3.20605 -5.93262 -7.69238 -6.27734 -11.2188c-1.64062 -19.8203 -39.3887 -26.1953 -47.2363 -8.17285
c-3.30566 7.28711 -1.49023 18.9658 -0.342773 26.6729c1.41211 9.50293 3.56348 19.1182 5.86035 28.4316c4.70312 19.0576 9.67383 38.0254 15.3467 56.8184c11.7393 38.8975 24.3369 77.3867 38.3271 115.533c27.7471 75.6641 56.9521 152.234 95.8691 222.96
c8.81543 16.0244 29.5986 24.0908 47.251 21.998z" />
    <glyph glyph-name="zero" unicode="0" horiz-adv-x="309" 
d="M81.3379 -69.4746c-33.4219 29.7959 -47.4531 77.7734 -55.3105 120.463c-8.48047 46.0703 -8.75 93.1074 -3.67773 139.566c0.953125 8.71094 6.99023 15.8398 15.2422 20.9395c-4.86816 31.0156 2.63281 63.752 17.2646 91.7461
c18.8652 36.1025 53.3418 66.3213 95.9854 66.4355c18.3701 0.0458984 35.3662 -5.78027 50.3506 -15.25c19.2764 -12.1719 35.2354 -30.3545 46.5205 -49.7812c22.2588 -38.3174 33.2275 -81.8887 37.8555 -125.669c4.82422 -45.6445 6.52344 -92.1211 -4.75879 -136.983
c-10.7432 -42.7256 -31.2295 -84.1289 -65.7812 -112.539c-38.334 -31.5234 -96.3213 -32.2402 -133.69 1.07227zM87.1836 293.904c-11.3047 -22.2168 -19.8652 -48.3086 -18.4697 -73.6758c16.3838 0.119141 30.4229 -7.00195 28.7705 -23.7119
c-1.0957 -11.0684 -1.94434 -22.1904 -2.49121 -33.334c13.0127 -12.6025 29.7803 -20.4287 46.4053 -13.1904c12.7822 5.56543 26.8281 -7.12207 11.0781 -14.5088c-19.2275 -9.01465 -39.8652 -8.00879 -58.1572 -0.37207
c0.0654297 -20.8467 1.45312 -41.6689 4.69043 -62.248c5.42773 -34.5088 13.8203 -77.9004 39.46 -103.746c3.76758 -3.79688 8.26172 -7.48926 12.9697 -9.90723c-0.780273 0.401367 6.30957 -2.26953 7.04883 -2.7998
c0.894531 -0.03125 2.49902 -0.0654297 3.90625 -0.119141c1.06934 0.46875 3.06738 0.961914 2.49414 0.46875c0.160156 0.00195312 0.228516 -0.0390625 0.135742 -0.141602c0.349609 0.133789 0.604492 0.21875 0.789062 0.264648
c0.301758 0.367188 0.923828 0.999023 2.12402 2.06836c3.82812 3.41211 8.41211 7.84766 12.7891 13.1387c20.1416 24.3418 32.2432 55.1514 38.5869 85.8389c7.50293 36.2969 9.3623 74.1299 8.83203 111.107c-0.496094 34.6934 -3.85742 69.5732 -14.9404 102.641
c-7.37891 22.0127 -19.4365 47.2949 -39.5098 60.6748c-5.96191 3.97168 -12.6191 6.9082 -20.0713 8.38086c-31.2588 6.18359 -53.8604 -22.1025 -66.4404 -46.8281z" />
    <glyph glyph-name="one" unicode="1" horiz-adv-x="250" 
d="M76.1309 321.055c-7.84082 -9.83105 -34.5303 -5.92969 -23.4961 8.00684c22.7324 28.7217 63.7422 57.207 102.307 51.8281c1.67969 -0.233398 3.30859 -0.568359 4.90527 -0.957031c10.5752 -2.57617 19.3545 -8.42188 26.6729 -16.1045
c13.3555 -14.0166 21.8594 -34.1045 27.5439 -51.4561c12.5391 -38.2441 13.2832 -80.4795 14.2188 -120.342c0.996094 -42.4824 -1.02637 -85.2451 -2.99707 -127.682c-1.98047 -42.6943 -1.5459 -85.3252 -2.43262 -128.021
c-0.333008 -16.0459 -22.0303 -25.6875 -34.9629 -27.9336c-10.5898 -1.83984 -36.2969 -0.457031 -37.6631 15.3652c-4.14648 48.0127 0.130859 96.5742 4.76367 144.45c4.5332 46.8457 10.5244 93.5479 14.3643 140.464c1.82324 22.2607 3.50781 44.7188 3.60059 67.0625
c0.0849609 20.3115 0.0966797 42.1689 -5.94336 61.7832c-15.0664 48.9355 -72.04 7.16504 -90.8809 -16.4639z" />
    <glyph glyph-name="two" unicode="2" horiz-adv-x="216" 
d="M40.8711 317.795c-1.38574 -12.5898 -30.3359 -16.6113 -28.8145 -2.28613c2.68848 25.1895 35.2988 43.2744 56.0459 52.4277c22.584 9.95996 48.6611 15.9443 73.3555 12.0723c20.9971 -3.29297 37.4082 -13.3525 48.2139 -31.79
c12.0703 -20.5908 11.0645 -44.9736 8.41309 -67.8691c-5.53711 -47.8105 -24.5459 -92.7793 -44.4473 -136.166c-19.7188 -42.9912 -42.0479 -85.3037 -55.7021 -130.783c-2.44043 -8.12305 -6.04199 -19.2422 -3.3877 -27.6758
c2.3457 -7.44922 3.88379 -6.20996 11.0947 -6.96875c26.4512 -2.77832 53.0996 1.58887 79.5 3.1543c13.499 0.799805 34.4229 -4.73438 32.3711 -22.4336c-2.10449 -18.1729 -23.7285 -25.6123 -38.9023 -28.0869c-31.5166 -5.1377 -64.7295 -7.93066 -96.5908 -4.55273
c-25.6758 2.72168 -54.9463 14.2256 -59.4814 43.042c-3.62891 23.0635 6.01758 46.2363 14.1797 67.3281c8.33398 21.5293 18.3936 42.3877 28.791 62.9834c20.5693 40.7471 43.3896 80.4053 61.6963 122.256c9.16309 20.9512 18.3945 41.8828 24.7725 63.9004
c5.34668 18.457 17.5381 48.4814 0.31543 63.7012c-15.0566 13.3066 -38.3438 11.625 -56.3291 6.7373c-11.7979 -3.20605 -23.0977 -8.32031 -33.2939 -15.0674c-8.39746 -5.55859 -20.6084 -13.0977 -21.7998 -23.9229z" />
    <glyph glyph-name="three" unicode="3" horiz-adv-x="302" 
d="M21.1533 325.905c-6.02246 2.35059 -8.33398 8.69141 -3.67676 13.7783c23.9668 26.2031 55.877 44.4053 90.7812 51.2812c30.0723 5.92285 68.7461 6.27539 92.7549 -15.9658c0.896484 -0.831055 1.76172 -1.6748 2.59277 -2.52832
c5.40527 -5.54395 9.38672 -11.5186 12.1719 -17.7676c10.5625 -23.6367 3.93457 -51.3857 -10.2012 -75.2725c-8.08887 -13.6689 -18.1562 -26.1494 -28.9336 -37.792c24.7891 -5.79199 48.0977 -18.1875 65.7725 -35.5879
c65.0039 -63.9951 55.4033 -181.459 -16.1826 -235.856c-38.7158 -29.4209 -95.1133 -40.3096 -140.472 -20.2041c-44.1426 19.5654 -64.1631 60.3975 -64.0225 107.192c0.0458984 15.5459 21.5264 24.7939 33.8252 27.0273
c10.3369 1.87598 34.9971 0.380859 36.4385 -14.8682c1.78613 -18.917 7.08203 -37.6904 18.418 -53.1777c5.25195 -7.1748 11.2676 -12.8232 19.1328 -17.1035c5.88379 -3.20117 12.1328 -4.39746 18.6807 -5.43555c1.70117 -0.0947266 2.79492 -0.167969 3.31738 -0.21875
c1.79102 0.0732422 3.58203 0.182617 5.36816 0.360352c0.605469 0.078125 1.12598 0.143555 1.58008 0.202148c1.43848 0.337891 2.86523 0.716797 4.28418 1.125c0.0146484 0.00683594 0.0341797 0.0136719 0.0507812 0.0205078
c-3.5918 -0.974609 4.23438 1.77441 5.6709 2.37207c1.60449 0.875 2.5791 1.39062 2.99707 1.58496c1.44824 0.955078 2.89941 1.90527 4.2998 2.93066c11.8271 8.67188 22.3877 23.1846 28.6338 40.6309c12.3789 34.5762 7.03711 78.4658 -12.6309 109.438
c-9.29883 14.6436 -22.5137 28.2637 -37.3838 34.668c-9.11719 3.92773 -13.7939 5.1377 -22.3398 5.29102c-0.03125 -0.0195312 -0.0771484 -0.0390625 -0.132812 -0.0585938c1.60645 -0.349609 -8.60449 -1.5918 -6.65527 -0.84082
c-0.0292969 0.00195312 -0.0605469 0.00390625 -0.0849609 0.00585938c-0.999023 -0.254883 -1.99316 -0.53418 -2.98242 -0.831055c-0.592773 -0.225586 -1.44824 -0.548828 -2.60547 -0.979492c-14.4883 -5.58008 -33.7793 -9.16016 -46.4199 2.59863
c-11.1191 10.3447 -4.87305 26.7988 6.68848 34.2217c23.2676 14.9375 46.5449 32.0459 65.374 52.3994c9.39844 10.1592 17.3242 21.1934 24.2734 33.1494c4.50098 7.74609 10.2178 18.0537 11.8271 28.1133c0.0214844 0.140625 0.0556641 0.28418 0.0771484 0.427734
c0.0292969 0.197266 0.0361328 0.391602 0.0625 0.585938c0.578125 4.43555 0.344727 8.79785 -1.19336 12.8369c-8.55273 22.4355 -48.2842 20.8945 -66.793 17.6279c-27.7422 -4.89746 -52.832 -19.2207 -71.8213 -39.875
c-4.73926 -5.15527 -13.7949 -8.1377 -20.542 -5.50586z" />
    <glyph glyph-name="four" unicode="4" horiz-adv-x="328" 
d="M103.913 30.1328c-11.5908 -10.0938 -36.3047 -21.0596 -49.0986 -6.68555c-11.5908 13.0176 0.172852 32.248 9.74707 42.4688c12.8672 13.7344 30.0537 22.4502 47.4775 28.9229c0.0458984 0.0195312 0.0947266 0.0341797 0.140625 0.0507812
c13.8828 41.4932 21.6973 85.2861 28.0508 128.42c3.38086 22.9512 5.92578 46.0479 6.79102 69.2402c0.461914 12.3174 0.47168 24.6641 -0.15332 36.9766c-0.50293 9.93848 0.760742 25.7734 -6.77637 33.3613c-8.68457 8.74023 15.249 18.834 23.1309 11.0146
c7.99414 -7.93066 7.8291 -20.1611 8.69727 -30.7168c1.07422 -13.0762 1.5459 -26.2012 1.41699 -39.3213c-0.264648 -27.0342 -2.96484 -53.9912 -6.76855 -80.7393c-5.66309 -39.8145 -12.7529 -79.9375 -24.1836 -118.631
c27.0811 7.31836 55.0078 11.5498 83.0166 13.4258c-0.787109 11.1562 -1.49902 22.3223 -2.15527 33.5049c-2.10938 36.0176 -3.55273 72.0303 -4.19434 108.106c-0.639648 36.0156 -2.37793 72.5605 1.91699 108.379c2.05859 17.1719 22.0029 26.9277 36.9502 29.5264
c11.2627 1.95703 38.2705 0.481445 39.8037 -16.2402c3.43945 -37.4902 1.78711 -75.2266 2.14453 -112.846c0.334961 -35.2861 0.969727 -70.5918 1.95898 -105.868c1.01367 -36.0977 2.40137 -72.1787 3.44434 -108.276
c0.50293 -17.4512 0.837891 -34.8828 1.18262 -52.3359c0.359375 -18.1924 1.08887 -36.5088 -4.7832 -53.9551c-5.01855 -15.0273 -32.5518 -18.1963 -42.2686 -7.44824c-12.4951 13.7568 -16.7148 34.4287 -20.0059 52.1641
c-3.15918 17.0332 -5.25879 34.1367 -7.26172 51.3369c-2.07324 17.7939 -3.7627 35.5928 -5.19629 53.4131c-30.8701 -1.6748 -62.5029 -5.98633 -91.8535 -15.6504c-6.63281 -18.9316 -15.7979 -38.2129 -31.1709 -51.5977zM101.502 67.3428
c-11.1709 -6.54785 -22.1074 -16.0596 -21.6797 -28.5303c0.318359 0.130859 0.62207 0.254883 0.999023 0.40332c2.35254 1.58008 4.44238 3.45605 6.26562 5.63184c3.02832 3.20605 5.64551 6.90332 7.98633 10.6387c2.38672 3.81152 4.49902 7.78809 6.42871 11.8564z
" />
    <glyph glyph-name="five" unicode="5" horiz-adv-x="329" 
d="M62.1553 347.819c-15.4092 -1.94238 -32.71 -3.15625 -44.2793 8.94043c-8.84473 9.24805 15.9316 19.75 23.9375 11.4014c6.28809 -6.55957 23.9336 -1.60156 31.585 -0.189453c4.36523 0.804688 8.69629 1.78906 13.0107 2.84375
c5.15234 3.70215 13.4893 6.11523 20.3408 5.40527c19.0527 5.28906 38.0908 10.7334 57.7754 13.125c26.7822 3.25488 91.9854 -2.52246 75.0859 -45.9287c-4.17285 -10.7188 -30.6504 -11.1367 -25.1992 2.81934c8.81055 22.5527 -28.7744 25.7949 -42.0449 25.1602
c-18.5225 -0.886719 -36.501 -5.95215 -54.2754 -10.9004c-0.685547 -17.6338 -4.56934 -35.6143 -8.1709 -52.8633c-2.49609 -11.958 -4.84863 -23.9355 -7.35645 -35.8789c5.21387 0.894531 10.459 1.64062 15.7109 2.06152
c15.75 1.26172 32.042 0.574219 47.5928 -2.24805c30.2041 -5.4834 60.0049 -17.3711 83.71 -37.2334c40.4141 -33.8613 63.2949 -82.8867 62.9785 -135.65c-0.318359 -53.0918 -28.9014 -103.513 -72.835 -132.9c-45.4922 -30.4297 -115.658 -47.7178 -164.397 -14.3838
c-19.7305 13.4971 -32.8672 35.7754 -36.5205 59.2715c-4.84863 31.1885 3.98145 59.9678 14.0264 89.1338c4.37695 12.709 23.2715 18.2412 35.0059 18.1318c9.44531 -0.0849609 26.6074 -5.90625 23.5547 -18.9219c-8.47559 -36.1367 -24.8525 -103.374 25.8506 -117.376
c8.67969 -2.39648 16.6396 -2.43262 25.4336 -1.15137c3.87207 0.563477 16.1631 4.23145 19.1064 5.68262c15.3389 7.55859 26.9619 15.5254 38.6602 29.9307c24.7109 30.4326 30.002 74.0508 20.1758 111.155c-9.86523 37.252 -35.1494 70.7764 -70.4453 87.3213
c-16.8506 7.89648 -37.957 12.4805 -54.1875 11.5518c-10.9375 -0.625 -14.3916 -2.02734 -26.2158 -4.375c-15.0186 -2.98242 -30.0732 -3.66016 -44.6592 1.66016c-11.793 4.30176 -16.124 13.4717 -12.2275 25.1816c10.9639 32.9453 19.043 69.9062 37.0312 100.363
c-2.57617 -0.422852 -5.16211 -0.811523 -7.75781 -1.13965z" />
    <glyph glyph-name="six" unicode="6" horiz-adv-x="276" 
d="M102.904 -80.3389c-82.2021 24.667 -92.2627 124.421 -83.1455 196.245c5.2666 41.4814 16.9141 82.4404 32.4424 121.222c14.1338 35.3027 32.9629 69.4492 58.8965 97.4707c22.0762 23.8506 50.0605 42.5898 81.8105 49.458
c0.233398 0.0507812 0.461914 0.116211 0.695312 0.165039c1.23926 0.262695 2.50098 0.459961 3.75293 0.683594c1.0625 0.192383 2.11523 0.416016 3.18457 0.579102c2.32812 0.354492 4.67383 0.646484 7.03906 0.870117
c30.0098 2.84375 64.5957 -17.8887 53.7139 -51.8789c-2.95312 -9.21875 -28.1162 -10.5947 -24.8105 0.334961c4.16797 13.7832 -4.33105 28.0869 -18.2217 32.0459c-4.55273 1.29785 -8.89355 1.1377 -13.0186 0.0488281
c-0.306641 -0.0800781 -0.620117 -0.135742 -0.923828 -0.228516c-0.0537109 -0.0146484 -0.107422 -0.0390625 -0.161133 -0.0556641c-6.98047 -2.14355 -13.3066 -6.95605 -18.9385 -12.0723c-2.10254 -1.91797 -4.10547 -3.87891 -6.00391 -5.75977
c-19.5537 -19.374 -31.9473 -43.7324 -43.2568 -68.5264c-24.5068 -53.7266 -39.0801 -112.271 -43.4912 -171.125c-1.08887 -14.5098 -1.19141 -30.4219 0.320312 -46.4434c19.6045 11.4375 41.3184 19.2031 64.0146 22.5723
c37.3984 5.55176 81.7139 -6.49414 98.1445 -43.7607c15.1689 -34.4014 -6.85156 -69.9453 -32.5908 -91.7764c-32.8555 -27.8662 -77.1641 -42.7578 -119.452 -30.0684zM218.455 40.6729c-28.3838 40.5332 -84.7842 25.5293 -122.55 0.266602
c5.87695 -29.8301 18.5645 -57.9707 42.4316 -75.8086c23.1729 -17.3174 55.3623 -5.83594 73.7275 15.5674c14.4766 16.9551 20.3389 40.0566 6.39062 59.9746z" />
    <glyph glyph-name="seven" unicode="7" horiz-adv-x="281" 
d="M53.6084 352.955c-6.22656 4.71289 -3.58203 11.8721 1.78418 16.0449c32.5352 25.2842 79.5586 39.1113 119.564 24.5332c2.375 -0.863281 4.66211 -1.82129 6.86914 -2.86426c0.03125 -0.0146484 0.0605469 -0.0292969 0.0917969 -0.0439453
c2.15625 -1.02051 4.23438 -2.12598 6.2373 -3.30469l0.254883 -0.152344c1.93945 -1.15234 3.80566 -2.375 5.60645 -3.66602c0.130859 -0.0947266 0.259766 -0.189453 0.390625 -0.28418c1.75 -1.27148 3.43945 -2.60547 5.06543 -3.99805
c0.138672 -0.119141 0.279297 -0.240234 0.417969 -0.361328c1.62402 -1.41016 3.18652 -2.87793 4.68848 -4.39941c0.0947266 -0.0947266 0.1875 -0.189453 0.282227 -0.287109c17.6475 -18.0537 27.1387 -43.6055 33.2588 -68.832
c9.87988 -40.7227 7.98438 -85.2275 5.40332 -126.716c-0.731445 -11.7734 -1.78418 -23.5225 -3.03613 -35.252c2.51758 0.488281 5.03516 0.979492 7.55273 1.46777c5.34473 1.03809 14.5879 1.31543 16.4424 -5.60449
c1.69922 -6.34375 -5.9834 -12.0576 -11.4375 -13.0732l-14.8887 -2.77734c-3.14746 -25.1289 -7.0293 -50.1797 -10.8184 -75.1846c-6.48438 -42.7773 -12.1719 -85.7295 -19.1768 -128.411c-5.02344 -30.6172 -74.8223 -42.8105 -72.4619 -5.74805
c3.14258 49.3613 14.3135 98.3096 23.5225 146.815c3.12598 16.459 6.17871 32.96 9.05664 49.4951c-7.39844 -1.38086 -14.7998 -2.76172 -22.2012 -4.14258c-5.12598 -0.955078 -13.9658 -1.28809 -15.75 5.36914c-1.63574 6.10547 5.74121 11.5107 10.957 12.5244
c10.1064 1.96387 20.21 3.9248 30.3135 5.88867c4.1123 25.1826 7.67773 50.4473 10.208 75.8027c2.32617 23.3232 4.22461 46.9355 3.96484 70.3877c-0.245117 22.1396 -0.716797 46.1113 -8.95605 66.999c-8.65723 21.9209 -27.4229 30.0166 -47.6396 29.7324
c-18.6465 -0.264648 -38.5303 -7.65137 -52.8633 -17.957c-5.78906 -4.16113 -16.4229 -6.75488 -22.7031 -2.00098z" />
    <glyph glyph-name="eight" unicode="8" horiz-adv-x="284" 
d="M106.851 118.603c-33.876 29.0449 -66.1377 60.5098 -83.0078 102.721c-18.0029 45.04 -7.30176 95.6191 21.1201 133.666c25.8242 34.5664 69.7949 61.9854 113.498 64.4697c41.6465 2.36719 75.2891 -23.9453 90.9248 -61.334
c17.5752 -42.0254 9.78027 -92.7188 1.00879 -135.89c-7.86523 -38.708 -19.5439 -76.4443 -32.1729 -113.83c28.1602 -30.2939 52.6836 -71.6396 45.2168 -113.797c-5.19629 -29.3506 -25.2969 -57.5078 -51.2764 -73.9697
c-8.65527 -5.48535 -17.9639 -9.6709 -27.5957 -12.1719c-38.0664 -9.88281 -80.1484 2.9209 -97.1426 40.3018c-17.4561 38.3994 -10.7891 88.1523 2.92383 126.591c5.0625 14.1914 11.7588 27.7412 19.7627 40.4863c-1.08887 0.918945 -2.18262 1.83301 -3.25977 2.75684z
M130.396 -60.3838c14.7334 -12.9424 36.6484 -15.8916 54.7383 -8.90137c6.87305 2.65918 12.9443 6.55762 17.9658 11.416c7.91406 7.66602 13.1738 17.7383 14.6787 29.2471c2.69336 20.6104 -6.71289 40.4678 -17.6357 57.3936
c-18.0537 27.9775 -43.8828 49.2783 -69.5947 70.2197c-3.93945 -7.48633 -7.4248 -15.208 -10.4023 -23.1289c-8.40234 -22.3555 -12.3857 -46.4512 -12.0938 -70.3184c0.279297 -22.7568 4.27539 -50.0537 22.3438 -65.9277zM225.804 255.56
c5.31836 45.6914 5.1377 112.861 -46.6611 132.877c-37.3545 14.4297 -71.4131 -26.374 -82.5518 -57.3389c-14.4004 -40.0381 -5.39746 -85.3477 18.7734 -119.47c15.2051 -21.4639 34.1924 -39.5488 53.6807 -57.1436c0.858398 -0.391602 1.7168 -0.8125 2.58008 -1.30566
c2.22363 -1.27148 3.35156 -2.75879 3.67969 -4.32422c7.06055 -6.32617 14.1338 -12.6357 21.0801 -19.0498c13.1514 41.0928 24.4189 82.793 29.4189 125.755z" />
    <glyph glyph-name="nine" unicode="9" horiz-adv-x="345" 
d="M31.2393 271.292c27.6445 68.2637 103.203 137.323 181.565 106.278c14.9863 -5.94043 -4.27051 -20.3408 -14.6416 -16.7393c-47.9365 16.6494 -92.3301 -16.3418 -118.786 -53.9639c-13.2871 -18.8945 -23.2031 -40.7227 -28.6768 -63.1533
c-2.66113 -10.9102 -11.7979 -71.7793 10.4873 -66.4561c17.1133 4.08789 32.2646 27.3574 42.2852 40.3242c13.373 17.3076 25.3701 35.6064 37.5879 53.7334c11.7705 17.4658 23.6826 34.8857 37.1016 51.1406c12.3398 14.9473 26.4297 28.5117 45.9414 32.7871
c11.9629 2.62012 22.4844 0.858398 31.7012 -3.75684c13.2393 -6.62598 23.7754 -19.1719 31.8936 -33.3252c7.18457 -12.5127 12.5049 -26.2549 16.1797 -38.2178c13.2119 -43.0078 19.415 -89.2188 20.9707 -134.101
c1.59473 -46.0166 -0.959961 -95.3486 -15.4238 -139.365c-14.5684 -44.332 -46.8135 -78.7744 -91.2334 -93.8262c-41.6982 -14.1289 -92.8213 -5.84375 -127.007 22.2725c-33.1348 27.251 -50.5176 66.6152 -52.4912 108.986
c-0.770508 16.54 23.8623 26.9844 36.5254 29.1836c12.8428 2.23145 35.7451 0.277344 39.3467 -16.0527c4.4209 -20.0615 9.95312 -39.4785 21.3838 -56.7451c9.9873 -15.0859 23.46 -27.4453 37.6348 -32.79c2.875 -1.08398 5.79199 -2 8.74707 -2.83105
c0.25293 -0.0732422 0.44043 -0.126953 0.637695 -0.185547c0.25 -0.03125 0.548828 -0.0703125 0.911133 -0.124023c2.41113 -0.349609 4.82422 -0.578125 7.2373 -0.879883c0.454102 -0.0556641 0.78418 -0.104492 1.05664 -0.150391
c2.10938 0.0878906 4.20215 0.260742 6.29492 0.484375c0.114258 0.0488281 0.213867 0.0947266 0.347656 0.150391c1.80566 0.770508 6.94141 3.46387 3.63379 1.49316c0.930664 0.439453 1.47266 0.674805 0.894531 0.295898
c0.749023 0.344727 1.50293 0.689453 2.22461 1.07324c0.0244141 0.0117188 0.0361328 0.0185547 0.0605469 0.0302734c0.213867 0.220703 0.814453 0.713867 2.14648 1.69824c0.333008 0.245117 2.87793 2.2334 2.99902 2.2041
c3.13281 2.95996 5.98633 6.35254 8.65723 9.67773c4.47461 5.56836 9.52051 15.0566 13.2197 23.833c16.7637 39.7529 21.1172 86.3096 23.1201 129.001c2.09277 44.6289 2.53027 90.4316 -4.90918 134.638c-2.62988 15.626 -6.01758 32.1172 -12.1543 47.0596
c-1.39551 3.39746 -2.8877 6.74219 -4.59668 9.94824c-5.26172 9.86816 -7.94238 11.5303 -15.9512 5.45605c-8.2002 -6.21973 -14.6406 -14.9062 -20.9795 -22.9248c-25.7656 -32.6006 -46.333 -68.9365 -72.126 -101.518
c-11.8193 -14.9326 -24.6523 -29.9365 -41.0361 -39.999c-14.3906 -8.83984 -35.6094 -15.8691 -51.0527 -5.24023c-15.5117 10.6748 -16.5977 35.6191 -15.7637 52.5254c0.977539 19.8428 6.60645 39.7246 14.0361 58.0703z" />
    <glyph glyph-name="colon" unicode=":" horiz-adv-x="100" 
d="M43.0752 154.457c-13.1348 -1.41211 -28.0557 4.72461 -28.0576 19.4414c0 14.1943 -0.544922 29.417 4.84863 42.7656c7.65137 18.9336 44.4102 24.0254 53.3301 4.39941c3.09375 -6.80566 2.70996 -14.8066 3.04297 -22.1689
c0.301758 -6.70605 0.551758 -13.3799 0.551758 -20.0957c0 -15.0889 -22.1855 -23.1025 -33.7158 -24.3418zM78.335 23.9805c7.69238 -11.917 5.67383 -29.7891 5.66895 -43.3955c-0.00976562 -14.7266 -21.6465 -22.5459 -32.9072 -23.7559
c-12.8115 -1.37793 -27.3926 4.61133 -27.3828 18.9756c0.00976562 14.2041 -1.85156 32.9453 8.43945 44.1553c1.03809 1.13281 2.18066 2.15332 3.3623 3.12598c1.49707 1.26367 3.11816 2.4082 4.86816 3.38086c4.93848 2.81738 10.5527 4.4873 16.2178 4.91797
c5.28418 0.401367 12.4785 -0.235352 17.5459 -3.39258c0.566406 -0.347656 1.08887 -0.736328 1.58203 -1.14941c1.00391 -0.821289 1.89551 -1.76172 2.60547 -2.8623z" />
    <glyph glyph-name="semicolon" unicode=";" horiz-adv-x="100" 
d="M36.9219 153.178c-3.85449 1.36328 -10.834 5.54688 -11.1523 10.498c-0.925781 14.4375 -1.79395 28.7803 -1.87891 43.249c-0.158203 6.24609 4.75879 11.1777 10.6748 14.6074c4.75684 2.77539 10.1768 4.56641 14.1973 5.26367
c4.06152 0.707031 10.6846 0.750977 16.3457 -0.901367c5.36914 -1.54102 9.88281 -4.57715 10.4463 -10.0283c1.56543 -12.6484 2.51562 -25.2412 3.33203 -37.958c0.868164 -13.4941 -9.6416 -21.2617 -21.7891 -24.9102
c-6.05469 -1.81836 -14.1484 -1.95215 -20.1758 0.179688zM54.2373 43.6914c10.8135 0.831055 32.5244 -4.67871 28.8691 -20.001c-12.3691 -51.8184 -27.0859 -103.041 -41.1611 -154.42c-3.81055 -13.9199 -17.5166 -21.6348 -31.4463 -22.7041
c-9.97754 -0.765625 -29.251 4.21191 -26.1689 18.1338c11.377 51.4004 22.1318 102.956 35.2197 153.948c3.94727 15.3799 19.5361 23.8789 34.6875 25.043z" />
    <glyph glyph-name="less" unicode="&#x3c;" horiz-adv-x="226" 
d="M196.581 96.4814c13.8779 -3.52441 17.1562 -17.5244 10.3682 -28.3496c-7.56836 -12.0654 -27.0586 -19.916 -41.0635 -17.1084c-33.1377 6.64453 -66.0371 14.6338 -99.0049 22.0762c-23.2529 5.25 -67.2256 16.8066 -48.2461 50.0166
c8.4707 14.8184 27.4922 23.2422 41.6406 31.5254c12.7988 7.49316 25.79 14.7852 39.1865 21.1582c27.5713 13.1152 58.043 26.9326 88.9082 28.4854c15.4219 0.775391 24.8936 -12.252 11.3965 -23.3301c-18.0586 -14.8262 -40.502 -24.0254 -60.957 -35.0967
c-15.1885 -8.21973 -30.2627 -16.6611 -44.9404 -25.7588c9.36426 -2.19434 18.7627 -4.26074 28.1367 -6.39746c24.8643 -5.66797 49.8574 -10.9424 74.5752 -17.2207z" />
    <glyph glyph-name="equal" unicode="=" horiz-adv-x="310" 
d="M36.6934 133.202c-17.4561 3.87695 -7.69727 23.2148 3.18945 27.9785c18.1631 7.93848 39.7334 8.9668 59.3281 10.5391c18.96 1.52148 37.9736 2.37988 56.9922 2.63477c38.8975 0.520508 80.1582 1.12305 118.376 -6.95117
c11.0615 -2.33789 23.0176 -9.54199 16.7617 -22.7568c-6.2002 -13.0977 -22.9561 -17.4238 -36.1562 -16.833c-36.3604 1.62891 -72.3389 6.77637 -108.833 7c-18.166 0.111328 -36.3096 -0.503906 -54.4463 -1.47363
c-18.3359 -0.981445 -37.1582 -4.14844 -55.2119 -0.137695zM277.692 94.0791c10.6768 -0.750977 20.5781 -9.77539 15.3477 -20.8271c-5.55566 -11.7324 -21.1113 -16.3574 -33.0957 -15.4072c-37.5732 2.97754 -75.21 3.43945 -112.832 1.07422
c-19.4639 -1.22461 -38.8809 -3.14941 -58.2031 -5.78125c-18.3135 -2.49609 -36.7754 -7.05078 -55.1699 -8.46777c-7.95215 -0.615234 -18.9766 2.28906 -19.6982 11.7148c-0.763672 9.97754 9.95215 15.417 17.8271 18.207
c19.3271 6.84668 41.2207 9.41309 61.4277 12.4854c20.125 3.05957 40.3662 5.35645 60.6631 6.89941c41.1699 3.13086 82.5537 3 123.733 0.102539z" />
    <glyph glyph-name="greater" unicode="&#x3e;" horiz-adv-x="246" 
d="M231.534 140.849c3.11621 -30.5811 -42.1494 -49.7598 -63.5449 -61.0225c-31.1104 -16.3789 -63.5039 -31.9873 -96.4277 -44.3633c-13.6523 -5.13281 -35.4131 -9.48633 -45.9443 4.68848c-9.87305 13.2852 4.0752 28.9131 16.1865 34.2793
c27.0049 11.9629 55.123 21.4541 82.3516 32.9238c12.9355 5.44922 25.8418 11.0322 38.6455 16.7803c5.15723 2.31348 10.7939 5.14062 15.5918 7.28711c-0.532227 -0.238281 0.240234 0.37207 1.08887 1.03809c-0.121094 0.339844 -0.274414 0.628906 -0.466797 0.733398
c-4.5625 2.19727 -8.17383 6.25391 -13.2949 8.29297c-5.98438 2.38184 -12.1064 4.49121 -18.1924 6.59375c-12.6123 4.35547 -25.3818 8.24902 -38.2803 11.6709c-26.2129 6.9541 -52.9756 11.5693 -79.918 14.5586c-9.18262 1.02051 -17.5098 8.05176 -13.125 17.8203
c4.5625 10.1592 18.1924 13.8652 28.3135 13.1797c34.9482 -2.37012 69.418 -8.03809 103.389 -16.5664c16.9238 -4.24805 34.2529 -8.7666 50.4307 -15.3799c12.9766 -5.30566 29.3213 -13.8467 32.6484 -28.9697c0.223633 -1.02051 0.393555 -2.0293 0.512695 -3.02539
c0.0214844 -0.174805 0.0195312 -0.344727 0.0361328 -0.519531zM179.867 132.03c0.116211 0.0585938 0.223633 0.111328 0.328125 0.162109c-0.0292969 0.078125 -0.0751953 0.158203 -0.140625 0.243164c-0.0878906 -0.158203 -0.151367 -0.293945 -0.1875 -0.405273z" />
    <glyph glyph-name="question" unicode="?" horiz-adv-x="217" 
d="M68.6465 -31.21c3.4248 25.4131 62.041 32.917 57.9141 4.5918c-2.58594 -17.7256 -4.40625 -35.5098 -5.46387 -53.3906c-1.48047 -25.0225 -58.7119 -33.4736 -57.3193 -4.5459c0.858398 17.8564 2.48242 35.626 4.86914 53.3447zM200.45 280.718
c0.150391 -2.875 0.15918 -5.7832 -0.0234375 -8.7168c-2.54004 -40.6016 -17.9229 -79.8594 -31.2734 -117.86c-13.5059 -38.4434 -27.2773 -76.1602 -33.708 -116.574c-2.87793 -18.085 -23.8438 -27.0654 -39.875 -28.7891
c-13.1201 -1.41016 -36.4434 5.54883 -33.1816 22.9951c8.11816 43.4141 24.624 85.3115 43.0059 125.308c17.6602 38.4219 38.623 77.291 50.8486 117.861c0.125977 0.417969 0.251953 0.852539 0.37793 1.27539c2.67578 9.08496 5.49512 19.3223 3.41504 28.7793
c-2.37207 10.7812 -12.5801 17.4219 -22.8955 19.7529c-19.8203 4.48145 -40.667 -4.06934 -57.2578 -14.3945c-15.7812 -9.81934 -30.8066 -23.9941 -36.0664 -42.4053c-4.625 -16.1875 -1.83008 -36.5459 11.1006 -48.2344
c10.9834 -9.93066 -11.3359 -21.7305 -19.959 -14.709c-31.5039 25.6611 -24.4092 69.4131 0.928711 96.7656c24.9854 26.9736 64.4736 46.2812 101.602 44.3125c15.7373 -0.835938 29.4551 -6.90039 40.0449 -16.3623c13.5527 -12.0703 22.0059 -29.6768 22.917 -49.0039z
" />
    <glyph glyph-name="at" unicode="@" horiz-adv-x="488" 
d="M456.518 265.212c17.833 -47.6982 16.9893 -104.953 1.80371 -153.191c-15.9072 -50.5322 -62.2354 -106.951 -120.937 -100.566c-26.0205 2.8291 -42.2686 16.6631 -52.0391 35.4385c-8.44629 -12.7793 -17.668 -25.0508 -28.0635 -36.5205
c-17.7598 -19.5996 -39.8311 -36.2363 -66.9141 -39.1748c-23.9111 -2.59375 -47.5869 7.89844 -58.9375 29.5254c-19.792 37.709 -5.73633 91.7637 13.5596 126.962c11.3867 20.7715 27.7266 40.2012 47.4814 54.373c15.1934 10.9082 32.416 18.6953 50.9727 21.5654
c1.56055 0.240234 3.12598 0.457031 4.70312 0.626953c28.085 3.04102 60.583 -10.8174 70.458 -37.0156c10.9277 -1.31934 19.5195 -7.36426 19.3369 -20.0439c-0.337891 -23.5293 -2.4043 -50.4297 8.90527 -72.0635c1.77148 -3.3877 4.2168 -6.88965 6.79102 -9.74023
c1.05957 -1.17383 3.00684 -2.48145 4.52344 -3.56543c1.73047 1.33398 3.94922 3.03516 4.58594 3.64062c30.3057 28.8135 40.4287 75.5957 42.084 115.748c1.69629 41.207 -5.95215 83.1406 -33.6309 115.051c-24.2373 27.9414 -59.9707 44.333 -96.7002 46.3018
c-15.9443 0.855469 -31.2959 -0.911133 -45.9443 -4.7832c-47.084 -12.4658 -86.8252 -46.8428 -115.111 -87.5391c-0.121094 -0.174805 -0.25 -0.347656 -0.371094 -0.522461c-1.06934 -1.5459 -2.10449 -3.10645 -3.13965 -4.66895
c-0.347656 -0.525391 -0.709961 -1.04102 -1.05273 -1.56641c-0.741211 -1.1377 -1.45312 -2.28711 -2.17773 -3.43164c-0.610352 -0.962891 -1.23535 -1.9209 -1.83301 -2.88867c-0.458984 -0.746094 -0.894531 -1.5 -1.34668 -2.24902
c-0.831055 -1.37598 -1.67188 -2.75195 -2.47852 -4.1377c-0.454102 -0.782227 -0.881836 -1.56934 -1.3291 -2.35449c-0.775391 -1.36133 -1.56055 -2.72266 -2.31152 -4.09082c-0.447266 -0.814453 -0.870117 -1.63867 -1.30762 -2.45801
c-0.72168 -1.34375 -1.45117 -2.68555 -2.14648 -4.03418c-1.11816 -2.1709 -2.20508 -4.34668 -3.25977 -6.52637c-19.4219 -40.1621 -30.0166 -84.0645 -31.5938 -128.633c-1.52441 -43.0146 4.9873 -89.3936 29.7246 -125.664
c23.4229 -34.3428 59.4697 -53.5801 101.353 -50.4541c44.6455 3.33008 83.5557 27.7568 121.663 49.0557c6.84668 3.82812 18.8701 4.48926 24.8613 -1.39062c5.79395 -5.68457 2.73438 -14.2373 -3.58203 -18.3281c-52.168 -33.7861 -111.297 -63.3682 -175.209 -58.7383
c-56.8613 4.12012 -101.439 40.9619 -123.7 92.2412c-21.1943 48.8213 -21.8242 107.331 -12.377 158.984c9.31152 50.9238 29.9639 99.4824 60.7295 141.132c1.89355 2.56152 3.83594 5.0918 5.82617 7.59277c0.102539 0.125977 0.211914 0.25 0.314453 0.378906
c3.88867 4.86328 7.95508 9.6123 12.1963 14.2207c0.306641 0.333008 0.629883 0.651367 0.936523 0.981445c21.5879 23.2236 47.4609 42.998 75.7861 57.5742c0.896484 0.461914 1.8125 0.882812 2.71387 1.33496c1.98047 0.991211 3.95898 1.99023 5.96191 2.93066
c52.5791 24.6699 112.645 31.4902 168.821 10.0215c46.4053 -17.7383 83.8857 -52.4873 101.4 -99.3398zM193.502 14.4668c0.0292969 -0.0214844 0.0556641 -0.0439453 0.0820312 -0.0654297c0.107422 0.0878906 0.200195 0.163086 0.314453 0.255859
c0.0390625 0.03125 0.0976562 0.0800781 0.136719 0.111328c-0.172852 -0.0927734 -0.350586 -0.192383 -0.533203 -0.301758zM195.726 13.3379c0.996094 2.22363 -0.333008 1.9082 -2 0.950195c0.904297 -0.702148 1.65527 -1.12793 2 -0.950195zM275.567 148.022
c2.41602 5.58008 7.89551 10.3281 14.6406 13.748c-5.11621 9.82129 -14.6533 17.4873 -25.5029 20.2656c-16.9355 4.33887 -34.6221 -6.92871 -45.2236 -19.3896c-24.9512 -29.3262 -40.1221 -64.7119 -40.6543 -103.449
c-0.133789 -9.72656 0.738281 -19.4609 3.74707 -28.7598c0.21582 -0.663086 0.454102 -1.29297 0.6875 -1.92773c1.75195 -3.02637 5.50195 -8.88672 8.46973 -12.4883c0.571289 -0.537109 1.14746 -1.04785 1.6875 -1.4873
c0.119141 0.0996094 0.223633 0.18457 0.349609 0.291992c1.24414 1.04004 4.38672 3.62598 5.84473 4.97461c6.96875 6.44336 13.0479 14.5049 18.8057 22.0273c24.4023 31.8809 41.2969 69.542 57.1484 106.194z" />
    <glyph glyph-name="A" unicode="A" horiz-adv-x="602" 
d="M627.064 -218.741c5.05273 -17.8711 -16.5889 -30.5547 -30.3379 -34.6768c-14.8213 -4.45312 -37.9961 -2.16113 -43.6152 14.8643c-40.9443 124.061 -61.6162 255.131 -76.7051 384.602c-7.24023 62.1289 -13.0664 124.333 -18.3135 186.591
c-4.62012 -0.432617 -9.24023 -0.894531 -13.8486 -1.41016c-68.4629 -7.65625 -135.295 -24.582 -202.041 -41.3281c-16.7461 -47.2324 -32.3643 -94.8877 -47.9004 -142.494c-17.4434 -53.4521 -34.8096 -106.938 -53.627 -159.928
c-17.2568 -48.5928 -32.3555 -104.234 -68.7715 -142.451c-4.45996 -4.68164 -12.5947 -7.51562 -18.8828 -5.06055c-5.45117 2.12695 -7.76953 8.04297 -3.38965 12.6514c22.3779 23.5439 34.2412 53.6992 45.5674 83.6191
c11.5088 30.4053 22.3584 61.0566 32.8438 91.8291c20.9951 61.6162 40.5361 123.713 60.9795 185.511c7.59277 22.9561 15.3145 45.9385 23.2666 68.8652c-8.00391 -1.97559 -16.0078 -3.93457 -24.0186 -5.84961c-21.4131 -5.11621 -42.8867 -9.98926 -64.4746 -14.3135
c-20.1123 -4.0293 -40.7617 -8.8125 -61.3311 -9.40039c-33.373 -0.955078 -71.7461 14.3789 -73.4551 52.458c-0.544922 12.1309 27.5537 16.6123 28.2119 2.23828c0.996094 -21.7754 23.3564 -33.5342 42.6621 -34.5674c23.1602 -1.23926 47.5215 5.61523 70.0205 10.333
c30.1943 6.3291 60.167 13.623 90.0986 21.0898c28.1621 79.3389 59.749 157.659 100.272 231.328c13.2393 24.0693 28.0527 47.6182 46.2842 68.2529c16.2676 18.4082 38.6064 40.4355 65.585 34.7119c22.9199 -4.86133 35.0215 -33.0625 42.3789 -52.6816
c10.3682 -27.6475 16.0479 -57.0537 21.1084 -86.042c8.3584 -47.8789 15.582 -95.918 22.4775 -144.003c29.8828 0.417969 61.0029 -1.97852 85.5098 -19.9443c12.9863 -9.52246 -12.0723 -23.5049 -22.001 -16.2109c-17.7139 13.0107 -39.2021 15.3291 -60.5781 15.6035
c9.2627 -65.3438 18.1221 -130.746 28.5635 -195.93c19.3906 -121.039 44.085 -240.243 77.4609 -358.257zM373.806 340.23c27.3652 5.19434 54.9258 9.49512 82.6387 12.2656c-3.99805 48.5225 -7.70898 97.0742 -11.4736 145.652
c-2.2627 29.1855 -4.9707 57.8145 -10.3447 86.6113c-1.80859 9.69531 -2.66895 25.7031 -11.5137 32.1055c-10.1016 7.31348 -23.9092 -10.9932 -30.1729 -17.7959c-36.3066 -39.4326 -59.7979 -90.3174 -82.166 -138.466
c-22.5723 -48.5908 -42.3398 -98.3311 -60.6367 -148.638c41.0293 10.2734 82.0977 20.375 123.669 28.2646z" />
    <glyph glyph-name="A" unicode="&#xc5;" horiz-adv-x="602" 
d="M627.064 -218.741c5.05273 -17.8711 -16.5889 -30.5547 -30.3379 -34.6768c-14.8213 -4.45312 -37.9961 -2.16113 -43.6152 14.8643c-40.9443 124.061 -61.6162 255.131 -76.7051 384.602c-7.24023 62.1289 -13.0664 124.333 -18.3135 186.591
c-4.62012 -0.432617 -9.24023 -0.894531 -13.8486 -1.41016c-68.4629 -7.65625 -135.295 -24.582 -202.041 -41.3281c-16.7461 -47.2324 -32.3643 -94.8877 -47.9004 -142.494c-17.4434 -53.4521 -34.8096 -106.938 -53.627 -159.928
c-17.2568 -48.5928 -32.3555 -104.234 -68.7715 -142.451c-4.45996 -4.68164 -12.5947 -7.51562 -18.8828 -5.06055c-5.45117 2.12695 -7.76953 8.04297 -3.38965 12.6514c22.3779 23.5439 34.2412 53.6992 45.5674 83.6191
c11.5088 30.4053 22.3584 61.0566 32.8438 91.8291c20.9951 61.6162 40.5361 123.713 60.9795 185.511c7.59277 22.9561 15.3145 45.9385 23.2666 68.8652c-8.00391 -1.97559 -16.0078 -3.93457 -24.0186 -5.84961c-21.4131 -5.11621 -42.8867 -9.98926 -64.4746 -14.3135
c-20.1123 -4.0293 -40.7617 -8.8125 -61.3311 -9.40039c-33.373 -0.955078 -71.7461 14.3789 -73.4551 52.458c-0.544922 12.1309 27.5537 16.6123 28.2119 2.23828c0.996094 -21.7754 23.3564 -33.5342 42.6621 -34.5674c23.1602 -1.23926 47.5215 5.61523 70.0205 10.333
c30.1943 6.3291 60.167 13.623 90.0986 21.0898c28.1621 79.3389 59.749 157.659 100.272 231.328c13.2393 24.0693 28.0527 47.6182 46.2842 68.2529c16.2676 18.4082 38.6064 40.4355 65.585 34.7119c22.9199 -4.86133 35.0215 -33.0625 42.3789 -52.6816
c10.3682 -27.6475 16.0479 -57.0537 21.1084 -86.042c8.3584 -47.8789 15.582 -95.918 22.4775 -144.003c29.8828 0.417969 61.0029 -1.97852 85.5098 -19.9443c12.9863 -9.52246 -12.0723 -23.5049 -22.001 -16.2109c-17.7139 13.0107 -39.2021 15.3291 -60.5781 15.6035
c9.2627 -65.3438 18.1221 -130.746 28.5635 -195.93c19.3906 -121.039 44.085 -240.243 77.4609 -358.257zM373.806 340.23c27.3652 5.19434 54.9258 9.49512 82.6387 12.2656c-3.99805 48.5225 -7.70898 97.0742 -11.4736 145.652
c-2.2627 29.1855 -4.9707 57.8145 -10.3447 86.6113c-1.80859 9.69531 -2.66895 25.7031 -11.5137 32.1055c-10.1016 7.31348 -23.9092 -10.9932 -30.1729 -17.7959c-36.3066 -39.4326 -59.7979 -90.3174 -82.166 -138.466
c-22.5723 -48.5908 -42.3398 -98.3311 -60.6367 -148.638c41.0293 10.2734 82.0977 20.375 123.669 28.2646z" />
    <glyph glyph-name="A" unicode="&#xc4;" horiz-adv-x="602" 
d="M627.064 -218.741c5.05273 -17.8711 -16.5889 -30.5547 -30.3379 -34.6768c-14.8213 -4.45312 -37.9961 -2.16113 -43.6152 14.8643c-40.9443 124.061 -61.6162 255.131 -76.7051 384.602c-7.24023 62.1289 -13.0664 124.333 -18.3135 186.591
c-4.62012 -0.432617 -9.24023 -0.894531 -13.8486 -1.41016c-68.4629 -7.65625 -135.295 -24.582 -202.041 -41.3281c-16.7461 -47.2324 -32.3643 -94.8877 -47.9004 -142.494c-17.4434 -53.4521 -34.8096 -106.938 -53.627 -159.928
c-17.2568 -48.5928 -32.3555 -104.234 -68.7715 -142.451c-4.45996 -4.68164 -12.5947 -7.51562 -18.8828 -5.06055c-5.45117 2.12695 -7.76953 8.04297 -3.38965 12.6514c22.3779 23.5439 34.2412 53.6992 45.5674 83.6191
c11.5088 30.4053 22.3584 61.0566 32.8438 91.8291c20.9951 61.6162 40.5361 123.713 60.9795 185.511c7.59277 22.9561 15.3145 45.9385 23.2666 68.8652c-8.00391 -1.97559 -16.0078 -3.93457 -24.0186 -5.84961c-21.4131 -5.11621 -42.8867 -9.98926 -64.4746 -14.3135
c-20.1123 -4.0293 -40.7617 -8.8125 -61.3311 -9.40039c-33.373 -0.955078 -71.7461 14.3789 -73.4551 52.458c-0.544922 12.1309 27.5537 16.6123 28.2119 2.23828c0.996094 -21.7754 23.3564 -33.5342 42.6621 -34.5674c23.1602 -1.23926 47.5215 5.61523 70.0205 10.333
c30.1943 6.3291 60.167 13.623 90.0986 21.0898c28.1621 79.3389 59.749 157.659 100.272 231.328c13.2393 24.0693 28.0527 47.6182 46.2842 68.2529c16.2676 18.4082 38.6064 40.4355 65.585 34.7119c22.9199 -4.86133 35.0215 -33.0625 42.3789 -52.6816
c10.3682 -27.6475 16.0479 -57.0537 21.1084 -86.042c8.3584 -47.8789 15.582 -95.918 22.4775 -144.003c29.8828 0.417969 61.0029 -1.97852 85.5098 -19.9443c12.9863 -9.52246 -12.0723 -23.5049 -22.001 -16.2109c-17.7139 13.0107 -39.2021 15.3291 -60.5781 15.6035
c9.2627 -65.3438 18.1221 -130.746 28.5635 -195.93c19.3906 -121.039 44.085 -240.243 77.4609 -358.257zM373.806 340.23c27.3652 5.19434 54.9258 9.49512 82.6387 12.2656c-3.99805 48.5225 -7.70898 97.0742 -11.4736 145.652
c-2.2627 29.1855 -4.9707 57.8145 -10.3447 86.6113c-1.80859 9.69531 -2.66895 25.7031 -11.5137 32.1055c-10.1016 7.31348 -23.9092 -10.9932 -30.1729 -17.7959c-36.3066 -39.4326 -59.7979 -90.3174 -82.166 -138.466
c-22.5723 -48.5908 -42.3398 -98.3311 -60.6367 -148.638c41.0293 10.2734 82.0977 20.375 123.669 28.2646z" />
    <glyph glyph-name="A" unicode="&#xc3;" horiz-adv-x="602" 
d="M627.064 -218.741c5.05273 -17.8711 -16.5889 -30.5547 -30.3379 -34.6768c-14.8213 -4.45312 -37.9961 -2.16113 -43.6152 14.8643c-40.9443 124.061 -61.6162 255.131 -76.7051 384.602c-7.24023 62.1289 -13.0664 124.333 -18.3135 186.591
c-4.62012 -0.432617 -9.24023 -0.894531 -13.8486 -1.41016c-68.4629 -7.65625 -135.295 -24.582 -202.041 -41.3281c-16.7461 -47.2324 -32.3643 -94.8877 -47.9004 -142.494c-17.4434 -53.4521 -34.8096 -106.938 -53.627 -159.928
c-17.2568 -48.5928 -32.3555 -104.234 -68.7715 -142.451c-4.45996 -4.68164 -12.5947 -7.51562 -18.8828 -5.06055c-5.45117 2.12695 -7.76953 8.04297 -3.38965 12.6514c22.3779 23.5439 34.2412 53.6992 45.5674 83.6191
c11.5088 30.4053 22.3584 61.0566 32.8438 91.8291c20.9951 61.6162 40.5361 123.713 60.9795 185.511c7.59277 22.9561 15.3145 45.9385 23.2666 68.8652c-8.00391 -1.97559 -16.0078 -3.93457 -24.0186 -5.84961c-21.4131 -5.11621 -42.8867 -9.98926 -64.4746 -14.3135
c-20.1123 -4.0293 -40.7617 -8.8125 -61.3311 -9.40039c-33.373 -0.955078 -71.7461 14.3789 -73.4551 52.458c-0.544922 12.1309 27.5537 16.6123 28.2119 2.23828c0.996094 -21.7754 23.3564 -33.5342 42.6621 -34.5674c23.1602 -1.23926 47.5215 5.61523 70.0205 10.333
c30.1943 6.3291 60.167 13.623 90.0986 21.0898c28.1621 79.3389 59.749 157.659 100.272 231.328c13.2393 24.0693 28.0527 47.6182 46.2842 68.2529c16.2676 18.4082 38.6064 40.4355 65.585 34.7119c22.9199 -4.86133 35.0215 -33.0625 42.3789 -52.6816
c10.3682 -27.6475 16.0479 -57.0537 21.1084 -86.042c8.3584 -47.8789 15.582 -95.918 22.4775 -144.003c29.8828 0.417969 61.0029 -1.97852 85.5098 -19.9443c12.9863 -9.52246 -12.0723 -23.5049 -22.001 -16.2109c-17.7139 13.0107 -39.2021 15.3291 -60.5781 15.6035
c9.2627 -65.3438 18.1221 -130.746 28.5635 -195.93c19.3906 -121.039 44.085 -240.243 77.4609 -358.257zM373.806 340.23c27.3652 5.19434 54.9258 9.49512 82.6387 12.2656c-3.99805 48.5225 -7.70898 97.0742 -11.4736 145.652
c-2.2627 29.1855 -4.9707 57.8145 -10.3447 86.6113c-1.80859 9.69531 -2.66895 25.7031 -11.5137 32.1055c-10.1016 7.31348 -23.9092 -10.9932 -30.1729 -17.7959c-36.3066 -39.4326 -59.7979 -90.3174 -82.166 -138.466
c-22.5723 -48.5908 -42.3398 -98.3311 -60.6367 -148.638c41.0293 10.2734 82.0977 20.375 123.669 28.2646z" />
    <glyph glyph-name="A" unicode="&#xc2;" horiz-adv-x="602" 
d="M627.064 -218.741c5.05273 -17.8711 -16.5889 -30.5547 -30.3379 -34.6768c-14.8213 -4.45312 -37.9961 -2.16113 -43.6152 14.8643c-40.9443 124.061 -61.6162 255.131 -76.7051 384.602c-7.24023 62.1289 -13.0664 124.333 -18.3135 186.591
c-4.62012 -0.432617 -9.24023 -0.894531 -13.8486 -1.41016c-68.4629 -7.65625 -135.295 -24.582 -202.041 -41.3281c-16.7461 -47.2324 -32.3643 -94.8877 -47.9004 -142.494c-17.4434 -53.4521 -34.8096 -106.938 -53.627 -159.928
c-17.2568 -48.5928 -32.3555 -104.234 -68.7715 -142.451c-4.45996 -4.68164 -12.5947 -7.51562 -18.8828 -5.06055c-5.45117 2.12695 -7.76953 8.04297 -3.38965 12.6514c22.3779 23.5439 34.2412 53.6992 45.5674 83.6191
c11.5088 30.4053 22.3584 61.0566 32.8438 91.8291c20.9951 61.6162 40.5361 123.713 60.9795 185.511c7.59277 22.9561 15.3145 45.9385 23.2666 68.8652c-8.00391 -1.97559 -16.0078 -3.93457 -24.0186 -5.84961c-21.4131 -5.11621 -42.8867 -9.98926 -64.4746 -14.3135
c-20.1123 -4.0293 -40.7617 -8.8125 -61.3311 -9.40039c-33.373 -0.955078 -71.7461 14.3789 -73.4551 52.458c-0.544922 12.1309 27.5537 16.6123 28.2119 2.23828c0.996094 -21.7754 23.3564 -33.5342 42.6621 -34.5674c23.1602 -1.23926 47.5215 5.61523 70.0205 10.333
c30.1943 6.3291 60.167 13.623 90.0986 21.0898c28.1621 79.3389 59.749 157.659 100.272 231.328c13.2393 24.0693 28.0527 47.6182 46.2842 68.2529c16.2676 18.4082 38.6064 40.4355 65.585 34.7119c22.9199 -4.86133 35.0215 -33.0625 42.3789 -52.6816
c10.3682 -27.6475 16.0479 -57.0537 21.1084 -86.042c8.3584 -47.8789 15.582 -95.918 22.4775 -144.003c29.8828 0.417969 61.0029 -1.97852 85.5098 -19.9443c12.9863 -9.52246 -12.0723 -23.5049 -22.001 -16.2109c-17.7139 13.0107 -39.2021 15.3291 -60.5781 15.6035
c9.2627 -65.3438 18.1221 -130.746 28.5635 -195.93c19.3906 -121.039 44.085 -240.243 77.4609 -358.257zM373.806 340.23c27.3652 5.19434 54.9258 9.49512 82.6387 12.2656c-3.99805 48.5225 -7.70898 97.0742 -11.4736 145.652
c-2.2627 29.1855 -4.9707 57.8145 -10.3447 86.6113c-1.80859 9.69531 -2.66895 25.7031 -11.5137 32.1055c-10.1016 7.31348 -23.9092 -10.9932 -30.1729 -17.7959c-36.3066 -39.4326 -59.7979 -90.3174 -82.166 -138.466
c-22.5723 -48.5908 -42.3398 -98.3311 -60.6367 -148.638c41.0293 10.2734 82.0977 20.375 123.669 28.2646z" />
    <glyph glyph-name="A" unicode="&#xc1;" horiz-adv-x="602" 
d="M627.064 -218.741c5.05273 -17.8711 -16.5889 -30.5547 -30.3379 -34.6768c-14.8213 -4.45312 -37.9961 -2.16113 -43.6152 14.8643c-40.9443 124.061 -61.6162 255.131 -76.7051 384.602c-7.24023 62.1289 -13.0664 124.333 -18.3135 186.591
c-4.62012 -0.432617 -9.24023 -0.894531 -13.8486 -1.41016c-68.4629 -7.65625 -135.295 -24.582 -202.041 -41.3281c-16.7461 -47.2324 -32.3643 -94.8877 -47.9004 -142.494c-17.4434 -53.4521 -34.8096 -106.938 -53.627 -159.928
c-17.2568 -48.5928 -32.3555 -104.234 -68.7715 -142.451c-4.45996 -4.68164 -12.5947 -7.51562 -18.8828 -5.06055c-5.45117 2.12695 -7.76953 8.04297 -3.38965 12.6514c22.3779 23.5439 34.2412 53.6992 45.5674 83.6191
c11.5088 30.4053 22.3584 61.0566 32.8438 91.8291c20.9951 61.6162 40.5361 123.713 60.9795 185.511c7.59277 22.9561 15.3145 45.9385 23.2666 68.8652c-8.00391 -1.97559 -16.0078 -3.93457 -24.0186 -5.84961c-21.4131 -5.11621 -42.8867 -9.98926 -64.4746 -14.3135
c-20.1123 -4.0293 -40.7617 -8.8125 -61.3311 -9.40039c-33.373 -0.955078 -71.7461 14.3789 -73.4551 52.458c-0.544922 12.1309 27.5537 16.6123 28.2119 2.23828c0.996094 -21.7754 23.3564 -33.5342 42.6621 -34.5674c23.1602 -1.23926 47.5215 5.61523 70.0205 10.333
c30.1943 6.3291 60.167 13.623 90.0986 21.0898c28.1621 79.3389 59.749 157.659 100.272 231.328c13.2393 24.0693 28.0527 47.6182 46.2842 68.2529c16.2676 18.4082 38.6064 40.4355 65.585 34.7119c22.9199 -4.86133 35.0215 -33.0625 42.3789 -52.6816
c10.3682 -27.6475 16.0479 -57.0537 21.1084 -86.042c8.3584 -47.8789 15.582 -95.918 22.4775 -144.003c29.8828 0.417969 61.0029 -1.97852 85.5098 -19.9443c12.9863 -9.52246 -12.0723 -23.5049 -22.001 -16.2109c-17.7139 13.0107 -39.2021 15.3291 -60.5781 15.6035
c9.2627 -65.3438 18.1221 -130.746 28.5635 -195.93c19.3906 -121.039 44.085 -240.243 77.4609 -358.257zM373.806 340.23c27.3652 5.19434 54.9258 9.49512 82.6387 12.2656c-3.99805 48.5225 -7.70898 97.0742 -11.4736 145.652
c-2.2627 29.1855 -4.9707 57.8145 -10.3447 86.6113c-1.80859 9.69531 -2.66895 25.7031 -11.5137 32.1055c-10.1016 7.31348 -23.9092 -10.9932 -30.1729 -17.7959c-36.3066 -39.4326 -59.7979 -90.3174 -82.166 -138.466
c-22.5723 -48.5908 -42.3398 -98.3311 -60.6367 -148.638c41.0293 10.2734 82.0977 20.375 123.669 28.2646z" />
    <glyph glyph-name="B" unicode="B" horiz-adv-x="519" 
d="M92.5947 248.852c2.94043 15.123 6.24121 30.1875 9.95508 45.1768c26.877 108.67 72.9375 224.981 157.815 301.555c40.9297 36.9238 95.9854 64.6143 152.429 53.6992c53.0332 -10.2568 83.9004 -55.1797 96.6045 -104.964
c29.0107 -113.687 -24.5938 -233.183 -84.1748 -327.642c-29.9609 -47.499 -63.6914 -92.6387 -101.394 -134.278c-7.61035 -8.4043 -15.4219 -16.7725 -23.4033 -25.0527c29.1689 0.401367 58.2139 -5.91113 81.8262 -24.3223
c54.0693 -42.1592 60.8379 -118.088 32.4639 -177.231c-26.3154 -54.8516 -80.0713 -95.9199 -138.885 -110.08c-51.6455 -12.4346 -148.822 -6.93945 -139.401 69.1982c3.98828 32.2383 26.2197 60.8018 49.6641 81.7988c23.8193 21.335 53.1602 36.4209 84.2539 43.8096
c9.55664 2.27051 27.1855 2.17285 30.2871 -10.3252c3.02832 -12.1963 -10.998 -21.5176 -21.0674 -24.084c-23.126 -5.89355 -43.6201 -17.8809 -59.7295 -35.6016c-14.7168 -16.1875 -31.2783 -40.9492 -24.7959 -63.9736
c5.10449 -18.124 26.2666 -23.6338 40.3486 -24.0156c21.415 -0.581055 37.1797 3.85449 54.5479 12.1641c33.4512 16.0049 63.1836 48.3379 73.1367 87.2891c10.9961 43.0371 0.376953 100.346 -45.6543 117.751c-22.4141 8.47559 -41.4033 4.92969 -61.207 -0.839844
c-3.3877 -0.989258 -6.7832 -2.05664 -10.125 -3.2207c-0.729492 -0.308594 -3.33301 -1.31934 -3.70996 -1.4873c-6.36328 -2.82715 -12.6172 -5.625 -18.7959 -8.84766c-0.202148 -0.104492 -3.11133 -1.80859 -3.54395 -2.03418
c-1.68945 -1.05762 -3.36426 -2.14648 -5.01953 -3.25684c-5.66992 -4.35059 -11.3965 -8.58496 -17.1787 -12.6855c-15.04 -10.668 -40.1201 -16.2852 -56.4844 -4.97852c-15.6865 10.8398 -8.95898 30.4102 4.45996 39.9326
c46.1992 36.9023 86.9219 70.4219 127.246 113.085c38.6592 40.9004 73.792 85.1523 104.543 132.29c56.6211 86.793 118.789 197.872 92.7266 305.41c-5.50293 22.7129 -17.1279 45.0664 -36.4941 58.998c-20.2705 14.5811 -46.4033 18.5449 -70.6064 13.5215
c-49.4268 -10.2588 -88.959 -52.7559 -118.463 -91.0947c-65.2178 -84.7471 -102.118 -192.732 -121.9 -296.751c-14.7559 -77.5889 -19.998 -156.692 -18.4258 -235.635c1.62598 -16.3379 3.28613 -32.6855 5.32031 -48.9727
c2.49609 -19.9668 6.61133 -40.2031 7.29199 -60.2988c0.610352 -18.0732 -40.0107 -28.792 -48.6729 -13.042c-11.3867 20.7031 -17.6865 45.1025 -23.3301 67.9395c-5.55859 22.4873 -9.45703 45.0762 -12.5586 68.0205
c-11.3066 83.6484 -14.8799 168.604 -15.4434 252.958c-0.571289 85.5518 3.70117 171.195 14.4775 256.071c4.04883 31.8936 76.957 43.1465 73.9482 5.86523c-3.84961 -47.6846 -7.22559 -95.5049 -9.58789 -143.286
c-2.28027 -46.1191 -3.36914 -92.3281 -3.29395 -138.532z" />
    <glyph glyph-name="C" unicode="C" horiz-adv-x="550" 
d="M354.875 284.979c18.3281 24.5215 28.8271 54.1348 31.958 84.46c5.83594 56.4561 -17.1787 130.382 -77.0566 149.041c-54.9492 17.123 -101.265 -31.5986 -129.568 -71.6289c-33.5166 -47.4043 -57.3213 -103.413 -72.8984 -159.133
c-34.6133 -123.812 -31.167 -260.094 13.8945 -380.932c19.1455 -51.3418 49.9863 -100.401 100.473 -125.53c21.5078 -10.7061 45.7793 -14.9033 69.1416 -8.49414c26.0938 7.1582 49.3955 24.2812 68.1465 43.3408c45.0547 45.7959 76.9668 106.977 102.132 165.472
c26.1182 60.7041 47.332 123.348 68.5039 185.899c3.67969 10.8691 29.8438 11.5107 25.1992 -2.81934c-25.9043 -79.8984 -53.833 -158.224 -87.1387 -235.354c-30.6094 -70.8877 -69.8037 -146.996 -142.5 -182.189c-65.7354 -31.8223 -145.001 -20.4473 -200.244 26.957
c-54.2178 46.5244 -81.9033 114.07 -99.3203 181.82c-36.125 140.524 -22.6865 300.671 43.5273 430.426c31.6982 62.1162 80.583 126.513 145.9 155.618c34.3896 15.3242 74.1113 21.0039 110.294 8.375c28.6123 -9.98438 52.791 -31.6035 68.3389 -57.3818
c31.8027 -52.7324 33.6377 -119.346 9.85254 -175.466c-24.001 -56.6279 -80.3838 -110.923 -146.341 -95.1006c-9.33301 2.23828 -10.3857 12.3105 -5.0293 18.7686c6.25391 7.53906 18.8584 10.6475 28.0137 7.50488c29.9004 -10.2617 58.002 13.9756 74.7217 36.3457z
" />
    <glyph glyph-name="D" unicode="D" horiz-adv-x="601" 
d="M22.1436 493.496c2.68555 32.3447 76.4805 43.3242 74.2539 5.88965c-2.80762 -47.1299 -4.92676 -94.333 -5.22363 -141.553c-0.515625 -81.9883 3.61914 -164.171 12.4561 -245.683c4.20215 -38.752 8.92676 -77.5137 14.8105 -116.052
c6.6377 76.5898 18.7178 152.706 36.1758 227.575c18.9092 81.0889 42.835 162.849 85.0508 235.188c35.2881 60.4736 94.7646 134.9 174.482 116.623c36.1416 -8.28809 64.1172 -35.3174 87.3457 -62.7119c25.0928 -29.5967 45.1104 -64.7881 58.3174 -101.265
c26.9443 -74.417 33.5967 -155.224 30.0137 -233.892c-3.55371 -78.0146 -21.501 -157.174 -56.3418 -227.282c-36.4453 -73.3379 -96.3721 -152.531 -180.38 -172.354c-40.1787 -9.47852 -84.5283 -7.03809 -119.263 17.1572
c-26.2354 18.2725 -45.0498 46.8213 -54.6377 77.084c-22.1367 69.8652 8.26367 142.462 60.1455 190.622c50.0371 46.4492 146.259 92.4756 201.125 27.4814c9.28906 -11.0029 -18.0732 -22.2002 -26.3584 -12.5537c-10.7725 12.5439 -25.6719 20.2051 -42.0195 22.4824
c-35.0332 4.88281 -69.167 -15.2588 -95.3457 -36.4893c-24.9443 -20.2314 -45.4453 -46.3301 -57.834 -76.041c-23.3545 -56.0088 -7.58984 -123.767 45.0693 -157.157c10.7695 -6.83008 22.8027 -11.6279 35.4102 -13.1475c14.5566 -1.75 30.2969 1.41895 40.5879 5.48535
c30.1211 11.8994 52.3623 32.8115 73.4951 58.7568c42.5215 52.2002 72.0889 114.684 89.5566 179.583c18.1123 67.2959 25.0342 137.932 23.2793 207.51c-1.7041 67.5117 -10.7969 138.181 -39.9121 199.82c-14.2236 30.1162 -34.3486 60.1426 -63.7676 77.1055
c-29.6621 17.1006 -60.8232 11.6758 -87.4863 -8.16699c-27.8223 -20.7051 -48.2383 -50.4863 -65.6211 -80.0459c-18.6787 -31.7646 -33.8252 -65.5244 -46.5322 -100.084c-55.2871 -150.365 -75.2314 -313.248 -81.7842 -472.446
c-0.0800781 -1.95703 -0.87207 -3.70215 -2.12598 -5.19922c-0.989258 -6.76855 -9.99902 -12.1719 -15.7549 -13.3945c-27.2002 -5.77441 -39.2607 17.2891 -48.8154 38.8262c-9.48828 21.3906 -15.0635 45.0977 -19.9053 67.9229
c-36.0176 169.8 -46.8262 347.419 -32.4668 520.405z" />
    <glyph glyph-name="E" unicode="E" horiz-adv-x="650" 
d="M577.432 6.98633c-7.12598 -29.9561 -29.2393 -52.0791 -51.8018 -71.4941c-46.9795 -40.4219 -101.895 -69.9502 -163.311 -80.8369c-51.0938 -9.05566 -141.362 -13.457 -143.018 59.1855c-0.886719 38.9199 19.3398 74.5293 44.9912 104.804
c-66.5889 -5.00879 -139.961 5.1748 -195.34 42.998c-115.65 78.9893 -63.8271 245.403 8.91504 334.741c80.1338 98.4141 202.479 169.92 327.351 191.48c65.1885 11.2559 135.727 7.82422 196.251 -20.8701c55.4834 -26.3057 102.04 -80.6787 90.7432 -145.722
c-5.22363 -30.0752 -21.0605 -57.3945 -40.6582 -80.3818c-20.7539 -24.3389 -43.9121 -46.0947 -71.1504 -63.0674c-59.2217 -36.9004 -135.573 -51.6631 -200.822 -21.2744c-12.957 6.03223 -15.0205 17.4512 -4.45312 27.4258
c10.6992 10.0986 27.7275 12.4053 40.585 5.49316c57.8828 -31.125 125.239 -8.81543 174.69 27.6279c50.1826 36.9824 92.6748 98.9023 63.0732 162.331c-25.085 53.7529 -85.7041 79.4219 -141.205 87.6025c-58.8154 8.66992 -118.786 -0.889648 -174.274 -21.2598
c-99.3174 -36.46 -189.966 -104.5 -239.064 -199.647c-23.5664 -45.667 -38.5938 -99.8867 -29.4961 -151.389c9.29883 -52.6494 45.4385 -89.6348 93.0791 -106.634c25.96 -9.2627 46.2939 -12.8887 75.2969 -14.6992c12.665 -0.790039 20.7363 -0.833984 37.0254 0.308594
c6.50195 0.457031 12.9912 1.08203 19.459 1.88672c3.23242 0.401367 6.45996 0.850586 9.68262 1.33887c1.07227 0.163086 4.83691 0.863281 5.63184 0.999023c8.02832 1.60156 15.4121 3.28809 22.3584 5.1084c41.7461 33.9639 87.8848 61.6982 143.269 65.8008
c10.4609 0.775391 23.292 -1.94238 28.4443 -11.9971c5.37598 -10.4971 -2.38184 -19.5098 -9.81152 -26.1426c-43.6904 -39.0049 -96.8457 -64.9971 -153.165 -79.4805c-0.367188 -0.339844 -0.746094 -0.672852 -1.11328 -1.01562
c-30.6807 -28.5752 -64.9121 -68.8652 -63.1035 -113.786c0.829102 -20.5938 16.958 -27.667 35.1387 -29.5771c22.5117 -2.36523 46.1094 -0.510742 68.2119 4.14648c47.2686 9.95996 93.876 30.0527 131.1 61.2773c17.7041 14.8506 35.7021 33.8301 40.1211 57.377
c3.78223 20.1631 -2.57812 42.3662 -20.9111 53.0869c-5.53711 3.2373 -2.44824 9.83594 1.42578 12.7793c5.07227 3.85449 12.5 4.68555 18.0781 1.59375c24.3047 -13.4746 34.0312 -43.832 27.7773 -70.1182z" />
    <glyph glyph-name="E" unicode="&#xcb;" horiz-adv-x="650" 
d="M577.432 6.98633c-7.12598 -29.9561 -29.2393 -52.0791 -51.8018 -71.4941c-46.9795 -40.4219 -101.895 -69.9502 -163.311 -80.8369c-51.0938 -9.05566 -141.362 -13.457 -143.018 59.1855c-0.886719 38.9199 19.3398 74.5293 44.9912 104.804
c-66.5889 -5.00879 -139.961 5.1748 -195.34 42.998c-115.65 78.9893 -63.8271 245.403 8.91504 334.741c80.1338 98.4141 202.479 169.92 327.351 191.48c65.1885 11.2559 135.727 7.82422 196.251 -20.8701c55.4834 -26.3057 102.04 -80.6787 90.7432 -145.722
c-5.22363 -30.0752 -21.0605 -57.3945 -40.6582 -80.3818c-20.7539 -24.3389 -43.9121 -46.0947 -71.1504 -63.0674c-59.2217 -36.9004 -135.573 -51.6631 -200.822 -21.2744c-12.957 6.03223 -15.0205 17.4512 -4.45312 27.4258
c10.6992 10.0986 27.7275 12.4053 40.585 5.49316c57.8828 -31.125 125.239 -8.81543 174.69 27.6279c50.1826 36.9824 92.6748 98.9023 63.0732 162.331c-25.085 53.7529 -85.7041 79.4219 -141.205 87.6025c-58.8154 8.66992 -118.786 -0.889648 -174.274 -21.2598
c-99.3174 -36.46 -189.966 -104.5 -239.064 -199.647c-23.5664 -45.667 -38.5938 -99.8867 -29.4961 -151.389c9.29883 -52.6494 45.4385 -89.6348 93.0791 -106.634c25.96 -9.2627 46.2939 -12.8887 75.2969 -14.6992c12.665 -0.790039 20.7363 -0.833984 37.0254 0.308594
c6.50195 0.457031 12.9912 1.08203 19.459 1.88672c3.23242 0.401367 6.45996 0.850586 9.68262 1.33887c1.07227 0.163086 4.83691 0.863281 5.63184 0.999023c8.02832 1.60156 15.4121 3.28809 22.3584 5.1084c41.7461 33.9639 87.8848 61.6982 143.269 65.8008
c10.4609 0.775391 23.292 -1.94238 28.4443 -11.9971c5.37598 -10.4971 -2.38184 -19.5098 -9.81152 -26.1426c-43.6904 -39.0049 -96.8457 -64.9971 -153.165 -79.4805c-0.367188 -0.339844 -0.746094 -0.672852 -1.11328 -1.01562
c-30.6807 -28.5752 -64.9121 -68.8652 -63.1035 -113.786c0.829102 -20.5938 16.958 -27.667 35.1387 -29.5771c22.5117 -2.36523 46.1094 -0.510742 68.2119 4.14648c47.2686 9.95996 93.876 30.0527 131.1 61.2773c17.7041 14.8506 35.7021 33.8301 40.1211 57.377
c3.78223 20.1631 -2.57812 42.3662 -20.9111 53.0869c-5.53711 3.2373 -2.44824 9.83594 1.42578 12.7793c5.07227 3.85449 12.5 4.68555 18.0781 1.59375c24.3047 -13.4746 34.0312 -43.832 27.7773 -70.1182z" />
    <glyph glyph-name="E" unicode="&#xca;" horiz-adv-x="650" 
d="M577.432 6.98633c-7.12598 -29.9561 -29.2393 -52.0791 -51.8018 -71.4941c-46.9795 -40.4219 -101.895 -69.9502 -163.311 -80.8369c-51.0938 -9.05566 -141.362 -13.457 -143.018 59.1855c-0.886719 38.9199 19.3398 74.5293 44.9912 104.804
c-66.5889 -5.00879 -139.961 5.1748 -195.34 42.998c-115.65 78.9893 -63.8271 245.403 8.91504 334.741c80.1338 98.4141 202.479 169.92 327.351 191.48c65.1885 11.2559 135.727 7.82422 196.251 -20.8701c55.4834 -26.3057 102.04 -80.6787 90.7432 -145.722
c-5.22363 -30.0752 -21.0605 -57.3945 -40.6582 -80.3818c-20.7539 -24.3389 -43.9121 -46.0947 -71.1504 -63.0674c-59.2217 -36.9004 -135.573 -51.6631 -200.822 -21.2744c-12.957 6.03223 -15.0205 17.4512 -4.45312 27.4258
c10.6992 10.0986 27.7275 12.4053 40.585 5.49316c57.8828 -31.125 125.239 -8.81543 174.69 27.6279c50.1826 36.9824 92.6748 98.9023 63.0732 162.331c-25.085 53.7529 -85.7041 79.4219 -141.205 87.6025c-58.8154 8.66992 -118.786 -0.889648 -174.274 -21.2598
c-99.3174 -36.46 -189.966 -104.5 -239.064 -199.647c-23.5664 -45.667 -38.5938 -99.8867 -29.4961 -151.389c9.29883 -52.6494 45.4385 -89.6348 93.0791 -106.634c25.96 -9.2627 46.2939 -12.8887 75.2969 -14.6992c12.665 -0.790039 20.7363 -0.833984 37.0254 0.308594
c6.50195 0.457031 12.9912 1.08203 19.459 1.88672c3.23242 0.401367 6.45996 0.850586 9.68262 1.33887c1.07227 0.163086 4.83691 0.863281 5.63184 0.999023c8.02832 1.60156 15.4121 3.28809 22.3584 5.1084c41.7461 33.9639 87.8848 61.6982 143.269 65.8008
c10.4609 0.775391 23.292 -1.94238 28.4443 -11.9971c5.37598 -10.4971 -2.38184 -19.5098 -9.81152 -26.1426c-43.6904 -39.0049 -96.8457 -64.9971 -153.165 -79.4805c-0.367188 -0.339844 -0.746094 -0.672852 -1.11328 -1.01562
c-30.6807 -28.5752 -64.9121 -68.8652 -63.1035 -113.786c0.829102 -20.5938 16.958 -27.667 35.1387 -29.5771c22.5117 -2.36523 46.1094 -0.510742 68.2119 4.14648c47.2686 9.95996 93.876 30.0527 131.1 61.2773c17.7041 14.8506 35.7021 33.8301 40.1211 57.377
c3.78223 20.1631 -2.57812 42.3662 -20.9111 53.0869c-5.53711 3.2373 -2.44824 9.83594 1.42578 12.7793c5.07227 3.85449 12.5 4.68555 18.0781 1.59375c24.3047 -13.4746 34.0312 -43.832 27.7773 -70.1182z" />
    <glyph glyph-name="E" unicode="&#xc9;" horiz-adv-x="650" 
d="M577.432 6.98633c-7.12598 -29.9561 -29.2393 -52.0791 -51.8018 -71.4941c-46.9795 -40.4219 -101.895 -69.9502 -163.311 -80.8369c-51.0938 -9.05566 -141.362 -13.457 -143.018 59.1855c-0.886719 38.9199 19.3398 74.5293 44.9912 104.804
c-66.5889 -5.00879 -139.961 5.1748 -195.34 42.998c-115.65 78.9893 -63.8271 245.403 8.91504 334.741c80.1338 98.4141 202.479 169.92 327.351 191.48c65.1885 11.2559 135.727 7.82422 196.251 -20.8701c55.4834 -26.3057 102.04 -80.6787 90.7432 -145.722
c-5.22363 -30.0752 -21.0605 -57.3945 -40.6582 -80.3818c-20.7539 -24.3389 -43.9121 -46.0947 -71.1504 -63.0674c-59.2217 -36.9004 -135.573 -51.6631 -200.822 -21.2744c-12.957 6.03223 -15.0205 17.4512 -4.45312 27.4258
c10.6992 10.0986 27.7275 12.4053 40.585 5.49316c57.8828 -31.125 125.239 -8.81543 174.69 27.6279c50.1826 36.9824 92.6748 98.9023 63.0732 162.331c-25.085 53.7529 -85.7041 79.4219 -141.205 87.6025c-58.8154 8.66992 -118.786 -0.889648 -174.274 -21.2598
c-99.3174 -36.46 -189.966 -104.5 -239.064 -199.647c-23.5664 -45.667 -38.5938 -99.8867 -29.4961 -151.389c9.29883 -52.6494 45.4385 -89.6348 93.0791 -106.634c25.96 -9.2627 46.2939 -12.8887 75.2969 -14.6992c12.665 -0.790039 20.7363 -0.833984 37.0254 0.308594
c6.50195 0.457031 12.9912 1.08203 19.459 1.88672c3.23242 0.401367 6.45996 0.850586 9.68262 1.33887c1.07227 0.163086 4.83691 0.863281 5.63184 0.999023c8.02832 1.60156 15.4121 3.28809 22.3584 5.1084c41.7461 33.9639 87.8848 61.6982 143.269 65.8008
c10.4609 0.775391 23.292 -1.94238 28.4443 -11.9971c5.37598 -10.4971 -2.38184 -19.5098 -9.81152 -26.1426c-43.6904 -39.0049 -96.8457 -64.9971 -153.165 -79.4805c-0.367188 -0.339844 -0.746094 -0.672852 -1.11328 -1.01562
c-30.6807 -28.5752 -64.9121 -68.8652 -63.1035 -113.786c0.829102 -20.5938 16.958 -27.667 35.1387 -29.5771c22.5117 -2.36523 46.1094 -0.510742 68.2119 4.14648c47.2686 9.95996 93.876 30.0527 131.1 61.2773c17.7041 14.8506 35.7021 33.8301 40.1211 57.377
c3.78223 20.1631 -2.57812 42.3662 -20.9111 53.0869c-5.53711 3.2373 -2.44824 9.83594 1.42578 12.7793c5.07227 3.85449 12.5 4.68555 18.0781 1.59375c24.3047 -13.4746 34.0312 -43.832 27.7773 -70.1182z" />
    <glyph glyph-name="F" unicode="F" horiz-adv-x="449" 
d="M298.649 -165.985c-75.7803 -31.7129 -151.907 45.7275 -191.245 101.972c-25.042 35.8066 -43.3652 75.2363 -55.6416 116.592c-12.0264 -5.9502 -23.8994 -12.2549 -35.585 -18.9609c-12.8623 -7.37891 -26.7695 6.12207 -11.4648 15.0127
c13.7393 7.98145 27.7559 15.4482 42.0039 22.416c-6.90234 27.5547 -11.2529 55.8262 -13.1582 84.3604c-10.4414 156.299 36.0615 344.087 192.89 413.476c61.6982 27.2998 165.784 32.625 205.39 -34.8916c39.4736 -67.293 5.10645 -155.039 -23.751 -219.477
c-48.3574 -107.982 -118.339 -204.663 -200.928 -288.929c44.7119 15.5986 96.4092 10.8955 127.614 -29.4316c37.8672 -48.9385 24.0234 -136.969 -36.124 -162.139zM296.825 -4.9209c-38.0254 32.6973 -98.043 17.5625 -127.984 -19.085
c-0.306641 -0.376953 -0.651367 -0.726562 -1.01074 -1.06152c13.5186 -24.1572 29.4893 -47.002 48.1875 -67.4258c15.8223 -17.2832 40.0303 -47.3896 66.0391 -46.5176c13.0859 0.4375 24.3906 12.7773 31.459 22.6553c7.73633 10.8105 11.0732 23.0947 12.1934 36.2295
c2.35547 27.5938 -7.59473 56.8984 -28.8838 75.2051zM188.271 121.626c17.0869 4.03418 22.1309 -14.5225 4.95215 -18.4795c-22.6963 -5.23242 -45.001 -11.6777 -66.876 -19.2783c6.36035 -27.29 15.1123 -54.0205 26.5264 -79.3125
c95.4854 90.6064 175.857 197.882 228.65 318.8c14.4736 33.1494 27.1191 67.3857 32.209 103.372c4.38184 30.9844 4.60547 67.3008 -14.124 94c-37.9082 54.0371 -113.735 38.0781 -160.403 6.26758c-51.0674 -34.8125 -82.5107 -90.5029 -101.121 -148.259
c-20.8877 -64.8311 -27.7686 -137.075 -24.3027 -204.903c1.20996 -23.6709 4.03711 -47.6426 8.59473 -71.3545c21.6074 7.47363 43.5967 13.8828 65.8945 19.1475z" />
    <glyph glyph-name="G" unicode="G" horiz-adv-x="489" 
d="M276.983 -88.0654c12.5361 2.24805 37.6162 4.79004 40.0244 21.2275c2.13672 14.5762 -17.9688 21.7539 -29.0859 22.8594c-27.0146 2.68555 -54.9238 -11.4014 -73.3496 -30.4521c-16.707 -17.2764 -31.0059 -45.5869 -20.5596 -69.707
c9.76367 -22.5381 37.3154 -34.3379 60.5586 -34.1846c49.8252 0.326172 87.2139 40.5605 108.88 81.5898c26.8398 50.8271 32.5225 108.945 30.6895 165.632c-0.923828 28.5049 -4.05664 56.8662 -6.22266 85.291c-12.1982 -32.2217 -28.1377 -62.7148 -50.1533 -88.9033
c-44.5146 -52.9531 -115.938 -86.2412 -185.477 -75.0176c-62.4492 10.082 -111.104 52.9775 -133.325 111.631c-11.6201 30.668 -14.0479 64.1094 -13.96 96.6494c0.0849609 31.8496 3.60938 63.7139 10.8232 94.7441c14.8262 63.7715 44.3643 125.135 88.5586 173.789
c43.9756 48.4131 109.98 93.791 177.588 95.9619c56.2637 1.80566 119.676 -31.5967 115.048 -95.2197c-4.00586 -55.0752 -53.0732 -105.457 -98.2539 -132.161c-25.1875 -14.8867 -54.9297 -25.9551 -84.3896 -27.3311c-23.4932 -1.0957 -64.9287 9.2002 -59.8486 41.0352
c3.97363 24.8906 36.0811 36.8076 57.8799 37.6191c22.2588 0.829102 47.3955 -6.71777 60.0703 -26.2393c8.27832 -12.75 -20.0518 -23.8965 -27.166 -12.9375c-9.96777 15.3516 -33.8545 23.4111 -50.7607 14.6738c-11.9844 -6.19336 -13.1123 -18.1973 -2.3623 -26.5537
c12.0137 -9.33789 29.8828 -6.81543 43.6396 -3.66797c49.5752 11.3428 92.6582 46.6602 116.594 91.2139c11.7832 21.9307 18.2119 47.8281 6.40918 71.2148c-10.3535 20.5186 -31.4941 30.6562 -53.8037 31.3564c-44.8359 1.40527 -84.1299 -26.8369 -113.585 -55.8008
c-71.1016 -69.9209 -107.979 -165.454 -109.725 -265.605c-0.826172 -47.4629 7.50098 -96.6055 38.5674 -134.001c26.2324 -31.5771 67.5166 -51.6631 108.724 -45.8447c108.6 15.3369 142.537 151.865 161.159 241.373c0.617188 2.96484 2.76855 5.42188 5.62891 7.25684
c11.3799 11.8223 37.1484 18.2725 42.2695 0.145508c6.43066 -22.7637 8.69336 -46.4805 11.5293 -69.9883c2.79297 -23.1436 6.125 -46.1924 8.50684 -69.3838c4.41113 -42.9473 7.6875 -86.4707 3.23242 -129.559c-7.6123 -73.6172 -41.3506 -148.098 -105.336 -189.195
c-34.8506 -22.3877 -75.9697 -35.8018 -117.709 -32.4746c-32.9336 2.625 -71.2021 18.9678 -81.877 52.9316c-21.3379 67.8818 48.3203 129.379 108.933 140.54c26.3906 4.86133 69.1699 3.03809 80.9121 -26.9473c14.3135 -36.5527 -38.3486 -53.5078 -63.7939 -58.0088
c-5.87012 -1.03809 -15.9521 -1.51172 -18.001 6.13477c-1.85449 6.91992 6.54004 13.2412 12.5195 14.3135z" />
    <glyph glyph-name="H" unicode="H" horiz-adv-x="593" 
d="M108.157 -30.8516c-10.1738 60.998 -17.5977 122.317 -22.4463 183.875c-29.9053 -6.47461 -71.2236 -21.792 -60.5684 -60.0215c3.65332 -13.1074 -25.3936 -20.8848 -29.0518 -7.78418c-12.2402 43.834 31.5791 73.3838 67.8906 83.4463
c6.69141 1.85449 13.4316 3.50977 20.208 5.01953c-1.86621 26.9863 -3.25879 54.0137 -4.15039 81.082c-3.11133 94.3984 -3.92285 191.595 12.1475 284.916c5.2041 30.2188 72.5732 42.8408 71.8711 5.7002c-0.999023 -52.8096 -5.14746 -105.505 -6.72266 -158.312
c-2.01758 -67.624 -0.698242 -135.141 3.29297 -202.572c53.1406 3.9082 107.234 1.75488 159.451 0.615234c41.8779 -0.916016 84.0664 -1.71582 125.961 0.483398c-1.00391 22.249 -1.90527 44.5078 -2.6123 66.7764c-3.69727 116.463 -4.40918 233.431 2.15039 349.804
c1.88867 33.5195 77.8203 45.0645 76.9189 6.10059c-1.51465 -65.4707 -3.29102 -130.907 -3.53613 -196.402c-0.274414 -72.7568 0.845703 -145.502 3.49707 -218.193c19.5752 3.30273 39 7.66797 58.208 13.4287c5.48828 1.64551 15.4658 0.974609 17.3086 -5.89844
c1.90039 -7.0918 -6.44629 -12.0869 -12.0391 -13.7617c-20.5693 -6.16406 -41.5029 -10.8916 -62.6387 -14.4697c1.46582 -36.1611 3.2666 -72.3096 5.51758 -108.439c3.53906 -56.7988 7.25293 -113.559 12.248 -170.25c5.1748 -58.7402 10.9717 -117.41 9.96582 -176.416
c-0.342773 -20.0811 -44.415 -29.2881 -50.4844 -8.73828c-18.4893 62.6123 -25.9609 127.618 -32.9805 192.384c-9.48633 87.542 -16.2334 175.288 -20.582 263.192c-78.7168 -4.3291 -157.528 1.94629 -236.286 0.380859
c-16.2188 -0.321289 -32.4785 -0.96582 -48.707 -2.09082c1.26172 -18.6836 2.71484 -37.3594 4.36523 -56.0283c4.19531 -47.4482 10.3398 -94.583 16.9873 -141.737c3.27148 -23.209 7.04395 -46.3281 10.4785 -69.5107
c3.39062 -22.8926 8.70117 -47.7227 6.68652 -70.8857c-1.60938 -18.5039 -40.7744 -30.8096 -50.9365 -13.6475c-13.6982 23.1309 -19.7451 51.8789 -25.5225 77.9023c-5.89844 26.5654 -11.4131 53.209 -15.8896 80.0537z" />
    <glyph glyph-name="I" unicode="I" horiz-adv-x="187" 
d="M48.4619 -154.214c9.67383 7.0752 24.0088 8.38477 35.4639 11.3018c6.28027 1.59668 12.5801 3.1084 18.8877 4.5791c-2.22852 14.2207 -4.32129 28.4639 -6.32422 42.7402c-15.3701 109.572 -25.0293 220.1 -31.5986 330.534
c-5.67285 95.3613 -9.41602 190.934 -8.75488 286.472c-14.7119 -3.05762 -29.3535 -6.5166 -43.9053 -10.4756c-5.41504 -1.47266 -15.127 -1.05664 -16.96 5.7832c-1.83789 6.85449 6.27539 11.9854 11.7979 13.4873c16.3037 4.43848 32.7461 8.30078 49.2812 11.6719
c0.104492 7.76758 0.233398 15.5332 0.401367 23.2988c0.396484 18.2656 26.4414 27.8418 40.6865 29.373c16.0342 1.72363 33.6113 -5.72852 33.8564 -23.4619c0.0800781 -5.87891 0.160156 -11.7588 0.240234 -17.6357c7.66113 0.799805 15.3291 1.5293 23.0146 2.10254
c5.71387 0.427734 13.8145 -2 13.2188 -9.16016c-0.585938 -7.04102 -9.85547 -11.0176 -15.8857 -11.4697c-6.70605 -0.50293 -13.3926 -1.11816 -20.0693 -1.79883c0.667969 -48.7637 1.39453 -97.5342 2.72852 -146.275
c2.97461 -108.59 9.08691 -217.155 18.252 -325.397c4.58594 -54.1807 9.66602 -108.352 15.0742 -162.455c0.762695 -7.62891 1.49219 -15.2578 2.2041 -22.8896c11.6709 2.34277 23.3564 4.62793 35.0566 6.82227c5.74316 1.07715 15.6543 1.43945 17.6523 -6.01758
c1.81543 -6.77344 -6.41211 -13.0029 -12.2793 -14.0381c-12.874 -2.27051 -25.7314 -4.62793 -38.5723 -7.0752c1.14746 -12.7695 2.26562 -25.5439 3.39551 -38.3232c2.36523 -26.7158 5.14551 -56.6357 -2.31836 -82.71
c-3.2832 -11.4697 -25.3545 -21.0576 -33.6738 -9.02148c-17.5996 25.4619 -23.0488 59.3457 -28.5781 89.1826c-1.69434 9.13184 -3.27148 18.2734 -4.7998 27.4199c-2.59082 -0.548828 -5.17969 -1.10742 -7.77051 -1.64941
c-6.22949 -1.30078 -12.4688 -2.55762 -18.6982 -3.87207c-2.0293 -0.427734 -8.43652 -1.08105 -11.9805 -1.69141c-1.01074 -0.914062 -2.29199 -1.80859 -3.91602 -2.65234c-0.21875 -0.114258 -0.4375 -0.228516 -0.658203 -0.342773
c-4.84668 -2.51758 -13.3535 -3.07422 -17.1377 1.75c-0.194336 0.248047 -0.391602 0.498047 -0.585938 0.746094c-2.99414 3.81543 -0.0361328 8.74219 3.25488 11.1484z" />
    <glyph glyph-name="I" unicode="&#xcf;" horiz-adv-x="187" 
d="M48.4619 -154.214c9.67383 7.0752 24.0088 8.38477 35.4639 11.3018c6.28027 1.59668 12.5801 3.1084 18.8877 4.5791c-2.22852 14.2207 -4.32129 28.4639 -6.32422 42.7402c-15.3701 109.572 -25.0293 220.1 -31.5986 330.534
c-5.67285 95.3613 -9.41602 190.934 -8.75488 286.472c-14.7119 -3.05762 -29.3535 -6.5166 -43.9053 -10.4756c-5.41504 -1.47266 -15.127 -1.05664 -16.96 5.7832c-1.83789 6.85449 6.27539 11.9854 11.7979 13.4873c16.3037 4.43848 32.7461 8.30078 49.2812 11.6719
c0.104492 7.76758 0.233398 15.5332 0.401367 23.2988c0.396484 18.2656 26.4414 27.8418 40.6865 29.373c16.0342 1.72363 33.6113 -5.72852 33.8564 -23.4619c0.0800781 -5.87891 0.160156 -11.7588 0.240234 -17.6357c7.66113 0.799805 15.3291 1.5293 23.0146 2.10254
c5.71387 0.427734 13.8145 -2 13.2188 -9.16016c-0.585938 -7.04102 -9.85547 -11.0176 -15.8857 -11.4697c-6.70605 -0.50293 -13.3926 -1.11816 -20.0693 -1.79883c0.667969 -48.7637 1.39453 -97.5342 2.72852 -146.275
c2.97461 -108.59 9.08691 -217.155 18.252 -325.397c4.58594 -54.1807 9.66602 -108.352 15.0742 -162.455c0.762695 -7.62891 1.49219 -15.2578 2.2041 -22.8896c11.6709 2.34277 23.3564 4.62793 35.0566 6.82227c5.74316 1.07715 15.6543 1.43945 17.6523 -6.01758
c1.81543 -6.77344 -6.41211 -13.0029 -12.2793 -14.0381c-12.874 -2.27051 -25.7314 -4.62793 -38.5723 -7.0752c1.14746 -12.7695 2.26562 -25.5439 3.39551 -38.3232c2.36523 -26.7158 5.14551 -56.6357 -2.31836 -82.71
c-3.2832 -11.4697 -25.3545 -21.0576 -33.6738 -9.02148c-17.5996 25.4619 -23.0488 59.3457 -28.5781 89.1826c-1.69434 9.13184 -3.27148 18.2734 -4.7998 27.4199c-2.59082 -0.548828 -5.17969 -1.10742 -7.77051 -1.64941
c-6.22949 -1.30078 -12.4688 -2.55762 -18.6982 -3.87207c-2.0293 -0.427734 -8.43652 -1.08105 -11.9805 -1.69141c-1.01074 -0.914062 -2.29199 -1.80859 -3.91602 -2.65234c-0.21875 -0.114258 -0.4375 -0.228516 -0.658203 -0.342773
c-4.84668 -2.51758 -13.3535 -3.07422 -17.1377 1.75c-0.194336 0.248047 -0.391602 0.498047 -0.585938 0.746094c-2.99414 3.81543 -0.0361328 8.74219 3.25488 11.1484z" />
    <glyph glyph-name="I" unicode="&#xce;" horiz-adv-x="187" 
d="M48.4619 -154.214c9.67383 7.0752 24.0088 8.38477 35.4639 11.3018c6.28027 1.59668 12.5801 3.1084 18.8877 4.5791c-2.22852 14.2207 -4.32129 28.4639 -6.32422 42.7402c-15.3701 109.572 -25.0293 220.1 -31.5986 330.534
c-5.67285 95.3613 -9.41602 190.934 -8.75488 286.472c-14.7119 -3.05762 -29.3535 -6.5166 -43.9053 -10.4756c-5.41504 -1.47266 -15.127 -1.05664 -16.96 5.7832c-1.83789 6.85449 6.27539 11.9854 11.7979 13.4873c16.3037 4.43848 32.7461 8.30078 49.2812 11.6719
c0.104492 7.76758 0.233398 15.5332 0.401367 23.2988c0.396484 18.2656 26.4414 27.8418 40.6865 29.373c16.0342 1.72363 33.6113 -5.72852 33.8564 -23.4619c0.0800781 -5.87891 0.160156 -11.7588 0.240234 -17.6357c7.66113 0.799805 15.3291 1.5293 23.0146 2.10254
c5.71387 0.427734 13.8145 -2 13.2188 -9.16016c-0.585938 -7.04102 -9.85547 -11.0176 -15.8857 -11.4697c-6.70605 -0.50293 -13.3926 -1.11816 -20.0693 -1.79883c0.667969 -48.7637 1.39453 -97.5342 2.72852 -146.275
c2.97461 -108.59 9.08691 -217.155 18.252 -325.397c4.58594 -54.1807 9.66602 -108.352 15.0742 -162.455c0.762695 -7.62891 1.49219 -15.2578 2.2041 -22.8896c11.6709 2.34277 23.3564 4.62793 35.0566 6.82227c5.74316 1.07715 15.6543 1.43945 17.6523 -6.01758
c1.81543 -6.77344 -6.41211 -13.0029 -12.2793 -14.0381c-12.874 -2.27051 -25.7314 -4.62793 -38.5723 -7.0752c1.14746 -12.7695 2.26562 -25.5439 3.39551 -38.3232c2.36523 -26.7158 5.14551 -56.6357 -2.31836 -82.71
c-3.2832 -11.4697 -25.3545 -21.0576 -33.6738 -9.02148c-17.5996 25.4619 -23.0488 59.3457 -28.5781 89.1826c-1.69434 9.13184 -3.27148 18.2734 -4.7998 27.4199c-2.59082 -0.548828 -5.17969 -1.10742 -7.77051 -1.64941
c-6.22949 -1.30078 -12.4688 -2.55762 -18.6982 -3.87207c-2.0293 -0.427734 -8.43652 -1.08105 -11.9805 -1.69141c-1.01074 -0.914062 -2.29199 -1.80859 -3.91602 -2.65234c-0.21875 -0.114258 -0.4375 -0.228516 -0.658203 -0.342773
c-4.84668 -2.51758 -13.3535 -3.07422 -17.1377 1.75c-0.194336 0.248047 -0.391602 0.498047 -0.585938 0.746094c-2.99414 3.81543 -0.0361328 8.74219 3.25488 11.1484z" />
    <glyph glyph-name="I" unicode="&#xcd;" horiz-adv-x="187" 
d="M48.4619 -154.214c9.67383 7.0752 24.0088 8.38477 35.4639 11.3018c6.28027 1.59668 12.5801 3.1084 18.8877 4.5791c-2.22852 14.2207 -4.32129 28.4639 -6.32422 42.7402c-15.3701 109.572 -25.0293 220.1 -31.5986 330.534
c-5.67285 95.3613 -9.41602 190.934 -8.75488 286.472c-14.7119 -3.05762 -29.3535 -6.5166 -43.9053 -10.4756c-5.41504 -1.47266 -15.127 -1.05664 -16.96 5.7832c-1.83789 6.85449 6.27539 11.9854 11.7979 13.4873c16.3037 4.43848 32.7461 8.30078 49.2812 11.6719
c0.104492 7.76758 0.233398 15.5332 0.401367 23.2988c0.396484 18.2656 26.4414 27.8418 40.6865 29.373c16.0342 1.72363 33.6113 -5.72852 33.8564 -23.4619c0.0800781 -5.87891 0.160156 -11.7588 0.240234 -17.6357c7.66113 0.799805 15.3291 1.5293 23.0146 2.10254
c5.71387 0.427734 13.8145 -2 13.2188 -9.16016c-0.585938 -7.04102 -9.85547 -11.0176 -15.8857 -11.4697c-6.70605 -0.50293 -13.3926 -1.11816 -20.0693 -1.79883c0.667969 -48.7637 1.39453 -97.5342 2.72852 -146.275
c2.97461 -108.59 9.08691 -217.155 18.252 -325.397c4.58594 -54.1807 9.66602 -108.352 15.0742 -162.455c0.762695 -7.62891 1.49219 -15.2578 2.2041 -22.8896c11.6709 2.34277 23.3564 4.62793 35.0566 6.82227c5.74316 1.07715 15.6543 1.43945 17.6523 -6.01758
c1.81543 -6.77344 -6.41211 -13.0029 -12.2793 -14.0381c-12.874 -2.27051 -25.7314 -4.62793 -38.5723 -7.0752c1.14746 -12.7695 2.26562 -25.5439 3.39551 -38.3232c2.36523 -26.7158 5.14551 -56.6357 -2.31836 -82.71
c-3.2832 -11.4697 -25.3545 -21.0576 -33.6738 -9.02148c-17.5996 25.4619 -23.0488 59.3457 -28.5781 89.1826c-1.69434 9.13184 -3.27148 18.2734 -4.7998 27.4199c-2.59082 -0.548828 -5.17969 -1.10742 -7.77051 -1.64941
c-6.22949 -1.30078 -12.4688 -2.55762 -18.6982 -3.87207c-2.0293 -0.427734 -8.43652 -1.08105 -11.9805 -1.69141c-1.01074 -0.914062 -2.29199 -1.80859 -3.91602 -2.65234c-0.21875 -0.114258 -0.4375 -0.228516 -0.658203 -0.342773
c-4.84668 -2.51758 -13.3535 -3.07422 -17.1377 1.75c-0.194336 0.248047 -0.391602 0.498047 -0.585938 0.746094c-2.99414 3.81543 -0.0361328 8.74219 3.25488 11.1484z" />
    <glyph glyph-name="J" unicode="J" horiz-adv-x="498" 
d="M240.063 -195.465c-43.7852 -2.20898 -91.0098 12.6162 -122.257 44.1816c-35.208 35.5684 -44.0967 89.917 -37.6582 137.943c6.79102 50.6514 30.6514 97.5723 62.5537 136.976c31.8643 39.3545 72.0986 73.1924 114.481 100.706
c32.9678 21.4004 69.1357 38.7373 107.679 45.9287c-6.79785 40.0908 -14.8311 79.9971 -22.5215 119.906c-4.95117 25.6973 -9.56445 51.4658 -12.459 77.4912c-1.56055 14.0361 -3.31738 28.3252 -2.30664 42.4297c0.753906 10.5098 1.90625 20.9346 2.60156 31.4346
c-34.1045 -9.64941 -67.7256 -20.9541 -101.461 -31.8086c-41.4766 -13.3438 -83.2979 -26.0723 -126.216 -33.9248c-20.4092 -3.7334 -40.9297 -6.75195 -61.7256 -6.49707c-16.1094 0.197266 -40.2344 0.102539 -49.6016 16.0293
c-6.8252 11.6035 18.0605 21.2256 23.9375 11.3994c5.75098 -9.61523 21.668 -8.45312 31.5166 -8.50391c10.7773 -0.0556641 21.5879 1.0332 32.2559 2.48926c22.3506 3.05273 44.4756 8.12012 66.2988 13.7803c42.2734 10.9668 83.6094 25.1582 125.154 38.5381
c41.4473 13.3506 83.2549 25.9336 126.155 33.7256c32.6396 5.92773 88.8135 16.1533 103.45 -24.8027c4.27734 -11.9727 -23.2188 -19.6748 -27.5859 -7.39062c-8.03027 22.5869 -38.5547 18.6787 -57.1914 16.0098c-15.6113 -2.23633 -31.0938 -5.36719 -46.4492 -8.98633
c5.49316 -15.2002 13.5088 -29.5156 18.0732 -44.9785c4.54004 -15.3848 8.36523 -30.9688 12.332 -46.5068c7.77051 -30.4473 14.5059 -61.1426 21.3555 -91.8154c13.9199 -62.3379 25.8535 -125.446 30.7822 -189.206c8.07129 -104.434 1.9248 -228.871 -76.0312 -308.417
c-35.8018 -36.5303 -83.1816 -63.5088 -135.163 -66.1309zM178.835 -154.347c17.9297 -7.08008 38.1455 -8.58398 57.1475 -5.45117c15.6377 2.57422 32.1289 9.65918 43.499 17.3105c33.6143 22.6133 57.7441 54.1348 73.749 92.5225
c37.3428 89.5693 30.751 194.987 16.6904 288.78c-0.597656 4.00293 -1.24219 7.99902 -1.87402 11.9971c-41.8115 -7.51465 -79.8711 -29.0127 -114.238 -54.1221c-42.0869 -30.7529 -81.7695 -67.2539 -109.04 -112.128
c-43.4111 -71.4346 -63.0664 -200.551 34.0664 -238.909z" />
    <glyph glyph-name="K" unicode="K" horiz-adv-x="577" 
d="M491.263 456.137c-63.9102 -58.7646 -125.189 -120.365 -183.675 -184.509c15.8496 -4.70801 30.5371 -10.5 43.3818 -21.2812c12.208 -10.2471 22.1729 -22.9971 31.0078 -36.1943c19.8154 -29.5986 34.292 -63.5332 49.7617 -95.5332
c57.5664 -119.063 106.327 -244.606 192.552 -346.943c38.1445 -45.2705 85.7461 -86.0957 141.891 -106.884c27.2002 -10.0723 59.9854 -17.5781 86.6963 -2.0957c24.1133 13.9756 39.7119 41.9775 34.0127 69.8457c-2.75879 13.4941 25.9482 21.1475 29.3457 7.8623
c8.34863 -32.6396 -7.0752 -64.7881 -31.5869 -86.1816c-29.7783 -25.9893 -72.6182 -32.7168 -110.828 -28.1963c-67.5947 7.99902 -127.358 49.6191 -174.1 96.8418c-48.792 49.293 -86.1367 108.524 -118.737 169.385
c-34.6299 64.6416 -63.9688 131.896 -94.3447 198.587c-14.7852 32.459 -28.7773 65.2363 -44.8135 97.1123c-6.62598 13.1689 -14.0459 25.5986 -23.1602 37.2021c-3.66992 4.67188 -7.60742 9.76172 -11.9561 14.4287c3.15527 -46.7852 7.31641 -93.499 12.54 -140.061
c11.2578 -100.38 29.6592 -199.88 38.6396 -300.493c1.92969 -21.6045 -38.9443 -33.8105 -46.9531 -12.5801c-17.2861 45.8223 -29.7275 92.7432 -39.7578 140.49c-15.6113 39.0801 -37.4688 74.8672 -71.4521 101.384c-22.46 17.5264 -49.8447 30.9111 -78.4004 33.4238
c-34.2773 -35.165 -75.3477 -76.085 -126.641 -73.8633c-6.26367 0.269531 -11.8105 5.80664 -8.87695 12.0508c15.8594 33.7568 44.9551 60.2666 79.7939 73.5107c14.291 5.43457 28.7764 8.37305 43.167 9.15527c14.3643 14.7705 28.3154 29.9463 41.9502 45.3926
c26.5635 30.0947 52.293 60.9014 78.416 91.373c-9.68359 113.884 -11.7715 228.479 -6.02051 342.099c0.964844 19.0596 27.0342 28.9004 42.3076 30.543c16.165 1.73828 35.6289 -5.88867 35.2061 -24.3965c-1.29297 -56.4609 -1.52637 -113.053 -0.607422 -169.521
c0.520508 -31.9561 1.59766 -63.915 3.10938 -95.8613c27.9531 30.0898 56.4922 59.6348 85.6797 88.5264c42.0479 41.6221 85.3447 81.9932 129.771 121.068c22.3291 19.6406 44.9551 38.9463 67.8672 57.9043c17.7666 14.6992 42.6475 43.8701 68.5518 33.9248
c16.8047 -6.45312 -2.57617 -22.9102 -15.3633 -20.6348c-0.481445 -0.342773 -1.19824 -0.775391 -2.15625 -1.30078c-2.31836 -1.86133 -4.63477 -3.72754 -6.94824 -5.59863s-4.625 -3.74512 -6.93164 -5.62109c-6.9248 -5.63184 -13.8203 -11.2949 -20.6914 -16.9893
c-12.5977 -10.4395 -25.1055 -20.9834 -37.5273 -31.6318c-25.0752 -21.4932 -49.8105 -43.3867 -74.1201 -65.7402zM21.9209 11.2529c24.1006 7.62402 45.8848 31.3564 62.4609 47.1035c0.0341797 0.0341797 0.0683594 0.0683594 0.102539 0.0996094
c-25.9336 -7.25293 -47.9541 -24.7256 -62.5635 -47.2031zM139.953 80.9824c40.8008 -6.37988 79.1055 -28.9521 108.048 -60.0459c2.48145 -2.66602 4.8584 -5.39551 7.18457 -8.16113c-9.60742 57.2988 -17.2705 115.05 -22.9678 173.029
c-30.1436 -35.4805 -60.0898 -71.165 -92.2646 -104.822z" />
    <glyph glyph-name="L" unicode="L" horiz-adv-x="371" 
d="M490.324 -95.5049c9.38184 -10.3027 -16.7402 -19.8896 -25.0088 -11.918c-34.0635 32.8359 -95.6885 21.7217 -137.524 15.8809c-48.668 -6.79297 -96.4736 -19.3584 -143.05 -34.8701c-25.5664 -8.51367 -50.6807 -18.2432 -75.7754 -28.0215
c-8.33691 -7.8916 -21.8242 -12.8721 -34.4482 -13.3145c-7.90137 -3.00879 -15.8154 -5.98828 -23.7656 -8.86816c-78.0244 -28.2646 -179.374 -47.2539 -251.009 7.19629c-8.11523 6.16895 -4.79785 15.373 2.32324 20.8057
c8.07422 6.15918 20.5547 7.85352 29.4287 2.59375c40.3809 -23.9287 87.0732 -31.957 133.428 -27.2197c27.6494 2.82715 54.6494 9.66895 81.1055 18.2686c-0.634766 1.17676 -1.20801 2.40918 -1.63574 3.76562c-41.5664 131.554 -38.8252 275.534 -25.7656 411.414
c11.3672 118.293 29.8076 241.637 98.4814 341.812c30.25 44.126 73.4082 87.8604 127.925 98.6396c49.3877 9.76367 94.3379 -11.6494 116.886 -56.9229c26.0869 -52.3799 10.6045 -113.463 -8.78125 -165.342c-19.7354 -52.8125 -47.9922 -101.947 -80.4033 -147.939
c-34.1709 -48.4863 -73.4189 -93.1445 -114.156 -136.169c-21.4375 -22.6426 -43.3223 -44.8545 -65.2207 -67.0498c-3.63086 -3.67969 -7.28418 -7.34277 -10.9375 -11.0059c1.58984 -82.8389 10.9619 -164.599 33.1787 -245.629
c40.4658 15.4482 81.2666 29.8516 123.227 40.8301c47.835 12.5146 97.0498 21.2549 146.491 23.627c37.4199 1.7959 78.248 -1.16699 105.008 -30.5645zM135.668 539.578c-39.5908 -105.062 -47.6621 -221.584 -52.168 -332.836
c-0.791992 -19.5928 -1.24902 -39.1172 -1.32422 -58.5811c13.3506 13.6279 26.667 27.2871 39.8447 41.083c44.0986 46.167 86.7979 93.9238 123.766 146.073c31.2754 44.1182 58.2178 91.6689 77.4746 142.282c18.6592 49.043 35.1309 110.024 7.83398 159.128
c-10.4629 18.8223 -26.8125 35.6318 -47.8555 41.9902c-23.6201 7.13867 -46.2285 -2.10254 -65.1963 -16.2168c-39.8555 -29.6572 -65.2109 -77.373 -82.375 -122.923z" />
    <glyph glyph-name="M" unicode="M" horiz-adv-x="831" 
d="M578.789 367.754c-14.9375 -38.1416 -28.334 -76.9111 -40.0615 -116.161c-22.7275 -76.0576 -39.6533 -153.97 -52.1289 -232.352c0.463867 -3.54102 0.916016 -7.08496 1.40234 -10.624c2.50586 -18.1826 -14.2256 -29.334 -29.7344 -33.9932
c-12.2666 -3.68457 -40.3604 -2.77051 -42.75 14.5713c-14.3379 104.087 -12.8994 209.573 -16.8662 314.35c-1.76465 46.5732 -3.79199 93.1074 -7.91406 139.547c-1.84473 20.793 -3.96387 41.7832 -8.84961 62.1172c-3.95703 16.457 -10.8477 46.7871 -29.208 53.1182
c-19.4756 6.71582 -34.7461 -20.6982 -42.7891 -33.9785c-11.0391 -18.2285 -20.7275 -37.2549 -29.3389 -56.7422c-17.8447 -40.3828 -31.0352 -82.6055 -42.7012 -125.127c-47.123 -171.759 -67.9961 -348.588 -86.8789 -525.244
c4.65918 -6.52148 2.98242 -15.5625 -2.49121 -21.9502c-8.14453 -9.50293 -23.8799 -15.0322 -36.1299 -13.1074c-33.9229 5.32812 -38.3896 32.4307 -44.1787 61.249c-5.60254 27.8896 -10.7236 55.8213 -15.1055 83.9277
c-16.1074 103.297 -25.7959 207.317 -31.0332 311.718c-5.20117 103.69 -6.35352 207.658 2.49609 311.171c2.76855 32.3691 74.8232 43.7832 74.5439 5.91309c-0.413086 -56.1035 -0.772461 -112.212 -0.736328 -168.317
c0.0634766 -97.3271 4.39941 -194.633 13.249 -291.557c4.54004 -49.7256 9.68262 -99.4463 15.876 -148.994c1.57715 -12.627 3.16406 -25.251 4.76562 -37.875c7.55664 73.2363 17.0918 146.254 29.4316 218.868c16.0801 94.624 36.3018 189.472 66.6758 280.638
c14.5879 43.7881 32.5537 86.9033 57.3809 125.952c10.7354 16.8848 23.4082 32.9258 42.3564 40.9297c19.2568 8.13477 41.5908 7.34473 57.6416 -6.96875c32.666 -29.1318 44.6074 -76.5264 53.958 -117.497c10.9785 -48.1025 17.4219 -97.335 21.7334 -146.463
c5.64355 -64.3066 9.47852 -128.739 15.1953 -193.004c12.4102 62.8525 28.6992 124.884 48.792 185.862c13.582 41.2217 28.7217 82.0664 46.1797 121.812c15.3438 34.9316 33.665 72.1816 60.7383 99.6855c12.5684 12.7676 29.6064 23.5322 48.2607 21.8262
c17.3828 -1.5918 28.4541 -13.1729 36.7568 -27.5713c21.3447 -37.0098 28.5898 -80.2383 36.4375 -121.751c16.5205 -87.3623 22.373 -177.218 29.1904 -265.739c6.93457 -90.0527 16.5088 -179.603 29.9492 -268.921
c2.85059 -18.9434 -15.0527 -30.6973 -31.0596 -35.5068c-13.4307 -4.03418 -41.2871 -2.77051 -44.6533 15.2197c-17.4873 93.4746 -20.7002 189.409 -24.2344 284.226c-3.1084 83.4248 -3.63086 166.937 -8.60156 250.293
c-1.23242 20.6475 -1.92969 41.3145 -3.38281 61.9521c-1.37305 19.5049 -1.95117 39.2695 -7.38867 58.1914c-2.5498 8.87402 -6.86133 17.8301 -13.8057 24.1514c-6.58398 5.99316 -11.7607 4.73633 -18.4082 -0.430664
c-14.459 -11.2383 -25.5176 -29.1973 -34.8506 -44.6582c-19.5342 -32.3545 -33.9814 -67.6475 -47.7305 -102.756z" />
    <glyph glyph-name="N" unicode="N" horiz-adv-x="474" 
d="M54.8477 513.643c15.2637 1.64062 32.666 -5.49512 32.6396 -22.6279c-0.0683594 -49.5508 -0.0566406 -99.1035 1.10059 -148.645c2.02246 -86.5869 6.20508 -173.2 13.3242 -259.52c3.53418 -42.8721 7.2793 -85.7051 11.2139 -128.543
c0.124023 -1.34863 0.272461 -2.69238 0.401367 -4.03906c10.9492 72.0859 23.2432 143.956 39.5781 215.053c10.3809 45.1738 22.4121 89.9658 36.5557 134.111c14.0771 43.9336 29.2803 88.6357 50.79 129.57c16.0146 30.4736 47.7715 86.2246 90.5068 73.3115
c18.9873 -5.73633 29.9873 -22.832 38.4258 -39.5781c10.2666 -20.3672 17.417 -41.8047 23.0342 -63.8691c24.1523 -94.8701 34.2871 -193.296 44.5264 -290.445c10.4512 -99.1523 19.3809 -198.497 33.8838 -297.168
c2.90723 -19.7646 -15.6377 -31.9902 -32.3838 -37.0215c-13.1924 -3.96387 -44.1885 -3.04297 -46.5557 15.8691c-13.127 104.874 -18.3164 210.455 -24.4004 315.905c-5.31055 92.041 -11.7363 184.116 -22.6494 275.684
c-2.44727 20.5352 -5.5459 41.2168 -11.2939 61.1182c-2.77832 9.62012 -6.02832 19.5361 -10.3301 28.5947c-1.31445 2.77051 -3.68164 7.99414 -6.55469 9.72461c-4.61328 2.78027 -8.78906 -1.26855 -12.2744 -4.31152
c-15.3027 -13.3604 -26.4463 -33.2148 -35.8037 -50.9551c-9.66895 -18.3262 -17.6582 -37.4785 -25.1875 -56.7646c-64.9404 -166.339 -90.8906 -344.495 -117.035 -520.15c-0.130859 -0.891602 -0.422852 -1.73535 -0.816406 -2.53516
c0.626953 -2.93848 1.49707 -5.81152 2.83594 -8.52441c5.37402 -10.8887 -16.4883 -18.6396 -23.5684 -17.1426c-11.7441 2.48438 -19.6143 6.90332 -25.4258 17.7021c-5.69238 10.5771 -9.46191 21.8447 -13.1074 33.2539
c-7.28418 22.7979 -11.4092 47.0518 -15.0869 70.6738c-27.8438 178.844 -39.0654 362.021 -35.5703 542.948c0.339844 17.6045 25.5293 26.8477 39.2275 28.3203z" />
    <glyph glyph-name="O" unicode="O" horiz-adv-x="609" 
d="M534.092 483.301c53.2549 -75.2383 65.6973 -171.198 65.1602 -261.225c-0.540039 -90.2734 -22.0527 -182.905 -64.7373 -262.701c-40.7422 -76.1699 -105.967 -161.838 -200.277 -166.835c-47.5332 -2.52051 -84.9189 20.7539 -105.158 63.0469
c-18.6904 39.0605 -21.5752 84.3408 -24.3584 126.875c-2.45215 37.4639 -2.57812 74.877 -1.16406 112.231c-19.1162 4.29199 -37.875 10.3486 -56.0088 18.3184c-40.4463 17.7764 -77.0088 44.1348 -102.714 80.4902c-25.2363 35.6924 -40.332 78.6689 -43.2822 122.235
c-5.69238 84.0371 33.1328 167.297 96.0703 222.07c63.2852 55.0752 152.613 81.123 235.576 69.2402c80.1846 -11.4844 154.172 -57.7422 200.894 -123.747zM521.104 31.1914c32.4736 75.7617 50.7412 161.682 45.1221 244.302
c-5.62402 82.708 -29.1025 165.447 -87.4473 226.626c-51.3564 53.8506 -124.673 87.1777 -199.603 84.1299c-74.4004 -3.02637 -147.692 -38.7285 -189.499 -101.584c-40.6895 -61.1709 -52.2129 -141.788 -30.2314 -211.85
c22.9688 -73.2041 79.0742 -118.645 146.063 -140.145c3.64355 56.5771 10.3223 113.014 17.6279 169.282c3.99316 30.7627 74.835 40.6865 70.6816 5.60742c-2.80273 -23.6807 -5.56152 -47.3662 -8.39062 -71.0439c-4.64258 -38.8516 -8.90039 -78.0557 -11.7129 -117.361
c66.6885 -5.84082 136.524 7.94531 191.648 38.3555c12.8545 7.0918 26.3945 -5.96973 11.335 -14.8457c-19.502 -11.4941 -40.001 -21.0703 -61.0713 -29.3271c-45.543 -17.8447 -94.8701 -27.333 -143.869 -26.5986c-2.22656 -45.5791 -2.10059 -91.2041 2.16211 -136.497
c3.05957 -32.501 6.17285 -70.0303 26.6035 -96.9482c22.2881 -29.3633 57.5713 -22.2031 85.7578 -5.71973c31.0859 18.1797 55.1719 47.2119 75.6777 76.2393c23.5107 33.2861 43.1035 69.9551 59.1445 107.378z" />
    <glyph glyph-name="O" unicode="&#xd6;" horiz-adv-x="609" 
d="M534.092 483.301c53.2549 -75.2383 65.6973 -171.198 65.1602 -261.225c-0.540039 -90.2734 -22.0527 -182.905 -64.7373 -262.701c-40.7422 -76.1699 -105.967 -161.838 -200.277 -166.835c-47.5332 -2.52051 -84.9189 20.7539 -105.158 63.0469
c-18.6904 39.0605 -21.5752 84.3408 -24.3584 126.875c-2.45215 37.4639 -2.57812 74.877 -1.16406 112.231c-19.1162 4.29199 -37.875 10.3486 -56.0088 18.3184c-40.4463 17.7764 -77.0088 44.1348 -102.714 80.4902c-25.2363 35.6924 -40.332 78.6689 -43.2822 122.235
c-5.69238 84.0371 33.1328 167.297 96.0703 222.07c63.2852 55.0752 152.613 81.123 235.576 69.2402c80.1846 -11.4844 154.172 -57.7422 200.894 -123.747zM521.104 31.1914c32.4736 75.7617 50.7412 161.682 45.1221 244.302
c-5.62402 82.708 -29.1025 165.447 -87.4473 226.626c-51.3564 53.8506 -124.673 87.1777 -199.603 84.1299c-74.4004 -3.02637 -147.692 -38.7285 -189.499 -101.584c-40.6895 -61.1709 -52.2129 -141.788 -30.2314 -211.85
c22.9688 -73.2041 79.0742 -118.645 146.063 -140.145c3.64355 56.5771 10.3223 113.014 17.6279 169.282c3.99316 30.7627 74.835 40.6865 70.6816 5.60742c-2.80273 -23.6807 -5.56152 -47.3662 -8.39062 -71.0439c-4.64258 -38.8516 -8.90039 -78.0557 -11.7129 -117.361
c66.6885 -5.84082 136.524 7.94531 191.648 38.3555c12.8545 7.0918 26.3945 -5.96973 11.335 -14.8457c-19.502 -11.4941 -40.001 -21.0703 -61.0713 -29.3271c-45.543 -17.8447 -94.8701 -27.333 -143.869 -26.5986c-2.22656 -45.5791 -2.10059 -91.2041 2.16211 -136.497
c3.05957 -32.501 6.17285 -70.0303 26.6035 -96.9482c22.2881 -29.3633 57.5713 -22.2031 85.7578 -5.71973c31.0859 18.1797 55.1719 47.2119 75.6777 76.2393c23.5107 33.2861 43.1035 69.9551 59.1445 107.378z" />
    <glyph glyph-name="O" unicode="&#xd5;" horiz-adv-x="609" 
d="M534.092 483.301c53.2549 -75.2383 65.6973 -171.198 65.1602 -261.225c-0.540039 -90.2734 -22.0527 -182.905 -64.7373 -262.701c-40.7422 -76.1699 -105.967 -161.838 -200.277 -166.835c-47.5332 -2.52051 -84.9189 20.7539 -105.158 63.0469
c-18.6904 39.0605 -21.5752 84.3408 -24.3584 126.875c-2.45215 37.4639 -2.57812 74.877 -1.16406 112.231c-19.1162 4.29199 -37.875 10.3486 -56.0088 18.3184c-40.4463 17.7764 -77.0088 44.1348 -102.714 80.4902c-25.2363 35.6924 -40.332 78.6689 -43.2822 122.235
c-5.69238 84.0371 33.1328 167.297 96.0703 222.07c63.2852 55.0752 152.613 81.123 235.576 69.2402c80.1846 -11.4844 154.172 -57.7422 200.894 -123.747zM521.104 31.1914c32.4736 75.7617 50.7412 161.682 45.1221 244.302
c-5.62402 82.708 -29.1025 165.447 -87.4473 226.626c-51.3564 53.8506 -124.673 87.1777 -199.603 84.1299c-74.4004 -3.02637 -147.692 -38.7285 -189.499 -101.584c-40.6895 -61.1709 -52.2129 -141.788 -30.2314 -211.85
c22.9688 -73.2041 79.0742 -118.645 146.063 -140.145c3.64355 56.5771 10.3223 113.014 17.6279 169.282c3.99316 30.7627 74.835 40.6865 70.6816 5.60742c-2.80273 -23.6807 -5.56152 -47.3662 -8.39062 -71.0439c-4.64258 -38.8516 -8.90039 -78.0557 -11.7129 -117.361
c66.6885 -5.84082 136.524 7.94531 191.648 38.3555c12.8545 7.0918 26.3945 -5.96973 11.335 -14.8457c-19.502 -11.4941 -40.001 -21.0703 -61.0713 -29.3271c-45.543 -17.8447 -94.8701 -27.333 -143.869 -26.5986c-2.22656 -45.5791 -2.10059 -91.2041 2.16211 -136.497
c3.05957 -32.501 6.17285 -70.0303 26.6035 -96.9482c22.2881 -29.3633 57.5713 -22.2031 85.7578 -5.71973c31.0859 18.1797 55.1719 47.2119 75.6777 76.2393c23.5107 33.2861 43.1035 69.9551 59.1445 107.378z" />
    <glyph glyph-name="O" unicode="&#xd4;" horiz-adv-x="609" 
d="M534.092 483.301c53.2549 -75.2383 65.6973 -171.198 65.1602 -261.225c-0.540039 -90.2734 -22.0527 -182.905 -64.7373 -262.701c-40.7422 -76.1699 -105.967 -161.838 -200.277 -166.835c-47.5332 -2.52051 -84.9189 20.7539 -105.158 63.0469
c-18.6904 39.0605 -21.5752 84.3408 -24.3584 126.875c-2.45215 37.4639 -2.57812 74.877 -1.16406 112.231c-19.1162 4.29199 -37.875 10.3486 -56.0088 18.3184c-40.4463 17.7764 -77.0088 44.1348 -102.714 80.4902c-25.2363 35.6924 -40.332 78.6689 -43.2822 122.235
c-5.69238 84.0371 33.1328 167.297 96.0703 222.07c63.2852 55.0752 152.613 81.123 235.576 69.2402c80.1846 -11.4844 154.172 -57.7422 200.894 -123.747zM521.104 31.1914c32.4736 75.7617 50.7412 161.682 45.1221 244.302
c-5.62402 82.708 -29.1025 165.447 -87.4473 226.626c-51.3564 53.8506 -124.673 87.1777 -199.603 84.1299c-74.4004 -3.02637 -147.692 -38.7285 -189.499 -101.584c-40.6895 -61.1709 -52.2129 -141.788 -30.2314 -211.85
c22.9688 -73.2041 79.0742 -118.645 146.063 -140.145c3.64355 56.5771 10.3223 113.014 17.6279 169.282c3.99316 30.7627 74.835 40.6865 70.6816 5.60742c-2.80273 -23.6807 -5.56152 -47.3662 -8.39062 -71.0439c-4.64258 -38.8516 -8.90039 -78.0557 -11.7129 -117.361
c66.6885 -5.84082 136.524 7.94531 191.648 38.3555c12.8545 7.0918 26.3945 -5.96973 11.335 -14.8457c-19.502 -11.4941 -40.001 -21.0703 -61.0713 -29.3271c-45.543 -17.8447 -94.8701 -27.333 -143.869 -26.5986c-2.22656 -45.5791 -2.10059 -91.2041 2.16211 -136.497
c3.05957 -32.501 6.17285 -70.0303 26.6035 -96.9482c22.2881 -29.3633 57.5713 -22.2031 85.7578 -5.71973c31.0859 18.1797 55.1719 47.2119 75.6777 76.2393c23.5107 33.2861 43.1035 69.9551 59.1445 107.378z" />
    <glyph glyph-name="O" unicode="&#xd3;" horiz-adv-x="609" 
d="M534.092 483.301c53.2549 -75.2383 65.6973 -171.198 65.1602 -261.225c-0.540039 -90.2734 -22.0527 -182.905 -64.7373 -262.701c-40.7422 -76.1699 -105.967 -161.838 -200.277 -166.835c-47.5332 -2.52051 -84.9189 20.7539 -105.158 63.0469
c-18.6904 39.0605 -21.5752 84.3408 -24.3584 126.875c-2.45215 37.4639 -2.57812 74.877 -1.16406 112.231c-19.1162 4.29199 -37.875 10.3486 -56.0088 18.3184c-40.4463 17.7764 -77.0088 44.1348 -102.714 80.4902c-25.2363 35.6924 -40.332 78.6689 -43.2822 122.235
c-5.69238 84.0371 33.1328 167.297 96.0703 222.07c63.2852 55.0752 152.613 81.123 235.576 69.2402c80.1846 -11.4844 154.172 -57.7422 200.894 -123.747zM521.104 31.1914c32.4736 75.7617 50.7412 161.682 45.1221 244.302
c-5.62402 82.708 -29.1025 165.447 -87.4473 226.626c-51.3564 53.8506 -124.673 87.1777 -199.603 84.1299c-74.4004 -3.02637 -147.692 -38.7285 -189.499 -101.584c-40.6895 -61.1709 -52.2129 -141.788 -30.2314 -211.85
c22.9688 -73.2041 79.0742 -118.645 146.063 -140.145c3.64355 56.5771 10.3223 113.014 17.6279 169.282c3.99316 30.7627 74.835 40.6865 70.6816 5.60742c-2.80273 -23.6807 -5.56152 -47.3662 -8.39062 -71.0439c-4.64258 -38.8516 -8.90039 -78.0557 -11.7129 -117.361
c66.6885 -5.84082 136.524 7.94531 191.648 38.3555c12.8545 7.0918 26.3945 -5.96973 11.335 -14.8457c-19.502 -11.4941 -40.001 -21.0703 -61.0713 -29.3271c-45.543 -17.8447 -94.8701 -27.333 -143.869 -26.5986c-2.22656 -45.5791 -2.10059 -91.2041 2.16211 -136.497
c3.05957 -32.501 6.17285 -70.0303 26.6035 -96.9482c22.2881 -29.3633 57.5713 -22.2031 85.7578 -5.71973c31.0859 18.1797 55.1719 47.2119 75.6777 76.2393c23.5107 33.2861 43.1035 69.9551 59.1445 107.378z" />
    <glyph glyph-name="P" unicode="P" horiz-adv-x="463" 
d="M509.162 395.144c-15.9512 -49.7812 -56.8516 -89.6621 -98.2236 -119.569c-76.415 -55.2383 -170.05 -92.0625 -264.339 -107.586c-8.06445 -33.957 -14.3301 -68.3682 -19.1543 -102.872c-9.62207 -68.8027 -16.3057 -139.943 -12.9707 -210.119
c2.65137 -19.4922 5.49707 -38.9609 8.24121 -58.4365c3.51953 -24.9805 7.4209 -49.3945 15.5869 -73.3301c3.58984 -10.5215 -9.16309 -19.04 -17.1279 -22.0781c-9.19238 -3.50488 -23.627 -4.22949 -30.3955 4.61035
c-18.2754 23.8701 -24.2109 55.0361 -31.0381 83.6338c-7.06836 29.6182 -12.2432 59.7275 -17.1436 89.7734c-17.5605 107.686 -23.875 218.028 -24.5332 327.031c-0.663086 109.868 3.55371 220.196 16.7051 329.316c3.59277 29.8105 71.2285 40.5732 69.1963 5.48926
c-3.53613 -61.0225 -7.85059 -122.028 -10.5752 -183.095c-2.11914 -47.458 -3.2666 -95.0137 -3.29102 -142.569c0.804688 0.114258 1.60938 0.228516 2.38477 0.303711c13.0859 1.29297 26.1357 2.94336 39.1729 4.67676c21.7676 72.9102 53.2139 143.151 98.8584 203.906
c30.0166 39.9531 67.6064 76.1436 112.09 99.5732c43.3652 22.8418 103.122 30.4639 141.187 -6.7666c31.5654 -30.875 38.373 -81.3076 25.3701 -121.893zM108.927 127.104c2.37988 12.2275 4.97852 24.4639 7.80566 36.6748
c-8.7373 -1.01855 -17.46 -1.83496 -26.166 -2.47949c0.72168 -40.04 2.29395 -80.0557 4.81934 -119.994c3.56055 28.7646 8.01855 57.4102 13.541 85.7988zM329.743 280.275c23.4688 11.4795 45.834 24.6875 66.6973 40.4473
c34.6055 26.1348 70.6406 60.334 80.5908 104.353c4.41602 19.5439 4.33594 41.2607 -5.36133 59.2295c-10.3711 19.2207 -28.0479 32.7031 -49.7451 36.3369c-47.0908 7.88672 -92.8398 -26.6357 -124.891 -57.2432c-33.3711 -31.8662 -60.0479 -70.0596 -81.9297 -110.527
c-22.0713 -40.8184 -39.3574 -83.7607 -53 -127.896c3.33008 0.639648 6.96387 1.37891 11.4385 2.3125c27.9922 5.84082 55.7217 13.2949 82.8174 22.4365c22.75 7.67285 49.3789 18.8096 73.3828 30.5518z" />
    <glyph glyph-name="Q" unicode="Q" horiz-adv-x="629" 
d="M44.8359 193.504c-25.2363 35.6924 -40.332 78.668 -43.2852 122.237c-5.69238 84.0371 33.1299 167.297 96.0703 222.07c63.2852 55.0752 152.613 81.123 235.576 69.2402c80.1826 -11.4844 154.172 -57.7422 200.894 -123.747
c53.2568 -75.2383 65.6963 -171.197 65.1592 -261.221c-0.537109 -90.2734 -22.0518 -182.905 -64.7363 -262.701c-33.6455 -62.8994 -84.001 -132.228 -153.625 -157.308c-0.121094 -38.9561 0.479492 -78.0508 5.41602 -116.608
c11.832 0.821289 23.6689 0.765625 35.4014 -0.289062c30.498 -2.74121 59.708 -15.4287 79.2246 -39.5977c18.6416 -23.085 26.2227 -54.1904 19.7988 -83.2158c-5.82617 -26.3252 -22.2568 -55.6611 -50.4092 -62.2109c-33.7012 -7.84082 -57.542 17.835 -72.5186 44.3613
c-20.1875 35.7578 -31.7861 74.748 -38.2832 114.796c-43.2852 -10.3613 -84.4219 -35.7139 -116.133 -64.6055c-14.9424 -13.6152 -47.7832 0.0810547 -26.9102 18.0811c38.5332 33.2275 88.3096 58.8115 139.96 68.7402c-2.375 20.2393 -3.63672 40.6387 -4.20508 60.9307
c-0.483398 17.334 -0.476562 34.6729 -0.313477 52.0098c-5.77441 -0.953125 -11.6631 -1.60645 -17.6758 -1.9248c-47.5332 -2.52051 -84.917 20.7539 -105.158 63.0469c-18.6904 39.0605 -21.5752 84.3408 -24.3584 126.875
c-2.45215 37.4639 -2.57812 74.877 -1.16406 112.231c-19.1162 4.29199 -37.877 10.3486 -56.0088 18.3184c-40.4463 17.7764 -77.0107 44.1348 -102.716 80.4902zM398.798 -335.716c-3.08398 -0.0244141 -6.16992 -0.154297 -9.25391 -0.358398
c1.98047 -11.3477 4.38184 -22.6396 7.34473 -33.8516c7.69531 -29.1074 18.8096 -57.7412 35.3105 -83.0479c6.37988 -9.7832 19.1445 -28.5811 33.251 -26.2334c11.1143 1.84961 19.1621 21.7529 22.29 30.8379c9.03613 26.2588 4.31836 55.6484 -12.1875 77.8779
c-18.1992 24.5088 -46.8818 35.0039 -76.7549 34.7754zM89.6748 484.669c-40.6865 -61.1689 -52.2051 -141.79 -30.2305 -211.859c22.9688 -73.2041 79.0742 -118.645 146.063 -140.145c3.64062 56.5771 10.3223 113.014 17.6279 169.282
c3.99316 30.7627 74.835 40.6865 70.6816 5.60742c-2.80469 -23.6807 -5.56055 -47.3662 -8.38965 -71.0439c-4.64258 -38.8516 -8.90039 -78.0557 -11.7129 -117.361c66.6885 -5.84082 136.524 7.94531 191.648 38.3555c12.8545 7.0918 26.3945 -5.96973 11.335 -14.8457
c-19.502 -11.4941 -40.001 -21.0703 -61.0713 -29.3271c-45.543 -17.8447 -94.8701 -27.333 -143.869 -26.5986c-2.22363 -45.5791 -2.09766 -91.2041 2.16504 -136.496c3.05762 -32.501 6.17383 -70.0303 26.6045 -96.9482
c13.873 -18.2803 32.7871 -22.4004 51.8887 -18.9316c0.0898438 7.22559 0.172852 14.4541 0.208984 21.6797c0.0927734 17.665 1.5293 36.6396 -2.42773 53.9688c-1.78418 7.81445 -4.73438 15.8135 -10.8301 21.3359c-3.13086 2.83594 -11.0596 8.32617 -15.4053 5.49707
c-5.19141 -3.38086 -13.9629 -5.95215 -19.5479 -1.72266c-5.09668 3.85742 -3.42188 10.5508 1.54395 13.8193c24.4238 16.0801 56.5088 6.71777 68.2773 -20.1973c6.39258 -14.6143 6.41895 -31.1152 6.69824 -46.7871
c0.220703 -12.415 0.235352 -24.832 0.186523 -37.249c1.74512 0.918945 3.46875 1.87695 5.16504 2.86816c31.0859 18.1797 55.1719 47.2119 75.6777 76.2393c23.5107 33.2861 43.1035 69.9551 59.1445 107.378c32.4736 75.7637 50.7344 161.685 45.1172 244.31
c-5.62207 82.708 -29.1035 165.447 -87.4482 226.626c-51.3564 53.8506 -124.673 87.1777 -199.603 84.1299c-74.3975 -3.02637 -147.689 -38.7285 -189.499 -101.584z" />
    <glyph glyph-name="R" unicode="R" horiz-adv-x="690" 
d="M350.256 -162.869c-32.7295 38.1035 -63.8457 77.7568 -95.6201 116.817c-10.541 -76.5371 -16.0361 -154.015 -20.2939 -231.001c5.34668 -19.8018 12.2148 -39.0322 21.9053 -56.9033c13.6641 -25.1943 -38.1201 -45.1875 -51.1035 -24.3359
c-31.8369 51.1328 -45.2432 113.11 -57.7607 171.338c-16.6514 77.4531 -29.8174 156.026 -39.1992 235.137c-19.5684 3.82324 -38.502 9.62695 -56.5098 18.5732c-18.9727 9.42578 -41.4961 23.2676 -51.9814 42.335c-12.3008 22.3682 1.00098 47.4805 23.4395 56.7266
c23.7725 9.79297 47.9395 0.832031 69.0391 -11.3711c2.02734 -1.17383 4.02539 -2.39844 6.02051 -3.63086c-8.8252 115.869 -9.30859 232.347 -0.454102 347.636c2.44531 31.8203 74.877 42.6943 73.0586 5.79395c-3.12598 -63.4844 -4.97754 -127.052 -4.66406 -190.617
c0.357422 -72.3271 4.10059 -144.408 10.5459 -216.308c12.2354 -0.357422 24.6338 0.0849609 37.4355 1.23926c6.61816 0.597656 13.2246 1.35352 19.8086 2.25781c1.97363 0.269531 3.94434 0.558594 5.91309 0.855469
c0.452148 0.0683594 3.02832 0.481445 4.63477 0.731445c1.57031 0.289062 4.32617 0.785156 4.79492 0.875c1.69141 0.325195 3.38086 0.674805 5.07031 1.01758c21.7168 86.3926 53.2041 169.844 99.9502 246.988c47.0039 77.5674 110.056 155.03 197.975 186.833
c39.25 14.1963 90.1934 16.6289 117.712 -20.6162c25.1943 -34.1045 24.5166 -85.2178 14.5078 -124.419c-22.6641 -88.7715 -89.3867 -164.205 -159.908 -219.558c-72.8252 -57.1582 -160.168 -97.3008 -250.371 -117.615
c-0.719727 -0.160156 -1.44434 -0.310547 -2.16406 -0.470703c-3.67285 -17.5195 -6.97363 -35.124 -9.96289 -52.7959c15.3604 -15.2002 30.541 -30.5879 45.3496 -46.4033c34.0391 -36.3506 67.9473 -72.791 102.684 -108.479
c33.9805 -34.9092 69.293 -68.6328 107.224 -99.2549c34.7588 -28.0576 73.7275 -53.0801 119.63 -54.5283c13.3047 -0.420898 25.1611 -12.4053 18.8906 -25.6465c-6.99219 -14.7656 -25.8701 -19.6289 -40.75 -18.9707
c-21.9746 0.972656 -43.9492 6.12988 -64.2168 14.6611c-41.2793 17.376 -76.1836 45.502 -108.51 75.9785c-32.4541 30.5977 -63.0586 63.2998 -92.1182 97.1299zM476.08 465.92c-64.916 -58.8643 -111.224 -139.09 -145.204 -218.995
c-18.7881 -44.1865 -33.7021 -89.4619 -45.6943 -135.477c14.8311 3.85742 29.5137 8.25879 44.0361 13.1611c3.63086 1.22754 7.25 2.49121 10.8789 3.72559c0.401367 0.135742 1.86719 0.658203 2.83496 1.00098c3.72852 1.38281 7.44238 2.81152 11.1396 4.27441
c8.94629 3.54102 17.8105 7.28418 26.582 11.2334c19.2666 8.67188 38.0957 18.3213 56.3682 28.9307c4.15625 2.41309 14.9844 9.0293 22.04 13.584c8.64551 5.58301 17.1494 11.3818 25.4961 17.4023c16.627 11.9922 32.7461 24.8057 47.9346 38.582
c59.6885 54.1416 125.455 127.893 125.166 213.492c-0.0654297 18.8945 -6.52344 38.8467 -19.4639 52.8994c-14.1455 15.3633 -34.9404 18.7002 -54.79 15.502c-40.2422 -6.4873 -77.7549 -32.5059 -107.324 -59.3164zM241.894 49.4746
c-8.02344 -1.38281 -16.0928 -2.60938 -24.1963 -3.62012c6.59375 -6.36035 13.1807 -12.7256 19.7529 -19.1006c1.41504 7.59082 2.90234 15.1621 4.44336 22.7207zM50.0781 146.452c6.7959 4.31934 0.677734 1.45312 0 0zM100.452 111.196
c0.369141 -0.125977 0.736328 -0.237305 1.10547 -0.363281c-0.0976562 1.05469 -0.182617 2.10938 -0.280273 3.16211c-7.4375 5.96191 -15.0938 11.6133 -23.1416 16.5762c-8.48047 5.23047 -16.6104 7.62891 -25.5234 9.91406
c0.337891 -0.974609 0.610352 -1.75488 0.734375 -1.96875c8.64258 -15.0664 31.6543 -22.0635 47.1055 -27.3203zM212.682 -166.119c4.13184 50.0176 9.59375 100.182 17.3838 149.897c-15.4629 18.5127 -31.2197 36.7559 -47.499 54.5078
c2.06152 -18.7588 4.2832 -37.5049 6.67773 -56.2393c6.35059 -49.6553 14.5732 -98.9316 23.4375 -148.166z" />
    <glyph glyph-name="S" unicode="S" horiz-adv-x="598" 
d="M291.612 -128.708c-17.1934 63.4316 2.37305 136.638 55.0059 177.305c-18.8877 7.11133 -37.7949 13.4375 -55.6133 19.6816c-79.7012 27.9316 -167.965 53.4062 -234.386 107.83c-34.0127 27.8682 -58.9375 62.2793 -59.6084 107.718
c-0.675781 45.6982 24.0469 88.3945 52.207 122.572c52.4453 63.6523 121.821 114.199 197.521 146.635c78.7803 33.7549 173.938 56.3682 257.777 28.7578c36.6133 -12.0576 71.8652 -34.5205 94.2871 -66.3506c21.4658 -30.4736 31.2217 -68.6768 29.8242 -105.718
c-2.81738 -74.6357 -56.7305 -140.913 -124.242 -169.209c-39.0918 -16.3838 -85.1963 -22.6348 -126.191 -9.66602c-37.6846 11.9238 -68.0654 42.5215 -67.8877 83.415c0.0683594 16.209 37.7246 24.585 41.626 7.2041c3.63574 -16.207 12.5771 -32.5742 24.9336 -43.8369
c56.1523 -51.1768 153.2 -9.1416 192.528 43.6826c44.4492 59.7031 36.3877 152.089 -20.7686 200.602c-65.1348 55.2871 -159.973 44.7773 -235.72 20.791c-72.1865 -22.8613 -138.724 -64.6543 -190.973 -119.416c-27.1953 -28.5049 -55.2266 -62.2959 -59.9609 -102.832
c-4.74902 -40.6504 16.0049 -72.376 47.502 -96.0391c65.082 -48.8945 142.651 -74.3398 218.461 -102.072c75.3291 -27.5547 163.591 -59.5742 199.817 -137.209c31.8125 -68.1807 3.23438 -161.843 -65.333 -195.952
c-32.8818 -16.3574 -73.9473 -17.9717 -107.238 -1.99316c-33.4287 16.0439 -54.1074 49.1885 -63.5693 84.1006zM370.179 39.2295c-13.5771 -9.71484 -25.0371 -21.8408 -33.5996 -36.2363c-18.2988 -30.7627 -25.0361 -68.3574 -19.917 -103.697
c5.33691 -36.8438 23.3643 -77.5576 58.9395 -94.0928c34.958 -16.248 75.8369 -6.09375 100.822 22.5547c26.7812 30.707 28.0645 72.5049 12.8887 108.968c-21.5176 51.7041 -68.5625 81.1133 -119.134 102.504z" />
    <glyph glyph-name="T" unicode="T" horiz-adv-x="496" 
d="M330.572 262.413c-6.77148 103.452 -10.2393 207.359 -5.26367 310.962c-49.665 -23.3057 -98.7178 -47.9629 -149.438 -68.8438c-35.0596 -14.4326 -71.3008 -27.0957 -108.657 -34.0273c-28.3887 -5.2666 -70.6211 -3.85449 -78.041 31.6602
c-2.52246 12.0703 23.5566 18.8203 26.1182 6.99805c5.71191 -26.3662 35.5557 -23.4258 55.8623 -18.9971c22.3291 4.87109 44.2891 11.5479 65.7188 19.4766c42.9834 15.9023 84.0488 36.4502 125.275 56.3418c21.3496 10.3008 42.8008 20.4355 64.3906 30.2617
c0.0654297 1.09375 0.116211 2.1875 0.18457 3.28125c1.59668 25.6953 45.8662 38.5264 66.6328 25.7197c31.7354 13.0254 63.8691 25.0518 96.5615 35.5586c77.6445 24.9512 161.079 43.2646 243.064 39.2305c38.208 -1.87891 77.4268 -9.79297 111.371 -27.9971
c30.1602 -16.1729 55.1797 -46.2256 50.4814 -82.3164c-10.0889 -77.5352 -125.893 -88.54 -178.593 -50.9502c-17.6963 12.624 14.0752 30.6992 27.001 24.6016c31.543 -14.8848 72.2295 -25.0293 102.754 -1.88867c15.7646 11.9512 22.8447 27.6934 17.4268 47.2373
c-5.19629 18.7412 -19.0381 32.8311 -35.2402 42.7764c-64.5859 39.6484 -152.59 30.9688 -223.58 17.9482c-69.0576 -12.668 -135.916 -34.8564 -200.804 -61.4102c0.0634766 -0.782227 0.138672 -1.55762 0.136719 -2.38672
c-0.245117 -60.0312 -0.532227 -120.089 0.476562 -180.117c1.73828 -103.508 8.21094 -207.001 18.9854 -309.96c5.51953 -52.7715 12.1621 -105.475 19.3174 -158.047c3.53125 -25.9482 7.41309 -51.8379 10.8594 -77.7959
c1.88867 -14.2012 4.07812 -28.3584 5.4834 -42.6162c0.626953 -6.36523 1.30762 -12.7236 1.93457 -19.0889c0.189453 -1.9082 1.03516 -5.63379 1.11328 -8.2002c4.61328 -3.44434 7.22559 -8.92969 5.56543 -15.2178
c-3.14062 -11.8896 -17.3467 -16.8184 -28.0996 -18.3857c-35.4951 -5.17676 -42.0576 36.9053 -48.2646 62.3379c-7.49316 30.7002 -14.126 61.458 -19.9375 92.5195c-20.4629 109.378 -33.5293 220.312 -40.7969 331.335zM461.886 -192.213
c-0.381836 -0.984375 1.11816 -0.762695 0.104492 0.491211c-0.0341797 -0.165039 -0.0537109 -0.357422 -0.104492 -0.491211z" />
    <glyph glyph-name="U" unicode="U" horiz-adv-x="612" 
d="M467.239 133.252c-10.502 -49.6387 -24.2188 -98.2871 -39.2852 -146.71c-13.915 -44.7139 -32.2705 -88.1494 -60.8213 -125.62c-28.4736 -37.3662 -71.8193 -66.335 -120.184 -65.1729c-46.4443 1.11523 -84.8271 30.3594 -112.518 65.6191
c-30.2891 38.5645 -49.1836 85.1816 -65.1543 131.147c-16.3164 46.96 -27.6787 95.4023 -36.0547 144.375c-17.2539 100.881 -21.5117 203.502 -21.2031 305.681c0.0537109 17.9277 26.3008 27.4287 40.0381 28.9062c15.9316 1.71387 32.8701 -5.66016 33.3174 -23.0869
c2.68848 -104.976 5.76758 -210.457 23.5293 -314.177c7.87012 -45.958 18.5547 -91.6689 32.5205 -136.169c12.957 -41.2939 28.1943 -83.6943 53.6592 -119.102c19.1836 -26.6748 50.6367 -57.0127 86.2725 -44.0674c37.5586 13.6445 64.9404 53.1934 84.0049 86.2676
c46.9795 81.502 67.3662 176.702 84.1953 268.317c17.4775 95.1572 28.5166 191.359 42.8516 287.01c0.208984 1.3877 0.787109 2.65625 1.63086 3.7959c-0.00488281 0.449219 -0.0166016 0.898438 -0.0214844 1.35059c-0.216797 17.376 25.7803 26.6748 38.9023 28.0869
c15.8271 1.70117 31.4746 -5.56836 32.3711 -22.4336c2.63184 -49.4385 4.53223 -98.8818 6.77832 -148.34c3.89355 -85.7559 10.1201 -171.548 21.2246 -256.695c5.58789 -42.8379 12.7188 -85.5127 20.9922 -127.91c3.88379 -19.9111 7.63379 -40.0967 13.1436 -59.6357
c3.54395 -12.5752 7.44531 -27.0781 19.0898 -34.4453c10.3711 -6.5625 6.47949 -18.3145 -0.703125 -25.1973c-8.83984 -8.4707 -24.1377 -12.1406 -35.8281 -8.08398c-45.2314 15.6982 -52.5088 71.3398 -62.668 111.811
c-21.9307 87.3691 -33.6504 177.373 -40.8887 267.054c-3.23242 40.0352 -5.75488 80.1143 -7.70703 120.22c-8.5166 -64.583 -17.9883 -129.016 -31.4854 -192.795z" />
    <glyph glyph-name="U" unicode="&#xdc;" horiz-adv-x="612" 
d="M467.239 133.252c-10.502 -49.6387 -24.2188 -98.2871 -39.2852 -146.71c-13.915 -44.7139 -32.2705 -88.1494 -60.8213 -125.62c-28.4736 -37.3662 -71.8193 -66.335 -120.184 -65.1729c-46.4443 1.11523 -84.8271 30.3594 -112.518 65.6191
c-30.2891 38.5645 -49.1836 85.1816 -65.1543 131.147c-16.3164 46.96 -27.6787 95.4023 -36.0547 144.375c-17.2539 100.881 -21.5117 203.502 -21.2031 305.681c0.0537109 17.9277 26.3008 27.4287 40.0381 28.9062c15.9316 1.71387 32.8701 -5.66016 33.3174 -23.0869
c2.68848 -104.976 5.76758 -210.457 23.5293 -314.177c7.87012 -45.958 18.5547 -91.6689 32.5205 -136.169c12.957 -41.2939 28.1943 -83.6943 53.6592 -119.102c19.1836 -26.6748 50.6367 -57.0127 86.2725 -44.0674c37.5586 13.6445 64.9404 53.1934 84.0049 86.2676
c46.9795 81.502 67.3662 176.702 84.1953 268.317c17.4775 95.1572 28.5166 191.359 42.8516 287.01c0.208984 1.3877 0.787109 2.65625 1.63086 3.7959c-0.00488281 0.449219 -0.0166016 0.898438 -0.0214844 1.35059c-0.216797 17.376 25.7803 26.6748 38.9023 28.0869
c15.8271 1.70117 31.4746 -5.56836 32.3711 -22.4336c2.63184 -49.4385 4.53223 -98.8818 6.77832 -148.34c3.89355 -85.7559 10.1201 -171.548 21.2246 -256.695c5.58789 -42.8379 12.7188 -85.5127 20.9922 -127.91c3.88379 -19.9111 7.63379 -40.0967 13.1436 -59.6357
c3.54395 -12.5752 7.44531 -27.0781 19.0898 -34.4453c10.3711 -6.5625 6.47949 -18.3145 -0.703125 -25.1973c-8.83984 -8.4707 -24.1377 -12.1406 -35.8281 -8.08398c-45.2314 15.6982 -52.5088 71.3398 -62.668 111.811
c-21.9307 87.3691 -33.6504 177.373 -40.8887 267.054c-3.23242 40.0352 -5.75488 80.1143 -7.70703 120.22c-8.5166 -64.583 -17.9883 -129.016 -31.4854 -192.795z" />
    <glyph glyph-name="U" unicode="&#xdb;" horiz-adv-x="612" 
d="M467.239 133.252c-10.502 -49.6387 -24.2188 -98.2871 -39.2852 -146.71c-13.915 -44.7139 -32.2705 -88.1494 -60.8213 -125.62c-28.4736 -37.3662 -71.8193 -66.335 -120.184 -65.1729c-46.4443 1.11523 -84.8271 30.3594 -112.518 65.6191
c-30.2891 38.5645 -49.1836 85.1816 -65.1543 131.147c-16.3164 46.96 -27.6787 95.4023 -36.0547 144.375c-17.2539 100.881 -21.5117 203.502 -21.2031 305.681c0.0537109 17.9277 26.3008 27.4287 40.0381 28.9062c15.9316 1.71387 32.8701 -5.66016 33.3174 -23.0869
c2.68848 -104.976 5.76758 -210.457 23.5293 -314.177c7.87012 -45.958 18.5547 -91.6689 32.5205 -136.169c12.957 -41.2939 28.1943 -83.6943 53.6592 -119.102c19.1836 -26.6748 50.6367 -57.0127 86.2725 -44.0674c37.5586 13.6445 64.9404 53.1934 84.0049 86.2676
c46.9795 81.502 67.3662 176.702 84.1953 268.317c17.4775 95.1572 28.5166 191.359 42.8516 287.01c0.208984 1.3877 0.787109 2.65625 1.63086 3.7959c-0.00488281 0.449219 -0.0166016 0.898438 -0.0214844 1.35059c-0.216797 17.376 25.7803 26.6748 38.9023 28.0869
c15.8271 1.70117 31.4746 -5.56836 32.3711 -22.4336c2.63184 -49.4385 4.53223 -98.8818 6.77832 -148.34c3.89355 -85.7559 10.1201 -171.548 21.2246 -256.695c5.58789 -42.8379 12.7188 -85.5127 20.9922 -127.91c3.88379 -19.9111 7.63379 -40.0967 13.1436 -59.6357
c3.54395 -12.5752 7.44531 -27.0781 19.0898 -34.4453c10.3711 -6.5625 6.47949 -18.3145 -0.703125 -25.1973c-8.83984 -8.4707 -24.1377 -12.1406 -35.8281 -8.08398c-45.2314 15.6982 -52.5088 71.3398 -62.668 111.811
c-21.9307 87.3691 -33.6504 177.373 -40.8887 267.054c-3.23242 40.0352 -5.75488 80.1143 -7.70703 120.22c-8.5166 -64.583 -17.9883 -129.016 -31.4854 -192.795z" />
    <glyph glyph-name="U" unicode="&#xda;" horiz-adv-x="612" 
d="M467.239 133.252c-10.502 -49.6387 -24.2188 -98.2871 -39.2852 -146.71c-13.915 -44.7139 -32.2705 -88.1494 -60.8213 -125.62c-28.4736 -37.3662 -71.8193 -66.335 -120.184 -65.1729c-46.4443 1.11523 -84.8271 30.3594 -112.518 65.6191
c-30.2891 38.5645 -49.1836 85.1816 -65.1543 131.147c-16.3164 46.96 -27.6787 95.4023 -36.0547 144.375c-17.2539 100.881 -21.5117 203.502 -21.2031 305.681c0.0537109 17.9277 26.3008 27.4287 40.0381 28.9062c15.9316 1.71387 32.8701 -5.66016 33.3174 -23.0869
c2.68848 -104.976 5.76758 -210.457 23.5293 -314.177c7.87012 -45.958 18.5547 -91.6689 32.5205 -136.169c12.957 -41.2939 28.1943 -83.6943 53.6592 -119.102c19.1836 -26.6748 50.6367 -57.0127 86.2725 -44.0674c37.5586 13.6445 64.9404 53.1934 84.0049 86.2676
c46.9795 81.502 67.3662 176.702 84.1953 268.317c17.4775 95.1572 28.5166 191.359 42.8516 287.01c0.208984 1.3877 0.787109 2.65625 1.63086 3.7959c-0.00488281 0.449219 -0.0166016 0.898438 -0.0214844 1.35059c-0.216797 17.376 25.7803 26.6748 38.9023 28.0869
c15.8271 1.70117 31.4746 -5.56836 32.3711 -22.4336c2.63184 -49.4385 4.53223 -98.8818 6.77832 -148.34c3.89355 -85.7559 10.1201 -171.548 21.2246 -256.695c5.58789 -42.8379 12.7188 -85.5127 20.9922 -127.91c3.88379 -19.9111 7.63379 -40.0967 13.1436 -59.6357
c3.54395 -12.5752 7.44531 -27.0781 19.0898 -34.4453c10.3711 -6.5625 6.47949 -18.3145 -0.703125 -25.1973c-8.83984 -8.4707 -24.1377 -12.1406 -35.8281 -8.08398c-45.2314 15.6982 -52.5088 71.3398 -62.668 111.811
c-21.9307 87.3691 -33.6504 177.373 -40.8887 267.054c-3.23242 40.0352 -5.75488 80.1143 -7.70703 120.22c-8.5166 -64.583 -17.9883 -129.016 -31.4854 -192.795z" />
    <glyph glyph-name="V" unicode="V" horiz-adv-x="610" 
d="M706.141 739.102c7.70703 9.79004 34.0977 5.91211 23.2451 -7.92676c-20.7832 -26.5098 -33.7764 -57.8027 -46.165 -88.8574c-13.0566 -32.7266 -25.0361 -65.876 -36.165 -99.3027c-22.2266 -66.7559 -40.9414 -134.625 -58.2539 -202.806
c-15.2686 -60.1328 -29.3701 -120.551 -43.8076 -180.886c-14.0576 -58.7549 -27.4033 -118.465 -49.2832 -174.908c-17.9902 -46.4033 -44.1396 -98.876 -97.083 -111.575c-59.8291 -14.3525 -110.471 29.5469 -145.616 72.6934
c-37.5127 46.0537 -62.666 101.893 -85.4443 156.285c-22.8447 54.541 -40.9863 111.014 -58.666 167.396c-36.2676 115.67 -69.8154 231.729 -117.597 343.382c-6.97754 16.3066 15.6992 31.2734 27.6719 35.665c8.55273 3.1377 17.3076 4.43066 26.3955 3.6582
c6.35059 -0.541992 19.4102 -4.46484 22.7061 -11.1074c58.4053 -117.704 90.2617 -245.906 127.476 -371.337c16.3623 -55.1504 34.0566 -109.971 54.3926 -163.797c19.2012 -50.8271 41.4912 -100.492 71.7266 -145.797
c12.7266 -19.0645 27.8203 -40.2266 49.0488 -50.5146c19.5996 -9.49805 35.459 -2.11914 49.4443 12.916c16.6299 17.876 27.6865 40.1074 37.9775 62.0186c12.8135 27.2852 23.498 55.5225 32.9648 84.125c18.71 56.5361 30.4688 115.464 44.4854 173.293
c14.1113 58.2109 28.5898 116.344 44.6504 174.051c15.8711 57.0176 33.2539 113.655 53.2666 169.365c18.9453 52.7373 37.5605 109.432 72.6299 153.966z" />
    <glyph glyph-name="W" unicode="W" horiz-adv-x="900" 
d="M207.397 -152.571c-86.208 -0.308594 -136.632 75.6826 -160.225 149.701c-55.4111 173.793 -31.0547 361.268 -1.5459 537.504c3.25 19.4102 25.458 29.0303 42.7949 30.8945c14.5127 1.56055 38.5215 -5.91602 35.6094 -24.6768
c-14.5928 -93.9824 -29.5352 -188.113 -32.3594 -283.351c-2.38965 -80.5928 2.88672 -161.577 22.5762 -240.017c8.6084 -34.2969 17.9023 -69.2041 39.5117 -97.8936c16.8018 -22.3096 45.8975 -44.3955 75.5518 -41.2041
c32.1484 3.46094 56.4434 37.1699 71.8164 62.5537c19.2451 31.7793 34.6816 65.7383 47.3174 100.643c24.8271 68.5771 38.6611 140.562 52.8281 211.948c-0.0214844 0.133789 -0.0410156 0.269531 -0.0625 0.405273c-2.80273 18.5742 14.7676 30.1074 30.459 34.8203
c12.7266 3.82324 41.1104 2.80957 43.7891 -14.9258c12.5801 -83.3662 25.5371 -167.287 57.6973 -245.727c13.4697 -32.8535 30.2334 -66.4404 55.4619 -91.9678c21.6699 -21.9258 55.0605 -37.8428 84.793 -22.7539c31.917 16.1973 47.9971 54.1719 60.6699 85.5088
c14.6953 36.3359 27.1709 73.6104 38.0908 111.242c42.7549 147.337 62.3789 302.082 128.591 441.885c4.71777 9.96484 30.3721 10.373 24.3594 -2.72754c-39.2061 -85.3955 -61.0664 -176.775 -80.7217 -268.27c-17.2471 -80.2695 -32.8633 -161.149 -57.4551 -239.587
c-22.5449 -71.9062 -58.6816 -163.595 -147.396 -167.491c-88.1787 -3.87207 -147.66 74.5332 -180.197 147.113c-22.708 50.6543 -36 104.147 -45.9746 158.387c-12.3643 -61.4775 -28.1016 -122.301 -52.8369 -180.003
c-15.1836 -35.4248 -33.8018 -71.3984 -57.3125 -102.091c-23.292 -30.4082 -57.0156 -49.7822 -95.8311 -49.9209z" />
    <glyph glyph-name="X" unicode="X" horiz-adv-x="502" 
d="M-57.9629 -116.692c-9.6416 -7.78027 -29.9521 0.436523 -16.6504 11.1895c50.1123 40.5088 85.3252 95.2461 119.175 149.257c30.5293 48.71 61.4014 97.2695 93.5566 144.937c-22.9072 56.9033 -43.6348 114.61 -64.0996 172.454
c-12.2256 34.5566 -24.6162 69.0479 -36.6426 103.675c-10.915 31.4316 -20.5518 66.3965 -39.2715 94.1914c-13.1465 19.5244 27.7295 36.6201 41.1504 24.5039c7.44727 -6.72266 15.5654 -13.4434 21.6826 -21.3721c5.86719 -7.60547 10.5654 -16.3848 15.0518 -24.8477
c9.50293 -17.918 17.2227 -36.7451 25.1826 -55.3818c15.3125 -35.8428 29.2227 -72.2422 43.3291 -108.571c14.5566 -37.4902 28.9844 -75.1318 43.915 -112.576c17.6357 24.3486 35.75 48.3545 54.4941 71.8984c36.7686 46.1797 75.8438 90.7354 118.132 131.954
c39.4814 38.4795 82.8779 73.6953 134.223 94.9668c5.05762 2.09473 14.082 3.6748 17.9004 -1.82812c3.61133 -5.2041 -1.38086 -11.3193 -6.30762 -13.3564c-58.7773 -24.2881 -105.934 -67.7822 -149.529 -112.973c-58.291 -60.4229 -110.583 -126.224 -159.293 -194.564
c33.2197 -81.7432 69.5166 -162.166 115.631 -237.565c33.3076 -54.46 70.0713 -109.759 121.297 -149.002c24.1641 -18.5127 50.46 -33.375 80.248 -40.6377c26.6816 -6.50684 53.3779 -5.53711 77.8994 5.01172c11.4062 4.9043 30.6172 7.77734 39.3818 -4.02051
c8.82715 -11.8799 -3.98145 -24.0449 -13.876 -29.3818c-73.9434 -39.8916 -167.596 -24.0547 -234.918 21.7725c-57.3701 39.0557 -99.4736 99.7432 -134.918 158.263c-37.8555 62.5078 -69.5059 128.729 -97.8047 196.042
c-0.972656 2.31152 -1.9082 4.6377 -2.87109 6.95117c-2.74121 -4.11719 -5.4873 -8.23242 -8.21191 -12.3594c-31.7842 -48.1602 -61.6699 -97.5264 -93.2588 -145.806c-29.6377 -45.2998 -62.2041 -88.626 -104.597 -122.823z" />
    <glyph glyph-name="Y" unicode="Y" horiz-adv-x="639" 
d="M109.513 -90.8701c-36.2822 -32.0195 -31.4258 -84.3633 -4.58301 -120.702c29.834 -40.3945 81.5312 -57.3887 129.273 -64.5684c52.832 -7.94336 109.861 -3.04395 154.559 17.8242c20.168 9.41309 37.4346 20.375 55.3867 36.8076
c13.876 12.7041 28.7803 31.9971 38.665 50.4785c26.2256 49.0254 32.4326 105.802 34.4062 160.566c2.09766 58.2588 -3.04297 116.112 -9.76367 173.92c-6.84961 58.9033 -15.9688 117.513 -23.0195 176.392c-4.06152 33.918 -7.40625 68.3486 -8.20312 102.75
c-19.7822 -61.1855 -33.6436 -124.311 -50.9365 -186.267c-21.1719 -75.8584 -48.748 -150.273 -94.4688 -215.09c-23.9336 -33.9297 -59.2803 -59.1123 -101.173 -64.1533c-40.7471 -4.9043 -77.8662 13.4902 -105.695 42.0654
c-28.5898 29.3555 -46.1797 68.54 -60.2939 106.478c-15.5215 41.7119 -25 85.5537 -33.1152 129.232c-17.1641 92.3857 -23.6807 186.828 -20.9541 280.721c0.546875 18.7949 27.0635 28.6064 41.8213 30.1934c15.7666 1.69629 35.5049 -5.80176 34.7998 -24.1152
c-3.74023 -97.3564 3.40039 -194.71 20.9102 -290.552c7.37207 -40.3535 16.3213 -80.7998 29.4385 -119.715c11.0879 -32.8945 25.3262 -66.3262 48.7881 -92.4521c20.1123 -22.3945 46.5537 -34.8193 75.5693 -21.4199c33.8154 15.6162 57.207 49.0039 74.6699 80.6152
c72.4316 131.121 81.1113 285.781 142.024 421.583c0.546875 1.21777 1.38574 2.29492 2.41406 3.24805c2.56445 11.1025 15.7354 17.3096 25.8174 19.1396c8.04785 1.46094 26.9863 0.291992 28.1699 -11.4932c7.46875 -74.3975 15.4795 -148.547 26.6016 -222.517
c10.9541 -72.8467 22.9805 -145.494 27.7471 -219.085c4.15625 -64.1357 4.77832 -130.549 -9.74121 -193.535c-14.1357 -61.3193 -44.5781 -113.539 -94.0752 -152.901c-49.1768 -39.1064 -111.91 -60.5625 -174.201 -65.0391
c-62.5469 -4.49414 -129.461 4.66113 -186.077 32.5781c-49.8428 24.5771 -89.8027 69.6797 -91.7275 127.346c-2.01465 60.3711 47.6816 104.801 101.841 120.817c55.2529 16.3398 119.061 8.07324 171.948 -13.0068c50.166 -19.9932 96.2383 -52.499 126.185 -97.8984
c10.2373 -15.5234 -22.3828 -26.5234 -32.2773 -15.3701c-36.9658 41.666 -82.4502 75.0996 -135.958 91.8242c-48.2578 15.0811 -113.935 21.3398 -154.771 -14.6992z" />
    <glyph glyph-name="Y" unicode="&#x178;" horiz-adv-x="639" 
d="M109.513 -90.8701c-36.2822 -32.0195 -31.4258 -84.3633 -4.58301 -120.702c29.834 -40.3945 81.5312 -57.3887 129.273 -64.5684c52.832 -7.94336 109.861 -3.04395 154.559 17.8242c20.168 9.41309 37.4346 20.375 55.3867 36.8076
c13.876 12.7041 28.7803 31.9971 38.665 50.4785c26.2256 49.0254 32.4326 105.802 34.4062 160.566c2.09766 58.2588 -3.04297 116.112 -9.76367 173.92c-6.84961 58.9033 -15.9688 117.513 -23.0195 176.392c-4.06152 33.918 -7.40625 68.3486 -8.20312 102.75
c-19.7822 -61.1855 -33.6436 -124.311 -50.9365 -186.267c-21.1719 -75.8584 -48.748 -150.273 -94.4688 -215.09c-23.9336 -33.9297 -59.2803 -59.1123 -101.173 -64.1533c-40.7471 -4.9043 -77.8662 13.4902 -105.695 42.0654
c-28.5898 29.3555 -46.1797 68.54 -60.2939 106.478c-15.5215 41.7119 -25 85.5537 -33.1152 129.232c-17.1641 92.3857 -23.6807 186.828 -20.9541 280.721c0.546875 18.7949 27.0635 28.6064 41.8213 30.1934c15.7666 1.69629 35.5049 -5.80176 34.7998 -24.1152
c-3.74023 -97.3564 3.40039 -194.71 20.9102 -290.552c7.37207 -40.3535 16.3213 -80.7998 29.4385 -119.715c11.0879 -32.8945 25.3262 -66.3262 48.7881 -92.4521c20.1123 -22.3945 46.5537 -34.8193 75.5693 -21.4199c33.8154 15.6162 57.207 49.0039 74.6699 80.6152
c72.4316 131.121 81.1113 285.781 142.024 421.583c0.546875 1.21777 1.38574 2.29492 2.41406 3.24805c2.56445 11.1025 15.7354 17.3096 25.8174 19.1396c8.04785 1.46094 26.9863 0.291992 28.1699 -11.4932c7.46875 -74.3975 15.4795 -148.547 26.6016 -222.517
c10.9541 -72.8467 22.9805 -145.494 27.7471 -219.085c4.15625 -64.1357 4.77832 -130.549 -9.74121 -193.535c-14.1357 -61.3193 -44.5781 -113.539 -94.0752 -152.901c-49.1768 -39.1064 -111.91 -60.5625 -174.201 -65.0391
c-62.5469 -4.49414 -129.461 4.66113 -186.077 32.5781c-49.8428 24.5771 -89.8027 69.6797 -91.7275 127.346c-2.01465 60.3711 47.6816 104.801 101.841 120.817c55.2529 16.3398 119.061 8.07324 171.948 -13.0068c50.166 -19.9932 96.2383 -52.499 126.185 -97.8984
c10.2373 -15.5234 -22.3828 -26.5234 -32.2773 -15.3701c-36.9658 41.666 -82.4502 75.0996 -135.958 91.8242c-48.2578 15.0811 -113.935 21.3398 -154.771 -14.6992z" />
    <glyph glyph-name="Y" unicode="&#xdd;" horiz-adv-x="639" 
d="M109.513 -90.8701c-36.2822 -32.0195 -31.4258 -84.3633 -4.58301 -120.702c29.834 -40.3945 81.5312 -57.3887 129.273 -64.5684c52.832 -7.94336 109.861 -3.04395 154.559 17.8242c20.168 9.41309 37.4346 20.375 55.3867 36.8076
c13.876 12.7041 28.7803 31.9971 38.665 50.4785c26.2256 49.0254 32.4326 105.802 34.4062 160.566c2.09766 58.2588 -3.04297 116.112 -9.76367 173.92c-6.84961 58.9033 -15.9688 117.513 -23.0195 176.392c-4.06152 33.918 -7.40625 68.3486 -8.20312 102.75
c-19.7822 -61.1855 -33.6436 -124.311 -50.9365 -186.267c-21.1719 -75.8584 -48.748 -150.273 -94.4688 -215.09c-23.9336 -33.9297 -59.2803 -59.1123 -101.173 -64.1533c-40.7471 -4.9043 -77.8662 13.4902 -105.695 42.0654
c-28.5898 29.3555 -46.1797 68.54 -60.2939 106.478c-15.5215 41.7119 -25 85.5537 -33.1152 129.232c-17.1641 92.3857 -23.6807 186.828 -20.9541 280.721c0.546875 18.7949 27.0635 28.6064 41.8213 30.1934c15.7666 1.69629 35.5049 -5.80176 34.7998 -24.1152
c-3.74023 -97.3564 3.40039 -194.71 20.9102 -290.552c7.37207 -40.3535 16.3213 -80.7998 29.4385 -119.715c11.0879 -32.8945 25.3262 -66.3262 48.7881 -92.4521c20.1123 -22.3945 46.5537 -34.8193 75.5693 -21.4199c33.8154 15.6162 57.207 49.0039 74.6699 80.6152
c72.4316 131.121 81.1113 285.781 142.024 421.583c0.546875 1.21777 1.38574 2.29492 2.41406 3.24805c2.56445 11.1025 15.7354 17.3096 25.8174 19.1396c8.04785 1.46094 26.9863 0.291992 28.1699 -11.4932c7.46875 -74.3975 15.4795 -148.547 26.6016 -222.517
c10.9541 -72.8467 22.9805 -145.494 27.7471 -219.085c4.15625 -64.1357 4.77832 -130.549 -9.74121 -193.535c-14.1357 -61.3193 -44.5781 -113.539 -94.0752 -152.901c-49.1768 -39.1064 -111.91 -60.5625 -174.201 -65.0391
c-62.5469 -4.49414 -129.461 4.66113 -186.077 32.5781c-49.8428 24.5771 -89.8027 69.6797 -91.7275 127.346c-2.01465 60.3711 47.6816 104.801 101.841 120.817c55.2529 16.3398 119.061 8.07324 171.948 -13.0068c50.166 -19.9932 96.2383 -52.499 126.185 -97.8984
c10.2373 -15.5234 -22.3828 -26.5234 -32.2773 -15.3701c-36.9658 41.666 -82.4502 75.0996 -135.958 91.8242c-48.2578 15.0811 -113.935 21.3398 -154.771 -14.6992z" />
    <glyph glyph-name="Z" unicode="Z" horiz-adv-x="488" 
d="M260.56 49.4521c-34.3408 -48.4688 -67.1738 -98.5137 -91.0078 -153.125c-17.0742 -39.1211 -30.3525 -102.431 17.5186 -125.999c19.8838 -9.78809 43.0439 -11.46 64.1582 -10.6582c29.9395 1.1377 59.1904 6.10352 88.0918 13.876
c61.3047 16.4912 117.359 44.9717 175.721 69.1357c8.42383 3.4873 23.6973 6.20215 30.0312 -3.06543c6.35547 -9.29883 -2.74902 -18.1699 -10.583 -22.4062c-61.1514 -33.0596 -127.332 -61.9023 -194.582 -79.8682
c-59.1025 -15.791 -131.451 -28.4395 -190.452 -5.24707c-24.2148 9.51758 -47.5596 23.5898 -59.958 47.3799c-13.791 26.4609 -13.3779 57.3887 -5.54688 85.5869c16.4736 59.3193 51.4248 112.628 86.001 162.822c34.5693 50.1826 72.3027 98.0908 106.77 148.352
c34.3232 50.0518 66.5273 101.53 95.1611 155.062c29.2246 54.6357 60.877 111.471 66.4141 174.333c2.5127 28.541 0.551758 56.3438 -20.8564 77.5986c-20.9072 20.7568 -51.0918 27.9707 -79.5723 30.3623c-60.6094 5.08984 -124.175 -6.03711 -181.01 -27.0127
c-52.0371 -19.2031 -109.278 -47.7012 -141.138 -95.04c-3.94727 -5.8623 -10.9277 -9.47656 -18.1758 -8.46094c-4.94336 0.692383 -12.3877 5.53418 -8.42383 11.4375c35.877 53.4375 96.4619 86.0967 155.395 108.227c63.4629 23.8311 133.248 36.3096 201.11 31.2588
c54.3291 -4.04395 113.48 -29.5469 134.691 -83.4795c22.4336 -57.042 -2.84082 -124.603 -25.335 -177.603c-49.6289 -116.93 -121.368 -220.355 -194.422 -323.467z" />
    <glyph glyph-name="bracketleft" unicode="[" horiz-adv-x="232" 
d="M181.115 -101.835c1.03809 -10.6719 -8.78027 -17.4922 -16.8086 -22.1904c-26.5068 -15.5215 -63.5986 -8.41504 -87.1045 9.67285c-20.5449 15.8076 -33.5967 37.6436 -41.5957 62.0332c-15.2373 46.4521 -15.0693 98.3018 -14.3643 146.676
c0.763672 52.4678 2.80762 105.037 7.59082 157.303c4.54785 49.6797 12.3496 101.214 33.3301 146.941c4.43359 9.66113 10.4512 18.8945 17.626 26.9639c11.7295 13.207 26.585 23.2549 42.7256 26.8984c0.333008 0.0751953 0.658203 0.167969 0.991211 0.238281
c0.0605469 0.0117188 0.121094 0.0185547 0.181641 0.0302734c13.7832 2.83398 28.4609 0.972656 42.9131 -7.62207c12.0938 -7.19141 -9.1875 -19.874 -17.6699 -16.0996c0.0683594 -0.0292969 -3.93457 1.49414 -5.90039 2.5127
c-1.49219 -0.535156 -4.40918 -1.18457 -5.42773 -1.68555c-2.67871 -1.31445 -4.95117 -2.10645 -7.24512 -4.08984c-0.806641 -0.697266 -1.57422 -1.45605 -2.30566 -2.26074c-0.0507812 -0.0556641 -0.0966797 -0.121094 -0.147461 -0.179688
c-5.0332 -5.62402 -8.33594 -13.5039 -11.2041 -20.125c-8.07617 -18.6416 -11.7295 -39.3008 -14.3301 -59.3398c-5.35449 -41.2842 -6.37793 -83.5801 -6.89355 -125.166c-0.535156 -43.3242 -1.17969 -86.7715 -0.355469 -130.091
c0.726562 -38.3174 2.81641 -78.2188 13.7656 -115.175c4.79492 -16.1826 11.8457 -32.0928 22.9189 -45.0137c9.94043 -11.5986 17.0273 -13.2734 29.8584 -14.2363c9.20898 -0.69043 18.5127 -6.36816 19.4512 -15.9951z" />
    <glyph glyph-name="backslash" unicode="\" horiz-adv-x="261" 
d="M209.418 -43.4736c5.30859 -17.3906 -16.5635 -30.0361 -29.7344 -33.9932c-14.4521 -4.34082 -37.3428 -2.14648 -42.751 14.5703c-23.459 72.5332 -45.5762 145.65 -67.3193 218.716c-10.8594 36.4941 -21.9785 72.9131 -32.209 109.587
c-5.10645 18.3115 -10.5869 36.54 -15.4434 54.9199c-2.44043 9.18262 -4.63965 18.4355 -6.98242 27.6445c-2.35059 9.24609 -2.91211 18.9072 -5.59082 28.0068c-3.9541 13.4287 23.5371 19.7676 29.0518 7.78516c4.52344 -9.8291 11.2002 -19.0264 16.0566 -28.8213
c3.0498 -6.15137 6.12402 -12.3008 9.13574 -18.4766c1.06934 -2.18945 2.1582 -4.37207 3.19824 -6.57617c7.87695 -16.6855 15.2119 -33.6533 22.7129 -50.5117c15.6016 -35.0693 29.8926 -70.7197 43.9268 -106.445c27.9023 -71.0293 53.668 -143.412 75.9482 -216.405z
" />
    <glyph glyph-name="bracketright" unicode="]" horiz-adv-x="226" 
d="M193.913 261.032c7.43262 -52.4727 11.3281 -105.252 11.2236 -158.252c-0.102539 -51.0967 -1.95898 -103.165 -13.6084 -153.112c-5.70215 -24.4512 -12.8184 -49.2178 -33.9805 -64.9043c-24.3467 -18.0469 -60.5928 -22.0381 -83.2207 0.0722656
c-10.8525 10.6045 3.52344 25.8848 12.123 31.2178c8.50879 5.2793 18.3154 7.5498 27.8945 6.63574c2.90723 6.86816 4.64941 14.1084 6.3916 21.3633c5.15234 21.4512 8.39453 43.3213 10.5312 65.2666c7.70703 79.1182 5.43652 160.124 -2.19727 239.154
c-3.86426 39.9766 -7.87012 79.9727 -14.0771 119.658c-1.61914 10.1328 -3.55371 20.1348 -5.42969 30.2188c-1.28125 6.89062 -1.61133 14.4199 -4.4043 20.9463c-4.66699 10.9053 -21.5439 21.2451 -29.9121 9.05371
c-5.71191 -8.32422 -31.4023 -6.16309 -23.8779 5.22168c11.3818 17.2148 32.9258 23.7939 52.6709 18.1816c18.8926 -5.37109 37.374 -25.4102 46.8047 -42.042c25.4131 -44.8213 35.915 -98.1758 43.0684 -148.68z" />
    <glyph glyph-name="asciicircum" unicode="^" horiz-adv-x="187" 
d="M170.483 254.313c7.35449 -26.4072 -51.7559 -42.0869 -58.3984 -15.6426c-4.9043 19.5293 -9.81348 39.0586 -14.709 58.5898c-0.566406 2.25293 -1.32715 7.2959 -2.4209 13.0273c-3.90332 -7.56152 -7.63867 -15.208 -11.1602 -22.9512
c-4.60059 -10.1211 -8.9248 -20.4678 -13.6104 -30.6221c-4.92676 -10.6914 -10.2715 -21.1689 -16.7852 -30.9395c-5.23535 -7.85254 -13.4795 -11.9678 -22.9365 -11.8799c-7.35938 0.0683594 -16.0166 3.75098 -15.4336 12.3984
c0.111328 1.64062 0.256836 3.2832 0.436523 4.92578c0.0849609 0.767578 0.199219 1.53809 0.298828 2.30566c0.111328 0.875 0.208984 1.75 0.339844 2.625c0.0507812 0.333008 0.116211 0.663086 0.166992 0.996094c3.54883 22.6719 12.9092 45.2949 21.7588 65.9736
c9.85352 23.0215 21.4297 55.2861 45.4678 66.5488c14.8457 6.95605 33.6143 6.54492 46.7344 -3.90625c9.14551 -7.28711 13.9434 -18.1055 17.2637 -29.043c8.27344 -27.2656 15.3438 -54.9561 22.9873 -82.4062z" />
    <glyph glyph-name="underscore" unicode="_" horiz-adv-x="261" 
d="M215.366 -27.79c13.1123 -0.430664 24.8086 -12.2139 18.6201 -25.2822c-6.98242 -14.7461 -25.4395 -19.0459 -40.1729 -18.7031c-47.4893 1.09863 -94.5537 -3.04004 -141.723 -7.94434c-7.60059 -0.790039 -18.8008 0.994141 -23.4551 7.99414
c-0.243164 0.369141 -0.488281 0.736328 -0.733398 1.10547c-1.66504 1.62109 -2.39453 3.50684 -2.52051 5.4707c-1.68457 6.71582 2.37207 12.1797 8.55078 16.4521c10.0723 9.07812 26.5732 11.3408 40.3076 13.1543c13.0225 2.12695 26.1328 3.67969 39.2725 4.94824
c33.9229 3.27637 67.8018 3.92773 101.854 2.80469z" />
    <glyph glyph-name="grave" unicode="`" horiz-adv-x="111" 
d="M95.1338 257.989c5.72168 -23.8066 -46.8174 -37.1719 -51.6494 -13.8389c-4.10547 19.8281 -9.06836 39.4395 -14.2822 59.0029c-5.05762 18.9844 -13.2285 38.2949 -14.1885 58.0186c-0.775391 15.9072 30.1572 20.4619 38.4844 10.3125
c12.3887 -15.1055 18.5234 -36.9414 24.9258 -55.1436c6.7207 -19.1064 11.9805 -38.667 16.71 -58.3516z" />
    <glyph glyph-name="a" unicode="a" horiz-adv-x="345" 
d="M372.188 124.635c4.81738 9.67871 30.1465 10.2432 24.0752 -2.6875c-15.3125 -32.6611 -30.333 -67.4561 -53.4863 -95.499c-21.7871 -26.3906 -56.7354 -44.0898 -91.2148 -33.7725c-37.1523 11.1172 -50.0703 57.5859 -55.3008 91.5762
c-1.36328 8.86133 -2.41602 17.793 -3.25977 26.7588c-7.1875 -25.3428 -15.4053 -50.3018 -28.0488 -73.5938c-11.1484 -20.5381 -25.5781 -39.8047 -46.9131 -50.5723c-22.0957 -11.1514 -51.2646 -7.62988 -69.2549 9.66113
c-17.3711 16.6924 -26.957 42.6963 -32.6465 65.5771c-6.25879 25.1699 -7.96289 52.3213 -4.02539 78.002c8.14746 53.1113 47.9277 101.364 105.395 99.2061c23.7529 -0.891602 46.0674 -12.1279 63.2441 -28.1621c4.07324 -3.80176 7.80176 -7.77344 11.2891 -11.8711
c0.140625 2.15137 0.245117 4.3125 0.405273 6.45898c2.5791 34.6396 79.5537 46.7119 79.5928 6.3125c0.03125 -32.1846 -2.16602 -64.292 -1.45605 -96.501c0.605469 -27.4668 1.71582 -57.457 9.80957 -83.8477c1.39746 -4.5625 3.08203 -9.60547 5.92285 -13.4775
c4.29688 -5.85547 6.81445 -5.09961 13.3545 -1.27148c11.625 6.80566 20.5742 17.6504 28.3271 28.4688c17.5947 24.5479 30.7773 52.2822 44.1914 79.2344zM159.338 85.6426c7.17773 20.6426 12.7666 41.7666 18.7021 62.79
c-2.98926 2.96484 -5.85938 6.03223 -8.50098 9.2627c-7.00977 8.57031 -13.3828 17.5166 -21.248 25.374c-8.79395 8.78418 -26.8477 24.2061 -40.6211 20.1104c-10.1133 -3.00684 -17.1494 -21.8525 -20.8848 -31.6982
c-6.51172 -17.1543 -9.50391 -35.1035 -9.86133 -53.4316c-0.661133 -33.9199 5.75781 -75.6221 26.4072 -103.629c5.17676 -7.01953 9.07324 -6.66699 15.6406 -0.780273c7.16309 6.42188 12.9326 15.1475 17.959 23.2578c9.47168 15.2881 16.5107 31.7939 22.4072 48.7441
z" />
    <glyph glyph-name="a" unicode="&#xe5;" horiz-adv-x="345" 
d="M372.188 124.635c4.81738 9.67871 30.1465 10.2432 24.0752 -2.6875c-15.3125 -32.6611 -30.333 -67.4561 -53.4863 -95.499c-21.7871 -26.3906 -56.7354 -44.0898 -91.2148 -33.7725c-37.1523 11.1172 -50.0703 57.5859 -55.3008 91.5762
c-1.36328 8.86133 -2.41602 17.793 -3.25977 26.7588c-7.1875 -25.3428 -15.4053 -50.3018 -28.0488 -73.5938c-11.1484 -20.5381 -25.5781 -39.8047 -46.9131 -50.5723c-22.0957 -11.1514 -51.2646 -7.62988 -69.2549 9.66113
c-17.3711 16.6924 -26.957 42.6963 -32.6465 65.5771c-6.25879 25.1699 -7.96289 52.3213 -4.02539 78.002c8.14746 53.1113 47.9277 101.364 105.395 99.2061c23.7529 -0.891602 46.0674 -12.1279 63.2441 -28.1621c4.07324 -3.80176 7.80176 -7.77344 11.2891 -11.8711
c0.140625 2.15137 0.245117 4.3125 0.405273 6.45898c2.5791 34.6396 79.5537 46.7119 79.5928 6.3125c0.03125 -32.1846 -2.16602 -64.292 -1.45605 -96.501c0.605469 -27.4668 1.71582 -57.457 9.80957 -83.8477c1.39746 -4.5625 3.08203 -9.60547 5.92285 -13.4775
c4.29688 -5.85547 6.81445 -5.09961 13.3545 -1.27148c11.625 6.80566 20.5742 17.6504 28.3271 28.4688c17.5947 24.5479 30.7773 52.2822 44.1914 79.2344zM159.338 85.6426c7.17773 20.6426 12.7666 41.7666 18.7021 62.79
c-2.98926 2.96484 -5.85938 6.03223 -8.50098 9.2627c-7.00977 8.57031 -13.3828 17.5166 -21.248 25.374c-8.79395 8.78418 -26.8477 24.2061 -40.6211 20.1104c-10.1133 -3.00684 -17.1494 -21.8525 -20.8848 -31.6982
c-6.51172 -17.1543 -9.50391 -35.1035 -9.86133 -53.4316c-0.661133 -33.9199 5.75781 -75.6221 26.4072 -103.629c5.17676 -7.01953 9.07324 -6.66699 15.6406 -0.780273c7.16309 6.42188 12.9326 15.1475 17.959 23.2578c9.47168 15.2881 16.5107 31.7939 22.4072 48.7441
z" />
    <glyph glyph-name="a" unicode="&#xe4;" horiz-adv-x="345" 
d="M372.188 124.635c4.81738 9.67871 30.1465 10.2432 24.0752 -2.6875c-15.3125 -32.6611 -30.333 -67.4561 -53.4863 -95.499c-21.7871 -26.3906 -56.7354 -44.0898 -91.2148 -33.7725c-37.1523 11.1172 -50.0703 57.5859 -55.3008 91.5762
c-1.36328 8.86133 -2.41602 17.793 -3.25977 26.7588c-7.1875 -25.3428 -15.4053 -50.3018 -28.0488 -73.5938c-11.1484 -20.5381 -25.5781 -39.8047 -46.9131 -50.5723c-22.0957 -11.1514 -51.2646 -7.62988 -69.2549 9.66113
c-17.3711 16.6924 -26.957 42.6963 -32.6465 65.5771c-6.25879 25.1699 -7.96289 52.3213 -4.02539 78.002c8.14746 53.1113 47.9277 101.364 105.395 99.2061c23.7529 -0.891602 46.0674 -12.1279 63.2441 -28.1621c4.07324 -3.80176 7.80176 -7.77344 11.2891 -11.8711
c0.140625 2.15137 0.245117 4.3125 0.405273 6.45898c2.5791 34.6396 79.5537 46.7119 79.5928 6.3125c0.03125 -32.1846 -2.16602 -64.292 -1.45605 -96.501c0.605469 -27.4668 1.71582 -57.457 9.80957 -83.8477c1.39746 -4.5625 3.08203 -9.60547 5.92285 -13.4775
c4.29688 -5.85547 6.81445 -5.09961 13.3545 -1.27148c11.625 6.80566 20.5742 17.6504 28.3271 28.4688c17.5947 24.5479 30.7773 52.2822 44.1914 79.2344zM159.338 85.6426c7.17773 20.6426 12.7666 41.7666 18.7021 62.79
c-2.98926 2.96484 -5.85938 6.03223 -8.50098 9.2627c-7.00977 8.57031 -13.3828 17.5166 -21.248 25.374c-8.79395 8.78418 -26.8477 24.2061 -40.6211 20.1104c-10.1133 -3.00684 -17.1494 -21.8525 -20.8848 -31.6982
c-6.51172 -17.1543 -9.50391 -35.1035 -9.86133 -53.4316c-0.661133 -33.9199 5.75781 -75.6221 26.4072 -103.629c5.17676 -7.01953 9.07324 -6.66699 15.6406 -0.780273c7.16309 6.42188 12.9326 15.1475 17.959 23.2578c9.47168 15.2881 16.5107 31.7939 22.4072 48.7441
z" />
    <glyph glyph-name="a" unicode="&#xe3;" horiz-adv-x="345" 
d="M372.188 124.635c4.81738 9.67871 30.1465 10.2432 24.0752 -2.6875c-15.3125 -32.6611 -30.333 -67.4561 -53.4863 -95.499c-21.7871 -26.3906 -56.7354 -44.0898 -91.2148 -33.7725c-37.1523 11.1172 -50.0703 57.5859 -55.3008 91.5762
c-1.36328 8.86133 -2.41602 17.793 -3.25977 26.7588c-7.1875 -25.3428 -15.4053 -50.3018 -28.0488 -73.5938c-11.1484 -20.5381 -25.5781 -39.8047 -46.9131 -50.5723c-22.0957 -11.1514 -51.2646 -7.62988 -69.2549 9.66113
c-17.3711 16.6924 -26.957 42.6963 -32.6465 65.5771c-6.25879 25.1699 -7.96289 52.3213 -4.02539 78.002c8.14746 53.1113 47.9277 101.364 105.395 99.2061c23.7529 -0.891602 46.0674 -12.1279 63.2441 -28.1621c4.07324 -3.80176 7.80176 -7.77344 11.2891 -11.8711
c0.140625 2.15137 0.245117 4.3125 0.405273 6.45898c2.5791 34.6396 79.5537 46.7119 79.5928 6.3125c0.03125 -32.1846 -2.16602 -64.292 -1.45605 -96.501c0.605469 -27.4668 1.71582 -57.457 9.80957 -83.8477c1.39746 -4.5625 3.08203 -9.60547 5.92285 -13.4775
c4.29688 -5.85547 6.81445 -5.09961 13.3545 -1.27148c11.625 6.80566 20.5742 17.6504 28.3271 28.4688c17.5947 24.5479 30.7773 52.2822 44.1914 79.2344zM159.338 85.6426c7.17773 20.6426 12.7666 41.7666 18.7021 62.79
c-2.98926 2.96484 -5.85938 6.03223 -8.50098 9.2627c-7.00977 8.57031 -13.3828 17.5166 -21.248 25.374c-8.79395 8.78418 -26.8477 24.2061 -40.6211 20.1104c-10.1133 -3.00684 -17.1494 -21.8525 -20.8848 -31.6982
c-6.51172 -17.1543 -9.50391 -35.1035 -9.86133 -53.4316c-0.661133 -33.9199 5.75781 -75.6221 26.4072 -103.629c5.17676 -7.01953 9.07324 -6.66699 15.6406 -0.780273c7.16309 6.42188 12.9326 15.1475 17.959 23.2578c9.47168 15.2881 16.5107 31.7939 22.4072 48.7441
z" />
    <glyph glyph-name="a" unicode="&#xe2;" horiz-adv-x="345" 
d="M372.188 124.635c4.81738 9.67871 30.1465 10.2432 24.0752 -2.6875c-15.3125 -32.6611 -30.333 -67.4561 -53.4863 -95.499c-21.7871 -26.3906 -56.7354 -44.0898 -91.2148 -33.7725c-37.1523 11.1172 -50.0703 57.5859 -55.3008 91.5762
c-1.36328 8.86133 -2.41602 17.793 -3.25977 26.7588c-7.1875 -25.3428 -15.4053 -50.3018 -28.0488 -73.5938c-11.1484 -20.5381 -25.5781 -39.8047 -46.9131 -50.5723c-22.0957 -11.1514 -51.2646 -7.62988 -69.2549 9.66113
c-17.3711 16.6924 -26.957 42.6963 -32.6465 65.5771c-6.25879 25.1699 -7.96289 52.3213 -4.02539 78.002c8.14746 53.1113 47.9277 101.364 105.395 99.2061c23.7529 -0.891602 46.0674 -12.1279 63.2441 -28.1621c4.07324 -3.80176 7.80176 -7.77344 11.2891 -11.8711
c0.140625 2.15137 0.245117 4.3125 0.405273 6.45898c2.5791 34.6396 79.5537 46.7119 79.5928 6.3125c0.03125 -32.1846 -2.16602 -64.292 -1.45605 -96.501c0.605469 -27.4668 1.71582 -57.457 9.80957 -83.8477c1.39746 -4.5625 3.08203 -9.60547 5.92285 -13.4775
c4.29688 -5.85547 6.81445 -5.09961 13.3545 -1.27148c11.625 6.80566 20.5742 17.6504 28.3271 28.4688c17.5947 24.5479 30.7773 52.2822 44.1914 79.2344zM159.338 85.6426c7.17773 20.6426 12.7666 41.7666 18.7021 62.79
c-2.98926 2.96484 -5.85938 6.03223 -8.50098 9.2627c-7.00977 8.57031 -13.3828 17.5166 -21.248 25.374c-8.79395 8.78418 -26.8477 24.2061 -40.6211 20.1104c-10.1133 -3.00684 -17.1494 -21.8525 -20.8848 -31.6982
c-6.51172 -17.1543 -9.50391 -35.1035 -9.86133 -53.4316c-0.661133 -33.9199 5.75781 -75.6221 26.4072 -103.629c5.17676 -7.01953 9.07324 -6.66699 15.6406 -0.780273c7.16309 6.42188 12.9326 15.1475 17.959 23.2578c9.47168 15.2881 16.5107 31.7939 22.4072 48.7441
z" />
    <glyph glyph-name="a" unicode="&#xe1;" horiz-adv-x="345" 
d="M372.188 124.635c4.81738 9.67871 30.1465 10.2432 24.0752 -2.6875c-15.3125 -32.6611 -30.333 -67.4561 -53.4863 -95.499c-21.7871 -26.3906 -56.7354 -44.0898 -91.2148 -33.7725c-37.1523 11.1172 -50.0703 57.5859 -55.3008 91.5762
c-1.36328 8.86133 -2.41602 17.793 -3.25977 26.7588c-7.1875 -25.3428 -15.4053 -50.3018 -28.0488 -73.5938c-11.1484 -20.5381 -25.5781 -39.8047 -46.9131 -50.5723c-22.0957 -11.1514 -51.2646 -7.62988 -69.2549 9.66113
c-17.3711 16.6924 -26.957 42.6963 -32.6465 65.5771c-6.25879 25.1699 -7.96289 52.3213 -4.02539 78.002c8.14746 53.1113 47.9277 101.364 105.395 99.2061c23.7529 -0.891602 46.0674 -12.1279 63.2441 -28.1621c4.07324 -3.80176 7.80176 -7.77344 11.2891 -11.8711
c0.140625 2.15137 0.245117 4.3125 0.405273 6.45898c2.5791 34.6396 79.5537 46.7119 79.5928 6.3125c0.03125 -32.1846 -2.16602 -64.292 -1.45605 -96.501c0.605469 -27.4668 1.71582 -57.457 9.80957 -83.8477c1.39746 -4.5625 3.08203 -9.60547 5.92285 -13.4775
c4.29688 -5.85547 6.81445 -5.09961 13.3545 -1.27148c11.625 6.80566 20.5742 17.6504 28.3271 28.4688c17.5947 24.5479 30.7773 52.2822 44.1914 79.2344zM159.338 85.6426c7.17773 20.6426 12.7666 41.7666 18.7021 62.79
c-2.98926 2.96484 -5.85938 6.03223 -8.50098 9.2627c-7.00977 8.57031 -13.3828 17.5166 -21.248 25.374c-8.79395 8.78418 -26.8477 24.2061 -40.6211 20.1104c-10.1133 -3.00684 -17.1494 -21.8525 -20.8848 -31.6982
c-6.51172 -17.1543 -9.50391 -35.1035 -9.86133 -53.4316c-0.661133 -33.9199 5.75781 -75.6221 26.4072 -103.629c5.17676 -7.01953 9.07324 -6.66699 15.6406 -0.780273c7.16309 6.42188 12.9326 15.1475 17.959 23.2578c9.47168 15.2881 16.5107 31.7939 22.4072 48.7441
z" />
    <glyph glyph-name="b" unicode="b" horiz-adv-x="414" 
d="M384.666 211.261c19.0645 -56.4561 20.335 -120.188 8.54492 -178.22c-24.8789 -122.515 -114.687 -228.176 -233.791 -267.718c-60.335 -20.0322 -138.794 -17.3369 -181.724 36.0225c-17.2275 21.4102 -22.623 54.6426 -20.1104 81.3193
c2.78027 29.4873 14.9668 57.2168 31.9775 81.1914c15.3994 21.7021 36.2578 39.7607 59.8994 52.7881c-7.07324 24.0908 -12.834 48.5996 -18.0547 73.0459c-18.2871 85.6338 -24.6455 174.836 -26.0137 262.247c-1.37305 87.7217 2.2998 175.471 10.6758 262.784
c3.0918 32.2119 76.1865 43.4434 74.2471 5.88965c-2.52734 -48.9531 -5.2666 -97.9424 -6.95605 -146.932c-2.95508 -85.79 -2.41016 -172.104 5.74902 -257.609c3.94434 -41.3232 9.72852 -82.5371 16.7676 -123.45c5.23047 28.0361 12.8594 55.5615 23.2451 81.9785
c22.1465 56.334 64.9863 122.634 129.793 132.944c60.2695 9.58789 108.09 -43.9854 125.75 -96.2822zM342.049 84.6367c6.69824 49.6895 7.43066 106.022 -11.1211 153.439c-8.93945 22.8398 -26.957 41.5156 -51.3516 47.4971
c-23.0166 5.64355 -44.5801 -6.05664 -61.4717 -20.8564c-38.293 -33.5479 -60.8965 -84.4473 -73.958 -132.661c-8.21484 -30.3252 -13.46 -61.4043 -16.041 -92.709c48.4912 2.21191 101.498 -18.8975 120.378 -66.4531
c4.8584 -12.2402 -23.625 -20.2734 -28.7607 -7.70801c-15.1592 37.0947 -54.8203 53.2305 -92.9863 52.3115c-0.333008 -7.77051 -0.510742 -15.543 -0.525391 -23.3184c2.25586 -10.2881 4.47754 -20.584 6.58984 -30.9043
c5.64844 -27.6006 -47.0762 -39.7578 -58.1035 -15.5693c-6.90723 15.1465 -12.8789 30.6973 -18.1748 46.4932c-29.6348 -20.3701 -51.5771 -52.1924 -56.3672 -87.9912c-3.41504 -25.5176 2.31152 -50.7051 21.0312 -68.9873
c15.4434 -15.084 34.1846 -26.0068 55.4492 -30.4473c19.6191 -4.09766 43.5039 -0.770508 63.5527 5.06738c18.9482 5.51465 41.4229 16.5195 57.6729 27.3867c80.6396 53.9326 131.162 148.808 144.188 245.41z" />
    <glyph glyph-name="c" unicode="c" horiz-adv-x="313" 
d="M287.46 53.0469c2.95508 9.19727 28.0957 10.626 24.8076 -0.335938c-11.2773 -37.5752 -26.5723 -73.6631 -46.7119 -107.377c-18.8145 -31.4971 -40.2656 -61.8662 -73.1455 -79.8184c-29.9531 -16.3525 -65.2559 -19.9492 -96.7969 -5.53125
c-32.0215 14.6387 -52.7559 42.0742 -66.9043 73.4277c-14.0508 31.1445 -18.2949 66.749 -19.5078 100.602c-1.34375 37.5566 4.12988 75.5332 14.8164 111.502c18.8799 63.543 61.5088 127.567 130.934 141.742c31.5527 6.44336 63.6768 -8.75977 79.8105 -36.4209
c18.0781 -30.999 15.1758 -66.5186 11.6543 -100.794c-1.41016 -13.7158 -32.8438 -18.2686 -31.4805 -2.49707c2.65625 30.7041 5.70215 67.1719 -17.2295 91.3574c-5.82812 6.14941 -15.5693 14 -24.6104 12.2207c-9.57617 -1.88379 -21.376 -12.5371 -25.9697 -17.0576
c-33.9326 -33.3828 -51.4326 -83.2471 -59.2441 -130.574c-8.81055 -53.3789 -7.53223 -112.049 12.0889 -163.061c8.16602 -21.2305 22.9365 -45.5068 43.46 -56.7432c23.5928 -12.918 47.5771 4.04004 63.5654 21.1338c38.0518 40.6797 63.5791 95.709 80.4639 148.225z
" />
    <glyph glyph-name="d" unicode="d" horiz-adv-x="331" 
d="M408.984 -130.655c4.86816 -3.81055 2.93359 -9.42578 -1.42871 -12.7803c-17.7061 -13.6279 -41.2578 -14.1113 -62.4131 -9.83398c-24.2568 4.9043 -42.1045 23.6455 -54.4443 44.1543c-24.8564 41.3135 -39.7578 90.4434 -49.4629 137.396
c-9.72168 47.0303 -14.9785 94.4883 -17.9287 142.362c-2.15625 -19.3418 -4.66895 -38.6445 -7.7627 -57.8623c-5.42773 -33.7061 -10.8213 -69.7988 -26.0508 -100.705c-14.999 -30.4443 -38.8545 -47.2754 -72.8818 -49.123
c-33.1934 -1.80371 -66.3281 14.0674 -86.0176 40.8203c-20.0156 27.1904 -24.5752 64.5693 -21.8945 97.3906c2.58594 31.6406 14.7461 65.583 37.3721 88.5127c26.6602 27.0195 62.0361 41.0605 99.5488 44.75c18.6465 1.83301 37.0527 0.651367 54.9072 -3.13086
c1.82031 20.2295 3.49512 40.4688 5.25195 60.6807c5.18945 59.6885 10.3789 119.374 15.5684 179.062c0.0361328 4.84668 0.0703125 9.69531 0.0898438 14.5439c0.078125 19.0889 27.9873 29.2021 42.6309 30.7773c16.9453 1.82031 35.0254 -6.02734 35.4746 -24.584
c1.27637 -52.6738 0.228516 -105.309 -0.481445 -157.982c-1.19336 -88.6816 -0.21875 -177.614 12.2109 -265.594c6.06152 -42.9082 14.5996 -85.3955 25.082 -127.431c4.50879 -18.0781 8.41992 -37.668 17.8213 -53.9668
c7.36719 -12.7725 20.9561 -29.9297 36.7305 -19.0508c4.62305 3.18848 13.0908 5.5 18.0781 1.59375zM184.386 101.27c5.58008 31.5234 9.5459 63.2822 12.8125 95.124c-22.0762 3.92285 -45.1562 5.37402 -65.1475 -2.70996
c-22.3174 -9.02441 -35.4688 -29.6084 -44.2529 -51.0596c-17.7764 -43.4141 -16.5713 -106.603 16.1533 -142.899c7.38867 -8.19336 19.3857 -16.457 30.8379 -13.1562c12.1035 3.48535 19.8516 16.3594 25.2744 26.8135c13.9727 26.9326 19.082 58.2959 24.3223 87.8877z
" />
    <glyph glyph-name="e" unicode="e" horiz-adv-x="319" 
d="M290.998 67.9941c1.3877 11.1338 27.0146 14.6992 25.5391 2.0293c-5.38574 -46.2891 -21.5146 -90.8545 -47.623 -129.502c-22.7861 -33.7305 -56.3779 -65.1299 -97.8936 -71.7969c-94.5244 -15.1787 -154.208 77.8193 -160.116 160.775
c-5.74121 80.6396 15.1855 172.398 81.8174 224.171c34.9531 27.1562 86.1543 44.8018 128.764 25.5596c35.2783 -15.9316 55.9424 -53.3955 44.2734 -91.7686c-10.6504 -35.0312 -44.1357 -56.8936 -78.1729 -65.4248
c-30.8066 -7.72168 -62.6143 -5.94043 -92.0547 4.40137c-9.54688 -39.7148 -10.5996 -81.8936 -2.2627 -121.316c9.48828 -44.8672 48.7725 -130.438 108.546 -102.062c26.6748 12.665 45.3584 42.6943 58.7266 67.7744c16.165 30.3281 26.2129 63.0889 30.457 97.1602z
M114.22 179.622c-4.37207 -9.19922 -8.18945 -18.7305 -11.5098 -28.4717c29.3242 -13.7324 65.6748 -17.1768 95.2275 -2.8418c28.7363 13.9395 46.0439 47.1162 24.6211 75.5312c-8.14258 10.7988 -20.9316 19.9668 -34.6592 21.3057
c-6.09082 0.595703 -9.94531 -0.186523 -15.7197 -1.96777c-3.16895 -0.977539 -7.39551 -2.86133 -9.12402 -3.85547c-21.9111 -12.6045 -37.8867 -36.6689 -48.8359 -59.7002z" />
    <glyph glyph-name="e" unicode="&#xeb;" horiz-adv-x="319" 
d="M290.998 67.9941c1.3877 11.1338 27.0146 14.6992 25.5391 2.0293c-5.38574 -46.2891 -21.5146 -90.8545 -47.623 -129.502c-22.7861 -33.7305 -56.3779 -65.1299 -97.8936 -71.7969c-94.5244 -15.1787 -154.208 77.8193 -160.116 160.775
c-5.74121 80.6396 15.1855 172.398 81.8174 224.171c34.9531 27.1562 86.1543 44.8018 128.764 25.5596c35.2783 -15.9316 55.9424 -53.3955 44.2734 -91.7686c-10.6504 -35.0312 -44.1357 -56.8936 -78.1729 -65.4248
c-30.8066 -7.72168 -62.6143 -5.94043 -92.0547 4.40137c-9.54688 -39.7148 -10.5996 -81.8936 -2.2627 -121.316c9.48828 -44.8672 48.7725 -130.438 108.546 -102.062c26.6748 12.665 45.3584 42.6943 58.7266 67.7744c16.165 30.3281 26.2129 63.0889 30.457 97.1602z
M114.22 179.622c-4.37207 -9.19922 -8.18945 -18.7305 -11.5098 -28.4717c29.3242 -13.7324 65.6748 -17.1768 95.2275 -2.8418c28.7363 13.9395 46.0439 47.1162 24.6211 75.5312c-8.14258 10.7988 -20.9316 19.9668 -34.6592 21.3057
c-6.09082 0.595703 -9.94531 -0.186523 -15.7197 -1.96777c-3.16895 -0.977539 -7.39551 -2.86133 -9.12402 -3.85547c-21.9111 -12.6045 -37.8867 -36.6689 -48.8359 -59.7002z" />
    <glyph glyph-name="e" unicode="&#xea;" horiz-adv-x="319" 
d="M290.998 67.9941c1.3877 11.1338 27.0146 14.6992 25.5391 2.0293c-5.38574 -46.2891 -21.5146 -90.8545 -47.623 -129.502c-22.7861 -33.7305 -56.3779 -65.1299 -97.8936 -71.7969c-94.5244 -15.1787 -154.208 77.8193 -160.116 160.775
c-5.74121 80.6396 15.1855 172.398 81.8174 224.171c34.9531 27.1562 86.1543 44.8018 128.764 25.5596c35.2783 -15.9316 55.9424 -53.3955 44.2734 -91.7686c-10.6504 -35.0312 -44.1357 -56.8936 -78.1729 -65.4248
c-30.8066 -7.72168 -62.6143 -5.94043 -92.0547 4.40137c-9.54688 -39.7148 -10.5996 -81.8936 -2.2627 -121.316c9.48828 -44.8672 48.7725 -130.438 108.546 -102.062c26.6748 12.665 45.3584 42.6943 58.7266 67.7744c16.165 30.3281 26.2129 63.0889 30.457 97.1602z
M114.22 179.622c-4.37207 -9.19922 -8.18945 -18.7305 -11.5098 -28.4717c29.3242 -13.7324 65.6748 -17.1768 95.2275 -2.8418c28.7363 13.9395 46.0439 47.1162 24.6211 75.5312c-8.14258 10.7988 -20.9316 19.9668 -34.6592 21.3057
c-6.09082 0.595703 -9.94531 -0.186523 -15.7197 -1.96777c-3.16895 -0.977539 -7.39551 -2.86133 -9.12402 -3.85547c-21.9111 -12.6045 -37.8867 -36.6689 -48.8359 -59.7002z" />
    <glyph glyph-name="e" unicode="&#xe9;" horiz-adv-x="319" 
d="M290.998 67.9941c1.3877 11.1338 27.0146 14.6992 25.5391 2.0293c-5.38574 -46.2891 -21.5146 -90.8545 -47.623 -129.502c-22.7861 -33.7305 -56.3779 -65.1299 -97.8936 -71.7969c-94.5244 -15.1787 -154.208 77.8193 -160.116 160.775
c-5.74121 80.6396 15.1855 172.398 81.8174 224.171c34.9531 27.1562 86.1543 44.8018 128.764 25.5596c35.2783 -15.9316 55.9424 -53.3955 44.2734 -91.7686c-10.6504 -35.0312 -44.1357 -56.8936 -78.1729 -65.4248
c-30.8066 -7.72168 -62.6143 -5.94043 -92.0547 4.40137c-9.54688 -39.7148 -10.5996 -81.8936 -2.2627 -121.316c9.48828 -44.8672 48.7725 -130.438 108.546 -102.062c26.6748 12.665 45.3584 42.6943 58.7266 67.7744c16.165 30.3281 26.2129 63.0889 30.457 97.1602z
M114.22 179.622c-4.37207 -9.19922 -8.18945 -18.7305 -11.5098 -28.4717c29.3242 -13.7324 65.6748 -17.1768 95.2275 -2.8418c28.7363 13.9395 46.0439 47.1162 24.6211 75.5312c-8.14258 10.7988 -20.9316 19.9668 -34.6592 21.3057
c-6.09082 0.595703 -9.94531 -0.186523 -15.7197 -1.96777c-3.16895 -0.977539 -7.39551 -2.86133 -9.12402 -3.85547c-21.9111 -12.6045 -37.8867 -36.6689 -48.8359 -59.7002z" />
    <glyph glyph-name="f" unicode="f" horiz-adv-x="131" 
d="M149.753 329.099c6.60156 -12.208 -18.2061 -21.7432 -24.7539 -11.79c-3.53613 5.38086 -8.03223 9.32031 -14.5117 10.5869c-2.08984 0.408203 -3.99023 0.543945 -6.02246 0.210938c-0.541992 -0.540039 -1.01855 -1.13574 -1.35645 -1.8457
c-5.63867 -15.0205 -8.12012 -30.2041 -9.26758 -46.3525c-2.61035 -36.7734 0.107422 -74.3486 2.02539 -111.103c0.0117188 -0.220703 0.0214844 -0.441406 0.0332031 -0.665039c5.95996 1.01367 11.9102 2 17.8457 2.88672
c5.7793 0.868164 13.9268 -2.34277 13.3535 -9.25293c-0.617188 -7.42285 -9.96289 -10.6748 -16.0488 -11.5859c-4.70508 -0.705078 -9.4248 -1.45605 -14.1523 -2.22363c3.3418 -69.2666 5.60449 -138.371 12.123 -207.514
c1.62891 -17.2637 -12.9541 -28.4443 -28.5312 -32.6172c-11.5859 -3.10352 -39.0508 -2.94043 -41.0166 13.9834c-5.53418 47.6406 -6.71582 95.8252 -6.92969 143.747c-0.109375 24.3418 -0.208984 48.7002 0.135742 73.0469
c-5.72363 -0.561523 -11.4453 -1.04004 -17.1592 -1.30957c-18.5254 -0.875 -12.5 18.2217 2.50391 19.3662c5.01367 0.381836 10.0303 0.914062 15.0488 1.50195c0.388672 15.2559 0.984375 30.5049 1.94434 45.7373c1.42676 22.6523 3.79199 45.293 8.34961 67.5518
c4.35059 21.25 10.7676 44.5098 26.3691 60.415c20.543 20.9385 63.9443 26.9492 80.0176 -2.77539z" />
    <glyph glyph-name="g" unicode="g" horiz-adv-x="273" 
d="M257.021 106.596c4.15625 -37.333 5.65723 -74.7441 4.14551 -112.283c-2.53516 -62.8799 -11.5107 -129.18 -58.3105 -175.68c-40.6016 -40.3389 -115.276 -63.7275 -161.271 -18.6611c-38.3877 37.6123 -30.5713 98.1777 6.35254 133.575
c19.5879 18.7783 47.7432 33.1182 75.5312 30.5391c24.543 -2.27734 48.7285 -22.0254 43.2598 -48.7852c-2.53516 -12.3955 -31.5361 -16.1357 -28.8096 -2.28418c2.41602 12.2695 -4.52344 24.3154 -16.3281 28.8115
c-11.9561 4.55273 -25.7197 -0.702148 -35.998 -6.95605c-18.9697 -11.54 -33.4512 -31.5938 -37.459 -53.5361c-6.79297 -37.1797 25.6904 -89.1777 68.5352 -74.167c36.4434 12.7676 56.8037 55.666 65.6191 90.3105c12.6172 49.5898 14.5518 101.165 14.9678 152.094
c0.158203 19.4219 -0.478516 38.7637 -1.71289 58.1055c-5.4834 -18.7197 -12.1816 -37.041 -20.7979 -54.6309c-9.41602 -19.2178 -21.2158 -38.9053 -37.9033 -52.7441c-18.8682 -15.6455 -45.4404 -20.2246 -68.5742 -12.1406
c-46.5127 16.2529 -62.0703 76.4199 -58.8623 120.643c3.4248 47.2275 32.2334 97.998 80.2432 111.242c36.0254 9.93848 70.1006 2.41113 98.8945 -17.5137c0.102539 1.50195 0.22168 2.99902 0.376953 4.48633c1.53125 14.7412 32.4639 24.7158 40.749 10.918
c10.2568 -17.0791 14.4492 -37.2891 18.7217 -56.5625c4.00781 -18.0801 6.58398 -36.3818 8.63086 -54.7803zM153.933 69.3477c14.2334 32.3818 22.4707 66.8223 29.3535 101.442c-15.4893 14.1504 -34.5469 26.998 -56.375 26.8936
c-17.9297 -0.0849609 -26.7598 -13.3604 -33.6523 -28.8838c-16.9961 -38.2754 -20.584 -77.7715 -6.83203 -117.624c3.7334 -10.8203 14.3623 -36.3184 28.916 -34.9648c10.6357 0.989258 18.4736 15.3047 23.2715 23.2715c5.77441 9.58594 10.8174 19.626 15.3184 29.8652
z" />
    <glyph glyph-name="h" unicode="h" horiz-adv-x="300" 
d="M305.353 -140.825c11.8945 -15.7129 -17.3984 -28.1465 -29.167 -26.4941c-58.1113 8.14258 -59.3896 76.6289 -60.9893 122.689c-1.64746 47.3926 2.19727 94.9258 5.4375 142.18c1.63574 23.8672 2.80469 47.7539 3.75293 71.6504
c0.25293 6.37305 0.527344 12.542 0.352539 18.9316c-0.0878906 3.16406 1.02539 10.3945 -1.13574 12.835c-0.458984 0.517578 -0.424805 0.953125 -0.220703 1.2832c-0.605469 -0.28418 -1.49707 -0.65625 -2.83887 -1.13965
c-1.75684 -0.636719 -4.8877 -3.66992 -6.0127 -4.7002c-3.23535 -2.96289 -6.08887 -6.45996 -8.79395 -9.88965c-26.2227 -33.2178 -44.3789 -74.0234 -59.5234 -113.254c-15.8418 -41.0371 -27.917 -83.4053 -41.0664 -125.349
c-0.104492 -0.333008 -0.240234 -0.65625 -0.395508 -0.972656c-2.80762 -10.291 -18.1416 -16.5811 -26.8018 -18.1533c-11.168 -2.0293 -24.8154 0.259766 -29.3945 11.9922c-18.3213 46.9326 -24.3174 100.209 -28.6992 150.093
c-4.38965 49.9766 -6.24219 100.383 -3.71973 150.517c2.23828 44.4609 6.86328 89.4111 16.6484 132.886c9.34082 41.4961 21.2354 84.0928 44.0117 120.38c21.1816 33.7432 48.6631 69.4355 86.8145 84.7305c34.4043 13.793 76.3818 9.72656 98.2568 -23.1514
c21.0283 -31.6064 21.585 -74.4053 13.5059 -110.23c-9.0127 -39.9619 -27.9902 -77.0225 -48.501 -112.178c-39.1582 -67.1182 -87.5449 -128.183 -138.299 -186.846c0.870117 -24.8271 2.59082 -49.6133 5.06543 -74.3604
c1.60645 -16.0752 3.58984 -32.2109 5.47363 -48.3691c8.34668 26.335 17.6797 52.3467 28.585 77.7158c9.43555 21.9521 20.1465 43.3721 32.6025 63.7734c10.833 17.7451 22.5166 36.9756 39.9746 48.9844c18.8682 12.9785 38.6797 13.5713 55.9219 -1.75293
c18.7031 -16.6221 22.0479 -42.0449 25.4727 -65.5068c7.62012 -52.2051 3.85742 -106.019 4.62109 -158.607c0.37207 -25.6396 2.63477 -50.9189 5.87012 -76.3418c2.13672 -16.8096 2.54785 -39.2842 13.1914 -53.3447zM87.9453 191.486
c-0.0244141 -3.15234 -0.00585938 -6.30469 0.000976562 -9.45508c44.2793 52.0859 85.9648 106.488 119.873 165.95c18.9482 33.2275 36.46 68.4336 42.9395 106.476c5.5752 32.7217 3.93945 75.7051 -22.9658 99.5244c-29.373 26.002 -61.9443 -2.15527 -76.7148 -28.9082
c-16.8584 -30.5371 -27.127 -65.3418 -35.6309 -99.0166c-19.2109 -76.0703 -26.9258 -156.26 -27.502 -234.57z" />
    <glyph glyph-name="i" unicode="i" horiz-adv-x="113" 
d="M95.9688 -0.516602c0.881836 -14.1943 1.5918 -28.3467 2.0293 -42.5654c0.461914 -15.084 1.30566 -30.7246 -5.22754 -44.6777c-6.55957 -14.0117 -30.0234 -17.8203 -40.623 -7.16016c-10.8496 10.9102 -14.2764 28.6768 -17.5938 43.2383
c-3.31738 14.5732 -5.76465 29.1611 -7.80859 43.9629c-4.07812 29.5381 -6.43066 59.1807 -8.16406 88.9424c-3.49023 59.9941 -3.11816 120.032 3.18457 179.817c3.35938 31.8594 75.4844 43.166 73.6514 5.84082c-2.90234 -59.0859 -4.91992 -118.311 -3.51953 -177.472
c0.709961 -29.9775 2.20996 -59.9971 4.07129 -89.9268zM113.201 422.234c1.63281 -17.6016 -3.25 -36.5059 -8.20801 -53.2109c-6.0498 -20.377 -14.1777 -37.5771 -27.1885 -54.4277c-7.7627 -10.0527 -42.6846 -10.6338 -33.0596 7.23047
c0.672852 1.24902 1.35352 2.49805 2.03418 3.74707c-9.04395 1.28613 -18.0469 4.38477 -26.1475 7.66602c-14.7529 5.97656 -30.291 16.1094 -35.3584 32.1162c-10.9102 34.4619 19.4053 69.6123 48.3818 83.1211c28.2988 13.1953 75.791 14.2305 79.5459 -26.2422z
M78.4014 391.836c5.07031 16.2891 4.63281 48.9922 -21.1553 38.9395c-17.9521 -6.99707 -33.7646 -27.4717 -36.1055 -46.4736c-1.30957 -10.6338 1.02637 -21.3379 9.94434 -27.9072c3.92969 -2.89453 17.5312 -10.3027 26.1182 -11.8027
c8.25391 15.2422 16.0801 30.7949 21.1982 47.2441z" />
    <glyph glyph-name="i" unicode="&#xef;" horiz-adv-x="113" 
d="M95.9688 -0.516602c0.881836 -14.1943 1.5918 -28.3467 2.0293 -42.5654c0.461914 -15.084 1.30566 -30.7246 -5.22754 -44.6777c-6.55957 -14.0117 -30.0234 -17.8203 -40.623 -7.16016c-10.8496 10.9102 -14.2764 28.6768 -17.5938 43.2383
c-3.31738 14.5732 -5.76465 29.1611 -7.80859 43.9629c-4.07812 29.5381 -6.43066 59.1807 -8.16406 88.9424c-3.49023 59.9941 -3.11816 120.032 3.18457 179.817c3.35938 31.8594 75.4844 43.166 73.6514 5.84082c-2.90234 -59.0859 -4.91992 -118.311 -3.51953 -177.472
c0.709961 -29.9775 2.20996 -59.9971 4.07129 -89.9268zM113.201 422.234c1.63281 -17.6016 -3.25 -36.5059 -8.20801 -53.2109c-6.0498 -20.377 -14.1777 -37.5771 -27.1885 -54.4277c-7.7627 -10.0527 -42.6846 -10.6338 -33.0596 7.23047
c0.672852 1.24902 1.35352 2.49805 2.03418 3.74707c-9.04395 1.28613 -18.0469 4.38477 -26.1475 7.66602c-14.7529 5.97656 -30.291 16.1094 -35.3584 32.1162c-10.9102 34.4619 19.4053 69.6123 48.3818 83.1211c28.2988 13.1953 75.791 14.2305 79.5459 -26.2422z
M78.4014 391.836c5.07031 16.2891 4.63281 48.9922 -21.1553 38.9395c-17.9521 -6.99707 -33.7646 -27.4717 -36.1055 -46.4736c-1.30957 -10.6338 1.02637 -21.3379 9.94434 -27.9072c3.92969 -2.89453 17.5312 -10.3027 26.1182 -11.8027
c8.25391 15.2422 16.0801 30.7949 21.1982 47.2441z" />
    <glyph glyph-name="i" unicode="&#xee;" horiz-adv-x="113" 
d="M95.9688 -0.516602c0.881836 -14.1943 1.5918 -28.3467 2.0293 -42.5654c0.461914 -15.084 1.30566 -30.7246 -5.22754 -44.6777c-6.55957 -14.0117 -30.0234 -17.8203 -40.623 -7.16016c-10.8496 10.9102 -14.2764 28.6768 -17.5938 43.2383
c-3.31738 14.5732 -5.76465 29.1611 -7.80859 43.9629c-4.07812 29.5381 -6.43066 59.1807 -8.16406 88.9424c-3.49023 59.9941 -3.11816 120.032 3.18457 179.817c3.35938 31.8594 75.4844 43.166 73.6514 5.84082c-2.90234 -59.0859 -4.91992 -118.311 -3.51953 -177.472
c0.709961 -29.9775 2.20996 -59.9971 4.07129 -89.9268zM113.201 422.234c1.63281 -17.6016 -3.25 -36.5059 -8.20801 -53.2109c-6.0498 -20.377 -14.1777 -37.5771 -27.1885 -54.4277c-7.7627 -10.0527 -42.6846 -10.6338 -33.0596 7.23047
c0.672852 1.24902 1.35352 2.49805 2.03418 3.74707c-9.04395 1.28613 -18.0469 4.38477 -26.1475 7.66602c-14.7529 5.97656 -30.291 16.1094 -35.3584 32.1162c-10.9102 34.4619 19.4053 69.6123 48.3818 83.1211c28.2988 13.1953 75.791 14.2305 79.5459 -26.2422z
M78.4014 391.836c5.07031 16.2891 4.63281 48.9922 -21.1553 38.9395c-17.9521 -6.99707 -33.7646 -27.4717 -36.1055 -46.4736c-1.30957 -10.6338 1.02637 -21.3379 9.94434 -27.9072c3.92969 -2.89453 17.5312 -10.3027 26.1182 -11.8027
c8.25391 15.2422 16.0801 30.7949 21.1982 47.2441z" />
    <glyph glyph-name="i" unicode="&#xed;" horiz-adv-x="113" 
d="M95.9688 -0.516602c0.881836 -14.1943 1.5918 -28.3467 2.0293 -42.5654c0.461914 -15.084 1.30566 -30.7246 -5.22754 -44.6777c-6.55957 -14.0117 -30.0234 -17.8203 -40.623 -7.16016c-10.8496 10.9102 -14.2764 28.6768 -17.5938 43.2383
c-3.31738 14.5732 -5.76465 29.1611 -7.80859 43.9629c-4.07812 29.5381 -6.43066 59.1807 -8.16406 88.9424c-3.49023 59.9941 -3.11816 120.032 3.18457 179.817c3.35938 31.8594 75.4844 43.166 73.6514 5.84082c-2.90234 -59.0859 -4.91992 -118.311 -3.51953 -177.472
c0.709961 -29.9775 2.20996 -59.9971 4.07129 -89.9268zM113.201 422.234c1.63281 -17.6016 -3.25 -36.5059 -8.20801 -53.2109c-6.0498 -20.377 -14.1777 -37.5771 -27.1885 -54.4277c-7.7627 -10.0527 -42.6846 -10.6338 -33.0596 7.23047
c0.672852 1.24902 1.35352 2.49805 2.03418 3.74707c-9.04395 1.28613 -18.0469 4.38477 -26.1475 7.66602c-14.7529 5.97656 -30.291 16.1094 -35.3584 32.1162c-10.9102 34.4619 19.4053 69.6123 48.3818 83.1211c28.2988 13.1953 75.791 14.2305 79.5459 -26.2422z
M78.4014 391.836c5.07031 16.2891 4.63281 48.9922 -21.1553 38.9395c-17.9521 -6.99707 -33.7646 -27.4717 -36.1055 -46.4736c-1.30957 -10.6338 1.02637 -21.3379 9.94434 -27.9072c3.92969 -2.89453 17.5312 -10.3027 26.1182 -11.8027
c8.25391 15.2422 16.0801 30.7949 21.1982 47.2441z" />
    <glyph glyph-name="j" unicode="j" horiz-adv-x="117" 
d="M-12.1094 381.846c-14.7529 5.97656 -30.29 16.1104 -35.3574 32.1172c-10.9102 34.4619 19.4053 69.6123 48.3818 83.1211c28.2988 13.1953 75.791 14.2305 79.5459 -26.2422c1.63281 -17.6016 -3.24805 -36.5059 -8.20898 -53.2109
c-6.0498 -20.377 -14.1777 -37.5781 -27.1885 -54.4287c-7.7627 -10.0527 -42.6846 -10.6338 -33.0596 7.23047c0.672852 1.24902 1.35352 2.49805 2.03418 3.74707c-9.04395 1.28613 -18.0469 4.38477 -26.1475 7.66602zM-11.6006 432.909
c-1.30957 -10.6338 1.02539 -21.3369 9.94531 -27.9062c3.92969 -2.89453 17.5312 -10.3027 26.1182 -11.8027c8.25391 15.2422 16.0801 30.7949 21.1992 47.2441c5.07031 16.2891 4.63281 48.9912 -21.1572 38.9385c-17.9521 -6.99707 -33.7646 -27.4717 -36.1055 -46.4736
zM101.322 87.666c2.1875 -34.6055 3.15234 -69.2783 2.17773 -103.947c-0.911133 -32.335 -2.49609 -65.0225 -10.0137 -96.5947c-14.415 -60.541 -55.2402 -116.491 -118.078 -132.537c-52.7051 -13.46 -117.526 9.02246 -121.235 70.2783
c-3.43945 56.8154 45.5742 98.0146 97.6816 107.552c5.07227 0.928711 13.8096 1.28809 15.5762 -5.30859c1.64062 -6.12695 -5.70215 -11.2529 -10.835 -12.3857c-24.6016 -5.4375 -47.4482 -19.3086 -58.7549 -42.5957
c-9.97754 -20.5479 -7.9873 -47.0918 6.05176 -65.3203c11.6348 -15.1055 31.0205 -22.46 49.541 -18.5664c15.4238 3.24219 28.5752 14.8848 38.3506 28.8994c27.9385 40.0498 31.5283 94.0459 34.4785 141.613c3.52441 56.8135 1.80566 113.867 -2.64746 170.578
c-2.2334 28.4561 -5.25977 56.8447 -8.83984 85.1602c-3.72852 29.4727 -8.23438 59.4043 -4.99902 89.083c1.1084 10.1865 12.5801 16.9873 21.498 19.377c7.45215 1.99512 23.9385 2.69531 28.3057 -6.03027c17.8477 -35.6631 23.1172 -75.2441 28.9678 -114.346
c5.70215 -38.127 10.3418 -76.4268 12.7744 -114.909z" />
    <glyph glyph-name="k" unicode="k" horiz-adv-x="254" 
d="M254.447 15.9893c1.14746 -11.7656 -12.3691 -19.8721 -22.0742 -22.5381c-35.0283 -9.62988 -73.8584 -9.89258 -109.896 -6.82324c-3.01367 0.257812 -6.08301 0.644531 -9.16504 1.15527c3.44629 -31.6748 5.90137 -63.4346 3.14062 -95.0508
c-1.85254 -21.1992 -41.2773 -27.3506 -49.8936 -8.63574c-5.54395 12.043 -10.3154 22.8125 -13.7207 35.7354c-3.2373 12.291 -5.88672 24.6504 -8.42676 37.1016c-4.76172 23.3574 -8.09668 46.9727 -11.4336 70.5732
c-6.68652 47.2979 -11.6641 94.7363 -15.4316 142.354c-7.72168 97.5703 -13.1514 196.203 -6.65918 293.978c2.1709 32.6924 73.8613 43.8438 74.8408 5.93555c2.47168 -95.5771 2.15039 -191.113 8.93848 -286.545c1.87891 -26.4316 4.06836 -52.8633 6.47656 -79.2705
c3.83789 4.63965 7.74414 9.22363 11.7812 13.6982c20.9121 23.1699 44.8477 49.5312 74.2812 61.5498c8.33398 3.40234 34.1318 3.27344 25.958 -12.7021c-10.7578 -21.0264 -31.3467 -37.1191 -46.5957 -54.8809c-14.9111 -17.3682 -31.6113 -36.1953 -41.793 -56.8379
c-3.6748 -7.45215 -6.74902 -17.4541 1.67285 -22.7725c6.86621 -4.33398 17.252 -3.84766 25.1172 -4.25879c26.3057 -1.37305 52.2559 2.03906 78.4912 2.73926c10.0869 0.269531 23.2236 -2.51562 24.3906 -14.5049z" />
    <glyph glyph-name="l" unicode="l" horiz-adv-x="164" 
d="M192.439 363.318c-12.6074 -47.9346 -27.082 -95.5068 -42.4912 -142.61c-13.4141 -40.9932 -28.6045 -81.4219 -48.002 -119.936c0.649414 -3.88184 1.29102 -7.76367 1.98145 -11.6377c7.61523 -42.6699 16.8896 -86.6406 31.9131 -127.383
c6.50391 -17.6387 13.6035 -35.2451 24.0137 -51.0146c4.60547 -6.97754 9.79492 -15.7129 16.165 -21.1504c6.26562 -5.34961 8.71094 -6.82227 15.4824 -4.52539c12.8135 4.3457 21.2793 -9.74121 7.89453 -15.8906c-22.5283 -10.3516 -47.2422 -8.20312 -69.4932 1.77148
c-24.3193 10.9004 -41.3252 35.2295 -53.7715 57.8887c-26.6143 48.4521 -39.7607 104.794 -49.748 158.712c-9.4668 51.1035 -13.832 103.116 -15.0234 155.049c-1.16699 50.8975 0.208984 102.646 8.62793 152.94c8.08105 48.2793 20.4814 99.0742 43.0977 142.784
c20.21 39.0586 62.2842 88.6533 112.396 76.7314c41.8633 -9.95996 44.6777 -65.043 43.5596 -99.4756c-1.66504 -51.3027 -13.5967 -102.803 -26.6025 -152.254zM95.2744 147.234c10.4629 25.0371 19.624 50.6348 28.0723 76.4512
c15.5605 47.5625 30.1465 95.6377 42.627 144.104c11.248 43.6758 21.5898 88.7588 23.6533 133.951c0.94043 20.5986 0.865234 43.0322 -6.21289 62.6729c-3.49023 9.68066 -14.9141 32.3398 -27.3457 21.0674c-26.5703 -24.0908 -35.7891 -63.8389 -43.834 -97.2539
c-10.4053 -43.2197 -16.416 -87.6562 -20.4219 -131.892c-6.29004 -69.4707 -4.9043 -139.769 3.46191 -209.102z" />
    <glyph glyph-name="m" unicode="m" horiz-adv-x="491" 
d="M480.681 -5.4873c1.52148 -16.6152 -12.4258 -27.3467 -27.4463 -31.374c-7.875 -2.10938 -17.5967 -2.54004 -25.416 0.225586c-4.86133 1.71875 -13.6406 6.9834 -14.0469 13.2246c-2.73438 41.9307 -1.45312 83.8662 1.32715 125.78
c1.32422 19.9932 2.2793 40.0107 3.66699 59.9941c1.18848 17.123 2.40137 35.1963 -2.38672 51.8838c-7.41992 25.8604 -27.8799 1.12988 -34.8145 -10.9814c-8.97363 -15.6748 -16.7686 -32.124 -23.7705 -48.7637c-13.5645 -32.2334 -23.6875 -65.7158 -30.418 -99.998
c0.321289 -3.18164 0.65625 -6.36328 0.977539 -9.54492c1.83496 -18.1611 -13.584 -28.9404 -29.4941 -33.7188c-11.6611 -3.50195 -40.7539 -2.81445 -42.4014 14.4541c-6.47266 67.835 -10.2598 135.889 -11.7568 204.019
c-1.2002 54.6162 1.49512 109.711 -10.0518 163.374c-0.726562 3.37598 -1.20508 13.9023 -4.88281 16.0752c-3.03613 1.79395 -8.35156 -2.80469 -10.9883 -5.10352c-9.52539 -8.30957 -16.7148 -19.9199 -22.8037 -30.8525
c-12.8184 -23.0146 -22.5156 -48 -31.083 -72.8594c-18.3477 -53.2334 -29.8857 -108.754 -40.123 -164.033c-8.97363 -48.4521 -15.1475 -97.2588 -17.6602 -146.421c0.177734 -1.54102 0.360352 -3.0791 0.538086 -4.62012
c0.891602 -7.7627 1.13672 -15.752 2.59961 -23.4326c1.35645 -7.13379 3.74805 -12.7871 4.05176 -20.1885c0.566406 -13.7812 -22.125 -19.0312 -31.5381 -18.3896c-20.832 1.42188 -29.8906 18.1436 -35.1523 36.1709c-6.15918 21.0996 -10.5703 42.6826 -14.4863 64.292
c-7.57324 41.7949 -12.5898 83.8184 -15.7373 126.173c-6.46973 87.0586 -6.36719 174.808 4.32227 261.535c4.03711 32.7656 79.0938 44.0508 75.7295 6.00586c-7.28906 -82.4355 -10.7188 -165.034 -6.99512 -247.762c0.724609 -16.085 1.74512 -32.168 2.98438 -48.2412
c3.31738 18.6592 6.98535 37.2305 10.7432 55.6855c12.0889 59.375 27.0049 118.732 51.6426 174.286c10.7988 24.3516 24.291 51.7119 46.2891 67.9404c19.9688 14.7314 47.9854 17.2881 65.3418 -2.74219c18.1338 -20.9268 25.0752 -54.8809 30.0771 -81.3564
c5.8916 -31.1787 7.6582 -62.9844 10.8154 -94.5225c3.82031 -38.1465 7.74805 -76.2764 11.6807 -114.408c5.10645 15.3193 10.9766 30.3955 17.6484 45.1582c14.8799 32.9238 36.7129 81.9688 81.5312 73.9336c18.5713 -3.33008 31.1973 -20.6064 38.5254 -36.7256
c9.56445 -21.0361 12.1162 -45.2441 14.1533 -68.0225c4.3457 -48.6348 4.35742 -97.5225 8.80762 -146.149z" />
    <glyph glyph-name="n" unicode="n" horiz-adv-x="293" 
d="M286.228 -6.42773c2.05371 -18.4229 -13.9648 -29.457 -29.9814 -34.2764c-12.0479 -3.61621 -41.1406 -2.83887 -43.0947 14.6904c-5.24707 47.0518 -3.34863 94.3838 -5.42383 141.613c-0.977539 22.2344 -3.44922 44.2324 -7.40137 66.1143
c-1.66211 9.19727 -2.91895 18.5254 -6.40918 27.2773c-0.563477 2.10938 -1.46973 4.06152 -2.7168 5.85547c-1.85938 2.8584 -2.37988 3.15527 -1.56348 0.889648c-3.42969 -0.293945 -8.54102 -7.91406 -10.668 -10.417
c-27.1055 -31.9268 -41.6006 -77.5479 -52.4111 -117.311c-11.501 -42.3008 -18.0439 -85.668 -26.4922 -128.627c-0.158203 -0.799805 -0.452148 -1.55566 -0.84082 -2.27734c0.0585938 -1.30078 0.138672 -2.60156 0.197266 -3.9043
c0.639648 -14.4902 -24.166 -18.8945 -33.9053 -15.832c-23.7363 7.46387 -27.8467 34.8145 -32.4375 56.2178c-5.10449 23.79 -9.06152 47.7012 -11.8027 71.8721c-5.66309 49.9102 -8.7793 100.236 -6.55762 150.453c0.814453 18.3916 26.1982 27.917 40.8496 29.4922
c15.8057 1.70117 34.1367 -5.70898 33.9912 -23.5537c-0.378906 -46.4717 -0.62207 -93.0156 2.19727 -139.424c0.357422 -5.875 0.739258 -11.7422 1.11133 -17.6143c1.9834 8.41406 4.06641 16.8037 6.34863 25.1377c9.99414 36.4795 22.7783 73.7148 43.0176 105.902
c17.7891 28.291 52.917 59.7637 85.0654 30.7041c28.6045 -25.8535 37.8311 -70.665 44.3379 -106.882c7.47852 -41.627 9.90625 -84.1045 14.5898 -126.102z" />
    <glyph glyph-name="o" unicode="o" horiz-adv-x="255" 
d="M230.344 201.019c22.1055 -51.0508 19.3789 -118.816 -10.2441 -166.318c-17.7764 -28.5098 -44.2129 -51.583 -76.7305 -61.4561c-34.0635 -10.3398 -76.7891 -6.19141 -103.603 18.9277c-25.7852 24.1543 -26.7793 60.2549 -19.6895 92.6777
c3.73535 17.0918 9.05859 33.3809 15.915 48.9922c-31.4043 11.3896 -27.4795 51.668 -13.6768 76.6006c15.375 27.7705 41.6953 49.4551 71.7852 59.4229c28.5176 9.44727 60.834 7.67578 87.0713 -7.45703c23.4668 -13.5332 38.6426 -37.0771 49.1719 -61.3896z
M177.972 59.3516c20.3486 37.2354 28.6719 84.7305 20.124 126.433c-8.85938 43.2266 -49.2207 78.6611 -94.9121 64.6855c-20.5645 -6.29004 -38.5693 -21.665 -49.8398 -39.792c-8.10547 -13.0322 -17.8027 -40.623 -5.83984 -53.7725
c4.05371 7.22559 8.45801 14.3125 13.2168 21.2637c9.11914 13.3213 31.8711 17.6787 46.5078 14.4707c12.1113 -2.6543 25.8848 -14.8896 17.5117 -28.4736c-13.7207 -22.2637 -25.4648 -45.9756 -31.5488 -71.5205c-4.96289 -20.8418 -10.4287 -51.2598 7.27051 -68.0957
c28.9404 -27.5283 62.9336 8.13184 77.5098 34.8018z" />
    <glyph glyph-name="o" unicode="&#xf6;" horiz-adv-x="255" 
d="M230.344 201.019c22.1055 -51.0508 19.3789 -118.816 -10.2441 -166.318c-17.7764 -28.5098 -44.2129 -51.583 -76.7305 -61.4561c-34.0635 -10.3398 -76.7891 -6.19141 -103.603 18.9277c-25.7852 24.1543 -26.7793 60.2549 -19.6895 92.6777
c3.73535 17.0918 9.05859 33.3809 15.915 48.9922c-31.4043 11.3896 -27.4795 51.668 -13.6768 76.6006c15.375 27.7705 41.6953 49.4551 71.7852 59.4229c28.5176 9.44727 60.834 7.67578 87.0713 -7.45703c23.4668 -13.5332 38.6426 -37.0771 49.1719 -61.3896z
M177.972 59.3516c20.3486 37.2354 28.6719 84.7305 20.124 126.433c-8.85938 43.2266 -49.2207 78.6611 -94.9121 64.6855c-20.5645 -6.29004 -38.5693 -21.665 -49.8398 -39.792c-8.10547 -13.0322 -17.8027 -40.623 -5.83984 -53.7725
c4.05371 7.22559 8.45801 14.3125 13.2168 21.2637c9.11914 13.3213 31.8711 17.6787 46.5078 14.4707c12.1113 -2.6543 25.8848 -14.8896 17.5117 -28.4736c-13.7207 -22.2637 -25.4648 -45.9756 -31.5488 -71.5205c-4.96289 -20.8418 -10.4287 -51.2598 7.27051 -68.0957
c28.9404 -27.5283 62.9336 8.13184 77.5098 34.8018z" />
    <glyph glyph-name="o" unicode="&#xf5;" horiz-adv-x="255" 
d="M230.344 201.019c22.1055 -51.0508 19.3789 -118.816 -10.2441 -166.318c-17.7764 -28.5098 -44.2129 -51.583 -76.7305 -61.4561c-34.0635 -10.3398 -76.7891 -6.19141 -103.603 18.9277c-25.7852 24.1543 -26.7793 60.2549 -19.6895 92.6777
c3.73535 17.0918 9.05859 33.3809 15.915 48.9922c-31.4043 11.3896 -27.4795 51.668 -13.6768 76.6006c15.375 27.7705 41.6953 49.4551 71.7852 59.4229c28.5176 9.44727 60.834 7.67578 87.0713 -7.45703c23.4668 -13.5332 38.6426 -37.0771 49.1719 -61.3896z
M177.972 59.3516c20.3486 37.2354 28.6719 84.7305 20.124 126.433c-8.85938 43.2266 -49.2207 78.6611 -94.9121 64.6855c-20.5645 -6.29004 -38.5693 -21.665 -49.8398 -39.792c-8.10547 -13.0322 -17.8027 -40.623 -5.83984 -53.7725
c4.05371 7.22559 8.45801 14.3125 13.2168 21.2637c9.11914 13.3213 31.8711 17.6787 46.5078 14.4707c12.1113 -2.6543 25.8848 -14.8896 17.5117 -28.4736c-13.7207 -22.2637 -25.4648 -45.9756 -31.5488 -71.5205c-4.96289 -20.8418 -10.4287 -51.2598 7.27051 -68.0957
c28.9404 -27.5283 62.9336 8.13184 77.5098 34.8018z" />
    <glyph glyph-name="o" unicode="&#xf4;" horiz-adv-x="255" 
d="M230.344 201.019c22.1055 -51.0508 19.3789 -118.816 -10.2441 -166.318c-17.7764 -28.5098 -44.2129 -51.583 -76.7305 -61.4561c-34.0635 -10.3398 -76.7891 -6.19141 -103.603 18.9277c-25.7852 24.1543 -26.7793 60.2549 -19.6895 92.6777
c3.73535 17.0918 9.05859 33.3809 15.915 48.9922c-31.4043 11.3896 -27.4795 51.668 -13.6768 76.6006c15.375 27.7705 41.6953 49.4551 71.7852 59.4229c28.5176 9.44727 60.834 7.67578 87.0713 -7.45703c23.4668 -13.5332 38.6426 -37.0771 49.1719 -61.3896z
M177.972 59.3516c20.3486 37.2354 28.6719 84.7305 20.124 126.433c-8.85938 43.2266 -49.2207 78.6611 -94.9121 64.6855c-20.5645 -6.29004 -38.5693 -21.665 -49.8398 -39.792c-8.10547 -13.0322 -17.8027 -40.623 -5.83984 -53.7725
c4.05371 7.22559 8.45801 14.3125 13.2168 21.2637c9.11914 13.3213 31.8711 17.6787 46.5078 14.4707c12.1113 -2.6543 25.8848 -14.8896 17.5117 -28.4736c-13.7207 -22.2637 -25.4648 -45.9756 -31.5488 -71.5205c-4.96289 -20.8418 -10.4287 -51.2598 7.27051 -68.0957
c28.9404 -27.5283 62.9336 8.13184 77.5098 34.8018z" />
    <glyph glyph-name="o" unicode="&#xf3;" horiz-adv-x="255" 
d="M230.344 201.019c22.1055 -51.0508 19.3789 -118.816 -10.2441 -166.318c-17.7764 -28.5098 -44.2129 -51.583 -76.7305 -61.4561c-34.0635 -10.3398 -76.7891 -6.19141 -103.603 18.9277c-25.7852 24.1543 -26.7793 60.2549 -19.6895 92.6777
c3.73535 17.0918 9.05859 33.3809 15.915 48.9922c-31.4043 11.3896 -27.4795 51.668 -13.6768 76.6006c15.375 27.7705 41.6953 49.4551 71.7852 59.4229c28.5176 9.44727 60.834 7.67578 87.0713 -7.45703c23.4668 -13.5332 38.6426 -37.0771 49.1719 -61.3896z
M177.972 59.3516c20.3486 37.2354 28.6719 84.7305 20.124 126.433c-8.85938 43.2266 -49.2207 78.6611 -94.9121 64.6855c-20.5645 -6.29004 -38.5693 -21.665 -49.8398 -39.792c-8.10547 -13.0322 -17.8027 -40.623 -5.83984 -53.7725
c4.05371 7.22559 8.45801 14.3125 13.2168 21.2637c9.11914 13.3213 31.8711 17.6787 46.5078 14.4707c12.1113 -2.6543 25.8848 -14.8896 17.5117 -28.4736c-13.7207 -22.2637 -25.4648 -45.9756 -31.5488 -71.5205c-4.96289 -20.8418 -10.4287 -51.2598 7.27051 -68.0957
c28.9404 -27.5283 62.9336 8.13184 77.5098 34.8018z" />
    <glyph glyph-name="p" unicode="p" horiz-adv-x="388" 
d="M339.444 278.94c27.2168 -29.1006 38.5977 -70.1865 39.0137 -109.182c0.863281 -79.3779 -47.5039 -163.218 -123.7 -191.528c-39.2725 -14.5898 -97.4707 -13.7998 -118.745 29.458c-20.6299 41.9453 10.6533 85.3223 38.918 114.065
c7.48633 7.6123 20.2588 12.1328 30.7119 8.22949c10.0693 -3.75977 11.0879 -12.4219 5.51465 -20.5762c-15.6328 -22.876 -40.502 -69.585 -6.91699 -90.0039c11.0225 -6.70312 22.8057 -5.94727 31.2148 -3.03516c15.2275 5.27148 28.9912 16.2305 40.2539 27.501
c44.4316 44.4639 62.2881 108.816 52.8965 170.335c-5.16504 33.8301 -20.3389 70.2754 -57.2412 78.5293c-33.6475 7.52734 -60.8281 -23.8994 -77.3164 -49.0039c-41.9629 -63.8906 -60.3398 -141.293 -68.4795 -216.405
c-7.60742 -70.208 -5.55566 -140.938 -0.00390625 -211.236c5.30371 -30.8555 10.8789 -61.667 14.8799 -92.7188c3.71875 -28.8574 -51.1768 -43.9414 -61.9199 -16.5908c-17.626 44.874 -27.8369 92.1396 -36.7402 139.403
c-8.89551 47.2246 -14.6172 95.1152 -18.6279 142.989c-8.10059 96.7295 -9.32324 194.847 3.19141 291.233c4.28711 33.0205 79.2148 45.1631 76.918 6.09961c-4.66406 -79.3271 -7.49609 -158.717 -4.07617 -238.08c2.41797 17.4199 5.46875 34.7734 9.26758 52.0303
c9.46973 43.001 23.3262 85.5029 44.4473 124.265c18.8457 34.5811 44.1738 70.2637 82.5098 84.5576c39.5977 14.7627 76.4805 -0.87793 104.03 -30.3359z" />
    <glyph glyph-name="q" unicode="q" horiz-adv-x="255" 
d="M230.344 201.019c22.1055 -51.0508 19.3789 -118.82 -10.2412 -166.319c-16.5059 -26.4678 -40.4854 -48.2334 -69.8555 -59.1172c0.0439453 -0.367188 0.0751953 -0.734375 0.119141 -1.09863c4.38184 -36.6279 12.1963 -72.7188 26.5947 -106.787
c5.06738 -11.9941 -23.5127 -20.3232 -28.7598 -7.70605c-14.4619 34.7686 -22.0156 71.5596 -26.1865 108.863c-29.2168 -3.41211 -60.8135 3.2373 -82.248 23.3184c-25.7852 24.1543 -26.7793 60.2549 -19.6895 92.6777c3.73535 17.0918 9.05859 33.3809 15.915 48.9922
c-31.4043 11.3896 -27.4795 51.668 -13.6768 76.6006c15.375 27.7705 41.6953 49.4551 71.7852 59.4229c28.5176 9.44727 60.834 7.67578 87.0713 -7.45703c23.4668 -13.5332 38.6426 -37.0771 49.1719 -61.3896zM177.972 59.3477
c20.3486 37.2354 28.6738 84.7295 20.1279 126.435c-8.85938 43.2266 -49.2207 78.6611 -94.9121 64.6855c-20.5645 -6.29004 -38.5693 -21.665 -49.8398 -39.792c-8.10547 -13.0322 -17.8027 -40.623 -5.83984 -53.7725c4.05371 7.22559 8.45801 14.3125 13.2168 21.2637
c9.11914 13.3213 31.8711 17.6787 46.5078 14.4707c12.1084 -2.6543 25.8848 -14.8896 17.5117 -28.4736c-13.7197 -22.2637 -25.4639 -45.9756 -31.5479 -71.5205c-4.96582 -20.8418 -10.4316 -51.2598 7.26758 -68.0957
c5.7793 -5.49512 11.7607 -8.43848 17.7471 -9.47168c-0.233398 4.07324 -0.452148 8.14648 -0.639648 12.2227c-0.881836 19.167 -3.31934 39.2256 0.710938 58.1377c2.42578 11.3848 29.208 15.0791 26.7285 2.12012c-3.7334 -19.5195 -0.654297 -40.208 0.704102 -59.876
c0.116211 -1.69141 0.240234 -3.38574 0.359375 -5.07715c13.3164 8.94629 24.8682 23.8818 31.8975 36.7441z" />
    <glyph glyph-name="r" unicode="r" horiz-adv-x="285" 
d="M279.759 183.471c0.962891 -23.2822 -8.43262 -45.04 -21.1221 -64.0684c-28.3154 -42.4707 -70.9756 -79.0547 -115.216 -104.094c-2.82227 -1.59961 -6.07422 -2.86133 -9.52832 -3.78516c4.95801 -3.84277 9.72656 -8.00391 14.4854 -11.7393
c9.19727 -7.21582 18.4482 -13.9316 26.4766 -22.4678c6.72559 -7.15332 -2.02441 -16.6318 -7.86719 -20.2559c-8.35156 -5.17969 -19.6562 -6.29004 -28.3262 -1.29492c-10.1982 5.87695 -18.8604 14.3984 -26.4893 23.377
c-1.80078 -25.7588 -1.96387 -51.6797 -1.01855 -77.4551c0.644531 -7.24512 1.05078 -14.4785 1.0459 -21.6631c0.0683594 -1.1377 0.131836 -2.27539 0.202148 -3.41309c0.0507812 -0.794922 -0.0654297 -1.55859 -0.295898 -2.29297
c-0.0703125 -2.16602 -0.172852 -4.32715 -0.328125 -6.48047c-1.12793 -15.6377 -33.7725 -25.292 -42.3447 -11.3457c-17.1572 27.9141 -24.1592 62.5391 -31.4023 94.1162c-7.06055 30.7773 -11.3525 62.2568 -14.9717 93.6104
c-7.50098 64.9971 -9.25586 131.486 -4.12988 196.702c2.50781 31.9121 74.8467 42.9395 73.3545 5.81836c-2.52539 -62.8701 -2.53516 -125.473 1.64258 -188.268c0.0488281 -0.741211 0.109375 -1.48047 0.160156 -2.22168
c9.30664 40.9707 24.0791 81.1709 45.9023 117.035c20.8145 34.2119 64.6533 84.6719 110.208 62.1357c18.8994 -9.35059 28.7334 -31.8721 29.5625 -51.9502zM237.449 184.047c2.91211 9.13672 4.92383 21.5068 -2.22168 29.1025
c-7.67285 8.15723 -18.1748 6.37793 -26.9443 1.16895c-33.5146 -19.9062 -53.0801 -63.4951 -66.8076 -98.21c-6.33887 -16.0312 -11.5107 -32.3838 -15.6963 -48.9648c30.4082 20.6182 60.9668 41.4668 84.5352 70.0107c11.2852 13.667 21.7148 29.8887 27.1348 46.8926z
" />
    <glyph glyph-name="s" unicode="s" horiz-adv-x="251" 
d="M223.483 36.626c21.3936 -27.2607 40.1152 -60.3242 40.8252 -95.7217c0.702148 -34.9189 -23.1074 -63.9756 -54.5801 -76.7207c-30.4277 -12.3252 -62.4111 -10.3369 -91.4072 4.67676c-62.1504 32.1777 -80.0557 101.173 -70.292 166.524
c1.81055 12.1113 29.7979 15.9932 27.917 2.21484c-5.27637 -38.6572 -2.03906 -80.9014 20.6719 -113.932c18.1514 -26.4004 52.9834 -50.4453 86.4199 -39.3477c30.6416 10.1719 28.8506 43.3164 15.5703 67.2734c-17.3125 31.2275 -42.5605 59.0645 -68.1445 83.7314
c-26.3418 25.4014 -55.4688 47.7568 -81.0332 74.0156c-24.3271 24.9883 -46.7588 55.6445 -44.2363 92.3232c4.9873 72.4951 81.4707 124.855 149.753 126.207c32.4453 0.641602 63.0166 -12.5459 73.6357 -45.1289c10.7861 -33.0986 -2.55273 -67.4053 -7.0293 -100.344
c-1.7959 -13.2295 -32.3154 -17.3105 -30.291 -2.40137c4.66406 34.3232 24.2031 81.0957 -3.64844 110.745c-24.0254 25.5791 -70.1973 5.51758 -89.1768 -16.4688c-20.1484 -23.3398 -27.0078 -53.5557 -15.793 -82.6582
c11.4189 -29.6279 40.043 -54.6553 62.9307 -75.4551c27.54 -25.0273 54.8643 -50.166 77.9082 -79.5342z" />
    <glyph glyph-name="t" unicode="t" horiz-adv-x="138" 
d="M135.688 259.912c-2.83398 -6.72266 -12.1846 -9.23633 -18.7539 -8.73047c-6.59863 0.507812 -13.207 0.833008 -19.8154 1.07324c0.620117 -40.5039 2.15332 -80.9912 5.32031 -121.359c3.03613 -38.6934 7.30859 -77.248 11.1953 -115.856
c1.91797 -19.0547 3.75586 -38.1094 5.99902 -57.1328c1.06738 -9.04102 1.73535 -18.0098 2.5957 -27.0635c0.301758 -3.15723 0.855469 -6.18848 1.51172 -9.23145c1.82031 0.00976562 3.63574 -0.287109 5.37793 -0.964844
c5.74805 -2.24316 8.20312 -8.4873 3.5752 -13.3486c-12.2471 -12.8643 -35.7764 -15.4844 -49.9365 -4.55664c-15.3242 11.8242 -23.1533 36.2754 -28.5566 54.1055c-12.5264 41.3311 -18.4912 85.457 -23.2158 128.277
c-5.99316 54.3408 -10.0156 109.015 -10.9316 163.708c-8.36621 -1.06445 -16.7148 -2.30176 -25.0225 -3.83008c-5.46582 -1.00586 -14.8838 -1.38477 -16.7871 5.72168c-1.73535 6.47461 6.10742 12.3154 11.6777 13.3486
c9.95996 1.84961 19.9375 3.40527 29.9316 4.69629c-0.0751953 29.5381 0.788086 59.0684 2.80762 88.5479c2.22363 32.4473 75.0029 43.7227 74.5439 5.91406c-0.364258 -30.0244 -0.563477 -60.085 -0.325195 -90.1406
c10.0234 -0.174805 20.0615 -0.619141 30.1162 -1.37793c6.2832 -0.473633 11.3633 -5.45898 8.69238 -11.7998z" />
    <glyph glyph-name="u" unicode="u" horiz-adv-x="287" 
d="M271.891 37.6787c1.51465 -21.2666 5.69434 -47.2979 -6.97852 -65.5996c-6.07129 -8.7666 -22.5137 -10.9053 -31.1221 -5.52441c-18.2871 11.4287 -22.6963 43.8711 -26.7119 63.5312c-3.80859 18.6416 -6.5166 37.4248 -8.8252 56.293
c-7.17285 -30.248 -17.2402 -62.7539 -39.8564 -83.9385c-25.8262 -24.1885 -66.5615 -32.6807 -96.7002 -10.5801c-30.7119 22.5215 -40.7305 68.959 -45.2002 104.408c-5.02637 39.8672 -4.01758 79.7178 -0.835938 119.661c2.5498 32.0078 74.541 43.1982 73.6514 5.8418
c-0.981445 -41.2461 -4.64453 -83.3008 -0.114258 -124.428c2.19434 -19.9346 5.15918 -39.6533 10.4941 -59.0146c2.91406 -10.5703 11.0811 -32.9287 25.292 -31.1201c16.7314 2.12891 26.8594 28.3662 32.2334 41.6729c7.37402 18.2529 12.2451 37.3643 16.5205 56.5459
c8.18359 36.7031 13.5967 74.0068 16.4111 111.502c0.0292969 6.0498 0.112305 12.0996 0.262695 18.1494c0.439453 17.5459 25.3379 26.7285 39.0654 28.2041c15.4561 1.66016 32.1924 -5.5127 32.5088 -22.5283c0.835938 -44.8887 1.98828 -89.8242 4.85645 -134.638
c1.46094 -22.8252 3.4248 -45.623 5.04883 -68.4385z" />
    <glyph glyph-name="u" unicode="&#xfc;" horiz-adv-x="287" 
d="M271.891 37.6787c1.51465 -21.2666 5.69434 -47.2979 -6.97852 -65.5996c-6.07129 -8.7666 -22.5137 -10.9053 -31.1221 -5.52441c-18.2871 11.4287 -22.6963 43.8711 -26.7119 63.5312c-3.80859 18.6416 -6.5166 37.4248 -8.8252 56.293
c-7.17285 -30.248 -17.2402 -62.7539 -39.8564 -83.9385c-25.8262 -24.1885 -66.5615 -32.6807 -96.7002 -10.5801c-30.7119 22.5215 -40.7305 68.959 -45.2002 104.408c-5.02637 39.8672 -4.01758 79.7178 -0.835938 119.661c2.5498 32.0078 74.541 43.1982 73.6514 5.8418
c-0.981445 -41.2461 -4.64453 -83.3008 -0.114258 -124.428c2.19434 -19.9346 5.15918 -39.6533 10.4941 -59.0146c2.91406 -10.5703 11.0811 -32.9287 25.292 -31.1201c16.7314 2.12891 26.8594 28.3662 32.2334 41.6729c7.37402 18.2529 12.2451 37.3643 16.5205 56.5459
c8.18359 36.7031 13.5967 74.0068 16.4111 111.502c0.0292969 6.0498 0.112305 12.0996 0.262695 18.1494c0.439453 17.5459 25.3379 26.7285 39.0654 28.2041c15.4561 1.66016 32.1924 -5.5127 32.5088 -22.5283c0.835938 -44.8887 1.98828 -89.8242 4.85645 -134.638
c1.46094 -22.8252 3.4248 -45.623 5.04883 -68.4385z" />
    <glyph glyph-name="u" unicode="&#xfb;" horiz-adv-x="287" 
d="M271.891 37.6787c1.51465 -21.2666 5.69434 -47.2979 -6.97852 -65.5996c-6.07129 -8.7666 -22.5137 -10.9053 -31.1221 -5.52441c-18.2871 11.4287 -22.6963 43.8711 -26.7119 63.5312c-3.80859 18.6416 -6.5166 37.4248 -8.8252 56.293
c-7.17285 -30.248 -17.2402 -62.7539 -39.8564 -83.9385c-25.8262 -24.1885 -66.5615 -32.6807 -96.7002 -10.5801c-30.7119 22.5215 -40.7305 68.959 -45.2002 104.408c-5.02637 39.8672 -4.01758 79.7178 -0.835938 119.661c2.5498 32.0078 74.541 43.1982 73.6514 5.8418
c-0.981445 -41.2461 -4.64453 -83.3008 -0.114258 -124.428c2.19434 -19.9346 5.15918 -39.6533 10.4941 -59.0146c2.91406 -10.5703 11.0811 -32.9287 25.292 -31.1201c16.7314 2.12891 26.8594 28.3662 32.2334 41.6729c7.37402 18.2529 12.2451 37.3643 16.5205 56.5459
c8.18359 36.7031 13.5967 74.0068 16.4111 111.502c0.0292969 6.0498 0.112305 12.0996 0.262695 18.1494c0.439453 17.5459 25.3379 26.7285 39.0654 28.2041c15.4561 1.66016 32.1924 -5.5127 32.5088 -22.5283c0.835938 -44.8887 1.98828 -89.8242 4.85645 -134.638
c1.46094 -22.8252 3.4248 -45.623 5.04883 -68.4385z" />
    <glyph glyph-name="u" unicode="&#xfa;" horiz-adv-x="287" 
d="M271.891 37.6787c1.51465 -21.2666 5.69434 -47.2979 -6.97852 -65.5996c-6.07129 -8.7666 -22.5137 -10.9053 -31.1221 -5.52441c-18.2871 11.4287 -22.6963 43.8711 -26.7119 63.5312c-3.80859 18.6416 -6.5166 37.4248 -8.8252 56.293
c-7.17285 -30.248 -17.2402 -62.7539 -39.8564 -83.9385c-25.8262 -24.1885 -66.5615 -32.6807 -96.7002 -10.5801c-30.7119 22.5215 -40.7305 68.959 -45.2002 104.408c-5.02637 39.8672 -4.01758 79.7178 -0.835938 119.661c2.5498 32.0078 74.541 43.1982 73.6514 5.8418
c-0.981445 -41.2461 -4.64453 -83.3008 -0.114258 -124.428c2.19434 -19.9346 5.15918 -39.6533 10.4941 -59.0146c2.91406 -10.5703 11.0811 -32.9287 25.292 -31.1201c16.7314 2.12891 26.8594 28.3662 32.2334 41.6729c7.37402 18.2529 12.2451 37.3643 16.5205 56.5459
c8.18359 36.7031 13.5967 74.0068 16.4111 111.502c0.0292969 6.0498 0.112305 12.0996 0.262695 18.1494c0.439453 17.5459 25.3379 26.7285 39.0654 28.2041c15.4561 1.66016 32.1924 -5.5127 32.5088 -22.5283c0.835938 -44.8887 1.98828 -89.8242 4.85645 -134.638
c1.46094 -22.8252 3.4248 -45.623 5.04883 -68.4385z" />
    <glyph glyph-name="v" unicode="v" horiz-adv-x="380" 
d="M381.751 343.864c3.64551 -56.1768 -7.5791 -112.87 -23.1826 -166.584c-14.6826 -50.5742 -34.1338 -103.53 -66.9453 -145.415c-30.7822 -39.2969 -82.2119 -61.2588 -131.988 -54.8857c-113.42 14.5195 -146.027 159.314 -153.552 253.195
c-1.24414 15.5479 11.4697 25.5156 25.6445 29.3145c10.7061 2.86816 34.6826 2.60547 36.8623 -12.5654c7.34961 -51.1309 14.7725 -103.107 35.6436 -150.797c15.9834 -36.5234 43.9365 -80.4404 86.2373 -88.8301c44.2109 -8.76953 73.2988 25.1992 93.0469 60.1787
c22.6934 40.1982 38.5625 83.96 50.2139 128.538c-46.7236 -17.1494 -99.2393 -22.5352 -147.159 -9.20605c-24.0811 6.69824 -47.584 19.7188 -64.0068 38.832c-17.5312 20.4043 -24.5723 48.3916 -22.9316 74.8643c3.01172 48.627 34.8662 90.5996 72.6777 118.951
c39.6631 29.7393 92.9014 50.3838 142.065 33.0498c46.5488 -16.4131 64.4062 -62.9111 67.374 -108.641zM339.197 218.087c9.47656 40.7422 15.8203 83.3281 11.6592 124.897c-3.88867 38.8877 -19.9814 80.9697 -62.1211 90.8379
c-41.1748 9.6416 -83.9297 -15.8398 -112.23 -43.7959c-29.2441 -28.8867 -46.2549 -67.7168 -39.6104 -109.13c15.1396 -94.3496 132.251 -91.3408 202.303 -62.8096z" />
    </font>
</defs>
</svg>
