<?xml version="1.0" standalone="no"?>
<!DOCTYPE svg PUBLIC "-//W3C//DTD SVG 1.1//EN" "http://www.w3.org/Graphics/SVG/1.1/DTD/svg11.dtd" >
<svg xmlns="http://www.w3.org/2000/svg" xmlns:xlink="http://www.w3.org/1999/xlink" version="1.1">
<metadata>
Created by FontForge 20170812 at Fri Jun 17 05:48:26 2022
 By www-data
</metadata>
<defs>
<font id="ReallityRegular" horiz-adv-x="0" >
  <font-face 
    font-family="Reallity"
    font-weight="400"
    font-stretch="normal"
    units-per-em="1000"
    panose-1="0 0 0 0 0 0 0 0 0 0"
    ascent="800"
    descent="-200"
    x-height="357.876"
    cap-height="929.153"
    bbox="-314.073 -460.421 1121.62 1061.4"
    underline-thickness="50"
    underline-position="-100"
    unicode-range="U+000A-20AC"
  />
<missing-glyph horiz-adv-x="527" 
d="M50 700h427v-700h-427v700zM78 680l185 -309l186 309h-371zM251 350l-180 300v-601zM264 329l-185 -308h370zM276 350l181 -303v605z" />
    <glyph glyph-name=".notdef" horiz-adv-x="527" 
d="M50 700h427v-700h-427v700zM78 680l185 -309l186 309h-371zM251 350l-180 300v-601zM264 329l-185 -308h370zM276 350l181 -303v605z" />
    <glyph glyph-name=".null" 
 />
    <glyph glyph-name=".null" 
 />
    <glyph glyph-name="LF" unicode="&#xa;" 
 />
    <glyph glyph-name="controlCR" unicode="&#xd;" 
 />
    <glyph glyph-name="space" unicode=" " horiz-adv-x="278" 
 />
    <glyph glyph-name="exclam" unicode="!" horiz-adv-x="475" 
d="M409.262 773.585c11.5879 -3.45898 18.1875 -15.6445 14.7432 -27.2402c-13.4121 -45.0391 -31.8379 -87.4365 -49.6582 -128.44l-4.10156 -9.44238c-78.9209 -181.93 -151.529 -370.938 -215.805 -561.757c-3.08691 -9.13672 -11.6104 -14.9092 -20.7471 -14.9092
c-2.32031 0 -4.67773 0.37207 -6.99121 1.15332c-11.4639 3.86719 -17.623 16.2803 -13.7627 27.7373c64.6689 191.985 137.723 382.154 217.132 565.208l4.11523 9.47168c17.2949 39.8066 35.1885 80.9707 47.8496 123.478
c3.45117 11.5957 15.6523 18.1855 27.2256 14.7412zM121.057 -30.8213c10.9971 -5.01367 15.8516 -18.0029 10.8457 -29c-14.8359 -32.5605 -28.0078 -66.7051 -39.1504 -101.484c-2.96973 -9.29688 -11.5732 -15.2227 -20.8408 -15.2227
c-2.21875 0 -4.4668 0.335938 -6.68555 1.05078c-11.5156 3.68555 -17.8574 16.0107 -14.1719 27.5264c11.6611 36.4141 25.46 72.1709 41.0029 106.286c5.01367 10.9971 17.9961 15.8574 29 10.8438z" />
    <glyph glyph-name="quotedbl" unicode="&#x22;" horiz-adv-x="322" 
d="M172.109 725.218c10.4863 -6.02051 14.1123 -19.3955 8.09961 -29.874c-28 -48.8193 -58.4668 -96.1934 -90.5459 -140.81c-4.27637 -5.94727 -10.9824 -9.11426 -17.791 -9.11426c-4.42188 0 -8.89551 1.33496 -12.7627 4.11523
c-9.81445 7.05664 -12.0479 20.7393 -4.99121 30.5537c31.2031 43.3975 60.8525 89.502 88.1084 137.029c6.02051 10.4863 19.3896 14.1055 29.8828 8.09961zM262.136 677.501c10.209 -6.47266 13.2451 -20.001 6.77246 -30.21
c-22.9209 -36.1729 -47.666 -71.1709 -73.542 -104.038c-4.32031 -5.48047 -10.7344 -8.34863 -17.2148 -8.34863c-4.73633 0 -9.51562 1.53223 -13.5293 4.69238c-9.50098 7.47949 -11.1357 21.2422 -3.65625 30.7432c24.9492 31.6992 48.8262 65.4717 70.959 100.39
c6.47266 10.2158 20.0088 13.252 30.2109 6.77148z" />
    <glyph glyph-name="quotedbl" unicode="&#x201d;" horiz-adv-x="322" 
d="M172.109 725.218c10.4863 -6.02051 14.1123 -19.3955 8.09961 -29.874c-28 -48.8193 -58.4668 -96.1934 -90.5459 -140.81c-4.27637 -5.94727 -10.9824 -9.11426 -17.791 -9.11426c-4.42188 0 -8.89551 1.33496 -12.7627 4.11523
c-9.81445 7.05664 -12.0479 20.7393 -4.99121 30.5537c31.2031 43.3975 60.8525 89.502 88.1084 137.029c6.02051 10.4863 19.3896 14.1055 29.8828 8.09961zM262.136 677.501c10.209 -6.47266 13.2451 -20.001 6.77246 -30.21
c-22.9209 -36.1729 -47.666 -71.1709 -73.542 -104.038c-4.32031 -5.48047 -10.7344 -8.34863 -17.2148 -8.34863c-4.73633 0 -9.51562 1.53223 -13.5293 4.69238c-9.50098 7.47949 -11.1357 21.2422 -3.65625 30.7432c24.9492 31.6992 48.8262 65.4717 70.959 100.39
c6.47266 10.2158 20.0088 13.252 30.2109 6.77148z" />
    <glyph glyph-name="quotedbl" unicode="&#x201c;" horiz-adv-x="322" 
d="M172.109 725.218c10.4863 -6.02051 14.1123 -19.3955 8.09961 -29.874c-28 -48.8193 -58.4668 -96.1934 -90.5459 -140.81c-4.27637 -5.94727 -10.9824 -9.11426 -17.791 -9.11426c-4.42188 0 -8.89551 1.33496 -12.7627 4.11523
c-9.81445 7.05664 -12.0479 20.7393 -4.99121 30.5537c31.2031 43.3975 60.8525 89.502 88.1084 137.029c6.02051 10.4863 19.3896 14.1055 29.8828 8.09961zM262.136 677.501c10.209 -6.47266 13.2451 -20.001 6.77246 -30.21
c-22.9209 -36.1729 -47.666 -71.1709 -73.542 -104.038c-4.32031 -5.48047 -10.7344 -8.34863 -17.2148 -8.34863c-4.73633 0 -9.51562 1.53223 -13.5293 4.69238c-9.50098 7.47949 -11.1357 21.2422 -3.65625 30.7432c24.9492 31.6992 48.8262 65.4717 70.959 100.39
c6.47266 10.2158 20.0088 13.252 30.2109 6.77148z" />
    <glyph glyph-name="numbersign" unicode="#" horiz-adv-x="691" 
d="M626.889 756.509c11.2012 -4.5459 16.6006 -17.3096 12.0693 -28.5107c-50.0303 -123.347 -99.083 -248.116 -147.041 -373.711c25.8252 -0.802734 51.6582 -2.42285 77.4766 -4.91895c12.0332 -1.16016 20.8486 -11.8652 19.6807 -23.8984
c-1.16016 -12.0332 -11.8799 -20.8926 -23.8984 -19.6816c-29.8975 2.89746 -59.8164 4.53223 -89.7285 5.06543c-8.15137 -21.4902 -16.3389 -42.959 -24.417 -64.4932c19.6084 -1.51074 39.1943 -3.78711 58.7217 -6.90332
c11.9385 -1.91211 20.0752 -13.1357 18.1631 -25.0742c-1.9043 -11.9385 -13.1348 -20.0674 -25.0732 -18.1631c-22.5195 3.59766 -45.127 5.92578 -67.7637 7.23926c-53.6064 -143.889 -105.717 -288.559 -155.85 -433.287
c-3.1377 -9.04883 -11.6172 -14.7334 -20.6875 -14.7334c-2.37891 0 -4.79395 0.394531 -7.16602 1.21191c-11.4199 3.96289 -17.4766 16.4268 -13.5215 27.8545c48.6006 140.306 99.0693 280.554 150.938 420.101c-42.6533 -0.430664 -85.2402 -4.78027 -127.354 -13.1504
c-49.4756 -136.409 -96.9375 -273.869 -141.86 -411.789c-3.01367 -9.24609 -11.5879 -15.1201 -20.8115 -15.1201c-2.24805 0 -4.53223 0.342773 -6.78711 1.08008c-11.4932 3.74316 -17.7764 16.0977 -14.0332 27.5986c42.1055 129.265 86.4219 258.128 132.526 386.108
c-43.835 -12.1572 -86.9473 -28.6416 -128.855 -49.3877c-3.12305 -1.54688 -6.43652 -2.27637 -9.69824 -2.27637c-8.06348 0 -15.8203 4.46582 -19.6367 12.1787c-5.37109 10.8369 -0.93457 23.9717 9.90234 29.335c53.8467 26.6641 109.599 46.6592 166.321 59.9258
c7.75684 21.2715 15.5576 42.5068 23.417 63.7129c-33.0859 -5.97656 -66.041 -13.376 -98.7988 -22.2715c-1.91895 -0.525391 -3.85254 -0.773438 -5.75 -0.773438c-9.63965 0 -18.4697 6.41406 -21.1113 16.1631c-3.16699 11.6689 3.72168 23.6953 15.3896 26.8623
c42.3682 11.5078 85.0645 20.6152 127.951 27.4092c48.2793 128.739 98.2881 256.326 150.026 381.986c4.60449 11.1797 17.4111 16.5068 28.5762 11.9092c11.1797 -4.60449 16.5137 -17.3965 11.9092 -28.5762c-48.6006 -118.049 -95.7119 -237.783 -141.262 -358.591
c42.0186 4.86719 84.1895 7.47949 126.412 7.83691c49.8916 130.987 100.958 261.113 153.112 389.678c4.53906 11.2012 17.3164 16.5938 28.5107 12.0547zM405.034 248.336c7.80078 20.8262 15.6582 41.6094 23.5176 62.3994
c-42.4336 -0.992188 -84.7949 -4.34863 -126.98 -10.0771c-7.65527 -20.542 -15.3535 -41.0479 -22.9131 -61.6484c41.8721 6.79395 84.1094 9.88086 126.376 9.32617z" />
    <glyph glyph-name="dollar" unicode="$" horiz-adv-x="488" 
d="M428.641 541.821c11.1865 -24.1543 10.4844 -51.7783 7.91602 -70.7295c-7.04883 -52.0664 -33.5967 -96.6826 -54.9268 -132.542c-6.18066 -10.3916 -19.6152 -13.792 -30.0068 -7.61816c-10.3838 6.18066 -13.7988 19.6152 -7.61816 30.0068
c20.3008 34.1299 43.3164 72.8135 49.1689 116.028c2.55371 18.8486 1.07227 34.9102 -4.26172 46.4404c-2.88281 6.23145 -6.99121 11.1133 -11.4355 14.9951c-48.8926 -98.1123 -93.8809 -199.181 -134.797 -302.811c15.5801 -41.1641 32.2471 -89.2969 34.8594 -141.334
c2.99902 -59.627 -14.5947 -113.803 -47.0537 -144.911c-19.6807 -18.8564 -44.2949 -28.8906 -69.1934 -28.8906c-8.96094 0 -17.9443 1.29883 -26.7598 3.95508c-0.0507812 0.0146484 -0.101562 0.0361328 -0.152344 0.0507812
c-10.9971 -36.3193 -21.5342 -72.8721 -31.5752 -109.65c-2.65625 -9.72754 -11.4785 -16.127 -21.1035 -16.127c-1.9043 0 -3.8457 0.255859 -5.7793 0.78125c-11.668 3.18848 -18.542 15.2217 -15.3535 26.8896c11.041 40.4414 22.7168 80.5918 34.9111 120.472
c-14.6455 13.1426 -26.6279 30.5684 -34.3848 50.7451c-17.1045 44.4844 -14.4189 100.148 7.96973 165.438c15.9961 46.6445 34.458 78.2861 58.1084 99.5869c8.9834 8.09277 22.8262 7.37012 30.9189 -1.62012c8.09277 -8.9834 7.36328 -22.8262 -1.62012 -30.9189
c-17.8936 -16.1123 -32.5098 -41.9307 -45.9883 -81.249c-18.6953 -54.5254 -21.6357 -101.389 -8.51465 -135.533c2.38672 -6.20312 5.40039 -11.9902 8.84473 -17.3096c25.9424 81.249 54.3213 161.206 84.9551 239.77
c-0.365234 0.941406 -0.722656 1.88965 -1.08789 2.83789c-14.5293 37.7783 -29.5547 76.8408 -37.3115 119.224c-6.16602 33.6699 -12.1494 98.2441 16.9375 152.485c25.293 47.1631 67.7344 69.0986 98.8867 79.1982c29.7656 9.6543 58.3711 11.5225 84.043 5.83008
c11.4785 22.4033 23.0889 44.7109 34.9688 66.793c5.72852 10.6465 19.0098 14.6455 29.6494 8.90234c10.6465 -5.72852 14.6309 -19.002 8.90234 -29.6484c-11.2598 -20.9141 -22.2568 -42.0254 -33.1445 -63.2314c13.6533 -9.43555 24.2637 -21.6953 31.0283 -36.3047z
M200.188 -19.0342c23.0742 22.1113 35.9531 64.6914 33.6182 111.109c-1.39355 27.6426 -7.60352 54.7227 -15.4482 80.249c-25.3945 -67.6904 -49.0889 -136.395 -71.0029 -206.033c17.959 -5.30566 37.6768 0.160156 52.833 14.6748zM219.861 296.146
c36.0049 88.0713 74.9297 174.259 116.714 258.303c-15.1709 1.41602 -31.8457 -0.773438 -49.8848 -6.61816c-23.5049 -7.61816 -55.3945 -23.9131 -73.8057 -58.2402c-16.6455 -31.0283 -21.1846 -76.1914 -12.4492 -123.901
c4.37109 -23.8984 11.3184 -46.6807 19.4258 -69.543z" />
    <glyph glyph-name="percent" unicode="%" horiz-adv-x="794" 
d="M738.143 738.813c8.41406 -8.68359 8.1875 -22.542 -0.489258 -30.9629c-255.341 -247.263 -472.765 -545.957 -646.229 -887.786c-3.86035 -7.60352 -11.5586 -11.9893 -19.542 -11.9893c-3.33496 0 -6.71387 0.758789 -9.88867 2.37109
c-10.7852 5.47266 -15.0908 18.6445 -9.61816 29.4297c175.669 346.171 395.976 648.784 654.812 899.434c8.68359 8.41406 22.541 8.1875 30.9551 -0.496094zM545.573 360.088c32.918 3.50977 62.2314 -6.69531 82.5986 -28.748
c37.873 -41.0625 32.7354 -109.197 28.7725 -136.584c-13.3613 -92.2314 -64.041 -178.888 -135.562 -231.793c-14.1719 -10.4863 -33.3125 -22.8701 -55.6572 -25.5703c-2.8457 -0.342773 -5.66992 -0.510742 -8.47168 -0.510742
c-22.9795 -0.00683594 -44.1123 11.3408 -56.5176 30.8252c-11.2158 17.6162 -15.499 41.6826 -12.7256 71.5361c4.26855 45.915 21.7676 92.793 50.6064 135.57c25.7012 38.1143 56.8682 68.6904 86.5898 96.7344c8.79297 8.30469 22.6504 7.90332 30.9473 -0.897461
c8.29688 -8.79297 7.89551 -22.6504 -0.897461 -30.9473c-27.9346 -26.3652 -57.1455 -54.9785 -80.3438 -89.3779c-24.7451 -36.6982 -39.7197 -76.5195 -43.3096 -115.137c-1.82422 -19.666 0.270508 -34.8662 6.06445 -43.9658
c7.18066 -11.2891 19.2578 -10.7998 22.8047 -10.3623c12.1572 1.47363 25.0225 10.0186 34.8662 17.3018c62.334 46.1123 106.549 121.946 118.269 202.866c6.38477 44.1123 -0.197266 81.7305 -17.623 100.616c-14.4707 15.6816 -34.874 16.0684 -45.7471 14.9082
c-25.7158 -2.75098 -51.1543 -17.9219 -69.7842 -41.6387c-1.63477 -2.08008 -2.6123 -3.93359 -3.07227 -5.0791c3.57617 -10.2021 -0.868164 -21.7246 -10.7705 -26.7451c-10.7998 -5.45801 -23.957 -1.16016 -29.4297 9.625
c-7.33398 14.4629 -4.02832 32.8818 8.84375 49.2568c25.8838 32.9326 62.166 54.1172 99.5498 58.1162zM69.5098 455.877c-10.9971 5.00586 -15.8662 17.9873 -10.8525 28.9775c26.8105 58.9258 72.3389 103.914 124.901 123.435
c44.2148 16.4268 86.1748 7.10059 109.482 -24.3438c29.7734 -40.1572 18.8936 -98.499 12.8369 -121.719c-21.8408 -83.7227 -78.2051 -150.048 -147.114 -173.101c-9.61035 -3.21094 -18.79 -4.79492 -27.3057 -4.79492c-17.9297 0 -32.9619 7.00586 -43.0469 20.5645
c-15.7627 21.1914 -13.4277 50.541 -8.69141 71.4404c14.2666 62.9902 51.498 112.262 89.6045 156.119c7.9248 9.12207 21.7529 10.0996 30.8818 2.16699c9.12891 -7.9248 10.0918 -21.7529 2.16699 -30.8818c-39.7051 -45.7031 -68.5 -86.4951 -79.957 -137.073
c-4.36426 -19.2871 -2.28418 -31.0576 1.12402 -35.6328c4.03516 -5.43652 16.2656 -2.08008 21.3301 -0.379883c54.1973 18.127 100.762 74.1123 118.633 142.627c7.18066 27.5332 9.47168 64.2168 -5.64062 84.5986c-16.4189 22.1543 -46.7764 13.9375 -59.0723 9.37695
c-41.7119 -15.4922 -78.2646 -52.125 -100.288 -100.521c-5.00586 -11.0049 -17.9736 -15.8799 -28.9922 -10.8594z" />
    <glyph glyph-name="ampersand" unicode="&#x26;" horiz-adv-x="525" 
d="M406.935 359.213c-37.4795 -54.3506 -85.0576 -104.532 -145.458 -153.417c-9.45703 -7.65527 -19.0381 -15.1348 -28.6416 -22.5928c0.620117 -11.7119 1.55371 -23.4092 2.80859 -35.0488c3.47363 -32.2109 10.6104 -71.3389 25.0811 -106.118
c5.4873 5.58984 10.749 11.165 15.7549 16.6016c58.6338 63.6328 110.445 136.804 154.003 217.476c5.75 10.6465 19.0234 14.6094 29.6631 8.85938c10.6396 -5.74316 14.6025 -19.0244 8.85938 -29.6641c-45.2871 -83.876 -99.2295 -160.031 -160.323 -226.342
c-8.09277 -8.77832 -16.7842 -17.8926 -26.0664 -26.9121c4.83105 -6.68457 10.1289 -12.9023 15.9229 -18.5137c33.1807 -32.1152 80.3584 -37.8877 117.378 -14.3613c10.2021 6.49414 23.7314 3.47266 30.2188 -6.72949s3.47363 -23.7314 -6.72852 -30.2188
c-22.5703 -14.3467 -47.6221 -21.374 -72.6299 -21.374c-35.3193 0 -70.5654 14.0107 -98.6816 41.2227c-6.5459 6.32715 -12.6973 13.2891 -18.4551 20.8779c-28.3574 -22.3301 -60.75 -40.6387 -96.7334 -46.7246c-38.3115 -6.45801 -71.6533 6.37793 -89.2109 34.3848
c-13.8359 22.082 -17.4482 53.2559 -9.6543 83.3867c7.36328 28.4521 23.126 50.9355 34.3418 65.377c29.6562 38.1504 64.9238 67.2744 99.9072 94.6396c-2.29102 119.604 26.0303 240.279 80.4902 338.669c29.1016 52.5771 58.6992 84.3135 93.1426 99.8711
c27.8252 12.5732 55.7158 11.0625 76.5283 -4.1377c40.1357 -29.3281 37.3262 -92.7197 35.502 -111.452c-5.37793 -55.2773 -27.2988 -110.153 -67.0186 -167.759zM145.604 -30.5869c29.1895 4.94043 56.6143 21.2725 81.1191 41.2598
c-17.3311 35.6328 -28.9189 80.0156 -34.6113 132.782c-0.255859 2.34277 -0.49707 4.67773 -0.723633 7.02734c-24.8984 -20.4395 -48.1699 -41.8867 -68.4346 -67.9678c-14.04 -18.0684 -22.4688 -33.7871 -26.5264 -49.4688
c-4.69238 -18.1484 -2.97754 -37.4502 4.37109 -49.1699c10.873 -17.3457 32.7432 -16.499 44.8057 -14.4629zM232.253 238.481c0.561523 0.452148 1.12402 0.90625 1.68555 1.35156c57.0869 46.1992 101.886 93.3838 136.957 144.239
c35.3926 51.3291 54.8477 99.4551 59.4814 147.136c3.18848 32.8965 -3.94141 61.7725 -17.7549 71.8643c-4.21094 3.0791 -9.04883 4.18848 -13.8213 4.18848c-7.1875 0 -14.2441 -2.51074 -18.8564 -4.59766c-25.0586 -11.3184 -48.8848 -37.8662 -72.8564 -81.1689
c-45.7324 -82.6279 -71.6895 -182.266 -74.835 -283.013z" />
    <glyph glyph-name="quotesingle" unicode="'" horiz-adv-x="219" 
d="M160.729 677.837c9.4209 -7.58203 10.918 -21.3584 3.3291 -30.7861c-26.6426 -33.1299 -51.2568 -69.3535 -73.1562 -107.664c-4.03516 -7.07129 -11.4199 -11.0342 -19.0234 -11.0342c-3.68555 0 -7.41406 0.926758 -10.8438 2.88965
c-10.501 5.99805 -14.1426 19.374 -8.14453 29.8672c23.0449 40.3105 48.9648 78.4609 77.0596 113.386c7.57422 9.4209 21.3516 10.9238 30.7793 3.3418z" />
    <glyph glyph-name="quotesingle" unicode="&#x2019;" horiz-adv-x="219" 
d="M160.729 677.837c9.4209 -7.58203 10.918 -21.3584 3.3291 -30.7861c-26.6426 -33.1299 -51.2568 -69.3535 -73.1562 -107.664c-4.03516 -7.07129 -11.4199 -11.0342 -19.0234 -11.0342c-3.68555 0 -7.41406 0.926758 -10.8438 2.88965
c-10.501 5.99805 -14.1426 19.374 -8.14453 29.8672c23.0449 40.3105 48.9648 78.4609 77.0596 113.386c7.57422 9.4209 21.3516 10.9238 30.7793 3.3418z" />
    <glyph glyph-name="quotesingle" unicode="&#x2018;" horiz-adv-x="219" 
d="M160.729 677.837c9.4209 -7.58203 10.918 -21.3584 3.3291 -30.7861c-26.6426 -33.1299 -51.2568 -69.3535 -73.1562 -107.664c-4.03516 -7.07129 -11.4199 -11.0342 -19.0234 -11.0342c-3.68555 0 -7.41406 0.926758 -10.8438 2.88965
c-10.501 5.99805 -14.1426 19.374 -8.14453 29.8672c23.0449 40.3105 48.9648 78.4609 77.0596 113.386c7.57422 9.4209 21.3516 10.9238 30.7793 3.3418z" />
    <glyph glyph-name="parenleft" unicode="(" horiz-adv-x="620" 
d="M566.717 858.146c5.99121 -10.501 2.33496 -23.8721 -8.17285 -29.8701c-10.5078 -6.00586 -23.8691 -2.33496 -29.8604 8.16602c-12.8652 22.5342 -45.8564 7.75684 -52.3438 4.56055c-35.458 -17.4482 -70.5801 -50.0527 -107.381 -99.6748
c-50.374 -67.9385 -89.4443 -145.685 -121.013 -212.769c-52.4316 -111.423 -124.851 -280.947 -148.37 -465.913c-7.12207 -56.0068 -7.64746 -97.9961 -1.71484 -136.154c7.14453 -45.8779 25.1396 -85.3711 49.3672 -108.351
c32.043 -30.3711 77.958 -32.7939 111.679 -5.87402c9.44238 7.5459 23.2197 5.99121 30.7656 -3.44434c7.5459 -9.4502 5.99902 -23.2207 -3.44336 -30.7666c-23.4756 -18.7471 -51.4395 -28.0078 -79.4102 -28.0078
c-32.1299 -0.00683594 -64.2891 12.2158 -89.7129 36.3262c-31.5752 29.9414 -53.7734 77.3086 -62.501 133.389c-6.59668 42.3906 -6.12207 88.1592 1.54004 148.406c24.2998 191.11 98.4922 364.918 152.186 479.034c32.4873 69.0332 72.7979 149.188 125.463 220.213
c41.0547 55.3506 81.3652 92.2754 123.223 112.876c45.3525 22.3008 89.4209 13.3984 109.7 -22.1465z" />
    <glyph glyph-name="parenright" unicode=")" horiz-adv-x="579" 
d="M518.011 719.352c11.6758 -65.2891 13.6768 -138.788 6.29883 -231.304c-17.7256 -222.299 -76.6152 -417.575 -170.299 -564.733c-54.0811 -84.9482 -109.862 -133.425 -170.525 -148.18c-9.46484 -2.29883 -19.3672 -3.48828 -29.3496 -3.48828
c-41.96 0 -85.2627 20.9502 -102.755 67.9082c-4.21777 11.3252 1.54004 23.9277 12.873 28.1533s23.9355 -1.54688 28.1533 -12.8721c13.332 -35.7793 51.1689 -44.3389 80.7305 -37.1582c48.4619 11.7852 96.8867 55.2412 143.94 129.148
c89.8594 141.146 146.429 329.497 163.585 544.695c7.07129 88.6699 5.24707 158.615 -5.75 220.117c-4.38574 24.5049 -12.376 59.6631 -31.0576 81.8838c-11.8291 14.0615 -31.707 23.0371 -45.2285 11.9746c-9.37012 -7.64062 -23.1689 -6.25391 -30.8096 3.1084
c-7.64746 9.37012 -6.25391 23.1621 3.1084 30.8096c30.9482 25.2559 76.7021 17.6523 106.438 -17.7109c25.4316 -30.2402 35.3779 -72.9004 40.6465 -102.353z" />
    <glyph glyph-name="asterisk" unicode="*" horiz-adv-x="398" 
d="M347.278 551.688c2.08691 -11.9092 -5.87305 -23.2578 -17.7969 -25.3301c-22.877 -4.00586 -42.0908 -6.16602 -59.043 -8.07031c-25.6504 -2.88281 -41.9814 -4.97754 -53.7666 -10.1729c7.35547 -47.8926 11.0703 -118.509 7.20312 -154.207
c-1.21875 -11.2158 -10.7129 -19.5352 -21.7393 -19.5352c-0.788086 0 -1.58398 0.0439453 -2.38672 0.131836c-12.0186 1.30664 -20.71 12.1064 -19.4033 24.125c2.68555 24.7822 1.01465 71.4854 -3.04297 111.592c-25.417 -38.2891 -57.6562 -76.4326 -89.0059 -97.084
c-3.70703 -2.44434 -7.88867 -3.61914 -12.0186 -3.61914c-7.11523 0 -14.0986 3.46582 -18.3018 9.85059c-6.65527 10.0918 -3.86816 23.6719 6.23145 30.3193c33.0791 21.8047 70.5801 71.2002 95.165 114.89c-63.7275 19.0967 -79.6064 19.2861 -83.0869 18.8047
c-11.7998 -2.45898 -23.3369 5.11523 -25.8184 16.9443s5.19531 23.4609 17.0312 25.9424c16.4697 3.45898 48.9141 -2.80957 110.38 -21.5273c0.445312 0.313477 0.890625 0.554688 1.33594 0.832031c13.4561 34.1953 16.499 64.4502 17.6152 113.087
c0.277344 12.0918 10.2676 21.6807 22.3887 21.3818c12.084 -0.277344 21.6582 -10.2969 21.3809 -22.3887c-1.16016 -50.6436 -4.5459 -84.7295 -18.3447 -122.113c12.9453 2.81641 27.2627 4.44336 43.3018 6.24609c16.3242 1.83887 34.8301 3.91895 56.3789 7.69141
c11.9453 2.09473 23.2559 -5.88086 25.3428 -17.79z" />
    <glyph glyph-name="plus" unicode="+" horiz-adv-x="317" 
d="M246.639 302.286c12.041 -1.05859 20.9473 -11.6826 19.8965 -23.709c-1.05762 -12.0479 -11.6533 -21.0234 -23.7227 -19.8926c-22.7461 1.99902 -45.5645 2.53906 -68.3613 1.78027c-13.4932 -61.7646 -24.4316 -124.42 -32.4004 -187.775
c-1.39355 -11.0703 -10.8213 -19.1631 -21.6943 -19.1631c-0.912109 0 -1.83203 0.0585938 -2.75879 0.175781c-11.9971 1.51074 -20.498 12.457 -18.9873 24.4541c7.58887 60.3057 17.7832 120.013 30.2832 178.938c-17.5791 -1.99902 -35.0996 -4.72852 -52.5107 -8.37012
c-1.51074 -0.313477 -3.01367 -0.466797 -4.50195 -0.466797c-10.1504 0 -19.25 7.08594 -21.4102 17.4121c-2.48145 11.8359 5.10742 23.4385 16.9434 25.9121c23.6582 4.94727 47.5137 8.42773 71.4414 10.5654c16.8496 71.7471 37.2969 142.166 61.2832 210.746
c3.77246 10.793 14.1641 22.374 28.0947 22.374h0.167969c10.5371 -0.0732422 19.5713 -6.79395 23.0303 -17.127c3.69238 -11.0479 -1.91895 -22.9717 -12.5947 -27.2549c-20.9795 -60.7725 -39.0039 -123.062 -54.2842 -186.389
c20.71 0.291992 41.4268 -0.393555 62.0859 -2.21094z" />
    <glyph glyph-name="comma" unicode="," horiz-adv-x="252" 
d="M190.813 17.6172c10.4355 -6.10742 13.9434 -19.5195 7.84277 -29.9404c-34.3408 -58.6855 -70.9004 -116.48 -108.686 -171.794c-4.23926 -6.20312 -11.1064 -9.54492 -18.0977 -9.54492c-4.24707 0 -8.54492 1.2334 -12.3252 3.81641
c-9.98242 6.81543 -12.5508 20.4395 -5.72754 30.4219c37.2021 54.4678 73.2217 111.401 107.045 169.203c6.10059 10.4355 19.498 13.9531 29.9482 7.83789z" />
    <glyph glyph-name="hyphen" unicode="-" horiz-adv-x="356" 
d="M283.991 303.352c12.0918 -0.174805 21.7441 -10.1152 21.5693 -22.207c-0.174805 -11.9824 -9.93848 -21.5781 -21.8838 -21.5781h-0.321289c-69.5947 1 -140.123 -1.51758 -209.594 -7.48633c-0.634766 -0.0585938 -1.26953 -0.0800781 -1.89746 -0.0800781
c-11.2383 0 -20.8047 8.61133 -21.7822 20.0166c-1.03613 12.0479 7.88867 22.6514 19.9365 23.6875c70.916 6.10059 142.904 8.67676 213.973 7.64746z" />
    <glyph glyph-name="period" unicode="." horiz-adv-x="151" 
d="M82.21 -18.125c11.9453 -1.85352 20.1318 -13.0342 18.2715 -24.9795l-6.96191 -44.8711c-1.6709 -10.8145 -10.9893 -18.542 -21.5996 -18.542c-1.11621 0 -2.24707 0.0878906 -3.38574 0.262695c-11.9453 1.85352 -20.126 13.0332 -18.2725 24.9863l6.96191 44.8711
c1.84668 11.9531 13.0117 20.1553 24.9863 18.2725z" />
    <glyph glyph-name="slash" unicode="/" horiz-adv-x="608" 
d="M547.186 840.728c10.2969 -6.32715 13.5146 -19.8125 7.1875 -30.1094c-179.813 -292.572 -335.254 -610.138 -462.009 -943.882c-3.32031 -8.74902 -11.6396 -14.127 -20.4697 -14.127c-2.58301 0 -5.20312 0.459961 -7.76465 1.43066
c-11.3105 4.29785 -16.9883 16.9365 -12.6973 28.2402c127.732 336.306 284.399 656.353 465.644 951.26c6.32715 10.3037 19.8125 13.5215 30.1094 7.1875z" />
    <glyph glyph-name="zero" unicode="0" horiz-adv-x="507" 
d="M379.359 606.995c18.6885 -10.4131 34.7256 -29.2031 47.6709 -55.8604c20.7832 -42.7549 30.5254 -96.6455 29.7812 -164.752c-0.882812 -81.0518 -15.4482 -162.942 -42.127 -236.82c-12.1211 -33.5605 -26.5332 -64.8154 -42.8281 -92.918
c-21.1768 -36.5234 -45.543 -67.6973 -72.4121 -92.6611c-34.6553 -32.1885 -69.7842 -49.9502 -104.41 -52.7959c-2.88965 -0.241211 -5.7793 -0.358398 -8.6543 -0.358398c-38.5879 0 -75.2061 21.1914 -99.2949 57.9404
c-103.593 158.038 31.1162 495.824 143.612 601.497c28.7666 27.0879 61.043 43.2373 93.3115 46.6816c20.8486 2.24805 39.4863 -1.11621 55.3506 -9.95312zM373.504 164.435c25.0303 69.3105 38.6973 146.224 39.5215 222.423
c0.664062 61.1592 -7.63281 108.636 -25.373 145.145c-8.83008 18.1699 -19.0684 30.875 -29.6133 36.749c-6.07129 3.37891 -13.3975 5.0791 -21.8623 5.0791c-2.42285 0 -4.93359 -0.138672 -7.53125 -0.416016c-22.6943 -2.42285 -46.1914 -14.5361 -67.9668 -35.042
c-109.737 -103.09 -220.868 -417.62 -136.978 -545.601c16.9443 -25.8545 42.2949 -40.0625 67.7412 -37.9531c24.6064 2.02148 50.9131 15.8936 78.1904 41.2373c23.6875 22.0088 45.3389 49.7822 64.3408 82.5547c14.9961 25.8398 28.292 54.7158 39.5303 85.8242z" />
    <glyph glyph-name="one" unicode="1" horiz-adv-x="420" 
d="M346.86 617.467c22.7168 -19.9727 24.8154 -55.3115 22.582 -81.4434c-3.0791 -36.0127 -11.7627 -69.6973 -23.8613 -109.198c-19.6807 -64.2676 -42.9082 -127.74 -65.377 -189.125c-35.4502 -96.8652 -72.1045 -197.028 -94.7559 -300.738
c-0.422852 -1.94141 -1.15234 -3.71484 -2.02832 -5.39355c29.4736 -1.04395 59.7646 -0.985352 68.8135 3.39258c8.89551 7.37793 22.1113 6.59668 30.0508 -1.99219c8.20996 -8.88086 7.66309 -22.7314 -1.21094 -30.9414
c-11.6826 -10.793 -32.8672 -14.7559 -70.9736 -14.7559c-20.2578 0 -45.2949 1.11621 -76.2354 2.91895c-20.2061 1.18262 -45.0459 2.63477 -53.2188 1.86133c-8.03418 -3.50977 -17.7324 -1.95508 -24.2852 4.6416c-8.52344 8.58203 -8.47266 22.4395 0.101562 30.9629
c10.0264 9.96094 22.5264 9.5957 79.9561 6.24609c2.27637 -0.131836 4.75 -0.277344 7.33301 -0.422852c-1.57617 3.93359 -2.04297 8.37012 -1.07227 12.8213c23.2861 106.621 60.4658 208.207 96.4199 306.443c22.2646 60.8457 45.2949 123.756 64.626 186.899
c11.2812 36.8301 19.3525 67.9463 22.0967 100.105c2.22559 26.0371 -2.8457 40.4346 -7.86621 44.8496c-4.10156 3.60449 -11.9385 2.38574 -17.7832 0.72168c-15.2588 -4.3125 -31.2842 -13.8721 -50.4326 -30.0791c-29.875 -25.2852 -56.0361 -56.5547 -77.7754 -92.9316
c-7.67676 -12.8652 -14.8721 -26.7666 -15.4336 -41.2148c-0.466797 -12.084 -10.6104 -21.6289 -22.7236 -21.0234c-12.084 0.466797 -21.4902 10.6396 -21.0234 22.7236c0.941406 24.3291 11.4424 44.9736 21.5928 61.9688
c24.2129 40.5225 53.5049 75.4766 87.0723 103.893c24.0889 20.3887 45.3164 32.7139 66.7998 38.7852c29.5469 8.37012 48.1846 -0.80957 58.6123 -9.97461z" />
    <glyph glyph-name="two" unicode="2" horiz-adv-x="534" 
d="M402.495 622.845c30.0361 -9.57422 55.9531 -38.7988 69.3145 -78.1533c9.74902 -28.6787 13.4922 -61.8164 11.792 -104.294c-3.19629 -79.7891 -22.9717 -161.854 -58.7939 -243.92c-36.457 -83.5254 -86.5244 -159.235 -145.305 -219.92
c10.793 -1.59082 22.0381 -3.27637 33.7432 -5.06445c51.8623 -7.90332 122.902 -18.7256 136.979 -14.2812c11.4492 3.60449 23.877 -2.59082 27.6055 -13.9961c3.73633 -11.4053 -2.19629 -23.6211 -13.5654 -27.4736
c-22.3955 -7.58887 -71.959 -0.583008 -157.607 12.4717c-19.2793 2.93359 -43.3242 6.60449 -68.2812 9.99023c-15.9521 -13.0332 -34.7285 -25.9863 -55.3799 -35.0352c-19.9287 -8.73535 -40.1934 -13.1211 -59.6914 -13.1211
c-16.7178 0 -32.8594 3.21777 -47.7607 9.68359c-3.99121 1.73633 -14.5947 6.33398 -20.8633 17.8125c-4.88184 8.9541 -8.41406 24.3438 2.48047 46.8418c15.0029 31.0283 64.873 32.9404 167.452 19.8057c4.27637 3.88965 8.64746 8.02734 13.1357 12.4346
c59.6191 58.5615 110.431 133.725 146.939 217.367c33.6406 77.0596 52.1982 153.82 55.1758 228.158c1.48145 36.9248 -1.54004 65.0342 -9.49414 88.4443c-8.79297 25.8691 -24.5771 45.2285 -41.1855 50.5264c-30.4443 9.74902 -65.2598 -27.248 -78.7959 -43.5938
c-38.7637 -46.8047 -60.043 -99.623 -59.9043 -148.727v-0.0722656c4.6123 -3.03613 8.08594 -7.80176 9.35547 -13.6104c2.58301 -11.8066 -4.89648 -23.4824 -16.7031 -26.0654c-7.99805 -1.75879 -16.2734 0.211914 -22.7168 5.37891
c-12.6758 10.1797 -13.7051 28.7881 -13.7197 34.2539c-0.211914 76.0312 37.9316 138.103 69.9668 176.778c41.2012 49.7461 85.8896 70.1279 125.828 57.3799zM165.438 -56.7256c1.94141 0.84668 3.89062 1.75 5.84668 2.71289
c-35.7939 3.16016 -65.5527 3.57617 -75.4697 -2.3418c-0.758789 -1.72949 -1.24805 -3.16699 -1.55469 -4.2832c20.7461 -8.51562 45.958 -7.14355 71.1777 3.91211z" />
    <glyph glyph-name="three" unicode="3" horiz-adv-x="505" 
d="M367.85 601.485c34.4434 -0.962891 63.2666 -18.001 77.0879 -45.5771c10.2676 -20.4834 12.5518 -47.3525 6.26172 -73.6963c-5.84473 -24.4756 -17.6152 -44.4775 -27.2109 -59.167c-23.4902 -35.9463 -52.5479 -66.5947 -84.9336 -90.0771
c10.2822 -4.86035 20.0684 -11.333 29.0371 -19.3379c29.3281 -26.1973 48.5859 -68.252 51.5264 -112.496c1.92676 -29.0293 -2.62695 -60.1016 -13.9229 -94.9971c-37.1797 -114.86 -125.273 -199.809 -224.423 -216.417
c-9.9248 -1.66406 -19.2656 -2.49609 -28.0879 -2.49609c-13.8721 0 -26.4678 2.05762 -38.0703 6.19531c-25.0811 8.94629 -45.5205 28.2041 -56.0947 52.833c-18.5713 43.2734 -4.3125 91.6035 5.83789 116.561c24.2637 59.6699 67.8291 105.556 119.517 125.894
c38.4785 15.1348 73.8271 9.94629 97.0107 -14.2373c8.37012 -8.73535 8.07812 -22.5928 -0.649414 -30.9551c-8.73535 -8.37012 -22.5928 -8.07812 -30.9551 0.649414c-14.0693 14.6748 -36.9756 8.67676 -49.374 3.79492
c-39.9971 -15.7402 -75.5137 -53.7373 -94.998 -101.645c-12.8945 -31.6992 -15.1348 -61.874 -6.15918 -82.7959c5.78711 -13.4785 16.9229 -23.9941 30.5693 -28.8613c11.9316 -4.26172 25.9795 -4.82324 44.2158 -1.75879
c81.9414 13.7188 158.294 88.7568 190.008 186.709c9.55176 29.5107 13.4336 55.2266 11.8867 78.6143c-2.16699 32.5752 -16.3457 64.2822 -37.0049 82.7373c-19.2725 17.2148 -44.1348 23.1475 -66.501 15.8867c-11.3105 -3.67773 -23.4678 2.34277 -27.416 13.5518
c-3.94043 11.2158 1.78027 23.5264 12.8945 27.7373c49.9795 18.9512 95.9531 57.6123 129.44 108.854c11.377 17.4111 17.9375 31.4072 21.2725 45.3818c3.875 16.2363 2.82422 32.6553 -2.81641 43.9082c-8.99805 17.9512 -28.4092 21.1396 -39.1797 21.4385
c-49.6221 1.6709 -99.499 -45.9883 -114.123 -107.855c-2.77344 -11.7637 -14.5879 -19.0684 -26.3369 -16.2666c-11.7637 2.77344 -19.0469 14.5732 -16.2666 26.3369c19.542 82.6865 87.5166 143.327 157.958 141.554z" />
    <glyph glyph-name="four" unicode="4" horiz-adv-x="524" 
d="M459.733 626.844c11.2959 -4.3125 16.9521 -16.9629 12.6396 -28.2588c-85.1602 -223.036 -162.541 -453.975 -229.983 -686.409c-2.78027 -9.57422 -11.5225 -15.7988 -21.0166 -15.7988c-2.01367 0 -4.07129 0.28418 -6.10742 0.875
c-11.6104 3.37109 -18.2871 15.5137 -14.9229 27.124c35.3486 121.844 73.4844 243.242 113.963 363.356c-43.1562 -5.23242 -188.301 -46.1562 -224.627 -59.1602c-2.62012 -1.91211 -4.91895 -3.29883 -6.8457 -4.1084
c-3.32715 -1.40137 -6.76465 -2.09473 -10.1289 -2.09473c-4.23242 0 -8.34766 1.10156 -11.9961 3.2832c-9.38477 5.61133 -13.252 17.4912 -8.96875 27.5469c1.9707 4.63379 3.45215 8.12207 16.5869 13.8281c37.8877 32.459 215.213 264.244 233.96 342.522
c2.81641 11.7559 14.6377 19.002 26.3867 16.1924c11.7637 -2.81641 19.0098 -14.6309 16.1934 -26.3867c-15.3828 -64.2529 -119.858 -216.541 -193.984 -306.27c10.4277 2.91211 22.001 6.09375 34.8447 9.58203c107.074 29.0576 133.644 30.4512 143.561 29.0283
c32.6406 95.208 66.6973 189.57 102.185 282.509c4.3125 11.2891 16.9658 16.9443 28.2617 12.6387z" />
    <glyph glyph-name="five" unicode="5" horiz-adv-x="590" 
d="M504.507 585.366c8.17285 6.20312 19.8574 5.96484 27.8047 -1.14258c9.01953 -8.05664 9.79297 -21.8994 1.73633 -30.9111c-14.3975 -16.1055 -54.9268 -19.5283 -255.086 -21.5273c-6.16602 -0.0585938 -12.4785 -0.124023 -18.835 -0.189453l-105.563 -184.98
c7.85938 0.37207 15.9814 1.50293 24.373 2.67773c7.68457 1.07227 15.624 2.18164 23.7969 2.78711c47.5645 3.56152 93.1289 -11.1719 128.272 -41.4629c38.4785 -33.1592 63.3184 -84.8896 66.4561 -138.379c2.96973 -50.5703 -13.2744 -104.221 -44.5723 -147.202
c-25.3145 -34.75 -59.5391 -62.7715 -104.651 -85.6631c-20.5273 -10.4131 -51.2783 -24.001 -84.5107 -24.001c-1.29883 0 -2.59766 0.0146484 -3.9043 0.0585938c-36.2461 1.18262 -69.3975 19.8926 -88.6768 50.0527c-21.0967 33.0059 -26.8252 81.1465 -15.3027 128.776
c9.8877 40.9092 29.8164 75.4326 49.3877 107.293c6.32715 10.3037 19.8125 13.5215 30.1094 7.19434c10.3037 -6.32715 13.5215 -19.8057 7.19434 -30.1094c-17.7324 -28.876 -35.75 -59.9697 -44.1348 -94.6689c-8.63965 -35.7354 -4.9541 -72.0977 9.63281 -94.9092
c11.6758 -18.2656 31.0723 -29.1455 53.2129 -29.8682c18.791 -0.657227 40.1211 5.49414 67.1797 19.2207c38.793 19.6807 67.9238 43.3604 89.0645 72.3896c25.4316 34.918 38.6543 78.2422 36.2676 118.859c-2.42285 41.2812 -22.0967 82.5771 -51.3369 107.782
c-26.2773 22.6514 -60.4658 33.6416 -96.4268 30.9639c-6.77148 -0.503906 -13.6895 -1.4668 -21.0088 -2.48828c-16.6084 -2.31348 -33.7861 -4.70703 -52.1318 -2.18262c-11.2891 1.55469 -19.5566 6.66309 -24.5771 15.1787
c-4.6123 7.85156 -7.85938 21.1543 2.88965 39.9814l98.1934 172.057c-49.2061 -0.78125 -93.9385 -2.13086 -108.584 -5.11523c-3.24707 -2.60547 -7.28223 -4.31348 -11.7412 -4.70801c-0.657227 -0.0585938 -1.31445 -0.0878906 -1.95703 -0.0878906
c-11.2236 0 -20.7754 8.57422 -21.7822 19.9658c-0.569336 6.43652 1.62695 12.9092 6.02734 17.7617c10.4209 11.501 25.001 14.5 163.205 16.3027l2.10156 3.67773c5.99121 10.501 19.3604 14.1719 29.8613 8.16602c4.62695 -2.63477 7.83008 -6.74316 9.55957 -11.3701
c0.838867 0.0146484 1.62695 0.0214844 2.47363 0.0283203c81.5332 0.80957 204.062 2.03516 225.983 9.79199z" />
    <glyph glyph-name="six" unicode="6" horiz-adv-x="458" 
d="M373.981 608.929c8.77832 5.95508 20.5811 4.7373 27.9736 -2.89551c7.39258 -7.62598 8.24609 -19.4473 2.02832 -28.0586l-7.61816 -10.5518c-3.83105 -5.29785 -9.58105 -8.37012 -15.6084 -8.96094c-11.4492 -10.4785 -22.1768 -22.6729 -32.3789 -34.5967
c-46.4111 -54.2119 -91.0713 -113.926 -132.746 -177.471c-28.9922 -44.207 -63.8516 -101.017 -90.21 -166.021c29.5762 7.5459 57.7295 7.53125 62.5752 7.50977c29.6494 -0.357422 56.3281 -13.2959 73.1992 -35.502c9.48633 -12.4932 16.3604 -28.1826 20.418 -46.6377
c8.06348 -36.7061 3.13086 -77.2285 -13.5439 -111.161c-16.1348 -32.8232 -42.2451 -57.9697 -73.5215 -70.7988c-13.6318 -5.60449 -27.5918 -8.36328 -41.1211 -8.36328c-20.3154 0 -39.6611 6.22461 -55.5039 18.4111
c-27.4668 21.1406 -45.2725 60.8086 -47.6367 106.11c-2.24023 43.1416 9.16504 84.1895 17.9365 111.313c28.4014 87.8018 74.1338 163.234 110.796 219.146c42.6963 65.0996 88.4873 126.31 136.095 181.938c17.2578 20.1621 36.0264 41.1416 58.8672 56.5898z
M187.472 144.097c-22.666 0.328125 -61.415 -4.56836 -81.417 -18.6963c-9.46484 -32.2109 -13.3037 -58.8896 -12.041 -83.1826c1.64941 -31.7217 13.668 -60.6406 30.6123 -73.6807c19.9951 -15.375 43.9453 -8.0918 53.3076 -4.24609
c21.0674 8.63965 39.6025 26.7227 50.8477 49.5996c12.2012 24.8252 15.9668 55.6494 10.0703 82.4521c-2.6416 12.041 -6.96875 22.25 -12.5146 29.5469c-11.8359 15.5801 -29.4297 18.0977 -38.8652 18.207z" />
    <glyph glyph-name="seven" unicode="7" horiz-adv-x="389" 
d="M303.359 218.908c-21.2129 0.868164 -45.5176 1.84082 -70.2188 1.84082c-42.3906 -124.412 -86.3428 -255.202 -90.998 -293.375c-1.34961 -11.0996 -10.792 -19.2432 -21.7012 -19.2432c-0.882812 0 -1.77344 0.0507812 -2.67871 0.160156
c-12.0039 1.45996 -20.5488 12.377 -19.082 24.3809c4.99902 41.0186 43.5293 156.798 87.6855 286.53c-22.0381 -1.59766 -43.0469 -4.59668 -60.9912 -9.91602c-2.07227 -0.613281 -4.16699 -0.912109 -6.23242 -0.912109c-9.44238 0 -18.1553 6.15918 -20.9795 15.6748
c-3.4375 11.5879 3.17383 23.7744 14.7695 27.2119c26.4385 7.83691 57.3867 11.332 88.6631 12.624c0.393555 1.15332 0.780273 2.29199 1.1748 3.44531c36.8154 107.892 81.665 239.339 90.6338 282.379c-17.791 1.72949 -51.8984 0.722656 -80.4746 -0.124023
c-45.6738 -1.34961 -97.4336 -2.875 -143.159 1.57617c-12.0332 1.16797 -20.8408 11.873 -19.666 23.9062c1.16797 12.0332 11.873 20.8779 23.9062 19.667c42.9521 -4.18164 93.2451 -2.69336 137.628 -1.38672c70.5068 2.08008 102.33 2.4375 118.136 -10.7266
c17.6963 -14.7402 17.9375 -25.7734 -81.7373 -318.186c20.2139 -0.277344 39.6611 -1.06543 57.124 -1.78027l4.1084 -0.167969c12.0771 -0.496094 21.4766 -10.6904 20.9805 -22.7676s-10.5518 -21.4395 -22.7676 -20.9795z" />
    <glyph glyph-name="eight" unicode="8" horiz-adv-x="449" 
d="M50.3105 36.6426c-1.33496 21.4326 1.61328 44.21 9.27539 71.6768c20.6807 74.1992 60.6484 142.94 110.767 191.169c-11.6973 27.7812 -21.3008 59.999 -21.7383 94.6836c-0.445312 34.7285 8.49414 70.7627 25.8545 104.206
c28.3281 54.584 74.2432 90.3916 122.807 95.7988c29.9482 3.33496 57.6055 -5.92578 75.834 -25.4238c16.2217 -17.3535 25.5039 -43.6826 25.4531 -72.2373c-0.0507812 -27.1025 -8.09961 -52.1396 -14.1562 -68.6094
c-26.6357 -72.4482 -67.9902 -131.601 -133.134 -189.942c11.9453 -21.8408 23.6572 -44.5068 32.6113 -69.0117c18.623 -50.9648 20.4697 -101.083 5.21094 -141.109c-19.8047 -51.9424 -69.2373 -88.1885 -125.945 -92.3408
c-3.42285 -0.248047 -6.79395 -0.37207 -10.1211 -0.37207c-30.1963 0 -56.2842 10.2305 -74.2354 29.2988c-16.5654 17.5938 -26.6797 43.2363 -28.4824 72.2139zM213.326 478.207c-14.0479 -27.0654 -21.2842 -55.9326 -20.9268 -83.4805
c0.416016 -32.7217 11.4785 -64.0713 23.7158 -90.4365c0.357422 -0.678711 0.678711 -1.36426 0.962891 -2.06445c3.0791 -6.53809 6.22461 -12.7705 9.27441 -18.6152c1.07227 -2.05762 2.15234 -4.1084 3.24707 -6.15918c55.2188 51.125 90.7129 103.009 113.707 165.562
c7.80078 21.2129 11.4424 38.2373 11.4717 53.5762c0.0292969 17.2871 -5.07129 33.0928 -13.6533 42.2656c-12.3467 13.2012 -31.4004 12.6543 -39.0039 11.8076c-33.5098 -3.72852 -67.5303 -31.4951 -88.7949 -72.4551zM101.76 96.5576
c-6.30469 -22.6143 -8.77148 -40.7832 -7.74219 -57.1953c1.15332 -18.5205 7.22461 -34.8887 16.6602 -44.915c14.4707 -15.3535 37.1074 -16.1631 49.2871 -15.2656c32.626 2.38574 72.5645 23.1836 88.2246 64.2676c15.5283 40.7188 3.26855 86.6992 -5.42285 110.488
c-9.79297 26.7959 -23.417 51.3877 -37.8438 77.4102c-4.8457 8.74219 -9.69141 17.4912 -14.3906 26.3213c-39.8359 -42.1494 -71.5723 -99.3975 -88.7725 -161.111z" />
    <glyph glyph-name="nine" unicode="9" horiz-adv-x="483" 
d="M122.438 106.332c-10.1582 -17.5059 -22.3936 -40.875 -26.9326 -66.4082c-4.22559 -23.8691 -0.701172 -47.7969 9.19434 -62.4502c14.7695 -21.8633 42.0254 -21.4111 62.5967 -13.7197c36.1436 13.5215 70.9961 47.5342 106.556 103.979
c55.1973 87.6191 92.7275 192.205 108.541 302.438c6.66992 46.4912 8.5166 87.7871 5.56152 125.427c-4.80176 -8.34082 -9.34766 -17.2871 -14.0322 -26.5107l-2.75098 -5.40723c-52.3799 -102.63 -104.104 -171.67 -162.774 -217.278
c-24.7451 -19.2432 -46.3457 -30.3574 -67.9746 -34.9697c-25.373 -5.42188 -47.5352 0.525391 -62.4072 16.7549c-13.3906 14.6162 -20.1191 38.0186 -17.9883 62.6182c1.74414 20.0967 8.4873 37.7637 15.5078 53.8691c28.8096 66.0625 69.7627 123.105 118.421 164.948
c37.5088 32.2617 74.9951 50.9062 111.416 55.4092c26.4238 3.28418 49.1475 -3.79395 64.0264 -19.2793c5.74316 6.39258 14.2305 13.0479 25.1914 14.0479c8.0127 0.729492 15.792 -1.80957 21.8857 -7.17285c9.66211 -8.50098 11.377 -20.7236 12.2012 -26.5977
c6.75781 -48.1914 5.80176 -101.199 -2.92578 -162.073c-16.6816 -116.275 -56.3867 -226.779 -114.831 -319.565c-40.8574 -64.8516 -82.8096 -104.644 -128.265 -121.646c-13.7852 -5.15918 -27.5186 -7.66211 -40.625 -7.66211
c-30.123 -0.00683594 -56.9404 13.2305 -73.5928 37.8809c-16.2588 24.0742 -22.25 59.4297 -16.0254 94.5879c5.7207 32.3057 20.1914 60.123 32.1592 80.7529c6.06445 10.457 19.4697 14.0107 29.9199 7.94629c10.457 -6.06445 14.0186 -19.4619 7.94727 -29.9189z
M334.888 488.921c2.91211 5.7207 5.84863 11.5029 8.90625 17.2461c-0.985352 1.26953 -1.84668 2.65625 -2.55469 4.17383c-4.44434 9.50098 -14.8359 11.6904 -23.4473 11.6904c-2.58301 0 -4.99805 -0.197266 -7.04883 -0.453125
c-27.7012 -3.42969 -57.3867 -18.6152 -88.2402 -45.1484c-43.7041 -37.5811 -80.6436 -89.1953 -106.834 -149.26c-5.53125 -12.6904 -10.8223 -26.3369 -12.0186 -40.1436c-1.04395 -12.0186 1.62695 -23.7822 6.64746 -29.2549
c5.07129 -5.52441 14.208 -4.96973 20.9795 -3.51758c14.9375 3.18848 30.9043 11.6748 50.2422 26.7148c53.4238 41.5293 101.294 105.914 150.653 202.618z" />
    <glyph glyph-name="colon" unicode=":" horiz-adv-x="255" 
d="M195.769 444.197c10.0342 -6.75 12.6973 -20.3447 5.94727 -30.3857l-35.2314 -52.4023c-4.22559 -6.29004 -11.1357 -9.68359 -18.1846 -9.68359c-4.19629 0 -8.44336 1.21094 -12.1943 3.72852c-10.0342 6.75 -12.6973 20.3525 -5.94727 30.3867l35.2314 52.4023
c6.74316 10.0264 20.3379 12.7041 30.3789 5.9541zM123.474 110.242c10.209 -6.47266 13.2461 -19.9951 6.78027 -30.2109c-12.7559 -20.1338 -26.7373 -39.3408 -41.5586 -57.0732c-4.32715 -5.18848 -10.5518 -7.85938 -16.8125 -7.85938
c-4.94727 0 -9.92383 1.6709 -14.0254 5.09375c-9.28223 7.75684 -10.5156 21.5635 -2.75879 30.8389c13.5879 16.2734 26.4385 33.9111 38.165 52.4316c6.47266 10.209 19.9941 13.252 30.21 6.7793z" />
    <glyph glyph-name="semicolon" unicode=";" horiz-adv-x="364" 
d="M302.033 457.479c10.749 -5.5459 14.958 -18.7461 9.41211 -29.4951c-9.9248 -19.2354 -19.3018 -39.2666 -27.8838 -59.5391c-3.53223 -8.35547 -11.6396 -13.376 -20.1699 -13.376c-2.8457 0 -5.73535 0.561523 -8.52246 1.73633
c-11.1357 4.71387 -16.3457 17.5576 -11.6318 28.6934c9.0127 21.3008 18.8643 42.3467 29.2998 62.5674c5.55371 10.7412 18.7256 14.959 29.4961 9.41309zM205.05 104.901c10.6904 -5.65527 14.7637 -18.9004 9.11523 -29.584
c-34.7422 -65.6318 -77.4463 -123.572 -126.915 -172.217c-4.26172 -4.18848 -9.80762 -6.2832 -15.3535 -6.2832c-5.66992 0 -11.3252 2.18164 -15.6162 6.5459c-8.47266 8.61816 -8.36328 22.4756 0.261719 30.9551c46.2725 45.4844 86.2764 99.8203 118.917 161.476
c5.65527 10.6836 18.9004 14.7705 29.5908 9.10742z" />
    <glyph glyph-name="less" unicode="&#x3c;" horiz-adv-x="395" 
d="M335.834 457.377c9.85156 -7.0127 12.1504 -20.6777 5.1377 -30.5361c-63.8223 -89.5898 -150.223 -144.604 -230.559 -191.213c35.9248 -23.5557 79.957 -30.7432 131.826 -37.0996c11.9971 -1.4668 20.5352 -12.3838 19.0684 -24.3877
c-1.35742 -11.0996 -10.7998 -19.2363 -21.7021 -19.2363c-0.890625 0 -1.78125 0.0507812 -2.68652 0.167969c-56.6201 6.93262 -127.076 15.5576 -180.391 68.0547c-4.875 4.80859 -7.22461 11.6172 -6.34863 18.4111c0.882812 6.78613 4.88867 12.7773 10.8291 16.1855
c83.7373 47.9873 178.646 102.374 244.293 194.524c7.0127 9.84375 20.6807 12.1494 30.5322 5.12891z" />
    <glyph glyph-name="equal" unicode="=" horiz-adv-x="554" 
d="M108.507 325.44c-10.3398 0 -19.5371 7.35645 -21.5 17.8789c-2.21875 11.8799 5.61816 23.3145 17.5059 25.5332c117.735 21.958 237.675 28.4453 356.482 19.3232c12.0557 -0.926758 21.0752 -11.4492 20.1484 -23.5049s-11.5439 -21.0684 -23.5039 -20.1484
c-114.999 8.84473 -231.1 2.54688 -345.099 -18.71c-1.34961 -0.248047 -2.69922 -0.37207 -4.03418 -0.37207zM484.828 252.592c11.9824 -1.6123 20.3838 -12.6309 18.7715 -24.6279c-1.62012 -11.9824 -12.6104 -20.3594 -24.6221 -18.7686
c-134.104 18.0898 -269.55 13.1055 -402.588 -14.7852c-1.51758 -0.313477 -3.02832 -0.466797 -4.5166 -0.466797c-10.1436 0 -19.2432 7.08594 -21.4033 17.4043c-2.48145 11.8359 5.09277 23.4385 16.9287 25.9199c137.941 28.9189 278.371 34.0781 417.43 15.3242z" />
    <glyph glyph-name="greater" unicode="&#x3e;" horiz-adv-x="414" 
d="M344.504 272.732c19.6738 -14.1865 20.4219 -30.498 19.1299 -38.9854c-1.93359 -12.6025 -10.3838 -20.4473 -13.5654 -23.3955c-17.8711 -16.5791 -37.501 -28.4668 -56.0801 -39.2227c-69.208 -40.0625 -141.35 -74.1777 -214.439 -101.404
c-2.51758 -0.933594 -5.09375 -1.37891 -7.64062 -1.37891c-8.88086 0 -17.2363 5.44336 -20.5205 14.2588c-4.21777 11.333 1.54688 23.9355 12.8799 28.1611c70.791 26.3652 140.699 59.4297 207.783 98.2666c14.9883 8.67676 30.6631 18.1123 44.3525 29.9561
c-17.083 11.8584 -36.0635 20.7607 -56.0947 30.1602c-38.5156 18.0605 -78.3301 36.7422 -106.812 78.1475c-6.85938 9.96094 -4.33496 23.5928 5.62598 30.4453c9.96777 6.85938 23.5996 4.33496 30.4443 -5.62598c21.7529 -31.627 54.5762 -47.0166 89.3262 -63.3193
c21.9141 -10.2822 44.5723 -20.9072 65.6104 -36.0635z" />
    <glyph glyph-name="question" unicode="?" horiz-adv-x="510" 
d="M448.417 719.314c11.7783 -24.5557 14.5078 -56.3984 8.12305 -94.6582c-10.7051 -64.0781 -39.1865 -119.837 -62.8008 -161.257c-29.4082 -51.585 -62.7861 -100.558 -95.0547 -147.917c-59.3125 -87.0352 -115.334 -169.239 -151.317 -269.038
c-3.21777 -8.91699 -11.624 -14.4707 -20.5928 -14.4707c-2.4668 0 -4.97754 0.422852 -7.42969 1.30566c-11.377 4.10156 -17.2734 16.6455 -13.1719 28.0225c37.8662 105.016 98.0908 193.387 156.323 278.846c31.7871 46.6445 64.6621 94.8877 93.209 144.947
c21.8193 38.2676 48.082 89.5312 57.6484 146.786c4.875 29.1816 3.39355 52.2266 -4.41504 68.4922c-7.14453 14.9014 -20.7764 25.125 -36.458 27.3506c-14.1787 2.00684 -30.3496 -1.69336 -49.4609 -11.3115c-33.7939 -17.0244 -63.5742 -45.3896 -86.1152 -82.0293
c-11.0039 -17.8711 -17.4551 -33.3711 -20.3086 -48.79c-3.22559 -17.4404 -1.2334 -34.8516 5.31934 -46.5566c5.90332 -10.5449 2.14551 -23.8848 -8.40625 -29.7959c-10.5449 -5.91113 -23.8848 -2.14551 -29.7959 8.40625
c-11.5586 20.6514 -15.2734 48.3232 -10.1729 75.9141c3.81641 20.6152 12.3467 41.4707 26.0732 63.7783c26.7959 43.5508 62.6621 77.498 103.71 98.1787c27.3574 13.7773 51.9785 18.8926 75.3086 15.5576c30.2041 -4.29102 56.292 -23.6367 69.7852 -51.7607z
M106.479 -27.4707c12.0918 -0.124023 21.791 -10.0273 21.6738 -22.1191c-0.0800781 -7.42871 -3.8457 -13.9453 -9.53809 -17.8496c-9.37012 -21.0889 -18.1631 -42.8496 -26.1465 -64.7344c-3.24023 -8.88086 -11.6318 -14.3975 -20.5713 -14.3975
c-2.48828 0 -5.02734 0.430664 -7.50098 1.33594c-11.3545 4.14453 -17.207 16.7109 -13.0625 28.0732c8.56738 23.4971 18.0391 46.8633 28.1387 69.4629c7.53809 16.8789 19.0166 20.2725 27.0068 20.2285z" />
    <glyph glyph-name="at" unicode="@" horiz-adv-x="809" 
d="M714.028 684.215c32.4805 -50.3369 48.2979 -122.202 44.5322 -202.356c-5.42969 -115.735 -47.791 -236.667 -125.909 -359.43c-30.9629 -48.666 -73.959 -108.745 -132.082 -141.736c-43.3096 -24.5996 -70.6162 -11.5449 -83.0439 -1.58398
c-18.3086 14.6748 -28.6855 40.8359 -30.8311 77.7529c-4.1377 71.1348 15.4561 138.073 34.4004 202.815c4.11523 14.0762 8.28906 28.3428 12.2295 42.7041c-15.4482 -17.8936 -30.0869 -38.0996 -45.1484 -58.8896c-29.7734 -41.0918 -60.5605 -83.584 -101.251 -111.46
c-26.8027 -18.3965 -44.2432 -6.74219 -50.4893 -0.889648c-11.7559 10.9971 -15.0547 28.4961 -9.80078 51.9932c21.1113 94.4863 67.4199 178.968 130.389 237.872c11.4199 10.6836 46.1846 43.1709 86.0137 33.8447c18.2949 -4.29102 35.0127 -19.834 43.624 -40.5586
c5.93262 -14.2881 7.36328 -28.9189 4.35645 -42.127c1.16797 -3.41504 1.49609 -7.13672 0.84668 -10.8438c-6.82324 -39.0117 -17.9658 -77.1035 -28.751 -113.94c-18.7178 -63.9756 -36.4062 -124.405 -32.7061 -187.973
c1.33496 -23.001 6.61816 -39.8213 14.499 -46.1338c8.78613 -7.04883 25.1025 0.423828 34.0488 5.49512c49.7236 28.2266 88.5166 82.7812 116.75 127.164c73.9727 116.247 114.05 229.954 119.121 337.977c3.3418 71.1201 -10.0127 133.826 -37.5889 176.566
c-30.9189 47.9141 -83.3281 75.3525 -139.671 73.2148c-48.2715 -1.76562 -99.1846 -22.7969 -155.658 -64.2969c-125.347 -92.1221 -222.643 -245.177 -266.938 -419.919c-19.3965 -76.5049 -25.3877 -143.378 -18.3242 -204.435
c8.26074 -71.3682 35.6846 -132.877 75.2432 -168.751c35.6689 -32.335 84.8525 -46.6309 138.495 -40.2383c51.3145 6.11523 102.061 29.4521 149.252 53.7598c10.7559 5.53906 23.957 1.31348 29.4883 -9.43555c5.53906 -10.749 1.31348 -23.9502 -9.43555 -29.4893
c-50.8408 -26.1904 -105.906 -51.3809 -164.117 -58.3135c-10.1582 -1.2041 -20.2139 -1.80957 -30.0947 -1.80957c-54.7588 0 -104.717 18.375 -142.999 53.0957c-47.3086 42.9014 -79.8623 114.394 -89.3193 196.153c-7.69141 66.4346 -1.35742 138.474 19.3672 220.226
c46.7471 184.411 150.07 346.404 283.458 444.437c63.7783 46.8711 122.653 70.668 179.981 72.7695c72.2871 2.59082 138.693 -32.2178 178.062 -93.2305zM352.727 269.185c27.5186 37.9756 55.8682 77.0967 92.0703 104.717
c0.496094 1.36426 1.14551 2.69922 1.93359 3.9834c2.82422 4.56836 2.62695 12.0918 -0.496094 19.6152c-3.48047 8.37012 -9.3916 13.8359 -13.1934 14.7266c-1.4375 0.335938 -2.94043 0.503906 -4.50977 0.503906c-10.793 0 -24.7529 -7.94727 -41.5947 -23.7021
c-56.6055 -52.9492 -98.3613 -129.462 -117.568 -215.439l-0.0644531 -0.28418c31.1309 23.7168 56.5908 58.8457 83.4229 95.8799z" />
    <glyph glyph-name="A" unicode="A" horiz-adv-x="709" 
d="M641.803 811.3c11.793 -2.6709 19.1934 -14.3936 16.5156 -26.1719c-45.375 -200.473 -88.7871 -403.105 -129.974 -606.438c25.3652 0.941406 50.7236 1.47363 76.0596 1.39355c12.0918 -0.0292969 21.8701 -9.84375 21.8486 -21.9355
c-0.0214844 -12.0771 -9.82227 -21.8486 -21.8916 -21.8486c-1.16016 0.0292969 -2.26953 0 -3.39355 0c-27.0947 0 -54.2627 -0.670898 -81.46 -1.83105c-36.8584 -183.535 -71.9736 -367.537 -104.936 -550.978c-1.9043 -10.5889 -11.1279 -18.0244 -21.5195 -18.0244
c-1.28418 0 -2.58301 0.117188 -3.89648 0.350586c-11.8945 2.1377 -19.8125 13.5146 -17.6748 25.417c32.3564 180.062 66.793 360.663 102.907 540.842c-55.292 -3.45898 -110.613 -8.77832 -165.643 -15.0615c-49.8916 -116.845 -95.792 -236.44 -137.336 -358.576
c-2.42969 -7.14453 -2.75098 -9.89551 -2.59766 -10.9463c4.22559 -11.3252 -1.59082 -23.7305 -12.916 -27.9629c-2.48145 -0.926758 -5.02832 -1.36426 -7.53125 -1.36426c-8.94629 0 -17.3896 5.56836 -20.6953 14.4199
c-5.91113 15.8496 -0.583984 31.5244 2.28418 39.9453c39.1504 115.101 82.0586 228.027 128.579 338.502c-40.7998 -5.02832 -81.3799 -10.3994 -121.596 -15.7334l-62.1592 -8.24609c-0.977539 -0.124023 -1.94824 -0.189453 -2.91113 -0.189453
c-10.8076 0 -20.207 8.00488 -21.6738 19.0098c-1.59082 11.9824 6.83789 22.9941 18.8203 24.585l62.166 8.24609c48.6514 6.45117 97.8281 12.9824 147.333 18.9004c96.9814 223.97 208.85 437.585 334.575 638.211c1.48828 2.38672 3.39258 4.33496 5.52344 5.91895
c4.8457 7.53809 13.9893 11.6758 23.1914 9.56641zM483.283 176.574c33.3633 165.044 68.208 329.606 104.366 492.986c-95.2227 -161.337 -181.755 -330.475 -258.932 -506.231c51.3223 5.58984 102.907 10.2676 154.565 13.2451z" />
    <glyph glyph-name="A" unicode="&#xc5;" horiz-adv-x="709" 
d="M641.803 811.3c11.793 -2.6709 19.1934 -14.3936 16.5156 -26.1719c-45.375 -200.473 -88.7871 -403.105 -129.974 -606.438c25.3652 0.941406 50.7236 1.47363 76.0596 1.39355c12.0918 -0.0292969 21.8701 -9.84375 21.8486 -21.9355
c-0.0214844 -12.0771 -9.82227 -21.8486 -21.8916 -21.8486c-1.16016 0.0292969 -2.26953 0 -3.39355 0c-27.0947 0 -54.2627 -0.670898 -81.46 -1.83105c-36.8584 -183.535 -71.9736 -367.537 -104.936 -550.978c-1.9043 -10.5889 -11.1279 -18.0244 -21.5195 -18.0244
c-1.28418 0 -2.58301 0.117188 -3.89648 0.350586c-11.8945 2.1377 -19.8125 13.5146 -17.6748 25.417c32.3564 180.062 66.793 360.663 102.907 540.842c-55.292 -3.45898 -110.613 -8.77832 -165.643 -15.0615c-49.8916 -116.845 -95.792 -236.44 -137.336 -358.576
c-2.42969 -7.14453 -2.75098 -9.89551 -2.59766 -10.9463c4.22559 -11.3252 -1.59082 -23.7305 -12.916 -27.9629c-2.48145 -0.926758 -5.02832 -1.36426 -7.53125 -1.36426c-8.94629 0 -17.3896 5.56836 -20.6953 14.4199
c-5.91113 15.8496 -0.583984 31.5244 2.28418 39.9453c39.1504 115.101 82.0586 228.027 128.579 338.502c-40.7998 -5.02832 -81.3799 -10.3994 -121.596 -15.7334l-62.1592 -8.24609c-0.977539 -0.124023 -1.94824 -0.189453 -2.91113 -0.189453
c-10.8076 0 -20.207 8.00488 -21.6738 19.0098c-1.59082 11.9824 6.83789 22.9941 18.8203 24.585l62.166 8.24609c48.6514 6.45117 97.8281 12.9824 147.333 18.9004c96.9814 223.97 208.85 437.585 334.575 638.211c1.48828 2.38672 3.39258 4.33496 5.52344 5.91895
c4.8457 7.53809 13.9893 11.6758 23.1914 9.56641zM483.283 176.574c33.3633 165.044 68.208 329.606 104.366 492.986c-95.2227 -161.337 -181.755 -330.475 -258.932 -506.231c51.3223 5.58984 102.907 10.2676 154.565 13.2451z" />
    <glyph glyph-name="A" unicode="&#xc4;" horiz-adv-x="709" 
d="M641.803 811.3c11.793 -2.6709 19.1934 -14.3936 16.5156 -26.1719c-45.375 -200.473 -88.7871 -403.105 -129.974 -606.438c25.3652 0.941406 50.7236 1.47363 76.0596 1.39355c12.0918 -0.0292969 21.8701 -9.84375 21.8486 -21.9355
c-0.0214844 -12.0771 -9.82227 -21.8486 -21.8916 -21.8486c-1.16016 0.0292969 -2.26953 0 -3.39355 0c-27.0947 0 -54.2627 -0.670898 -81.46 -1.83105c-36.8584 -183.535 -71.9736 -367.537 -104.936 -550.978c-1.9043 -10.5889 -11.1279 -18.0244 -21.5195 -18.0244
c-1.28418 0 -2.58301 0.117188 -3.89648 0.350586c-11.8945 2.1377 -19.8125 13.5146 -17.6748 25.417c32.3564 180.062 66.793 360.663 102.907 540.842c-55.292 -3.45898 -110.613 -8.77832 -165.643 -15.0615c-49.8916 -116.845 -95.792 -236.44 -137.336 -358.576
c-2.42969 -7.14453 -2.75098 -9.89551 -2.59766 -10.9463c4.22559 -11.3252 -1.59082 -23.7305 -12.916 -27.9629c-2.48145 -0.926758 -5.02832 -1.36426 -7.53125 -1.36426c-8.94629 0 -17.3896 5.56836 -20.6953 14.4199
c-5.91113 15.8496 -0.583984 31.5244 2.28418 39.9453c39.1504 115.101 82.0586 228.027 128.579 338.502c-40.7998 -5.02832 -81.3799 -10.3994 -121.596 -15.7334l-62.1592 -8.24609c-0.977539 -0.124023 -1.94824 -0.189453 -2.91113 -0.189453
c-10.8076 0 -20.207 8.00488 -21.6738 19.0098c-1.59082 11.9824 6.83789 22.9941 18.8203 24.585l62.166 8.24609c48.6514 6.45117 97.8281 12.9824 147.333 18.9004c96.9814 223.97 208.85 437.585 334.575 638.211c1.48828 2.38672 3.39258 4.33496 5.52344 5.91895
c4.8457 7.53809 13.9893 11.6758 23.1914 9.56641zM483.283 176.574c33.3633 165.044 68.208 329.606 104.366 492.986c-95.2227 -161.337 -181.755 -330.475 -258.932 -506.231c51.3223 5.58984 102.907 10.2676 154.565 13.2451z" />
    <glyph glyph-name="A" unicode="&#xc3;" horiz-adv-x="709" 
d="M641.803 811.3c11.793 -2.6709 19.1934 -14.3936 16.5156 -26.1719c-45.375 -200.473 -88.7871 -403.105 -129.974 -606.438c25.3652 0.941406 50.7236 1.47363 76.0596 1.39355c12.0918 -0.0292969 21.8701 -9.84375 21.8486 -21.9355
c-0.0214844 -12.0771 -9.82227 -21.8486 -21.8916 -21.8486c-1.16016 0.0292969 -2.26953 0 -3.39355 0c-27.0947 0 -54.2627 -0.670898 -81.46 -1.83105c-36.8584 -183.535 -71.9736 -367.537 -104.936 -550.978c-1.9043 -10.5889 -11.1279 -18.0244 -21.5195 -18.0244
c-1.28418 0 -2.58301 0.117188 -3.89648 0.350586c-11.8945 2.1377 -19.8125 13.5146 -17.6748 25.417c32.3564 180.062 66.793 360.663 102.907 540.842c-55.292 -3.45898 -110.613 -8.77832 -165.643 -15.0615c-49.8916 -116.845 -95.792 -236.44 -137.336 -358.576
c-2.42969 -7.14453 -2.75098 -9.89551 -2.59766 -10.9463c4.22559 -11.3252 -1.59082 -23.7305 -12.916 -27.9629c-2.48145 -0.926758 -5.02832 -1.36426 -7.53125 -1.36426c-8.94629 0 -17.3896 5.56836 -20.6953 14.4199
c-5.91113 15.8496 -0.583984 31.5244 2.28418 39.9453c39.1504 115.101 82.0586 228.027 128.579 338.502c-40.7998 -5.02832 -81.3799 -10.3994 -121.596 -15.7334l-62.1592 -8.24609c-0.977539 -0.124023 -1.94824 -0.189453 -2.91113 -0.189453
c-10.8076 0 -20.207 8.00488 -21.6738 19.0098c-1.59082 11.9824 6.83789 22.9941 18.8203 24.585l62.166 8.24609c48.6514 6.45117 97.8281 12.9824 147.333 18.9004c96.9814 223.97 208.85 437.585 334.575 638.211c1.48828 2.38672 3.39258 4.33496 5.52344 5.91895
c4.8457 7.53809 13.9893 11.6758 23.1914 9.56641zM483.283 176.574c33.3633 165.044 68.208 329.606 104.366 492.986c-95.2227 -161.337 -181.755 -330.475 -258.932 -506.231c51.3223 5.58984 102.907 10.2676 154.565 13.2451z" />
    <glyph glyph-name="A" unicode="&#xc2;" horiz-adv-x="709" 
d="M641.803 811.3c11.793 -2.6709 19.1934 -14.3936 16.5156 -26.1719c-45.375 -200.473 -88.7871 -403.105 -129.974 -606.438c25.3652 0.941406 50.7236 1.47363 76.0596 1.39355c12.0918 -0.0292969 21.8701 -9.84375 21.8486 -21.9355
c-0.0214844 -12.0771 -9.82227 -21.8486 -21.8916 -21.8486c-1.16016 0.0292969 -2.26953 0 -3.39355 0c-27.0947 0 -54.2627 -0.670898 -81.46 -1.83105c-36.8584 -183.535 -71.9736 -367.537 -104.936 -550.978c-1.9043 -10.5889 -11.1279 -18.0244 -21.5195 -18.0244
c-1.28418 0 -2.58301 0.117188 -3.89648 0.350586c-11.8945 2.1377 -19.8125 13.5146 -17.6748 25.417c32.3564 180.062 66.793 360.663 102.907 540.842c-55.292 -3.45898 -110.613 -8.77832 -165.643 -15.0615c-49.8916 -116.845 -95.792 -236.44 -137.336 -358.576
c-2.42969 -7.14453 -2.75098 -9.89551 -2.59766 -10.9463c4.22559 -11.3252 -1.59082 -23.7305 -12.916 -27.9629c-2.48145 -0.926758 -5.02832 -1.36426 -7.53125 -1.36426c-8.94629 0 -17.3896 5.56836 -20.6953 14.4199
c-5.91113 15.8496 -0.583984 31.5244 2.28418 39.9453c39.1504 115.101 82.0586 228.027 128.579 338.502c-40.7998 -5.02832 -81.3799 -10.3994 -121.596 -15.7334l-62.1592 -8.24609c-0.977539 -0.124023 -1.94824 -0.189453 -2.91113 -0.189453
c-10.8076 0 -20.207 8.00488 -21.6738 19.0098c-1.59082 11.9824 6.83789 22.9941 18.8203 24.585l62.166 8.24609c48.6514 6.45117 97.8281 12.9824 147.333 18.9004c96.9814 223.97 208.85 437.585 334.575 638.211c1.48828 2.38672 3.39258 4.33496 5.52344 5.91895
c4.8457 7.53809 13.9893 11.6758 23.1914 9.56641zM483.283 176.574c33.3633 165.044 68.208 329.606 104.366 492.986c-95.2227 -161.337 -181.755 -330.475 -258.932 -506.231c51.3223 5.58984 102.907 10.2676 154.565 13.2451z" />
    <glyph glyph-name="A" unicode="&#xc1;" horiz-adv-x="709" 
d="M641.803 811.3c11.793 -2.6709 19.1934 -14.3936 16.5156 -26.1719c-45.375 -200.473 -88.7871 -403.105 -129.974 -606.438c25.3652 0.941406 50.7236 1.47363 76.0596 1.39355c12.0918 -0.0292969 21.8701 -9.84375 21.8486 -21.9355
c-0.0214844 -12.0771 -9.82227 -21.8486 -21.8916 -21.8486c-1.16016 0.0292969 -2.26953 0 -3.39355 0c-27.0947 0 -54.2627 -0.670898 -81.46 -1.83105c-36.8584 -183.535 -71.9736 -367.537 -104.936 -550.978c-1.9043 -10.5889 -11.1279 -18.0244 -21.5195 -18.0244
c-1.28418 0 -2.58301 0.117188 -3.89648 0.350586c-11.8945 2.1377 -19.8125 13.5146 -17.6748 25.417c32.3564 180.062 66.793 360.663 102.907 540.842c-55.292 -3.45898 -110.613 -8.77832 -165.643 -15.0615c-49.8916 -116.845 -95.792 -236.44 -137.336 -358.576
c-2.42969 -7.14453 -2.75098 -9.89551 -2.59766 -10.9463c4.22559 -11.3252 -1.59082 -23.7305 -12.916 -27.9629c-2.48145 -0.926758 -5.02832 -1.36426 -7.53125 -1.36426c-8.94629 0 -17.3896 5.56836 -20.6953 14.4199
c-5.91113 15.8496 -0.583984 31.5244 2.28418 39.9453c39.1504 115.101 82.0586 228.027 128.579 338.502c-40.7998 -5.02832 -81.3799 -10.3994 -121.596 -15.7334l-62.1592 -8.24609c-0.977539 -0.124023 -1.94824 -0.189453 -2.91113 -0.189453
c-10.8076 0 -20.207 8.00488 -21.6738 19.0098c-1.59082 11.9824 6.83789 22.9941 18.8203 24.585l62.166 8.24609c48.6514 6.45117 97.8281 12.9824 147.333 18.9004c96.9814 223.97 208.85 437.585 334.575 638.211c1.48828 2.38672 3.39258 4.33496 5.52344 5.91895
c4.8457 7.53809 13.9893 11.6758 23.1914 9.56641zM483.283 176.574c33.3633 165.044 68.208 329.606 104.366 492.986c-95.2227 -161.337 -181.755 -330.475 -258.932 -506.231c51.3223 5.58984 102.907 10.2676 154.565 13.2451z" />
    <glyph glyph-name="B" unicode="B" horiz-adv-x="807" 
d="M213.821 18.3633c-1.86816 0 -3.76465 0.241211 -5.66211 0.751953c-11.6826 3.11621 -18.6221 15.1133 -15.5059 26.7959l170.583 639.35c3.11621 11.6826 15.1055 18.6299 26.7959 15.5068c11.6826 -3.11621 18.6221 -15.1133 15.5059 -26.7959l-170.583 -639.35
c-2.60547 -9.79297 -11.457 -16.2588 -21.1338 -16.2588zM753.833 366.972c6.67676 -25.1465 2.6582 -54.6777 -11.002 -80.999c-11.1943 -21.5635 -26.4893 -37.6689 -42.4922 -53.6279c-41.04 -40.9092 -84.0723 -79.8623 -125.689 -117.523l-488.068 -441.737
c-4.18848 -3.79492 -9.44238 -5.66309 -14.6816 -5.66309c-5.96875 0 -11.916 2.42969 -16.2363 7.20215c-8.11426 8.96094 -7.42871 22.8037 1.54004 30.918l488.01 441.679c41.2881 37.377 83.9268 75.958 124.216 116.13c13.9814 13.9375 26.2334 26.7812 34.5449 42.792
c8.58887 16.5361 11.4131 35.0791 7.55273 49.6006c-4.26855 16.04 -16.7617 29.0947 -39.3252 41.0918c-75.7461 40.252 -161.161 42.6602 -243.767 44.9883c-8.10742 0.226562 -15.4268 4.92578 -19.0166 12.2012c-3.58301 7.2832 -2.85352 15.9453 1.9043 22.5205
c25.2344 34.8594 53.709 65.9463 81.249 96.0186c37.1504 40.5586 72.2432 78.877 100.367 125.938c15.4707 25.8906 20.4912 49.5342 13.4277 63.2236c-3.08691 5.9834 -9.08496 10.6387 -18.8994 14.6592c-40.0693 16.4336 -85.6123 6.29004 -120.814 -4.36426
c-107.205 -32.4512 -208.484 -97.1348 -292.878 -187.074c-8.26758 -8.82227 -22.1182 -9.26758 -30.9404 -0.985352c-8.82227 8.27539 -9.25977 22.126 -0.984375 30.9414c89.6406 95.5293 197.575 164.351 312.121 199.021
c42.1348 12.7627 97.2803 24.6279 150.105 2.96973c19.7178 -8.08594 33.1963 -19.5723 41.209 -35.1084c19.5127 -37.8516 -0.875977 -82.4971 -14.7627 -105.746c-30.4082 -50.8916 -68.668 -92.6611 -105.665 -133.06
c-17.4336 -19.0244 -35.2461 -38.4795 -52.125 -58.8174c72.1123 -3.04297 149.486 -11.2012 220.008 -48.6729c33.5967 -17.8643 53.584 -40.2744 61.0928 -68.5146z" />
    <glyph glyph-name="C" unicode="C" horiz-adv-x="651" 
d="M580.66 863.965c14.5654 -14.3242 21.9883 -38.3467 19.8721 -64.252c-1.6709 -20.4619 -8.50098 -38.749 -14.5215 -54.8838l-135.438 -362.853c-4.22559 -11.333 -16.8496 -17.0762 -28.1602 -12.8584c-11.333 4.22559 -17.0908 16.835 -12.8584 28.1602
l135.438 362.86c5.26855 14.1201 10.7197 28.7217 11.8945 43.1338c1.00684 12.3545 -1.83887 24.4756 -6.93262 29.4893c-1.38672 1.37207 -5.6123 5.50977 -21.6084 2.13867c-32.8164 -6.96875 -66.3408 -28.3203 -105.498 -67.1855
c-99.9521 -99.2363 -168.78 -239.484 -217.577 -350.586c-36.9688 -84.1602 -82.1689 -196.284 -103.812 -317.413c-5.9834 -33.502 -11.2305 -72.8057 -4.72852 -110.285c6.0791 -35.0713 23.2793 -63.8447 43.8066 -73.3018
c18.0898 -8.34863 41.0908 -4.05078 74.5566 13.8936c126.652 67.9238 229.479 201.589 320.2 319.514c7.37012 9.58887 21.1182 11.377 30.6992 4.00684c9.58887 -7.37012 11.377 -21.1182 4.00684 -30.6992c-93.4062 -121.421 -199.283 -259.034 -334.211 -331.402
c-20.2354 -10.8584 -47.4473 -23.1396 -76.0312 -23.1396c-12.4131 0 -25.0811 2.30566 -37.5518 8.05566c-34.2393 15.7773 -59.8896 55.249 -68.625 105.586c-7.70605 44.4258 -1.49609 90.3916 4.77246 125.47c22.4541 125.675 68.8867 240.937 106.825 327.315
c50.3516 114.642 121.64 259.625 226.823 364.05c45.4043 45.0684 85.8389 70.1494 127.259 78.9424c25.8984 5.50977 46.543 0.868164 61.4004 -13.7559z" />
    <glyph glyph-name="D" unicode="D" horiz-adv-x="951" 
d="M892.743 716.208c25.3877 -33.8818 38.4053 -83.8613 35.7129 -137.11c-2.02148 -40.2158 -12.2451 -82.4893 -32.1816 -133.045c-38.5371 -97.7109 -94.0771 -182.156 -138.168 -244.804c-154.689 -219.811 -309.028 -358.569 -471.839 -424.216
c-49.002 -19.7539 -91.21 -29.3203 -130.36 -29.3203c-10.2676 0 -20.3232 0.664062 -30.2334 1.96289c-19.4619 2.56152 -47.2646 8.93945 -63.917 34.6846c-15.8936 24.5703 -15.667 55.8252 0.678711 92.9033c39.1572 88.8301 178.967 213.681 309.976 299.578
c38.8438 148.45 89.334 291.916 150.785 427.96c4.97656 11.0186 17.9297 15.9297 28.9629 10.9385c11.0186 -4.97656 15.915 -17.9443 10.9385 -28.9629c-54.2334 -120.078 -99.8271 -246.045 -136.233 -376.2c56.7295 32.9697 108.584 55.9707 145.654 62.1953
c11.9385 1.99902 23.2129 -6.0498 25.2119 -17.9668c1.99902 -11.9238 -6.04297 -23.2129 -17.9668 -25.2119c-37.625 -6.31934 -100.871 -37.6396 -169.524 -81.3652c-9.66895 -37.9609 -18.5938 -76.2285 -26.7012 -114.803
c-2.16699 -10.3115 -11.2666 -17.3896 -21.4023 -17.3896c-1.48828 0 -3.00586 0.15332 -4.52344 0.466797c-11.8291 2.48828 -19.4111 14.0908 -16.9229 25.9268c4.89648 23.3076 10.0996 46.5059 15.5654 69.6016c-110.168 -77.5273 -220.847 -177.8 -253.743 -252.437
c-10.0264 -22.7314 -11.3613 -40.0479 -3.97656 -51.4609c5.3125 -8.22363 15.1416 -12.7266 32.8594 -15.0547c39.9385 -5.26855 83.9414 2.54688 138.511 24.5488c154.74 62.3926 302.723 196.116 452.398 408.812c42.6895 60.6631 96.4121 142.27 133.242 235.668
c18.1416 45.9951 27.417 83.8682 29.1904 119.18c2.16699 43.2295 -7.69141 82.832 -27.0439 108.672c-12.5518 16.7549 -30.8242 29.8242 -54.3066 38.8359c-35.9756 13.8213 -78.5557 17.0029 -130.17 9.74902c-138.504 -19.4766 -273.789 -103.265 -371.172 -229.888
c-7.37012 -9.58105 -21.1182 -11.3691 -30.6992 -4.00586c-9.58105 7.37012 -11.376 21.1182 -4.00586 30.6992c104.309 135.621 250.029 225.488 399.785 246.549c59.1738 8.30469 108.869 4.31348 151.96 -12.2295c31.2979 -12.0186 56.0801 -30.0068 73.6592 -53.4609z
" />
    <glyph glyph-name="E" unicode="E" horiz-adv-x="731" 
d="M825.41 802.813c6.20312 -18.8125 3.00195 -40.2744 -9.76855 -65.6104c-5.45117 -10.7852 -18.6152 -15.1201 -29.4082 -9.67676c-10.793 5.45117 -15.1279 18.6152 -9.67676 29.4082c8.94629 17.7178 8.90234 27.2695 7.29004 32.166
c-0.773438 2.34961 -3.13086 9.50098 -23.1543 11.4639c-60.7432 5.94727 -122.157 -10.6318 -174.224 -27.6494c-44.3389 -14.4854 -87.8018 -31.5469 -130.163 -50.9287c-2.78711 -11.0049 -6.2168 -21.4619 -9.46387 -31.2842l-96.3613 -291.507
c-4.875 -14.7256 -9.75684 -29.5176 -14.6318 -44.3672c34.6992 11.6826 69.9092 21.2129 105.542 28.4668c11.8359 2.38672 23.4023 -5.24609 25.8174 -17.0898c2.4082 -11.8438 -5.23926 -23.4023 -17.0898 -25.8174
c-44.5068 -9.05566 -88.3418 -21.8262 -131.301 -38.1572c-28.7373 -90.1367 -55.2852 -182.543 -71.5439 -277.408c-7.79395 -45.4629 -13.4639 -97.4854 3.56055 -138.62c5.64062 -13.6318 13.0615 -23.709 20.8916 -28.3643
c13.3252 -7.93262 33.1445 -2.35742 60.6113 17.0459c35.2246 24.8838 69.1279 55.9629 101.922 86.0205c47.25 43.3174 96.1133 88.1084 152.033 117.815c10.6904 5.66992 23.9355 1.60547 29.6055 -9.06348c5.66992 -10.6758 1.6123 -23.9355 -9.06348 -29.6055
c-50.9941 -27.0879 -95.6826 -68.0547 -142.999 -111.43c-33.8018 -30.9775 -68.749 -63.0205 -106.25 -89.5029c-11.6104 -8.20215 -40.5957 -28.6641 -72.6533 -28.6641c-11.6973 -0.00683594 -23.7891 2.71484 -35.6104 9.74902
c-20.374 12.1211 -32.4297 33.4727 -38.9609 49.249c-21.2861 51.4316 -15.1055 111.139 -6.26074 162.76c14.5732 85.0137 36.998 167.452 61.8525 247.891c-39.165 -17.9004 -77.5127 -38.8223 -114.831 -62.7793c-3.66309 -2.34961 -7.75684 -3.47363 -11.8066 -3.47363
c-7.20215 0 -14.2588 3.55371 -18.4404 10.0703c-6.53125 10.1729 -3.58301 23.7168 6.59668 30.248c50.3301 32.3125 102.455 59.415 155.974 81.2051c8.41406 26.0518 16.9521 51.9062 25.4316 77.5713l93.4424 282.685
c-110.861 -57.3574 -212.951 -131.141 -301.184 -218.548c6.00586 -6.26855 7.93262 -15.7988 4.13086 -24.1904c-4.56055 -10.0635 -13.8721 -16.0254 -24.249 -16.0254c-1.98535 0 -4.00684 0.21875 -6.04297 0.670898
c-14.3682 3.16699 -25.1094 17.0762 -24.9707 32.3496c0.15332 18.207 12.2959 30.2988 17.4766 35.4658c100.09 99.7988 217.548 182.624 345.441 244.527c-4.2832 7.52344 -3.92578 17.1631 1.7666 24.3652c5.09375 6.44336 12.6826 10.2383 20.8262 10.4062
c8.07812 0.15332 15.835 -3.29102 21.1621 -9.49414c1.03613 -1.2041 1.88281 -2.53906 2.62695 -3.91797c37.1289 16.1855 75.002 30.7148 113.547 43.3096c56.3867 18.4258 123.274 36.333 192.088 29.6045c40.0186 -3.92578 54.9707 -24.6426 60.4727 -41.3389z" />
    <glyph glyph-name="E" unicode="&#xcb;" horiz-adv-x="731" 
d="M825.41 802.813c6.20312 -18.8125 3.00195 -40.2744 -9.76855 -65.6104c-5.45117 -10.7852 -18.6152 -15.1201 -29.4082 -9.67676c-10.793 5.45117 -15.1279 18.6152 -9.67676 29.4082c8.94629 17.7178 8.90234 27.2695 7.29004 32.166
c-0.773438 2.34961 -3.13086 9.50098 -23.1543 11.4639c-60.7432 5.94727 -122.157 -10.6318 -174.224 -27.6494c-44.3389 -14.4854 -87.8018 -31.5469 -130.163 -50.9287c-2.78711 -11.0049 -6.2168 -21.4619 -9.46387 -31.2842l-96.3613 -291.507
c-4.875 -14.7256 -9.75684 -29.5176 -14.6318 -44.3672c34.6992 11.6826 69.9092 21.2129 105.542 28.4668c11.8359 2.38672 23.4023 -5.24609 25.8174 -17.0898c2.4082 -11.8438 -5.23926 -23.4023 -17.0898 -25.8174
c-44.5068 -9.05566 -88.3418 -21.8262 -131.301 -38.1572c-28.7373 -90.1367 -55.2852 -182.543 -71.5439 -277.408c-7.79395 -45.4629 -13.4639 -97.4854 3.56055 -138.62c5.64062 -13.6318 13.0615 -23.709 20.8916 -28.3643
c13.3252 -7.93262 33.1445 -2.35742 60.6113 17.0459c35.2246 24.8838 69.1279 55.9629 101.922 86.0205c47.25 43.3174 96.1133 88.1084 152.033 117.815c10.6904 5.66992 23.9355 1.60547 29.6055 -9.06348c5.66992 -10.6758 1.6123 -23.9355 -9.06348 -29.6055
c-50.9941 -27.0879 -95.6826 -68.0547 -142.999 -111.43c-33.8018 -30.9775 -68.749 -63.0205 -106.25 -89.5029c-11.6104 -8.20215 -40.5957 -28.6641 -72.6533 -28.6641c-11.6973 -0.00683594 -23.7891 2.71484 -35.6104 9.74902
c-20.374 12.1211 -32.4297 33.4727 -38.9609 49.249c-21.2861 51.4316 -15.1055 111.139 -6.26074 162.76c14.5732 85.0137 36.998 167.452 61.8525 247.891c-39.165 -17.9004 -77.5127 -38.8223 -114.831 -62.7793c-3.66309 -2.34961 -7.75684 -3.47363 -11.8066 -3.47363
c-7.20215 0 -14.2588 3.55371 -18.4404 10.0703c-6.53125 10.1729 -3.58301 23.7168 6.59668 30.248c50.3301 32.3125 102.455 59.415 155.974 81.2051c8.41406 26.0518 16.9521 51.9062 25.4316 77.5713l93.4424 282.685
c-110.861 -57.3574 -212.951 -131.141 -301.184 -218.548c6.00586 -6.26855 7.93262 -15.7988 4.13086 -24.1904c-4.56055 -10.0635 -13.8721 -16.0254 -24.249 -16.0254c-1.98535 0 -4.00684 0.21875 -6.04297 0.670898
c-14.3682 3.16699 -25.1094 17.0762 -24.9707 32.3496c0.15332 18.207 12.2959 30.2988 17.4766 35.4658c100.09 99.7988 217.548 182.624 345.441 244.527c-4.2832 7.52344 -3.92578 17.1631 1.7666 24.3652c5.09375 6.44336 12.6826 10.2383 20.8262 10.4062
c8.07812 0.15332 15.835 -3.29102 21.1621 -9.49414c1.03613 -1.2041 1.88281 -2.53906 2.62695 -3.91797c37.1289 16.1855 75.002 30.7148 113.547 43.3096c56.3867 18.4258 123.274 36.333 192.088 29.6045c40.0186 -3.92578 54.9707 -24.6426 60.4727 -41.3389z" />
    <glyph glyph-name="E" unicode="&#xca;" horiz-adv-x="731" 
d="M825.41 802.813c6.20312 -18.8125 3.00195 -40.2744 -9.76855 -65.6104c-5.45117 -10.7852 -18.6152 -15.1201 -29.4082 -9.67676c-10.793 5.45117 -15.1279 18.6152 -9.67676 29.4082c8.94629 17.7178 8.90234 27.2695 7.29004 32.166
c-0.773438 2.34961 -3.13086 9.50098 -23.1543 11.4639c-60.7432 5.94727 -122.157 -10.6318 -174.224 -27.6494c-44.3389 -14.4854 -87.8018 -31.5469 -130.163 -50.9287c-2.78711 -11.0049 -6.2168 -21.4619 -9.46387 -31.2842l-96.3613 -291.507
c-4.875 -14.7256 -9.75684 -29.5176 -14.6318 -44.3672c34.6992 11.6826 69.9092 21.2129 105.542 28.4668c11.8359 2.38672 23.4023 -5.24609 25.8174 -17.0898c2.4082 -11.8438 -5.23926 -23.4023 -17.0898 -25.8174
c-44.5068 -9.05566 -88.3418 -21.8262 -131.301 -38.1572c-28.7373 -90.1367 -55.2852 -182.543 -71.5439 -277.408c-7.79395 -45.4629 -13.4639 -97.4854 3.56055 -138.62c5.64062 -13.6318 13.0615 -23.709 20.8916 -28.3643
c13.3252 -7.93262 33.1445 -2.35742 60.6113 17.0459c35.2246 24.8838 69.1279 55.9629 101.922 86.0205c47.25 43.3174 96.1133 88.1084 152.033 117.815c10.6904 5.66992 23.9355 1.60547 29.6055 -9.06348c5.66992 -10.6758 1.6123 -23.9355 -9.06348 -29.6055
c-50.9941 -27.0879 -95.6826 -68.0547 -142.999 -111.43c-33.8018 -30.9775 -68.749 -63.0205 -106.25 -89.5029c-11.6104 -8.20215 -40.5957 -28.6641 -72.6533 -28.6641c-11.6973 -0.00683594 -23.7891 2.71484 -35.6104 9.74902
c-20.374 12.1211 -32.4297 33.4727 -38.9609 49.249c-21.2861 51.4316 -15.1055 111.139 -6.26074 162.76c14.5732 85.0137 36.998 167.452 61.8525 247.891c-39.165 -17.9004 -77.5127 -38.8223 -114.831 -62.7793c-3.66309 -2.34961 -7.75684 -3.47363 -11.8066 -3.47363
c-7.20215 0 -14.2588 3.55371 -18.4404 10.0703c-6.53125 10.1729 -3.58301 23.7168 6.59668 30.248c50.3301 32.3125 102.455 59.415 155.974 81.2051c8.41406 26.0518 16.9521 51.9062 25.4316 77.5713l93.4424 282.685
c-110.861 -57.3574 -212.951 -131.141 -301.184 -218.548c6.00586 -6.26855 7.93262 -15.7988 4.13086 -24.1904c-4.56055 -10.0635 -13.8721 -16.0254 -24.249 -16.0254c-1.98535 0 -4.00684 0.21875 -6.04297 0.670898
c-14.3682 3.16699 -25.1094 17.0762 -24.9707 32.3496c0.15332 18.207 12.2959 30.2988 17.4766 35.4658c100.09 99.7988 217.548 182.624 345.441 244.527c-4.2832 7.52344 -3.92578 17.1631 1.7666 24.3652c5.09375 6.44336 12.6826 10.2383 20.8262 10.4062
c8.07812 0.15332 15.835 -3.29102 21.1621 -9.49414c1.03613 -1.2041 1.88281 -2.53906 2.62695 -3.91797c37.1289 16.1855 75.002 30.7148 113.547 43.3096c56.3867 18.4258 123.274 36.333 192.088 29.6045c40.0186 -3.92578 54.9707 -24.6426 60.4727 -41.3389z" />
    <glyph glyph-name="E" unicode="&#xc9;" horiz-adv-x="731" 
d="M825.41 802.813c6.20312 -18.8125 3.00195 -40.2744 -9.76855 -65.6104c-5.45117 -10.7852 -18.6152 -15.1201 -29.4082 -9.67676c-10.793 5.45117 -15.1279 18.6152 -9.67676 29.4082c8.94629 17.7178 8.90234 27.2695 7.29004 32.166
c-0.773438 2.34961 -3.13086 9.50098 -23.1543 11.4639c-60.7432 5.94727 -122.157 -10.6318 -174.224 -27.6494c-44.3389 -14.4854 -87.8018 -31.5469 -130.163 -50.9287c-2.78711 -11.0049 -6.2168 -21.4619 -9.46387 -31.2842l-96.3613 -291.507
c-4.875 -14.7256 -9.75684 -29.5176 -14.6318 -44.3672c34.6992 11.6826 69.9092 21.2129 105.542 28.4668c11.8359 2.38672 23.4023 -5.24609 25.8174 -17.0898c2.4082 -11.8438 -5.23926 -23.4023 -17.0898 -25.8174
c-44.5068 -9.05566 -88.3418 -21.8262 -131.301 -38.1572c-28.7373 -90.1367 -55.2852 -182.543 -71.5439 -277.408c-7.79395 -45.4629 -13.4639 -97.4854 3.56055 -138.62c5.64062 -13.6318 13.0615 -23.709 20.8916 -28.3643
c13.3252 -7.93262 33.1445 -2.35742 60.6113 17.0459c35.2246 24.8838 69.1279 55.9629 101.922 86.0205c47.25 43.3174 96.1133 88.1084 152.033 117.815c10.6904 5.66992 23.9355 1.60547 29.6055 -9.06348c5.66992 -10.6758 1.6123 -23.9355 -9.06348 -29.6055
c-50.9941 -27.0879 -95.6826 -68.0547 -142.999 -111.43c-33.8018 -30.9775 -68.749 -63.0205 -106.25 -89.5029c-11.6104 -8.20215 -40.5957 -28.6641 -72.6533 -28.6641c-11.6973 -0.00683594 -23.7891 2.71484 -35.6104 9.74902
c-20.374 12.1211 -32.4297 33.4727 -38.9609 49.249c-21.2861 51.4316 -15.1055 111.139 -6.26074 162.76c14.5732 85.0137 36.998 167.452 61.8525 247.891c-39.165 -17.9004 -77.5127 -38.8223 -114.831 -62.7793c-3.66309 -2.34961 -7.75684 -3.47363 -11.8066 -3.47363
c-7.20215 0 -14.2588 3.55371 -18.4404 10.0703c-6.53125 10.1729 -3.58301 23.7168 6.59668 30.248c50.3301 32.3125 102.455 59.415 155.974 81.2051c8.41406 26.0518 16.9521 51.9062 25.4316 77.5713l93.4424 282.685
c-110.861 -57.3574 -212.951 -131.141 -301.184 -218.548c6.00586 -6.26855 7.93262 -15.7988 4.13086 -24.1904c-4.56055 -10.0635 -13.8721 -16.0254 -24.249 -16.0254c-1.98535 0 -4.00684 0.21875 -6.04297 0.670898
c-14.3682 3.16699 -25.1094 17.0762 -24.9707 32.3496c0.15332 18.207 12.2959 30.2988 17.4766 35.4658c100.09 99.7988 217.548 182.624 345.441 244.527c-4.2832 7.52344 -3.92578 17.1631 1.7666 24.3652c5.09375 6.44336 12.6826 10.2383 20.8262 10.4062
c8.07812 0.15332 15.835 -3.29102 21.1621 -9.49414c1.03613 -1.2041 1.88281 -2.53906 2.62695 -3.91797c37.1289 16.1855 75.002 30.7148 113.547 43.3096c56.3867 18.4258 123.274 36.333 192.088 29.6045c40.0186 -3.92578 54.9707 -24.6426 60.4727 -41.3389z" />
    <glyph glyph-name="F" unicode="F" horiz-adv-x="543" 
d="M848.667 907.304c12.6973 -30.8242 3.4082 -64.5176 -8.51562 -96.3633c-4.24023 -11.3184 -16.8574 -17.0537 -28.1826 -12.8135c-11.3184 4.24707 -17.0615 16.8643 -12.8145 28.1826c8.78613 23.4463 15.959 47.4688 9.02637 64.3037
c-3.4082 8.27539 -10.7783 14.9229 -21.9141 19.7607c-20.8926 9.08496 -44.3096 9.33301 -64.458 8.34082c-67.5732 -3.26172 -133.709 -23.2051 -196.729 -51.5117c-48.4688 -131.315 -93.2676 -264.9 -134.381 -400.303c40.3105 9.57422 81.0664 16.5654 122.18 20.8779
c12.0479 1.25488 22.7891 -7.46582 24.0518 -19.4844c1.26953 -12.0186 -7.45801 -22.7891 -19.4844 -24.0518c-47.6885 -5.00586 -94.9023 -13.792 -141.459 -26.2051c-66.3252 -224.05 -122.493 -452.901 -167.846 -684.694
c-2.04297 -10.4424 -11.208 -17.6885 -21.4609 -17.6885c-1.40137 0 -2.80957 0.130859 -4.23242 0.408203c-11.8652 2.32812 -19.6006 13.8291 -17.2803 25.6943c43.7842 223.759 97.6387 444.78 160.877 661.453c-56.0146 -18.3018 -110.971 -41.9307 -164.482 -70.9229
c-3.3125 -1.79492 -6.8877 -2.64844 -10.4121 -2.64844c-7.77148 0 -15.3027 4.15234 -19.2656 11.4639c-5.76465 10.6318 -1.81641 23.9131 8.81543 29.6777c64.873 35.1514 131.812 62.8086 200.21 82.8984c39.0332 130.287 81.5332 258.902 127.331 385.519
c-47.498 -25.4385 -92.7852 -54.4238 -135.066 -83.0518c-83.4521 -56.4883 -169.663 -121.34 -234.813 -212.549c-2.00684 -2.81641 -3.48828 -6.24609 -4.15918 -8.61816c5.46582 -7.61133 5.59668 -18.1924 -0.37207 -26.0371
c-4.30566 -5.66309 -10.8291 -8.63281 -17.4336 -8.63281c-4.61914 0 -9.28223 1.45215 -13.2451 4.47363c-19.6953 14.9961 -15.1123 43.6748 -0.415039 64.2529c69.1719 96.8359 159.061 164.577 245.898 223.364c55.832 37.7998 116.823 76.2061 181.631 106.986
c8.51562 22.8848 17.1123 45.7109 25.8398 68.457c4.33496 11.2812 17.0107 16.9219 28.2852 12.5947c11.2891 -4.33496 16.9297 -16.9961 12.5947 -28.2852c-3.66309 -9.52344 -7.20996 -19.127 -10.8291 -28.6787c55.7148 21.498 113.809 36.1143 173.537 38.9971
c23.7383 1.13867 54.7158 0.825195 84.0293 -11.9229c21.6221 -9.39941 37.165 -24.3516 44.9443 -43.2441z" />
    <glyph glyph-name="G" unicode="G" horiz-adv-x="614" 
d="M653.144 384.522c2.57617 -11.8145 -4.91113 -23.4766 -16.7402 -26.0449c-28.0879 -6.12207 -55.8691 -13.7627 -83.3145 -22.7891c-79.5264 -217.52 -125.696 -456.771 -133.811 -695.692c-0.401367 -11.8291 -10.1211 -21.1475 -21.8623 -21.1475
c-0.255859 0 -0.503906 0.00683594 -0.759766 0.0136719c-12.084 0.408203 -21.5488 10.5371 -21.1328 22.6211c4.94727 145.691 23.8184 291.521 55.5107 432.703c-54.8906 -66.3398 -117.677 -123.529 -184.645 -167.824
c-29.2773 -19.374 -64.4355 -39.6025 -103.229 -42.8057c-3.1084 -0.255859 -6.16602 -0.387695 -9.16504 -0.387695c-27.5039 0 -50.3369 10.7197 -64.9385 30.7002c-13.0107 17.8125 -19.2432 42.8281 -19.0537 76.4688c0.241211 43.2734 8.73535 85.6934 17.8721 125.092
c39.0771 168.488 99.0391 327.264 178.229 471.904c49.0381 89.5605 99.2441 162.271 153.507 222.292c62.7568 69.4199 119.837 96.8721 174.501 83.9482c25.6133 -6.05664 43.9736 -23.1543 49.1113 -45.7393c3.82422 -16.7695 -0.298828 -32.8896 -4.45801 -46.6885
c-12.3545 -40.9238 -27.0225 -81.2129 -43.5947 -119.743c-4.77246 -11.0996 -17.6445 -16.2295 -28.7588 -11.457c-11.1064 4.77246 -16.2363 17.6523 -11.457 28.7588c15.9229 37.0117 30.0283 75.7383 41.9014 115.086c2.65625 8.81543 5.1377 17.959 3.68555 24.3154
c-1.94824 8.54492 -12.1865 11.8359 -16.499 12.8574c-37.1875 8.81543 -81.585 -14.9961 -131.944 -70.7041c-51.9355 -57.4521 -100.207 -127.441 -147.581 -213.966c-77.2715 -141.146 -135.811 -296.17 -173.983 -460.769
c-8.55957 -36.9248 -16.5205 -76.4688 -16.7393 -115.443c-0.138672 -23.6064 3.44434 -40.5586 10.625 -50.3877c8.78613 -12.0186 23.957 -13.4346 35.1436 -12.5146c28.9336 2.38574 58.0283 19.3809 82.6719 35.6836c84.8457 56.124 162.752 134.271 225.298 226.007
c2.29102 3.36426 5.39258 5.80859 8.83691 7.41406c12.9453 47.3447 27.3721 94.0107 43.2217 139.802c-53.9854 -21.8193 -106.468 -49.3086 -157.061 -82.3799c-1.9043 -7.24609 -7.49414 -13.3252 -15.2295 -15.5068l-16.6084 -4.69238
c-1.97754 -0.561523 -3.98438 -0.831055 -5.96191 -0.831055c-8.27539 0 -16.0762 4.72168 -19.7764 12.5156c-4.58301 9.6543 -1.52539 21.1982 7.23145 27.3203c72.1055 50.4102 148.158 89.8672 227.138 117.926c4.26172 11.2891 8.51562 22.5781 12.9521 33.7432
c4.45898 11.2305 17.1855 16.7324 28.4238 12.2666c11.2383 -4.45898 16.7334 -17.1855 12.2676 -28.4238c-0.0732422 -0.174805 -0.131836 -0.357422 -0.205078 -0.532227c17.9883 5.14453 36.0859 9.77832 54.3291 13.7559
c11.7852 2.56152 23.4678 -4.90332 26.0508 -16.7246z" />
    <glyph glyph-name="H" unicode="H" horiz-adv-x="833" 
d="M905.951 980.212c11.4717 -3.83887 17.6514 -16.2422 13.8271 -27.7061c-62.4648 -186.717 -118.509 -377.527 -167.831 -571.046c4.33496 -3.45898 7.37793 -8.53809 8.08594 -14.4854c1.37207 -11.5156 -6.50195 -21.9141 -17.7402 -24.0156
c-44.4775 -178.062 -83.3145 -358.314 -116.094 -539.741c-1.91211 -10.5811 -11.1357 -18.0029 -21.5195 -18.0029c-1.29883 0 -2.60547 0.109375 -3.91895 0.350586c-11.8945 2.14551 -19.7979 13.5371 -17.6523 25.4316c31.9111 176.603 69.5 352.111 112.445 525.584
c-102.235 -15.0254 -203.062 -39.5518 -301.949 -73.251c-40.1279 -169.518 -73.2793 -341.654 -93.4932 -516.623c-1.28418 -11.1572 -10.7559 -19.3809 -21.7168 -19.3809c-0.838867 0 -1.68555 0.0507812 -2.53906 0.15332
c-12.0117 1.38672 -20.623 12.2451 -19.2363 24.2568c19.3457 167.459 50.4248 332.021 87.9766 494.052c-89.1221 -33.3564 -176.581 -74.1631 -261.901 -122.545c-3.4082 -1.93359 -7.12207 -2.85352 -10.7783 -2.85352c-7.62598 0 -15.0332 3.99121 -19.0615 11.0986
c-5.96875 10.5156 -2.27637 23.877 8.23926 29.8389c96.0625 54.4746 194.773 99.6523 295.527 135.519c51.8691 215.417 114.451 426.347 175.961 633.387c3.4375 11.5811 15.6172 18.1855 27.2197 14.748c11.5811 -3.44434 18.1924 -15.6309 14.748 -27.2188
c-58.7578 -197.766 -118.465 -399.106 -168.795 -604.271c98.7256 31.9404 199.319 54.9492 301.256 68.8359c50.1914 197.962 107.358 393.151 171.232 584.064c3.83887 11.4717 16.2734 17.6377 27.708 13.8213z" />
    <glyph glyph-name="I" unicode="I" horiz-adv-x="530" 
d="M762.822 883.975c9.82227 -7.05664 12.0596 -20.7383 5.01758 -30.5459c-7.04883 -9.82227 -20.7314 -12.0625 -30.5537 -5.01367c-12.2227 8.77148 -27.9561 10.7852 -41.7402 11.5879c-39.0117 2.29883 -79.3008 -4.52441 -113.569 -11.4785
c-7.80078 -1.57617 -15.5869 -3.23242 -23.3662 -4.96191c-100.448 -295.258 -190.257 -598.893 -267.812 -905.366c53.001 19.7832 106.585 37.041 160.578 51.3877c11.7119 3.08691 23.6719 -3.85254 26.7803 -15.5352
c3.10156 -11.6826 -3.85254 -23.6719 -15.5352 -26.7803c-62.2393 -16.5361 -123.945 -36.9609 -184.79 -60.9033c-8.59668 -34.6182 -17.084 -69.2588 -25.3662 -103.936c-2.40039 -10.0557 -11.376 -16.8135 -21.2783 -16.8135
c-1.67871 0 -3.39355 0.197266 -5.10156 0.605469c-11.7559 2.80957 -19.0166 14.6162 -16.207 26.3799c5.81641 24.3809 11.7275 48.7539 17.7041 73.1123c-49.1406 -21.126 -97.6465 -44.5576 -145.254 -70.3535c-3.3125 -1.79492 -6.88867 -2.64844 -10.4131 -2.64844
c-7.77148 0 -15.3027 4.15234 -19.2656 11.4639c-5.76465 10.6318 -1.81641 23.9131 8.81543 29.6777c58.5684 31.7285 118.473 59.9404 179.267 84.7588c77.2861 308.779 167 614.873 267.514 912.692c-99.4844 -26.2051 -197.05 -64.166 -290.923 -113.307
c-3.24023 -1.7002 -6.71387 -2.50293 -10.1367 -2.50293c-7.88086 0 -15.499 4.27637 -19.4102 11.7412c-5.61133 10.7129 -1.47363 23.9355 9.23926 29.5469c105.563 55.2627 215.695 96.8652 328.053 123.945c3.98438 11.6318 7.93262 23.293 11.9531 34.8955
c3.95508 11.4277 16.4121 17.4775 27.8467 13.5293c11.4277 -3.95508 17.4844 -16.4189 13.5293 -27.8467c-1.09473 -3.16016 -2.16016 -6.3418 -3.25488 -9.50195c36.6328 7.38477 79.6943 14.4336 122.953 11.916c18.8857 -1.10938 43.2949 -4.35645 64.7275 -19.7461z
" />
    <glyph glyph-name="I" unicode="&#xcf;" horiz-adv-x="530" 
d="M762.822 883.975c9.82227 -7.05664 12.0596 -20.7383 5.01758 -30.5459c-7.04883 -9.82227 -20.7314 -12.0625 -30.5537 -5.01367c-12.2227 8.77148 -27.9561 10.7852 -41.7402 11.5879c-39.0117 2.29883 -79.3008 -4.52441 -113.569 -11.4785
c-7.80078 -1.57617 -15.5869 -3.23242 -23.3662 -4.96191c-100.448 -295.258 -190.257 -598.893 -267.812 -905.366c53.001 19.7832 106.585 37.041 160.578 51.3877c11.7119 3.08691 23.6719 -3.85254 26.7803 -15.5352
c3.10156 -11.6826 -3.85254 -23.6719 -15.5352 -26.7803c-62.2393 -16.5361 -123.945 -36.9609 -184.79 -60.9033c-8.59668 -34.6182 -17.084 -69.2588 -25.3662 -103.936c-2.40039 -10.0557 -11.376 -16.8135 -21.2783 -16.8135
c-1.67871 0 -3.39355 0.197266 -5.10156 0.605469c-11.7559 2.80957 -19.0166 14.6162 -16.207 26.3799c5.81641 24.3809 11.7275 48.7539 17.7041 73.1123c-49.1406 -21.126 -97.6465 -44.5576 -145.254 -70.3535c-3.3125 -1.79492 -6.88867 -2.64844 -10.4131 -2.64844
c-7.77148 0 -15.3027 4.15234 -19.2656 11.4639c-5.76465 10.6318 -1.81641 23.9131 8.81543 29.6777c58.5684 31.7285 118.473 59.9404 179.267 84.7588c77.2861 308.779 167 614.873 267.514 912.692c-99.4844 -26.2051 -197.05 -64.166 -290.923 -113.307
c-3.24023 -1.7002 -6.71387 -2.50293 -10.1367 -2.50293c-7.88086 0 -15.499 4.27637 -19.4102 11.7412c-5.61133 10.7129 -1.47363 23.9355 9.23926 29.5469c105.563 55.2627 215.695 96.8652 328.053 123.945c3.98438 11.6318 7.93262 23.293 11.9531 34.8955
c3.95508 11.4277 16.4121 17.4775 27.8467 13.5293c11.4277 -3.95508 17.4844 -16.4189 13.5293 -27.8467c-1.09473 -3.16016 -2.16016 -6.3418 -3.25488 -9.50195c36.6328 7.38477 79.6943 14.4336 122.953 11.916c18.8857 -1.10938 43.2949 -4.35645 64.7275 -19.7461z
" />
    <glyph glyph-name="I" unicode="&#xce;" horiz-adv-x="530" 
d="M762.822 883.975c9.82227 -7.05664 12.0596 -20.7383 5.01758 -30.5459c-7.04883 -9.82227 -20.7314 -12.0625 -30.5537 -5.01367c-12.2227 8.77148 -27.9561 10.7852 -41.7402 11.5879c-39.0117 2.29883 -79.3008 -4.52441 -113.569 -11.4785
c-7.80078 -1.57617 -15.5869 -3.23242 -23.3662 -4.96191c-100.448 -295.258 -190.257 -598.893 -267.812 -905.366c53.001 19.7832 106.585 37.041 160.578 51.3877c11.7119 3.08691 23.6719 -3.85254 26.7803 -15.5352
c3.10156 -11.6826 -3.85254 -23.6719 -15.5352 -26.7803c-62.2393 -16.5361 -123.945 -36.9609 -184.79 -60.9033c-8.59668 -34.6182 -17.084 -69.2588 -25.3662 -103.936c-2.40039 -10.0557 -11.376 -16.8135 -21.2783 -16.8135
c-1.67871 0 -3.39355 0.197266 -5.10156 0.605469c-11.7559 2.80957 -19.0166 14.6162 -16.207 26.3799c5.81641 24.3809 11.7275 48.7539 17.7041 73.1123c-49.1406 -21.126 -97.6465 -44.5576 -145.254 -70.3535c-3.3125 -1.79492 -6.88867 -2.64844 -10.4131 -2.64844
c-7.77148 0 -15.3027 4.15234 -19.2656 11.4639c-5.76465 10.6318 -1.81641 23.9131 8.81543 29.6777c58.5684 31.7285 118.473 59.9404 179.267 84.7588c77.2861 308.779 167 614.873 267.514 912.692c-99.4844 -26.2051 -197.05 -64.166 -290.923 -113.307
c-3.24023 -1.7002 -6.71387 -2.50293 -10.1367 -2.50293c-7.88086 0 -15.499 4.27637 -19.4102 11.7412c-5.61133 10.7129 -1.47363 23.9355 9.23926 29.5469c105.563 55.2627 215.695 96.8652 328.053 123.945c3.98438 11.6318 7.93262 23.293 11.9531 34.8955
c3.95508 11.4277 16.4121 17.4775 27.8467 13.5293c11.4277 -3.95508 17.4844 -16.4189 13.5293 -27.8467c-1.09473 -3.16016 -2.16016 -6.3418 -3.25488 -9.50195c36.6328 7.38477 79.6943 14.4336 122.953 11.916c18.8857 -1.10938 43.2949 -4.35645 64.7275 -19.7461z
" />
    <glyph glyph-name="I" unicode="&#xcd;" horiz-adv-x="530" 
d="M762.822 883.975c9.82227 -7.05664 12.0596 -20.7383 5.01758 -30.5459c-7.04883 -9.82227 -20.7314 -12.0625 -30.5537 -5.01367c-12.2227 8.77148 -27.9561 10.7852 -41.7402 11.5879c-39.0117 2.29883 -79.3008 -4.52441 -113.569 -11.4785
c-7.80078 -1.57617 -15.5869 -3.23242 -23.3662 -4.96191c-100.448 -295.258 -190.257 -598.893 -267.812 -905.366c53.001 19.7832 106.585 37.041 160.578 51.3877c11.7119 3.08691 23.6719 -3.85254 26.7803 -15.5352
c3.10156 -11.6826 -3.85254 -23.6719 -15.5352 -26.7803c-62.2393 -16.5361 -123.945 -36.9609 -184.79 -60.9033c-8.59668 -34.6182 -17.084 -69.2588 -25.3662 -103.936c-2.40039 -10.0557 -11.376 -16.8135 -21.2783 -16.8135
c-1.67871 0 -3.39355 0.197266 -5.10156 0.605469c-11.7559 2.80957 -19.0166 14.6162 -16.207 26.3799c5.81641 24.3809 11.7275 48.7539 17.7041 73.1123c-49.1406 -21.126 -97.6465 -44.5576 -145.254 -70.3535c-3.3125 -1.79492 -6.88867 -2.64844 -10.4131 -2.64844
c-7.77148 0 -15.3027 4.15234 -19.2656 11.4639c-5.76465 10.6318 -1.81641 23.9131 8.81543 29.6777c58.5684 31.7285 118.473 59.9404 179.267 84.7588c77.2861 308.779 167 614.873 267.514 912.692c-99.4844 -26.2051 -197.05 -64.166 -290.923 -113.307
c-3.24023 -1.7002 -6.71387 -2.50293 -10.1367 -2.50293c-7.88086 0 -15.499 4.27637 -19.4102 11.7412c-5.61133 10.7129 -1.47363 23.9355 9.23926 29.5469c105.563 55.2627 215.695 96.8652 328.053 123.945c3.98438 11.6318 7.93262 23.293 11.9531 34.8955
c3.95508 11.4277 16.4121 17.4775 27.8467 13.5293c11.4277 -3.95508 17.4844 -16.4189 13.5293 -27.8467c-1.09473 -3.16016 -2.16016 -6.3418 -3.25488 -9.50195c36.6328 7.38477 79.6943 14.4336 122.953 11.916c18.8857 -1.10938 43.2949 -4.35645 64.7275 -19.7461z
" />
    <glyph glyph-name="J" unicode="J" horiz-adv-x="588" 
d="M764.363 838.892c9.93164 -6.89551 12.3906 -20.5312 5.50195 -30.4775c-6.89551 -9.93164 -20.542 -12.3984 -30.4668 -5.50195c-6.3125 4.37109 -16.6094 3.26172 -30.1318 0.233398c-48.8115 -10.9316 -96.8574 -28.2705 -143.75 -48.6816
c-10.4131 -77.8477 -28.1748 -153.514 -46.1406 -225.801c-14.9082 -59.9912 -31.4658 -124.164 -50.4971 -190.336c8.60352 2.27637 17.2871 4.18848 26.0371 5.70605c11.9316 2.06543 23.2422 -5.91016 25.3145 -17.8193s-5.91113 -23.2422 -17.8203 -25.3145
c-16.2881 -2.83105 -32.4883 -7.34766 -48.5283 -13.3535c-24.9062 -82.1172 -53.8184 -166.38 -88.1963 -248.716c-38.2236 -91.5381 -75.1924 -160.235 -116.32 -216.198c-24.4609 -33.2617 -48.8779 -56.4453 -74.667 -70.8799
c-24.9346 -13.9521 -46.6807 -20.9355 -65.0557 -20.9355c-13.3467 0 -24.9053 3.68555 -34.625 11.0703c-26.0811 19.8125 -31.8018 60.6484 -17.0176 121.362c32.5752 133.774 174.501 375.36 360.021 457.148c22.5996 76.1621 41.8213 150.252 58.8604 218.825
c15.5 62.3486 30.8174 127.222 41.2012 193.467c-29.5176 -14.1719 -58.5176 -29.1387 -86.8828 -44.04c-115.75 -60.8232 -211.119 -115.831 -300.351 -186.637c-7.50195 -5.94727 -14.7852 -11.916 -21.2363 -18.4766
c0.817383 -1.16016 1.54004 -2.42285 2.13867 -3.77246c4.90332 -11.0479 -0.0732422 -23.9863 -11.1211 -28.8906c-3.97656 -1.76562 -8.20215 -2.64844 -12.4561 -2.64844c-4.03516 0 -8.09277 0.794922 -11.9971 2.38574
c-8.53809 3.48828 -15.4561 10.5596 -18.9658 19.4043c-2.53223 6.37793 -1.93359 13.5732 1.62793 19.4404c12.2451 20.1768 28.832 34.2168 44.7842 46.8701c91.9023 72.9219 189.271 129.133 307.203 191.095c37.0264 19.4551 75.1406 39.0117 114.24 56.9189
c3.03613 27.1172 5.07227 54.4023 5.73633 81.8037c0.291992 12.084 10.2529 21.4541 22.418 21.3516c12.084 -0.291992 21.6504 -10.3262 21.3516 -22.418c-0.496094 -20.3525 -1.72949 -40.5957 -3.50977 -60.7148c41.8506 17.1562 84.7588 31.707 128.645 41.5293
c14.4346 3.21777 41.2744 9.23047 64.6553 -6.99902zM325.282 55.7217c28.3867 67.9893 53.0215 137.461 74.7383 205.976c-145.063 -84.8242 -267.578 -277.788 -299.482 -408.797c-12.2305 -50.2354 -5.14453 -71.5 0.962891 -76.1484
c5.53125 -4.18848 22.4023 -3.24023 51.8184 13.2227c20.2139 11.3105 40.0918 30.4805 60.7656 58.6045c39.0117 53.0811 74.3457 118.903 111.197 207.143z" />
    <glyph glyph-name="K" unicode="K" horiz-adv-x="974" 
d="M675.896 514.678c-85.3574 -97.0469 -174.733 -190.537 -266.366 -278.886c-9.43555 -38.625 -18.7539 -77.2861 -27.9336 -115.97c90.6553 13.5225 188.162 17.4043 285.778 1.35742c55.6279 -9.15039 126.208 -27.1533 178.669 -85.5908
c8.07129 -8.99805 7.32715 -22.834 -1.6709 -30.9121c-4.18164 -3.75781 -9.40625 -5.60449 -14.6162 -5.60449c-5.99805 0 -11.9746 2.45215 -16.2949 7.26855c-43.3457 48.2861 -104.636 63.6475 -153.192 71.6309c-88.7646 14.6016 -183.703 13.332 -289.5 -4.28418
c-19.9512 -85.0361 -39.3916 -170.145 -58.0732 -255.246c-2.24023 -10.2236 -11.3037 -17.2002 -21.3594 -17.2002c-1.55469 0 -3.13867 0.160156 -4.71484 0.510742c-11.8145 2.59082 -19.2793 14.2666 -16.6885 26.0732c17.3535 79.0303 35.3994 158.061 53.8467 237.047
c-65.6543 -13.4932 -135.402 -32.8096 -210.514 -58.4014c-3.59766 -1.21875 -7.26855 -1.35742 -10.7715 -0.744141c-9.42773 -2.12305 -19.126 -3.3418 -29.0654 -3.3418c-0.62793 0 -1.24805 0.00683594 -1.87598 0.0136719
c-10.0703 0.160156 -18.7393 7.17285 -20.9941 16.9951s2.48828 19.9072 11.4863 24.4463c44.6523 22.498 90.2607 43.7109 136.008 63.2676c39.7559 29.459 78.9424 64.0771 122.741 104.811c16.4629 15.3096 32.8379 30.8457 49.1621 46.498
c59.0791 241.155 122.989 480.953 191.073 716.745c3.34961 11.6172 15.4922 18.3086 27.1025 14.959c11.6172 -3.35645 18.3086 -15.4844 14.959 -27.1016c-61.4512 -212.805 -119.355 -428.923 -173.502 -646.311c73.1416 72.7549 144.611 148.647 213.433 226.896
c85.6416 97.3682 173.896 205.398 239.236 335.408c5.42969 10.7998 18.5869 15.1562 29.3945 9.72656c10.7998 -5.42969 15.1562 -18.5938 9.72656 -29.3936c-67.5664 -134.424 -157.915 -245.096 -245.483 -344.668zM334.695 111.896
c5.40039 22.8408 10.9678 45.6514 16.4482 68.4629c-0.182617 -0.167969 -0.365234 -0.342773 -0.547852 -0.510742c-31.1309 -28.9561 -60.0576 -54.9414 -88.6338 -78.3584c0.0507812 -1.875 -0.197266 -3.72168 -0.620117 -5.5166
c23.6943 5.79395 48.1846 11.1797 73.3535 15.9229z" />
    <glyph glyph-name="L" unicode="L" horiz-adv-x="819" 
d="M753.807 -63.2939c11.5439 -3.58984 17.9932 -15.8594 14.4033 -27.3965c-3.58984 -11.5439 -15.8789 -18.002 -27.4014 -14.4043c-119.122 37.0488 -234.807 7.05664 -318.252 -30.1309c-7.23926 -22.1689 -14.4707 -44.3604 -21.7168 -66.4717
c-3.02148 -9.22363 -11.5889 -15.0762 -20.7979 -15.0762c-2.26172 0 -4.55273 0.350586 -6.82227 1.09473c-11.4863 3.76562 -17.7471 16.1348 -13.9814 27.6211c2.72949 8.32617 5.45117 16.6963 8.18066 25.0303c-108.869 -60.8457 -206.121 -150.274 -280.16 -223.263
c-4.26855 -4.20312 -9.81445 -6.30469 -15.3682 -6.30469c-5.65527 0 -11.3037 2.1748 -15.5869 6.52441c-8.49414 8.60352 -8.3916 22.4688 0.219727 30.9561c82.6279 81.46 193.591 183.061 319.259 246.175c3.6709 1.84668 7.3418 3.51074 11.0195 5.27637
c84.5469 259.34 168.123 522.161 248.81 782.589c19.1992 61.9619 40.6826 131.287 56.708 201.648c-6.41406 8.80762 -5.39941 21.2275 2.77344 28.8604l9.38477 8.77148c6.96191 6.5166 17.3389 7.77148 25.665 3.10156
c8.31152 -4.66992 12.6533 -14.1787 10.7266 -23.5195c-16.7842 -81.2998 -41.5586 -161.264 -63.4219 -231.814c-76.958 -248.395 -156.543 -498.971 -237.091 -746.628c109.248 41.3027 216.49 47.5127 313.45 17.3604z" />
    <glyph glyph-name="M" unicode="M" horiz-adv-x="848" 
d="M939.754 949.861c14.6387 -14.2002 10.9473 -36.4932 9.72168 -43.7979c-8.60352 -51.9785 -22.5703 -100.899 -37.3252 -150.608c-25.8477 -87.0352 -53.6943 -174.793 -80.6289 -259.661c-65.7129 -207.062 -133.666 -421.174 -177.209 -640.276
c-8.10742 -40.7773 -15.0547 -80.6357 -11.1289 -119.969c1.19629 -12.0264 -7.58203 -22.7539 -19.6152 -23.958c-0.737305 -0.0732422 -1.4668 -0.109375 -2.19629 -0.109375c-11.1143 -0.00683594 -20.6299 8.42871 -21.7607 19.7178
c-4.5166 45.2871 3.32812 90.4648 11.7568 132.855c44.0176 221.489 112.343 436.782 178.42 644.982c26.876 84.6787 54.6641 172.239 80.3867 258.888c13.624 45.8643 26.5254 90.9619 34.8154 137.738c-33.9033 -24.5703 -62.75 -58.4814 -84.6494 -86.1533
c-72.9297 -92.1436 -134.286 -201.005 -193.628 -306.276c-28.4668 -50.5049 -57.8965 -102.732 -88.3848 -152.748c-3.36426 -5.5166 -6.66309 -11.1279 -9.96191 -16.7324c-15.3975 -26.168 -31.3125 -53.2188 -54.7734 -73.834
c-21.2939 -18.71 -38.4131 -13.8496 -46.7246 -9.2959c-33.123 18.1699 -44.8789 98.8711 -2.53223 413.124c-56.1973 -150.844 -107.301 -305.212 -157.098 -455.968c-35.1582 -106.446 -71.5137 -216.512 -109.183 -323.775
c-19.9658 -56.8613 -40.0996 -112.124 -66.749 -163.133c-3.91113 -7.47949 -11.5371 -11.7559 -19.4258 -11.7559c-3.42285 0 -6.88867 0.802734 -10.1211 2.48828c-10.7197 5.59668 -14.8643 18.8271 -9.26758 29.54c25.3076 48.4326 44.835 102.075 64.2529 157.367
c37.5303 106.877 73.8203 216.746 108.921 323.003c69.8135 211.353 142.014 429.908 227.758 636.532c0.197266 0.489258 0.496094 0.897461 0.729492 1.36426c0.365234 0.729492 0.71582 1.45898 1.15332 2.1377c0.379883 0.59082 0.825195 1.10938 1.25586 1.64941
c0.445312 0.561523 0.875977 1.1377 1.37988 1.65625s1.05859 0.963867 1.60547 1.43066c0.532227 0.445312 1.04297 0.905273 1.6123 1.2998c0.561523 0.394531 1.16699 0.71582 1.76562 1.05176c0.634766 0.357422 1.25488 0.722656 1.91895 1.01465
c0.598633 0.262695 1.21875 0.445312 1.83887 0.657227c0.714844 0.241211 1.41504 0.489258 2.15918 0.657227c0.664062 0.145508 1.34961 0.210938 2.02832 0.298828c0.714844 0.0947266 1.42285 0.204102 2.15234 0.225586
c0.788086 0.0214844 1.57617 -0.0585938 2.37109 -0.124023c0.532227 -0.0361328 1.05078 0 1.58398 -0.0800781c0.130859 -0.0146484 0.240234 -0.0732422 0.371094 -0.0947266c0.722656 -0.131836 1.43066 -0.358398 2.15332 -0.5625
c0.729492 -0.204102 1.4668 -0.378906 2.16016 -0.648438c0.124023 -0.0439453 0.248047 -0.0585938 0.365234 -0.109375c0.489258 -0.204102 0.897461 -0.496094 1.35742 -0.729492c0.737305 -0.37207 1.47461 -0.722656 2.15332 -1.16016
c0.583984 -0.379883 1.09473 -0.825195 1.63477 -1.24805c0.569336 -0.452148 1.14551 -0.882812 1.66406 -1.38672c0.525391 -0.503906 0.970703 -1.06543 1.4375 -1.6123c0.445312 -0.525391 0.897461 -1.03613 1.29199 -1.59766
c0.401367 -0.583984 0.729492 -1.19727 1.07227 -1.81055c0.350586 -0.620117 0.708008 -1.22559 0.992188 -1.875c0.277344 -0.620117 0.466797 -1.26953 0.685547 -1.91211c0.226562 -0.693359 0.474609 -1.37207 0.634766 -2.08691
c0.15332 -0.693359 0.226562 -1.4082 0.314453 -2.12305c0.0800781 -0.685547 0.189453 -1.35645 0.210938 -2.05664c0.0214844 -0.817383 -0.0664062 -1.63477 -0.131836 -2.45215c-0.0439453 -0.510742 0 -1.00684 -0.0800781 -1.52539l-1.45996 -9.44238
c-10.6836 -69.084 -30.5762 -197.685 -42.7559 -315.193c-16.4775 -158.95 -9.61035 -210.659 -4.45801 -227.151c17.2295 15.8721 30.2627 38.0264 44.0332 61.4287c3.41504 5.80176 6.82324 11.6035 10.3115 17.3174c30.0938 49.3809 59.3486 101.279 87.6328 151.456
c60.167 106.738 122.384 217.118 197.437 311.954c26.5332 33.5244 62.6992 75.6299 107.257 103.929c24.9639 15.8496 40.8281 4.76465 46.4912 -0.730469z" />
    <glyph glyph-name="N" unicode="N" horiz-adv-x="693" 
d="M675.892 745.427c18.1123 -6.05664 25.1592 -26.9199 17.5117 -51.9062c-14.376 -46.9873 -29.5547 -94.6533 -44.2373 -140.743c-67.2227 -211.039 -136.737 -429.266 -152.032 -656.578c-0.80957 -12.0625 -11.3174 -21.1699 -23.3066 -20.375
c-12.0625 0.80957 -21.1846 11.2451 -20.375 23.3076c15.6523 232.61 85.9844 453.406 154.003 666.934c12.6387 39.668 25.6426 80.5039 38.1572 120.982c-20.0381 -16.2217 -37.8799 -37.7705 -53.6572 -57.707c-182.178 -230.209 -305.27 -527.123 -424.311 -814.259
c-22.8623 -55.1465 -46.5059 -112.168 -70.1641 -167.744c-3.54688 -8.32617 -11.6396 -13.3252 -20.1553 -13.3252c-2.86035 0 -5.76465 0.569336 -8.56641 1.75879c-9.06348 3.85254 -14.0693 13.0986 -13.0986 22.4102
c-4.6123 8.06348 -7.42871 20.3008 -4.40723 38.8945c65.4717 403.499 204.537 790.44 402.149 1118.98c6.23242 10.3623 19.6816 13.7041 30.0439 7.47168c10.3623 -6.23145 13.7041 -19.6807 7.47168 -30.043c-176.574 -293.558 -305.744 -634.584 -376.463 -992.329
c4.26172 10.2676 8.52344 20.5352 12.7344 30.6934c120.188 289.901 244.461 589.676 430.427 824.665c25.0078 31.5977 54.9121 66.917 93.5078 86.167c3.6416 1.80957 13.2744 6.59668 24.7676 2.74414z" />
    <glyph glyph-name="O" unicode="O" horiz-adv-x="666" 
d="M636.807 728.154c13.332 -65.9824 6.94922 -134.595 -0.0849609 -186.989c-27.3281 -202.858 -97.5508 -393.349 -203.085 -550.869c-79.9131 -119.282 -165.905 -192.307 -255.597 -217.052c-13.5654 -3.74316 -26.3867 -5.58984 -38.2891 -5.58984
c-29.3721 0 -53.1836 11.2598 -68.8945 33.1445c-12.5439 17.4697 -19.2793 41.0479 -20.5928 72.0762c-2.32031 54.8906 11.2158 107.366 26.1973 155.886c58.5322 189.585 154.478 377.856 301.949 592.508c6.84473 9.96777 20.4834 12.4854 30.4365 5.64746
c9.96777 -6.84473 12.4922 -20.4688 5.64746 -30.4365c-144.896 -210.9 -239.017 -395.399 -296.198 -580.628c-13.8281 -44.7764 -26.3359 -92.8662 -24.293 -141.123c0.926758 -21.9355 5.1084 -38.2158 12.4131 -48.3955
c13.5801 -18.9219 40.1133 -16.3604 59.9697 -10.8799c79.2852 21.877 156.958 88.9033 230.865 199.217c101.834 151.996 169.634 336.079 196.064 532.341c6.59668 49.002 12.624 112.883 0.583008 172.473c-11.5293 57.0508 -40.2373 103.651 -74.9072 121.603
c-47.5859 24.6436 -105.359 -2.80859 -145.458 -30.1738c-83.2334 -56.7949 -152.66 -141.356 -200.771 -244.541c-23.877 -51.2129 -37.5957 -97.4922 -41.9307 -141.466c-1.18262 -12.0264 -11.8955 -20.8486 -23.9287 -19.6377
c-12.0332 1.18262 -20.8262 11.9023 -19.6367 23.9287c4.82324 48.9795 19.8115 99.9004 45.8193 155.674c51.4316 110.313 126.047 200.983 215.768 262.208c71.6309 48.8701 137.424 60.2471 190.264 32.8896c46.8564 -24.2637 83.3799 -81.0146 97.6904 -151.813z" />
    <glyph glyph-name="O" unicode="&#xd6;" horiz-adv-x="666" 
d="M636.807 728.154c13.332 -65.9824 6.94922 -134.595 -0.0849609 -186.989c-27.3281 -202.858 -97.5508 -393.349 -203.085 -550.869c-79.9131 -119.282 -165.905 -192.307 -255.597 -217.052c-13.5654 -3.74316 -26.3867 -5.58984 -38.2891 -5.58984
c-29.3721 0 -53.1836 11.2598 -68.8945 33.1445c-12.5439 17.4697 -19.2793 41.0479 -20.5928 72.0762c-2.32031 54.8906 11.2158 107.366 26.1973 155.886c58.5322 189.585 154.478 377.856 301.949 592.508c6.84473 9.96777 20.4834 12.4854 30.4365 5.64746
c9.96777 -6.84473 12.4922 -20.4688 5.64746 -30.4365c-144.896 -210.9 -239.017 -395.399 -296.198 -580.628c-13.8281 -44.7764 -26.3359 -92.8662 -24.293 -141.123c0.926758 -21.9355 5.1084 -38.2158 12.4131 -48.3955
c13.5801 -18.9219 40.1133 -16.3604 59.9697 -10.8799c79.2852 21.877 156.958 88.9033 230.865 199.217c101.834 151.996 169.634 336.079 196.064 532.341c6.59668 49.002 12.624 112.883 0.583008 172.473c-11.5293 57.0508 -40.2373 103.651 -74.9072 121.603
c-47.5859 24.6436 -105.359 -2.80859 -145.458 -30.1738c-83.2334 -56.7949 -152.66 -141.356 -200.771 -244.541c-23.877 -51.2129 -37.5957 -97.4922 -41.9307 -141.466c-1.18262 -12.0264 -11.8955 -20.8486 -23.9287 -19.6377
c-12.0332 1.18262 -20.8262 11.9023 -19.6367 23.9287c4.82324 48.9795 19.8115 99.9004 45.8193 155.674c51.4316 110.313 126.047 200.983 215.768 262.208c71.6309 48.8701 137.424 60.2471 190.264 32.8896c46.8564 -24.2637 83.3799 -81.0146 97.6904 -151.813z" />
    <glyph glyph-name="O" unicode="&#xd5;" horiz-adv-x="666" 
d="M636.807 728.154c13.332 -65.9824 6.94922 -134.595 -0.0849609 -186.989c-27.3281 -202.858 -97.5508 -393.349 -203.085 -550.869c-79.9131 -119.282 -165.905 -192.307 -255.597 -217.052c-13.5654 -3.74316 -26.3867 -5.58984 -38.2891 -5.58984
c-29.3721 0 -53.1836 11.2598 -68.8945 33.1445c-12.5439 17.4697 -19.2793 41.0479 -20.5928 72.0762c-2.32031 54.8906 11.2158 107.366 26.1973 155.886c58.5322 189.585 154.478 377.856 301.949 592.508c6.84473 9.96777 20.4834 12.4854 30.4365 5.64746
c9.96777 -6.84473 12.4922 -20.4688 5.64746 -30.4365c-144.896 -210.9 -239.017 -395.399 -296.198 -580.628c-13.8281 -44.7764 -26.3359 -92.8662 -24.293 -141.123c0.926758 -21.9355 5.1084 -38.2158 12.4131 -48.3955
c13.5801 -18.9219 40.1133 -16.3604 59.9697 -10.8799c79.2852 21.877 156.958 88.9033 230.865 199.217c101.834 151.996 169.634 336.079 196.064 532.341c6.59668 49.002 12.624 112.883 0.583008 172.473c-11.5293 57.0508 -40.2373 103.651 -74.9072 121.603
c-47.5859 24.6436 -105.359 -2.80859 -145.458 -30.1738c-83.2334 -56.7949 -152.66 -141.356 -200.771 -244.541c-23.877 -51.2129 -37.5957 -97.4922 -41.9307 -141.466c-1.18262 -12.0264 -11.8955 -20.8486 -23.9287 -19.6377
c-12.0332 1.18262 -20.8262 11.9023 -19.6367 23.9287c4.82324 48.9795 19.8115 99.9004 45.8193 155.674c51.4316 110.313 126.047 200.983 215.768 262.208c71.6309 48.8701 137.424 60.2471 190.264 32.8896c46.8564 -24.2637 83.3799 -81.0146 97.6904 -151.813z" />
    <glyph glyph-name="O" unicode="&#xd4;" horiz-adv-x="666" 
d="M636.807 728.154c13.332 -65.9824 6.94922 -134.595 -0.0849609 -186.989c-27.3281 -202.858 -97.5508 -393.349 -203.085 -550.869c-79.9131 -119.282 -165.905 -192.307 -255.597 -217.052c-13.5654 -3.74316 -26.3867 -5.58984 -38.2891 -5.58984
c-29.3721 0 -53.1836 11.2598 -68.8945 33.1445c-12.5439 17.4697 -19.2793 41.0479 -20.5928 72.0762c-2.32031 54.8906 11.2158 107.366 26.1973 155.886c58.5322 189.585 154.478 377.856 301.949 592.508c6.84473 9.96777 20.4834 12.4854 30.4365 5.64746
c9.96777 -6.84473 12.4922 -20.4688 5.64746 -30.4365c-144.896 -210.9 -239.017 -395.399 -296.198 -580.628c-13.8281 -44.7764 -26.3359 -92.8662 -24.293 -141.123c0.926758 -21.9355 5.1084 -38.2158 12.4131 -48.3955
c13.5801 -18.9219 40.1133 -16.3604 59.9697 -10.8799c79.2852 21.877 156.958 88.9033 230.865 199.217c101.834 151.996 169.634 336.079 196.064 532.341c6.59668 49.002 12.624 112.883 0.583008 172.473c-11.5293 57.0508 -40.2373 103.651 -74.9072 121.603
c-47.5859 24.6436 -105.359 -2.80859 -145.458 -30.1738c-83.2334 -56.7949 -152.66 -141.356 -200.771 -244.541c-23.877 -51.2129 -37.5957 -97.4922 -41.9307 -141.466c-1.18262 -12.0264 -11.8955 -20.8486 -23.9287 -19.6377
c-12.0332 1.18262 -20.8262 11.9023 -19.6367 23.9287c4.82324 48.9795 19.8115 99.9004 45.8193 155.674c51.4316 110.313 126.047 200.983 215.768 262.208c71.6309 48.8701 137.424 60.2471 190.264 32.8896c46.8564 -24.2637 83.3799 -81.0146 97.6904 -151.813z" />
    <glyph glyph-name="O" unicode="&#xd3;" horiz-adv-x="666" 
d="M636.807 728.154c13.332 -65.9824 6.94922 -134.595 -0.0849609 -186.989c-27.3281 -202.858 -97.5508 -393.349 -203.085 -550.869c-79.9131 -119.282 -165.905 -192.307 -255.597 -217.052c-13.5654 -3.74316 -26.3867 -5.58984 -38.2891 -5.58984
c-29.3721 0 -53.1836 11.2598 -68.8945 33.1445c-12.5439 17.4697 -19.2793 41.0479 -20.5928 72.0762c-2.32031 54.8906 11.2158 107.366 26.1973 155.886c58.5322 189.585 154.478 377.856 301.949 592.508c6.84473 9.96777 20.4834 12.4854 30.4365 5.64746
c9.96777 -6.84473 12.4922 -20.4688 5.64746 -30.4365c-144.896 -210.9 -239.017 -395.399 -296.198 -580.628c-13.8281 -44.7764 -26.3359 -92.8662 -24.293 -141.123c0.926758 -21.9355 5.1084 -38.2158 12.4131 -48.3955
c13.5801 -18.9219 40.1133 -16.3604 59.9697 -10.8799c79.2852 21.877 156.958 88.9033 230.865 199.217c101.834 151.996 169.634 336.079 196.064 532.341c6.59668 49.002 12.624 112.883 0.583008 172.473c-11.5293 57.0508 -40.2373 103.651 -74.9072 121.603
c-47.5859 24.6436 -105.359 -2.80859 -145.458 -30.1738c-83.2334 -56.7949 -152.66 -141.356 -200.771 -244.541c-23.877 -51.2129 -37.5957 -97.4922 -41.9307 -141.466c-1.18262 -12.0264 -11.8955 -20.8486 -23.9287 -19.6377
c-12.0332 1.18262 -20.8262 11.9023 -19.6367 23.9287c4.82324 48.9795 19.8115 99.9004 45.8193 155.674c51.4316 110.313 126.047 200.983 215.768 262.208c71.6309 48.8701 137.424 60.2471 190.264 32.8896c46.8564 -24.2637 83.3799 -81.0146 97.6904 -151.813z" />
    <glyph glyph-name="P" unicode="P" horiz-adv-x="596" 
d="M789.475 689.5c5.02051 -84.1895 -42.5234 -154.152 -83.2861 -198.01c-50.7822 -54.6348 -109.3 -94.5732 -154.602 -123.267c-108.737 -68.8574 -203.653 -109.022 -293.33 -123.741c-59.1016 -156.667 -108.556 -317.092 -153.894 -474.064
c-2.77344 -9.58105 -11.5234 -15.8203 -21.0244 -15.8203c-2.01367 0 -4.05664 0.28418 -6.08496 0.868164c-11.6172 3.35645 -18.3086 15.4922 -14.959 27.1094c43.6016 150.945 91.0195 305.109 147.129 456.317c-6.3125 -0.394531 -12.6025 -0.693359 -18.8779 -0.832031
h-0.488281c-11.8652 0 -21.6143 9.49414 -21.877 21.418c-0.262695 12.0918 9.32617 22.1035 21.4102 22.3662c12.2305 0.262695 24.5557 1.09473 36.9902 2.44434c66.4346 172.742 144.961 340.778 243.045 494.76c6.4873 10.1943 20.0234 13.2012 30.2256 6.69922
c10.1943 -6.49414 13.1934 -20.0303 6.69824 -30.2246c-91.749 -144.035 -166.233 -301.022 -229.734 -462.855c76.4102 16.8418 158.206 53.5693 251.342 112.547c43.0693 27.2773 98.5879 65.1289 145.955 116.086c34.9473 37.6035 75.7539 96.8574 71.6523 165.599
c-4.07227 68.3906 -53.8105 119.151 -100.835 133.943c-43.6963 13.7412 -93.8145 7.88867 -162.497 -19.002c-132.877 -52.0225 -249.568 -141.218 -337.45 -257.938c-18.0537 -23.9795 -38.0635 -53.125 -49.6152 -87.5098
c-0.131836 -0.386719 -0.249023 -0.766602 -0.366211 -1.10938c3.36426 -2.48828 6.04199 -5.96875 7.55957 -10.2012c4.07227 -11.3838 -1.85352 -23.9131 -13.2373 -27.9854c-7.53809 -2.70703 -15.915 -1.875 -22.9863 2.28418
c-8.20215 4.81641 -14.0986 13.7188 -15.7695 23.8037c-1.7002 10.2236 0.714844 19.4697 3.29785 27.1611c13.5439 40.3027 35.9834 73.1191 56.1455 99.9004c92.7637 123.201 216.023 217.381 356.461 272.366c52.9277 20.7246 122.537 41.7119 191.6 19.9951
c72.6592 -22.8555 126.696 -94.041 131.403 -173.107z" />
    <glyph glyph-name="Q" unicode="Q" horiz-adv-x="779" 
d="M770.734 728.154c13.3467 -65.9824 6.96191 -134.595 -0.0947266 -186.997c-27.3281 -202.858 -97.5508 -393.349 -203.085 -550.869c-67.6904 -101.039 -139.759 -168.751 -214.725 -202.18c35.2969 0.0214844 73.8271 -7.06445 108.016 -31.4883
c9.83691 -7.02734 12.1133 -20.7021 5.08594 -30.5391c-7.03418 -9.8291 -20.7021 -12.1201 -30.5391 -5.08594c-32.7646 23.4102 -74.7969 28.9346 -136.306 17.9375c-54.1611 -9.68359 -107.541 -27.1387 -158.637 -51.8838
c-18.543 -8.96875 -37.75 -19.4404 -52.6807 -35.1592c-4.30566 -4.53125 -10.0928 -6.81543 -15.8799 -6.81543c-5.40723 0 -10.8369 1.99902 -15.0693 6.01953c-8.76367 8.32617 -9.12109 22.1836 -0.794922 30.9473c19.7607 20.8047 43.083 33.6406 65.3477 44.4189
c40.0547 19.3965 81.46 34.5752 123.573 45.4121c-16.3242 5.0791 -29.9707 14.7334 -40.165 28.9268c-12.5371 17.4697 -19.2725 41.0479 -20.5859 72.0762c-2.32812 54.9121 11.2158 107.38 26.1973 155.893c58.5322 189.577 154.478 377.849 301.949 592.5
c6.84473 9.96777 20.4834 12.4854 30.4365 5.64746c9.96777 -6.84473 12.4922 -20.4688 5.64746 -30.4365c-144.896 -210.9 -239.017 -395.399 -296.198 -580.628c-13.8281 -44.7695 -26.3359 -92.8516 -24.293 -141.123
c0.926758 -21.9355 5.1084 -38.2158 12.4131 -48.3955c13.5801 -18.9219 40.1055 -16.3535 59.9688 -10.8809c79.2852 21.877 156.958 88.9033 230.865 199.217c101.834 151.996 169.634 336.079 196.064 532.341c6.60449 49.002 12.6318 112.883 0.583984 172.473
c-11.5293 57.0508 -40.2373 103.651 -74.9072 121.603c-47.5791 24.6211 -105.353 -2.81641 -145.459 -30.1738c-83.2334 -56.7881 -152.653 -141.35 -200.772 -244.541c-23.877 -51.2051 -37.5889 -97.4844 -41.9238 -141.466
c-1.18262 -12.0264 -11.9463 -20.8486 -23.9287 -19.6377c-12.0332 1.18262 -20.8262 11.9023 -19.6367 23.9287c4.82324 48.9873 19.8115 99.9082 45.8115 155.675c51.4316 110.313 126.047 200.983 215.768 262.208c71.6309 48.8779 137.409 60.2471 190.264 32.8896
c46.8633 -24.2705 83.3867 -81.0215 97.6895 -151.812z" />
    <glyph glyph-name="R" unicode="R" horiz-adv-x="670" 
d="M789.476 689.5c5.01367 -84.1963 -42.5312 -154.155 -83.2939 -198.041c-50.7891 -54.6426 -109.292 -94.5732 -154.594 -123.267c-107.293 -67.9453 -201.13 -107.92 -289.756 -123.113c18.2139 -81.0078 48.8916 -158.221 78.5625 -232.895
c25.7598 -64.8291 52.3955 -131.862 83.2783 -193.992c18.1416 -36.4863 38.8516 -72.958 67.3184 -92.5518c9.96094 -6.85254 12.4717 -20.4844 5.61914 -30.4453c-4.24707 -6.16602 -11.0918 -9.47852 -18.0537 -9.47852c-4.2832 0 -8.60352 1.25488 -12.3984 3.86035
c-36.6689 25.2412 -60.9395 67.3691 -81.7002 109.132c-31.6924 63.7646 -58.6631 131.659 -84.7588 197.32c-23.3584 58.8018 -47.2715 119.165 -65.7188 182.39c-48.5859 -135.504 -90.626 -273.037 -129.615 -408.016
c-2.77344 -9.58105 -11.5234 -15.8203 -21.0244 -15.8203c-2.01367 0 -4.05664 0.28418 -6.08496 0.868164c-11.6172 3.35645 -18.3086 15.4922 -14.959 27.1094c43.6094 150.953 91.0273 305.117 147.137 456.325
c-6.30469 -0.394531 -12.6025 -0.693359 -18.8779 -0.832031h-0.488281c-11.8652 0 -21.6143 9.49414 -21.877 21.418c-0.262695 12.0918 9.32617 22.1035 21.4102 22.3662c12.2305 0.269531 24.5557 1.10156 36.9902 2.45117
c66.4424 172.742 144.962 340.778 243.046 494.76c6.49414 10.1943 20.0303 13.2012 30.2246 6.69922c10.1943 -6.49414 13.1934 -20.0303 6.69922 -30.2246c-91.749 -144.027 -166.233 -301.022 -229.734 -462.855c76.4102 16.8418 158.206 53.5693 251.342 112.547
c43.0615 27.2773 98.5723 65.1211 145.946 116.086c34.9473 37.6035 75.7539 96.8574 71.6523 165.599c-4.07227 68.3906 -53.8105 119.151 -100.835 133.943c-43.6963 13.7412 -93.8145 7.88867 -162.497 -19.002c-132.877 -52.0225 -249.568 -141.218 -337.45 -257.938
c-18.0537 -23.9795 -38.0635 -53.125 -49.6152 -87.5098c-0.131836 -0.386719 -0.249023 -0.766602 -0.366211 -1.10938c3.36426 -2.48828 6.04199 -5.96875 7.55957 -10.2012c4.07227 -11.3838 -1.85352 -23.9131 -13.2373 -27.9854
c-7.53809 -2.70703 -15.915 -1.875 -22.9863 2.28418c-8.20215 4.81641 -14.0986 13.7188 -15.7695 23.8037c-1.7002 10.2236 0.714844 19.4697 3.29785 27.1611c13.5439 40.3027 35.9834 73.1191 56.1455 99.9004c92.7637 123.201 216.023 217.381 356.461 272.366
c52.9199 20.7246 122.529 41.7119 191.599 19.9951c72.6592 -22.8555 126.696 -94.041 131.403 -173.107z" />
    <glyph glyph-name="S" unicode="S" horiz-adv-x="659" 
d="M697.674 858.507c15.376 -14.1494 23.1787 -38.3262 20.8506 -64.6406c-1.78809 -20.4326 -8.9248 -38.501 -16.084 -55.2559c-46.2432 -108.212 -107.176 -205.471 -166.102 -299.526c-6.41406 -10.2451 -19.9219 -13.3535 -30.1748 -6.93164
c-10.2451 6.42188 -13.3467 19.9297 -6.93262 30.1748c58.0361 92.6328 118.05 188.425 162.943 293.484c6.0127 14.0615 11.5078 27.8535 12.7334 41.8789c1.18945 13.5293 -2.56836 24.6357 -6.88867 28.6123c-1.98438 1.82422 -5.69824 3.88965 -16.6953 3.4375
c-41.4346 -1.6123 -82.9492 -26.2842 -118.101 -50.2119c-124.653 -84.8389 -218.592 -190.49 -279.203 -314.005c-26.0732 -53.1465 -33.5088 -96.6309 -22.0957 -129.257c5.91113 -16.8789 17.2148 -32.0869 36.6699 -49.2871
c22.5928 -19.9951 47.0391 -36.0127 72.915 -52.9648c24.5625 -16.0977 49.957 -32.7432 73.71 -53.1172c38.917 -33.3857 62.1445 -70.6025 69.0186 -110.621c8.29004 -48.2354 -6.20215 -101.499 -43.0605 -158.302c-59.7363 -92.0557 -143.371 -159.009 -235.5 -188.526
c-9.1875 -2.94824 -28.6494 -9.17969 -51.001 -9.17969c-18.4844 0 -38.9385 4.26172 -57.1895 18.1846c-23.6143 18.0244 -40.1934 50.5342 -45.4766 89.2031c-4.74316 34.6846 -0.189453 69.9238 4.31348 96.749c19.1846 114.342 62.1436 220.927 124.215 308.239
c6.21777 8.74902 17.8574 11.6895 27.4902 6.96777c9.63281 -4.72852 14.4121 -15.7402 11.3037 -26.0078l-22.666 -74.7246c-3.51758 -11.5664 -15.748 -18.1123 -27.3066 -14.5947c-0.84668 0.255859 -1.67871 0.5625 -2.47461 0.913086
c-32.0137 -63.458 -54.9492 -133.979 -67.3838 -208.048c-4.23242 -25.2412 -8.03418 -54.9121 -4.11523 -83.5762c3.67773 -26.8838 14.3828 -49.4395 28.6562 -60.3271c15.1133 -11.5303 36.8086 -12.209 68.2744 -2.12402
c82.5479 26.4531 157.886 87.0576 212.134 170.663c30.6777 47.2725 43.0029 90.0205 36.6396 127.055c-5.18066 30.123 -22.9639 57.8672 -54.3721 84.8086c-21.6074 18.5352 -44.7256 33.6846 -69.2012 49.7246c-26.0371 17.0615 -52.9639 34.7061 -77.9277 56.7881
c-15.7402 13.9229 -37.9385 36.085 -48.9795 67.6172c-15.6455 44.7256 -7.75684 98.04 24.1182 163.008c63.998 130.411 162.862 241.747 293.871 330.913c40.2812 27.4238 88.5459 55.7305 141.036 57.7666c7.52344 0.306641 30.4805 1.18945 48.0381 -14.96z" />
    <glyph glyph-name="T" unicode="T" horiz-adv-x="490" 
d="M1053.41 871.854c10.7998 -6.61914 14.2881 -20.3271 7.93945 -31.2148c-6.03516 -10.3398 -19.2217 -13.9082 -29.6279 -8.06348h-0.314453c-39.6465 0 -243.986 -33.4805 -460.958 -86.5322c-9.40625 -2.29883 -18.6592 -4.60449 -27.832 -6.90332
c-127.55 -323.323 -229.814 -663.189 -304.188 -1011.7c-2.19629 -10.2891 -11.2812 -17.3311 -21.3877 -17.3311c-1.51758 0 -3.0498 0.15332 -4.58984 0.481445c-11.8213 2.52441 -19.3672 14.1562 -16.8428 25.9775c72.6162 340.275 171.655 672.385 294.71 989.089
c-225.918 -59.7725 -370.128 -119.194 -400.011 -165.686c-4.18164 -6.50879 -11.2305 -10.0557 -18.4326 -10.0557c-4.0498 0 -8.15137 1.12402 -11.8145 3.48145c-10.1729 6.53809 -13.1133 20.082 -6.5752 30.2549c46.7832 72.7832 261.639 142.422 456.602 192.408
c8.50879 21.3516 17.1201 42.6377 25.8555 63.8438c4.6123 11.1797 17.4043 16.499 28.584 11.9014c11.1719 -4.60449 16.5059 -17.4043 11.9014 -28.584c-4.65527 -11.3037 -9.19434 -22.6807 -13.7842 -34.0283c4.26172 1.04395 8.54492 2.08789 12.7773 3.10938
c103.191 24.877 217.117 48.5859 312.581 65.0557c147.516 25.4531 157.855 19.126 165.408 14.499z" />
    <glyph glyph-name="U" unicode="U" horiz-adv-x="626" 
d="M664.178 761.24c10.6689 -5.68457 14.7061 -18.9424 9.02832 -29.5889c-3.48047 -6.53125 -6.83691 -13.1504 -10.2598 -19.7178c-0.430664 -1.07227 -0.882812 -2.14453 -1.49609 -3.17383c-0.459961 -0.766602 -0.897461 -1.5332 -1.35742 -2.2998
c-106.257 -205.384 -183.623 -430.127 -229.925 -668.582c-6.3418 -32.6846 -12.4131 -67.3174 -11.4932 -101.25c0.277344 -0.174805 0.546875 -0.349609 0.824219 -0.532227c10.0264 -6.75 12.6826 -20.3525 5.93262 -30.3867
c-4.9043 -7.2832 -12.6104 -11.3848 -20.7393 -11.3848c-2.18945 0 -4.40039 0.298828 -6.60449 0.904297c-15.7842 4.37793 -22.3594 22.3076 -22.9209 33.29c-2.09473 40.7188 4.7793 80.4678 12.0107 117.691c14.7256 75.8486 32.6045 150.311 53.4385 223.284
c-1.58398 -3.5752 -3.19629 -7.20215 -4.75781 -10.749c-8.31152 -18.834 -16.5723 -37.7197 -24.833 -56.6055c-46.0166 -105.177 -93.5957 -213.943 -149.69 -314.136c-29.7588 -53.168 -63.8887 -107.139 -111.693 -141.83
c-15.3535 -11.1426 -30.8096 -16.7246 -44.791 -16.7246c-13.4785 0 -25.585 5.18848 -34.9111 15.5947c-11.3545 12.6611 -15.0176 29.9336 -16.9365 43.5654c-6.61914 46.958 -1.0293 94.252 4.5752 130.213c11.7998 75.6807 32.626 155.718 65.5439 251.86
c62.8809 183.688 144.641 356.555 243.009 513.805c6.40723 10.2598 19.915 13.3682 30.168 6.9541s13.3613 -19.9219 6.9541 -30.167c-96.5879 -154.419 -176.902 -324.25 -238.703 -504.771c-32.0723 -93.6689 -52.3154 -171.335 -63.707 -244.425
c-5.1377 -32.9766 -10.2969 -76.1113 -4.48047 -117.363c1.875 -13.2959 4.39258 -18.4551 6.18066 -20.4473c2.45215 -2.73633 12.041 0.554688 21.3818 7.34082c40.9668 29.7217 71.8857 78.9717 99.207 127.776c55.0439 98.3242 102.185 206.084 147.778 310.297
c8.28223 18.9219 16.5576 37.8516 24.8916 56.7295c60.8672 137.993 135.264 299.323 225.97 451.254c4.24707 8.19531 8.4502 16.4189 12.7852 24.5557c5.69238 10.6689 18.9375 14.7188 29.6211 9.01953z" />
    <glyph glyph-name="U" unicode="&#xdc;" horiz-adv-x="626" 
d="M664.178 761.24c10.6689 -5.68457 14.7061 -18.9424 9.02832 -29.5889c-3.48047 -6.53125 -6.83691 -13.1504 -10.2598 -19.7178c-0.430664 -1.07227 -0.882812 -2.14453 -1.49609 -3.17383c-0.459961 -0.766602 -0.897461 -1.5332 -1.35742 -2.2998
c-106.257 -205.384 -183.623 -430.127 -229.925 -668.582c-6.3418 -32.6846 -12.4131 -67.3174 -11.4932 -101.25c0.277344 -0.174805 0.546875 -0.349609 0.824219 -0.532227c10.0264 -6.75 12.6826 -20.3525 5.93262 -30.3867
c-4.9043 -7.2832 -12.6104 -11.3848 -20.7393 -11.3848c-2.18945 0 -4.40039 0.298828 -6.60449 0.904297c-15.7842 4.37793 -22.3594 22.3076 -22.9209 33.29c-2.09473 40.7188 4.7793 80.4678 12.0107 117.691c14.7256 75.8486 32.6045 150.311 53.4385 223.284
c-1.58398 -3.5752 -3.19629 -7.20215 -4.75781 -10.749c-8.31152 -18.834 -16.5723 -37.7197 -24.833 -56.6055c-46.0166 -105.177 -93.5957 -213.943 -149.69 -314.136c-29.7588 -53.168 -63.8887 -107.139 -111.693 -141.83
c-15.3535 -11.1426 -30.8096 -16.7246 -44.791 -16.7246c-13.4785 0 -25.585 5.18848 -34.9111 15.5947c-11.3545 12.6611 -15.0176 29.9336 -16.9365 43.5654c-6.61914 46.958 -1.0293 94.252 4.5752 130.213c11.7998 75.6807 32.626 155.718 65.5439 251.86
c62.8809 183.688 144.641 356.555 243.009 513.805c6.40723 10.2598 19.915 13.3682 30.168 6.9541s13.3613 -19.9219 6.9541 -30.167c-96.5879 -154.419 -176.902 -324.25 -238.703 -504.771c-32.0723 -93.6689 -52.3154 -171.335 -63.707 -244.425
c-5.1377 -32.9766 -10.2969 -76.1113 -4.48047 -117.363c1.875 -13.2959 4.39258 -18.4551 6.18066 -20.4473c2.45215 -2.73633 12.041 0.554688 21.3818 7.34082c40.9668 29.7217 71.8857 78.9717 99.207 127.776c55.0439 98.3242 102.185 206.084 147.778 310.297
c8.28223 18.9219 16.5576 37.8516 24.8916 56.7295c60.8672 137.993 135.264 299.323 225.97 451.254c4.24707 8.19531 8.4502 16.4189 12.7852 24.5557c5.69238 10.6689 18.9375 14.7188 29.6211 9.01953z" />
    <glyph glyph-name="U" unicode="&#xdb;" horiz-adv-x="626" 
d="M664.178 761.24c10.6689 -5.68457 14.7061 -18.9424 9.02832 -29.5889c-3.48047 -6.53125 -6.83691 -13.1504 -10.2598 -19.7178c-0.430664 -1.07227 -0.882812 -2.14453 -1.49609 -3.17383c-0.459961 -0.766602 -0.897461 -1.5332 -1.35742 -2.2998
c-106.257 -205.384 -183.623 -430.127 -229.925 -668.582c-6.3418 -32.6846 -12.4131 -67.3174 -11.4932 -101.25c0.277344 -0.174805 0.546875 -0.349609 0.824219 -0.532227c10.0264 -6.75 12.6826 -20.3525 5.93262 -30.3867
c-4.9043 -7.2832 -12.6104 -11.3848 -20.7393 -11.3848c-2.18945 0 -4.40039 0.298828 -6.60449 0.904297c-15.7842 4.37793 -22.3594 22.3076 -22.9209 33.29c-2.09473 40.7188 4.7793 80.4678 12.0107 117.691c14.7256 75.8486 32.6045 150.311 53.4385 223.284
c-1.58398 -3.5752 -3.19629 -7.20215 -4.75781 -10.749c-8.31152 -18.834 -16.5723 -37.7197 -24.833 -56.6055c-46.0166 -105.177 -93.5957 -213.943 -149.69 -314.136c-29.7588 -53.168 -63.8887 -107.139 -111.693 -141.83
c-15.3535 -11.1426 -30.8096 -16.7246 -44.791 -16.7246c-13.4785 0 -25.585 5.18848 -34.9111 15.5947c-11.3545 12.6611 -15.0176 29.9336 -16.9365 43.5654c-6.61914 46.958 -1.0293 94.252 4.5752 130.213c11.7998 75.6807 32.626 155.718 65.5439 251.86
c62.8809 183.688 144.641 356.555 243.009 513.805c6.40723 10.2598 19.915 13.3682 30.168 6.9541s13.3613 -19.9219 6.9541 -30.167c-96.5879 -154.419 -176.902 -324.25 -238.703 -504.771c-32.0723 -93.6689 -52.3154 -171.335 -63.707 -244.425
c-5.1377 -32.9766 -10.2969 -76.1113 -4.48047 -117.363c1.875 -13.2959 4.39258 -18.4551 6.18066 -20.4473c2.45215 -2.73633 12.041 0.554688 21.3818 7.34082c40.9668 29.7217 71.8857 78.9717 99.207 127.776c55.0439 98.3242 102.185 206.084 147.778 310.297
c8.28223 18.9219 16.5576 37.8516 24.8916 56.7295c60.8672 137.993 135.264 299.323 225.97 451.254c4.24707 8.19531 8.4502 16.4189 12.7852 24.5557c5.69238 10.6689 18.9375 14.7188 29.6211 9.01953z" />
    <glyph glyph-name="U" unicode="&#xda;" horiz-adv-x="626" 
d="M664.178 761.24c10.6689 -5.68457 14.7061 -18.9424 9.02832 -29.5889c-3.48047 -6.53125 -6.83691 -13.1504 -10.2598 -19.7178c-0.430664 -1.07227 -0.882812 -2.14453 -1.49609 -3.17383c-0.459961 -0.766602 -0.897461 -1.5332 -1.35742 -2.2998
c-106.257 -205.384 -183.623 -430.127 -229.925 -668.582c-6.3418 -32.6846 -12.4131 -67.3174 -11.4932 -101.25c0.277344 -0.174805 0.546875 -0.349609 0.824219 -0.532227c10.0264 -6.75 12.6826 -20.3525 5.93262 -30.3867
c-4.9043 -7.2832 -12.6104 -11.3848 -20.7393 -11.3848c-2.18945 0 -4.40039 0.298828 -6.60449 0.904297c-15.7842 4.37793 -22.3594 22.3076 -22.9209 33.29c-2.09473 40.7188 4.7793 80.4678 12.0107 117.691c14.7256 75.8486 32.6045 150.311 53.4385 223.284
c-1.58398 -3.5752 -3.19629 -7.20215 -4.75781 -10.749c-8.31152 -18.834 -16.5723 -37.7197 -24.833 -56.6055c-46.0166 -105.177 -93.5957 -213.943 -149.69 -314.136c-29.7588 -53.168 -63.8887 -107.139 -111.693 -141.83
c-15.3535 -11.1426 -30.8096 -16.7246 -44.791 -16.7246c-13.4785 0 -25.585 5.18848 -34.9111 15.5947c-11.3545 12.6611 -15.0176 29.9336 -16.9365 43.5654c-6.61914 46.958 -1.0293 94.252 4.5752 130.213c11.7998 75.6807 32.626 155.718 65.5439 251.86
c62.8809 183.688 144.641 356.555 243.009 513.805c6.40723 10.2598 19.915 13.3682 30.168 6.9541s13.3613 -19.9219 6.9541 -30.167c-96.5879 -154.419 -176.902 -324.25 -238.703 -504.771c-32.0723 -93.6689 -52.3154 -171.335 -63.707 -244.425
c-5.1377 -32.9766 -10.2969 -76.1113 -4.48047 -117.363c1.875 -13.2959 4.39258 -18.4551 6.18066 -20.4473c2.45215 -2.73633 12.041 0.554688 21.3818 7.34082c40.9668 29.7217 71.8857 78.9717 99.207 127.776c55.0439 98.3242 102.185 206.084 147.778 310.297
c8.28223 18.9219 16.5576 37.8516 24.8916 56.7295c60.8672 137.993 135.264 299.323 225.97 451.254c4.24707 8.19531 8.4502 16.4189 12.7852 24.5557c5.69238 10.6689 18.9375 14.7188 29.6211 9.01953z" />
    <glyph glyph-name="V" unicode="V" horiz-adv-x="574" 
d="M761.227 902.969c10.2969 -6.33398 13.5166 -19.8193 7.18945 -30.1084c-71.9229 -116.954 -161.396 -300.592 -247.92 -478.18c-196.919 -404.163 -294.287 -588.501 -364.415 -588.501c-2.77344 0 -5.50293 0.28418 -8.19531 0.860352
c-15.4043 3.29102 -29.5469 14.0254 -42.0322 31.9258c-31.1455 44.623 -41.2959 103.702 -47.1191 155.615c-26.7598 238.448 7.83008 499.599 105.746 798.359c3.76562 11.4932 16.1348 17.7617 27.6211 13.9893c11.4932 -3.76562 17.7539 -16.1348 13.9883 -27.6211
c-95.916 -292.675 -129.878 -547.761 -103.834 -779.846c5.20996 -46.4473 13.9814 -98.8643 39.5078 -135.446c8.29004 -11.8799 13.7773 -13.8428 15.2588 -14.1562c4.58984 0.226562 34.3262 9.1875 123.931 169.146c59.9473 107.022 131.242 253.342 200.18 394.845
c86.9844 178.537 176.932 363.16 249.978 481.938c6.33398 10.3037 19.8193 13.5215 30.1162 7.17969z" />
    <glyph glyph-name="W" unicode="W" horiz-adv-x="916" 
d="M1021.89 816.635c11.2891 -4.3418 16.915 -17.0068 12.5586 -28.2812c-58.1455 -151.135 -146.742 -347.003 -232.413 -536.428c-42.6162 -94.2383 -82.876 -183.244 -119.057 -265.879c-20.1699 -46.083 -44.8789 -98.3027 -82.9707 -134.921
c-9.53809 -9.16504 -22.7021 -19.8848 -39.9238 -21.4102c-37.0928 -3.24707 -61.415 36.3848 -69.0479 77.1328c-9.03418 48.2061 -4.85254 97.376 0.430664 139.109c9.12207 72.083 24.4102 142.626 41.8291 211.695
c-35.7646 -60.6777 -67.917 -125.201 -99.4199 -188.426c-44.6455 -89.6045 -90.8086 -182.252 -146.962 -263.924c-38.7119 -56.3066 -77.373 -84.6641 -115.261 -84.6641c-8.66895 0 -17.3018 1.48145 -25.8838 4.45898
c-42.0039 14.5586 -64.6182 61.5898 -76.1914 98.4854c-25.7598 82.0732 -26.0957 178.413 -1.05859 303.197c30.6709 152.843 88.6406 310.918 172.297 469.817c88.6045 168.306 176.297 276.744 275.957 341.253c10.1436 6.58203 23.709 3.66309 30.2764 -6.48047
c6.5752 -10.1504 3.6709 -23.709 -6.47949 -30.2764c-93.1064 -60.2617 -176.041 -163.497 -261.011 -324.885c-81.708 -155.192 -138.27 -309.298 -168.115 -458.039c-23.5342 -117.269 -23.5635 -206.705 -0.102539 -281.474
c11.9307 -38.0264 29.6992 -63.6182 48.7529 -70.2227c33.042 -11.4346 71.0176 34.9619 90.7354 63.6406c54.416 79.1396 99.8789 170.393 143.853 258.64c52.2998 104.958 106.381 213.491 176.618 304.496c6.39258 8.28223 17.7471 10.8877 27.1094 6.20996
c9.35547 -4.66992 14.1064 -15.3096 11.333 -25.3945c-29.6934 -107.913 -60.4004 -219.504 -74.8418 -333.605c-4.85254 -38.3691 -8.74219 -83.292 -0.824219 -125.551c4.98438 -26.5693 17.1055 -41.7402 22.1621 -41.5869
c1.21875 0.109375 4.97656 1.24023 13.4346 9.36914c32.3057 31.0498 54.7227 78.6865 73.207 120.909c36.2822 82.8682 76.5928 171.998 119.275 266.36c85.415 188.855 173.742 384.14 231.442 534.1c4.3418 11.2959 17.0244 16.915 28.291 12.5732z" />
    <glyph glyph-name="X" unicode="X" horiz-adv-x="568" 
d="M792.5 871.444c8.43555 -8.6543 8.25391 -22.5117 -0.408203 -30.9697c-158.783 -154.696 -302.979 -334.627 -428.42 -533.224c12.7773 -154.652 38.6172 -298.125 77.5918 -429.142c3.44434 -11.5879 -3.15234 -23.7744 -14.7402 -27.2256
c-2.08691 -0.613281 -4.18164 -0.912109 -6.25391 -0.912109c-9.43555 0 -18.1416 6.15137 -20.9727 15.6602c-34.874 117.246 -59.4297 244.125 -73.7686 379.731c-88.5244 -147.421 -166.876 -304.379 -233.34 -468.445
c-3.45117 -8.51562 -11.6465 -13.6826 -20.3008 -13.6826c-2.73633 0 -5.5166 0.518555 -8.20898 1.61328c-11.2012 4.53906 -16.6084 17.3018 -12.0693 28.5107c74.958 185.031 164.854 361.196 267.33 525.051c-11.2598 146.173 -11.209 301.84 0.532227 466.344
c3.0791 43.0908 7.0127 84.9844 21.1982 123.872c4.15234 11.3623 16.7256 17.1855 28.0732 13.0625c11.3623 -4.14453 17.207 -16.7109 13.0625 -28.0732c-12.2451 -33.5605 -15.8135 -72.1201 -18.6592 -111.979c-10.0264 -140.496 -11.3838 -274.329 -4.42969 -401.157
c119.604 181.857 254.983 347.339 402.82 491.374c8.66211 8.43555 22.5273 8.25293 30.9629 -0.40918z" />
    <glyph glyph-name="Y" unicode="Y" horiz-adv-x="736" 
d="M750.951 515.291c5.05664 -10.9756 0.259766 -23.9814 -10.708 -29.0459c-14.3975 -6.63281 -34.8955 -18.9287 -59.5898 -35.2969c-41.748 -198.057 -120.274 -383.817 -228.72 -537.383c-82.752 -117.188 -164.424 -180.799 -249.693 -194.474
c-9.13672 -1.45898 -18.0615 -2.18164 -26.7305 -2.18164c-39.6172 0 -73.6953 15.0615 -95.916 43.0762c-41.6533 52.5186 -34.3701 137.248 -8.67578 197.926c26.6211 62.8662 69.2666 110.715 103.44 145.377c65.3184 66.2451 319.9 273.672 466.956 373.791
c12.3838 62.2686 21.0381 125.719 25.752 189.745c2.91895 39.5078 4.98438 85.9844 -1.70703 131.126c-2.38574 16.0908 -5.39258 21.7607 -7.50195 23.6797c-1.54688 1.44531 -8.98242 -0.641602 -17.4834 -7.28223c-21.8047 -17.0098 -40.0625 -43.6592 -55.46 -67.3027
c-46.8564 -71.915 -89.29 -150.683 -130.33 -226.853c-44.6602 -82.8975 -90.8447 -168.619 -143.327 -246.811c-26.4893 -39.4639 -59.1523 -83.9482 -100.587 -114.699c-30.1016 -22.3301 -51.541 -17.7402 -64.2168 -9.9541
c-14.9746 9.20215 -24.3223 26.541 -28.584 53.001c-8.05664 49.9941 1.00684 100.842 10.9385 143.983c44.791 194.686 133.41 365.45 219.11 530.582c5.5752 10.7275 18.7764 14.9307 29.5176 9.34863c10.7275 -5.56836 14.916 -18.7764 9.34863 -29.5107
c-84.4375 -162.716 -171.758 -330.963 -215.309 -520.241c-8.9834 -39.0264 -17.2295 -84.6494 -10.377 -127.207c2.56836 -15.9814 6.83691 -21.7607 8.26758 -22.6436c0.00683594 0.0292969 4.42188 -0.204102 15.2148 7.80078
c36.0928 26.7881 65.9102 67.5732 90.3193 103.936c51.3008 76.4248 96.9678 161.198 141.131 243.177c41.4639 76.9648 84.3359 156.55 132.192 229.99c17.3311 26.6064 38.0918 56.7588 65.209 77.9209c26.4385 20.6367 54.7891 22.5996 73.9521 5.09375
c14.2002 -12.96 18.7314 -32.3418 21.293 -49.585c7.31934 -49.3809 5.15234 -98.8643 2.06543 -140.766c-3.80176 -51.7305 -10.1357 -103.147 -18.8564 -153.879c11.5957 6.93262 21.71 12.4492 30.0215 16.2803c10.9902 5.07129 23.9863 0.262695 29.043 -10.7197z
M416.161 -61.1719c96.6602 136.884 168.801 300.3 211.249 475.305c-145.779 -104.265 -364.276 -283.159 -421.889 -341.582c-31.4365 -31.8818 -70.5645 -75.6729 -94.2949 -131.709c-19.9805 -47.1924 -27.6719 -115.4 2.66309 -153.646
c23.2129 -29.2695 60.9551 -28.1387 81.4023 -24.8691c73.0244 11.7119 145.269 69.4414 220.869 176.501z" />
    <glyph glyph-name="Y" unicode="&#x178;" horiz-adv-x="736" 
d="M750.951 515.291c5.05664 -10.9756 0.259766 -23.9814 -10.708 -29.0459c-14.3975 -6.63281 -34.8955 -18.9287 -59.5898 -35.2969c-41.748 -198.057 -120.274 -383.817 -228.72 -537.383c-82.752 -117.188 -164.424 -180.799 -249.693 -194.474
c-9.13672 -1.45898 -18.0615 -2.18164 -26.7305 -2.18164c-39.6172 0 -73.6953 15.0615 -95.916 43.0762c-41.6533 52.5186 -34.3701 137.248 -8.67578 197.926c26.6211 62.8662 69.2666 110.715 103.44 145.377c65.3184 66.2451 319.9 273.672 466.956 373.791
c12.3838 62.2686 21.0381 125.719 25.752 189.745c2.91895 39.5078 4.98438 85.9844 -1.70703 131.126c-2.38574 16.0908 -5.39258 21.7607 -7.50195 23.6797c-1.54688 1.44531 -8.98242 -0.641602 -17.4834 -7.28223c-21.8047 -17.0098 -40.0625 -43.6592 -55.46 -67.3027
c-46.8564 -71.915 -89.29 -150.683 -130.33 -226.853c-44.6602 -82.8975 -90.8447 -168.619 -143.327 -246.811c-26.4893 -39.4639 -59.1523 -83.9482 -100.587 -114.699c-30.1016 -22.3301 -51.541 -17.7402 -64.2168 -9.9541
c-14.9746 9.20215 -24.3223 26.541 -28.584 53.001c-8.05664 49.9941 1.00684 100.842 10.9385 143.983c44.791 194.686 133.41 365.45 219.11 530.582c5.5752 10.7275 18.7764 14.9307 29.5176 9.34863c10.7275 -5.56836 14.916 -18.7764 9.34863 -29.5107
c-84.4375 -162.716 -171.758 -330.963 -215.309 -520.241c-8.9834 -39.0264 -17.2295 -84.6494 -10.377 -127.207c2.56836 -15.9814 6.83691 -21.7607 8.26758 -22.6436c0.00683594 0.0292969 4.42188 -0.204102 15.2148 7.80078
c36.0928 26.7881 65.9102 67.5732 90.3193 103.936c51.3008 76.4248 96.9678 161.198 141.131 243.177c41.4639 76.9648 84.3359 156.55 132.192 229.99c17.3311 26.6064 38.0918 56.7588 65.209 77.9209c26.4385 20.6367 54.7891 22.5996 73.9521 5.09375
c14.2002 -12.96 18.7314 -32.3418 21.293 -49.585c7.31934 -49.3809 5.15234 -98.8643 2.06543 -140.766c-3.80176 -51.7305 -10.1357 -103.147 -18.8564 -153.879c11.5957 6.93262 21.71 12.4492 30.0215 16.2803c10.9902 5.07129 23.9863 0.262695 29.043 -10.7197z
M416.161 -61.1719c96.6602 136.884 168.801 300.3 211.249 475.305c-145.779 -104.265 -364.276 -283.159 -421.889 -341.582c-31.4365 -31.8818 -70.5645 -75.6729 -94.2949 -131.709c-19.9805 -47.1924 -27.6719 -115.4 2.66309 -153.646
c23.2129 -29.2695 60.9551 -28.1387 81.4023 -24.8691c73.0244 11.7119 145.269 69.4414 220.869 176.501z" />
    <glyph glyph-name="Y" unicode="&#xdd;" horiz-adv-x="736" 
d="M750.951 515.291c5.05664 -10.9756 0.259766 -23.9814 -10.708 -29.0459c-14.3975 -6.63281 -34.8955 -18.9287 -59.5898 -35.2969c-41.748 -198.057 -120.274 -383.817 -228.72 -537.383c-82.752 -117.188 -164.424 -180.799 -249.693 -194.474
c-9.13672 -1.45898 -18.0615 -2.18164 -26.7305 -2.18164c-39.6172 0 -73.6953 15.0615 -95.916 43.0762c-41.6533 52.5186 -34.3701 137.248 -8.67578 197.926c26.6211 62.8662 69.2666 110.715 103.44 145.377c65.3184 66.2451 319.9 273.672 466.956 373.791
c12.3838 62.2686 21.0381 125.719 25.752 189.745c2.91895 39.5078 4.98438 85.9844 -1.70703 131.126c-2.38574 16.0908 -5.39258 21.7607 -7.50195 23.6797c-1.54688 1.44531 -8.98242 -0.641602 -17.4834 -7.28223c-21.8047 -17.0098 -40.0625 -43.6592 -55.46 -67.3027
c-46.8564 -71.915 -89.29 -150.683 -130.33 -226.853c-44.6602 -82.8975 -90.8447 -168.619 -143.327 -246.811c-26.4893 -39.4639 -59.1523 -83.9482 -100.587 -114.699c-30.1016 -22.3301 -51.541 -17.7402 -64.2168 -9.9541
c-14.9746 9.20215 -24.3223 26.541 -28.584 53.001c-8.05664 49.9941 1.00684 100.842 10.9385 143.983c44.791 194.686 133.41 365.45 219.11 530.582c5.5752 10.7275 18.7764 14.9307 29.5176 9.34863c10.7275 -5.56836 14.916 -18.7764 9.34863 -29.5107
c-84.4375 -162.716 -171.758 -330.963 -215.309 -520.241c-8.9834 -39.0264 -17.2295 -84.6494 -10.377 -127.207c2.56836 -15.9814 6.83691 -21.7607 8.26758 -22.6436c0.00683594 0.0292969 4.42188 -0.204102 15.2148 7.80078
c36.0928 26.7881 65.9102 67.5732 90.3193 103.936c51.3008 76.4248 96.9678 161.198 141.131 243.177c41.4639 76.9648 84.3359 156.55 132.192 229.99c17.3311 26.6064 38.0918 56.7588 65.209 77.9209c26.4385 20.6367 54.7891 22.5996 73.9521 5.09375
c14.2002 -12.96 18.7314 -32.3418 21.293 -49.585c7.31934 -49.3809 5.15234 -98.8643 2.06543 -140.766c-3.80176 -51.7305 -10.1357 -103.147 -18.8564 -153.879c11.5957 6.93262 21.71 12.4492 30.0215 16.2803c10.9902 5.07129 23.9863 0.262695 29.043 -10.7197z
M416.161 -61.1719c96.6602 136.884 168.801 300.3 211.249 475.305c-145.779 -104.265 -364.276 -283.159 -421.889 -341.582c-31.4365 -31.8818 -70.5645 -75.6729 -94.2949 -131.709c-19.9805 -47.1924 -27.6719 -115.4 2.66309 -153.646
c23.2129 -29.2695 60.9551 -28.1387 81.4023 -24.8691c73.0244 11.7119 145.269 69.4414 220.869 176.501z" />
    <glyph glyph-name="Z" unicode="Z" horiz-adv-x="876" 
d="M860.148 467.42c12.0039 -1.38672 20.6289 -12.2363 19.2646 -24.248c-1.37207 -12.0117 -12.2158 -20.6084 -24.249 -19.251c-24.4824 2.81641 -49.1113 3.85254 -73.7256 3.23242c-22.4541 -50.4609 -48.8271 -102.17 -79.4395 -155.608
c-13.3545 -23.3154 -26.9053 -45.959 -40.6611 -67.9385c14.7549 -2.11621 29.2549 -4.73633 43.5361 -7.86719c11.8066 -2.59082 19.2793 -14.2666 16.6963 -26.0732c-2.59082 -11.8145 -14.252 -19.2939 -26.0732 -16.7031
c-19.6221 4.30566 -39.748 7.5752 -60.4355 9.82324c-68.9521 -104.067 -142.531 -191.665 -219.613 -261.34c-79.8545 -72.1855 -149.515 -110.649 -219.241 -121.056c-10.1143 -1.51074 -19.7031 -2.26953 -28.8027 -2.26953c-18.623 0 -35.21 3.16699 -50.2354 9.55176
c-29.0146 12.332 -52.0449 37.9531 -61.6045 68.5293c-17.2363 55.0947 9.47949 111.729 26.9492 140.583c36.9609 61.0645 91.4717 111.438 157.637 145.67c51.9062 26.8467 111.657 44.835 188.053 56.6201c66.3105 10.2236 127.382 13.4268 184.527 9.61035
c17.3965 27.1094 34.501 55.3281 51.2773 84.6201c25.8252 45.0752 48.3086 88.2539 67.873 130.25c-61.3418 -7.26074 -121.961 -25.001 -179.391 -52.9502c-3.08691 -1.50293 -6.35645 -2.21094 -9.56738 -2.21094c-8.11426 0 -15.9082 4.53125 -19.6953 12.3174
c-5.29102 10.8662 -0.766602 23.9727 10.1064 29.2637c69.8281 33.9766 144.078 54 218.971 59.5391c27.416 64.9102 47.7393 127.478 61.8965 190.278c7.09277 31.4443 13.9453 68.5225 11.0117 105.141c-2.83887 35.4287 -15.4414 66.1504 -33.7217 82.1758
c-15.4629 13.5586 -36.9102 19.0244 -67.625 17.1777c-49.9434 -2.99902 -103.199 -20.6953 -162.818 -54.1094c-110.438 -61.8887 -208.564 -157.863 -283.771 -277.54c-17.083 -27.1973 -35.6836 -59.9111 -44.0605 -96.3682
c-3.19629 -13.8799 -3.74316 -24.5781 -1.6709 -32.707c1.21094 -4.76562 3.52441 -7.75781 4.74316 -8.84473c11.3252 -0.321289 20.666 -9.31934 21.2207 -20.8271c0.59082 -12.0771 -8.72754 -22.3369 -20.8047 -22.9277c-21.6143 -1 -41.0615 16.1416 -47.5928 41.7842
c-3.89648 15.2656 -3.43652 32.21 1.42383 53.3359c9.85156 42.8135 30.6348 79.5557 49.666 109.847c79.0889 125.857 182.631 226.984 299.432 292.441c65.5156 36.7129 124.908 56.2188 181.602 59.6191c42.3242 2.51758 74.7539 -6.60449 99.1055 -27.9561
c27.0439 -23.709 44.7178 -64.3848 48.498 -111.599c3.4082 -42.4561 -4.12988 -83.6133 -11.9385 -118.269c-13.1934 -58.5176 -32.042 -117.939 -56.7871 -179.076c20.0459 -0.182617 40.084 -1.37988 60.0352 -3.6709zM386.069 -66.0645
c69.2148 62.5742 135.679 140.381 198.502 232.269c-6.42188 0.182617 -12.8945 0.270508 -19.4326 0.270508c-40.9893 0 -84.2334 -3.55371 -130.279 -10.6543c-71.5654 -11.041 -127.04 -27.6426 -174.604 -52.2422
c-59.0059 -30.5244 -107.519 -75.2861 -140.298 -129.447c-10.9824 -18.1562 -35.1807 -64.7061 -22.6221 -104.849c5.7793 -18.4844 19.5859 -33.918 36.9463 -41.2959c14.9082 -6.3418 32.5098 -7.69922 55.4521 -4.27637c60.7871 9.07031 123.18 44.0898 196.336 110.226
z" />
    <glyph glyph-name="bracketleft" unicode="[" horiz-adv-x="541" 
d="M481.307 784.618c10.0996 -6.64062 12.9014 -20.2188 6.25391 -30.3252c-6.64062 -10.0996 -20.2139 -12.916 -30.3203 -6.26855c-21.4688 14.1201 -48.9502 10.8213 -68.376 -8.19531c-13.3906 -13.0986 -23.4316 -32.8086 -32.5752 -51.8838
c-25.9424 -54.1025 -48.7832 -112.072 -70.8721 -168.146c-60.4873 -153.543 -123.025 -312.282 -164.044 -478.202c-11.3037 -45.7617 -24.6211 -106.184 -27.2559 -167.656c-1.74414 -40.7412 3.41504 -69.2158 15.7764 -87.0508
c12.6904 -18.2949 32.2031 -23.0527 42.7041 -24.2568c18.3896 -2.10156 38.6758 2.07227 58.2764 6.12988c11.7852 2.42969 23.417 -5.16699 25.8691 -17.0029c2.45215 -11.8438 -5.15918 -23.4248 -17.0029 -25.877c-17.4404 -3.6123 -36.749 -7.60352 -56.7217 -7.60352
c-5.10059 0 -10.2451 0.255859 -15.4189 0.854492c-30.8311 3.54688 -56.999 18.7471 -73.6885 42.8135c-18.2578 26.3438 -25.7451 62.5312 -23.5342 113.875c2.80176 65.3477 16.6963 128.535 28.4961 176.281c41.7188 168.751 104.805 328.869 165.803 483.711
c22.3887 56.8174 45.5215 115.546 72.1426 171.064c10.3545 21.6006 22.957 46.1631 41.4268 64.2461c33.9834 33.2539 84.5684 38.7852 123.062 13.4922z" />
    <glyph glyph-name="backslash" unicode="\" horiz-adv-x="234" 
d="M183.722 -175.435c2.63477 -11.7998 -4.78906 -23.5029 -16.5889 -26.1377c-1.60547 -0.365234 -3.21094 -0.533203 -4.79492 -0.533203c-10.0264 0 -19.0674 6.9248 -21.3438 17.1191c-64.9971 290.726 -95.4346 591.216 -90.4727 893.136
c0.197266 11.9678 9.96094 21.5342 21.8848 21.5342h0.365234c12.0918 -0.204102 21.7246 -10.1572 21.5273 -22.249c-4.90332 -298.469 25.1768 -595.507 89.4229 -882.869z" />
    <glyph glyph-name="bracketright" unicode="]" horiz-adv-x="512" 
d="M461.606 685.477c1.66406 -40.4492 -2.90137 -80.9619 -8.08984 -118.747c-24.3076 -177.165 -68.8145 -348.726 -132.272 -509.917c-32.4736 -82.4961 -62.0938 -141.363 -96.0264 -190.876c-15.4922 -22.5996 -36.9902 -50.8838 -65.9023 -69.1201
c-18.8926 -11.9023 -38.873 -17.9443 -58.1084 -17.9443c-13.6172 0 -26.8545 3.02832 -39.085 9.12891c-10.8223 5.40039 -15.208 18.5498 -9.81543 29.3643c5.40039 10.8145 18.5352 15.2148 29.3643 9.80762c21.9941 -10.9824 45.2949 1.01465 54.2852 6.68457
c17.2725 10.8945 33.6621 28.4229 53.1387 56.8457c31.9912 46.6807 60.1885 102.855 91.4062 182.163c62.1807 157.943 105.79 326.11 129.638 499.831c4.9043 35.7568 9.23926 73.9512 7.72168 110.971c-0.948242 23.1475 -5.00586 38.9609 -12.04 47.0176
c-8.12207 9.28223 -20.2285 6.91016 -25.0596 5.4502c-12.6465 -3.80176 -25.665 -14.0469 -38.2607 -23.9492c-9.49414 -7.47266 -23.2715 -5.83105 -30.7363 3.66992c-7.47266 9.50098 -5.83789 23.2715 3.6709 30.7441c15.0615 11.8506 32.1299 25.2773 52.7305 31.4727
c26.5693 7.97559 53.6426 0.875 70.623 -18.5723c18.6006 -21.2861 21.9355 -52.4385 22.8184 -74.0244z" />
    <glyph glyph-name="asciicircum" unicode="^" horiz-adv-x="326" 
d="M258.736 650.982c10.1582 -5.77246 21.1543 -19.0752 15.8203 -49.6221c-11.5293 -65.9756 -26.3066 -131.769 -43.9375 -195.555c-2.68555 -9.70508 -11.4932 -16.0684 -21.0889 -16.0684c-1.92676 0 -3.88965 0.255859 -5.8457 0.795898
c-11.6465 3.21777 -18.4844 15.2803 -15.2666 26.9346c16.1562 58.459 29.8682 118.654 40.8145 179.105c-35.3408 -31.7949 -64.8438 -73.5723 -95.8428 -117.473c-14.2227 -20.1406 -28.9346 -40.9746 -44.208 -60.6484
c-7.41406 -9.55176 -21.1699 -11.2812 -30.7148 -3.86719c-9.55176 7.41406 -11.2812 21.1621 -3.86719 30.7139c14.668 18.8926 29.0801 39.3105 43.0254 59.0576c36.0127 50.9941 73.2441 103.725 121.45 140.693c17.623 13.5146 31.291 10.6836 39.6611 5.93262z" />
    <glyph glyph-name="underscore" unicode="_" horiz-adv-x="423" 
d="M350.093 -13.8633c11.8506 0.62793 22.2139 -9.04199 22.6221 -21.1338c0.416016 -12.084 -9.04883 -22.2129 -21.1328 -22.6211c-92.0117 -3.1377 -184.958 -12.0771 -276.248 -26.584c-1.16797 -0.189453 -2.32129 -0.277344 -3.4668 -0.277344
c-10.5742 0 -19.8779 7.68457 -21.5928 18.4629c-1.89746 11.9453 6.24609 23.1611 18.1846 25.0586c93.0703 14.792 187.826 23.9062 281.634 27.0947z" />
    <glyph glyph-name="grave" unicode="`" horiz-adv-x="160" 
d="M93.9541 678.982c11.6973 -3.05078 18.71 -15.0127 15.6377 -26.7178c-10.3184 -39.5732 -19.2061 -78.1758 -14.5068 -115.378c1.31348 -10.3984 3.25488 -12.916 3.4668 -13.1719c8.24609 -8.84473 7.75684 -22.6875 -1.08789 -30.9336
c-4.21777 -3.92578 -9.58105 -5.87402 -14.9229 -5.87402c-5.85938 0 -11.7119 2.34277 -16.0244 6.96973c-10.4932 11.2598 -13.5068 26.8105 -14.8643 37.5303c-5.66309 44.9375 4.14453 88.043 15.5938 131.915c3.0498 11.7051 14.959 18.7178 26.708 15.6602z" />
    <glyph glyph-name="a" unicode="a" horiz-adv-x="450" 
d="M483.885 265.609c9.13672 -7.9248 10.1201 -21.751 2.2168 -30.8799c-48.3379 -55.752 -98.3242 -113.394 -158.863 -153.361c-15.5508 -10.2598 -34.2031 -20.6221 -55.416 -20.6221c-0.897461 0 -1.79492 0.0146484 -2.7002 0.0507812
c-12.3906 0.525391 -23.5479 4.75781 -32.2539 12.252c-11.2236 9.6543 -18.667 25.0225 -20.9658 43.2734c-1.82422 14.5146 -0.233398 28.7148 1.56152 40.6973c0.459961 3.04297 1.0293 6.09375 1.55469 9.14355c-4.56055 -9.38477 -9.0918 -18.7617 -13.5947 -28.0801
c-23.1836 -48.002 -47.1553 -97.6387 -73.2725 -144.692c-18.1777 -32.7432 -38.7344 -66.8652 -65.8291 -94.5879c-10.5303 -10.7783 -25.0596 -23.5117 -44.0615 -26.3867c-2.58301 -0.394531 -5.17383 -0.583984 -7.75 -0.583984
c-23.833 0 -46.958 16.375 -60.4873 43.5215c-12.5 25.0879 -14.9736 54.584 -15.7471 74.5859c-4.69238 120.713 39.7119 227.203 77.7822 295.28c27.7666 49.6729 54.7812 83.6348 85.0068 106.884c41.1494 31.6416 88.1807 41.4346 129.067 26.8545
c23.2783 -8.29688 40.6533 -23.709 50.2422 -44.5645c0.379883 -0.832031 0.759766 -1.68555 1.125 -2.57617c10.0996 14.8496 21.374 29.2324 34.75 40.9668c0.0732422 0.0732422 0.167969 0.117188 0.248047 0.182617c0.678711 0.576172 1.42285 1.05078 2.16016 1.54004
c0.481445 0.313477 0.933594 0.678711 1.42969 0.956055c0.664062 0.365234 1.36426 0.621094 2.0498 0.913086c0.62793 0.269531 1.22656 0.583008 1.86914 0.787109c0.678711 0.21875 1.38672 0.321289 2.08691 0.474609
c0.670898 0.138672 1.32812 0.335938 1.99902 0.416016c0.788086 0.0947266 1.58301 0.0654297 2.37891 0.0722656c0.598633 0 1.19727 0.0654297 1.7959 0.0214844c0.744141 -0.0507812 1.48145 -0.225586 2.21875 -0.356445
c0.664062 -0.124023 1.33496 -0.189453 1.99219 -0.37207c0.576172 -0.160156 1.13086 -0.416016 1.7002 -0.62793c0.802734 -0.291992 1.6123 -0.569336 2.38574 -0.963867c0.0947266 -0.0507812 0.197266 -0.0654297 0.291992 -0.116211
c0.459961 -0.241211 0.832031 -0.569336 1.2627 -0.832031c0.714844 -0.4375 1.42969 -0.853516 2.09375 -1.37891c0.657227 -0.510742 1.21191 -1.09473 1.7959 -1.6709c0.37207 -0.365234 0.788086 -0.657227 1.13867 -1.05859
c0.0654297 -0.0800781 0.109375 -0.174805 0.182617 -0.254883c0.569336 -0.670898 1.03613 -1.40039 1.51758 -2.12988c0.328125 -0.489258 0.693359 -0.956055 0.977539 -1.45996c0.357422 -0.642578 0.605469 -1.32812 0.889648 -1.99902
c0.269531 -0.642578 0.59082 -1.2627 0.802734 -1.91992c0.204102 -0.649414 0.298828 -1.32031 0.444336 -1.97754c0.160156 -0.700195 0.357422 -1.39355 0.445312 -2.1084c0.0878906 -0.729492 0.0517578 -1.45898 0.0664062 -2.19629
c0.0146484 -0.664062 0.0800781 -1.32812 0.0292969 -1.99219c-0.0507812 -0.685547 -0.21875 -1.37109 -0.335938 -2.05664c-0.117188 -0.714844 -0.197266 -1.4375 -0.394531 -2.14551c-0.15332 -0.554688 -0.40918 -1.09473 -0.606445 -1.6416
c-0.298828 -0.824219 -0.583008 -1.64844 -0.984375 -2.43652c-0.0507812 -0.0947266 -0.0654297 -0.197266 -0.116211 -0.291992c-37.377 -71.2217 -77.2207 -154.907 -89.3193 -235.645c-1.42285 -9.48633 -2.58301 -19.5273 -1.42285 -28.7363
c1 -7.94727 3.85352 -13.6318 6.0791 -15.5508c1.4668 -1.2627 3.81641 -1.61328 5.52441 -1.68652c9.71973 -0.481445 21.8037 6.52441 32.1729 13.3691c55.5186 36.6475 103.506 91.9902 149.902 145.502c7.91797 9.12891 21.7461 10.1211 30.8828 2.19629z
M236.992 297.684c8.94629 23.8916 10.1865 44.0664 3.58203 58.4199c-4.6123 10.0342 -13.0771 17.3096 -25.1611 21.6152c-7.58203 2.70703 -15.6094 4.03516 -23.877 4.03516c-20.7168 0 -42.9736 -8.34766 -63.7852 -24.3506
c-25.3584 -19.5059 -48.71 -49.2354 -73.4922 -93.5518c-35.3262 -63.1729 -76.5342 -161.68 -72.2432 -272.213c0.620117 -15.9736 2.45215 -39.2227 11.1875 -56.7578c6.5459 -13.1348 16.543 -20.0166 22.498 -19.1777c6.93262 1.04395 16.2363 10.5674 19.2939 13.6982
c23.4824 24.0225 42.1709 55.1602 58.8604 85.2324c25.5117 45.959 49.2061 95.0332 72.127 142.48c22.5557 46.7178 45.6514 94.5449 71.0098 140.569z" />
    <glyph glyph-name="a" unicode="&#xe5;" horiz-adv-x="450" 
d="M483.885 265.609c9.13672 -7.9248 10.1201 -21.751 2.2168 -30.8799c-48.3379 -55.752 -98.3242 -113.394 -158.863 -153.361c-15.5508 -10.2598 -34.2031 -20.6221 -55.416 -20.6221c-0.897461 0 -1.79492 0.0146484 -2.7002 0.0507812
c-12.3906 0.525391 -23.5479 4.75781 -32.2539 12.252c-11.2236 9.6543 -18.667 25.0225 -20.9658 43.2734c-1.82422 14.5146 -0.233398 28.7148 1.56152 40.6973c0.459961 3.04297 1.0293 6.09375 1.55469 9.14355c-4.56055 -9.38477 -9.0918 -18.7617 -13.5947 -28.0801
c-23.1836 -48.002 -47.1553 -97.6387 -73.2725 -144.692c-18.1777 -32.7432 -38.7344 -66.8652 -65.8291 -94.5879c-10.5303 -10.7783 -25.0596 -23.5117 -44.0615 -26.3867c-2.58301 -0.394531 -5.17383 -0.583984 -7.75 -0.583984
c-23.833 0 -46.958 16.375 -60.4873 43.5215c-12.5 25.0879 -14.9736 54.584 -15.7471 74.5859c-4.69238 120.713 39.7119 227.203 77.7822 295.28c27.7666 49.6729 54.7812 83.6348 85.0068 106.884c41.1494 31.6416 88.1807 41.4346 129.067 26.8545
c23.2783 -8.29688 40.6533 -23.709 50.2422 -44.5645c0.379883 -0.832031 0.759766 -1.68555 1.125 -2.57617c10.0996 14.8496 21.374 29.2324 34.75 40.9668c0.0732422 0.0732422 0.167969 0.117188 0.248047 0.182617c0.678711 0.576172 1.42285 1.05078 2.16016 1.54004
c0.481445 0.313477 0.933594 0.678711 1.42969 0.956055c0.664062 0.365234 1.36426 0.621094 2.0498 0.913086c0.62793 0.269531 1.22656 0.583008 1.86914 0.787109c0.678711 0.21875 1.38672 0.321289 2.08691 0.474609
c0.670898 0.138672 1.32812 0.335938 1.99902 0.416016c0.788086 0.0947266 1.58301 0.0654297 2.37891 0.0722656c0.598633 0 1.19727 0.0654297 1.7959 0.0214844c0.744141 -0.0507812 1.48145 -0.225586 2.21875 -0.356445
c0.664062 -0.124023 1.33496 -0.189453 1.99219 -0.37207c0.576172 -0.160156 1.13086 -0.416016 1.7002 -0.62793c0.802734 -0.291992 1.6123 -0.569336 2.38574 -0.963867c0.0947266 -0.0507812 0.197266 -0.0654297 0.291992 -0.116211
c0.459961 -0.241211 0.832031 -0.569336 1.2627 -0.832031c0.714844 -0.4375 1.42969 -0.853516 2.09375 -1.37891c0.657227 -0.510742 1.21191 -1.09473 1.7959 -1.6709c0.37207 -0.365234 0.788086 -0.657227 1.13867 -1.05859
c0.0654297 -0.0800781 0.109375 -0.174805 0.182617 -0.254883c0.569336 -0.670898 1.03613 -1.40039 1.51758 -2.12988c0.328125 -0.489258 0.693359 -0.956055 0.977539 -1.45996c0.357422 -0.642578 0.605469 -1.32812 0.889648 -1.99902
c0.269531 -0.642578 0.59082 -1.2627 0.802734 -1.91992c0.204102 -0.649414 0.298828 -1.32031 0.444336 -1.97754c0.160156 -0.700195 0.357422 -1.39355 0.445312 -2.1084c0.0878906 -0.729492 0.0517578 -1.45898 0.0664062 -2.19629
c0.0146484 -0.664062 0.0800781 -1.32812 0.0292969 -1.99219c-0.0507812 -0.685547 -0.21875 -1.37109 -0.335938 -2.05664c-0.117188 -0.714844 -0.197266 -1.4375 -0.394531 -2.14551c-0.15332 -0.554688 -0.40918 -1.09473 -0.606445 -1.6416
c-0.298828 -0.824219 -0.583008 -1.64844 -0.984375 -2.43652c-0.0507812 -0.0947266 -0.0654297 -0.197266 -0.116211 -0.291992c-37.377 -71.2217 -77.2207 -154.907 -89.3193 -235.645c-1.42285 -9.48633 -2.58301 -19.5273 -1.42285 -28.7363
c1 -7.94727 3.85352 -13.6318 6.0791 -15.5508c1.4668 -1.2627 3.81641 -1.61328 5.52441 -1.68652c9.71973 -0.481445 21.8037 6.52441 32.1729 13.3691c55.5186 36.6475 103.506 91.9902 149.902 145.502c7.91797 9.12891 21.7461 10.1211 30.8828 2.19629z
M236.992 297.684c8.94629 23.8916 10.1865 44.0664 3.58203 58.4199c-4.6123 10.0342 -13.0771 17.3096 -25.1611 21.6152c-7.58203 2.70703 -15.6094 4.03516 -23.877 4.03516c-20.7168 0 -42.9736 -8.34766 -63.7852 -24.3506
c-25.3584 -19.5059 -48.71 -49.2354 -73.4922 -93.5518c-35.3262 -63.1729 -76.5342 -161.68 -72.2432 -272.213c0.620117 -15.9736 2.45215 -39.2227 11.1875 -56.7578c6.5459 -13.1348 16.543 -20.0166 22.498 -19.1777c6.93262 1.04395 16.2363 10.5674 19.2939 13.6982
c23.4824 24.0225 42.1709 55.1602 58.8604 85.2324c25.5117 45.959 49.2061 95.0332 72.127 142.48c22.5557 46.7178 45.6514 94.5449 71.0098 140.569z" />
    <glyph glyph-name="a" unicode="&#xe4;" horiz-adv-x="450" 
d="M483.885 265.609c9.13672 -7.9248 10.1201 -21.751 2.2168 -30.8799c-48.3379 -55.752 -98.3242 -113.394 -158.863 -153.361c-15.5508 -10.2598 -34.2031 -20.6221 -55.416 -20.6221c-0.897461 0 -1.79492 0.0146484 -2.7002 0.0507812
c-12.3906 0.525391 -23.5479 4.75781 -32.2539 12.252c-11.2236 9.6543 -18.667 25.0225 -20.9658 43.2734c-1.82422 14.5146 -0.233398 28.7148 1.56152 40.6973c0.459961 3.04297 1.0293 6.09375 1.55469 9.14355c-4.56055 -9.38477 -9.0918 -18.7617 -13.5947 -28.0801
c-23.1836 -48.002 -47.1553 -97.6387 -73.2725 -144.692c-18.1777 -32.7432 -38.7344 -66.8652 -65.8291 -94.5879c-10.5303 -10.7783 -25.0596 -23.5117 -44.0615 -26.3867c-2.58301 -0.394531 -5.17383 -0.583984 -7.75 -0.583984
c-23.833 0 -46.958 16.375 -60.4873 43.5215c-12.5 25.0879 -14.9736 54.584 -15.7471 74.5859c-4.69238 120.713 39.7119 227.203 77.7822 295.28c27.7666 49.6729 54.7812 83.6348 85.0068 106.884c41.1494 31.6416 88.1807 41.4346 129.067 26.8545
c23.2783 -8.29688 40.6533 -23.709 50.2422 -44.5645c0.379883 -0.832031 0.759766 -1.68555 1.125 -2.57617c10.0996 14.8496 21.374 29.2324 34.75 40.9668c0.0732422 0.0732422 0.167969 0.117188 0.248047 0.182617c0.678711 0.576172 1.42285 1.05078 2.16016 1.54004
c0.481445 0.313477 0.933594 0.678711 1.42969 0.956055c0.664062 0.365234 1.36426 0.621094 2.0498 0.913086c0.62793 0.269531 1.22656 0.583008 1.86914 0.787109c0.678711 0.21875 1.38672 0.321289 2.08691 0.474609
c0.670898 0.138672 1.32812 0.335938 1.99902 0.416016c0.788086 0.0947266 1.58301 0.0654297 2.37891 0.0722656c0.598633 0 1.19727 0.0654297 1.7959 0.0214844c0.744141 -0.0507812 1.48145 -0.225586 2.21875 -0.356445
c0.664062 -0.124023 1.33496 -0.189453 1.99219 -0.37207c0.576172 -0.160156 1.13086 -0.416016 1.7002 -0.62793c0.802734 -0.291992 1.6123 -0.569336 2.38574 -0.963867c0.0947266 -0.0507812 0.197266 -0.0654297 0.291992 -0.116211
c0.459961 -0.241211 0.832031 -0.569336 1.2627 -0.832031c0.714844 -0.4375 1.42969 -0.853516 2.09375 -1.37891c0.657227 -0.510742 1.21191 -1.09473 1.7959 -1.6709c0.37207 -0.365234 0.788086 -0.657227 1.13867 -1.05859
c0.0654297 -0.0800781 0.109375 -0.174805 0.182617 -0.254883c0.569336 -0.670898 1.03613 -1.40039 1.51758 -2.12988c0.328125 -0.489258 0.693359 -0.956055 0.977539 -1.45996c0.357422 -0.642578 0.605469 -1.32812 0.889648 -1.99902
c0.269531 -0.642578 0.59082 -1.2627 0.802734 -1.91992c0.204102 -0.649414 0.298828 -1.32031 0.444336 -1.97754c0.160156 -0.700195 0.357422 -1.39355 0.445312 -2.1084c0.0878906 -0.729492 0.0517578 -1.45898 0.0664062 -2.19629
c0.0146484 -0.664062 0.0800781 -1.32812 0.0292969 -1.99219c-0.0507812 -0.685547 -0.21875 -1.37109 -0.335938 -2.05664c-0.117188 -0.714844 -0.197266 -1.4375 -0.394531 -2.14551c-0.15332 -0.554688 -0.40918 -1.09473 -0.606445 -1.6416
c-0.298828 -0.824219 -0.583008 -1.64844 -0.984375 -2.43652c-0.0507812 -0.0947266 -0.0654297 -0.197266 -0.116211 -0.291992c-37.377 -71.2217 -77.2207 -154.907 -89.3193 -235.645c-1.42285 -9.48633 -2.58301 -19.5273 -1.42285 -28.7363
c1 -7.94727 3.85352 -13.6318 6.0791 -15.5508c1.4668 -1.2627 3.81641 -1.61328 5.52441 -1.68652c9.71973 -0.481445 21.8037 6.52441 32.1729 13.3691c55.5186 36.6475 103.506 91.9902 149.902 145.502c7.91797 9.12891 21.7461 10.1211 30.8828 2.19629z
M236.992 297.684c8.94629 23.8916 10.1865 44.0664 3.58203 58.4199c-4.6123 10.0342 -13.0771 17.3096 -25.1611 21.6152c-7.58203 2.70703 -15.6094 4.03516 -23.877 4.03516c-20.7168 0 -42.9736 -8.34766 -63.7852 -24.3506
c-25.3584 -19.5059 -48.71 -49.2354 -73.4922 -93.5518c-35.3262 -63.1729 -76.5342 -161.68 -72.2432 -272.213c0.620117 -15.9736 2.45215 -39.2227 11.1875 -56.7578c6.5459 -13.1348 16.543 -20.0166 22.498 -19.1777c6.93262 1.04395 16.2363 10.5674 19.2939 13.6982
c23.4824 24.0225 42.1709 55.1602 58.8604 85.2324c25.5117 45.959 49.2061 95.0332 72.127 142.48c22.5557 46.7178 45.6514 94.5449 71.0098 140.569z" />
    <glyph glyph-name="a" unicode="&#xe3;" horiz-adv-x="450" 
d="M483.885 265.609c9.13672 -7.9248 10.1201 -21.751 2.2168 -30.8799c-48.3379 -55.752 -98.3242 -113.394 -158.863 -153.361c-15.5508 -10.2598 -34.2031 -20.6221 -55.416 -20.6221c-0.897461 0 -1.79492 0.0146484 -2.7002 0.0507812
c-12.3906 0.525391 -23.5479 4.75781 -32.2539 12.252c-11.2236 9.6543 -18.667 25.0225 -20.9658 43.2734c-1.82422 14.5146 -0.233398 28.7148 1.56152 40.6973c0.459961 3.04297 1.0293 6.09375 1.55469 9.14355c-4.56055 -9.38477 -9.0918 -18.7617 -13.5947 -28.0801
c-23.1836 -48.002 -47.1553 -97.6387 -73.2725 -144.692c-18.1777 -32.7432 -38.7344 -66.8652 -65.8291 -94.5879c-10.5303 -10.7783 -25.0596 -23.5117 -44.0615 -26.3867c-2.58301 -0.394531 -5.17383 -0.583984 -7.75 -0.583984
c-23.833 0 -46.958 16.375 -60.4873 43.5215c-12.5 25.0879 -14.9736 54.584 -15.7471 74.5859c-4.69238 120.713 39.7119 227.203 77.7822 295.28c27.7666 49.6729 54.7812 83.6348 85.0068 106.884c41.1494 31.6416 88.1807 41.4346 129.067 26.8545
c23.2783 -8.29688 40.6533 -23.709 50.2422 -44.5645c0.379883 -0.832031 0.759766 -1.68555 1.125 -2.57617c10.0996 14.8496 21.374 29.2324 34.75 40.9668c0.0732422 0.0732422 0.167969 0.117188 0.248047 0.182617c0.678711 0.576172 1.42285 1.05078 2.16016 1.54004
c0.481445 0.313477 0.933594 0.678711 1.42969 0.956055c0.664062 0.365234 1.36426 0.621094 2.0498 0.913086c0.62793 0.269531 1.22656 0.583008 1.86914 0.787109c0.678711 0.21875 1.38672 0.321289 2.08691 0.474609
c0.670898 0.138672 1.32812 0.335938 1.99902 0.416016c0.788086 0.0947266 1.58301 0.0654297 2.37891 0.0722656c0.598633 0 1.19727 0.0654297 1.7959 0.0214844c0.744141 -0.0507812 1.48145 -0.225586 2.21875 -0.356445
c0.664062 -0.124023 1.33496 -0.189453 1.99219 -0.37207c0.576172 -0.160156 1.13086 -0.416016 1.7002 -0.62793c0.802734 -0.291992 1.6123 -0.569336 2.38574 -0.963867c0.0947266 -0.0507812 0.197266 -0.0654297 0.291992 -0.116211
c0.459961 -0.241211 0.832031 -0.569336 1.2627 -0.832031c0.714844 -0.4375 1.42969 -0.853516 2.09375 -1.37891c0.657227 -0.510742 1.21191 -1.09473 1.7959 -1.6709c0.37207 -0.365234 0.788086 -0.657227 1.13867 -1.05859
c0.0654297 -0.0800781 0.109375 -0.174805 0.182617 -0.254883c0.569336 -0.670898 1.03613 -1.40039 1.51758 -2.12988c0.328125 -0.489258 0.693359 -0.956055 0.977539 -1.45996c0.357422 -0.642578 0.605469 -1.32812 0.889648 -1.99902
c0.269531 -0.642578 0.59082 -1.2627 0.802734 -1.91992c0.204102 -0.649414 0.298828 -1.32031 0.444336 -1.97754c0.160156 -0.700195 0.357422 -1.39355 0.445312 -2.1084c0.0878906 -0.729492 0.0517578 -1.45898 0.0664062 -2.19629
c0.0146484 -0.664062 0.0800781 -1.32812 0.0292969 -1.99219c-0.0507812 -0.685547 -0.21875 -1.37109 -0.335938 -2.05664c-0.117188 -0.714844 -0.197266 -1.4375 -0.394531 -2.14551c-0.15332 -0.554688 -0.40918 -1.09473 -0.606445 -1.6416
c-0.298828 -0.824219 -0.583008 -1.64844 -0.984375 -2.43652c-0.0507812 -0.0947266 -0.0654297 -0.197266 -0.116211 -0.291992c-37.377 -71.2217 -77.2207 -154.907 -89.3193 -235.645c-1.42285 -9.48633 -2.58301 -19.5273 -1.42285 -28.7363
c1 -7.94727 3.85352 -13.6318 6.0791 -15.5508c1.4668 -1.2627 3.81641 -1.61328 5.52441 -1.68652c9.71973 -0.481445 21.8037 6.52441 32.1729 13.3691c55.5186 36.6475 103.506 91.9902 149.902 145.502c7.91797 9.12891 21.7461 10.1211 30.8828 2.19629z
M236.992 297.684c8.94629 23.8916 10.1865 44.0664 3.58203 58.4199c-4.6123 10.0342 -13.0771 17.3096 -25.1611 21.6152c-7.58203 2.70703 -15.6094 4.03516 -23.877 4.03516c-20.7168 0 -42.9736 -8.34766 -63.7852 -24.3506
c-25.3584 -19.5059 -48.71 -49.2354 -73.4922 -93.5518c-35.3262 -63.1729 -76.5342 -161.68 -72.2432 -272.213c0.620117 -15.9736 2.45215 -39.2227 11.1875 -56.7578c6.5459 -13.1348 16.543 -20.0166 22.498 -19.1777c6.93262 1.04395 16.2363 10.5674 19.2939 13.6982
c23.4824 24.0225 42.1709 55.1602 58.8604 85.2324c25.5117 45.959 49.2061 95.0332 72.127 142.48c22.5557 46.7178 45.6514 94.5449 71.0098 140.569z" />
    <glyph glyph-name="a" unicode="&#xe2;" horiz-adv-x="450" 
d="M483.885 265.609c9.13672 -7.9248 10.1201 -21.751 2.2168 -30.8799c-48.3379 -55.752 -98.3242 -113.394 -158.863 -153.361c-15.5508 -10.2598 -34.2031 -20.6221 -55.416 -20.6221c-0.897461 0 -1.79492 0.0146484 -2.7002 0.0507812
c-12.3906 0.525391 -23.5479 4.75781 -32.2539 12.252c-11.2236 9.6543 -18.667 25.0225 -20.9658 43.2734c-1.82422 14.5146 -0.233398 28.7148 1.56152 40.6973c0.459961 3.04297 1.0293 6.09375 1.55469 9.14355c-4.56055 -9.38477 -9.0918 -18.7617 -13.5947 -28.0801
c-23.1836 -48.002 -47.1553 -97.6387 -73.2725 -144.692c-18.1777 -32.7432 -38.7344 -66.8652 -65.8291 -94.5879c-10.5303 -10.7783 -25.0596 -23.5117 -44.0615 -26.3867c-2.58301 -0.394531 -5.17383 -0.583984 -7.75 -0.583984
c-23.833 0 -46.958 16.375 -60.4873 43.5215c-12.5 25.0879 -14.9736 54.584 -15.7471 74.5859c-4.69238 120.713 39.7119 227.203 77.7822 295.28c27.7666 49.6729 54.7812 83.6348 85.0068 106.884c41.1494 31.6416 88.1807 41.4346 129.067 26.8545
c23.2783 -8.29688 40.6533 -23.709 50.2422 -44.5645c0.379883 -0.832031 0.759766 -1.68555 1.125 -2.57617c10.0996 14.8496 21.374 29.2324 34.75 40.9668c0.0732422 0.0732422 0.167969 0.117188 0.248047 0.182617c0.678711 0.576172 1.42285 1.05078 2.16016 1.54004
c0.481445 0.313477 0.933594 0.678711 1.42969 0.956055c0.664062 0.365234 1.36426 0.621094 2.0498 0.913086c0.62793 0.269531 1.22656 0.583008 1.86914 0.787109c0.678711 0.21875 1.38672 0.321289 2.08691 0.474609
c0.670898 0.138672 1.32812 0.335938 1.99902 0.416016c0.788086 0.0947266 1.58301 0.0654297 2.37891 0.0722656c0.598633 0 1.19727 0.0654297 1.7959 0.0214844c0.744141 -0.0507812 1.48145 -0.225586 2.21875 -0.356445
c0.664062 -0.124023 1.33496 -0.189453 1.99219 -0.37207c0.576172 -0.160156 1.13086 -0.416016 1.7002 -0.62793c0.802734 -0.291992 1.6123 -0.569336 2.38574 -0.963867c0.0947266 -0.0507812 0.197266 -0.0654297 0.291992 -0.116211
c0.459961 -0.241211 0.832031 -0.569336 1.2627 -0.832031c0.714844 -0.4375 1.42969 -0.853516 2.09375 -1.37891c0.657227 -0.510742 1.21191 -1.09473 1.7959 -1.6709c0.37207 -0.365234 0.788086 -0.657227 1.13867 -1.05859
c0.0654297 -0.0800781 0.109375 -0.174805 0.182617 -0.254883c0.569336 -0.670898 1.03613 -1.40039 1.51758 -2.12988c0.328125 -0.489258 0.693359 -0.956055 0.977539 -1.45996c0.357422 -0.642578 0.605469 -1.32812 0.889648 -1.99902
c0.269531 -0.642578 0.59082 -1.2627 0.802734 -1.91992c0.204102 -0.649414 0.298828 -1.32031 0.444336 -1.97754c0.160156 -0.700195 0.357422 -1.39355 0.445312 -2.1084c0.0878906 -0.729492 0.0517578 -1.45898 0.0664062 -2.19629
c0.0146484 -0.664062 0.0800781 -1.32812 0.0292969 -1.99219c-0.0507812 -0.685547 -0.21875 -1.37109 -0.335938 -2.05664c-0.117188 -0.714844 -0.197266 -1.4375 -0.394531 -2.14551c-0.15332 -0.554688 -0.40918 -1.09473 -0.606445 -1.6416
c-0.298828 -0.824219 -0.583008 -1.64844 -0.984375 -2.43652c-0.0507812 -0.0947266 -0.0654297 -0.197266 -0.116211 -0.291992c-37.377 -71.2217 -77.2207 -154.907 -89.3193 -235.645c-1.42285 -9.48633 -2.58301 -19.5273 -1.42285 -28.7363
c1 -7.94727 3.85352 -13.6318 6.0791 -15.5508c1.4668 -1.2627 3.81641 -1.61328 5.52441 -1.68652c9.71973 -0.481445 21.8037 6.52441 32.1729 13.3691c55.5186 36.6475 103.506 91.9902 149.902 145.502c7.91797 9.12891 21.7461 10.1211 30.8828 2.19629z
M236.992 297.684c8.94629 23.8916 10.1865 44.0664 3.58203 58.4199c-4.6123 10.0342 -13.0771 17.3096 -25.1611 21.6152c-7.58203 2.70703 -15.6094 4.03516 -23.877 4.03516c-20.7168 0 -42.9736 -8.34766 -63.7852 -24.3506
c-25.3584 -19.5059 -48.71 -49.2354 -73.4922 -93.5518c-35.3262 -63.1729 -76.5342 -161.68 -72.2432 -272.213c0.620117 -15.9736 2.45215 -39.2227 11.1875 -56.7578c6.5459 -13.1348 16.543 -20.0166 22.498 -19.1777c6.93262 1.04395 16.2363 10.5674 19.2939 13.6982
c23.4824 24.0225 42.1709 55.1602 58.8604 85.2324c25.5117 45.959 49.2061 95.0332 72.127 142.48c22.5557 46.7178 45.6514 94.5449 71.0098 140.569z" />
    <glyph glyph-name="a" unicode="&#xe1;" horiz-adv-x="450" 
d="M483.885 265.609c9.13672 -7.9248 10.1201 -21.751 2.2168 -30.8799c-48.3379 -55.752 -98.3242 -113.394 -158.863 -153.361c-15.5508 -10.2598 -34.2031 -20.6221 -55.416 -20.6221c-0.897461 0 -1.79492 0.0146484 -2.7002 0.0507812
c-12.3906 0.525391 -23.5479 4.75781 -32.2539 12.252c-11.2236 9.6543 -18.667 25.0225 -20.9658 43.2734c-1.82422 14.5146 -0.233398 28.7148 1.56152 40.6973c0.459961 3.04297 1.0293 6.09375 1.55469 9.14355c-4.56055 -9.38477 -9.0918 -18.7617 -13.5947 -28.0801
c-23.1836 -48.002 -47.1553 -97.6387 -73.2725 -144.692c-18.1777 -32.7432 -38.7344 -66.8652 -65.8291 -94.5879c-10.5303 -10.7783 -25.0596 -23.5117 -44.0615 -26.3867c-2.58301 -0.394531 -5.17383 -0.583984 -7.75 -0.583984
c-23.833 0 -46.958 16.375 -60.4873 43.5215c-12.5 25.0879 -14.9736 54.584 -15.7471 74.5859c-4.69238 120.713 39.7119 227.203 77.7822 295.28c27.7666 49.6729 54.7812 83.6348 85.0068 106.884c41.1494 31.6416 88.1807 41.4346 129.067 26.8545
c23.2783 -8.29688 40.6533 -23.709 50.2422 -44.5645c0.379883 -0.832031 0.759766 -1.68555 1.125 -2.57617c10.0996 14.8496 21.374 29.2324 34.75 40.9668c0.0732422 0.0732422 0.167969 0.117188 0.248047 0.182617c0.678711 0.576172 1.42285 1.05078 2.16016 1.54004
c0.481445 0.313477 0.933594 0.678711 1.42969 0.956055c0.664062 0.365234 1.36426 0.621094 2.0498 0.913086c0.62793 0.269531 1.22656 0.583008 1.86914 0.787109c0.678711 0.21875 1.38672 0.321289 2.08691 0.474609
c0.670898 0.138672 1.32812 0.335938 1.99902 0.416016c0.788086 0.0947266 1.58301 0.0654297 2.37891 0.0722656c0.598633 0 1.19727 0.0654297 1.7959 0.0214844c0.744141 -0.0507812 1.48145 -0.225586 2.21875 -0.356445
c0.664062 -0.124023 1.33496 -0.189453 1.99219 -0.37207c0.576172 -0.160156 1.13086 -0.416016 1.7002 -0.62793c0.802734 -0.291992 1.6123 -0.569336 2.38574 -0.963867c0.0947266 -0.0507812 0.197266 -0.0654297 0.291992 -0.116211
c0.459961 -0.241211 0.832031 -0.569336 1.2627 -0.832031c0.714844 -0.4375 1.42969 -0.853516 2.09375 -1.37891c0.657227 -0.510742 1.21191 -1.09473 1.7959 -1.6709c0.37207 -0.365234 0.788086 -0.657227 1.13867 -1.05859
c0.0654297 -0.0800781 0.109375 -0.174805 0.182617 -0.254883c0.569336 -0.670898 1.03613 -1.40039 1.51758 -2.12988c0.328125 -0.489258 0.693359 -0.956055 0.977539 -1.45996c0.357422 -0.642578 0.605469 -1.32812 0.889648 -1.99902
c0.269531 -0.642578 0.59082 -1.2627 0.802734 -1.91992c0.204102 -0.649414 0.298828 -1.32031 0.444336 -1.97754c0.160156 -0.700195 0.357422 -1.39355 0.445312 -2.1084c0.0878906 -0.729492 0.0517578 -1.45898 0.0664062 -2.19629
c0.0146484 -0.664062 0.0800781 -1.32812 0.0292969 -1.99219c-0.0507812 -0.685547 -0.21875 -1.37109 -0.335938 -2.05664c-0.117188 -0.714844 -0.197266 -1.4375 -0.394531 -2.14551c-0.15332 -0.554688 -0.40918 -1.09473 -0.606445 -1.6416
c-0.298828 -0.824219 -0.583008 -1.64844 -0.984375 -2.43652c-0.0507812 -0.0947266 -0.0654297 -0.197266 -0.116211 -0.291992c-37.377 -71.2217 -77.2207 -154.907 -89.3193 -235.645c-1.42285 -9.48633 -2.58301 -19.5273 -1.42285 -28.7363
c1 -7.94727 3.85352 -13.6318 6.0791 -15.5508c1.4668 -1.2627 3.81641 -1.61328 5.52441 -1.68652c9.71973 -0.481445 21.8037 6.52441 32.1729 13.3691c55.5186 36.6475 103.506 91.9902 149.902 145.502c7.91797 9.12891 21.7461 10.1211 30.8828 2.19629z
M236.992 297.684c8.94629 23.8916 10.1865 44.0664 3.58203 58.4199c-4.6123 10.0342 -13.0771 17.3096 -25.1611 21.6152c-7.58203 2.70703 -15.6094 4.03516 -23.877 4.03516c-20.7168 0 -42.9736 -8.34766 -63.7852 -24.3506
c-25.3584 -19.5059 -48.71 -49.2354 -73.4922 -93.5518c-35.3262 -63.1729 -76.5342 -161.68 -72.2432 -272.213c0.620117 -15.9736 2.45215 -39.2227 11.1875 -56.7578c6.5459 -13.1348 16.543 -20.0166 22.498 -19.1777c6.93262 1.04395 16.2363 10.5674 19.2939 13.6982
c23.4824 24.0225 42.1709 55.1602 58.8604 85.2324c25.5117 45.959 49.2061 95.0332 72.127 142.48c22.5557 46.7178 45.6514 94.5449 71.0098 140.569z" />
    <glyph glyph-name="b" unicode="b" horiz-adv-x="326" 
d="M365.385 240.192c2.59082 -11.8066 -4.88086 -23.4805 -16.6738 -26.0635c-35.8809 -7.87402 -74.7031 -17.2002 -112.876 -31.5684c-1.32812 -10.2451 -3.24707 -20.8701 -5.77148 -31.9697c-11.6543 -51.2637 -31.707 -87.4727 -59.5977 -107.606
c-15.6309 -11.2666 -32.3564 -16.1631 -48.3232 -14.1494c-20.002 2.52441 -37.3623 16.1924 -45.3018 35.6689c-8.26758 20.2725 -5.9541 46.1562 6.04297 67.5518c10.0703 17.9512 24.7744 29.9404 37.8291 39.2959c23.6436 16.9443 48.4326 30.4805 73.5645 41.5723
c0.0507812 2.97754 0.0361328 5.91797 -0.0517578 8.82227c-0.613281 20.4248 -5.78027 31.7061 -10.0273 35.165c-4.59766 3.72852 -13.457 0.707031 -17.0615 -0.774414c-14.1348 -5.80859 -27.584 -17.7109 -37.7275 -27.4385
c-47.4551 -45.5059 -98.7041 -136.613 -148.224 -263.456c-0.269531 -0.693359 -0.626953 -1.32812 -0.955078 -1.97754c-0.167969 -0.335938 -0.298828 -0.701172 -0.488281 -1.02246c-0.605469 -1.05078 -1.29102 -2.03613 -2.04297 -2.94824
c-0.167969 -0.211914 -0.37207 -0.386719 -0.554688 -0.59082c-0.613281 -0.700195 -1.25586 -1.36426 -1.94922 -1.96973c-0.298828 -0.262695 -0.626953 -0.489258 -0.94043 -0.737305c-0.620117 -0.481445 -1.24805 -0.948242 -1.91211 -1.35645
c-0.386719 -0.241211 -0.788086 -0.459961 -1.18945 -0.678711c-0.642578 -0.342773 -1.2998 -0.65625 -1.9707 -0.933594c-0.4375 -0.182617 -0.875 -0.365234 -1.32715 -0.518555c-0.722656 -0.241211 -1.45996 -0.438477 -2.21191 -0.606445
c-0.408203 -0.0947266 -0.80957 -0.211914 -1.23242 -0.285156c-1.18945 -0.204102 -2.39355 -0.328125 -3.6123 -0.328125c-0.145508 0 -0.298828 0.0439453 -0.452148 0.0439453c-0.977539 0.0214844 -1.95508 0.0800781 -2.94727 0.233398
c-0.0800781 0.0146484 -0.15332 0.0507812 -0.241211 0.0654297c-0.919922 0.15332 -1.8252 0.4375 -2.73047 0.714844c-0.489258 0.15332 -1 0.241211 -1.47461 0.423828c-0.0292969 0.0146484 -0.0654297 0.0146484 -0.101562 0.0292969
c-0.408203 0.15332 -0.750977 0.394531 -1.1377 0.577148c-0.905273 0.422852 -1.81738 0.824219 -2.64941 1.35645c-0.540039 0.342773 -1 0.765625 -1.50391 1.15234c-0.620117 0.474609 -1.26953 0.919922 -1.83105 1.45996
c-0.518555 0.489258 -0.941406 1.05078 -1.40137 1.58398c-0.459961 0.532227 -0.949219 1.03613 -1.35742 1.60547c-0.401367 0.569336 -0.708008 1.18262 -1.05078 1.78125c-0.365234 0.620117 -0.751953 1.21875 -1.05078 1.87598
c-0.277344 0.605469 -0.452148 1.25488 -0.670898 1.88281c-0.241211 0.700195 -0.525391 1.38574 -0.693359 2.1084c-0.167969 0.714844 -0.226562 1.45215 -0.321289 2.18945c-0.0878906 0.664062 -0.226562 1.32129 -0.248047 2
c-0.0361328 0.919922 0.0732422 1.83984 0.15332 2.7666c0.0439453 0.489258 0 0.970703 0.0800781 1.4668c0.00683594 0.0800781 0.0214844 0.15332 0.0361328 0.233398c0.00683594 0.0214844 0.00683594 0.0507812 0.0136719 0.0800781
c40.0264 253.67 124.245 499.16 243.571 709.958c5.96191 10.5225 19.3018 14.2295 29.8389 8.26758c10.5225 -5.96191 14.2227 -19.3164 8.26758 -29.8389c-88.1445 -155.703 -156.695 -330.861 -201.896 -514.28c26.7305 47.1992 53.4902 83.752 80.0889 109.264
c12.9307 12.4053 30.459 27.7373 51.3955 36.3408c22.9209 9.4209 45.2803 7.31152 61.3564 -5.78027c18.3965 -14.9961 24.3291 -40.3398 25.7959 -61.1152c34.7861 11.8359 69.3682 20.0527 101.674 27.1455c11.8213 2.63477 23.4824 -4.88184 26.0732 -16.6885z
M187.353 160.288c0.0654297 0.269531 0.125 0.538086 0.19043 0.793945c-14.1641 -7.40723 -28.0146 -15.7842 -41.3398 -25.3359c-9.5957 -6.88184 -19.2861 -14.6826 -25.1387 -25.125c-5.37109 -9.58105 -6.88867 -21.7529 -3.69238 -29.5977
c2.36426 -5.81641 6.99121 -8.35547 10.2314 -8.76367c4.68457 -0.569336 10.8359 1.6123 17.2207 6.2168c18.7246 13.5225 33.4355 41.8145 42.5283 81.8115z" />
    <glyph glyph-name="c" unicode="c" horiz-adv-x="322" 
d="M353.935 266.142c9.95312 -6.85254 12.4707 -20.4824 5.61816 -30.458c-133.038 -193.277 -242.301 -256.37 -281.487 -262.733c-7.26074 -1.1748 -14.1855 -1.76562 -20.7607 -1.76562c-24.957 0 -44.9004 8.47266 -59.4736 25.3076
c-13.376 15.4561 -22.126 37.5742 -26.001 65.7344c-4.61914 33.6191 -2.45898 70.3252 6.80859 115.525c17.2295 84.0576 50.8848 162.628 97.3105 227.209c32.3711 45.0176 64.7637 72.4189 99.0322 83.7666c29.0801 9.61816 47.8271 1.40137 58.4297 -7.18066
c14.252 -11.5293 23.0156 -31.458 24.0518 -54.6855c0.832031 -18.6152 -3.1377 -35.917 -6.9248 -50.665c-10.625 -41.4414 -25.0303 -81.4531 -42.8066 -118.91c-5.18848 -10.917 -18.2578 -15.5654 -29.167 -10.3916c-10.9238 5.18848 -15.5723 18.2432 -10.3916 29.167
c16.5791 34.9326 30.0205 72.2803 39.96 111.021c2.99902 11.6973 6.15137 25.2334 5.58984 37.8359c-0.518555 11.5811 -4.4375 19.834 -7.85254 22.5996c-4.07227 3.29883 -12.4785 1.18945 -17.1338 -0.342773c-25.1904 -8.34082 -50.4541 -30.5029 -77.2422 -67.7559
c-42.8574 -59.6123 -73.9658 -132.382 -89.9688 -210.449c-8.23828 -40.1934 -10.252 -72.2139 -6.31836 -100.769c2.65625 -19.3379 8.09961 -34.2246 15.7256 -43.04c5.0498 -5.82324 14.6895 -13.1064 40.1211 -8.97656c24.6064 3.98438 123.799 57.4443 252.437 244.337
c6.85938 9.96094 20.4834 12.4717 30.4443 5.61914z" />
    <glyph glyph-name="d" unicode="d" horiz-adv-x="383" 
d="M480.539 715.191c-89.3193 -181.784 -186.674 -399.402 -231.545 -635.15c-9.76367 -51.2715 -18.7324 -111.562 -11.209 -169.978c4.02051 -31.2549 14.9297 -50.1846 23.6211 -52.7236c11.6104 -3.39355 18.2656 -15.5508 14.8721 -27.1533
c-2.79492 -9.55176 -11.5303 -15.7549 -21.002 -15.7549c-2.03613 0 -4.10156 0.291992 -6.15234 0.890625c-39.1279 11.4346 -51.1104 60.7646 -54.7666 89.1514c-8.30469 64.5234 1.21875 129.098 11.625 183.762c5.99805 31.5098 12.9453 62.6475 20.6152 93.4346
c-7.13672 -14.5732 -14.2002 -29.1318 -21.1768 -43.5879c-23.1836 -48.002 -47.1553 -97.6387 -73.2725 -144.692c-18.1699 -32.7363 -38.7197 -66.8516 -65.8291 -94.5889c-10.5303 -10.7783 -25.0596 -23.5117 -44.0615 -26.3867
c-2.58301 -0.394531 -5.17383 -0.583984 -7.75 -0.583984c-23.833 0 -46.958 16.375 -60.4873 43.5215c-12.5 25.0879 -14.9736 54.584 -15.7471 74.5859c-4.69238 120.713 39.7119 227.203 77.7822 295.28c27.7666 49.6729 54.7812 83.6348 85.0068 106.884
c41.1494 31.6416 88.1953 41.4199 129.067 26.8545c25.1836 -8.97559 43.6387 -23.2998 55.7227 -43.1562c46.4258 129.871 102.279 250.605 155.39 358.693c5.33398 10.8516 18.4551 15.332 29.2988 9.99805c10.8584 -5.32715 15.332 -18.4482 9.99805 -29.2998z
M165.986 157.123c28.2266 58.4521 57.2969 118.646 90.5654 174.864c-5.24707 23.4395 -18.2217 37.5674 -41.1279 45.7334c-7.58887 2.70703 -15.6162 4.03516 -23.8838 4.03516c-20.7168 0 -42.9736 -8.34863 -63.7861 -24.3516
c-25.3584 -19.5059 -48.71 -49.2354 -73.4922 -93.5518c-35.3262 -63.1729 -76.5342 -161.68 -72.2432 -272.213c0.620117 -15.9736 2.45215 -39.2227 11.1875 -56.7578c6.5459 -13.1348 16.5801 -20.0166 22.498 -19.1777c6.93262 1.04395 16.2363 10.5674 19.2939 13.6982
c23.4902 24.0371 42.1719 55.168 58.8613 85.2334c25.5117 45.9658 49.2061 95.04 72.127 142.487z" />
    <glyph glyph-name="e" unicode="e" horiz-adv-x="239" 
d="M268.917 256.182c9.80078 -7.07812 12.0166 -20.7627 4.94531 -30.5703c-93.6904 -129.886 -146.581 -198.926 -209.192 -198.926c-7.55957 0 -15.2578 1.00684 -23.1904 3.03516c-17.5352 4.47363 -33.4141 17.3457 -43.5869 35.3115
c-7.64746 13.5 -12.8359 29.999 -15.8789 50.4316c-9.23828 62.0566 5.2832 132.279 39.8291 192.665c31.8525 55.6719 73.5938 89.5244 117.531 95.333c13.8574 1.84668 25.7959 0.482422 36.4648 -4.15137c14.252 -6.18066 25.3516 -18.2578 30.4521 -33.1299
c7.10742 -20.7393 2.24023 -46.4111 -13.0186 -68.6826c-10.0996 -14.7256 -21.9141 -25.3799 -35.1221 -31.6553c-17.207 -8.18066 -36.9824 -9.01953 -57.167 -2.4082c-13.1572 4.30566 -25.9785 11.4131 -41.1787 22.877
c-29.7295 -51.9932 -42.2959 -111.912 -34.4805 -164.395c2.24023 -15.0176 5.72852 -26.5693 10.6758 -35.3193c4.26172 -7.52344 10.3623 -12.9307 16.3174 -14.4482c41.3975 -10.5596 80.7812 33.1738 186.038 179.084c7.07812 9.80762 20.7607 12.0117 30.5615 4.94824z
M145.114 360.058c-20.2354 -2.6709 -41.1289 -16.0234 -60.1602 -37.8643c11.749 -8.99023 20.9434 -14.2949 29.6494 -17.1484c6.49414 -2.12402 16.0605 -3.78809 24.7588 0.341797c6.0498 2.875 12.2012 8.70605 17.791 16.8643
c7.13672 10.4209 10.2383 22.3662 7.71387 29.7363c-1.62695 4.75098 -5.36328 6.68457 -6.46484 7.15918c-3.18164 1.37891 -7.53809 1.67773 -13.2881 0.911133z" />
    <glyph glyph-name="e" unicode="&#xeb;" horiz-adv-x="239" 
d="M268.917 256.182c9.80078 -7.07812 12.0166 -20.7627 4.94531 -30.5703c-93.6904 -129.886 -146.581 -198.926 -209.192 -198.926c-7.55957 0 -15.2578 1.00684 -23.1904 3.03516c-17.5352 4.47363 -33.4141 17.3457 -43.5869 35.3115
c-7.64746 13.5 -12.8359 29.999 -15.8789 50.4316c-9.23828 62.0566 5.2832 132.279 39.8291 192.665c31.8525 55.6719 73.5938 89.5244 117.531 95.333c13.8574 1.84668 25.7959 0.482422 36.4648 -4.15137c14.252 -6.18066 25.3516 -18.2578 30.4521 -33.1299
c7.10742 -20.7393 2.24023 -46.4111 -13.0186 -68.6826c-10.0996 -14.7256 -21.9141 -25.3799 -35.1221 -31.6553c-17.207 -8.18066 -36.9824 -9.01953 -57.167 -2.4082c-13.1572 4.30566 -25.9785 11.4131 -41.1787 22.877
c-29.7295 -51.9932 -42.2959 -111.912 -34.4805 -164.395c2.24023 -15.0176 5.72852 -26.5693 10.6758 -35.3193c4.26172 -7.52344 10.3623 -12.9307 16.3174 -14.4482c41.3975 -10.5596 80.7812 33.1738 186.038 179.084c7.07812 9.80762 20.7607 12.0117 30.5615 4.94824z
M145.114 360.058c-20.2354 -2.6709 -41.1289 -16.0234 -60.1602 -37.8643c11.749 -8.99023 20.9434 -14.2949 29.6494 -17.1484c6.49414 -2.12402 16.0605 -3.78809 24.7588 0.341797c6.0498 2.875 12.2012 8.70605 17.791 16.8643
c7.13672 10.4209 10.2383 22.3662 7.71387 29.7363c-1.62695 4.75098 -5.36328 6.68457 -6.46484 7.15918c-3.18164 1.37891 -7.53809 1.67773 -13.2881 0.911133z" />
    <glyph glyph-name="e" unicode="&#xea;" horiz-adv-x="239" 
d="M268.917 256.182c9.80078 -7.07812 12.0166 -20.7627 4.94531 -30.5703c-93.6904 -129.886 -146.581 -198.926 -209.192 -198.926c-7.55957 0 -15.2578 1.00684 -23.1904 3.03516c-17.5352 4.47363 -33.4141 17.3457 -43.5869 35.3115
c-7.64746 13.5 -12.8359 29.999 -15.8789 50.4316c-9.23828 62.0566 5.2832 132.279 39.8291 192.665c31.8525 55.6719 73.5938 89.5244 117.531 95.333c13.8574 1.84668 25.7959 0.482422 36.4648 -4.15137c14.252 -6.18066 25.3516 -18.2578 30.4521 -33.1299
c7.10742 -20.7393 2.24023 -46.4111 -13.0186 -68.6826c-10.0996 -14.7256 -21.9141 -25.3799 -35.1221 -31.6553c-17.207 -8.18066 -36.9824 -9.01953 -57.167 -2.4082c-13.1572 4.30566 -25.9785 11.4131 -41.1787 22.877
c-29.7295 -51.9932 -42.2959 -111.912 -34.4805 -164.395c2.24023 -15.0176 5.72852 -26.5693 10.6758 -35.3193c4.26172 -7.52344 10.3623 -12.9307 16.3174 -14.4482c41.3975 -10.5596 80.7812 33.1738 186.038 179.084c7.07812 9.80762 20.7607 12.0117 30.5615 4.94824z
M145.114 360.058c-20.2354 -2.6709 -41.1289 -16.0234 -60.1602 -37.8643c11.749 -8.99023 20.9434 -14.2949 29.6494 -17.1484c6.49414 -2.12402 16.0605 -3.78809 24.7588 0.341797c6.0498 2.875 12.2012 8.70605 17.791 16.8643
c7.13672 10.4209 10.2383 22.3662 7.71387 29.7363c-1.62695 4.75098 -5.36328 6.68457 -6.46484 7.15918c-3.18164 1.37891 -7.53809 1.67773 -13.2881 0.911133z" />
    <glyph glyph-name="e" unicode="&#xe9;" horiz-adv-x="239" 
d="M268.917 256.182c9.80078 -7.07812 12.0166 -20.7627 4.94531 -30.5703c-93.6904 -129.886 -146.581 -198.926 -209.192 -198.926c-7.55957 0 -15.2578 1.00684 -23.1904 3.03516c-17.5352 4.47363 -33.4141 17.3457 -43.5869 35.3115
c-7.64746 13.5 -12.8359 29.999 -15.8789 50.4316c-9.23828 62.0566 5.2832 132.279 39.8291 192.665c31.8525 55.6719 73.5938 89.5244 117.531 95.333c13.8574 1.84668 25.7959 0.482422 36.4648 -4.15137c14.252 -6.18066 25.3516 -18.2578 30.4521 -33.1299
c7.10742 -20.7393 2.24023 -46.4111 -13.0186 -68.6826c-10.0996 -14.7256 -21.9141 -25.3799 -35.1221 -31.6553c-17.207 -8.18066 -36.9824 -9.01953 -57.167 -2.4082c-13.1572 4.30566 -25.9785 11.4131 -41.1787 22.877
c-29.7295 -51.9932 -42.2959 -111.912 -34.4805 -164.395c2.24023 -15.0176 5.72852 -26.5693 10.6758 -35.3193c4.26172 -7.52344 10.3623 -12.9307 16.3174 -14.4482c41.3975 -10.5596 80.7812 33.1738 186.038 179.084c7.07812 9.80762 20.7607 12.0117 30.5615 4.94824z
M145.114 360.058c-20.2354 -2.6709 -41.1289 -16.0234 -60.1602 -37.8643c11.749 -8.99023 20.9434 -14.2949 29.6494 -17.1484c6.49414 -2.12402 16.0605 -3.78809 24.7588 0.341797c6.0498 2.875 12.2012 8.70605 17.791 16.8643
c7.13672 10.4209 10.2383 22.3662 7.71387 29.7363c-1.62695 4.75098 -5.36328 6.68457 -6.46484 7.15918c-3.18164 1.37891 -7.53809 1.67773 -13.2881 0.911133z" />
    <glyph glyph-name="f" unicode="f" horiz-adv-x="281" 
d="M361.56 935.973l-218.974 -466.73c-51.6211 -110.036 -104.432 -222.59 -146.464 -340.785c59.1523 31.2617 115.101 56.3643 173.888 82.7295c39.5879 17.7617 80.5264 36.1289 122.646 56.6055c10.873 5.29785 23.9795 0.758789 29.2627 -10.1143
s0.758789 -23.9795 -10.1143 -29.2627c-42.7334 -20.7754 -83.9854 -39.2812 -123.88 -57.1748c-53.0156 -23.7822 -103.703 -46.5205 -156.236 -73.6006c38.5879 -22.666 65.625 -61.1523 77.8994 -112.109c22.9424 -95.2373 -10.209 -223.262 -70.9443 -273.964
c-17.4404 -14.5654 -36.4277 -21.9795 -55.4297 -21.9795c-10.3984 0 -20.8047 2.21875 -30.9629 6.70703c-48.9355 21.6143 -61.9033 89.8662 -65.2744 128.637c-4.21777 48.4248 5.01367 97.1348 14.5947 138.387c43.8428 188.738 123.931 359.438 201.385 524.525
l218.972 466.73c5.12988 10.9385 18.1777 15.6455 29.1162 10.5156c10.9463 -5.12988 15.6533 -18.1699 10.5156 -29.1162zM67.0293 -24.7217c-8.85938 36.749 -31.6221 83.2334 -89.7158 97.5215c-12.5078 -39.1064 -23.6729 -78.8701 -33.0859 -119.385
c-9.25293 -39.8145 -17.3018 -82.4746 -13.6309 -124.689c4.24707 -48.8408 18.959 -83.3721 39.3477 -92.377c4.86035 -2.1377 19.6592 -8.68359 40.6465 8.83008c43.0693 35.9541 77.1045 144.305 56.4385 230.1z" />
    <glyph glyph-name="g" unicode="g" horiz-adv-x="328" 
d="M366.016 253.897c6.29004 -10.3262 3.02344 -23.7939 -7.30273 -30.084c-71.3535 -43.4775 -131.563 -83.2842 -182.382 -119.581c-17.127 -56.3281 -36.0488 -112.263 -58.9404 -165.577c-41.8799 -97.5361 -89.4443 -161.644 -145.393 -195.984
c-15.1133 -9.27539 -30.5029 -13.9023 -44.9736 -13.9023c-15.5654 0 -30.0723 5.34863 -42.0615 16.0098c-13.4707 11.9893 -28.8467 33.8525 -25.5918 69.9453c7.2168 80.0957 104.724 189.629 279.276 316.194c7.56738 25.3213 14.7695 50.665 21.8848 75.8994
c-10.8662 -14.5801 -22.5273 -28.3213 -35.2178 -40.7119c-10.625 -10.377 -25.1611 -23.0674 -43.3457 -29.1387c-6.96191 -2.32812 -14.0107 -3.4668 -20.8926 -3.4668c-14.5439 0 -28.3574 5.08594 -39.1572 14.8281c-14.7627 13.3252 -23.7021 35.1299 -24.5264 59.8389
c-0.583984 17.5205 2.6123 35.7197 10.041 57.2832c20.9141 60.6699 61.3701 109.664 110.992 134.432c37.1436 18.5283 72.6816 17.0762 97.9375 -3.82324c0.342773 1.05078 0.664062 2.13086 1.01465 3.18164c3.79492 11.4785 16.1855 17.6963 27.6572 13.916
c11.4785 -3.79492 17.71 -16.1787 13.915 -27.6572c-17.9805 -54.3945 -33.9473 -111.219 -49.3887 -166.168c-4.48828 -15.9668 -8.99805 -32.0205 -13.5879 -48.126c42.8789 29.2549 89.5674 59.291 139.955 89.998c10.3184 6.29004 23.7969 3.02051 30.0869 -7.30566z
M77.1533 -44.0723c14.3906 33.5098 27.2275 68.3037 39.0566 103.696c-186.739 -144.298 -210.952 -223.576 -213.236 -248.84c-1.31348 -14.5947 2.31348 -25.4893 11.0918 -33.2979c8.3916 -7.46484 20.1768 -6.62598 35.0264 2.49609
c47.9805 29.4443 89.8672 86.998 128.062 175.945zM94.7266 197.426c42.084 41.1055 72.1797 99.5576 100.836 157.017c-1.98535 2.89746 -4.13086 5.36426 -6.41504 7.36328c-6.08594 5.32715 -13.376 7.25391 -20.7393 7.25391
c-11.3477 0 -22.8701 -4.58301 -30.4375 -8.36328c-38.8652 -19.3887 -72.1924 -60.334 -89.1445 -109.518c-5.63379 -16.3457 -8.07812 -29.5537 -7.67676 -41.5654c0.408203 -12.3184 4.37109 -23.6143 10.0918 -28.7734
c5.82324 -5.25391 13.7334 -3.39355 16.8643 -2.34277c9.74219 3.24707 19.3379 11.8213 26.6211 18.9287z" />
    <glyph glyph-name="h" unicode="h" horiz-adv-x="364" 
d="M395.058 259.874c9.60352 -7.34082 11.4268 -21.083 4.08594 -30.6719c-21.5127 -28.1162 -40.8359 -55.0801 -57.8828 -78.8623c-60.415 -84.2988 -100.295 -139.956 -153.887 -129.995c-17.6084 3.28418 -31.6699 19.0176 -36.7051 41.0625
c-3.72852 16.3096 -1.79492 32.3857 0.306641 44.5723c5.47266 31.8096 16.4258 60.9844 27.0146 89.2031c11.1357 29.6709 21.6582 57.7002 25.8398 87.7725c1.08691 7.83008 0.758789 13.0547 0.211914 16.0098
c-0.335938 -0.117188 -0.708008 -0.255859 -1.10938 -0.40918c-17.5137 -6.85938 -33.5674 -24.1104 -48.3154 -41.7402c-54.1611 -64.7568 -132.943 -188.213 -166.949 -276.183c-0.0439453 -0.342773 -0.102539 -0.685547 -0.146484 -1.02832
c-1.45215 -11.0117 -10.8584 -19.0244 -21.6729 -19.0244c-0.956055 0 -1.92676 0.0585938 -2.89746 0.189453c-11.9893 1.58398 -20.418 12.5811 -18.834 24.5703c0.182617 1.37207 0.394531 2.74414 0.577148 4.12305
c0.0214844 0.145508 0.0361328 0.28418 0.0576172 0.429688c23.6143 175.698 69.0107 344.741 135.022 502.502c33.0791 79.0664 65.1143 140.16 100.827 192.256c22.3662 32.6406 53.5186 72.5283 96.2373 91.4502c27.584 12.2012 45.9004 5.60449 56.4082 -2.08691
c14.7402 -10.7783 23.4609 -30.8896 23.3154 -53.8105c-0.0947266 -15.8936 -3.69922 -32.2979 -10.6973 -48.7529c-53.8252 -126.514 -241.812 -349.521 -303.379 -420.771c-11.2012 -40.4561 -21.0742 -81.4746 -29.7285 -122.953
c35.5381 60.2471 76.0898 118.721 108.257 157.178c18.4844 22.0889 39.2598 43.9736 65.9531 54.4238c23.5342 9.20215 38.4648 0.84668 45.2803 -4.95508c13.4121 -11.4346 18.5781 -31.3057 14.9365 -57.459c-4.85254 -34.8809 -16.7256 -66.5293 -28.2119 -97.127
c-10.333 -27.5186 -20.0898 -53.5186 -24.8623 -81.2412c-1.40137 -8.16602 -2.75879 -18.6592 -0.766602 -27.3945c0.919922 -4.01367 2.54004 -6.7793 3.53223 -7.99023c26.0518 -2.63477 62.6768 48.3301 108.789 112.671
c17.2295 24.0449 36.7646 51.3076 58.7002 79.9639c7.34863 9.5957 21.0967 11.4346 30.6924 4.0791zM120.158 475.495c-16.1055 -38.4932 -30.957 -77.6787 -44.5596 -117.479c77.6875 94.4639 191.935 241.185 229.961 330.569
c4.72168 11.0918 7.14453 21.8262 7.20996 31.8965c0.0654297 10.0342 -3.4668 16.7988 -5.37109 18.1855c-0.328125 0.248047 -0.999023 0.408203 -1.98438 0.408203c-2.12305 0 -5.74219 -0.751953 -10.8574 -3.01367
c-33.0059 -14.624 -60.2393 -50.4688 -77.8477 -76.1631c-33.9688 -49.5713 -64.6543 -108.169 -96.5508 -184.404z" />
    <glyph glyph-name="i" unicode="i" horiz-adv-x="216" 
d="M244.643 255.182c10.1582 -6.55273 13.0693 -20.1143 6.52344 -30.2646c-28.3066 -43.8281 -173.567 -262.712 -253.699 -267.339c-0.992188 -0.0585938 -1.98438 -0.0878906 -2.96973 -0.0878906c-14.0986 0 -26.6504 5.88184 -35.6045 16.7617
c-10.1436 12.3184 -40.9971 49.7979 23.8691 234.778c31.4365 89.6406 76.0156 186.71 102.009 232.537c5.96191 10.5156 19.3164 14.208 29.8389 8.23926c10.5156 -5.96191 14.2012 -19.3232 8.23926 -29.8389c-19.9805 -35.2314 -64.4648 -127.587 -98.7773 -225.43
c-53.9707 -153.915 -35.6104 -187.329 -31.3848 -192.467c0.394531 -0.466797 0.657227 -0.670898 0.71582 -0.700195c0.197266 -0.0947266 24.0088 -4.88867 99.332 82.709c45.4912 52.9131 92.6689 119.713 121.646 164.584
c6.56055 10.1582 20.0967 13.0703 30.2617 6.51758zM155.074 528.968c-10.8945 5.24707 -15.4785 18.332 -10.2314 29.2266c14.9453 31.0498 31.3721 61.4941 48.8271 90.4795c6.23242 10.3545 19.6963 13.6963 30.0439 7.45703
c10.3545 -6.23145 13.6963 -19.6875 7.45703 -30.042c-16.7549 -27.8252 -32.5244 -57.0586 -46.8711 -86.8828c-3.77246 -7.83691 -11.5957 -12.4053 -19.7471 -12.4053c-3.18848 0 -6.4209 0.693359 -9.47852 2.16699z" />
    <glyph glyph-name="i" unicode="&#xef;" horiz-adv-x="216" 
d="M244.643 255.182c10.1582 -6.55273 13.0693 -20.1143 6.52344 -30.2646c-28.3066 -43.8281 -173.567 -262.712 -253.699 -267.339c-0.992188 -0.0585938 -1.98438 -0.0878906 -2.96973 -0.0878906c-14.0986 0 -26.6504 5.88184 -35.6045 16.7617
c-10.1436 12.3184 -40.9971 49.7979 23.8691 234.778c31.4365 89.6406 76.0156 186.71 102.009 232.537c5.96191 10.5156 19.3164 14.208 29.8389 8.23926c10.5156 -5.96191 14.2012 -19.3232 8.23926 -29.8389c-19.9805 -35.2314 -64.4648 -127.587 -98.7773 -225.43
c-53.9707 -153.915 -35.6104 -187.329 -31.3848 -192.467c0.394531 -0.466797 0.657227 -0.670898 0.71582 -0.700195c0.197266 -0.0947266 24.0088 -4.88867 99.332 82.709c45.4912 52.9131 92.6689 119.713 121.646 164.584
c6.56055 10.1582 20.0967 13.0703 30.2617 6.51758zM155.074 528.968c-10.8945 5.24707 -15.4785 18.332 -10.2314 29.2266c14.9453 31.0498 31.3721 61.4941 48.8271 90.4795c6.23242 10.3545 19.6963 13.6963 30.0439 7.45703
c10.3545 -6.23145 13.6963 -19.6875 7.45703 -30.042c-16.7549 -27.8252 -32.5244 -57.0586 -46.8711 -86.8828c-3.77246 -7.83691 -11.5957 -12.4053 -19.7471 -12.4053c-3.18848 0 -6.4209 0.693359 -9.47852 2.16699z" />
    <glyph glyph-name="i" unicode="&#xee;" horiz-adv-x="216" 
d="M244.643 255.182c10.1582 -6.55273 13.0693 -20.1143 6.52344 -30.2646c-28.3066 -43.8281 -173.567 -262.712 -253.699 -267.339c-0.992188 -0.0585938 -1.98438 -0.0878906 -2.96973 -0.0878906c-14.0986 0 -26.6504 5.88184 -35.6045 16.7617
c-10.1436 12.3184 -40.9971 49.7979 23.8691 234.778c31.4365 89.6406 76.0156 186.71 102.009 232.537c5.96191 10.5156 19.3164 14.208 29.8389 8.23926c10.5156 -5.96191 14.2012 -19.3232 8.23926 -29.8389c-19.9805 -35.2314 -64.4648 -127.587 -98.7773 -225.43
c-53.9707 -153.915 -35.6104 -187.329 -31.3848 -192.467c0.394531 -0.466797 0.657227 -0.670898 0.71582 -0.700195c0.197266 -0.0947266 24.0088 -4.88867 99.332 82.709c45.4912 52.9131 92.6689 119.713 121.646 164.584
c6.56055 10.1582 20.0967 13.0703 30.2617 6.51758zM155.074 528.968c-10.8945 5.24707 -15.4785 18.332 -10.2314 29.2266c14.9453 31.0498 31.3721 61.4941 48.8271 90.4795c6.23242 10.3545 19.6963 13.6963 30.0439 7.45703
c10.3545 -6.23145 13.6963 -19.6875 7.45703 -30.042c-16.7549 -27.8252 -32.5244 -57.0586 -46.8711 -86.8828c-3.77246 -7.83691 -11.5957 -12.4053 -19.7471 -12.4053c-3.18848 0 -6.4209 0.693359 -9.47852 2.16699z" />
    <glyph glyph-name="i" unicode="&#xed;" horiz-adv-x="216" 
d="M244.643 255.182c10.1582 -6.55273 13.0693 -20.1143 6.52344 -30.2646c-28.3066 -43.8281 -173.567 -262.712 -253.699 -267.339c-0.992188 -0.0585938 -1.98438 -0.0878906 -2.96973 -0.0878906c-14.0986 0 -26.6504 5.88184 -35.6045 16.7617
c-10.1436 12.3184 -40.9971 49.7979 23.8691 234.778c31.4365 89.6406 76.0156 186.71 102.009 232.537c5.96191 10.5156 19.3164 14.208 29.8389 8.23926c10.5156 -5.96191 14.2012 -19.3232 8.23926 -29.8389c-19.9805 -35.2314 -64.4648 -127.587 -98.7773 -225.43
c-53.9707 -153.915 -35.6104 -187.329 -31.3848 -192.467c0.394531 -0.466797 0.657227 -0.670898 0.71582 -0.700195c0.197266 -0.0947266 24.0088 -4.88867 99.332 82.709c45.4912 52.9131 92.6689 119.713 121.646 164.584
c6.56055 10.1582 20.0967 13.0703 30.2617 6.51758zM155.074 528.968c-10.8945 5.24707 -15.4785 18.332 -10.2314 29.2266c14.9453 31.0498 31.3721 61.4941 48.8271 90.4795c6.23242 10.3545 19.6963 13.6963 30.0439 7.45703
c10.3545 -6.23145 13.6963 -19.6875 7.45703 -30.042c-16.7549 -27.8252 -32.5244 -57.0586 -46.8711 -86.8828c-3.77246 -7.83691 -11.5957 -12.4053 -19.7471 -12.4053c-3.18848 0 -6.4209 0.693359 -9.47852 2.16699z" />
    <glyph glyph-name="j" unicode="j" horiz-adv-x="187" 
d="M226.434 258.918c6.20996 -10.377 2.8252 -23.8213 -7.55176 -30.002c-81.1611 -48.5195 -151.245 -95.916 -212.995 -144.275l-19.542 -71.6084c-28.3721 -103.994 -57.7148 -211.535 -110.197 -304.175c-28.6279 -50.5195 -57.2695 -82.2852 -90.1367 -99.9736
c-12.9746 -6.9834 -25.2637 -10.4785 -36.7422 -10.4785c-7.58203 -0.00683594 -14.8066 1.51855 -21.6514 4.56934c-17.9004 7.9834 -31.6855 26.4092 -37.8301 50.5635c-5.33398 21.0166 -4.03516 42.6387 -2.58301 57.0732
c5.42969 54.1025 24.4102 109.956 54.8838 161.526c30.335 51.3291 67.9238 92.4346 97.2734 122.507c38.8145 39.7637 81.1025 77.9287 128.075 115.408l82.8174 303.511c3.18164 11.668 15.2295 18.5352 26.8838 15.3535
c11.6611 -3.18164 18.5352 -15.2227 15.3535 -26.8838l-67.7412 -248.285c51.5117 37.5957 108.321 74.8555 171.662 112.722c10.377 6.21777 23.8184 2.83203 30.0215 -7.55176zM-55.8848 24.5391l3.20312 11.7754c-27.1465 -23.6289 -52.5928 -47.6367 -76.623 -72.2656
c-41.0547 -42.0615 -69.0908 -77.2783 -90.9102 -114.195c-27.2627 -46.1406 -44.2148 -95.7988 -49.0166 -143.626c-1.77344 -17.7031 -1.31348 -31.0205 1.45996 -41.915c3.0498 -11.9824 8.99023 -19.4766 13.2227 -21.3594
c5.49512 -2.45898 14.7705 1.75195 19.8203 4.4668c24.9346 13.4268 48.7461 40.5732 72.791 83.0068c49.7822 87.8672 78.3809 192.716 106.053 294.112zM99.373 528.549c-11.917 2.05078 -19.9141 13.375 -17.8564 25.292c6.7207 38.9893 18.2646 76.2568 34.3115 110.759
c5.09375 10.9678 18.127 15.7188 29.0801 10.6182c10.9609 -5.09375 15.7188 -18.1191 10.6182 -29.0801c-14.4199 -30.999 -24.8037 -64.5518 -30.8604 -99.7324c-1.83203 -10.6543 -11.085 -18.1777 -21.5498 -18.1777c-1.2334 0 -2.48828 0.102539 -3.74316 0.321289z
" />
    <glyph glyph-name="k" unicode="k" horiz-adv-x="281" 
d="M216.267 728.305c10.8291 -5.37793 15.248 -18.5127 9.88477 -29.3418c-72.7549 -146.516 -133.133 -301.401 -180.653 -462.673c2.18164 2.06543 4.39258 4.09375 6.61816 6.07129c41.3975 36.7715 85.3125 70.0469 130.534 98.9004
c10.1943 6.50195 23.7305 3.50977 30.2324 -6.67773c6.50879 -10.1943 3.50977 -23.7305 -6.67773 -30.2324c-43.2803 -27.6201 -85.335 -59.4873 -125.011 -94.7266c-14.1426 -12.5664 -23.6514 -23.1621 -26.585 -36.0488
c7.53125 -17.543 61.0869 -76.4541 111.38 -64.8223c11.8066 2.7002 23.541 -4.63379 26.2559 -16.4121c2.71484 -11.7852 -4.63379 -23.5342 -16.4121 -26.2559c-7.4502 -1.72168 -15.1055 -2.56836 -22.877 -2.56836c-33.5898 0 -69.4854 15.8057 -101.455 45.2725
c-4.63379 4.26855 -20.6221 19.5859 -31.2178 36.7275c-14.4854 -55.5107 -27.5479 -111.679 -38.9971 -168.518c-2.09473 -10.3916 -11.2314 -17.5723 -21.4404 -17.5723c-1.43066 0 -2.88281 0.138672 -4.34277 0.4375
c-11.8584 2.38672 -19.5283 13.9307 -17.1416 25.7812c52.2344 259.297 135.862 505.845 248.562 732.785c5.37109 10.8369 18.5137 15.2588 29.3428 9.87305z" />
    <glyph glyph-name="l" unicode="l" horiz-adv-x="228" 
d="M257.246 265.828c10.4863 -6.02051 14.0977 -19.4043 8.05566 -29.8906c-24.4678 -42.5869 -50.4248 -84.5908 -77.1621 -124.865c-30.5029 -45.959 -56.8828 -81.8477 -83.0215 -112.935c-18.1484 -21.5859 -38.4717 -43.1055 -64.0273 -54.3652
c-10.2158 -4.49512 -20.5049 -6.69922 -30.291 -6.69922c-16.4551 0 -31.502 6.22461 -42.4844 18.251c-15.8721 17.3896 -21.9072 44.083 -18.4414 81.6201c3.56836 38.6543 12.7559 76.3232 22.1621 111.285c56.5107 210.062 142.612 407.71 227.239 590.005
c5.08594 10.9678 18.1045 15.7188 29.0723 10.6396c10.9678 -5.08594 15.7334 -18.1045 10.6396 -29.0723c-83.8027 -180.521 -169.021 -376.083 -224.671 -582.94c-10.2822 -38.2305 -17.7617 -70.5283 -20.8408 -103.936
c-2.93359 -31.7803 3.24023 -43.7695 7.18066 -48.082c6.66992 -7.29688 19.1338 -2.60449 22.79 -0.992188c17.375 7.65527 33.4219 24.9355 48.1699 42.4707c25.0518 29.7949 50.4902 64.4209 80.0586 108.971c26.2197 39.4932 51.6797 80.6943 75.6807 122.464
c6.02051 10.4717 19.4043 14.0986 29.8906 8.07129z" />
    <glyph glyph-name="m" unicode="m" horiz-adv-x="505" 
d="M538.634 248.256c6.82324 -9.98242 4.2627 -23.6084 -5.71289 -30.417c-22.1328 -15.127 -39.9238 -33.8447 -58.7578 -53.6572c-18.4111 -19.3594 -37.4502 -39.3906 -60.6338 -55.3574c-11.3984 -7.84473 -22.3887 -9.66895 -32.6777 -5.41504
c-8.89551 3.6709 -23.3369 14.6172 -20.1621 46.6523c3.37891 34.042 9.15137 67.9014 17.1562 100.659c1.24805 5.12305 1.84668 8.86621 2.10254 11.5518c-8.04883 -2.78711 -17.0684 -8.6543 -27.3945 -17.791c-20.4326 -18.083 -38.1289 -40.9092 -56.8682 -65.085
c-21.5781 -27.832 -43.8857 -56.6055 -71.4189 -78.5264c-24.3584 -19.4033 -41.9014 -9.83691 -48.3154 -4.83105c-8.53027 6.66992 -17.7471 20.5352 -13.2666 48.7246c4.63379 29.124 13.668 56.4238 22.4033 82.8184c10.7197 32.3779 20.8408 62.9609 22.7744 95.3613
c0.0361328 0.576172 0.0576172 1.10156 0.0791016 1.58301c-0.233398 -0.102539 -0.466797 -0.211914 -0.708008 -0.329102c-24.0664 -11.7344 -45.3232 -35.6328 -62.9463 -57.459c-48.5342 -60.123 -134.737 -189.746 -171.246 -272.505
c-0.962891 -4.15918 -1.97754 -8.28906 -2.91895 -12.4561c-2.29102 -10.1729 -11.3252 -17.0762 -21.3301 -17.0762c-1.59766 0 -3.21777 0.174805 -4.84473 0.540039c-11.2451 2.53906 -18.3896 13.3174 -16.7334 24.5332
c-0.605469 3.8457 -0.277344 7.88086 1.31348 11.7412c0.890625 2.16016 1.83887 4.37109 2.79492 6.58984c43.3975 185.761 108.942 361.327 195.08 522.044c5.70605 10.6543 18.9873 14.6602 29.6338 8.9541c10.6543 -5.71387 14.668 -18.9805 8.9541 -29.6348
c-57.5176 -107.314 -105.637 -221.452 -143.947 -340.924c32.2979 50.0088 65.4131 96.2598 89.1729 125.689c20.6514 25.5771 46.0459 53.8105 77.8262 69.3105c13.2812 6.46582 27.46 7.76465 38.8799 3.54688c9.46484 -3.48828 16.9521 -10.6396 21.0898 -20.1406
c3.99121 -9.1582 4.03516 -18.6006 3.55371 -26.6348c-2.26953 -38.1064 -13.7852 -72.8779 -24.9141 -106.504c-7.9248 -23.9502 -15.4482 -46.6738 -19.7539 -70.2373c19.2285 17.5498 36.2754 39.5439 54.1758 62.6328c19.1484 24.6943 38.9531 50.2422 62.458 71.0469
c18.8203 16.6455 35.6914 25.9785 53.1104 29.3496c16.9297 3.26953 27.7295 -2.37891 33.8086 -7.69824c19.958 -17.4775 12.4053 -48.418 9.92383 -58.5908c-6.55273 -26.832 -11.5146 -54.4668 -14.7842 -82.3203c12.6465 10.9023 24.4971 23.3662 36.8291 36.3408
c19.5713 20.5928 39.8213 41.8936 65.7852 59.6406c9.99707 6.82324 23.6143 4.25488 30.4297 -5.7207z" />
    <glyph glyph-name="n" unicode="n" horiz-adv-x="395" 
d="M425.795 265.851c9.80078 -7.08594 11.9971 -20.7744 4.91895 -30.5889c-14.5508 -20.1191 -32.502 -47.8779 -51.5117 -77.2715c-84.6416 -130.863 -150.193 -224.991 -207.339 -224.998c-3.9043 0 -7.77148 0.4375 -11.6025 1.33496
c-23.7236 5.56055 -36.4141 30.2256 -38.4648 52.1982c-1.75879 18.7764 2.74414 36.5967 7.86719 53.0596c11.2529 36.1514 32.459 83.6426 54.9131 133.929c27.2188 60.9619 77.5918 173.765 68.1416 197.146c-1.04395 0.459961 -1.63477 0.453125 -1.89062 0.453125
c-9.73438 -0.167969 -21.5342 -6.22461 -34.1299 -17.5205c-99.1416 -88.9258 -216.396 -322.638 -251.816 -396.144c-0.204102 -0.962891 -0.430664 -1.91113 -0.634766 -2.86719c-2.1748 -10.3115 -11.2744 -17.3828 -21.4033 -17.3828
c-1.49609 0 -3.01367 0.15332 -4.53125 0.474609c-11.8291 2.49609 -19.4033 14.1064 -16.9072 25.9355c0.394531 1.9043 0.839844 3.7793 1.24805 5.67676c0.0654297 0.277344 0.109375 0.546875 0.182617 0.816406c46.3672 216.928 122.931 419.261 227.713 601.432
c6.02734 10.4785 19.4111 14.0908 29.8896 8.06348c10.4863 -6.02734 14.0908 -19.4111 8.06348 -29.8896c-72.4482 -125.959 -131.09 -261.85 -175.319 -405.709c51.1758 90.042 115.181 189.184 174.274 242.191c20.8408 18.6953 41.9229 28.3574 62.6396 28.7002
c9.26758 0.102539 17.8789 -2.26953 26.1396 -7.1875c45.7617 -27.2266 10.1729 -113.511 -51.6865 -252.036c-21.9062 -49.0596 -42.6016 -95.4053 -53.0879 -129.082c-3.50977 -11.2812 -7.16602 -24.2998 -6.0791 -35.9609
c0.685547 -7.34863 3.87402 -12.4199 5.3916 -13.7334c3.75781 -0.422852 23.1836 0.905273 69.7256 58.0723c33.9033 41.6533 70.04 97.5293 101.93 146.83c19.3311 29.8828 37.582 58.1094 52.7969 79.1475c7.10059 9.79297 20.7832 11.9893 30.5693 4.91113z" />
    <glyph glyph-name="o" unicode="o" horiz-adv-x="230" 
d="M272.072 273.95c4.73633 -11.1289 -0.446289 -23.9863 -11.582 -28.7148c-27.2559 -11.5957 -55.2627 -23.5195 -84.5107 -31.4736c-5.27637 -94.7266 -57.2627 -182.915 -129.995 -216.096c-12.3613 -5.64062 -24.2998 -8.4209 -35.2676 -8.4209
c-17.5059 0 -32.5381 7.07812 -42.9004 20.8848c-12.6465 16.8711 -16.0762 40.7334 -10.4863 72.958c10.0781 58.0723 33.8896 109.044 59.584 151.784c-12.1504 11.7705 -18.9736 26.6494 -19.0244 42.6895c-0.0361328 14.792 5.5752 29.2695 17.1709 44.251
c29.1162 37.6104 69.6748 51.7598 103.338 36.0635c40.2227 -18.7539 52.5479 -68.6895 56.3057 -98.8936c23.0957 7.14453 46.1553 16.959 68.6533 26.5332c11.1289 4.73633 23.9863 -0.444336 28.7148 -11.5654zM27.8213 37.4951
c54.8398 25.0225 95.9971 93.7559 103.579 167.882c-27.46 -2.59766 -53.0078 0.0517578 -76.3301 7.94727c-23.6943 -39.2744 -45.5645 -85.7217 -54.584 -137.715c-4.58301 -26.416 0.130859 -36.2168 2.37109 -39.209c5.3418 -7.11523 20.4541 -0.956055 24.9639 1.09473
zM80.0264 251.694c15.8057 -3.71484 33.1104 -4.46582 51.7188 -2.22559c-3.30566 33.7285 -15.8281 61.2686 -31.8604 68.7412c-16.2803 7.59668 -37.4355 -6.69141 -50.2061 -23.1836c-5.40039 -6.9834 -8.02051 -12.6465 -8.00586 -17.3164
c0.00683594 -1.26953 0.210938 -2.48828 0.583008 -3.64844c3.14551 4.56836 6.26172 9.0127 9.32617 13.3184c7.00586 9.8584 20.6807 12.1494 30.5322 5.15137c9.85156 -7.0127 12.1572 -20.6807 5.15137 -30.5322c-2.38672 -3.34961 -4.80176 -6.78711 -7.23926 -10.3047
z" />
    <glyph glyph-name="o" unicode="&#xf6;" horiz-adv-x="230" 
d="M272.072 273.95c4.73633 -11.1289 -0.446289 -23.9863 -11.582 -28.7148c-27.2559 -11.5957 -55.2627 -23.5195 -84.5107 -31.4736c-5.27637 -94.7266 -57.2627 -182.915 -129.995 -216.096c-12.3613 -5.64062 -24.2998 -8.4209 -35.2676 -8.4209
c-17.5059 0 -32.5381 7.07812 -42.9004 20.8848c-12.6465 16.8711 -16.0762 40.7334 -10.4863 72.958c10.0781 58.0723 33.8896 109.044 59.584 151.784c-12.1504 11.7705 -18.9736 26.6494 -19.0244 42.6895c-0.0361328 14.792 5.5752 29.2695 17.1709 44.251
c29.1162 37.6104 69.6748 51.7598 103.338 36.0635c40.2227 -18.7539 52.5479 -68.6895 56.3057 -98.8936c23.0957 7.14453 46.1553 16.959 68.6533 26.5332c11.1289 4.73633 23.9863 -0.444336 28.7148 -11.5654zM27.8213 37.4951
c54.8398 25.0225 95.9971 93.7559 103.579 167.882c-27.46 -2.59766 -53.0078 0.0517578 -76.3301 7.94727c-23.6943 -39.2744 -45.5645 -85.7217 -54.584 -137.715c-4.58301 -26.416 0.130859 -36.2168 2.37109 -39.209c5.3418 -7.11523 20.4541 -0.956055 24.9639 1.09473
zM80.0264 251.694c15.8057 -3.71484 33.1104 -4.46582 51.7188 -2.22559c-3.30566 33.7285 -15.8281 61.2686 -31.8604 68.7412c-16.2803 7.59668 -37.4355 -6.69141 -50.2061 -23.1836c-5.40039 -6.9834 -8.02051 -12.6465 -8.00586 -17.3164
c0.00683594 -1.26953 0.210938 -2.48828 0.583008 -3.64844c3.14551 4.56836 6.26172 9.0127 9.32617 13.3184c7.00586 9.8584 20.6807 12.1494 30.5322 5.15137c9.85156 -7.0127 12.1572 -20.6807 5.15137 -30.5322c-2.38672 -3.34961 -4.80176 -6.78711 -7.23926 -10.3047
z" />
    <glyph glyph-name="o" unicode="&#xf5;" horiz-adv-x="230" 
d="M272.072 273.95c4.73633 -11.1289 -0.446289 -23.9863 -11.582 -28.7148c-27.2559 -11.5957 -55.2627 -23.5195 -84.5107 -31.4736c-5.27637 -94.7266 -57.2627 -182.915 -129.995 -216.096c-12.3613 -5.64062 -24.2998 -8.4209 -35.2676 -8.4209
c-17.5059 0 -32.5381 7.07812 -42.9004 20.8848c-12.6465 16.8711 -16.0762 40.7334 -10.4863 72.958c10.0781 58.0723 33.8896 109.044 59.584 151.784c-12.1504 11.7705 -18.9736 26.6494 -19.0244 42.6895c-0.0361328 14.792 5.5752 29.2695 17.1709 44.251
c29.1162 37.6104 69.6748 51.7598 103.338 36.0635c40.2227 -18.7539 52.5479 -68.6895 56.3057 -98.8936c23.0957 7.14453 46.1553 16.959 68.6533 26.5332c11.1289 4.73633 23.9863 -0.444336 28.7148 -11.5654zM27.8213 37.4951
c54.8398 25.0225 95.9971 93.7559 103.579 167.882c-27.46 -2.59766 -53.0078 0.0517578 -76.3301 7.94727c-23.6943 -39.2744 -45.5645 -85.7217 -54.584 -137.715c-4.58301 -26.416 0.130859 -36.2168 2.37109 -39.209c5.3418 -7.11523 20.4541 -0.956055 24.9639 1.09473
zM80.0264 251.694c15.8057 -3.71484 33.1104 -4.46582 51.7188 -2.22559c-3.30566 33.7285 -15.8281 61.2686 -31.8604 68.7412c-16.2803 7.59668 -37.4355 -6.69141 -50.2061 -23.1836c-5.40039 -6.9834 -8.02051 -12.6465 -8.00586 -17.3164
c0.00683594 -1.26953 0.210938 -2.48828 0.583008 -3.64844c3.14551 4.56836 6.26172 9.0127 9.32617 13.3184c7.00586 9.8584 20.6807 12.1494 30.5322 5.15137c9.85156 -7.0127 12.1572 -20.6807 5.15137 -30.5322c-2.38672 -3.34961 -4.80176 -6.78711 -7.23926 -10.3047
z" />
    <glyph glyph-name="o" unicode="&#xf4;" horiz-adv-x="230" 
d="M272.072 273.95c4.73633 -11.1289 -0.446289 -23.9863 -11.582 -28.7148c-27.2559 -11.5957 -55.2627 -23.5195 -84.5107 -31.4736c-5.27637 -94.7266 -57.2627 -182.915 -129.995 -216.096c-12.3613 -5.64062 -24.2998 -8.4209 -35.2676 -8.4209
c-17.5059 0 -32.5381 7.07812 -42.9004 20.8848c-12.6465 16.8711 -16.0762 40.7334 -10.4863 72.958c10.0781 58.0723 33.8896 109.044 59.584 151.784c-12.1504 11.7705 -18.9736 26.6494 -19.0244 42.6895c-0.0361328 14.792 5.5752 29.2695 17.1709 44.251
c29.1162 37.6104 69.6748 51.7598 103.338 36.0635c40.2227 -18.7539 52.5479 -68.6895 56.3057 -98.8936c23.0957 7.14453 46.1553 16.959 68.6533 26.5332c11.1289 4.73633 23.9863 -0.444336 28.7148 -11.5654zM27.8213 37.4951
c54.8398 25.0225 95.9971 93.7559 103.579 167.882c-27.46 -2.59766 -53.0078 0.0517578 -76.3301 7.94727c-23.6943 -39.2744 -45.5645 -85.7217 -54.584 -137.715c-4.58301 -26.416 0.130859 -36.2168 2.37109 -39.209c5.3418 -7.11523 20.4541 -0.956055 24.9639 1.09473
zM80.0264 251.694c15.8057 -3.71484 33.1104 -4.46582 51.7188 -2.22559c-3.30566 33.7285 -15.8281 61.2686 -31.8604 68.7412c-16.2803 7.59668 -37.4355 -6.69141 -50.2061 -23.1836c-5.40039 -6.9834 -8.02051 -12.6465 -8.00586 -17.3164
c0.00683594 -1.26953 0.210938 -2.48828 0.583008 -3.64844c3.14551 4.56836 6.26172 9.0127 9.32617 13.3184c7.00586 9.8584 20.6807 12.1494 30.5322 5.15137c9.85156 -7.0127 12.1572 -20.6807 5.15137 -30.5322c-2.38672 -3.34961 -4.80176 -6.78711 -7.23926 -10.3047
z" />
    <glyph glyph-name="o" unicode="&#xf3;" horiz-adv-x="230" 
d="M272.072 273.95c4.73633 -11.1289 -0.446289 -23.9863 -11.582 -28.7148c-27.2559 -11.5957 -55.2627 -23.5195 -84.5107 -31.4736c-5.27637 -94.7266 -57.2627 -182.915 -129.995 -216.096c-12.3613 -5.64062 -24.2998 -8.4209 -35.2676 -8.4209
c-17.5059 0 -32.5381 7.07812 -42.9004 20.8848c-12.6465 16.8711 -16.0762 40.7334 -10.4863 72.958c10.0781 58.0723 33.8896 109.044 59.584 151.784c-12.1504 11.7705 -18.9736 26.6494 -19.0244 42.6895c-0.0361328 14.792 5.5752 29.2695 17.1709 44.251
c29.1162 37.6104 69.6748 51.7598 103.338 36.0635c40.2227 -18.7539 52.5479 -68.6895 56.3057 -98.8936c23.0957 7.14453 46.1553 16.959 68.6533 26.5332c11.1289 4.73633 23.9863 -0.444336 28.7148 -11.5654zM27.8213 37.4951
c54.8398 25.0225 95.9971 93.7559 103.579 167.882c-27.46 -2.59766 -53.0078 0.0517578 -76.3301 7.94727c-23.6943 -39.2744 -45.5645 -85.7217 -54.584 -137.715c-4.58301 -26.416 0.130859 -36.2168 2.37109 -39.209c5.3418 -7.11523 20.4541 -0.956055 24.9639 1.09473
zM80.0264 251.694c15.8057 -3.71484 33.1104 -4.46582 51.7188 -2.22559c-3.30566 33.7285 -15.8281 61.2686 -31.8604 68.7412c-16.2803 7.59668 -37.4355 -6.69141 -50.2061 -23.1836c-5.40039 -6.9834 -8.02051 -12.6465 -8.00586 -17.3164
c0.00683594 -1.26953 0.210938 -2.48828 0.583008 -3.64844c3.14551 4.56836 6.26172 9.0127 9.32617 13.3184c7.00586 9.8584 20.6807 12.1494 30.5322 5.15137c9.85156 -7.0127 12.1572 -20.6807 5.15137 -30.5322c-2.38672 -3.34961 -4.80176 -6.78711 -7.23926 -10.3047
z" />
    </font>
</defs>
</svg>
