<?xml version="1.0" standalone="no"?>
<!DOCTYPE svg PUBLIC "-//W3C//DTD SVG 1.1//EN" "http://www.w3.org/Graphics/SVG/1.1/DTD/svg11.dtd" >
<svg xmlns="http://www.w3.org/2000/svg" xmlns:xlink="http://www.w3.org/1999/xlink" version="1.1">
<metadata>
Created by FontForge 20170812 at Fri Jun 17 03:49:04 2022
 By www-data
</metadata>
<defs>
<font id="MightyRegular" horiz-adv-x="0" >
  <font-face 
    font-family="Mighty"
    font-weight="400"
    font-stretch="normal"
    units-per-em="1000"
    panose-1="0 0 0 0 0 0 0 0 0 0"
    ascent="800"
    descent="-200"
    x-height="429.943"
    cap-height="711.476"
    bbox="-488 -498.999 1419.02 975.244"
    underline-thickness="50"
    underline-position="-100"
    unicode-range="U+000A-20AC"
  />
<missing-glyph horiz-adv-x="527" 
d="M50 700h427v-700h-427v700zM78 680l185 -309l186 309h-371zM251 350l-180 300v-601zM264 329l-185 -308h370zM276 350l181 -303v605z" />
    <glyph glyph-name=".notdef" horiz-adv-x="527" 
d="M50 700h427v-700h-427v700zM78 680l185 -309l186 309h-371zM251 350l-180 300v-601zM264 329l-185 -308h370zM276 350l181 -303v605z" />
    <glyph glyph-name=".null" 
 />
    <glyph glyph-name=".null" 
 />
    <glyph glyph-name="LF" unicode="&#xa;" 
 />
    <glyph glyph-name="controlCR" unicode="&#xd;" 
 />
    <glyph glyph-name="space" unicode=" " horiz-adv-x="280" 
 />
    <glyph glyph-name="exclam" unicode="!" horiz-adv-x="494" 
d="M429.717 758.185c10.7881 -3.2207 16.9229 -14.5664 13.7295 -25.3545c-14.2666 -47.9102 -33.9004 -93.0889 -52.8887 -136.779l-4.38867 -10.082c-84.291 -194.33 -161.835 -396.181 -230.479 -599.961c-2.86719 -8.50586 -10.8027 -13.8799 -19.3154 -13.8799
c-2.15332 0 -4.34766 0.34668 -6.50781 1.07324c-10.666 3.60059 -16.4004 15.1572 -12.8066 25.8232c68.998 204.86 146.957 407.791 231.71 603.167l4.38867 10.1094c18.5059 42.584 37.6436 86.6143 51.2109 132.167c3.20703 10.7822 14.5391 16.9307 25.3477 13.7168z
M121.632 -100.436c10.2451 -4.66016 14.7617 -16.7529 10.0879 -26.998c-15.8906 -34.873 -29.9941 -71.4375 -41.9238 -108.674c-2.77148 -8.64844 -10.7812 -14.165 -19.4023 -14.165c-2.06543 0 -4.1582 0.3125 -6.22363 0.978516
c-10.7207 3.43066 -16.624 14.9053 -13.1934 25.626c12.4189 38.752 27.1006 76.8174 43.6504 113.137c4.68066 10.2383 16.7529 14.7695 27.0049 10.0957z" />
    <glyph glyph-name="quotedbl" unicode="&#x22;" horiz-adv-x="331" 
d="M175.886 706.823c9.7627 -5.59766 13.1406 -18.0518 7.54297 -27.8213c-29.8252 -52.0068 -62.293 -102.498 -96.5 -150.062c-3.98145 -5.53711 -10.2246 -8.48535 -16.5635 -8.48535c-4.12402 0 -8.28223 1.24316 -11.8828 3.83203
c-9.1377 6.57617 -11.2168 19.3145 -4.64746 28.4521c33.3916 46.4355 65.0986 95.7383 94.2305 146.542c5.59766 9.7627 18.0508 13.1465 27.8203 7.54199zM271.883 655.95c9.50488 -6.02637 12.3301 -18.6211 6.30371 -28.126
c-24.4033 -38.5 -50.7637 -75.791 -78.333 -110.813c-4.02148 -5.10938 -9.99316 -7.7793 -16.0264 -7.7793c-4.41602 0 -8.85938 1.42676 -12.5957 4.36816c-8.8457 6.96387 -10.374 19.7773 -3.41016 28.623c26.7129 33.9414 52.2646 70.0771 75.9346 107.423
c6.02637 9.50488 18.6221 12.3311 28.127 6.30469z" />
    <glyph glyph-name="quotedbl" unicode="&#x201d;" horiz-adv-x="331" 
d="M175.886 706.823c9.7627 -5.59766 13.1406 -18.0518 7.54297 -27.8213c-29.8252 -52.0068 -62.293 -102.498 -96.5 -150.062c-3.98145 -5.53711 -10.2246 -8.48535 -16.5635 -8.48535c-4.12402 0 -8.28223 1.24316 -11.8828 3.83203
c-9.1377 6.57617 -11.2168 19.3145 -4.64746 28.4521c33.3916 46.4355 65.0986 95.7383 94.2305 146.542c5.59766 9.7627 18.0508 13.1465 27.8203 7.54199zM271.883 655.95c9.50488 -6.02637 12.3301 -18.6211 6.30371 -28.126
c-24.4033 -38.5 -50.7637 -75.791 -78.333 -110.813c-4.02148 -5.10938 -9.99316 -7.7793 -16.0264 -7.7793c-4.41602 0 -8.85938 1.42676 -12.5957 4.36816c-8.8457 6.96387 -10.374 19.7773 -3.41016 28.623c26.7129 33.9414 52.2646 70.0771 75.9346 107.423
c6.02637 9.50488 18.6221 12.3311 28.127 6.30469z" />
    <glyph glyph-name="quotedbl" unicode="&#x201c;" horiz-adv-x="331" 
d="M175.886 706.823c9.7627 -5.59766 13.1406 -18.0518 7.54297 -27.8213c-29.8252 -52.0068 -62.293 -102.498 -96.5 -150.062c-3.98145 -5.53711 -10.2246 -8.48535 -16.5635 -8.48535c-4.12402 0 -8.28223 1.24316 -11.8828 3.83203
c-9.1377 6.57617 -11.2168 19.3145 -4.64746 28.4521c33.3916 46.4355 65.0986 95.7383 94.2305 146.542c5.59766 9.7627 18.0508 13.1465 27.8203 7.54199zM271.883 655.95c9.50488 -6.02637 12.3301 -18.6211 6.30371 -28.126
c-24.4033 -38.5 -50.7637 -75.791 -78.333 -110.813c-4.02148 -5.10938 -9.99316 -7.7793 -16.0264 -7.7793c-4.41602 0 -8.85938 1.42676 -12.5957 4.36816c-8.8457 6.96387 -10.374 19.7773 -3.41016 28.623c26.7129 33.9414 52.2646 70.0771 75.9346 107.423
c6.02637 9.50488 18.6221 12.3311 28.127 6.30469z" />
    <glyph glyph-name="numbersign" unicode="#" horiz-adv-x="724" 
d="M661.761 740.052c10.4287 -4.23242 15.4551 -16.1152 11.2295 -26.5303c-53.9355 -132.968 -106.798 -267.498 -158.479 -402.919c28.9072 -0.801758 57.8145 -2.58887 86.7021 -5.3877c11.2031 -1.08691 19.4102 -11.0469 18.3232 -22.25
c-1.08008 -11.2031 -11.04 -19.4102 -22.25 -18.3232c-32.6982 3.16602 -65.4238 4.93262 -98.1357 5.45605c-9.42969 -24.8584 -18.8799 -49.7031 -28.2217 -74.6162c22.1885 -1.59668 44.3428 -4.05566 66.4297 -7.58203
c11.1143 -1.78027 18.6895 -12.2295 16.9092 -23.3438c-1.77344 -11.1211 -12.2363 -18.6826 -23.3438 -16.9092c-24.8721 3.97461 -49.8457 6.50879 -74.8467 7.8877c-57.5098 -154.308 -113.409 -309.471 -167.175 -464.702
c-2.9209 -8.43066 -10.8154 -13.7158 -19.2598 -13.7158c-2.21484 0 -4.46387 0.360352 -6.67188 1.12793c-10.6318 3.68262 -16.2705 15.293 -12.5879 25.9248c52.3525 151.148 106.737 302.229 162.644 452.541c-47.7402 -0.197266 -95.4189 -5.06152 -142.541 -14.5459
c-53.0322 -146.162 -103.904 -293.472 -152.038 -441.257c-2.80566 -8.60742 -10.7881 -14.0762 -19.375 -14.0762c-2.09277 0 -4.21973 0.319336 -6.31934 1.00586c-10.7002 3.48535 -16.5498 14.9873 -13.0645 25.6943c45.5186 139.755 93.4756 279.082 143.376 417.431
c-48.875 -13.166 -96.9551 -31.251 -143.629 -54.3564c-2.9082 -1.44043 -5.99219 -2.12695 -9.0293 -2.12695c-7.50684 0 -14.7285 4.16504 -18.2812 11.3457c-5 10.0889 -0.869141 22.3174 9.21973 27.3105c57.7744 28.6084 117.607 49.9746 178.479 64.085
c9.0625 24.8584 18.1934 49.6758 27.3926 74.46c-37.1416 -6.54199 -74.1338 -14.79 -110.895 -24.7705c-1.78711 -0.482422 -3.58789 -0.713867 -5.35449 -0.713867c-8.97461 0 -17.1953 5.97168 -19.6543 15.0479c-2.94824 10.8633 3.46484 22.0596 14.3281 25.0078
c45.709 12.4053 91.7578 22.2158 138.017 29.4785c51.708 137.955 105.291 274.674 160.729 409.327c4.28711 10.4082 16.21 15.3682 26.6045 11.0879c10.4082 -4.28711 15.374 -16.1963 11.0869 -26.6045c-52.5088 -127.554 -103.388 -256.948 -152.562 -387.512
c47.04 5.63867 94.2637 8.62109 141.542 8.94043c53.4873 140.462 108.238 280.007 164.158 417.859c4.22559 10.4287 16.1211 15.4561 26.543 11.2236zM428.107 197.289c9.08984 24.2881 18.249 48.5205 27.4277 72.7539
c-47.4951 -0.944336 -94.916 -4.68066 -142.126 -11.1689c-8.98828 -24.0977 -17.9902 -48.1816 -26.8564 -72.3604c46.877 7.92188 94.2021 11.5225 141.555 10.7754z" />
    <glyph glyph-name="dollar" unicode="$" horiz-adv-x="598" 
d="M535.718 589.094c13.9609 -30.1445 13.0254 -65.0273 9.77832 -88.9756c-9.11035 -67.293 -42.3662 -123.206 -71.709 -172.529c-5.75391 -9.66797 -18.2617 -12.8477 -27.9365 -7.09375c-9.66797 5.75391 -12.8477 18.2617 -7.09375 27.9365
c27.3516 45.9805 58.3516 98.0957 66.3477 157.161c2.52051 18.5742 3.45117 45.165 -6.37305 66.3887c-6.29785 13.6016 -16.2441 22.9902 -26.1357 29.4717c-67.2656 -134.272 -128.96 -272.757 -184.947 -414.822
c0.169922 -0.455078 0.34668 -0.916992 0.523438 -1.37207c20.6123 -54.3438 42.8955 -118.062 46.3398 -186.564c3.85254 -76.6201 -18.4854 -145.978 -59.7578 -185.524c-24.4648 -23.4385 -54.9961 -35.9121 -85.8262 -35.9121
c-11.0332 0 -22.1074 1.59668 -32.957 4.86426c-2.79883 0.842773 -5.57031 1.82129 -8.31543 2.88086c-15.5645 -51.0693 -30.4766 -102.472 -44.6143 -154.247c-2.47266 -9.05566 -10.6865 -15.0137 -19.6475 -15.0137c-1.77344 0 -3.58105 0.237305 -5.38184 0.726562
c-10.8633 2.96191 -17.2627 14.1719 -14.2939 25.0283c15.1299 55.3896 31.1631 110.345 47.9102 164.939c-20.3066 16.8691 -36.9648 40.1582 -47.4883 67.5371c-21.9307 57.0615 -18.3369 128.893 10.6797 213.516c20.7275 60.4307 44.4512 101.255 74.6768 128.471
c8.37012 7.53418 21.2578 6.85449 28.7852 -1.50879c7.53418 -8.36328 6.85449 -21.251 -1.50879 -28.7852c-24.8652 -22.3857 -45.0088 -57.7881 -63.3926 -111.397c-25.8232 -75.3232 -29.5869 -137.792 -11.1895 -185.675
c5.59082 -14.5322 13.5264 -27.6445 22.9902 -38.501c36.0752 114.177 75.7373 226.458 118.783 336.646c-0.889648 2.30957 -1.76562 4.62598 -2.65527 6.93555c-19.1182 49.7236 -38.8877 101.146 -49.0312 156.549c-7.96875 43.541 -15.7617 126.976 21.5771 196.592
c32.1826 60.0166 86.3906 88 126.202 100.901c41.1709 13.3496 79.1758 15.2178 113.417 5.95801c16.1963 31.7139 32.583 63.2715 49.3906 94.5029c5.33301 9.91211 17.6904 13.6211 27.6025 8.28809s13.6211 -17.6914 8.28809 -27.6035
c-16.1758 -30.0693 -31.9648 -60.4375 -47.5703 -90.9551c16.3184 -9.88477 33.5947 -25.1846 44.5332 -48.8135zM293.807 -3.36328c-2.33008 46.3135 -14.4824 91.2627 -28.5459 132.358c-38.0449 -99.9639 -73.1621 -201.701 -105.467 -304.905
c2.61523 -1.12109 5.25781 -2.14062 7.92773 -2.94238c26.9102 -8.0918 56.3682 -0.0751953 78.835 21.4473c32.3652 31.0068 50.4707 90.0381 47.25 154.042zM266.239 242.797c51.5381 127.607 107.62 252.321 168.262 373.598
c-24.4912 4.72852 -51.918 2.24902 -81.8721 -7.45898c-32.6914 -10.5986 -77.0752 -33.3242 -102.851 -81.3906c-22.9902 -42.8555 -29.3291 -104.814 -17.3994 -169.987c7.20117 -39.3838 20.0078 -77.5713 33.8604 -114.761z" />
    <glyph glyph-name="percent" unicode="%" horiz-adv-x="835" 
d="M779.508 721.852c7.82617 -8.08496 7.62207 -20.9844 -0.462891 -28.8242c-272.825 -264.197 -505.132 -583.343 -690.48 -948.577c-3.59375 -7.0791 -10.7607 -11.1621 -18.1934 -11.1621c-3.10449 0 -6.25 0.712891 -9.20508 2.21387
c-10.041 5.0957 -14.0498 17.3584 -8.9541 27.3994c187.4 369.276 422.397 692.063 698.477 959.413c8.08496 7.83301 20.9932 7.62207 28.8193 -0.462891zM576.387 316.645c34.166 3.65527 64.5811 -6.9082 85.6553 -29.7354
c39.5674 -42.8896 34.126 -114.537 29.9551 -143.356c-14.1445 -97.6875 -67.8086 -189.458 -143.539 -245.479c-14.8447 -10.9785 -34.8457 -23.9346 -58.0059 -26.7334c-2.91406 -0.353516 -5.81543 -0.523438 -8.68262 -0.523438
c-23.5137 0 -45.1318 11.5967 -57.8154 31.5225c-11.6104 18.2412 -16.0332 43.3037 -13.1318 74.4873c4.51074 48.5283 23.0234 98.0957 53.5273 143.336c27.2773 40.4502 60.4111 72.9521 92.0156 102.771c8.17969 7.72461 21.0811 7.35742 28.8125 -0.835938
c7.72461 -8.18652 7.35059 -21.0879 -0.835938 -28.8125c-29.9404 -28.2559 -61.2598 -58.9297 -86.2002 -95.915c-26.6924 -39.5879 -42.8545 -82.5791 -46.7334 -124.32c-2.01074 -21.6582 0.380859 -38.541 6.92969 -48.8203
c8.61426 -13.54 23.0039 -12.9355 27.2227 -12.4258c13.6758 1.64453 27.834 11.0332 38.6426 19.0293c67.1768 49.6895 114.821 131.392 127.438 218.549c6.95703 47.9775 -0.360352 89.0527 -19.5664 109.869c-16.332 17.7051 -39.1865 18.167 -51.3545 16.8623
c-28.249 -3.02344 -56.1445 -19.6406 -76.5391 -45.5791c-2.52734 -3.2207 -3.72949 -5.95898 -4.10352 -7.32422c3.9541 -9.71484 -0.149414 -20.999 -9.67383 -25.8291c-10.0342 -5.08887 -22.3037 -1.08008 -27.3926 8.96094
c-7.39844 14.5928 -4.06934 32.5898 9.13086 49.3838c27.1416 34.5332 65.1396 56.7354 104.245 60.9199zM69.0791 424.605c-10.2451 4.66699 -14.7744 16.7461 -10.0938 26.9775c28.2959 62.1904 76.2871 109.652 131.663 130.21
c45.9121 17.0459 89.3857 7.48047 113.436 -24.9668c31.0137 -41.8223 19.5732 -103.034 13.2139 -127.41c-23.0586 -88.4141 -82.4971 -158.431 -155.116 -182.719c-9.91895 -3.31543 -19.3691 -4.95312 -28.1328 -4.95312c-18.2207 0 -33.4521 7.05859 -43.6221 20.7344
c-16.1484 21.6992 -13.6826 52.1152 -8.77051 73.8145c15.082 66.5996 54.5742 118.837 95.0039 165.367c7.37793 8.49219 20.2588 9.40234 28.751 2.01758c8.49902 -7.37793 9.39551 -20.2588 2.01758 -28.751c-42.6924 -49.126 -73.6582 -93.0342 -86.0225 -147.629
c-4.15137 -18.3232 -3.5127 -33.46 1.71191 -40.4775c5.02734 -6.75293 16.9775 -4.52441 26.1221 -1.45996c58.8008 19.668 109.271 80.248 128.6 154.348c10.1562 38.9424 7.72363 73.6523 -6.50977 92.8516c-18.7441 25.2861 -52.7539 16.1348 -66.5117 11.0322
c-45.2734 -16.8076 -84.915 -56.4971 -108.748 -108.877c-4.65332 -10.2451 -16.7324 -14.7764 -26.9912 -10.1094z" />
    <glyph glyph-name="ampersand" unicode="&#x26;" horiz-adv-x="652" 
d="M512.337 488.424c-49.7715 -72.1777 -113.005 -138.865 -193.328 -203.848c-13.8867 -11.2373 -28.1338 -22.3184 -41.9658 -33.0596c0.829102 -17.4463 2.17383 -34.8584 4.04199 -52.1895c5.13574 -47.6445 16.1963 -106.418 39.6553 -156.964
c10.8428 10.6523 21.0811 21.4141 30.6396 31.7881c79.1338 85.8936 149.056 184.635 207.829 293.479c5.34668 9.90527 17.7109 13.6016 27.6162 8.24805c9.90527 -5.34668 13.5947 -17.7109 8.24805 -27.6162c-60.3828 -111.826 -132.288 -213.346 -213.712 -301.733
c-12.3242 -13.3701 -25.7012 -27.3242 -40.0908 -41c7.94238 -11.8418 16.8486 -22.7734 26.8486 -32.4482c47.5498 -46.0146 115.257 -54.208 168.473 -20.3818c9.49805 6.04004 22.0938 3.22754 28.1338 -6.27051s3.23438 -22.0938 -6.26367 -28.1338
c-28.751 -18.2754 -60.6748 -27.2295 -92.5518 -27.2295c-45.124 -0.00683594 -90.1738 17.9219 -126.134 52.7197c-10.8086 10.4629 -20.5029 22.0664 -29.1924 34.5127c-38.7793 -31.8223 -83.4082 -58.3857 -133.03 -66.7764
c-48.3994 -8.18652 -88.666 7.13379 -110.535 42.0264c-17.2764 27.5625 -21.7129 66.7422 -11.8623 104.814c9.45703 36.5508 29.8994 65.6758 44.459 84.4062c40.1104 51.6055 88.3125 90.9551 135.957 128.124c-3.85254 160.313 33.7578 322.312 106.729 454.152
c38.0312 68.7256 76.4023 110.065 120.752 130.101c34.2949 15.4902 68.4199 13.8057 93.6387 -4.61914c49.9951 -36.5234 46.293 -117.431 43.9697 -141.352c-7.04492 -72.5781 -35.9385 -144.782 -88.3252 -220.75zM289.456 13.7207
c-29.6553 58.2637 -43.0049 126.596 -48.9092 181.225c-0.930664 8.66211 -1.73926 17.3584 -2.42578 26.0615c-38.7588 -31.0137 -75.0381 -62.999 -106.323 -103.245c-19.6064 -25.2324 -31.4209 -47.3525 -37.1816 -69.6094
c-6.88867 -26.6113 -4.16406 -55.2539 6.93652 -72.959c17.3584 -27.6846 50.7979 -26.5977 69.1953 -23.4863c43.2695 7.32324 83.4072 32.2295 118.708 62.0137zM276.1 302.471c5.79492 4.57227 11.5752 9.17188 17.2617 13.7646
c77.2451 62.5166 137.894 126.398 185.416 195.321c48.3516 70.1191 74.9492 136.046 81.3154 201.552c3.81836 39.248 -3.19238 86.7842 -27.4395 104.495c-7.42578 5.42188 -15.7275 7.34473 -23.7646 7.34473c-11.2637 0 -22.0049 -3.77051 -29.0498 -6.95703
c-35.4434 -16.0127 -68.7598 -52.8691 -101.866 -112.688c-64.9219 -117.288 -100.46 -259.809 -101.873 -402.832z" />
    <glyph glyph-name="quotesingle" unicode="'" horiz-adv-x="221" 
d="M163.334 656.509c8.77051 -7.05859 10.1631 -19.8926 3.11133 -28.6494c-28.5479 -35.4912 -54.9082 -74.2979 -78.3672 -115.339c-3.75684 -6.58301 -10.6318 -10.2725 -17.7109 -10.2725c-3.43066 0 -6.90234 0.863281 -10.0957 2.69043
c-9.77637 5.58496 -13.166 18.0381 -7.58105 27.8076c24.5186 42.8965 52.1016 83.4893 81.9873 120.651c7.05176 8.77051 19.8721 10.1699 28.6562 3.11133z" />
    <glyph glyph-name="quotesingle" unicode="&#x2019;" horiz-adv-x="221" 
d="M163.334 656.509c8.77051 -7.05859 10.1631 -19.8926 3.11133 -28.6494c-28.5479 -35.4912 -54.9082 -74.2979 -78.3672 -115.339c-3.75684 -6.58301 -10.6318 -10.2725 -17.7109 -10.2725c-3.43066 0 -6.90234 0.863281 -10.0957 2.69043
c-9.77637 5.58496 -13.166 18.0381 -7.58105 27.8076c24.5186 42.8965 52.1016 83.4893 81.9873 120.651c7.05176 8.77051 19.8721 10.1699 28.6562 3.11133z" />
    <glyph glyph-name="quotesingle" unicode="&#x2018;" horiz-adv-x="221" 
d="M163.334 656.509c8.77051 -7.05859 10.1631 -19.8926 3.11133 -28.6494c-28.5479 -35.4912 -54.9082 -74.2979 -78.3672 -115.339c-3.75684 -6.58301 -10.6318 -10.2725 -17.7109 -10.2725c-3.43066 0 -6.90234 0.863281 -10.0957 2.69043
c-9.77637 5.58496 -13.166 18.0381 -7.58105 27.8076c24.5186 42.8965 52.1016 83.4893 81.9873 120.651c7.05176 8.77051 19.8721 10.1699 28.6562 3.11133z" />
    <glyph glyph-name="parenleft" unicode="(" horiz-adv-x="649" 
d="M596.047 849.854c5.58496 -9.77637 2.18262 -22.2295 -7.59375 -27.8145c-9.7832 -5.57812 -22.2227 -2.1748 -27.8076 7.60156c-15.0479 26.373 -52.4404 9.6875 -59.791 6.07324c-38.3037 -18.8457 -76.1523 -53.9424 -115.727 -107.308
c-53.9355 -72.7344 -95.7314 -155.897 -129.497 -227.66c-56.0625 -119.143 -133.505 -300.422 -158.662 -498.291c-7.63574 -60.084 -8.19238 -105.168 -1.81348 -146.188c7.83984 -50.3486 26.8691 -92.042 53.5957 -117.383
c35.3213 -33.4863 85.9619 -36.1357 123.145 -6.44043c8.79785 7.02441 21.625 5.58398 28.6426 -3.20703c7.02441 -8.79785 5.58398 -21.6182 -3.20703 -28.6426c-24.5049 -19.5732 -53.6982 -29.2412 -82.9043 -29.2412
c-33.5684 -0.00683594 -67.1641 12.7588 -93.7275 37.9502c-33.2354 31.5166 -56.6133 81.4854 -65.8252 140.7c-6.99121 44.9541 -6.48145 93.5635 1.65723 157.595c25.8848 203.604 104.979 388.863 162.216 510.506c34.6143 73.5771 77.5713 158.982 133.634 234.584
c43.5342 58.7051 86.2061 97.8242 130.468 119.605c39.0166 19.1924 89.1416 19.709 113.198 -22.4395z" />
    <glyph glyph-name="parenright" unicode=")" horiz-adv-x="605" 
d="M543.707 702.632c12.4121 -69.4326 14.5342 -147.658 6.6875 -246.161c-18.8867 -236.839 -81.5938 -444.838 -181.347 -601.523c-57.3057 -90.0107 -116.263 -141.331 -180.233 -156.896c-9.87109 -2.40527 -20.2109 -3.6416 -30.6191 -3.6416
c-43.6777 0 -88.7207 21.7607 -106.901 70.5469c-3.93359 10.5508 1.43359 22.2832 11.9775 26.2168c10.5576 3.93359 22.29 -1.44043 26.2168 -11.9844c14.8779 -39.9131 56.8838 -49.5127 89.6914 -41.5371c52.5088 12.7793 104.821 59.6025 155.489 139.179
c96.1865 151.094 156.732 352.646 175.096 582.874c7.56152 94.9365 5.60449 169.852 -6.17578 235.751c-4.74902 26.5098 -13.4111 64.5547 -33.8125 88.8154c-13.5469 16.1084 -36.5508 26.1836 -52.4756 13.1807c-8.7168 -7.12012 -21.5635 -5.82227 -28.6768 2.89453
c-7.12695 8.7168 -5.82227 21.5566 2.89453 28.6768c31.7207 25.8975 78.7676 17.9551 109.448 -18.5137c26.6865 -31.7402 37.1758 -76.7695 42.7402 -107.878z" />
    <glyph glyph-name="asterisk" unicode="*" horiz-adv-x="412" 
d="M361.346 427.537c1.94336 -11.0879 -5.46777 -21.6494 -16.5557 -23.5723c-24.3281 -4.25977 -44.791 -6.55566 -62.8418 -8.58691c-29.1455 -3.28125 -47.2646 -5.61816 -60.3701 -12.0312c8.05078 -50.8789 12.1953 -127.622 8.01758 -166.109
c-1.13477 -10.4424 -9.97363 -18.1875 -20.2393 -18.1875c-0.740234 0 -1.48047 0.0410156 -2.22754 0.12207c-11.1895 1.21582 -19.2812 11.2705 -18.0654 22.46c3.07715 28.3301 0.841797 83.3594 -4.14453 128.097c-27.5693 -42.8623 -63.6982 -86.709 -98.7402 -109.794
c-3.45117 -2.27637 -7.34375 -3.37012 -11.1895 -3.37012c-6.62402 0 -13.126 3.22656 -17.0391 9.1709c-6.19629 9.39551 -3.60059 22.0391 5.80176 28.2285c36.5439 24.0771 77.9521 79.1748 104.339 126.942c-72.4971 21.8828 -89.876 21.8555 -93.5518 21.2305
c-10.999 -2.30957 -21.7871 4.74219 -24.0967 15.7617c-2.31641 11.0127 4.76953 21.8281 15.7891 24.1377c16.957 3.56641 52.543 -3.44434 117.791 -23.3506c0.992188 0.794922 2.10645 1.48828 3.25488 2.1543c14.8447 37.2637 18.1807 69.9414 19.3896 122.695
c0.257812 11.2578 9.62598 20.1914 20.8428 19.9131c11.251 -0.257812 20.1641 -9.59277 19.9062 -20.8438c-1.28418 -56.0625 -5.08203 -92.96 -21.3535 -134.626c15.0684 3.81152 32.0254 5.7207 51.3262 7.8877c17.4668 1.96387 37.2705 4.19238 60.3623 8.23438
c11.1074 1.94336 21.6514 -5.47559 23.5947 -16.5635z" />
    <glyph glyph-name="plus" unicode="+" horiz-adv-x="325" 
d="M256.687 254.928c11.21 -0.985352 19.5078 -10.8779 18.5156 -22.0947c-0.985352 -11.21 -10.8291 -19.5117 -22.0859 -18.5195c-25.1777 2.21484 -50.4375 2.75879 -75.6699 1.82129c-14.6611 -66.7559 -26.5166 -134.49 -35.1309 -202.985
c-1.29785 -10.3066 -10.0752 -17.8408 -20.1982 -17.8408c-0.849609 0 -1.70605 0.0546875 -2.56934 0.163086c-11.1689 1.40625 -19.084 11.5967 -17.6777 22.7656c8.26172 65.6895 19.4512 130.713 33.1816 194.86c-20.2451 -2.16699 -40.4365 -5.27148 -60.4854 -9.46289
c-1.40625 -0.291992 -2.80566 -0.43457 -4.19141 -0.43457c-9.4502 0 -17.9219 6.59668 -19.9326 16.21c-2.30957 11.0127 4.75586 21.8145 15.7754 24.1172c25.8369 5.4082 51.8975 9.15137 78.04 11.4004c18.0576 77.2314 40.0488 153.023 65.8584 226.817
c3.70898 10.6055 14.124 22.0127 27.3379 21.8838c9.94629 -0.0683594 18.4932 -6.44141 21.7744 -16.2383c3.56641 -10.6729 -2.1875 -22.2227 -12.8604 -25.7959c-0.0341797 -0.0136719 -0.0751953 -0.0205078 -0.109375 -0.0341797
c-23.0381 -66.5859 -42.7812 -134.856 -59.4121 -204.31c23.2959 0.475586 46.6055 -0.27832 69.8398 -2.32324z" />
    <glyph glyph-name="comma" unicode="," horiz-adv-x="256" 
d="M195.83 87.2969c9.71484 -5.68652 12.9834 -18.168 7.30371 -27.8828c-36.6523 -62.6318 -75.6553 -124.278 -115.922 -183.222c-3.94727 -5.77441 -10.3398 -8.88574 -16.8486 -8.88574c-3.9541 0 -7.95605 1.14844 -11.4756 3.55371
c-9.29395 6.3457 -11.6855 19.0293 -5.33301 28.3232c39.7305 58.1689 78.2236 119.001 114.394 180.817c5.67969 9.71484 18.1602 12.9824 27.8818 7.2959z" />
    <glyph glyph-name="hyphen" unicode="-" horiz-adv-x="367" 
d="M296.772 256.055c11.2568 -0.163086 20.2422 -9.41797 20.0723 -20.6748c-0.163086 -11.1553 -9.25293 -20.0889 -20.374 -20.0889h-0.297852c-74.3857 1.07324 -149.79 -1.61719 -224.053 -8.00293c-0.59082 -0.0478516 -1.18164 -0.0751953 -1.76562 -0.0751953
c-10.4629 0 -19.3691 8.0166 -20.2793 18.6357c-0.964844 11.2168 7.34375 21.0879 18.5605 22.0527c75.6084 6.50195 152.345 9.24707 228.137 8.15332z" />
    <glyph glyph-name="period" unicode="." horiz-adv-x="148" 
d="M80.9297 48.7695c11.1279 -1.72559 18.7432 -12.1406 17.0176 -23.2617l-7.42578 -47.8965c-1.5625 -10.0684 -10.2383 -17.2627 -20.1162 -17.2627c-1.03223 0 -2.08496 0.0810547 -3.14453 0.244141c-11.1211 1.72559 -18.7373 12.1406 -17.0186 23.2617
l7.42578 47.8965c1.72559 11.1211 12.127 18.7373 23.2617 17.0186z" />
    <glyph glyph-name="slash" unicode="/" horiz-adv-x="636" 
d="M576.222 830.186c9.59277 -5.89062 12.5879 -18.4453 6.69043 -28.0312c-192.061 -312.508 -358.087 -651.701 -493.474 -1008.17c-3.09082 -8.14551 -10.8359 -13.1523 -19.0566 -13.1523c-2.40527 0 -4.84375 0.427734 -7.22852 1.33105
c-10.5303 4.00195 -15.8154 15.7686 -11.8203 26.292c136.29 358.855 303.458 700.359 496.857 1015.03c5.89746 9.59277 18.4385 12.5889 28.0312 6.69141z" />
    <glyph glyph-name="zero" unicode="0" horiz-adv-x="510" 
d="M378.438 580.599c19.4102 -10.8154 36.124 -30.4365 49.6777 -58.3252c21.9707 -45.2266 32.2705 -102.314 31.4893 -174.546c-0.9375 -86.1992 -16.4277 -173.289 -44.7988 -251.846c-29.6553 -82.083 -71.9258 -150.19 -122.254 -196.945
c-36.4893 -33.8945 -73.3867 -52.5977 -109.673 -55.5732c-3.13867 -0.257812 -6.27734 -0.386719 -9.39551 -0.386719c-42.4473 -0.00683594 -82.4766 23.5205 -103.843 61.749c-33.6562 60.2197 -16.624 139.938 -3.47168 182.101
c30.1035 96.5127 82.9863 177.189 134.116 255.209c31.2715 47.7061 63.6104 97.0293 90.0244 149.097c5.08887 10.041 17.3516 14.0498 27.3994 8.9541c10.041 -5.0957 14.0498 -17.3584 8.9541 -27.3994c-27.4336 -54.085 -60.4043 -104.373 -92.2812 -153.003
c-51.8906 -79.1611 -100.908 -153.927 -129.313 -244.998c-11.1963 -35.9121 -26.0742 -103.164 0.142578 -150.075c15.4014 -27.5625 43.9424 -43.127 74.3174 -40.627c26.9512 2.21484 55.6416 17.29 85.2627 44.8115c45.5928 42.3662 84.2021 104.924 111.656 180.933
c26.8359 74.3037 41.4971 156.753 42.3799 238.435c0.712891 65.7637 -8.24805 116.887 -27.3857 156.291c-9.69434 19.9463 -21.0537 33.9688 -32.8477 40.5381c-8.87305 4.94629 -20.0283 6.74707 -33.1475 5.34082
c-35.5928 -3.80469 -73.1689 -29.8047 -103.082 -71.3281c-30.8232 -42.7734 -50.9121 -95.6973 -66.4902 -141.827c-3.60742 -10.6592 -15.1709 -16.3867 -25.8301 -12.7861s-16.3867 15.1641 -12.7861 25.8301c16.5566 48.9971 38.0586 105.453 72.0342 152.603
c37.2168 51.6602 84.0332 82.9316 131.827 88.0342c21.6514 2.31641 40.9385 -1.13477 57.3184 -10.2588z" />
    <glyph glyph-name="one" unicode="1" horiz-adv-x="436" 
d="M361.962 592.142c23.3096 -20.4971 25.4316 -57.2441 23.1084 -84.4668c-3.26074 -38.1807 -12.4863 -73.9707 -25.3467 -115.956c-20.9863 -68.5293 -45.7773 -136.257 -69.7461 -201.749c-37.875 -103.504 -77.0479 -210.533 -101.268 -321.448
c-0.618164 -2.82617 -1.85449 -5.34668 -3.45117 -7.55469c0.516602 -0.244141 1.04004 -0.481445 1.5498 -0.725586c4.07617 -1.90918 8.125 -3.81152 12.1602 -5.625c44.8936 -20.1367 60.0576 -6.11426 65.0371 -1.50098
c8.26758 7.63574 21.1621 7.13281 28.8047 -1.13477c7.63672 -8.26758 7.12695 -21.1553 -1.13477 -28.7979c-11.1016 -10.2588 -27.9639 -19.7158 -52.4355 -19.7158c-15.7002 0 -34.5186 3.89258 -56.958 13.9541c-4.24609 1.90234 -8.5127 3.89941 -12.793 5.91016
c-22.3994 10.5098 -43.5762 20.4355 -62.3408 16.3389c-8.00977 -1.74609 -15.748 -6.15527 -22.3994 -12.7588c-7.98242 -7.92871 -20.8906 -7.8877 -28.8262 0.0947266c-7.93555 7.98926 -7.8877 20.8975 0.0947266 28.8262
c12.1611 12.0791 26.8359 20.2725 42.4414 23.6689c17.5547 3.8252 34.3555 1.41992 50.2666 -3.5332c0.0615234 0.414062 0.0546875 0.828125 0.142578 1.24902c24.8105 113.626 64.4658 221.974 102.816 326.761c23.7852 64.9893 48.3789 132.187 69.0459 199.676
c12.0996 39.499 20.7549 72.8975 23.71 107.491c2.06543 24.165 -1.53516 43.4658 -9.40234 50.3818c-4.32129 3.79785 -11.6445 4.27344 -21.7812 1.40625c-16.7061 -4.72852 -34.166 -15.123 -54.9414 -32.7051c-32.1484 -27.209 -60.3018 -60.8447 -83.6592 -99.957
c-8.41113 -14.0771 -16.2783 -29.3154 -16.9033 -45.417c-0.43457 -11.251 -10.0137 -20.001 -21.1553 -19.5732c-11.251 0.441406 -20.0078 9.91211 -19.5732 21.1631c0.985352 25.293 11.998 46.918 22.6367 64.7314c25.6738 42.9775 56.7354 80.0449 92.3213 110.169
c25.3818 21.4824 47.6855 34.4521 70.1934 40.8184c30.2666 8.56055 49.2148 -0.726562 59.7861 -10.0205z" />
    <glyph glyph-name="two" unicode="2" horiz-adv-x="557" 
d="M422.402 597.277c31.1699 -9.93945 58.1152 -40.4189 72.0898 -81.5625c10.2793 -30.2461 14.2334 -65.2754 12.4326 -110.25c-3.38965 -84.8066 -24.4229 -172.06 -62.5156 -259.326c-32.7939 -75.1328 -75.9277 -144.308 -126.27 -202.904
c5.56445 -3.62793 11.0947 -7.31055 16.6045 -10.9795c4.13086 -2.75195 8.24805 -5.49023 12.3584 -8.19434c40.0967 -26.3672 86.6816 -51.4297 128.117 -37.3867c10.666 3.61426 22.2295 -2.09961 25.8438 -12.7588s-2.09961 -22.2295 -12.7588 -25.8438
c-58.0527 -19.6748 -115.277 10.1572 -163.602 41.9385c-4.17188 2.74512 -8.34961 5.52344 -12.541 8.31543c-7.24219 4.81641 -14.5254 9.66699 -21.8555 14.3613c-4.02832 -4.16504 -8.10449 -8.26855 -12.208 -12.3037
c-20.7139 -20.3477 -52.6172 -49.3096 -90.3027 -65.8252c-20.8975 -9.15137 -42.1211 -13.751 -62.5293 -13.751c-17.4395 0 -34.2812 3.34961 -49.8047 10.0889c-4.00195 1.73926 -14.6338 6.35254 -20.8369 17.7051c-4.87793 8.94043 -8.35645 24.3896 2.71094 47.2715
c27.8135 57.4961 81.1719 94.8828 135.93 95.2363c32.0459 0.197266 61.5518 -10.9785 89.5625 -26.3594c49.5811 56.5654 92.0762 124.075 124.218 197.713c36.0615 82.6055 55.9609 164.919 59.1475 244.651c1.58984 39.8115 -1.68457 70.1592 -10.2988 95.5068
c-9.68164 28.5 -27.2637 49.8936 -45.8857 55.8311c-33.0518 10.5371 -68.9023 -25.2324 -87.334 -47.4893c-41.8291 -50.498 -64.7852 -107.572 -64.6426 -160.693c0 -0.625 0.0341797 -1.23633 0.0957031 -1.80664c4.90527 -2.75195 8.66211 -7.50098 9.95996 -13.4316
c2.40527 -10.999 -4.55859 -21.8623 -15.5508 -24.2676c-7.66992 -1.6709 -15.5713 0.204102 -21.7334 5.15039c-12.4941 10.0273 -13.5195 28.7441 -13.5332 34.2402c-0.217773 80.2822 40.1309 145.903 74.0117 186.809c43.1475 52.1016 89.7188 73.5225 131.12 60.3154z
M249.535 -70.5215c1.46094 1.44043 2.92285 2.88574 4.37012 4.33301c-19.9941 9.97363 -40.2061 16.666 -60.377 16.5371c-39.3428 -0.250977 -78.4004 -28.6016 -99.502 -72.2246c-2.1875 -4.51758 -2.98926 -7.66992 -3.2207 -9.42969
c0.250977 -0.115234 0.542969 -0.250977 0.882812 -0.393555c23.167 -10.0547 51.4902 -8.77734 79.7393 3.60059c24.0088 10.5234 48.8262 28.8193 78.1074 57.5771z" />
    <glyph glyph-name="three" unicode="3" horiz-adv-x="556" 
d="M410.915 600.817c38.4121 -1.08008 69.2266 -19.2295 84.5332 -49.8018c11.3184 -22.583 13.8047 -52.3057 6.82715 -81.5459c-6.55566 -27.4541 -19.8311 -50.0029 -30.667 -66.5869c-28.3916 -43.4463 -63.9092 -80.0713 -103.503 -107.328
c14.2529 -5.61816 27.7998 -13.9473 39.9951 -24.8379c32.8271 -29.3223 54.3975 -76.5049 57.6992 -126.201c2.17383 -32.8008 -2.98926 -67.9727 -15.8027 -107.54c-42.2441 -130.502 -142.146 -226.994 -254.516 -245.812
c-11.1621 -1.86816 -21.6445 -2.80566 -31.5293 -2.80566c-15.415 0 -29.376 2.27637 -42.2031 6.84863c-27.6104 9.84375 -50.1182 31.0469 -61.7559 58.1748c-20.6807 48.1885 -4.64746 102.41 6.75293 130.441c27.4336 67.4619 76.5938 119.306 134.864 142.234
c42.373 16.6719 81.1523 11.1074 106.419 -15.2393c7.79199 -8.125 7.52051 -21.0332 -0.604492 -28.8193c-8.13184 -7.79297 -21.0264 -7.52148 -28.8193 0.603516c-18.1328 18.9141 -46.6602 11.5771 -62.0615 5.5166
c-47.2373 -18.5947 -89.1143 -63.3252 -112.029 -119.659c-15.3135 -37.6719 -17.8887 -73.7607 -7.05273 -99.0068c7.18066 -16.7402 21.0264 -29.8047 37.9902 -35.8584c14.5322 -5.18359 31.4688 -5.89648 53.3037 -2.23438
c96.0303 16.0811 185.437 103.762 222.477 218.169c11.1826 34.5537 15.7344 64.7383 13.9072 92.2803c-2.56836 38.7178 -19.498 76.457 -44.1797 98.5029c-23.4727 20.9658 -53.8408 28.1807 -81.2402 19.2744c-10.5371 -3.41699 -21.8555 2.18066 -25.5244 12.623
c-3.66895 10.4355 1.65723 21.8965 12.0039 25.8164c58.4746 22.168 112.214 67.3262 151.306 127.152c13.4111 20.5244 21.1631 37.1016 25.1377 53.7529c4.72168 19.7568 3.36328 39.8799 -3.62109 53.8135c-11.9023 23.751 -38.4121 27.0254 -49.2617 27.3242
c-59.9824 1.71191 -118.545 -53.2773 -136.168 -127.846c-2.58203 -10.9512 -13.5811 -17.7314 -24.5195 -15.1426c-10.9512 2.58203 -17.7314 13.5674 -15.1426 24.5186c21.9775 92.9795 97.7217 161.413 176.985 159.219z" />
    <glyph glyph-name="four" unicode="4" horiz-adv-x="673" 
d="M609.877 601.599c10.5166 -4.01562 15.792 -15.7969 11.7637 -26.3066c-90.9482 -238.17 -173.574 -484.798 -245.602 -733.022c-2.58887 -8.91309 -10.7275 -14.708 -19.5664 -14.708c-1.875 0 -3.79102 0.264648 -5.68652 0.81543
c-10.8086 3.13184 -17.0254 14.4434 -13.8936 25.252c30.0898 103.707 62.1289 207.095 95.7441 309.756c1.82031 18.0508 -7.06641 35.7754 -16.9648 45.5107c-10.2109 10.041 -23.7715 16.4883 -43.9834 20.8906c-13.6152 2.96875 -27.1211 4.50391 -40.3965 4.87109
c-5.86328 -10.374 -11.876 -20.6533 -18.0244 -30.8164c-34.8525 -57.6113 -83.7949 -127.18 -153.492 -154.016c-14.6885 -5.65234 -28.7852 -8.47852 -41.9717 -8.47852c-15.001 0 -28.8193 3.65527 -40.9941 10.9453c-15.0547 9.00879 -24.709 23.1533 -26.4961 38.8066
c-1.36523 11.9707 1.99805 22.7051 5.08203 30.7217c16.4883 42.7939 49.71 77.5439 101.574 106.241c50.498 27.9434 101.302 43.7051 150 46.8438c51.4629 95.2969 90.8945 199.433 117.451 310.335c2.62207 10.9512 13.6348 17.6904 24.5664 15.0752
c10.9512 -2.62207 17.6973 -13.6211 15.0752 -24.5654c-25.6738 -107.22 -63.0537 -208.366 -111.419 -301.686c9.3623 -0.978516 18.6221 -2.45996 27.7393 -4.4502c17.4805 -3.81152 43.127 -11.2441 63.8818 -31.6592c3.42383 -3.37695 6.48145 -7.0791 9.3623 -10.9111
c41.0547 122.465 84.46 243.68 129.938 362.788c4.01562 10.5098 15.7891 15.7812 26.3125 11.7666zM278.397 224.936c1.20898 1.99023 2.40527 3.98242 3.59375 5.99316c-40.8174 -7.12012 -77.3955 -23.0996 -105.284 -38.5283
c-43.7314 -24.1924 -70.1865 -51.2725 -83.2646 -85.2207c-1.30469 -3.38379 -2.98926 -8.24805 -2.62207 -11.4551c0.489258 -4.28711 5.43555 -7.56152 6.93652 -8.45801c11.8955 -7.12695 27.834 -6.92285 47.373 0.597656
c58.8203 22.6504 104.23 89.0801 133.268 137.071z" />
    <glyph glyph-name="five" unicode="5" horiz-adv-x="564" 
d="M367.918 -36.3047c-26.7334 -36.7139 -62.9404 -66.334 -110.626 -90.5537c-21.6318 -10.9785 -54.0244 -25.3066 -88.8701 -25.3066c-1.35156 0 -2.70996 0.0273438 -4.06836 0.0683594c-37.7119 1.22266 -72.1973 20.6865 -92.2461 52.0537
c-22.0938 34.5664 -28.0586 85.0986 -15.9521 135.169c10.4561 43.249 31.5986 79.874 52.3672 113.68c5.88379 9.58594 18.4453 12.5957 28.0312 6.69824c9.59277 -5.89062 12.5889 -18.4385 6.69824 -28.0312c-19.0566 -31.0273 -38.4258 -64.4531 -47.4814 -101.928
c-9.40918 -38.9082 -5.31934 -78.6113 10.6729 -103.633c12.9961 -20.3408 34.5869 -32.4678 59.2217 -33.2695c20.5039 -0.65918 43.8135 5.95801 73.1699 20.8496c41.8428 21.2305 73.291 46.8096 96.1455 78.1904c27.5488 37.8281 41.8633 84.7871 39.2812 128.824
c-2.63574 44.8457 -24.0293 89.7324 -55.8379 117.152c-28.6631 24.7021 -65.9678 36.6934 -105.113 33.7725c-7.31738 -0.549805 -14.7432 -1.58203 -22.6035 -2.68262c-17.542 -2.44531 -35.6611 -4.97266 -54.8467 -2.33008
c-11.1074 1.52832 -19.2061 6.49414 -24.0703 14.7617c-4.52441 7.69043 -7.65625 20.8232 3.10547 39.6758l111.289 195.009c-20.7822 8.05078 -42.1211 15.9385 -62.7607 17.752c-15.6055 1.37207 -37.9502 -0.367188 -55.8789 -16.4619
c-7.69043 -6.90234 -16.2441 -19.6748 -15.0684 -32.9775c0.992188 -11.21 -7.2959 -21.1084 -18.5059 -22.1006c-11.2031 -0.999023 -21.1084 7.2959 -22.1006 18.5059c-2.12012 24.0029 8.51172 49.0107 28.4443 66.9053c22.4805 20.1846 53.2432 29.6826 86.6758 26.7412
c27.8955 -2.45215 53.5557 -12.4258 78.373 -22.0732l1.25 -0.489258l2.22852 3.90625c5.57812 9.77637 18.0176 13.1865 27.8008 7.60156c9.31445 -5.3125 12.7451 -16.8418 8.23438 -26.3799l49.5537 -19.2607c25.918 -10.0752 52.7197 -20.4902 78.7129 -21.8965
c15.2793 -0.822266 44.0576 1.29102 65.0098 24.7432c7.5 8.39062 20.3809 9.11719 28.7783 1.61719c8.39062 -7.5 9.11719 -20.3809 1.61719 -28.7783c-22.3242 -24.9873 -53.9766 -38.5 -89.7734 -38.5c-2.5957 0 -5.2041 0.0751953 -7.83984 0.217773
c-32.4951 1.75977 -62.3809 13.3701 -91.2812 24.6074l-55.0635 21.4004l-111.188 -194.832c10.2383 0.0341797 20.7412 1.49512 31.666 3.02344c8.14551 1.13477 16.5693 2.31055 25.1904 2.95605c49.9414 3.73633 97.8447 -11.7266 134.763 -43.5488
c40.4775 -34.8789 66.6133 -89.3242 69.915 -145.638c3.13184 -53.3037 -14.0088 -109.876 -47.0195 -155.211z" />
    <glyph glyph-name="six" unicode="6" horiz-adv-x="505" 
d="M103.581 -191.325c-30.6943 23.6152 -50.5996 68.1934 -53.2559 119.235c-2.55469 49.1465 10.4961 96.1191 20.5439 127.174c32.7256 101.166 85.4932 188.201 127.805 252.722c49.3574 75.2617 102.288 146.013 157.305 210.289
c19.7764 23.1055 41.2588 47.1279 67.2109 64.6826c8.17969 5.53711 19.1582 4.40918 26.0469 -2.69043c6.88184 -7.09277 7.68359 -18.0986 1.89551 -26.1152l-8.83203 -12.2285c-3.89941 -5.3877 -9.93945 -8.30859 -16.1152 -8.4375
c-13.9541 -12.582 -26.9307 -27.3174 -39.248 -41.7139c-53.8955 -62.9648 -105.772 -132.315 -154.179 -206.137c-35.1035 -53.5215 -77.5986 -122.94 -108.688 -202.55c36.7617 11.2236 74.6982 11.2578 80.7715 11.1826
c32.8076 -0.394531 62.293 -14.6748 80.9082 -39.1592c10.415 -13.71 18.2822 -31.7207 22.7598 -52.0957c9.11035 -41.4561 3.53223 -87.2051 -15.2998 -125.529c-18.1533 -36.9307 -47.4893 -65.2061 -82.6064 -79.6152
c-15.1777 -6.22949 -30.7148 -9.30664 -45.7432 -9.30664c-22.4668 0 -43.8193 6.86133 -61.2793 20.293zM105.661 29.7012c-11.4814 -38.6094 -16.1416 -70.541 -14.627 -99.666c2.01074 -38.7383 16.3457 -72.8633 37.3994 -89.0596
c17.752 -13.6553 42.0674 -15.6934 66.6953 -5.58398c25.5244 10.4756 47.9375 32.2969 61.498 59.8867c14.6133 29.7432 19.124 66.6738 12.0654 98.8018c-3.21387 14.6406 -8.54004 27.1553 -15.4014 36.1846c-14.9941 19.7363 -37.1016 22.9229 -48.9434 23.0654
c-27.5967 0.34668 -74.8066 -5.78125 -98.6865 -23.6289z" />
    <glyph glyph-name="seven" unicode="7" horiz-adv-x="382" 
d="M60.3398 416.549c-9.79688 5.55078 -13.2334 17.9922 -7.68945 27.7617c36.3877 64.167 92.9189 109.964 155.103 125.664c46.7344 11.7939 74.8877 -2.37109 90.2959 -16.332c22.0459 -19.9805 34.7432 -55.1719 33.9688 -94.1279
c-0.652344 -32.7871 -9.93945 -63.5156 -19.8721 -91.8389c-22.8271 -65.0439 -51.8301 -126.779 -80.5947 -186.564c15.252 0.65918 30.5381 0.679688 45.8242 0c11.2441 -0.496094 19.9541 -10.0205 19.458 -21.2646s-10.123 -19.9678 -21.2646 -19.458
c-21.4756 0.958008 -42.9307 0.455078 -64.3037 -1.44043c-8.24121 -17.1611 -16.4961 -34.458 -24.4717 -51.7344c-38.0586 -82.4092 -78.5977 -181.252 -90.7451 -289.579c-1.16895 -10.415 -9.99414 -18.1123 -20.2324 -18.1123
c-0.760742 0 -1.52832 0.0410156 -2.2959 0.128906c-11.1895 1.25684 -19.2402 11.3389 -17.9834 22.5283c12.793 114.102 54.8262 216.763 94.251 302.127c4.29395 9.29395 8.70312 18.5674 13.0986 27.8408c-20.1914 -3.8457 -40.2471 -8.90723 -60.0918 -15.3066
c-2.07227 -0.672852 -4.18555 -0.992188 -6.25781 -0.992188c-8.60742 0 -16.6035 5.49609 -19.3887 14.1309c-3.45801 10.7139 2.42578 22.1953 13.1396 25.6533c30.9326 9.9873 62.3604 17.0801 94.0264 21.3193c0.618164 1.27734 1.25 2.5957 1.86133 3.86621
c31.041 64.3643 63.1484 130.93 87.5107 200.362c8.80469 25.123 17.0391 52.1016 17.5762 79.1543c0.530273 26.5293 -7.54785 51.2998 -20.585 63.1143c-11.6582 10.5781 -29.4648 12.9424 -52.9375 7.01855c-51.4561 -12.9834 -98.7002 -51.708 -129.619 -106.242
c-5.55078 -9.79688 -17.9971 -13.2275 -27.7803 -7.67676z" />
    <glyph glyph-name="eight" unicode="8" horiz-adv-x="466" 
d="M79.3008 -192.127c-16.8486 19.6475 -27.1328 48.3301 -28.9805 80.7705c-1.37891 24.3086 1.69824 50.2607 9.67383 81.6816c22.2021 87.4434 65.4717 168.33 119.659 224.338c-12.9697 32.8818 -23.9014 71.3213 -24.3838 112.654
c-0.455078 39.5742 8.85938 80.7041 26.9375 118.933c29.6553 62.7139 77.8369 103.878 128.899 110.121c31.4961 3.8457 60.4033 -6.66406 79.2832 -28.8389c16.4072 -19.2676 25.7891 -48.5557 25.7412 -80.3506c-0.0341797 -23.3301 -4.71484 -48.127 -14.7285 -78.04
c-28.5547 -85.2822 -73.2373 -154.763 -144.083 -223.611c13.4385 -26.8154 26.7744 -54.6084 36.7686 -84.6367c19.3555 -58.1816 21.3457 -115.209 5.59082 -160.564c-20.5781 -59.2422 -72.3672 -100.616 -131.942 -105.399
c-3.64844 -0.291992 -7.24902 -0.43457 -10.7949 -0.43457c-31.7207 -0.00683594 -58.998 11.6445 -77.6406 33.3779zM219.064 408.817c-15.4492 -32.6709 -23.4102 -67.6113 -23.0166 -101.044c0.461914 -39.6348 12.5752 -77.3203 25.9385 -108.891
c0.353516 -0.712891 0.65918 -1.43945 0.923828 -2.17285c3.34961 -7.80566 6.75977 -15.2314 10.0684 -22.2021c1.68457 -3.54004 3.40332 -7.09277 5.14258 -10.6455c60.6484 61.1445 99.5088 123.165 124.639 198.209c8.58008 25.6396 12.5957 46.3467 12.623 65.165
c0.0341797 21.9102 -5.95117 42.0469 -16.0127 53.8613c-13.4785 15.8359 -32.916 16.0732 -43.3105 14.8027c-36.5439 -4.46387 -73.7061 -37.835 -96.9951 -87.083zM99.5146 -39.7158c-6.92285 -27.2705 -9.61914 -49.3105 -8.48438 -69.3457
c1.31152 -23.2148 8.32227 -43.8203 19.2197 -56.5312c15.3809 -17.9424 37.9707 -20.1504 54.2285 -18.8457c42.7939 3.4375 81.6543 34.8389 96.6953 78.1426c17.3037 49.8125 3.81836 105.535 -5.76074 134.32c-10.6055 31.877 -25.2529 60.8867 -40.7568 91.6016
c-5.64551 11.1895 -11.4746 22.7324 -17.0527 34.3633c-44.0439 -50.2471 -79.1816 -119.238 -98.0889 -193.705z" />
    <glyph glyph-name="nine" unicode="9" horiz-adv-x="503" 
d="M145.307 -152.465c-31.1973 0 -58.9404 13.6592 -76.1357 39.1221c-16.9297 25.0693 -23.1523 61.9932 -16.6436 98.7812c6.02637 34.0371 21.3262 63.4268 33.9766 85.2344c5.65234 9.73535 18.1191 13.0508 27.8613 7.39844
c9.73535 -5.65234 13.0508 -18.126 7.39844 -27.8613c-10.9648 -18.9004 -24.1787 -44.1465 -29.0908 -71.8857c-4.64062 -26.2168 -0.700195 -52.6035 10.2852 -68.8613c16.7334 -24.7773 47.3193 -24.3965 70.3506 -15.7754
c39.2275 14.6748 76.9199 51.3818 115.244 112.214c59.1396 93.8975 99.3594 205.947 116.296 324.051c7.69043 53.6641 9.39551 100.888 5.13574 143.743c-6.99805 -11.1348 -13.2891 -23.5059 -19.8242 -36.3799l-2.92773 -5.74707
c-55.7158 -109.17 -110.664 -182.557 -172.942 -230.963c-26.0547 -20.2588 -48.7256 -31.9375 -71.3555 -36.7676c-26.0137 -5.55078 -48.6641 0.482422 -63.7939 16.9844c-13.751 15.0078 -20.6396 39.1465 -18.4316 64.5752c1.82031 21 8.91309 39.5947 16.3115 56.5654
c30.5791 70.126 74.0186 130.646 125.631 175.029c39.5879 34.0439 79.0732 53.7119 117.363 58.4473c28.5879 3.5459 52.9102 -4.61328 68.0605 -22.1484c5.7002 7.07227 14.9062 15.4424 27.0947 16.5566c7.74512 0.707031 15.2314 -1.75879 21.1152 -6.92871
c9.49121 -8.34961 11.21 -20.6602 12.0391 -26.5703c7.17383 -51.1572 6.1543 -107.478 -3.12598 -172.182c-17.7451 -123.722 -59.9893 -241.295 -122.159 -339.988c-43.2559 -68.6582 -87.5586 -110.746 -135.448 -128.661
c-14.3623 -5.37402 -28.6562 -7.98242 -42.2842 -7.98242zM353.805 455.774c3.40332 6.69824 6.84668 13.4736 10.4678 20.1924c-1.44727 1.53516 -2.67676 3.3291 -3.62109 5.33984c-5.41504 11.5635 -17.6914 14.1924 -27.7393 14.1924
c-2.8877 0 -5.5918 -0.217773 -7.89453 -0.50293c-30.1709 -3.73633 -62.3936 -20.1846 -95.7852 -48.9023c-46.9922 -40.4092 -86.7021 -95.8809 -114.842 -160.415c-6.0127 -13.7842 -11.7598 -28.6357 -13.0713 -43.793
c-1.18164 -13.6152 1.98438 -27.0869 7.875 -33.5137c6.35938 -6.94336 17.2295 -6.36621 25.2324 -4.66113c16.3867 3.49902 33.8193 12.7451 54.8389 29.084c57.3867 44.6084 108.748 113.66 161.651 217.307z" />
    <glyph glyph-name="colon" unicode=":" horiz-adv-x="260" 
d="M200.956 406.932c9.3418 -6.27734 11.8271 -18.9414 5.54297 -28.2832l-37.6035 -55.9473c-3.93359 -5.85645 -10.374 -9.01562 -16.9365 -9.01562c-3.90625 0 -7.86035 1.12109 -11.3525 3.46484c-9.3418 6.28418 -11.8213 18.9482 -5.54395 28.29l37.6035 55.9473
c6.27734 9.33496 18.9414 11.8281 28.29 5.54395zM123.846 50.3662c9.50488 -6.02637 12.332 -18.6162 6.3125 -28.1279c-13.5264 -21.3525 -28.3711 -41.7471 -44.126 -60.6064c-4.03516 -4.83008 -9.83008 -7.31641 -15.6592 -7.31641
c-4.60645 0 -9.24023 1.55566 -13.0518 4.74219c-8.64844 7.21484 -9.79688 20.0752 -2.58203 28.71c14.6133 17.4941 28.3975 36.4355 40.9795 56.2871c6.02637 9.50488 18.6152 12.3379 28.127 6.31152z" />
    <glyph glyph-name="semicolon" unicode=";" horiz-adv-x="376" 
d="M314.7 420.934c10.0068 -5.16309 13.9346 -17.4531 8.77832 -27.46c-10.666 -20.6602 -20.707 -42.1152 -29.8584 -63.7666c-3.29492 -7.7793 -10.8428 -12.4531 -18.7852 -12.4531c-2.64941 0 -5.33984 0.523438 -7.92871 1.61719
c-10.374 4.38184 -15.2246 16.3389 -10.8428 26.7061c9.55859 22.6025 20.0479 45.0088 31.1826 66.5859c5.15625 10.0068 17.46 13.9336 27.4541 8.77051zM211.144 44.5508c9.95312 -5.26562 13.7441 -17.6016 8.47852 -27.5479
c-36.9307 -69.793 -82.334 -131.406 -134.938 -183.127c-3.96777 -3.89941 -9.13086 -5.84961 -14.2939 -5.84961c-5.27832 0 -10.5439 2.03125 -14.5391 6.09375c-7.8877 8.03027 -7.78613 20.9316 0.244141 28.8262c49.6221 48.7793 92.5244 107.029 127.499 173.119
c5.26562 9.94629 17.5967 13.7578 27.5498 8.48535z" />
    <glyph glyph-name="less" unicode="&#x3c;" horiz-adv-x="409" 
d="M350.42 421.049c9.17188 -6.5293 11.3057 -19.2568 4.7832 -28.4287c-68.8691 -96.6826 -162.678 -155.564 -249.333 -205.676c39.5742 -27.6504 88.2861 -35.7012 146.006 -42.7666c11.1689 -1.36523 19.1182 -11.5283 17.7529 -22.7041
c-1.26367 -10.333 -10.0547 -17.9082 -20.2051 -17.9082c-0.829102 0 -1.6582 0.0478516 -2.50098 0.149414c-59.9893 7.34375 -134.646 16.4814 -190.838 71.8174c-4.54492 4.47754 -6.73242 10.8164 -5.91699 17.1416c0.822266 6.3252 4.55176 11.8965 10.082 15.0693
c89.6572 51.3818 191.279 109.611 261.744 208.529c6.5293 9.16504 19.2539 11.3115 28.4258 4.77637z" />
    <glyph glyph-name="equal" unicode="=" horiz-adv-x="578" 
d="M109.463 285.622c-9.62695 0 -18.1885 6.84961 -20.0156 16.6465c-2.06543 11.0605 5.23145 21.7061 16.2988 23.7715c125.44 23.3975 253.238 30.3203 379.8 20.585c11.2236 -0.863281 19.6211 -10.6602 18.7578 -21.8838s-10.7344 -19.6211 -21.8828 -18.7578
c-123.042 9.46387 -247.253 2.73145 -369.201 -20.0146c-1.25684 -0.231445 -2.51367 -0.34668 -3.75684 -0.34668zM510.819 201.896c11.1553 -1.50098 18.9805 -11.7734 17.4795 -22.9287s-11.7666 -18.9746 -22.9219 -17.4736
c-143.499 19.3418 -288.444 14.0225 -430.809 -15.8223c-1.41309 -0.291992 -2.81934 -0.43457 -4.20508 -0.43457c-9.44336 0 -17.915 6.59668 -19.9258 16.2031c-2.30957 11.0195 4.74219 21.8213 15.7617 24.1309c146.93 30.7959 296.516 36.292 444.62 16.3252z" />
    <glyph glyph-name="greater" unicode="&#x3e;" horiz-adv-x="429" 
d="M359.67 223.928c19.6953 -14.1855 20.4834 -30.3379 19.1992 -38.7148c-1.91602 -12.4531 -10.082 -20.0215 -13.5742 -23.2549c-18.8662 -17.5078 -39.6484 -30.0898 -59.3232 -41.4766c-73.7402 -42.6855 -150.605 -79.0391 -228.469 -108.042
c-2.34375 -0.869141 -4.74219 -1.2832 -7.11328 -1.2832c-8.26758 0 -16.0469 5.06836 -19.1045 13.2754c-3.92676 10.5508 1.44043 22.2832 11.9912 26.2168c75.7236 28.208 150.51 63.5762 222.272 105.12c17.1611 9.93262 35.1719 20.7891 50.6484 34.8184
c-0.115234 0.0878906 -0.230469 0.175781 -0.359375 0.263672c-19.1514 13.8047 -40.4775 23.8047 -63.0537 34.3965c-40.7422 19.1113 -82.8701 38.874 -112.824 82.4082c-6.38574 9.27344 -4.03516 21.9639 5.23828 28.3428
c9.28027 6.37891 21.957 4.03516 28.3428 -5.23828c23.6836 -34.4307 59.0791 -51.0352 96.5605 -68.6104c23.2686 -10.9111 47.3389 -22.2021 69.5684 -38.2217z" />
    <glyph glyph-name="question" unicode="?" horiz-adv-x="532" 
d="M469.646 701.823c12.3037 -25.6396 15.1436 -59.0322 8.41113 -99.252c-11.3457 -67.9375 -41.6055 -127.159 -66.6885 -171.169c-31.3398 -54.9688 -66.9395 -107.206 -101.363 -157.718c-60.6348 -88.9785 -123.335 -180.987 -161.876 -287.881
c-2.98926 -8.30176 -10.8223 -13.4717 -19.1719 -13.4717c-2.2959 0 -4.63281 0.394531 -6.91602 1.2168c-10.5918 3.81836 -16.0811 15.4902 -12.2627 26.082c40.2939 111.751 104.475 205.934 166.543 297.011c33.9688 49.8525 69.0996 101.397 99.6309 154.953
c23.418 41.0615 51.6055 96.1045 61.8984 157.69c5.3125 31.7744 3.6416 56.9727 -4.96582 74.9014c-8.05762 16.8076 -23.459 28.3438 -41.1904 30.8643c-15.7822 2.23535 -33.6094 -1.80664 -54.5615 -12.3643c-36.5781 -18.4248 -68.7803 -49.085 -93.1426 -88.6729
c-11.9365 -19.3965 -18.9473 -36.2656 -22.0654 -53.1074c-3.56641 -19.2812 -1.31738 -38.6162 6.0127 -51.708c5.49609 -9.82422 1.99023 -22.2432 -7.83398 -27.7393c-9.79688 -5.49609 -22.2363 -1.99707 -27.7393 7.82715
c-12.0049 21.4482 -15.8438 50.2607 -10.5244 79.0322c4.00879 21.6455 12.9834 43.5762 27.4404 67.0625c28.3164 46.0215 66.1846 81.8857 109.516 103.714c28.6494 14.4297 54.3916 19.7627 78.6318 16.3184c31.2578 -4.43652 58.25 -24.4717 72.2178 -53.5898z
M107.265 -97.1211c11.251 -0.108398 20.293 -9.31543 20.1846 -20.5791c-0.0683594 -7.21484 -3.87305 -13.5264 -9.56641 -17.0928c-10.1299 -22.7256 -19.668 -46.293 -28.3506 -70.0986c-3.0166 -8.26758 -10.8291 -13.3965 -19.1445 -13.3965
c-2.31641 0 -4.68066 0.400391 -6.9834 1.24316c-10.5781 3.8584 -16.0195 15.5576 -12.1611 26.1357c9.17188 25.1299 19.2539 50.0156 29.9678 73.9639c7.27637 16.3389 18.0039 19.8242 25.8096 19.8242h0.244141z" />
    <glyph glyph-name="at" unicode="@" horiz-adv-x="851" 
d="M753.395 664.029c34.3359 -53.2158 51.0537 -129.312 47.0791 -214.261c-5.76758 -123.029 -50.8379 -251.636 -133.953 -382.26c-32.875 -51.6533 -78.4883 -115.42 -139.959 -150.312c-44.71 -25.375 -72.6465 -12.1201 -85.3174 -1.95703
c-18.8594 15.123 -29.5527 42.3252 -31.7949 80.8525c-4.38184 75.418 16.4551 146.638 36.6123 215.507c5.56445 19.0225 11.2236 38.3643 16.3525 57.8418c-19.7295 -21.4004 -37.9502 -46.5439 -56.7822 -72.5371c-31.6387 -43.6641 -64.3506 -88.8086 -107.362 -118.28
c-26.8359 -18.377 -44.0312 -6.9834 -50.1729 -1.22949c-11.7266 10.9854 -14.9473 28.7031 -9.58691 52.6787c22.4062 100.283 71.5322 189.928 138.322 252.403c11.9023 11.1348 48.1338 45.0156 89.1006 35.4092c18.6084 -4.36816 35.6611 -20.2861 44.4932 -41.5371
c6.22266 -14.9805 7.62891 -30.2871 4.2998 -44.0039c1.31836 -3.38965 1.72559 -7.14648 1.07324 -10.8828c-7.25586 -41.4834 -19.1318 -82.0625 -30.6201 -121.311c-20.0625 -68.5566 -39.0107 -133.315 -35.0361 -201.695
c1.47461 -25.3955 7.52832 -44.1396 16.5977 -51.4092c10.2246 -8.19336 27.2295 -1.48145 39.6963 5.59766c53.6504 30.4502 95.3506 89.0742 125.685 136.746c79.2568 124.551 122.2 246.445 127.635 362.286c3.58691 76.5459 -10.8359 144.11 -40.6064 190.254
c-33.5752 52.0469 -90.2832 81.7695 -151.733 79.5273c-52.1494 -1.90918 -107.05 -24.5459 -167.834 -69.2217c-134.368 -98.748 -238.653 -262.75 -286.108 -449.96c-20.7959 -82.0352 -27.2227 -153.784 -19.6338 -219.324
c8.89941 -76.9062 38.5273 -143.248 81.2803 -182.027c38.7246 -35.1104 92.0762 -50.6338 150.218 -43.7109c55.2607 6.58301 109.727 31.625 160.354 57.6992c10.0068 5.14941 22.2969 1.22266 27.4531 -8.78418s1.22266 -22.2969 -8.78418 -27.4531
c-54.0244 -27.8271 -112.519 -54.5947 -174.192 -61.9385c-10.7207 -1.27734 -21.3262 -1.90918 -31.7617 -1.90918c-57.7197 -0.00683594 -110.352 19.3486 -150.666 55.8994c-49.9688 45.3213 -84.3789 120.964 -94.3926 207.537
c-8.16602 70.5469 -1.42676 147.1 20.6055 234.026c49.7373 196.212 159.627 368.536 301.481 472.794c67.585 49.6689 129.891 74.8945 190.478 77.1094c75.9072 2.77832 146.026 -33.915 187.482 -98.1641zM372.614 220.817
c29.4238 40.6064 59.7441 82.4561 98.3877 111.724c0.496094 1.54883 1.18945 3.07031 2.0791 4.51758c3.5127 5.67969 3.39062 14.7422 -0.311523 23.6484c-4.1377 9.9668 -11.2578 16.3398 -16.1562 17.4883c-1.80078 0.420898 -3.66895 0.631836 -5.6123 0.631836
c-12.3711 0 -27.6025 -8.60059 -46.333 -26.1221c-60.8584 -56.9385 -105.745 -139.164 -126.385 -231.532c-0.693359 -3.09766 -1.10059 -5.64551 -1.3252 -7.71777c36.3604 25.5312 65.1797 65.3018 95.6562 107.362z" />
    <glyph glyph-name="A" unicode="A" horiz-adv-x="1047" 
d="M-40.335 330.55c11.8623 17.0117 29.7285 20.3076 425.896 1.43457c70.1191 -3.33594 149.158 -7.09961 223.924 -10.041c139.035 291.787 233.843 459.41 307.032 431.399c56.124 -21.4619 23.3848 -137.086 -78.0869 -436.237
c28.9688 0.570312 49.6289 2.0918 58.3115 4.91797c5.94434 5.45508 14.8311 7.06543 22.5625 3.38281c10.1631 -4.84375 14.4707 -17.0049 9.62695 -27.168c-6.41992 -13.4785 -23.3633 -20.999 -104.353 -21.9775c-44.3359 -130.767 -88.2852 -263.09 -110.229 -366.029
c-6.07324 -28.4727 -12.2217 -61.4092 -8.3291 -92.002c2.94141 -23.126 11.8408 -39.0098 18.75 -41.0068c54.1807 -15.6465 153.506 173.88 219.209 299.32c35.5518 67.877 69.1406 131.997 99.4951 177.679c6.22949 9.36816 18.8867 11.9229 28.2549 5.69336
c9.375 -6.22949 11.9229 -18.8799 5.69336 -28.2549c-29.1797 -43.915 -62.2861 -107.118 -97.335 -174.03c-86.5801 -165.3 -168.677 -322.046 -249.306 -322.046c-5.78809 0 -11.5625 0.808594 -17.3369 2.47949c-24.9131 7.20117 -42.8008 35.2461 -47.8623 75.0166
c-4.69434 36.9307 2.13379 73.8955 8.90039 105.643c21.6787 101.696 63.875 229.949 107.07 357.557c-38.0312 0.400391 -86.0771 1.72559 -146.848 3.99512c-17.7861 -37.6445 -35.5723 -75.7305 -53.1885 -113.477
c-57.3809 -122.927 -111.582 -239.039 -153.112 -310.938c-19.8789 -34.4102 -42.1562 -69.3984 -76.4512 -86.0293c-10.1094 -4.91211 -22.3105 -0.686523 -27.2295 9.44336c-4.91211 10.123 -0.686523 22.3184 9.44336 27.2305
c23.9141 11.5967 42.9639 42.0801 58.9434 69.7441c40.6406 70.3564 94.4746 185.688 151.468 307.792c15.8291 33.915 31.1289 66.5664 45.96 97.9609c-58.209 2.35742 -126.575 5.44141 -206.912 9.2666c-171.815 8.17969 -366.159 17.4463 -396.208 10.4824
c-6.73926 -4.34082 -15.707 -4.44922 -22.6914 0.421875c-9.23242 6.44043 -11.502 19.1445 -5.06152 28.377zM774.47 557.497c-38.623 -68.4199 -79.5566 -150.838 -120.788 -237.207c52.5498 -1.85449 101.397 -3.14551 141.63 -3.39648
c0.537109 1.5625 1.06738 3.13184 1.59766 4.69434c33.541 98.7549 65.2139 192.034 85.2285 265.563c27.0869 99.5225 21.292 123.287 18.6699 128.39c-6.78711 0.964844 -39.8389 -4.82324 -126.338 -158.044z" />
    <glyph glyph-name="A" unicode="&#xc5;" horiz-adv-x="1047" 
d="M-40.335 330.55c11.8623 17.0117 29.7285 20.3076 425.896 1.43457c70.1191 -3.33594 149.158 -7.09961 223.924 -10.041c139.035 291.787 233.843 459.41 307.032 431.399c56.124 -21.4619 23.3848 -137.086 -78.0869 -436.237
c28.9688 0.570312 49.6289 2.0918 58.3115 4.91797c5.94434 5.45508 14.8311 7.06543 22.5625 3.38281c10.1631 -4.84375 14.4707 -17.0049 9.62695 -27.168c-6.41992 -13.4785 -23.3633 -20.999 -104.353 -21.9775c-44.3359 -130.767 -88.2852 -263.09 -110.229 -366.029
c-6.07324 -28.4727 -12.2217 -61.4092 -8.3291 -92.002c2.94141 -23.126 11.8408 -39.0098 18.75 -41.0068c54.1807 -15.6465 153.506 173.88 219.209 299.32c35.5518 67.877 69.1406 131.997 99.4951 177.679c6.22949 9.36816 18.8867 11.9229 28.2549 5.69336
c9.375 -6.22949 11.9229 -18.8799 5.69336 -28.2549c-29.1797 -43.915 -62.2861 -107.118 -97.335 -174.03c-86.5801 -165.3 -168.677 -322.046 -249.306 -322.046c-5.78809 0 -11.5625 0.808594 -17.3369 2.47949c-24.9131 7.20117 -42.8008 35.2461 -47.8623 75.0166
c-4.69434 36.9307 2.13379 73.8955 8.90039 105.643c21.6787 101.696 63.875 229.949 107.07 357.557c-38.0312 0.400391 -86.0771 1.72559 -146.848 3.99512c-17.7861 -37.6445 -35.5723 -75.7305 -53.1885 -113.477
c-57.3809 -122.927 -111.582 -239.039 -153.112 -310.938c-19.8789 -34.4102 -42.1562 -69.3984 -76.4512 -86.0293c-10.1094 -4.91211 -22.3105 -0.686523 -27.2295 9.44336c-4.91211 10.123 -0.686523 22.3184 9.44336 27.2305
c23.9141 11.5967 42.9639 42.0801 58.9434 69.7441c40.6406 70.3564 94.4746 185.688 151.468 307.792c15.8291 33.915 31.1289 66.5664 45.96 97.9609c-58.209 2.35742 -126.575 5.44141 -206.912 9.2666c-171.815 8.17969 -366.159 17.4463 -396.208 10.4824
c-6.73926 -4.34082 -15.707 -4.44922 -22.6914 0.421875c-9.23242 6.44043 -11.502 19.1445 -5.06152 28.377zM774.47 557.497c-38.623 -68.4199 -79.5566 -150.838 -120.788 -237.207c52.5498 -1.85449 101.397 -3.14551 141.63 -3.39648
c0.537109 1.5625 1.06738 3.13184 1.59766 4.69434c33.541 98.7549 65.2139 192.034 85.2285 265.563c27.0869 99.5225 21.292 123.287 18.6699 128.39c-6.78711 0.964844 -39.8389 -4.82324 -126.338 -158.044z" />
    <glyph glyph-name="A" unicode="&#xc4;" horiz-adv-x="1047" 
d="M-40.335 330.55c11.8623 17.0117 29.7285 20.3076 425.896 1.43457c70.1191 -3.33594 149.158 -7.09961 223.924 -10.041c139.035 291.787 233.843 459.41 307.032 431.399c56.124 -21.4619 23.3848 -137.086 -78.0869 -436.237
c28.9688 0.570312 49.6289 2.0918 58.3115 4.91797c5.94434 5.45508 14.8311 7.06543 22.5625 3.38281c10.1631 -4.84375 14.4707 -17.0049 9.62695 -27.168c-6.41992 -13.4785 -23.3633 -20.999 -104.353 -21.9775c-44.3359 -130.767 -88.2852 -263.09 -110.229 -366.029
c-6.07324 -28.4727 -12.2217 -61.4092 -8.3291 -92.002c2.94141 -23.126 11.8408 -39.0098 18.75 -41.0068c54.1807 -15.6465 153.506 173.88 219.209 299.32c35.5518 67.877 69.1406 131.997 99.4951 177.679c6.22949 9.36816 18.8867 11.9229 28.2549 5.69336
c9.375 -6.22949 11.9229 -18.8799 5.69336 -28.2549c-29.1797 -43.915 -62.2861 -107.118 -97.335 -174.03c-86.5801 -165.3 -168.677 -322.046 -249.306 -322.046c-5.78809 0 -11.5625 0.808594 -17.3369 2.47949c-24.9131 7.20117 -42.8008 35.2461 -47.8623 75.0166
c-4.69434 36.9307 2.13379 73.8955 8.90039 105.643c21.6787 101.696 63.875 229.949 107.07 357.557c-38.0312 0.400391 -86.0771 1.72559 -146.848 3.99512c-17.7861 -37.6445 -35.5723 -75.7305 -53.1885 -113.477
c-57.3809 -122.927 -111.582 -239.039 -153.112 -310.938c-19.8789 -34.4102 -42.1562 -69.3984 -76.4512 -86.0293c-10.1094 -4.91211 -22.3105 -0.686523 -27.2295 9.44336c-4.91211 10.123 -0.686523 22.3184 9.44336 27.2305
c23.9141 11.5967 42.9639 42.0801 58.9434 69.7441c40.6406 70.3564 94.4746 185.688 151.468 307.792c15.8291 33.915 31.1289 66.5664 45.96 97.9609c-58.209 2.35742 -126.575 5.44141 -206.912 9.2666c-171.815 8.17969 -366.159 17.4463 -396.208 10.4824
c-6.73926 -4.34082 -15.707 -4.44922 -22.6914 0.421875c-9.23242 6.44043 -11.502 19.1445 -5.06152 28.377zM774.47 557.497c-38.623 -68.4199 -79.5566 -150.838 -120.788 -237.207c52.5498 -1.85449 101.397 -3.14551 141.63 -3.39648
c0.537109 1.5625 1.06738 3.13184 1.59766 4.69434c33.541 98.7549 65.2139 192.034 85.2285 265.563c27.0869 99.5225 21.292 123.287 18.6699 128.39c-6.78711 0.964844 -39.8389 -4.82324 -126.338 -158.044z" />
    <glyph glyph-name="A" unicode="&#xc3;" horiz-adv-x="1047" 
d="M-40.335 330.55c11.8623 17.0117 29.7285 20.3076 425.896 1.43457c70.1191 -3.33594 149.158 -7.09961 223.924 -10.041c139.035 291.787 233.843 459.41 307.032 431.399c56.124 -21.4619 23.3848 -137.086 -78.0869 -436.237
c28.9688 0.570312 49.6289 2.0918 58.3115 4.91797c5.94434 5.45508 14.8311 7.06543 22.5625 3.38281c10.1631 -4.84375 14.4707 -17.0049 9.62695 -27.168c-6.41992 -13.4785 -23.3633 -20.999 -104.353 -21.9775c-44.3359 -130.767 -88.2852 -263.09 -110.229 -366.029
c-6.07324 -28.4727 -12.2217 -61.4092 -8.3291 -92.002c2.94141 -23.126 11.8408 -39.0098 18.75 -41.0068c54.1807 -15.6465 153.506 173.88 219.209 299.32c35.5518 67.877 69.1406 131.997 99.4951 177.679c6.22949 9.36816 18.8867 11.9229 28.2549 5.69336
c9.375 -6.22949 11.9229 -18.8799 5.69336 -28.2549c-29.1797 -43.915 -62.2861 -107.118 -97.335 -174.03c-86.5801 -165.3 -168.677 -322.046 -249.306 -322.046c-5.78809 0 -11.5625 0.808594 -17.3369 2.47949c-24.9131 7.20117 -42.8008 35.2461 -47.8623 75.0166
c-4.69434 36.9307 2.13379 73.8955 8.90039 105.643c21.6787 101.696 63.875 229.949 107.07 357.557c-38.0312 0.400391 -86.0771 1.72559 -146.848 3.99512c-17.7861 -37.6445 -35.5723 -75.7305 -53.1885 -113.477
c-57.3809 -122.927 -111.582 -239.039 -153.112 -310.938c-19.8789 -34.4102 -42.1562 -69.3984 -76.4512 -86.0293c-10.1094 -4.91211 -22.3105 -0.686523 -27.2295 9.44336c-4.91211 10.123 -0.686523 22.3184 9.44336 27.2305
c23.9141 11.5967 42.9639 42.0801 58.9434 69.7441c40.6406 70.3564 94.4746 185.688 151.468 307.792c15.8291 33.915 31.1289 66.5664 45.96 97.9609c-58.209 2.35742 -126.575 5.44141 -206.912 9.2666c-171.815 8.17969 -366.159 17.4463 -396.208 10.4824
c-6.73926 -4.34082 -15.707 -4.44922 -22.6914 0.421875c-9.23242 6.44043 -11.502 19.1445 -5.06152 28.377zM774.47 557.497c-38.623 -68.4199 -79.5566 -150.838 -120.788 -237.207c52.5498 -1.85449 101.397 -3.14551 141.63 -3.39648
c0.537109 1.5625 1.06738 3.13184 1.59766 4.69434c33.541 98.7549 65.2139 192.034 85.2285 265.563c27.0869 99.5225 21.292 123.287 18.6699 128.39c-6.78711 0.964844 -39.8389 -4.82324 -126.338 -158.044z" />
    <glyph glyph-name="A" unicode="&#xc2;" horiz-adv-x="1047" 
d="M-40.335 330.55c11.8623 17.0117 29.7285 20.3076 425.896 1.43457c70.1191 -3.33594 149.158 -7.09961 223.924 -10.041c139.035 291.787 233.843 459.41 307.032 431.399c56.124 -21.4619 23.3848 -137.086 -78.0869 -436.237
c28.9688 0.570312 49.6289 2.0918 58.3115 4.91797c5.94434 5.45508 14.8311 7.06543 22.5625 3.38281c10.1631 -4.84375 14.4707 -17.0049 9.62695 -27.168c-6.41992 -13.4785 -23.3633 -20.999 -104.353 -21.9775c-44.3359 -130.767 -88.2852 -263.09 -110.229 -366.029
c-6.07324 -28.4727 -12.2217 -61.4092 -8.3291 -92.002c2.94141 -23.126 11.8408 -39.0098 18.75 -41.0068c54.1807 -15.6465 153.506 173.88 219.209 299.32c35.5518 67.877 69.1406 131.997 99.4951 177.679c6.22949 9.36816 18.8867 11.9229 28.2549 5.69336
c9.375 -6.22949 11.9229 -18.8799 5.69336 -28.2549c-29.1797 -43.915 -62.2861 -107.118 -97.335 -174.03c-86.5801 -165.3 -168.677 -322.046 -249.306 -322.046c-5.78809 0 -11.5625 0.808594 -17.3369 2.47949c-24.9131 7.20117 -42.8008 35.2461 -47.8623 75.0166
c-4.69434 36.9307 2.13379 73.8955 8.90039 105.643c21.6787 101.696 63.875 229.949 107.07 357.557c-38.0312 0.400391 -86.0771 1.72559 -146.848 3.99512c-17.7861 -37.6445 -35.5723 -75.7305 -53.1885 -113.477
c-57.3809 -122.927 -111.582 -239.039 -153.112 -310.938c-19.8789 -34.4102 -42.1562 -69.3984 -76.4512 -86.0293c-10.1094 -4.91211 -22.3105 -0.686523 -27.2295 9.44336c-4.91211 10.123 -0.686523 22.3184 9.44336 27.2305
c23.9141 11.5967 42.9639 42.0801 58.9434 69.7441c40.6406 70.3564 94.4746 185.688 151.468 307.792c15.8291 33.915 31.1289 66.5664 45.96 97.9609c-58.209 2.35742 -126.575 5.44141 -206.912 9.2666c-171.815 8.17969 -366.159 17.4463 -396.208 10.4824
c-6.73926 -4.34082 -15.707 -4.44922 -22.6914 0.421875c-9.23242 6.44043 -11.502 19.1445 -5.06152 28.377zM774.47 557.497c-38.623 -68.4199 -79.5566 -150.838 -120.788 -237.207c52.5498 -1.85449 101.397 -3.14551 141.63 -3.39648
c0.537109 1.5625 1.06738 3.13184 1.59766 4.69434c33.541 98.7549 65.2139 192.034 85.2285 265.563c27.0869 99.5225 21.292 123.287 18.6699 128.39c-6.78711 0.964844 -39.8389 -4.82324 -126.338 -158.044z" />
    <glyph glyph-name="A" unicode="&#xc1;" horiz-adv-x="1047" 
d="M-40.335 330.55c11.8623 17.0117 29.7285 20.3076 425.896 1.43457c70.1191 -3.33594 149.158 -7.09961 223.924 -10.041c139.035 291.787 233.843 459.41 307.032 431.399c56.124 -21.4619 23.3848 -137.086 -78.0869 -436.237
c28.9688 0.570312 49.6289 2.0918 58.3115 4.91797c5.94434 5.45508 14.8311 7.06543 22.5625 3.38281c10.1631 -4.84375 14.4707 -17.0049 9.62695 -27.168c-6.41992 -13.4785 -23.3633 -20.999 -104.353 -21.9775c-44.3359 -130.767 -88.2852 -263.09 -110.229 -366.029
c-6.07324 -28.4727 -12.2217 -61.4092 -8.3291 -92.002c2.94141 -23.126 11.8408 -39.0098 18.75 -41.0068c54.1807 -15.6465 153.506 173.88 219.209 299.32c35.5518 67.877 69.1406 131.997 99.4951 177.679c6.22949 9.36816 18.8867 11.9229 28.2549 5.69336
c9.375 -6.22949 11.9229 -18.8799 5.69336 -28.2549c-29.1797 -43.915 -62.2861 -107.118 -97.335 -174.03c-86.5801 -165.3 -168.677 -322.046 -249.306 -322.046c-5.78809 0 -11.5625 0.808594 -17.3369 2.47949c-24.9131 7.20117 -42.8008 35.2461 -47.8623 75.0166
c-4.69434 36.9307 2.13379 73.8955 8.90039 105.643c21.6787 101.696 63.875 229.949 107.07 357.557c-38.0312 0.400391 -86.0771 1.72559 -146.848 3.99512c-17.7861 -37.6445 -35.5723 -75.7305 -53.1885 -113.477
c-57.3809 -122.927 -111.582 -239.039 -153.112 -310.938c-19.8789 -34.4102 -42.1562 -69.3984 -76.4512 -86.0293c-10.1094 -4.91211 -22.3105 -0.686523 -27.2295 9.44336c-4.91211 10.123 -0.686523 22.3184 9.44336 27.2305
c23.9141 11.5967 42.9639 42.0801 58.9434 69.7441c40.6406 70.3564 94.4746 185.688 151.468 307.792c15.8291 33.915 31.1289 66.5664 45.96 97.9609c-58.209 2.35742 -126.575 5.44141 -206.912 9.2666c-171.815 8.17969 -366.159 17.4463 -396.208 10.4824
c-6.73926 -4.34082 -15.707 -4.44922 -22.6914 0.421875c-9.23242 6.44043 -11.502 19.1445 -5.06152 28.377zM774.47 557.497c-38.623 -68.4199 -79.5566 -150.838 -120.788 -237.207c52.5498 -1.85449 101.397 -3.14551 141.63 -3.39648
c0.537109 1.5625 1.06738 3.13184 1.59766 4.69434c33.541 98.7549 65.2139 192.034 85.2285 265.563c27.0869 99.5225 21.292 123.287 18.6699 128.39c-6.78711 0.964844 -39.8389 -4.82324 -126.338 -158.044z" />
    <glyph glyph-name="B" unicode="B" horiz-adv-x="727" 
d="M716.947 246.856c8.77051 7.05859 21.5977 5.67871 28.6768 -3.09863c7.05859 -8.76367 5.67969 -21.5908 -3.08398 -28.6562c-51.5381 -41.5166 -121.446 -74.2969 -191.688 -97.416c-8.56055 -35.5176 -20.7822 -70.7295 -36.5303 -104.787
c-43.2627 -93.5508 -109.971 -171.156 -187.827 -218.509c-59.9619 -36.4688 -127.146 -55.4307 -194.099 -55.4307c-20.9316 0 -41.8223 1.84766 -62.4893 5.59766c-40.9463 7.43262 -71.5996 20.8779 -96.4717 42.3193c-32.1006 27.6641 -52.0469 69.127 -53.3652 110.909
c-1.29102 40.8984 15.4961 83.9033 44.8994 115.046c28.1533 29.8252 62.8564 45.3086 89.9365 55.4648c11.6309 4.36133 23.3438 8.26758 35.1104 11.7803c27.4736 165.551 81.8652 489.866 101.765 584.396c2.32324 11.0195 13.1113 18.085 24.1445 15.748
c11.0127 -2.32324 18.0576 -13.1318 15.7412 -24.1445c-16.1689 -76.7969 -55.4375 -307.398 -84.2021 -479.221c53.2021 159.804 128.579 376.987 208.073 473.819c26.3535 32.1006 55.4102 64.0244 95.2559 71.1104c34.4102 6.12793 67.5771 -10.1572 82.4424 -40.5186
c21.5088 -43.9355 0.0810547 -97.9326 -27.1416 -133.817c-18.7578 -24.7227 -40.124 -46.4014 -63.3457 -64.4189c26.9922 -8.86621 51.9863 -26.6318 71.2129 -51.9248c22.915 -30.1377 38.5 -70.8594 46.3262 -121.024
c7.31738 -46.9521 7.08008 -96.3838 -0.373047 -145.958c59.2217 21.3799 115.773 49.4922 157.032 82.7344zM477.31 30.0176c11.1758 24.166 20.4326 48.9346 27.7227 73.9287c-44.2275 -11.9912 -87.0078 -19.9941 -123.701 -23.7783
c-21.4756 -2.21484 -43.3037 -4.08301 -64.4189 -5.89062c-55.6006 -4.7627 -112.485 -9.63379 -167.848 -21.3193c-29.6621 -86.6143 -37.6445 -97.3896 -57.3877 -95.3447c-5.58496 0.577148 -10.6875 3.43066 -14.0977 7.89453s-4.83008 10.1367 -3.91992 15.6807
c0.169922 1.03223 3.45117 21.04 8.85254 53.7051c-4.4502 -1.52148 -8.89355 -3.11133 -13.3096 -4.76855c-22.9561 -8.61426 -52.1963 -21.543 -74.6025 -45.2803c-22.1143 -23.418 -34.751 -55.4912 -33.7998 -85.7783
c0.944336 -30.1172 15.9854 -61.2734 39.2334 -81.3154c19.1309 -16.4951 43.6426 -27.0049 77.1357 -33.0781c76.9258 -13.9541 157.948 1.86816 228.128 44.5537c71.0225 43.1953 132.112 114.51 172.013 200.791zM516.1 149.641
c10.1436 52.3398 11.6133 104.796 3.92285 154.146c-6.67188 42.8008 -19.9873 78.292 -38.5 102.641c-26.1904 34.458 -66.3486 49.6895 -102.274 38.8125c-10.2998 -3.11816 -21.2441 2.31055 -25.001 12.3857c-3.76367 10.082 0.958008 21.3457 10.7754 25.7344
c40.8779 18.2754 78.4336 48.9492 108.598 88.7197c18.9746 25.0215 36.3867 63.9297 23.0029 91.2607c-6.90234 14.0967 -20.1572 18.9199 -31.666 18.9199c-2.45215 0 -4.82324 -0.217773 -7.03809 -0.611328c-26.1631 -4.64648 -49.3643 -30.626 -70.8799 -56.8369
c-80.8398 -98.4629 -160.266 -338.128 -212.822 -496.723c-3.60742 -10.8838 -6.99121 -21.0879 -10.1777 -30.6533c49.8936 8.94727 100.127 13.248 149.396 17.4668c20.9385 1.79395 42.5898 3.64844 63.7188 5.82227c41.415 4.2666 90.0381 14.1992 138.946 28.915z" />
    <glyph glyph-name="C" unicode="C" horiz-adv-x="494" 
d="M-36.2832 -68.9189c-11.7324 271.317 121.43 720.161 329.436 784.233c45.2197 13.9209 102.729 1.08105 129.279 -59.0029c16.9033 -38.2422 15.6191 -83.4346 11.5635 -114.611c-1.4541 -11.1621 -11.6855 -19.0361 -22.8408 -17.582
c-11.1621 1.4541 -19.0293 11.6787 -17.582 22.8408c4.7832 36.7812 1.78711 69.7656 -8.42383 92.8779c-17.542 39.6963 -52.8223 44.8867 -79.9902 36.5234c-81.1992 -25.0078 -162.045 -131.508 -221.81 -292.188c-54.3916 -146.223 -84.624 -319.159 -78.9102 -451.326
c4.66699 -107.797 32.875 -175.13 77.3877 -184.723c66.5176 -14.3691 205.438 156.162 401.643 493.121c5.65918 9.72852 18.1328 13.0234 27.8682 7.35742c9.72852 -5.66602 13.0234 -18.1396 7.35742 -27.8682c-253.164 -434.789 -361.45 -514.405 -427.554 -514.405
c-6.3252 0 -12.2627 0.726562 -17.9082 1.94238c-65.9541 14.2197 -103.829 91.2617 -109.516 222.81z" />
    <glyph glyph-name="D" unicode="D" horiz-adv-x="813" 
d="M257.353 693.638c11.0059 -2.34375 18.0303 -13.1699 15.7002 -24.1758c-14.043 -66.0625 -49.5205 -310.225 -72.0762 -476.713c0.231445 0.0273438 0.456055 0.0615234 0.6875 0.0888672c17.7109 50.8516 40.8438 118.552 71.042 208.542
c30.8916 92.0557 82.0898 225.241 169.771 318.595c43.9902 46.8428 87.0361 67.8428 127.962 62.3945c38.541 -5.12207 75.3018 -35.2725 98.3467 -80.6553c17.5352 -34.5264 27.9365 -77.2725 31.8018 -130.679c6.20312 -85.6357 -4.91113 -178.677 -33.0371 -276.541
c-7.96875 -27.7324 -16.998 -54.9072 -27.0459 -81.4434c60.8857 11.1484 124.245 32.1621 181.795 72.123c9.23926 6.41992 21.9434 4.13086 28.3633 -5.11523s4.13086 -21.9434 -5.11523 -28.3633c-71.4639 -49.6289 -149.966 -72.3545 -222.999 -82.9189
c-42.5898 -98.2861 -99.4746 -186.436 -167.807 -259.299c-60.417 -64.4189 -122.601 -108.253 -184.825 -130.278c-31.6865 -11.2168 -63.5293 -16.7881 -94.4883 -16.7881c-43.46 -0.00683594 -85.1738 10.9717 -122.356 32.7119
c-53.0049 31 -89.9834 83.543 -98.9238 140.557c-10.2041 65.0508 16.6377 139.844 66.7891 186.123c42.9092 39.5938 94.4268 55.668 138.016 64.208c5.43457 40.3418 11.6777 85.5342 18.2949 132.316c19.6748 139.219 44.7031 306.802 55.9268 359.61
c2.34375 11.0127 13.1523 18.0439 24.1787 15.7002zM311.343 388.409c-26.6387 -79.4062 -47.834 -141.862 -64.8252 -191.062c53.7656 4.03516 107.531 3.55273 160.074 3.07715c34.458 -0.305664 70.0713 -0.625 104.849 0.353516
c25.7754 0.726562 53.6436 2.1875 82.6191 5.46191c13.0303 32.1553 24.5049 65.3906 34.3086 99.5088c26.7949 93.2314 37.4141 181.496 31.5576 262.336c-3.46484 47.8965 -12.46 85.5684 -27.4883 115.169c-16.7129 32.9023 -42.5293 55.3965 -67.374 58.6982
c-2.40527 0.326172 -4.84473 0.482422 -7.31055 0.482422c-25.4023 0 -54.1465 -16.9102 -85.5674 -50.3691c-82.2188 -87.5381 -131.168 -215.228 -160.843 -303.655zM231.836 155.184c-48.6982 -138.647 -54.4395 -140.489 -64.3584 -143.689
c-6.17578 -1.97656 -13.2891 -0.862305 -18.541 2.92188c-11.2979 8.15234 -11.2979 8.15234 1.41309 106.561c0.916992 7.08594 1.88184 14.4707 2.8877 22.127c-34.7842 -8.06445 -73.1758 -22.209 -104.658 -51.2656
c-33.7715 -31.1562 -63.6162 -89.5762 -54.1592 -149.844c7.05859 -45.0498 36.6797 -86.7979 79.2295 -111.684c53.1279 -31.0684 117.988 -35.5791 182.665 -12.6836c56.0283 19.8242 112.783 60.1113 168.689 119.733c60.1182 64.1064 110.99 140.747 150.489 226.07
c-21.9033 -1.85449 -42.998 -2.83984 -62.9111 -3.40332c-35.5449 -0.999023 -71.5449 -0.679688 -106.363 -0.367188c-57.4414 0.516602 -116.418 1.04688 -174.383 -4.47656z" />
    <glyph glyph-name="E" unicode="E" horiz-adv-x="628" 
d="M-4.53223 110.118c53.5967 75.3096 124.568 106.011 190.332 118.056c-17.249 11.3457 -34.4375 26.0205 -49.4785 44.6494c-28.7646 35.627 -58.9697 98.6465 -39.5527 196.572c26.0273 131.263 133.172 240.486 260.556 265.609
c35.2939 6.96387 67.3604 5.625 95.3037 -3.96777c34.5664 -11.876 63.0801 -36.5039 80.3027 -69.3516c20.2998 -38.7451 25.5654 -92.2734 14.4375 -146.854c-2.24902 -11.0264 -12.9766 -18.1602 -24.0439 -15.8975c-11.0264 2.24902 -18.1465 13.0176 -15.8975 24.0439
c9.28027 45.5527 5.41504 89.2168 -10.6045 119.789c-12.3643 23.5879 -32.7656 41.2451 -57.4404 49.7236c-21.3594 7.33008 -45.6201 8.15918 -74.168 2.52734c-94.1963 -18.5742 -202.917 -104.768 -228.455 -233.544
c-13.1396 -66.2119 -2.60938 -121.065 31.2783 -163.037c38.1475 -47.251 93.1162 -62.6387 108.83 -62.8965c11.1895 -0.183594 20.1367 -9.35547 20.042 -20.5449s-9.19141 -20.2119 -20.3809 -20.2119c-79.5078 0 -179.533 -12.3105 -247.845 -108.307
c-30.5723 -42.957 -46.3955 -128.321 -18.6494 -191.307c18.5195 -42.0332 52.7939 -66.4092 101.872 -72.4424c197.951 -24.3418 432.174 279.775 508.617 422.234c5.31934 9.92578 17.6777 13.6416 27.5967 8.32227s13.6416 -17.6777 8.32227 -27.5967
c-80.4863 -149.979 -308.873 -445.068 -522.246 -445.068c-9.12402 0 -18.2139 0.537109 -27.2695 1.65137c-80.1328 9.85059 -117.207 57.8965 -134.198 96.4648c-33.9688 77.1025 -15.1162 178.194 22.7393 231.383z" />
    <glyph glyph-name="E" unicode="&#xcb;" horiz-adv-x="628" 
d="M-4.53223 110.118c53.5967 75.3096 124.568 106.011 190.332 118.056c-17.249 11.3457 -34.4375 26.0205 -49.4785 44.6494c-28.7646 35.627 -58.9697 98.6465 -39.5527 196.572c26.0273 131.263 133.172 240.486 260.556 265.609
c35.2939 6.96387 67.3604 5.625 95.3037 -3.96777c34.5664 -11.876 63.0801 -36.5039 80.3027 -69.3516c20.2998 -38.7451 25.5654 -92.2734 14.4375 -146.854c-2.24902 -11.0264 -12.9766 -18.1602 -24.0439 -15.8975c-11.0264 2.24902 -18.1465 13.0176 -15.8975 24.0439
c9.28027 45.5527 5.41504 89.2168 -10.6045 119.789c-12.3643 23.5879 -32.7656 41.2451 -57.4404 49.7236c-21.3594 7.33008 -45.6201 8.15918 -74.168 2.52734c-94.1963 -18.5742 -202.917 -104.768 -228.455 -233.544
c-13.1396 -66.2119 -2.60938 -121.065 31.2783 -163.037c38.1475 -47.251 93.1162 -62.6387 108.83 -62.8965c11.1895 -0.183594 20.1367 -9.35547 20.042 -20.5449s-9.19141 -20.2119 -20.3809 -20.2119c-79.5078 0 -179.533 -12.3105 -247.845 -108.307
c-30.5723 -42.957 -46.3955 -128.321 -18.6494 -191.307c18.5195 -42.0332 52.7939 -66.4092 101.872 -72.4424c197.951 -24.3418 432.174 279.775 508.617 422.234c5.31934 9.92578 17.6777 13.6416 27.5967 8.32227s13.6416 -17.6777 8.32227 -27.5967
c-80.4863 -149.979 -308.873 -445.068 -522.246 -445.068c-9.12402 0 -18.2139 0.537109 -27.2695 1.65137c-80.1328 9.85059 -117.207 57.8965 -134.198 96.4648c-33.9688 77.1025 -15.1162 178.194 22.7393 231.383z" />
    <glyph glyph-name="E" unicode="&#xca;" horiz-adv-x="628" 
d="M-4.53223 110.118c53.5967 75.3096 124.568 106.011 190.332 118.056c-17.249 11.3457 -34.4375 26.0205 -49.4785 44.6494c-28.7646 35.627 -58.9697 98.6465 -39.5527 196.572c26.0273 131.263 133.172 240.486 260.556 265.609
c35.2939 6.96387 67.3604 5.625 95.3037 -3.96777c34.5664 -11.876 63.0801 -36.5039 80.3027 -69.3516c20.2998 -38.7451 25.5654 -92.2734 14.4375 -146.854c-2.24902 -11.0264 -12.9766 -18.1602 -24.0439 -15.8975c-11.0264 2.24902 -18.1465 13.0176 -15.8975 24.0439
c9.28027 45.5527 5.41504 89.2168 -10.6045 119.789c-12.3643 23.5879 -32.7656 41.2451 -57.4404 49.7236c-21.3594 7.33008 -45.6201 8.15918 -74.168 2.52734c-94.1963 -18.5742 -202.917 -104.768 -228.455 -233.544
c-13.1396 -66.2119 -2.60938 -121.065 31.2783 -163.037c38.1475 -47.251 93.1162 -62.6387 108.83 -62.8965c11.1895 -0.183594 20.1367 -9.35547 20.042 -20.5449s-9.19141 -20.2119 -20.3809 -20.2119c-79.5078 0 -179.533 -12.3105 -247.845 -108.307
c-30.5723 -42.957 -46.3955 -128.321 -18.6494 -191.307c18.5195 -42.0332 52.7939 -66.4092 101.872 -72.4424c197.951 -24.3418 432.174 279.775 508.617 422.234c5.31934 9.92578 17.6777 13.6416 27.5967 8.32227s13.6416 -17.6777 8.32227 -27.5967
c-80.4863 -149.979 -308.873 -445.068 -522.246 -445.068c-9.12402 0 -18.2139 0.537109 -27.2695 1.65137c-80.1328 9.85059 -117.207 57.8965 -134.198 96.4648c-33.9688 77.1025 -15.1162 178.194 22.7393 231.383z" />
    <glyph glyph-name="E" unicode="&#xc9;" horiz-adv-x="628" 
d="M-4.53223 110.118c53.5967 75.3096 124.568 106.011 190.332 118.056c-17.249 11.3457 -34.4375 26.0205 -49.4785 44.6494c-28.7646 35.627 -58.9697 98.6465 -39.5527 196.572c26.0273 131.263 133.172 240.486 260.556 265.609
c35.2939 6.96387 67.3604 5.625 95.3037 -3.96777c34.5664 -11.876 63.0801 -36.5039 80.3027 -69.3516c20.2998 -38.7451 25.5654 -92.2734 14.4375 -146.854c-2.24902 -11.0264 -12.9766 -18.1602 -24.0439 -15.8975c-11.0264 2.24902 -18.1465 13.0176 -15.8975 24.0439
c9.28027 45.5527 5.41504 89.2168 -10.6045 119.789c-12.3643 23.5879 -32.7656 41.2451 -57.4404 49.7236c-21.3594 7.33008 -45.6201 8.15918 -74.168 2.52734c-94.1963 -18.5742 -202.917 -104.768 -228.455 -233.544
c-13.1396 -66.2119 -2.60938 -121.065 31.2783 -163.037c38.1475 -47.251 93.1162 -62.6387 108.83 -62.8965c11.1895 -0.183594 20.1367 -9.35547 20.042 -20.5449s-9.19141 -20.2119 -20.3809 -20.2119c-79.5078 0 -179.533 -12.3105 -247.845 -108.307
c-30.5723 -42.957 -46.3955 -128.321 -18.6494 -191.307c18.5195 -42.0332 52.7939 -66.4092 101.872 -72.4424c197.951 -24.3418 432.174 279.775 508.617 422.234c5.31934 9.92578 17.6777 13.6416 27.5967 8.32227s13.6416 -17.6777 8.32227 -27.5967
c-80.4863 -149.979 -308.873 -445.068 -522.246 -445.068c-9.12402 0 -18.2139 0.537109 -27.2695 1.65137c-80.1328 9.85059 -117.207 57.8965 -134.198 96.4648c-33.9688 77.1025 -15.1162 178.194 22.7393 231.383z" />
    <glyph glyph-name="F" unicode="F" horiz-adv-x="435" 
d="M-42.2432 624.219c-2.72461 9.73535 2.09863 20.0039 11.3379 24.1143c4.85742 2.16016 491.47 215.614 995.44 164.722c11.2031 -1.12793 19.3691 -11.1279 18.2344 -22.3242c-1.12793 -11.1963 -11.1016 -19.3486 -22.3252 -18.2275
c-194.112 19.6064 -385.589 -0.890625 -546.812 -33.0801c0.360352 -2.43262 0.333008 -4.95996 -0.244141 -7.50098l-104.047 -457.025c53.8818 4.76953 104.706 3.67578 147.412 0.265625c11.2168 -0.896484 19.5869 -10.7139 18.6973 -21.9375
s-10.6455 -19.6279 -21.9365 -18.6973c-44.2344 3.5332 -97.5859 4.49805 -153.703 -1.50098l-99.3115 -436.209c-0.0205078 -0.101562 -0.0478516 -0.203125 -0.0683594 -0.304688c0 -0.00683594 -0.00683594 -0.00683594 -0.00683594 -0.0136719l-1.39941 -6.1416
c0.264648 -0.81543 0.475586 -1.6582 0.638672 -2.51465c1.73242 -9.17188 -2.79199 -18.7852 -11.0059 -23.3643c-3.2334 -1.80762 -6.78613 -2.69043 -10.3125 -2.69043c-5.15625 0 -10.2588 1.88184 -14.2471 5.53027c-3.75684 3.44434 -9.5791 11.1484 -6.58984 24.3008
l3.16602 13.9209v0.0136719c34.1455 149.979 56.2656 295.584 68.5352 416.059c-44.1592 -9.70801 -88.4346 -24.5869 -129.958 -46.9658c-3.07715 -1.65723 -6.39258 -2.44531 -9.65332 -2.44531c-7.25586 0 -14.2803 3.87891 -17.9629 10.7139
c-5.33301 9.91211 -1.63086 22.2705 8.27441 27.6104c49.1602 26.4961 101.588 43.3037 153.322 53.5762c9.68164 111.351 10.2119 196.334 3.5332 235.459c-10.2314 59.9551 -47.9912 136.589 -256.799 109.937c-10.041 -1.27051 -19.4844 4.98633 -22.209 14.7217z
M371.261 730.538c-110.942 -24.2744 -205.281 -53.1943 -272.839 -76.5176c104.557 -9.45703 163.282 -58.291 178.521 -147.609c5.73438 -33.5957 6.46777 -99.2168 1.09375 -185.342z" />
    <glyph glyph-name="G" unicode="G" horiz-adv-x="678" 
d="M423.195 -36.8389c-75.2139 -84.834 -158.425 -128.048 -244.645 -128.062c-32.1348 -0.00683594 -64.6836 5.99219 -97.4023 18.0781c-7.10645 2.62207 -70.3564 27.6641 -102.124 97.9395c-24.2539 53.6436 -22.583 117.063 4.95215 188.5
c35.416 91.8721 118.11 168.655 221.206 205.396c80.6152 28.7246 203.046 44.8867 362.734 -12.7314c38.623 136.977 45.3828 264.944 16.4004 321.469c-13.3633 26.0605 -30.1367 27.5215 -41.6113 26.3398c-48.3447 -4.95312 -119.544 -85.7041 -182.366 -156.944
c-51.3887 -58.2842 -104.529 -118.545 -153.791 -150.53c-19.7227 -12.7998 -46.1641 -27.8008 -75.833 -30.165c-32.9502 -2.63574 -62.9316 11.7939 -80.0791 38.5889c-18.2207 28.4727 -21.8828 69.915 -10.8838 123.172c30.0967 145.687 124.374 270.21 240.181 317.229
c51.9111 21.0811 95.6016 18.0166 126.33 -8.85254c35.002 -30.5996 43.9971 -81.6621 44.2012 -137.222c30.416 25.3545 59.8262 42.3936 88.0752 45.2881c35.0693 3.58008 64.2217 -13.5469 82.042 -48.29c35.1787 -68.6104 26.958 -208.712 -15.0137 -354.765
c32.3789 -13.5742 66.1445 -30.1582 101.316 -50.207c9.77637 -5.57812 13.1865 -18.0244 7.6084 -27.8008s-18.0176 -13.1865 -27.8008 -7.6084c-32.3584 18.4453 -63.4131 33.793 -93.1562 46.4434c-37.8486 -115.794 -96.2207 -231.662 -170.341 -315.267z
M408.588 636.407c3.10449 57.6797 1.44824 118.748 -29.1719 145.502c-10.4492 9.1377 -23.3711 12.5146 -36.7549 12.5146c-16.332 0 -33.3506 -5.02734 -47.4141 -10.7344c-103.544 -42.04 -188.174 -154.974 -215.587 -287.704
c-8.64844 -41.877 -6.81445 -74.0186 5.29883 -92.9531c8.88672 -13.8867 24.7568 -21.3398 42.502 -19.9268c16.0332 1.27734 33.5684 8.58789 56.8711 23.7178c44.5879 28.9414 95.8467 87.083 145.421 143.302c26.8486 30.4434 53.1543 60.2754 78.835 86.2822z
M95.252 -108.574c104.903 -38.7314 204.981 -5.49512 297.445 98.7832c72.9385 82.2725 128.043 193.609 163.385 303.01c-74.2422 27.0322 -139.585 37.0596 -195.641 37.0596c-56.8643 0 -104.17 -10.3125 -141.583 -23.6416
c-92.0625 -32.8076 -165.653 -100.719 -196.857 -181.667c-23.4727 -60.8721 -25.4365 -113.714 -5.84961 -157.045c25.3682 -56.1172 76.9199 -75.6904 79.1006 -76.499z" />
    <glyph glyph-name="H" unicode="H" horiz-adv-x="860" 
d="M530.5 751.153c10.958 -2.58203 17.7451 -13.5596 15.1699 -24.5107c-37.8682 -160.49 -76.7695 -325.362 -130.101 -482.639c58.4814 3.85938 118.131 4.98047 176.911 6.08105c27.624 0.516602 54.7793 1.05371 81.499 1.82129
c34.7432 146.162 76.376 289.742 124.721 429.511c3.67578 10.6318 15.2725 16.2773 25.918 12.5947c10.6318 -3.68262 16.2773 -15.2861 12.5947 -25.9248c-46.7002 -135 -87.0625 -273.607 -120.964 -414.667c55.9336 2.38477 109.557 6.52246 160.034 15.1094
c11.0605 1.90234 21.6182 -5.57715 23.5068 -16.6719c1.88184 -11.1006 -5.57812 -21.624 -16.6787 -23.5127c-55.4648 -9.43652 -115.542 -13.751 -176.584 -16.1221c-26.0811 -113.123 -48.0186 -227.741 -65.5801 -343.338
c-1.53516 -10.0889 -10.2178 -17.3242 -20.123 -17.3242c-1.01953 0 -2.05176 0.0751953 -3.09082 0.231445c-11.1279 1.69824 -18.7773 12.0859 -17.0859 23.2139c17.168 113.035 38.5068 225.14 63.7598 335.858c-23.7783 -0.638672 -47.5771 -1.09375 -71.1855 -1.53516
c-64.0723 -1.20215 -129.197 -2.4248 -192.305 -7.24121c-8.99512 -25.0215 -18.3838 -49.8125 -28.2412 -74.3379c-30.8574 -76.79 -71.0361 -163.173 -135.095 -221.647c-42.9434 -39.2002 -93.7334 -59.582 -141.813 -59.582
c-31.0273 0 -60.9131 8.48535 -86.8447 25.8711c-18.5332 12.4326 -32.5146 27.6367 -41.5645 45.2051c-17.1953 33.4053 -17.8271 79.3652 -1.6582 119.944c12.2559 30.7422 33.3574 58.5283 64.5 84.9424c44.4922 37.7256 99.1484 65.9941 167.1 86.4297
c54.5537 16.4004 113.327 25.8779 173.948 31.5713c55.6748 160.463 95.7578 330.321 134.733 495.513c2.58887 10.958 13.5674 17.7314 24.5186 15.1562zM334.859 142.953c7.30371 18.1807 14.3535 36.5234 21.168 55.0166
c-51.5039 -5.60449 -101.085 -14.2803 -146.997 -28.085c-62.4688 -18.7852 -112.342 -44.4521 -152.466 -78.4824c-25.9385 -21.9912 -43.2695 -44.5469 -52.9912 -68.9434c-11.7529 -29.4922 -11.7393 -63.332 0.0341797 -86.2002
c5.85645 -11.3662 15.2861 -21.4619 28.0244 -30.0088c61.9795 -41.5576 134.877 -9.83691 178.473 29.9609c57.999 52.9443 95.6094 134.219 124.755 206.742z" />
    <glyph glyph-name="I" unicode="I" horiz-adv-x="306" 
d="M-43.6855 -182.83c-46.8301 87.8574 46.1982 337.648 172.672 655.075c28.2822 70.9883 55.2061 138.566 75.1055 193.556c-74.6094 -2.05859 -162.854 -5.88379 -179.268 -14.0156c-3.58008 -2.56152 -7.73145 -3.81152 -11.8555 -3.81152
c-6.06641 0 -12.0723 2.69727 -16.0869 7.85352c-6.92285 8.87305 -5.33301 21.6797 3.54688 28.6025c20.4697 15.9453 100.596 20.2119 272.458 23.7314c42.7461 0.875977 86.9463 1.7793 94.6709 3.31445c10.9111 2.74512 21.8691 -3.92676 24.6006 -14.8447
c2.74512 -10.9248 -4.01465 -22.0195 -14.9326 -24.7578c-9.38867 -2.35742 -34.4033 -3.06445 -103.496 -4.47754c-7.82617 -0.15625 -16.5898 -0.339844 -25.9521 -0.543945c-20.5312 -58.1689 -49.9209 -131.923 -80.9141 -209.705
c-91.2539 -229.019 -216.232 -542.661 -174.58 -620.811c3.70898 -6.96387 8.51172 -10.748 15.5635 -12.2695c7.69727 -1.65137 15.7686 -0.245117 24.0098 4.20508c18.377 9.93262 36.7881 26.292 57.9443 51.4902c39.3838 46.9111 71.6543 103.449 98.8154 152.759
c39.7705 72.2178 78.1484 147.371 115.263 220.051c5.11621 10.0205 17.3857 14.002 27.4199 8.87988c10.0273 -5.11621 14.002 -17.3926 8.88574 -27.4199c-37.2568 -72.959 -75.7842 -148.404 -115.86 -221.173c-28.0928 -51.001 -61.5518 -109.577 -103.3 -159.301
c-24.5664 -29.2676 -46.7412 -48.6914 -69.793 -61.1445c-11.998 -6.47461 -24.5938 -9.76953 -37.0879 -9.76953c-4.98633 0 -9.96582 0.523438 -14.8779 1.58301c-18.7646 4.04199 -33.6162 15.4355 -42.9512 32.9434z" />
    <glyph glyph-name="I" unicode="&#xcf;" horiz-adv-x="306" 
d="M-43.6855 -182.83c-46.8301 87.8574 46.1982 337.648 172.672 655.075c28.2822 70.9883 55.2061 138.566 75.1055 193.556c-74.6094 -2.05859 -162.854 -5.88379 -179.268 -14.0156c-3.58008 -2.56152 -7.73145 -3.81152 -11.8555 -3.81152
c-6.06641 0 -12.0723 2.69727 -16.0869 7.85352c-6.92285 8.87305 -5.33301 21.6797 3.54688 28.6025c20.4697 15.9453 100.596 20.2119 272.458 23.7314c42.7461 0.875977 86.9463 1.7793 94.6709 3.31445c10.9111 2.74512 21.8691 -3.92676 24.6006 -14.8447
c2.74512 -10.9248 -4.01465 -22.0195 -14.9326 -24.7578c-9.38867 -2.35742 -34.4033 -3.06445 -103.496 -4.47754c-7.82617 -0.15625 -16.5898 -0.339844 -25.9521 -0.543945c-20.5312 -58.1689 -49.9209 -131.923 -80.9141 -209.705
c-91.2539 -229.019 -216.232 -542.661 -174.58 -620.811c3.70898 -6.96387 8.51172 -10.748 15.5635 -12.2695c7.69727 -1.65137 15.7686 -0.245117 24.0098 4.20508c18.377 9.93262 36.7881 26.292 57.9443 51.4902c39.3838 46.9111 71.6543 103.449 98.8154 152.759
c39.7705 72.2178 78.1484 147.371 115.263 220.051c5.11621 10.0205 17.3857 14.002 27.4199 8.87988c10.0273 -5.11621 14.002 -17.3926 8.88574 -27.4199c-37.2568 -72.959 -75.7842 -148.404 -115.86 -221.173c-28.0928 -51.001 -61.5518 -109.577 -103.3 -159.301
c-24.5664 -29.2676 -46.7412 -48.6914 -69.793 -61.1445c-11.998 -6.47461 -24.5938 -9.76953 -37.0879 -9.76953c-4.98633 0 -9.96582 0.523438 -14.8779 1.58301c-18.7646 4.04199 -33.6162 15.4355 -42.9512 32.9434z" />
    <glyph glyph-name="I" unicode="&#xce;" horiz-adv-x="306" 
d="M-43.6855 -182.83c-46.8301 87.8574 46.1982 337.648 172.672 655.075c28.2822 70.9883 55.2061 138.566 75.1055 193.556c-74.6094 -2.05859 -162.854 -5.88379 -179.268 -14.0156c-3.58008 -2.56152 -7.73145 -3.81152 -11.8555 -3.81152
c-6.06641 0 -12.0723 2.69727 -16.0869 7.85352c-6.92285 8.87305 -5.33301 21.6797 3.54688 28.6025c20.4697 15.9453 100.596 20.2119 272.458 23.7314c42.7461 0.875977 86.9463 1.7793 94.6709 3.31445c10.9111 2.74512 21.8691 -3.92676 24.6006 -14.8447
c2.74512 -10.9248 -4.01465 -22.0195 -14.9326 -24.7578c-9.38867 -2.35742 -34.4033 -3.06445 -103.496 -4.47754c-7.82617 -0.15625 -16.5898 -0.339844 -25.9521 -0.543945c-20.5312 -58.1689 -49.9209 -131.923 -80.9141 -209.705
c-91.2539 -229.019 -216.232 -542.661 -174.58 -620.811c3.70898 -6.96387 8.51172 -10.748 15.5635 -12.2695c7.69727 -1.65137 15.7686 -0.245117 24.0098 4.20508c18.377 9.93262 36.7881 26.292 57.9443 51.4902c39.3838 46.9111 71.6543 103.449 98.8154 152.759
c39.7705 72.2178 78.1484 147.371 115.263 220.051c5.11621 10.0205 17.3857 14.002 27.4199 8.87988c10.0273 -5.11621 14.002 -17.3926 8.88574 -27.4199c-37.2568 -72.959 -75.7842 -148.404 -115.86 -221.173c-28.0928 -51.001 -61.5518 -109.577 -103.3 -159.301
c-24.5664 -29.2676 -46.7412 -48.6914 -69.793 -61.1445c-11.998 -6.47461 -24.5938 -9.76953 -37.0879 -9.76953c-4.98633 0 -9.96582 0.523438 -14.8779 1.58301c-18.7646 4.04199 -33.6162 15.4355 -42.9512 32.9434z" />
    <glyph glyph-name="I" unicode="&#xcd;" horiz-adv-x="306" 
d="M-43.6855 -182.83c-46.8301 87.8574 46.1982 337.648 172.672 655.075c28.2822 70.9883 55.2061 138.566 75.1055 193.556c-74.6094 -2.05859 -162.854 -5.88379 -179.268 -14.0156c-3.58008 -2.56152 -7.73145 -3.81152 -11.8555 -3.81152
c-6.06641 0 -12.0723 2.69727 -16.0869 7.85352c-6.92285 8.87305 -5.33301 21.6797 3.54688 28.6025c20.4697 15.9453 100.596 20.2119 272.458 23.7314c42.7461 0.875977 86.9463 1.7793 94.6709 3.31445c10.9111 2.74512 21.8691 -3.92676 24.6006 -14.8447
c2.74512 -10.9248 -4.01465 -22.0195 -14.9326 -24.7578c-9.38867 -2.35742 -34.4033 -3.06445 -103.496 -4.47754c-7.82617 -0.15625 -16.5898 -0.339844 -25.9521 -0.543945c-20.5312 -58.1689 -49.9209 -131.923 -80.9141 -209.705
c-91.2539 -229.019 -216.232 -542.661 -174.58 -620.811c3.70898 -6.96387 8.51172 -10.748 15.5635 -12.2695c7.69727 -1.65137 15.7686 -0.245117 24.0098 4.20508c18.377 9.93262 36.7881 26.292 57.9443 51.4902c39.3838 46.9111 71.6543 103.449 98.8154 152.759
c39.7705 72.2178 78.1484 147.371 115.263 220.051c5.11621 10.0205 17.3857 14.002 27.4199 8.87988c10.0273 -5.11621 14.002 -17.3926 8.88574 -27.4199c-37.2568 -72.959 -75.7842 -148.404 -115.86 -221.173c-28.0928 -51.001 -61.5518 -109.577 -103.3 -159.301
c-24.5664 -29.2676 -46.7412 -48.6914 -69.793 -61.1445c-11.998 -6.47461 -24.5938 -9.76953 -37.0879 -9.76953c-4.98633 0 -9.96582 0.523438 -14.8779 1.58301c-18.7646 4.04199 -33.6162 15.4355 -42.9512 32.9434z" />
    <glyph glyph-name="J" unicode="J" horiz-adv-x="565" 
d="M279.926 129.134c2.53418 8.4043 4.96973 16.7324 7.32031 24.96c41.9111 146.06 73.5635 310.062 99.1553 513.861c-3.54004 -0.0478516 -7.0459 -0.0957031 -10.7285 -0.143555c-121.86 -1.56934 -348.691 -4.49707 -375.14 -16.0059
c-2.88086 -1.41309 -5.93164 -2.08594 -8.93457 -2.08594c-7.52734 0 -14.7422 4.19824 -18.2881 11.4199c-4.96582 10.1094 -0.740234 22.3447 9.3623 27.3047c26.7881 13.1523 147.901 16.9707 392.472 20.1299c6.66504 0.0878906 13.2686 0.168945 19.8105 0.256836
c4.28711 4.92578 10.8496 7.71094 17.8203 6.86816c5 -0.597656 9.28711 -3.02344 12.46 -6.4541c47.1895 0.686523 85.1738 1.4541 92.9053 2.67676c11.1416 1.75977 21.5635 -5.83594 23.3164 -16.9502s-5.83594 -21.5498 -16.9502 -23.3096
c-9.91211 -1.56934 -41.0957 -2.33691 -96.9609 -3.14551c-25.9795 -208.535 -58.2295 -376.206 -101.112 -525.67c-0.393555 -1.36523 -0.78125 -2.73047 -1.18164 -4.0957c75.6221 16.6445 151.394 37.6514 218.108 81.4512
c9.41602 6.17578 22.0459 3.55371 28.2217 -5.85547c6.18262 -9.40918 3.56055 -22.0459 -5.84863 -28.2217c-79.3242 -52.0674 -167.446 -73.6924 -253.979 -91.9814c-23.3574 -73.2646 -54.7041 -150.211 -103.83 -211.512
c-52.4619 -65.4648 -119.429 -101.628 -183.691 -101.628c-17.2363 0 -34.2754 2.60156 -50.7979 7.93457c-40.0635 12.9424 -68.292 42.6045 -75.5068 79.3525c-12.0518 61.3887 35.4102 110.487 56.3691 128.749c88.8018 77.3545 196.545 104.951 299.301 126.597
l23.3643 4.87793c0.985352 0.204102 1.97754 0.415039 2.96289 0.619141zM176.119 -91.876c40.457 50.4844 68.2725 113.83 89.5576 176.395l-3.67578 -0.767578c-97.498 -20.5381 -199.507 -46.5176 -280.924 -117.444
c-15.626 -13.6084 -51.1035 -49.6357 -43.1484 -90.1611c6.39941 -32.5967 38.3848 -45.3008 48.0391 -48.4189c73.6377 -23.7783 146.508 25.9385 190.151 80.3975z" />
    <glyph glyph-name="K" unicode="K" horiz-adv-x="733" 
d="M-69.0576 -138.528c-29.2812 73.502 33.5713 189.32 197.798 364.451c31.4346 33.5205 64.8672 67.3535 99.2236 100.901c32.4541 138.519 55.8857 275.896 69.9014 409.971c1.16895 11.1963 11.1689 19.3418 22.3926 18.1533
c11.1963 -1.16895 19.3213 -11.1895 18.1523 -22.3857c-12.1475 -116.222 -31.2783 -234.868 -57.1357 -354.555c92.5381 87.4629 187.454 170.612 264.306 237.932c68.9229 60.376 134.082 117.457 143.274 131.547c3.3291 9.42285 13.1602 15.1973 23.249 13.166
c11.0332 -2.22852 18.1738 -12.9834 15.9385 -24.0166c-3.40332 -16.8281 -28.5947 -40.0967 -155.604 -151.358c-85.6357 -75.0176 -193.8 -169.798 -295.7 -267.975c3.2002 -12.5957 5.91797 -32.1953 10.293 -63.9971
c14.6885 -106.724 49.0986 -356.634 153.642 -371.132c56.9385 -7.92188 125.406 112.634 180.416 209.479c39.9004 70.2549 74.3652 130.938 108.144 155.878c9.05566 6.69141 21.8213 4.76855 28.5068 -4.28711c6.68555 -9.0498 4.76953 -21.8154 -4.28613 -28.501
c-26.8291 -19.8105 -62.4629 -82.5449 -96.9209 -143.221c-64.4053 -113.402 -130.923 -230.493 -210.281 -230.5c-3.70215 0 -7.4248 0.250977 -11.1816 0.774414c-131.895 18.2891 -168.071 258.708 -187.053 396.031
c-5.40137 -20.918 -10.9727 -41.8496 -16.7744 -62.7949l-1.06641 -3.85938c-44.1729 -159.742 -113.816 -368.421 -214.045 -368.421c-3.79785 0 -7.62305 0.298828 -11.5088 0.910156c-34.3496 5.4082 -61.2051 26.4824 -73.6787 57.8086zM158.477 198.048
c-184.309 -196.558 -204.872 -283.315 -189.668 -321.49c9.60645 -24.125 30.5312 -30.79 42.1484 -32.624c24.9062 -3.91309 92.2734 21.1562 179.92 338.114l1.07324 3.87207c5.99219 21.6387 11.7666 43.25 17.3242 64.8613
c-17.3926 -17.623 -34.377 -35.2256 -50.7979 -52.7334z" />
    <glyph glyph-name="L" unicode="L" horiz-adv-x="309" 
d="M168.397 718.373c-36.0889 -196.701 -121.365 -608.723 -164.458 -716.221c-0.427734 -1.06641 -0.848633 -2.12598 -1.27637 -3.18555c38.5 3.49219 75.2949 10.5645 109.964 28.2422c79.46 40.5186 137.466 132.222 188.644 213.122
c6.01953 9.51855 18.6016 12.3447 28.1201 6.33203c9.51172 -6.01953 12.3447 -18.6084 6.3252 -28.1201c-51.2998 -81.1045 -115.154 -182.047 -204.567 -227.646c-47.3252 -24.1387 -97.2188 -31.0547 -146.657 -34.166
c-23.7852 -51.6943 -48.4873 -91.499 -76.2539 -123.22c-23.6221 -26.9854 -46.7207 -44.2275 -70.6143 -52.7197c-11.0059 -3.91309 -22.1885 -5.8291 -33.0996 -5.8291c-21.1152 0 -41.2451 7.18066 -57.2441 21.0195c-26.917 23.2754 -39.6074 65.7295 -30.1846 100.941
c4.16504 15.5713 12.3242 30.0625 24.2334 43.0791c28.7646 31.4141 67.8154 41.4277 94.6846 46.2305c35.1719 6.28418 70.9277 7.76562 105.508 9.20605c5.3125 0.217773 10.5908 0.442383 15.8428 0.673828c2.9209 6.85449 5.83496 13.9131 8.75586 21.1963
c38.2695 95.5205 120.196 479.513 162.188 708.423c2.02441 11.0674 12.6494 18.3975 23.7236 16.3662c11.0674 -2.03125 18.3975 -12.6504 16.3662 -23.7246zM-122.433 -139.654c21.6855 24.7773 41.5039 55.417 60.71 94.1553
c-31.6865 -1.33203 -64.249 -2.89453 -95.0928 -8.4043c-33.8945 -6.05371 -56.0352 -16.4277 -71.7832 -33.6299c-7.44629 -8.13184 -12.4668 -16.916 -14.9258 -26.0947c-6.04688 -22.5957 4.13672 -48.0381 17.4727 -59.5742
c13.2207 -11.4336 31.4619 -14.2119 50.0293 -7.6084c17.1543 6.09375 34.6826 19.5586 53.5898 41.1562z" />
    <glyph glyph-name="M" unicode="M" horiz-adv-x="686" 
d="M182.272 685.417c-84.3721 -259.706 -141.34 -477.892 -179.317 -686.658c-7.98926 -43.9287 -14.9805 -86.9336 -12.8408 -130.136c0.250977 -5 1.13379 -9.5791 2.2002 -13.2686c13.459 20.1572 24.2744 44.1123 35.0566 68.9297
c43.4736 100.059 128.709 293.036 211.104 461.257c144.864 295.754 176.53 300.74 193.542 303.424c9.9668 1.5625 19.4912 -1.85449 26.1426 -9.40234c14.2734 -16.1895 9.74219 -38.0449 6.74609 -52.5088c-0.34668 -1.67773 -0.686523 -3.32227 -0.992188 -4.91211
c-12.6367 -66.335 -31.4219 -131.358 -49.5889 -194.235c-21.8555 -75.6426 -44.3633 -153.526 -55.75 -233.211l5.42871 11.2305c124.68 258.246 184.52 352.089 228.673 358.624c11.6309 1.72559 22.4189 -2.13281 30.4355 -10.8428
c11.0264 -11.9844 15.4014 -31.6592 11.7051 -52.625c-13.6416 -77.2383 -35.3066 -152.514 -56.2588 -225.31c-21.8076 -75.7646 -44.3564 -154.11 -57.4072 -233.646c-1.875 -11.4473 -3.40332 -22.4873 -1.52148 -31.6992
c1.17578 -5.71387 4.37598 -8.90723 5.51074 -9.27441h0.00683594c0.271484 0 11.8887 0.135742 39.4443 40.4365c20.3887 29.8252 41.4355 69.46 61.7969 107.791c16.4678 31.0068 32.0186 60.2881 45.79 81.4639c6.13477 9.43652 18.7578 12.1133 28.1943 5.97168
s12.1064 -18.7646 5.97168 -28.2012c-12.7861 -19.6611 -27.9297 -48.168 -43.9561 -78.3525c-59.1943 -111.459 -98.4824 -178.479 -145.339 -169.057c-18.3369 3.68262 -32.998 19.7979 -37.3525 41.0488c-3.27441 15.999 -1.18848 31.7334 1.23047 46.4756
c13.4385 81.9062 36.3271 161.421 58.4609 238.32c20.6602 71.7832 42.0195 146.006 55.2881 221.125c1.03223 5.85645 0.712891 10.748 0 13.9814c-9.28711 -6.24316 -34.7363 -30.5713 -87.6738 -125.134c-39.7842 -71.0771 -79.7998 -153.962 -106.282 -208.809
l-10.1904 -21.0879c-7.05176 -14.5322 -14.3076 -28.4932 -25.5381 -39.6416c-8.29492 -8.24121 -17.3105 -11.6377 -26.7129 -10.1025c-13.7842 2.24219 -27.4941 15.2324 -24.627 44.9756c9.29395 96.1123 35.8438 188.005 61.5244 276.868
c17.9082 61.9795 36.4277 126.072 48.7041 190.545c0.34668 1.80762 0.734375 3.66211 1.12891 5.56445c0.0205078 0.108398 0.0478516 0.223633 0.0683594 0.338867c-48.1338 -57.4482 -170.796 -291.48 -360.295 -727.629
c-12.1953 -28.0586 -24.5195 -55.2266 -41.1035 -79.0664c-3.72266 -5.36035 -11.4883 -16.5293 -24.8242 -20.0352c-2.73828 -0.719727 -5.49023 -1.07324 -8.21484 -1.07324c-6.71191 0 -13.2412 2.16016 -18.9551 6.34473
c-19.417 14.2197 -21.9512 46.1436 -22.2568 52.4004c-2.35059 47.4951 5.35352 94.9297 13.4453 139.442c38.2832 210.594 95.6836 430.468 180.633 691.954c3.47852 10.707 14.9873 16.5635 25.6807 13.085c10.707 -3.47852 16.5635 -14.9736 13.085 -25.6807z" />
    <glyph glyph-name="N" unicode="N" horiz-adv-x="446" 
d="M138.738 550.513c-46.2109 -151.861 -93.9863 -308.896 -124.341 -469.006c-8.61426 -45.4639 -17.1885 -98.1289 -9.86523 -147.825c0.882812 -6.00586 1.9834 -9.94629 2.9209 -12.4668c3.4375 4.73535 6.22266 12.4121 8.69531 19.2402
c8.06445 22.2363 16.0605 44.5537 24.0703 66.8848c58.2432 162.426 118.47 330.382 205.274 475.361c23.3164 38.9355 52.3867 83.1426 91.2607 115.719c27.5283 23.0586 46.5576 11.8281 53.46 5.9248c13.791 -11.7871 17.1611 -31.6865 10.0137 -59.1338
c-15.9453 -61.2871 -36.9111 -120.964 -57.1836 -178.677c-23.54 -67.0205 -47.8887 -136.324 -63.9424 -207.347c-5.17676 -22.9287 -11.1416 -52.9844 -11.5225 -83.0195c1.29785 1.16895 2.45312 2.2832 3.09863 2.90137c19.5664 18.8125 38.582 40.3076 56.9795 61.0967
c34.8994 39.4443 70.9883 80.2275 114.747 107.892c9.51172 6.0127 22.1074 3.17969 28.1201 -6.33887s3.17285 -22.1074 -6.33887 -28.1201c-38.8535 -24.5596 -71.4639 -61.4229 -105.997 -100.446c-18.9277 -21.4004 -38.5078 -43.5205 -59.249 -63.4668
c-7.04492 -6.78027 -15.5303 -14.2666 -26.9375 -17.1748c-17.1543 -4.36816 -34.6143 4.1582 -41.5781 20.2598c-3.26758 7.54102 -3.66797 15.2041 -3.61328 22.3584c0.244141 34.3701 6.83398 67.7754 12.541 93.042c16.5771 73.3184 41.3203 143.75 65.248 211.864
c19.9941 56.9248 40.6748 115.786 56.1914 175.429c1.26367 4.85059 1.89551 8.71582 2.16016 11.6914c-34.2344 -28.6973 -60.9004 -69.3926 -82.4707 -105.42c-84.7529 -141.556 -144.294 -307.609 -201.878 -468.188c-8.0166 -22.3721 -16.04 -44.7305 -24.1182 -67.0205
c-3.61426 -9.97363 -8.11816 -22.3789 -16.4814 -32.4473c-8.83203 -10.6191 -20.6807 -16.373 -32.3047 -16.373c-5.13574 0 -10.2314 1.12109 -15.0078 3.45117c-21.1221 10.293 -25.1504 37.5771 -26.4688 46.5449c-8.25488 55.9609 0.910156 112.635 10.1357 161.36
c30.749 162.311 78.8623 320.416 125.386 473.317c18.2822 60.0771 37.1895 122.206 54.7383 183.615c3.09082 10.8223 14.375 17.0859 25.1904 13.9951c10.8223 -3.09082 17.0928 -14.375 13.9951 -25.1973c-17.6436 -61.7422 -36.5986 -124.034 -54.9287 -184.281z" />
    <glyph glyph-name="O" unicode="O" horiz-adv-x="519" 
d="M523.88 268.876c10.4492 4.21191 22.3232 -0.835938 26.5283 -11.2852c4.21191 -10.4355 -0.835938 -22.3115 -11.2783 -26.5234c-58.5352 -23.6084 -119.19 -45.416 -180.668 -57.8281c-2.95508 -12.793 -6.11426 -25.5039 -9.48438 -38.1475
c-19.6816 -73.8145 -43.6641 -132.554 -73.2988 -179.573c-26.2852 -41.6934 -71.2939 -96.1865 -136.453 -118.973c-16.3389 -5.71387 -32.2842 -8.54688 -47.4004 -8.54688c-23.1807 0 -44.4043 6.66504 -62.0889 19.8311
c-27.9902 20.8369 -47.7402 59.0381 -54.1943 104.814c-5.99902 42.5635 -0.217773 84.9434 5.48242 117.119c11.3799 64.1475 29.4922 124.945 51.3477 183.48c-6.67188 7.95508 -12.9971 16.624 -18.8398 26.0605c-31.8496 51.3887 -45.3828 120.305 -37.1348 189.071
c7.41211 61.8232 32.5557 123.219 70.791 172.868c29.9062 38.8262 64.9482 66.8506 101.336 81.043c42.5967 16.6104 88.4883 14.2393 125.915 -6.50879c43.582 -24.166 79.1406 -75.0312 97.5381 -139.565c13.8184 -48.4736 18.9951 -104.855 16.291 -177.427
c-2.28906 -61.3545 -9.19141 -122.22 -20.585 -181.808c52.7881 12.2285 105.264 31.3594 156.196 51.8975zM309.595 145.603c1.82031 6.82129 3.57324 13.6631 5.26465 20.5244c-45.668 -5.59766 -91.6211 -5.08105 -137.356 4.58691
c-33.7451 7.13379 -75.8535 21.7061 -113.09 51.3545c-18.3369 -51.2998 -33.46 -104.237 -43.2432 -159.41c-5.17676 -29.2002 -10.4551 -67.4424 -5.25098 -104.312c4.87109 -34.5537 19.1445 -63.6445 38.1738 -77.8164
c24.3086 -18.0918 55.3428 -11.21 71.6816 -5.49609c42.1758 14.749 83.1699 51.0547 115.427 102.232c27.4131 43.4941 49.7852 98.5576 68.3936 168.337zM347.538 400.309c2.54785 68.1621 -2.14062 120.503 -14.7568 164.737
c-15.4561 54.1943 -43.9219 96.1465 -78.1084 115.095c-27.1885 15.0684 -59.6221 16.5566 -91.3359 4.18555c-29.4854 -11.502 -58.4746 -34.9951 -83.8496 -67.9385c-33.8262 -43.9219 -56.0625 -98.2109 -62.6182 -152.854
c-7.05859 -58.875 4.64746 -119.714 31.3135 -162.746c0.577148 -0.9375 1.16797 -1.86133 1.75879 -2.77832c26.4414 64.3984 56.6123 126.283 86.3145 187.21c4.93262 10.1162 17.1279 14.3281 27.251 9.38867c10.1162 -4.93262 14.3213 -17.1348 9.38867 -27.251
c-32.4131 -66.4844 -65.4033 -134.144 -93.2031 -204.67c33.5752 -30.8711 74.2764 -45.335 106.234 -52.0879c45.5791 -9.63379 92.0488 -9.04297 138.546 -1.96387c12.9082 62.6523 20.6465 126.874 23.0654 191.673z" />
    <glyph glyph-name="O" unicode="&#xd6;" horiz-adv-x="519" 
d="M523.88 268.876c10.4492 4.21191 22.3232 -0.835938 26.5283 -11.2852c4.21191 -10.4355 -0.835938 -22.3115 -11.2783 -26.5234c-58.5352 -23.6084 -119.19 -45.416 -180.668 -57.8281c-2.95508 -12.793 -6.11426 -25.5039 -9.48438 -38.1475
c-19.6816 -73.8145 -43.6641 -132.554 -73.2988 -179.573c-26.2852 -41.6934 -71.2939 -96.1865 -136.453 -118.973c-16.3389 -5.71387 -32.2842 -8.54688 -47.4004 -8.54688c-23.1807 0 -44.4043 6.66504 -62.0889 19.8311
c-27.9902 20.8369 -47.7402 59.0381 -54.1943 104.814c-5.99902 42.5635 -0.217773 84.9434 5.48242 117.119c11.3799 64.1475 29.4922 124.945 51.3477 183.48c-6.67188 7.95508 -12.9971 16.624 -18.8398 26.0605c-31.8496 51.3887 -45.3828 120.305 -37.1348 189.071
c7.41211 61.8232 32.5557 123.219 70.791 172.868c29.9062 38.8262 64.9482 66.8506 101.336 81.043c42.5967 16.6104 88.4883 14.2393 125.915 -6.50879c43.582 -24.166 79.1406 -75.0312 97.5381 -139.565c13.8184 -48.4736 18.9951 -104.855 16.291 -177.427
c-2.28906 -61.3545 -9.19141 -122.22 -20.585 -181.808c52.7881 12.2285 105.264 31.3594 156.196 51.8975zM309.595 145.603c1.82031 6.82129 3.57324 13.6631 5.26465 20.5244c-45.668 -5.59766 -91.6211 -5.08105 -137.356 4.58691
c-33.7451 7.13379 -75.8535 21.7061 -113.09 51.3545c-18.3369 -51.2998 -33.46 -104.237 -43.2432 -159.41c-5.17676 -29.2002 -10.4551 -67.4424 -5.25098 -104.312c4.87109 -34.5537 19.1445 -63.6445 38.1738 -77.8164
c24.3086 -18.0918 55.3428 -11.21 71.6816 -5.49609c42.1758 14.749 83.1699 51.0547 115.427 102.232c27.4131 43.4941 49.7852 98.5576 68.3936 168.337zM347.538 400.309c2.54785 68.1621 -2.14062 120.503 -14.7568 164.737
c-15.4561 54.1943 -43.9219 96.1465 -78.1084 115.095c-27.1885 15.0684 -59.6221 16.5566 -91.3359 4.18555c-29.4854 -11.502 -58.4746 -34.9951 -83.8496 -67.9385c-33.8262 -43.9219 -56.0625 -98.2109 -62.6182 -152.854
c-7.05859 -58.875 4.64746 -119.714 31.3135 -162.746c0.577148 -0.9375 1.16797 -1.86133 1.75879 -2.77832c26.4414 64.3984 56.6123 126.283 86.3145 187.21c4.93262 10.1162 17.1279 14.3281 27.251 9.38867c10.1162 -4.93262 14.3213 -17.1348 9.38867 -27.251
c-32.4131 -66.4844 -65.4033 -134.144 -93.2031 -204.67c33.5752 -30.8711 74.2764 -45.335 106.234 -52.0879c45.5791 -9.63379 92.0488 -9.04297 138.546 -1.96387c12.9082 62.6523 20.6465 126.874 23.0654 191.673z" />
    <glyph glyph-name="O" unicode="&#xd5;" horiz-adv-x="519" 
d="M523.88 268.876c10.4492 4.21191 22.3232 -0.835938 26.5283 -11.2852c4.21191 -10.4355 -0.835938 -22.3115 -11.2783 -26.5234c-58.5352 -23.6084 -119.19 -45.416 -180.668 -57.8281c-2.95508 -12.793 -6.11426 -25.5039 -9.48438 -38.1475
c-19.6816 -73.8145 -43.6641 -132.554 -73.2988 -179.573c-26.2852 -41.6934 -71.2939 -96.1865 -136.453 -118.973c-16.3389 -5.71387 -32.2842 -8.54688 -47.4004 -8.54688c-23.1807 0 -44.4043 6.66504 -62.0889 19.8311
c-27.9902 20.8369 -47.7402 59.0381 -54.1943 104.814c-5.99902 42.5635 -0.217773 84.9434 5.48242 117.119c11.3799 64.1475 29.4922 124.945 51.3477 183.48c-6.67188 7.95508 -12.9971 16.624 -18.8398 26.0605c-31.8496 51.3887 -45.3828 120.305 -37.1348 189.071
c7.41211 61.8232 32.5557 123.219 70.791 172.868c29.9062 38.8262 64.9482 66.8506 101.336 81.043c42.5967 16.6104 88.4883 14.2393 125.915 -6.50879c43.582 -24.166 79.1406 -75.0312 97.5381 -139.565c13.8184 -48.4736 18.9951 -104.855 16.291 -177.427
c-2.28906 -61.3545 -9.19141 -122.22 -20.585 -181.808c52.7881 12.2285 105.264 31.3594 156.196 51.8975zM309.595 145.603c1.82031 6.82129 3.57324 13.6631 5.26465 20.5244c-45.668 -5.59766 -91.6211 -5.08105 -137.356 4.58691
c-33.7451 7.13379 -75.8535 21.7061 -113.09 51.3545c-18.3369 -51.2998 -33.46 -104.237 -43.2432 -159.41c-5.17676 -29.2002 -10.4551 -67.4424 -5.25098 -104.312c4.87109 -34.5537 19.1445 -63.6445 38.1738 -77.8164
c24.3086 -18.0918 55.3428 -11.21 71.6816 -5.49609c42.1758 14.749 83.1699 51.0547 115.427 102.232c27.4131 43.4941 49.7852 98.5576 68.3936 168.337zM347.538 400.309c2.54785 68.1621 -2.14062 120.503 -14.7568 164.737
c-15.4561 54.1943 -43.9219 96.1465 -78.1084 115.095c-27.1885 15.0684 -59.6221 16.5566 -91.3359 4.18555c-29.4854 -11.502 -58.4746 -34.9951 -83.8496 -67.9385c-33.8262 -43.9219 -56.0625 -98.2109 -62.6182 -152.854
c-7.05859 -58.875 4.64746 -119.714 31.3135 -162.746c0.577148 -0.9375 1.16797 -1.86133 1.75879 -2.77832c26.4414 64.3984 56.6123 126.283 86.3145 187.21c4.93262 10.1162 17.1279 14.3281 27.251 9.38867c10.1162 -4.93262 14.3213 -17.1348 9.38867 -27.251
c-32.4131 -66.4844 -65.4033 -134.144 -93.2031 -204.67c33.5752 -30.8711 74.2764 -45.335 106.234 -52.0879c45.5791 -9.63379 92.0488 -9.04297 138.546 -1.96387c12.9082 62.6523 20.6465 126.874 23.0654 191.673z" />
    <glyph glyph-name="O" unicode="&#xd4;" horiz-adv-x="519" 
d="M523.88 268.876c10.4492 4.21191 22.3232 -0.835938 26.5283 -11.2852c4.21191 -10.4355 -0.835938 -22.3115 -11.2783 -26.5234c-58.5352 -23.6084 -119.19 -45.416 -180.668 -57.8281c-2.95508 -12.793 -6.11426 -25.5039 -9.48438 -38.1475
c-19.6816 -73.8145 -43.6641 -132.554 -73.2988 -179.573c-26.2852 -41.6934 -71.2939 -96.1865 -136.453 -118.973c-16.3389 -5.71387 -32.2842 -8.54688 -47.4004 -8.54688c-23.1807 0 -44.4043 6.66504 -62.0889 19.8311
c-27.9902 20.8369 -47.7402 59.0381 -54.1943 104.814c-5.99902 42.5635 -0.217773 84.9434 5.48242 117.119c11.3799 64.1475 29.4922 124.945 51.3477 183.48c-6.67188 7.95508 -12.9971 16.624 -18.8398 26.0605c-31.8496 51.3887 -45.3828 120.305 -37.1348 189.071
c7.41211 61.8232 32.5557 123.219 70.791 172.868c29.9062 38.8262 64.9482 66.8506 101.336 81.043c42.5967 16.6104 88.4883 14.2393 125.915 -6.50879c43.582 -24.166 79.1406 -75.0312 97.5381 -139.565c13.8184 -48.4736 18.9951 -104.855 16.291 -177.427
c-2.28906 -61.3545 -9.19141 -122.22 -20.585 -181.808c52.7881 12.2285 105.264 31.3594 156.196 51.8975zM309.595 145.603c1.82031 6.82129 3.57324 13.6631 5.26465 20.5244c-45.668 -5.59766 -91.6211 -5.08105 -137.356 4.58691
c-33.7451 7.13379 -75.8535 21.7061 -113.09 51.3545c-18.3369 -51.2998 -33.46 -104.237 -43.2432 -159.41c-5.17676 -29.2002 -10.4551 -67.4424 -5.25098 -104.312c4.87109 -34.5537 19.1445 -63.6445 38.1738 -77.8164
c24.3086 -18.0918 55.3428 -11.21 71.6816 -5.49609c42.1758 14.749 83.1699 51.0547 115.427 102.232c27.4131 43.4941 49.7852 98.5576 68.3936 168.337zM347.538 400.309c2.54785 68.1621 -2.14062 120.503 -14.7568 164.737
c-15.4561 54.1943 -43.9219 96.1465 -78.1084 115.095c-27.1885 15.0684 -59.6221 16.5566 -91.3359 4.18555c-29.4854 -11.502 -58.4746 -34.9951 -83.8496 -67.9385c-33.8262 -43.9219 -56.0625 -98.2109 -62.6182 -152.854
c-7.05859 -58.875 4.64746 -119.714 31.3135 -162.746c0.577148 -0.9375 1.16797 -1.86133 1.75879 -2.77832c26.4414 64.3984 56.6123 126.283 86.3145 187.21c4.93262 10.1162 17.1279 14.3281 27.251 9.38867c10.1162 -4.93262 14.3213 -17.1348 9.38867 -27.251
c-32.4131 -66.4844 -65.4033 -134.144 -93.2031 -204.67c33.5752 -30.8711 74.2764 -45.335 106.234 -52.0879c45.5791 -9.63379 92.0488 -9.04297 138.546 -1.96387c12.9082 62.6523 20.6465 126.874 23.0654 191.673z" />
    <glyph glyph-name="O" unicode="&#xd3;" horiz-adv-x="519" 
d="M523.88 268.876c10.4492 4.21191 22.3232 -0.835938 26.5283 -11.2852c4.21191 -10.4355 -0.835938 -22.3115 -11.2783 -26.5234c-58.5352 -23.6084 -119.19 -45.416 -180.668 -57.8281c-2.95508 -12.793 -6.11426 -25.5039 -9.48438 -38.1475
c-19.6816 -73.8145 -43.6641 -132.554 -73.2988 -179.573c-26.2852 -41.6934 -71.2939 -96.1865 -136.453 -118.973c-16.3389 -5.71387 -32.2842 -8.54688 -47.4004 -8.54688c-23.1807 0 -44.4043 6.66504 -62.0889 19.8311
c-27.9902 20.8369 -47.7402 59.0381 -54.1943 104.814c-5.99902 42.5635 -0.217773 84.9434 5.48242 117.119c11.3799 64.1475 29.4922 124.945 51.3477 183.48c-6.67188 7.95508 -12.9971 16.624 -18.8398 26.0605c-31.8496 51.3887 -45.3828 120.305 -37.1348 189.071
c7.41211 61.8232 32.5557 123.219 70.791 172.868c29.9062 38.8262 64.9482 66.8506 101.336 81.043c42.5967 16.6104 88.4883 14.2393 125.915 -6.50879c43.582 -24.166 79.1406 -75.0312 97.5381 -139.565c13.8184 -48.4736 18.9951 -104.855 16.291 -177.427
c-2.28906 -61.3545 -9.19141 -122.22 -20.585 -181.808c52.7881 12.2285 105.264 31.3594 156.196 51.8975zM309.595 145.603c1.82031 6.82129 3.57324 13.6631 5.26465 20.5244c-45.668 -5.59766 -91.6211 -5.08105 -137.356 4.58691
c-33.7451 7.13379 -75.8535 21.7061 -113.09 51.3545c-18.3369 -51.2998 -33.46 -104.237 -43.2432 -159.41c-5.17676 -29.2002 -10.4551 -67.4424 -5.25098 -104.312c4.87109 -34.5537 19.1445 -63.6445 38.1738 -77.8164
c24.3086 -18.0918 55.3428 -11.21 71.6816 -5.49609c42.1758 14.749 83.1699 51.0547 115.427 102.232c27.4131 43.4941 49.7852 98.5576 68.3936 168.337zM347.538 400.309c2.54785 68.1621 -2.14062 120.503 -14.7568 164.737
c-15.4561 54.1943 -43.9219 96.1465 -78.1084 115.095c-27.1885 15.0684 -59.6221 16.5566 -91.3359 4.18555c-29.4854 -11.502 -58.4746 -34.9951 -83.8496 -67.9385c-33.8262 -43.9219 -56.0625 -98.2109 -62.6182 -152.854
c-7.05859 -58.875 4.64746 -119.714 31.3135 -162.746c0.577148 -0.9375 1.16797 -1.86133 1.75879 -2.77832c26.4414 64.3984 56.6123 126.283 86.3145 187.21c4.93262 10.1162 17.1279 14.3281 27.251 9.38867c10.1162 -4.93262 14.3213 -17.1348 9.38867 -27.251
c-32.4131 -66.4844 -65.4033 -134.144 -93.2031 -204.67c33.5752 -30.8711 74.2764 -45.335 106.234 -52.0879c45.5791 -9.63379 92.0488 -9.04297 138.546 -1.96387c12.9082 62.6523 20.6465 126.874 23.0654 191.673z" />
    <glyph glyph-name="P" unicode="P" horiz-adv-x="544" 
d="M571.958 240.11c1.28418 -11.1826 -6.74023 -21.29 -17.9229 -22.5947c-71.1787 -8.17969 -173.419 6.18262 -228.034 15.4766c-138.532 23.5674 -149.049 37.3926 -151.236 49.2412c-11.6172 -36.3262 -22.0186 -72.1494 -31.5977 -106.587
c-11.1074 -39.9609 -21.8691 -80.9551 -32.2773 -120.597c-26.6992 -101.71 -54.3096 -206.885 -90.833 -306.108c-4.00879 -10.8975 -13.2686 -30.0156 -30.1924 -35.6201c-3.09082 -1.01953 -6.22266 -1.5293 -9.33398 -1.5293
c-5.63867 0 -11.1826 1.6709 -16.1963 4.93848c-9.88477 6.44727 -14.043 16.9102 -16.5635 25.3076c-10.333 34.3906 -8.28809 71.8242 -5.56348 104.21c5.00684 59.5273 13.3018 122.139 26.8896 203.012c22.2227 132.262 84.2979 382.498 125.373 548.09
c14.1855 57.1768 26.4346 106.561 33.792 137.941c2.56152 10.958 13.5332 17.7588 24.4912 15.1904s17.7588 -13.5332 15.1904 -24.4912c-7.41895 -31.6387 -19.6953 -81.1387 -33.915 -138.458c-40.9258 -164.98 -102.77 -414.312 -124.733 -545.025
c-13.3975 -79.7256 -21.5635 -141.305 -26.4756 -199.677c-2.10645 -25.0352 -3.68262 -51.1777 0.678711 -75.167c35.0225 96.0508 61.9258 198.562 87.9668 297.745c10.4424 39.7842 21.2373 80.9209 32.4336 121.174c36.3262 130.631 84.4199 281.046 165.667 406.276
c45.9736 70.8594 92.6475 114.271 142.697 132.71c36.7344 13.5332 71.6611 5.91016 93.4424 -20.3955c26.9648 -32.5762 27.8545 -87.6328 2.50684 -155.041c-38.1406 -101.432 -132.486 -217.021 -245.331 -263.314c75.248 -16.9365 207.149 -37.9092 286.501 -28.7852
c11.1621 1.27051 21.292 -6.73242 22.5762 -17.9219zM181.762 303.723c3.26074 2.76465 7.58887 4.8291 13.0107 5.70508c124.034 20.0146 234.406 146.346 275.284 255.054c19.3965 51.5986 20.9863 94.4746 4.24609 114.7
c-7.71094 9.31445 -17.6709 12.2021 -27.0596 12.2021c-7.94922 0 -15.4834 -2.07227 -20.8916 -4.0625c-41.4824 -15.2861 -81.5859 -53.4404 -122.594 -116.65c-52.9912 -81.6748 -91.5801 -175.348 -121.996 -266.948z" />
    <glyph glyph-name="Q" unicode="Q" horiz-adv-x="519" 
d="M274.925 -44.4746c-24.1455 -38.3105 -64.1426 -87.3398 -121.014 -112.742c34.3633 -2.18066 62.8975 -3.2334 73.7744 -2.85938c11.1211 0.333008 20.666 -8.45801 21.0332 -19.709s-8.45801 -20.667 -19.709 -21.0342
c-1.05957 -0.0341797 -2.4248 -0.0546875 -4.06934 -0.0546875c-37.8682 0 -225.01 9.18555 -270.352 30.8984c-10.1504 4.85742 -14.4443 17.0322 -9.58008 27.1826c4.85742 10.1504 17.0254 14.4375 27.1816 9.58008c8.28125 -3.96777 25.5234 -7.63672 47.3184 -10.918
c-22.9424 21.8691 -39.0234 56.3613 -44.7236 96.7773c-5.99902 42.584 -0.224609 84.9639 5.48242 117.126c11.3799 64.1338 29.4922 124.938 51.3477 183.474c-6.67188 7.95508 -12.9902 16.624 -18.8398 26.0605c-31.8428 51.3887 -45.376 120.298 -37.1279 189.071
c7.41211 61.8232 32.5557 123.219 70.791 172.868c29.8994 38.8193 64.9414 66.8438 101.336 81.043c42.5771 16.6172 88.4756 14.2461 125.909 -6.50879c43.5889 -24.166 79.1406 -75.0381 97.5381 -139.565c13.8184 -48.4805 18.9951 -104.855 16.291 -177.427
c-2.28906 -61.3545 -9.19141 -122.22 -20.585 -181.809c52.7881 12.2285 105.271 31.3594 156.203 51.8975c10.4287 4.21191 22.3115 -0.835938 26.5234 -11.2783c4.21191 -10.4355 -0.835938 -22.3115 -11.2783 -26.5234
c-58.5283 -23.6084 -119.19 -45.4102 -180.668 -57.8291c-2.95508 -12.7861 -6.11426 -25.5107 -9.48438 -38.1475c-19.6885 -73.8213 -43.6641 -132.561 -73.2988 -179.573zM16.1201 463.533c-7.05859 -58.875 4.64648 -119.72 31.3057 -162.731
c0.577148 -0.9375 1.16797 -1.86816 1.75879 -2.78516c26.4414 64.3916 56.6191 126.297 86.3145 187.217c4.93262 10.123 17.1279 14.3213 27.251 9.38867c10.1162 -4.93262 14.3213 -17.1348 9.38867 -27.251c-32.4131 -66.4844 -65.3965 -134.144 -93.2031 -204.67
c33.5752 -30.8643 74.2832 -45.335 106.241 -52.0879c45.5791 -9.64062 92.0557 -9.0498 138.539 -1.96387c12.9082 62.6523 20.6465 126.874 23.0654 191.673c2.54785 68.1553 -2.14648 120.502 -14.7559 164.729c-15.4492 54.1875 -43.9219 96.1328 -78.1084 115.088
c-27.1816 15.0684 -59.6221 16.5566 -91.3291 4.18555c-29.4854 -11.502 -58.4814 -34.9951 -83.8496 -67.9385c-33.8262 -43.9219 -56.0625 -98.2109 -62.6182 -152.854zM125.023 -124.965c42.1689 14.749 83.1631 51.0547 115.427 102.239
c27.4131 43.4873 49.7852 98.5508 68.3936 168.337c1.82031 6.81445 3.57324 13.6562 5.26465 20.5244c-45.668 -5.59082 -91.6211 -5.08105 -137.356 4.58691c-33.752 7.12695 -75.8535 21.6992 -113.09 51.3477c-18.3428 -51.3066 -33.459 -104.23 -43.2422 -159.41
c-5.18359 -29.1865 -10.4561 -67.4219 -5.25879 -104.312c4.87109 -34.5537 19.1445 -63.6445 38.1738 -77.8096c24.3086 -18.1055 55.3496 -11.2168 71.6885 -5.50293z" />
    <glyph glyph-name="R" unicode="R" horiz-adv-x="545" 
d="M412.271 725.568c36.7412 13.5264 71.668 5.91309 93.4561 -20.4131c26.9648 -32.5762 27.8545 -87.6328 2.50684 -155.041c-43.7383 -116.323 -161.4 -251.255 -296.094 -278.96c-9.00195 -51.7344 5.60449 -295.17 60.0088 -388.021
c7.02441 -11.9844 17.8535 -26.5635 29.9668 -28.873c26.2715 8.07129 88.584 137.758 125.923 215.465c65.6826 136.698 91.3496 184.839 121.357 188.29c11.1689 1.27051 21.292 -6.73242 22.5762 -17.9219c1.19531 -10.4355 -5.70703 -19.9404 -15.7275 -22.2031
c-17.3584 -11.5967 -60.1318 -100.609 -91.4648 -165.823c-81.9463 -170.531 -122.587 -244.631 -167.433 -238.326c-120.597 16.8896 -127.954 399.149 -127.995 403.008c-0.244141 22.9023 0.238281 40.4775 1.73926 53.8477
c-10.1504 -32.3389 -19.3623 -64.1953 -27.916 -94.9512c-11.1143 -39.9678 -21.876 -80.9688 -32.2842 -120.617c-26.6992 -101.703 -54.3027 -206.871 -90.8262 -306.088c-4.01465 -10.8975 -13.2744 -30.0156 -30.1982 -35.6201
c-3.09082 -1.02539 -6.22266 -1.52832 -9.33398 -1.52832c-5.63184 0 -11.1826 1.66406 -16.1963 4.93848c-9.88477 6.44727 -14.043 16.9102 -16.5635 25.3076c-10.333 34.3838 -8.28809 71.8242 -5.56348 104.21c5.01367 59.5342 13.3086 122.146 26.8965 203.012
c22.2158 132.228 84.2773 382.43 125.346 547.987c14.1924 57.2246 26.4551 106.643 33.8125 138.044c2.56152 10.958 13.5059 17.7588 24.4912 15.1904c10.958 -2.56836 17.7588 -13.5332 15.1904 -24.4912c-7.41895 -31.6592 -19.709 -81.1924 -33.9355 -138.553
c-40.9121 -164.953 -102.749 -414.238 -124.707 -544.931c-13.3906 -79.7188 -21.5566 -141.298 -26.4756 -199.677c-2.10645 -25.0283 -3.68945 -51.1777 0.678711 -75.167c35.0156 96.0439 61.9189 198.542 87.9531 297.725
c10.4424 39.791 21.2441 80.9346 32.4404 121.194c36.333 130.631 84.4268 281.053 165.674 406.276c45.9736 70.8594 92.6475 114.271 142.697 132.71zM470.065 564.483c19.4033 51.5986 20.9854 94.4746 4.23828 114.706
c-7.7041 9.31445 -17.6709 12.2021 -27.0527 12.2021c-7.94922 0 -15.4834 -2.07227 -20.8916 -4.0625c-41.4824 -15.2861 -81.5791 -53.4404 -122.593 -116.65c-53.2432 -82.0693 -91.9541 -176.259 -122.438 -268.287c3.52637 4.00195 7.95605 6.14844 13.4521 7.03809
c124.041 20.0146 234.413 146.346 275.284 255.054z" />
    <glyph glyph-name="S" unicode="S" horiz-adv-x="465" 
d="M17.2246 498.52c42.8076 87.1914 102.765 160.682 173.379 212.519c59.5479 43.7041 117.329 64.248 171.822 61.0684c45.8105 -2.68359 106.73 -29.3428 127.621 -95.6504c21.9238 -69.6025 -13.4043 -139.585 -29.6143 -166.44
c-5.80859 -9.64062 -18.3428 -12.7383 -27.9766 -6.92285c-9.64062 5.82227 -12.7383 18.3428 -6.92285 27.9834c27.7998 46.0684 37.3789 95.833 25.6328 133.131c-14.6611 46.5303 -58.25 65.2812 -91.125 67.2041c-44.7783 2.62891 -93.6328 -15.293 -145.313 -53.2363
c-65.3496 -47.9707 -120.998 -116.31 -160.925 -197.624c-25.7148 -52.3867 -41.0625 -103.286 -45.6006 -151.284c-5.3125 -56.0967 4.59277 -110.937 27.1758 -150.463c23.5742 -41.2588 59.6904 -66.8037 97.9189 -93.8428
c17.5352 -12.3984 35.6201 -25.1914 52.6797 -39.7441c16.0674 17.2695 32.4746 33.0791 48.2842 47.6855c71.9873 66.5244 149.301 125.019 229.794 173.866c9.62012 5.84277 22.1611 2.77148 27.9971 -6.84863c5.84277 -9.62012 2.77832 -22.1543 -6.84863 -27.9971
c-78.1631 -47.4346 -153.282 -104.278 -223.271 -168.955c-15.4287 -14.2598 -31.4482 -29.6953 -47.0469 -46.5508c20.9316 -24.8516 39.0166 -57.6992 39.7979 -97.4229c0.719727 -36.6455 -14.2744 -75.085 -42.2305 -108.238
c-21.1357 -25.0693 -45.7969 -38.3311 -68.3047 -38.3311c-12.3447 -0.00683594 -24.0303 3.98828 -34.1465 12.2021c-17.5078 14.2266 -27.834 40.8789 -26.9512 69.5488c0.794922 25.959 10.0615 49.6084 16.957 65.1387c15.9111 35.8174 36.6318 67.2383 59.2148 95.1543
c-15.5039 13.207 -32.0264 24.8926 -49.4521 37.2168c-40.1787 28.418 -81.7227 57.8008 -109.774 106.906c-27.0459 47.332 -38.541 109.312 -32.3652 174.519c5.00684 52.9307 21.6924 108.579 49.5947 165.409zM187.88 -14.9941
c-19.4375 -24.5322 -37.0859 -51.7617 -50.6191 -82.2256c-8.86621 -19.9668 -13.0244 -35.3408 -13.4658 -49.8457c-0.475586 -15.5039 4.42285 -30.5791 11.916 -36.666c12.208 -9.93262 33.9551 6.97754 45.5791 20.7686c12.4941 14.8174 33.3447 45.0703 32.6377 81.166
c-0.509766 25.9521 -11.8896 48.5752 -26.0479 66.8027z" />
    <glyph glyph-name="T" unicode="T" horiz-adv-x="376" 
d="M-10.5996 724.346c41.0684 -7.33008 298.838 23.0273 470.83 43.2861c323.127 38.0518 324.859 36.0068 336.008 22.7051c4.59277 -5.46875 6.10059 -12.8125 4.04199 -19.6406c-3.24023 -10.7822 -14.6133 -16.8896 -25.3955 -13.6357
c-1.20898 0.367188 -2.36426 0.835938 -3.45117 1.39258c-28.9619 1.37207 -176.034 -15.9521 -306.428 -31.3057c-51.001 -6.00586 -102.756 -12.0928 -152.758 -17.7793c-16.1758 -51.1846 -44.0234 -132.126 -75.9199 -224.807
c-75.3701 -219.039 -178.602 -519.02 -188.412 -607.095c-1.96387 -17.5957 -2.63672 -31.9102 0.460938 -44.5537c2.78516 -11.3662 8.97461 -18.5205 12.1816 -19.1182c0.618164 -0.108398 4.15137 -0.386719 12.4668 5.38086
c17.3379 12.0322 32.0732 31.8428 45.6748 51.1104c35.9795 50.9531 69.8125 106.275 102.531 159.776c47.3457 77.4082 96.3018 157.453 153.343 227.123c7.13379 8.70996 19.9668 9.99414 28.6836 2.86035c8.70996 -7.13379 9.9873 -19.9736 2.86035 -28.6836
c-55.2744 -67.5029 -103.483 -146.338 -150.109 -222.571c-33.0654 -54.0654 -67.252 -109.965 -104.007 -162.019c-15.7002 -22.2432 -32.9424 -45.2744 -55.7285 -61.0908c-12.2764 -8.51953 -23.8057 -12.7178 -34.9883 -12.7178
c-2.74512 0 -5.46973 0.257812 -8.18066 0.760742c-20.4834 3.81152 -37.8818 23.2354 -44.3154 49.4863c-4.79688 19.5664 -3.49902 39.8115 -1.38574 58.7734c10.3125 92.5518 110.154 382.701 190.382 615.837c28.4121 82.5654 53.6035 155.775 70.0645 206.559
c-46.1162 -5.10254 -89.9971 -9.70898 -129.415 -13.3711c-51.0957 -4.74902 -89.0254 -7.3916 -115.963 -8.07129c-5.46875 -0.135742 -10.9717 -0.27832 -16.3389 -0.27832c-25.0078 0 -47.1758 3.02344 -49.9404 23.2422
c-1.53516 11.1484 6.27051 21.4277 17.4258 22.9561c5.86328 0.81543 11.5361 -0.985352 15.7822 -4.51172z" />
    <glyph glyph-name="U" unicode="U" horiz-adv-x="593" 
d="M287.842 789.559c-14.7764 -43.168 -44.001 -115.98 -77.8477 -200.285c-88.5029 -220.473 -253.239 -630.852 -219.624 -704.429c0.523438 -1.15527 1.56934 -3.13867 2.63574 -3.50586c4.71484 -1.63086 9.55176 -1.19629 12.9287 1.16797
c99.1826 69.4053 284.361 429.354 383.843 622.733c71.5791 139.13 71.5791 139.13 86.9062 140.462c6.99121 0.583984 14.1318 -2.56836 18.3643 -8.15332c10.666 -14.0967 9.55176 -32.542 7.78516 -45.1924c-3.57324 -25.6055 -37.6309 -115.793 -92.8984 -260.827
c-40.6133 -106.574 -82.6055 -216.776 -103.36 -281.678c-12.9014 -40.3486 -25.9795 -83.4893 -31.6934 -128.328c-5 -39.2344 1.25684 -58.4541 8.78418 -63.3525c5.27832 -3.43066 13.2539 -8.62109 52.8613 35.7354c45.5322 51.0078 120.44 154.831 250.46 347.17
c6.30469 9.32129 18.9756 11.7734 28.3037 5.46875c9.32129 -6.30469 11.7734 -18.9756 5.46875 -28.3037c-131.093 -193.929 -207.007 -299.042 -253.823 -351.483c-28.7305 -32.1758 -52.3594 -52.2246 -76.6543 -52.2246c-9.40918 0 -18.9209 3.00977 -28.8672 9.48438
c-24.5459 15.9795 -33.6221 50.5195 -26.9775 102.662c6.15527 48.2559 19.8242 93.4414 33.3027 135.59c21.0879 65.9609 63.291 176.693 104.095 283.777c16.9912 44.5742 34.9131 91.6074 50.3076 133.009c-138.98 -269.958 -294.612 -561.208 -392.837 -629.947
c-14.0361 -9.81738 -32.5762 -12.1748 -49.5811 -6.31152c-8.09863 2.79199 -19.2607 9.41602 -26.4277 25.1025c-37.8076 82.7412 76.7559 382.524 218.868 736.556c33.6357 83.7812 62.6797 156.135 77.1094 198.304c3.64844 10.6455 15.2188 16.3389 25.8848 12.6836
c10.6523 -3.64844 16.332 -15.2314 12.6836 -25.8838z" />
    <glyph glyph-name="U" unicode="&#xdc;" horiz-adv-x="593" 
d="M287.842 789.559c-14.7764 -43.168 -44.001 -115.98 -77.8477 -200.285c-88.5029 -220.473 -253.239 -630.852 -219.624 -704.429c0.523438 -1.15527 1.56934 -3.13867 2.63574 -3.50586c4.71484 -1.63086 9.55176 -1.19629 12.9287 1.16797
c99.1826 69.4053 284.361 429.354 383.843 622.733c71.5791 139.13 71.5791 139.13 86.9062 140.462c6.99121 0.583984 14.1318 -2.56836 18.3643 -8.15332c10.666 -14.0967 9.55176 -32.542 7.78516 -45.1924c-3.57324 -25.6055 -37.6309 -115.793 -92.8984 -260.827
c-40.6133 -106.574 -82.6055 -216.776 -103.36 -281.678c-12.9014 -40.3486 -25.9795 -83.4893 -31.6934 -128.328c-5 -39.2344 1.25684 -58.4541 8.78418 -63.3525c5.27832 -3.43066 13.2539 -8.62109 52.8613 35.7354c45.5322 51.0078 120.44 154.831 250.46 347.17
c6.30469 9.32129 18.9756 11.7734 28.3037 5.46875c9.32129 -6.30469 11.7734 -18.9756 5.46875 -28.3037c-131.093 -193.929 -207.007 -299.042 -253.823 -351.483c-28.7305 -32.1758 -52.3594 -52.2246 -76.6543 -52.2246c-9.40918 0 -18.9209 3.00977 -28.8672 9.48438
c-24.5459 15.9795 -33.6221 50.5195 -26.9775 102.662c6.15527 48.2559 19.8242 93.4414 33.3027 135.59c21.0879 65.9609 63.291 176.693 104.095 283.777c16.9912 44.5742 34.9131 91.6074 50.3076 133.009c-138.98 -269.958 -294.612 -561.208 -392.837 -629.947
c-14.0361 -9.81738 -32.5762 -12.1748 -49.5811 -6.31152c-8.09863 2.79199 -19.2607 9.41602 -26.4277 25.1025c-37.8076 82.7412 76.7559 382.524 218.868 736.556c33.6357 83.7812 62.6797 156.135 77.1094 198.304c3.64844 10.6455 15.2188 16.3389 25.8848 12.6836
c10.6523 -3.64844 16.332 -15.2314 12.6836 -25.8838z" />
    <glyph glyph-name="U" unicode="&#xdb;" horiz-adv-x="593" 
d="M287.842 789.559c-14.7764 -43.168 -44.001 -115.98 -77.8477 -200.285c-88.5029 -220.473 -253.239 -630.852 -219.624 -704.429c0.523438 -1.15527 1.56934 -3.13867 2.63574 -3.50586c4.71484 -1.63086 9.55176 -1.19629 12.9287 1.16797
c99.1826 69.4053 284.361 429.354 383.843 622.733c71.5791 139.13 71.5791 139.13 86.9062 140.462c6.99121 0.583984 14.1318 -2.56836 18.3643 -8.15332c10.666 -14.0967 9.55176 -32.542 7.78516 -45.1924c-3.57324 -25.6055 -37.6309 -115.793 -92.8984 -260.827
c-40.6133 -106.574 -82.6055 -216.776 -103.36 -281.678c-12.9014 -40.3486 -25.9795 -83.4893 -31.6934 -128.328c-5 -39.2344 1.25684 -58.4541 8.78418 -63.3525c5.27832 -3.43066 13.2539 -8.62109 52.8613 35.7354c45.5322 51.0078 120.44 154.831 250.46 347.17
c6.30469 9.32129 18.9756 11.7734 28.3037 5.46875c9.32129 -6.30469 11.7734 -18.9756 5.46875 -28.3037c-131.093 -193.929 -207.007 -299.042 -253.823 -351.483c-28.7305 -32.1758 -52.3594 -52.2246 -76.6543 -52.2246c-9.40918 0 -18.9209 3.00977 -28.8672 9.48438
c-24.5459 15.9795 -33.6221 50.5195 -26.9775 102.662c6.15527 48.2559 19.8242 93.4414 33.3027 135.59c21.0879 65.9609 63.291 176.693 104.095 283.777c16.9912 44.5742 34.9131 91.6074 50.3076 133.009c-138.98 -269.958 -294.612 -561.208 -392.837 -629.947
c-14.0361 -9.81738 -32.5762 -12.1748 -49.5811 -6.31152c-8.09863 2.79199 -19.2607 9.41602 -26.4277 25.1025c-37.8076 82.7412 76.7559 382.524 218.868 736.556c33.6357 83.7812 62.6797 156.135 77.1094 198.304c3.64844 10.6455 15.2188 16.3389 25.8848 12.6836
c10.6523 -3.64844 16.332 -15.2314 12.6836 -25.8838z" />
    <glyph glyph-name="U" unicode="&#xda;" horiz-adv-x="593" 
d="M287.842 789.559c-14.7764 -43.168 -44.001 -115.98 -77.8477 -200.285c-88.5029 -220.473 -253.239 -630.852 -219.624 -704.429c0.523438 -1.15527 1.56934 -3.13867 2.63574 -3.50586c4.71484 -1.63086 9.55176 -1.19629 12.9287 1.16797
c99.1826 69.4053 284.361 429.354 383.843 622.733c71.5791 139.13 71.5791 139.13 86.9062 140.462c6.99121 0.583984 14.1318 -2.56836 18.3643 -8.15332c10.666 -14.0967 9.55176 -32.542 7.78516 -45.1924c-3.57324 -25.6055 -37.6309 -115.793 -92.8984 -260.827
c-40.6133 -106.574 -82.6055 -216.776 -103.36 -281.678c-12.9014 -40.3486 -25.9795 -83.4893 -31.6934 -128.328c-5 -39.2344 1.25684 -58.4541 8.78418 -63.3525c5.27832 -3.43066 13.2539 -8.62109 52.8613 35.7354c45.5322 51.0078 120.44 154.831 250.46 347.17
c6.30469 9.32129 18.9756 11.7734 28.3037 5.46875c9.32129 -6.30469 11.7734 -18.9756 5.46875 -28.3037c-131.093 -193.929 -207.007 -299.042 -253.823 -351.483c-28.7305 -32.1758 -52.3594 -52.2246 -76.6543 -52.2246c-9.40918 0 -18.9209 3.00977 -28.8672 9.48438
c-24.5459 15.9795 -33.6221 50.5195 -26.9775 102.662c6.15527 48.2559 19.8242 93.4414 33.3027 135.59c21.0879 65.9609 63.291 176.693 104.095 283.777c16.9912 44.5742 34.9131 91.6074 50.3076 133.009c-138.98 -269.958 -294.612 -561.208 -392.837 -629.947
c-14.0361 -9.81738 -32.5762 -12.1748 -49.5811 -6.31152c-8.09863 2.79199 -19.2607 9.41602 -26.4277 25.1025c-37.8076 82.7412 76.7559 382.524 218.868 736.556c33.6357 83.7812 62.6797 156.135 77.1094 198.304c3.64844 10.6455 15.2188 16.3389 25.8848 12.6836
c10.6523 -3.64844 16.332 -15.2314 12.6836 -25.8838z" />
    <glyph glyph-name="V" unicode="V" horiz-adv-x="492" 
d="M-10.7598 -128.031c-62.9922 94.1484 13.1279 452.793 96.4746 812.076c8.28809 35.708 15.8838 68.4404 22.3037 97.002c2.46582 10.9854 13.3975 17.8809 24.3555 15.415c10.9854 -2.47266 17.8877 -13.377 15.415 -24.3555
c-6.44043 -28.6357 -14.0566 -61.4629 -22.3652 -97.2666c-56.1846 -242.138 -160.762 -692.845 -102.321 -780.186c4.89844 -7.32324 9.46387 -8.83105 12.4736 -9.32715c10.6123 -1.74609 20.9121 4.00098 27.6719 9.12988c23.6016 17.915 43.3779 45.5254 59.6152 70.166
c42.9639 65.2002 80.1396 138.798 114.537 208.591c15.6533 31.7539 31.4287 64.1533 46.7695 97.2188c-16.6992 20.9385 -31.0342 44.9072 -42.1758 71.3965c-44.54 105.868 -37.4199 241.602 18.1191 345.798c25.2998 47.4688 55.4502 78.3193 89.6162 91.7031
c17.8945 7.01074 34.1924 7.52051 48.4053 1.51465c37.0742 -15.6602 44.6426 -65.9141 45.8516 -94.4756c2.73145 -64.5 -11.8008 -127.247 -22.9697 -168.832c-22.5215 -83.8623 -54.2549 -163.812 -88.8145 -240.167c43.4873 -44.5605 99.9912 -66.79 153.166 -55.8994
c11.0469 2.24902 21.8018 -4.85742 24.0576 -15.8838c2.2627 -11.0332 -4.85059 -21.8018 -15.877 -24.0576c-62.3535 -12.7451 -127.771 9.74902 -179.376 56.7891c-13.2686 -28.2012 -26.7812 -55.9131 -40.1992 -83.1357
c-34.9609 -70.9473 -72.8027 -145.835 -117.058 -212.998c-18.1328 -27.5215 -40.5117 -58.5762 -69.0049 -80.208c-15.4424 -11.7266 -31.9238 -17.7598 -48.2354 -17.7598c-3.58008 0 -7.16016 0.291992 -10.7129 0.875977
c-15.9854 2.63574 -29.7227 11.9297 -39.7227 26.876zM279.576 357.623c6.73926 -16.0059 14.791 -30.9434 23.9014 -44.6465c30.4971 68.957 58.1748 140.679 78.1689 215.125c10.4756 38.9961 24.1104 97.6465 21.6172 156.535
c-1.27051 29.8447 -9.89844 53.9629 -20.9863 58.6436c-1.48828 0.631836 -3.2207 0.944336 -5.19043 0.944336c-3.44434 0 -7.61621 -0.958008 -12.4805 -2.86035c-24.5049 -9.59961 -48.2012 -34.8184 -68.5078 -72.918
c-49.2344 -92.3613 -55.8721 -217.272 -16.5225 -310.823z" />
    <glyph glyph-name="W" unicode="W" horiz-adv-x="625" 
d="M283.127 -171.295c-27.2363 0 -48.0234 25.8789 -55.626 69.2979c-14.3691 81.8379 -0.618164 165.279 14.7354 236.104c15.0283 69.3037 34.0166 137.73 56.5586 203.882c-43.8271 -80.4385 -79.7188 -168.73 -114.68 -254.747
c-24.0225 -59.0928 -48.8604 -120.196 -76.0762 -178.398c-12.2012 -26.0742 -25.9111 -53.0322 -47.5498 -70.9678c-12.6572 -10.4893 -26.3535 -15.9512 -39.5469 -15.9512c-3.87207 0 -7.69727 0.46875 -11.4404 1.41992
c-20.5918 5.22461 -37.624 25.3545 -44.4453 52.5361c-5.03418 20.0215 -4.40234 40.4502 -3.24707 61.3613c8.67578 156.502 33.4531 312.549 57.415 463.459c17.0996 107.682 34.7773 219.025 46.3877 329.315c1.17578 11.1963 11.2373 19.3281 22.3994 18.1328
c11.1963 -1.17578 19.3076 -11.2031 18.1318 -22.3994c-11.7197 -111.357 -29.4854 -223.237 -46.667 -331.442c-23.7988 -149.898 -48.4062 -304.905 -56.9668 -459.328c-1.01953 -18.3301 -1.56348 -34.6826 2.07812 -49.1807
c3.21387 -12.8135 10.1162 -21.7334 14.9326 -22.9561c3.42383 -0.856445 9.1377 1.5957 14.9395 6.40527c15.1436 12.5547 26.4014 34.9746 36.6396 56.8574c26.7744 57.251 51.4092 117.865 75.2354 176.482c45.5859 112.159 92.7217 228.129 157.596 327.862
c7.79883 11.998 22.3311 34.3223 45.5654 39.207c6.54883 1.37891 13.3496 -0.550781 18.2139 -5.15039c4.85059 -4.60645 7.13965 -11.2979 6.12012 -17.9082c-4.40918 -28.6016 -13.9404 -54.7646 -23.1465 -80.0713l-2.87402 -7.9082
c-26.666 -73.8145 -48.793 -150.91 -65.7637 -229.154c-14.5117 -66.96 -27.5762 -145.517 -14.417 -220.418c4.09668 -23.3779 12.6641 -34.7852 15.5518 -35.6006c0.3125 0.0410156 2.62207 0.46875 9.20508 5.64551c23.3369 18.3301 42.6582 45.0293 60.0703 71.1514
c35.7764 53.7051 69.8945 114.333 110.609 196.593c20.1094 40.6338 37.7119 78.251 53.2354 113.911c-43.2695 39.0713 -74.0391 95.9961 -82.2598 159.464c-6.0127 46.4766 -0.801758 98.4355 15.4902 154.43c13.9541 47.9102 32.793 88.4961 56.0146 120.631
c20.3203 28.1191 41.082 42.4199 63.4951 43.7109c27.7324 1.55566 55.0098 -18.5674 69.3311 -51.3945c9.60645 -22.0254 13.8389 -48.6162 13.3223 -83.6787c-1.03223 -69.7861 -18.6143 -136.338 -31.7471 -180.321
c-14.5049 -48.5352 -31.9512 -97.3008 -53.7725 -149.749c19.0635 -12.6504 39.9883 -21.2715 61.7285 -24.6484c11.1279 -1.72559 18.7441 -12.1475 17.0186 -23.2686c-1.73242 -11.1279 -12.1953 -18.7441 -23.2695 -17.0117
c-25.4023 3.94727 -49.6631 13.2207 -71.8379 26.7539c-14.8311 -33.6426 -31.4619 -69.0039 -50.2197 -106.899c-41.5166 -83.876 -76.4365 -145.903 -113.225 -201.109c-19.2871 -28.9414 -40.9658 -58.7324 -68.793 -80.5947
c-8.43066 -6.6377 -19.9395 -14.2676 -34.1729 -14.3555h-0.277344zM474.477 421.451c6.17578 -47.7402 28.1553 -91.7422 58.9785 -124.033c18.9951 46.6328 34.458 90.3711 47.4346 133.838c19.7695 66.2051 29.3213 119.991 30.0479 169.26
c0.43457 29.0498 -2.71777 50.2598 -9.92578 66.7686c-6.90918 15.8291 -18.9277 27.0254 -28.874 27.0254c-0.250977 0 -0.495117 -0.00683594 -0.746094 -0.0205078c-6.35938 -0.367188 -17.2227 -5.32617 -32.7939 -26.8828
c-20.4834 -28.3506 -37.2773 -64.7383 -49.9209 -108.15c-14.709 -50.5664 -19.4922 -96.9336 -14.2002 -137.805z" />
    <glyph glyph-name="X" unicode="X" horiz-adv-x="578" 
d="M225.77 252.095c-6.5625 -9.82422 -13.1172 -19.7178 -19.6865 -29.6436c-66.0293 -99.8418 -134.3 -203.087 -230.765 -256.969c-3.14551 -1.75293 -6.55566 -2.58887 -9.91895 -2.58887c-7.14746 0 -14.0771 3.76367 -17.8135 10.4492
c-5.48926 9.83105 -1.96973 22.2432 7.85449 27.7324c87.8096 49.0439 153.309 148.084 216.641 243.863c7.20801 10.8975 14.3887 21.7607 21.5898 32.5293c8.81152 13.1865 17.7656 26.2783 26.7744 39.3291c-0.244141 3.36328 -0.481445 6.70605 -0.71875 10.123
c-12.168 177.066 -10.8564 362.482 -9.11035 389.794c0.726562 11.2305 10.5771 19.7295 21.6445 19.0361c11.2441 -0.719727 19.7568 -10.4072 19.0439 -21.6445c-1.14844 -17.9424 -3.21387 -174.893 6.5625 -344.241c32.4336 45.002 65.8799 88.9922 100.053 131.474
c36.4551 45.2939 85.3906 103.769 140.767 154.321c17.8066 16.2646 39.0166 33.9766 65.2207 38.3174c11.0811 1.82715 21.5977 -5.67285 23.4385 -16.7803c1.83398 -11.1074 -5.67285 -21.5967 -16.7803 -23.4375c-15.2178 -2.52051 -30.8975 -15.8838 -44.3965 -28.208
c-53.3311 -48.6846 -100.955 -105.609 -136.486 -149.769c-43.9287 -54.6084 -86.6621 -111.724 -127.52 -170.348c23.5605 -308.391 71.416 -316.496 73.4951 -316.693c0.50293 -0.0478516 1.01953 -0.0683594 1.54297 -0.0683594
c38.6025 0 134.375 125.454 175.579 179.444c44.6689 58.5146 52.6045 69.0859 69.0791 67.1768c11.1826 -1.30469 19.1787 -11.4277 17.874 -22.6104c-0.882812 -7.53418 -5.76758 -13.6279 -12.2832 -16.3994c-6.98438 -6.67871 -25.667 -31.1504 -42.2715 -52.9043
c-81.5801 -106.866 -153.771 -195.437 -208.719 -195.437c-1.54199 0 -3.05664 0.0683594 -4.57129 0.210938c-37.0674 3.4375 -81.6074 42.9229 -106.119 303.94z" />
    <glyph glyph-name="Y" unicode="Y" horiz-adv-x="604" 
d="M363.159 72.582c-6.6377 -14.4033 -13.4951 -28.6631 -20.5674 -42.7871c-43.6162 -86.8516 -86.5391 -148.233 -135.074 -193.168c-55.7842 -51.6533 -118.729 -79.2705 -179.54 -79.2705c-7.66309 0 -15.293 0.441406 -22.8682 1.32422
c-39.7305 4.63379 -56.749 25.0156 -64.0186 41.2939c-16.8623 37.7256 4.24609 81.3418 27.4404 107.239c38.8193 43.3516 88.0879 69.8135 131.229 91.2139c60.0576 29.7979 121.936 56.7695 181.782 82.8574c16.9033 7.37109 33.9014 14.7832 50.9404 22.29
c46.1367 103.144 80.418 213.624 102.11 329.295c9.91211 52.8896 18.9814 115.257 11.0059 176.836c-0.108398 0.849609 -0.223633 1.64453 -0.345703 2.38477c-16.543 -15.293 -30.2188 -36.5508 -43.8877 -58.8213
c-33.6494 -54.8467 -65.7979 -112.893 -96.8867 -169.029c-42.5361 -76.7969 -86.5195 -156.217 -135.401 -229.434c-22.7051 -33.9961 -49.9893 -72.3535 -86.6279 -97.2393c-22.0322 -14.9736 -41.8975 -19.9668 -60.6758 -15.293
c-33.874 8.4375 -52.6182 46.415 -56.1582 80.3027c-3.43066 32.7461 4.39551 64.6904 11.9912 92.0625c21.5703 77.7822 50.1318 152.982 77.7422 225.71c17.3379 45.6611 35.2598 92.8711 51.1709 140.014c10.4014 30.8301 20.6943 63.7598 22.3457 97.6133
c0.550781 11.251 10.2383 19.9268 21.3457 19.3701c11.251 -0.543945 19.9199 -10.1025 19.3701 -21.3467c-1.90234 -39.0918 -13.1123 -75.1191 -24.4307 -108.667c-16.1553 -47.8623 -34.2197 -95.4395 -51.6865 -141.447
c-27.2842 -71.8584 -55.4922 -146.169 -76.5732 -222.137c-6.59668 -23.7715 -13.4111 -51.2725 -10.7275 -76.9189c2.28906 -21.8828 13.7227 -42.0674 25.4756 -44.9951c6.80078 -1.69141 16.1758 1.49512 27.9082 9.45703
c27.4941 18.6758 50.1172 47.9502 75.6279 86.1582c47.9502 71.8105 91.5117 150.469 133.64 226.546c31.3057 56.5244 63.6777 114.979 97.8027 170.6c16.0605 26.1699 33.6904 53.3516 57.0342 72.7617c4.59961 3.81836 18.5947 15.4219 35.9463 9.66797
c14.5391 -4.82324 23.4326 -18.9746 26.4219 -42.0732c8.75 -67.6182 -1.48145 -136.833 -11.373 -189.587c-19.4238 -103.558 -48.6846 -203.121 -87.2939 -297.208c70.3154 32.1143 140.454 67.041 206.911 109.04c9.51855 6.00586 22.1143 3.16602 28.1201 -6.3457
c6.00586 -9.51855 3.16602 -22.1074 -6.3457 -28.1201c-81.5869 -51.5518 -167.685 -92.3486 -252.879 -130.149zM179.812 -133.453c44.71 41.3945 84.752 98.8779 125.99 180.865c-2.66309 -1.16211 -5.31934 -2.31738 -7.98242 -3.47949
c-59.3848 -25.8916 -120.801 -52.6592 -179.954 -82.0088c-41.5645 -20.6191 -84.9766 -43.9287 -118.986 -81.8926c-15.7139 -17.5547 -28.8662 -44.8789 -20.585 -63.4121c1.60352 -3.58691 6.48828 -14.5186 31.5303 -17.4395
c55.709 -6.48828 116.059 17.4326 169.987 67.3672z" />
    <glyph glyph-name="Y" unicode="&#x178;" horiz-adv-x="604" 
d="M363.159 72.582c-6.6377 -14.4033 -13.4951 -28.6631 -20.5674 -42.7871c-43.6162 -86.8516 -86.5391 -148.233 -135.074 -193.168c-55.7842 -51.6533 -118.729 -79.2705 -179.54 -79.2705c-7.66309 0 -15.293 0.441406 -22.8682 1.32422
c-39.7305 4.63379 -56.749 25.0156 -64.0186 41.2939c-16.8623 37.7256 4.24609 81.3418 27.4404 107.239c38.8193 43.3516 88.0879 69.8135 131.229 91.2139c60.0576 29.7979 121.936 56.7695 181.782 82.8574c16.9033 7.37109 33.9014 14.7832 50.9404 22.29
c46.1367 103.144 80.418 213.624 102.11 329.295c9.91211 52.8896 18.9814 115.257 11.0059 176.836c-0.108398 0.849609 -0.223633 1.64453 -0.345703 2.38477c-16.543 -15.293 -30.2188 -36.5508 -43.8877 -58.8213
c-33.6494 -54.8467 -65.7979 -112.893 -96.8867 -169.029c-42.5361 -76.7969 -86.5195 -156.217 -135.401 -229.434c-22.7051 -33.9961 -49.9893 -72.3535 -86.6279 -97.2393c-22.0322 -14.9736 -41.8975 -19.9668 -60.6758 -15.293
c-33.874 8.4375 -52.6182 46.415 -56.1582 80.3027c-3.43066 32.7461 4.39551 64.6904 11.9912 92.0625c21.5703 77.7822 50.1318 152.982 77.7422 225.71c17.3379 45.6611 35.2598 92.8711 51.1709 140.014c10.4014 30.8301 20.6943 63.7598 22.3457 97.6133
c0.550781 11.251 10.2383 19.9268 21.3457 19.3701c11.251 -0.543945 19.9199 -10.1025 19.3701 -21.3467c-1.90234 -39.0918 -13.1123 -75.1191 -24.4307 -108.667c-16.1553 -47.8623 -34.2197 -95.4395 -51.6865 -141.447
c-27.2842 -71.8584 -55.4922 -146.169 -76.5732 -222.137c-6.59668 -23.7715 -13.4111 -51.2725 -10.7275 -76.9189c2.28906 -21.8828 13.7227 -42.0674 25.4756 -44.9951c6.80078 -1.69141 16.1758 1.49512 27.9082 9.45703
c27.4941 18.6758 50.1172 47.9502 75.6279 86.1582c47.9502 71.8105 91.5117 150.469 133.64 226.546c31.3057 56.5244 63.6777 114.979 97.8027 170.6c16.0605 26.1699 33.6904 53.3516 57.0342 72.7617c4.59961 3.81836 18.5947 15.4219 35.9463 9.66797
c14.5391 -4.82324 23.4326 -18.9746 26.4219 -42.0732c8.75 -67.6182 -1.48145 -136.833 -11.373 -189.587c-19.4238 -103.558 -48.6846 -203.121 -87.2939 -297.208c70.3154 32.1143 140.454 67.041 206.911 109.04c9.51855 6.00586 22.1143 3.16602 28.1201 -6.3457
c6.00586 -9.51855 3.16602 -22.1074 -6.3457 -28.1201c-81.5869 -51.5518 -167.685 -92.3486 -252.879 -130.149zM179.812 -133.453c44.71 41.3945 84.752 98.8779 125.99 180.865c-2.66309 -1.16211 -5.31934 -2.31738 -7.98242 -3.47949
c-59.3848 -25.8916 -120.801 -52.6592 -179.954 -82.0088c-41.5645 -20.6191 -84.9766 -43.9287 -118.986 -81.8926c-15.7139 -17.5547 -28.8662 -44.8789 -20.585 -63.4121c1.60352 -3.58691 6.48828 -14.5186 31.5303 -17.4395
c55.709 -6.48828 116.059 17.4326 169.987 67.3672z" />
    <glyph glyph-name="Y" unicode="&#xdd;" horiz-adv-x="604" 
d="M363.159 72.582c-6.6377 -14.4033 -13.4951 -28.6631 -20.5674 -42.7871c-43.6162 -86.8516 -86.5391 -148.233 -135.074 -193.168c-55.7842 -51.6533 -118.729 -79.2705 -179.54 -79.2705c-7.66309 0 -15.293 0.441406 -22.8682 1.32422
c-39.7305 4.63379 -56.749 25.0156 -64.0186 41.2939c-16.8623 37.7256 4.24609 81.3418 27.4404 107.239c38.8193 43.3516 88.0879 69.8135 131.229 91.2139c60.0576 29.7979 121.936 56.7695 181.782 82.8574c16.9033 7.37109 33.9014 14.7832 50.9404 22.29
c46.1367 103.144 80.418 213.624 102.11 329.295c9.91211 52.8896 18.9814 115.257 11.0059 176.836c-0.108398 0.849609 -0.223633 1.64453 -0.345703 2.38477c-16.543 -15.293 -30.2188 -36.5508 -43.8877 -58.8213
c-33.6494 -54.8467 -65.7979 -112.893 -96.8867 -169.029c-42.5361 -76.7969 -86.5195 -156.217 -135.401 -229.434c-22.7051 -33.9961 -49.9893 -72.3535 -86.6279 -97.2393c-22.0322 -14.9736 -41.8975 -19.9668 -60.6758 -15.293
c-33.874 8.4375 -52.6182 46.415 -56.1582 80.3027c-3.43066 32.7461 4.39551 64.6904 11.9912 92.0625c21.5703 77.7822 50.1318 152.982 77.7422 225.71c17.3379 45.6611 35.2598 92.8711 51.1709 140.014c10.4014 30.8301 20.6943 63.7598 22.3457 97.6133
c0.550781 11.251 10.2383 19.9268 21.3457 19.3701c11.251 -0.543945 19.9199 -10.1025 19.3701 -21.3467c-1.90234 -39.0918 -13.1123 -75.1191 -24.4307 -108.667c-16.1553 -47.8623 -34.2197 -95.4395 -51.6865 -141.447
c-27.2842 -71.8584 -55.4922 -146.169 -76.5732 -222.137c-6.59668 -23.7715 -13.4111 -51.2725 -10.7275 -76.9189c2.28906 -21.8828 13.7227 -42.0674 25.4756 -44.9951c6.80078 -1.69141 16.1758 1.49512 27.9082 9.45703
c27.4941 18.6758 50.1172 47.9502 75.6279 86.1582c47.9502 71.8105 91.5117 150.469 133.64 226.546c31.3057 56.5244 63.6777 114.979 97.8027 170.6c16.0605 26.1699 33.6904 53.3516 57.0342 72.7617c4.59961 3.81836 18.5947 15.4219 35.9463 9.66797
c14.5391 -4.82324 23.4326 -18.9746 26.4219 -42.0732c8.75 -67.6182 -1.48145 -136.833 -11.373 -189.587c-19.4238 -103.558 -48.6846 -203.121 -87.2939 -297.208c70.3154 32.1143 140.454 67.041 206.911 109.04c9.51855 6.00586 22.1143 3.16602 28.1201 -6.3457
c6.00586 -9.51855 3.16602 -22.1074 -6.3457 -28.1201c-81.5869 -51.5518 -167.685 -92.3486 -252.879 -130.149zM179.812 -133.453c44.71 41.3945 84.752 98.8779 125.99 180.865c-2.66309 -1.16211 -5.31934 -2.31738 -7.98242 -3.47949
c-59.3848 -25.8916 -120.801 -52.6592 -179.954 -82.0088c-41.5645 -20.6191 -84.9766 -43.9287 -118.986 -81.8926c-15.7139 -17.5547 -28.8662 -44.8789 -20.585 -63.4121c1.60352 -3.58691 6.48828 -14.5186 31.5303 -17.4395
c55.709 -6.48828 116.059 17.4326 169.987 67.3672z" />
    <glyph glyph-name="Z" unicode="Z" horiz-adv-x="603" 
d="M624.391 253.623c6.35938 -9.28711 3.99121 -21.9795 -5.30273 -28.3184c-115.875 -79.3926 -243.836 -126.515 -367.592 -172.081c-35.2803 -12.9961 -71.1445 -26.2031 -106.88 -40.2188c-44.5742 -54.9277 -91.1523 -106.812 -139.571 -155.4
c-35.2324 -35.3613 -77.001 -74.8672 -126.772 -96.084c-11.2842 -4.80957 -22.127 -7.16016 -32.0596 -7.16016c-18.459 0 -33.7588 8.125 -42.8145 23.6963c-18.377 31.584 0.638672 70.3701 22.5078 93.9854c58.5488 63.2295 130.699 102.083 187.02 128.864
c35.083 16.6855 70.8662 31.8359 106.73 46.0762c67.2725 83.7676 129.803 174.771 187.047 272.058c-33.3779 -7.32324 -66.6064 -15.4961 -99.5498 -24.498c-1.80078 -0.496094 -3.6084 -0.727539 -5.38867 -0.727539c-8.96094 0 -17.1748 5.95801 -19.6475 15.0137
c-2.96875 10.8633 3.42383 22.0664 14.2871 25.0352c45.3828 12.3984 91.3018 23.248 137.411 32.501c40.6201 73.2373 70.1523 137.806 91.7227 200.526c9.87109 28.7109 21.4346 66.6201 23.2686 105.257c0.9375 19.8447 -1.12109 34.8662 -6.31152 45.9268
c-14.5996 31.1152 -54.4316 27.7725 -76.8916 23.0098c-45.9395 -9.74902 -89.9023 -27.6572 -136.453 -46.6123c-38.8125 -15.8096 -78.9434 -32.1484 -120.08 -43.1543c-62.2588 -16.665 -109.632 -10.7412 -144.797 18.0986
c-8.70312 7.14062 -9.97363 19.9805 -2.83301 28.6836c7.12695 8.69629 19.9736 9.98047 28.6836 2.83301c24.6211 -20.1914 59.0586 -23.4453 108.409 -10.2451c38.6631 10.3467 77.5918 26.1963 115.243 41.5303c46.1504 18.7988 93.8838 38.2295 143.363 48.7324
c58.3252 12.3779 102.872 -4.23926 122.262 -45.5723c8.07129 -17.2158 11.3867 -38.5352 10.1299 -65.167c-2.0791 -43.793 -14.6885 -85.3096 -25.4434 -116.588c-19.417 -56.4492 -44.9004 -114.108 -78.6318 -177.65c27.6846 4.81641 55.3896 9.12402 83.0537 12.7588
c11.2168 1.48145 21.3936 -6.39258 22.8613 -17.5547s-6.39258 -21.3936 -17.5547 -22.8613c-37.8955 -4.97949 -75.8662 -11.1758 -113.741 -18.4111c-4.13086 -7.27637 -8.18652 -14.498 -12.5273 -21.9512c-47.8418 -82.1367 -99.4062 -159.898 -154.361 -232.837
c14.8105 5.5166 29.5732 10.9512 44.2275 16.3457c121.412 44.7031 246.955 90.9346 358.646 167.453c9.30762 6.37305 21.9717 3.98828 28.3311 -5.29199zM-23.8301 -113.638c29.4922 29.5938 58.2842 60.4395 86.3496 92.4785
c-10.7686 -4.79004 -21.4756 -9.70898 -32.0947 -14.7568c-53.0186 -25.2188 -120.78 -61.6133 -174.614 -119.748c-13.2275 -14.2871 -23.2686 -35.3203 -17.1816 -45.79c4.28027 -7.34375 20.4561 -0.90332 23.6494 0.461914
c43.0527 18.3428 81.3633 54.71 113.892 87.3545z" />
    <glyph glyph-name="bracketleft" unicode="[" horiz-adv-x="565" 
d="M505.811 770.332c9.40918 -6.18262 12.0234 -18.8164 5.83398 -28.2188c-6.17578 -9.40234 -18.8193 -12.0244 -28.2217 -5.83496c-24.125 15.8633 -54.9619 12.2012 -76.7432 -9.11133c-14.6133 -14.2939 -25.4971 -35.6201 -35.3818 -56.2393
c-27.7803 -57.9512 -52.1699 -119.87 -75.7578 -179.744c-64.5957 -163.962 -131.393 -333.515 -175.233 -510.86c-12.1064 -48.9766 -26.3662 -113.646 -29.1924 -179.573c-1.88184 -44.1797 3.79785 -75.1729 17.3857 -94.7666
c14.1992 -20.5039 35.9805 -25.8232 47.7002 -27.168c20.1299 -2.31641 42.0059 2.20801 63.1621 6.58301c11.04 2.28223 21.8086 -4.81055 24.085 -15.8301c2.28223 -11.0264 -4.80371 -21.8086 -15.8301 -24.0908c-18.4863 -3.8252 -38.9287 -8.05762 -59.9756 -8.05762
c-5.33301 0 -10.707 0.271484 -16.0947 0.889648c-32.0527 3.68945 -59.2412 19.4717 -76.5518 44.4453c-19.0977 27.5488 -26.917 65.5938 -24.6006 119.733c2.98242 69.541 17.7793 136.793 30.3477 187.61c44.4922 179.981 111.792 350.812 176.877 516.017
c23.8467 60.5459 48.5078 123.15 76.9268 182.426c11.4678 23.9004 24.2676 48.8203 43.6299 67.7549c35.2461 34.4922 87.7549 40.2666 127.635 14.0361z" />
    <glyph glyph-name="backslash" unicode="\" horiz-adv-x="237" 
d="M186.86 -252.746c2.45215 -10.9854 -4.46191 -21.8838 -15.4473 -24.3359c-1.48828 -0.339844 -2.98926 -0.496094 -4.46387 -0.496094c-9.33496 0 -17.7461 6.4541 -19.8721 15.9385c-69.3379 310.15 -101.812 630.716 -96.5205 952.789
c0.19043 11.251 9.70898 20.1982 20.7148 20.042c11.2568 -0.19043 20.2246 -9.45703 20.0479 -20.7139c-5.23828 -318.86 26.9033 -636.205 95.541 -943.224z" />
    <glyph glyph-name="bracketright" unicode="]" horiz-adv-x="534" 
d="M483.443 666.869c1.77344 -42.9365 -3.08203 -86.0381 -8.59863 -126.224c-25.9385 -188.908 -73.3799 -371.831 -141.025 -543.687c-34.5869 -87.8438 -66.1172 -150.51 -102.213 -203.182c-16.3936 -23.8936 -39.0918 -53.7861 -69.4941 -72.9512
c-19.6748 -12.3984 -40.457 -18.6895 -60.4375 -18.6895c-14.0771 0 -27.7666 3.125 -40.3896 9.42969c-10.0752 5.02734 -14.1582 17.2695 -9.13086 27.3379c5.01367 10.0752 17.2832 14.1514 27.3311 9.13086c17.5078 -8.7373 39.6963 -6.08789 60.8857 7.27539
c18.792 11.8486 36.5576 30.8232 57.6045 61.5176c34.2949 50.0293 64.4863 110.188 97.9053 195.063c66.457 168.84 113.076 348.61 138.573 534.305c5.25879 38.3105 9.89941 79.2432 8.26172 118.994c-1.06641 25.7617 -5.5166 42.7803 -13.6016 52.04
c-10.0615 11.5225 -25.4092 8.05078 -29.8525 6.70605c-14.0566 -4.22559 -28.1738 -15.333 -41.8291 -26.0811c-8.85254 -6.96387 -21.666 -5.43555 -28.623 3.41016s-5.43555 21.666 3.41016 28.623c15.8633 12.4873 33.8467 26.6318 55.3018 33.0859
c27.2568 8.19336 54.9482 0.9375 72.2998 -18.9277c19.2334 -22.0117 22.6914 -54.5879 23.6221 -77.1777z" />
    <glyph glyph-name="asciicircum" unicode="^" horiz-adv-x="335" 
d="M268.362 627.567c10.0205 -5.68652 20.8242 -18.9609 15.4297 -49.8799c-12.29 -70.3359 -28.0449 -140.475 -46.8438 -208.487c-2.5 -9.0293 -10.7002 -14.9531 -19.6338 -14.9531c-1.79395 0 -3.62109 0.237305 -5.44141 0.740234
c-10.8428 2.99609 -17.209 14.2266 -14.2129 25.0762c18.0244 65.207 33.2021 132.432 45.1387 199.874c-40.8848 -34.791 -74.1475 -81.9062 -109.203 -131.549c-15.1641 -21.4824 -30.8506 -43.6914 -47.1152 -64.6436
c-6.90234 -8.89355 -19.7021 -10.5039 -28.5957 -3.60156s-10.5039 19.7021 -3.60156 28.5957c15.7002 20.2256 31.1084 42.0537 46.0137 63.1621c38.3105 54.2617 77.9248 110.358 129.027 149.552c14.0703 10.7881 27.1963 12.8398 39.0381 6.11426z" />
    <glyph glyph-name="underscore" unicode="_" horiz-adv-x="439" 
d="M367.479 -82.5889c11.1211 0.380859 20.6787 -8.43066 21.0596 -19.6748c0.387695 -11.251 -8.42383 -20.6807 -19.6748 -21.0615c-98.333 -3.34277 -197.679 -12.9014 -295.278 -28.4111c-1.08691 -0.176758 -2.16016 -0.257812 -3.22656 -0.257812
c-9.84375 0 -18.5059 7.1543 -20.1025 17.1885c-1.7666 11.1211 5.81543 21.5635 16.9297 23.3301c99.251 15.7686 200.281 25.4902 300.293 28.8867z" />
    <glyph glyph-name="grave" unicode="`" horiz-adv-x="158" 
d="M93.1729 657.168c10.8906 -2.84668 17.416 -13.9756 14.5693 -24.8799c-11.1006 -42.5361 -20.6387 -84.0596 -15.5566 -124.299c1.48145 -11.7266 3.78418 -15.001 4.46387 -15.7207c7.66992 -8.24121 7.20801 -21.1357 -1.0332 -28.8057
c-3.92676 -3.65527 -8.91309 -5.46289 -13.8789 -5.46289c-5.46191 0 -10.9033 2.18066 -14.9248 6.49512c-10.6055 11.3936 -13.6758 27.3721 -15.0684 38.3984c-5.99219 47.4346 4.41602 93.1504 16.5635 139.694c2.83984 10.8975 13.9678 17.4199 24.8652 14.5801z" />
    <glyph glyph-name="a" unicode="a" horiz-adv-x="389" 
d="M409.554 255.865c9.9873 -5.19727 13.8691 -17.4971 8.6582 -27.4775c-31.1494 -59.8877 -78.0264 -132.438 -122.336 -189.351c-71.0703 -91.2812 -104.931 -103.164 -121.297 -103.164c-3.5332 0 -6.24414 0.556641 -8.35059 0.984375
c-13.6279 2.77832 -24.3828 11.0264 -31.0947 23.8467c-17.0859 32.6309 -5.26465 99.4346 21.6455 183.06c-17.9424 -31.3809 -37.1143 -61.7354 -58.4736 -89.5088c-16.1484 -21 -36.2305 -43.7793 -62.7402 -53.5625
c-7.47363 -2.75781 -14.7842 -4.13672 -21.7617 -4.13672c-7.60254 0 -14.8105 1.6377 -21.3867 4.90527c-17.168 8.5332 -29.6074 28.2832 -35.002 55.6074c-6.19629 31.3604 -3.98828 66.79 6.75293 108.327c18.6357 72.0342 55.3359 137.282 103.375 183.731
c33.5068 32.3926 67.0615 49.3291 99.7598 50.335c20.2119 0.631836 45.1387 -5.02051 64.1406 -30.001c12.127 20.6943 24.8516 40.8174 38.4121 59.9287c0.0205078 0.0273438 0.0341797 0.0478516 0.0546875 0.0751953
c0.0878906 0.12207 0.175781 0.250977 0.263672 0.379883c0.285156 0.400391 0.645508 0.719727 0.958008 1.09375c0.50293 0.611328 0.992188 1.23633 1.55566 1.78027c0.475586 0.461914 1.00586 0.829102 1.51562 1.23633
c0.516602 0.407227 1.0127 0.841797 1.56934 1.19531c0.597656 0.387695 1.22949 0.679688 1.85449 0.992188c0.543945 0.27832 1.07422 0.577148 1.6377 0.801758c0.638672 0.250977 1.29785 0.414062 1.95703 0.604492
c0.604492 0.176758 1.19531 0.374023 1.81348 0.489258c0.652344 0.12207 1.31152 0.149414 1.9707 0.210938c0.652344 0.0615234 1.29102 0.142578 1.94336 0.142578c0.700195 -0.00683594 1.38672 -0.108398 2.08008 -0.183594
c0.611328 -0.0683594 1.22266 -0.0957031 1.84082 -0.224609c0.78125 -0.163086 1.53516 -0.43457 2.2959 -0.685547c0.455078 -0.149414 0.916992 -0.224609 1.37207 -0.408203c0.0751953 -0.0273438 0.129883 -0.0820312 0.205078 -0.109375
c0.631836 -0.271484 1.22949 -0.645508 1.84082 -0.985352c0.611328 -0.333008 1.25 -0.638672 1.81348 -1.03223c0.0683594 -0.0478516 0.136719 -0.0683594 0.205078 -0.116211c0.400391 -0.285156 0.719727 -0.645508 1.09375 -0.958008
c0.611328 -0.50293 1.23633 -0.992188 1.78027 -1.55566c0.441406 -0.46875 0.808594 -0.985352 1.20312 -1.48145c0.420898 -0.537109 0.862305 -1.04688 1.22949 -1.61719s0.645508 -1.1748 0.951172 -1.7793c0.285156 -0.563477 0.597656 -1.11426 0.834961 -1.70508
c0.237305 -0.611328 0.393555 -1.24316 0.577148 -1.875s0.387695 -1.25684 0.509766 -1.90234c0.115234 -0.618164 0.142578 -1.25 0.204102 -1.88184c0.0615234 -0.679688 0.149414 -1.3457 0.142578 -2.02539s-0.108398 -1.3457 -0.183594 -2.02539
c-0.0683594 -0.631836 -0.102539 -1.25684 -0.231445 -1.88867c-0.15625 -0.774414 -0.427734 -1.52148 -0.678711 -2.28223c-0.15625 -0.461914 -0.224609 -0.930664 -0.415039 -1.38574c-3.45801 -8.4248 -8.56055 -20.3271 -14.7969 -34.8799
c-97.6133 -227.729 -137.839 -360.894 -119.563 -395.8c1.27051 -2.43262 2.13379 -2.60938 3.12598 -2.81348c27.7734 0.9375 140.312 140.89 207.68 270.399c5.19727 9.9873 17.501 13.873 27.4883 8.67578zM66.0078 79.1016
c40.9873 53.2969 74.4482 118.384 106.807 181.314c11.5225 22.4199 23.2012 45.1318 35.3418 67.5781c-10.1904 26.1699 -23.9004 30.749 -37.542 30.749c-0.686523 0 -1.37305 -0.0136719 -2.06641 -0.0341797c-22.2432 -0.686523 -46.6943 -13.7715 -72.6738 -38.8945
c-42.6992 -41.293 -75.459 -99.7607 -92.2324 -164.628c-9.17871 -35.4775 -11.21 -64.9902 -6.23047 -90.2227c3.08398 -15.5918 8.98145 -24.9268 13.1592 -27.0059c2.24902 -1.11426 6.20996 -0.760742 10.8975 0.97168c16.7939 6.20312 31.9375 23.7852 44.54 40.1719z
" />
    <glyph glyph-name="a" unicode="&#xe5;" horiz-adv-x="389" 
d="M409.554 255.865c9.9873 -5.19727 13.8691 -17.4971 8.6582 -27.4775c-31.1494 -59.8877 -78.0264 -132.438 -122.336 -189.351c-71.0703 -91.2812 -104.931 -103.164 -121.297 -103.164c-3.5332 0 -6.24414 0.556641 -8.35059 0.984375
c-13.6279 2.77832 -24.3828 11.0264 -31.0947 23.8467c-17.0859 32.6309 -5.26465 99.4346 21.6455 183.06c-17.9424 -31.3809 -37.1143 -61.7354 -58.4736 -89.5088c-16.1484 -21 -36.2305 -43.7793 -62.7402 -53.5625
c-7.47363 -2.75781 -14.7842 -4.13672 -21.7617 -4.13672c-7.60254 0 -14.8105 1.6377 -21.3867 4.90527c-17.168 8.5332 -29.6074 28.2832 -35.002 55.6074c-6.19629 31.3604 -3.98828 66.79 6.75293 108.327c18.6357 72.0342 55.3359 137.282 103.375 183.731
c33.5068 32.3926 67.0615 49.3291 99.7598 50.335c20.2119 0.631836 45.1387 -5.02051 64.1406 -30.001c12.127 20.6943 24.8516 40.8174 38.4121 59.9287c0.0205078 0.0273438 0.0341797 0.0478516 0.0546875 0.0751953
c0.0878906 0.12207 0.175781 0.250977 0.263672 0.379883c0.285156 0.400391 0.645508 0.719727 0.958008 1.09375c0.50293 0.611328 0.992188 1.23633 1.55566 1.78027c0.475586 0.461914 1.00586 0.829102 1.51562 1.23633
c0.516602 0.407227 1.0127 0.841797 1.56934 1.19531c0.597656 0.387695 1.22949 0.679688 1.85449 0.992188c0.543945 0.27832 1.07422 0.577148 1.6377 0.801758c0.638672 0.250977 1.29785 0.414062 1.95703 0.604492
c0.604492 0.176758 1.19531 0.374023 1.81348 0.489258c0.652344 0.12207 1.31152 0.149414 1.9707 0.210938c0.652344 0.0615234 1.29102 0.142578 1.94336 0.142578c0.700195 -0.00683594 1.38672 -0.108398 2.08008 -0.183594
c0.611328 -0.0683594 1.22266 -0.0957031 1.84082 -0.224609c0.78125 -0.163086 1.53516 -0.43457 2.2959 -0.685547c0.455078 -0.149414 0.916992 -0.224609 1.37207 -0.408203c0.0751953 -0.0273438 0.129883 -0.0820312 0.205078 -0.109375
c0.631836 -0.271484 1.22949 -0.645508 1.84082 -0.985352c0.611328 -0.333008 1.25 -0.638672 1.81348 -1.03223c0.0683594 -0.0478516 0.136719 -0.0683594 0.205078 -0.116211c0.400391 -0.285156 0.719727 -0.645508 1.09375 -0.958008
c0.611328 -0.50293 1.23633 -0.992188 1.78027 -1.55566c0.441406 -0.46875 0.808594 -0.985352 1.20312 -1.48145c0.420898 -0.537109 0.862305 -1.04688 1.22949 -1.61719s0.645508 -1.1748 0.951172 -1.7793c0.285156 -0.563477 0.597656 -1.11426 0.834961 -1.70508
c0.237305 -0.611328 0.393555 -1.24316 0.577148 -1.875s0.387695 -1.25684 0.509766 -1.90234c0.115234 -0.618164 0.142578 -1.25 0.204102 -1.88184c0.0615234 -0.679688 0.149414 -1.3457 0.142578 -2.02539s-0.108398 -1.3457 -0.183594 -2.02539
c-0.0683594 -0.631836 -0.102539 -1.25684 -0.231445 -1.88867c-0.15625 -0.774414 -0.427734 -1.52148 -0.678711 -2.28223c-0.15625 -0.461914 -0.224609 -0.930664 -0.415039 -1.38574c-3.45801 -8.4248 -8.56055 -20.3271 -14.7969 -34.8799
c-97.6133 -227.729 -137.839 -360.894 -119.563 -395.8c1.27051 -2.43262 2.13379 -2.60938 3.12598 -2.81348c27.7734 0.9375 140.312 140.89 207.68 270.399c5.19727 9.9873 17.501 13.873 27.4883 8.67578zM66.0078 79.1016
c40.9873 53.2969 74.4482 118.384 106.807 181.314c11.5225 22.4199 23.2012 45.1318 35.3418 67.5781c-10.1904 26.1699 -23.9004 30.749 -37.542 30.749c-0.686523 0 -1.37305 -0.0136719 -2.06641 -0.0341797c-22.2432 -0.686523 -46.6943 -13.7715 -72.6738 -38.8945
c-42.6992 -41.293 -75.459 -99.7607 -92.2324 -164.628c-9.17871 -35.4775 -11.21 -64.9902 -6.23047 -90.2227c3.08398 -15.5918 8.98145 -24.9268 13.1592 -27.0059c2.24902 -1.11426 6.20996 -0.760742 10.8975 0.97168c16.7939 6.20312 31.9375 23.7852 44.54 40.1719z
" />
    <glyph glyph-name="a" unicode="&#xe4;" horiz-adv-x="389" 
d="M409.554 255.865c9.9873 -5.19727 13.8691 -17.4971 8.6582 -27.4775c-31.1494 -59.8877 -78.0264 -132.438 -122.336 -189.351c-71.0703 -91.2812 -104.931 -103.164 -121.297 -103.164c-3.5332 0 -6.24414 0.556641 -8.35059 0.984375
c-13.6279 2.77832 -24.3828 11.0264 -31.0947 23.8467c-17.0859 32.6309 -5.26465 99.4346 21.6455 183.06c-17.9424 -31.3809 -37.1143 -61.7354 -58.4736 -89.5088c-16.1484 -21 -36.2305 -43.7793 -62.7402 -53.5625
c-7.47363 -2.75781 -14.7842 -4.13672 -21.7617 -4.13672c-7.60254 0 -14.8105 1.6377 -21.3867 4.90527c-17.168 8.5332 -29.6074 28.2832 -35.002 55.6074c-6.19629 31.3604 -3.98828 66.79 6.75293 108.327c18.6357 72.0342 55.3359 137.282 103.375 183.731
c33.5068 32.3926 67.0615 49.3291 99.7598 50.335c20.2119 0.631836 45.1387 -5.02051 64.1406 -30.001c12.127 20.6943 24.8516 40.8174 38.4121 59.9287c0.0205078 0.0273438 0.0341797 0.0478516 0.0546875 0.0751953
c0.0878906 0.12207 0.175781 0.250977 0.263672 0.379883c0.285156 0.400391 0.645508 0.719727 0.958008 1.09375c0.50293 0.611328 0.992188 1.23633 1.55566 1.78027c0.475586 0.461914 1.00586 0.829102 1.51562 1.23633
c0.516602 0.407227 1.0127 0.841797 1.56934 1.19531c0.597656 0.387695 1.22949 0.679688 1.85449 0.992188c0.543945 0.27832 1.07422 0.577148 1.6377 0.801758c0.638672 0.250977 1.29785 0.414062 1.95703 0.604492
c0.604492 0.176758 1.19531 0.374023 1.81348 0.489258c0.652344 0.12207 1.31152 0.149414 1.9707 0.210938c0.652344 0.0615234 1.29102 0.142578 1.94336 0.142578c0.700195 -0.00683594 1.38672 -0.108398 2.08008 -0.183594
c0.611328 -0.0683594 1.22266 -0.0957031 1.84082 -0.224609c0.78125 -0.163086 1.53516 -0.43457 2.2959 -0.685547c0.455078 -0.149414 0.916992 -0.224609 1.37207 -0.408203c0.0751953 -0.0273438 0.129883 -0.0820312 0.205078 -0.109375
c0.631836 -0.271484 1.22949 -0.645508 1.84082 -0.985352c0.611328 -0.333008 1.25 -0.638672 1.81348 -1.03223c0.0683594 -0.0478516 0.136719 -0.0683594 0.205078 -0.116211c0.400391 -0.285156 0.719727 -0.645508 1.09375 -0.958008
c0.611328 -0.50293 1.23633 -0.992188 1.78027 -1.55566c0.441406 -0.46875 0.808594 -0.985352 1.20312 -1.48145c0.420898 -0.537109 0.862305 -1.04688 1.22949 -1.61719s0.645508 -1.1748 0.951172 -1.7793c0.285156 -0.563477 0.597656 -1.11426 0.834961 -1.70508
c0.237305 -0.611328 0.393555 -1.24316 0.577148 -1.875s0.387695 -1.25684 0.509766 -1.90234c0.115234 -0.618164 0.142578 -1.25 0.204102 -1.88184c0.0615234 -0.679688 0.149414 -1.3457 0.142578 -2.02539s-0.108398 -1.3457 -0.183594 -2.02539
c-0.0683594 -0.631836 -0.102539 -1.25684 -0.231445 -1.88867c-0.15625 -0.774414 -0.427734 -1.52148 -0.678711 -2.28223c-0.15625 -0.461914 -0.224609 -0.930664 -0.415039 -1.38574c-3.45801 -8.4248 -8.56055 -20.3271 -14.7969 -34.8799
c-97.6133 -227.729 -137.839 -360.894 -119.563 -395.8c1.27051 -2.43262 2.13379 -2.60938 3.12598 -2.81348c27.7734 0.9375 140.312 140.89 207.68 270.399c5.19727 9.9873 17.501 13.873 27.4883 8.67578zM66.0078 79.1016
c40.9873 53.2969 74.4482 118.384 106.807 181.314c11.5225 22.4199 23.2012 45.1318 35.3418 67.5781c-10.1904 26.1699 -23.9004 30.749 -37.542 30.749c-0.686523 0 -1.37305 -0.0136719 -2.06641 -0.0341797c-22.2432 -0.686523 -46.6943 -13.7715 -72.6738 -38.8945
c-42.6992 -41.293 -75.459 -99.7607 -92.2324 -164.628c-9.17871 -35.4775 -11.21 -64.9902 -6.23047 -90.2227c3.08398 -15.5918 8.98145 -24.9268 13.1592 -27.0059c2.24902 -1.11426 6.20996 -0.760742 10.8975 0.97168c16.7939 6.20312 31.9375 23.7852 44.54 40.1719z
" />
    <glyph glyph-name="a" unicode="&#xe3;" horiz-adv-x="389" 
d="M409.554 255.865c9.9873 -5.19727 13.8691 -17.4971 8.6582 -27.4775c-31.1494 -59.8877 -78.0264 -132.438 -122.336 -189.351c-71.0703 -91.2812 -104.931 -103.164 -121.297 -103.164c-3.5332 0 -6.24414 0.556641 -8.35059 0.984375
c-13.6279 2.77832 -24.3828 11.0264 -31.0947 23.8467c-17.0859 32.6309 -5.26465 99.4346 21.6455 183.06c-17.9424 -31.3809 -37.1143 -61.7354 -58.4736 -89.5088c-16.1484 -21 -36.2305 -43.7793 -62.7402 -53.5625
c-7.47363 -2.75781 -14.7842 -4.13672 -21.7617 -4.13672c-7.60254 0 -14.8105 1.6377 -21.3867 4.90527c-17.168 8.5332 -29.6074 28.2832 -35.002 55.6074c-6.19629 31.3604 -3.98828 66.79 6.75293 108.327c18.6357 72.0342 55.3359 137.282 103.375 183.731
c33.5068 32.3926 67.0615 49.3291 99.7598 50.335c20.2119 0.631836 45.1387 -5.02051 64.1406 -30.001c12.127 20.6943 24.8516 40.8174 38.4121 59.9287c0.0205078 0.0273438 0.0341797 0.0478516 0.0546875 0.0751953
c0.0878906 0.12207 0.175781 0.250977 0.263672 0.379883c0.285156 0.400391 0.645508 0.719727 0.958008 1.09375c0.50293 0.611328 0.992188 1.23633 1.55566 1.78027c0.475586 0.461914 1.00586 0.829102 1.51562 1.23633
c0.516602 0.407227 1.0127 0.841797 1.56934 1.19531c0.597656 0.387695 1.22949 0.679688 1.85449 0.992188c0.543945 0.27832 1.07422 0.577148 1.6377 0.801758c0.638672 0.250977 1.29785 0.414062 1.95703 0.604492
c0.604492 0.176758 1.19531 0.374023 1.81348 0.489258c0.652344 0.12207 1.31152 0.149414 1.9707 0.210938c0.652344 0.0615234 1.29102 0.142578 1.94336 0.142578c0.700195 -0.00683594 1.38672 -0.108398 2.08008 -0.183594
c0.611328 -0.0683594 1.22266 -0.0957031 1.84082 -0.224609c0.78125 -0.163086 1.53516 -0.43457 2.2959 -0.685547c0.455078 -0.149414 0.916992 -0.224609 1.37207 -0.408203c0.0751953 -0.0273438 0.129883 -0.0820312 0.205078 -0.109375
c0.631836 -0.271484 1.22949 -0.645508 1.84082 -0.985352c0.611328 -0.333008 1.25 -0.638672 1.81348 -1.03223c0.0683594 -0.0478516 0.136719 -0.0683594 0.205078 -0.116211c0.400391 -0.285156 0.719727 -0.645508 1.09375 -0.958008
c0.611328 -0.50293 1.23633 -0.992188 1.78027 -1.55566c0.441406 -0.46875 0.808594 -0.985352 1.20312 -1.48145c0.420898 -0.537109 0.862305 -1.04688 1.22949 -1.61719s0.645508 -1.1748 0.951172 -1.7793c0.285156 -0.563477 0.597656 -1.11426 0.834961 -1.70508
c0.237305 -0.611328 0.393555 -1.24316 0.577148 -1.875s0.387695 -1.25684 0.509766 -1.90234c0.115234 -0.618164 0.142578 -1.25 0.204102 -1.88184c0.0615234 -0.679688 0.149414 -1.3457 0.142578 -2.02539s-0.108398 -1.3457 -0.183594 -2.02539
c-0.0683594 -0.631836 -0.102539 -1.25684 -0.231445 -1.88867c-0.15625 -0.774414 -0.427734 -1.52148 -0.678711 -2.28223c-0.15625 -0.461914 -0.224609 -0.930664 -0.415039 -1.38574c-3.45801 -8.4248 -8.56055 -20.3271 -14.7969 -34.8799
c-97.6133 -227.729 -137.839 -360.894 -119.563 -395.8c1.27051 -2.43262 2.13379 -2.60938 3.12598 -2.81348c27.7734 0.9375 140.312 140.89 207.68 270.399c5.19727 9.9873 17.501 13.873 27.4883 8.67578zM66.0078 79.1016
c40.9873 53.2969 74.4482 118.384 106.807 181.314c11.5225 22.4199 23.2012 45.1318 35.3418 67.5781c-10.1904 26.1699 -23.9004 30.749 -37.542 30.749c-0.686523 0 -1.37305 -0.0136719 -2.06641 -0.0341797c-22.2432 -0.686523 -46.6943 -13.7715 -72.6738 -38.8945
c-42.6992 -41.293 -75.459 -99.7607 -92.2324 -164.628c-9.17871 -35.4775 -11.21 -64.9902 -6.23047 -90.2227c3.08398 -15.5918 8.98145 -24.9268 13.1592 -27.0059c2.24902 -1.11426 6.20996 -0.760742 10.8975 0.97168c16.7939 6.20312 31.9375 23.7852 44.54 40.1719z
" />
    <glyph glyph-name="a" unicode="&#xe2;" horiz-adv-x="389" 
d="M409.554 255.865c9.9873 -5.19727 13.8691 -17.4971 8.6582 -27.4775c-31.1494 -59.8877 -78.0264 -132.438 -122.336 -189.351c-71.0703 -91.2812 -104.931 -103.164 -121.297 -103.164c-3.5332 0 -6.24414 0.556641 -8.35059 0.984375
c-13.6279 2.77832 -24.3828 11.0264 -31.0947 23.8467c-17.0859 32.6309 -5.26465 99.4346 21.6455 183.06c-17.9424 -31.3809 -37.1143 -61.7354 -58.4736 -89.5088c-16.1484 -21 -36.2305 -43.7793 -62.7402 -53.5625
c-7.47363 -2.75781 -14.7842 -4.13672 -21.7617 -4.13672c-7.60254 0 -14.8105 1.6377 -21.3867 4.90527c-17.168 8.5332 -29.6074 28.2832 -35.002 55.6074c-6.19629 31.3604 -3.98828 66.79 6.75293 108.327c18.6357 72.0342 55.3359 137.282 103.375 183.731
c33.5068 32.3926 67.0615 49.3291 99.7598 50.335c20.2119 0.631836 45.1387 -5.02051 64.1406 -30.001c12.127 20.6943 24.8516 40.8174 38.4121 59.9287c0.0205078 0.0273438 0.0341797 0.0478516 0.0546875 0.0751953
c0.0878906 0.12207 0.175781 0.250977 0.263672 0.379883c0.285156 0.400391 0.645508 0.719727 0.958008 1.09375c0.50293 0.611328 0.992188 1.23633 1.55566 1.78027c0.475586 0.461914 1.00586 0.829102 1.51562 1.23633
c0.516602 0.407227 1.0127 0.841797 1.56934 1.19531c0.597656 0.387695 1.22949 0.679688 1.85449 0.992188c0.543945 0.27832 1.07422 0.577148 1.6377 0.801758c0.638672 0.250977 1.29785 0.414062 1.95703 0.604492
c0.604492 0.176758 1.19531 0.374023 1.81348 0.489258c0.652344 0.12207 1.31152 0.149414 1.9707 0.210938c0.652344 0.0615234 1.29102 0.142578 1.94336 0.142578c0.700195 -0.00683594 1.38672 -0.108398 2.08008 -0.183594
c0.611328 -0.0683594 1.22266 -0.0957031 1.84082 -0.224609c0.78125 -0.163086 1.53516 -0.43457 2.2959 -0.685547c0.455078 -0.149414 0.916992 -0.224609 1.37207 -0.408203c0.0751953 -0.0273438 0.129883 -0.0820312 0.205078 -0.109375
c0.631836 -0.271484 1.22949 -0.645508 1.84082 -0.985352c0.611328 -0.333008 1.25 -0.638672 1.81348 -1.03223c0.0683594 -0.0478516 0.136719 -0.0683594 0.205078 -0.116211c0.400391 -0.285156 0.719727 -0.645508 1.09375 -0.958008
c0.611328 -0.50293 1.23633 -0.992188 1.78027 -1.55566c0.441406 -0.46875 0.808594 -0.985352 1.20312 -1.48145c0.420898 -0.537109 0.862305 -1.04688 1.22949 -1.61719s0.645508 -1.1748 0.951172 -1.7793c0.285156 -0.563477 0.597656 -1.11426 0.834961 -1.70508
c0.237305 -0.611328 0.393555 -1.24316 0.577148 -1.875s0.387695 -1.25684 0.509766 -1.90234c0.115234 -0.618164 0.142578 -1.25 0.204102 -1.88184c0.0615234 -0.679688 0.149414 -1.3457 0.142578 -2.02539s-0.108398 -1.3457 -0.183594 -2.02539
c-0.0683594 -0.631836 -0.102539 -1.25684 -0.231445 -1.88867c-0.15625 -0.774414 -0.427734 -1.52148 -0.678711 -2.28223c-0.15625 -0.461914 -0.224609 -0.930664 -0.415039 -1.38574c-3.45801 -8.4248 -8.56055 -20.3271 -14.7969 -34.8799
c-97.6133 -227.729 -137.839 -360.894 -119.563 -395.8c1.27051 -2.43262 2.13379 -2.60938 3.12598 -2.81348c27.7734 0.9375 140.312 140.89 207.68 270.399c5.19727 9.9873 17.501 13.873 27.4883 8.67578zM66.0078 79.1016
c40.9873 53.2969 74.4482 118.384 106.807 181.314c11.5225 22.4199 23.2012 45.1318 35.3418 67.5781c-10.1904 26.1699 -23.9004 30.749 -37.542 30.749c-0.686523 0 -1.37305 -0.0136719 -2.06641 -0.0341797c-22.2432 -0.686523 -46.6943 -13.7715 -72.6738 -38.8945
c-42.6992 -41.293 -75.459 -99.7607 -92.2324 -164.628c-9.17871 -35.4775 -11.21 -64.9902 -6.23047 -90.2227c3.08398 -15.5918 8.98145 -24.9268 13.1592 -27.0059c2.24902 -1.11426 6.20996 -0.760742 10.8975 0.97168c16.7939 6.20312 31.9375 23.7852 44.54 40.1719z
" />
    <glyph glyph-name="a" unicode="&#xe1;" horiz-adv-x="389" 
d="M409.554 255.865c9.9873 -5.19727 13.8691 -17.4971 8.6582 -27.4775c-31.1494 -59.8877 -78.0264 -132.438 -122.336 -189.351c-71.0703 -91.2812 -104.931 -103.164 -121.297 -103.164c-3.5332 0 -6.24414 0.556641 -8.35059 0.984375
c-13.6279 2.77832 -24.3828 11.0264 -31.0947 23.8467c-17.0859 32.6309 -5.26465 99.4346 21.6455 183.06c-17.9424 -31.3809 -37.1143 -61.7354 -58.4736 -89.5088c-16.1484 -21 -36.2305 -43.7793 -62.7402 -53.5625
c-7.47363 -2.75781 -14.7842 -4.13672 -21.7617 -4.13672c-7.60254 0 -14.8105 1.6377 -21.3867 4.90527c-17.168 8.5332 -29.6074 28.2832 -35.002 55.6074c-6.19629 31.3604 -3.98828 66.79 6.75293 108.327c18.6357 72.0342 55.3359 137.282 103.375 183.731
c33.5068 32.3926 67.0615 49.3291 99.7598 50.335c20.2119 0.631836 45.1387 -5.02051 64.1406 -30.001c12.127 20.6943 24.8516 40.8174 38.4121 59.9287c0.0205078 0.0273438 0.0341797 0.0478516 0.0546875 0.0751953
c0.0878906 0.12207 0.175781 0.250977 0.263672 0.379883c0.285156 0.400391 0.645508 0.719727 0.958008 1.09375c0.50293 0.611328 0.992188 1.23633 1.55566 1.78027c0.475586 0.461914 1.00586 0.829102 1.51562 1.23633
c0.516602 0.407227 1.0127 0.841797 1.56934 1.19531c0.597656 0.387695 1.22949 0.679688 1.85449 0.992188c0.543945 0.27832 1.07422 0.577148 1.6377 0.801758c0.638672 0.250977 1.29785 0.414062 1.95703 0.604492
c0.604492 0.176758 1.19531 0.374023 1.81348 0.489258c0.652344 0.12207 1.31152 0.149414 1.9707 0.210938c0.652344 0.0615234 1.29102 0.142578 1.94336 0.142578c0.700195 -0.00683594 1.38672 -0.108398 2.08008 -0.183594
c0.611328 -0.0683594 1.22266 -0.0957031 1.84082 -0.224609c0.78125 -0.163086 1.53516 -0.43457 2.2959 -0.685547c0.455078 -0.149414 0.916992 -0.224609 1.37207 -0.408203c0.0751953 -0.0273438 0.129883 -0.0820312 0.205078 -0.109375
c0.631836 -0.271484 1.22949 -0.645508 1.84082 -0.985352c0.611328 -0.333008 1.25 -0.638672 1.81348 -1.03223c0.0683594 -0.0478516 0.136719 -0.0683594 0.205078 -0.116211c0.400391 -0.285156 0.719727 -0.645508 1.09375 -0.958008
c0.611328 -0.50293 1.23633 -0.992188 1.78027 -1.55566c0.441406 -0.46875 0.808594 -0.985352 1.20312 -1.48145c0.420898 -0.537109 0.862305 -1.04688 1.22949 -1.61719s0.645508 -1.1748 0.951172 -1.7793c0.285156 -0.563477 0.597656 -1.11426 0.834961 -1.70508
c0.237305 -0.611328 0.393555 -1.24316 0.577148 -1.875s0.387695 -1.25684 0.509766 -1.90234c0.115234 -0.618164 0.142578 -1.25 0.204102 -1.88184c0.0615234 -0.679688 0.149414 -1.3457 0.142578 -2.02539s-0.108398 -1.3457 -0.183594 -2.02539
c-0.0683594 -0.631836 -0.102539 -1.25684 -0.231445 -1.88867c-0.15625 -0.774414 -0.427734 -1.52148 -0.678711 -2.28223c-0.15625 -0.461914 -0.224609 -0.930664 -0.415039 -1.38574c-3.45801 -8.4248 -8.56055 -20.3271 -14.7969 -34.8799
c-97.6133 -227.729 -137.839 -360.894 -119.563 -395.8c1.27051 -2.43262 2.13379 -2.60938 3.12598 -2.81348c27.7734 0.9375 140.312 140.89 207.68 270.399c5.19727 9.9873 17.501 13.873 27.4883 8.67578zM66.0078 79.1016
c40.9873 53.2969 74.4482 118.384 106.807 181.314c11.5225 22.4199 23.2012 45.1318 35.3418 67.5781c-10.1904 26.1699 -23.9004 30.749 -37.542 30.749c-0.686523 0 -1.37305 -0.0136719 -2.06641 -0.0341797c-22.2432 -0.686523 -46.6943 -13.7715 -72.6738 -38.8945
c-42.6992 -41.293 -75.459 -99.7607 -92.2324 -164.628c-9.17871 -35.4775 -11.21 -64.9902 -6.23047 -90.2227c3.08398 -15.5918 8.98145 -24.9268 13.1592 -27.0059c2.24902 -1.11426 6.20996 -0.760742 10.8975 0.97168c16.7939 6.20312 31.9375 23.7852 44.54 40.1719z
" />
    <glyph glyph-name="b" unicode="b" horiz-adv-x="345" 
d="M366.835 239.812c4.72852 -10.2178 0.273438 -22.3281 -9.9375 -27.0498c-44.1328 -20.4287 -82.7764 -41.2109 -116.494 -61.8711c-7.50684 -31.666 -16.3457 -60.207 -26.8213 -86.9268c-58.8545 -150.075 -127.268 -202.395 -170.489 -202.395
c-1.81348 0 -3.58008 0.0878906 -5.30566 0.271484c-22.793 2.3916 -39.5195 19.3691 -43.6572 44.3027c-9.22559 55.6211 43.4463 163.588 210.241 270.189c4.46387 20.7412 8.41113 42.957 11.9375 67.0068c4.27344 29.1934 8.26855 67.2178 1.12793 102.484
c-3.45801 17.0859 -8.81152 23.8799 -11.1621 25.0889c-1.38574 0.712891 -6.21582 0.338867 -15.4619 -5.65332c-27.1748 -17.6094 -49.3291 -47.9912 -65.6006 -72.4893c-37.7734 -56.8848 -122.703 -232.953 -146.569 -303.867
c-0.0410156 -0.12207 -0.116211 -0.216797 -0.157227 -0.338867c-0.34668 -0.978516 -0.78125 -1.89551 -1.26367 -2.78516c-0.128906 -0.237305 -0.223633 -0.501953 -0.359375 -0.733398c-0.652344 -1.10059 -1.39258 -2.12598 -2.22168 -3.07031
c-0.197266 -0.217773 -0.428711 -0.401367 -0.632812 -0.612305c-0.65918 -0.686523 -1.33887 -1.35254 -2.08594 -1.93652c-0.34668 -0.271484 -0.727539 -0.496094 -1.08789 -0.74707c-0.666016 -0.455078 -1.33203 -0.896484 -2.04492 -1.27051
c-0.414062 -0.217773 -0.841797 -0.394531 -1.26953 -0.584961c-0.706055 -0.3125 -1.42578 -0.597656 -2.16602 -0.829102c-0.46875 -0.149414 -0.9375 -0.264648 -1.41309 -0.379883c-0.733398 -0.169922 -1.47363 -0.298828 -2.22754 -0.386719
c-0.523438 -0.0615234 -1.04004 -0.116211 -1.56348 -0.136719c-0.271484 -0.00683594 -0.536133 -0.0683594 -0.814453 -0.0683594c-0.427734 0 -0.862305 0.0947266 -1.29688 0.12207c-0.611328 0.0341797 -1.21582 0.0751953 -1.83398 0.169922
c-0.231445 0.0410156 -0.449219 0.0273438 -0.680664 0.0683594c-0.475586 0.0878906 -0.896484 0.27832 -1.35156 0.400391c-0.448242 0.12207 -0.910156 0.163086 -1.3584 0.3125c-0.204102 0.0683594 -0.380859 0.19043 -0.584961 0.265625
c-0.693359 0.257812 -1.33887 0.570312 -1.98438 0.896484c-0.570312 0.285156 -1.14062 0.556641 -1.67773 0.889648c-0.577148 0.360352 -1.10059 0.767578 -1.6377 1.18164c-0.523438 0.400391 -1.04688 0.794922 -1.52246 1.24316
c-0.475586 0.441406 -0.882812 0.923828 -1.31055 1.40625c-0.441406 0.496094 -0.882812 0.992188 -1.27051 1.5293c-0.374023 0.523438 -0.693359 1.08008 -1.01953 1.63672c-0.326172 0.563477 -0.666016 1.11426 -0.9375 1.70508
c-0.27832 0.597656 -0.489258 1.22266 -0.707031 1.85449c-0.210938 0.604492 -0.428711 1.20215 -0.584961 1.82715c-0.15625 0.638672 -0.244141 1.29102 -0.338867 1.9502c-0.101562 0.666016 -0.196289 1.31836 -0.230469 1.99805
c-0.0273438 0.638672 0.0136719 1.27734 0.0478516 1.92285c0.0341797 0.712891 0.0683594 1.42578 0.183594 2.13867c0.0341797 0.217773 0.0136719 0.435547 0.0546875 0.65332c46.293 244.481 120.461 478.807 220.438 696.466
c4.70117 10.2314 16.8008 14.7158 27.0322 10.0146c10.2314 -4.69434 14.7158 -16.8008 10.0146 -27.0254c-70.6416 -153.784 -128.138 -316.067 -171.91 -484.425c24.9941 50.2334 49.7305 96.0098 66.3887 121.093c18.4453 27.7871 43.915 62.4561 77.3877 84.1484
c20.9043 13.5537 39.8389 16.1426 56.2598 7.70508c16.0742 -8.26172 27.0059 -26.1836 32.4814 -53.2637c8.39062 -41.4355 4.00879 -84.0127 -0.74707 -116.474c-1.65723 -11.3252 -3.41016 -22.2637 -5.26465 -32.8691c26.9648 15.2451 56.3682 30.3477 88.4014 45.1787
c10.1973 4.72852 22.3311 0.285156 27.0596 -9.93262zM175.625 78.8418c4.77637 12.1748 9.19043 24.7842 13.2803 37.9844c-124.143 -88.9307 -160.156 -170.334 -154.571 -204.004c1.63086 -9.80371 5.72754 -10.2314 7.7041 -10.4424
c20.1436 -2.12012 79.3789 38.2285 133.587 176.462z" />
    <glyph glyph-name="c" unicode="c" horiz-adv-x="261" 
d="M282.099 255.573c9.82422 -5.48926 13.335 -17.9121 7.85254 -27.7559c-62.415 -111.663 -154.431 -249.639 -238.334 -272.819c-8.85938 -2.44531 -17.4199 -3.6543 -25.5586 -3.6543c-18.9814 0 -35.6602 6.57617 -48.3779 19.376
c-26.584 26.7471 -29.3691 71.3555 -27.0186 104.061c4.38867 61.1445 23.6494 118.036 39.9414 160.776c21.2305 55.6953 41.0273 95.5137 64.1738 129.103c23.6152 34.2607 47.8145 55.8584 73.9844 66.0352c23.3506 9.06934 45.6816 5.2373 59.7588 -10.2598
c14.8311 -16.3115 18.4863 -42.3047 10.877 -77.252c-2.3916 -10.999 -13.2549 -17.9834 -24.2471 -15.5781c-10.999 2.39844 -17.9766 13.2549 -15.5781 24.2539c6.48828 29.8184 0.707031 39.0508 -1.21582 41.1709c-3.48535 3.8252 -12.9629 0.401367 -14.8174 -0.318359
c-18.3164 -7.12012 -36.374 -23.8604 -55.1992 -51.1777c-21.2305 -30.7959 -39.6211 -67.9512 -59.6494 -120.487c-15.293 -40.124 -33.3643 -93.3398 -37.373 -149.171c-2.42578 -33.8057 3.13867 -60.1992 15.2725 -72.4072
c7.55469 -7.60254 19.043 -9.3418 34.166 -5.16406c54.0791 14.9395 131.936 107.308 213.604 253.422c5.48926 9.82422 17.9014 13.3438 27.7393 7.84766z" />
    <glyph glyph-name="d" unicode="d" horiz-adv-x="442" 
d="M464.935 254.799c9.40234 -6.19629 11.9941 -18.8408 5.80469 -28.2227l-1.28418 -1.9502c-120.562 -182.902 -201.708 -289.408 -257.017 -289.408c-0.985352 0 -1.95703 0.0341797 -2.92871 0.102539c-20.2051 1.41309 -36.3945 11.0537 -46.8301 27.8887
c-23.3506 37.6855 -15.042 113.627 12.3027 212.857c-23.208 -42.2646 -48.3379 -83.6729 -77.667 -121.813c-16.1484 -21 -36.2236 -43.7793 -62.7334 -53.5625c-7.47363 -2.75781 -14.791 -4.13672 -21.7686 -4.13672c-7.60938 0 -14.8105 1.6377 -21.3867 4.90527
c-17.1748 8.54004 -29.6074 28.29 -35.002 55.6074c-6.20312 31.3672 -3.99512 66.7969 6.74609 108.327c18.6289 72.0342 55.3359 137.282 103.361 183.725c33.5 32.3926 67.0615 49.3291 99.7598 50.335c24.8174 0.753906 48.249 -8.48535 66.3477 -24.627
c8.52637 15.6328 17.3037 31.1367 26.4004 46.3408c25.6875 66.5312 54.1807 136.582 83.666 208.019c18.8184 45.5859 35.0625 84.9561 47.1484 116.031c4.06934 10.4893 15.877 15.6934 26.3799 11.6104c10.4824 -4.08301 15.6865 -15.8975 11.6035 -26.3867
c-12.2354 -31.4619 -28.5605 -71.0156 -47.4609 -116.806c-26.2305 -63.5557 -56.1094 -135.964 -84.4121 -209.316c-0.00683594 -0.0136719 -0.0136719 -0.0341797 -0.0205078 -0.0478516c-21.3525 -55.3359 -41.8086 -111.201 -59.1055 -164.206
c-59.3643 -181.904 -50.2402 -238.096 -39.5127 -255.399c3.51953 -5.67285 7.87402 -8.2002 15.0215 -8.69629c2.56836 -0.163086 26.6934 1.01855 99.2031 93.8281c44.9414 57.5166 90.5615 126.718 123.864 177.25l1.28418 1.9502
c6.18945 9.40234 18.833 11.998 28.2354 5.80176zM65.0068 79.0967c48.1953 62.666 85.5615 136.266 121.691 207.431c8.46484 16.6582 17.0322 33.5342 25.8096 50.417c-11.7129 14.4434 -28.7178 21.7803 -43.5957 21.7803
c-0.461914 0 -0.916992 -0.00683594 -1.37207 -0.0205078c-22.2432 -0.686523 -46.6943 -13.7715 -72.6738 -38.8945c-42.6992 -41.2998 -75.459 -99.7676 -92.2324 -164.628c-9.17188 -35.4775 -11.21 -64.9902 -6.22363 -90.2227
c3.08398 -15.5918 8.98145 -24.9268 13.1592 -27.0059c2.24219 -1.10742 6.20996 -0.760742 10.8975 0.97168c16.7871 6.19629 31.9375 23.7852 44.54 40.1719z" />
    <glyph glyph-name="e" unicode="e" horiz-adv-x="258" 
d="M279.103 255.573c9.82422 -5.48926 13.3389 -17.9082 7.85645 -27.7461c-62.415 -111.663 -154.431 -249.646 -238.341 -272.819c-8.85938 -2.44531 -17.4199 -3.6543 -25.5586 -3.6543c-18.9814 0 -35.6533 6.57617 -48.3779 19.376
c-26.5771 26.7471 -29.3623 71.3486 -27.0117 104.061c4.38184 61.124 23.6494 118.029 39.9414 160.775c21.2236 55.6885 41.0205 95.5068 64.1738 129.103c23.6152 34.2607 47.8145 55.8584 73.9844 66.0352c24.0156 9.3418 46.5166 5.32031 60.1924 -10.7539
c21.3457 -25.0898 23.2617 -63.5898 4.76855 -95.8057c-25.0693 -43.6709 -78.876 -63.7461 -145.068 -54.6289c-6.58984 -14.627 -13.1865 -30.6602 -19.9736 -48.4668c-15.293 -40.1309 -33.3711 -93.3604 -37.373 -149.172
c-2.41895 -33.8125 3.14551 -60.2061 15.2725 -72.4082c7.55469 -7.60254 19.0498 -9.33496 34.166 -5.16406c54.085 14.9395 131.941 107.308 213.609 253.422c5.48926 9.82422 17.9014 13.3438 27.7393 7.84766zM85.3457 341.542
c-7.03809 -10.2109 -13.7646 -21.1221 -20.3408 -33.0518c42.5293 -2.80566 75.5 10.0273 90.3779 35.9521c9.80371 17.0664 9.61328 37.2578 -0.461914 49.0996c-2.09961 2.45898 -8.9209 1.30371 -14.376 -0.822266c-18.3164 -7.12012 -36.374 -23.8604 -55.1992 -51.1777
z" />
    <glyph glyph-name="e" unicode="&#xeb;" horiz-adv-x="258" 
d="M279.103 255.573c9.82422 -5.48926 13.3389 -17.9082 7.85645 -27.7461c-62.415 -111.663 -154.431 -249.646 -238.341 -272.819c-8.85938 -2.44531 -17.4199 -3.6543 -25.5586 -3.6543c-18.9814 0 -35.6533 6.57617 -48.3779 19.376
c-26.5771 26.7471 -29.3623 71.3486 -27.0117 104.061c4.38184 61.124 23.6494 118.029 39.9414 160.775c21.2236 55.6885 41.0205 95.5068 64.1738 129.103c23.6152 34.2607 47.8145 55.8584 73.9844 66.0352c24.0156 9.3418 46.5166 5.32031 60.1924 -10.7539
c21.3457 -25.0898 23.2617 -63.5898 4.76855 -95.8057c-25.0693 -43.6709 -78.876 -63.7461 -145.068 -54.6289c-6.58984 -14.627 -13.1865 -30.6602 -19.9736 -48.4668c-15.293 -40.1309 -33.3711 -93.3604 -37.373 -149.172
c-2.41895 -33.8125 3.14551 -60.2061 15.2725 -72.4082c7.55469 -7.60254 19.0498 -9.33496 34.166 -5.16406c54.085 14.9395 131.941 107.308 213.609 253.422c5.48926 9.82422 17.9014 13.3438 27.7393 7.84766zM85.3457 341.542
c-7.03809 -10.2109 -13.7646 -21.1221 -20.3408 -33.0518c42.5293 -2.80566 75.5 10.0273 90.3779 35.9521c9.80371 17.0664 9.61328 37.2578 -0.461914 49.0996c-2.09961 2.45898 -8.9209 1.30371 -14.376 -0.822266c-18.3164 -7.12012 -36.374 -23.8604 -55.1992 -51.1777
z" />
    <glyph glyph-name="e" unicode="&#xea;" horiz-adv-x="258" 
d="M279.103 255.573c9.82422 -5.48926 13.3389 -17.9082 7.85645 -27.7461c-62.415 -111.663 -154.431 -249.646 -238.341 -272.819c-8.85938 -2.44531 -17.4199 -3.6543 -25.5586 -3.6543c-18.9814 0 -35.6533 6.57617 -48.3779 19.376
c-26.5771 26.7471 -29.3623 71.3486 -27.0117 104.061c4.38184 61.124 23.6494 118.029 39.9414 160.775c21.2236 55.6885 41.0205 95.5068 64.1738 129.103c23.6152 34.2607 47.8145 55.8584 73.9844 66.0352c24.0156 9.3418 46.5166 5.32031 60.1924 -10.7539
c21.3457 -25.0898 23.2617 -63.5898 4.76855 -95.8057c-25.0693 -43.6709 -78.876 -63.7461 -145.068 -54.6289c-6.58984 -14.627 -13.1865 -30.6602 -19.9736 -48.4668c-15.293 -40.1309 -33.3711 -93.3604 -37.373 -149.172
c-2.41895 -33.8125 3.14551 -60.2061 15.2725 -72.4082c7.55469 -7.60254 19.0498 -9.33496 34.166 -5.16406c54.085 14.9395 131.941 107.308 213.609 253.422c5.48926 9.82422 17.9014 13.3438 27.7393 7.84766zM85.3457 341.542
c-7.03809 -10.2109 -13.7646 -21.1221 -20.3408 -33.0518c42.5293 -2.80566 75.5 10.0273 90.3779 35.9521c9.80371 17.0664 9.61328 37.2578 -0.461914 49.0996c-2.09961 2.45898 -8.9209 1.30371 -14.376 -0.822266c-18.3164 -7.12012 -36.374 -23.8604 -55.1992 -51.1777
z" />
    <glyph glyph-name="e" unicode="&#xe9;" horiz-adv-x="258" 
d="M279.103 255.573c9.82422 -5.48926 13.3389 -17.9082 7.85645 -27.7461c-62.415 -111.663 -154.431 -249.646 -238.341 -272.819c-8.85938 -2.44531 -17.4199 -3.6543 -25.5586 -3.6543c-18.9814 0 -35.6533 6.57617 -48.3779 19.376
c-26.5771 26.7471 -29.3623 71.3486 -27.0117 104.061c4.38184 61.124 23.6494 118.029 39.9414 160.775c21.2236 55.6885 41.0205 95.5068 64.1738 129.103c23.6152 34.2607 47.8145 55.8584 73.9844 66.0352c24.0156 9.3418 46.5166 5.32031 60.1924 -10.7539
c21.3457 -25.0898 23.2617 -63.5898 4.76855 -95.8057c-25.0693 -43.6709 -78.876 -63.7461 -145.068 -54.6289c-6.58984 -14.627 -13.1865 -30.6602 -19.9736 -48.4668c-15.293 -40.1309 -33.3711 -93.3604 -37.373 -149.172
c-2.41895 -33.8125 3.14551 -60.2061 15.2725 -72.4082c7.55469 -7.60254 19.0498 -9.33496 34.166 -5.16406c54.085 14.9395 131.941 107.308 213.609 253.422c5.48926 9.82422 17.9014 13.3438 27.7393 7.84766zM85.3457 341.542
c-7.03809 -10.2109 -13.7646 -21.1221 -20.3408 -33.0518c42.5293 -2.80566 75.5 10.0273 90.3779 35.9521c9.80371 17.0664 9.61328 37.2578 -0.461914 49.0996c-2.09961 2.45898 -8.9209 1.30371 -14.376 -0.822266c-18.3164 -7.12012 -36.374 -23.8604 -55.1992 -51.1777
z" />
    <glyph glyph-name="f" unicode="f" horiz-adv-x="231" 
d="M255.698 254.806c9.39551 -6.19629 11.9922 -18.8467 5.80273 -28.249c-26.4619 -40.1377 -134.531 -27.834 -203.604 -15.1768c1.27734 -6.75293 2.62891 -14.4365 4.12988 -23.1729c3.98828 -23.2822 10.7686 -69.0723 11.373 -114.143
c1.51465 -113.104 -37.8691 -137.907 -71.1719 -138.797c-0.597656 -0.0136719 -1.20215 -0.0205078 -1.79297 -0.0205078c-20.001 0 -36.4893 9.04297 -46.5645 25.5928c-73.3867 120.542 215.703 703.09 261.86 786.83c5.44141 9.85742 17.8262 13.4443 27.6904 8.00977
c9.85742 -5.42871 13.4443 -17.8271 8.00977 -27.6846c-45.2334 -82.042 -125.013 -250.712 -183.8 -401.711c-9.7832 -25.1299 -18.4932 -48.4531 -26.2451 -70.1113c88.0752 -18.248 175.647 -21.7881 186.083 -7.16113c6.19629 9.39551 18.8262 11.9971 28.2285 5.79395z
M17.6172 -13.9844c25.5176 37.9502 13.0518 148.018 2.2832 206.893c-50.2607 -157.304 -37.5771 -200.424 -31.2109 -210.873c2.40527 -3.96094 5.23828 -6.20312 12.4531 -6.01953c4.90527 0.128906 10.7002 1.41992 16.4746 10z" />
    <glyph glyph-name="g" unicode="g" horiz-adv-x="379" 
d="M405.756 258.066c7.92188 -7.99609 7.86133 -20.9023 -0.134766 -28.8242c-17.5615 -17.3984 -61.0957 -46.7812 -121.35 -87.4561c-30.8027 -20.7891 -67.1904 -45.3486 -106.187 -72.626c-24.3486 -83.0205 -52.0127 -169.058 -82.5439 -247.791
c-81.9336 -211.294 -163.534 -316.041 -249.455 -320.232c-1.82715 -0.0878906 -3.66797 -0.135742 -5.52246 -0.135742c-44.9883 -0.00683594 -96.3838 26.251 -111.575 78.5771c-47.9775 165.171 201.593 366.22 413.716 514.766
c14.7021 50.3486 28.0049 98.8564 39.7314 142.894c-24.165 -46.4424 -49.7705 -92.9258 -80.7637 -133.227c-14.1035 -18.3428 -31.6924 -38.2686 -55.1377 -46.917c-6.74609 -2.48633 -13.3633 -3.72949 -19.6885 -3.72949c-6.96387 0 -13.5742 1.50098 -19.6348 4.51074
c-15.5576 7.73828 -26.7812 25.4092 -31.5908 49.7578c-5.4082 27.3584 -3.50586 58.1885 5.8291 94.2637c16.1221 62.3398 47.9033 118.823 89.502 159.049c29.2812 28.3232 58.7393 43.1338 87.5449 44.0166c17.1543 0.530273 38.2012 -3.98047 54.792 -23.5264
c3.87891 6.54199 7.85352 12.9756 11.875 19.3486c2.60156 8.68262 10.4893 14.3486 19.1992 14.4639c0.407227 0.0273438 0.814453 0.0546875 1.22168 0.0546875c0.135742 -0.00683594 0.271484 -0.0205078 0.407227 -0.0273438
c3.62793 -0.0751953 7.29004 -1.05371 10.5713 -3.16016c9.3418 -5.99902 12.1133 -18.3369 6.35254 -27.7666c-4.56543 -17.3516 -9.52441 -36.5303 -14.9053 -57.374c-14.4297 -55.8652 -31.9375 -123.64 -52.1895 -195.905
c22.875 15.6328 44.9141 30.5107 65.6416 44.499c56.2188 37.9434 100.623 67.918 115.468 82.627c8.00293 7.92871 20.9043 7.86719 28.8262 -0.128906zM-155.906 -458.147c107.716 5.25879 207.156 253.891 279.415 488.48
c-183.527 -133.002 -392.545 -311.441 -355.39 -439.382c9.92578 -34.1865 45.7969 -50.5732 75.9746 -49.0986zM160.746 284.067c9.68164 18.8252 19.5117 37.9473 29.7021 56.8613c-8.11133 19.8174 -18.6621 23.3232 -29.1377 23.3232
c-0.523438 0 -1.05371 -0.0136719 -1.58398 -0.0273438c-18.3496 -0.570312 -38.6904 -11.5283 -60.458 -32.5752c-36.2793 -35.0762 -64.1064 -84.7793 -78.3799 -139.952c-7.76562 -30.0215 -9.49805 -54.9346 -5.30664 -76.1582
c2.6084 -13.1797 7.35742 -19.9668 9.74902 -21.1553c0.944336 -0.46875 3.50586 -0.360352 7.07227 0.958008c13.7305 5.06836 26.374 19.79 36.9385 33.5273c35.0293 45.5459 63.6855 101.289 91.4043 155.198z" />
    <glyph glyph-name="h" unicode="h" horiz-adv-x="397" 
d="M426.137 240.668c5.79492 -8.69629 4.03125 -20.2256 -3.76758 -26.8359c-4.69434 -5.99902 -17.9561 -31.8291 -29.6953 -54.6904c-64.3848 -125.42 -122.954 -229.562 -181.279 -229.569c-5.17676 0 -10.3398 0.81543 -15.5166 2.51367
c-53.5215 17.5488 -31.1016 112.873 9.91211 266.949c16.9502 63.6846 42.2568 158.736 35.1572 181.727c-12.3037 -2.26953 -79.6982 -31.8428 -263.572 -384.543c-0.291992 -1.54199 -0.618164 -3.07715 -0.910156 -4.61914
c-1.84766 -9.77637 -10.4014 -16.5908 -20.001 -16.5908c-1.26367 0 -2.54102 0.115234 -3.81836 0.359375c-10.3467 1.95703 -17.2695 11.4277 -16.4199 21.6934c-0.597656 4.08984 -0.0136719 8.38379 2.03809 12.3311
c0.0810547 0.169922 0.162109 0.326172 0.25 0.489258c46.4219 240.63 119.815 471.313 218.339 685.78c4.70117 10.2314 16.8008 14.7158 27.0322 10.0146c10.2314 -4.69434 14.7158 -16.8008 10.0146 -27.0254c-78.4209 -170.708 -140.68 -351.885 -185.886 -540.25
c103.769 183.507 181.245 278.661 230.806 283.118c13.6416 1.23633 25.8906 -3.79785 33.6221 -13.7852c22.0527 -28.5 4.92578 -98.2861 -27.2568 -219.175c-13.5879 -51.0488 -27.6377 -103.837 -34.9414 -146.23c-9.83789 -57.1426 -2.66406 -69.7861 -1.27832 -71.6064
c3.41016 -0.767578 22.4941 -1.33105 65.3701 61.6543c30.2734 44.4658 60.2207 102.791 82.083 145.381c26.3057 51.2393 32.7734 62.7822 41.4561 68.5703c9.3623 6.24316 22.0195 3.70215 28.2627 -5.66016z" />
    <glyph glyph-name="i" unicode="i" horiz-adv-x="192" 
d="M212.386 255.865c9.9873 -5.19727 13.8721 -17.4961 8.66797 -27.4902c-31.1494 -59.8877 -78.0264 -132.438 -122.336 -189.351c-71.0703 -91.2812 -104.931 -103.164 -121.297 -103.164c-3.5332 0 -6.24414 0.556641 -8.35059 0.984375
c-13.6279 2.77832 -24.3828 11.0264 -31.0947 23.8467c-32.1074 61.3203 37.835 243.271 118.206 430.767c6.1416 14.3145 11.1621 26.0273 14.5654 34.3154c4.28027 10.415 16.1895 15.3877 26.5977 11.1074c10.415 -4.28027 15.3877 -16.1895 11.1074 -26.5977
c-3.45801 -8.4248 -8.56055 -20.3271 -14.7969 -34.8799c-97.6133 -227.729 -137.839 -360.894 -119.563 -395.8c1.27051 -2.43262 2.13379 -2.60938 3.12598 -2.81348c27.7734 0.9375 140.312 140.89 207.68 270.399c5.19727 9.9873 17.501 13.873 27.4883 8.67578z
M119.296 502.465c-10.1768 4.80371 -14.54 16.9512 -9.73047 27.1279c9.0293 19.1045 17.542 38.915 25.3213 58.875c4.08984 10.4824 15.8906 15.6865 26.3936 11.5898c10.4824 -4.08301 15.6797 -15.8975 11.5898 -26.3867
c-8.125 -20.8369 -17.0186 -41.5244 -26.4414 -61.4775c-3.47852 -7.37109 -10.8018 -11.6855 -18.4443 -11.6855c-2.91406 0 -5.87598 0.625 -8.68848 1.95703z" />
    <glyph glyph-name="i" unicode="&#xef;" horiz-adv-x="192" 
d="M212.386 255.865c9.9873 -5.19727 13.8721 -17.4961 8.66797 -27.4902c-31.1494 -59.8877 -78.0264 -132.438 -122.336 -189.351c-71.0703 -91.2812 -104.931 -103.164 -121.297 -103.164c-3.5332 0 -6.24414 0.556641 -8.35059 0.984375
c-13.6279 2.77832 -24.3828 11.0264 -31.0947 23.8467c-32.1074 61.3203 37.835 243.271 118.206 430.767c6.1416 14.3145 11.1621 26.0273 14.5654 34.3154c4.28027 10.415 16.1895 15.3877 26.5977 11.1074c10.415 -4.28027 15.3877 -16.1895 11.1074 -26.5977
c-3.45801 -8.4248 -8.56055 -20.3271 -14.7969 -34.8799c-97.6133 -227.729 -137.839 -360.894 -119.563 -395.8c1.27051 -2.43262 2.13379 -2.60938 3.12598 -2.81348c27.7734 0.9375 140.312 140.89 207.68 270.399c5.19727 9.9873 17.501 13.873 27.4883 8.67578z
M119.296 502.465c-10.1768 4.80371 -14.54 16.9512 -9.73047 27.1279c9.0293 19.1045 17.542 38.915 25.3213 58.875c4.08984 10.4824 15.8906 15.6865 26.3936 11.5898c10.4824 -4.08301 15.6797 -15.8975 11.5898 -26.3867
c-8.125 -20.8369 -17.0186 -41.5244 -26.4414 -61.4775c-3.47852 -7.37109 -10.8018 -11.6855 -18.4443 -11.6855c-2.91406 0 -5.87598 0.625 -8.68848 1.95703z" />
    <glyph glyph-name="i" unicode="&#xee;" horiz-adv-x="192" 
d="M212.386 255.865c9.9873 -5.19727 13.8721 -17.4961 8.66797 -27.4902c-31.1494 -59.8877 -78.0264 -132.438 -122.336 -189.351c-71.0703 -91.2812 -104.931 -103.164 -121.297 -103.164c-3.5332 0 -6.24414 0.556641 -8.35059 0.984375
c-13.6279 2.77832 -24.3828 11.0264 -31.0947 23.8467c-32.1074 61.3203 37.835 243.271 118.206 430.767c6.1416 14.3145 11.1621 26.0273 14.5654 34.3154c4.28027 10.415 16.1895 15.3877 26.5977 11.1074c10.415 -4.28027 15.3877 -16.1895 11.1074 -26.5977
c-3.45801 -8.4248 -8.56055 -20.3271 -14.7969 -34.8799c-97.6133 -227.729 -137.839 -360.894 -119.563 -395.8c1.27051 -2.43262 2.13379 -2.60938 3.12598 -2.81348c27.7734 0.9375 140.312 140.89 207.68 270.399c5.19727 9.9873 17.501 13.873 27.4883 8.67578z
M119.296 502.465c-10.1768 4.80371 -14.54 16.9512 -9.73047 27.1279c9.0293 19.1045 17.542 38.915 25.3213 58.875c4.08984 10.4824 15.8906 15.6865 26.3936 11.5898c10.4824 -4.08301 15.6797 -15.8975 11.5898 -26.3867
c-8.125 -20.8369 -17.0186 -41.5244 -26.4414 -61.4775c-3.47852 -7.37109 -10.8018 -11.6855 -18.4443 -11.6855c-2.91406 0 -5.87598 0.625 -8.68848 1.95703z" />
    <glyph glyph-name="i" unicode="&#xed;" horiz-adv-x="192" 
d="M212.386 255.865c9.9873 -5.19727 13.8721 -17.4961 8.66797 -27.4902c-31.1494 -59.8877 -78.0264 -132.438 -122.336 -189.351c-71.0703 -91.2812 -104.931 -103.164 -121.297 -103.164c-3.5332 0 -6.24414 0.556641 -8.35059 0.984375
c-13.6279 2.77832 -24.3828 11.0264 -31.0947 23.8467c-32.1074 61.3203 37.835 243.271 118.206 430.767c6.1416 14.3145 11.1621 26.0273 14.5654 34.3154c4.28027 10.415 16.1895 15.3877 26.5977 11.1074c10.415 -4.28027 15.3877 -16.1895 11.1074 -26.5977
c-3.45801 -8.4248 -8.56055 -20.3271 -14.7969 -34.8799c-97.6133 -227.729 -137.839 -360.894 -119.563 -395.8c1.27051 -2.43262 2.13379 -2.60938 3.12598 -2.81348c27.7734 0.9375 140.312 140.89 207.68 270.399c5.19727 9.9873 17.501 13.873 27.4883 8.67578z
M119.296 502.465c-10.1768 4.80371 -14.54 16.9512 -9.73047 27.1279c9.0293 19.1045 17.542 38.915 25.3213 58.875c4.08984 10.4824 15.8906 15.6865 26.3936 11.5898c10.4824 -4.08301 15.6797 -15.8975 11.5898 -26.3867
c-8.125 -20.8369 -17.0186 -41.5244 -26.4414 -61.4775c-3.47852 -7.37109 -10.8018 -11.6855 -18.4443 -11.6855c-2.91406 0 -5.87598 0.625 -8.68848 1.95703z" />
    <glyph glyph-name="j" unicode="j" horiz-adv-x="168" 
d="M194.772 258.066c7.92871 -7.99609 7.86621 -20.9053 -0.143555 -28.8203c-17.5615 -17.3984 -61.0957 -46.7812 -121.356 -87.4561c-25.6807 -17.3311 -55.2676 -37.2979 -86.9883 -59.2686c-95.7861 -306.563 -213.387 -574.66 -351.199 -581.379
c-1.82715 -0.0878906 -3.66797 -0.135742 -5.52246 -0.135742c-44.9883 0 -96.377 26.2578 -111.574 78.5771c-49.5127 170.497 217.986 379.202 434.097 528.951c35.5381 114.802 63.6982 221.451 82.2314 291.624c2.87402 10.8838 14.0088 17.3789 24.9131 14.5049
c10.877 -2.88086 17.3721 -14.0293 14.498 -24.9131c-21.2578 -80.5137 -44.0371 -163.378 -68.3252 -244.673c15.5508 10.5645 30.6396 20.748 45.0762 30.4902c56.2188 37.9434 100.623 67.918 115.468 82.627c8.00293 7.92871 20.9043 7.86719 28.8262 -0.128906z
M-126.881 -120.254c20.877 53.4336 40.4424 109.176 58.46 164.301c-187.733 -134.231 -412.887 -320.714 -374.44 -453.091c9.92578 -34.1797 45.7432 -50.5322 75.9756 -49.0986c50.2061 2.44531 132.608 63.0527 240.005 337.889zM82.5371 485.534
c-10.8564 2.97559 -17.2393 14.1855 -14.2568 25.0488c7.66309 27.9697 18.3359 54.5332 31.7061 78.957c5.40137 9.87109 17.793 13.4854 27.6641 8.08398s13.4922 -17.793 8.08398 -27.6641c-11.8555 -21.6387 -21.3262 -45.2402 -28.1475 -70.1533
c-2.48633 -9.05566 -10.6934 -15 -19.6475 -15c-1.78711 0 -3.59473 0.231445 -5.40234 0.727539z" />
    <glyph glyph-name="k" unicode="k" horiz-adv-x="357" 
d="M382.192 247.686c8.50586 -7.36426 9.43848 -20.2402 2.06738 -28.7598c-8.91309 -10.3066 -22.7109 -31.0342 -38.6895 -55.0303c-54.6973 -82.1572 -121.494 -182.475 -184.344 -182.475c-6.69238 -0.00683594 -13.3369 1.13477 -19.9131 3.54688
c-73.5908 27.0049 -91.1191 161.284 -102.723 250.134c-0.285156 2.22168 -0.577148 4.4707 -0.875977 6.72656c-22.7461 -81.9873 -42.2578 -165.463 -58.3047 -250.223c-1.84766 -9.77637 -10.4014 -16.5908 -20.001 -16.5908
c-1.26367 0 -2.54102 0.115234 -3.81836 0.359375c-11.0605 2.09277 -18.3301 12.7588 -16.2373 23.8193c46.293 244.488 120.461 478.82 220.445 696.467c4.70117 10.2314 16.7939 14.7158 27.0322 10.0146c10.2314 -4.69434 14.7158 -16.8008 10.0146 -27.0254
c-39.6074 -86.2197 -75.0303 -175.144 -106.295 -266.282c9.17188 9.12402 19.0293 17.7793 29.6348 25.7891c34.2002 25.8301 64.8066 35.8242 93.5576 30.5518c26.9854 -4.94629 48.3184 -24.9131 54.3652 -50.8584c5.28516 -22.6777 -1.72559 -49.6084 -17.8604 -68.5967
c-13.6895 -16.1152 -30.7822 -24.6211 -47.21 -31.415c-42.5703 -17.6094 -86.6348 -27.4199 -131.311 -29.377c0.43457 -2.00391 0.794922 -3.88574 1.10059 -5.48242c2.03125 -10.7002 3.96094 -25.4766 6.19629 -42.5898
c8.41113 -64.4727 25.9326 -198.637 76.3428 -217.137c38.1611 -14.0088 117.968 105.698 156.285 163.248c17.4258 26.1768 31.1973 46.8574 41.7959 59.1064c7.36426 8.5127 20.2314 9.44336 28.7441 2.0791zM144.751 405.626
c-28.167 -21.2783 -50.5791 -47.2861 -65.6133 -75.9697c36.7812 2.62207 73.0869 11.2773 108.306 25.8428c13.5195 5.58496 24.084 11.1494 31.7207 20.1377c7.8125 9.19238 11.6035 22.7461 9.22559 32.957c-2.86719 12.3174 -13.6553 18.4795 -22.0186 20.0146
c-2.45898 0.455078 -4.98633 0.679688 -7.58203 0.679688c-15.2656 0 -33.0449 -7.79883 -54.0381 -23.6621z" />
    <glyph glyph-name="l" unicode="l" horiz-adv-x="240" 
d="M262.907 254.799c9.39551 -6.19629 11.9912 -18.8379 5.80176 -28.2266l-1.28418 -1.9502c-120.562 -182.902 -201.708 -289.408 -257.017 -289.408c-0.985352 0 -1.95703 0.0341797 -2.92871 0.102539c-20.2119 1.41309 -36.4014 11.0537 -46.8301 27.8887
c-52.584 84.8545 55.1523 363.44 180.022 665.981c18.8125 45.5859 35.0635 84.9561 47.1494 116.031c4.07617 10.4893 15.877 15.6934 26.3799 11.6104c10.4824 -4.08301 15.6865 -15.8975 11.6035 -26.3867c-12.2285 -31.4619 -28.5537 -71.0156 -47.4609 -116.812
c-46.0146 -111.507 -103.3 -250.277 -143.532 -373.564c-59.3643 -181.897 -50.2402 -238.089 -39.5127 -255.393c3.51953 -5.67969 7.86719 -8.20703 15.0215 -8.70312c2.43945 -0.135742 26.6318 0.9375 99.2031 93.8291c44.9414 57.5166 90.5615 126.718 123.864 177.25
l1.28418 1.9502c6.18945 9.39551 18.8262 12.0039 28.2354 5.80078z" />
    <glyph glyph-name="m" unicode="m" horiz-adv-x="474" 
d="M503.873 261.545c5.76074 -9.66797 2.60059 -22.1758 -7.05371 -27.9502c-26.1836 -15.6123 -47.2646 -43.0186 -69.582 -72.0352c-13.6348 -17.7178 -27.7314 -36.0479 -43.5137 -52.1152c-18.9551 -19.3008 -34.9473 -12.5205 -40.9463 -8.70215
c-7.66992 4.88477 -16.4072 15.5234 -14.4707 38.4932c2.51367 29.9883 11.2568 57.6797 19.7148 84.4678c8.19336 25.9521 15.959 50.5459 17.9629 76.0908c-51.123 -34.8457 -170.062 -199.888 -210.662 -259.293l-2.52734 -6.16895
c-4.2666 -10.4219 -16.1689 -15.4082 -26.584 -11.1416c-10.4219 4.2666 -15.4082 16.1689 -11.1416 26.584l3.39648 8.29492c0 0.00683594 0.00683594 0.0136719 0.00683594 0.0205078l67.1162 163.935c17.0186 41.5645 34.6143 84.5488 42.8486 130.02
c4.30762 23.7578 -0.366211 30.7822 -1.35156 31.9512c-1.71875 2.03809 -6.10742 1.31836 -7.40527 1.04688c-10.7617 -2.22852 -22.1143 -11.8008 -30.7969 -19.8926c-45.9805 -42.8213 -81.1787 -103.157 -106.703 -150.938
c-11.7598 -22.0049 -26.5635 -49.459 -42.4062 -78.835c-25.748 -47.7607 -54.9414 -101.894 -77.6465 -144.892c-1.73926 -3.29492 -4.28711 -5.86328 -7.23535 -7.7041c-3.64844 -6.17578 -10.293 -10.0547 -17.4873 -10.0547
c-1.6709 0 -3.36914 0.204102 -5.06738 0.638672c-10.9043 2.79199 -17.4805 13.8994 -14.6885 24.8037c34.7705 135.774 81.6816 266.874 139.429 389.665c4.79004 10.1904 16.9307 14.5654 27.1211 9.76855c10.1836 -4.79004 14.5586 -16.9307 9.76855 -27.1143
c-30.3008 -64.4395 -57.4619 -131.283 -81.4912 -199.859c12.541 23.2686 24.1719 44.8525 33.751 62.7881c27.0186 50.5664 64.4863 114.632 114.869 161.557c13.3564 12.4395 29.7842 25.7285 50.3154 29.9814c18.4111 3.80469 35.9121 -1.69824 46.8701 -14.7285
c12.249 -14.5654 15.6055 -35.9727 10.2656 -65.4512c-9.00195 -49.6895 -27.4268 -94.6846 -45.2402 -138.199l-3.13867 -7.65625c46.4766 60.125 98.3809 121.1 130.23 139.178c24.7158 14.0225 42.2646 5.7002 50.458 -6.7666
c6.23633 -9.49805 6.54883 -20.4561 6.12109 -28.9414c-1.62402 -32.4541 -11.0195 -62.1973 -20.0957 -90.9619c-5.8291 -18.4521 -11.4199 -36.1768 -14.9121 -54.0918c7.65625 9.20605 15.1768 18.9824 22.9424 29.0781c23.6768 30.7764 48.1484 62.5986 81.0166 82.1982
c9.6748 5.76074 22.1826 2.60156 27.9434 -7.06641z" />
    <glyph glyph-name="n" unicode="n" horiz-adv-x="357" 
d="M380.476 254.174c9.0498 -6.68555 10.9629 -19.4521 4.27734 -28.5146c-25.7891 -34.8994 -50.3418 -73.4062 -74.0928 -110.643c-57.6797 -90.4463 -104.768 -164.274 -154.104 -164.281c-7.09277 0 -14.2334 1.52832 -21.4551 4.74902
c-42.9434 19.1514 -16.3389 96.2676 38.4805 242.334c23.0986 61.5449 57.0674 152.065 56.2588 181.489c-0.604492 -0.257812 -1.27051 -0.556641 -1.9834 -0.90332c-67.9443 -32.6309 -221.919 -291.943 -270.162 -395.046
c-0.15625 -0.666016 -0.339844 -1.3252 -0.50293 -1.99121c-2.2627 -9.32129 -10.6055 -15.5781 -19.791 -15.5781c-1.58984 0 -3.20703 0.183594 -4.82422 0.577148c-10.9385 2.65625 -17.6572 13.6758 -15.001 24.6143c0.27832 1.16895 0.597656 2.31738 0.882812 3.47949
c0.0615234 0.271484 0.136719 0.529297 0.205078 0.800781c34.7979 142.31 81.6211 280.387 139.273 410.447c4.55859 10.293 16.584 14.9336 26.8906 10.375c10.293 -4.55859 14.9336 -16.5977 10.375 -26.8906c-32.8408 -74.0664 -61.9863 -150.863 -87.4629 -229.521
c65.0029 108.585 148.329 229.487 202.469 255.487c24.8857 11.9502 39.71 5.67285 47.7676 -1.69141c27.1279 -24.8242 7.81348 -85.9482 -46.2314 -229.963c-25.083 -66.8301 -62.5508 -166.672 -57.1699 -191.619c26.5498 -4.00879 81.3623 81.7695 121.718 145.054
c24.125 37.8213 49.0586 76.9268 75.6768 112.954c6.69238 9.0498 19.4512 10.9727 28.5068 4.28125z" />
    <glyph glyph-name="o" unicode="o" horiz-adv-x="267" 
d="M277.382 258.121c11.1689 0.760742 20.9258 -7.78809 21.6523 -19.0254s-7.78613 -20.9316 -19.0234 -21.6582c-38.8877 -2.52051 -72.8701 -0.298828 -101.724 6.5293c-11.4141 -42.3115 -26.1094 -87.667 -49.29 -127.221
c-23.4932 -40.083 -49.2549 -60.3691 -76.627 -60.3691c-1.46094 0 -2.92871 0.0615234 -4.40332 0.176758c-36.4551 2.87402 -62.2715 28.5068 -70.832 70.3291c-14.5527 71.0898 22.7725 189.166 86.0293 234.406c-0.427734 2.62891 -0.801758 5.29199 -1.12109 7.99609
c-1.54199 13.0234 0.109375 27.3789 4.90625 42.6855c8.60742 27.4473 24.6816 51.042 45.2598 66.4365c24.166 18.0645 51.1035 19.7021 70.3232 4.25293c16.9775 -13.6484 25.3477 -38.4258 24.8789 -73.6377c-0.583984 -44.1865 -9.64648 -87.4629 -19.0146 -125.644
c22.8613 -5.33301 51.9385 -7.65625 88.9854 -5.25781zM93.835 117.365c21.2715 36.2988 35.0146 79.502 45.8096 119.918c-29.2266 13.8936 -50.5928 34.6484 -63.6914 62.0205c-43.2148 -40.6475 -69.7852 -131.025 -58.8877 -184.241
c7.32324 -35.7559 27.4805 -37.3457 34.1045 -37.8691c11.583 -0.889648 27.1611 13.7305 42.665 40.1719zM149.957 277.822c8.39062 34.7432 16.1885 73.4336 16.6914 111.744c0.407227 30.8164 -7.29004 39.4238 -9.66113 41.333
c-5.14941 4.13086 -15.2178 -1.28418 -20.3672 -5.12988c-13.5811 -10.1562 -24.7979 -26.9238 -30.7764 -45.9873c-3.06445 -9.7832 -4.17871 -18.4248 -3.32227 -25.6943c0.523438 -4.40918 1.22363 -10.3125 2.78613 -17.0518
c0.176758 -0.618164 0.326172 -1.23633 0.448242 -1.85449c4.48438 -17.8877 15.2188 -40.959 44.2012 -57.3594z" />
    <glyph glyph-name="o" unicode="&#xf6;" horiz-adv-x="267" 
d="M277.382 258.121c11.1689 0.760742 20.9258 -7.78809 21.6523 -19.0254s-7.78613 -20.9316 -19.0234 -21.6582c-38.8877 -2.52051 -72.8701 -0.298828 -101.724 6.5293c-11.4141 -42.3115 -26.1094 -87.667 -49.29 -127.221
c-23.4932 -40.083 -49.2549 -60.3691 -76.627 -60.3691c-1.46094 0 -2.92871 0.0615234 -4.40332 0.176758c-36.4551 2.87402 -62.2715 28.5068 -70.832 70.3291c-14.5527 71.0898 22.7725 189.166 86.0293 234.406c-0.427734 2.62891 -0.801758 5.29199 -1.12109 7.99609
c-1.54199 13.0234 0.109375 27.3789 4.90625 42.6855c8.60742 27.4473 24.6816 51.042 45.2598 66.4365c24.166 18.0645 51.1035 19.7021 70.3232 4.25293c16.9775 -13.6484 25.3477 -38.4258 24.8789 -73.6377c-0.583984 -44.1865 -9.64648 -87.4629 -19.0146 -125.644
c22.8613 -5.33301 51.9385 -7.65625 88.9854 -5.25781zM93.835 117.365c21.2715 36.2988 35.0146 79.502 45.8096 119.918c-29.2266 13.8936 -50.5928 34.6484 -63.6914 62.0205c-43.2148 -40.6475 -69.7852 -131.025 -58.8877 -184.241
c7.32324 -35.7559 27.4805 -37.3457 34.1045 -37.8691c11.583 -0.889648 27.1611 13.7305 42.665 40.1719zM149.957 277.822c8.39062 34.7432 16.1885 73.4336 16.6914 111.744c0.407227 30.8164 -7.29004 39.4238 -9.66113 41.333
c-5.14941 4.13086 -15.2178 -1.28418 -20.3672 -5.12988c-13.5811 -10.1562 -24.7979 -26.9238 -30.7764 -45.9873c-3.06445 -9.7832 -4.17871 -18.4248 -3.32227 -25.6943c0.523438 -4.40918 1.22363 -10.3125 2.78613 -17.0518
c0.176758 -0.618164 0.326172 -1.23633 0.448242 -1.85449c4.48438 -17.8877 15.2188 -40.959 44.2012 -57.3594z" />
    <glyph glyph-name="o" unicode="&#xf5;" horiz-adv-x="267" 
d="M277.382 258.121c11.1689 0.760742 20.9258 -7.78809 21.6523 -19.0254s-7.78613 -20.9316 -19.0234 -21.6582c-38.8877 -2.52051 -72.8701 -0.298828 -101.724 6.5293c-11.4141 -42.3115 -26.1094 -87.667 -49.29 -127.221
c-23.4932 -40.083 -49.2549 -60.3691 -76.627 -60.3691c-1.46094 0 -2.92871 0.0615234 -4.40332 0.176758c-36.4551 2.87402 -62.2715 28.5068 -70.832 70.3291c-14.5527 71.0898 22.7725 189.166 86.0293 234.406c-0.427734 2.62891 -0.801758 5.29199 -1.12109 7.99609
c-1.54199 13.0234 0.109375 27.3789 4.90625 42.6855c8.60742 27.4473 24.6816 51.042 45.2598 66.4365c24.166 18.0645 51.1035 19.7021 70.3232 4.25293c16.9775 -13.6484 25.3477 -38.4258 24.8789 -73.6377c-0.583984 -44.1865 -9.64648 -87.4629 -19.0146 -125.644
c22.8613 -5.33301 51.9385 -7.65625 88.9854 -5.25781zM93.835 117.365c21.2715 36.2988 35.0146 79.502 45.8096 119.918c-29.2266 13.8936 -50.5928 34.6484 -63.6914 62.0205c-43.2148 -40.6475 -69.7852 -131.025 -58.8877 -184.241
c7.32324 -35.7559 27.4805 -37.3457 34.1045 -37.8691c11.583 -0.889648 27.1611 13.7305 42.665 40.1719zM149.957 277.822c8.39062 34.7432 16.1885 73.4336 16.6914 111.744c0.407227 30.8164 -7.29004 39.4238 -9.66113 41.333
c-5.14941 4.13086 -15.2178 -1.28418 -20.3672 -5.12988c-13.5811 -10.1562 -24.7979 -26.9238 -30.7764 -45.9873c-3.06445 -9.7832 -4.17871 -18.4248 -3.32227 -25.6943c0.523438 -4.40918 1.22363 -10.3125 2.78613 -17.0518
c0.176758 -0.618164 0.326172 -1.23633 0.448242 -1.85449c4.48438 -17.8877 15.2188 -40.959 44.2012 -57.3594z" />
    <glyph glyph-name="o" unicode="&#xf4;" horiz-adv-x="267" 
d="M277.382 258.121c11.1689 0.760742 20.9258 -7.78809 21.6523 -19.0254s-7.78613 -20.9316 -19.0234 -21.6582c-38.8877 -2.52051 -72.8701 -0.298828 -101.724 6.5293c-11.4141 -42.3115 -26.1094 -87.667 -49.29 -127.221
c-23.4932 -40.083 -49.2549 -60.3691 -76.627 -60.3691c-1.46094 0 -2.92871 0.0615234 -4.40332 0.176758c-36.4551 2.87402 -62.2715 28.5068 -70.832 70.3291c-14.5527 71.0898 22.7725 189.166 86.0293 234.406c-0.427734 2.62891 -0.801758 5.29199 -1.12109 7.99609
c-1.54199 13.0234 0.109375 27.3789 4.90625 42.6855c8.60742 27.4473 24.6816 51.042 45.2598 66.4365c24.166 18.0645 51.1035 19.7021 70.3232 4.25293c16.9775 -13.6484 25.3477 -38.4258 24.8789 -73.6377c-0.583984 -44.1865 -9.64648 -87.4629 -19.0146 -125.644
c22.8613 -5.33301 51.9385 -7.65625 88.9854 -5.25781zM93.835 117.365c21.2715 36.2988 35.0146 79.502 45.8096 119.918c-29.2266 13.8936 -50.5928 34.6484 -63.6914 62.0205c-43.2148 -40.6475 -69.7852 -131.025 -58.8877 -184.241
c7.32324 -35.7559 27.4805 -37.3457 34.1045 -37.8691c11.583 -0.889648 27.1611 13.7305 42.665 40.1719zM149.957 277.822c8.39062 34.7432 16.1885 73.4336 16.6914 111.744c0.407227 30.8164 -7.29004 39.4238 -9.66113 41.333
c-5.14941 4.13086 -15.2178 -1.28418 -20.3672 -5.12988c-13.5811 -10.1562 -24.7979 -26.9238 -30.7764 -45.9873c-3.06445 -9.7832 -4.17871 -18.4248 -3.32227 -25.6943c0.523438 -4.40918 1.22363 -10.3125 2.78613 -17.0518
c0.176758 -0.618164 0.326172 -1.23633 0.448242 -1.85449c4.48438 -17.8877 15.2188 -40.959 44.2012 -57.3594z" />
    </font>
</defs>
</svg>
