<?xml version="1.0" standalone="no"?>
<!DOCTYPE svg PUBLIC "-//W3C//DTD SVG 1.1//EN" "http://www.w3.org/Graphics/SVG/1.1/DTD/svg11.dtd" >
<svg xmlns="http://www.w3.org/2000/svg" xmlns:xlink="http://www.w3.org/1999/xlink" version="1.1">
<metadata>
Created by FontForge 20170812 at Thu Jun 16 14:37:51 2022
 By www-data
</metadata>
<defs>
<font id="AloneRegular" horiz-adv-x="459" >
  <font-face 
    font-family="Alone"
    font-weight="400"
    font-stretch="normal"
    units-per-em="1000"
    panose-1="0 0 0 0 0 0 0 0 0 0"
    ascent="800"
    descent="-200"
    x-height="377.001"
    cap-height="655.328"
    bbox="-255.072 -386.31 907.931 843.839"
    underline-thickness="50"
    underline-position="-100"
    unicode-range="U+000A-20AC"
  />
<missing-glyph horiz-adv-x="527" 
d="M50 700h427v-700h-427v700zM78 680l185 -309l186 309h-371zM251 350l-180 300v-601zM264 329l-185 -308h370zM276 350l181 -303v605z" />
    <glyph glyph-name=".notdef" horiz-adv-x="527" 
d="M50 700h427v-700h-427v700zM78 680l185 -309l186 309h-371zM251 350l-180 300v-601zM264 329l-185 -308h370zM276 350l181 -303v605z" />
    <glyph glyph-name=".null" horiz-adv-x="0" 
 />
    <glyph glyph-name=".null" horiz-adv-x="0" 
 />
    <glyph glyph-name="LF" unicode="&#xa;" horiz-adv-x="0" 
 />
    <glyph glyph-name="controlCR" unicode="&#xd;" horiz-adv-x="0" 
 />
    <glyph glyph-name="space" unicode=" " horiz-adv-x="356" 
 />
    <glyph glyph-name="exclam" unicode="!" horiz-adv-x="445" 
d="M382.617 664.141c9.4502 -2.82129 14.8223 -12.7598 12.0254 -22.21c-12.4971 -41.9668 -29.6953 -81.542 -46.3291 -119.813l-3.84473 -8.83105c-73.835 -170.226 -141.761 -347.039 -201.891 -525.543c-2.51172 -7.45117 -9.46289 -12.1582 -16.9199 -12.1582
c-1.88672 0 -3.80859 0.303711 -5.70117 0.94043c-9.34277 3.1543 -14.3652 13.2773 -11.2168 22.6201c60.4395 179.449 128.729 357.209 202.969 528.351l3.84473 8.85547c16.2109 37.3018 32.9756 75.8711 44.8604 115.773
c2.80859 9.44434 12.7354 14.8301 22.2031 12.0156zM112.744 -87.9785c8.97461 -4.08203 12.9326 -14.6738 8.83789 -23.6484c-13.9199 -30.5469 -26.2744 -62.5762 -36.7246 -95.1943c-2.42773 -7.57617 -9.44434 -12.4082 -16.9961 -12.4082
c-1.80957 0 -3.64258 0.273438 -5.45215 0.856445c-9.39062 3.00488 -14.5625 13.0566 -11.5576 22.4473c10.8789 33.9453 23.7393 67.2891 38.2363 99.1035c4.10059 8.96875 14.6758 12.9385 23.6562 8.84375z" />
    <glyph glyph-name="quotedbl" unicode="&#x22;" horiz-adv-x="303" 
d="M160.271 619.15c8.55176 -4.90332 11.5088 -15.8115 6.60547 -24.3691c-26.125 -45.5557 -54.5654 -89.7842 -84.5293 -131.448c-3.4873 -4.85059 -8.95605 -7.43359 -14.5088 -7.43359c-3.6123 0 -7.25391 1.08887 -10.4082 3.35645
c-8.00391 5.76074 -9.8252 16.9189 -4.07031 24.9229c29.25 40.6758 57.0234 83.8633 82.542 128.365c4.90332 8.55176 15.8115 11.5156 24.3691 6.60645zM244.359 574.589c8.3252 -5.27832 10.8018 -16.3115 5.52344 -24.6367
c-21.376 -33.7246 -44.4658 -66.3906 -68.6152 -97.0684c-3.52344 -4.47559 -8.75488 -6.81445 -14.0391 -6.81445c-3.86816 0 -7.75977 1.25 -11.0332 3.82715c-7.74805 6.09961 -9.08691 17.3232 -2.9873 25.0713c23.3994 29.7314 45.7812 61.3857 66.5146 94.0986
c5.27832 8.3252 16.3115 10.8008 24.6367 5.52246z" />
    <glyph glyph-name="quotedbl" unicode="&#x201d;" horiz-adv-x="303" 
d="M160.271 619.15c8.55176 -4.90332 11.5088 -15.8115 6.60547 -24.3691c-26.125 -45.5557 -54.5654 -89.7842 -84.5293 -131.448c-3.4873 -4.85059 -8.95605 -7.43359 -14.5088 -7.43359c-3.6123 0 -7.25391 1.08887 -10.4082 3.35645
c-8.00391 5.76074 -9.8252 16.9189 -4.07031 24.9229c29.25 40.6758 57.0234 83.8633 82.542 128.365c4.90332 8.55176 15.8115 11.5156 24.3691 6.60645zM244.359 574.589c8.3252 -5.27832 10.8018 -16.3115 5.52344 -24.6367
c-21.376 -33.7246 -44.4658 -66.3906 -68.6152 -97.0684c-3.52344 -4.47559 -8.75488 -6.81445 -14.0391 -6.81445c-3.86816 0 -7.75977 1.25 -11.0332 3.82715c-7.74805 6.09961 -9.08691 17.3232 -2.9873 25.0713c23.3994 29.7314 45.7812 61.3857 66.5146 94.0986
c5.27832 8.3252 16.3115 10.8008 24.6367 5.52246z" />
    <glyph glyph-name="quotedbl" unicode="&#x201c;" horiz-adv-x="303" 
d="M160.271 619.15c8.55176 -4.90332 11.5088 -15.8115 6.60547 -24.3691c-26.125 -45.5557 -54.5654 -89.7842 -84.5293 -131.448c-3.4873 -4.85059 -8.95605 -7.43359 -14.5088 -7.43359c-3.6123 0 -7.25391 1.08887 -10.4082 3.35645
c-8.00391 5.76074 -9.8252 16.9189 -4.07031 24.9229c29.25 40.6758 57.0234 83.8633 82.542 128.365c4.90332 8.55176 15.8115 11.5156 24.3691 6.60645zM244.359 574.589c8.3252 -5.27832 10.8018 -16.3115 5.52344 -24.6367
c-21.376 -33.7246 -44.4658 -66.3906 -68.6152 -97.0684c-3.52344 -4.47559 -8.75488 -6.81445 -14.0391 -6.81445c-3.86816 0 -7.75977 1.25 -11.0332 3.82715c-7.74805 6.09961 -9.08691 17.3232 -2.9873 25.0713c23.3994 29.7314 45.7812 61.3857 66.5146 94.0986
c5.27832 8.3252 16.3115 10.8008 24.6367 5.52246z" />
    <glyph glyph-name="numbersign" unicode="#" horiz-adv-x="647" 
d="M585.879 648.258c9.13477 -3.70801 13.541 -14.1152 9.83984 -23.2383c-47.2461 -116.475 -93.5518 -234.318 -138.822 -352.941c25.3223 -0.702148 50.6445 -2.26758 75.9482 -4.71973c9.81348 -0.952148 17.002 -9.67676 16.0498 -19.4902
c-0.946289 -9.81348 -9.6709 -17.002 -19.4902 -16.0498c-28.6426 2.77344 -57.3086 4.32031 -85.9629 4.77832c-8.25977 -21.7754 -16.5381 -43.5391 -24.7207 -65.3613c19.4365 -1.39844 38.8428 -3.55273 58.1895 -6.6416
c9.73633 -1.55957 16.3721 -10.7119 14.8125 -20.4482c-1.55371 -9.74219 -10.7188 -16.3662 -20.4492 -14.8125c-21.7871 3.48145 -43.6631 5.70117 -65.5635 6.90918c-50.376 -135.168 -99.3418 -271.085 -146.438 -407.062
c-2.55859 -7.38574 -9.47363 -12.0156 -16.8711 -12.0156c-1.94043 0 -3.91016 0.31543 -5.84473 0.988281c-9.31348 3.22559 -14.2529 13.3965 -11.0273 22.71c45.8594 132.4 93.498 264.741 142.47 396.409c-41.8184 -0.172852 -83.583 -4.43359 -124.86 -12.7412
c-46.4541 -128.032 -91.0156 -257.07 -133.18 -386.524c-2.45801 -7.54004 -9.4502 -12.3311 -16.9727 -12.3311c-1.83301 0 -3.69531 0.279297 -5.53418 0.879883c-9.37305 3.05273 -14.4971 13.1279 -11.4443 22.5068c39.8721 122.42 81.8809 244.465 125.592 365.653
c-42.8125 -11.5332 -84.9287 -27.375 -125.812 -47.6143c-2.54688 -1.26172 -5.24902 -1.8623 -7.90918 -1.8623c-6.57617 0 -12.9023 3.64844 -16.0146 9.93848c-4.37988 8.83691 -0.761719 19.5488 8.0752 23.9229c50.6084 25.0605 103.02 43.7764 156.342 56.1367
c7.93848 21.7754 15.9365 43.5146 23.9941 65.2246c-32.5352 -5.73047 -64.9385 -12.9551 -97.1396 -21.6973c-1.56543 -0.422852 -3.14258 -0.625 -4.68945 -0.625c-7.86133 0 -15.0625 5.23145 -17.2168 13.1826c-2.58301 9.51562 3.03516 19.3232 12.5508 21.9062
c40.0391 10.8672 80.376 19.4609 120.897 25.8223c45.2939 120.843 92.2305 240.603 140.791 358.554c3.75488 9.11719 14.1992 13.4619 23.3047 9.71289c9.11719 -3.75488 13.4678 -14.1875 9.71289 -23.3047c-45.9961 -111.732 -90.5635 -225.077 -133.638 -339.445
c41.2051 4.93945 82.5713 7.55176 123.985 7.83105c46.8535 123.039 94.8135 245.274 143.797 366.028c3.70117 9.13477 14.1211 13.5391 23.25 9.83105zM381.21 172.819c7.96289 21.2754 15.9854 42.502 24.0254 63.7295
c-41.6045 -0.827148 -83.1436 -4.10059 -124.498 -9.78418c-7.87305 -21.1084 -15.7578 -42.2051 -23.5244 -63.3848c41.0625 6.93945 82.5176 10.0938 123.997 9.43945z" />
    <glyph glyph-name="dollar" unicode="$" horiz-adv-x="536" 
d="M475.471 516.023c12.2295 -26.4053 11.4102 -56.9697 8.56543 -77.9473c-7.98047 -58.9453 -37.1113 -107.923 -62.8145 -151.128c-5.04102 -8.46875 -15.9971 -11.2539 -24.4717 -6.21289c-8.46875 5.04102 -11.2539 15.9971 -6.21289 24.4717
c23.959 40.2773 51.1143 85.9287 58.1191 137.668c2.20801 16.2705 3.02344 39.5635 -5.58203 58.1543c-5.5166 11.9141 -14.2295 20.1387 -22.8945 25.8164c-58.9219 -117.618 -112.964 -238.926 -162.007 -363.369
c0.148438 -0.398438 0.302734 -0.802734 0.457031 -1.20117c18.0557 -47.6025 37.5752 -103.418 40.5928 -163.423c3.37402 -67.1162 -16.1934 -127.871 -52.3467 -162.513c-21.4297 -20.5312 -48.1738 -31.457 -75.1797 -31.457
c-9.66504 0 -19.3652 1.39844 -28.8691 4.26074c-2.45215 0.738281 -4.87988 1.5957 -7.28418 2.52441c-13.6338 -44.7344 -26.6963 -89.7607 -39.0801 -135.114c-2.16602 -7.93262 -9.36133 -13.1514 -17.2109 -13.1514c-1.55371 0 -3.13672 0.208008 -4.71387 0.636719
c-9.51562 2.59473 -15.1211 12.4141 -12.5205 21.9238c13.2529 48.5195 27.2979 96.6582 41.9678 144.481c-17.7881 14.7764 -32.3799 35.1768 -41.5986 59.1602c-19.21 49.9834 -16.0615 112.904 9.35547 187.031c18.1572 52.9355 38.9385 88.6953 65.415 112.535
c7.33203 6.59961 18.6211 6.00488 25.2148 -1.32129c6.59961 -7.32617 6.00488 -18.6152 -1.32129 -25.2148c-21.7812 -19.6094 -39.4268 -50.6201 -55.5303 -97.5801c-22.6201 -65.9795 -25.917 -120.7 -9.80176 -162.644
c4.89746 -12.7295 11.8486 -24.2148 20.1387 -33.7246c31.6006 100.015 66.3428 198.368 104.049 294.89c-0.779297 2.02344 -1.54688 4.05273 -2.32617 6.07617c-16.7461 43.5566 -34.0635 88.6006 -42.9482 137.132c-6.98047 38.1406 -13.8066 111.227 18.9004 172.208
c28.1904 52.5723 75.6748 77.085 110.548 88.3857c36.0635 11.6943 69.3535 13.3311 99.3467 5.21973c14.1875 27.7793 28.542 55.4219 43.2646 82.7793c4.67188 8.68262 15.4971 11.9316 24.1797 7.25977s11.9316 -15.4971 7.25977 -24.1797
c-14.1699 -26.3398 -28 -52.9414 -41.6699 -79.6738c14.2949 -8.65918 29.4287 -22.0615 39.0098 -42.7598zM263.565 -2.95508c-2.04102 40.5684 -12.6875 79.9414 -25.0059 115.939c-33.3262 -87.5645 -64.0879 -176.683 -92.3857 -267.086
c2.29102 -0.982422 4.60645 -1.875 6.94531 -2.57715c23.5723 -7.08789 49.376 -0.0654297 69.0566 18.7881c28.3516 27.1611 44.2109 78.8701 41.3896 134.936zM239.416 212.672c45.1455 111.779 94.2715 221.025 147.391 327.259
c-21.4541 4.1416 -45.4785 1.96973 -71.7168 -6.53418c-28.6367 -9.28418 -67.5156 -29.1904 -90.0938 -71.2949c-20.1387 -37.54 -25.6914 -91.8145 -15.2412 -148.903c6.30859 -34.499 17.5264 -67.9502 29.6611 -100.526z" />
    <glyph glyph-name="percent" unicode="%" horiz-adv-x="744" 
d="M689.021 632.314c6.85547 -7.08203 6.67871 -18.3828 -0.40332 -25.25c-238.984 -231.427 -442.477 -510.986 -604.835 -830.918c-3.14844 -6.20117 -9.42676 -9.77734 -15.9375 -9.77734c-2.71973 0 -5.47461 0.625 -8.06348 1.94043
c-8.7959 4.46289 -12.3066 15.2051 -7.84375 24.001c164.155 323.473 370.004 606.222 611.839 840.409c7.08203 6.86133 18.3887 6.67676 25.2441 -0.405273zM511.098 277.366c29.9277 3.20215 56.5742 -6.05176 75.0342 -26.0479
c34.6592 -37.5693 29.8926 -100.33 26.2383 -125.574c-12.3906 -85.5713 -59.3984 -165.959 -125.735 -215.032c-13.0029 -9.61719 -30.5234 -20.9658 -50.8105 -23.418c-2.55273 -0.30957 -5.09375 -0.458008 -7.60547 -0.458008
c-20.5967 0 -39.5332 10.1582 -50.6436 27.6133c-10.1709 15.9785 -14.0449 37.9326 -11.5039 65.248c3.95117 42.5088 20.168 85.9277 46.8887 125.556c23.8936 35.4326 52.917 63.9023 80.6016 90.0215c7.16504 6.7666 18.4658 6.44531 25.2383 -0.731445
c6.7666 -7.1709 6.43945 -18.4717 -0.731445 -25.2383c-26.2266 -24.751 -53.6611 -51.6201 -75.5078 -84.0176c-23.3818 -34.6768 -37.5391 -72.335 -40.9375 -108.898c-1.76172 -18.9717 0.333008 -33.7598 6.07031 -42.7637
c7.5459 -11.8604 20.1504 -11.3311 23.8457 -10.8848c11.9795 1.44043 24.3818 9.66504 33.8496 16.6699c58.8447 43.5264 100.58 115.095 111.631 191.441c6.09375 42.0264 -0.31543 78.0068 -17.1396 96.2412c-14.3066 15.5088 -34.3262 15.9131 -44.9844 14.7705
c-24.7451 -2.64844 -49.1807 -17.2051 -67.0459 -39.9268c-2.21387 -2.82129 -3.26758 -5.21973 -3.59473 -6.41602c3.46387 -8.50977 -0.130859 -18.3945 -8.47461 -22.626c-8.79004 -4.45703 -19.5381 -0.946289 -23.9951 7.84961
c-6.48047 12.7832 -3.56445 28.5479 7.99902 43.2588c23.7744 30.249 57.0586 49.6973 91.3135 53.3633zM66.7197 371.936c-8.97461 4.08887 -12.9443 14.668 -8.84375 23.6299c24.7861 54.4766 66.8252 96.0508 115.333 114.059
c40.2178 14.9316 78.2988 6.55273 99.3662 -21.8701c27.167 -36.6348 17.1455 -90.2539 11.5752 -111.606c-20.1982 -77.4473 -72.2646 -138.779 -135.876 -160.055c-8.68848 -2.9043 -16.9668 -4.33887 -24.6436 -4.33887c-15.9609 0 -29.3037 6.18359 -38.2129 18.1631
c-14.1455 19.0078 -11.9854 45.6514 -7.68262 64.6592c13.2119 58.3389 47.8057 104.097 83.2207 144.855c6.46289 7.43848 17.7461 8.23633 25.1846 1.76758c7.44531 -6.46289 8.23047 -17.7461 1.76758 -25.1846c-37.3965 -43.0322 -64.5215 -81.4941 -75.3525 -129.317
c-3.63574 -16.0498 -3.07617 -29.3086 1.5 -35.4561c4.4043 -5.91504 14.8721 -3.96289 22.8818 -1.2793c51.5068 17.2285 95.7178 70.2949 112.648 135.204c8.89648 34.1113 6.76562 64.5156 -5.70215 81.333c-16.4189 22.1504 -46.21 14.1338 -58.2607 9.66406
c-39.6582 -14.7227 -74.3828 -49.4893 -95.2598 -95.3721c-4.07617 -8.97461 -14.6572 -12.9443 -23.6436 -8.85547z" />
    <glyph glyph-name="ampersand" unicode="&#x26;" horiz-adv-x="583" 
d="M454.989 427.84c-43.5977 -63.2246 -98.9941 -121.642 -169.354 -178.563c-12.1641 -9.84277 -24.6436 -19.5488 -36.7598 -28.958c0.725586 -15.2822 1.9043 -30.5352 3.54102 -45.7168c4.49902 -41.7354 14.1875 -93.2188 34.7363 -137.495
c9.49805 9.33105 18.4668 18.7578 26.8398 27.8447c69.3184 75.2402 130.567 161.733 182.051 257.076c4.68359 8.67676 15.5146 11.9141 24.1914 7.22461c8.67676 -4.68359 11.9082 -15.5146 7.22461 -24.1914c-52.8936 -97.9551 -115.88 -186.883 -187.204 -264.307
c-10.7949 -11.7119 -22.5127 -23.9355 -35.1172 -35.915c6.95703 -10.373 14.7588 -19.9482 23.5186 -28.4229c41.6514 -40.3066 100.96 -47.4834 147.575 -17.8525c8.31934 5.29102 19.3525 2.82715 24.6436 -5.49219c5.29004 -8.31934 2.83203 -19.3525 -5.4873 -24.6426
c-25.1855 -16.0088 -53.1494 -23.8525 -81.0723 -23.8525c-39.5273 -0.00585938 -78.9893 15.6992 -110.488 46.1807c-9.46777 9.16504 -17.96 19.3291 -25.5713 30.2314c-33.9688 -27.875 -73.0615 -51.1436 -116.528 -58.4932
c-42.3955 -7.1709 -77.668 6.24902 -96.8242 36.8135c-15.1338 24.1436 -19.0195 58.4639 -10.3906 91.8135c8.28418 32.0166 26.1914 57.5293 38.9443 73.9365c35.1357 45.2051 77.3584 79.6738 119.094 112.232c-3.37402 140.429 29.5713 282.333 93.4922 397.82
c33.3145 60.2012 66.9268 96.4141 105.775 113.964c30.041 13.5684 59.9336 12.0928 82.0244 -4.04688c43.7939 -31.9932 40.5508 -102.865 38.5156 -123.819c-6.1709 -63.5762 -31.4805 -126.824 -77.3691 -193.369zM259.747 12.0176
c-25.9766 51.0371 -37.6689 110.895 -42.8408 158.747c-0.81543 7.58789 -1.52344 15.2051 -2.12402 22.8281c-33.9512 -27.167 -65.7305 -55.1846 -93.1357 -90.4385c-17.1748 -22.1025 -27.5234 -41.4795 -32.5703 -60.9756
c-6.03418 -23.3105 -3.64746 -48.4004 6.07617 -63.9092c15.2051 -24.251 44.4961 -23.2988 60.6113 -20.5732c37.9023 6.41504 73.0615 28.2314 103.983 54.3213zM248.049 264.952c5.07617 4.00488 10.1406 8.03418 15.1221 12.0566
c67.6641 54.7617 120.79 110.72 162.418 171.094c42.3545 61.4209 65.6533 119.171 71.2295 176.552c3.34473 34.3799 -2.79688 76.0195 -24.0361 91.5342c-6.50488 4.74902 -13.7773 6.43359 -20.8174 6.43359c-9.86719 0 -19.2764 -3.30273 -25.4473 -6.09375
c-31.0469 -14.0264 -60.2314 -46.3115 -89.2314 -98.7109c-56.8691 -102.74 -87.999 -227.583 -89.2373 -352.865z" />
    <glyph glyph-name="quotesingle" unicode="'" horiz-adv-x="206" 
d="M149.276 575.076c7.68262 -6.18359 8.90332 -17.4229 2.72656 -25.0938c-25.0068 -31.0889 -48.0967 -65.082 -68.6455 -101.032c-3.29102 -5.7666 -9.31348 -8.99805 -15.5146 -8.99805c-3.00488 0 -6.0459 0.755859 -8.84277 2.35645
c-8.56348 4.8916 -11.5332 15.7998 -6.6416 24.3574c21.4775 37.5752 45.6387 73.1328 71.8174 105.686c6.17676 7.68262 17.4062 8.9082 25.1006 2.72461z" />
    <glyph glyph-name="quotesingle" unicode="&#x2019;" horiz-adv-x="206" 
d="M149.276 575.076c7.68262 -6.18359 8.90332 -17.4229 2.72656 -25.0938c-25.0068 -31.0889 -48.0967 -65.082 -68.6455 -101.032c-3.29102 -5.7666 -9.31348 -8.99805 -15.5146 -8.99805c-3.00488 0 -6.0459 0.755859 -8.84277 2.35645
c-8.56348 4.8916 -11.5332 15.7998 -6.6416 24.3574c21.4775 37.5752 45.6387 73.1328 71.8174 105.686c6.17676 7.68262 17.4062 8.9082 25.1006 2.72461z" />
    <glyph glyph-name="quotesingle" unicode="&#x2018;" horiz-adv-x="206" 
d="M149.276 575.076c7.68262 -6.18359 8.90332 -17.4229 2.72656 -25.0938c-25.0068 -31.0889 -48.0967 -65.082 -68.6455 -101.032c-3.29102 -5.7666 -9.31348 -8.99805 -15.5146 -8.99805c-3.00488 0 -6.0459 0.755859 -8.84277 2.35645
c-8.56348 4.8916 -11.5332 15.7998 -6.6416 24.3574c21.4775 37.5752 45.6387 73.1328 71.8174 105.686c6.17676 7.68262 17.4062 8.9082 25.1006 2.72461z" />
    <glyph glyph-name="parenleft" unicode="(" horiz-adv-x="581" 
d="M528.316 744.439c4.8916 -8.56348 1.91211 -19.4717 -6.65137 -24.3633c-8.56934 -4.88574 -19.4658 -1.9043 -24.3574 6.65918c-13.1816 23.1025 -45.9365 8.48633 -52.376 5.32031c-33.5527 -16.5088 -66.7061 -47.252 -101.371 -93.998
c-47.2461 -63.7129 -83.8574 -136.561 -113.435 -199.422c-49.1084 -104.364 -116.945 -263.157 -138.982 -436.483c-6.68945 -52.6318 -7.17773 -92.123 -1.58984 -128.056c6.86719 -44.1035 23.5361 -80.625 46.9482 -102.822
c30.9395 -29.333 75.2988 -31.6543 107.869 -5.6416c7.70703 6.15332 18.9424 4.8916 25.0898 -2.80957c6.15332 -7.70703 4.8916 -18.9365 -2.80957 -25.0898c-21.4658 -17.1455 -47.0381 -25.6143 -72.6221 -25.6143
c-29.4043 -0.00585938 -58.832 11.1768 -82.1006 33.2432c-29.1133 27.6074 -49.5908 71.3779 -57.6602 123.248c-6.12402 39.3789 -5.67773 81.959 1.45215 138.048c22.6738 178.349 91.957 340.629 142.095 447.184c30.3213 64.4502 67.9502 139.262 117.059 205.485
c38.1348 51.4238 75.5137 85.6904 114.285 104.77c34.1768 16.8115 78.084 17.2637 99.1572 -19.6572z" />
    <glyph glyph-name="parenright" unicode=")" horiz-adv-x="542" 
d="M482.469 615.479c10.873 -60.8203 12.7266 -129.341 5.85254 -215.626c-16.5439 -207.462 -71.4727 -389.661 -158.853 -526.911c-50.1973 -78.8467 -101.841 -123.802 -157.876 -137.436c-8.64648 -2.10645 -17.7041 -3.18945 -26.8213 -3.18945
c-38.2598 0 -77.7158 19.0615 -93.6406 61.7969c-3.44531 9.24219 1.25586 19.5195 10.4922 22.9648c9.24805 3.44531 19.5254 -1.26172 22.9648 -10.498c13.0332 -34.9629 49.8291 -43.3721 78.5674 -36.3857c45.9961 11.1943 91.8193 52.209 136.203 121.914
c84.2559 132.353 137.292 308.904 153.378 510.575c6.62402 83.1611 4.91016 148.784 -5.40918 206.51c-4.16016 23.2217 -11.748 56.5479 -29.6191 77.7988c-11.8662 14.1104 -32.0166 22.9355 -45.9658 11.5449c-7.63574 -6.23633 -18.8896 -5.09961 -25.1201 2.53613
c-6.24316 7.63574 -5.10059 18.8838 2.53516 25.1201c27.7861 22.6855 68.998 15.7285 95.873 -16.2168c23.376 -27.8037 32.5645 -67.248 37.4385 -94.498z" />
    <glyph glyph-name="asterisk" unicode="*" horiz-adv-x="373" 
d="M322.728 374.507c1.70215 -9.71191 -4.78809 -18.9707 -14.5 -20.6553c-21.3105 -3.73145 -39.2354 -5.74316 -55.0479 -7.52246c-25.5303 -2.87402 -41.4023 -4.9209 -52.8818 -10.5391c7.05176 -44.5674 10.6816 -111.791 7.02148 -145.504
c-0.994141 -9.14648 -8.73633 -15.9307 -17.7285 -15.9307c-0.648438 0 -1.29688 0.0361328 -1.95117 0.107422c-9.80176 1.06543 -16.8896 9.87305 -15.8242 19.6748c2.69629 24.8164 0.738281 73.0205 -3.62988 112.209
c-24.1494 -37.5459 -55.7979 -75.9541 -86.4941 -96.1758c-3.02344 -1.99316 -6.43359 -2.95117 -9.80176 -2.95117c-5.80273 0 -11.498 2.82715 -14.9258 8.03418c-5.42773 8.23047 -3.1543 19.3057 5.08203 24.7275c32.0107 21.0908 68.2832 69.3545 91.3975 111.196
c-63.5039 19.1689 -78.7266 19.1455 -81.9463 18.5977c-9.63477 -2.02344 -19.085 4.1543 -21.1084 13.8066c-2.0293 9.64648 4.17773 19.1211 13.8301 21.1445c14.8535 3.12402 46.0254 -3.01758 103.18 -20.4541c0.869141 0.696289 1.84473 1.30371 2.85059 1.88672
c13.0029 32.6416 15.9248 61.2666 16.9844 107.477c0.226562 9.86133 8.43359 17.6875 18.2588 17.4434c9.85547 -0.226562 17.6631 -8.40332 17.4365 -18.2588c-1.125 -49.1084 -4.45215 -81.4287 -18.7051 -117.927c13.1992 3.33887 28.0527 5.01074 44.96 6.90918
c15.2998 1.71973 32.6475 3.67188 52.875 7.21289c9.73047 1.70215 18.9668 -4.79688 20.6689 -14.5088z" />
    <glyph glyph-name="plus" unicode="+" horiz-adv-x="297" 
d="M231.05 223.307c9.81934 -0.863281 17.0879 -9.5293 16.2188 -19.3545c-0.863281 -9.81934 -9.48633 -17.0918 -19.3477 -16.2227c-22.0547 1.94043 -44.1807 2.41699 -66.2832 1.5957c-12.8428 -58.4756 -23.2275 -117.809 -30.7734 -177.808
c-1.13672 -9.02832 -8.8252 -15.6279 -17.6924 -15.6279c-0.744141 0 -1.49414 0.0478516 -2.25 0.143555c-9.7832 1.23145 -16.7158 10.1582 -15.4844 19.9414c7.23633 57.541 17.0381 114.499 29.0654 170.689c-17.7344 -1.89844 -35.4209 -4.61816 -52.9824 -8.29004
c-1.23145 -0.255859 -2.45703 -0.380859 -3.6709 -0.380859c-8.27832 0 -15.6992 5.77832 -17.4609 14.1992c-2.02344 9.64648 4.16602 19.1084 13.8184 21.126c22.6318 4.7373 45.46 8.0166 68.3594 9.98633c15.8184 67.6523 35.082 134.043 57.6904 198.684
c3.24902 9.29004 12.3721 19.2822 23.9473 19.1689c8.71289 -0.0595703 16.1992 -5.6416 19.0732 -14.2227c3.12402 -9.34961 -1.91699 -19.4668 -11.2666 -22.5967c-0.0292969 -0.0117188 -0.0654297 -0.0175781 -0.0947266 -0.0292969
c-20.1807 -58.3271 -37.4746 -118.13 -52.043 -178.968c20.4062 0.416992 40.8242 -0.243164 61.1768 -2.03418z" />
    <glyph glyph-name="comma" unicode="," horiz-adv-x="237" 
d="M177.742 76.4688c8.50977 -4.98145 11.373 -15.9121 6.39746 -24.4219c-32.1064 -54.8633 -66.2715 -108.863 -101.544 -160.495c-3.45801 -5.05859 -9.05762 -7.78418 -14.7588 -7.78418c-3.46387 0 -6.96875 1.00586 -10.0518 3.1123
c-8.14062 5.55859 -10.2354 16.6689 -4.6709 24.8096c34.8018 50.9531 68.5205 104.239 100.204 158.389c4.97559 8.50977 15.9082 11.3721 24.4238 6.39062z" />
    <glyph glyph-name="hyphen" unicode="-" horiz-adv-x="334" 
d="M266.163 224.295c9.86133 -0.142578 17.7334 -8.24805 17.585 -18.1094c-0.142578 -9.77148 -8.10547 -17.5977 -17.8477 -17.5977h-0.260742c-65.1582 0.94043 -131.21 -1.41602 -196.262 -7.00977c-0.517578 -0.0419922 -1.03516 -0.0654297 -1.54688 -0.0654297
c-9.16504 0 -16.9668 7.02246 -17.7646 16.3242c-0.844727 9.8252 6.43359 18.4717 16.2588 19.3164c66.2295 5.69531 133.447 8.09961 199.838 7.1416z" />
    <glyph glyph-name="period" unicode="." horiz-adv-x="142" 
d="M77.0928 42.7207c9.74805 -1.51172 16.4199 -10.6348 14.9082 -20.377l-6.50488 -41.9551c-1.36914 -8.81934 -8.96875 -15.1211 -17.6221 -15.1211c-0.904297 0 -1.82715 0.0712891 -2.75586 0.213867c-9.74219 1.51172 -16.4131 10.6348 -14.9072 20.377
l6.50488 41.9551c1.51172 9.74219 10.623 16.4131 20.377 14.9072z" />
    <glyph glyph-name="slash" unicode="/" horiz-adv-x="569" 
d="M510.95 727.211c8.40332 -5.15918 11.0303 -16.1553 5.86426 -24.5527c-168.238 -273.745 -313.672 -570.866 -432.266 -883.115c-2.70801 -7.13574 -9.49219 -11.5215 -16.6934 -11.5215c-2.10645 0 -4.24316 0.375 -6.33203 1.16602
c-9.22461 3.50488 -13.8545 13.8125 -10.3555 23.0303c119.385 314.344 265.817 613.488 435.228 889.132c5.16602 8.40332 16.1514 11.0273 24.5547 5.86133z" />
    <glyph glyph-name="zero" unicode="0" 
d="M337.699 508.583c17.002 -9.47461 31.6396 -26.6611 43.5117 -51.0908c19.2461 -39.6162 28.2676 -89.623 27.583 -152.896c-0.821289 -75.5078 -14.3896 -151.795 -39.2412 -220.607c-25.9766 -71.9014 -63.0039 -131.562 -107.09 -172.517
c-31.9639 -29.6904 -64.2842 -46.0742 -96.0693 -48.6807c-2.74902 -0.226562 -5.49805 -0.339844 -8.22949 -0.339844c-37.1826 -0.00585938 -72.2461 20.6025 -90.9619 54.0898c-29.4814 52.751 -14.5615 122.581 -3.04004 159.514
c26.3691 84.541 72.6924 155.21 117.48 223.553c27.3926 41.7891 55.7197 84.9941 78.8574 130.604c4.45703 8.7959 15.1992 12.3066 24.001 7.84375c8.7959 -4.46289 12.3066 -15.2051 7.84375 -24.001c-24.0303 -47.377 -52.9111 -91.4268 -80.834 -134.024
c-45.4541 -69.3428 -88.3916 -134.835 -113.273 -214.609c-9.80762 -31.458 -22.8408 -90.3682 0.124023 -131.461c13.4912 -24.1436 38.4922 -37.7773 65.0996 -35.5869c23.6084 1.94043 48.7402 15.1455 74.6875 39.2539c39.9375 37.1113 73.7578 91.9092 97.8066 158.49
c23.5068 65.0869 36.3496 137.31 37.123 208.859c0.625 57.6064 -7.22461 102.389 -23.9893 136.905c-8.49219 17.4727 -18.4424 29.7559 -28.7734 35.5107c-7.77246 4.33203 -17.5439 5.90918 -29.0352 4.67773c-31.1777 -3.33301 -64.0938 -26.1074 -90.2969 -62.4805
c-27 -37.4678 -44.5977 -83.8271 -58.2432 -124.235c-3.16016 -9.33691 -13.2891 -14.3535 -22.626 -11.1992s-14.3535 13.2832 -11.1992 22.626c14.5029 42.9189 33.3379 92.373 63.0996 133.674c32.6006 45.252 73.6094 72.6445 115.476 77.1143
c18.9658 2.0293 35.8613 -0.994141 50.209 -8.98633z" />
    <glyph glyph-name="one" unicode="1" horiz-adv-x="394" 
d="M323.267 518.693c20.418 -17.9541 22.2754 -50.1445 20.2402 -73.9902c-2.85645 -33.4453 -10.9385 -64.7959 -22.2041 -101.574c-18.3828 -60.0293 -40.0986 -119.355 -61.0938 -176.725c-33.1777 -90.665 -67.4922 -184.419 -88.708 -281.577
c-0.541992 -2.47559 -1.625 -4.68359 -3.02344 -6.61816c0.452148 -0.213867 0.910156 -0.421875 1.35645 -0.635742c3.57031 -1.67188 7.11719 -3.33789 10.6523 -4.92676c39.3252 -17.6387 52.6084 -5.35547 56.9707 -1.31445
c7.24219 6.68945 18.5371 6.24902 25.2324 -0.993164c6.68945 -7.24219 6.24316 -18.5312 -0.993164 -25.2266c-9.72363 -8.98633 -24.4941 -17.2705 -45.9297 -17.2705c-13.7529 0 -30.2373 3.41016 -49.8936 12.2236c-3.71973 1.66602 -7.45703 3.41602 -11.2061 5.17773
c-19.6211 9.20605 -38.1709 17.9004 -54.6074 14.3115c-7.0166 -1.5293 -13.7949 -5.3916 -19.6211 -11.1758c-6.99219 -6.94531 -18.2988 -6.90918 -25.25 0.0830078c-6.95117 6.99805 -6.90918 18.3047 0.0830078 25.25c10.6523 10.5811 23.5068 17.7578 37.1768 20.7334
c15.3779 3.35059 30.0947 1.24414 44.0322 -3.09375c0.0537109 0.363281 0.0478516 0.726562 0.125 1.0957c21.7334 99.5322 56.4697 194.44 90.0635 286.23c20.835 56.9287 42.3779 115.791 60.4814 174.909c10.5986 34.5996 18.1807 63.8555 20.7695 94.1582
c1.80957 21.168 -1.34473 38.0752 -8.23633 44.1338c-3.78516 3.32715 -10.2002 3.74414 -19.0791 1.23242c-14.6338 -4.1416 -29.9277 -13.2471 -48.126 -28.6484c-28.1611 -23.834 -52.8223 -53.2979 -73.2822 -87.5586
c-7.36719 -12.3311 -14.2588 -25.6797 -14.8066 -39.7842c-0.380859 -9.85547 -8.77148 -17.5205 -18.5312 -17.1455c-9.85547 0.386719 -17.5264 8.68262 -17.1455 18.5381c0.863281 22.1562 10.5098 41.0986 19.8291 56.7021
c22.4893 37.6465 49.6973 70.1152 80.8691 96.502c22.2334 18.8174 41.7705 30.1777 61.4863 35.7539c26.5117 7.49805 43.1094 -0.636719 52.3691 -8.77734z" />
    <glyph glyph-name="two" unicode="2" horiz-adv-x="501" 
d="M376.211 523.192c27.3037 -8.70605 50.9092 -35.4062 63.1504 -71.4463c9.00391 -26.4941 12.4678 -57.1777 10.8906 -96.5742c-2.96973 -74.2881 -21.3945 -150.718 -54.7627 -227.16c-28.7256 -65.8135 -66.5088 -126.407 -110.606 -177.735
c4.87402 -3.17773 9.71777 -6.40332 14.5439 -9.61719c3.61816 -2.41016 7.22461 -4.80859 10.8252 -7.17676c35.123 -23.0967 75.9297 -45.0508 112.226 -32.75c9.34277 3.16602 19.4717 -1.83887 22.6377 -11.1758s-1.83887 -19.4717 -11.1758 -22.6377
c-50.8525 -17.2344 -100.979 8.89648 -143.309 36.7354c-3.6543 2.4043 -7.31445 4.83789 -10.9863 7.28418c-6.34375 4.21973 -12.7236 8.46875 -19.1445 12.5811c-3.5293 -3.64844 -7.09961 -7.24316 -10.6943 -10.7783
c-18.1445 -17.8232 -46.0908 -43.1924 -79.1016 -57.6592c-18.3057 -8.0166 -36.8965 -12.0459 -54.7734 -12.0459c-15.2764 0 -30.0293 2.93359 -43.6279 8.83691c-3.50488 1.52344 -12.8184 5.56445 -18.252 15.5088c-4.27246 7.83203 -7.31934 21.3652 2.375 41.4082
c24.3643 50.3643 71.1045 83.1133 119.07 83.4229c28.0713 0.172852 53.917 -9.61719 78.4531 -23.0908c43.4316 49.5488 80.6562 108.685 108.811 173.188c31.5889 72.3594 49.0195 144.463 51.8105 214.305c1.39258 34.873 -1.47559 61.457 -9.02148 83.6602
c-8.48047 24.9648 -23.8818 43.7051 -40.1934 48.9062c-28.9521 9.23047 -60.3564 -22.1025 -76.502 -41.5986c-36.6406 -44.2344 -56.749 -94.2295 -56.624 -140.761c0 -0.547852 0.0292969 -1.08301 0.0830078 -1.58301
c4.29688 -2.41016 7.58789 -6.57031 8.72461 -11.7656c2.10645 -9.63477 -3.99316 -19.1504 -13.6221 -21.2568c-6.71875 -1.46387 -13.6396 0.178711 -19.0371 4.51074c-10.9443 8.78418 -11.8428 25.1797 -11.8545 29.9941
c-0.19043 70.3242 35.1533 127.806 64.8311 163.638c37.7959 45.6387 78.5908 64.4023 114.856 52.833zM224.788 -61.7754c1.2793 1.26172 2.55762 2.52832 3.8252 3.7959c-17.5137 8.73633 -35.2178 14.5986 -52.8867 14.4854
c-34.4629 -0.219727 -68.6758 -25.0537 -87.1602 -63.2656c-1.91602 -3.95703 -2.61816 -6.71875 -2.82031 -8.25977c0.219727 -0.101562 0.475586 -0.220703 0.773438 -0.345703c20.293 -8.80762 45.1035 -7.68848 69.8486 3.1543
c21.0312 9.21777 42.7705 25.2441 68.4199 50.4355z" />
    <glyph glyph-name="three" unicode="3" horiz-adv-x="500" 
d="M366.147 526.293c33.6475 -0.946289 60.6436 -16.8486 74.0518 -43.6289c9.91406 -19.7812 12.0918 -45.8174 5.98047 -71.4307c-5.74316 -24.0488 -17.3721 -43.8008 -26.8643 -58.3271c-24.8701 -38.0576 -55.9824 -70.1396 -90.665 -94.0156
c12.4854 -4.92188 24.3516 -12.2178 35.0342 -21.7578c28.7559 -25.6846 47.6504 -67.0146 50.543 -110.547c1.9043 -28.7314 -2.61816 -59.54 -13.8418 -94.1992c-37.0039 -114.314 -124.515 -198.838 -222.946 -215.322
c-9.77734 -1.63672 -18.96 -2.45801 -27.6191 -2.45801c-13.5029 0 -25.7324 1.99316 -36.9678 5.99805c-24.1855 8.62305 -43.9014 27.1963 -54.0957 50.959c-18.1152 42.2109 -4.07031 89.707 5.91602 114.262c24.0303 59.0947 67.0928 104.508 118.136 124.593
c37.1172 14.6045 71.0859 9.73047 93.2178 -13.3477c6.82617 -7.11719 6.58789 -18.4238 -0.529297 -25.2441c-7.12305 -6.82617 -18.418 -6.58789 -25.2441 0.529297c-15.8838 16.5684 -40.8721 10.1416 -54.3633 4.83301
c-41.3779 -16.2881 -78.0605 -55.4697 -98.1338 -104.816c-13.4141 -32.999 -15.6699 -64.6113 -6.17773 -86.7256c6.29004 -14.6631 18.418 -26.1074 33.2783 -31.4102c12.7295 -4.54102 27.5654 -5.16602 46.6924 -1.95801
c84.1191 14.0859 162.436 90.8906 194.881 191.107c9.7959 30.2676 13.7832 56.708 12.1826 80.834c-2.25 33.915 -17.0801 66.9736 -38.7002 86.2852c-20.5615 18.3652 -47.1631 24.6855 -71.1641 16.8838c-9.23047 -2.99316 -19.1445 1.91016 -22.3584 11.0566
c-3.21387 9.14062 1.45215 19.1797 10.5156 22.6133c51.2207 19.418 98.2939 58.9746 132.537 111.38c11.7471 17.9785 18.5371 32.499 22.0186 47.085c4.13574 17.3057 2.94531 34.9326 -3.17285 47.1387c-10.4268 20.8047 -33.6484 23.6729 -43.1523 23.9346
c-52.542 1.5 -103.841 -46.668 -119.278 -111.987c-2.26172 -9.59277 -11.8965 -15.5322 -21.4775 -13.2646c-9.59277 2.26172 -15.5322 11.8848 -13.2646 21.4775c19.252 81.4473 85.6006 141.393 155.032 139.471z" />
    <glyph glyph-name="four" unicode="4" horiz-adv-x="602" 
d="M540.431 526.978c9.21191 -3.51758 13.8311 -13.8369 10.3018 -23.043c-79.667 -208.628 -152.044 -424.665 -215.138 -642.101c-2.26758 -7.80762 -9.39746 -12.8838 -17.1396 -12.8838c-1.64258 0 -3.32031 0.232422 -4.98047 0.714844
c-9.46777 2.74316 -14.9131 12.6514 -12.1699 22.1191c26.3574 90.8438 54.4229 181.407 83.8691 271.334c1.59473 15.8125 -6.18945 31.3389 -14.8604 39.8672c-8.94434 8.7959 -20.8223 14.4434 -38.5264 18.2998c-11.9258 2.60059 -23.7568 3.94531 -35.3857 4.2666
c-5.13574 -9.08691 -10.4023 -18.0908 -15.7881 -26.9941c-30.5293 -50.4658 -73.4014 -111.405 -134.454 -134.912c-12.8662 -4.95117 -25.2148 -7.42676 -36.7656 -7.42676c-13.1396 0 -25.2441 3.20215 -35.9082 9.58789
c-13.1875 7.8916 -21.6436 20.2822 -23.209 33.9932c-1.19629 10.4863 1.74902 19.8887 4.45117 26.9111c14.4434 37.4863 43.5439 67.9258 88.9746 93.0635c44.2344 24.4766 88.7363 38.2832 131.394 41.0322c45.0801 83.4766 79.6201 174.695 102.883 271.841
c2.29688 9.59277 11.9434 15.4961 21.5186 13.2051c9.59277 -2.29688 15.502 -11.9316 13.2051 -21.5186c-22.4893 -93.9199 -55.2324 -182.52 -97.5986 -264.264c8.2002 -0.857422 16.3115 -2.1543 24.2979 -3.89844c15.3125 -3.33887 37.7783 -9.84961 55.959 -27.7324
c2.99902 -2.95801 5.67676 -6.20117 8.2002 -9.55762c35.9629 107.274 73.9844 213.454 113.821 317.789c3.51758 9.20605 13.8311 13.8242 23.0488 10.3066zM250.065 197.036c1.05957 1.74414 2.10938 3.48535 3.15039 5.24707
c-35.7539 -6.23633 -67.7949 -20.2334 -92.2246 -33.748c-38.3076 -21.1924 -61.4814 -44.9131 -72.9375 -74.6504c-1.14258 -2.96387 -2.61816 -7.22461 -2.29688 -10.0332c0.428711 -3.75488 4.76074 -6.62305 6.07617 -7.4082
c10.4199 -6.24316 24.3809 -6.06445 41.4961 0.523438c51.5244 19.8408 91.3018 78.0303 116.736 120.069z" />
    <glyph glyph-name="five" unicode="5" horiz-adv-x="506" 
d="M328.484 -31.8018c-23.418 -32.1602 -55.1338 -58.1064 -96.9043 -79.3223c-18.9482 -9.61719 -47.3232 -22.168 -77.8467 -22.168c-1.18457 0 -2.375 0.0234375 -3.56543 0.0595703c-33.0342 1.07129 -63.2422 18.1211 -80.8037 45.5977
c-19.3525 30.2793 -24.5771 74.5439 -13.9727 118.403c9.15918 37.8848 27.6787 69.9668 45.8711 99.5791c5.15332 8.39746 16.1572 11.0342 24.5547 5.86816c8.40332 -5.15918 11.0273 -16.1514 5.86816 -24.5547c-16.6924 -27.1787 -33.6592 -56.458 -41.5918 -89.2842
c-8.24219 -34.082 -4.65918 -68.8604 9.34961 -90.7783c11.3848 -17.8174 30.2979 -28.4404 51.877 -29.1426c17.96 -0.577148 38.3779 5.21875 64.0928 18.2637c36.6533 18.5977 64.2012 41.0039 84.2207 68.4922c24.1318 33.1357 36.6709 74.2695 34.4092 112.845
c-2.30859 39.2832 -21.0488 78.6025 -48.9121 102.621c-25.1074 21.6387 -57.7852 32.1426 -92.0752 29.584c-6.40918 -0.482422 -12.9141 -1.38672 -19.7998 -2.35059c-15.3662 -2.14258 -31.2383 -4.35645 -48.0439 -2.04102
c-9.73047 1.33887 -16.8242 5.68945 -21.085 12.9316c-3.96387 6.73633 -6.70703 18.2402 2.71973 34.7549l97.4854 170.82c-18.2041 7.05176 -36.8965 13.9609 -54.9756 15.5498c-13.6699 1.20215 -33.2432 -0.321289 -48.9482 -14.4199
c-6.73633 -6.0459 -14.2285 -17.2344 -13.1992 -28.8867c0.869141 -9.81934 -6.3916 -18.4902 -16.2109 -19.3594c-9.81348 -0.875 -18.4902 6.3916 -19.3594 16.2109c-1.85645 21.0254 7.45703 42.9316 24.918 58.6064c19.6924 17.6807 46.6387 26 75.9238 23.4229
c24.4355 -2.14844 46.9131 -10.8848 68.6523 -19.335l1.09473 -0.428711l1.95215 3.42188c4.88574 8.56348 15.7822 11.5508 24.3516 6.65918c8.15918 -4.65332 11.1641 -14.752 7.21289 -23.1074l43.4072 -16.8711c22.7031 -8.8252 46.1807 -17.9482 68.9492 -19.1797
c13.3838 -0.719727 38.5928 1.13086 56.9463 21.6738c6.57031 7.34961 17.8535 7.98633 25.209 1.41602c7.34961 -6.57031 7.98633 -17.8535 1.41602 -25.209c-19.5557 -21.8877 -47.2822 -33.7246 -78.6387 -33.7246c-2.27344 0 -4.55859 0.0654297 -6.86719 0.19043
c-28.4639 1.54102 -54.6426 11.7119 -79.959 21.5547l-48.2334 18.7461l-97.3955 -170.666c8.96875 0.0292969 18.1689 1.30859 27.7383 2.64746c7.13574 0.994141 14.5146 2.02344 22.0664 2.58887c43.7471 3.27344 85.708 -10.2715 118.046 -38.1465
c35.457 -30.5527 58.3506 -78.2451 61.2432 -127.574c2.74316 -46.6924 -12.2715 -96.2471 -41.1875 -135.959z" />
    <glyph glyph-name="six" unicode="6" horiz-adv-x="455" 
d="M96.9355 -167.594c-26.8867 20.6865 -44.3242 59.7393 -46.6514 104.45c-2.2373 43.0508 9.19434 84.1963 17.9961 111.398c28.666 88.6182 74.8887 164.857 111.952 221.375c43.2344 65.9268 89.5996 127.901 137.792 184.205
c17.3232 20.2393 36.1406 41.2822 58.874 56.6602c7.16504 4.85059 16.7822 3.8623 22.8164 -2.35645c6.02832 -6.21289 6.73047 -15.8535 1.66016 -22.876l-7.73633 -10.7119c-3.41602 -4.71875 -8.70703 -7.27734 -14.1162 -7.39062
c-12.2236 -11.0215 -23.5898 -23.9297 -34.3789 -36.54c-47.21 -55.1553 -92.6523 -115.904 -135.054 -180.569c-30.749 -46.8828 -67.9736 -107.691 -95.2061 -177.427c32.2012 9.83105 65.4326 9.86035 70.7529 9.79492
c28.7383 -0.344727 54.5664 -12.8535 70.8721 -34.3018c9.12305 -12.0098 16.0146 -27.7861 19.9365 -45.6338c7.98047 -36.3135 3.09473 -76.3887 -13.4014 -109.959c-15.9014 -32.3506 -41.5986 -57.1191 -72.3604 -69.7412
c-13.2949 -5.45703 -26.9053 -8.15332 -40.0693 -8.15332c-19.6807 0 -38.3848 6.01074 -53.6787 17.7764zM98.7559 26.0215c-10.0576 -33.8203 -14.1377 -61.7891 -12.8105 -87.3018c1.76172 -33.9336 14.3184 -63.8262 32.7607 -78.0137
c15.5498 -11.9619 36.8486 -13.7471 58.4219 -4.8916c22.3584 9.17676 41.9912 28.292 53.8691 52.459c12.8008 26.0537 16.752 58.4043 10.5684 86.5469c-2.81445 12.8242 -7.48047 23.7861 -13.4912 31.6953c-13.1338 17.2881 -32.499 20.0791 -42.8721 20.2041
c-24.1738 0.303711 -65.5283 -5.06445 -86.4463 -20.6982z" />
    <glyph glyph-name="seven" unicode="7" horiz-adv-x="347" 
d="M59.0576 364.881c-8.58105 4.8623 -11.5908 15.7598 -6.73438 24.3174c31.874 56.208 81.3936 96.3242 135.864 110.077c40.9375 10.3311 65.5986 -2.07715 79.0957 -14.3066c19.3115 -17.502 30.4346 -48.3291 29.7559 -82.4531
c-0.571289 -28.7197 -8.70605 -55.6367 -17.4062 -80.4473c-19.9961 -56.9756 -45.4014 -111.054 -70.5986 -163.424c13.3604 0.577148 26.75 0.594727 40.1396 0c9.84863 -0.43457 17.4775 -8.77832 17.043 -18.627s-8.86719 -17.4902 -18.627 -17.0439
c-18.8115 0.838867 -37.6055 0.398438 -56.3281 -1.26172c-7.21875 -15.0322 -14.4492 -30.1836 -21.4355 -45.3174c-33.3379 -72.1865 -68.8477 -158.77 -79.4883 -253.66c-1.02344 -9.12305 -8.75391 -15.8652 -17.7227 -15.8652
c-0.666992 0 -1.33984 0.0361328 -2.0127 0.113281c-9.80176 1.10059 -16.8535 9.93164 -15.7529 19.7334c11.2061 99.9492 48.0254 189.876 82.5596 264.651c3.76074 8.14062 7.62305 16.2637 11.4736 24.3867c-17.6865 -3.36816 -35.2539 -7.80176 -52.6367 -13.4072
c-1.81543 -0.588867 -3.66602 -0.868164 -5.48145 -0.868164c-7.54004 0 -14.5449 4.81445 -16.9854 12.3779c-3.0293 9.38477 2.12402 19.4424 11.5088 22.4717c27.0957 8.74805 54.626 14.9609 82.3643 18.6748c0.541992 1.11914 1.0957 2.27344 1.63086 3.38672
c27.1904 56.3809 55.3154 114.689 76.6562 175.51c7.71289 22.0068 14.9258 45.6387 15.3955 69.3359c0.463867 23.2393 -6.6123 44.9365 -18.0322 55.2852c-10.2119 9.26562 -25.8096 11.3369 -46.3711 6.14746c-45.0732 -11.373 -86.457 -45.2939 -113.54 -93.0635
c-4.8623 -8.58105 -15.7646 -11.5859 -24.334 -6.72363z" />
    <glyph glyph-name="eight" unicode="8" horiz-adv-x="421" 
d="M75.666 -168.296c-14.7588 17.2109 -23.7676 42.3379 -25.3867 70.7549c-1.20801 21.293 1.48828 44.0264 8.47461 71.5498c19.4482 76.5967 57.3506 147.45 104.816 196.511c-11.3604 28.8037 -20.9355 62.4746 -21.3584 98.6807
c-0.398438 34.665 7.76074 70.6934 23.5967 104.181c25.9766 54.9346 68.1816 90.9922 112.91 96.4609c27.5889 3.36816 52.9111 -5.83789 69.4492 -25.2627c14.3721 -16.877 22.5908 -42.5322 22.5488 -70.3838c-0.0292969 -20.4365 -4.12988 -42.1582 -12.9014 -68.3613
c-25.0127 -74.7041 -64.1533 -135.566 -126.212 -195.875c11.7715 -23.4893 23.4531 -47.835 32.207 -74.1387c16.9551 -50.9648 18.6992 -100.918 4.89844 -140.647c-18.0264 -51.8936 -63.3916 -88.1357 -115.577 -92.3252
c-3.19531 -0.255859 -6.34961 -0.380859 -9.45605 -0.380859c-27.7861 -0.00585938 -51.6797 10.2002 -68.0098 29.2373zM198.093 358.11c-13.5332 -28.6191 -20.5059 -59.2246 -20.1611 -88.5098c0.404297 -34.7188 11.0146 -67.7295 22.7207 -95.3848
c0.30957 -0.625 0.577148 -1.26172 0.80957 -1.9043c2.93359 -6.83789 5.9209 -13.3428 8.81934 -19.4482c1.47559 -3.10059 2.98145 -6.21289 4.50488 -9.3252c53.126 53.5596 87.166 107.888 109.179 173.624c7.5166 22.46 11.0342 40.5986 11.0576 57.083
c0.0292969 19.1924 -5.21387 36.8311 -14.0273 47.1797c-11.8066 13.8721 -28.833 14.0801 -37.9385 12.9668c-32.0107 -3.91016 -64.5635 -33.1416 -84.9639 -76.2812zM93.373 -34.7871c-6.06445 -23.8877 -8.42773 -43.1934 -7.43359 -60.7432
c1.14844 -20.335 7.29004 -38.3848 16.8359 -49.5195c13.4736 -15.7168 33.2607 -17.6514 47.502 -16.5088c37.4863 3.01172 71.5264 30.5176 84.7021 68.4502c15.1572 43.6338 3.34473 92.4443 -5.0459 117.659c-9.29004 27.9229 -22.1211 53.334 -35.7012 80.2393
c-4.94531 9.80176 -10.0518 19.9131 -14.9375 30.1016c-38.5811 -44.0146 -69.3604 -104.448 -85.9219 -169.679z" />
    <glyph glyph-name="nine" unicode="9" horiz-adv-x="453" 
d="M133.484 -133.554c-27.3271 0 -51.625 11.9639 -66.6875 34.2686c-14.8301 21.96 -20.2812 54.3047 -14.5801 86.5303c5.27832 29.8154 18.6807 55.5596 29.7617 74.6631c4.95117 8.52832 15.8711 11.4326 24.4053 6.48145
c8.52832 -4.95117 11.4326 -15.877 6.48145 -24.4053c-9.60547 -16.5557 -21.1807 -38.6699 -25.4834 -62.9688c-4.06445 -22.9648 -0.613281 -46.0791 9.00977 -60.3203c14.6572 -21.7041 41.4492 -21.3711 61.623 -13.8193
c34.3613 12.8545 67.3779 45.0088 100.948 98.2949c51.8047 82.25 87.0352 180.401 101.871 283.855c6.73633 47.0078 8.23047 88.374 4.49902 125.914c-6.12988 -9.75391 -11.6406 -20.5908 -17.3652 -31.8682l-2.56445 -5.03418
c-48.8047 -95.6279 -96.9375 -159.912 -151.491 -202.313c-22.8223 -17.7461 -42.6807 -27.9756 -62.5039 -32.207c-22.7871 -4.8623 -42.6279 0.421875 -55.8809 14.877c-12.0449 13.1455 -18.0791 34.29 -16.1445 56.5654
c1.59473 18.3945 7.80762 34.6826 14.2881 49.5488c26.7861 61.4277 64.8379 114.44 110.049 153.319c34.6768 29.8213 69.2646 47.0498 102.805 51.1973c25.042 3.10645 46.3467 -4.04102 59.6172 -19.4004c4.99316 6.19531 13.0566 13.5273 23.7334 14.5029
c6.78418 0.619141 13.3428 -1.54102 18.4961 -6.06934c8.31348 -7.31348 9.81934 -18.0967 10.5449 -23.2744c6.28418 -44.8115 5.3916 -94.1465 -2.7373 -150.825c-15.5439 -108.376 -52.5479 -211.366 -107.007 -297.818
c-37.8906 -60.1416 -76.6982 -97.0088 -118.647 -112.702c-12.5811 -4.70703 -25.1025 -6.99219 -37.04 -6.99219zM316.125 399.239c2.98145 5.86816 5.99902 11.8008 9.1709 17.6865c-1.26758 1.34473 -2.34473 2.91602 -3.17188 4.67773
c-4.74316 10.1289 -15.4971 12.4316 -24.2988 12.4316c-2.5293 0 -4.89746 -0.19043 -6.91504 -0.44043c-26.4287 -3.27344 -54.6553 -17.6807 -83.9053 -42.8359c-41.1641 -35.3975 -75.9482 -83.9883 -100.598 -140.518
c-5.2666 -12.0752 -10.3008 -25.084 -11.4492 -38.3613c-1.03516 -11.9258 1.73828 -23.7266 6.89746 -29.3564c5.57031 -6.08203 15.0918 -5.57617 22.1025 -4.08203c14.3545 3.06445 29.625 11.1641 48.0381 25.4766c50.2686 39.0752 95.2588 99.5625 141.6 190.353z" />
    <glyph glyph-name="colon" unicode=":" horiz-adv-x="240" 
d="M182.231 356.457c8.18262 -5.49902 10.3604 -16.5898 4.85547 -24.7725l-32.9395 -49.0078c-3.44531 -5.12988 -9.08691 -7.89746 -14.8359 -7.89746c-3.42188 0 -6.88574 0.981445 -9.94434 3.03418c-8.18262 5.50488 -10.3545 16.5977 -4.85547 24.7803
l32.9395 49.0078c5.49902 8.17676 16.5918 10.3604 24.7803 4.85547zM114.687 44.1211c8.3252 -5.27832 10.8027 -16.3066 5.53027 -24.6377c-11.8486 -18.7041 -24.8516 -36.5693 -38.6523 -53.0898c-3.53516 -4.23145 -8.61133 -6.40918 -13.7178 -6.40918
c-4.03516 0 -8.09375 1.36328 -11.4326 4.1543c-7.57617 6.32031 -8.58203 17.5859 -2.26172 25.1494c12.8008 15.3242 24.876 31.916 35.8975 49.3047c5.27832 8.3252 16.3057 10.8066 24.6367 5.52832z" />
    <glyph glyph-name="semicolon" unicode=";" horiz-adv-x="342" 
d="M281.867 368.722c8.76562 -4.52246 12.2061 -15.2871 7.68945 -24.0527c-9.34277 -18.0977 -18.1387 -36.8916 -26.1553 -55.8574c-2.88672 -6.81445 -9.49805 -10.9092 -16.4551 -10.9092c-2.32129 0 -4.67773 0.458008 -6.94531 1.41602
c-9.08691 3.83887 -13.3359 14.3125 -9.49707 23.3936c8.37305 19.7998 17.5615 39.4268 27.3154 58.3271c4.5166 8.76562 15.2939 12.2051 24.0479 7.68262zM191.155 39.0254c8.71875 -4.6123 12.0391 -15.418 7.42676 -24.1309
c-32.3506 -61.1357 -72.1221 -115.106 -118.201 -160.412c-3.47559 -3.41602 -7.99805 -5.12402 -12.5205 -5.12402c-4.62402 0 -9.23633 1.7793 -12.7354 5.33789c-6.90918 7.03418 -6.82031 18.335 0.213867 25.25c43.4668 42.7285 81.0479 93.7529 111.685 151.646
c4.6123 8.71289 15.4131 12.0518 24.1318 7.43359z" />
    <glyph glyph-name="less" unicode="&#x3c;" horiz-adv-x="371" 
d="M313.156 368.823c8.03418 -5.71875 9.90234 -16.8643 4.18945 -24.8984c-60.3262 -84.6904 -142.499 -136.269 -218.405 -180.164c34.665 -24.2207 77.334 -31.2725 127.895 -37.4619c9.7832 -1.19629 16.7461 -10.0996 15.5498 -19.8896
c-1.10645 -9.05176 -8.80762 -15.6875 -17.6982 -15.6875c-0.725586 0 -1.45117 0.0419922 -2.18945 0.130859c-52.5479 6.43359 -117.944 14.4375 -167.166 62.9092c-3.98145 3.92188 -5.89746 9.47461 -5.18359 15.0146c0.719727 5.54004 3.9873 10.4199 8.83105 13.1992
c78.5371 45.0078 167.554 96.0146 229.278 182.663c5.71875 8.02832 16.8652 9.90918 24.8994 4.18457z" />
    <glyph glyph-name="equal" unicode="=" horiz-adv-x="519" 
d="M102.087 250.193c-8.43262 0 -15.9326 5.99805 -17.5332 14.5791c-1.80957 9.68848 4.58203 19.0137 14.2764 20.8232c109.881 20.4961 221.827 26.5605 332.69 18.0322c9.83105 -0.755859 17.1865 -9.33691 16.4307 -19.168s-9.40234 -17.1865 -19.168 -16.4307
c-107.78 8.29004 -216.584 2.39258 -323.406 -17.5322c-1.10059 -0.202148 -2.20117 -0.303711 -3.29004 -0.303711zM453.658 176.851c9.77148 -1.31543 16.627 -10.3125 15.3115 -20.084s-10.3076 -16.6211 -20.0791 -15.3057
c-125.699 16.9424 -252.666 12.2822 -377.371 -13.8613c-1.23828 -0.255859 -2.46973 -0.380859 -3.68359 -0.380859c-8.27246 0 -15.6934 5.77832 -17.4551 14.1934c-2.02344 9.65234 4.1543 19.1143 13.8066 21.1377c128.705 26.9766 259.736 31.791 389.471 14.3008z" />
    <glyph glyph-name="greater" unicode="&#x3e;" horiz-adv-x="388" 
d="M321.259 196.151c17.252 -12.4258 17.9453 -26.5732 16.8203 -33.9111c-1.67773 -10.9082 -8.83105 -17.5381 -11.8896 -20.3711c-16.5264 -15.3359 -34.7305 -26.3574 -51.9648 -36.3311c-64.5938 -37.3906 -131.925 -69.2354 -200.131 -94.6406
c-2.05273 -0.761719 -4.15332 -1.125 -6.23047 -1.125c-7.24219 0 -14.0566 4.43945 -16.7344 11.6279c-3.43945 9.24219 1.26172 19.5195 10.5039 22.9648c66.3311 24.709 131.841 55.6904 194.702 92.0811c15.0322 8.7002 30.8086 18.21 44.3652 30.499
c-0.101562 0.0771484 -0.203125 0.154297 -0.316406 0.231445c-16.7764 12.0928 -35.457 20.8525 -55.2324 30.1299c-35.6885 16.7402 -72.5908 34.0518 -98.8291 72.1865c-5.59375 8.12305 -3.53516 19.2393 4.58789 24.8271
c8.12891 5.58789 19.2334 3.53516 24.8271 -4.58789c20.7451 -30.1602 51.75 -44.7051 84.582 -60.1006c20.3828 -9.55762 41.4678 -19.4482 60.9395 -33.4805z" />
    <glyph glyph-name="question" unicode="?" horiz-adv-x="478" 
d="M417.594 614.771c10.7773 -22.459 13.2617 -51.708 7.36426 -86.9385c-9.93848 -59.5107 -36.4443 -111.387 -58.416 -149.938c-27.4521 -48.1504 -58.6357 -93.9082 -88.79 -138.154c-53.1133 -77.9414 -108.036 -158.537 -141.797 -252.172
c-2.61816 -7.27246 -9.47949 -11.8008 -16.793 -11.8008c-2.01172 0 -4.05859 0.344727 -6.05859 1.06445c-9.27734 3.34473 -14.0859 13.5684 -10.7412 22.8457c35.2959 97.8896 91.5156 180.39 145.885 260.17c29.7559 43.6689 60.5293 88.8203 87.2734 135.732
c20.5137 35.9688 45.2051 84.1846 54.2207 138.132c4.65332 27.833 3.18945 49.9053 -4.35059 65.6104c-7.05762 14.7227 -20.5488 24.8271 -36.0811 27.0352c-13.8242 1.95801 -29.4395 -1.58301 -47.793 -10.8311c-32.041 -16.1396 -60.249 -42.9971 -81.5898 -77.6738
c-10.4561 -16.9902 -16.5977 -31.7666 -19.3291 -46.5195c-3.12402 -16.8896 -1.1543 -33.8262 5.2666 -45.2939c4.81445 -8.60547 1.74414 -19.4844 -6.86133 -24.2988c-8.58105 -4.81445 -19.4775 -1.75 -24.2979 6.85547
c-10.5156 18.7881 -13.8779 44.0264 -9.21777 69.2295c3.51074 18.96 11.3721 38.1699 24.0361 58.7432c24.8047 40.3125 57.9766 71.7285 95.9326 90.8496c25.0957 12.6406 47.6445 17.3125 68.8779 14.2949c27.3809 -3.88574 51.0244 -21.4355 63.2598 -46.9424z
M100.159 -85.0723c9.85547 -0.0957031 17.7783 -8.15918 17.6826 -18.0264c-0.0595703 -6.32031 -3.39258 -11.8486 -8.37988 -14.9727c-8.87305 -19.9062 -17.2285 -40.5508 -24.834 -61.4033c-2.64258 -7.24219 -9.48633 -11.7354 -16.7705 -11.7354
c-2.0293 0 -4.10059 0.351562 -6.11816 1.08984c-9.26562 3.37988 -14.0322 13.6279 -10.6523 22.8936c8.03418 22.0127 16.8652 43.8115 26.25 64.7891c6.37402 14.3125 15.7705 17.3652 22.6084 17.3652h0.213867z" />
    <glyph glyph-name="at" unicode="@" horiz-adv-x="758" 
d="M666.147 581.664c30.0771 -46.6152 44.7197 -113.278 41.2383 -187.691c-5.05273 -107.769 -44.5322 -220.423 -117.338 -334.845c-28.7979 -45.2461 -68.7539 -101.104 -122.6 -131.668c-39.1641 -22.2275 -63.6348 -10.6172 -74.7334 -1.71387
c-16.5205 13.2471 -25.8877 37.0752 -27.8516 70.8242c-3.83887 66.0635 14.4131 128.449 32.0703 188.775c4.87402 16.6631 9.83105 33.6055 14.3242 50.667c-17.2822 -18.7461 -33.2432 -40.7715 -49.7393 -63.54c-27.7139 -38.248 -56.3682 -77.793 -94.0449 -103.608
c-23.5068 -16.0977 -38.5693 -6.11719 -43.9492 -1.07617c-10.2715 9.62305 -13.0928 25.1436 -8.39746 46.1445c19.627 87.8447 62.6592 166.369 121.164 221.096c10.4268 9.75391 42.1641 39.4316 78.0488 31.0166c16.2998 -3.82617 31.2373 -17.7695 38.9736 -36.3848
c5.45117 -13.1221 6.68262 -26.5303 3.7666 -38.5459c1.1543 -2.96973 1.51172 -6.26074 0.94043 -9.53418c-6.35547 -36.3379 -16.7578 -71.8838 -26.8213 -106.264c-17.5732 -60.0527 -34.1709 -116.778 -30.6895 -176.676
c1.29102 -22.2451 6.59375 -38.6641 14.5381 -45.0312c8.95605 -7.17676 23.8516 -1.29688 34.7715 4.9043c46.9961 26.6729 83.5244 78.0254 110.096 119.784c69.4258 109.102 107.043 215.876 111.804 317.349c3.14258 67.0508 -9.49121 126.234 -35.5693 166.654
c-29.4102 45.5918 -79.084 71.6279 -132.912 69.6641c-45.6807 -1.67188 -93.7715 -21.501 -147.016 -60.6357c-117.701 -86.499 -209.051 -230.159 -250.619 -394.147c-18.2168 -71.8594 -23.8467 -134.709 -17.1992 -192.119
c7.7959 -67.3662 33.749 -125.479 71.1992 -159.447c33.9209 -30.7549 80.6553 -44.3535 131.585 -38.2891c48.4062 5.7666 96.1162 27.7021 140.464 50.543c8.76562 4.51074 19.5312 1.07129 24.0479 -7.69434s1.07129 -19.5312 -7.69434 -24.0479
c-47.3232 -24.376 -98.5625 -47.8232 -152.587 -54.2568c-9.39062 -1.11914 -18.6807 -1.67285 -27.8213 -1.67285c-50.5605 -0.00585938 -96.6641 16.9492 -131.978 48.9658c-43.7705 39.7002 -73.9131 105.96 -82.6846 181.795
c-7.15332 61.7959 -1.25 128.853 18.0498 204.997c43.5684 171.874 139.827 322.824 264.086 414.15c59.2012 43.5088 113.778 65.6055 166.851 67.5459c66.4922 2.43359 127.913 -29.708 164.227 -85.9873zM332.597 193.421
c25.7744 35.5693 52.335 72.2275 86.1846 97.8652c0.43457 1.35645 1.04199 2.68945 1.82129 3.95703c3.07715 4.97559 2.96973 12.9141 -0.273438 20.7158c-3.62402 8.73047 -9.86035 14.3125 -14.1514 15.3184c-1.57715 0.369141 -3.21387 0.553711 -4.91602 0.553711
c-10.8369 0 -24.1797 -7.53418 -40.5869 -22.8818c-53.3096 -49.876 -92.6289 -121.902 -110.708 -202.813c-0.607422 -2.71387 -0.964844 -4.94531 -1.16113 -6.76074c31.8506 22.3643 57.0947 57.2021 83.791 94.0459z" />
    <glyph glyph-name="A" unicode="A" horiz-adv-x="660" 
d="M15.7256 -119.898c-33.1533 0 -64.1475 15.1377 -83.8809 42.8936c-29.0234 40.7949 -31.2607 106.603 -5.33203 156.467c22.3467 42.9668 64.1953 73.335 111.947 81.2266c47.7402 7.8916 94.4033 -6.18262 125.361 -17.46
c17.5557 -6.3916 34.9033 -13.7354 52.0127 -21.5908c39.9502 67.2354 75.752 138.856 110.834 209.038c47.3828 94.7891 96.3721 192.798 155.14 279.618c23.2217 34.2959 55.2686 73.2285 98.4375 69.8242c8.89062 -0.708008 15.6748 -7.8252 16.3291 -16.4482
c1.375 -3.70801 1.61914 -7.85547 0.256836 -11.8965c-24.6436 -73.0205 -52.0605 -146.005 -78.585 -216.585c-48.2393 -128.383 -97.8184 -260.491 -132.341 -397.581c5.49316 -4.97559 7.55859 -13.0215 4.47559 -20.21
c-2.25 -5.24316 -6.73145 -8.79004 -11.8438 -10.1533c-3.42773 -14.6572 -6.73633 -29.3623 -9.77148 -44.1387c-5.5166 -26.8574 -10.5986 -55.3271 -6.87891 -82.2324c2.27344 -16.4551 8.12305 -29.9941 15.6572 -36.2129
c9.30176 -7.68848 21.085 -4.09375 25.709 -2.19531c11.8779 4.87402 23.0723 15.6279 32.4512 25.5068c26.9648 28.3867 50.46 61.4688 77.4482 102.406c50.3701 76.418 98.1816 157.014 142.089 239.538c4.63574 8.70605 15.4492 12.0029 24.1494 7.37305
c8.70605 -4.63574 12.0029 -15.4492 7.37305 -24.1494c-44.4365 -83.5059 -92.8193 -165.065 -143.803 -242.418c-28.0361 -42.5205 -52.6025 -77.0488 -81.3701 -107.346c-11.9854 -12.6221 -26.6787 -26.5176 -44.7822 -33.9502
c-8.49219 -3.48145 -17.1514 -5.20117 -25.5488 -5.20117c-13.4023 0 -26.1436 4.36816 -36.4629 12.9023c-14.6699 12.1162 -24.709 33.0225 -28.2793 58.8506c-4.49316 32.5049 1.125 64.415 7.27246 94.3076c3.29102 16.0264 6.88574 31.9453 10.6172 47.8105
c-24.0488 11.1523 -47.7764 23.3047 -70.8906 35.165c-14.4912 7.43848 -29.1543 14.9609 -43.9551 22.2568c-22.3701 -35.8496 -46.1504 -70.3242 -71.9072 -102.591c-26.1963 -32.8262 -58.5762 -68.5625 -100.109 -84.7852
c-13.8721 -5.42188 -28.0361 -8.04004 -41.8193 -8.04004zM358.604 314.715c-34.9268 -69.8779 -70.5566 -141.148 -110.429 -208.557c14.0391 -6.95117 27.9229 -14.0811 41.6523 -21.1211c20.7275 -10.6406 41.9492 -21.4775 63.2656 -31.541
c34.8799 136.357 83.9531 267.109 131.729 394.243c23.293 61.9863 47.1689 125.842 69.2773 189.739c-16.3896 -10.4922 -31.5117 -30.6543 -42.7236 -47.2158c-57.4463 -84.8564 -105.906 -181.8 -152.771 -275.548zM-41.8115 62.9834
c-19.4482 -37.3848 -18.2412 -89.792 2.75391 -119.292c21.1328 -29.708 57.2207 -32.6006 83.6201 -22.293c33.6533 13.1465 61.9512 44.6816 85.1904 73.7949c23.959 30.0234 46.2578 62.2012 67.3311 95.7412c-15.0918 6.84375 -30.2734 13.1992 -45.4902 18.7461
c-32.541 11.8486 -59.9277 17.6211 -84.2979 17.6211c-7.96875 0 -15.6162 -0.619141 -23.0195 -1.84473c-37.2656 -6.15918 -68.6455 -28.9277 -86.0879 -62.4736z" />
    <glyph glyph-name="A" unicode="&#xc5;" horiz-adv-x="660" 
d="M15.7256 -119.898c-33.1533 0 -64.1475 15.1377 -83.8809 42.8936c-29.0234 40.7949 -31.2607 106.603 -5.33203 156.467c22.3467 42.9668 64.1953 73.335 111.947 81.2266c47.7402 7.8916 94.4033 -6.18262 125.361 -17.46
c17.5557 -6.3916 34.9033 -13.7354 52.0127 -21.5908c39.9502 67.2354 75.752 138.856 110.834 209.038c47.3828 94.7891 96.3721 192.798 155.14 279.618c23.2217 34.2959 55.2686 73.2285 98.4375 69.8242c8.89062 -0.708008 15.6748 -7.8252 16.3291 -16.4482
c1.375 -3.70801 1.61914 -7.85547 0.256836 -11.8965c-24.6436 -73.0205 -52.0605 -146.005 -78.585 -216.585c-48.2393 -128.383 -97.8184 -260.491 -132.341 -397.581c5.49316 -4.97559 7.55859 -13.0215 4.47559 -20.21
c-2.25 -5.24316 -6.73145 -8.79004 -11.8438 -10.1533c-3.42773 -14.6572 -6.73633 -29.3623 -9.77148 -44.1387c-5.5166 -26.8574 -10.5986 -55.3271 -6.87891 -82.2324c2.27344 -16.4551 8.12305 -29.9941 15.6572 -36.2129
c9.30176 -7.68848 21.085 -4.09375 25.709 -2.19531c11.8779 4.87402 23.0723 15.6279 32.4512 25.5068c26.9648 28.3867 50.46 61.4688 77.4482 102.406c50.3701 76.418 98.1816 157.014 142.089 239.538c4.63574 8.70605 15.4492 12.0029 24.1494 7.37305
c8.70605 -4.63574 12.0029 -15.4492 7.37305 -24.1494c-44.4365 -83.5059 -92.8193 -165.065 -143.803 -242.418c-28.0361 -42.5205 -52.6025 -77.0488 -81.3701 -107.346c-11.9854 -12.6221 -26.6787 -26.5176 -44.7822 -33.9502
c-8.49219 -3.48145 -17.1514 -5.20117 -25.5488 -5.20117c-13.4023 0 -26.1436 4.36816 -36.4629 12.9023c-14.6699 12.1162 -24.709 33.0225 -28.2793 58.8506c-4.49316 32.5049 1.125 64.415 7.27246 94.3076c3.29102 16.0264 6.88574 31.9453 10.6172 47.8105
c-24.0488 11.1523 -47.7764 23.3047 -70.8906 35.165c-14.4912 7.43848 -29.1543 14.9609 -43.9551 22.2568c-22.3701 -35.8496 -46.1504 -70.3242 -71.9072 -102.591c-26.1963 -32.8262 -58.5762 -68.5625 -100.109 -84.7852
c-13.8721 -5.42188 -28.0361 -8.04004 -41.8193 -8.04004zM358.604 314.715c-34.9268 -69.8779 -70.5566 -141.148 -110.429 -208.557c14.0391 -6.95117 27.9229 -14.0811 41.6523 -21.1211c20.7275 -10.6406 41.9492 -21.4775 63.2656 -31.541
c34.8799 136.357 83.9531 267.109 131.729 394.243c23.293 61.9863 47.1689 125.842 69.2773 189.739c-16.3896 -10.4922 -31.5117 -30.6543 -42.7236 -47.2158c-57.4463 -84.8564 -105.906 -181.8 -152.771 -275.548zM-41.8115 62.9834
c-19.4482 -37.3848 -18.2412 -89.792 2.75391 -119.292c21.1328 -29.708 57.2207 -32.6006 83.6201 -22.293c33.6533 13.1465 61.9512 44.6816 85.1904 73.7949c23.959 30.0234 46.2578 62.2012 67.3311 95.7412c-15.0918 6.84375 -30.2734 13.1992 -45.4902 18.7461
c-32.541 11.8486 -59.9277 17.6211 -84.2979 17.6211c-7.96875 0 -15.6162 -0.619141 -23.0195 -1.84473c-37.2656 -6.15918 -68.6455 -28.9277 -86.0879 -62.4736z" />
    <glyph glyph-name="A" unicode="&#xc4;" horiz-adv-x="660" 
d="M15.7256 -119.898c-33.1533 0 -64.1475 15.1377 -83.8809 42.8936c-29.0234 40.7949 -31.2607 106.603 -5.33203 156.467c22.3467 42.9668 64.1953 73.335 111.947 81.2266c47.7402 7.8916 94.4033 -6.18262 125.361 -17.46
c17.5557 -6.3916 34.9033 -13.7354 52.0127 -21.5908c39.9502 67.2354 75.752 138.856 110.834 209.038c47.3828 94.7891 96.3721 192.798 155.14 279.618c23.2217 34.2959 55.2686 73.2285 98.4375 69.8242c8.89062 -0.708008 15.6748 -7.8252 16.3291 -16.4482
c1.375 -3.70801 1.61914 -7.85547 0.256836 -11.8965c-24.6436 -73.0205 -52.0605 -146.005 -78.585 -216.585c-48.2393 -128.383 -97.8184 -260.491 -132.341 -397.581c5.49316 -4.97559 7.55859 -13.0215 4.47559 -20.21
c-2.25 -5.24316 -6.73145 -8.79004 -11.8438 -10.1533c-3.42773 -14.6572 -6.73633 -29.3623 -9.77148 -44.1387c-5.5166 -26.8574 -10.5986 -55.3271 -6.87891 -82.2324c2.27344 -16.4551 8.12305 -29.9941 15.6572 -36.2129
c9.30176 -7.68848 21.085 -4.09375 25.709 -2.19531c11.8779 4.87402 23.0723 15.6279 32.4512 25.5068c26.9648 28.3867 50.46 61.4688 77.4482 102.406c50.3701 76.418 98.1816 157.014 142.089 239.538c4.63574 8.70605 15.4492 12.0029 24.1494 7.37305
c8.70605 -4.63574 12.0029 -15.4492 7.37305 -24.1494c-44.4365 -83.5059 -92.8193 -165.065 -143.803 -242.418c-28.0361 -42.5205 -52.6025 -77.0488 -81.3701 -107.346c-11.9854 -12.6221 -26.6787 -26.5176 -44.7822 -33.9502
c-8.49219 -3.48145 -17.1514 -5.20117 -25.5488 -5.20117c-13.4023 0 -26.1436 4.36816 -36.4629 12.9023c-14.6699 12.1162 -24.709 33.0225 -28.2793 58.8506c-4.49316 32.5049 1.125 64.415 7.27246 94.3076c3.29102 16.0264 6.88574 31.9453 10.6172 47.8105
c-24.0488 11.1523 -47.7764 23.3047 -70.8906 35.165c-14.4912 7.43848 -29.1543 14.9609 -43.9551 22.2568c-22.3701 -35.8496 -46.1504 -70.3242 -71.9072 -102.591c-26.1963 -32.8262 -58.5762 -68.5625 -100.109 -84.7852
c-13.8721 -5.42188 -28.0361 -8.04004 -41.8193 -8.04004zM358.604 314.715c-34.9268 -69.8779 -70.5566 -141.148 -110.429 -208.557c14.0391 -6.95117 27.9229 -14.0811 41.6523 -21.1211c20.7275 -10.6406 41.9492 -21.4775 63.2656 -31.541
c34.8799 136.357 83.9531 267.109 131.729 394.243c23.293 61.9863 47.1689 125.842 69.2773 189.739c-16.3896 -10.4922 -31.5117 -30.6543 -42.7236 -47.2158c-57.4463 -84.8564 -105.906 -181.8 -152.771 -275.548zM-41.8115 62.9834
c-19.4482 -37.3848 -18.2412 -89.792 2.75391 -119.292c21.1328 -29.708 57.2207 -32.6006 83.6201 -22.293c33.6533 13.1465 61.9512 44.6816 85.1904 73.7949c23.959 30.0234 46.2578 62.2012 67.3311 95.7412c-15.0918 6.84375 -30.2734 13.1992 -45.4902 18.7461
c-32.541 11.8486 -59.9277 17.6211 -84.2979 17.6211c-7.96875 0 -15.6162 -0.619141 -23.0195 -1.84473c-37.2656 -6.15918 -68.6455 -28.9277 -86.0879 -62.4736z" />
    <glyph glyph-name="A" unicode="&#xc3;" horiz-adv-x="660" 
d="M15.7256 -119.898c-33.1533 0 -64.1475 15.1377 -83.8809 42.8936c-29.0234 40.7949 -31.2607 106.603 -5.33203 156.467c22.3467 42.9668 64.1953 73.335 111.947 81.2266c47.7402 7.8916 94.4033 -6.18262 125.361 -17.46
c17.5557 -6.3916 34.9033 -13.7354 52.0127 -21.5908c39.9502 67.2354 75.752 138.856 110.834 209.038c47.3828 94.7891 96.3721 192.798 155.14 279.618c23.2217 34.2959 55.2686 73.2285 98.4375 69.8242c8.89062 -0.708008 15.6748 -7.8252 16.3291 -16.4482
c1.375 -3.70801 1.61914 -7.85547 0.256836 -11.8965c-24.6436 -73.0205 -52.0605 -146.005 -78.585 -216.585c-48.2393 -128.383 -97.8184 -260.491 -132.341 -397.581c5.49316 -4.97559 7.55859 -13.0215 4.47559 -20.21
c-2.25 -5.24316 -6.73145 -8.79004 -11.8438 -10.1533c-3.42773 -14.6572 -6.73633 -29.3623 -9.77148 -44.1387c-5.5166 -26.8574 -10.5986 -55.3271 -6.87891 -82.2324c2.27344 -16.4551 8.12305 -29.9941 15.6572 -36.2129
c9.30176 -7.68848 21.085 -4.09375 25.709 -2.19531c11.8779 4.87402 23.0723 15.6279 32.4512 25.5068c26.9648 28.3867 50.46 61.4688 77.4482 102.406c50.3701 76.418 98.1816 157.014 142.089 239.538c4.63574 8.70605 15.4492 12.0029 24.1494 7.37305
c8.70605 -4.63574 12.0029 -15.4492 7.37305 -24.1494c-44.4365 -83.5059 -92.8193 -165.065 -143.803 -242.418c-28.0361 -42.5205 -52.6025 -77.0488 -81.3701 -107.346c-11.9854 -12.6221 -26.6787 -26.5176 -44.7822 -33.9502
c-8.49219 -3.48145 -17.1514 -5.20117 -25.5488 -5.20117c-13.4023 0 -26.1436 4.36816 -36.4629 12.9023c-14.6699 12.1162 -24.709 33.0225 -28.2793 58.8506c-4.49316 32.5049 1.125 64.415 7.27246 94.3076c3.29102 16.0264 6.88574 31.9453 10.6172 47.8105
c-24.0488 11.1523 -47.7764 23.3047 -70.8906 35.165c-14.4912 7.43848 -29.1543 14.9609 -43.9551 22.2568c-22.3701 -35.8496 -46.1504 -70.3242 -71.9072 -102.591c-26.1963 -32.8262 -58.5762 -68.5625 -100.109 -84.7852
c-13.8721 -5.42188 -28.0361 -8.04004 -41.8193 -8.04004zM358.604 314.715c-34.9268 -69.8779 -70.5566 -141.148 -110.429 -208.557c14.0391 -6.95117 27.9229 -14.0811 41.6523 -21.1211c20.7275 -10.6406 41.9492 -21.4775 63.2656 -31.541
c34.8799 136.357 83.9531 267.109 131.729 394.243c23.293 61.9863 47.1689 125.842 69.2773 189.739c-16.3896 -10.4922 -31.5117 -30.6543 -42.7236 -47.2158c-57.4463 -84.8564 -105.906 -181.8 -152.771 -275.548zM-41.8115 62.9834
c-19.4482 -37.3848 -18.2412 -89.792 2.75391 -119.292c21.1328 -29.708 57.2207 -32.6006 83.6201 -22.293c33.6533 13.1465 61.9512 44.6816 85.1904 73.7949c23.959 30.0234 46.2578 62.2012 67.3311 95.7412c-15.0918 6.84375 -30.2734 13.1992 -45.4902 18.7461
c-32.541 11.8486 -59.9277 17.6211 -84.2979 17.6211c-7.96875 0 -15.6162 -0.619141 -23.0195 -1.84473c-37.2656 -6.15918 -68.6455 -28.9277 -86.0879 -62.4736z" />
    <glyph glyph-name="A" unicode="&#xc2;" horiz-adv-x="660" 
d="M15.7256 -119.898c-33.1533 0 -64.1475 15.1377 -83.8809 42.8936c-29.0234 40.7949 -31.2607 106.603 -5.33203 156.467c22.3467 42.9668 64.1953 73.335 111.947 81.2266c47.7402 7.8916 94.4033 -6.18262 125.361 -17.46
c17.5557 -6.3916 34.9033 -13.7354 52.0127 -21.5908c39.9502 67.2354 75.752 138.856 110.834 209.038c47.3828 94.7891 96.3721 192.798 155.14 279.618c23.2217 34.2959 55.2686 73.2285 98.4375 69.8242c8.89062 -0.708008 15.6748 -7.8252 16.3291 -16.4482
c1.375 -3.70801 1.61914 -7.85547 0.256836 -11.8965c-24.6436 -73.0205 -52.0605 -146.005 -78.585 -216.585c-48.2393 -128.383 -97.8184 -260.491 -132.341 -397.581c5.49316 -4.97559 7.55859 -13.0215 4.47559 -20.21
c-2.25 -5.24316 -6.73145 -8.79004 -11.8438 -10.1533c-3.42773 -14.6572 -6.73633 -29.3623 -9.77148 -44.1387c-5.5166 -26.8574 -10.5986 -55.3271 -6.87891 -82.2324c2.27344 -16.4551 8.12305 -29.9941 15.6572 -36.2129
c9.30176 -7.68848 21.085 -4.09375 25.709 -2.19531c11.8779 4.87402 23.0723 15.6279 32.4512 25.5068c26.9648 28.3867 50.46 61.4688 77.4482 102.406c50.3701 76.418 98.1816 157.014 142.089 239.538c4.63574 8.70605 15.4492 12.0029 24.1494 7.37305
c8.70605 -4.63574 12.0029 -15.4492 7.37305 -24.1494c-44.4365 -83.5059 -92.8193 -165.065 -143.803 -242.418c-28.0361 -42.5205 -52.6025 -77.0488 -81.3701 -107.346c-11.9854 -12.6221 -26.6787 -26.5176 -44.7822 -33.9502
c-8.49219 -3.48145 -17.1514 -5.20117 -25.5488 -5.20117c-13.4023 0 -26.1436 4.36816 -36.4629 12.9023c-14.6699 12.1162 -24.709 33.0225 -28.2793 58.8506c-4.49316 32.5049 1.125 64.415 7.27246 94.3076c3.29102 16.0264 6.88574 31.9453 10.6172 47.8105
c-24.0488 11.1523 -47.7764 23.3047 -70.8906 35.165c-14.4912 7.43848 -29.1543 14.9609 -43.9551 22.2568c-22.3701 -35.8496 -46.1504 -70.3242 -71.9072 -102.591c-26.1963 -32.8262 -58.5762 -68.5625 -100.109 -84.7852
c-13.8721 -5.42188 -28.0361 -8.04004 -41.8193 -8.04004zM358.604 314.715c-34.9268 -69.8779 -70.5566 -141.148 -110.429 -208.557c14.0391 -6.95117 27.9229 -14.0811 41.6523 -21.1211c20.7275 -10.6406 41.9492 -21.4775 63.2656 -31.541
c34.8799 136.357 83.9531 267.109 131.729 394.243c23.293 61.9863 47.1689 125.842 69.2773 189.739c-16.3896 -10.4922 -31.5117 -30.6543 -42.7236 -47.2158c-57.4463 -84.8564 -105.906 -181.8 -152.771 -275.548zM-41.8115 62.9834
c-19.4482 -37.3848 -18.2412 -89.792 2.75391 -119.292c21.1328 -29.708 57.2207 -32.6006 83.6201 -22.293c33.6533 13.1465 61.9512 44.6816 85.1904 73.7949c23.959 30.0234 46.2578 62.2012 67.3311 95.7412c-15.0918 6.84375 -30.2734 13.1992 -45.4902 18.7461
c-32.541 11.8486 -59.9277 17.6211 -84.2979 17.6211c-7.96875 0 -15.6162 -0.619141 -23.0195 -1.84473c-37.2656 -6.15918 -68.6455 -28.9277 -86.0879 -62.4736z" />
    <glyph glyph-name="A" unicode="&#xc1;" horiz-adv-x="660" 
d="M15.7256 -119.898c-33.1533 0 -64.1475 15.1377 -83.8809 42.8936c-29.0234 40.7949 -31.2607 106.603 -5.33203 156.467c22.3467 42.9668 64.1953 73.335 111.947 81.2266c47.7402 7.8916 94.4033 -6.18262 125.361 -17.46
c17.5557 -6.3916 34.9033 -13.7354 52.0127 -21.5908c39.9502 67.2354 75.752 138.856 110.834 209.038c47.3828 94.7891 96.3721 192.798 155.14 279.618c23.2217 34.2959 55.2686 73.2285 98.4375 69.8242c8.89062 -0.708008 15.6748 -7.8252 16.3291 -16.4482
c1.375 -3.70801 1.61914 -7.85547 0.256836 -11.8965c-24.6436 -73.0205 -52.0605 -146.005 -78.585 -216.585c-48.2393 -128.383 -97.8184 -260.491 -132.341 -397.581c5.49316 -4.97559 7.55859 -13.0215 4.47559 -20.21
c-2.25 -5.24316 -6.73145 -8.79004 -11.8438 -10.1533c-3.42773 -14.6572 -6.73633 -29.3623 -9.77148 -44.1387c-5.5166 -26.8574 -10.5986 -55.3271 -6.87891 -82.2324c2.27344 -16.4551 8.12305 -29.9941 15.6572 -36.2129
c9.30176 -7.68848 21.085 -4.09375 25.709 -2.19531c11.8779 4.87402 23.0723 15.6279 32.4512 25.5068c26.9648 28.3867 50.46 61.4688 77.4482 102.406c50.3701 76.418 98.1816 157.014 142.089 239.538c4.63574 8.70605 15.4492 12.0029 24.1494 7.37305
c8.70605 -4.63574 12.0029 -15.4492 7.37305 -24.1494c-44.4365 -83.5059 -92.8193 -165.065 -143.803 -242.418c-28.0361 -42.5205 -52.6025 -77.0488 -81.3701 -107.346c-11.9854 -12.6221 -26.6787 -26.5176 -44.7822 -33.9502
c-8.49219 -3.48145 -17.1514 -5.20117 -25.5488 -5.20117c-13.4023 0 -26.1436 4.36816 -36.4629 12.9023c-14.6699 12.1162 -24.709 33.0225 -28.2793 58.8506c-4.49316 32.5049 1.125 64.415 7.27246 94.3076c3.29102 16.0264 6.88574 31.9453 10.6172 47.8105
c-24.0488 11.1523 -47.7764 23.3047 -70.8906 35.165c-14.4912 7.43848 -29.1543 14.9609 -43.9551 22.2568c-22.3701 -35.8496 -46.1504 -70.3242 -71.9072 -102.591c-26.1963 -32.8262 -58.5762 -68.5625 -100.109 -84.7852
c-13.8721 -5.42188 -28.0361 -8.04004 -41.8193 -8.04004zM358.604 314.715c-34.9268 -69.8779 -70.5566 -141.148 -110.429 -208.557c14.0391 -6.95117 27.9229 -14.0811 41.6523 -21.1211c20.7275 -10.6406 41.9492 -21.4775 63.2656 -31.541
c34.8799 136.357 83.9531 267.109 131.729 394.243c23.293 61.9863 47.1689 125.842 69.2773 189.739c-16.3896 -10.4922 -31.5117 -30.6543 -42.7236 -47.2158c-57.4463 -84.8564 -105.906 -181.8 -152.771 -275.548zM-41.8115 62.9834
c-19.4482 -37.3848 -18.2412 -89.792 2.75391 -119.292c21.1328 -29.708 57.2207 -32.6006 83.6201 -22.293c33.6533 13.1465 61.9512 44.6816 85.1904 73.7949c23.959 30.0234 46.2578 62.2012 67.3311 95.7412c-15.0918 6.84375 -30.2734 13.1992 -45.4902 18.7461
c-32.541 11.8486 -59.9277 17.6211 -84.2979 17.6211c-7.96875 0 -15.6162 -0.619141 -23.0195 -1.84473c-37.2656 -6.15918 -68.6455 -28.9277 -86.0879 -62.4736z" />
    <glyph glyph-name="B" unicode="B" horiz-adv-x="544" 
d="M34.6299 281.486c-8.91504 17.0977 -18.1328 34.7783 -22.2686 56.0479c-7.32617 37.6709 2.56445 79.8936 30.2314 129.079c57.1484 101.579 140.481 179.557 234.658 219.578c44.6396 18.9658 85.0303 26.833 123.534 24.0479
c50.2217 -3.63574 88.2549 -30.624 101.734 -72.1807c14.6396 -45.1387 -4.20703 -93.3252 -16.7402 -118.034c-25.3936 -50.0371 -61.0703 -88.1182 -92.6289 -118.772c-34.6768 -33.6836 -71.2402 -64.6592 -109.185 -92.5225
c4.82617 -1.45215 9.61133 -3.39844 14.3301 -5.93945c38.8252 -20.9355 54.2266 -72.5137 55.6846 -113.803c1.04785 -29.5654 -3.6123 -60.3857 -13.6875 -91.5459c61.4092 11.3662 129.079 33.457 186.364 82.4766c7.49219 6.40918 18.7637 5.53418 25.1729 -1.95801
c6.40918 -7.48633 5.53418 -18.7578 -1.95801 -25.167c-70.3721 -60.2197 -153.318 -83.2266 -224.851 -94.1348c-7.73047 -16.6748 -16.9609 -33.332 -27.6553 -49.8408c-45.6152 -70.4258 -105.591 -124.789 -173.422 -157.199
c-36.6348 -17.502 -72.585 -26.1963 -106.054 -26.1963c-41.6455 -0.00585938 -79.4473 13.4619 -109.982 40.1582c-16.5684 14.4912 -26.5488 29.9883 -30.5186 47.3896c-8.50391 37.3018 12.7354 72.6572 35.4443 93.3018
c32.2969 29.3623 70.7168 42.3057 100.579 50.3037c9.63477 2.57715 19.3115 4.78516 29.0059 6.83203c4.68359 20.877 10.3848 41.1885 16.1035 60.7793c3.51758 12.0625 7.18359 24.084 10.8379 36.1055c0.916016 29.2793 -7.08789 62.332 -24.626 100.942
c-3.05859 6.73633 -6.48047 13.3008 -10.1045 20.252zM267.407 28.2256c4.88574 7.5459 9.94629 15.9131 14.8916 24.9707c-26.2207 -2.77344 -52.751 -4.68359 -78.4482 -6.53418c-43.3125 -3.12402 -87.6719 -6.38477 -131.156 -13.8418
c-1.63672 -9.33691 -2.95801 -18.7393 -3.86816 -28.1719c0.125 -0.19043 0.25 -0.386719 0.375 -0.588867c5.14746 -8.40918 2.51074 -19.3945 -5.89844 -24.5479c-3.12988 -1.91602 -6.63477 -2.87402 -10.1279 -2.87402c-3.46973 0 -6.92773 0.946289 -10.0107 2.83887
c-8.59961 5.28418 -10.9619 15.7705 -10.3672 23.1494c0.613281 7.58789 1.54199 15.0918 2.60156 22.5547c-4.25488 -1.01758 -8.52148 -1.96973 -12.7471 -3.10059c-25.9648 -6.95117 -59.1777 -18.0381 -85.7969 -42.2354
c-14.5566 -13.2295 -29.7441 -36.6055 -24.6504 -58.9404c2.23145 -9.79004 8.51562 -19.0977 19.21 -28.4473c62.249 -54.4346 144.624 -24.1611 177.146 -8.62305c61.8857 29.5654 116.814 79.4951 158.847 144.392zM73.7188 449.1
c-23.3398 -41.4854 -31.9443 -75.7529 -26.3027 -104.765c3.14258 -16.1748 10.7842 -30.832 18.8779 -46.3525c3.68359 -7.06445 7.49805 -14.3779 10.9561 -21.9951c6.45117 -14.2051 11.6348 -27.7734 15.8418 -40.9014c30.5645 92.5811 64.9912 183.437 102.953 271.18
c3.92188 9.0459 14.4258 13.2119 23.4775 9.2959c9.0459 -3.91016 13.2119 -14.4199 9.2959 -23.4717c-46.9844 -108.602 -88.5586 -221.994 -123.908 -337.601c-0.0361328 -0.541992 -0.0126953 -1.10156 -0.0488281 -1.64355
c-0.219727 -3.26758 -1.3623 -6.22559 -3.07617 -8.75488c-3.01172 -9.96777 -6.06445 -19.9238 -8.98047 -29.9219c-4.16016 -14.2764 -8.30176 -28.9336 -12.0215 -43.835c40.3779 6.12402 80.875 9.08789 120.504 11.9443
c26.6963 1.92188 54.2979 3.90918 81.1787 6.84863c5.77832 0.630859 11.6875 1.32129 17.6982 2.08887c11.4258 28.9941 19.3584 61.9873 18.1387 96.4922c-1.375 38.8486 -16.2227 72.4609 -36.9502 83.6367c-13.7832 7.43262 -30.7197 5.94531 -51.9297 1.42871
c-8.41504 -1.79688 -16.9307 2.67871 -20.2217 10.6475s-0.416992 17.1455 6.8252 21.8174c53.4414 34.4805 104.669 75.3945 152.248 121.61c29.4463 28.6006 62.6475 63.9561 85.666 109.315c10.0391 19.7998 25.2979 57.9287 14.6152 90.8623
c-13.0986 40.3779 -57.1543 46.6328 -70.3477 47.5908c-32.6953 2.36816 -67.6875 -4.60059 -106.988 -21.2998c-86.958 -36.9502 -164.197 -109.477 -217.501 -204.218z" />
    <glyph glyph-name="C" unicode="C" horiz-adv-x="325" 
d="M3.5625 -119.583c-27.3691 9.70605 -51.4541 36.3525 -67.8193 75.0166c-27.8096 65.7773 -30.8984 150.289 -9.17676 251.185c39.0156 181.259 134.751 341.48 262.646 439.578c29.7256 22.8047 53.875 36.54 78.2861 44.5322
c30.2559 9.9082 55.7324 3.58789 69.8779 -17.3418c14.5918 -21.5908 13.3604 -51.7871 -3.77246 -92.3145c-45.3477 -107.269 -97.5869 -211.556 -148.112 -312.409c-4.41602 -8.81348 -15.1455 -12.3779 -23.959 -7.96191s-12.3779 15.1455 -7.96191 23.959
c50.2686 100.348 102.245 204.105 147.146 310.321c14.8066 35.0225 12.0215 51.0967 7.07617 58.4102c-6.24316 9.23047 -20.96 6.10059 -29.1846 3.4043c-20.4121 -6.68262 -41.2764 -18.6855 -67.6699 -38.9316c-121.277 -93.0215 -212.204 -245.649 -249.47 -418.755
c-20.1387 -93.5752 -17.7344 -170.874 7.16504 -229.76c12.2236 -28.9102 29.3037 -49.0605 46.8535 -55.2852c22.668 -8.04004 50.6738 4.08789 85.6006 37.0693c50.3643 47.5498 94.3076 107.691 136.805 165.857c30.3867 41.5859 61.8027 84.5947 95.7656 123.414
c6.48633 7.4209 17.7695 8.1709 25.1904 1.68457s8.17676 -17.7695 1.68457 -25.1904c-32.9336 -37.6465 -63.8789 -80.001 -93.8066 -120.969c-43.4434 -59.4639 -88.3682 -120.957 -141.119 -170.756c-34.9453 -32.9932 -66.5576 -49.3047 -95.8428 -49.3047
c-8.94434 0 -17.6631 1.51758 -26.2031 4.54688z" />
    <glyph glyph-name="D" unicode="D" horiz-adv-x="593" 
d="M-49.2666 -48.3838c-21.96 18.9365 -36.1885 46.3584 -39.0215 75.251c-3.71387 37.5459 12.1582 78.4717 42.4492 109.471c34.2959 35.1055 81.3154 55.6729 135.971 59.4873c10.9854 0.767578 21.9355 0.875 32.8379 0.482422
c-0.119141 0.333008 -0.232422 0.671875 -0.333984 1.02344c-5.91504 20.2461 -17.5498 39.9443 -29.8623 60.791c-12.9141 21.8584 -26.2627 44.4668 -33.4277 69.0566c-15.3594 52.7207 -4.33789 118.123 30.2383 179.449c57.2139 101.484 154.657 163.405 254.701 161.59
c47.918 -0.869141 86.2607 -17.877 110.881 -49.1855c28.7021 -36.498 35.3135 -87.4814 35.8018 -123.819c0.994141 -73.5195 -18.9121 -150.985 -60.8496 -236.812c-15.2471 -31.2139 -31.9697 -61.0352 -50.0967 -89.374h2.26758
c81.1787 0 162.382 11.9561 204.254 46.9961c7.55762 6.32617 18.8174 5.33203 25.1494 -2.23145c6.32617 -7.55762 5.33203 -18.8232 -2.23145 -25.1494c-55.4229 -46.3828 -159.954 -57.3867 -253.19 -54.7559c-25.8691 -36.2656 -54.208 -69.7881 -84.8506 -100.323
c-53.7979 -53.6074 -134.001 -113.726 -223.041 -113.731c-10.123 -0.00585938 -20.3408 0.773438 -30.666 2.42188c-26.8154 4.29102 -49.3525 14.1699 -66.9795 29.3633zM93.626 337.17c5.90918 -20.2871 17.5547 -40.0127 29.8799 -60.8955
c6.90332 -11.6816 13.8955 -23.5957 20.0371 -35.8906c27.1074 84.1367 59.1299 165.756 95.8838 244.013c4.19531 8.92676 14.8242 12.7656 23.751 8.57031c8.92676 -4.18945 12.7656 -14.8184 8.57031 -23.7451c-41.4678 -88.2969 -76.8408 -180.956 -105.764 -276.763
c18.9902 -2.49902 37.79 -5.80762 56.3037 -9.12793l5.45117 -0.975586c31.5469 -5.63574 69.9854 -10.1768 110.263 -12.1943c22.0371 32.499 42.0859 67.2002 60.0283 103.919c39.4258 80.6855 58.1416 152.86 57.2314 220.655
c-0.583008 43.5742 -10.5869 79.8818 -28.166 102.229c-18.0195 22.918 -46.1025 34.8799 -83.4639 35.5586c-86.7432 1.57715 -172.178 -53.3809 -222.946 -143.427c-14.1396 -25.0781 -45.0791 -90.082 -27.0596 -151.926zM-20.3086 111.381
c-23.0127 -23.5488 -35.1494 -53.833 -32.4717 -81.0117c1.92773 -19.5674 11.9492 -38.8965 26.8154 -51.709c12.7119 -10.9561 28.8398 -17.8711 49.2998 -21.1445c86.3027 -13.8008 168.839 47.4961 222.863 101.336c23.9238 23.8516 46.3955 49.6201 67.3193 77.1914
c-35.3018 2.54688 -67.2715 6.73047 -92.0693 11.1641l-5.46289 0.982422c-19.8467 3.55273 -40.0273 7.12891 -60.1895 9.5752c-10.0693 -35.5342 -19.2637 -71.4785 -27.5479 -107.774c-1.89258 -8.27246 -9.24805 -13.8848 -17.3887 -13.8848
c-1.31543 0 -2.64844 0.148438 -3.9873 0.452148c-9.61133 2.19043 -15.6279 11.7598 -13.4316 21.377c7.88477 34.5576 16.6152 68.7939 26.1016 102.686c-2.98145 0.0888672 -5.96289 0.196289 -8.93262 0.196289c-6.02832 0 -12.0332 -0.196289 -18.002 -0.613281
c-31.9277 -2.22559 -77.4355 -12.5088 -112.916 -48.8223z" />
    <glyph glyph-name="E" unicode="E" horiz-adv-x="386" 
d="M-6.00781 -140.149c-36.4863 0 -77.0059 14.4326 -95.6807 55.7568c-10.2598 22.6855 -12.5928 52.2568 -6.58203 83.2617c12.6582 65.2715 55.5361 121.777 127.449 167.958c25.126 16.1338 51.1025 30.1904 77.7041 42.0625
c-31.083 13.9014 -57.125 39.4375 -71.5391 72.8174c-16.5742 38.3672 -19.1152 87.125 -7.15918 137.305c13.4854 56.5889 43.9609 109.846 85.8154 149.95c36.3252 34.8076 81.4404 60.7305 134.096 77.0547c41.9736 13.0146 78.0908 16.1328 110.382 9.52734
c22.3467 -4.57031 38.2539 -14.0977 48.6211 -29.1299c11.9678 -17.3477 16.0625 -43.0566 10.9688 -68.7656c-4.21973 -21.2695 -13.5449 -39.6699 -22.7393 -56.6963c-36.6826 -67.9316 -79.1318 -131.489 -120.183 -192.958
c-5.47461 -8.2002 -16.5615 -10.4141 -24.7617 -4.93262c-8.2002 5.47461 -10.4082 16.5615 -4.93359 24.7617c40.5928 60.7842 82.5664 123.64 118.458 190.096c8.21875 15.2344 15.8779 30.2666 19.127 46.6738c3.16602 15.9492 1.07129 32.2607 -5.33203 41.5449
c-4.94531 7.1709 -13.3301 11.7529 -26.3809 14.4189c-26.25 5.36816 -56.5586 2.53516 -92.6582 -8.65332c-47.3115 -14.6699 -87.6777 -37.7959 -119.963 -68.7295c-36.9561 -35.4092 -63.873 -82.4463 -75.7812 -132.441
c-10.0332 -42.1162 -8.14062 -83.9883 5.20215 -114.875c18.4785 -42.7939 62.332 -68.3125 106.603 -62.0635c9.26562 1.29688 17.9248 -4.72559 19.9307 -13.8369s-3.33789 -18.2285 -12.2705 -20.9307c-46.3408 -14.0088 -91.3906 -34.9512 -133.905 -62.249
c-63.3848 -40.6992 -100.966 -89.3916 -111.689 -144.713c-4.61816 -23.8105 -3.17773 -45.7461 4.05859 -61.749c17.0439 -37.6885 61.6777 -35.6113 74.9482 -34.0762c37.0693 4.28516 76.4238 20.9062 123.86 52.3223c106.281 70.3779 193.155 161.198 251.232 262.646
c4.89746 8.55762 15.7998 11.5215 24.3633 6.62402c8.55762 -4.89746 11.5215 -15.8057 6.62402 -24.3633c-60.832 -106.257 -151.604 -201.242 -262.503 -274.679c-52.2979 -34.6357 -96.6221 -53.0723 -139.481 -58.0234
c-5.15332 -0.594727 -10.4854 -0.916016 -15.9004 -0.916016z" />
    <glyph glyph-name="E" unicode="&#xcb;" horiz-adv-x="386" 
d="M-6.00781 -140.149c-36.4863 0 -77.0059 14.4326 -95.6807 55.7568c-10.2598 22.6855 -12.5928 52.2568 -6.58203 83.2617c12.6582 65.2715 55.5361 121.777 127.449 167.958c25.126 16.1338 51.1025 30.1904 77.7041 42.0625
c-31.083 13.9014 -57.125 39.4375 -71.5391 72.8174c-16.5742 38.3672 -19.1152 87.125 -7.15918 137.305c13.4854 56.5889 43.9609 109.846 85.8154 149.95c36.3252 34.8076 81.4404 60.7305 134.096 77.0547c41.9736 13.0146 78.0908 16.1328 110.382 9.52734
c22.3467 -4.57031 38.2539 -14.0977 48.6211 -29.1299c11.9678 -17.3477 16.0625 -43.0566 10.9688 -68.7656c-4.21973 -21.2695 -13.5449 -39.6699 -22.7393 -56.6963c-36.6826 -67.9316 -79.1318 -131.489 -120.183 -192.958
c-5.47461 -8.2002 -16.5615 -10.4141 -24.7617 -4.93262c-8.2002 5.47461 -10.4082 16.5615 -4.93359 24.7617c40.5928 60.7842 82.5664 123.64 118.458 190.096c8.21875 15.2344 15.8779 30.2666 19.127 46.6738c3.16602 15.9492 1.07129 32.2607 -5.33203 41.5449
c-4.94531 7.1709 -13.3301 11.7529 -26.3809 14.4189c-26.25 5.36816 -56.5586 2.53516 -92.6582 -8.65332c-47.3115 -14.6699 -87.6777 -37.7959 -119.963 -68.7295c-36.9561 -35.4092 -63.873 -82.4463 -75.7812 -132.441
c-10.0332 -42.1162 -8.14062 -83.9883 5.20215 -114.875c18.4785 -42.7939 62.332 -68.3125 106.603 -62.0635c9.26562 1.29688 17.9248 -4.72559 19.9307 -13.8369s-3.33789 -18.2285 -12.2705 -20.9307c-46.3408 -14.0088 -91.3906 -34.9512 -133.905 -62.249
c-63.3848 -40.6992 -100.966 -89.3916 -111.689 -144.713c-4.61816 -23.8105 -3.17773 -45.7461 4.05859 -61.749c17.0439 -37.6885 61.6777 -35.6113 74.9482 -34.0762c37.0693 4.28516 76.4238 20.9062 123.86 52.3223c106.281 70.3779 193.155 161.198 251.232 262.646
c4.89746 8.55762 15.7998 11.5215 24.3633 6.62402c8.55762 -4.89746 11.5215 -15.8057 6.62402 -24.3633c-60.832 -106.257 -151.604 -201.242 -262.503 -274.679c-52.2979 -34.6357 -96.6221 -53.0723 -139.481 -58.0234
c-5.15332 -0.594727 -10.4854 -0.916016 -15.9004 -0.916016z" />
    <glyph glyph-name="E" unicode="&#xca;" horiz-adv-x="386" 
d="M-6.00781 -140.149c-36.4863 0 -77.0059 14.4326 -95.6807 55.7568c-10.2598 22.6855 -12.5928 52.2568 -6.58203 83.2617c12.6582 65.2715 55.5361 121.777 127.449 167.958c25.126 16.1338 51.1025 30.1904 77.7041 42.0625
c-31.083 13.9014 -57.125 39.4375 -71.5391 72.8174c-16.5742 38.3672 -19.1152 87.125 -7.15918 137.305c13.4854 56.5889 43.9609 109.846 85.8154 149.95c36.3252 34.8076 81.4404 60.7305 134.096 77.0547c41.9736 13.0146 78.0908 16.1328 110.382 9.52734
c22.3467 -4.57031 38.2539 -14.0977 48.6211 -29.1299c11.9678 -17.3477 16.0625 -43.0566 10.9688 -68.7656c-4.21973 -21.2695 -13.5449 -39.6699 -22.7393 -56.6963c-36.6826 -67.9316 -79.1318 -131.489 -120.183 -192.958
c-5.47461 -8.2002 -16.5615 -10.4141 -24.7617 -4.93262c-8.2002 5.47461 -10.4082 16.5615 -4.93359 24.7617c40.5928 60.7842 82.5664 123.64 118.458 190.096c8.21875 15.2344 15.8779 30.2666 19.127 46.6738c3.16602 15.9492 1.07129 32.2607 -5.33203 41.5449
c-4.94531 7.1709 -13.3301 11.7529 -26.3809 14.4189c-26.25 5.36816 -56.5586 2.53516 -92.6582 -8.65332c-47.3115 -14.6699 -87.6777 -37.7959 -119.963 -68.7295c-36.9561 -35.4092 -63.873 -82.4463 -75.7812 -132.441
c-10.0332 -42.1162 -8.14062 -83.9883 5.20215 -114.875c18.4785 -42.7939 62.332 -68.3125 106.603 -62.0635c9.26562 1.29688 17.9248 -4.72559 19.9307 -13.8369s-3.33789 -18.2285 -12.2705 -20.9307c-46.3408 -14.0088 -91.3906 -34.9512 -133.905 -62.249
c-63.3848 -40.6992 -100.966 -89.3916 -111.689 -144.713c-4.61816 -23.8105 -3.17773 -45.7461 4.05859 -61.749c17.0439 -37.6885 61.6777 -35.6113 74.9482 -34.0762c37.0693 4.28516 76.4238 20.9062 123.86 52.3223c106.281 70.3779 193.155 161.198 251.232 262.646
c4.89746 8.55762 15.7998 11.5215 24.3633 6.62402c8.55762 -4.89746 11.5215 -15.8057 6.62402 -24.3633c-60.832 -106.257 -151.604 -201.242 -262.503 -274.679c-52.2979 -34.6357 -96.6221 -53.0723 -139.481 -58.0234
c-5.15332 -0.594727 -10.4854 -0.916016 -15.9004 -0.916016z" />
    <glyph glyph-name="E" unicode="&#xc9;" horiz-adv-x="386" 
d="M-6.00781 -140.149c-36.4863 0 -77.0059 14.4326 -95.6807 55.7568c-10.2598 22.6855 -12.5928 52.2568 -6.58203 83.2617c12.6582 65.2715 55.5361 121.777 127.449 167.958c25.126 16.1338 51.1025 30.1904 77.7041 42.0625
c-31.083 13.9014 -57.125 39.4375 -71.5391 72.8174c-16.5742 38.3672 -19.1152 87.125 -7.15918 137.305c13.4854 56.5889 43.9609 109.846 85.8154 149.95c36.3252 34.8076 81.4404 60.7305 134.096 77.0547c41.9736 13.0146 78.0908 16.1328 110.382 9.52734
c22.3467 -4.57031 38.2539 -14.0977 48.6211 -29.1299c11.9678 -17.3477 16.0625 -43.0566 10.9688 -68.7656c-4.21973 -21.2695 -13.5449 -39.6699 -22.7393 -56.6963c-36.6826 -67.9316 -79.1318 -131.489 -120.183 -192.958
c-5.47461 -8.2002 -16.5615 -10.4141 -24.7617 -4.93262c-8.2002 5.47461 -10.4082 16.5615 -4.93359 24.7617c40.5928 60.7842 82.5664 123.64 118.458 190.096c8.21875 15.2344 15.8779 30.2666 19.127 46.6738c3.16602 15.9492 1.07129 32.2607 -5.33203 41.5449
c-4.94531 7.1709 -13.3301 11.7529 -26.3809 14.4189c-26.25 5.36816 -56.5586 2.53516 -92.6582 -8.65332c-47.3115 -14.6699 -87.6777 -37.7959 -119.963 -68.7295c-36.9561 -35.4092 -63.873 -82.4463 -75.7812 -132.441
c-10.0332 -42.1162 -8.14062 -83.9883 5.20215 -114.875c18.4785 -42.7939 62.332 -68.3125 106.603 -62.0635c9.26562 1.29688 17.9248 -4.72559 19.9307 -13.8369s-3.33789 -18.2285 -12.2705 -20.9307c-46.3408 -14.0088 -91.3906 -34.9512 -133.905 -62.249
c-63.3848 -40.6992 -100.966 -89.3916 -111.689 -144.713c-4.61816 -23.8105 -3.17773 -45.7461 4.05859 -61.749c17.0439 -37.6885 61.6777 -35.6113 74.9482 -34.0762c37.0693 4.28516 76.4238 20.9062 123.86 52.3223c106.281 70.3779 193.155 161.198 251.232 262.646
c4.89746 8.55762 15.7998 11.5215 24.3633 6.62402c8.55762 -4.89746 11.5215 -15.8057 6.62402 -24.3633c-60.832 -106.257 -151.604 -201.242 -262.503 -274.679c-52.2979 -34.6357 -96.6221 -53.0723 -139.481 -58.0234
c-5.15332 -0.594727 -10.4854 -0.916016 -15.9004 -0.916016z" />
    <glyph glyph-name="F" unicode="F" horiz-adv-x="337" 
d="M0.709961 464.417c-8.10547 -4.31445 -18.1562 -1.78906 -23.2383 5.83984c-5.09375 7.63574 -3.56445 17.8955 3.53516 23.7158c96.2295 78.8877 212.211 165.19 342.767 207.134c43.7764 14.0684 77.6855 19.0615 109.905 16.1816
c37.7773 -3.36816 65.5039 -21.21 78.0664 -50.2217c11.5332 -26.6367 9.00391 -62.3555 -6.75488 -95.5391c-20.4062 -42.9492 -56.5352 -73.4902 -96.6514 -81.6904c-9.7002 -1.98145 -19.0908 4.25488 -21.0664 13.9131s4.25488 19.0908 13.9131 21.0664
c29.1846 5.96875 55.9346 29.1543 71.5498 62.0283c8.80762 18.5439 15.0742 45.627 6.24316 66.0332c-9.12891 21.0791 -31.4043 27.3223 -48.4775 28.8457c-27.25 2.43359 -56.791 -2.07715 -95.8125 -14.6104c-93.3135 -29.9814 -179.753 -84.4043 -256.563 -142.035
c29.0771 0.708008 56.6367 -7.8916 78.3701 -24.6973c34.165 -26.417 57.4102 -76.0791 63.6172 -134.668c29.9277 94.2656 64.1885 186.454 102.674 276.19c3.88574 9.05762 14.3779 13.2529 23.4473 9.36719c9.06348 -3.87988 13.2588 -14.3779 9.37305 -23.4414
c-58.9395 -137.417 -107.78 -280.689 -146.284 -428.39c42.9492 10.123 86.6484 15.1514 130.109 14.6748c9.85547 -0.107422 17.7646 -8.18945 17.6572 -18.0508s-7.97461 -17.7646 -18.0498 -17.6572c-46.752 0.511719 -93.8076 -5.77246 -139.762 -18.3535
c-23.3643 -94.6465 -42.5088 -191.03 -57.2852 -288.837c-1.33301 -8.84375 -8.9502 -15.1875 -17.627 -15.1875c-0.886719 0 -1.78516 0.0654297 -2.68945 0.202148c-9.74805 1.47559 -16.4609 10.5693 -14.9854 20.3232c13.7109 90.7842 31.2188 180.343 52.2617 268.473
c-0.0830078 0.744141 -0.178711 1.48828 -0.166992 2.25c-26.292 -9.49219 -52.0723 -21.0967 -77.0488 -34.748c-2.71973 -1.48145 -5.65918 -2.18945 -8.55176 -2.18945c-6.31445 0 -12.4385 3.3623 -15.6816 9.2959c-4.73145 8.64648 -1.55371 19.4951 7.09961 24.2266
c32.8379 17.9541 67.0088 32.5645 101.93 43.7471l1.51758 7.55762c10.0752 50.21 20.4893 102.127 17.6328 153.782c-2.9873 53.9531 -22.543 101.157 -51.0371 123.188c-22.0195 17.0264 -46.9365 18.4844 -63.9385 16.7168
c-20.4775 -2.125 -42.7227 -9.8916 -69.9971 -24.4365z" />
    <glyph glyph-name="G" unicode="G" horiz-adv-x="380" 
d="M-26.5088 -223.882c-21.9121 0 -42.6104 7.85059 -58.7852 22.9424c-16.0205 14.9492 -25.7803 36.332 -26.1074 57.2021c-0.338867 21.4951 8.85547 40.2891 15.8008 52.5547c17.6748 31.208 42.2354 59.2969 75.0791 85.8867
c59.1777 47.9121 126.544 76.7031 191.69 104.555c4.46973 1.91016 8.9209 3.81445 13.3545 5.71289c47.7695 124.699 79.3457 253.541 102.383 366.362c-24.3516 -38.9795 -46.0254 -81.6846 -67.0508 -123.104c-26.2686 -51.7451 -53.4297 -105.245 -86.3096 -152.788
c-14.5205 -20.9893 -32.582 -44.5322 -56.458 -59.916c-23.6318 -15.2227 -48.1504 -18.5137 -69.0508 -9.26562c-18.0791 7.99805 -33.0166 25.3633 -42.0684 48.9004c-6.64746 17.2939 -10.1465 37.7119 -10.6943 62.3975
c-1.4873 66.4795 17.2168 136.196 57.1787 213.132c59.2852 114.154 139.952 196.577 227.13 232.094c19.1748 7.81348 44.3477 15.4014 68.9434 4.63574c24.3105 -10.6406 44.5859 -44.7227 34.8145 -76.6201c-2.89258 -9.42676 -12.8848 -14.7295 -22.2998 -11.8428
c-9.42676 2.88672 -14.7295 12.873 -11.8428 22.2998c3.91602 12.7715 -4.96875 29.0713 -14.9844 33.4512c-9.62891 4.21289 -22.3281 2.67773 -41.1572 -4.99316c-79.334 -32.3203 -153.526 -108.846 -208.913 -215.483
c-37.123 -71.4785 -54.5117 -135.554 -53.167 -195.886c0.458008 -20.5078 3.18359 -36.9922 8.33105 -50.3818c5.45117 -14.1816 14.1221 -25.0488 23.1855 -29.0596c12.8779 -5.70117 27.6191 1.70215 35.2607 6.62402c18.6094 11.9912 33.916 32.1123 46.4375 50.2158
c31.5049 45.5498 58.1064 97.9551 83.833 148.641c23.4951 46.2881 47.7871 94.1533 76.1445 137.68c10.5098 16.1279 24.8516 36.7842 42.5918 53.4355c5.62402 5.28418 14.0088 6.35547 20.793 2.6416c6.77246 -3.70801 10.3965 -11.3555 8.97461 -18.9434
c-22.5723 -120.736 -54.1787 -268.794 -106.465 -414.186c54.292 24.8936 105.186 53.084 149.61 96.6699c7.04004 6.90332 18.3467 6.7959 25.25 -0.244141c6.90332 -7.03418 6.7959 -18.3408 -0.244141 -25.2441c-57.2441 -56.1543 -125.016 -88.8975 -192.275 -118.094
c-11.7539 -29.8506 -24.4473 -59.4512 -38.1768 -88.5342c-31.4512 -66.6045 -61.6172 -115.225 -94.9375 -152.996c-25.1855 -28.5537 -48.3232 -45.9014 -72.7939 -54.6074c-11.0273 -3.92188 -22.1621 -5.84375 -33.0049 -5.84375zM-64.5186 -108.792
c-7.87891 -13.9082 -11.3262 -24.5186 -11.1719 -34.3916c0.178711 -11.3604 5.70117 -23.1973 14.7646 -31.6602c14.2236 -13.2705 34.9395 -16.8467 55.4531 -9.55078c18.2881 6.50488 37.2539 21.085 57.9873 44.5859c31.0293 35.1768 59.4463 81.1367 89.4219 144.623
c8.2959 17.5615 16.1992 35.3193 23.7451 53.2324c-56.6904 -24.4414 -114.118 -50.9414 -163.727 -91.1055c-29.2969 -23.7207 -51.042 -48.4951 -66.4736 -75.7334z" />
    <glyph glyph-name="H" unicode="H" horiz-adv-x="454" 
d="M-27.5059 -90.5059c-7.19531 0 -13.9668 4.38086 -16.6924 11.5225c-8.23047 21.6143 -5.3623 45.0557 -1.7207 67.2119c17.4307 106.078 41.3242 209.592 71.4961 310.011c-23.1318 10.4141 -43.6631 24.5 -60.7188 42.0498
c-6.86719 7.07031 -6.70605 18.3711 0.364258 25.2441c7.07617 6.87305 18.377 6.70605 25.2441 -0.364258c12.9023 -13.2773 28.3633 -24.168 45.7998 -32.5352c36.9561 116.576 82.4229 228.855 136.232 335.945c4.42773 8.80762 15.1631 12.3604 23.9707 7.93262
c8.80762 -4.42188 12.3604 -15.1572 7.93262 -23.9648c-53.1914 -105.853 -98.0928 -216.895 -134.567 -332.197c19.9365 -5.29688 41.5684 -7.88574 64.373 -7.49316c26.125 0.446289 52.1016 4.21973 77.5547 11.0518c34.4805 113.243 83.333 214.841 144.338 299.186
c26.6553 36.8555 63.5342 81.459 112.5 99.4375c21.2158 7.79004 39.0156 6.49316 52.9111 -3.83789c28.1602 -20.9355 23.8809 -65.4199 20.7324 -83.5703c-5.99902 -34.6172 -19.0674 -70.3594 -39.9443 -109.273c-61.0703 -113.821 -156.187 -196.006 -261.777 -230.594
c-12.6641 -44.0918 -23.126 -89.9512 -31.2432 -137.232c-8.49219 -49.4482 -18.6152 -123.456 -8.53418 -195.024c4.33789 -30.8145 13.2529 -51.6074 25.1016 -58.54c13.4199 -7.84961 31.8086 3.26074 41.5859 10.5742c17.6152 13.1875 34.4922 31.6533 54.7197 59.8799
c51.7686 72.2227 91.3076 158.609 129.537 242.151c4.10645 8.95605 14.6992 12.9014 23.668 8.80078c8.96191 -4.10645 12.9014 -14.7051 8.80078 -23.667c-38.9385 -85.0771 -79.2041 -173.059 -132.984 -248.09c-22.4531 -31.3262 -41.6807 -52.1904 -62.3428 -67.6631
c-18.1211 -13.5684 -36.1113 -20.4541 -52.6914 -20.4541c-10.0576 0 -19.5908 2.53516 -28.3213 7.6416c-22.085 12.9258 -36.3555 41.3184 -42.4258 84.3809c-10.7773 76.5195 -0.196289 154.241 8.7002 206.046c7.08203 41.2588 15.9131 81.4941 26.3994 120.479
c-21.6504 -4.51074 -43.5977 -7.0166 -65.6641 -7.39746c-26.7021 -0.458008 -52.0898 2.66016 -75.5674 9.0459c-29.4814 -98.4014 -52.8633 -199.826 -69.9434 -303.763c-2.85059 -17.3535 -5.21289 -35.4092 -0.142578 -48.7217
c3.51074 -9.21191 -1.11914 -19.5312 -10.3311 -23.0361c-2.08887 -0.797852 -4.2373 -1.17285 -6.34961 -1.17285zM385.05 602.162c-54.2803 -75.0439 -98.626 -164.493 -131.327 -264.049c87.2256 35.8076 165.203 107.84 217.133 204.617
c19.0371 35.4863 30.8916 67.6992 36.2236 98.4902c3.8916 22.4414 1.00488 42.9727 -6.85645 48.8223c-1.60059 1.19043 -3.7666 1.78516 -6.48633 1.78516c-3.41602 0 -7.69531 -0.946289 -12.8135 -2.82129c-39.8906 -14.6455 -72.1934 -54.1074 -95.873 -86.8447z" />
    <glyph glyph-name="I" unicode="I" horiz-adv-x="215" 
d="M-66.2119 -186.634c-16.0439 13.5625 -25.0859 37.417 -26.8711 70.9043c-2.26172 42.2529 4.48047 83.6016 11.3779 118.475c21.251 107.483 56.2021 210.408 90.0049 309.946l96.1582 283.172c-24.3701 -1.96973 -48.6865 -4.90918 -72.8008 -8.92578
c-0.994141 -0.166992 -1.98242 -0.25 -2.95801 -0.25c-8.5752 0 -16.1387 6.18945 -17.5908 14.9199c-1.61914 9.73047 4.95117 18.9307 14.6748 20.5498c30.1602 5.02246 60.624 8.46777 91.1357 10.4141l3.93359 11.5928c3.17773 9.33691 13.3184 14.3301 22.6494 11.1641
c8.8252 -2.99316 13.6816 -12.2119 11.5215 -21.0967c13.6699 0.291992 27.3281 0.291992 40.9619 -0.0410156c9.85547 -0.238281 17.6572 -8.42676 17.4131 -18.2822c-0.238281 -9.85547 -8.33203 -17.6572 -18.2822 -17.4131
c-17.3652 0.422852 -34.7725 0.255859 -52.1855 -0.375l-100.823 -296.906c-33.4277 -98.4375 -67.9922 -200.226 -88.791 -305.388c-6.46875 -32.7129 -12.8066 -71.3174 -10.7539 -109.643c1.20801 -22.6084 6.27246 -38.7832 14.2705 -45.5439
c7.72461 -6.52832 18.2637 -2.57129 21.3047 -1.20215c10.5635 4.74902 20.5615 14.9854 29.1074 24.21c88.0469 95.0508 146.844 224.851 203.707 350.371c4.07031 8.98047 14.6572 12.9736 23.6318 8.89746c8.98047 -4.07031 12.9678 -14.6514 8.89746 -23.6318
c-55.333 -122.146 -118.052 -260.593 -210.044 -359.905c-10.9258 -11.8008 -23.9883 -25.0127 -40.6572 -32.5107c-8.4502 -3.79688 -17.0791 -5.67188 -25.4102 -5.67188c-12.3486 0 -24.0488 4.1123 -33.582 12.1699z" />
    <glyph glyph-name="I" unicode="&#xcf;" horiz-adv-x="215" 
d="M-66.2119 -186.634c-16.0439 13.5625 -25.0859 37.417 -26.8711 70.9043c-2.26172 42.2529 4.48047 83.6016 11.3779 118.475c21.251 107.483 56.2021 210.408 90.0049 309.946l96.1582 283.172c-24.3701 -1.96973 -48.6865 -4.90918 -72.8008 -8.92578
c-0.994141 -0.166992 -1.98242 -0.25 -2.95801 -0.25c-8.5752 0 -16.1387 6.18945 -17.5908 14.9199c-1.61914 9.73047 4.95117 18.9307 14.6748 20.5498c30.1602 5.02246 60.624 8.46777 91.1357 10.4141l3.93359 11.5928c3.17773 9.33691 13.3184 14.3301 22.6494 11.1641
c8.8252 -2.99316 13.6816 -12.2119 11.5215 -21.0967c13.6699 0.291992 27.3281 0.291992 40.9619 -0.0410156c9.85547 -0.238281 17.6572 -8.42676 17.4131 -18.2822c-0.238281 -9.85547 -8.33203 -17.6572 -18.2822 -17.4131
c-17.3652 0.422852 -34.7725 0.255859 -52.1855 -0.375l-100.823 -296.906c-33.4277 -98.4375 -67.9922 -200.226 -88.791 -305.388c-6.46875 -32.7129 -12.8066 -71.3174 -10.7539 -109.643c1.20801 -22.6084 6.27246 -38.7832 14.2705 -45.5439
c7.72461 -6.52832 18.2637 -2.57129 21.3047 -1.20215c10.5635 4.74902 20.5615 14.9854 29.1074 24.21c88.0469 95.0508 146.844 224.851 203.707 350.371c4.07031 8.98047 14.6572 12.9736 23.6318 8.89746c8.98047 -4.07031 12.9678 -14.6514 8.89746 -23.6318
c-55.333 -122.146 -118.052 -260.593 -210.044 -359.905c-10.9258 -11.8008 -23.9883 -25.0127 -40.6572 -32.5107c-8.4502 -3.79688 -17.0791 -5.67188 -25.4102 -5.67188c-12.3486 0 -24.0488 4.1123 -33.582 12.1699z" />
    <glyph glyph-name="I" unicode="&#xce;" horiz-adv-x="215" 
d="M-66.2119 -186.634c-16.0439 13.5625 -25.0859 37.417 -26.8711 70.9043c-2.26172 42.2529 4.48047 83.6016 11.3779 118.475c21.251 107.483 56.2021 210.408 90.0049 309.946l96.1582 283.172c-24.3701 -1.96973 -48.6865 -4.90918 -72.8008 -8.92578
c-0.994141 -0.166992 -1.98242 -0.25 -2.95801 -0.25c-8.5752 0 -16.1387 6.18945 -17.5908 14.9199c-1.61914 9.73047 4.95117 18.9307 14.6748 20.5498c30.1602 5.02246 60.624 8.46777 91.1357 10.4141l3.93359 11.5928c3.17773 9.33691 13.3184 14.3301 22.6494 11.1641
c8.8252 -2.99316 13.6816 -12.2119 11.5215 -21.0967c13.6699 0.291992 27.3281 0.291992 40.9619 -0.0410156c9.85547 -0.238281 17.6572 -8.42676 17.4131 -18.2822c-0.238281 -9.85547 -8.33203 -17.6572 -18.2822 -17.4131
c-17.3652 0.422852 -34.7725 0.255859 -52.1855 -0.375l-100.823 -296.906c-33.4277 -98.4375 -67.9922 -200.226 -88.791 -305.388c-6.46875 -32.7129 -12.8066 -71.3174 -10.7539 -109.643c1.20801 -22.6084 6.27246 -38.7832 14.2705 -45.5439
c7.72461 -6.52832 18.2637 -2.57129 21.3047 -1.20215c10.5635 4.74902 20.5615 14.9854 29.1074 24.21c88.0469 95.0508 146.844 224.851 203.707 350.371c4.07031 8.98047 14.6572 12.9736 23.6318 8.89746c8.98047 -4.07031 12.9678 -14.6514 8.89746 -23.6318
c-55.333 -122.146 -118.052 -260.593 -210.044 -359.905c-10.9258 -11.8008 -23.9883 -25.0127 -40.6572 -32.5107c-8.4502 -3.79688 -17.0791 -5.67188 -25.4102 -5.67188c-12.3486 0 -24.0488 4.1123 -33.582 12.1699z" />
    <glyph glyph-name="I" unicode="&#xcd;" horiz-adv-x="215" 
d="M-66.2119 -186.634c-16.0439 13.5625 -25.0859 37.417 -26.8711 70.9043c-2.26172 42.2529 4.48047 83.6016 11.3779 118.475c21.251 107.483 56.2021 210.408 90.0049 309.946l96.1582 283.172c-24.3701 -1.96973 -48.6865 -4.90918 -72.8008 -8.92578
c-0.994141 -0.166992 -1.98242 -0.25 -2.95801 -0.25c-8.5752 0 -16.1387 6.18945 -17.5908 14.9199c-1.61914 9.73047 4.95117 18.9307 14.6748 20.5498c30.1602 5.02246 60.624 8.46777 91.1357 10.4141l3.93359 11.5928c3.17773 9.33691 13.3184 14.3301 22.6494 11.1641
c8.8252 -2.99316 13.6816 -12.2119 11.5215 -21.0967c13.6699 0.291992 27.3281 0.291992 40.9619 -0.0410156c9.85547 -0.238281 17.6572 -8.42676 17.4131 -18.2822c-0.238281 -9.85547 -8.33203 -17.6572 -18.2822 -17.4131
c-17.3652 0.422852 -34.7725 0.255859 -52.1855 -0.375l-100.823 -296.906c-33.4277 -98.4375 -67.9922 -200.226 -88.791 -305.388c-6.46875 -32.7129 -12.8066 -71.3174 -10.7539 -109.643c1.20801 -22.6084 6.27246 -38.7832 14.2705 -45.5439
c7.72461 -6.52832 18.2637 -2.57129 21.3047 -1.20215c10.5635 4.74902 20.5615 14.9854 29.1074 24.21c88.0469 95.0508 146.844 224.851 203.707 350.371c4.07031 8.98047 14.6572 12.9736 23.6318 8.89746c8.98047 -4.07031 12.9678 -14.6514 8.89746 -23.6318
c-55.333 -122.146 -118.052 -260.593 -210.044 -359.905c-10.9258 -11.8008 -23.9883 -25.0127 -40.6572 -32.5107c-8.4502 -3.79688 -17.0791 -5.67188 -25.4102 -5.67188c-12.3486 0 -24.0488 4.1123 -33.582 12.1699z" />
    <glyph glyph-name="J" unicode="J" horiz-adv-x="455" 
d="M-60.5615 -207.498c-29.541 0 -59.416 11.0547 -77.8105 41.7627c-23.7148 39.5928 -14.8652 94.2539 6.12988 127.782c18.7344 29.9102 48.6445 51.9648 88.9102 65.5508c47.5557 16.0439 96.5752 18.127 143.981 20.1387
c8.97461 0.380859 17.9492 0.761719 26.8936 1.23828c13.2588 0.702148 27.5713 1.66602 42.5625 3.16016c84.9043 156.96 151.087 340.671 197.101 547.025c-8.94434 -5.12988 -17.8408 -10.3135 -26.5889 -15.4258c-41.8662 -24.459 -85.1543 -49.751 -131.085 -66.0039
c-14.6699 -5.19531 -32.416 -10.3545 -50.9775 -10.3545c-9.18848 0 -18.585 1.26758 -27.9102 4.42188c-31.0771 10.5156 -53.9297 42.6758 -54.3223 76.4658c-0.113281 9.86133 7.78418 17.9434 17.6455 18.0625c10.1406 0.119141 17.9424 -7.79004 18.0615 -17.6455
c0.25 -21.4414 15.6748 -38.1875 30.0586 -43.0557c17.6748 -5.97461 37.9922 -0.43457 55.5361 5.77246c42.7471 15.1279 84.5537 39.5518 124.985 63.1719c17.1982 10.0459 34.9805 20.4365 52.7803 30.0947c0.779297 0.422852 1.60059 0.851562 2.38574 1.27441
c3.33301 7.12305 11.0576 11.3486 19.0977 9.98535c50.6562 25.5186 113.286 48.9834 178.605 40.4736c15.7588 -2.04688 38.7363 -6.92676 56.3223 -25.4766c16.0264 -16.9072 26.3154 -47.9248 14.9727 -74.4961c-3.86816 -9.06934 -14.3477 -13.2822 -23.4287 -9.41406
c-9.06934 3.86816 -13.2822 14.3604 -9.41406 23.4297c4.82617 11.3135 -0.261719 27.709 -8.0459 35.916c-7.53418 7.94434 -18.335 12.4609 -35.0215 14.6328c-57.8213 7.54004 -115.571 -15.2285 -162.252 -39.1699c-44.7881 -211.942 -110.238 -401.312 -194.97 -563.85
c30.499 5.24902 62.29 13.4258 92.8848 26.4941c43.0742 18.4072 102.925 55.1074 143.446 125.414c4.91602 8.54004 15.8301 11.4736 24.3818 6.55176c8.54004 -4.92188 11.4795 -15.8359 6.55176 -24.3818c-45.4307 -78.834 -112.273 -119.873 -160.353 -140.416
c-42.9258 -18.3477 -87.4102 -27.7627 -128.038 -32.9043c-1.53516 -2.76758 -3.08203 -5.5293 -4.62891 -8.27832c-43.0029 -76.3467 -111.459 -181.366 -209.152 -211.8c-12.2656 -3.82031 -25.751 -6.14746 -39.2959 -6.14746zM-101.988 -56.9023
c-15.0684 -24.0547 -21.335 -64.4746 -5.75488 -90.4746c20.377 -34.0283 63.2129 -23.8223 75.8535 -19.8828c80.2744 25.001 140.768 112.405 180.979 181.783c-6.76074 -0.476562 -13.3252 -0.869141 -19.6572 -1.20215
c-9.0752 -0.482422 -18.1689 -0.869141 -27.2744 -1.25586c-46.9717 -1.99316 -91.3428 -3.87402 -134.084 -18.2998c-32.7012 -11.0332 -55.6191 -27.6074 -70.0625 -50.668z" />
    <glyph glyph-name="K" unicode="K" horiz-adv-x="612" 
d="M-54.8789 245.935c-0.93457 11.0039 1.9834 20.8428 4.2627 27.3057c15.7822 44.6807 55.3447 75.5312 108.548 84.6426c35.6289 6.09375 67.7588 1.13086 93.1934 -14.0029c36.2188 105.739 78.7871 208.152 127.562 306.631
c4.37402 8.83691 15.0918 12.4492 23.9229 8.0752c8.83691 -4.37402 12.4492 -15.0859 8.0752 -23.9229c-50.2275 -101.413 -93.7178 -207.099 -130.437 -316.325c7.53418 -9.37305 14.0859 -20.2812 19.585 -32.9453c72.2646 44.6924 135.37 106.334 186.984 161.424
c42.6104 45.4844 91.2129 101.044 128.532 168.244c4.79102 8.61719 15.6455 11.7295 24.2744 6.93848c8.62305 -4.79102 11.7295 -15.6582 6.93848 -24.2812c-39.2061 -70.5977 -89.582 -128.24 -133.686 -175.319c-55.0303 -58.7373 -122.777 -124.64 -201.48 -171.772
c3.74902 -14.9971 6.57617 -31.6309 8.52246 -49.9844c0.30957 -2.87988 0.625 -6.3252 0.988281 -10.2588c3.91016 -42.3662 14.3008 -154.896 77.6797 -176.641c42.9375 -14.7354 129.74 5.68262 299.358 186.649c6.74902 7.19531 18.0439 7.55859 25.2393 0.816406
c7.18848 -6.74902 7.55762 -18.0439 0.81543 -25.2393c-126.872 -135.358 -225.75 -201.903 -300.514 -201.909c-12.8779 0 -25.0244 1.96973 -36.4922 5.90332c-85.2256 29.2383 -96.7295 153.902 -101.646 207.135c-0.344727 3.74316 -0.648438 7.03418 -0.94043 9.77734
c-1.375 12.9795 -3.19629 24.8818 -5.46973 35.749c-9.83691 -5.0166 -19.8467 -9.6582 -29.9932 -13.9785c-28.5059 -97.4141 -51.7988 -197.381 -69.5625 -299.55c-1.50586 -8.67676 -9.0459 -14.7949 -17.5684 -14.7949c-1.01172 0 -2.04102 0.0888672 -3.07617 0.267578
c-9.71191 1.68457 -16.2227 10.9326 -14.5322 20.6445c16.4551 94.6641 37.5693 187.489 63.1416 278.178c-11.4199 -3.52344 -22.9893 -6.59375 -34.7549 -9.05176c-24.7861 -5.16602 -61.5762 -10.0693 -94.8486 7.02832
c-19.1621 9.84277 -31.0527 26.0889 -32.624 44.5674zM168.677 267.527c-0.916016 2.26172 -1.91602 4.33887 -2.8916 6.45703c-0.994141 -3.13574 -1.97656 -6.28418 -2.95898 -9.43262c1.94629 0.994141 3.91016 1.95801 5.85059 2.97559zM-16.9502 261.338
c-1.84473 -5.22461 -2.61328 -9.27246 -2.35156 -12.3789c0.719727 -8.46289 9.58105 -13.8906 13.3604 -15.8311c17.9131 -9.19434 39.8848 -10.3789 71.2412 -3.83301c18.4902 3.85645 36.582 9.29004 54.2568 15.9854c6.36719 21.251 12.9785 42.3896 19.8457 63.3975
c-15.9551 12.1406 -34.8262 16.0566 -52.251 16.0566c-8.21875 0 -16.1035 -0.844727 -23.1914 -2.05859c-18.96 -3.24316 -64.7949 -15.7227 -80.9102 -61.3379z" />
    <glyph glyph-name="L" unicode="L" horiz-adv-x="331" 
d="M-156.534 -167.918c-0.988281 0.916016 -1.91797 1.92676 -2.70312 3.09277c-19.0254 28.2441 -15.3359 67.5273 -3.2373 93.9326c13.1221 28.6484 35.4922 47.4658 53.5186 60.6592c19.7754 14.4795 40.3545 26.6729 61.374 37.3672
c57.9277 111.673 104.513 233.111 137.22 359.132c24.584 94.7539 34.4209 167.334 31.8799 235.319c-0.369141 9.85547 7.31934 18.1396 17.1748 18.5088c10.0039 0.369141 18.1387 -7.31934 18.5078 -17.1748c2.67188 -71.6035 -7.50488 -147.361 -33.0059 -245.626
c-29.5293 -113.779 -70.1396 -223.964 -120.087 -326.858c26.5186 10.6826 53.3047 19.9307 79.7275 29.0244c12.5156 4.30859 25.0068 8.60547 37.4385 13.0508c73.7461 26.3516 149.604 60.0645 204.795 127.717c6.23047 7.63574 17.4717 8.78418 25.1191 2.54785
c7.63574 -6.23047 8.77832 -17.4785 2.54785 -25.1201c-60.7188 -74.4248 -141.838 -110.679 -220.452 -138.773c-12.5566 -4.4873 -25.1846 -8.83203 -37.8252 -13.1826c-39.0215 -13.4375 -78.8701 -27.1611 -116.844 -45.4434
c-31.707 -60.0762 -66.5869 -117.392 -104.436 -170.987c-3.47559 -4.92773 -8.99805 -7.55859 -14.5977 -7.55859c-3.55859 0 -7.15332 1.05957 -10.2832 3.26758c-2.64844 1.875 -4.56445 4.3623 -5.83203 7.10547zM-130.011 -85.7695
c-5.35645 -11.6943 -7.41504 -25.2627 -6.36719 -37.3076c19.252 28.6309 37.6592 58.2676 55.2148 88.749c-2.2373 -1.55957 -4.4873 -3.10059 -6.69531 -4.71973c-15.4375 -11.3008 -32.5176 -25.6904 -42.1523 -46.7217z" />
    <glyph glyph-name="M" unicode="M" horiz-adv-x="592" 
d="M-82.3711 -73.7715c-0.125 1.375 -0.0996094 2.77051 0.0849609 4.19238c1.45215 64.7363 11.623 128.931 21.627 183.663c33.3086 182.211 82.4473 360.286 146.053 529.273c3.46973 9.22461 13.7646 13.8965 22.9951 10.4209s13.8906 -13.7715 10.4209 -23.002
c-49.4121 -131.293 -89.9512 -268.162 -121.046 -408.21c38.4199 110.471 82.1309 202.528 130.787 275.221c24.1738 36.1289 44.8066 60.9805 66.8848 80.583c35.5938 31.6064 60.2734 19.3711 69.2295 12.6406c16.2588 -12.2178 23.543 -34.707 22.2754 -68.7656
c-1.8623 -49.6855 -12.3721 -97.9375 -22.5361 -144.594c-10.123 -46.4727 -19.6982 -90.4395 -21.6445 -136.114c23.8643 39.8662 43.6816 85.2139 62.8564 129.079c28.2441 64.6172 57.4463 131.437 100.83 184.455c25.8574 31.5947 54.8271 41.1943 77.5186 25.668
c20.335 -13.9199 25.2979 -41.9912 25.8809 -63.0938c0.969727 -34.998 -6.63574 -69.2822 -13.3721 -95.2354c-12.5273 -48.2871 -29.2979 -95.0566 -45.5146 -140.285c-17.5498 -48.9297 -35.6885 -99.5264 -48.0723 -151.266
c-5.02246 -20.9951 -9.28906 -43.3232 -6.49805 -64.3184c2.46387 -18.5137 11.9258 -35.0098 22.001 -38.3779c13.4492 -4.49902 31.5107 12.6992 44.2822 27.9219c13.1758 15.7109 26 32.9932 38.4023 49.7041c25.5186 34.3799 51.8936 69.9258 84.5469 96.6699
c7.6416 6.24902 18.8896 5.12988 25.126 -2.49902c6.24902 -7.62891 5.12988 -18.877 -2.49902 -25.126c-29.2373 -23.9414 -53.1611 -56.1904 -78.4951 -90.3262c-12.7119 -17.127 -25.8584 -34.8438 -39.7188 -51.3701
c-10.7773 -12.8604 -43.5918 -51.9893 -82.9521 -38.8438c-23.584 7.87891 -41.6689 34.3906 -46.0791 67.5381c-3.55859 26.7744 1.34473 52.9951 7.1709 77.3408c12.8369 53.6377 31.3154 105.174 49.1865 155.009c15.9492 44.4844 32.4453 90.4805 44.5674 137.202
c6.52832 25.1494 13.0869 54.9404 12.2422 85.2793c-0.571289 20.71 -5.93359 31.5889 -10.3555 34.6123c-6.04004 4.11816 -19.5078 -6.34375 -29.7139 -18.8174c-40.2656 -49.21 -67.2178 -110.863 -95.7471 -176.141
c-19.7637 -45.2227 -40.2061 -91.9922 -65.4922 -134.049c-3.49316 -5.81445 -16.3418 -24.8701 -34.9922 -25.9951c-9.00391 -0.541992 -17.5439 3.41504 -23.3584 10.8721c-7.24805 9.2959 -7.90234 20.9121 -7.58105 31.0469
c1.58887 50.5547 12.2715 99.6094 22.6084 147.052c9.83105 45.1328 20.002 91.8076 21.7393 138.327c0.880859 23.5547 -3.57617 35.5342 -8.03906 38.8848s-15.3057 -3.00488 -24.0771 -10.7949c-19.71 -17.502 -38.498 -40.2471 -60.916 -73.7402
c-83.6963 -125.051 -152.622 -310.493 -204.885 -551.174c-0.0419922 -2.31543 -0.161133 -4.62402 -0.178711 -6.92676c-0.0771484 -9.81934 -8.05762 -17.7227 -17.8535 -17.7227h-0.137695c-9.86133 0.0771484 -17.7939 8.12891 -17.7168 17.9902
c0.0117188 2.04688 0.119141 4.09375 0.155273 6.14062z" />
    <glyph glyph-name="N" unicode="N" horiz-adv-x="398" 
d="M-84.5107 -53.502c0 0.0117188 0.00292969 0.0244141 -0.00292969 0.00683594c-0.232422 26.3154 3.60059 52.417 7.64746 77.084c33.8379 206.301 91.8848 404.538 172.528 589.207c3.95117 9.03418 14.4727 13.1582 23.5068 9.21289s13.1641 -14.4668 9.21875 -23.5068
c-65.1885 -149.271 -115.368 -307.595 -149.718 -471.94c14.4727 39.1348 28.333 75.8232 39.2236 103.383c42.8896 108.554 91.8672 222.041 159.192 316.568c16.6631 23.3994 37.2422 49.584 63.5225 66.4199c24.3457 15.6035 48.8936 17.2998 67.3301 4.65332
c25.5723 -17.5264 30.2441 -54.5186 29.6611 -82.459c-0.838867 -39.8604 -8.50391 -77.8281 -19.7637 -122.58c-4.0293 -16.0146 -11.498 -40.8721 -20.96 -72.3359c-16.7168 -55.6016 -39.6104 -131.752 -54.1309 -196.393
c-20.8701 -92.8848 -13.8838 -115.511 -11.2656 -120.248c4.82617 0.975586 10.9375 6.05176 18.4297 15.1152c13.1934 15.9668 26.1074 33.4629 38.5986 50.3818c30.1123 40.7949 61.248 82.9824 101.441 111.53c8.04004 5.70703 19.1807 3.82617 24.8936 -4.21387
s3.82617 -19.1865 -4.21387 -24.8936c-35.5342 -25.2383 -63.6357 -63.3135 -93.3916 -103.626c-12.7715 -17.3057 -25.9834 -35.2002 -39.8018 -51.9229c-10.1172 -12.2412 -24.2451 -26.5 -43.8125 -28.0947c-11.6816 -0.952148 -22.0605 3.41602 -29.249 12.3008
c-28.8154 35.6289 -1.73828 150.616 58.3086 350.348c8.95605 29.8027 16.6924 55.541 20.5244 70.7695c10.6641 42.4014 17.9248 78.1201 18.6924 114.624c0.541992 25.8818 -4.87988 45.9072 -14.1514 52.2627c-8.5752 5.88574 -22.3516 -1.72559 -27.8799 -5.2666
c-21.1562 -13.5508 -39.0156 -36.457 -53.7031 -57.0713c-65.1055 -91.4092 -113.006 -202.517 -155.068 -308.97c-27.0303 -68.4082 -72.5088 -193.423 -99.8604 -271.96c0.0419922 -2.08887 0.0595703 -4.17773 0.161133 -6.26074
c0.482422 -9.84863 -7.11133 -18.2217 -16.96 -18.7041c-0.297852 -0.0175781 -0.595703 -0.0234375 -0.887695 -0.0234375c-9.45605 0 -17.3477 7.43262 -17.8174 16.9844c-0.154297 3.20801 -0.213867 6.41602 -0.243164 9.61816z" />
    <glyph glyph-name="O" unicode="O" 
d="M26.2832 -210.229c-28.7383 -0.00585938 -54.5615 10.6709 -72.9502 31.375c-21.6973 24.3994 -33.2607 62.457 -31.7256 104.412c1.43457 39.0869 13.5273 75.1865 23.9062 102.27c25.6611 66.9854 60.4395 127.919 95.4316 186.585
c-38.8369 44.8115 -61.5166 114.594 -60.6777 186.697c0.744141 63.582 18.4785 129.199 51.2871 189.746c36.4092 67.1943 85.3037 114.583 137.674 133.43c38.4326 13.8301 75.1807 10.5625 103.496 -9.19531c28.8154 -20.1143 49.5547 -56.8447 63.4033 -112.285
c26.3281 -105.447 23.1504 -225.987 -9.99707 -379.354c-3.82617 -17.6924 -7.80762 -34.7539 -11.9551 -51.2324c47.293 6.52246 93.8242 21.751 138.101 45.4482c8.69434 4.65332 19.5195 1.37988 24.167 -7.31445c4.65332 -8.69434 1.37988 -19.5137 -7.31445 -24.167
c-52.6797 -28.1963 -108.353 -45.3535 -164.882 -51.1377c-26.0957 -92.04 -58.3984 -164.215 -99.4785 -223.143c-37.0693 -53.167 -78.334 -90.0459 -122.658 -109.619c-19.0078 -8.39746 -37.9795 -12.5156 -55.8271 -12.5156zM15.9746 400.682
c-0.68457 -58.7256 15.8115 -115.125 44.5254 -153.652c40.8242 68.0449 82.4043 138.518 109.601 216.596c3.24316 9.30762 13.4199 14.2295 22.7334 10.9863c9.30762 -3.24902 14.2295 -13.4258 10.9863 -22.7334c-29.458 -84.5596 -74.1689 -159.05 -117.416 -231.082
c-0.154297 -0.255859 -0.308594 -0.517578 -0.462891 -0.773438c25.8691 -21.7988 59.5469 -36.4561 102.181 -44.5674c29.3564 -5.58203 58.9395 -7.76562 88.3379 -6.59277c5.17188 19.7637 10.0879 40.4502 14.7773 62.1299
c31.9512 147.813 35.2061 263.211 10.2529 363.154c-11.5039 46.0615 -28.0596 76.9004 -49.1982 91.6533c-25.0303 17.4668 -55.208 10.5518 -70.9668 4.87988c-44.1094 -15.8721 -86.1416 -57.3691 -118.373 -116.845
c-30.0586 -55.4707 -46.3047 -115.351 -46.9775 -173.153zM-21.1484 15.043c-9.39062 -24.5068 -20.3223 -56.9736 -21.5664 -90.7939c-1.18457 -32.3682 7.31348 -62.0459 22.7266 -79.3818c28.791 -32.4102 74.3887 -15.7832 87.6719 -9.9209
c38.2539 16.8896 74.5195 49.6504 107.792 97.3779c37.0215 53.1016 66.6406 118.129 90.9746 200.552c-28.3389 -0.351562 -56.7373 2.13574 -85.0049 7.50977c-46.5498 8.85547 -84.1846 24.8701 -114.053 48.6445c-32.7607 -55.167 -64.9268 -112.357 -88.541 -173.987z
" />
    <glyph glyph-name="O" unicode="&#xd6;" 
d="M26.2832 -210.229c-28.7383 -0.00585938 -54.5615 10.6709 -72.9502 31.375c-21.6973 24.3994 -33.2607 62.457 -31.7256 104.412c1.43457 39.0869 13.5273 75.1865 23.9062 102.27c25.6611 66.9854 60.4395 127.919 95.4316 186.585
c-38.8369 44.8115 -61.5166 114.594 -60.6777 186.697c0.744141 63.582 18.4785 129.199 51.2871 189.746c36.4092 67.1943 85.3037 114.583 137.674 133.43c38.4326 13.8301 75.1807 10.5625 103.496 -9.19531c28.8154 -20.1143 49.5547 -56.8447 63.4033 -112.285
c26.3281 -105.447 23.1504 -225.987 -9.99707 -379.354c-3.82617 -17.6924 -7.80762 -34.7539 -11.9551 -51.2324c47.293 6.52246 93.8242 21.751 138.101 45.4482c8.69434 4.65332 19.5195 1.37988 24.167 -7.31445c4.65332 -8.69434 1.37988 -19.5137 -7.31445 -24.167
c-52.6797 -28.1963 -108.353 -45.3535 -164.882 -51.1377c-26.0957 -92.04 -58.3984 -164.215 -99.4785 -223.143c-37.0693 -53.167 -78.334 -90.0459 -122.658 -109.619c-19.0078 -8.39746 -37.9795 -12.5156 -55.8271 -12.5156zM15.9746 400.682
c-0.68457 -58.7256 15.8115 -115.125 44.5254 -153.652c40.8242 68.0449 82.4043 138.518 109.601 216.596c3.24316 9.30762 13.4199 14.2295 22.7334 10.9863c9.30762 -3.24902 14.2295 -13.4258 10.9863 -22.7334c-29.458 -84.5596 -74.1689 -159.05 -117.416 -231.082
c-0.154297 -0.255859 -0.308594 -0.517578 -0.462891 -0.773438c25.8691 -21.7988 59.5469 -36.4561 102.181 -44.5674c29.3564 -5.58203 58.9395 -7.76562 88.3379 -6.59277c5.17188 19.7637 10.0879 40.4502 14.7773 62.1299
c31.9512 147.813 35.2061 263.211 10.2529 363.154c-11.5039 46.0615 -28.0596 76.9004 -49.1982 91.6533c-25.0303 17.4668 -55.208 10.5518 -70.9668 4.87988c-44.1094 -15.8721 -86.1416 -57.3691 -118.373 -116.845
c-30.0586 -55.4707 -46.3047 -115.351 -46.9775 -173.153zM-21.1484 15.043c-9.39062 -24.5068 -20.3223 -56.9736 -21.5664 -90.7939c-1.18457 -32.3682 7.31348 -62.0459 22.7266 -79.3818c28.791 -32.4102 74.3887 -15.7832 87.6719 -9.9209
c38.2539 16.8896 74.5195 49.6504 107.792 97.3779c37.0215 53.1016 66.6406 118.129 90.9746 200.552c-28.3389 -0.351562 -56.7373 2.13574 -85.0049 7.50977c-46.5498 8.85547 -84.1846 24.8701 -114.053 48.6445c-32.7607 -55.167 -64.9268 -112.357 -88.541 -173.987z
" />
    <glyph glyph-name="O" unicode="&#xd5;" 
d="M26.2832 -210.229c-28.7383 -0.00585938 -54.5615 10.6709 -72.9502 31.375c-21.6973 24.3994 -33.2607 62.457 -31.7256 104.412c1.43457 39.0869 13.5273 75.1865 23.9062 102.27c25.6611 66.9854 60.4395 127.919 95.4316 186.585
c-38.8369 44.8115 -61.5166 114.594 -60.6777 186.697c0.744141 63.582 18.4785 129.199 51.2871 189.746c36.4092 67.1943 85.3037 114.583 137.674 133.43c38.4326 13.8301 75.1807 10.5625 103.496 -9.19531c28.8154 -20.1143 49.5547 -56.8447 63.4033 -112.285
c26.3281 -105.447 23.1504 -225.987 -9.99707 -379.354c-3.82617 -17.6924 -7.80762 -34.7539 -11.9551 -51.2324c47.293 6.52246 93.8242 21.751 138.101 45.4482c8.69434 4.65332 19.5195 1.37988 24.167 -7.31445c4.65332 -8.69434 1.37988 -19.5137 -7.31445 -24.167
c-52.6797 -28.1963 -108.353 -45.3535 -164.882 -51.1377c-26.0957 -92.04 -58.3984 -164.215 -99.4785 -223.143c-37.0693 -53.167 -78.334 -90.0459 -122.658 -109.619c-19.0078 -8.39746 -37.9795 -12.5156 -55.8271 -12.5156zM15.9746 400.682
c-0.68457 -58.7256 15.8115 -115.125 44.5254 -153.652c40.8242 68.0449 82.4043 138.518 109.601 216.596c3.24316 9.30762 13.4199 14.2295 22.7334 10.9863c9.30762 -3.24902 14.2295 -13.4258 10.9863 -22.7334c-29.458 -84.5596 -74.1689 -159.05 -117.416 -231.082
c-0.154297 -0.255859 -0.308594 -0.517578 -0.462891 -0.773438c25.8691 -21.7988 59.5469 -36.4561 102.181 -44.5674c29.3564 -5.58203 58.9395 -7.76562 88.3379 -6.59277c5.17188 19.7637 10.0879 40.4502 14.7773 62.1299
c31.9512 147.813 35.2061 263.211 10.2529 363.154c-11.5039 46.0615 -28.0596 76.9004 -49.1982 91.6533c-25.0303 17.4668 -55.208 10.5518 -70.9668 4.87988c-44.1094 -15.8721 -86.1416 -57.3691 -118.373 -116.845
c-30.0586 -55.4707 -46.3047 -115.351 -46.9775 -173.153zM-21.1484 15.043c-9.39062 -24.5068 -20.3223 -56.9736 -21.5664 -90.7939c-1.18457 -32.3682 7.31348 -62.0459 22.7266 -79.3818c28.791 -32.4102 74.3887 -15.7832 87.6719 -9.9209
c38.2539 16.8896 74.5195 49.6504 107.792 97.3779c37.0215 53.1016 66.6406 118.129 90.9746 200.552c-28.3389 -0.351562 -56.7373 2.13574 -85.0049 7.50977c-46.5498 8.85547 -84.1846 24.8701 -114.053 48.6445c-32.7607 -55.167 -64.9268 -112.357 -88.541 -173.987z
" />
    <glyph glyph-name="O" unicode="&#xd4;" 
d="M26.2832 -210.229c-28.7383 -0.00585938 -54.5615 10.6709 -72.9502 31.375c-21.6973 24.3994 -33.2607 62.457 -31.7256 104.412c1.43457 39.0869 13.5273 75.1865 23.9062 102.27c25.6611 66.9854 60.4395 127.919 95.4316 186.585
c-38.8369 44.8115 -61.5166 114.594 -60.6777 186.697c0.744141 63.582 18.4785 129.199 51.2871 189.746c36.4092 67.1943 85.3037 114.583 137.674 133.43c38.4326 13.8301 75.1807 10.5625 103.496 -9.19531c28.8154 -20.1143 49.5547 -56.8447 63.4033 -112.285
c26.3281 -105.447 23.1504 -225.987 -9.99707 -379.354c-3.82617 -17.6924 -7.80762 -34.7539 -11.9551 -51.2324c47.293 6.52246 93.8242 21.751 138.101 45.4482c8.69434 4.65332 19.5195 1.37988 24.167 -7.31445c4.65332 -8.69434 1.37988 -19.5137 -7.31445 -24.167
c-52.6797 -28.1963 -108.353 -45.3535 -164.882 -51.1377c-26.0957 -92.04 -58.3984 -164.215 -99.4785 -223.143c-37.0693 -53.167 -78.334 -90.0459 -122.658 -109.619c-19.0078 -8.39746 -37.9795 -12.5156 -55.8271 -12.5156zM15.9746 400.682
c-0.68457 -58.7256 15.8115 -115.125 44.5254 -153.652c40.8242 68.0449 82.4043 138.518 109.601 216.596c3.24316 9.30762 13.4199 14.2295 22.7334 10.9863c9.30762 -3.24902 14.2295 -13.4258 10.9863 -22.7334c-29.458 -84.5596 -74.1689 -159.05 -117.416 -231.082
c-0.154297 -0.255859 -0.308594 -0.517578 -0.462891 -0.773438c25.8691 -21.7988 59.5469 -36.4561 102.181 -44.5674c29.3564 -5.58203 58.9395 -7.76562 88.3379 -6.59277c5.17188 19.7637 10.0879 40.4502 14.7773 62.1299
c31.9512 147.813 35.2061 263.211 10.2529 363.154c-11.5039 46.0615 -28.0596 76.9004 -49.1982 91.6533c-25.0303 17.4668 -55.208 10.5518 -70.9668 4.87988c-44.1094 -15.8721 -86.1416 -57.3691 -118.373 -116.845
c-30.0586 -55.4707 -46.3047 -115.351 -46.9775 -173.153zM-21.1484 15.043c-9.39062 -24.5068 -20.3223 -56.9736 -21.5664 -90.7939c-1.18457 -32.3682 7.31348 -62.0459 22.7266 -79.3818c28.791 -32.4102 74.3887 -15.7832 87.6719 -9.9209
c38.2539 16.8896 74.5195 49.6504 107.792 97.3779c37.0215 53.1016 66.6406 118.129 90.9746 200.552c-28.3389 -0.351562 -56.7373 2.13574 -85.0049 7.50977c-46.5498 8.85547 -84.1846 24.8701 -114.053 48.6445c-32.7607 -55.167 -64.9268 -112.357 -88.541 -173.987z
" />
    <glyph glyph-name="O" unicode="&#xd3;" 
d="M26.2832 -210.229c-28.7383 -0.00585938 -54.5615 10.6709 -72.9502 31.375c-21.6973 24.3994 -33.2607 62.457 -31.7256 104.412c1.43457 39.0869 13.5273 75.1865 23.9062 102.27c25.6611 66.9854 60.4395 127.919 95.4316 186.585
c-38.8369 44.8115 -61.5166 114.594 -60.6777 186.697c0.744141 63.582 18.4785 129.199 51.2871 189.746c36.4092 67.1943 85.3037 114.583 137.674 133.43c38.4326 13.8301 75.1807 10.5625 103.496 -9.19531c28.8154 -20.1143 49.5547 -56.8447 63.4033 -112.285
c26.3281 -105.447 23.1504 -225.987 -9.99707 -379.354c-3.82617 -17.6924 -7.80762 -34.7539 -11.9551 -51.2324c47.293 6.52246 93.8242 21.751 138.101 45.4482c8.69434 4.65332 19.5195 1.37988 24.167 -7.31445c4.65332 -8.69434 1.37988 -19.5137 -7.31445 -24.167
c-52.6797 -28.1963 -108.353 -45.3535 -164.882 -51.1377c-26.0957 -92.04 -58.3984 -164.215 -99.4785 -223.143c-37.0693 -53.167 -78.334 -90.0459 -122.658 -109.619c-19.0078 -8.39746 -37.9795 -12.5156 -55.8271 -12.5156zM15.9746 400.682
c-0.68457 -58.7256 15.8115 -115.125 44.5254 -153.652c40.8242 68.0449 82.4043 138.518 109.601 216.596c3.24316 9.30762 13.4199 14.2295 22.7334 10.9863c9.30762 -3.24902 14.2295 -13.4258 10.9863 -22.7334c-29.458 -84.5596 -74.1689 -159.05 -117.416 -231.082
c-0.154297 -0.255859 -0.308594 -0.517578 -0.462891 -0.773438c25.8691 -21.7988 59.5469 -36.4561 102.181 -44.5674c29.3564 -5.58203 58.9395 -7.76562 88.3379 -6.59277c5.17188 19.7637 10.0879 40.4502 14.7773 62.1299
c31.9512 147.813 35.2061 263.211 10.2529 363.154c-11.5039 46.0615 -28.0596 76.9004 -49.1982 91.6533c-25.0303 17.4668 -55.208 10.5518 -70.9668 4.87988c-44.1094 -15.8721 -86.1416 -57.3691 -118.373 -116.845
c-30.0586 -55.4707 -46.3047 -115.351 -46.9775 -173.153zM-21.1484 15.043c-9.39062 -24.5068 -20.3223 -56.9736 -21.5664 -90.7939c-1.18457 -32.3682 7.31348 -62.0459 22.7266 -79.3818c28.791 -32.4102 74.3887 -15.7832 87.6719 -9.9209
c38.2539 16.8896 74.5195 49.6504 107.792 97.3779c37.0215 53.1016 66.6406 118.129 90.9746 200.552c-28.3389 -0.351562 -56.7373 2.13574 -85.0049 7.50977c-46.5498 8.85547 -84.1846 24.8701 -114.053 48.6445c-32.7607 -55.167 -64.9268 -112.357 -88.541 -173.987z
" />
    <glyph glyph-name="P" unicode="P" horiz-adv-x="512" 
d="M-33.6943 158.167c-5.1416 1.60645 -9.28418 5.4502 -11.2773 10.4609c-1.9873 5.00488 -1.6123 10.6406 1.02441 15.3359c14.3896 25.625 40.8125 29.1953 58.1426 28.8799c-15.4668 13.7051 -27.1191 35.0879 -34.6592 63.6113
c-17.8115 67.4199 -7.92676 149.456 27.833 230.998c36.9619 84.2676 94.4082 156.329 161.757 202.908c50.7031 35.0576 99.7344 50.6729 145.767 46.4121c57.0654 -5.29004 106.751 -43.0439 129.669 -98.5439c12.3906 -30.0117 17.6572 -66.0938 15.6455 -107.258
c-5.34375 -109.34 -60.2549 -218.209 -150.652 -298.68c-35.8135 -31.8799 -74.377 -56.9756 -114.018 -74.8291c48.8232 -12.2656 99.0264 -24.3223 148.569 -28.5771c65.3018 -5.6123 115.314 5.68262 152.92 34.5215c7.81934 5.99902 19.0254 4.52344 25.0303 -3.30273
c5.99902 -7.81934 4.52344 -19.0312 -3.30273 -25.0303c-37.8369 -29.0234 -84.9639 -43.2998 -143.338 -43.2998c-11.0508 0 -22.4951 0.511719 -34.3672 1.5293c-56.3154 4.83789 -111.935 18.8584 -165.727 32.4209c-13.5332 3.41016 -27.1914 6.85547 -40.9268 10.1641
c-15.8057 -4.06445 -31.6416 -6.93848 -47.418 -8.67578c-24.126 -92.4326 -44.3359 -186.514 -60.374 -281.886c1.58301 -2.41016 2.6123 -5.2373 2.86816 -8.31445c0.767578 -9.11133 -4.74902 -17.4668 -13.4258 -20.3174
c-2.07715 -0.678711 -4.18945 -1.00586 -6.27246 -1.00586c-6.75488 0 -13.1943 3.45117 -16.8955 9.46777c-4.59473 7.46289 -3.2793 15.3359 -2.78516 18.3057c15.7998 95.3066 35.7119 189.364 59.4922 281.814c-28.4346 0.267578 -56.3926 4.50488 -83.2793 12.8896z
M14.0625 285.573c5.90918 -22.3701 14.6533 -38.7129 25.2939 -47.2764c8.02246 -6.45117 19.9961 -8.55762 27.3457 -0.101562c2.68359 3.08301 6.20117 4.95801 9.9209 5.70801c30.7734 105.608 66.7002 208.866 107.733 309.083
c3.7373 9.12891 14.1699 13.4912 23.2871 9.75977c9.12891 -3.73145 13.4971 -14.1582 9.75977 -23.2871c-44.9482 -109.774 -83.7256 -223.238 -116.201 -339.499c10.9385 -2.2793 21.8467 -4.67773 32.6777 -7.23047c52.542 15.0146 104.691 44.1807 151.932 86.2314
c83.2861 74.1387 133.853 173.921 138.727 273.751c1.75 35.8613 -2.61816 66.7773 -12.9854 91.8848c-17.5674 42.5449 -56.8027 72.6221 -99.9541 76.6211c-37.4082 3.46387 -78.5361 -10.0693 -122.158 -40.2295c-61.9805 -42.8604 -115.028 -109.59 -149.366 -187.883
c-18.8408 -42.9609 -47.2812 -127.056 -26.0117 -207.532z" />
    <glyph glyph-name="Q" unicode="Q" 
d="M26.2891 -210.229c-28.7441 -0.00585938 -54.5615 10.6748 -72.9619 31.3789c-21.6914 24.3994 -33.2549 62.457 -31.7197 104.412c1.43457 39.0869 13.5273 75.1865 23.9062 102.27c25.6611 66.9795 60.4395 127.919 95.4316 186.585
c-38.8369 44.8115 -61.5166 114.594 -60.6777 186.697c0.744141 63.5879 18.4785 129.205 51.2871 189.746c36.4092 67.1943 85.3037 114.583 137.674 133.43c38.4326 13.8301 75.1807 10.5625 103.496 -9.19531c28.8154 -20.1152 49.5547 -56.8457 63.4033 -112.286
c26.3281 -105.447 23.1504 -225.987 -9.99707 -379.354c-3.82617 -17.6924 -7.80762 -34.7539 -11.9551 -51.2324c47.293 6.52246 93.8242 21.751 138.101 45.4482c8.69434 4.65332 19.5137 1.37988 24.167 -7.31445s1.37988 -19.5137 -7.31445 -24.167
c-52.6787 -28.1963 -108.352 -45.3535 -164.881 -51.1377c-26.0957 -92.04 -58.3984 -164.215 -99.4785 -223.143c-28.6426 -41.0742 -59.791 -72.3828 -92.9092 -93.5449c18.8535 -15.7881 38.5518 -29.833 58.7852 -41.6045
c28.1367 -16.3652 49.3877 -23.3457 68.7344 -22.6436c11.2178 0.410156 19.5254 3.86133 24.6973 10.2764c5.52832 6.84961 7.12305 19.7812 3.16602 25.6191c-5.53418 8.16504 -3.40332 19.2637 4.75586 24.7979c8.16504 5.52832 19.2637 3.39746 24.7979 -4.76172
c14.2891 -21.0791 8.71289 -51.168 -4.92676 -68.0811c-11.7891 -14.6104 -29.4932 -22.752 -51.1973 -23.5371c-1.29102 -0.0478516 -2.58789 -0.0712891 -3.87305 -0.0712891c-32.4814 0 -61.8916 14.6104 -84.1016 27.5303
c-25.1973 14.6514 -49.6445 32.3496 -72.6816 52.5889c-0.744141 0.654297 -1.48242 1.34473 -2.23242 2.01172c-17.5498 -7.15332 -35.0049 -10.7178 -51.4951 -10.7178zM-19.9824 -155.136c19.6748 -22.1377 47.1787 -21.3867 66.877 -16.8164
c-7.91504 6.64746 -15.8594 12.6523 -24.1787 17.4248c-8.55176 4.90332 -29.6367 14.8535 -48.3232 6.75391c1.75586 -2.64258 3.625 -5.1123 5.625 -7.3623zM15.9785 400.687c-0.69043 -58.7256 15.8066 -115.124 44.5322 -153.646
c40.8242 68.0449 82.3984 138.518 109.595 216.596c3.24316 9.30762 13.4072 14.2295 22.7324 10.9863c9.30762 -3.24902 14.2295 -13.4258 10.9863 -22.7334c-29.4521 -84.5654 -74.1689 -159.056 -117.416 -231.088
c-0.154297 -0.261719 -0.308594 -0.517578 -0.462891 -0.773438c25.8691 -21.7988 59.5469 -36.4561 102.181 -44.5674c29.3564 -5.58203 58.9336 -7.76562 88.3379 -6.59375c5.17188 19.7637 10.0879 40.4502 14.7773 62.1299
c31.9512 147.813 35.2061 263.211 10.2529 363.154c-11.5039 46.0615 -28.0596 76.9004 -49.1982 91.6533c-25.0303 17.4668 -55.208 10.5518 -70.9668 4.87988c-44.1094 -15.8721 -86.1416 -57.3691 -118.373 -116.845
c-30.0586 -55.4707 -46.3047 -115.345 -46.9775 -173.153zM-21.1436 15.0488c-9.39062 -24.5068 -20.3232 -56.9746 -21.5674 -90.8008c-0.505859 -13.7588 0.833008 -26.9521 3.61816 -38.9971c23.6436 9.94434 52.1377 6.92676 79.5664 -8.80762
c15.8896 -9.11719 29.9287 -21.1562 43.3721 -33.3086c32.3203 18.3418 63.082 48.2402 91.6357 89.1953c37.0215 53.1016 66.6406 118.129 90.9746 200.552c-28.2979 -0.351562 -56.7383 2.13574 -85.0059 7.50977c-46.5498 8.85547 -84.1846 24.8701 -114.053 48.6445
c-32.7666 -55.167 -64.9268 -112.357 -88.541 -173.987z" />
    <glyph glyph-name="R" unicode="R" horiz-adv-x="593" 
d="M-44.1914 156.978c-12.0869 11.0928 -24.4121 31.3164 -14.4619 64.7197c6.33789 21.2578 21.7451 36.6895 44.5557 44.6221c25.4287 8.84961 56.0713 7.33789 84.6367 -0.0351562c-12.2529 12.4678 -18.3525 28.6729 -22.1553 43.2891
c-10.2656 39.4443 -4.4873 80.5371 1.68945 111.923c19.2754 97.9492 60.4336 183.193 115.886 240.032c63.8252 65.415 146.646 92.6895 221.541 72.9492c43.3779 -11.4316 78.8818 -37.9141 99.9785 -74.5791c25.5244 -44.3418 31.4395 -106.722 15.8174 -166.852
c-11.9561 -46.0381 -35.1182 -90.2012 -72.9072 -138.982c-63.7246 -82.2744 -142.018 -146.011 -227.851 -185.794c21.418 -28.708 40.2588 -60.5996 58.124 -92.0273l6.29004 -11.0986c30.9697 -54.6553 62.9922 -111.173 105.603 -149.111
c8.41504 -7.48633 37.3496 -30.8447 56.3936 -17.0322c9.64648 6.99219 16.8418 22.5361 22.8223 36.5508c9.83691 23.0664 19.1621 47.4062 28.1777 70.9492c25.8574 67.5273 52.6016 137.357 96.4971 191.376c6.21289 7.65332 17.4541 8.81934 25.1133 2.60059
c7.65332 -6.21875 8.81348 -17.46 2.59473 -25.1133c-40.3008 -49.5967 -66.0098 -116.719 -90.8672 -181.628c-9.13477 -23.8457 -18.5791 -48.5127 -28.6846 -72.1924c-7.86133 -18.4189 -17.6748 -39.1045 -34.707 -51.4473
c-10.2236 -7.41504 -21.8994 -11.0635 -34.373 -11.0635c-20.9717 0 -44.2168 10.3076 -66.7178 30.3389c-47.0195 41.8662 -80.5244 100.996 -112.922 158.175l-6.27246 11.0576c-18.7578 33.0049 -38.5811 66.4922 -61.0938 95.3965
c-5.70117 -2.0293 -12.3779 -4.10059 -19.7393 -6.12988c-19.9365 -73.6748 -37.9326 -148.146 -53.8398 -223.237c-1.09473 -5.17773 -2.07617 -10.0811 -2.62988 -14.6455c1.84473 -1.28516 3.47559 -2.93945 4.77246 -4.94531
c5.3623 -8.27246 2.99414 -19.3301 -5.28418 -24.6865l-6.7666 -4.38574c-2.93359 -1.89844 -6.31348 -2.86816 -9.71191 -2.86816c-2.21973 0 -4.45703 0.410156 -6.5752 1.25488c-5.37402 2.13086 -9.37891 6.72559 -10.7598 12.3379
c-4.07031 16.5742 -0.546875 33.2012 2.03027 45.3418c14.7412 69.5859 31.2559 138.66 49.4365 207.062c-54.4287 -9.58105 -121.891 -11.2471 -153.64 17.8779zM133.438 238.194c1.02344 -0.719727 1.99414 -1.5293 3.00586 -2.26172
c0.982422 3.3623 2 6.71289 2.98828 10.0752c-6.2666 -0.5 -12.2061 -0.69043 -17.6279 -0.422852c4.11816 -2.37402 8.00977 -4.84961 11.6338 -7.39062zM85.1152 414.597c-5.43945 -27.667 -10.6123 -63.5791 -2.16797 -96.0361
c5.55273 -21.3408 11.8428 -45.3418 67.6641 -35.2432c32.9277 107.899 70.0625 213.758 111.274 316.837c3.6543 9.15234 14.0391 13.6094 23.2041 9.94922c9.15918 -3.66016 13.6104 -14.0508 9.9502 -23.2031c-48.7637 -121.968 -91.7842 -247.869 -128.788 -376.467
c4.41016 -4.36816 8.75488 -8.84961 12.9561 -13.5332c83.9043 37.04 160.668 98.5986 222.958 179.021c34.7188 44.8301 55.875 84.8984 66.5752 126.092c13.1221 50.5244 8.4502 104.191 -12.2002 140.07c-16.3057 28.333 -44.0498 48.8818 -78.1318 57.8623
c-62.2725 16.4189 -132.156 -7.26074 -186.883 -63.3555c-50.668 -51.9297 -88.457 -130.77 -106.411 -221.994zM-24.4277 211.494c-5.02246 -16.8359 -0.297852 -23.9238 4.37988 -28.2148c21.9951 -20.1865 87.416 -17.7109 139.821 -6.12988
c2.01172 7.28418 4.04102 14.5625 6.08789 21.835c-4.21973 3.51074 -8.5166 6.87305 -12.9326 9.97363c-24.7266 17.3477 -59.4033 27.667 -87.957 27.667c-10.1172 0 -19.46 -1.29688 -27.333 -4.03418c-11.8428 -4.1123 -19.0615 -11.0156 -22.0664 -21.0967z" />
    <glyph glyph-name="S" unicode="S" horiz-adv-x="502" 
d="M82.793 105.221c-76.0195 82.2441 -113.777 161.507 -115.443 242.299c-1.02344 49.9414 12.8545 103.418 39.0811 150.574c21.2871 38.2715 50.8877 73.8291 90.5039 108.709c97.8418 86.1367 203.277 120.046 296.882 95.4795
c44.4307 -11.6582 75.7217 -36.6592 90.4863 -72.2881c11.7891 -28.4521 12.6875 -64.8428 2.45801 -99.8408c-9.70605 -33.2129 -27.4824 -60.5762 -41.8779 -80.709c-55.6016 -77.7627 -125.307 -135.209 -192.709 -190.763
c-7.61719 -6.27246 -18.8652 -5.18359 -25.1318 2.42188c-6.2666 7.61133 -5.18359 18.8594 2.42188 25.1318c65.6289 54.0957 133.489 110.03 186.377 183.984c12.7529 17.8359 28.4463 41.9082 36.6465 69.9561c7.86719 26.9287 7.42676 55.3926 -1.17285 76.1562
c-13.0508 31.4814 -43.3955 45.3418 -66.5635 51.418c-110.315 28.9463 -212.889 -42.5508 -264.217 -87.7432c-36.5098 -32.1475 -63.623 -64.6104 -82.8984 -99.2637c-23.1973 -41.7109 -35.4805 -88.7607 -34.582 -132.483
c1.46973 -71.6807 36.1289 -143.255 105.959 -218.804c10.9795 -11.8779 22.5244 -23.8037 33.6885 -35.3369c10.6641 -11.0156 21.4121 -22.1201 32.0049 -33.5107c70.5566 88.0527 184.086 145.201 324.586 159.496c9.80762 1.00586 18.5732 -6.14746 19.5674 -15.9551
c1 -9.80762 -6.14746 -18.5674 -15.9551 -19.5674c-132.93 -13.5205 -239.514 -67.7891 -303.923 -151.104c26.2627 -30.7676 50.2637 -64.4629 67.9326 -104.508c5.70703 -12.9316 11.5566 -28.5059 11.6816 -45.9727c0.297852 -41.4795 -31.457 -71.9072 -63.0518 -83.667
c-12.3184 -4.58203 -24.4346 -6.81934 -35.8906 -6.81934c-24.5361 0 -46.0312 10.2656 -59.9326 29.7197c-18.127 25.3574 -22.4648 64.9795 -11.6045 105.994c9.84863 37.2178 25.1494 71.6445 45.2998 102.84c-11.7598 12.7949 -23.9658 25.4111 -36.3623 38.2119
c-11.3066 11.6816 -23.001 23.7568 -34.2607 35.9443zM178.072 2.93945c-15.5439 -25.7686 -27.4814 -53.8154 -35.4385 -83.8564c-6.30176 -23.8164 -8.00391 -56.3096 6.13574 -76.0908c15.9307 -22.293 45.5967 -13.4434 54.3213 -10.2002
c19.9365 7.4209 39.9736 25.7441 39.8008 49.9473c-0.0771484 10.9502 -4.41504 22.2275 -8.64062 31.8145c-14.6934 33.3086 -34.1416 61.7607 -56.1787 88.3857z" />
    <glyph glyph-name="T" unicode="T" horiz-adv-x="369" 
d="M-9.57422 479.908c-5.50488 3.7666 -9.24023 9.61426 -10.5254 16.4521c-2.10645 11.3604 2.88086 23.7148 8.24902 31.4932c34.2666 49.6025 69.3965 80.7383 107.418 95.1816c25.9824 9.87305 52.7441 10.8789 76.9414 3.88672
c75.8408 50.418 152.914 93.6055 235.021 120.38c63.8848 20.835 116.028 26.167 164.125 16.7764c22.3281 -4.3623 39.4014 -11.4385 53.7373 -22.2578c18.6504 -14.0801 31.999 -35.1348 36.5938 -57.7607c5.68945 -27.9111 -1.32715 -60.5889 -19.2344 -89.6602
c-18.0918 -29.375 -43.8721 -51.5781 -72.5977 -62.5166c-9.23047 -3.51074 -19.5264 1.11914 -23.0371 10.3311c-3.51074 9.21875 1.11328 19.5322 10.332 23.043c21.4121 8.14746 40.9082 25.1494 54.8994 47.8711c13.2051 21.4355 18.543 44.6924 14.6572 63.8135
c-2.89844 14.2109 -11.3252 27.4697 -23.1201 36.3789c-9.84863 7.43848 -22.2686 12.4316 -39.0742 15.7109c-41.8779 8.17676 -88.332 3.19531 -146.213 -15.6758c-72.3057 -23.5781 -141.261 -60.9453 -209.211 -104.941
c7.81934 -5.92773 14.9961 -12.9678 21.3398 -21.0557c14.7881 -18.8535 22.751 -43.7354 25.7861 -70.4795c16.9131 38.748 33.3203 77.9424 48.4424 117.452c3.5293 9.20605 13.8486 13.8125 23.0605 10.2891c9.20605 -3.5293 13.8125 -13.8486 10.2891 -23.0605
c-31.6777 -82.75 -68.6221 -163.679 -104.347 -241.941c-54.4521 -119.29 -110.756 -242.639 -148.563 -373.266c-8.39062 -28.9883 -16.96 -62.5469 -12.4434 -94.0049c2.28516 -15.9307 8.27832 -28.999 15.6396 -34.1055c11.7236 -8.1416 29.6367 3.62402 36.79 9.06934
c25.0605 19.0557 45.5322 48.46 65.332 76.8945l180.432 259.183c5.62988 8.09375 16.7588 10.0869 24.8525 4.45117s10.0869 -16.7646 4.45117 -24.8525l-180.426 -259.183c-21.3828 -30.708 -43.4854 -62.457 -73.0264 -84.916
c-16.7461 -12.7354 -33.6533 -19.1982 -49.1855 -19.1982c-10.6699 0 -20.6914 3.05273 -29.5703 9.21191c-21.4951 14.9199 -28.416 42.9736 -30.6299 58.3691c-5.52246 38.4795 4.07031 76.4473 13.4912 109.006c38.5391 133.145 95.3955 257.707 150.384 378.169
c2.57129 5.61816 5.14844 11.2832 7.72559 16.9307c16.7822 49.3584 20.1865 119.837 -6.56348 153.948c-7.20703 9.18848 -16.0029 16.3955 -25.8105 21.4717c-34.1416 -23.1738 -68.1221 -47.7402 -102.252 -72.7822
c-18.4541 -13.5449 -37.1465 -27.2627 -58.4756 -35.6836c-9.84277 -3.87988 -18.4775 -3.35645 -25.6846 1.57715zM108.266 589.668c-25.4707 -9.68262 -50.8809 -30.4395 -75.7568 -61.832c6.79004 4.58203 13.5977 9.58105 20.5664 14.6934
c23.9648 17.5859 47.8525 34.9336 71.7822 51.751c-5.53418 -0.988281 -11.0869 -2.51758 -16.5918 -4.6123z" />
    <glyph glyph-name="U" unicode="U" horiz-adv-x="530" 
d="M144.242 439.625c15.2051 39.1943 31.5361 86.0332 37.3389 136.32c3.91602 33.9746 0.553711 76.2627 -20.6377 93.0742c-18.8594 14.9551 -45.1152 1.26172 -55.542 -5.32031c-26.292 -16.6094 -48.7871 -43.7822 -63.3379 -76.5254
c-10.1885 -22.9355 -14.8184 -44.8242 -13.7529 -65.0576c1.14844 -21.7754 9.75391 -41.4619 21.9238 -50.1387c8.02832 -5.72461 9.89648 -16.8711 4.17188 -24.8994c-5.71289 -8.02246 -16.8711 -9.89746 -24.8994 -4.17285
c-21.0137 14.9785 -35.1357 44.6152 -36.8555 77.3408c-1.36328 25.9053 4.27832 53.3037 16.7812 81.4287c17.3828 39.1289 44.6982 71.8779 76.8994 92.2188c35.123 22.1738 71.2998 23.3281 96.7939 3.10059c39.9854 -31.7197 37.04 -98.0801 33.9219 -125.14
c-6.2666 -54.2979 -23.4951 -103.847 -39.5156 -145.147c-31.6299 -81.5303 -70.5625 -159.246 -108.215 -234.408c-20.127 -40.1816 -40.9443 -81.7324 -60.3154 -123.241c-13.5088 -28.9229 -27.375 -59.9463 -35.5342 -93.2549
c-5.68359 -23.1738 -4.09473 -44.5029 3.77246 -50.71c2.45801 -1.94043 6.51074 -2.46387 12.0635 -1.54102c30.0713 5.00488 55.7266 39.9678 74.7168 69.8662c46.9902 73.9844 284.017 446.31 343.177 522.733
c0.0117188 0.0117188 0.0234375 0.0292969 0.0351562 0.0410156c0.0947266 0.119141 0.202148 0.255859 0.291016 0.375c0.25 0.327148 0.553711 0.571289 0.821289 0.869141c0.476562 0.535156 0.94043 1.07715 1.46973 1.54688
c0.410156 0.369141 0.868164 0.661133 1.30859 0.988281c0.488281 0.351562 0.958008 0.726562 1.47559 1.03027c0.505859 0.291992 1.03516 0.511719 1.56445 0.755859c0.511719 0.238281 1.01758 0.494141 1.55273 0.68457
c0.529297 0.18457 1.07129 0.303711 1.61914 0.43457c0.571289 0.142578 1.13672 0.303711 1.72559 0.386719c0.535156 0.0830078 1.07031 0.0830078 1.60547 0.112305c0.607422 0.0292969 1.21484 0.0830078 1.82812 0.0537109
c0.571289 -0.0292969 1.13086 -0.136719 1.70215 -0.219727s1.13672 -0.142578 1.70215 -0.279297c0.648438 -0.161133 1.2793 -0.411133 1.91016 -0.649414c0.410156 -0.154297 0.827148 -0.237305 1.23145 -0.421875
c0.0712891 -0.0292969 0.130859 -0.0830078 0.202148 -0.119141c0.529297 -0.25 1.03516 -0.594727 1.54688 -0.904297c0.529297 -0.321289 1.08887 -0.619141 1.57715 -0.988281c0.0595703 -0.0478516 0.130859 -0.0712891 0.19043 -0.119141
c0.333008 -0.261719 0.583008 -0.577148 0.892578 -0.850586c0.529297 -0.469727 1.06445 -0.927734 1.52246 -1.45117c0.369141 -0.410156 0.661133 -0.862305 0.982422 -1.30273c0.357422 -0.494141 0.738281 -0.963867 1.04199 -1.4873
c0.297852 -0.505859 0.517578 -1.04102 0.761719 -1.56445c0.238281 -0.517578 0.494141 -1.01758 0.678711 -1.55273s0.297852 -1.08301 0.43457 -1.63672c0.136719 -0.571289 0.297852 -1.125 0.380859 -1.70801
c0.0771484 -0.541992 0.0830078 -1.08398 0.112305 -1.63184c0.0292969 -0.600586 0.0830078 -1.19531 0.0537109 -1.80273c-0.0292969 -0.577148 -0.136719 -1.14258 -0.219727 -1.71387c-0.0830078 -0.56543 -0.136719 -1.13086 -0.279297 -1.69629
c-0.154297 -0.630859 -0.404297 -1.23828 -0.630859 -1.85742c-0.154297 -0.422852 -0.243164 -0.863281 -0.433594 -1.28027c-46.2822 -101.198 -94.1406 -205.837 -129.146 -315.658c-18.7344 -58.7852 -29.6904 -107.12 -34.4756 -152.122
c-5.03418 -47.3525 -0.802734 -82.4287 12.9619 -107.239c4.92188 -8.87891 10.7119 -15.1455 15.8779 -17.1807c12.2773 -4.85059 29.7979 11.8418 39.1289 22.2207c37.8965 42.1338 67.2471 97.3662 95.6396 150.783c29.1963 54.917 59.374 111.708 99.7578 156.948
c6.56445 7.35547 17.8477 7.99805 25.209 1.42773c7.35547 -6.56445 7.99805 -17.8535 1.42773 -25.209c-37.5156 -42.0205 -66.6699 -96.8721 -94.8604 -149.92c-29.3984 -55.3213 -59.8027 -112.523 -100.627 -157.906
c-20.9775 -23.3281 -41.3301 -35.0576 -60.7305 -35.0576c-6.11133 0 -12.1279 1.16016 -18.043 3.49316c-13.1162 5.17188 -24.876 16.6104 -34.0107 33.083c-17.4365 31.4512 -23.0723 73.4248 -17.2344 128.33c5.05273 47.46 16.4785 98.0439 35.9629 159.186
c15.5381 48.7393 33.5518 96.2412 52.7139 142.845c-90.0518 -136.875 -202.48 -313.527 -233.242 -361.957c-24.3994 -38.4141 -55.2324 -78.667 -98.9971 -85.9453c-3.80273 -0.630859 -7.34375 -0.910156 -10.6465 -0.910156
c-13.8838 0 -23.4473 4.96289 -29.3867 9.64648c-29.3389 23.1494 -19.9238 72.6328 -16.3408 87.249c8.93848 36.4561 23.5957 69.3242 37.8545 99.8594c19.585 41.9492 40.5146 83.7324 60.748 124.135c37.2832 74.4248 75.8223 151.379 106.846 231.332z" />
    <glyph glyph-name="U" unicode="&#xdc;" horiz-adv-x="530" 
d="M144.242 439.625c15.2051 39.1943 31.5361 86.0332 37.3389 136.32c3.91602 33.9746 0.553711 76.2627 -20.6377 93.0742c-18.8594 14.9551 -45.1152 1.26172 -55.542 -5.32031c-26.292 -16.6094 -48.7871 -43.7822 -63.3379 -76.5254
c-10.1885 -22.9355 -14.8184 -44.8242 -13.7529 -65.0576c1.14844 -21.7754 9.75391 -41.4619 21.9238 -50.1387c8.02832 -5.72461 9.89648 -16.8711 4.17188 -24.8994c-5.71289 -8.02246 -16.8711 -9.89746 -24.8994 -4.17285
c-21.0137 14.9785 -35.1357 44.6152 -36.8555 77.3408c-1.36328 25.9053 4.27832 53.3037 16.7812 81.4287c17.3828 39.1289 44.6982 71.8779 76.8994 92.2188c35.123 22.1738 71.2998 23.3281 96.7939 3.10059c39.9854 -31.7197 37.04 -98.0801 33.9219 -125.14
c-6.2666 -54.2979 -23.4951 -103.847 -39.5156 -145.147c-31.6299 -81.5303 -70.5625 -159.246 -108.215 -234.408c-20.127 -40.1816 -40.9443 -81.7324 -60.3154 -123.241c-13.5088 -28.9229 -27.375 -59.9463 -35.5342 -93.2549
c-5.68359 -23.1738 -4.09473 -44.5029 3.77246 -50.71c2.45801 -1.94043 6.51074 -2.46387 12.0635 -1.54102c30.0713 5.00488 55.7266 39.9678 74.7168 69.8662c46.9902 73.9844 284.017 446.31 343.177 522.733
c0.0117188 0.0117188 0.0234375 0.0292969 0.0351562 0.0410156c0.0947266 0.119141 0.202148 0.255859 0.291016 0.375c0.25 0.327148 0.553711 0.571289 0.821289 0.869141c0.476562 0.535156 0.94043 1.07715 1.46973 1.54688
c0.410156 0.369141 0.868164 0.661133 1.30859 0.988281c0.488281 0.351562 0.958008 0.726562 1.47559 1.03027c0.505859 0.291992 1.03516 0.511719 1.56445 0.755859c0.511719 0.238281 1.01758 0.494141 1.55273 0.68457
c0.529297 0.18457 1.07129 0.303711 1.61914 0.43457c0.571289 0.142578 1.13672 0.303711 1.72559 0.386719c0.535156 0.0830078 1.07031 0.0830078 1.60547 0.112305c0.607422 0.0292969 1.21484 0.0830078 1.82812 0.0537109
c0.571289 -0.0292969 1.13086 -0.136719 1.70215 -0.219727s1.13672 -0.142578 1.70215 -0.279297c0.648438 -0.161133 1.2793 -0.411133 1.91016 -0.649414c0.410156 -0.154297 0.827148 -0.237305 1.23145 -0.421875
c0.0712891 -0.0292969 0.130859 -0.0830078 0.202148 -0.119141c0.529297 -0.25 1.03516 -0.594727 1.54688 -0.904297c0.529297 -0.321289 1.08887 -0.619141 1.57715 -0.988281c0.0595703 -0.0478516 0.130859 -0.0712891 0.19043 -0.119141
c0.333008 -0.261719 0.583008 -0.577148 0.892578 -0.850586c0.529297 -0.469727 1.06445 -0.927734 1.52246 -1.45117c0.369141 -0.410156 0.661133 -0.862305 0.982422 -1.30273c0.357422 -0.494141 0.738281 -0.963867 1.04199 -1.4873
c0.297852 -0.505859 0.517578 -1.04102 0.761719 -1.56445c0.238281 -0.517578 0.494141 -1.01758 0.678711 -1.55273s0.297852 -1.08301 0.43457 -1.63672c0.136719 -0.571289 0.297852 -1.125 0.380859 -1.70801
c0.0771484 -0.541992 0.0830078 -1.08398 0.112305 -1.63184c0.0292969 -0.600586 0.0830078 -1.19531 0.0537109 -1.80273c-0.0292969 -0.577148 -0.136719 -1.14258 -0.219727 -1.71387c-0.0830078 -0.56543 -0.136719 -1.13086 -0.279297 -1.69629
c-0.154297 -0.630859 -0.404297 -1.23828 -0.630859 -1.85742c-0.154297 -0.422852 -0.243164 -0.863281 -0.433594 -1.28027c-46.2822 -101.198 -94.1406 -205.837 -129.146 -315.658c-18.7344 -58.7852 -29.6904 -107.12 -34.4756 -152.122
c-5.03418 -47.3525 -0.802734 -82.4287 12.9619 -107.239c4.92188 -8.87891 10.7119 -15.1455 15.8779 -17.1807c12.2773 -4.85059 29.7979 11.8418 39.1289 22.2207c37.8965 42.1338 67.2471 97.3662 95.6396 150.783c29.1963 54.917 59.374 111.708 99.7578 156.948
c6.56445 7.35547 17.8477 7.99805 25.209 1.42773c7.35547 -6.56445 7.99805 -17.8535 1.42773 -25.209c-37.5156 -42.0205 -66.6699 -96.8721 -94.8604 -149.92c-29.3984 -55.3213 -59.8027 -112.523 -100.627 -157.906
c-20.9775 -23.3281 -41.3301 -35.0576 -60.7305 -35.0576c-6.11133 0 -12.1279 1.16016 -18.043 3.49316c-13.1162 5.17188 -24.876 16.6104 -34.0107 33.083c-17.4365 31.4512 -23.0723 73.4248 -17.2344 128.33c5.05273 47.46 16.4785 98.0439 35.9629 159.186
c15.5381 48.7393 33.5518 96.2412 52.7139 142.845c-90.0518 -136.875 -202.48 -313.527 -233.242 -361.957c-24.3994 -38.4141 -55.2324 -78.667 -98.9971 -85.9453c-3.80273 -0.630859 -7.34375 -0.910156 -10.6465 -0.910156
c-13.8838 0 -23.4473 4.96289 -29.3867 9.64648c-29.3389 23.1494 -19.9238 72.6328 -16.3408 87.249c8.93848 36.4561 23.5957 69.3242 37.8545 99.8594c19.585 41.9492 40.5146 83.7324 60.748 124.135c37.2832 74.4248 75.8223 151.379 106.846 231.332z" />
    <glyph glyph-name="U" unicode="&#xdb;" horiz-adv-x="530" 
d="M144.242 439.625c15.2051 39.1943 31.5361 86.0332 37.3389 136.32c3.91602 33.9746 0.553711 76.2627 -20.6377 93.0742c-18.8594 14.9551 -45.1152 1.26172 -55.542 -5.32031c-26.292 -16.6094 -48.7871 -43.7822 -63.3379 -76.5254
c-10.1885 -22.9355 -14.8184 -44.8242 -13.7529 -65.0576c1.14844 -21.7754 9.75391 -41.4619 21.9238 -50.1387c8.02832 -5.72461 9.89648 -16.8711 4.17188 -24.8994c-5.71289 -8.02246 -16.8711 -9.89746 -24.8994 -4.17285
c-21.0137 14.9785 -35.1357 44.6152 -36.8555 77.3408c-1.36328 25.9053 4.27832 53.3037 16.7812 81.4287c17.3828 39.1289 44.6982 71.8779 76.8994 92.2188c35.123 22.1738 71.2998 23.3281 96.7939 3.10059c39.9854 -31.7197 37.04 -98.0801 33.9219 -125.14
c-6.2666 -54.2979 -23.4951 -103.847 -39.5156 -145.147c-31.6299 -81.5303 -70.5625 -159.246 -108.215 -234.408c-20.127 -40.1816 -40.9443 -81.7324 -60.3154 -123.241c-13.5088 -28.9229 -27.375 -59.9463 -35.5342 -93.2549
c-5.68359 -23.1738 -4.09473 -44.5029 3.77246 -50.71c2.45801 -1.94043 6.51074 -2.46387 12.0635 -1.54102c30.0713 5.00488 55.7266 39.9678 74.7168 69.8662c46.9902 73.9844 284.017 446.31 343.177 522.733
c0.0117188 0.0117188 0.0234375 0.0292969 0.0351562 0.0410156c0.0947266 0.119141 0.202148 0.255859 0.291016 0.375c0.25 0.327148 0.553711 0.571289 0.821289 0.869141c0.476562 0.535156 0.94043 1.07715 1.46973 1.54688
c0.410156 0.369141 0.868164 0.661133 1.30859 0.988281c0.488281 0.351562 0.958008 0.726562 1.47559 1.03027c0.505859 0.291992 1.03516 0.511719 1.56445 0.755859c0.511719 0.238281 1.01758 0.494141 1.55273 0.68457
c0.529297 0.18457 1.07129 0.303711 1.61914 0.43457c0.571289 0.142578 1.13672 0.303711 1.72559 0.386719c0.535156 0.0830078 1.07031 0.0830078 1.60547 0.112305c0.607422 0.0292969 1.21484 0.0830078 1.82812 0.0537109
c0.571289 -0.0292969 1.13086 -0.136719 1.70215 -0.219727s1.13672 -0.142578 1.70215 -0.279297c0.648438 -0.161133 1.2793 -0.411133 1.91016 -0.649414c0.410156 -0.154297 0.827148 -0.237305 1.23145 -0.421875
c0.0712891 -0.0292969 0.130859 -0.0830078 0.202148 -0.119141c0.529297 -0.25 1.03516 -0.594727 1.54688 -0.904297c0.529297 -0.321289 1.08887 -0.619141 1.57715 -0.988281c0.0595703 -0.0478516 0.130859 -0.0712891 0.19043 -0.119141
c0.333008 -0.261719 0.583008 -0.577148 0.892578 -0.850586c0.529297 -0.469727 1.06445 -0.927734 1.52246 -1.45117c0.369141 -0.410156 0.661133 -0.862305 0.982422 -1.30273c0.357422 -0.494141 0.738281 -0.963867 1.04199 -1.4873
c0.297852 -0.505859 0.517578 -1.04102 0.761719 -1.56445c0.238281 -0.517578 0.494141 -1.01758 0.678711 -1.55273s0.297852 -1.08301 0.43457 -1.63672c0.136719 -0.571289 0.297852 -1.125 0.380859 -1.70801
c0.0771484 -0.541992 0.0830078 -1.08398 0.112305 -1.63184c0.0292969 -0.600586 0.0830078 -1.19531 0.0537109 -1.80273c-0.0292969 -0.577148 -0.136719 -1.14258 -0.219727 -1.71387c-0.0830078 -0.56543 -0.136719 -1.13086 -0.279297 -1.69629
c-0.154297 -0.630859 -0.404297 -1.23828 -0.630859 -1.85742c-0.154297 -0.422852 -0.243164 -0.863281 -0.433594 -1.28027c-46.2822 -101.198 -94.1406 -205.837 -129.146 -315.658c-18.7344 -58.7852 -29.6904 -107.12 -34.4756 -152.122
c-5.03418 -47.3525 -0.802734 -82.4287 12.9619 -107.239c4.92188 -8.87891 10.7119 -15.1455 15.8779 -17.1807c12.2773 -4.85059 29.7979 11.8418 39.1289 22.2207c37.8965 42.1338 67.2471 97.3662 95.6396 150.783c29.1963 54.917 59.374 111.708 99.7578 156.948
c6.56445 7.35547 17.8477 7.99805 25.209 1.42773c7.35547 -6.56445 7.99805 -17.8535 1.42773 -25.209c-37.5156 -42.0205 -66.6699 -96.8721 -94.8604 -149.92c-29.3984 -55.3213 -59.8027 -112.523 -100.627 -157.906
c-20.9775 -23.3281 -41.3301 -35.0576 -60.7305 -35.0576c-6.11133 0 -12.1279 1.16016 -18.043 3.49316c-13.1162 5.17188 -24.876 16.6104 -34.0107 33.083c-17.4365 31.4512 -23.0723 73.4248 -17.2344 128.33c5.05273 47.46 16.4785 98.0439 35.9629 159.186
c15.5381 48.7393 33.5518 96.2412 52.7139 142.845c-90.0518 -136.875 -202.48 -313.527 -233.242 -361.957c-24.3994 -38.4141 -55.2324 -78.667 -98.9971 -85.9453c-3.80273 -0.630859 -7.34375 -0.910156 -10.6465 -0.910156
c-13.8838 0 -23.4473 4.96289 -29.3867 9.64648c-29.3389 23.1494 -19.9238 72.6328 -16.3408 87.249c8.93848 36.4561 23.5957 69.3242 37.8545 99.8594c19.585 41.9492 40.5146 83.7324 60.748 124.135c37.2832 74.4248 75.8223 151.379 106.846 231.332z" />
    <glyph glyph-name="U" unicode="&#xda;" horiz-adv-x="530" 
d="M144.242 439.625c15.2051 39.1943 31.5361 86.0332 37.3389 136.32c3.91602 33.9746 0.553711 76.2627 -20.6377 93.0742c-18.8594 14.9551 -45.1152 1.26172 -55.542 -5.32031c-26.292 -16.6094 -48.7871 -43.7822 -63.3379 -76.5254
c-10.1885 -22.9355 -14.8184 -44.8242 -13.7529 -65.0576c1.14844 -21.7754 9.75391 -41.4619 21.9238 -50.1387c8.02832 -5.72461 9.89648 -16.8711 4.17188 -24.8994c-5.71289 -8.02246 -16.8711 -9.89746 -24.8994 -4.17285
c-21.0137 14.9785 -35.1357 44.6152 -36.8555 77.3408c-1.36328 25.9053 4.27832 53.3037 16.7812 81.4287c17.3828 39.1289 44.6982 71.8779 76.8994 92.2188c35.123 22.1738 71.2998 23.3281 96.7939 3.10059c39.9854 -31.7197 37.04 -98.0801 33.9219 -125.14
c-6.2666 -54.2979 -23.4951 -103.847 -39.5156 -145.147c-31.6299 -81.5303 -70.5625 -159.246 -108.215 -234.408c-20.127 -40.1816 -40.9443 -81.7324 -60.3154 -123.241c-13.5088 -28.9229 -27.375 -59.9463 -35.5342 -93.2549
c-5.68359 -23.1738 -4.09473 -44.5029 3.77246 -50.71c2.45801 -1.94043 6.51074 -2.46387 12.0635 -1.54102c30.0713 5.00488 55.7266 39.9678 74.7168 69.8662c46.9902 73.9844 284.017 446.31 343.177 522.733
c0.0117188 0.0117188 0.0234375 0.0292969 0.0351562 0.0410156c0.0947266 0.119141 0.202148 0.255859 0.291016 0.375c0.25 0.327148 0.553711 0.571289 0.821289 0.869141c0.476562 0.535156 0.94043 1.07715 1.46973 1.54688
c0.410156 0.369141 0.868164 0.661133 1.30859 0.988281c0.488281 0.351562 0.958008 0.726562 1.47559 1.03027c0.505859 0.291992 1.03516 0.511719 1.56445 0.755859c0.511719 0.238281 1.01758 0.494141 1.55273 0.68457
c0.529297 0.18457 1.07129 0.303711 1.61914 0.43457c0.571289 0.142578 1.13672 0.303711 1.72559 0.386719c0.535156 0.0830078 1.07031 0.0830078 1.60547 0.112305c0.607422 0.0292969 1.21484 0.0830078 1.82812 0.0537109
c0.571289 -0.0292969 1.13086 -0.136719 1.70215 -0.219727s1.13672 -0.142578 1.70215 -0.279297c0.648438 -0.161133 1.2793 -0.411133 1.91016 -0.649414c0.410156 -0.154297 0.827148 -0.237305 1.23145 -0.421875
c0.0712891 -0.0292969 0.130859 -0.0830078 0.202148 -0.119141c0.529297 -0.25 1.03516 -0.594727 1.54688 -0.904297c0.529297 -0.321289 1.08887 -0.619141 1.57715 -0.988281c0.0595703 -0.0478516 0.130859 -0.0712891 0.19043 -0.119141
c0.333008 -0.261719 0.583008 -0.577148 0.892578 -0.850586c0.529297 -0.469727 1.06445 -0.927734 1.52246 -1.45117c0.369141 -0.410156 0.661133 -0.862305 0.982422 -1.30273c0.357422 -0.494141 0.738281 -0.963867 1.04199 -1.4873
c0.297852 -0.505859 0.517578 -1.04102 0.761719 -1.56445c0.238281 -0.517578 0.494141 -1.01758 0.678711 -1.55273s0.297852 -1.08301 0.43457 -1.63672c0.136719 -0.571289 0.297852 -1.125 0.380859 -1.70801
c0.0771484 -0.541992 0.0830078 -1.08398 0.112305 -1.63184c0.0292969 -0.600586 0.0830078 -1.19531 0.0537109 -1.80273c-0.0292969 -0.577148 -0.136719 -1.14258 -0.219727 -1.71387c-0.0830078 -0.56543 -0.136719 -1.13086 -0.279297 -1.69629
c-0.154297 -0.630859 -0.404297 -1.23828 -0.630859 -1.85742c-0.154297 -0.422852 -0.243164 -0.863281 -0.433594 -1.28027c-46.2822 -101.198 -94.1406 -205.837 -129.146 -315.658c-18.7344 -58.7852 -29.6904 -107.12 -34.4756 -152.122
c-5.03418 -47.3525 -0.802734 -82.4287 12.9619 -107.239c4.92188 -8.87891 10.7119 -15.1455 15.8779 -17.1807c12.2773 -4.85059 29.7979 11.8418 39.1289 22.2207c37.8965 42.1338 67.2471 97.3662 95.6396 150.783c29.1963 54.917 59.374 111.708 99.7578 156.948
c6.56445 7.35547 17.8477 7.99805 25.209 1.42773c7.35547 -6.56445 7.99805 -17.8535 1.42773 -25.209c-37.5156 -42.0205 -66.6699 -96.8721 -94.8604 -149.92c-29.3984 -55.3213 -59.8027 -112.523 -100.627 -157.906
c-20.9775 -23.3281 -41.3301 -35.0576 -60.7305 -35.0576c-6.11133 0 -12.1279 1.16016 -18.043 3.49316c-13.1162 5.17188 -24.876 16.6104 -34.0107 33.083c-17.4365 31.4512 -23.0723 73.4248 -17.2344 128.33c5.05273 47.46 16.4785 98.0439 35.9629 159.186
c15.5381 48.7393 33.5518 96.2412 52.7139 142.845c-90.0518 -136.875 -202.48 -313.527 -233.242 -361.957c-24.3994 -38.4141 -55.2324 -78.667 -98.9971 -85.9453c-3.80273 -0.630859 -7.34375 -0.910156 -10.6465 -0.910156
c-13.8838 0 -23.4473 4.96289 -29.3867 9.64648c-29.3389 23.1494 -19.9238 72.6328 -16.3408 87.249c8.93848 36.4561 23.5957 69.3242 37.8545 99.8594c19.585 41.9492 40.5146 83.7324 60.748 124.135c37.2832 74.4248 75.8223 151.379 106.846 231.332z" />
    <glyph glyph-name="V" unicode="V" horiz-adv-x="538" 
d="M0.214844 592.426c-7.79004 6.03418 -9.22852 17.252 -3.18848 25.0479c16.6807 21.5312 35.5811 45.9365 60.0107 61.1357c30.5234 18.9844 64.707 18.8301 89.208 -0.421875c31.7012 -24.8936 39.0684 -72.9902 41.8594 -107.001
c11.1465 -136.161 -17.7939 -270.15 -45.7881 -399.729c-17.96 -83.1367 -36.5273 -169.101 -44.2461 -254.612c-3.06445 -33.874 1.28027 -57.542 11.9033 -64.9395c9.68262 -6.74902 26.001 4.69531 30.7793 8.35547c24.417 18.7285 43.3955 47.6514 58.7373 73.4668
c40.1875 67.6162 70.8955 141.606 95.6406 205.069c16.2168 41.5928 31.7432 83.7861 46.5195 126.443c-28.5596 41.0332 -48.1025 91.832 -53.9648 145.166c-4.36816 39.7529 -2.34473 82.4639 6.37402 134.417c16.4727 98.1279 48.8584 169.256 96.2832 211.401
c20.8291 18.5137 40.6943 24.667 59.0654 18.2871c17.9844 -6.25488 31.8623 -24.584 37.1172 -49.043c4.02246 -18.6982 2.6416 -37.9023 0.546875 -55.875c-6.36133 -54.6367 -19.4834 -108.161 -32.7188 -157.871c-21.5908 -81.084 -45.9668 -161.525 -72.8721 -240.455
c18.8057 -23.1621 41.0986 -41.5566 65.498 -53.001c15.5439 -7.28418 54.7383 -21.4893 83.1787 3.82715c7.36133 6.55176 18.6445 5.90332 25.209 -1.46387c6.55859 -7.36133 5.89844 -18.6445 -1.46289 -25.2031c-30.7549 -27.3633 -76.3818 -30.9102 -122.08 -9.48047
c-23.168 10.8672 -44.6875 26.917 -63.7012 46.8232c-12.7295 -36.0225 -25.9766 -71.6992 -39.7236 -106.941c-25.2686 -64.8135 -56.7021 -140.494 -98.2109 -210.342c-17.0801 -28.7441 -38.4805 -61.1416 -67.7002 -83.5596
c-15.4727 -11.8721 -31.124 -17.9004 -45.5137 -17.9004c-9.87891 0 -19.1631 2.83887 -27.4053 8.57617c-22.3818 15.5859 -31.4873 48.3701 -27.0596 97.4492c7.9209 87.6953 26.7266 174.748 44.9131 258.938c28.7021 132.882 55.8154 258.391 45.0977 389.279
c-3.45801 42.2588 -12.9912 69.7949 -28.3213 81.834c-14.7822 11.6104 -34.6406 6.67676 -48.292 -1.81543c-18.9961 -11.8125 -35.0879 -32.5879 -50.6445 -52.6787c-6.0459 -7.7959 -17.2461 -9.21777 -25.0479 -3.18359zM323.189 414.304
c4.16016 -37.8672 15.9375 -74.1797 33.2197 -105.602c23.209 69.8301 44.4189 140.762 63.4385 212.217c12.8896 48.4121 25.6611 100.431 31.7666 152.812c2.00586 17.2461 2.77344 31.374 0.0117188 44.2461c-2.74316 12.7529 -9.08691 21.126 -13.9307 22.8105
c-0.761719 0.261719 -1.60059 0.392578 -2.5166 0.392578c-5.12988 0 -12.6221 -4.09473 -21.1084 -11.6406c-40.5986 -36.082 -69.9199 -101.996 -84.7861 -190.626c-8.15918 -48.6143 -10.0938 -88.2129 -6.09473 -124.61z" />
    <glyph glyph-name="W" unicode="W" horiz-adv-x="698" 
d="M14.2451 470.922c-8.91504 -4.20703 -19.5654 -0.395508 -23.749 8.51953c-9.89648 20.9541 -8.46777 48.6211 4.10645 80.0195c16.3359 40.7832 41.2178 75.5498 71.9609 100.545c33.207 26.9941 68.2354 32.124 93.6641 13.7295
c20.4717 -14.7949 32.832 -42.9678 36.7422 -83.7207c3.89844 -40.6279 1.20215 -84.1777 -8.75977 -141.207c-14.8066 -84.791 -39.2773 -167.125 -62.957 -246.745c-22.7451 -76.4951 -46.2578 -155.598 -60.8086 -235.949
c-2.83887 -15.6689 -5.43945 -32.2246 -3.3623 -47.2275c1.95801 -14.2168 8.56348 -24.2383 13.7881 -26.4521c6.97461 -2.97559 18.6387 5.11816 23.3105 8.73633c21.9062 16.9844 40.1758 43.0918 56.666 68.7705c7.92676 12.3486 15.6631 24.9053 23.2207 37.6699
c-13.0801 108.465 20.4307 225.404 86.833 297.656c4.17773 4.55273 19.1924 19.2344 37.2773 16.9912c9.30176 -1.1543 17.0029 -6.5459 21.6807 -15.1924c6.32031 -11.6641 4.13672 -25.0303 3.08887 -31.457c-10.1465 -62.0518 -33.332 -118.094 -52.3936 -159.983
c-18.0439 -39.6699 -37.9443 -78.2988 -59.416 -115.392c0.553711 -3.54688 1.16699 -7.08203 1.83398 -10.6055c6.24902 -32.9688 16.3184 -58.3916 29.9229 -75.5605c14.3359 -18.0977 33.54 -26.5479 48.9062 -21.5547c16.6152 5.40332 30.9756 25.2979 41.6338 42.0322
c63.5518 99.7822 93.998 227.332 123.433 350.681c26.8809 112.637 54.6787 229.105 107.739 328.001c5.70703 10.6289 15.1162 12.6221 22.043 10.9375c14.8535 -3.61816 15.7285 -19.5254 16.3594 -31.1416c0.517578 -9.47461 0.708008 -22.2812 0.946289 -38.4863
c1.39258 -93.5156 4.65332 -312.498 95.7168 -334.862c9.56934 -2.35059 15.4316 -12.0156 13.0752 -21.5908s-12.0029 -15.4375 -21.5957 -13.0811c-112.41 27.6016 -120.7 237.914 -122.646 353.044c-34.04 -81.4883 -55.7617 -172.511 -76.9121 -261.104
c-30.124 -126.223 -61.2725 -256.736 -128.05 -361.577c-14.7168 -23.1143 -33.4453 -47.9424 -60.707 -56.8096c-6.49902 -2.1123 -13.2178 -3.13574 -20.0137 -3.13574c-24.2744 0 -49.4004 13.0986 -67.9199 36.4688c-13.1934 16.6455 -23.3281 37.7129 -30.7012 63.9336
c-1.09473 -1.72559 -2.19531 -3.45117 -3.30176 -5.1709c-18.21 -28.3633 -38.6699 -57.4102 -64.8428 -77.7031c-26.5186 -20.5547 -46.7939 -18.6201 -59.1367 -13.3887c-21.6973 9.20605 -32.415 34.1592 -35.2119 54.4463
c-2.79688 20.2041 0.244141 39.9678 3.59473 58.4697c14.9014 82.2861 38.7061 162.341 61.7188 239.765c23.3818 78.6436 47.5557 159.966 62.0107 242.716c9.37891 53.7441 11.9736 94.3486 8.38477 131.65c-2.80859 29.25 -10.6641 49.918 -22.1201 58.2021
c-17.1152 12.3662 -42.7646 -6.43945 -50.2158 -12.5039c-26.0479 -21.1738 -47.2578 -50.9473 -61.3379 -86.1123c-8.6709 -21.6318 -10.4326 -39.9258 -4.96973 -51.501c4.20703 -8.91504 0.392578 -19.5557 -8.52832 -23.7686zM291.182 281.097
c-48.6445 -52.9355 -77.5586 -133.002 -80.0996 -214.146c10.8428 20.7754 21.1738 41.9492 30.957 63.4443c18.1445 39.8721 40.1816 93.0693 49.6494 150.956c0.0175781 0.113281 0.0410156 0.226562 0.0585938 0.339844
c-0.19043 -0.196289 -0.380859 -0.392578 -0.56543 -0.594727z" />
    <glyph glyph-name="X" unicode="X" horiz-adv-x="517" 
d="M-32.8857 -28.709c-32.0166 7.88477 -55.0557 43.6064 -50.3184 77.9805c1.35059 9.76562 10.4082 16.5918 20.126 15.2412c9.77148 -1.35059 16.5977 -10.3604 15.2471 -20.126c-2.45801 -17.7881 10.5986 -35.2666 23.4707 -38.4385
c12.8662 -3.17188 28.6904 2.33301 47.0195 16.3594c26.2207 20.0674 48.1504 48.6084 66.1348 73.8887c28.5 40.0391 55.0303 83.583 80.5967 127.139c7.99219 105.197 15.0205 213.377 -1.38086 316.926c-6.33203 39.9561 -18.1807 65.5156 -33.374 71.9668
c-12.7529 5.42188 -29.0469 -3.90918 -37.6162 -9.95508c-23.3457 -16.4668 -42.8057 -42.4199 -54.7969 -73.0742c-3.58887 -9.17676 -13.9375 -13.7178 -23.1318 -10.123c-9.18262 3.59473 -13.7178 13.9492 -10.123 23.1318
c14.5146 37.0996 38.4736 68.7949 67.4678 89.249c25.6377 18.0918 50.585 22.8105 72.1641 13.6455c28.0947 -11.9316 45.9834 -44.3945 54.6777 -99.2402c13.2236 -83.4404 11.8545 -168.571 6.78418 -252.625c47.9717 82.292 98.5742 165.144 162.274 231.355
c46.377 48.2041 87.582 72.2529 129.674 75.6924c9.91406 0.80957 18.4424 -6.5166 19.2461 -16.3418s-6.5166 -18.4424 -16.3418 -19.2461c-32.457 -2.64844 -67.4082 -23.8643 -106.847 -64.8555c-67.9199 -70.5918 -121.504 -163.013 -173.32 -252.393
c-6.73047 -11.6045 -13.5264 -23.3047 -20.3701 -35.0107c-0.226562 -2.91016 -0.446289 -5.83203 -0.666016 -8.73633c-4.61816 -60.3916 -9.39648 -122.837 -9.91406 -183.794c-0.44043 -51.4834 2.13086 -117.392 26.1074 -170.553
c7.73047 -17.1328 15.9307 -25.1426 20.626 -25.4814c3.4043 -0.244141 10.04 2.79688 22.5732 18.7217c33.6777 42.7646 62.0225 94.5332 89.4277 144.6c40.9141 74.7402 83.2207 152.027 145.279 203.85c7.58203 6.32617 18.8301 5.30859 25.1504 -2.25488
c6.31445 -7.56934 5.30273 -18.8291 -2.26074 -25.1494c-56.8691 -47.4902 -95.7119 -118.457 -136.846 -193.59c-28.1074 -51.3525 -57.1729 -104.442 -92.6953 -149.546c-7.73633 -9.83105 -25.4707 -32.3564 -50.2334 -32.3564
c-0.982422 0 -1.9707 0.0361328 -2.9707 0.107422c-20.3467 1.47559 -37.3672 17.0908 -50.5908 46.418c-26.8398 59.4932 -29.7383 130.406 -29.2686 185.537c0.357422 41.3242 2.61914 83.0352 5.45801 124.276c-14.6875 -23.5723 -29.8213 -46.752 -45.6455 -68.9854
c-19.5312 -27.4463 -43.5381 -58.5947 -73.5254 -81.542c-21.3887 -16.3652 -41.9434 -24.5957 -61.3203 -24.5957c-5.40918 0 -10.7295 0.642578 -15.9482 1.92773z" />
    <glyph glyph-name="Y" unicode="Y" horiz-adv-x="499" 
d="M-88.3359 -239.366c-9.46191 3.61816 -23.3037 9.86621 -34.2061 22.3037c-26.7266 30.4697 -22.9121 80.7979 -5.74902 112.684c17.9727 33.3916 48.0439 52.0547 72.2295 64.5762c68.8008 35.623 142.493 51.6553 213.77 67.1582
c21.8945 4.76074 44.4785 9.66992 66.5391 15.085c3.99902 9.89648 7.75977 19.5791 11.3184 28.9287c47.8584 125.795 82.833 259.844 104.388 399.79c-18.9961 -39.5332 -38.5098 -78.6562 -58.3984 -117.047c-45.6094 -88.0469 -97.0088 -179.135 -163.738 -248.882
c-9.99219 -10.4443 -21.918 -22.168 -36.9863 -29.0889c-18.8828 -8.6709 -39.1816 -7.24902 -54.2979 3.79004c-18.6689 13.6396 -28.8633 41.5029 -27.2568 74.5312c1.36914 28.3633 9.75391 54.3164 18.5977 78.1328c14.8896 40.0811 32.874 78.8467 50.2754 116.327
c29.8809 64.3965 58.1133 125.229 73.0508 193.958c3.82617 17.6035 7.33105 38.2178 4.30176 57.6719c-2.60059 16.6748 -10.7598 30.8389 -19.8232 34.4395c-5.42188 2.1543 -12.8369 1.19043 -22.6797 -2.92773c-36.248 -15.1689 -66.4561 -55.6123 -76.9541 -103.043
c-2.125 -9.62305 -11.6348 -15.6992 -21.2871 -13.5742c-9.62305 2.13086 -15.6992 11.6641 -13.5684 21.293c13.1221 59.3145 50.6855 108.459 98.0322 128.271c18.9004 7.89746 35.123 8.93848 49.6436 3.17188c25.3281 -10.0635 38.2598 -38.6885 41.9141 -62.124
c3.95703 -25.3994 -0.422852 -51.1562 -4.68359 -70.7529c-15.7764 -72.5977 -46.1689 -138.084 -75.5557 -201.41c-17.1035 -36.8555 -34.7959 -74.96 -49.1914 -113.731c-7.85547 -21.1328 -15.2764 -43.9199 -16.4131 -67.4268
c-0.952148 -19.7461 4.25488 -37.8311 12.6641 -43.9785c6.5166 -4.75488 14.9912 -1.70215 18.3418 -0.166992c9.34961 4.29102 18.3594 13.2529 26.0723 21.3164c63.6113 66.498 113.452 154.949 157.829 240.627c36.9561 71.3359 72.6152 145.207 105.971 219.561
c3.58887 7.98633 12.4502 12.1934 20.8945 9.9375c8.46289 -2.26172 14.0332 -10.3193 13.1641 -19.0322c-18.4844 -184.246 -59.1719 -359.982 -120.938 -522.329c-0.594727 -1.56543 -1.18945 -3.13672 -1.79688 -4.71387c72.127 21.4062 153.502 57.4102 212.4 132.245
c6.09961 7.74805 17.3232 9.08105 25.0713 2.9873s9.08105 -17.3174 2.9873 -25.0654c-72.5381 -92.1592 -173.874 -130.038 -257.195 -151.891c-26.4404 -62.7246 -62.2002 -131.733 -113.207 -183.96c-49.6973 -50.8936 -109.673 -78.3643 -166.452 -78.3643
c-20.3047 0 -40.1992 3.51074 -59.0762 10.7236zM-96.8574 -121.304c-12.8184 -23.8223 -12.2891 -56.8916 1.14844 -72.21c4.38574 -4.99902 10.5869 -8.84961 20.127 -12.4912c58.124 -22.2158 129.864 0.481445 187.227 59.2305
c40.7236 41.6934 71.3779 95.9795 95.1641 148.415c-13.9492 -3.17773 -27.8691 -6.20703 -41.5205 -9.17676c-69.0029 -15.0088 -140.351 -30.5293 -204.944 -63.9746c-20.8467 -10.7949 -43.9365 -25.1553 -57.2012 -49.793z" />
    <glyph glyph-name="Y" unicode="&#x178;" horiz-adv-x="499" 
d="M-88.3359 -239.366c-9.46191 3.61816 -23.3037 9.86621 -34.2061 22.3037c-26.7266 30.4697 -22.9121 80.7979 -5.74902 112.684c17.9727 33.3916 48.0439 52.0547 72.2295 64.5762c68.8008 35.623 142.493 51.6553 213.77 67.1582
c21.8945 4.76074 44.4785 9.66992 66.5391 15.085c3.99902 9.89648 7.75977 19.5791 11.3184 28.9287c47.8584 125.795 82.833 259.844 104.388 399.79c-18.9961 -39.5332 -38.5098 -78.6562 -58.3984 -117.047c-45.6094 -88.0469 -97.0088 -179.135 -163.738 -248.882
c-9.99219 -10.4443 -21.918 -22.168 -36.9863 -29.0889c-18.8828 -8.6709 -39.1816 -7.24902 -54.2979 3.79004c-18.6689 13.6396 -28.8633 41.5029 -27.2568 74.5312c1.36914 28.3633 9.75391 54.3164 18.5977 78.1328c14.8896 40.0811 32.874 78.8467 50.2754 116.327
c29.8809 64.3965 58.1133 125.229 73.0508 193.958c3.82617 17.6035 7.33105 38.2178 4.30176 57.6719c-2.60059 16.6748 -10.7598 30.8389 -19.8232 34.4395c-5.42188 2.1543 -12.8369 1.19043 -22.6797 -2.92773c-36.248 -15.1689 -66.4561 -55.6123 -76.9541 -103.043
c-2.125 -9.62305 -11.6348 -15.6992 -21.2871 -13.5742c-9.62305 2.13086 -15.6992 11.6641 -13.5684 21.293c13.1221 59.3145 50.6855 108.459 98.0322 128.271c18.9004 7.89746 35.123 8.93848 49.6436 3.17188c25.3281 -10.0635 38.2598 -38.6885 41.9141 -62.124
c3.95703 -25.3994 -0.422852 -51.1562 -4.68359 -70.7529c-15.7764 -72.5977 -46.1689 -138.084 -75.5557 -201.41c-17.1035 -36.8555 -34.7959 -74.96 -49.1914 -113.731c-7.85547 -21.1328 -15.2764 -43.9199 -16.4131 -67.4268
c-0.952148 -19.7461 4.25488 -37.8311 12.6641 -43.9785c6.5166 -4.75488 14.9912 -1.70215 18.3418 -0.166992c9.34961 4.29102 18.3594 13.2529 26.0723 21.3164c63.6113 66.498 113.452 154.949 157.829 240.627c36.9561 71.3359 72.6152 145.207 105.971 219.561
c3.58887 7.98633 12.4502 12.1934 20.8945 9.9375c8.46289 -2.26172 14.0332 -10.3193 13.1641 -19.0322c-18.4844 -184.246 -59.1719 -359.982 -120.938 -522.329c-0.594727 -1.56543 -1.18945 -3.13672 -1.79688 -4.71387c72.127 21.4062 153.502 57.4102 212.4 132.245
c6.09961 7.74805 17.3232 9.08105 25.0713 2.9873s9.08105 -17.3174 2.9873 -25.0654c-72.5381 -92.1592 -173.874 -130.038 -257.195 -151.891c-26.4404 -62.7246 -62.2002 -131.733 -113.207 -183.96c-49.6973 -50.8936 -109.673 -78.3643 -166.452 -78.3643
c-20.3047 0 -40.1992 3.51074 -59.0762 10.7236zM-96.8574 -121.304c-12.8184 -23.8223 -12.2891 -56.8916 1.14844 -72.21c4.38574 -4.99902 10.5869 -8.84961 20.127 -12.4912c58.124 -22.2158 129.864 0.481445 187.227 59.2305
c40.7236 41.6934 71.3779 95.9795 95.1641 148.415c-13.9492 -3.17773 -27.8691 -6.20703 -41.5205 -9.17676c-69.0029 -15.0088 -140.351 -30.5293 -204.944 -63.9746c-20.8467 -10.7949 -43.9365 -25.1553 -57.2012 -49.793z" />
    <glyph glyph-name="Y" unicode="&#xdd;" horiz-adv-x="499" 
d="M-88.3359 -239.366c-9.46191 3.61816 -23.3037 9.86621 -34.2061 22.3037c-26.7266 30.4697 -22.9121 80.7979 -5.74902 112.684c17.9727 33.3916 48.0439 52.0547 72.2295 64.5762c68.8008 35.623 142.493 51.6553 213.77 67.1582
c21.8945 4.76074 44.4785 9.66992 66.5391 15.085c3.99902 9.89648 7.75977 19.5791 11.3184 28.9287c47.8584 125.795 82.833 259.844 104.388 399.79c-18.9961 -39.5332 -38.5098 -78.6562 -58.3984 -117.047c-45.6094 -88.0469 -97.0088 -179.135 -163.738 -248.882
c-9.99219 -10.4443 -21.918 -22.168 -36.9863 -29.0889c-18.8828 -8.6709 -39.1816 -7.24902 -54.2979 3.79004c-18.6689 13.6396 -28.8633 41.5029 -27.2568 74.5312c1.36914 28.3633 9.75391 54.3164 18.5977 78.1328c14.8896 40.0811 32.874 78.8467 50.2754 116.327
c29.8809 64.3965 58.1133 125.229 73.0508 193.958c3.82617 17.6035 7.33105 38.2178 4.30176 57.6719c-2.60059 16.6748 -10.7598 30.8389 -19.8232 34.4395c-5.42188 2.1543 -12.8369 1.19043 -22.6797 -2.92773c-36.248 -15.1689 -66.4561 -55.6123 -76.9541 -103.043
c-2.125 -9.62305 -11.6348 -15.6992 -21.2871 -13.5742c-9.62305 2.13086 -15.6992 11.6641 -13.5684 21.293c13.1221 59.3145 50.6855 108.459 98.0322 128.271c18.9004 7.89746 35.123 8.93848 49.6436 3.17188c25.3281 -10.0635 38.2598 -38.6885 41.9141 -62.124
c3.95703 -25.3994 -0.422852 -51.1562 -4.68359 -70.7529c-15.7764 -72.5977 -46.1689 -138.084 -75.5557 -201.41c-17.1035 -36.8555 -34.7959 -74.96 -49.1914 -113.731c-7.85547 -21.1328 -15.2764 -43.9199 -16.4131 -67.4268
c-0.952148 -19.7461 4.25488 -37.8311 12.6641 -43.9785c6.5166 -4.75488 14.9912 -1.70215 18.3418 -0.166992c9.34961 4.29102 18.3594 13.2529 26.0723 21.3164c63.6113 66.498 113.452 154.949 157.829 240.627c36.9561 71.3359 72.6152 145.207 105.971 219.561
c3.58887 7.98633 12.4502 12.1934 20.8945 9.9375c8.46289 -2.26172 14.0332 -10.3193 13.1641 -19.0322c-18.4844 -184.246 -59.1719 -359.982 -120.938 -522.329c-0.594727 -1.56543 -1.18945 -3.13672 -1.79688 -4.71387c72.127 21.4062 153.502 57.4102 212.4 132.245
c6.09961 7.74805 17.3232 9.08105 25.0713 2.9873s9.08105 -17.3174 2.9873 -25.0654c-72.5381 -92.1592 -173.874 -130.038 -257.195 -151.891c-26.4404 -62.7246 -62.2002 -131.733 -113.207 -183.96c-49.6973 -50.8936 -109.673 -78.3643 -166.452 -78.3643
c-20.3047 0 -40.1992 3.51074 -59.0762 10.7236zM-96.8574 -121.304c-12.8184 -23.8223 -12.2891 -56.8916 1.14844 -72.21c4.38574 -4.99902 10.5869 -8.84961 20.127 -12.4912c58.124 -22.2158 129.864 0.481445 187.227 59.2305
c40.7236 41.6934 71.3779 95.9795 95.1641 148.415c-13.9492 -3.17773 -27.8691 -6.20703 -41.5205 -9.17676c-69.0029 -15.0088 -140.351 -30.5293 -204.944 -63.9746c-20.8467 -10.7949 -43.9365 -25.1553 -57.2012 -49.793z" />
    <glyph glyph-name="Z" unicode="Z" horiz-adv-x="536" 
d="M-142.108 -185.753c-36.1533 5.62988 -60.4043 23.2139 -70.1406 50.8447c-13.0449 37.0811 5.7959 77.0244 28.8203 98.4482c33.7959 31.4453 77.0957 36.6885 111.035 37.7363c26.667 0.821289 53.376 -0.56543 79.21 -1.91016
c19.8887 -1.0293 40.4502 -2.10059 60.4463 -2.10645h0.196289c29.2256 0 58.3447 2.25586 87.2314 6.69531c4.46973 5.45117 8.93945 11.0508 13.4209 16.8057c56.4824 72.5742 103.514 156.372 138.31 245.698c-25.6494 -5.1416 -51.1025 -11.9434 -76.2695 -20.459
c-1.89258 -0.642578 -3.83301 -0.946289 -5.72559 -0.946289c-7.44531 0 -14.3906 4.69531 -16.9141 12.1338c-3.16016 9.34277 1.85059 19.4775 11.1875 22.6377c33.5225 11.3428 67.6162 19.8115 101.983 25.4951c4.55273 13.2471 8.87305 26.5898 12.8779 40.0215
c21.8945 73.4424 31.8271 137.982 30.3633 197.291c-0.875 35.6055 -7.36133 83.4229 -33.2959 109.007c-15.6514 15.4492 -38.0869 21.127 -61.5225 15.5684c-20.2812 -4.80859 -41.4375 -17.2285 -66.5928 -39.0869
c-62.3613 -54.1963 -112.439 -132.941 -141.011 -221.726c-11.8486 -36.8311 -13.6045 -63.1406 -5.52246 -82.7793c3.75488 -9.11719 -0.601562 -19.5557 -9.71875 -23.3047c-9.08691 -3.74316 -19.5488 0.594727 -23.3037 9.71777
c-15.0742 36.6348 -4.61816 78.7861 4.55859 107.304c30.5293 94.9023 84.3633 179.331 151.581 237.741c29.6719 25.792 55.6602 40.6875 81.7734 46.8828c35.1533 8.33203 70.6104 -0.975586 94.8496 -24.8936c34.4092 -33.957 42.8721 -91.3613 43.9072 -133.543
c1.55371 -63.1172 -8.86035 -131.275 -31.8379 -208.372c-2.45215 -8.24805 -5.04102 -16.4482 -7.70117 -24.6309c23.7207 2.41016 47.5137 3.59473 71.2939 3.29102c9.86133 -0.130859 17.7529 -8.22461 17.6279 -18.0859
c-0.125 -9.77734 -8.09375 -17.6211 -17.8477 -17.6211h-0.231445c-28.0479 0.357422 -56 -1.38672 -83.7734 -4.9873c-34.2549 -93.3369 -81.4707 -181.401 -138.69 -258.284c113.16 28.3447 220.565 90.3965 311.694 181.508c6.97461 6.97461 18.2695 6.97461 25.2441 0
s6.97461 -18.2812 0 -25.25c-107.328 -107.311 -236.473 -176.325 -371.783 -200.184c-41.8008 -49.3164 -83.6016 -86.457 -127.11 -113.005c-50.2334 -30.6602 -102.335 -46.4131 -152.592 -46.4131c-12.1348 0 -24.1562 0.910156 -36.0283 2.76074zM-159.093 -62.5908
c-14.8779 -13.8359 -26.752 -39.7295 -19.4678 -60.4629c5.15918 -14.6572 19.2695 -23.8877 41.9434 -27.417c52.5664 -8.18848 109.465 5.24316 164.524 38.8428c30.958 18.8887 61.166 43.7998 91.3564 75.4121c-17.2881 -1.48145 -34.5703 -2.23145 -52.001 -2.21973
c-20.9238 0.00585938 -41.9551 1.10059 -62.29 2.1543c-19.9834 1.04102 -40.5146 2.10645 -60.748 2.10645c-5.18945 0 -10.3613 -0.0712891 -15.4971 -0.225586c-29.4219 -0.910156 -62.8672 -4.96875 -87.8203 -28.1904z" />
    <glyph glyph-name="bracketleft" unicode="[" horiz-adv-x="507" 
d="M449.272 674.781c8.24219 -5.41504 10.5303 -16.4844 5.1084 -24.7207c-5.40918 -8.23633 -16.4844 -10.5332 -24.7207 -5.11133c-21.1328 13.8955 -48.1445 10.6875 -67.2236 -7.98145c-12.8008 -12.5215 -22.334 -31.2021 -30.9932 -49.2637
c-24.334 -50.7627 -45.6982 -105.001 -66.3604 -157.448c-56.583 -143.624 -115.095 -292.146 -153.497 -447.493c-10.6045 -42.9014 -23.0957 -99.5498 -25.5713 -157.3c-1.64844 -38.7002 3.32715 -65.8496 15.2295 -83.0127
c12.4375 -17.96 31.5166 -22.6201 41.7822 -23.7988c17.6328 -2.0293 36.7949 1.93457 55.3271 5.7666c9.6709 2 19.1035 -4.21289 21.0967 -13.8652c2 -9.6582 -4.20703 -19.1025 -13.8652 -21.1025c-16.1934 -3.35059 -34.1006 -7.05859 -52.5371 -7.05859
c-4.67188 0 -9.37891 0.238281 -14.0977 0.780273c-28.0771 3.23145 -51.8936 17.0557 -67.0566 38.9316c-16.7285 24.1318 -23.5781 57.458 -21.5488 104.883c2.6123 60.915 15.5742 119.825 26.584 164.34c38.9736 157.656 97.9258 307.297 154.938 452.01
c20.8887 53.0361 42.4912 107.876 67.3848 159.8c10.0459 20.9355 21.2578 42.7646 38.2188 59.3506c30.874 30.2139 76.8701 35.2725 111.803 12.2949z" />
    <glyph glyph-name="backslash" unicode="\" horiz-adv-x="220" 
d="M169.885 -221.396c2.14844 -9.62305 -3.91113 -19.167 -13.5342 -21.3154c-1.30371 -0.297852 -2.61914 -0.43457 -3.91016 -0.43457c-8.17676 0 -15.5439 5.65332 -17.4062 13.9609c-60.7373 271.68 -89.1836 552.482 -84.5479 834.606
c0.166992 9.85547 8.50488 17.6934 18.1455 17.5566c9.86133 -0.166992 17.7168 -8.28418 17.5625 -18.1455c-4.58789 -279.31 23.5664 -557.292 83.6904 -826.229z" />
    <glyph glyph-name="bracketright" unicode="]" horiz-adv-x="480" 
d="M429.68 584.152c1.55371 -37.6113 -2.70605 -75.3652 -7.53809 -110.566c-22.7217 -165.477 -64.2783 -325.71 -123.533 -476.249c-30.2969 -76.9482 -57.916 -131.841 -89.5342 -177.979c-14.3604 -20.9297 -34.2432 -47.1143 -60.874 -63.9023
c-17.2344 -10.8604 -35.4385 -16.3711 -52.9404 -16.3711c-12.3311 0 -24.3223 2.7373 -35.3799 8.25977c-8.8252 4.4043 -12.4014 15.1279 -7.99707 23.9473c4.3916 8.8252 15.1396 12.3955 23.9414 7.99805c15.3359 -7.65332 34.7725 -5.33203 53.334 6.37402
c16.4609 10.3789 32.0234 27 50.46 53.8867c30.041 43.8242 56.4873 96.5215 85.7607 170.869c58.2139 147.896 99.0508 305.369 121.386 468.03c4.60645 33.5586 8.6709 69.4141 7.23633 104.234c-0.93457 22.5664 -4.83301 37.4736 -11.915 45.585
c-8.81348 10.0928 -22.2568 7.05176 -26.1484 5.87305c-12.3125 -3.70117 -24.6787 -13.4316 -36.6406 -22.8467c-7.75391 -6.09961 -18.9775 -4.76074 -25.0713 2.9873s-4.76074 18.9775 2.9873 25.0713c13.8955 10.9385 29.6484 23.3291 48.4424 28.9824
c23.876 7.17676 48.1328 0.821289 63.332 -16.5801c16.8477 -19.2812 19.877 -47.8164 20.6924 -67.6035z" />
    <glyph glyph-name="asciicircum" unicode="^" horiz-adv-x="306" 
d="M241.277 549.725c8.77832 -4.98145 18.2412 -16.6074 13.5156 -43.6914c-10.7656 -61.6123 -24.5664 -123.052 -41.0332 -182.628c-2.19043 -7.90918 -9.37305 -13.0986 -17.1992 -13.0986c-1.57129 0 -3.17188 0.208008 -4.7666 0.648438
c-9.49805 2.62402 -15.0742 12.4609 -12.4502 21.9648c15.7881 57.1191 29.083 116.005 39.5391 175.081c-35.8135 -30.4756 -64.9502 -71.7461 -95.6582 -115.23c-13.2832 -18.8174 -27.0244 -38.2715 -41.2715 -56.625
c-6.0459 -7.79004 -17.2578 -9.2002 -25.0479 -3.1543s-9.2002 17.2578 -3.1543 25.0479c13.7529 17.7168 27.25 36.8379 40.3066 55.3281c33.5586 47.5312 68.2598 96.6699 113.024 131.002c12.3252 9.4502 23.8223 11.2471 34.1953 5.35547z" />
    <glyph glyph-name="underscore" unicode="_" horiz-adv-x="397" 
d="M328.099 -72.3447c9.74219 0.333008 18.1162 -7.38672 18.4492 -17.2354c0.338867 -9.85547 -7.37988 -18.1152 -17.2354 -18.4482c-86.1367 -2.92773 -173.16 -11.3008 -258.653 -24.8867c-0.952148 -0.154297 -1.89258 -0.225586 -2.82715 -0.225586
c-8.62305 0 -16.2109 6.2666 -17.6094 15.0566c-1.54688 9.74219 5.09473 18.8887 14.8311 20.4355c86.9395 13.8125 175.438 22.3281 263.045 25.3037z" />
    <glyph glyph-name="grave" unicode="`" horiz-adv-x="151" 
d="M87.8184 575.654c9.54004 -2.49316 15.2588 -12.2432 12.7656 -21.7949c-9.72363 -37.2598 -18.0791 -73.6328 -13.6279 -108.881c1.29688 -10.2715 3.31445 -13.1396 3.90918 -13.7705c6.71875 -7.21875 6.31445 -18.5137 -0.904297 -25.2324
c-3.43945 -3.20215 -7.80762 -4.78516 -12.1582 -4.78516c-4.78516 0 -9.55176 1.91016 -13.0752 5.68945c-9.29004 9.98047 -11.9795 23.9775 -13.1992 33.6357c-5.24902 41.5508 3.86816 81.5957 14.5088 122.367c2.4873 9.5459 12.2354 15.2588 21.7812 12.7715z" />
    <glyph glyph-name="a" unicode="a" horiz-adv-x="271" 
d="M290.985 217.719c8.77148 -4.51074 12.2285 -15.2734 7.72363 -24.0449c-32.5166 -63.2725 -63.6289 -115.559 -95.0986 -159.841c-12.0508 -16.9492 -26.4766 -36.1416 -45.2822 -49.3945c-11.7119 -8.24805 -21.8584 -10.9502 -30.1123 -10.9502
c-8.50391 0 -15.0088 2.8623 -19.1689 5.46875c-16.7705 10.5156 -21.168 32.0586 -22.2988 43.9609c-1.51758 16.0205 -0.44043 32.5586 3.21387 49.1562c3.42188 15.5684 7.48633 31.1777 12.0273 46.7217c-3.79688 -7.23633 -7.64746 -14.4375 -11.5576 -21.5371
c-10.8789 -19.7695 -20.6689 -35.8135 -33.0654 -49.8281c-4.93359 -5.58203 -19.8887 -22.5605 -40.8721 -20.9541c-25.3574 1.95215 -39.3896 28.042 -44.0674 51.8047c-5.62988 28.625 -2.72559 61.2607 8.64062 97.0088c15.2646 48.0312 40.9258 89.8076 74.21 120.807
c25.2441 23.5127 50.7979 36.2598 75.9531 37.8848c17.4424 1.125 30.6836 -2.59473 40.4854 -11.373c7.88477 11.6221 16.1445 22.8516 24.8984 33.5693c5.63574 6.89746 15.4912 8.58789 23.0967 3.96387c7.61133 -4.61816 10.6465 -14.1455 7.12305 -22.3223
c-4.94531 -11.4795 -10.2422 -23.5068 -15.7354 -35.9922c-30.3271 -68.9141 -68.0635 -154.676 -86.2734 -237.426c-2.85059 -12.9678 -3.70117 -25.792 -2.53516 -38.1104c1.01758 -10.7422 4.35645 -16.2295 5.71875 -17.0869
c0.494141 -0.0830078 3.92188 0.321289 9.74219 4.42188c14.1934 10.0039 26.4111 26.3574 36.7422 40.8955c30.4697 42.8779 60.7129 93.7363 92.4502 155.479c4.51074 8.77148 15.2764 12.2227 24.042 7.71777zM97.6104 189.055
c16.9189 33.9033 34.1777 68.4863 53.6084 101.176c-1.11914 3.26758 -2.36328 4.87988 -3.14844 5.62402c-1.83887 1.75 -5.44531 2.63086 -10.7539 2.63086c-1.17188 0 -2.43359 -0.0419922 -3.77832 -0.130859c-16.7227 -1.08301 -34.8672 -10.6348 -53.9229 -28.3809
c-28.3867 -26.4404 -51.2988 -63.9082 -64.5166 -105.507c-9.52148 -29.9521 -12.0928 -56.6309 -7.63574 -79.293c3.05273 -15.5088 10.0635 -22.9658 11.7715 -23.0967c0.0771484 0 3.60645 0.213867 11.3906 9.00977c10.2119 11.5508 18.793 25.6963 28.5234 43.3828
c13.3066 24.1914 26.0957 49.8047 38.4619 74.585z" />
    <glyph glyph-name="a" unicode="&#xe5;" horiz-adv-x="271" 
d="M290.985 217.719c8.77148 -4.51074 12.2285 -15.2734 7.72363 -24.0449c-32.5166 -63.2725 -63.6289 -115.559 -95.0986 -159.841c-12.0508 -16.9492 -26.4766 -36.1416 -45.2822 -49.3945c-11.7119 -8.24805 -21.8584 -10.9502 -30.1123 -10.9502
c-8.50391 0 -15.0088 2.8623 -19.1689 5.46875c-16.7705 10.5156 -21.168 32.0586 -22.2988 43.9609c-1.51758 16.0205 -0.44043 32.5586 3.21387 49.1562c3.42188 15.5684 7.48633 31.1777 12.0273 46.7217c-3.79688 -7.23633 -7.64746 -14.4375 -11.5576 -21.5371
c-10.8789 -19.7695 -20.6689 -35.8135 -33.0654 -49.8281c-4.93359 -5.58203 -19.8887 -22.5605 -40.8721 -20.9541c-25.3574 1.95215 -39.3896 28.042 -44.0674 51.8047c-5.62988 28.625 -2.72559 61.2607 8.64062 97.0088c15.2646 48.0312 40.9258 89.8076 74.21 120.807
c25.2441 23.5127 50.7979 36.2598 75.9531 37.8848c17.4424 1.125 30.6836 -2.59473 40.4854 -11.373c7.88477 11.6221 16.1445 22.8516 24.8984 33.5693c5.63574 6.89746 15.4912 8.58789 23.0967 3.96387c7.61133 -4.61816 10.6465 -14.1455 7.12305 -22.3223
c-4.94531 -11.4795 -10.2422 -23.5068 -15.7354 -35.9922c-30.3271 -68.9141 -68.0635 -154.676 -86.2734 -237.426c-2.85059 -12.9678 -3.70117 -25.792 -2.53516 -38.1104c1.01758 -10.7422 4.35645 -16.2295 5.71875 -17.0869
c0.494141 -0.0830078 3.92188 0.321289 9.74219 4.42188c14.1934 10.0039 26.4111 26.3574 36.7422 40.8955c30.4697 42.8779 60.7129 93.7363 92.4502 155.479c4.51074 8.77148 15.2764 12.2227 24.042 7.71777zM97.6104 189.055
c16.9189 33.9033 34.1777 68.4863 53.6084 101.176c-1.11914 3.26758 -2.36328 4.87988 -3.14844 5.62402c-1.83887 1.75 -5.44531 2.63086 -10.7539 2.63086c-1.17188 0 -2.43359 -0.0419922 -3.77832 -0.130859c-16.7227 -1.08301 -34.8672 -10.6348 -53.9229 -28.3809
c-28.3867 -26.4404 -51.2988 -63.9082 -64.5166 -105.507c-9.52148 -29.9521 -12.0928 -56.6309 -7.63574 -79.293c3.05273 -15.5088 10.0635 -22.9658 11.7715 -23.0967c0.0771484 0 3.60645 0.213867 11.3906 9.00977c10.2119 11.5508 18.793 25.6963 28.5234 43.3828
c13.3066 24.1914 26.0957 49.8047 38.4619 74.585z" />
    <glyph glyph-name="a" unicode="&#xe4;" horiz-adv-x="271" 
d="M290.985 217.719c8.77148 -4.51074 12.2285 -15.2734 7.72363 -24.0449c-32.5166 -63.2725 -63.6289 -115.559 -95.0986 -159.841c-12.0508 -16.9492 -26.4766 -36.1416 -45.2822 -49.3945c-11.7119 -8.24805 -21.8584 -10.9502 -30.1123 -10.9502
c-8.50391 0 -15.0088 2.8623 -19.1689 5.46875c-16.7705 10.5156 -21.168 32.0586 -22.2988 43.9609c-1.51758 16.0205 -0.44043 32.5586 3.21387 49.1562c3.42188 15.5684 7.48633 31.1777 12.0273 46.7217c-3.79688 -7.23633 -7.64746 -14.4375 -11.5576 -21.5371
c-10.8789 -19.7695 -20.6689 -35.8135 -33.0654 -49.8281c-4.93359 -5.58203 -19.8887 -22.5605 -40.8721 -20.9541c-25.3574 1.95215 -39.3896 28.042 -44.0674 51.8047c-5.62988 28.625 -2.72559 61.2607 8.64062 97.0088c15.2646 48.0312 40.9258 89.8076 74.21 120.807
c25.2441 23.5127 50.7979 36.2598 75.9531 37.8848c17.4424 1.125 30.6836 -2.59473 40.4854 -11.373c7.88477 11.6221 16.1445 22.8516 24.8984 33.5693c5.63574 6.89746 15.4912 8.58789 23.0967 3.96387c7.61133 -4.61816 10.6465 -14.1455 7.12305 -22.3223
c-4.94531 -11.4795 -10.2422 -23.5068 -15.7354 -35.9922c-30.3271 -68.9141 -68.0635 -154.676 -86.2734 -237.426c-2.85059 -12.9678 -3.70117 -25.792 -2.53516 -38.1104c1.01758 -10.7422 4.35645 -16.2295 5.71875 -17.0869
c0.494141 -0.0830078 3.92188 0.321289 9.74219 4.42188c14.1934 10.0039 26.4111 26.3574 36.7422 40.8955c30.4697 42.8779 60.7129 93.7363 92.4502 155.479c4.51074 8.77148 15.2764 12.2227 24.042 7.71777zM97.6104 189.055
c16.9189 33.9033 34.1777 68.4863 53.6084 101.176c-1.11914 3.26758 -2.36328 4.87988 -3.14844 5.62402c-1.83887 1.75 -5.44531 2.63086 -10.7539 2.63086c-1.17188 0 -2.43359 -0.0419922 -3.77832 -0.130859c-16.7227 -1.08301 -34.8672 -10.6348 -53.9229 -28.3809
c-28.3867 -26.4404 -51.2988 -63.9082 -64.5166 -105.507c-9.52148 -29.9521 -12.0928 -56.6309 -7.63574 -79.293c3.05273 -15.5088 10.0635 -22.9658 11.7715 -23.0967c0.0771484 0 3.60645 0.213867 11.3906 9.00977c10.2119 11.5508 18.793 25.6963 28.5234 43.3828
c13.3066 24.1914 26.0957 49.8047 38.4619 74.585z" />
    <glyph glyph-name="a" unicode="&#xe3;" horiz-adv-x="271" 
d="M290.985 217.719c8.77148 -4.51074 12.2285 -15.2734 7.72363 -24.0449c-32.5166 -63.2725 -63.6289 -115.559 -95.0986 -159.841c-12.0508 -16.9492 -26.4766 -36.1416 -45.2822 -49.3945c-11.7119 -8.24805 -21.8584 -10.9502 -30.1123 -10.9502
c-8.50391 0 -15.0088 2.8623 -19.1689 5.46875c-16.7705 10.5156 -21.168 32.0586 -22.2988 43.9609c-1.51758 16.0205 -0.44043 32.5586 3.21387 49.1562c3.42188 15.5684 7.48633 31.1777 12.0273 46.7217c-3.79688 -7.23633 -7.64746 -14.4375 -11.5576 -21.5371
c-10.8789 -19.7695 -20.6689 -35.8135 -33.0654 -49.8281c-4.93359 -5.58203 -19.8887 -22.5605 -40.8721 -20.9541c-25.3574 1.95215 -39.3896 28.042 -44.0674 51.8047c-5.62988 28.625 -2.72559 61.2607 8.64062 97.0088c15.2646 48.0312 40.9258 89.8076 74.21 120.807
c25.2441 23.5127 50.7979 36.2598 75.9531 37.8848c17.4424 1.125 30.6836 -2.59473 40.4854 -11.373c7.88477 11.6221 16.1445 22.8516 24.8984 33.5693c5.63574 6.89746 15.4912 8.58789 23.0967 3.96387c7.61133 -4.61816 10.6465 -14.1455 7.12305 -22.3223
c-4.94531 -11.4795 -10.2422 -23.5068 -15.7354 -35.9922c-30.3271 -68.9141 -68.0635 -154.676 -86.2734 -237.426c-2.85059 -12.9678 -3.70117 -25.792 -2.53516 -38.1104c1.01758 -10.7422 4.35645 -16.2295 5.71875 -17.0869
c0.494141 -0.0830078 3.92188 0.321289 9.74219 4.42188c14.1934 10.0039 26.4111 26.3574 36.7422 40.8955c30.4697 42.8779 60.7129 93.7363 92.4502 155.479c4.51074 8.77148 15.2764 12.2227 24.042 7.71777zM97.6104 189.055
c16.9189 33.9033 34.1777 68.4863 53.6084 101.176c-1.11914 3.26758 -2.36328 4.87988 -3.14844 5.62402c-1.83887 1.75 -5.44531 2.63086 -10.7539 2.63086c-1.17188 0 -2.43359 -0.0419922 -3.77832 -0.130859c-16.7227 -1.08301 -34.8672 -10.6348 -53.9229 -28.3809
c-28.3867 -26.4404 -51.2988 -63.9082 -64.5166 -105.507c-9.52148 -29.9521 -12.0928 -56.6309 -7.63574 -79.293c3.05273 -15.5088 10.0635 -22.9658 11.7715 -23.0967c0.0771484 0 3.60645 0.213867 11.3906 9.00977c10.2119 11.5508 18.793 25.6963 28.5234 43.3828
c13.3066 24.1914 26.0957 49.8047 38.4619 74.585z" />
    <glyph glyph-name="a" unicode="&#xe2;" horiz-adv-x="271" 
d="M290.985 217.719c8.77148 -4.51074 12.2285 -15.2734 7.72363 -24.0449c-32.5166 -63.2725 -63.6289 -115.559 -95.0986 -159.841c-12.0508 -16.9492 -26.4766 -36.1416 -45.2822 -49.3945c-11.7119 -8.24805 -21.8584 -10.9502 -30.1123 -10.9502
c-8.50391 0 -15.0088 2.8623 -19.1689 5.46875c-16.7705 10.5156 -21.168 32.0586 -22.2988 43.9609c-1.51758 16.0205 -0.44043 32.5586 3.21387 49.1562c3.42188 15.5684 7.48633 31.1777 12.0273 46.7217c-3.79688 -7.23633 -7.64746 -14.4375 -11.5576 -21.5371
c-10.8789 -19.7695 -20.6689 -35.8135 -33.0654 -49.8281c-4.93359 -5.58203 -19.8887 -22.5605 -40.8721 -20.9541c-25.3574 1.95215 -39.3896 28.042 -44.0674 51.8047c-5.62988 28.625 -2.72559 61.2607 8.64062 97.0088c15.2646 48.0312 40.9258 89.8076 74.21 120.807
c25.2441 23.5127 50.7979 36.2598 75.9531 37.8848c17.4424 1.125 30.6836 -2.59473 40.4854 -11.373c7.88477 11.6221 16.1445 22.8516 24.8984 33.5693c5.63574 6.89746 15.4912 8.58789 23.0967 3.96387c7.61133 -4.61816 10.6465 -14.1455 7.12305 -22.3223
c-4.94531 -11.4795 -10.2422 -23.5068 -15.7354 -35.9922c-30.3271 -68.9141 -68.0635 -154.676 -86.2734 -237.426c-2.85059 -12.9678 -3.70117 -25.792 -2.53516 -38.1104c1.01758 -10.7422 4.35645 -16.2295 5.71875 -17.0869
c0.494141 -0.0830078 3.92188 0.321289 9.74219 4.42188c14.1934 10.0039 26.4111 26.3574 36.7422 40.8955c30.4697 42.8779 60.7129 93.7363 92.4502 155.479c4.51074 8.77148 15.2764 12.2227 24.042 7.71777zM97.6104 189.055
c16.9189 33.9033 34.1777 68.4863 53.6084 101.176c-1.11914 3.26758 -2.36328 4.87988 -3.14844 5.62402c-1.83887 1.75 -5.44531 2.63086 -10.7539 2.63086c-1.17188 0 -2.43359 -0.0419922 -3.77832 -0.130859c-16.7227 -1.08301 -34.8672 -10.6348 -53.9229 -28.3809
c-28.3867 -26.4404 -51.2988 -63.9082 -64.5166 -105.507c-9.52148 -29.9521 -12.0928 -56.6309 -7.63574 -79.293c3.05273 -15.5088 10.0635 -22.9658 11.7715 -23.0967c0.0771484 0 3.60645 0.213867 11.3906 9.00977c10.2119 11.5508 18.793 25.6963 28.5234 43.3828
c13.3066 24.1914 26.0957 49.8047 38.4619 74.585z" />
    <glyph glyph-name="a" unicode="&#xe1;" horiz-adv-x="271" 
d="M290.985 217.719c8.77148 -4.51074 12.2285 -15.2734 7.72363 -24.0449c-32.5166 -63.2725 -63.6289 -115.559 -95.0986 -159.841c-12.0508 -16.9492 -26.4766 -36.1416 -45.2822 -49.3945c-11.7119 -8.24805 -21.8584 -10.9502 -30.1123 -10.9502
c-8.50391 0 -15.0088 2.8623 -19.1689 5.46875c-16.7705 10.5156 -21.168 32.0586 -22.2988 43.9609c-1.51758 16.0205 -0.44043 32.5586 3.21387 49.1562c3.42188 15.5684 7.48633 31.1777 12.0273 46.7217c-3.79688 -7.23633 -7.64746 -14.4375 -11.5576 -21.5371
c-10.8789 -19.7695 -20.6689 -35.8135 -33.0654 -49.8281c-4.93359 -5.58203 -19.8887 -22.5605 -40.8721 -20.9541c-25.3574 1.95215 -39.3896 28.042 -44.0674 51.8047c-5.62988 28.625 -2.72559 61.2607 8.64062 97.0088c15.2646 48.0312 40.9258 89.8076 74.21 120.807
c25.2441 23.5127 50.7979 36.2598 75.9531 37.8848c17.4424 1.125 30.6836 -2.59473 40.4854 -11.373c7.88477 11.6221 16.1445 22.8516 24.8984 33.5693c5.63574 6.89746 15.4912 8.58789 23.0967 3.96387c7.61133 -4.61816 10.6465 -14.1455 7.12305 -22.3223
c-4.94531 -11.4795 -10.2422 -23.5068 -15.7354 -35.9922c-30.3271 -68.9141 -68.0635 -154.676 -86.2734 -237.426c-2.85059 -12.9678 -3.70117 -25.792 -2.53516 -38.1104c1.01758 -10.7422 4.35645 -16.2295 5.71875 -17.0869
c0.494141 -0.0830078 3.92188 0.321289 9.74219 4.42188c14.1934 10.0039 26.4111 26.3574 36.7422 40.8955c30.4697 42.8779 60.7129 93.7363 92.4502 155.479c4.51074 8.77148 15.2764 12.2227 24.042 7.71777zM97.6104 189.055
c16.9189 33.9033 34.1777 68.4863 53.6084 101.176c-1.11914 3.26758 -2.36328 4.87988 -3.14844 5.62402c-1.83887 1.75 -5.44531 2.63086 -10.7539 2.63086c-1.17188 0 -2.43359 -0.0419922 -3.77832 -0.130859c-16.7227 -1.08301 -34.8672 -10.6348 -53.9229 -28.3809
c-28.3867 -26.4404 -51.2988 -63.9082 -64.5166 -105.507c-9.52148 -29.9521 -12.0928 -56.6309 -7.63574 -79.293c3.05273 -15.5088 10.0635 -22.9658 11.7715 -23.0967c0.0771484 0 3.60645 0.213867 11.3906 9.00977c10.2119 11.5508 18.793 25.6963 28.5234 43.3828
c13.3066 24.1914 26.0957 49.8047 38.4619 74.585z" />
    <glyph glyph-name="b" unicode="b" horiz-adv-x="326" 
d="M339.738 200.307c5.55859 -8.14746 3.45996 -19.25 -4.69336 -24.832c-42.1641 -28.7559 -89.2432 -38.8018 -134.775 -48.5137c-7.07617 -1.51172 -14.0869 -3.00586 -21.0322 -4.55957c-3.87402 -7.88477 -8.00391 -15.7695 -12.3896 -23.6543
c-33.2246 -59.7314 -69.1221 -95.2598 -109.756 -108.62c-7.48047 -2.45801 -18.8115 -5.33203 -30.7432 -1.93359c-13.6221 3.88574 -24.3398 15.4961 -27.3154 29.5879c-2.1543 10.2236 -0.463867 21.3105 5.16016 33.8848
c9.7002 21.7041 25.8154 40.9795 47.8818 57.2979c31.874 23.5664 66.9258 35.5342 102.187 44.2529c11.1523 24.9473 19.4482 49.6982 24.7744 73.9375c4.98145 22.7031 6.7373 42.3125 5.35059 59.958c-1.07715 13.6934 -4.12988 18.2344 -5.3916 19.5498
c-2.66602 2.78516 -10.9854 -0.333008 -17.585 -4.42188c-28.3574 -17.5732 -51.6621 -47.9717 -68.7949 -72.4902c-44.7285 -64.0039 -95.6934 -168.464 -123.938 -254.035c-0.0234375 -0.0595703 -0.0527344 -0.119141 -0.0761719 -0.178711
c-0.136719 -0.404297 -0.321289 -0.773438 -0.488281 -1.16016c-0.232422 -0.55957 -0.464844 -1.11914 -0.75 -1.63672c-0.202148 -0.363281 -0.43457 -0.696289 -0.654297 -1.04102c-0.321289 -0.505859 -0.654297 -1.00586 -1.02344 -1.46973
c-0.244141 -0.30957 -0.505859 -0.595703 -0.773438 -0.887695c-0.404297 -0.44043 -0.814453 -0.869141 -1.26074 -1.26758c-0.297852 -0.261719 -0.601562 -0.511719 -0.911133 -0.755859c-0.458008 -0.363281 -0.93457 -0.696289 -1.42871 -1.01172
c-0.344727 -0.219727 -0.689453 -0.433594 -1.04688 -0.629883c-0.505859 -0.273438 -1.0293 -0.511719 -1.55859 -0.738281c-0.375 -0.161133 -0.744141 -0.328125 -1.13086 -0.464844c-0.588867 -0.202148 -1.19043 -0.350586 -1.80371 -0.493164
c-0.344727 -0.0830078 -0.683594 -0.19043 -1.04102 -0.25c-0.988281 -0.166992 -1.98242 -0.268555 -2.99414 -0.268555c-0.94043 0 -1.88086 0.0771484 -2.82715 0.231445c-0.922852 0.148438 -1.85156 0.368164 -2.77441 0.671875
c-0.119141 0.0361328 -0.213867 0.107422 -0.333008 0.149414c-0.630859 0.219727 -1.20801 0.517578 -1.80273 0.803711c-0.482422 0.232422 -0.976562 0.44043 -1.42871 0.708008c-0.517578 0.30957 -0.981445 0.68457 -1.46387 1.04785
c-0.458008 0.338867 -0.927734 0.660156 -1.34473 1.03516s-0.774414 0.80957 -1.14941 1.21973c-0.398438 0.44043 -0.808594 0.850586 -1.16016 1.32031c-0.338867 0.452148 -0.606445 0.952148 -0.904297 1.44043
c-0.297852 0.482422 -0.613281 0.952148 -0.863281 1.46387c-0.255859 0.523438 -0.43457 1.08887 -0.636719 1.64258c-0.19043 0.523438 -0.410156 1.03516 -0.552734 1.57031c-0.142578 0.553711 -0.208008 1.125 -0.303711 1.69043
c-0.0957031 0.583008 -0.214844 1.16016 -0.250977 1.76074c-0.0292969 0.529297 0.0126953 1.07715 0.0302734 1.61914c0.0175781 0.648438 0.0234375 1.29102 0.112305 1.93945c0.0175781 0.125 0.00585938 0.25 0.0234375 0.375
c35.0049 218.828 116.731 421.82 236.349 587.023c5.77832 7.98047 16.9424 9.76562 24.9287 3.9873s9.77148 -16.9424 3.9873 -24.9287c-81.6436 -112.762 -145.076 -243.793 -187.496 -385.62c17.0498 32.041 34.6768 61.5703 51.4766 85.6123
c19.0908 27.3213 45.3594 61.3799 79.2451 82.3877c23.959 14.8535 47.21 14.4014 62.1768 -1.2207c8.76562 -9.13477 13.7344 -22.6973 15.21 -41.4609c1.66016 -21.1982 -0.327148 -44.2354 -6.07617 -70.4141c-4.1123 -18.7344 -9.81934 -37.6885 -17.0801 -56.7559
c42.6104 9.11133 82.8457 18.1924 118.106 42.2412c8.15332 5.55273 19.252 3.45215 24.8047 -4.69531zM45.9336 24.0781c29.9521 9.84277 58.9043 38.6836 86.125 85.7393c-20.793 -6.93945 -40.5264 -16.0508 -58.7549 -29.5303
c-17.3057 -12.7949 -29.25 -26.917 -36.5166 -43.1631c-3.1543 -7.0459 -3.11816 -10.5098 -2.81445 -11.9443c0.369141 -1.74414 1.82129 -2.51758 2.16016 -2.61328c1.85059 -0.529297 5.14746 -0.0175781 9.80078 1.51172z" />
    <glyph glyph-name="c" unicode="c" horiz-adv-x="196" 
d="M215.877 211.554c8.2002 -5.48145 10.4082 -16.5693 4.93945 -24.7578l-5.95117 -8.98047c-58.666 -88.8262 -125.247 -177.885 -180.057 -177.885c-3.84473 0 -7.62988 0.44043 -11.3496 1.34473c-14.7949 3.60645 -27.9111 16.0381 -35.9805 34.123
c-5.2666 11.7832 -8.39648 25.6973 -9.86621 43.7891c-5.61816 69.2705 15.6094 130.204 34.4033 169.124c18.5977 38.5156 40.8789 68.4258 66.2246 88.8916c15.4189 12.4492 29.9102 19.3467 44.3057 21.0967c17.0146 2.05957 32.249 -4.41504 40.7832 -17.3232
c13.5566 -20.5078 5.08789 -48.1865 2.30273 -57.2803c-10.3428 -33.8262 -24.4531 -65.3965 -38.0986 -95.9258c-4.02246 -9.00391 -14.5918 -13.0332 -23.584 -9.0166c-9.00391 4.02344 -13.0391 14.5811 -9.0166 23.585c13.2051 29.5352 26.8564 60.0762 36.5566 91.7959
c5.71289 18.6631 3.33887 25.1973 2.05371 27.1436c-1.35645 2.04102 -5.46289 1.71387 -6.69434 1.56543c-7.55762 -0.916016 -16.1211 -5.30762 -26.1787 -13.4307c-21.21 -17.1211 -40.2236 -42.9072 -56.5059 -76.6318
c-23.8457 -49.3818 -34.8438 -102.906 -30.9697 -150.718c1.13086 -13.9316 3.31445 -24.1377 6.87891 -32.1182c3.82031 -8.56348 8.80762 -13.2529 11.8252 -13.9854c14.9258 -3.6416 54.7383 12.498 153.164 161.525l6.05273 9.13477
c5.47461 8.2002 16.5615 10.4082 24.7617 4.93359z" />
    <glyph glyph-name="d" unicode="d" horiz-adv-x="357" 
d="M378.156 229.586c9.0752 -3.84473 13.3135 -14.3232 9.46875 -23.4043c-23.0781 -54.4531 -48.5254 -108.156 -75.627 -159.615c-15.9609 -30.3027 -35.0762 -65.0391 -59.958 -93.7295c-7.53418 -8.68262 -17.8652 -19.46 -30.9873 -25.792
c-7.45117 -3.59473 -15.2471 -5.37988 -22.8232 -5.37988c-8.72461 0 -17.1455 2.36816 -24.3936 7.0752c-17.4551 11.3369 -27.3936 34.6709 -29.5361 69.3535c-4.73145 76.5605 14.6748 151.151 34.2842 214.019c10.623 34.0518 22.3584 67.7764 34.9922 101.174
c-29.25 -60.3564 -55.8154 -122.248 -81.1729 -182.586l-0.969727 -2.30859c-16.752 -39.8779 -34.0752 -81.1133 -58.7725 -116.022c-15.6689 -22.1445 -32.1709 -33.3145 -49.1553 -33.3145c-2.6543 0 -5.32031 0.273438 -7.99219 0.821289
c-17.5674 3.57617 -32.0225 19.0371 -40.6934 43.5195c-13.9854 39.4795 -11.8906 88.5703 6.21289 145.903c18.2939 57.916 44.1514 104.335 76.8525 137.959c21.1621 21.7637 42.9971 35.1895 64.9033 39.9023c22.1973 4.78516 44.1924 0.328125 61.7363 -11.9668
c29.1904 59.749 61.1006 118.07 97.2119 172.195c12.4912 18.7285 29.3623 42.8838 49.1318 63.6533c2.02344 2.13086 4.47559 3.57129 7.07031 4.47559c5.4873 6.27246 14.8008 8.02832 22.3047 3.72559c8.55176 -4.89746 11.5156 -15.8057 6.6123 -24.3633
c-64.0039 -111.679 -115.874 -230.576 -154.182 -353.396c-18.6387 -59.7607 -37.1045 -130.4 -32.7305 -201.183c1.32715 -21.4951 6.31445 -37.0518 13.3486 -41.6162c4.29688 -2.79102 9.99219 -0.571289 12.248 0.517578
c7.24805 3.49316 14.2402 10.9385 19.5244 17.0322c22.3936 25.8223 40.3125 58.4346 55.3447 86.9766c26.6367 50.5781 51.6494 103.37 74.3408 156.906c3.84473 9.0752 14.3242 13.3125 23.4053 9.46777zM99.4844 144.533c21.8525 52.001 44.5967 105.144 69.2109 157.608
c-7.77832 7.2666 -17.8955 11.1768 -28.667 11.1768c-3.19531 0 -6.45605 -0.344727 -9.72949 -1.05273c-14.8955 -3.20215 -30.6484 -13.2598 -46.8174 -29.8867c-28.3809 -29.1787 -52.0361 -71.9912 -68.4014 -123.813
c-15.7168 -49.7754 -17.9424 -91.2363 -6.60547 -123.235c4.88574 -13.8008 11.2832 -19.8711 14.1699 -20.46c2.63086 -0.529297 9.93848 2.69043 20.8643 18.1279c22.4414 31.7197 38.9971 71.1221 55.0059 109.227z" />
    <glyph glyph-name="e" unicode="e" horiz-adv-x="213" 
d="M231.623 220.534c8.71875 -4.60059 12.0527 -15.3994 7.44629 -24.124c-36.8438 -69.7529 -72.1816 -121.331 -111.203 -162.328c-13.4609 -14.1455 -31.7783 -31.8027 -54.1309 -42.9316c-11.1699 -5.55859 -21.4531 -8.31348 -31.1416 -8.31348
c-4.07617 0 -8.05176 0.488281 -11.9375 1.46387c-24.2568 6.07617 -43.5205 31.9932 -51.5186 69.3242c-7.19531 33.5938 -6.37988 70.8838 2.35645 107.84c7.48633 31.666 20.8291 63.3555 39.6582 94.2002c14.5322 23.8105 29.3857 42.3662 45.4062 56.7266
c17.5977 15.7822 35.624 25.209 53.5664 28.0234c18.1865 2.85059 29.5352 -3.35059 35.8613 -9.05176c10.7832 -9.71777 16.1514 -26.375 14.0088 -43.4727c-1.55957 -12.4561 -6.7666 -24.4893 -15.4727 -35.7666c-21.4951 -27.8389 -69.1338 -44.1211 -110.589 -28.3271
c-12.8311 -23.3525 -22.127 -47.0205 -27.6914 -70.5449c-7.52246 -31.832 -8.27832 -63.6885 -2.18457 -92.1348c4.77832 -22.2988 15.1748 -39.6406 25.2861 -42.1758c4.43945 -1.11328 10.6641 0.291016 18.4834 4.18262
c13.5566 6.74219 27.1787 17.7217 44.1807 35.5811c36.7002 38.5518 70.2227 87.6123 105.489 154.384c4.6123 8.71875 15.4131 12.0518 24.126 7.44531zM90.3984 285.808c-9.21191 -8.25977 -18.0908 -18.3896 -26.8691 -30.667
c23.8818 -5.55273 51.168 3.82617 62.7373 18.8174c4.75488 6.15332 7.55176 12.3369 8.30762 18.377c0.767578 6.14746 -1.17871 11.3311 -2.48242 12.5098c-0.613281 0.553711 -2.83887 0.863281 -6.42773 0.303711
c-11.0215 -1.73145 -22.8818 -8.23633 -35.2656 -19.3408z" />
    <glyph glyph-name="e" unicode="&#xeb;" horiz-adv-x="213" 
d="M231.623 220.534c8.71875 -4.60059 12.0527 -15.3994 7.44629 -24.124c-36.8438 -69.7529 -72.1816 -121.331 -111.203 -162.328c-13.4609 -14.1455 -31.7783 -31.8027 -54.1309 -42.9316c-11.1699 -5.55859 -21.4531 -8.31348 -31.1416 -8.31348
c-4.07617 0 -8.05176 0.488281 -11.9375 1.46387c-24.2568 6.07617 -43.5205 31.9932 -51.5186 69.3242c-7.19531 33.5938 -6.37988 70.8838 2.35645 107.84c7.48633 31.666 20.8291 63.3555 39.6582 94.2002c14.5322 23.8105 29.3857 42.3662 45.4062 56.7266
c17.5977 15.7822 35.624 25.209 53.5664 28.0234c18.1865 2.85059 29.5352 -3.35059 35.8613 -9.05176c10.7832 -9.71777 16.1514 -26.375 14.0088 -43.4727c-1.55957 -12.4561 -6.7666 -24.4893 -15.4727 -35.7666c-21.4951 -27.8389 -69.1338 -44.1211 -110.589 -28.3271
c-12.8311 -23.3525 -22.127 -47.0205 -27.6914 -70.5449c-7.52246 -31.832 -8.27832 -63.6885 -2.18457 -92.1348c4.77832 -22.2988 15.1748 -39.6406 25.2861 -42.1758c4.43945 -1.11328 10.6641 0.291016 18.4834 4.18262
c13.5566 6.74219 27.1787 17.7217 44.1807 35.5811c36.7002 38.5518 70.2227 87.6123 105.489 154.384c4.6123 8.71875 15.4131 12.0518 24.126 7.44531zM90.3984 285.808c-9.21191 -8.25977 -18.0908 -18.3896 -26.8691 -30.667
c23.8818 -5.55273 51.168 3.82617 62.7373 18.8174c4.75488 6.15332 7.55176 12.3369 8.30762 18.377c0.767578 6.14746 -1.17871 11.3311 -2.48242 12.5098c-0.613281 0.553711 -2.83887 0.863281 -6.42773 0.303711
c-11.0215 -1.73145 -22.8818 -8.23633 -35.2656 -19.3408z" />
    <glyph glyph-name="e" unicode="&#xea;" horiz-adv-x="213" 
d="M231.623 220.534c8.71875 -4.60059 12.0527 -15.3994 7.44629 -24.124c-36.8438 -69.7529 -72.1816 -121.331 -111.203 -162.328c-13.4609 -14.1455 -31.7783 -31.8027 -54.1309 -42.9316c-11.1699 -5.55859 -21.4531 -8.31348 -31.1416 -8.31348
c-4.07617 0 -8.05176 0.488281 -11.9375 1.46387c-24.2568 6.07617 -43.5205 31.9932 -51.5186 69.3242c-7.19531 33.5938 -6.37988 70.8838 2.35645 107.84c7.48633 31.666 20.8291 63.3555 39.6582 94.2002c14.5322 23.8105 29.3857 42.3662 45.4062 56.7266
c17.5977 15.7822 35.624 25.209 53.5664 28.0234c18.1865 2.85059 29.5352 -3.35059 35.8613 -9.05176c10.7832 -9.71777 16.1514 -26.375 14.0088 -43.4727c-1.55957 -12.4561 -6.7666 -24.4893 -15.4727 -35.7666c-21.4951 -27.8389 -69.1338 -44.1211 -110.589 -28.3271
c-12.8311 -23.3525 -22.127 -47.0205 -27.6914 -70.5449c-7.52246 -31.832 -8.27832 -63.6885 -2.18457 -92.1348c4.77832 -22.2988 15.1748 -39.6406 25.2861 -42.1758c4.43945 -1.11328 10.6641 0.291016 18.4834 4.18262
c13.5566 6.74219 27.1787 17.7217 44.1807 35.5811c36.7002 38.5518 70.2227 87.6123 105.489 154.384c4.6123 8.71875 15.4131 12.0518 24.126 7.44531zM90.3984 285.808c-9.21191 -8.25977 -18.0908 -18.3896 -26.8691 -30.667
c23.8818 -5.55273 51.168 3.82617 62.7373 18.8174c4.75488 6.15332 7.55176 12.3369 8.30762 18.377c0.767578 6.14746 -1.17871 11.3311 -2.48242 12.5098c-0.613281 0.553711 -2.83887 0.863281 -6.42773 0.303711
c-11.0215 -1.73145 -22.8818 -8.23633 -35.2656 -19.3408z" />
    <glyph glyph-name="e" unicode="&#xe9;" horiz-adv-x="213" 
d="M231.623 220.534c8.71875 -4.60059 12.0527 -15.3994 7.44629 -24.124c-36.8438 -69.7529 -72.1816 -121.331 -111.203 -162.328c-13.4609 -14.1455 -31.7783 -31.8027 -54.1309 -42.9316c-11.1699 -5.55859 -21.4531 -8.31348 -31.1416 -8.31348
c-4.07617 0 -8.05176 0.488281 -11.9375 1.46387c-24.2568 6.07617 -43.5205 31.9932 -51.5186 69.3242c-7.19531 33.5938 -6.37988 70.8838 2.35645 107.84c7.48633 31.666 20.8291 63.3555 39.6582 94.2002c14.5322 23.8105 29.3857 42.3662 45.4062 56.7266
c17.5977 15.7822 35.624 25.209 53.5664 28.0234c18.1865 2.85059 29.5352 -3.35059 35.8613 -9.05176c10.7832 -9.71777 16.1514 -26.375 14.0088 -43.4727c-1.55957 -12.4561 -6.7666 -24.4893 -15.4727 -35.7666c-21.4951 -27.8389 -69.1338 -44.1211 -110.589 -28.3271
c-12.8311 -23.3525 -22.127 -47.0205 -27.6914 -70.5449c-7.52246 -31.832 -8.27832 -63.6885 -2.18457 -92.1348c4.77832 -22.2988 15.1748 -39.6406 25.2861 -42.1758c4.43945 -1.11328 10.6641 0.291016 18.4834 4.18262
c13.5566 6.74219 27.1787 17.7217 44.1807 35.5811c36.7002 38.5518 70.2227 87.6123 105.489 154.384c4.6123 8.71875 15.4131 12.0518 24.126 7.44531zM90.3984 285.808c-9.21191 -8.25977 -18.0908 -18.3896 -26.8691 -30.667
c23.8818 -5.55273 51.168 3.82617 62.7373 18.8174c4.75488 6.15332 7.55176 12.3369 8.30762 18.377c0.767578 6.14746 -1.17871 11.3311 -2.48242 12.5098c-0.613281 0.553711 -2.83887 0.863281 -6.42773 0.303711
c-11.0215 -1.73145 -22.8818 -8.23633 -35.2656 -19.3408z" />
    <glyph glyph-name="f" unicode="f" horiz-adv-x="230" 
d="M252.472 209.168c5.41504 -8.24219 3.12207 -19.3145 -5.12598 -24.7363c-35.5225 -23.3398 -71.3779 -43.2939 -106.049 -62.5879c-27.2617 -15.1689 -55.2617 -30.7549 -82.9824 -47.9473c10.0811 -0.375 20.4541 -1.53516 30.7559 -4.34375
c23.7568 -6.46875 43.3184 -21.1143 55.0898 -41.2354c12.7236 -21.7451 16.9668 -50.751 11.6348 -79.5898c-4.4043 -23.7988 -14.8545 -46.6572 -31.0713 -67.9385c-21.4121 -28.0947 -47.4775 -43.4365 -72.4541 -43.4365c-6.0459 0 -12.0264 0.898438 -17.8643 2.73145
c-23.1973 7.28418 -42.7109 29.0293 -53.542 59.6533c-9.12891 25.8281 -11.0215 53.9951 -11.6641 78.1445c-3.7666 140.702 31.8154 286.838 100.199 411.496c21.2578 38.748 55.2861 93.2188 105.233 118.862c17.2461 8.86719 32.1182 9.14648 44.1865 0.833008
c25.4883 -17.5615 16.9785 -56.8027 13.7588 -68.4072c-7.99805 -28.8564 -20.4121 -54.5713 -32.6357 -78.0605c-48.0557 -92.3496 -118.767 -176.248 -187.204 -254.273c-1.16016 -7.9502 -2.20117 -15.9189 -3.11719 -23.8877
c3.17773 2.67188 6.1709 4.6416 8.26562 6.0166c35.5225 23.3398 71.3779 43.2939 106.055 62.5938c34.1113 18.9844 69.3779 38.6172 103.805 61.2314c8.25391 5.41504 19.3174 3.11816 24.7266 -5.11816zM100.711 372.201
c-33.1357 -60.4033 -58.2207 -126.081 -74.4316 -193.674c53.4414 62.9033 105.043 129.538 141.993 200.553c11.3193 21.7637 22.7812 45.4375 29.8984 71.1162c4.41602 15.9434 2.38086 26.8574 0.666992 29.166
c-0.904297 -0.0712891 -3.27246 -0.523438 -7.89062 -2.8916c-31.374 -16.1094 -60.0527 -49.2393 -90.2363 -104.27zM79.6963 35.1055c-14.6572 3.9873 -30.459 3.43262 -47.1816 2.84961l-20.0967 -0.708008c-2.2793 -0.0771484 -4.57617 0.286133 -6.69434 1.05371
c-1.07715 -19.877 -1.35645 -39.7295 -0.827148 -59.457c0.571289 -21.3643 2.16016 -46.0498 9.63477 -67.1943c6.84375 -19.3525 18.5557 -33.7129 30.5771 -37.4922c17.6572 -5.54004 38.0283 10.9805 51.2217 28.2861c12.7891 16.7822 20.9834 34.5459 24.3516 52.7861
c3.74316 20.2275 1 40.8184 -7.33789 55.0654c-9.46777 16.1934 -25.1494 22.4951 -33.6475 24.8105z" />
    <glyph glyph-name="g" unicode="g" horiz-adv-x="278" 
d="M294.171 196.67c6.21289 -7.65918 5.04004 -18.9004 -2.625 -25.1016c-28.708 -23.2871 -57.624 -45.0322 -85.582 -66.0576c-20.6201 -15.5088 -40.8662 -30.7314 -60.5225 -46.1748c-11.3965 -42.4912 -23.8936 -84.8809 -38.7715 -125.801
c-12.2061 -33.5645 -29.6484 -76.4248 -56.4697 -110.215c-15.0146 -18.9189 -29.3506 -29.9229 -45.1094 -34.6357c-5.0166 -1.5 -10.1104 -2.22559 -15.127 -2.22559c-17.96 0 -35.0098 9.24219 -44.502 25.1797c-19.1152 32.1006 -2.42285 73.2588 5.63477 89.4639
c12.9795 26.084 30.6543 51.3584 55.6309 79.5371c32.8027 37.0156 68.9561 68.8242 107.251 99.3418c6.74219 25.5537 13.1338 51.1436 19.4482 76.4297c1.83301 7.33203 3.67188 14.6992 5.52832 22.0908c-1.88672 -3.6416 -3.76172 -7.2959 -5.63672 -10.9561
c-19.6621 -38.3018 -39.9971 -77.9121 -67.4082 -110.31c-18.7461 -22.168 -37.5635 -30.5469 -55.9404 -24.9053c-11.8779 3.64844 -22.334 13.6465 -28.6836 27.4297c-4.2666 9.25391 -6.89746 20.3525 -8.0459 33.915c-2.67773 31.7256 2.96973 66.5752 16.7822 103.591
c18.5137 49.6201 46.3887 90.9561 80.6074 119.533c20.9951 17.5381 40.7227 26.6436 60.3135 27.834c19.1924 1.16602 37.5811 -6.12988 50.8701 -19.3945c5.16602 4.81445 12.8789 6.23633 19.5859 3.17773c8.18262 -3.73145 12.3125 -12.9736 9.63477 -21.5615
c-16.1992 -51.9531 -29.8096 -106.424 -42.9619 -159.104c-2.66602 -10.6768 -5.34961 -21.4121 -8.06348 -32.1777c8.10547 6.13574 16.2705 12.2715 24.4951 18.4609c27.7021 20.835 56.3506 42.3779 84.5527 65.2539c7.65918 6.21289 18.9072 5.03418 25.1143 -2.61914z
M73.1162 -54.2705c8.75977 24.0957 16.7041 48.835 24.0957 73.8711c-22.501 -19.6387 -43.8828 -40.2178 -63.7539 -62.6416c-22.834 -25.7686 -38.8428 -48.5732 -50.3818 -71.7646c-8.77148 -17.6211 -15.1924 -41.4014 -6.92676 -55.2852
c4.70703 -7.90332 13.0205 -8.73047 18.7158 -7.02246c8.30762 2.48145 17.2637 9.88477 27.375 22.626c23.6201 29.7617 39.5928 69.1934 50.876 100.217zM110.543 201.283c16.1807 31.124 33.3271 61.9697 51.1631 92.041
c-6.71875 11.6289 -18.21 15.7236 -26.958 15.7236c-0.553711 0 -1.10156 -0.0175781 -1.63672 -0.046875c-11.7002 -0.708008 -24.6494 -7.11719 -39.5869 -19.5967c-29.4756 -24.6143 -53.6963 -60.791 -70.0498 -104.615
c-11.9502 -32.0352 -16.8838 -61.6777 -14.6523 -88.1064c0.791992 -9.35547 2.39258 -16.5508 4.8916 -21.9785c2.41016 -5.2373 5.40918 -7.83203 6.73633 -8.23633c1.41016 -0.43457 7.50391 1.17773 18.2041 13.8301c24.7744 29.2793 44.1572 67.0391 62.9033 103.555
c2.99316 5.82617 5.98047 11.6406 8.98535 17.4307z" />
    <glyph glyph-name="h" unicode="h" horiz-adv-x="301" 
d="M315.646 209.584c8.59375 -4.83789 11.6357 -15.7314 6.80371 -24.3125c-59.2256 -105.18 -106.769 -176.354 -141.303 -211.543c-18.6982 -19.0557 -34.0459 -28.125 -48.1621 -28.125c-4.0293 0 -7.95703 0.738281 -11.8369 2.19629
c-11.6221 3.80859 -20.4238 14.8418 -23.5068 29.5049c-2.10645 9.98633 -1.31543 19.6924 -0.155273 28.6846c6.63574 51.3047 26.1494 97.2529 45.0205 141.684c17.5615 41.3486 34.1533 80.4053 41.2832 123.551c1.26172 7.64746 2.39844 16.5146 1.26172 24.3105
c-1.02344 7.05176 -3.78516 10.9141 -4.96387 11.6816c-0.68457 0.446289 -3.49902 0.678711 -9.30176 -1.66016c-27.1904 -10.9736 -49.0967 -42.0566 -63.2129 -64.4863c-48.9834 -77.835 -98.4189 -183.229 -129.877 -276.566
c-0.422852 -2.56445 -0.916992 -5.10547 -1.33398 -7.66406c-1.42188 -8.76562 -9.00391 -14.9961 -17.6035 -14.9961c-0.946289 0 -1.91016 0.0771484 -2.87988 0.231445c-9.5332 1.54688 -16.0137 10.3838 -14.7939 19.8877
c-0.327148 2.56445 -0.154297 5.22461 0.708984 7.83691c0.386719 1.17871 0.81543 2.38086 1.20801 3.55957c37.7539 224.178 115.564 438.989 225.505 621.843c5.07617 8.4502 16.0439 11.1816 24.5 6.09961c8.4502 -5.08203 11.1816 -16.0498 6.09961 -24.5
c-75.8057 -126.08 -136.031 -267.752 -177.98 -417.279c18.127 36.082 37.2061 70.3369 56.2256 100.557c18.1748 28.875 43.6934 63.9033 80.0723 78.5791c16.3184 6.58203 30.5 6.06445 42.1641 -1.53516c10.873 -7.08789 18.4492 -20.3711 20.7998 -36.4336
c1.84473 -12.6465 0.344727 -24.9414 -1.36914 -35.2959c-7.82617 -47.3594 -26.0361 -90.2314 -43.6455 -131.687c-18.7578 -44.1572 -36.4688 -85.8623 -42.4795 -132.305c-0.761719 -5.86816 -1.32129 -11.9619 -0.31543 -16.7471
c0.291992 -1.38086 0.738281 -2.47559 1.11328 -3.18359c7.25391 2.13086 45.877 22.8174 157.639 221.311c4.83789 8.59375 15.7227 11.6406 24.3164 6.80273z" />
    <glyph glyph-name="i" unicode="i" horiz-adv-x="152" 
d="M176.364 234.87c9.06934 -3.85645 13.2998 -14.3447 9.44336 -23.4082c-29.1787 -68.6338 -65.1055 -132.632 -106.793 -190.221c-10.5576 -14.5859 -22.168 -29.6895 -37.7598 -40.0322c-10.8428 -7.20117 -22.751 -10.8496 -34.6172 -10.8496
c-8.50391 0 -16.9785 1.875 -25.0303 5.6543c-7.25488 3.41016 -17.0264 10.8369 -22.4004 26.8691c-24.4893 73.0439 65.8721 282.362 93.6162 335.077c4.58789 8.72461 15.3955 12.0693 24.1143 7.48145c8.71875 -4.59473 12.0693 -15.3896 7.48145 -24.1143
c-40.7646 -77.4414 -108.06 -257.29 -91.3604 -307.095c0.619141 -1.83887 1.92285 -5.05273 3.73242 -5.90332c10.5752 -4.96875 20.0195 -0.487305 24.7207 2.625c10.6172 7.0459 19.9424 19.2871 28.5771 31.2188c40.1221 55.4229 74.7275 117.076 102.858 183.253
c3.8623 9.06934 14.3359 13.3008 23.417 9.44434zM97.2314 401.72c-9.33105 3.20215 -14.3008 13.3555 -11.0986 22.6807c12.4854 36.4326 28.8564 70.6279 48.6436 101.633c5.30859 8.30762 16.3418 10.748 24.6553 5.43945s10.7539 -16.3477 5.44531 -24.6553
c-18.2637 -28.6191 -33.3975 -60.2432 -44.9668 -93.998c-2.54102 -7.40918 -9.46777 -12.0693 -16.8887 -12.0693c-1.92188 0 -3.87402 0.31543 -5.79004 0.969727z" />
    </font>
</defs>
</svg>
