<?xml version="1.0" standalone="no"?>
<!DOCTYPE svg PUBLIC "-//W3C//DTD SVG 1.1//EN" "http://www.w3.org/Graphics/SVG/1.1/DTD/svg11.dtd" >
<svg xmlns="http://www.w3.org/2000/svg" xmlns:xlink="http://www.w3.org/1999/xlink" version="1.1">
<metadata>
Created by FontForge 20170812 at Thu Mar 24 05:49:37 2022
 By www-data
</metadata>
<defs>
<font id="MasculineRegular" horiz-adv-x="0" >
  <font-face 
    font-family="Masculine"
    font-weight="400"
    font-stretch="normal"
    units-per-em="1000"
    panose-1="0 0 0 0 0 0 0 0 0 0"
    ascent="800"
    descent="-200"
    x-height="342.241"
    cap-height="705.335"
    bbox="-211.889 -390.179 1079.46 877.878"
    underline-thickness="50"
    underline-position="-100"
    unicode-range="U+000A-20AC"
  />
<missing-glyph horiz-adv-x="527" 
d="M50 700h427v-700h-427v700zM78 680l185 -309l186 309h-371zM251 350l-180 300v-601zM264 329l-185 -308h370zM276 350l181 -303v605z" />
    <glyph glyph-name=".notdef" horiz-adv-x="527" 
d="M50 700h427v-700h-427v700zM78 680l185 -309l186 309h-371zM251 350l-180 300v-601zM264 329l-185 -308h370zM276 350l181 -303v605z" />
    <glyph glyph-name=".null" 
 />
    <glyph glyph-name=".null" 
 />
    <glyph glyph-name="LF" unicode="&#xa;" 
 />
    <glyph glyph-name="controlCR" unicode="&#xd;" 
 />
    <glyph glyph-name="space" unicode=" " horiz-adv-x="401" 
 />
    <glyph glyph-name="exclam" unicode="!" horiz-adv-x="202" 
d="M101.479 55.1445c-20.625 -2.16602 -49.7744 10.4141 -50.4561 34.5078c-2.63184 93.2422 0.489258 186.67 1.87305 279.923c0.677734 45.8623 1.21094 91.7246 1.76074 137.59c0.280273 23.415 -0.25293 46.8096 -0.236328 70.2178
c0.00683594 12.2607 -0.144531 24.5752 0.0810547 36.8291c0.212891 11.4717 3.14453 20.6455 5.82324 31.6211c3.96484 16.2324 28.1494 17.8584 35.6426 3.74512c6.08691 -11.4648 10.7461 -20.0781 13.499 -32.9395c2.55371 -11.917 4.72656 -24.0703 6.4707 -36.1357
c3.16504 -21.9102 4.87207 -44.1416 6.76172 -66.1865c3.89355 -45.4131 5.6543 -91.042 8.12695 -136.55c5.03711 -92.7061 11.8086 -185.521 12.834 -278.379c0.269531 -24.2656 -18.3711 -41.7393 -42.1807 -44.2432zM151.251 -99.1543
c6.5625 -36.0811 -59.501 -43.3086 -65.7461 -6.91016c-3.71777 21.6475 -6.8457 43.2842 -7.83398 65.2383c-0.985352 21.8193 -2.15625 44.1621 22.9219 51.9121c12.5684 3.88672 28.2266 0.489258 34.2559 -12.3047c6.38379 -13.5498 6.21875 -31.2803 8.35156 -45.9434
c2.53027 -17.3691 4.90918 -34.7178 8.05078 -51.9922z" />
    <glyph glyph-name="quotedbl" unicode="&#x22;" horiz-adv-x="248" 
d="M57.2783 534.101c6.41016 33.9424 70.9883 26.4375 61.2275 -7.72363c-3.96484 -13.8838 -6.78223 -27.8213 -9.53223 -41.9746c-2.70605 -13.9346 -4.32227 -28.4053 -14.7139 -38.7764c-9.06543 -9.05273 -24.3086 -9.14062 -33.1719 0.144531
c-19.3467 20.2676 -8.46191 63.6904 -3.80957 88.3301zM134.205 524.44c6.50879 34.502 72.0273 27.4463 62.6279 -7.89941c-6.38379 -23.9922 -6.50879 -51.4932 -17.666 -73.8115c-8.32031 -16.6436 -34.4922 -15.0273 -42.8193 0.25293
c-12.835 23.5605 -6.87988 56.3623 -2.14258 81.458z" />
    <glyph glyph-name="quotedbl" unicode="&#x201d;" horiz-adv-x="248" 
d="M57.2783 534.101c6.41016 33.9424 70.9883 26.4375 61.2275 -7.72363c-3.96484 -13.8838 -6.78223 -27.8213 -9.53223 -41.9746c-2.70605 -13.9346 -4.32227 -28.4053 -14.7139 -38.7764c-9.06543 -9.05273 -24.3086 -9.14062 -33.1719 0.144531
c-19.3467 20.2676 -8.46191 63.6904 -3.80957 88.3301zM134.205 524.44c6.50879 34.502 72.0273 27.4463 62.6279 -7.89941c-6.38379 -23.9922 -6.50879 -51.4932 -17.666 -73.8115c-8.32031 -16.6436 -34.4922 -15.0273 -42.8193 0.25293
c-12.835 23.5605 -6.87988 56.3623 -2.14258 81.458z" />
    <glyph glyph-name="quotedbl" unicode="&#x201c;" horiz-adv-x="248" 
d="M57.2783 534.101c6.41016 33.9424 70.9883 26.4375 61.2275 -7.72363c-3.96484 -13.8838 -6.78223 -27.8213 -9.53223 -41.9746c-2.70605 -13.9346 -4.32227 -28.4053 -14.7139 -38.7764c-9.06543 -9.05273 -24.3086 -9.14062 -33.1719 0.144531
c-19.3467 20.2676 -8.46191 63.6904 -3.80957 88.3301zM134.205 524.44c6.50879 34.502 72.0273 27.4463 62.6279 -7.89941c-6.38379 -23.9922 -6.50879 -51.4932 -17.666 -73.8115c-8.32031 -16.6436 -34.4922 -15.0273 -42.8193 0.25293
c-12.835 23.5605 -6.87988 56.3623 -2.14258 81.458z" />
    <glyph glyph-name="numbersign" unicode="#" horiz-adv-x="529" 
d="M395.137 611.729c21.8701 33.5234 89.6719 28.2324 82.9209 -20.2314c-4.3291 -31.1143 -15.3281 -60.4609 -24.8125 -90.3438c-8.95117 -28.2031 -18.6475 -56.1562 -27.3721 -84.4365c-15.2197 -49.3369 -28.9346 -99.1436 -41.1689 -149.308
c12.4736 -2.47949 24.8496 -5.58398 37.084 -9.56543c21.2422 -6.91309 3.93066 -32.8887 -14.5928 -26.8633c-9.64941 3.1416 -19.4404 5.68848 -29.3262 7.77344c-2.67578 -11.5322 -5.30371 -23.0781 -7.90137 -34.627
c1.93359 -0.108398 3.86719 -0.192383 5.80078 -0.310547c22.2988 -1.36328 14.2988 -30.2607 -6.13379 -28.9277c-2.02148 0.131836 -4.03906 0.226562 -6.05957 0.347656c-8.37793 -38.5781 -16.1484 -77.2773 -22.8457 -116.199
c-10.4521 -60.7207 -19.5215 -122.009 -39.6943 -180.183c-8.69141 -25.0654 -50.5996 -29.0703 -55.9707 0.549805c-11.4043 62.8799 -5.38477 128.122 3.0127 191.319c4.7168 35.5107 10.0645 70.9844 16.3096 106.289
c-9.43652 -0.225586 -18.8701 -0.5625 -28.2969 -1.01172c-20.1221 -93.8057 -35.9834 -188.661 -50.4336 -283.395c-2.84473 -18.6611 -23.8408 -28.3818 -40.5449 -28.4189c-15.2168 -0.0341797 -37.832 10.8066 -37.4707 29.1846
c1.81836 92.0752 11.3906 183.084 26.9414 273.455c-19.582 -2.6084 -39.1172 -5.66504 -58.5879 -9.22168c-20.5908 -3.76172 -23.0947 24.04 -2.92188 27.8086c22.1738 4.13965 44.4355 7.62109 66.7539 10.5156c2.95215 15.834 6.08301 31.6514 9.38281 47.4551
c-27.626 -1.86914 -55.2109 -4.33887 -82.6982 -7.37891c-20.1562 -2.23047 -22.7441 24.2754 -2.83789 27.0049c30.5439 4.18359 61.1357 7.37207 91.7979 9.5918c25.0244 114.117 56.2373 230.191 104.472 336.552c9.84473 21.708 39.1611 28.6689 60.1543 23.7734
c19.373 -4.52148 40.7676 -24.5186 33.9619 -46.7432c-17.5518 -57.3369 -38.3486 -113.584 -55.7949 -170.965c-13.9678 -45.9463 -26.9307 -92.2373 -38.7324 -138.801c8.38379 0.0302734 16.7783 0.0136719 25.166 -0.0947266
c11.8633 51.4326 25.3018 102.504 40.292 153.113c8.99121 30.3486 18.1045 60.7881 29.124 90.4688c11.748 31.6377 22.5107 63.4443 41.0234 91.8223zM269.678 205.801c2.68262 13.9346 5.53809 27.8291 8.55469 41.6895
c-8.66797 0.0439453 -17.3223 -0.00683594 -25.9395 -0.108398c-0.259766 -1.07617 -0.546875 -2.14551 -0.803711 -3.21875c-3.1377 -13.0605 -6.14746 -26.1553 -9.09668 -39.2666c9.08984 0.411133 18.1855 0.691406 27.2852 0.904297z" />
    <glyph glyph-name="dollar" unicode="$" horiz-adv-x="369" 
d="M281.331 168.043c18.5098 -33.6455 36.625 -77.0068 37.5322 -115.932c0.428711 -18.4287 -7.03809 -36.3145 -14.1602 -52.999c-6.07617 -14.2275 -16.7715 -25.584 -30.7734 -32.2305c-16.1709 -7.67578 -33.1758 -8.4043 -49.4619 -4.63867
c1.1543 -18.4316 2.3623 -36.8633 3.68457 -55.2852c1.22168 -17.0215 -29.1807 -20.1357 -30.3545 -3.19141c-1.64648 23.7695 -3.10449 47.5459 -4.46094 71.3291c-5.87402 3.51855 -11.4678 7.50293 -16.667 11.8252c-54.7588 45.5312 -77.999 114.222 -94.6865 181.057
c-4.00781 16.0566 27.9229 22.4805 32.2012 7.17578c10.9453 -39.1611 23.6279 -78.7783 44.2061 -114.08c6.99805 -12.0049 18.6182 -29.124 32.6777 -43.5615c-2.24707 45.0625 -3.98145 90.1484 -5.19922 135.245c-8.4082 11.6338 -16.9033 23.2061 -25.6387 34.627
c-50.5791 66.126 -117.073 128.396 -109.661 218.858c5.68164 69.3789 69.8545 121.686 136.783 116.507c1.51465 43.2842 3.46484 86.5586 5.91113 129.81c0.870117 15.4023 29.0225 13 28.1279 -3.5459c-2.375 -43.9824 -4.23047 -87.9893 -5.61426 -132.006
c68.8486 -22.7471 94.8721 -97.1865 101.04 -163.809c1.82227 -19.6836 -32.0928 -23.0645 -35.0752 -3.68457c-6.16797 40.0723 -18.0205 84.2207 -52.3672 109.565c-4.54102 3.35059 -9.59863 6.45508 -14.9326 9.07324
c-1.52148 -66.0049 -1.92285 -132.036 -1.22461 -198.051c25.4258 -32.3291 48.2539 -65.957 68.1133 -102.059zM183.703 308.862c-0.0439453 55.7373 0.685547 111.479 2.2041 167.203c-13.627 0.59082 -26.5791 -4.15625 -35.5439 -17.7568
c-17.3594 -26.3408 -11.2393 -63.0322 0.0195312 -90.6816c8.67773 -21.3164 20.3174 -40.4336 33.3203 -58.7646zM254.419 -7.69531c43.7734 16.2725 -8.27344 74.0449 -22.3057 94.4912c-4.97656 7.25781 -9.96973 14.4951 -14.9736 21.7217
c1.44434 -38.1152 3.22949 -76.2207 5.40527 -114.303c10.4219 -4.54492 21.2324 -5.86426 31.874 -1.91016z" />
    <glyph glyph-name="percent" unicode="%" horiz-adv-x="574" 
d="M490.189 537.562c-26.2793 -59.8271 -59.5088 -116.536 -87.7354 -175.492c-27.4062 -57.2422 -52.9941 -115.47 -76.9961 -174.221c-23.4082 -57.2998 -44.4551 -115.548 -64.9482 -173.944c-10.9482 -31.1992 -21.3535 -62.5801 -32.2012 -93.8125
c-5.72852 -16.502 -10.9277 -33.1934 -17.6416 -49.3242c-3.00586 -7.22656 -5.58008 -15.7588 -9.50391 -22.5c-2.40918 -4.00781 -5.38184 -7.52637 -8.91406 -10.5596c-0.222656 -0.259766 -0.384766 -0.435547 -0.59082 -0.671875
c-0.624023 -19.5449 -31.0137 -23.7754 -42.8027 -11.0791c-19.1064 20.5781 -12.7266 55.6709 -8.2998 80.6553c4.96973 28.0615 10.4961 55.9404 17.376 83.5967c25.5918 102.858 59.8271 203.314 99.458 301.601c19.501 48.3721 41.2363 95.9414 63.9131 142.896
c22.7471 47.1074 45.751 94.542 75.7119 137.546c15.3545 22.042 42.2148 32.9131 68.5117 23.0107c24.5723 -9.25488 35.1055 -33.9287 24.6631 -57.7012zM209.309 362.997c8.78613 -39.0264 -9.96387 -86.3447 -49.7432 -99.0273
c-49.7148 -15.8477 -97.8242 16.7852 -108.921 65.4346c-2.75977 12.1025 3.59375 21.6006 13.459 27.4814c-0.914062 29.6533 36.5938 59.4727 61.46 65.9238c42.7852 11.1006 74.7842 -20.0137 83.7451 -59.8125zM119.929 344.847
c4.16992 -13.9648 12.1641 -33.5752 29.7832 -33.6152c21.3066 -0.0537109 27.9502 22.6094 25.7539 39.7861c-2.58789 20.2197 -15.2676 48.2637 -39.8945 43.4932c-11.2998 -2.18945 -33.3447 -17.2275 -37.252 -31.8262
c10.0879 -2.04785 18.5967 -7.74609 21.6094 -17.8379zM472.281 149.622c46.3818 -17.6592 58.8496 -73.9414 48.1445 -117.877c-12.3691 -50.7344 -57.8564 -87.6416 -110.912 -84.2979c-49.8701 3.1416 -94.5273 49.0781 -80.4209 100.625
c5.66797 20.7061 27.916 29.6406 47.4307 27.6699c-3.97754 2.55762 -6.72363 6.37012 -6.59863 11.3838c1.19141 48.2275 59.9795 78.627 102.356 62.4961zM460.582 45.3691c6.72754 17.6758 9.25977 50.6416 -11.8545 60.9014
c-17.875 8.68457 -35.7266 -21.5557 -46.958 -30.7393c-2.75977 -2.25391 -6.76465 -3.38379 -11.002 -3.50879c12.4062 -5.58008 20.6084 -16.9668 16.8027 -33.8467c-2.43945 -10.8232 3.14746 -24.5312 15.6279 -25.6787
c18.0342 -1.66016 31.6553 17.8242 37.3838 32.8721z" />
    <glyph glyph-name="ampersand" unicode="&#x26;" horiz-adv-x="499" 
d="M421.171 176.579c53.5576 -43.7637 18.915 -126.296 -17.0889 -169.108c-44.6172 -53.0625 -111.418 -90.4834 -181.968 -86.4482c-38.6084 2.20996 -76.9707 19.6367 -98.8672 52.4111c-22.0254 32.9668 -28.0205 72.7217 -21.165 111.485
c6.79492 38.4297 24.0391 72.7969 47.0938 103.236c-6.38672 1.9873 -12.6318 4.30176 -18.6611 6.96387c-49.5225 21.8535 -84.2236 63.2617 -80.1953 119.425c3.46875 48.3213 32.8662 94.9561 67.8301 127.215c35.0381 32.3291 81.4873 59.3311 130.483 57.9512
c22.4434 -0.634766 44.9141 -8.64453 61.1221 -24.5391c16.9336 -16.6064 22.1699 -40.0791 25.7568 -62.7188c3.24609 -20.4697 -35.2441 -28.4121 -40.4404 -9.01172c-4.70312 17.5576 -11.4678 44.8359 -30.6016 52.127
c-15.874 6.0459 -36.8398 -2.25781 -51.0342 -9.1543c-35.5342 -17.2676 -64.1523 -47.707 -81.4004 -82.958c-16.627 -33.9824 -20.4766 -77.1895 16.9775 -98.0674c6.71387 -3.74512 17.2207 -7.2334 22.6865 -8.50586
c8.94727 -2.08496 18.2158 -2.48633 23.0781 -2.14258c12.0791 0.857422 12.2617 1.23535 21.4756 4.62988c1.47461 0.624023 2.95215 1.24805 4.42676 1.87207c-5.37109 -2.16602 -3.29297 -1.08301 6.20801 3.24609c3.97754 3.05664 7.97949 6.0498 11.998 8.97168
c35.5518 25.8613 95.5537 -16.2793 60.5898 -54.1152c-11.1709 -12.0859 -24.4102 -21.1348 -38.834 -27.501c-33.999 -27.3359 -62.499 -65.9033 -74.2744 -105.969c-11.7822 -40.0859 -6.00293 -95.8604 42.002 -108.063
c42.7881 -10.8779 98.5996 1.36914 131.819 30.5508c32.9229 28.9219 69.0176 83.084 51.7061 128.956c-9.22754 24.458 -35.6455 34.458 -60.1367 29.5352c-13.6641 -2.74609 -25.999 -9.83496 -36.9746 -18.2197c-4.13965 -3.16504 -29.2754 -22.6289 -25.4023 -28.8135
c7.93555 -12.6758 -17.501 -23.1348 -25.0381 -12.0576c-19.7109 28.9619 33.3779 65.2354 55.207 75.9775c31.8877 15.6885 73.0908 16.1504 101.621 -7.16016z" />
    <glyph glyph-name="quotesingle" unicode="'" horiz-adv-x="170" 
d="M119.993 533.581c1.20801 -17.7744 -1.81152 -34.1152 -5.77637 -51.3896c-3.64062 -15.8574 -6.10352 -33.0479 -17.9492 -44.958c-8.92773 -8.97461 -24.5791 -9.31543 -33.2773 0.145508c-11.708 12.7334 -12.1602 31.9854 -12.8379 48.541
c-0.80957 19.792 1.5625 36.749 8.45215 55.1611c9.53125 25.4736 59.4688 20.6992 61.3887 -7.5z" />
    <glyph glyph-name="quotesingle" unicode="&#x2019;" horiz-adv-x="170" 
d="M119.993 533.581c1.20801 -17.7744 -1.81152 -34.1152 -5.77637 -51.3896c-3.64062 -15.8574 -6.10352 -33.0479 -17.9492 -44.958c-8.92773 -8.97461 -24.5791 -9.31543 -33.2773 0.145508c-11.708 12.7334 -12.1602 31.9854 -12.8379 48.541
c-0.80957 19.792 1.5625 36.749 8.45215 55.1611c9.53125 25.4736 59.4688 20.6992 61.3887 -7.5z" />
    <glyph glyph-name="quotesingle" unicode="&#x2018;" horiz-adv-x="170" 
d="M119.993 533.581c1.20801 -17.7744 -1.81152 -34.1152 -5.77637 -51.3896c-3.64062 -15.8574 -6.10352 -33.0479 -17.9492 -44.958c-8.92773 -8.97461 -24.5791 -9.31543 -33.2773 0.145508c-11.708 12.7334 -12.1602 31.9854 -12.8379 48.541
c-0.80957 19.792 1.5625 36.749 8.45215 55.1611c9.53125 25.4736 59.4688 20.6992 61.3887 -7.5z" />
    <glyph glyph-name="parenleft" unicode="(" horiz-adv-x="461" 
d="M361.855 -91.4473c26.0605 10.7119 67.583 -22.543 39.2822 -46.1367c-39.0195 -32.5254 -85.4922 -51.2744 -136.786 -51.1836c-50.9395 0.0878906 -98.6641 22.3057 -130.237 62.6748c-50.2217 64.2129 -71.7646 154.301 -80.3037 233.791
c-9.16992 85.3574 -1.53418 171.872 20.2988 254.776c20.6084 78.2588 53.9229 159.085 104.38 222.984c22.6494 28.6855 50.9873 49.5059 83.2217 66.1768c24.7852 12.8213 77.4219 35.707 88.9102 -6.18066c4.39648 -16.0293 -19.4941 -23.2695 -26.7754 -9.31836
c-8.67773 16.6299 -42.7617 -8.44531 -50.9873 -16.5156c-10.749 -10.5439 -19.8047 -22.333 -27.626 -35.1709c-17.5381 -28.79 -31.6514 -59.1221 -43.501 -90.6748c-46.8848 -124.847 -66.1943 -266.499 -43.8994 -398.491
c5.5332 -32.7441 13.3037 -64.3682 24.374 -95.5703c9.97656 -28.1182 21.4482 -56.1123 38.6592 -76.7373c16.9609 -20.3281 34.3506 -29.498 59.3311 -31.9648c24.0967 -2.37891 54.7656 6.48828 81.6592 17.541z" />
    <glyph glyph-name="parenright" unicode=")" horiz-adv-x="393" 
d="M327.747 349.855c14.5352 -87.1699 19.4463 -174.359 12.8535 -262.544c-5.99512 -80.2734 -17.7832 -168.722 -70.832 -232.735c-50.0225 -60.3672 -159.048 -85.9248 -212.849 -15.6992c-25.2881 33.0078 24.8184 61.0254 52.5557 42.9541
c3.90332 -2.54395 10.7998 -5.94141 13.7383 -6.76465c0.951172 -0.266602 6.49414 -1.04297 8.57227 -1.40039c1.65332 0.0947266 6.4375 0.125 6.96094 0.178711c15.085 1.50488 14.7109 1.31641 27.4746 10.0684c5.59766 3.83984 18.3916 16.1816 23.8809 23.9346
c5.5166 7.79004 14.0322 24.2783 18.2598 36.0127c22.0693 61.2373 29.8398 131.273 32.124 195.969c2.42578 68.7441 -1.12012 138.089 -9.26465 206.367c-7.22363 60.5488 -16.748 121.351 -38.0273 178.782c-10.5029 28.3477 -22.2646 56.8438 -38.2812 82.6074
c-7.90527 12.7129 -17.3047 22.8008 -32.6465 25.4795c-13.584 2.37207 -26.1523 -0.927734 -35.5352 -11.168c-11.6943 -12.7607 -36.8906 1.0625 -24.1104 16.4844c25.3281 30.5684 65.9062 27.8857 98.6201 12.585c38.4902 -18.0068 67.1152 -46.8545 90.541 -82.0684
c43.251 -65.0156 63.2588 -142.836 75.9648 -219.043z" />
    <glyph glyph-name="asterisk" unicode="*" horiz-adv-x="266" 
d="M203.247 436.04c21.1074 -0.667969 13.3896 -27.9346 -5.79785 -27.3242c-11.5156 0.368164 -23.0137 0.415039 -34.4922 0.185547c7.77734 -9.64258 15.3115 -19.501 22.7744 -29.3594c11.2559 -14.8721 -15.1113 -29.0693 -24.8418 -15.7793
c-3.57324 4.87891 -7.15625 9.76465 -10.7764 14.623c0.350586 -6.70703 0.731445 -13.4141 1.16309 -20.1455c1.05957 -16.5625 -25.4229 -18.5938 -28.9414 -3.04297c-2.04492 9.04199 -3.58984 18.1582 -4.74414 27.3184
c-5.45898 -7.90527 -10.5869 -16.0566 -15.3311 -24.4512c-7.67188 -13.584 -34.5215 -6.04004 -26.292 9.78711c6.66992 12.835 14.1631 25.0283 22.375 36.6211c-10.8369 -1.27246 -21.6543 -2.80469 -32.4541 -4.60254
c-19.4746 -3.24219 -21.8125 22.835 -2.75293 26.2051c13.9346 2.46289 27.9092 4.42285 41.9141 6.00195c-12.1465 12.0889 -25.3486 23.0947 -40.1973 32.3359c-15.2334 9.48047 4.9668 26.7656 18.0273 18.9072c11.9678 -7.20312 22.9707 -15.5 33.3018 -24.5283
c0.600586 8.39062 1.39355 16.7686 2.34863 25.1123c2.1084 18.4316 36.2734 15.6006 33.7227 -4.25488c-0.783203 -6.08301 -1.36719 -12.1562 -1.85938 -18.2227c8.74902 7.49707 17.916 14.5889 27.5322 21.2285c14.8691 10.2666 35.0352 -9.69727 18.2129 -21.3105
c-11.1445 -7.69629 -21.7051 -16.1348 -31.6748 -25.1973c12.9053 0.313477 25.8311 0.303711 38.7832 -0.107422z" />
    <glyph glyph-name="plus" unicode="+" horiz-adv-x="304" 
d="M240.713 239.618c21.2285 -3.9707 13.876 -31.8418 -5.96582 -28.1367c-15.6553 2.92871 -31.1416 4.43652 -46.5029 4.74316c-0.415039 -5.94141 -0.795898 -11.8359 -1.07227 -17.6455c-1.88574 -39.5967 -0.452148 -78.1875 -12.082 -116.303
c-5.01074 -16.418 -30.9492 -24.6338 -42.3057 -9.25488c-23.6113 31.9648 -22.083 79.4297 -23.7461 117.346c-0.239258 5.45215 -0.492188 11.0127 -0.72168 16.6406c-12.9189 -3.17188 -25.7842 -7.0752 -38.6123 -11.6836
c-17.6426 -6.33594 -28.2871 15.666 -10.6855 24.0332c15.5332 7.38574 31.8193 13.0469 48.5166 17.21c-0.185547 28.4121 1.75488 57.2793 10.3418 82.8945c10.6748 31.8398 63.8379 36.4053 70.5117 -0.691406c4.25488 -23.6514 3.5332 -48.7871 1.91016 -73.6934
c16.9814 -0.542969 33.8887 -2.36523 50.4141 -5.45898z" />
    <glyph glyph-name="comma" unicode="," horiz-adv-x="259" 
d="M125.065 88.6875c22.4404 41.79 104.467 17.8809 79.459 -29.584c-26.3369 -49.9746 -54.1953 -102.551 -95.0273 -142.252c-10.3311 -10.0439 -26.3105 -13.8096 -39.9443 -8.67773c-11.2354 4.23047 -22.8516 17.3926 -18.6885 30.3994
c17.0254 53.1738 47.8906 101.124 74.2012 150.114z" />
    <glyph glyph-name="hyphen" unicode="-" horiz-adv-x="335" 
d="M284.771 173.604c2.15625 -20.5107 -17.6738 -37.5664 -37.0234 -38.8389c-29.3301 -1.91992 -58.6396 -2.3584 -88.0234 -2.95215c-28.459 -0.573242 -61.7568 -4.25098 -89.3389 4.05566c-14.1602 4.26465 -21.9404 18.7461 -20.1221 32.7344
c0.0400391 0.306641 0.0800781 0.617188 0.120117 0.923828c1.82227 14.0293 18.2803 23.8711 30.9932 25.0186c18.543 1.67383 50.0723 5.20605 74.3545 6.39062c28.2705 1.37988 56.4463 2.85449 84.75 2.95605c19.3467 0.0712891 41.9082 -7.63184 44.29 -30.2881z" />
    <glyph glyph-name="period" unicode="." horiz-adv-x="209" 
d="M88.2637 60.4688c20.9658 34.5928 84.7139 17.7637 67.8779 -25.2715c-11.4609 -29.3057 -34.1475 -65.8789 -62.6611 -81.0146c-18.6309 -9.88867 -45.4502 -2.24707 -43.3652 22.251c1.28223 15.0273 10.0244 29.4951 16.4043 42.957
c6.66992 14.083 13.6738 27.7578 21.7441 41.0781z" />
    <glyph glyph-name="slash" unicode="/" horiz-adv-x="496" 
d="M417.402 557.785c22.6729 -8.53613 36.7871 -34.3164 24.3203 -56.9014c-30.625 -55.4951 -63.9736 -109.418 -94.5752 -164.953c-30.1602 -54.7285 -58.2686 -110.466 -86.3398 -166.281c-28.5537 -56.7803 -55.6465 -114.381 -82.4121 -172.021
c-13.1787 -28.3887 -26.0098 -56.9121 -39.4209 -85.1895c-13.5293 -28.5303 -26.8799 -56.8779 -47.2891 -81.2412c-10.6445 -12.7031 -40.5137 -9.30566 -41.4883 9.88184c-1.66016 32.7109 7.62109 64.1729 16.6768 95.2705
c8.62402 29.6133 18.8604 58.6494 29.3398 87.6523c21.6572 59.9453 45.8955 118.669 72.0264 176.795c25.5576 56.8516 54.0977 112.424 83.5723 167.331c30.5039 56.8271 61.5811 113.709 98.0234 166.964c14.9502 21.8496 41.7998 32.3936 67.5664 22.6934z" />
    <glyph glyph-name="zero" unicode="0" horiz-adv-x="417" 
d="M50.0693 200.731c-1.00586 59.8535 8.70117 128.673 39.7451 182.774c-21.3232 30.8545 13.3438 77.1582 39.3877 95.4277c41.1045 28.834 87.2539 17.541 127.775 -5.85059c86.248 -49.793 111.85 -167.5 109.535 -259.511
c-1.23828 -49.2061 -8.61328 -99.2852 -36.9238 -140.893c-30.2441 -44.4414 -79.7061 -74.8545 -134.712 -71.2305c-44.5938 2.93848 -82.2236 29.4443 -107.461 65.0596c-27.292 38.5166 -36.5674 87.7832 -37.3467 134.223zM167.28 462.898
c-15.2939 -5.06738 -28.2227 -16.4131 -37.2139 -29.5986c2.27441 1.99023 4.5957 3.93359 6.98828 5.8125c14.3359 11.2451 47.2012 -4.03906 34.2246 -23.4053c-20.5713 -30.6992 -40.7881 -61.4053 -51.6152 -97.1055
c-10.4219 -34.3672 -14.3799 -70.4248 -13.3506 -106.263c0.992188 -34.5928 5.17285 -70.9102 24.8223 -100.426c8.12402 -12.207 18.4111 -22.4707 31.4482 -29.374c4.12598 -2.18262 9.71289 -4.48047 13.5293 -5.46191
c3.84961 -0.988281 8.11719 -1.44727 12.0879 -1.59277c0.586914 -0.0205078 1.01562 -0.0478516 1.36621 -0.0751953c0.93457 0.155273 2.30469 0.357422 4.42383 0.624023c2.35547 0.296875 3.26953 0.320312 3.58691 0.273438
c0.293945 0.202148 1.19824 0.644531 3.63086 1.55859c3.06348 1.1543 6.21484 1.98047 9.28516 3.16113c9.69336 3.72168 4.03906 2.05859 2.4668 1.1748c3.60645 2.02734 7.04785 4.31152 10.3984 6.73047c5.37109 3.87695 17.3828 14.9229 21.4756 20.4863
c20.4766 27.8623 26.917 65.0234 30.2939 98.5908c7.10547 70.5869 -2.98633 146.032 -33.291 210.242c-13.8398 29.3262 -39.1006 56.3887 -74.5576 44.6475z" />
    <glyph glyph-name="one" unicode="1" horiz-adv-x="290" 
d="M231.18 8.78418c-3.00293 -24.998 -32.7734 -38.5244 -54.6807 -38.332c-20.1328 0.182617 -51.5068 14.4414 -50.5352 39.3613c3.70117 95.1318 18.2832 189.646 22.1426 284.853c1.87598 46.3008 5.99512 94.0391 -0.351562 140.154
c-2.26758 16.4854 -5.06445 39.3604 -26.9482 32.1738c-19.0996 -6.27246 -32.2783 -24.0527 -39.9102 -41.7158c-7.08887 -16.4043 -37.1572 -7.45312 -29.7246 11.0664c16.6367 41.4521 61.5107 74.3984 106.786 57.6465
c49.2803 -18.2363 61.1191 -82.8438 69.5098 -128.287c10.5137 -56.9424 13.1826 -115.706 12.542 -173.519c-0.674805 -60.9639 -1.55566 -122.822 -8.83008 -183.401z" />
    <glyph glyph-name="two" unicode="2" horiz-adv-x="348" 
d="M100.813 -38.9941c-33.3174 15.125 -52.7344 44.5068 -50.666 81.4248c1.7373 31 15.8066 61.5713 27.292 89.9834c22.9531 56.7871 51.2812 111.364 72.6826 168.799c10.3008 27.6465 18.9824 56.7363 24.04 85.8135c3.77246 21.6807 12.5752 56.2197 -3.89648 74.8369
c-13.6582 15.4326 -36.3037 4.5957 -49.4854 -6.04199c-7.8584 -6.34668 -48.0693 -52.04 -26.8096 -57.9043c18.1582 -5.01074 4.54785 -24.9473 -9.07324 -24.4238c-33.4727 1.28223 -36.9854 40.7305 -31.2871 66.3857c6.34961 28.5674 29.0898 53.5176 54.4414 66.8037
c29.7451 15.5908 64.2539 19.2783 93.9688 1.53809c24.9199 -14.876 42.4648 -41.21 50.2451 -68.6299c19.2285 -67.7627 -1.79785 -143.7 -26.8223 -207.222c-12.7334 -32.3154 -27.3223 -63.8623 -41.0508 -95.7598
c-12.4531 -28.9414 -26.4883 -59.1016 -32.4805 -90.2295c-2.02734 -10.5371 -3.2793 -22.5654 0.890625 -28.251c3.48145 -4.74414 12.0918 -6.91406 20.3213 -7.53125c31.2803 -2.35156 57.374 17.2305 85.5869 27.1738
c20.6992 7.29102 54.0107 -16.9814 31.3311 -36.8105c-49.0811 -42.917 -127.553 -67.9551 -189.229 -39.9551z" />
    <glyph glyph-name="three" unicode="3" horiz-adv-x="386" 
d="M179.958 -24.0273c-59.6113 -4.13672 -109.774 33.2773 -127.781 89.1367c-16.3193 50.6191 63.8154 74.5068 85.3584 29.7041c5.70508 -11.8662 11.7109 -22.9395 21.9033 -32.582c-3.0332 2.87109 11.1104 -7.01074 5.59766 -3.97754
c4.72363 -2.60156 3.07715 -1.30566 6.10352 -1.76758c0.97168 -0.148438 1.64355 -0.256836 2.08203 -0.331055c11.1172 0.283203 16.8662 3.26562 27.8721 10.5537c7.01465 4.64551 17.5107 14.4062 22.6699 21.3301c24.6396 33.0547 26.2422 84.0723 -5.77344 108.82
c-21.499 16.6172 -46.6621 13.1992 -71.3564 25.2373c-18.7725 9.15039 -29.8623 27.4775 -24.8652 48.666c3.96484 16.8154 19.9873 29.2148 31.5596 41.0674c18.5977 19.0391 37.6904 38.7627 52.8223 60.7334c12.7334 18.4922 39.1377 52.8662 25.7637 76.7266
c-14.9092 26.5967 -56.4326 18.2188 -77.7051 7.13574c-23.8037 -12.4062 -44.9043 -31.7354 -48.6797 -59.3945c-2.28711 -16.7412 -32.3799 -14.0088 -30.46 3.84277c8.14453 75.6777 120.757 125.285 179.137 73.8057c15.5811 -13.7383 26.5732 -27.9629 30.8682 -48.79
c4.46387 -21.6406 -0.59668 -44.54 -7.625 -65.124c-7.19629 -21.0771 -18.3477 -41.0918 -31.0068 -59.3281c-4.48438 -6.45801 -9.12402 -12.8076 -13.8066 -19.127c10.1553 -3.39453 19.8115 -7.5918 29.4775 -12.751c24.2314 -12.9424 42.751 -31.9785 56.3008 -55.7715
c25.7061 -45.1396 22.3691 -102.193 -2.67188 -146.79c-27.3662 -48.7432 -79.0381 -87.0879 -135.784 -91.0254zM187.709 293.519c-6.01953 0.762695 -5.9043 0.708984 0.219727 -0.148438c-0.0742188 0.046875 -0.148438 0.0976562 -0.219727 0.148438z" />
    <glyph glyph-name="four" unicode="4" horiz-adv-x="381" 
d="M165.69 116.498c-40.9434 1.90625 -86.0576 36.1035 -102.833 73.0684c-21.1143 46.5166 -11.5859 104.022 -3.99805 152.658c7.82422 50.1533 14.6094 104.821 42.4551 148.521c7.34863 11.5283 26.1689 12.6924 32.8662 -0.196289
c19.0459 -36.6514 23.2734 -82.3682 22.582 -123.089c-0.671875 -39.6172 -7.58496 -80.0098 -3.39746 -119.546c2.8916 -27.2852 4.21387 -59.3984 26.2529 -77.9219c11.998 -10.0879 25.3018 -10.6484 38.4873 -6.71484
c-0.617188 9.01855 -1.12988 18.0342 -1.53809 27.0293c-3.79883 84.0957 -5.11426 168.667 3.05371 252.526c2.58398 26.5596 35.2637 40.9258 58.0947 40.7197c22.1738 -0.202148 53.7402 -15.2773 53.6895 -41.8203
c-0.138672 -76.5752 -3.8125 -153.104 -3.44141 -229.709c0.195312 -40.5615 1.0957 -81.4873 -1.12109 -121.998c-1.65625 -30.251 0.810547 -66.3486 -11.835 -94.4707c-3.86621 -8.59375 -14.8047 -14.1035 -23.7422 -14.832
c-48.7539 -3.96094 -55.417 55.1611 -62.0098 90.6045c-3.4043 18.3242 -5.98535 36.874 -7.97949 55.502c-17.4229 -7.12207 -35.8955 -11.2451 -55.5859 -10.3311z" />
    <glyph glyph-name="five" unicode="5" horiz-adv-x="390" 
d="M103.456 459.173c-20.9932 1.12305 -40.1973 8.63281 -51.8408 29.9561c-8.88672 16.2793 21.4893 25.3486 29.8838 10.4023c9.38672 -16.7217 31.2158 -15.0615 50.0156 -11.168c4.53809 3.00293 10.1729 4.11328 15.8271 3.70508
c1.03906 0.25 2.05762 0.496094 3.02246 0.71875c20.959 4.85156 41.9824 10.4629 63.6436 10.6279c34.7041 0.262695 69.709 -13.1045 86.5615 -44.9814c9.49414 -17.9629 -24.3604 -28.6377 -32.9912 -11.4775c-17.5205 34.8398 -60.6533 29.334 -94.5518 22.1641
c-0.121094 -1.44727 -0.415039 -2.93164 -0.938477 -4.45312c-2.51367 -32.0859 -13.6885 -64.2871 -9.55859 -96.6875c1.5957 -12.5273 9.3252 -15.6719 19.8447 -22.2979c15.1191 -9.52441 30.6191 -18.4824 45.3906 -28.5498
c47.3369 -32.2588 84.751 -79.7441 101.003 -135.077c15.8066 -53.8242 18.5059 -117.808 -11.4043 -167.661c-36.8701 -61.46 -117.056 -82.2432 -179.008 -45.5215c-54.3477 32.2109 -79.123 104.524 -71.3359 164.621c4.69629 36.2432 64.0879 38.3887 77.958 8.19531
c12.8447 -27.96 14.542 -60.6709 30.9326 -87.2139c3.71484 -6.01562 10.5371 -13.9814 16.7383 -18.2998c4.95605 -3.45117 6.27148 -4.25098 8.60938 -4.67578c-2.28125 0.415039 13.8867 -1.50488 6.78418 -0.914062
c1.8418 -0.155273 3.00586 -0.280273 3.74512 -0.37793c-0.269531 0.185547 -0.134766 0.492188 1.4209 0.9375c2.15625 0.617188 4.4541 1.3457 6.5293 2.28027c-0.401367 0.00683594 4.00488 2.85156 3.87695 2.74023c7.91211 6.91309 9.90234 10.8975 14.4639 20.6484
c7.08496 15.1562 9.89844 37.2861 9.26367 55.0938c-1.5625 43.8145 -17.5381 84.9121 -46.9824 117.67c-16.0771 17.8857 -37.1074 31.0479 -58.2119 44.3213c-23.2832 14.6426 -49.7686 30.4668 -60.5752 57.2158c-16.3027 40.3457 -4.08594 91.542 21.8838 128.059z" />
    <glyph glyph-name="six" unicode="6" horiz-adv-x="328" 
d="M158.787 -22.4014c-79.9629 -3.33301 -109.441 90.3486 -108.776 155.405c0.746094 73.1338 19.7178 147.253 45.6133 215.265c12.8682 33.79 28.709 67.6709 48.4395 98.0166c16.8662 25.9385 45.5078 73.3594 80.8564 73.3867
c8.44531 0.00683594 17.3799 -2.22363 21.2197 -10.7695c6.58887 -14.6699 -1.22559 -28.1113 -6.98145 -41.6982c-5.71875 -13.4961 -11.5117 -26.8369 -17.5684 -40.1846c-12.0078 -26.4551 -24.2617 -53.0186 -34.0391 -80.3984
c-18.543 -51.9219 -33.6113 -104.688 -41.3145 -159.39c-0.293945 -2.08887 -0.543945 -4.17383 -0.803711 -6.25879c29.8086 8.08105 61.875 8.05371 89.5654 -7.3418c28.6953 -15.9521 45.4268 -44.8936 42.9844 -77.833
c-4.32227 -58.3184 -59.6689 -115.716 -119.195 -118.199zM220.686 148.425c-24.1133 14.9639 -52.8086 10.9727 -78.0391 1.27246c-0.739258 -13.5195 -0.945312 -27.0664 -0.799805 -40.7617c0.239258 -22.3115 -0.681641 -48.2676 7.20312 -69.5
c8.25977 -22.248 30.1602 -20.3691 49.0273 -11.7246c22.8076 10.4492 40.2305 31.2695 47.0088 55.4707c7.15918 25.5615 -1.64648 51.123 -24.4004 65.2432z" />
    <glyph glyph-name="seven" unicode="7" horiz-adv-x="312" 
d="M71.7959 450.822c-15.1221 -7.04492 -31.2324 14.7432 -15.0508 23.7344c41.2295 22.9229 90.2363 61.9189 135.761 24.2588c40.2441 -33.291 43.6924 -95.3174 44.1846 -143.524c0.296875 -29.0664 -1.16406 -58.4229 -3.78223 -87.6816
c3.67773 0.725586 7.35547 1.4541 11.0332 2.18262c22.4473 4.44043 25.6318 -26.6641 3.21875 -30.6152c-5.84668 -1.03223 -11.6904 -2.06152 -17.5371 -3.09375c-2.04785 -17.5918 -4.40332 -35.1094 -7.03125 -52.4443
c-4.3418 -28.6514 -9.04199 -57.249 -13.9072 -85.8164c-5.21289 -30.5986 -8.97168 -60.8193 -21.4482 -89.4941c-16.5967 -38.1357 -95.6553 -34.5996 -97.4131 11.9004c-1.00879 26.7012 5.30371 51.8369 10.6416 77.7793
c4.94922 24.0566 9.80078 48.1396 14.4434 72.2598c2.96191 15.3955 6.01172 30.7939 9.03809 46.1963c-11.4004 -1.99414 -22.8076 -3.34375 -33.9316 -2.95215c-7.77734 0.276367 -14.5557 7.99219 -13.0342 15.6748c1.74805 8.81934 11.0127 11.7715 18.8271 11.6572
c10.8105 -0.158203 23.1289 3.7793 34.084 6.31348c3.82227 20.0479 7.47656 40.123 10.6885 60.252c6.8252 42.7852 14.9805 87.9824 10.2539 131.382c-1.52832 14.0156 -3.38086 29.4004 -20.0176 29.5391c-20.9385 0.171875 -40.501 -8.88086 -59.0205 -17.5078z" />
    <glyph glyph-name="eight" unicode="8" horiz-adv-x="324" 
d="M113.285 237.454c-20.9756 26.2734 -41.3008 53.3262 -53.2686 84.9102c-16.9609 44.7891 -13.5703 93.7617 19.3291 130.302c24.9033 27.6562 62.415 48.3525 100.14 49.0742c38.9824 0.746094 67.2832 -19.7773 80.5566 -56.1318
c14.6094 -40.0088 14.1846 -86.4111 12.4268 -128.353c-1.9834 -47.3867 -8.5625 -94.335 -15.3613 -141.223c-0.0712891 -0.509766 -0.182617 -0.996094 -0.300781 -1.47852c18.4453 -42.0635 25.7266 -86.6201 5.3584 -130.711
c-15.3584 -33.2471 -46.3857 -64.2705 -84.4941 -66.7305c-37.5693 -2.42578 -67.7188 24.1074 -84.6963 55.2793c-36.4121 66.8477 -17.7676 143.754 20.3105 205.062zM174.697 5.37695c53.9668 1.2041 46.0537 63.7686 30.4766 97.292
c-17.875 38.4795 -44.1143 74.3105 -70.168 107.588c-0.751953 0.964844 -1.51758 1.92285 -2.27637 2.88477c-18.2529 -33.0078 -29.4609 -70.0098 -26.8564 -107.983c2.45605 -35.835 22.7803 -100.811 68.8242 -99.7812zM191.627 465.555
c-34.293 2.79395 -51.4648 -37.002 -51.9678 -63.8926c-0.816406 -43.6221 21.2998 -78.4854 45.6865 -112.64c13.4551 -18.8467 28.4453 -39.3369 42.2412 -60.9736c5.06738 39.1543 8.93066 78.4775 8.36719 117.983c-0.445312 31.3574 1.88965 115.757 -44.3271 119.522z
" />
    <glyph glyph-name="nine" unicode="9" horiz-adv-x="416" 
d="M117.096 233.257c-55.9502 5.74219 -79.1025 60.6494 -61.0996 109.791c17.3525 47.3564 54.1729 87.8779 93.5537 118.271c21.7852 16.8125 45.6592 31.1016 73.4268 34.6445c14.7715 1.88574 30.8311 0.211914 43.1865 -7.23145
c8.91406 11.2354 21.5801 18.499 37.127 17.3818c19.4307 -1.39648 30.9023 -14.8379 38.71 -31.6162c16.4512 -35.3594 17.291 -80.2158 19.8115 -118.446c2.74316 -41.6045 3.75195 -83.2861 4.29199 -124.968c0.540039 -41.7529 -1.62305 -83.5898 -2.5 -125.336
c-0.914062 -43.6113 2.4834 -89.0352 -4.51074 -132.164c-8.88672 -54.8203 -105.227 -54.4766 -112.255 1.09961c-5.57031 44.0371 2.70898 91.4141 6.91602 135.444c3.88379 40.6465 7.35938 81.4102 12.2412 121.941c4.99707 41.4932 9.29199 83.0977 11.9814 124.807
c0.566406 8.75195 1.02148 17.5107 1.47656 26.2695c-11.8965 -25.6924 -24.8457 -51.0205 -40.9668 -74.3516c-28.1523 -40.7373 -67.3438 -81.083 -121.391 -75.5361zM164.317 407.383c-23.8467 -23.334 -56.3018 -60.0967 -57.4014 -95.5059
c-1.01855 -32.7207 27.8291 -34.8633 48.8184 -17.6025c25.4189 20.9053 42.7207 52.9102 57.3564 81.7441c12.9023 25.4229 23.5469 51.8545 35.1025 77.8711c-12.3828 -0.496094 -23.4834 -2.82422 -35.8184 -9.85938
c-17.5645 -10.0137 -33.624 -22.5244 -48.0576 -36.6475z" />
    <glyph glyph-name="colon" unicode=":" horiz-adv-x="185" 
d="M89.3936 283.551c-46.5303 -15.1895 -29.1045 74.5801 -19.9775 93.9463c12.0176 25.5 53.6113 14.7539 52.0557 -12.707c-0.772461 -13.5664 -5.08105 -25.9355 -9.06934 -38.8643c-1.89941 -6.1543 -4.13281 -12.1162 -6.49414 -18.1084
c-0.907227 -2.30469 -5.00293 -15.0518 -6.29199 -12.9697c-1.09277 -4.95996 -4.95898 -9.5791 -10.2227 -11.2969zM76.4502 178.197c13.7383 24.7686 63.8105 18.6025 57.8721 -14.1211c-4.66602 -25.7295 -15.2432 -50.2715 -23.5635 -75.0156
c-5.11523 -15.2129 -19.3799 -24.1299 -35.6318 -22.0615c-14.4404 1.83496 -27.8018 14.2002 -24.667 29.6631c5.6582 27.9131 12.0791 56.46 25.9902 81.5352z" />
    <glyph glyph-name="semicolon" unicode=";" horiz-adv-x="226" 
d="M115.765 297.215c-12.6865 3.10059 -22.1982 13.8604 -19.917 27.4072c2.57129 15.2471 5.0918 30.2881 8.91406 45.2715c4.39648 17.2305 21.9678 25.4189 38.6621 23.9375c14.4443 -1.28223 31.8975 -16.1777 26.7656 -32.1904
c-5.5166 -17.2178 -12.2812 -33.7803 -19.1504 -50.4883c-5.25293 -12.7637 -23.3643 -16.8496 -35.2744 -13.9375zM175.729 200.808c0.739258 -42.0732 -9.94238 -82.541 -25.7021 -121.291c-13.9277 -34.2422 -34.0332 -68.3828 -70.6172 -81.4805
c-17.0215 -6.09375 -39.8125 12.0781 -24.1807 28.4082c43.9014 45.8721 38.4561 118.473 58.8984 174.97c5.20312 14.3701 16.6338 22.4033 32.0156 22.4375c12.4463 0.0273438 29.3291 -8.50879 29.5859 -23.0439z" />
    <glyph glyph-name="less" unicode="&#x3c;" horiz-adv-x="344" 
d="M256.713 148.299c20.1562 -4.71387 37.8584 -16.3691 37.1367 -39.1064c-0.621094 -19.8086 -21.3271 -38.3652 -41.2637 -38.3252c-41.9248 0.0839844 -83.9473 0.823242 -124.451 12.9121c-36.1211 10.7803 -85.3398 40.2451 -77.2559 84.4941
c7.06836 38.6992 63.8828 60.0596 95.2031 74.875c15.2539 7.2168 30.457 14.6162 46.0244 21.1279c7.75293 3.24609 15.3916 6.41797 23.293 9.26855c6.40723 2.31152 17.6631 3.33008 22.6836 6.68066c12.3828 8.25586 33.0049 -5.34766 20.8447 -18.6143
c-3.71094 -4.04492 -4.80762 -11.8623 -8.38379 -16.9062c-4.13672 -5.83398 -8.53613 -11.6172 -13.4785 -16.7725c-10.7998 -11.2627 -23.2764 -20.8242 -35.6924 -30.2002c-12.6895 -9.58496 -25.2842 -19.2783 -37.9023 -28.958
c-2.40234 -1.8418 -4.82812 -3.65039 -7.2373 -5.48242c7.11523 -2.86816 15.4053 -4.70996 21.8223 -5.7793c26.1514 -4.36621 52.7451 -3.15137 78.6572 -9.21387zM141.502 150.922c-5.56738 -4.52832 -1.78516 -2.22363 0.59668 0.522461
c-0.202148 -0.168945 -0.390625 -0.357422 -0.59668 -0.522461z" />
    <glyph glyph-name="equal" unicode="=" horiz-adv-x="368" 
d="M79.8486 141.129c-13.6641 1.12695 -27.4229 12.0879 -28.9043 26.1602c-1.60254 15.2539 10.0684 26.0371 22.832 31.5977c32.0557 13.9678 69.2363 15.9482 103.829 16.9707c18.749 0.553711 37.5322 0.203125 56.2471 -1.03125
c19.002 -1.25488 39.8027 -1.8584 55.2959 -14.2236c22.9229 -18.29 14.1367 -46.6348 -11.3193 -56.8779c-19.1982 -7.72656 -39.499 -3.54297 -59.5205 -2.2207c-13.1113 0.863281 -26.3037 1.37598 -39.4414 1.56836
c-33.0879 0.479492 -65.9639 -4.67285 -99.0186 -1.94336zM286.345 123.316c18.5537 -1.55176 35.5312 -18.6465 31.5293 -37.9248c-4.2373 -20.4229 -26.6172 -29.7822 -45.5488 -28.2002c-34.4443 2.88184 -68.8926 5.22656 -103.452 6.14062
c-16.6943 0.445312 -33.3955 0.185547 -50.083 0.688477c-17.5205 0.529297 -36.29 -0.0849609 -52.4746 7.50977c-17.3828 8.15527 -23.8477 31.3271 -4.4541 42.3672c31.8809 18.1484 74.9121 14.332 110.45 14.0752c38.0547 -0.273438 76.0996 -1.48438 114.033 -4.65625
z" />
    <glyph glyph-name="greater" unicode="&#x3e;" horiz-adv-x="313" 
d="M252.773 219.911c13.5938 -16.0029 12.7412 -38.7041 -1.1084 -54.3154c-11.3838 -12.835 -27.9365 -20.5039 -42.458 -29.1445c-32.4775 -19.3193 -65.7783 -37.2246 -100.055 -53.1328c-41.3848 -19.208 -84.4629 39.124 -41.0498 64.7393
c20.8506 12.3047 42.417 23.1348 64.0605 33.9854c9.92969 4.97656 19.9736 9.69043 30.0479 14.3564c-1.19434 0.72168 -2.375 1.47363 -3.57617 2.18262c-12.625 7.45312 -25.79 14.2549 -38.0645 22.2783c-18.0977 11.8359 -55.1367 39.2529 -32.0928 62.5469
c10.4189 10.5332 26.0068 4.32812 37.3398 -0.237305c14.0156 -5.6416 28.5439 -9.97754 42.5967 -15.5684c28.21 -11.2217 64.0381 -23.7627 84.3594 -47.6904zM184.543 180.938c1.22461 -1.39648 1.72852 -1.74805 1.51562 -1.05664
c-0.496094 0.408203 -1.02539 0.769531 -1.52441 1.1709c0.00292969 -0.0400391 0.00585938 -0.0771484 0.00878906 -0.114258z" />
    <glyph glyph-name="question" unicode="?" horiz-adv-x="405" 
d="M352.399 442.096c10.1045 -76.4336 -9.82617 -154.952 -26.2676 -229.037c-8.24219 -37.127 -17.3047 -74.2236 -22.6152 -111.914c-5.06055 -35.9189 -5.33691 -68.0928 -2.25 -105.77c4.94238 -60.3232 -97.6729 -70.4385 -107.271 -11.2764
c-11.5996 71.5146 5.47266 148.056 26.9277 216.308c19.0732 60.6738 41.5576 120.842 53.9805 183.368c9.52441 47.9473 26.6914 130.997 -33.7803 153.373c-55.4746 20.5273 -109.968 -28.5469 -134.938 -72.9248c-15.2705 -27.1396 -25.7598 -59.9307 -18.9814 -91.207
c5.75293 -26.5391 25.6895 -51.5635 53.5283 -55.7744c22.3486 -3.38086 14.5381 -32.3799 -6.21875 -29.3301c-35.5547 5.22656 -64.9658 30.2988 -77.4658 63.9307c-13.9678 37.5889 -5.60352 79.1289 11.4922 114.204c28.9414 59.3779 86.6025 109.164 155.752 105.665
c30.2441 -1.53223 62.4346 -12.1436 85.0908 -32.5732c27.5146 -24.8086 38.3008 -61.3857 43.0176 -97.042zM303.429 -82.8477c5.26367 -22.123 2.30762 -45.6543 4.94629 -68.2529c4.83105 -41.3945 -71.7578 -48.8174 -73.7686 -7.75293
c-1.37012 27.9199 -1.61328 58.1709 13.2861 82.791c13.415 22.1631 49.3682 19.1504 55.5361 -6.78516z" />
    <glyph glyph-name="at" unicode="@" horiz-adv-x="626" 
d="M573.269 363.892c8.37793 -63.3223 -0.901367 -128.425 -26.5977 -186.842c-27.0723 -61.5371 -83.8291 -134.779 -160.219 -108.277c-26.7959 9.29492 -49.5029 31.04 -61.3525 56.9014c-12.8584 -14.582 -26.958 -27.7334 -42.9434 -38.3379
c-25.4434 -16.877 -60.0732 -22.0732 -85.7217 -2.74023c-18.8975 14.2451 -26.3574 38.6758 -27.8281 61.3896c-3.56641 55.0996 9.13672 111.208 32.9336 160.768c20.7158 43.1357 59.0742 105.49 116.327 94.9766c51.915 -9.53516 54.3105 -81.1338 60.6836 -121.024
c0.0673828 -0.408203 0.0947266 -0.799805 0.125 -1.19141c15.2197 -3.66797 29.6504 -18.291 25.3994 -35.2178c-7.09863 -28.2598 -16.1514 -65.4141 -0.59082 -92.5908c2.05762 -3.59668 4.68555 -7.36523 7.55664 -10.0713
c2.54102 -2.39551 8.25977 -4.59863 9.14062 -5.83398c1.74414 1.8623 6.12402 3.2627 8.91113 5.5332c40.2744 32.8154 61.4258 92.3691 69.5166 141.817c7.7334 47.2793 4.36328 98.1211 -11.5312 143.46c-8.61328 24.5791 -21.5283 44.8467 -38.3438 64.5576
c-14.8184 17.3662 -37.7344 24.5596 -59.959 26.834c-52.792 5.40527 -101.289 -20.085 -141.699 -51.6787c-40.7676 -31.874 -75.877 -72 -102.707 -116.186c-53.4434 -88.0127 -82.0781 -211.405 -32.5723 -307.451c24.7783 -48.0723 69.3047 -79.1934 123.402 -83.7754
c57.2725 -4.85156 111.674 19.4404 158.825 49.624c17.2139 11.0195 40.2412 -11.6299 20.6826 -24.2051c-63.916 -41.0879 -140.123 -69.3213 -216.543 -50.8223c-69.0146 16.7041 -117.887 72.2764 -136.842 139.323c-34.7617 122.964 14.4912 257.757 93.7451 352.656
c40.2646 48.2139 91.0732 91.4004 150.022 114.535c59.874 23.4961 121.142 19.6396 178.414 -8.86035c59.1357 -29.4277 81.7246 -106.502 89.7646 -167.271zM333.025 261.639c3.6543 5.7793 8.43262 10.3096 13.9053 13.5117
c-0.25 0.688477 -0.472656 1.40039 -0.621094 2.16992c-4.54785 23.3447 -6.03613 51.2236 -16.9883 72.7061c-11.1201 21.8096 -35.1797 4.82812 -45.7471 -8.83008c-28.4287 -36.7461 -43.9521 -86.2285 -49.2529 -131.794
c-2.42969 -20.8877 -3.38086 -44.8086 1.8457 -65.3525c0.458984 -1.79492 2.26758 -5.25977 3.44824 -8.1377c0.21582 0.151367 0.452148 0.272461 0.667969 0.423828c3.6709 2.66504 6.9873 5.72559 10.2666 8.86719c34.2959 32.8623 57.3232 76.6562 82.4756 116.436z
M418.958 135.509c-1.93359 -0.269531 -1.30957 -2.29004 0.988281 0.0712891c-0.299805 -0.00683594 -0.59375 -0.0136719 -0.988281 -0.0712891zM420.352 135.607c1.12695 -1.54492 2.43262 -0.0507812 0 0z" />
    <glyph glyph-name="A" unicode="A" horiz-adv-x="858" 
d="M18.7354 322.727c6.54883 -18.624 23.1943 -40.5342 41.6865 -48.3418c27.1572 -11.4482 61.6055 -7.25781 90.1455 -5.01074c60.9365 4.79785 121.587 12.5752 182.14 20.8311c28.2168 3.84668 56.9326 8.60059 85.8916 13.085
c34.2188 98.6777 64.7598 198.607 91.6504 299.536c0.499023 3.32715 1.35645 6.46191 2.53418 9.40039c0.259766 0.988281 0.536133 1.97363 0.795898 2.96191c0.772461 2.92871 2.50977 5.15234 4.73633 6.75879c23.958 31.4785 90.2188 29.4512 95.9072 -17.541
c9.9834 -82.5 10.2871 -165.607 11.7988 -248.604c0.25 -13.6475 0.479492 -27.3018 0.71582 -40.96c19.2852 -2.33789 38.4121 -6.03223 57.2959 -11.498c19.9668 -5.7793 3.71484 -29.9639 -13.583 -25.0039c-14.2646 4.08887 -28.6885 6.92285 -43.2031 8.8291
c0.951172 -49.2832 2.29395 -98.5703 5.5293 -147.735c4.61914 -70.1816 6.91699 -143.393 24.9844 -211.601c3.08008 -11.6299 7.03809 -24.0127 16.8496 -31.8301c12.2773 -9.78125 28.9346 -2.66895 40.3086 5.36133c27.5723 19.4609 42.2627 55.7578 56.7266 85.0332
c31.627 64.0107 57.4375 130.643 77.6309 199.11c4.29492 14.5654 32.127 12.2002 27.6631 -3.48828c-23.8945 -83.9502 -55.542 -166.861 -97.0918 -243.743c-16.0938 -29.7783 -36.7627 -57.0635 -68.9873 -70.2998c-30.7871 -12.6455 -66.2002 -9.17676 -93.833 9.1543
c-34.7686 23.0645 -45.5078 61.2207 -56.126 99.2988c-11.2891 40.4912 -18.459 82.2031 -24.5859 123.753c-9.12695 61.8916 -12.5889 124.691 -14.7617 187.332c-13.668 -1.26172 -27.3057 -2.83398 -40.8584 -4.56836
c-13.0508 -1.66992 -26.0879 -3.4375 -39.1211 -5.25586c-31.5029 -93.1182 -66.1973 -185.524 -106.881 -274.569c-26.4219 -57.833 -58.1973 -112.343 -99.0049 -161.238c-36.4727 -43.6992 -73.7275 -90.5029 -124.792 -117.95
c-19.127 -10.2842 -46.0752 -10.0273 -58.7275 10.3408c-11.7754 18.958 0.583008 42.7441 21.1982 48.8379c62.6143 18.5029 114.65 47.1777 155.098 99.582c38.5674 49.9678 66.8408 107.335 91.8213 165.026c26.5127 61.2305 50.6904 123.561 73.6533 186.198
c4.75391 12.9697 9.40332 25.9727 14.0293 38.9863c-39.2393 -5.72559 -78.4346 -11.7891 -117.681 -17.457c-62.7793 -9.06543 -127.279 -19.8818 -190.838 -20.3369c-54.8535 -0.394531 -117.285 11.8799 -142.553 66.0957
c-16.2695 34.9102 49.9141 55.4307 61.8379 21.5195zM476.799 385.675c-8.14453 -25.8076 -16.46 -51.6357 -24.9893 -77.4326c22.8955 3.23242 45.8818 6.01953 68.8379 7.79785c-0.287109 9.54492 -0.560547 19.083 -0.833984 28.6074
c-1.5791 55.0625 -3.56348 110.105 -5.98926 165.131c-11.7139 -41.5498 -24.0322 -82.9316 -37.0254 -124.104z" />
    <glyph glyph-name="A" unicode="&#xc5;" horiz-adv-x="858" 
d="M18.7354 322.727c6.54883 -18.624 23.1943 -40.5342 41.6865 -48.3418c27.1572 -11.4482 61.6055 -7.25781 90.1455 -5.01074c60.9365 4.79785 121.587 12.5752 182.14 20.8311c28.2168 3.84668 56.9326 8.60059 85.8916 13.085
c34.2188 98.6777 64.7598 198.607 91.6504 299.536c0.499023 3.32715 1.35645 6.46191 2.53418 9.40039c0.259766 0.988281 0.536133 1.97363 0.795898 2.96191c0.772461 2.92871 2.50977 5.15234 4.73633 6.75879c23.958 31.4785 90.2188 29.4512 95.9072 -17.541
c9.9834 -82.5 10.2871 -165.607 11.7988 -248.604c0.25 -13.6475 0.479492 -27.3018 0.71582 -40.96c19.2852 -2.33789 38.4121 -6.03223 57.2959 -11.498c19.9668 -5.7793 3.71484 -29.9639 -13.583 -25.0039c-14.2646 4.08887 -28.6885 6.92285 -43.2031 8.8291
c0.951172 -49.2832 2.29395 -98.5703 5.5293 -147.735c4.61914 -70.1816 6.91699 -143.393 24.9844 -211.601c3.08008 -11.6299 7.03809 -24.0127 16.8496 -31.8301c12.2773 -9.78125 28.9346 -2.66895 40.3086 5.36133c27.5723 19.4609 42.2627 55.7578 56.7266 85.0332
c31.627 64.0107 57.4375 130.643 77.6309 199.11c4.29492 14.5654 32.127 12.2002 27.6631 -3.48828c-23.8945 -83.9502 -55.542 -166.861 -97.0918 -243.743c-16.0938 -29.7783 -36.7627 -57.0635 -68.9873 -70.2998c-30.7871 -12.6455 -66.2002 -9.17676 -93.833 9.1543
c-34.7686 23.0645 -45.5078 61.2207 -56.126 99.2988c-11.2891 40.4912 -18.459 82.2031 -24.5859 123.753c-9.12695 61.8916 -12.5889 124.691 -14.7617 187.332c-13.668 -1.26172 -27.3057 -2.83398 -40.8584 -4.56836
c-13.0508 -1.66992 -26.0879 -3.4375 -39.1211 -5.25586c-31.5029 -93.1182 -66.1973 -185.524 -106.881 -274.569c-26.4219 -57.833 -58.1973 -112.343 -99.0049 -161.238c-36.4727 -43.6992 -73.7275 -90.5029 -124.792 -117.95
c-19.127 -10.2842 -46.0752 -10.0273 -58.7275 10.3408c-11.7754 18.958 0.583008 42.7441 21.1982 48.8379c62.6143 18.5029 114.65 47.1777 155.098 99.582c38.5674 49.9678 66.8408 107.335 91.8213 165.026c26.5127 61.2305 50.6904 123.561 73.6533 186.198
c4.75391 12.9697 9.40332 25.9727 14.0293 38.9863c-39.2393 -5.72559 -78.4346 -11.7891 -117.681 -17.457c-62.7793 -9.06543 -127.279 -19.8818 -190.838 -20.3369c-54.8535 -0.394531 -117.285 11.8799 -142.553 66.0957
c-16.2695 34.9102 49.9141 55.4307 61.8379 21.5195zM476.799 385.675c-8.14453 -25.8076 -16.46 -51.6357 -24.9893 -77.4326c22.8955 3.23242 45.8818 6.01953 68.8379 7.79785c-0.287109 9.54492 -0.560547 19.083 -0.833984 28.6074
c-1.5791 55.0625 -3.56348 110.105 -5.98926 165.131c-11.7139 -41.5498 -24.0322 -82.9316 -37.0254 -124.104z" />
    <glyph glyph-name="A" unicode="&#xc4;" horiz-adv-x="858" 
d="M18.7354 322.727c6.54883 -18.624 23.1943 -40.5342 41.6865 -48.3418c27.1572 -11.4482 61.6055 -7.25781 90.1455 -5.01074c60.9365 4.79785 121.587 12.5752 182.14 20.8311c28.2168 3.84668 56.9326 8.60059 85.8916 13.085
c34.2188 98.6777 64.7598 198.607 91.6504 299.536c0.499023 3.32715 1.35645 6.46191 2.53418 9.40039c0.259766 0.988281 0.536133 1.97363 0.795898 2.96191c0.772461 2.92871 2.50977 5.15234 4.73633 6.75879c23.958 31.4785 90.2188 29.4512 95.9072 -17.541
c9.9834 -82.5 10.2871 -165.607 11.7988 -248.604c0.25 -13.6475 0.479492 -27.3018 0.71582 -40.96c19.2852 -2.33789 38.4121 -6.03223 57.2959 -11.498c19.9668 -5.7793 3.71484 -29.9639 -13.583 -25.0039c-14.2646 4.08887 -28.6885 6.92285 -43.2031 8.8291
c0.951172 -49.2832 2.29395 -98.5703 5.5293 -147.735c4.61914 -70.1816 6.91699 -143.393 24.9844 -211.601c3.08008 -11.6299 7.03809 -24.0127 16.8496 -31.8301c12.2773 -9.78125 28.9346 -2.66895 40.3086 5.36133c27.5723 19.4609 42.2627 55.7578 56.7266 85.0332
c31.627 64.0107 57.4375 130.643 77.6309 199.11c4.29492 14.5654 32.127 12.2002 27.6631 -3.48828c-23.8945 -83.9502 -55.542 -166.861 -97.0918 -243.743c-16.0938 -29.7783 -36.7627 -57.0635 -68.9873 -70.2998c-30.7871 -12.6455 -66.2002 -9.17676 -93.833 9.1543
c-34.7686 23.0645 -45.5078 61.2207 -56.126 99.2988c-11.2891 40.4912 -18.459 82.2031 -24.5859 123.753c-9.12695 61.8916 -12.5889 124.691 -14.7617 187.332c-13.668 -1.26172 -27.3057 -2.83398 -40.8584 -4.56836
c-13.0508 -1.66992 -26.0879 -3.4375 -39.1211 -5.25586c-31.5029 -93.1182 -66.1973 -185.524 -106.881 -274.569c-26.4219 -57.833 -58.1973 -112.343 -99.0049 -161.238c-36.4727 -43.6992 -73.7275 -90.5029 -124.792 -117.95
c-19.127 -10.2842 -46.0752 -10.0273 -58.7275 10.3408c-11.7754 18.958 0.583008 42.7441 21.1982 48.8379c62.6143 18.5029 114.65 47.1777 155.098 99.582c38.5674 49.9678 66.8408 107.335 91.8213 165.026c26.5127 61.2305 50.6904 123.561 73.6533 186.198
c4.75391 12.9697 9.40332 25.9727 14.0293 38.9863c-39.2393 -5.72559 -78.4346 -11.7891 -117.681 -17.457c-62.7793 -9.06543 -127.279 -19.8818 -190.838 -20.3369c-54.8535 -0.394531 -117.285 11.8799 -142.553 66.0957
c-16.2695 34.9102 49.9141 55.4307 61.8379 21.5195zM476.799 385.675c-8.14453 -25.8076 -16.46 -51.6357 -24.9893 -77.4326c22.8955 3.23242 45.8818 6.01953 68.8379 7.79785c-0.287109 9.54492 -0.560547 19.083 -0.833984 28.6074
c-1.5791 55.0625 -3.56348 110.105 -5.98926 165.131c-11.7139 -41.5498 -24.0322 -82.9316 -37.0254 -124.104z" />
    <glyph glyph-name="A" unicode="&#xc3;" horiz-adv-x="858" 
d="M18.7354 322.727c6.54883 -18.624 23.1943 -40.5342 41.6865 -48.3418c27.1572 -11.4482 61.6055 -7.25781 90.1455 -5.01074c60.9365 4.79785 121.587 12.5752 182.14 20.8311c28.2168 3.84668 56.9326 8.60059 85.8916 13.085
c34.2188 98.6777 64.7598 198.607 91.6504 299.536c0.499023 3.32715 1.35645 6.46191 2.53418 9.40039c0.259766 0.988281 0.536133 1.97363 0.795898 2.96191c0.772461 2.92871 2.50977 5.15234 4.73633 6.75879c23.958 31.4785 90.2188 29.4512 95.9072 -17.541
c9.9834 -82.5 10.2871 -165.607 11.7988 -248.604c0.25 -13.6475 0.479492 -27.3018 0.71582 -40.96c19.2852 -2.33789 38.4121 -6.03223 57.2959 -11.498c19.9668 -5.7793 3.71484 -29.9639 -13.583 -25.0039c-14.2646 4.08887 -28.6885 6.92285 -43.2031 8.8291
c0.951172 -49.2832 2.29395 -98.5703 5.5293 -147.735c4.61914 -70.1816 6.91699 -143.393 24.9844 -211.601c3.08008 -11.6299 7.03809 -24.0127 16.8496 -31.8301c12.2773 -9.78125 28.9346 -2.66895 40.3086 5.36133c27.5723 19.4609 42.2627 55.7578 56.7266 85.0332
c31.627 64.0107 57.4375 130.643 77.6309 199.11c4.29492 14.5654 32.127 12.2002 27.6631 -3.48828c-23.8945 -83.9502 -55.542 -166.861 -97.0918 -243.743c-16.0938 -29.7783 -36.7627 -57.0635 -68.9873 -70.2998c-30.7871 -12.6455 -66.2002 -9.17676 -93.833 9.1543
c-34.7686 23.0645 -45.5078 61.2207 -56.126 99.2988c-11.2891 40.4912 -18.459 82.2031 -24.5859 123.753c-9.12695 61.8916 -12.5889 124.691 -14.7617 187.332c-13.668 -1.26172 -27.3057 -2.83398 -40.8584 -4.56836
c-13.0508 -1.66992 -26.0879 -3.4375 -39.1211 -5.25586c-31.5029 -93.1182 -66.1973 -185.524 -106.881 -274.569c-26.4219 -57.833 -58.1973 -112.343 -99.0049 -161.238c-36.4727 -43.6992 -73.7275 -90.5029 -124.792 -117.95
c-19.127 -10.2842 -46.0752 -10.0273 -58.7275 10.3408c-11.7754 18.958 0.583008 42.7441 21.1982 48.8379c62.6143 18.5029 114.65 47.1777 155.098 99.582c38.5674 49.9678 66.8408 107.335 91.8213 165.026c26.5127 61.2305 50.6904 123.561 73.6533 186.198
c4.75391 12.9697 9.40332 25.9727 14.0293 38.9863c-39.2393 -5.72559 -78.4346 -11.7891 -117.681 -17.457c-62.7793 -9.06543 -127.279 -19.8818 -190.838 -20.3369c-54.8535 -0.394531 -117.285 11.8799 -142.553 66.0957
c-16.2695 34.9102 49.9141 55.4307 61.8379 21.5195zM476.799 385.675c-8.14453 -25.8076 -16.46 -51.6357 -24.9893 -77.4326c22.8955 3.23242 45.8818 6.01953 68.8379 7.79785c-0.287109 9.54492 -0.560547 19.083 -0.833984 28.6074
c-1.5791 55.0625 -3.56348 110.105 -5.98926 165.131c-11.7139 -41.5498 -24.0322 -82.9316 -37.0254 -124.104z" />
    <glyph glyph-name="A" unicode="&#xc2;" horiz-adv-x="858" 
d="M18.7354 322.727c6.54883 -18.624 23.1943 -40.5342 41.6865 -48.3418c27.1572 -11.4482 61.6055 -7.25781 90.1455 -5.01074c60.9365 4.79785 121.587 12.5752 182.14 20.8311c28.2168 3.84668 56.9326 8.60059 85.8916 13.085
c34.2188 98.6777 64.7598 198.607 91.6504 299.536c0.499023 3.32715 1.35645 6.46191 2.53418 9.40039c0.259766 0.988281 0.536133 1.97363 0.795898 2.96191c0.772461 2.92871 2.50977 5.15234 4.73633 6.75879c23.958 31.4785 90.2188 29.4512 95.9072 -17.541
c9.9834 -82.5 10.2871 -165.607 11.7988 -248.604c0.25 -13.6475 0.479492 -27.3018 0.71582 -40.96c19.2852 -2.33789 38.4121 -6.03223 57.2959 -11.498c19.9668 -5.7793 3.71484 -29.9639 -13.583 -25.0039c-14.2646 4.08887 -28.6885 6.92285 -43.2031 8.8291
c0.951172 -49.2832 2.29395 -98.5703 5.5293 -147.735c4.61914 -70.1816 6.91699 -143.393 24.9844 -211.601c3.08008 -11.6299 7.03809 -24.0127 16.8496 -31.8301c12.2773 -9.78125 28.9346 -2.66895 40.3086 5.36133c27.5723 19.4609 42.2627 55.7578 56.7266 85.0332
c31.627 64.0107 57.4375 130.643 77.6309 199.11c4.29492 14.5654 32.127 12.2002 27.6631 -3.48828c-23.8945 -83.9502 -55.542 -166.861 -97.0918 -243.743c-16.0938 -29.7783 -36.7627 -57.0635 -68.9873 -70.2998c-30.7871 -12.6455 -66.2002 -9.17676 -93.833 9.1543
c-34.7686 23.0645 -45.5078 61.2207 -56.126 99.2988c-11.2891 40.4912 -18.459 82.2031 -24.5859 123.753c-9.12695 61.8916 -12.5889 124.691 -14.7617 187.332c-13.668 -1.26172 -27.3057 -2.83398 -40.8584 -4.56836
c-13.0508 -1.66992 -26.0879 -3.4375 -39.1211 -5.25586c-31.5029 -93.1182 -66.1973 -185.524 -106.881 -274.569c-26.4219 -57.833 -58.1973 -112.343 -99.0049 -161.238c-36.4727 -43.6992 -73.7275 -90.5029 -124.792 -117.95
c-19.127 -10.2842 -46.0752 -10.0273 -58.7275 10.3408c-11.7754 18.958 0.583008 42.7441 21.1982 48.8379c62.6143 18.5029 114.65 47.1777 155.098 99.582c38.5674 49.9678 66.8408 107.335 91.8213 165.026c26.5127 61.2305 50.6904 123.561 73.6533 186.198
c4.75391 12.9697 9.40332 25.9727 14.0293 38.9863c-39.2393 -5.72559 -78.4346 -11.7891 -117.681 -17.457c-62.7793 -9.06543 -127.279 -19.8818 -190.838 -20.3369c-54.8535 -0.394531 -117.285 11.8799 -142.553 66.0957
c-16.2695 34.9102 49.9141 55.4307 61.8379 21.5195zM476.799 385.675c-8.14453 -25.8076 -16.46 -51.6357 -24.9893 -77.4326c22.8955 3.23242 45.8818 6.01953 68.8379 7.79785c-0.287109 9.54492 -0.560547 19.083 -0.833984 28.6074
c-1.5791 55.0625 -3.56348 110.105 -5.98926 165.131c-11.7139 -41.5498 -24.0322 -82.9316 -37.0254 -124.104z" />
    <glyph glyph-name="A" unicode="&#xc1;" horiz-adv-x="858" 
d="M18.7354 322.727c6.54883 -18.624 23.1943 -40.5342 41.6865 -48.3418c27.1572 -11.4482 61.6055 -7.25781 90.1455 -5.01074c60.9365 4.79785 121.587 12.5752 182.14 20.8311c28.2168 3.84668 56.9326 8.60059 85.8916 13.085
c34.2188 98.6777 64.7598 198.607 91.6504 299.536c0.499023 3.32715 1.35645 6.46191 2.53418 9.40039c0.259766 0.988281 0.536133 1.97363 0.795898 2.96191c0.772461 2.92871 2.50977 5.15234 4.73633 6.75879c23.958 31.4785 90.2188 29.4512 95.9072 -17.541
c9.9834 -82.5 10.2871 -165.607 11.7988 -248.604c0.25 -13.6475 0.479492 -27.3018 0.71582 -40.96c19.2852 -2.33789 38.4121 -6.03223 57.2959 -11.498c19.9668 -5.7793 3.71484 -29.9639 -13.583 -25.0039c-14.2646 4.08887 -28.6885 6.92285 -43.2031 8.8291
c0.951172 -49.2832 2.29395 -98.5703 5.5293 -147.735c4.61914 -70.1816 6.91699 -143.393 24.9844 -211.601c3.08008 -11.6299 7.03809 -24.0127 16.8496 -31.8301c12.2773 -9.78125 28.9346 -2.66895 40.3086 5.36133c27.5723 19.4609 42.2627 55.7578 56.7266 85.0332
c31.627 64.0107 57.4375 130.643 77.6309 199.11c4.29492 14.5654 32.127 12.2002 27.6631 -3.48828c-23.8945 -83.9502 -55.542 -166.861 -97.0918 -243.743c-16.0938 -29.7783 -36.7627 -57.0635 -68.9873 -70.2998c-30.7871 -12.6455 -66.2002 -9.17676 -93.833 9.1543
c-34.7686 23.0645 -45.5078 61.2207 -56.126 99.2988c-11.2891 40.4912 -18.459 82.2031 -24.5859 123.753c-9.12695 61.8916 -12.5889 124.691 -14.7617 187.332c-13.668 -1.26172 -27.3057 -2.83398 -40.8584 -4.56836
c-13.0508 -1.66992 -26.0879 -3.4375 -39.1211 -5.25586c-31.5029 -93.1182 -66.1973 -185.524 -106.881 -274.569c-26.4219 -57.833 -58.1973 -112.343 -99.0049 -161.238c-36.4727 -43.6992 -73.7275 -90.5029 -124.792 -117.95
c-19.127 -10.2842 -46.0752 -10.0273 -58.7275 10.3408c-11.7754 18.958 0.583008 42.7441 21.1982 48.8379c62.6143 18.5029 114.65 47.1777 155.098 99.582c38.5674 49.9678 66.8408 107.335 91.8213 165.026c26.5127 61.2305 50.6904 123.561 73.6533 186.198
c4.75391 12.9697 9.40332 25.9727 14.0293 38.9863c-39.2393 -5.72559 -78.4346 -11.7891 -117.681 -17.457c-62.7793 -9.06543 -127.279 -19.8818 -190.838 -20.3369c-54.8535 -0.394531 -117.285 11.8799 -142.553 66.0957
c-16.2695 34.9102 49.9141 55.4307 61.8379 21.5195zM476.799 385.675c-8.14453 -25.8076 -16.46 -51.6357 -24.9893 -77.4326c22.8955 3.23242 45.8818 6.01953 68.8379 7.79785c-0.287109 9.54492 -0.560547 19.083 -0.833984 28.6074
c-1.5791 55.0625 -3.56348 110.105 -5.98926 165.131c-11.7139 -41.5498 -24.0322 -82.9316 -37.0254 -124.104z" />
    <glyph glyph-name="B" unicode="B" horiz-adv-x="599" 
d="M399.65 689.023c14.2178 -40.126 12.1787 -82.6338 4.08789 -123.772c-11.4043 -58.0215 -38.9697 -113.425 -73.2588 -163.292c0.303711 -0.0673828 0.607422 -0.114258 0.911133 -0.181641c30.9092 -6.98047 58.0322 -20.8809 81.6367 -41.9951
c45.002 -40.2549 66.3857 -97.7637 74.126 -156.534c4.58496 -34.8125 5.66504 -70.6104 3.14844 -106.273c37.957 11.8633 73.7715 28.1191 103.988 55.499c11.5186 10.4355 35.3252 -2.78711 21.9307 -14.9941c-37.4209 -34.1074 -81.7988 -52.2861 -128.295 -65.7275
c-7.53027 -63.2109 -26.6064 -125.163 -58.0146 -179.551c-28.1455 -48.7363 -69.6348 -94.1123 -127.006 -105.786c-47.124 -9.58887 -111.796 6.81836 -132.242 55.4404c-17.6016 41.8574 2.26465 91.4443 28.5176 124.894
c29.2285 37.2412 66.5918 63.9355 110.483 81.3818c26.0498 10.3545 53.7734 17.5879 81.8887 24.1807c5.69141 44.209 4.77734 89.3994 -2.33789 132.394c-6.15723 37.2178 -19.542 72.7119 -47.084 97.7803c-2.17285 1.98047 -15.9248 11.7012 -19.2715 13.4014
c-5.61719 2.85449 -12.5508 5.21289 -17.4229 5.97852c-20.1055 3.16113 -41.041 -0.46582 -61.9561 -4.75391c-37.2354 -7.63184 -67.8877 36.4863 -40.9707 65.6172c58.0518 62.8262 108.654 129.11 143.376 207.849c8.13477 18.4521 15.584 37.9434 21.5088 57.209
c5.29688 17.2275 7.69922 34.04 -5.57422 48.5215c-29.7246 32.4336 -76.3252 -31.7422 -90.5771 -53.9121c-42.3672 -65.9072 -65.2295 -146.562 -83.6104 -222.01c-37.4375 -153.656 -46.0576 -312.229 -50.0762 -469.856
c0.361328 -5.1416 0.732422 -10.2832 1.06641 -15.4248c1.00195 -15.4053 1.70703 -31.1514 1.41992 -46.5869c-0.354492 -19.2285 -6.07031 -33.9863 -13.0039 -51.5752c-5.95801 -15.1191 -31.1279 -15.5479 -40.4707 -4.25488
c-11.7822 14.2451 -21.2734 26.7217 -26.918 44.6074c-5.31738 16.8398 -9.89258 34.1553 -13.4727 51.4336c-6.76855 32.6699 -12.9463 65.3369 -18.0371 98.3105c-10.1484 65.7549 -17.0244 131.783 -22.5576 198.081c-11.2861 135.255 -16.04 271.88 -8.85059 407.459
c1.31934 24.8662 33.8682 38.3447 54.4424 38.1592c21.293 -0.192383 49.7051 -14.2891 50.3086 -39.1855c3.22168 -132.894 5.19531 -265.527 13.7754 -398.245c1.40723 -21.7383 3.01367 -43.4697 4.68359 -65.1982c1.85547 22.582 4.01172 45.1406 6.56934 67.6621
c10.6553 93.7988 28.1328 187.115 57.4756 276.967c13.4521 41.1992 28.416 82.8066 49.3105 120.889c18.9619 34.5625 46.085 72.7627 82.7256 90.1553c34.1514 16.2119 70.9541 1.01562 83.627 -34.7588zM359.86 -41.8555c12.6426 27.8652 21.7627 57.626 27.5928 88.1699
c-11.4785 -3.00293 -22.8828 -6.19824 -34.1387 -9.74414c-39.1279 -12.3252 -76.8115 -30.5781 -105.558 -60.4785c-24.0869 -25.0518 -41.5977 -65.8633 -31.0273 -100.922c12.0957 -40.1133 58.0898 -20.6055 78.5195 -6.51562
c29.1543 20.1016 49.5664 56.3379 64.6113 89.4902z" />
    <glyph glyph-name="C" unicode="C" horiz-adv-x="389" 
d="M263.337 445.106c-4.90527 -16.9199 -11.5635 -33.8086 -15.4541 -50.9824c-3.53223 -15.5879 -0.941406 -31.9072 0.192383 -47.6533c1.69727 -23.6045 -24.2451 -36.7422 -44.7012 -31.627c-21.3135 5.33105 -31.9688 28.6719 -16 46.085
c12.6523 13.793 26.4453 26.8164 33.4668 44.5059c5.98242 15.0684 10.7568 30.6387 15.1328 46.2363c8.94141 31.8633 16.2422 64.6582 18.1143 97.7803c0.769531 13.6006 6.07324 72.8574 -17.7871 73.9102c-10.3818 0.458984 -20.9121 -18.2021 -25.791 -25.5605
c-7.52734 -11.3496 -14.1299 -23.1885 -20.9961 -34.9336c-51.1221 -87.4629 -88.8633 -173.759 -111.162 -271.718c-25.0684 -110.146 -39.1035 -225.411 -15.5498 -337.056c5.60742 -26.5801 14.0967 -52.7822 23.8242 -78.1338
c7.10938 -18.5293 17.0391 -41.9678 32.7754 -55.0117c37.8223 -31.3506 90.1729 29.8428 112.316 56.7939c33.2803 40.5039 57.127 88.1611 79.5938 135.221c26.1113 54.6914 49.5566 110.588 71.8652 166.923c5.60449 14.1533 31.6484 6.46777 25.4365 -9.4707
c-28.3652 -72.7656 -58.2959 -145.312 -94.2559 -214.711c-29.2627 -56.4736 -65.3467 -111.631 -117.994 -148.913c-13.1377 -9.30176 -27.6221 -15.6006 -40.9561 -24.3223c-13.7998 -9.02539 -25.4775 -12.2539 -42.2061 -11.5078
c-28.2402 1.25879 -55.6904 16.2627 -75.2051 36.2266c-44.6885 45.7168 -68.1709 118.166 -80.1953 179.387c-13.7051 69.7666 -9.85156 142.522 -0.455078 212.556c8.10742 60.4307 19.9766 120.625 37.7539 178.987c18.1758 59.6719 41.2734 120.339 78.8623 170.735
c18.8574 25.2812 39.5498 47.9678 64.1797 67.7119c23.4561 18.8027 50.4072 40.248 81.2383 43.8955c66.4707 7.86133 68.3838 -68.876 63.917 -114.685c-3.33008 -34.1514 -10.4121 -67.7393 -19.96 -100.669z" />
    <glyph glyph-name="D" unicode="D" horiz-adv-x="576" 
d="M8.18164 610.44c9.23438 46.3447 89.2754 38.7656 84.5449 -10.6631c-12.3652 -129.07 -20.2871 -257.314 -13.3906 -387.022c1.71777 -32.3125 4.16699 -64.6211 7.19727 -96.8799c3.6875 28.9219 7.71289 57.8027 11.9775 86.6504
c14.8721 100.567 30.3652 202.339 63.5547 298.8c13.7217 39.877 30.8008 78.9033 55.4609 113.321c18.833 26.2832 47.4707 49.1514 81.4834 36.2256c33.4971 -12.7266 56.0859 -52.6943 72.4668 -82.4521c20.166 -36.6309 31.6035 -77.29 41.8633 -117.585
c21.5361 -84.5918 21.917 -175.783 10.9619 -261.94c-8.84668 -69.5908 -28.5371 -142.657 -60.5625 -206.726c9.33594 1.59277 18.6113 3.49902 27.7852 5.7998c74.0889 18.5908 145.593 65.0127 172.743 139.422c5.17871 14.1943 33.1621 11.627 27.6621 -3.48828
c-31.0166 -85.2393 -110.386 -139.432 -196.32 -159.699c-15.21 -3.58691 -30.5547 -6.28223 -45.9805 -8.2627c-1.90918 -3.2959 -3.8125 -6.5957 -5.79688 -9.82812c-44.9238 -73.2314 -136.132 -148.12 -222.832 -90
c-0.985352 0.661133 -1.87988 1.37305 -2.82812 2.05469c-0.0537109 -7.84082 -0.819336 -15.5771 -2.71875 -23.084c-5.52344 -21.8428 -31.5771 -26.4111 -49.0273 -16.5459c-31.6816 17.9092 -44.125 55.6299 -52.4688 88.6777
c-7.75293 30.7168 -13.667 61.7471 -18.1709 93.0908c-9.62598 67.0029 -14.8623 134.256 -16.7451 201.91c-3.78223 135.785 2.54688 274.755 29.1406 408.225zM199.354 -82.7422c16.0029 7.64551 30.0576 20.0664 42.4268 35.0059
c-0.364258 0.0166016 -0.725586 0.0263672 -1.08984 0.0429688c-21.9648 0.978516 -43.9697 3.19531 -65.0869 9.62988c-9.17383 2.79395 -18.0273 6.57324 -26.3916 11.2666c-1.71387 0.961914 -11.9502 9.68359 -18.0234 14.3604
c-4.74023 -10.3281 -4.16016 -24.543 -2.05859 -34.4355c2.47266 -11.6338 12.3486 -21.4014 21.0938 -29.0771c7.92871 -6.96094 16.3193 -11.2598 25.6348 -12.1543c2.58105 -0.25 4.16309 -0.415039 6.65625 0.0605469c5.31738 1.01855 14.1436 4.01172 16.8389 5.30078z
M177.554 444.816c-16.7344 -59.6953 -28.2451 -120.698 -38.252 -181.838c-14.1904 -86.748 -27.0586 -173.965 -35.0889 -261.576c11.1748 12.8105 25.7734 19.5752 41.8701 7.34473c18.2197 -13.8438 32.5859 -23.3857 55.6904 -27.8428
c18.459 -3.55957 37.3535 -4.4707 56.1025 -5.01074c0.320312 -0.00976562 0.640625 -0.0166016 0.960938 -0.0234375c14.1367 22.1973 25.5576 46.874 34.8262 68.9834c43.1289 102.909 57.8525 218.437 56.0977 329.358
c-0.860352 54.3779 -1.7041 111.205 -12.6318 164.648c-5.48926 26.8564 -14.6631 51.1221 -33.3516 71.5889c-8.47168 9.27148 -20.3984 19.6055 -33.6719 14.3457c-10.2129 -4.04492 -18.0137 -14.6455 -24.2725 -23.1885
c-33.8477 -46.2197 -52.9648 -102.173 -68.2793 -156.79z" />
    <glyph glyph-name="E" unicode="E" horiz-adv-x="436" 
d="M256.396 479.298c6.25195 17.4131 9.49609 36.5068 12.7383 54.7021c2.53711 14.2148 4.81152 30.5039 -0.657227 44.3408c-11.168 28.2637 -52.0605 17.0146 -72.915 7.47656c-24.6162 -11.2588 -45.8047 -32.3799 -62.1143 -53.6016
c-32.5557 -42.3604 -53.7002 -94.4033 -62.6611 -146.865c-8.12793 -47.5967 -15.2002 -115.45 13.8291 -152.017c1.46387 -1.8418 10.5596 -11.1943 8.94336 -10.1143c4.81445 -3.99121 10.0713 -7.30078 15.2637 -10.7695
c0.624023 -0.415039 3.63672 -2.07129 4.31445 -2.5c1.37305 -0.624023 2.75684 -1.23145 4.13672 -1.8291c6.36035 -2.74609 12.8516 -5.06738 19.4775 -7.08203c25.3789 -7.71582 63.71 -10.1045 93.5967 -17.5439c26.5801 -6.61621 37.9912 -45.1641 16.6074 -63.667
c-22.3896 -19.3701 -39.9443 -45.9707 -56.5479 -70.418c-16.4951 -24.2861 -32.1064 -49.4326 -44.2793 -76.1943c-10.3584 -22.7705 -20.4639 -49.7051 -20.8887 -74.9521c-0.293945 -17.5449 4.03516 -46.5166 18.8633 -58.3086
c21.9541 -17.46 58.2412 0.762695 76.9062 14.3262c20.6758 15.0244 38.6924 34.334 55.542 53.4375c69.7637 79.085 115.727 176.319 151.321 274.748c5.13184 14.1904 33.085 11.7041 27.6631 -3.48926c-23.4053 -65.5596 -50.6328 -129.938 -86.4238 -189.788
c-30.7539 -51.4229 -67.8975 -101.3 -113.189 -140.876c-43.3184 -37.8555 -100.551 -55.8691 -153.229 -24.4277c-59.665 35.6123 -51.7832 114.259 -31.4482 170.56c11.0059 30.4697 24.7852 59.29 41.915 86.791c5.26367 8.44531 11.1074 16.7051 17.0527 24.9512
c-66.4971 10.8135 -131.999 44.0303 -155.104 106.891c-26.6846 72.5908 -8.30371 158.12 24.0693 225.704c30.0381 62.7119 79.2812 120.568 138.774 157.229c44.4346 27.3799 145.899 59.4053 165.124 -14.8652c8.71484 -33.665 -6.26562 -67.5293 -10.375 -100.635
c-5.2666 -42.4307 -6.0459 -85.7285 -10.125 -128.331c-4.00781 -41.8438 -87.1826 -31.1416 -68.6123 16.7451c14.2412 36.7217 29.1201 73.2988 42.4307 110.372z" />
    <glyph glyph-name="E" unicode="&#xcb;" horiz-adv-x="436" 
d="M256.396 479.298c6.25195 17.4131 9.49609 36.5068 12.7383 54.7021c2.53711 14.2148 4.81152 30.5039 -0.657227 44.3408c-11.168 28.2637 -52.0605 17.0146 -72.915 7.47656c-24.6162 -11.2588 -45.8047 -32.3799 -62.1143 -53.6016
c-32.5557 -42.3604 -53.7002 -94.4033 -62.6611 -146.865c-8.12793 -47.5967 -15.2002 -115.45 13.8291 -152.017c1.46387 -1.8418 10.5596 -11.1943 8.94336 -10.1143c4.81445 -3.99121 10.0713 -7.30078 15.2637 -10.7695
c0.624023 -0.415039 3.63672 -2.07129 4.31445 -2.5c1.37305 -0.624023 2.75684 -1.23145 4.13672 -1.8291c6.36035 -2.74609 12.8516 -5.06738 19.4775 -7.08203c25.3789 -7.71582 63.71 -10.1045 93.5967 -17.5439c26.5801 -6.61621 37.9912 -45.1641 16.6074 -63.667
c-22.3896 -19.3701 -39.9443 -45.9707 -56.5479 -70.418c-16.4951 -24.2861 -32.1064 -49.4326 -44.2793 -76.1943c-10.3584 -22.7705 -20.4639 -49.7051 -20.8887 -74.9521c-0.293945 -17.5449 4.03516 -46.5166 18.8633 -58.3086
c21.9541 -17.46 58.2412 0.762695 76.9062 14.3262c20.6758 15.0244 38.6924 34.334 55.542 53.4375c69.7637 79.085 115.727 176.319 151.321 274.748c5.13184 14.1904 33.085 11.7041 27.6631 -3.48926c-23.4053 -65.5596 -50.6328 -129.938 -86.4238 -189.788
c-30.7539 -51.4229 -67.8975 -101.3 -113.189 -140.876c-43.3184 -37.8555 -100.551 -55.8691 -153.229 -24.4277c-59.665 35.6123 -51.7832 114.259 -31.4482 170.56c11.0059 30.4697 24.7852 59.29 41.915 86.791c5.26367 8.44531 11.1074 16.7051 17.0527 24.9512
c-66.4971 10.8135 -131.999 44.0303 -155.104 106.891c-26.6846 72.5908 -8.30371 158.12 24.0693 225.704c30.0381 62.7119 79.2812 120.568 138.774 157.229c44.4346 27.3799 145.899 59.4053 165.124 -14.8652c8.71484 -33.665 -6.26562 -67.5293 -10.375 -100.635
c-5.2666 -42.4307 -6.0459 -85.7285 -10.125 -128.331c-4.00781 -41.8438 -87.1826 -31.1416 -68.6123 16.7451c14.2412 36.7217 29.1201 73.2988 42.4307 110.372z" />
    <glyph glyph-name="E" unicode="&#xca;" horiz-adv-x="436" 
d="M256.396 479.298c6.25195 17.4131 9.49609 36.5068 12.7383 54.7021c2.53711 14.2148 4.81152 30.5039 -0.657227 44.3408c-11.168 28.2637 -52.0605 17.0146 -72.915 7.47656c-24.6162 -11.2588 -45.8047 -32.3799 -62.1143 -53.6016
c-32.5557 -42.3604 -53.7002 -94.4033 -62.6611 -146.865c-8.12793 -47.5967 -15.2002 -115.45 13.8291 -152.017c1.46387 -1.8418 10.5596 -11.1943 8.94336 -10.1143c4.81445 -3.99121 10.0713 -7.30078 15.2637 -10.7695
c0.624023 -0.415039 3.63672 -2.07129 4.31445 -2.5c1.37305 -0.624023 2.75684 -1.23145 4.13672 -1.8291c6.36035 -2.74609 12.8516 -5.06738 19.4775 -7.08203c25.3789 -7.71582 63.71 -10.1045 93.5967 -17.5439c26.5801 -6.61621 37.9912 -45.1641 16.6074 -63.667
c-22.3896 -19.3701 -39.9443 -45.9707 -56.5479 -70.418c-16.4951 -24.2861 -32.1064 -49.4326 -44.2793 -76.1943c-10.3584 -22.7705 -20.4639 -49.7051 -20.8887 -74.9521c-0.293945 -17.5449 4.03516 -46.5166 18.8633 -58.3086
c21.9541 -17.46 58.2412 0.762695 76.9062 14.3262c20.6758 15.0244 38.6924 34.334 55.542 53.4375c69.7637 79.085 115.727 176.319 151.321 274.748c5.13184 14.1904 33.085 11.7041 27.6631 -3.48926c-23.4053 -65.5596 -50.6328 -129.938 -86.4238 -189.788
c-30.7539 -51.4229 -67.8975 -101.3 -113.189 -140.876c-43.3184 -37.8555 -100.551 -55.8691 -153.229 -24.4277c-59.665 35.6123 -51.7832 114.259 -31.4482 170.56c11.0059 30.4697 24.7852 59.29 41.915 86.791c5.26367 8.44531 11.1074 16.7051 17.0527 24.9512
c-66.4971 10.8135 -131.999 44.0303 -155.104 106.891c-26.6846 72.5908 -8.30371 158.12 24.0693 225.704c30.0381 62.7119 79.2812 120.568 138.774 157.229c44.4346 27.3799 145.899 59.4053 165.124 -14.8652c8.71484 -33.665 -6.26562 -67.5293 -10.375 -100.635
c-5.2666 -42.4307 -6.0459 -85.7285 -10.125 -128.331c-4.00781 -41.8438 -87.1826 -31.1416 -68.6123 16.7451c14.2412 36.7217 29.1201 73.2988 42.4307 110.372z" />
    <glyph glyph-name="E" unicode="&#xc9;" horiz-adv-x="436" 
d="M256.396 479.298c6.25195 17.4131 9.49609 36.5068 12.7383 54.7021c2.53711 14.2148 4.81152 30.5039 -0.657227 44.3408c-11.168 28.2637 -52.0605 17.0146 -72.915 7.47656c-24.6162 -11.2588 -45.8047 -32.3799 -62.1143 -53.6016
c-32.5557 -42.3604 -53.7002 -94.4033 -62.6611 -146.865c-8.12793 -47.5967 -15.2002 -115.45 13.8291 -152.017c1.46387 -1.8418 10.5596 -11.1943 8.94336 -10.1143c4.81445 -3.99121 10.0713 -7.30078 15.2637 -10.7695
c0.624023 -0.415039 3.63672 -2.07129 4.31445 -2.5c1.37305 -0.624023 2.75684 -1.23145 4.13672 -1.8291c6.36035 -2.74609 12.8516 -5.06738 19.4775 -7.08203c25.3789 -7.71582 63.71 -10.1045 93.5967 -17.5439c26.5801 -6.61621 37.9912 -45.1641 16.6074 -63.667
c-22.3896 -19.3701 -39.9443 -45.9707 -56.5479 -70.418c-16.4951 -24.2861 -32.1064 -49.4326 -44.2793 -76.1943c-10.3584 -22.7705 -20.4639 -49.7051 -20.8887 -74.9521c-0.293945 -17.5449 4.03516 -46.5166 18.8633 -58.3086
c21.9541 -17.46 58.2412 0.762695 76.9062 14.3262c20.6758 15.0244 38.6924 34.334 55.542 53.4375c69.7637 79.085 115.727 176.319 151.321 274.748c5.13184 14.1904 33.085 11.7041 27.6631 -3.48926c-23.4053 -65.5596 -50.6328 -129.938 -86.4238 -189.788
c-30.7539 -51.4229 -67.8975 -101.3 -113.189 -140.876c-43.3184 -37.8555 -100.551 -55.8691 -153.229 -24.4277c-59.665 35.6123 -51.7832 114.259 -31.4482 170.56c11.0059 30.4697 24.7852 59.29 41.915 86.791c5.26367 8.44531 11.1074 16.7051 17.0527 24.9512
c-66.4971 10.8135 -131.999 44.0303 -155.104 106.891c-26.6846 72.5908 -8.30371 158.12 24.0693 225.704c30.0381 62.7119 79.2812 120.568 138.774 157.229c44.4346 27.3799 145.899 59.4053 165.124 -14.8652c8.71484 -33.665 -6.26562 -67.5293 -10.375 -100.635
c-5.2666 -42.4307 -6.0459 -85.7285 -10.125 -128.331c-4.00781 -41.8438 -87.1826 -31.1416 -68.6123 16.7451c14.2412 36.7217 29.1201 73.2988 42.4307 110.372z" />
    <glyph glyph-name="F" unicode="F" horiz-adv-x="508" 
d="M161.445 576.964c28.2637 13.499 57.7549 25.8945 87.999 36.5762c6.47461 23.1689 37.6465 33.3721 58.5449 31.5166c8.61035 -0.762695 16.1475 -3.58691 22.3652 -7.88574c36.0469 8.21191 72.5938 13.3467 108.962 14.3281
c39.7354 1.07617 86.002 -0.549805 119.124 -25.6963c31.5664 -23.9648 47.748 -68.6289 52.4004 -106.451c4.35254 -35.3486 -62.458 -37.2646 -57.377 0.564453c2.50977 18.6953 8.61328 44.7559 1.0459 62.5566c-8.38086 19.707 -29.0127 30.7871 -48.7129 35.9521
c-46.0439 12.0723 -98.4688 4.98047 -144.438 -3.81543c-4.53125 -0.867188 -9.05566 -1.80176 -13.5732 -2.75977c1.33984 -5.17188 1.88965 -10.6885 1.46094 -16.4111c-10.3613 -138.062 -14.5859 -276.408 -14.377 -414.838
c0.00976562 -7.37207 0.0605469 -14.7412 0.125 -22.1133c53.71 14.1973 109.657 20.459 166.09 18.1748c21.4082 -0.867188 13.6279 -28.54 -5.87695 -27.7305c-53.9531 2.24023 -108.027 -4.32227 -159.865 -18.8408c0.839844 -52.2148 2.63477 -104.403 3.97461 -156.612
c0.917969 -35.7031 1.91992 -71.3662 2.52344 -107.076c0.306641 -18.0029 0.208984 -35.7637 -0.611328 -53.7539c-0.705078 -15.4424 0.46582 -33.4189 -3.68066 -48.3184c-5.05371 -18.1523 -26.3535 -22.5381 -41.3271 -13.9482
c-26.3643 15.1289 -31.8809 56.5273 -36.9717 83.8496c-5.91113 31.7119 -10.5674 63.7578 -14.083 95.8135c-4.3418 39.5996 -7.72949 79.3242 -10.3105 119.13c-3.37402 11.8896 -6.85938 23.7393 -10.8613 35.4102c-27.4736 -15.1426 -53.585 -32.7881 -77.8672 -52.7891
c-6.36621 -5.24316 -15.4453 -7.63574 -22.8008 -2.39648c-5.93457 4.22754 -8.35352 14.167 -2.03711 19.3799c28.8877 23.8467 59.8975 44.5459 92.4834 61.9795c-1.70703 3.83301 -3.47461 7.63867 -5.39453 11.3975c-21.4854 42.0898 -53.9531 78.3594 -91.377 106.947
c-58.8721 44.9678 -172.038 88.5488 -147.566 183.644c10.1318 39.3672 40.9492 70.0771 72.3535 93.9072c36.7559 27.8887 78.1035 50.4639 119.657 70.3096zM230.188 146.688c-4.49414 145.387 1.69336 291.354 15.6787 435.745
c-44.29 -16.2188 -87.1562 -36.4424 -127.65 -60.0225c-60.4512 -35.2002 -159.193 -101.525 -101.907 -181.127c23.6074 -32.8086 61.4463 -50.7578 94.5312 -72.166c30.9658 -20.0381 59.5732 -44.1816 83.6738 -72.1582
c13.3984 -15.5537 25.3965 -32.4268 35.6738 -50.2715z" />
    <glyph glyph-name="G" unicode="G" horiz-adv-x="494" 
d="M243.803 411.961c-5.57715 -12.666 -10.5146 -25.5088 -14.5635 -38.748c-4.27832 -13.9883 -2.41211 -24.6064 1.06348 -38.6553c4.4668 -18.0537 -19.6943 -29.333 -34.0508 -27.4941c-15.3682 1.9668 -30.8643 18.3477 -21.0361 34.2256
c7.54102 12.1836 15.1865 22.6768 20.0215 36.2168c3.61719 10.1221 7.6084 20.0684 11.708 30.001c9.43359 22.8555 19.7988 45.2686 29.7959 67.877c9.93262 22.4639 19.9229 45.4775 25.3682 69.5234c4.04492 17.8516 4.68945 51.4658 -21.2529 52.0459
c-18.1348 0.408203 -35.207 -17.0996 -47.3096 -28.8643c-12.7734 -12.416 -23.4248 -26.2832 -33.6846 -40.7773c-24.9365 -35.2275 -44.5664 -75.1416 -61.5205 -114.715c-34.2588 -79.959 -50.9902 -171.751 -46.9082 -258.708
c1.97363 -42.0195 5.71875 -84.0586 25.2168 -122.15c8.17188 -15.9658 18.6172 -39.2998 40.0752 -36.0205c21.8057 3.33301 38.1592 23.1045 49.9609 40.0586c49.6172 71.2783 80.7559 154.041 110.167 235.414c0.185547 9.4502 3.66406 17.3516 9.23145 23.5762
c0.479492 0.59375 1.01562 1.13379 1.58594 1.63672c24.252 24.1914 81.1904 20.1963 86.3154 -20.7803c7.90137 -63.1973 12.5781 -127.278 11.4307 -191.13c3.11719 2.14551 6.26855 4.23438 9.36914 6.4043c34.6406 24.2285 79.2441 51.1152 92.46 93.8096
c4.4873 14.4941 32.3662 12.0889 27.6631 -3.48828c-12.1934 -40.3994 -44.6709 -66.6787 -77.1992 -91.1162c-17.4404 -13.1006 -35.2988 -25.6074 -53.3262 -37.8789c-2.25 -44.6982 -7.61133 -89.1904 -17.0283 -133.092
c-9.79785 -45.6904 -27.2012 -88.9717 -50.7881 -129.243c-19.6465 -33.54 -47.876 -62.0195 -84.0615 -77.2432c-36.3877 -15.3076 -81.8486 -15.1797 -110.993 14.4268c-24.4717 24.8555 -31.9717 63.8486 -23.7764 97.042
c10.3105 41.7559 40.2881 75.3809 70.9844 103.932c33.7256 31.3672 70.9473 58.75 108.981 84.6143c7.82129 5.31738 15.7031 10.5508 23.5879 15.7803c-4.55469 59.7998 -10.793 119.344 -17.5303 178.925c-11.6406 -31.9512 -24.1074 -63.5889 -38.5146 -94.376
c-13.1377 -28.0781 -27.8213 -55.5088 -44.6846 -81.5352c-14.3389 -22.1328 -30.8311 -44.0498 -54.7354 -56.4326c-45.9941 -23.8271 -100.214 -3.33008 -129.881 36.1621c-32.6055 43.4023 -50.1533 96.623 -54.668 150.421
c-9.49414 113.132 17.4199 233.332 71.3359 333.056c25.6758 47.4951 59.4961 90.3984 105.787 119.191c42.6299 26.5195 109.748 44.5098 147.756 0.421875c31.1953 -36.1895 6.62988 -92.0312 -9.24414 -129.506c-10.3984 -24.5557 -22.3623 -48.4062 -33.1084 -72.8066z
M302.843 -146.231c6.0625 42.6768 4.13184 87.2852 1.53027 130.182c-0.280273 4.64551 -0.62793 9.27832 -0.931641 13.9209c-29.0898 -19.792 -57.8086 -40.2344 -84.709 -62.9043c-29.876 -25.1836 -60.957 -53.1162 -79.3047 -88.1855
c-16.1709 -30.9053 -19.6963 -72.3574 5.30176 -100.014c27.5986 -30.5312 74.4658 -14.8018 102.46 6.89258c32.373 25.0918 49.9746 60.1367 55.6533 100.108z" />
    <glyph glyph-name="H" unicode="H" horiz-adv-x="905" 
d="M431.261 688.224c-1.35645 -72.543 -11.9893 -144.667 -17.3838 -217.012c-3.3877 -45.4268 -5.8916 -90.9688 -7.60254 -136.555c21.4883 6.51172 42.9873 13.2432 64.5938 19.957c39.0195 12.126 78.3906 23.4893 118.368 32.0527
c0.276367 88.6475 2.5 177.234 11.876 265.456c2.58398 24.333 32.1436 37.4912 53.2207 37.3027c20.2031 -0.182617 49.3643 -14.002 49.1855 -38.3076c-0.624023 -84.1533 -4.21094 -168.219 -5.56055 -252.352c23.7764 -0.944336 47.3135 -4.97266 70.0098 -13.6338
c18.0205 -6.87598 3.24609 -28.9619 -12.5742 -23.1484c-18.7461 6.88965 -38.1328 10.1797 -57.7451 10.9932c-0.0273438 -3.02637 -0.0849609 -6.05664 -0.108398 -9.08301c-0.630859 -84.8174 1.55859 -169.564 3.38379 -254.352
c1.64648 -76.5615 0.523438 -154.551 19.3867 -229.264c3.45801 -13.6914 7.73926 -30.9189 15.5234 -42.8018c9.75781 -14.8896 28.8711 -9.60254 41.7559 -1.00195c30.1494 20.1221 43.7266 64.4053 56.6016 96.4443c29.9873 74.6084 50.5039 152.796 62.2959 232.296
c2.24414 15.1289 29.9648 12.7305 27.6641 -3.48828c-13.7188 -96.7314 -40.5078 -191.965 -80.874 -281.023c-15.2471 -33.6348 -37.2354 -67.084 -74.7305 -78.002c-34.833 -10.1426 -75.2734 4.32129 -100.109 29.7607c-60.2656 61.7227 -64.0205 162.132 -70.0195 242.8
c-7.02148 94.3926 -9.13672 189.042 -9.21777 283.682c-5.41504 -1.31543 -10.7861 -2.66797 -16.1064 -4.03418c-56.75 -14.5654 -112.137 -33.7666 -167.827 -51.8877c-1.95312 -66.3281 -2.31738 -132.728 -1.19727 -199.012
c1.05957 -62.9004 3.10449 -125.886 6.30957 -188.716c1.5752 -30.9053 3.18164 -61.7666 4.40625 -92.6855c0.617188 -15.6045 0.897461 -30.9521 0.208984 -46.5566c-0.37793 -8.64746 -0.823242 -17.2812 -1.37305 -25.9189
c-0.192383 -3.0498 0.0302734 -6.63965 -0.621094 -9.62207c-3.62012 -16.5693 -3.58594 -8.40137 -2.47559 -5.17285c-0.0644531 0.148438 -0.128906 0.299805 -0.193359 0.448242c-2.68262 -13.2861 -14.5996 -20.5742 -28.126 -23.3105
c-46.0645 -9.31934 -55.1709 55.1201 -60.6436 87.0205c-6.1748 35.9834 -11.2256 71.8926 -15.0986 108.196c-12.7979 119.975 -18.1924 240.884 -16.4043 361.553c-10.9346 -2.68262 -21.9102 -5.22656 -32.9668 -7.49707
c-54.5977 -11.2148 -109.505 -13.7754 -164.74 -19.4238c-47.2998 -4.83496 -104.157 -6.80566 -136.523 34.6299c-9.91895 12.6992 -5.86328 29.252 7.44043 37.7715c14.4912 9.28125 31.918 6.00879 44.0469 -5.06836c14.5723 -13.3066 40.8418 -15.6582 59.3311 -18.3037
c30.7129 -4.39258 60.542 -7.69238 91.6602 -6.3125c45.3291 2.01074 89.2344 8.90332 132.499 18.5293c1.62988 64.0479 4.78418 128.079 9.4668 191.972c4.7373 64.6689 8.41504 130.525 23.4229 193.736c6.02246 25.3691 31.3105 39.4043 55.9033 39.1816
c20.9932 -0.188477 52.1377 -14.7236 51.6621 -40.2373z" />
    <glyph glyph-name="I" unicode="I" horiz-adv-x="477" 
d="M269.711 403.799c-0.0507812 -122.363 -9.19727 -244.643 -10.7158 -367.02c-0.674805 -54.4453 1.78809 -107.912 11.4951 -161.548c3.10449 -17.167 6.95117 -49.3711 26.6113 -55.0967c23.665 -6.88965 44.0742 16.5664 55.9941 33.7705
c61.7539 89.1328 98.4492 199.289 115.248 305.619c2.38867 15.1084 30.0859 12.7129 27.6631 -3.48926c-9.10645 -60.8525 -24.9268 -120.305 -47.1953 -177.665c-20.5 -52.8096 -45.4199 -110.251 -82.0781 -154.059c-13.4619 -16.0908 -31.1416 -29.374 -52.209 -33.0107
c-21.5596 -3.72168 -40.6221 4.66895 -59.3848 14.2646c-49.1553 25.1426 -72.8604 79.3145 -84.2471 130.713c-12.2979 55.5215 -13.7686 113.186 -13.4785 169.845c0.306641 59.9824 2.41504 119.938 3.90625 179.896c1.52148 61.1191 2.33105 122.259 3.2998 183.385
c0.887695 56.0107 5.09473 114.053 -8.49219 168.94c-2.0918 8.45215 -4.81836 21.7764 -10.834 28.4297c-7.01074 7.75977 -18.6943 5.78906 -27.6084 2.86426c-23.7227 -7.78711 -42.833 -30.7803 -56.0254 -51.0674
c-13.4688 -20.7197 -22.5244 -41.6016 -24.8184 -66.2754c-2.14941 -23.1221 -3.29297 -46.7227 -2.88184 -69.9453c0.688477 -38.8447 -66.6592 -37.792 -60.6641 0.59668c4.47363 28.625 11.5459 55.4746 24.208 81.623c11.3633 23.4629 20.9453 48.2949 35.3789 70.1143
c27.3086 41.2803 77.4619 86.4844 131.118 70.6504c57.6641 -17.0146 77.79 -72.0742 89.2852 -125.875c12.3115 -57.6104 16.4482 -116.854 16.4248 -175.661z" />
    <glyph glyph-name="I" unicode="&#xcf;" horiz-adv-x="477" 
d="M269.711 403.799c-0.0507812 -122.363 -9.19727 -244.643 -10.7158 -367.02c-0.674805 -54.4453 1.78809 -107.912 11.4951 -161.548c3.10449 -17.167 6.95117 -49.3711 26.6113 -55.0967c23.665 -6.88965 44.0742 16.5664 55.9941 33.7705
c61.7539 89.1328 98.4492 199.289 115.248 305.619c2.38867 15.1084 30.0859 12.7129 27.6631 -3.48926c-9.10645 -60.8525 -24.9268 -120.305 -47.1953 -177.665c-20.5 -52.8096 -45.4199 -110.251 -82.0781 -154.059c-13.4619 -16.0908 -31.1416 -29.374 -52.209 -33.0107
c-21.5596 -3.72168 -40.6221 4.66895 -59.3848 14.2646c-49.1553 25.1426 -72.8604 79.3145 -84.2471 130.713c-12.2979 55.5215 -13.7686 113.186 -13.4785 169.845c0.306641 59.9824 2.41504 119.938 3.90625 179.896c1.52148 61.1191 2.33105 122.259 3.2998 183.385
c0.887695 56.0107 5.09473 114.053 -8.49219 168.94c-2.0918 8.45215 -4.81836 21.7764 -10.834 28.4297c-7.01074 7.75977 -18.6943 5.78906 -27.6084 2.86426c-23.7227 -7.78711 -42.833 -30.7803 -56.0254 -51.0674
c-13.4688 -20.7197 -22.5244 -41.6016 -24.8184 -66.2754c-2.14941 -23.1221 -3.29297 -46.7227 -2.88184 -69.9453c0.688477 -38.8447 -66.6592 -37.792 -60.6641 0.59668c4.47363 28.625 11.5459 55.4746 24.208 81.623c11.3633 23.4629 20.9453 48.2949 35.3789 70.1143
c27.3086 41.2803 77.4619 86.4844 131.118 70.6504c57.6641 -17.0146 77.79 -72.0742 89.2852 -125.875c12.3115 -57.6104 16.4482 -116.854 16.4248 -175.661z" />
    <glyph glyph-name="I" unicode="&#xce;" horiz-adv-x="477" 
d="M269.711 403.799c-0.0507812 -122.363 -9.19727 -244.643 -10.7158 -367.02c-0.674805 -54.4453 1.78809 -107.912 11.4951 -161.548c3.10449 -17.167 6.95117 -49.3711 26.6113 -55.0967c23.665 -6.88965 44.0742 16.5664 55.9941 33.7705
c61.7539 89.1328 98.4492 199.289 115.248 305.619c2.38867 15.1084 30.0859 12.7129 27.6631 -3.48926c-9.10645 -60.8525 -24.9268 -120.305 -47.1953 -177.665c-20.5 -52.8096 -45.4199 -110.251 -82.0781 -154.059c-13.4619 -16.0908 -31.1416 -29.374 -52.209 -33.0107
c-21.5596 -3.72168 -40.6221 4.66895 -59.3848 14.2646c-49.1553 25.1426 -72.8604 79.3145 -84.2471 130.713c-12.2979 55.5215 -13.7686 113.186 -13.4785 169.845c0.306641 59.9824 2.41504 119.938 3.90625 179.896c1.52148 61.1191 2.33105 122.259 3.2998 183.385
c0.887695 56.0107 5.09473 114.053 -8.49219 168.94c-2.0918 8.45215 -4.81836 21.7764 -10.834 28.4297c-7.01074 7.75977 -18.6943 5.78906 -27.6084 2.86426c-23.7227 -7.78711 -42.833 -30.7803 -56.0254 -51.0674
c-13.4688 -20.7197 -22.5244 -41.6016 -24.8184 -66.2754c-2.14941 -23.1221 -3.29297 -46.7227 -2.88184 -69.9453c0.688477 -38.8447 -66.6592 -37.792 -60.6641 0.59668c4.47363 28.625 11.5459 55.4746 24.208 81.623c11.3633 23.4629 20.9453 48.2949 35.3789 70.1143
c27.3086 41.2803 77.4619 86.4844 131.118 70.6504c57.6641 -17.0146 77.79 -72.0742 89.2852 -125.875c12.3115 -57.6104 16.4482 -116.854 16.4248 -175.661z" />
    <glyph glyph-name="I" unicode="&#xcd;" horiz-adv-x="477" 
d="M269.711 403.799c-0.0507812 -122.363 -9.19727 -244.643 -10.7158 -367.02c-0.674805 -54.4453 1.78809 -107.912 11.4951 -161.548c3.10449 -17.167 6.95117 -49.3711 26.6113 -55.0967c23.665 -6.88965 44.0742 16.5664 55.9941 33.7705
c61.7539 89.1328 98.4492 199.289 115.248 305.619c2.38867 15.1084 30.0859 12.7129 27.6631 -3.48926c-9.10645 -60.8525 -24.9268 -120.305 -47.1953 -177.665c-20.5 -52.8096 -45.4199 -110.251 -82.0781 -154.059c-13.4619 -16.0908 -31.1416 -29.374 -52.209 -33.0107
c-21.5596 -3.72168 -40.6221 4.66895 -59.3848 14.2646c-49.1553 25.1426 -72.8604 79.3145 -84.2471 130.713c-12.2979 55.5215 -13.7686 113.186 -13.4785 169.845c0.306641 59.9824 2.41504 119.938 3.90625 179.896c1.52148 61.1191 2.33105 122.259 3.2998 183.385
c0.887695 56.0107 5.09473 114.053 -8.49219 168.94c-2.0918 8.45215 -4.81836 21.7764 -10.834 28.4297c-7.01074 7.75977 -18.6943 5.78906 -27.6084 2.86426c-23.7227 -7.78711 -42.833 -30.7803 -56.0254 -51.0674
c-13.4688 -20.7197 -22.5244 -41.6016 -24.8184 -66.2754c-2.14941 -23.1221 -3.29297 -46.7227 -2.88184 -69.9453c0.688477 -38.8447 -66.6592 -37.792 -60.6641 0.59668c4.47363 28.625 11.5459 55.4746 24.208 81.623c11.3633 23.4629 20.9453 48.2949 35.3789 70.1143
c27.3086 41.2803 77.4619 86.4844 131.118 70.6504c57.6641 -17.0146 77.79 -72.0742 89.2852 -125.875c12.3115 -57.6104 16.4482 -116.854 16.4248 -175.661z" />
    <glyph glyph-name="J" unicode="J" horiz-adv-x="616" 
d="M502.448 728.795c-30.251 -5.74219 -59.6299 -17.2881 -87.0801 -31.0674c-3.26562 -1.63965 -6.51172 -3.31641 -9.74023 -5.0166c7.63867 -6.62305 13.0137 -15.9521 14.373 -28.2705c8.61035 -78.0127 17.1699 -156.028 26.0674 -234.011
c8.88379 -77.8672 17.3926 -155.725 18.8398 -234.148c0.380859 -20.6416 0.371094 -41.2969 -0.0908203 -61.9385c25.0957 7.61816 50.1914 15.2295 75.2832 22.8613c26.3105 8.00293 57.0303 15.6719 73.6572 39.5225c8.5498 12.2676 35.0859 4.52734 25.4365 -9.47168
c-15.6182 -22.6562 -38.3555 -35.3799 -63.8486 -44.5029c-30.3086 -10.8477 -61.5918 -19.374 -92.3457 -28.8721c-6.32324 -1.95312 -12.6729 -3.88281 -19.0332 -5.80957c-1.76074 -41.2637 -5.55273 -82.4189 -12.1729 -123.23
c-10.4795 -64.5811 -28.6582 -131.126 -65.3164 -186.139c-28.7256 -43.1055 -74.5469 -81.6963 -128.662 -84.1318c-51.5098 -2.31836 -96.2285 32.5215 -116.25 78.627c-46.6621 107.457 39.5967 218.402 129.242 268.59c30.2344 16.9268 62.2197 29.9844 94.8525 41.3408
c-1.38672 56.5742 -6.12402 113.186 -11.8359 169.709c-12.2441 121.165 -35.5342 241.467 -42.5352 363.107c-16.8057 -10.5605 -33.709 -20.9521 -51.041 -30.6084c-49.8467 -27.7744 -104.359 -49.334 -161.784 -53.6289
c-26.8604 -2.00781 -61.75 -5.29785 -87.2676 4.18262c-20.1289 7.48047 -47.8828 37.2451 -19.3193 53.8145c12.5576 7.28125 22.6689 0.581055 33.9277 -4.83105c9.78809 -4.70312 20.4229 -8.69824 30.3857 -13.1318c26.0303 -11.583 58.8389 -9.21094 86.0732 -2.94531
c58.9629 13.5596 110.999 46.0977 161.666 77.8125c3.26953 2.04492 6.54199 4.09277 9.81836 6.14062c8.42188 20.3418 31.2031 31.668 53.5791 32.2754c29.7988 16.8828 60.5859 31.9004 93.3604 42.1035c40.9805 12.7568 110.879 30.0381 142.206 -10.5537
c12.6289 -16.3633 -16.5488 -32.0928 -27.5449 -17.4941c-15.709 20.8574 -50.6865 13.9336 -72.9004 9.71582zM352.431 -96.6123c10.2539 57.5596 13.8779 115.314 13.6113 173.12c-23.1689 -8.54297 -45.876 -18.165 -67.6582 -29.7002
c-47.5625 -25.1836 -89.5918 -59.79 -115.233 -107.858c-23.7764 -44.5732 -32.1064 -100.719 -6.50488 -146.429c23.8975 -42.6641 80.6133 -71.6162 119.6 -30.0859c34.4346 36.6816 47.6465 93.0029 56.1855 140.953z" />
    <glyph glyph-name="K" unicode="K" horiz-adv-x="645" 
d="M109.02 641.362c-4.46387 -62.9609 -8.62793 -126.018 -10.5576 -189.117c-0.151367 -4.99023 -0.228516 -9.98047 -0.360352 -14.9736c35.2578 30.9121 79.3115 53.1191 121.729 72.3574c40.123 18.1953 81.7207 34.5928 117.623 60.5791
c15.9658 11.5557 29.374 24.5449 41.0615 40.416c11.208 15.2197 25.0752 30.1895 28.8711 49.2422c3.10449 15.5947 24.5186 17.0996 34.2354 7.49023c34.0938 -33.7158 -21.3398 -82.7998 -47.5078 -101.677c-35.3525 -25.5068 -73.3262 -45.7002 -113.229 -63.1709
c-54.499 -23.8604 -115.861 -46.6074 -160.56 -86.5146c56.7461 -19.4004 85.2861 -80.5908 106.306 -134.901c23.1592 -59.8369 42.0664 -121.209 65.748 -180.877c9.62207 -24.2422 19.7979 -48.5312 35.1396 -69.7842
c16.0967 -22.3057 30.4092 -43.9463 53.2402 -59.9961c119.991 -84.3457 213.062 103.867 255.179 187.898c7.28418 14.5312 35.4297 6.23438 27.1533 -10.1094c-32.2549 -63.7002 -65.9404 -131.139 -119.694 -179.771
c-46.7432 -42.2891 -103.706 -59.334 -164.157 -37.1572c-28.2168 10.3516 -54.9043 25.8652 -79.0723 43.6963c-24.1436 17.8115 -43.4902 43.4668 -60.3906 68.0254c-39.6436 57.6172 -57.1445 122.917 -79.7402 188.257
c-14.2891 41.3203 -31.1182 94.6123 -63.1504 129.246c-0.412109 -85.2324 2.04395 -170.408 6.52832 -255.591c3.0166 -57.3164 8.20605 -114.454 12.8145 -171.649c2.28125 -28.3008 4.12695 -56.4697 5.71973 -84.8145
c1.52148 -27.0693 5.10156 -54.3008 1.94043 -81.3535c-2.81055 -24.0527 -39.0469 -26.1543 -52.5625 -11.498c-23.3984 25.3721 -31.2256 60.3467 -39.6436 92.8174c-8.31641 32.0859 -13.8838 64.5303 -19.3027 97.2207
c-19.0625 115.001 -24.8652 233.049 -26.2314 349.45c-1.40332 119.718 4.90234 240.455 20.6152 359.157c3.61719 27.3125 37.0127 39.4893 60.4277 37.4111c27.0654 -2.40234 43.6582 -24.502 41.8291 -50.3096z" />
    <glyph glyph-name="L" unicode="L" horiz-adv-x="546" 
d="M-41.7451 316.363c-18.9385 21.9004 17.583 41.2305 36.001 29.4248c43.8076 -28.0918 97.9629 -63.2412 152.338 -57.1279c7.10254 0.799805 14.0459 2.14941 20.834 3.94434c0.671875 58.666 3.19531 117.538 8.34082 175.826
c6.07324 68.8018 17.2441 137.469 43.5371 201.786c20.3652 49.8193 58.7842 116.516 123.503 102.801c54.8535 -11.623 73.6631 -78.7852 75.127 -126.878c1.85547 -60.9912 -16.0029 -123.393 -40.5684 -178.763c-23.6514 -53.3154 -57.3672 -102.889 -99.8145 -143.056
c2.01074 -58.7881 4.94922 -117.542 7.7998 -176.02c3.11426 -63.8457 7.01758 -127.664 10.749 -191.476c0.516602 -8.83984 1.13086 -17.7236 1.77832 -26.6406c67.1387 88.0635 178.114 142.951 242.654 234.688c8.56641 12.1768 35.0889 4.5957 25.4355 -9.4707
c-42.4512 -61.8682 -102.329 -106.195 -158.634 -154.483c-40.9092 -35.0859 -81.0664 -74.6621 -105.727 -122.687c2.53711 -39.9033 3.58984 -79.959 -1.94727 -119.063c-3.14746 -22.2412 -27.376 -35.3525 -47.3535 -38.2236
c-18.2666 -2.625 -48.7266 7.34863 -54.2637 27.542c-22.2344 81.0996 -20.4902 169.305 -24.7412 252.904c-4.16309 81.8154 -5.70508 163.887 -6.06641 245.803c-0.0205078 4.30176 0.00292969 8.61328 0.00292969 12.918
c-15.3311 -3.94434 -31.3535 -6.33008 -48.2168 -6.87305c-60.5723 -1.95703 -120.2 16.2119 -160.769 63.123zM275.772 520.765c-1.21484 -51.3213 -0.794922 -102.823 0.524414 -154.347c6.22168 6.84961 12.167 13.8301 17.8154 20.8037
c33.6787 41.5908 59.2803 90.29 75.9648 141.075c17.5381 53.3857 29.374 117.427 8.95801 171.744c-7.31152 19.4473 -22.7334 45.8418 -46.7354 45.6396c-26.0537 -0.219727 -35.9424 -32.9238 -40.541 -53.2725c-12.6865 -56.1396 -14.6367 -114.374 -15.9863 -171.644z
" />
    <glyph glyph-name="M" unicode="M" horiz-adv-x="859" 
d="M59.4512 637.26c26.1953 -2.32422 42.6357 -23.834 40.6719 -48.9395c-9.49121 -121.907 -12.3223 -243.146 -9.5459 -365.392c0.695312 -30.5342 1.94043 -61.041 3.26953 -91.5449c3.41406 23.1553 6.94629 46.2939 10.6143 69.416
c13.5098 85.2227 28.6621 170.489 53.1768 253.333c11.6201 39.2559 25.0312 78.3975 41.9277 115.724c12.4971 27.6094 33.3652 74.5684 68.9297 75.8574c17.7129 0.640625 29.5957 -11.1816 38.9756 -24.6104c10.3984 -14.8857 20.4229 -29.542 28.2676 -45.9971
c17.9424 -37.6328 24.9941 -77.6104 32.7715 -118.219c8.48242 -44.2793 16.4043 -89.4258 22.167 -134.785c14.7441 42.6025 31.7119 84.3652 53.5039 123.885c13.9004 25.2031 31.1045 58.0381 63.1133 61.8232c30.4766 3.60352 56.9658 -22.0049 71.5752 -46.0342
c39.958 -65.7178 45.8828 -150.391 52.2695 -225.083c4.94629 -57.8633 13.9443 -119.806 66.5371 -153.407c24.0127 -15.3418 57.8125 -8.52637 81.8555 3.21191c29.667 14.4814 52.0566 38.4434 67.418 67.3447c8.09082 15.2236 37.8662 6.54883 28.8682 -10.7461
c-31.5801 -60.6943 -93.5596 -104.275 -163.218 -104.215c-33.8779 0.0302734 -64.4795 1.67676 -95.0303 17.8213c-30.0244 15.8682 -55.9131 44.9082 -66.7637 77.3555c-11.293 33.7598 -13.4453 68.4336 -14.8555 103.719
c-1.58203 39.6104 -3.41406 79.3213 -4.10938 118.952c-0.354492 20.3184 -1.27246 40.6094 -1.53906 60.9238c-0.206055 15.6621 1.14355 34.2119 -3.16113 49.4111c-6.00195 21.1953 -25.1826 10.459 -34.6875 -1.84961
c-10.21 -13.2188 -18.0205 -28.9688 -25.7334 -43.7266c-29.6299 -56.6855 -49.8398 -117.417 -68.5283 -178.438c1.03613 -17.4902 1.62695 -34.957 1.64062 -52.3604c0.046875 -55.3838 -89.4912 -65.8975 -99.249 -10.4326
c-15.5947 88.6475 -16.6875 181.414 -15.4189 271.242c0.50293 35.3926 3.04004 71.5312 0.860352 106.854c-0.883789 14.3223 -1.04883 41.5361 -12.3545 52.0391c-4.49707 4.18066 -2.60742 5.97852 -10.0137 1.38281
c-2.3584 -1.46387 -5.30762 -6.20801 -7.09277 -8.58691c-5.64453 -7.51367 -10.5 -15.6885 -14.9971 -23.9238c-35.5449 -65.1143 -55.3301 -140.674 -71.8965 -212.539c-31.3506 -136.004 -47.7109 -274.95 -68.1035 -412.941
c1.1709 -35.376 0.644531 -70.8125 -5.90723 -104.734c-5.28027 -27.3359 -53.7471 -34.1309 -63.8525 -6.71094c-22.126 60.0459 -25.2939 127.899 -31.9404 191.057c-6.47461 61.5273 -9.76465 123.544 -12.5244 185.341
c-5.66113 126.786 -4.51367 256.343 13.335 382.137c3.76855 26.5498 35.7939 38.4258 58.7744 36.3877z" />
    <glyph glyph-name="N" unicode="N" horiz-adv-x="591" 
d="M53.6045 630.33c19.3096 0.046875 47.4141 -13.5879 47.1611 -36.7295c-1.43066 -127.69 -12.666 -254.912 -11.6543 -382.725c0.269531 -34.124 0.967773 -68.2344 1.82812 -102.342c5.70215 45.8115 12.457 91.498 20.6152 136.996
c9.67285 53.9326 21.3438 107.524 35.751 160.397c13.5127 49.6074 27.4775 101.806 49.7422 148.332c8.39746 17.5449 21.5488 39.29 40.1699 47.3809c20.8984 9.0791 36.8203 -5.87793 48.4502 -21.8809c31.1758 -42.8926 38.8477 -100.401 45.5381 -151.723
c7.13281 -54.7119 10.8408 -109.688 17.2686 -164.467c6.16406 -52.5156 11.1172 -105.945 33.1895 -154.57c16.4414 -36.2197 41.2598 -69.8105 86.8213 -64.3418c48.1123 5.77637 82.4561 47.5361 104.062 87.4639c9.26855 17.1299 42.3936 7.78418 32.7236 -12.1826
c-22.8516 -47.1885 -59.0576 -87.7031 -107.619 -109.148c-53.0488 -23.4258 -115.265 -21.958 -163.367 12.0645c-47.7617 33.7832 -64.0576 88.708 -73.3594 143.909c-9.34961 55.4609 -12.126 111.492 -14.1299 167.611
c-2.01758 56.46 -2.24707 113.871 -0.0644531 170.327c0.492188 12.7666 1.49414 25.5137 1.95996 38.2871c0.192383 5.25 0.300781 10.4932 0.00390625 15.7432c-0.188477 3.36035 -1.25781 7.4834 -1.07227 10.7227c-0.125 0.698242 -0.246094 1.40039 -0.371094 2.09863
c-0.438477 -0.442383 -0.9375 -0.830078 -1.35254 -1.29883c-1.8291 -1.87207 -3.60352 -3.83594 -5.22656 -5.89453c-3.52539 -4.47363 -6.48438 -9.44727 -9.2002 -14.4404c-5.73535 -10.5469 -10.1416 -21.7822 -14.3047 -33.0205
c-76.3525 -206.132 -97.8242 -426.613 -119.121 -643.805c-0.262695 -2.68262 -1.33887 -4.79102 -2.86426 -6.43066c-0.583984 -13.5771 -1.79492 -27.1035 -4.26758 -40.4678c-4.39258 -23.7354 -42.2314 -26.1279 -52.0225 -5.46875
c-14.3496 30.2676 -20.875 63.6836 -27.3896 96.3809c-6.22852 31.2627 -11.377 63.1738 -15.0273 94.8379c-7.32129 63.5078 -11.6299 127.205 -13.3604 191.098c-3.51855 130.019 -4.07227 263.223 19.4609 391.518c4.30176 23.4561 29.4717 35.7168 51.0283 35.7676z" />
    <glyph glyph-name="O" unicode="O" horiz-adv-x="569" 
d="M-22.8398 427.909c11.2998 84.9971 49.4404 177.8 116.629 233.76c33.459 27.8691 78.3086 45.7676 122.309 38.2168c43.085 -7.39258 79.2061 -35.8789 103.34 -71.4199c54.8301 -80.7451 70.4756 -187.632 76.9668 -282.868
c5.82031 -85.3945 2.83105 -171.883 -13.7451 -255.941c66.3047 14.9736 128.996 43.7061 184.221 83.8359c14.6465 10.6416 34.6875 -9.27148 18.2129 -21.3135c-61.7773 -45.1533 -133.666 -77.0068 -208.831 -92.0752
c-1.23438 -5.18945 -2.49316 -10.375 -3.83984 -15.541c-22.1367 -84.9902 -61.3154 -180.77 -150.891 -212.896c-40.4707 -14.5146 -82.25 -20.2539 -122.96 -2.59473c-48.4697 21.0234 -69.1787 65.8535 -79.9688 114.918
c-16.7109 75.998 -8.6875 154.989 6.05957 231.845c-45.0225 74.5107 -58.8691 166.569 -47.502 252.075zM328.778 6.68359c5.43848 15.7998 10.2402 31.7939 14.4707 47.9385c-18.874 -2.50977 -37.8896 -3.97363 -56.9424 -4.29395
c-61.1865 -1.03223 -122.39 10.5537 -173.64 39.6475c-6.4375 -47.1309 -9.4541 -94.582 -5.81738 -142.32c2.82031 -37.0156 14.8955 -71.8242 52.2285 -86.0459c41.709 -15.8877 80.8301 6.64062 109.604 36.8682c28.7227 30.1768 46.6787 69.2236 60.0967 108.206z
M148.32 665.672c-38.2373 -17.5518 -65.8643 -52.4531 -86.8672 -87.8018c-41.3271 -69.5908 -59.7998 -151.845 -53.6055 -232.448c3.0332 -39.458 11.5156 -81.0693 27.3467 -119.104c3.25293 14.6123 6.60352 29.1064 9.93359 43.4355
c12.4805 53.7129 112.656 45.1934 99.9268 -12.6025c-9.91895 -45.0283 -20.1113 -90.4082 -27.7031 -136.102c60.8828 -41.2666 139.968 -48.2607 211.536 -40.4434c7.11523 0.776367 14.1875 1.77148 21.2393 2.86133c4.07617 18.709 7.45703 37.5762 10.1055 56.5576
c12.4365 89.0957 11.1143 180.833 -0.701172 269.942c-6.05273 45.6631 -15.6885 90.9316 -31.4551 134.28c-13.752 37.8115 -31.8125 76.6016 -62.9268 103.326c-33.3916 28.6816 -76.3418 36.6846 -116.829 18.0977z" />
    <glyph glyph-name="O" unicode="&#xd6;" horiz-adv-x="569" 
d="M-22.8398 427.909c11.2998 84.9971 49.4404 177.8 116.629 233.76c33.459 27.8691 78.3086 45.7676 122.309 38.2168c43.085 -7.39258 79.2061 -35.8789 103.34 -71.4199c54.8301 -80.7451 70.4756 -187.632 76.9668 -282.868
c5.82031 -85.3945 2.83105 -171.883 -13.7451 -255.941c66.3047 14.9736 128.996 43.7061 184.221 83.8359c14.6465 10.6416 34.6875 -9.27148 18.2129 -21.3135c-61.7773 -45.1533 -133.666 -77.0068 -208.831 -92.0752
c-1.23438 -5.18945 -2.49316 -10.375 -3.83984 -15.541c-22.1367 -84.9902 -61.3154 -180.77 -150.891 -212.896c-40.4707 -14.5146 -82.25 -20.2539 -122.96 -2.59473c-48.4697 21.0234 -69.1787 65.8535 -79.9688 114.918
c-16.7109 75.998 -8.6875 154.989 6.05957 231.845c-45.0225 74.5107 -58.8691 166.569 -47.502 252.075zM328.778 6.68359c5.43848 15.7998 10.2402 31.7939 14.4707 47.9385c-18.874 -2.50977 -37.8896 -3.97363 -56.9424 -4.29395
c-61.1865 -1.03223 -122.39 10.5537 -173.64 39.6475c-6.4375 -47.1309 -9.4541 -94.582 -5.81738 -142.32c2.82031 -37.0156 14.8955 -71.8242 52.2285 -86.0459c41.709 -15.8877 80.8301 6.64062 109.604 36.8682c28.7227 30.1768 46.6787 69.2236 60.0967 108.206z
M148.32 665.672c-38.2373 -17.5518 -65.8643 -52.4531 -86.8672 -87.8018c-41.3271 -69.5908 -59.7998 -151.845 -53.6055 -232.448c3.0332 -39.458 11.5156 -81.0693 27.3467 -119.104c3.25293 14.6123 6.60352 29.1064 9.93359 43.4355
c12.4805 53.7129 112.656 45.1934 99.9268 -12.6025c-9.91895 -45.0283 -20.1113 -90.4082 -27.7031 -136.102c60.8828 -41.2666 139.968 -48.2607 211.536 -40.4434c7.11523 0.776367 14.1875 1.77148 21.2393 2.86133c4.07617 18.709 7.45703 37.5762 10.1055 56.5576
c12.4365 89.0957 11.1143 180.833 -0.701172 269.942c-6.05273 45.6631 -15.6885 90.9316 -31.4551 134.28c-13.752 37.8115 -31.8125 76.6016 -62.9268 103.326c-33.3916 28.6816 -76.3418 36.6846 -116.829 18.0977z" />
    <glyph glyph-name="O" unicode="&#xd5;" horiz-adv-x="569" 
d="M-22.8398 427.909c11.2998 84.9971 49.4404 177.8 116.629 233.76c33.459 27.8691 78.3086 45.7676 122.309 38.2168c43.085 -7.39258 79.2061 -35.8789 103.34 -71.4199c54.8301 -80.7451 70.4756 -187.632 76.9668 -282.868
c5.82031 -85.3945 2.83105 -171.883 -13.7451 -255.941c66.3047 14.9736 128.996 43.7061 184.221 83.8359c14.6465 10.6416 34.6875 -9.27148 18.2129 -21.3135c-61.7773 -45.1533 -133.666 -77.0068 -208.831 -92.0752
c-1.23438 -5.18945 -2.49316 -10.375 -3.83984 -15.541c-22.1367 -84.9902 -61.3154 -180.77 -150.891 -212.896c-40.4707 -14.5146 -82.25 -20.2539 -122.96 -2.59473c-48.4697 21.0234 -69.1787 65.8535 -79.9688 114.918
c-16.7109 75.998 -8.6875 154.989 6.05957 231.845c-45.0225 74.5107 -58.8691 166.569 -47.502 252.075zM328.778 6.68359c5.43848 15.7998 10.2402 31.7939 14.4707 47.9385c-18.874 -2.50977 -37.8896 -3.97363 -56.9424 -4.29395
c-61.1865 -1.03223 -122.39 10.5537 -173.64 39.6475c-6.4375 -47.1309 -9.4541 -94.582 -5.81738 -142.32c2.82031 -37.0156 14.8955 -71.8242 52.2285 -86.0459c41.709 -15.8877 80.8301 6.64062 109.604 36.8682c28.7227 30.1768 46.6787 69.2236 60.0967 108.206z
M148.32 665.672c-38.2373 -17.5518 -65.8643 -52.4531 -86.8672 -87.8018c-41.3271 -69.5908 -59.7998 -151.845 -53.6055 -232.448c3.0332 -39.458 11.5156 -81.0693 27.3467 -119.104c3.25293 14.6123 6.60352 29.1064 9.93359 43.4355
c12.4805 53.7129 112.656 45.1934 99.9268 -12.6025c-9.91895 -45.0283 -20.1113 -90.4082 -27.7031 -136.102c60.8828 -41.2666 139.968 -48.2607 211.536 -40.4434c7.11523 0.776367 14.1875 1.77148 21.2393 2.86133c4.07617 18.709 7.45703 37.5762 10.1055 56.5576
c12.4365 89.0957 11.1143 180.833 -0.701172 269.942c-6.05273 45.6631 -15.6885 90.9316 -31.4551 134.28c-13.752 37.8115 -31.8125 76.6016 -62.9268 103.326c-33.3916 28.6816 -76.3418 36.6846 -116.829 18.0977z" />
    <glyph glyph-name="O" unicode="&#xd4;" horiz-adv-x="569" 
d="M-22.8398 427.909c11.2998 84.9971 49.4404 177.8 116.629 233.76c33.459 27.8691 78.3086 45.7676 122.309 38.2168c43.085 -7.39258 79.2061 -35.8789 103.34 -71.4199c54.8301 -80.7451 70.4756 -187.632 76.9668 -282.868
c5.82031 -85.3945 2.83105 -171.883 -13.7451 -255.941c66.3047 14.9736 128.996 43.7061 184.221 83.8359c14.6465 10.6416 34.6875 -9.27148 18.2129 -21.3135c-61.7773 -45.1533 -133.666 -77.0068 -208.831 -92.0752
c-1.23438 -5.18945 -2.49316 -10.375 -3.83984 -15.541c-22.1367 -84.9902 -61.3154 -180.77 -150.891 -212.896c-40.4707 -14.5146 -82.25 -20.2539 -122.96 -2.59473c-48.4697 21.0234 -69.1787 65.8535 -79.9688 114.918
c-16.7109 75.998 -8.6875 154.989 6.05957 231.845c-45.0225 74.5107 -58.8691 166.569 -47.502 252.075zM328.778 6.68359c5.43848 15.7998 10.2402 31.7939 14.4707 47.9385c-18.874 -2.50977 -37.8896 -3.97363 -56.9424 -4.29395
c-61.1865 -1.03223 -122.39 10.5537 -173.64 39.6475c-6.4375 -47.1309 -9.4541 -94.582 -5.81738 -142.32c2.82031 -37.0156 14.8955 -71.8242 52.2285 -86.0459c41.709 -15.8877 80.8301 6.64062 109.604 36.8682c28.7227 30.1768 46.6787 69.2236 60.0967 108.206z
M148.32 665.672c-38.2373 -17.5518 -65.8643 -52.4531 -86.8672 -87.8018c-41.3271 -69.5908 -59.7998 -151.845 -53.6055 -232.448c3.0332 -39.458 11.5156 -81.0693 27.3467 -119.104c3.25293 14.6123 6.60352 29.1064 9.93359 43.4355
c12.4805 53.7129 112.656 45.1934 99.9268 -12.6025c-9.91895 -45.0283 -20.1113 -90.4082 -27.7031 -136.102c60.8828 -41.2666 139.968 -48.2607 211.536 -40.4434c7.11523 0.776367 14.1875 1.77148 21.2393 2.86133c4.07617 18.709 7.45703 37.5762 10.1055 56.5576
c12.4365 89.0957 11.1143 180.833 -0.701172 269.942c-6.05273 45.6631 -15.6885 90.9316 -31.4551 134.28c-13.752 37.8115 -31.8125 76.6016 -62.9268 103.326c-33.3916 28.6816 -76.3418 36.6846 -116.829 18.0977z" />
    <glyph glyph-name="O" unicode="&#xd3;" horiz-adv-x="569" 
d="M-22.8398 427.909c11.2998 84.9971 49.4404 177.8 116.629 233.76c33.459 27.8691 78.3086 45.7676 122.309 38.2168c43.085 -7.39258 79.2061 -35.8789 103.34 -71.4199c54.8301 -80.7451 70.4756 -187.632 76.9668 -282.868
c5.82031 -85.3945 2.83105 -171.883 -13.7451 -255.941c66.3047 14.9736 128.996 43.7061 184.221 83.8359c14.6465 10.6416 34.6875 -9.27148 18.2129 -21.3135c-61.7773 -45.1533 -133.666 -77.0068 -208.831 -92.0752
c-1.23438 -5.18945 -2.49316 -10.375 -3.83984 -15.541c-22.1367 -84.9902 -61.3154 -180.77 -150.891 -212.896c-40.4707 -14.5146 -82.25 -20.2539 -122.96 -2.59473c-48.4697 21.0234 -69.1787 65.8535 -79.9688 114.918
c-16.7109 75.998 -8.6875 154.989 6.05957 231.845c-45.0225 74.5107 -58.8691 166.569 -47.502 252.075zM328.778 6.68359c5.43848 15.7998 10.2402 31.7939 14.4707 47.9385c-18.874 -2.50977 -37.8896 -3.97363 -56.9424 -4.29395
c-61.1865 -1.03223 -122.39 10.5537 -173.64 39.6475c-6.4375 -47.1309 -9.4541 -94.582 -5.81738 -142.32c2.82031 -37.0156 14.8955 -71.8242 52.2285 -86.0459c41.709 -15.8877 80.8301 6.64062 109.604 36.8682c28.7227 30.1768 46.6787 69.2236 60.0967 108.206z
M148.32 665.672c-38.2373 -17.5518 -65.8643 -52.4531 -86.8672 -87.8018c-41.3271 -69.5908 -59.7998 -151.845 -53.6055 -232.448c3.0332 -39.458 11.5156 -81.0693 27.3467 -119.104c3.25293 14.6123 6.60352 29.1064 9.93359 43.4355
c12.4805 53.7129 112.656 45.1934 99.9268 -12.6025c-9.91895 -45.0283 -20.1113 -90.4082 -27.7031 -136.102c60.8828 -41.2666 139.968 -48.2607 211.536 -40.4434c7.11523 0.776367 14.1875 1.77148 21.2393 2.86133c4.07617 18.709 7.45703 37.5762 10.1055 56.5576
c12.4365 89.0957 11.1143 180.833 -0.701172 269.942c-6.05273 45.6631 -15.6885 90.9316 -31.4551 134.28c-13.752 37.8115 -31.8125 76.6016 -62.9268 103.326c-33.3916 28.6816 -76.3418 36.6846 -116.829 18.0977z" />
    <glyph glyph-name="P" unicode="P" horiz-adv-x="555" 
d="M6.43066 637.311c4.36621 28.3887 38.0449 41.1543 62.9111 38.9473c28.0371 -2.49023 45.6357 -25.5107 43.5439 -52.374c-5.2666 -67.665 -10.9277 -135.194 -13.8193 -203.018c-4.91602 -115.251 -4.38672 -230.572 1.67578 -345.763
c7.62207 90.9717 18.1924 181.637 35.3965 271.11c13.999 72.8066 33.7295 144.925 63.8154 212.836c20.2334 45.6797 67.0908 136.308 131.179 108.276c26.0264 -11.3838 40.2002 -40.585 51.5635 -64.9482c15.1084 -32.3828 25.1328 -67.1416 30.9697 -102.353
c11.8691 -71.582 8.4043 -148.586 -2.95215 -220.087c-5.86426 -36.9111 -14.1104 -79.6758 -30.3594 -117.438c60.0527 -2.63184 120.14 -0.0673828 179.434 11.4346c20.2471 3.92773 22.7031 -23.5156 2.88086 -27.4062
c-64.6416 -12.6865 -130.579 -14.8896 -196.22 -11.4688c-11.6133 -19.417 -26.2021 -36.3848 -44.7891 -48.96c-31.5703 -21.3604 -74.1699 -23.3008 -110.464 -14.1914c-27.2715 6.8457 -63.4434 16.4072 -55.2646 52.4717c6.08691 26.8369 33.4492 43.541 58.791 48.3965
c25.5039 4.88574 52.627 1.15039 79.0615 -2.57812c9.28516 15.6885 15.959 33.3887 21.5801 50.2285c19.7549 59.1758 29.748 122.697 36.0674 184.623c6.08691 59.6611 8.50586 121.357 -5.09766 180.213c-4.30566 18.6309 -14.627 59.041 -40.7715 57.3604
c-24.8428 -1.59277 -46.375 -40.8584 -56.915 -59.5732c-61.8311 -109.788 -82.915 -242.671 -98.8135 -365.938c-15.5098 -120.23 -23.6445 -241.224 -31 -362.189c2.64551 -22.5449 5.42871 -45.0928 8.52246 -67.5635
c2.17285 -15.7998 5.19238 -31.5293 6.98047 -47.3701c0.708984 -6.2793 1.59961 -12.6768 1.9541 -18.9795c0.134766 -2.40918 1.03516 -6.9873 0.889648 -10.3447c10.0547 -16.3975 -10.2832 -34.4922 -26.0664 -37.0664
c-41.8672 -6.8291 -57.2861 37.4443 -66.5576 69.1895c-10.3242 35.3555 -19.5381 70.9707 -26.4111 107.16c-24.3193 128.041 -34.084 258.994 -35.6162 389.205c-1.55859 132.678 3.72168 266.877 23.9014 398.157zM220.322 121.645
c19.623 3.87012 38.2441 10.167 53.0488 22.9707c-13.6641 1.43359 -27.2812 2.31445 -40.7061 1.81152c-13.9785 -0.523438 -30.3662 -4.45703 -37.7549 -17.7266c-3.94043 -7.0752 -4.93262 -12.7842 3.70508 -12.8721c6.47754 -0.0644531 15.1113 4.51758 21.707 5.81641
z" />
    <glyph glyph-name="Q" unicode="Q" horiz-adv-x="569" 
d="M-50.6602 -232.876c25.4932 27.6494 55.6328 52.4385 89.3457 69.3926c10.2568 5.16211 20.5342 8.58301 30.7939 10.3643c-28.4453 23.8271 -42.7812 59.1758 -51.1221 97.1055c-16.7109 75.998 -8.6875 154.989 6.05957 231.845
c-45.0225 74.5107 -58.8691 166.569 -47.502 252.075c11.2998 84.9971 49.4385 177.801 116.631 233.761c33.46 27.8691 78.3135 45.7676 122.313 38.2168c43.085 -7.39258 79.2061 -35.8789 103.34 -71.4199c54.8301 -80.7451 70.4756 -187.632 76.9668 -282.868
c5.82031 -85.3945 2.83105 -171.883 -13.7451 -255.941c66.3047 14.9736 128.996 43.7061 184.221 83.8359c14.6465 10.6416 34.6875 -9.27148 18.2129 -21.3135c-61.7773 -45.1533 -133.666 -77.0068 -208.831 -92.0752
c-1.23535 -5.18945 -2.49414 -10.375 -3.84082 -15.541c-22.1367 -84.9902 -61.3154 -180.77 -150.891 -212.896c-19.7412 -7.07812 -39.7959 -12.0449 -59.8877 -13.249c23.2598 -18.5469 43.3857 -41.5166 70.5225 -54.3447
c34.5996 -16.3535 73.6055 -15.6484 108.33 -0.380859c18.543 8.15137 31.3271 -17.5684 11.6807 -26.2764c-31.8301 -14.1064 -67.8877 -17.8916 -101.935 -10.374c-34.7383 7.67188 -61.6152 26.3906 -87.9189 49.5322c-27.5146 24.208 -60.9844 54.3809 -100.078 38.6953
c-33.4287 -13.4111 -63.4297 -39.2217 -87.8301 -65.127c-12.1973 -12.9492 -38.8174 1.82227 -24.8359 16.9844zM328.539 6.68555c5.43848 15.7998 10.2402 31.7939 14.4707 47.9385c-18.874 -2.50977 -37.8896 -3.97363 -56.9424 -4.29395
c-61.1865 -1.03223 -122.39 10.5537 -173.64 39.6475c-6.4375 -47.1309 -9.4541 -94.582 -5.81738 -142.32c2.82031 -37.0156 14.8955 -71.8242 52.2285 -86.0459c41.709 -15.8877 80.8301 6.64062 109.604 36.8682c28.7227 30.1768 46.6787 69.2236 60.0967 108.206z
M7.62012 345.422c3.0332 -39.4619 11.5117 -81.0703 27.3359 -119.098c3.25293 14.6123 6.60352 29.1064 9.93359 43.4355c12.4805 53.7129 112.656 45.1934 99.9268 -12.6025c-9.91895 -45.0283 -20.1113 -90.4082 -27.7031 -136.102
c60.8828 -41.2666 139.968 -48.2607 211.536 -40.4434c7.11523 0.776367 14.1875 1.77148 21.2393 2.86133c4.07617 18.709 7.45703 37.5762 10.1055 56.5576c12.4365 89.0957 11.1143 180.833 -0.701172 269.942c-6.05273 45.6631 -15.6885 90.9316 -31.4551 134.28
c-13.752 37.8115 -31.8125 76.6016 -62.9268 103.326c-33.3916 28.6816 -76.3418 36.6846 -116.829 18.0977c-38.2373 -17.5518 -65.8633 -52.4551 -86.8564 -87.8076c-41.3271 -69.5908 -59.7998 -151.845 -53.6055 -232.448z" />
    <glyph glyph-name="R" unicode="R" horiz-adv-x="589" 
d="M195.372 446.739c33.1289 68.5996 122.859 192.602 205.538 109.204c35.6221 -35.9326 32.1035 -87.8682 26.7793 -134.236c-5.51953 -48.0957 -23.0811 -93.5762 -50.1406 -133.602c-49.8164 -73.6904 -129.107 -135.376 -214.667 -165.451
c6.54199 -2.37207 12.9395 -5.05469 19.1006 -8.18262c26.9473 -13.6846 50.3184 -33.5 68.0078 -58.0488c16.4414 -22.8145 29.9141 -47.5723 45.5488 -70.9131c7.65527 -11.4307 16.1104 -22.7432 26.0635 -32.2949c8.94727 -8.58691 19.4639 -15.7334 27.9287 -24.7422
c47.2822 -50.3086 108.931 10.3721 137.619 49.79c38.2129 52.5059 65.8789 111.786 93.3965 170.317c6.47754 13.7822 32.6826 6.09277 25.4355 -9.47168c-26.0439 -55.9297 -52.2666 -112.248 -87.4941 -163.131c-27.1602 -39.2324 -59.1279 -78.7852 -107.261 -91.3193
c-21.8906 -5.69824 -45.0156 -7.35449 -67.5605 -4.94922c-24.9404 2.6582 -48.0322 5.81934 -68.3564 22.3213c-39.3369 31.9375 -57.9443 78.5352 -84.2344 120.258c-15.1895 24.1104 -34.5459 49.1455 -58.1465 67.0439
c-8.70801 -71.7705 -13.165 -144.227 -16.2119 -216.514c3.21191 -28.5068 6.72754 -57.04 10.6377 -85.459c2.17285 -15.7998 5.19238 -31.5293 6.98047 -47.3701c0.711914 -6.2793 1.59961 -12.6768 1.9541 -18.9795
c0.134766 -2.40918 1.03516 -6.98438 0.889648 -10.3447c10.0547 -16.3975 -10.2832 -34.4922 -26.0664 -37.0664c-41.8672 -6.8291 -57.2861 37.4443 -66.5576 69.1895c-10.3242 35.3555 -19.5381 70.9707 -26.4111 107.16
c-24.3164 128.041 -34.084 258.994 -35.6162 389.205c-1.55859 132.678 3.72168 266.877 23.9014 398.157c4.36621 28.3887 38.042 41.1523 62.9082 38.9453c28.041 -2.49023 45.6396 -25.5107 43.5479 -52.374c-5.27051 -67.665 -10.9316 -135.194 -13.8232 -203.018
c-3.35352 -78.5967 -4.17383 -157.227 -2.45312 -235.826c0.0136719 0.00683594 0.0273438 0.0136719 0.0410156 0.0166016c6.55176 2.40234 13.0938 4.76074 19.626 7.10938c16.0801 87.5742 40.4404 174.531 79.0957 254.575zM100.274 84.1035
c0.870117 7.51367 1.78809 15.0234 2.75293 22.5303c-1.29199 0.526367 -2.59082 1.0293 -3.90332 1.50488c0.347656 -8.0127 0.749023 -16.0225 1.15039 -24.0352zM343.888 554.775c-42.1377 5.47949 -78.1562 -48.1748 -97.0635 -78.6582
c-25.1631 -40.5752 -43.2139 -85.752 -58.4502 -130.852c-15.5674 -46.0781 -27.6562 -92.9424 -37.1406 -140.323c28.0986 10.6045 55.6367 22.2852 81.8291 38.042c40.1943 24.1777 76.3027 55.0898 105.116 92.2139c24.7246 31.8604 49.2197 70.8838 58.0967 110.656
c8.71484 39.0498 -3.96094 102.625 -52.3877 108.921z" />
    <glyph glyph-name="S" unicode="S" horiz-adv-x="391" 
d="M90.3887 677.346c35.4199 24.8691 75.9258 29.0488 116.828 16.4434c82.6582 -25.4668 77.6377 -130.211 65.4346 -198.162c-16.1104 -89.7002 -59.4082 -171.373 -104.376 -249.548c-3.20508 -5.57422 -6.4209 -11.1416 -9.63672 -16.709
c15.1289 -26.0234 31.2461 -51.5342 47.5156 -76.8789c10.5068 -16.374 21.2695 -32.8115 31.9141 -49.418c48.9258 36.7832 104.606 65.6475 158.822 86.5225c15.8916 6.12012 26.8604 -15.5645 9.85547 -22.1641c-54.877 -21.2969 -108.948 -48.6533 -155.6 -84.9912
c34.4443 -55.0869 65.9131 -112.427 81.0283 -175.607c10.5303 -44.0098 4.3291 -85.1182 -20.749 -122.913c-19.0732 -28.7432 -46.4395 -52.874 -80.1992 -62.2197c-35.5273 -9.83496 -75.4307 -3.80859 -104.339 19.9443
c-28.8711 23.7227 -39.5732 61.373 -39.3477 97.5752c0.482422 77.6211 31.8164 143.788 79.4297 198.426c-14.2959 19.8623 -28.75 39.5254 -42.8096 59.1719c-7.2373 10.1152 -14.4639 20.335 -21.6338 30.6455c-0.630859 -1.26172 -1.28223 -2.50684 -1.90625 -3.77246
c-9.34277 -18.9209 -18.3818 -42.7881 -18.7061 -64.2295c-0.324219 -21.4453 -2.73633 -42.7852 0.640625 -64.2471c5.83691 -37.0967 -64.9688 -44.3271 -66.6895 -7.01172c-1.22461 26.6035 0.914062 54.4082 14.8516 77.5098
c13.6445 22.6123 26.8633 46.0713 39.3975 69.3311c3.99805 7.42285 8.08398 14.7979 12.2031 22.1562c-35.9189 54.2061 -68.2314 111.445 -87.375 173.223c-25.7529 83.1143 -23.8096 173.526 15.7705 252.089c18.4453 36.6104 45.9834 71.1836 79.6758 94.835z
M260.623 -231.675c30.875 29.5459 19.7217 72.1299 4.45801 107.246c-21.458 49.3506 -50.8486 95.1348 -82.0645 139.536c-3.6875 -4.73047 -7.26758 -9.56152 -10.7227 -14.5107c-26.0742 -37.3564 -44.9248 -79.7871 -52.2432 -124.89
c-6.74121 -41.5332 -4.875 -95.1318 34.6875 -120.365c33.5234 -21.3809 77.7793 -13.9141 105.885 12.9834zM192.879 662.322c-33.3955 4.62598 -69.21 -27.3574 -85.6143 -53.4346c-40.4775 -64.335 -36.8438 -152.551 -18.4316 -220.775
c12.2275 -45.3018 30.9424 -87.6445 52.8359 -128.419c2.59473 4.49707 5.18945 8.99805 7.75684 13.5088c50.4033 88.5732 100.136 186.954 98.5098 291.529c-0.59375 38.0342 -8.95801 91.2041 -55.0566 97.5908z" />
    <glyph glyph-name="T" unicode="T" horiz-adv-x="629" 
d="M43.9219 633.649c4.7373 -10.3242 10.792 -19.1426 16.457 -28.833c3.67773 -6.28613 7.625 -16.2832 12.9121 -21.6143c-0.674805 1.22461 8.36719 -4.05566 8.4043 -4.07617c2.91895 -1.49512 6.04297 -2.78711 9.10352 -3.97852
c10.1523 -3.9541 20.3691 -5.6543 31.2432 -6.00879c44.749 -1.45801 89.0156 16.7549 129.51 33.8301c31.9346 13.4658 62.8867 28.8037 93.2764 45.2109c7.53027 20.6279 35.9014 31.6914 55.2676 31.5156c0.185547 0 0.380859 -0.0234375 0.569336 -0.0263672
c86.3359 50.4033 170.148 105.662 261.569 146.562c68.7275 30.7471 153.937 62.1084 230.488 48.292c33.4287 -6.03613 61.9385 -21.6875 82.2598 -49.1611c18.4619 -24.9541 36.8467 -57.9375 17.5547 -87.6455c-12.5039 -19.2549 -58.3867 -17.2812 -50.7148 12.376
c4.14355 16.0195 10.4727 30.7197 7.54785 47.5723c-3.20508 18.4453 -19.1201 32.376 -35.3994 40.1025c-39.0771 18.5469 -87.0215 11.0703 -127.495 1.49805c-127.316 -30.1094 -238.09 -104.954 -349.737 -171.968c9.23828 -6.91699 15.8818 -16.5762 16.1416 -28.7158
c2.15625 -100.213 -2.83691 -200.864 -4.41602 -301.091c-1.40039 -88.792 -2.91211 -177.577 -4.24121 -266.366c-0.651367 -43.6152 -2.16992 -87.2031 -2.41992 -130.832c-0.121094 -21.2559 0.927734 -42.2549 2.26074 -63.4502
c1.1543 -18.3848 1.23828 -37.626 6.78809 -55.3867c1.54492 -4.94238 4.58789 -17.2842 7.90137 -20.5498c5.30371 -5.22949 17.1357 -0.236328 22.416 2.78027c16.0732 9.18066 25.8408 28.7324 34.3672 44.3975c18.499 33.9961 31.4824 70.4688 42.0869 107.599
c20.9082 73.2051 35.0928 148.262 63.4072 219.195c5.95801 14.9229 32.9805 6.80859 26.7256 -9.9502c-33.2773 -89.126 -42.7822 -185.023 -76.5762 -274.049c-13.2295 -34.8564 -29.8662 -76.1572 -58.2109 -101.661
c-14.7646 -13.29 -35.0791 -21.9072 -55.2354 -19.1875c-14.4004 1.94336 -32.417 9.20703 -43.2812 18.7451c-32.0732 28.166 -44.0303 77.7764 -51.7803 117.711c-9.03223 46.5469 -14.2217 93.9072 -17.5586 141.187c-6.83887 96.9238 -6.62988 194.475 -7.11621 291.587
c-0.455078 91.1338 -1.59863 182.871 3.37109 273.965c-55.2852 -29.249 -113.442 -55.6602 -174.032 -69.5947c-34.2393 -7.87109 -70.125 -8.81934 -103.915 1.86914c-16.7959 5.31445 -35.2949 11.2998 -49.7627 21.584
c-16.0801 11.4307 -23.4961 27.5479 -28.9082 45.9727c-10.2871 35.0146 44.6406 52.2559 59.1719 20.5947z" />
    <glyph glyph-name="U" unicode="U" horiz-adv-x="828" 
d="M629.322 636.241c-0.121094 -83.8291 -3.41113 -167.854 -5.29395 -251.677c-1.66016 -73.8896 -2.13281 -147.695 -1.86328 -221.595c0.25 -67.3408 -0.350586 -141.085 18.8369 -206.256c7.75293 -26.3408 19.1602 -55.0361 51.7422 -45.1504
c30.7607 9.33594 49.0645 40.1367 63.0596 66.9297c31.6709 60.623 52.249 126.264 62.4854 193.817c2.29102 15.1289 29.9375 12.7266 27.6631 -3.48828c-6.15723 -43.8545 -16.5967 -86.9092 -31.665 -128.567c-13.29 -36.749 -28.7393 -74.7158 -51.5508 -106.697
c-38.2979 -53.6934 -114.026 -74.8242 -165.108 -25.3389c-27.0049 26.1621 -39.708 66.501 -48.6689 101.9c-9.97656 39.418 -15.2129 79.5811 -18.8066 120.028c-6.76855 76.1904 -5.67871 153.208 -5.13867 229.732
c-11.1885 -69.3447 -24.3135 -138.346 -41.1631 -206.594c-14.5381 -58.8857 -30.0449 -118.723 -55.5117 -173.984c-20.6182 -44.7422 -53.1699 -105.632 -106.59 -114.877c-28.5879 -4.94922 -53.1094 9.30566 -71.5684 30.2109
c-10.25 11.6094 -22.3018 20.9082 -30.791 33.9893c-8.70508 13.418 -17.0254 26.6875 -23.0449 41.54c-23.334 57.5762 -31.4756 118.102 -32.6123 179.814c-1.17383 63.6328 3.58301 127.711 10.5068 190.949c7.01074 64.0342 10.9688 127.458 13.5498 191.742
c0.677734 16.9141 2.15918 33.5342 1.64941 50.4951c-0.391602 13.0674 1.15039 31.3574 -5.58691 43.1025c-14.5215 25.3145 -56.1289 12.082 -73.7109 -2.49023c-22.8682 -18.9512 -32.3086 -44.0166 -39.583 -71.7812
c-7.8916 -30.1123 -21.4756 -59.4521 -24.752 -90.6074c-1.72754 -16.4307 -21.5527 -24.9668 -35.6729 -25.001c-16.5254 -0.0371094 -29.3398 9.66992 -32.9639 25.6758c-8.53906 37.7305 6.4209 75.0938 27.8926 105.918
c18.9443 27.1973 42.9199 54.3174 70.1514 73.4375c23.3379 16.3877 51.9355 28.6113 80.749 28.5303c31.2432 -0.0878906 51.2646 -14.333 64.5273 -41.8066c57.2188 -118.521 48.4297 -251.08 47.5859 -379.017c-0.398438 -60.9062 1.59863 -121.003 8.31934 -181.565
c3.28613 -29.6133 8.68066 -58.7979 14.3994 -88.0059c2.78027 -14.1973 6.74512 -29.7549 6.53906 -44.168c-0.145508 -10.3516 0.819336 -25.0586 8.48535 -33.3721c21.5254 -23.3447 55.5449 22.3555 65.7178 37.2246c16.998 24.8428 30.2812 52.0938 41.29 80.0605
c23.4258 59.5098 38.7129 122.646 52.5596 184.96c28.8232 129.745 45.835 261.697 62.8027 393.399c0.25293 1.98047 0.93457 3.67383 1.90918 5.10059c0.586914 11.4883 1.23828 22.9668 1.98047 34.4316c1.50488 23.2637 31.2295 35.3828 50.5391 35.4268
c19.2988 0.0439453 46.7393 -13.4482 46.7051 -36.3779z" />
    <glyph glyph-name="U" unicode="&#xdc;" horiz-adv-x="828" 
d="M629.322 636.241c-0.121094 -83.8291 -3.41113 -167.854 -5.29395 -251.677c-1.66016 -73.8896 -2.13281 -147.695 -1.86328 -221.595c0.25 -67.3408 -0.350586 -141.085 18.8369 -206.256c7.75293 -26.3408 19.1602 -55.0361 51.7422 -45.1504
c30.7607 9.33594 49.0645 40.1367 63.0596 66.9297c31.6709 60.623 52.249 126.264 62.4854 193.817c2.29102 15.1289 29.9375 12.7266 27.6631 -3.48828c-6.15723 -43.8545 -16.5967 -86.9092 -31.665 -128.567c-13.29 -36.749 -28.7393 -74.7158 -51.5508 -106.697
c-38.2979 -53.6934 -114.026 -74.8242 -165.108 -25.3389c-27.0049 26.1621 -39.708 66.501 -48.6689 101.9c-9.97656 39.418 -15.2129 79.5811 -18.8066 120.028c-6.76855 76.1904 -5.67871 153.208 -5.13867 229.732
c-11.1885 -69.3447 -24.3135 -138.346 -41.1631 -206.594c-14.5381 -58.8857 -30.0449 -118.723 -55.5117 -173.984c-20.6182 -44.7422 -53.1699 -105.632 -106.59 -114.877c-28.5879 -4.94922 -53.1094 9.30566 -71.5684 30.2109
c-10.25 11.6094 -22.3018 20.9082 -30.791 33.9893c-8.70508 13.418 -17.0254 26.6875 -23.0449 41.54c-23.334 57.5762 -31.4756 118.102 -32.6123 179.814c-1.17383 63.6328 3.58301 127.711 10.5068 190.949c7.01074 64.0342 10.9688 127.458 13.5498 191.742
c0.677734 16.9141 2.15918 33.5342 1.64941 50.4951c-0.391602 13.0674 1.15039 31.3574 -5.58691 43.1025c-14.5215 25.3145 -56.1289 12.082 -73.7109 -2.49023c-22.8682 -18.9512 -32.3086 -44.0166 -39.583 -71.7812
c-7.8916 -30.1123 -21.4756 -59.4521 -24.752 -90.6074c-1.72754 -16.4307 -21.5527 -24.9668 -35.6729 -25.001c-16.5254 -0.0371094 -29.3398 9.66992 -32.9639 25.6758c-8.53906 37.7305 6.4209 75.0938 27.8926 105.918
c18.9443 27.1973 42.9199 54.3174 70.1514 73.4375c23.3379 16.3877 51.9355 28.6113 80.749 28.5303c31.2432 -0.0878906 51.2646 -14.333 64.5273 -41.8066c57.2188 -118.521 48.4297 -251.08 47.5859 -379.017c-0.398438 -60.9062 1.59863 -121.003 8.31934 -181.565
c3.28613 -29.6133 8.68066 -58.7979 14.3994 -88.0059c2.78027 -14.1973 6.74512 -29.7549 6.53906 -44.168c-0.145508 -10.3516 0.819336 -25.0586 8.48535 -33.3721c21.5254 -23.3447 55.5449 22.3555 65.7178 37.2246c16.998 24.8428 30.2812 52.0938 41.29 80.0605
c23.4258 59.5098 38.7129 122.646 52.5596 184.96c28.8232 129.745 45.835 261.697 62.8027 393.399c0.25293 1.98047 0.93457 3.67383 1.90918 5.10059c0.586914 11.4883 1.23828 22.9668 1.98047 34.4316c1.50488 23.2637 31.2295 35.3828 50.5391 35.4268
c19.2988 0.0439453 46.7393 -13.4482 46.7051 -36.3779z" />
    <glyph glyph-name="U" unicode="&#xdb;" horiz-adv-x="828" 
d="M629.322 636.241c-0.121094 -83.8291 -3.41113 -167.854 -5.29395 -251.677c-1.66016 -73.8896 -2.13281 -147.695 -1.86328 -221.595c0.25 -67.3408 -0.350586 -141.085 18.8369 -206.256c7.75293 -26.3408 19.1602 -55.0361 51.7422 -45.1504
c30.7607 9.33594 49.0645 40.1367 63.0596 66.9297c31.6709 60.623 52.249 126.264 62.4854 193.817c2.29102 15.1289 29.9375 12.7266 27.6631 -3.48828c-6.15723 -43.8545 -16.5967 -86.9092 -31.665 -128.567c-13.29 -36.749 -28.7393 -74.7158 -51.5508 -106.697
c-38.2979 -53.6934 -114.026 -74.8242 -165.108 -25.3389c-27.0049 26.1621 -39.708 66.501 -48.6689 101.9c-9.97656 39.418 -15.2129 79.5811 -18.8066 120.028c-6.76855 76.1904 -5.67871 153.208 -5.13867 229.732
c-11.1885 -69.3447 -24.3135 -138.346 -41.1631 -206.594c-14.5381 -58.8857 -30.0449 -118.723 -55.5117 -173.984c-20.6182 -44.7422 -53.1699 -105.632 -106.59 -114.877c-28.5879 -4.94922 -53.1094 9.30566 -71.5684 30.2109
c-10.25 11.6094 -22.3018 20.9082 -30.791 33.9893c-8.70508 13.418 -17.0254 26.6875 -23.0449 41.54c-23.334 57.5762 -31.4756 118.102 -32.6123 179.814c-1.17383 63.6328 3.58301 127.711 10.5068 190.949c7.01074 64.0342 10.9688 127.458 13.5498 191.742
c0.677734 16.9141 2.15918 33.5342 1.64941 50.4951c-0.391602 13.0674 1.15039 31.3574 -5.58691 43.1025c-14.5215 25.3145 -56.1289 12.082 -73.7109 -2.49023c-22.8682 -18.9512 -32.3086 -44.0166 -39.583 -71.7812
c-7.8916 -30.1123 -21.4756 -59.4521 -24.752 -90.6074c-1.72754 -16.4307 -21.5527 -24.9668 -35.6729 -25.001c-16.5254 -0.0371094 -29.3398 9.66992 -32.9639 25.6758c-8.53906 37.7305 6.4209 75.0938 27.8926 105.918
c18.9443 27.1973 42.9199 54.3174 70.1514 73.4375c23.3379 16.3877 51.9355 28.6113 80.749 28.5303c31.2432 -0.0878906 51.2646 -14.333 64.5273 -41.8066c57.2188 -118.521 48.4297 -251.08 47.5859 -379.017c-0.398438 -60.9062 1.59863 -121.003 8.31934 -181.565
c3.28613 -29.6133 8.68066 -58.7979 14.3994 -88.0059c2.78027 -14.1973 6.74512 -29.7549 6.53906 -44.168c-0.145508 -10.3516 0.819336 -25.0586 8.48535 -33.3721c21.5254 -23.3447 55.5449 22.3555 65.7178 37.2246c16.998 24.8428 30.2812 52.0938 41.29 80.0605
c23.4258 59.5098 38.7129 122.646 52.5596 184.96c28.8232 129.745 45.835 261.697 62.8027 393.399c0.25293 1.98047 0.93457 3.67383 1.90918 5.10059c0.586914 11.4883 1.23828 22.9668 1.98047 34.4316c1.50488 23.2637 31.2295 35.3828 50.5391 35.4268
c19.2988 0.0439453 46.7393 -13.4482 46.7051 -36.3779z" />
    <glyph glyph-name="U" unicode="&#xda;" horiz-adv-x="828" 
d="M629.322 636.241c-0.121094 -83.8291 -3.41113 -167.854 -5.29395 -251.677c-1.66016 -73.8896 -2.13281 -147.695 -1.86328 -221.595c0.25 -67.3408 -0.350586 -141.085 18.8369 -206.256c7.75293 -26.3408 19.1602 -55.0361 51.7422 -45.1504
c30.7607 9.33594 49.0645 40.1367 63.0596 66.9297c31.6709 60.623 52.249 126.264 62.4854 193.817c2.29102 15.1289 29.9375 12.7266 27.6631 -3.48828c-6.15723 -43.8545 -16.5967 -86.9092 -31.665 -128.567c-13.29 -36.749 -28.7393 -74.7158 -51.5508 -106.697
c-38.2979 -53.6934 -114.026 -74.8242 -165.108 -25.3389c-27.0049 26.1621 -39.708 66.501 -48.6689 101.9c-9.97656 39.418 -15.2129 79.5811 -18.8066 120.028c-6.76855 76.1904 -5.67871 153.208 -5.13867 229.732
c-11.1885 -69.3447 -24.3135 -138.346 -41.1631 -206.594c-14.5381 -58.8857 -30.0449 -118.723 -55.5117 -173.984c-20.6182 -44.7422 -53.1699 -105.632 -106.59 -114.877c-28.5879 -4.94922 -53.1094 9.30566 -71.5684 30.2109
c-10.25 11.6094 -22.3018 20.9082 -30.791 33.9893c-8.70508 13.418 -17.0254 26.6875 -23.0449 41.54c-23.334 57.5762 -31.4756 118.102 -32.6123 179.814c-1.17383 63.6328 3.58301 127.711 10.5068 190.949c7.01074 64.0342 10.9688 127.458 13.5498 191.742
c0.677734 16.9141 2.15918 33.5342 1.64941 50.4951c-0.391602 13.0674 1.15039 31.3574 -5.58691 43.1025c-14.5215 25.3145 -56.1289 12.082 -73.7109 -2.49023c-22.8682 -18.9512 -32.3086 -44.0166 -39.583 -71.7812
c-7.8916 -30.1123 -21.4756 -59.4521 -24.752 -90.6074c-1.72754 -16.4307 -21.5527 -24.9668 -35.6729 -25.001c-16.5254 -0.0371094 -29.3398 9.66992 -32.9639 25.6758c-8.53906 37.7305 6.4209 75.0938 27.8926 105.918
c18.9443 27.1973 42.9199 54.3174 70.1514 73.4375c23.3379 16.3877 51.9355 28.6113 80.749 28.5303c31.2432 -0.0878906 51.2646 -14.333 64.5273 -41.8066c57.2188 -118.521 48.4297 -251.08 47.5859 -379.017c-0.398438 -60.9062 1.59863 -121.003 8.31934 -181.565
c3.28613 -29.6133 8.68066 -58.7979 14.3994 -88.0059c2.78027 -14.1973 6.74512 -29.7549 6.53906 -44.168c-0.145508 -10.3516 0.819336 -25.0586 8.48535 -33.3721c21.5254 -23.3447 55.5449 22.3555 65.7178 37.2246c16.998 24.8428 30.2812 52.0938 41.29 80.0605
c23.4258 59.5098 38.7129 122.646 52.5596 184.96c28.8232 129.745 45.835 261.697 62.8027 393.399c0.25293 1.98047 0.93457 3.67383 1.90918 5.10059c0.586914 11.4883 1.23828 22.9668 1.98047 34.4316c1.50488 23.2637 31.2295 35.3828 50.5391 35.4268
c19.2988 0.0439453 46.7393 -13.4482 46.7051 -36.3779z" />
    <glyph glyph-name="V" unicode="V" horiz-adv-x="667" 
d="M316.72 528.933c-1.97754 51.6143 0.365234 105.612 13.1055 155.864c11.1748 44.0566 33.4492 91.0459 75.8096 112.622c102.747 52.3369 142.182 -98.7617 154.264 -168.468c18.7588 -108.243 13.5801 -220.521 -3.63379 -328.596
c-7.02832 -44.1279 -15.5273 -88.9375 -26.499 -133.177c43.79 -16.8799 93.9102 -16.4248 133.689 10.7461c16.2627 11.1074 38.2676 -10.6582 19.8594 -23.2393c-17.7266 -12.1162 -37.3389 -20.3281 -58.3555 -24.7041
c-35.7061 -7.43652 -70.6328 -3.69434 -102.83 8.04004c-13.874 -50.2588 -31.2939 -99.4102 -53.916 -145.549c-20.4863 -41.79 -47.583 -84.8418 -88.7822 -108.955c-44.1855 -25.8613 -102.069 -28.5977 -141.737 6.8623
c-37.3262 33.3682 -46.9355 86.9131 -55.0469 133.916c-9.52441 55.1846 -13.4082 110.581 -14.2383 166.524c-0.850586 57.2598 3.42773 114.469 7.24707 171.576c1.83203 27.3799 3.66406 54.7666 5.04395 82.1729c1.46387 29.0088 6.36621 57.2217 8.84961 86.1904
c4.2207 49.2256 -14.667 100.341 -66.5752 114.596c-45.751 12.5615 -80.958 -20.7734 -98.4111 -59.5264c-8.69141 -19.2959 -50.208 -12.6191 -43.1055 10.5195c10.6953 34.8398 35.0449 56.9531 68.0391 71.5459c29.9912 13.2666 64.2539 13.0371 94.7744 1.50195
c26.8936 -10.166 49.5732 -29.3877 63.4062 -54.6143c16.1709 -29.4854 21.1611 -67.0439 27.7471 -99.6738c4.09277 -20.291 9.30176 -39.7588 11.2246 -60.3701c1.5957 -17.1094 3.0332 -34.2324 4.39258 -51.3584c3.06055 -38.5303 5.71289 -77.0879 8.59473 -115.632
c5.75293 -76.916 9.63281 -154.193 21.3945 -230.512c5.29395 -34.3369 9.26172 -60.9941 21.5459 -89.3418c3.06738 -7.07812 6.21191 -14.1631 9.79492 -21.002c0.134766 -0.256836 0.698242 -1.20117 1.24121 -2.0957c10.5371 -17.2207 7.03809 -10.6377 4.50781 -7.2168
c6.46484 -8.75195 11.2627 -12.8682 18.6143 -19.2383c28.2334 -1.89941 49.1826 11.0156 67.4424 34.8457c20.0684 26.1924 34.9102 57.1416 47.9365 87.2979c15.6484 36.2227 27.8115 73.9707 37.9668 112.265c-35.9795 20.1699 -67.0771 50.2891 -89.9082 85.0439
c-55.4209 84.3828 -79.6357 191.337 -83.4521 291.139zM313.664 -55.293c0.951172 -1.5625 1.75781 -2.875 0 0zM358.346 654.884c-20.7266 -119.512 -3.92871 -253.797 49.5381 -363.019c20.6084 -42.0967 49.918 -82.8643 89.8857 -108.476
c4.60547 19.3057 8.81641 38.6787 12.791 58.001c26.0234 126.537 37.1777 259.083 14.3398 387.023c-5.71875 32.042 -13.8564 63.9326 -26.4316 94.0215c-8.55957 20.4736 -21.667 45.8799 -44.2793 53.4277c-27.6973 9.24805 -53.4072 -16.5859 -66.7744 -37.8018
c-15.8438 -25.1465 -24.0322 -54.125 -29.0693 -83.1777z" />
    <glyph glyph-name="W" unicode="W" horiz-adv-x="1056" 
d="M1014.38 564.821c10.0615 -124.101 -1.45312 -254.706 -37.2881 -375.764c25.8613 -3.03613 53.0723 0.476562 81.0928 12.6494c18.3008 7.94922 30.9697 -17.4434 11.5156 -25.9023c-32.4004 -14.0859 -67.0742 -17.7129 -100.841 -13.0771
c-7.03125 -21.3398 -14.8184 -42.3496 -23.4287 -62.917c-25.9893 -62.0635 -64.9648 -126.432 -122.508 -163.98c-28.2432 -18.4287 -62.8096 -29.4111 -96.5791 -22.916c-35.0928 6.75098 -60.2725 23.4287 -79.4834 52.5625
c-21.9512 21.1748 -35.6523 51.6113 -43.4697 80.7217c-8.54297 31.8135 -13.8809 63.6133 -16.9414 96.4014c-0.523438 5.58691 -0.975586 11.167 -1.39746 16.7441c-18.334 -56.126 -41.7119 -110.241 -75.8594 -159.622
c-25.0283 -36.1953 -55.5088 -69.7861 -99.6064 -81.2402c-47.4043 -12.3145 -95.8545 9.63672 -128.144 44.5195c-35.8887 38.7734 -51.3447 90.2227 -61.7705 140.748c-10.5811 51.2803 -16.5459 103.738 -19.0869 156.011
c-2.46289 50.6836 -3.71094 101.357 -5.12109 152.064c-1.4209 51.0508 -3.15527 103.631 -13.1016 153.849c-5.59375 28.2295 -28.1484 99.0762 -70.4785 80.5869c-37.3398 -16.3096 -59.9893 -59.2568 -75.6348 -94.1807
c-9.5918 -21.4111 -56.4326 -20.4932 -56.4355 6.89355c-0.00683594 51.1523 31.3809 102.636 77.0879 126.352c52.2188 27.0928 106.476 15.0137 142.661 -31.0479c31.0439 -39.5195 47.5967 -86.252 60.3262 -134.213c12.9629 -48.8379 21.8359 -99.2549 27.6523 -149.436
c6.05957 -52.293 10.4658 -104.781 16.5723 -157.074c6.07324 -52.0332 16.6982 -102.626 29.2422 -153.421c8.32324 -33.7021 20.1523 -76.2344 55.0527 -92.5645c42.6807 -19.9668 80.4521 31.2764 101.03 62.6104c52.1611 79.4258 75.6875 172.911 98.502 263.978
c0.185547 0.749023 0.445312 1.44434 0.728516 2.11914c3.70508 17.457 9.83887 30.3389 20.251 45.1572c6.06934 8.63379 20.7295 12.5986 28.25 2.96973c11.0898 -14.2041 17.3721 -25.6924 22.0791 -43.1699c4.2002 -15.5947 7.30762 -31.5977 8.98145 -47.6475
c3.2959 -31.6309 5.75879 -63.3828 9.625 -94.9492c3.74805 -30.585 8.86328 -61.2031 14.96 -91.4131c2.9248 -14.501 3.59277 -29.1943 6.48438 -43.6484c2.63184 -13.1514 4.01172 -24.7578 3.70801 -37.5654c4.78125 -13.2324 10.1357 -26.2021 21.877 -34.8701
c13.1924 -9.7373 31.7119 -9.1875 47.0732 -5.42871c32.6602 7.99316 58.9805 34.7451 79.9531 59.6074c40.0215 47.4414 65.2217 105.736 83.9434 164.643c-31.3945 9.41992 -61.0039 25.709 -86.0322 46.9951c-58.4609 49.7217 -97.7705 120.636 -118.349 193.935
c-18.6777 66.5273 -22.8076 136.604 -11.7812 204.859c10.1895 63.0654 33.0273 136.675 77.7793 184.2c22.707 24.1133 54.7256 39.8496 88.3672 36.8506c32.7168 -2.91895 56.1924 -25.8213 71.8682 -53.002c37.1982 -64.4961 50.7383 -145.809 56.6729 -218.977z
M943.891 196.662c37.5254 130.487 50.8457 270.101 33.1562 404.931c-4.54785 34.6475 -11.4443 69.0654 -21.9912 102.407c-8.82617 27.8994 -18.9248 59.2773 -37.5391 82.375c-21.0801 26.1611 -52.7383 28.4424 -79.9023 9.22754
c-23.9414 -16.9336 -38.5371 -44.627 -50.7373 -70.5459c-51.4834 -109.366 -53.4541 -240.795 -7.69629 -352.398c29.4854 -71.916 89.6465 -150.337 164.71 -175.996z" />
    <glyph glyph-name="X" unicode="X" horiz-adv-x="753" 
d="M281.067 501.975c6.85547 11.6533 14.0225 23.1426 21.5898 34.4287c32.707 48.7363 74.6553 103 127.606 130.909c23.9756 12.6357 50.2383 18.1992 76.7607 10.9688c25.1396 -6.85254 48.3926 -20.0273 55.208 -46.3066
c5.9248 -22.8447 -36.1855 -29.4775 -44.5635 -9.92871c-5.38867 12.5713 -9.12695 24.1436 -23.3682 28.29c-14.7305 4.28809 -30.0215 0.225586 -43.376 -6.46484c-29.8564 -14.9639 -54.7734 -41.918 -76.4102 -66.7939
c-30.6123 -35.2002 -55.8125 -74.1318 -77.6387 -115.092c10.9482 -32.7236 18.5938 -67.4248 25.4697 -99.7949c21.668 -101.981 33.6455 -210.697 76.2451 -306.703c17.123 -38.585 38.1963 -74.3594 62.0635 -109.007c12.376 -17.9658 23.6553 -32.8682 41.5205 -45.9658
c19.5586 -14.3359 45.7539 -23.8643 70.2051 -20.2578c49.752 7.3418 81.4668 60.623 104.471 100.25c25.4873 43.8984 45.2012 90.8066 64.8379 137.519c5.90137 14.0391 32.0195 6.35352 25.4365 -9.4707c-22.1562 -53.2676 -44.4648 -106.894 -75.2354 -155.896
c-25.9961 -41.4082 -59.3105 -86.5654 -109.734 -97.8779c-45.5654 -10.2227 -93.9043 5.81055 -134.118 26.7861c-20.6045 10.7461 -40.6631 20.46 -58.1602 35.9766c-17.2207 15.2676 -32.8691 31.375 -46.041 50.3027
c-60.0762 86.3359 -74.8545 196.631 -88.3271 298.497c-3.66406 27.7168 -7.17676 55.5488 -9.9873 83.4414c-14.1943 -35.1865 -27.3496 -70.7314 -40.5449 -105.723c-23.6885 -62.8232 -50.0625 -123.588 -80.6748 -183.337
c-13.125 -25.6182 -26.3477 -55.2852 -49.1553 -73.4707c-22.4033 -17.8613 -56.7637 -29.0186 -81.1709 -8.17773c-27.457 23.4453 8.66406 54.1074 35.082 39.6875c0.661133 0.148438 1.40039 0.421875 2.22363 0.917969c2.06445 1.24121 4.43652 2.16211 6.53809 3.43066
c7.20312 4.34863 13.8564 10.1387 20.3848 15.3984c12.6221 10.1689 21.1553 25.4023 29.7119 39.0127c20.75 32.9971 37.1641 69.0752 52.8223 104.701c34.8633 79.3115 62.9248 162.314 99.4346 241.049c-0.0810547 1.9707 -0.199219 3.94141 -0.266602 5.91211
c-0.789062 22.9424 -1.50781 46.1318 -0.775391 69.0684c0.695312 21.7285 -4.86133 42.9307 -14.126 62.6348c-19.2959 41.0479 -56.6826 76.7949 -105.092 74.167c-43.3184 -2.35156 -70.8428 -40.7568 -105.439 -60.9834
c-10.2266 -5.97852 -31.9004 -4.04492 -32.2207 11.7285c-1.09961 54.2734 63.0498 83.5859 109.897 84.5342c49.2363 0.995117 98.0469 -15.9824 131.378 -53.3486c28.4326 -31.874 36.8232 -72.7461 55.1338 -109.924c0.823242 -1.67383 1.60938 -3.3877 2.40527 -5.08789
zM29.0615 18.7617c-4.36621 2.21973 -3.42773 -0.769531 0 0zM29.0928 18.7451c0.586914 -0.320312 1.17773 -0.633789 1.75781 -1.00195c-0.674805 0.424805 -1.23828 0.735352 -1.75781 1.00195z" />
    <glyph glyph-name="Y" unicode="Y" horiz-adv-x="737" 
d="M106.412 479.237c-39.0732 -12.0986 -79.252 6.45117 -102.829 47.9951c-23.6445 41.6611 -22.7002 96.2246 -4.28809 140.684c36.5166 88.165 131.271 116.58 186.678 39.5361c62.2861 -86.6064 74.6582 -209.897 80.6035 -321.64
c1.67383 -31.3779 1.48828 -63.1201 5.05469 -94.2988c2.62793 -22.9932 8.82227 -43.6758 16.373 -64.7598c5.91797 -16.5293 13.4424 -32.7617 29.3945 -33.291c19.3496 -0.640625 36.2363 19.127 47.7617 36.3545c28.0879 41.999 46.334 96.0869 61.0137 147.26
c14.1104 49.1855 24.9746 99.7139 35.4707 150.286c-0.0439453 0.482422 -0.0878906 0.961914 -0.12793 1.44434c-4.86816 57.8496 -9.28125 123.419 23.7021 169.228c11.4746 15.9355 39.3066 15.7295 46.1494 -6.77832c20.999 -69.0684 33.6748 -143.997 42.7002 -217.27
c8.7959 -71.3857 15.8135 -143.608 15.8105 -215.949c-0.00292969 -46.9316 -2.50293 -93.8936 -10.7861 -139.445c53.9053 5.00684 107.305 14.1768 158.733 37.3223c16.5293 7.44336 27.96 -20.79 10.1855 -28.8672c-56.9316 -25.8613 -116.154 -35.332 -175.856 -40.6797
c-0.995117 -3.98438 -2.03809 -7.95508 -3.1416 -11.9092c-15.8643 -56.8145 -39.4648 -113.76 -72.459 -157.941c-31.7822 -42.5625 -74.3037 -69.3584 -121.31 -64.2773c-43.8311 4.7373 -86.4746 42.0264 -101.502 95.21
c-13.5898 48.1162 1.25879 95.5811 34.7051 123.325c37.1738 30.8447 86.7773 33.6211 129.728 37.7607c11.1475 1.07324 22.3252 1.9541 33.5234 2.74023c10.4561 82.001 11.124 163.978 5.21289 247.354c-1.38379 19.4775 -3.07422 38.918 -4.87891 58.3447
c-16.957 -71.7744 -38.5508 -142.263 -72.7119 -201.941c-21.8125 -38.1016 -52.1846 -67.7451 -89.3691 -76.71c-39.0674 -9.41992 -84.4268 12.0723 -106.941 54.0576c-25.8682 48.2344 -26.2393 109.165 -25.7197 165.466
c0.523438 56.7158 4.81543 113.442 4.57617 170.121c-0.199219 47.1445 3.03613 111.881 -21.5225 151.269c-26.4824 42.4746 -69.6553 47.0264 -103.209 14.4375c-28.2129 -27.4033 -45.8994 -78.4209 -34.4922 -122.646
c10.3916 -40.2852 43.7031 -68.7139 77.1729 -60.8828c15.9756 3.73535 22.9023 -25.8574 6.5957 -30.9082zM461.623 47.7822c1.98047 10.3213 3.74023 20.6318 5.39355 30.9463c-2.56445 -0.202148 -5.12891 -0.408203 -7.68945 -0.624023
c-22.5381 -1.89648 -45.0723 -4.27832 -67.4648 -8.06055c-19.3262 -3.2627 -39.9209 -7.00781 -57.0332 -19.5957c-35.9121 -26.4219 -39.8193 -78.7422 -6.17383 -110.747c24.5049 -23.3174 63.0693 -35.9697 88.3643 -8.4248
c25.4902 27.7646 36.999 76.832 44.6035 116.506z" />
    <glyph glyph-name="Y" unicode="&#x178;" horiz-adv-x="737" 
d="M106.412 479.237c-39.0732 -12.0986 -79.252 6.45117 -102.829 47.9951c-23.6445 41.6611 -22.7002 96.2246 -4.28809 140.684c36.5166 88.165 131.271 116.58 186.678 39.5361c62.2861 -86.6064 74.6582 -209.897 80.6035 -321.64
c1.67383 -31.3779 1.48828 -63.1201 5.05469 -94.2988c2.62793 -22.9932 8.82227 -43.6758 16.373 -64.7598c5.91797 -16.5293 13.4424 -32.7617 29.3945 -33.291c19.3496 -0.640625 36.2363 19.127 47.7617 36.3545c28.0879 41.999 46.334 96.0869 61.0137 147.26
c14.1104 49.1855 24.9746 99.7139 35.4707 150.286c-0.0439453 0.482422 -0.0878906 0.961914 -0.12793 1.44434c-4.86816 57.8496 -9.28125 123.419 23.7021 169.228c11.4746 15.9355 39.3066 15.7295 46.1494 -6.77832c20.999 -69.0684 33.6748 -143.997 42.7002 -217.27
c8.7959 -71.3857 15.8135 -143.608 15.8105 -215.949c-0.00292969 -46.9316 -2.50293 -93.8936 -10.7861 -139.445c53.9053 5.00684 107.305 14.1768 158.733 37.3223c16.5293 7.44336 27.96 -20.79 10.1855 -28.8672c-56.9316 -25.8613 -116.154 -35.332 -175.856 -40.6797
c-0.995117 -3.98438 -2.03809 -7.95508 -3.1416 -11.9092c-15.8643 -56.8145 -39.4648 -113.76 -72.459 -157.941c-31.7822 -42.5625 -74.3037 -69.3584 -121.31 -64.2773c-43.8311 4.7373 -86.4746 42.0264 -101.502 95.21
c-13.5898 48.1162 1.25879 95.5811 34.7051 123.325c37.1738 30.8447 86.7773 33.6211 129.728 37.7607c11.1475 1.07324 22.3252 1.9541 33.5234 2.74023c10.4561 82.001 11.124 163.978 5.21289 247.354c-1.38379 19.4775 -3.07422 38.918 -4.87891 58.3447
c-16.957 -71.7744 -38.5508 -142.263 -72.7119 -201.941c-21.8125 -38.1016 -52.1846 -67.7451 -89.3691 -76.71c-39.0674 -9.41992 -84.4268 12.0723 -106.941 54.0576c-25.8682 48.2344 -26.2393 109.165 -25.7197 165.466
c0.523438 56.7158 4.81543 113.442 4.57617 170.121c-0.199219 47.1445 3.03613 111.881 -21.5225 151.269c-26.4824 42.4746 -69.6553 47.0264 -103.209 14.4375c-28.2129 -27.4033 -45.8994 -78.4209 -34.4922 -122.646
c10.3916 -40.2852 43.7031 -68.7139 77.1729 -60.8828c15.9756 3.73535 22.9023 -25.8574 6.5957 -30.9082zM461.623 47.7822c1.98047 10.3213 3.74023 20.6318 5.39355 30.9463c-2.56445 -0.202148 -5.12891 -0.408203 -7.68945 -0.624023
c-22.5381 -1.89648 -45.0723 -4.27832 -67.4648 -8.06055c-19.3262 -3.2627 -39.9209 -7.00781 -57.0332 -19.5957c-35.9121 -26.4219 -39.8193 -78.7422 -6.17383 -110.747c24.5049 -23.3174 63.0693 -35.9697 88.3643 -8.4248
c25.4902 27.7646 36.999 76.832 44.6035 116.506z" />
    <glyph glyph-name="Y" unicode="&#xdd;" horiz-adv-x="737" 
d="M106.412 479.237c-39.0732 -12.0986 -79.252 6.45117 -102.829 47.9951c-23.6445 41.6611 -22.7002 96.2246 -4.28809 140.684c36.5166 88.165 131.271 116.58 186.678 39.5361c62.2861 -86.6064 74.6582 -209.897 80.6035 -321.64
c1.67383 -31.3779 1.48828 -63.1201 5.05469 -94.2988c2.62793 -22.9932 8.82227 -43.6758 16.373 -64.7598c5.91797 -16.5293 13.4424 -32.7617 29.3945 -33.291c19.3496 -0.640625 36.2363 19.127 47.7617 36.3545c28.0879 41.999 46.334 96.0869 61.0137 147.26
c14.1104 49.1855 24.9746 99.7139 35.4707 150.286c-0.0439453 0.482422 -0.0878906 0.961914 -0.12793 1.44434c-4.86816 57.8496 -9.28125 123.419 23.7021 169.228c11.4746 15.9355 39.3066 15.7295 46.1494 -6.77832c20.999 -69.0684 33.6748 -143.997 42.7002 -217.27
c8.7959 -71.3857 15.8135 -143.608 15.8105 -215.949c-0.00292969 -46.9316 -2.50293 -93.8936 -10.7861 -139.445c53.9053 5.00684 107.305 14.1768 158.733 37.3223c16.5293 7.44336 27.96 -20.79 10.1855 -28.8672c-56.9316 -25.8613 -116.154 -35.332 -175.856 -40.6797
c-0.995117 -3.98438 -2.03809 -7.95508 -3.1416 -11.9092c-15.8643 -56.8145 -39.4648 -113.76 -72.459 -157.941c-31.7822 -42.5625 -74.3037 -69.3584 -121.31 -64.2773c-43.8311 4.7373 -86.4746 42.0264 -101.502 95.21
c-13.5898 48.1162 1.25879 95.5811 34.7051 123.325c37.1738 30.8447 86.7773 33.6211 129.728 37.7607c11.1475 1.07324 22.3252 1.9541 33.5234 2.74023c10.4561 82.001 11.124 163.978 5.21289 247.354c-1.38379 19.4775 -3.07422 38.918 -4.87891 58.3447
c-16.957 -71.7744 -38.5508 -142.263 -72.7119 -201.941c-21.8125 -38.1016 -52.1846 -67.7451 -89.3691 -76.71c-39.0674 -9.41992 -84.4268 12.0723 -106.941 54.0576c-25.8682 48.2344 -26.2393 109.165 -25.7197 165.466
c0.523438 56.7158 4.81543 113.442 4.57617 170.121c-0.199219 47.1445 3.03613 111.881 -21.5225 151.269c-26.4824 42.4746 -69.6553 47.0264 -103.209 14.4375c-28.2129 -27.4033 -45.8994 -78.4209 -34.4922 -122.646
c10.3916 -40.2852 43.7031 -68.7139 77.1729 -60.8828c15.9756 3.73535 22.9023 -25.8574 6.5957 -30.9082zM461.623 47.7822c1.98047 10.3213 3.74023 20.6318 5.39355 30.9463c-2.56445 -0.202148 -5.12891 -0.408203 -7.68945 -0.624023
c-22.5381 -1.89648 -45.0723 -4.27832 -67.4648 -8.06055c-19.3262 -3.2627 -39.9209 -7.00781 -57.0332 -19.5957c-35.9121 -26.4219 -39.8193 -78.7422 -6.17383 -110.747c24.5049 -23.3174 63.0693 -35.9697 88.3643 -8.4248
c25.4902 27.7646 36.999 76.832 44.6035 116.506z" />
    <glyph glyph-name="Z" unicode="Z" horiz-adv-x="753" 
d="M553.808 646.238c7.06152 -61.9561 2.21973 -126.286 -8.88086 -188.866c17.4531 -4.60254 35.5947 -8.82715 52.6328 -4.32617c17.585 4.64551 29.8799 -19.0293 10.6855 -24.0332c-22.8789 -5.96484 -45.5957 -2.58398 -68.2656 2.45996
c-4.58496 -22.3018 -9.8623 -44.3096 -15.6182 -65.8154c-24.6436 -92.0986 -60.8896 -184.271 -109.032 -266.714c-0.621094 -1.0625 -1.25586 -2.11816 -1.88379 -3.17773c116.176 8.7793 231.555 22.5312 340.078 68.0928
c18.9209 7.94531 31.9746 -18.1455 11.8457 -26.6475c-118.213 -49.9375 -244.53 -62.9609 -371.232 -72.3438c-45.167 -68.2217 -102.73 -127.485 -179.093 -160.654c-38.9521 -16.9199 -84.2344 -26.6807 -126.651 -20.0508
c-34.8701 5.45215 -76.083 25.9932 -82.4023 64.3818c-6.58594 40.0215 20.1357 74.4834 53.167 93.5596c40.3555 23.3076 87.8232 30.8008 133.433 36.0771c33.0508 3.82617 66.3555 6.63965 99.7646 9.10254c27.6025 36.6787 50.5557 76.7109 72.2842 118.538
c38.999 75.0771 73.4473 153.855 98.1816 234.841c0.375 1.23145 0.736328 2.46973 1.11035 3.70117c-35.0078 0.573242 -69.5234 -8.60352 -93.5156 -36.2939c-10.166 -11.7314 -33.0918 1.08301 -21.5664 14.7471c25.6826 30.4531 64.8916 45.2041 104.046 46.8672
c6.1748 0.262695 12.3359 0.246094 18.4736 0c9.00488 31.749 16.8496 63.8184 22.6729 96.3125c6.55859 36.6006 13.249 74.7529 13.5156 112.031c0.236328 33.0449 -5.78613 66.6963 -27.8418 92.6084c-25.4258 29.8691 -64.7021 39.2793 -102.497 34.2588
c-41.2197 -5.47559 -77.665 -27.9629 -110.959 -51.5371c-32.4541 -22.9805 -62.7822 -48.3086 -90.6006 -76.7275c-26.3506 -26.9209 -55.4951 -56.5479 -72.1123 -90.7363c-16.8457 -34.6602 -38.1484 -67.1211 -55.7129 -101.472
c-19.8525 -38.8271 -95.9521 -12.7832 -70.8799 26.3916c14.7646 23.0713 30.3291 45.5625 47.9512 66.5557c16.04 19.1104 34.6504 34.8867 52.0293 52.6572c34.0596 34.8291 69.9043 67.4248 107.808 98.0029c70.5293 56.8984 163.968 125.798 259.974 96.3232
c75.1172 -23.0645 101.093 -107.96 109.093 -178.114zM224.888 14.5068c14.957 12.8652 28.6543 26.5254 41.3838 40.8379c-19.5723 -1.66016 -39.0908 -3.49219 -58.5244 -5.6416c-41.5332 -4.5918 -85.7285 -9.29199 -123.264 -29.1279
c-17.75 -9.38281 -34.7441 -22.5312 -39.3936 -43.085c-3.21582 -14.2314 0.674805 -32.6025 15.9424 -38.4365c10.6992 -4.08887 25.916 0.253906 36.2539 3.66797c14.957 4.93945 32.7578 11.6738 45.5615 17.791c13.9375 6.65723 30.8779 16.6309 44.8965 26.2637
c14.582 10.0205 26.9541 18.9648 37.1436 27.7305z" />
    <glyph glyph-name="bracketleft" unicode="[" horiz-adv-x="292" 
d="M215.443 -84.0654c22.4707 3.55566 38.415 -25.4258 16.8418 -38.4053c-31.4658 -18.9385 -72.5 -24.7686 -104.604 -3.30371c-30.6289 20.4766 -42.1074 53.9902 -51.0312 87.8643c-34.5664 131.227 -28.2979 268.283 -20.6797 402.459
c3.80566 67.0068 8.31348 134.675 29.8428 198.763c9.56543 28.4766 21.7422 53.3154 48.585 68.7275c21.7891 12.5137 43.9287 19.8389 68.4307 10.0645c15.6621 -6.24902 5.96191 -27.5996 -8.93066 -24.04c-58.9531 14.083 -52.3643 -97.2705 -53.4473 -130.497
c-1.76074 -54.0781 -0.208984 -108.449 0.327148 -162.547c0.542969 -54.9111 0.904297 -109.994 3.87305 -164.834c2.90527 -53.626 9.27539 -107.076 18.54 -159.973c4.53125 -25.875 13.165 -90.4629 52.252 -84.2783z" />
    <glyph glyph-name="backslash" unicode="\" horiz-adv-x="459" 
d="M404.734 -151.5c15.9355 -24.957 -17.2822 -46.7803 -39.1016 -31.9551c-24.4512 16.6104 -41.6309 45.4102 -57.2695 69.7832c-17.4707 27.2275 -32.6396 56.0752 -47.5488 84.7773c-50.582 97.3887 -90.7217 200.247 -126.01 304.036
c-35.9258 105.665 -69.9111 215.838 -84.4971 326.733c-3.14746 23.9414 18.2539 41.4521 39.0439 46.3887c19.1299 4.54102 51.6611 -2.25098 58.1699 -24.7246c16.9541 -58.5479 30.3691 -117.997 46.4971 -176.761c28.1963 -102.73 61.1465 -204.29 99.667 -303.622
c19.4238 -50.0898 39.4453 -99.8789 59.4463 -149.735c9.95605 -24.8223 21.1006 -49.2393 30.3115 -74.3379c5.25 -14.3086 10.5068 -28.2764 14.3975 -43.0107c2.03418 -7.70996 2.70605 -21.0166 6.89355 -27.5723z" />
    <glyph glyph-name="bracketright" unicode="]" horiz-adv-x="310" 
d="M250.168 335.081c4.3457 -66.6318 9.76465 -133.429 9.89258 -200.227c0.0673828 -35.5342 -1.19824 -71.2139 -4.80469 -106.576c-3.0166 -29.5898 -8.37793 -60.4922 -23.709 -86.5156c-32.6699 -55.4648 -109.556 -89.3291 -168.782 -54.5469
c-23.25 13.6475 -11.7275 45.8818 10.4902 52.7246c5.59766 1.72363 11.3066 2.98242 16.8867 4.72656c2.54688 0.795898 5.04688 1.76074 7.5166 2.76953c0.206055 0.0976562 0.425781 0.202148 0.682617 0.323242c9.24121 4.37891 17.4668 8.43457 24.3936 13.8867
c0.192383 0.324219 4.36621 4.13672 4.8457 4.6123c1.7002 1.69043 3.30957 3.47559 5.02051 5.15918c0.876953 0.863281 2.36816 2.66797 2.81348 3.12695c1.01172 1.58594 1.96973 3.22266 2.88379 4.8457c5.9248 10.4863 7.875 18.0469 10.4023 30.4932
c10.1826 50.1777 10.0312 102.67 9.39648 153.637c-0.688477 55.0127 -0.0205078 110.032 -0.208984 165.048c-0.185547 52.8838 0.236328 105.689 -3.39746 158.492c-1.79199 25.9658 -6.0498 51.7998 -7.2207 77.7891c-0.536133 12.001 1.94043 25.3008 -3.72461 36.3467
c-5.17871 10.0947 -15.0811 17.8008 -26.2256 12.5c-13.2119 -6.28613 -26.6299 12.1865 -13.0732 20.6143c24.6768 15.3447 53.9932 4.27832 69.4219 -18.6074c19.1641 -28.4219 35.3154 -55.6562 44.8906 -88.8799c18.04 -62.5703 27.3789 -126.841 31.6094 -191.742z" />
    <glyph glyph-name="asciicircum" unicode="^" horiz-adv-x="270" 
d="M207.775 507.77c6.62988 -30.666 10.5752 -63.1445 12.1074 -94.458c2.30762 -47.3564 -78.124 -56.0781 -84.6221 -8.89355c-2.4668 17.916 -4.20117 35.916 -6.62012 53.8389c-1.10645 -1.42676 -2.21289 -2.85352 -3.32617 -4.28418
c-13.3545 -17.1738 -27.9102 -33.9658 -40.792 -51.2842c-6.65723 -8.95117 -24.0293 -6.65723 -28.3887 3.30957c-12.3145 28.1553 -4.52734 58.4834 9.60254 84.9795c13.9883 26.2295 34.6504 57.5703 64.0068 67.4727c40.2139 13.5596 69.999 -13.5371 78.0322 -50.6807z
M161.404 492.967c0.823242 0.792969 0.897461 1.25488 0.232422 1.38281c-0.563477 -0.509766 -1.12402 -1.02246 -1.6875 -1.53516c0.486328 0.0507812 0.96875 0.101562 1.45508 0.152344z" />
    <glyph glyph-name="underscore" unicode="_" horiz-adv-x="366" 
d="M315.947 -40.1797c2.30469 -21.9443 -18.5645 -38.627 -38.7471 -40.6377c-35.6221 -3.5459 -71.8281 -2.82715 -107.592 -2.70215c-18.5293 0.0644531 -37.0625 0.078125 -55.5918 0.196289c-16.3301 0.104492 -33.6826 -0.327148 -49.2363 5.06152
c-16.3564 5.66797 -21.1445 29.8184 -4.02148 38.2705c30.2305 14.9229 69.0947 15.4629 102.173 20.001c35.3223 4.84473 71.002 10.3135 106.668 11.5049c20.2334 0.671875 43.9053 -8.45117 46.3477 -31.6943z" />
    <glyph glyph-name="grave" unicode="`" horiz-adv-x="170" 
d="M116.672 439.623c7.29492 -6.63281 2.18848 -17.6709 -4.36719 -22.1855c-25.5303 -17.5918 -47.876 7.52734 -55.2881 30.4834c-8.6748 26.8604 -8.72168 56.5039 -3.30664 83.9473c5.32031 26.958 53.1836 27.9502 56.4424 -0.556641
c1.90625 -16.708 1.56836 -33.416 2.06055 -50.2119c0.225586 -7.78418 0.265625 -37.6602 4.45898 -41.4766z" />
    <glyph glyph-name="a" unicode="a" horiz-adv-x="497" 
d="M496.938 169.08c7.07812 13.5635 31.8994 6.38965 25.4414 -9.46777c-20.1826 -49.5596 -48.7061 -99.8447 -84.666 -139.84c-30.8516 -34.3096 -84.6934 -43.7734 -126.976 -26.0361c-52.168 21.8799 -78.2178 78.957 -92.2402 130.025
c-0.101562 0.37793 -0.196289 0.755859 -0.300781 1.13672c-4.02832 -21.8291 -9.69629 -43.1865 -17.7227 -63.6289c-11.8965 -30.2881 -29.3232 -52.0703 -54.1729 -72.6143c-28.0879 -23.2197 -68.3994 -19.8125 -98.3164 -1.63379
c-64.6582 39.29 -76.0049 120.814 -70.5557 189.714c5.1084 64.5879 35.8584 148.144 104.315 168.907c33.1221 10.0479 67.3984 5.5332 95.0752 -15.9453c8.69434 -6.74805 16.083 -14.3027 22.5439 -22.4746c4.56152 22.8623 35.042 35.1973 55.1006 35.0186
c24.5723 -0.219727 47.2988 -14.7041 51.4355 -40.0625c7.38184 -45.2344 8.24219 -91.3398 13.7725 -136.838c2.70605 -22.2441 7.12207 -44.1914 11.4473 -66.1592c3.28613 -16.6875 7.21387 -33.085 15.5 -48.7168c6.10645 -11.5186 16.9268 -28.3916 30.6113 -31.6641
c19.1299 -4.5752 36.9609 20.2197 46.9648 33.041c28.3281 36.3066 51.4766 76.4873 72.7422 117.238zM185.495 129.179c6.72461 36.2363 9.80176 73.4521 11.1143 110.589c-10.5742 22.5752 -27.2109 59.79 -54.5166 61.916
c-8.2627 0.644531 -12.7168 -3.85645 -17.6934 -9.78125c-8.09082 -9.63281 -14.6396 -18.3916 -21.1045 -29.1035c-22.9932 -38.0986 -34.127 -80.1416 -32.9053 -124.867c0.617188 -22.5586 2.56738 -47.0469 11.0156 -68.168
c6.66016 -16.6602 16.0635 -37.0898 32.8691 -45.8887c43.9189 -23.0039 66.2412 78.4639 71.2207 105.304z" />
    <glyph glyph-name="a" unicode="&#xe5;" horiz-adv-x="497" 
d="M496.938 169.08c7.07812 13.5635 31.8994 6.38965 25.4414 -9.46777c-20.1826 -49.5596 -48.7061 -99.8447 -84.666 -139.84c-30.8516 -34.3096 -84.6934 -43.7734 -126.976 -26.0361c-52.168 21.8799 -78.2178 78.957 -92.2402 130.025
c-0.101562 0.37793 -0.196289 0.755859 -0.300781 1.13672c-4.02832 -21.8291 -9.69629 -43.1865 -17.7227 -63.6289c-11.8965 -30.2881 -29.3232 -52.0703 -54.1729 -72.6143c-28.0879 -23.2197 -68.3994 -19.8125 -98.3164 -1.63379
c-64.6582 39.29 -76.0049 120.814 -70.5557 189.714c5.1084 64.5879 35.8584 148.144 104.315 168.907c33.1221 10.0479 67.3984 5.5332 95.0752 -15.9453c8.69434 -6.74805 16.083 -14.3027 22.5439 -22.4746c4.56152 22.8623 35.042 35.1973 55.1006 35.0186
c24.5723 -0.219727 47.2988 -14.7041 51.4355 -40.0625c7.38184 -45.2344 8.24219 -91.3398 13.7725 -136.838c2.70605 -22.2441 7.12207 -44.1914 11.4473 -66.1592c3.28613 -16.6875 7.21387 -33.085 15.5 -48.7168c6.10645 -11.5186 16.9268 -28.3916 30.6113 -31.6641
c19.1299 -4.5752 36.9609 20.2197 46.9648 33.041c28.3281 36.3066 51.4766 76.4873 72.7422 117.238zM185.495 129.179c6.72461 36.2363 9.80176 73.4521 11.1143 110.589c-10.5742 22.5752 -27.2109 59.79 -54.5166 61.916
c-8.2627 0.644531 -12.7168 -3.85645 -17.6934 -9.78125c-8.09082 -9.63281 -14.6396 -18.3916 -21.1045 -29.1035c-22.9932 -38.0986 -34.127 -80.1416 -32.9053 -124.867c0.617188 -22.5586 2.56738 -47.0469 11.0156 -68.168
c6.66016 -16.6602 16.0635 -37.0898 32.8691 -45.8887c43.9189 -23.0039 66.2412 78.4639 71.2207 105.304z" />
    <glyph glyph-name="a" unicode="&#xe4;" horiz-adv-x="497" 
d="M496.938 169.08c7.07812 13.5635 31.8994 6.38965 25.4414 -9.46777c-20.1826 -49.5596 -48.7061 -99.8447 -84.666 -139.84c-30.8516 -34.3096 -84.6934 -43.7734 -126.976 -26.0361c-52.168 21.8799 -78.2178 78.957 -92.2402 130.025
c-0.101562 0.37793 -0.196289 0.755859 -0.300781 1.13672c-4.02832 -21.8291 -9.69629 -43.1865 -17.7227 -63.6289c-11.8965 -30.2881 -29.3232 -52.0703 -54.1729 -72.6143c-28.0879 -23.2197 -68.3994 -19.8125 -98.3164 -1.63379
c-64.6582 39.29 -76.0049 120.814 -70.5557 189.714c5.1084 64.5879 35.8584 148.144 104.315 168.907c33.1221 10.0479 67.3984 5.5332 95.0752 -15.9453c8.69434 -6.74805 16.083 -14.3027 22.5439 -22.4746c4.56152 22.8623 35.042 35.1973 55.1006 35.0186
c24.5723 -0.219727 47.2988 -14.7041 51.4355 -40.0625c7.38184 -45.2344 8.24219 -91.3398 13.7725 -136.838c2.70605 -22.2441 7.12207 -44.1914 11.4473 -66.1592c3.28613 -16.6875 7.21387 -33.085 15.5 -48.7168c6.10645 -11.5186 16.9268 -28.3916 30.6113 -31.6641
c19.1299 -4.5752 36.9609 20.2197 46.9648 33.041c28.3281 36.3066 51.4766 76.4873 72.7422 117.238zM185.495 129.179c6.72461 36.2363 9.80176 73.4521 11.1143 110.589c-10.5742 22.5752 -27.2109 59.79 -54.5166 61.916
c-8.2627 0.644531 -12.7168 -3.85645 -17.6934 -9.78125c-8.09082 -9.63281 -14.6396 -18.3916 -21.1045 -29.1035c-22.9932 -38.0986 -34.127 -80.1416 -32.9053 -124.867c0.617188 -22.5586 2.56738 -47.0469 11.0156 -68.168
c6.66016 -16.6602 16.0635 -37.0898 32.8691 -45.8887c43.9189 -23.0039 66.2412 78.4639 71.2207 105.304z" />
    <glyph glyph-name="a" unicode="&#xe3;" horiz-adv-x="497" 
d="M496.938 169.08c7.07812 13.5635 31.8994 6.38965 25.4414 -9.46777c-20.1826 -49.5596 -48.7061 -99.8447 -84.666 -139.84c-30.8516 -34.3096 -84.6934 -43.7734 -126.976 -26.0361c-52.168 21.8799 -78.2178 78.957 -92.2402 130.025
c-0.101562 0.37793 -0.196289 0.755859 -0.300781 1.13672c-4.02832 -21.8291 -9.69629 -43.1865 -17.7227 -63.6289c-11.8965 -30.2881 -29.3232 -52.0703 -54.1729 -72.6143c-28.0879 -23.2197 -68.3994 -19.8125 -98.3164 -1.63379
c-64.6582 39.29 -76.0049 120.814 -70.5557 189.714c5.1084 64.5879 35.8584 148.144 104.315 168.907c33.1221 10.0479 67.3984 5.5332 95.0752 -15.9453c8.69434 -6.74805 16.083 -14.3027 22.5439 -22.4746c4.56152 22.8623 35.042 35.1973 55.1006 35.0186
c24.5723 -0.219727 47.2988 -14.7041 51.4355 -40.0625c7.38184 -45.2344 8.24219 -91.3398 13.7725 -136.838c2.70605 -22.2441 7.12207 -44.1914 11.4473 -66.1592c3.28613 -16.6875 7.21387 -33.085 15.5 -48.7168c6.10645 -11.5186 16.9268 -28.3916 30.6113 -31.6641
c19.1299 -4.5752 36.9609 20.2197 46.9648 33.041c28.3281 36.3066 51.4766 76.4873 72.7422 117.238zM185.495 129.179c6.72461 36.2363 9.80176 73.4521 11.1143 110.589c-10.5742 22.5752 -27.2109 59.79 -54.5166 61.916
c-8.2627 0.644531 -12.7168 -3.85645 -17.6934 -9.78125c-8.09082 -9.63281 -14.6396 -18.3916 -21.1045 -29.1035c-22.9932 -38.0986 -34.127 -80.1416 -32.9053 -124.867c0.617188 -22.5586 2.56738 -47.0469 11.0156 -68.168
c6.66016 -16.6602 16.0635 -37.0898 32.8691 -45.8887c43.9189 -23.0039 66.2412 78.4639 71.2207 105.304z" />
    <glyph glyph-name="a" unicode="&#xe2;" horiz-adv-x="497" 
d="M496.938 169.08c7.07812 13.5635 31.8994 6.38965 25.4414 -9.46777c-20.1826 -49.5596 -48.7061 -99.8447 -84.666 -139.84c-30.8516 -34.3096 -84.6934 -43.7734 -126.976 -26.0361c-52.168 21.8799 -78.2178 78.957 -92.2402 130.025
c-0.101562 0.37793 -0.196289 0.755859 -0.300781 1.13672c-4.02832 -21.8291 -9.69629 -43.1865 -17.7227 -63.6289c-11.8965 -30.2881 -29.3232 -52.0703 -54.1729 -72.6143c-28.0879 -23.2197 -68.3994 -19.8125 -98.3164 -1.63379
c-64.6582 39.29 -76.0049 120.814 -70.5557 189.714c5.1084 64.5879 35.8584 148.144 104.315 168.907c33.1221 10.0479 67.3984 5.5332 95.0752 -15.9453c8.69434 -6.74805 16.083 -14.3027 22.5439 -22.4746c4.56152 22.8623 35.042 35.1973 55.1006 35.0186
c24.5723 -0.219727 47.2988 -14.7041 51.4355 -40.0625c7.38184 -45.2344 8.24219 -91.3398 13.7725 -136.838c2.70605 -22.2441 7.12207 -44.1914 11.4473 -66.1592c3.28613 -16.6875 7.21387 -33.085 15.5 -48.7168c6.10645 -11.5186 16.9268 -28.3916 30.6113 -31.6641
c19.1299 -4.5752 36.9609 20.2197 46.9648 33.041c28.3281 36.3066 51.4766 76.4873 72.7422 117.238zM185.495 129.179c6.72461 36.2363 9.80176 73.4521 11.1143 110.589c-10.5742 22.5752 -27.2109 59.79 -54.5166 61.916
c-8.2627 0.644531 -12.7168 -3.85645 -17.6934 -9.78125c-8.09082 -9.63281 -14.6396 -18.3916 -21.1045 -29.1035c-22.9932 -38.0986 -34.127 -80.1416 -32.9053 -124.867c0.617188 -22.5586 2.56738 -47.0469 11.0156 -68.168
c6.66016 -16.6602 16.0635 -37.0898 32.8691 -45.8887c43.9189 -23.0039 66.2412 78.4639 71.2207 105.304z" />
    <glyph glyph-name="a" unicode="&#xe1;" horiz-adv-x="497" 
d="M496.938 169.08c7.07812 13.5635 31.8994 6.38965 25.4414 -9.46777c-20.1826 -49.5596 -48.7061 -99.8447 -84.666 -139.84c-30.8516 -34.3096 -84.6934 -43.7734 -126.976 -26.0361c-52.168 21.8799 -78.2178 78.957 -92.2402 130.025
c-0.101562 0.37793 -0.196289 0.755859 -0.300781 1.13672c-4.02832 -21.8291 -9.69629 -43.1865 -17.7227 -63.6289c-11.8965 -30.2881 -29.3232 -52.0703 -54.1729 -72.6143c-28.0879 -23.2197 -68.3994 -19.8125 -98.3164 -1.63379
c-64.6582 39.29 -76.0049 120.814 -70.5557 189.714c5.1084 64.5879 35.8584 148.144 104.315 168.907c33.1221 10.0479 67.3984 5.5332 95.0752 -15.9453c8.69434 -6.74805 16.083 -14.3027 22.5439 -22.4746c4.56152 22.8623 35.042 35.1973 55.1006 35.0186
c24.5723 -0.219727 47.2988 -14.7041 51.4355 -40.0625c7.38184 -45.2344 8.24219 -91.3398 13.7725 -136.838c2.70605 -22.2441 7.12207 -44.1914 11.4473 -66.1592c3.28613 -16.6875 7.21387 -33.085 15.5 -48.7168c6.10645 -11.5186 16.9268 -28.3916 30.6113 -31.6641
c19.1299 -4.5752 36.9609 20.2197 46.9648 33.041c28.3281 36.3066 51.4766 76.4873 72.7422 117.238zM185.495 129.179c6.72461 36.2363 9.80176 73.4521 11.1143 110.589c-10.5742 22.5752 -27.2109 59.79 -54.5166 61.916
c-8.2627 0.644531 -12.7168 -3.85645 -17.6934 -9.78125c-8.09082 -9.63281 -14.6396 -18.3916 -21.1045 -29.1035c-22.9932 -38.0986 -34.127 -80.1416 -32.9053 -124.867c0.617188 -22.5586 2.56738 -47.0469 11.0156 -68.168
c6.66016 -16.6602 16.0635 -37.0898 32.8691 -45.8887c43.9189 -23.0039 66.2412 78.4639 71.2207 105.304z" />
    <glyph glyph-name="b" unicode="b" horiz-adv-x="453" 
d="M456.654 166.064c9.82129 12.3994 33.1182 -0.731445 21.9434 -15c-26.9102 -34.3232 -59.5869 -62.7793 -95.4795 -86.7852c-0.445312 -11.3564 -1.26172 -22.7031 -2.41602 -34.0059c-5.92773 -58.0762 -25.4629 -112.403 -60.876 -158.974
c-34.4004 -45.2412 -98.0332 -78.873 -155.688 -67.2939c-29.2959 5.88379 -48.6426 19.3799 -62.6787 45.3828c-11.3701 21.0674 -18.54 45.7178 -12.6318 69.7305c12.8818 52.3506 63.6631 74.8516 110.268 89.9531c30.8682 10 61.4834 21.1748 90.9814 34.374
c1.20117 6.74414 2.27051 13.502 3.20215 20.2568c6.11719 44.4219 13.4316 90.3281 9.51758 135.27c-1.66016 19.0693 -1.22852 46.4688 -13.915 62.0195c-15.5205 19.0254 -38.2646 9.4502 -52.6475 -5.59473c-30.3926 -31.7861 -52.1006 -76.4609 -70.0537 -116.155
c-17.5381 -38.7764 -31.4053 -78.9268 -42.6064 -119.931c0.874023 -8.23242 1.81836 -16.4443 2.91113 -24.626c4.55176 -34.0469 -51.1523 -50.1377 -69.6416 -23.9326c-16.4346 23.2939 -28.3721 45.0527 -36.2471 72.5303
c-7.26074 25.3379 -12.8613 50.8047 -16.2588 76.9287c-6.89648 53.0449 -11.6709 106.377 -11.9209 159.895c-0.452148 97.1494 9.79102 192.798 49.5869 282.376c17.46 39.3027 44.3203 79.8311 81.8691 102.248c33.0752 19.748 75.4482 24.5967 106.31 -2.17188
c30.5576 -26.5059 35.0244 -66.7539 30.7256 -104.731c-5.11133 -45.1807 -19.6094 -88.6543 -35.9902 -130.839c-31.8262 -81.957 -71.6123 -160.56 -116.287 -236.221c1.87598 -26.8428 4.44727 -53.6152 6.91406 -80.4551
c0.375 -4.08594 0.732422 -8.18164 1.08301 -12.2773c10.7734 30.6963 23.4863 60.6943 38.6357 89.5684c22.7637 43.3926 57.2217 114.883 115.412 113.004c23.6582 -0.762695 38.5166 -15.0918 54.3672 -30.7568c18.1318 -17.9189 31.3311 -42.0996 39.5908 -65.9873
c12.0146 -34.7549 17.6016 -70.9844 18.6641 -107.48c27.0459 19.6328 51.834 42.5146 73.3564 69.6816zM122.319 469.667c-12.8105 -75.9346 -18.1914 -149.823 -16.2383 -226.341c34.0166 60.5928 64.6289 123.068 90.3447 187.669
c14.7607 37.0801 28.4316 75.4385 33.8232 115.16c2.79395 20.5977 4.3457 42.4883 -1.58203 62.708c-4.33594 14.7881 -16.3477 35.96 -34.4121 36.6582c-26.3271 1.01172 -39.9912 -49.1621 -46.4492 -67.874c-12.0752 -34.9883 -19.3457 -71.5723 -25.4863 -107.98z
M253.115 -61.541c13.6377 22.3965 23.0693 46.8682 29.7598 72.1387c-10.1055 -4.35254 -20.2783 -8.50293 -30.4844 -12.4434c-38.6787 -14.9297 -90.5498 -23.1758 -115.349 -59.918c-11.1982 -16.5898 -13.5908 -41.7119 2.59375 -56.3721
c9.19043 -8.32324 30.3887 -11.8662 40.4941 -10.3711c28.9043 4.27832 59.3545 44.5801 72.9854 66.9658z" />
    <glyph glyph-name="c" unicode="c" horiz-adv-x="348" 
d="M354.335 198.586c10.6309 11.5898 34.0107 -1.36328 21.9287 -15.001c-58.0322 -65.4814 -87.3926 -150.312 -142.833 -217.728c-23.1523 -28.1523 -53.6094 -53.9902 -90.6348 -60.5254c-43.4297 -7.66602 -82.9893 10.752 -110.068 44.8896
c-26.6201 33.5576 -40.1533 77.1992 -48.2646 118.686c-8.2998 42.4512 -9.0957 85.6914 -3.27539 128.541c5.62109 41.3779 17.1602 85.7383 40.1064 121.121c24.8057 38.2539 62.0947 59.7529 107.262 62.5166c39.0059 2.38574 72.6846 -16.0127 82.418 -55.0801
c10.3408 -41.5 7.19629 -84.7578 4.17969 -126.945c-1.29199 -18.0605 -33.8301 -15.0615 -32.791 4.13672c2.03418 37.5996 7.39551 84.4365 -8.6543 119.803c-6.33594 13.958 -21.1914 22.6592 -35.3486 12.0381c-9.27148 -6.9541 -17.3896 -21.4961 -22.7139 -31.5811
c-27.8252 -52.6982 -37.9707 -116.621 -35.7812 -176.087c1.15039 -31.2256 6.02539 -62.6641 13.873 -92.9111c7.00781 -27.0215 17.5479 -57.2861 38.2607 -76.9668c7.18359 -6.8252 16.5635 -16.1846 27.667 -14.6123c14.2217 2.01465 28.1934 18.0781 37.3301 27.9062
c21.8223 23.4756 39.6768 50.2578 56.3984 77.5029c31.624 51.5273 59.7793 105.437 100.941 150.297z" />
    <glyph glyph-name="d" unicode="d" horiz-adv-x="449" 
d="M431.31 -120.118c16.9775 -5.6543 5.56836 -26.3984 -9.07129 -24.4277c-4.22461 0.570312 -8.30664 1.41016 -12.376 2.43555c-49.6543 -7.81055 -90.7051 60.0635 -106.991 97.582c-38.0957 87.7568 -53.0488 184.491 -56.5273 279.88
c-3.86621 8.58691 -8.14453 17.0146 -13.0371 24.9531c-0.68457 -3.52539 -1.3623 -7.05469 -2.05078 -10.5771c-10.0508 -51.3818 -20.4902 -102.757 -32.9033 -153.629c-9.94629 -40.7676 -23.7119 -88.4951 -60.7246 -113.246
c-40.1768 -26.8633 -95.0273 -5.39453 -121.786 30.2715c-26.4756 35.292 -38.0176 83.1924 -40.2676 126.534c-4.5752 88.1279 39.1445 210.656 137.671 227.091c36.6348 6.11035 73.3301 -8.12793 102.438 -30.3252c16.7754 86.9707 33.2266 174.019 54.8809 259.923
c0.380859 2.12891 0.738281 4.26465 1.12988 6.39062c4.45996 24.1543 30.5947 37.3359 52.9775 37.1338c19.3223 -0.171875 50.126 -14.0117 48.959 -38.1318c-6.37012 -131.561 -27.8525 -261.255 -21.4863 -393.456c3.04688 -63.2549 9.42676 -126.139 21.7852 -188.311
c5.47559 -27.5449 13.249 -54.958 22.7842 -81.376c4.41699 -12.2373 9.11719 -24.5693 15.7402 -35.8047c4.50391 -7.6416 9.39941 -13.2529 12.5811 -20.6523c2.05176 -0.860352 4.12988 -1.64355 6.27539 -2.25781zM163.19 94.4297
c17.0186 65.1104 30.7705 130.948 43.7363 196.97c-4.12305 3.35352 -8.53613 6.37305 -13.2803 8.99121c-34.9336 19.2783 -56.5303 3.00586 -78.7744 -23.9521c-39.7109 -48.123 -51.4756 -114.391 -39.9971 -178.631c4.49414 -25.1465 9.8584 -63.5146 32.9326 -78.8936
c31.9414 -21.29 50.3965 56.4355 55.3828 75.5156zM245.545 307.588c0.0507812 6.0459 0.130859 12.0996 0.232422 18.1621c-0.941406 -5 -1.88281 -10 -2.82715 -14.9971c0.883789 -1.04297 1.73438 -2.10547 2.59473 -3.16504z" />
    <glyph glyph-name="e" unicode="e" horiz-adv-x="283" 
d="M284.237 180.512c7.67871 13.0332 34.0371 5.36914 25.4365 -9.46973c-41.7666 -72.0508 -59.9658 -167.945 -125.846 -223.633c-26.0674 -22.0322 -65.6406 -31.4189 -99.0225 -22.6201c-43.834 11.5557 -71.6484 50.3828 -87.2695 90.7959
c-29.4375 76.1602 -26.9707 173.37 0.395508 249.776c14.2988 39.9209 41.8975 81.0127 80.249 101.074c29.8018 15.5908 77.1719 22.2949 105.196 -1.23535c29.8428 -25.0518 7.94629 -65.0361 -13.1074 -87.1123c-20.1426 -21.124 -46.7969 -36.4453 -75.5332 -37.835
c-8.9209 -27.3389 -14.4307 -55.8486 -16.1113 -85.7822c-2.99902 -53.4736 -1.36914 -117.744 25.5752 -167.007c5.71875 -10.4561 11.9473 -20.8711 20.8779 -28.9854c9.21094 -8.36719 20.21 -4.03125 30.1904 1.55273c24.1064 13.4922 40.4805 41.9043 53.5811 65.2246
c28.2227 50.2451 46.0947 105.537 75.3877 155.256zM126.28 310.289c-8.34668 -14.3828 -15.665 -29.0869 -21.9404 -44.1377c25.7529 5.80957 49.0195 26.1914 59.8125 50.042c6.69434 14.791 -1.63965 36.7588 -18.2695 22.9121
c-8.77539 -7.30762 -13.998 -19.1572 -19.6025 -28.8164z" />
    <glyph glyph-name="e" unicode="&#xeb;" horiz-adv-x="283" 
d="M284.237 180.512c7.67871 13.0332 34.0371 5.36914 25.4365 -9.46973c-41.7666 -72.0508 -59.9658 -167.945 -125.846 -223.633c-26.0674 -22.0322 -65.6406 -31.4189 -99.0225 -22.6201c-43.834 11.5557 -71.6484 50.3828 -87.2695 90.7959
c-29.4375 76.1602 -26.9707 173.37 0.395508 249.776c14.2988 39.9209 41.8975 81.0127 80.249 101.074c29.8018 15.5908 77.1719 22.2949 105.196 -1.23535c29.8428 -25.0518 7.94629 -65.0361 -13.1074 -87.1123c-20.1426 -21.124 -46.7969 -36.4453 -75.5332 -37.835
c-8.9209 -27.3389 -14.4307 -55.8486 -16.1113 -85.7822c-2.99902 -53.4736 -1.36914 -117.744 25.5752 -167.007c5.71875 -10.4561 11.9473 -20.8711 20.8779 -28.9854c9.21094 -8.36719 20.21 -4.03125 30.1904 1.55273c24.1064 13.4922 40.4805 41.9043 53.5811 65.2246
c28.2227 50.2451 46.0947 105.537 75.3877 155.256zM126.28 310.289c-8.34668 -14.3828 -15.665 -29.0869 -21.9404 -44.1377c25.7529 5.80957 49.0195 26.1914 59.8125 50.042c6.69434 14.791 -1.63965 36.7588 -18.2695 22.9121
c-8.77539 -7.30762 -13.998 -19.1572 -19.6025 -28.8164z" />
    <glyph glyph-name="e" unicode="&#xea;" horiz-adv-x="283" 
d="M284.237 180.512c7.67871 13.0332 34.0371 5.36914 25.4365 -9.46973c-41.7666 -72.0508 -59.9658 -167.945 -125.846 -223.633c-26.0674 -22.0322 -65.6406 -31.4189 -99.0225 -22.6201c-43.834 11.5557 -71.6484 50.3828 -87.2695 90.7959
c-29.4375 76.1602 -26.9707 173.37 0.395508 249.776c14.2988 39.9209 41.8975 81.0127 80.249 101.074c29.8018 15.5908 77.1719 22.2949 105.196 -1.23535c29.8428 -25.0518 7.94629 -65.0361 -13.1074 -87.1123c-20.1426 -21.124 -46.7969 -36.4453 -75.5332 -37.835
c-8.9209 -27.3389 -14.4307 -55.8486 -16.1113 -85.7822c-2.99902 -53.4736 -1.36914 -117.744 25.5752 -167.007c5.71875 -10.4561 11.9473 -20.8711 20.8779 -28.9854c9.21094 -8.36719 20.21 -4.03125 30.1904 1.55273c24.1064 13.4922 40.4805 41.9043 53.5811 65.2246
c28.2227 50.2451 46.0947 105.537 75.3877 155.256zM126.28 310.289c-8.34668 -14.3828 -15.665 -29.0869 -21.9404 -44.1377c25.7529 5.80957 49.0195 26.1914 59.8125 50.042c6.69434 14.791 -1.63965 36.7588 -18.2695 22.9121
c-8.77539 -7.30762 -13.998 -19.1572 -19.6025 -28.8164z" />
    <glyph glyph-name="e" unicode="&#xe9;" horiz-adv-x="283" 
d="M284.237 180.512c7.67871 13.0332 34.0371 5.36914 25.4365 -9.46973c-41.7666 -72.0508 -59.9658 -167.945 -125.846 -223.633c-26.0674 -22.0322 -65.6406 -31.4189 -99.0225 -22.6201c-43.834 11.5557 -71.6484 50.3828 -87.2695 90.7959
c-29.4375 76.1602 -26.9707 173.37 0.395508 249.776c14.2988 39.9209 41.8975 81.0127 80.249 101.074c29.8018 15.5908 77.1719 22.2949 105.196 -1.23535c29.8428 -25.0518 7.94629 -65.0361 -13.1074 -87.1123c-20.1426 -21.124 -46.7969 -36.4453 -75.5332 -37.835
c-8.9209 -27.3389 -14.4307 -55.8486 -16.1113 -85.7822c-2.99902 -53.4736 -1.36914 -117.744 25.5752 -167.007c5.71875 -10.4561 11.9473 -20.8711 20.8779 -28.9854c9.21094 -8.36719 20.21 -4.03125 30.1904 1.55273c24.1064 13.4922 40.4805 41.9043 53.5811 65.2246
c28.2227 50.2451 46.0947 105.537 75.3877 155.256zM126.28 310.289c-8.34668 -14.3828 -15.665 -29.0869 -21.9404 -44.1377c25.7529 5.80957 49.0195 26.1914 59.8125 50.042c6.69434 14.791 -1.63965 36.7588 -18.2695 22.9121
c-8.77539 -7.30762 -13.998 -19.1572 -19.6025 -28.8164z" />
    <glyph glyph-name="f" unicode="f" horiz-adv-x="358" 
d="M366.87 193.076c10.9287 8.9209 31.6133 -6.96191 19.248 -17.1885c-68.3262 -56.5068 -140.191 -108.361 -215.387 -155.145c38.3379 -6.84277 74.0479 -32.1777 93.2891 -67.0977c29.7617 -54.0205 32.751 -151.137 -21.1719 -192.549
c-11.2861 -8.66797 -28.3418 -17.8281 -41.9756 -21.3535c-18.6543 -4.8252 -38.1924 1.99023 -54.8525 10.3438c-37.5186 18.8164 -61.6865 53.7061 -82.5879 88.8623c-40.1768 67.5732 -59.3174 152.087 -70.1104 229.219c-10.9854 78.5117 -9.4873 159.18 2.2207 237.54
c11.377 76.127 37.9707 156.215 80.6543 220.644c22.8447 34.4883 47.5557 63.248 85.209 81.5859c31.6445 15.4121 73.8359 19.252 101.61 -6.21094c51.9082 -47.5859 28.2402 -136.928 10.3916 -194.487c-41.7998 -134.816 -103.651 -261.491 -162.199 -389.513
c0.0810547 -0.405273 0.165039 -0.803711 0.246094 -1.20898c89.7031 51.9619 175.088 110.973 255.415 176.559zM103.171 67.5127c35.9863 77.2568 72.3398 154.363 103.481 233.735c20.4736 52.1816 40.3525 105.976 50.5352 161.268
c4.85156 26.3408 17.2949 123.001 -35.251 113.787c-21.3203 -3.73828 -30.167 -24.6943 -40.9502 -40.7109c-13.9482 -20.7158 -25.1768 -43.0684 -34.2969 -66.2979c-17.7607 -45.2314 -28.2744 -94.3799 -36.2939 -142.199
c-14.6299 -87.2373 -18.4258 -172.302 -7.22461 -259.582zM245.483 -74.542c-18.7148 50.3496 -75.8447 89.6709 -127.159 63.8301c-0.239258 -0.138672 -0.482422 -0.280273 -0.72168 -0.418945c9.63281 -39.1113 22.2988 -76.8018 33.6084 -115.886
c5.93457 -20.5137 13.0742 -42.1914 24.8936 -60.1475c9.23828 -14.0361 23.1729 -28.6348 39.3916 -35.1465c49.5293 19.751 44.792 107.936 29.9873 147.769z" />
    <glyph glyph-name="g" unicode="g" horiz-adv-x="432" 
d="M433.668 179.533c4.15039 14.626 31.958 12.2666 27.666 -3.49609c-13.4453 -49.3105 -56.1465 -79.0957 -96.3711 -106.267c-9.23438 -6.23828 -18.5264 -12.4062 -27.8252 -18.5566c-0.384766 -38.7393 -2.37891 -77.4482 -6.21484 -116.141
c-10.3848 -104.748 -46.9785 -217.138 -132.464 -284.748c-36.7793 -29.0898 -82.6074 -51.9111 -129.84 -34.3867c-46.1484 17.123 -59.1621 65.4854 -53.8213 110.241c12.2344 102.518 88.2295 187.845 165.773 249.43c15.25 12.1123 30.9521 23.5977 46.8945 34.752
c-0.941406 44.5391 -2.46289 88.8828 -6.22852 133.224c-3.99121 -28.3447 -10.4561 -56.0791 -20.7637 -82.3252c-11.8965 -30.2881 -29.3232 -52.0703 -54.1729 -72.6143c-28.0879 -23.2197 -68.3994 -19.8125 -98.3164 -1.63379
c-64.6582 39.29 -76.0049 120.814 -70.5557 189.714c5.1084 64.5879 35.8584 148.144 104.315 168.907c33.1221 10.0479 67.3984 5.5332 95.0752 -15.9453c8.99805 -6.98438 16.5859 -14.8428 23.209 -23.3447c-1.35254 11.0596 -2.59082 22.1299 -3.52539 33.2197
c-2.14551 25.4629 18.5303 44.3203 41.6152 49.4453c21.3066 4.73047 53.9561 -2.39844 62.0059 -26.3535c22.9395 -68.2549 30.335 -142.685 34.6133 -214.229c1.31543 -21.998 2.06152 -43.9824 2.34473 -65.9531c38.8076 24.3467 83.7754 51.9014 96.5859 97.0615z
M185.489 129.18c6.72461 36.2363 9.79883 73.4521 11.1143 110.593c-10.5742 22.5713 -27.2109 59.7861 -54.5166 61.9121c-8.2627 0.644531 -12.7158 -3.85645 -17.6924 -9.78125c-8.09082 -9.63281 -14.6396 -18.3916 -21.1045 -29.1035
c-22.9932 -38.0986 -34.127 -80.1416 -32.9053 -124.867c0.614258 -22.5586 2.56738 -47.0469 11.0156 -68.168c6.66309 -16.6602 16.0625 -37.0898 32.8682 -45.8887c43.9189 -23.0039 66.2412 78.4639 71.2207 105.304zM223.909 -144.639
c3.85352 40.5449 4.53223 80.4883 4.10352 121.259c-2.57812 -1.91309 -5.17578 -3.78906 -7.7334 -5.72949c-75.9512 -57.5693 -148.016 -133.22 -169.318 -229.124c-9.19434 -41.3984 -4.35938 -99.2275 49.1348 -103.101
c50.7207 -3.67383 78.083 42.3438 95.5029 82.7939c18.2666 42.417 23.9785 88.3057 28.3105 133.901z" />
    <glyph glyph-name="h" unicode="h" horiz-adv-x="509" 
d="M501.378 153.651c7.11914 17.1494 38.9102 7.78809 31.0254 -11.5518c-29.2188 -71.5244 -57.3779 -150.249 -107.252 -210.457c-18.3613 -22.167 -42.4072 -40.8691 -71.5586 -45.2109c-16.7246 -2.49023 -31.0264 -4.54199 -47.2148 2.49902
c-13.6377 5.93457 -26.9248 13.3643 -38.2109 23.041c-59.6143 51.1084 -47.4951 144.432 -39.9912 214.627c2.04102 19.0967 4.41602 37.9971 6.90234 57.0293c2.12891 16.3164 6.39062 32.7578 7.33203 49.1826c0.380859 6.62305 1.99316 16.7852 -7.03516 17.2275
c-5.78613 0.280273 -14.0762 -10.1152 -17.6055 -14.1738c-10.0576 -11.5625 -17.6729 -25.6221 -25.1699 -38.9082c-29.8496 -52.8965 -50.6504 -110.041 -70.0713 -167.442c1.14062 -11.6465 2.40918 -23.2666 3.9541 -34.8223
c4.55176 -34.0469 -51.1523 -50.1377 -69.6416 -23.9326c-16.4346 23.2939 -28.3721 45.0527 -36.2471 72.5303c-7.25781 25.3379 -12.8584 50.8047 -16.2559 76.9287c-6.89648 53.0449 -11.6709 106.377 -11.9209 159.895
c-0.452148 97.1494 9.79102 192.798 49.5869 282.376c17.46 39.3027 44.3203 79.8311 81.8691 102.248c33.0752 19.748 75.4482 24.5967 106.31 -2.17188c30.5576 -26.5059 35.0244 -66.7539 30.7256 -104.731c-5.11523 -45.1807 -19.6094 -88.6543 -35.9902 -130.839
c-31.8262 -81.957 -71.6123 -160.56 -116.287 -236.221c1.87598 -26.8428 4.44727 -53.6152 6.91406 -80.4551c0.401367 -4.3418 0.779297 -8.69434 1.1543 -13.0469c15.9053 43.4092 34.1182 85.9111 57.8779 125.643c13.0703 21.8594 31.0771 49.9844 58.9121 53.4561
c24.6572 3.07715 42.9209 -19.7949 54.0244 -38.8105c38.4365 -65.8291 31.7256 -141.723 39.5293 -214.775c1.85254 -17.3457 5.35449 -34.4014 7.84766 -51.6455c1.58203 -10.959 0.867188 -26.0342 9.02539 -34.7588c2.81055 -3.00293 11.7178 -11.4414 14.6973 -12.1025
c0.492188 -0.111328 11.5449 4.29492 14.4023 5.83984c12.5986 6.81152 22.5078 19.1699 31.2158 30.2529c44.1855 56.251 69.9863 127.847 97.1465 193.281zM122.319 469.671c-12.8076 -75.9346 -18.1914 -149.826 -16.2383 -226.341
c34.0166 60.5928 64.6318 123.068 90.3447 187.669c14.7607 37.0801 28.4316 75.4385 33.8232 115.16c2.79395 20.5977 4.3457 42.4883 -1.58203 62.708c-4.33594 14.7881 -16.3477 35.96 -34.4121 36.6582c-26.3271 1.01172 -39.9912 -49.1621 -46.4492 -67.874
c-12.0752 -34.9883 -19.3457 -71.5723 -25.4863 -107.98z" />
    <glyph glyph-name="i" unicode="i" horiz-adv-x="243" 
d="M241.004 171.928c4.09277 14.6094 31.7734 12.377 27.6543 -3.48438c-15.6885 -60.4844 -38.584 -120.767 -71.1396 -174.301c-13.9883 -23.0039 -31.6885 -47.8096 -56.6289 -59.7334c-24.3662 -11.6504 -53.9756 -12.8545 -76.9619 2.67578
c-53.3154 36.0166 -70.8799 108.017 -75.1787 168.266c-5.17188 72.4727 -2.93164 147.499 7.2041 219.448c3.39453 24.0967 31.2334 37.1543 52.7354 36.9619c19.6738 -0.175781 49.3447 -13.9014 48.7344 -37.958c-1.50488 -59.3516 -9.31543 -118.365 -9.91895 -177.794
c-0.505859 -49.9307 -0.273438 -103.154 13.5703 -151.53c2.49316 -8.70801 6.00879 -16.583 10.7725 -24.168c7.05859 -11.2354 10.3955 -14.1875 22.751 -5.56055c20.25 14.1367 33.8975 38.5713 45.7061 59.6211c26.1445 46.5947 46.29 96.1377 60.7002 147.557z
M33.4932 425.104c-14.4746 18.6719 -25.2695 38.5332 -35.2324 60.3428c-9.60547 21.0264 -25.9688 48.0117 -12.9756 71.1436c15.9248 28.3516 50.002 13.334 63.4131 -7.5166c3.27637 -5.09473 6.09375 -10.4053 8.68848 -15.8203
c6.02637 8.95117 12.832 17.416 20.582 25.1826c11.6396 11.6641 36.752 12.123 43.9482 -5.12109c9.0791 -21.7549 -3.71191 -47.542 -13.2969 -67.2793c-5.2832 -10.874 -11.2656 -21.3936 -16.6807 -32.2002c-5.27637 -10.5264 -8.53906 -23.2021 -15.2666 -32.7197
c-9.51465 -13.4551 -40.6191 -17.6152 -43.1797 3.98828z" />
    <glyph glyph-name="i" unicode="&#xef;" horiz-adv-x="243" 
d="M241.004 171.928c4.09277 14.6094 31.7734 12.377 27.6543 -3.48438c-15.6885 -60.4844 -38.584 -120.767 -71.1396 -174.301c-13.9883 -23.0039 -31.6885 -47.8096 -56.6289 -59.7334c-24.3662 -11.6504 -53.9756 -12.8545 -76.9619 2.67578
c-53.3154 36.0166 -70.8799 108.017 -75.1787 168.266c-5.17188 72.4727 -2.93164 147.499 7.2041 219.448c3.39453 24.0967 31.2334 37.1543 52.7354 36.9619c19.6738 -0.175781 49.3447 -13.9014 48.7344 -37.958c-1.50488 -59.3516 -9.31543 -118.365 -9.91895 -177.794
c-0.505859 -49.9307 -0.273438 -103.154 13.5703 -151.53c2.49316 -8.70801 6.00879 -16.583 10.7725 -24.168c7.05859 -11.2354 10.3955 -14.1875 22.751 -5.56055c20.25 14.1367 33.8975 38.5713 45.7061 59.6211c26.1445 46.5947 46.29 96.1377 60.7002 147.557z
M33.4932 425.104c-14.4746 18.6719 -25.2695 38.5332 -35.2324 60.3428c-9.60547 21.0264 -25.9688 48.0117 -12.9756 71.1436c15.9248 28.3516 50.002 13.334 63.4131 -7.5166c3.27637 -5.09473 6.09375 -10.4053 8.68848 -15.8203
c6.02637 8.95117 12.832 17.416 20.582 25.1826c11.6396 11.6641 36.752 12.123 43.9482 -5.12109c9.0791 -21.7549 -3.71191 -47.542 -13.2969 -67.2793c-5.2832 -10.874 -11.2656 -21.3936 -16.6807 -32.2002c-5.27637 -10.5264 -8.53906 -23.2021 -15.2666 -32.7197
c-9.51465 -13.4551 -40.6191 -17.6152 -43.1797 3.98828z" />
    <glyph glyph-name="i" unicode="&#xee;" horiz-adv-x="243" 
d="M241.004 171.928c4.09277 14.6094 31.7734 12.377 27.6543 -3.48438c-15.6885 -60.4844 -38.584 -120.767 -71.1396 -174.301c-13.9883 -23.0039 -31.6885 -47.8096 -56.6289 -59.7334c-24.3662 -11.6504 -53.9756 -12.8545 -76.9619 2.67578
c-53.3154 36.0166 -70.8799 108.017 -75.1787 168.266c-5.17188 72.4727 -2.93164 147.499 7.2041 219.448c3.39453 24.0967 31.2334 37.1543 52.7354 36.9619c19.6738 -0.175781 49.3447 -13.9014 48.7344 -37.958c-1.50488 -59.3516 -9.31543 -118.365 -9.91895 -177.794
c-0.505859 -49.9307 -0.273438 -103.154 13.5703 -151.53c2.49316 -8.70801 6.00879 -16.583 10.7725 -24.168c7.05859 -11.2354 10.3955 -14.1875 22.751 -5.56055c20.25 14.1367 33.8975 38.5713 45.7061 59.6211c26.1445 46.5947 46.29 96.1377 60.7002 147.557z
M33.4932 425.104c-14.4746 18.6719 -25.2695 38.5332 -35.2324 60.3428c-9.60547 21.0264 -25.9688 48.0117 -12.9756 71.1436c15.9248 28.3516 50.002 13.334 63.4131 -7.5166c3.27637 -5.09473 6.09375 -10.4053 8.68848 -15.8203
c6.02637 8.95117 12.832 17.416 20.582 25.1826c11.6396 11.6641 36.752 12.123 43.9482 -5.12109c9.0791 -21.7549 -3.71191 -47.542 -13.2969 -67.2793c-5.2832 -10.874 -11.2656 -21.3936 -16.6807 -32.2002c-5.27637 -10.5264 -8.53906 -23.2021 -15.2666 -32.7197
c-9.51465 -13.4551 -40.6191 -17.6152 -43.1797 3.98828z" />
    <glyph glyph-name="i" unicode="&#xed;" horiz-adv-x="243" 
d="M241.004 171.928c4.09277 14.6094 31.7734 12.377 27.6543 -3.48438c-15.6885 -60.4844 -38.584 -120.767 -71.1396 -174.301c-13.9883 -23.0039 -31.6885 -47.8096 -56.6289 -59.7334c-24.3662 -11.6504 -53.9756 -12.8545 -76.9619 2.67578
c-53.3154 36.0166 -70.8799 108.017 -75.1787 168.266c-5.17188 72.4727 -2.93164 147.499 7.2041 219.448c3.39453 24.0967 31.2334 37.1543 52.7354 36.9619c19.6738 -0.175781 49.3447 -13.9014 48.7344 -37.958c-1.50488 -59.3516 -9.31543 -118.365 -9.91895 -177.794
c-0.505859 -49.9307 -0.273438 -103.154 13.5703 -151.53c2.49316 -8.70801 6.00879 -16.583 10.7725 -24.168c7.05859 -11.2354 10.3955 -14.1875 22.751 -5.56055c20.25 14.1367 33.8975 38.5713 45.7061 59.6211c26.1445 46.5947 46.29 96.1377 60.7002 147.557z
M33.4932 425.104c-14.4746 18.6719 -25.2695 38.5332 -35.2324 60.3428c-9.60547 21.0264 -25.9688 48.0117 -12.9756 71.1436c15.9248 28.3516 50.002 13.334 63.4131 -7.5166c3.27637 -5.09473 6.09375 -10.4053 8.68848 -15.8203
c6.02637 8.95117 12.832 17.416 20.582 25.1826c11.6396 11.6641 36.752 12.123 43.9482 -5.12109c9.0791 -21.7549 -3.71191 -47.542 -13.2969 -67.2793c-5.2832 -10.874 -11.2656 -21.3936 -16.6807 -32.2002c-5.27637 -10.5264 -8.53906 -23.2021 -15.2666 -32.7197
c-9.51465 -13.4551 -40.6191 -17.6152 -43.1797 3.98828z" />
    <glyph glyph-name="j" unicode="j" horiz-adv-x="207" 
d="M208.104 179.533c4.14648 14.626 31.958 12.2646 27.666 -3.49512c-13.4453 -49.3105 -56.1465 -79.0957 -96.3711 -106.267c-9.23438 -6.23828 -18.5264 -12.4062 -27.8252 -18.5566c-0.384766 -38.7393 -2.37891 -77.4482 -6.21484 -116.141
c-10.3848 -104.748 -46.9785 -217.138 -132.464 -284.748c-36.7793 -29.0898 -82.6074 -51.9111 -129.84 -34.3867c-46.1484 17.123 -59.1621 65.4854 -53.8213 110.241c12.2344 102.518 88.2295 187.845 165.773 249.43c15.25 12.1123 30.9521 23.5977 46.8945 34.752
c-1.14355 54.1084 -3.09375 107.923 -8.94727 161.798c-6.07324 55.8965 -17.2988 111.429 -22.0156 167.402c-2.14551 25.4629 18.5303 44.3203 41.6152 49.4453c21.3066 4.73047 53.9561 -2.39844 62.0059 -26.3535c22.9395 -68.2549 30.335 -142.685 34.6133 -214.229
c1.31543 -21.998 2.06152 -43.9824 2.34473 -65.9531c38.8076 24.3467 83.7754 51.9014 96.5859 97.0615zM-1.65723 -144.643c3.85352 40.5449 4.53223 80.4883 4.10352 121.259c-2.57812 -1.91309 -5.17578 -3.78906 -7.7334 -5.72949
c-75.9512 -57.5693 -148.016 -133.22 -169.318 -229.124c-9.19434 -41.3984 -4.35938 -99.2275 49.1348 -103.101c50.7207 -3.67383 78.083 42.3438 95.5029 82.7939c18.2666 42.417 23.9785 88.3057 28.3105 133.901zM0.199219 438.112
c-25.3818 26.2295 -51.957 52.8936 -72.8447 82.9619c-11.3936 16.4043 -35.0791 56.1123 -9.17773 71.0859c24.623 14.2344 48.8779 -13.5605 60.457 -32.0527c6.66699 -10.6445 11.7578 -22.1465 16.832 -33.6416c4.16699 11.9941 9.56152 23.5469 16.417 34.2051
c10.6484 16.5488 32.9229 43.3652 56.0645 34.0967c26.6377 -10.668 7.19336 -47.3525 0.806641 -64.833c-10.2168 -27.9668 -22.1641 -55.1709 -35.7715 -81.6533c-1.89941 -3.69434 -4.94922 -6.12012 -8.45801 -7.46289
c-4.23047 -6.99121 -17.3145 -9.9502 -24.3252 -2.70605z" />
    <glyph glyph-name="k" unicode="k" horiz-adv-x="388" 
d="M384.753 165.362c6.80176 15.9111 36.3174 7.20801 28.8779 -10.7549c-16.623 -40.0762 -37.7812 -77.5273 -63.0586 -112.771c-21.1846 -29.5391 -45.7607 -57.9307 -83.9912 -62.9277c-46.1182 -6.02539 -77.2939 18.665 -96.4609 59.1865
c-12.2168 25.8311 -14.5146 57.4248 -25.4297 84.2979c-10.1152 -33.1357 -16.5293 -67.6846 -21.3301 -101.11c0.927734 -8.89062 1.94629 -17.7637 3.12695 -26.5967c4.55176 -34.0469 -51.1523 -50.1377 -69.6416 -23.9326
c-16.4346 23.2939 -28.3721 45.0527 -36.2471 72.5303c-7.26074 25.3379 -12.8613 50.8047 -16.2588 76.9287c-6.89648 53.0449 -11.6709 106.377 -11.9209 159.895c-0.452148 97.1494 9.79102 192.798 49.5869 282.376c17.46 39.3027 44.3203 79.8311 81.8691 102.248
c33.0752 19.748 75.4482 24.5967 106.31 -2.17188c30.5576 -26.5059 35.0244 -66.7539 30.7256 -104.731c-5.11133 -45.1807 -19.6094 -88.6543 -35.9902 -130.839c-31.8262 -81.957 -71.6152 -160.56 -116.286 -236.221
c1.71777 -24.5352 4.00879 -49.0127 6.27637 -73.5342c4.78125 16.6406 10.3613 33.0615 16.9336 49.1855c17.8418 43.7773 44.1855 88.9238 86.6904 112.737c17.5342 9.8252 39.9375 16.3096 57.7725 3.25586c19.2783 -14.1162 11.9805 -35.4297 0.353516 -51.6924
c-13.6748 -19.1338 -31.0645 -35.5654 -50.7246 -48.4609c-12.5576 -8.23926 -26.8867 -16.5557 -41.709 -22.1602c19.751 -13.6377 32.3154 -35.6221 41.1387 -58.9492c5.83984 -15.4492 10.9209 -31.2764 18.7051 -45.8926
c3.82617 -7.18359 8.38086 -13.8945 12.1934 -21.0742c2.62793 -4.94629 5.24902 -13.7188 9.5 -17.4404c19.9473 -17.4668 60.1445 43.5479 68.623 56.0049c19.8389 29.1514 36.5127 60.2051 50.3662 92.6152zM122.32 469.668
c-12.8076 -75.9346 -18.1924 -149.823 -16.2393 -226.341c34.0166 60.5928 64.6289 123.068 90.3447 187.669c14.7578 37.0801 28.4326 75.4385 33.8242 115.16c2.79395 20.5977 4.3457 42.4883 -1.58203 62.708c-4.33594 14.7881 -16.3477 35.96 -34.4121 36.6582
c-26.3271 1.01172 -39.9912 -49.1621 -46.4492 -67.874c-12.0752 -34.9883 -19.3457 -71.5723 -25.4863 -107.98zM193.281 221.568c-7.0918 -9.22754 -13.3955 -19.0127 -19.1582 -29.1377c9.36621 2.46289 18.5801 5.25684 27.5957 10.1562
c15.9619 8.6748 30.4062 19.8291 42.7451 33.1631c5.52344 5.96484 14.0088 13.1855 13.5225 21.8027c-0.80957 14.3701 -20.1191 3.36133 -27.0488 -0.90625c-14.7441 -9.0791 -27.1367 -21.3936 -37.6562 -35.0781z" />
    <glyph glyph-name="l" unicode="l" horiz-adv-x="216" 
d="M177.679 -120.118c16.9775 -5.6377 5.56543 -26.4121 -9.07422 -24.4316c-4.45703 0.607422 -8.76172 1.50195 -13.0537 2.6123c-50.9229 -5.91113 -90.6309 60.7344 -107.42 100.196c-42.4209 99.707 -55.2051 209.742 -54.9854 317.227
c0.225586 111.01 8.1582 224.776 28.291 334.001c4.4502 24.1572 30.6055 37.3359 52.9785 37.1338c19.3096 -0.171875 50.1475 -14.0117 48.96 -38.1318c-6.49121 -131.959 -29.2383 -262.075 -24.417 -394.691c2.36816 -65.1338 8.48828 -129.853 21.2451 -193.836
c5.48633 -27.5283 13.2158 -55.002 22.7812 -81.3994c4.44043 -12.2441 9.11328 -24.5586 15.7598 -35.7969c4.49414 -7.60156 8.98535 -13.2393 12.2578 -20.4531c2.17969 -0.931641 4.38965 -1.77832 6.67676 -2.42969z" />
    <glyph glyph-name="m" unicode="m" horiz-adv-x="595" 
d="M591.891 149.414c6.42773 14.3701 33.54 6.40137 26.2891 -9.78711c-21.6709 -48.4639 -44.2695 -97.2373 -88.0771 -129.819c-41.1113 -30.5811 -100.027 -34.0156 -141.985 -1.90527c-45.0225 34.4512 -54.5469 96.1641 -55.6396 149.517
c-0.570312 27.8213 -0.739258 55.6094 -1.91016 83.4072c-0.573242 13.5635 0.199219 27.5928 -2.75 40.96c-3.17871 14.4131 -12.541 -0.59082 -17.123 -7.52051c-25.2539 -38.207 -40.7676 -82.082 -58.9434 -124.104
c0.658203 -7.15918 1.20508 -14.2988 1.59961 -21.3975c2.75684 -49.4043 -83.498 -58.7539 -88.3936 -9.28809c-3.55566 35.9326 -2.68555 72.4053 -2.36816 108.456c0.162109 18.5234 1.38672 37.0264 2.50684 55.5156c0.206055 3.43848 0.975586 8.70898 1.56934 14.418
c-1.04297 -2.4668 -1.99805 -4.81543 -2.875 -6.88672c-4.88184 -11.5254 -8.7959 -23.4756 -12.6318 -35.3857c-7.97559 -24.7754 -14.6934 -49.9346 -21.2764 -75.1074c-12.4199 -47.5049 -24.8086 -94.9629 -37.6738 -142.337
c0.317383 -22.0791 1.12012 -45.8281 -12.9795 -63.4971c-7.04102 -8.83008 -23.7285 -11.7549 -33.6416 -7.31152c-25.9053 11.6133 -34.2148 38.7471 -41.1182 64.376c-6.63965 24.6641 -11.8154 49.1455 -15.5508 74.4268
c-7.50684 50.832 -9.01855 104.693 -3.61328 155.775c2.63477 24.8896 32.8926 38.3516 54.4424 38.1592c20.4463 -0.182617 50.7744 -14.3398 50.3125 -39.1855c-0.651367 -34.9443 -1.43457 -69.6045 -1.21484 -104.403c2.30762 9.43066 4.6084 18.8643 6.9873 28.2949
c11.6572 46.1797 21.3604 99.4307 46.8271 140.4c9.55859 15.3789 26.8906 34.3877 46.6689 22.083c8.23242 -5.12207 12.1631 -16.4824 16.7715 -24.3906c6.18457 -10.6113 11.3535 -21.9307 15.5039 -33.4863c8.86719 -24.6836 15.8711 -50.5986 21.1074 -76.8916
c1.04883 2.32812 2.09473 4.65918 3.14355 6.98047c12.123 26.873 23.8916 55.7402 42.3506 79.0176c13.1074 16.5293 34.3057 26.9277 54.6406 16.7148c20.4766 -10.2842 36.0469 -32.4609 46.4424 -52.0977c25.9082 -48.9561 16.7109 -107.788 30.875 -159.828
c6.20508 -22.8076 17.7373 -44.9775 29.6611 -65.252c14.7441 -25.0684 38.0645 -17.9492 59.2432 -3.60645c39.374 26.6641 63.8789 72.627 82.8232 114.987z" />
    <glyph glyph-name="n" unicode="n" horiz-adv-x="484" 
d="M478.652 144.046c7.41211 15.0547 35.7217 6.82715 28.0059 -10.4209c-26.5459 -59.3711 -61.1152 -120.217 -124.799 -145.434c-26.4893 -10.4893 -60.9883 -20.5234 -89.6504 -18.2227c-34.7988 2.79395 -59.4824 29.5498 -71.666 60.4111
c-23.7188 60.0801 -26.7891 129.675 -26.6475 193.348c0.0371094 16.2793 0.688477 32.5518 0.5 48.8379c-0.0166016 1.47754 -0.417969 3.88672 -0.508789 5.97852c-3.04688 -3.97461 -7.13574 -8.17871 -8.93066 -11.084
c-16.6572 -26.9717 -27.8652 -57.1689 -38.6143 -86.8564c-18.9414 -52.3096 -33.2168 -106.205 -50.7109 -158.916c0.597656 -20.6895 -0.765625 -41.6758 -9.28809 -58.0596c-10.4521 -20.0957 -38.4189 -19.667 -53.1025 -5.58105
c-22.6963 21.7725 -28.2363 64.3926 -33.4023 94.3936c-5.31055 30.8613 -8.78906 61.9688 -10.4697 93.2285c-1.67676 31.1953 -2.22656 62.4512 -1.62891 93.6875c0.651367 34.168 1.71387 69.0244 12.1963 101.731c7.04785 21.9814 25.8779 34.0059 48.5918 34.0566
c20.4492 0.046875 42.5557 -12.9258 44.9043 -34.9746c3.59961 -33.834 -0.432617 -67.9277 -2.05566 -101.833c-1.35938 -28.4023 -1.62598 -56.8818 -1.04883 -85.3076c0.199219 -9.89258 0.449219 -19.7852 0.71875 -29.6777
c8.5459 27.0088 17.5439 53.8623 27.4629 80.4121c10.874 29.1006 48.6729 143.174 97.5889 109.56c10.5439 -7.24707 19.127 -22.6592 25.7598 -33.4121c7.97266 -12.9287 13.6582 -27.0049 18.2168 -41.4453c10.1426 -32.1299 18.4355 -64.5098 24.9238 -97.5508
c5.61719 -28.6143 11.2285 -58.7129 22.5215 -85.7588c7.94238 -19.0127 24.9365 -39.4053 47.9873 -37.7754c62.4111 4.41699 99.373 78.377 123.146 126.665z" />
    <glyph glyph-name="o" unicode="o" horiz-adv-x="346" 
d="M348.217 175.346c12.5342 10.5605 38.043 -3.39746 23.3828 -15.9893c-43.3389 -37.2246 -95.4229 -60.2686 -151.562 -70.1748c-3.64355 -0.644531 -7.32812 -1.23145 -11.0332 -1.77832c-1.92676 -6.85938 -4.05566 -13.6514 -6.40723 -20.3486
c-16.7549 -47.6904 -45.2783 -96.1572 -94.2715 -115.426c-24.2617 -9.54199 -50.3115 -10.3818 -72.4209 5.35449c-24.0762 17.1367 -33.8906 44.8027 -35.2266 73.4717c-1.67383 35.8682 6.82227 73.2412 20.5137 108.067
c-53.0957 63.6533 -50.7305 173.826 13.6748 229.122c37.5391 32.2314 90.7568 35.0215 129.196 2.85059c40.1904 -33.6318 52.084 -90.3984 56.8516 -140.134c3.63379 -37.9365 2.11914 -77.1484 -5.2666 -114.947c48.75 8.28613 95.8643 28.999 132.569 59.9316z
M139.27 17.1719c14.4707 20.0918 25.2637 42.75 32.9326 66.7559c-26.998 -1.09668 -54.3506 1.25195 -79.8574 9.03613c-7.21387 -18.2197 -13.2432 -36.9346 -16.4082 -57.1074c-2.44922 -15.625 -3.44434 -41.3379 11.7051 -51.7402
c17.9629 -12.335 42.7881 20.7842 51.6279 33.0557zM179.592 111.602c10.8477 50.252 9.59961 104.193 0.418945 151.925c-7.0752 36.7959 -21.8633 81.5479 -60.1514 96.4873c-40.8115 15.9248 -75.293 -21.4688 -89.0684 -55.9707
c-17.5576 -43.9766 -14.4229 -92.2744 6.87695 -129.337c3.90039 7.55078 7.96289 14.9131 12.1738 21.9814c22.9463 38.5303 93.9414 19.5352 75.1689 -27.9834c-6.55859 -16.5928 -13.9678 -32.5312 -21.083 -48.4863c6.34277 -2.14551 12.9795 -3.90625 19.9834 -5.12793
c18.1553 -3.16797 36.8809 -4.27148 55.6807 -3.48828z" />
    <glyph glyph-name="o" unicode="&#xf6;" horiz-adv-x="346" 
d="M348.217 175.346c12.5342 10.5605 38.043 -3.39746 23.3828 -15.9893c-43.3389 -37.2246 -95.4229 -60.2686 -151.562 -70.1748c-3.64355 -0.644531 -7.32812 -1.23145 -11.0332 -1.77832c-1.92676 -6.85938 -4.05566 -13.6514 -6.40723 -20.3486
c-16.7549 -47.6904 -45.2783 -96.1572 -94.2715 -115.426c-24.2617 -9.54199 -50.3115 -10.3818 -72.4209 5.35449c-24.0762 17.1367 -33.8906 44.8027 -35.2266 73.4717c-1.67383 35.8682 6.82227 73.2412 20.5137 108.067
c-53.0957 63.6533 -50.7305 173.826 13.6748 229.122c37.5391 32.2314 90.7568 35.0215 129.196 2.85059c40.1904 -33.6318 52.084 -90.3984 56.8516 -140.134c3.63379 -37.9365 2.11914 -77.1484 -5.2666 -114.947c48.75 8.28613 95.8643 28.999 132.569 59.9316z
M139.27 17.1719c14.4707 20.0918 25.2637 42.75 32.9326 66.7559c-26.998 -1.09668 -54.3506 1.25195 -79.8574 9.03613c-7.21387 -18.2197 -13.2432 -36.9346 -16.4082 -57.1074c-2.44922 -15.625 -3.44434 -41.3379 11.7051 -51.7402
c17.9629 -12.335 42.7881 20.7842 51.6279 33.0557zM179.592 111.602c10.8477 50.252 9.59961 104.193 0.418945 151.925c-7.0752 36.7959 -21.8633 81.5479 -60.1514 96.4873c-40.8115 15.9248 -75.293 -21.4688 -89.0684 -55.9707
c-17.5576 -43.9766 -14.4229 -92.2744 6.87695 -129.337c3.90039 7.55078 7.96289 14.9131 12.1738 21.9814c22.9463 38.5303 93.9414 19.5352 75.1689 -27.9834c-6.55859 -16.5928 -13.9678 -32.5312 -21.083 -48.4863c6.34277 -2.14551 12.9795 -3.90625 19.9834 -5.12793
c18.1553 -3.16797 36.8809 -4.27148 55.6807 -3.48828z" />
    <glyph glyph-name="o" unicode="&#xf5;" horiz-adv-x="346" 
d="M348.217 175.346c12.5342 10.5605 38.043 -3.39746 23.3828 -15.9893c-43.3389 -37.2246 -95.4229 -60.2686 -151.562 -70.1748c-3.64355 -0.644531 -7.32812 -1.23145 -11.0332 -1.77832c-1.92676 -6.85938 -4.05566 -13.6514 -6.40723 -20.3486
c-16.7549 -47.6904 -45.2783 -96.1572 -94.2715 -115.426c-24.2617 -9.54199 -50.3115 -10.3818 -72.4209 5.35449c-24.0762 17.1367 -33.8906 44.8027 -35.2266 73.4717c-1.67383 35.8682 6.82227 73.2412 20.5137 108.067
c-53.0957 63.6533 -50.7305 173.826 13.6748 229.122c37.5391 32.2314 90.7568 35.0215 129.196 2.85059c40.1904 -33.6318 52.084 -90.3984 56.8516 -140.134c3.63379 -37.9365 2.11914 -77.1484 -5.2666 -114.947c48.75 8.28613 95.8643 28.999 132.569 59.9316z
M139.27 17.1719c14.4707 20.0918 25.2637 42.75 32.9326 66.7559c-26.998 -1.09668 -54.3506 1.25195 -79.8574 9.03613c-7.21387 -18.2197 -13.2432 -36.9346 -16.4082 -57.1074c-2.44922 -15.625 -3.44434 -41.3379 11.7051 -51.7402
c17.9629 -12.335 42.7881 20.7842 51.6279 33.0557zM179.592 111.602c10.8477 50.252 9.59961 104.193 0.418945 151.925c-7.0752 36.7959 -21.8633 81.5479 -60.1514 96.4873c-40.8115 15.9248 -75.293 -21.4688 -89.0684 -55.9707
c-17.5576 -43.9766 -14.4229 -92.2744 6.87695 -129.337c3.90039 7.55078 7.96289 14.9131 12.1738 21.9814c22.9463 38.5303 93.9414 19.5352 75.1689 -27.9834c-6.55859 -16.5928 -13.9678 -32.5312 -21.083 -48.4863c6.34277 -2.14551 12.9795 -3.90625 19.9834 -5.12793
c18.1553 -3.16797 36.8809 -4.27148 55.6807 -3.48828z" />
    <glyph glyph-name="o" unicode="&#xf4;" horiz-adv-x="346" 
d="M348.217 175.346c12.5342 10.5605 38.043 -3.39746 23.3828 -15.9893c-43.3389 -37.2246 -95.4229 -60.2686 -151.562 -70.1748c-3.64355 -0.644531 -7.32812 -1.23145 -11.0332 -1.77832c-1.92676 -6.85938 -4.05566 -13.6514 -6.40723 -20.3486
c-16.7549 -47.6904 -45.2783 -96.1572 -94.2715 -115.426c-24.2617 -9.54199 -50.3115 -10.3818 -72.4209 5.35449c-24.0762 17.1367 -33.8906 44.8027 -35.2266 73.4717c-1.67383 35.8682 6.82227 73.2412 20.5137 108.067
c-53.0957 63.6533 -50.7305 173.826 13.6748 229.122c37.5391 32.2314 90.7568 35.0215 129.196 2.85059c40.1904 -33.6318 52.084 -90.3984 56.8516 -140.134c3.63379 -37.9365 2.11914 -77.1484 -5.2666 -114.947c48.75 8.28613 95.8643 28.999 132.569 59.9316z
M139.27 17.1719c14.4707 20.0918 25.2637 42.75 32.9326 66.7559c-26.998 -1.09668 -54.3506 1.25195 -79.8574 9.03613c-7.21387 -18.2197 -13.2432 -36.9346 -16.4082 -57.1074c-2.44922 -15.625 -3.44434 -41.3379 11.7051 -51.7402
c17.9629 -12.335 42.7881 20.7842 51.6279 33.0557zM179.592 111.602c10.8477 50.252 9.59961 104.193 0.418945 151.925c-7.0752 36.7959 -21.8633 81.5479 -60.1514 96.4873c-40.8115 15.9248 -75.293 -21.4688 -89.0684 -55.9707
c-17.5576 -43.9766 -14.4229 -92.2744 6.87695 -129.337c3.90039 7.55078 7.96289 14.9131 12.1738 21.9814c22.9463 38.5303 93.9414 19.5352 75.1689 -27.9834c-6.55859 -16.5928 -13.9678 -32.5312 -21.083 -48.4863c6.34277 -2.14551 12.9795 -3.90625 19.9834 -5.12793
c18.1553 -3.16797 36.8809 -4.27148 55.6807 -3.48828z" />
    <glyph glyph-name="o" unicode="&#xf3;" horiz-adv-x="346" 
d="M348.217 175.346c12.5342 10.5605 38.043 -3.39746 23.3828 -15.9893c-43.3389 -37.2246 -95.4229 -60.2686 -151.562 -70.1748c-3.64355 -0.644531 -7.32812 -1.23145 -11.0332 -1.77832c-1.92676 -6.85938 -4.05566 -13.6514 -6.40723 -20.3486
c-16.7549 -47.6904 -45.2783 -96.1572 -94.2715 -115.426c-24.2617 -9.54199 -50.3115 -10.3818 -72.4209 5.35449c-24.0762 17.1367 -33.8906 44.8027 -35.2266 73.4717c-1.67383 35.8682 6.82227 73.2412 20.5137 108.067
c-53.0957 63.6533 -50.7305 173.826 13.6748 229.122c37.5391 32.2314 90.7568 35.0215 129.196 2.85059c40.1904 -33.6318 52.084 -90.3984 56.8516 -140.134c3.63379 -37.9365 2.11914 -77.1484 -5.2666 -114.947c48.75 8.28613 95.8643 28.999 132.569 59.9316z
M139.27 17.1719c14.4707 20.0918 25.2637 42.75 32.9326 66.7559c-26.998 -1.09668 -54.3506 1.25195 -79.8574 9.03613c-7.21387 -18.2197 -13.2432 -36.9346 -16.4082 -57.1074c-2.44922 -15.625 -3.44434 -41.3379 11.7051 -51.7402
c17.9629 -12.335 42.7881 20.7842 51.6279 33.0557zM179.592 111.602c10.8477 50.252 9.59961 104.193 0.418945 151.925c-7.0752 36.7959 -21.8633 81.5479 -60.1514 96.4873c-40.8115 15.9248 -75.293 -21.4688 -89.0684 -55.9707
c-17.5576 -43.9766 -14.4229 -92.2744 6.87695 -129.337c3.90039 7.55078 7.96289 14.9131 12.1738 21.9814c22.9463 38.5303 93.9414 19.5352 75.1689 -27.9834c-6.55859 -16.5928 -13.9678 -32.5312 -21.083 -48.4863c6.34277 -2.14551 12.9795 -3.90625 19.9834 -5.12793
c18.1553 -3.16797 36.8809 -4.27148 55.6807 -3.48828z" />
    <glyph glyph-name="p" unicode="p" horiz-adv-x="384" 
d="M396.241 175.251c19.6436 0.974609 22.0166 -22.9404 2.75488 -26.21c-28.5703 -4.83496 -57.2021 -8.86719 -85.7793 -13.3213c-1.79199 -9.05566 -3.98828 -18.0605 -6.64648 -26.9746c-15.75 -52.7988 -41.3379 -112.592 -103.783 -119.6
c-24.7988 -2.7832 -51.041 9.4541 -66.2744 27.9834c-15.5029 18.8633 -14.8115 44.2188 -6.18457 65.7988c16.4512 41.1387 54.084 57.1377 93.9639 66.2744c4.77051 16.3398 8.46875 33 11.1748 49.5693c4.59863 28.1318 8.44824 57.2188 2.71973 85.5225
c-1.76758 8.72461 -5.99512 32.5654 -17.0215 33.3047c-14.7275 0.988281 -26.5635 -18.9414 -32.707 -29.4678c-32.376 -55.4707 -50.5713 -119.235 -65.7207 -181.238c-18.999 -77.7695 -30.3047 -156.993 -38.6758 -236.564
c0.0712891 -11.9268 0.152344 -23.8574 0.253906 -35.791c0.452148 -53.626 0.776367 -108.824 12.4873 -161.34c3.87305 -17.3662 -14.6602 -30.9834 -28.9287 -34.3711c-15.2402 -3.62012 -36.9453 1.9707 -43.1025 18.3213
c-20.085 53.3389 -32.8516 107.262 -38.8438 163.903c-5.89453 55.7246 -6.50488 112.967 -6.15723 168.961c0.725586 116.796 3.79297 236.46 25.3828 351.498c4.35547 23.2227 29.1172 35.376 50.5381 35.4229c18.5029 0.0439453 47.7412 -13.5127 46.7051 -36.3779
c-3.90332 -86.252 -11.4707 -172.173 -15.5098 -258.367c0.256836 1.21484 0.489258 2.43262 0.749023 3.64746c10.874 50.9941 24.4141 101.722 42.9707 150.492c14.6865 38.6045 35.5244 99.4775 82.3955 108.064c48.3955 8.86719 82.7461 -36.4277 94.7744 -77.4756
c9.5957 -32.751 12.7236 -66.6123 9.84863 -100.146c26.165 4.06543 52.4443 7.18262 78.6162 8.48145zM171.534 58.124c-3.81934 -1.54492 -11.418 -5.49805 0.239258 -0.0292969c-0.0810547 0.00976562 -0.158203 0.0195312 -0.239258 0.0292969zM206.597 101.457
c2.20703 4.79395 4.25586 9.68164 6.22949 14.6113c-10.2402 -3.3877 -19.7646 -8.23926 -26.8838 -16.1816c-6.67676 -7.44629 -9.65625 -17.5986 -8.86035 -27.542c0.280273 -3.50879 0.97168 -7.27441 2.48633 -10.5508
c0.405273 0.195312 0.792969 0.37793 1.22168 0.583984c0.826172 0.394531 1.41016 0.640625 1.87891 0.816406c0.368164 0.492188 0.948242 1.18359 1.85547 2.15234c9.48438 10.1318 15.5977 22.0381 22.0723 36.1104z" />
    <glyph glyph-name="q" unicode="q" horiz-adv-x="424" 
d="M355.788 38.127c-12.2275 -15.0244 -35.9941 -35.4365 -37.458 -55.9775c-0.80957 -11.333 6.79199 -22.6328 11.9775 -32.1748c5.97168 -10.9824 12.1191 -21.8672 18.0645 -32.8662c19.0664 -35.2715 36.4697 -72.1895 42.0605 -112.299
c4.54102 -32.5859 2.87793 -79.9902 -22.6123 -104.667c-12.1162 -11.7246 -27.7109 -13.4688 -43.7168 -14.4131c-20.2002 -1.19141 -37.542 7.63184 -51.3652 21.8936c-27.0596 27.9131 -41.9248 72.1152 -53.1367 108.51
c-22.3594 72.5801 -29.3906 147.812 -29.4307 223.355c-11.043 -19.6162 -25.3994 -35.5713 -43.8652 -50.835c-28.0879 -23.2197 -68.3994 -19.8125 -98.3164 -1.63379c-64.6582 39.29 -76.0049 120.814 -70.5557 189.714c5.1084 64.5879 35.8584 148.144 104.315 168.907
c33.1221 10.0479 67.4014 5.5332 95.0742 -15.9453c9.28516 -7.20703 17.0654 -15.3486 23.834 -24.165c0.229492 0.25293 0.461914 0.509766 0.711914 0.746094c1.48145 13.1484 3.43457 26.2324 6.13672 39.2051c10.1963 48.9561 99.5215 52.4004 104.282 -1.02246
c4.35254 -48.8516 -1.45703 -98.0811 -4.02441 -146.956c-2.28125 -43.3857 -3.70508 -86.7852 -5.12598 -130.201c-0.50293 -15.3584 -0.931641 -30.7334 -1.23535 -46.1182c2.28418 3.00586 4.64258 5.94824 6.98047 8.84668c11.9473 14.8018 24.168 29.3906 36.25 44.084
c26.3164 32.0049 51.9951 64.6309 79.9346 95.2363c9.3457 10.2402 35.5713 0.688477 25.4795 -13.1279c-29.6973 -40.6562 -62.4824 -79.0488 -94.2588 -118.096zM185.491 129.184c6.72461 36.2363 9.79883 73.4521 11.1113 110.589
c-10.5742 22.5752 -27.208 59.79 -54.5166 61.916c-8.25977 0.644531 -12.7139 -3.85645 -17.6904 -9.78125c-8.09082 -9.63281 -14.6396 -18.3916 -21.1045 -29.1035c-22.9932 -38.0986 -34.127 -80.1416 -32.9053 -124.867
c0.614258 -22.5586 2.56738 -47.0469 11.0156 -68.168c6.66016 -16.6602 16.0635 -37.0898 32.8691 -45.8887c43.9189 -23.0039 66.2412 78.4639 71.2207 105.304zM321.537 -105.292c-6.42383 12.4131 -13.29 24.5947 -19.9531 36.8857
c0.863281 -29.9502 2.6748 -59.8604 5.94043 -89.6523c3.70508 -33.7871 8.28027 -70.084 19.5967 -102.251c1.42383 -4.04492 6.35645 -20.6143 11.4209 -21.876c2.50391 -0.624023 8.29395 10.75 10.291 15.7197c6.63672 16.5186 8.5459 35.1191 7.61426 52.7617
c-2.04492 38.7158 -17.3184 74.416 -34.9102 108.412z" />
    <glyph glyph-name="r" unicode="r" horiz-adv-x="398" 
d="M395.653 163.645c5.06445 14.1133 32.8945 11.9219 27.665 -3.49023c-20.0078 -58.9395 -41.1123 -117.542 -63.8125 -175.5c-18.7656 -47.9072 -37.8457 -106.597 -76.5107 -142.604c-15.5166 -14.4502 -38.6455 -24.8926 -60.0098 -24.2412
c-25.5176 0.779297 -48.541 17.7363 -62.7188 38.25c-31.5156 45.6055 -44.7988 102.966 -47.5957 157.671c-2.47656 48.4463 -0.711914 97.2744 4.52734 145.516c-13.5225 -6.13086 -27.5342 -11.1787 -41.9443 -14.9951
c-36.6748 -9.70703 -73.498 7.94922 -91.9873 40.4365c-26.7422 46.9854 -26.8838 116.557 0.0839844 163.613c24.9033 43.4531 82.7266 88.2461 135.822 75.793c58.2949 -13.6748 49.5898 -83.3809 34.3164 -127.263
c-15.2334 -43.7705 -44.1211 -81.5352 -82.1523 -107.636c2.42969 -1.66016 5.04102 -3.22559 7.87891 -4.67285c10.8643 -5.54688 16.2656 -4.4873 28.1348 -0.299805c5.41504 1.91309 10.6377 4.24121 15.7529 6.80176c9.16699 18.5098 33.5645 28.416 52.7012 28.2441
c20.915 -0.188477 52.583 -14.8047 51.8877 -40.4131c-1.58594 -58.5107 -6.69727 -113.61 -4.79785 -171.956c0.924805 -28.3145 3.1416 -56.5742 6.58984 -84.6992c1.65625 -13.5059 3.19434 -27.0117 5.72852 -40.3857
c1.54883 -8.17871 3.58984 -20.0791 10.7734 -25.7812c1.40723 -0.924805 1.75488 -1.65723 1.12402 -2.20703c2.50684 1.10645 4.85156 2.47266 6.95312 4.22363c5.43164 3.9541 9.92871 9.06934 14.1865 14.2314c9.43652 11.4414 16.9229 24.4307 23.8496 37.4941
c14.1572 26.6943 26.1992 54.5264 37.7451 82.4326c23.4014 56.5576 45.1299 113.83 65.8086 171.437zM53.9619 207.612c37.6934 26.0469 65.3398 64.9922 76.6455 109.741c5.27734 20.8945 13.5234 58.582 -6.35938 74.3447
c-22.71 18.0068 -45.1533 -10.1084 -54.2803 -28.4834c-20.1523 -40.5713 -34.1445 -84.0312 -25.2578 -129.562c1.93652 -9.93262 4.85547 -18.5771 9.25195 -26.04z" />
    <glyph glyph-name="s" unicode="s" horiz-adv-x="350" 
d="M358.613 194.739c13.8838 7.18652 32.4385 -9.91113 16.2979 -19.0645c-70.748 -40.1162 -139.088 -93.2119 -194.512 -155.407c22.8682 -44.0371 41.3037 -89.6934 45.626 -139.992c4.09961 -47.7344 -8.78516 -100.584 -47.7852 -131.611
c-31 -24.6641 -78.5898 -24.5928 -107.677 3.06055c-62.4521 59.3711 -13.2432 155.613 32.2881 219.887c-13.8906 24.6504 -28.9453 48.7139 -43.6182 72.6826c-49.9883 81.6396 -106.138 191.175 -58.8252 286.731c18.7119 37.792 60.3936 66.9492 102.47 70.7754
c36.709 3.33691 76.4199 -16.7715 88.4482 -52.9297c6.54199 -19.6631 -26.3877 -29.8018 -33.4326 -11.6328c-7.89844 20.3613 -29.2861 33.7324 -51.3721 29.876c-21.1211 -3.6875 -33.709 -25.1562 -38.3418 -44.3809
c-13.0469 -54.1523 10.1357 -109.512 32.9131 -157.79c18.7393 -39.7178 42.5557 -78.0459 64.4258 -117.177c55.667 59.1084 121.614 109.971 193.095 146.973zM159.372 -225.522c13.0977 17.1738 3.06543 48.292 -2.46484 66.6396
c-7.40918 24.5898 -14.5615 48.2441 -24.7041 72.0068c-3.87695 9.08301 -8.125 18.0068 -12.5352 26.8633c-22.9189 -35.791 -45.9297 -79.3018 -43.1055 -121.217c1.43066 -21.2354 10.9688 -45.2002 31.3643 -54.8359c15.8135 -7.46973 40.3721 -3.98145 51.4453 10.543z
" />
    <glyph glyph-name="t" unicode="t" horiz-adv-x="226" 
d="M178.276 -120.118c16.9775 -5.6377 5.56738 -26.4111 -9.06836 -24.4307c-4.45703 0.607422 -8.76172 1.50195 -13.0537 2.6123c-50.9199 -5.91113 -90.6309 60.7344 -107.42 100.196c-42.4209 99.707 -55.2051 209.742 -54.9854 317.227
c0.114258 57.0127 2.28418 114.748 7.0752 172.227c-18.5234 -2.97949 -37.084 -4.90625 -54.9756 -1.98145c-18.3311 2.99902 -11.9473 26.8867 5.11523 24.1299c17.6152 -2.84766 34.9033 1.37988 52.2627 4.28516c4.45703 45.5381 10.6074 90.8203 18.8125 135.343
c4.4502 24.1572 30.6055 37.3359 52.9785 37.1338c19.3096 -0.171875 50.1475 -14.0117 48.96 -38.1318c-2.05469 -41.7598 -5.73926 -83.3301 -9.66016 -124.856c20.1895 0.236328 40.3926 -0.266602 60.5586 -1.4707c18.9209 -1.12988 12.1084 -25.5947 -5.2002 -24.5322
c-19.2383 1.18457 -38.4766 1.64648 -57.7012 1.38379c-7.77734 -81.4707 -15.4131 -162.86 -12.4199 -245.219c2.37207 -65.1338 8.48926 -129.853 21.2461 -193.836c5.48633 -27.5283 13.2158 -55.002 22.7812 -81.3994
c4.44043 -12.2441 9.11328 -24.5586 15.7598 -35.7969c4.49414 -7.60156 8.98535 -13.2393 12.2578 -20.4531c2.17969 -0.931641 4.38965 -1.77832 6.67676 -2.42969z" />
    <glyph glyph-name="u" unicode="u" horiz-adv-x="520" 
d="M519.893 169.08c7.07812 13.5635 31.8926 6.38867 25.4346 -9.46875c-20.1826 -49.5596 -48.709 -99.8447 -84.665 -139.84c-30.8516 -34.3096 -84.6934 -43.7734 -126.976 -26.0361c-52.1719 21.8799 -78.2188 78.957 -92.2412 130.025
c-2.96191 10.79 -5.62012 21.6006 -7.97168 32.4307c-1.97754 -7.33496 -4.11328 -14.6328 -6.41797 -21.8906c-13.6475 -42.9609 -31.3408 -92.3789 -65.4512 -123.642c-37.8457 -34.6846 -90.1318 -32.6904 -126.267 3.63379
c-36.0098 36.1992 -48.4863 95.1318 -51.2529 144.165c-3.22168 57.084 3.20605 113.273 17.6094 168.435c12.8682 49.29 99.1641 43.0684 92.4668 -11.6641c-6.5791 -53.7871 -15.9316 -108.385 -12.8584 -162.712c1.46387 -25.8916 3.25879 -52.0771 9.63574 -77.3145
c2.76367 -10.9385 7.65234 -20.9121 12.5889 -30.9971c3.20215 -6.53906 7.42969 -17.6729 14.3594 -21.3574c17.4268 -9.26465 42.1611 35.0322 48.7129 46.7529c13.1553 23.5264 23.2871 48.9492 31.5801 74.5537c11.4541 35.3662 19.1201 71.7715 22.9736 108.629
c-0.610352 16.708 -0.445312 33.5137 0.600586 50.4443c1.56934 25.4297 34.4619 39.2021 55.6602 39.0137c24.5762 -0.219727 47.3027 -14.7041 51.4395 -40.0625c7.38184 -45.2344 8.24219 -91.3398 13.7725 -136.838c2.70605 -22.2441 7.12305 -44.1914 11.4482 -66.1592
c3.28613 -16.6875 7.21387 -33.085 15.5 -48.7168c6.10645 -11.5186 16.9268 -28.3916 30.6113 -31.6641c19.1299 -4.5752 36.9609 20.2197 46.9648 33.041c28.3281 36.3066 51.4766 76.4873 72.7422 117.238z" />
    </font>
</defs>
</svg>
