<?xml version="1.0" standalone="no"?>
<!DOCTYPE svg PUBLIC "-//W3C//DTD SVG 1.1//EN" "http://www.w3.org/Graphics/SVG/1.1/DTD/svg11.dtd" >
<svg xmlns="http://www.w3.org/2000/svg" xmlns:xlink="http://www.w3.org/1999/xlink" version="1.1">
<metadata>
Created by FontForge 20170812 at Thu Mar 24 06:06:36 2022
 By www-data
</metadata>
<defs>
<font id="AshellinRegular" horiz-adv-x="0" >
  <font-face 
    font-family="Ashellin"
    font-weight="400"
    font-stretch="normal"
    units-per-em="1000"
    panose-1="0 0 0 0 0 0 0 0 0 0"
    ascent="800"
    descent="-200"
    x-height="386.051"
    cap-height="707.164"
    bbox="-423.998 -592.861 1431.44 934.56"
    underline-thickness="50"
    underline-position="-100"
    unicode-range="U+000A-F000"
  />
<missing-glyph horiz-adv-x="527" 
d="M50 700h427v-700h-427v700zM78 680l185 -309l186 309h-371zM251 350l-180 300v-601zM264 329l-185 -308h370zM276 350l181 -303v605z" />
    <glyph glyph-name="tt.liga" unicode="tt" horiz-adv-x="572" 
d="M1362.43 627.837c-29.0244 18.4238 -64.6357 27.209 -97.7773 34.8447c-73.8984 17.0156 -149.938 23.209 -225.605 24.9443c-178.728 4.09668 -355.958 -17.0947 -532.804 -41.1455c-3.33691 -18.4678 -6.92578 -36.8711 -10.5186 -55.1826
c-27.4014 -139.624 -66.0107 -276.65 -107.667 -412.616c1.27832 -9.53418 2.66602 -19.041 4.16602 -28.5098c5.52832 -34.9316 11.5137 -70.4395 25.3496 -103.22c9.54785 -22.6191 22.9229 -66.1133 54.1318 -66.9482c35.0166 -0.933594 59.8008 48.0547 72.7432 74.1992
c16.7324 33.7969 26.0615 70.3164 29.1016 107.828c1.24707 15.3662 29.0752 12.8779 27.9473 -3.52441c-2.73047 -39.7236 -12.7998 -78.4355 -30.0547 -114.355c-14.8135 -30.8408 -35.5039 -66.0723 -67.0674 -82.1611
c-28.6865 -14.6191 -71.4238 -16.4053 -101.038 -3.99414c-17.9736 7.5332 -35.1533 18.8154 -49.4355 32.0781c-14.9131 13.8496 -24.9648 34.0254 -33.4902 52.3438c-8.06152 17.3262 -14.7051 35.2041 -20.2305 53.4502
c-4.90137 -17.7178 -11.2959 -35.0264 -19.3125 -51.7148c-14.8135 -30.8408 -35.5039 -66.0723 -67.0674 -82.1611c-28.6865 -14.6191 -71.4238 -16.4053 -101.038 -3.99414c-17.9736 7.5332 -35.1533 18.8154 -49.4355 32.0781
c-14.9092 13.8496 -24.9648 34.0254 -33.4902 52.3438c-32.7529 70.3848 -42.3145 149.806 -46.9199 226.469c-4.55762 75.7969 -1.23438 152.552 8.99512 227.787c4.25098 31.25 9.82422 62.3232 16.9824 93.001c-57.6055 -3.25195 -115.3 -4.67969 -173.049 -3.56152
c-60.4414 1.17285 -126.92 -0.139648 -184.75 19.8037c-43.6475 15.0527 -90.0049 55.3428 -70.5107 105.821c5.53223 14.3262 31.915 6.56445 25.6973 -9.56836c-12.585 -32.665 22.8369 -60.5576 49.1279 -71.0391c32.1367 -12.8125 67.5488 -15.1172 101.72 -17.3496
c77.0039 -5.02734 154.236 -4.68262 231.281 -0.796875c8.88672 0.446289 17.7695 0.947266 26.6494 1.48242c9.3877 35.4805 21.0449 70.334 35.5312 104.185c14.3125 33.4453 32.4434 67.8789 58.6963 93.6445c25.0195 24.5557 60.7891 44.6631 95.3145 28.1309
c10.2979 -4.92871 -5.51855 2.38965 1.07324 -0.848633c1.96289 -0.960938 3.77637 -1.9834 5.53223 -3.28516c2.87988 -2.13379 5.44336 -4.8125 7.63867 -7.62793c5.06836 -6.50684 7.62109 -14.4834 9.34961 -22.4258
c4.43164 -20.3457 3.11621 -42.0859 1.26855 -62.6602c-3.34082 -37.1641 -9.47949 -74.2637 -16.3721 -111.08c33.793 3.92676 67.5557 8.18457 101.294 12.6289c7.64258 24.9199 16.4883 49.4785 26.7793 73.5225c14.3096 33.4453 32.4404 67.8789 58.6934 93.6445
c25.0225 24.5557 60.792 44.6631 95.3174 28.1309c10.2979 -4.92871 -5.51855 2.38965 1.07324 -0.848633c1.96289 -0.960938 3.77637 -1.9834 5.53223 -3.28516c2.87988 -2.13379 5.44336 -4.8125 7.63867 -7.62793c5.06836 -6.50684 7.61816 -14.4834 9.34961 -22.4258
c4.43164 -20.3457 3.11621 -42.0859 1.26855 -62.6602c-2.15039 -23.915 -5.47754 -47.7988 -9.39746 -71.6016c94.5479 12.8848 189.191 24.9375 284.278 32.8389c133.178 11.0674 269.601 16.1328 402.373 -2.19531c59.8311 -8.25879 125.628 -19.1797 178.963 -49.083
c43.1699 -24.2012 74.6484 -74.7139 41.1211 -119.96c-10.7539 -14.5176 -37.4912 0.558594 -25.0908 17.1582c21.3447 28.5781 -5.80176 61.8291 -29.8564 77.0996zM445.117 724.485c-7.29785 -21.3486 -14.3223 -42.8125 -20.8564 -64.4229
c18.1641 2.51562 36.332 5.03418 54.5 7.53906c4.33203 25.2686 8.22852 50.6455 9.125 76.2852c0.521484 14.9473 0.878906 30.7432 -2.09668 45.4824c-1.05371 5.22168 -2.61133 11.6641 -5.69629 16.2559c-1.69727 -1.53711 -3.07812 -3.75977 -5.00391 -7.54004
c-4.1377 -8.12305 -7.79883 -16.5596 -11.6025 -24.8428c-7.37305 -16.0479 -12.6738 -32.0918 -18.3691 -48.7568zM154.541 724.485c-11.4561 -33.5166 -22.2393 -67.3203 -31.4873 -101.539c19.4287 1.84375 38.8408 3.84082 58.2422 5.96484
c1.17578 6.46289 2.41016 12.9121 3.53809 19.3848c5.51172 31.6523 11.3438 63.417 12.4717 95.5908c0.525391 14.9473 0.879883 30.7432 -2.09277 45.4824c-1.05371 5.22168 -2.61133 11.6641 -5.69629 16.2559c-1.69727 -1.53711 -3.07812 -3.75977 -5.00391 -7.54004
c-4.1377 -8.12305 -7.79883 -16.5596 -11.6025 -24.8428c-7.37305 -16.0479 -12.6738 -32.0918 -18.3691 -48.7568zM176.651 603.718c-20.0186 -2.14355 -40.0518 -4.15137 -60.1016 -5.98828c-27.1631 -111.128 -35.1016 -228.388 -26.8525 -343.33
c6.69824 22.749 13.3037 45.5254 19.7021 68.3633c25.9834 92.7686 49.0977 186.346 67.252 280.955zM282.976 162.026c0.125977 1.56152 0.589844 2.88965 1.20312 4.08301c-5.60059 34.1133 -8.64062 68.7109 -10.6855 102.77
c-4.55371 75.7979 -1.23047 152.553 8.99902 227.788c5.62402 41.374 13.5488 82.4375 24.4492 122.673c-23.9385 -3.11914 -47.874 -6.14258 -71.8164 -9.00195c-8.95117 -1.06738 -17.9053 -2.11035 -26.8633 -3.13281
c-1.0332 -5.31055 -2.06934 -10.6182 -3.10938 -15.9121c-27.4023 -139.624 -66.0117 -276.65 -107.668 -412.616c1.28125 -9.53418 2.66504 -19.041 4.16504 -28.5098c5.52832 -34.9316 11.5107 -70.4395 25.3496 -103.22
c9.54785 -22.6191 22.9229 -66.1133 54.1318 -66.9482c35.0166 -0.933594 59.8008 48.0547 72.7432 74.1992c16.7324 33.7969 26.0615 70.3164 29.1016 107.828zM399.977 322.762c29.4951 105.296 55.2773 211.638 74.3076 319.343
c-19.1943 -2.6416 -38.3848 -5.29688 -57.5752 -7.94238c-3.16309 -11.2822 -6.18359 -22.6055 -8.99609 -33.9834c-27.6436 -111.854 -35.749 -229.993 -27.4385 -345.78c6.69824 22.749 13.3037 45.5254 19.7021 68.3633z" />
    <glyph glyph-name=".notdef" horiz-adv-x="527" 
d="M50 700h427v-700h-427v700zM78 680l185 -309l186 309h-371zM251 350l-180 300v-601zM264 329l-185 -308h370zM276 350l181 -303v605z" />
    <glyph glyph-name=".null" 
 />
    <glyph glyph-name=".null" 
 />
    <glyph glyph-name="LF" unicode="&#xa;" 
 />
    <glyph glyph-name="controlCR" unicode="&#xd;" 
 />
    <glyph glyph-name="space" unicode=" " horiz-adv-x="339" 
 />
    <glyph glyph-name="exclam" unicode="!" horiz-adv-x="203" 
d="M102.009 55.7109c-20.8369 -2.18848 -50.2861 10.5176 -50.9746 34.8584c-2.65918 94.2002 0.494141 188.588 1.8916 282.799c0.685547 46.333 1.22461 92.666 1.78027 139.003c0.283203 23.6562 -0.254883 47.292 -0.238281 70.9414
c0.00683594 12.3867 -0.146484 24.8281 0.0820312 37.208c0.214844 11.5889 3.17676 20.8564 5.88281 31.9443c4.00488 16.3984 28.4375 18.041 36.0078 3.7832c6.14941 -11.582 10.8564 -20.2842 13.6377 -33.2773c2.58008 -12.0391 4.77539 -24.3164 6.53809 -36.5059
c3.19727 -22.1357 4.92188 -44.5947 6.83105 -66.8662c3.93359 -45.8799 5.71289 -91.9775 8.21094 -137.953c5.08887 -93.6582 11.9297 -187.426 12.9658 -281.237c0.272461 -24.5146 -18.5605 -42.168 -42.6152 -44.6973zM152.29 -100.176
c6.62988 -36.4521 -60.1113 -43.7529 -66.4209 -6.98047c-3.75586 21.8701 -6.91602 43.7295 -7.91504 65.9092c-0.995117 22.0439 -2.17773 44.6162 23.1582 52.4453c12.6973 3.92676 28.5166 0.494141 34.6074 -12.4316
c6.44922 -13.6895 6.28223 -31.6016 8.43652 -46.415c2.55664 -17.5479 4.95996 -35.0752 8.13379 -52.5273z" />
    <glyph glyph-name="quotedbl" unicode="&#x22;" horiz-adv-x="249" 
d="M57.3525 539.588c6.47656 34.291 71.7168 26.709 61.8555 -7.80371c-4.00488 -14.0264 -6.85059 -28.1074 -9.62891 -42.4062c-2.7334 -14.0771 -4.36621 -28.6963 -14.8643 -39.1748c-9.15918 -9.14551 -24.5596 -9.23438 -33.5137 0.146484
c-19.5449 20.4756 -8.54883 64.3447 -3.84863 89.2383zM135.068 529.828c6.5752 34.8564 72.7656 27.7275 63.2695 -7.98145c-6.44922 -24.2383 -6.5752 -52.0215 -17.8477 -74.5693c-8.40527 -16.8145 -34.8457 -15.1816 -43.2578 0.255859
c-12.9668 23.8027 -6.9502 56.9414 -2.16406 82.2949z" />
    <glyph glyph-name="quotedbl" unicode="&#x201d;" horiz-adv-x="249" 
d="M57.3525 539.588c6.47656 34.291 71.7168 26.709 61.8555 -7.80371c-4.00488 -14.0264 -6.85059 -28.1074 -9.62891 -42.4062c-2.7334 -14.0771 -4.36621 -28.6963 -14.8643 -39.1748c-9.15918 -9.14551 -24.5596 -9.23438 -33.5137 0.146484
c-19.5449 20.4756 -8.54883 64.3447 -3.84863 89.2383zM135.068 529.828c6.5752 34.8564 72.7656 27.7275 63.2695 -7.98145c-6.44922 -24.2383 -6.5752 -52.0215 -17.8477 -74.5693c-8.40527 -16.8145 -34.8457 -15.1816 -43.2578 0.255859
c-12.9668 23.8027 -6.9502 56.9414 -2.16406 82.2949z" />
    <glyph glyph-name="quotedbl" unicode="&#x201c;" horiz-adv-x="249" 
d="M57.3525 539.588c6.47656 34.291 71.7168 26.709 61.8555 -7.80371c-4.00488 -14.0264 -6.85059 -28.1074 -9.62891 -42.4062c-2.7334 -14.0771 -4.36621 -28.6963 -14.8643 -39.1748c-9.15918 -9.14551 -24.5596 -9.23438 -33.5137 0.146484
c-19.5449 20.4756 -8.54883 64.3447 -3.84863 89.2383zM135.068 529.828c6.5752 34.8564 72.7656 27.7275 63.2695 -7.98145c-6.44922 -24.2383 -6.5752 -52.0215 -17.8477 -74.5693c-8.40527 -16.8145 -34.8457 -15.1816 -43.2578 0.255859
c-12.9668 23.8027 -6.9502 56.9414 -2.16406 82.2949z" />
    <glyph glyph-name="numbersign" unicode="#" horiz-adv-x="533" 
d="M398.683 618.013c22.0947 33.8682 90.5957 28.5186 83.7754 -20.4424c-4.37305 -31.4346 -15.4854 -61.083 -25.0674 -91.2734c-9.04297 -28.4922 -18.8389 -56.7324 -27.6533 -85.3037c-15.376 -49.8438 -29.2324 -100.162 -41.5918 -150.842
c12.6016 -2.50488 25.1045 -5.64062 37.4639 -9.66309c21.4609 -6.98438 3.97168 -33.2275 -14.7412 -27.1396c-9.74902 3.17383 -19.6406 5.74707 -29.6279 7.85352c-2.70312 -11.6504 -5.3584 -23.3145 -7.9834 -34.9824
c1.95312 -0.109375 3.90625 -0.194336 5.85938 -0.313477c22.5273 -1.37695 14.4453 -30.5713 -6.19727 -29.2246c-2.04199 0.132812 -4.08008 0.228516 -6.12207 0.351562c-8.46387 -38.9736 -16.3135 -78.0703 -23.0791 -117.393
c-10.5596 -61.3447 -19.7217 -123.263 -40.1016 -182.034c-8.78027 -25.3223 -51.1191 -29.3682 -56.5459 0.555664c-11.5215 63.5264 -5.44043 129.438 3.04395 193.285c4.76562 35.876 10.168 71.7139 16.4775 107.382
c-9.53418 -0.228516 -19.0645 -0.569336 -28.5879 -1.02246c-20.3291 -94.7695 -36.3525 -190.6 -50.9512 -286.307c-2.87305 -18.8535 -24.085 -28.6738 -40.9609 -28.7109c-15.373 -0.0341797 -38.2207 10.918 -37.8564 29.4844
c1.83691 93.0215 11.5068 184.966 27.2168 276.266c-19.7832 -2.63477 -39.5195 -5.72266 -59.1904 -9.31543c-20.8027 -3.80078 -23.332 24.2861 -2.95215 28.0938c22.4014 4.18262 44.8916 7.7002 67.4395 10.625c2.98242 15.9971 6.14551 31.9766 9.47949 47.9424
c-27.9102 -1.88867 -55.7793 -4.38379 -83.5488 -7.45508c-20.3633 -2.25293 -22.9775 24.5254 -2.86719 27.2832c30.8584 4.22656 61.7646 7.44727 92.7422 9.69043c25.2812 115.29 56.8145 232.557 105.544 340.01c9.94629 21.9307 39.5635 28.9629 60.7715 24.0166
c19.5723 -4.56738 41.1865 -24.7705 34.3115 -47.2227c-17.7314 -57.9258 -38.7422 -114.751 -56.3682 -172.722c-14.1113 -46.4189 -27.207 -93.1855 -39.1299 -140.228c8.4707 0.0302734 16.9512 0.0136719 25.4248 -0.0957031
c11.9844 51.9609 25.5605 103.558 40.7051 154.687c9.08398 30.6602 18.291 61.4131 29.4238 91.3984c11.8691 31.9629 22.7422 64.0957 41.4453 92.7656zM271.938 207.91c2.70996 14.0771 5.59473 28.1123 8.6416 42.1152
c-8.75684 0.0439453 -17.5 -0.00683594 -26.2061 -0.109375c-0.262695 -1.08691 -0.552734 -2.16699 -0.811523 -3.25098c-3.16992 -13.1943 -6.20996 -26.4229 -9.18945 -39.6689c9.18262 0.416016 18.3721 0.699219 27.5654 0.914062z" />
    <glyph glyph-name="dollar" unicode="$" horiz-adv-x="372" 
d="M283.707 169.77c18.6992 -33.9902 37.0029 -77.793 37.9199 -117.118c0.432617 -18.6182 -7.11035 -36.6875 -14.3057 -53.543c-6.13867 -14.374 -16.9443 -25.8477 -31.0898 -32.5625c-16.3379 -7.75488 -33.5176 -8.49121 -49.9707 -4.6875
c1.16602 -18.6211 2.38672 -37.2422 3.72266 -55.8535c1.23438 -17.1963 -29.4805 -20.3428 -30.667 -3.22461c-1.66309 24.0137 -3.13574 48.0342 -4.50586 72.0615c-5.93457 3.55469 -11.5859 7.58008 -16.8389 11.9463
c-55.3223 45.999 -78.8008 115.395 -95.6602 182.916c-4.0498 16.2217 28.209 22.7119 32.5312 7.25c11.0576 -39.5635 23.8701 -79.5879 44.6592 -115.252c7.06934 -12.1279 18.8086 -29.4229 33.0127 -44.0088c-2.27051 45.5254 -4.02246 91.0742 -5.25293 136.634
c-8.49414 11.7529 -17.0771 23.4443 -25.9023 34.9824c-51.0986 66.8057 -118.275 129.715 -110.787 221.106c5.74023 70.0918 70.5723 122.936 138.188 117.703c1.53027 43.7295 3.5 87.4482 5.97168 131.144c0.879883 15.5605 29.3213 13.1338 28.418 -3.58203
c-2.39941 -44.4346 -4.27441 -88.8936 -5.67188 -133.362c69.5566 -22.9805 95.8477 -98.1846 102.079 -165.491c1.84082 -19.8857 -32.4229 -23.3008 -35.4365 -3.72168c-6.23047 40.4844 -18.2051 85.0859 -52.9053 110.691
c-4.58789 3.38477 -9.69727 6.52051 -15.0859 9.16602c-1.53711 -66.6826 -1.94238 -133.393 -1.23633 -200.086c25.6875 -32.6611 48.75 -66.6348 68.8135 -103.107zM185.078 312.039c-0.0439453 56.3105 0.691406 112.623 2.22559 168.92
c-13.7676 0.59668 -26.8535 -4.19922 -35.9102 -17.9395c-17.5371 -26.6113 -11.3535 -63.6797 0.0214844 -91.6133c8.7666 -21.5352 20.5264 -40.8486 33.6631 -59.3672zM256.519 -7.77148c44.2236 16.4395 -8.35742 74.8057 -22.5342 95.4619
c-5.02734 7.33203 -10.0723 14.6436 -15.127 21.9443c1.45898 -38.5068 3.26172 -77.0039 5.45996 -115.477c10.5293 -4.5918 21.4502 -5.9248 32.2012 -1.92969z" />
    <glyph glyph-name="percent" unicode="%" horiz-adv-x="579" 
d="M494.712 543.085c-26.5498 -60.4414 -60.1152 -117.728 -88.6318 -177.29c-27.6885 -57.8301 -53.5391 -116.656 -77.7881 -176.011c-23.6494 -57.8887 -44.9121 -116.735 -65.6162 -175.731c-11.0605 -31.5195 -21.5723 -63.2227 -32.5312 -94.7764
c-5.78809 -16.6719 -11.041 -33.5342 -17.8242 -49.8311c-3.03711 -7.30078 -5.6377 -15.9209 -9.60156 -22.7314c-2.43359 -4.0498 -5.43652 -7.60547 -9.00488 -10.6699c-0.224609 -0.262695 -0.388672 -0.44043 -0.59668 -0.678711
c-0.630859 -19.7461 -31.332 -24.0205 -43.2422 -11.1943c-19.3027 20.7891 -12.8574 56.2422 -8.38574 81.4834c5.02051 28.3496 10.6035 56.5146 17.5537 84.4551c25.8545 103.915 60.4414 205.403 100.479 304.699c19.7021 48.8691 41.6602 96.9268 64.5693 144.364
c22.9805 47.5908 46.2207 95.5127 76.4893 138.959c15.5127 22.2686 42.6484 33.251 69.2148 23.2471c24.8252 -9.34961 35.4668 -34.2764 24.917 -58.2939zM210.951 366.733c8.87598 -39.4277 -10.0654 -87.2285 -50.2529 -100.041
c-50.2256 -16.0107 -98.8291 16.957 -110.04 66.1055c-2.78809 12.2266 3.62988 21.8223 13.5967 27.7637c-0.923828 29.958 36.9697 60.083 62.0908 66.6006c43.2246 11.2139 75.5518 -20.2207 84.6055 -60.4287zM120.653 348.4
c4.21289 -14.1084 12.2871 -33.9189 30.0869 -33.96c21.5254 -0.0546875 28.2373 22.8408 26.0186 40.1943c-2.61426 20.4277 -15.4238 48.7598 -40.3037 43.9404c-11.415 -2.21191 -33.6865 -17.4043 -37.6338 -32.1533c10.1914 -2.06934 18.7881 -7.82617 21.832 -18.0215
zM476.624 151.171c46.8584 -17.8408 59.4561 -74.7021 48.6406 -119.089c-12.4961 -51.2549 -58.4512 -88.542 -112.052 -85.1641c-50.3828 3.17383 -95.499 49.582 -81.248 101.659c5.72656 20.9189 28.2031 29.9453 47.9189 27.9551
c-4.01855 2.58398 -6.79297 6.43555 -6.66699 11.501c1.20312 48.7227 60.5947 79.4346 103.407 63.1377zM464.806 45.8457c6.79688 17.8574 9.35742 51.165 -11.9736 61.5303c-18.0586 8.77344 -36.0938 -21.7783 -47.4414 -31.0566
c-2.78809 -2.27734 -6.83398 -3.41895 -11.1152 -3.54492c12.5332 -5.6377 20.8193 -17.1416 16.9746 -34.1953c-2.46484 -10.9346 3.17969 -24.7842 15.7881 -25.9434c18.2188 -1.67676 31.9795 18.0078 37.7676 33.21z" />
    <glyph glyph-name="ampersand" unicode="&#x26;" horiz-adv-x="503" 
d="M424.984 178.394c54.1084 -44.2129 19.1055 -127.599 -17.2676 -170.851c-45.0752 -53.6074 -112.562 -91.4121 -183.837 -87.335c-39.0049 2.23242 -77.7607 19.8379 -99.8828 52.9492c-22.251 33.3057 -28.3076 73.4697 -21.3809 112.631
c6.86523 38.8242 24.2871 73.5439 47.5781 104.297c-6.45215 2.00781 -12.7617 4.3457 -18.8525 7.03516c-50.0312 22.0771 -85.0889 63.9111 -81.0186 120.651c3.50391 48.8184 33.2031 95.9326 68.5264 128.522c35.3984 32.6611 82.3252 59.9404 131.825 58.5459
c22.6738 -0.640625 45.375 -8.73242 61.75 -24.79c17.1074 -16.7773 22.3975 -40.4912 26.0205 -63.3633c3.2793 -20.6797 -35.6064 -28.7031 -40.8555 -9.10352c-4.75195 17.7383 -11.5859 45.2969 -30.916 52.6631c-16.0371 6.1084 -37.2178 -2.28027 -51.5576 -9.24707
c-35.8994 -17.4453 -64.8115 -48.1982 -82.2363 -83.8115c-16.7979 -34.332 -20.6875 -77.9824 17.1514 -99.0752c6.7832 -3.7832 17.3975 -7.30762 22.9189 -8.59277c9.04004 -2.10645 18.4033 -2.51172 23.3154 -2.16406
c12.2031 0.866211 12.3867 1.24805 21.6953 4.67676c1.48926 0.630859 2.98242 1.26172 4.47168 1.89258c-5.42676 -2.18848 -3.32715 -1.09473 6.27148 3.27832c4.01855 3.08789 8.06152 6.11133 12.1211 9.06348c35.917 26.127 96.5361 -16.4463 61.2129 -54.6709
c-11.2861 -12.21 -24.6611 -21.3516 -39.2334 -27.7832c-34.3486 -27.6162 -63.1416 -66.5801 -75.0381 -107.058c-11.9033 -40.498 -6.06445 -96.8457 42.4336 -109.175c43.2285 -10.9893 99.6143 1.38379 133.176 30.8652
c33.2617 29.2188 69.7275 83.9375 52.2383 130.281c-9.32227 24.709 -36.0117 34.8125 -60.7549 29.8389c-13.8047 -2.77441 -26.2666 -9.93555 -37.3545 -18.4062c-4.18262 -3.19727 -29.5771 -22.8613 -25.6641 -29.1094
c8.0166 -12.8066 -17.6807 -23.373 -25.2959 -12.1826c-19.9131 29.2598 33.7217 65.9062 55.7754 76.7598c32.2148 15.8496 73.8408 16.3164 102.664 -7.2334z" />
    <glyph glyph-name="quotesingle" unicode="'" horiz-adv-x="171" 
d="M120.713 539.062c1.2207 -17.957 -1.8291 -34.4639 -5.83398 -51.916c-3.67773 -16.0205 -6.16602 -33.3877 -18.1338 -45.4199c-9.01953 -9.06738 -24.832 -9.41211 -33.6191 0.145508c-11.8281 12.8643 -12.2852 32.3135 -12.9707 49.04
c-0.818359 19.9951 1.57812 37.127 8.53809 55.7275c9.62891 25.7354 60.0801 20.9121 62.0195 -7.57715z" />
    <glyph glyph-name="quotesingle" unicode="&#x2019;" horiz-adv-x="171" 
d="M120.713 539.062c1.2207 -17.957 -1.8291 -34.4639 -5.83398 -51.916c-3.67773 -16.0205 -6.16602 -33.3877 -18.1338 -45.4199c-9.01953 -9.06738 -24.832 -9.41211 -33.6191 0.145508c-11.8281 12.8643 -12.2852 32.3135 -12.9707 49.04
c-0.818359 19.9951 1.57812 37.127 8.53809 55.7275c9.62891 25.7354 60.0801 20.9121 62.0195 -7.57715z" />
    <glyph glyph-name="quotesingle" unicode="&#x2018;" horiz-adv-x="171" 
d="M120.713 539.062c1.2207 -17.957 -1.8291 -34.4639 -5.83398 -51.916c-3.67773 -16.0205 -6.16602 -33.3877 -18.1338 -45.4199c-9.01953 -9.06738 -24.832 -9.41211 -33.6191 0.145508c-11.8281 12.8643 -12.2852 32.3135 -12.9707 49.04
c-0.818359 19.9951 1.57812 37.127 8.53809 55.7275c9.62891 25.7354 60.0801 20.9121 62.0195 -7.57715z" />
    <glyph glyph-name="parenleft" unicode="(" horiz-adv-x="464" 
d="M365.06 -92.3867c26.3281 10.8223 68.2764 -22.7754 39.6846 -46.6123c-39.4209 -32.8594 -86.3711 -51.8008 -138.192 -51.709c-51.4629 0.0888672 -99.6777 22.5342 -131.575 63.3184c-50.7373 64.873 -72.501 155.887 -81.1279 236.193
c-9.26465 86.2344 -1.55078 173.638 20.5068 257.395c20.8203 79.0625 54.4766 160.72 105.452 225.275c22.8818 28.9805 51.5107 50.0146 84.0762 66.8564c25.04 12.9531 78.2178 36.0742 89.8242 -6.24414c4.44141 -16.1943 -19.6953 -23.5088 -27.0508 -9.41406
c-8.7666 16.8008 -43.2002 -8.53223 -51.5107 -16.6855c-10.8594 -10.6523 -20.0078 -22.5625 -27.9092 -35.5322c-17.7178 -29.0859 -31.9756 -59.7295 -43.9463 -91.6064c-47.3662 -126.129 -66.874 -269.236 -44.3496 -402.585
c5.58984 -33.0811 13.4395 -65.0303 24.623 -96.5527c10.0791 -28.4072 21.668 -56.6885 39.0557 -77.5254c17.1348 -20.5371 34.7031 -29.8018 59.9404 -32.293c24.3447 -2.40332 55.3291 6.55469 82.499 17.7217z" />
    <glyph glyph-name="parenright" unicode=")" horiz-adv-x="396" 
d="M330.601 353.45c14.6846 -88.0654 19.6445 -176.153 12.9844 -265.244c-6.05664 -81.0977 -17.9668 -170.454 -71.5605 -235.126c-50.5361 -60.9873 -160.682 -86.8076 -215.035 -15.8604c-25.5479 33.3467 25.0732 61.6514 53.0957 43.3945
c3.94336 -2.57031 10.9102 -6.00293 13.8789 -6.83496c0.960938 -0.269531 6.56152 -1.05371 8.66113 -1.41504c1.66992 0.0957031 6.50293 0.125977 7.03125 0.180664c15.2402 1.52051 14.8623 1.33008 27.7568 10.1719c5.65527 3.87891 18.5811 16.3477 24.127 24.1807
c5.57324 7.87012 14.1768 24.5283 18.4482 36.3838c22.2959 61.8662 30.1455 132.622 32.4531 197.982c2.45117 69.4502 -1.13086 139.508 -9.35938 208.488c-7.29785 61.1709 -16.9199 122.598 -38.418 180.619c-10.6113 28.6396 -22.4941 57.4287 -38.6748 83.457
c-7.98633 12.8438 -17.4824 23.0352 -32.9814 25.7412c-13.7227 2.39648 -26.4199 -0.9375 -35.8994 -11.2822c-11.8145 -12.8916 -37.2695 1.07324 -24.3574 16.6543c25.5889 30.8818 66.584 28.1719 99.6338 12.7139c38.8857 -18.1914 67.8047 -47.335 91.4707 -82.9111
c43.6953 -65.6836 63.9082 -144.304 76.7451 -221.294z" />
    <glyph glyph-name="asterisk" unicode="*" horiz-adv-x="268" 
d="M204.822 440.52c21.3242 -0.674805 13.5303 -28.2246 -5.85449 -27.6074c-11.6338 0.371094 -23.25 0.418945 -34.8457 0.1875c7.85645 -9.74219 15.4678 -19.7021 23.0078 -29.6621c11.3711 -15.0254 -15.2676 -29.3691 -25.0977 -15.9424
c-3.60938 4.92871 -7.22949 9.86426 -10.8867 14.7725c0.354492 -6.77637 0.739258 -13.5527 1.17578 -20.3525c1.07031 -16.7324 -25.6836 -18.7842 -29.2393 -3.07422c-2.06543 9.13477 -3.62695 18.3447 -4.79297 27.5986
c-5.51562 -7.98633 -10.6963 -16.2217 -15.4893 -24.7021c-7.75098 -13.7227 -34.877 -6.10059 -26.5635 9.88965c6.73926 12.9668 14.3096 25.2852 22.6064 36.9971c-10.9482 -1.28516 -21.876 -2.83301 -32.7871 -4.64941
c-19.6748 -3.27539 -22.0371 23.0693 -2.78223 26.4746c14.0771 2.48828 28.1953 4.46875 42.3447 6.06445c-12.2715 12.2129 -25.6094 23.332 -40.6104 32.668c-15.3896 9.57812 5.01758 27.04 18.2119 19.1016c12.0908 -7.27734 23.2061 -15.6592 33.6436 -24.7803
c0.606445 8.47754 1.40723 16.9414 2.37207 25.3711c2.13086 18.6211 36.6465 15.7617 34.0693 -4.29785c-0.791016 -6.14551 -1.38086 -12.2812 -1.87891 -18.4102c8.83887 7.57422 18.0996 14.7393 27.8145 21.4473c15.0215 10.3721 35.3945 -9.79688 18.3994 -21.5293
c-11.2588 -7.77539 -21.9277 -16.3008 -32 -25.4561c13.0381 0.317383 26.0967 0.307617 39.1826 -0.108398z" />
    <glyph glyph-name="plus" unicode="+" horiz-adv-x="306" 
d="M242.673 242.08c21.4473 -4.01172 14.0186 -32.167 -6.02734 -28.4248c-15.8164 2.95898 -31.4619 4.48242 -46.9814 4.79297c-0.418945 -6.00293 -0.803711 -11.958 -1.08301 -17.8271c-1.90527 -40.0039 -0.457031 -78.9912 -12.2061 -117.498
c-5.06152 -16.5859 -31.2666 -24.8857 -42.7402 -9.34961c-23.8535 32.293 -22.3096 80.2451 -23.9902 118.551c-0.242188 5.50879 -0.498047 11.126 -0.729492 16.8115c-13.0518 -3.2041 -26.0488 -7.14746 -39.0088 -11.8037
c-17.8232 -6.40137 -28.5771 15.8262 -10.7939 24.2793c15.6934 7.46191 32.1465 13.1816 49.0156 17.3877c-0.1875 28.7041 1.77246 57.8682 10.4473 83.7461c10.7852 32.167 64.4951 36.7793 71.2373 -0.698242c4.29785 -23.8945 3.56836 -49.2891 1.92871 -74.4512
c17.1553 -0.548828 34.2363 -2.38965 50.9316 -5.51562z" />
    <glyph glyph-name="comma" unicode="," horiz-adv-x="261" 
d="M125.837 89.5996c22.6709 42.2188 105.542 18.0645 80.2773 -29.8877c-26.6074 -50.4883 -54.752 -103.604 -96.0029 -143.714c-10.4375 -10.1475 -26.5811 -13.9512 -40.3555 -8.7666c-11.3506 4.27441 -23.0869 17.5713 -18.8809 30.7119
c17.2002 53.7197 48.3818 102.163 74.9619 151.656z" />
    <glyph glyph-name="hyphen" unicode="-" horiz-adv-x="337" 
d="M287.183 175.387c2.17773 -20.7207 -17.8574 -37.9512 -37.4062 -39.2363c-29.6309 -1.93945 -59.2412 -2.38281 -88.9268 -2.98242c-28.752 -0.579102 -62.3916 -4.29492 -90.2568 4.09668c-14.3057 4.30859 -22.166 18.9385 -20.3291 33.0703
c0.0410156 0.310547 0.0820312 0.624023 0.123047 0.93457c1.84082 14.1729 18.4678 24.1162 31.3115 25.2754c18.7334 1.69043 50.5869 5.25879 75.1191 6.45508c28.5605 1.39453 57.0264 2.88379 85.6211 2.98633c19.5449 0.0712891 42.3379 -7.71094 44.7441 -30.5996z
" />
    <glyph glyph-name="period" unicode="." horiz-adv-x="210" 
d="M88.6572 61.0898c21.1807 34.9482 85.584 17.9453 68.5752 -25.5312c-11.5791 -29.6074 -34.499 -66.5566 -63.3057 -81.8477c-18.8223 -9.99023 -45.917 -2.26953 -43.8105 22.4805c1.29492 15.1816 10.127 29.7979 16.5723 43.3984
c6.73926 14.2275 13.8154 28.043 21.9688 41.5z" />
    <glyph glyph-name="slash" unicode="/" horiz-adv-x="500" 
d="M421.177 563.516c22.9062 -8.62402 37.167 -34.6729 24.5723 -57.4902c-30.9404 -56.0645 -64.6309 -110.541 -95.5469 -166.646c-30.4697 -55.291 -58.8672 -111.602 -87.2266 -167.99c-28.8467 -57.3633 -56.2178 -115.555 -83.2588 -173.787
c-13.3145 -28.6797 -26.2773 -57.4961 -39.8262 -86.0635c-13.6689 -28.8232 -27.1572 -57.4629 -47.7764 -82.0762c-10.7539 -12.833 -40.9307 -9.40039 -41.916 9.98438c-1.67676 33.0469 7.7002 64.832 16.8486 96.249c8.71289 29.917 19.0547 59.252 29.6416 88.5527
c21.8799 60.5605 46.3672 119.888 72.7666 178.611c25.8203 57.4355 54.6533 113.579 84.4307 169.051c30.8174 57.4111 62.2139 114.877 99.0303 168.679c15.1035 22.0742 42.2295 32.7266 68.2607 22.9268z" />
    <glyph glyph-name="zero" unicode="0" horiz-adv-x="420" 
d="M50.0703 202.794c-1.01562 60.4688 8.78906 129.992 40.1514 184.649c-21.542 31.1719 13.4814 77.9521 39.793 96.4102c41.5273 29.1299 88.1504 17.7217 129.088 -5.91016c87.1348 -50.3047 112.999 -169.221 110.661 -262.177
c-1.25098 -49.7109 -8.70215 -100.305 -37.3037 -142.34c-30.5547 -44.8984 -80.5254 -75.624 -136.096 -71.9629c-45.0518 2.96875 -83.0684 29.7471 -108.564 65.7285c-27.5723 38.9131 -36.9424 88.6855 -37.7295 135.602zM168.483 467.651
c-15.4512 -5.12012 -28.5107 -16.584 -37.5947 -29.9053c2.29785 2.01074 4.64258 3.97363 7.05957 5.87207c14.4834 11.3613 47.6865 -4.08008 34.5771 -23.6455c-20.7822 -31.0146 -41.207 -62.0361 -52.1455 -98.1025
c-10.5293 -34.7197 -14.5273 -71.1475 -13.4873 -107.354c1.00195 -34.9482 5.22559 -71.6387 25.0771 -101.457c8.20801 -12.332 18.6006 -22.7012 31.7715 -29.6748c4.16895 -2.20508 9.81348 -4.52637 13.6689 -5.51855
c3.88965 -0.999023 8.20117 -1.46289 12.2129 -1.60938c0.592773 -0.0205078 1.02539 -0.0478516 1.37988 -0.0751953c0.944336 0.157227 2.32812 0.361328 4.46875 0.630859c2.37891 0.299805 3.30273 0.323242 3.62305 0.275391
c0.296875 0.204102 1.20996 0.650391 3.66797 1.57422c3.09473 1.16602 6.27832 2.00098 9.37988 3.19434c9.79297 3.75977 4.08008 2.0791 2.49121 1.18652c3.64355 2.04883 7.12012 4.35645 10.5049 6.80078c5.42676 3.91602 17.5615 15.0762 21.6963 20.6973
c20.6865 28.1484 27.1934 65.6914 30.6055 99.6035c7.17871 71.3115 -3.0166 147.531 -33.6328 212.4c-13.9824 29.6279 -39.5029 56.9688 -75.3242 45.1064z" />
    <glyph glyph-name="one" unicode="1" horiz-adv-x="292" 
d="M233.041 8.87402c-3.0332 -25.2549 -33.1133 -38.9189 -55.2451 -38.7246c-20.3389 0.183594 -52.0352 14.5889 -51.0537 39.7646c3.73926 96.1094 18.4717 191.595 22.3711 287.779c1.89551 46.7764 6.05762 95.0049 -0.353516 141.594
c-2.29102 16.6543 -5.11719 39.7646 -27.2256 32.5039c-19.2959 -6.33691 -32.6104 -24.3008 -40.3203 -42.1445c-7.16113 -16.5723 -37.5391 -7.5293 -30.0303 11.1807c16.8076 41.8779 62.1426 75.1631 107.883 58.2393
c49.7861 -18.4238 61.7471 -83.6953 70.2246 -129.605c10.6211 -57.5273 13.3174 -116.896 12.6699 -175.302c-0.681641 -61.5898 -1.57129 -124.083 -8.91992 -185.285z" />
    <glyph glyph-name="two" unicode="2" horiz-adv-x="350" 
d="M101.336 -39.3945c-33.6602 15.2812 -53.2734 44.9619 -51.1836 82.2588c1.75586 31.3184 15.9697 62.2041 27.5723 90.9082c23.1885 57.3701 51.8076 112.508 73.4287 170.532c10.4062 27.9307 19.1768 57.3193 24.2861 86.6943
c3.81055 21.9033 12.7041 56.7969 -3.93652 75.6055c-13.7979 15.5908 -36.6768 4.64258 -49.9941 -6.10449c-7.93848 -6.41113 -48.5625 -52.5742 -27.085 -58.498c18.3447 -5.06152 4.59473 -25.2031 -9.16602 -24.6748
c-33.8164 1.29492 -37.3652 41.1484 -31.6084 67.0674c6.41504 28.8604 29.3887 54.0674 55.001 67.4902c30.0508 15.751 64.9141 19.4766 94.9336 1.55371c25.1758 -15.0283 42.9004 -41.6328 50.7607 -69.335c19.4258 -68.459 -1.81641 -145.177 -27.0977 -209.351
c-12.8643 -32.6475 -27.6035 -64.5176 -41.4736 -96.7422c-12.5811 -29.2393 -26.7607 -59.709 -32.8145 -91.1572c-2.04883 -10.6455 -3.31348 -22.7969 0.899414 -28.54c3.51758 -4.79297 12.2168 -6.98438 20.5303 -7.6084
c31.6016 -2.37598 57.9639 17.4072 86.4668 27.4521c20.9121 7.36621 54.5654 -17.1553 31.6523 -37.1875c-49.585 -43.3574 -128.862 -68.6523 -191.172 -40.3643z" />
    <glyph glyph-name="three" unicode="3" horiz-adv-x="389" 
d="M181.293 -24.2744c-60.2236 -4.17871 -110.906 33.6211 -129.098 90.0537c-16.4873 51.1396 64.4707 75.2725 86.2344 30.0098c5.76367 -11.9883 11.8311 -23.1758 22.1289 -32.918c-3.06445 2.90039 11.2246 -7.08301 5.65527 -4.01855
c4.77246 -2.62793 3.10938 -1.31934 6.16699 -1.78613c0.981445 -0.150391 1.66016 -0.259766 2.10352 -0.334961c11.2314 0.286133 17.04 3.2998 28.1592 10.6621c7.08691 4.69336 17.6914 14.5547 22.9033 21.5488c24.8936 33.3945 26.5127 84.9365 -5.83203 109.938
c-21.7197 16.7871 -47.1416 13.334 -72.0889 25.4961c-18.9658 9.24414 -30.1699 27.7598 -25.1221 49.166c4.00488 16.9883 20.1924 29.5146 31.8838 41.4893c18.7881 19.2344 38.0771 39.1611 53.3652 61.3584c12.8643 18.6826 39.54 53.4092 26.0283 77.5146
c-15.0625 26.8701 -57.0127 18.4062 -78.5039 7.20898c-24.0479 -12.5332 -45.3652 -32.0615 -49.1797 -60.0049c-2.31055 -16.9131 -32.7119 -14.1523 -30.7725 3.88281c8.22852 76.4551 121.998 126.572 180.978 74.5635
c15.7412 -13.8799 26.8467 -28.251 31.1855 -49.292c4.50977 -21.8633 -0.603516 -44.9971 -7.7041 -65.793c-7.27051 -21.2939 -18.5361 -41.5137 -31.3252 -59.9375c-4.53027 -6.52441 -9.2168 -12.9395 -13.9482 -19.3242
c10.2598 -3.42871 20.0156 -7.66895 29.7812 -12.8809c24.4805 -13.0752 43.1904 -32.3066 56.8799 -56.3438c25.9707 -45.6035 22.5996 -103.243 -2.69922 -148.298c-27.6475 -49.2441 -79.8506 -87.9834 -137.18 -91.9609zM189.12 296.536
c-6.08105 0.770508 -5.96484 0.716797 0.22168 -0.149414c-0.0751953 0.0478516 -0.150391 0.0986328 -0.22168 0.149414z" />
    <glyph glyph-name="four" unicode="4" horiz-adv-x="384" 
d="M166.879 117.694c-41.3633 1.92578 -86.9375 36.4717 -103.885 73.8164c-21.3311 46.9941 -11.7051 105.091 -4.03906 154.226c7.9043 50.6689 14.7588 105.898 42.8896 150.047c7.42383 11.6475 26.4375 12.8232 33.2031 -0.197266
c19.2412 -37.0273 23.5127 -83.2139 22.8135 -124.353c-0.678711 -40.0244 -7.66309 -80.832 -3.43262 -120.774c2.9209 -27.5654 4.25684 -60.0088 26.5215 -78.7217c12.1211 -10.1914 25.5615 -10.7568 38.8828 -6.78223
c-0.624023 9.11133 -1.14258 18.2188 -1.55469 27.3057c-3.83789 84.96 -5.16699 170.4 3.08496 255.121c2.61133 26.833 35.627 41.3467 58.6934 41.1387c22.4014 -0.204102 54.292 -15.4336 54.2412 -42.249c-0.139648 -77.3623 -3.85156 -154.677 -3.47656 -232.069
c0.197266 -40.9785 1.10742 -82.3252 -1.13184 -123.252c-1.67383 -30.5615 0.817383 -67.0303 -11.958 -95.4414c-3.90625 -8.68164 -14.957 -14.248 -23.9863 -14.9844c-49.2549 -4.00195 -55.9873 55.7275 -62.6475 91.5352
c-3.43945 18.5117 -6.04688 37.252 -8.06152 56.0713c-17.6025 -7.19531 -36.2646 -11.3604 -56.1572 -10.4365z" />
    <glyph glyph-name="five" unicode="5" horiz-adv-x="393" 
d="M104.005 463.891c-21.208 1.13477 -40.6123 8.72852 -52.375 30.2705c-8.97852 16.4463 21.709 25.6084 30.1895 10.5078c9.48242 -16.8936 31.5361 -15.2168 50.5293 -11.2832c4.58496 3.0332 10.2773 4.1543 15.9902 3.74219
c1.0498 0.251953 2.0791 0.500977 3.05371 0.725586c21.1748 4.90137 42.4141 10.5703 64.2979 10.7373c35.0605 0.265625 70.4248 -13.2393 87.4512 -45.4434c9.5918 -18.1475 -24.6104 -28.9326 -33.3301 -11.5967c-17.7012 35.1973 -61.2773 29.6348 -95.5234 22.3916
c-0.123047 -1.46191 -0.419922 -2.96191 -0.948242 -4.49902c-2.53906 -32.416 -13.8281 -64.9482 -9.65625 -97.6816c1.6123 -12.6562 9.42188 -15.833 20.0498 -22.5273c15.2744 -9.62207 30.9336 -18.6719 45.8564 -28.8428
c47.8232 -32.5898 85.6211 -80.5625 102.04 -136.464c15.9697 -54.3779 18.6963 -119.019 -11.5215 -169.384c-37.249 -62.0918 -118.258 -83.0889 -180.847 -45.9893c-54.9062 32.542 -79.9355 105.599 -72.0684 166.312c4.74512 36.6152 64.7471 38.7832 78.7598 8.2793
c12.9766 -28.2471 14.6914 -61.2939 31.25 -88.1094c3.75293 -6.07715 10.6455 -14.125 16.9102 -18.4883c5.00684 -3.4873 6.33594 -4.29492 8.69824 -4.72461c-2.30469 0.418945 14.0293 -1.52051 6.85449 -0.923828
c1.86133 -0.157227 3.03711 -0.283203 3.7832 -0.381836c-0.272461 0.1875 -0.135742 0.498047 1.43555 0.948242c2.17773 0.624023 4.49902 1.36035 6.5957 2.30469c-0.405273 0.00683594 4.0459 2.87988 3.91602 2.76758c7.99316 6.98438 10.0039 11.0098 14.6123 20.8604
c7.1582 15.3115 10.001 37.6689 9.36035 55.6592c-1.57812 44.2646 -17.7178 85.7852 -47.4648 118.88c-16.2422 18.0693 -37.4883 31.3662 -58.8096 44.7754c-23.5225 14.793 -50.2803 30.7793 -61.1982 57.8027c-16.4707 40.7598 -4.12793 92.4824 22.1084 129.374z" />
    <glyph glyph-name="six" unicode="6" horiz-adv-x="331" 
d="M159.905 -22.6318c-80.7842 -3.36816 -110.568 91.2754 -109.896 157c0.75293 73.8848 19.9199 148.766 46.0811 217.477c13 34.1377 29.0039 68.3672 48.9375 99.0244c17.04 26.2051 45.9756 74.1133 81.6875 74.1406
c8.53223 0.00683594 17.5586 -2.24609 21.4375 -10.8799c6.65723 -14.8203 -1.2373 -28.4004 -7.05273 -42.127c-5.77734 -13.6348 -11.6299 -27.1123 -17.748 -40.5967c-12.1309 -26.7266 -24.5107 -53.5625 -34.3887 -81.2236
c-18.7334 -52.4551 -33.9561 -105.763 -41.7383 -161.026c-0.296875 -2.11035 -0.548828 -4.2168 -0.811523 -6.32324c30.1152 8.16406 62.5107 8.13672 90.4854 -7.41699c28.9902 -16.1162 45.8936 -45.3555 43.4258 -78.6338
c-4.36621 -58.918 -60.2812 -116.905 -120.419 -119.414zM222.437 149.95c-24.3613 15.1172 -53.3525 11.0869 -78.8418 1.28711c-0.746094 -13.6582 -0.954102 -27.3438 -0.807617 -41.1797c0.242188 -22.541 -0.688477 -48.7637 7.27734 -70.2139
c8.34473 -22.4766 30.4697 -20.5781 49.5303 -11.8457c23.042 10.5566 40.6445 31.5908 47.4922 56.041c7.2334 25.8232 -1.66309 51.6465 -24.6504 65.9111z" />
    <glyph glyph-name="seven" unicode="7" horiz-adv-x="315" 
d="M72.0195 455.454c-15.2773 -7.11719 -31.5557 14.8965 -15.208 23.9805c41.6533 23.1582 91.1631 62.5547 137.155 24.5078c40.6582 -33.6328 44.1416 -96.2969 44.6396 -144.999c0.299805 -29.3652 -1.17578 -59.0234 -3.82129 -88.583
c3.71582 0.732422 7.43164 1.46875 11.1475 2.20508c22.6777 4.48535 25.8955 -26.9385 3.25195 -30.9297c-5.90723 -1.04297 -11.8105 -2.08301 -17.7178 -3.12598c-2.06934 -17.7725 -4.44824 -35.4697 -7.10352 -52.9834
c-4.38672 -28.9463 -9.13477 -57.8379 -14.0498 -86.6982c-5.2666 -30.9131 -9.06348 -61.4443 -21.6689 -90.4141c-16.7666 -38.5273 -96.6377 -34.9551 -98.4141 12.0225c-1.01953 26.9756 5.3584 52.3701 10.751 78.5791c5 24.3037 9.90137 48.6348 14.5918 73.0029
c2.99316 15.5537 6.07422 31.1104 9.13184 46.6709c-11.5176 -2.01465 -23.042 -3.37793 -34.2803 -2.98242c-7.85645 0.279297 -14.7041 8.0752 -13.167 15.8369c1.76562 8.91016 11.126 11.8926 19.0205 11.7764c10.9209 -0.160156 23.3662 3.81738 34.4336 6.37695
c3.8623 20.2539 7.55371 40.5352 10.7988 60.8711c6.89551 43.2246 15.1338 88.8867 10.3584 132.731c-1.54395 14.1592 -3.41504 29.7021 -20.2227 29.8418c-21.1543 0.173828 -40.917 -8.97168 -59.627 -17.6875z" />
    <glyph glyph-name="eight" unicode="8" horiz-adv-x="327" 
d="M113.936 239.894c-21.1914 26.543 -41.7256 53.873 -53.8164 85.7812c-17.1348 45.249 -13.709 94.7246 19.5283 131.64c25.1592 27.9404 63.0566 48.8486 101.168 49.5781c39.3828 0.75293 67.9746 -19.9814 81.3838 -56.709
c14.7598 -40.4189 14.3301 -87.2979 12.5537 -129.67c-2.00391 -47.874 -8.65039 -95.3047 -15.5186 -142.674c-0.0712891 -0.514648 -0.183594 -1.00586 -0.302734 -1.49316c18.6348 -42.4951 25.9902 -87.5088 5.41211 -132.053
c-15.5156 -33.5889 -46.8613 -64.9307 -85.3613 -67.416c-37.9551 -2.45117 -68.4141 24.3545 -85.5664 55.8467c-36.7861 67.5352 -17.9502 145.231 20.5195 207.169zM175.979 5.43164c54.5205 1.2168 46.5254 64.4238 30.7881 98.292
c-18.0586 38.875 -44.5674 75.0742 -70.8887 108.693c-0.759766 0.974609 -1.5332 1.94238 -2.2998 2.91406c-18.4404 -33.3467 -29.7637 -70.7285 -27.1318 -109.093c2.48145 -36.2031 23.0146 -101.847 69.5322 -100.807zM193.081 470.337
c-34.6455 2.82227 -51.9951 -37.3799 -52.5029 -64.5469c-0.825195 -44.0703 21.5186 -79.292 46.1562 -113.798c13.5938 -19.041 28.7383 -39.7412 42.6758 -61.6006c5.12012 39.5566 9.02344 79.2842 8.4541 119.195c-0.450195 31.6797 1.9082 116.946 -44.7832 120.75z
" />
    <glyph glyph-name="nine" unicode="9" horiz-adv-x="419" 
d="M117.785 235.653c-56.5254 5.80176 -79.9111 61.2734 -61.7227 110.92c17.5303 47.8438 54.7285 88.7812 94.5137 119.486c22.0098 16.9854 46.1289 31.4209 74.1816 35c14.9229 1.90527 31.1475 0.214844 43.6299 -7.30469
c9.00586 11.3506 21.8018 18.6895 37.5088 17.5615c19.6299 -1.41113 31.2188 -14.9912 39.1064 -31.9424c16.6201 -35.7227 17.4688 -81.04 20.0146 -119.663c2.77148 -42.0312 3.79102 -84.1416 4.33594 -126.252c0.544922 -42.1816 -1.63965 -84.4482 -2.52637 -126.623
c-0.923828 -44.0596 2.50879 -89.9502 -4.55762 -133.522c-8.97852 -55.3828 -106.309 -55.0352 -113.409 1.11133c-5.62793 44.4893 2.7373 92.3535 6.98828 136.836c3.92285 41.0635 7.43359 82.2461 12.3662 123.193c5.04785 41.9189 9.38672 83.9502 12.1035 126.088
c0.572266 8.8418 1.03223 17.6904 1.49219 26.5391c-12.0186 -25.957 -25.1006 -51.5459 -41.3867 -75.1162c-28.4414 -41.1553 -68.0361 -81.915 -122.639 -76.3115zM165.496 411.568c-24.0918 -23.5742 -56.8799 -60.7148 -57.9912 -96.4883
c-1.0293 -33.0566 28.1143 -35.2207 49.3193 -17.7822c25.6807 21.1201 43.1602 53.4541 57.9463 82.584c13.0342 25.6836 23.7881 52.3867 35.4629 78.6709c-12.5098 -0.500977 -23.7236 -2.85254 -36.1855 -9.95996
c-17.7451 -10.1172 -33.9697 -22.7559 -48.5518 -37.0244z" />
    <glyph glyph-name="colon" unicode=":" horiz-adv-x="186" 
d="M89.7979 286.464c-47.0078 -15.3457 -29.4043 75.3447 -20.1836 94.9102c12.1416 25.7627 54.1631 14.9062 52.5918 -12.8369c-0.780273 -13.7061 -5.13281 -26.2021 -9.16211 -39.2637c-1.91895 -6.21777 -4.17578 -12.2412 -6.56152 -18.2949
c-0.916992 -2.32812 -5.05469 -15.2061 -6.35645 -13.1025c-1.10449 -5.01074 -5.01074 -9.67676 -10.3281 -11.4121zM76.7207 180.027c13.8799 25.0225 64.4648 18.7949 58.4658 -14.2656c-4.71387 -25.9941 -15.3994 -50.7881 -23.8047 -75.7871
c-5.16699 -15.3691 -19.5781 -24.3779 -35.9971 -22.2881c-14.5889 1.85449 -28.0869 14.3467 -24.9199 29.9688c5.71582 28.1992 12.2021 57.0391 26.2559 82.3721z" />
    <glyph glyph-name="semicolon" unicode=";" horiz-adv-x="227" 
d="M116.44 300.269c-12.8164 3.13281 -22.4258 14.0029 -20.1211 27.6885c2.59766 15.4033 5.14355 30.5986 9.00586 45.7363c4.44141 17.4082 22.1934 25.6807 39.0596 24.1846c14.5918 -1.29492 32.2246 -16.3438 27.04 -32.5215
c-5.57324 -17.3945 -12.4072 -34.127 -19.3467 -51.0068c-5.30762 -12.8945 -23.6055 -17.0225 -35.6377 -14.0811zM177.021 202.871c0.746094 -42.5059 -10.0439 -83.3887 -25.9658 -122.536c-14.0703 -34.5938 -34.3818 -69.0859 -71.3418 -82.3184
c-17.1963 -6.15625 -40.2217 12.2021 -24.4297 28.7002c44.3525 46.3438 38.8506 119.69 59.5029 176.768c5.25586 14.5176 16.8047 22.6338 32.3447 22.668c12.5742 0.0273438 29.6309 -8.59668 29.8896 -23.2812z" />
    <glyph glyph-name="less" unicode="&#x3c;" horiz-adv-x="346" 
d="M258.837 149.822c20.3633 -4.76172 38.251 -16.5361 37.5215 -39.5068c-0.626953 -20.0117 -21.5459 -38.7588 -41.6875 -38.7178c-42.3555 0.0849609 -84.8096 0.831055 -125.73 13.0439c-36.4922 10.8906 -86.2168 40.6582 -78.0498 85.3623
c7.14062 39.0967 64.5381 60.6768 96.1807 75.6436c15.4102 7.29102 30.7695 14.7656 46.4971 21.3447c7.83301 3.2793 15.5498 6.4834 23.5332 9.36328c6.47266 2.33496 17.8438 3.36426 22.916 6.74902c12.5098 8.34082 33.3428 -5.40234 21.0586 -18.8047
c-3.74902 -4.08691 -4.85645 -11.9844 -8.46973 -17.0801c-4.17871 -5.89355 -8.62305 -11.7363 -13.6162 -16.9443c-10.9111 -11.3779 -23.5166 -21.0381 -36.0605 -30.5107c-12.8193 -9.68359 -25.5439 -19.4766 -38.292 -29.2559
c-2.42676 -1.86133 -4.87793 -3.68848 -7.31152 -5.53906c7.18848 -2.89746 15.5635 -4.75879 22.0469 -5.83887c26.4199 -4.41113 53.2861 -3.18359 79.4639 -9.30859zM142.445 152.474c-5.62402 -4.57422 -1.80371 -2.24609 0.602539 0.52832
c-0.204102 -0.170898 -0.394531 -0.361328 -0.602539 -0.52832z" />
    <glyph glyph-name="equal" unicode="=" horiz-adv-x="371" 
d="M80.1553 142.579c-13.8047 1.13867 -27.7012 12.2119 -29.1973 26.4297c-1.61914 15.4102 10.1709 26.3037 23.0654 31.9209c32.3857 14.1113 69.9482 16.1123 104.896 17.1455c18.9414 0.558594 37.917 0.204102 56.8242 -1.04297
c19.1973 -1.26758 40.2109 -1.87793 55.8633 -14.3701c23.1582 -18.4785 14.2822 -47.1143 -11.4355 -57.4629c-19.3955 -7.80566 -39.9053 -3.5791 -60.1318 -2.24316c-13.2461 0.873047 -26.5742 1.3916 -39.8477 1.58594
c-33.4287 0.484375 -66.6426 -4.7207 -100.037 -1.96289zM288.776 124.584c18.7441 -1.56836 35.8984 -18.8398 31.8555 -38.3164c-4.28125 -20.6328 -26.8906 -30.0879 -46.0166 -28.4893c-34.7988 2.91113 -69.6006 5.28027 -104.515 6.2041
c-16.8662 0.450195 -33.7393 0.1875 -50.5986 0.695312c-17.7012 0.535156 -36.6631 -0.0849609 -53.0146 7.58789c-17.5615 8.23828 -24.0928 31.6484 -4.5 42.8018c32.208 18.335 75.6816 14.4795 111.585 14.2207c38.4453 -0.276367 76.8809 -1.5 115.204 -4.7041z" />
    <glyph glyph-name="greater" unicode="&#x3e;" horiz-adv-x="315" 
d="M254.856 222.17c13.7334 -16.167 12.876 -39.1006 -1.11621 -54.8721c-11.501 -12.9668 -28.2236 -20.7148 -42.8945 -29.4443c-32.8115 -19.5176 -66.4541 -37.6074 -101.082 -53.6787c-41.8096 -19.4053 -85.3311 39.5264 -41.4727 65.4043
c21.0654 12.4316 42.8535 23.373 64.7197 34.335c10.0312 5.02734 20.1787 9.78906 30.3564 14.5029c-1.20703 0.729492 -2.40039 1.48926 -3.61426 2.20508c-12.7549 7.5293 -26.0557 14.4014 -38.4561 22.5068c-18.2842 11.957 -55.7041 39.6553 -32.4229 63.1885
c10.5254 10.6416 26.2734 4.37305 37.7227 -0.239258c14.1592 -5.69922 28.8369 -10.0791 43.0342 -15.7275c28.499 -11.3369 64.6953 -24.0068 85.2256 -48.1807zM185.93 182.797c1.2373 -1.41113 1.74707 -1.76562 1.53223 -1.06641
c-0.500977 0.412109 -1.03613 0.776367 -1.54102 1.18164c0.00292969 -0.0410156 0.00585938 -0.078125 0.00878906 -0.115234z" />
    <glyph glyph-name="question" unicode="?" horiz-adv-x="408" 
d="M355.506 446.638c10.209 -77.2188 -9.92383 -156.543 -26.5342 -231.39c-8.32715 -37.5088 -17.4824 -74.9863 -22.8477 -113.064c-5.11328 -36.2881 -5.39258 -68.793 -2.27344 -106.857c4.99316 -60.9424 -98.6768 -71.1611 -108.374 -11.3906
c-11.7188 72.249 5.5293 149.577 27.2051 218.53c19.2686 61.2969 41.9834 122.083 54.5342 185.251c9.62207 48.4395 26.9648 132.343 -34.1279 154.948c-56.0449 20.7383 -111.098 -28.8398 -136.325 -73.6738c-15.4277 -27.4189 -26.0254 -60.5469 -19.1777 -92.1445
c5.81152 -26.8125 25.9531 -52.0938 54.0771 -56.3477c22.5791 -3.41504 14.6885 -32.7119 -6.28125 -29.6309c-35.9199 5.28027 -65.6328 30.6094 -78.2617 64.5869c-14.1113 37.9756 -5.66113 79.9424 11.6104 115.378c29.2393 59.9883 87.4922 110.286 157.352 106.751
c30.5547 -1.54785 63.0762 -12.2676 85.9648 -32.9072c27.7969 -25.0635 38.6943 -62.0166 43.46 -98.0391zM306.035 -83.6973c5.31738 -22.3506 2.33105 -46.1221 4.99707 -68.9531c4.88086 -41.8203 -72.4951 -49.3193 -74.5264 -7.83301
c-1.38379 28.2061 -1.62891 58.7676 13.4238 83.6406c13.5527 22.3916 49.875 19.3477 56.1055 -6.85449z" />
    <glyph glyph-name="at" unicode="@" horiz-adv-x="632" 
d="M578.645 367.63c8.46387 -63.9727 -0.910156 -129.751 -26.8701 -188.768c-27.3506 -62.1699 -84.6904 -136.164 -161.865 -109.39c-27.0713 9.39062 -50.0117 31.3594 -61.9824 57.4863c-12.9902 -14.7324 -27.2344 -28.0195 -43.3848 -38.7324
c-25.7041 -17.0498 -60.6904 -22.2988 -86.6025 -2.76758c-19.0918 14.3916 -26.6279 39.0732 -28.1143 62.0205c-3.60254 55.666 9.23047 112.352 33.2715 162.421c20.9287 43.5791 59.6816 106.573 117.522 95.9521c52.4482 -9.63281 54.8682 -81.9668 61.3066 -122.267
c0.0683594 -0.412109 0.0957031 -0.807617 0.125977 -1.20312c15.376 -3.70508 29.9551 -18.4775 25.6602 -35.5781c-7.17188 -28.5508 -16.3174 -66.0869 -0.59668 -93.543c2.0791 -3.63379 4.73438 -7.44141 7.63477 -10.1748
c2.56641 -2.41992 8.34375 -4.64551 9.2334 -5.89258c1.7627 1.88184 6.1875 3.29688 9.00293 5.59082c40.6885 33.1523 62.0566 93.3174 70.2305 143.274c7.8125 47.7646 4.40723 99.1289 -11.6504 144.934c-8.70215 24.832 -21.75 45.3076 -38.7383 65.2207
c-14.9707 17.5439 -38.1221 24.8115 -60.5742 27.1094c-53.335 5.46094 -102.33 -20.291 -143.155 -52.209c-41.1865 -32.2012 -76.6562 -72.7402 -103.762 -117.38c-53.9922 -88.917 -82.9209 -213.577 -32.9062 -310.61
c25.0332 -48.5664 70.0166 -80.0078 124.67 -84.6367c57.8613 -4.90137 112.822 19.6406 160.458 50.1338c17.3906 11.1328 40.6543 -11.749 20.8945 -24.4531c-64.5732 -41.5098 -141.563 -70.0332 -218.769 -51.3438c-69.7236 16.876 -119.098 73.0195 -138.247 140.756
c-35.1191 124.227 14.6396 260.404 94.708 356.278c40.6787 48.709 92.0088 92.3389 151.564 115.712c60.4893 23.7373 122.387 19.8408 180.248 -8.95215c59.7432 -29.7295 82.5635 -107.596 90.6865 -168.988zM335.935 264.319
c3.69141 5.83887 8.51562 10.416 14.0439 13.6504c-0.251953 0.695312 -0.476562 1.41406 -0.626953 2.19141c-4.59473 23.584 -6.09766 51.749 -17.1621 73.4521c-11.2344 22.0332 -35.541 4.87793 -46.2168 -8.91992
c-28.7207 -37.123 -44.4033 -87.1143 -49.7578 -133.147c-2.4541 -21.1025 -3.41504 -45.2695 1.86523 -66.0244c0.463867 -1.81348 2.29102 -5.31445 3.48438 -8.22168c0.217773 0.15332 0.456055 0.276367 0.673828 0.429688
c3.70898 2.69238 7.05957 5.78418 10.373 8.95801c34.6484 33.2002 57.9121 77.4443 83.3232 117.632zM422.747 136.895c-1.95312 -0.272461 -1.32227 -2.31445 0.999023 0.0712891c-0.303711 -0.00683594 -0.600586 -0.0136719 -0.999023 -0.0712891zM424.155 136.993
c1.13867 -1.56152 2.45801 -0.0507812 0 0z" />
    <glyph glyph-name="A" unicode="A" horiz-adv-x="557" 
d="M242.534 212.854c-8.49805 82.2803 -10.7998 164.832 -10.1416 247.494c-16.1191 -1.49609 -32.2422 -2.78125 -48.4365 -3.8418c-4.88477 -0.320312 -8.77051 0.978516 -11.709 3.11523c-52.6357 -115.732 -107.184 -230.954 -148.318 -351.347
c-23.7549 -69.5322 -44.3945 -141.235 -53.1035 -214.37c-4.44531 -37.3281 -5.19531 -75.126 -0.59668 -112.481c2.18457 -17.7354 4.56055 -36.7754 13.0312 -52.7891c6.40527 -12.1143 21.5459 -27.126 36.3086 -18.7715
c16.416 9.28809 38.0371 -11.8799 19.2314 -22.5078c-31.874 -18.0107 -68.5371 -2.65527 -85.417 28.1855c-19.8965 36.3594 -20.0605 86.6777 -19.0654 126.94c1.9834 80.2217 21.6514 158.909 45.7842 235.051c23.7822 75.0303 53.2051 148.169 84.7451 220.237
c57.5068 131.402 122.996 259.358 174.934 393.119c0.848633 11.6475 1.78223 23.291 2.84863 34.9209c2.29395 25.0332 33.3398 38.5723 54.7529 38.3779c22.2754 -0.201172 48.9141 -14.3574 50.6016 -39.4111c5.67871 -84.3867 0.821289 -168.951 -0.201172 -253.42
c-0.899414 -74.3828 -0.851562 -148.99 3.63379 -223.268c3.84863 -63.7373 8.29004 -130.185 29.6758 -190.861c9.35352 -26.5391 17.4248 -52.3867 35.957 -74.123c10.792 -12.6592 20.9873 -16.4326 37.4404 -12.5225c13.9375 3.31348 26.6074 11.4971 37.0068 21.1436
c22.3848 20.7588 34.8672 50.5059 44.4043 78.8965c11.2275 33.4219 20.9561 67.3887 31.3047 101.09c4.72461 15.3867 34.2773 12.8779 29.3584 -3.70117c-12.1621 -41.0127 -22.7422 -82.9697 -37.9414 -122.99c-12.9971 -34.2256 -32.3174 -66.5703 -63.7959 -86.6982
c-25.8848 -16.5518 -57.2578 -23.168 -87.7988 -20.1953c-37.5664 3.65723 -67.1973 28.7617 -91.1328 56.1602c-51.3135 58.7305 -65.6055 143.482 -73.3604 218.567zM192.724 504.956c-2.84277 -6.35352 -5.70703 -12.7002 -8.57324 -19.0508
c16.1875 0.494141 32.3311 0.777344 48.4951 0.832031c0.412109 38.7148 1.08691 77.4541 2.48145 116.155c-13.6758 -32.835 -27.876 -65.459 -42.4033 -97.9365z" />
    <glyph glyph-name="A" unicode="&#xc5;" horiz-adv-x="557" 
d="M242.534 212.854c-8.49805 82.2803 -10.7998 164.832 -10.1416 247.494c-16.1191 -1.49609 -32.2422 -2.78125 -48.4365 -3.8418c-4.88477 -0.320312 -8.77051 0.978516 -11.709 3.11523c-52.6357 -115.732 -107.184 -230.954 -148.318 -351.347
c-23.7549 -69.5322 -44.3945 -141.235 -53.1035 -214.37c-4.44531 -37.3281 -5.19531 -75.126 -0.59668 -112.481c2.18457 -17.7354 4.56055 -36.7754 13.0312 -52.7891c6.40527 -12.1143 21.5459 -27.126 36.3086 -18.7715
c16.416 9.28809 38.0371 -11.8799 19.2314 -22.5078c-31.874 -18.0107 -68.5371 -2.65527 -85.417 28.1855c-19.8965 36.3594 -20.0605 86.6777 -19.0654 126.94c1.9834 80.2217 21.6514 158.909 45.7842 235.051c23.7822 75.0303 53.2051 148.169 84.7451 220.237
c57.5068 131.402 122.996 259.358 174.934 393.119c0.848633 11.6475 1.78223 23.291 2.84863 34.9209c2.29395 25.0332 33.3398 38.5723 54.7529 38.3779c22.2754 -0.201172 48.9141 -14.3574 50.6016 -39.4111c5.67871 -84.3867 0.821289 -168.951 -0.201172 -253.42
c-0.899414 -74.3828 -0.851562 -148.99 3.63379 -223.268c3.84863 -63.7373 8.29004 -130.185 29.6758 -190.861c9.35352 -26.5391 17.4248 -52.3867 35.957 -74.123c10.792 -12.6592 20.9873 -16.4326 37.4404 -12.5225c13.9375 3.31348 26.6074 11.4971 37.0068 21.1436
c22.3848 20.7588 34.8672 50.5059 44.4043 78.8965c11.2275 33.4219 20.9561 67.3887 31.3047 101.09c4.72461 15.3867 34.2773 12.8779 29.3584 -3.70117c-12.1621 -41.0127 -22.7422 -82.9697 -37.9414 -122.99c-12.9971 -34.2256 -32.3174 -66.5703 -63.7959 -86.6982
c-25.8848 -16.5518 -57.2578 -23.168 -87.7988 -20.1953c-37.5664 3.65723 -67.1973 28.7617 -91.1328 56.1602c-51.3135 58.7305 -65.6055 143.482 -73.3604 218.567zM192.724 504.956c-2.84277 -6.35352 -5.70703 -12.7002 -8.57324 -19.0508
c16.1875 0.494141 32.3311 0.777344 48.4951 0.832031c0.412109 38.7148 1.08691 77.4541 2.48145 116.155c-13.6758 -32.835 -27.876 -65.459 -42.4033 -97.9365z" />
    <glyph glyph-name="A" unicode="&#xc4;" horiz-adv-x="557" 
d="M242.534 212.854c-8.49805 82.2803 -10.7998 164.832 -10.1416 247.494c-16.1191 -1.49609 -32.2422 -2.78125 -48.4365 -3.8418c-4.88477 -0.320312 -8.77051 0.978516 -11.709 3.11523c-52.6357 -115.732 -107.184 -230.954 -148.318 -351.347
c-23.7549 -69.5322 -44.3945 -141.235 -53.1035 -214.37c-4.44531 -37.3281 -5.19531 -75.126 -0.59668 -112.481c2.18457 -17.7354 4.56055 -36.7754 13.0312 -52.7891c6.40527 -12.1143 21.5459 -27.126 36.3086 -18.7715
c16.416 9.28809 38.0371 -11.8799 19.2314 -22.5078c-31.874 -18.0107 -68.5371 -2.65527 -85.417 28.1855c-19.8965 36.3594 -20.0605 86.6777 -19.0654 126.94c1.9834 80.2217 21.6514 158.909 45.7842 235.051c23.7822 75.0303 53.2051 148.169 84.7451 220.237
c57.5068 131.402 122.996 259.358 174.934 393.119c0.848633 11.6475 1.78223 23.291 2.84863 34.9209c2.29395 25.0332 33.3398 38.5723 54.7529 38.3779c22.2754 -0.201172 48.9141 -14.3574 50.6016 -39.4111c5.67871 -84.3867 0.821289 -168.951 -0.201172 -253.42
c-0.899414 -74.3828 -0.851562 -148.99 3.63379 -223.268c3.84863 -63.7373 8.29004 -130.185 29.6758 -190.861c9.35352 -26.5391 17.4248 -52.3867 35.957 -74.123c10.792 -12.6592 20.9873 -16.4326 37.4404 -12.5225c13.9375 3.31348 26.6074 11.4971 37.0068 21.1436
c22.3848 20.7588 34.8672 50.5059 44.4043 78.8965c11.2275 33.4219 20.9561 67.3887 31.3047 101.09c4.72461 15.3867 34.2773 12.8779 29.3584 -3.70117c-12.1621 -41.0127 -22.7422 -82.9697 -37.9414 -122.99c-12.9971 -34.2256 -32.3174 -66.5703 -63.7959 -86.6982
c-25.8848 -16.5518 -57.2578 -23.168 -87.7988 -20.1953c-37.5664 3.65723 -67.1973 28.7617 -91.1328 56.1602c-51.3135 58.7305 -65.6055 143.482 -73.3604 218.567zM192.724 504.956c-2.84277 -6.35352 -5.70703 -12.7002 -8.57324 -19.0508
c16.1875 0.494141 32.3311 0.777344 48.4951 0.832031c0.412109 38.7148 1.08691 77.4541 2.48145 116.155c-13.6758 -32.835 -27.876 -65.459 -42.4033 -97.9365z" />
    <glyph glyph-name="A" unicode="&#xc3;" horiz-adv-x="557" 
d="M242.534 212.854c-8.49805 82.2803 -10.7998 164.832 -10.1416 247.494c-16.1191 -1.49609 -32.2422 -2.78125 -48.4365 -3.8418c-4.88477 -0.320312 -8.77051 0.978516 -11.709 3.11523c-52.6357 -115.732 -107.184 -230.954 -148.318 -351.347
c-23.7549 -69.5322 -44.3945 -141.235 -53.1035 -214.37c-4.44531 -37.3281 -5.19531 -75.126 -0.59668 -112.481c2.18457 -17.7354 4.56055 -36.7754 13.0312 -52.7891c6.40527 -12.1143 21.5459 -27.126 36.3086 -18.7715
c16.416 9.28809 38.0371 -11.8799 19.2314 -22.5078c-31.874 -18.0107 -68.5371 -2.65527 -85.417 28.1855c-19.8965 36.3594 -20.0605 86.6777 -19.0654 126.94c1.9834 80.2217 21.6514 158.909 45.7842 235.051c23.7822 75.0303 53.2051 148.169 84.7451 220.237
c57.5068 131.402 122.996 259.358 174.934 393.119c0.848633 11.6475 1.78223 23.291 2.84863 34.9209c2.29395 25.0332 33.3398 38.5723 54.7529 38.3779c22.2754 -0.201172 48.9141 -14.3574 50.6016 -39.4111c5.67871 -84.3867 0.821289 -168.951 -0.201172 -253.42
c-0.899414 -74.3828 -0.851562 -148.99 3.63379 -223.268c3.84863 -63.7373 8.29004 -130.185 29.6758 -190.861c9.35352 -26.5391 17.4248 -52.3867 35.957 -74.123c10.792 -12.6592 20.9873 -16.4326 37.4404 -12.5225c13.9375 3.31348 26.6074 11.4971 37.0068 21.1436
c22.3848 20.7588 34.8672 50.5059 44.4043 78.8965c11.2275 33.4219 20.9561 67.3887 31.3047 101.09c4.72461 15.3867 34.2773 12.8779 29.3584 -3.70117c-12.1621 -41.0127 -22.7422 -82.9697 -37.9414 -122.99c-12.9971 -34.2256 -32.3174 -66.5703 -63.7959 -86.6982
c-25.8848 -16.5518 -57.2578 -23.168 -87.7988 -20.1953c-37.5664 3.65723 -67.1973 28.7617 -91.1328 56.1602c-51.3135 58.7305 -65.6055 143.482 -73.3604 218.567zM192.724 504.956c-2.84277 -6.35352 -5.70703 -12.7002 -8.57324 -19.0508
c16.1875 0.494141 32.3311 0.777344 48.4951 0.832031c0.412109 38.7148 1.08691 77.4541 2.48145 116.155c-13.6758 -32.835 -27.876 -65.459 -42.4033 -97.9365z" />
    <glyph glyph-name="A" unicode="&#xc2;" horiz-adv-x="557" 
d="M242.534 212.854c-8.49805 82.2803 -10.7998 164.832 -10.1416 247.494c-16.1191 -1.49609 -32.2422 -2.78125 -48.4365 -3.8418c-4.88477 -0.320312 -8.77051 0.978516 -11.709 3.11523c-52.6357 -115.732 -107.184 -230.954 -148.318 -351.347
c-23.7549 -69.5322 -44.3945 -141.235 -53.1035 -214.37c-4.44531 -37.3281 -5.19531 -75.126 -0.59668 -112.481c2.18457 -17.7354 4.56055 -36.7754 13.0312 -52.7891c6.40527 -12.1143 21.5459 -27.126 36.3086 -18.7715
c16.416 9.28809 38.0371 -11.8799 19.2314 -22.5078c-31.874 -18.0107 -68.5371 -2.65527 -85.417 28.1855c-19.8965 36.3594 -20.0605 86.6777 -19.0654 126.94c1.9834 80.2217 21.6514 158.909 45.7842 235.051c23.7822 75.0303 53.2051 148.169 84.7451 220.237
c57.5068 131.402 122.996 259.358 174.934 393.119c0.848633 11.6475 1.78223 23.291 2.84863 34.9209c2.29395 25.0332 33.3398 38.5723 54.7529 38.3779c22.2754 -0.201172 48.9141 -14.3574 50.6016 -39.4111c5.67871 -84.3867 0.821289 -168.951 -0.201172 -253.42
c-0.899414 -74.3828 -0.851562 -148.99 3.63379 -223.268c3.84863 -63.7373 8.29004 -130.185 29.6758 -190.861c9.35352 -26.5391 17.4248 -52.3867 35.957 -74.123c10.792 -12.6592 20.9873 -16.4326 37.4404 -12.5225c13.9375 3.31348 26.6074 11.4971 37.0068 21.1436
c22.3848 20.7588 34.8672 50.5059 44.4043 78.8965c11.2275 33.4219 20.9561 67.3887 31.3047 101.09c4.72461 15.3867 34.2773 12.8779 29.3584 -3.70117c-12.1621 -41.0127 -22.7422 -82.9697 -37.9414 -122.99c-12.9971 -34.2256 -32.3174 -66.5703 -63.7959 -86.6982
c-25.8848 -16.5518 -57.2578 -23.168 -87.7988 -20.1953c-37.5664 3.65723 -67.1973 28.7617 -91.1328 56.1602c-51.3135 58.7305 -65.6055 143.482 -73.3604 218.567zM192.724 504.956c-2.84277 -6.35352 -5.70703 -12.7002 -8.57324 -19.0508
c16.1875 0.494141 32.3311 0.777344 48.4951 0.832031c0.412109 38.7148 1.08691 77.4541 2.48145 116.155c-13.6758 -32.835 -27.876 -65.459 -42.4033 -97.9365z" />
    <glyph glyph-name="A" unicode="&#xc1;" horiz-adv-x="557" 
d="M242.534 212.854c-8.49805 82.2803 -10.7998 164.832 -10.1416 247.494c-16.1191 -1.49609 -32.2422 -2.78125 -48.4365 -3.8418c-4.88477 -0.320312 -8.77051 0.978516 -11.709 3.11523c-52.6357 -115.732 -107.184 -230.954 -148.318 -351.347
c-23.7549 -69.5322 -44.3945 -141.235 -53.1035 -214.37c-4.44531 -37.3281 -5.19531 -75.126 -0.59668 -112.481c2.18457 -17.7354 4.56055 -36.7754 13.0312 -52.7891c6.40527 -12.1143 21.5459 -27.126 36.3086 -18.7715
c16.416 9.28809 38.0371 -11.8799 19.2314 -22.5078c-31.874 -18.0107 -68.5371 -2.65527 -85.417 28.1855c-19.8965 36.3594 -20.0605 86.6777 -19.0654 126.94c1.9834 80.2217 21.6514 158.909 45.7842 235.051c23.7822 75.0303 53.2051 148.169 84.7451 220.237
c57.5068 131.402 122.996 259.358 174.934 393.119c0.848633 11.6475 1.78223 23.291 2.84863 34.9209c2.29395 25.0332 33.3398 38.5723 54.7529 38.3779c22.2754 -0.201172 48.9141 -14.3574 50.6016 -39.4111c5.67871 -84.3867 0.821289 -168.951 -0.201172 -253.42
c-0.899414 -74.3828 -0.851562 -148.99 3.63379 -223.268c3.84863 -63.7373 8.29004 -130.185 29.6758 -190.861c9.35352 -26.5391 17.4248 -52.3867 35.957 -74.123c10.792 -12.6592 20.9873 -16.4326 37.4404 -12.5225c13.9375 3.31348 26.6074 11.4971 37.0068 21.1436
c22.3848 20.7588 34.8672 50.5059 44.4043 78.8965c11.2275 33.4219 20.9561 67.3887 31.3047 101.09c4.72461 15.3867 34.2773 12.8779 29.3584 -3.70117c-12.1621 -41.0127 -22.7422 -82.9697 -37.9414 -122.99c-12.9971 -34.2256 -32.3174 -66.5703 -63.7959 -86.6982
c-25.8848 -16.5518 -57.2578 -23.168 -87.7988 -20.1953c-37.5664 3.65723 -67.1973 28.7617 -91.1328 56.1602c-51.3135 58.7305 -65.6055 143.482 -73.3604 218.567zM192.724 504.956c-2.84277 -6.35352 -5.70703 -12.7002 -8.57324 -19.0508
c16.1875 0.494141 32.3311 0.777344 48.4951 0.832031c0.412109 38.7148 1.08691 77.4541 2.48145 116.155c-13.6758 -32.835 -27.876 -65.459 -42.4033 -97.9365z" />
    <glyph glyph-name="B" unicode="B" horiz-adv-x="511" 
d="M276.523 139.102c19.6162 -2.21582 39.0166 -5.45996 58.4453 -8.24121c10.5293 33.4932 12.7344 70.1562 7.36621 103.599c-4.49609 28.0049 -16.7158 56.457 -39.1348 74.751c-24.7197 20.1719 -54.1289 17.4619 -84.2852 16.7939
c-15.8232 -0.351562 -30.9434 3.70508 -39.9492 17.585c-7.78906 12.0049 -6.04004 29.085 4.50293 39.1846c48.8867 46.8242 95.9424 94.9131 130.632 153.466c7.98633 13.4775 18.4375 27.4424 22.0742 42.9375c3.34375 14.2441 1.81641 40.1807 -17.1221 42.8867
c-14.3604 2.05176 -30.1455 -13.9316 -39.0283 -22.9854c-11.4629 -11.6816 -21.5527 -24.6006 -30.582 -38.2354c-35.8447 -54.1387 -61.5215 -115.453 -82.0479 -176.815c-37.9717 -113.521 -68.2979 -237.744 -59.9199 -358.661
c0.249023 -2.23242 0.477539 -4.46484 0.729492 -6.69434c3.44922 -30.6367 10.4199 -68.0293 2.37598 -98.2061c-6.0127 -22.5615 -39.7236 -30.415 -54.8242 -11.9912c-20.9766 25.5918 -29.457 62.7695 -37.1738 94.2314
c-7.82617 31.9082 -14.4111 63.8711 -19.5918 96.3076c-10.3242 64.6201 -16.5244 129.455 -19.1768 194.839c-5.33789 131.617 0.249023 266.789 28.3564 395.791c11.8555 54.4082 106.25 46.0566 100.009 -12.6162c-13.2969 -125.018 -24.5928 -249.337 -21.6445 -375.237
c0.736328 -31.4512 2.12402 -62.9434 4.09082 -94.4053c2.53906 14.0771 5.33105 28.1035 8.36816 42.0518c16.3408 75.0098 37.5254 149.338 67.8926 219.954c15.1611 35.2549 32.3955 70.1797 53.6006 102.23c18.1133 27.3818 40.7734 57.8408 71.6045 71.6152
c27.4736 12.2744 59.1494 5.03809 72.3955 -23.6182c7.93848 -17.1729 5.05859 -35.1943 3.24902 -53.2773c-1.5957 -15.915 -2.47852 -31.5771 -7.25391 -46.9707c-14.3369 -46.2002 -40.2803 -86.6914 -69.3594 -124.919
c26.209 -5.25293 51.0439 -15.833 71.8506 -33.5713c39.3154 -33.5234 60.3496 -81.6494 65.0771 -132.652c3.09863 -33.459 0.214844 -68.5195 -8.68848 -101.941c39.0352 2.9209 76.417 13.3789 109.163 35.8008c15.0557 10.3076 35.4424 -9.86133 18.3994 -21.5322
c-40.6475 -27.8311 -88.2354 -39.9688 -136.665 -42.3994c-13.1504 -34.2803 -33.1348 -65.6562 -60.0967 -90.1816c-32.876 -29.8965 -73.5068 -50.2393 -118.644 -50.9688c-43.6436 -0.706055 -94.0742 19.8135 -104.286 66.6885
c-7.50195 34.4336 -4.34863 67.9434 25.2617 91.1426c34.7539 27.2275 82.001 29.0137 124.029 24.2656zM235.653 25.5342c27.0986 5.79785 49.5615 23.9746 66.5879 44.1533c8.51465 10.0898 15.6416 21.3242 21.5586 33.2676
c-36.4824 5.375 -73.9463 13.5488 -110.493 6.37695c-26.1777 -5.13672 -60.5879 -29.1201 -41.9873 -59.7939c12.8301 -21.1611 41.585 -28.8711 64.334 -24.0039z" />
    <glyph glyph-name="C" unicode="C" horiz-adv-x="349" 
d="M386.817 170.982c-12.0869 -60.5469 -37.3594 -127.853 -81.2285 -172.614c-20.833 -21.2598 -46.7285 -38.6025 -75.248 -47.584c-28.2979 -8.91309 -57.793 -16.8105 -87.2812 -10.1191c-129.166 29.3174 -162.874 188.555 -169.02 301.145
c-3.60645 66.0488 2.21875 132.602 17.0459 197.055c14.3027 62.1631 35.3711 121.96 77.7402 170.788c36.9219 42.5459 104.859 64.1465 153.534 27.8721c43.4873 -32.4092 57.1387 -90.2129 52.9395 -141.696c-3.92969 -48.167 -20.127 -105.731 -57.877 -138.651
c-29.5664 -25.7861 -92.3262 -36.9189 -105.037 12.2949c-4.37012 16.9199 27.248 20.4033 31.6211 3.32227c6.47949 -25.3125 44.332 -4.12793 54.3262 5.59668c15.3691 14.957 25.3525 35.4736 32.2793 55.5059c16.3203 47.2129 21.542 104.15 -4.4043 149.049
c-9.0332 15.6318 -29.0176 38.0977 -49.5273 32.5244c-14.7598 -4.00879 -23.1826 -21.4102 -31.0908 -33.2275c-24.3955 -36.4619 -38.7354 -79.584 -50.5527 -121.537c-27.1396 -96.3379 -34.6348 -198.467 -18.1777 -297.357
c7.14453 -42.9453 15.3486 -86.7148 37.0518 -125.109c9.82715 -17.3809 24.3516 -33.2236 40.7979 -44.5645c12.6191 -8.70215 32.5557 -18.4883 47.9863 -18.8398c20.0186 -0.457031 42.5293 13.5049 58.1201 24.8145c18.3789 13.335 33.5 30.79 45.5732 49.9258
c25.125 39.8125 35.8857 84.8574 53.1533 128.065c5.12988 12.8301 30.2139 8.07129 27.2754 -6.65723z" />
    <glyph glyph-name="D" unicode="D" horiz-adv-x="509" 
d="M385.31 82.9785c-29.6309 -66.7607 -100.146 -114.774 -174.55 -92.915c-62.4219 18.3418 -81.667 91.5176 -47.5469 143.499c34.6143 52.7314 96.1504 60.7012 152.71 47.7959c0.105469 0.484375 0.224609 0.982422 0.330078 1.4668
c13.4404 61.3486 17.6328 123.348 21.3213 185.858c3.32324 56.3516 2.51562 115.835 -11.5078 170.822c-5.93457 23.2676 -11.6475 54.334 -33.749 67.7334c-29.4639 17.8613 -56.3408 -9.73145 -72 -32.7734c-33.5068 -49.2988 -50.2734 -111.533 -65.002 -168.597
c-30.6738 -118.838 -48.375 -241.541 -55.2949 -364.091c0.116211 -1.85059 0.246094 -3.70117 0.362305 -5.55566c1.41504 -22.5107 6.43555 -49.7627 -2.51855 -71.002c-2.7373 -23.1445 -39.1104 -39.4004 -54.1631 -16.5391l-2.12695 3.23145
c-18.918 14.7256 -26.127 41.1318 -32.498 63.9629c-7.91113 28.3496 -13.3447 57.3369 -17.3086 86.4736c-7.73047 56.8047 -11.8857 113.715 -13.2119 171.023c-2.69238 116.36 4.01953 233.518 26.8164 347.768c11.375 57.0156 112.399 48.1875 104.72 -13.208
c-13.5488 -108.322 -23.5459 -217.146 -22.5234 -326.408c0.201172 -21.3955 0.722656 -42.8154 1.52734 -64.2314c2.63867 18.5049 5.49512 36.9795 8.67578 55.4102c14.0059 81.1689 31.7344 162.451 60.9326 239.643c18.458 48.8047 50.2402 123.535 111.957 126.344
c30.0234 1.36719 59.791 -19.5479 80.6377 -39.2637c24.2588 -22.9473 40.4561 -54.2959 51.2373 -85.6006c23.1885 -67.3232 27.3467 -137.562 24.4971 -208.157c-2.09961 -52.002 -6.37012 -104.761 -18.9375 -155.393c40.2656 -12.3291 81.6357 -16.9141 112.515 14.2881
c12.6191 12.752 39.6904 -2.34473 25.0918 -17.1582c-38.9131 -39.4893 -95.4072 -38.4697 -145.351 -24.6035c-4.28418 -13.4883 -9.25391 -26.7822 -15.042 -39.8232zM246.24 54.2344c33.8135 19.9541 51.4902 59.374 62.5645 98.5898
c-40.2285 10.0586 -80.5527 10.168 -109.379 -26.0859c-13.7021 -17.2305 -24.1904 -53.4746 -1.63867 -69.2188c13.583 -9.48242 35.1562 -11.1318 48.4531 -3.28516z" />
    <glyph glyph-name="E" unicode="E" horiz-adv-x="376" 
d="M6.46973 38.0391c-36.1514 66.3486 -26.5977 155.385 20.5166 214.152c-19.5381 24.293 -34.4375 52.5947 -43.1328 82.0859c-24.0508 81.582 -7.47852 171.787 43.2588 240.171c27.9775 37.71 61.1436 68.6465 108.52 78.2314
c38.0439 7.69629 77.3145 -1.23438 106.049 -27.8623c60.3359 -55.915 54.4492 -148.415 19.6299 -216.809c-15.3418 -30.1387 -39.6865 -57.5 -72.5322 -68.4521c-27.2959 -9.10059 -73.8096 -7.32129 -83.5449 26.3965c-5.12988 17.7725 25.0332 26.7881 29.7402 10.3516
c4.53027 -15.8027 24.6377 -16.5322 38.1289 -13.2158c15.7783 3.87891 29.2148 13.7744 39.9043 25.7148c22.4121 25.0332 34.9424 59.835 40.2598 92.5684c5.04785 31.0664 2.43359 64.2148 -12.707 92.2676c-13.709 25.3975 -45.7803 54.7793 -76.4131 38.5098
c-22.0879 -11.7324 -39.6768 -41.5166 -51.8457 -62.5371c-16.0166 -27.6709 -29.0752 -57.2236 -36.7344 -88.3242c-12.459 -50.5771 -6.78711 -92.9424 15.498 -136.549c2.44727 -4.78906 5.20117 -9.37012 7.8125 -14.0635
c0.183594 -0.331055 0.320312 -0.580078 0.443359 -0.81543c0.402344 -0.525391 0.90332 -1.19727 1.59863 -2.14844c3.82129 -5.23242 7.59082 -10.4541 11.7529 -15.4238c3.35059 -4.00488 6.92285 -7.75391 10.498 -11.5479
c6.4043 -6.7998 -0.205078 -0.00292969 -4.11816 3.42285c21.0684 -18.4375 22.3633 -45.1504 -0.552734 -62.3574c-2.51855 -3.39453 -7.84668 -6.72168 -10.6143 -9.64258c-2.55664 -2.69238 -4.89844 -5.55566 -7.33887 -8.34766
c-0.633789 -0.725586 -1.09082 -1.22656 -1.45508 -1.61816c-0.173828 -0.313477 -0.388672 -0.68457 -0.708984 -1.20605c-5.32422 -8.70605 -10.502 -17.2754 -14.4121 -26.748c-0.214844 -0.52832 -0.624023 -1.68066 -0.930664 -2.55371
c-0.667969 -2.01465 -1.28809 -4.05273 -1.83984 -6.09766c-1.43848 -5.33789 -2.70996 -10.6963 -3.69531 -16.1396c-1.75586 -9.69434 -3.0166 -19.3037 -2.84961 -29.1611c0.405273 -23.7754 5.37207 -46.2549 15.8945 -67.623
c19.9434 -40.5049 59.7393 -63.9766 101.74 -75.6953c22.7832 -6.35742 49.9639 5.06445 69.9414 15.8496c21.3447 11.5215 40.0918 26.8633 55.7305 45.3857c34.5527 40.9238 48.6035 91.4229 69.7236 139.427c5.44727 12.377 30.957 8.1709 27.2754 -6.65625
c-15.877 -63.9658 -46.0127 -132.864 -97.2744 -176.235c-21.7158 -18.376 -46.6904 -33.0361 -73.8506 -41.752c-14.2686 -4.57812 -29.0957 -6.62012 -43.5859 -10.1553c-14.9229 -3.64062 -28.8984 -6.32324 -44.3467 -5.10254
c-62.6738 4.95996 -119.689 45.7197 -149.433 100.306zM119.216 222.861c-0.180664 -0.331055 -0.428711 -0.657227 -0.666992 -0.981445c0.251953 0.320312 0.483398 0.647461 0.666992 0.981445zM116.118 220.033c-5.95117 -3.99805 -0.34082 -1.62598 2.36523 1.76172
c-0.787109 -0.589844 -1.52344 -1.19629 -2.36523 -1.76172z" />
    <glyph glyph-name="E" unicode="&#xcb;" horiz-adv-x="376" 
d="M6.46973 38.0391c-36.1514 66.3486 -26.5977 155.385 20.5166 214.152c-19.5381 24.293 -34.4375 52.5947 -43.1328 82.0859c-24.0508 81.582 -7.47852 171.787 43.2588 240.171c27.9775 37.71 61.1436 68.6465 108.52 78.2314
c38.0439 7.69629 77.3145 -1.23438 106.049 -27.8623c60.3359 -55.915 54.4492 -148.415 19.6299 -216.809c-15.3418 -30.1387 -39.6865 -57.5 -72.5322 -68.4521c-27.2959 -9.10059 -73.8096 -7.32129 -83.5449 26.3965c-5.12988 17.7725 25.0332 26.7881 29.7402 10.3516
c4.53027 -15.8027 24.6377 -16.5322 38.1289 -13.2158c15.7783 3.87891 29.2148 13.7744 39.9043 25.7148c22.4121 25.0332 34.9424 59.835 40.2598 92.5684c5.04785 31.0664 2.43359 64.2148 -12.707 92.2676c-13.709 25.3975 -45.7803 54.7793 -76.4131 38.5098
c-22.0879 -11.7324 -39.6768 -41.5166 -51.8457 -62.5371c-16.0166 -27.6709 -29.0752 -57.2236 -36.7344 -88.3242c-12.459 -50.5771 -6.78711 -92.9424 15.498 -136.549c2.44727 -4.78906 5.20117 -9.37012 7.8125 -14.0635
c0.183594 -0.331055 0.320312 -0.580078 0.443359 -0.81543c0.402344 -0.525391 0.90332 -1.19727 1.59863 -2.14844c3.82129 -5.23242 7.59082 -10.4541 11.7529 -15.4238c3.35059 -4.00488 6.92285 -7.75391 10.498 -11.5479
c6.4043 -6.7998 -0.205078 -0.00292969 -4.11816 3.42285c21.0684 -18.4375 22.3633 -45.1504 -0.552734 -62.3574c-2.51855 -3.39453 -7.84668 -6.72168 -10.6143 -9.64258c-2.55664 -2.69238 -4.89844 -5.55566 -7.33887 -8.34766
c-0.633789 -0.725586 -1.09082 -1.22656 -1.45508 -1.61816c-0.173828 -0.313477 -0.388672 -0.68457 -0.708984 -1.20605c-5.32422 -8.70605 -10.502 -17.2754 -14.4121 -26.748c-0.214844 -0.52832 -0.624023 -1.68066 -0.930664 -2.55371
c-0.667969 -2.01465 -1.28809 -4.05273 -1.83984 -6.09766c-1.43848 -5.33789 -2.70996 -10.6963 -3.69531 -16.1396c-1.75586 -9.69434 -3.0166 -19.3037 -2.84961 -29.1611c0.405273 -23.7754 5.37207 -46.2549 15.8945 -67.623
c19.9434 -40.5049 59.7393 -63.9766 101.74 -75.6953c22.7832 -6.35742 49.9639 5.06445 69.9414 15.8496c21.3447 11.5215 40.0918 26.8633 55.7305 45.3857c34.5527 40.9238 48.6035 91.4229 69.7236 139.427c5.44727 12.377 30.957 8.1709 27.2754 -6.65625
c-15.877 -63.9658 -46.0127 -132.864 -97.2744 -176.235c-21.7158 -18.376 -46.6904 -33.0361 -73.8506 -41.752c-14.2686 -4.57812 -29.0957 -6.62012 -43.5859 -10.1553c-14.9229 -3.64062 -28.8984 -6.32324 -44.3467 -5.10254
c-62.6738 4.95996 -119.689 45.7197 -149.433 100.306zM119.216 222.861c-0.180664 -0.331055 -0.428711 -0.657227 -0.666992 -0.981445c0.251953 0.320312 0.483398 0.647461 0.666992 0.981445zM116.118 220.033c-5.95117 -3.99805 -0.34082 -1.62598 2.36523 1.76172
c-0.787109 -0.589844 -1.52344 -1.19629 -2.36523 -1.76172z" />
    <glyph glyph-name="E" unicode="&#xca;" horiz-adv-x="376" 
d="M6.46973 38.0391c-36.1514 66.3486 -26.5977 155.385 20.5166 214.152c-19.5381 24.293 -34.4375 52.5947 -43.1328 82.0859c-24.0508 81.582 -7.47852 171.787 43.2588 240.171c27.9775 37.71 61.1436 68.6465 108.52 78.2314
c38.0439 7.69629 77.3145 -1.23438 106.049 -27.8623c60.3359 -55.915 54.4492 -148.415 19.6299 -216.809c-15.3418 -30.1387 -39.6865 -57.5 -72.5322 -68.4521c-27.2959 -9.10059 -73.8096 -7.32129 -83.5449 26.3965c-5.12988 17.7725 25.0332 26.7881 29.7402 10.3516
c4.53027 -15.8027 24.6377 -16.5322 38.1289 -13.2158c15.7783 3.87891 29.2148 13.7744 39.9043 25.7148c22.4121 25.0332 34.9424 59.835 40.2598 92.5684c5.04785 31.0664 2.43359 64.2148 -12.707 92.2676c-13.709 25.3975 -45.7803 54.7793 -76.4131 38.5098
c-22.0879 -11.7324 -39.6768 -41.5166 -51.8457 -62.5371c-16.0166 -27.6709 -29.0752 -57.2236 -36.7344 -88.3242c-12.459 -50.5771 -6.78711 -92.9424 15.498 -136.549c2.44727 -4.78906 5.20117 -9.37012 7.8125 -14.0635
c0.183594 -0.331055 0.320312 -0.580078 0.443359 -0.81543c0.402344 -0.525391 0.90332 -1.19727 1.59863 -2.14844c3.82129 -5.23242 7.59082 -10.4541 11.7529 -15.4238c3.35059 -4.00488 6.92285 -7.75391 10.498 -11.5479
c6.4043 -6.7998 -0.205078 -0.00292969 -4.11816 3.42285c21.0684 -18.4375 22.3633 -45.1504 -0.552734 -62.3574c-2.51855 -3.39453 -7.84668 -6.72168 -10.6143 -9.64258c-2.55664 -2.69238 -4.89844 -5.55566 -7.33887 -8.34766
c-0.633789 -0.725586 -1.09082 -1.22656 -1.45508 -1.61816c-0.173828 -0.313477 -0.388672 -0.68457 -0.708984 -1.20605c-5.32422 -8.70605 -10.502 -17.2754 -14.4121 -26.748c-0.214844 -0.52832 -0.624023 -1.68066 -0.930664 -2.55371
c-0.667969 -2.01465 -1.28809 -4.05273 -1.83984 -6.09766c-1.43848 -5.33789 -2.70996 -10.6963 -3.69531 -16.1396c-1.75586 -9.69434 -3.0166 -19.3037 -2.84961 -29.1611c0.405273 -23.7754 5.37207 -46.2549 15.8945 -67.623
c19.9434 -40.5049 59.7393 -63.9766 101.74 -75.6953c22.7832 -6.35742 49.9639 5.06445 69.9414 15.8496c21.3447 11.5215 40.0918 26.8633 55.7305 45.3857c34.5527 40.9238 48.6035 91.4229 69.7236 139.427c5.44727 12.377 30.957 8.1709 27.2754 -6.65625
c-15.877 -63.9658 -46.0127 -132.864 -97.2744 -176.235c-21.7158 -18.376 -46.6904 -33.0361 -73.8506 -41.752c-14.2686 -4.57812 -29.0957 -6.62012 -43.5859 -10.1553c-14.9229 -3.64062 -28.8984 -6.32324 -44.3467 -5.10254
c-62.6738 4.95996 -119.689 45.7197 -149.433 100.306zM119.216 222.861c-0.180664 -0.331055 -0.428711 -0.657227 -0.666992 -0.981445c0.251953 0.320312 0.483398 0.647461 0.666992 0.981445zM116.118 220.033c-5.95117 -3.99805 -0.34082 -1.62598 2.36523 1.76172
c-0.787109 -0.589844 -1.52344 -1.19629 -2.36523 -1.76172z" />
    <glyph glyph-name="E" unicode="&#xc9;" horiz-adv-x="376" 
d="M6.46973 38.0391c-36.1514 66.3486 -26.5977 155.385 20.5166 214.152c-19.5381 24.293 -34.4375 52.5947 -43.1328 82.0859c-24.0508 81.582 -7.47852 171.787 43.2588 240.171c27.9775 37.71 61.1436 68.6465 108.52 78.2314
c38.0439 7.69629 77.3145 -1.23438 106.049 -27.8623c60.3359 -55.915 54.4492 -148.415 19.6299 -216.809c-15.3418 -30.1387 -39.6865 -57.5 -72.5322 -68.4521c-27.2959 -9.10059 -73.8096 -7.32129 -83.5449 26.3965c-5.12988 17.7725 25.0332 26.7881 29.7402 10.3516
c4.53027 -15.8027 24.6377 -16.5322 38.1289 -13.2158c15.7783 3.87891 29.2148 13.7744 39.9043 25.7148c22.4121 25.0332 34.9424 59.835 40.2598 92.5684c5.04785 31.0664 2.43359 64.2148 -12.707 92.2676c-13.709 25.3975 -45.7803 54.7793 -76.4131 38.5098
c-22.0879 -11.7324 -39.6768 -41.5166 -51.8457 -62.5371c-16.0166 -27.6709 -29.0752 -57.2236 -36.7344 -88.3242c-12.459 -50.5771 -6.78711 -92.9424 15.498 -136.549c2.44727 -4.78906 5.20117 -9.37012 7.8125 -14.0635
c0.183594 -0.331055 0.320312 -0.580078 0.443359 -0.81543c0.402344 -0.525391 0.90332 -1.19727 1.59863 -2.14844c3.82129 -5.23242 7.59082 -10.4541 11.7529 -15.4238c3.35059 -4.00488 6.92285 -7.75391 10.498 -11.5479
c6.4043 -6.7998 -0.205078 -0.00292969 -4.11816 3.42285c21.0684 -18.4375 22.3633 -45.1504 -0.552734 -62.3574c-2.51855 -3.39453 -7.84668 -6.72168 -10.6143 -9.64258c-2.55664 -2.69238 -4.89844 -5.55566 -7.33887 -8.34766
c-0.633789 -0.725586 -1.09082 -1.22656 -1.45508 -1.61816c-0.173828 -0.313477 -0.388672 -0.68457 -0.708984 -1.20605c-5.32422 -8.70605 -10.502 -17.2754 -14.4121 -26.748c-0.214844 -0.52832 -0.624023 -1.68066 -0.930664 -2.55371
c-0.667969 -2.01465 -1.28809 -4.05273 -1.83984 -6.09766c-1.43848 -5.33789 -2.70996 -10.6963 -3.69531 -16.1396c-1.75586 -9.69434 -3.0166 -19.3037 -2.84961 -29.1611c0.405273 -23.7754 5.37207 -46.2549 15.8945 -67.623
c19.9434 -40.5049 59.7393 -63.9766 101.74 -75.6953c22.7832 -6.35742 49.9639 5.06445 69.9414 15.8496c21.3447 11.5215 40.0918 26.8633 55.7305 45.3857c34.5527 40.9238 48.6035 91.4229 69.7236 139.427c5.44727 12.377 30.957 8.1709 27.2754 -6.65625
c-15.877 -63.9658 -46.0127 -132.864 -97.2744 -176.235c-21.7158 -18.376 -46.6904 -33.0361 -73.8506 -41.752c-14.2686 -4.57812 -29.0957 -6.62012 -43.5859 -10.1553c-14.9229 -3.64062 -28.8984 -6.32324 -44.3467 -5.10254
c-62.6738 4.95996 -119.689 45.7197 -149.433 100.306zM119.216 222.861c-0.180664 -0.331055 -0.428711 -0.657227 -0.666992 -0.981445c0.251953 0.320312 0.483398 0.647461 0.666992 0.981445zM116.118 220.033c-5.95117 -3.99805 -0.34082 -1.62598 2.36523 1.76172
c-0.787109 -0.589844 -1.52344 -1.19629 -2.36523 -1.76172z" />
    <glyph glyph-name="F" unicode="F" horiz-adv-x="438" 
d="M440.109 674.755c-40.416 17.5303 -88.8281 9.52148 -129.5 -2.77344c-18.0215 -5.44336 -35.5625 -12.0225 -52.7656 -19.3779c13.9512 -6.07422 26.2295 -17.1826 25.4834 -32.5039c-5.92383 -121.766 -11.6025 -243.296 -13.3242 -365.219
c-0.217773 -15.5811 -0.302734 -31.1582 -0.245117 -46.7324c15.3555 0.651367 30.7217 1.17676 46.0977 1.56152c21.3887 0.535156 24.7188 -28.3633 3.03613 -28.9053c-16.2832 -0.40918 -32.5596 -0.995117 -48.8291 -1.7207
c0.576172 -35.4189 1.9707 -70.8213 4.47559 -106.186c1.875 -26.4199 4.46191 -53.082 8.42285 -79.2773c3.62988 -24.0303 13.7607 -54.6094 7.38965 -78.6396c-3.87598 -14.623 -19.8457 -23.8369 -34.6523 -21.4541c-31.9014 5.13672 -52.8711 39.707 -63.8535 67.6436
c-11.0273 28.0498 -17.3438 57.7461 -21.8809 87.4385c-6.26465 41.002 -8.78711 82.2969 -9.73438 123.674c-10.5049 -0.800781 -21.0068 -1.63574 -31.5049 -2.49805c-0.746094 -0.183594 -1.51953 -0.30957 -2.32031 -0.353516
c-2.65527 -0.139648 -5.30762 -0.303711 -7.95996 -0.487305c-20.0088 -1.3125 -22.8105 24.4053 -2.82617 26.877c14.7119 1.82031 29.4404 3.40234 44.1797 4.82715c-0.0888672 10.9043 -0.109375 21.8154 -0.0859375 32.7227
c0.0410156 20.1172 0.249023 40.2617 0.59668 60.4238c-16.6514 72.0312 -16.8896 156.285 -68.3525 214.003c-11.9541 13.4062 -27.4668 24.5801 -44.5576 31.002c-14.9463 -7.41699 -30.3262 -13.5693 -46.1592 -16.7705
c-13.3174 -2.68945 -29.8252 -2.04199 -39.3418 9.32617c-8.75293 10.458 -5.0918 23.6357 5.59082 31.2061c20.2646 14.3643 50.54 14.6436 75.5898 9.35645c6.19727 3.375 12.3564 6.81738 18.4922 10.2119c60.4619 33.4619 119.076 70.5547 182.742 97.8545
c60.2236 25.8232 131.231 46.5029 196.373 27.6533c27.8174 -8.04785 52.6973 -24.7773 66.4785 -50.7305c13.8359 -26.0557 13.6553 -57.3125 7.83008 -85.5156c-3.91699 -18.9688 -39.2168 -15.8701 -35.0107 4.41406c8.17383 39.4277 0.511719 81.4287 -39.874 98.9492z
M165.828 439.855c3.4873 58.5127 8.59375 116.899 15.6426 174.873c-26.3516 -14.4932 -52.3018 -29.7744 -78.3574 -44.5576c-7.07617 -4.01562 -14.2686 -8.26953 -21.5596 -12.5371c21.1406 -11.7324 39.1553 -28.8604 52.7998 -48.8828
c14.6533 -21.502 24.3643 -44.7451 31.4746 -68.8955z" />
    <glyph glyph-name="G" unicode="G" horiz-adv-x="429" 
d="M250.795 63.9619c0.0478516 22.0195 0.261719 44.1152 0.0537109 66.1592c-14.4424 -29.7031 -32.4873 -57.6133 -54.3838 -81.8555c-20.4893 -22.6777 -43.4902 -34.0723 -71.915 -43.5c-32.1943 -10.6787 -62.2891 1.52441 -87.0664 22.8555
c-48.7979 42.0107 -61.0723 109.866 -65.3027 171.16c-4.00879 58.0723 2.38281 118.889 16.0752 175.387c27.1943 112.208 95.8916 229.141 211.976 266.101c46.8994 14.9297 104.662 13.4844 143.013 -20.9395c39.543 -35.501 48.0879 -98.2744 38.8271 -148.108
c-9.18652 -49.4424 -39.458 -104.096 -91.1328 -118.333c-48.6514 -13.4062 -104.212 16.1357 -98.8643 71.3789c1.875 19.334 38.1934 16.4912 35.4834 -4.47559c-3.36426 -26.0312 20.6865 -44.6152 45.1328 -42.2158c25.2988 2.48535 44.7314 22.8008 56.8896 43.6104
c24.8184 42.4785 31.0391 100.104 10.71 145.664c-17.1387 38.4082 -58.4746 55.3145 -98.2227 42.7227c-36.3906 -11.5312 -58.4648 -48.5518 -75.9443 -79.9863c-42.0586 -75.6338 -72.7939 -148.807 -84.1309 -235.654
c-5.39551 -41.3359 -6.13184 -82.0176 -2.89355 -125.157c1.64941 -21.9785 3.89941 -44.6973 10.2773 -65.8408c4.9668 -16.46 7.95605 -34.9277 19.7188 -48.5352c4.10742 -4.75195 12.2852 -14.6338 18.1514 -15.6357c8.43262 -1.44141 20.0391 7.60156 26.3145 12.292
c16.8389 12.585 30.3164 30.0986 42.2871 47.1689c26.0996 37.2188 45.7471 78.582 58.3047 122.239c0.52832 1.83398 1.4248 3.40918 2.58398 4.72461c0.678711 1.66309 1.4043 3.28516 2.21582 4.83594c7.40039 14.1426 25.1523 14.5137 37.498 8.14258
c35.3203 -18.2295 43.8721 -72.4062 47.1582 -107.621c1.875 -20.1104 2.78516 -40.6133 2.98633 -61.1025c34.2432 21.9482 64.9785 49.1221 87.6113 83.2666c9.93652 14.9912 41.6533 5.75 30.4629 -11.3408c-29.8115 -45.5254 -71.4307 -80.6816 -118.425 -107.559
c-0.170898 -6.06738 -0.378906 -12.1211 -0.655273 -18.1338c-3.14941 -68.6699 -21.873 -153.241 -99.1533 -172.759c-30.5957 -7.72754 -67.668 -3.01367 -86.7627 24.9131c-14.8447 21.709 -14.9199 52.8232 -5.67578 76.7412
c16.082 41.6123 55.8164 60.9531 95.5576 77.3516c0.862305 13.9619 1.20996 27.958 1.24023 42.0391zM226.215 -87.8496c11.9062 19.6885 15.8057 46.8818 19.1465 69.1914c0.310547 2.08594 0.576172 4.16895 0.855469 6.25195
c-13.7266 -6.11816 -26.9043 -13.29 -37.8867 -23.4814c-14.7793 -13.7129 -30.043 -41.1084 -12.6016 -58.8506c10.877 -11.0645 23.4717 -4.71387 30.4863 6.88867z" />
    <glyph glyph-name="H" unicode="H" horiz-adv-x="663" 
d="M405.194 234.594c-1.54395 30.3232 -1.74023 60.6895 -1.18848 91.0498c-51.7529 -22.251 -110.395 -27.9844 -166.593 -27.0439c-2.01758 0.0341797 -4.03516 0.116211 -6.05273 0.164062c-0.791016 -46.1768 -0.521484 -92.4355 0.804688 -138.558
c0.821289 -28.6191 1.95605 -57.1973 2.59375 -85.8232c0.555664 -24.9648 4.29102 -56.6338 -3.5625 -80.5996c-8.13672 -24.8184 -39.9287 -36.9355 -62.1426 -20.9697c-26.335 18.9248 -31.3418 54.1865 -36.3555 84.2168
c-4.7207 28.2783 -8.0957 56.4365 -10.3867 85.0146c-4.3291 54.0195 -6.06055 107.954 -5.39258 162.104c-5.84277 0.146484 -11.6855 0.238281 -17.5312 0.248047c-38.3643 0.0644531 -83.7021 -5.4375 -106.81 -40.2529
c-10.7402 -16.1846 -45.0791 -6.46289 -33.0605 12.3086c34.6348 54.085 97.1182 61.2158 157.985 59.0107c2.80859 113.081 11.7803 227.569 38.0674 337.657c13.8291 57.9229 115.096 49.7969 107.546 -13.5625c-13.1338 -110.225 -28.0801 -220.234 -31.1582 -331.113
v-0.0410156c59.2959 -2.14062 119.707 1.13184 172.796 26.3145c1.12109 33.8203 2.98926 67.627 4.97949 101.352c4.21973 71.5234 9.62598 143.183 22.0029 213.812c4.75195 27.1191 35.9375 39.4346 60.2139 37.2803c26.918 -2.38965 43.5693 -24.416 41.6807 -50.1309
c-5.08887 -69.249 -13.2627 -138.239 -18.6758 -207.468c-9.34668 -119.544 -12.1484 -238.386 0.235352 -357.789c2.46484 -23.751 5.23926 -47.6758 18.584 -68.291c15.7646 -24.3584 41.4863 -19.1396 63.0254 -4.59473c43.998 29.7129 67.9844 92.6738 79.1719 142.17
c3.40137 15.0527 31.4512 12.6465 27.9473 -3.52441c-13.2051 -60.9121 -44.6973 -137.306 -103.029 -168.099c-53.3145 -28.1445 -120.454 -9.4043 -152.123 41.4082c-36.4277 58.4512 -40.1602 136.72 -43.5723 203.75z" />
    <glyph glyph-name="I" unicode="I" horiz-adv-x="264" 
d="M5.89453 234.594c-3.75586 73.7725 0.195312 147.814 4.54492 221.478c3.98438 67.5352 9.10449 135.183 20.0732 201.981c-14.8994 -0.651367 -29.0449 -4.2334 -40.627 -13.6035c-14.0371 -11.3545 -33.793 8.48047 -18.124 21.208
c18.7578 15.2363 42.6523 18.9922 66.4072 18.6074c11.167 17.0332 35.0273 24.624 54.4834 22.8994c20.9082 -1.85449 35.5752 -15.5771 40.2178 -33.6533c17.0908 -1.31543 34.1475 -0.896484 50.9482 3.61621c18.3047 4.91895 31.1074 -19.708 11.1299 -25.0322
c-20.5439 -5.47461 -40.9238 -6.4873 -61.4229 -5.31836c-5.11328 -65.8066 -12.7217 -131.402 -17.8691 -197.213c-9.34668 -119.544 -12.1484 -238.386 0.235352 -357.789c2.46484 -23.751 5.23926 -47.6758 18.584 -68.291
c15.7646 -24.3584 41.4863 -19.1396 63.0254 -4.59473c43.998 29.7129 67.9844 92.6738 79.1719 142.17c3.40137 15.0527 31.4512 12.6465 27.9473 -3.52441c-13.2051 -60.9121 -44.6973 -137.306 -103.029 -168.099c-53.3145 -28.1445 -120.454 -9.4043 -152.124 41.4082
c-36.4277 58.4512 -40.1602 136.72 -43.5723 203.75z" />
    <glyph glyph-name="I" unicode="&#xcf;" horiz-adv-x="264" 
d="M5.89453 234.594c-3.75586 73.7725 0.195312 147.814 4.54492 221.478c3.98438 67.5352 9.10449 135.183 20.0732 201.981c-14.8994 -0.651367 -29.0449 -4.2334 -40.627 -13.6035c-14.0371 -11.3545 -33.793 8.48047 -18.124 21.208
c18.7578 15.2363 42.6523 18.9922 66.4072 18.6074c11.167 17.0332 35.0273 24.624 54.4834 22.8994c20.9082 -1.85449 35.5752 -15.5771 40.2178 -33.6533c17.0908 -1.31543 34.1475 -0.896484 50.9482 3.61621c18.3047 4.91895 31.1074 -19.708 11.1299 -25.0322
c-20.5439 -5.47461 -40.9238 -6.4873 -61.4229 -5.31836c-5.11328 -65.8066 -12.7217 -131.402 -17.8691 -197.213c-9.34668 -119.544 -12.1484 -238.386 0.235352 -357.789c2.46484 -23.751 5.23926 -47.6758 18.584 -68.291
c15.7646 -24.3584 41.4863 -19.1396 63.0254 -4.59473c43.998 29.7129 67.9844 92.6738 79.1719 142.17c3.40137 15.0527 31.4512 12.6465 27.9473 -3.52441c-13.2051 -60.9121 -44.6973 -137.306 -103.029 -168.099c-53.3145 -28.1445 -120.454 -9.4043 -152.124 41.4082
c-36.4277 58.4512 -40.1602 136.72 -43.5723 203.75z" />
    <glyph glyph-name="I" unicode="&#xce;" horiz-adv-x="264" 
d="M5.89453 234.594c-3.75586 73.7725 0.195312 147.814 4.54492 221.478c3.98438 67.5352 9.10449 135.183 20.0732 201.981c-14.8994 -0.651367 -29.0449 -4.2334 -40.627 -13.6035c-14.0371 -11.3545 -33.793 8.48047 -18.124 21.208
c18.7578 15.2363 42.6523 18.9922 66.4072 18.6074c11.167 17.0332 35.0273 24.624 54.4834 22.8994c20.9082 -1.85449 35.5752 -15.5771 40.2178 -33.6533c17.0908 -1.31543 34.1475 -0.896484 50.9482 3.61621c18.3047 4.91895 31.1074 -19.708 11.1299 -25.0322
c-20.5439 -5.47461 -40.9238 -6.4873 -61.4229 -5.31836c-5.11328 -65.8066 -12.7217 -131.402 -17.8691 -197.213c-9.34668 -119.544 -12.1484 -238.386 0.235352 -357.789c2.46484 -23.751 5.23926 -47.6758 18.584 -68.291
c15.7646 -24.3584 41.4863 -19.1396 63.0254 -4.59473c43.998 29.7129 67.9844 92.6738 79.1719 142.17c3.40137 15.0527 31.4512 12.6465 27.9473 -3.52441c-13.2051 -60.9121 -44.6973 -137.306 -103.029 -168.099c-53.3145 -28.1445 -120.454 -9.4043 -152.124 41.4082
c-36.4277 58.4512 -40.1602 136.72 -43.5723 203.75z" />
    <glyph glyph-name="I" unicode="&#xcd;" horiz-adv-x="264" 
d="M5.89453 234.594c-3.75586 73.7725 0.195312 147.814 4.54492 221.478c3.98438 67.5352 9.10449 135.183 20.0732 201.981c-14.8994 -0.651367 -29.0449 -4.2334 -40.627 -13.6035c-14.0371 -11.3545 -33.793 8.48047 -18.124 21.208
c18.7578 15.2363 42.6523 18.9922 66.4072 18.6074c11.167 17.0332 35.0273 24.624 54.4834 22.8994c20.9082 -1.85449 35.5752 -15.5771 40.2178 -33.6533c17.0908 -1.31543 34.1475 -0.896484 50.9482 3.61621c18.3047 4.91895 31.1074 -19.708 11.1299 -25.0322
c-20.5439 -5.47461 -40.9238 -6.4873 -61.4229 -5.31836c-5.11328 -65.8066 -12.7217 -131.402 -17.8691 -197.213c-9.34668 -119.544 -12.1484 -238.386 0.235352 -357.789c2.46484 -23.751 5.23926 -47.6758 18.584 -68.291
c15.7646 -24.3584 41.4863 -19.1396 63.0254 -4.59473c43.998 29.7129 67.9844 92.6738 79.1719 142.17c3.40137 15.0527 31.4512 12.6465 27.9473 -3.52441c-13.2051 -60.9121 -44.6973 -137.306 -103.029 -168.099c-53.3145 -28.1445 -120.454 -9.4043 -152.124 41.4082
c-36.4277 58.4512 -40.1602 136.72 -43.5723 203.75z" />
    <glyph glyph-name="J" unicode="J" horiz-adv-x="424" 
d="M360.039 632.601c1.00195 33.9463 -27.8232 44.8574 -64.5342 45.4912c2.68555 -4.66602 4.58789 -10.0723 5.3584 -16.3369c16.0684 -130.628 23.2607 -262.511 22.4189 -394.182c55.6836 -10.4404 107.293 -41.0498 139.218 -89.2168
c10.0107 -15.1006 -14.8486 -28.6328 -24.3174 -15.4453c-28.0732 39.0938 -69.8701 65.3779 -115.215 75.7334c-0.0644531 -4.28418 -0.112305 -8.56836 -0.194336 -12.8496c-1.22754 -63.5977 -6.23828 -128.894 -21.1172 -190.855
c-13.1846 -54.916 -34.2256 -118.445 -87.7715 -146.638c-45.6006 -24.0068 -104.594 -3.43262 -135.882 34.9453c-31.6729 38.8545 -39.9521 91.4805 -32.8447 140.013c13.4814 92.0703 84.793 175.053 174.764 200.137
c-0.773438 18.8193 -1.64258 37.5527 -2.44727 56.1396c-4.78613 110.593 -14.6572 220.848 -19.2588 331.434c-0.22168 5.2832 0.425781 10.1709 1.76172 14.6494c-18.4717 -4.08691 -34.001 -8.08203 -43.249 -10.0518
c-37.9619 -8.0918 -76.3467 -15.6074 -115.304 -15.8359c-28.084 -0.164062 -62.5146 -0.0244141 -81.6611 23.9795c-11.0166 13.8115 13.7812 27.1289 23.5371 14.9502c11.5283 -14.3916 33.3398 -13.9795 50.2705 -14.3203
c21.0654 -0.425781 42.2227 1.7998 63.0156 4.99414c39.7344 6.09766 78.6748 16.3271 118.167 23.707c5.41602 1.0127 10.9346 2.02539 16.5146 2.99707c7.60449 2.68555 15.8154 3.95996 23.8594 3.70117c24.7227 3.25879 50.0078 4.44141 73.7217 -0.368164
c31.2158 -6.33008 61.8525 -28.9287 60.9053 -63.6484c-0.457031 -16.6172 -30.2002 -19.542 -29.7158 -3.12305zM209.976 9.53711c13.2803 73.3193 13.5547 149.471 11.0254 224.732c-8.46387 -2.79492 -16.791 -6.2168 -24.9102 -10.3271
c-73.1182 -37.0107 -124.281 -118.902 -119.536 -201.558c2.3418 -40.7871 20.9121 -91.2793 62.3066 -107.375c49.21 -19.1357 65.3535 62.7217 71.1143 94.5273z" />
    <glyph glyph-name="K" unicode="K" horiz-adv-x="484" 
d="M303.97 -34.0625c-44.3047 23.4482 -79.29 68.4922 -103.004 111.758c-27.5312 50.25 -34.6582 105.34 -52.3076 158.981c-6.73242 20.4619 -15.1143 41.7041 -27.3613 59.5342c-7.05566 10.2705 -14.834 20.1182 -22.6162 29.9551
c-0.129883 -9.93652 -0.269531 -19.873 -0.306641 -29.8496c-0.208008 -54.4863 1.18262 -108.912 4.11426 -163.317c2.74414 -50.9072 12.9463 -104.552 1.09473 -154.624c-6.31641 -26.6924 -40.8389 -28.8027 -58.2705 -12.748
c-41.9229 38.6133 -50.7822 101.104 -56.1953 155.457c-5.37891 54.0234 -7.98633 108.503 -9.35352 162.765c-2.84961 112.958 1.78906 227.29 22.374 338.466c4.68359 25.2988 32.041 39.1074 55.4922 38.8965c20.5303 -0.183594 52.1416 -14.6426 51.2822 -39.9414
c-2.6416 -77.8906 -6.65039 -154.652 -8.88965 -232.035c35.6201 21.6309 68.4824 46.2139 97.8271 77.5938c20.0977 21.4883 37.4473 45.168 52.4111 70.4873c7.42773 12.5674 14.1836 26.3008 18.0801 40.3848c4.01562 14.5068 6.19727 29.4844 11.1162 43.749
c8.33105 24.1641 48.4365 27.7871 53.7031 -0.52832c3.56152 -19.1533 -4.74219 -37.124 -15.5508 -52.4189c-9.8916 -13.9961 -19.1904 -28.4932 -28.54 -42.8643c-17.3057 -26.6045 -36.9941 -51.5244 -58.6152 -74.751
c-27.0439 -29.0547 -58.5293 -56.3574 -92.8613 -78.459c42.1514 -16.249 70.1465 -59.7021 85.4854 -103.073c21.3477 -60.3525 28.4717 -124.11 55.625 -182.548c11.709 -25.1963 26.3555 -50.4375 46.0127 -70.3271c9.08008 -9.18945 20.3457 -16.8516 32.8242 -20.6484
c13.1162 -3.98828 26.2773 2.55664 36.793 10.2598c47.3418 34.6826 72.6064 97.6699 96.2285 149.232c8.03711 17.5479 40.9062 7.8916 32.1934 -11.9844c-22.8887 -52.2168 -46.8311 -107.586 -88.1572 -148.237c-34.9316 -34.3623 -84.6768 -53.4844 -130.628 -29.1641z
" />
    <glyph glyph-name="L" unicode="L" horiz-adv-x="375" 
d="M53.5664 351.11c-39.2744 1.88477 -74.8545 20.499 -94.8496 54.7383c-9.29199 15.9111 21.7842 28.6016 30.7451 14.8066c20.1104 -30.957 57.9805 -44.4551 93.7705 -37.1475c0.450195 0.0917969 0.886719 0.224609 1.33301 0.320312
c-0.429688 49.2275 1.63574 98.3486 7.40625 147.293c5.78809 49.0977 13.5459 105.811 37.3926 149.714c21.2695 39.1611 68.2373 65.8643 111.128 43.1631c39.3047 -20.8027 51.7256 -58.6045 47.9697 -101.25c-6.66406 -75.6611 -43.3203 -152.655 -97.2852 -207.521
c3.21387 -45.4844 7.74023 -90.9043 12.0723 -136.185c4.12793 -43.1562 7.19238 -86.5107 9.3877 -129.804c1.10742 -21.9072 2.33789 -44.2441 2.41309 -66.54c10.8262 6.27539 22.0781 11.8896 33.4395 16.9824c24.1943 10.8467 49.4424 19.0781 73.8105 29.5088
c23.5156 10.0654 53.8594 23.1885 67.8105 45.8047c7.94238 12.874 34.3691 5.5791 25.6973 -9.56836c-24.3447 -42.5322 -81.7461 -61.3857 -124.395 -79.1553c-26.6621 -11.1123 -54.2959 -22.8105 -77.4609 -39.748
c-0.804688 -11.3779 -2.09961 -22.6777 -4.0625 -33.834c-9.50293 -54.0195 -108.656 -56.3174 -113.408 1.11426c-4.96973 60.0908 -1.44531 121.221 -4.48535 181.55c-2.65234 52.6328 -5.59766 105.204 -6.91016 157.884
c-10.2773 -1.86133 -20.8066 -2.6416 -31.5195 -2.12695zM186.806 536.565c-0.19043 -25.2412 0.458008 -50.4824 1.6582 -75.71c21.5762 28.3525 38.7109 60.5674 50.0547 94.2617c11.3574 33.7354 24.8008 79.6699 10.6719 114.302
c-5.04102 12.3564 -19.0469 32.1123 -34.3994 22.8516c-11.3135 -6.82422 -16.5938 -24.9277 -18.9111 -36.7725c-7.62207 -38.9229 -8.77051 -79.3965 -9.07422 -118.933z" />
    <glyph glyph-name="M" unicode="M" horiz-adv-x="724" 
d="M-5.9248 132.08c-7.625 53.7607 -12.5576 107.816 -14.3711 162.088c-3.71875 111.097 -2.80566 225.697 17.9219 335.127c4.74805 25.0674 31.6797 38.7598 55.001 38.5488c20.9629 -0.1875 50.9043 -14.4629 50.8262 -39.5879
c-0.333984 -106.502 -10.5225 -211.798 -7.29785 -318.519c1.26074 -41.6836 3.3916 -83.4082 6.97754 -124.979c3.73242 19.9707 7.70312 39.8945 12.0898 59.7324c10.8496 49.0469 67.79 318.031 157.665 233.606c44.8096 -42.0898 50.2979 -112.562 57.8105 -170.472
c0.947266 -7.31445 1.7793 -14.6533 2.53613 -22.0059c12.0732 54.4971 26.001 108.564 42.7334 161.913c13.2627 42.2773 27.5859 85.2773 51.6611 122.813c9.44824 14.7324 20.1475 30.5449 38.6289 33.8203c18.9551 3.36133 33.2129 -8.13281 45.5557 -20.7715
c17.9092 -18.3379 24.3857 -39.2705 31.6738 -63.2881c7.19531 -23.7139 13.3926 -46.8516 16.3516 -71.5127c5.72266 -47.7031 6.89551 -95.9688 5.93457 -143.986c-1.00879 -50.3623 -1.86133 -100.994 1.13477 -151.306
c2.50488 -42.0654 4.41406 -84.0625 22.6504 -122.658c7.01855 -14.8584 16.1846 -25.9092 33.6846 -23.0732c17.7559 2.87695 32.375 18.7031 43.4902 31.7959c29.1748 34.3691 48.4092 76.7012 66.6143 117.52c6.09766 13.6758 35.79 8.72949 30.4385 -7.42773
c-15.1543 -45.7607 -38.5166 -91.709 -68.6553 -129.507c-26.9043 -33.7383 -65.2891 -56.085 -109.312 -51.834c-47.9658 4.63184 -83.627 29.7295 -104.42 73.6016c-20.9053 44.1045 -21.6143 98.6523 -22.0098 146.472
c-0.416016 49.9365 2.95508 100.544 7.63477 150.252c4.68359 49.7451 6.16992 100.203 12.4277 149.692c2.83594 22.418 4.35645 45.1602 2.65918 67.7285c-0.391602 5.23926 0.0478516 15.8945 -6.09473 18.6348c-7.87012 3.51465 -12.2334 -5.63379 -15.4717 -10.334
c-5.50879 -7.99707 -10.4785 -16.4092 -15.0801 -24.9541c-22.415 -41.623 -36.0566 -87.8164 -49.3779 -132.971c-24.0176 -81.4014 -42.6318 -164.336 -58.7852 -247.649c-0.654297 -19.0918 -1.82715 -38.1328 -3.51465 -57.0332
c-3.88281 -43.4902 -87.5674 -43.8887 -89.7178 0.879883c-3.13574 65.3086 0.733398 131.159 3.49805 196.461c1.18262 27.9951 1.92188 56.1123 1.85059 84.1377c-0.0341797 13.3213 -0.879883 26.5977 -1.37402 39.8916
c-0.381836 10.2256 0.333984 22.6973 -2.57324 32.5889c-8.45996 28.7861 -34.7949 -23.7949 -39.2266 -33.0596c-11.3545 -23.7412 -20.2441 -48.7568 -28.4551 -73.7285c-16.7324 -50.8906 -29.2861 -103.094 -39.873 -155.576
c-8.48438 -42.0518 -16.6309 -84.4238 -22.333 -127.018c1.08008 -10.4785 1.96289 -20.9834 2.4502 -31.4951c0.290039 -6.21777 0.81543 -12.582 0.794922 -18.7891c-0.0273438 -8.23828 -2.80176 -13.1191 -5.30664 -20.6934
c-7.56055 -22.8477 -34.7002 -31.4854 -54.9785 -18.5527c-16.4639 10.502 -24.1436 19.9502 -33.5449 37.3037c-7.02832 12.9697 -11.6436 26.9521 -15.373 41.1934c-6.65723 25.4316 -11.8584 50.9551 -15.5498 76.9795z" />
    <glyph glyph-name="N" unicode="N" horiz-adv-x="505" 
d="M239.034 233.909c0.166992 102.31 -1.40527 204.66 -1.06055 306.915c0.0273438 8.87598 1.55762 35.3203 -9.04688 39.7656c-9.48633 3.97461 -18.8291 -14.3262 -22.5586 -21.1094c-10.5088 -19.1123 -16.5654 -40.7471 -23.0762 -61.4512
c-15.7168 -49.9873 -28.0625 -101.008 -38.2988 -152.379c-16.791 -84.2783 -27.7393 -169.534 -37.6445 -254.865c2.04883 -45.5801 3.375 -93.8428 -14.5205 -135.101c-8.15723 -18.8057 -43.5693 -23.3457 -55.2949 -5.81152
c-30.3809 45.4268 -35.0742 105.698 -41.6221 158.767c-6.60547 53.5459 -10.1611 107.46 -12.96 161.333c-5.6416 108.554 -8.19434 221.825 13.2354 328.828c5.15039 25.7178 32.3242 39.8018 56.4775 39.584c21.0342 -0.1875 52.8945 -14.8926 52.1924 -40.6514
c-2.85645 -105.067 -8.37793 -209.051 -5.62012 -314.367c5.4707 33.8545 11.6543 67.5898 18.8945 101.138c10.8154 50.1104 23.8428 99.8799 40.2822 148.456c10.7539 31.7822 33.4248 89.3301 77.0996 80.3379c22.9736 -4.72754 32.4561 -28.5059 43.8379 -46.2715
c12.1484 -18.9619 19.4834 -38.2236 25.5342 -59.7725c14.4316 -51.3984 21.4092 -104.686 25.3662 -157.833c3.64355 -48.9141 2.0957 -98.0801 5.36426 -147.024c3.13281 -46.8545 11.9951 -89.3223 29.8936 -132.725c7.08691 -17.1826 14.1357 -34.9521 27.4707 -48.4365
c13.873 -14.0303 35.9678 -6.79004 51.2383 1.5752c41.8438 22.9229 57.9805 75.6436 71.8232 117.894c4.75195 14.5 32.8691 12.1719 27.9473 -3.52441c-14.3164 -45.6445 -30.0986 -94.1113 -68.5439 -125.393c-35.248 -28.6797 -84.8877 -40.835 -128.767 -26.1475
c-97.5166 32.6445 -107.783 162.506 -107.644 248.27z" />
    <glyph glyph-name="O" unicode="O" horiz-adv-x="426" 
d="M46.7764 -2.24707c-71.8232 53.7637 -80.6992 142.723 -70.04 225.586c7.30469 56.7842 23.499 112.788 44.5645 166.597c-3.13574 7.58105 -6.02637 15.1758 -8.66504 22.75c-25.459 73.0703 -28.4756 160.352 11.7529 229.005
c16.4297 28.0391 41.1865 53.3311 72.9141 63.1582c33.5068 10.376 69.4746 2.55664 98.5059 -16.1807c65.2754 -42.1309 93.3828 -131.828 110.044 -203.32c19.6338 -84.2441 26.5938 -172.763 19.8379 -259.001c-0.841797 -10.7607 -1.91895 -21.7705 -3.30273 -32.876
c44.1045 -7.94922 89.1934 -11.6846 133.195 -12.5908c17.9902 -0.368164 15.5361 -26.8867 -1.42871 -26.8389c-44.2744 0.125977 -90.6934 2.68945 -136.226 10.0244c-10.1611 -56.0986 -30.5615 -111.666 -73.667 -148.983
c-54.2275 -46.9473 -137.401 -62.3027 -197.485 -17.3291zM28.0566 555.525c-5.60352 -41.0947 -0.389648 -82.0859 11.9326 -121.104c5.40625 12.0703 10.9863 24.0176 16.7471 35.791c24.1299 49.333 114.015 22.7832 91.0986 -33.916
c-16.1465 -39.9521 -32.4736 -79.6797 -46.415 -120.181c33.6357 -45.0107 75.8037 -80.1367 131.105 -99.4434c18.9795 -6.62598 38.4736 -12.1309 58.2676 -16.7158c4.38672 33.0332 5.53516 66.5332 5.17383 98.2637c-0.838867 73.4082 -9.66699 149.001 -30.7529 219.48
c-18.0176 60.2168 -49.1719 145.214 -117.334 163.293c-73.2305 19.4258 -111.922 -67.5215 -119.823 -125.468zM172.891 209.798c-31.5605 16.6172 -59.6211 40.4766 -83.6719 68.3896c-6.81055 -22.9434 -12.6426 -46.2207 -16.9951 -70.0264
c-11.1562 -61.0146 -18.2969 -150.313 42.5947 -188.926c56.4062 -35.7666 117.294 18.5938 142.515 66.877c13.5459 25.9365 22.5615 54.501 28.4893 83.9961c-39.5742 8.56543 -77.9111 21.252 -112.932 39.6895z" />
    <glyph glyph-name="O" unicode="&#xd6;" horiz-adv-x="426" 
d="M46.7764 -2.24707c-71.8232 53.7637 -80.6992 142.723 -70.04 225.586c7.30469 56.7842 23.499 112.788 44.5645 166.597c-3.13574 7.58105 -6.02637 15.1758 -8.66504 22.75c-25.459 73.0703 -28.4756 160.352 11.7529 229.005
c16.4297 28.0391 41.1865 53.3311 72.9141 63.1582c33.5068 10.376 69.4746 2.55664 98.5059 -16.1807c65.2754 -42.1309 93.3828 -131.828 110.044 -203.32c19.6338 -84.2441 26.5938 -172.763 19.8379 -259.001c-0.841797 -10.7607 -1.91895 -21.7705 -3.30273 -32.876
c44.1045 -7.94922 89.1934 -11.6846 133.195 -12.5908c17.9902 -0.368164 15.5361 -26.8867 -1.42871 -26.8389c-44.2744 0.125977 -90.6934 2.68945 -136.226 10.0244c-10.1611 -56.0986 -30.5615 -111.666 -73.667 -148.983
c-54.2275 -46.9473 -137.401 -62.3027 -197.485 -17.3291zM28.0566 555.525c-5.60352 -41.0947 -0.389648 -82.0859 11.9326 -121.104c5.40625 12.0703 10.9863 24.0176 16.7471 35.791c24.1299 49.333 114.015 22.7832 91.0986 -33.916
c-16.1465 -39.9521 -32.4736 -79.6797 -46.415 -120.181c33.6357 -45.0107 75.8037 -80.1367 131.105 -99.4434c18.9795 -6.62598 38.4736 -12.1309 58.2676 -16.7158c4.38672 33.0332 5.53516 66.5332 5.17383 98.2637c-0.838867 73.4082 -9.66699 149.001 -30.7529 219.48
c-18.0176 60.2168 -49.1719 145.214 -117.334 163.293c-73.2305 19.4258 -111.922 -67.5215 -119.823 -125.468zM172.891 209.798c-31.5605 16.6172 -59.6211 40.4766 -83.6719 68.3896c-6.81055 -22.9434 -12.6426 -46.2207 -16.9951 -70.0264
c-11.1562 -61.0146 -18.2969 -150.313 42.5947 -188.926c56.4062 -35.7666 117.294 18.5938 142.515 66.877c13.5459 25.9365 22.5615 54.501 28.4893 83.9961c-39.5742 8.56543 -77.9111 21.252 -112.932 39.6895z" />
    <glyph glyph-name="O" unicode="&#xd5;" horiz-adv-x="426" 
d="M46.7764 -2.24707c-71.8232 53.7637 -80.6992 142.723 -70.04 225.586c7.30469 56.7842 23.499 112.788 44.5645 166.597c-3.13574 7.58105 -6.02637 15.1758 -8.66504 22.75c-25.459 73.0703 -28.4756 160.352 11.7529 229.005
c16.4297 28.0391 41.1865 53.3311 72.9141 63.1582c33.5068 10.376 69.4746 2.55664 98.5059 -16.1807c65.2754 -42.1309 93.3828 -131.828 110.044 -203.32c19.6338 -84.2441 26.5938 -172.763 19.8379 -259.001c-0.841797 -10.7607 -1.91895 -21.7705 -3.30273 -32.876
c44.1045 -7.94922 89.1934 -11.6846 133.195 -12.5908c17.9902 -0.368164 15.5361 -26.8867 -1.42871 -26.8389c-44.2744 0.125977 -90.6934 2.68945 -136.226 10.0244c-10.1611 -56.0986 -30.5615 -111.666 -73.667 -148.983
c-54.2275 -46.9473 -137.401 -62.3027 -197.485 -17.3291zM28.0566 555.525c-5.60352 -41.0947 -0.389648 -82.0859 11.9326 -121.104c5.40625 12.0703 10.9863 24.0176 16.7471 35.791c24.1299 49.333 114.015 22.7832 91.0986 -33.916
c-16.1465 -39.9521 -32.4736 -79.6797 -46.415 -120.181c33.6357 -45.0107 75.8037 -80.1367 131.105 -99.4434c18.9795 -6.62598 38.4736 -12.1309 58.2676 -16.7158c4.38672 33.0332 5.53516 66.5332 5.17383 98.2637c-0.838867 73.4082 -9.66699 149.001 -30.7529 219.48
c-18.0176 60.2168 -49.1719 145.214 -117.334 163.293c-73.2305 19.4258 -111.922 -67.5215 -119.823 -125.468zM172.891 209.798c-31.5605 16.6172 -59.6211 40.4766 -83.6719 68.3896c-6.81055 -22.9434 -12.6426 -46.2207 -16.9951 -70.0264
c-11.1562 -61.0146 -18.2969 -150.313 42.5947 -188.926c56.4062 -35.7666 117.294 18.5938 142.515 66.877c13.5459 25.9365 22.5615 54.501 28.4893 83.9961c-39.5742 8.56543 -77.9111 21.252 -112.932 39.6895z" />
    <glyph glyph-name="O" unicode="&#xd4;" horiz-adv-x="426" 
d="M46.7764 -2.24707c-71.8232 53.7637 -80.6992 142.723 -70.04 225.586c7.30469 56.7842 23.499 112.788 44.5645 166.597c-3.13574 7.58105 -6.02637 15.1758 -8.66504 22.75c-25.459 73.0703 -28.4756 160.352 11.7529 229.005
c16.4297 28.0391 41.1865 53.3311 72.9141 63.1582c33.5068 10.376 69.4746 2.55664 98.5059 -16.1807c65.2754 -42.1309 93.3828 -131.828 110.044 -203.32c19.6338 -84.2441 26.5938 -172.763 19.8379 -259.001c-0.841797 -10.7607 -1.91895 -21.7705 -3.30273 -32.876
c44.1045 -7.94922 89.1934 -11.6846 133.195 -12.5908c17.9902 -0.368164 15.5361 -26.8867 -1.42871 -26.8389c-44.2744 0.125977 -90.6934 2.68945 -136.226 10.0244c-10.1611 -56.0986 -30.5615 -111.666 -73.667 -148.983
c-54.2275 -46.9473 -137.401 -62.3027 -197.485 -17.3291zM28.0566 555.525c-5.60352 -41.0947 -0.389648 -82.0859 11.9326 -121.104c5.40625 12.0703 10.9863 24.0176 16.7471 35.791c24.1299 49.333 114.015 22.7832 91.0986 -33.916
c-16.1465 -39.9521 -32.4736 -79.6797 -46.415 -120.181c33.6357 -45.0107 75.8037 -80.1367 131.105 -99.4434c18.9795 -6.62598 38.4736 -12.1309 58.2676 -16.7158c4.38672 33.0332 5.53516 66.5332 5.17383 98.2637c-0.838867 73.4082 -9.66699 149.001 -30.7529 219.48
c-18.0176 60.2168 -49.1719 145.214 -117.334 163.293c-73.2305 19.4258 -111.922 -67.5215 -119.823 -125.468zM172.891 209.798c-31.5605 16.6172 -59.6211 40.4766 -83.6719 68.3896c-6.81055 -22.9434 -12.6426 -46.2207 -16.9951 -70.0264
c-11.1562 -61.0146 -18.2969 -150.313 42.5947 -188.926c56.4062 -35.7666 117.294 18.5938 142.515 66.877c13.5459 25.9365 22.5615 54.501 28.4893 83.9961c-39.5742 8.56543 -77.9111 21.252 -112.932 39.6895z" />
    <glyph glyph-name="O" unicode="&#xd3;" horiz-adv-x="426" 
d="M46.7764 -2.24707c-71.8232 53.7637 -80.6992 142.723 -70.04 225.586c7.30469 56.7842 23.499 112.788 44.5645 166.597c-3.13574 7.58105 -6.02637 15.1758 -8.66504 22.75c-25.459 73.0703 -28.4756 160.352 11.7529 229.005
c16.4297 28.0391 41.1865 53.3311 72.9141 63.1582c33.5068 10.376 69.4746 2.55664 98.5059 -16.1807c65.2754 -42.1309 93.3828 -131.828 110.044 -203.32c19.6338 -84.2441 26.5938 -172.763 19.8379 -259.001c-0.841797 -10.7607 -1.91895 -21.7705 -3.30273 -32.876
c44.1045 -7.94922 89.1934 -11.6846 133.195 -12.5908c17.9902 -0.368164 15.5361 -26.8867 -1.42871 -26.8389c-44.2744 0.125977 -90.6934 2.68945 -136.226 10.0244c-10.1611 -56.0986 -30.5615 -111.666 -73.667 -148.983
c-54.2275 -46.9473 -137.401 -62.3027 -197.485 -17.3291zM28.0566 555.525c-5.60352 -41.0947 -0.389648 -82.0859 11.9326 -121.104c5.40625 12.0703 10.9863 24.0176 16.7471 35.791c24.1299 49.333 114.015 22.7832 91.0986 -33.916
c-16.1465 -39.9521 -32.4736 -79.6797 -46.415 -120.181c33.6357 -45.0107 75.8037 -80.1367 131.105 -99.4434c18.9795 -6.62598 38.4736 -12.1309 58.2676 -16.7158c4.38672 33.0332 5.53516 66.5332 5.17383 98.2637c-0.838867 73.4082 -9.66699 149.001 -30.7529 219.48
c-18.0176 60.2168 -49.1719 145.214 -117.334 163.293c-73.2305 19.4258 -111.922 -67.5215 -119.823 -125.468zM172.891 209.798c-31.5605 16.6172 -59.6211 40.4766 -83.6719 68.3896c-6.81055 -22.9434 -12.6426 -46.2207 -16.9951 -70.0264
c-11.1562 -61.0146 -18.2969 -150.313 42.5947 -188.926c56.4062 -35.7666 117.294 18.5938 142.515 66.877c13.5459 25.9365 22.5615 54.501 28.4893 83.9961c-39.5742 8.56543 -77.9111 21.252 -112.932 39.6895z" />
    <glyph glyph-name="P" unicode="P" horiz-adv-x="425" 
d="M133.157 429.832c12.1895 51.8076 27.6533 103.142 49.8574 151.602c20.1514 43.9844 46.2715 91.1055 84.5771 121.885c36.3252 29.1914 88.7666 40.0576 128.777 11.4697c39.0352 -27.8926 52.918 -77.3242 59.834 -122.393
c14.6504 -95.4619 -27.3467 -193.661 -86.6191 -266.575c-56.1094 -69.0244 -150.023 -128.018 -242.41 -129.023c-2.97949 -41.8613 -4.11426 -83.8516 -3.49414 -125.859c1.87109 -13.791 3.81738 -27.5723 5.80469 -41.374
c4.19922 -29.1504 12.8262 -59.1396 0.919922 -87.3252c-9.17969 -21.7266 -39.4277 -21.5693 -56.3721 -12.2402c-27.0811 14.9131 -40.3271 51.3408 -49.1621 79.4551c-8.79102 27.9639 -15.1895 57.5166 -19.8047 86.4521
c-9.40137 58.9004 -15.5742 118.745 -19.9951 178.215c-4.49902 60.5303 -6.42188 121.354 -6.85449 182.044c-0.446289 62.5957 -1.34277 126.606 10.9355 188.183c9.90527 49.6807 99.627 52.3154 104.88 -1.0293c5.92383 -60.1689 2.04492 -121.043 2.62402 -181.457
c0.5625 -58.5127 3.15332 -116.905 6.80078 -175.298c0.0751953 -1.17578 0.15332 -2.34863 0.224609 -3.52148c0.967773 -0.132812 1.93555 -0.249023 2.90332 -0.358398c6.31934 49.4521 15.1475 98.5869 26.5732 147.149zM338.501 706.114
c-47.5977 -2.28027 -79.6201 -47.5801 -101.978 -84.4072c-49.8682 -82.1582 -73.3301 -178.227 -90.2129 -271.923c-4.03223 -22.3779 -7.49219 -44.8408 -10.4512 -67.3584c31.877 2.89355 63.4404 15.4609 91.7256 31.7305
c38.0508 21.8838 69.5869 48.3584 99.0713 81.2822c25.7109 28.7109 46.9395 61.3447 62.96 96.3984c17.0127 37.2148 34.3184 83.7148 28.7998 125.184c-5.40234 40.6064 -32.4873 91.3672 -79.915 89.0938z" />
    <glyph glyph-name="Q" unicode="Q" horiz-adv-x="426" 
d="M196.166 688.669c65.2754 -42.1309 93.3809 -131.825 110.042 -203.321c19.6338 -84.2441 26.5908 -172.763 19.8379 -259.001c-0.841797 -10.7607 -1.91895 -21.7705 -3.30273 -32.876c44.1045 -7.94922 89.1904 -11.6855 133.192 -12.5918
c17.9902 -0.368164 15.5361 -26.8867 -1.42871 -26.8389c-44.2744 0.125977 -90.6934 2.68945 -136.226 10.0244c-10.1611 -56.0986 -30.5615 -111.666 -73.667 -148.983c-31.8975 -27.6201 -73.8164 -44.2852 -115.159 -44.1865
c56.5625 -22.8613 124.046 -52.707 177.063 -9.47168c15.4854 12.6289 37.3584 -9.33594 20.0635 -23.4785c-48.9746 -40.041 -116.199 -30.5176 -171.334 -10.4199c-32.8555 11.9775 -64.5928 27.7529 -98.7402 35.9033
c-25.5342 6.09473 -70.6475 12.9395 -88.5869 -12.4756c-9.84766 -13.9482 -40.5391 -5.92773 -29.5977 11.0195c24.2656 37.5898 69.2559 41.1074 112.041 33.4854c-1.08008 0.759766 -2.16699 1.49609 -3.2334 2.29395
c-71.8232 53.7637 -80.6963 142.726 -70.0371 225.589c7.30469 56.7842 23.4961 112.788 44.5645 166.597c-3.13281 7.58105 -6.02637 15.1758 -8.66504 22.75c-25.459 73.0703 -28.4756 160.352 11.7529 229.005c16.4297 28.0391 41.1865 53.3311 72.9141 63.1582
c33.5068 10.376 69.4746 2.55664 98.5059 -16.1807zM257.687 86.1143c13.5459 25.9365 22.5615 54.5 28.4893 83.9951c-39.5742 8.56543 -77.9111 21.252 -112.932 39.6895c-31.5605 16.6133 -59.624 40.4736 -83.6719 68.3906
c-6.81055 -22.9434 -12.6426 -46.2207 -16.9951 -70.0264c-11.1562 -61.0146 -18.2969 -150.313 42.5947 -188.926c56.4062 -35.7666 117.294 18.5938 142.515 66.877zM232.875 216.674c18.9795 -6.62598 38.4746 -12.1309 58.2646 -16.7158
c4.39062 33.0332 5.53906 66.5332 5.17773 98.2637c-0.838867 73.4082 -9.66699 149.001 -30.7529 219.48c-18.0176 60.2168 -49.1719 145.214 -117.334 163.293c-73.2305 19.4258 -111.922 -67.5215 -119.823 -125.468
c-5.60742 -41.0947 -0.388672 -82.0898 11.9297 -121.104c5.40625 12.0703 10.9893 24.0176 16.7461 35.791c24.1328 49.333 114.018 22.7832 91.1016 -33.916c-16.1465 -39.9521 -32.4736 -79.6797 -46.415 -120.181c33.6357 -45.0107 75.8037 -80.1367 131.105 -99.4434z
" />
    <glyph glyph-name="R" unicode="R" horiz-adv-x="543" 
d="M-10.8496 644.347c9.90527 49.6807 99.6309 52.3174 104.884 -1.04102c5.92383 -60.1689 2.04492 -121.043 2.62402 -181.457c0.5625 -58.5127 3.15332 -116.905 6.80078 -175.298c0.0751953 -1.17578 0.15332 -2.34863 0.224609 -3.52148
c0.967773 -0.132812 1.93555 -0.249023 2.90332 -0.358398c6.31934 49.4521 15.1475 98.5869 26.5732 147.149c12.1895 51.8076 27.6514 103.135 49.8555 151.602c20.1514 43.9844 46.2715 91.1055 84.5771 121.886c36.3252 29.1914 88.7666 40.0576 128.777 11.4697
c39.0352 -27.8926 52.918 -77.3242 59.834 -122.393c14.6504 -95.4619 -27.3467 -193.661 -86.6191 -266.575c-47.5879 -58.5361 -122.366 -109.846 -200.342 -124.714c4.23047 -1.91895 8.16699 -3.94043 11.6201 -5.85938
c21.6924 -12.0527 41.333 -27.7021 58.6484 -45.4199c34.9004 -35.7119 64.0342 -77.9004 103.959 -108.438c10.0693 -7.7002 20.3672 -15.3018 31.0527 -22.1357c10.9072 -6.97363 21.4531 -15.5391 33.8916 -19.459c22.9473 -7.23633 47.0566 0.177734 66.2129 13.5498
c41.0771 28.6699 60.4785 78.2959 77.9238 123.231c6.79688 17.5098 38.6709 8.01367 31.3291 -11.6641c-18.9521 -50.7852 -40.9922 -101.699 -85.8525 -134.937c-44.2031 -32.7461 -104.761 -37.3848 -156.333 -20.4062
c-60.2646 19.8418 -102.238 63.2129 -141.093 111.305c-16.2148 20.0703 -32.9346 40.3418 -51.3721 58.4414c-5.62793 5.52539 -15.3047 12.0322 -24.2695 19.3438c-1.30859 -29.2051 -1.71777 -58.4541 -1.28516 -87.71c1.87109 -13.791 3.81738 -27.5723 5.80469 -41.374
c4.19922 -29.1504 12.8301 -59.1396 0.923828 -87.3252c-9.17969 -21.7266 -39.4277 -21.5693 -56.3721 -12.2402c-27.0781 14.9131 -40.3242 51.3408 -49.1631 79.4551c-8.79102 27.9639 -15.1895 57.5166 -19.8047 86.4521
c-9.40137 58.9004 -15.5742 118.745 -19.9951 178.215c-4.49902 60.5303 -6.42188 121.354 -6.85449 182.044c-0.446289 62.5957 -1.3457 126.606 10.9355 188.183zM236.518 621.694c-49.8682 -82.1543 -73.3281 -178.224 -90.2109 -271.916
c-4.03223 -22.3779 -7.49512 -44.8408 -10.4502 -67.3584c31.877 2.89355 63.4404 15.4609 91.7256 31.7305c38.0508 21.8838 69.5869 48.3584 99.0713 81.2822c25.7109 28.7109 46.9365 61.3447 62.96 96.3984c17.0088 37.2148 34.3174 83.7148 28.7988 125.184
c-5.40234 40.6064 -32.4873 91.3672 -79.915 89.0938c-47.5977 -2.28027 -79.6221 -47.5811 -101.979 -84.4141z" />
    <glyph glyph-name="S" unicode="S" horiz-adv-x="452" 
d="M492.665 176.968c-30.3643 -44.9736 -82.3213 -66.126 -134.095 -84.1094c3.67773 -7.37988 6.8916 -14.9092 9.42773 -22.6055c12.4648 -37.8564 13.542 -76.1279 -2.37305 -113.251c-6.93359 -16.1807 -18.2949 -29.5527 -28.2549 -43.8789
c-8.74316 -12.5781 -19.2148 -23.4316 -31.1006 -33.0713c-26.1641 -21.2148 -59.3301 -34.8115 -93.1982 -35.6641c-61.8633 -1.55762 -124.885 50.3115 -105.811 116.633c16.9883 59.0615 80.709 92.166 136.992 116.173
c-13.8701 15.8164 -28.5029 30.9033 -43.7979 45.7715c-48.791 47.4414 -100.718 91.8047 -144.976 143.731c-51.1221 59.9814 -84.5908 129.401 -89.0186 209.111c-4.14844 74.7139 19.3574 155.447 77.4814 205.867c47.0732 40.8389 121.555 60.6191 178.438 28.9561
c55.8672 -31.0967 83.0166 -98.0215 80.6445 -159.806c-2.36523 -61.5527 -30.7861 -118.521 -78.8887 -156.922c-15.2061 -12.1348 -36.4004 9.16895 -19.5107 22.8311c54.1016 43.7568 77.0957 123.126 56.5176 189.379
c-10.4717 33.7217 -32.8359 69.2734 -67.3994 81.9639c-32.4805 11.9229 -69.334 2.72266 -93.7666 -21.168c-48.6924 -47.6113 -45.1982 -128.532 -29.6074 -189.618c4.67285 -18.3076 11.9023 -36.165 20.2266 -53.1025c3.56543 -7.25 7.4209 -14.3506 11.3955 -21.3828
c2.14746 -3.79688 4.3252 -7.57324 6.58496 -11.3057c0.310547 -0.511719 0.552734 -0.914062 0.743164 -1.24121c0.491211 -0.708984 1.05371 -1.53027 1.79004 -2.61035c18.6182 -27.3408 37.3965 -53.7031 59.5254 -78.3848
c44.6289 -49.7832 95.4141 -93.6553 138.233 -145.136c12.4277 -14.9434 25.2715 -30.9502 36.2783 -47.9316c12.4785 4.45801 24.9473 8.94043 37.3447 13.6445c32 12.1377 64.5762 27.5996 84.4756 56.6953c8.53906 12.4854 35.3242 4.68945 25.6982 -9.56836z
M253.445 -119.689c30.3193 12.6865 63.2715 39.4131 60.8447 75.1357c-2.27051 33.4316 -22.8926 61.4268 -42.1719 87.3975c-3.40527 4.58789 -6.89551 9.06641 -10.4238 13.501c-32.3516 -14.0977 -64.9443 -30.4453 -91.3096 -52.8838
c-31.4072 -26.7305 -49.8447 -71.1924 -19.6172 -106.158c25.9229 -29.9854 68.0635 -31.4785 102.678 -16.9922z" />
    <glyph glyph-name="T" unicode="T" horiz-adv-x="497" 
d="M658.303 733.24c-32.2998 8.85938 -67.7373 8.6709 -100.767 5.03711c-75.1221 -8.2627 -144.597 -36.9531 -214.262 -65.0371c15.3867 -6.19336 27.8994 -18.6484 29.9102 -36.3564c6.84766 -60.3525 6.60547 -121.251 8.36426 -181.924
c1.76562 -60.7959 4.16895 -121.571 7.21582 -182.316c3.05078 -60.7754 5.81543 -121.568 8.62402 -182.357c1.3291 -28.793 2.67871 -57.7422 3.3877 -86.5518c0.37793 -15.4482 0.626953 -31.1172 0.544922 -46.5752
c-0.0644531 -12.1855 -4.93555 -31.7715 -3.81445 -41.0703c3.79395 -31.4893 -42.2021 -40.0215 -59.958 -20.6064c-21.0312 22.9941 -27.085 55.4609 -33.998 84.7002c-7.09668 30.0332 -10.5225 61.3213 -14.1045 91.9648
c-7.18164 61.4199 -12.2607 123.263 -16.0918 184.973c-3.83789 61.7842 -7.00781 123.613 -9.5166 185.466c-2.63867 65.1826 -5.27344 130.28 0.201172 195.368c0.150391 1.80664 0.481445 3.53809 0.914062 5.22852
c-15.7031 -5.49512 -31.5225 -10.584 -47.5264 -15.0117c-53.7539 -14.8652 -111.656 -24.1133 -167.292 -15.1865c-44.3701 7.12012 -91.6611 33.5166 -94.1191 83.4697c-0.780273 15.8672 27.4912 18.7607 28.2852 2.97168
c3.73926 -74.2842 111.332 -68.7754 162.301 -61.5625c120.146 17.002 225.854 83.7393 342.712 112.88c55.0186 13.7158 114.021 20.5908 169.998 8.22461c42.2773 -9.33984 90.6729 -42.3525 75.9102 -92.3057c-4.50977 -15.2637 -33.7109 -12.6113 -28.8877 3.64453
c9.78613 32.9854 -19.6611 55.1553 -48.0312 62.9336z" />
    <glyph glyph-name="U" unicode="U" horiz-adv-x="628" 
d="M57.0068 26.7363c-47.874 77.8359 -59.2451 172.242 -65.7285 261.5c-7.11719 97.8447 -15.8057 195.699 -18.2637 293.785c-1.43848 57.3398 97.5273 68.9023 103.128 10.8398c9.61523 -99.7158 12.7139 -199.974 17.6562 -300.013
c3.79004 -76.7549 2.62402 -158.817 27.2031 -232.505c4.94629 -14.8271 11.4229 -33.7314 25.1631 -42.7236c16.8145 -11.0029 30.5479 4.43164 41.1758 16.5527c27.0645 30.8613 42.8809 71.4648 56.0889 109.791c27.627 80.167 45.8701 164.08 63.3525 246.94
c14.1699 67.1465 26.4512 134.675 36.9873 202.479c1.34961 19.0273 2.94824 37.9658 4.80273 56.7676c2.52539 25.5957 33.96 39.4385 55.9863 39.2412c21.0039 -0.1875 52.2334 -14.749 51.7354 -40.2969c-1.33301 -68.2168 -3.8252 -136.399 -3.01758 -204.64
c1.37012 -115.524 7.98633 -234.506 32.4639 -347.733c4.72461 -21.8594 12.2402 -43.835 25.7422 -61.7852c8.15332 -10.8359 13.3721 -16.3916 27.542 -16.4326c11.0273 -0.0341797 22.4121 3.43945 32.0381 8.66504c47.6084 25.8477 59.2656 85.584 69.2734 134.021
c3.12598 15.124 31.1172 12.7275 27.9473 -3.52441c-12.0635 -61.8086 -29.2363 -127.039 -90.6084 -156.796c-24.5049 -11.8789 -47.8262 -11.8418 -74.1064 -7.58105c-30.0771 4.87793 -53.4121 22.8516 -72.8174 45.71
c-44.5645 52.4893 -59.4365 120.781 -71.4756 186.704c-10.5869 57.957 -16.5449 117.39 -18.9443 177.14c-5.22559 -25.8164 -10.707 -51.582 -16.4746 -77.29c-19.7764 -88.1367 -37.249 -182.023 -78.7559 -263.073
c-16.8965 -32.9922 -43.9883 -71.2979 -80.1504 -85.0957c-44.3525 -16.9199 -85.5693 12.9736 -107.943 49.3535z" />
    <glyph glyph-name="U" unicode="&#xdc;" horiz-adv-x="628" 
d="M57.0068 26.7363c-47.874 77.8359 -59.2451 172.242 -65.7285 261.5c-7.11719 97.8447 -15.8057 195.699 -18.2637 293.785c-1.43848 57.3398 97.5273 68.9023 103.128 10.8398c9.61523 -99.7158 12.7139 -199.974 17.6562 -300.013
c3.79004 -76.7549 2.62402 -158.817 27.2031 -232.505c4.94629 -14.8271 11.4229 -33.7314 25.1631 -42.7236c16.8145 -11.0029 30.5479 4.43164 41.1758 16.5527c27.0645 30.8613 42.8809 71.4648 56.0889 109.791c27.627 80.167 45.8701 164.08 63.3525 246.94
c14.1699 67.1465 26.4512 134.675 36.9873 202.479c1.34961 19.0273 2.94824 37.9658 4.80273 56.7676c2.52539 25.5957 33.96 39.4385 55.9863 39.2412c21.0039 -0.1875 52.2334 -14.749 51.7354 -40.2969c-1.33301 -68.2168 -3.8252 -136.399 -3.01758 -204.64
c1.37012 -115.524 7.98633 -234.506 32.4639 -347.733c4.72461 -21.8594 12.2402 -43.835 25.7422 -61.7852c8.15332 -10.8359 13.3721 -16.3916 27.542 -16.4326c11.0273 -0.0341797 22.4121 3.43945 32.0381 8.66504c47.6084 25.8477 59.2656 85.584 69.2734 134.021
c3.12598 15.124 31.1172 12.7275 27.9473 -3.52441c-12.0635 -61.8086 -29.2363 -127.039 -90.6084 -156.796c-24.5049 -11.8789 -47.8262 -11.8418 -74.1064 -7.58105c-30.0771 4.87793 -53.4121 22.8516 -72.8174 45.71
c-44.5645 52.4893 -59.4365 120.781 -71.4756 186.704c-10.5869 57.957 -16.5449 117.39 -18.9443 177.14c-5.22559 -25.8164 -10.707 -51.582 -16.4746 -77.29c-19.7764 -88.1367 -37.249 -182.023 -78.7559 -263.073
c-16.8965 -32.9922 -43.9883 -71.2979 -80.1504 -85.0957c-44.3525 -16.9199 -85.5693 12.9736 -107.943 49.3535z" />
    <glyph glyph-name="U" unicode="&#xdb;" horiz-adv-x="628" 
d="M57.0068 26.7363c-47.874 77.8359 -59.2451 172.242 -65.7285 261.5c-7.11719 97.8447 -15.8057 195.699 -18.2637 293.785c-1.43848 57.3398 97.5273 68.9023 103.128 10.8398c9.61523 -99.7158 12.7139 -199.974 17.6562 -300.013
c3.79004 -76.7549 2.62402 -158.817 27.2031 -232.505c4.94629 -14.8271 11.4229 -33.7314 25.1631 -42.7236c16.8145 -11.0029 30.5479 4.43164 41.1758 16.5527c27.0645 30.8613 42.8809 71.4648 56.0889 109.791c27.627 80.167 45.8701 164.08 63.3525 246.94
c14.1699 67.1465 26.4512 134.675 36.9873 202.479c1.34961 19.0273 2.94824 37.9658 4.80273 56.7676c2.52539 25.5957 33.96 39.4385 55.9863 39.2412c21.0039 -0.1875 52.2334 -14.749 51.7354 -40.2969c-1.33301 -68.2168 -3.8252 -136.399 -3.01758 -204.64
c1.37012 -115.524 7.98633 -234.506 32.4639 -347.733c4.72461 -21.8594 12.2402 -43.835 25.7422 -61.7852c8.15332 -10.8359 13.3721 -16.3916 27.542 -16.4326c11.0273 -0.0341797 22.4121 3.43945 32.0381 8.66504c47.6084 25.8477 59.2656 85.584 69.2734 134.021
c3.12598 15.124 31.1172 12.7275 27.9473 -3.52441c-12.0635 -61.8086 -29.2363 -127.039 -90.6084 -156.796c-24.5049 -11.8789 -47.8262 -11.8418 -74.1064 -7.58105c-30.0771 4.87793 -53.4121 22.8516 -72.8174 45.71
c-44.5645 52.4893 -59.4365 120.781 -71.4756 186.704c-10.5869 57.957 -16.5449 117.39 -18.9443 177.14c-5.22559 -25.8164 -10.707 -51.582 -16.4746 -77.29c-19.7764 -88.1367 -37.249 -182.023 -78.7559 -263.073
c-16.8965 -32.9922 -43.9883 -71.2979 -80.1504 -85.0957c-44.3525 -16.9199 -85.5693 12.9736 -107.943 49.3535z" />
    <glyph glyph-name="U" unicode="&#xda;" horiz-adv-x="628" 
d="M57.0068 26.7363c-47.874 77.8359 -59.2451 172.242 -65.7285 261.5c-7.11719 97.8447 -15.8057 195.699 -18.2637 293.785c-1.43848 57.3398 97.5273 68.9023 103.128 10.8398c9.61523 -99.7158 12.7139 -199.974 17.6562 -300.013
c3.79004 -76.7549 2.62402 -158.817 27.2031 -232.505c4.94629 -14.8271 11.4229 -33.7314 25.1631 -42.7236c16.8145 -11.0029 30.5479 4.43164 41.1758 16.5527c27.0645 30.8613 42.8809 71.4648 56.0889 109.791c27.627 80.167 45.8701 164.08 63.3525 246.94
c14.1699 67.1465 26.4512 134.675 36.9873 202.479c1.34961 19.0273 2.94824 37.9658 4.80273 56.7676c2.52539 25.5957 33.96 39.4385 55.9863 39.2412c21.0039 -0.1875 52.2334 -14.749 51.7354 -40.2969c-1.33301 -68.2168 -3.8252 -136.399 -3.01758 -204.64
c1.37012 -115.524 7.98633 -234.506 32.4639 -347.733c4.72461 -21.8594 12.2402 -43.835 25.7422 -61.7852c8.15332 -10.8359 13.3721 -16.3916 27.542 -16.4326c11.0273 -0.0341797 22.4121 3.43945 32.0381 8.66504c47.6084 25.8477 59.2656 85.584 69.2734 134.021
c3.12598 15.124 31.1172 12.7275 27.9473 -3.52441c-12.0635 -61.8086 -29.2363 -127.039 -90.6084 -156.796c-24.5049 -11.8789 -47.8262 -11.8418 -74.1064 -7.58105c-30.0771 4.87793 -53.4121 22.8516 -72.8174 45.71
c-44.5645 52.4893 -59.4365 120.781 -71.4756 186.704c-10.5869 57.957 -16.5449 117.39 -18.9443 177.14c-5.22559 -25.8164 -10.707 -51.582 -16.4746 -77.29c-19.7764 -88.1367 -37.249 -182.023 -78.7559 -263.073
c-16.8965 -32.9922 -43.9883 -71.2979 -80.1504 -85.0957c-44.3525 -16.9199 -85.5693 12.9736 -107.943 49.3535z" />
    <glyph glyph-name="V" unicode="V" horiz-adv-x="519" 
d="M207.39 3.44922c-40.0547 -6.09766 -68.0781 19.0459 -88.1885 50.3945c-23.6865 36.9082 -40.2354 75.9131 -50.8154 118.449c-19.8105 79.6357 -32.7666 160.607 -47.2363 241.327c-7.41016 41.3291 -14.9326 82.6006 -24.6162 123.474
c-8.91992 37.665 -20.7686 76.8438 -31.2129 114.403c-7.95215 28.5918 4.91895 51.2832 32.7334 62.2354c25.3398 9.97656 60.2471 -0.140625 71.8838 -25.8281c34.0586 -75.1836 49.4316 -159.438 63.5088 -240.338c13.6895 -78.6846 22.3164 -158.197 33.3438 -237.271
c4.71094 -33.7861 8.83203 -67.7295 14.2451 -101.41c3.0332 -18.8701 7.31738 -66.9082 30.5879 -70.8652c29.6416 -5.04492 60.3086 34.3926 74.9756 55.2529c18.2705 25.9805 32.0312 55.0801 44.6504 84.125c11.1533 25.6699 20.9805 51.8955 29.5908 78.5234
c-6.89258 6.92969 -13.4707 14.0908 -19.7012 21.4258c-47.4893 55.9082 -78.627 126.831 -85.4951 200.014c-6.21094 66.1514 4.99023 142.951 52.4521 192.993c20.7178 21.8457 53.8457 39.127 84.0801 27.248c31.6865 -12.4521 39.584 -50.4102 43.4053 -80.3926
c5.06543 -39.7646 2.93457 -80.7432 0.538086 -120.645c-2.41016 -40.1328 -7.01855 -80.1396 -13.9824 -119.737c-6.50684 -37.0039 -15.1172 -73.6875 -25.8438 -109.737c41.4756 -38.626 95.833 -69.9648 152.706 -70.8379
c18.2773 -0.279297 15.752 -27.1191 -1.44824 -27.2451c-59.9238 -0.432617 -116.129 26.1338 -162.002 64.293c-10.291 -30.333 -22.126 -60.1309 -35.6006 -89.1787c-27.6816 -59.6777 -71.2539 -129.813 -142.559 -140.673zM297.901 431.024
c13.3887 -51.1084 39.1543 -98.876 73.9082 -138.613c8.08887 29.0752 14.79 58.543 20.1582 88.2256c12.6289 69.8223 20.3184 143.06 16.0303 214.051c-1.4082 23.2949 -4.39453 83 -39.3877 80.7881c-31.1377 -1.96973 -53.2461 -39.7812 -63.9219 -64.875
c-23.6963 -55.7002 -21.9072 -121.865 -6.78711 -179.576z" />
    <glyph glyph-name="W" unicode="W" horiz-adv-x="807" 
d="M660.389 193.172c-23.543 -103.407 -75.917 -207.382 -189.516 -197.746c-73.2412 6.21387 -125.812 67.5625 -149.714 132.902c-4.46191 12.1924 -8.1875 24.4941 -11.3945 36.8672c-2.66895 -11.8555 -5.68262 -23.6426 -9.19727 -35.3311
c-9.58203 -31.8467 -22.0439 -63.0527 -38.8691 -91.8008c-15.0117 -25.6533 -34.3008 -52.707 -62.3848 -65.1182c-74.8672 -33.0908 -138.24 45.7305 -164.344 105.954c-30.2891 69.873 -37.0615 151.169 -43.4697 226.192
c-6.66016 77.9824 -11.1865 156.016 -20.1855 233.793c-6.64355 57.4043 92.2168 66.7061 102.174 10.7402c13.3311 -74.9346 14.8613 -151.495 19.6201 -227.303c4.1416 -66.0107 10.0967 -132.986 24.2832 -197.702c6.21777 -28.3701 13.6689 -56.1299 27.6582 -81.7832
c10.6895 -19.5957 36.4619 -47.4336 60.0771 -30.3633c22.4902 16.2588 37.2432 50.5635 48.3105 75.0713c12.8232 28.3975 21.9004 58.2676 28.5576 88.6758c6.22754 28.4385 10.2432 57.2041 12.9766 86.1162c-2.13379 33.8916 -1.77539 68.083 -0.572266 102.285
c0.896484 25.5234 18.3652 43.7871 44.3525 46.5176c21.2666 2.23633 52.9258 -10.9346 53.0557 -36.2773c0.364258 -71.5879 -2.77832 -146.683 15.6387 -216.505c13.4639 -51.041 45.0654 -121.79 106.819 -124.875c28.418 -1.42188 55.1309 26.6279 69.5186 48.3613
c16.5557 25.0059 26.6045 54.5723 35.252 83.0615c4.46875 14.7285 8.36133 29.6279 11.7324 44.6426c-66.3857 40.5762 -120.678 101.365 -153.094 174.307c-26.4814 59.583 -38.3262 127.813 -23.5361 192.056c11.8965 51.6748 51.5391 130.854 116.906 116.688
c63.1211 -13.6787 81.8721 -104.736 91.7637 -157.468c13.8389 -73.7832 19.0537 -149.362 14.1484 -224.297c-1.68359 -25.7314 -4.83984 -55.8262 -10.3789 -87.0254c51.6748 -28.0254 110.262 -43.3848 171.215 -44.1348
c16.4736 -0.201172 13.9922 -23.7578 -1.29883 -24.4121c-62.1045 -2.64844 -122.29 11.252 -176.105 37.9111zM539.832 339.529c26.3047 -39.4482 59.458 -72.3408 97.2939 -97.8545c6.63281 38.3916 9.94238 77.3789 10.2529 116.299
c0.511719 64.1396 -5.64453 129.173 -19.1729 191.908c-7.77832 36.0703 -39.792 153.694 -96.876 106.546c-43.8652 -36.2305 -52.5537 -106.604 -48.1768 -159.472c4.64941 -56.1123 25.5273 -110.701 56.6787 -157.427z" />
    <glyph glyph-name="X" unicode="X" horiz-adv-x="545" 
d="M558.566 173.903c5.72656 14.5547 32.46 6.65918 26.127 -9.72266c-24.7461 -64.0273 -63.1846 -140.274 -126.878 -173.301c-56.6787 -29.3887 -129.575 -18.7949 -175.789 24.8418c-25.3291 23.918 -43.1357 53.5898 -60.0762 83.7256
c-17.7725 31.6113 -33.3877 64.0371 -47.6191 97.3799c-6.18652 14.4971 -12.0459 29.1299 -17.7314 43.8311c-5.40234 -13.2217 -10.7881 -26.4297 -16.1973 -39.5938c-18.7031 -45.5049 -38.5752 -90.9893 -65.9834 -132.043
c-23.4551 -35.1328 -56.5361 -82.376 -102.416 -86.207c-19.3984 -1.61914 -22.1729 24.3643 -2.74023 26.0684c29.8086 2.61426 54.5352 38.8242 70.4092 61.4199c17.3535 24.6992 31.7383 51.3818 44.5479 78.6709c20.5645 43.8145 38.6338 88.6279 56.8525 133.359
c-14.2783 39.6631 -27.5205 79.7246 -41.002 119.619c-24.0371 71.1309 -47.168 142.586 -66.9717 215.019c-7.72754 28.2578 4.75781 50.5879 32.3096 61.4346c23.1006 9.09375 62.1494 0.814453 70.9609 -25.4971c24.1943 -72.2393 46.3193 -145.143 69.0273 -217.862
c0.429688 -1.37402 0.869141 -2.74121 1.29883 -4.11133c5.51172 10.873 11.1768 21.6816 17.125 32.374c25.8232 46.4082 56.1494 94.8545 96.1494 130.481c24.5215 21.8457 89.3564 61.7158 110.939 14.7891c8.43652 -18.3486 -24.5039 -28.3057 -32.4326 -11.2861
c-8.10254 17.3838 -56.6377 -26.3281 -63.3867 -33.2236c-20.3457 -20.7861 -38.0088 -44.2549 -53.958 -68.5244c-22.749 -34.625 -42.5596 -70.9639 -60.6592 -108.22c14.7656 -46.2852 29.8457 -92.4717 44.6182 -138.754
c18.8535 -59.0508 39.0566 -118.436 65.3135 -174.657c10.6484 -22.7998 25.8848 -47.3076 46.1289 -62.7998c24.9512 -19.0947 60.9121 -4.27051 83.3135 12.1689c47.666 34.9824 77.624 96.9922 98.7197 150.62z" />
    <glyph glyph-name="Y" unicode="Y" horiz-adv-x="542" 
d="M389.052 244.67c70.4971 10.9141 142.367 -1.03027 190.974 -60.6064c11.9814 -14.6875 -14.1562 -28.2607 -25.0977 -15.9424c-43.7363 49.2373 -104.031 58.5703 -164.255 48.3066c0.368164 -7.43066 0.719727 -14.8652 0.97168 -22.3096
c3.77637 -110.875 -4.85059 -261.918 -108.397 -329.678c-38.5342 -25.2139 -89.6123 -41.5381 -134.493 -24.543c-50.1748 18.9961 -75.0918 72.3545 -73.418 123.565c3.79688 116.24 102.946 199.373 200.085 245.317c4.87109 2.30469 9.86133 4.53027 14.9131 6.70801
c-9.92969 100.22 -27.6924 200.229 -31.8164 300.708c-9.94629 -35.79 -19.1016 -71.8154 -28.7207 -107.701c-8.31348 -31.0186 -17.0127 -61.9482 -26.9824 -92.4795c-7.77148 -23.8057 -15.2266 -49.2305 -29.2324 -70.2686
c-12.9531 -19.4561 -31.748 -34.1641 -55.4102 -37.2861c-23.6934 -3.12891 -55.9014 4.28516 -75.3545 18.1211c-52.7822 37.5391 -58.3008 112.736 -63.8633 171.494c-6.52734 68.96 -10.5938 140.146 -5.98145 209.296c1.47266 22.0264 29.5459 33.5029 47.8604 33.5439
c20.002 0.0439453 42.0996 -12.7246 44.2305 -34.4473c6.54102 -66.707 4.08008 -135.057 6.17969 -202.077c0.873047 -27.835 2.22266 -55.6455 3.21094 -83.4668c0.804688 -22.708 2.38672 -45.4199 14.3574 -65.2373c5.81543 -9.62207 11.5898 -18.3926 23.8545 -18.123
c10.4854 0.228516 19.2969 6.16602 26.3184 13.4609c15.5088 16.1162 23.1035 39.0361 30.1387 59.7227c34.4746 101.342 54.7148 206.869 90.7783 307.703c0.157227 2.05566 0.259766 4.10742 0.433594 6.15918c2.02148 24.0137 32.126 37.0068 52.5371 36.8232
c19.7734 -0.176758 48.9443 -13.835 48.5527 -37.8145c-2.07617 -127.257 19.2246 -252.482 27.627 -378.949zM288.77 -20.9307c10.6992 68.793 9.86719 137.234 4.3584 205.543c-17.3467 -8.13672 -33.7695 -17.0977 -48.7402 -26.2529
c-42.127 -25.7695 -80.2383 -59.2188 -105.462 -102.14c-25.0771 -42.6758 -40.5654 -99.4834 -18.2148 -146.505c20.0088 -42.0996 63.8848 -56.0273 106.104 -39.0049c40.6133 16.375 55.8809 69.3242 61.9551 108.359z" />
    <glyph glyph-name="Y" unicode="&#x178;" horiz-adv-x="542" 
d="M389.052 244.67c70.4971 10.9141 142.367 -1.03027 190.974 -60.6064c11.9814 -14.6875 -14.1562 -28.2607 -25.0977 -15.9424c-43.7363 49.2373 -104.031 58.5703 -164.255 48.3066c0.368164 -7.43066 0.719727 -14.8652 0.97168 -22.3096
c3.77637 -110.875 -4.85059 -261.918 -108.397 -329.678c-38.5342 -25.2139 -89.6123 -41.5381 -134.493 -24.543c-50.1748 18.9961 -75.0918 72.3545 -73.418 123.565c3.79688 116.24 102.946 199.373 200.085 245.317c4.87109 2.30469 9.86133 4.53027 14.9131 6.70801
c-9.92969 100.22 -27.6924 200.229 -31.8164 300.708c-9.94629 -35.79 -19.1016 -71.8154 -28.7207 -107.701c-8.31348 -31.0186 -17.0127 -61.9482 -26.9824 -92.4795c-7.77148 -23.8057 -15.2266 -49.2305 -29.2324 -70.2686
c-12.9531 -19.4561 -31.748 -34.1641 -55.4102 -37.2861c-23.6934 -3.12891 -55.9014 4.28516 -75.3545 18.1211c-52.7822 37.5391 -58.3008 112.736 -63.8633 171.494c-6.52734 68.96 -10.5938 140.146 -5.98145 209.296c1.47266 22.0264 29.5459 33.5029 47.8604 33.5439
c20.002 0.0439453 42.0996 -12.7246 44.2305 -34.4473c6.54102 -66.707 4.08008 -135.057 6.17969 -202.077c0.873047 -27.835 2.22266 -55.6455 3.21094 -83.4668c0.804688 -22.708 2.38672 -45.4199 14.3574 -65.2373c5.81543 -9.62207 11.5898 -18.3926 23.8545 -18.123
c10.4854 0.228516 19.2969 6.16602 26.3184 13.4609c15.5088 16.1162 23.1035 39.0361 30.1387 59.7227c34.4746 101.342 54.7148 206.869 90.7783 307.703c0.157227 2.05566 0.259766 4.10742 0.433594 6.15918c2.02148 24.0137 32.126 37.0068 52.5371 36.8232
c19.7734 -0.176758 48.9443 -13.835 48.5527 -37.8145c-2.07617 -127.257 19.2246 -252.482 27.627 -378.949zM288.77 -20.9307c10.6992 68.793 9.86719 137.234 4.3584 205.543c-17.3467 -8.13672 -33.7695 -17.0977 -48.7402 -26.2529
c-42.127 -25.7695 -80.2383 -59.2188 -105.462 -102.14c-25.0771 -42.6758 -40.5654 -99.4834 -18.2148 -146.505c20.0088 -42.0996 63.8848 -56.0273 106.104 -39.0049c40.6133 16.375 55.8809 69.3242 61.9551 108.359z" />
    <glyph glyph-name="Y" unicode="&#xdd;" horiz-adv-x="542" 
d="M389.052 244.67c70.4971 10.9141 142.367 -1.03027 190.974 -60.6064c11.9814 -14.6875 -14.1562 -28.2607 -25.0977 -15.9424c-43.7363 49.2373 -104.031 58.5703 -164.255 48.3066c0.368164 -7.43066 0.719727 -14.8652 0.97168 -22.3096
c3.77637 -110.875 -4.85059 -261.918 -108.397 -329.678c-38.5342 -25.2139 -89.6123 -41.5381 -134.493 -24.543c-50.1748 18.9961 -75.0918 72.3545 -73.418 123.565c3.79688 116.24 102.946 199.373 200.085 245.317c4.87109 2.30469 9.86133 4.53027 14.9131 6.70801
c-9.92969 100.22 -27.6924 200.229 -31.8164 300.708c-9.94629 -35.79 -19.1016 -71.8154 -28.7207 -107.701c-8.31348 -31.0186 -17.0127 -61.9482 -26.9824 -92.4795c-7.77148 -23.8057 -15.2266 -49.2305 -29.2324 -70.2686
c-12.9531 -19.4561 -31.748 -34.1641 -55.4102 -37.2861c-23.6934 -3.12891 -55.9014 4.28516 -75.3545 18.1211c-52.7822 37.5391 -58.3008 112.736 -63.8633 171.494c-6.52734 68.96 -10.5938 140.146 -5.98145 209.296c1.47266 22.0264 29.5459 33.5029 47.8604 33.5439
c20.002 0.0439453 42.0996 -12.7246 44.2305 -34.4473c6.54102 -66.707 4.08008 -135.057 6.17969 -202.077c0.873047 -27.835 2.22266 -55.6455 3.21094 -83.4668c0.804688 -22.708 2.38672 -45.4199 14.3574 -65.2373c5.81543 -9.62207 11.5898 -18.3926 23.8545 -18.123
c10.4854 0.228516 19.2969 6.16602 26.3184 13.4609c15.5088 16.1162 23.1035 39.0361 30.1387 59.7227c34.4746 101.342 54.7148 206.869 90.7783 307.703c0.157227 2.05566 0.259766 4.10742 0.433594 6.15918c2.02148 24.0137 32.126 37.0068 52.5371 36.8232
c19.7734 -0.176758 48.9443 -13.835 48.5527 -37.8145c-2.07617 -127.257 19.2246 -252.482 27.627 -378.949zM288.77 -20.9307c10.6992 68.793 9.86719 137.234 4.3584 205.543c-17.3467 -8.13672 -33.7695 -17.0977 -48.7402 -26.2529
c-42.127 -25.7695 -80.2383 -59.2188 -105.462 -102.14c-25.0771 -42.6758 -40.5654 -99.4834 -18.2148 -146.505c20.0088 -42.0996 63.8848 -56.0273 106.104 -39.0049c40.6133 16.375 55.8809 69.3242 61.9551 108.359z" />
    <glyph glyph-name="Z" unicode="Z" horiz-adv-x="449" 
d="M315.92 655.009c32.2695 -24.5459 30.5 -70.458 27.7148 -106.801c-3.02637 -39.4238 -13.5723 -78.0605 -27.7246 -115.583c13.4609 0.551758 26.959 0.575195 40.4775 -0.0654297c21.0068 -0.995117 13.3818 -28.1143 -5.76758 -27.208
c-15.1953 0.71875 -30.4727 0.606445 -45.7539 -0.201172c-12.3701 -29.1064 -26.376 -57.4795 -40.1709 -84.9326c-34.7402 -69.1436 -74.5664 -135.775 -105.125 -206.978c-14.4287 -33.6123 -24.5146 -64.7266 -36.9053 -100.159
c-5.97168 -17.0742 -22.8174 -61.042 -7.76172 -80.0039c3.32715 1.20312 6.74609 3.75977 11.082 7.66309c8.66113 7.79199 16.6846 16.1504 24.6816 24.6143c15.165 16.0508 30.4766 31.9551 45.6553 47.9922c30.5176 32.249 61.5635 63.6729 96.3623 91.3711
c32.5186 25.8818 67.9951 48.0928 106.421 64.1064c26.1309 10.8906 71.1963 30.708 89.9434 -1.61914c9.66016 -16.6582 -21.9717 -26.0322 -31.0859 -10.8193c-2.68555 4.48242 -34.877 -9.54785 -39.001 -11.1836c-15.4648 -6.13867 -30.3398 -13.5146 -44.7275 -21.8594
c-26.873 -15.584 -51.9941 -34.1504 -75.333 -54.6221c-50.417 -44.2236 -96.1025 -95.6592 -136.59 -149.055c-16.8691 -22.248 -35.3438 -41.1592 -65.6631 -38.875c-28.9287 2.17773 -53.3135 23.2021 -63.9111 49.5605
c-20.8164 51.7734 -5.30078 114.945 13.0303 165.12c38.0332 104.079 99.1631 196.715 151.659 293.629c-8.0752 -1.90234 -16.1025 -3.91699 -24.0586 -6.05469c-16.2627 -4.36621 -27.8379 17.0977 -9.95605 22.3945c16.3721 4.85059 32.9111 9.21387 49.5791 12.9834
c21.2627 40.8799 40.9678 82.8438 55.8633 126.375c8.66797 25.333 18.001 55.8467 15.3965 82.9248c-2.47461 25.7451 -38.2246 24.668 -57.6162 22.7012c-53.9375 -5.46387 -102.189 -33.0977 -154.014 -46.8174c-30.6982 -8.12598 -104.917 -25.6807 -113.422 21.8047
c-2.80859 15.6758 25.0674 18.3408 28.2852 2.97168c3.6709 -17.5068 47.3799 -6.64746 58.291 -4.16602c19.6436 4.46875 38.793 11.3271 57.6523 18.3252c39.1787 14.5381 78.3398 31.1689 120.29 35.6543c33.0908 3.53809 65.3291 -2.74707 92.2021 -23.1885z" />
    <glyph glyph-name="bracketleft" unicode="[" horiz-adv-x="294" 
d="M217.143 -84.9287c22.7012 3.59277 38.8066 -25.6865 17.0117 -38.7998c-31.7891 -19.1328 -73.2451 -25.0225 -105.678 -3.33691c-30.9434 20.6865 -42.5391 54.5439 -51.5547 88.7666c-34.9209 132.574 -28.5879 271.039 -20.8916 406.593
c3.84473 67.6953 8.39844 136.059 30.1484 200.806c9.66309 28.7686 21.9648 53.8623 49.084 69.4326c22.0127 12.6426 44.3799 20.043 69.1328 10.168c15.8232 -6.3125 6.02344 -27.8818 -9.02246 -24.2861c-59.5586 14.2275 -52.9014 -98.2705 -53.9951 -131.839
c-1.7793 -54.6328 -0.210938 -109.562 0.331055 -164.216c0.548828 -55.4756 0.913086 -111.125 3.91309 -166.528c2.93457 -54.1768 9.37012 -108.176 18.7305 -161.616c4.57812 -26.1406 13.3008 -91.3916 52.79 -85.1436z" />
    <glyph glyph-name="backslash" unicode="\" horiz-adv-x="463" 
d="M408.379 -153.057c16.0986 -25.2139 -17.4551 -47.2598 -39.499 -32.2822c-24.7021 16.7803 -42.0586 45.876 -57.8574 70.5c-17.6494 27.5078 -32.9746 56.6514 -48.0371 85.6484c-51.1016 98.3896 -91.6543 202.305 -127.305 307.16
c-36.2949 106.751 -70.6299 218.056 -85.3652 330.09c-3.18066 24.1875 18.4404 41.8779 39.4443 46.8643c19.3271 4.58789 52.1934 -2.27344 58.7686 -24.9785c17.1279 -59.1494 30.6807 -119.209 46.9736 -178.577c28.4854 -103.785 61.7734 -206.388 100.689 -306.74
c19.623 -50.6045 39.8496 -100.905 60.0557 -151.274c10.0586 -25.0771 21.3174 -49.7451 30.623 -75.1016c5.30371 -14.4561 10.6143 -28.5674 14.5439 -43.4531c2.05566 -7.78906 2.73438 -21.2324 6.96484 -27.8555z" />
    <glyph glyph-name="bracketright" unicode="]" horiz-adv-x="312" 
d="M252.225 338.523c4.39062 -67.3164 9.85938 -134.804 9.98926 -202.287c0.0683594 -35.8994 -1.20996 -71.9453 -4.85352 -107.671c-3.04688 -29.8936 -8.46289 -61.1133 -23.9512 -87.4043c-33.0059 -56.0342 -110.682 -90.2461 -170.517 -55.1064
c-23.4883 13.7881 -11.8477 46.3535 10.5977 53.2666c5.65527 1.74219 11.4229 3.01367 17.0605 4.77637c2.57324 0.804688 5.09863 1.7793 7.59375 2.79883c0.208008 0.0986328 0.429688 0.204102 0.688477 0.327148c9.33594 4.4248 17.6465 8.52148 24.6445 14.0303
c0.194336 0.327148 4.41113 4.17871 4.89551 4.65918c1.71777 1.70801 3.34375 3.51074 5.07227 5.21191c0.886719 0.873047 2.39355 2.69629 2.84375 3.16016c1.02246 1.60156 1.99023 3.25488 2.91406 4.89453c5.98535 10.5938 7.95508 18.2324 10.5078 30.8066
c10.2871 50.6934 10.1338 103.725 9.49316 155.215c-0.695312 55.5771 -0.0205078 111.161 -0.210938 166.742c-0.1875 53.4268 0.238281 106.775 -3.43262 160.12c-1.80957 26.2324 -6.11133 52.332 -7.29395 78.5889c-0.541992 12.124 1.95996 25.5605 -3.7627 36.7207
c-5.23242 10.1982 -15.2363 17.9834 -26.4951 12.6289c-13.3477 -6.35059 -26.9033 12.3115 -13.207 20.8262c24.9307 15.502 54.5479 4.32129 70.1357 -18.7998c19.3613 -28.7139 35.6787 -56.2285 45.3525 -89.793c18.2256 -63.2129 27.6602 -128.144 31.9346 -193.712z
" />
    <glyph glyph-name="asciicircum" unicode="^" horiz-adv-x="272" 
d="M209.396 512.986c6.69824 -30.9805 10.6846 -63.792 12.2324 -95.4277c2.33105 -47.8438 -78.9268 -56.6553 -85.4922 -8.98535c-2.49121 18.0996 -4.24316 36.2842 -6.6875 54.3906c-1.11816 -1.44141 -2.23633 -2.88281 -3.36133 -4.32812
c-13.4912 -17.3496 -28.1963 -34.3145 -41.21 -51.8105c-6.72559 -9.04297 -24.2764 -6.72559 -28.6807 3.34375c-12.4414 28.4453 -4.57422 59.085 9.70117 85.8525c14.1318 26.499 35.0059 58.1621 64.6641 68.166c40.627 13.6992 70.7178 -13.6758 78.834 -51.2012z
M162.551 498.033c0.832031 0.800781 0.90625 1.26953 0.234375 1.39941c-0.569336 -0.514648 -1.13477 -1.0332 -1.7041 -1.55176c0.491211 0.0507812 0.978516 0.101562 1.46973 0.152344z" />
    <glyph glyph-name="underscore" unicode="_" horiz-adv-x="369" 
d="M318.68 -40.5928c2.32812 -22.1699 -18.7529 -39.0195 -39.1436 -41.0508c-35.9883 -3.58203 -72.5664 -2.85645 -108.697 -2.73047c-18.7197 0.0644531 -37.4434 0.078125 -56.1631 0.197266c-16.498 0.105469 -34.0283 -0.331055 -49.7422 5.1123
c-16.5254 5.72656 -21.3623 30.125 -4.06348 38.6631c30.541 15.0762 69.8047 15.6211 103.223 20.2061c35.6846 4.89453 71.7305 10.4199 107.763 11.623c20.4414 0.678711 44.3564 -8.53809 46.8242 -32.0205z" />
    <glyph glyph-name="grave" unicode="`" horiz-adv-x="171" 
d="M117.357 444.14c7.36914 -6.70117 2.20801 -17.8525 -4.41504 -22.4131c-25.793 -17.7725 -48.3682 7.60449 -55.8564 30.7969c-8.76367 27.1357 -8.81152 57.084 -3.34082 84.8096c5.375 27.2344 53.7295 28.2363 57.0225 -0.563477
c1.92578 -16.8799 1.58496 -33.7598 2.08301 -50.7275c0.228516 -7.86328 0.269531 -38.0469 4.50684 -41.9023z" />
    <glyph glyph-name="a" unicode="a" horiz-adv-x="489" 
d="M493.343 172.084c6.04004 14.1973 32.1582 6.44727 25.6924 -9.56348c-19.1016 -47.335 -39.6689 -96.7568 -76.7549 -133.157c-18.1641 -17.8301 -42.1611 -35.6396 -66.0176 -44.6484c-26.7744 -10.1104 -56.5967 -3.68848 -79.2334 13.2422
c-50.4609 37.7402 -69.4229 101.665 -82.0518 160.556c-0.251953 1.17969 -0.473633 2.37305 -0.71875 3.55566c-5.29004 -27.0098 -11.6982 -53.7842 -20.1035 -80.1289c-9.80957 -30.7461 -20.042 -61.1777 -44.0557 -83.7324
c-27.7832 -26.0967 -62.5303 -29.8389 -95.9854 -10.4062c-31.8633 18.5049 -52.9043 55.0352 -63.2285 89.6191c-11.1152 37.2256 -14.8311 74.6006 -11.9512 113.299c5.40234 72.5557 30.4766 153.841 89.8545 199.782c30.7324 23.7783 72.0615 36.6387 109.171 20.2334
c15.0732 -6.66406 26.5947 -17.374 35.1602 -30.2754c11.1426 12.7754 30.9707 19.5215 46.0781 19.3848c21.0244 -0.1875 50.1377 -14.3193 50.373 -39.2324c0.951172 -100.766 -7.00098 -207.633 34.0049 -302.43c5.77441 -13.3516 14.5176 -29.9961 29.5117 -34.7139
c20.499 -6.45215 45.665 21.6689 57.5645 35.2793c28.5674 32.6787 45.8828 73.8174 62.6904 113.337zM184.949 166.383c6.86816 33.6191 11.9697 67.542 16.9766 101.481c-0.255859 7.43066 -0.395508 14.8584 -0.422852 22.2822
c-18.0352 -2.21582 -37.2529 5.60742 -37.9961 25.2578c-0.555664 14.7256 -2.10352 26.5947 -11.0439 38.2422c-0.592773 0.770508 -1.48535 1.32227 -1.89062 1.7041c-2.80859 -1.25098 -5.4873 -3.83789 -7.28027 -5.55273
c-18.4512 -17.6123 -31.9492 -45.2188 -42.3828 -68.1592c-19.9912 -43.957 -28.6523 -96.167 -25.5742 -144.283c1.60547 -25.0742 6.58203 -50.376 16.0205 -73.708c4.84375 -11.9746 17.8916 -45.1748 35.6748 -43.627c17.5 1.52051 31.1035 49.6299 35.749 62.8242
c9.56836 27.1699 16.4092 55.3418 22.1699 83.5381z" />
    <glyph glyph-name="a" unicode="&#xe5;" horiz-adv-x="489" 
d="M493.343 172.084c6.04004 14.1973 32.1582 6.44727 25.6924 -9.56348c-19.1016 -47.335 -39.6689 -96.7568 -76.7549 -133.157c-18.1641 -17.8301 -42.1611 -35.6396 -66.0176 -44.6484c-26.7744 -10.1104 -56.5967 -3.68848 -79.2334 13.2422
c-50.4609 37.7402 -69.4229 101.665 -82.0518 160.556c-0.251953 1.17969 -0.473633 2.37305 -0.71875 3.55566c-5.29004 -27.0098 -11.6982 -53.7842 -20.1035 -80.1289c-9.80957 -30.7461 -20.042 -61.1777 -44.0557 -83.7324
c-27.7832 -26.0967 -62.5303 -29.8389 -95.9854 -10.4062c-31.8633 18.5049 -52.9043 55.0352 -63.2285 89.6191c-11.1152 37.2256 -14.8311 74.6006 -11.9512 113.299c5.40234 72.5557 30.4766 153.841 89.8545 199.782c30.7324 23.7783 72.0615 36.6387 109.171 20.2334
c15.0732 -6.66406 26.5947 -17.374 35.1602 -30.2754c11.1426 12.7754 30.9707 19.5215 46.0781 19.3848c21.0244 -0.1875 50.1377 -14.3193 50.373 -39.2324c0.951172 -100.766 -7.00098 -207.633 34.0049 -302.43c5.77441 -13.3516 14.5176 -29.9961 29.5117 -34.7139
c20.499 -6.45215 45.665 21.6689 57.5645 35.2793c28.5674 32.6787 45.8828 73.8174 62.6904 113.337zM184.949 166.383c6.86816 33.6191 11.9697 67.542 16.9766 101.481c-0.255859 7.43066 -0.395508 14.8584 -0.422852 22.2822
c-18.0352 -2.21582 -37.2529 5.60742 -37.9961 25.2578c-0.555664 14.7256 -2.10352 26.5947 -11.0439 38.2422c-0.592773 0.770508 -1.48535 1.32227 -1.89062 1.7041c-2.80859 -1.25098 -5.4873 -3.83789 -7.28027 -5.55273
c-18.4512 -17.6123 -31.9492 -45.2188 -42.3828 -68.1592c-19.9912 -43.957 -28.6523 -96.167 -25.5742 -144.283c1.60547 -25.0742 6.58203 -50.376 16.0205 -73.708c4.84375 -11.9746 17.8916 -45.1748 35.6748 -43.627c17.5 1.52051 31.1035 49.6299 35.749 62.8242
c9.56836 27.1699 16.4092 55.3418 22.1699 83.5381z" />
    <glyph glyph-name="a" unicode="&#xe4;" horiz-adv-x="489" 
d="M493.343 172.084c6.04004 14.1973 32.1582 6.44727 25.6924 -9.56348c-19.1016 -47.335 -39.6689 -96.7568 -76.7549 -133.157c-18.1641 -17.8301 -42.1611 -35.6396 -66.0176 -44.6484c-26.7744 -10.1104 -56.5967 -3.68848 -79.2334 13.2422
c-50.4609 37.7402 -69.4229 101.665 -82.0518 160.556c-0.251953 1.17969 -0.473633 2.37305 -0.71875 3.55566c-5.29004 -27.0098 -11.6982 -53.7842 -20.1035 -80.1289c-9.80957 -30.7461 -20.042 -61.1777 -44.0557 -83.7324
c-27.7832 -26.0967 -62.5303 -29.8389 -95.9854 -10.4062c-31.8633 18.5049 -52.9043 55.0352 -63.2285 89.6191c-11.1152 37.2256 -14.8311 74.6006 -11.9512 113.299c5.40234 72.5557 30.4766 153.841 89.8545 199.782c30.7324 23.7783 72.0615 36.6387 109.171 20.2334
c15.0732 -6.66406 26.5947 -17.374 35.1602 -30.2754c11.1426 12.7754 30.9707 19.5215 46.0781 19.3848c21.0244 -0.1875 50.1377 -14.3193 50.373 -39.2324c0.951172 -100.766 -7.00098 -207.633 34.0049 -302.43c5.77441 -13.3516 14.5176 -29.9961 29.5117 -34.7139
c20.499 -6.45215 45.665 21.6689 57.5645 35.2793c28.5674 32.6787 45.8828 73.8174 62.6904 113.337zM184.949 166.383c6.86816 33.6191 11.9697 67.542 16.9766 101.481c-0.255859 7.43066 -0.395508 14.8584 -0.422852 22.2822
c-18.0352 -2.21582 -37.2529 5.60742 -37.9961 25.2578c-0.555664 14.7256 -2.10352 26.5947 -11.0439 38.2422c-0.592773 0.770508 -1.48535 1.32227 -1.89062 1.7041c-2.80859 -1.25098 -5.4873 -3.83789 -7.28027 -5.55273
c-18.4512 -17.6123 -31.9492 -45.2188 -42.3828 -68.1592c-19.9912 -43.957 -28.6523 -96.167 -25.5742 -144.283c1.60547 -25.0742 6.58203 -50.376 16.0205 -73.708c4.84375 -11.9746 17.8916 -45.1748 35.6748 -43.627c17.5 1.52051 31.1035 49.6299 35.749 62.8242
c9.56836 27.1699 16.4092 55.3418 22.1699 83.5381z" />
    <glyph glyph-name="a" unicode="&#xe3;" horiz-adv-x="489" 
d="M493.343 172.084c6.04004 14.1973 32.1582 6.44727 25.6924 -9.56348c-19.1016 -47.335 -39.6689 -96.7568 -76.7549 -133.157c-18.1641 -17.8301 -42.1611 -35.6396 -66.0176 -44.6484c-26.7744 -10.1104 -56.5967 -3.68848 -79.2334 13.2422
c-50.4609 37.7402 -69.4229 101.665 -82.0518 160.556c-0.251953 1.17969 -0.473633 2.37305 -0.71875 3.55566c-5.29004 -27.0098 -11.6982 -53.7842 -20.1035 -80.1289c-9.80957 -30.7461 -20.042 -61.1777 -44.0557 -83.7324
c-27.7832 -26.0967 -62.5303 -29.8389 -95.9854 -10.4062c-31.8633 18.5049 -52.9043 55.0352 -63.2285 89.6191c-11.1152 37.2256 -14.8311 74.6006 -11.9512 113.299c5.40234 72.5557 30.4766 153.841 89.8545 199.782c30.7324 23.7783 72.0615 36.6387 109.171 20.2334
c15.0732 -6.66406 26.5947 -17.374 35.1602 -30.2754c11.1426 12.7754 30.9707 19.5215 46.0781 19.3848c21.0244 -0.1875 50.1377 -14.3193 50.373 -39.2324c0.951172 -100.766 -7.00098 -207.633 34.0049 -302.43c5.77441 -13.3516 14.5176 -29.9961 29.5117 -34.7139
c20.499 -6.45215 45.665 21.6689 57.5645 35.2793c28.5674 32.6787 45.8828 73.8174 62.6904 113.337zM184.949 166.383c6.86816 33.6191 11.9697 67.542 16.9766 101.481c-0.255859 7.43066 -0.395508 14.8584 -0.422852 22.2822
c-18.0352 -2.21582 -37.2529 5.60742 -37.9961 25.2578c-0.555664 14.7256 -2.10352 26.5947 -11.0439 38.2422c-0.592773 0.770508 -1.48535 1.32227 -1.89062 1.7041c-2.80859 -1.25098 -5.4873 -3.83789 -7.28027 -5.55273
c-18.4512 -17.6123 -31.9492 -45.2188 -42.3828 -68.1592c-19.9912 -43.957 -28.6523 -96.167 -25.5742 -144.283c1.60547 -25.0742 6.58203 -50.376 16.0205 -73.708c4.84375 -11.9746 17.8916 -45.1748 35.6748 -43.627c17.5 1.52051 31.1035 49.6299 35.749 62.8242
c9.56836 27.1699 16.4092 55.3418 22.1699 83.5381z" />
    <glyph glyph-name="a" unicode="&#xe2;" horiz-adv-x="489" 
d="M493.343 172.084c6.04004 14.1973 32.1582 6.44727 25.6924 -9.56348c-19.1016 -47.335 -39.6689 -96.7568 -76.7549 -133.157c-18.1641 -17.8301 -42.1611 -35.6396 -66.0176 -44.6484c-26.7744 -10.1104 -56.5967 -3.68848 -79.2334 13.2422
c-50.4609 37.7402 -69.4229 101.665 -82.0518 160.556c-0.251953 1.17969 -0.473633 2.37305 -0.71875 3.55566c-5.29004 -27.0098 -11.6982 -53.7842 -20.1035 -80.1289c-9.80957 -30.7461 -20.042 -61.1777 -44.0557 -83.7324
c-27.7832 -26.0967 -62.5303 -29.8389 -95.9854 -10.4062c-31.8633 18.5049 -52.9043 55.0352 -63.2285 89.6191c-11.1152 37.2256 -14.8311 74.6006 -11.9512 113.299c5.40234 72.5557 30.4766 153.841 89.8545 199.782c30.7324 23.7783 72.0615 36.6387 109.171 20.2334
c15.0732 -6.66406 26.5947 -17.374 35.1602 -30.2754c11.1426 12.7754 30.9707 19.5215 46.0781 19.3848c21.0244 -0.1875 50.1377 -14.3193 50.373 -39.2324c0.951172 -100.766 -7.00098 -207.633 34.0049 -302.43c5.77441 -13.3516 14.5176 -29.9961 29.5117 -34.7139
c20.499 -6.45215 45.665 21.6689 57.5645 35.2793c28.5674 32.6787 45.8828 73.8174 62.6904 113.337zM184.949 166.383c6.86816 33.6191 11.9697 67.542 16.9766 101.481c-0.255859 7.43066 -0.395508 14.8584 -0.422852 22.2822
c-18.0352 -2.21582 -37.2529 5.60742 -37.9961 25.2578c-0.555664 14.7256 -2.10352 26.5947 -11.0439 38.2422c-0.592773 0.770508 -1.48535 1.32227 -1.89062 1.7041c-2.80859 -1.25098 -5.4873 -3.83789 -7.28027 -5.55273
c-18.4512 -17.6123 -31.9492 -45.2188 -42.3828 -68.1592c-19.9912 -43.957 -28.6523 -96.167 -25.5742 -144.283c1.60547 -25.0742 6.58203 -50.376 16.0205 -73.708c4.84375 -11.9746 17.8916 -45.1748 35.6748 -43.627c17.5 1.52051 31.1035 49.6299 35.749 62.8242
c9.56836 27.1699 16.4092 55.3418 22.1699 83.5381z" />
    <glyph glyph-name="a" unicode="&#xe1;" horiz-adv-x="489" 
d="M493.343 172.084c6.04004 14.1973 32.1582 6.44727 25.6924 -9.56348c-19.1016 -47.335 -39.6689 -96.7568 -76.7549 -133.157c-18.1641 -17.8301 -42.1611 -35.6396 -66.0176 -44.6484c-26.7744 -10.1104 -56.5967 -3.68848 -79.2334 13.2422
c-50.4609 37.7402 -69.4229 101.665 -82.0518 160.556c-0.251953 1.17969 -0.473633 2.37305 -0.71875 3.55566c-5.29004 -27.0098 -11.6982 -53.7842 -20.1035 -80.1289c-9.80957 -30.7461 -20.042 -61.1777 -44.0557 -83.7324
c-27.7832 -26.0967 -62.5303 -29.8389 -95.9854 -10.4062c-31.8633 18.5049 -52.9043 55.0352 -63.2285 89.6191c-11.1152 37.2256 -14.8311 74.6006 -11.9512 113.299c5.40234 72.5557 30.4766 153.841 89.8545 199.782c30.7324 23.7783 72.0615 36.6387 109.171 20.2334
c15.0732 -6.66406 26.5947 -17.374 35.1602 -30.2754c11.1426 12.7754 30.9707 19.5215 46.0781 19.3848c21.0244 -0.1875 50.1377 -14.3193 50.373 -39.2324c0.951172 -100.766 -7.00098 -207.633 34.0049 -302.43c5.77441 -13.3516 14.5176 -29.9961 29.5117 -34.7139
c20.499 -6.45215 45.665 21.6689 57.5645 35.2793c28.5674 32.6787 45.8828 73.8174 62.6904 113.337zM184.949 166.383c6.86816 33.6191 11.9697 67.542 16.9766 101.481c-0.255859 7.43066 -0.395508 14.8584 -0.422852 22.2822
c-18.0352 -2.21582 -37.2529 5.60742 -37.9961 25.2578c-0.555664 14.7256 -2.10352 26.5947 -11.0439 38.2422c-0.592773 0.770508 -1.48535 1.32227 -1.89062 1.7041c-2.80859 -1.25098 -5.4873 -3.83789 -7.28027 -5.55273
c-18.4512 -17.6123 -31.9492 -45.2188 -42.3828 -68.1592c-19.9912 -43.957 -28.6523 -96.167 -25.5742 -144.283c1.60547 -25.0742 6.58203 -50.376 16.0205 -73.708c4.84375 -11.9746 17.8916 -45.1748 35.6748 -43.627c17.5 1.52051 31.1035 49.6299 35.749 62.8242
c9.56836 27.1699 16.4092 55.3418 22.1699 83.5381z" />
    <glyph glyph-name="b" unicode="b" horiz-adv-x="448" 
d="M456.697 151.087c15.7139 9.5166 36.5723 -10.8027 18.6768 -21.8564c-37.1338 -22.9434 -78.5723 -34.3047 -120.887 -42.7002c-6.72852 -56.3203 -22.1016 -122.26 -68.4756 -159.097c-38.582 -30.6465 -113.006 -40.1055 -143.057 8.17773
c-23.6455 37.9922 -15.3281 89.667 17.7598 119.268c27.1494 24.2832 62.2305 35.6748 97.7139 43.2695c3.2041 20.7412 5.25977 41.6807 7.03906 62.3984c4.01855 46.8135 6.92285 94.5068 4.11719 141.464c-1.41797 23.748 -2.1748 48.2627 -8.29688 71.3838
c-2.25977 8.52539 -5.24902 18.7686 -10.3311 26.0049c-9.18652 13.0752 -19.5488 6.04297 -27.627 -3.59961c-29.1338 -34.7715 -40.2598 -88.3242 -52.5381 -130.87c-25.3398 -87.8027 -44.4385 -177.207 -62.4697 -266.755
c0.671875 -12.8438 0.120117 -25.6123 -3.57812 -38.2344c-7.30762 -24.9336 -39.0518 -29.0615 -56.5479 -12.3691c-26.6592 25.4355 -33.292 66.584 -41.3223 101.352c-7.37305 31.9355 -10.2979 65.292 -13.7168 97.8447
c-6.95703 66.2529 -9.7998 133.253 -9.04004 199.847c1.34668 118.252 12.8955 237.897 52.3604 350.068c19.1631 54.4795 44.8398 110.244 92.4756 145.595c21.7744 16.1602 55.0361 24.1055 80.9482 13.9717c19.208 -7.5127 33.5068 -26.71 39.5303 -45.9414
c15.8164 -50.502 -1.08691 -109.352 -13.0371 -158.804c-14.3506 -59.3887 -31.915 -117.962 -51.2451 -175.908c-28.4414 -85.249 -60.6631 -169.146 -92.667 -253.113c1.63965 -33.3262 3.45312 -66.6455 5.46094 -99.9443
c0.40918 -6.74609 0.862305 -13.4883 1.34961 -20.2305c5.58008 26.0693 11.416 52.084 17.6475 78.0098c15.3525 63.9014 30.4219 130.782 57.5547 190.907c9.45215 20.9492 21.2832 44.3018 41.752 56.5186c20.1211 12.0088 41.8916 6.60938 59.4531 -6.98438
c46.4629 -35.9639 64.4297 -95.8877 74.2188 -151.35c8.85254 -50.1543 11.126 -102.333 7.39648 -153.384c34.7031 6.93359 68.6836 16.4707 99.3818 35.0615zM104.34 592.765c-18.9004 -98.7207 -18.9531 -198.052 -15.0977 -297.976
c24.5117 65.1895 48.5293 130.557 70.1094 196.782c16.9238 51.9443 32.3477 104.399 45.2559 157.495c6.51367 26.7812 12.2129 53.9102 14.9121 81.373c2.28418 23.2432 4.27832 50.3789 -6.67383 71.9316c-10.8428 21.3447 -21.9443 8.1123 -33.4961 -5.10938
c-15.165 -17.3535 -25.1387 -38.9229 -33.8682 -60.0771c-18.9551 -45.9414 -31.8154 -95.7041 -41.1416 -144.42zM238.576 20.2734c6.0127 15.458 10.5791 31.3828 14.1748 47.5537c-19.3779 -5.13379 -37.8154 -12.2539 -53.5156 -23.3594
c-16.0781 -11.375 -28.3662 -28.1934 -29.4941 -48.4404c-0.825195 -14.7969 5.17383 -27.7461 21.2793 -28.043c-2.76074 0.0507812 6.54785 1.83691 7.88086 1.82031c1.85742 0.814453 4.45117 1.99023 1.18945 -0.00683594
c10.4854 6.42188 9.27832 5.14355 16.2451 13.1572c9.33594 10.7373 17.4141 24.9072 22.2402 37.3184z" />
    <glyph glyph-name="c" unicode="c" horiz-adv-x="271" 
d="M272.999 176.447c4.69727 14.5137 32.79 12.2227 27.9502 -3.52539c-12.6152 -41.04 -28.251 -81.2852 -47.7822 -119.554c-16.8457 -33.0088 -38.9502 -64.5898 -73.3496 -80.8896c-27.8242 -13.1846 -64.5078 -16.5996 -94.1523 -8.27246
c-36.5576 10.2705 -65.8242 44.0703 -80.5801 77.8838c-31.5127 72.2148 -32.2832 163.862 -13.9619 239.503c9.08008 37.4912 21.9131 76.5195 46.6729 106.784c23.6221 28.8711 65.5176 52.2607 103.701 41.0498c72.2422 -21.2148 66.5527 -131.378 55.877 -188.673
c-3.45312 -18.5361 -37.1201 -15.6455 -34.0693 4.29785c5.46387 35.7324 5.375 73.6396 -4.05957 108.779c-2.1543 8.02734 -9.79688 30.2588 -20.7285 29.6211c-2.3418 -0.136719 -11.6982 -15.8057 -13.9346 -19.293
c-28.4248 -44.3359 -40.9688 -100.933 -46.416 -152.958c-5.40625 -51.6162 -0.879883 -110.425 16.1055 -159.687c6.89258 -19.9951 18.5293 -41.916 35.7871 -54.9639c22.5615 -17.0635 53.3887 8.20801 68.2744 25.084c18.2979 20.7412 30.542 46.8135 42.1377 71.6934
c12.5918 27.0166 23.3525 54.7666 32.5283 83.1191z" />
    <glyph glyph-name="d" unicode="d" horiz-adv-x="505" 
d="M507.816 162.032c1.24707 15.3662 29.0791 12.874 27.9473 -3.52441c-2.73047 -39.7236 -12.7998 -78.4355 -30.0547 -114.355c-14.8135 -30.8408 -35.5039 -66.0723 -67.0674 -82.1611c-28.6865 -14.6191 -71.4238 -16.4053 -101.038 -3.99414
c-17.9736 7.5332 -35.1533 18.8154 -49.4355 32.0781c-14.9092 13.8496 -24.9648 34.0254 -33.4902 52.3438c-20.0391 43.0645 -31.373 89.5137 -38.2275 136.642c-5.87305 -32.7734 -13.1201 -65.2607 -23.2881 -97.1211
c-9.80957 -30.7461 -20.042 -61.1777 -44.0557 -83.7324c-27.7832 -26.0967 -62.5303 -29.8389 -95.9854 -10.4062c-31.8633 18.5059 -52.9043 55.0361 -63.2285 89.6201c-11.1152 37.2256 -14.8311 74.6006 -11.9512 113.299
c5.40234 72.5557 30.4727 153.841 89.8574 199.785c30.7324 23.7783 72.0615 36.6387 109.171 20.2334c12.2402 -5.41309 22.0977 -13.5225 29.9746 -23.2715c1.61914 36.5674 4.8916 73.0635 9.80664 109.208c10.3516 76.1279 28.4033 151.229 58.6748 221.976
c14.3125 33.4453 32.4434 67.8789 58.6963 93.6445c25.0225 24.5557 60.792 44.6631 95.3174 28.1309c10.2979 -4.92871 -5.51855 2.38965 1.07324 -0.848633c1.96289 -0.960938 3.77637 -1.9834 5.53223 -3.28516c2.87695 -2.13379 5.44727 -4.8125 7.63867 -7.62793
c5.06836 -6.50684 7.62109 -14.4834 9.34961 -22.4258c4.43164 -20.3457 3.11621 -42.0859 1.26855 -62.6602c-4.58789 -51.0674 -14.4453 -102.02 -24.3096 -152.276c-27.4023 -139.627 -66.0117 -276.653 -107.668 -412.619
c1.27832 -9.53418 2.66602 -19.041 4.16602 -28.5098c5.52832 -34.9316 11.5107 -70.4395 25.3496 -103.22c9.54785 -22.6191 22.9229 -66.1133 54.1318 -66.9482c35.0166 -0.933594 59.8008 48.0547 72.7432 74.1992c16.7324 33.7969 26.0615 70.3164 29.1016 107.828z
M183.968 166.381c8.41211 41.1826 14.1807 82.8232 20.3672 124.392c-19.0303 -3.89648 -41.0156 3.58203 -41.8096 24.6299c-0.555664 14.7256 -2.10352 26.5947 -11.0439 38.2422c-0.592773 0.770508 -1.48535 1.32227 -1.89062 1.7041
c-2.80859 -1.25098 -5.4873 -3.83789 -7.28027 -5.55273c-18.4512 -17.6123 -31.9492 -45.2188 -42.3828 -68.1592c-19.9912 -43.957 -28.6523 -96.167 -25.5742 -144.283c1.60547 -25.0742 6.58203 -50.376 16.0205 -73.708
c4.84375 -11.9746 17.8916 -45.1748 35.6748 -43.627c17.5 1.52051 31.1035 49.6299 35.749 62.8242c9.56836 27.1699 16.4092 55.3418 22.1699 83.5381zM341.979 600.183c-27.6436 -111.851 -35.7461 -229.993 -27.4424 -345.78
c6.69434 22.749 13.2998 45.5254 19.6982 68.3633c30.0605 107.313 56.3105 215.707 75.4434 325.532c5.51172 31.6523 11.3438 63.417 12.4717 95.5908c0.525391 14.9473 0.879883 30.7432 -2.09277 45.4824c-1.05371 5.22168 -2.61133 11.6641 -5.69629 16.2559
c-1.69727 -1.53711 -3.07812 -3.75977 -5.00391 -7.54004c-4.1377 -8.12305 -7.79883 -16.5596 -11.6025 -24.8428c-7.37305 -16.0479 -12.6738 -32.0918 -18.3701 -48.7568c-13.9922 -40.9336 -27.0195 -82.2832 -37.4053 -124.305z" />
    <glyph glyph-name="e" unicode="e" horiz-adv-x="249" 
d="M250.612 176.553c4.58496 15.0322 33.3252 12.9668 28.8838 -3.63965c-18.8838 -70.6943 -45.2324 -161.415 -120.468 -191.574c-16.2422 -6.51074 -35.5381 -11.0547 -53.0244 -11.6201c-20.4854 -0.665039 -38.4385 6.56445 -55.3965 17.7412
c-37.498 24.7129 -52.6904 67.8418 -62.7559 109.386c-10.3857 42.8604 -10.2666 88.7402 -6.55469 132.442c3.46973 40.8691 11.1562 81.3467 28.5195 118.763c17.418 37.5322 47.3389 73.0742 86.8379 88.1436c30.9365 11.8037 93.7197 9.30859 102.303 -32.4365
c13.5664 -65.9941 -37.6953 -127.247 -102.916 -127.595c-13.665 -58.1914 -14.7832 -119.168 -6.63281 -178.198c3.38477 -24.5215 8.32422 -52.4248 23.4248 -72.7607c4.85352 -6.53809 14.0225 -19.0439 22.7617 -20.1963
c13.7197 -1.80957 32.416 14.8584 41.374 23.3359c40.8594 38.6602 57.7256 96.0098 73.6436 148.209zM126.978 358.832c-9.43457 -16.7529 -16.2676 -32.876 -21.8506 -49.9297c31.9014 6.30957 61.0654 36.6191 46.9473 68.9873
c-2.03809 1.11816 -4.15137 2.1748 -5.94727 2.57031c-9.54395 2.09961 -4.26367 -0.395508 -2.81152 0.132812c-7.93555 -2.88672 -11.8008 -13.7061 -16.3379 -21.7607z" />
    <glyph glyph-name="e" unicode="&#xeb;" horiz-adv-x="249" 
d="M250.612 176.553c4.58496 15.0322 33.3252 12.9668 28.8838 -3.63965c-18.8838 -70.6943 -45.2324 -161.415 -120.468 -191.574c-16.2422 -6.51074 -35.5381 -11.0547 -53.0244 -11.6201c-20.4854 -0.665039 -38.4385 6.56445 -55.3965 17.7412
c-37.498 24.7129 -52.6904 67.8418 -62.7559 109.386c-10.3857 42.8604 -10.2666 88.7402 -6.55469 132.442c3.46973 40.8691 11.1562 81.3467 28.5195 118.763c17.418 37.5322 47.3389 73.0742 86.8379 88.1436c30.9365 11.8037 93.7197 9.30859 102.303 -32.4365
c13.5664 -65.9941 -37.6953 -127.247 -102.916 -127.595c-13.665 -58.1914 -14.7832 -119.168 -6.63281 -178.198c3.38477 -24.5215 8.32422 -52.4248 23.4248 -72.7607c4.85352 -6.53809 14.0225 -19.0439 22.7617 -20.1963
c13.7197 -1.80957 32.416 14.8584 41.374 23.3359c40.8594 38.6602 57.7256 96.0098 73.6436 148.209zM126.978 358.832c-9.43457 -16.7529 -16.2676 -32.876 -21.8506 -49.9297c31.9014 6.30957 61.0654 36.6191 46.9473 68.9873
c-2.03809 1.11816 -4.15137 2.1748 -5.94727 2.57031c-9.54395 2.09961 -4.26367 -0.395508 -2.81152 0.132812c-7.93555 -2.88672 -11.8008 -13.7061 -16.3379 -21.7607z" />
    <glyph glyph-name="e" unicode="&#xea;" horiz-adv-x="249" 
d="M250.612 176.553c4.58496 15.0322 33.3252 12.9668 28.8838 -3.63965c-18.8838 -70.6943 -45.2324 -161.415 -120.468 -191.574c-16.2422 -6.51074 -35.5381 -11.0547 -53.0244 -11.6201c-20.4854 -0.665039 -38.4385 6.56445 -55.3965 17.7412
c-37.498 24.7129 -52.6904 67.8418 -62.7559 109.386c-10.3857 42.8604 -10.2666 88.7402 -6.55469 132.442c3.46973 40.8691 11.1562 81.3467 28.5195 118.763c17.418 37.5322 47.3389 73.0742 86.8379 88.1436c30.9365 11.8037 93.7197 9.30859 102.303 -32.4365
c13.5664 -65.9941 -37.6953 -127.247 -102.916 -127.595c-13.665 -58.1914 -14.7832 -119.168 -6.63281 -178.198c3.38477 -24.5215 8.32422 -52.4248 23.4248 -72.7607c4.85352 -6.53809 14.0225 -19.0439 22.7617 -20.1963
c13.7197 -1.80957 32.416 14.8584 41.374 23.3359c40.8594 38.6602 57.7256 96.0098 73.6436 148.209zM126.978 358.832c-9.43457 -16.7529 -16.2676 -32.876 -21.8506 -49.9297c31.9014 6.30957 61.0654 36.6191 46.9473 68.9873
c-2.03809 1.11816 -4.15137 2.1748 -5.94727 2.57031c-9.54395 2.09961 -4.26367 -0.395508 -2.81152 0.132812c-7.93555 -2.88672 -11.8008 -13.7061 -16.3379 -21.7607z" />
    <glyph glyph-name="e" unicode="&#xe9;" horiz-adv-x="249" 
d="M250.612 176.553c4.58496 15.0322 33.3252 12.9668 28.8838 -3.63965c-18.8838 -70.6943 -45.2324 -161.415 -120.468 -191.574c-16.2422 -6.51074 -35.5381 -11.0547 -53.0244 -11.6201c-20.4854 -0.665039 -38.4385 6.56445 -55.3965 17.7412
c-37.498 24.7129 -52.6904 67.8418 -62.7559 109.386c-10.3857 42.8604 -10.2666 88.7402 -6.55469 132.442c3.46973 40.8691 11.1562 81.3467 28.5195 118.763c17.418 37.5322 47.3389 73.0742 86.8379 88.1436c30.9365 11.8037 93.7197 9.30859 102.303 -32.4365
c13.5664 -65.9941 -37.6953 -127.247 -102.916 -127.595c-13.665 -58.1914 -14.7832 -119.168 -6.63281 -178.198c3.38477 -24.5215 8.32422 -52.4248 23.4248 -72.7607c4.85352 -6.53809 14.0225 -19.0439 22.7617 -20.1963
c13.7197 -1.80957 32.416 14.8584 41.374 23.3359c40.8594 38.6602 57.7256 96.0098 73.6436 148.209zM126.978 358.832c-9.43457 -16.7529 -16.2676 -32.876 -21.8506 -49.9297c31.9014 6.30957 61.0654 36.6191 46.9473 68.9873
c-2.03809 1.11816 -4.15137 2.1748 -5.94727 2.57031c-9.54395 2.09961 -4.26367 -0.395508 -2.81152 0.132812c-7.93555 -2.88672 -11.8008 -13.7061 -16.3379 -21.7607z" />
    <glyph glyph-name="f" unicode="f" horiz-adv-x="307" 
d="M313.892 194.618c11.6748 10.124 35.792 -2.64453 22.1572 -15.1543c-60.9805 -55.9248 -126.443 -106.372 -195.434 -151.891c67.1768 -14.4932 122.948 -64.5693 138.372 -134.637c8.91992 -40.5283 3.3125 -86.5996 -17.7285 -122.704
c-21.3311 -36.6055 -70.9707 -50.1309 -107.94 -29.2637c-35.9775 20.3086 -62.5342 59.1084 -81.8369 94.5068c-21.416 39.2705 -35.5312 81.0225 -47.4102 124.005c-24.9541 90.3008 -38.0498 184.396 -39.7441 278.078c-2.9209 161.411 12.7217 338.563 89.7871 483.74
c14.708 27.709 32.1631 53.1201 59.1318 70.1807c11.9707 7.57031 25.6768 13.4736 39.7676 15.502c13.041 1.87793 27.0713 -0.0957031 36.2334 -3.73633c34.5391 -13.7227 42.0312 -56.7773 48.2793 -89.1387c8.36816 -43.3301 6.56543 -88.1904 1.55859 -131.813
c-20.8369 -181.481 -77.4199 -359.578 -135.08 -532.316c66.4268 43.917 129.715 92.4629 189.887 144.642zM196.354 763.046c0.204102 0.19043 0.481445 0.381836 -0.149414 -0.0166016c0.0507812 0.00683594 0.0986328 0.00976562 0.149414 0.0166016zM195.032 763.067
c-0.139648 0.0615234 -0.251953 0.117188 -0.350586 0.167969c0.105469 -0.0644531 0.19043 -0.149414 0.327148 -0.183594c0.00683594 0.00292969 0.0166016 0.0126953 0.0234375 0.015625zM97.5352 252.676c0.626953 -51.2383 3.9375 -101.987 9.875 -152.547
c50.0283 153.79 95.6768 310.593 114.966 471.285c4.57422 38.1084 6.62988 76.6836 1.86816 114.888c-2.43066 19.5107 -6.67773 38.4697 -14.2139 56.6787c-2.53223 6.11523 -5.21094 13.3213 -10.1777 17.9707c-0.0957031 0.0917969 -2.52637 1.10059 -4.10156 1.79297
c-0.361328 -0.231445 -0.852539 -0.548828 -1.55176 -0.995117c-0.432617 -0.279297 -0.691406 -0.422852 -0.862305 -0.494141c-0.105469 -0.102539 -0.183594 -0.180664 -0.302734 -0.296875c-1.18945 -1.14551 -5.31348 -6.26172 -5.02734 -5.60742
c-5.10645 -7.67285 -8.46094 -16.1875 -12.2754 -24.5352c-11.709 -25.6289 -18.8838 -40.3682 -26.4785 -66.9385c-16.8965 -59.1055 -26.9893 -120.052 -34.9277 -180.939c-10.0518 -77.0957 -17.7412 -152.726 -16.79 -230.262zM247.488 -110.374
c-13.2598 60.0391 -65.4932 106.116 -125.57 114.341c12.3086 -67.9639 27.1904 -136.497 58.4717 -198.5c7.01172 -13.9033 14.0371 -23.458 24.8867 -34.5049c6.25781 -6.37109 7.58008 -10.666 16.1152 -3.97852c6.08789 4.77246 10.0723 11.709 13.6074 18.4443
c16.627 31.6758 20.1514 69.498 12.4893 104.198z" />
    <glyph glyph-name="g" unicode="g" horiz-adv-x="414" 
d="M418.552 165.891c6.13184 14.125 32.457 6.37207 25.6914 -9.57324c-25.79 -60.8369 -70.375 -111.53 -112.246 -161.783c-0.685547 -0.825195 -1.37793 -1.64648 -2.06641 -2.47168c-0.1875 -27.5957 -0.71582 -55.1777 -1.64258 -82.7227
c-4.65918 -138.376 -13.2041 -285.506 -77.4629 -411.15c-14.2549 -27.8721 -33.5303 -54.4971 -61.2832 -70.1865c-23.7441 -13.4268 -53.4297 -24.5283 -80.9854 -19.7227c-54.5312 9.51367 -81.7188 67.832 -82.8369 118.123
c-1.41113 63.499 26.3008 125.141 55.6592 180.033c29.6279 55.4004 65.9463 106.932 104.576 156.37c11.7559 15.0488 23.7744 29.8867 35.9229 44.6191c0.0546875 26.4541 -0.0751953 52.9219 -0.205078 79.4004c-0.317383 64.5391 -2.54004 129.026 -5.00781 193.504
c-5.91016 -33.2031 -13.2109 -66.1201 -23.5088 -98.3926c-9.80957 -30.7461 -20.0391 -61.1777 -44.0527 -83.7324c-27.7832 -26.0967 -62.5342 -29.8389 -95.9863 -10.4062c-31.8633 18.5049 -52.9043 55.0352 -63.2285 89.6191
c-11.1152 37.2256 -14.8311 74.6006 -11.9512 113.299c5.40234 72.5557 30.4727 153.841 89.8574 199.785c30.7324 23.7783 72.0615 36.6387 109.171 20.2334c14.2314 -6.28906 25.2578 -16.2148 33.6562 -28.1514c6.63965 49.0059 93.1133 56.9785 98.8604 3.4668
c12.4961 -116.333 19.668 -233.75 20.4551 -350.993c34.2021 40.3887 67.4736 82.1377 88.6143 130.833zM183.961 166.383c8.41211 41.1826 14.1816 82.8232 20.3682 124.392c-19.0303 -3.89648 -41.0156 3.58203 -41.8096 24.6299
c-0.555664 14.7256 -2.10352 26.5947 -11.0439 38.2422c-0.592773 0.770508 -1.48242 1.32227 -1.8916 1.7041c-2.80859 -1.25098 -5.4873 -3.83789 -7.28027 -5.55273c-18.4512 -17.6123 -31.9492 -45.2188 -42.3828 -68.1592
c-19.9912 -43.957 -28.6523 -96.167 -25.5742 -144.283c1.60547 -25.0742 6.58203 -50.376 16.0205 -73.708c4.84375 -11.9746 17.8916 -45.1748 35.6748 -43.627c17.5 1.52051 31.1035 49.6299 35.749 62.8242c9.56836 27.1699 16.4092 55.3418 22.1699 83.5381z
M202.353 -388.32c13.8389 82.5869 18.0732 165.67 19.1875 248.973c-4.37305 -5.56641 -8.72949 -11.1426 -13.041 -16.7568c-34.9043 -45.4609 -67.4502 -92.9229 -94.5039 -143.514c-27.9404 -52.2402 -57.0059 -112.773 -54.4873 -173.45
c1.09082 -26.2842 8.43652 -52.9434 26.792 -72.5635c18.1846 -19.4424 51.0059 -26.9922 69.2148 -3.08789c14.875 19.5312 21.4473 45.6621 27.2383 69.0762c7.46484 30.1768 14.459 60.6562 19.5996 91.3232z" />
    <glyph glyph-name="h" unicode="h" horiz-adv-x="473" 
d="M472.176 155.498c8.8252 16.7871 41.4912 7.30762 31.7666 -11.832c-17.3975 -34.2051 -26.6992 -72.2588 -50.8154 -102.827c-20.1143 -25.4932 -49.1211 -41.3096 -81.3701 -44.2822c-34.3486 -3.16699 -67.4492 13.4775 -87.8906 40.7324
c-21.9443 29.2529 -28.5029 67.835 -34.0312 103.172c-5.58691 35.6982 -8.59668 72.3779 -7.88379 108.54c0.388672 19.5723 1.20703 39.3281 2.51562 58.8594c1.0332 15.4551 4.29199 33.3096 0.675781 48.6143c-0.56543 2.26367 -1.35645 4.4248 -2.32129 6.50781
c-1.63574 -1.46582 -3.17676 -2.9248 -3.58594 -3.33691c-5.01758 -5.07227 -8.91406 -11.0508 -12.4082 -17.2344c-7.93164 -14.0371 -13.9443 -29.2188 -20.2129 -44.0459c-14.3809 -34.0078 -27.6816 -68.4658 -39.7959 -103.346
c-22.9668 -66.1338 -41.8398 -133.836 -58.2998 -201.893c0.276367 -11.1426 -0.555664 -22.2236 -3.76953 -33.1924c-7.30762 -24.9336 -39.0518 -29.0615 -56.5479 -12.3691c-26.6592 25.4355 -33.292 66.584 -41.3223 101.352
c-7.37598 31.9355 -10.3008 65.292 -13.7197 97.8447c-6.95703 66.2529 -9.7998 133.253 -9.04004 199.847c1.34668 118.252 12.8955 237.897 52.3604 350.068c19.1631 54.4795 44.8398 110.244 92.4756 145.595c21.7744 16.1602 55.0361 24.1055 80.9482 13.9717
c19.208 -7.5127 33.5068 -26.71 39.5303 -45.9414c15.8164 -50.502 -1.08691 -109.352 -13.0371 -158.804c-14.3506 -59.3887 -31.915 -117.962 -51.2451 -175.908c-28.4414 -85.249 -60.6631 -169.146 -92.667 -253.113
c1.63965 -33.3262 3.45312 -66.6416 5.46094 -99.9434c0.459961 -7.68652 0.998047 -15.3691 1.56055 -23.0488c11.6025 42.9141 25.0527 85.3311 40.167 127.274c12.0254 33.3838 24.9541 66.4473 38.9297 99.0645c11.0205 25.7285 24.5117 56.3281 51.4258 69.083
c32.7773 15.5332 47.792 -15.9658 59.1797 -40.7568c14.79 -32.1914 23.5566 -68.7354 30.0195 -103.466c6.83398 -36.7451 11.0166 -73.9736 18.8936 -110.531c6.32324 -29.3555 13.7236 -62.4902 30.3271 -87.9326c6.41504 -9.83008 13.0723 -16.6133 25.3906 -13.6611
c13.4844 3.22754 25.9023 14.9941 34.1514 25.6699c20.5469 26.5908 28.6973 61.7988 44.1855 91.2695zM104.333 592.769c-18.9004 -98.7207 -18.9492 -198.052 -15.0938 -297.976c24.5117 65.1895 48.5293 130.557 70.1094 196.782
c16.9238 51.9443 32.3477 104.399 45.2559 157.495c6.51367 26.7812 12.2129 53.9102 14.9121 81.373c2.28418 23.2432 4.27441 50.3789 -6.67773 71.9316c-10.8428 21.3447 -21.9443 8.1123 -33.4961 -5.10938c-15.165 -17.3535 -25.1387 -38.9229 -33.8682 -60.0771
c-18.9551 -45.9414 -31.8154 -95.7041 -41.1416 -144.42z" />
    <glyph glyph-name="i" unicode="i" horiz-adv-x="237" 
d="M28.2266 461.476c-23.5703 17.3154 -45.5576 36.0762 -59.6934 62.1826c-9.13477 16.8799 -22.1484 52.002 -5.55859 68.292c20.1621 19.7969 42.7002 0.0507812 53.9824 -17.4492c7.58789 -11.7666 13.6689 -24.1846 18.417 -37.0898
c5.18457 8.96094 10.7607 17.6738 17.4688 25.6709c11.917 14.207 37.9141 37.127 57.582 23.0938c19.6914 -14.0508 -1.73828 -44.7383 -10.4639 -58.9248c-13.7773 -22.4014 -30.7695 -42.6826 -47.6562 -62.7666c-3.74902 -4.45801 -8.96777 -6.10449 -14.0498 -5.78027
c-3.36426 -0.306641 -6.88574 0.463867 -10.0283 2.77148zM238.758 176.134c4.87402 14.7461 33.5068 12.3203 28.4141 -3.58398c-17.4316 -54.4971 -35.6543 -110 -71.585 -155.505c-30.8545 -39.0762 -80.8418 -63.2363 -127.915 -35.4932
c-45.9482 27.0781 -61.877 87.4443 -72.6006 136.051c-19.4531 88.1943 -14.5684 184.26 -4.80566 273.351c4.94629 45.1299 93.001 46.3193 93.9824 -0.923828c2.00781 -96.6143 -6.22363 -192.472 8.78809 -288.598c3.74902 -24.0137 7.20898 -49.8984 15.9346 -72.624
c3.49414 -9.09082 10.0459 -21.3789 19.9512 -24.6953c12.0732 -4.04297 24.583 8.28223 32.4531 16.4795c40.5693 42.25 59.4258 101.202 77.3828 155.542z" />
    <glyph glyph-name="i" unicode="&#xef;" horiz-adv-x="237" 
d="M28.2266 461.476c-23.5703 17.3154 -45.5576 36.0762 -59.6934 62.1826c-9.13477 16.8799 -22.1484 52.002 -5.55859 68.292c20.1621 19.7969 42.7002 0.0507812 53.9824 -17.4492c7.58789 -11.7666 13.6689 -24.1846 18.417 -37.0898
c5.18457 8.96094 10.7607 17.6738 17.4688 25.6709c11.917 14.207 37.9141 37.127 57.582 23.0938c19.6914 -14.0508 -1.73828 -44.7383 -10.4639 -58.9248c-13.7773 -22.4014 -30.7695 -42.6826 -47.6562 -62.7666c-3.74902 -4.45801 -8.96777 -6.10449 -14.0498 -5.78027
c-3.36426 -0.306641 -6.88574 0.463867 -10.0283 2.77148zM238.758 176.134c4.87402 14.7461 33.5068 12.3203 28.4141 -3.58398c-17.4316 -54.4971 -35.6543 -110 -71.585 -155.505c-30.8545 -39.0762 -80.8418 -63.2363 -127.915 -35.4932
c-45.9482 27.0781 -61.877 87.4443 -72.6006 136.051c-19.4531 88.1943 -14.5684 184.26 -4.80566 273.351c4.94629 45.1299 93.001 46.3193 93.9824 -0.923828c2.00781 -96.6143 -6.22363 -192.472 8.78809 -288.598c3.74902 -24.0137 7.20898 -49.8984 15.9346 -72.624
c3.49414 -9.09082 10.0459 -21.3789 19.9512 -24.6953c12.0732 -4.04297 24.583 8.28223 32.4531 16.4795c40.5693 42.25 59.4258 101.202 77.3828 155.542z" />
    <glyph glyph-name="i" unicode="&#xee;" horiz-adv-x="237" 
d="M28.2266 461.476c-23.5703 17.3154 -45.5576 36.0762 -59.6934 62.1826c-9.13477 16.8799 -22.1484 52.002 -5.55859 68.292c20.1621 19.7969 42.7002 0.0507812 53.9824 -17.4492c7.58789 -11.7666 13.6689 -24.1846 18.417 -37.0898
c5.18457 8.96094 10.7607 17.6738 17.4688 25.6709c11.917 14.207 37.9141 37.127 57.582 23.0938c19.6914 -14.0508 -1.73828 -44.7383 -10.4639 -58.9248c-13.7773 -22.4014 -30.7695 -42.6826 -47.6562 -62.7666c-3.74902 -4.45801 -8.96777 -6.10449 -14.0498 -5.78027
c-3.36426 -0.306641 -6.88574 0.463867 -10.0283 2.77148zM238.758 176.134c4.87402 14.7461 33.5068 12.3203 28.4141 -3.58398c-17.4316 -54.4971 -35.6543 -110 -71.585 -155.505c-30.8545 -39.0762 -80.8418 -63.2363 -127.915 -35.4932
c-45.9482 27.0781 -61.877 87.4443 -72.6006 136.051c-19.4531 88.1943 -14.5684 184.26 -4.80566 273.351c4.94629 45.1299 93.001 46.3193 93.9824 -0.923828c2.00781 -96.6143 -6.22363 -192.472 8.78809 -288.598c3.74902 -24.0137 7.20898 -49.8984 15.9346 -72.624
c3.49414 -9.09082 10.0459 -21.3789 19.9512 -24.6953c12.0732 -4.04297 24.583 8.28223 32.4531 16.4795c40.5693 42.25 59.4258 101.202 77.3828 155.542z" />
    <glyph glyph-name="i" unicode="&#xed;" horiz-adv-x="237" 
d="M28.2266 461.476c-23.5703 17.3154 -45.5576 36.0762 -59.6934 62.1826c-9.13477 16.8799 -22.1484 52.002 -5.55859 68.292c20.1621 19.7969 42.7002 0.0507812 53.9824 -17.4492c7.58789 -11.7666 13.6689 -24.1846 18.417 -37.0898
c5.18457 8.96094 10.7607 17.6738 17.4688 25.6709c11.917 14.207 37.9141 37.127 57.582 23.0938c19.6914 -14.0508 -1.73828 -44.7383 -10.4639 -58.9248c-13.7773 -22.4014 -30.7695 -42.6826 -47.6562 -62.7666c-3.74902 -4.45801 -8.96777 -6.10449 -14.0498 -5.78027
c-3.36426 -0.306641 -6.88574 0.463867 -10.0283 2.77148zM238.758 176.134c4.87402 14.7461 33.5068 12.3203 28.4141 -3.58398c-17.4316 -54.4971 -35.6543 -110 -71.585 -155.505c-30.8545 -39.0762 -80.8418 -63.2363 -127.915 -35.4932
c-45.9482 27.0781 -61.877 87.4443 -72.6006 136.051c-19.4531 88.1943 -14.5684 184.26 -4.80566 273.351c4.94629 45.1299 93.001 46.3193 93.9824 -0.923828c2.00781 -96.6143 -6.22363 -192.472 8.78809 -288.598c3.74902 -24.0137 7.20898 -49.8984 15.9346 -72.624
c3.49414 -9.09082 10.0459 -21.3789 19.9512 -24.6953c12.0732 -4.04297 24.583 8.28223 32.4531 16.4795c40.5693 42.25 59.4258 101.202 77.3828 155.542z" />
    <glyph glyph-name="j" unicode="j" horiz-adv-x="187" 
d="M5.40918 473.968c-21.7334 14.3506 -41.6143 30.1748 -55.3955 52.8896c-9.7793 16.1162 -22.3057 45.6963 -4.97656 61.1445c26.083 23.25 49.5312 -10.0244 66.5918 -40.0615c11.2656 31.666 29.5732 63.8838 60.8916 62.7148
c5.47754 -0.204102 11.0576 -4.20898 13.3105 -9.10352c8.44336 -18.3555 -5.54883 -40.4023 -13.2725 -56.6172c-11.085 -23.2705 -23.0527 -46.0879 -35.709 -68.54c-6.51367 -11.5557 -24.4531 -10.4238 -31.4404 -2.42676zM191.875 165.889
c6.13184 14.125 32.457 6.37305 25.6973 -9.56934c-25.79 -60.8369 -70.375 -111.53 -112.246 -161.783c-0.685547 -0.825195 -1.37793 -1.64648 -2.06641 -2.47168c-0.1875 -27.5957 -0.71582 -55.1777 -1.64258 -82.7227
c-4.65918 -138.376 -13.2041 -285.506 -77.4629 -411.15c-14.2549 -27.8721 -33.5303 -54.4971 -61.2832 -70.1865c-23.7441 -13.4268 -53.4297 -24.5283 -80.9854 -19.7227c-54.5342 9.51367 -81.7178 67.832 -82.8359 118.123
c-1.41113 63.499 26.3008 125.141 55.6592 180.033c29.6279 55.4004 65.9463 106.932 104.576 156.37c11.7559 15.0488 23.7744 29.8867 35.9229 44.6191c0.0546875 26.4541 -0.0751953 52.9219 -0.205078 79.4004c-0.633789 129.685 -8.97168 259.154 -11.5107 388.784
c-1.08008 55.1514 93.3008 66.4062 99.3135 10.4365c12.4961 -116.333 19.668 -233.75 20.4551 -350.993c34.2021 40.3887 67.4736 82.1377 88.6143 130.833zM-24.3232 -388.322c13.8389 82.5869 18.0732 165.67 19.1875 248.973
c-4.37305 -5.56641 -8.72949 -11.1426 -13.041 -16.7568c-34.9043 -45.4609 -67.4502 -92.9229 -94.5039 -143.514c-27.9404 -52.2402 -57.0059 -112.773 -54.4873 -173.45c1.09082 -26.2842 8.43652 -52.9434 26.792 -72.5635
c18.1846 -19.4424 51.0059 -26.9922 69.2148 -3.08789c14.875 19.5312 21.4473 45.6621 27.2383 69.0762c7.46484 30.1768 14.459 60.6562 19.5996 91.3232z" />
    <glyph glyph-name="k" unicode="k" horiz-adv-x="403" 
d="M408.021 140.69c6.95312 14.0029 33.665 6.22949 26.1318 -9.7334c-33.0332 -69.9277 -80.7363 -177.726 -176.096 -152.018c-45.917 12.3799 -78.8506 40.4912 -98.0654 83.7432c-9.55078 21.498 -16.3301 43.9541 -22.915 66.502
c-1.44531 4.94922 -2.94531 10.0381 -4.33594 15.2021c-7.52637 -22.2578 -14.3945 -44.7412 -20.5264 -67.4219c-2.98242 -11.0371 -5.62402 -22.1455 -8.32715 -33.2471c0.0136719 -0.19043 0.0302734 -0.37793 0.0439453 -0.56543
c2.1709 -27.9336 8.81445 -55.915 0.814453 -83.2148c-7.30762 -24.9336 -39.0518 -29.0615 -56.5479 -12.3691c-26.6592 25.4355 -33.292 66.584 -41.3223 101.352c-7.37598 31.9355 -10.3008 65.292 -13.7197 97.8447c-6.95703 66.2529 -9.7998 133.253 -9.04004 199.847
c1.34668 118.252 12.8955 237.897 52.3604 350.068c19.1631 54.4795 44.8398 110.244 92.4756 145.595c21.7744 16.1602 55.0361 24.1055 80.9482 13.9717c19.208 -7.5127 33.5068 -26.71 39.5303 -45.9414c15.8164 -50.502 -1.08691 -109.352 -13.0371 -158.804
c-14.3506 -59.3887 -31.915 -117.962 -51.2451 -175.908c-28.4414 -85.249 -60.6631 -169.146 -92.667 -253.113c1.36035 -27.6641 2.85352 -55.3184 4.47266 -82.9658c3.4668 10.751 7.03223 21.4707 10.8193 32.1123c5.20117 14.623 10.6377 29.2354 16.4463 43.7119
c0.333984 1.87109 1.04004 3.66016 2.13086 5.28613c14.8066 36.1963 32.1875 71.3701 54.834 103.268c21.1338 29.7676 78.627 101.465 118.398 56.3447c31.6523 -35.9131 -7.80273 -95.0869 -33.9131 -122.57c-24.9609 -26.2734 -57.0596 -44.9658 -91.8789 -54.0664
c27.4492 -23.9082 37.9785 -61.4268 51.0166 -94.5957c6.17969 -15.7236 13.7295 -30.4043 21.167 -45.5283c6.33301 -12.874 10.918 -30.0469 19.7393 -41.3809c26.7988 -34.4268 64.4062 -1.07031 83.5732 21.917c24.1982 29.0205 42.0078 62.9912 58.7344 96.6787z
M104.336 592.767c-18.9004 -98.7207 -18.9521 -198.052 -15.0967 -297.976c24.5117 65.1895 48.5293 130.557 70.1094 196.782c16.9238 51.9443 32.3477 104.399 45.2559 157.495c6.51367 26.7812 12.2129 53.9102 14.9121 81.373
c2.28711 23.2432 4.27734 50.3789 -6.6748 71.9316c-10.8428 21.3447 -21.9443 8.1123 -33.4961 -5.10938c-15.165 -17.3535 -25.1387 -38.9229 -33.8682 -60.0771c-18.9551 -45.9414 -31.8154 -95.7041 -41.1416 -144.42zM210.708 309.831
c-17.1348 -24.1602 -31.3428 -50.2959 -43.6953 -77.3164c35.4697 9.87793 67.1973 32.0645 88.0547 62.9053c7.9834 11.8076 35.0547 56.3174 15.2881 67.0029c-16.6787 9.01562 -51.2627 -40.7705 -59.6475 -52.5918z" />
    <glyph glyph-name="l" unicode="l" horiz-adv-x="281" 
d="M283.071 162.032c1.24414 15.3662 29.0742 12.875 27.9395 -3.52734c-2.73047 -39.7236 -12.7998 -78.4355 -30.0547 -114.355c-14.8135 -30.8408 -35.5039 -66.0723 -67.0674 -82.1611c-28.6865 -14.6191 -71.4238 -16.4053 -101.038 -3.99414
c-17.9736 7.5332 -35.1533 18.8154 -49.4355 32.0781c-14.9092 13.8496 -24.9648 34.0254 -33.4902 52.3438c-32.75 70.3848 -42.3145 149.806 -46.9199 226.469c-4.55371 75.7969 -1.2334 152.552 8.99609 227.787c10.3516 76.1279 28.4033 151.229 58.6748 221.976
c14.3125 33.4453 32.4434 67.8789 58.6963 93.6445c25.0225 24.5557 60.792 44.6631 95.3174 28.1309c10.2979 -4.92871 -5.51855 2.38965 1.07324 -0.848633c1.96289 -0.960938 3.77637 -1.9834 5.53223 -3.28516c2.87695 -2.13379 5.44336 -4.8125 7.63867 -7.62793
c5.06836 -6.50684 7.62109 -14.4834 9.34961 -22.4258c4.43164 -20.3457 3.11621 -42.0859 1.26855 -62.6602c-4.58789 -51.0674 -14.4453 -102.02 -24.3096 -152.276c-27.4014 -139.624 -66.0107 -276.65 -107.667 -412.616
c1.28125 -9.53418 2.66895 -19.041 4.16895 -28.5098c5.52832 -34.9316 11.5107 -70.4395 25.3496 -103.22c9.54785 -22.6191 22.9199 -66.1133 54.1328 -66.9482c35.0166 -0.933594 59.8008 48.0547 72.7432 74.1992c16.7324 33.7969 26.0615 70.3164 29.1016 107.828z
M117.23 600.183c-27.6436 -111.851 -35.7461 -229.993 -27.4424 -345.78c6.69434 22.749 13.2998 45.5254 19.6982 68.3633c30.0605 107.313 56.3105 215.707 75.4434 325.532c5.51172 31.6523 11.3438 63.417 12.4717 95.5908
c0.525391 14.9473 0.879883 30.7432 -2.09277 45.4824c-1.05371 5.22168 -2.61133 11.6641 -5.69629 16.2559c-1.69727 -1.53711 -3.07812 -3.75977 -5.00391 -7.54004c-4.1377 -8.12305 -7.79883 -16.5596 -11.6025 -24.8428
c-7.37305 -16.0479 -12.6738 -32.0918 -18.3701 -48.7568c-13.9922 -40.9336 -27.0195 -82.2832 -37.4053 -124.305z" />
    <glyph glyph-name="m" unicode="m" horiz-adv-x="619" 
d="M623.383 149.239c5.8252 14.2412 32.1436 6.47461 25.6846 -9.56641c-25.4521 -63.2773 -56.1396 -144.164 -122.938 -174.398c-28.332 -12.8232 -63.6416 -5.60059 -86.8682 14.1689c-29.7607 25.333 -41.8984 63.7617 -47.6729 101.147
c-11.1768 72.3545 -14.6191 147.122 -13.9199 220.257c0.180664 18.873 1.07715 37.8662 0.532227 56.7363c-0.245117 8.47754 -0.173828 17.1357 -0.834961 25.5723c-0.807617 10.3145 -5.25879 11.7119 -12.0928 3.3916
c-10.8496 -13.2119 -17.5957 -32.0654 -23.9902 -47.6973c-6.72852 -16.457 -12.3115 -33.3506 -17.3359 -50.4004c-15.9697 -54.2041 -27.6953 -109.809 -36.4082 -165.744c2.16113 -18.0654 4.17578 -36.2676 3.25586 -53.9961
c-1.2002 -23.0967 -14.2314 -38.4014 -36.8438 -43.7734c-18.6992 -4.44141 -47.9346 2.29395 -54.8916 23.332c-10.7744 32.5762 -10.3486 68.0254 -10.4814 101.996c-0.119141 30.9199 0.893555 61.6113 2.25 92.4863c1.37012 31.1377 2.46094 62.292 4.17188 93.3994
c0.739258 13.4609 2.47461 29.1064 0.97168 42.502c-1.11816 9.9668 -1.18652 15.3184 -9.81348 6.06738c-5.0957 -5.46777 -9.07324 -12.2207 -12.8193 -18.6592c-29.2148 -50.1914 -43.8203 -111.85 -57.7754 -167.761
c-12.9971 -52.0732 -22.8408 -104.849 -30.6436 -157.928c0.265625 -16.4297 0.0273438 -32.832 -2.03125 -49.0195c-3.21387 -25.2412 -45.1162 -31.9082 -59.1328 -12.9355c-42.8291 57.9668 -37.7402 142.572 -39.4209 211.109
c-0.916992 37.4883 0.102539 74.9932 2.51953 112.409c2.31738 35.8486 5.75 71.5059 18.3008 105.384c8.6582 23.3691 29.4062 37.4639 55.2031 34.1777c24.3584 -3.10156 40.3145 -21.7266 38.2148 -45.958c-2.98633 -34.4375 -8.77051 -68.5137 -11.2354 -103.009
c-2.27734 -31.833 -2.1582 -63.8164 -2.63184 -95.7109c-0.0166016 -1.3291 -0.0195312 -2.6582 -0.0361328 -3.9873c0.967773 4.07031 1.90137 8.14746 2.90723 12.2109c12.9424 52.2988 27.3301 106.51 50.4199 155.386c9.10059 19.2725 21.6475 43.5723 41.8193 53.1943
c21.2559 10.1445 35.4561 -1.70703 48.5625 -17.7891c34.959 -42.8975 42.3799 -103.959 48.8594 -157.174c0.238281 -1.95703 0.442383 -3.91406 0.660156 -5.87109c6.69141 29.3379 14.5791 58.332 24.0586 86.6543c9.49316 28.3662 19.8857 63.7783 40.6582 86.125
c22.7324 24.457 50.2949 14.2686 72.499 -4.49609c27.8076 -23.502 40.3174 -63.3691 49.1016 -97.6396c9.15527 -35.7158 14.8848 -72.2354 18.6377 -108.898c3.75293 -36.6426 7.97266 -73.0156 12.8096 -109.521c2.31055 -17.4453 3.94336 -34.9551 5.99512 -52.4238
c0.964844 -8.19043 0.674805 -31.3584 6.94336 -37.5146c8.6748 -8.51465 34.4375 13.7471 40.5488 19.8281c12.0498 11.9844 21.7715 26.6416 30.4775 41.1484c17.6973 29.4951 30.7656 61.4268 43.7559 93.1885z" />
    <glyph glyph-name="n" unicode="n" horiz-adv-x="474" 
d="M479.35 151.125c6.71191 13.8428 33.0889 6.13086 25.6924 -9.57227c-16.0986 -34.1816 -35.9131 -66.5088 -59.4873 -96.0615c-23.335 -29.2559 -46.418 -47.7275 -85.5459 -44.3496c-36.8027 3.17676 -72.0684 8.53809 -96.2217 40.4395
c-21.1475 27.9307 -29.1572 61.7207 -33.5684 95.8789c-8.42578 65.2754 -2.76367 133.008 -3.25488 198.668c-0.0712891 9.29199 -0.350586 18.6592 -0.848633 27.9375c-0.157227 2.93457 0.135742 8.47656 -0.886719 10.9375
c-2.05566 4.94922 0.796875 3.44629 -3.34082 2.55371c-10.1436 -2.18457 -20.7236 -30.8711 -24.4463 -38.7793c-16.0234 -34.0352 -28.3662 -69.7949 -40.6572 -105.306c-23.877 -68.9941 -44.71 -139.112 -64.0098 -209.521
c-0.0273438 -7.48535 -0.255859 -16.5898 -1.33301 -23.5166c-1.37402 -8.83203 -5.71289 -13.4062 -9.83008 -20.5469c-9.30859 -16.1436 -30.5234 -18.874 -45.6377 -9.90918c-8.8457 5.24609 -15.6973 8.89648 -21.6865 18.1064
c-5.24902 8.07812 -9.47266 16.6299 -12.4893 25.748c-5.93457 17.9463 -10.0762 36.8848 -12.4688 55.6152c-4.64941 36.4072 -6.24121 72.8213 -6.32617 109.498c-0.180664 76.4277 7.80273 153.299 23.3154 228.114c10.6924 51.5762 99.8652 43.3447 94.3564 -11.8984
c-6.91992 -69.3652 -10.584 -138.68 -11.3066 -208.379c-0.217773 -20.793 -0.238281 -41.6709 0.0341797 -62.5312c10.0078 34.8564 20.8945 69.4639 32.5518 103.881c9.79297 28.9053 19.8789 57.7656 31.0254 86.1797c9.70801 24.7432 19.7295 51.8418 36.7217 72.668
c14.0439 17.2139 36.0537 28.5752 56.3418 14.4092c21.1201 -14.7461 38.2891 -38.6406 50.0078 -61.2129c26.0352 -50.1338 25.6055 -111.182 32.7979 -165.88c3.34766 -25.4453 6.77344 -48.4023 14.1465 -70.875c6.84473 -20.874 21.1133 -40.5859 27.1904 -61.6992
c33.3467 -33.5342 98.6318 87.6758 109.164 109.402z" />
    <glyph glyph-name="o" unicode="o" horiz-adv-x="306" 
d="M311.562 187.512c11.4326 13.3789 36.7998 -0.836914 24.3652 -16.667c-19.6885 -25.04 -48.1201 -39.8711 -77.5469 -50.5947c-6.42188 -2.33789 -12.9189 -4.59473 -19.4502 -6.7832c-2.16113 -9.05664 -4.68359 -18.0146 -7.71387 -26.8223
c-17.5713 -51.0879 -47.0322 -109.995 -102.869 -126.394c-30.6504 -8.99902 -66.6074 -8.29297 -92.6016 12.4072c-24.6201 19.6094 -36.1279 49.5469 -39.1611 80.1562c-2.99609 30.2178 -1.37012 62.5078 4.10449 94.3135
c-5.37207 6.07422 -10.3896 12.666 -14.9951 19.8066c-32.8457 50.9414 -44.7246 115.238 -37.7852 175.009c6.20703 53.4541 33.374 107.525 88.1406 124.143c53.0859 16.1094 108.496 -3.0332 146.321 -42.0137c42.3721 -43.668 58.1816 -105.159 63.5566 -164.104
c3.42188 -37.5391 4.14453 -76.4209 -1.00977 -114.232c25.6768 9.35352 49.9561 22.248 66.6445 41.7764zM153.263 27.4961c23.666 19.7871 37.8086 46.002 46.5078 74.4404c-14.7461 -3.67773 -29.6523 -6.58496 -44.6641 -8.22754
c-25.3838 -2.77832 -50.4033 -1.30566 -73.7354 4.72461c-1.49609 -12.1143 -2.21484 -24.3818 -1.73047 -36.8848c0.681641 -17.6094 2.39941 -41.4492 20.0732 -50.9014c18.1709 -9.71484 39.9961 5.51855 53.5488 16.8486zM210.067 151.767
c6.0332 47.1484 3.89258 96.8232 -4.54004 143.552c-8.51855 47.1787 -28.626 95.8262 -68.5029 124.974c-34.7715 25.415 -86.8623 31.833 -120.076 -0.0107422c-34.8496 -33.4111 -39.3008 -91.2549 -34.6514 -136.368c3.25195 -31.54 12.1113 -64.9277 28.3877 -93.3457
c6.51074 22.4727 14.8789 44.0762 24.9346 63.7715c17.7793 34.8223 91.6914 25.0977 80.6172 -19.6748c-8.87305 -35.8691 -21.8594 -70.8691 -29.7812 -106.851c31.4961 -9.04004 66.666 -6.55469 98.5361 0.978516c7.22266 1.70801 14.7656 3.53125 22.4414 5.52539
c1.02246 5.80176 1.88867 11.627 2.63477 17.4492z" />
    <glyph glyph-name="o" unicode="&#xf6;" horiz-adv-x="306" 
d="M311.562 187.512c11.4326 13.3789 36.7998 -0.836914 24.3652 -16.667c-19.6885 -25.04 -48.1201 -39.8711 -77.5469 -50.5947c-6.42188 -2.33789 -12.9189 -4.59473 -19.4502 -6.7832c-2.16113 -9.05664 -4.68359 -18.0146 -7.71387 -26.8223
c-17.5713 -51.0879 -47.0322 -109.995 -102.869 -126.394c-30.6504 -8.99902 -66.6074 -8.29297 -92.6016 12.4072c-24.6201 19.6094 -36.1279 49.5469 -39.1611 80.1562c-2.99609 30.2178 -1.37012 62.5078 4.10449 94.3135
c-5.37207 6.07422 -10.3896 12.666 -14.9951 19.8066c-32.8457 50.9414 -44.7246 115.238 -37.7852 175.009c6.20703 53.4541 33.374 107.525 88.1406 124.143c53.0859 16.1094 108.496 -3.0332 146.321 -42.0137c42.3721 -43.668 58.1816 -105.159 63.5566 -164.104
c3.42188 -37.5391 4.14453 -76.4209 -1.00977 -114.232c25.6768 9.35352 49.9561 22.248 66.6445 41.7764zM153.263 27.4961c23.666 19.7871 37.8086 46.002 46.5078 74.4404c-14.7461 -3.67773 -29.6523 -6.58496 -44.6641 -8.22754
c-25.3838 -2.77832 -50.4033 -1.30566 -73.7354 4.72461c-1.49609 -12.1143 -2.21484 -24.3818 -1.73047 -36.8848c0.681641 -17.6094 2.39941 -41.4492 20.0732 -50.9014c18.1709 -9.71484 39.9961 5.51855 53.5488 16.8486zM210.067 151.767
c6.0332 47.1484 3.89258 96.8232 -4.54004 143.552c-8.51855 47.1787 -28.626 95.8262 -68.5029 124.974c-34.7715 25.415 -86.8623 31.833 -120.076 -0.0107422c-34.8496 -33.4111 -39.3008 -91.2549 -34.6514 -136.368c3.25195 -31.54 12.1113 -64.9277 28.3877 -93.3457
c6.51074 22.4727 14.8789 44.0762 24.9346 63.7715c17.7793 34.8223 91.6914 25.0977 80.6172 -19.6748c-8.87305 -35.8691 -21.8594 -70.8691 -29.7812 -106.851c31.4961 -9.04004 66.666 -6.55469 98.5361 0.978516c7.22266 1.70801 14.7656 3.53125 22.4414 5.52539
c1.02246 5.80176 1.88867 11.627 2.63477 17.4492z" />
    <glyph glyph-name="o" unicode="&#xf5;" horiz-adv-x="306" 
d="M311.562 187.512c11.4326 13.3789 36.7998 -0.836914 24.3652 -16.667c-19.6885 -25.04 -48.1201 -39.8711 -77.5469 -50.5947c-6.42188 -2.33789 -12.9189 -4.59473 -19.4502 -6.7832c-2.16113 -9.05664 -4.68359 -18.0146 -7.71387 -26.8223
c-17.5713 -51.0879 -47.0322 -109.995 -102.869 -126.394c-30.6504 -8.99902 -66.6074 -8.29297 -92.6016 12.4072c-24.6201 19.6094 -36.1279 49.5469 -39.1611 80.1562c-2.99609 30.2178 -1.37012 62.5078 4.10449 94.3135
c-5.37207 6.07422 -10.3896 12.666 -14.9951 19.8066c-32.8457 50.9414 -44.7246 115.238 -37.7852 175.009c6.20703 53.4541 33.374 107.525 88.1406 124.143c53.0859 16.1094 108.496 -3.0332 146.321 -42.0137c42.3721 -43.668 58.1816 -105.159 63.5566 -164.104
c3.42188 -37.5391 4.14453 -76.4209 -1.00977 -114.232c25.6768 9.35352 49.9561 22.248 66.6445 41.7764zM153.263 27.4961c23.666 19.7871 37.8086 46.002 46.5078 74.4404c-14.7461 -3.67773 -29.6523 -6.58496 -44.6641 -8.22754
c-25.3838 -2.77832 -50.4033 -1.30566 -73.7354 4.72461c-1.49609 -12.1143 -2.21484 -24.3818 -1.73047 -36.8848c0.681641 -17.6094 2.39941 -41.4492 20.0732 -50.9014c18.1709 -9.71484 39.9961 5.51855 53.5488 16.8486zM210.067 151.767
c6.0332 47.1484 3.89258 96.8232 -4.54004 143.552c-8.51855 47.1787 -28.626 95.8262 -68.5029 124.974c-34.7715 25.415 -86.8623 31.833 -120.076 -0.0107422c-34.8496 -33.4111 -39.3008 -91.2549 -34.6514 -136.368c3.25195 -31.54 12.1113 -64.9277 28.3877 -93.3457
c6.51074 22.4727 14.8789 44.0762 24.9346 63.7715c17.7793 34.8223 91.6914 25.0977 80.6172 -19.6748c-8.87305 -35.8691 -21.8594 -70.8691 -29.7812 -106.851c31.4961 -9.04004 66.666 -6.55469 98.5361 0.978516c7.22266 1.70801 14.7656 3.53125 22.4414 5.52539
c1.02246 5.80176 1.88867 11.627 2.63477 17.4492z" />
    <glyph glyph-name="o" unicode="&#xf4;" horiz-adv-x="306" 
d="M311.562 187.512c11.4326 13.3789 36.7998 -0.836914 24.3652 -16.667c-19.6885 -25.04 -48.1201 -39.8711 -77.5469 -50.5947c-6.42188 -2.33789 -12.9189 -4.59473 -19.4502 -6.7832c-2.16113 -9.05664 -4.68359 -18.0146 -7.71387 -26.8223
c-17.5713 -51.0879 -47.0322 -109.995 -102.869 -126.394c-30.6504 -8.99902 -66.6074 -8.29297 -92.6016 12.4072c-24.6201 19.6094 -36.1279 49.5469 -39.1611 80.1562c-2.99609 30.2178 -1.37012 62.5078 4.10449 94.3135
c-5.37207 6.07422 -10.3896 12.666 -14.9951 19.8066c-32.8457 50.9414 -44.7246 115.238 -37.7852 175.009c6.20703 53.4541 33.374 107.525 88.1406 124.143c53.0859 16.1094 108.496 -3.0332 146.321 -42.0137c42.3721 -43.668 58.1816 -105.159 63.5566 -164.104
c3.42188 -37.5391 4.14453 -76.4209 -1.00977 -114.232c25.6768 9.35352 49.9561 22.248 66.6445 41.7764zM153.263 27.4961c23.666 19.7871 37.8086 46.002 46.5078 74.4404c-14.7461 -3.67773 -29.6523 -6.58496 -44.6641 -8.22754
c-25.3838 -2.77832 -50.4033 -1.30566 -73.7354 4.72461c-1.49609 -12.1143 -2.21484 -24.3818 -1.73047 -36.8848c0.681641 -17.6094 2.39941 -41.4492 20.0732 -50.9014c18.1709 -9.71484 39.9961 5.51855 53.5488 16.8486zM210.067 151.767
c6.0332 47.1484 3.89258 96.8232 -4.54004 143.552c-8.51855 47.1787 -28.626 95.8262 -68.5029 124.974c-34.7715 25.415 -86.8623 31.833 -120.076 -0.0107422c-34.8496 -33.4111 -39.3008 -91.2549 -34.6514 -136.368c3.25195 -31.54 12.1113 -64.9277 28.3877 -93.3457
c6.51074 22.4727 14.8789 44.0762 24.9346 63.7715c17.7793 34.8223 91.6914 25.0977 80.6172 -19.6748c-8.87305 -35.8691 -21.8594 -70.8691 -29.7812 -106.851c31.4961 -9.04004 66.666 -6.55469 98.5361 0.978516c7.22266 1.70801 14.7656 3.53125 22.4414 5.52539
c1.02246 5.80176 1.88867 11.627 2.63477 17.4492z" />
    <glyph glyph-name="o" unicode="&#xf3;" horiz-adv-x="306" 
d="M311.562 187.512c11.4326 13.3789 36.7998 -0.836914 24.3652 -16.667c-19.6885 -25.04 -48.1201 -39.8711 -77.5469 -50.5947c-6.42188 -2.33789 -12.9189 -4.59473 -19.4502 -6.7832c-2.16113 -9.05664 -4.68359 -18.0146 -7.71387 -26.8223
c-17.5713 -51.0879 -47.0322 -109.995 -102.869 -126.394c-30.6504 -8.99902 -66.6074 -8.29297 -92.6016 12.4072c-24.6201 19.6094 -36.1279 49.5469 -39.1611 80.1562c-2.99609 30.2178 -1.37012 62.5078 4.10449 94.3135
c-5.37207 6.07422 -10.3896 12.666 -14.9951 19.8066c-32.8457 50.9414 -44.7246 115.238 -37.7852 175.009c6.20703 53.4541 33.374 107.525 88.1406 124.143c53.0859 16.1094 108.496 -3.0332 146.321 -42.0137c42.3721 -43.668 58.1816 -105.159 63.5566 -164.104
c3.42188 -37.5391 4.14453 -76.4209 -1.00977 -114.232c25.6768 9.35352 49.9561 22.248 66.6445 41.7764zM153.263 27.4961c23.666 19.7871 37.8086 46.002 46.5078 74.4404c-14.7461 -3.67773 -29.6523 -6.58496 -44.6641 -8.22754
c-25.3838 -2.77832 -50.4033 -1.30566 -73.7354 4.72461c-1.49609 -12.1143 -2.21484 -24.3818 -1.73047 -36.8848c0.681641 -17.6094 2.39941 -41.4492 20.0732 -50.9014c18.1709 -9.71484 39.9961 5.51855 53.5488 16.8486zM210.067 151.767
c6.0332 47.1484 3.89258 96.8232 -4.54004 143.552c-8.51855 47.1787 -28.626 95.8262 -68.5029 124.974c-34.7715 25.415 -86.8623 31.833 -120.076 -0.0107422c-34.8496 -33.4111 -39.3008 -91.2549 -34.6514 -136.368c3.25195 -31.54 12.1113 -64.9277 28.3877 -93.3457
c6.51074 22.4727 14.8789 44.0762 24.9346 63.7715c17.7793 34.8223 91.6914 25.0977 80.6172 -19.6748c-8.87305 -35.8691 -21.8594 -70.8691 -29.7812 -106.851c31.4961 -9.04004 66.666 -6.55469 98.5361 0.978516c7.22266 1.70801 14.7656 3.53125 22.4414 5.52539
c1.02246 5.80176 1.88867 11.627 2.63477 17.4492z" />
    <glyph glyph-name="p" unicode="p" horiz-adv-x="432" 
d="M445.39 185.694c18.1504 7.25 30.6621 -17.6064 11.2939 -25.4023c-38.0811 -15.3457 -77.2354 -27.5996 -117.137 -36.8711c-0.371094 -2.79492 -0.735352 -5.58984 -1.14062 -8.375c-7.80273 -53.457 -25.166 -136.988 -85.4678 -155.272
c-52.4658 -15.9043 -105.568 33.0566 -104.276 85.6377c1.39062 56.7227 57.96 81.957 106.172 90.7002c5.33789 0.967773 10.6523 1.94629 15.9561 2.93457c4.75879 29.29 7.3291 59.0645 8.43359 87.9355c1.04297 27.2959 2.10645 54.5137 1.57129 81.8369
c-0.52832 26.8428 0.150391 56.2178 -11.5176 80.9844c-4.67285 9.92578 -11.2715 20.9258 -21.0371 26.6016c-10.9414 6.36035 -19.4053 -0.967773 -26.5664 -9.48926c-15.915 -18.9385 -26.0215 -43.3408 -34.6689 -66.2637
c-65.5645 -173.822 -63.1445 -362.513 -70.3945 -546.68c0.882812 -12.9424 1.75879 -25.8887 2.72363 -38.8281c2.13672 -28.7314 1.14844 -57.7627 3.9502 -86.3887c2.91113 -29.7295 -38.248 -43.9912 -59.6885 -28.3389
c-28.7754 21.0107 -36.1963 50.8945 -43.1943 84.0566c-6.91309 32.75 -11.4395 66.502 -15.2842 99.7568c-7.58105 65.5439 -13.3857 131.572 -16.0244 197.505c-2.63867 65.96 -4.07715 132.206 -2.31836 198.211c0.951172 35.6777 2.94531 71.376 5.09961 106.999
c2.03516 33.6533 3.96484 66.9961 11.5938 99.916c10.625 45.8564 94.7256 50.4307 99.1943 -0.974609c5.55566 -63.9287 -0.90332 -129.722 -1.4043 -193.913c-0.306641 -39.4648 -0.443359 -78.8955 0.0341797 -118.326c1.16211 10.2158 2.39648 20.4209 3.75977 30.6094
c8.62695 64.4258 21.8145 128.464 43.2715 189.914c14.6602 41.9873 41.7207 123.204 99.7725 115.282c25.0264 -3.41504 43.1465 -24.2891 53.8193 -45.6982c14.0977 -28.2812 25.3633 -58.4404 32.0547 -89.3564c11.3164 -52.2949 13.4941 -106.856 8.93652 -160.386
c34.5771 8.19727 68.6328 18.1602 102.483 31.6826zM254.759 70.3262c4.0498 12.7754 7.49121 25.8984 10.4229 39.2227c-20.9121 -3.40527 -42.0186 -8.09863 -59.1055 -20.8262c-19.0469 -14.1865 -28.332 -39.9219 -17.2646 -62.1396
c24.5186 -49.2236 58.3086 19.6406 65.9473 43.7432z" />
    <glyph glyph-name="q" unicode="q" horiz-adv-x="428" 
d="M363.822 43.5625c-18.3252 -19.1055 -37.0352 -37.8398 -55.0938 -57.1836c-2.04199 -2.18457 -4.54688 -4.41016 -6.83398 -6.74121c0.0341797 -6.26465 0.078125 -12.5332 0.135742 -18.8018c8.43945 -5.53906 18.5566 -9.17285 26.6963 -15.499
c36.1621 -28.1143 57.6973 -69.5322 70.1084 -112.869c12.2539 -42.7852 22.5654 -90.127 16.876 -134.746c-4.95312 -38.8682 -28.7832 -82.7676 -74.1895 -78.1318c-49.2686 5.03125 -80.4229 61.7783 -97.5752 102.293
c-20.2334 47.7852 -30.0908 101.624 -35.749 153.016c-6.06348 55.0967 -8.94043 110.207 -9.42773 165.621c-0.166992 18.8604 -0.157227 37.751 0.0234375 56.6514c-1.47559 -5.09277 -3.0166 -10.168 -4.63184 -15.2295
c-9.81348 -30.7461 -20.043 -61.1777 -44.0566 -83.7324c-27.7832 -26.0967 -62.5342 -29.8389 -95.9863 -10.4062c-31.8633 18.5059 -52.9043 55.0361 -63.2285 89.6201c-11.1152 37.2256 -14.8311 74.6006 -11.9512 113.299
c5.40234 72.5557 30.4766 153.841 89.8584 199.785c30.7324 23.7783 72.0615 36.6387 109.171 20.2334c17.8369 -7.8877 30.6875 -21.4434 39.5566 -37.5898c4.03906 27.1738 37.1504 39.3154 60.6836 37.2256c27.0234 -2.39941 44.1689 -24.6436 42.0654 -50.5938
c-9.05664 -111.697 -18.7305 -223.022 -18.5156 -335.196c0 -0.480469 0.00292969 -0.964844 0.00292969 -1.44531c16.6201 16.5352 34.0488 32.457 49.9092 49.0605c30.3877 31.8164 58.8018 65.2139 80.3682 103.752c7.85352 14.0371 35.7568 5.93457 26.9971 -10.0518
c-25.0361 -45.6924 -59.3203 -84.9121 -95.2129 -122.339zM184.952 166.381c8.41211 41.1826 14.1846 82.8232 20.3613 124.392c-19.0273 -3.89648 -41.0127 3.58203 -41.8066 24.6299c-0.555664 14.7256 -2.10352 26.5947 -11.0439 38.2422
c-0.592773 0.770508 -1.48535 1.32227 -1.89062 1.7041c-2.80859 -1.25098 -5.4873 -3.83789 -7.28027 -5.55273c-18.4512 -17.6123 -31.9492 -45.2188 -42.3828 -68.1592c-19.9912 -43.957 -28.6523 -96.167 -25.5742 -144.283
c1.60547 -25.0742 6.58203 -50.376 16.0205 -73.708c4.84375 -11.9746 17.8916 -45.1748 35.6748 -43.627c17.5029 1.52051 31.1064 49.6299 35.752 62.8242c9.56836 27.1699 16.4092 55.3418 22.1699 83.5381zM318.187 -86.3262
c-4.85352 4.9082 -10.1611 8.78125 -15.6494 12.2441c1.30176 -62.8174 5.01758 -125.604 16.126 -187.393c3.92285 -21.8428 10.542 -42.9385 21.0234 -62.582c3.24512 -6.08398 9.07422 -17.9463 15.8779 -20.8369c7.28125 -3.09473 0.150391 -4.08008 7.98633 0.532227
c3.85156 2.2666 6.58203 8.80078 8.47754 12.6113c19.2588 38.7324 9.6123 86.8789 1.24805 127.233c-8.90625 42.959 -23.6006 86.3408 -55.0898 118.19z" />
    <glyph glyph-name="r" unicode="r" horiz-adv-x="365" 
d="M367.74 166.156c3.56543 14.9707 31.4014 12.6934 27.9453 -3.52441c-11.2959 -52.9561 -26.498 -104.873 -45.4805 -155.586c-16.3848 -43.7764 -30.2236 -97.8945 -84.4648 -103.273c-56.3545 -5.58984 -87.6152 65.0742 -99.0752 109.154
c-13.0312 50.1338 -18.5127 105.329 -13.9688 157.45c-19.668 -7.40723 -40.4434 -12.4141 -60.9287 -15.2705c-33.8916 -4.72461 -68.7686 8.03027 -91.2861 33.9941c-40.249 46.4053 -29.9346 119.619 -9.29199 172.306c19.3096 49.2783 64.6445 104.092 123.688 88.3955
c57.5205 -15.291 53.3623 -91.8896 43.3818 -137.79c-9.35645 -43.0205 -27.1865 -83.2051 -52.2227 -118.931c5.10938 -2.22949 10.5225 -3.57227 16.375 -3.22461c13.5557 0.800781 27.5723 5.98535 39.9932 11.7666c10.2188 11.4082 27.6846 17.2949 41.7451 17.3252
c21.6143 0.0507812 43.1836 -13.3584 46.2754 -36.043c6.0498 -44.3525 3.08789 -90.1133 6.6875 -134.811c1.69434 -20.9971 4.26758 -42.2666 7.45117 -63.083c2.66602 -17.4248 6.7832 -30.333 13.7881 -46.2002c0.364258 1.18262 2.09961 2.12305 5.22559 2.81543
c2.55273 3.16309 5.01367 6.0332 7.16797 9.52734c5.55273 9.0127 9.62988 19.1465 13.9688 28.7686c8.90332 19.7432 17.2412 39.7549 24.8496 60.0332c15.4512 41.1895 27.9844 83.415 38.1758 126.2zM81.166 210.12c22.916 33.4561 39.1758 71.4307 46.2793 111.492
c4.44531 25.043 8.92383 62.2441 -6.33008 84.8945c-15.6523 23.2402 -36.1689 -2.3584 -44.5605 -17.8643c-22.4355 -41.4521 -27.2998 -94.374 -17.9668 -140.142c3.31641 -16.2627 11.1562 -28.0869 22.5781 -38.3809z" />
    <glyph glyph-name="s" unicode="s" horiz-adv-x="268" 
d="M282.276 191.766c16.5186 6.88184 27.5752 -15.4961 10.29 -23.1445c-33.6328 -14.8926 -64.6719 -35.2588 -91.6406 -60.251c21.6826 -24 41.8271 -51.9707 41.1553 -84.8301c-0.644531 -31.5332 -24.0068 -66.0283 -52.6973 -79.4893
c-27.8691 -13.0723 -61.0039 -2.80566 -77.2256 23.3281c-17.4619 28.1416 -10.3008 63.2227 5.66504 90.3242c-2.97949 2.41016 -5.94141 4.83398 -8.85547 7.27832c-59.5449 49.9258 -115.757 102.691 -132.408 181.706c-14.4727 68.6797 16.498 138.563 68.8477 183.233
c24.2451 20.6865 54.8984 37.9209 87.2705 25.0195c27.3574 -10.9043 40.2832 -38.6807 46.5107 -65.626c3.87891 -16.7842 -29.0107 -23.3389 -33.4551 -7.45508c-4.12109 14.7285 -11.2793 36.4248 -27.0684 42.6426c-18.918 7.44824 -37.584 -14.3428 -46.3135 -28.4307
c-19.0674 -30.7764 -20.502 -68.2676 -10.46 -102.572c19.0508 -65.0742 71.499 -114.966 118.568 -163.494c30.5518 25.9326 65.7803 46.7393 101.816 61.7607zM168.009 -31.3691c15.0215 2.5459 25.8926 18.0107 18.373 31.6592
c-8.1709 14.8516 -23.6904 23.8164 -37.0283 33.374c-1.81348 1.30176 -3.62012 2.64844 -5.43359 3.97461c-4.76855 -10.7812 -7.5293 -22.0195 -7.04199 -33.5137c0.667969 -15.7715 11.7422 -38.7832 31.1309 -35.4941z" />
    <glyph glyph-name="t" unicode="t" horiz-adv-x="281" 
d="M1039.02 647.064c32.0684 -26.5361 50.0811 -72.0479 27.3389 -110.415c-9.00195 -15.1885 -39.8057 -6.02246 -29.5967 11.0205c34.9482 58.3486 -43.5791 97.4385 -87.0352 111.328c-59.0986 18.8906 -121.391 26.0352 -183.186 28.3291
c-186.71 6.92969 -370.615 -29.5762 -554.173 -60.5703c-2.24316 -11.8486 -4.55078 -23.6729 -6.86133 -35.4531c-27.4023 -139.624 -66.0117 -276.65 -107.668 -412.616c1.28125 -9.53418 2.66504 -19.041 4.16504 -28.5098
c5.52832 -34.9316 11.5107 -70.4395 25.3496 -103.22c9.54785 -22.6191 22.9229 -66.1133 54.1318 -66.9482c35.0166 -0.933594 59.8008 48.0547 72.7432 74.1992c16.7324 33.7969 26.0615 70.3164 29.1016 107.828c1.24414 15.3662 29.0723 12.8779 27.9443 -3.52441
c-2.73047 -39.7236 -12.7998 -78.4355 -30.0547 -114.355c-14.8135 -30.8408 -35.5039 -66.0723 -67.0674 -82.1611c-28.6865 -14.6191 -71.4238 -16.4053 -101.038 -3.99414c-17.9736 7.5332 -35.1533 18.8154 -49.4355 32.0781
c-14.9092 13.8496 -24.9648 34.0254 -33.4902 52.3438c-32.7529 70.3848 -42.3145 149.806 -46.9199 226.469c-4.55762 75.7969 -1.23438 152.552 8.99512 227.787c4.60547 33.8574 10.7441 67.5107 18.792 100.673c-77.2188 -8.66504 -154.833 -13.4375 -232.594 -10.9795
c-48.7471 1.54102 -104.642 1.08398 -149.131 23.7852c-35.4971 18.1104 -62.7285 57.8408 -50.2568 98.5605c4.50293 14.6982 32.7334 12.1592 27.9473 -3.52344c-8.4707 -27.7568 6.79297 -55.3154 30.4521 -70.1602c23.7441 -14.8994 52.7549 -18.1406 80.082 -20.5879
c62.4189 -5.58984 125.209 -5.49805 187.733 -1.79297c37.5938 2.22559 75.0234 5.73633 112.341 10.1025c8.98535 32.624 19.958 64.6855 33.3125 95.8984c14.3125 33.4453 32.4434 67.8789 58.6963 93.6445c25.0195 24.5557 60.7891 44.6631 95.3145 28.1309
c10.2979 -4.92871 -5.51855 2.38965 1.07324 -0.848633c1.96289 -0.960938 3.77637 -1.9834 5.53223 -3.28516c2.87988 -2.13379 5.44336 -4.8125 7.63867 -7.62793c5.06836 -6.50684 7.62109 -14.4834 9.34961 -22.4258
c4.43164 -20.3457 3.11621 -42.0859 1.26855 -62.6602c-2.7373 -30.4766 -7.36914 -60.9053 -12.7412 -91.1738c117.171 19.8623 234.106 41.6641 352.375 53.3281c108.377 10.6855 221.124 15.209 328.604 -5.51562c47.6182 -9.18262 102.694 -21.4912 140.966 -53.1572z
M109.759 322.77c27.5996 98.54 51.9141 198.003 70.5322 298.639c-19.9336 -3.27539 -39.8672 -6.45215 -59.7969 -9.47266c-1.01562 -3.91309 -2.03125 -7.82617 -2.99902 -11.749c-27.6436 -111.854 -35.749 -229.993 -27.4385 -345.78
c6.69824 22.749 13.3037 45.5254 19.7021 68.3633zM197.667 743.894c0.525391 14.9434 0.878906 30.7402 -2.09668 45.4795c-1.05371 5.22168 -2.61133 11.6641 -5.69629 16.2559c-1.69727 -1.53711 -3.07812 -3.75977 -5.00391 -7.54004
c-4.1377 -8.12305 -7.79883 -16.5596 -11.6025 -24.8428c-7.37305 -16.0479 -12.6738 -32.0918 -18.3691 -48.7568c-9.7959 -28.6494 -19.0947 -57.5137 -27.3672 -86.6641c19.1602 2.95508 38.2998 6.03613 57.4326 9.20312
c0.0712891 0.425781 0.15625 0.848633 0.231445 1.27441c5.51172 31.6523 11.3438 63.417 12.4717 95.5908z" />
    <glyph glyph-name="u" unicode="u" horiz-adv-x="421" 
d="M422.451 163.226c3.07812 15.1338 30.6123 12.835 27.9434 -3.52344c-9.24414 -56.6475 -18.0723 -121.718 -53.2148 -169.214c-14.4561 -19.5352 -36.002 -33.6299 -61.1709 -30.7666c-11.3984 1.29492 -21.7061 6.56152 -32.2051 10.5391
c-14.0908 5.34082 -24.2285 11.9297 -33.8848 23.7168c-42.0107 51.2793 -47.1035 123.194 -50.2773 186.482c-0.201172 3.99121 -0.388672 7.99609 -0.5625 12.0146c-1.22363 -4.54004 -2.41016 -9.08398 -3.6748 -13.6172
c-8.15039 -29.1807 -17.0498 -58.1543 -26.6787 -86.8818c-8.51465 -25.4014 -15.6455 -54.167 -31.2637 -76.2959c-13.1025 -18.5664 -36.6455 -36.0938 -59.6777 -38.5068c-27.7227 -2.9043 -54.1699 13.9482 -70.2246 35.4053
c-38.5176 51.4766 -44.1045 115.981 -44.5273 178.216c-0.439453 64.4912 3.10938 129.248 8.93457 193.46c2.68262 29.5459 40.9541 42.5361 65.2236 40.3818c29.2012 -2.59082 47.1406 -26.4473 45.1504 -54.3027c-4.80957 -67.3545 -9.76953 -134.007 -9.77246 -201.576
c-0.00292969 -31.2773 0.703125 -62.418 4.60938 -93.5049c1.45508 -11.5996 2.68555 -23.8711 6.64648 -33.9199c1.58496 -4.01855 6.76953 -20.2197 12.6699 -20.8057c8.73633 -0.869141 19.2354 26.7129 21.7305 32.8516c5.7334 14.1084 10.625 28.6084 15.6055 42.9932
c10.6416 30.7285 20.4443 61.75 29.3984 93.0137c14.7793 51.6025 27.7119 103.867 38.6025 156.479c1.27832 12.8672 2.87695 25.6289 4.85742 38.2305c3.48047 22.1387 28.21 33.6738 48.1064 33.7178c17.5684 0.0410156 45.499 -12.8643 44.4561 -34.625
c-2.66211 -55.5947 -7.33496 -110.63 -7.70605 -166.364c-0.344727 -51.835 0.780273 -103.551 5.6582 -155.157c1.90918 -20.2061 3.57617 -46.6572 13.2705 -65.0195c13.2627 -25.1182 40.0137 8.0752 47.6113 21.6924c24.6885 44.2578 34.3789 95.7588 44.3662 144.887z
" />
    <glyph glyph-name="u" unicode="&#xfc;" horiz-adv-x="421" 
d="M422.451 163.226c3.07812 15.1338 30.6123 12.835 27.9434 -3.52344c-9.24414 -56.6475 -18.0723 -121.718 -53.2148 -169.214c-14.4561 -19.5352 -36.002 -33.6299 -61.1709 -30.7666c-11.3984 1.29492 -21.7061 6.56152 -32.2051 10.5391
c-14.0908 5.34082 -24.2285 11.9297 -33.8848 23.7168c-42.0107 51.2793 -47.1035 123.194 -50.2773 186.482c-0.201172 3.99121 -0.388672 7.99609 -0.5625 12.0146c-1.22363 -4.54004 -2.41016 -9.08398 -3.6748 -13.6172
c-8.15039 -29.1807 -17.0498 -58.1543 -26.6787 -86.8818c-8.51465 -25.4014 -15.6455 -54.167 -31.2637 -76.2959c-13.1025 -18.5664 -36.6455 -36.0938 -59.6777 -38.5068c-27.7227 -2.9043 -54.1699 13.9482 -70.2246 35.4053
c-38.5176 51.4766 -44.1045 115.981 -44.5273 178.216c-0.439453 64.4912 3.10938 129.248 8.93457 193.46c2.68262 29.5459 40.9541 42.5361 65.2236 40.3818c29.2012 -2.59082 47.1406 -26.4473 45.1504 -54.3027c-4.80957 -67.3545 -9.76953 -134.007 -9.77246 -201.576
c-0.00292969 -31.2773 0.703125 -62.418 4.60938 -93.5049c1.45508 -11.5996 2.68555 -23.8711 6.64648 -33.9199c1.58496 -4.01855 6.76953 -20.2197 12.6699 -20.8057c8.73633 -0.869141 19.2354 26.7129 21.7305 32.8516c5.7334 14.1084 10.625 28.6084 15.6055 42.9932
c10.6416 30.7285 20.4443 61.75 29.3984 93.0137c14.7793 51.6025 27.7119 103.867 38.6025 156.479c1.27832 12.8672 2.87695 25.6289 4.85742 38.2305c3.48047 22.1387 28.21 33.6738 48.1064 33.7178c17.5684 0.0410156 45.499 -12.8643 44.4561 -34.625
c-2.66211 -55.5947 -7.33496 -110.63 -7.70605 -166.364c-0.344727 -51.835 0.780273 -103.551 5.6582 -155.157c1.90918 -20.2061 3.57617 -46.6572 13.2705 -65.0195c13.2627 -25.1182 40.0137 8.0752 47.6113 21.6924c24.6885 44.2578 34.3789 95.7588 44.3662 144.887z
" />
    </font>
</defs>
</svg>
