<?xml version="1.0" standalone="no"?>
<!DOCTYPE svg PUBLIC "-//W3C//DTD SVG 1.1//EN" "http://www.w3.org/Graphics/SVG/1.1/DTD/svg11.dtd" >
<svg xmlns="http://www.w3.org/2000/svg" xmlns:xlink="http://www.w3.org/1999/xlink" version="1.1">
<metadata>
Created by FontForge 20170812 at Thu Jun 16 09:39:56 2022
 By www-data
</metadata>
<defs>
<font id="DrippingRegular" horiz-adv-x="0" >
  <font-face 
    font-family="Dripping"
    font-weight="400"
    font-stretch="normal"
    units-per-em="1000"
    panose-1="0 0 0 0 0 0 0 0 0 0"
    ascent="800"
    descent="-200"
    x-height="420.793"
    cap-height="1313.64"
    bbox="-288 -912.328 3159.74 1683.55"
    underline-thickness="50"
    underline-position="-100"
    unicode-range="U+000A-20AC"
  />
<missing-glyph horiz-adv-x="527" 
d="M50 700h427v-700h-427v700zM78 680l185 -309l186 309h-371zM251 350l-180 300v-601zM264 329l-185 -308h370zM276 350l181 -303v605z" />
    <glyph glyph-name=".notdef" horiz-adv-x="527" 
d="M50 700h427v-700h-427v700zM78 680l185 -309l186 309h-371zM251 350l-180 300v-601zM264 329l-185 -308h370zM276 350l181 -303v605z" />
    <glyph glyph-name=".null" 
 />
    <glyph glyph-name=".null" 
 />
    <glyph glyph-name="LF" unicode="&#xa;" 
 />
    <glyph glyph-name="controlCR" unicode="&#xd;" 
 />
    <glyph glyph-name="space" unicode=" " horiz-adv-x="334" 
 />
    <glyph glyph-name="exclam" unicode="!" horiz-adv-x="231" 
d="M178.485 699.387c3.45117 -101.787 3.04199 -204.089 -0.18457 -305.89c-3.08105 -97.0107 3.39844 -205.066 -27.9883 -298.111c-6.82227 -20.21 -59.7646 -20.1699 -66.7061 0c-31.9678 92.8867 -26.1611 201.074 -29.8691 298.111
c-3.89258 101.774 -4.96191 204.076 -2.1582 305.89c1.37207 49.8809 125.217 49.6504 126.906 0zM172.441 -14.6367c4.24219 -27.3945 0.27832 -56.4668 2.9834 -84.2705c2.2041 -22.6572 -36.3945 -28.7402 -51.082 -29.1162
c-18.4873 -0.474609 -48.9111 6.77637 -51.082 29.1172c-2.88379 29.6777 -4.63867 63.2549 6.94043 91.3887c12.4111 30.1592 86.9951 26.7285 92.2402 -7.11914z" />
    <glyph glyph-name="quotedbl" unicode="&#x22;" horiz-adv-x="359" 
d="M112.511 821.523c16.126 0 56.5254 -7.16895 54.1768 -30.8691c-2.38184 -24.0234 -5.50977 -47.8955 -8.18848 -71.873c-2.30273 -20.6055 -0.151367 -47.248 -10.3057 -65.4854c-12.1865 -21.8926 -51.2861 -21.8926 -70.3018 -10.584
c-26.0625 15.4922 -27.8174 37.7012 -27.8896 66.4287c-0.0664062 27.8506 2.24902 54.3281 8.33203 81.5049c5.35059 23.9043 32.1191 30.8779 54.1768 30.8779zM254.368 821.526c16.126 0 56.5254 -7.16895 54.1768 -30.8691
c-2.38184 -24.0234 -5.50977 -47.8955 -8.18848 -71.873c-2.30273 -20.6055 -0.151367 -47.248 -10.3057 -65.4854c-12.1865 -21.8926 -51.2861 -21.8926 -70.3018 -10.584c-26.0625 15.4922 -27.8174 37.7012 -27.8896 66.4287
c-0.0664062 27.8506 2.24902 54.3281 8.33203 81.5049c5.35059 23.9043 32.1191 30.8779 54.1768 30.8779z" />
    <glyph glyph-name="quotedbl" unicode="&#x201d;" horiz-adv-x="359" 
d="M112.511 821.523c16.126 0 56.5254 -7.16895 54.1768 -30.8691c-2.38184 -24.0234 -5.50977 -47.8955 -8.18848 -71.873c-2.30273 -20.6055 -0.151367 -47.248 -10.3057 -65.4854c-12.1865 -21.8926 -51.2861 -21.8926 -70.3018 -10.584
c-26.0625 15.4922 -27.8174 37.7012 -27.8896 66.4287c-0.0664062 27.8506 2.24902 54.3281 8.33203 81.5049c5.35059 23.9043 32.1191 30.8779 54.1768 30.8779zM254.368 821.526c16.126 0 56.5254 -7.16895 54.1768 -30.8691
c-2.38184 -24.0234 -5.50977 -47.8955 -8.18848 -71.873c-2.30273 -20.6055 -0.151367 -47.248 -10.3057 -65.4854c-12.1865 -21.8926 -51.2861 -21.8926 -70.3018 -10.584c-26.0625 15.4922 -27.8174 37.7012 -27.8896 66.4287
c-0.0664062 27.8506 2.24902 54.3281 8.33203 81.5049c5.35059 23.9043 32.1191 30.8779 54.1768 30.8779z" />
    <glyph glyph-name="quotedbl" unicode="&#x201c;" horiz-adv-x="359" 
d="M112.511 821.523c16.126 0 56.5254 -7.16895 54.1768 -30.8691c-2.38184 -24.0234 -5.50977 -47.8955 -8.18848 -71.873c-2.30273 -20.6055 -0.151367 -47.248 -10.3057 -65.4854c-12.1865 -21.8926 -51.2861 -21.8926 -70.3018 -10.584
c-26.0625 15.4922 -27.8174 37.7012 -27.8896 66.4287c-0.0664062 27.8506 2.24902 54.3281 8.33203 81.5049c5.35059 23.9043 32.1191 30.8779 54.1768 30.8779zM254.368 821.526c16.126 0 56.5254 -7.16895 54.1768 -30.8691
c-2.38184 -24.0234 -5.50977 -47.8955 -8.18848 -71.873c-2.30273 -20.6055 -0.151367 -47.248 -10.3057 -65.4854c-12.1865 -21.8926 -51.2861 -21.8926 -70.3018 -10.584c-26.0625 15.4922 -27.8174 37.7012 -27.8896 66.4287
c-0.0664062 27.8506 2.24902 54.3281 8.33203 81.5049c5.35059 23.9043 32.1191 30.8779 54.1768 30.8779z" />
    <glyph glyph-name="numbersign" unicode="#" horiz-adv-x="784" 
d="M713.238 382.419c43.8037 -14.3643 7.33105 -45.5723 -21.7461 -45.7568c-36.8564 -0.257812 -73.8057 5.17188 -110.787 7.85742c-6.45898 -24.2539 -12.8125 -48.541 -18.9219 -72.9004c-6.97363 -27.7842 -13.6113 -55.6934 -20.1172 -83.6689
c19.7285 -0.581055 39.4365 -1.28027 59.1182 -2.13184c13.6582 -0.59375 43.0918 -5.08008 43.0918 -24.5645c0 -18.5605 -28.8926 -25.3301 -43.0918 -24.5645c-23.416 1.25977 -46.8262 2.20312 -70.2295 2.91602c-27.4609 -120.671 -53.7803 -241.976 -91.7646 -359.314
c-10.6162 -32.8057 -107.356 -31.3408 -105.403 8.12891c5.85254 118.164 28.8066 236.295 55.6211 352.71c-14.3174 -0.0927734 -28.6348 -0.244141 -42.9521 -0.461914c-27.5469 -121.027 -53.9189 -242.694 -92.0088 -360.383
c-10.6162 -32.8057 -107.356 -31.3408 -105.403 8.12891c5.78027 116.759 28.2529 233.491 54.6514 348.547c-42.8076 -1.48438 -85.6221 -3.20605 -128.463 -4.94824c-26.042 -1.0625 -36.4668 24.8809 -7.07227 29.7764c48.2715 8.04297 96.8594 13.9941 145.619 18.3291
c8.48535 35.7676 17.1816 71.3574 25.7324 106.71c4.17676 17.2666 8.38672 34.5469 12.6094 51.8398c-33.4258 0.151367 -66.7656 1.78125 -99.8682 6.17578c-27.7715 3.69531 -28.9062 31.9746 0 34.627c37.2256 3.41797 74.5967 6.08398 112.008 8.36719
c32.7988 131.953 68.21 263.801 113.076 391.828c16.8584 48.0928 150.805 38.1953 134.805 -21.1807c-32.7266 -121.449 -68.8174 -241.863 -102.078 -363.121c7.77246 0.369141 15.5449 0.732422 23.3105 1.10156c5.98438 0.28418 11.9688 0.495117 17.9531 0.746094
c32.1455 128.826 66.9502 257.461 110.754 382.454c16.8584 48.0928 150.805 38.1953 134.805 -21.1807c-32.5088 -120.651 -68.3291 -240.28 -101.411 -360.733c39.5156 -1.35254 81.0498 -3.16016 118.164 -15.333zM423.856 286.828
c4.67773 19.3389 9.38379 38.6973 14.1211 58.0557c-5.8916 -0.18457 -11.79 -0.342773 -17.6816 -0.553711c-8.20801 -0.290039 -16.4287 -0.632812 -24.6562 -0.989258c-6.34766 -23.8652 -12.5898 -47.7637 -18.6074 -71.7344
c-6.92773 -27.6387 -13.5391 -55.4102 -20.0117 -83.2344c14.4229 0.40918 28.8457 0.739258 43.2754 0.923828c7.79199 32.6738 15.7422 65.209 23.5605 97.5322z" />
    <glyph glyph-name="dollar" unicode="$" horiz-adv-x="686" 
d="M572.218 28.3896c41.9434 -38.7568 85.0488 -86.3877 52.0918 -143.995c-27.1768 -47.499 -97.8154 -67.1348 -148.225 -71.6611c-9.56055 -0.857422 -19.1406 -1.08789 -28.6748 -0.817383c4.43359 -58.2666 9.77148 -116.48 16.2178 -174.596
c2.19043 -19.7549 -50.4619 -21.0352 -52.6787 -0.000976562c-6.37988 60.4902 -11.5459 121.08 -15.7559 181.716c-84.2764 20.8896 -153.978 85.999 -156.069 180.99c-0.416016 19.1211 48.2637 19.293 49.0752 0c2.73828 -65.3398 44.9658 -124.082 104.764 -147.551
c-4.18945 66.7324 -7.05273 133.524 -8.61621 200.336c-185.629 112.628 -392.733 243.935 -319.093 481.338c39.2578 126.576 160.278 227.413 291.434 244.653c20.5723 2.69824 41.6924 3.10742 62.7002 1.30664c4.44727 37.041 9.16504 74.0557 14.4307 111.011
c2.62598 18.4023 48.3037 16.9248 45.9814 0.000976562c-5.41699 -39.4629 -10.2139 -78.9912 -14.6943 -118.553c76.2861 -18.8047 144.312 -68.1113 169.912 -145.829c7.8584 -23.8721 -46.6807 -27.3955 -54.7764 -8.61133
c-21.7012 50.3564 -67.2207 91.0068 -120.737 103.193c-20.1895 -195.855 -28.9453 -392.694 -26.3525 -589.44c48.0469 -32.0732 96.3115 -63.9814 139.066 -103.49zM382.941 166.058c-0.210938 186.44 9.75879 372.854 29.9814 558.324
c-62.2725 -5.46289 -116.39 -45.6914 -153.854 -93.8701c-84.0391 -108.068 -83.5107 -258.675 6.00488 -362.323c34.6924 -40.1748 75.3955 -72.3008 117.867 -102.131zM557.802 -123.786c36.4346 31.083 6.49316 57.9512 -22.7422 79.7051
c-29.4736 21.9316 -63.4072 43.5732 -99.3398 65.6436c2.0918 -60.0225 5.33105 -120.012 9.54688 -179.948c39.1924 -1.46484 83.4053 9.75195 112.535 34.5996z" />
    <glyph glyph-name="percent" unicode="%" horiz-adv-x="858" 
d="M757.388 801.914c17.7021 -2.83008 64.3242 -21.165 47.3809 -47.5635c-110.345 -171.898 -225.764 -340.735 -340.048 -510.04c-58.1221 -86.0977 -116.396 -172.09 -176.121 -257.092c-27.5068 -39.1465 -55.4229 -78.1475 -84.4941 -116.139
c-27.2627 -35.6357 -54.5254 -70.7568 -96.6211 -89.541c-11.3223 -5.04785 -68.3359 -9.0332 -55.6543 18.4678c36.3818 78.8926 87.2529 154.367 133.65 227.651c52.4873 82.9043 105.502 165.419 159.031 247.656c108.788 167.121 216.837 335.008 329.432 499.595
c17.8867 26.1475 53.8262 31.7422 83.4443 27.0049zM218.575 293.314c-113.592 19.5107 -117.14 143.743 -103.376 242.892c-9.74512 8.74902 -13.3018 24.2344 -6.14941 43.3359c16.9697 45.2891 72.6768 72.1826 116.475 82.6738
c105.061 25.1582 184.342 -58.2998 185.252 -161.084c0.936523 -105.555 -71.6816 -228.516 -192.201 -207.817zM316.32 611.495c-23.7725 30.7666 -60.6953 29.2637 -93.2168 16.1992c17.3662 -5.44336 29.1768 -15.7559 26.1611 -30.3115
c-13.4268 -64.8389 -28.998 -139.416 -10.5303 -204.782c3.29199 -11.6455 11.3486 -21.7607 14.6406 -32.9053c0.158203 -0.18457 0.323242 -0.369141 0.481445 -0.546875c3.46387 2.34863 6.7959 4.6709 7.21777 5.02734c22.084 18.4346 37.8066 45.2949 49.4922 71.1719
c21.7139 48.0801 41.4883 129.908 5.75391 176.147zM618.74 269.007c105.054 25.1582 184.336 -58.3018 185.253 -161.086c0.936523 -105.555 -71.6816 -228.516 -192.201 -207.817c-113.592 19.5107 -117.142 143.745 -103.378 242.894
c-9.74512 8.74902 -13.3076 24.2344 -6.14844 43.3359c16.9697 45.2891 72.6768 72.1826 116.475 82.6738zM703.776 42.1387c21.7139 48.0801 41.4883 129.902 5.75391 176.147c-23.7725 30.7598 -60.6953 29.2559 -93.2168 16.1982
c17.3662 -5.44336 29.1768 -15.7559 26.1611 -30.3115c-13.4268 -64.8389 -28.998 -139.416 -10.5303 -204.782c3.29199 -11.6523 11.3486 -21.7607 14.6406 -32.9111c0.158203 -0.177734 0.323242 -0.362305 0.481445 -0.540039
c3.46387 2.34863 6.7959 4.6709 7.21777 5.02734c22.084 18.4346 37.8066 45.2949 49.4922 71.1719z" />
    <glyph glyph-name="ampersand" unicode="&#x26;" horiz-adv-x="841" 
d="M685.592 234.056c57.7324 -8.22754 109.218 -47.4639 105.101 -110.436c-4.18359 -63.7627 -48.4033 -120.348 -92.4785 -163.155c-51.9795 -50.4883 -116.072 -87.7207 -184.949 -111.328c1.51758 -19.5762 3.11426 -39.1396 4.85645 -58.6963
c1.76172 -19.7812 -50.4092 -20.7705 -52.1641 0c-1.24023 14.6475 -2.3291 29.2949 -3.4375 43.9492c-42.8145 -10.2266 -86.7373 -15.4785 -130.212 -15.4062c-63.2686 0.105469 -144.035 6.66406 -189.839 56.3203c-45.5791 49.4189 -37.9189 121.621 -8.65723 177.256
c25.5801 48.6338 62.2588 94.2129 101.068 134.83c-24.8877 0.989258 -49.584 5.07324 -73.6729 12.8984c-102.579 33.333 -129.81 134.229 -99.5977 229.34c30.0732 94.668 107.264 170.09 191.665 218.638c64.3574 37.0215 142.221 69.1533 219.833 81.5576
c2.91602 29.3213 5.99707 58.6162 9.42773 87.8916c2.23047 19.0225 49.5186 17.7295 47.5264 0.000976562c-3.10742 -27.5859 -5.89844 -55.1982 -8.55762 -82.8242c14.7998 0.666016 29.4873 0.567383 43.957 -0.574219
c82.165 -6.48633 174.194 -64.7471 159.982 -158.426c-3.31836 -21.8857 -57.9102 -21.1533 -55.7725 0c4.68457 46.2783 -25.1914 88.0039 -67.4121 105.931c-26.5176 11.2627 -55.9775 11.5664 -85.0488 7.08594c-9.89746 -113.717 -15.9014 -227.697 -18.1777 -341.75
c5.36426 -1.29297 10.5439 -2.87695 15.1689 -4.93555c15.9541 -7.09961 36.5469 -29.6445 15.915 -45.4404c-10.2334 -7.83203 -20.9424 -15.4854 -32.0137 -22.9014c-0.138672 -25.2305 -0.105469 -50.4609 0.125 -75.6914
c58.2607 25.8506 125.692 44.6611 187.364 35.8662zM327.215 -126.952c44.4307 -2.54688 88.8242 2.59863 131.593 14.04c-5.20605 79.5195 -8.59082 159.125 -10.082 238.75c-32.9443 -22.1562 -62.4707 -45.5527 -53.5635 -52.3887
c18.0127 -13.8232 -26.9268 -26.2402 -39.3438 -17.3066c-47.7041 34.3096 46.7529 92.293 92.1865 117.141c-0.224609 23.4297 -0.277344 46.8525 -0.178711 70.2822c-18.1309 -9.75195 -36.9219 -18.6064 -56.1621 -26.2803
c-52.5664 -43.5996 -98.2051 -99.2803 -133.656 -149.616c-27.25 -38.6904 -52.4609 -87.0342 -38.3145 -135.543c14.3643 -49.2607 62.7607 -56.5186 107.521 -59.0781zM449.372 346.632c2.69824 110.464 8.93555 220.843 18.7666 330.97
c-7.35645 -2.15137 -14.5684 -4.38184 -21.5361 -6.59863c-86.916 -27.6982 -170.309 -74.709 -220.73 -153.166c-38.915 -60.5566 -73.6797 -163.452 -19.8799 -226.305c23.6338 -27.6123 52.9492 -22.7236 84.3223 -13.0645
c49.4912 15.2344 96.542 37.9121 142.748 61.0117c4.87598 3.1543 10.4443 5.43066 16.3096 7.15234zM709.355 53.6611c30.0078 43.415 45.8613 113.427 -11.251 142.966c-50.1445 25.9365 -128.298 -4.65137 -175.85 -26.1211
c-3.00195 -1.35254 -11.8105 -6.24121 -23.4961 -13.1562c1.44531 -84.5537 4.96875 -169.081 10.6035 -253.503c31.2021 12.3975 61.124 28.1006 88.9941 46.7402c41.4424 27.7119 82.4297 61.751 110.999 103.074z" />
    <glyph glyph-name="quotesingle" unicode="'" horiz-adv-x="217" 
d="M112.511 821.523c16.126 0 56.5254 -7.16895 54.1768 -30.8691c-2.38184 -24.0234 -5.50977 -47.8955 -8.18848 -71.873c-2.30273 -20.6055 -0.151367 -47.248 -10.3057 -65.4854c-12.1865 -21.8926 -51.2861 -21.8926 -70.3018 -10.584
c-26.0625 15.4922 -27.8174 37.7012 -27.8896 66.4287c-0.0664062 27.8506 2.24902 54.3281 8.33203 81.5049c5.35059 23.9043 32.1191 30.8779 54.1768 30.8779z" />
    <glyph glyph-name="quotesingle" unicode="&#x2019;" horiz-adv-x="217" 
d="M112.511 821.523c16.126 0 56.5254 -7.16895 54.1768 -30.8691c-2.38184 -24.0234 -5.50977 -47.8955 -8.18848 -71.873c-2.30273 -20.6055 -0.151367 -47.248 -10.3057 -65.4854c-12.1865 -21.8926 -51.2861 -21.8926 -70.3018 -10.584
c-26.0625 15.4922 -27.8174 37.7012 -27.8896 66.4287c-0.0664062 27.8506 2.24902 54.3281 8.33203 81.5049c5.35059 23.9043 32.1191 30.8779 54.1768 30.8779z" />
    <glyph glyph-name="quotesingle" unicode="&#x2018;" horiz-adv-x="217" 
d="M112.511 821.523c16.126 0 56.5254 -7.16895 54.1768 -30.8691c-2.38184 -24.0234 -5.50977 -47.8955 -8.18848 -71.873c-2.30273 -20.6055 -0.151367 -47.248 -10.3057 -65.4854c-12.1865 -21.8926 -51.2861 -21.8926 -70.3018 -10.584
c-26.0625 15.4922 -27.8174 37.7012 -27.8896 66.4287c-0.0664062 27.8506 2.24902 54.3281 8.33203 81.5049c5.35059 23.9043 32.1191 30.8779 54.1768 30.8779z" />
    <glyph glyph-name="parenleft" unicode="(" horiz-adv-x="577" 
d="M514.946 -262.174c17.5576 -13.9023 16.3174 -35.8809 -4.83594 -46.3389c-109.224 -53.9854 -251.088 -20.5732 -331.894 69.0674c-70.3154 78.002 -100.541 184.573 -116.495 286.189c-18.5537 118.177 -14.4434 238.135 7.84473 355.461
c21.1006 111.091 55.4893 222.677 116.429 318.79c49.2607 77.6914 129.975 145.565 225.679 148.706c29.9023 0.976562 28.9326 -25.9893 0 -27.6787c-59.1846 -3.45703 -94.3389 -49.5371 -122.394 -96.4883c-29.3281 -49.083 -50.8643 -102.507 -66.6006 -157.376
c-33.1152 -115.479 -45.9414 -237.964 -44.9121 -357.811c0.983398 -114.667 16.9834 -236.413 63.79 -342.054c31.4727 -71.0273 103.187 -170.466 193.526 -141.382c24.3799 7.85156 58.7949 7.59375 79.8623 -9.08594z" />
    <glyph glyph-name="parenright" unicode=")" horiz-adv-x="579" 
d="M415.4 679.422c107.165 -200.988 139.884 -459.09 90.9336 -680.882c-21.543 -97.6309 -56.3213 -200.408 -136.593 -265.848c-83.168 -67.8008 -205.132 -89.376 -302.617 -41.1904c-21.7012 10.7285 -22.1699 32.5879 -4.84375 46.332
c21.1006 16.7324 55.2783 17.0029 79.8623 9.08496c90.3203 -29.0713 162.061 70.3604 193.533 141.381c46.8193 105.66 62.8066 227.36 63.79 342.054c1.0293 119.847 -11.7969 242.332 -44.9121 357.811c-15.7363 54.8691 -37.2725 108.293 -66.6006 157.376
c-28.0215 46.8857 -63.2744 93.0322 -122.393 96.4893c-29.124 1.70215 -29.7051 28.6484 -0.000976562 27.6787c114.806 -3.76758 199.28 -95.46 249.841 -190.286z" />
    <glyph glyph-name="asterisk" unicode="*" horiz-adv-x="385" 
d="M312.07 668.337c30.9316 0.660156 30.5215 -28.2402 -0.0136719 -28.8408c-24.8613 -0.500977 -49.7295 0.0205078 -74.5908 0.666992c21.5625 -25.666 42.8213 -51.5693 62.8525 -78.4893c15.6113 -20.9746 -33.5771 -29.4268 -44.5957 -14.8584
c-10.5967 14.0146 -21.4238 27.8506 -32.3242 41.6211c0.65332 -17.2666 1.27344 -34.5273 1.80176 -51.7939c0.607422 -19.8867 -50.5137 -20.1377 -51.1338 -0.000976562c-0.692383 22.5986 -1.24707 45.21 -1.74219 67.8213
c-13.1367 -15.3535 -25.957 -31.0439 -38.21 -47.334c-11.3818 -15.1357 -71.5293 -8.61035 -58.5049 14.0605c14.8389 25.8379 34.2695 48.6006 55.6602 69.8926c-17.0098 -0.554688 -34.0127 -1.61035 -51.0029 -3.53711
c-24.6963 -2.79785 -46.6348 23.7266 -13.3213 27.54c30.4502 3.4834 60.874 4.5791 91.2979 4.67188c-19.6885 24.6963 -39.1191 49.6035 -57.7256 75.1445c-10.1016 13.876 32.9834 21.8066 42.0225 10.1016c9.01953 -11.6787 18.2764 -23.1592 27.6123 -34.5674
c-0.270508 15.7168 -0.541016 31.4336 -0.837891 47.1504c-0.342773 18.1377 45.7246 18.2695 46.4971 0c0.679688 -16.1055 1.39258 -32.2051 2.09863 -48.3047c8.43262 7.67969 16.6865 15.4385 24.5713 23.3828c12.1143 12.2061 59.5205 4.24219 42.8213 -14.2656
c-18.1973 -20.1631 -36.6914 -39.8516 -55.0605 -59.6123c27.25 -0.554688 54.5127 -1.03613 81.8281 -0.449219z" />
    <glyph glyph-name="plus" unicode="+" horiz-adv-x="428" 
d="M360.185 309.062c34.125 -3.62891 11.4668 -30.7637 -13.5928 -28.0918c-17.709 1.88086 -35.4512 3.2998 -53.2002 4.44824c-0.825195 -76.5303 2.75781 -154.149 -13.0312 -229.341c-6.28125 -29.9219 -78.8457 -38.3018 -88.1885 -6.80273
c-22.9609 77.4014 -24.2012 158.068 -27.1641 238.221c-28.0947 -0.897461 -56.1758 -2.56641 -84.1973 -5.19922c-8.30664 -0.785156 -26.5439 -0.732422 -30.1865 9.76465c-3.53027 10.1611 8.65625 16.291 17.1348 17.2012
c32.126 3.45703 64.2314 5.62793 96.3369 6.7627c-1.97949 72.4326 -1.19434 145.011 3.09473 217.305c2.96289 49.9004 126.142 49.6104 126.907 0c1.12207 -72.915 0.719727 -145.902 -0.329102 -218.837c22.1299 -1.30664 44.2666 -3.0752 66.416 -5.43066z" />
    <glyph glyph-name="comma" unicode="," horiz-adv-x="284" 
d="M130.036 52.5049c17.8809 36.9756 122.028 20.7451 101.495 -15.9463c-34.25 -61.2168 -73.3428 -151.358 -149.49 -164.818c-18.6064 -3.29199 -49.3594 19.4443 -19.7012 26.6357c-3.72168 -0.904297 -2.0791 0.969727 0.0517578 6.35352
c1.95996 4.95508 2.99609 10.4844 4.67871 15.5518c4.85645 14.6143 11.8369 28.2852 18.4941 42.1211c14.5225 30.1924 29.8896 59.9365 44.4717 90.1025z" />
    <glyph glyph-name="hyphen" unicode="-" horiz-adv-x="467" 
d="M364.779 187.447c16.4814 1.14844 52.1182 -7.49707 52.1113 -29.7061c0 -23.8184 -34.9229 -28.6016 -52.1104 -29.7031c-89.0273 -5.69434 -178.041 -11.0449 -267.127 -15.6699c-14.4629 -0.751953 -44.4248 5.62207 -47.3877 23.8457
c-2.93652 18.0518 19.1211 28.9053 34.5605 30.1719c93.2822 7.64746 186.585 14.5361 279.953 21.0615z" />
    <glyph glyph-name="period" unicode="." horiz-adv-x="204" 
d="M151.752 39.791c3.66895 -8.51172 1.81445 -15.5166 -0.382812 -23.5068c-1.0957 -5.38379 -1.87402 -10.7812 -2.1709 -16.2969c-1.20117 -22.3281 -32.4824 -27.7979 -49.5381 -28.2334c-11.2031 -0.290039 -25.2305 2.49414 -35.0283 8.26758
c-5.66113 3.33203 -15.8682 11.8037 -14.5088 19.9658c1.43164 8.58398 3.37793 17.2207 6.24805 25.4482c3.89941 11.1904 10.7217 19.3457 20.916 25.5605c12.3711 7.54785 29.3809 8.78125 43.3486 6.53125c10.7881 -1.73535 26.2734 -6.5127 31.1162 -17.7363z" />
    <glyph glyph-name="slash" unicode="/" horiz-adv-x="574" 
d="M386.412 804.856c19.959 47.3008 156.395 36.0312 135.308 -21.2656c-61.5596 -167.233 -128.708 -332.514 -191.633 -499.259c-31.1426 -82.5215 -61.1572 -165.432 -91.7129 -248.171c-15.6904 -42.4775 -31.3145 -85.1338 -48.0869 -127.196
c-16.5078 -41.4023 -31.9209 -84.3486 -60.5957 -118.969c-15.7432 -19.0156 -75.3955 -17.709 -78.8594 12.1738c-4.92871 42.4717 13.2227 90.6963 24.8877 131.222c11.7969 40.9932 24.9199 81.7949 38.1816 122.333c27.2891 83.4248 56.2275 166.349 85.1865 249.2
c58.6367 167.741 118.236 336.169 187.324 499.932z" />
    <glyph glyph-name="zero" unicode="0" horiz-adv-x="635" 
d="M76.4561 101.473c-15.5117 72.248 -16.9229 146.847 -12.6074 220.817c-16.3701 46.0537 -16.7266 99.8672 -8.8291 150.038c13.9219 88.4395 50.3096 185.16 122.967 241.982c69.7275 54.5322 167.576 61.3477 239.93 8.11523
c78.6943 -57.8906 117.451 -154.736 141.468 -246.311c25.3359 -96.582 30.8984 -199.643 20.5527 -298.817c-9.53418 -91.3887 -25.4287 -196.72 -92.1611 -265.418c-69.5166 -71.5625 -180.581 -85.2998 -268.17 -40.0312
c-86.9482 44.9395 -123.738 139.212 -143.149 229.624zM224.232 679.474c-53.708 -52.25 -82.0791 -134.986 -94.9121 -207.143c-0.996094 -5.58887 -1.91309 -11.3359 -2.79102 -17.1426c42.3594 6.41992 93.1836 -7.81152 90.0625 -40.6367
c-5.47656 -57.6074 -10.207 -115.445 -10.1211 -173.271c56.0762 -12.167 125.289 28.0352 160.568 66.5869c11.7773 12.8662 58.6104 4.11035 42.373 -14.1201c-48.3174 -54.2559 -127.955 -90.2676 -202.434 -82.7656c0.679688 -20.6777 2.0459 -41.3496 4.3418 -62.001
c8.0957 -72.8027 23.0801 -166.264 84.8506 -214.646c19.5635 -15.3203 34.0391 -21.1592 56.4727 -9.54004c26.7617 13.8555 47.0107 37.5225 61.6387 63.4131c37.1465 65.7422 48.5283 145.109 58.0361 218.935c9.70605 75.3691 10.874 151.378 1.92676 226.866
c-8.65625 72.9941 -22.9941 150.949 -61.2959 214.91c-20.2363 33.7949 -52.3223 64.7266 -93.0977 70.4072c-35.9131 5.00098 -70.8037 -15.71 -95.6191 -39.8525z" />
    <glyph glyph-name="one" unicode="1" horiz-adv-x="458" 
d="M99.3613 603.469c-10.2139 -15.2676 -58.5713 -9.16895 -47.8096 7.52441c41.5547 64.4688 121.101 152.275 206.849 141.566c99.5967 -12.4375 111.348 -145.084 123.304 -222.617c16.6338 -107.891 21.1406 -217.728 23.7402 -326.714
c2.63965 -110.833 4.87012 -224.715 -4.67676 -335.186c-5.05371 -58.498 -145.202 -58.5645 -149.075 -0.000976562c-6.04395 91.3828 2.12402 183.649 5.70703 275.052c3.4248 87.3447 8.53125 174.604 11.5 261.981c2.88965 85.0283 7.93066 173.171 2.05176 258.087
c-1.30664 18.8369 -2.73828 45.8232 -21.0479 55.3506c-19.2402 10.0088 -46.4043 -11.6592 -62.5762 -23.1729c-34.8379 -24.7891 -64.2588 -56.4199 -87.9658 -91.8711z" />
    <glyph glyph-name="two" unicode="2" horiz-adv-x="753" 
d="M83.7617 -142.423c-31.3203 24.7422 -42.6377 64.6279 -26.3408 101.735c16.5215 37.6289 58.3525 61.1709 96.166 71.668c55.6543 15.4521 108.966 7.87793 158.959 -12.002c71.7666 98.126 116.891 221.495 144.754 336.61
c17.6758 73.0332 30.4629 152.46 15.6504 227.209c-14.377 72.5449 -72.2148 140.082 -149.847 145.255c-73.5283 4.89551 -140.386 -63.915 -173.646 -123.237c-18.9629 -33.8213 -29.1768 -72.3467 -21.6084 -110.979c7.17871 -36.6191 36.4014 -81.373 79.249 -78.0215
c8.32715 0.65332 26.5049 0.818359 30.1797 -9.76465c3.5166 -10.1279 -8.64355 -16.3564 -17.1348 -17.208c-97.9941 -9.81738 -165.399 73.2051 -144.213 168.177c19.5039 87.417 102.718 173.481 189.508 195.75c79.2617 20.335 164.759 -10.8213 217.385 -72.2285
c63.3477 -73.9238 91.2178 -163.591 90.2812 -260.212c-1.51758 -155.885 -46.8525 -338.472 -148.146 -466.018c69.2529 -47.2812 156.914 -102.605 234.11 -47.9346c15.6309 11.0645 61.7637 -3.17383 36.8896 -21.0283
c-54.4199 -39.0605 -126.253 -38.0645 -188.023 -18.6602c-39.8193 12.5098 -75.125 34.1582 -110.371 55.918c-8.72949 -9.23047 -17.7754 -18.1113 -27.2168 -26.5371c-71.8789 -64.1523 -202.579 -104.842 -286.585 -38.4922zM197.866 -12.2031
c-24.1689 -7.84473 -52.4346 -34.792 -37.9717 -62.1738c11.9492 -22.6113 22.4463 -20.1436 45.4668 -9.39551c26.6885 12.457 48.9697 33.8281 68.5986 55.291c2.84375 3.10742 5.53613 6.36719 8.30762 9.54785c-26.999 8.90039 -57.4951 15.4658 -84.4014 6.73047z" />
    <glyph glyph-name="three" unicode="3" horiz-adv-x="666" 
d="M130.009 510.767c-35.6689 -8.55762 -74.9902 11.9023 -79.5166 50.3955c-5.31152 45.2158 33.6631 91.2041 64.3896 120.189c65.6367 61.916 159.124 92.2402 248.6 81.1025c44.833 -5.58887 87.3701 -24.5908 117.734 -58.7881
c33.8145 -38.0771 34.9492 -93.4541 21.1064 -140.075c-17.1084 -57.6338 -53.0078 -117.3 -98.2236 -165.433c49.1943 -13.1104 95.0244 -38.1035 129.367 -72.9805c134.256 -136.341 100.494 -382.599 -69.9258 -471.751
c-80.2578 -41.9893 -189.402 -46.9111 -271.139 -4.7959c-83.0957 42.8213 -85.9395 133.214 -77.1641 215.365c2.34277 21.9453 56.9941 20.9756 55.2588 0.000976562c-7.12598 -86.1104 0.349609 -192.002 110.021 -199.398
c83.3857 -5.62793 143.969 60.1875 170.446 133.022c28.0742 77.21 26.9326 168.981 -12.6748 241.995c-28.4238 52.4014 -84.0586 98.8447 -143.902 77.8369c-28.3184 -9.94336 -76.418 -9.07227 -98.5811 14.7334c-23.4102 25.1514 2.5332 46.0732 25.8506 56.1875
c59.9229 25.9893 108.518 87.3438 146.489 138.399c32.6074 43.8506 102.243 149.821 32.0342 191.514c-58.333 34.6465 -140.914 14.8262 -195.685 -17.2266c-27.5273 -16.1123 -52.1445 -37.3311 -71.9521 -62.3506c-10.5039 -13.2686 -20.6982 -28.1006 -26.999 -43.9297
c-3.80078 -9.53418 -14.6543 -64.5488 12.2393 -58.7363c22.9219 4.94824 41.8379 -18.165 12.2256 -25.2773z" />
    <glyph glyph-name="four" unicode="4" horiz-adv-x="706" 
d="M230.275 191.932c-44.6162 -42.8408 -158.464 -64.8828 -178.634 16.3252c-8.41895 33.8809 16.8906 63.499 45.6582 77.6846c38.4932 18.9824 85.8271 15.2217 127.223 12.0811c5.98438 -0.461914 11.9619 -1.00293 17.9336 -1.58398
c31.585 53.5098 52.7715 114.818 69.8145 171.897c28.3252 94.8662 41.3828 193.295 40.8418 292.206c-0.0986328 17.999 45.5 18.0254 45.9814 0c2.96875 -111.342 -11.7246 -222.433 -44.8467 -328.846c-14.2383 -45.7441 -31.4785 -96.1592 -54.9473 -142.378
c27.5137 -4.07129 54.9346 -8.83496 82.3691 -13.4863c35.6816 -6.04395 73.5078 -14.4893 110.443 -13.8691c-0.356445 8.76855 -0.77832 17.5244 -1.08203 26.293c-5.17285 149.096 -7.79883 298.376 5.68066 447.075c5.08691 56.123 142.279 56.3008 143.401 0
c2.96875 -149.022 -0.990234 -298.038 2.59277 -447.074c1.81445 -75.5273 4.19629 -151.081 7.26465 -226.569c2.75098 -67.7158 15.3799 -149.683 -8.77539 -214.251c-11.9561 -31.9541 -80.8721 -25.5938 -95.5332 0c-35.3584 61.7314 -35.8467 151.188 -41.5801 220.718
c-4.50684 54.7041 -8.12891 109.401 -10.7422 164.185c-67.1084 -1.40527 -136.058 17.0625 -201.048 26.8799c-2.94922 0.448242 -5.90527 0.857422 -8.86133 1.28613c-15.2021 -25.4688 -32.6807 -48.918 -53.1543 -68.5732zM129.05 260.164
c-23.5947 -14.5684 -33.4775 -49.1875 -2.96875 -63.4062c19.9189 -9.29004 40.0166 7.87793 54.1104 20.8096c16.2705 14.9316 30.6475 31.8223 43.5664 49.9736c-3.28613 0.270508 -6.56543 0.586914 -9.85742 0.811523
c-26.5439 1.77441 -61.3086 6.34668 -84.8506 -8.18848z" />
    <glyph glyph-name="five" unicode="5" horiz-adv-x="635" 
d="M75.5762 149.051c6.70996 17.834 57.5957 13.1035 49.8037 -7.8252c-25.3564 -68.1836 -40.4922 -153.773 6.28125 -216.903c40.8613 -55.1465 108.451 -56.3672 163.129 -23.6543c101.293 60.6094 150.567 184.138 149.769 298.283
c-0.706055 100.884 -60.4707 241.976 -183.583 217.827c-28.8271 -5.6543 -55.3447 -18.0449 -82.3369 -29.1094c-32.2178 -13.2021 -85.5625 -17.748 -112.634 10.5049c-23.957 25.0068 -1.08203 60.7354 9.2041 86.9297c13.6377 34.7314 26.4375 69.9121 41.9561 103.858
c25.0459 54.7832 51.7148 127.586 114.311 147.354c28.0547 8.86133 60.0547 6.53906 89.0596 7.54199c37.0283 1.28027 74.0166 2.52051 111.058 3.06836c29.0645 0.428711 27.8965 -24.9072 0 -26.7939c-41.3496 -2.79785 -82.7256 -4.72461 -124.121 -6.7041
c-19.1934 -0.916992 -46.126 4.05176 -52.4668 -16.2764c-4.59863 -14.7598 -3.04199 -34.2236 -4.96191 -49.6299c-4.83008 -38.7568 -13.9951 -77.0117 -24.7363 -114.541c-3.89258 -13.6182 -7.89746 -27.21 -11.8828 -40.8086
c27.6914 5.6084 55.8447 8.77539 84.1699 8.10938c68.1709 -1.60352 135.444 -22.0244 187.747 -66.7783c178.535 -152.783 96.2246 -452.036 -90.0967 -557.94c-80.2256 -45.5986 -198.996 -61.3281 -277.822 -4.22266c-88.4336 64.0605 -75.6338 187.872 -41.8457 277.711
z" />
    <glyph glyph-name="six" unicode="6" horiz-adv-x="575" 
d="M198.088 -120.973c-143.896 64.3896 -160.179 249.655 -142.106 386.821c10.0156 76.042 31.8555 149.662 64.2188 219.146c30.7666 66.0527 71.1006 137.839 124.9 188.109c50.541 47.2217 121.853 89.3828 192.709 69.8926
c67.2207 -18.4814 93.54 -78.3057 85.4043 -144.471c-2.23633 -18.1904 -47.5254 -17.4512 -45.9814 0.000976562c2.87695 32.4951 0.0195312 66.3301 -21.2461 92.5898c-24.4922 30.252 -48.0938 21.2852 -74.4922 -1.05566
c-42.2539 -35.7607 -71.8594 -90.458 -96.5361 -139.171c-47.7627 -94.292 -81.3994 -195.789 -89.8848 -301.595c-1.88086 -23.416 -2.85742 -48.0664 -2.49414 -73.1523c107.917 34.2969 254.129 -2.03223 284.341 -120.987
c17.1348 -67.4512 -21.3643 -133.729 -78.1865 -168.658c-57.9766 -35.6426 -139.897 -34.6533 -200.646 -7.46973zM425.966 61c-32.5479 94.167 -150.032 119.425 -231.867 79.2559c4.50684 -64.8916 19.333 -130.186 52.4287 -182.567
c26.7744 -42.3857 67.5234 -65.3994 115.946 -41.0068c50 25.1846 82.2178 90.1484 63.4922 144.318z" />
    <glyph glyph-name="seven" unicode="7" horiz-adv-x="535" 
d="M83.832 681.648c-8.32031 -2.10449 -25.4189 -3.9502 -31.4434 4.70605c-5.50293 7.8916 -0.996094 15.5127 8.24805 17.9277c53.6816 14.0342 107.423 28.1016 161.83 39.0811c47.3672 9.55371 99.5439 21.918 148.02 14.4092
c113.169 -17.5312 106.98 -143.006 96.6348 -230.733c-10.1807 -86.335 -29.79 -171.344 -51.5703 -255.567c16.9434 -0.910156 33.8936 -1.98535 50.8506 -3.35156c9.07227 -0.732422 21.4961 -7.48926 18.0391 -18.1123
c-3.64844 -11.1904 -22.7959 -11.0586 -31.7695 -10.2803c-14.8525 1.28613 -29.7109 2.28906 -44.5762 3.15332c-3.75391 -14.2314 -7.54102 -28.4434 -11.3418 -42.6357c-28.6416 -106.947 -55.1191 -214.23 -81.2734 -321.798
c-11.3486 -46.6748 -152.883 -39.6016 -143.883 11.0977c21.417 120.611 58.168 238.182 94.7344 355.573c-18.6455 -0.488281 -37.291 -1.24023 -55.9365 -2.30957c-30.1328 -1.72852 -29.2354 26.1221 0 27.9697c21.6084 1.36621 43.21 2.30273 64.7988 2.84375
c16.627 53.5889 32.9639 107.185 47.5127 161.07c12.4639 46.166 24.1816 92.583 35.1084 139.132c4.91504 20.9355 8.86035 41.9766 13.4854 62.9453c3.93945 17.8545 18.7656 52.2432 15.1436 70.4473c-9.57324 48.0596 -126.826 14.4756 -157.25 8.45117
c-48.8389 -9.66602 -97.1104 -21.833 -145.361 -34.0195z" />
    <glyph glyph-name="eight" unicode="8" horiz-adv-x="571" 
d="M207.351 -97.0088c-50.6133 55.6348 -52.9697 144.114 -41.0078 214.007c8.80859 51.4512 24.6172 99.8936 50.0264 143.612c-21.6875 19.8203 -43.5205 39.5547 -65.1885 59.6855c-53.6553 49.8545 -106.703 117.332 -100.719 195.287
c6.23535 81.2412 65.7959 143.428 130.753 185.715c63.8223 41.5547 146.43 71.7607 222.809 53.1152c66.5605 -16.251 102.89 -68.1445 113.07 -133.432c21.7734 -139.614 -45.6982 -278.449 -91.2373 -411.683c42.3662 -50.2441 83.8613 -108.993 90.8418 -172.288
c17.3662 -157.501 -205.62 -248.046 -309.348 -134.02zM225.065 630.785c-48.1523 -64.918 -46.9512 -144.206 -3.86621 -210.668c43.1445 -66.5537 115.327 -111.539 168.665 -169.767c18.9102 58.8809 39.1855 117.365 53.6553 177.539
c18.6523 77.5664 42.9062 197.057 -17.7695 263.023c-57.416 62.417 -161.803 -7.71289 -200.685 -60.1279zM254.189 225.582c-28.3975 -59.6064 -41.7646 -127.91 -37.1064 -191.62c5.97754 -81.7559 97.9668 -186.889 176.206 -105.073
c63.8096 66.7188 -11.9287 164.534 -58.9531 216.19c-25.6797 28.2002 -52.6455 54.6582 -80.1465 80.5029z" />
    <glyph glyph-name="nine" unicode="9" horiz-adv-x="572" 
d="M318.156 690.747c-28.8008 -12.6484 -53.875 -46.4668 -70.9707 -71.5264c-41.1387 -60.2402 -68.6328 -132.33 -68.1318 -205.799c0.230469 -34.2305 6.45898 -72.6182 29.0898 -99.835c12.4043 -14.9111 17.3857 -14.4893 34.4746 -4.94238
c17.4912 9.76465 32.5078 24.3789 45.5518 39.4492c48.3506 55.8457 75.0459 130.423 99.4385 200.382c1.38574 7.61426 3.37207 15.1885 6.22949 22.6904c8.65039 22.7236 58.1484 20.8369 71.6943 5.34473c34.9893 -40.0107 43.0254 -93.5869 50.2041 -144.808
c7.37012 -52.5732 7.60742 -106.749 5.26465 -159.705c-4.27539 -96.6738 -20.5596 -201.694 -55.9912 -292.226c-34.6396 -88.4863 -113.209 -147.776 -211.565 -131.274c-79.6641 13.3613 -140.405 70.0576 -156.828 149.049
c-3.80078 18.2959 48.5938 21.5684 53.2588 4.11035c15.6436 -58.5439 77.7109 -138.399 139.903 -82.8047c46.1064 41.2178 60.2061 125.322 73.0791 182.593c17.5176 77.9424 26.874 158.312 28.2334 238.175c0.495117 29.0381 -0.25 58.1553 -1.49707 87.2061
c-28.0352 -61.2295 -64.6279 -117.794 -120.157 -154.234c-46.5361 -30.5352 -108.161 -29.875 -155.521 -0.43457c-49.3594 30.6807 -64.6406 86.0576 -63.8887 141.263c1.51074 111.203 67.9531 224.312 157.917 287.99c45.2227 32.0068 101.272 51.5107 155.91 32.2842
c47.875 -16.8447 76.4971 -64.9248 90.6631 -111.203c6.14258 -20.0713 -39.667 -23.2578 -45.8291 -7.20508c-12.7471 33.2207 -45.4473 95.2549 -90.5312 75.4609z" />
    <glyph glyph-name="colon" unicode=":" horiz-adv-x="206" 
d="M125.477 344.751c-1.50391 -16.9961 -24.209 -21.1328 -37.6885 -21.4824c-8.51758 -0.210938 -19.1934 1.90039 -26.6426 6.29492c-4.21582 2.4873 -12.1602 9.02637 -11.0381 15.1885c2.91016 15.8877 2.3623 31.4922 2.71191 47.5381
c0.547852 25.3232 59.3027 26.0684 67.0293 5.17285c6.28125 -16.9902 7.21191 -34.7979 5.62793 -52.7119zM155.411 -26.79c0.145508 -12.5166 0.435547 -25.0264 0.864258 -37.5361c0.739258 -21.0283 -32.3691 -26.3994 -46.957 -26.7686
c-15.3672 -0.389648 -47.1299 6.26074 -46.958 26.7676c0.138672 15.9873 -0.263672 32.3242 1.2207 48.2646c1.72852 18.5664 7.0332 30.8848 23.5547 40.835c17.3662 10.458 76.2598 10.3066 67.2861 -22.3271c-2.13086 -7.73926 0.890625 -20.5459 0.989258 -29.2354z
" />
    <glyph glyph-name="semicolon" unicode=";" horiz-adv-x="305" 
d="M131.166 78.5479c12.9648 42.0957 130.086 33.3545 116.903 -18.3672c-14.4893 -56.8877 -32.5674 -112.568 -54.3477 -167.114c-20.5596 -51.5039 -43.0459 -116.838 -87.7734 -152.124c-10.9004 -8.59766 -45.4805 -14.4697 -51.4385 3.83301
c-15.5381 47.7363 13.0713 113.479 25.8711 159.855c16.0723 58.2275 33.0098 116.191 50.7852 173.917zM254.7 346.396c2.22363 -19.1602 -31.1953 -24.4004 -43.3486 -24.7041c-9.80469 -0.250977 -22.0771 2.19043 -30.6543 7.23828
c-5.36426 3.16016 -13.4404 10.0947 -12.6953 17.4717c0.930664 9.19727 1.60352 18.4082 1.88086 27.6523c0.125 4.3418 0.111328 8.55176 0.731445 12.8535c1.03613 7.23145 3.54297 11.4805 8.0166 17.1279c6.12305 7.72656 20.4736 9.62012 29.4209 9.62012
c10.5107 0 21.3711 -2.55371 29.4209 -9.62012c14.5156 -12.7471 15.123 -39.4824 17.2275 -57.6396z" />
    <glyph glyph-name="less" unicode="&#x3c;" horiz-adv-x="457" 
d="M339.76 229.596c19.5693 -1.41895 64.4014 -7.15137 63.7148 -36.3145c-0.666016 -27.9619 -42.1807 -36.7236 -63.71 -36.3145c-43.5205 0.825195 -337.699 0.145508 -283.015 97.0439c12.6484 22.4131 40.2549 32.8311 62.1797 43.1895
c28.167 13.3145 56.6641 25.8965 85.0879 38.6504c53.041 23.8057 118.045 65.248 177.764 62.6553c7.27734 -0.310547 26.4053 -3.12793 25.5674 -14.5693c-2.26953 -30.958 -53.2129 -51.042 -76.4375 -64.3828c-34.5273 -19.834 -69.0742 -39.6875 -103.839 -59.0918
c-5.40332 -3.01562 -17.709 -11.7979 -29.1035 -18.627c5.17285 -0.633789 10.3389 -1.30664 15.5186 -1.89355c42.0225 -4.75098 84.1113 -7.29102 126.272 -10.3457z" />
    <glyph glyph-name="equal" unicode="=" horiz-adv-x="672" 
d="M80.0537 332.373c-6.53906 4.65137 -10.7676 11.1953 -4.11719 18.1963c23.1191 24.3203 74.0361 22.8027 104.862 25.627c40.9932 3.76074 82.1973 5.56836 123.336 6.59082c85.6484 2.1377 171.33 2.52734 256.92 -1.64941
c18.6523 -0.910156 61.2754 -7.125 60.6221 -34.5527c-0.639648 -26.6357 -40.1357 -34.9033 -60.6221 -34.5537c-83.4912 1.41895 -166.976 3.78809 -250.493 3.89355c-40.6699 0.0527344 -81.3662 -0.250977 -122.023 0.844727
c-32.7725 0.883789 -80.4756 -4.34863 -108.484 15.6035zM563.999 225.867c17.1416 1.1416 54.1768 -7.75879 54.1768 -30.8848c0 -24.749 -36.3027 -29.7568 -54.1768 -30.8789c-81.5254 -5.12695 -163.248 -8.83496 -244.944 -9.26367
c-78.7344 -0.421875 -165.445 -6.34668 -242.662 11.0195c-33.4121 7.51465 -36.9219 37.4824 0.000976562 43.124c78.9844 12.0742 162.878 4.51953 242.661 6.40625c81.7363 1.93945 163.36 5.03418 244.944 10.4775z" />
    <glyph glyph-name="greater" unicode="&#x3e;" horiz-adv-x="491" 
d="M437.075 277.332c23.5879 -53.2588 -69.3779 -88.4785 -104.242 -103.555c-63.1162 -27.2627 -127.447 -51.1934 -192.121 -74.4512c-23.2842 -8.37305 -65.3203 -7.85156 -83.293 12.4502c-18.3818 20.7637 0.65332 40.0498 21.8398 47.4795
c49.6562 17.4121 99.4453 34.5342 148.891 52.54c23.1133 8.41895 46.2529 16.9502 69.0557 26.1807c10.2334 4.13672 20.5527 8.28711 29.8555 14.3311c11.8232 7.67969 14.8516 7.86426 4.75684 18.0977c-13.6445 13.8359 -45.9678 20.3018 -64.3896 25.1582
c-21.0215 5.54199 -42.5439 9.26367 -63.9482 12.9785c-43.1709 7.49512 -86.6055 13.5781 -127.744 29.3271c-45.7637 17.5107 2.56055 45.3477 30.4238 41.1318c62.7139 -9.49414 126.648 -15.3994 188.551 -29.46c43.6523 -9.91016 121.806 -25.7852 142.365 -72.209z
" />
    <glyph glyph-name="question" unicode="?" horiz-adv-x="560" 
d="M477.505 724.202c29.3418 -33.5381 36.2314 -79.4023 30.5635 -122.389c-13.6318 -103.549 -62.5957 -203.595 -98.0332 -300.929c-36.6787 -100.765 -66.6865 -201.655 -74.0371 -309.183c-3.5957 -52.5791 -134.626 -51.5098 -133.096 0.000976562
c6.48535 218.546 136.341 404.465 204.835 605.632c15.2344 44.7344 21.5947 112.562 -34.7588 130.785c-48.0137 15.5186 -104.063 -5.10645 -144.615 -30.5811c-39.8252 -25.0195 -78.707 -62.3506 -104.313 -101.926
c-25.1846 -38.9219 -36.0449 -101.161 7.19824 -132.646c24.5645 -17.8809 -21.1602 -31.7568 -36.5205 -20.8174c-86.2686 61.4541 -31.0361 170.829 25.9248 232.039c61.6582 66.2637 149.814 105.753 240.887 98.5742
c41.5078 -3.27246 87.5615 -16.0986 115.966 -48.5605zM270.064 -92.7393c9.70605 -0.686523 40.9863 -7.67383 37.3643 -24.1289c-6.57812 -29.8955 -9.73828 -60.3652 -8.40527 -90.96c1.58398 -36.3223 -93.6719 -36.7246 -93.4014 0
c0.244141 33.6494 5.8125 65.8086 17.1611 97.4922c5.8457 16.3301 33.333 18.5801 47.2812 17.5967z" />
    <glyph glyph-name="at" unicode="@" horiz-adv-x="999" 
d="M946.49 536.403c14.0342 -114.634 -30.6113 -235.861 -99.4092 -326.056c-68.0449 -89.2451 -177.803 -159.065 -292.582 -116.462c-67.7812 25.1582 -89.4883 82.5342 -90.1807 145.756c-17.2666 -19.0088 -36.0713 -36.6055 -57.957 -51.4512
c-36.7578 -24.9336 -84.8115 -42.0225 -128.55 -25.2305c-32.9707 12.6611 -47.6973 42.7549 -46.041 76.9062c3.86621 79.5127 63.6768 159.738 130.151 199.432c66.4814 39.6934 167.444 48.5674 212.595 -26.7031c1.13477 -1.89355 1.47754 -3.62891 1.2666 -5.21875
c5.80664 -3.99219 8.83496 -9.64648 7.05371 -17.3135c-12.1797 -52.4473 -57.9307 -286.248 61.7305 -247.484c47.1035 15.2549 86.6787 60.3125 115.057 99.043c30.8652 42.1221 54.0439 90.4131 68.9424 140.393c25.0068 83.8936 30.7471 189.587 -31.1484 259.176
c-55.0205 61.8691 -138.854 88.499 -220.017 85.9062c-177.836 -5.67383 -321.633 -139.877 -386.293 -297.754c-66.0791 -161.348 -78.5098 -397.438 45.1436 -535.659c60.9131 -68.0918 150.396 -96.8721 238.729 -69.1865
c90.3203 28.3057 160.213 99.0762 224.24 165.545c21.9648 22.8027 108.228 7.54785 77.9824 -25.9834c-88.3535 -97.9473 -194.516 -187.574 -330.982 -201.252c-130.687 -13.0967 -253.595 39.2852 -326.094 150.033c-64.1855 98.0527 -77.6914 225.321 -66.666 339.639
c10.6562 110.504 46.9912 219.787 112.206 310.199c127.507 176.78 369.284 272.307 580.229 197.782c102.217 -36.1113 186.922 -112.385 200.593 -224.056zM497.348 403.267c3.95215 4.66504 13.5996 8.26855 25.0537 10.2217
c-82.4756 82.4424 -211.137 -101.609 -205.918 -181.795c0.442383 -6.7832 1.24121 -18.6797 6.44043 -24.7432c-4.84277 6.59766 13.5322 11.3682 21.1133 16.7715c21.2188 15.1162 39.3232 34.7646 55.9834 54.6377c33.9268 40.4727 63.1758 84.5605 97.3271 124.907z" />
    <glyph glyph-name="A" unicode="A" horiz-adv-x="2101" 
d="M137.763 -113.585c130.839 170.057 336.232 275.152 536.297 340.229c84.4678 27.4736 170.499 48.1455 257.329 65.1553c42.1484 151.859 79.1172 305.27 129.44 454.675c36.665 108.848 77.8896 220.71 141.218 317.16c50.7715 77.3223 126.042 164.62 225.639 170.485
c90.1221 5.30469 155.112 -59.2041 196.938 -132.251c52.7969 -92.1943 86.4795 -198.225 119.496 -298.752c35.3057 -107.481 65.835 -216.435 96.8457 -325.229c59.3623 31.5449 111.718 74.293 146.733 133.985c9.64648 16.4424 59.1709 9.98926 48.8125 -7.67383
c-23.2188 -39.5752 -53.167 -73.793 -89.4365 -101.96c-29.8164 -23.1592 -62.3516 -42.2012 -96.4307 -58.2207c27.7646 -96.8789 56.3408 -193.507 89.4434 -288.742c36.3945 -104.69 78.3516 -207.679 130.357 -305.659
c43.415 -81.8018 109.257 -214.673 219.12 -209.189c28.8594 1.44531 28.0674 -25.2109 -0.000976562 -26.7949c-43.5273 -2.46094 -84.7715 10.3525 -120.447 35.2139c-83.2139 57.9834 -132.118 159.923 -175.289 248.441
c-50.3359 103.199 -90.7021 210.944 -126.312 320.016c-22.4004 68.6064 -42.9531 137.786 -63.0107 207.118c-35.9658 -13.7637 -73.0332 -24.8281 -110.035 -34.1377c-115.735 -29.124 -234.256 -47.0176 -352.255 -64.0869
c-99.5703 -14.3965 -199.715 -27.7109 -299.146 -44.4365c-50.3037 -194.602 -109.099 -390.101 -213.842 -562.216c-58.2402 -95.6914 -132.408 -182.178 -229.781 -239.534c-96.5088 -56.8555 -215.233 -84.8838 -326.522 -65.1885
c-51.834 9.1709 -101.451 28.9385 -142.966 61.6445c-39.2715 30.9385 -59.877 73.0869 -72.0303 120.837c-26.5107 104.163 16.8643 207.264 79.8359 289.112zM1068.22 380.919c-5.64746 -22.5449 -11.3535 -45.1719 -17.1133 -67.8027
c113.473 18.4746 227.724 33.0693 341.177 50.3037c118.078 17.9336 238.789 35.7744 352.407 73.7461c17.082 5.70703 34.0127 12.0547 50.6465 19.0684c-40.4395 140.689 -79.7236 281.735 -129.162 419.601c-34.3955 95.915 -68.6982 212.152 -142.662 286.017
c-40.0693 40.0166 -91.8242 56.3867 -142.708 23.8584c-46.2188 -29.5459 -78.8652 -81.3926 -104.558 -128.496c-55.377 -101.517 -87.918 -215.095 -118.75 -325.935c-32.3301 -116.211 -59.9824 -233.378 -89.2773 -350.36zM352.018 31.1631
c-86.9951 -62.8262 -176.339 -144.034 -217.781 -245.188c-21.1729 -51.6826 -28.4902 -108.656 -15.6436 -163.427c12.8467 -54.7637 51.5898 -98.416 100.494 -125.257c92.333 -50.666 201.147 -26.1807 287.482 24.6045c193.962 114.1 288.241 349.483 358.153 551.943
c21.1465 61.2295 39.8584 123.185 57.5146 185.457c-96.3906 -19.8398 -191.606 -44.6816 -284.374 -78.9912c-100.97 -37.3379 -198.429 -86.0117 -285.846 -149.142z" />
    <glyph glyph-name="A" unicode="&#xc5;" horiz-adv-x="2101" 
d="M137.763 -113.585c130.839 170.057 336.232 275.152 536.297 340.229c84.4678 27.4736 170.499 48.1455 257.329 65.1553c42.1484 151.859 79.1172 305.27 129.44 454.675c36.665 108.848 77.8896 220.71 141.218 317.16c50.7715 77.3223 126.042 164.62 225.639 170.485
c90.1221 5.30469 155.112 -59.2041 196.938 -132.251c52.7969 -92.1943 86.4795 -198.225 119.496 -298.752c35.3057 -107.481 65.835 -216.435 96.8457 -325.229c59.3623 31.5449 111.718 74.293 146.733 133.985c9.64648 16.4424 59.1709 9.98926 48.8125 -7.67383
c-23.2188 -39.5752 -53.167 -73.793 -89.4365 -101.96c-29.8164 -23.1592 -62.3516 -42.2012 -96.4307 -58.2207c27.7646 -96.8789 56.3408 -193.507 89.4434 -288.742c36.3945 -104.69 78.3516 -207.679 130.357 -305.659
c43.415 -81.8018 109.257 -214.673 219.12 -209.189c28.8594 1.44531 28.0674 -25.2109 -0.000976562 -26.7949c-43.5273 -2.46094 -84.7715 10.3525 -120.447 35.2139c-83.2139 57.9834 -132.118 159.923 -175.289 248.441
c-50.3359 103.199 -90.7021 210.944 -126.312 320.016c-22.4004 68.6064 -42.9531 137.786 -63.0107 207.118c-35.9658 -13.7637 -73.0332 -24.8281 -110.035 -34.1377c-115.735 -29.124 -234.256 -47.0176 -352.255 -64.0869
c-99.5703 -14.3965 -199.715 -27.7109 -299.146 -44.4365c-50.3037 -194.602 -109.099 -390.101 -213.842 -562.216c-58.2402 -95.6914 -132.408 -182.178 -229.781 -239.534c-96.5088 -56.8555 -215.233 -84.8838 -326.522 -65.1885
c-51.834 9.1709 -101.451 28.9385 -142.966 61.6445c-39.2715 30.9385 -59.877 73.0869 -72.0303 120.837c-26.5107 104.163 16.8643 207.264 79.8359 289.112zM1068.22 380.919c-5.64746 -22.5449 -11.3535 -45.1719 -17.1133 -67.8027
c113.473 18.4746 227.724 33.0693 341.177 50.3037c118.078 17.9336 238.789 35.7744 352.407 73.7461c17.082 5.70703 34.0127 12.0547 50.6465 19.0684c-40.4395 140.689 -79.7236 281.735 -129.162 419.601c-34.3955 95.915 -68.6982 212.152 -142.662 286.017
c-40.0693 40.0166 -91.8242 56.3867 -142.708 23.8584c-46.2188 -29.5459 -78.8652 -81.3926 -104.558 -128.496c-55.377 -101.517 -87.918 -215.095 -118.75 -325.935c-32.3301 -116.211 -59.9824 -233.378 -89.2773 -350.36zM352.018 31.1631
c-86.9951 -62.8262 -176.339 -144.034 -217.781 -245.188c-21.1729 -51.6826 -28.4902 -108.656 -15.6436 -163.427c12.8467 -54.7637 51.5898 -98.416 100.494 -125.257c92.333 -50.666 201.147 -26.1807 287.482 24.6045c193.962 114.1 288.241 349.483 358.153 551.943
c21.1465 61.2295 39.8584 123.185 57.5146 185.457c-96.3906 -19.8398 -191.606 -44.6816 -284.374 -78.9912c-100.97 -37.3379 -198.429 -86.0117 -285.846 -149.142z" />
    <glyph glyph-name="A" unicode="&#xc4;" horiz-adv-x="2101" 
d="M137.763 -113.585c130.839 170.057 336.232 275.152 536.297 340.229c84.4678 27.4736 170.499 48.1455 257.329 65.1553c42.1484 151.859 79.1172 305.27 129.44 454.675c36.665 108.848 77.8896 220.71 141.218 317.16c50.7715 77.3223 126.042 164.62 225.639 170.485
c90.1221 5.30469 155.112 -59.2041 196.938 -132.251c52.7969 -92.1943 86.4795 -198.225 119.496 -298.752c35.3057 -107.481 65.835 -216.435 96.8457 -325.229c59.3623 31.5449 111.718 74.293 146.733 133.985c9.64648 16.4424 59.1709 9.98926 48.8125 -7.67383
c-23.2188 -39.5752 -53.167 -73.793 -89.4365 -101.96c-29.8164 -23.1592 -62.3516 -42.2012 -96.4307 -58.2207c27.7646 -96.8789 56.3408 -193.507 89.4434 -288.742c36.3945 -104.69 78.3516 -207.679 130.357 -305.659
c43.415 -81.8018 109.257 -214.673 219.12 -209.189c28.8594 1.44531 28.0674 -25.2109 -0.000976562 -26.7949c-43.5273 -2.46094 -84.7715 10.3525 -120.447 35.2139c-83.2139 57.9834 -132.118 159.923 -175.289 248.441
c-50.3359 103.199 -90.7021 210.944 -126.312 320.016c-22.4004 68.6064 -42.9531 137.786 -63.0107 207.118c-35.9658 -13.7637 -73.0332 -24.8281 -110.035 -34.1377c-115.735 -29.124 -234.256 -47.0176 -352.255 -64.0869
c-99.5703 -14.3965 -199.715 -27.7109 -299.146 -44.4365c-50.3037 -194.602 -109.099 -390.101 -213.842 -562.216c-58.2402 -95.6914 -132.408 -182.178 -229.781 -239.534c-96.5088 -56.8555 -215.233 -84.8838 -326.522 -65.1885
c-51.834 9.1709 -101.451 28.9385 -142.966 61.6445c-39.2715 30.9385 -59.877 73.0869 -72.0303 120.837c-26.5107 104.163 16.8643 207.264 79.8359 289.112zM1068.22 380.919c-5.64746 -22.5449 -11.3535 -45.1719 -17.1133 -67.8027
c113.473 18.4746 227.724 33.0693 341.177 50.3037c118.078 17.9336 238.789 35.7744 352.407 73.7461c17.082 5.70703 34.0127 12.0547 50.6465 19.0684c-40.4395 140.689 -79.7236 281.735 -129.162 419.601c-34.3955 95.915 -68.6982 212.152 -142.662 286.017
c-40.0693 40.0166 -91.8242 56.3867 -142.708 23.8584c-46.2188 -29.5459 -78.8652 -81.3926 -104.558 -128.496c-55.377 -101.517 -87.918 -215.095 -118.75 -325.935c-32.3301 -116.211 -59.9824 -233.378 -89.2773 -350.36zM352.018 31.1631
c-86.9951 -62.8262 -176.339 -144.034 -217.781 -245.188c-21.1729 -51.6826 -28.4902 -108.656 -15.6436 -163.427c12.8467 -54.7637 51.5898 -98.416 100.494 -125.257c92.333 -50.666 201.147 -26.1807 287.482 24.6045c193.962 114.1 288.241 349.483 358.153 551.943
c21.1465 61.2295 39.8584 123.185 57.5146 185.457c-96.3906 -19.8398 -191.606 -44.6816 -284.374 -78.9912c-100.97 -37.3379 -198.429 -86.0117 -285.846 -149.142z" />
    <glyph glyph-name="A" unicode="&#xc3;" horiz-adv-x="2101" 
d="M137.763 -113.585c130.839 170.057 336.232 275.152 536.297 340.229c84.4678 27.4736 170.499 48.1455 257.329 65.1553c42.1484 151.859 79.1172 305.27 129.44 454.675c36.665 108.848 77.8896 220.71 141.218 317.16c50.7715 77.3223 126.042 164.62 225.639 170.485
c90.1221 5.30469 155.112 -59.2041 196.938 -132.251c52.7969 -92.1943 86.4795 -198.225 119.496 -298.752c35.3057 -107.481 65.835 -216.435 96.8457 -325.229c59.3623 31.5449 111.718 74.293 146.733 133.985c9.64648 16.4424 59.1709 9.98926 48.8125 -7.67383
c-23.2188 -39.5752 -53.167 -73.793 -89.4365 -101.96c-29.8164 -23.1592 -62.3516 -42.2012 -96.4307 -58.2207c27.7646 -96.8789 56.3408 -193.507 89.4434 -288.742c36.3945 -104.69 78.3516 -207.679 130.357 -305.659
c43.415 -81.8018 109.257 -214.673 219.12 -209.189c28.8594 1.44531 28.0674 -25.2109 -0.000976562 -26.7949c-43.5273 -2.46094 -84.7715 10.3525 -120.447 35.2139c-83.2139 57.9834 -132.118 159.923 -175.289 248.441
c-50.3359 103.199 -90.7021 210.944 -126.312 320.016c-22.4004 68.6064 -42.9531 137.786 -63.0107 207.118c-35.9658 -13.7637 -73.0332 -24.8281 -110.035 -34.1377c-115.735 -29.124 -234.256 -47.0176 -352.255 -64.0869
c-99.5703 -14.3965 -199.715 -27.7109 -299.146 -44.4365c-50.3037 -194.602 -109.099 -390.101 -213.842 -562.216c-58.2402 -95.6914 -132.408 -182.178 -229.781 -239.534c-96.5088 -56.8555 -215.233 -84.8838 -326.522 -65.1885
c-51.834 9.1709 -101.451 28.9385 -142.966 61.6445c-39.2715 30.9385 -59.877 73.0869 -72.0303 120.837c-26.5107 104.163 16.8643 207.264 79.8359 289.112zM1068.22 380.919c-5.64746 -22.5449 -11.3535 -45.1719 -17.1133 -67.8027
c113.473 18.4746 227.724 33.0693 341.177 50.3037c118.078 17.9336 238.789 35.7744 352.407 73.7461c17.082 5.70703 34.0127 12.0547 50.6465 19.0684c-40.4395 140.689 -79.7236 281.735 -129.162 419.601c-34.3955 95.915 -68.6982 212.152 -142.662 286.017
c-40.0693 40.0166 -91.8242 56.3867 -142.708 23.8584c-46.2188 -29.5459 -78.8652 -81.3926 -104.558 -128.496c-55.377 -101.517 -87.918 -215.095 -118.75 -325.935c-32.3301 -116.211 -59.9824 -233.378 -89.2773 -350.36zM352.018 31.1631
c-86.9951 -62.8262 -176.339 -144.034 -217.781 -245.188c-21.1729 -51.6826 -28.4902 -108.656 -15.6436 -163.427c12.8467 -54.7637 51.5898 -98.416 100.494 -125.257c92.333 -50.666 201.147 -26.1807 287.482 24.6045c193.962 114.1 288.241 349.483 358.153 551.943
c21.1465 61.2295 39.8584 123.185 57.5146 185.457c-96.3906 -19.8398 -191.606 -44.6816 -284.374 -78.9912c-100.97 -37.3379 -198.429 -86.0117 -285.846 -149.142z" />
    <glyph glyph-name="A" unicode="&#xc2;" horiz-adv-x="2101" 
d="M137.763 -113.585c130.839 170.057 336.232 275.152 536.297 340.229c84.4678 27.4736 170.499 48.1455 257.329 65.1553c42.1484 151.859 79.1172 305.27 129.44 454.675c36.665 108.848 77.8896 220.71 141.218 317.16c50.7715 77.3223 126.042 164.62 225.639 170.485
c90.1221 5.30469 155.112 -59.2041 196.938 -132.251c52.7969 -92.1943 86.4795 -198.225 119.496 -298.752c35.3057 -107.481 65.835 -216.435 96.8457 -325.229c59.3623 31.5449 111.718 74.293 146.733 133.985c9.64648 16.4424 59.1709 9.98926 48.8125 -7.67383
c-23.2188 -39.5752 -53.167 -73.793 -89.4365 -101.96c-29.8164 -23.1592 -62.3516 -42.2012 -96.4307 -58.2207c27.7646 -96.8789 56.3408 -193.507 89.4434 -288.742c36.3945 -104.69 78.3516 -207.679 130.357 -305.659
c43.415 -81.8018 109.257 -214.673 219.12 -209.189c28.8594 1.44531 28.0674 -25.2109 -0.000976562 -26.7949c-43.5273 -2.46094 -84.7715 10.3525 -120.447 35.2139c-83.2139 57.9834 -132.118 159.923 -175.289 248.441
c-50.3359 103.199 -90.7021 210.944 -126.312 320.016c-22.4004 68.6064 -42.9531 137.786 -63.0107 207.118c-35.9658 -13.7637 -73.0332 -24.8281 -110.035 -34.1377c-115.735 -29.124 -234.256 -47.0176 -352.255 -64.0869
c-99.5703 -14.3965 -199.715 -27.7109 -299.146 -44.4365c-50.3037 -194.602 -109.099 -390.101 -213.842 -562.216c-58.2402 -95.6914 -132.408 -182.178 -229.781 -239.534c-96.5088 -56.8555 -215.233 -84.8838 -326.522 -65.1885
c-51.834 9.1709 -101.451 28.9385 -142.966 61.6445c-39.2715 30.9385 -59.877 73.0869 -72.0303 120.837c-26.5107 104.163 16.8643 207.264 79.8359 289.112zM1068.22 380.919c-5.64746 -22.5449 -11.3535 -45.1719 -17.1133 -67.8027
c113.473 18.4746 227.724 33.0693 341.177 50.3037c118.078 17.9336 238.789 35.7744 352.407 73.7461c17.082 5.70703 34.0127 12.0547 50.6465 19.0684c-40.4395 140.689 -79.7236 281.735 -129.162 419.601c-34.3955 95.915 -68.6982 212.152 -142.662 286.017
c-40.0693 40.0166 -91.8242 56.3867 -142.708 23.8584c-46.2188 -29.5459 -78.8652 -81.3926 -104.558 -128.496c-55.377 -101.517 -87.918 -215.095 -118.75 -325.935c-32.3301 -116.211 -59.9824 -233.378 -89.2773 -350.36zM352.018 31.1631
c-86.9951 -62.8262 -176.339 -144.034 -217.781 -245.188c-21.1729 -51.6826 -28.4902 -108.656 -15.6436 -163.427c12.8467 -54.7637 51.5898 -98.416 100.494 -125.257c92.333 -50.666 201.147 -26.1807 287.482 24.6045c193.962 114.1 288.241 349.483 358.153 551.943
c21.1465 61.2295 39.8584 123.185 57.5146 185.457c-96.3906 -19.8398 -191.606 -44.6816 -284.374 -78.9912c-100.97 -37.3379 -198.429 -86.0117 -285.846 -149.142z" />
    <glyph glyph-name="A" unicode="&#xc1;" horiz-adv-x="2101" 
d="M137.763 -113.585c130.839 170.057 336.232 275.152 536.297 340.229c84.4678 27.4736 170.499 48.1455 257.329 65.1553c42.1484 151.859 79.1172 305.27 129.44 454.675c36.665 108.848 77.8896 220.71 141.218 317.16c50.7715 77.3223 126.042 164.62 225.639 170.485
c90.1221 5.30469 155.112 -59.2041 196.938 -132.251c52.7969 -92.1943 86.4795 -198.225 119.496 -298.752c35.3057 -107.481 65.835 -216.435 96.8457 -325.229c59.3623 31.5449 111.718 74.293 146.733 133.985c9.64648 16.4424 59.1709 9.98926 48.8125 -7.67383
c-23.2188 -39.5752 -53.167 -73.793 -89.4365 -101.96c-29.8164 -23.1592 -62.3516 -42.2012 -96.4307 -58.2207c27.7646 -96.8789 56.3408 -193.507 89.4434 -288.742c36.3945 -104.69 78.3516 -207.679 130.357 -305.659
c43.415 -81.8018 109.257 -214.673 219.12 -209.189c28.8594 1.44531 28.0674 -25.2109 -0.000976562 -26.7949c-43.5273 -2.46094 -84.7715 10.3525 -120.447 35.2139c-83.2139 57.9834 -132.118 159.923 -175.289 248.441
c-50.3359 103.199 -90.7021 210.944 -126.312 320.016c-22.4004 68.6064 -42.9531 137.786 -63.0107 207.118c-35.9658 -13.7637 -73.0332 -24.8281 -110.035 -34.1377c-115.735 -29.124 -234.256 -47.0176 -352.255 -64.0869
c-99.5703 -14.3965 -199.715 -27.7109 -299.146 -44.4365c-50.3037 -194.602 -109.099 -390.101 -213.842 -562.216c-58.2402 -95.6914 -132.408 -182.178 -229.781 -239.534c-96.5088 -56.8555 -215.233 -84.8838 -326.522 -65.1885
c-51.834 9.1709 -101.451 28.9385 -142.966 61.6445c-39.2715 30.9385 -59.877 73.0869 -72.0303 120.837c-26.5107 104.163 16.8643 207.264 79.8359 289.112zM1068.22 380.919c-5.64746 -22.5449 -11.3535 -45.1719 -17.1133 -67.8027
c113.473 18.4746 227.724 33.0693 341.177 50.3037c118.078 17.9336 238.789 35.7744 352.407 73.7461c17.082 5.70703 34.0127 12.0547 50.6465 19.0684c-40.4395 140.689 -79.7236 281.735 -129.162 419.601c-34.3955 95.915 -68.6982 212.152 -142.662 286.017
c-40.0693 40.0166 -91.8242 56.3867 -142.708 23.8584c-46.2188 -29.5459 -78.8652 -81.3926 -104.558 -128.496c-55.377 -101.517 -87.918 -215.095 -118.75 -325.935c-32.3301 -116.211 -59.9824 -233.378 -89.2773 -350.36zM352.018 31.1631
c-86.9951 -62.8262 -176.339 -144.034 -217.781 -245.188c-21.1729 -51.6826 -28.4902 -108.656 -15.6436 -163.427c12.8467 -54.7637 51.5898 -98.416 100.494 -125.257c92.333 -50.666 201.147 -26.1807 287.482 24.6045c193.962 114.1 288.241 349.483 358.153 551.943
c21.1465 61.2295 39.8584 123.185 57.5146 185.457c-96.3906 -19.8398 -191.606 -44.6816 -284.374 -78.9912c-100.97 -37.3379 -198.429 -86.0117 -285.846 -149.142z" />
    <glyph glyph-name="B" unicode="B" horiz-adv-x="1587" 
d="M121.786 620.517c-86.3545 65.1621 -86.4258 186.72 -44.2451 277.423c44.2861 95.2295 131.069 165.228 221.172 215.062c215.695 119.306 478.21 157.792 720.225 116.37c112.793 -19.3057 230.996 -55.0137 313.102 -139.053
c77.1904 -79.0107 103.734 -190.636 70.2559 -295.946c-35.7744 -112.542 -134.111 -191.098 -235.074 -244.08c-28.3447 -14.8721 -57.7188 -29.4277 -87.8652 -42.8086c137.489 -18.2168 267.575 -75.6982 349.245 -189.942
c55.3701 -77.4404 79.0566 -174.253 55.2178 -267.331c-24.1152 -94.1738 -90.7617 -173.205 -164.099 -234.257c-152.289 -126.787 -367.707 -205.39 -567.086 -178.793c-98.126 13.0908 -181.67 63.3086 -239.561 143.31
c-62.1992 85.959 -85.7676 191.791 -99.9531 295.169c-22.0635 160.78 -25.6855 324.965 -17.6621 488.002c-36.2695 -0.844727 -72.5781 0.197266 -108.722 3.4834c-57.5146 5.22559 -117.933 17.9072 -164.95 53.3916zM113.21 854.472
c-32.4883 -100.93 0.0771484 -211.977 108.119 -245.23c54.7305 -16.8516 115.393 -21.1143 175.606 -18.5674c3.74121 65.5781 9.2373 130.932 16.1914 195.757c5.21289 48.6143 125.237 48.5547 124.333 0c-1.11523 -60.2197 -3.44434 -120.374 -5.91211 -180.502
c1.31348 0.224609 2.65918 0.435547 3.97266 0.666016c108.894 19.0752 213.519 57.8584 309.691 112.146c15.1553 8.55762 58.8076 -5.39062 34.3359 -19.5693c-107.719 -62.417 -226.357 -104.406 -349.245 -123.554c-6.62402 -160.253 -12.998 -320.334 0.976562 -480.87
c14.3379 -164.634 58.6436 -383.357 256.347 -409.406c171.08 -22.5449 359.117 63.5264 482.744 176.774c63.5391 58.208 120.506 133.228 133.939 220.525c13.2949 86.3945 -18.0518 174.828 -74.458 240.32c-93.2764 108.293 -235.299 144.608 -374.319 139.488
c-51.3389 -14.1064 -103.812 -22.2549 -156.405 -20.5918c-13.6777 0.428711 -41.4492 4.5127 -44.3457 22.3145c-2.98926 18.3623 18.2236 24.9805 32.3438 28.2402c45.1172 10.4121 93.0117 17.3594 141.83 20.21c20.5596 6.18262 40.9014 13.4268 61.1113 21.1592
c55.3701 21.1924 110.034 44.9521 161.155 75.1377c97.7891 57.7393 187.602 148.818 205.251 265.781c15.8486 105.034 -48.7461 198.534 -135.404 252.09c-90.9268 56.1953 -202.901 76.834 -308.061 85.3984c-213.162 17.3594 -444.469 -30.1992 -624.693 -148.356
c-76.9854 -50.4678 -146.33 -119.991 -175.104 -209.361z" />
    <glyph glyph-name="C" unicode="C" horiz-adv-x="1259" 
d="M877.838 569.494c-5.16602 -18.877 -58.3916 -14.9502 -52.3018 8.21582c39.6279 150.342 42.4912 314.797 -2.28906 464.479c-16.5674 55.3643 -43.9756 115.182 -92.9658 148.95c-53.3447 36.7637 -112.37 17.2334 -162.806 -14.4639
c-92.7676 -58.2998 -165.379 -155.429 -220.301 -248.507c-57.2314 -96.9912 -98.0664 -203.688 -125.125 -312.865c-58.3662 -235.522 -62.3057 -507.143 23 -736.41c38.1299 -102.474 97.248 -224.267 209.289 -260.898c124.96 -40.8486 251.635 24.5312 343.004 106.689
c182.58 164.172 304.122 401.463 365.285 636.655c4.34766 16.7256 51.3457 13.3809 46.3242 -7.27734c-38.0771 -156.644 -103.549 -305.139 -193.85 -438.748c-82.2705 -121.74 -184.091 -241.863 -319.977 -304.742c-119.318 -55.2119 -263.512 -65.7031 -379.94 3.4502
c-118.844 70.5859 -182.436 208.022 -218.969 336.037c-74.3066 260.397 -56.8418 559.849 36.7842 813.608c44.9785 121.918 110.833 235.496 199.358 331.028c87.6543 94.5889 215.814 189.112 352.367 168.784c122.367 -18.2168 179.156 -129.571 204.328 -239.125
c34.501 -150.171 29.4004 -306.524 -11.2168 -454.861z" />
    <glyph glyph-name="D" unicode="D" horiz-adv-x="1550" 
d="M193.946 897.75c54.5723 71.2852 118.236 135.571 188.802 191.061c146.739 115.399 327.505 200.098 514.446 219.562c185.529 19.3125 381.754 -34.6729 496.321 -190.082c120.367 -163.274 133.557 -382.024 100.23 -575.749
c-31.209 -181.426 -101.669 -354.795 -207.58 -505.447c-104.525 -148.68 -251.747 -312.356 -436.465 -353.198c-96.9316 -21.4307 -202.645 -6.18262 -281.471 56.5508c-67.583 53.7803 -107.224 138.057 -130.251 219.456
c-32.4229 114.627 -47.5391 232.428 -53.7744 350.994c-21.4961 0.957031 -43.0254 2.90332 -64.5479 6.06348c-75.9629 11.1572 -155.456 39.4824 -209.639 96.0537c-63.6045 66.4023 -71.3369 157.924 -47.8545 243.414c24.3535 88.6641 76.3721 168.955 131.782 241.322z
M354.106 1006.26c-59.9961 -57.3369 -113.458 -121.567 -158.087 -191.572c-45.3877 -71.2119 -88.1426 -151.919 -91.4941 -238.122c-6.28809 -161.803 139.436 -224.471 278.198 -234.077c-3.6748 92.748 -2.40137 185.84 0.0332031 278.14
c1.39844 53.0938 135.055 52.3809 134.639 -0.000976562c-0.71875 -89.8125 -2.83691 -180.931 -0.969727 -271.878c168.395 25.4951 324.741 107.297 468.261 195.592c15.8418 9.74512 61.5 -4.93555 36.1572 -20.6123
c-44.833 -27.7246 -90.3066 -54.3936 -136.994 -78.8984c-113.697 -59.6787 -238.373 -109.025 -366.612 -127.17c3.74121 -119.246 15.4062 -237.911 47.2676 -352.638c21.2256 -76.4316 54.4795 -163.729 126.529 -205.917
c82.3369 -48.2119 178.747 -6.05078 250.224 42.5234c136.81 92.9658 249.167 231.583 330.204 374.384c82.8311 145.961 137.911 305.699 159.295 472.318c23.0469 179.598 3.18652 379.319 -132.943 512.229c-137.443 134.197 -344.363 142.398 -519.686 91.7979
c-158.702 -45.8096 -304.763 -132.118 -424.021 -246.099z" />
    <glyph glyph-name="E" unicode="E" horiz-adv-x="1346" 
d="M980.168 536.518c8.85449 100.441 28.9805 199.436 38.792 299.771c9.03906 92.293 16.541 196.938 -13.374 286.334c-56.2939 168.229 -252.255 157.64 -392.113 117.741c-139.759 -39.8652 -271.686 -119.259 -368.194 -228.489
c-46.8916 -53.0742 -90.2666 -123.792 -82.4219 -197.617c7.39648 -69.5625 69.5039 -97.9932 131.188 -106.841c74.2344 -10.6426 151.028 -5.94434 224.484 7.91113c0.871094 0.165039 1.73535 0.356445 2.59961 0.521484c68.2568 42.8867 141.35 78.3379 217.854 105.495
c20.6982 7.35059 110.174 3.66895 88.8428 -38.9277c-22.1826 -44.292 -64.9844 -67.2002 -109.112 -85.2656c-41.0527 -16.8047 -83.9336 -29.625 -127.276 -39.5615c-98.6992 -64.8516 -186.109 -147.076 -256.438 -241.902
c-97.1494 -130.997 -219.001 -356.497 -90.4062 -505.757c63.8096 -74.0625 159.672 -100.171 254.492 -100.185c103.134 -0.0136719 208.53 20.8232 305.158 56.3203c93.8105 34.4609 184.085 82.2305 263.947 142.49c67.834 51.1807 172.452 138.928 164.759 233.84
c-8.54395 105.43 -147.135 96.7998 -221.026 85.6885c-52.9951 -7.9707 -104.961 -22.3877 -154.538 -42.749c-40.6631 -16.7061 -100.526 -37.3574 -112.344 -84.8496c-4.38086 -17.6035 -54.1699 -14.126 -48.8125 7.66699
c13.1699 53.5762 79.1035 78.3184 124.393 97.6904c62.1729 26.5967 128.226 44.5566 195.327 52.9951c85.1016 10.7021 228.206 14.1006 263.248 -87.1855c34.9365 -100.982 -73.9971 -204.663 -143.415 -261.347c-88.8555 -72.5586 -191.672 -128.642 -298.896 -168.883
c-202.797 -76.1084 -480.157 -134.224 -660.686 22.624c-186.79 162.284 -64.1133 424.205 56.1953 585.896c50.7324 68.1777 109.487 129.421 174.386 183.115c-59.5869 -1.93359 -119.424 2.27637 -175.982 14.8984c-77.4404 17.2803 -159.144 55.9443 -177.044 140.841
c-18.4014 87.292 33.9277 173.885 89.5947 236.56c119.688 134.758 287.554 226.761 461.794 268.216c161.961 38.5322 399.529 41.792 474.826 -142.478c37.167 -90.9531 32.4756 -199.741 24.4326 -295.637c-8.95996 -106.888 -27.1836 -213.122 -44.2324 -318.941
c-5.00781 -31.0898 -82.7061 -30.6943 -80.001 0z" />
    <glyph glyph-name="E" unicode="&#xcb;" horiz-adv-x="1346" 
d="M980.168 536.518c8.85449 100.441 28.9805 199.436 38.792 299.771c9.03906 92.293 16.541 196.938 -13.374 286.334c-56.2939 168.229 -252.255 157.64 -392.113 117.741c-139.759 -39.8652 -271.686 -119.259 -368.194 -228.489
c-46.8916 -53.0742 -90.2666 -123.792 -82.4219 -197.617c7.39648 -69.5625 69.5039 -97.9932 131.188 -106.841c74.2344 -10.6426 151.028 -5.94434 224.484 7.91113c0.871094 0.165039 1.73535 0.356445 2.59961 0.521484c68.2568 42.8867 141.35 78.3379 217.854 105.495
c20.6982 7.35059 110.174 3.66895 88.8428 -38.9277c-22.1826 -44.292 -64.9844 -67.2002 -109.112 -85.2656c-41.0527 -16.8047 -83.9336 -29.625 -127.276 -39.5615c-98.6992 -64.8516 -186.109 -147.076 -256.438 -241.902
c-97.1494 -130.997 -219.001 -356.497 -90.4062 -505.757c63.8096 -74.0625 159.672 -100.171 254.492 -100.185c103.134 -0.0136719 208.53 20.8232 305.158 56.3203c93.8105 34.4609 184.085 82.2305 263.947 142.49c67.834 51.1807 172.452 138.928 164.759 233.84
c-8.54395 105.43 -147.135 96.7998 -221.026 85.6885c-52.9951 -7.9707 -104.961 -22.3877 -154.538 -42.749c-40.6631 -16.7061 -100.526 -37.3574 -112.344 -84.8496c-4.38086 -17.6035 -54.1699 -14.126 -48.8125 7.66699
c13.1699 53.5762 79.1035 78.3184 124.393 97.6904c62.1729 26.5967 128.226 44.5566 195.327 52.9951c85.1016 10.7021 228.206 14.1006 263.248 -87.1855c34.9365 -100.982 -73.9971 -204.663 -143.415 -261.347c-88.8555 -72.5586 -191.672 -128.642 -298.896 -168.883
c-202.797 -76.1084 -480.157 -134.224 -660.686 22.624c-186.79 162.284 -64.1133 424.205 56.1953 585.896c50.7324 68.1777 109.487 129.421 174.386 183.115c-59.5869 -1.93359 -119.424 2.27637 -175.982 14.8984c-77.4404 17.2803 -159.144 55.9443 -177.044 140.841
c-18.4014 87.292 33.9277 173.885 89.5947 236.56c119.688 134.758 287.554 226.761 461.794 268.216c161.961 38.5322 399.529 41.792 474.826 -142.478c37.167 -90.9531 32.4756 -199.741 24.4326 -295.637c-8.95996 -106.888 -27.1836 -213.122 -44.2324 -318.941
c-5.00781 -31.0898 -82.7061 -30.6943 -80.001 0z" />
    <glyph glyph-name="E" unicode="&#xca;" horiz-adv-x="1346" 
d="M980.168 536.518c8.85449 100.441 28.9805 199.436 38.792 299.771c9.03906 92.293 16.541 196.938 -13.374 286.334c-56.2939 168.229 -252.255 157.64 -392.113 117.741c-139.759 -39.8652 -271.686 -119.259 -368.194 -228.489
c-46.8916 -53.0742 -90.2666 -123.792 -82.4219 -197.617c7.39648 -69.5625 69.5039 -97.9932 131.188 -106.841c74.2344 -10.6426 151.028 -5.94434 224.484 7.91113c0.871094 0.165039 1.73535 0.356445 2.59961 0.521484c68.2568 42.8867 141.35 78.3379 217.854 105.495
c20.6982 7.35059 110.174 3.66895 88.8428 -38.9277c-22.1826 -44.292 -64.9844 -67.2002 -109.112 -85.2656c-41.0527 -16.8047 -83.9336 -29.625 -127.276 -39.5615c-98.6992 -64.8516 -186.109 -147.076 -256.438 -241.902
c-97.1494 -130.997 -219.001 -356.497 -90.4062 -505.757c63.8096 -74.0625 159.672 -100.171 254.492 -100.185c103.134 -0.0136719 208.53 20.8232 305.158 56.3203c93.8105 34.4609 184.085 82.2305 263.947 142.49c67.834 51.1807 172.452 138.928 164.759 233.84
c-8.54395 105.43 -147.135 96.7998 -221.026 85.6885c-52.9951 -7.9707 -104.961 -22.3877 -154.538 -42.749c-40.6631 -16.7061 -100.526 -37.3574 -112.344 -84.8496c-4.38086 -17.6035 -54.1699 -14.126 -48.8125 7.66699
c13.1699 53.5762 79.1035 78.3184 124.393 97.6904c62.1729 26.5967 128.226 44.5566 195.327 52.9951c85.1016 10.7021 228.206 14.1006 263.248 -87.1855c34.9365 -100.982 -73.9971 -204.663 -143.415 -261.347c-88.8555 -72.5586 -191.672 -128.642 -298.896 -168.883
c-202.797 -76.1084 -480.157 -134.224 -660.686 22.624c-186.79 162.284 -64.1133 424.205 56.1953 585.896c50.7324 68.1777 109.487 129.421 174.386 183.115c-59.5869 -1.93359 -119.424 2.27637 -175.982 14.8984c-77.4404 17.2803 -159.144 55.9443 -177.044 140.841
c-18.4014 87.292 33.9277 173.885 89.5947 236.56c119.688 134.758 287.554 226.761 461.794 268.216c161.961 38.5322 399.529 41.792 474.826 -142.478c37.167 -90.9531 32.4756 -199.741 24.4326 -295.637c-8.95996 -106.888 -27.1836 -213.122 -44.2324 -318.941
c-5.00781 -31.0898 -82.7061 -30.6943 -80.001 0z" />
    <glyph glyph-name="E" unicode="&#xc9;" horiz-adv-x="1346" 
d="M980.168 536.518c8.85449 100.441 28.9805 199.436 38.792 299.771c9.03906 92.293 16.541 196.938 -13.374 286.334c-56.2939 168.229 -252.255 157.64 -392.113 117.741c-139.759 -39.8652 -271.686 -119.259 -368.194 -228.489
c-46.8916 -53.0742 -90.2666 -123.792 -82.4219 -197.617c7.39648 -69.5625 69.5039 -97.9932 131.188 -106.841c74.2344 -10.6426 151.028 -5.94434 224.484 7.91113c0.871094 0.165039 1.73535 0.356445 2.59961 0.521484c68.2568 42.8867 141.35 78.3379 217.854 105.495
c20.6982 7.35059 110.174 3.66895 88.8428 -38.9277c-22.1826 -44.292 -64.9844 -67.2002 -109.112 -85.2656c-41.0527 -16.8047 -83.9336 -29.625 -127.276 -39.5615c-98.6992 -64.8516 -186.109 -147.076 -256.438 -241.902
c-97.1494 -130.997 -219.001 -356.497 -90.4062 -505.757c63.8096 -74.0625 159.672 -100.171 254.492 -100.185c103.134 -0.0136719 208.53 20.8232 305.158 56.3203c93.8105 34.4609 184.085 82.2305 263.947 142.49c67.834 51.1807 172.452 138.928 164.759 233.84
c-8.54395 105.43 -147.135 96.7998 -221.026 85.6885c-52.9951 -7.9707 -104.961 -22.3877 -154.538 -42.749c-40.6631 -16.7061 -100.526 -37.3574 -112.344 -84.8496c-4.38086 -17.6035 -54.1699 -14.126 -48.8125 7.66699
c13.1699 53.5762 79.1035 78.3184 124.393 97.6904c62.1729 26.5967 128.226 44.5566 195.327 52.9951c85.1016 10.7021 228.206 14.1006 263.248 -87.1855c34.9365 -100.982 -73.9971 -204.663 -143.415 -261.347c-88.8555 -72.5586 -191.672 -128.642 -298.896 -168.883
c-202.797 -76.1084 -480.157 -134.224 -660.686 22.624c-186.79 162.284 -64.1133 424.205 56.1953 585.896c50.7324 68.1777 109.487 129.421 174.386 183.115c-59.5869 -1.93359 -119.424 2.27637 -175.982 14.8984c-77.4404 17.2803 -159.144 55.9443 -177.044 140.841
c-18.4014 87.292 33.9277 173.885 89.5947 236.56c119.688 134.758 287.554 226.761 461.794 268.216c161.961 38.5322 399.529 41.792 474.826 -142.478c37.167 -90.9531 32.4756 -199.741 24.4326 -295.637c-8.95996 -106.888 -27.1836 -213.122 -44.2324 -318.941
c-5.00781 -31.0898 -82.7061 -30.6943 -80.001 0z" />
    <glyph glyph-name="F" unicode="F" horiz-adv-x="952" 
d="M603.032 1156c8.85449 22.9414 47.4941 31.7363 79.1445 26.7354c156.452 51.3857 315.755 94.1807 480.19 108.03c116.87 9.83789 239.791 7.83203 351.542 -31.8418c77.0518 -27.3555 174.069 -108.907 114.753 -198.244
c-10.873 -16.376 -61.6445 -9.16406 -50.3027 7.90527c38.8818 58.5176 -3.82715 122.822 -58.3467 150.97c-59.2041 30.5684 -131.155 40.9863 -196.918 44.958c-204.229 12.3379 -407.263 -39.4434 -601.146 -102.731c2.63965 -4.20312 4.16406 -8.9668 4.09766 -14.3506
c-2.24316 -185.431 -2.81055 -370.689 3.45117 -555.936c45.0312 11.1709 90.7031 19.4385 137.12 22.2559c52.6914 3.19336 109.052 2.14453 155.093 -26.6826c26.0361 -16.3037 -21.0342 -31.4268 -37.252 -21.2324c-56.3799 35.4443 -141.758 18.5273 -203.021 5.85938
c-17.0693 -3.53027 -33.9932 -7.66699 -50.8242 -12.1797c1.35254 -35.3262 2.87695 -70.6582 4.79688 -105.984c6.20215 -114.284 14.3047 -228.588 24.7432 -342.568c5.11328 -55.8262 10.3457 -111.646 15.7363 -167.445
c5.58203 -57.752 15.9805 -116.527 19.0283 -174.26c1.66895 -31.6504 -69.2334 -28.543 -80.0938 -6.17578c-24.3799 50.2109 -32.2842 112.938 -41.7656 167.576c-9.65918 55.6738 -18.4209 111.381 -25.7578 167.404c-15.1953 116.02 -27.2764 232.27 -35.583 348.988
c-1.75488 24.624 -3.37109 49.2744 -4.88867 73.9316c-3.82031 -1.27344 -7.65332 -2.55371 -11.4736 -3.82715c-59.8105 -19.9395 -120.506 -42.1611 -182.698 -53.5166c-45.6055 -8.32715 -94.8857 -3.65527 -123.58 36.3418
c-10.4648 14.582 34.5801 22.9619 43.9033 10.5508c25.6006 -34.0791 65.6045 -19.9727 100.771 -10.498c30.4629 8.20801 60.5635 17.6826 90.5381 27.5c26.8936 8.80176 53.6943 17.9463 80.5615 26.8604c-10.7549 188.413 -14.0869 377.617 -4.98828 566.03
c-98.7725 -34.3691 -197.043 -70.1963 -296.416 -102.797c-71.7139 -23.5215 -183.768 -76.3916 -249.682 -13.1963c-17.293 16.5811 29.8496 26.0293 42.373 14.1201c25.4092 -24.1689 60.6289 -13.9951 90.7295 -5.29199c32.5615 9.41504 64.7793 20.2686 96.9248 30.9775
c62.6748 20.876 124.914 43.0254 187.14 65.2012c43.8701 15.6309 87.8857 31.2949 132.099 46.5625z" />
    <glyph glyph-name="G" unicode="G" horiz-adv-x="1173" 
d="M184.906 803.776c87.417 144.101 208.701 266.875 349.41 359.405c74.6963 49.1152 161.79 89.7656 252.314 94.2061c75.2705 3.69531 170.618 -34.877 156.109 -126.794c-3.09473 -19.5693 -51.9658 -19.0879 -50.1055 0
c5.8457 60.0352 -54.9355 82.4951 -104.889 73.1787c-44.1865 -8.24121 -86.7441 -28.9717 -125.02 -51.7812c-75.6855 -45.1104 -144.477 -102.79 -205.699 -165.959c-117.049 -120.77 -208.174 -268.789 -252.506 -431.7
c-19.7412 -72.5381 -30.127 -149.075 -28.5107 -224.293c1.63672 -75.9365 17.5117 -163.327 78.2002 -215.465c69.9521 -60.0947 168.48 -14.417 235.972 26.8203c72.3867 44.2334 135.51 100.752 192.926 162.898c98.832 106.967 184.236 228.416 243.579 361.762
c-8.45215 40.9541 -17.5508 81.9414 -26.8271 123.106c-11.4346 50.7324 -20.3945 102.521 -17.9463 154.776c1.48438 31.6641 11.1309 59.0723 43.7715 69.3848c88.9805 28.1006 121.555 -73.6338 116.963 -141.857c-3.39844 -50.5605 -17.5713 -101.464 -36.3027 -150.494
c3.64844 -10.4121 7.20508 -20.8506 10.5635 -31.3545c51.8008 -162.067 78.002 -333.153 65.5254 -503.329c-6.38672 -87.0479 -23.7266 -174.999 -53.3652 -257.217c-25.501 -70.7236 -61.3086 -142.893 -121.291 -190.59
c-98.4023 -78.2461 -311.617 -77.4082 -323.969 82.6201c-5.7207 74.1025 36.4541 147.591 79.1895 204.881c49.1484 65.8877 111.144 120.328 172.967 173.917c14.8848 12.8994 68.2432 1.55078 48.1592 -16.0459c-75.1641 -65.8418 -154.505 -134.276 -202.538 -223.527
c-24.0957 -44.7744 -47.8877 -104.177 -31.0293 -155.192c11.5791 -35.0488 44.457 -59.8574 81.7559 -60.2861c83.207 -0.962891 135.239 106.756 161.42 171.021c39.7725 97.6309 63.1094 200.045 71.9111 305.053c10.3584 123.455 -1.80176 242.945 -22.8955 361.914
c-37.3584 -70.4072 -81.6309 -137.126 -130.027 -200.395c-103.951 -135.886 -243.242 -286.155 -412.891 -335.641c-85.2334 -24.8613 -176.339 -13.8623 -246.298 42.9336c-72.5908 58.9336 -100.6 149.518 -103.232 240.293
c-4.83008 166.396 48.8906 332.461 134.605 473.751zM937.924 962.781c-6.54492 -44.6885 19.7676 -101.901 33.6104 -143.772c1.73535 -5.23926 3.60254 -10.4385 5.40332 -15.6572c6.53906 24.3135 11.3027 49.043 12.5566 74.1484
c1.1875 23.7461 -0.217773 48.5811 -8.33301 71.1396c-2.89648 8.0498 -8.85449 25.2578 -16.6533 29.5205c-13.3018 7.27148 -24.9209 -4.01758 -26.584 -15.3789z" />
    <glyph glyph-name="H" unicode="H" horiz-adv-x="1429" 
d="M1211.28 1248.62c8.16211 44.0088 118.232 45.9316 116.088 -0.0107422c-11.7705 -251.721 -22.3145 -501.337 -13.5527 -753.388c1.98633 -57.0068 3.97852 -114.146 6.36035 -171.311c6.75 1.70215 13.5195 3.30566 20.2627 5.03418
c9.51465 2.44824 29.1436 4.5 36.0381 -5.38379c6.28809 -9.00586 1.16797 -17.8203 -9.44824 -20.5391c-15.1357 -3.87305 -30.2852 -7.66016 -45.4541 -11.3818c7.9502 -178.463 20.5322 -357.024 50.1309 -532.703c5.79297 -34.3691 -81.2939 -34.1973 -92.748 -7.15234
c-30.1328 71.1592 -44.3848 148.956 -53.8994 226.964c-17.2607 56.4326 -38.8623 111.381 -68.5859 162.66c-20.1367 34.7451 -43.7773 67.4648 -70.2549 97.7363c-32.8643 -6.72363 -65.7686 -13.2627 -98.7061 -19.6562
c-124.102 -24.0957 -248.362 -49.3994 -373.546 -67.2598c-44.6094 -6.36719 -89.6406 -11.8633 -134.804 -15.3408c0.0859375 -1.93359 0.165039 -3.86035 0.250977 -5.79395c4.88867 -108.194 1.97852 -222.221 27.4141 -328.053
c8.97949 -37.3711 -71.9189 -42.3398 -83.6045 -13.1367c-41.792 104.427 -52.5596 217.174 -63.8623 328.152c-0.514648 5.06055 -0.976562 10.1279 -1.47754 15.1885c-19.7148 0.474609 -39.4102 1.53711 -59.0586 3.2793
c-50.7852 4.5127 -101.662 14.2715 -149.59 31.9541c-33.96 12.5293 -72.5918 30.3701 -90.2812 64.0791c-43.0518 82.04 80.0869 159.942 139.423 189.706c43.0322 21.582 88.8555 38.249 135.873 50.627c-10.3457 229.208 -11.7383 461.557 10.418 690.026
c4.81641 49.7158 127.513 49.5576 126.905 0c-2.72461 -222.241 -9.1377 -444.014 -4.81641 -666.274c6.40625 0.65332 12.8125 1.24023 19.2129 1.75488c195.057 15.6904 395.01 -34.7773 550.637 -155.633c26.3652 -20.4736 51.2529 -42.9463 74.3789 -67.1152
c28.1475 5.96484 56.2617 12.0615 84.3232 18.3955c-4.79688 64.8848 -8.74902 129.842 -12.0615 194.733c-12.833 251.503 -18.0654 511.359 28.0352 759.841zM186.548 190.145c54.0771 -18.3818 110.833 -27.1572 168.658 -29.5986
c-8.68945 93.0586 -14.8457 186.348 -19.4248 279.703c-48.9707 -14.1855 -96.4102 -33.7686 -138.908 -60.6094c-35.9854 -22.7305 -92.9258 -63.9414 -94.377 -111.783c-1.36621 -45.1104 48.792 -65.7295 84.0518 -77.7119zM751.767 205.979
c103.45 19.0488 206.998 38.3018 310.132 59.4619c-28.1602 28.833 -58.9863 55.0732 -91.8242 78.2656c-144.859 102.322 -327.492 142.867 -502.729 122.657c2.3623 -100.937 6.18945 -201.794 10.6299 -302.651c93.4473 7.87109 186.849 26.2529 273.791 42.2666z
M1207.92 145.766c-3.77441 38.9814 -7.18555 78.0146 -10.2471 117.095c-20.8955 -4.61816 -41.8047 -9.15723 -62.7471 -13.5781c27.5996 -32.0732 52.1309 -66.7656 72.9941 -103.517z" />
    <glyph glyph-name="I" unicode="I" horiz-adv-x="460" 
d="M100.561 -226.826c-13.9414 -12.7207 -65.4307 -2.46191 -46.3818 15.458c58.2471 54.7705 121.7 108.505 194.087 143.976c-8.53809 38.0049 -14.7803 74.6045 -19.6426 106.684c-32.667 215.484 -46.3184 435.996 -44.2266 653.836
c1.0752 112.067 10.4375 223.33 14.7061 335.219c2.03906 53.3975 3.02832 106.551 0.929688 159.969c-1.44531 36.8164 1.94629 86.123 -37.292 103.819c-24.5977 11.0908 15.9473 25.9561 29.1104 21.502c81.5908 -27.6191 107.007 -111.889 116.462 -189.092
c13.0439 -106.445 5.27832 -214.633 4.01855 -321.566c-2.23633 -189.416 5.22559 -379.432 23.8125 -567.957c8.68945 -88.1494 18.4346 -176.8 33.4053 -264.157c74.8936 11.0449 154.525 0.547852 216.777 -43.5996c57.502 -40.7754 96.5488 -113.05 90.3203 -184.474
c-7.09277 -81.3467 -70.7969 -134.078 -150.619 -136.123c-157.561 -4.03125 -231.182 145.434 -268.797 289.032c-57.4619 -33.0693 -107.884 -78.0215 -156.67 -122.525zM551.444 -96.6553c-49.584 40.1689 -114.804 47.6777 -176.323 36.8047
c14.4229 -74.0098 36.4004 -148.277 76.0342 -212.621c18.7051 -30.3711 42.583 -61.6064 78.8916 -70.6982c39.3174 -9.84375 68.7314 27.7451 80.9707 60.9131c24.373 66.0391 -6.7168 142.787 -59.5732 185.602z" />
    <glyph glyph-name="I" unicode="&#xcf;" horiz-adv-x="460" 
d="M100.561 -226.826c-13.9414 -12.7207 -65.4307 -2.46191 -46.3818 15.458c58.2471 54.7705 121.7 108.505 194.087 143.976c-8.53809 38.0049 -14.7803 74.6045 -19.6426 106.684c-32.667 215.484 -46.3184 435.996 -44.2266 653.836
c1.0752 112.067 10.4375 223.33 14.7061 335.219c2.03906 53.3975 3.02832 106.551 0.929688 159.969c-1.44531 36.8164 1.94629 86.123 -37.292 103.819c-24.5977 11.0908 15.9473 25.9561 29.1104 21.502c81.5908 -27.6191 107.007 -111.889 116.462 -189.092
c13.0439 -106.445 5.27832 -214.633 4.01855 -321.566c-2.23633 -189.416 5.22559 -379.432 23.8125 -567.957c8.68945 -88.1494 18.4346 -176.8 33.4053 -264.157c74.8936 11.0449 154.525 0.547852 216.777 -43.5996c57.502 -40.7754 96.5488 -113.05 90.3203 -184.474
c-7.09277 -81.3467 -70.7969 -134.078 -150.619 -136.123c-157.561 -4.03125 -231.182 145.434 -268.797 289.032c-57.4619 -33.0693 -107.884 -78.0215 -156.67 -122.525zM551.444 -96.6553c-49.584 40.1689 -114.804 47.6777 -176.323 36.8047
c14.4229 -74.0098 36.4004 -148.277 76.0342 -212.621c18.7051 -30.3711 42.583 -61.6064 78.8916 -70.6982c39.3174 -9.84375 68.7314 27.7451 80.9707 60.9131c24.373 66.0391 -6.7168 142.787 -59.5732 185.602z" />
    <glyph glyph-name="I" unicode="&#xce;" horiz-adv-x="460" 
d="M100.561 -226.826c-13.9414 -12.7207 -65.4307 -2.46191 -46.3818 15.458c58.2471 54.7705 121.7 108.505 194.087 143.976c-8.53809 38.0049 -14.7803 74.6045 -19.6426 106.684c-32.667 215.484 -46.3184 435.996 -44.2266 653.836
c1.0752 112.067 10.4375 223.33 14.7061 335.219c2.03906 53.3975 3.02832 106.551 0.929688 159.969c-1.44531 36.8164 1.94629 86.123 -37.292 103.819c-24.5977 11.0908 15.9473 25.9561 29.1104 21.502c81.5908 -27.6191 107.007 -111.889 116.462 -189.092
c13.0439 -106.445 5.27832 -214.633 4.01855 -321.566c-2.23633 -189.416 5.22559 -379.432 23.8125 -567.957c8.68945 -88.1494 18.4346 -176.8 33.4053 -264.157c74.8936 11.0449 154.525 0.547852 216.777 -43.5996c57.502 -40.7754 96.5488 -113.05 90.3203 -184.474
c-7.09277 -81.3467 -70.7969 -134.078 -150.619 -136.123c-157.561 -4.03125 -231.182 145.434 -268.797 289.032c-57.4619 -33.0693 -107.884 -78.0215 -156.67 -122.525zM551.444 -96.6553c-49.584 40.1689 -114.804 47.6777 -176.323 36.8047
c14.4229 -74.0098 36.4004 -148.277 76.0342 -212.621c18.7051 -30.3711 42.583 -61.6064 78.8916 -70.6982c39.3174 -9.84375 68.7314 27.7451 80.9707 60.9131c24.373 66.0391 -6.7168 142.787 -59.5732 185.602z" />
    <glyph glyph-name="I" unicode="&#xcd;" horiz-adv-x="460" 
d="M100.561 -226.826c-13.9414 -12.7207 -65.4307 -2.46191 -46.3818 15.458c58.2471 54.7705 121.7 108.505 194.087 143.976c-8.53809 38.0049 -14.7803 74.6045 -19.6426 106.684c-32.667 215.484 -46.3184 435.996 -44.2266 653.836
c1.0752 112.067 10.4375 223.33 14.7061 335.219c2.03906 53.3975 3.02832 106.551 0.929688 159.969c-1.44531 36.8164 1.94629 86.123 -37.292 103.819c-24.5977 11.0908 15.9473 25.9561 29.1104 21.502c81.5908 -27.6191 107.007 -111.889 116.462 -189.092
c13.0439 -106.445 5.27832 -214.633 4.01855 -321.566c-2.23633 -189.416 5.22559 -379.432 23.8125 -567.957c8.68945 -88.1494 18.4346 -176.8 33.4053 -264.157c74.8936 11.0449 154.525 0.547852 216.777 -43.5996c57.502 -40.7754 96.5488 -113.05 90.3203 -184.474
c-7.09277 -81.3467 -70.7969 -134.078 -150.619 -136.123c-157.561 -4.03125 -231.182 145.434 -268.797 289.032c-57.4619 -33.0693 -107.884 -78.0215 -156.67 -122.525zM551.444 -96.6553c-49.584 40.1689 -114.804 47.6777 -176.323 36.8047
c14.4229 -74.0098 36.4004 -148.277 76.0342 -212.621c18.7051 -30.3711 42.583 -61.6064 78.8916 -70.6982c39.3174 -9.84375 68.7314 27.7451 80.9707 60.9131c24.373 66.0391 -6.7168 142.787 -59.5732 185.602z" />
    <glyph glyph-name="J" unicode="J" horiz-adv-x="1222" 
d="M250.607 1078.09c112.364 136.651 292.943 230.06 470.582 171.04c139.033 -46.2061 252.018 -177.493 310.595 -307.969c30.6016 -68.1641 50.9893 -139.845 64.6533 -213.076c44.7676 33.4316 91.5537 64.1982 140.604 91.5537
c16.9307 9.44141 65.1025 -6.49316 37.9785 -21.6484c-60.4248 -33.7559 -117.194 -72.8027 -170.876 -115.749c14.0078 -94.2988 18.0322 -190.511 18.6787 -284.678c1.35938 -197.366 -16.1582 -394.508 -67.748 -585.521
c-23.1592 -85.7275 -53.9648 -169.206 -97.8418 -246.607c-38.6514 -68.1904 -86.4668 -139.429 -159.52 -174.062c-77.7051 -36.8369 -174.419 -26.458 -239.231 31.7295c-49.9268 44.8135 -79.2021 114.667 -91.9561 179.024
c-31.1094 156.979 23.3311 325.717 89.1201 466.604c72.2217 154.677 174.913 294.581 287.442 422.239c49.2012 55.8193 101.404 109.131 156.999 158.49c-8.0498 111.249 -26.7686 221.376 -68.7783 325.664c-50.5342 125.461 -147.716 243.275 -289.837 260.951
c-166.903 20.7578 -308.173 -107.025 -394.191 -235.706c-88.2881 -132.086 -160.345 -289.039 -146.317 -451.317c1.61035 -18.6455 -47.3467 -19.5029 -49.0752 0.000976562c-16.8047 189.673 80.9121 385.766 198.72 529.035zM1005.63 496.884
c-0.270508 32.2441 -0.983398 64.5752 -2.39551 96.8721c-43.4941 -41.5547 -84.8633 -85.4512 -124.312 -130.951c-115.359 -133.068 -220.947 -279.96 -288.623 -443.498c-53.4639 -129.195 -95.5332 -282.282 -56.3018 -421.236
c18.4551 -65.3535 56.8691 -123 119.511 -152.955c62.2061 -29.7441 112.001 33.5635 143.79 80.7656c90.2939 134.085 138.763 295.287 167.794 452.874c31.3936 170.4 41.9766 345.05 40.5381 518.129z" />
    <glyph glyph-name="K" unicode="K" horiz-adv-x="1209" 
d="M71.0176 419.316c73.1387 66.7588 198.802 64.9551 290.013 51.251c7.54199 -1.12793 15.0439 -2.4082 22.5264 -3.78711c-2.42188 215.228 13.7432 431.966 52.5596 643.221c8.04297 43.7773 117.952 44.6152 114.534 -0.000976562
c-15.2285 -198.977 -34.3496 -397.623 -38.0049 -597.062c103.596 65.6504 198.534 146.516 282.329 234.005c62.4043 65.1621 119.266 135.622 169.364 210.668c26.7881 40.1221 52.7842 81.5508 68.7842 127.334c11.1045 31.7891 30.4033 100.283 -10.2139 120.367
c-10.2598 5.06738 -7.04004 13.5986 0 19.1543c8.76855 6.92773 24.4326 4.37402 33.6035 0c46.3506 -22.1162 42.5107 -79.7363 32.4688 -122.201c-13.5986 -57.4688 -46.1533 -108.445 -78.668 -156.928c-67.1279 -100.105 -145.532 -192.636 -233.51 -275.025
c-79.6777 -74.6172 -168.586 -144.813 -264.719 -201.609c-0.0722656 -12.2529 -0.0791016 -24.5059 -0.0263672 -36.7646c56.6963 -19.834 111.908 -44.3584 165.801 -70.1104c96.0605 -45.9023 190.531 -98.4883 270.922 -169.048
c154.539 -135.648 271.463 -352.545 214.898 -561.979c-6.94727 -25.7188 -83.9131 -23.5088 -81.1025 6.25488c19.4248 205.687 -58.5439 394.205 -207.197 536.214c-102.5 97.9277 -228.588 174.458 -362.917 223.515
c0.0791016 -5.15918 0.0986328 -10.3184 0.204102 -15.4775c2.50684 -122.38 9.85059 -243.929 24.2148 -365.51c6.78906 -57.416 15.8154 -114.377 25.7129 -171.324c9.22363 -53.0879 10.5635 -120.678 38.1035 -167.748
c16.9697 -29.0117 -59.0264 -35.5107 -74.0566 -17.7949c-36.335 42.834 -48.5146 100.25 -63.0303 153.271c-16.0928 58.8076 -27.8369 119.008 -38.499 179.017c-21.7539 122.406 -34.1514 247.188 -38.9814 371.401c-0.53418 13.7305 -0.962891 27.4746 -1.35254 41.2246
c-52.1504 -22.3145 -105.964 -40.1484 -161.195 -52.1963c-42.7949 -9.33594 -97.4854 -23.4561 -140.649 -9.0332c-41.1455 13.75 -42.1221 49.1348 -11.916 76.7012zM225.421 384.18c44.1074 10.8535 87.3066 26.0674 128.934 44.1855
c6.24219 2.71875 12.4111 5.61523 18.5996 8.45215c-45.4209 8.9209 -92.0156 12.9785 -138.076 8.53809c-40.0635 -3.85938 -87.7676 -12.3447 -118.244 -41.2373c-16.7461 -15.875 -22.79 -31.1094 2.68457 -36.7041c9.53418 -2.0918 24.8545 2.06445 34.4678 3.33105
c24.083 3.18066 48.0469 7.62793 71.6348 13.4346z" />
    <glyph glyph-name="L" unicode="L" horiz-adv-x="778" 
d="M307.753 -173.224c50.6729 -7.32422 100.329 -19.8623 149.432 -34.7998c57.4619 141.264 61.8359 303.818 58.0557 454.609c-4.45996 177.639 -15.4521 355.039 -29.8623 532.13c-6.67676 82.0928 -14.3506 164.356 -25.2178 246.014
c-4.17676 31.3936 -8.79492 62.8467 -14.0996 94.0752c-1.0957 6.43262 -3.41797 32.7451 -5.91895 47.7295c-1.1748 0.547852 -2.38184 1.0625 -3.4707 1.70215c-1.13477 0.672852 -2.27637 1.33887 -3.41797 2.01172c-5.02148 2.95605 -11.5137 8.73633 -11.1768 15.3809
c0.421875 8.37988 2.20996 13.3809 9.03223 18.5869c18.0518 13.7832 41.6924 13.8027 61.8232 4.53906c28.4766 -13.1104 42.2207 -54.4209 51.3066 -82.377c12.4971 -38.46 20.9092 -78.002 28.8008 -117.63c20.5264 -103.134 34.2041 -207.726 45.3086 -312.258
c19.0879 -179.65 32.8584 -362.02 29.2627 -542.799c-2.39551 -120.434 -20.4346 -244.271 -65.6045 -356.517c-5.4834 -13.6318 -11.5137 -27.2432 -18.0391 -40.7295c51.4775 -18.1045 102.718 -36.75 154.255 -52.6973c123.818 -38.3213 334.44 -101.873 414.25 43.376
c9.46777 17.2275 60.6221 10.7744 50.3027 -7.9043c-68.0254 -123.158 -226.226 -121.205 -346.712 -97.6895c-98.4688 19.2197 -192.655 53.0078 -287.205 85.6816c-51.0947 -92.6426 -127.994 -174.286 -231.992 -202.004
c-113.314 -30.1992 -270.427 13.8291 -266.805 155.079c3.30566 128.912 155.812 161.223 257.692 146.489zM380.496 -340.815c25.5674 32.2646 46.4238 66.7646 63.4932 102.855c-11.1572 3.4707 -22.3281 6.88184 -33.5449 10.1416
c-65.4785 19.0225 -142.945 42.874 -210.767 22.8623c-55.8525 -16.4814 -102.533 -70.0576 -87.4238 -130.739c13.8623 -55.6543 69.2656 -99.6299 127.46 -95.5059c58.043 4.11035 106.255 46.8057 140.782 90.3857z" />
    <glyph glyph-name="M" unicode="M" horiz-adv-x="1640" 
d="M1667.77 -264.989c24.3662 -44.6816 -93.4072 -55.0537 -115.933 -18.2236c-187.271 306.465 -172.023 690.159 -152.711 1034.84c4.83594 86.2559 14.0928 172.459 17.082 258.787c0.739258 21.2061 1.38574 42.6299 0.145508 63.8223
c-0.844727 14.5225 2.22949 51.2803 -17.8682 33.6045c-23.3965 -20.5791 -39.3701 -65.4453 -52.9492 -92.8271c-64.7461 -130.595 -106.01 -270.908 -159.368 -406.174c-25.4551 -64.542 -52.9287 -128.582 -87.0273 -189.093
c-31.0176 -55.0342 -65.1025 -117.795 -125.831 -144.227c-62.5225 -27.2168 -138.354 -14.4033 -193.203 24.2744c-59.4287 41.9102 -90.7627 105.871 -113.664 173.006c-50.165 147.043 -58.8086 302.354 -84.4414 454.411
c-4.04492 23.9834 -9.71875 46.3701 -16.7725 69.5889c-4.84961 15.9541 -7.25781 31.4795 -21.9844 41.8057c-40.5312 28.418 -73.6338 -51.583 -86.1367 -78.0342c-33.6699 -71.2188 -53.7803 -148.277 -70.8232 -224.9
c-71.2188 -320.215 -73.1191 -650.742 -134.157 -972.64c1.93359 -20.249 2.48145 -40.5508 0.21875 -60.8994c-2.95605 -26.5566 -52.0449 -21.4102 -63.3867 -4.88867c-31.9082 46.4697 -44.834 100.217 -57.7988 154.433
c-12.332 51.5898 -21.7998 103.562 -29.8564 155.983c-16.4229 106.907 -26.0693 214.765 -34.3564 322.569c-17.2344 224.286 -22.0312 449.146 -11.1309 673.849c2.23633 46.1328 117.081 45.6445 117.114 -0.000976562
c0.158203 -222.518 4.82324 -445.181 18.1641 -667.315c6.47949 -107.792 15.1357 -215.551 26.834 -322.907c3.20703 -29.4473 6.88867 -58.8545 10.7881 -88.2285c18.8438 136.962 31.0566 274.82 45.9482 412.297c20.0645 185.193 42.0293 376.206 102.17 553.448
c19.2402 56.7031 46.5234 146.298 105.397 174.604c55.8057 26.8408 124.095 -9.53418 155.666 -57.7529c22.4395 -34.2705 31.4453 -81.9805 42.3984 -120.915c10.583 -37.6025 19.7217 -75.3105 27.501 -113.592c16.1982 -79.7041 31.3213 -160.101 55.5029 -237.864
c20.8955 -67.1943 49.2275 -156.545 108.386 -200.534c27.1182 -20.1631 55.0537 -28.9512 83.7217 -12.1787c30.6943 17.9531 54.0049 52.7578 72.5322 82.0137c82.3301 129.987 129.75 276.338 183.2 419.528c25.7393 68.9561 52.9824 137.51 86.2891 203.213
c23.8779 47.1035 55.291 128.886 120.954 122.585c30.2324 -2.90332 42.1816 -23.4297 47.8232 -50.8447c8.62988 -41.9307 13.5518 -85.0293 17.1475 -127.652c7.29102 -86.3945 7.94434 -172.743 8.56445 -259.375c1.25391 -174.86 2.11133 -350.13 27.375 -523.545
c23.2188 -159.375 71.2461 -312.476 148.476 -454.049z" />
    <glyph glyph-name="N" unicode="N" horiz-adv-x="980" 
d="M748.926 -2.67871c-45.7109 206.168 -34.5996 418.501 -33.8008 628.015c0.442383 112.595 -0.323242 225.474 -13.4531 337.455c-5.70117 48.6006 -9.54785 109.447 -49.0234 143.869c-51.6357 45.0244 -102.342 -16.9443 -130.693 -57.7529
c-57.3633 -82.5742 -89.8848 -181.729 -118.988 -277.058c-31.8945 -104.473 -56.0898 -211.097 -76.0225 -318.453c-39.1855 -211.077 -62.3975 -424.675 -95.2686 -636.755c1.49805 -15.3203 2.40234 -30.6279 2.50781 -45.8691
c0.0263672 -0.0722656 0.0664062 -0.131836 0.0859375 -0.204102c3.60254 -12.582 2.96875 -15.8213 -5.24609 -26.2334c-12.8926 -16.3369 -58.2275 -14.6348 -67.2861 5.01367c-23.2314 50.4023 -33.749 107.601 -44.5498 161.776
c-10.8145 54.2617 -20.0586 108.662 -27.5078 163.491c-14.8584 109.329 -25.3955 219.153 -31.1885 329.334c-11.6982 222.347 -11.4609 446.158 1.66895 668.445c2.93652 49.7891 127.342 48.6807 125.877 0.000976562
c-6.65723 -220.756 -14.7725 -441.229 -6.69629 -662.09c4.01855 -109.93 10.2803 -219.912 21.1338 -329.387c2.58594 -26.1016 5.30469 -52.2031 8.16211 -78.292c25.1846 185.074 48.7129 370.459 87.6348 553.224c22.0039 103.352 48.8184 205.786 83.5107 305.641
c30.7529 88.5186 69.0938 191.243 141.593 254.742c65.2148 57.126 154.354 43.8379 206.906 -23.5742c30.7139 -39.4033 42.4316 -88.4072 53.0742 -136.177c12.6084 -56.5781 21.2646 -113.671 27.4668 -171.285c23.7002 -219.971 10.6299 -442.634 42.4648 -661.898
c15.0898 -103.893 39.6406 -206.663 82.5342 -302.81c19.5498 -43.8105 41.0723 -89.9502 71.958 -127.051c22.0107 -26.4385 60.418 -66.502 99.0225 -54.8105c19.1875 5.8125 52.2568 7.01953 67.0693 -10.0234c15.0371 -17.2871 -0.897461 -31.4531 -17.584 -38.2295
c-109.56 -44.4971 -222.419 13.2021 -285.509 104.176c-62.0605 89.4893 -96.4893 197.399 -119.853 302.77z" />
    <glyph glyph-name="O" unicode="O" horiz-adv-x="1127" 
d="M415.811 275.771c-137.298 38.4072 -279.017 109.896 -336.907 244.634c-62.1006 144.549 -16.5479 320.148 64.7861 447.615c79.9482 125.283 206.472 224.623 354.544 252.156c146.693 27.2832 289.566 -33.8076 382.915 -147.821
c104.163 -127.229 149.465 -299.84 168.823 -460.146c21.1924 -175.5 5.11914 -359.717 -52.5479 -527.24c-48.3174 -140.366 -149.59 -300.024 -315.675 -303.112c-182.481 -3.3916 -244.872 185.404 -259.223 335.173c-5.05371 52.7646 -6.99316 105.727 -6.71582 158.741
zM743.283 -136.606c119.773 73.7588 170.993 234.857 202.241 363.611c4.94824 20.3877 9.31641 40.9336 13.209 61.5918c-57.4551 -29.4004 -122.366 -41.3232 -187.383 -46.8193c-78.0283 -6.5918 -156.888 -3.97266 -234.328 7.85742
c-0.581055 -37.6289 -0.171875 -75.3037 1.65625 -113.064c3.83984 -79.3545 12.7344 -161.4 55.292 -230.488c15.9541 -25.9033 40.5117 -54.4062 70.9414 -63.0234c27.2568 -7.71973 55.6348 6.33398 78.3711 20.335zM150.794 880.749
c-56.5322 -126.55 -75.7529 -288.042 8.41797 -407.274c59.626 -84.4609 157.105 -135.021 257.025 -165.484c2.83008 127.955 18.0713 256.042 35.4434 382.216c6.59766 47.9541 126.009 45.6973 121.238 -0.000976562
c-14.2715 -136.685 -31.1494 -273.158 -35.2402 -410.331c70.9023 -11.7773 143.091 -15.4395 214.812 -10.3193c75.1846 5.36426 153.622 18.8643 214.021 67.1221c0.112305 0.0859375 0.244141 0.165039 0.363281 0.250977
c17.0693 115.307 18.2041 233.438 4.09082 348.672c-17.498 142.84 -56.5117 291.651 -158.49 398.479c-100.896 105.693 -238.848 140.029 -375.492 85.2461c-128.8 -51.6357 -230.29 -163.445 -286.188 -288.576z" />
    <glyph glyph-name="O" unicode="&#xd6;" horiz-adv-x="1127" 
d="M415.811 275.771c-137.298 38.4072 -279.017 109.896 -336.907 244.634c-62.1006 144.549 -16.5479 320.148 64.7861 447.615c79.9482 125.283 206.472 224.623 354.544 252.156c146.693 27.2832 289.566 -33.8076 382.915 -147.821
c104.163 -127.229 149.465 -299.84 168.823 -460.146c21.1924 -175.5 5.11914 -359.717 -52.5479 -527.24c-48.3174 -140.366 -149.59 -300.024 -315.675 -303.112c-182.481 -3.3916 -244.872 185.404 -259.223 335.173c-5.05371 52.7646 -6.99316 105.727 -6.71582 158.741
zM743.283 -136.606c119.773 73.7588 170.993 234.857 202.241 363.611c4.94824 20.3877 9.31641 40.9336 13.209 61.5918c-57.4551 -29.4004 -122.366 -41.3232 -187.383 -46.8193c-78.0283 -6.5918 -156.888 -3.97266 -234.328 7.85742
c-0.581055 -37.6289 -0.171875 -75.3037 1.65625 -113.064c3.83984 -79.3545 12.7344 -161.4 55.292 -230.488c15.9541 -25.9033 40.5117 -54.4062 70.9414 -63.0234c27.2568 -7.71973 55.6348 6.33398 78.3711 20.335zM150.794 880.749
c-56.5322 -126.55 -75.7529 -288.042 8.41797 -407.274c59.626 -84.4609 157.105 -135.021 257.025 -165.484c2.83008 127.955 18.0713 256.042 35.4434 382.216c6.59766 47.9541 126.009 45.6973 121.238 -0.000976562
c-14.2715 -136.685 -31.1494 -273.158 -35.2402 -410.331c70.9023 -11.7773 143.091 -15.4395 214.812 -10.3193c75.1846 5.36426 153.622 18.8643 214.021 67.1221c0.112305 0.0859375 0.244141 0.165039 0.363281 0.250977
c17.0693 115.307 18.2041 233.438 4.09082 348.672c-17.498 142.84 -56.5117 291.651 -158.49 398.479c-100.896 105.693 -238.848 140.029 -375.492 85.2461c-128.8 -51.6357 -230.29 -163.445 -286.188 -288.576z" />
    <glyph glyph-name="O" unicode="&#xd5;" horiz-adv-x="1127" 
d="M415.811 275.771c-137.298 38.4072 -279.017 109.896 -336.907 244.634c-62.1006 144.549 -16.5479 320.148 64.7861 447.615c79.9482 125.283 206.472 224.623 354.544 252.156c146.693 27.2832 289.566 -33.8076 382.915 -147.821
c104.163 -127.229 149.465 -299.84 168.823 -460.146c21.1924 -175.5 5.11914 -359.717 -52.5479 -527.24c-48.3174 -140.366 -149.59 -300.024 -315.675 -303.112c-182.481 -3.3916 -244.872 185.404 -259.223 335.173c-5.05371 52.7646 -6.99316 105.727 -6.71582 158.741
zM743.283 -136.606c119.773 73.7588 170.993 234.857 202.241 363.611c4.94824 20.3877 9.31641 40.9336 13.209 61.5918c-57.4551 -29.4004 -122.366 -41.3232 -187.383 -46.8193c-78.0283 -6.5918 -156.888 -3.97266 -234.328 7.85742
c-0.581055 -37.6289 -0.171875 -75.3037 1.65625 -113.064c3.83984 -79.3545 12.7344 -161.4 55.292 -230.488c15.9541 -25.9033 40.5117 -54.4062 70.9414 -63.0234c27.2568 -7.71973 55.6348 6.33398 78.3711 20.335zM150.794 880.749
c-56.5322 -126.55 -75.7529 -288.042 8.41797 -407.274c59.626 -84.4609 157.105 -135.021 257.025 -165.484c2.83008 127.955 18.0713 256.042 35.4434 382.216c6.59766 47.9541 126.009 45.6973 121.238 -0.000976562
c-14.2715 -136.685 -31.1494 -273.158 -35.2402 -410.331c70.9023 -11.7773 143.091 -15.4395 214.812 -10.3193c75.1846 5.36426 153.622 18.8643 214.021 67.1221c0.112305 0.0859375 0.244141 0.165039 0.363281 0.250977
c17.0693 115.307 18.2041 233.438 4.09082 348.672c-17.498 142.84 -56.5117 291.651 -158.49 398.479c-100.896 105.693 -238.848 140.029 -375.492 85.2461c-128.8 -51.6357 -230.29 -163.445 -286.188 -288.576z" />
    <glyph glyph-name="O" unicode="&#xd4;" horiz-adv-x="1127" 
d="M415.811 275.771c-137.298 38.4072 -279.017 109.896 -336.907 244.634c-62.1006 144.549 -16.5479 320.148 64.7861 447.615c79.9482 125.283 206.472 224.623 354.544 252.156c146.693 27.2832 289.566 -33.8076 382.915 -147.821
c104.163 -127.229 149.465 -299.84 168.823 -460.146c21.1924 -175.5 5.11914 -359.717 -52.5479 -527.24c-48.3174 -140.366 -149.59 -300.024 -315.675 -303.112c-182.481 -3.3916 -244.872 185.404 -259.223 335.173c-5.05371 52.7646 -6.99316 105.727 -6.71582 158.741
zM743.283 -136.606c119.773 73.7588 170.993 234.857 202.241 363.611c4.94824 20.3877 9.31641 40.9336 13.209 61.5918c-57.4551 -29.4004 -122.366 -41.3232 -187.383 -46.8193c-78.0283 -6.5918 -156.888 -3.97266 -234.328 7.85742
c-0.581055 -37.6289 -0.171875 -75.3037 1.65625 -113.064c3.83984 -79.3545 12.7344 -161.4 55.292 -230.488c15.9541 -25.9033 40.5117 -54.4062 70.9414 -63.0234c27.2568 -7.71973 55.6348 6.33398 78.3711 20.335zM150.794 880.749
c-56.5322 -126.55 -75.7529 -288.042 8.41797 -407.274c59.626 -84.4609 157.105 -135.021 257.025 -165.484c2.83008 127.955 18.0713 256.042 35.4434 382.216c6.59766 47.9541 126.009 45.6973 121.238 -0.000976562
c-14.2715 -136.685 -31.1494 -273.158 -35.2402 -410.331c70.9023 -11.7773 143.091 -15.4395 214.812 -10.3193c75.1846 5.36426 153.622 18.8643 214.021 67.1221c0.112305 0.0859375 0.244141 0.165039 0.363281 0.250977
c17.0693 115.307 18.2041 233.438 4.09082 348.672c-17.498 142.84 -56.5117 291.651 -158.49 398.479c-100.896 105.693 -238.848 140.029 -375.492 85.2461c-128.8 -51.6357 -230.29 -163.445 -286.188 -288.576z" />
    <glyph glyph-name="O" unicode="&#xd3;" horiz-adv-x="1127" 
d="M415.811 275.771c-137.298 38.4072 -279.017 109.896 -336.907 244.634c-62.1006 144.549 -16.5479 320.148 64.7861 447.615c79.9482 125.283 206.472 224.623 354.544 252.156c146.693 27.2832 289.566 -33.8076 382.915 -147.821
c104.163 -127.229 149.465 -299.84 168.823 -460.146c21.1924 -175.5 5.11914 -359.717 -52.5479 -527.24c-48.3174 -140.366 -149.59 -300.024 -315.675 -303.112c-182.481 -3.3916 -244.872 185.404 -259.223 335.173c-5.05371 52.7646 -6.99316 105.727 -6.71582 158.741
zM743.283 -136.606c119.773 73.7588 170.993 234.857 202.241 363.611c4.94824 20.3877 9.31641 40.9336 13.209 61.5918c-57.4551 -29.4004 -122.366 -41.3232 -187.383 -46.8193c-78.0283 -6.5918 -156.888 -3.97266 -234.328 7.85742
c-0.581055 -37.6289 -0.171875 -75.3037 1.65625 -113.064c3.83984 -79.3545 12.7344 -161.4 55.292 -230.488c15.9541 -25.9033 40.5117 -54.4062 70.9414 -63.0234c27.2568 -7.71973 55.6348 6.33398 78.3711 20.335zM150.794 880.749
c-56.5322 -126.55 -75.7529 -288.042 8.41797 -407.274c59.626 -84.4609 157.105 -135.021 257.025 -165.484c2.83008 127.955 18.0713 256.042 35.4434 382.216c6.59766 47.9541 126.009 45.6973 121.238 -0.000976562
c-14.2715 -136.685 -31.1494 -273.158 -35.2402 -410.331c70.9023 -11.7773 143.091 -15.4395 214.812 -10.3193c75.1846 5.36426 153.622 18.8643 214.021 67.1221c0.112305 0.0859375 0.244141 0.165039 0.363281 0.250977
c17.0693 115.307 18.2041 233.438 4.09082 348.672c-17.498 142.84 -56.5117 291.651 -158.49 398.479c-100.896 105.693 -238.848 140.029 -375.492 85.2461c-128.8 -51.6357 -230.29 -163.445 -286.188 -288.576z" />
    <glyph glyph-name="P" unicode="P" horiz-adv-x="1070" 
d="M1039.97 500.559c-99.9004 -104.024 -234.538 -178.033 -372.932 -216.269c-20.3613 -5.62793 -40.9805 -10.7744 -61.7646 -15.2412c4.23633 -72.5713 5.09375 -145.269 7.00684 -217.952c4.65137 -176.847 15.9736 -351.898 63.4131 -523.189
c14.3643 -51.8535 -102.737 -60.002 -117.404 -18.4473c-56.3203 159.586 -59.4805 331.933 -54.2881 499.384c2.54004 81.9932 5.56836 164.013 8.82812 245.979c-23.7598 -2.0127 -47.6182 -2.62598 -71.457 -1.47168c-70.9023 3.44434 -153.951 22.0176 -202.678 78.252
c-98.5938 113.789 -37.542 316.876 72.0176 402.274c48.9375 38.1436 118.863 50.4492 171.522 12.1084c52.4941 -38.2158 64.7139 -107.601 77.8105 -166.798c17.082 -77.21 31.2607 -155.205 39.2842 -233.887c48.165 14.417 94.5156 34.0264 134.869 53.7217
c108.907 53.1465 209.336 131.86 277.084 233.345c69.8398 104.618 127.051 252.255 66.9229 373.711c-56.0371 113.195 -187.305 162.192 -305.251 175.612c-254.393 28.9521 -514.968 -82.0596 -678.367 -277.07c-11.0254 -13.1562 -56.8086 -4.66504 -41.4814 13.8223
c205.495 247.9 555.553 354.537 864.537 265.728c137.694 -39.5811 265.168 -130.534 285.628 -281.483c20.0645 -148.06 -64.0605 -298.784 -163.301 -402.129zM404.769 328.009c35.332 -6.9873 72.9453 -6.60938 110.897 -1.35742
c2.2832 62.5625 3.3916 125.673 -1.90625 187.556c-5.25195 61.3486 -12.167 133.86 -47.9414 186.308c-23.1592 33.9463 -57.2441 47.3398 -94.2588 25.1641c-28.873 -17.2998 -50.6064 -45.7705 -66.4414 -74.8945c-34.9756 -64.3438 -51.6885 -136.737 -26.9258 -207.752
c19.8662 -56.9805 66.5801 -103.16 126.576 -115.023z" />
    <glyph glyph-name="Q" unicode="Q" horiz-adv-x="1121" 
d="M143.689 968.014c79.9482 125.29 206.474 224.623 354.546 252.17c146.693 27.2832 289.566 -33.8076 382.915 -147.821c104.163 -127.229 149.465 -299.84 168.823 -460.146c21.1924 -175.5 5.11914 -359.717 -52.5479 -527.24
c-41.7588 -121.305 -123.099 -256.927 -251.602 -293.546c23.4229 -84.1445 51.873 -166.864 85.252 -247.842c8.72266 -21.166 -43.8896 -26.2402 -51.293 -8.0625c-32.8906 80.7197 -60.8467 163.182 -83.9199 247.01
c-4.6582 -0.342773 -9.34961 -0.59375 -14.1133 -0.679688c-182.481 -3.3916 -244.872 185.404 -259.223 335.173c-5.05371 52.7646 -6.99316 105.727 -6.71582 158.741c-137.305 38.4072 -279.023 109.896 -336.908 244.628
c-62.1006 144.549 -16.5479 320.148 64.7861 447.615zM743.279 -136.605c119.773 73.7588 170.994 234.859 202.242 363.619c4.94824 20.3877 9.31641 40.9336 13.209 61.5918c-57.4551 -29.4004 -122.366 -41.3232 -187.383 -46.8193
c-78.0283 -6.5918 -156.888 -3.97266 -234.328 7.85742c-0.581055 -37.6289 -0.171875 -75.3037 1.65625 -113.064c3.83984 -79.3545 12.7344 -161.4 55.292 -230.488c15.9541 -25.9033 40.5117 -54.4062 70.9414 -63.0234
c5.22559 -1.48438 10.4844 -2.15039 15.7432 -2.18359c-12.9785 52.7119 -24.083 105.912 -33.208 159.547c-3.16016 18.5664 47.585 20.3477 51.1348 -0.000976562c8.51758 -48.8125 18.6914 -97.2354 30.4951 -145.223c4.92188 2.61914 9.67871 5.40332 14.2051 8.1875z
M812.473 1084.08c-100.896 105.693 -238.849 140.03 -375.5 85.2539c-128.8 -51.6357 -230.29 -163.445 -286.188 -288.576c-56.5322 -126.55 -75.752 -288.043 8.42578 -407.282c59.626 -84.4609 157.105 -135.021 257.025 -165.484
c2.83008 127.955 18.0713 256.042 35.4434 382.216c6.59766 47.9541 126.009 45.6973 121.238 -0.000976562c-14.2715 -136.685 -31.1494 -273.158 -35.2402 -410.331c70.9023 -11.7773 143.091 -15.4395 214.812 -10.3193c75.1846 5.36426 153.622 18.8643 214.021 67.1221
c0.112305 0.0859375 0.244141 0.165039 0.363281 0.250977c17.0693 115.307 18.2041 233.438 4.09082 348.672c-17.498 142.84 -56.5117 291.651 -158.49 398.479z" />
    <glyph glyph-name="R" unicode="R" horiz-adv-x="844" 
d="M1464.05 -251.879c-85.0488 -96.166 -230.079 -104.194 -347.24 -76.9316c-317.714 73.9834 -541.875 317.371 -788.126 520.636c-14.1064 -105.931 -21.6279 -213.273 -15.7422 -318.98c9.33008 -51.1475 19.4648 -102.163 29.6855 -153.509
c6.43945 -32.3564 -65.3535 -21.793 -77.0518 -5.94434c-35.0156 47.46 -47.6836 109.494 -61.1768 165.881c-13.7969 57.6338 -25.4951 115.953 -35.4717 174.372c-15.875 92.9395 -26.4775 187.284 -33.5312 281.53c-22.3604 14.3115 -45.0908 27.9629 -68.2568 40.8154
c-40.3203 22.3809 -0.270508 49.9014 26.0225 56.1758c11.9355 2.85059 23.8252 5.87891 35.6816 9c-11.3613 228.562 -6.9668 459.057 18.2109 686.417c5.23926 47.3076 122.506 46.8652 120.725 0c-8.20117 -216.157 -20.1104 -432.058 -14.5742 -648.334
c27.6592 9.69238 55.0273 20.1631 82.125 31.3008c2.3623 9.71875 4.69141 19.4512 7.19238 29.1367c51.8799 200.804 139.151 398.421 287.554 546.962c67.9004 67.9658 154.968 129.564 252.091 144.094c77.7178 11.626 178.746 -10.5635 196.409 -100.02
c19.7607 -100.065 -50.9834 -200.718 -112.682 -271.692c-70.4404 -81.0234 -152.876 -151.438 -239.323 -214.792c-108.907 -79.8164 -228.232 -146.094 -353.575 -197.262c-3.73438 -17.3926 -7.32324 -34.7979 -10.6553 -52.21
c-6.24219 -32.6738 -12.2402 -65.7236 -17.8486 -98.9912c25.251 -19.2002 50.125 -38.8818 74.6172 -58.9463c147.05 -120.473 282.87 -254.907 437.436 -366.084c144.708 -104.084 387.316 -252.81 548.664 -103.021c16.6406 15.4463 82.0273 6.61816 58.8418 -19.6025z
M560.41 927.966c-78.2393 -119.603 -130.176 -253.865 -166.326 -391.922c103.113 46.998 201.595 104.209 293.854 170.262c80.8252 57.8711 159.196 123.555 227.341 196.047c56.1094 59.6992 153.417 174.261 95.2686 260.556
c-56.8291 84.3291 -187.232 21.8457 -249.524 -20.3418c-81.0107 -54.8691 -147.4 -133.247 -200.613 -214.601zM298.901 329.454c5.24512 32.0137 11.0654 63.9219 17.4785 95.7041c-20.0713 -7.36328 -40.2285 -14.4492 -60.5508 -21.041
c0.692383 -15.4463 1.4707 -30.8721 2.32227 -46.2852c13.7373 -9.2373 27.29 -18.7383 40.75 -28.3779zM278.996 189.188c1.57715 12.9648 3.24805 25.9238 4.96387 38.876c-5.97168 4.7373 -11.9629 9.44824 -17.9668 14.1191
c2.4873 -30.9971 5.27148 -61.9746 8.37207 -92.9326c1.47754 13.3213 3.00781 26.6357 4.63086 39.9375z" />
    <glyph glyph-name="S" unicode="S" horiz-adv-x="1176" 
d="M1077.9 -121.357c-63.3545 -98.4229 -180.72 -167.296 -299.267 -156.515c-113.782 10.3584 -197.762 92.7676 -217.015 204.268c-19.4307 112.516 32.2051 231.142 130.846 289.527c15.7959 9.34961 61.085 -5.36426 35.7949 -20.4014
c-120.645 -71.7207 -155.132 -245.539 -78.5156 -361.427c44.0879 -66.6865 125.613 -96.8789 202.948 -77.4277c71.4033 17.96 129.162 71.0869 159.354 137.384c60.8994 133.722 -37.0615 257.811 -149.689 322.227c-119.635 68.4346 -255.606 107.554 -384.578 154.215
c-67.9326 24.5771 -135.187 51.6357 -200.249 83.1084c-55.9443 27.0586 -113.202 57.9375 -157.653 102.184c-96.041 95.6113 -85.8535 239.355 -13.249 345.834c133.762 196.172 398.705 283.984 626.561 230.745c115.003 -26.8672 213.518 -89.3174 241.565 -210.331
c30.9248 -133.438 -30.9648 -251.147 -75.917 -372.577c-8.33984 -22.5254 -69.2129 -11.6582 -57.7588 9.0791c69.6943 126.174 132.633 300.725 47.8545 435.093c-76.0029 120.453 -263.229 134.263 -388.795 103.47
c-116.006 -28.4502 -228.383 -98.8184 -292.516 -201.299c-35.293 -56.3994 -54.7832 -121.086 -45.0244 -187.838c9.64648 -66.0195 50.0596 -116.039 105.133 -151.035c116.362 -73.9443 251.298 -116.587 379.768 -164.007
c125.686 -46.3975 262.344 -94.1934 365.398 -182.844c98.0469 -84.3428 138.367 -217.458 65.0039 -331.432z" />
    <glyph glyph-name="T" unicode="T" horiz-adv-x="939" 
d="M1758.15 1023.07c-9.71875 -16.8584 -60.2852 -10.3311 -49.7939 7.84668c37.793 65.4717 -22.1436 125.468 -80.9844 146.647c-67.9268 24.4453 -143.474 30.502 -215.154 30.7266c-213.848 0.672852 -423.275 -53.5625 -626.501 -117.946
c11.9619 -5.85254 19.8271 -14.9844 19.1475 -27.4551c-12.2588 -224.544 -23.9375 -448.059 -14.8252 -673.011c4.5918 -113.288 12.7598 -226.048 22.5312 -338.986c4.7832 -55.2324 11.1504 -110.273 16.6729 -165.426
c5.35742 -53.5557 18.2764 -110.853 14.8721 -164.594c-1.97266 -31.1094 -70.3408 -31.0635 -81.1025 -6.25488c-22.6641 52.2363 -30.1328 115.175 -41.0195 170.849c-10.709 54.7832 -18.7656 110.147 -26.4854 165.426
c-15.373 110.068 -24.8018 221.581 -30.1787 332.573c-10.8467 223.705 -10.6357 451.225 18.0986 673.656c-117.154 -38.7695 -233.715 -79.4131 -351.853 -115.135c-56.208 -16.9961 -113.426 -35.6748 -172.102 -41.6133
c-36.5859 -3.70117 -86.8301 -7.58789 -108.069 29.3213c-10.332 17.9463 39.377 24.0361 48.8125 7.66602c15.7891 -27.4082 94.457 -1.74219 117.979 4.32812c35.3193 9.11816 70.2686 19.873 105.133 30.5752c67.6895 20.7842 134.896 43.0918 202.024 65.6104
c236.109 79.1963 474.179 162.457 723.062 190.05c120.605 13.374 244.648 16.2178 363.254 -12.8926c48.5479 -11.916 100.349 -30.542 132.751 -70.7832c27.6855 -34.3818 36.2432 -82.1318 13.7305 -121.179z" />
    <glyph glyph-name="U" unicode="U" horiz-adv-x="1547" 
d="M232.816 108.445c-43.1777 87.8262 -75.5215 180.041 -100.112 274.67c-48.4033 186.13 -71.9912 377.175 -82.6602 568.88c-2.71875 48.8779 118.612 48.5811 125.362 0c27.0391 -194.642 41.5088 -392.424 90.499 -583.305
c22.1367 -86.249 50 -171.601 86.7051 -252.803c33.0557 -73.1328 71.6143 -145.816 129.888 -202.15c58.0625 -56.1289 136.275 -88.71 215.769 -60.6621c82.9961 29.2822 144.733 100.026 188.999 173.284c91.7979 151.912 144.522 327.683 192.615 497.311
c51.9658 183.286 100.896 367.477 150.883 551.317c0.125 0.46875 0.40918 0.864258 0.600586 1.30664c0.0927734 2.54688 0.0996094 5.10059 0.205078 7.64746c1.87402 46.1992 111.73 45.2754 116.6 0c12.3516 -114.845 12.8398 -231.3 18.5938 -346.626
c5.53613 -111.024 13.1963 -221.943 25.8447 -332.407c12.3184 -107.634 28.1074 -215.017 49.6826 -321.205c7.58105 -37.3115 73.0264 -306.392 129.69 -273.085c14.7793 8.68262 58.4316 -3.81445 34.3359 -19.5703c-97.0703 -63.46 -180.602 68.3945 -215.201 140.003
c-54.2881 112.351 -79.334 237.515 -100.883 359.591c-23.0469 130.562 -35.5371 263.234 -45.1104 395.386c-4.90918 67.7285 -9.72559 136.038 -12.5625 204.374c-43.4277 -164.653 -86.876 -329.479 -137.12 -492.001
c-30.041 -97.1816 -64.252 -193.288 -107.43 -285.476c-36.5527 -78.0479 -80.1719 -156.096 -144.892 -214.455c-132.481 -119.457 -318.321 -118.765 -454.827 -6.55859c-68.8633 56.6045 -116.652 137.562 -155.475 216.534z" />
    <glyph glyph-name="U" unicode="&#xdc;" horiz-adv-x="1547" 
d="M232.816 108.445c-43.1777 87.8262 -75.5215 180.041 -100.112 274.67c-48.4033 186.13 -71.9912 377.175 -82.6602 568.88c-2.71875 48.8779 118.612 48.5811 125.362 0c27.0391 -194.642 41.5088 -392.424 90.499 -583.305
c22.1367 -86.249 50 -171.601 86.7051 -252.803c33.0557 -73.1328 71.6143 -145.816 129.888 -202.15c58.0625 -56.1289 136.275 -88.71 215.769 -60.6621c82.9961 29.2822 144.733 100.026 188.999 173.284c91.7979 151.912 144.522 327.683 192.615 497.311
c51.9658 183.286 100.896 367.477 150.883 551.317c0.125 0.46875 0.40918 0.864258 0.600586 1.30664c0.0927734 2.54688 0.0996094 5.10059 0.205078 7.64746c1.87402 46.1992 111.73 45.2754 116.6 0c12.3516 -114.845 12.8398 -231.3 18.5938 -346.626
c5.53613 -111.024 13.1963 -221.943 25.8447 -332.407c12.3184 -107.634 28.1074 -215.017 49.6826 -321.205c7.58105 -37.3115 73.0264 -306.392 129.69 -273.085c14.7793 8.68262 58.4316 -3.81445 34.3359 -19.5703c-97.0703 -63.46 -180.602 68.3945 -215.201 140.003
c-54.2881 112.351 -79.334 237.515 -100.883 359.591c-23.0469 130.562 -35.5371 263.234 -45.1104 395.386c-4.90918 67.7285 -9.72559 136.038 -12.5625 204.374c-43.4277 -164.653 -86.876 -329.479 -137.12 -492.001
c-30.041 -97.1816 -64.252 -193.288 -107.43 -285.476c-36.5527 -78.0479 -80.1719 -156.096 -144.892 -214.455c-132.481 -119.457 -318.321 -118.765 -454.827 -6.55859c-68.8633 56.6045 -116.652 137.562 -155.475 216.534z" />
    <glyph glyph-name="U" unicode="&#xdb;" horiz-adv-x="1547" 
d="M232.816 108.445c-43.1777 87.8262 -75.5215 180.041 -100.112 274.67c-48.4033 186.13 -71.9912 377.175 -82.6602 568.88c-2.71875 48.8779 118.612 48.5811 125.362 0c27.0391 -194.642 41.5088 -392.424 90.499 -583.305
c22.1367 -86.249 50 -171.601 86.7051 -252.803c33.0557 -73.1328 71.6143 -145.816 129.888 -202.15c58.0625 -56.1289 136.275 -88.71 215.769 -60.6621c82.9961 29.2822 144.733 100.026 188.999 173.284c91.7979 151.912 144.522 327.683 192.615 497.311
c51.9658 183.286 100.896 367.477 150.883 551.317c0.125 0.46875 0.40918 0.864258 0.600586 1.30664c0.0927734 2.54688 0.0996094 5.10059 0.205078 7.64746c1.87402 46.1992 111.73 45.2754 116.6 0c12.3516 -114.845 12.8398 -231.3 18.5938 -346.626
c5.53613 -111.024 13.1963 -221.943 25.8447 -332.407c12.3184 -107.634 28.1074 -215.017 49.6826 -321.205c7.58105 -37.3115 73.0264 -306.392 129.69 -273.085c14.7793 8.68262 58.4316 -3.81445 34.3359 -19.5703c-97.0703 -63.46 -180.602 68.3945 -215.201 140.003
c-54.2881 112.351 -79.334 237.515 -100.883 359.591c-23.0469 130.562 -35.5371 263.234 -45.1104 395.386c-4.90918 67.7285 -9.72559 136.038 -12.5625 204.374c-43.4277 -164.653 -86.876 -329.479 -137.12 -492.001
c-30.041 -97.1816 -64.252 -193.288 -107.43 -285.476c-36.5527 -78.0479 -80.1719 -156.096 -144.892 -214.455c-132.481 -119.457 -318.321 -118.765 -454.827 -6.55859c-68.8633 56.6045 -116.652 137.562 -155.475 216.534z" />
    <glyph glyph-name="U" unicode="&#xda;" horiz-adv-x="1547" 
d="M232.816 108.445c-43.1777 87.8262 -75.5215 180.041 -100.112 274.67c-48.4033 186.13 -71.9912 377.175 -82.6602 568.88c-2.71875 48.8779 118.612 48.5811 125.362 0c27.0391 -194.642 41.5088 -392.424 90.499 -583.305
c22.1367 -86.249 50 -171.601 86.7051 -252.803c33.0557 -73.1328 71.6143 -145.816 129.888 -202.15c58.0625 -56.1289 136.275 -88.71 215.769 -60.6621c82.9961 29.2822 144.733 100.026 188.999 173.284c91.7979 151.912 144.522 327.683 192.615 497.311
c51.9658 183.286 100.896 367.477 150.883 551.317c0.125 0.46875 0.40918 0.864258 0.600586 1.30664c0.0927734 2.54688 0.0996094 5.10059 0.205078 7.64746c1.87402 46.1992 111.73 45.2754 116.6 0c12.3516 -114.845 12.8398 -231.3 18.5938 -346.626
c5.53613 -111.024 13.1963 -221.943 25.8447 -332.407c12.3184 -107.634 28.1074 -215.017 49.6826 -321.205c7.58105 -37.3115 73.0264 -306.392 129.69 -273.085c14.7793 8.68262 58.4316 -3.81445 34.3359 -19.5703c-97.0703 -63.46 -180.602 68.3945 -215.201 140.003
c-54.2881 112.351 -79.334 237.515 -100.883 359.591c-23.0469 130.562 -35.5371 263.234 -45.1104 395.386c-4.90918 67.7285 -9.72559 136.038 -12.5625 204.374c-43.4277 -164.653 -86.876 -329.479 -137.12 -492.001
c-30.041 -97.1816 -64.252 -193.288 -107.43 -285.476c-36.5527 -78.0479 -80.1719 -156.096 -144.892 -214.455c-132.481 -119.457 -318.321 -118.765 -454.827 -6.55859c-68.8633 56.6045 -116.652 137.562 -155.475 216.534z" />
    <glyph glyph-name="V" unicode="V" horiz-adv-x="1333" 
d="M1248.29 1416.68c63.9941 -192.854 63.9902 -399.609 38.7861 -599.312c-25.4219 -201.424 -67.1348 -406.945 -134.15 -598.842c-58.4785 -167.451 -146.76 -361.446 -317.879 -439.851c-88.5654 -40.584 -184.936 -37.2393 -271.488 6.70312
c-82.541 41.9043 -148.495 117.537 -201.794 191.521c-114.053 158.319 -174.919 351.192 -218.09 539.493c-47.7959 208.478 -72.459 421.138 -93.5459 633.686c-4.8623 49.0098 123.601 51.3193 129.486 0c24.0762 -209.883 44.9131 -420.848 89.4629 -627.629
c40.1758 -186.493 94.6553 -378.436 202.994 -538.002c45.0049 -66.2832 103.812 -134.56 176.298 -171.442c81.6572 -41.5547 167.161 0.870117 230.437 56.6436c129.466 114.106 197.934 295.459 249.095 455.679c55.7471 174.577 92.584 357.691 112.253 539.862
c19.3779 179.499 16.6924 364.863 -38.8828 538.141c-23.4033 72.9736 -57.1719 146.997 -114.674 199.544c-68.6328 62.7207 -158.86 65.5449 -237.931 19.7412c-73.0527 -42.3193 -122.419 -115.075 -160.865 -188.24
c-43.6133 -82.9834 -77.25 -172.255 -94.4902 -264.555c-30.6475 -164.026 -7.78516 -338.979 87.2002 -478.937c94.1533 -138.729 268.519 -228.607 436.669 -187.891c9.19727 2.23047 27.9424 4.4082 34.626 -5.17188c5.98438 -8.58398 1.1748 -17.2607 -9.07812 -19.7412
c-40.7754 -9.87109 -82.0654 -15.1689 -124.102 -13.5059c-173.33 6.84863 -327.704 108.563 -411.638 258.747c-92.748 165.953 -94.9316 364.303 -40.6104 543.029c50.1514 164.99 148.475 367.562 332.526 410.252c78.0674 18.1045 158.022 0.666016 220.149 -50.1846
c64.5215 -52.8174 103.47 -132.086 129.235 -209.738z" />
    <glyph glyph-name="W" unicode="W" horiz-adv-x="2106" 
d="M733.39 -24.6631c34.9229 75.0586 61.6943 154.361 84.8662 233.735c46.0674 157.91 74.7949 320.301 103.113 482.189c-0.290039 8.28027 -0.580078 16.5674 -0.850586 24.8477c-1.58398 48.502 122.333 49.168 124.847 0
c10.3594 -202.434 17.3008 -409.439 69.8408 -606.324c45.2295 -169.463 131.472 -395.92 316.031 -454.26c180.95 -57.2051 321.468 125.092 387.138 268.137c68.4609 149.128 115.287 308.034 144.793 469.428c-20.5332 -1.70898 -41.2109 -2.01953 -62.0674 -0.700195
c-169.213 10.6885 -328.562 103.965 -435.469 233.095c-110.88 133.92 -166.316 304.089 -158.069 477.637c8.41895 177.156 80.3701 375.037 214.765 495.88c63.0244 56.6699 148.601 91.8174 234.117 77.1631c77.54 -13.2881 135.761 -67.0029 174.814 -132.884
c47.2354 -79.6846 70.5928 -173.812 88.665 -263.842c21.2451 -105.846 30.6602 -213.729 34.4014 -321.515c6.08984 -175.447 -2.70508 -351.858 -30.8584 -525.234c9.30273 1.01562 20.7705 0.243164 25.5938 -6.67773
c6.01758 -8.62988 1.05566 -16.8506 -8.98633 -19.5361c-7.28418 -1.94629 -14.5947 -3.6416 -21.9121 -5.21191c-3.95215 -22.3809 -8.16797 -44.7217 -12.7861 -66.9902c-20.6191 -99.3994 -47.7832 -197.479 -82.6211 -292.853
c-33.8477 -92.6621 -73.0332 -187.39 -129.803 -268.645c-49.6631 -71.0801 -116.97 -130.376 -200.085 -158.49c-92.5898 -31.3203 -193.46 -17.7812 -280.132 24.8154c-179.149 88.0508 -271.653 291.758 -321.383 474.589
c-32.3301 118.87 -49.0098 240.261 -58.6367 362.442c-23.8584 -124.372 -52.6982 -247.683 -93.5928 -367.753c-46.7539 -137.291 -112.424 -320.353 -283.016 -330.474c-161.202 -9.56055 -294.739 108.887 -364.342 244.542
c-80.5879 157.072 -109.883 343.974 -127.314 517.798c-19.748 196.924 -16.5352 395.504 -6.48633 592.884c2.48047 48.832 125.177 47.0967 122.781 0c-10.0557 -197.518 -14.377 -395.583 1.89355 -592.884c13.3477 -161.862 34.2568 -332.104 96.6084 -483.443
c46.7471 -113.466 162.549 -292.278 311.202 -241.025c70.7705 24.3994 113.077 95.374 142.939 159.56zM1557.11 590.886c104.46 -103.094 260.375 -186.098 411.219 -168.501c2.04492 12.0742 4.01074 24.1621 5.87109 36.2559
c27.877 181.347 35.2207 365.88 26.1484 549.041c-4.61816 93.1904 -14.1455 186.328 -32.666 277.85c-17.0029 84.0518 -39.7334 171.079 -83.0225 245.914c-41.1777 71.1924 -109.157 131.433 -196.943 116.02c-89.667 -15.7432 -155.911 -90.1357 -203.384 -162.621
c-91.9297 -140.379 -136.961 -311.036 -122.465 -478.48c13.5654 -156.729 83.2539 -304.954 195.242 -415.478z" />
    <glyph glyph-name="X" unicode="X" horiz-adv-x="1008" 
d="M499.834 463.695c-69.2988 -84.7188 -133.703 -173.303 -190.585 -267.312c-72.9346 -120.559 -134.21 -250.064 -172.182 -386.056c-20.4404 -73.2246 -33.2998 -149.59 -31.9072 -225.81c1.0957 -59.9434 13.3281 -130.503 67.623 -165.512
c25.627 -16.5215 -20.9287 -31.3076 -36.8828 -21.0283c-126.985 81.8223 -84.4219 288.459 -52.5137 408.417c69.9189 262.825 223.316 497.747 397.57 704.509c-99.5645 257.851 -154.031 530.124 -165.169 806.884c-1.87402 46.582 117.55 47.4004 120.209 0
c9.01953 -160.826 34.3359 -322.834 71.6611 -479.49c17.9268 -75.2373 39.2646 -150.224 63.7832 -224.365c200.012 219.312 424.476 414.896 631.185 627.735c12.7412 13.1104 61.6064 3.30566 44.1543 -14.7139c-121.014 -124.979 -247.834 -244.087 -372.517 -365.352
c-98.1055 -95.4141 -195.294 -192.873 -286.564 -295.313c61.2432 -174.075 140.821 -342.529 239.271 -496.679c66.1582 -103.582 143.936 -200.883 238.821 -279.61c79.6113 -66.0596 261.822 -194.714 349.813 -81.5254
c10.4844 13.4863 55.9775 5.62793 41.4814 -13.8232c-44.3848 -59.5732 -125.454 -67.0352 -193.163 -52.4336c-76.3721 16.4756 -151.411 47.4199 -218.368 87.4102c-246.726 147.34 -402.287 410.053 -516.558 665.687
c-10.1279 22.6572 -19.7607 45.4795 -29.1631 68.3809z" />
    <glyph glyph-name="Y" unicode="Y" horiz-adv-x="1502" 
d="M1422.07 344.344c-1.00977 -64.0801 -45.667 -111.537 -89.7217 -153.098c-4.19629 -3.95215 -8.53809 -7.74609 -12.7744 -11.6592c0.112305 -5.95801 0.28418 -11.916 0.376953 -17.874c2.375 -150.652 -2.56055 -303.607 -29.0645 -452.228
c-24.624 -138.063 -64.6807 -275.79 -146.45 -391.618c-66.8975 -94.7539 -160.134 -181.412 -273.085 -215.92c-105.793 -32.3174 -221.549 -11.4805 -290.161 80.1523c-65.4131 87.3643 -73.001 201.503 -37.1074 302.261
c43.2568 121.443 137.912 218.955 231.689 303.693c102.942 93.0186 215.425 174.518 324.787 259.651c36.4541 28.3779 72.499 57.3037 107.871 87.0215c-1.98633 66.6992 -5.36426 133.365 -9.41504 199.887c-13.7441 225.771 -39.8789 450.552 -59.3828 675.795
c-55.1328 -162.12 -98.8252 -328.113 -149.914 -491.579c-59.4814 -190.34 -128.991 -386.208 -243.803 -551.139c-52.1768 -74.9531 -121.502 -138.182 -213.103 -158.088c-90.9209 -19.7549 -184.329 16.5146 -250.963 78.4834
c-72.2812 67.2334 -112.773 165.108 -143.54 256.9c-34.8242 103.912 -56.2412 211.492 -68.6055 320.261c-26.3789 231.999 -15.9141 466.063 -19.7012 699.02c-0.751953 46.1133 116.225 46.4102 118.145 0c9.96289 -241.025 -6.7627 -483.152 19.2793 -723.465
c11.0908 -102.361 28.4766 -204.842 59.0059 -303.311c25.8574 -83.3984 57.5215 -172.307 120.137 -235.7c31.9609 -32.3633 74.2275 -58.8281 120.75 -61.25c50.1123 -2.60645 96.8926 22.1426 134.105 53.707c71.3379 60.5107 118.329 149.115 160.372 231.188
c161.592 315.478 221.567 669.349 348.691 998.279c-1.97949 26.7021 -3.87988 53.4043 -5.54883 80.126c-2.83691 45.3154 110.293 45.2559 116.601 0c24.2412 -174.003 37.7275 -349.952 51.8604 -525.023c11.9688 -148.244 20.9746 -296.983 24.9863 -445.729
c30.0342 31.2148 54.4736 66.9824 55.6416 111.255c0.495117 18.9697 48.3311 18.6592 48.041 0zM1208.59 -87.3477c1.94629 57.3701 2.06641 114.804 1.01074 172.239c-15.4922 -12.5557 -31.0771 -25.0059 -46.7539 -37.3311
c-113.506 -89.2578 -231.155 -173.58 -338.617 -270.273c-92.3066 -83.0557 -184.798 -176.998 -228.708 -295.677c-37.252 -100.679 -28.5693 -222.695 46.7402 -304.518c92.0752 -100.039 232.039 -57.0332 326.232 17.1748
c95.8164 75.4883 152.586 188.308 185.385 303.753c38.0176 133.801 50.0264 276.094 54.7109 414.632z" />
    <glyph glyph-name="Y" unicode="&#x178;" horiz-adv-x="1502" 
d="M1422.07 344.344c-1.00977 -64.0801 -45.667 -111.537 -89.7217 -153.098c-4.19629 -3.95215 -8.53809 -7.74609 -12.7744 -11.6592c0.112305 -5.95801 0.28418 -11.916 0.376953 -17.874c2.375 -150.652 -2.56055 -303.607 -29.0645 -452.228
c-24.624 -138.063 -64.6807 -275.79 -146.45 -391.618c-66.8975 -94.7539 -160.134 -181.412 -273.085 -215.92c-105.793 -32.3174 -221.549 -11.4805 -290.161 80.1523c-65.4131 87.3643 -73.001 201.503 -37.1074 302.261
c43.2568 121.443 137.912 218.955 231.689 303.693c102.942 93.0186 215.425 174.518 324.787 259.651c36.4541 28.3779 72.499 57.3037 107.871 87.0215c-1.98633 66.6992 -5.36426 133.365 -9.41504 199.887c-13.7441 225.771 -39.8789 450.552 -59.3828 675.795
c-55.1328 -162.12 -98.8252 -328.113 -149.914 -491.579c-59.4814 -190.34 -128.991 -386.208 -243.803 -551.139c-52.1768 -74.9531 -121.502 -138.182 -213.103 -158.088c-90.9209 -19.7549 -184.329 16.5146 -250.963 78.4834
c-72.2812 67.2334 -112.773 165.108 -143.54 256.9c-34.8242 103.912 -56.2412 211.492 -68.6055 320.261c-26.3789 231.999 -15.9141 466.063 -19.7012 699.02c-0.751953 46.1133 116.225 46.4102 118.145 0c9.96289 -241.025 -6.7627 -483.152 19.2793 -723.465
c11.0908 -102.361 28.4766 -204.842 59.0059 -303.311c25.8574 -83.3984 57.5215 -172.307 120.137 -235.7c31.9609 -32.3633 74.2275 -58.8281 120.75 -61.25c50.1123 -2.60645 96.8926 22.1426 134.105 53.707c71.3379 60.5107 118.329 149.115 160.372 231.188
c161.592 315.478 221.567 669.349 348.691 998.279c-1.97949 26.7021 -3.87988 53.4043 -5.54883 80.126c-2.83691 45.3154 110.293 45.2559 116.601 0c24.2412 -174.003 37.7275 -349.952 51.8604 -525.023c11.9688 -148.244 20.9746 -296.983 24.9863 -445.729
c30.0342 31.2148 54.4736 66.9824 55.6416 111.255c0.495117 18.9697 48.3311 18.6592 48.041 0zM1208.59 -87.3477c1.94629 57.3701 2.06641 114.804 1.01074 172.239c-15.4922 -12.5557 -31.0771 -25.0059 -46.7539 -37.3311
c-113.506 -89.2578 -231.155 -173.58 -338.617 -270.273c-92.3066 -83.0557 -184.798 -176.998 -228.708 -295.677c-37.252 -100.679 -28.5693 -222.695 46.7402 -304.518c92.0752 -100.039 232.039 -57.0332 326.232 17.1748
c95.8164 75.4883 152.586 188.308 185.385 303.753c38.0176 133.801 50.0264 276.094 54.7109 414.632z" />
    <glyph glyph-name="Y" unicode="&#xdd;" horiz-adv-x="1502" 
d="M1422.07 344.344c-1.00977 -64.0801 -45.667 -111.537 -89.7217 -153.098c-4.19629 -3.95215 -8.53809 -7.74609 -12.7744 -11.6592c0.112305 -5.95801 0.28418 -11.916 0.376953 -17.874c2.375 -150.652 -2.56055 -303.607 -29.0645 -452.228
c-24.624 -138.063 -64.6807 -275.79 -146.45 -391.618c-66.8975 -94.7539 -160.134 -181.412 -273.085 -215.92c-105.793 -32.3174 -221.549 -11.4805 -290.161 80.1523c-65.4131 87.3643 -73.001 201.503 -37.1074 302.261
c43.2568 121.443 137.912 218.955 231.689 303.693c102.942 93.0186 215.425 174.518 324.787 259.651c36.4541 28.3779 72.499 57.3037 107.871 87.0215c-1.98633 66.6992 -5.36426 133.365 -9.41504 199.887c-13.7441 225.771 -39.8789 450.552 -59.3828 675.795
c-55.1328 -162.12 -98.8252 -328.113 -149.914 -491.579c-59.4814 -190.34 -128.991 -386.208 -243.803 -551.139c-52.1768 -74.9531 -121.502 -138.182 -213.103 -158.088c-90.9209 -19.7549 -184.329 16.5146 -250.963 78.4834
c-72.2812 67.2334 -112.773 165.108 -143.54 256.9c-34.8242 103.912 -56.2412 211.492 -68.6055 320.261c-26.3789 231.999 -15.9141 466.063 -19.7012 699.02c-0.751953 46.1133 116.225 46.4102 118.145 0c9.96289 -241.025 -6.7627 -483.152 19.2793 -723.465
c11.0908 -102.361 28.4766 -204.842 59.0059 -303.311c25.8574 -83.3984 57.5215 -172.307 120.137 -235.7c31.9609 -32.3633 74.2275 -58.8281 120.75 -61.25c50.1123 -2.60645 96.8926 22.1426 134.105 53.707c71.3379 60.5107 118.329 149.115 160.372 231.188
c161.592 315.478 221.567 669.349 348.691 998.279c-1.97949 26.7021 -3.87988 53.4043 -5.54883 80.126c-2.83691 45.3154 110.293 45.2559 116.601 0c24.2412 -174.003 37.7275 -349.952 51.8604 -525.023c11.9688 -148.244 20.9746 -296.983 24.9863 -445.729
c30.0342 31.2148 54.4736 66.9824 55.6416 111.255c0.495117 18.9697 48.3311 18.6592 48.041 0zM1208.59 -87.3477c1.94629 57.3701 2.06641 114.804 1.01074 172.239c-15.4922 -12.5557 -31.0771 -25.0059 -46.7539 -37.3311
c-113.506 -89.2578 -231.155 -173.58 -338.617 -270.273c-92.3066 -83.0557 -184.798 -176.998 -228.708 -295.677c-37.252 -100.679 -28.5693 -222.695 46.7402 -304.518c92.0752 -100.039 232.039 -57.0332 326.232 17.1748
c95.8164 75.4883 152.586 188.308 185.385 303.753c38.0176 133.801 50.0264 276.094 54.7109 414.632z" />
    <glyph glyph-name="Z" unicode="Z" horiz-adv-x="1762" 
d="M1544.64 1213.86c97.835 -79.2021 147.457 -195.861 147.22 -320.676c-0.416016 -209.434 -93.3555 -406.517 -212.331 -578.203c12.7207 0.950195 25.4482 1.73535 38.1953 2.10449c38.8164 1.12207 76.7158 -5.48242 115.281 -5.83203
c11.4941 -0.105469 35.5039 -5.82617 29.625 -22.1699c-5.38379 -14.9707 -34.0195 -14.5488 -45.1309 -10.4648c-35.2598 12.959 -81.1553 9.42285 -118.038 7.50977c-14.3242 -0.745117 -28.6221 -2.03125 -42.8936 -3.56152
c-24.9277 -34.4023 -50.752 -67.7227 -76.9326 -99.8223c-160.8 -197.129 -347.009 -375.256 -556.278 -520.293c-42.6367 -29.5527 -86.9619 -58.1416 -132.64 -85.2002c152.15 27.3027 305.771 46.4307 459.928 57.416c111.407 7.9375 226.008 11.3623 336.386 -9.06543
c74.4912 -13.7832 158.734 -47.2686 176.549 -128.847c6.14258 -28.1406 -73.7334 -32.1523 -80.5166 0c-10.0615 47.6709 -58.0156 70.8164 -101.088 81.8545c-60.4053 15.4785 -125.732 17.0156 -187.747 16.9961c-131.802 -0.0458984 -264.185 -14.377 -394.667 -32.0068
c-114.706 -15.499 -230.62 -34.7188 -345.208 -60.0156c-138.308 -67.3652 -285.806 -116.725 -435.864 -133.015c-19.7148 -2.1377 -52.2764 -1.44531 -64.6738 18.0918c-11.335 17.8604 4.52637 34.2236 22.4268 39.0205c69.9648 18.7578 139.778 38.248 209.764 57.0791
c55.9375 18.1445 111.031 38.9873 165.214 63.9082c115.874 53.2988 225.711 119.378 329.068 193.988c188.796 136.288 359.855 302.558 508.792 481.226c10.418 12.4902 20.7568 25.165 31.0098 37.9785c-43.6982 -7.64746 -87.3643 -15.4463 -131.386 -21.1201
c-25.2568 -3.25293 -47.5254 23.6143 -13.5986 28.1074c58.043 7.68652 115.459 19.1143 173.139 28.9648c128.786 167.926 237.481 361.347 265.16 572.08c16.1787 123.198 -10.9131 239.455 -107.699 322.201c-96.4697 82.4756 -224.326 108.3 -348.375 102.929
c-127.024 -5.50293 -254.168 -39.1924 -370.841 -88.7568c-57.3828 -24.373 -112.753 -53.6289 -165.491 -86.8564c-49.6826 -31.3008 -118.012 -69.2656 -126.121 -133.616c-2.50684 -19.8604 -51.8398 -18.3955 -49.5898 0c8.27344 67.5439 68.7246 106.967 121.126 141.6
c61.4404 40.6045 126.609 75.0986 194.331 103.984c136.855 58.3789 288.781 95.4795 438.121 94.3184c123.878 -0.962891 248.224 -32.8643 345.775 -111.836z" />
    <glyph glyph-name="bracketleft" unicode="[" horiz-adv-x="419" 
d="M298.44 -210.61c25.5605 10.458 101.214 -13.874 56.2812 -41.5791c-50.8711 -31.3672 -106.38 -53.0156 -167.161 -43.3096c-54.3936 8.67676 -95.5322 41.8379 -111.295 94.9385c-29.9619 100.93 -24.0967 214.97 -25.5215 319.152
c-1.57031 114.641 -0.910156 229.459 4.44043 344c2.69238 57.6465 7.55469 114.785 16 171.897c7.09961 47.9873 10.959 106.492 34.4678 149.986c21.1865 39.1992 61.7441 59.0264 104.763 64.3242c35.6553 4.3877 102.797 1.64941 127.725 -29.0244
c9.69922 -11.9355 -4.7041 -20.4268 -15.7422 -22.0566c-44.7539 -6.5918 -102.883 25.9365 -128.127 -27.1709c-21.252 -44.7148 -19.4043 -106.545 -22.6172 -155.093c-7.33691 -110.886 -8.61035 -222.062 -7.54785 -333.153
c1.08887 -113.941 1.56348 -228.489 9.97559 -342.18c3.46387 -46.7402 4.5791 -102.315 25.9043 -145.117c22.8818 -45.9287 60.8799 -20.9951 98.4551 -5.61523z" />
    <glyph glyph-name="backslash" unicode="\" horiz-adv-x="506" 
d="M453.479 -129.297c21.1074 -55.7529 -114.323 -67.7422 -132.322 -20.791c-118.547 309.309 -163.169 641.043 -269.898 954.376c-12.3057 36.1309 69.4307 40.4854 82.6133 12.9785c144.352 -301.14 201.754 -635.236 319.607 -946.563z" />
    <glyph glyph-name="bracketright" unicode="]" horiz-adv-x="419" 
d="M365.376 417.883c3.94531 -114.99 4.11914 -230.093 1.87598 -345.116c-1.1084 -56.585 -1.99902 -113.36 -7.33691 -169.733c-4.27539 -45.1836 -7.87793 -98.9443 -32.5615 -138.52c-58.7285 -94.1475 -184.988 -64.9971 -263.313 -16.6992
c-45.0771 27.7979 30.6016 52.085 56.2812 41.5811c18.4082 -7.53516 49.3066 -26.043 70.4199 -22.335c15.4258 2.71191 24.1416 19.1611 29.9482 32.3369c19.6484 44.5762 21.0869 99.0029 24.4189 146.924c7.77246 111.685 8.47168 224.075 9.54688 335.984
c1.08203 113.183 -0.0859375 226.543 -7.96387 339.501c-3.2334 46.2852 -0.554688 111.922 -24.2939 153.331c-27.1045 47.2686 -83.2012 16.2715 -126.035 22.5859c-11.0381 1.62988 -25.4414 10.1211 -15.7422 22.0566c28.8857 35.5566 108.035 34.8174 147.92 25.3887
c53.167 -12.5693 85.3848 -47.5254 98.4619 -99.7549c26.709 -106.677 34.6133 -218.024 38.374 -327.531z" />
    <glyph glyph-name="asciicircum" unicode="^" horiz-adv-x="405" 
d="M321.21 685.399c22.2285 -57.9961 34.9414 -120.188 33.3574 -182.341c-1.0752 -42.2012 -104.928 -41.9902 -107.323 0c-2.42188 42.4844 -6.80957 85.2529 -17.9863 126.411c-4.61816 17.0098 -10.2529 33.8018 -16.8047 50.1777
c-4.52637 -5.83887 -8.83496 -11.5127 -11.8037 -16.6719c-9.50781 -16.5146 -18.4746 -33.4258 -26.9463 -50.4951c-17.1289 -34.5078 -29.5596 -71.542 -47.6582 -105.476c-11.1436 -20.8828 -75.8105 -24.8877 -76.041 5.86523
c-0.428711 56.5449 24.8945 116.765 51.1416 165.741c25.2373 47.083 53.5498 92.8467 113.604 92.8467c57.5283 0 87.5166 -36.626 106.46 -86.0586z" />
    <glyph glyph-name="underscore" unicode="_" horiz-adv-x="624" 
d="M523.558 -169.848c16.0195 0.46875 50.5684 -6.80273 50.5684 -28.833c0 -22.9014 -33.874 -28.0605 -50.5674 -28.8193c-80.9844 -3.68848 -162.14 -6.31445 -243.189 -8.0625c-41.6201 -0.897461 -83.2539 -1.53125 -124.881 -1.44531
c-32.126 0.0722656 -69.0488 -5.46973 -98.0469 10.7217c-10.999 6.14258 -8.78223 15.5645 0 21.8594c27.4014 19.6357 73.6201 14.7334 105.931 17.2139c38.9551 2.98926 77.9824 5.19922 116.996 7.27051c80.9775 4.30176 162.126 7.73926 243.189 10.0947z" />
    <glyph glyph-name="grave" unicode="`" horiz-adv-x="208" 
d="M157.355 605.386c5.37109 -32.4092 -84.6924 -36.2891 -89.793 -0.00683594c-5.06055 36.0381 -9.88379 72.0898 -12.8926 108.365c-2.67188 32.1914 -11.5068 71.1787 5.5625 100.25c8.43262 14.3643 40.8818 17.0566 51.4385 3.83398
c21.9453 -27.4873 22.3809 -63.7959 27.6855 -97.6895c5.99121 -38.2549 11.665 -76.5566 17.999 -114.753z" />
    <glyph glyph-name="a" unicode="a" horiz-adv-x="606" 
d="M592.163 224.575c8.37305 16.7256 57.5586 11.2627 48.3086 -7.58105c-35.1475 -71.6279 -66.6992 -152.328 -119.807 -213.03c-42.7021 -48.8125 -115.465 -67.0498 -169.166 -24.0176c-62.3447 49.9668 -70.5654 147.387 -76.5898 221.146
c-0.864258 10.5635 -1.65625 21.1992 -2.38184 31.8682c-12.2461 -49.8086 -25.3691 -100.099 -45.9219 -147.023c-31.5322 -71.9775 -88.2686 -118.368 -169.299 -90.5645c-94.1006 32.2842 -93.0449 160.232 -74.2402 239.982
c21.002 89.0537 70.9492 170.144 163.058 197.552c38.8428 11.5527 85.332 12.6611 126.088 0.170898c0.930664 10.8408 2.0459 21.6416 3.37891 32.3701c6.21484 50.0859 121.469 50.0664 127.427 0.000976562c15.5449 -130.588 -7.28418 -263.05 11.8896 -394.014
c2.4541 -16.7852 4.89551 -65.0098 22.0244 -75.4873c20.876 -12.7734 57.1455 46.1602 65.4189 58.9336c34.666 53.4971 61.3223 112.793 89.8125 169.694zM202.105 162.356c21.3447 69.1338 32.7666 142.479 52.3496 212.431
c-14.0273 9.05859 -29.6055 14.3564 -46.4902 10.0146c-35.4902 -9.125 -63.0967 -42.4385 -80.8389 -72.5713c-39.5615 -67.2012 -58.3857 -162.853 -40.8682 -239.601c3.12109 -13.6846 9.89746 -38.7373 21.5957 -48.0273
c17.1416 -13.6113 35.7412 11.1045 46.1533 25.9307c23.1719 32.9766 36.3281 73.6934 48.0986 111.823z" />
    <glyph glyph-name="a" unicode="&#xe5;" horiz-adv-x="606" 
d="M592.163 224.575c8.37305 16.7256 57.5586 11.2627 48.3086 -7.58105c-35.1475 -71.6279 -66.6992 -152.328 -119.807 -213.03c-42.7021 -48.8125 -115.465 -67.0498 -169.166 -24.0176c-62.3447 49.9668 -70.5654 147.387 -76.5898 221.146
c-0.864258 10.5635 -1.65625 21.1992 -2.38184 31.8682c-12.2461 -49.8086 -25.3691 -100.099 -45.9219 -147.023c-31.5322 -71.9775 -88.2686 -118.368 -169.299 -90.5645c-94.1006 32.2842 -93.0449 160.232 -74.2402 239.982
c21.002 89.0537 70.9492 170.144 163.058 197.552c38.8428 11.5527 85.332 12.6611 126.088 0.170898c0.930664 10.8408 2.0459 21.6416 3.37891 32.3701c6.21484 50.0859 121.469 50.0664 127.427 0.000976562c15.5449 -130.588 -7.28418 -263.05 11.8896 -394.014
c2.4541 -16.7852 4.89551 -65.0098 22.0244 -75.4873c20.876 -12.7734 57.1455 46.1602 65.4189 58.9336c34.666 53.4971 61.3223 112.793 89.8125 169.694zM202.105 162.356c21.3447 69.1338 32.7666 142.479 52.3496 212.431
c-14.0273 9.05859 -29.6055 14.3564 -46.4902 10.0146c-35.4902 -9.125 -63.0967 -42.4385 -80.8389 -72.5713c-39.5615 -67.2012 -58.3857 -162.853 -40.8682 -239.601c3.12109 -13.6846 9.89746 -38.7373 21.5957 -48.0273
c17.1416 -13.6113 35.7412 11.1045 46.1533 25.9307c23.1719 32.9766 36.3281 73.6934 48.0986 111.823z" />
    <glyph glyph-name="a" unicode="&#xe4;" horiz-adv-x="606" 
d="M592.163 224.575c8.37305 16.7256 57.5586 11.2627 48.3086 -7.58105c-35.1475 -71.6279 -66.6992 -152.328 -119.807 -213.03c-42.7021 -48.8125 -115.465 -67.0498 -169.166 -24.0176c-62.3447 49.9668 -70.5654 147.387 -76.5898 221.146
c-0.864258 10.5635 -1.65625 21.1992 -2.38184 31.8682c-12.2461 -49.8086 -25.3691 -100.099 -45.9219 -147.023c-31.5322 -71.9775 -88.2686 -118.368 -169.299 -90.5645c-94.1006 32.2842 -93.0449 160.232 -74.2402 239.982
c21.002 89.0537 70.9492 170.144 163.058 197.552c38.8428 11.5527 85.332 12.6611 126.088 0.170898c0.930664 10.8408 2.0459 21.6416 3.37891 32.3701c6.21484 50.0859 121.469 50.0664 127.427 0.000976562c15.5449 -130.588 -7.28418 -263.05 11.8896 -394.014
c2.4541 -16.7852 4.89551 -65.0098 22.0244 -75.4873c20.876 -12.7734 57.1455 46.1602 65.4189 58.9336c34.666 53.4971 61.3223 112.793 89.8125 169.694zM202.105 162.356c21.3447 69.1338 32.7666 142.479 52.3496 212.431
c-14.0273 9.05859 -29.6055 14.3564 -46.4902 10.0146c-35.4902 -9.125 -63.0967 -42.4385 -80.8389 -72.5713c-39.5615 -67.2012 -58.3857 -162.853 -40.8682 -239.601c3.12109 -13.6846 9.89746 -38.7373 21.5957 -48.0273
c17.1416 -13.6113 35.7412 11.1045 46.1533 25.9307c23.1719 32.9766 36.3281 73.6934 48.0986 111.823z" />
    <glyph glyph-name="a" unicode="&#xe3;" horiz-adv-x="606" 
d="M592.163 224.575c8.37305 16.7256 57.5586 11.2627 48.3086 -7.58105c-35.1475 -71.6279 -66.6992 -152.328 -119.807 -213.03c-42.7021 -48.8125 -115.465 -67.0498 -169.166 -24.0176c-62.3447 49.9668 -70.5654 147.387 -76.5898 221.146
c-0.864258 10.5635 -1.65625 21.1992 -2.38184 31.8682c-12.2461 -49.8086 -25.3691 -100.099 -45.9219 -147.023c-31.5322 -71.9775 -88.2686 -118.368 -169.299 -90.5645c-94.1006 32.2842 -93.0449 160.232 -74.2402 239.982
c21.002 89.0537 70.9492 170.144 163.058 197.552c38.8428 11.5527 85.332 12.6611 126.088 0.170898c0.930664 10.8408 2.0459 21.6416 3.37891 32.3701c6.21484 50.0859 121.469 50.0664 127.427 0.000976562c15.5449 -130.588 -7.28418 -263.05 11.8896 -394.014
c2.4541 -16.7852 4.89551 -65.0098 22.0244 -75.4873c20.876 -12.7734 57.1455 46.1602 65.4189 58.9336c34.666 53.4971 61.3223 112.793 89.8125 169.694zM202.105 162.356c21.3447 69.1338 32.7666 142.479 52.3496 212.431
c-14.0273 9.05859 -29.6055 14.3564 -46.4902 10.0146c-35.4902 -9.125 -63.0967 -42.4385 -80.8389 -72.5713c-39.5615 -67.2012 -58.3857 -162.853 -40.8682 -239.601c3.12109 -13.6846 9.89746 -38.7373 21.5957 -48.0273
c17.1416 -13.6113 35.7412 11.1045 46.1533 25.9307c23.1719 32.9766 36.3281 73.6934 48.0986 111.823z" />
    <glyph glyph-name="a" unicode="&#xe2;" horiz-adv-x="606" 
d="M592.163 224.575c8.37305 16.7256 57.5586 11.2627 48.3086 -7.58105c-35.1475 -71.6279 -66.6992 -152.328 -119.807 -213.03c-42.7021 -48.8125 -115.465 -67.0498 -169.166 -24.0176c-62.3447 49.9668 -70.5654 147.387 -76.5898 221.146
c-0.864258 10.5635 -1.65625 21.1992 -2.38184 31.8682c-12.2461 -49.8086 -25.3691 -100.099 -45.9219 -147.023c-31.5322 -71.9775 -88.2686 -118.368 -169.299 -90.5645c-94.1006 32.2842 -93.0449 160.232 -74.2402 239.982
c21.002 89.0537 70.9492 170.144 163.058 197.552c38.8428 11.5527 85.332 12.6611 126.088 0.170898c0.930664 10.8408 2.0459 21.6416 3.37891 32.3701c6.21484 50.0859 121.469 50.0664 127.427 0.000976562c15.5449 -130.588 -7.28418 -263.05 11.8896 -394.014
c2.4541 -16.7852 4.89551 -65.0098 22.0244 -75.4873c20.876 -12.7734 57.1455 46.1602 65.4189 58.9336c34.666 53.4971 61.3223 112.793 89.8125 169.694zM202.105 162.356c21.3447 69.1338 32.7666 142.479 52.3496 212.431
c-14.0273 9.05859 -29.6055 14.3564 -46.4902 10.0146c-35.4902 -9.125 -63.0967 -42.4385 -80.8389 -72.5713c-39.5615 -67.2012 -58.3857 -162.853 -40.8682 -239.601c3.12109 -13.6846 9.89746 -38.7373 21.5957 -48.0273
c17.1416 -13.6113 35.7412 11.1045 46.1533 25.9307c23.1719 32.9766 36.3281 73.6934 48.0986 111.823z" />
    <glyph glyph-name="a" unicode="&#xe1;" horiz-adv-x="606" 
d="M592.163 224.575c8.37305 16.7256 57.5586 11.2627 48.3086 -7.58105c-35.1475 -71.6279 -66.6992 -152.328 -119.807 -213.03c-42.7021 -48.8125 -115.465 -67.0498 -169.166 -24.0176c-62.3447 49.9668 -70.5654 147.387 -76.5898 221.146
c-0.864258 10.5635 -1.65625 21.1992 -2.38184 31.8682c-12.2461 -49.8086 -25.3691 -100.099 -45.9219 -147.023c-31.5322 -71.9775 -88.2686 -118.368 -169.299 -90.5645c-94.1006 32.2842 -93.0449 160.232 -74.2402 239.982
c21.002 89.0537 70.9492 170.144 163.058 197.552c38.8428 11.5527 85.332 12.6611 126.088 0.170898c0.930664 10.8408 2.0459 21.6416 3.37891 32.3701c6.21484 50.0859 121.469 50.0664 127.427 0.000976562c15.5449 -130.588 -7.28418 -263.05 11.8896 -394.014
c2.4541 -16.7852 4.89551 -65.0098 22.0244 -75.4873c20.876 -12.7734 57.1455 46.1602 65.4189 58.9336c34.666 53.4971 61.3223 112.793 89.8125 169.694zM202.105 162.356c21.3447 69.1338 32.7666 142.479 52.3496 212.431
c-14.0273 9.05859 -29.6055 14.3564 -46.4902 10.0146c-35.4902 -9.125 -63.0967 -42.4385 -80.8389 -72.5713c-39.5615 -67.2012 -58.3857 -162.853 -40.8682 -239.601c3.12109 -13.6846 9.89746 -38.7373 21.5957 -48.0273
c17.1416 -13.6113 35.7412 11.1045 46.1533 25.9307c23.1719 32.9766 36.3281 73.6934 48.0986 111.823z" />
    <glyph glyph-name="b" unicode="b" horiz-adv-x="678" 
d="M666.231 223.295c13.8496 12.332 63.6982 1.63281 45.0322 -15.0205c-54.1104 -48.2842 -116.719 -79.7695 -182.118 -105.885c-25.0527 -137.727 -110.562 -288.637 -251.041 -323.719c-57.0332 -14.2451 -149.445 -8.99316 -177.263 54.4463
c-33.2998 75.9365 42.9932 137.034 99.71 171.265c67.6035 40.8018 143.342 65.5508 218.229 91.6523c6.25488 24.1025 10.9395 48.0596 14.0869 71.1328c8.35352 61.2295 10.0293 132.065 -12.4043 190.55c-11.2627 29.3613 -29.9551 64.832 -65.2217 67.9268
c-36.0518 3.16699 -70.6846 -28.0088 -93.6455 -52.7646c-92.959 -100.217 -124.319 -248.765 -125.276 -381.121c-0.00683594 -1.44531 -0.363281 -2.75195 -0.87793 -3.97949c-0.112305 -7.17871 -0.574219 -14.252 -1.54395 -21.1338
c-3.5625 -25.2441 -52.9424 -26.5508 -66.8574 -10.3193c-28.7939 33.5967 -40.8223 78.1201 -51.5049 120.295c-11.1904 44.1807 -19.3584 89.377 -26.2598 134.401c-13.6777 89.2246 -23.5156 178.7 -29.4805 268.77c-12.0879 182.64 -16.7129 370.742 8.33984 552.491
c6.7168 48.7324 127.131 49.4189 125.877 0c-4.55957 -180.284 -13.9688 -359.249 -4.51367 -539.651c4.7041 -89.7266 12.0146 -179.525 21.6084 -268.855c0.811523 -7.55469 1.64941 -15.1025 2.48047 -22.6504c8.33301 26.293 18.3887 51.999 30.127 76.7549
c34.3164 72.4004 87.6016 152.349 169.714 174.347c65.0039 17.4189 137.153 -15.3867 175.712 -68.6523c46.8984 -64.7988 53.002 -161.341 45.9092 -238.373c-0.131836 -1.47168 -0.323242 -2.96289 -0.474609 -4.44043c47.1621 21.3047 91.916 47.1289 131.656 82.5342z
M258.706 -155.791c72.3008 46.6211 120.782 128.706 148.89 213.787c-29.374 -10.4775 -58.6162 -21.252 -87.252 -33.3066c-56.875 -23.9443 -140.993 -59.6523 -164.918 -121.766c-12.8525 -33.373 -0.197266 -78.7012 41.0869 -80.8916
c21.8926 -1.16113 44.4512 10.7354 62.1934 22.1768z" />
    <glyph glyph-name="c" unicode="c" horiz-adv-x="443" 
d="M430.976 226.627c8.51758 15.6377 55.5527 10.5459 46.3154 -7.28223c-48.9375 -94.4834 -107.237 -200.454 -200.546 -258.107c-76.708 -47.3936 -175.579 -43.8105 -241.223 20.9287c-73.4229 72.4199 -69.3584 188.459 -47.8623 281.604
c22.0176 95.4072 85.6094 190.979 190.604 203.403c38.6318 4.56543 83.6963 -3.94629 108.307 -36.7314c28.8535 -38.4404 27.1709 -96.7012 27.1846 -142.122c0.00683594 -21.041 -52.6523 -21.0547 -53.7148 0c-1.32617 26.3916 -2.02539 137.304 -45.9355 135.76
c-15.1357 -0.53418 -35.0811 -25.2969 -43.9756 -35.2793c-13.9082 -15.6172 -26.1348 -32.7324 -35.999 -51.1738c-40.1748 -75.1055 -59.1504 -177.553 -41.1045 -261.631c8.03613 -37.4307 25.6396 -74.8477 57.2842 -97.9014
c41.9961 -30.5947 86.2754 -2.89648 120.803 26.7021c69.5166 59.5928 116.606 142.438 159.863 221.831z" />
    <glyph glyph-name="d" unicode="d" horiz-adv-x="516" 
d="M504.888 -59.252c15.0498 10.2734 59.376 -2.91504 35.4248 -20.1816c-32.6738 -23.5615 -73.2842 -20.1836 -109.659 -7.51562c-43.3164 15.083 -71.2256 48.7324 -89.166 89.9697c-38.1562 87.6943 -47.5781 187.688 -55.4297 283.458
c-2.98242 -11.2363 -5.91895 -22.4268 -8.63086 -33.5176c-13.75 -56.2607 -27.5068 -113.809 -50.8174 -167.021c-31.5322 -71.9775 -88.2686 -118.368 -169.299 -90.5645c-94.1006 32.2842 -93.0449 160.232 -74.2402 239.982
c21.002 89.0537 70.9492 170.144 163.058 197.552c39.8516 11.8564 87.7598 12.7539 129.262 -0.791992c-4.63867 84.6855 -6.32129 169.582 -5.95215 254.333c0.507812 115.564 0.831055 234.718 21.4434 348.725c7.30371 40.3799 106.354 42.9395 106.809 0
c1.04883 -98.9111 -8.35352 -198.093 -10.834 -296.997c-2.43457 -96.9648 -1.77441 -194.009 2.01953 -290.934c3.75391 -95.9883 8.35254 -192.233 18.5596 -287.772c3.85352 -36.0645 24.7031 -268.374 97.4531 -218.724zM202.112 162.356
c21.3447 69.1338 32.7666 142.479 52.3564 212.431c-14.0342 9.05859 -29.6123 14.3564 -46.4971 10.0146c-35.4902 -9.125 -63.0967 -42.4385 -80.8389 -72.5713c-39.5615 -67.2012 -58.3857 -162.853 -40.8682 -239.601
c3.12109 -13.6846 9.89746 -38.7373 21.5957 -48.0273c17.1416 -13.6113 35.7344 11.1045 46.1523 25.9307c23.166 32.9766 36.3291 73.6934 48.0996 111.823z" />
    <glyph glyph-name="e" unicode="e" horiz-adv-x="333" 
d="M320.62 227.9c7.52148 16.3438 55.1533 11.5938 46.8203 -7.3623c-39.1855 -89.1328 -97.4199 -204.143 -197.419 -235.635c-106.703 -33.6104 -170.73 66.0596 -187.7 156.974c-16.8115 90.0361 -7.33008 197.234 56.5918 267.424
c30.4033 33.3857 69.9717 55.4629 116.052 52.7314c36.3223 -2.15137 67.3984 -22.9814 71.2578 -61.1836c7.08008 -69.9785 -60.292 -103.443 -119.786 -94.7539c-11.1641 -46.2451 -13.625 -93.6719 -9.92383 -142.068c2.69238 -35.207 10.2998 -70.6387 25.4756 -102.698
c5.16602 -10.9199 14.8779 -33.9209 27.4863 -38.8896c18.2637 -7.19824 39.7002 12.0742 52.5996 24.1221c52.21 48.7598 89.0068 117.161 118.546 181.34zM121.691 354.847c-2.2959 -5.88574 -4.375 -11.8037 -6.34766 -17.7285
c19.8867 -5.21875 39.166 5.30469 49.0635 24.9668c6.80957 13.5322 12.002 38.1562 0.633789 51.042c-7.11914 8.06934 0.706055 7.84473 -9.07227 2.71191c-5.21289 -2.73828 -10.0752 -12.3057 -13.2227 -17.2539c-8.83496 -13.8887 -15.1035 -28.457 -21.0547 -43.7383z
" />
    <glyph glyph-name="e" unicode="&#xeb;" horiz-adv-x="333" 
d="M320.62 227.9c7.52148 16.3438 55.1533 11.5938 46.8203 -7.3623c-39.1855 -89.1328 -97.4199 -204.143 -197.419 -235.635c-106.703 -33.6104 -170.73 66.0596 -187.7 156.974c-16.8115 90.0361 -7.33008 197.234 56.5918 267.424
c30.4033 33.3857 69.9717 55.4629 116.052 52.7314c36.3223 -2.15137 67.3984 -22.9814 71.2578 -61.1836c7.08008 -69.9785 -60.292 -103.443 -119.786 -94.7539c-11.1641 -46.2451 -13.625 -93.6719 -9.92383 -142.068c2.69238 -35.207 10.2998 -70.6387 25.4756 -102.698
c5.16602 -10.9199 14.8779 -33.9209 27.4863 -38.8896c18.2637 -7.19824 39.7002 12.0742 52.5996 24.1221c52.21 48.7598 89.0068 117.161 118.546 181.34zM121.691 354.847c-2.2959 -5.88574 -4.375 -11.8037 -6.34766 -17.7285
c19.8867 -5.21875 39.166 5.30469 49.0635 24.9668c6.80957 13.5322 12.002 38.1562 0.633789 51.042c-7.11914 8.06934 0.706055 7.84473 -9.07227 2.71191c-5.21289 -2.73828 -10.0752 -12.3057 -13.2227 -17.2539c-8.83496 -13.8887 -15.1035 -28.457 -21.0547 -43.7383z
" />
    <glyph glyph-name="e" unicode="&#xea;" horiz-adv-x="333" 
d="M320.62 227.9c7.52148 16.3438 55.1533 11.5938 46.8203 -7.3623c-39.1855 -89.1328 -97.4199 -204.143 -197.419 -235.635c-106.703 -33.6104 -170.73 66.0596 -187.7 156.974c-16.8115 90.0361 -7.33008 197.234 56.5918 267.424
c30.4033 33.3857 69.9717 55.4629 116.052 52.7314c36.3223 -2.15137 67.3984 -22.9814 71.2578 -61.1836c7.08008 -69.9785 -60.292 -103.443 -119.786 -94.7539c-11.1641 -46.2451 -13.625 -93.6719 -9.92383 -142.068c2.69238 -35.207 10.2998 -70.6387 25.4756 -102.698
c5.16602 -10.9199 14.8779 -33.9209 27.4863 -38.8896c18.2637 -7.19824 39.7002 12.0742 52.5996 24.1221c52.21 48.7598 89.0068 117.161 118.546 181.34zM121.691 354.847c-2.2959 -5.88574 -4.375 -11.8037 -6.34766 -17.7285
c19.8867 -5.21875 39.166 5.30469 49.0635 24.9668c6.80957 13.5322 12.002 38.1562 0.633789 51.042c-7.11914 8.06934 0.706055 7.84473 -9.07227 2.71191c-5.21289 -2.73828 -10.0752 -12.3057 -13.2227 -17.2539c-8.83496 -13.8887 -15.1035 -28.457 -21.0547 -43.7383z
" />
    <glyph glyph-name="e" unicode="&#xe9;" horiz-adv-x="333" 
d="M320.62 227.9c7.52148 16.3438 55.1533 11.5938 46.8203 -7.3623c-39.1855 -89.1328 -97.4199 -204.143 -197.419 -235.635c-106.703 -33.6104 -170.73 66.0596 -187.7 156.974c-16.8115 90.0361 -7.33008 197.234 56.5918 267.424
c30.4033 33.3857 69.9717 55.4629 116.052 52.7314c36.3223 -2.15137 67.3984 -22.9814 71.2578 -61.1836c7.08008 -69.9785 -60.292 -103.443 -119.786 -94.7539c-11.1641 -46.2451 -13.625 -93.6719 -9.92383 -142.068c2.69238 -35.207 10.2998 -70.6387 25.4756 -102.698
c5.16602 -10.9199 14.8779 -33.9209 27.4863 -38.8896c18.2637 -7.19824 39.7002 12.0742 52.5996 24.1221c52.21 48.7598 89.0068 117.161 118.546 181.34zM121.691 354.847c-2.2959 -5.88574 -4.375 -11.8037 -6.34766 -17.7285
c19.8867 -5.21875 39.166 5.30469 49.0635 24.9668c6.80957 13.5322 12.002 38.1562 0.633789 51.042c-7.11914 8.06934 0.706055 7.84473 -9.07227 2.71191c-5.21289 -2.73828 -10.0752 -12.3057 -13.2227 -17.2539c-8.83496 -13.8887 -15.1035 -28.457 -21.0547 -43.7383z
" />
    <glyph glyph-name="f" unicode="f" horiz-adv-x="325" 
d="M357.358 220.814c-56.5781 -58.5898 -120.485 -108.904 -190.339 -149.99c67.5967 -1.0957 136.269 -23.001 168.024 -82.4619c38.1104 -71.3711 1.63672 -167.834 -74.7744 -194.912c-86.46 -30.6416 -171.317 25.3428 -212.885 99.3135
c-52.1445 92.7939 -59.541 205.666 -67.4785 309.624c-8.89453 116.554 -14.0078 234.209 -11.0781 351.105c1.28027 51.1738 129.671 50.7256 130.001 0c0.692383 -106.519 0.0322266 -212.826 5.7002 -319.259c2.65234 -49.874 4.11719 -101.557 8.55762 -152.79
c74.5381 41.0332 142.365 92.207 202.341 153.338c12.1006 12.332 58.5244 3.21387 41.9307 -13.9678zM295.278 -98.5801c19.7344 108.643 -88.0439 150.211 -177.52 136.322c4.48633 -35.0557 10.9189 -69.5967 20.7764 -102.864
c10.5967 -35.7676 27.0195 -82.1914 57.2451 -106.208c45.9287 -36.4932 92.1475 32.2842 99.498 72.75z" />
    <glyph glyph-name="g" unicode="g" horiz-adv-x="521" 
d="M513.29 228.501c11.8828 11.7119 57.8945 3.70312 41.4854 -13.8145c-39.5088 -42.1748 -85.3711 -76.623 -133.128 -108.591c2.0127 -60.2002 1.24023 -120.275 -4.43359 -179.783c-11.8037 -123.884 -55.5488 -243.882 -181.333 -289.916
c-97.3799 -35.6426 -220.559 22.5518 -206.656 138.103c13.1826 109.6 117.022 193.539 201.609 252.011c22.2354 15.373 44.9189 30.0732 67.6758 44.6348c-5.35742 63.4863 -12.9717 127.005 -18.8633 190.597c-0.739258 -2.92969 -1.51074 -5.86621 -2.22363 -8.78223
c-13.75 -56.2607 -27.5068 -113.809 -50.8174 -167.021c-31.5322 -71.9775 -88.2686 -118.368 -169.299 -90.5645c-94.1006 32.2842 -93.0449 160.232 -74.2402 239.982c21.001 89.0537 70.9482 170.144 163.057 197.552c38.4404 11.4414 84.376 12.6426 124.828 0.554688
v0.375c0.435547 48.6211 118.579 47.9814 123.304 0.000976562c9.17773 -93.1709 20.2158 -187.991 25.4287 -282.765c32.8516 23.5088 64.4697 48.7197 93.6064 77.4277zM202.105 162.356c21.3379 69.1338 32.7666 142.479 52.3496 212.431
c-14.0273 9.05859 -29.6055 14.3564 -46.4902 10.0146c-35.4902 -9.125 -63.0967 -42.4385 -80.8389 -72.5713c-39.5615 -67.2012 -58.3857 -162.853 -40.8682 -239.601c3.12109 -13.6846 9.89746 -38.7373 21.5957 -48.0273
c17.1416 -13.6113 35.7412 11.1045 46.1533 25.9307c23.1719 32.9766 36.3281 73.6934 48.0986 111.823zM263.046 -284.935c54.4736 89.8389 46.9658 210.411 38.8369 313.954c-2.11816 -1.39258 -4.25586 -2.76465 -6.36719 -4.16309
c-80.1064 -52.916 -169.866 -119.682 -204.559 -213.222c-19.3057 -52.0518 -12.5166 -119.84 42.7881 -146.291c53.292 -25.4951 101.352 3.63477 129.301 49.7217z" />
    <glyph glyph-name="h" unicode="h" horiz-adv-x="575" 
d="M558.752 213.517c5.6416 17.96 56.5244 13.8008 49.8008 -7.82129c-16.3301 -52.5137 -33.9795 -104.697 -60.6748 -152.995c-20.8428 -37.708 -49.1943 -81.7891 -89.4619 -100.937c-40.5449 -19.2861 -100.191 -10.333 -134.468 18.0977
c-43.2568 35.8936 -57.7197 89.1465 -63.5986 142.888c-7.00684 64.0469 -4.44727 129.156 -4.4873 193.474c-0.0195312 27.0918 -0.711914 52.8369 -5.66016 79.5195c-0.244141 2.51367 -0.620117 4.99414 -1.05566 7.46191
c-0.0126953 -0.00683594 -0.0195312 -0.0136719 -0.0263672 -0.0205078c-8.10254 -12.4707 -14.3047 -26.1484 -19.9521 -39.8594c-47.2617 -114.799 -69.1738 -242.847 -97.6309 -363.234c-0.0136719 -0.0458984 -0.046875 -0.0791016 -0.0605469 -0.125
c-0.0458984 -7.93066 -0.514648 -15.7295 -1.58398 -23.3105c-3.55664 -25.2441 -52.9424 -26.5508 -66.8574 -10.3193c-28.7939 33.5967 -40.8223 78.1201 -51.5049 120.295c-11.1904 44.1807 -19.3584 89.377 -26.2598 134.401
c-13.6777 89.2246 -23.5156 178.7 -29.4805 268.77c-12.0879 182.64 -16.7129 370.742 8.33984 552.491c6.7168 48.7324 127.131 49.4189 125.877 0c-4.56543 -180.284 -13.9678 -359.249 -4.5127 -539.651c4.7041 -89.7266 12.0146 -179.525 21.6084 -268.855
c2.87012 -26.7422 5.83301 -53.4707 8.70996 -80.2129c15.6641 70.4932 33.9336 140.551 59.0518 207.224c13.0176 34.541 32.6133 85.8535 74.9795 89.4893c54.6445 4.69141 87.3574 -45.4863 101.504 -91.4346c17.9268 -58.2344 17.7422 -119.886 21.002 -180.198
c2.73145 -50.6133 4.68457 -111.546 26.0625 -158.372c3.16699 -6.94141 12.9912 -26.9268 20.6387 -30.1006c12.4639 -5.17285 26.2207 12.3643 33.8613 20.335c18.5078 19.3057 34.0332 41.4219 47.1172 64.6992c26.1084 46.4434 42.8145 97.6963 58.7227 148.303z" />
    <glyph glyph-name="i" unicode="i" horiz-adv-x="317" 
d="M302.719 224.575c8.37305 16.7256 57.5605 11.2637 48.3105 -7.58691c-35.1475 -71.6279 -66.6992 -152.328 -119.807 -213.03c-42.7021 -48.8125 -115.465 -67.0498 -169.166 -24.0176c-62.3447 49.9668 -70.5654 147.387 -76.5898 221.146
c-7.09277 86.8691 -10.0752 177.77 0.672852 264.361c6.21484 50.0859 121.469 50.0664 127.427 0.000976562c15.5449 -130.588 -7.28418 -263.05 11.8896 -394.014c2.4541 -16.7852 4.89551 -65.0098 22.0244 -75.4873c20.8828 -12.7734 57.1523 46.1602 65.4258 58.9336
c34.666 53.4971 61.3223 112.793 89.8125 169.694zM20.085 555.414c-33.3662 17.9404 -74.9072 82.0469 -42.1484 117.399c14.7402 15.9082 47.2617 14.0938 60.959 -2.52051c1.18066 -1.43164 2.22949 -2.95605 3.21289 -4.51953
c2.66602 2.81738 5.46387 5.52246 8.47266 8.03613c17.4121 14.5488 47.2549 25.1846 68.5664 11.9883c22.4658 -13.915 6.76953 -46.252 -2.86328 -63.4531c-13.6514 -24.373 -34.8574 -43.5869 -53.2324 -64.2783c-3.76758 -4.24219 -10.9199 -6.33398 -18.6396 -6.68359
c-8.35938 -1.1875 -17.4717 0.342773 -24.3271 4.03125z" />
    <glyph glyph-name="i" unicode="&#xef;" horiz-adv-x="317" 
d="M302.719 224.575c8.37305 16.7256 57.5605 11.2637 48.3105 -7.58691c-35.1475 -71.6279 -66.6992 -152.328 -119.807 -213.03c-42.7021 -48.8125 -115.465 -67.0498 -169.166 -24.0176c-62.3447 49.9668 -70.5654 147.387 -76.5898 221.146
c-7.09277 86.8691 -10.0752 177.77 0.672852 264.361c6.21484 50.0859 121.469 50.0664 127.427 0.000976562c15.5449 -130.588 -7.28418 -263.05 11.8896 -394.014c2.4541 -16.7852 4.89551 -65.0098 22.0244 -75.4873c20.8828 -12.7734 57.1523 46.1602 65.4258 58.9336
c34.666 53.4971 61.3223 112.793 89.8125 169.694zM20.085 555.414c-33.3662 17.9404 -74.9072 82.0469 -42.1484 117.399c14.7402 15.9082 47.2617 14.0938 60.959 -2.52051c1.18066 -1.43164 2.22949 -2.95605 3.21289 -4.51953
c2.66602 2.81738 5.46387 5.52246 8.47266 8.03613c17.4121 14.5488 47.2549 25.1846 68.5664 11.9883c22.4658 -13.915 6.76953 -46.252 -2.86328 -63.4531c-13.6514 -24.373 -34.8574 -43.5869 -53.2324 -64.2783c-3.76758 -4.24219 -10.9199 -6.33398 -18.6396 -6.68359
c-8.35938 -1.1875 -17.4717 0.342773 -24.3271 4.03125z" />
    <glyph glyph-name="i" unicode="&#xee;" horiz-adv-x="317" 
d="M302.719 224.575c8.37305 16.7256 57.5605 11.2637 48.3105 -7.58691c-35.1475 -71.6279 -66.6992 -152.328 -119.807 -213.03c-42.7021 -48.8125 -115.465 -67.0498 -169.166 -24.0176c-62.3447 49.9668 -70.5654 147.387 -76.5898 221.146
c-7.09277 86.8691 -10.0752 177.77 0.672852 264.361c6.21484 50.0859 121.469 50.0664 127.427 0.000976562c15.5449 -130.588 -7.28418 -263.05 11.8896 -394.014c2.4541 -16.7852 4.89551 -65.0098 22.0244 -75.4873c20.8828 -12.7734 57.1523 46.1602 65.4258 58.9336
c34.666 53.4971 61.3223 112.793 89.8125 169.694zM20.085 555.414c-33.3662 17.9404 -74.9072 82.0469 -42.1484 117.399c14.7402 15.9082 47.2617 14.0938 60.959 -2.52051c1.18066 -1.43164 2.22949 -2.95605 3.21289 -4.51953
c2.66602 2.81738 5.46387 5.52246 8.47266 8.03613c17.4121 14.5488 47.2549 25.1846 68.5664 11.9883c22.4658 -13.915 6.76953 -46.252 -2.86328 -63.4531c-13.6514 -24.373 -34.8574 -43.5869 -53.2324 -64.2783c-3.76758 -4.24219 -10.9199 -6.33398 -18.6396 -6.68359
c-8.35938 -1.1875 -17.4717 0.342773 -24.3271 4.03125z" />
    <glyph glyph-name="i" unicode="&#xed;" horiz-adv-x="317" 
d="M302.719 224.575c8.37305 16.7256 57.5605 11.2637 48.3105 -7.58691c-35.1475 -71.6279 -66.6992 -152.328 -119.807 -213.03c-42.7021 -48.8125 -115.465 -67.0498 -169.166 -24.0176c-62.3447 49.9668 -70.5654 147.387 -76.5898 221.146
c-7.09277 86.8691 -10.0752 177.77 0.672852 264.361c6.21484 50.0859 121.469 50.0664 127.427 0.000976562c15.5449 -130.588 -7.28418 -263.05 11.8896 -394.014c2.4541 -16.7852 4.89551 -65.0098 22.0244 -75.4873c20.8828 -12.7734 57.1523 46.1602 65.4258 58.9336
c34.666 53.4971 61.3223 112.793 89.8125 169.694zM20.085 555.414c-33.3662 17.9404 -74.9072 82.0469 -42.1484 117.399c14.7402 15.9082 47.2617 14.0938 60.959 -2.52051c1.18066 -1.43164 2.22949 -2.95605 3.21289 -4.51953
c2.66602 2.81738 5.46387 5.52246 8.47266 8.03613c17.4121 14.5488 47.2549 25.1846 68.5664 11.9883c22.4658 -13.915 6.76953 -46.252 -2.86328 -63.4531c-13.6514 -24.373 -34.8574 -43.5869 -53.2324 -64.2783c-3.76758 -4.24219 -10.9199 -6.33398 -18.6396 -6.68359
c-8.35938 -1.1875 -17.4717 0.342773 -24.3271 4.03125z" />
    <glyph glyph-name="j" unicode="j" horiz-adv-x="217" 
d="M209.712 228.501c11.8896 11.7119 57.9033 3.68945 41.4873 -13.8213c-41.6133 -44.3848 -90.6699 -79.8027 -141.719 -112.463c-0.0986328 -61.2031 -2.79688 -122.182 -9.3291 -182.343c-13.5986 -125.23 -61.7373 -251.127 -194.767 -287.806
c-107.099 -29.5264 -216.85 46.5557 -188.999 163.32c25.2441 105.858 126.504 182.111 212.767 238.228c18.3428 11.9355 36.9492 23.4824 55.6279 34.9297c-6.18848 121.667 -18.6719 243.473 -17.4053 365.285c0.507812 48.6143 118.678 48.001 123.303 0
c9.08594 -94.2461 16.6865 -190.597 18.4551 -286.763c35.4902 24.4189 69.5293 50.8506 100.579 81.4326zM-59.3555 -292.84c60.5166 89.4229 51.6426 213.994 46.2393 319.404c-79.2617 -50.0654 -162.08 -109.131 -204.215 -195.453
c-24.7031 -50.6006 -30.5488 -122.439 21.5752 -158.643c49.874 -34.6465 105.363 -11.1709 136.4 34.6914zM-6.68359 536.069c-34.3232 16.5605 -75.209 75.6455 -48.4346 113.148c12.5029 17.5049 43.7705 17.624 59.5459 4.19043
c2.3291 -1.97949 4.36133 -4.24219 6.14941 -6.72266c3.45117 3.99805 7.10645 7.83105 11.2432 11.2354c17.3789 14.3174 47.459 24.459 67.748 9.63281c20.2295 -14.7861 5.06055 -47.8887 -4.19629 -65.1289c-12.668 -23.5879 -32.3428 -42.9863 -49.0889 -63.6182
c-4.39453 -5.41699 -13.9814 -7.57422 -23.542 -7.13184c-6.83594 0.00683594 -13.7832 1.67578 -19.4248 4.39453z" />
    <glyph glyph-name="k" unicode="k" horiz-adv-x="506" 
d="M488.959 207.829c6.67676 18.085 58.2207 13.1904 50.2969 -7.91016c-37.2197 -99.0889 -84.0986 -222.142 -211.11 -214.666c-61.3154 3.60938 -112.536 29.6514 -150.092 78.6348c-22.6445 29.5391 -40.9404 61.5859 -61.5527 92.207
c2.3623 -21.6416 4.66504 -43.2832 6.73047 -64.9512c3.78711 -39.6406 14.2256 -85.0352 8.66309 -124.498c-3.55664 -25.2441 -52.9424 -26.5508 -66.8574 -10.3193c-28.7939 33.5967 -40.8223 78.1201 -51.5049 120.295
c-11.1904 44.1807 -19.3584 89.377 -26.2598 134.401c-13.6777 89.2246 -23.5156 178.7 -29.4805 268.77c-12.0879 182.64 -16.7129 370.742 8.33984 552.491c6.7168 48.7324 127.131 49.4189 125.877 0c-4.56543 -180.284 -13.9678 -359.249 -4.5127 -539.651
c2.68555 -51.2334 6.30762 -102.48 10.6357 -153.661c12.2529 26.5039 27.4082 51.7412 45.5527 75.25c35.5303 46.0146 94.6084 92.3652 156.828 72.0957c74.8936 -24.3994 23.4951 -107.336 -8.25488 -145.182c-44.1074 -52.5791 -101.589 -92.002 -162.641 -122.558
c86.8359 -20.2959 109.27 -120.21 174.029 -173.205c18.9824 -15.5381 40.7559 -31.0762 66.29 -22.5645c23.5215 7.83887 42.3525 29.4668 56.2021 48.9707c28.998 40.835 45.6123 89.4688 62.8203 136.051zM159.962 358.008
c-18.5801 -33.1084 -31.6582 -68.377 -39.7412 -105.035c31.6309 17.3994 61.7051 37.418 88.8887 61.4678c28.708 25.3955 98.7461 88.3867 79.0449 132.785c-26.6758 60.1143 -116.554 -68.4805 -128.192 -89.2178z" />
    <glyph glyph-name="l" unicode="l" horiz-adv-x="243" 
d="M204.5 -59.252c15.0566 10.2734 59.3818 -2.91309 35.4248 -20.1865c-32.6738 -23.5615 -73.2842 -20.1836 -109.659 -7.51562c-43.3164 15.083 -71.2256 48.7324 -89.166 89.9697c-44.1211 101.411 -49.8281 219.271 -59.1045 328.02
c-10.0752 118.104 -13.46 236.908 -12.9453 355.415c0.507812 115.564 0.831055 234.718 21.4434 348.725c7.30371 40.3799 106.354 42.9395 106.809 0c1.04883 -98.9111 -8.35352 -198.093 -10.834 -296.997c-2.43457 -96.9648 -1.77441 -194.009 2.01953 -290.934
c3.75391 -95.9883 8.35254 -192.233 18.5596 -287.772c3.85352 -36.0645 24.7031 -268.374 97.4531 -218.724z" />
    <glyph glyph-name="m" unicode="m" horiz-adv-x="832" 
d="M814.463 201.409c6.30078 18.4219 58.5439 14.0186 51.2861 -8.07129c-25.3164 -77.1768 -57.5938 -201.819 -148.844 -224.919c-44.2461 -11.1973 -96.6934 0.672852 -131.96 29.4404c-38.875 31.71 -54.3145 78.0674 -62.1006 126.062
c-8.76172 53.9854 -4.88184 108.986 -4.57812 163.38c0.138672 24.8945 -0.59375 49.6836 -2.47461 74.4922c-0.837891 11.1045 1.83398 25.917 -1.41895 36.4404c-5.53613 17.9004 -6.22852 11.2432 -14.7461 0.0136719
c-30.5352 -40.2549 -45.4072 -102.804 -59.6592 -150.507c-15.6904 -52.5137 -28.3984 -105.892 -41.7461 -159.025c-0.369141 -1.45117 -1.13477 -2.70508 -2.06543 -3.86621c-7.46875 -39.5088 -105.284 -36.3086 -111.46 4.89551
c-9.96289 66.4688 -3.90625 135.973 -5.19238 203.021c-0.567383 29.6514 2.69824 60.6953 -1.2998 90.1553c-1.98633 14.6084 -5.13379 38.6445 -25.7061 34.8838c-10.999 -2.0127 -23.9375 -29.8164 -29.2559 -39.2256
c-30.6875 -54.2822 -46.1465 -118.25 -60.7344 -178.378c-16.3896 -67.5898 -29.0908 -136.091 -39.7793 -204.803c0.771484 -8.48535 1.70215 -16.9043 2.93555 -25.1914c3.45117 -23.2119 -47.4395 -21.8066 -58.6494 -13.8496
c-63.2949 44.9062 -69.6426 150.197 -78.0352 220.994c-10.583 89.2646 -13.3936 178.556 -5.27148 268.117c4.22266 46.5889 119.464 46.2197 118.659 0.000976562c-1.44531 -82.957 -1.28711 -166.197 4.29492 -249.022
c0.204102 -2.93652 0.481445 -5.87891 0.685547 -8.81543c5.39062 23.1719 11.1836 46.2451 17.5049 69.167c16.6465 60.3457 38.9873 161.388 103.463 189.403c64.6338 28.0811 110.608 -39.4893 128.767 -92.0225c12.3516 -35.7344 21.4834 -74.6367 27.8506 -114.297
c14.9707 55.1064 33.1816 109.21 59.9033 158.866c45.8164 85.1406 135.206 37.4834 164.402 -35.4053c38.8164 -96.8984 19.5039 -206.168 56.3076 -303.562c5.41016 -14.3174 14.6738 -44.9385 29.6318 -51.3652c23.04 -9.89746 46.3643 28.7471 56.7559 45.6445
c28.0479 45.6123 45.3018 96.9648 62.5293 147.348z" />
    <glyph glyph-name="n" unicode="n" horiz-adv-x="552" 
d="M535.346 213.82c5.55566 17.9531 56.3066 13.9092 49.8076 -7.83105c-22.4131 -74.9795 -56.1484 -210.43 -151.391 -221.112c-46.252 -5.18555 -96.3906 15.8555 -123.581 53.8662c-29.1436 40.749 -36.4941 98.4355 -41.4688 147.017
c-5.61523 54.8623 -3.00879 109.21 -1.65625 164.151c0.342773 13.9941 1.08203 28.3057 -0.77832 42.2344c-2.48047 18.5996 -2.77051 14.3633 -12.9248 3.27246c-17.5439 -19.1543 -30.6807 -40.2744 -41.9238 -63.625
c-48.6006 -100.943 -72.5254 -214.165 -101.636 -322.201c-1.56348 -13.6445 -4.44043 -27.1309 -9.60645 -40.3926c-7.77246 -19.959 -54.5195 -20.4209 -66.0459 -4.92188c-45.7568 61.5 -47.1025 150.856 -50.0977 224.906
c-3.23926 80.126 -3.70117 161.664 6.7832 241.27c6.24805 47.4922 122.122 48.5938 122.782 -0.000976562c1.0625 -78.292 -5.6084 -156.577 -5.39746 -234.922c0 -1.08203 0.0195312 -2.16406 0.0263672 -3.24609c13.5195 47.209 29.124 93.666 49.1289 138.144
c16.8047 37.3516 40.7158 83.8408 80.2051 101.557c38.1631 17.1289 71.6484 -1.51074 95.6055 -32.1455c32.2178 -41.1982 36.1504 -90.0898 40.8154 -140.36c5.19238 -55.9844 12.8857 -112.905 28.8662 -166.963c4.44043 -15.0371 13.2354 -50.666 25.8174 -61.2949
c9.64648 -8.14844 8.7627 -6.45898 19.3125 2.42871c11.8301 9.96289 21.3838 23.8125 29.585 36.7178c27.665 43.5469 42.6553 94.582 57.7715 143.453z" />
    <glyph glyph-name="o" unicode="o" horiz-adv-x="338" 
d="M372.434 230.995c5.8125 -8.32715 0.976562 -16.0723 -8.61035 -18.7314c-25.6201 -7.09961 -54.5527 -11.5928 -84.3496 -12.668c-7.8252 -84.3955 -49.7881 -165.241 -146.323 -170.21c-132.099 -6.7959 -172.729 128.503 -158.432 237.753
c3.83301 29.2891 51.7217 39.3379 83.7812 29.3223c-39.4297 71.3115 -5.5625 184.619 86.084 188.729c111.031 4.98145 130.198 -152.83 135.549 -233.128c0.53418 -8.00977 0.751953 -16.1318 0.706055 -24.2939c20.7578 0.672852 40.8223 3.52344 58.7295 8.13574
c8.66992 2.23633 26.5771 4.10352 32.8652 -4.90918zM171.769 115.333c18.2168 25.9502 28.1934 57.5068 35.042 88.8672c-45.0645 7.70605 -87.6348 24.999 -119.173 55.0137c2.2041 -45.9219 -3.2793 -92.1934 13.4199 -136.241
c4.28906 -11.3086 12.7744 -36.0049 26.709 -39.2314c17.1875 -3.98535 35.2725 19.1543 44.002 31.5918zM212.577 233.864c8.24121 46.958 8.26758 93.3682 -5.09961 139.469c-10.7549 37.0742 -42.7227 111.348 -87.4902 65.3066
c-29.2881 -30.1201 -34.5137 -80.166 -20.2158 -118.27c18.25 -48.627 62.8789 -75.3818 112.806 -86.5059z" />
    <glyph glyph-name="o" unicode="&#xf6;" horiz-adv-x="338" 
d="M372.434 230.995c5.8125 -8.32715 0.976562 -16.0723 -8.61035 -18.7314c-25.6201 -7.09961 -54.5527 -11.5928 -84.3496 -12.668c-7.8252 -84.3955 -49.7881 -165.241 -146.323 -170.21c-132.099 -6.7959 -172.729 128.503 -158.432 237.753
c3.83301 29.2891 51.7217 39.3379 83.7812 29.3223c-39.4297 71.3115 -5.5625 184.619 86.084 188.729c111.031 4.98145 130.198 -152.83 135.549 -233.128c0.53418 -8.00977 0.751953 -16.1318 0.706055 -24.2939c20.7578 0.672852 40.8223 3.52344 58.7295 8.13574
c8.66992 2.23633 26.5771 4.10352 32.8652 -4.90918zM171.769 115.333c18.2168 25.9502 28.1934 57.5068 35.042 88.8672c-45.0645 7.70605 -87.6348 24.999 -119.173 55.0137c2.2041 -45.9219 -3.2793 -92.1934 13.4199 -136.241
c4.28906 -11.3086 12.7744 -36.0049 26.709 -39.2314c17.1875 -3.98535 35.2725 19.1543 44.002 31.5918zM212.577 233.864c8.24121 46.958 8.26758 93.3682 -5.09961 139.469c-10.7549 37.0742 -42.7227 111.348 -87.4902 65.3066
c-29.2881 -30.1201 -34.5137 -80.166 -20.2158 -118.27c18.25 -48.627 62.8789 -75.3818 112.806 -86.5059z" />
    <glyph glyph-name="o" unicode="&#xf5;" horiz-adv-x="338" 
d="M372.434 230.995c5.8125 -8.32715 0.976562 -16.0723 -8.61035 -18.7314c-25.6201 -7.09961 -54.5527 -11.5928 -84.3496 -12.668c-7.8252 -84.3955 -49.7881 -165.241 -146.323 -170.21c-132.099 -6.7959 -172.729 128.503 -158.432 237.753
c3.83301 29.2891 51.7217 39.3379 83.7812 29.3223c-39.4297 71.3115 -5.5625 184.619 86.084 188.729c111.031 4.98145 130.198 -152.83 135.549 -233.128c0.53418 -8.00977 0.751953 -16.1318 0.706055 -24.2939c20.7578 0.672852 40.8223 3.52344 58.7295 8.13574
c8.66992 2.23633 26.5771 4.10352 32.8652 -4.90918zM171.769 115.333c18.2168 25.9502 28.1934 57.5068 35.042 88.8672c-45.0645 7.70605 -87.6348 24.999 -119.173 55.0137c2.2041 -45.9219 -3.2793 -92.1934 13.4199 -136.241
c4.28906 -11.3086 12.7744 -36.0049 26.709 -39.2314c17.1875 -3.98535 35.2725 19.1543 44.002 31.5918zM212.577 233.864c8.24121 46.958 8.26758 93.3682 -5.09961 139.469c-10.7549 37.0742 -42.7227 111.348 -87.4902 65.3066
c-29.2881 -30.1201 -34.5137 -80.166 -20.2158 -118.27c18.25 -48.627 62.8789 -75.3818 112.806 -86.5059z" />
    <glyph glyph-name="o" unicode="&#xf4;" horiz-adv-x="338" 
d="M372.434 230.995c5.8125 -8.32715 0.976562 -16.0723 -8.61035 -18.7314c-25.6201 -7.09961 -54.5527 -11.5928 -84.3496 -12.668c-7.8252 -84.3955 -49.7881 -165.241 -146.323 -170.21c-132.099 -6.7959 -172.729 128.503 -158.432 237.753
c3.83301 29.2891 51.7217 39.3379 83.7812 29.3223c-39.4297 71.3115 -5.5625 184.619 86.084 188.729c111.031 4.98145 130.198 -152.83 135.549 -233.128c0.53418 -8.00977 0.751953 -16.1318 0.706055 -24.2939c20.7578 0.672852 40.8223 3.52344 58.7295 8.13574
c8.66992 2.23633 26.5771 4.10352 32.8652 -4.90918zM171.769 115.333c18.2168 25.9502 28.1934 57.5068 35.042 88.8672c-45.0645 7.70605 -87.6348 24.999 -119.173 55.0137c2.2041 -45.9219 -3.2793 -92.1934 13.4199 -136.241
c4.28906 -11.3086 12.7744 -36.0049 26.709 -39.2314c17.1875 -3.98535 35.2725 19.1543 44.002 31.5918zM212.577 233.864c8.24121 46.958 8.26758 93.3682 -5.09961 139.469c-10.7549 37.0742 -42.7227 111.348 -87.4902 65.3066
c-29.2881 -30.1201 -34.5137 -80.166 -20.2158 -118.27c18.25 -48.627 62.8789 -75.3818 112.806 -86.5059z" />
    <glyph glyph-name="o" unicode="&#xf3;" horiz-adv-x="338" 
d="M372.434 230.995c5.8125 -8.32715 0.976562 -16.0723 -8.61035 -18.7314c-25.6201 -7.09961 -54.5527 -11.5928 -84.3496 -12.668c-7.8252 -84.3955 -49.7881 -165.241 -146.323 -170.21c-132.099 -6.7959 -172.729 128.503 -158.432 237.753
c3.83301 29.2891 51.7217 39.3379 83.7812 29.3223c-39.4297 71.3115 -5.5625 184.619 86.084 188.729c111.031 4.98145 130.198 -152.83 135.549 -233.128c0.53418 -8.00977 0.751953 -16.1318 0.706055 -24.2939c20.7578 0.672852 40.8223 3.52344 58.7295 8.13574
c8.66992 2.23633 26.5771 4.10352 32.8652 -4.90918zM171.769 115.333c18.2168 25.9502 28.1934 57.5068 35.042 88.8672c-45.0645 7.70605 -87.6348 24.999 -119.173 55.0137c2.2041 -45.9219 -3.2793 -92.1934 13.4199 -136.241
c4.28906 -11.3086 12.7744 -36.0049 26.709 -39.2314c17.1875 -3.98535 35.2725 19.1543 44.002 31.5918zM212.577 233.864c8.24121 46.958 8.26758 93.3682 -5.09961 139.469c-10.7549 37.0742 -42.7227 111.348 -87.4902 65.3066
c-29.2881 -30.1201 -34.5137 -80.166 -20.2158 -118.27c18.25 -48.627 62.8789 -75.3818 112.806 -86.5059z" />
    <glyph glyph-name="p" unicode="p" horiz-adv-x="535" 
d="M523.363 229.808c14.2051 11.4346 63.4922 0.345703 44.6084 -14.8564c-42.1221 -33.874 -91.0723 -51.5039 -143.514 -62.5625c-2.15723 -0.455078 -4.3877 -0.857422 -6.58496 -1.27344c-7.66016 -33.1416 -20.8887 -64.9443 -42.1611 -90.2676
c-38.9551 -46.3838 -100.692 -60.418 -157.845 -46.582c-43.1836 10.458 -79.7764 48.3965 -46.3115 90.6562c32.7725 41.376 95.1172 51.8994 145.018 60.0811c10.4248 34.8379 14.9248 72.3604 16.9902 106.228c2.60645 42.8018 -4.72363 184.6 -77.1631 110.629
c-40.7822 -41.6465 -58.8408 -105.978 -74.0752 -160.438c-34.2969 -122.604 -51.5576 -250.203 -66.8252 -376.509c-0.488281 -6.19531 -1.20703 -12.3252 -2.20996 -18.3496c-0.0595703 -0.474609 -0.112305 -0.956055 -0.171875 -1.43066
c-0.0458984 -0.369141 -0.217773 -0.672852 -0.290039 -1.0293c-2.50684 -13.8232 -6.57812 -27.0586 -13.1699 -39.0605c-7.83203 -14.2588 -38.8818 -15.6641 -49.0889 -3.65527c-34 39.9971 -40.7959 97.5713 -48.3906 147.96
c-7.67969 50.9365 -12.0869 102.203 -14.8252 153.615c-5.58887 104.836 -11.1836 216.698 7.61426 320.438c8.24707 45.5068 118.144 48.5156 120.209 0c3.5957 -84.5273 -2.29004 -169.734 -3.89355 -254.657c10.3262 46.5625 22.8359 92.4521 38.5918 137.107
c18.1445 51.4248 45.3945 111.5 96.7471 137.41c44.8867 22.6445 91.4619 8.11523 123.351 -27.8506c42.3721 -47.7959 57.9365 -107.323 56.6895 -170.183c-0.263672 -13.4199 -1.2207 -27.2695 -2.97559 -41.1777c35.7881 8.76172 70.0059 21.8916 99.6768 45.7568z
M287.372 101.729c7.01367 10.1084 12.9268 21.1182 18.0068 32.6777c-24.5977 -5.13281 -48.0273 -12.6875 -68.0654 -25.5732c-12.1201 -7.79199 -32.3301 -26.2598 -24.3467 -43.8174c8.58398 -18.8701 13.5059 -12.3574 24.6299 -6.12207
c19.959 11.1904 36.4736 23.6543 49.7754 42.835z" />
    <glyph glyph-name="q" unicode="q" horiz-adv-x="611" 
d="M635.729 227.017c6.84863 -2.84375 18.9355 -12.1924 9.08496 -19.7344c-44.9258 -34.4082 -89.8516 -68.8232 -134.777 -103.238c-33.9736 -26.0225 -70.1436 -50.7256 -101.669 -79.9746c19.3721 -1.36621 40.4326 0.158203 58.2666 -3.68164
c24.0166 -5.17285 47.6904 -13.5322 68.8896 -26.0947c40.3926 -23.9375 71.6738 -63.4863 79.6045 -110.425c16.9639 -100.369 -91.7842 -165.663 -179.914 -136.071c-116.488 39.1191 -146.74 172.907 -162.312 280.092
c-7.70605 53.0742 -11.1768 106.438 -11.8896 159.955c-9.33594 -34.7383 -20.0576 -69.1465 -34.4082 -101.912c-31.5254 -71.9775 -88.2686 -118.368 -169.299 -90.5645c-94.1006 32.2842 -93.0449 160.232 -74.2402 239.982
c21.002 89.0537 70.9492 170.144 163.058 197.552c39.5615 11.7773 87.0674 12.7275 128.357 -0.514648c11.626 43.2305 117.458 45.8965 119.648 -2.07812c2.28906 -50.2041 -4.26953 -101.028 -6.42676 -151.193c-2.1709 -50.3955 -2.52734 -100.778 -1.05566 -151.193
c0.633789 -21.8926 1.56445 -44.2529 3.08203 -66.7656c24.7686 20.0449 51.0879 38.46 76.1738 57.5879c45.0713 34.3623 90.1357 68.7314 135.2 103.101c9.25684 7.05957 23.5479 9.78418 34.626 5.17188zM202.101 162.357
c21.3447 69.1338 32.7666 142.479 52.3564 212.431c-14.0273 9.05859 -29.6055 14.3564 -46.4902 10.0146c-35.4902 -9.125 -63.0967 -42.4385 -80.8389 -72.5713c-39.5684 -67.2012 -58.3926 -162.853 -40.875 -239.601
c3.12109 -13.6846 9.89746 -38.7373 21.5957 -48.0273c17.1416 -13.6113 35.7412 11.1045 46.1533 25.9307c23.1719 32.9766 36.3281 73.6934 48.0986 111.823zM476.309 -15.5566c-26.2012 10.3721 -53.5039 9.22461 -80.1865 11.3818
c6.40039 -48.5215 16.9707 -96.3838 34.9961 -140.512c12.1602 -29.7705 43.5869 -88.4531 83.5645 -74.373c39.3701 13.8691 54.7109 65.7158 48.001 102.936c-8.32031 46.1533 -43.5469 83.6104 -86.375 100.567z" />
    <glyph glyph-name="r" unicode="r" horiz-adv-x="466" 
d="M453.383 250.182c12.5029 13.6973 62.9561 5.5957 45.9336 -15.3066c-44.2725 -54.3613 -109.804 -92.6035 -182.21 -79.6514c-83.0029 14.8525 -101.049 89.0078 -100.06 162.411c0.277344 20.5332 0.990234 41.0332 1.1416 61.5732
c0.0527344 7.13867 -1.0293 15.7627 -0.336914 23.2715c-1.35938 -2.36914 -2.82422 -4.66504 -4.09082 -7.08008c-19.3848 -35.9785 -31.2021 -75.54 -41.8115 -114.818c-23.0869 -85.4248 -39.0742 -172.532 -54.7773 -259.56
c1.4248 -20.5664 0.646484 -41.2383 -9.125 -56.9023c-9.60059 -15.3867 -37.8926 -17.2148 -52.21 -7.8584c-60.1611 39.2979 -63.4531 143.335 -69.6553 208.358c-7.64062 80.0996 -9.29004 161.678 1.39844 241.554c6.28125 46.958 122.023 47.6768 121.238 0
c-0.989258 -60.1934 -2.97559 -120.216 -2.52051 -180.351c3.41797 14.8193 6.93457 29.6123 10.6885 44.3525c10.1738 39.9375 21.0801 80.1523 38.5381 117.616c11.8496 25.4219 26.0947 56.7627 56.333 63.1104c73.2646 15.373 85.873 -102.415 95.5059 -150.158
c6.65039 -32.957 14.6006 -79.1436 46.5215 -98.0273c35.873 -21.2256 77.2627 23.0996 99.498 47.4658z" />
    <glyph glyph-name="s" unicode="s" horiz-adv-x="319" 
d="M334.314 236.814c29.625 -0.119141 28.6328 -25.6338 0.00390625 -27.376c-12.002 -0.732422 -27.4609 -15.1816 -36.8633 -21.7334c-13.4463 -9.36914 -26.5693 -19.1738 -39.2568 -29.5391c-14.8525 -12.1338 -29.0977 -25.0264 -42.6172 -38.6318
c46.7139 -55.5684 92.6426 -121.819 76.0225 -192.167c-9.14453 -38.6973 -31.0898 -73.8057 -70.8096 -84.9961c-32.8643 -9.25684 -71.0205 -3.66797 -98.8975 16.3369c-75.415 54.123 -44.1338 152.915 -0.283203 216.896
c-2.92285 3.08105 -5.82617 6.14258 -8.68262 9.17773c-70.2686 74.6104 -174.999 172.868 -135.153 287.033c30.9385 88.6377 170.361 147.387 233.339 58.8809c12.9258 -18.1572 -42.8799 -26.1016 -55.2705 -8.68262
c-25.7393 36.1768 -55.9717 -3.77441 -66.1328 -28.9326c-10.4248 -25.8242 -9.27051 -54.6973 -2.65918 -81.3398c13.8096 -55.667 50.8115 -101.893 87.3643 -144.588c4.48633 -5.24512 9.2041 -10.6484 14.0342 -16.1846c12.2461 11.2031 24.9932 21.8857 38.1426 32.04
c31.9678 24.6895 65.4658 53.9717 107.72 53.8066zM222.237 -61.3955c-13.9746 37.6484 -40.4131 71.4414 -68.4482 102.531c-18.4082 -31.835 -30.1592 -67.2197 -24.7686 -103.469c4.22949 -28.4502 22.75 -66.0254 55.2324 -69.3906
c40.3203 -4.17676 48.5811 41.7852 37.9844 70.3281z" />
    <glyph glyph-name="t" unicode="t" horiz-adv-x="403" 
d="M388.802 241.947c5.28516 16.8516 52.7061 13.1631 46.8203 -7.37012c-35.708 -124.537 -95.3271 -352.895 -270.425 -301.642c-68.9893 20.1963 -110.484 89.6465 -135.702 152.407c-28.0615 69.8535 -38.5264 145.929 -47.335 220.262
c-9.44141 79.6318 -11.9287 160.695 -4.72363 240.624c1.20703 13.4336 2.66504 27.1836 4.43359 41.0723c-31.8486 -3.16016 -63.9082 -4.5127 -95.6582 -1.79395c-26.4717 2.2627 -60.3857 9.2627 -68.7061 38.3926c-5.8916 20.625 41.4229 24.0498 46.8262 7.35645
c9.2041 -28.4375 76.7344 -21.4697 121.785 -14.6143c8.8418 54.249 23.6943 108.993 50.4629 154.704c31.9473 54.5527 91.5205 109.013 159.493 99.6299c70.3213 -9.70605 78.7012 -84.3428 67.5039 -141.62c-5.36426 -27.4414 -12.6084 -54.1768 -21.3379 -80.3311
c22.1895 1.37207 44.4053 2.33496 66.6074 2.71777c30.8193 0.53418 64.6074 0.467773 87.0996 -23.7275c17.749 -19.0879 -32.7715 -28.9053 -45.4863 -15.1553c-15.2549 16.4951 -53.9258 8.81543 -74.0098 8.03711c-15.083 -0.586914 -30.1465 -1.4248 -45.2031 -2.4541
c-33.2998 -86.8096 -82.1973 -167.312 -133.345 -245.445c1.0957 -26.4316 2.79102 -52.8965 5.01465 -79.3809c4.86914 -58.0166 12.2988 -115.703 24.8086 -172.598c11.6123 -52.7969 30.8262 -116.679 74.6504 -151.919
c84.4346 -67.9004 170.703 222.735 186.426 272.848zM120.112 664.187c-2.0918 -9.3623 -3.97168 -18.7314 -5.75977 -28.1143c17.2139 2.44141 34.4414 4.75098 51.748 6.5791c6.62402 0.699219 13.2744 1.28613 19.9121 1.91309
c5.08008 14.6475 9.73145 29.4736 13.7695 44.5234c7.72656 28.7871 14.6211 59.4814 13.2021 89.4893c-0.732422 15.4326 -3.81348 39.0928 -17.3457 49.1807c32.9111 -24.5381 -9.41504 8.04297 -6.56445 7.99023c-4.5 0.0791016 -13.8291 -11.8369 -16.7061 -15.6377
c-16.1523 -21.3311 -22.2422 -51.2002 -30.0479 -76.1543c-8.27344 -26.458 -16.1514 -52.665 -22.208 -79.7695zM108.989 604.844c-7.38965 -47.6641 -11.1309 -95.5391 -12.1201 -143.553c29.4668 48.8848 56.373 99.2539 77.4541 151.998
c-21.8398 -2.42773 -43.6064 -5.28516 -65.334 -8.44531z" />
    <glyph glyph-name="u" unicode="u" horiz-adv-x="561" 
d="M547.521 225.967c4.29492 14.958 49.8809 12.7568 46.6611 -3.59961c-18.4287 -94.1406 -75.0596 -274.734 -207.778 -206.491c-63.9805 32.9043 -78.9707 117.504 -87.502 182.27c-0.831055 6.33398 -1.49707 12.6816 -2.20312 19.0293
c-4.30176 -18.1904 -8.8877 -36.3154 -14.0869 -54.2822c-20.5928 -71.1729 -46.3975 -139.462 -124.036 -161.302c-80.1592 -22.5518 -135.529 49.0566 -153.746 117.992c-22.7832 86.2031 -30.6279 180.641 -29.7568 269.529c0.448242 45.7832 113.684 45.625 116.6 0
c4.64453 -72.624 8.12793 -145.109 14.9697 -217.595c2.94922 -31.2676 6.61133 -63.9014 17.4912 -93.5459c10.623 -28.9385 24.7822 -53.417 53.9326 -24.8145c21.8066 21.4043 33.2412 56.0244 43.25 84.165c11.6123 32.6338 20.2627 66.2373 28.1865 99.9268
c14.6016 62.0938 27.2627 124.333 49.9531 184.144c0.277344 0.732422 0.732422 1.37891 1.16113 2.03223c0.330078 2.0127 0.567383 4.03809 0.916992 6.05078c7.19824 41.0723 103.41 43.1309 107.323 0c9.96973 -109.837 -2.44727 -219.443 18.6924 -328.706
c2.34863 -12.1143 9.91016 -60.0029 27.626 -63.1504c15.7822 -2.80371 41.0596 45.8105 45.8564 54.6982c22.5127 41.6924 33.498 88.4131 46.4893 133.649z" />
    <glyph glyph-name="u" unicode="&#xfc;" horiz-adv-x="561" 
d="M547.521 225.967c4.29492 14.958 49.8809 12.7568 46.6611 -3.59961c-18.4287 -94.1406 -75.0596 -274.734 -207.778 -206.491c-63.9805 32.9043 -78.9707 117.504 -87.502 182.27c-0.831055 6.33398 -1.49707 12.6816 -2.20312 19.0293
c-4.30176 -18.1904 -8.8877 -36.3154 -14.0869 -54.2822c-20.5928 -71.1729 -46.3975 -139.462 -124.036 -161.302c-80.1592 -22.5518 -135.529 49.0566 -153.746 117.992c-22.7832 86.2031 -30.6279 180.641 -29.7568 269.529c0.448242 45.7832 113.684 45.625 116.6 0
c4.64453 -72.624 8.12793 -145.109 14.9697 -217.595c2.94922 -31.2676 6.61133 -63.9014 17.4912 -93.5459c10.623 -28.9385 24.7822 -53.417 53.9326 -24.8145c21.8066 21.4043 33.2412 56.0244 43.25 84.165c11.6123 32.6338 20.2627 66.2373 28.1865 99.9268
c14.6016 62.0938 27.2627 124.333 49.9531 184.144c0.277344 0.732422 0.732422 1.37891 1.16113 2.03223c0.330078 2.0127 0.567383 4.03809 0.916992 6.05078c7.19824 41.0723 103.41 43.1309 107.323 0c9.96973 -109.837 -2.44727 -219.443 18.6924 -328.706
c2.34863 -12.1143 9.91016 -60.0029 27.626 -63.1504c15.7822 -2.80371 41.0596 45.8105 45.8564 54.6982c22.5127 41.6924 33.498 88.4131 46.4893 133.649z" />
    <glyph glyph-name="u" unicode="&#xfb;" horiz-adv-x="561" 
d="M547.521 225.967c4.29492 14.958 49.8809 12.7568 46.6611 -3.59961c-18.4287 -94.1406 -75.0596 -274.734 -207.778 -206.491c-63.9805 32.9043 -78.9707 117.504 -87.502 182.27c-0.831055 6.33398 -1.49707 12.6816 -2.20312 19.0293
c-4.30176 -18.1904 -8.8877 -36.3154 -14.0869 -54.2822c-20.5928 -71.1729 -46.3975 -139.462 -124.036 -161.302c-80.1592 -22.5518 -135.529 49.0566 -153.746 117.992c-22.7832 86.2031 -30.6279 180.641 -29.7568 269.529c0.448242 45.7832 113.684 45.625 116.6 0
c4.64453 -72.624 8.12793 -145.109 14.9697 -217.595c2.94922 -31.2676 6.61133 -63.9014 17.4912 -93.5459c10.623 -28.9385 24.7822 -53.417 53.9326 -24.8145c21.8066 21.4043 33.2412 56.0244 43.25 84.165c11.6123 32.6338 20.2627 66.2373 28.1865 99.9268
c14.6016 62.0938 27.2627 124.333 49.9531 184.144c0.277344 0.732422 0.732422 1.37891 1.16113 2.03223c0.330078 2.0127 0.567383 4.03809 0.916992 6.05078c7.19824 41.0723 103.41 43.1309 107.323 0c9.96973 -109.837 -2.44727 -219.443 18.6924 -328.706
c2.34863 -12.1143 9.91016 -60.0029 27.626 -63.1504c15.7822 -2.80371 41.0596 45.8105 45.8564 54.6982c22.5127 41.6924 33.498 88.4131 46.4893 133.649z" />
    <glyph glyph-name="u" unicode="&#xfa;" horiz-adv-x="561" 
d="M547.521 225.967c4.29492 14.958 49.8809 12.7568 46.6611 -3.59961c-18.4287 -94.1406 -75.0596 -274.734 -207.778 -206.491c-63.9805 32.9043 -78.9707 117.504 -87.502 182.27c-0.831055 6.33398 -1.49707 12.6816 -2.20312 19.0293
c-4.30176 -18.1904 -8.8877 -36.3154 -14.0869 -54.2822c-20.5928 -71.1729 -46.3975 -139.462 -124.036 -161.302c-80.1592 -22.5518 -135.529 49.0566 -153.746 117.992c-22.7832 86.2031 -30.6279 180.641 -29.7568 269.529c0.448242 45.7832 113.684 45.625 116.6 0
c4.64453 -72.624 8.12793 -145.109 14.9697 -217.595c2.94922 -31.2676 6.61133 -63.9014 17.4912 -93.5459c10.623 -28.9385 24.7822 -53.417 53.9326 -24.8145c21.8066 21.4043 33.2412 56.0244 43.25 84.165c11.6123 32.6338 20.2627 66.2373 28.1865 99.9268
c14.6016 62.0938 27.2627 124.333 49.9531 184.144c0.277344 0.732422 0.732422 1.37891 1.16113 2.03223c0.330078 2.0127 0.567383 4.03809 0.916992 6.05078c7.19824 41.0723 103.41 43.1309 107.323 0c9.96973 -109.837 -2.44727 -219.443 18.6924 -328.706
c2.34863 -12.1143 9.91016 -60.0029 27.626 -63.1504c15.7822 -2.80371 41.0596 45.8105 45.8564 54.6982c22.5127 41.6924 33.498 88.4131 46.4893 133.649z" />
    <glyph glyph-name="v" unicode="v" horiz-adv-x="519" 
d="M526.194 224.159c25.4219 5.10059 46.9248 -21.3311 13.6045 -28.1201c-43.085 -8.75586 -86.2949 -1.24707 -125.064 17.2207c-10.1016 -35.0752 -21.8262 -69.6748 -35.7021 -103.087c-21.5557 -51.8936 -52.0713 -116.422 -107.257 -139.535
c-59.6992 -25.0068 -125.554 9.0459 -168.632 50.29c-101.708 97.3799 -135.925 247.96 -144.093 383.489c-2.81055 46.6211 115.729 47.3994 120.725 -0.000976562c11.3291 -107.481 24.8945 -217.206 78.4043 -313.207
c16.5605 -29.7109 63.2285 -108.775 103.707 -81.5254c35.623 23.9834 57.8848 86.4863 72.8223 124.702c13.4199 34.3428 25.5928 69.8398 35.9121 105.997c-56.123 43.125 -95.5264 110.022 -98.2188 178.497c-2.09863 53.3115 15.6631 127.625 66.1836 155.752
c46.7998 26.0488 96.0674 3.6748 109.745 -45.8828c18.8047 -68.1445 5.60254 -146.133 -8.61621 -213.94c-4.6709 -22.2812 -9.87695 -44.6221 -15.5977 -66.877c30.7266 -20.4541 66.0391 -31.0107 102.077 -23.7725zM404.145 442.236
c0.739258 23.9111 0.494141 48.3965 -4.55371 71.8789c-1.38574 6.45312 -4.93555 28.2529 -11.6123 32.8779c-7.27051 5.03418 -22.9805 -3.55664 -27.7773 -7.64062c-4.05762 -3.45117 -6.92773 -9.25098 -9.65918 -13.7773
c-23.5215 -39.0137 -30.5684 -88.2412 -23.0068 -132.824c6.12988 -36.1836 26.2607 -75.9238 54.7109 -107.983c12.3184 52.0059 20.2686 104.955 21.8984 157.469z" />
    <glyph glyph-name="w" unicode="w" horiz-adv-x="744" 
d="M760.819 235.409c7.09277 -5.77344 10.2402 -14.375 -0.00683594 -19.5674c-30.2451 -15.3535 -65.7295 -14.9316 -99.9336 -6.9873c-20.1172 -97.5518 -77.876 -253.159 -202.559 -239.053c-88.1494 9.97656 -128.424 84.6064 -147.875 166.573
c-31.3936 -93.5527 -90.1748 -179.241 -192.933 -163.327c-79.75 12.3447 -112.324 105.021 -127.474 174.01c-18.0918 82.3896 -15.3867 167.748 -3.85352 250.863c6.32129 45.5459 119.78 43.8174 115.57 0c-11.3682 -118.368 -25.1914 -250.421 28.2197 -361.749
c7.31055 -15.2412 14.9375 -32.9902 35.833 -27.791c14.252 3.54297 27.5137 17.5635 36.9814 28.166c17.5576 19.6621 30.4307 43.9424 41.2051 67.8145c24.3271 53.9053 32.6543 111.387 48.5488 167.681c-0.237305 3.78027 -0.455078 7.49512 -0.666016 11.1309
c-2.5332 43.877 111.414 45.1504 114.021 0c3.3584 -58.2207 6.76953 -117.167 22.4072 -173.652c6.47949 -23.3896 15.0303 -47.6045 27.791 -68.4541c5.7207 -9.34277 15.875 -26.3389 27.8242 -29.0312c12.3906 -2.79102 27.0049 8.67676 36.0508 15.7832
c43.0127 33.7822 65.0166 95.9688 79.2754 147.063c4.66504 16.7324 8.41309 33.7021 11.501 50.7979c-8.19434 3.53027 -16.1055 7.26465 -23.5547 11.1113c-55.4561 28.6484 -102.771 76.8076 -120.572 137.642c-14.5947 49.8545 -11.21 106.387 15.6113 151.649
c24.3203 41.0332 68.8174 71.3115 117.128 50.1318c54.8291 -24.0361 65.8936 -103.668 71.6797 -156.168c6.56543 -59.5537 4.80371 -121.133 -4.61816 -180.601c20.9551 -7.13867 44.0811 -11.625 60.0615 -4.03711c9.14453 4.3418 25.5938 7.11328 34.3359 0.000976562z
M616.224 261.679c3.68848 30.5352 5.27246 61.3418 5.17969 92.0098c-0.177734 57.1123 -3.31152 124.412 -32.1709 175.48c-23.5947 41.7393 -50.9697 1.78125 -63.2021 -23.5752c-11.9424 -24.7559 -16.6865 -52.2432 -15.7363 -79.5986
c1.74805 -50.3164 23.9961 -96.5615 60.3311 -131.017c13.6904 -12.9854 29.1104 -24.1025 45.5986 -33.2998z" />
    <glyph glyph-name="x" unicode="x" horiz-adv-x="445" 
d="M432.728 216.539c5.42383 16.6533 52.4668 12.8779 46.3369 -7.27246c-39.9971 -131.254 -167.207 -291.388 -322.419 -223.138c-44.6484 19.6357 -76.8535 56.083 -101.596 97.5449c-19.0684 -32.1191 -37.8135 -64.4297 -56.4268 -96.7666
c-9.07227 -15.7627 -57.0859 -10.3721 -47.3213 7.43555c25.4551 46.4238 51.4648 92.5771 78.5566 138.037c-5.21875 11.5205 -10.0811 23.0869 -14.6006 34.4746c-32.0732 80.8984 -52.4609 167.781 -63.8291 253.938c-5.74707 43.5332 103.905 42.8408 113.506 0
c12.6348 -56.3672 22.9209 -115.531 37.291 -173.402c40.0635 60.0156 82.9834 118.085 130.212 173.093c12.4307 14.4756 63.2021 4.71094 45.9355 -15.3076c-58.9336 -68.3223 -110.926 -141.712 -159.401 -217.483c15.0371 -47.0703 34.501 -92.2402 62.252 -133.095
c94.5234 -139.172 223.548 76.0488 251.504 161.941z" />
    <glyph glyph-name="y" unicode="y" horiz-adv-x="560" 
d="M552.133 228.501c11.8896 11.7119 57.8975 3.68848 41.4951 -13.8291c-41.6133 -44.3848 -90.6699 -79.8027 -141.719 -112.463c-0.0986328 -61.2031 -2.79688 -122.182 -9.3291 -182.343c-13.5986 -125.23 -61.7373 -251.127 -194.767 -287.806
c-107.099 -29.5264 -216.85 46.5557 -188.999 163.32c25.251 105.858 126.504 182.111 212.767 238.228c18.3428 11.9355 36.9492 23.4824 55.6279 34.9297c-3.17383 62.3838 -7.89844 124.808 -11.6992 187.244c-7.16504 -23.1982 -14.7529 -46.2715 -22.8486 -69.1934
c-22.7432 -64.377 -55.2715 -128.773 -126.972 -146.7c-168.421 -42.1084 -199.491 238.577 -191.567 345.795c3.31836 44.9521 113.631 44.8594 114.535 0c1.2334 -61.3682 2.4873 -122.559 13.5918 -183.135c5.19238 -28.332 11.21 -57.9238 21.6016 -84.877
c8.51172 -22.0898 22.8691 -52.8301 48.6875 -36.1768c52.1504 33.6436 69.6748 110.939 87.7529 166.185c19.1807 58.6035 35.293 118.243 49.5381 178.232c0.0136719 2.63965 -0.0527344 5.2793 -0.0263672 7.91895c0.507812 48.6143 118.678 48.001 123.303 0
c9.0791 -94.2461 16.6797 -190.597 18.4482 -286.763c35.4902 24.4189 69.5293 50.8506 100.579 81.4326zM283.066 -292.841c60.5166 89.4229 51.6426 213.993 46.2324 319.403c-79.2617 -50.0654 -162.08 -109.131 -204.215 -195.452
c-24.6963 -50.6006 -30.542 -122.439 21.582 -158.643c49.874 -34.6465 105.363 -11.1709 136.4 34.6914z" />
    <glyph glyph-name="y" unicode="&#xff;" horiz-adv-x="560" 
d="M552.133 228.501c11.8896 11.7119 57.8975 3.68848 41.4951 -13.8291c-41.6133 -44.3848 -90.6699 -79.8027 -141.719 -112.463c-0.0986328 -61.2031 -2.79688 -122.182 -9.3291 -182.343c-13.5986 -125.23 -61.7373 -251.127 -194.767 -287.806
c-107.099 -29.5264 -216.85 46.5557 -188.999 163.32c25.251 105.858 126.504 182.111 212.767 238.228c18.3428 11.9355 36.9492 23.4824 55.6279 34.9297c-3.17383 62.3838 -7.89844 124.808 -11.6992 187.244c-7.16504 -23.1982 -14.7529 -46.2715 -22.8486 -69.1934
c-22.7432 -64.377 -55.2715 -128.773 -126.972 -146.7c-168.421 -42.1084 -199.491 238.577 -191.567 345.795c3.31836 44.9521 113.631 44.8594 114.535 0c1.2334 -61.3682 2.4873 -122.559 13.5918 -183.135c5.19238 -28.332 11.21 -57.9238 21.6016 -84.877
c8.51172 -22.0898 22.8691 -52.8301 48.6875 -36.1768c52.1504 33.6436 69.6748 110.939 87.7529 166.185c19.1807 58.6035 35.293 118.243 49.5381 178.232c0.0136719 2.63965 -0.0527344 5.2793 -0.0263672 7.91895c0.507812 48.6143 118.678 48.001 123.303 0
c9.0791 -94.2461 16.6797 -190.597 18.4482 -286.763c35.4902 24.4189 69.5293 50.8506 100.579 81.4326zM283.066 -292.841c60.5166 89.4229 51.6426 213.993 46.2324 319.403c-79.2617 -50.0654 -162.08 -109.131 -204.215 -195.452
c-24.6963 -50.6006 -30.542 -122.439 21.582 -158.643c49.874 -34.6465 105.363 -11.1709 136.4 34.6914z" />
    <glyph glyph-name="y" unicode="&#xfd;" horiz-adv-x="560" 
d="M552.133 228.501c11.8896 11.7119 57.8975 3.68848 41.4951 -13.8291c-41.6133 -44.3848 -90.6699 -79.8027 -141.719 -112.463c-0.0986328 -61.2031 -2.79688 -122.182 -9.3291 -182.343c-13.5986 -125.23 -61.7373 -251.127 -194.767 -287.806
c-107.099 -29.5264 -216.85 46.5557 -188.999 163.32c25.251 105.858 126.504 182.111 212.767 238.228c18.3428 11.9355 36.9492 23.4824 55.6279 34.9297c-3.17383 62.3838 -7.89844 124.808 -11.6992 187.244c-7.16504 -23.1982 -14.7529 -46.2715 -22.8486 -69.1934
c-22.7432 -64.377 -55.2715 -128.773 -126.972 -146.7c-168.421 -42.1084 -199.491 238.577 -191.567 345.795c3.31836 44.9521 113.631 44.8594 114.535 0c1.2334 -61.3682 2.4873 -122.559 13.5918 -183.135c5.19238 -28.332 11.21 -57.9238 21.6016 -84.877
c8.51172 -22.0898 22.8691 -52.8301 48.6875 -36.1768c52.1504 33.6436 69.6748 110.939 87.7529 166.185c19.1807 58.6035 35.293 118.243 49.5381 178.232c0.0136719 2.63965 -0.0527344 5.2793 -0.0263672 7.91895c0.507812 48.6143 118.678 48.001 123.303 0
c9.0791 -94.2461 16.6797 -190.597 18.4482 -286.763c35.4902 24.4189 69.5293 50.8506 100.579 81.4326zM283.066 -292.841c60.5166 89.4229 51.6426 213.993 46.2324 319.403c-79.2617 -50.0654 -162.08 -109.131 -204.215 -195.452
c-24.6963 -50.6006 -30.542 -122.439 21.582 -158.643c49.874 -34.6465 105.363 -11.1709 136.4 34.6914z" />
    <glyph glyph-name="z" unicode="z" horiz-adv-x="518" 
d="M548.713 219.692c7.83203 -5.85254 11.0908 -16.0635 -0.0205078 -21.2363c-49.3799 -23.001 -96.9648 -49.2939 -142.637 -78.5625c14.7861 -24.2148 25.4482 -51.2012 31.4854 -80.1006c26.2207 -125.566 -39.6406 -271.732 -126.774 -360.693
c-42.2334 -43.1182 -97.8809 -77.2822 -158.035 -87.2451c-58.043 -9.61328 -135.682 2.58008 -159.375 64.9844c-21.4834 56.5781 8.07617 121.456 37.4639 169.417c36.7314 59.9492 85.9922 111.737 137.067 159.586c42.0029 39.3438 86.4209 76.0088 132.957 109.698
c-7.73242 13.1562 -17.1211 25.3623 -28.3184 36.1631c-21.4502 20.6982 -62.6807 47.3477 -95.5254 39.7666c-7.54199 -3.29883 -15.1299 -6.38672 -22.7568 -9.1377c-21.8926 -7.88477 -54.5596 -6.625 -73.4893 8.36523
c-17.3193 13.7168 -13.6904 31.6172 4.4541 42.6357c15.8223 9.60645 33.1553 16.1191 51.2334 20.1641c35.7881 16.416 67.4854 39.3047 95.3486 68.8574c21.0811 22.3604 42.5508 49.8281 47.2158 81.1748c5.28516 35.4902 -15.3799 64.3174 -52.6455 61.8428
c-53.5889 -3.55664 -106.709 -42.2012 -141.619 -80.5488c-29.5859 -32.4951 -78.6748 -99.6758 -50.7656 -144.245c10.8203 -17.2734 -37.7871 -22.3213 -47.8164 -7.51562c-40.7754 60.207 30.5098 148.996 73.7861 188.043
c50.1387 45.2422 124.228 83.8535 193.737 74.0947c78.5361 -11.0254 106.406 -92.7354 77.1113 -160.562c-14.8457 -34.3691 -38.3477 -64.001 -66.6006 -88.5918c17.5244 -5.33789 34.3164 -12.1074 49.6572 -20.0781c27.2959 -14.1787 50.6396 -32.957 69.7471 -55.166
c41.2441 25.3301 83.8867 48.4102 127.862 68.8906c10.3389 4.81641 27.2559 7.46875 37.252 0zM232.199 -280.104c60.7676 76.1143 103.516 184.946 96.3701 282.881c-1.36621 18.6729 -4.90918 37.2598 -10.7617 55.0088
c-25.0723 -19.293 -49.4717 -39.5156 -73.1318 -60.6553c-38.2549 -34.1777 -75.4277 -70.1826 -108.557 -109.414c-33.8809 -40.1162 -71.8525 -93.1377 -79.3281 -146.602c-6.00391 -42.9463 14.9053 -111.704 70.2695 -98.7588
c42.4316 9.92383 78.8262 44.583 105.139 77.54z" />
    <glyph glyph-name="braceleft" unicode="{" horiz-adv-x="578" 
d="M472.392 -203.663c14.1924 15.2412 71.1953 6.94531 52.167 -17.3818c-39.9512 -51.0752 -114.014 -61.9756 -174.465 -50.2969c-70.6709 13.6514 -126.833 66.9502 -155.766 131.38c-36.1436 80.4893 -26.1016 168.388 -21.8789 253.707
c2.03906 41.1318 2.87695 83.0889 -4.49316 123.785c-3.26562 18.0391 -7.71973 39.0078 -18.8105 54.1045c-0.666016 0.904297 -3.93848 4.17676 -6.98633 7.04688c-23.5742 -5.8916 -52.8164 -4.56543 -73.29 8.04297c-17.2607 10.6299 -26.7686 29.3682 -10.4248 46.0479
c95.4141 97.4199 143.171 223.831 200.297 344.938c25.3301 53.708 53.207 106.241 99.4521 144.979c32.4229 27.1641 78.6025 48.9307 116.343 19.2393c17.3994 -13.6904 -26.2002 -25.4873 -38.1299 -16.7715c-17.7158 12.9453 -50.4355 -39.9971 -56.1562 -51.0352
c-10.2734 -19.8271 -17.3467 -40.9668 -23.6211 -62.3379c-13.9746 -47.585 -24.8154 -95.7236 -40.1357 -142.959c-25.6006 -78.9189 -57.8711 -154.453 -103.905 -222.564c31.6172 -12.5361 58.6035 -34.7314 73.3564 -66.7383
c31.915 -69.2266 23.417 -154.381 19.0889 -228.002c-4.53906 -77.21 -11.8301 -162.252 24.1289 -233.543c29.0244 -57.5479 90.2275 -98.5742 143.229 -41.6396zM136.489 303.398c-0.138672 -0.455078 0.494141 -0.77832 1.53027 -1.02246
c-0.857422 0.71875 -1.48438 1.17383 -1.53027 1.02246z" />
    <glyph glyph-name="verticalbar" unicode="|" horiz-adv-x="271" 
d="M209.942 21.0723c4.32129 -81.3799 22.8271 -172.975 -1.26172 -251.913c-9.0459 -29.6514 -73.4619 -22.0635 -86.0908 0c-42.3721 74.0498 -43.4678 174.986 -51.9463 258.379c-8.74902 86.0781 -13.4268 172.585 -16.5215 259.039
c-6.22168 173.97 -8.31348 352.143 15.2285 524.932c7.39648 54.2617 140.96 55.2842 140.313 -0.000976562c-2.05176 -175.138 -13.2617 -349.622 -10.2529 -524.932c1.51758 -88.5781 5.83301 -177.051 10.5312 -265.504z" />
    <glyph glyph-name="braceright" unicode="}" horiz-adv-x="578" 
d="M519.996 352.768c16.1582 -16.502 6.74609 -35.5029 -10.4355 -46.0332c-20.4277 -12.543 -50.165 -13.8359 -73.6211 -7.9375c-4.30859 -4.75098 -9.30371 -11.1572 -9.01953 -10.7148c-9.3291 -14.6738 -13.4395 -33.7021 -16.4482 -50.54
c-7.62695 -42.709 -6.45215 -86.5791 -4.19531 -129.71c4.36133 -83.2402 13.3086 -169.397 -22.1758 -247.782c-29.9678 -66.1982 -87.3906 -119.398 -160.272 -132.179c-59.3027 -10.3916 -131.01 1.31348 -169.958 51.0957
c-19.1338 24.4521 38.1172 32.4688 52.1641 17.3789c54.8096 -58.874 117.075 -12.9717 145.414 45.9287c33.7754 70.1895 26.3984 153.819 21.9512 229.248c-4.40039 74.5508 -13.6904 163.268 21.3252 232.487c15.0234 29.6973 41 50.2959 71.1533 62.2051
c-46.0537 68.1182 -78.3311 143.672 -103.938 222.61c-15.8154 48.7656 -26.7021 98.6201 -41.5078 147.63c-6.40625 21.2129 -13.6836 42.2676 -24.3662 61.7715c-5.87207 10.7217 -37.4629 59.0322 -54.0371 46.9248c-11.7705 -8.59766 -55.5879 3.03418 -38.1299 16.7715
c39.4102 31.0107 87.0605 6.07031 119.991 -22.3672c44.292 -38.2422 71.2188 -89.7197 95.8096 -141.851c57.1191 -121.106 104.882 -247.524 200.296 -344.938zM439.425 302.313c1.62305 0.165039 2.69922 0.474609 2.50781 1.08789
c-0.198242 0.660156 -1.16797 0.0996094 -2.50781 -1.08789z" />
    <glyph glyph-name="nonbreakingspace" unicode="&#xa0;" horiz-adv-x="334" 
 />
    <glyph glyph-name="exclamdown" unicode="&#xa1;" horiz-adv-x="231" 
d="M179.918 206.932c2.44141 -101.813 2.05273 -204.115 -2.20996 -305.87c-2.08496 -49.9268 -125.93 -49.5967 -126.906 0.000976562c-2.0127 101.827 -0.138672 204.129 4.5459 305.87c4.47363 97.083 -0.521484 205.343 32.165 298.098
c7.01367 19.8994 59.9697 20.4736 66.7061 0c30.6875 -93.2295 23.377 -201.107 25.6992 -298.099zM67.0273 615.164c-3.86621 27.4277 0.521484 56.4248 -1.78125 84.2422c-1.88086 22.7168 36.124 28.7344 51.082 29.1172c18.25 0.46875 49.2275 -6.7627 51.082 -29.1172
c2.4541 -29.6514 3.78711 -63.4463 -8.14258 -91.3623c-12.6553 -29.6182 -87.4043 -27.1963 -92.2402 7.12012z" />
    <glyph glyph-name="cent" unicode="&#xa2;" horiz-adv-x="604" 
d="M509.205 94.4551c3.97168 15.9873 49.1592 12.8389 44.3359 -6.97461c-23.7393 -97.4795 -101.807 -218.646 -208.041 -242.372c1.45801 -83.2207 4.24902 -166.422 8.55078 -249.544c1.02246 -19.7285 -50.1055 -20.2236 -51.1348 -0.000976562
c-4.17676 81.9736 -6.85547 163.974 -8.19531 245.974c-1.86035 0.145508 -3.70801 0.211914 -5.58203 0.422852c-58.9268 6.59766 -110.998 49.6631 -148.369 93.1904c-44.3848 51.6885 -69.0146 112.588 -80.6797 179.307
c-23.1787 132.574 -6.37988 282.916 49.875 405.797c40.208 87.8125 124.57 178.727 223.798 189.726c3.08789 28.9121 6.30078 57.8184 9.74512 86.6982c2.24316 18.7979 48.9834 17.5439 47.0107 0c-3.29199 -29.2158 -6.35352 -58.458 -9.29004 -87.7197
c10.8604 -1.68262 21.8262 -4.30176 32.8848 -8.14844c122.222 -42.5039 107.634 -227.525 82.1855 -327.136c-6.09668 -23.8516 -74.3066 -21.6016 -74.0166 5.70801c0.613281 58.1816 13.0898 114.252 4.13672 172.651
c-4.32812 28.2461 -19.7939 89.0801 -51.1279 95.8096c-23.4492 -254.789 -33.5703 -510.805 -30.3506 -766.655c43.7451 10.3525 81.1758 51.6826 106.077 85.834c27.916 38.2881 46.793 81.5576 58.1875 127.434zM294.082 -112.947
c-2.44141 245.399 7.86328 490.7 30.877 735.117c-55.3574 -52.665 -85.4639 -141.54 -105.337 -210.146c-28.7344 -99.1943 -38.1758 -206.366 -28.0146 -309.177c4.68457 -47.4268 13.7373 -93.8105 35.6035 -136.605c13.8496 -27.1045 37.002 -63.1426 66.8711 -79.1885z
" />
    <glyph glyph-name="sterling" unicode="&#xa3;" horiz-adv-x="713" 
d="M610.416 -66.127c15.1553 12.6748 68.4072 0.889648 48.1641 -16.0342c-90.6963 -75.877 -197.993 -44.3848 -295.71 -2.2627c-16.6074 -35.3262 -39.5488 -67.2148 -73.7266 -86.7188c-54.5527 -31.1162 -130.305 -26.3262 -182.297 7.96387
c-44.6426 29.4473 -78.7803 92.3662 -39.8125 140.011c37.7402 46.1396 104.116 47.6172 157.619 35.3711c13.7041 -3.14062 27.0713 -7.19824 40.2275 -11.8428c24.1748 75.0586 32.7129 156.689 35.0352 236.796c-2.66602 -0.421875 -5.33789 -0.804688 -8.00391 -1.2334
c-22.8164 -3.69531 -42.5186 20.3145 -12.2275 25.2764c6.92773 1.13477 13.8691 2.15039 20.8037 3.23926c0.389648 29.3477 0.125977 58.3789 -0.395508 86.6445c-1.31348 71.5625 -7.87891 143.428 -3.39844 214.99c3.66895 58.6367 16.957 129.955 63.4404 170.672
c35.7939 31.3535 95.2285 36.7637 137.066 15.5713c50.6592 -25.666 67.9062 -79.8887 74.2734 -132.712c2.07812 -17.2402 -43.4482 -18.1973 -45.9814 0c-5.50977 39.6074 -17.1885 86.5527 -54.2822 108.563c-44.3516 26.3125 -62.7998 -33.7031 -68.6455 -66.8643
c-14.1201 -80.1064 1.33203 -161.407 8.81445 -241.229c4.31543 -46.041 7.63379 -92.6299 8.86719 -139.291c15.3203 1.76172 30.6611 3.41797 46.0146 4.94238c22.8818 2.27637 43.3027 -22.5254 12.3584 -25.5537c-19.332 -1.89355 -38.625 -4.03809 -57.9043 -6.30762
c0.732422 -89.7861 -7.11914 -179.525 -31.7168 -265.88c-3.57617 -12.5498 -7.57422 -25.3896 -12.127 -38.1631c9.66602 -4.71777 19.3457 -9.3623 29.0908 -13.8164c64.542 -29.4932 143.923 -52.7646 204.453 -2.13184zM191.468 -124.052
c-5.39062 0.500977 -6.98047 -4.94238 0.581055 -0.0332031c-0.171875 0.00683594 -0.336914 0.0136719 -0.581055 0.0332031zM237.133 -68.4434c5.44336 10.8936 10.2793 22.083 14.8447 33.3857c-23.9902 9.48828 -49.9336 17.043 -73.2969 14.5947
c-37.417 -3.91895 -47.459 -41.0264 -29.8428 -70.5c8.66309 -14.4893 21.1396 -22.2422 35.1143 -30.4697c-0.105469 0.0664062 6.92773 -1.65527 8.50488 -2.36816c0.771484 0.514648 1.52344 1.00293 2.48047 1.74219c19.0225 14.6475 31.4932 32.1846 42.1953 53.6152z
" />
    <glyph glyph-name="currency" unicode="&#xa4;" horiz-adv-x="508" 
d="M410.341 546.353c12.6484 13.2686 61.502 3.43555 44.1621 -14.7158c-21.1797 -22.1631 -41.6865 -44.8672 -61.7383 -67.9473c10.623 -9.63965 20.1768 -20.7568 28.3584 -33.3721c47.1689 -72.7363 38.5518 -184.144 -11.5469 -253.191
c-1.76172 -2.42773 -3.58984 -4.7832 -5.46387 -7.07227c11.6914 -14.7266 23.6006 -29.2881 35.9189 -43.5264c17.043 -19.6953 -32.9238 -29.0186 -45.0439 -15.0039c-8.15527 9.42871 -16.0996 19.0225 -23.9443 28.6953
c-61.6055 -40.9668 -150.124 -36.2959 -214.811 -1.66992c-1.91992 1.02246 -3.76758 2.10449 -5.62207 3.17969c-16.9766 -24.835 -33.8545 -49.7295 -50.6992 -74.6309c-10.5498 -15.6045 -59.2891 -8.69629 -48.3096 7.58789
c21.1133 31.3145 42.2598 62.6416 63.6113 93.8301c-51.4316 50.4287 -64.3574 126.425 -59.2178 199.867c1.08887 15.5586 13.7441 26.2412 30.7012 32.1592c5.74023 11.3818 12.5498 22.0117 19.418 31.1895c8.63672 11.5527 18.626 21.7529 29.4668 30.8584
c-17.1611 21.0215 -34.9365 41.5674 -53.7734 61.2959c-15.7432 16.4814 28.4043 24.7822 39.7002 13.2227c16.416 -16.7988 32.0996 -34.1914 47.2881 -51.9668c16.1787 8.68262 33.5449 15.2939 51.6758 19.5166c46.8652 10.9131 96.0068 5.37109 136.94 -16.2637
c17.2471 19.6426 34.8506 38.9883 52.9287 57.958zM265.959 480.535c-26.4385 -0.679688 -51.7871 -9.44141 -73.6064 -23.7852c23.166 -28.6816 45.2627 -58.2139 66.8906 -88.123c22.9482 29.7764 46.4697 59.1045 70.7236 87.8389
c-14.8457 15.3799 -35.6826 24.8018 -64.0078 24.0693zM184.448 368.389c-0.620117 -28.332 -1.21387 -62.4766 4.82324 -94.0088c14.041 19.5498 28.2461 38.9678 42.6494 58.2344c-22.8955 32.9375 -46.1143 65.624 -70.5068 97.3936
c-1.06934 -1.19434 -2.15137 -2.375 -3.18066 -3.60254c-5.32422 -6.34082 -10.8867 -13.9092 -15.9932 -22.2031c23.5615 -4.33496 42.6367 -16.2969 42.208 -35.8135zM252.21 186.343c25.0859 -10.0615 46.041 4.86328 62.4502 27.8643
c-19.1338 26.4775 -37.7471 53.3447 -56.3203 80.2451c-17.1348 -23.2979 -34.0195 -46.793 -50.6924 -70.4404c10.0879 -16.2842 24.3662 -29.5664 44.5625 -37.6689zM353.674 304.361c8.8418 34.0723 10.4893 77.0977 -0.826172 112.106
c-22.9014 -27.8828 -45.1758 -56.2676 -66.9561 -85.0479c17.3857 -24.4717 34.6729 -49.0293 52.1904 -73.4023c7.34375 17.7285 12.6025 34.8174 15.5918 46.3438z" />
    <glyph glyph-name="yen" unicode="&#xa5;" horiz-adv-x="676" 
d="M602.538 157.783c-16.2373 0.976562 -32.4365 1.40039 -48.6152 1.44629c-2.19727 -15.5908 -4.77051 -31.1162 -7.77246 -46.5098c14.0078 0.567383 28.0225 1.13477 42.0371 1.57031c33.1553 1.0293 32.6406 -29.9883 0 -30.9121
c-16.2578 -0.461914 -32.5156 -1.03613 -48.7666 -1.66992c-9.58691 -39.9111 -22.5781 -78.3779 -40.6768 -113.604c-42.7549 -83.2012 -133.894 -171.509 -235.893 -138.697c-95.876 30.8389 -134.257 150.89 -119.741 241.572c3.02148 18.9033 50.2568 18.5801 48.5547 0
c-4.5459 -49.5312 1.67578 -98.8975 24.3135 -143.658c20.1045 -39.7529 58.7422 -84.7578 108.643 -71.7598c81.5117 21.2393 100.877 141.771 108.392 220.77c-20.8428 -1.29297 -41.6797 -2.68555 -62.5098 -4.25586
c-26.0156 -1.96582 -36.6719 27.4609 -7.07324 29.7764c24.043 1.88086 48.0928 3.53027 72.1494 5.06738c1.1543 14.7529 2.14355 29.5127 3.01465 44.2793c-16.165 -2.25684 -32.2969 -4.92871 -48.3896 -8.11523c-23.6602 -4.69141 -43.4473 19.1865 -12.6348 26.1211
c20.7969 4.68457 41.6797 8.40625 62.6221 11.3887c4.36816 93.0059 3.4707 186.189 -0.883789 279.234c-4.48633 -19.7217 -9.73145 -39.2852 -15.9473 -58.6367c-26.1875 -81.5449 -74.4189 -186.328 -170.024 -199.577
c-117.154 -16.2314 -170.36 101.668 -189.798 196.31c-21.0869 102.679 -13.8486 208.042 -3.12012 311.387c5.36426 51.6826 133.9 50.3896 131.03 0.000976562c-4.63867 -81.4785 -15.1621 -161.896 -10.4443 -243.678
c2.61914 -45.4277 6.27441 -92.2998 19.7412 -135.979c7.70605 -25 22.5186 -79.2295 54.0635 -84.251c43.3359 -6.9082 77.5469 65.7891 92.3994 96.2852c17.9336 36.8174 31.2881 75.7725 41.2773 115.446c20.2627 80.4561 26.9072 163.729 32.6143 246.284
c-0.421875 4.31543 -0.824219 8.64355 -1.25977 12.959c-5.06055 50.5605 126.062 52.375 133.095 0c17.333 -129.09 21.3711 -259.711 14.9512 -389.771c-2.18359 -44.2793 -4.81641 -91.165 -10.1807 -138.09c14.918 -0.0722656 29.8555 -0.421875 44.833 -1.29297
c31.0635 -1.80078 31.4463 -31.3271 0 -29.4404z" />
    <glyph glyph-name="section" unicode="&#xa7;" horiz-adv-x="454" 
d="M404.079 239.968c-2.75098 -45.6514 -21.6641 -96.5049 -60.1172 -121.353c16.9238 -26.8799 29.3477 -56.4854 34.9229 -89.126c32.1982 -188.571 -269.865 -209.435 -327.394 -55.2393c-12.6416 33.874 58.6436 30.4893 72.6709 11.4141
c18.917 -25.7188 49.9014 -53.0742 83.333 -54.9346c34.9697 -1.94629 53.2861 23.667 56.499 56.0635c6.65039 67.1475 -33.96 128.76 -79.0176 174.432c-41.4814 42.0488 -98 83.0225 -95.123 149.003c2.15137 49.4062 38.9883 100.132 81.5195 125.567
c-32.8584 37.4834 -60.3916 78.5098 -69.9785 129.274c-16.5938 87.9453 44.5898 175.752 127.421 202.863c34.1777 11.1904 75.4746 11.8105 107 -7.37012c30.7861 -18.7314 41.4092 -53.3975 49.373 -86.4209c5.14648 -21.3574 -42.8672 -24.6631 -47.8154 -7.51465
c-9.48828 32.8779 -30.6875 99.6895 -76.3262 64.4561c-27.085 -20.9092 -37.8262 -65.6172 -39.4756 -97.5645c-4.3877 -85.1543 41.3828 -142.827 93.2764 -204.473c46.1992 -54.8818 93.8301 -112.904 89.2314 -189.078zM322.61 148.424
c19.3916 26.6494 13.3555 71.8516 2.34961 99.7549c-16.1582 40.9805 -45.9287 74.9072 -75.8311 106.479c-17.1875 18.1445 -35.4248 36.0186 -53.0947 54.4141c-28.167 -23.04 -36.5664 -54.6377 -26.6895 -93.7246c11.0645 -43.7842 41.3232 -68.6582 76.1279 -94.5488
c28.3389 -21.0811 55.001 -45.1172 77.1377 -72.374z" />
    </font>
</defs>
</svg>
