<?xml version="1.0" standalone="no"?>
<!DOCTYPE svg PUBLIC "-//W3C//DTD SVG 1.1//EN" "http://www.w3.org/Graphics/SVG/1.1/DTD/svg11.dtd" >
<svg xmlns="http://www.w3.org/2000/svg" xmlns:xlink="http://www.w3.org/1999/xlink" version="1.1">
<metadata>
Created by FontForge 20170812 at Thu Jun 16 08:27:09 2022
 By www-data
</metadata>
<defs>
<font id="AiryRegular" horiz-adv-x="0" >
  <font-face 
    font-family="Airy"
    font-weight="400"
    font-stretch="normal"
    units-per-em="1000"
    panose-1="0 0 0 0 0 0 0 0 0 0"
    ascent="800"
    descent="-200"
    x-height="274.611"
    cap-height="701.812"
    bbox="-160.001 -289.561 1230.61 886.361"
    underline-thickness="50"
    underline-position="-100"
    unicode-range="U+000A-20AC"
  />
<missing-glyph horiz-adv-x="527" 
d="M50 700h427v-700h-427v700zM78 680l185 -309l186 309h-371zM251 350l-180 300v-601zM264 329l-185 -308h370zM276 350l181 -303v605z" />
    <glyph glyph-name=".notdef" horiz-adv-x="527" 
d="M50 700h427v-700h-427v700zM78 680l185 -309l186 309h-371zM251 350l-180 300v-601zM264 329l-185 -308h370zM276 350l181 -303v605z" />
    <glyph glyph-name=".null" 
 />
    <glyph glyph-name=".null" 
 />
    <glyph glyph-name="LF" unicode="&#xa;" 
 />
    <glyph glyph-name="controlCR" unicode="&#xd;" 
 />
    <glyph glyph-name="space" unicode=" " horiz-adv-x="388" 
 />
    <glyph glyph-name="exclam" unicode="!" horiz-adv-x="184" 
d="M132.147 447.156c2.20605 -65.0781 1.94531 -130.484 -0.117188 -195.571c-1.96973 -62.0244 2.17285 -131.11 -17.8945 -190.599c-4.3623 -12.9209 -38.2109 -12.8955 -42.6484 0c-20.4385 59.3877 -16.7266 128.558 -19.0977 190.599
c-2.48926 65.0693 -3.17285 130.477 -1.37988 195.571c0.876953 31.8916 80.0576 31.7441 81.1377 0zM128.284 -9.35645c2.71289 -17.5146 0.177734 -36.1016 1.90723 -53.8779c1.40918 -14.4863 -23.2686 -18.376 -32.6592 -18.6162
c-11.8203 -0.303711 -31.2715 4.33203 -32.6592 18.6162c-1.84375 18.9746 -2.96582 40.4424 4.4375 58.4297c7.93457 19.2822 55.6201 17.0889 58.9736 -4.55176z" />
    <glyph glyph-name="quotedbl" unicode="&#x22;" horiz-adv-x="265" 
d="M89.9668 525.244c10.3096 0 36.1416 -4.58496 34.6396 -19.7373c-1.52246 -15.3594 -3.52246 -30.6221 -5.23535 -45.9521c-1.47266 -13.1738 -0.0976562 -30.208 -6.58984 -41.8682c-7.79199 -13.9971 -32.791 -13.9971 -44.9482 -6.7666
c-16.6631 9.90527 -17.7852 24.1045 -17.832 42.4717c-0.0419922 17.8057 1.43848 34.7344 5.32812 52.1104c3.4209 15.2832 20.5352 19.7422 34.6377 19.7422zM180.666 525.245c10.3096 0 36.1416 -4.58496 34.6396 -19.7373
c-1.52246 -15.3594 -3.52246 -30.6221 -5.23535 -45.9521c-1.47266 -13.1738 -0.0976562 -30.208 -6.58984 -41.8682c-7.79199 -13.9971 -32.791 -13.9971 -44.9482 -6.7666c-16.6631 9.90527 -17.7852 24.1045 -17.832 42.4717
c-0.0419922 17.8057 1.43848 34.7344 5.32812 52.1104c3.4209 15.2832 20.5352 19.7422 34.6377 19.7422z" />
    <glyph glyph-name="quotedbl" unicode="&#x201d;" horiz-adv-x="265" 
d="M89.9668 525.244c10.3096 0 36.1416 -4.58496 34.6396 -19.7373c-1.52246 -15.3594 -3.52246 -30.6221 -5.23535 -45.9521c-1.47266 -13.1738 -0.0976562 -30.208 -6.58984 -41.8682c-7.79199 -13.9971 -32.791 -13.9971 -44.9482 -6.7666
c-16.6631 9.90527 -17.7852 24.1045 -17.832 42.4717c-0.0419922 17.8057 1.43848 34.7344 5.32812 52.1104c3.4209 15.2832 20.5352 19.7422 34.6377 19.7422zM180.666 525.245c10.3096 0 36.1416 -4.58496 34.6396 -19.7373
c-1.52246 -15.3594 -3.52246 -30.6221 -5.23535 -45.9521c-1.47266 -13.1738 -0.0976562 -30.208 -6.58984 -41.8682c-7.79199 -13.9971 -32.791 -13.9971 -44.9482 -6.7666c-16.6631 9.90527 -17.7852 24.1045 -17.832 42.4717
c-0.0419922 17.8057 1.43848 34.7344 5.32812 52.1104c3.4209 15.2832 20.5352 19.7422 34.6377 19.7422z" />
    <glyph glyph-name="quotedbl" unicode="&#x201c;" horiz-adv-x="265" 
d="M89.9668 525.244c10.3096 0 36.1416 -4.58496 34.6396 -19.7373c-1.52246 -15.3594 -3.52246 -30.6221 -5.23535 -45.9521c-1.47266 -13.1738 -0.0976562 -30.208 -6.58984 -41.8682c-7.79199 -13.9971 -32.791 -13.9971 -44.9482 -6.7666
c-16.6631 9.90527 -17.7852 24.1045 -17.832 42.4717c-0.0419922 17.8057 1.43848 34.7344 5.32812 52.1104c3.4209 15.2832 20.5352 19.7422 34.6377 19.7422zM180.666 525.245c10.3096 0 36.1416 -4.58496 34.6396 -19.7373
c-1.52246 -15.3594 -3.52246 -30.6221 -5.23535 -45.9521c-1.47266 -13.1738 -0.0976562 -30.208 -6.58984 -41.8682c-7.79199 -13.9971 -32.791 -13.9971 -44.9482 -6.7666c-16.6631 9.90527 -17.7852 24.1045 -17.832 42.4717
c-0.0419922 17.8057 1.43848 34.7344 5.32812 52.1104c3.4209 15.2832 20.5352 19.7422 34.6377 19.7422z" />
    <glyph glyph-name="numbersign" unicode="#" horiz-adv-x="537" 
d="M474.044 244.501c28.0068 -9.18359 4.69238 -29.1367 -13.8984 -29.2549c-23.5645 -0.164062 -47.1875 3.30762 -70.832 5.02441c-4.12988 -15.5068 -8.19238 -31.0352 -12.0986 -46.6094c-4.45898 -17.7637 -8.70312 -35.6074 -12.8623 -53.4941
c12.6133 -0.371094 25.2139 -0.818359 37.7979 -1.3623c8.73242 -0.379883 27.5508 -3.24805 27.5508 -15.7051c0 -11.8662 -18.4727 -16.1943 -27.5508 -15.7051c-14.9717 0.805664 -29.9385 1.40918 -44.9014 1.86523
c-17.5576 -77.1514 -34.3848 -154.708 -58.6709 -229.729c-6.78711 -20.9746 -68.6387 -20.0381 -67.3896 5.19629c3.74219 75.5488 18.418 151.076 35.5615 225.507c-9.1543 -0.0585938 -18.3086 -0.155273 -27.4629 -0.294922
c-17.6123 -77.3789 -34.4736 -155.167 -58.8271 -230.412c-6.78711 -20.9746 -68.6387 -20.0381 -67.3896 5.19629c3.69531 74.6504 18.0635 149.283 34.9414 222.845c-27.3691 -0.949219 -54.7432 -2.0498 -82.1338 -3.16309
c-16.6504 -0.678711 -23.3154 15.9082 -4.52246 19.0381c30.8623 5.14258 61.9268 8.94727 93.1016 11.7188c5.4248 22.8682 10.9844 45.6221 16.4512 68.2246c2.66992 11.04 5.36133 22.0879 8.06152 33.1445c-21.3711 0.0966797 -42.6865 1.13867 -63.8506 3.94824
c-17.7559 2.3623 -18.4814 20.4424 0 22.1387c23.8008 2.18555 47.6943 3.88965 71.6133 5.34961c20.9697 84.3652 43.6104 168.663 72.2959 250.519c10.7783 30.748 96.417 24.4199 86.1875 -13.542c-20.9238 -77.6494 -43.999 -154.637 -65.2646 -232.164
c4.96973 0.236328 9.93945 0.46875 14.9043 0.705078c3.82617 0.181641 7.65234 0.316406 11.4785 0.476562c20.5527 82.3652 42.8047 164.608 70.8115 244.523c10.7783 30.748 96.417 24.4199 86.1875 -13.542c-20.7842 -77.1387 -43.6865 -153.624 -64.8379 -230.637
c25.2646 -0.865234 51.8203 -2.02148 75.5488 -9.80469zM289.031 183.384c2.99121 12.3643 6 24.7422 9.0293 37.1191c-3.76758 -0.118164 -7.53906 -0.219727 -11.3066 -0.354492c-5.24805 -0.185547 -10.5039 -0.405273 -15.7646 -0.632812
c-4.05859 -15.2578 -8.04883 -30.5371 -11.8965 -45.8633c-4.42969 -17.6709 -8.65625 -35.4268 -12.7949 -53.2158c9.22168 0.261719 18.4434 0.472656 27.6689 0.59082c4.98242 20.8896 10.0654 41.6904 15.0645 62.3564z" />
    <glyph glyph-name="dollar" unicode="$" horiz-adv-x="475" 
d="M383.882 18.1504c26.8164 -24.7793 54.377 -55.2344 33.3057 -92.0654c-17.376 -30.3691 -62.5391 -42.9229 -94.7686 -45.8164c-6.1123 -0.548828 -12.2373 -0.696289 -18.333 -0.523438c2.83496 -37.2529 6.24805 -74.4727 10.3691 -111.629
c1.40039 -12.6299 -32.2627 -13.4482 -33.6797 0c-4.0791 38.6748 -7.38184 77.4131 -10.0732 116.181c-53.8828 13.3555 -98.4463 54.9834 -99.7832 115.717c-0.265625 12.2256 30.8584 12.335 31.377 0c1.75098 -41.7754 28.749 -79.332 66.9805 -94.3369
c-2.67871 42.666 -4.50977 85.3691 -5.50977 128.085c-118.683 72.0088 -251.096 155.96 -204.014 307.744c25.0996 80.9268 102.475 145.397 186.329 156.42c13.1533 1.72559 26.6562 1.9873 40.0879 0.835938c2.84277 23.6826 5.85938 47.3486 9.22559 70.9766
c1.67871 11.7656 30.8828 10.8203 29.3975 0c-3.46289 -25.2305 -6.5293 -50.5029 -9.39355 -75.7969c48.7734 -12.0225 92.2656 -43.5469 108.633 -93.2363c5.02441 -15.2627 -29.8457 -17.5156 -35.0215 -5.50586c-13.875 32.1953 -42.9785 58.1855 -77.1943 65.9775
c-12.9082 -125.221 -18.5059 -251.07 -16.8477 -376.86c30.7188 -20.5059 61.5771 -40.9062 88.9131 -66.166zM262.868 106.167c-0.134766 119.201 6.23828 238.385 19.168 356.966c-39.8135 -3.49316 -74.4131 -29.2129 -98.3652 -60.0156
c-53.7305 -69.0938 -53.3926 -165.385 3.83887 -231.652c22.1807 -25.6865 48.2041 -46.2266 75.3584 -65.2979zM374.665 -79.1465c23.2939 19.873 4.15234 37.0498 -14.54 50.958c-18.8438 14.0225 -40.5391 27.8594 -63.5127 41.9697
c1.33691 -38.375 3.4082 -76.7295 6.10352 -115.05c25.0576 -0.936523 53.3252 6.23535 71.9492 22.1221z" />
    <glyph glyph-name="percent" unicode="%" horiz-adv-x="585" 
d="M502.271 512.707c11.3184 -1.80957 41.1289 -13.5312 30.2959 -30.4092c-70.5498 -109.903 -144.344 -217.85 -217.412 -326.096c-37.1602 -55.0469 -74.418 -110.026 -112.604 -164.373c-17.5869 -25.0283 -35.4355 -49.9639 -54.0225 -74.2539
c-17.4307 -22.7842 -34.8613 -45.2393 -61.7754 -57.249c-7.23926 -3.22754 -43.6914 -5.77539 -35.584 11.8076c23.2607 50.4404 55.7852 98.6953 85.4492 145.55c33.5576 53.0049 67.4531 105.761 101.678 158.34c69.5537 106.85 138.636 214.188 210.624 319.418
c11.4365 16.7178 34.4141 20.2949 53.3506 17.2656zM157.781 187.532c-72.625 12.4736 -74.8945 91.9043 -66.0947 155.295c-6.23047 5.59375 -8.50391 15.4941 -3.93066 27.707c10.8496 28.9551 46.4658 46.1494 74.4678 52.8564
c67.1709 16.085 117.86 -37.2744 118.442 -102.989c0.598633 -67.4873 -45.8301 -146.103 -122.885 -132.869zM220.273 390.965c-15.1992 19.6709 -38.8047 18.709 -59.5977 10.3564c11.1025 -3.48047 18.6533 -10.0742 16.7256 -19.3799
c-8.58496 -41.4551 -18.54 -89.1367 -6.73242 -130.929c2.10547 -7.44531 7.25586 -13.9121 9.36133 -21.0371c0.101562 -0.118164 0.207031 -0.236328 0.308594 -0.350586c2.21484 1.50195 4.34473 2.9873 4.61426 3.21484c14.1191 11.7861 24.1719 28.96 31.6426 45.5049
c13.8828 30.7402 26.5254 83.0576 3.67773 112.62zM413.628 171.993c67.166 16.085 117.857 -37.2734 118.443 -102.988c0.598633 -67.4873 -45.8301 -146.103 -122.885 -132.869c-72.625 12.4736 -74.8945 91.9033 -66.0947 155.294
c-6.23047 5.59375 -8.50879 15.4941 -3.93164 27.707c10.8496 28.9551 46.4658 46.1494 74.4678 52.8564zM467.997 26.9463c13.8828 30.7402 26.5273 83.0547 3.67969 112.622c-15.1992 19.666 -38.8057 18.7041 -59.5986 10.3555
c11.1025 -3.48047 18.6533 -10.0742 16.7256 -19.3799c-8.58496 -41.4551 -18.541 -89.1367 -6.7334 -130.929c2.10547 -7.4502 7.25586 -13.9131 9.36133 -21.042c0.101562 -0.114258 0.207031 -0.232422 0.308594 -0.34668
c2.21484 1.50195 4.34473 2.9873 4.61426 3.21484c14.1191 11.7861 24.1719 28.96 31.6426 45.5049z" />
    <glyph glyph-name="ampersand" unicode="&#x26;" horiz-adv-x="574" 
d="M456.368 149.645c36.9111 -5.26074 69.835 -30.3516 67.2031 -70.6123c-2.6748 -40.7676 -30.9473 -76.9453 -59.127 -104.314c-33.2334 -32.2793 -74.2119 -56.084 -118.248 -71.1777c0.970703 -12.5166 1.99121 -25.0244 3.10449 -37.5283
c1.12598 -12.6465 -32.2295 -13.2793 -33.3516 0c-0.792969 9.36523 -1.48926 18.7305 -2.19824 28.0996c-27.374 -6.53906 -55.4561 -9.89648 -83.252 -9.84961c-40.4512 0.0673828 -92.0898 4.26074 -121.374 36.0088c-29.1416 31.5967 -24.2441 77.7598 -5.53516 113.33
c16.3545 31.0947 39.8047 60.2363 64.6182 86.2051c-15.9121 0.632812 -31.7021 3.24414 -47.1035 8.24707c-65.584 21.3115 -82.9932 85.8203 -63.6768 146.63c19.2275 60.5264 68.5791 108.748 122.542 139.787c41.1465 23.6699 90.9287 44.2139 140.551 52.1445
c1.86426 18.7471 3.83398 37.4775 6.02734 56.1953c1.42578 12.1621 31.6592 11.335 30.3848 0c-1.9873 -17.6377 -3.77148 -35.292 -5.47168 -52.9551c9.46191 0.425781 18.8525 0.362305 28.1035 -0.367188c52.5322 -4.14648 111.371 -41.3955 102.284 -101.289
c-2.12207 -13.9922 -37.0254 -13.5244 -35.6582 0c2.99512 29.5879 -16.1064 56.2656 -43.1006 67.7275c-16.9541 7.20117 -35.7891 7.39551 -54.376 4.53125c-6.32812 -72.7051 -10.167 -145.579 -11.6221 -218.499c3.42969 -0.827148 6.74121 -1.83984 9.69824 -3.15625
c10.2002 -4.53906 23.3662 -18.9531 10.1748 -29.0518c-6.54297 -5.00684 -13.3896 -9.90039 -20.4678 -14.6416c-0.0888672 -16.1318 -0.0673828 -32.2637 0.0800781 -48.3955c37.249 16.5283 80.3613 28.5547 119.791 22.9316zM227.245 -81.1729
c28.4072 -1.62793 56.79 1.66504 84.1338 8.97949c-3.32812 50.8408 -5.49219 101.736 -6.44531 152.645c-21.0625 -14.166 -39.9404 -29.125 -34.2451 -33.4951c11.5166 -8.83789 -17.2158 -16.7773 -25.1553 -11.0654c-30.499 21.9355 29.8926 59.0078 58.9404 74.8945
c-0.143555 14.9795 -0.177734 29.9551 -0.114258 44.9346c-11.5928 -6.23535 -23.6074 -11.8965 -35.9082 -16.8027c-33.6084 -27.876 -62.7871 -63.4756 -85.4531 -95.6582c-17.4219 -24.7373 -33.541 -55.6455 -24.4971 -86.6592
c9.18359 -31.4951 40.126 -36.1357 68.7441 -37.7725zM305.347 221.619c1.72559 70.626 5.71289 141.197 11.998 211.607c-4.70312 -1.375 -9.31348 -2.80078 -13.7686 -4.21777c-55.5693 -17.709 -108.887 -47.7656 -141.124 -97.9277
c-24.8809 -38.7168 -47.1084 -104.504 -12.7109 -144.689c15.1104 -17.6543 33.8525 -14.5283 53.9111 -8.35254c31.6426 9.74023 61.7246 24.2393 91.2666 39.0078c3.11719 2.0166 6.67773 3.47168 10.4277 4.57227zM471.567 34.3076
c19.1855 27.7578 29.3223 72.5205 -7.19238 91.4062c-32.0605 16.583 -82.0283 -2.97363 -112.431 -16.7002c-1.91895 -0.865234 -7.55078 -3.99121 -15.0215 -8.41211c0.923828 -54.0596 3.17676 -108.103 6.7793 -162.078
c19.9492 7.92676 39.0801 17.9668 56.8984 29.8838c26.4961 17.7178 52.7012 39.4805 70.9668 65.9004z" />
    <glyph glyph-name="quotesingle" unicode="'" horiz-adv-x="175" 
d="M89.9668 525.244c10.3096 0 36.1416 -4.58496 34.6396 -19.7373c-1.52246 -15.3594 -3.52246 -30.6221 -5.23535 -45.9521c-1.47266 -13.1738 -0.0976562 -30.208 -6.58984 -41.8682c-7.79199 -13.9971 -32.791 -13.9971 -44.9482 -6.7666
c-16.6631 9.90527 -17.7852 24.1045 -17.832 42.4717c-0.0419922 17.8057 1.43848 34.7344 5.32812 52.1104c3.4209 15.2832 20.5352 19.7422 34.6377 19.7422z" />
    <glyph glyph-name="quotesingle" unicode="&#x2019;" horiz-adv-x="175" 
d="M89.9668 525.244c10.3096 0 36.1416 -4.58496 34.6396 -19.7373c-1.52246 -15.3594 -3.52246 -30.6221 -5.23535 -45.9521c-1.47266 -13.1738 -0.0976562 -30.208 -6.58984 -41.8682c-7.79199 -13.9971 -32.791 -13.9971 -44.9482 -6.7666
c-16.6631 9.90527 -17.7852 24.1045 -17.832 42.4717c-0.0419922 17.8057 1.43848 34.7344 5.32812 52.1104c3.4209 15.2832 20.5352 19.7422 34.6377 19.7422z" />
    <glyph glyph-name="quotesingle" unicode="&#x2018;" horiz-adv-x="175" 
d="M89.9668 525.244c10.3096 0 36.1416 -4.58496 34.6396 -19.7373c-1.52246 -15.3594 -3.52246 -30.6221 -5.23535 -45.9521c-1.47266 -13.1738 -0.0976562 -30.208 -6.58984 -41.8682c-7.79199 -13.9971 -32.791 -13.9971 -44.9482 -6.7666
c-16.6631 9.90527 -17.7852 24.1045 -17.832 42.4717c-0.0419922 17.8057 1.43848 34.7344 5.32812 52.1104c3.4209 15.2832 20.5352 19.7422 34.6377 19.7422z" />
    <glyph glyph-name="parenleft" unicode="(" horiz-adv-x="405" 
d="M347.266 -167.622c11.2256 -8.88867 10.4336 -22.9395 -3.09082 -29.626c-69.832 -34.5156 -160.533 -13.1533 -212.196 44.1592c-44.9561 49.8711 -64.2812 118.008 -74.4814 182.977c-11.8623 75.5566 -9.23438 152.253 5.01562 227.266
c13.4902 71.0264 35.4766 142.369 74.4385 203.819c31.4951 49.6729 83.0996 93.0684 144.288 95.0762c19.1182 0.624023 18.498 -16.6172 0 -17.6973c-37.8398 -2.21094 -60.3154 -31.6729 -78.252 -61.6914c-18.751 -31.3809 -32.5205 -65.5381 -42.582 -100.619
c-21.1729 -73.832 -29.374 -152.144 -28.7158 -228.768c0.628906 -73.3125 10.8584 -151.151 40.7842 -218.693c20.1221 -45.4121 65.9727 -108.988 123.731 -90.3936c15.5869 5.01953 37.5908 4.85547 51.0605 -5.80859z" />
    <glyph glyph-name="parenright" unicode=")" horiz-adv-x="406" 
d="M283.62 434.391c68.5166 -128.503 89.4385 -293.521 58.1416 -435.324c-13.7734 -62.4209 -36.0088 -128.132 -87.3311 -169.971c-53.1738 -43.3486 -131.152 -57.1426 -193.48 -26.335c-13.875 6.85938 -14.1748 20.835 -3.09668 29.6221
c13.4902 10.6982 35.3418 10.8711 51.0596 5.80859c57.7461 -18.5869 103.613 44.9854 123.735 90.3926c29.9346 67.5547 40.1562 145.364 40.7852 218.693c0.658203 76.624 -7.54199 154.936 -28.7148 228.768c-10.0615 35.0811 -23.8311 69.2383 -42.582 100.619
c-17.916 29.9766 -40.4551 59.4805 -78.2529 61.6914c-18.6201 1.08789 -18.9912 18.3164 0 17.6963c73.4014 -2.40918 127.41 -61.0332 159.736 -121.661z" />
    <glyph glyph-name="asterisk" unicode="*" horiz-adv-x="282" 
d="M217.556 427.304c19.7764 0.421875 19.5156 -18.0566 -0.0078125 -18.4404c-15.8955 -0.320312 -31.7949 0.0126953 -47.6904 0.425781c13.7861 -16.4102 27.3779 -32.9717 40.1855 -50.1826c9.98047 -13.4102 -21.4678 -18.8145 -28.5127 -9.5
c-6.77441 8.95996 -13.6973 17.8057 -20.666 26.6094c0.417969 -11.04 0.814453 -22.0752 1.15234 -33.1152c0.387695 -12.7148 -32.2969 -12.875 -32.6934 0c-0.443359 14.4482 -0.797852 28.9053 -1.11426 43.3623c-8.39941 -9.81641 -16.5957 -19.8477 -24.4297 -30.2627
c-7.27637 -9.67676 -45.7314 -5.50488 -37.4043 8.99023c9.4873 16.5195 21.9111 31.0732 35.5869 44.6865c-10.875 -0.354492 -21.7461 -1.0293 -32.6084 -2.26074c-15.79 -1.78906 -29.8164 15.1689 -8.51758 17.6074c19.4678 2.22754 38.9189 2.92773 58.3701 2.98633
c-12.5879 15.79 -25.0117 31.7148 -36.9082 48.0449c-6.45801 8.87109 21.0889 13.9414 26.8682 6.45801c5.7666 -7.4668 11.6855 -14.8066 17.6543 -22.1006c-0.172852 10.0488 -0.345703 20.0977 -0.535156 30.1465c-0.219727 11.5967 29.2334 11.6807 29.7266 0
c0.43457 -10.2969 0.890625 -20.5898 1.3418 -30.8828c5.3916 4.91016 10.6689 9.87109 15.71 14.9502c7.74512 7.80371 38.0547 2.71191 27.3779 -9.12109c-11.6348 -12.8916 -23.459 -25.4795 -35.2031 -38.1143c17.4219 -0.354492 34.8525 -0.662109 52.3174 -0.287109z
" />
    <glyph glyph-name="plus" unicode="+" horiz-adv-x="309" 
d="M248.317 197.6c21.8184 -2.32031 7.33203 -19.6719 -8.68945 -17.9639c-11.3223 1.20215 -22.666 2.10938 -34.0137 2.84375c-0.527344 -48.9297 1.76367 -98.5557 -8.33105 -146.629c-4.01562 -19.1309 -50.4102 -24.4883 -56.3838 -4.34961
c-14.6807 49.4863 -15.4736 101.062 -17.3682 152.308c-17.9619 -0.573242 -35.916 -1.64062 -53.832 -3.32422c-5.31152 -0.501953 -16.9717 -0.467773 -19.2998 6.24414c-2.25684 6.49609 5.53418 10.415 10.9551 10.9971c20.54 2.21094 41.0674 3.59863 61.5947 4.32422
c-1.26562 46.3105 -0.763672 92.7139 1.97852 138.936c1.89453 31.9043 80.6494 31.7188 81.1387 0c0.716797 -46.6182 0.458984 -93.2832 -0.211914 -139.914c14.1484 -0.834961 28.3018 -1.96582 42.4629 -3.47168z" />
    <glyph glyph-name="comma" unicode="," horiz-adv-x="218" 
d="M101.171 33.5693c11.4316 23.6406 78.0195 13.2637 64.8916 -10.1953c-21.8984 -39.1387 -46.8926 -96.7715 -95.5781 -105.377c-11.8965 -2.10547 -31.5586 12.4316 -12.5967 17.0293c-2.37891 -0.578125 -1.32812 0.620117 0.0341797 4.0625
c1.25293 3.16797 1.91504 6.70312 2.99121 9.94336c3.10449 9.34375 7.56738 18.084 11.8242 26.9297c9.28516 19.3037 19.1104 38.3203 28.4336 57.6074z" />
    <glyph glyph-name="hyphen" unicode="-" horiz-adv-x="335" 
d="M251.256 119.846c10.5381 0.734375 33.3223 -4.79395 33.3184 -18.9932c0 -15.2285 -22.3281 -18.2871 -33.3174 -18.9912c-56.9199 -3.64062 -113.831 -7.06152 -170.789 -10.0186c-9.24707 -0.480469 -28.4033 3.59473 -30.2979 15.2461
c-1.87695 11.542 12.2256 18.4814 22.0967 19.291c59.6406 4.88965 119.294 9.29395 178.989 13.4658z" />
    <glyph glyph-name="period" unicode="." horiz-adv-x="166" 
d="M115.056 25.4404c2.3457 -5.44141 1.16016 -9.92188 -0.244141 -15.0303c-0.700195 -3.44238 -1.19824 -6.89355 -1.3877 -10.4199c-0.767578 -14.2754 -20.7676 -17.7725 -31.6719 -18.0508c-7.16309 -0.185547 -16.1318 1.59473 -22.3965 5.28613
c-3.61914 2.12988 -10.1455 7.54688 -9.27637 12.7646c0.915039 5.48828 2.15918 11.0098 3.99414 16.2705c2.49316 7.1543 6.85547 12.3682 13.373 16.3418c7.90918 4.82617 18.7842 5.61523 27.7148 4.17676c6.89746 -1.10938 16.7979 -4.16309 19.8945 -11.3389z" />
    <glyph glyph-name="slash" unicode="/" horiz-adv-x="403" 
d="M265.086 514.588c12.7607 30.2422 99.9902 23.0361 86.5078 -13.5967c-39.3584 -106.921 -82.29 -212.594 -122.521 -319.203c-19.9111 -52.7607 -39.1006 -105.77 -58.6367 -158.669c-10.0312 -27.1582 -20.0205 -54.4307 -30.7441 -81.3232
c-10.5547 -26.4707 -20.4092 -53.9287 -38.7422 -76.0625c-10.0654 -12.1572 -48.2041 -11.3223 -50.4189 7.7832c-3.15137 27.1543 8.4541 57.9873 15.9121 83.8975c7.54297 26.209 15.9336 52.2959 24.4131 78.2139c17.4473 53.3379 35.9492 106.355 54.4639 159.327
c37.4893 107.246 75.5947 214.931 119.767 319.633z" />
    <glyph glyph-name="zero" unicode="0" horiz-adv-x="442" 
d="M66.915 64.877c-9.91797 46.1924 -10.8223 93.8867 -8.06348 141.18c-10.4658 29.4453 -10.6934 63.8516 -5.64355 95.9287c8.90137 56.5439 32.166 118.383 78.6201 154.712c44.5811 34.8652 107.141 39.2227 153.4 5.18848
c50.3135 -37.0127 75.0928 -98.9316 90.4482 -157.479c16.1992 -61.75 19.7559 -127.643 13.1416 -191.051c-6.0957 -58.4297 -16.2578 -125.773 -58.9238 -169.696c-44.4453 -45.7539 -115.455 -54.5371 -171.455 -25.5938
c-55.5908 28.7324 -79.1133 89.0059 -91.5244 146.812zM161.394 434.423c-34.3379 -33.4062 -52.4766 -86.3037 -60.6816 -132.437c-0.636719 -3.57324 -1.22266 -7.24707 -1.78418 -10.959c27.083 4.10449 59.5781 -4.99512 57.583 -25.9824
c-3.50098 -36.8311 -6.52539 -73.8105 -6.4707 -110.781c35.8525 -7.7793 80.1045 17.9238 102.66 42.5723c7.53027 8.22559 37.4727 2.62793 27.0908 -9.02734c-30.8916 -34.6885 -81.8086 -57.7129 -129.427 -52.917c0.43457 -13.2207 1.30762 -26.4375 2.77539 -39.6416
c5.17578 -46.5469 14.7559 -106.302 54.249 -137.235c12.5078 -9.79492 21.7627 -13.5283 36.1055 -6.09961c17.1104 8.8584 30.0566 23.9902 39.4092 40.5439c23.75 42.0332 31.0264 92.7773 37.1055 139.978c6.20508 48.1875 6.95215 96.7842 1.23145 145.048
c-5.53418 46.6689 -14.7012 96.5098 -39.1895 137.403c-12.9385 21.6074 -33.4531 41.3838 -59.5234 45.0156c-22.9609 3.19727 -45.2686 -10.0449 -61.1338 -25.4805z" />
    <glyph glyph-name="one" unicode="1" horiz-adv-x="329" 
d="M81.5596 385.83c-6.53027 -9.76172 -37.4453 -5.86523 -30.5654 4.80762c26.5684 41.2188 77.4258 97.3584 132.249 90.5117c63.6777 -7.95215 71.1904 -92.7598 78.834 -142.331c10.6348 -68.9805 13.5156 -139.205 15.1777 -208.886
c1.6875 -70.8613 3.11328 -143.672 -2.99121 -214.302c-3.23145 -37.4014 -92.8359 -37.4434 -95.3125 0c-3.86426 58.4258 1.3584 117.417 3.64941 175.855c2.18945 55.8438 5.4541 111.633 7.35254 167.498c1.84766 54.3633 5.07031 110.718 1.31152 165.01
c-0.834961 12.0439 -1.75 29.2979 -13.4561 35.3896c-12.3008 6.39941 -29.668 -7.4541 -40.0078 -14.8154c-22.2734 -15.8486 -41.084 -36.0723 -56.2412 -58.7383z" />
    <glyph glyph-name="two" unicode="2" horiz-adv-x="518" 
d="M71.5859 -91.0586c-20.0254 15.8193 -27.2578 41.3203 -16.8379 65.0449c10.5635 24.0576 37.3086 39.1094 61.4844 45.8213c35.583 9.87988 69.668 5.03711 101.631 -7.67285c45.8838 62.7373 74.7334 141.614 92.5479 215.214
c11.3008 46.6943 19.4766 97.4766 10.0059 145.268c-9.19238 46.3818 -46.1719 89.5625 -95.8066 92.8701c-47.0107 3.12988 -89.7568 -40.8643 -111.022 -78.792c-12.124 -21.624 -18.6543 -46.2559 -13.8154 -70.9551c4.58984 -23.4121 23.2734 -52.0264 50.668 -49.8838
c5.32324 0.417969 16.9453 0.523438 19.2949 -6.24316c2.24805 -6.47559 -5.52637 -10.458 -10.9551 -11.002c-62.6523 -6.27734 -105.748 46.8037 -92.2021 107.524c12.4697 55.8906 65.6729 110.916 121.162 125.153c50.6768 13.001 105.34 -6.91895 138.986 -46.1807
c40.502 -47.2637 58.3203 -104.593 57.7217 -166.368c-0.970703 -99.665 -29.9561 -216.402 -94.7178 -297.949c44.2773 -30.2295 100.324 -65.6016 149.681 -30.6475c9.99316 7.07422 39.4883 -2.0293 23.585 -13.4443
c-34.7939 -24.9736 -80.7207 -24.3369 -120.214 -11.9307c-25.458 7.99805 -48.0312 21.8389 -70.5664 35.751c-5.58105 -5.90137 -11.3643 -11.5791 -17.4014 -16.9658c-45.9561 -41.0166 -129.52 -67.0322 -183.229 -24.6113zM144.542 -7.80273
c-15.4521 -5.01562 -33.5234 -22.2451 -24.2764 -39.752c7.63965 -14.457 14.3516 -12.8789 29.0693 -6.00684c17.0635 7.96484 31.3096 21.6289 43.8594 35.3516c1.81836 1.9873 3.53906 4.07129 5.31055 6.10449c-17.2617 5.69043 -36.7598 9.8877 -53.9629 4.30273z" />
    <glyph glyph-name="three" unicode="3" horiz-adv-x="462" 
d="M101.154 326.561c-22.8047 -5.47168 -47.9453 7.60938 -50.8389 32.2197c-3.39551 28.9092 21.5234 58.3115 41.1689 76.8428c41.9648 39.5859 101.736 58.9736 158.943 51.8525c28.6641 -3.57324 55.8604 -15.7227 75.2734 -37.5869
c21.6191 -24.3447 22.3447 -59.75 13.4941 -89.5576c-10.9385 -36.8486 -33.8916 -74.9961 -62.8008 -105.77c31.4531 -8.38184 60.7549 -24.3613 82.7119 -46.6602c85.8369 -87.1699 64.251 -244.615 -44.708 -301.615
c-51.3135 -26.8467 -121.096 -29.9932 -173.354 -3.06641c-53.127 27.3779 -54.9453 85.1709 -49.335 137.695c1.49707 14.0303 36.4385 13.4102 35.3291 0c-4.55566 -55.0547 0.223633 -122.757 70.3428 -127.485c53.3125 -3.59863 92.0469 38.4805 108.976 85.0479
c17.9492 49.3643 17.2197 108.039 -8.10352 154.721c-18.1729 33.5029 -53.7432 63.1963 -92.0049 49.7646c-18.1055 -6.35742 -48.8584 -5.80078 -63.0283 9.41992c-14.9668 16.0811 1.62012 29.458 16.5283 35.9248c38.3125 16.6162 69.3818 55.8438 93.6592 88.4863
c20.8477 28.0361 65.3691 95.7891 20.4805 122.445c-37.2959 22.1514 -90.0938 9.47949 -125.111 -11.0137c-17.5996 -10.3018 -33.3389 -23.8682 -46.0029 -39.8643c-6.71582 -8.4834 -13.2334 -17.9668 -17.2617 -28.0869
c-2.42969 -6.0957 -9.36914 -41.2695 7.8252 -37.5527c14.6553 3.16406 26.75 -11.6133 7.81738 -16.1611z" />
    <glyph glyph-name="four" unicode="4" horiz-adv-x="487" 
d="M165.26 122.712c-28.5254 -27.3906 -101.316 -41.4854 -114.212 10.4355c-5.38281 21.6621 10.7988 40.5986 29.1914 49.668c24.6104 12.1367 54.874 9.73242 81.3408 7.72461c3.82617 -0.294922 7.64844 -0.640625 11.4658 -1.01172
c20.1934 34.2119 33.7393 73.4102 44.6357 109.904c18.1104 60.6533 26.459 123.584 26.1133 186.823c-0.0634766 11.5078 29.0898 11.5244 29.3975 0c1.89844 -71.1865 -7.49609 -142.213 -28.6729 -210.248c-9.10352 -29.2471 -20.126 -61.4805 -35.1309 -91.0312
c17.5908 -2.60254 35.123 -5.64844 52.6631 -8.62207c22.8135 -3.86426 46.998 -9.26367 70.6133 -8.86719c-0.227539 5.60645 -0.49707 11.2041 -0.691406 16.8105c-3.30762 95.3242 -4.98633 190.767 3.63184 285.838c3.25195 35.8818 90.9668 35.9961 91.6836 0
c1.89844 -95.2783 -0.632812 -190.553 1.6582 -285.84c1.16016 -48.2891 2.68262 -96.5947 4.64453 -144.858c1.75879 -43.2939 9.83301 -95.7002 -5.61035 -136.982c-7.64355 -20.4297 -51.7051 -16.3633 -61.0781 0c-22.6064 39.4678 -22.9189 96.6621 -26.585 141.116
c-2.88086 34.9756 -5.19727 69.9463 -6.86816 104.973c-42.9062 -0.898438 -86.9893 10.9092 -128.541 17.1865c-1.88574 0.287109 -3.77539 0.548828 -5.66504 0.823242c-9.71973 -16.2832 -20.8945 -31.2754 -33.9844 -43.8418zM100.539 166.334
c-15.085 -9.31445 -21.4033 -31.4492 -1.89746 -40.54c12.7354 -5.93945 25.585 5.03711 34.5957 13.3057c10.4023 9.5459 19.5947 20.3447 27.8545 31.9502c-2.10059 0.172852 -4.19727 0.375 -6.30273 0.518555c-16.9707 1.13477 -39.1982 4.05859 -54.25 -5.23438z" />
    <glyph glyph-name="five" unicode="5" horiz-adv-x="442" 
d="M66.3516 95.2959c4.29004 11.4023 36.8281 8.37891 31.8457 -5.00195c-16.2119 -43.5938 -25.8887 -98.3154 4.01562 -138.678c26.125 -35.2578 69.3389 -36.0381 104.297 -15.123c64.7617 38.751 96.2656 117.729 95.7549 190.709
c-0.451172 64.5 -38.6621 154.708 -117.374 139.269c-18.4307 -3.61523 -35.3848 -11.5371 -52.6426 -18.6113c-20.5986 -8.44141 -54.7051 -11.3477 -72.0137 6.71582c-15.3174 15.9883 -0.692383 38.8311 5.88379 55.5781
c8.71973 22.2061 16.9033 44.6992 26.8252 66.4033c16.0137 35.0264 33.0645 81.5732 73.085 94.2119c17.9365 5.66504 38.3965 4.17969 56.9404 4.82129c23.6738 0.818359 47.3223 1.61133 71.0049 1.96191c18.582 0.274414 17.835 -15.9248 -0.000976562 -17.1309
c-26.4375 -1.78906 -52.8916 -3.02051 -79.3584 -4.28613c-12.2715 -0.585938 -29.4912 2.59082 -33.5449 -10.4062c-2.94043 -9.43652 -1.94531 -21.8809 -3.17285 -31.7314c-3.08789 -24.7793 -8.94727 -49.2383 -15.8145 -73.2324
c-2.48926 -8.70703 -5.0498 -17.3975 -7.59766 -26.0918c17.7051 3.58594 35.7051 5.61035 53.8145 5.18457c43.585 -1.02539 86.5967 -14.0811 120.036 -42.6953c114.147 -97.6826 61.5225 -289.011 -57.6025 -356.722c-51.292 -29.1533 -127.229 -39.21 -177.627 -2.69922
c-56.54 40.957 -48.3564 120.116 -26.7539 177.555z" />
    <glyph glyph-name="six" unicode="6" horiz-adv-x="403" 
d="M144.681 -77.3447c-92 41.168 -102.412 159.617 -90.8574 247.314c6.40332 48.6182 20.3662 95.6875 41.0576 140.112c19.6709 42.2314 45.458 88.1279 79.8555 120.269c32.3135 30.1914 77.9062 57.1475 123.208 44.6865
c42.9775 -11.8164 59.8047 -50.0654 54.6035 -92.3682c-1.42969 -11.6299 -30.3848 -11.1572 -29.3975 0.000976562c1.83887 20.7764 0.0126953 42.4082 -13.583 59.1973c-15.6592 19.3418 -30.749 13.6094 -47.627 -0.674805
c-27.0146 -22.8643 -45.9434 -57.835 -61.7207 -88.9795c-30.5371 -60.2861 -52.043 -125.179 -57.4678 -192.826c-1.20215 -14.9717 -1.82617 -30.7314 -1.59375 -46.7705c68.9971 21.9277 162.479 -1.29883 181.795 -77.3535
c10.9551 -43.125 -13.6602 -85.499 -49.9893 -107.832c-37.0674 -22.7881 -89.4434 -22.1553 -128.283 -4.77539zM290.373 39c-20.8096 60.2061 -95.9238 76.3535 -148.245 50.6719c2.88086 -41.4883 12.3594 -83.2344 33.5195 -116.725
c17.1182 -27.0996 43.1719 -41.8135 74.1309 -26.2178c31.9678 16.1016 52.5664 57.6367 40.5947 92.2705z" />
    <glyph glyph-name="seven" unicode="7" horiz-adv-x="378" 
d="M71.6309 435.814c-5.31934 -1.3457 -16.25 -2.52734 -20.1016 3.00684c-3.51855 5.04492 -0.637695 9.91699 5.27246 11.4609c34.3213 8.97266 68.6807 17.9668 103.466 24.9863c30.2842 6.1084 63.6436 14.0137 94.6367 9.21289
c72.3555 -11.208 68.3984 -91.4307 61.7842 -147.52c-6.50879 -55.1982 -19.0459 -109.549 -32.9707 -163.397c10.833 -0.582031 21.6699 -1.26953 32.5117 -2.14258c5.80078 -0.467773 13.7441 -4.78711 11.5332 -11.5791
c-2.33301 -7.1543 -14.5752 -7.07031 -20.3125 -6.57227c-9.49609 0.822266 -18.9961 1.46387 -28.5 2.0166c-2.40039 -9.09961 -4.82227 -18.1865 -7.25195 -27.2607c-18.3125 -68.377 -35.2412 -136.969 -51.9629 -205.742
c-7.25586 -29.8418 -97.7461 -25.3193 -91.9922 7.0957c13.6934 77.1133 37.1904 152.282 60.5693 227.337c-11.9209 -0.3125 -23.8418 -0.792969 -35.7637 -1.47656c-19.2656 -1.10547 -18.6924 16.7002 0 17.8818c13.8154 0.873047 27.627 1.47168 41.4297 1.81738
c10.6309 34.2627 21.0762 68.5293 30.3779 102.981c7.96875 29.5166 15.4609 59.1934 22.4463 88.9551c3.14258 13.3848 5.66504 26.8379 8.62207 40.2441c2.51855 11.415 11.9971 33.4014 9.68066 45.04c-6.12109 30.7275 -81.0869 9.25586 -100.538 5.4043
c-31.2246 -6.17969 -62.0869 -13.959 -92.9365 -21.75z" />
    <glyph glyph-name="eight" unicode="8" horiz-adv-x="401" 
d="M150.603 -62.0234c-32.3594 35.5703 -33.8662 92.1387 -26.2178 136.825c5.63184 32.8955 15.7393 63.8672 31.9844 91.8184c-13.8662 12.6719 -27.8252 25.2891 -41.6787 38.1592c-34.3047 31.875 -68.2207 75.0176 -64.3945 124.858
c3.98633 51.9424 42.0664 91.7012 83.5977 118.737c40.8057 26.5684 93.6211 45.8809 142.454 33.96c42.5557 -10.3896 65.7822 -43.5674 72.291 -85.3086c13.9209 -89.2627 -29.2168 -178.027 -58.333 -263.211c27.0869 -32.124 53.6172 -69.6855 58.0801 -110.153
c11.1025 -100.699 -131.465 -158.589 -197.783 -85.6855zM161.928 403.293c-30.7861 -41.5059 -30.0195 -92.1982 -2.47266 -134.69c27.585 -42.5518 73.7354 -71.3135 107.838 -108.541c12.0898 37.6455 25.0527 75.0381 34.3037 113.511
c11.9258 49.5918 27.4326 125.988 -11.3604 168.164c-36.709 39.9062 -103.449 -4.93164 -128.309 -38.4434zM180.547 144.226c-18.1562 -38.1094 -26.7021 -81.7793 -23.7236 -122.513c3.82227 -52.2705 62.6357 -119.487 112.658 -67.1787
c40.7969 42.6572 -7.62695 105.196 -37.6924 138.223c-16.418 18.0293 -33.6592 34.9453 -51.2422 51.4688z" />
    <glyph glyph-name="nine" unicode="9" horiz-adv-x="402" 
d="M221.446 441.632c-18.4141 -8.08691 -34.4473 -29.7109 -45.377 -45.7324c-26.3018 -38.5146 -43.8799 -84.6055 -43.5596 -131.578c0.147461 -21.8857 4.12988 -46.4287 18.5996 -63.8301c7.93066 -9.53418 11.1152 -9.26465 22.041 -3.16016
c11.1836 6.24316 20.7852 15.5869 29.125 25.2217c30.9131 35.7051 47.9814 83.3867 63.5771 128.115c0.885742 4.86816 2.15527 9.71094 3.98145 14.5078c5.53027 14.5283 37.1768 13.3223 45.8369 3.41699c22.3701 -25.5811 27.5078 -59.835 32.0977 -92.583
c4.71191 -33.6123 4.86426 -68.25 3.36719 -102.107c-2.7334 -61.8086 -13.1445 -128.954 -35.7979 -186.836c-22.1465 -56.5742 -72.3799 -94.4814 -135.265 -83.9307c-50.9336 8.54199 -89.7686 44.791 -100.269 95.2949c-2.42969 11.6982 31.0693 13.791 34.0518 2.62891
c10.002 -37.4307 49.6846 -88.4863 89.4482 -52.9414c29.4785 26.3525 38.4932 80.125 46.7236 116.741c11.2002 49.833 17.1816 101.218 18.0508 152.278c0.316406 18.5654 -0.160156 37.1816 -0.957031 55.7559c-17.9238 -39.1475 -41.3193 -75.3125 -76.8223 -98.6113
c-29.7529 -19.5234 -69.1533 -19.1016 -99.4336 -0.27832c-31.5586 19.6162 -41.3281 55.0215 -40.8477 90.3174c0.96582 71.0977 43.4453 143.415 100.964 184.127c28.9131 20.4639 64.749 32.9336 99.6816 20.6406c30.6094 -10.7695 48.9092 -41.5098 57.9658 -71.0977
c3.92773 -12.833 -25.3613 -14.8701 -29.3018 -4.60645c-8.15039 21.2402 -29.0566 60.9023 -57.8818 48.2471z" />
    <glyph glyph-name="colon" unicode=":" horiz-adv-x="168" 
d="M98.2559 220.418c-0.961914 -10.8672 -15.4766 -13.5137 -24.0947 -13.7373c-5.44629 -0.134766 -12.2715 1.21484 -17.0342 4.02441c-2.69531 1.59082 -7.77441 5.77148 -7.05762 9.71191c1.86035 10.1582 1.50977 20.1348 1.7334 30.3945
c0.350586 16.1904 37.916 16.667 42.8555 3.30762c4.01562 -10.8623 4.61035 -22.248 3.59766 -33.7012zM117.396 -17.1299c0.0927734 -8.00195 0.27832 -16.002 0.552734 -24c0.472656 -13.4443 -20.6953 -16.8779 -30.0225 -17.1143
c-9.8252 -0.249023 -30.1328 4.00293 -30.0234 17.1143c0.0888672 10.2217 -0.168945 20.667 0.780273 30.8584c1.10547 11.8711 4.49707 19.7471 15.0605 26.1084c11.1025 6.68652 48.7568 6.58984 43.0195 -14.2744c-1.3623 -4.94824 0.569336 -13.1367 0.632812 -18.6924
z" />
    <glyph glyph-name="semicolon" unicode=";" horiz-adv-x="231" 
d="M101.894 50.2197c8.28906 26.9141 83.1719 21.3252 74.7432 -11.7432c-9.26367 -36.3711 -20.8223 -71.9707 -34.7471 -106.845c-13.1445 -32.9297 -27.5215 -74.7012 -56.1182 -97.2617c-6.96875 -5.49707 -29.0781 -9.25195 -32.8877 2.4502
c-9.93457 30.5205 8.35645 72.5537 16.54 102.205c10.2764 37.2275 21.1055 74.2871 32.4697 111.194zM180.877 221.469c1.42188 -12.25 -19.9424 -15.5986 -27.7129 -15.793c-6.26855 -0.160156 -14.1152 1.40039 -19.5996 4.62793
c-3.42969 2.02051 -8.59277 6.4541 -8.11621 11.1699c0.594727 5.88086 1.02539 11.7695 1.20215 17.6797c0.0800781 2.77539 0.0712891 5.4668 0.467773 8.2168c0.662109 4.62305 2.26465 7.33984 5.125 10.9512c3.91504 4.93945 13.0898 6.15039 18.8105 6.15039
c6.71973 0 13.6631 -1.63281 18.8096 -6.15039c9.28027 -8.15039 9.66797 -25.2432 11.0137 -36.8525z" />
    <glyph glyph-name="less" unicode="&#x3c;" horiz-adv-x="328" 
d="M235.259 146.793c12.5117 -0.907227 41.1748 -4.57324 40.7363 -23.2188c-0.425781 -17.8779 -26.9688 -23.4805 -40.7334 -23.2188c-27.8252 0.527344 -215.909 0.0927734 -180.946 62.0449c8.08691 14.3301 25.7373 20.9912 39.7549 27.6143
c18.0088 8.5127 36.2285 16.5576 54.4014 24.7119c33.9121 15.2207 75.4727 41.7168 113.654 40.0586c4.65332 -0.198242 16.8828 -2 16.3467 -9.31445c-1.45117 -19.793 -34.0215 -32.6338 -48.8701 -41.1631c-22.0752 -12.6807 -44.1631 -25.374 -66.3906 -37.7803
c-3.45508 -1.92773 -11.3223 -7.54297 -18.6074 -11.9092c3.30762 -0.405273 6.61035 -0.835938 9.92188 -1.21094c26.8672 -3.03711 53.7764 -4.66113 80.7324 -6.61426z" />
    <glyph glyph-name="equal" unicode="=" horiz-adv-x="466" 
d="M69.2148 212.504c-4.18066 2.97363 -6.88281 7.1582 -2.63086 11.6338c14.7812 15.5488 47.335 14.5781 67.0439 16.3838c26.209 2.4043 52.5537 3.56055 78.8555 4.21484c54.7598 1.36719 109.541 1.61621 164.263 -1.05371
c11.9258 -0.582031 39.1768 -4.55566 38.7588 -22.0918c-0.40918 -17.0303 -25.6611 -22.3164 -38.7598 -22.0928c-53.3809 0.907227 -106.757 2.42188 -160.154 2.48926c-26.0029 0.0341797 -52.0225 -0.160156 -78.0166 0.540039
c-20.9531 0.56543 -51.4521 -2.78027 -69.3594 9.97656zM378.629 144.409c10.96 0.729492 34.6387 -4.95996 34.6387 -19.7461c0 -15.8232 -23.21 -19.0254 -34.6377 -19.7422c-52.123 -3.27734 -104.373 -5.64844 -156.606 -5.92285
c-50.3389 -0.269531 -105.778 -4.05762 -155.147 7.04492c-21.3623 4.80469 -23.6064 23.9648 0 27.5713c50.499 7.71973 104.137 2.88965 155.146 4.0957c52.2588 1.24023 104.445 3.21875 156.606 6.69922z" />
    <glyph glyph-name="greater" unicode="&#x3e;" horiz-adv-x="350" 
d="M297.478 177.313c15.0811 -34.0518 -44.3584 -56.5693 -66.6484 -66.209c-40.3535 -17.4307 -81.4834 -32.7314 -122.833 -47.6016c-14.8867 -5.35352 -41.7627 -5.02051 -53.2539 7.95996c-11.7529 13.2754 0.416992 25.6064 13.9629 30.3564
c31.748 11.1328 63.5811 22.0801 95.1943 33.5918c14.7773 5.38281 29.5713 10.8369 44.1504 16.7383c6.54297 2.64453 13.1406 5.29785 19.0889 9.16211c7.55957 4.91016 9.49609 5.02832 3.04199 11.5713c-8.72363 8.8457 -29.3896 12.9795 -41.168 16.084
c-13.4404 3.54395 -27.2012 5.92285 -40.8857 8.29785c-27.6016 4.79199 -55.3721 8.68164 -81.6738 18.751c-29.2588 11.1963 1.6377 28.9941 19.4521 26.2988c40.0967 -6.07031 80.9736 -9.8457 120.551 -18.835c27.9092 -6.33594 77.877 -16.4854 91.0215 -46.166z" />
    <glyph glyph-name="question" unicode="?" horiz-adv-x="394" 
d="M323.327 463.021c18.7598 -21.4424 23.165 -50.7676 19.541 -78.251c-8.71582 -66.2041 -40.0215 -130.169 -62.6787 -192.399c-23.4502 -64.4248 -42.6357 -128.93 -47.335 -197.678c-2.29883 -33.6172 -86.0732 -32.9336 -85.0947 0
c4.14648 139.729 87.1699 258.597 130.962 387.214c9.74023 28.6016 13.8066 71.9678 -22.2236 83.6191c-30.6973 9.92188 -66.5332 -3.26465 -92.46 -19.5518c-25.4629 -15.9961 -50.3223 -39.8643 -66.6943 -65.167c-16.1016 -24.8848 -23.0449 -64.6777 4.60254 -84.8086
c15.7051 -11.4316 -13.5293 -20.3027 -23.3496 -13.3086c-55.1562 39.291 -19.8438 109.221 16.5742 148.355c39.4219 42.3662 95.7852 67.6133 154.013 63.0234c26.5381 -2.09277 55.9834 -10.293 74.1436 -31.0479zM190.699 -59.2949
c6.20508 -0.438477 26.2051 -4.90625 23.8887 -15.4268c-4.20605 -19.1143 -6.22656 -38.5947 -5.37402 -58.1553c1.0127 -23.2227 -59.8896 -23.4795 -59.7168 0c0.15625 21.5146 3.7168 42.0752 10.9727 62.332c3.7373 10.4404 21.3115 11.8789 30.2295 11.25z" />
    <glyph glyph-name="at" unicode="@" horiz-adv-x="675" 
d="M623.175 342.951c8.97266 -73.292 -19.5693 -150.795 -63.5557 -208.461c-43.5049 -57.0586 -113.679 -101.698 -187.063 -74.46c-43.3359 16.085 -57.2148 52.7686 -57.6582 93.1895c-11.04 -12.1533 -23.0625 -23.4043 -37.0547 -32.8955
c-23.501 -15.9414 -54.2236 -26.8672 -82.1875 -16.1309c-21.0801 8.0957 -30.4961 27.3359 -29.4375 49.1709c2.47168 50.8369 40.7119 102.129 83.2129 127.507c42.5049 25.3779 107.056 31.0518 135.923 -17.0723c0.725586 -1.21094 0.945312 -2.32031 0.810547 -3.33691
c3.71191 -2.55176 5.64844 -6.16699 4.50977 -11.0684c-7.78711 -33.5322 -37.0381 -183.014 39.4678 -158.23c30.1152 9.75293 55.418 38.5605 73.5615 63.3232c19.7344 26.9307 34.5537 57.8057 44.0791 89.7607c15.9883 53.6377 19.6582 121.213 -19.915 165.705
c-35.1777 39.5566 -88.7773 56.582 -140.669 54.9238c-113.7 -3.62793 -205.638 -89.4316 -246.979 -190.371c-42.248 -103.158 -50.1953 -254.104 28.8633 -342.477c38.9453 -43.5342 96.1562 -61.9355 152.633 -44.2354c57.7461 18.0977 102.433 63.3447 143.368 105.842
c14.043 14.5791 69.1953 4.82617 49.8574 -16.6123c-56.4893 -62.623 -124.364 -119.927 -211.614 -128.672c-83.5547 -8.37402 -162.136 25.1162 -208.488 95.9229c-41.0371 62.6904 -49.6719 144.061 -42.623 217.149c6.8125 70.6504 30.0439 140.521 71.7393 198.326
c81.5215 113.025 236.103 174.101 370.971 126.453c65.3525 -23.0879 119.509 -71.8535 128.249 -143.251zM336.016 257.834c2.52637 2.98242 8.69531 5.28516 16.0186 6.53418c-52.7305 52.71 -134.99 -64.9639 -131.653 -116.23
c0.282227 -4.33691 0.792969 -11.9424 4.11719 -15.8193c-3.09668 4.21875 8.65137 7.26855 13.498 10.7236c13.5664 9.66406 25.1416 22.2266 35.793 34.9326c21.6914 25.876 40.3916 54.0635 62.2266 79.8594z" />
    <glyph glyph-name="A" unicode="A" horiz-adv-x="862" 
d="M59.8232 81.2344c-37.0127 44.5723 -136.98 111.086 -83.334 179.341c48.9512 62.29 153.506 29.1709 216.8 15.7432c26.2637 -5.56836 52.5068 -11.4238 78.7881 -17.1104c4.08301 12.335 8.12012 24.6826 12.2969 36.9883
c24.8848 73.3545 51.5205 146.156 81.5557 217.575c23.7881 56.5615 51.7266 128.668 110.954 157.155c66.0059 31.752 105.854 -41.4473 123.052 -94.4434c23.2393 -71.6084 34.1357 -146.516 38.6367 -221.486c2.0166 -33.5625 3.25684 -67.1621 4.33691 -100.771
c9.92578 5.75781 19.3965 12.5322 28.2725 20.5225c9.16211 8.24316 42.2979 1.17773 29.9375 -9.97559c-17.3164 -15.6172 -36.7129 -27.4541 -57.3965 -36.3086c1.0459 -34.2412 2.0625 -68.4824 3.66602 -102.698c3.43848 -73.2324 7.34473 -152.564 27.1592 -223.489
c3.56836 -12.7773 8.37305 -26.4414 16.2578 -37.2744c8.5166 -11.7021 14.8145 -17.2031 28.6641 -10.1797c30.4443 15.4307 50.668 53.5488 67.7949 81.374c37.8691 61.5264 65.3486 128.811 83.2354 198.735c2.90625 11.377 35.0889 9.08594 31.5244 -4.95312
c-20.1387 -79.3193 -53.0381 -155.054 -97.6738 -223.692c-17.9111 -27.542 -37.4717 -57.3789 -67.3047 -73.2188c-28.3525 -15.0518 -65.2432 -13.3311 -92.2881 3.81738c-23.3066 14.7773 -37.0967 42.3574 -45.4238 67.7568
c-11.8076 36.0303 -19.2402 73.7773 -23.9736 111.355c-8.02344 63.6992 -8.5293 128.292 -7.98535 192.539c-26.4414 -3.36621 -53.4014 -3.85547 -79.6484 -2.64941c-64.4541 2.95703 -127.854 13.959 -190.902 26.8467
c-1.10059 -3.34961 -2.21387 -6.69043 -3.31055 -10.04c-24.5557 -75.0293 -47.7402 -150.498 -71.7773 -225.696c-11.8154 -36.958 -23.707 -73.9033 -36.0674 -110.688c-10.3057 -30.668 -21.7002 -60.2227 -43.6699 -84.5674
c-7.29395 -8.08301 -35.9033 -2.74707 -27.2344 8.32617c-0.734375 1.41309 -0.970703 3.05371 -0.363281 4.98535c29.0654 92.4434 7.17578 191.805 -54.5781 266.181zM372.619 445.58c-24.9775 -63.6396 -47.6748 -128.149 -69.248 -193.008
c49.3643 -10.2842 98.9521 -19.3496 149.189 -24.1963c37.2705 -3.59863 77.1143 -5.27734 115.013 0.552734c0.0673828 6.4707 0.138672 12.9375 0.209961 19.3955c0.84375 77.2021 1.64551 154.995 -5.61914 231.944c-3.52637 37.3379 -8.86719 74.1562 -16.6924 110.823
c-3.65332 17.1055 -7.81738 34.6758 -16.3428 50.1494c-14.6973 26.6855 -38.8652 12.3047 -55.7012 -3.62402c-51.5918 -48.8242 -75.5273 -127.634 -100.809 -192.037zM12.2842 222.245c-2.45508 -41.2734 32.7324 -72.2451 57.1738 -100.889
c22.624 -26.5127 42.9316 -55.8018 58.6914 -86.9092c19.624 -38.7295 31.6592 -82.2764 32.7979 -125.79c1.34961 4.34961 2.69922 8.68164 4.07422 12.959c13.1025 40.7295 25.7832 81.5938 38.5527 122.433c20.3711 65.1543 40.6328 130.351 61.877 195.227
c-11.5459 2.44629 -23.0879 4.92285 -34.625 7.39062c-41.6865 8.91797 -83.458 18.1055 -125.588 24.707c-39.1094 6.13379 -89.9629 1.16016 -92.9541 -49.1279z" />
    <glyph glyph-name="A" unicode="&#xc5;" horiz-adv-x="862" 
d="M59.8232 81.2344c-37.0127 44.5723 -136.98 111.086 -83.334 179.341c48.9512 62.29 153.506 29.1709 216.8 15.7432c26.2637 -5.56836 52.5068 -11.4238 78.7881 -17.1104c4.08301 12.335 8.12012 24.6826 12.2969 36.9883
c24.8848 73.3545 51.5205 146.156 81.5557 217.575c23.7881 56.5615 51.7266 128.668 110.954 157.155c66.0059 31.752 105.854 -41.4473 123.052 -94.4434c23.2393 -71.6084 34.1357 -146.516 38.6367 -221.486c2.0166 -33.5625 3.25684 -67.1621 4.33691 -100.771
c9.92578 5.75781 19.3965 12.5322 28.2725 20.5225c9.16211 8.24316 42.2979 1.17773 29.9375 -9.97559c-17.3164 -15.6172 -36.7129 -27.4541 -57.3965 -36.3086c1.0459 -34.2412 2.0625 -68.4824 3.66602 -102.698c3.43848 -73.2324 7.34473 -152.564 27.1592 -223.489
c3.56836 -12.7773 8.37305 -26.4414 16.2578 -37.2744c8.5166 -11.7021 14.8145 -17.2031 28.6641 -10.1797c30.4443 15.4307 50.668 53.5488 67.7949 81.374c37.8691 61.5264 65.3486 128.811 83.2354 198.735c2.90625 11.377 35.0889 9.08594 31.5244 -4.95312
c-20.1387 -79.3193 -53.0381 -155.054 -97.6738 -223.692c-17.9111 -27.542 -37.4717 -57.3789 -67.3047 -73.2188c-28.3525 -15.0518 -65.2432 -13.3311 -92.2881 3.81738c-23.3066 14.7773 -37.0967 42.3574 -45.4238 67.7568
c-11.8076 36.0303 -19.2402 73.7773 -23.9736 111.355c-8.02344 63.6992 -8.5293 128.292 -7.98535 192.539c-26.4414 -3.36621 -53.4014 -3.85547 -79.6484 -2.64941c-64.4541 2.95703 -127.854 13.959 -190.902 26.8467
c-1.10059 -3.34961 -2.21387 -6.69043 -3.31055 -10.04c-24.5557 -75.0293 -47.7402 -150.498 -71.7773 -225.696c-11.8154 -36.958 -23.707 -73.9033 -36.0674 -110.688c-10.3057 -30.668 -21.7002 -60.2227 -43.6699 -84.5674
c-7.29395 -8.08301 -35.9033 -2.74707 -27.2344 8.32617c-0.734375 1.41309 -0.970703 3.05371 -0.363281 4.98535c29.0654 92.4434 7.17578 191.805 -54.5781 266.181zM372.619 445.58c-24.9775 -63.6396 -47.6748 -128.149 -69.248 -193.008
c49.3643 -10.2842 98.9521 -19.3496 149.189 -24.1963c37.2705 -3.59863 77.1143 -5.27734 115.013 0.552734c0.0673828 6.4707 0.138672 12.9375 0.209961 19.3955c0.84375 77.2021 1.64551 154.995 -5.61914 231.944c-3.52637 37.3379 -8.86719 74.1562 -16.6924 110.823
c-3.65332 17.1055 -7.81738 34.6758 -16.3428 50.1494c-14.6973 26.6855 -38.8652 12.3047 -55.7012 -3.62402c-51.5918 -48.8242 -75.5273 -127.634 -100.809 -192.037zM12.2842 222.245c-2.45508 -41.2734 32.7324 -72.2451 57.1738 -100.889
c22.624 -26.5127 42.9316 -55.8018 58.6914 -86.9092c19.624 -38.7295 31.6592 -82.2764 32.7979 -125.79c1.34961 4.34961 2.69922 8.68164 4.07422 12.959c13.1025 40.7295 25.7832 81.5938 38.5527 122.433c20.3711 65.1543 40.6328 130.351 61.877 195.227
c-11.5459 2.44629 -23.0879 4.92285 -34.625 7.39062c-41.6865 8.91797 -83.458 18.1055 -125.588 24.707c-39.1094 6.13379 -89.9629 1.16016 -92.9541 -49.1279z" />
    <glyph glyph-name="A" unicode="&#xc4;" horiz-adv-x="862" 
d="M59.8232 81.2344c-37.0127 44.5723 -136.98 111.086 -83.334 179.341c48.9512 62.29 153.506 29.1709 216.8 15.7432c26.2637 -5.56836 52.5068 -11.4238 78.7881 -17.1104c4.08301 12.335 8.12012 24.6826 12.2969 36.9883
c24.8848 73.3545 51.5205 146.156 81.5557 217.575c23.7881 56.5615 51.7266 128.668 110.954 157.155c66.0059 31.752 105.854 -41.4473 123.052 -94.4434c23.2393 -71.6084 34.1357 -146.516 38.6367 -221.486c2.0166 -33.5625 3.25684 -67.1621 4.33691 -100.771
c9.92578 5.75781 19.3965 12.5322 28.2725 20.5225c9.16211 8.24316 42.2979 1.17773 29.9375 -9.97559c-17.3164 -15.6172 -36.7129 -27.4541 -57.3965 -36.3086c1.0459 -34.2412 2.0625 -68.4824 3.66602 -102.698c3.43848 -73.2324 7.34473 -152.564 27.1592 -223.489
c3.56836 -12.7773 8.37305 -26.4414 16.2578 -37.2744c8.5166 -11.7021 14.8145 -17.2031 28.6641 -10.1797c30.4443 15.4307 50.668 53.5488 67.7949 81.374c37.8691 61.5264 65.3486 128.811 83.2354 198.735c2.90625 11.377 35.0889 9.08594 31.5244 -4.95312
c-20.1387 -79.3193 -53.0381 -155.054 -97.6738 -223.692c-17.9111 -27.542 -37.4717 -57.3789 -67.3047 -73.2188c-28.3525 -15.0518 -65.2432 -13.3311 -92.2881 3.81738c-23.3066 14.7773 -37.0967 42.3574 -45.4238 67.7568
c-11.8076 36.0303 -19.2402 73.7773 -23.9736 111.355c-8.02344 63.6992 -8.5293 128.292 -7.98535 192.539c-26.4414 -3.36621 -53.4014 -3.85547 -79.6484 -2.64941c-64.4541 2.95703 -127.854 13.959 -190.902 26.8467
c-1.10059 -3.34961 -2.21387 -6.69043 -3.31055 -10.04c-24.5557 -75.0293 -47.7402 -150.498 -71.7773 -225.696c-11.8154 -36.958 -23.707 -73.9033 -36.0674 -110.688c-10.3057 -30.668 -21.7002 -60.2227 -43.6699 -84.5674
c-7.29395 -8.08301 -35.9033 -2.74707 -27.2344 8.32617c-0.734375 1.41309 -0.970703 3.05371 -0.363281 4.98535c29.0654 92.4434 7.17578 191.805 -54.5781 266.181zM372.619 445.58c-24.9775 -63.6396 -47.6748 -128.149 -69.248 -193.008
c49.3643 -10.2842 98.9521 -19.3496 149.189 -24.1963c37.2705 -3.59863 77.1143 -5.27734 115.013 0.552734c0.0673828 6.4707 0.138672 12.9375 0.209961 19.3955c0.84375 77.2021 1.64551 154.995 -5.61914 231.944c-3.52637 37.3379 -8.86719 74.1562 -16.6924 110.823
c-3.65332 17.1055 -7.81738 34.6758 -16.3428 50.1494c-14.6973 26.6855 -38.8652 12.3047 -55.7012 -3.62402c-51.5918 -48.8242 -75.5273 -127.634 -100.809 -192.037zM12.2842 222.245c-2.45508 -41.2734 32.7324 -72.2451 57.1738 -100.889
c22.624 -26.5127 42.9316 -55.8018 58.6914 -86.9092c19.624 -38.7295 31.6592 -82.2764 32.7979 -125.79c1.34961 4.34961 2.69922 8.68164 4.07422 12.959c13.1025 40.7295 25.7832 81.5938 38.5527 122.433c20.3711 65.1543 40.6328 130.351 61.877 195.227
c-11.5459 2.44629 -23.0879 4.92285 -34.625 7.39062c-41.6865 8.91797 -83.458 18.1055 -125.588 24.707c-39.1094 6.13379 -89.9629 1.16016 -92.9541 -49.1279z" />
    <glyph glyph-name="A" unicode="&#xc3;" horiz-adv-x="862" 
d="M59.8232 81.2344c-37.0127 44.5723 -136.98 111.086 -83.334 179.341c48.9512 62.29 153.506 29.1709 216.8 15.7432c26.2637 -5.56836 52.5068 -11.4238 78.7881 -17.1104c4.08301 12.335 8.12012 24.6826 12.2969 36.9883
c24.8848 73.3545 51.5205 146.156 81.5557 217.575c23.7881 56.5615 51.7266 128.668 110.954 157.155c66.0059 31.752 105.854 -41.4473 123.052 -94.4434c23.2393 -71.6084 34.1357 -146.516 38.6367 -221.486c2.0166 -33.5625 3.25684 -67.1621 4.33691 -100.771
c9.92578 5.75781 19.3965 12.5322 28.2725 20.5225c9.16211 8.24316 42.2979 1.17773 29.9375 -9.97559c-17.3164 -15.6172 -36.7129 -27.4541 -57.3965 -36.3086c1.0459 -34.2412 2.0625 -68.4824 3.66602 -102.698c3.43848 -73.2324 7.34473 -152.564 27.1592 -223.489
c3.56836 -12.7773 8.37305 -26.4414 16.2578 -37.2744c8.5166 -11.7021 14.8145 -17.2031 28.6641 -10.1797c30.4443 15.4307 50.668 53.5488 67.7949 81.374c37.8691 61.5264 65.3486 128.811 83.2354 198.735c2.90625 11.377 35.0889 9.08594 31.5244 -4.95312
c-20.1387 -79.3193 -53.0381 -155.054 -97.6738 -223.692c-17.9111 -27.542 -37.4717 -57.3789 -67.3047 -73.2188c-28.3525 -15.0518 -65.2432 -13.3311 -92.2881 3.81738c-23.3066 14.7773 -37.0967 42.3574 -45.4238 67.7568
c-11.8076 36.0303 -19.2402 73.7773 -23.9736 111.355c-8.02344 63.6992 -8.5293 128.292 -7.98535 192.539c-26.4414 -3.36621 -53.4014 -3.85547 -79.6484 -2.64941c-64.4541 2.95703 -127.854 13.959 -190.902 26.8467
c-1.10059 -3.34961 -2.21387 -6.69043 -3.31055 -10.04c-24.5557 -75.0293 -47.7402 -150.498 -71.7773 -225.696c-11.8154 -36.958 -23.707 -73.9033 -36.0674 -110.688c-10.3057 -30.668 -21.7002 -60.2227 -43.6699 -84.5674
c-7.29395 -8.08301 -35.9033 -2.74707 -27.2344 8.32617c-0.734375 1.41309 -0.970703 3.05371 -0.363281 4.98535c29.0654 92.4434 7.17578 191.805 -54.5781 266.181zM372.619 445.58c-24.9775 -63.6396 -47.6748 -128.149 -69.248 -193.008
c49.3643 -10.2842 98.9521 -19.3496 149.189 -24.1963c37.2705 -3.59863 77.1143 -5.27734 115.013 0.552734c0.0673828 6.4707 0.138672 12.9375 0.209961 19.3955c0.84375 77.2021 1.64551 154.995 -5.61914 231.944c-3.52637 37.3379 -8.86719 74.1562 -16.6924 110.823
c-3.65332 17.1055 -7.81738 34.6758 -16.3428 50.1494c-14.6973 26.6855 -38.8652 12.3047 -55.7012 -3.62402c-51.5918 -48.8242 -75.5273 -127.634 -100.809 -192.037zM12.2842 222.245c-2.45508 -41.2734 32.7324 -72.2451 57.1738 -100.889
c22.624 -26.5127 42.9316 -55.8018 58.6914 -86.9092c19.624 -38.7295 31.6592 -82.2764 32.7979 -125.79c1.34961 4.34961 2.69922 8.68164 4.07422 12.959c13.1025 40.7295 25.7832 81.5938 38.5527 122.433c20.3711 65.1543 40.6328 130.351 61.877 195.227
c-11.5459 2.44629 -23.0879 4.92285 -34.625 7.39062c-41.6865 8.91797 -83.458 18.1055 -125.588 24.707c-39.1094 6.13379 -89.9629 1.16016 -92.9541 -49.1279z" />
    <glyph glyph-name="A" unicode="&#xc2;" horiz-adv-x="862" 
d="M59.8232 81.2344c-37.0127 44.5723 -136.98 111.086 -83.334 179.341c48.9512 62.29 153.506 29.1709 216.8 15.7432c26.2637 -5.56836 52.5068 -11.4238 78.7881 -17.1104c4.08301 12.335 8.12012 24.6826 12.2969 36.9883
c24.8848 73.3545 51.5205 146.156 81.5557 217.575c23.7881 56.5615 51.7266 128.668 110.954 157.155c66.0059 31.752 105.854 -41.4473 123.052 -94.4434c23.2393 -71.6084 34.1357 -146.516 38.6367 -221.486c2.0166 -33.5625 3.25684 -67.1621 4.33691 -100.771
c9.92578 5.75781 19.3965 12.5322 28.2725 20.5225c9.16211 8.24316 42.2979 1.17773 29.9375 -9.97559c-17.3164 -15.6172 -36.7129 -27.4541 -57.3965 -36.3086c1.0459 -34.2412 2.0625 -68.4824 3.66602 -102.698c3.43848 -73.2324 7.34473 -152.564 27.1592 -223.489
c3.56836 -12.7773 8.37305 -26.4414 16.2578 -37.2744c8.5166 -11.7021 14.8145 -17.2031 28.6641 -10.1797c30.4443 15.4307 50.668 53.5488 67.7949 81.374c37.8691 61.5264 65.3486 128.811 83.2354 198.735c2.90625 11.377 35.0889 9.08594 31.5244 -4.95312
c-20.1387 -79.3193 -53.0381 -155.054 -97.6738 -223.692c-17.9111 -27.542 -37.4717 -57.3789 -67.3047 -73.2188c-28.3525 -15.0518 -65.2432 -13.3311 -92.2881 3.81738c-23.3066 14.7773 -37.0967 42.3574 -45.4238 67.7568
c-11.8076 36.0303 -19.2402 73.7773 -23.9736 111.355c-8.02344 63.6992 -8.5293 128.292 -7.98535 192.539c-26.4414 -3.36621 -53.4014 -3.85547 -79.6484 -2.64941c-64.4541 2.95703 -127.854 13.959 -190.902 26.8467
c-1.10059 -3.34961 -2.21387 -6.69043 -3.31055 -10.04c-24.5557 -75.0293 -47.7402 -150.498 -71.7773 -225.696c-11.8154 -36.958 -23.707 -73.9033 -36.0674 -110.688c-10.3057 -30.668 -21.7002 -60.2227 -43.6699 -84.5674
c-7.29395 -8.08301 -35.9033 -2.74707 -27.2344 8.32617c-0.734375 1.41309 -0.970703 3.05371 -0.363281 4.98535c29.0654 92.4434 7.17578 191.805 -54.5781 266.181zM372.619 445.58c-24.9775 -63.6396 -47.6748 -128.149 -69.248 -193.008
c49.3643 -10.2842 98.9521 -19.3496 149.189 -24.1963c37.2705 -3.59863 77.1143 -5.27734 115.013 0.552734c0.0673828 6.4707 0.138672 12.9375 0.209961 19.3955c0.84375 77.2021 1.64551 154.995 -5.61914 231.944c-3.52637 37.3379 -8.86719 74.1562 -16.6924 110.823
c-3.65332 17.1055 -7.81738 34.6758 -16.3428 50.1494c-14.6973 26.6855 -38.8652 12.3047 -55.7012 -3.62402c-51.5918 -48.8242 -75.5273 -127.634 -100.809 -192.037zM12.2842 222.245c-2.45508 -41.2734 32.7324 -72.2451 57.1738 -100.889
c22.624 -26.5127 42.9316 -55.8018 58.6914 -86.9092c19.624 -38.7295 31.6592 -82.2764 32.7979 -125.79c1.34961 4.34961 2.69922 8.68164 4.07422 12.959c13.1025 40.7295 25.7832 81.5938 38.5527 122.433c20.3711 65.1543 40.6328 130.351 61.877 195.227
c-11.5459 2.44629 -23.0879 4.92285 -34.625 7.39062c-41.6865 8.91797 -83.458 18.1055 -125.588 24.707c-39.1094 6.13379 -89.9629 1.16016 -92.9541 -49.1279z" />
    <glyph glyph-name="A" unicode="&#xc1;" horiz-adv-x="862" 
d="M59.8232 81.2344c-37.0127 44.5723 -136.98 111.086 -83.334 179.341c48.9512 62.29 153.506 29.1709 216.8 15.7432c26.2637 -5.56836 52.5068 -11.4238 78.7881 -17.1104c4.08301 12.335 8.12012 24.6826 12.2969 36.9883
c24.8848 73.3545 51.5205 146.156 81.5557 217.575c23.7881 56.5615 51.7266 128.668 110.954 157.155c66.0059 31.752 105.854 -41.4473 123.052 -94.4434c23.2393 -71.6084 34.1357 -146.516 38.6367 -221.486c2.0166 -33.5625 3.25684 -67.1621 4.33691 -100.771
c9.92578 5.75781 19.3965 12.5322 28.2725 20.5225c9.16211 8.24316 42.2979 1.17773 29.9375 -9.97559c-17.3164 -15.6172 -36.7129 -27.4541 -57.3965 -36.3086c1.0459 -34.2412 2.0625 -68.4824 3.66602 -102.698c3.43848 -73.2324 7.34473 -152.564 27.1592 -223.489
c3.56836 -12.7773 8.37305 -26.4414 16.2578 -37.2744c8.5166 -11.7021 14.8145 -17.2031 28.6641 -10.1797c30.4443 15.4307 50.668 53.5488 67.7949 81.374c37.8691 61.5264 65.3486 128.811 83.2354 198.735c2.90625 11.377 35.0889 9.08594 31.5244 -4.95312
c-20.1387 -79.3193 -53.0381 -155.054 -97.6738 -223.692c-17.9111 -27.542 -37.4717 -57.3789 -67.3047 -73.2188c-28.3525 -15.0518 -65.2432 -13.3311 -92.2881 3.81738c-23.3066 14.7773 -37.0967 42.3574 -45.4238 67.7568
c-11.8076 36.0303 -19.2402 73.7773 -23.9736 111.355c-8.02344 63.6992 -8.5293 128.292 -7.98535 192.539c-26.4414 -3.36621 -53.4014 -3.85547 -79.6484 -2.64941c-64.4541 2.95703 -127.854 13.959 -190.902 26.8467
c-1.10059 -3.34961 -2.21387 -6.69043 -3.31055 -10.04c-24.5557 -75.0293 -47.7402 -150.498 -71.7773 -225.696c-11.8154 -36.958 -23.707 -73.9033 -36.0674 -110.688c-10.3057 -30.668 -21.7002 -60.2227 -43.6699 -84.5674
c-7.29395 -8.08301 -35.9033 -2.74707 -27.2344 8.32617c-0.734375 1.41309 -0.970703 3.05371 -0.363281 4.98535c29.0654 92.4434 7.17578 191.805 -54.5781 266.181zM372.619 445.58c-24.9775 -63.6396 -47.6748 -128.149 -69.248 -193.008
c49.3643 -10.2842 98.9521 -19.3496 149.189 -24.1963c37.2705 -3.59863 77.1143 -5.27734 115.013 0.552734c0.0673828 6.4707 0.138672 12.9375 0.209961 19.3955c0.84375 77.2021 1.64551 154.995 -5.61914 231.944c-3.52637 37.3379 -8.86719 74.1562 -16.6924 110.823
c-3.65332 17.1055 -7.81738 34.6758 -16.3428 50.1494c-14.6973 26.6855 -38.8652 12.3047 -55.7012 -3.62402c-51.5918 -48.8242 -75.5273 -127.634 -100.809 -192.037zM12.2842 222.245c-2.45508 -41.2734 32.7324 -72.2451 57.1738 -100.889
c22.624 -26.5127 42.9316 -55.8018 58.6914 -86.9092c19.624 -38.7295 31.6592 -82.2764 32.7979 -125.79c1.34961 4.34961 2.69922 8.68164 4.07422 12.959c13.1025 40.7295 25.7832 81.5938 38.5527 122.433c20.3711 65.1543 40.6328 130.351 61.877 195.227
c-11.5459 2.44629 -23.0879 4.92285 -34.625 7.39062c-41.6865 8.91797 -83.458 18.1055 -125.588 24.707c-39.1094 6.13379 -89.9629 1.16016 -92.9541 -49.1279z" />
    <glyph glyph-name="B" unicode="B" horiz-adv-x="663" 
d="M46.3018 267.34c-18.0547 19.6875 -40.3662 34.8896 -58.3789 54.5986c-37.7725 41.3496 -30.8799 86.9258 -1.05078 131.16c27.9473 41.4424 63.5762 77.3164 103.44 107.322c7.86719 5.91895 15.9961 11.627 24.2471 17.2246
c1.02051 8.95996 1.99902 17.9238 3.1377 26.8711c2.88574 22.6787 48.1543 27.4072 65.8594 13.6133c63.2939 31.7861 132.84 52.9375 201.735 56.8984c48.3438 2.77539 108.727 -2.26953 147.827 -34.4268c17.3848 -14.3008 26.9561 -35.8232 29.5801 -58.0254
c2.87695 -24.332 -12.7529 -48.8877 -25.3701 -68.5664c-28.1582 -43.918 -65.3984 -81.1836 -106.018 -113.564c-25.1416 -20.042 -51.6797 -39.8223 -79.1797 -57.7891c90.1357 -16.1064 170.35 -67.7197 209.691 -157.51
c11.1875 -25.5303 18.1016 -52.1953 21.0254 -79.0801c32.3096 12.7695 63.9561 27.0742 94.1768 44.7373c10.251 5.99023 39.4932 -3.64062 23.1172 -13.1787c-37 -21.5479 -76.042 -38.1016 -115.806 -52.9336c2.00391 -67.373 -20.873 -134.657 -65.665 -187.709
c-34.9453 -41.3877 -82.3564 -72.8828 -134.201 -88.6133c-30.0771 -9.12891 -61.4326 -13.7188 -92.8604 -11.8711c-24.5596 1.44238 -54.8857 4.47559 -75.3076 19.5273c-37.7129 27.7959 -11.748 80.8389 10.5215 109.397
c33.1992 42.5771 81.8379 72.0898 129.907 95.043c49.7529 23.7588 102.138 41.1895 154.21 59.2822c-0.666992 38.3379 -10.2217 76.6074 -29.0996 111.781c-38.3838 71.5244 -121.585 126.955 -204.967 111.486c-21.1475 -3.92285 -73.2881 14.8154 -38.6709 37.8652
c46.2344 30.7783 95.835 55.6631 140.466 89.1328c42.5645 31.9131 81.627 68.6602 113.999 110.963c13.3516 17.4395 37.751 50.2461 25.4756 72.5107c-10.4531 18.9531 -31.8955 28.7861 -51.832 34.376c-55.4561 15.5449 -115.426 6.72852 -169.569 -9.72363
c-36.5195 -11.0947 -72.3262 -25.6953 -106.306 -43.6953c-1.3916 -108.761 -9.39844 -217.289 -10.1494 -326.083c-0.387695 -55.8857 1.37598 -111.734 4.49316 -167.532c1.59082 -28.4619 4.21875 -56.8398 6.15918 -85.2764
c1.7168 -25.1504 6.17969 -51.5117 -0.472656 -76.1436c-4.30273 -15.9414 -37.1055 -10.2256 -43.918 0c-15.2627 22.9023 -19.3926 53.6123 -24.75 80.1924c-5.67383 28.1416 -8.99805 56.7803 -12.1406 85.3018c-1.90234 17.2705 -3.3916 34.583 -4.61523 51.9209
c-3.82227 12.6348 -8.18848 25.1045 -13.3262 37.3301c-11.1836 26.6016 -25.8467 51.8486 -45.416 73.1855zM473.936 -55.9219c21.4678 35.3418 33.7676 74.6328 36.4883 114.455c-34.334 -11.8623 -68.6221 -23.8848 -102.062 -38.0713
c-44.4453 -18.8564 -88.9287 -42.1553 -124.87 -74.8232c-22.3877 -20.3457 -75.1182 -81.1504 -37.7383 -111.393c17.6631 -14.2881 56.3086 -6.41602 76.3506 -2.34961c21.3877 4.34082 41.6533 12.6641 60.6533 23.2773c37.6201 21.0166 68.8242 52.1064 91.1777 88.9043
zM56.168 492.398c-30.3057 -32.9922 -76.5576 -85.9854 -56.0518 -134.207c16.5361 -38.8818 60.5303 -60.793 86.124 -93.2285c5.31934 -6.74121 10.2334 -13.6934 14.7939 -20.8223c-0.202148 8.07812 -0.378906 16.1523 -0.513672 24.2227
c-1.54395 91.6719 1.54004 183.36 10.3906 274.563c-19.5312 -15.3848 -37.9072 -32.1992 -54.7432 -50.5283z" />
    <glyph glyph-name="C" unicode="C" horiz-adv-x="433" 
d="M142.938 -83.2773c-128.461 33.7686 -170.623 176.289 -171.897 293.908c-0.754883 69.4697 8.02832 139.547 26.543 206.545c16.8574 60.999 40.6035 122.732 79.249 173.438c36.0674 47.3223 89.7812 90.4902 151.695 93.042
c60.1514 2.48047 101.23 -39.4805 111.751 -96.248c19.5234 -105.339 -28.9463 -215.571 -118.331 -273.432c-10.542 -6.8252 -41.1133 2.94434 -24.2812 13.8408c86.1113 55.7383 132.262 170.649 103.521 270.598c-7.39453 25.7197 -28.0312 59.9648 -59.0244 59.4844
c-22.5645 -0.350586 -41.5645 -19.7637 -56.1895 -34.874c-34.1396 -35.2793 -57.2275 -77.8057 -75.6621 -123.007c-41.6699 -102.158 -61.4375 -215.787 -54.9453 -325.99c5.07031 -86.0693 35.3086 -213.074 134.637 -235.529
c56.1309 -12.6895 110.992 22.5811 148.832 60.7246c40.0332 40.3535 70.9629 89.6758 103.795 135.796c6.8252 9.58887 37.6533 5.4043 30.5703 -4.80469c-41.3535 -59.5898 -80.2559 -126.646 -139.453 -170.548c-52.8447 -39.1895 -126.086 -59.957 -190.81 -42.9443z
" />
    <glyph glyph-name="D" unicode="D" horiz-adv-x="747" 
d="M23.6055 278.485c-22.1045 8.83789 -43.459 22.2168 -55.4229 43.5117c-14.123 25.1416 -5.05371 51.5449 6.90137 75.4893c25.9775 52.0176 65.0029 96.6533 108.141 135.155c77.4932 69.1699 171.615 133.813 276.068 150.813
c98.6279 16.0469 201.635 -14.874 263.807 -95.75c69.292 -90.1357 71.0938 -206.042 45.6729 -312.541c-15.0684 -63.1377 -39.375 -123.972 -73.2959 -178.888c56.8604 3.55664 112.611 15.7012 164.836 42.5645c6.34863 3.26465 17.4395 4.59375 23.5859 0
c5.1377 -3.84277 6.82129 -9.93457 0 -13.4443c-63.1924 -32.5029 -131.604 -46.0361 -201.099 -48.7275c-19.8896 -29.2969 -42.6562 -56.7041 -68.5029 -81.5254c-77.0127 -73.9541 -189.743 -132.882 -298.976 -125.744
c-51.4062 3.3623 -102.698 23.7627 -126.701 71.2334c-21.1172 41.7715 -17.3203 81.8262 11.4072 119.506c25.1211 32.9463 57.8018 50.3682 93.8613 58.5732c-1.30762 8.33594 -2.55176 16.667 -3.81348 24.9561c-1.64062 10.8076 -3.18457 21.6191 -4.67773 32.4307
c-4.84277 7.01562 -10.0361 13.8154 -15.6465 20.3164c-17.7559 20.5566 -38.8398 38.127 -62.6406 51.2588c-26.4326 14.583 -55.7471 19.7168 -83.5049 30.8115zM296.813 -70.957c79.8643 28.0947 149.722 82.2949 201.457 149.141
c-14.4014 0.982422 -28.7783 2.28125 -43.0918 3.83789c-61.29 6.66504 -122.44 20.6953 -184.063 23.4082c-2.3584 0.105469 -4.72949 0.134766 -7.0957 0.176758c3.0752 -34.9756 5.0918 -70.0352 -2.22266 -104.318c-2.6748 -12.5293 -27.4121 -12.9004 -33.082 -2.55273
c-16.6162 30.3223 -25.0615 63.834 -31.1572 97.8857c-28.2178 -9.23047 -52.9297 -26.29 -68.4033 -54.8359c-10.8916 -20.0928 -11.8496 -45.167 -3.69922 -66.4658c7.65625 -20.0039 21.5479 -31.5078 39.1221 -42.877
c40.9189 -26.4746 88.4277 -18.8096 132.236 -3.39941zM534.676 629.963c-82.083 65.373 -201.892 35.9912 -284.979 -10.0195c-10.4277 -5.77051 -20.8516 -11.8574 -31.2207 -18.2402c11.6807 -2.83496 20.8984 -9.32324 21.3418 -19.502
c4.23926 -97.0918 5.33594 -194.307 10.8789 -291.353c2.80566 -49.0732 6.0625 -98.1846 9.94727 -147.182c0.498047 -6.27734 1.05957 -12.5625 1.63281 -18.8564c45.5889 -0.898438 92.3965 -9.43262 133.619 -15.499
c38.1143 -5.60645 77.0088 -10.5078 115.933 -12.8115c0.261719 0.367188 0.540039 0.725586 0.796875 1.09668c57.0205 81.792 94.8857 179.973 105.449 279.183c9.63086 90.4482 -8.29785 193.37 -83.3994 253.184zM-3.9375 353.877
c-1.45117 -23.1631 14.1748 -41.5449 33.2891 -52.4492c21.9697 -12.5293 47.8037 -16.4863 71.1992 -25.5811c18.0508 -7.02344 35.2451 -16.1143 51.0977 -27.2383c9.71973 -6.81738 18.8359 -14.3604 27.4463 -22.4004c-2.31152 20.1348 -4.4082 40.3037 -6.1416 60.54
c-7.98145 93.2578 -12.0439 186.696 -6.0918 280.114c-53.1016 -39.1055 -101.72 -86.082 -136.826 -139.365c-13.7568 -20.877 -32.3691 -48.0439 -33.9727 -73.6201z" />
    <glyph glyph-name="E" unicode="E" horiz-adv-x="552" 
d="M92.4922 214.782c-39.7588 15.9834 -75.3945 41.0029 -99.5625 76.8428c-27.1162 40.1729 -31.0186 90.0312 -20.6533 136.413c18.4307 82.4795 68.5967 154.277 136.637 203.692c67.6387 49.1279 167.667 86.5664 249.357 51.7266
c92.1865 -39.3203 94.5742 -148.545 81.4131 -233.408c-3.00781 -19.3926 -51.3135 -19.5195 -50.1621 -0.000976562c2.66602 45.2393 9.14941 92.8066 -5.81348 136.688c-12.5459 36.793 -38.582 71.4688 -79.9395 75.3115
c-63.3955 5.88477 -130.081 -40.0498 -171.616 -83.5801c-46.5293 -48.7656 -79.6738 -112.654 -85.2422 -180.453c-6.15918 -74.9541 40.7207 -135.324 113.173 -152.907c13.7939 -3.3457 27.9258 -5.22754 42.1592 -6.0293
c18.5361 9.59277 37.4473 18.3838 56.4219 26.5088c45.2686 19.3799 93.334 37.1436 143.395 34.5029c18.5273 -0.978516 50.5078 -11.6973 42.8223 -36.3496c-6.34082 -20.3369 -32.3818 -30.0605 -49.9346 -37.6455
c-47.5039 -20.5273 -99.9814 -28.5723 -151.333 -31.5713c-12.7695 -0.74707 -25.7031 -1.03418 -38.6621 -0.74707c-10.3604 -6.03711 -20.5391 -12.3604 -30.4482 -19.0596c-49.4697 -33.4443 -123.479 -94.8867 -115.624 -162.176
c9.49121 -81.332 123.635 -78.6826 182.019 -69.668c129.085 19.9326 256.242 87.7363 322.337 203.808c5.86816 10.3057 36.9121 6.54688 30.5713 -4.80469c-45.6484 -81.7373 -120.361 -140.872 -205.507 -177.746c-85.1914 -36.8906 -195.513 -63.5049 -286.429 -33.626
c-34.0645 11.1914 -70.7607 33.8027 -83.6777 69.0352c-15.0264 40.9912 3.71582 84.0156 28.7441 116.679c25.585 33.3975 56.9492 61.168 91.3848 84.834c-15.667 3.28223 -31.0264 7.7793 -45.8291 13.7314z" />
    <glyph glyph-name="E" unicode="&#xcb;" horiz-adv-x="552" 
d="M92.4922 214.782c-39.7588 15.9834 -75.3945 41.0029 -99.5625 76.8428c-27.1162 40.1729 -31.0186 90.0312 -20.6533 136.413c18.4307 82.4795 68.5967 154.277 136.637 203.692c67.6387 49.1279 167.667 86.5664 249.357 51.7266
c92.1865 -39.3203 94.5742 -148.545 81.4131 -233.408c-3.00781 -19.3926 -51.3135 -19.5195 -50.1621 -0.000976562c2.66602 45.2393 9.14941 92.8066 -5.81348 136.688c-12.5459 36.793 -38.582 71.4688 -79.9395 75.3115
c-63.3955 5.88477 -130.081 -40.0498 -171.616 -83.5801c-46.5293 -48.7656 -79.6738 -112.654 -85.2422 -180.453c-6.15918 -74.9541 40.7207 -135.324 113.173 -152.907c13.7939 -3.3457 27.9258 -5.22754 42.1592 -6.0293
c18.5361 9.59277 37.4473 18.3838 56.4219 26.5088c45.2686 19.3799 93.334 37.1436 143.395 34.5029c18.5273 -0.978516 50.5078 -11.6973 42.8223 -36.3496c-6.34082 -20.3369 -32.3818 -30.0605 -49.9346 -37.6455
c-47.5039 -20.5273 -99.9814 -28.5723 -151.333 -31.5713c-12.7695 -0.74707 -25.7031 -1.03418 -38.6621 -0.74707c-10.3604 -6.03711 -20.5391 -12.3604 -30.4482 -19.0596c-49.4697 -33.4443 -123.479 -94.8867 -115.624 -162.176
c9.49121 -81.332 123.635 -78.6826 182.019 -69.668c129.085 19.9326 256.242 87.7363 322.337 203.808c5.86816 10.3057 36.9121 6.54688 30.5713 -4.80469c-45.6484 -81.7373 -120.361 -140.872 -205.507 -177.746c-85.1914 -36.8906 -195.513 -63.5049 -286.429 -33.626
c-34.0645 11.1914 -70.7607 33.8027 -83.6777 69.0352c-15.0264 40.9912 3.71582 84.0156 28.7441 116.679c25.585 33.3975 56.9492 61.168 91.3848 84.834c-15.667 3.28223 -31.0264 7.7793 -45.8291 13.7314z" />
    <glyph glyph-name="E" unicode="&#xca;" horiz-adv-x="552" 
d="M92.4922 214.782c-39.7588 15.9834 -75.3945 41.0029 -99.5625 76.8428c-27.1162 40.1729 -31.0186 90.0312 -20.6533 136.413c18.4307 82.4795 68.5967 154.277 136.637 203.692c67.6387 49.1279 167.667 86.5664 249.357 51.7266
c92.1865 -39.3203 94.5742 -148.545 81.4131 -233.408c-3.00781 -19.3926 -51.3135 -19.5195 -50.1621 -0.000976562c2.66602 45.2393 9.14941 92.8066 -5.81348 136.688c-12.5459 36.793 -38.582 71.4688 -79.9395 75.3115
c-63.3955 5.88477 -130.081 -40.0498 -171.616 -83.5801c-46.5293 -48.7656 -79.6738 -112.654 -85.2422 -180.453c-6.15918 -74.9541 40.7207 -135.324 113.173 -152.907c13.7939 -3.3457 27.9258 -5.22754 42.1592 -6.0293
c18.5361 9.59277 37.4473 18.3838 56.4219 26.5088c45.2686 19.3799 93.334 37.1436 143.395 34.5029c18.5273 -0.978516 50.5078 -11.6973 42.8223 -36.3496c-6.34082 -20.3369 -32.3818 -30.0605 -49.9346 -37.6455
c-47.5039 -20.5273 -99.9814 -28.5723 -151.333 -31.5713c-12.7695 -0.74707 -25.7031 -1.03418 -38.6621 -0.74707c-10.3604 -6.03711 -20.5391 -12.3604 -30.4482 -19.0596c-49.4697 -33.4443 -123.479 -94.8867 -115.624 -162.176
c9.49121 -81.332 123.635 -78.6826 182.019 -69.668c129.085 19.9326 256.242 87.7363 322.337 203.808c5.86816 10.3057 36.9121 6.54688 30.5713 -4.80469c-45.6484 -81.7373 -120.361 -140.872 -205.507 -177.746c-85.1914 -36.8906 -195.513 -63.5049 -286.429 -33.626
c-34.0645 11.1914 -70.7607 33.8027 -83.6777 69.0352c-15.0264 40.9912 3.71582 84.0156 28.7441 116.679c25.585 33.3975 56.9492 61.168 91.3848 84.834c-15.667 3.28223 -31.0264 7.7793 -45.8291 13.7314z" />
    <glyph glyph-name="E" unicode="&#xc9;" horiz-adv-x="552" 
d="M92.4922 214.782c-39.7588 15.9834 -75.3945 41.0029 -99.5625 76.8428c-27.1162 40.1729 -31.0186 90.0312 -20.6533 136.413c18.4307 82.4795 68.5967 154.277 136.637 203.692c67.6387 49.1279 167.667 86.5664 249.357 51.7266
c92.1865 -39.3203 94.5742 -148.545 81.4131 -233.408c-3.00781 -19.3926 -51.3135 -19.5195 -50.1621 -0.000976562c2.66602 45.2393 9.14941 92.8066 -5.81348 136.688c-12.5459 36.793 -38.582 71.4688 -79.9395 75.3115
c-63.3955 5.88477 -130.081 -40.0498 -171.616 -83.5801c-46.5293 -48.7656 -79.6738 -112.654 -85.2422 -180.453c-6.15918 -74.9541 40.7207 -135.324 113.173 -152.907c13.7939 -3.3457 27.9258 -5.22754 42.1592 -6.0293
c18.5361 9.59277 37.4473 18.3838 56.4219 26.5088c45.2686 19.3799 93.334 37.1436 143.395 34.5029c18.5273 -0.978516 50.5078 -11.6973 42.8223 -36.3496c-6.34082 -20.3369 -32.3818 -30.0605 -49.9346 -37.6455
c-47.5039 -20.5273 -99.9814 -28.5723 -151.333 -31.5713c-12.7695 -0.74707 -25.7031 -1.03418 -38.6621 -0.74707c-10.3604 -6.03711 -20.5391 -12.3604 -30.4482 -19.0596c-49.4697 -33.4443 -123.479 -94.8867 -115.624 -162.176
c9.49121 -81.332 123.635 -78.6826 182.019 -69.668c129.085 19.9326 256.242 87.7363 322.337 203.808c5.86816 10.3057 36.9121 6.54688 30.5713 -4.80469c-45.6484 -81.7373 -120.361 -140.872 -205.507 -177.746c-85.1914 -36.8906 -195.513 -63.5049 -286.429 -33.626
c-34.0645 11.1914 -70.7607 33.8027 -83.6777 69.0352c-15.0264 40.9912 3.71582 84.0156 28.7441 116.679c25.585 33.3975 56.9492 61.168 91.3848 84.834c-15.667 3.28223 -31.0264 7.7793 -45.8291 13.7314z" />
    <glyph glyph-name="F" unicode="F" horiz-adv-x="532" 
d="M48.3018 523.717c-34.2705 -8.58887 -101.525 -1.03516 -88.7012 50.1387c11.124 44.4209 69.0898 60.6826 108.979 60.3281c44.2266 -0.387695 82.7246 -15.9199 115.481 -40.3486c30.4443 12.2549 60.7451 24.8848 91.1729 37.1689
c5.125 2.07129 10.2676 4.11719 15.4141 6.16309c1.58594 28.1543 4.28613 56.1729 8.73633 83.7998c4.29395 26.665 65.9893 27.4873 68.9463 0c1.89844 -17.667 3.25293 -35.418 4.24023 -53.2197c71.2207 24.459 144.264 43.0205 219.943 47.4072
c55.9707 3.24414 243.57 2.7041 216.272 -97.2773c-3.20215 -11.7227 -36.4102 -9.24219 -32.4785 5.10449c20.4844 74.7891 -126.39 74.9707 -168.367 73.7598c-69.8408 -2.0166 -138.687 -18.5361 -204.739 -40.46c-9.92578 -3.29492 -19.793 -6.79199 -29.6348 -10.3652
c1.86914 -47.2344 1.62012 -94.7051 2.21875 -141.732c0.902344 -70.8535 3.36133 -141.698 6.66895 -212.479c2.16016 -46.2979 5.23535 -92.5195 8.57227 -138.729c26.4199 3.23145 52.8994 6.04102 79.4424 8.34863c5.65234 0.489258 18.0254 0.523438 20.5146 -6.63965
c2.37109 -6.81738 -5.85449 -11.2041 -11.6465 -11.6895c-29.0527 -2.42969 -58.042 -5.4248 -86.9551 -8.96387c1.33301 -18.1055 2.69531 -36.207 4.0625 -54.3125c2.71289 -35.9502 6.24414 -71.8281 9.01953 -107.77c2.71289 -35.127 8.86328 -72.5527 2.57812 -107.498
c-3.44629 -19.1689 -43.7412 -20.5488 -51.5283 -3.97461c-14.9414 31.7861 -19.1934 68.8281 -24.8506 103.191c-5.88477 35.7598 -10.2891 71.7725 -14.6465 107.747c-2.0625 17.0381 -3.95215 34.0977 -5.71582 51.1738
c-21.8057 -3.46777 -43.5684 -7.21387 -65.2764 -11.3184c-15.9209 -3.00781 -29.4668 13.5791 -8.51758 17.6074c23.9062 4.59766 47.8838 8.76562 71.9121 12.5957c-1.82617 18.7637 -3.50098 37.54 -5.04883 56.3291c-5.23047 30.124 -11.4062 60.1172 -18.0713 90.2578
c-13.4736 60.9443 -24.9521 124.373 -48.6855 182.377c-14.2588 34.8398 -35.4062 68.668 -63.041 95.0078c-41.3916 -16.2324 -83.2432 -30.9463 -126.271 -41.7285zM289.526 612.864c-28.5 -11.8369 -56.916 -23.9697 -85.4707 -35.6377
c35.8105 -32.9844 63.585 -76.5947 83.1963 -120.694c1.06348 -2.3916 2.07617 -4.81348 3.09277 -7.22656c-0.498047 18.291 -0.898438 36.5869 -1.19824 54.8828c-0.59082 35.9541 -0.894531 72.3633 0.379883 108.676zM8.92285 594.462
c-11.0098 -9.71973 -21.3242 -25.9277 -14.8779 -41.0254c7.80371 -18.2617 28.7822 -15.6504 44.3867 -11.5625c25.2559 6.61426 50.0391 15.625 74.5605 24.5342c13.9717 5.0791 27.8672 10.3564 41.7119 15.7607c-1.40918 1.04199 -2.80078 2.10547 -4.23926 3.10547
c-38.9785 27.1797 -101.598 44.4287 -141.542 9.1875z" />
    <glyph glyph-name="G" unicode="G" horiz-adv-x="560" 
d="M5.38867 72.1055c-32.6133 50.8916 -38.9033 119.41 -35.6172 178.329c6.93066 124.702 63.3906 250.839 152.94 338.114c44.8848 43.75 103.627 80.999 167.659 84.5176c57.0508 3.12988 110.739 -24.4209 127.55 -81.4043
c33.3467 -113.047 -93.249 -227.929 -201.761 -183.698c-20.6152 8.40332 4.08789 22.0166 17.165 16.7393c61.4795 -24.8135 119.214 22.6445 142.567 77.4004c20.582 48.2549 11.1875 123.078 -49.0352 137.307c-45.9521 10.8584 -89.626 -26.8926 -120.23 -56.4131
c-33.9287 -32.7227 -62.0449 -69.8916 -85.6855 -110.634c-50.3223 -86.7188 -79.1006 -187.076 -71.874 -287.712c3.0166 -42.0029 9.65234 -91.2744 38.165 -124.558c38.3252 -44.7363 96.1436 -26.2676 136.527 5.59473c77.2607 60.9648 123.773 153.033 157.9 243.245
c1.45996 3.85547 6.33203 5.94824 11.7734 6.50488c9.875 3.45117 24.0908 0.650391 28.7646 -7.00586c16.3975 -26.8633 22.6748 -61.1211 28.0234 -91.9414c5.61523 -32.3555 8.8252 -65.1797 10.3271 -97.9609c0.245117 -5.37012 0.421875 -10.7617 0.603516 -16.1533
c38.2148 16.3594 77.2695 30.8164 116.733 43.7207c12.8242 4.19336 37.1777 -9.5293 16.668 -16.2539c-45.125 -14.7939 -89.6045 -31.6299 -132.848 -51.1357c0.598633 -46.6396 -1.85254 -93.5781 -10.3193 -139.323
c-17.4268 -94.1396 -67.5381 -175.501 -158.454 -212.244c-37.0166 -14.959 -81.5801 -23.3828 -120.407 -10.0312c-42.2012 14.5068 -56.2949 56.4004 -49.8994 98.083c14.4316 94.0674 112.642 160.26 186.777 207.705c24.7373 15.832 50.2168 30.3984 76.2529 43.8975
c1.06348 32.1992 1.08008 64.3818 0.363281 96.6992c-0.518555 23.4375 -2.14648 46.8076 -3.06641 70.2246c-18.8018 -40.624 -41.084 -79.5186 -68.749 -115.017c-39.2188 -50.3174 -92.9199 -98.9736 -157.816 -110.714
c-60.1211 -10.875 -118.062 12.7148 -150.999 64.1172zM383.358 20.3477c0.443359 6.58496 0.827148 13.1699 1.17285 19.7461c-17.4688 -9.67285 -34.6719 -19.8604 -51.5244 -30.668c-36.46 -23.3789 -71.3555 -49.4111 -103.407 -78.5771
c-32.25 -29.3525 -62.5938 -64.5088 -71.2412 -108.541c-4.3916 -22.3662 -4.02441 -49.6641 8.92578 -69.2627c12.2168 -18.4893 34.71 -21.3203 55.1992 -18.4014c35.1611 5.01172 63.2051 27.3359 85.8584 53.5117c54.8564 63.3779 69.5537 151.181 75.0166 232.192z" />
    <glyph glyph-name="H" unicode="H" horiz-adv-x="718" 
d="M13.1641 119.031c-41.9951 33.4014 -74.5723 91.3105 -35.8809 140.034c30.917 38.9277 85.791 50.8154 135.341 55.873c-4.64453 103.162 -5.86816 207.544 4.20117 309.956c2.93164 29.7783 74.8652 30.0146 76.1982 0
c4.52246 -101.952 3.05469 -204.132 4.98633 -306.193c51.7646 -0.78418 103.483 -6.44922 155.012 -10.8789c27.8672 -2.39648 55.793 -4.38379 83.7568 -5.0293c-1.76367 35.9873 -2.7168 72.0127 -3.13477 107.983c-1.04199 89.457 1.34961 178.812 10.3262 267.839
c3.05371 30.2637 76.4971 30.5293 77.5137 0c2.88965 -86.5879 -0.400391 -173.104 -0.556641 -259.723c-0.0673828 -37.0293 0.536133 -74.0332 1.93262 -111.004c12.1826 3.16797 23.6611 8.26855 33.6377 16.5029c9.01074 7.44141 40.5312 0.421875 28.5127 -9.5
c-17.5947 -14.5283 -38.708 -22.8428 -61.2764 -27.3984c1.45508 -31.7021 3.48438 -63.3789 6.25195 -95.0254c6.24707 -71.4268 13.1777 -145.263 31.9834 -214.686c7.66113 -28.2764 19.3672 -60.6318 38.6748 -83.2383
c6.32812 -7.40723 9.35254 -11.9971 19.042 -7.71484c6.15918 2.7207 12.1113 8.68555 16.7725 13.4697c11.959 12.2803 20.3584 28.4746 28.1416 43.6104c31.9756 62.1797 46.8076 131.164 61.1719 199.061c2.78027 13.1406 35.4102 11.6514 33.0225 0
c-17.4688 -85.2129 -35.8271 -172.725 -85.6768 -245.759c-17.8145 -26.0996 -41.623 -44.5381 -74.8516 -41.543c-36.6631 3.30273 -66.8506 31.71 -85.5635 61.7246c-41.4043 66.3945 -51.208 155.066 -61.9062 230.906
c-6.31543 44.7705 -10.3779 89.8408 -13.002 135.012c-12.9551 0.611328 -25.585 1.47168 -37.5186 2.16797c-67.3271 3.93164 -134.325 13.2793 -201.816 14.3887c0.207031 -8.8584 0.383789 -17.7168 0.658203 -26.5752
c1.80957 -58.5479 4.64453 -117.028 6.91016 -175.556c2.08789 -53.8994 9.63086 -109.419 7.8291 -163.204c-0.543945 -16.2617 -31.6846 -16.333 -41.125 -9.70996c-19.6543 13.79 -24.6992 37.5361 -29.2129 60.2568c-11.5879 25.5303 -27.3145 48.5332 -47.8164 68.4355
c-25.5303 24.7881 -54.8271 43.4756 -82.5381 65.5166zM4.62793 246.267c-42.2139 -65.0146 39.2607 -117.308 84.3135 -147.888c15.8408 -10.7529 29.9854 -22.9658 42.4131 -36.4941c-0.776367 6.39941 -1.53125 12.8076 -2.23535 19.2236
c-6.56348 59.6953 -10.5117 119.674 -13.7852 179.635c-0.632812 11.5547 -1.22363 23.1387 -1.79297 34.7354c-6.87988 -0.923828 -13.752 -1.95703 -20.5947 -3.21875c-32.626 -6.01953 -69.1582 -16.4854 -88.3184 -45.9932z" />
    <glyph glyph-name="I" unicode="I" horiz-adv-x="448" 
d="M130.144 314.979c-54.3975 -9.8418 -107.907 16.6953 -136.838 63.0986c-32.668 52.4062 -33.9717 121.513 -19.4766 179.884c13.4443 54.1484 42.9482 109.803 91.6504 139.901c41.2861 25.5137 95.0674 29.2305 137.286 3.94922
c109.541 -65.5928 100.603 -207.573 92.3516 -317.962c-5.05371 -67.6387 -12.9424 -135.101 -16.832 -202.819c-3.62402 -63.0488 -7.53418 -130.202 3.30273 -192.716c3.37891 -19.498 12.2549 -51.0146 31.9385 -61.0039
c27.1836 -13.7988 62.6904 31.3848 75.4346 49.6172c34.874 49.8916 52.3467 109.056 69.3936 166.772c3.29004 11.1455 34.7979 8.69434 30.8877 -4.85156c-26.2598 -90.958 -75.8477 -265.48 -204.498 -231.905c-54.4473 14.2119 -77.0537 61.3789 -85.8623 113.076
c-9.93457 58.2861 -7.85059 118.534 -3.3916 177.217c4.75 62.4717 13.5664 124.398 20.7334 186.608c6.87207 59.6445 15.8447 120.74 14.0352 180.904c-1.55273 51.5879 -12.8457 115.186 -69.6436 132.65c-63.2051 19.4346 -115.113 -44.209 -138.239 -94.4971
c-24.6318 -53.5615 -33.1367 -118.18 -17.2539 -175.547c14.2373 -51.415 57.4346 -105.791 116.855 -95.4941c15.2451 2.64062 28.335 -13.2334 8.16602 -16.8828z" />
    <glyph glyph-name="I" unicode="&#xcf;" horiz-adv-x="448" 
d="M130.144 314.979c-54.3975 -9.8418 -107.907 16.6953 -136.838 63.0986c-32.668 52.4062 -33.9717 121.513 -19.4766 179.884c13.4443 54.1484 42.9482 109.803 91.6504 139.901c41.2861 25.5137 95.0674 29.2305 137.286 3.94922
c109.541 -65.5928 100.603 -207.573 92.3516 -317.962c-5.05371 -67.6387 -12.9424 -135.101 -16.832 -202.819c-3.62402 -63.0488 -7.53418 -130.202 3.30273 -192.716c3.37891 -19.498 12.2549 -51.0146 31.9385 -61.0039
c27.1836 -13.7988 62.6904 31.3848 75.4346 49.6172c34.874 49.8916 52.3467 109.056 69.3936 166.772c3.29004 11.1455 34.7979 8.69434 30.8877 -4.85156c-26.2598 -90.958 -75.8477 -265.48 -204.498 -231.905c-54.4473 14.2119 -77.0537 61.3789 -85.8623 113.076
c-9.93457 58.2861 -7.85059 118.534 -3.3916 177.217c4.75 62.4717 13.5664 124.398 20.7334 186.608c6.87207 59.6445 15.8447 120.74 14.0352 180.904c-1.55273 51.5879 -12.8457 115.186 -69.6436 132.65c-63.2051 19.4346 -115.113 -44.209 -138.239 -94.4971
c-24.6318 -53.5615 -33.1367 -118.18 -17.2539 -175.547c14.2373 -51.415 57.4346 -105.791 116.855 -95.4941c15.2451 2.64062 28.335 -13.2334 8.16602 -16.8828z" />
    <glyph glyph-name="I" unicode="&#xce;" horiz-adv-x="448" 
d="M130.144 314.979c-54.3975 -9.8418 -107.907 16.6953 -136.838 63.0986c-32.668 52.4062 -33.9717 121.513 -19.4766 179.884c13.4443 54.1484 42.9482 109.803 91.6504 139.901c41.2861 25.5137 95.0674 29.2305 137.286 3.94922
c109.541 -65.5928 100.603 -207.573 92.3516 -317.962c-5.05371 -67.6387 -12.9424 -135.101 -16.832 -202.819c-3.62402 -63.0488 -7.53418 -130.202 3.30273 -192.716c3.37891 -19.498 12.2549 -51.0146 31.9385 -61.0039
c27.1836 -13.7988 62.6904 31.3848 75.4346 49.6172c34.874 49.8916 52.3467 109.056 69.3936 166.772c3.29004 11.1455 34.7979 8.69434 30.8877 -4.85156c-26.2598 -90.958 -75.8477 -265.48 -204.498 -231.905c-54.4473 14.2119 -77.0537 61.3789 -85.8623 113.076
c-9.93457 58.2861 -7.85059 118.534 -3.3916 177.217c4.75 62.4717 13.5664 124.398 20.7334 186.608c6.87207 59.6445 15.8447 120.74 14.0352 180.904c-1.55273 51.5879 -12.8457 115.186 -69.6436 132.65c-63.2051 19.4346 -115.113 -44.209 -138.239 -94.4971
c-24.6318 -53.5615 -33.1367 -118.18 -17.2539 -175.547c14.2373 -51.415 57.4346 -105.791 116.855 -95.4941c15.2451 2.64062 28.335 -13.2334 8.16602 -16.8828z" />
    <glyph glyph-name="I" unicode="&#xcd;" horiz-adv-x="448" 
d="M130.144 314.979c-54.3975 -9.8418 -107.907 16.6953 -136.838 63.0986c-32.668 52.4062 -33.9717 121.513 -19.4766 179.884c13.4443 54.1484 42.9482 109.803 91.6504 139.901c41.2861 25.5137 95.0674 29.2305 137.286 3.94922
c109.541 -65.5928 100.603 -207.573 92.3516 -317.962c-5.05371 -67.6387 -12.9424 -135.101 -16.832 -202.819c-3.62402 -63.0488 -7.53418 -130.202 3.30273 -192.716c3.37891 -19.498 12.2549 -51.0146 31.9385 -61.0039
c27.1836 -13.7988 62.6904 31.3848 75.4346 49.6172c34.874 49.8916 52.3467 109.056 69.3936 166.772c3.29004 11.1455 34.7979 8.69434 30.8877 -4.85156c-26.2598 -90.958 -75.8477 -265.48 -204.498 -231.905c-54.4473 14.2119 -77.0537 61.3789 -85.8623 113.076
c-9.93457 58.2861 -7.85059 118.534 -3.3916 177.217c4.75 62.4717 13.5664 124.398 20.7334 186.608c6.87207 59.6445 15.8447 120.74 14.0352 180.904c-1.55273 51.5879 -12.8457 115.186 -69.6436 132.65c-63.2051 19.4346 -115.113 -44.209 -138.239 -94.4971
c-24.6318 -53.5615 -33.1367 -118.18 -17.2539 -175.547c14.2373 -51.415 57.4346 -105.791 116.855 -95.4941c15.2451 2.64062 28.335 -13.2334 8.16602 -16.8828z" />
    <glyph glyph-name="J" unicode="J" horiz-adv-x="537" 
d="M56.6465 588.285c-36.9072 -1.10938 -88.0186 3.59277 -99.3662 46.4736c-3.48828 13.1787 26.6484 15.2666 29.6182 4.65723c9.00195 -32.1445 41.3955 -33.9121 69.748 -32.7686c28.8418 1.15625 57.5234 5.19727 85.8799 10.4619
c52.4902 9.74023 103.942 24.1846 156.04 35.7139c67.5293 14.9463 227.979 54.6592 248.982 -47.0732c2.45898 -11.9004 -30.9385 -13.4189 -33.6807 0c-9.23438 45.1836 -56.793 50.1865 -100.252 46.5879c1.42969 -2.375 2.28613 -5.03711 2.35742 -8.01562
c3.375 -143.099 18.0303 -286.079 20.0508 -429.232c13.335 -7.54297 26.248 -15.8408 38.8447 -24.6787c25.9902 -18.2275 53.8232 -41.6143 87.0732 -42.2812c19.8438 -0.400391 19.8438 -18.9277 0 -18.6367c-49.5117 0.729492 -86.4355 31.043 -125.697 56.9785
c0.0214844 -13.7939 -0.0371094 -27.5967 -0.302734 -41.3955c-2.23145 -116.455 -4.85938 -275.922 -130.08 -330.762c-49.7529 -21.7881 -107.297 -16.8271 -151.675 14.8916c-46.6602 33.3555 -71.5537 88.8115 -79.6318 144.36
c-16.5996 114.169 44.9941 228.776 155.746 267.231c44.1162 15.3174 91.1436 15.9375 135.61 3.99902c-0.307617 5.56836 -0.607422 11.1406 -0.936523 16.7051c-7.4668 126.739 -22.333 252.943 -24.1514 379.974c-43.6826 -8.28125 -86.7324 -19.6289 -130.018 -29.7197
c-50.6807 -11.8115 -101.994 -21.8975 -154.16 -23.4707zM369.445 70.2529c1.31152 50.3682 0.0742188 100.817 -2.34277 151.165c-45.3564 15.165 -92.9707 15.5996 -138.851 -6.68262c-99.4336 -48.293 -140.222 -167.692 -111.443 -271.083
c14.3389 -51.5078 47.7959 -105.335 102.737 -119.623c53.79 -13.9883 98.5693 29.7783 120.641 74.3213c26.083 52.6377 27.7617 114.299 29.2588 171.902z" />
    <glyph glyph-name="K" unicode="K" horiz-adv-x="544" 
d="M3.43262 99.125c-8.77832 67.7275 -14.9531 136.047 -18.5898 204.242c-7.38672 138.357 -10.8418 280.263 8.70215 417.76c4.24805 29.8965 77.793 30.6182 77.5146 0.000976562c-0.911133 -100.589 -5.21777 -200.812 -5.125 -301.224
c62.8848 40.2783 107.019 106.724 154.886 162.555c27.9639 32.6133 58.3535 63.6611 94.7627 86.8926c33.5576 21.4092 79.0322 41.3711 116.602 18.1357c15.8994 -9.83301 -12.7773 -18.9873 -22.6523 -12.9131c-34.5488 21.2529 -92.5488 -31.9209 -116.139 -54.2109
c-28.2002 -26.6523 -52.625 -56.9707 -76.9912 -87.0693c-37.6123 -46.4619 -76.0469 -92.6709 -125.471 -125.237c43.9395 -2.32422 86.2461 -20.9404 114.21 -57.5225c39.9492 -52.2588 49.0947 -126.04 62.8301 -188.621
c14.9502 -68.0986 23.3535 -142.744 52.4951 -206.582c11.2422 -24.623 30.3477 -53.7559 57.6709 -61.4668c34.6758 -9.78711 69.4863 14.9668 91.5273 39.3916c44.792 49.6348 68.2471 123.483 84.4414 187.026c2.89844 11.377 35.0352 9.09863 31.5254 -4.95312
c-17.8945 -71.6758 -45.6729 -159.023 -103.432 -209.147c-47.8203 -41.4971 -107.845 -45.8164 -163.592 -19.0801c-65.5723 31.4482 -89.4912 97.876 -104.23 164.789c-16.3086 74.0342 -29.7949 148.794 -46.8203 222.638
c-7.19629 31.2246 -17.5234 63.5508 -41.8555 85.8281c-16.5654 15.165 -37.6875 24.1631 -59.5732 25.1123c0.3125 -25.9814 0.979492 -51.9795 2.13574 -78.0078c3.09668 -69.6045 7.97363 -138.969 14.4697 -208.337c3.0459 -32.5332 6.15039 -65.0576 9.26758 -97.5859
c3.33301 -34.7725 8.81738 -70.4014 4.20215 -105.25c-2.4043 -18.165 -40.1807 -18.1865 -47.3223 -3.6543c-15.5068 31.5459 -21.5898 66.5596 -28.3604 100.788c-6.91406 34.9502 -12.5117 70.373 -17.0889 105.703z" />
    <glyph glyph-name="L" unicode="L" horiz-adv-x="283" 
d="M-92.0811 -196.058c-61.3789 44.2012 -35.2949 120.202 12.6055 163.513c42.6865 38.5986 94.3584 60.2354 147.76 78.5479c-0.320312 2.02441 -0.636719 4.04492 -0.953125 6.03613c-28.2979 178.547 -80.4043 358.464 -62.7246 540.819
c7.4375 76.6914 26.0996 168.818 91.1064 218.546c26.4248 20.2148 67.1416 26.1631 97.4473 11.2256c30.0479 -14.8066 46.0146 -48.1787 52.6377 -79.5049c16.9414 -80.1338 -16.5322 -169.789 -45.9268 -243.194c-26.6309 -66.4961 -59.6914 -130.103 -93.8232 -193.033
c11.6768 -78.9609 26.2686 -157.458 35.1396 -236.79c55.3799 18.7295 109.106 40.4883 153.135 80.416c8.52148 7.73242 39.4551 1.16016 27.9434 -9.31055c-50.875 -46.2764 -114.856 -70.0098 -179.027 -91.4482c0.443359 -4.51367 0.961914 -9.01465 1.3623 -13.5322
c6.95605 -78.3916 -4.4043 -165.436 -69.8203 -217.82c-47.9893 -38.4307 -113.953 -52.5713 -166.861 -14.4697zM87.6562 584.945c-4.48438 -75.2871 1.41992 -150.49 11.0254 -225.148c30.7822 58.835 59.4971 118.733 81.8506 181.331
c16.4854 46.1709 31.6934 94.8096 34.4648 144.043c1.375 24.459 -1.04688 49.5293 -9.63574 72.5879c-5.16309 13.8623 -23.8633 52.3516 -43.8672 46.8467c-6.87598 -1.88965 -16.4814 -14.4561 -20.9189 -19.7754c-5.71191 -6.84277 -10.3223 -14.6934 -14.4775 -22.5566
c-8.5127 -16.1064 -14.3975 -33.457 -19.5986 -50.8711c-12.1318 -40.6113 -16.333 -84.2812 -18.8428 -126.457zM-86.9609 -89.0898c-16.2031 -34.7266 -9.82812 -74.2705 22.8857 -96.5352c30.0186 -20.4346 70.7646 -18.3975 97.3828 6.95996
c53.6797 51.1357 48.1455 134.67 38.0723 204.258c-63.0957 -22.5684 -130.056 -54.0547 -158.341 -114.683z" />
    <glyph glyph-name="M" unicode="M" horiz-adv-x="819" 
d="M-0.583008 126.397c-8.19629 48.5 -14.0703 97.1582 -17.8545 146.193c-7.74121 100.568 -8.10352 201.597 3.41309 301.865c3.61523 31.4785 81.8174 30.9346 80.1514 0.000976562c-5.33594 -99.1465 -8.17871 -198.563 -3.07422 -297.786
c1.7168 -33.4395 4.20605 -66.8965 7.25977 -100.281c7.50488 64.9395 17.1816 129.63 28.8457 193.949c18.0889 99.7285 38.2998 201.132 73.7051 296.368c14.2246 38.2617 33.4775 79.5439 67.9385 103.762c32.4189 22.7793 71.3174 9.99316 95.2402 -18.7939
c29.917 -36 35.4727 -87.1738 41.8047 -131.793c7.55566 -53.2412 9.73633 -107.423 11.3896 -161.12c1.3623 -44.29 1.60742 -88.626 1.49805 -132.975c11.9971 47.5127 27.4238 94.0723 46.8076 138.573c15.6123 35.8447 37.7383 80.5986 72.3721 101.817
c33.3174 20.417 69.3262 9.84961 94.6367 -17.3262c31.0566 -33.3467 43.2773 -77.5225 52.0352 -121.129c9.4707 -47.1543 11.2422 -95.3076 11.8457 -143.259c1.22363 -96.9023 -3.53906 -195.087 18.4561 -290.34c4.25195 -18.4092 8.8418 -48.7656 33.9121 -43.1172
c22.9863 5.17578 39.8135 28.7734 51.6084 47.3936c25.416 40.1299 44.0527 84.2344 57.0117 129.849c3.23145 11.3818 35.376 8.93945 31.5244 -4.95215c-21.1514 -76.3037 -69.3555 -209.886 -170.928 -194.852c-93.5781 13.8535 -98.708 142.846 -100.725 215.969
c-2.70801 98.2939 8.06152 196.597 -0.358398 294.781c-2.08008 24.2734 -11.2217 129.823 -50.8164 115.282c-21.0547 -7.73242 -37.8145 -37.751 -48.3818 -55.7979c-11.1709 -19.0762 -20.2617 -39.3037 -28.3906 -59.8389
c-36.8867 -93.1855 -59.2021 -192.29 -69.8242 -291.812c-0.134766 -1.29883 -0.662109 -2.4248 -1.39648 -3.43262c0.0292969 -5.47168 0.0253906 -10.9434 0.0761719 -16.415c0.282227 -30.8281 -77.1816 -30.9248 -78.835 0.000976562
c-5.82129 108.917 1.35449 218.513 4.29102 327.441c1.29883 48.251 1.11328 96.4219 -0.679688 144.656c-1.58203 42.585 0.438477 89.3682 -13.8955 130.056c-2.85156 8.09082 -7.61426 24.458 -15.874 29.208c-14.0098 8.06152 -25.6826 -6.39062 -33.8369 -15.1182
c-13.8281 -14.8027 -24.0703 -32.4404 -32.6338 -50.7021c-18.0215 -38.4258 -30.2715 -79.9736 -41.5098 -120.796c-49.4824 -179.787 -74.8564 -366.606 -89.8027 -552.235c0.700195 -12.6934 0.873047 -25.3701 0.176758 -38
c-1.02539 -18.6289 -40.5146 -17.4775 -47.3232 -3.65332c-22.5264 45.7363 -31.4189 98.4082 -39.8604 148.359z" />
    <glyph glyph-name="N" unicode="N" horiz-adv-x="609" 
d="M-3.49316 147.207c-6.86719 57.249 -11.8037 114.588 -14.4785 172.179c-5.37891 116.48 -4.14746 233.092 8.18359 349.096c3.33301 31.3428 81.2773 30.5586 79.4932 0c-6.70703 -114.822 -10.8662 -229.982 -7.11621 -344.986
c1.84375 -56.4893 4.92285 -113.033 9.45801 -169.375c13.9248 100.526 31.001 200.631 56.0459 298.976c15.5029 60.877 34.9502 121.121 63.6738 177.155c21.9736 42.8594 53.8486 84.335 107.406 78.6484c125.643 -13.3389 131.489 -200.044 134.463 -292.36
c4.28613 -133.084 -20.2822 -268.59 0.616211 -400.754c3.55664 -22.4883 8.93555 -48.2715 20.5107 -68.2207c19.0889 -32.8994 62.7119 2.89453 78.1895 21.8311c20.1895 24.6953 34.2373 55.5957 47.833 84.2344c13.6719 28.7949 25.6777 58.2949 36.3594 88.3223
c4.15137 11.6729 37.3594 8.69043 32.4785 -5.10352c-21.877 -61.8135 -48.0908 -132.604 -91.6807 -182.753c-40.2861 -46.3525 -100.467 -51.0986 -151.417 -20.0635c-48.8115 29.7363 -58.4209 99.3369 -62.2637 151.025
c-4.91895 66.1748 1.36621 133.109 4.85449 199.233c3.48047 65.9893 6.59375 132.113 5.4082 198.217c-0.616211 34.1738 -1.97852 68.5078 -4.48438 102.598c-1.82617 24.8301 -4.09961 50.0098 -15.6582 72.541c-8.27246 16.1318 -21.6279 30.3818 -40.7168 32.4824
c-17.165 1.88965 -30.9844 -9.18359 -41.7207 -21.0547c-18.9834 -20.9912 -31.2207 -48.8926 -42.6572 -74.4521c-26.4834 -59.2021 -44.1035 -121.965 -58.7041 -185.014c-30.1201 -130.085 -47.2764 -262.65 -65.707 -394.769
c0.585938 -11.5801 0.969727 -23.1514 0.873047 -34.6973c-0.181641 -21.4463 -51.3262 -22.5684 -57.3545 -4.4248c-18.2236 54.8359 -25.0322 114.32 -31.8877 171.489z" />
    <glyph glyph-name="O" unicode="O" horiz-adv-x="547" 
d="M47.9062 242.713c-10.8965 10.6133 -20.8896 22.1172 -29.7656 34.583c-47.5205 66.7871 -57.9316 154.464 -42.5088 233.53c15.7139 80.5518 57.5234 164.845 137.164 197.913c84.5889 35.123 165.93 -8.97656 218.479 -76.2822
c55.0723 -70.5371 85.0488 -159.935 97.873 -247.721c11.4824 -78.624 8.5127 -161.251 -9.75781 -239.17c50.2334 2.78418 100.02 12.5078 148.009 28.5039c12.0732 4.02051 35.2871 -8.52051 15.8359 -15.4434c-54.1904 -19.2822 -111.271 -30.0186 -168.722 -32.415
c-2.10938 -7.80859 -4.32031 -15.583 -6.75 -23.2734c-25.5557 -80.8975 -72.7227 -165.541 -160.792 -188.304c-42.1973 -10.9092 -90.9668 -9.56348 -129.469 12.79c-36.085 20.9531 -57.6709 58.3457 -68.9346 97.4717
c-20.0127 69.5371 -16.0557 145.579 -0.662109 217.816zM288.089 -16.6045c39.1855 37.4688 65.9707 89.2461 83.8779 142.542c-33.4268 1.0166 -66.7734 4.84277 -99.5381 11.5166c-51.2412 10.4404 -105.608 27.3652 -153.694 53.7812
c-8.12012 -51.959 -11.1318 -104.142 2.16895 -157.193c8.93457 -35.6289 27.6855 -77.0459 66.4873 -87.457c37.0381 -9.93848 74.8604 12.1113 100.698 36.8105zM65.0479 639.168c-77.54 -99.75 -85.9141 -260.611 -8.97754 -362.255
c4.83398 18.2656 10.2881 36.1729 16.1689 53.5322c7.4873 22.1045 75.9062 20.4004 71.5996 -5.52246c-6.00684 -36.1611 -14.1826 -72.1611 -20.7764 -108.217c58.6406 -37.6201 130.144 -58.5566 197.804 -67.5127c18.9707 -2.50977 38.0049 -3.90234 57.0264 -4.32422
c5.32812 17.9834 9.74512 35.9756 13.293 53.4736c16.3047 80.4375 11.6436 165.612 -8.19629 245.029c-18.8184 75.3203 -51.1406 151.915 -106.626 207.675c-27.749 27.8838 -64.6816 53.2285 -105.804 50.8623c-42.6104 -2.45117 -80.1084 -30.0605 -105.512 -62.7412z
" />
    <glyph glyph-name="O" unicode="&#xd6;" horiz-adv-x="547" 
d="M47.9062 242.713c-10.8965 10.6133 -20.8896 22.1172 -29.7656 34.583c-47.5205 66.7871 -57.9316 154.464 -42.5088 233.53c15.7139 80.5518 57.5234 164.845 137.164 197.913c84.5889 35.123 165.93 -8.97656 218.479 -76.2822
c55.0723 -70.5371 85.0488 -159.935 97.873 -247.721c11.4824 -78.624 8.5127 -161.251 -9.75781 -239.17c50.2334 2.78418 100.02 12.5078 148.009 28.5039c12.0732 4.02051 35.2871 -8.52051 15.8359 -15.4434c-54.1904 -19.2822 -111.271 -30.0186 -168.722 -32.415
c-2.10938 -7.80859 -4.32031 -15.583 -6.75 -23.2734c-25.5557 -80.8975 -72.7227 -165.541 -160.792 -188.304c-42.1973 -10.9092 -90.9668 -9.56348 -129.469 12.79c-36.085 20.9531 -57.6709 58.3457 -68.9346 97.4717
c-20.0127 69.5371 -16.0557 145.579 -0.662109 217.816zM288.089 -16.6045c39.1855 37.4688 65.9707 89.2461 83.8779 142.542c-33.4268 1.0166 -66.7734 4.84277 -99.5381 11.5166c-51.2412 10.4404 -105.608 27.3652 -153.694 53.7812
c-8.12012 -51.959 -11.1318 -104.142 2.16895 -157.193c8.93457 -35.6289 27.6855 -77.0459 66.4873 -87.457c37.0381 -9.93848 74.8604 12.1113 100.698 36.8105zM65.0479 639.168c-77.54 -99.75 -85.9141 -260.611 -8.97754 -362.255
c4.83398 18.2656 10.2881 36.1729 16.1689 53.5322c7.4873 22.1045 75.9062 20.4004 71.5996 -5.52246c-6.00684 -36.1611 -14.1826 -72.1611 -20.7764 -108.217c58.6406 -37.6201 130.144 -58.5566 197.804 -67.5127c18.9707 -2.50977 38.0049 -3.90234 57.0264 -4.32422
c5.32812 17.9834 9.74512 35.9756 13.293 53.4736c16.3047 80.4375 11.6436 165.612 -8.19629 245.029c-18.8184 75.3203 -51.1406 151.915 -106.626 207.675c-27.749 27.8838 -64.6816 53.2285 -105.804 50.8623c-42.6104 -2.45117 -80.1084 -30.0605 -105.512 -62.7412z
" />
    <glyph glyph-name="O" unicode="&#xd5;" horiz-adv-x="547" 
d="M47.9062 242.713c-10.8965 10.6133 -20.8896 22.1172 -29.7656 34.583c-47.5205 66.7871 -57.9316 154.464 -42.5088 233.53c15.7139 80.5518 57.5234 164.845 137.164 197.913c84.5889 35.123 165.93 -8.97656 218.479 -76.2822
c55.0723 -70.5371 85.0488 -159.935 97.873 -247.721c11.4824 -78.624 8.5127 -161.251 -9.75781 -239.17c50.2334 2.78418 100.02 12.5078 148.009 28.5039c12.0732 4.02051 35.2871 -8.52051 15.8359 -15.4434c-54.1904 -19.2822 -111.271 -30.0186 -168.722 -32.415
c-2.10938 -7.80859 -4.32031 -15.583 -6.75 -23.2734c-25.5557 -80.8975 -72.7227 -165.541 -160.792 -188.304c-42.1973 -10.9092 -90.9668 -9.56348 -129.469 12.79c-36.085 20.9531 -57.6709 58.3457 -68.9346 97.4717
c-20.0127 69.5371 -16.0557 145.579 -0.662109 217.816zM288.089 -16.6045c39.1855 37.4688 65.9707 89.2461 83.8779 142.542c-33.4268 1.0166 -66.7734 4.84277 -99.5381 11.5166c-51.2412 10.4404 -105.608 27.3652 -153.694 53.7812
c-8.12012 -51.959 -11.1318 -104.142 2.16895 -157.193c8.93457 -35.6289 27.6855 -77.0459 66.4873 -87.457c37.0381 -9.93848 74.8604 12.1113 100.698 36.8105zM65.0479 639.168c-77.54 -99.75 -85.9141 -260.611 -8.97754 -362.255
c4.83398 18.2656 10.2881 36.1729 16.1689 53.5322c7.4873 22.1045 75.9062 20.4004 71.5996 -5.52246c-6.00684 -36.1611 -14.1826 -72.1611 -20.7764 -108.217c58.6406 -37.6201 130.144 -58.5566 197.804 -67.5127c18.9707 -2.50977 38.0049 -3.90234 57.0264 -4.32422
c5.32812 17.9834 9.74512 35.9756 13.293 53.4736c16.3047 80.4375 11.6436 165.612 -8.19629 245.029c-18.8184 75.3203 -51.1406 151.915 -106.626 207.675c-27.749 27.8838 -64.6816 53.2285 -105.804 50.8623c-42.6104 -2.45117 -80.1084 -30.0605 -105.512 -62.7412z
" />
    <glyph glyph-name="O" unicode="&#xd4;" horiz-adv-x="547" 
d="M47.9062 242.713c-10.8965 10.6133 -20.8896 22.1172 -29.7656 34.583c-47.5205 66.7871 -57.9316 154.464 -42.5088 233.53c15.7139 80.5518 57.5234 164.845 137.164 197.913c84.5889 35.123 165.93 -8.97656 218.479 -76.2822
c55.0723 -70.5371 85.0488 -159.935 97.873 -247.721c11.4824 -78.624 8.5127 -161.251 -9.75781 -239.17c50.2334 2.78418 100.02 12.5078 148.009 28.5039c12.0732 4.02051 35.2871 -8.52051 15.8359 -15.4434c-54.1904 -19.2822 -111.271 -30.0186 -168.722 -32.415
c-2.10938 -7.80859 -4.32031 -15.583 -6.75 -23.2734c-25.5557 -80.8975 -72.7227 -165.541 -160.792 -188.304c-42.1973 -10.9092 -90.9668 -9.56348 -129.469 12.79c-36.085 20.9531 -57.6709 58.3457 -68.9346 97.4717
c-20.0127 69.5371 -16.0557 145.579 -0.662109 217.816zM288.089 -16.6045c39.1855 37.4688 65.9707 89.2461 83.8779 142.542c-33.4268 1.0166 -66.7734 4.84277 -99.5381 11.5166c-51.2412 10.4404 -105.608 27.3652 -153.694 53.7812
c-8.12012 -51.959 -11.1318 -104.142 2.16895 -157.193c8.93457 -35.6289 27.6855 -77.0459 66.4873 -87.457c37.0381 -9.93848 74.8604 12.1113 100.698 36.8105zM65.0479 639.168c-77.54 -99.75 -85.9141 -260.611 -8.97754 -362.255
c4.83398 18.2656 10.2881 36.1729 16.1689 53.5322c7.4873 22.1045 75.9062 20.4004 71.5996 -5.52246c-6.00684 -36.1611 -14.1826 -72.1611 -20.7764 -108.217c58.6406 -37.6201 130.144 -58.5566 197.804 -67.5127c18.9707 -2.50977 38.0049 -3.90234 57.0264 -4.32422
c5.32812 17.9834 9.74512 35.9756 13.293 53.4736c16.3047 80.4375 11.6436 165.612 -8.19629 245.029c-18.8184 75.3203 -51.1406 151.915 -106.626 207.675c-27.749 27.8838 -64.6816 53.2285 -105.804 50.8623c-42.6104 -2.45117 -80.1084 -30.0605 -105.512 -62.7412z
" />
    <glyph glyph-name="O" unicode="&#xd3;" horiz-adv-x="547" 
d="M47.9062 242.713c-10.8965 10.6133 -20.8896 22.1172 -29.7656 34.583c-47.5205 66.7871 -57.9316 154.464 -42.5088 233.53c15.7139 80.5518 57.5234 164.845 137.164 197.913c84.5889 35.123 165.93 -8.97656 218.479 -76.2822
c55.0723 -70.5371 85.0488 -159.935 97.873 -247.721c11.4824 -78.624 8.5127 -161.251 -9.75781 -239.17c50.2334 2.78418 100.02 12.5078 148.009 28.5039c12.0732 4.02051 35.2871 -8.52051 15.8359 -15.4434c-54.1904 -19.2822 -111.271 -30.0186 -168.722 -32.415
c-2.10938 -7.80859 -4.32031 -15.583 -6.75 -23.2734c-25.5557 -80.8975 -72.7227 -165.541 -160.792 -188.304c-42.1973 -10.9092 -90.9668 -9.56348 -129.469 12.79c-36.085 20.9531 -57.6709 58.3457 -68.9346 97.4717
c-20.0127 69.5371 -16.0557 145.579 -0.662109 217.816zM288.089 -16.6045c39.1855 37.4688 65.9707 89.2461 83.8779 142.542c-33.4268 1.0166 -66.7734 4.84277 -99.5381 11.5166c-51.2412 10.4404 -105.608 27.3652 -153.694 53.7812
c-8.12012 -51.959 -11.1318 -104.142 2.16895 -157.193c8.93457 -35.6289 27.6855 -77.0459 66.4873 -87.457c37.0381 -9.93848 74.8604 12.1113 100.698 36.8105zM65.0479 639.168c-77.54 -99.75 -85.9141 -260.611 -8.97754 -362.255
c4.83398 18.2656 10.2881 36.1729 16.1689 53.5322c7.4873 22.1045 75.9062 20.4004 71.5996 -5.52246c-6.00684 -36.1611 -14.1826 -72.1611 -20.7764 -108.217c58.6406 -37.6201 130.144 -58.5566 197.804 -67.5127c18.9707 -2.50977 38.0049 -3.90234 57.0264 -4.32422
c5.32812 17.9834 9.74512 35.9756 13.293 53.4736c16.3047 80.4375 11.6436 165.612 -8.19629 245.029c-18.8184 75.3203 -51.1406 151.915 -106.626 207.675c-27.749 27.8838 -64.6816 53.2285 -105.804 50.8623c-42.6104 -2.45117 -80.1084 -30.0605 -105.512 -62.7412z
" />
    <glyph glyph-name="P" unicode="P" horiz-adv-x="437" 
d="M14.0479 88.5615c-9.23438 62.7412 -17.2607 125.703 -22.6602 188.896c-10.9004 127.524 -16.5781 255.694 -11.5283 383.648c1.21484 30.791 78.0459 30.4834 78.1729 0.000976562c0.523438 -126.604 2.26953 -253.213 11.3857 -379.535
c1.49805 -20.751 3.08398 -41.4932 4.72949 -62.2354c6.61035 74.8652 19.0889 149.063 40.3291 221.562c26.3574 89.9668 106.327 311.731 238.884 225.675c54.7178 -35.5283 70.7188 -110.545 70.8828 -171.531c0.189453 -70.1914 -15.9971 -143.335 -54.4395 -202.819
c-24.2051 -37.4561 -55.9238 -72.3174 -93.5273 -97.6748c53.6631 -30.8242 111.895 -60.1719 173.159 -42.6865c5.88477 1.67871 18.3418 2.7168 22.5898 -3.375c4.02051 -5.7627 0.641602 -10.9932 -5.92188 -12.8789
c-62.1885 -17.8613 -124.335 -0.881836 -180.517 27.6182c-10.9043 5.53418 -21.6025 11.4443 -32.2373 17.4766c-11.9209 -6.36523 -24.3193 -11.8066 -37.2021 -16.0293c-33.2207 -10.8965 -70.5117 -14.0098 -103.951 -2.17285
c-3.27734 1.16016 -6.59766 2.59863 -9.85449 4.24414c-4.02441 -71.9961 -3.22754 -144.313 -0.203125 -216.335c2.12207 -13.7695 4.49316 -27.501 7.30664 -41.1523c3.88477 -18.8438 -46.1338 -19.7295 -52.499 -4.0498
c-23.6445 58.2314 -33.7861 121.458 -42.8984 183.355zM191.65 205.431c3.15527 1.50195 6.26855 3.10938 9.36035 4.78418c-0.548828 0.291016 -1.08887 0.594727 -1.63281 0.881836c-16.2197 8.58887 -33.3428 18.0977 -51.6846 21.1348
c-18.7549 3.10449 -49.3643 -15.0391 -27.9512 -34.3516c17.5957 -15.8652 54.1104 -0.949219 71.9082 7.55078zM117.781 311.382c-3.48828 -21.2441 -6.34961 -42.5615 -8.72852 -63.9277c10.7021 3.72461 22.3828 5.20508 33.1865 4.83789
c29.1748 -0.987305 56.2021 -14.1865 81.542 -27.8623c11.9258 8.37793 23.2021 17.7383 33.6641 27.5889c40.2568 37.8945 70.2715 86.5752 89.1621 138.374c20.1348 55.2197 30.5928 117.552 26.4668 176.445c-2.24805 32.0986 -12.001 62.3701 -38.417 82.6738
c-28.3525 21.793 -57.8906 18.2197 -83.21 -5.95605c-41.5898 -39.7129 -66.3691 -96.3623 -86.0693 -149.342c-21.999 -59.168 -37.3838 -120.576 -47.5967 -182.832z" />
    <glyph glyph-name="Q" unicode="Q" horiz-adv-x="547" 
d="M47.9062 242.713c-10.9004 10.6133 -20.8965 22.1172 -29.7676 34.583c-47.5205 66.7871 -57.9316 154.464 -42.5088 233.53c15.7139 80.5518 57.5234 164.845 137.164 197.913c84.5889 35.123 165.93 -8.97656 218.479 -76.2822
c55.0723 -70.5371 85.0488 -159.935 97.873 -247.721c11.4824 -78.624 8.5127 -161.251 -9.75781 -239.17c50.2334 2.78418 100.02 12.5078 148.009 28.5039c12.0732 4.02051 35.2871 -8.52051 15.8359 -15.4434c-54.1904 -19.2822 -111.271 -30.0186 -168.722 -32.415
c-2.10938 -7.80859 -4.32031 -15.583 -6.75 -23.2734c-25.5557 -80.8975 -72.7266 -165.541 -160.791 -188.304c-42.1973 -10.9092 -90.9668 -9.56348 -129.469 12.79c-36.085 20.9531 -57.6748 58.3457 -68.9336 97.4717
c-20.0127 69.5371 -16.0557 145.579 -0.662109 217.816zM288.081 -16.6045c39.1895 37.4688 65.9756 89.2461 83.875 142.542c-33.4229 1.0166 -66.7695 4.84277 -99.5342 11.5166c-51.2412 10.4404 -105.608 27.3652 -153.694 53.7812
c-8.12012 -51.959 -11.1367 -104.142 2.16797 -157.193c8.93066 -35.6289 27.6816 -77.0459 66.4873 -87.457c37.0381 -9.93848 74.8604 12.1113 100.698 36.8105zM65.0459 639.168c-77.54 -99.75 -85.9141 -260.611 -8.97754 -362.255
c4.83398 18.2656 10.2881 36.1729 16.1689 53.5322c7.4873 22.1045 75.9062 20.4004 71.5996 -5.52246c-6.00684 -36.1611 -14.1826 -72.1611 -20.7764 -108.217c58.6406 -37.6201 130.144 -58.5566 197.804 -67.5127c18.9707 -2.50977 38.0049 -3.90234 57.0264 -4.32422
c5.32812 17.9834 9.74512 35.9756 13.293 53.4736c16.3047 80.4375 11.6475 165.612 -8.19629 245.029c-18.8184 75.3203 -51.1406 151.915 -106.626 207.675c-27.749 27.8838 -64.6816 53.2285 -105.804 50.8623c-42.6104 -2.45117 -80.1084 -30.0605 -105.512 -62.7412z
" />
    <glyph glyph-name="R" unicode="R" horiz-adv-x="494" 
d="M14.0439 88.5615c-9.23438 62.7412 -17.2539 125.701 -22.6494 188.894c-10.9004 127.524 -16.5781 255.694 -11.5283 383.648c1.21484 30.791 78.0459 30.4834 78.1729 0.000976562c0.518555 -125.31 2.25684 -250.623 11.1328 -375.658
c11.4912 6.77051 22.6494 13.9844 33.4824 21.6279c9.66406 97.2275 22.834 198.058 61.8848 288.181c16.1484 37.2656 37.7637 79.0918 77.9736 94.6035c33.1904 12.8027 72.1816 6.57227 93.7207 -23.2822c53.123 -73.625 5.17578 -174.598 -37.9287 -240.237
c-40.2656 -61.3193 -91.7051 -114.657 -152.312 -155.454c75.46 -40.8301 106.149 -169.911 137.176 -239.402c11.0605 -24.7754 23.3486 -53.4141 42.7744 -72.8271c25.9854 -25.9648 64.4912 -28.6055 92.3965 -4.69531c45.7959 39.2402 71.668 106.766 83.543 164.251
c2.7207 13.1826 35.3965 11.6387 33.0215 0c-12.2002 -59.8174 -37.4346 -126.136 -81.9941 -169.755c-42.2061 -41.3115 -104.753 -40.0586 -153.797 -11.2549c-29.1709 17.1309 -50.71 37.7461 -70.4736 65.0771c-18.667 25.8213 -32.0605 55.2285 -43.9863 84.6689
c-12.7021 31.3682 -24.5176 63.1709 -40.5859 93.0332c-5.36133 9.95605 -11.0566 20.0215 -17.6631 29.3398c-0.0966797 -1.14746 -0.193359 -2.29492 -0.286133 -3.44238c-7.51758 -90.7939 -14.3428 -181.647 -21.2188 -272.492
c1.39648 -8.06152 2.89355 -16.1104 4.54688 -24.1299c3.88477 -18.8438 -46.1338 -19.7295 -52.5039 -4.0498c-23.6445 58.2314 -33.7861 121.458 -42.8984 183.355zM86.4912 239.417c-4.02832 -0.881836 -8.8584 -1.22363 -13.8613 -0.958008
c3.59375 -46.833 7.63086 -93.6328 12.6084 -140.34c3.34961 46.9893 6.96484 93.958 11.0781 140.88c-3.32422 1.94434 -4.56055 1.56934 -9.8252 0.417969zM160.968 477.423c-10.4277 -47.1621 -17.4473 -94.9463 -22.8721 -142.923
c39.9277 33.6934 74.9658 73.1484 105.528 116.037c23.6611 33.208 46.584 69.3223 60.0322 108.035c11.251 32.3896 24.6572 81.0156 -4.49219 108.714c-40.6445 38.6162 -82.4072 -33.2832 -96.7119 -63.2637c-19.1768 -40.2061 -31.8916 -83.2002 -41.4844 -126.6z" />
    <glyph glyph-name="S" unicode="S" horiz-adv-x="484" 
d="M206.528 46.373c-40.8174 48.3691 -83.8584 94.8555 -123.149 144.498c-84.5 106.77 -182.225 282.098 -59.3828 399.869c50.6973 48.6006 129.823 60.75 192.75 29.3516c62.4121 -31.1406 85.7109 -98.9268 98.7549 -162.854
c2.45508 -12.0264 -32.1953 -14.2666 -35.0215 -2.69922c-17.2666 70.6719 -62.4209 176.307 -155.206 146.512c-81.4375 -26.1504 -89.7646 -135.164 -70.3213 -203.807c21.6367 -76.3877 71.3047 -143.428 120.327 -204.516
c33.2754 -41.4678 67.8672 -81.9648 100.041 -124.276c2.49316 0.729492 4.99023 1.46387 7.47949 2.17676c38.9238 11.1748 78.1768 21.1807 116.979 32.7861c35.958 10.7529 72.376 22.4258 95.6406 53.7861c6.18848 8.34375 36.3086 2.53906 29.2764 -7.03223
c-21.9951 -29.9219 -54.292 -45.29 -88.8457 -56.6885c-42.5518 -14.0391 -86.1455 -24.8301 -129.199 -37.1855c-6.02441 -1.72949 -12.124 -3.49707 -18.249 -5.29004c11.0605 -15.0898 21.7842 -30.4365 31.9336 -46.209
c39.2021 -60.9229 68.0439 -134.151 21.9697 -199.9c-37.9277 -54.1309 -101.694 -86.3682 -167.245 -88.1016c-66.335 -1.75488 -134.855 30.4365 -160.517 94.5781c-26.5557 66.3857 10.4609 128.485 63.1494 168.451c38.6494 29.3096 83.0234 50.0176 128.836 66.5498z
M237.222 8.98828c-5.39551 6.8252 -10.8877 13.5664 -16.4102 20.2822c-53.874 -19.5312 -105.955 -45.5674 -144.064 -86.8369c-24.041 -26.0361 -40.2021 -59.4463 -36.6797 -95.5518c3.65332 -37.4307 26.9102 -72.4014 58.8945 -91.7432
c63.7236 -38.5361 165.018 -17.6592 199.993 51.0176c36.7383 72.1318 -18.1816 147.743 -61.7334 202.832z" />
    <glyph glyph-name="T" unicode="T" horiz-adv-x="574" 
d="M70.499 478.188c-33.5322 15.3555 -71.5957 31.8984 -95.6279 61.0312c-24.7119 29.9551 -19.2705 64.7617 7.35645 91.5742c60.5352 60.957 161.686 41.3203 237.479 32.6426c7.61035 -0.873047 15.2246 -1.7627 22.8389 -2.65234
c12.752 21.8477 75.2236 19.0801 76.2061 -8.5293c0 -0.0507812 0.00390625 -0.101562 0.00390625 -0.152344c64.2979 -6.7998 128.781 -11.4277 193.463 -7.37402c79.29 4.96484 209.948 20.3535 233.314 113.143c3.09668 12.2881 37.8691 9.83691 34.0684 -5.35352
c-22.9697 -91.7773 -144.575 -114.827 -224.105 -124.344c-78.4932 -9.39844 -157.501 -4.96875 -235.922 2.99121c3.05859 -80.6699 7.02832 -161.353 10.4111 -242.01c3.15918 -75.3711 5.24316 -150.937 10.9551 -226.164
c5.4541 -71.8027 12.2207 -147.141 32.959 -216.396c8.28125 -27.6602 22.1133 -59.2734 50.0947 -71.8955c37.207 -16.7891 60.6787 29.9893 75.6328 56.5947c35.123 62.4922 58.2617 130.823 69.002 201.659c1.96582 12.9512 34.0977 11.8506 32.3643 0.000976562
c-12.3809 -84.7021 -40.8555 -175.804 -92.9111 -244.995c-42.9316 -57.0635 -126.153 -47.7617 -171.025 2.58594c-25.1719 28.2383 -36.8105 64.7832 -45.9775 100.721c-10.7529 42.1514 -18.6416 84.6943 -23.9863 127.857
c-7.24707 58.502 -11.2246 117.324 -14.3887 176.185c-15.4736 43.3789 -32.7695 87.2344 -67.7578 118.768c-32.6846 29.458 -74.9658 46.0361 -114.446 64.1123zM11.5928 617.927c-69.9209 -75.8271 93.5156 -127.363 140.387 -151.337
c32.4102 -16.5781 62.96 -37.4424 85.1406 -66.7354c4.01562 -5.30273 7.69824 -10.7871 11.1533 -16.4023c-4.23535 85.626 -7.01074 170.999 -7.85449 256.688c-35.165 4.26074 -70.3555 8.53418 -105.651 11.0273c-43.0576 3.0459 -91.8398 0.74707 -123.175 -33.2412z
" />
    <glyph glyph-name="U" unicode="U" horiz-adv-x="696" 
d="M-22.123 647.069c1.21875 30.7441 77.374 30.5645 78.1709 0.00195312c2.93164 -112.713 4.84668 -225.282 13.0225 -337.776c6.55176 -90.1445 11.3525 -187.607 48.9854 -271.205c12.6973 -28.2129 45.1123 -86.6719 83.4492 -81.3232
c22.4502 3.12988 41.7451 29.1953 53.4639 46.3184c11.6807 17.0596 21.3955 35.4395 29.8447 54.292c39.502 88.1367 59.375 185.018 80.6787 278.73c20.6582 90.874 42.7627 181.428 62.8213 272.441c0.0839844 0.953125 0.160156 1.91113 0.249023 2.86426
c2.91113 31.9883 82.0703 31.7227 81.4717 0c-1.53125 -80.9229 -6.48828 -161.693 -8.8291 -242.591c-2.05859 -71.1738 -1.94043 -142.428 0.683594 -213.585c2.43848 -66.04 3.62793 -135.944 16.3721 -200.93c4.31934 -22.0244 17.9199 -59.6826 43.3281 -65.8877
c35.5576 -8.68555 64.7578 45.7451 77.3623 70.5703c29.4023 57.915 46.8037 120.745 67.1113 182.162c3.56055 10.7695 34.0645 8.23828 29.9346 -4.7041c-24.0195 -75.2822 -41.8135 -164.321 -92.4521 -227.231c-40.417 -50.2119 -118.939 -58.1592 -163.685 -8.59668
c-23.1006 25.5811 -33.1533 58.7041 -39.6963 91.874c-7.93945 40.2607 -13.2207 80.9609 -16.9873 121.809c-9.00195 97.6621 -10.6553 196.479 -7.41992 295.044c-11.5117 -50.6719 -23.3027 -101.276 -35.249 -151.805
c-21.9277 -92.7256 -43.9941 -199.512 -104.513 -275.925c-25.6562 -32.3975 -63.0146 -52.292 -105.01 -45.5254c-45.5342 7.33594 -82.4082 40.4082 -107.428 77.4629c-56.3037 83.3818 -65.0654 194.289 -74.9746 291.579
c-11.5498 113.375 -15.2285 228.088 -10.7061 341.936z" />
    <glyph glyph-name="U" unicode="&#xdc;" horiz-adv-x="696" 
d="M-22.123 647.069c1.21875 30.7441 77.374 30.5645 78.1709 0.00195312c2.93164 -112.713 4.84668 -225.282 13.0225 -337.776c6.55176 -90.1445 11.3525 -187.607 48.9854 -271.205c12.6973 -28.2129 45.1123 -86.6719 83.4492 -81.3232
c22.4502 3.12988 41.7451 29.1953 53.4639 46.3184c11.6807 17.0596 21.3955 35.4395 29.8447 54.292c39.502 88.1367 59.375 185.018 80.6787 278.73c20.6582 90.874 42.7627 181.428 62.8213 272.441c0.0839844 0.953125 0.160156 1.91113 0.249023 2.86426
c2.91113 31.9883 82.0703 31.7227 81.4717 0c-1.53125 -80.9229 -6.48828 -161.693 -8.8291 -242.591c-2.05859 -71.1738 -1.94043 -142.428 0.683594 -213.585c2.43848 -66.04 3.62793 -135.944 16.3721 -200.93c4.31934 -22.0244 17.9199 -59.6826 43.3281 -65.8877
c35.5576 -8.68555 64.7578 45.7451 77.3623 70.5703c29.4023 57.915 46.8037 120.745 67.1113 182.162c3.56055 10.7695 34.0645 8.23828 29.9346 -4.7041c-24.0195 -75.2822 -41.8135 -164.321 -92.4521 -227.231c-40.417 -50.2119 -118.939 -58.1592 -163.685 -8.59668
c-23.1006 25.5811 -33.1533 58.7041 -39.6963 91.874c-7.93945 40.2607 -13.2207 80.9609 -16.9873 121.809c-9.00195 97.6621 -10.6553 196.479 -7.41992 295.044c-11.5117 -50.6719 -23.3027 -101.276 -35.249 -151.805
c-21.9277 -92.7256 -43.9941 -199.512 -104.513 -275.925c-25.6562 -32.3975 -63.0146 -52.292 -105.01 -45.5254c-45.5342 7.33594 -82.4082 40.4082 -107.428 77.4629c-56.3037 83.3818 -65.0654 194.289 -74.9746 291.579
c-11.5498 113.375 -15.2285 228.088 -10.7061 341.936z" />
    <glyph glyph-name="U" unicode="&#xdb;" horiz-adv-x="696" 
d="M-22.123 647.069c1.21875 30.7441 77.374 30.5645 78.1709 0.00195312c2.93164 -112.713 4.84668 -225.282 13.0225 -337.776c6.55176 -90.1445 11.3525 -187.607 48.9854 -271.205c12.6973 -28.2129 45.1123 -86.6719 83.4492 -81.3232
c22.4502 3.12988 41.7451 29.1953 53.4639 46.3184c11.6807 17.0596 21.3955 35.4395 29.8447 54.292c39.502 88.1367 59.375 185.018 80.6787 278.73c20.6582 90.874 42.7627 181.428 62.8213 272.441c0.0839844 0.953125 0.160156 1.91113 0.249023 2.86426
c2.91113 31.9883 82.0703 31.7227 81.4717 0c-1.53125 -80.9229 -6.48828 -161.693 -8.8291 -242.591c-2.05859 -71.1738 -1.94043 -142.428 0.683594 -213.585c2.43848 -66.04 3.62793 -135.944 16.3721 -200.93c4.31934 -22.0244 17.9199 -59.6826 43.3281 -65.8877
c35.5576 -8.68555 64.7578 45.7451 77.3623 70.5703c29.4023 57.915 46.8037 120.745 67.1113 182.162c3.56055 10.7695 34.0645 8.23828 29.9346 -4.7041c-24.0195 -75.2822 -41.8135 -164.321 -92.4521 -227.231c-40.417 -50.2119 -118.939 -58.1592 -163.685 -8.59668
c-23.1006 25.5811 -33.1533 58.7041 -39.6963 91.874c-7.93945 40.2607 -13.2207 80.9609 -16.9873 121.809c-9.00195 97.6621 -10.6553 196.479 -7.41992 295.044c-11.5117 -50.6719 -23.3027 -101.276 -35.249 -151.805
c-21.9277 -92.7256 -43.9941 -199.512 -104.513 -275.925c-25.6562 -32.3975 -63.0146 -52.292 -105.01 -45.5254c-45.5342 7.33594 -82.4082 40.4082 -107.428 77.4629c-56.3037 83.3818 -65.0654 194.289 -74.9746 291.579
c-11.5498 113.375 -15.2285 228.088 -10.7061 341.936z" />
    <glyph glyph-name="U" unicode="&#xda;" horiz-adv-x="696" 
d="M-22.123 647.069c1.21875 30.7441 77.374 30.5645 78.1709 0.00195312c2.93164 -112.713 4.84668 -225.282 13.0225 -337.776c6.55176 -90.1445 11.3525 -187.607 48.9854 -271.205c12.6973 -28.2129 45.1123 -86.6719 83.4492 -81.3232
c22.4502 3.12988 41.7451 29.1953 53.4639 46.3184c11.6807 17.0596 21.3955 35.4395 29.8447 54.292c39.502 88.1367 59.375 185.018 80.6787 278.73c20.6582 90.874 42.7627 181.428 62.8213 272.441c0.0839844 0.953125 0.160156 1.91113 0.249023 2.86426
c2.91113 31.9883 82.0703 31.7227 81.4717 0c-1.53125 -80.9229 -6.48828 -161.693 -8.8291 -242.591c-2.05859 -71.1738 -1.94043 -142.428 0.683594 -213.585c2.43848 -66.04 3.62793 -135.944 16.3721 -200.93c4.31934 -22.0244 17.9199 -59.6826 43.3281 -65.8877
c35.5576 -8.68555 64.7578 45.7451 77.3623 70.5703c29.4023 57.915 46.8037 120.745 67.1113 182.162c3.56055 10.7695 34.0645 8.23828 29.9346 -4.7041c-24.0195 -75.2822 -41.8135 -164.321 -92.4521 -227.231c-40.417 -50.2119 -118.939 -58.1592 -163.685 -8.59668
c-23.1006 25.5811 -33.1533 58.7041 -39.6963 91.874c-7.93945 40.2607 -13.2207 80.9609 -16.9873 121.809c-9.00195 97.6621 -10.6553 196.479 -7.41992 295.044c-11.5117 -50.6719 -23.3027 -101.276 -35.249 -151.805
c-21.9277 -92.7256 -43.9941 -199.512 -104.513 -275.925c-25.6562 -32.3975 -63.0146 -52.292 -105.01 -45.5254c-45.5342 7.33594 -82.4082 40.4082 -107.428 77.4629c-56.3037 83.3818 -65.0654 194.289 -74.9746 291.579
c-11.5498 113.375 -15.2285 228.088 -10.7061 341.936z" />
    <glyph glyph-name="V" unicode="V" horiz-adv-x="599" 
d="M31.3359 339.024c-15.4648 97.6787 -34.2168 194.681 -67.1758 288.195c-11.2676 31.9629 62.9141 36.9746 74.1094 11.6465c75.3965 -170.604 73.5068 -364.243 116.21 -543.701c10.6387 -44.707 50.9375 -191.805 121.651 -148.789
c33.9502 20.6494 54.4941 60.7412 71.9756 95.0166c18.9199 37.1094 33.8486 76.1094 46.4277 115.78c1.78906 5.64453 3.55273 11.3018 5.29102 16.9717c-14.7773 7.71582 -28.875 16.0225 -42.0195 24.6367c-78.75 51.6211 -131.358 128.338 -142.402 222.798
c-10.166 86.9258 7.24316 188.494 59.0801 260.559c21.9824 30.5586 52.3467 59.6953 90.8828 66.2295c37.5527 6.36523 72.9668 -11.2344 93.498 -42.708c24.8633 -38.1143 28.7441 -91.0352 32.0391 -135.173c3.80469 -51.001 2.35742 -102.26 -2.9707 -153.092
c-8.37793 -79.957 -22.8975 -161.129 -44.8164 -239.195c55.5869 -25.7578 119.732 -41.4502 175.239 -22.0791c12.6719 4.4209 36.6836 -8.97656 16.5029 -16.0889c-62.7832 -22.1172 -134.337 -9.69824 -197.964 16.7305
c-3.51367 -11.6855 -7.19238 -23.291 -11.0527 -34.8027c-15.1523 -45.1709 -34.0049 -89.3633 -58.915 -130.071c-20.9316 -34.2031 -48.0059 -69.043 -87.8662 -81.2891c-94.1348 -28.918 -159.669 65.4238 -186.232 141.453
c-32.3047 92.4434 -46.2383 190.632 -61.4922 286.973zM386.969 208.908c6.31543 -3.99023 12.9033 -7.96094 19.708 -11.8457c20.6875 70.7646 37.0342 143.271 45.7666 216.31c5.26855 44.0703 7.89648 88.6133 6.17578 133
c-1.61133 41.5312 -4.7373 86.876 -18.7549 126.336c-7.28906 20.5146 -19.084 41.168 -38.7295 52.0684c-21.0674 11.6895 -42.168 2.00781 -59.624 -11.4404c-31.4697 -24.2432 -52.8906 -60.5518 -67.3516 -96.9863
c-29.0908 -73.292 -37.3721 -161.998 -16.8535 -238.542c19.2363 -71.748 67.4707 -129.608 129.663 -168.899z" />
    <glyph glyph-name="W" unicode="W" horiz-adv-x="786" 
d="M38.8086 39.8301c-30.4316 81.0117 -42.0234 167.246 -50.8867 252.855c-9.24707 89.2158 -14.2715 179.229 -12.6055 268.939c0.56543 30.335 76.6074 30.1748 77.1855 0c1.6709 -87.0352 4.50586 -173.889 11.4287 -260.688
c5.91895 -74.2158 13.2168 -149.616 32.5078 -221.739c14.9082 -55.7178 38.0508 -132.249 91.376 -163.411c67.1328 -39.2314 107.643 101.281 120.041 142.702c19.6582 65.6895 30.668 133.497 41.1846 201.148c0.046875 5.4502 0.123047 10.8916 0.232422 16.3086
c0.556641 27.2383 68.8828 27.0654 69.2754 0c0.995117 -68.5459 -1.02539 -139.505 25.9766 -204.001c18.8311 -44.9775 72.4355 -121.669 130.638 -88.5205c45.0615 25.6689 69.8789 89.3428 84.8252 136.15c2.56934 8.04492 4.88965 16.1865 7.0752 24.3662
c-7.00684 2.46387 -13.9375 5.13379 -20.7461 8.08203c-63.1543 27.3525 -116.817 75.9746 -146.145 138.678c-27.2344 58.2314 -33.668 125.554 -19.1484 188.042c12.9043 55.5449 44.6738 124.242 106.082 137.767c72.9414 16.0635 110.098 -52.0137 124.095 -112.789
c17.4395 -75.7295 15.5449 -155.483 11.0098 -232.533c-2.34082 -39.7969 -4.7666 -79.708 -11.0566 -118.901c2.58203 -0.607422 5.16797 -1.20605 7.7666 -1.7334c12.8662 -2.59863 25.9902 -4.27344 39.1016 -4.86816
c5.99414 -0.274414 33.0596 -3.21875 35.8311 2.85547c4.86426 10.6641 35.9375 7.63965 30.5713 -4.80469c-10.4453 -24.2051 -60.5986 -17.5234 -81.1211 -15.9795c-11.9893 0.902344 -23.9023 2.60254 -35.6807 4.98145
c-4.75 -24.0498 -11.1709 -47.7783 -20.2451 -70.9756c-24.9814 -63.8594 -67.8457 -119.315 -142.18 -119.181c-72.5156 0.130859 -130.481 50.3135 -161.002 112.987c-11.8369 24.3105 -19.8223 49.959 -25.1885 76.2568
c-9.22168 -43.9863 -20.7383 -87.415 -36.7344 -129.511c-23.5938 -62.0869 -66.7363 -128.283 -143.276 -114.235c-70.9336 13.0186 -116.91 89.7822 -140.188 151.751zM644.054 178.108c9.10742 -5.00293 18.5195 -9.46777 28.1504 -13.3867
c9.74512 42.834 14.8496 86.959 17.0771 130.54c3.15918 61.8008 2.66113 124.694 -7.70801 185.862c-8.33984 49.1875 -44.4453 158.754 -110.638 102.23c-39.9697 -34.127 -58.5693 -96.1641 -62.8008 -146.592c-4.4082 -52.5322 5.60645 -105.976 30.2764 -152.678
c23.7412 -44.9521 61.1797 -81.5684 105.643 -105.977z" />
    <glyph glyph-name="X" unicode="X" horiz-adv-x="525" 
d="M-75.3262 -23.0967c-11.8838 9.71484 19.1865 16.4434 27.9609 9.30957c-8.05762 6.55957 6.60156 13.1357 11.7354 19.1807c5.15039 6.06641 9.74414 12.668 14.3799 19.126c9.60938 13.3896 18.8096 27.0957 27.7148 40.9707
c16.5654 25.8086 32.0684 52.2832 46.9727 79.0791c16.3848 29.4531 32.0391 59.29 47.6348 89.165c-15.0342 52.3682 -26.5342 105.977 -36.3799 159.07c-15.9121 85.8115 -27.4746 172.399 -29.1826 259.726c-0.594727 30.4697 74.0215 30.0947 77.5146 0
c9.90918 -85.3564 18.0127 -171.008 32.4268 -255.766c3.375 -19.8438 6.94824 -39.6875 10.7451 -59.5059c25.3867 45.6777 52.4941 90.4141 83.5508 132.506c35.2744 47.8125 75.3164 95.7305 130.886 120.206c13.541 5.96484 43.0996 -5.65723 20.8047 -15.3721
c-65.2803 -28.4404 -111.553 -95.8135 -149.469 -153.294c-27.8076 -42.1631 -52.5195 -86.208 -76.3369 -130.726c7.8125 -36.418 16.6631 -72.6123 27.04 -108.301c18.1055 -62.2559 41.4502 -127.49 82.3232 -178.837
c18.6621 -23.4502 44.3486 -48.1279 74.9453 -53.8105c34.6123 -6.42871 71.418 18.2451 95.041 41.2441c43.3867 42.2354 66.7783 100.661 88.7021 155.897c4.41699 11.1328 36.292 8.06641 31.209 -4.90137c-26.7285 -68.2168 -57.1436 -141.175 -119.965 -183.934
c-59.9785 -40.8174 -134.43 -36.3125 -191.354 7.19629c-60.2861 46.0742 -98.2188 116.05 -124.938 185.578c-5.27734 13.7354 -10.2002 27.6436 -14.8408 41.6699c-23.8086 -44.7871 -48.3428 -89.1992 -75.8555 -131.835
c-17.9326 -27.7871 -68.0518 -120.61 -113.266 -83.6436z" />
    <glyph glyph-name="Y" unicode="Y" horiz-adv-x="593" 
d="M57.5488 170.214c-48.8838 58.8223 -68.7129 143.571 -78.8242 217.644c-10.9473 80.0879 -8.94336 161.888 -2.14355 242.241c2.51465 29.6934 76.3926 29.0352 75.207 -0.000976562c-3.19727 -78.2695 -7.78711 -156.459 -2.18457 -234.754
c4.71191 -65.8633 14.7773 -137.104 43.9561 -197.087c15.6631 -32.1953 44.1377 -66.1494 82.8721 -46.1836c29.6562 15.2881 51.1953 46.3066 67.5967 74.2959c71.6211 122.196 102.462 273.116 108.743 413.152
c0.00878906 0.15625 0.0722656 0.283203 0.0888672 0.430664c-0.0341797 0.641602 -0.0927734 1.29102 -0.12207 1.93652c-1.43457 30.1914 69.3301 27.9688 75.2061 0c15.2412 -72.541 21.6572 -148.267 28.5 -222.026c6.61035 -71.2578 12.0479 -142.866 12.3008 -214.466
c0.109375 -30.2207 -0.291016 -60.5137 -1.62793 -90.7559c19.1221 2.72559 38.1982 5.79688 57.0928 9.80469c26.5801 5.63184 62.998 10.8877 78.9775 35.7178c6.55078 10.1836 38.126 6.01562 31.208 -4.90137c-25.9521 -40.9658 -88.6387 -47.458 -132.156 -54.9922
c-12.0225 -2.08008 -24.0918 -3.88184 -36.1738 -5.58594c-1.50195 -25.4883 -3.7207 -50.9219 -7.01562 -76.2285c-7.1543 -54.9199 -21.9229 -109.334 -60.2812 -151c-60.5352 -65.7529 -174.733 -80.252 -232.826 -2.42578
c-27.1201 36.334 -31.7178 86.791 -13.5195 128.136c19.9658 45.3652 65.6514 71.4395 110.844 86.1494c43.3154 14.1025 88.7695 20.582 134.004 26.2686c-0.0585938 5.75391 -0.117188 11.5078 -0.167969 17.2402c-0.505859 57.8271 -3.72852 115.7 -8.00586 173.362
c-4.29004 57.8477 -10.6729 115.472 -17.2451 173.096c-1.00781 8.8457 -2.1084 17.7002 -3.23438 26.5586c-7.68555 -44.1465 -18.3711 -87.7822 -32.0303 -130.604c-22.7461 -71.3086 -51.2881 -153.425 -107.436 -205.839
c-50.0518 -46.7236 -127.043 -42.8047 -171.603 10.8164zM388.811 -40.9453c7.85059 41.4678 8.80273 84.1504 8.61328 126.512c-24.7793 -3.33301 -49.499 -7.01953 -74 -12.0947c-47.4873 -9.8291 -100.994 -26.4072 -129.102 -69.2119
c-25.041 -38.1309 -24.9824 -91.6973 1.32812 -129.208c26.918 -38.375 82.2559 -57.2529 124.517 -33.1777c40.7295 23.2061 60.3838 73.5576 68.6436 117.181z" />
    <glyph glyph-name="Y" unicode="&#x178;" horiz-adv-x="593" 
d="M57.5488 170.214c-48.8838 58.8223 -68.7129 143.571 -78.8242 217.644c-10.9473 80.0879 -8.94336 161.888 -2.14355 242.241c2.51465 29.6934 76.3926 29.0352 75.207 -0.000976562c-3.19727 -78.2695 -7.78711 -156.459 -2.18457 -234.754
c4.71191 -65.8633 14.7773 -137.104 43.9561 -197.087c15.6631 -32.1953 44.1377 -66.1494 82.8721 -46.1836c29.6562 15.2881 51.1953 46.3066 67.5967 74.2959c71.6211 122.196 102.462 273.116 108.743 413.152
c0.00878906 0.15625 0.0722656 0.283203 0.0888672 0.430664c-0.0341797 0.641602 -0.0927734 1.29102 -0.12207 1.93652c-1.43457 30.1914 69.3301 27.9688 75.2061 0c15.2412 -72.541 21.6572 -148.267 28.5 -222.026c6.61035 -71.2578 12.0479 -142.866 12.3008 -214.466
c0.109375 -30.2207 -0.291016 -60.5137 -1.62793 -90.7559c19.1221 2.72559 38.1982 5.79688 57.0928 9.80469c26.5801 5.63184 62.998 10.8877 78.9775 35.7178c6.55078 10.1836 38.126 6.01562 31.208 -4.90137c-25.9521 -40.9658 -88.6387 -47.458 -132.156 -54.9922
c-12.0225 -2.08008 -24.0918 -3.88184 -36.1738 -5.58594c-1.50195 -25.4883 -3.7207 -50.9219 -7.01562 -76.2285c-7.1543 -54.9199 -21.9229 -109.334 -60.2812 -151c-60.5352 -65.7529 -174.733 -80.252 -232.826 -2.42578
c-27.1201 36.334 -31.7178 86.791 -13.5195 128.136c19.9658 45.3652 65.6514 71.4395 110.844 86.1494c43.3154 14.1025 88.7695 20.582 134.004 26.2686c-0.0585938 5.75391 -0.117188 11.5078 -0.167969 17.2402c-0.505859 57.8271 -3.72852 115.7 -8.00586 173.362
c-4.29004 57.8477 -10.6729 115.472 -17.2451 173.096c-1.00781 8.8457 -2.1084 17.7002 -3.23438 26.5586c-7.68555 -44.1465 -18.3711 -87.7822 -32.0303 -130.604c-22.7461 -71.3086 -51.2881 -153.425 -107.436 -205.839
c-50.0518 -46.7236 -127.043 -42.8047 -171.603 10.8164zM388.811 -40.9453c7.85059 41.4678 8.80273 84.1504 8.61328 126.512c-24.7793 -3.33301 -49.499 -7.01953 -74 -12.0947c-47.4873 -9.8291 -100.994 -26.4072 -129.102 -69.2119
c-25.041 -38.1309 -24.9824 -91.6973 1.32812 -129.208c26.918 -38.375 82.2559 -57.2529 124.517 -33.1777c40.7295 23.2061 60.3838 73.5576 68.6436 117.181z" />
    <glyph glyph-name="Y" unicode="&#xdd;" horiz-adv-x="593" 
d="M57.5488 170.214c-48.8838 58.8223 -68.7129 143.571 -78.8242 217.644c-10.9473 80.0879 -8.94336 161.888 -2.14355 242.241c2.51465 29.6934 76.3926 29.0352 75.207 -0.000976562c-3.19727 -78.2695 -7.78711 -156.459 -2.18457 -234.754
c4.71191 -65.8633 14.7773 -137.104 43.9561 -197.087c15.6631 -32.1953 44.1377 -66.1494 82.8721 -46.1836c29.6562 15.2881 51.1953 46.3066 67.5967 74.2959c71.6211 122.196 102.462 273.116 108.743 413.152
c0.00878906 0.15625 0.0722656 0.283203 0.0888672 0.430664c-0.0341797 0.641602 -0.0927734 1.29102 -0.12207 1.93652c-1.43457 30.1914 69.3301 27.9688 75.2061 0c15.2412 -72.541 21.6572 -148.267 28.5 -222.026c6.61035 -71.2578 12.0479 -142.866 12.3008 -214.466
c0.109375 -30.2207 -0.291016 -60.5137 -1.62793 -90.7559c19.1221 2.72559 38.1982 5.79688 57.0928 9.80469c26.5801 5.63184 62.998 10.8877 78.9775 35.7178c6.55078 10.1836 38.126 6.01562 31.208 -4.90137c-25.9521 -40.9658 -88.6387 -47.458 -132.156 -54.9922
c-12.0225 -2.08008 -24.0918 -3.88184 -36.1738 -5.58594c-1.50195 -25.4883 -3.7207 -50.9219 -7.01562 -76.2285c-7.1543 -54.9199 -21.9229 -109.334 -60.2812 -151c-60.5352 -65.7529 -174.733 -80.252 -232.826 -2.42578
c-27.1201 36.334 -31.7178 86.791 -13.5195 128.136c19.9658 45.3652 65.6514 71.4395 110.844 86.1494c43.3154 14.1025 88.7695 20.582 134.004 26.2686c-0.0585938 5.75391 -0.117188 11.5078 -0.167969 17.2402c-0.505859 57.8271 -3.72852 115.7 -8.00586 173.362
c-4.29004 57.8477 -10.6729 115.472 -17.2451 173.096c-1.00781 8.8457 -2.1084 17.7002 -3.23438 26.5586c-7.68555 -44.1465 -18.3711 -87.7822 -32.0303 -130.604c-22.7461 -71.3086 -51.2881 -153.425 -107.436 -205.839
c-50.0518 -46.7236 -127.043 -42.8047 -171.603 10.8164zM388.811 -40.9453c7.85059 41.4678 8.80273 84.1504 8.61328 126.512c-24.7793 -3.33301 -49.499 -7.01953 -74 -12.0947c-47.4873 -9.8291 -100.994 -26.4072 -129.102 -69.2119
c-25.041 -38.1309 -24.9824 -91.6973 1.32812 -129.208c26.918 -38.375 82.2559 -57.2529 124.517 -33.1777c40.7295 23.2061 60.3838 73.5576 68.6436 117.181z" />
    <glyph glyph-name="Z" unicode="Z" horiz-adv-x="510" 
d="M-54.8867 -103.526c-23.8428 20.8691 -29.6445 54.1885 -11.29 80.9424c19.1729 27.9434 56.0381 35.7393 87.2129 41.5098c70.4229 13.0312 142.188 11.4199 213.374 16.3643c55.6504 74.46 94.5449 165.03 116.295 251.403
c4.96973 19.7471 9.05273 39.7383 12.1445 59.8691c-10.0605 -1.84766 -20.0967 -3.96484 -30.0986 -6.44141c-5.75 -1.42188 -17.5156 -2.74219 -21.6875 3.23926c-3.78418 5.4248 -0.700195 10.7314 5.68652 12.3643c16.1436 4.13379 32.4102 7.59277 48.7646 10.4316
c4.72461 39.2021 5.58984 78.8301 1.70508 118.218c-6.04883 61.2734 -21.0791 139.943 -74.249 178.424c-54.6963 39.5859 -130.089 28.7363 -182.432 -9.32715c-52.4814 -38.1641 -83.9639 -98.0156 -101.069 -159.36
c-3.10938 -11.1494 -34.6553 -8.77051 -30.8887 4.85547c21.1641 76.5654 66.6689 151.38 140.736 186.418c64.9092 30.71 148.396 30.0938 206.113 -15.9512c59.7119 -47.6387 87.6377 -122.322 99.7822 -195.5c5.52637 -33.2793 7.15918 -66.8369 5.61523 -100.269
c10.5459 0.582031 21.1172 0.911133 31.7227 0.847656c20.1221 -0.12207 19.9746 -18.6455 0 -18.8223c-11.0273 -0.0966797 -22.0078 -0.463867 -32.9502 -1.12207c-3.13477 -38.1221 -10.2598 -75.9746 -20.4561 -112.941
c-19.0459 -69.0645 -49.0137 -135.281 -87.8906 -195.495c71.7051 13.9463 140.146 40.9697 202.739 79.0332c10.1621 6.17578 39.3662 -3.27734 23.1162 -13.1777c-65.3438 -39.8262 -137.041 -68.0732 -212.096 -83.1377
c-9.55078 -1.91504 -19.127 -3.52637 -28.7197 -4.93555c-40.3242 -57.4551 -90.1104 -108.258 -155.168 -137.146c-61.9863 -27.5254 -150.726 -38.6836 -206.013 9.70605zM-21.1953 -19.0742c-29.0439 -26.9688 3.1084 -58.8604 30.3213 -70.6133
c50.3857 -21.7627 110.714 11.3945 148.845 43.2695c22.1348 18.502 42.5566 39.5225 61.2861 62.3525c-44.792 -2.375 -89.7275 -3.26953 -134.409 -7.87207c-18.3125 -1.88574 -36.5908 -4.48828 -54.6455 -8.09473c-16.9873 -3.3916 -38.2148 -6.80469 -51.3975 -19.042z
" />
    <glyph glyph-name="bracketleft" unicode="[" horiz-adv-x="304" 
d="M208.842 -134.654c16.3428 6.68652 64.7139 -8.87305 35.9863 -26.5859c-32.5244 -20.0547 -68.0146 -33.8955 -106.875 -27.6904c-34.7773 5.54688 -61.0791 26.749 -71.1572 60.6992c-19.1562 64.5303 -15.4062 137.442 -16.3174 204.052
c-1.00391 73.2959 -0.582031 146.706 2.83887 219.938c1.7207 36.8564 4.83008 73.3887 10.2295 109.903c4.53906 30.6807 7.00684 68.0859 22.0371 95.8936c13.5459 25.0615 39.4766 37.7383 66.9805 41.126c22.7969 2.80566 65.7236 1.05469 81.6611 -18.5566
c6.20117 -7.63086 -3.00781 -13.0596 -10.0654 -14.1016c-28.6143 -4.21387 -65.7793 16.583 -81.9189 -17.3711c-13.5879 -28.5889 -12.4062 -68.1201 -14.4609 -99.1592c-4.69141 -70.8955 -5.50586 -141.977 -4.82715 -213.003
c0.696289 -72.8486 1 -146.085 6.37891 -218.773c2.21484 -29.8838 2.92773 -65.416 16.5615 -92.7812c14.6299 -29.3643 38.9238 -13.4229 62.9482 -3.58984z" />
    <glyph glyph-name="backslash" unicode="\" horiz-adv-x="359" 
d="M307.966 -82.666c13.4951 -35.6465 -73.0947 -43.3115 -84.6025 -13.293c-75.793 197.758 -104.322 409.854 -172.561 610.185c-7.86719 23.1006 44.3916 25.8848 52.8203 8.29785c92.292 -192.535 128.992 -406.142 204.343 -605.189z" />
    <glyph glyph-name="bracketright" unicode="]" horiz-adv-x="304" 
d="M251.637 267.175c2.52246 -73.5195 2.63574 -147.107 1.20117 -220.647c-0.708984 -36.1777 -1.27832 -72.4775 -4.69141 -108.521c-2.7334 -28.8877 -5.03711 -63.2598 -20.8184 -88.5625c-37.5488 -60.1934 -118.273 -41.5566 -168.351 -10.6777
c-28.8203 17.7725 19.5654 33.3008 35.9834 26.585c11.7695 -4.81738 31.5244 -16.6504 45.0234 -14.2793c9.8623 1.7334 15.4346 12.25 19.1465 20.6738c12.5625 28.5 13.4824 63.2979 15.6123 93.9365c4.96973 71.4062 5.41699 143.264 6.10449 214.813
c0.691406 72.3633 -0.0556641 144.841 -5.09277 217.061c-2.06738 29.5928 -0.354492 71.5576 -15.5322 98.0322c-17.3291 30.2207 -53.1943 10.4023 -80.5811 14.4395c-7.05762 1.04199 -16.2666 6.4707 -10.0654 14.1016c18.4688 22.7334 69.0732 22.2607 94.5742 16.2324
c33.9922 -8.03613 54.5908 -30.3857 62.9521 -63.7793c17.0762 -68.2041 22.1299 -139.395 24.5342 -209.408z" />
    <glyph glyph-name="asciicircum" unicode="^" horiz-adv-x="295" 
d="M223.399 438.213c14.2119 -37.0801 22.3389 -76.8428 21.3262 -116.581c-0.6875 -26.9814 -67.0859 -26.8467 -68.6172 0c-1.54785 27.1631 -4.35352 54.5068 -11.5 80.8213c-2.95312 10.875 -6.55566 21.6113 -10.7441 32.082
c-2.89355 -3.7334 -5.64844 -7.36133 -7.54688 -10.6602c-6.0791 -10.5586 -11.8115 -21.3701 -17.2275 -32.2832c-10.9512 -22.0625 -18.8984 -45.7412 -30.4697 -67.4365c-7.125 -13.3516 -48.4697 -15.9121 -48.6172 3.75
c-0.274414 36.1523 15.916 74.6543 32.6973 105.968c16.1357 30.1025 34.2373 59.3613 72.6338 59.3613c36.7812 0 55.9541 -23.417 68.0654 -55.0215z" />
    <glyph glyph-name="underscore" unicode="_" horiz-adv-x="435" 
d="M352.771 -108.593c10.2422 0.299805 32.3281 -4.34863 32.3281 -18.4336c0 -14.6426 -21.6572 -17.9414 -32.3301 -18.4268c-51.7773 -2.3584 -103.664 -4.03711 -155.483 -5.15527c-26.6104 -0.573242 -53.2285 -0.978516 -79.8428 -0.923828
c-20.54 0.046875 -44.1465 -3.49707 -62.6865 6.85547c-7.03223 3.92773 -5.61523 9.95215 0 13.9766c17.5195 12.5537 47.0703 9.41895 67.7285 11.0049c24.9062 1.91113 49.8584 3.32422 74.8018 4.64844c51.7734 2.75 103.656 4.94824 155.484 6.4541z" />
    <glyph glyph-name="grave" unicode="`" horiz-adv-x="169" 
d="M118.638 387.056c3.43359 -20.7207 -54.1484 -23.2012 -57.4092 -0.00390625c-3.23535 23.041 -6.31934 46.0908 -8.24316 69.2842c-1.70801 20.582 -7.35645 45.5088 3.55664 64.0957c5.3916 9.18359 26.1377 10.9043 32.8877 2.4502
c14.0303 -17.5742 14.3086 -40.7881 17.7002 -62.458c3.83008 -24.459 7.45801 -48.9473 11.5078 -73.3682z" />
    <glyph glyph-name="a" unicode="a" horiz-adv-x="333" 
d="M326.943 145.573c3.95703 11.3184 36.1182 8.53027 31.5283 -4.95605c-18.5693 -54.5029 -56.3242 -173.831 -138.146 -130.187c-36.3506 19.3877 -51.4863 63.0488 -59.5605 100.745c-0.438477 2.0332 -0.750977 4.0918 -1.14746 6.12891
c-8.29395 -33.8027 -17.7725 -69.748 -38.1768 -98.2227c-16.5537 -23.0957 -43.6484 -35.9199 -72.1865 -33.79c-35.2578 2.63672 -54.4053 29.1748 -63.2637 61.3154c-16.6377 60.375 2.16016 145.12 46.7832 190.254c24.6104 24.8936 61.1045 37.3848 95.835 33.9131
c11.4443 -1.14355 21.3408 -4.11328 30.0811 -8.63574c17.5107 19.793 76.1055 15.8271 76.2529 -11.4326c0.350586 -64.4922 -7.07422 -132.405 8.69824 -195.699c1.43457 -5.75781 7.37793 -30.8408 14.5029 -32.9629c8.70312 -2.59473 29.0615 29.7021 31.7188 34.2754
c16.1904 27.8457 26.4922 58.9775 37.0801 89.2539zM118.117 87.2656c14.4014 44.4707 23.9561 90.4482 32.0977 136.45c-12.3096 11.3477 -26.3828 18.2148 -42.4131 5.95605c-15.3594 -11.7441 -25.707 -29.7949 -33.832 -46.9688
c-19.0586 -40.2695 -28.0098 -86.7021 -22.3066 -131.034c1.47656 -11.4746 4.01172 -23.501 9.31836 -33.9287c6.99414 -13.7393 16.5703 -6.10352 25.29 3.75488c15.8828 17.958 24.5898 43.3662 31.8457 65.7705z" />
    <glyph glyph-name="a" unicode="&#xe5;" horiz-adv-x="333" 
d="M326.943 145.573c3.95703 11.3184 36.1182 8.53027 31.5283 -4.95605c-18.5693 -54.5029 -56.3242 -173.831 -138.146 -130.187c-36.3506 19.3877 -51.4863 63.0488 -59.5605 100.745c-0.438477 2.0332 -0.750977 4.0918 -1.14746 6.12891
c-8.29395 -33.8027 -17.7725 -69.748 -38.1768 -98.2227c-16.5537 -23.0957 -43.6484 -35.9199 -72.1865 -33.79c-35.2578 2.63672 -54.4053 29.1748 -63.2637 61.3154c-16.6377 60.375 2.16016 145.12 46.7832 190.254c24.6104 24.8936 61.1045 37.3848 95.835 33.9131
c11.4443 -1.14355 21.3408 -4.11328 30.0811 -8.63574c17.5107 19.793 76.1055 15.8271 76.2529 -11.4326c0.350586 -64.4922 -7.07422 -132.405 8.69824 -195.699c1.43457 -5.75781 7.37793 -30.8408 14.5029 -32.9629c8.70312 -2.59473 29.0615 29.7021 31.7188 34.2754
c16.1904 27.8457 26.4922 58.9775 37.0801 89.2539zM118.117 87.2656c14.4014 44.4707 23.9561 90.4482 32.0977 136.45c-12.3096 11.3477 -26.3828 18.2148 -42.4131 5.95605c-15.3594 -11.7441 -25.707 -29.7949 -33.832 -46.9688
c-19.0586 -40.2695 -28.0098 -86.7021 -22.3066 -131.034c1.47656 -11.4746 4.01172 -23.501 9.31836 -33.9287c6.99414 -13.7393 16.5703 -6.10352 25.29 3.75488c15.8828 17.958 24.5898 43.3662 31.8457 65.7705z" />
    <glyph glyph-name="a" unicode="&#xe4;" horiz-adv-x="333" 
d="M326.943 145.573c3.95703 11.3184 36.1182 8.53027 31.5283 -4.95605c-18.5693 -54.5029 -56.3242 -173.831 -138.146 -130.187c-36.3506 19.3877 -51.4863 63.0488 -59.5605 100.745c-0.438477 2.0332 -0.750977 4.0918 -1.14746 6.12891
c-8.29395 -33.8027 -17.7725 -69.748 -38.1768 -98.2227c-16.5537 -23.0957 -43.6484 -35.9199 -72.1865 -33.79c-35.2578 2.63672 -54.4053 29.1748 -63.2637 61.3154c-16.6377 60.375 2.16016 145.12 46.7832 190.254c24.6104 24.8936 61.1045 37.3848 95.835 33.9131
c11.4443 -1.14355 21.3408 -4.11328 30.0811 -8.63574c17.5107 19.793 76.1055 15.8271 76.2529 -11.4326c0.350586 -64.4922 -7.07422 -132.405 8.69824 -195.699c1.43457 -5.75781 7.37793 -30.8408 14.5029 -32.9629c8.70312 -2.59473 29.0615 29.7021 31.7188 34.2754
c16.1904 27.8457 26.4922 58.9775 37.0801 89.2539zM118.117 87.2656c14.4014 44.4707 23.9561 90.4482 32.0977 136.45c-12.3096 11.3477 -26.3828 18.2148 -42.4131 5.95605c-15.3594 -11.7441 -25.707 -29.7949 -33.832 -46.9688
c-19.0586 -40.2695 -28.0098 -86.7021 -22.3066 -131.034c1.47656 -11.4746 4.01172 -23.501 9.31836 -33.9287c6.99414 -13.7393 16.5703 -6.10352 25.29 3.75488c15.8828 17.958 24.5898 43.3662 31.8457 65.7705z" />
    <glyph glyph-name="a" unicode="&#xe3;" horiz-adv-x="333" 
d="M326.943 145.573c3.95703 11.3184 36.1182 8.53027 31.5283 -4.95605c-18.5693 -54.5029 -56.3242 -173.831 -138.146 -130.187c-36.3506 19.3877 -51.4863 63.0488 -59.5605 100.745c-0.438477 2.0332 -0.750977 4.0918 -1.14746 6.12891
c-8.29395 -33.8027 -17.7725 -69.748 -38.1768 -98.2227c-16.5537 -23.0957 -43.6484 -35.9199 -72.1865 -33.79c-35.2578 2.63672 -54.4053 29.1748 -63.2637 61.3154c-16.6377 60.375 2.16016 145.12 46.7832 190.254c24.6104 24.8936 61.1045 37.3848 95.835 33.9131
c11.4443 -1.14355 21.3408 -4.11328 30.0811 -8.63574c17.5107 19.793 76.1055 15.8271 76.2529 -11.4326c0.350586 -64.4922 -7.07422 -132.405 8.69824 -195.699c1.43457 -5.75781 7.37793 -30.8408 14.5029 -32.9629c8.70312 -2.59473 29.0615 29.7021 31.7188 34.2754
c16.1904 27.8457 26.4922 58.9775 37.0801 89.2539zM118.117 87.2656c14.4014 44.4707 23.9561 90.4482 32.0977 136.45c-12.3096 11.3477 -26.3828 18.2148 -42.4131 5.95605c-15.3594 -11.7441 -25.707 -29.7949 -33.832 -46.9688
c-19.0586 -40.2695 -28.0098 -86.7021 -22.3066 -131.034c1.47656 -11.4746 4.01172 -23.501 9.31836 -33.9287c6.99414 -13.7393 16.5703 -6.10352 25.29 3.75488c15.8828 17.958 24.5898 43.3662 31.8457 65.7705z" />
    <glyph glyph-name="a" unicode="&#xe2;" horiz-adv-x="333" 
d="M326.943 145.573c3.95703 11.3184 36.1182 8.53027 31.5283 -4.95605c-18.5693 -54.5029 -56.3242 -173.831 -138.146 -130.187c-36.3506 19.3877 -51.4863 63.0488 -59.5605 100.745c-0.438477 2.0332 -0.750977 4.0918 -1.14746 6.12891
c-8.29395 -33.8027 -17.7725 -69.748 -38.1768 -98.2227c-16.5537 -23.0957 -43.6484 -35.9199 -72.1865 -33.79c-35.2578 2.63672 -54.4053 29.1748 -63.2637 61.3154c-16.6377 60.375 2.16016 145.12 46.7832 190.254c24.6104 24.8936 61.1045 37.3848 95.835 33.9131
c11.4443 -1.14355 21.3408 -4.11328 30.0811 -8.63574c17.5107 19.793 76.1055 15.8271 76.2529 -11.4326c0.350586 -64.4922 -7.07422 -132.405 8.69824 -195.699c1.43457 -5.75781 7.37793 -30.8408 14.5029 -32.9629c8.70312 -2.59473 29.0615 29.7021 31.7188 34.2754
c16.1904 27.8457 26.4922 58.9775 37.0801 89.2539zM118.117 87.2656c14.4014 44.4707 23.9561 90.4482 32.0977 136.45c-12.3096 11.3477 -26.3828 18.2148 -42.4131 5.95605c-15.3594 -11.7441 -25.707 -29.7949 -33.832 -46.9688
c-19.0586 -40.2695 -28.0098 -86.7021 -22.3066 -131.034c1.47656 -11.4746 4.01172 -23.501 9.31836 -33.9287c6.99414 -13.7393 16.5703 -6.10352 25.29 3.75488c15.8828 17.958 24.5898 43.3662 31.8457 65.7705z" />
    <glyph glyph-name="a" unicode="&#xe1;" horiz-adv-x="333" 
d="M326.943 145.573c3.95703 11.3184 36.1182 8.53027 31.5283 -4.95605c-18.5693 -54.5029 -56.3242 -173.831 -138.146 -130.187c-36.3506 19.3877 -51.4863 63.0488 -59.5605 100.745c-0.438477 2.0332 -0.750977 4.0918 -1.14746 6.12891
c-8.29395 -33.8027 -17.7725 -69.748 -38.1768 -98.2227c-16.5537 -23.0957 -43.6484 -35.9199 -72.1865 -33.79c-35.2578 2.63672 -54.4053 29.1748 -63.2637 61.3154c-16.6377 60.375 2.16016 145.12 46.7832 190.254c24.6104 24.8936 61.1045 37.3848 95.835 33.9131
c11.4443 -1.14355 21.3408 -4.11328 30.0811 -8.63574c17.5107 19.793 76.1055 15.8271 76.2529 -11.4326c0.350586 -64.4922 -7.07422 -132.405 8.69824 -195.699c1.43457 -5.75781 7.37793 -30.8408 14.5029 -32.9629c8.70312 -2.59473 29.0615 29.7021 31.7188 34.2754
c16.1904 27.8457 26.4922 58.9775 37.0801 89.2539zM118.117 87.2656c14.4014 44.4707 23.9561 90.4482 32.0977 136.45c-12.3096 11.3477 -26.3828 18.2148 -42.4131 5.95605c-15.3594 -11.7441 -25.707 -29.7949 -33.832 -46.9688
c-19.0586 -40.2695 -28.0098 -86.7021 -22.3066 -131.034c1.47656 -11.4746 4.01172 -23.501 9.31836 -33.9287c6.99414 -13.7393 16.5703 -6.10352 25.29 3.75488c15.8828 17.958 24.5898 43.3662 31.8457 65.7705z" />
    <glyph glyph-name="b" unicode="b" horiz-adv-x="354" 
d="M355.143 145.456c10.3945 5.80859 40.0205 -3.93555 23.3408 -13.3135c-26.6943 -15.0098 -55.9492 -22.7676 -85.5625 -29.5547c-1.58203 -68.3135 -31.6133 -141.575 -108.815 -141.972c-31.1494 -0.160156 -72.9756 14.001 -72.4902 51.3008
c0.438477 33.8574 26.8379 59.0293 54.8994 73.6719c15.9414 8.31445 32.7939 14.1025 50.0352 18.8057c2.30762 24.623 1.21973 49.6895 -2.17578 73.8867c-2.24805 16.043 -4.64844 33.1572 -11.0898 48.1621c-5.7959 13.5029 -12.2461 23.6104 -30.4863 17.2695
c-8.44531 -2.93652 -15.9756 -11.8457 -21.4043 -18.6582c-23.9062 -29.9844 -33.6719 -70.9629 -42.4883 -107.528c-9.41113 -39.0381 -15.9922 -78.6963 -22.4004 -118.324c-0.160156 -4.58984 -0.421875 -9.1875 -0.856445 -13.8066
c-1.89844 -20.1689 -40.6367 -16.9502 -48.9434 -3.77637c-30.3262 48.1162 -36.0674 107.386 -43.0908 162.9c-7.07812 55.958 -11.5205 112.849 -13.2041 169.225c-2.69141 89.9844 6.66504 189.587 62.1338 264.072c43.0918 57.8604 139.551 105.858 203.203 48.875
c63.792 -57.1016 -2.43359 -169.727 -37 -224.554c-38.0967 -60.4297 -86.1953 -113.207 -141.854 -157.479c0.240234 -3.86035 0.485352 -7.7207 0.743164 -11.5762c2.53125 -37.7891 5.23926 -75.6328 8.73242 -113.354c1.41309 6.04492 2.88574 12.0732 4.42969 18.085
c10.1836 39.624 23.2393 86.6641 57.5605 112.574c26.8164 20.2441 61.5342 19.8008 90.0381 2.88086c34.8994 -20.7168 53.1953 -62.5889 60.5566 -100.838c1.84375 -9.57617 3.09277 -19.7725 3.68359 -30.2764c21.6953 5.47949 42.8682 12.3223 62.5049 23.3027z
M76.9854 479.129c-13.4863 -64.9219 -14.876 -131.43 -12.0576 -197.55c45.6611 39.7207 85.5381 86.0898 117.544 137.483c19.8398 31.8535 38.0127 66.0234 47.3145 102.585c8.8291 34.7051 11.8955 87.1826 -29.9219 101.678
c-34.7559 12.0479 -66.0312 -21.4258 -83.8877 -47.0322c-19.8271 -28.4277 -31.9844 -63.4414 -38.9912 -97.1641zM208.638 61.3447c1.92383 6.75781 3.50391 13.626 4.79102 20.5566c-1.51855 -0.543945 -3.05371 -1.0459 -4.56348 -1.61523
c-24.585 -9.27246 -71.2119 -37.4307 -53.7393 -70.8281c19.6621 -37.5781 49.082 36.3291 53.5117 51.8867z" />
    <glyph glyph-name="c" unicode="c" horiz-adv-x="239" 
d="M235.888 146.726c4.18848 10.373 33.752 8.17969 29.6182 -4.65723c-20.0547 -62.2646 -65.4287 -143.664 -131.667 -165.765c-32.4736 -10.8369 -70.0977 -11.7021 -99.6562 7.5c-30.4912 19.8096 -44.6572 55.0342 -50.415 89.457
c-11.4189 68.2676 12.3018 165.601 74.959 204.099c26.8291 16.4854 67.8027 24.5811 94.2227 2.88574c28.6895 -23.5605 24.0107 -62.4248 27.7822 -95.3369c1.46387 -12.7773 -32.2627 -13.4814 -34.0137 0.000976562c-2.33691 18.0215 0.923828 73.1738 -23.332 77.4053
c-15.0596 2.63184 -32.8408 -41.7588 -38.3965 -54.0645c-20.0674 -44.4629 -32.0264 -93.1992 -24.125 -142.125c3.48438 -21.5732 9.8457 -46.0576 24.8887 -62.5938c21.4463 -23.5771 49.4951 -4.98242 68.5625 12.9414c37.6582 35.4053 62.4541 82.8838 81.5723 130.253
z" />
    <glyph glyph-name="d" unicode="d" horiz-adv-x="416" 
d="M411.232 134.167c4.10059 11.1328 35.7686 8.44238 31.208 -4.90039c-22.2354 -65.0273 -63.876 -147.267 -142.099 -149.954c-63.8125 -2.18945 -102.398 41.2393 -120.053 98.4756c-6.47559 20.9873 -11.3311 42.2529 -15.0176 63.6992
c-1.31152 -5.7959 -2.58105 -11.6006 -3.99023 -17.376c-8.72754 -35.7217 -18.0586 -74.6289 -39.8389 -105.027c-16.5537 -23.0957 -43.6484 -35.9199 -72.1865 -33.79c-35.2578 2.63672 -54.4053 29.1748 -63.2637 61.3154
c-16.6377 60.375 2.16016 145.12 46.7832 190.254c24.6104 24.8936 61.1045 37.3848 95.835 33.9131c9.4873 -0.945312 17.9072 -3.16406 25.5 -6.45898c-0.189453 5.39551 -0.362305 10.7949 -0.509766 16.1904c-1.83887 66.9297 1.32031 132.902 17.2744 198.149
c14.2158 58.1387 42.5264 120.647 92.7939 156.285c41.4678 29.3945 95.8398 33.4658 134.055 -3.49219c41.9482 -40.5732 46.2471 -102.311 33.7812 -156.324c-22.9102 -99.2812 -94.9238 -202.229 -190.097 -243.856c2.08789 -52.2246 6.78711 -105.221 21.2646 -155.518
c5.70312 -19.8096 12.668 -47.8115 32.7939 -57.915c4.59375 -2.30371 9.32715 -2.86523 14.3008 -3.83105c0.358398 -0.0673828 0.670898 -0.125977 0.96582 -0.18457c0.860352 -0.0927734 1.78418 -0.0341797 2.69531 -0.0302734
c0.337891 0.0214844 0.831055 0.0507812 1.65332 0.0888672c-5.7373 -0.261719 16.3633 1.59863 7.08691 0.299805c1.64062 0.227539 3.30664 0.367188 4.93066 0.708984c9.91797 2.06738 16.5703 7.0498 23.8809 13.9854c29.5459 28.0146 46.4404 67.8115 60.252 105.293z
M118.112 87.2637c14.4014 44.4707 23.9561 90.4482 32.0977 136.45c-12.3096 11.3477 -26.3828 18.2148 -42.4131 5.95605c-15.3594 -11.7441 -25.707 -29.7949 -33.832 -46.9688c-19.0586 -40.2695 -28.0098 -86.7021 -22.3066 -131.034
c1.47656 -11.4746 4.01172 -23.501 9.31836 -33.9287c6.99414 -13.7393 16.5703 -6.10352 25.29 3.75488c15.8828 17.958 24.5898 43.3662 31.8457 65.7705zM268.53 553.81c-27.2002 -93.2617 -30.6553 -192.07 -28.2002 -288.876
c35.4102 20.7256 67.6895 45.5557 93.4512 78.4385c33.5449 42.8174 59.1768 95.8604 67.6641 149.831c7.03223 44.7158 1.77148 99.2686 -35.3213 130.418c-51.3594 43.1299 -85.6045 -28.7021 -97.5938 -69.8115zM311.875 13.5928
c2.26074 -0.430664 1.29492 -0.223633 0 0z" />
    <glyph glyph-name="e" unicode="e" horiz-adv-x="201" 
d="M196.391 149.101c3.52637 11.2461 35.3564 8.67383 31.2051 -4.90527c-17.9707 -58.8262 -57.2402 -114.78 -113.055 -142.116c-24.8252 -12.1621 -51.2246 -15.7861 -77.3711 -4.63281c-29.9219 12.7646 -43.8262 39.0205 -50.3857 69.5537
c-12.5664 58.5059 -5.64355 127.896 30.5596 177.159c17.2109 23.4248 44.3398 41.8262 73.6455 45.2432c23.0078 2.68262 49.833 -4.85156 56.874 -29.3613c12.917 -44.9775 -38.751 -76.0469 -78.1006 -78.3584c-7.75391 -26.5469 -11.0107 -54.1064 -9.44141 -82.6699
c1.20215 -21.8389 3.51367 -45.7363 13.1738 -65.6514c13.1914 -27.1875 38.2236 -8.68066 55.0889 6.29102c31.3174 27.7959 55.3369 69.6934 67.8066 109.448zM89.2354 229.75c-4.78809 -9.16211 -8.97656 -18.4639 -12.6172 -27.8965
c19.7549 4.83008 38.0713 23.8975 38.624 43.9482c1.05859 38.3711 -20.8057 -6.10449 -26.0068 -16.0518z" />
    <glyph glyph-name="e" unicode="&#xeb;" horiz-adv-x="201" 
d="M196.391 149.101c3.52637 11.2461 35.3564 8.67383 31.2051 -4.90527c-17.9707 -58.8262 -57.2402 -114.78 -113.055 -142.116c-24.8252 -12.1621 -51.2246 -15.7861 -77.3711 -4.63281c-29.9219 12.7646 -43.8262 39.0205 -50.3857 69.5537
c-12.5664 58.5059 -5.64355 127.896 30.5596 177.159c17.2109 23.4248 44.3398 41.8262 73.6455 45.2432c23.0078 2.68262 49.833 -4.85156 56.874 -29.3613c12.917 -44.9775 -38.751 -76.0469 -78.1006 -78.3584c-7.75391 -26.5469 -11.0107 -54.1064 -9.44141 -82.6699
c1.20215 -21.8389 3.51367 -45.7363 13.1738 -65.6514c13.1914 -27.1875 38.2236 -8.68066 55.0889 6.29102c31.3174 27.7959 55.3369 69.6934 67.8066 109.448zM89.2354 229.75c-4.78809 -9.16211 -8.97656 -18.4639 -12.6172 -27.8965
c19.7549 4.83008 38.0713 23.8975 38.624 43.9482c1.05859 38.3711 -20.8057 -6.10449 -26.0068 -16.0518z" />
    <glyph glyph-name="e" unicode="&#xea;" horiz-adv-x="201" 
d="M196.391 149.101c3.52637 11.2461 35.3564 8.67383 31.2051 -4.90527c-17.9707 -58.8262 -57.2402 -114.78 -113.055 -142.116c-24.8252 -12.1621 -51.2246 -15.7861 -77.3711 -4.63281c-29.9219 12.7646 -43.8262 39.0205 -50.3857 69.5537
c-12.5664 58.5059 -5.64355 127.896 30.5596 177.159c17.2109 23.4248 44.3398 41.8262 73.6455 45.2432c23.0078 2.68262 49.833 -4.85156 56.874 -29.3613c12.917 -44.9775 -38.751 -76.0469 -78.1006 -78.3584c-7.75391 -26.5469 -11.0107 -54.1064 -9.44141 -82.6699
c1.20215 -21.8389 3.51367 -45.7363 13.1738 -65.6514c13.1914 -27.1875 38.2236 -8.68066 55.0889 6.29102c31.3174 27.7959 55.3369 69.6934 67.8066 109.448zM89.2354 229.75c-4.78809 -9.16211 -8.97656 -18.4639 -12.6172 -27.8965
c19.7549 4.83008 38.0713 23.8975 38.624 43.9482c1.05859 38.3711 -20.8057 -6.10449 -26.0068 -16.0518z" />
    <glyph glyph-name="e" unicode="&#xe9;" horiz-adv-x="201" 
d="M196.391 149.101c3.52637 11.2461 35.3564 8.67383 31.2051 -4.90527c-17.9707 -58.8262 -57.2402 -114.78 -113.055 -142.116c-24.8252 -12.1621 -51.2246 -15.7861 -77.3711 -4.63281c-29.9219 12.7646 -43.8262 39.0205 -50.3857 69.5537
c-12.5664 58.5059 -5.64355 127.896 30.5596 177.159c17.2109 23.4248 44.3398 41.8262 73.6455 45.2432c23.0078 2.68262 49.833 -4.85156 56.874 -29.3613c12.917 -44.9775 -38.751 -76.0469 -78.1006 -78.3584c-7.75391 -26.5469 -11.0107 -54.1064 -9.44141 -82.6699
c1.20215 -21.8389 3.51367 -45.7363 13.1738 -65.6514c13.1914 -27.1875 38.2236 -8.68066 55.0889 6.29102c31.3174 27.7959 55.3369 69.6934 67.8066 109.448zM89.2354 229.75c-4.78809 -9.16211 -8.97656 -18.4639 -12.6172 -27.8965
c19.7549 4.83008 38.0713 23.8975 38.624 43.9482c1.05859 38.3711 -20.8057 -6.10449 -26.0068 -16.0518z" />
    <glyph glyph-name="f" unicode="f" horiz-adv-x="215" 
d="M213.331 143.478c8.76562 7.26855 39.7305 0.55957 27.9521 -9.30762c-25.0117 -20.9658 -50.0234 -41.9277 -75.0352 -62.8936c-12.5039 -10.4824 -25.0117 -20.9648 -37.5156 -31.4434c-5.25586 -4.4082 -27.0693 -18.4727 -32.1064 -27.7275
c14.4355 -5.82617 29.373 -8.85059 43.0742 -17.5361c12.2461 -7.7666 23.083 -17.2881 31.6885 -28.9775c16.3672 -22.2354 23.3652 -51.8613 14.3252 -78.4844c-21.3711 -62.9561 -103.939 -58.7627 -144.453 -18.3789c-24.1592 24.0791 -31.752 57.0762 -37.2236 89.6094
c-6.87598 40.8643 -10.4873 82.5254 -13.0312 123.862c-5.0752 82.4756 -4.54395 167.022 8.03125 248.806c4.47559 29.124 76.3115 30.0264 75.8643 -0.000976562c-1.24023 -83.0615 -6.47559 -165.672 -3.3916 -248.805c0.649414 -17.5576 1.75 -35.0557 3.0791 -52.5371
c13.377 12.8281 30.2764 23.8848 44.2188 35.4434c31.5078 26.125 63.0156 52.2461 94.5234 78.3711zM109.959 -15.6318c-8.00684 4.55176 -21.5312 6.63281 -32.3809 10.6104c1.18164 -12.2168 2.44336 -24.4336 3.83984 -36.6465
c3.11328 -27.2637 6.7373 -72.2285 32.5244 -89.6846c20.5225 -13.8955 35.709 10.7441 39.8936 28.373c4.0459 17.0635 0.936523 34.874 -7.04102 50.3857c-8.19238 15.9287 -21.3965 28.1836 -36.8359 36.9619z" />
    <glyph glyph-name="g" unicode="g" horiz-adv-x="303" 
d="M298.531 146.477c4.84668 11.166 37.0469 7.8125 31.5166 -4.96094c-14.4141 -33.3516 -46.2471 -57.4688 -73.5449 -80.042c-5.65234 -4.67383 -11.3975 -9.23438 -17.1387 -13.8027c-0.405273 -20.3916 -0.966797 -40.7793 -1.69238 -61.1543
c-2.74609 -77.3496 -12.79 -165.604 -81.2637 -213.256c-46.2471 -32.1865 -138.087 -33.6758 -153.906 34.2334c-16.8486 72.3467 61.8555 134.337 110.389 173.556c16.8359 13.6045 34.0391 26.7412 51.2549 39.8564
c-0.181641 11.5293 -0.392578 23.0332 -0.561523 34.4951c-0.350586 23.957 -0.907227 47.9219 -1.57422 71.8789c-0.25293 -1.05469 -0.472656 -2.12207 -0.729492 -3.17676c-8.72754 -35.7217 -18.0586 -74.6289 -39.8389 -105.027
c-16.5537 -23.0957 -43.6484 -35.9199 -72.1865 -33.79c-35.2578 2.63672 -54.4053 29.1748 -63.2637 61.3154c-16.6377 60.375 2.16016 145.12 46.7832 190.254c24.6104 24.8936 61.1045 37.3848 95.835 33.9131c11.7988 -1.17676 21.9648 -4.29395 30.9033 -9.05664
c0.367188 3.96094 0.780273 7.91406 1.34961 11.8369c3.40039 23.375 60.5605 28.2559 66.7451 5.14746c12.6846 -47.3945 11.2969 -98.5771 12.0811 -147.296c0.274414 -17.2539 0.25293 -34.5117 0.113281 -51.7695c23.7715 19.0215 47.2852 40.4766 58.7295 66.8457z
M118.117 87.2627c14.4014 44.4707 23.9561 90.4473 32.0977 136.449c-12.3096 11.3477 -26.3828 18.2197 -42.4131 5.95703c-15.3594 -11.7441 -25.707 -29.7949 -33.832 -46.9688c-19.0586 -40.2695 -28.0098 -86.7021 -22.3066 -131.034
c1.47656 -11.4746 4.01172 -23.501 9.31836 -33.9287c6.99414 -13.7393 16.5703 -6.10352 25.29 3.75488c15.8828 17.958 24.5898 43.3662 31.8457 65.7705zM154.248 -158.632c9.125 48.7188 10.5781 98.6494 10.2705 148.402
c-0.839844 -0.649414 -1.6875 -1.29102 -2.52246 -1.94531c-47.8496 -37.4014 -120.078 -87.1914 -127.507 -153.042c-4.13379 -36.6455 20.9746 -68.6641 59.8604 -64.2393c39.0586 4.44629 53.4229 36.2451 59.8984 70.8242z" />
    <glyph glyph-name="h" unicode="h" horiz-adv-x="339" 
d="M334.822 124.274c5.63574 10.7314 37.3887 7.01465 31.209 -4.91113c-24.4844 -47.167 -51.4531 -125.837 -111.056 -139.209c-26.6484 -5.97754 -57.8857 2.68262 -74.5527 24.7363c-20.2949 26.8594 -21.9443 60.8438 -19.7715 93.2031
c2.48438 37.0254 9.60547 73.5957 11.3223 110.692c0.316406 6.86719 0.772461 13.752 1.00879 20.6074c0.40918 4.04102 0.485352 8.08203 0.232422 12.1318c0.869141 7.62305 -0.447266 9.49609 -3.94824 5.61914c-9.90527 -0.949219 -21.0674 -34.6211 -24.5771 -42.6406
c-27.6055 -63.0449 -41.9355 -130.098 -58.0244 -196.669c-0.0126953 -7.4502 -0.316406 -14.9258 -1.02051 -22.4434c-1.89453 -20.1689 -40.6328 -16.9502 -48.9385 -3.77637c-30.3262 48.1162 -36.0674 107.386 -43.0908 162.9
c-7.07812 55.958 -11.5156 112.849 -13.2031 169.225c-2.69141 89.9844 6.66504 189.587 62.1338 264.072c43.0918 57.8604 139.551 105.858 203.203 48.875c63.792 -57.1016 -2.43359 -169.727 -37 -224.554c-38.0967 -60.4297 -86.1953 -113.207 -141.854 -157.479
c0.240234 -3.86035 0.485352 -7.7207 0.742188 -11.5762c2.78809 -41.5811 5.73633 -83.2422 9.76953 -124.723c0.0966797 -0.991211 0.206055 -1.98242 0.307617 -2.96973c5.49219 20.6113 11.6299 41.0283 18.5947 61.1416
c12.5459 36.2285 30.3271 107.133 80.5566 103.501c57.5781 -4.16406 68.2803 -71.0391 68.2715 -116.477c-0.00390625 -30.335 -1.88086 -60.708 -2.54785 -91.0342c-0.456055 -20.6113 -3.3291 -42.8174 6.22168 -61.5264c9.38184 2.6875 22.5059 17.2627 26.8174 21.9414
c8.74512 9.4873 16.127 20.0508 22.7666 31.0908c13.6006 22.6113 24.1719 46.9102 36.4268 70.251zM76.9814 479.127c-13.4863 -64.9219 -14.876 -131.43 -12.0576 -197.55c45.6611 39.7207 85.5381 86.0898 117.544 137.483
c19.8398 31.8535 38.0127 66.0234 47.3145 102.585c8.8291 34.7051 11.8955 87.1826 -29.9219 101.678c-34.7598 12.0479 -66.0312 -21.4258 -83.8877 -47.0322c-19.8271 -28.4277 -31.9844 -63.4414 -38.9912 -97.1641z" />
    <glyph glyph-name="i" unicode="i" horiz-adv-x="164" 
d="M158.469 139.697c4.69141 11.0225 36.4824 7.92871 31.2139 -4.9082c-22.666 -55.1436 -77.9404 -177.386 -157.779 -125.347c-35.709 23.2773 -43.6016 73.3799 -45.7783 112.578c-2.62012 47.1709 -3.60254 95.3203 5.21387 141.888
c5.95215 31.4531 84.2217 33.3682 83.4453 0c-1.57812 -67.8965 -7.60645 -135.855 -1.00488 -203.701c0.43457 -4.45898 1.66211 -34.6377 9.87988 -35.8311c8.96387 -1.29883 28.0527 26.6064 32.7061 33.0947c17.9873 25.0869 30.0771 53.9795 42.1035 82.2266z
M18.29 330.421c-17.3926 5.24316 -31.4521 32.207 -37.8682 47.8916c-6.36133 15.5488 -14.9463 44.585 -4.60254 59.999c8.74902 13.0312 28.1797 11.0869 39.4766 3.00879c6.16699 -4.4082 10.3184 -10.5127 13.9463 -16.9756
c4.51758 4.87207 9.48242 9.46582 14.9619 13.7354c14.2881 11.1328 38.0088 21.7041 55.0684 9.54688c37.9961 -27.0742 -40.8262 -94.5615 -55.4307 -114.249c-4.22656 -5.69922 -16.6328 -6.21387 -24.876 -3.12988
c-0.223633 0.0585938 -0.456055 0.105469 -0.675781 0.172852z" />
    <glyph glyph-name="i" unicode="&#xef;" horiz-adv-x="164" 
d="M158.469 139.697c4.69141 11.0225 36.4824 7.92871 31.2139 -4.9082c-22.666 -55.1436 -77.9404 -177.386 -157.779 -125.347c-35.709 23.2773 -43.6016 73.3799 -45.7783 112.578c-2.62012 47.1709 -3.60254 95.3203 5.21387 141.888
c5.95215 31.4531 84.2217 33.3682 83.4453 0c-1.57812 -67.8965 -7.60645 -135.855 -1.00488 -203.701c0.43457 -4.45898 1.66211 -34.6377 9.87988 -35.8311c8.96387 -1.29883 28.0527 26.6064 32.7061 33.0947c17.9873 25.0869 30.0771 53.9795 42.1035 82.2266z
M18.29 330.421c-17.3926 5.24316 -31.4521 32.207 -37.8682 47.8916c-6.36133 15.5488 -14.9463 44.585 -4.60254 59.999c8.74902 13.0312 28.1797 11.0869 39.4766 3.00879c6.16699 -4.4082 10.3184 -10.5127 13.9463 -16.9756
c4.51758 4.87207 9.48242 9.46582 14.9619 13.7354c14.2881 11.1328 38.0088 21.7041 55.0684 9.54688c37.9961 -27.0742 -40.8262 -94.5615 -55.4307 -114.249c-4.22656 -5.69922 -16.6328 -6.21387 -24.876 -3.12988
c-0.223633 0.0585938 -0.456055 0.105469 -0.675781 0.172852z" />
    <glyph glyph-name="i" unicode="&#xee;" horiz-adv-x="164" 
d="M158.469 139.697c4.69141 11.0225 36.4824 7.92871 31.2139 -4.9082c-22.666 -55.1436 -77.9404 -177.386 -157.779 -125.347c-35.709 23.2773 -43.6016 73.3799 -45.7783 112.578c-2.62012 47.1709 -3.60254 95.3203 5.21387 141.888
c5.95215 31.4531 84.2217 33.3682 83.4453 0c-1.57812 -67.8965 -7.60645 -135.855 -1.00488 -203.701c0.43457 -4.45898 1.66211 -34.6377 9.87988 -35.8311c8.96387 -1.29883 28.0527 26.6064 32.7061 33.0947c17.9873 25.0869 30.0771 53.9795 42.1035 82.2266z
M18.29 330.421c-17.3926 5.24316 -31.4521 32.207 -37.8682 47.8916c-6.36133 15.5488 -14.9463 44.585 -4.60254 59.999c8.74902 13.0312 28.1797 11.0869 39.4766 3.00879c6.16699 -4.4082 10.3184 -10.5127 13.9463 -16.9756
c4.51758 4.87207 9.48242 9.46582 14.9619 13.7354c14.2881 11.1328 38.0088 21.7041 55.0684 9.54688c37.9961 -27.0742 -40.8262 -94.5615 -55.4307 -114.249c-4.22656 -5.69922 -16.6328 -6.21387 -24.876 -3.12988
c-0.223633 0.0585938 -0.456055 0.105469 -0.675781 0.172852z" />
    <glyph glyph-name="i" unicode="&#xed;" horiz-adv-x="164" 
d="M158.469 139.697c4.69141 11.0225 36.4824 7.92871 31.2139 -4.9082c-22.666 -55.1436 -77.9404 -177.386 -157.779 -125.347c-35.709 23.2773 -43.6016 73.3799 -45.7783 112.578c-2.62012 47.1709 -3.60254 95.3203 5.21387 141.888
c5.95215 31.4531 84.2217 33.3682 83.4453 0c-1.57812 -67.8965 -7.60645 -135.855 -1.00488 -203.701c0.43457 -4.45898 1.66211 -34.6377 9.87988 -35.8311c8.96387 -1.29883 28.0527 26.6064 32.7061 33.0947c17.9873 25.0869 30.0771 53.9795 42.1035 82.2266z
M18.29 330.421c-17.3926 5.24316 -31.4521 32.207 -37.8682 47.8916c-6.36133 15.5488 -14.9463 44.585 -4.60254 59.999c8.74902 13.0312 28.1797 11.0869 39.4766 3.00879c6.16699 -4.4082 10.3184 -10.5127 13.9463 -16.9756
c4.51758 4.87207 9.48242 9.46582 14.9619 13.7354c14.2881 11.1328 38.0088 21.7041 55.0684 9.54688c37.9961 -27.0742 -40.8262 -94.5615 -55.4307 -114.249c-4.22656 -5.69922 -16.6328 -6.21387 -24.876 -3.12988
c-0.223633 0.0585938 -0.456055 0.105469 -0.675781 0.172852z" />
    <glyph glyph-name="j" unicode="j" horiz-adv-x="143" 
d="M138.354 146.477c4.84277 11.166 37.04 7.81445 31.5137 -4.9502c-14.4141 -33.3516 -46.2471 -57.4688 -73.5449 -80.042c-5.65234 -4.67383 -11.3975 -9.23438 -17.1387 -13.8027c-0.405273 -20.3916 -0.966797 -40.7793 -1.69238 -61.1543
c-2.74609 -77.3496 -12.79 -165.604 -81.2637 -213.256c-46.2471 -32.1865 -138.087 -33.6758 -153.906 34.2334c-16.8525 72.3467 61.8555 134.337 110.385 173.556c16.8359 13.6045 34.0391 26.7412 51.2549 39.8564
c-0.181641 11.5293 -0.392578 23.0332 -0.561523 34.4951c-0.518555 35.5615 -1.3457 71.1484 -2.60254 106.697c-1.29883 36.7178 -5.42871 74.9248 -0.117188 111.439c3.40039 23.375 60.5605 28.2559 66.7451 5.14746
c12.6895 -47.3945 11.3018 -98.5771 12.0859 -147.296c0.274414 -17.2539 0.25293 -34.5117 0.113281 -51.7695c23.7715 19.0215 47.2852 40.4766 58.7295 66.8457zM-5.93555 -158.63c9.125 48.7188 10.5781 98.6494 10.2705 148.402
c-0.839844 -0.649414 -1.6875 -1.29102 -2.52246 -1.94531c-47.8496 -37.4014 -120.078 -87.1914 -127.507 -153.042c-4.13379 -36.6455 20.9746 -68.6641 59.8604 -64.2393c39.0586 4.44629 53.4229 36.2451 59.8984 70.8242zM27.3545 328.266
c-17.6455 3.09668 -32.1553 22.7041 -41.5879 36.9033c-9.98535 15.0342 -25.5303 47.2461 -16.7051 65.8496c7.80371 16.4395 31.2461 12.1279 42.9648 3.48828c4.08301 -3.01172 7.90527 -6.59277 11.5117 -10.541c15.1904 24.0029 36.9365 41.8135 63.7109 31.0732
c48.0986 -19.2998 -23.8477 -98.2656 -36.3643 -120.223c-2.7334 -4.80469 -10.0908 -6.7959 -17.3633 -6.66504c-1.96582 -0.25293 -4.04102 -0.256836 -6.16699 0.114258z" />
    <glyph glyph-name="k" unicode="k" horiz-adv-x="318" 
d="M312.291 136.369c4.80078 11.2891 37.3086 8.00781 31.8496 -5.01074c-22.6953 -54.043 -47.7998 -163.517 -124.567 -158.476c-37.042 2.43359 -69.1533 26.167 -87.124 57.8262c-10.3145 18.165 -15.5791 39.0039 -22.9736 58.4297
c-0.729492 1.91113 -1.49707 4.21484 -2.31543 6.74609c-7.17578 -26.9561 -12.4492 -54.3672 -20.5693 -81.0654c0.214844 -9.76172 -0.0126953 -19.5615 -0.94043 -29.4287c-1.89844 -20.1689 -40.6367 -16.9502 -48.9434 -3.77637
c-30.3262 48.1162 -36.0674 107.386 -43.0908 162.9c-7.07812 55.958 -11.5205 112.849 -13.2041 169.225c-2.69141 89.9844 6.66504 189.587 62.1338 264.072c43.0918 57.8604 139.551 105.858 203.203 48.875c63.792 -57.1016 -2.43359 -169.727 -37 -224.554
c-38.0967 -60.4297 -86.1953 -113.207 -141.854 -157.479c0.240234 -3.86035 0.485352 -7.7207 0.742188 -11.5762c2.78809 -41.5811 5.73633 -83.2422 9.76953 -124.723c0.25293 -2.62012 0.527344 -5.23535 0.80957 -7.84668
c3.06641 11.2891 6.34375 22.5225 10.0605 33.6592c-0.236328 1.28223 0.15625 2.44238 1.03418 3.47168c-0.40918 2.46777 0.518555 4.70312 2.40039 6.41602c3.99023 11.04 8.4707 21.9785 13.748 32.7646c19.0713 38.9785 49.2461 90.4307 93.6875 103.773
c15.9033 4.77539 38.5518 4.4209 48.5498 -11.2461c11.0781 -17.3545 -5.22168 -43.6016 -15.46 -57.6826c-23.7588 -32.6719 -60.915 -60.0371 -99.5859 -74.8652c20.249 -9.10742 34.6426 -21.375 45.8428 -44.4883c12.8574 -26.5342 21.8516 -54.3301 37.9072 -79.375
c2.25293 -3.51367 8.86719 -16.46 13.0225 -17.3584c7.4707 -1.61523 17.6875 10.2129 21.708 14.7227c10.3057 11.5674 18.0547 25.7793 24.9854 39.5361c14.0771 27.9307 23.957 57.7891 36.1738 86.5332zM76.9854 479.129
c-13.4902 -64.9219 -14.876 -131.43 -12.0576 -197.55c45.6611 39.7207 85.5381 86.0898 117.544 137.483c19.8398 31.8535 38.0127 66.0234 47.3145 102.585c8.8291 34.7051 11.8955 87.1826 -29.9219 101.678c-34.7559 12.0479 -66.0312 -21.4258 -83.8877 -47.0322
c-19.8271 -28.4277 -31.9844 -63.4414 -38.9912 -97.1641zM129.271 158.889c25.9355 12.5498 49.7002 31.0557 68.0508 52.3252c6.7627 7.83789 34.3008 46.0742 18.334 52.3975c-14.1484 5.60254 -36.9912 -24.585 -44.7656 -34.2998
c-17.0928 -21.3662 -30.6045 -45.3564 -41.6191 -70.4229z" />
    <glyph glyph-name="l" unicode="l" horiz-adv-x="243" 
d="M238.102 134.167c4.10449 11.1328 35.7734 8.44434 31.209 -4.89453c-22.2354 -65.0273 -63.876 -147.267 -142.099 -149.954c-63.8125 -2.18945 -102.398 41.2393 -120.053 98.4756c-20.291 65.7783 -24.8086 134.303 -26.6904 202.714
c-1.83887 66.9297 1.3252 132.902 17.2754 198.149c14.2158 58.1387 42.5215 120.647 92.793 156.285c41.4678 29.3945 95.8398 33.4658 134.055 -3.49219c41.9482 -40.5732 46.2471 -102.311 33.7812 -156.324c-22.9102 -99.2812 -94.9238 -202.229 -190.097 -243.856
c2.08789 -52.2246 6.78711 -105.221 21.2646 -155.518c5.70312 -19.8096 12.668 -47.8115 32.7939 -57.915c4.59375 -2.30371 9.32715 -2.86523 14.3008 -3.83105c0.358398 -0.0673828 0.670898 -0.125977 0.96582 -0.18457
c0.860352 -0.0927734 1.78418 -0.0341797 2.69531 -0.0302734c0.337891 0.0214844 0.831055 0.0507812 1.65332 0.0888672c-5.7373 -0.261719 16.3633 1.59863 7.08691 0.299805c1.64062 0.227539 3.30664 0.367188 4.93066 0.708984
c9.92188 2.06738 16.5703 7.0498 23.8809 13.9854c29.542 28.0146 46.4414 67.8115 60.2529 105.293zM95.4043 553.811c-27.2051 -93.2617 -30.6592 -192.07 -28.2002 -288.876c35.4053 20.7256 67.6846 45.5557 93.4512 78.4385
c33.5449 42.8174 59.1768 95.8604 67.6641 149.831c7.03223 44.7158 1.77148 99.2686 -35.3213 130.418c-51.3594 43.1299 -85.6045 -28.7021 -97.5938 -69.8115zM138.741 13.5938c2.26953 -0.430664 1.29883 -0.223633 0 0z" />
    <glyph glyph-name="m" unicode="m" horiz-adv-x="478" 
d="M471.062 135.82c4.53906 11.3057 36.9551 8.30664 31.8301 -4.99805c-18.085 -47.0527 -36.9795 -121.8 -88.9092 -143.12c-23.9863 -9.85059 -54.9707 -5.08398 -74.7217 11.8232c-22.5859 19.333 -27.3574 53.5957 -26.9736 81.623
c0.425781 31.1826 3.98242 62.2598 4.48047 93.46c0.249023 15.7266 0.708984 31.5039 0.207031 47.2344c-0.189453 5.96094 0.456055 11.8672 0.291992 17.7686c-0.417969 15.0684 -2.56934 13.377 -9.93945 3.42188c-37.502 -50.6641 -55.3379 -117.05 -73.2998 -177.091
c0.0634766 -1.05859 0.130859 -2.13477 0.194336 -3.18945c1.75488 -29.833 -75.2949 -30.6475 -77.5137 0c-2.6748 36.9619 -2.52734 74.0762 -5.35352 111.03c-1.27832 16.7305 -2.15527 33.5752 -5.69922 50.0186c-0.72168 3.34961 -4.88965 23.8682 -10.4033 24.2939
c-4.53906 0.350586 -10.0986 -13.0811 -11.6172 -15.8564c-35.5654 -64.9219 -43.2432 -146.461 -54.1309 -218.449c-0.198242 -1.29492 -0.767578 -2.4209 -1.53125 -3.44141c-0.708984 -3.85547 -1.53125 -7.67773 -2.60254 -11.4072
c-5.39941 -18.7422 -44.7705 -12.8486 -52.8193 0.000976562c-22.248 35.5068 -22.5225 88.5371 -24.6865 129.283c-2.35352 44.3271 -3.94824 90.1309 4.64062 133.863c5.34863 27.2305 71.3975 29.4619 72.5703 0c1.25684 -31.5205 -0.245117 -63.083 -0.725586 -94.6543
c8.33984 32.1572 19.5146 90.7852 56.6924 100.656c40.6787 10.7949 72.4941 -23.1172 86.7148 -57.2021c8.57617 -20.5654 14.2031 -42.8477 18.0801 -65.5898c11.9131 35.2363 26.3867 69.6338 47.0996 99.0361c12.0312 17.0723 28.4287 31.4365 50.875 27.2012
c20.582 -3.88477 40.7041 -27.3223 48.7998 -45.4023c25.9814 -58.0381 15.0176 -117.248 23.0703 -178.146c0.540039 -4.08789 3.94824 -37.1016 8.07422 -38.4688c0.143555 -0.046875 11.6133 13.2451 13.3008 15.2695c6.15918 7.39941 11.1074 15.668 15.7227 24.0801
c15.2119 27.7148 26.5215 57.6621 38.2822 86.9512z" />
    <glyph glyph-name="n" unicode="n" horiz-adv-x="311" 
d="M305.132 138.019c2.78418 11.0273 33.8799 8.84766 30.5684 -4.80371c-11.7949 -48.6387 -28.4287 -131.595 -85.1963 -147.845c-26.4414 -7.57227 -59.4512 1.30371 -78.5225 20.9658c-24.2861 25.041 -24.7627 61.6025 -25.5391 94.2998
c-0.831055 34.9414 0.523438 70.2158 1.14355 105.148c0.0546875 3.19336 2.3623 46.4199 -1.95703 47.6016c0.227539 -0.0634766 -10.5166 -11.2256 -11.1201 -11.9346c-6.7793 -7.92188 -11.9639 -17.5947 -16.5996 -26.8926
c-27.7236 -55.5996 -41.2949 -118.522 -53.8955 -179.576c-0.185547 -13.8193 -1.88574 -27.5928 -9.65234 -38.7842c-7.60156 -10.9639 -29.166 -12.3311 -38.6113 -2.87793c-16.9248 16.9453 -19.8359 40.9395 -23.1309 63.8877
c-3.15137 21.9443 -5.11328 44.1758 -5.94434 66.3223c-1.78027 47.4199 -0.0595703 93.8613 5.34863 140.948c3.43359 29.8965 77.8047 29.0947 75.8643 0c-2.22266 -33.2754 -3.82129 -66.8711 -4.4707 -100.365c5.55957 16.7812 11.8623 33.2588 19.1816 49.2725
c10.2676 22.4678 24.9482 49.2764 50.1748 57.1982c22.8174 7.16309 47.5293 -3.05859 61.834 -21.7129c40.8857 -53.3125 30.415 -135.585 36.3545 -198.364c0.881836 -9.29297 0.510742 -38.1807 10.9307 -43.7705c6.53418 -3.50586 26.3359 28.5586 29.9004 34.9619
c16.6211 29.8584 25.0371 63.4336 33.3389 96.3203z" />
    <glyph glyph-name="o" unicode="o" horiz-adv-x="232" 
d="M236.359 152.876c9.29297 3.96094 34.3604 -7.21387 19.0098 -14.0439c-22.6699 -10.082 -50.3682 -18.8096 -79.459 -23.8633c-2.62402 -30.6045 -10.1035 -62.5547 -27.5254 -86.4736c-19.0713 -26.1836 -54.5146 -44.1035 -87.208 -40.3662
c-84.4238 9.65137 -82.9854 115.143 -67.2715 186.009c-25.6016 53.2324 5.83398 130.649 70.9414 132.206c79.3027 1.89453 112.413 -99.1631 112.266 -163.246c-0.00878906 -2.74219 -0.0556641 -5.53027 -0.123047 -8.33984
c22.1553 4.4375 42.8975 11.1025 59.3701 18.1182zM103.2 21.6729c26.0908 20.4043 34.2314 57.0137 37.7666 89.1836c-26.1836 -1.55664 -52.3213 0.501953 -75.9443 7.7832c-1.21094 -11.6006 -1.86914 -23.29 -1.51855 -35.1738
c0.582031 -19.6836 5.29004 -88.7021 39.6963 -61.793zM142.578 130.005c1.78906 33.5625 -2.68555 67.417 -16.7285 98.2285c-12.9258 28.373 -45.6357 78.2646 -80.6621 48.9844c-17.0928 -14.2881 -26.7236 -37.2324 -27.5205 -60.042
c22.9355 7.93066 61.7197 1.95312 59.1924 -18.6162c-2.42188 -19.7344 -6.15137 -39.084 -9.07031 -58.5186c21.9482 -9.60156 48.335 -11.9766 74.7891 -10.0361z" />
    <glyph glyph-name="o" unicode="&#xf6;" horiz-adv-x="232" 
d="M236.359 152.876c9.29297 3.96094 34.3604 -7.21387 19.0098 -14.0439c-22.6699 -10.082 -50.3682 -18.8096 -79.459 -23.8633c-2.62402 -30.6045 -10.1035 -62.5547 -27.5254 -86.4736c-19.0713 -26.1836 -54.5146 -44.1035 -87.208 -40.3662
c-84.4238 9.65137 -82.9854 115.143 -67.2715 186.009c-25.6016 53.2324 5.83398 130.649 70.9414 132.206c79.3027 1.89453 112.413 -99.1631 112.266 -163.246c-0.00878906 -2.74219 -0.0556641 -5.53027 -0.123047 -8.33984
c22.1553 4.4375 42.8975 11.1025 59.3701 18.1182zM103.2 21.6729c26.0908 20.4043 34.2314 57.0137 37.7666 89.1836c-26.1836 -1.55664 -52.3213 0.501953 -75.9443 7.7832c-1.21094 -11.6006 -1.86914 -23.29 -1.51855 -35.1738
c0.582031 -19.6836 5.29004 -88.7021 39.6963 -61.793zM142.578 130.005c1.78906 33.5625 -2.68555 67.417 -16.7285 98.2285c-12.9258 28.373 -45.6357 78.2646 -80.6621 48.9844c-17.0928 -14.2881 -26.7236 -37.2324 -27.5205 -60.042
c22.9355 7.93066 61.7197 1.95312 59.1924 -18.6162c-2.42188 -19.7344 -6.15137 -39.084 -9.07031 -58.5186c21.9482 -9.60156 48.335 -11.9766 74.7891 -10.0361z" />
    <glyph glyph-name="o" unicode="&#xf5;" horiz-adv-x="232" 
d="M236.359 152.876c9.29297 3.96094 34.3604 -7.21387 19.0098 -14.0439c-22.6699 -10.082 -50.3682 -18.8096 -79.459 -23.8633c-2.62402 -30.6045 -10.1035 -62.5547 -27.5254 -86.4736c-19.0713 -26.1836 -54.5146 -44.1035 -87.208 -40.3662
c-84.4238 9.65137 -82.9854 115.143 -67.2715 186.009c-25.6016 53.2324 5.83398 130.649 70.9414 132.206c79.3027 1.89453 112.413 -99.1631 112.266 -163.246c-0.00878906 -2.74219 -0.0556641 -5.53027 -0.123047 -8.33984
c22.1553 4.4375 42.8975 11.1025 59.3701 18.1182zM103.2 21.6729c26.0908 20.4043 34.2314 57.0137 37.7666 89.1836c-26.1836 -1.55664 -52.3213 0.501953 -75.9443 7.7832c-1.21094 -11.6006 -1.86914 -23.29 -1.51855 -35.1738
c0.582031 -19.6836 5.29004 -88.7021 39.6963 -61.793zM142.578 130.005c1.78906 33.5625 -2.68555 67.417 -16.7285 98.2285c-12.9258 28.373 -45.6357 78.2646 -80.6621 48.9844c-17.0928 -14.2881 -26.7236 -37.2324 -27.5205 -60.042
c22.9355 7.93066 61.7197 1.95312 59.1924 -18.6162c-2.42188 -19.7344 -6.15137 -39.084 -9.07031 -58.5186c21.9482 -9.60156 48.335 -11.9766 74.7891 -10.0361z" />
    <glyph glyph-name="o" unicode="&#xf4;" horiz-adv-x="232" 
d="M236.359 152.876c9.29297 3.96094 34.3604 -7.21387 19.0098 -14.0439c-22.6699 -10.082 -50.3682 -18.8096 -79.459 -23.8633c-2.62402 -30.6045 -10.1035 -62.5547 -27.5254 -86.4736c-19.0713 -26.1836 -54.5146 -44.1035 -87.208 -40.3662
c-84.4238 9.65137 -82.9854 115.143 -67.2715 186.009c-25.6016 53.2324 5.83398 130.649 70.9414 132.206c79.3027 1.89453 112.413 -99.1631 112.266 -163.246c-0.00878906 -2.74219 -0.0556641 -5.53027 -0.123047 -8.33984
c22.1553 4.4375 42.8975 11.1025 59.3701 18.1182zM103.2 21.6729c26.0908 20.4043 34.2314 57.0137 37.7666 89.1836c-26.1836 -1.55664 -52.3213 0.501953 -75.9443 7.7832c-1.21094 -11.6006 -1.86914 -23.29 -1.51855 -35.1738
c0.582031 -19.6836 5.29004 -88.7021 39.6963 -61.793zM142.578 130.005c1.78906 33.5625 -2.68555 67.417 -16.7285 98.2285c-12.9258 28.373 -45.6357 78.2646 -80.6621 48.9844c-17.0928 -14.2881 -26.7236 -37.2324 -27.5205 -60.042
c22.9355 7.93066 61.7197 1.95312 59.1924 -18.6162c-2.42188 -19.7344 -6.15137 -39.084 -9.07031 -58.5186c21.9482 -9.60156 48.335 -11.9766 74.7891 -10.0361z" />
    <glyph glyph-name="o" unicode="&#xf3;" horiz-adv-x="232" 
d="M236.359 152.876c9.29297 3.96094 34.3604 -7.21387 19.0098 -14.0439c-22.6699 -10.082 -50.3682 -18.8096 -79.459 -23.8633c-2.62402 -30.6045 -10.1035 -62.5547 -27.5254 -86.4736c-19.0713 -26.1836 -54.5146 -44.1035 -87.208 -40.3662
c-84.4238 9.65137 -82.9854 115.143 -67.2715 186.009c-25.6016 53.2324 5.83398 130.649 70.9414 132.206c79.3027 1.89453 112.413 -99.1631 112.266 -163.246c-0.00878906 -2.74219 -0.0556641 -5.53027 -0.123047 -8.33984
c22.1553 4.4375 42.8975 11.1025 59.3701 18.1182zM103.2 21.6729c26.0908 20.4043 34.2314 57.0137 37.7666 89.1836c-26.1836 -1.55664 -52.3213 0.501953 -75.9443 7.7832c-1.21094 -11.6006 -1.86914 -23.29 -1.51855 -35.1738
c0.582031 -19.6836 5.29004 -88.7021 39.6963 -61.793zM142.578 130.005c1.78906 33.5625 -2.68555 67.417 -16.7285 98.2285c-12.9258 28.373 -45.6357 78.2646 -80.6621 48.9844c-17.0928 -14.2881 -26.7236 -37.2324 -27.5205 -60.042
c22.9355 7.93066 61.7197 1.95312 59.1924 -18.6162c-2.42188 -19.7344 -6.15137 -39.084 -9.07031 -58.5186c21.9482 -9.60156 48.335 -11.9766 74.7891 -10.0361z" />
    <glyph glyph-name="p" unicode="p" horiz-adv-x="356" 
d="M359.608 135.956c12.9424 4.53516 37.4199 -9.20215 16.8418 -16.4111c-29.6895 -10.4023 -59.9443 -19.0928 -90.6592 -25.8174c-1.3291 -33.4316 -7.93066 -68.8418 -26.8799 -96.0596c-25.041 -35.9668 -74.376 -50.3057 -115.599 -34.9629
c-32.9043 12.2422 -47.7832 55.8193 -30.8252 86.2217c19.5986 35.1396 59.6611 46.3564 96.7461 51.8486c2.27832 0.337891 4.53906 0.708984 6.8125 1.05957c2.98242 24.3359 3.31543 49.2588 0.750977 73.3584c-2.25293 21.1729 -8.33203 95.7676 -41.2188 81.3359
c-16.7012 -7.32715 -27.1709 -32.8154 -34.1191 -48.3477c-6.77441 -15.1484 -12.2207 -30.8496 -17.0176 -46.7236c-11.335 -37.5234 -19.8438 -75.9541 -27.1797 -114.443c-10.7949 -56.6289 -18.3633 -113.78 -24.5811 -171.08
c0.456055 -23.9443 -0.31543 -47.9854 -5.40332 -70.3477c-4.11328 -18.0762 -45.8213 -22.5391 -52.5029 -4.0498c-13.5078 37.3633 -14.7012 80.3623 -17.3037 119.737c-2.63672 39.9365 -4.45508 79.9482 -6.02051 119.935
c-3.15918 80.6953 -6.29395 163.601 1.06348 244.114c2.72949 29.8242 74.8184 29.9717 76.1982 -0.000976562c3.20215 -69.7061 1.05078 -140.016 0.620117 -209.94c6.39941 30.6895 13.8662 61.1299 22.835 91.1484c11.0527 36.9873 26.5215 88.0479 63.96 106.673
c38.498 19.1475 69.4912 -3.59863 90.9883 -34.9502c24.5391 -35.7852 37.7764 -79.9268 38.8438 -123.322c24.7793 5.65723 49.2881 12.4912 73.6494 21.0254zM211.985 76.7305c0.358398 1.78027 0.650391 3.58496 0.983398 5.37402
c-25.4248 -4.12109 -50.1533 -11.7441 -62.8721 -33.4648c-7.93945 -13.5537 -9.19238 -32.9756 3.12988 -44.4375c9.96777 -9.27637 15.2666 -8.86719 24.3359 -1.72949c21.4004 16.8447 29.2891 48.918 34.4229 74.2578z" />
    <glyph glyph-name="q" unicode="q" horiz-adv-x="350" 
d="M370.578 150.632c4.38672 -1.82617 12.0898 -7.78809 5.7959 -12.6221c-42.083 -32.3389 -84.1621 -64.6777 -126.245 -97.0166c48.7783 -6.93555 92.4395 -38.3164 104.158 -89.5879c12.7188 -55.6416 -20.5645 -135.135 -87.8105 -126.078
c-78.1387 10.5254 -92.0762 113.798 -99.9648 176.45c-4.53027 35.9795 -7.49121 72.3682 -8.55859 108.815c-7.93066 -31.7988 -17.4521 -64.9141 -36.5156 -91.5156c-16.5537 -23.0957 -43.6533 -35.9199 -72.1865 -33.79
c-35.2578 2.63672 -54.4053 29.1748 -63.2637 61.3154c-16.6377 60.375 2.16406 145.12 46.7832 190.254c24.6104 24.8936 61.1045 37.3848 95.835 33.9131c14.3809 -1.43848 26.3652 -5.70801 36.6162 -12.3984c0.396484 2.91895 0.763672 5.84668 1.19434 8.76172
c4.34961 29.626 77.5615 30.2715 76.8574 0c-1.44727 -62.1592 -3.79688 -124.513 -1.43066 -186.668c0.176758 -4.66113 0.345703 -9.34766 0.514648 -14.043c35.3594 26.9648 70.7227 53.9297 106.082 80.8984c5.91895 4.51758 15.0557 6.25586 22.1387 3.31152z
M118.12 87.2656c14.3975 44.4707 23.9521 90.4473 32.0977 136.449c-12.3096 11.3477 -26.3828 18.2197 -42.4131 5.95703c-15.3594 -11.7441 -25.7031 -29.7949 -33.832 -46.9688c-19.0586 -40.2695 -28.0098 -86.7021 -22.3066 -131.034
c1.47266 -11.4746 4.01172 -23.501 9.31836 -33.9287c6.99414 -13.7393 16.5703 -6.10352 25.29 3.75488c15.8828 17.958 24.5938 43.3662 31.8457 65.7705zM323.146 -70.2266c-1.43457 45.1338 -34.9854 86.4141 -79.0469 93.0957
c1.91113 -39.1006 5.32422 -78.4756 14.499 -115.847c2.96582 -12.0732 6.29395 -24.4844 12.0264 -35.5996c2.12988 -4.12988 5.97266 -12.0947 9.9209 -14.8701c5.84668 -4.1084 7.26367 -2.67383 13.916 1.89453c21.999 15.1064 29.4863 46.1758 28.6846 71.3262z" />
    <glyph glyph-name="r" unicode="r" horiz-adv-x="253" 
d="M249.492 136.968c8.66504 6.86328 41.5322 1.6123 29.084 -9.68848c-28.9854 -26.2979 -76.2617 -34.2959 -111.903 -15.7051c-41.417 21.6025 -40.8936 72.9248 -43.5254 113.371c-0.561523 8.61035 -2.14746 17.8574 -2.09668 26.6738
c-0.472656 -0.72168 -0.945312 -1.44727 -1.42188 -2.16895c-2.83496 -5.0752 -4.89746 -10.6221 -7.00684 -16.0176c-9.44922 -24.1377 -16.0596 -49.2793 -21.5225 -74.5859c-10.3984 -48.1836 -17.5576 -96.9746 -31.1533 -144.433
c-1.29102 -8.1416 -3.46777 -15.8613 -7.49609 -21.8984c-5.63574 -8.44141 -19.126 -8.36133 -27.3223 -4.11328c-19.4473 10.0781 -23.6914 30.7861 -27.918 50.8281c-5.0957 24.1631 -7.28125 48.9385 -8.58496 73.5742
c-2.65723 50.1787 -4.88867 101.623 1.66309 151.549c3.69531 28.1709 69.5156 28.584 72.2412 0c2.47168 -25.9141 2.50977 -52.0518 1.99121 -78.1934c4.08789 16.4814 8.8252 32.8115 14.7734 48.7236c5.98633 16.0088 13.4697 35.0889 30.3857 42.3359
c36.7559 15.752 65.2432 -27.8545 74.2451 -57.5312c6.23047 -20.5479 8.08203 -42.1553 15.8945 -62.2939c3.26465 -8.41602 6.34863 -18.9414 12.6172 -25.6914c11.5 -12.3857 25.5264 -3.86035 37.0557 5.26465z" />
    <glyph glyph-name="s" unicode="s" horiz-adv-x="186" 
d="M199.621 162.072c19.4434 0.636719 19.002 -17.2539 -0.00195312 -18.0723c-30.2461 -1.30371 -59.3193 -10.0615 -85.377 -25.1172c2.11816 -2.41699 4.21875 -4.84668 6.28125 -7.30566c20.2568 -24.1553 39.0117 -54.4482 30.6592 -87.2764
c-7.18359 -28.2344 -28.9678 -49.3389 -57.6494 -54.5273c-26.3193 -4.7627 -57.2402 2.3916 -72.3301 26.1631c-17.2666 27.2051 -8.02832 60.2695 9.72266 84.5215c5.39551 7.37402 11.3818 14.1826 17.7773 20.5439c-41.2441 39.3037 -94.165 89.9717 -61.5693 151.025
c24.248 45.416 100.572 72.8828 135.096 23.3281c9.14551 -13.1279 -26.9053 -14.1104 -33.7939 -8.12012c-15.0176 13.0605 -26.2852 -5.26465 -31.6807 -19.5908c-6.65234 -17.6582 -4.01172 -36.915 2.86426 -54.0127
c8.80371 -21.8896 23.4756 -39.6836 38.8564 -57.0176c31.2588 15.8652 66.5586 24.3232 101.146 25.458zM109.656 14.1523c1.65332 24.7881 -21.4268 49.3652 -41.1562 68.1416c-12.5244 -14.2031 -21.8643 -30.8369 -22.9736 -49.2168
c-0.814453 -13.4609 2.80469 -28.9258 13.3848 -38.1348c16.9248 -14.7354 49.167 -4.45117 50.7451 19.21z" />
    <glyph glyph-name="t" unicode="t" horiz-adv-x="169" 
d="M163.554 148.383c4.24805 11.1455 36.0703 8.23047 31.2148 -4.91406c-16.6543 -45.0107 -35.7217 -108.638 -78.7246 -136.028c-42.3193 -26.9561 -91 -5.80469 -106.807 39.3496c-20.8389 59.5264 -23.1504 123.946 -25.167 186.396
c-0.831055 25.6611 -1.7334 51.5332 -1.87695 77.4053c-2.23145 -0.164062 -4.4668 -0.294922 -6.69824 -0.47168c-5.27344 -0.417969 -16.7734 -0.514648 -19.0977 6.17969c-2.24023 6.44629 5.4834 10.2812 10.8408 10.8848
c4.98633 0.56543 9.98535 0.978516 14.9756 1.46387c0.325195 32.4316 2.16406 64.791 7.21777 96.6699c4.50098 28.3779 71.8447 29.5762 73.8906 0.000976562c2.11328 -30.499 2.53125 -61.0996 2.51465 -91.7295c6.71191 0.151367 13.4238 0.328125 20.1484 0.378906
c20.5312 0.151367 20.375 -19.1816 0 -19.1982c-6.73242 -0.00390625 -13.4609 -0.125977 -20.1895 -0.240234c-0.189453 -38.2656 -0.6875 -76.5527 0.869141 -114.738c1.42188 -34.8525 3.36621 -69.5996 7.61816 -104.229c2.47168 -20.1641 1.24805 -57.7383 15.0254 -77
c18.4219 5.90625 37.6582 46.3271 43.8594 58.3076c11.9258 23.0332 21.168 47.3066 30.3857 71.5117z" />
    <glyph glyph-name="u" unicode="u" horiz-adv-x="373" 
d="M368.673 140.917c3.14746 10.6807 33.2559 8.37598 29.6152 -4.64648c-11.2422 -40.2568 -26.0742 -87.9551 -57.582 -117.366c-28.2295 -26.3486 -68.1533 -34.1699 -99.7959 -8.4209c-34.8232 28.335 -43.7666 87.7188 -47.4072 129.667
c-0.223633 2.55176 -0.375 5.12109 -0.569336 7.67773c-3.24414 -11.5801 -6.59766 -23.1299 -10.1875 -34.6123c-12.8369 -41.0625 -27.7705 -109.853 -79.4805 -115.468c-57.3623 -6.23047 -92.1855 39.5566 -104.562 89.5537
c-14.5625 58.8057 -20.2109 124.382 -11.7402 184.528c4.28223 30.4062 74.2881 30.7646 77.8447 -0.000976562c5.45898 -47.1924 1.58691 -95.1182 5.66211 -142.538c1.3457 -15.7051 8.39941 -114.886 38.498 -98.5518c16.6758 9.04395 26.7617 45.2549 32.7773 61.8418
c7.66504 21.1348 14.3262 42.6572 20.5615 64.252c11.7354 40.6445 21.6357 81.7832 31.4053 122.938c0.210938 2.59473 0.383789 5.19727 0.611328 7.78711c2.75879 31.5205 75.7256 30.9346 79.4932 0.000976562c8.71973 -71.5996 -3.4375 -143.832 7.19727 -215.635
c1.94922 -13.1787 3.15527 -35.1865 12.4951 -46.0068c11.6553 -13.5029 29.1621 12.6807 36.0176 22.8174c18.5439 27.4365 29.8574 60.6611 39.1465 92.1816z" />
    <glyph glyph-name="u" unicode="&#xfc;" horiz-adv-x="373" 
d="M368.673 140.917c3.14746 10.6807 33.2559 8.37598 29.6152 -4.64648c-11.2422 -40.2568 -26.0742 -87.9551 -57.582 -117.366c-28.2295 -26.3486 -68.1533 -34.1699 -99.7959 -8.4209c-34.8232 28.335 -43.7666 87.7188 -47.4072 129.667
c-0.223633 2.55176 -0.375 5.12109 -0.569336 7.67773c-3.24414 -11.5801 -6.59766 -23.1299 -10.1875 -34.6123c-12.8369 -41.0625 -27.7705 -109.853 -79.4805 -115.468c-57.3623 -6.23047 -92.1855 39.5566 -104.562 89.5537
c-14.5625 58.8057 -20.2109 124.382 -11.7402 184.528c4.28223 30.4062 74.2881 30.7646 77.8447 -0.000976562c5.45898 -47.1924 1.58691 -95.1182 5.66211 -142.538c1.3457 -15.7051 8.39941 -114.886 38.498 -98.5518c16.6758 9.04395 26.7617 45.2549 32.7773 61.8418
c7.66504 21.1348 14.3262 42.6572 20.5615 64.252c11.7354 40.6445 21.6357 81.7832 31.4053 122.938c0.210938 2.59473 0.383789 5.19727 0.611328 7.78711c2.75879 31.5205 75.7256 30.9346 79.4932 0.000976562c8.71973 -71.5996 -3.4375 -143.832 7.19727 -215.635
c1.94922 -13.1787 3.15527 -35.1865 12.4951 -46.0068c11.6553 -13.5029 29.1621 12.6807 36.0176 22.8174c18.5439 27.4365 29.8574 60.6611 39.1465 92.1816z" />
    <glyph glyph-name="u" unicode="&#xfb;" horiz-adv-x="373" 
d="M368.673 140.917c3.14746 10.6807 33.2559 8.37598 29.6152 -4.64648c-11.2422 -40.2568 -26.0742 -87.9551 -57.582 -117.366c-28.2295 -26.3486 -68.1533 -34.1699 -99.7959 -8.4209c-34.8232 28.335 -43.7666 87.7188 -47.4072 129.667
c-0.223633 2.55176 -0.375 5.12109 -0.569336 7.67773c-3.24414 -11.5801 -6.59766 -23.1299 -10.1875 -34.6123c-12.8369 -41.0625 -27.7705 -109.853 -79.4805 -115.468c-57.3623 -6.23047 -92.1855 39.5566 -104.562 89.5537
c-14.5625 58.8057 -20.2109 124.382 -11.7402 184.528c4.28223 30.4062 74.2881 30.7646 77.8447 -0.000976562c5.45898 -47.1924 1.58691 -95.1182 5.66211 -142.538c1.3457 -15.7051 8.39941 -114.886 38.498 -98.5518c16.6758 9.04395 26.7617 45.2549 32.7773 61.8418
c7.66504 21.1348 14.3262 42.6572 20.5615 64.252c11.7354 40.6445 21.6357 81.7832 31.4053 122.938c0.210938 2.59473 0.383789 5.19727 0.611328 7.78711c2.75879 31.5205 75.7256 30.9346 79.4932 0.000976562c8.71973 -71.5996 -3.4375 -143.832 7.19727 -215.635
c1.94922 -13.1787 3.15527 -35.1865 12.4951 -46.0068c11.6553 -13.5029 29.1621 12.6807 36.0176 22.8174c18.5439 27.4365 29.8574 60.6611 39.1465 92.1816z" />
    <glyph glyph-name="u" unicode="&#xfa;" horiz-adv-x="373" 
d="M368.673 140.917c3.14746 10.6807 33.2559 8.37598 29.6152 -4.64648c-11.2422 -40.2568 -26.0742 -87.9551 -57.582 -117.366c-28.2295 -26.3486 -68.1533 -34.1699 -99.7959 -8.4209c-34.8232 28.335 -43.7666 87.7188 -47.4072 129.667
c-0.223633 2.55176 -0.375 5.12109 -0.569336 7.67773c-3.24414 -11.5801 -6.59766 -23.1299 -10.1875 -34.6123c-12.8369 -41.0625 -27.7705 -109.853 -79.4805 -115.468c-57.3623 -6.23047 -92.1855 39.5566 -104.562 89.5537
c-14.5625 58.8057 -20.2109 124.382 -11.7402 184.528c4.28223 30.4062 74.2881 30.7646 77.8447 -0.000976562c5.45898 -47.1924 1.58691 -95.1182 5.66211 -142.538c1.3457 -15.7051 8.39941 -114.886 38.498 -98.5518c16.6758 9.04395 26.7617 45.2549 32.7773 61.8418
c7.66504 21.1348 14.3262 42.6572 20.5615 64.252c11.7354 40.6445 21.6357 81.7832 31.4053 122.938c0.210938 2.59473 0.383789 5.19727 0.611328 7.78711c2.75879 31.5205 75.7256 30.9346 79.4932 0.000976562c8.71973 -71.5996 -3.4375 -143.832 7.19727 -215.635
c1.94922 -13.1787 3.15527 -35.1865 12.4951 -46.0068c11.6553 -13.5029 29.1621 12.6807 36.0176 22.8174c18.5439 27.4365 29.8574 60.6611 39.1465 92.1816z" />
    <glyph glyph-name="v" unicode="v" horiz-adv-x="332" 
d="M341.126 152.914c12.0439 2.85547 30.1445 -12.1797 12.2246 -16.5117c-32.4023 -7.83398 -65.5508 -4.46387 -95.9277 7.66406c-9.09473 -27.8037 -19.8311 -55.2402 -33.1904 -80.6982c-16.5283 -31.4863 -40.5107 -62.7197 -76.5488 -72.2363
c-41.3281 -10.917 -77.248 13.6221 -101.053 45.0537c-27.458 36.2578 -45.416 76.1562 -57.5234 119.852c-12.4238 44.8545 -24.5059 94.2236 -22.9707 141.031c0.94043 28.7568 70.0342 31.0977 77.7451 5.99805c12.4531 -40.5264 14.9844 -83.6855 24.0156 -125.043
c8.23438 -37.7178 20.8857 -75.4229 37.7549 -110.17c7.51758 -15.4814 15.917 -31.3721 27.501 -44.2725c14.3467 -15.9795 28.8965 1.60742 39.2109 14.6084c24.7246 31.1699 38.291 70.9209 51.292 108.01c1.49707 4.27344 2.95215 8.56738 4.39453 12.8662
c-37.4473 23.6152 -52.9883 61.0879 -50.3857 104.795c1.9873 33.3467 14.6592 76.5605 48.166 91.1309c28.2979 12.3057 55.1816 -2.34961 61.7627 -31.7354c9.1875 -41.0332 -4.61914 -89.3516 -15.3213 -128.938c-2.7207 -10.0693 -5.60645 -20.2148 -8.65234 -30.3643
c24.1426 -12.2334 52.9375 -16.8613 77.5059 -11.04zM255.739 274.611c1.95312 16.5195 4.0293 35.3066 -1.15527 51.5312c-9.40332 29.415 -28.1543 -3.56445 -34.2285 -17.8857c-14.6553 -34.5488 -15.9043 -86.832 8.77344 -117.238
c2.08398 -2.56934 4.38281 -4.99512 6.77051 -7.35352c8.99805 29.7529 16.1865 60.0625 19.8398 90.9463z" />
    <glyph glyph-name="w" unicode="w" horiz-adv-x="499" 
d="M504.739 151.897c11.9893 4.26953 34.7832 -8.25098 15.6611 -15.292c-29.8115 -10.9678 -65.1748 -11.9043 -98.0742 -3.70312c-2.40918 -10.4951 -4.99902 -20.915 -7.76172 -31.2334c-9.61816 -35.9375 -23.9355 -77.3291 -52.7773 -102.665
c-28.2178 -24.7881 -67.3398 -30.2637 -101.05 -12.2891c-39.8311 21.2354 -62.585 63.3145 -74.2871 109c-4.42969 -13.2041 -9.74121 -26.0918 -16.3555 -38.4473c-19.5654 -36.5576 -49.9219 -67.7148 -94.46 -59.3496
c-53.7217 10.0908 -75.0459 58.3711 -84.8535 106.938c-10.4912 51.9629 -9.90527 110.853 -1.0293 163.056c4.97363 29.2471 77.1475 30.6309 76.8564 0.000976562c-0.367188 -39.0508 -6.34082 -77.7256 -5.03711 -116.886
c1.16895 -35.249 3.63281 -79.5176 22.4131 -110.612c11.4785 -19 25.2432 -18.8564 39.4766 -1.50977c12.4355 15.1572 21.1758 33.8701 28.0986 52.0811c13.1992 34.7266 18.9619 71.6465 24.6777 108.179c0.0166016 0.118164 0.0800781 0.214844 0.105469 0.329102
c0.0292969 0.662109 0.0419922 1.33301 0.0761719 1.9873c1.53516 32.2295 75.9316 30.8672 80.4795 0.000976562c5.1377 -34.8828 5.05762 -70.0771 11.9971 -104.791c5.65723 -28.3018 15.9082 -66.4873 38.7803 -86.2217
c29.6514 -25.5811 57.8984 46.3906 65.6904 67.8711c7.69824 21.2275 13.3379 43.2314 18.0498 65.416c-33.7012 15.541 -61.2178 41.9229 -71.6377 78.0664c-9.74023 33.7734 -3.82617 72.5537 17.4092 100.901c17.9287 23.9355 55.2998 36.9707 80.4502 15.2539
c29.1416 -25.1631 23.7842 -79.0957 20.2656 -112.966c-2.51465 -24.1934 -6.41699 -48.5088 -11.3525 -72.5752c24.8887 -8.63086 52.5615 -9.66895 78.1885 -0.540039zM399.55 186.097c6.22656 34.8486 12.4316 72.8818 6.25977 108.165
c-1.59863 9.1543 -7.36523 37.3633 -22.4375 35.7773c-7.47949 -0.789062 -16.7852 -14.0605 -20.2861 -19.7178c-9.57617 -15.4775 -14.7266 -33.5869 -15.3174 -51.7266c-1.24902 -38.3125 19.0254 -70.668 48.415 -90.8408
c1.15137 6.12109 2.27344 12.2383 3.36621 18.3428z" />
    <glyph glyph-name="x" unicode="x" horiz-adv-x="293" 
d="M286.95 144.009c3.34961 11.2549 35.1309 8.78906 31.208 -4.9082c-12.0352 -41.9697 -33.1152 -91.0049 -69.7188 -117.438c-31.9004 -23.0332 -74.0137 -24.4756 -108.352 -5.80469c-31.5752 17.1689 -52.001 49.2754 -68.1152 81.791
c-16.5996 -29.3857 -31.5791 -59.6406 -44.8506 -90.7432c-4.75 -11.1367 -36.8691 -8.00684 -31.5244 4.95215c17.127 41.5391 37.165 81.7793 60.5098 120.129c-19.1436 43.4414 -33.0479 90.0088 -39.4814 137.027c-2.42969 17.751 29.5889 23.2178 40.7344 23.2178
c16.2324 0 37.0332 -5.29883 40.7324 -23.2188c3.89355 -18.8604 8.39062 -37.6787 13.4912 -56.3623c16.9922 21.2949 35.7686 41.0498 57.5146 57.2236c6.44629 4.79688 15.8027 6.55176 23.4932 3.51465c4.63574 -1.83105 12.8789 -8.39062 6.15918 -13.3896
c-30.3008 -22.5352 -54.8145 -51.9043 -76.624 -82.8887c11.8584 -36.9033 26.3652 -72.959 44.0029 -107.318c6.76172 -13.1611 14.1738 -27.377 26.1455 -36.6572c17.4092 -13.4902 34.9961 2.6748 46.7617 16.3594c22.9824 26.7236 37.9492 61.0488 47.9131 94.5137z" />
    <glyph glyph-name="y" unicode="y" horiz-adv-x="310" 
d="M306.451 155.98c6.86719 9.875 37.9893 5.40527 30.8936 -4.8457c-18.498 -26.7197 -51.0859 -41.1641 -78.1221 -57.7295c-0.0673828 -0.0419922 -0.130859 -0.0839844 -0.198242 -0.12207c1.42578 -28.0566 1.48438 -56.0127 -0.574219 -83.6143
c-5.0625 -67.8877 -29.3311 -133.346 -92.7979 -166.608c-43.3066 -22.6953 -114.746 -13.9629 -128.076 41.375c-14.6211 60.6826 55.9072 121.26 97.3535 153.75c15.9375 12.4951 32.5156 24.1045 49.3857 35.2832c-3.64941 30.7695 -8.80469 61.3701 -13.6094 91.9961
c-2.94043 -10.4111 -6.13379 -20.751 -9.70703 -30.9854c-11.9932 -34.3633 -30.0146 -72.8311 -70.1572 -78.7627c-106.575 -15.7432 -114.071 130.232 -110.038 201.077c1.78418 31.377 76.8008 31.0391 79.4922 0c2.85156 -32.917 -1.07129 -66.0488 1.66602 -99.0713
c1.29883 -15.6416 8.76172 -78.1807 32.5459 -74.165c14.7139 2.48438 22.8848 26.6221 28.2295 39.2812c6.83789 16.1992 12.3389 33.0811 17.2236 49.9512c9.36035 32.3262 15.2363 65.3779 18.4971 98.8262c-0.0507812 1 -0.126953 1.99512 -0.168945 2.99512
c-1.32031 31.2246 75.0508 30.6387 79.4932 0c7.36133 -50.7734 15.4268 -103.158 19.5312 -155.484c2.59863 1.57812 5.19336 3.15625 7.78809 4.73828c14.8408 9.06543 31.1836 17.498 41.3496 32.1152zM180.33 -86.0771c11.0098 37.2236 10.1543 76.7285 7.99023 115.083
c-0.333008 5.91016 -0.776367 11.8115 -1.27441 17.7051c-8.1377 -5.77539 -16.1572 -11.7148 -24.0039 -17.8906c-28.8203 -22.6826 -57.4639 -48.3896 -76.6836 -79.9902c-18.8477 -30.9971 -29.0732 -76.1602 11.6641 -94.9951
c19.0254 -8.79102 41.9697 -2.12598 57.3887 11.251c13.6465 11.8369 19.9492 32.0352 24.9189 48.8369z" />
    <glyph glyph-name="y" unicode="&#xff;" horiz-adv-x="310" 
d="M306.451 155.98c6.86719 9.875 37.9893 5.40527 30.8936 -4.8457c-18.498 -26.7197 -51.0859 -41.1641 -78.1221 -57.7295c-0.0673828 -0.0419922 -0.130859 -0.0839844 -0.198242 -0.12207c1.42578 -28.0566 1.48438 -56.0127 -0.574219 -83.6143
c-5.0625 -67.8877 -29.3311 -133.346 -92.7979 -166.608c-43.3066 -22.6953 -114.746 -13.9629 -128.076 41.375c-14.6211 60.6826 55.9072 121.26 97.3535 153.75c15.9375 12.4951 32.5156 24.1045 49.3857 35.2832c-3.64941 30.7695 -8.80469 61.3701 -13.6094 91.9961
c-2.94043 -10.4111 -6.13379 -20.751 -9.70703 -30.9854c-11.9932 -34.3633 -30.0146 -72.8311 -70.1572 -78.7627c-106.575 -15.7432 -114.071 130.232 -110.038 201.077c1.78418 31.377 76.8008 31.0391 79.4922 0c2.85156 -32.917 -1.07129 -66.0488 1.66602 -99.0713
c1.29883 -15.6416 8.76172 -78.1807 32.5459 -74.165c14.7139 2.48438 22.8848 26.6221 28.2295 39.2812c6.83789 16.1992 12.3389 33.0811 17.2236 49.9512c9.36035 32.3262 15.2363 65.3779 18.4971 98.8262c-0.0507812 1 -0.126953 1.99512 -0.168945 2.99512
c-1.32031 31.2246 75.0508 30.6387 79.4932 0c7.36133 -50.7734 15.4268 -103.158 19.5312 -155.484c2.59863 1.57812 5.19336 3.15625 7.78809 4.73828c14.8408 9.06543 31.1836 17.498 41.3496 32.1152zM180.33 -86.0771c11.0098 37.2236 10.1543 76.7285 7.99023 115.083
c-0.333008 5.91016 -0.776367 11.8115 -1.27441 17.7051c-8.1377 -5.77539 -16.1572 -11.7148 -24.0039 -17.8906c-28.8203 -22.6826 -57.4639 -48.3896 -76.6836 -79.9902c-18.8477 -30.9971 -29.0732 -76.1602 11.6641 -94.9951
c19.0254 -8.79102 41.9697 -2.12598 57.3887 11.251c13.6465 11.8369 19.9492 32.0352 24.9189 48.8369z" />
    <glyph glyph-name="y" unicode="&#xfd;" horiz-adv-x="310" 
d="M306.451 155.98c6.86719 9.875 37.9893 5.40527 30.8936 -4.8457c-18.498 -26.7197 -51.0859 -41.1641 -78.1221 -57.7295c-0.0673828 -0.0419922 -0.130859 -0.0839844 -0.198242 -0.12207c1.42578 -28.0566 1.48438 -56.0127 -0.574219 -83.6143
c-5.0625 -67.8877 -29.3311 -133.346 -92.7979 -166.608c-43.3066 -22.6953 -114.746 -13.9629 -128.076 41.375c-14.6211 60.6826 55.9072 121.26 97.3535 153.75c15.9375 12.4951 32.5156 24.1045 49.3857 35.2832c-3.64941 30.7695 -8.80469 61.3701 -13.6094 91.9961
c-2.94043 -10.4111 -6.13379 -20.751 -9.70703 -30.9854c-11.9932 -34.3633 -30.0146 -72.8311 -70.1572 -78.7627c-106.575 -15.7432 -114.071 130.232 -110.038 201.077c1.78418 31.377 76.8008 31.0391 79.4922 0c2.85156 -32.917 -1.07129 -66.0488 1.66602 -99.0713
c1.29883 -15.6416 8.76172 -78.1807 32.5459 -74.165c14.7139 2.48438 22.8848 26.6221 28.2295 39.2812c6.83789 16.1992 12.3389 33.0811 17.2236 49.9512c9.36035 32.3262 15.2363 65.3779 18.4971 98.8262c-0.0507812 1 -0.126953 1.99512 -0.168945 2.99512
c-1.32031 31.2246 75.0508 30.6387 79.4932 0c7.36133 -50.7734 15.4268 -103.158 19.5312 -155.484c2.59863 1.57812 5.19336 3.15625 7.78809 4.73828c14.8408 9.06543 31.1836 17.498 41.3496 32.1152zM180.33 -86.0771c11.0098 37.2236 10.1543 76.7285 7.99023 115.083
c-0.333008 5.91016 -0.776367 11.8115 -1.27441 17.7051c-8.1377 -5.77539 -16.1572 -11.7148 -24.0039 -17.8906c-28.8203 -22.6826 -57.4639 -48.3896 -76.6836 -79.9902c-18.8477 -30.9971 -29.0732 -76.1602 11.6641 -94.9951
c19.0254 -8.79102 41.9697 -2.12598 57.3887 11.251c13.6465 11.8369 19.9492 32.0352 24.9189 48.8369z" />
    <glyph glyph-name="z" unicode="z" horiz-adv-x="281" 
d="M308.132 141.76c4.07129 -5.83789 0.735352 -11.4795 -6.10254 -13.2764c-25.8672 -6.7666 -50.9961 -15.7559 -75.0879 -26.8965c12.3984 -16.5361 21.4512 -36.1396 26.0156 -58.1387c14.1787 -68.335 -18.7168 -135.641 -80.7109 -167.325
c-40.8516 -20.877 -143.04 -41.5723 -157.075 23.2363c-13.4658 62.1719 50.3516 121.939 93.4014 156.759c15.9834 12.9258 32.7852 24.75 50.2578 35.4229c-13.1318 18.0723 -31.5078 29.6182 -55.5195 25.7246c-19.5312 -3.16797 -64.9385 12.2842 -34.7051 33.9844
c21.8604 15.6885 43.9014 29.7402 63.0781 48.8711c8.71094 8.69434 21.8262 19.5947 27.2598 30.5801c11.7148 23.6738 -20.0371 31.1494 -36.2822 26.4033c-46.6777 -13.6387 -101.459 -65.3945 -92.9502 -117.897c1.99121 -12.2842 -31.4697 -13.4189 -33.6807 0
c-11.9092 72.2754 82.1455 144.782 148.915 140.121c36.9707 -2.58203 56.709 -29.542 49.4023 -65.5166c-4.66992 -23.0029 -21.2188 -43.8965 -39.6748 -61.5596c21.3115 -6.55566 40.6406 -17.8818 56.6035 -33.0771c23.7246 10.6641 48.3311 19.4043 73.5869 26.0605
c6.125 1.61523 18.835 2.87695 23.2686 -3.47559zM183.696 -3.67383c2.0293 20.3203 -2.11035 49.3818 -12.9014 74.0176c-13.1572 -8.70312 -25.8506 -18.1689 -38.0078 -28.4111c-24.416 -20.5654 -49.6885 -44.168 -65.1787 -72.415
c-13.5371 -24.6865 -26.1543 -64.6855 8.4834 -78.3701c24.1807 -9.55469 53.0557 7.17578 69.8828 23.5771c21.333 20.7891 34.7773 52.1191 37.7217 81.6016z" />
    <glyph glyph-name="braceleft" unicode="{" horiz-adv-x="406" 
d="M320.058 -130.213c9.07422 9.74512 45.5186 4.44336 33.3525 -11.1104c-25.543 -32.6553 -72.8955 -39.624 -111.545 -32.1572c-45.1836 8.72754 -81.0908 42.8047 -99.5889 83.998c-23.1084 51.4609 -16.6875 107.659 -13.9873 162.208
c1.30371 26.2979 1.83984 53.123 -2.87207 79.1426c-2.08789 11.5332 -4.93555 24.9395 -12.0264 34.5908c-0.425781 0.578125 -2.51855 2.6709 -4.46777 4.50586c-15.0723 -3.7666 -33.7686 -2.91895 -46.8584 5.14258c-11.0352 6.7959 -17.1143 18.7764 -6.66504 29.4404
c61.0029 62.2852 91.5361 143.106 128.06 220.536c16.1943 34.3379 34.0176 67.9248 63.585 92.6914c20.7295 17.3672 50.2549 31.2842 74.3848 12.3008c11.124 -8.75293 -16.752 -16.2959 -24.3789 -10.7236c-11.3262 8.27637 -32.2451 -25.5723 -35.9023 -32.6299
c-6.56836 -12.6768 -11.0908 -26.1924 -15.1025 -39.8564c-8.93457 -30.4238 -15.8652 -61.2021 -25.6602 -91.4023c-16.3672 -50.457 -37 -98.75 -66.4326 -142.297c20.2148 -8.01465 37.4688 -22.2051 46.9014 -42.6689
c20.4043 -44.2598 14.9707 -98.7031 12.2031 -145.772c-2.90234 -49.3643 -7.56348 -103.736 15.4268 -149.316c18.5566 -36.793 57.6875 -63.0234 91.5742 -26.6221zM105.297 193.981c-0.0888672 -0.291016 0.316406 -0.498047 0.978516 -0.654297
c-0.548828 0.459961 -0.949219 0.750977 -0.978516 0.654297z" />
    <glyph glyph-name="verticalbar" unicode="|" horiz-adv-x="209" 
d="M152.26 13.4727c2.7627 -52.0303 14.5928 -110.591 -0.808594 -161.061c-5.7832 -18.958 -46.9678 -14.1064 -55.042 0c-27.0908 47.3438 -27.791 111.878 -33.2119 165.195c-5.59375 55.0342 -8.58496 110.343 -10.5635 165.617
c-3.97754 111.229 -5.31445 225.144 9.7373 335.616c4.72852 34.6924 90.123 35.3467 89.71 0c-1.31152 -111.975 -8.47852 -223.532 -6.55469 -335.617c0.970703 -56.6328 3.72949 -113.198 6.7334 -169.751z" />
    <glyph glyph-name="braceright" unicode="}" horiz-adv-x="406" 
d="M350.494 225.543c10.3311 -10.5508 4.31348 -22.7002 -6.67188 -29.4326c-13.0605 -8.01953 -32.0732 -8.84668 -47.0703 -5.0752c-2.75488 -3.03711 -5.94824 -7.13281 -5.7666 -6.85059c-5.96484 -9.38184 -8.59277 -21.5479 -10.5166 -32.3135
c-4.87695 -27.3057 -4.12598 -55.3545 -2.68359 -82.9307c2.78809 -53.2197 8.50879 -108.305 -14.1777 -158.42c-19.1602 -42.3242 -55.873 -76.3379 -102.47 -84.5088c-37.916 -6.64453 -83.7627 0.838867 -108.664 32.667
c-12.2334 15.6338 24.3701 20.7588 33.3516 11.1113c35.043 -37.6416 74.8525 -8.29395 92.9707 29.3643c21.5947 44.876 16.8789 98.3447 14.0361 146.57c-2.81348 47.6641 -8.75293 104.386 13.6348 148.642c9.60547 18.9873 26.2139 32.1572 45.4922 39.7715
c-29.4453 43.5518 -50.082 91.8574 -66.4541 142.327c-10.1113 31.1787 -17.0723 63.0537 -26.5381 94.3887c-4.0957 13.5625 -8.74902 27.0234 -15.5791 39.4932c-3.75488 6.85547 -23.9531 37.7432 -34.5498 30.002c-7.52539 -5.49707 -35.54 1.94043 -24.3779 10.7236
c25.1973 19.8271 55.6631 3.88184 76.7178 -14.2998c28.3184 -24.4502 45.5342 -57.3623 61.2568 -90.6924c36.5195 -77.4297 67.0566 -158.256 128.06 -220.537zM298.98 193.284c1.03809 0.105469 1.72559 0.303711 1.60352 0.696289
c-0.126953 0.421875 -0.74707 0.0634766 -1.60352 -0.696289z" />
    <glyph glyph-name="nonbreakingspace" unicode="&#xa0;" horiz-adv-x="388" 
 />
    <glyph glyph-name="exclamdown" unicode="&#xa1;" horiz-adv-x="184" 
d="M133.063 132.303c1.56055 -65.0947 1.31152 -130.502 -1.41406 -195.56c-1.33301 -31.9209 -80.5137 -31.71 -81.1377 0c-1.28711 65.1035 -0.0888672 130.511 2.90625 195.56c2.86035 62.0703 -0.333008 131.287 20.5654 190.59
c4.48438 12.7227 38.3418 13.0898 42.6484 0c19.6201 -59.6064 14.9463 -128.578 16.4316 -190.59zM60.8857 393.308c-2.47168 17.5361 0.332031 36.0752 -1.14062 53.8604c-1.20215 14.5244 23.0967 18.3721 32.6602 18.6172
c11.668 0.299805 31.4736 -4.32324 32.6592 -18.6152c1.56934 -18.958 2.42188 -40.5654 -5.20508 -58.4141c-8.09082 -18.9365 -55.8818 -17.3887 -58.9736 4.55176z" />
    <glyph glyph-name="cent" unicode="&#xa2;" horiz-adv-x="422" 
d="M343.595 60.3906c2.53906 10.2217 31.4277 8.20898 28.3438 -4.45898c-15.1777 -62.3232 -65.0908 -139.791 -133.013 -154.961c0.932617 -53.207 2.7168 -106.402 5.4668 -159.547c0.654297 -12.6133 -32.0342 -12.9297 -32.6924 0
c-2.66992 52.4102 -4.38281 104.837 -5.23926 157.264c-1.18945 0.0927734 -2.37109 0.134766 -3.56934 0.269531c-37.6748 4.21875 -70.9668 31.7529 -94.8604 59.582c-28.3779 33.0479 -44.125 71.9844 -51.583 114.642c-14.8193 84.7617 -4.0791 180.884 31.8877 259.448
c25.707 56.1436 79.6445 114.27 143.086 121.302c1.97461 18.4854 4.0293 36.9668 6.23145 55.4307c1.43457 12.0186 31.3184 11.2168 30.0566 0c-2.10547 -18.6797 -4.0625 -37.376 -5.93945 -56.085c6.94336 -1.07617 13.9541 -2.75098 21.0244 -5.20996
c78.1426 -27.1758 68.8154 -145.47 52.5449 -209.156c-3.89746 -15.25 -47.5078 -13.8115 -47.3223 3.64844c0.392578 37.1982 8.37012 73.0469 2.64551 110.385c-2.76758 18.0596 -12.6553 56.9541 -32.6885 61.2568c-14.9922 -162.9 -21.4629 -326.585 -19.4043 -490.164
c27.9688 6.61914 51.9004 33.0439 67.8213 54.8789c17.8486 24.4795 29.918 52.1445 37.2031 81.4756zM206.052 -72.2139c-1.56055 156.897 5.02734 313.731 19.7412 470c-35.3926 -33.6719 -54.6416 -90.4941 -67.3477 -134.357
c-18.3711 -63.4199 -24.4072 -131.94 -17.9111 -197.673c2.99512 -30.3223 8.7832 -59.9785 22.7637 -87.3398c8.85449 -17.3291 23.6572 -40.3701 42.7539 -50.6299z" />
    <glyph glyph-name="sterling" unicode="&#xa3;" horiz-adv-x="492" 
d="M408.304 -42.2783c9.68945 8.10352 43.7334 0.569336 30.791 -10.251c-57.9873 -48.5127 -126.588 -28.3779 -189.063 -1.44727c-10.6182 -22.5859 -25.2861 -42.9736 -47.1377 -55.4434c-34.8779 -19.8945 -83.3105 -16.832 -116.552 5.0918
c-28.542 18.8271 -50.3682 59.0547 -25.4541 89.5166c24.1299 29.5 66.5674 30.4453 100.774 22.6162c8.76172 -2.00781 17.3086 -4.60254 25.7207 -7.57227c15.4561 47.9893 20.915 100.18 22.4004 151.396c-1.7041 -0.269531 -3.41211 -0.514648 -5.11621 -0.789062
c-14.5879 -2.3623 -27.1846 12.9883 -7.81738 16.1602c4.42969 0.725586 8.86719 1.375 13.3008 2.07129c0.249023 18.7637 0.0800781 37.3252 -0.25293 55.3975c-0.839844 45.7539 -5.03711 91.7012 -2.17285 137.455c2.3457 37.4893 10.8418 83.0869 40.5605 109.119
c22.8848 20.0459 60.8848 23.5049 87.6338 9.95508c32.3896 -16.4102 43.417 -51.0771 47.4883 -84.8506c1.3291 -11.0225 -27.7783 -11.6338 -29.3984 0.000976562c-3.52246 25.3232 -10.9893 55.3379 -34.7051 69.4111
c-28.3564 16.8232 -40.1514 -21.5479 -43.8887 -42.75c-9.02734 -51.2168 0.852539 -103.196 5.63672 -154.231c2.75879 -29.4365 4.88086 -59.2227 5.66992 -89.0557c9.79492 1.12598 19.6025 2.18457 29.4189 3.15918c14.6299 1.45508 27.6855 -14.4023 7.90137 -16.3389
c-12.3604 -1.21094 -24.6953 -2.58203 -37.0215 -4.0332c0.467773 -57.4053 -4.55176 -114.78 -20.2783 -169.991c-2.28613 -8.02344 -4.84277 -16.2324 -7.75391 -24.3994c6.17969 -3.0166 12.3682 -5.98633 18.5986 -8.83398
c41.2646 -18.8564 92.0166 -33.7354 130.717 -1.36328zM140.445 -79.3125c-3.44629 0.320312 -4.46289 -3.15918 0.371094 -0.0205078c-0.109375 0.00390625 -0.214844 0.0078125 -0.371094 0.0205078zM169.642 -43.7588c3.48047 6.96484 6.57227 14.1191 9.49121 21.3457
c-15.3379 6.06641 -31.9248 10.8965 -46.8623 9.33105c-23.9229 -2.50586 -30.3438 -26.2305 -19.0801 -45.0742c5.53906 -9.26367 13.5166 -14.2207 22.4512 -19.4814c-0.0673828 0.0419922 4.42969 -1.05859 5.4375 -1.51465
c0.493164 0.329102 0.973633 0.641602 1.58496 1.11426c12.1621 9.36523 20.1348 20.5781 26.9775 34.2793z" />
    <glyph glyph-name="currency" unicode="&#xa4;" horiz-adv-x="361" 
d="M280.385 349.312c8.08691 8.4834 39.3203 2.19629 28.2344 -9.40918c-13.541 -14.1699 -26.6523 -28.6855 -39.4727 -43.4414c6.79199 -6.16309 12.9004 -13.2715 18.1309 -21.3369c30.1582 -46.5039 24.6484 -117.732 -7.38281 -161.879
c-1.12598 -1.55273 -2.29492 -3.05859 -3.49316 -4.52246c7.47559 -9.41602 15.0898 -18.7266 22.9658 -27.8301c10.8965 -12.5918 -21.0498 -18.5527 -28.7988 -9.59277c-5.21387 6.02832 -10.293 12.1621 -15.3086 18.3467
c-39.3877 -26.1924 -95.9824 -23.2061 -137.34 -1.06738c-1.22754 0.654297 -2.40918 1.3457 -3.59473 2.0332c-10.8545 -15.8779 -21.6455 -31.7939 -32.415 -47.7148c-6.74512 -9.97656 -37.9072 -5.55957 -30.8877 4.85156
c13.499 20.0205 27.0195 40.0498 40.6709 59.9902c-32.8828 32.2422 -41.1465 80.8301 -37.8604 127.786c0.696289 9.94727 8.78711 16.7773 19.6289 20.5615c3.66992 7.27637 8.02344 14.0723 12.415 19.9404c5.52246 7.38672 11.9092 13.9082 18.8398 19.7295
c-10.9727 13.4404 -22.3369 26.5771 -34.3809 39.1904c-10.0654 10.5381 18.1602 15.8447 25.3818 8.4541c10.4951 -10.7402 20.5225 -21.8604 30.2334 -33.2246c10.3438 5.55176 21.4463 9.77832 33.0391 12.4785c29.9639 6.97754 61.3828 3.43359 87.5537 -10.3984
c11.0273 12.5586 22.2822 24.9268 33.8408 37.0547zM188.072 307.231c-16.9033 -0.43457 -33.1113 -6.03711 -47.0615 -15.208c14.8105 -18.3379 28.9385 -37.2197 42.7666 -56.3418c14.6719 19.0381 29.7109 37.7891 45.2178 56.1602
c-9.49121 9.83301 -22.8135 15.8574 -40.9229 15.3896zM135.956 235.53c-0.396484 -18.1143 -0.776367 -39.9443 3.08398 -60.1045c8.97656 12.499 18.0586 24.9141 27.2676 37.2324c-14.6377 21.0586 -29.4824 41.957 -45.0781 62.2686
c-0.683594 -0.763672 -1.375 -1.51855 -2.0332 -2.30273c-3.4043 -4.05371 -6.96094 -8.89258 -10.2256 -14.1953c15.0645 -2.77148 27.2598 -10.4199 26.9854 -22.8984zM179.279 119.139c16.0391 -6.43359 29.4355 3.10938 39.9268 17.8154
c-12.2334 16.9287 -24.1338 34.1064 -36.0088 51.3047c-10.9551 -14.8955 -21.75 -29.917 -32.4102 -45.0361c6.4502 -10.4111 15.5791 -18.9033 28.4922 -24.084zM244.149 194.596c5.65234 21.7842 6.70605 49.293 -0.52832 71.6758
c-14.6426 -17.8271 -28.8838 -35.9746 -42.8086 -54.376c11.1152 -15.6465 22.168 -31.3477 33.3682 -46.9307c4.69531 11.335 8.05762 22.2607 9.96875 29.6309z" />
    </font>
</defs>
</svg>
