<?xml version="1.0" standalone="no"?>
<!DOCTYPE svg PUBLIC "-//W3C//DTD SVG 1.1//EN" "http://www.w3.org/Graphics/SVG/1.1/DTD/svg11.dtd" >
<svg xmlns="http://www.w3.org/2000/svg" xmlns:xlink="http://www.w3.org/1999/xlink" version="1.1">
<metadata>
Created by FontForge 20170812 at Fri Mar 18 10:53:23 2022
 By www-data
</metadata>
<defs>
<font id="BakeryRegular" horiz-adv-x="0" >
  <font-face 
    font-family="Bakery"
    font-weight="400"
    font-stretch="normal"
    units-per-em="1000"
    panose-1="0 0 0 0 0 0 0 0 0 0"
    ascent="800"
    descent="-200"
    x-height="329.825"
    cap-height="757.323"
    bbox="-256.277 -450.929 1254.7 875.011"
    underline-thickness="50"
    underline-position="-100"
    unicode-range="U+000A-20AC"
  />
<missing-glyph horiz-adv-x="527" 
d="M50 700h427v-700h-427v700zM78 680l185 -309l186 309h-371zM251 350l-180 300v-601zM264 329l-185 -308h370zM276 350l181 -303v605z" />
    <glyph glyph-name=".notdef" horiz-adv-x="527" 
d="M50 700h427v-700h-427v700zM78 680l185 -309l186 309h-371zM251 350l-180 300v-601zM264 329l-185 -308h370zM276 350l181 -303v605z" />
    <glyph glyph-name=".null" 
 />
    <glyph glyph-name=".null" 
 />
    <glyph glyph-name="LF" unicode="&#xa;" 
 />
    <glyph glyph-name="controlCR" unicode="&#xd;" 
 />
    <glyph glyph-name="space" unicode=" " horiz-adv-x="471" 
 />
    <glyph glyph-name="exclam" unicode="!" horiz-adv-x="192" 
d="M142.05 41.0566c0.740234 -38.0225 -77.9727 -65.6572 -81.1689 -21.6328c-8.72266 120.023 -10.9639 240.438 -10.8799 360.747c0.0839844 120.729 2.49414 241.308 13.2734 361.6c1.97266 22.0332 53.1172 36.9375 54.8623 9.02051
c7.35156 -117.639 9.12207 -235.467 12.8066 -353.261c3.72168 -118.824 8.78516 -237.611 11.1064 -356.474zM71.7354 -79.3535c-1.83398 29.5361 58.8398 50.5732 62.6377 16.6973c1.40918 -12.5283 2.6875 -24.9854 3.41504 -37.5771
c1.71191 -29.6074 -58.9492 -50.8545 -62.9189 -16.7725c-1.46387 12.5449 -2.35156 25.0479 -3.13379 37.6523z" />
    <glyph glyph-name="quotedbl" unicode="&#x22;" horiz-adv-x="262" 
d="M131.742 685.979c-5.50098 -16.709 -11.5859 -33.2002 -17.0996 -49.9092c-5.26953 -15.9766 -14.5977 -36.3438 -10.9385 -52.9766c4.70605 -21.3936 -43.915 -41.374 -50.585 -18.9248c-11.3213 38.1191 10.5352 90.2646 27.8154 124.221
c9.08008 17.8398 60.4346 26.8232 50.8076 -2.41016zM157.733 671.032c12.6924 23.8203 67.7109 24.2949 50.8848 -8.40332c-9.84082 -19.1182 -19.5225 -38.3125 -28.0264 -58.0742c-8.00781 -18.5967 -13.2314 -40.1797 -30.874 -51.6562
c-6.30371 -4.10059 -18.626 -8.77344 -25.0605 -1.77148c-14 15.2324 -1.78711 38.8135 4.63867 55.8584c8.26367 21.9199 17.4189 43.3682 28.4375 64.0469z" />
    <glyph glyph-name="quotedbl" unicode="&#x201d;" horiz-adv-x="262" 
d="M131.742 685.979c-5.50098 -16.709 -11.5859 -33.2002 -17.0996 -49.9092c-5.26953 -15.9766 -14.5977 -36.3438 -10.9385 -52.9766c4.70605 -21.3936 -43.915 -41.374 -50.585 -18.9248c-11.3213 38.1191 10.5352 90.2646 27.8154 124.221
c9.08008 17.8398 60.4346 26.8232 50.8076 -2.41016zM157.733 671.032c12.6924 23.8203 67.7109 24.2949 50.8848 -8.40332c-9.84082 -19.1182 -19.5225 -38.3125 -28.0264 -58.0742c-8.00781 -18.5967 -13.2314 -40.1797 -30.874 -51.6562
c-6.30371 -4.10059 -18.626 -8.77344 -25.0605 -1.77148c-14 15.2324 -1.78711 38.8135 4.63867 55.8584c8.26367 21.9199 17.4189 43.3682 28.4375 64.0469z" />
    <glyph glyph-name="quotedbl" unicode="&#x201c;" horiz-adv-x="262" 
d="M131.742 685.979c-5.50098 -16.709 -11.5859 -33.2002 -17.0996 -49.9092c-5.26953 -15.9766 -14.5977 -36.3438 -10.9385 -52.9766c4.70605 -21.3936 -43.915 -41.374 -50.585 -18.9248c-11.3213 38.1191 10.5352 90.2646 27.8154 124.221
c9.08008 17.8398 60.4346 26.8232 50.8076 -2.41016zM157.733 671.032c12.6924 23.8203 67.7109 24.2949 50.8848 -8.40332c-9.84082 -19.1182 -19.5225 -38.3125 -28.0264 -58.0742c-8.00781 -18.5967 -13.2314 -40.1797 -30.874 -51.6562
c-6.30371 -4.10059 -18.626 -8.77344 -25.0605 -1.77148c-14 15.2324 -1.78711 38.8135 4.63867 55.8584c8.26367 21.9199 17.4189 43.3682 28.4375 64.0469z" />
    <glyph glyph-name="numbersign" unicode="#" horiz-adv-x="579" 
d="M516.518 366.611c23.4209 -0.664062 11.2227 -27.7002 -6.65137 -27.6494c-32.9971 0.0712891 -65.8682 -0.694336 -98.626 -2.27539c-6.80078 -24.4678 -13.3232 -49.0322 -19.4678 -73.7363c-1.51855 -6.11035 -2.94824 -12.2461 -4.44141 -18.3652
c22.9541 0.81543 45.9121 1.51367 68.875 1.96387c23.8291 0.466797 11.3467 -27.7607 -6.72852 -28.1143c-22.9922 -0.450195 -45.9756 -1.16504 -68.9551 -2.00195c-13.126 -55.417 -25.1543 -111.116 -35.7773 -167.051
c-14.0215 -73.833 -25.9824 -147.847 -44.3018 -220.616c-4.44141 -17.6504 -49.0547 -35.2295 -49.8535 -8.19629c-2.19141 74.0312 7.39355 147.301 19.6611 220.44c9.67285 57.6543 20.877 114.997 33.7842 171.987
c-16.8516 -0.924805 -33.7031 -1.94629 -50.5469 -3.08594c-6.05566 -0.408203 -12.1533 -0.774414 -18.2725 -1.12793c-10.1729 -48.751 -19.2949 -97.7461 -27.4287 -146.847c-5.62695 -33.9893 -11.2246 -67.9834 -16.3389 -102.057
c-5.4502 -36.29 -8.04492 -76.3564 -21.124 -110.809c-6.33398 -16.6875 -38.7803 -31.7686 -45.3994 -7.46484c-9.06738 33.2959 -3.87305 73.0303 -1.55957 107.079c2.37598 35.0117 5.375 70.0273 9.68945 104.854c6.22461 50.2568 14.127 100.202 23.4805 149.916
c-30.9072 -3.04102 -61.4814 -7.96973 -90.5713 -17.5332c-18.748 -6.16504 -21.166 15.8809 -6.28223 23.1143c26.8359 13.0459 57.0996 16.2637 86.4297 19.2451c5.16895 0.525391 10.3457 0.954102 15.5146 1.4541c2.2168 11.1406 4.47559 22.2773 6.83496 33.3965
c3.28418 15.498 6.69922 31.0127 10.2148 46.5273c-32.7656 -6.19922 -65.418 -13.416 -97.9609 -21.8232c-23.0381 -5.95117 -21.5996 21.4189 -2.20801 26.4277c35.251 9.10547 70.8936 17.1631 106.805 24.0771c27.21 115.044 61.5273 229.709 108.571 337.553
c7.33887 16.8184 30.3262 26.5078 47.5273 25.7168c14.6982 -0.676758 31.5117 -12.1709 26.0273 -29.208c-34.3301 -106.641 -69.5352 -212.196 -98.3516 -320.124c23.917 3.34766 47.9141 6.11035 71.9492 8.35645c30.1543 110.67 65.8809 220.167 111.095 325.319
c6.92676 16.1113 29.0859 25.3633 45.4756 24.6104c13.79 -0.634766 30.499 -11.7119 24.9053 -27.9492c-36.21 -105.156 -72.2178 -210.031 -102.974 -316.706c32.3447 1.31641 64.6982 1.61914 96.9805 0.702148zM314.673 258.276
c5.92969 24.334 12.0908 48.6543 18.4873 72.9336c-23.959 -2.20801 -47.8594 -4.89551 -71.6963 -8.125c-4.66016 -18.2988 -9.13477 -36.665 -13.3574 -55.1357c-2.38477 -10.4297 -4.61328 -20.8975 -6.89258 -31.3564c2.2627 0.172852 4.52539 0.375 6.78809 0.542969
c20.8428 1.53516 41.707 2.81738 62.5752 3.97363c1.3584 5.72363 2.7041 11.4512 4.0957 17.167z" />
    <glyph glyph-name="dollar" unicode="$" horiz-adv-x="450" 
d="M282.877 195.881c68.9336 -65.498 157.113 -169.023 97.3018 -268.671c-28.6611 -47.7422 -76.2559 -74.582 -126.395 -79.1074c2.03516 -30.3682 4.23438 -60.7324 6.76172 -91.0674c1.33301 -15.9814 -32.0049 -26.7939 -33.4395 -8.91602
c-2.68359 33.4131 -4.99219 66.8438 -7.07812 100.291c-31.752 3.47852 -63.0664 15.9102 -89.8643 37.7246c-78.7246 64.0889 -110.01 198.008 -22.7188 268.274c14.0381 11.3008 33.8291 -2.75 17.3936 -16.0947c-54.9961 -44.6553 -44.8691 -124.742 -12.8184 -179.835
c22.8447 -39.2588 61.8301 -72.5 106.312 -82.707c-5.40039 93.8096 -8.41113 187.729 -9.14746 281.652c-51.5264 46.2783 -104.622 91.6436 -135.238 154.972c-45.1299 93.3428 -28.5811 231.87 67.6807 286.029c24.1396 13.584 53.6465 22.6719 82.8545 23.748
c2.65332 36.0254 5.59277 72.0293 8.92773 108.008c1.3291 14.3203 31.7441 20.0186 30.1084 1.82129c-3.35156 -37.2451 -6.27832 -74.5195 -8.88184 -111.814c10.6279 -1.86719 20.957 -4.9707 30.6465 -9.66406c44.0195 -21.3135 59.7236 -69.2988 68.084 -114.139
c2.88086 -15.4551 -31.6426 -30.0947 -36.6475 -13.71c-11.7002 38.3174 -32.4844 75.6797 -65.1113 90.7734c-6.90527 -112.482 -10.459 -225.146 -10.6104 -337.821c13.8535 -13.3906 27.9883 -26.5498 41.8789 -39.7471zM209.397 267.488
c1.19824 104.379 5.26562 208.723 12.1836 312.916c-8.81934 0.231445 -18.2529 -0.912109 -28.3672 -3.74219c-64.0215 -17.916 -78.3203 -80.9658 -71.9238 -140.353c7.43164 -68.9883 43.7383 -121.559 88.1074 -168.821zM270.506 -125.024
c54.1846 11.0947 83.7412 60.207 68.8574 113.387c-12.5996 45.0127 -44.0029 84.0615 -75.6709 117.239c-7.06543 7.39746 -14.3701 14.6182 -21.8184 21.7344c1.50977 -84.9443 4.9375 -169.855 10.2617 -254.665c6.08105 0.290039 12.2129 1.04297 18.3701 2.30469z" />
    <glyph glyph-name="percent" unicode="%" horiz-adv-x="611" 
d="M557.489 657.769c-70.4141 -136.173 -140.626 -271.785 -203.125 -411.873c-31.542 -70.6836 -61.1328 -142.199 -90.0879 -213.972c-13.7812 -34.1494 -27.1719 -68.459 -40.8193 -102.663c-14.291 -35.8066 -26.3145 -75.4316 -48.7764 -106.99
c-7.75098 -10.8887 -40.4365 -18.375 -41.3066 1.89551c-1.53125 35.6338 15.3496 74.5059 26.0615 108.13c11.8096 37.0723 24.8086 73.7031 38.1865 110.237c26.0996 71.2803 54.8281 141.64 84.751 211.39c60.7207 141.539 127.316 282.438 205.254 415.377
c10.0098 17.0703 31.9922 28.7744 51.8926 25.3086c18.4707 -3.21289 26.4736 -20.3965 17.9697 -36.8398zM280.337 477.884c-3.67969 -66.4941 -70.9277 -124.39 -136.156 -125.307c-34.4648 -0.483398 -63.8447 17.167 -80.5117 47.0391
c-20.0098 35.8652 -14.3242 78.7666 -6.3291 117.104c3.02344 14.4971 18.126 25.4824 33.6992 29.5664c16.8184 27.2861 43.1494 48.6543 73.1689 54.2139c62.8105 11.6289 119.309 -65.1523 116.129 -122.617zM128.843 521.049
c-3.70508 -32.9463 -13.5039 -94.7354 27.6055 -110.649c30.7139 -11.8936 64.0518 27.5674 72.0508 52.8516c11.4727 36.2441 -10.9434 106.709 -55.3584 110.221c-21.1377 1.67383 -39.041 -12.0742 -51.1572 -31.1426
c5.12207 -4.31934 7.99023 -11.2246 6.85938 -21.2803zM530.199 124.94c38.0771 -34.4141 35.1133 -103.512 10.2119 -143.999c-30.751 -50 -104.66 -82.1143 -153.701 -37.3076c-52.082 47.5859 -33.0059 129.494 -14.4551 187.557
c6.28711 19.665 25.9902 33.3291 46.4717 34.4434c15.2373 0.828125 34.2422 -8.95801 31.9287 -25.957c27.5088 7.96973 57.5576 5.13965 79.5439 -14.7363zM492.561 -10.6143c24.1396 24.3457 35.1113 68.4043 18.6885 99.5508
c-14.5215 27.542 -45.3945 30.9609 -69.9004 19.1729c-8.87402 -30.4102 -15.7041 -62.5869 -7.47754 -93.0859c3.54102 -13.1426 11.6748 -30.041 24.2666 -36.8203c12.625 -6.7959 25.4941 2.17871 34.4229 11.1826z" />
    <glyph glyph-name="ampersand" unicode="&#x26;" horiz-adv-x="693" 
d="M606.202 299.347c85.1924 -83.1104 3.09863 -220.967 -64.0684 -286.275c-84.9531 -82.6016 -206.343 -124.447 -324.335 -110.165c-48.9316 5.92578 -101.871 26.4277 -121.171 75.8438c-20.3848 52.1875 -3.33984 110.923 17.0273 160.279
c28.7832 69.7627 73.5684 129.995 124.549 184.794c-43.8184 -5.54297 -87.6367 -1.15234 -126.567 23.127c-28.0342 17.4873 -49.6299 41.5225 -57.8896 74.0361c-9.4209 37.0811 0.0546875 75.3604 15.5771 109.422c28.5059 62.5371 80.7725 111.507 138.806 146.615
c62.3604 37.7246 138.41 64.6699 212.185 54.9336c29.6582 -3.91113 60.54 -15.1484 79.667 -39.209c20.292 -25.5322 24.0479 -58.6094 25.8223 -90.1172c0.955078 -16.957 -34.2412 -28.6777 -35.6875 -9.5127c-2.7627 36.5381 -8.31445 75.9531 -43.9443 94.9121
c-31.4912 16.7588 -72.5127 15.4678 -106.288 7.89746c-66.1123 -14.8164 -130.761 -57.7051 -172.783 -110.451c-37.3662 -46.9053 -63.6807 -124.401 -8.65039 -168.526c55.4043 -44.4277 129.385 -15.3457 188.667 3.08691
c14.0254 4.36133 35.0283 1.7832 42.1904 -12.8984c7.51562 -15.4092 -4.33984 -31.8867 -15.8086 -41.1895c-75.8643 -61.5449 -146.993 -133.233 -190.601 -221.706c-18.1553 -36.8369 -35.8691 -79.7002 -31.6465 -121.588
c4.58008 -45.4502 41.8672 -68.3584 83.4941 -76.3154c90.8574 -17.3604 185.626 10.6318 256.015 69.46c60.9053 50.9004 135.407 154.888 90.1172 236.047c-22.2559 39.877 -68.9463 46.5762 -109.441 33.5684c-21.5918 -6.93457 -41.6104 -18.8867 -58.748 -33.6484
c-13.1211 -11.3008 -29.6445 -26.0371 -33.1689 -43.6084c15.0898 4.20117 27.6309 -9.77441 12.125 -21.4697c-11.5615 -8.72266 -22.7354 -12.4912 -36.9795 -14.4717c-5.10547 -0.706055 -13.7939 1.68262 -15.6318 7.31348
c-18.8115 57.7305 56.9648 110.721 101.527 131.164c51.3418 23.5469 121.626 31.5918 165.642 -11.3477z" />
    <glyph glyph-name="quotesingle" unicode="'" horiz-adv-x="185" 
d="M119.25 690.644c12.6592 -2.59473 19.5391 -14.4668 12.8223 -26.3018c-6.90137 -12.167 -13.1553 -24.6025 -18.9082 -37.3584c-3.44043 -7.62891 -14.1182 -24.9727 -10.2236 -33.7412c10.5391 -23.7363 -37.0596 -46.9053 -48.9316 -23.8672
c-8.15918 15.8379 -2.2207 32.3994 3.30957 48.1328c6.72461 19.1357 15.0137 37.3672 24.8887 55.0684c6.69531 12.0068 23.2441 20.8936 37.043 18.0674z" />
    <glyph glyph-name="quotesingle" unicode="&#x2019;" horiz-adv-x="185" 
d="M119.25 690.644c12.6592 -2.59473 19.5391 -14.4668 12.8223 -26.3018c-6.90137 -12.167 -13.1553 -24.6025 -18.9082 -37.3584c-3.44043 -7.62891 -14.1182 -24.9727 -10.2236 -33.7412c10.5391 -23.7363 -37.0596 -46.9053 -48.9316 -23.8672
c-8.15918 15.8379 -2.2207 32.3994 3.30957 48.1328c6.72461 19.1357 15.0137 37.3672 24.8887 55.0684c6.69531 12.0068 23.2441 20.8936 37.043 18.0674z" />
    <glyph glyph-name="quotesingle" unicode="&#x2018;" horiz-adv-x="185" 
d="M119.25 690.644c12.6592 -2.59473 19.5391 -14.4668 12.8223 -26.3018c-6.90137 -12.167 -13.1553 -24.6025 -18.9082 -37.3584c-3.44043 -7.62891 -14.1182 -24.9727 -10.2236 -33.7412c10.5391 -23.7363 -37.0596 -46.9053 -48.9316 -23.8672
c-8.15918 15.8379 -2.2207 32.3994 3.30957 48.1328c6.72461 19.1357 15.0137 37.3672 24.8887 55.0684c6.69531 12.0068 23.2441 20.8936 37.043 18.0674z" />
    <glyph glyph-name="parenleft" unicode="(" horiz-adv-x="442" 
d="M365.881 -181.082c28.8252 4.91211 36.8027 -26.1123 10.0215 -36.8867c-91.5762 -36.8662 -191.16 5.27832 -241.716 86.3115c-49.1758 78.8291 -66.2881 180.154 -75.8643 270.986c-10.1689 96.4766 -11.1826 194.429 -2.12402 291.019
c9.10059 97.0352 29.3887 192.372 66.6709 282.633c17.541 42.4678 41.8242 79.8467 72.6973 113.874c24.1152 26.5752 59.4551 48.499 96.3965 38.4893c20.166 -5.46289 0.993164 -29.3838 -14.0166 -25.6875c-47.4688 11.6953 -72.9375 -48.2637 -86.8877 -82.8838
c-17.0156 -42.2324 -29.3213 -86.252 -39.6963 -130.537c-37.8086 -161.343 -42.582 -332.515 -20.6582 -496.554c17.4072 -130.247 59.3916 -340.741 235.177 -310.764z" />
    <glyph glyph-name="parenright" unicode=")" horiz-adv-x="446" 
d="M337.517 682.838c65.8467 -181.82 69.6602 -390.603 41.5879 -580.278c-12.9365 -87.4258 -35.5371 -184.192 -92.2744 -254.472c-50.9463 -63.1094 -148.966 -101.611 -226.946 -67.7441c-27.7061 12.0322 9.76562 42.207 27.8535 39.3594
c38.54 -6.07324 76.6172 -7.00684 111.065 14.458c32.5977 20.3174 53.5498 54.9121 68.3574 89.3896c31.8154 74.0811 44.1592 159.299 51.8682 238.978c7.99512 82.6689 8.52051 166.301 3.16211 249.15c-5.29492 81.8574 -18.7607 163.033 -39.4229 242.396
c-10.2871 39.5156 -23.4336 78.2324 -39.3516 115.839c-12.9746 30.6592 -42.2031 80.415 -83.2666 70.2295c-21.6416 -5.36621 -20.0684 19.8506 -2.06445 24.6992c46.8379 12.6084 78.6025 -19.249 107.142 -51.4932c34.0986 -38.5234 54.8789 -82.4336 72.29 -130.512z
" />
    <glyph glyph-name="asterisk" unicode="*" horiz-adv-x="272" 
d="M210.186 599.907c21.793 -0.933594 10.5459 -26.5459 -6.19238 -25.8398c-11.9443 0.512695 -23.876 0.740234 -35.7949 0.702148c11.3379 -11.5312 23.4414 -22.3945 36.4492 -32.4248c12.8057 -9.87891 -13.7402 -28.0264 -25.293 -19.1143
c-8.41992 6.49805 -16.4229 13.4033 -24.1777 20.5488c-0.828125 -11.624 -1.67383 -23.2441 -2.48926 -34.8643c-1.02148 -14.585 -32.0254 -24.6572 -31.1924 -8.31445c1.03906 20.3672 2.28418 40.7178 3.62988 61.0557
c-11.1318 -11.5107 -21.915 -23.4844 -30.2383 -36.6309c-7.75488 -12.251 -38.3213 -12.4785 -27.8574 4.60059c8.91602 14.5469 19.5732 28.4082 31.1934 41.7275c-11.877 -1.12305 -23.7363 -2.51465 -35.5879 -4.18848
c-7.62012 -1.07617 -13.5664 4.53809 -12.5146 11.9736c1.19043 8.41113 11.4395 12.8311 18.6982 13.8574c12.8818 1.82129 25.7764 3.28516 38.6875 4.4502c-9.71094 13.3994 -18.6309 27.4248 -26.542 42.165c-7.2334 13.4785 21.7139 27.7188 28.998 14.1436
c5.96777 -11.1152 12.4775 -21.8018 19.5049 -32.0674c0.736328 9.39551 1.47656 18.791 2.25488 28.1816c1.09766 13.2773 32.9844 20.5527 31.7607 5.22363c-0.53418 -6.7207 -1.01367 -13.4453 -1.53516 -20.166c5.67773 5.26953 11.3047 10.4805 16.7969 15.6367
c5.32422 4.99609 15.1445 10.5771 22.6309 6.25781c6.45996 -3.73047 7.35156 -12.125 1.74512 -17.3857c-13.5713 -12.7305 -26.8311 -25.7764 -39.9277 -38.9902c15.6406 0.282227 31.3018 0.130859 46.9932 -0.538086z" />
    <glyph glyph-name="plus" unicode="+" horiz-adv-x="295" 
d="M238.606 230.304c18.1348 -5.4668 -7.0625 -28.9102 -21.6182 -24.4648c-7.30957 2.22852 -14.791 3.43555 -22.3613 4.00293c-0.00878906 -2.04395 -0.0341797 -4.0918 -0.0380859 -6.13574c-0.0712891 -26.3018 0.235352 -52.6123 -0.0507812 -78.9053
c-0.277344 -25.4102 1.54785 -50.8877 -8.31836 -74.6826c-7.09473 -17.1084 -35.4277 -22.6846 -46.459 -7.86816c-13.9502 18.7314 -14.0977 49.293 -16.6416 71.8438c-2.73828 24.2959 -4.22266 48.8818 -5.20703 73.3076
c-0.231445 5.73242 -0.420898 11.4648 -0.584961 17.2012c-18.4287 -1.98047 -36.8369 -4.125 -55.2109 -6.56836c-22.2432 -2.95605 -10.0928 24.2881 6.34668 26.5166c15.5439 2.11133 31.8066 4.80273 48.3477 7.2002c-0.378906 35.916 0.521484 71.8271 2.77539 107.692
c1.27441 20.3252 16.8311 35.0781 36.2607 40.209c14.0303 3.70508 41.8125 0.55957 41.2578 -19.5469c-1.13086 -40.9375 -1.92969 -81.8623 -2.2998 -122.8c15.0186 -0.685547 29.7344 -2.7627 43.8018 -7.00195z" />
    <glyph glyph-name="comma" unicode="," horiz-adv-x="196" 
d="M84.1318 59.0107c12.7178 29.2334 76.2861 29.415 59.2363 -9.77637c-12.4316 -28.5732 -24.9395 -58.8115 -42.7373 -84.5156c-7.41895 -10.7119 -18.9717 -18.4336 -32.4883 -17.5801c-11.2539 0.706055 -20.0225 7.99023 -17.7939 19.9639
c5.8418 31.4111 21.0996 62.7549 33.7832 91.9082z" />
    <glyph glyph-name="hyphen" unicode="-" horiz-adv-x="425" 
d="M349.181 279.005c14.4922 0.273438 29.1084 -7.82715 25.5713 -24.46c-3.47852 -16.3682 -22.5762 -27.374 -38.2041 -28.3164c-49.4785 -2.99023 -99.2773 -3.79785 -148.84 -3.58789c-24.418 0.105469 -48.8105 0.260742 -73.2031 1.48438
c-18.6689 0.9375 -46.7539 -1.77051 -60.9268 12.3936c-9.34473 9.34082 1.64844 20.8096 9.79004 25.4902c20.5986 11.8428 47.1025 9.97168 70.2715 10.998c23.5557 1.03906 47.1445 1.2666 70.7129 1.93066c48.2637 1.3584 96.5566 3.15039 144.828 4.06738z" />
    <glyph glyph-name="period" unicode="." horiz-adv-x="156" 
d="M85.5947 43.0127c10.7031 0.955078 23.4033 -6.90332 19.9248 -19.0654c-0.878906 -3.06543 -1.66113 -6.13574 -2.20801 -9.27734c0.0214844 0.12207 -0.899414 -5.99707 -0.671875 -4.08789c-0.714844 -6.00977 -1.33691 -12.6924 -2.24512 -20.0518
c-1.42188 -11.4727 -15.8721 -19.4043 -25.9111 -21.0527c-10.8213 -1.77441 -20.3594 1.92676 -23.1094 12.9961c-3.23438 12.999 -0.357422 26.1924 4.44531 38.4688c5 12.7891 15.8799 20.8301 29.7754 22.0703z" />
    <glyph glyph-name="slash" unicode="/" horiz-adv-x="602" 
d="M530.759 747.478c16.5957 -3.19238 27.2793 -20.0596 17.3877 -35.6416c-87.5312 -137.863 -170.811 -277.48 -244.56 -423.297c-74.0566 -146.426 -133.906 -298.223 -198.13 -448.984c-8.83984 -20.75 -63.2354 -28.6562 -54.5127 2.58691
c19.3623 69.3672 44.9492 136.479 71.6963 203.298c94.6631 236.493 213.113 467.674 357.92 677.554c10.8887 15.7832 29.9775 28.375 50.1982 24.4844z" />
    <glyph glyph-name="zero" unicode="0" horiz-adv-x="492" 
d="M203.42 -72.1865c-104.698 45.2061 -142.486 171.551 -151.1 275.277c-10.792 129.957 17.3896 262.323 56.6611 385.509c6.37988 20.0186 26.4619 33.9219 47.2959 35.0576c17.5078 0.955078 36.4834 -10.4756 31.6553 -30.2793
c-0.412109 -1.68652 -0.828125 -3.37305 -1.24023 -5.05957c42.9307 33.6064 92.9775 51.8965 143.962 18.6182c51.3086 -33.4893 75.7432 -100.716 91.5137 -157.092c30.4189 -108.723 23.833 -223.851 -8.09961 -331.388
c-15.2451 -51.3291 -30.999 -106.305 -64.9629 -148.849c-34.9824 -43.8184 -92.792 -64.6357 -145.686 -41.7949zM179.443 558.828c-25.7891 -104.724 -51.3301 -210.211 -48.6172 -318.816c2.14941 -86.2695 18.2148 -197.734 88.1914 -257.433
c18.6348 -15.8975 42.9639 -29.8975 67.4404 -18.7441c20.6279 9.40332 34.877 29.4385 45.9375 48.4268c24.6533 42.333 44.3945 87.9131 56.6074 135.353c24.6367 95.6895 27.3789 198.449 0.240234 293.962c-12.6719 44.5918 -30.8232 95.4453 -64.2236 128.893
c-17.041 17.0625 -40.6641 30.8652 -65.5654 29.4814c-26.209 -1.45508 -47.5527 -20.666 -66.5195 -36.8955c-4.35254 -3.72168 -9.28125 -4.84863 -13.4912 -4.22656z" />
    <glyph glyph-name="one" unicode="1" horiz-adv-x="376" 
d="M74.4199 528.187c-14.6523 -11.999 -34.7725 2.28906 -18.1768 16.832c32.8877 28.8379 63.8496 59.3369 94.8447 90.1426c16.292 16.1914 43.9141 34.957 65.5557 15.6572c23.0176 -20.5273 29.4902 -66.124 34.3896 -94.7178
c6.58984 -38.4639 8.25488 -77.9375 9.0498 -116.902c1.72852 -84.5664 -1.46387 -169.111 -4.13867 -253.614c-1.2998 -40.9795 -2.38867 -81.9717 -2.7627 -122.972c-0.399414 -43.9521 1.73242 -88.6621 -2.75879 -132.413
c-0.584961 -5.69434 -3.22559 -11.0146 -7.1748 -15.7373c20.3252 -3.6543 40.7012 -3.06152 61.4473 9.14355c19.96 11.7373 30.9746 -12.1631 11.5156 -23.6104c-27.2266 -16.0146 -59.1895 -21.9443 -90.1592 -14.8154
c-8.77246 2.02246 -18.168 5.61426 -27.8447 9.38281c-8.62988 0.113281 -16.4775 2.59082 -21.8232 8.08789c-17.4492 5.75781 -35.0537 8.89941 -51.0557 1.88867c-20.0605 -8.79004 -31.0791 13.2812 -11.0566 22.6641c18.2021 8.5293 35.9541 9.23145 53.4658 6.58594
c-2.83496 32.3574 -0.665039 65.9141 0.538086 98.0107c1.3418 35.8652 3.44434 71.7139 5.67773 107.537c4.65137 74.5947 10.6152 149.105 15.2959 223.695c4.5293 72.2188 11.0479 145.493 8.24707 217.867c-0.454102 11.708 2.43945 37.6016 -7.72559 45.4658
c-9.32422 7.21289 -27.3369 -18.5508 -34.8145 -25.8975c-25.7715 -25.3262 -52.5859 -49.3906 -80.5361 -72.2812z" />
    <glyph glyph-name="two" unicode="2" horiz-adv-x="527" 
d="M93.5215 -133.655c-25.1074 3.74707 -48.7939 23.2764 -42.4941 51.2354c4.99219 22.168 28.1396 32.707 48.7344 35.3271c16.3848 2.08203 32.126 -0.966797 47.4424 -5.89551c24.6572 25.8564 44.4111 58.0801 61.7383 88.3389
c48.7803 85.2051 81.1084 179.343 100.824 275.348c10.0723 49.0459 19.1562 98.9619 22.4404 148.991c1.67383 25.5234 1.74512 51.3369 -1.23242 76.7686c-2.22852 19.0088 -3.08691 41.4199 -12.1748 58.6797c-11.1318 21.1377 -33.5137 34.8438 -57.2285 27.2529
c-21.2891 -6.81738 -39.2002 -24.5146 -53.3018 -41.2314c-28.417 -33.6865 -44.6758 -76.5713 -47.001 -120.461c-0.81543 -15.3291 -33.1357 -25.4141 -32.3203 -8.6123c2.81738 57.9785 25.9609 113.636 67.3779 154.812c35.3438 35.1338 92.9053 66.2256 136.85 26.3184
c39.9199 -36.252 54.9004 -94.3643 60.002 -145.841c6.03906 -60.9141 1.85449 -123.451 -8.5459 -183.646c-21.1709 -122.505 -67.9746 -243.907 -141.173 -344.82c-8.61719 -11.877 -18.8242 -24.5693 -30.3057 -36.6602
c18.6016 -6.21191 37.5391 -11.3262 56.9229 -14.8047c61.7383 -11.0771 127.316 -4.70605 179.395 32.6182c16.3516 11.7168 39.1162 -4.18848 19.623 -18.1592c-83.5566 -59.8916 -188.667 -56.0859 -282.25 -23.9805
c-27.3535 -21.8311 -59.3369 -36.6553 -93.3223 -31.5791zM109.834 -76.0439c-22.5674 2.60352 -5.00977 -5.78223 2.7666 -4.72656c2.42285 0.332031 4.84961 1.50977 7.1875 3.06152c-3.29688 0.706055 -6.61523 1.27832 -9.9541 1.66504z" />
    <glyph glyph-name="three" unicode="3" horiz-adv-x="471" 
d="M84.2725 470.297c1.52246 -15.8975 -31.5244 -26.8682 -33.4502 -8.92285c-5.8418 54.7861 19.917 108.487 63.2012 141.858c42.6738 32.9004 109.917 45.2861 157.827 16.1123c55.9473 -34.0693 54.6768 -109.518 42.085 -165.89
c-9.27344 -41.5049 -25.7891 -80.9619 -48.0869 -116.92c45.8027 -3.98242 90.0332 -28.4922 117.084 -66.877c83.1865 -118.047 18.6016 -317.724 -96.3662 -391.914c-57.1416 -36.8789 -142.393 -46.1309 -187.199 14.7783
c-44.3984 60.3584 -24.0352 141.089 1.8877 204.479c6.95215 16.9951 50.9551 22.9414 43.9355 -2.08203c-16.377 -58.374 -45.1768 -155.057 27.8242 -190.098c64.3662 -30.8896 115.628 42.5654 139.39 91.7998c28.1436 58.3145 41.3408 135.697 18.1973 197.843
c-17.5039 47.0059 -71.9238 101.195 -125.385 71.2217c-27.917 -15.6533 -70.7002 9.33594 -41.7197 39.0693c34.6455 35.541 62.1836 77.8115 78.3584 124.923c13.8994 40.4834 30.3389 96.8555 11.4434 138.188c-21.4482 46.9219 -80.0908 45.2607 -117.037 18.7109
c-36.8115 -26.4531 -56.2793 -71.4912 -51.9893 -116.28z" />
    <glyph glyph-name="four" unicode="4" horiz-adv-x="534" 
d="M99.8691 159.811c-22.7061 -2.99414 -53.375 6.50195 -49.5391 34.9277c3.27637 24.2324 29.3213 41.3828 50.5176 48.5537c27.5381 9.31543 57.3008 7.71777 85.9199 5.21973c31.1885 42.502 49.9619 96.3838 60.0596 145.623
c15.8848 77.4414 12.3271 157.592 6.7207 235.959c-1.10645 15.4434 30.8184 26.2471 32.5977 8.68848c8.89941 -87.8213 12.9326 -177.388 -8.45703 -263.846c-11.292 -45.6436 -29.4561 -91.2363 -56.834 -129.986c50.8623 -6.14062 102.011 -15.002 152.676 -11.5537
c-4.4668 118.56 -2.30957 238.457 13.0908 356.163c2.60352 19.9004 27.29 33.3877 44.7393 36.3525c13.7227 2.33398 41.2861 -2.58691 39.9111 -22.4375c-8.23047 -118.694 -14.5811 -236.973 -10.1992 -355.995c2.16992 -58.9033 6.13965 -117.562 11.0732 -176.289
c2.53223 -30.1416 5.41699 -60.249 7.92383 -90.3906c2.44727 -29.4434 6.77051 -60.1943 1.79102 -89.5283c-3.54492 -20.8721 -40.9365 -34.1953 -53.1201 -14.3496c-15.4434 25.1621 -20.2422 58.9033 -26.1387 87.4424
c-5.77832 27.9668 -10.1475 56.2705 -13.9033 84.5781c-6.95215 52.3848 -11.4609 105.304 -14.043 158.135c-53.7266 -4.61328 -108.067 3.5957 -161.958 10.3037c-4.08398 0.508789 -8.25586 1.07227 -12.4912 1.64844
c-5.77051 -6.37598 -11.8516 -12.4824 -18.2822 -18.2607c-22.7646 -20.4561 -51.3164 -36.8994 -82.0547 -40.958zM86.9434 206.896c-8.14648 -10.8926 -3.40625 -21.3271 10.708 -21.9326c17.0156 -0.723633 36.3105 11.7969 49.0869 21.7051
c6.54004 5.07227 12.6924 10.6279 18.5381 16.5244c-19.459 1.63574 -39.04 1.52246 -56.8633 -3.73047c-7.83496 -2.30859 -16.377 -5.75293 -21.4697 -12.5664z" />
    <glyph glyph-name="five" unicode="5" horiz-adv-x="509" 
d="M157.136 601.948c-39.7637 -4.60938 -80.7852 1.31738 -105.568 36.9092c-8.5293 12.2383 20.1152 26.7646 28.9971 14.1436c21.835 -31.0205 57.8135 -31.4961 94.3682 -24.8516c0.0712891 0.0966797 0.134766 0.197266 0.206055 0.293945
c6.63184 9 27.2393 14.1143 37.417 8.20117c15.3379 3.80566 29.9102 7.43066 42.5859 8.94922c45.9121 5.50098 114.169 7.53223 143.616 -35.4316c9.44141 -13.7734 -22.6641 -30.1123 -32.4551 -15.8301c-17.5752 25.6416 -57.7217 26.79 -85.5967 26.958
c-22.3525 0.138672 -43.624 -3.39355 -64.9297 -7.83496c-14.0469 -55.1855 -37.4385 -108.13 -54.2646 -162.571c-9.02539 -29.208 -17.4912 -58.79 -24.1533 -88.6328c-1.97656 -8.85742 -7.60742 -24.1318 2.06934 -30.4824
c5.38281 -3.52832 15.502 -2.31738 21.5117 -2.12402c97.3848 3.12012 201.784 -5.09766 262.786 -91.9678c59.5977 -84.873 39.1924 -196.687 -23.0293 -273.964c-58.8955 -73.1523 -168.506 -118.572 -253.021 -61.0527
c-70.8643 48.2256 -80.7012 156.528 -3.40234 204.271c6.24902 3.85645 17.5371 8.42383 23.8877 1.68652c5.69824 -6.03906 2.04395 -15.6279 -4.41992 -19.6992c-40.3486 -25.4141 -49.1426 -77.5967 -26.0703 -117.94
c24.6572 -43.1201 77.1387 -59.2656 124.195 -49.4375c82.7031 17.2764 127.08 112.844 119.619 190.883c-3.77637 39.5244 -20.6201 78.5312 -49.4785 106.158c-29.1367 27.8916 -67.2852 40.2051 -106.611 44.9697c-38.6494 4.68457 -79.3594 -4.58496 -117.34 3.34668
c-20.7588 4.33594 -39.873 15.1992 -48.5781 35.3564c-8.03223 18.5967 -3.43555 40.4023 1.65332 59.0498c22.29 81.6729 50.1143 168.136 96.0059 240.645z" />
    <glyph glyph-name="six" unicode="6" horiz-adv-x="464" 
d="M210.159 -121.404c-141.337 28.6191 -161.706 215.274 -160.074 332.273c1.83789 131.702 33.4971 263.778 113.113 370.668c34.8389 46.7744 82.4414 87.5732 143.405 90.8027c25.1113 1.33301 51.3584 -5.15234 70.6709 -21.8359
c22.3945 -19.3457 29.8936 -49.4111 36.6816 -76.9365c3.81055 -15.4473 -29.1104 -26.7646 -33.7197 -8.9873c-7.09473 27.3574 -15.8799 57.9238 -43.0146 71.8066c-24.0479 12.3018 -52.6416 8.81934 -74.124 -6.57715
c-42.6445 -30.5615 -69.0303 -85.8311 -88.8047 -132.782c-37.9473 -90.0967 -49.9756 -190.131 -46.4678 -287.233c0.530273 -14.5723 1.38867 -29.2412 2.69629 -43.8975c39.3057 28.9473 85.7188 47.1738 135.976 44.7012
c64.749 -3.18359 120.587 -45.0039 139.592 -107.44c34.7256 -114.076 -73.6855 -249.315 -195.93 -224.562zM246.409 181.385c-43.0273 -0.336914 -80.8711 -19.8867 -112.258 -47.3994c4.26465 -30.415 10.9434 -60.4678 21.3105 -89.2002
c14.9004 -41.29 38.25 -89.5449 80.083 -109.361c42.0938 -19.9385 89.5371 5.99707 114.767 40.9961c27.1299 37.6445 32.5928 87.0352 13.3652 129.322c-21.1621 46.5391 -65.8379 76.0459 -117.268 75.6426z" />
    <glyph glyph-name="seven" unicode="7" horiz-adv-x="389" 
d="M61.7432 601.81c-21.6123 -2.60742 -9.69238 23.5156 6.12109 25.6104c38.834 5.12695 75.1826 19.9893 111.889 32.8965c30.957 10.8838 67.0869 24.8838 100.529 21.498c67.7686 -6.85938 61.1318 -92.1279 54.1592 -140.568
c-9.50879 -66.0742 -25.2793 -130.979 -42.2568 -195.48c-8.48242 -32.2354 -17.1289 -64.3281 -25.5615 -96.4082c16.4941 2.57812 32.9844 5.15625 49.4785 7.73438c8.22656 1.28711 14.6318 -4.99609 13.5088 -12.9238
c-1.29492 -9.15527 -12.3555 -13.748 -20.1865 -14.9639c-16.6924 -2.59082 -33.3799 -5.17773 -50.0723 -7.76465c-23.0381 -89.3516 -43.5488 -178.918 -53.3184 -271.592c-2.05664 -19.5186 -27.2148 -32.9053 -44.0039 -35.7568
c-13.5879 -2.30859 -40.4824 2.54883 -39.25 22.0713c5.8877 93.1787 29.0186 183.393 56.8516 272.379c-11.9355 -1.48047 -23.875 -1.99316 -35.5752 -0.151367c-21.7598 3.42773 -1.16895 29.7627 14.8799 27.2607c9.31543 -1.45898 19.2705 -1.06738 29.377 0.185547
c18.2148 56.3965 37.8086 112.373 55.5732 168.37c12.4697 39.3057 24.1865 78.9307 34.4648 118.871c4.50879 17.5166 8.54199 35.1465 12.9238 52.6924c5.04297 20.1865 13.6768 45.9287 0.677734 64.7275c-23.4463 33.9014 -90.4922 1.33301 -120.478 -9.26953
c-35.9785 -12.7266 -71.667 -24.8301 -109.731 -29.418z" />
    <glyph glyph-name="eight" unicode="8" horiz-adv-x="379" 
d="M289.223 570.877c21.7471 -60.2959 21.207 -127.519 18.0439 -190.69c-3.2002 -63.874 -11.8516 -127.281 -20.877 -190.55c35.2178 -62.9277 57.457 -130.428 29.8477 -199.967c-40.3398 -101.603 -189.533 -121.823 -244.589 -22.2559
c-29.208 52.8262 -13.8916 119.741 4.1543 173.745c9.49609 28.4209 21.5996 56.0557 36.3398 82.1514c7.46094 13.21 15.418 27.8877 25.2803 40.5713c-55.2363 80.1543 -107.428 171.517 -79.7842 268.493c14.9424 52.418 59.7148 100.109 113.597 112.663
c57.6084 13.4238 99.1299 -21.8818 117.987 -74.1611zM253.47 -38.2529c14.5557 24.8301 16.5479 52.6172 11.8252 80.6055c-9.92969 58.8232 -51.7539 112.975 -85.1211 160.796c-8.68457 12.4482 -17.8574 25.2627 -27.1475 38.4053
c-12.873 -19.7617 -22.8359 -43.4766 -30.8389 -61.6367c-13.9961 -31.7607 -24.1191 -65.5146 -29.9561 -99.7354c-5.98438 -35.0996 -5.3916 -71.4316 14.0469 -102.41c15.8506 -25.2549 42.3838 -44.6641 72.2559 -48.7354
c30.6211 -4.17188 59.0928 5.69043 74.9355 32.7109zM202.026 320.396c17.125 -27.2861 37.7539 -56.1895 57.3477 -86.373c8.41504 62.9707 15.1943 126.202 14.7529 189.804c-0.256836 37.1104 -1.69141 75.5664 -11.7676 111.495
c-8.20117 29.2412 -25.1367 70.5693 -58.4619 77.8789c-28.4209 6.23242 -52.4727 -17.7139 -63.2305 -41.2861c-12.3057 -26.9619 -12.2891 -58.4404 -8.34375 -87.2402c8.18848 -59.7568 38.1152 -113.941 69.7031 -164.278z" />
    <glyph glyph-name="nine" unicode="9" horiz-adv-x="473" 
d="M309.983 5.5957c12.0449 31.1973 18.5166 64.9688 22.8438 98.0293c9.51758 72.7314 9.13086 148.083 4.54688 221.181c-2.36816 37.7959 -5.54785 75.6797 -11.4277 113.105c-2.35547 15.0098 -4.60156 32.7822 -9.00879 49.6426
c-5.92188 -15.8301 -11.7041 -31.7354 -19.0391 -46.8711c-14.833 -30.6084 -34.6787 -59.0674 -58.8984 -83.0059c-35.2559 -34.8477 -99.9922 -86.7871 -151.99 -56.5615c-52.5576 30.5498 -39.3818 105.821 -19.7881 151.691
c22.8701 53.5371 64.375 98.7139 114.909 127.35c46.2451 26.2051 117.5 41.2568 149.833 -12.8652c2.75 -0.794922 5.44531 -1.98926 7.98926 -3.73926c29.2119 -20.0898 42.3799 -56.2666 51.2031 -89.1924c10.5771 -39.4736 17.7139 -80.2002 22.8281 -120.726
c9.09277 -72.0752 11.5361 -144.929 5.88379 -217.391c-5.21094 -66.7471 -18.4209 -135.188 -57.2676 -191.198c-36.2441 -52.2627 -111.188 -93.7422 -172.938 -57.9863c-54.7861 31.7227 -59.3867 101.081 -57.04 157.701
c0.714844 17.1924 36.9375 30.6582 37.6523 10.0342c1.18164 -33.9814 3.42285 -70.1367 26.1709 -97.418c16.6289 -19.9473 42.9727 -36.1055 65.6494 -21.9033c24.001 15.0303 38.0479 44.625 47.8887 70.123zM271.279 460.199
c9.4375 27.8447 10.6055 57.584 20.6611 85.2061c1.24512 3.42773 3.0791 6.60742 5.33789 9.44629c-38.0273 54.042 -121.218 -4.29785 -153.294 -38.666c-36.2686 -38.8643 -73.1387 -105.309 -53.9697 -159.801c26.8271 -76.2598 109.689 -2.66211 139.512 32.8916
c17.4824 20.8428 32.9844 45.0547 41.7529 70.9229z" />
    <glyph glyph-name="colon" unicode=":" horiz-adv-x="170" 
d="M79.209 396.58c-6.17773 -3.33887 -14.832 -3.96094 -20.9346 -0.293945c-3.89062 2.34277 -8.37402 6.00195 -8.27344 11.2041c0.353516 18.0801 4.11328 35.4365 8.23438 52.9736c3.31445 14.0928 19.4473 23.7744 33.082 24.5186
c12.0361 0.651367 25.8008 -7.35156 22.1377 -21.1797c-3.06543 -11.5781 -6.28223 -23.001 -10.2275 -34.3184c-5.03027 -14.4336 -10.0938 -25.3682 -24.0186 -32.9043zM96.5537 225.589c12.5244 1.11914 26.4014 -7.86523 22.7969 -21.8193
c-2.14453 -8.30566 -4.24316 -16.666 -6.18164 -25.0264c-2.47266 -10.665 -3.94434 -20.3506 -11.6611 -28.791c-8.89941 -9.73633 -25.2129 -14.9854 -36.5508 -6.37207c-8.29785 6.30371 -8.01172 18.0332 -7.52344 27.5293
c0.521484 10.1729 1.96777 19.5391 5.0459 29.2246c4.70215 14.7744 18.9971 23.9131 34.0742 25.2549z" />
    <glyph glyph-name="semicolon" unicode=";" horiz-adv-x="212" 
d="M124.719 403.649c-8.34375 -9.68945 -30.6484 -16.9854 -38.3779 -2.56836c-4.66406 8.70117 -3.01953 18.8916 -2.2334 28.3799c0.81543 9.8457 2.41309 19.5898 4.38574 29.2588c3.03613 14.8789 20.8887 25.1064 34.8975 25.8672
c13.3398 0.723633 26.3438 -7.69629 23.3574 -22.3447c-3.97461 -19.4717 -8.81543 -43.2461 -22.0293 -58.5928zM135.378 247.838c12.5664 0.508789 31.209 -8.53809 25.3506 -24.25c-17.8066 -47.75 -37.1904 -96.4463 -67.7061 -137.627
c-9.5 -12.8184 -48.4814 -17.8486 -42.375 6.99805c10.665 43.3936 31.2637 84.9863 46.8584 126.807c5.87109 15.7539 20.5615 27.374 37.8721 28.0723z" />
    <glyph glyph-name="less" unicode="&#x3c;" horiz-adv-x="405" 
d="M332.604 230.48c45.5342 -9.14746 7.36328 -61.6211 -23.9766 -61.2422c-54.3955 0.664062 -108.693 10.4922 -161.882 21.2539c-31.2178 6.31641 -119.683 13.1924 -91.1562 65.8545c11.75 21.6885 40.1465 36.4629 60.8291 47.9648
c21.1797 11.7754 43.4814 21.7383 65.4512 31.9365c48.2842 22.4199 96.3623 45.8535 146.88 62.8438c23.7822 7.99902 36.3691 -19.0215 16.0732 -32.9551c-38.3174 -26.3018 -79.6162 -47.9268 -120.52 -69.8926c-20.0986 -10.7959 -40.3066 -21.373 -60.4561 -32.085
c-2.43457 -1.29492 -4.9541 -2.61523 -7.49023 -3.95215c3.96191 -0.542969 7.47754 -1.04785 9.97949 -1.57812c18.4209 -3.93262 36.9082 -7.51953 55.459 -10.7666c36.8281 -6.44336 74.1572 -10.0225 110.809 -17.3818z" />
    <glyph glyph-name="equal" unicode="=" horiz-adv-x="421" 
d="M68.127 225.93c-13.4072 1.45508 -19.5273 13.8525 -15.2373 25.5566c5.03418 13.7354 20.376 21.9863 34.3262 23.2148c77.5723 6.81738 158.093 4.26465 235.837 1.16504c46.5684 -1.85449 22.0752 -53.9531 -13.126 -54.832
c-79.6709 -1.99316 -162.491 -3.71777 -241.8 4.89551zM355.894 182.283c13.7773 -1.11035 18.5127 -15.335 12.8271 -26.3027c-6.88477 -13.2812 -22.9121 -19.1729 -37.043 -18.0664c-45.5547 3.56641 -91.2314 5.05566 -136.925 4.65234
c-43.7715 -0.382812 -88.25 -6.08984 -131.917 -3.52441c-26.4531 1.55566 -6.16113 32.7949 8.64648 36.4492c45.6475 11.2627 95.4248 11.25 142.208 11.9521c47.46 0.710938 94.9033 -1.3457 142.203 -5.16016z" />
    <glyph glyph-name="greater" unicode="&#x3e;" horiz-adv-x="370" 
d="M319.803 305.475c3.51172 -41.791 -61.8613 -64.4473 -90.5264 -80.4033c-40.79 -22.71 -81.6348 -46.1309 -123.809 -66.166c-13.332 -6.33398 -37.6572 -9.21484 -45.4629 7.50684c-8.0957 17.3438 8.75586 32.5889 22.0752 40.4453
c31.9707 18.8574 65.4131 35.3643 98.377 52.4219c15.8799 8.21777 31.8779 16.2129 47.8301 24.2881c4.82812 2.44336 9.67285 4.85352 14.5049 7.29688c-5.77441 2.64941 -12.2891 7.12012 -16.835 9c-6.81348 2.81738 -13.7363 5.37891 -20.6631 7.88965
c-17.167 6.21582 -34.4902 12.0361 -51.7373 18.0293c-31.3691 10.9014 -63.8027 21.2803 -93.2754 36.8076c-9.80273 2.81348 -12.751 14.3789 -8.1709 23.2188c5.8916 11.3721 21.0859 18.4502 33.585 16.3809c46.3418 -7.6709 91.5557 -24.123 136.248 -38.1865
c28.4883 -8.96191 94.6924 -20.8262 97.8594 -58.5293z" />
    <glyph glyph-name="question" unicode="?" horiz-adv-x="469" 
d="M407.195 725.314c16.292 -39.9863 13.5693 -84.6777 6.85254 -126.41c-33.1992 -206.195 -177.312 -383.444 -179.003 -595.558c-0.290039 -36.7061 -70.6289 -65.1445 -79.7637 -21.2588c-10.7744 51.7754 0.635742 106.133 15.624 155.985
c14.4668 48.1201 33.5225 94.9404 53.0703 141.186c33.6826 79.6748 72.3613 157.394 100.366 239.382c20.8936 61.1699 62.7139 168.56 3.51562 221.289c-57.7725 51.4512 -155.637 13.6094 -200.153 -36.7949c-28.3789 -32.1309 -44.5371 -74.75 -44.0869 -117.681
c0.366211 -34.8223 11.0566 -86.7109 50.1689 -97.9443c19.6943 -5.65625 0.9375 -29.2285 -13.7734 -25.2334c-44.9834 12.2168 -64.8174 57.2334 -69.1152 100.467c-4.9502 49.7393 10.833 100.202 40.5244 140.017c48.7471 65.3594 141.493 110.859 223.443 94.916
c40.9668 -7.96973 76.3105 -33.0391 92.3301 -72.3613zM217.938 -100.263c-1.63184 -15.6953 -0.458008 -31.5801 3.37793 -46.8672c3.30957 -13.2139 -15.166 -25.3174 -25.2295 -27.9756c-12.3936 -3.27148 -25.4727 0.282227 -28.707 13.6016
c-4.69336 19.3457 -4.9834 38.8008 -0.244141 58.1719c5.63086 23 54.0498 34.292 50.8027 3.06934z" />
    <glyph glyph-name="at" unicode="@" horiz-adv-x="842" 
d="M742.525 647.679c47.25 -90.416 57.6377 -197.629 42.5605 -297.461c-14.1309 -93.5615 -50.3154 -200.03 -118.518 -268.59c-32.5762 -32.7451 -78.6689 -61.6924 -126.238 -62.1885c-53.2637 -0.554688 -91.0801 38.5322 -104.753 87.2793
c-18.4414 65.7588 -7.91895 133.237 1.67773 200.61c-0.256836 -0.794922 -0.508789 -1.59375 -0.769531 -2.38477c-10.6738 -32.4248 -18.5088 -69.5645 -38.0098 -98.1748c-33.8594 -49.6719 -106.696 -47.1826 -140.82 0.65625
c-39.9531 56.0146 -28.998 140.993 -10.1777 202.529c18.748 61.3008 55.0635 129.335 122.13 147.107c27.8408 7.37695 55.833 -5.73145 70.46 -29.8926c14.7949 -24.4434 12.5537 -53.4912 17.4785 -80.6719c17.0498 15.8633 49.4453 20.7666 52.8184 -4.4502
c13.6934 -102.313 -30.6377 -206.465 -2.2168 -307.744c5.47949 -19.5225 13.041 -47.2158 30.2129 -59.8574c19.0049 -13.9961 44.9785 -10.0635 64.7656 -0.213867c41.4756 20.6494 69.7539 59.791 90.9922 99.71c81.79 153.723 96.8965 381.236 -25.7129 519.171
c-61.4141 69.0938 -155.089 94.7559 -244.626 75.334c-87.4043 -18.959 -161.461 -76.4365 -217.029 -144.639c-119.312 -146.447 -153.874 -350.099 -91.5264 -528.205c27.8076 -79.4395 75.1504 -160.981 154.35 -197.94
c93.1113 -43.4482 198.47 -17.4238 288.991 19.2822c20.8721 8.46191 32.6221 -14.833 11.4219 -23.4209c-108.529 -43.9775 -240.164 -74.6572 -346.952 -8.55371c-92.4258 57.2168 -140.761 168.472 -161.738 271.084c-41.2275 201.658 32.2275 419.238 190.35 551.992
c74.7334 62.7471 169.615 101.648 268.19 93.5186c98.2715 -8.09961 177.647 -67.7012 222.689 -153.887zM418.603 346.307c7.43555 22.3105 14.168 45.125 23.4072 66.8135c-6.3418 -1.47168 -12.3516 -0.0126953 -14.3574 6.22852
c-8.94141 27.8447 -4.55078 64.4463 -24.1787 87.6357c-10.2744 12.1328 -16.8184 11.998 -28.2363 2.43066c-9.20996 -7.7168 -17.2422 -18.9795 -23.7773 -28.8799c-32.959 -49.9326 -49.9619 -116.789 -48.1113 -176.21
c0.950195 -30.541 4.02832 -68.3701 26.167 -91.7158c28.8887 -30.4648 46.6611 8.42871 55.749 33.793c11.835 33.0225 22.248 66.625 33.3379 99.9043z" />
    <glyph glyph-name="A" unicode="A" horiz-adv-x="1076" 
d="M57.4883 394.29c-46.7119 30.3984 -68.5557 85.79 -63.8877 140.186c5.01758 58.5332 35.8193 119.666 82.5811 155.956c47.6035 36.9375 111.162 39.3008 164.274 12.583c55.4971 -27.9121 92.4307 -81.1592 122.084 -133.893
c20.8389 -37.0508 38.1865 -75.8301 52.54 -115.729c5.87109 16.4814 12.0488 32.8711 18.5469 49.1465c23.6816 59.3281 50.5723 120.015 94.6719 167.29c34.583 37.0762 93.4062 70.2158 129.565 16.0811c16.9951 -25.4434 25.6289 -55.6016 34.4482 -84.582
c10.4219 -34.2373 19.3086 -69.0215 26.542 -104.075c2.03516 -9.85352 3.88965 -19.7412 5.64355 -29.6455c56.502 0.264648 111.007 -16.3389 119.161 -75.8311c2.22461 -16.2256 -31.79 -27.5303 -34.2842 -9.13965c-5.35742 39.4824 -43.3213 53.6426 -80.2627 56.9062
c8.20898 -53.71 13.0918 -107.966 17.4189 -162.079c5.8125 -72.668 11.208 -145.492 21.4062 -217.706c8.81445 -62.4189 22.8525 -136.328 61.7881 -187.901c17.2432 -22.8408 46.0469 -47.4902 74.5273 -27.9805c26.7266 18.3115 44.499 52.6924 60.4463 79.9404
c36.1719 61.8096 63.2812 128.132 81.4707 197.368c4 15.2246 38.0908 21.2129 33.1455 2.00586c-17.167 -66.6885 -42.3799 -131.244 -75.7852 -191.502c-26.2217 -47.3047 -58.457 -110.649 -114.946 -126.496c-61.3887 -17.2266 -116.784 25.6279 -147.788 74.959
c-34.793 55.3584 -46.6611 124.124 -53.7139 188.138c-13.4326 121.907 -16.6494 244.728 -25.9229 366.984c-40.5547 -7.75977 -79.7676 -22.8281 -118.98 -35.1338c-33.6572 -10.5645 -67.9199 -19.5557 -102.507 -26.8398
c34.4355 -132.627 46.4385 -278.148 13.2441 -412.024c-6.52246 -26.3145 -12.0146 -61.3809 -34.7207 -79.3174c-19.2998 -15.2451 -45.6436 -13.6807 -60.0264 6.98535c-17.5713 25.25 -21.5703 63.416 -23.5049 93.2129
c-2.3252 35.7646 0.0302734 71.8232 2.87305 107.491c7.39746 92.8555 23.7822 184.575 48.9902 273.939c-36.416 -4.83691 -75.6035 -1.18262 -96.291 33.4043c-7.81445 13.0625 20.8467 27.1807 28.9971 14.1436c16.3516 -26.1631 47.9736 -25.6416 75.0742 -20.9648
c0.53418 1.75391 1.05566 3.50781 1.59375 5.25781c-22.7988 81.1045 -57.2803 160.312 -109.135 224.376c-36.0332 44.5166 -93.4268 85.9287 -153.979 71.3857c-56.3125 -13.5205 -91.6816 -78.0977 -102.565 -130.625
c-11.1494 -53.7891 4.86133 -114.69 53.4229 -145.315c45.7822 -28.876 110.431 -9.88379 120.47 46.8457c2.50684 14.1602 33.1533 19.7793 30.1084 1.82129c-4.09668 -24.1318 -17.1084 -44.9658 -35.8652 -60.5645c-40.1846 -33.4131 -97.0273 -37.5977 -140.87 -9.0625z
M434.768 100.626c1.43848 61.4561 -4.31836 122.948 -14.3701 183.547c-2.54004 15.3037 -5.43359 30.7637 -8.67578 46.2822c-5.63965 -22.041 -10.749 -44.2168 -15.2998 -66.5107c-13.168 -64.4971 -21.9111 -129.957 -25.3975 -195.703
c-1.75 -33.0098 -2.6123 -66.3555 1.98438 -99.1846c2.2666 -16.1953 5.52148 -32.6855 11.6494 -47.9102c1.32031 -3.27637 2.80078 -7.49023 4.86523 -10.501c7.03613 -10.2656 3.80176 -7.04395 9.4541 -2.2959c5.81641 4.88672 8.40723 21.2129 10.6318 28.3457
c2.30078 7.38086 4.34082 14.8584 6.27539 22.3447c3.86914 14.959 7.13281 30.0869 9.78613 45.3115c5.54688 31.7988 8.33984 64.0176 9.09668 96.2744zM445.61 442.938c-4.79004 -13.7568 -9.34277 -27.5947 -13.6953 -41.4941
c0.336914 -1.14844 0.643555 -2.30957 0.975586 -3.46191c13.8994 3.10352 27.7529 6.43848 41.543 9.85742c50.2822 12.4658 98.6592 30.6338 148.449 44.6885c10.4678 2.95215 22.8193 5.9209 36.2393 8.43555c-2.74219 33.1699 -5.66113 66.2969 -9.94629 99.3105
c-3.81055 29.3467 -6.74609 60.5098 -15.834 88.792c-4.02051 12.5156 -10.8252 26.4824 -22.7568 33.3252c-14.4297 8.27246 -27.7744 -0.0380859 -39.0205 -9.47949c-20.0947 -16.8643 -36.7109 -38.876 -50.5391 -60.9717
c-32.623 -52.1367 -55.2656 -111.146 -75.415 -169.002z" />
    <glyph glyph-name="A" unicode="&#xc5;" horiz-adv-x="1076" 
d="M57.4883 394.29c-46.7119 30.3984 -68.5557 85.79 -63.8877 140.186c5.01758 58.5332 35.8193 119.666 82.5811 155.956c47.6035 36.9375 111.162 39.3008 164.274 12.583c55.4971 -27.9121 92.4307 -81.1592 122.084 -133.893
c20.8389 -37.0508 38.1865 -75.8301 52.54 -115.729c5.87109 16.4814 12.0488 32.8711 18.5469 49.1465c23.6816 59.3281 50.5723 120.015 94.6719 167.29c34.583 37.0762 93.4062 70.2158 129.565 16.0811c16.9951 -25.4434 25.6289 -55.6016 34.4482 -84.582
c10.4219 -34.2373 19.3086 -69.0215 26.542 -104.075c2.03516 -9.85352 3.88965 -19.7412 5.64355 -29.6455c56.502 0.264648 111.007 -16.3389 119.161 -75.8311c2.22461 -16.2256 -31.79 -27.5303 -34.2842 -9.13965c-5.35742 39.4824 -43.3213 53.6426 -80.2627 56.9062
c8.20898 -53.71 13.0918 -107.966 17.4189 -162.079c5.8125 -72.668 11.208 -145.492 21.4062 -217.706c8.81445 -62.4189 22.8525 -136.328 61.7881 -187.901c17.2432 -22.8408 46.0469 -47.4902 74.5273 -27.9805c26.7266 18.3115 44.499 52.6924 60.4463 79.9404
c36.1719 61.8096 63.2812 128.132 81.4707 197.368c4 15.2246 38.0908 21.2129 33.1455 2.00586c-17.167 -66.6885 -42.3799 -131.244 -75.7852 -191.502c-26.2217 -47.3047 -58.457 -110.649 -114.946 -126.496c-61.3887 -17.2266 -116.784 25.6279 -147.788 74.959
c-34.793 55.3584 -46.6611 124.124 -53.7139 188.138c-13.4326 121.907 -16.6494 244.728 -25.9229 366.984c-40.5547 -7.75977 -79.7676 -22.8281 -118.98 -35.1338c-33.6572 -10.5645 -67.9199 -19.5557 -102.507 -26.8398
c34.4355 -132.627 46.4385 -278.148 13.2441 -412.024c-6.52246 -26.3145 -12.0146 -61.3809 -34.7207 -79.3174c-19.2998 -15.2451 -45.6436 -13.6807 -60.0264 6.98535c-17.5713 25.25 -21.5703 63.416 -23.5049 93.2129
c-2.3252 35.7646 0.0302734 71.8232 2.87305 107.491c7.39746 92.8555 23.7822 184.575 48.9902 273.939c-36.416 -4.83691 -75.6035 -1.18262 -96.291 33.4043c-7.81445 13.0625 20.8467 27.1807 28.9971 14.1436c16.3516 -26.1631 47.9736 -25.6416 75.0742 -20.9648
c0.53418 1.75391 1.05566 3.50781 1.59375 5.25781c-22.7988 81.1045 -57.2803 160.312 -109.135 224.376c-36.0332 44.5166 -93.4268 85.9287 -153.979 71.3857c-56.3125 -13.5205 -91.6816 -78.0977 -102.565 -130.625
c-11.1494 -53.7891 4.86133 -114.69 53.4229 -145.315c45.7822 -28.876 110.431 -9.88379 120.47 46.8457c2.50684 14.1602 33.1533 19.7793 30.1084 1.82129c-4.09668 -24.1318 -17.1084 -44.9658 -35.8652 -60.5645c-40.1846 -33.4131 -97.0273 -37.5977 -140.87 -9.0625z
M434.768 100.626c1.43848 61.4561 -4.31836 122.948 -14.3701 183.547c-2.54004 15.3037 -5.43359 30.7637 -8.67578 46.2822c-5.63965 -22.041 -10.749 -44.2168 -15.2998 -66.5107c-13.168 -64.4971 -21.9111 -129.957 -25.3975 -195.703
c-1.75 -33.0098 -2.6123 -66.3555 1.98438 -99.1846c2.2666 -16.1953 5.52148 -32.6855 11.6494 -47.9102c1.32031 -3.27637 2.80078 -7.49023 4.86523 -10.501c7.03613 -10.2656 3.80176 -7.04395 9.4541 -2.2959c5.81641 4.88672 8.40723 21.2129 10.6318 28.3457
c2.30078 7.38086 4.34082 14.8584 6.27539 22.3447c3.86914 14.959 7.13281 30.0869 9.78613 45.3115c5.54688 31.7988 8.33984 64.0176 9.09668 96.2744zM445.61 442.938c-4.79004 -13.7568 -9.34277 -27.5947 -13.6953 -41.4941
c0.336914 -1.14844 0.643555 -2.30957 0.975586 -3.46191c13.8994 3.10352 27.7529 6.43848 41.543 9.85742c50.2822 12.4658 98.6592 30.6338 148.449 44.6885c10.4678 2.95215 22.8193 5.9209 36.2393 8.43555c-2.74219 33.1699 -5.66113 66.2969 -9.94629 99.3105
c-3.81055 29.3467 -6.74609 60.5098 -15.834 88.792c-4.02051 12.5156 -10.8252 26.4824 -22.7568 33.3252c-14.4297 8.27246 -27.7744 -0.0380859 -39.0205 -9.47949c-20.0947 -16.8643 -36.7109 -38.876 -50.5391 -60.9717
c-32.623 -52.1367 -55.2656 -111.146 -75.415 -169.002z" />
    <glyph glyph-name="A" unicode="&#xc4;" horiz-adv-x="1076" 
d="M57.4883 394.29c-46.7119 30.3984 -68.5557 85.79 -63.8877 140.186c5.01758 58.5332 35.8193 119.666 82.5811 155.956c47.6035 36.9375 111.162 39.3008 164.274 12.583c55.4971 -27.9121 92.4307 -81.1592 122.084 -133.893
c20.8389 -37.0508 38.1865 -75.8301 52.54 -115.729c5.87109 16.4814 12.0488 32.8711 18.5469 49.1465c23.6816 59.3281 50.5723 120.015 94.6719 167.29c34.583 37.0762 93.4062 70.2158 129.565 16.0811c16.9951 -25.4434 25.6289 -55.6016 34.4482 -84.582
c10.4219 -34.2373 19.3086 -69.0215 26.542 -104.075c2.03516 -9.85352 3.88965 -19.7412 5.64355 -29.6455c56.502 0.264648 111.007 -16.3389 119.161 -75.8311c2.22461 -16.2256 -31.79 -27.5303 -34.2842 -9.13965c-5.35742 39.4824 -43.3213 53.6426 -80.2627 56.9062
c8.20898 -53.71 13.0918 -107.966 17.4189 -162.079c5.8125 -72.668 11.208 -145.492 21.4062 -217.706c8.81445 -62.4189 22.8525 -136.328 61.7881 -187.901c17.2432 -22.8408 46.0469 -47.4902 74.5273 -27.9805c26.7266 18.3115 44.499 52.6924 60.4463 79.9404
c36.1719 61.8096 63.2812 128.132 81.4707 197.368c4 15.2246 38.0908 21.2129 33.1455 2.00586c-17.167 -66.6885 -42.3799 -131.244 -75.7852 -191.502c-26.2217 -47.3047 -58.457 -110.649 -114.946 -126.496c-61.3887 -17.2266 -116.784 25.6279 -147.788 74.959
c-34.793 55.3584 -46.6611 124.124 -53.7139 188.138c-13.4326 121.907 -16.6494 244.728 -25.9229 366.984c-40.5547 -7.75977 -79.7676 -22.8281 -118.98 -35.1338c-33.6572 -10.5645 -67.9199 -19.5557 -102.507 -26.8398
c34.4355 -132.627 46.4385 -278.148 13.2441 -412.024c-6.52246 -26.3145 -12.0146 -61.3809 -34.7207 -79.3174c-19.2998 -15.2451 -45.6436 -13.6807 -60.0264 6.98535c-17.5713 25.25 -21.5703 63.416 -23.5049 93.2129
c-2.3252 35.7646 0.0302734 71.8232 2.87305 107.491c7.39746 92.8555 23.7822 184.575 48.9902 273.939c-36.416 -4.83691 -75.6035 -1.18262 -96.291 33.4043c-7.81445 13.0625 20.8467 27.1807 28.9971 14.1436c16.3516 -26.1631 47.9736 -25.6416 75.0742 -20.9648
c0.53418 1.75391 1.05566 3.50781 1.59375 5.25781c-22.7988 81.1045 -57.2803 160.312 -109.135 224.376c-36.0332 44.5166 -93.4268 85.9287 -153.979 71.3857c-56.3125 -13.5205 -91.6816 -78.0977 -102.565 -130.625
c-11.1494 -53.7891 4.86133 -114.69 53.4229 -145.315c45.7822 -28.876 110.431 -9.88379 120.47 46.8457c2.50684 14.1602 33.1533 19.7793 30.1084 1.82129c-4.09668 -24.1318 -17.1084 -44.9658 -35.8652 -60.5645c-40.1846 -33.4131 -97.0273 -37.5977 -140.87 -9.0625z
M434.768 100.626c1.43848 61.4561 -4.31836 122.948 -14.3701 183.547c-2.54004 15.3037 -5.43359 30.7637 -8.67578 46.2822c-5.63965 -22.041 -10.749 -44.2168 -15.2998 -66.5107c-13.168 -64.4971 -21.9111 -129.957 -25.3975 -195.703
c-1.75 -33.0098 -2.6123 -66.3555 1.98438 -99.1846c2.2666 -16.1953 5.52148 -32.6855 11.6494 -47.9102c1.32031 -3.27637 2.80078 -7.49023 4.86523 -10.501c7.03613 -10.2656 3.80176 -7.04395 9.4541 -2.2959c5.81641 4.88672 8.40723 21.2129 10.6318 28.3457
c2.30078 7.38086 4.34082 14.8584 6.27539 22.3447c3.86914 14.959 7.13281 30.0869 9.78613 45.3115c5.54688 31.7988 8.33984 64.0176 9.09668 96.2744zM445.61 442.938c-4.79004 -13.7568 -9.34277 -27.5947 -13.6953 -41.4941
c0.336914 -1.14844 0.643555 -2.30957 0.975586 -3.46191c13.8994 3.10352 27.7529 6.43848 41.543 9.85742c50.2822 12.4658 98.6592 30.6338 148.449 44.6885c10.4678 2.95215 22.8193 5.9209 36.2393 8.43555c-2.74219 33.1699 -5.66113 66.2969 -9.94629 99.3105
c-3.81055 29.3467 -6.74609 60.5098 -15.834 88.792c-4.02051 12.5156 -10.8252 26.4824 -22.7568 33.3252c-14.4297 8.27246 -27.7744 -0.0380859 -39.0205 -9.47949c-20.0947 -16.8643 -36.7109 -38.876 -50.5391 -60.9717
c-32.623 -52.1367 -55.2656 -111.146 -75.415 -169.002z" />
    <glyph glyph-name="A" unicode="&#xc3;" horiz-adv-x="1076" 
d="M57.4883 394.29c-46.7119 30.3984 -68.5557 85.79 -63.8877 140.186c5.01758 58.5332 35.8193 119.666 82.5811 155.956c47.6035 36.9375 111.162 39.3008 164.274 12.583c55.4971 -27.9121 92.4307 -81.1592 122.084 -133.893
c20.8389 -37.0508 38.1865 -75.8301 52.54 -115.729c5.87109 16.4814 12.0488 32.8711 18.5469 49.1465c23.6816 59.3281 50.5723 120.015 94.6719 167.29c34.583 37.0762 93.4062 70.2158 129.565 16.0811c16.9951 -25.4434 25.6289 -55.6016 34.4482 -84.582
c10.4219 -34.2373 19.3086 -69.0215 26.542 -104.075c2.03516 -9.85352 3.88965 -19.7412 5.64355 -29.6455c56.502 0.264648 111.007 -16.3389 119.161 -75.8311c2.22461 -16.2256 -31.79 -27.5303 -34.2842 -9.13965c-5.35742 39.4824 -43.3213 53.6426 -80.2627 56.9062
c8.20898 -53.71 13.0918 -107.966 17.4189 -162.079c5.8125 -72.668 11.208 -145.492 21.4062 -217.706c8.81445 -62.4189 22.8525 -136.328 61.7881 -187.901c17.2432 -22.8408 46.0469 -47.4902 74.5273 -27.9805c26.7266 18.3115 44.499 52.6924 60.4463 79.9404
c36.1719 61.8096 63.2812 128.132 81.4707 197.368c4 15.2246 38.0908 21.2129 33.1455 2.00586c-17.167 -66.6885 -42.3799 -131.244 -75.7852 -191.502c-26.2217 -47.3047 -58.457 -110.649 -114.946 -126.496c-61.3887 -17.2266 -116.784 25.6279 -147.788 74.959
c-34.793 55.3584 -46.6611 124.124 -53.7139 188.138c-13.4326 121.907 -16.6494 244.728 -25.9229 366.984c-40.5547 -7.75977 -79.7676 -22.8281 -118.98 -35.1338c-33.6572 -10.5645 -67.9199 -19.5557 -102.507 -26.8398
c34.4355 -132.627 46.4385 -278.148 13.2441 -412.024c-6.52246 -26.3145 -12.0146 -61.3809 -34.7207 -79.3174c-19.2998 -15.2451 -45.6436 -13.6807 -60.0264 6.98535c-17.5713 25.25 -21.5703 63.416 -23.5049 93.2129
c-2.3252 35.7646 0.0302734 71.8232 2.87305 107.491c7.39746 92.8555 23.7822 184.575 48.9902 273.939c-36.416 -4.83691 -75.6035 -1.18262 -96.291 33.4043c-7.81445 13.0625 20.8467 27.1807 28.9971 14.1436c16.3516 -26.1631 47.9736 -25.6416 75.0742 -20.9648
c0.53418 1.75391 1.05566 3.50781 1.59375 5.25781c-22.7988 81.1045 -57.2803 160.312 -109.135 224.376c-36.0332 44.5166 -93.4268 85.9287 -153.979 71.3857c-56.3125 -13.5205 -91.6816 -78.0977 -102.565 -130.625
c-11.1494 -53.7891 4.86133 -114.69 53.4229 -145.315c45.7822 -28.876 110.431 -9.88379 120.47 46.8457c2.50684 14.1602 33.1533 19.7793 30.1084 1.82129c-4.09668 -24.1318 -17.1084 -44.9658 -35.8652 -60.5645c-40.1846 -33.4131 -97.0273 -37.5977 -140.87 -9.0625z
M434.768 100.626c1.43848 61.4561 -4.31836 122.948 -14.3701 183.547c-2.54004 15.3037 -5.43359 30.7637 -8.67578 46.2822c-5.63965 -22.041 -10.749 -44.2168 -15.2998 -66.5107c-13.168 -64.4971 -21.9111 -129.957 -25.3975 -195.703
c-1.75 -33.0098 -2.6123 -66.3555 1.98438 -99.1846c2.2666 -16.1953 5.52148 -32.6855 11.6494 -47.9102c1.32031 -3.27637 2.80078 -7.49023 4.86523 -10.501c7.03613 -10.2656 3.80176 -7.04395 9.4541 -2.2959c5.81641 4.88672 8.40723 21.2129 10.6318 28.3457
c2.30078 7.38086 4.34082 14.8584 6.27539 22.3447c3.86914 14.959 7.13281 30.0869 9.78613 45.3115c5.54688 31.7988 8.33984 64.0176 9.09668 96.2744zM445.61 442.938c-4.79004 -13.7568 -9.34277 -27.5947 -13.6953 -41.4941
c0.336914 -1.14844 0.643555 -2.30957 0.975586 -3.46191c13.8994 3.10352 27.7529 6.43848 41.543 9.85742c50.2822 12.4658 98.6592 30.6338 148.449 44.6885c10.4678 2.95215 22.8193 5.9209 36.2393 8.43555c-2.74219 33.1699 -5.66113 66.2969 -9.94629 99.3105
c-3.81055 29.3467 -6.74609 60.5098 -15.834 88.792c-4.02051 12.5156 -10.8252 26.4824 -22.7568 33.3252c-14.4297 8.27246 -27.7744 -0.0380859 -39.0205 -9.47949c-20.0947 -16.8643 -36.7109 -38.876 -50.5391 -60.9717
c-32.623 -52.1367 -55.2656 -111.146 -75.415 -169.002z" />
    <glyph glyph-name="A" unicode="&#xc2;" horiz-adv-x="1076" 
d="M57.4883 394.29c-46.7119 30.3984 -68.5557 85.79 -63.8877 140.186c5.01758 58.5332 35.8193 119.666 82.5811 155.956c47.6035 36.9375 111.162 39.3008 164.274 12.583c55.4971 -27.9121 92.4307 -81.1592 122.084 -133.893
c20.8389 -37.0508 38.1865 -75.8301 52.54 -115.729c5.87109 16.4814 12.0488 32.8711 18.5469 49.1465c23.6816 59.3281 50.5723 120.015 94.6719 167.29c34.583 37.0762 93.4062 70.2158 129.565 16.0811c16.9951 -25.4434 25.6289 -55.6016 34.4482 -84.582
c10.4219 -34.2373 19.3086 -69.0215 26.542 -104.075c2.03516 -9.85352 3.88965 -19.7412 5.64355 -29.6455c56.502 0.264648 111.007 -16.3389 119.161 -75.8311c2.22461 -16.2256 -31.79 -27.5303 -34.2842 -9.13965c-5.35742 39.4824 -43.3213 53.6426 -80.2627 56.9062
c8.20898 -53.71 13.0918 -107.966 17.4189 -162.079c5.8125 -72.668 11.208 -145.492 21.4062 -217.706c8.81445 -62.4189 22.8525 -136.328 61.7881 -187.901c17.2432 -22.8408 46.0469 -47.4902 74.5273 -27.9805c26.7266 18.3115 44.499 52.6924 60.4463 79.9404
c36.1719 61.8096 63.2812 128.132 81.4707 197.368c4 15.2246 38.0908 21.2129 33.1455 2.00586c-17.167 -66.6885 -42.3799 -131.244 -75.7852 -191.502c-26.2217 -47.3047 -58.457 -110.649 -114.946 -126.496c-61.3887 -17.2266 -116.784 25.6279 -147.788 74.959
c-34.793 55.3584 -46.6611 124.124 -53.7139 188.138c-13.4326 121.907 -16.6494 244.728 -25.9229 366.984c-40.5547 -7.75977 -79.7676 -22.8281 -118.98 -35.1338c-33.6572 -10.5645 -67.9199 -19.5557 -102.507 -26.8398
c34.4355 -132.627 46.4385 -278.148 13.2441 -412.024c-6.52246 -26.3145 -12.0146 -61.3809 -34.7207 -79.3174c-19.2998 -15.2451 -45.6436 -13.6807 -60.0264 6.98535c-17.5713 25.25 -21.5703 63.416 -23.5049 93.2129
c-2.3252 35.7646 0.0302734 71.8232 2.87305 107.491c7.39746 92.8555 23.7822 184.575 48.9902 273.939c-36.416 -4.83691 -75.6035 -1.18262 -96.291 33.4043c-7.81445 13.0625 20.8467 27.1807 28.9971 14.1436c16.3516 -26.1631 47.9736 -25.6416 75.0742 -20.9648
c0.53418 1.75391 1.05566 3.50781 1.59375 5.25781c-22.7988 81.1045 -57.2803 160.312 -109.135 224.376c-36.0332 44.5166 -93.4268 85.9287 -153.979 71.3857c-56.3125 -13.5205 -91.6816 -78.0977 -102.565 -130.625
c-11.1494 -53.7891 4.86133 -114.69 53.4229 -145.315c45.7822 -28.876 110.431 -9.88379 120.47 46.8457c2.50684 14.1602 33.1533 19.7793 30.1084 1.82129c-4.09668 -24.1318 -17.1084 -44.9658 -35.8652 -60.5645c-40.1846 -33.4131 -97.0273 -37.5977 -140.87 -9.0625z
M434.768 100.626c1.43848 61.4561 -4.31836 122.948 -14.3701 183.547c-2.54004 15.3037 -5.43359 30.7637 -8.67578 46.2822c-5.63965 -22.041 -10.749 -44.2168 -15.2998 -66.5107c-13.168 -64.4971 -21.9111 -129.957 -25.3975 -195.703
c-1.75 -33.0098 -2.6123 -66.3555 1.98438 -99.1846c2.2666 -16.1953 5.52148 -32.6855 11.6494 -47.9102c1.32031 -3.27637 2.80078 -7.49023 4.86523 -10.501c7.03613 -10.2656 3.80176 -7.04395 9.4541 -2.2959c5.81641 4.88672 8.40723 21.2129 10.6318 28.3457
c2.30078 7.38086 4.34082 14.8584 6.27539 22.3447c3.86914 14.959 7.13281 30.0869 9.78613 45.3115c5.54688 31.7988 8.33984 64.0176 9.09668 96.2744zM445.61 442.938c-4.79004 -13.7568 -9.34277 -27.5947 -13.6953 -41.4941
c0.336914 -1.14844 0.643555 -2.30957 0.975586 -3.46191c13.8994 3.10352 27.7529 6.43848 41.543 9.85742c50.2822 12.4658 98.6592 30.6338 148.449 44.6885c10.4678 2.95215 22.8193 5.9209 36.2393 8.43555c-2.74219 33.1699 -5.66113 66.2969 -9.94629 99.3105
c-3.81055 29.3467 -6.74609 60.5098 -15.834 88.792c-4.02051 12.5156 -10.8252 26.4824 -22.7568 33.3252c-14.4297 8.27246 -27.7744 -0.0380859 -39.0205 -9.47949c-20.0947 -16.8643 -36.7109 -38.876 -50.5391 -60.9717
c-32.623 -52.1367 -55.2656 -111.146 -75.415 -169.002z" />
    <glyph glyph-name="A" unicode="&#xc1;" horiz-adv-x="1076" 
d="M57.4883 394.29c-46.7119 30.3984 -68.5557 85.79 -63.8877 140.186c5.01758 58.5332 35.8193 119.666 82.5811 155.956c47.6035 36.9375 111.162 39.3008 164.274 12.583c55.4971 -27.9121 92.4307 -81.1592 122.084 -133.893
c20.8389 -37.0508 38.1865 -75.8301 52.54 -115.729c5.87109 16.4814 12.0488 32.8711 18.5469 49.1465c23.6816 59.3281 50.5723 120.015 94.6719 167.29c34.583 37.0762 93.4062 70.2158 129.565 16.0811c16.9951 -25.4434 25.6289 -55.6016 34.4482 -84.582
c10.4219 -34.2373 19.3086 -69.0215 26.542 -104.075c2.03516 -9.85352 3.88965 -19.7412 5.64355 -29.6455c56.502 0.264648 111.007 -16.3389 119.161 -75.8311c2.22461 -16.2256 -31.79 -27.5303 -34.2842 -9.13965c-5.35742 39.4824 -43.3213 53.6426 -80.2627 56.9062
c8.20898 -53.71 13.0918 -107.966 17.4189 -162.079c5.8125 -72.668 11.208 -145.492 21.4062 -217.706c8.81445 -62.4189 22.8525 -136.328 61.7881 -187.901c17.2432 -22.8408 46.0469 -47.4902 74.5273 -27.9805c26.7266 18.3115 44.499 52.6924 60.4463 79.9404
c36.1719 61.8096 63.2812 128.132 81.4707 197.368c4 15.2246 38.0908 21.2129 33.1455 2.00586c-17.167 -66.6885 -42.3799 -131.244 -75.7852 -191.502c-26.2217 -47.3047 -58.457 -110.649 -114.946 -126.496c-61.3887 -17.2266 -116.784 25.6279 -147.788 74.959
c-34.793 55.3584 -46.6611 124.124 -53.7139 188.138c-13.4326 121.907 -16.6494 244.728 -25.9229 366.984c-40.5547 -7.75977 -79.7676 -22.8281 -118.98 -35.1338c-33.6572 -10.5645 -67.9199 -19.5557 -102.507 -26.8398
c34.4355 -132.627 46.4385 -278.148 13.2441 -412.024c-6.52246 -26.3145 -12.0146 -61.3809 -34.7207 -79.3174c-19.2998 -15.2451 -45.6436 -13.6807 -60.0264 6.98535c-17.5713 25.25 -21.5703 63.416 -23.5049 93.2129
c-2.3252 35.7646 0.0302734 71.8232 2.87305 107.491c7.39746 92.8555 23.7822 184.575 48.9902 273.939c-36.416 -4.83691 -75.6035 -1.18262 -96.291 33.4043c-7.81445 13.0625 20.8467 27.1807 28.9971 14.1436c16.3516 -26.1631 47.9736 -25.6416 75.0742 -20.9648
c0.53418 1.75391 1.05566 3.50781 1.59375 5.25781c-22.7988 81.1045 -57.2803 160.312 -109.135 224.376c-36.0332 44.5166 -93.4268 85.9287 -153.979 71.3857c-56.3125 -13.5205 -91.6816 -78.0977 -102.565 -130.625
c-11.1494 -53.7891 4.86133 -114.69 53.4229 -145.315c45.7822 -28.876 110.431 -9.88379 120.47 46.8457c2.50684 14.1602 33.1533 19.7793 30.1084 1.82129c-4.09668 -24.1318 -17.1084 -44.9658 -35.8652 -60.5645c-40.1846 -33.4131 -97.0273 -37.5977 -140.87 -9.0625z
M434.768 100.626c1.43848 61.4561 -4.31836 122.948 -14.3701 183.547c-2.54004 15.3037 -5.43359 30.7637 -8.67578 46.2822c-5.63965 -22.041 -10.749 -44.2168 -15.2998 -66.5107c-13.168 -64.4971 -21.9111 -129.957 -25.3975 -195.703
c-1.75 -33.0098 -2.6123 -66.3555 1.98438 -99.1846c2.2666 -16.1953 5.52148 -32.6855 11.6494 -47.9102c1.32031 -3.27637 2.80078 -7.49023 4.86523 -10.501c7.03613 -10.2656 3.80176 -7.04395 9.4541 -2.2959c5.81641 4.88672 8.40723 21.2129 10.6318 28.3457
c2.30078 7.38086 4.34082 14.8584 6.27539 22.3447c3.86914 14.959 7.13281 30.0869 9.78613 45.3115c5.54688 31.7988 8.33984 64.0176 9.09668 96.2744zM445.61 442.938c-4.79004 -13.7568 -9.34277 -27.5947 -13.6953 -41.4941
c0.336914 -1.14844 0.643555 -2.30957 0.975586 -3.46191c13.8994 3.10352 27.7529 6.43848 41.543 9.85742c50.2822 12.4658 98.6592 30.6338 148.449 44.6885c10.4678 2.95215 22.8193 5.9209 36.2393 8.43555c-2.74219 33.1699 -5.66113 66.2969 -9.94629 99.3105
c-3.81055 29.3467 -6.74609 60.5098 -15.834 88.792c-4.02051 12.5156 -10.8252 26.4824 -22.7568 33.3252c-14.4297 8.27246 -27.7744 -0.0380859 -39.0205 -9.47949c-20.0947 -16.8643 -36.7109 -38.876 -50.5391 -60.9717
c-32.623 -52.1367 -55.2656 -111.146 -75.415 -169.002z" />
    <glyph glyph-name="B" unicode="B" horiz-adv-x="884" 
d="M232.154 366.15c-41.9678 -78.1816 -160.541 -40.8857 -206.626 11.7979c-51.1738 58.4785 -50.6982 146.207 -5.69043 208.206c23.3115 32.1094 58.2852 56.9053 98.041 62.7217c38.5527 5.64355 77.2275 -9.76172 107.882 -32.459
c73.8926 -54.7148 95.4424 -163.169 110.233 -248.21c7.21289 -41.4717 11.9023 -83.3467 15.3887 -125.364c11.3633 56.9307 24.2783 113.538 39.877 169.455c22.4873 80.6123 48.957 163.479 95.1299 234.041c20.25 30.9492 44.7266 63.6943 75.751 84.6172
c25.3467 17.0918 65.0684 26.1846 84.7549 -4.12109c18.5381 -28.5391 8.69727 -67.4072 1.21973 -97.835c-9.68945 -39.4277 -24.1904 -77.5137 -42.9346 -113.501c-28.0176 -53.7939 -62.5537 -103.799 -98.9619 -152.318
c56.25 2.72949 112.146 -14.0547 148.634 -61.4766c42.9219 -55.7871 50.1475 -129.036 40.79 -198.314c60.0684 7.84766 119.212 20.498 176.328 43.0361c18.3828 7.25 28.7627 -13.1973 10.0439 -20.5908c-61.8096 -24.4092 -125.592 -37.9727 -190.282 -46.3965
c-2.89355 -15.207 -6.48535 -30.0947 -10.6025 -44.4189c-43.4229 -151.124 -139.798 -304.267 -295.127 -356.903c-70.7295 -23.9678 -146.312 -19.0176 -211.937 17.209c-59.7236 32.9678 -99.3486 90.7949 -104.614 159.22
c-5.32422 69.1396 28.2236 130.184 86.7568 166.204c37.9805 23.375 81.3867 36.5801 125.685 45.2012c-5.8916 81.3232 -5.97559 162.967 -12.4854 244.261c-5.97656 74.6533 -12.457 153.925 -40.7607 224.027c-12.8818 31.9121 -33.7627 64.6445 -66.1963 79.3848
c-35.2256 16.0107 -72.7607 6.49805 -99.8662 -20.0352c-47.1699 -46.1777 -55.5977 -124.952 -19.5352 -180.045c17.0283 -26.0156 43.1787 -46.207 72.458 -56.5527c26.4199 -9.33203 70.8438 -14.8076 87.2705 14.0088c7.62891 13.3906 39.4482 13.9121 29.376 -4.84863z
M613.537 53.2012c1.30371 6.04297 2.50781 12.2227 3.58008 18.5059c-69.6992 -5.68555 -139.979 -7.99414 -209.556 -13.8691c-14.7783 -1.24902 -30.8984 -2.62891 -47.7549 -4.41602c-12.835 -28.623 -69.4131 -43.9395 -75.8936 -11.1357
c-95.1221 -19.0088 -186.581 -61.292 -182.014 -169.687c2.75 -65.2158 45.1045 -119.812 103.36 -146.59c58.3486 -26.8193 129.7 -21.5918 187.081 5.11816c121.785 56.6875 193.974 196.069 221.196 322.073zM524.363 649.521
c-19.7285 -28.1777 -35.6035 -59.0586 -49.2461 -90.584c-31.3613 -72.4912 -53.2891 -148.658 -71.1543 -225.953c53.0742 61.7295 106.073 124.359 147.363 194.808c18.2061 31.0664 35.6172 63.126 48.9023 96.6357c7.79688 19.6611 32.7861 73.1982 8.17969 90.0371
c-27.0928 18.542 -71.4238 -46.9141 -84.0449 -64.9434zM396.893 301.4c-13.6387 -62.7344 -25.1152 -125.969 -37.2188 -188.388c0.652344 -11.7803 1.31641 -23.5518 2.01465 -35.3066c2.37988 0.273438 4.76855 0.555664 7.13672 0.825195
c82.8838 9.38281 167.719 10.6777 251.633 17.2002c5.92188 54.6436 0.442383 113.833 -31.1328 158.265c-36.5469 51.4297 -100.014 53.3936 -154.771 34.502c-17.1465 -5.91699 -32.1104 1.15234 -37.6621 12.9023z" />
    <glyph glyph-name="C" unicode="C" horiz-adv-x="638" 
d="M244.893 -303.556c-96.9473 57.2334 -131.438 185.572 -146.784 289.791c-12.1963 82.8545 -11.8682 168.497 -1.64844 252.331c-63.1553 21.2168 -111.149 71.209 -119.952 144.832c-11.5488 96.5684 48.0146 210.287 155.488 211.317
c22.3232 0.209961 10.5684 -25.9062 -6.29199 -26.2891c-114.749 -2.60352 -142.637 -163.392 -92.4385 -243.727c16.6455 -26.6338 40.2725 -44.8398 67.251 -56.0264c3.22559 21.3984 7.08594 42.6367 11.5439 63.6436c22.1338 104.307 66.541 212.1 143.049 288.616
c35.668 35.6719 90.0713 73.3418 143.402 64.9141c48.0996 -7.60352 78.7041 -43.5654 85.6934 -90.542c26.2217 -176.269 -127.413 -360.587 -304.426 -367.984c-1.08496 -10.8291 -2.00586 -21.6543 -2.7666 -32.4541
c-6.89746 -98.0488 -0.59375 -197.759 23.3525 -293.264c18.6514 -74.4053 57.2461 -194.807 152.461 -195.034c43.0605 -0.100586 79.6621 33.4268 105.581 64.5273c29.1699 35.0029 51.5811 75.9902 70.498 117.276c39.0576 85.251 61.4609 177.143 83.9814 267.807
c3.69629 14.8877 36.8232 20.8428 32.3145 1.95508c-28.8711 -120.915 -59.248 -245.026 -126.323 -351.382c-29.1367 -46.1943 -66.0908 -90.6982 -116.142 -115.023c-50.8535 -24.7158 -108.798 -24.2402 -157.844 4.71484zM291.499 567.591
c-24.4805 -34.5488 -43.8818 -73.1943 -59.2949 -112.542c-24.998 -63.7988 -40.6133 -131.938 -49.2852 -200.329c31.8408 0.988281 63.6641 8.40723 91.2568 20.7383c70.2373 31.3867 125.322 91.6152 154.277 162.534c21.5498 52.7842 50.9512 212.054 -48.418 200.648
c-41.0049 -4.70605 -66.1797 -39.499 -88.5361 -71.0498z" />
    <glyph glyph-name="D" unicode="D" horiz-adv-x="926" 
d="M765.04 400.245c15.5986 -93.1416 14.4941 -188.85 -2.06738 -281.814c54.6807 7.72949 107.275 25.3467 153.138 58.4785c14.4668 10.4512 34.624 -3.65039 17.3936 -16.0947c-52.2666 -37.7578 -112.692 -58.2598 -175.335 -67.0371
c-2.69141 -12.873 -5.63574 -25.6914 -8.91602 -38.4258c-27.6182 -107.188 -77.3193 -214.338 -165.817 -284.482c-90.0791 -71.3945 -210.733 -87.8379 -317.749 -46.7871c-43.9824 16.8682 -86.0127 44.4951 -116.217 80.9033
c-34.6289 41.7451 -50.4424 89.6338 -51.498 143.667c-0.962891 49.1719 8.28906 100.337 37.3496 141.105c27.5674 38.6748 70.3125 59.9639 116.582 66.7812c8.31836 1.22852 16.6875 2.01465 25.082 2.50684c-1.98047 50.417 -3.53223 100.858 -7.56152 151.166
c-5.97656 74.6533 -12.457 153.925 -40.7607 224.027c-12.8818 31.9121 -33.7627 64.6445 -66.1963 79.3848c-35.2256 16.0107 -72.7607 6.49805 -99.8662 -20.0352c-47.1699 -46.1777 -55.5977 -124.952 -19.5352 -180.045
c17.0283 -26.0156 43.1787 -46.207 72.458 -56.5527c26.4199 -9.33203 70.8438 -14.8076 87.2705 14.0088c7.62891 13.3906 39.4482 13.9121 29.376 -4.84863c-41.9678 -78.1865 -160.54 -40.8916 -206.642 11.792c-51.1738 58.4785 -50.6982 146.207 -5.69043 208.206
c23.3115 32.1094 58.2852 56.9053 98.041 62.7217c38.5527 5.64355 77.2275 -9.76172 107.882 -32.459c73.8926 -54.7148 95.4424 -163.169 110.233 -248.21c7.6709 -44.1035 12.499 -88.6572 16.0488 -133.362c13.7188 71.1035 31.3818 141.463 55.6904 209.182
c20.5986 57.3848 45.8994 114.186 79.6494 165.145c28.5645 43.1328 78.4219 86.9844 134.234 67.5459c46.3418 -16.1367 77.6523 -71.9404 96.6611 -114.038c23.0801 -51.1191 37.5176 -107.23 46.7617 -162.429zM577.708 -158.268
c60.918 67.6338 93.5859 158.609 113.508 246.91c-14.4629 -0.269531 -28.9346 -0.046875 -43.3389 0.638672c-93.835 4.45801 -186.03 29.0986 -279.247 39.7012c-2.45996 -14.0635 -4.94141 -28.123 -7.47754 -42.1777
c0.386719 -6.7041 0.782227 -13.4082 1.19434 -20.1035c2.30078 -37.4424 -75.2881 -63.4873 -78.9219 -21.0361c-2.50684 29.2881 -4.08398 58.626 -5.375 87.9766c-40.8906 -1.48047 -82.9883 -11.1406 -108.781 -45.5801
c-29.0859 -38.8428 -34.9111 -95.875 -25.3223 -142.296c19.0215 -92.1025 93.3389 -155.229 182.132 -177.543c47.7002 -11.9902 98.7432 -13.6055 145.98 1.3623c41.0928 13.0166 77.0762 40.4287 105.649 72.1475zM597.137 119.293
c32.5391 -3.85254 66.002 -6.1582 99.3945 -5.72949c20.3174 101.426 21.5879 206.936 5.62305 309.06c-7.88086 50.4082 -17.5664 102.268 -36.7227 149.77c-17.9785 44.5791 -63.0498 105.905 -115.347 65.3594c-37.2822 -28.9053 -60.2998 -83.5107 -79.5996 -125.272
c-21.1875 -45.8447 -37.8496 -93.6201 -51.5977 -142.187c-20.1611 -71.2383 -33.2148 -143.797 -45.9199 -216.507c12.8057 -1.69922 25.54 -3.5957 38.127 -5.47559c62.0742 -9.26465 123.69 -21.6328 186.042 -29.0176z" />
    <glyph glyph-name="E" unicode="E" horiz-adv-x="639" 
d="M103.436 291.169c15.3506 84.4609 41.9102 169.392 87.1914 242.792c39.6162 64.2314 105.14 147.767 188.162 148.31c34.3008 0.222656 69.4424 -11.0605 88.7715 -41.0928c19.5137 -30.3184 20.1113 -70.7256 17.4824 -105.493
c-5.15137 -68.1055 -32.7021 -132.838 -75.4229 -185.857c-52.6123 -65.292 -138.814 -116.663 -225.206 -123.258c0.390625 -3.38574 0.874023 -6.77148 1.51758 -10.1523c3.20898 -16.8604 12.1416 -35.8359 21.3311 -47.3506
c5.83301 -7.30957 12.7471 -13.9043 19.9727 -19.8262c6.99414 -5.73242 9.20605 -7.16699 13.6729 -9.75391c11.54 -6.67871 23.5088 -11.498 35.915 -16.2207c0.256836 -0.0966797 0.429688 -0.164062 0.639648 -0.248047
c0.580078 -0.129883 1.4209 -0.332031 2.64062 -0.647461c1.2832 -0.332031 2.57422 -0.634766 3.87402 -0.891602c31.5332 -6.21191 28.085 -40.584 5.52637 -56.3545c-2.37207 -1.65723 -4.64746 -3.46582 -6.90625 -5.27441
c-2.62012 -2.09863 -5.08887 -4.37793 -7.69238 -6.49707c-0.328125 -0.269531 -0.512695 -0.404297 -0.638672 -0.484375c-0.530273 -0.550781 -1.14844 -1.19824 -1.98145 -2.05176c-18.0166 -18.5508 -29.2578 -32.0215 -40.5332 -52.3643
c-31.7354 -57.251 -30.9746 -121.967 -5.87109 -181.606c29.46 -69.9932 96.4805 -142.077 176.808 -95.584c68.2773 39.5195 109.105 123.703 138.103 193.696c32.1562 77.627 52.2002 159.871 72.3955 241.22c3.69629 14.8916 36.8281 20.8428 32.3154 1.95508
c-25.0654 -104.925 -51.1191 -211.069 -101.153 -307.402c-37.833 -72.8408 -95.1553 -155.569 -181.475 -172.526c-90.6768 -17.8105 -175.419 44.7979 -211.608 125.756c-40.5166 90.6514 -17.2305 193.769 46.1562 265.751
c-15.8721 7.71289 -30.7725 17.4365 -43.7129 28.4092c-42.96 36.4326 -56.8682 86.3945 -55.9727 138.455c-17.2139 5.70703 -33.9609 13.7275 -49.9043 24.5146c-125.566 84.9365 -79.3721 332.031 84.4648 333.629c22.3232 0.214844 10.5732 -25.9102 -6.29102 -26.2891
c-85.8652 -1.93066 -123.497 -98.8691 -115.939 -172.773c5.97656 -58.3984 40.1514 -103.772 90.0801 -125.99c0.891602 7.18359 1.98926 14.3623 3.28906 21.5029zM217.804 414.122c-10.459 -33.4004 -18.6611 -67.459 -25.6934 -101.743
c-3.91992 -19.0977 -7.58301 -38.5195 -8.5166 -57.9951c103.415 2.65332 195.913 77.4033 239.201 169.884c23.6357 50.4961 39.4316 118.74 20.999 173.253c-10.623 31.416 -40.3857 54.0293 -74.2744 43.0986c-28.5098 -9.19336 -50.2695 -32.0469 -67.3018 -55.6152
c-37.6943 -52.1494 -65.2236 -109.594 -84.4141 -170.882z" />
    <glyph glyph-name="E" unicode="&#xcb;" horiz-adv-x="639" 
d="M103.436 291.169c15.3506 84.4609 41.9102 169.392 87.1914 242.792c39.6162 64.2314 105.14 147.767 188.162 148.31c34.3008 0.222656 69.4424 -11.0605 88.7715 -41.0928c19.5137 -30.3184 20.1113 -70.7256 17.4824 -105.493
c-5.15137 -68.1055 -32.7021 -132.838 -75.4229 -185.857c-52.6123 -65.292 -138.814 -116.663 -225.206 -123.258c0.390625 -3.38574 0.874023 -6.77148 1.51758 -10.1523c3.20898 -16.8604 12.1416 -35.8359 21.3311 -47.3506
c5.83301 -7.30957 12.7471 -13.9043 19.9727 -19.8262c6.99414 -5.73242 9.20605 -7.16699 13.6729 -9.75391c11.54 -6.67871 23.5088 -11.498 35.915 -16.2207c0.256836 -0.0966797 0.429688 -0.164062 0.639648 -0.248047
c0.580078 -0.129883 1.4209 -0.332031 2.64062 -0.647461c1.2832 -0.332031 2.57422 -0.634766 3.87402 -0.891602c31.5332 -6.21191 28.085 -40.584 5.52637 -56.3545c-2.37207 -1.65723 -4.64746 -3.46582 -6.90625 -5.27441
c-2.62012 -2.09863 -5.08887 -4.37793 -7.69238 -6.49707c-0.328125 -0.269531 -0.512695 -0.404297 -0.638672 -0.484375c-0.530273 -0.550781 -1.14844 -1.19824 -1.98145 -2.05176c-18.0166 -18.5508 -29.2578 -32.0215 -40.5332 -52.3643
c-31.7354 -57.251 -30.9746 -121.967 -5.87109 -181.606c29.46 -69.9932 96.4805 -142.077 176.808 -95.584c68.2773 39.5195 109.105 123.703 138.103 193.696c32.1562 77.627 52.2002 159.871 72.3955 241.22c3.69629 14.8916 36.8281 20.8428 32.3154 1.95508
c-25.0654 -104.925 -51.1191 -211.069 -101.153 -307.402c-37.833 -72.8408 -95.1553 -155.569 -181.475 -172.526c-90.6768 -17.8105 -175.419 44.7979 -211.608 125.756c-40.5166 90.6514 -17.2305 193.769 46.1562 265.751
c-15.8721 7.71289 -30.7725 17.4365 -43.7129 28.4092c-42.96 36.4326 -56.8682 86.3945 -55.9727 138.455c-17.2139 5.70703 -33.9609 13.7275 -49.9043 24.5146c-125.566 84.9365 -79.3721 332.031 84.4648 333.629c22.3232 0.214844 10.5732 -25.9102 -6.29102 -26.2891
c-85.8652 -1.93066 -123.497 -98.8691 -115.939 -172.773c5.97656 -58.3984 40.1514 -103.772 90.0801 -125.99c0.891602 7.18359 1.98926 14.3623 3.28906 21.5029zM217.804 414.122c-10.459 -33.4004 -18.6611 -67.459 -25.6934 -101.743
c-3.91992 -19.0977 -7.58301 -38.5195 -8.5166 -57.9951c103.415 2.65332 195.913 77.4033 239.201 169.884c23.6357 50.4961 39.4316 118.74 20.999 173.253c-10.623 31.416 -40.3857 54.0293 -74.2744 43.0986c-28.5098 -9.19336 -50.2695 -32.0469 -67.3018 -55.6152
c-37.6943 -52.1494 -65.2236 -109.594 -84.4141 -170.882z" />
    <glyph glyph-name="E" unicode="&#xca;" horiz-adv-x="639" 
d="M103.436 291.169c15.3506 84.4609 41.9102 169.392 87.1914 242.792c39.6162 64.2314 105.14 147.767 188.162 148.31c34.3008 0.222656 69.4424 -11.0605 88.7715 -41.0928c19.5137 -30.3184 20.1113 -70.7256 17.4824 -105.493
c-5.15137 -68.1055 -32.7021 -132.838 -75.4229 -185.857c-52.6123 -65.292 -138.814 -116.663 -225.206 -123.258c0.390625 -3.38574 0.874023 -6.77148 1.51758 -10.1523c3.20898 -16.8604 12.1416 -35.8359 21.3311 -47.3506
c5.83301 -7.30957 12.7471 -13.9043 19.9727 -19.8262c6.99414 -5.73242 9.20605 -7.16699 13.6729 -9.75391c11.54 -6.67871 23.5088 -11.498 35.915 -16.2207c0.256836 -0.0966797 0.429688 -0.164062 0.639648 -0.248047
c0.580078 -0.129883 1.4209 -0.332031 2.64062 -0.647461c1.2832 -0.332031 2.57422 -0.634766 3.87402 -0.891602c31.5332 -6.21191 28.085 -40.584 5.52637 -56.3545c-2.37207 -1.65723 -4.64746 -3.46582 -6.90625 -5.27441
c-2.62012 -2.09863 -5.08887 -4.37793 -7.69238 -6.49707c-0.328125 -0.269531 -0.512695 -0.404297 -0.638672 -0.484375c-0.530273 -0.550781 -1.14844 -1.19824 -1.98145 -2.05176c-18.0166 -18.5508 -29.2578 -32.0215 -40.5332 -52.3643
c-31.7354 -57.251 -30.9746 -121.967 -5.87109 -181.606c29.46 -69.9932 96.4805 -142.077 176.808 -95.584c68.2773 39.5195 109.105 123.703 138.103 193.696c32.1562 77.627 52.2002 159.871 72.3955 241.22c3.69629 14.8916 36.8281 20.8428 32.3154 1.95508
c-25.0654 -104.925 -51.1191 -211.069 -101.153 -307.402c-37.833 -72.8408 -95.1553 -155.569 -181.475 -172.526c-90.6768 -17.8105 -175.419 44.7979 -211.608 125.756c-40.5166 90.6514 -17.2305 193.769 46.1562 265.751
c-15.8721 7.71289 -30.7725 17.4365 -43.7129 28.4092c-42.96 36.4326 -56.8682 86.3945 -55.9727 138.455c-17.2139 5.70703 -33.9609 13.7275 -49.9043 24.5146c-125.566 84.9365 -79.3721 332.031 84.4648 333.629c22.3232 0.214844 10.5732 -25.9102 -6.29102 -26.2891
c-85.8652 -1.93066 -123.497 -98.8691 -115.939 -172.773c5.97656 -58.3984 40.1514 -103.772 90.0801 -125.99c0.891602 7.18359 1.98926 14.3623 3.28906 21.5029zM217.804 414.122c-10.459 -33.4004 -18.6611 -67.459 -25.6934 -101.743
c-3.91992 -19.0977 -7.58301 -38.5195 -8.5166 -57.9951c103.415 2.65332 195.913 77.4033 239.201 169.884c23.6357 50.4961 39.4316 118.74 20.999 173.253c-10.623 31.416 -40.3857 54.0293 -74.2744 43.0986c-28.5098 -9.19336 -50.2695 -32.0469 -67.3018 -55.6152
c-37.6943 -52.1494 -65.2236 -109.594 -84.4141 -170.882z" />
    <glyph glyph-name="E" unicode="&#xc9;" horiz-adv-x="639" 
d="M103.436 291.169c15.3506 84.4609 41.9102 169.392 87.1914 242.792c39.6162 64.2314 105.14 147.767 188.162 148.31c34.3008 0.222656 69.4424 -11.0605 88.7715 -41.0928c19.5137 -30.3184 20.1113 -70.7256 17.4824 -105.493
c-5.15137 -68.1055 -32.7021 -132.838 -75.4229 -185.857c-52.6123 -65.292 -138.814 -116.663 -225.206 -123.258c0.390625 -3.38574 0.874023 -6.77148 1.51758 -10.1523c3.20898 -16.8604 12.1416 -35.8359 21.3311 -47.3506
c5.83301 -7.30957 12.7471 -13.9043 19.9727 -19.8262c6.99414 -5.73242 9.20605 -7.16699 13.6729 -9.75391c11.54 -6.67871 23.5088 -11.498 35.915 -16.2207c0.256836 -0.0966797 0.429688 -0.164062 0.639648 -0.248047
c0.580078 -0.129883 1.4209 -0.332031 2.64062 -0.647461c1.2832 -0.332031 2.57422 -0.634766 3.87402 -0.891602c31.5332 -6.21191 28.085 -40.584 5.52637 -56.3545c-2.37207 -1.65723 -4.64746 -3.46582 -6.90625 -5.27441
c-2.62012 -2.09863 -5.08887 -4.37793 -7.69238 -6.49707c-0.328125 -0.269531 -0.512695 -0.404297 -0.638672 -0.484375c-0.530273 -0.550781 -1.14844 -1.19824 -1.98145 -2.05176c-18.0166 -18.5508 -29.2578 -32.0215 -40.5332 -52.3643
c-31.7354 -57.251 -30.9746 -121.967 -5.87109 -181.606c29.46 -69.9932 96.4805 -142.077 176.808 -95.584c68.2773 39.5195 109.105 123.703 138.103 193.696c32.1562 77.627 52.2002 159.871 72.3955 241.22c3.69629 14.8916 36.8281 20.8428 32.3154 1.95508
c-25.0654 -104.925 -51.1191 -211.069 -101.153 -307.402c-37.833 -72.8408 -95.1553 -155.569 -181.475 -172.526c-90.6768 -17.8105 -175.419 44.7979 -211.608 125.756c-40.5166 90.6514 -17.2305 193.769 46.1562 265.751
c-15.8721 7.71289 -30.7725 17.4365 -43.7129 28.4092c-42.96 36.4326 -56.8682 86.3945 -55.9727 138.455c-17.2139 5.70703 -33.9609 13.7275 -49.9043 24.5146c-125.566 84.9365 -79.3721 332.031 84.4648 333.629c22.3232 0.214844 10.5732 -25.9102 -6.29102 -26.2891
c-85.8652 -1.93066 -123.497 -98.8691 -115.939 -172.773c5.97656 -58.3984 40.1514 -103.772 90.0801 -125.99c0.891602 7.18359 1.98926 14.3623 3.28906 21.5029zM217.804 414.122c-10.459 -33.4004 -18.6611 -67.459 -25.6934 -101.743
c-3.91992 -19.0977 -7.58301 -38.5195 -8.5166 -57.9951c103.415 2.65332 195.913 77.4033 239.201 169.884c23.6357 50.4961 39.4316 118.74 20.999 173.253c-10.623 31.416 -40.3857 54.0293 -74.2744 43.0986c-28.5098 -9.19336 -50.2695 -32.0469 -67.3018 -55.6152
c-37.6943 -52.1494 -65.2236 -109.594 -84.4141 -170.882z" />
    <glyph glyph-name="F" unicode="F" horiz-adv-x="487" 
d="M148.083 619.823c-118.286 18.4287 -155.224 -150.768 -103.818 -229.312c11.0479 -16.877 24.6152 -30.6465 39.8096 -41.4756c7.94824 43.7969 18.8662 86.8154 33.6406 127.887c18.2695 50.7783 42.9014 99.084 78.8174 139.815
c33.0098 37.4385 84.082 73.4092 136.731 63.2441c47.9775 -9.26074 76.1504 -58.4365 81.0117 -103.453c5.09668 -47.1953 -6.70801 -98.1338 -26.1377 -140.972c-39.7891 -87.7246 -130.07 -151.061 -227.854 -146.442
c-1.29492 -13.6387 -2.48047 -27.2227 -3.59473 -40.6719c-7.79688 -94.2178 -6.24512 -190.051 9.60547 -283.373c1.91309 -11.2588 4.01562 -22.458 6.29492 -33.6025c14.9512 19.5557 42.582 36.8369 54.5049 46.1436c79.54 62.0869 161.2 121.306 245.324 177.025
c14.6436 9.70215 35.0107 -3.93262 17.3896 -16.0947c-56.6787 -39.1201 -112.76 -79.208 -167.865 -120.516c-27.584 -20.6748 -54.916 -41.6816 -81.9912 -63.0166c-12.041 -9.48828 -27.501 -18.5391 -37.0137 -30.5254
c-15.6152 -19.6738 19.3076 -24.7373 32.749 -28.1309c53.8359 -13.5879 104.875 -28.7617 130.752 -82.7324c18.9424 -39.5068 26.3359 -100.454 -11.6572 -131.542c-36.7314 -30.0576 -99.1211 -26.9961 -138.292 -3.84863
c-47.0518 27.8076 -76.2549 73.4043 -95.4277 123.518c-41.3535 108.075 -56.8682 224.54 -55.4297 339.832c0.698242 55.9932 4.26465 113.686 12.4365 170.608c-55.249 30.3262 -93.8477 87.4131 -93.7422 154.122c0.151367 96.4551 73.501 198.479 179.25 181.9
c22.6553 -3.55371 1.21973 -30.9912 -15.4932 -28.3877zM214.106 -129.357c-8.66797 2.32129 -19.6943 4.42285 -29.291 8.40137c4.76465 -18.1055 10.0635 -36.084 15.9678 -53.9619c13.3779 -40.5078 30.5156 -82.9971 65.1064 -109.972
c16.4434 -12.8232 41.0713 -28.7246 62.4277 -18.5596c20.8682 9.93359 22.8447 36.6182 21.083 56.7969c-3.80176 43.5449 -29.7168 81.917 -70.3096 98.8906c-20.8262 8.70996 -43.2627 12.5879 -64.9844 18.4043zM206.765 516.039
c-24.1445 -61.7207 -35.8525 -129.164 -43.3008 -195.986c43.2207 -4.0166 88.5312 8.01953 125.107 35.4229c34.3809 25.7588 59.3623 62.9316 73.6826 103.204c14.6436 41.1895 23.6895 93.6074 6.11426 135.205c-17.2598 40.8447 -59.5303 58.0957 -95.3535 28.2188
c-31.7266 -26.457 -51.4971 -68.3486 -66.25 -106.064z" />
    <glyph glyph-name="G" unicode="G" horiz-adv-x="623" 
d="M30.6348 65.7539c-27.5049 85.3486 -25.6934 177.57 -12.5967 265.383c7.48145 50.1562 20.1572 100.072 39.3389 147.208c-0.685547 0.647461 -1.42188 1.22363 -2.09863 1.88379c-57.835 56.3926 -53.6416 143.523 -27.9375 214.081
c5.46289 14.9932 40.7646 20.7002 33.9727 2.05664c-21.8145 -59.8711 -27.8457 -131.787 12.0068 -182.569c10.0342 20.208 21.3975 39.7471 34.2832 58.3652c42.4258 61.3008 106.919 121.218 185.265 126.651c30.0908 2.08594 63.6641 -5.74902 87.3291 -25.0361
c28.7363 -23.4209 35.999 -60.0771 29.5557 -95.2607c-13.7188 -74.9268 -82.2617 -128.187 -153.407 -144.403c-45.29 -10.3203 -96.2998 -8.74316 -140.64 8.22656c-21.2803 -65.6826 -31.7188 -134.747 -33.4014 -203.677
c-1.69922 -69.5645 5.71484 -144.664 37.6602 -207.584c13.4873 -26.5664 35.4785 -55.5137 64.5732 -65.7842c35.2051 -12.4277 69.8047 13.9746 91.3242 39.5361c46.4844 55.2109 68.9209 130.718 89.0869 198.655c16.2715 54.8115 29.9014 110.342 41.084 166.381
c-2.25 20.3428 -4.56738 40.7148 -6.85059 61.1289c-4.33594 38.7334 74.0352 65.834 82.0088 21.8604c19.3545 -106.721 28.5986 -217.504 23.3379 -325.924c-0.862305 -17.7725 -2.08203 -35.6719 -3.75195 -53.5918c36.9883 27.1006 72.5254 56.1406 106.17 88.6035
c11.208 10.8164 38.6582 4.46582 23.5225 -10.7373c-41.4502 -41.6357 -86.1221 -78.7539 -133.544 -112.487c-8.78516 -67.9072 -25.3008 -135.176 -56.0186 -196.064c-17.7432 -35.167 -45.6309 -63.5127 -84.7676 -73.5137
c-35.1885 -8.9873 -70.1787 9.25195 -83.2959 43.1279c-30.5117 78.7871 54.542 147.485 112.02 183.451c11.7588 7.35938 23.417 14.7656 34.9824 22.2393c7.33008 86.501 3.45703 172.375 -4.27734 258.472c-13.0205 -52.6074 -28.5938 -104.563 -47.5781 -154.972
c-29.5107 -78.3584 -75.1367 -174.069 -167.967 -187.148c-37.8291 -5.32812 -78.0596 4.12988 -108.075 28.6318c-30.9531 25.2676 -49.3691 65.7549 -61.3135 102.811zM411.071 -53.8936c2.16602 13.3691 3.99121 26.7178 5.55957 40.0498
c-26.5918 -16.1914 -53.5244 -32.9336 -75.541 -55.042c-26.3398 -26.4492 -51.207 -67.9541 -35.0781 -105.985c7.42676 -17.5166 23.9004 -32.7324 44.0195 -30.3145c18.9004 2.27148 29.208 21.4531 35.5586 37.6279c13.9795 35.5957 19.3916 76.1123 25.4814 113.664z
M209.552 613.276c-38.2881 -39.3135 -64.0771 -89.2168 -83.2422 -140.513c54.4922 -25.4229 123.935 -22.0498 175.663 6.06445c49.1006 26.6846 109.787 114.413 54.1768 163.913c-43.9189 39.0947 -112.39 5.66016 -146.598 -29.4648z" />
    <glyph glyph-name="H" unicode="H" horiz-adv-x="1000" 
d="M719.884 277.173c-14.7656 -9.22656 -29.9951 -17.1143 -45.5898 -23.9316c-6.29199 -82.6611 -5.73242 -166.482 4.15918 -248.773c5.16016 -42.9307 13.1924 -85.7393 24.7236 -127.43c10.4424 -37.7539 22.3779 -77.9385 43.3467 -111.284
c11.3799 -18.0928 27.3564 -40.7695 52.0811 -34.9658c18.7988 4.41602 29.5781 23.9805 37.4258 39.9072c19.6025 39.7979 34.7217 82.4551 50.6816 123.805c33.2412 86.1094 63.5674 173.304 91.1768 261.377c4.33594 13.8242 36.0498 19.1904 30.6621 1.85547
c-34.4521 -110.893 -73.3242 -220.355 -116.616 -328.106c-16.0693 -39.9951 -30.3428 -92.2246 -70.376 -115.305c-37.4512 -21.5918 -94.7061 -9.41699 -123.582 21.7041c-31.1377 33.5566 -46.7363 83.0312 -60.3242 125.676
c-14.8291 46.543 -25.2256 94.4736 -32.0049 142.829c-10.4004 74.1826 -11.1826 149.193 -6.70801 223.885c-49.6641 -11.9443 -101.275 -17.2598 -152.302 -22.2354c-17.958 -1.75 -36.5928 -3.84473 -55.2822 -6.75879
c2.48145 -104.946 3.56641 -210.128 0.521484 -314.927c-0.576172 -19.8213 -17.0029 -34.457 -35.4736 -39.3359c-14.3789 -3.79785 -39.9824 -0.479492 -40.3613 19.123c-2.05273 106.153 0.933594 212.467 4.0791 318.62
c-47.4014 -15.7285 -89.6084 -41.9922 -115.01 -88.3926c-7.50293 -13.71 -39.4902 -13.6807 -29.376 4.84961c30.8271 56.4766 85.5547 90.71 145.169 109.871c0.160156 5.46289 0.324219 10.9258 0.484375 16.3887c2.86816 98.2344 7.89355 202.869 -19.3506 298.441
c-11.5312 40.458 -30.8936 79.9609 -68.8906 101.321c-41.1475 23.1309 -91.7656 19.6953 -131.533 -4.5791c-74.6572 -45.5674 -105.636 -151.064 -65.2158 -229.053c21.4229 -41.332 62.3223 -67.0488 109.476 -64.4746c46.5137 2.53613 85.2979 32.1982 110.262 69.9814
c8.52051 12.8945 41.1934 12.7637 29.6318 -4.8916c-30.5195 -46.6104 -76.4531 -82.917 -132.774 -91.0039c-53.6084 -7.69629 -106.582 12.0615 -138.195 56.6367c-57.7051 81.3652 -30.2002 197.368 40.5166 261.192c36.5801 33.0186 84.9824 52.8896 134.6 50.2822
c50.4961 -2.65332 90.4033 -28.543 120.864 -67.6846c68.9805 -88.6416 75.5029 -218.367 78.5898 -325.857c0.488281 -16.915 0.951172 -33.8379 1.38477 -50.7695c69.918 10.6826 141.426 11.5742 209.885 28.0391c1.27832 17.0918 2.79199 34.1621 4.52051 51.1904
c9.69824 95.5049 28.8125 190.576 73.0928 276.547c20.4307 39.6631 46.2783 88.0234 87.3457 109.342c32.333 16.7803 75.2891 16.3223 97.3477 -16.4014c20.208 -29.9736 21.5664 -74.9482 20.3174 -109.812c-1.375 -38.3926 -9.16797 -76.209 -22.6846 -112.154
c-26.8066 -71.2764 -75.877 -134.242 -140.693 -174.737zM720.926 517.195c-24.3887 -76.7559 -36.9766 -157.196 -44.3613 -237.3c62.9404 30.8604 112.36 82.3535 142.927 145.66c29.3174 60.7207 44.4238 140.829 23.5469 206.663
c-5.53027 17.4404 -19.2148 42.2324 -41.4746 34.2549c-14.585 -5.22754 -25.25 -25.2256 -32.6514 -37.8008c-20.7002 -35.1504 -35.6641 -72.6982 -47.9863 -111.478z" />
    <glyph glyph-name="I" unicode="I" horiz-adv-x="575" 
d="M303.644 -175.037c49.1172 -75.3389 127.136 63.8643 148.109 100.36c37.2871 64.8672 66.2803 134.02 95.1514 202.907c6.43066 15.3457 39.4316 15.4971 30.8945 -5.10156c-29.9814 -72.3486 -60.1191 -145.025 -99.8281 -212.714
c-32.2402 -54.9541 -73.6445 -127.87 -142.49 -139.516c-66.0615 -11.1738 -114.072 41.665 -121.895 103.281c-9.10059 71.6924 -1.26953 145.857 5.16113 217.466c13.4365 149.673 37.3242 297.995 30.3516 448.753c-2.70801 58.5674 -1.29492 156.856 -65.6953 184.449
c-65.9688 28.2617 -122.513 -50.2275 -139.86 -103.807c-17.7773 -54.8994 -19.7539 -120.103 -0.719727 -174.985c10.043 -28.9551 27.8154 -57.0439 55.6436 -71.583c24.9648 -13.042 60.124 -17.21 82.2285 3.59082c5.41211 5.09277 15.417 10.7617 23.0293 6.36719
c6.58203 -3.79785 7.46973 -12.3223 1.77539 -17.6885c-46.6064 -43.9189 -122.177 -36.8076 -163.581 11.3379c-44.3564 51.5771 -50.5518 128.927 -41.4883 193.701c7.98633 57.082 32.7783 112.722 77.707 150.113c24.4219 20.3252 55.6611 35.377 87.918 35.4277
c30.5498 0.0507812 55.7285 -14.5889 77.1602 -35.3057c50.3701 -48.6885 62.9746 -130.256 70.2969 -196.797c8.66309 -78.75 6.47656 -158.113 0.311523 -236.968c-6.24902 -79.9395 -15.4512 -159.678 -20.5312 -239.701
c-2.54004 -40.0537 -3.57422 -80.1748 -4.31055 -120.296c-0.601562 -32.9043 -4.0752 -74.5566 14.6611 -103.293z" />
    <glyph glyph-name="I" unicode="&#xcf;" horiz-adv-x="575" 
d="M303.644 -175.037c49.1172 -75.3389 127.136 63.8643 148.109 100.36c37.2871 64.8672 66.2803 134.02 95.1514 202.907c6.43066 15.3457 39.4316 15.4971 30.8945 -5.10156c-29.9814 -72.3486 -60.1191 -145.025 -99.8281 -212.714
c-32.2402 -54.9541 -73.6445 -127.87 -142.49 -139.516c-66.0615 -11.1738 -114.072 41.665 -121.895 103.281c-9.10059 71.6924 -1.26953 145.857 5.16113 217.466c13.4365 149.673 37.3242 297.995 30.3516 448.753c-2.70801 58.5674 -1.29492 156.856 -65.6953 184.449
c-65.9688 28.2617 -122.513 -50.2275 -139.86 -103.807c-17.7773 -54.8994 -19.7539 -120.103 -0.719727 -174.985c10.043 -28.9551 27.8154 -57.0439 55.6436 -71.583c24.9648 -13.042 60.124 -17.21 82.2285 3.59082c5.41211 5.09277 15.417 10.7617 23.0293 6.36719
c6.58203 -3.79785 7.46973 -12.3223 1.77539 -17.6885c-46.6064 -43.9189 -122.177 -36.8076 -163.581 11.3379c-44.3564 51.5771 -50.5518 128.927 -41.4883 193.701c7.98633 57.082 32.7783 112.722 77.707 150.113c24.4219 20.3252 55.6611 35.377 87.918 35.4277
c30.5498 0.0507812 55.7285 -14.5889 77.1602 -35.3057c50.3701 -48.6885 62.9746 -130.256 70.2969 -196.797c8.66309 -78.75 6.47656 -158.113 0.311523 -236.968c-6.24902 -79.9395 -15.4512 -159.678 -20.5312 -239.701
c-2.54004 -40.0537 -3.57422 -80.1748 -4.31055 -120.296c-0.601562 -32.9043 -4.0752 -74.5566 14.6611 -103.293z" />
    <glyph glyph-name="I" unicode="&#xce;" horiz-adv-x="575" 
d="M303.644 -175.037c49.1172 -75.3389 127.136 63.8643 148.109 100.36c37.2871 64.8672 66.2803 134.02 95.1514 202.907c6.43066 15.3457 39.4316 15.4971 30.8945 -5.10156c-29.9814 -72.3486 -60.1191 -145.025 -99.8281 -212.714
c-32.2402 -54.9541 -73.6445 -127.87 -142.49 -139.516c-66.0615 -11.1738 -114.072 41.665 -121.895 103.281c-9.10059 71.6924 -1.26953 145.857 5.16113 217.466c13.4365 149.673 37.3242 297.995 30.3516 448.753c-2.70801 58.5674 -1.29492 156.856 -65.6953 184.449
c-65.9688 28.2617 -122.513 -50.2275 -139.86 -103.807c-17.7773 -54.8994 -19.7539 -120.103 -0.719727 -174.985c10.043 -28.9551 27.8154 -57.0439 55.6436 -71.583c24.9648 -13.042 60.124 -17.21 82.2285 3.59082c5.41211 5.09277 15.417 10.7617 23.0293 6.36719
c6.58203 -3.79785 7.46973 -12.3223 1.77539 -17.6885c-46.6064 -43.9189 -122.177 -36.8076 -163.581 11.3379c-44.3564 51.5771 -50.5518 128.927 -41.4883 193.701c7.98633 57.082 32.7783 112.722 77.707 150.113c24.4219 20.3252 55.6611 35.377 87.918 35.4277
c30.5498 0.0507812 55.7285 -14.5889 77.1602 -35.3057c50.3701 -48.6885 62.9746 -130.256 70.2969 -196.797c8.66309 -78.75 6.47656 -158.113 0.311523 -236.968c-6.24902 -79.9395 -15.4512 -159.678 -20.5312 -239.701
c-2.54004 -40.0537 -3.57422 -80.1748 -4.31055 -120.296c-0.601562 -32.9043 -4.0752 -74.5566 14.6611 -103.293z" />
    <glyph glyph-name="I" unicode="&#xcd;" horiz-adv-x="575" 
d="M303.644 -175.037c49.1172 -75.3389 127.136 63.8643 148.109 100.36c37.2871 64.8672 66.2803 134.02 95.1514 202.907c6.43066 15.3457 39.4316 15.4971 30.8945 -5.10156c-29.9814 -72.3486 -60.1191 -145.025 -99.8281 -212.714
c-32.2402 -54.9541 -73.6445 -127.87 -142.49 -139.516c-66.0615 -11.1738 -114.072 41.665 -121.895 103.281c-9.10059 71.6924 -1.26953 145.857 5.16113 217.466c13.4365 149.673 37.3242 297.995 30.3516 448.753c-2.70801 58.5674 -1.29492 156.856 -65.6953 184.449
c-65.9688 28.2617 -122.513 -50.2275 -139.86 -103.807c-17.7773 -54.8994 -19.7539 -120.103 -0.719727 -174.985c10.043 -28.9551 27.8154 -57.0439 55.6436 -71.583c24.9648 -13.042 60.124 -17.21 82.2285 3.59082c5.41211 5.09277 15.417 10.7617 23.0293 6.36719
c6.58203 -3.79785 7.46973 -12.3223 1.77539 -17.6885c-46.6064 -43.9189 -122.177 -36.8076 -163.581 11.3379c-44.3564 51.5771 -50.5518 128.927 -41.4883 193.701c7.98633 57.082 32.7783 112.722 77.707 150.113c24.4219 20.3252 55.6611 35.377 87.918 35.4277
c30.5498 0.0507812 55.7285 -14.5889 77.1602 -35.3057c50.3701 -48.6885 62.9746 -130.256 70.2969 -196.797c8.66309 -78.75 6.47656 -158.113 0.311523 -236.968c-6.24902 -79.9395 -15.4512 -159.678 -20.5312 -239.701
c-2.54004 -40.0537 -3.57422 -80.1748 -4.31055 -120.296c-0.601562 -32.9043 -4.0752 -74.5566 14.6611 -103.293z" />
    <glyph glyph-name="J" unicode="J" horiz-adv-x="675" 
d="M228.64 -372.152c-37.5605 120.237 39.0273 238.765 130.301 309.944c34.0859 26.584 71.3604 49.3994 108.664 72.168c-1.13965 49.0205 -4.05371 97.9648 -7.2793 146.358c-9.14746 137.212 -25.7764 273.835 -39.8438 410.592
c-0.929688 9.0127 2.79199 17.3691 9.04102 24.3291c-45.5049 -4.86133 -91.2451 -7.58691 -136.375 -9.10938c-86.4629 -2.91895 -193.087 -1.08984 -254.358 -73.6699c-58.3066 -69.0645 -39.335 -179.065 49.1592 -210.939
c82.4131 -29.6826 159.893 25.0488 194.908 97.8896c6.40918 13.332 36.168 13.4248 27.6055 -4.55859c-38.1787 -80.1758 -122.06 -140.467 -213.599 -124.729c-83.6533 14.3789 -138.297 91.0254 -121.234 175.065c17.9111 88.2246 101.455 139.36 184.238 155.178
c49.8613 9.52539 100.518 9.36133 151.039 11.3252c54.5674 2.12402 109.034 7.00684 163.109 14.6152c51.5986 7.25879 106.25 14.3955 154.35 35.5371c40.5752 17.832 88.5654 59.4248 56.2031 106.826c-8.72266 12.7725 21.0322 27.9375 30.0615 14.6602
c24.0225 -35.3271 8.5625 -79.4941 -19.9854 -106.923c-31.083 -29.8643 -74.5771 -45.4463 -115.641 -55.6367c-27.0459 -6.70801 -54.5459 -12.1504 -82.2861 -16.6123c2.18262 -3.14551 3.73438 -7.01074 4.36523 -11.7676
c22.6641 -170.377 41.2988 -341.427 44.8398 -513.423c0.100586 -5.03418 0.151367 -10.0684 0.222656 -15.1025c42.7451 29.4219 82.3115 62.5615 113.265 105.816c9.67285 13.5205 36.4795 6.66504 23.9473 -10.9307
c-36.7656 -51.6279 -85.2979 -89.3057 -136.988 -123.262c0.0712891 -58.5205 -2.35938 -117.046 -9.53027 -175.167c-8.47852 -68.6943 -24.3086 -143.369 -58.1934 -204.506c-28.2656 -50.9971 -75.9658 -92.9814 -135.113 -101.586
c-55.001 -8.00293 -98.8564 26.2891 -114.893 77.6182zM468.025 -17.6328c-28.3115 -17.6006 -56.3105 -35.5859 -82.6543 -55.541c-45.7061 -34.6289 -86.9336 -76.3906 -110.363 -129.512c-21.9277 -49.7139 -31.5205 -113.332 -10.6436 -164.956
c22.0713 -54.5762 87.5146 -76.584 129.18 -27.7148c36.0127 42.2363 48.457 109.277 58.21 162.175c13.0537 70.7969 16.8896 143.158 16.2715 215.549z" />
    <glyph glyph-name="K" unicode="K" horiz-adv-x="882" 
d="M855.123 114.018c7.40625 12.7764 37.8643 12.6602 27.8721 -4.60352c-38.624 -66.625 -83.8887 -129.755 -136.051 -186.484c-38.3975 -41.7568 -87.876 -81.0244 -148.222 -72.3525c-60.4971 8.69336 -114.741 66.5703 -139.411 119.792
c-28.4336 61.334 -33.6064 131.597 -41.748 197.806c-4.23926 34.4854 -7.89844 69.333 -14.3916 103.479c-3.00293 15.7705 -7.35547 31.6592 -15.2246 45.332c0.601562 -13.9502 1.04297 -27.6768 1.42578 -41.0586c3.73828 -130.272 6.2998 -261.15 2.51465 -391.431
c-0.576172 -19.8213 -17.0029 -34.457 -35.4736 -39.3359c-14.3789 -3.79785 -39.9824 -0.479492 -40.3613 19.123c-2.32617 120.389 1.8291 240.988 5.34082 361.331c2.86816 98.2344 7.89355 202.869 -19.3506 298.441c-11.5312 40.458 -30.8936 79.9609 -68.8906 101.321
c-41.1475 23.1309 -91.7656 19.6953 -131.533 -4.5791c-74.6572 -45.5674 -105.636 -151.064 -65.2158 -229.053c21.4189 -41.332 62.3223 -67.0488 109.476 -64.4746c46.5137 2.53613 85.293 32.1982 110.262 69.9814c8.5166 12.8945 41.1895 12.7637 29.6279 -4.8916
c-30.5195 -46.6104 -76.4531 -82.917 -132.774 -91.0039c-53.6084 -7.69629 -106.582 12.0615 -138.195 56.6367c-57.7051 81.3652 -30.2002 197.368 40.5166 261.192c36.5801 33.0186 84.9824 52.8896 134.6 50.2822c50.4961 -2.65332 90.4033 -28.543 120.864 -67.6846
c44.9492 -57.7637 63.3701 -132.973 71.6084 -208.109c24.2666 32.5176 58.4033 60.1064 85.5039 86.4121c24.4854 23.7695 48.8018 48.1582 68.875 75.873c15.6113 21.5498 50.9424 70.8057 34.2549 97.3516c-8.70117 13.8408 22.4121 29.4102 31.3906 15.3135
c16.2422 -25.4941 -2.36328 -61.0859 -14.8076 -84.8008c-16.1406 -30.7598 -38.1738 -58.3564 -61.8467 -83.6152c-25.7549 -27.4834 -54.0752 -52.3975 -80.6797 -79.0312c-14.5518 -14.5684 -29.7588 -29.6113 -41.2734 -46.749
c31.0957 -10.1191 48.334 -38.3555 57.8008 -68.3037c11.5527 -36.5342 17.9912 -74.502 23.1729 -112.369c10.7578 -78.5938 23.833 -154.883 47.0312 -230.891c11.9014 -39.0068 35.5537 -75.2168 77.7695 -85.5332c40.2559 -9.83691 75.541 17.6133 102.204 44.458
c56.2207 56.6074 103.429 123.388 143.34 192.229z" />
    <glyph glyph-name="L" unicode="L" horiz-adv-x="683" 
d="M389.37 275.933c3.22559 -112.344 5.55078 -225.131 3.7041 -337.597c30.5791 29.7129 69.582 50.4805 107.5 71.0244c57.1709 30.9746 131.441 70.6455 158.341 133.46c6.3291 14.7822 38.1406 15.001 29.8848 -4.93359
c-24.46 -59.0547 -84.8945 -97.0391 -137.33 -128.838c-55.5137 -33.6699 -124.578 -57.8945 -159.384 -115.948c-0.0761719 -2.86426 -0.114258 -5.73242 -0.198242 -8.59668c-0.576172 -19.8213 -17.0029 -34.457 -35.4736 -39.3359
c-14.3789 -3.79785 -39.9824 -0.479492 -40.3613 19.123c-2.3252 120.389 1.83008 240.988 5.3418 361.331c2.86816 98.2344 7.89355 202.869 -19.3506 298.441c-11.5312 40.458 -30.8936 79.9609 -68.8906 101.321c-41.1475 23.1309 -91.7656 19.6953 -131.533 -4.5791
c-74.6572 -45.5674 -105.636 -151.064 -65.2158 -229.053c21.4189 -41.332 62.3223 -67.0488 109.476 -64.4746c46.5137 2.53613 85.293 32.1982 110.262 69.9814c8.5166 12.8945 41.1895 12.7637 29.6279 -4.8916c-30.5195 -46.6104 -76.4531 -82.917 -132.774 -91.0039
c-53.6084 -7.69629 -106.582 12.0615 -138.195 56.6367c-57.7051 81.3652 -30.1963 197.368 40.5166 261.192c36.5801 33.0176 84.9824 52.8887 134.6 50.2812c50.4961 -2.65332 90.4033 -28.543 120.864 -67.6846c68.9805 -88.6416 75.5029 -218.367 78.5898 -325.857z" />
    <glyph glyph-name="M" unicode="M" horiz-adv-x="1121" 
d="M55.3174 619.192c36.5801 33.0137 84.9795 52.8789 134.602 50.2842c50.4961 -2.65332 90.4033 -28.543 120.864 -67.6846c68.9805 -88.6416 75.5078 -218.367 78.5908 -325.857c1.09375 -38.0605 2.05664 -76.1797 2.81738 -114.316
c4.5 25.082 9.0752 50.1475 13.6934 75.1836c17.5918 95.3447 35.2598 192.531 69.7793 283.481c13.1885 34.7461 30.9482 71.667 61.2793 94.8184c29.5273 22.5381 59.9131 10.6113 76.0586 -20.1777c43.4141 -82.7998 42.5225 -187.737 44.7764 -278.969
c0.824219 -33.3291 1.72852 -66.7002 2.45996 -100.084c13.4365 62.9033 30.0527 125.058 52.082 185.345c17.2305 47.1533 35.9668 97.7295 66.5039 138.095c21.6465 28.6104 71.9121 64.9756 97.5029 19.9258c11.8848 -20.9268 15.7285 -50.4209 20.9521 -73.5811
c5.60645 -24.8672 8.21387 -50.8994 9.61816 -76.3682c3.1377 -56.9268 0.0673828 -114.468 -3.98633 -171.269c-4.10449 -57.4609 -8.44434 -114.968 -7.47266 -172.622c0.521484 -30.8945 2.57812 -61.7598 6.08984 -92.4521
c2.43945 -21.3223 3.89062 -50.665 19.624 -66.8232c62.8066 -64.4971 160.221 204.021 173.485 242.191c5.20215 14.9678 40.1543 20.75 33.6943 2.03906c-19.665 -56.9521 -41.1895 -113.609 -70.1367 -166.587c-23.791 -43.54 -55.3037 -101.88 -107.2 -115.809
c-43.3467 -11.6367 -89.377 13.374 -107.625 53.3564c-22.7188 49.7861 -17.9121 115.62 -16.1455 168.951c3.89453 117.437 23.2695 233.89 24.3379 351.457c0.248047 27.1895 4.49121 58.332 -1.94727 84.8359c-2.81738 11.6074 -8.83105 31.1973 -24.2695 22.3867
c-10.2451 -5.84961 -19.3965 -19.9463 -25.541 -29.375c-29.8809 -45.8447 -49.332 -100.496 -66.3057 -152.166c-34.7383 -105.767 -52.5781 -215.554 -72.7227 -324.73c-0.209961 -8.70117 -0.399414 -17.3984 -0.706055 -26.0918
c-0.723633 -20.498 -17.4658 -35.5791 -36.6562 -40.6465c-14.9551 -3.94922 -41.1807 -0.483398 -41.7061 19.7578c-2.61133 100.37 1.8125 201.073 5.22363 301.385c1.53125 45.1299 3.99121 90.2051 4.99609 135.356c0.913086 41.1475 2.95703 84.8809 -5.79883 125.347
c-2.13672 9.87012 -5.74121 25.1318 -13.8369 32.5215c-10.665 9.73145 -17.1875 5.4043 -25.7295 -3.92383c-11.582 -12.6504 -20.1406 -27.8154 -27.4121 -43.2588c-17.4785 -37.1182 -28.6279 -77.7314 -39.0117 -117.302
c-22.416 -85.457 -37.708 -172.815 -53.0205 -259.766c-11.5107 -65.3799 -23.3955 -130.727 -33.6533 -196.321c-0.277344 -28.4297 -0.75293 -56.8428 -1.57715 -85.2266c-0.576172 -19.8213 -17.0029 -34.457 -35.4736 -39.3359
c-14.3789 -3.79785 -39.9824 -0.479492 -40.3613 19.123c-2.32617 120.389 1.8252 240.988 5.34082 361.331c2.86816 98.2344 7.89355 202.869 -19.3506 298.441c-11.5361 40.458 -30.8945 79.9609 -68.8916 101.321c-41.1475 23.1309 -91.7656 19.6953 -131.533 -4.5791
c-74.6533 -45.5674 -105.636 -151.064 -65.2158 -229.053c21.4229 -41.332 62.3262 -67.0488 109.475 -64.4746c46.5176 2.53613 85.2969 32.1982 110.262 69.9814c8.52051 12.8945 41.1934 12.7637 29.6318 -4.8916c-30.5195 -46.6104 -76.4531 -82.917 -132.774 -91.0039
c-53.6084 -7.69629 -106.582 12.0615 -138.195 56.6367c-57.7051 81.3652 -30.2002 197.368 40.5166 261.192z" />
    <glyph glyph-name="N" unicode="N" horiz-adv-x="947" 
d="M152.999 301.363c-53.6084 -7.7002 -106.586 12.0605 -138.203 56.6436c-57.7051 81.3652 -30.1963 197.368 40.5166 261.192c36.5801 33.0186 84.9824 52.8896 134.6 50.2822c50.4961 -2.65332 90.4033 -28.543 120.864 -67.6846
c68.9805 -88.6416 75.5078 -218.367 78.5908 -325.857c1.35449 -47.1904 2.54492 -94.4658 3.34375 -141.758c16.5576 74.7334 34.8184 149.062 55.7578 222.29c17.5205 61.2588 36.8447 123.847 65.5391 180.929c19.8965 39.5791 59.4756 105.586 113.189 95.0889
c53.8564 -10.5264 61.1914 -100.505 66.2676 -142.489c8.18848 -67.748 7.6709 -136.034 5.35742 -204.127c-2.37988 -70.04 -7.00977 -140.013 -7.7666 -210.103c-0.366211 -34.1113 -0.193359 -68.29 1.13184 -102.381
c0.979492 -25.2881 -1.19434 -53.5117 9.4668 -77.0801c38.9736 -86.1641 114.847 25.4775 137.62 65.3721c32.5342 56.9854 58.4785 117.373 84.3555 177.58c5.86719 13.6514 35.4531 13.752 27.6055 -4.55957c-29.2578 -68.2734 -58.5283 -137.136 -97.6533 -200.493
c-29.9775 -48.541 -74.6826 -102.844 -137.985 -97.7461c-56.8301 4.57617 -91.665 57.9033 -99.168 110.334c-9.29395 64.9717 -2.78418 134.073 0.786133 199.298c3.86035 70.5488 9.61328 140.972 13.6846 211.504c3.82324 66.1875 10.7578 137.052 2.09863 203.017
c-1.83789 14 -4.63086 37.5762 -20.2461 42.4131c-15.376 4.76074 -29.1113 -12.6045 -37.7871 -23.5684c-19.623 -24.7959 -33.5225 -53.7471 -45.4746 -82.8623c-25.541 -62.2217 -44.6895 -127.102 -61.5703 -192.137
c-28.1055 -108.281 -50.9463 -217.888 -74.3633 -327.296c-0.251953 -30.9111 -0.769531 -61.8057 -1.66504 -92.6621c-0.576172 -19.8213 -17.0029 -34.457 -35.4736 -39.3359c-14.3789 -3.79785 -39.9824 -0.479492 -40.3613 19.123
c-2.3252 120.389 1.82617 240.988 5.3418 361.331c2.86816 98.2344 7.89355 202.869 -19.3506 298.441c-11.5312 40.458 -30.8936 79.9609 -68.8906 101.321c-41.1475 23.1309 -91.7656 19.6953 -131.533 -4.5791c-74.6572 -45.5674 -105.636 -151.064 -65.2158 -229.053
c21.4189 -41.332 62.3223 -67.0488 109.476 -64.4746c46.5137 2.53613 85.293 32.1982 110.262 69.9814c8.5166 12.8945 41.1895 12.7637 29.6279 -4.8916c-30.5195 -46.6104 -76.4531 -82.917 -132.774 -91.0039z" />
    <glyph glyph-name="O" unicode="O" horiz-adv-x="601" 
d="M457.272 390.935c17.5498 -92.3672 12.8809 -188.784 -8.33203 -280.281c48.4521 5.24023 99.0752 16.7637 137.506 44.8818c14.9004 10.9014 35.2471 -2.79199 18.0293 -16.6826c-43.751 -35.3018 -103.945 -50.3535 -162.588 -56.2832
c-24.7832 -91.3242 -69.8418 -193.062 -159.025 -236.783c-42.3418 -20.7588 -93.751 -29.7549 -137.026 -6.00195c-42.6992 23.4424 -66.0908 73.3623 -73.6904 119.725c-11.7461 71.6797 -0.209961 143.629 20.2588 213.231
c-122.888 120.204 -161.314 348.504 -17 467.838c71.3984 59.042 172.711 66.3008 246.489 8.1416c76.7607 -60.5098 117.656 -164.501 135.379 -257.785zM340.242 -68.5381c32.0801 43.3848 53.3398 95.1602 67.542 148.584
c-13.3066 -0.643555 -26.3438 -0.925781 -38.8809 -0.958984c-73.4131 -0.206055 -147.642 10.1611 -211.559 45.2607c-11.5361 -49.9414 -17.0537 -100.838 -10.6104 -152.945c5.74512 -46.4512 17.6387 -95.4248 70.3301 -107.062
c52.0059 -11.4854 94.6592 28.5557 123.178 67.1211zM409.707 107.521c1.58594 0.0878906 3.20996 0.196289 4.80762 0.292969c5.61035 25.4648 9.82422 51.043 12.9277 76.0244c11.0732 89.1543 5.02539 182.249 -23.7578 267.686
c-25.8809 76.8232 -72.1553 166.268 -151.254 199.101c-86.6895 35.9873 -175.348 -23.0166 -211.045 -101.716c-50.1221 -110.51 -18.0078 -248.705 62.7559 -339.075c10.4805 31.0117 22.2559 61.4473 34.0186 91.0635c6.88477 17.3271 31.5547 27.1553 48.7217 26.3643
c14.5049 -0.668945 33.0137 -12.6172 26.6846 -29.9443c-16.8438 -46.1055 -34.5488 -92.8379 -47.8848 -140.411c12.4863 -8.03223 25.5869 -15.0977 39.2676 -21.002c63.1807 -27.2773 136.829 -32.1221 204.758 -28.3828z" />
    <glyph glyph-name="O" unicode="&#xd6;" horiz-adv-x="601" 
d="M457.272 390.935c17.5498 -92.3672 12.8809 -188.784 -8.33203 -280.281c48.4521 5.24023 99.0752 16.7637 137.506 44.8818c14.9004 10.9014 35.2471 -2.79199 18.0293 -16.6826c-43.751 -35.3018 -103.945 -50.3535 -162.588 -56.2832
c-24.7832 -91.3242 -69.8418 -193.062 -159.025 -236.783c-42.3418 -20.7588 -93.751 -29.7549 -137.026 -6.00195c-42.6992 23.4424 -66.0908 73.3623 -73.6904 119.725c-11.7461 71.6797 -0.209961 143.629 20.2588 213.231
c-122.888 120.204 -161.314 348.504 -17 467.838c71.3984 59.042 172.711 66.3008 246.489 8.1416c76.7607 -60.5098 117.656 -164.501 135.379 -257.785zM340.242 -68.5381c32.0801 43.3848 53.3398 95.1602 67.542 148.584
c-13.3066 -0.643555 -26.3438 -0.925781 -38.8809 -0.958984c-73.4131 -0.206055 -147.642 10.1611 -211.559 45.2607c-11.5361 -49.9414 -17.0537 -100.838 -10.6104 -152.945c5.74512 -46.4512 17.6387 -95.4248 70.3301 -107.062
c52.0059 -11.4854 94.6592 28.5557 123.178 67.1211zM409.707 107.521c1.58594 0.0878906 3.20996 0.196289 4.80762 0.292969c5.61035 25.4648 9.82422 51.043 12.9277 76.0244c11.0732 89.1543 5.02539 182.249 -23.7578 267.686
c-25.8809 76.8232 -72.1553 166.268 -151.254 199.101c-86.6895 35.9873 -175.348 -23.0166 -211.045 -101.716c-50.1221 -110.51 -18.0078 -248.705 62.7559 -339.075c10.4805 31.0117 22.2559 61.4473 34.0186 91.0635c6.88477 17.3271 31.5547 27.1553 48.7217 26.3643
c14.5049 -0.668945 33.0137 -12.6172 26.6846 -29.9443c-16.8438 -46.1055 -34.5488 -92.8379 -47.8848 -140.411c12.4863 -8.03223 25.5869 -15.0977 39.2676 -21.002c63.1807 -27.2773 136.829 -32.1221 204.758 -28.3828z" />
    <glyph glyph-name="O" unicode="&#xd5;" horiz-adv-x="601" 
d="M457.272 390.935c17.5498 -92.3672 12.8809 -188.784 -8.33203 -280.281c48.4521 5.24023 99.0752 16.7637 137.506 44.8818c14.9004 10.9014 35.2471 -2.79199 18.0293 -16.6826c-43.751 -35.3018 -103.945 -50.3535 -162.588 -56.2832
c-24.7832 -91.3242 -69.8418 -193.062 -159.025 -236.783c-42.3418 -20.7588 -93.751 -29.7549 -137.026 -6.00195c-42.6992 23.4424 -66.0908 73.3623 -73.6904 119.725c-11.7461 71.6797 -0.209961 143.629 20.2588 213.231
c-122.888 120.204 -161.314 348.504 -17 467.838c71.3984 59.042 172.711 66.3008 246.489 8.1416c76.7607 -60.5098 117.656 -164.501 135.379 -257.785zM340.242 -68.5381c32.0801 43.3848 53.3398 95.1602 67.542 148.584
c-13.3066 -0.643555 -26.3438 -0.925781 -38.8809 -0.958984c-73.4131 -0.206055 -147.642 10.1611 -211.559 45.2607c-11.5361 -49.9414 -17.0537 -100.838 -10.6104 -152.945c5.74512 -46.4512 17.6387 -95.4248 70.3301 -107.062
c52.0059 -11.4854 94.6592 28.5557 123.178 67.1211zM409.707 107.521c1.58594 0.0878906 3.20996 0.196289 4.80762 0.292969c5.61035 25.4648 9.82422 51.043 12.9277 76.0244c11.0732 89.1543 5.02539 182.249 -23.7578 267.686
c-25.8809 76.8232 -72.1553 166.268 -151.254 199.101c-86.6895 35.9873 -175.348 -23.0166 -211.045 -101.716c-50.1221 -110.51 -18.0078 -248.705 62.7559 -339.075c10.4805 31.0117 22.2559 61.4473 34.0186 91.0635c6.88477 17.3271 31.5547 27.1553 48.7217 26.3643
c14.5049 -0.668945 33.0137 -12.6172 26.6846 -29.9443c-16.8438 -46.1055 -34.5488 -92.8379 -47.8848 -140.411c12.4863 -8.03223 25.5869 -15.0977 39.2676 -21.002c63.1807 -27.2773 136.829 -32.1221 204.758 -28.3828z" />
    <glyph glyph-name="O" unicode="&#xd4;" horiz-adv-x="601" 
d="M457.272 390.935c17.5498 -92.3672 12.8809 -188.784 -8.33203 -280.281c48.4521 5.24023 99.0752 16.7637 137.506 44.8818c14.9004 10.9014 35.2471 -2.79199 18.0293 -16.6826c-43.751 -35.3018 -103.945 -50.3535 -162.588 -56.2832
c-24.7832 -91.3242 -69.8418 -193.062 -159.025 -236.783c-42.3418 -20.7588 -93.751 -29.7549 -137.026 -6.00195c-42.6992 23.4424 -66.0908 73.3623 -73.6904 119.725c-11.7461 71.6797 -0.209961 143.629 20.2588 213.231
c-122.888 120.204 -161.314 348.504 -17 467.838c71.3984 59.042 172.711 66.3008 246.489 8.1416c76.7607 -60.5098 117.656 -164.501 135.379 -257.785zM340.242 -68.5381c32.0801 43.3848 53.3398 95.1602 67.542 148.584
c-13.3066 -0.643555 -26.3438 -0.925781 -38.8809 -0.958984c-73.4131 -0.206055 -147.642 10.1611 -211.559 45.2607c-11.5361 -49.9414 -17.0537 -100.838 -10.6104 -152.945c5.74512 -46.4512 17.6387 -95.4248 70.3301 -107.062
c52.0059 -11.4854 94.6592 28.5557 123.178 67.1211zM409.707 107.521c1.58594 0.0878906 3.20996 0.196289 4.80762 0.292969c5.61035 25.4648 9.82422 51.043 12.9277 76.0244c11.0732 89.1543 5.02539 182.249 -23.7578 267.686
c-25.8809 76.8232 -72.1553 166.268 -151.254 199.101c-86.6895 35.9873 -175.348 -23.0166 -211.045 -101.716c-50.1221 -110.51 -18.0078 -248.705 62.7559 -339.075c10.4805 31.0117 22.2559 61.4473 34.0186 91.0635c6.88477 17.3271 31.5547 27.1553 48.7217 26.3643
c14.5049 -0.668945 33.0137 -12.6172 26.6846 -29.9443c-16.8438 -46.1055 -34.5488 -92.8379 -47.8848 -140.411c12.4863 -8.03223 25.5869 -15.0977 39.2676 -21.002c63.1807 -27.2773 136.829 -32.1221 204.758 -28.3828z" />
    <glyph glyph-name="O" unicode="&#xd3;" horiz-adv-x="601" 
d="M457.272 390.935c17.5498 -92.3672 12.8809 -188.784 -8.33203 -280.281c48.4521 5.24023 99.0752 16.7637 137.506 44.8818c14.9004 10.9014 35.2471 -2.79199 18.0293 -16.6826c-43.751 -35.3018 -103.945 -50.3535 -162.588 -56.2832
c-24.7832 -91.3242 -69.8418 -193.062 -159.025 -236.783c-42.3418 -20.7588 -93.751 -29.7549 -137.026 -6.00195c-42.6992 23.4424 -66.0908 73.3623 -73.6904 119.725c-11.7461 71.6797 -0.209961 143.629 20.2588 213.231
c-122.888 120.204 -161.314 348.504 -17 467.838c71.3984 59.042 172.711 66.3008 246.489 8.1416c76.7607 -60.5098 117.656 -164.501 135.379 -257.785zM340.242 -68.5381c32.0801 43.3848 53.3398 95.1602 67.542 148.584
c-13.3066 -0.643555 -26.3438 -0.925781 -38.8809 -0.958984c-73.4131 -0.206055 -147.642 10.1611 -211.559 45.2607c-11.5361 -49.9414 -17.0537 -100.838 -10.6104 -152.945c5.74512 -46.4512 17.6387 -95.4248 70.3301 -107.062
c52.0059 -11.4854 94.6592 28.5557 123.178 67.1211zM409.707 107.521c1.58594 0.0878906 3.20996 0.196289 4.80762 0.292969c5.61035 25.4648 9.82422 51.043 12.9277 76.0244c11.0732 89.1543 5.02539 182.249 -23.7578 267.686
c-25.8809 76.8232 -72.1553 166.268 -151.254 199.101c-86.6895 35.9873 -175.348 -23.0166 -211.045 -101.716c-50.1221 -110.51 -18.0078 -248.705 62.7559 -339.075c10.4805 31.0117 22.2559 61.4473 34.0186 91.0635c6.88477 17.3271 31.5547 27.1553 48.7217 26.3643
c14.5049 -0.668945 33.0137 -12.6172 26.6846 -29.9443c-16.8438 -46.1055 -34.5488 -92.8379 -47.8848 -140.411c12.4863 -8.03223 25.5869 -15.0977 39.2676 -21.002c63.1807 -27.2773 136.829 -32.1221 204.758 -28.3828z" />
    <glyph glyph-name="P" unicode="P" horiz-adv-x="701" 
d="M389.931 255.535c4.0459 19.5479 8.42383 39.0342 13.2266 58.4346c25.4316 102.646 58.3867 218.858 135.059 296.136c32.7324 32.9932 79.835 57.9365 127.346 45.4961c44.4238 -11.6328 73.8418 -53.9961 84.9238 -96.4512
c25.8936 -99.21 -17.1885 -214.885 -75.5537 -294.476c-60.9561 -83.123 -166.466 -158.761 -274.592 -144.479c-2.7334 -23.0928 -4.9873 -46.2402 -6.71582 -69.4258c0.286133 -55.4678 -0.125977 -110.927 -1.73633 -166.272
c-0.576172 -19.8213 -17.0029 -34.457 -35.4736 -39.3359c-14.3789 -3.79785 -39.9824 -0.479492 -40.3613 19.123c-2.32617 120.389 1.8291 240.988 5.34082 361.331c2.86816 98.2344 7.89355 202.869 -19.3506 298.441c-11.5361 40.458 -30.8945 79.9609 -68.8916 101.321
c-41.1475 23.1309 -91.7656 19.6953 -131.533 -4.5791c-74.6533 -45.5674 -105.636 -151.064 -65.2158 -229.053c21.4229 -41.332 62.3262 -67.0488 109.475 -64.4746c46.5176 2.53613 85.2969 32.1982 110.261 69.9814c8.52051 12.8945 41.1934 12.7637 29.6318 -4.8916
c-30.5195 -46.6104 -76.4531 -82.917 -132.774 -91.0039c-53.6084 -7.69629 -106.582 12.0615 -138.195 56.6367c-57.7051 81.3652 -30.2002 197.368 40.5166 261.192c36.5801 33.0186 84.9824 52.8896 134.6 50.2822c50.4961 -2.65332 90.4033 -28.543 120.864 -67.6846
c68.9805 -88.6416 75.5078 -218.367 78.5908 -325.857c0.197266 -6.79199 0.370117 -13.5967 0.55957 -20.3926zM501.231 506.182c-43.5361 -86.8115 -66.9697 -185.438 -84.793 -280.396c-2.85938 -15.2324 -5.46289 -30.5029 -7.86816 -45.8066
c5.95117 1.35449 12.125 1.83008 18.1387 1.48535c97.5566 -5.60645 179.069 64.3789 227.122 143.671c22.5752 37.2617 39.2676 77.8496 48.8564 120.364c9.77344 43.3467 17.4277 97.666 -3.28027 139.045c-22.7061 45.3828 -74.0312 58.8486 -115.868 30.0488
c-37.085 -25.5283 -62.541 -69.002 -82.3076 -108.412z" />
    <glyph glyph-name="Q" unicode="Q" horiz-adv-x="601" 
d="M39.0605 -148.819c17.1836 20.1572 39.6689 27.9053 63.8506 28.7002c-16.2295 23.6729 -26.2764 52.2539 -30.7637 79.6318c-11.75 71.6797 -0.209961 143.629 20.2588 213.231c-122.888 120.204 -161.314 348.504 -17 467.838
c71.3984 59.042 172.711 66.3008 246.489 8.1416c76.7607 -60.5098 117.651 -164.501 135.378 -257.785c17.5498 -92.3672 12.8857 -188.789 -8.33594 -280.281c48.457 5.24023 99.0752 16.7637 137.506 44.8818c14.9004 10.9004 35.2471 -2.79297 18.0293 -16.6836
c-43.751 -35.3018 -103.945 -50.3496 -162.588 -56.2832c-24.7832 -91.3242 -69.8457 -193.062 -159.025 -236.783c-8.49121 -4.16309 -17.3525 -7.82227 -26.4326 -10.8672c50.4248 -22.542 115.241 -47.502 146.834 1.53516
c8.77734 13.6299 42.8008 13.3779 30.8945 -5.10156c-33.4473 -51.9141 -98.3057 -57.583 -152.709 -40.0293c-28.9932 9.35352 -56.3125 23.0684 -84.5576 34.4609c-17.5586 0.820312 -34.877 5.11816 -51.0605 14c-4.28516 2.35059 -8.31836 5.03418 -12.2168 7.88965
c-26.0664 6.97754 -54.0088 9.61914 -69.5361 -7.91406c-11.2705 -12.7305 -39.7891 -5.90918 -25.0146 11.418zM340.241 -68.5381c32.0801 43.3848 53.3389 95.1602 67.541 148.584c-13.3066 -0.643555 -26.3438 -0.925781 -38.8809 -0.958984
c-73.4131 -0.206055 -147.642 10.1611 -211.558 45.2607c-11.5361 -49.9414 -17.0576 -100.838 -10.6104 -152.945c5.74512 -46.4512 17.6387 -95.4248 70.3301 -107.062c52.0059 -11.4854 94.6592 28.5557 123.178 67.1211zM41.3838 548.909
c-50.1221 -110.51 -18.0039 -248.706 62.7559 -339.076c10.4766 31.0117 22.252 61.4473 34.0146 91.0635c6.88477 17.3271 31.5547 27.1553 48.7217 26.3643c14.5049 -0.668945 33.0137 -12.6172 26.6846 -29.9443c-16.8438 -46.1055 -34.5488 -92.8379 -47.8848 -140.411
c12.4863 -8.03223 25.5869 -15.0977 39.2676 -21.002c63.1807 -27.2773 136.829 -32.1221 204.758 -28.3828c1.58984 0.0878906 3.20898 0.197266 4.81152 0.293945c5.61035 25.4648 9.82422 51.043 12.9277 76.0244c11.0732 89.1543 5.02539 182.249 -23.7578 267.686
c-25.8809 76.8232 -72.1553 166.268 -151.254 199.101c-86.6943 35.9873 -175.348 -23.0166 -211.045 -101.716z" />
    <glyph glyph-name="R" unicode="R" horiz-adv-x="928" 
d="M189.916 669.47c50.501 -2.65332 90.4014 -28.5439 120.858 -67.6855c68.9805 -88.6416 75.5078 -218.367 78.5908 -325.857c0.197266 -6.79199 0.370117 -13.5967 0.55957 -20.3926c4.04199 19.5479 8.41992 39.0361 13.2266 58.4326
c25.4355 102.646 58.3867 218.858 135.059 296.136c32.7324 32.9932 79.8389 57.9365 127.345 45.4961c44.4238 -11.6328 73.8418 -53.9961 84.9238 -96.4512c25.8936 -99.21 -17.1885 -214.885 -75.5537 -294.476c-51.2451 -69.876 -133.981 -134.461 -223.287 -144.794
c2.27539 -1.61914 4.58887 -3.34375 7.05371 -5.33691c10.9639 -8.86914 21.4648 -18.3945 30.9404 -28.8662c19.3457 -21.373 35.5459 -45.6641 51.3672 -69.6738c25.8223 -39.1836 55.6777 -93.5244 107.634 -97.0742c120.549 -8.23828 191.627 135.467 255.762 213.754
c10.9014 13.3105 39.3184 6.16504 25.0156 -11.4189c-77.042 -94.7012 -143.654 -222.736 -280.483 -233.04c-63.4834 -4.78223 -122.748 13.7432 -161.137 66.1533c-17.4277 23.791 -32.2275 49.4365 -49.1553 73.5811c-10.0342 14.3154 -20.3086 28.4248 -30.0068 42.9844
c-3.89062 5.83691 -8.20508 11.7334 -11.7168 17.8359c-1.24512 -12.6543 -2.34277 -25.3262 -3.28906 -38.0059c0.286133 -55.4717 -0.125977 -110.927 -1.73633 -166.272c-0.576172 -19.8213 -17.0029 -34.457 -35.4736 -39.3359
c-14.3789 -3.79785 -39.9824 -0.479492 -40.3613 19.123c-2.32617 120.389 1.8291 240.988 5.34082 361.331c2.86816 98.2344 7.89355 202.869 -19.3506 298.441c-11.5312 40.458 -30.8936 79.9609 -68.8906 101.321c-41.1475 23.1309 -91.7656 19.6953 -131.533 -4.5791
c-74.6533 -45.5674 -105.636 -151.064 -65.2158 -229.053c21.4189 -41.332 62.3223 -67.0488 109.476 -64.4746c46.5176 2.53613 85.2969 32.1982 110.261 69.9814c8.52051 12.8945 41.1934 12.7637 29.6318 -4.8916c-30.5195 -46.6104 -76.4531 -82.917 -132.774 -91.0039
c-53.6084 -7.69629 -106.582 12.0615 -138.195 56.6367c-57.7051 81.3652 -30.1963 197.368 40.5166 261.192c36.5801 33.0186 84.9824 52.8896 134.6 50.2822zM501.229 506.183c-43.54 -86.8115 -66.9736 -185.438 -84.7969 -280.396
c-2.85547 -15.2324 -5.45898 -30.5029 -7.86426 -45.8066c5.94629 1.35449 12.1201 1.83008 18.1338 1.48535c97.5566 -5.60645 179.069 64.3789 227.122 143.671c22.5801 37.2617 39.2676 77.8496 48.8564 120.364c9.77832 43.3467 17.4287 97.666 -3.2793 139.045
c-22.7061 45.3828 -74.0312 58.8486 -115.868 30.0488c-37.0811 -25.5283 -62.5371 -69.002 -82.3037 -108.412z" />
    <glyph glyph-name="S" unicode="S" horiz-adv-x="573" 
d="M557.961 169.854c11.3008 11.6787 39.252 4.93164 24.167 -11.0371c-59.5508 -63.0039 -138.376 -98.3057 -213.038 -139.596c-2.19922 -1.21582 -4.52051 -2.51074 -6.92578 -3.86523c25.5654 -34.915 46.1855 -72.8828 54.1387 -114.043
c14.6182 -75.6582 -45.9678 -137.98 -120.601 -132.374c-68.1055 5.11816 -126.812 70.7627 -95.2148 138.401c15.3926 32.9512 42.5352 59.9092 73.4463 82.75c-37.7119 43.3213 -80.2393 82.875 -120.045 123.724c-58.3311 59.8584 -112.238 126.146 -143.536 204.472
c-31.3779 78.5137 -39.3477 175.264 3.1416 251.389c70.5527 126.407 286.888 177.164 371.172 36.6045c34.6074 -57.7178 32.4629 -132.842 -7.30469 -187.351c-40.1885 -55.085 -111.284 -84.7305 -178.553 -73.8545c-20.9736 3.38965 -1.19922 29.0059 14.3867 26.3604
c85.1123 -14.4375 166.045 53.2939 161.288 140.614c-4.88672 89.667 -82.042 151.679 -170.351 143.89c-72.1338 -6.36328 -133.838 -60.043 -146.736 -131.584c-14.5303 -80.583 21.9492 -165.481 64.8252 -231.787c44.958 -69.5264 103.878 -127.143 160.914 -186.56
c20.9814 -21.8564 43.2285 -45.3652 63.5537 -70.5605c7.71289 4.25977 15.2998 8.36426 22.6465 12.3389c65.8467 35.6133 135.815 67.5088 188.625 122.068zM324.893 -76.7119c-10.3418 16.0068 -21.666 31.2949 -33.6143 46.1025
c-53.4365 -41.2236 -96.9395 -96.6074 -39.9121 -148.345c22.8994 -20.7715 75.2256 -40.7314 98.1758 -9.50488c24.75 33.6787 -6.13184 83.0947 -24.6494 111.747z" />
    <glyph glyph-name="T" unicode="T" horiz-adv-x="801" 
d="M98.9834 620.828c36.4199 -14.3076 79.5693 -13.9355 117.958 -12.1562c77.9004 3.59961 153.786 22.9746 229.298 41.1133c8.64648 11.4648 24.7412 19.0518 37.0508 21.1416c8.36035 1.42188 21.4736 0.109375 29.9941 -5.64355
c53.958 11.9062 108.239 22.2852 163.055 29.4727c57.6709 7.56152 142.455 22.9707 177.059 -38.6914c8.46191 -15.0771 -23.7568 -30.7559 -32.7188 -15.9609c-21.9277 36.2061 -65.6953 35.5586 -103.079 32.333c-41.1436 -3.5498 -82.1182 -9.31543 -122.77 -16.541
c-24.6865 -4.39062 -49.2051 -9.4668 -73.6602 -14.8369c-5.3584 -103.054 -14.459 -205.876 -19.4766 -308.968c-4.55859 -93.6504 -8.23047 -187.321 -6.89746 -281.094c0.643555 -45.3105 1.09766 -90.7939 6.39258 -135.865
c4.50879 -38.3926 10.7578 -82.0127 33.127 -114.614c9.31543 -13.5713 27.5723 -31.5039 45.9678 -28.6484c18.9209 2.93555 32.2529 28.1064 40.9414 42.8223c20.835 35.2852 37.9346 72.6562 53.7266 110.427c32.6104 77.9883 60.1318 158.261 102.937 231.53
c7.56152 12.9365 38.5479 12.9492 28.3662 -4.68457c-53.6172 -92.834 -82.3457 -196.758 -128.683 -292.994c-17.2725 -35.874 -36.3242 -77.7617 -69.334 -102.011c-32.1436 -23.6104 -72.6182 -26.5 -106.565 -4.80371
c-36.4629 23.3076 -55.5264 69.334 -66.7217 109.396c-13.0752 46.8086 -17.752 94.7188 -20.8643 143.062c-6.69531 104.004 -2.46484 209.018 2.3291 313.014c4.68066 101.577 9.9248 203.537 22.251 304.534c-26.6807 -6.2373 -53.373 -12.4365 -80.1836 -18.1641
c-74.9307 -16.0068 -152.932 -28.0645 -229.574 -18.4375c-58.2471 7.31348 -126.571 43.3389 -114.342 112.613c2.52734 14.3076 33.5225 19.9307 30.3848 1.83789c-6.38867 -36.8408 21.9482 -66.5781 54.0322 -79.1826z" />
    <glyph glyph-name="U" unicode="U" horiz-adv-x="907" 
d="M252.774 137.03c1.375 76.7305 7.0498 153.353 7.91602 230.088c0.84082 74.6533 -1.50195 149.723 -17.8066 222.837c-8.01562 35.9492 -25.7549 65.9395 -60.1064 82.1182c-32.3203 15.2197 -66.3223 6.7627 -93.5117 -14.6689
c-52.877 -41.6777 -83.7373 -125.516 -55.375 -189.154c11.9395 -26.7852 33.7451 -50.7949 62.166 -60.1357c28.9893 -9.53027 63.8154 -1.60254 81.4961 24.417c8.39844 12.3643 40.2852 12.373 28.8711 -4.76465c-35.9961 -54.0459 -112.891 -66.5703 -164.384 -26.6973
c-59.3408 45.9502 -60.8506 130.415 -32.8584 193.944c24.7041 56.0645 77.5176 109.724 142.061 112.692c65.3506 3.00684 118.434 -54.374 142.881 -110.152c31.3867 -71.6084 36 -158.504 37.8418 -235.525c1.95117 -81.4873 -2.20801 -162.941 -1.26562 -244.438
c0.458008 -40.0752 1.26562 -80.8398 5.18066 -120.738c2.7002 -27.5342 16.5791 -72.3701 52.5918 -68.5977c35.5537 3.72168 54.0957 59.2441 64.8916 87.3252c14.0508 36.5254 24.207 74.4678 32.8584 112.587c17.8105 78.4844 31.6221 157.865 48.8604 236.493
c16.3682 74.6875 34.2246 149.034 53.293 223.073c1.70312 10.9805 3.44824 21.9482 5.29492 32.8828c6.02246 35.6211 81.5801 50.4248 75.915 4.59277c-12.3984 -100.328 -23.3535 -200.594 -28.6445 -301.582c-4.73535 -90.4326 -5.50879 -181.248 -1.82031 -271.735
c1.74512 -42.7959 3.71289 -86.0508 9.23438 -128.553c5.03418 -38.7373 11.8223 -80.9023 31.2734 -115.342c10.165 -17.9961 22.3701 -38.5361 45.9219 -37.1016c17.6758 1.07617 29.9473 15.2578 39.4473 28.9473c22.5547 32.5176 37.6611 71.873 51.5186 108.706
c29.6494 78.7998 48.6963 160.947 67.6719 242.813c3.23438 13.9629 34.082 19.4893 30.1074 1.82129c-23.4121 -104.075 -47.1904 -209.156 -91.084 -306.89c-15.0098 -33.4219 -31.9414 -70.0146 -63.7227 -90.6973c-32.0596 -20.8643 -70.7969 -15.8047 -102.532 3.46973
c-34.5488 20.9814 -53.377 65.418 -64.7451 102.6c-14.4424 47.2285 -19.8467 96.8672 -24.1191 145.866c-9.42871 108.176 -11.1191 218.038 -5.57617 327.476c-15.6445 -75.5742 -28.2861 -151.901 -46.4463 -226.887
c-8.32324 -34.3721 -18.3789 -68.3066 -31.4375 -101.194c-11.7969 -29.6953 -24.8633 -60.9766 -47.8086 -83.9434c-44.3018 -44.3525 -111.402 -48.2676 -150.426 4.91602c-41.1475 56.0732 -34.8008 143.284 -33.623 209.131z" />
    <glyph glyph-name="U" unicode="&#xdc;" horiz-adv-x="907" 
d="M252.774 137.03c1.375 76.7305 7.0498 153.353 7.91602 230.088c0.84082 74.6533 -1.50195 149.723 -17.8066 222.837c-8.01562 35.9492 -25.7549 65.9395 -60.1064 82.1182c-32.3203 15.2197 -66.3223 6.7627 -93.5117 -14.6689
c-52.877 -41.6777 -83.7373 -125.516 -55.375 -189.154c11.9395 -26.7852 33.7451 -50.7949 62.166 -60.1357c28.9893 -9.53027 63.8154 -1.60254 81.4961 24.417c8.39844 12.3643 40.2852 12.373 28.8711 -4.76465c-35.9961 -54.0459 -112.891 -66.5703 -164.384 -26.6973
c-59.3408 45.9502 -60.8506 130.415 -32.8584 193.944c24.7041 56.0645 77.5176 109.724 142.061 112.692c65.3506 3.00684 118.434 -54.374 142.881 -110.152c31.3867 -71.6084 36 -158.504 37.8418 -235.525c1.95117 -81.4873 -2.20801 -162.941 -1.26562 -244.438
c0.458008 -40.0752 1.26562 -80.8398 5.18066 -120.738c2.7002 -27.5342 16.5791 -72.3701 52.5918 -68.5977c35.5537 3.72168 54.0957 59.2441 64.8916 87.3252c14.0508 36.5254 24.207 74.4678 32.8584 112.587c17.8105 78.4844 31.6221 157.865 48.8604 236.493
c16.3682 74.6875 34.2246 149.034 53.293 223.073c1.70312 10.9805 3.44824 21.9482 5.29492 32.8828c6.02246 35.6211 81.5801 50.4248 75.915 4.59277c-12.3984 -100.328 -23.3535 -200.594 -28.6445 -301.582c-4.73535 -90.4326 -5.50879 -181.248 -1.82031 -271.735
c1.74512 -42.7959 3.71289 -86.0508 9.23438 -128.553c5.03418 -38.7373 11.8223 -80.9023 31.2734 -115.342c10.165 -17.9961 22.3701 -38.5361 45.9219 -37.1016c17.6758 1.07617 29.9473 15.2578 39.4473 28.9473c22.5547 32.5176 37.6611 71.873 51.5186 108.706
c29.6494 78.7998 48.6963 160.947 67.6719 242.813c3.23438 13.9629 34.082 19.4893 30.1074 1.82129c-23.4121 -104.075 -47.1904 -209.156 -91.084 -306.89c-15.0098 -33.4219 -31.9414 -70.0146 -63.7227 -90.6973c-32.0596 -20.8643 -70.7969 -15.8047 -102.532 3.46973
c-34.5488 20.9814 -53.377 65.418 -64.7451 102.6c-14.4424 47.2285 -19.8467 96.8672 -24.1191 145.866c-9.42871 108.176 -11.1191 218.038 -5.57617 327.476c-15.6445 -75.5742 -28.2861 -151.901 -46.4463 -226.887
c-8.32324 -34.3721 -18.3789 -68.3066 -31.4375 -101.194c-11.7969 -29.6953 -24.8633 -60.9766 -47.8086 -83.9434c-44.3018 -44.3525 -111.402 -48.2676 -150.426 4.91602c-41.1475 56.0732 -34.8008 143.284 -33.623 209.131z" />
    <glyph glyph-name="U" unicode="&#xdb;" horiz-adv-x="907" 
d="M252.774 137.03c1.375 76.7305 7.0498 153.353 7.91602 230.088c0.84082 74.6533 -1.50195 149.723 -17.8066 222.837c-8.01562 35.9492 -25.7549 65.9395 -60.1064 82.1182c-32.3203 15.2197 -66.3223 6.7627 -93.5117 -14.6689
c-52.877 -41.6777 -83.7373 -125.516 -55.375 -189.154c11.9395 -26.7852 33.7451 -50.7949 62.166 -60.1357c28.9893 -9.53027 63.8154 -1.60254 81.4961 24.417c8.39844 12.3643 40.2852 12.373 28.8711 -4.76465c-35.9961 -54.0459 -112.891 -66.5703 -164.384 -26.6973
c-59.3408 45.9502 -60.8506 130.415 -32.8584 193.944c24.7041 56.0645 77.5176 109.724 142.061 112.692c65.3506 3.00684 118.434 -54.374 142.881 -110.152c31.3867 -71.6084 36 -158.504 37.8418 -235.525c1.95117 -81.4873 -2.20801 -162.941 -1.26562 -244.438
c0.458008 -40.0752 1.26562 -80.8398 5.18066 -120.738c2.7002 -27.5342 16.5791 -72.3701 52.5918 -68.5977c35.5537 3.72168 54.0957 59.2441 64.8916 87.3252c14.0508 36.5254 24.207 74.4678 32.8584 112.587c17.8105 78.4844 31.6221 157.865 48.8604 236.493
c16.3682 74.6875 34.2246 149.034 53.293 223.073c1.70312 10.9805 3.44824 21.9482 5.29492 32.8828c6.02246 35.6211 81.5801 50.4248 75.915 4.59277c-12.3984 -100.328 -23.3535 -200.594 -28.6445 -301.582c-4.73535 -90.4326 -5.50879 -181.248 -1.82031 -271.735
c1.74512 -42.7959 3.71289 -86.0508 9.23438 -128.553c5.03418 -38.7373 11.8223 -80.9023 31.2734 -115.342c10.165 -17.9961 22.3701 -38.5361 45.9219 -37.1016c17.6758 1.07617 29.9473 15.2578 39.4473 28.9473c22.5547 32.5176 37.6611 71.873 51.5186 108.706
c29.6494 78.7998 48.6963 160.947 67.6719 242.813c3.23438 13.9629 34.082 19.4893 30.1074 1.82129c-23.4121 -104.075 -47.1904 -209.156 -91.084 -306.89c-15.0098 -33.4219 -31.9414 -70.0146 -63.7227 -90.6973c-32.0596 -20.8643 -70.7969 -15.8047 -102.532 3.46973
c-34.5488 20.9814 -53.377 65.418 -64.7451 102.6c-14.4424 47.2285 -19.8467 96.8672 -24.1191 145.866c-9.42871 108.176 -11.1191 218.038 -5.57617 327.476c-15.6445 -75.5742 -28.2861 -151.901 -46.4463 -226.887
c-8.32324 -34.3721 -18.3789 -68.3066 -31.4375 -101.194c-11.7969 -29.6953 -24.8633 -60.9766 -47.8086 -83.9434c-44.3018 -44.3525 -111.402 -48.2676 -150.426 4.91602c-41.1475 56.0732 -34.8008 143.284 -33.623 209.131z" />
    <glyph glyph-name="U" unicode="&#xda;" horiz-adv-x="907" 
d="M252.774 137.03c1.375 76.7305 7.0498 153.353 7.91602 230.088c0.84082 74.6533 -1.50195 149.723 -17.8066 222.837c-8.01562 35.9492 -25.7549 65.9395 -60.1064 82.1182c-32.3203 15.2197 -66.3223 6.7627 -93.5117 -14.6689
c-52.877 -41.6777 -83.7373 -125.516 -55.375 -189.154c11.9395 -26.7852 33.7451 -50.7949 62.166 -60.1357c28.9893 -9.53027 63.8154 -1.60254 81.4961 24.417c8.39844 12.3643 40.2852 12.373 28.8711 -4.76465c-35.9961 -54.0459 -112.891 -66.5703 -164.384 -26.6973
c-59.3408 45.9502 -60.8506 130.415 -32.8584 193.944c24.7041 56.0645 77.5176 109.724 142.061 112.692c65.3506 3.00684 118.434 -54.374 142.881 -110.152c31.3867 -71.6084 36 -158.504 37.8418 -235.525c1.95117 -81.4873 -2.20801 -162.941 -1.26562 -244.438
c0.458008 -40.0752 1.26562 -80.8398 5.18066 -120.738c2.7002 -27.5342 16.5791 -72.3701 52.5918 -68.5977c35.5537 3.72168 54.0957 59.2441 64.8916 87.3252c14.0508 36.5254 24.207 74.4678 32.8584 112.587c17.8105 78.4844 31.6221 157.865 48.8604 236.493
c16.3682 74.6875 34.2246 149.034 53.293 223.073c1.70312 10.9805 3.44824 21.9482 5.29492 32.8828c6.02246 35.6211 81.5801 50.4248 75.915 4.59277c-12.3984 -100.328 -23.3535 -200.594 -28.6445 -301.582c-4.73535 -90.4326 -5.50879 -181.248 -1.82031 -271.735
c1.74512 -42.7959 3.71289 -86.0508 9.23438 -128.553c5.03418 -38.7373 11.8223 -80.9023 31.2734 -115.342c10.165 -17.9961 22.3701 -38.5361 45.9219 -37.1016c17.6758 1.07617 29.9473 15.2578 39.4473 28.9473c22.5547 32.5176 37.6611 71.873 51.5186 108.706
c29.6494 78.7998 48.6963 160.947 67.6719 242.813c3.23438 13.9629 34.082 19.4893 30.1074 1.82129c-23.4121 -104.075 -47.1904 -209.156 -91.084 -306.89c-15.0098 -33.4219 -31.9414 -70.0146 -63.7227 -90.6973c-32.0596 -20.8643 -70.7969 -15.8047 -102.532 3.46973
c-34.5488 20.9814 -53.377 65.418 -64.7451 102.6c-14.4424 47.2285 -19.8467 96.8672 -24.1191 145.866c-9.42871 108.176 -11.1191 218.038 -5.57617 327.476c-15.6445 -75.5742 -28.2861 -151.901 -46.4463 -226.887
c-8.32324 -34.3721 -18.3789 -68.3066 -31.4375 -101.194c-11.7969 -29.6953 -24.8633 -60.9766 -47.8086 -83.9434c-44.3018 -44.3525 -111.402 -48.2676 -150.426 4.91602c-41.1475 56.0732 -34.8008 143.284 -33.623 209.131z" />
    <glyph glyph-name="V" unicode="V" horiz-adv-x="1080" 
d="M1076.88 171.579c21.8105 6.91406 20.2227 -19.6045 2.11328 -25.3369c-35.7939 -11.3467 -72.4707 -19.4131 -109.791 -23.707c-30.5371 -3.51172 -61.3721 -4.28516 -91.9336 -2.25391c-0.845703 -4.44141 -1.68652 -8.88672 -2.53223 -13.3281
c-14.5098 -76.1338 -30.7559 -152.233 -55.7744 -225.709c-23.6943 -69.5811 -54.1973 -140.689 -100.762 -198.214c-43.4688 -53.7012 -122.655 -84.9912 -185.402 -45.7871c-64.4004 40.2344 -85.1719 123.614 -100.354 193.027
c-17.8232 81.4619 -31.3145 163.976 -43.1533 246.498c-12.0703 84.1455 -23.6992 168.379 -37.7373 252.226c-6.90137 41.2314 -15.2197 82.1436 -23.4629 123.114c-7.83887 38.9648 -15.7793 78.5859 -29.46 115.999c-23.5264 64.3369 -76.9883 134.738 -154.787 120.633
c-65.1992 -11.8262 -107.975 -79.4141 -114.947 -141.316c-7.14941 -63.4707 18.1182 -136.366 74.9521 -170.284c50.917 -30.3809 122.345 -25.7168 160.998 21.752c10.6738 13.1045 38.46 6.23633 24.5898 -11.2256
c-16.4355 -20.6875 -37.9512 -36.1768 -62.5498 -45.7617c-49.8906 -19.4424 -109.055 -14.7236 -153.861 15.1953c-49.6514 33.1523 -76.8701 92.6357 -79.5576 151.232c-5.21094 113.651 96.5557 240.866 219.396 203.878
c145.968 -43.9521 178.208 -229.587 205.199 -357.146c33.7412 -159.472 51.3418 -321.883 85.0283 -481.367c8.18848 -38.7754 16.5615 -77.917 31.2227 -114.851c11.4346 -28.8037 25.8594 -65.9219 53.0361 -83.627c70.1201 -45.6768 129.974 54.3193 155.767 104.421
c54.4873 105.821 82.4336 225.289 103.798 343.63c-98.3691 12.6504 -191.855 54.9922 -260.818 129.242c-86.9463 93.6123 -121.298 227.282 -76.4912 348.908c40.4199 109.711 173.876 233.822 296.751 162.622c60.0176 -34.7803 88.7334 -100.14 101.291 -165.676
c15.1777 -79.2041 13.8232 -161.209 6.39648 -241.178c-6.53125 -70.3174 -18.5762 -139.979 -31.5801 -209.379c65.0986 -4.76465 131.732 3.89844 194.417 23.7695zM654.247 234.782c57.9697 -46.8291 126.317 -73.6748 197.603 -83.6846
c4.61328 26.6172 8.97461 53.1211 13.3018 79.3389c13.4414 81.4287 23.1855 163.804 20.9482 246.473c-1.99805 73.9551 -8.85352 159.312 -54.8916 220.545c-47.1064 62.6465 -123.076 74.7969 -189.251 33.6035c-55.6143 -34.6201 -92.7871 -94.3096 -109.168 -156.788
c-33.5566 -128.018 20.5234 -257.958 121.458 -339.487z" />
    <glyph glyph-name="W" unicode="W" horiz-adv-x="1160" 
d="M1022.3 136.286c-7.10742 -47.6494 -16.9512 -94.7891 -30.1611 -140.592c-23.9336 -82.9932 -64.3789 -197.377 -162.765 -212.277c-99.7939 -15.1152 -178.229 55.7949 -218.645 140.907c-43.0781 90.7275 -64.2158 190.14 -70.415 291.389
c-12.6719 -59.5303 -27.7617 -118.951 -51.6748 -174.831c-20.6035 -48.1455 -53.1846 -117.551 -112.534 -124.902c-61.582 -7.63281 -95.1006 48.1797 -105.244 100.586c-13.71 70.8477 -4.5166 143.138 -0.895508 214.52
c3.72656 73.4082 6.32129 147.443 -1.07227 220.726c-6.07715 60.2197 -15.334 143.52 -63.9922 186.135c-47.75 41.8203 -123.211 18.8623 -156.784 -29.7119c-32.5723 -47.124 -23.9209 -115.162 14.6777 -156.276c41.4883 -44.1924 112.256 -50.2949 160.233 -13.2988
c14.4668 11.1572 34.6328 -2.93555 17.71 -16.3896c-49.1924 -39.0996 -123.24 -47.8389 -177.913 -14.4082c-52.7295 32.2402 -79.3252 98.6045 -65.792 158.694c26.5205 117.735 189.125 162.247 271.243 73.375c47.2754 -51.1611 67.832 -124.103 77.3701 -191.497
c11.0898 -78.3838 7.88477 -158.214 3.82617 -237.019c-3.6543 -71.0322 -14.2988 -148.596 1.54785 -218.749c2.6748 -11.8643 6.51074 -29.5488 15.376 -38.5029c13.7939 -13.9326 31.8906 -2.18652 42.9551 9.03809c24.7705 25.1367 41.2773 60.4717 54.374 92.8086
c28.1104 69.4092 43.8936 144.369 58.0752 217.664c8.46582 43.7588 15.792 87.7197 22.6475 131.757c5.24902 54.3027 13.5762 107.907 23.9053 159.741c7.39355 37.1055 86.5049 53.3008 80.0537 4.83984c-27.3574 -205.535 -52.1113 -423.431 26.874 -621.64
c15.1777 -38.0898 32.6982 -76.2012 64.3789 -103.395c30.1797 -25.9062 75.6426 -44.0322 114.263 -27.3613c39.7559 17.1592 60.9229 63.6055 77.2109 100.9c19.291 44.1709 32.3369 90.9414 42.2793 138.027c5.99316 28.3838 11.0479 57.0068 15.2236 85.7812
c-45.6562 10.5059 -89.3145 30.2002 -127.804 58.2852c-84.3643 61.5527 -137.413 161.007 -149.593 263.96c-6.01855 50.8789 -2.12793 103.528 11.7334 152.868c12.3223 43.8555 31.7393 89.3604 66.8008 119.889c33.1152 28.834 81.126 42.708 122.467 23.5645
c39.0869 -18.1006 62.9287 -58.5244 78.582 -96.8037c42.1523 -103.07 48.1074 -223.081 46.5889 -333.107c-0.756836 -54.8496 -4.18848 -110.473 -11.1152 -165.629c43.376 -7.48145 88.165 -6.21582 131.087 5.16895c20.8643 5.53418 19.165 -18.8369 1.99316 -23.8291
c-44.9072 -13.0586 -91.585 -16.2461 -137.077 -10.4043zM914.506 206.36c24.5312 -14.4795 50.9219 -25.6582 78.2373 -33.3877c7.53223 61.6328 10.9258 123.821 10.1104 185.731c-1.27832 97.1699 -8.47852 202.288 -46.5645 292.813
c-14.8877 35.3857 -39.293 78.9727 -80.1211 88.1787c-48.877 11.0186 -83.5146 -34.0146 -101.447 -72.9502c-37.9053 -82.3037 -40.0967 -181.366 -11.4648 -266.786c26.5117 -79.0986 78.8086 -150.846 151.25 -193.6z" />
    <glyph glyph-name="X" unicode="X" horiz-adv-x="848" 
d="M854.622 144.074c-27.8701 -70.6748 -58.9414 -140.436 -103.845 -202.145c-39.0195 -53.6172 -95.8281 -116.26 -168.459 -112.395c-33.6533 1.79199 -60.6953 9.4043 -86.7998 31.6562c-25.0527 21.3564 -41.7275 50.7539 -53.835 80.9248
c-27.042 67.3945 -39.7344 142.519 -52.418 213.706c-13.1133 73.6064 -23.749 147.608 -36.6562 221.248c-0.0214844 0.105469 -0.0380859 0.210938 -0.0546875 0.316406c-36.6436 -59.9844 -70.6504 -121.685 -105.885 -182.375
c-31.4453 -54.1592 -63.6309 -108.196 -100.136 -159.139c-30.6465 -42.7666 -74.7422 -104.677 -134.672 -97.5781c-19.6152 2.32617 -1.02637 26.2646 13.4033 24.5615c38.3633 -4.52539 73.8291 50.5977 93.4023 77.4756c21.8604 30.0107 41.6816 61.582 61.0361 93.25
c56.9141 93.124 107.532 190.071 166.124 282.165c-10.2402 57.6289 -21.873 115.868 -42.8047 170.238c-12.0703 31.3525 -29.3174 58.0244 -61.0488 72.0586c-29.292 12.957 -63.3613 13.1299 -93.5869 3.20898c-63.5254 -20.8594 -106.25 -86.1465 -123.774 -147.737
c-17.4873 -61.4561 -6.45996 -143.953 60.1855 -171.491c72.3066 -29.877 129.381 49.1084 101.544 114.308c-6.07324 14.2148 22.958 28.127 28.9971 14.1436c29.0566 -67.2686 -12.4863 -141.762 -83.1406 -157.318c-68.8203 -15.1523 -129.906 35.0703 -144.991 100.736
c-15.6533 68.1436 13.4658 143.163 54.5459 197.032c39.2588 51.4805 99.6172 86.9717 165.577 84.5244c67.2686 -2.49805 116.878 -48.9531 147.142 -106.015c16.6875 -31.4619 29.7627 -65.5605 40.6553 -100.521c26.6172 37.0723 55.1475 72.7646 86.4834 105.972
c36.248 38.4053 84.4521 88.7295 142.843 74.3047c19.7031 -4.87012 0.992188 -28.6357 -13.6514 -25.0107c-41.2695 10.2197 -74.9814 -28.2529 -100.749 -55.0889c-23.9004 -24.8848 -46.2324 -51.2412 -67.2734 -78.5771
c-13.332 -17.3184 -26.1045 -35.0234 -38.4727 -52.998c8.55859 -31.168 15.7461 -62.5967 22.458 -93.0918c17.7139 -80.5156 30.8691 -161.923 48.4902 -242.447c8.62109 -39.4062 17.7266 -78.7285 29.5312 -117.323c10.7031 -34.9863 21.8984 -73.207 46.5303 -101.292
c10.3711 -11.8262 23.9463 -23.1641 37.3701 -31.3232c14.0254 -8.52441 33.0889 -6.30371 47.8291 -0.297852c34.4014 14.0127 61.3799 48.0195 83.1523 76.7988c45.6689 60.3584 76.5127 130.727 104.563 200.552c6.11035 15.2031 38.4307 15.376 30.3896 -5.0166z" />
    <glyph glyph-name="Y" unicode="Y" horiz-adv-x="969" 
d="M569.629 -426.812c-54.1045 -13.8066 -137.087 -4.54688 -150.99 61.708c-12.5029 59.5889 23.6064 110.859 70.4102 143.579c52.7881 36.9043 110.893 66.3896 164.72 101.885c29.2031 19.2578 57.9648 39.4189 85.8896 60.6572
c12.9277 74.0439 16.666 149.85 14.9414 224.793c-1.48926 64.6777 -5.52637 129.275 -12.4316 193.604c-3.49023 32.5049 -8.33105 64.7236 -13.7559 96.8545c-28.6025 -149.589 -74.2334 -295.989 -142.86 -432.237c-27.9883 -55.5645 -78.417 -150.754 -155.118 -135.454
c-78.3252 15.6279 -88.3682 121.154 -87.376 184.074c1.3623 86.1514 11.5107 171.983 14.249 258.089c2.60352 81.958 1.21973 169.611 -26.4531 247.798c-12.0527 34.0566 -29.5947 66.8643 -61.4648 86.0498c-35.8018 21.5537 -79.4219 18.6729 -116.877 2.99902
c-66.8398 -27.9717 -115.52 -91.7705 -131.795 -161.533c-17.1836 -73.6562 3.70117 -158.567 86.248 -176.571c73.459 -16.0234 147.103 22.7734 193.414 78.1191c10.3623 12.3857 37.1602 5.64844 23.5215 -10.7363
c-51.7207 -62.1455 -131.753 -103.982 -213.905 -95.4404c-34.3428 3.57031 -69.165 17.5752 -92.5146 43.7002c-28.0264 31.3564 -36.9082 74.5146 -34.6621 115.553c3.82324 69.8721 36.9756 136.342 88.5869 183.264c52.751 47.9609 133.448 81.4033 203.551 53.209
c67.9922 -27.3447 105.358 -106.78 124.46 -172.552c24.8926 -85.7012 28.6484 -175.844 25.4482 -264.54c-1.63184 -45.2354 -4.09668 -90.4414 -5.21973 -135.693c-1.12305 -45.3486 -3.40234 -93.8184 6.81348 -138.364
c6.44336 -28.1016 28.1943 -72.71 62.1709 -48.4268c34.8008 24.8721 55.5977 71.6592 73.9805 108.925c77.6602 157.44 123.964 328.124 149.378 501.377c-0.639648 3.51172 -1.28711 7.01953 -1.92676 10.5352c-4.31055 23.6982 43.2002 43.3213 54.6816 20.4551
c37.3789 -74.4141 49.541 -160.267 58.6836 -242.263c8.84863 -79.3174 13.916 -158.959 11.1699 -238.785c-0.920898 -26.8525 -2.64551 -54.0498 -5.3623 -81.3066c43.5488 41.0508 83.1777 86.0713 116.616 136.294c4.72754 7.09473 13.9463 13.21 22.9502 11.1914
c7.35938 -1.64844 12.7295 -9.09668 7.94727 -16.292c-42.7627 -64.3916 -94.79 -120.919 -152.306 -171.588c-13.6426 -98.583 -41.9424 -196.106 -95.6562 -279.15c-37.1855 -57.4902 -91.459 -106.507 -159.156 -123.779zM474.434 -272.885
c-16.002 -21.2891 -25.1562 -54.0928 -10.0625 -78.1445c32.2861 -51.4385 108.643 -26.4492 146.052 3.97852c43.5156 35.3945 70.3301 91.9004 89.9658 143.166c13.2852 34.6924 23.6396 70.2588 31.6514 106.352c-12.5498 -9.10547 -25.2383 -18.0254 -38.0527 -26.7432
c-48.625 -33.0771 -98.9238 -63.5215 -149.538 -93.4316c-25.377 -14.9971 -52.0195 -31.2344 -70.0156 -55.1768z" />
    <glyph glyph-name="Y" unicode="&#x178;" horiz-adv-x="969" 
d="M569.629 -426.812c-54.1045 -13.8066 -137.087 -4.54688 -150.99 61.708c-12.5029 59.5889 23.6064 110.859 70.4102 143.579c52.7881 36.9043 110.893 66.3896 164.72 101.885c29.2031 19.2578 57.9648 39.4189 85.8896 60.6572
c12.9277 74.0439 16.666 149.85 14.9414 224.793c-1.48926 64.6777 -5.52637 129.275 -12.4316 193.604c-3.49023 32.5049 -8.33105 64.7236 -13.7559 96.8545c-28.6025 -149.589 -74.2334 -295.989 -142.86 -432.237c-27.9883 -55.5645 -78.417 -150.754 -155.118 -135.454
c-78.3252 15.6279 -88.3682 121.154 -87.376 184.074c1.3623 86.1514 11.5107 171.983 14.249 258.089c2.60352 81.958 1.21973 169.611 -26.4531 247.798c-12.0527 34.0566 -29.5947 66.8643 -61.4648 86.0498c-35.8018 21.5537 -79.4219 18.6729 -116.877 2.99902
c-66.8398 -27.9717 -115.52 -91.7705 -131.795 -161.533c-17.1836 -73.6562 3.70117 -158.567 86.248 -176.571c73.459 -16.0234 147.103 22.7734 193.414 78.1191c10.3623 12.3857 37.1602 5.64844 23.5215 -10.7363
c-51.7207 -62.1455 -131.753 -103.982 -213.905 -95.4404c-34.3428 3.57031 -69.165 17.5752 -92.5146 43.7002c-28.0264 31.3564 -36.9082 74.5146 -34.6621 115.553c3.82324 69.8721 36.9756 136.342 88.5869 183.264c52.751 47.9609 133.448 81.4033 203.551 53.209
c67.9922 -27.3447 105.358 -106.78 124.46 -172.552c24.8926 -85.7012 28.6484 -175.844 25.4482 -264.54c-1.63184 -45.2354 -4.09668 -90.4414 -5.21973 -135.693c-1.12305 -45.3486 -3.40234 -93.8184 6.81348 -138.364
c6.44336 -28.1016 28.1943 -72.71 62.1709 -48.4268c34.8008 24.8721 55.5977 71.6592 73.9805 108.925c77.6602 157.44 123.964 328.124 149.378 501.377c-0.639648 3.51172 -1.28711 7.01953 -1.92676 10.5352c-4.31055 23.6982 43.2002 43.3213 54.6816 20.4551
c37.3789 -74.4141 49.541 -160.267 58.6836 -242.263c8.84863 -79.3174 13.916 -158.959 11.1699 -238.785c-0.920898 -26.8525 -2.64551 -54.0498 -5.3623 -81.3066c43.5488 41.0508 83.1777 86.0713 116.616 136.294c4.72754 7.09473 13.9463 13.21 22.9502 11.1914
c7.35938 -1.64844 12.7295 -9.09668 7.94727 -16.292c-42.7627 -64.3916 -94.79 -120.919 -152.306 -171.588c-13.6426 -98.583 -41.9424 -196.106 -95.6562 -279.15c-37.1855 -57.4902 -91.459 -106.507 -159.156 -123.779zM474.434 -272.885
c-16.002 -21.2891 -25.1562 -54.0928 -10.0625 -78.1445c32.2861 -51.4385 108.643 -26.4492 146.052 3.97852c43.5156 35.3945 70.3301 91.9004 89.9658 143.166c13.2852 34.6924 23.6396 70.2588 31.6514 106.352c-12.5498 -9.10547 -25.2383 -18.0254 -38.0527 -26.7432
c-48.625 -33.0771 -98.9238 -63.5215 -149.538 -93.4316c-25.377 -14.9971 -52.0195 -31.2344 -70.0156 -55.1768z" />
    <glyph glyph-name="Y" unicode="&#xdd;" horiz-adv-x="969" 
d="M569.629 -426.812c-54.1045 -13.8066 -137.087 -4.54688 -150.99 61.708c-12.5029 59.5889 23.6064 110.859 70.4102 143.579c52.7881 36.9043 110.893 66.3896 164.72 101.885c29.2031 19.2578 57.9648 39.4189 85.8896 60.6572
c12.9277 74.0439 16.666 149.85 14.9414 224.793c-1.48926 64.6777 -5.52637 129.275 -12.4316 193.604c-3.49023 32.5049 -8.33105 64.7236 -13.7559 96.8545c-28.6025 -149.589 -74.2334 -295.989 -142.86 -432.237c-27.9883 -55.5645 -78.417 -150.754 -155.118 -135.454
c-78.3252 15.6279 -88.3682 121.154 -87.376 184.074c1.3623 86.1514 11.5107 171.983 14.249 258.089c2.60352 81.958 1.21973 169.611 -26.4531 247.798c-12.0527 34.0566 -29.5947 66.8643 -61.4648 86.0498c-35.8018 21.5537 -79.4219 18.6729 -116.877 2.99902
c-66.8398 -27.9717 -115.52 -91.7705 -131.795 -161.533c-17.1836 -73.6562 3.70117 -158.567 86.248 -176.571c73.459 -16.0234 147.103 22.7734 193.414 78.1191c10.3623 12.3857 37.1602 5.64844 23.5215 -10.7363
c-51.7207 -62.1455 -131.753 -103.982 -213.905 -95.4404c-34.3428 3.57031 -69.165 17.5752 -92.5146 43.7002c-28.0264 31.3564 -36.9082 74.5146 -34.6621 115.553c3.82324 69.8721 36.9756 136.342 88.5869 183.264c52.751 47.9609 133.448 81.4033 203.551 53.209
c67.9922 -27.3447 105.358 -106.78 124.46 -172.552c24.8926 -85.7012 28.6484 -175.844 25.4482 -264.54c-1.63184 -45.2354 -4.09668 -90.4414 -5.21973 -135.693c-1.12305 -45.3486 -3.40234 -93.8184 6.81348 -138.364
c6.44336 -28.1016 28.1943 -72.71 62.1709 -48.4268c34.8008 24.8721 55.5977 71.6592 73.9805 108.925c77.6602 157.44 123.964 328.124 149.378 501.377c-0.639648 3.51172 -1.28711 7.01953 -1.92676 10.5352c-4.31055 23.6982 43.2002 43.3213 54.6816 20.4551
c37.3789 -74.4141 49.541 -160.267 58.6836 -242.263c8.84863 -79.3174 13.916 -158.959 11.1699 -238.785c-0.920898 -26.8525 -2.64551 -54.0498 -5.3623 -81.3066c43.5488 41.0508 83.1777 86.0713 116.616 136.294c4.72754 7.09473 13.9463 13.21 22.9502 11.1914
c7.35938 -1.64844 12.7295 -9.09668 7.94727 -16.292c-42.7627 -64.3916 -94.79 -120.919 -152.306 -171.588c-13.6426 -98.583 -41.9424 -196.106 -95.6562 -279.15c-37.1855 -57.4902 -91.459 -106.507 -159.156 -123.779zM474.434 -272.885
c-16.002 -21.2891 -25.1562 -54.0928 -10.0625 -78.1445c32.2861 -51.4385 108.643 -26.4492 146.052 3.97852c43.5156 35.3945 70.3301 91.9004 89.9658 143.166c13.2852 34.6924 23.6396 70.2588 31.6514 106.352c-12.5498 -9.10547 -25.2383 -18.0254 -38.0527 -26.7432
c-48.625 -33.0771 -98.9238 -63.5215 -149.538 -93.4316c-25.377 -14.9971 -52.0195 -31.2344 -70.0156 -55.1768z" />
    <glyph glyph-name="Z" unicode="Z" horiz-adv-x="627" 
d="M447.596 472.918c2.10254 -27.9629 2.75586 -56.1465 2.04883 -84.374c23.8584 2.99902 48.0234 1.14844 69.0391 -12.1963c16.0273 -10.1777 -8.19727 -31.4414 -20.7051 -23.4336c-15.7754 10.0977 -32.3828 12.1748 -49.3271 10.6436
c-4.20117 -78.3252 -18.8115 -156.52 -42.5566 -230.525c-14.3955 -44.874 -32.2402 -88.5107 -53.6465 -130.276c90.8369 17.7979 178.52 50.917 252.449 107.982c14.4717 11.1699 34.7969 -3.17578 17.71 -16.3896c-82.5684 -63.8447 -182.145 -100.968 -284.311 -119.031
c-0.197266 -0.0332031 -0.394531 -0.0625 -0.591797 -0.0957031c-21.9912 -39.0703 -47.3047 -76.2725 -76.126 -111.007c-67.1758 -80.958 -157.663 -155.775 -262.517 -179.02c-95.6221 -21.1963 -231.942 7.63281 -253.21 120.221
c-19.3164 102.263 97.0059 157.676 178.927 170.869c59.3076 9.55078 119.624 6.52734 179.436 6.7373c53.8525 0.189453 107.764 1.82129 161.368 7.1543c27.542 47.8682 49.7646 99.0752 66.9404 150.989c22.2178 67.1465 37.3408 136.589 44.835 206.868
c-5.21094 -0.955078 -10.3877 -1.68652 -15.5186 -2.04004c-17.748 -1.22754 -88.5742 7.49023 -69.3086 39.625c7.1875 11.9941 35.0869 12.4902 28.9805 -2.26758c8.86133 -12.9912 36.8076 -13.0459 49.5801 -11.7588c2.88086 0.290039 5.74023 0.706055 8.58789 1.18555
c1.68652 20.8848 2.7334 41.8281 3.04492 62.7969c0.736328 49.6553 -1.3584 100.93 -9.87012 149.921c-7.68359 44.1963 -24.1904 91.5469 -57.9111 122.903c-76.167 70.8262 -179.91 15.7959 -234.049 -53.832c-25.1279 -32.3154 -42.627 -70.582 -50.9834 -110.628
c-5.28223 -25.3047 -18.3115 -103.486 22.8271 -107.68c19.7285 -2.01074 0.836914 -25.8232 -13.4033 -24.5615c-49.5254 4.39062 -48.9873 69.6025 -44.9209 105.863c5.58496 49.7939 25.2422 97.7246 54.3867 138.312c59.3242 82.623 176.425 150.774 273.145 88.5107
c91.3369 -58.8027 117.979 -169.469 125.65 -271.467zM214.767 -85.9639c12.4863 16.1035 24.1895 32.8877 35.1533 50.1895c-87.1318 -7.07422 -174.339 -4.44141 -262.228 -7.55762c-48.7471 -1.72852 -100.636 -6.81348 -143.827 -31.374
c-35.8906 -20.4053 -66.8398 -59.2734 -51.6152 -102.52c14.4844 -41.1309 61.5908 -67.1631 101.767 -76.5371c41.5088 -9.68945 86.916 -5.14746 126.587 10.1738c78.333 30.2549 143.452 92.2324 194.163 157.625z" />
    <glyph glyph-name="bracketleft" unicode="[" horiz-adv-x="316" 
d="M231.113 -194.389c39.1328 10.6523 47.3037 -35.5742 13.3271 -49.0488c-47.3047 -18.7568 -97.4941 -7.6709 -130.008 32.6143c-29.9434 37.1016 -41.6387 89.6465 -50.6934 135.42c-18.0166 91.085 -14.1768 185.567 -11.25 277.817
c3.1709 99.8701 6.01855 199.82 11.0693 299.614c2.52734 49.9453 4.88281 99.9834 8.43262 149.866c3.25488 45.668 6.26172 93.8047 21.0654 137.45c11.9902 35.3477 33.1943 66.9609 70.6621 77.4668c28.6152 8.02441 58.21 6.07324 76.8408 -19.291
c8.5625 -11.6533 -19.9678 -28.1475 -28.6396 -17.541c-30.5996 37.4209 -57.208 -7.80176 -62.3008 -37.2109c-7.10352 -41 -5.58984 -84.4014 -6.14453 -125.873c-2.14453 -160.46 -5.53418 -320.752 -9.5166 -481.179
c-1.88379 -76.0117 -1.75293 -152.423 10.8467 -227.619c5.8125 -34.7041 12.6006 -70.2666 26.9883 -102.6c9.53027 -21.4316 30.3604 -57.7725 59.3203 -49.8867z" />
    <glyph glyph-name="backslash" unicode="\" horiz-adv-x="497" 
d="M445.068 -137.387c12.6377 -36.7441 -60.3955 -70.8389 -72.5879 -35.4023c-52.0986 151.447 -103.243 303.201 -154.627 454.889c-25.5869 75.541 -50.9883 151.086 -79.4854 225.592c-28.249 73.8672 -58.8955 146.779 -87.165 220.629
c-8.97461 23.4375 34.8018 44.9912 47.3389 23.0889c78.4424 -137.018 135.44 -287.241 188.523 -435.556c53.9111 -150.632 105.959 -301.953 158.003 -453.24z" />
    <glyph glyph-name="bracketright" unicode="]" horiz-adv-x="318" 
d="M267.261 170.197c2.10742 -92.4561 1.0498 -187.48 -24.3516 -277.093c-12.1162 -42.7334 -28.1016 -85.1299 -62.6797 -114.805c-32.0596 -27.5088 -77.4883 -40.4746 -117.487 -23.9766c-35.377 14.5938 11.4775 59.0303 37.0303 52.3311
c32.9004 -8.62988 46.1729 26.9492 54.6006 53.0195c12.4658 38.5605 19.8506 78.9473 24.708 119.128c9.12598 75.4609 6.20312 151.981 3.95312 227.766c-2.38867 80.4277 -4.42871 160.847 -6.18262 241.291c-1.78711 81.7822 -0.525391 163.632 -2.80078 245.396
c-0.955078 34.2793 0.487305 72.9922 -9.58887 106.111c-6.51855 21.4189 -34.9941 65.0645 -59.2354 35.0791c-10.6318 -13.1553 -37.8965 -6.6875 -24.5898 11.2236c22.2227 29.9062 63.8877 30.4238 95.8672 17.29c38.9854 -16.0107 52.2119 -65.7246 59.3281 -103.062
c9.13867 -47.9561 11.0273 -97.4268 13.7402 -146.048c2.7627 -49.5928 5.50488 -99.1641 7.48535 -148.794c3.91992 -98.2598 7.96582 -196.544 10.2031 -294.858z" />
    <glyph glyph-name="asciicircum" unicode="^" horiz-adv-x="277" 
d="M155.315 677.871c77.4883 36.833 75.3076 -81.4453 69.5205 -126.336c-3.625 -28.1182 -72.0078 -45.4238 -69.3418 -11.3965c1.28711 16.4316 1.90918 32.8711 0.765625 49.332c-0.125977 1.8125 -0.458008 9.23535 -1.06738 17.2217
c-5.36621 -6.72461 -10.627 -13.5293 -15.8799 -20.3506c-15.7539 -20.4648 -30.209 -42.3428 -48.1328 -60.9648c-9.97559 -10.3672 -45.9082 -18.5723 -40.6592 6.71191c6.30371 30.3682 24.9932 58.541 42.707 83.4971c17.0664 24.0479 34.6797 49.2559 62.0879 62.2852z
M172.653 627.602c6.49805 1.08496 2.99023 2.96094 0 0z" />
    <glyph glyph-name="underscore" unicode="_" horiz-adv-x="424" 
d="M345.503 -49.9482c15.9014 0.483398 31.8447 -8.71289 28.0049 -26.7842c-3.78516 -17.8018 -24.7461 -30.166 -41.8418 -31.0117c-48.6211 -2.41016 -97.334 -3.65527 -146.001 -4.77832c-24.9395 -0.572266 -49.8955 -0.694336 -74.8389 -0.929688
c-16.7217 -0.160156 -42.0137 -4.37793 -54.6729 9.20605c-21.5791 23.1641 18.5762 49.6719 43.5488 42.9434c38.418 -0.492188 77.9844 4.65527 116.272 6.16895c43.1748 1.70312 86.3369 3.87305 129.528 5.18555z" />
    <glyph glyph-name="grave" unicode="`" horiz-adv-x="192" 
d="M140.767 589.616c8.33105 -20.5234 -25.1357 -35.5752 -39.834 -24.4014c-28.6445 21.7764 -42.5654 56.3047 -50.4639 90.3447c-6.22461 26.8232 51.4883 46.7363 58.4277 15.5732c6.45605 -28.96 20.8262 -54.3027 31.8701 -81.5166z" />
    <glyph glyph-name="a" unicode="a" horiz-adv-x="414" 
d="M417.161 231.991c4.84863 13.0371 36.0273 18.6299 30.1104 1.82031c-27.4248 -77.9424 -53.1338 -156.826 -84.8271 -233.175c-21.293 -51.2959 -53.5752 -133.107 -121.853 -127.603c-76.8613 6.19922 -81.8066 119.148 -83.9473 176.101
c-0.828125 21.9912 -0.702148 44.0791 0.105469 66.1963c-7.24609 -22.416 -14.8623 -44.6758 -22.9707 -66.6797c-8.36523 -22.6973 -21.5537 -44.3564 -46.5479 -50.8545c-24.0098 -6.24121 -58.6387 4.55469 -74.9189 23.1396
c-19.6699 22.4541 -28.5986 58.7656 -32.3291 87.6074c-4.36523 33.7539 -2.31738 68.5977 5.18164 101.771c13.374 59.1602 57.1963 139.941 130.874 125.811c25.6455 -4.91602 42.5732 -24.9561 57.2002 -45.2148c0.609375 4.82812 1.21875 9.65234 1.83301 14.4678
c4.74414 37.3203 83.1611 52.2754 78.6738 4.75684c-6.52734 -69.1016 -17.0498 -137.816 -19.4971 -207.264c-1.17773 -33.3799 -1.11035 -66.6631 0.311523 -100.034c1.15234 -27.0625 1.29102 -59.6309 16.9482 -82.9258
c9.67676 -14.4004 18.584 -18.3457 31.3311 -4.25684c9.79883 10.8291 17.4062 24.0938 24.3369 36.8701c15.7207 28.9805 27.9424 59.9922 39.7725 90.71c24.1191 62.6299 46.8164 125.849 70.2119 188.756zM118.626 98.0596
c13.3779 40.668 25.7197 81.6465 37.4951 122.794c-21.5996 39.3311 -55.0215 87.8135 -74.9053 58.8916c-15.2373 -22.1631 -22.8701 -53.4824 -27.875 -79.498c-5.875 -30.5537 -5.9082 -60.96 -3.30469 -91.8457c1.26562 -15.0264 2.92676 -30.667 6.82129 -45.3027
c2.53223 -9.52148 6.99902 -29.1992 15.0615 -35.5752c25.6875 -20.3086 42.123 56.5986 46.707 70.5361z" />
    <glyph glyph-name="a" unicode="&#xe5;" horiz-adv-x="414" 
d="M417.161 231.991c4.84863 13.0371 36.0273 18.6299 30.1104 1.82031c-27.4248 -77.9424 -53.1338 -156.826 -84.8271 -233.175c-21.293 -51.2959 -53.5752 -133.107 -121.853 -127.603c-76.8613 6.19922 -81.8066 119.148 -83.9473 176.101
c-0.828125 21.9912 -0.702148 44.0791 0.105469 66.1963c-7.24609 -22.416 -14.8623 -44.6758 -22.9707 -66.6797c-8.36523 -22.6973 -21.5537 -44.3564 -46.5479 -50.8545c-24.0098 -6.24121 -58.6387 4.55469 -74.9189 23.1396
c-19.6699 22.4541 -28.5986 58.7656 -32.3291 87.6074c-4.36523 33.7539 -2.31738 68.5977 5.18164 101.771c13.374 59.1602 57.1963 139.941 130.874 125.811c25.6455 -4.91602 42.5732 -24.9561 57.2002 -45.2148c0.609375 4.82812 1.21875 9.65234 1.83301 14.4678
c4.74414 37.3203 83.1611 52.2754 78.6738 4.75684c-6.52734 -69.1016 -17.0498 -137.816 -19.4971 -207.264c-1.17773 -33.3799 -1.11035 -66.6631 0.311523 -100.034c1.15234 -27.0625 1.29102 -59.6309 16.9482 -82.9258
c9.67676 -14.4004 18.584 -18.3457 31.3311 -4.25684c9.79883 10.8291 17.4062 24.0938 24.3369 36.8701c15.7207 28.9805 27.9424 59.9922 39.7725 90.71c24.1191 62.6299 46.8164 125.849 70.2119 188.756zM118.626 98.0596
c13.3779 40.668 25.7197 81.6465 37.4951 122.794c-21.5996 39.3311 -55.0215 87.8135 -74.9053 58.8916c-15.2373 -22.1631 -22.8701 -53.4824 -27.875 -79.498c-5.875 -30.5537 -5.9082 -60.96 -3.30469 -91.8457c1.26562 -15.0264 2.92676 -30.667 6.82129 -45.3027
c2.53223 -9.52148 6.99902 -29.1992 15.0615 -35.5752c25.6875 -20.3086 42.123 56.5986 46.707 70.5361z" />
    <glyph glyph-name="a" unicode="&#xe4;" horiz-adv-x="414" 
d="M417.161 231.991c4.84863 13.0371 36.0273 18.6299 30.1104 1.82031c-27.4248 -77.9424 -53.1338 -156.826 -84.8271 -233.175c-21.293 -51.2959 -53.5752 -133.107 -121.853 -127.603c-76.8613 6.19922 -81.8066 119.148 -83.9473 176.101
c-0.828125 21.9912 -0.702148 44.0791 0.105469 66.1963c-7.24609 -22.416 -14.8623 -44.6758 -22.9707 -66.6797c-8.36523 -22.6973 -21.5537 -44.3564 -46.5479 -50.8545c-24.0098 -6.24121 -58.6387 4.55469 -74.9189 23.1396
c-19.6699 22.4541 -28.5986 58.7656 -32.3291 87.6074c-4.36523 33.7539 -2.31738 68.5977 5.18164 101.771c13.374 59.1602 57.1963 139.941 130.874 125.811c25.6455 -4.91602 42.5732 -24.9561 57.2002 -45.2148c0.609375 4.82812 1.21875 9.65234 1.83301 14.4678
c4.74414 37.3203 83.1611 52.2754 78.6738 4.75684c-6.52734 -69.1016 -17.0498 -137.816 -19.4971 -207.264c-1.17773 -33.3799 -1.11035 -66.6631 0.311523 -100.034c1.15234 -27.0625 1.29102 -59.6309 16.9482 -82.9258
c9.67676 -14.4004 18.584 -18.3457 31.3311 -4.25684c9.79883 10.8291 17.4062 24.0938 24.3369 36.8701c15.7207 28.9805 27.9424 59.9922 39.7725 90.71c24.1191 62.6299 46.8164 125.849 70.2119 188.756zM118.626 98.0596
c13.3779 40.668 25.7197 81.6465 37.4951 122.794c-21.5996 39.3311 -55.0215 87.8135 -74.9053 58.8916c-15.2373 -22.1631 -22.8701 -53.4824 -27.875 -79.498c-5.875 -30.5537 -5.9082 -60.96 -3.30469 -91.8457c1.26562 -15.0264 2.92676 -30.667 6.82129 -45.3027
c2.53223 -9.52148 6.99902 -29.1992 15.0615 -35.5752c25.6875 -20.3086 42.123 56.5986 46.707 70.5361z" />
    <glyph glyph-name="a" unicode="&#xe3;" horiz-adv-x="414" 
d="M417.161 231.991c4.84863 13.0371 36.0273 18.6299 30.1104 1.82031c-27.4248 -77.9424 -53.1338 -156.826 -84.8271 -233.175c-21.293 -51.2959 -53.5752 -133.107 -121.853 -127.603c-76.8613 6.19922 -81.8066 119.148 -83.9473 176.101
c-0.828125 21.9912 -0.702148 44.0791 0.105469 66.1963c-7.24609 -22.416 -14.8623 -44.6758 -22.9707 -66.6797c-8.36523 -22.6973 -21.5537 -44.3564 -46.5479 -50.8545c-24.0098 -6.24121 -58.6387 4.55469 -74.9189 23.1396
c-19.6699 22.4541 -28.5986 58.7656 -32.3291 87.6074c-4.36523 33.7539 -2.31738 68.5977 5.18164 101.771c13.374 59.1602 57.1963 139.941 130.874 125.811c25.6455 -4.91602 42.5732 -24.9561 57.2002 -45.2148c0.609375 4.82812 1.21875 9.65234 1.83301 14.4678
c4.74414 37.3203 83.1611 52.2754 78.6738 4.75684c-6.52734 -69.1016 -17.0498 -137.816 -19.4971 -207.264c-1.17773 -33.3799 -1.11035 -66.6631 0.311523 -100.034c1.15234 -27.0625 1.29102 -59.6309 16.9482 -82.9258
c9.67676 -14.4004 18.584 -18.3457 31.3311 -4.25684c9.79883 10.8291 17.4062 24.0938 24.3369 36.8701c15.7207 28.9805 27.9424 59.9922 39.7725 90.71c24.1191 62.6299 46.8164 125.849 70.2119 188.756zM118.626 98.0596
c13.3779 40.668 25.7197 81.6465 37.4951 122.794c-21.5996 39.3311 -55.0215 87.8135 -74.9053 58.8916c-15.2373 -22.1631 -22.8701 -53.4824 -27.875 -79.498c-5.875 -30.5537 -5.9082 -60.96 -3.30469 -91.8457c1.26562 -15.0264 2.92676 -30.667 6.82129 -45.3027
c2.53223 -9.52148 6.99902 -29.1992 15.0615 -35.5752c25.6875 -20.3086 42.123 56.5986 46.707 70.5361z" />
    <glyph glyph-name="a" unicode="&#xe2;" horiz-adv-x="414" 
d="M417.161 231.991c4.84863 13.0371 36.0273 18.6299 30.1104 1.82031c-27.4248 -77.9424 -53.1338 -156.826 -84.8271 -233.175c-21.293 -51.2959 -53.5752 -133.107 -121.853 -127.603c-76.8613 6.19922 -81.8066 119.148 -83.9473 176.101
c-0.828125 21.9912 -0.702148 44.0791 0.105469 66.1963c-7.24609 -22.416 -14.8623 -44.6758 -22.9707 -66.6797c-8.36523 -22.6973 -21.5537 -44.3564 -46.5479 -50.8545c-24.0098 -6.24121 -58.6387 4.55469 -74.9189 23.1396
c-19.6699 22.4541 -28.5986 58.7656 -32.3291 87.6074c-4.36523 33.7539 -2.31738 68.5977 5.18164 101.771c13.374 59.1602 57.1963 139.941 130.874 125.811c25.6455 -4.91602 42.5732 -24.9561 57.2002 -45.2148c0.609375 4.82812 1.21875 9.65234 1.83301 14.4678
c4.74414 37.3203 83.1611 52.2754 78.6738 4.75684c-6.52734 -69.1016 -17.0498 -137.816 -19.4971 -207.264c-1.17773 -33.3799 -1.11035 -66.6631 0.311523 -100.034c1.15234 -27.0625 1.29102 -59.6309 16.9482 -82.9258
c9.67676 -14.4004 18.584 -18.3457 31.3311 -4.25684c9.79883 10.8291 17.4062 24.0938 24.3369 36.8701c15.7207 28.9805 27.9424 59.9922 39.7725 90.71c24.1191 62.6299 46.8164 125.849 70.2119 188.756zM118.626 98.0596
c13.3779 40.668 25.7197 81.6465 37.4951 122.794c-21.5996 39.3311 -55.0215 87.8135 -74.9053 58.8916c-15.2373 -22.1631 -22.8701 -53.4824 -27.875 -79.498c-5.875 -30.5537 -5.9082 -60.96 -3.30469 -91.8457c1.26562 -15.0264 2.92676 -30.667 6.82129 -45.3027
c2.53223 -9.52148 6.99902 -29.1992 15.0615 -35.5752c25.6875 -20.3086 42.123 56.5986 46.707 70.5361z" />
    <glyph glyph-name="a" unicode="&#xe1;" horiz-adv-x="414" 
d="M417.161 231.991c4.84863 13.0371 36.0273 18.6299 30.1104 1.82031c-27.4248 -77.9424 -53.1338 -156.826 -84.8271 -233.175c-21.293 -51.2959 -53.5752 -133.107 -121.853 -127.603c-76.8613 6.19922 -81.8066 119.148 -83.9473 176.101
c-0.828125 21.9912 -0.702148 44.0791 0.105469 66.1963c-7.24609 -22.416 -14.8623 -44.6758 -22.9707 -66.6797c-8.36523 -22.6973 -21.5537 -44.3564 -46.5479 -50.8545c-24.0098 -6.24121 -58.6387 4.55469 -74.9189 23.1396
c-19.6699 22.4541 -28.5986 58.7656 -32.3291 87.6074c-4.36523 33.7539 -2.31738 68.5977 5.18164 101.771c13.374 59.1602 57.1963 139.941 130.874 125.811c25.6455 -4.91602 42.5732 -24.9561 57.2002 -45.2148c0.609375 4.82812 1.21875 9.65234 1.83301 14.4678
c4.74414 37.3203 83.1611 52.2754 78.6738 4.75684c-6.52734 -69.1016 -17.0498 -137.816 -19.4971 -207.264c-1.17773 -33.3799 -1.11035 -66.6631 0.311523 -100.034c1.15234 -27.0625 1.29102 -59.6309 16.9482 -82.9258
c9.67676 -14.4004 18.584 -18.3457 31.3311 -4.25684c9.79883 10.8291 17.4062 24.0938 24.3369 36.8701c15.7207 28.9805 27.9424 59.9922 39.7725 90.71c24.1191 62.6299 46.8164 125.849 70.2119 188.756zM118.626 98.0596
c13.3779 40.668 25.7197 81.6465 37.4951 122.794c-21.5996 39.3311 -55.0215 87.8135 -74.9053 58.8916c-15.2373 -22.1631 -22.8701 -53.4824 -27.875 -79.498c-5.875 -30.5537 -5.9082 -60.96 -3.30469 -91.8457c1.26562 -15.0264 2.92676 -30.667 6.82129 -45.3027
c2.53223 -9.52148 6.99902 -29.1992 15.0615 -35.5752c25.6875 -20.3086 42.123 56.5986 46.707 70.5361z" />
    <glyph glyph-name="b" unicode="b" horiz-adv-x="425" 
d="M427.58 208.213c8.47461 13.5586 41.8633 13.3896 30.3945 -5.00586c-35.0498 -56.2285 -82.6357 -101.354 -137.409 -135.92c-2.81738 -20.2119 -6.8252 -40.2432 -12.0439 -59.8955c-16.625 -62.6123 -42.1738 -126.735 -89.7227 -172.459
c-46.6943 -44.8984 -115.527 -73.3535 -179.347 -49.5625c-51.3711 19.1523 -84.2588 78.5938 -77.9551 132.497c4.39062 37.5391 29.5693 60.8418 60.5645 75.3047c-8.02051 15.7207 -11.4521 36.168 -14.9346 50.2148c-7.7002 31.0713 -13.9033 62.6338 -18.5635 94.2979
c-9.33594 63.4668 -14.6182 127.518 -14.7949 191.678c-0.319336 115.881 8.5459 235.605 54.4707 343.285c19.459 45.6221 48.3516 93.9824 90.0117 122.66c38.8301 26.7305 88.1445 21.1494 117.781 -16.5117c29.3721 -37.3242 29.3389 -92.7119 25.0156 -137.544
c-5.26074 -54.5889 -21.9775 -106.97 -42.6396 -157.513c-39.3975 -96.3838 -93.4268 -186.286 -158.429 -267.521c1.80859 -20.6494 4.02051 -41.2607 6.74609 -61.835c2.29199 -17.3232 4.62598 -34.6465 7.2041 -51.9355c7.1875 40.7139 17.1543 80.8818 32.3066 119.354
c19.7871 50.248 60.5977 136.988 126.575 131.163c28.0088 -2.47266 42.6445 -25.2959 55.9844 -47.3584c16.3975 -27.1221 24.3037 -58.9961 29.7158 -90c6.60742 -37.8506 8.31934 -76.5967 5.56934 -115.031c40.3652 27.9922 75.7676 63.2432 103.499 107.638z
M74.6396 591.354c-20.4648 -94.2812 -23.2227 -192.732 -19.8916 -288.83c0.517578 -14.8291 1.23633 -29.6416 2.13184 -44.4365c51.9766 70.1621 95.3613 146.473 128.648 227.321c18.248 44.3184 33.4678 90.9414 39.1367 138.708
c4.84473 40.8027 7.42285 98.9951 -23.1641 131.139c-67.0703 70.4727 -118.303 -124.461 -126.861 -163.901zM244.248 21.6299c0.618164 2.25 1.20605 4.50879 1.79492 6.77148c-22.8779 -9.73145 -46.459 -17.9746 -70.4648 -24.7158
c-26.8398 -7.54102 -54.0967 -12.9658 -81.5928 -17.4697c-2.91895 -0.479492 -5.8877 -0.946289 -8.88184 -1.42188c-8.61328 -10.3164 -24.6279 -16.1328 -36.584 -14.085c-3.35645 0.576172 -6.36719 1.69922 -9.14258 3.1709
c-7.64551 -3.07031 -14.8496 -7.01074 -21.2627 -12.2598c-22.9414 -18.7822 -25.1787 -50.7109 -12.4023 -76.3271c9.87891 -19.8086 31.6807 -36.5215 51.8926 -44.958c43.9863 -18.3574 91.5938 3.97852 120.583 38.0859c33.7158 39.6709 52.502 93.7383 66.0605 143.209
zM253.785 60.8594c9.28613 43.7803 14.0352 88.4268 12.1846 133.305c-1.24512 30.0908 -14.0264 170.848 -70.8184 118.332c-37.9307 -35.0742 -58.5674 -93.7461 -71.8359 -142.144c-14.0176 -51.1318 -20.7842 -103.841 -28.8047 -156.142
c-0.0585938 -0.382812 -0.213867 -0.736328 -0.310547 -1.10645c55.1055 9.80762 109.518 24.8887 159.585 47.7549z" />
    <glyph glyph-name="c" unicode="c" horiz-adv-x="262" 
d="M268.671 241.555c7.42676 13.7568 39.3613 13.7842 29.373 -4.84668c-41.8789 -78.1396 -55.9805 -167.786 -109.951 -240.169c-19.2656 -25.835 -48.2041 -46.623 -80.9736 -50.2402c-35.1836 -3.88184 -70.1445 16.1953 -91.458 43.1484
c-44.6885 56.5059 -42.9307 149.046 -30.8896 216.537c10.501 58.8652 52.5908 154.445 123.118 157.717c30.9951 1.43848 49.1084 -20.0898 52.9395 -49.0156c5.16895 -38.9814 2.54004 -79.792 -3.48242 -118.496c-2.39258 -15.3672 -35.1455 -21.5918 -32.5928 -1.97266
c4.63477 35.5957 9.59277 82.9932 -2.84277 117.879c-13.8154 38.7627 -41.543 -24.0898 -47.3975 -38.6748c-24.4307 -60.8594 -28.7793 -133.427 -17.6387 -197.629c5.17676 -29.8389 17.9365 -63.748 42.2656 -83.3838c19.8711 -16.0361 37.833 -13.4541 54.9287 5.22754
c11.8174 12.9111 20.6533 28.8037 29.207 43.9688c35.8818 63.6094 50.7949 135.887 85.3945 199.95z" />
    <glyph glyph-name="d" unicode="d" horiz-adv-x="461" 
d="M468.425 240.028c6.3584 13.3271 35.9453 13.5762 27.6143 -4.55859c-42.2539 -91.9131 -68.0762 -190.231 -108.433 -282.936c-15.6113 -35.8652 -32.2822 -78.8594 -60.8086 -106.62c-23.665 -23.0293 -61.7168 -32.1299 -87.9971 -8.5957
c-63.4492 56.8213 -69.1982 163.433 -73.8584 242.035c-1.14355 19.2529 -1.8125 38.5186 -2.25391 57.7969c-9.25684 -29.8096 -19.1738 -59.3711 -29.9111 -88.499c-8.36523 -22.6973 -21.5537 -44.3564 -46.5479 -50.8545
c-24.0098 -6.24121 -58.6387 4.55469 -74.9189 23.1396c-19.6699 22.4541 -28.5986 58.7646 -32.3291 87.6064c-4.36523 33.7539 -2.31738 68.5977 5.18164 101.771c13.374 59.1602 57.1963 139.941 130.874 125.811c21.8184 -4.18457 37.3242 -19.3164 50.4746 -36.2148
c6.52246 125.209 21.0361 250.447 30.4902 374.743c1.60254 21.083 17.2139 36.29 37.5732 41.665c14.623 3.86035 43.2041 0.571289 42.75 -20.2549c-3.29297 -150.926 -22.9873 -300.96 -30.5488 -451.696c-3.71387 -74.0605 -4.37793 -148.604 -0.193359 -222.665
c1.8291 -32.3994 3.625 -64.9385 11.1572 -96.6279c4.99609 -21.0234 16.2588 -58.2471 37.6816 -70.5273c14.3369 6.45605 22.626 23.8379 29.9482 36.9385c8.39453 15.0186 16.1709 30.3818 23.4805 45.959c15.6865 33.4346 29.0898 67.8613 41.8037 102.516
c24.6953 67.3018 47.8555 135.272 78.7705 200.068zM117.621 98.0615c13.3779 40.668 25.7197 81.6465 37.4951 122.794c-21.5996 39.3311 -55.0215 87.8135 -74.9053 58.8916c-15.2373 -22.1631 -22.8701 -53.4824 -27.875 -79.498
c-5.875 -30.5537 -5.9082 -60.96 -3.30469 -91.8457c1.26562 -15.0264 2.92676 -30.667 6.82129 -45.3027c2.53223 -9.52148 6.99902 -29.1992 15.0615 -35.5752c25.6875 -20.3086 42.123 56.5986 46.707 70.5361z" />
    <glyph glyph-name="e" unicode="e" horiz-adv-x="295" 
d="M301.25 232.5c6.94336 13.0244 37.0205 13.3564 27.8604 -4.60156c-48.0195 -94.1846 -74.5488 -201.074 -137.317 -287.406c-22.3906 -30.7891 -57.3809 -56.4814 -97.4346 -49.7773c-44.71 7.48633 -74.7041 44.3906 -90.2812 84.5537
c-34.1494 88.0527 -34.3428 198.041 -3.77246 287.073c15.6611 45.6221 41.0586 93.3096 84.7334 117.555c29.7881 16.5322 76.4619 23.3789 96.1943 -11.9609c18.2607 -32.7031 -0.21875 -69.3125 -24.3672 -92.8809c-25.4434 -24.8301 -56.998 -42.9307 -90.3984 -55.0596
c-3.94531 -23.1309 -6.10742 -46.4043 -6.72559 -68.9082c-1.80859 -65.7246 4.47461 -138.33 39.0908 -195.77c7.05664 -11.708 16.418 -27.9287 31.3438 -30.0693c16.0068 -2.2959 28.8047 17.2344 36.9385 28.9678c19.4717 28.0977 35.1455 58.9541 49.4736 89.916
c28.9424 62.5283 52.1953 127.463 84.6621 188.368zM111.463 344.769c-18.4287 -29.1826 -31.1494 -62.7012 -39.4092 -97.3721c26.4316 11.002 51.623 26.8232 69.6064 48.3389c11.3799 13.6182 19.1895 34.7051 9.125 51.5107
c-11.1953 18.7021 -29.5107 13.0625 -39.3223 -2.47754z" />
    <glyph glyph-name="e" unicode="&#xeb;" horiz-adv-x="295" 
d="M301.25 232.5c6.94336 13.0244 37.0205 13.3564 27.8604 -4.60156c-48.0195 -94.1846 -74.5488 -201.074 -137.317 -287.406c-22.3906 -30.7891 -57.3809 -56.4814 -97.4346 -49.7773c-44.71 7.48633 -74.7041 44.3906 -90.2812 84.5537
c-34.1494 88.0527 -34.3428 198.041 -3.77246 287.073c15.6611 45.6221 41.0586 93.3096 84.7334 117.555c29.7881 16.5322 76.4619 23.3789 96.1943 -11.9609c18.2607 -32.7031 -0.21875 -69.3125 -24.3672 -92.8809c-25.4434 -24.8301 -56.998 -42.9307 -90.3984 -55.0596
c-3.94531 -23.1309 -6.10742 -46.4043 -6.72559 -68.9082c-1.80859 -65.7246 4.47461 -138.33 39.0908 -195.77c7.05664 -11.708 16.418 -27.9287 31.3438 -30.0693c16.0068 -2.2959 28.8047 17.2344 36.9385 28.9678c19.4717 28.0977 35.1455 58.9541 49.4736 89.916
c28.9424 62.5283 52.1953 127.463 84.6621 188.368zM111.463 344.769c-18.4287 -29.1826 -31.1494 -62.7012 -39.4092 -97.3721c26.4316 11.002 51.623 26.8232 69.6064 48.3389c11.3799 13.6182 19.1895 34.7051 9.125 51.5107
c-11.1953 18.7021 -29.5107 13.0625 -39.3223 -2.47754z" />
    <glyph glyph-name="e" unicode="&#xea;" horiz-adv-x="295" 
d="M301.25 232.5c6.94336 13.0244 37.0205 13.3564 27.8604 -4.60156c-48.0195 -94.1846 -74.5488 -201.074 -137.317 -287.406c-22.3906 -30.7891 -57.3809 -56.4814 -97.4346 -49.7773c-44.71 7.48633 -74.7041 44.3906 -90.2812 84.5537
c-34.1494 88.0527 -34.3428 198.041 -3.77246 287.073c15.6611 45.6221 41.0586 93.3096 84.7334 117.555c29.7881 16.5322 76.4619 23.3789 96.1943 -11.9609c18.2607 -32.7031 -0.21875 -69.3125 -24.3672 -92.8809c-25.4434 -24.8301 -56.998 -42.9307 -90.3984 -55.0596
c-3.94531 -23.1309 -6.10742 -46.4043 -6.72559 -68.9082c-1.80859 -65.7246 4.47461 -138.33 39.0908 -195.77c7.05664 -11.708 16.418 -27.9287 31.3438 -30.0693c16.0068 -2.2959 28.8047 17.2344 36.9385 28.9678c19.4717 28.0977 35.1455 58.9541 49.4736 89.916
c28.9424 62.5283 52.1953 127.463 84.6621 188.368zM111.463 344.769c-18.4287 -29.1826 -31.1494 -62.7012 -39.4092 -97.3721c26.4316 11.002 51.623 26.8232 69.6064 48.3389c11.3799 13.6182 19.1895 34.7051 9.125 51.5107
c-11.1953 18.7021 -29.5107 13.0625 -39.3223 -2.47754z" />
    <glyph glyph-name="e" unicode="&#xe9;" horiz-adv-x="295" 
d="M301.25 232.5c6.94336 13.0244 37.0205 13.3564 27.8604 -4.60156c-48.0195 -94.1846 -74.5488 -201.074 -137.317 -287.406c-22.3906 -30.7891 -57.3809 -56.4814 -97.4346 -49.7773c-44.71 7.48633 -74.7041 44.3906 -90.2812 84.5537
c-34.1494 88.0527 -34.3428 198.041 -3.77246 287.073c15.6611 45.6221 41.0586 93.3096 84.7334 117.555c29.7881 16.5322 76.4619 23.3789 96.1943 -11.9609c18.2607 -32.7031 -0.21875 -69.3125 -24.3672 -92.8809c-25.4434 -24.8301 -56.998 -42.9307 -90.3984 -55.0596
c-3.94531 -23.1309 -6.10742 -46.4043 -6.72559 -68.9082c-1.80859 -65.7246 4.47461 -138.33 39.0908 -195.77c7.05664 -11.708 16.418 -27.9287 31.3438 -30.0693c16.0068 -2.2959 28.8047 17.2344 36.9385 28.9678c19.4717 28.0977 35.1455 58.9541 49.4736 89.916
c28.9424 62.5283 52.1953 127.463 84.6621 188.368zM111.463 344.769c-18.4287 -29.1826 -31.1494 -62.7012 -39.4092 -97.3721c26.4316 11.002 51.623 26.8232 69.6064 48.3389c11.3799 13.6182 19.1895 34.7051 9.125 51.5107
c-11.1953 18.7021 -29.5107 13.0625 -39.3223 -2.47754z" />
    <glyph glyph-name="f" unicode="f" horiz-adv-x="311" 
d="M327.854 241.408c14.3828 10.9805 34.502 -3.1377 17.5537 -16.2383c-37.0342 -28.6152 -78.8164 -50.1309 -119.687 -72.627c-30.3135 -16.6875 -60.627 -33.3711 -90.9404 -50.0586c68.5381 -11.2881 122.866 -70.3223 137.535 -139.374
c14.1943 -66.8184 0.606445 -176.807 -85.3428 -183.649c-42.7666 -3.40625 -75.8936 33.3291 -99.3184 64.6016c-28.6318 38.2207 -46.4043 81.875 -58.5244 127.863c-24.7158 93.7803 -27.4658 193.415 -26.9658 289.929
c0.538086 103.845 7.62891 208.181 25.3643 310.562c6.56445 37.8965 86.3193 53.8438 80.8818 4.89062c-10.501 -94.5547 -19.0547 -189.248 -20.4463 -284.429c-0.904297 -61.877 -0.597656 -123.998 4.1084 -185.762c38.6787 21.0068 77.3613 42.0137 116.04 63.0205
c40.8027 22.1631 82.7109 43.0059 119.741 71.2715zM237.139 -32.292c-18.9756 63.7773 -75.3945 112.866 -142.419 109.371c0.916992 -9.05078 1.90137 -18.0928 3.04102 -27.1182c4.98828 -39.4824 12.79 -79.124 25.9912 -116.73
c12.0283 -34.2588 25.4316 -71.0244 49.1006 -99.1846c8.79395 -10.4678 24.1104 -27.3613 38.4014 -21.9785c17.7051 6.66992 24.3457 32.5137 28.1094 48.8945c7.98242 34.7422 7.98633 72.4199 -2.22461 106.746z" />
    <glyph glyph-name="g" unicode="g" horiz-adv-x="411" 
d="M424.308 242.749c10.5645 11.8467 37.2686 5.25879 23.3105 -10.6514c-54.7354 -62.335 -115.88 -118.273 -175.616 -175.654c2.25391 -51.792 2.7168 -103.609 0.75293 -155.317c-3.82715 -100.686 -14.5811 -251.834 -117.492 -304.698
c-39.877 -20.4854 -91.7529 -24.1699 -123.383 12.8018c-30.0869 35.167 -31.3691 86.3193 -22.584 129.532c21.2549 104.547 102.25 193.617 174.691 267.328c3.54492 3.60449 7.12012 7.17969 10.6953 10.7588c-3.68848 53.0869 -9.05078 105.98 -14.7158 158.857
c-1.8252 1.00977 -3.34375 2.46094 -4.47461 4.38672c-12.7598 -44.373 -26.8398 -88.3848 -42.7119 -131.445c-8.36914 -22.6973 -21.5576 -44.3564 -46.5518 -50.8545c-24.0098 -6.24121 -58.6387 4.55469 -74.9189 23.1396
c-19.6699 22.4541 -28.5986 58.7656 -32.3291 87.6074c-4.36523 33.7539 -2.31738 68.5977 5.18164 101.771c13.374 59.1602 57.1963 139.941 130.874 125.811c22.6602 -4.34473 38.5029 -20.498 51.9775 -38.1738c-0.348633 3.49023 -0.722656 6.97656 -1.06348 10.4668
c-3.72656 37.9971 74.5352 64.6562 80.3262 21.4102c10.6445 -79.502 19.3877 -159.711 24.0518 -240.071c52.6963 49.6299 105.737 98.8984 153.979 152.995zM117.627 98.0576c13.3779 40.668 25.7197 81.6465 37.4951 122.794
c-21.5996 39.3311 -55.0215 87.8135 -74.9053 58.8916c-15.2373 -22.1631 -22.8701 -53.4824 -27.875 -79.498c-5.875 -30.5537 -5.9082 -60.96 -3.30469 -91.8457c1.26562 -15.0264 2.92676 -30.667 6.82129 -45.3027c2.53223 -9.52148 6.99902 -29.1992 15.0615 -35.5752
c25.6875 -20.3086 42.123 56.5986 46.707 70.5361zM198.604 -190.514c1.92188 54.0459 1.45605 108.332 -1.21875 162.345c-0.160156 3.27148 -0.404297 6.53516 -0.581055 9.80664c-60.9307 -63.1719 -123.762 -135.639 -148.326 -220.112
c-12.1035 -41.627 -17.1338 -97.5146 14.2734 -132.501c17.209 -19.1689 45.3232 -25.3809 68.9248 -14.0977c19.7412 9.4375 32.9463 31.6602 41.3828 50.8926c19.6104 44.7139 23.833 95.4629 25.5449 143.667z" />
    <glyph glyph-name="h" unicode="h" horiz-adv-x="470" 
d="M469.509 211.876c6.27441 14.5098 37.7588 14.624 29.377 -4.84375c-36.4541 -84.6924 -46.5938 -178.519 -86.9336 -261.747c-15.8008 -32.6016 -40.5762 -59.7188 -77.4043 -66.8301c-35.7305 -6.90137 -69.207 7.46484 -86.3574 40.8486
c-17.8398 34.7295 -13.9414 84.3008 -13.3271 121.975c0.723633 44.4951 3.94531 88.8223 7.16211 133.191c3.09961 42.8086 7.80957 88.0439 1.71973 130.718c-2.2373 15.6865 -8.75586 28.7744 -24.8887 17.3018c-7.16211 -5.08887 -13.752 -16.7002 -18.5127 -23.8291
c-9.83691 -14.7236 -18.168 -30.4395 -25.7676 -46.4121c-36.9297 -77.6016 -59.9473 -160.237 -79.8857 -243.512c-0.605469 -2.53223 -2.11523 -4.80371 -4.12988 -6.74707c-0.0712891 -1.26562 -0.206055 -2.58594 -0.479492 -4.01172
c-0.100586 -0.542969 -0.206055 -1.08984 -0.311523 -1.63281c-3.29688 -17.1836 -26.3818 -28.3623 -42.2832 -25.6367c-29.624 5.07617 -35.3945 48.4482 -41.3955 72.6729c-7.7002 31.0713 -13.9033 62.6338 -18.5635 94.2979
c-9.33594 63.4668 -14.6182 127.518 -14.7949 191.678c-0.319336 115.881 8.5459 235.605 54.4707 343.285c19.459 45.6221 48.3516 93.9824 90.0117 122.66c38.8301 26.7305 88.1445 21.1494 117.781 -16.5117c29.3721 -37.3242 29.3389 -92.7119 25.0156 -137.544
c-5.26074 -54.5889 -21.9775 -106.97 -42.6396 -157.513c-39.3975 -96.3838 -93.4307 -186.286 -158.428 -267.521c1.80859 -20.6494 4.02051 -41.2607 6.74609 -61.835c3.34375 -25.2461 6.7373 -50.5049 10.9092 -75.6328c0.290039 -1.75 0.554688 -3.5 0.844727 -5.25
c17.0283 69.0898 42.0176 137.868 74.2285 199.724c14.9424 28.6992 34.9189 65.3135 65.6074 79.5703c31.6172 14.6855 56.0264 -7.05273 70.0225 -34.8604c17.2256 -34.2246 20.1943 -79.6279 22.9824 -117.032c3.34375 -44.8525 2.20801 -89.751 2.74609 -134.671
c0.483398 -40.6133 -1.08105 -86.585 10.5977 -125.903c2.43066 -8.18848 6.56055 -16.5996 13.2051 -22.1846c6.51074 -5.47168 1.77148 -5.82031 11.751 -4.77734c6.48535 0.676758 9.50488 3.2207 13.8916 7.66602c14.1943 14.3877 22.5801 34.415 30.0996 52.8438
c31.584 77.3955 43.6709 161.112 76.9326 238.007zM53.7119 302.52c0.512695 -14.8291 1.23633 -29.6348 2.12793 -44.4346c51.9766 70.1621 95.3613 146.473 128.648 227.321c18.248 44.3184 33.4678 90.9414 39.1367 138.708
c4.84473 40.8027 7.42285 98.9951 -23.1641 131.139c-67.0703 70.4727 -118.303 -124.461 -126.861 -163.901c-20.46 -94.2812 -23.2227 -192.738 -19.8877 -288.832z" />
    <glyph glyph-name="i" unicode="i" horiz-adv-x="227" 
d="M235.047 233.935c6.56934 13.374 36.6152 13.5059 27.8633 -4.59961c-31.4287 -64.9805 -59.3535 -131.438 -89.7686 -196.852c-20.0273 -43.082 -52.2383 -112.748 -111.596 -96.2793c-61.0234 16.9316 -71.1338 110.371 -73.9561 162.348
c-3.87305 71.3477 4.13477 144.289 16.2383 214.539c6.24121 36.2354 82.3789 51.4678 77.2939 4.67676c-6.17773 -56.8262 -14.7402 -113.282 -15.6318 -170.559c-0.820312 -52.5576 -2.13281 -114.358 16.5234 -164.258
c1.51367 -4.0498 3.38086 -11.0732 6.71582 -14.1562c7.6709 -7.09473 11.0146 -3.22168 17.9834 4.31445c8.41992 9.10547 14.791 21.3477 20.8262 32.1055c12.9443 23.084 23.4209 47.4297 34.124 71.6035c23.4043 52.8643 47.8896 105.228 73.3838 157.116z
M30.2529 390.014c-23.0967 18.21 -31.9756 59.0283 -36.1689 86.7852c-3.16211 20.9268 -10.3623 66.2168 10.8379 80.3096c7.24219 4.81543 16.2207 7.10352 23.7197 1.67871c8.1377 -5.8916 11.5361 -16.082 13.4619 -26.4316
c9.09277 16.8857 32.623 50.459 55.5898 36.7783c20.9434 -12.4775 2.14062 -55.917 -3.35156 -72.3311c-10.5938 -31.668 -24.2031 -62.0908 -31.5625 -94.7852c-1.93066 -8.56641 -13.1006 -14.2275 -22.1387 -14.4297
c-0.0634766 -0.00390625 -0.12207 0 -0.185547 -0.00878906c-0.244141 -0.00390625 -0.496094 -0.0332031 -0.735352 -0.0292969c-3.52832 -0.231445 -6.90527 0.445312 -9.4668 2.46387zM40.7285 434.916c-0.0507812 -0.0332031 -0.101562 -0.0703125 -0.152344 -0.103516
c0.0214844 -0.0507812 0.0429688 -0.105469 0.0644531 -0.15625c0.0292969 0.0878906 0.0585938 0.175781 0.0878906 0.259766z" />
    <glyph glyph-name="i" unicode="&#xef;" horiz-adv-x="227" 
d="M235.047 233.935c6.56934 13.374 36.6152 13.5059 27.8633 -4.59961c-31.4287 -64.9805 -59.3535 -131.438 -89.7686 -196.852c-20.0273 -43.082 -52.2383 -112.748 -111.596 -96.2793c-61.0234 16.9316 -71.1338 110.371 -73.9561 162.348
c-3.87305 71.3477 4.13477 144.289 16.2383 214.539c6.24121 36.2354 82.3789 51.4678 77.2939 4.67676c-6.17773 -56.8262 -14.7402 -113.282 -15.6318 -170.559c-0.820312 -52.5576 -2.13281 -114.358 16.5234 -164.258
c1.51367 -4.0498 3.38086 -11.0732 6.71582 -14.1562c7.6709 -7.09473 11.0146 -3.22168 17.9834 4.31445c8.41992 9.10547 14.791 21.3477 20.8262 32.1055c12.9443 23.084 23.4209 47.4297 34.124 71.6035c23.4043 52.8643 47.8896 105.228 73.3838 157.116z
M30.2529 390.014c-23.0967 18.21 -31.9756 59.0283 -36.1689 86.7852c-3.16211 20.9268 -10.3623 66.2168 10.8379 80.3096c7.24219 4.81543 16.2207 7.10352 23.7197 1.67871c8.1377 -5.8916 11.5361 -16.082 13.4619 -26.4316
c9.09277 16.8857 32.623 50.459 55.5898 36.7783c20.9434 -12.4775 2.14062 -55.917 -3.35156 -72.3311c-10.5938 -31.668 -24.2031 -62.0908 -31.5625 -94.7852c-1.93066 -8.56641 -13.1006 -14.2275 -22.1387 -14.4297
c-0.0634766 -0.00390625 -0.12207 0 -0.185547 -0.00878906c-0.244141 -0.00390625 -0.496094 -0.0332031 -0.735352 -0.0292969c-3.52832 -0.231445 -6.90527 0.445312 -9.4668 2.46387zM40.7285 434.916c-0.0507812 -0.0332031 -0.101562 -0.0703125 -0.152344 -0.103516
c0.0214844 -0.0507812 0.0429688 -0.105469 0.0644531 -0.15625c0.0292969 0.0878906 0.0585938 0.175781 0.0878906 0.259766z" />
    <glyph glyph-name="i" unicode="&#xee;" horiz-adv-x="227" 
d="M235.047 233.935c6.56934 13.374 36.6152 13.5059 27.8633 -4.59961c-31.4287 -64.9805 -59.3535 -131.438 -89.7686 -196.852c-20.0273 -43.082 -52.2383 -112.748 -111.596 -96.2793c-61.0234 16.9316 -71.1338 110.371 -73.9561 162.348
c-3.87305 71.3477 4.13477 144.289 16.2383 214.539c6.24121 36.2354 82.3789 51.4678 77.2939 4.67676c-6.17773 -56.8262 -14.7402 -113.282 -15.6318 -170.559c-0.820312 -52.5576 -2.13281 -114.358 16.5234 -164.258
c1.51367 -4.0498 3.38086 -11.0732 6.71582 -14.1562c7.6709 -7.09473 11.0146 -3.22168 17.9834 4.31445c8.41992 9.10547 14.791 21.3477 20.8262 32.1055c12.9443 23.084 23.4209 47.4297 34.124 71.6035c23.4043 52.8643 47.8896 105.228 73.3838 157.116z
M30.2529 390.014c-23.0967 18.21 -31.9756 59.0283 -36.1689 86.7852c-3.16211 20.9268 -10.3623 66.2168 10.8379 80.3096c7.24219 4.81543 16.2207 7.10352 23.7197 1.67871c8.1377 -5.8916 11.5361 -16.082 13.4619 -26.4316
c9.09277 16.8857 32.623 50.459 55.5898 36.7783c20.9434 -12.4775 2.14062 -55.917 -3.35156 -72.3311c-10.5938 -31.668 -24.2031 -62.0908 -31.5625 -94.7852c-1.93066 -8.56641 -13.1006 -14.2275 -22.1387 -14.4297
c-0.0634766 -0.00390625 -0.12207 0 -0.185547 -0.00878906c-0.244141 -0.00390625 -0.496094 -0.0332031 -0.735352 -0.0292969c-3.52832 -0.231445 -6.90527 0.445312 -9.4668 2.46387zM40.7285 434.916c-0.0507812 -0.0332031 -0.101562 -0.0703125 -0.152344 -0.103516
c0.0214844 -0.0507812 0.0429688 -0.105469 0.0644531 -0.15625c0.0292969 0.0878906 0.0585938 0.175781 0.0878906 0.259766z" />
    <glyph glyph-name="i" unicode="&#xed;" horiz-adv-x="227" 
d="M235.047 233.935c6.56934 13.374 36.6152 13.5059 27.8633 -4.59961c-31.4287 -64.9805 -59.3535 -131.438 -89.7686 -196.852c-20.0273 -43.082 -52.2383 -112.748 -111.596 -96.2793c-61.0234 16.9316 -71.1338 110.371 -73.9561 162.348
c-3.87305 71.3477 4.13477 144.289 16.2383 214.539c6.24121 36.2354 82.3789 51.4678 77.2939 4.67676c-6.17773 -56.8262 -14.7402 -113.282 -15.6318 -170.559c-0.820312 -52.5576 -2.13281 -114.358 16.5234 -164.258
c1.51367 -4.0498 3.38086 -11.0732 6.71582 -14.1562c7.6709 -7.09473 11.0146 -3.22168 17.9834 4.31445c8.41992 9.10547 14.791 21.3477 20.8262 32.1055c12.9443 23.084 23.4209 47.4297 34.124 71.6035c23.4043 52.8643 47.8896 105.228 73.3838 157.116z
M30.2529 390.014c-23.0967 18.21 -31.9756 59.0283 -36.1689 86.7852c-3.16211 20.9268 -10.3623 66.2168 10.8379 80.3096c7.24219 4.81543 16.2207 7.10352 23.7197 1.67871c8.1377 -5.8916 11.5361 -16.082 13.4619 -26.4316
c9.09277 16.8857 32.623 50.459 55.5898 36.7783c20.9434 -12.4775 2.14062 -55.917 -3.35156 -72.3311c-10.5938 -31.668 -24.2031 -62.0908 -31.5625 -94.7852c-1.93066 -8.56641 -13.1006 -14.2275 -22.1387 -14.4297
c-0.0634766 -0.00390625 -0.12207 0 -0.185547 -0.00878906c-0.244141 -0.00390625 -0.496094 -0.0332031 -0.735352 -0.0292969c-3.52832 -0.231445 -6.90527 0.445312 -9.4668 2.46387zM40.7285 434.916c-0.0507812 -0.0332031 -0.101562 -0.0703125 -0.152344 -0.103516
c0.0214844 -0.0507812 0.0429688 -0.105469 0.0644531 -0.15625c0.0292969 0.0878906 0.0585938 0.175781 0.0878906 0.259766z" />
    <glyph glyph-name="j" unicode="j" horiz-adv-x="245" 
d="M258.412 242.749c10.5684 11.8467 37.2705 5.26172 23.3076 -10.6436c-54.7354 -62.335 -115.881 -118.273 -175.617 -175.654c2.25391 -51.792 2.7168 -103.609 0.75293 -155.317c-3.82715 -100.686 -14.5811 -251.834 -117.492 -304.698
c-39.877 -20.4854 -91.7529 -24.1699 -123.383 12.8018c-30.0869 35.167 -31.3691 86.3193 -22.584 129.531c21.2549 104.547 102.25 193.617 174.691 267.328c3.54492 3.6084 7.12012 7.17871 10.6953 10.7578c-6.77539 97.4688 -19.1943 194.298 -28.7285 291.561
c-3.72656 37.9971 74.5352 64.6562 80.3262 21.4102c10.6445 -79.502 19.3877 -159.711 24.0518 -240.071c52.6963 49.6299 105.737 98.8984 153.979 152.995zM32.7158 -190.51c1.91797 54.0459 1.45117 108.332 -1.21973 162.345
c-0.164062 3.27148 -0.40332 6.53516 -0.580078 9.80664c-60.9307 -63.1719 -123.762 -135.639 -148.326 -220.112c-12.1035 -41.627 -17.1377 -97.5146 14.2734 -132.501c17.209 -19.1689 45.3232 -25.3809 68.9248 -14.0977
c19.7412 9.4375 32.9463 31.6602 41.3828 50.8926c19.6104 44.7139 23.833 95.4629 25.5449 143.667zM-9.33203 434.049c-5.29492 16.0742 -10.0098 32.3838 -13.5254 48.9492c-5.87109 27.7021 -13.3154 67.209 1.8916 93.3379
c4.64746 7.98633 21.6133 17.3857 29.5957 8.1416c12.293 -14.2363 15.3799 -31.5713 17.7939 -49.6045c0.197266 0.420898 0.37793 0.845703 0.580078 1.26172c7.86914 16.082 31.9121 50.0586 53.5791 32.6016c18.0508 -14.5391 2.53613 -58.0664 -2.95605 -75.166
c-10.0264 -31.2266 -24.2119 -60.8887 -34.1162 -92.1865c-4.45801 -14.0967 -35.041 -21.1201 -35.0918 -6.07715c-9.67676 10.4512 -13.373 25.4521 -17.751 38.7422z" />
    <glyph glyph-name="k" unicode="k" horiz-adv-x="456" 
d="M460.976 221.226c6.99414 13.1006 37.2812 13.084 27.8564 -4.60449c-31.7188 -59.5684 -49.8115 -124.746 -76.0078 -186.69c-20.3594 -48.1416 -54.1846 -128.746 -113.407 -137.494c-71.4912 -10.5605 -113.182 67.1758 -132.334 123.783
c-10.1729 30.0742 -18.2979 60.7627 -25.292 91.7031c-3.52441 15.5947 -7.47754 31.0801 -11.1445 46.6367c-2.72559 11.5693 -4.49219 24.2705 -7.125 36.4082c-2.40137 -9.37402 -4.60938 -18.79 -6.6748 -28.2021c-5.8252 -26.5537 -10.8428 -53.2891 -15.2881 -80.1084
c-4.49121 -27.126 -5.55566 -54.6602 -9.8877 -81.7109c-0.244141 -1.53516 -0.904297 -3.02441 -1.86719 -4.4248c-0.0126953 -0.0585938 -0.0214844 -0.12207 -0.0341797 -0.180664c-3.29688 -17.1836 -26.3818 -28.3623 -42.2832 -25.6367
c-29.624 5.07617 -35.3945 48.4482 -41.3955 72.6729c-7.7002 31.0713 -13.9033 62.6338 -18.5635 94.2979c-9.33594 63.4668 -14.6182 127.518 -14.7949 191.678c-0.319336 115.881 8.5459 235.605 54.4707 343.285c19.459 45.6221 48.3516 93.9824 90.0117 122.66
c38.8301 26.7305 88.1445 21.1494 117.781 -16.5117c29.3721 -37.3242 29.3389 -92.7119 25.0156 -137.544c-5.26074 -54.5889 -21.9775 -106.97 -42.6396 -157.513c-39.3975 -96.3838 -93.4268 -186.286 -158.429 -267.521
c1.80859 -20.6494 4.02051 -41.2607 6.74609 -61.834c2.05273 -15.4766 4.14258 -30.957 6.39648 -46.4121c4.89062 27.6143 10.5635 55.1738 17.5996 82.2871c13.5801 52.3262 33.4805 103.672 66.709 146.805c26.8691 34.877 80.5322 84.0234 128.984 61.7764
c48.5791 -22.3105 10.6367 -90.1973 -11.8086 -117.307c-30.0908 -36.3486 -73.9717 -58.5918 -120.376 -63.6172c7.35938 -10.6943 15.417 -20.4434 21.5908 -32.4121c6.25391 -12.1289 11.3008 -24.6494 16.0869 -37.4131
c9.59277 -25.5869 17.6592 -51.5352 26.1758 -77.4795c8.46582 -25.7891 18.7188 -50.6738 29.8135 -75.4199c9.66895 -21.5664 25.5908 -64.6816 50.6475 -72.041c27.875 -8.18359 54.4209 45.5762 65.4102 65.6289c13.584 24.7881 24.4258 51.0059 34.4727 77.3877
c19.9053 52.2588 37.1689 105.577 63.584 155.068zM53.7139 302.516c0.512695 -14.8291 1.23633 -29.6348 2.12793 -44.4346c51.9766 70.1621 95.3613 146.473 128.648 227.321c18.248 44.3184 33.4678 90.9414 39.1367 138.708
c4.84473 40.8027 7.42285 98.9951 -23.1641 131.139c-67.0703 70.4727 -118.303 -124.461 -126.861 -163.901c-20.46 -94.2812 -23.2227 -192.738 -19.8877 -288.832zM140.244 244.918c55.4971 0.167969 106.533 30.7988 127.843 83.2051
c4.68457 11.5146 10.4883 29.8467 0.866211 40.6211c-10.8506 12.1504 -30.8779 4.84082 -42.4141 -1.83789c-22.542 -13.0459 -40.7607 -35.8613 -54.6396 -57.4658c-13.0371 -20.3008 -23.2988 -42.0352 -31.6895 -64.5264
c0.0126953 0 0.0214844 0.00390625 0.0341797 0.00390625z" />
    <glyph glyph-name="l" unicode="l" horiz-adv-x="299" 
d="M306.154 240.028c6.3584 13.3271 35.9443 13.5762 27.6133 -4.55859c-42.2539 -91.9131 -68.0762 -190.231 -108.433 -282.936c-15.6113 -35.8652 -32.2822 -78.8594 -60.8086 -106.62c-23.665 -23.0303 -61.7168 -32.1309 -87.9971 -8.59668
c-63.4541 56.8213 -69.1992 163.433 -73.8594 242.035c-11.7549 198.222 16.0479 397.945 31.0615 595.301c1.60254 21.083 17.2139 36.29 37.5732 41.665c14.623 3.86035 43.2041 0.571289 42.75 -20.2549c-3.29297 -150.926 -22.9873 -300.96 -30.5488 -451.696
c-3.71387 -74.0605 -4.37793 -148.604 -0.193359 -222.665c1.8291 -32.3994 3.625 -64.9385 11.1572 -96.6279c4.99609 -21.0234 16.2588 -58.2471 37.6816 -70.5273c14.3369 6.45605 22.626 23.8379 29.9482 36.9385c8.39453 15.0186 16.1709 30.3818 23.4805 45.959
c15.6865 33.4346 29.0898 67.8613 41.8037 102.516c24.6953 67.3018 47.8594 135.272 78.7705 200.068z" />
    <glyph glyph-name="m" unicode="m" horiz-adv-x="594" 
d="M598.647 219.038c6.35449 14.1514 37.3193 14.2822 28.875 -4.77344c-29.2705 -66.0273 -62.6543 -133.283 -105.333 -191.804c-29.8467 -40.9248 -92.6191 -66.999 -132.324 -22.7773c-21.9492 24.4424 -24.5186 57.124 -25.1953 88.5771
c-0.702148 32.5508 1.53516 65.127 3.16699 97.6113c1.63184 32.5215 2.36816 65.249 0.00488281 97.7539c-0.626953 8.62988 -0.526367 18.5762 -7.52832 24.6787c-6.2959 5.48438 -5.55176 2.54883 -11.4648 -5.08398
c-9.26953 -11.9688 -15.0898 -26.4824 -20.4229 -40.5205c-23.1982 -61.0908 -34.9531 -125.827 -47.7764 -189.714c0.282227 -6.74121 0.442383 -12.1836 0.518555 -16.0107c0.681641 -33.8721 -69.2529 -58.7188 -72.4658 -19.3164
c-4.52148 55.4463 -2.48633 111.649 -3.28125 167.243c-0.382812 26.6377 -0.0927734 53.415 -1.54395 80.0195c-0.71875 13.1504 -1.87988 26.6416 -9.64355 37.749c-10.8672 15.5479 -24.207 0.12207 -31.7812 -10.8877
c-30.1123 -43.7588 -43.1748 -100.164 -54.0752 -151.396c-5.49707 -25.835 -9.95508 -51.8799 -14.0518 -77.9668c-2.01465 -12.835 -4.58887 -25.9268 -6.64941 -39.0654c1.86328 -20.9395 2.7334 -42.0938 -1.8252 -62.3945
c-2.20801 -9.81543 -14.4375 -18.1211 -24.2871 -17.999c-32.8965 0.408203 -38.8184 39.041 -45.2822 65.2715c-8.33105 33.7998 -12.6709 68.4746 -15.7705 103.1c-6.2832 70.2334 -6.95215 143.718 5.12598 213.362c3.13281 18.0713 24.1191 30.1074 40.4746 32.8877
c12.8311 2.18262 36.8242 -2.34668 36.1055 -20.2959c-2.49414 -62.415 -6.54004 -124.057 -4.34082 -186.543c1.66504 7.44824 3.38965 14.8838 5.25684 22.2852c13.1133 51.9307 31.5635 126.336 79.541 157.807c65.1533 42.7373 94.8955 -66.6543 108.206 -165.17
c8.01172 32.4717 17.9238 64.3916 31.0664 95.0039c9.31152 21.6836 23.6816 47.1064 46.4385 56.8721c22.4199 9.62207 40.8525 -1.94336 51.4756 -21.6797c30.1543 -56.0098 31.4121 -119.956 33.999 -181.992c1.28711 -30.8184 1.91406 -62.4482 9.74902 -92.4678
c3.89062 -14.9043 11.0986 -35.2422 29.8721 -28.6436c13.3027 4.67676 22.8496 19.998 30.2178 31.1807c36.542 55.4551 67.7773 114.548 94.9492 175.1z" />
    <glyph glyph-name="n" unicode="n" horiz-adv-x="426" 
d="M430.039 230.957c6.09766 14.7529 37.7197 14.8916 29.6328 -4.89551c-15.9102 -38.9307 -31.8203 -77.8789 -49.2188 -116.175c-16.5488 -36.4248 -33.2998 -74.9482 -56.1533 -107.937c-15.1318 -21.8438 -38.9268 -39.4277 -66.7637 -37.6777
c-31.4326 1.97656 -57.1035 25.8438 -67.2559 54.5635c-11.8721 33.5859 -11.5605 71.9111 -12.1035 107.12c-0.576172 37.4131 0.53418 74.9814 -1.24902 112.356c-0.803711 16.7803 -1.41309 34.4189 -4.36914 50.96c-1.32031 7.38477 -3.32227 19.1982 -9.68555 24.3379
c-10.1064 8.16309 -20.5908 -1.16113 -28.001 -10.1904c-22.5039 -27.416 -37.7109 -62.7812 -49.9785 -95.7324c-23.1475 -62.1963 -38.1445 -127.193 -48.1035 -192.754c-0.118164 -6.69922 -0.282227 -13.3564 -0.12207 -20.0645
c-0.0634766 2.61621 1.39551 -16.1494 -1.03906 -11.6787c4.07129 -7.47754 -4.21387 -15.6367 -10.1729 -18.6396c-67.0029 -33.7578 -65.2031 110.481 -66.4736 145.568c-2.59082 71.4951 1.75391 145.842 19.1982 215.364
c8.33594 33.2246 78.6074 49.8154 73.708 4.45801c-6.06055 -56.0938 -13.1348 -111.666 -15.4141 -168.029c7.46094 24.1738 16.0273 47.9609 25.7676 71.1719c17.5078 41.7275 59.1387 134.94 119.876 109.98c62.251 -25.5781 66.5576 -116.439 70.25 -172.933
c2.49414 -38.166 5.3916 -76.2559 8.23047 -114.384c1.16895 -15.6826 2.20312 -31.4707 7.37988 -46.4219c10.0518 -29.0225 30.4111 4.36133 37.8887 17.584c36.9248 65.2959 65.5693 134.831 94.1719 204.047z" />
    <glyph glyph-name="o" unicode="o" horiz-adv-x="286" 
d="M301.196 242.809c11.582 10.6152 35.9531 -0.00488281 21.8477 -14.3457c-35.083 -35.6592 -78.2236 -62.0996 -125.578 -77.9795c-2.84277 -31.9082 -9.38672 -63.5674 -21.1289 -93.0693c-16.0234 -40.2686 -47.8389 -85.9199 -96.3086 -84.8311
c-53.5752 1.20312 -73.4883 55.6611 -77.1895 100.749c-2.96484 36.1133 1.4043 71.9697 9.4541 107.078c-42.792 57.3135 -18.6055 155.136 44.6973 190.189c39.0908 21.6504 79.5654 10.6572 105.543 -24.7158c28.9219 -39.3857 34.9775 -92.5068 36.4287 -139.958
c0.286133 -9.33203 0.319336 -18.7441 0.0673828 -28.1777c38.2373 14.5938 73.6572 38.9355 102.167 65.0605zM155.094 107.598c2.33789 10.8633 4.12012 21.8623 5.47461 32.9268c-27.1348 -5.48438 -55.5605 -6.88477 -82.165 -0.765625
c-1.64062 -9.0293 -3.11719 -18.0967 -4.29102 -27.2354c-2.64551 -20.5986 -4.13477 -41.9043 -1.22461 -62.583c2.14941 -15.2539 14.1309 -45.5635 34.4902 -34.541c13.9707 7.56543 23.5469 27.752 30.3428 41.3271c8.0918 16.166 13.5713 33.2285 17.373 50.8711z
M162.915 167.268c0.99707 19.0684 0.640625 38.2148 -1.0166 57.165c-3.00684 34.2842 -8.97461 70.6748 -28.8203 99.6807c-10.0635 14.707 -25.5947 30.2168 -44.6504 29.207c-18.8623 -1.00098 -33.8848 -15.8506 -43.5576 -31.0283
c-15.6113 -24.4971 -23.3457 -58.6084 -17.6514 -88.1318c0.260742 0.811523 0.512695 1.63184 0.773438 2.44336c6.26172 19.4512 25.6748 32.9717 45.9756 34.0781c15.96 0.870117 36.9121 -10.3506 30.7676 -29.4355
c-7.53613 -23.4121 -14.3574 -46.9756 -19.9424 -70.8213c7.48145 -2.62402 15.2832 -4.46582 23.1768 -5.45801c18.3779 -2.30859 36.8232 -1.27441 54.9453 2.30078z" />
    <glyph glyph-name="o" unicode="&#xf6;" horiz-adv-x="286" 
d="M301.196 242.809c11.582 10.6152 35.9531 -0.00488281 21.8477 -14.3457c-35.083 -35.6592 -78.2236 -62.0996 -125.578 -77.9795c-2.84277 -31.9082 -9.38672 -63.5674 -21.1289 -93.0693c-16.0234 -40.2686 -47.8389 -85.9199 -96.3086 -84.8311
c-53.5752 1.20312 -73.4883 55.6611 -77.1895 100.749c-2.96484 36.1133 1.4043 71.9697 9.4541 107.078c-42.792 57.3135 -18.6055 155.136 44.6973 190.189c39.0908 21.6504 79.5654 10.6572 105.543 -24.7158c28.9219 -39.3857 34.9775 -92.5068 36.4287 -139.958
c0.286133 -9.33203 0.319336 -18.7441 0.0673828 -28.1777c38.2373 14.5938 73.6572 38.9355 102.167 65.0605zM155.094 107.598c2.33789 10.8633 4.12012 21.8623 5.47461 32.9268c-27.1348 -5.48438 -55.5605 -6.88477 -82.165 -0.765625
c-1.64062 -9.0293 -3.11719 -18.0967 -4.29102 -27.2354c-2.64551 -20.5986 -4.13477 -41.9043 -1.22461 -62.583c2.14941 -15.2539 14.1309 -45.5635 34.4902 -34.541c13.9707 7.56543 23.5469 27.752 30.3428 41.3271c8.0918 16.166 13.5713 33.2285 17.373 50.8711z
M162.915 167.268c0.99707 19.0684 0.640625 38.2148 -1.0166 57.165c-3.00684 34.2842 -8.97461 70.6748 -28.8203 99.6807c-10.0635 14.707 -25.5947 30.2168 -44.6504 29.207c-18.8623 -1.00098 -33.8848 -15.8506 -43.5576 -31.0283
c-15.6113 -24.4971 -23.3457 -58.6084 -17.6514 -88.1318c0.260742 0.811523 0.512695 1.63184 0.773438 2.44336c6.26172 19.4512 25.6748 32.9717 45.9756 34.0781c15.96 0.870117 36.9121 -10.3506 30.7676 -29.4355
c-7.53613 -23.4121 -14.3574 -46.9756 -19.9424 -70.8213c7.48145 -2.62402 15.2832 -4.46582 23.1768 -5.45801c18.3779 -2.30859 36.8232 -1.27441 54.9453 2.30078z" />
    <glyph glyph-name="o" unicode="&#xf5;" horiz-adv-x="286" 
d="M301.196 242.809c11.582 10.6152 35.9531 -0.00488281 21.8477 -14.3457c-35.083 -35.6592 -78.2236 -62.0996 -125.578 -77.9795c-2.84277 -31.9082 -9.38672 -63.5674 -21.1289 -93.0693c-16.0234 -40.2686 -47.8389 -85.9199 -96.3086 -84.8311
c-53.5752 1.20312 -73.4883 55.6611 -77.1895 100.749c-2.96484 36.1133 1.4043 71.9697 9.4541 107.078c-42.792 57.3135 -18.6055 155.136 44.6973 190.189c39.0908 21.6504 79.5654 10.6572 105.543 -24.7158c28.9219 -39.3857 34.9775 -92.5068 36.4287 -139.958
c0.286133 -9.33203 0.319336 -18.7441 0.0673828 -28.1777c38.2373 14.5938 73.6572 38.9355 102.167 65.0605zM155.094 107.598c2.33789 10.8633 4.12012 21.8623 5.47461 32.9268c-27.1348 -5.48438 -55.5605 -6.88477 -82.165 -0.765625
c-1.64062 -9.0293 -3.11719 -18.0967 -4.29102 -27.2354c-2.64551 -20.5986 -4.13477 -41.9043 -1.22461 -62.583c2.14941 -15.2539 14.1309 -45.5635 34.4902 -34.541c13.9707 7.56543 23.5469 27.752 30.3428 41.3271c8.0918 16.166 13.5713 33.2285 17.373 50.8711z
M162.915 167.268c0.99707 19.0684 0.640625 38.2148 -1.0166 57.165c-3.00684 34.2842 -8.97461 70.6748 -28.8203 99.6807c-10.0635 14.707 -25.5947 30.2168 -44.6504 29.207c-18.8623 -1.00098 -33.8848 -15.8506 -43.5576 -31.0283
c-15.6113 -24.4971 -23.3457 -58.6084 -17.6514 -88.1318c0.260742 0.811523 0.512695 1.63184 0.773438 2.44336c6.26172 19.4512 25.6748 32.9717 45.9756 34.0781c15.96 0.870117 36.9121 -10.3506 30.7676 -29.4355
c-7.53613 -23.4121 -14.3574 -46.9756 -19.9424 -70.8213c7.48145 -2.62402 15.2832 -4.46582 23.1768 -5.45801c18.3779 -2.30859 36.8232 -1.27441 54.9453 2.30078z" />
    <glyph glyph-name="o" unicode="&#xf4;" horiz-adv-x="286" 
d="M301.196 242.809c11.582 10.6152 35.9531 -0.00488281 21.8477 -14.3457c-35.083 -35.6592 -78.2236 -62.0996 -125.578 -77.9795c-2.84277 -31.9082 -9.38672 -63.5674 -21.1289 -93.0693c-16.0234 -40.2686 -47.8389 -85.9199 -96.3086 -84.8311
c-53.5752 1.20312 -73.4883 55.6611 -77.1895 100.749c-2.96484 36.1133 1.4043 71.9697 9.4541 107.078c-42.792 57.3135 -18.6055 155.136 44.6973 190.189c39.0908 21.6504 79.5654 10.6572 105.543 -24.7158c28.9219 -39.3857 34.9775 -92.5068 36.4287 -139.958
c0.286133 -9.33203 0.319336 -18.7441 0.0673828 -28.1777c38.2373 14.5938 73.6572 38.9355 102.167 65.0605zM155.094 107.598c2.33789 10.8633 4.12012 21.8623 5.47461 32.9268c-27.1348 -5.48438 -55.5605 -6.88477 -82.165 -0.765625
c-1.64062 -9.0293 -3.11719 -18.0967 -4.29102 -27.2354c-2.64551 -20.5986 -4.13477 -41.9043 -1.22461 -62.583c2.14941 -15.2539 14.1309 -45.5635 34.4902 -34.541c13.9707 7.56543 23.5469 27.752 30.3428 41.3271c8.0918 16.166 13.5713 33.2285 17.373 50.8711z
M162.915 167.268c0.99707 19.0684 0.640625 38.2148 -1.0166 57.165c-3.00684 34.2842 -8.97461 70.6748 -28.8203 99.6807c-10.0635 14.707 -25.5947 30.2168 -44.6504 29.207c-18.8623 -1.00098 -33.8848 -15.8506 -43.5576 -31.0283
c-15.6113 -24.4971 -23.3457 -58.6084 -17.6514 -88.1318c0.260742 0.811523 0.512695 1.63184 0.773438 2.44336c6.26172 19.4512 25.6748 32.9717 45.9756 34.0781c15.96 0.870117 36.9121 -10.3506 30.7676 -29.4355
c-7.53613 -23.4121 -14.3574 -46.9756 -19.9424 -70.8213c7.48145 -2.62402 15.2832 -4.46582 23.1768 -5.45801c18.3779 -2.30859 36.8232 -1.27441 54.9453 2.30078z" />
    <glyph glyph-name="o" unicode="&#xf3;" horiz-adv-x="286" 
d="M301.196 242.809c11.582 10.6152 35.9531 -0.00488281 21.8477 -14.3457c-35.083 -35.6592 -78.2236 -62.0996 -125.578 -77.9795c-2.84277 -31.9082 -9.38672 -63.5674 -21.1289 -93.0693c-16.0234 -40.2686 -47.8389 -85.9199 -96.3086 -84.8311
c-53.5752 1.20312 -73.4883 55.6611 -77.1895 100.749c-2.96484 36.1133 1.4043 71.9697 9.4541 107.078c-42.792 57.3135 -18.6055 155.136 44.6973 190.189c39.0908 21.6504 79.5654 10.6572 105.543 -24.7158c28.9219 -39.3857 34.9775 -92.5068 36.4287 -139.958
c0.286133 -9.33203 0.319336 -18.7441 0.0673828 -28.1777c38.2373 14.5938 73.6572 38.9355 102.167 65.0605zM155.094 107.598c2.33789 10.8633 4.12012 21.8623 5.47461 32.9268c-27.1348 -5.48438 -55.5605 -6.88477 -82.165 -0.765625
c-1.64062 -9.0293 -3.11719 -18.0967 -4.29102 -27.2354c-2.64551 -20.5986 -4.13477 -41.9043 -1.22461 -62.583c2.14941 -15.2539 14.1309 -45.5635 34.4902 -34.541c13.9707 7.56543 23.5469 27.752 30.3428 41.3271c8.0918 16.166 13.5713 33.2285 17.373 50.8711z
M162.915 167.268c0.99707 19.0684 0.640625 38.2148 -1.0166 57.165c-3.00684 34.2842 -8.97461 70.6748 -28.8203 99.6807c-10.0635 14.707 -25.5947 30.2168 -44.6504 29.207c-18.8623 -1.00098 -33.8848 -15.8506 -43.5576 -31.0283
c-15.6113 -24.4971 -23.3457 -58.6084 -17.6514 -88.1318c0.260742 0.811523 0.512695 1.63184 0.773438 2.44336c6.26172 19.4512 25.6748 32.9717 45.9756 34.0781c15.96 0.870117 36.9121 -10.3506 30.7676 -29.4355
c-7.53613 -23.4121 -14.3574 -46.9756 -19.9424 -70.8213c7.48145 -2.62402 15.2832 -4.46582 23.1768 -5.45801c18.3779 -2.30859 36.8232 -1.27441 54.9453 2.30078z" />
    <glyph glyph-name="p" unicode="p" horiz-adv-x="410" 
d="M420.691 217.979c15.7285 11.9189 37.7617 -3.58887 19.1475 -17.7236c-36.1768 -27.4629 -78.6533 -41.0469 -121.685 -53.5371c-3.46094 -33.0303 -11.3086 -65.7373 -24.4932 -95.748c-18.9502 -43.1328 -61.0312 -92.7041 -113.812 -83.1074
c-50.4961 9.18066 -51.3418 65.6367 -31.374 102.549c25.6328 47.3887 68.2148 69.0518 114.771 84.9238c4.75684 31.874 6.27051 64.6943 1.02637 96.3037c-2.6875 16.1914 -9.4502 52.1914 -30.1123 56.376c-22.4834 4.55469 -39.0703 -36.3955 -46.4805 -52.1367
c-70.8301 -150.493 -84.9814 -324.832 -85.0781 -490.116c0.273438 -2.29199 0.567383 -4.58008 0.84082 -6.86816c3.33105 -27.7734 8.35645 -55.7109 3.55371 -83.5557c-3.92383 -22.7314 -40.8652 -33.4766 -54.4746 -14.7109
c-16.4736 22.7188 -21.8018 54.4082 -27.9043 81.4043c-6.16113 27.2686 -11.2627 55.0254 -15.2871 82.6816c-8.0752 55.4629 -14.1904 111.427 -16.958 167.42c-5.60156 113.429 -4.14258 229.633 14.5723 341.863c3.27148 19.6396 26.3184 32.748 44.0029 35.7549
c13.4785 2.29199 40.6172 -2.54395 39.25 -22.0664c-7.86816 -112.276 -15.2783 -223.632 -10.2354 -336.266c0.504883 -11.2793 1.13574 -22.542 1.78809 -33.8008c5.40039 43.1455 12.8525 86.0127 23.0635 128.367c12.9658 53.7939 29.5488 108.365 53.7227 158.303
c17.4199 35.9961 55.8887 92.3809 103.146 66.3691c40.6045 -22.3525 56.7881 -86.4033 58.3232 -128.758c0.348633 -9.61816 0.352539 -19.3242 -0.000976562 -29.0557c36.126 10.9258 71.5752 23.0762 100.687 45.1348zM214.353 23.0771
c27.3613 26.167 36.7422 68.6816 43.9551 104.463c-25.4141 -10.0811 -49.1289 -23.6523 -66.4893 -45.2988c-11.1572 -13.9121 -25.5146 -38.7334 -16.9482 -57.2295c8.63867 -18.6562 27.9209 -12.9951 39.4824 -1.93457z" />
    <glyph glyph-name="q" unicode="q" horiz-adv-x="362" 
d="M283.646 86.4492c-15.4434 -18.8623 -34.1494 -42.4404 -39.125 -66.9883c-5.375 -26.5293 23.791 -48.4863 41.0635 -64.2949c31.5459 -28.8672 59.0586 -59.3203 77.3486 -98.457c16.5654 -35.4404 29.792 -80.2676 22.7178 -119.577
c-6.47266 -35.9707 -33.9941 -61.1621 -69.8467 -66.041c-43.6709 -5.94238 -76.8154 20.6201 -100.354 54.6729c-53.8779 77.9463 -60.5566 187.22 -62.3564 278.923c-0.689453 35.1162 0.143555 70.1699 1.92676 105.202
c-6.72461 -20.582 -13.79 -41.0166 -21.2422 -61.2412c-8.36523 -22.6973 -21.5537 -44.3564 -46.5479 -50.8545c-24.0098 -6.24121 -58.6387 4.55469 -74.9189 23.1396c-19.6699 22.4541 -28.5986 58.7656 -32.3291 87.6074
c-4.36523 33.7539 -2.31738 68.5977 5.18164 101.771c13.374 59.1602 57.1963 139.941 130.874 125.811c24.2617 -4.65137 40.7139 -22.8359 54.8027 -41.9375c0.875 5.62695 1.78809 11.2412 2.80957 16.8301c3.59961 19.6611 26.083 32.7109 44.0029 35.7559
c14.2988 2.43066 39.5908 -2.56543 39.25 -22.0664c-0.924805 -52.8516 -9.02051 -105.707 -12.835 -158.416c-2.2207 -30.6797 -4.02441 -61.4434 -5.06348 -92.2197c11.8262 16.9355 25.5361 32.7021 39.082 47.9727c30.9277 34.8604 62.2217 69.3711 93.6328 103.794
c11.1074 12.1709 38.9736 5.63965 24.376 -11.1279c-37.2783 -42.8252 -76.4912 -84.3262 -112.449 -128.258zM118.624 98.0586c13.3779 40.668 25.7188 81.6465 37.4902 122.794c-21.5996 39.3311 -55.0215 87.8135 -74.9053 58.8916
c-15.2324 -22.1631 -22.8652 -53.4824 -27.8701 -79.498c-5.875 -30.5537 -5.9082 -60.96 -3.30469 -91.8457c1.26562 -15.0264 2.92676 -30.667 6.82129 -45.3027c2.53223 -9.52148 6.99902 -29.1992 15.0615 -35.5752c25.6875 -20.3086 42.123 56.5986 46.707 70.5361z
M249.318 -59.168c-3.35156 3.15039 -6.62109 6.3125 -9.75391 9.5127c1.11426 -24.7461 2.88867 -49.458 5.59668 -74.0947c4.58789 -41.7568 9.9375 -84.0234 26.873 -122.883c7.51953 -17.2559 17.1162 -33.8721 33.2197 -44.415
c24.0938 -15.7754 41.2773 1.375 45.8652 26.0957c6.98145 37.6152 -8.5498 81.6562 -25.4902 114.687c-18.8916 36.833 -46.5898 63.1602 -76.3105 91.0977z" />
    <glyph glyph-name="r" unicode="r" horiz-adv-x="306" 
d="M309.933 234.822c6.42188 14.2529 37.4912 14.5078 29.126 -4.80859c-24.9102 -57.5537 -37.8926 -119.296 -60.2373 -177.796c-17.4658 -45.7354 -41.6475 -107.474 -95.332 -118.858c-64.5684 -13.6934 -92.376 43.5283 -102.94 97.5488
c-12.2383 62.583 -9.00391 129.511 4.70605 191.648c-24.7461 -4.61816 -49.9121 -7.36426 -74.1318 -0.189453c-32.3027 9.57227 -53.1123 39.6973 -62.041 70.7266c-18.7314 65.0898 -5.93359 144.041 31.4746 200.089c26.7646 40.1006 84.1377 103.138 138.92 76.4326
c27.0332 -13.1807 31.1543 -49.2812 29.9219 -75.877c-1.58105 -34.1494 -11.0264 -68.1514 -22.5205 -100.189c-18.5127 -51.6113 -45.2812 -99.4541 -78.9512 -142.465c19.127 -7.20801 40.6221 -3.04004 61.6035 0.757812
c24.8467 12.5078 59.0342 9.60156 52.877 -21.4648c-10.333 -52.1279 -14.7695 -104.029 -12.2041 -157.142c1.00098 -20.708 8.82715 -139.991 49.8271 -103.819c18.0205 15.9014 29.0352 42.6914 38.4932 64.3623c9.59668 21.9912 17.2422 44.7686 24.5049 67.6172
c14.3027 45.0166 27.4619 90.2686 46.9043 133.427zM-3.94043 342.458c2.33398 -27.5508 9.82031 -55.0557 28.8965 -75.2637c31.4834 41.5137 56.3262 87.8467 72.4375 137.573c10.1777 31.4199 19.8594 65.9395 16.9697 99.2188
c-1.58105 18.1973 -7.90625 43.3174 -31.5713 41.3408c-14.1055 -1.17773 -26.6006 -13.1045 -36.0293 -22.7061c-44.5664 -45.3779 -55.8799 -119.098 -50.7031 -180.163z" />
    <glyph glyph-name="s" unicode="s" horiz-adv-x="290" 
d="M311.354 248.751c18.3701 10.3877 28.4678 -11.3408 10.4971 -21.5225c-71.2676 -40.4199 -145.997 -83.1406 -202.86 -142.986c21.8857 -47.7041 43.5947 -95.4287 54.3145 -146.96c9.09668 -43.7344 -4.53809 -90.4795 -40.7021 -118.228
c-31.3525 -24.0557 -77.4336 -20.3926 -104.614 8.44141c-55.4971 58.8701 -18.8164 150.998 23.0586 213.745c-15.4131 31.3105 -30.4902 62.8105 -41.7607 95.8916c-27.3193 80.2051 -31.7559 181.021 34.0654 244.303c25.709 24.7158 65.4014 45.1299 101.725 32.8457
c38.5527 -13.0371 44.3652 -55.8037 45.0635 -91.1016c0.31543 -15.8975 -32.8164 -26.7646 -33.4385 -8.91211c-0.807617 23.0469 -1.29102 56.1279 -24.7832 68.7695c-25.2842 13.6006 -51.1865 -8.11328 -61.793 -30.0205
c-21.0068 -43.3848 -14.1348 -95.7402 -1.86719 -140.56c9.76953 -35.7012 24.1865 -69.7627 39.4482 -103.504c59.0215 57.5664 132.178 99.3867 203.647 139.798zM121.951 -121.848c-7.75098 45.2266 -35.2051 90.0078 -55.0635 130.865
c-0.488281 1.00977 -0.988281 2.01465 -1.48047 3.02441c-22.0039 -39.2842 -41.3369 -90.2393 -26.9834 -134.461c7.2334 -22.2773 24.0771 -43.2295 48.3477 -47.1152c31.5078 -5.04688 39.4775 22.6006 35.1797 47.6865z" />
    </font>
</defs>
</svg>
