<?xml version="1.0" standalone="no"?>
<!DOCTYPE svg PUBLIC "-//W3C//DTD SVG 1.1//EN" "http://www.w3.org/Graphics/SVG/1.1/DTD/svg11.dtd" >
<svg xmlns="http://www.w3.org/2000/svg" xmlns:xlink="http://www.w3.org/1999/xlink" version="1.1">
<metadata>
Created by FontForge 20170812 at Thu Jun 16 08:49:23 2022
 By www-data
</metadata>
<defs>
<font id="AdviceRegular" horiz-adv-x="0" >
  <font-face 
    font-family="Advice"
    font-weight="400"
    font-stretch="normal"
    units-per-em="1000"
    panose-1="0 0 0 0 0 0 0 0 0 0"
    ascent="800"
    descent="-200"
    x-height="254.423"
    cap-height="683.176"
    bbox="-257.001 -428.972 1412.31 890.05"
    underline-thickness="50"
    underline-position="-100"
    unicode-range="U+000A-F000"
  />
<missing-glyph horiz-adv-x="527" 
d="M50 700h427v-700h-427v700zM78 680l185 -309l186 309h-371zM251 350l-180 300v-601zM264 329l-185 -308h370zM276 350l181 -303v605z" />
    <glyph glyph-name="tt.liga" unicode="tt" horiz-adv-x="410" 
d="M-203.512 398.553c34.2061 -9.38184 72.4941 -5.18066 107.373 -2.05762c26.9092 2.41113 53.7012 5.9707 80.3945 10.1445c1.71875 23.543 4.49609 46.9834 5.41699 70.5381c1.01855 26.1191 66.8154 25.3682 65.8242 0
c-0.754883 -19.3223 -0.506836 -38.7578 -0.270508 -58.2012c46.0859 8.67383 92.0186 18.1816 138.184 26.4346c0.904297 10.5811 1.70703 21.1621 2.12012 31.7666c1.01855 26.1191 66.8154 25.3682 65.8242 0c-0.275391 -6.9541 -0.389648 -13.9209 -0.448242 -20.8994
c48.6543 6.79688 97.6904 11.0762 146.817 10.3213c50.7002 -0.779297 119.947 -5.11816 140.15 -61.542c4.62207 -12.9062 -26.4609 -15.5771 -30.2842 -4.75977c-12.4258 35.1426 -47.0137 45.165 -81.0039 47.6191c-31.3545 2.26172 -63.0869 1.50293 -94.4297 -0.546875
c-27.2012 -1.77832 -54.2803 -4.89355 -81.2686 -8.74414c0.149414 -22.6768 0.743164 -45.4131 0.161133 -68.0391c-0.849609 -33.0029 -1.29004 -66.0215 -0.884766 -99.0361c0.802734 -65.7695 3.76074 -131.331 12.1191 -196.617
c3.875 -30.2412 7.19531 -61.4697 16.1836 -90.6768c3.4541 -11.2227 8.26855 -30.3125 18.4648 -37.708c13.5791 -9.8457 25.415 7.99316 33.1719 18.8184c35.8154 49.9805 50.1494 111.836 63.6729 170.745c2.75781 12.0049 32.5508 10.4629 30.1787 0
c-13.5039 -59.5938 -27.3623 -121.438 -62.3711 -172.673c-11.8438 -17.335 -25.9736 -34.5088 -47.4395 -39.2959c-21.1865 -4.72461 -43.9229 2.00977 -60.1484 16.0137c-32.873 28.373 -46.2393 75.9854 -54.7949 120.191
c-10.1133 -34.1865 -23.2559 -67.3193 -43.4746 -96.9082c-11.8477 -17.335 -25.9736 -34.5088 -47.4395 -39.2959c-21.1865 -4.72461 -43.9229 2.00977 -60.1484 16.0137c-42.4199 36.6143 -52.3955 105.283 -61.4033 157.293
c-10.7939 62.3281 -14.5029 126.146 -14.916 189.328c-0.208008 31.752 0.295898 63.5039 1.14551 95.2441c0.0664062 2.54102 0.192383 5.07422 0.306641 7.61133c-6.97852 -1.02637 -13.957 -2.02148 -20.9512 -2.94629
c-57.8037 -7.62695 -122.566 -17.5117 -179.666 -1.62793c-17.2373 4.79492 3.24121 16.3994 13.834 13.4922zM150.64 419.731c-31.7441 -6.01465 -63.46 -12.2744 -95.251 -18.0801c0.0703125 -10.3691 0.0625 -20.7266 -0.205078 -31.0645
c-0.849609 -33.0029 -1.29004 -66.0215 -0.884766 -99.0361c0.802734 -65.7695 3.76074 -131.331 12.1191 -196.617c3.875 -30.2412 7.19531 -61.4697 16.1836 -90.6768c3.4541 -11.2227 8.26855 -30.3125 18.4648 -37.708c13.5752 -9.8457 25.415 7.99316 33.1719 18.8184
c35.2295 49.1582 49.6699 109.803 63.0049 167.835c-6.66309 50.8613 -9.23535 102.423 -9.56934 153.575c-0.208008 31.752 0.295898 63.5039 1.14551 95.2441c0.405273 15.168 1.66797 30.2607 3.00977 45.3379c-13.752 -2.47461 -27.4844 -5.02734 -41.1895 -7.62793z
" />
    <glyph glyph-name=".notdef" horiz-adv-x="527" 
d="M50 700h427v-700h-427v700zM78 680l185 -309l186 309h-371zM251 350l-180 300v-601zM264 329l-185 -308h370zM276 350l181 -303v605z" />
    <glyph glyph-name=".null" 
 />
    <glyph glyph-name=".null" 
 />
    <glyph glyph-name="LF" unicode="&#xa;" 
 />
    <glyph glyph-name="controlCR" unicode="&#xd;" 
 />
    <glyph glyph-name="space" unicode=" " horiz-adv-x="447" 
 />
    <glyph glyph-name="exclam" unicode="!" horiz-adv-x="178" 
d="M126.601 416.959c2.05762 -60.6836 1.81445 -121.674 -0.109375 -182.365c-1.83691 -57.8359 2.02637 -122.256 -16.6855 -177.728c-4.06738 -12.0488 -35.6309 -12.0254 -39.7686 0c-19.0586 55.377 -15.5967 119.876 -17.8076 177.728
c-2.32129 60.6758 -2.95898 121.666 -1.28711 182.365c0.818359 29.7383 74.6514 29.6006 75.6582 0zM122.998 -8.72559c2.5293 -16.332 0.165039 -33.6621 1.77734 -50.2383c1.31348 -13.5078 -21.6982 -17.1348 -30.4541 -17.3594
c-11.0215 -0.283203 -29.1592 4.04004 -30.4531 17.3594c-1.71875 17.6934 -2.76465 37.7109 4.13867 54.4834c7.39941 17.9805 51.8643 15.9346 54.9912 -4.24512z" />
    <glyph glyph-name="quotedbl" unicode="&#x22;" horiz-adv-x="254" 
d="M87.2676 489.773c9.61328 0 33.6973 -4.27539 32.2969 -18.4053c-1.41992 -14.3223 -3.28418 -28.5537 -4.88086 -42.8486c-1.37305 -12.2842 -0.0908203 -28.168 -6.14453 -39.04c-7.26562 -13.0518 -30.5762 -13.0518 -41.9131 -6.30957
c-15.5381 9.23633 -16.584 22.4766 -16.627 39.6035c-0.0390625 16.6035 1.3418 32.3887 4.96875 48.5908c3.19043 14.251 19.1494 18.4092 32.2998 18.4092zM171.839 489.773c9.61328 0 33.6973 -4.27539 32.2969 -18.4053
c-1.41992 -14.3223 -3.28418 -28.5537 -4.88086 -42.8486c-1.37305 -12.2842 -0.0908203 -28.168 -6.14453 -39.04c-7.26562 -13.0518 -30.5762 -13.0518 -41.9131 -6.30957c-15.5381 9.23633 -16.584 22.4766 -16.627 39.6035
c-0.0390625 16.6035 1.3418 32.3887 4.96875 48.5908c3.19043 14.251 19.1494 18.4092 32.2998 18.4092z" />
    <glyph glyph-name="quotedbl" unicode="&#x201d;" horiz-adv-x="254" 
d="M87.2676 489.773c9.61328 0 33.6973 -4.27539 32.2969 -18.4053c-1.41992 -14.3223 -3.28418 -28.5537 -4.88086 -42.8486c-1.37305 -12.2842 -0.0908203 -28.168 -6.14453 -39.04c-7.26562 -13.0518 -30.5762 -13.0518 -41.9131 -6.30957
c-15.5381 9.23633 -16.584 22.4766 -16.627 39.6035c-0.0390625 16.6035 1.3418 32.3887 4.96875 48.5908c3.19043 14.251 19.1494 18.4092 32.2998 18.4092zM171.839 489.773c9.61328 0 33.6973 -4.27539 32.2969 -18.4053
c-1.41992 -14.3223 -3.28418 -28.5537 -4.88086 -42.8486c-1.37305 -12.2842 -0.0908203 -28.168 -6.14453 -39.04c-7.26562 -13.0518 -30.5762 -13.0518 -41.9131 -6.30957c-15.5381 9.23633 -16.584 22.4766 -16.627 39.6035
c-0.0390625 16.6035 1.3418 32.3887 4.96875 48.5908c3.19043 14.251 19.1494 18.4092 32.2998 18.4092z" />
    <glyph glyph-name="quotedbl" unicode="&#x201c;" horiz-adv-x="254" 
d="M87.2676 489.773c9.61328 0 33.6973 -4.27539 32.2969 -18.4053c-1.41992 -14.3223 -3.28418 -28.5537 -4.88086 -42.8486c-1.37305 -12.2842 -0.0908203 -28.168 -6.14453 -39.04c-7.26562 -13.0518 -30.5762 -13.0518 -41.9131 -6.30957
c-15.5381 9.23633 -16.584 22.4766 -16.627 39.6035c-0.0390625 16.6035 1.3418 32.3887 4.96875 48.5908c3.19043 14.251 19.1494 18.4092 32.2998 18.4092zM171.839 489.773c9.61328 0 33.6973 -4.27539 32.2969 -18.4053
c-1.41992 -14.3223 -3.28418 -28.5537 -4.88086 -42.8486c-1.37305 -12.2842 -0.0908203 -28.168 -6.14453 -39.04c-7.26562 -13.0518 -30.5762 -13.0518 -41.9131 -6.30957c-15.5381 9.23633 -16.584 22.4766 -16.627 39.6035
c-0.0390625 16.6035 1.3418 32.3887 4.96875 48.5908c3.19043 14.251 19.1494 18.4092 32.2998 18.4092z" />
    <glyph glyph-name="numbersign" unicode="#" horiz-adv-x="508" 
d="M445.408 227.989c26.1152 -8.56348 4.37402 -27.165 -12.9609 -27.2754c-21.9727 -0.15332 -44.001 3.08398 -66.0488 4.68457c-3.85059 -14.46 -7.63867 -28.9395 -11.2812 -43.4619c-4.1582 -16.5645 -8.11523 -33.2031 -11.9941 -49.8818
c11.7617 -0.345703 23.5117 -0.762695 35.2451 -1.27051c8.14258 -0.354492 25.6904 -3.0293 25.6904 -14.6455c0 -11.0654 -17.2256 -15.1016 -25.6904 -14.6455c-13.96 0.750977 -27.916 1.31348 -41.8682 1.73828c-16.3721 -71.9414 -32.0635 -144.261 -54.709 -214.216
c-6.3291 -19.5576 -64.0029 -18.6846 -62.8389 4.8457c3.48926 70.4463 17.1738 140.873 33.1602 210.277c-8.53613 -0.0546875 -17.0723 -0.145508 -25.6084 -0.275391c-16.4229 -72.1543 -32.1455 -144.689 -54.8545 -214.853
c-6.3291 -19.5576 -64.0029 -18.6846 -62.8389 4.8457c3.44629 69.6084 16.8438 139.201 32.582 207.795c-25.5215 -0.884766 -51.0469 -1.91113 -76.5879 -2.94922c-15.5254 -0.633789 -21.7402 14.833 -4.21582 17.752c28.7783 4.79492 57.7451 8.34277 86.8145 10.9268
c5.05859 21.3242 10.2432 42.542 15.3408 63.6182c2.49023 10.2939 5 20.5957 7.51758 30.9053c-19.9277 0.0908203 -39.8037 1.0625 -59.5381 3.68262c-16.5566 2.20312 -17.2334 19.0625 0 20.6436c22.1934 2.03809 44.4736 3.62695 66.7773 4.98828
c19.5537 78.668 40.665 157.272 67.4131 233.6c10.0508 28.6719 89.9062 22.7715 80.3672 -12.627c-19.5107 -72.4053 -41.0273 -144.193 -60.8564 -216.484c4.63379 0.220703 9.26758 0.4375 13.8975 0.658203c3.56738 0.168945 7.13477 0.294922 10.7021 0.444336
c19.1641 76.8037 39.9141 153.493 66.0293 228.011c10.0508 28.6719 89.9062 22.7715 80.3672 -12.627c-19.3809 -71.9297 -40.7363 -143.25 -60.459 -215.062c23.5586 -0.806641 48.3203 -1.88477 70.4463 -9.14258zM272.889 171.003
c2.78906 11.5293 5.59375 23.0703 8.41797 34.6113c-3.5127 -0.110352 -7.0293 -0.205078 -10.542 -0.331055c-4.89355 -0.172852 -9.79492 -0.376953 -14.7002 -0.589844c-3.78418 -14.2275 -7.50488 -28.4746 -11.0928 -42.7656
c-4.12988 -16.4775 -8.07129 -33.0342 -11.9297 -49.6221c8.59863 0.244141 17.1973 0.44043 25.7998 0.550781c4.64551 19.4795 9.38574 38.876 14.0469 58.1465z" />
    <glyph glyph-name="dollar" unicode="$" horiz-adv-x="449" 
d="M361.335 16.9248c25.0059 -23.1055 50.7051 -51.501 31.0566 -85.8447c-16.2021 -28.3184 -58.3154 -40.0244 -88.3682 -42.7227c-5.7002 -0.511719 -11.4121 -0.649414 -17.0957 -0.488281c2.64355 -34.7373 5.82617 -69.4434 9.66895 -104.091
c1.30566 -11.7773 -30.084 -12.54 -31.4053 0c-3.80371 36.0635 -6.88379 72.1855 -9.39355 108.335c-50.2441 12.4541 -91.7988 51.2705 -93.0459 107.902c-0.248047 11.3994 28.7744 11.502 29.2578 0c1.63281 -38.9541 26.8076 -73.9746 62.458 -87.9668
c-2.49805 39.7842 -4.20508 79.6035 -5.1377 119.435c-110.668 67.1465 -234.14 145.429 -190.237 286.963c23.4053 75.4619 95.5547 135.579 173.746 145.857c12.2646 1.6084 24.8564 1.85254 37.3809 0.77832c2.65137 22.083 5.46387 44.1504 8.60254 66.1826
c1.56543 10.9707 28.7979 10.0898 27.4131 0c-3.22949 -23.5264 -6.08887 -47.0928 -8.75977 -70.6787c45.4805 -11.2109 86.0361 -40.6064 101.299 -86.9404c4.68457 -14.2314 -27.8301 -16.332 -32.6562 -5.13281c-12.9375 30.0215 -40.0752 54.2559 -71.9805 61.5215
c-12.0371 -116.765 -17.2568 -234.115 -15.7109 -351.411c28.6445 -19.1211 57.4189 -38.1436 82.9082 -61.6982zM248.493 99c-0.125977 111.151 5.81836 222.287 17.875 332.86c-37.125 -3.25684 -69.3887 -27.2402 -91.7236 -55.9629
c-50.1025 -64.4287 -49.7881 -154.217 3.5791 -216.01c20.6826 -23.9512 44.9492 -43.1035 70.2695 -60.8877zM352.742 -73.7988c21.7217 18.5312 3.86914 34.5488 -13.5605 47.5176c-17.5713 13.0752 -37.8018 25.9775 -59.2236 39.1357
c1.24707 -35.7842 3.17871 -71.5488 5.69238 -107.281c23.3652 -0.873047 49.7246 5.81445 67.0918 20.6279z" />
    <glyph glyph-name="percent" unicode="%" horiz-adv-x="552" 
d="M471.729 478.083c10.5537 -1.6875 38.3486 -12.6211 28.2471 -28.3594c-65.7852 -102.481 -134.596 -203.138 -202.729 -304.073c-34.6514 -51.3291 -69.3926 -102.596 -104.999 -153.272c-16.3994 -23.3379 -33.042 -46.5889 -50.373 -69.2383
c-16.2539 -21.2451 -32.5078 -42.1836 -57.6045 -53.3828c-6.75 -3.00879 -40.7402 -5.38477 -33.1797 11.0107c21.6895 47.0342 52.0176 92.0303 79.6787 135.721c31.292 49.4258 62.8984 98.6191 94.8115 147.647c64.8574 99.6338 129.273 199.724 196.4 297.847
c10.6641 15.5889 32.0898 18.9248 49.748 16.1006zM150.5 174.864c-67.7207 11.6318 -69.8369 85.6973 -61.6318 144.808c-5.80957 5.21582 -7.92969 14.4482 -3.66602 25.8359c10.1172 27 43.3281 43.0332 69.4395 49.2871c62.6348 14.999 109.9 -34.7568 110.443 -96.0342
c0.558594 -62.9297 -42.7344 -136.236 -114.585 -123.896zM208.772 364.558c-14.1729 18.3428 -36.1865 17.4443 -55.5752 9.65625c10.3535 -3.24512 17.3945 -9.39355 15.5967 -18.0713c-8.00488 -38.6553 -17.2881 -83.1162 -6.27832 -122.086
c1.96289 -6.94238 6.76562 -12.9727 8.72852 -19.6162c0.0947266 -0.110352 0.193359 -0.220703 0.288086 -0.327148c2.06543 1.40039 4.05176 2.78516 4.30371 2.99805c13.166 10.9902 22.54 27.0039 29.5068 42.4316c12.9453 28.6641 24.7344 77.4482 3.42969 105.015z
M389.067 160.371c62.6309 14.999 109.896 -34.7568 110.443 -96.0342c0.558594 -62.9297 -42.7344 -136.236 -114.585 -123.896c-67.7207 11.6318 -69.8369 85.6973 -61.6318 144.808c-5.80957 5.21582 -7.93359 14.4482 -3.66602 25.8359
c10.1172 27 43.3281 43.0332 69.4395 49.2871zM439.764 25.1182c12.9453 28.6641 24.7334 77.4424 3.42871 105.013c-14.1729 18.3389 -36.1855 17.4424 -55.5742 9.6582c10.3535 -3.24512 17.3945 -9.39355 15.5967 -18.0713
c-8.00488 -38.6553 -17.2881 -83.1162 -6.27832 -122.086c1.96289 -6.94629 6.76562 -12.9727 8.72852 -19.6201c0.0947266 -0.106445 0.193359 -0.216797 0.288086 -0.323242c2.06543 1.40039 4.05176 2.78516 4.30371 2.99805
c13.166 10.9902 22.54 27.0039 29.5068 42.4316z" />
    <glyph glyph-name="ampersand" unicode="&#x26;" horiz-adv-x="542" 
d="M428.926 139.539c34.4189 -4.90527 65.1123 -28.2988 62.6582 -65.8408c-2.49414 -38.0146 -28.8574 -71.749 -55.1338 -97.2705c-30.9893 -30.0996 -69.2002 -52.2969 -110.263 -66.3711c0.904297 -11.6709 1.85645 -23.334 2.89453 -34.9932
c1.0498 -11.793 -30.0527 -12.3828 -31.0986 0c-0.739258 8.73242 -1.38867 17.4648 -2.0498 26.2012c-25.5254 -6.09668 -51.7109 -9.22754 -77.6289 -9.18457c-37.7188 0.0625 -85.8701 3.97266 -113.177 33.5771c-27.1729 29.4629 -22.6064 72.5078 -5.16113 105.676
c15.251 28.9941 37.1182 56.167 60.2559 80.3818c-14.8379 0.589844 -29.5615 3.02441 -43.9229 7.68945c-61.1553 19.8721 -77.3896 80.0244 -59.3779 136.728c17.9297 56.4395 63.9492 101.404 114.268 130.348c38.3682 22.0713 84.7881 41.2275 131.059 48.623
c1.73828 17.4805 3.5752 34.9453 5.62109 52.3984c1.3291 11.3408 29.5215 10.5703 28.334 0.000976562c-1.85254 -16.4463 -3.5166 -32.9082 -5.10156 -49.3779c8.82324 0.397461 17.5791 0.338867 26.2051 -0.341797c48.9854 -3.86719 103.851 -38.6006 95.3779 -94.4492
c-1.97852 -13.0479 -34.5254 -12.6113 -33.251 0c2.79297 27.5898 -15.0186 52.4658 -40.1895 63.1533c-15.8096 6.71484 -33.373 6.89551 -50.7041 4.22461c-5.90039 -67.7949 -9.47949 -135.748 -10.8369 -203.744c3.19824 -0.770508 6.28613 -1.71484 9.04395 -2.94238
c9.51172 -4.23242 21.7881 -17.6738 9.4873 -27.0908c-6.10059 -4.66895 -12.4844 -9.23145 -19.085 -13.6523c-0.0830078 -15.042 -0.0634766 -30.084 0.0742188 -45.126c34.7334 15.4121 74.9346 26.627 111.702 21.3838zM215.269 -75.6885
c26.4893 -1.51855 52.9551 1.55176 78.4521 8.37305c-3.10352 47.4072 -5.12109 94.8662 -6.00977 142.337c-19.6406 -13.209 -37.2432 -27.1572 -31.9326 -31.2324c10.7383 -8.24121 -16.0537 -15.6445 -23.457 -10.3184c-28.4395 20.4551 27.874 55.0234 54.9609 69.8369
c-0.133789 13.9678 -0.165039 27.9316 -0.106445 41.8994c-10.8096 -5.81348 -22.0127 -11.0928 -33.4834 -15.668c-31.3389 -25.9932 -58.5479 -59.1885 -79.6826 -89.1982c-16.2461 -23.0664 -31.2764 -51.8877 -22.8428 -80.8076
c8.56348 -29.3682 37.416 -33.6953 64.1016 -35.2217zM288.096 206.654c1.6084 65.8564 5.32617 131.661 11.1875 197.316c-4.38574 -1.28223 -8.68555 -2.61133 -12.8398 -3.93262c-51.8174 -16.5137 -101.534 -44.54 -131.595 -91.3145
c-23.2002 -36.1025 -43.9258 -97.4473 -11.8516 -134.919c14.0898 -16.4619 31.5664 -13.5469 50.2705 -7.78809c29.5059 9.08301 57.5566 22.6025 85.1035 36.374c2.90723 1.87988 6.22754 3.2373 9.72461 4.26367zM443.092 31.9912
c17.8896 25.8828 27.3438 67.623 -6.70508 85.2334c-29.8955 15.4629 -76.4893 -2.77344 -104.839 -15.5732c-1.79004 -0.806641 -7.04102 -3.72168 -14.0078 -7.84375c0.861328 -50.4092 2.96191 -100.803 6.32129 -151.133
c18.6016 7.3916 36.4404 16.7539 53.0557 27.8662c24.707 16.5215 49.1426 36.8145 66.1748 61.4502z" />
    <glyph glyph-name="quotesingle" unicode="'" horiz-adv-x="170" 
d="M87.2676 489.773c9.61328 0 33.6973 -4.27539 32.2969 -18.4053c-1.41992 -14.3223 -3.28418 -28.5537 -4.88086 -42.8486c-1.37305 -12.2842 -0.0908203 -28.168 -6.14453 -39.04c-7.26562 -13.0518 -30.5762 -13.0518 -41.9131 -6.30957
c-15.5381 9.23633 -16.584 22.4766 -16.627 39.6035c-0.0390625 16.6035 1.3418 32.3887 4.96875 48.5908c3.19043 14.251 19.1494 18.4092 32.2998 18.4092z" />
    <glyph glyph-name="quotesingle" unicode="&#x2019;" horiz-adv-x="170" 
d="M87.2676 489.773c9.61328 0 33.6973 -4.27539 32.2969 -18.4053c-1.41992 -14.3223 -3.28418 -28.5537 -4.88086 -42.8486c-1.37305 -12.2842 -0.0908203 -28.168 -6.14453 -39.04c-7.26562 -13.0518 -30.5762 -13.0518 -41.9131 -6.30957
c-15.5381 9.23633 -16.584 22.4766 -16.627 39.6035c-0.0390625 16.6035 1.3418 32.3887 4.96875 48.5908c3.19043 14.251 19.1494 18.4092 32.2998 18.4092z" />
    <glyph glyph-name="quotesingle" unicode="&#x2018;" horiz-adv-x="170" 
d="M87.2676 489.773c9.61328 0 33.6973 -4.27539 32.2969 -18.4053c-1.41992 -14.3223 -3.28418 -28.5537 -4.88086 -42.8486c-1.37305 -12.2842 -0.0908203 -28.168 -6.14453 -39.04c-7.26562 -13.0518 -30.5762 -13.0518 -41.9131 -6.30957
c-15.5381 9.23633 -16.584 22.4766 -16.627 39.6035c-0.0390625 16.6035 1.3418 32.3887 4.96875 48.5908c3.19043 14.251 19.1494 18.4092 32.2998 18.4092z" />
    <glyph glyph-name="parenleft" unicode="(" horiz-adv-x="384" 
d="M327.19 -156.303c10.4678 -8.28809 9.72754 -21.3887 -2.88379 -27.623c-65.1162 -32.1846 -149.692 -12.2646 -197.867 41.1768c-41.9199 46.5029 -59.9395 110.038 -69.4512 170.619c-11.0615 70.4541 -8.61133 141.971 4.67676 211.918
c12.5801 66.2295 33.082 132.754 69.4131 190.055c29.3682 46.3184 77.4873 86.7832 134.544 88.6553c17.8271 0.582031 17.249 -15.4941 0 -16.501c-35.2842 -2.06152 -56.2422 -29.5342 -72.9678 -57.5254c-17.4844 -29.2617 -30.3232 -61.1123 -39.7051 -93.8242
c-19.7432 -68.8457 -27.3896 -141.869 -26.7764 -213.318c0.585938 -68.3623 10.125 -140.945 38.0303 -203.926c18.7637 -42.3447 61.5176 -101.628 115.376 -84.2891c14.5342 4.68066 35.0518 4.52734 47.6113 -5.41699z" />
    <glyph glyph-name="parenright" unicode=")" horiz-adv-x="385" 
d="M267.844 405.057c63.8896 -119.825 83.3955 -273.698 54.2119 -405.926c-12.8428 -58.2051 -33.5771 -119.479 -81.4336 -158.492c-49.583 -40.4219 -122.295 -53.2852 -180.414 -24.5586c-12.9375 6.39648 -13.2168 19.4287 -2.88672 27.6221
c12.5801 9.97559 32.9561 10.1367 47.6123 5.41602c53.8467 -17.3311 96.6162 41.9482 115.38 84.2891c27.9131 62.9922 37.4443 135.547 38.0303 203.925c0.613281 71.4492 -7.0332 144.473 -26.7754 213.318c-9.38184 32.7119 -22.2207 64.5625 -39.7051 93.8242
c-16.7061 27.9521 -37.7236 55.4639 -72.9688 57.5254c-17.3633 1.01465 -17.709 17.0791 0 16.501c68.4443 -2.24609 118.806 -56.9111 148.949 -113.444z" />
    <glyph glyph-name="asterisk" unicode="*" horiz-adv-x="270" 
d="M206.241 398.447c18.4404 0.393555 18.1973 -16.8389 -0.0078125 -17.1973c-14.8213 -0.298828 -29.6475 0.0117188 -44.4688 0.397461c12.8545 -15.3018 25.5283 -30.7451 37.4707 -46.7939c9.30664 -12.5049 -20.0186 -17.5439 -26.5879 -8.8584
c-6.31738 8.35449 -12.7725 16.6035 -19.2705 24.8125c0.389648 -10.2939 0.759766 -20.584 1.07422 -30.8779c0.362305 -11.8555 -30.1152 -12.0049 -30.4854 0c-0.413086 13.4727 -0.743164 26.9531 -1.03809 40.4336
c-7.83203 -9.15332 -15.4746 -18.5078 -22.7793 -28.2197c-6.78516 -9.02344 -42.6436 -5.13281 -34.8789 8.38281c8.84668 15.4043 20.4307 28.9756 33.1836 41.6689c-10.1406 -0.330078 -20.2773 -0.958984 -30.4062 -2.10742
c-14.7236 -1.66797 -27.8027 14.1455 -7.94238 16.4189c18.1533 2.07715 36.291 2.73047 54.4287 2.78516c-11.7383 14.7236 -23.3223 29.5732 -34.415 44.7998c-6.02246 8.27246 19.6641 13.001 25.0527 6.02246c5.37695 -6.96289 10.8955 -13.8076 16.4619 -20.6084
c-0.161133 9.37012 -0.322266 18.7402 -0.499023 28.1104c-0.204102 10.8135 27.2598 10.8926 27.7197 0c0.405273 -9.60156 0.830078 -19.1992 1.25098 -28.7969c5.02734 4.5791 9.94824 9.20508 14.6484 13.9414c7.22168 7.27734 35.4844 2.5293 25.5283 -8.50488
c-10.8486 -12.0215 -21.874 -23.7598 -32.8252 -35.541c16.2461 -0.330078 32.5 -0.617188 48.7852 -0.267578z" />
    <glyph glyph-name="plus" unicode="+" horiz-adv-x="295" 
d="M234.925 184.256c20.3447 -2.16309 6.83398 -18.3428 -8.10547 -16.75c-10.5576 1.12109 -21.1348 1.9668 -31.7158 2.65137c-0.491211 -45.626 1.64453 -91.9004 -7.76855 -136.728c-3.74512 -17.8389 -47.0068 -22.835 -52.5771 -4.05566
c-13.6885 46.1445 -14.4277 94.2363 -16.1943 142.021c-16.749 -0.535156 -33.4902 -1.53027 -50.1963 -3.09961c-4.95215 -0.467773 -15.8242 -0.436523 -17.9951 5.82227c-2.10449 6.05762 5.16113 9.71191 10.2158 10.2549
c19.1523 2.06152 38.293 3.35547 57.4336 4.03223c-1.17969 43.1826 -0.711914 86.4521 1.84473 129.553c1.7666 29.75 75.2031 29.5771 75.6592 0.000976562c0.668945 -43.4697 0.428711 -86.9834 -0.196289 -130.465c13.1934 -0.779297 26.3906 -1.83398 39.5957 -3.23828
z" />
    <glyph glyph-name="comma" unicode="," horiz-adv-x="210" 
d="M97.7158 31.3027c10.6602 22.0439 72.751 12.3682 60.5098 -9.50684c-20.4189 -36.4961 -43.7256 -90.2363 -89.123 -98.2607c-11.0928 -1.96289 -29.4268 11.5918 -11.7451 15.8799c-2.21875 -0.539062 -1.23926 0.578125 0.03125 3.78809
c1.16797 2.9541 1.78516 6.25 2.78809 9.27051c2.89551 8.71289 7.05762 16.8633 11.0264 25.1123c8.6582 18 17.8193 35.7324 26.5127 53.7168z" />
    <glyph glyph-name="hyphen" unicode="-" horiz-adv-x="319" 
d="M237.664 111.752c9.82617 0.68457 31.0703 -4.46777 31.0664 -17.708c0 -14.2002 -20.8203 -17.0518 -31.0674 -17.709c-53.0762 -3.39453 -106.145 -6.58496 -159.256 -9.34277c-8.62207 -0.448242 -26.4844 3.35156 -28.251 14.2158
c-1.75 10.7627 11.4004 17.2334 20.6055 17.9883c55.6133 4.55859 111.238 8.66504 166.902 12.5557z" />
    <glyph glyph-name="period" unicode="." horiz-adv-x="162" 
d="M110.662 23.7227c2.1875 -5.07422 1.08203 -9.25195 -0.227539 -14.0156c-0.65332 -3.20996 -1.11719 -6.42773 -1.29395 -9.71582c-0.71582 -13.3115 -19.3652 -16.5723 -29.5332 -16.832c-6.67969 -0.172852 -15.043 1.4873 -20.8848 4.92969
c-3.375 1.98633 -9.45996 7.03711 -8.64941 11.9033c0.853516 5.11719 2.01367 10.2666 3.72461 15.1719c2.3252 6.6709 6.39258 11.5332 12.4697 15.2383c7.375 4.5 17.5156 5.23535 25.8428 3.89355c6.43164 -1.03418 15.6641 -3.88184 18.5518 -10.5732z" />
    <glyph glyph-name="slash" unicode="/" horiz-adv-x="383" 
d="M250.562 479.838c11.8994 28.2002 93.2373 21.4785 80.666 -12.6807c-36.7002 -99.7012 -76.7324 -198.237 -114.247 -297.646c-18.5664 -49.1973 -36.46 -98.627 -54.6768 -147.954c-9.35449 -25.3242 -18.6689 -50.7549 -28.668 -75.8311
c-9.8418 -24.6836 -19.0303 -50.2871 -36.126 -70.9268c-9.38574 -11.3369 -44.9492 -10.5576 -47.0146 7.25781c-2.93848 25.3203 7.88281 54.0713 14.8369 78.2314c7.0332 24.4395 14.8574 48.7646 22.7637 72.9326c16.2695 49.7363 33.5225 99.1738 50.7871 148.568
c34.958 100.004 70.4902 200.417 111.679 298.049z" />
    <glyph glyph-name="zero" unicode="0" horiz-adv-x="419" 
d="M65.7725 60.4961c-9.24805 43.0732 -10.0898 87.5479 -7.51758 131.647c-9.75879 27.4561 -9.97168 59.5381 -5.26367 89.4492c8.2998 52.7256 29.9932 110.388 73.3096 144.264c41.5703 32.5107 99.9053 36.5742 143.041 4.83789
c46.916 -34.5137 70.0215 -92.251 84.3398 -146.846c15.1055 -57.5801 18.4219 -119.022 12.2539 -178.148c-5.68359 -54.4844 -15.1592 -117.28 -54.9434 -158.236c-41.4443 -42.6641 -107.658 -50.8535 -159.877 -23.8652
c-51.8369 26.792 -73.7705 82.9951 -85.3428 136.897zM153.873 405.087c-32.0195 -31.1504 -48.9365 -80.4775 -56.5869 -123.495c-0.59375 -3.33203 -1.14062 -6.75781 -1.66406 -10.2197c25.2539 3.82715 55.5547 -4.65723 53.6943 -24.2266
c-3.26465 -34.3438 -6.08496 -68.8252 -6.03418 -103.299c33.4316 -7.25391 74.6953 16.7139 95.7285 39.6982c7.02148 7.6709 34.9424 2.45117 25.2617 -8.41699c-28.8057 -32.3457 -76.2842 -53.8154 -120.687 -49.3428
c0.405273 -12.3281 1.21973 -24.6523 2.58887 -36.9648c4.82617 -43.4033 13.7598 -99.123 50.5859 -127.968c11.6631 -9.13379 20.293 -12.6152 33.667 -5.68848c15.9551 8.26074 28.0273 22.3701 36.748 37.8057c22.1465 39.1943 28.9316 86.5117 34.5996 130.524
c5.78613 44.9336 6.48242 90.248 1.14844 135.252c-5.16113 43.5176 -13.709 89.9932 -36.543 128.125c-12.0645 20.1475 -31.1934 38.5879 -55.5029 41.9746c-21.4102 2.98145 -42.2109 -9.36621 -57.0049 -23.7588z" />
    <glyph glyph-name="one" unicode="1" horiz-adv-x="313" 
d="M79.4277 359.774c-6.08887 -9.10254 -34.918 -5.46973 -28.502 4.48242c24.7734 38.4355 72.1963 90.7842 123.317 84.4004c59.3779 -7.41504 66.3838 -86.4961 73.5117 -132.72c9.91699 -64.3223 12.6035 -129.805 14.1533 -194.779
c1.57324 -66.0762 2.90234 -133.97 -2.78906 -199.83c-3.0127 -34.875 -86.5664 -34.9141 -88.875 0c-3.60352 54.4805 1.2666 109.487 3.40234 163.979c2.04199 52.0732 5.08691 104.095 6.85742 156.188c1.72266 50.6924 4.72754 103.241 1.22266 153.866
c-0.779297 11.2305 -1.63281 27.3193 -12.5488 32.999c-11.4707 5.9668 -27.665 -6.95117 -37.3066 -13.8154c-20.7695 -14.7783 -38.3096 -33.6357 -52.4434 -54.7705z" />
    <glyph glyph-name="two" unicode="2" horiz-adv-x="489" 
d="M70.1279 -84.9092c-18.6729 14.751 -25.417 38.5312 -15.7012 60.6533c9.84961 22.4336 34.7881 36.4688 57.3311 42.7275c33.1797 9.21289 64.9629 4.69727 94.7676 -7.1543c42.7861 58.5 69.6875 132.05 86.2988 200.679
c10.5381 43.541 18.1611 90.8936 9.33008 135.457c-8.57129 43.25 -43.0527 83.5146 -89.335 86.5986c-43.8359 2.91895 -83.6953 -38.1045 -103.524 -73.4717c-11.3047 -20.1641 -17.3936 -43.1318 -12.8818 -66.1631c4.2793 -21.8311 21.7012 -48.5127 47.2461 -46.5146
c4.96387 0.389648 15.8008 0.488281 17.9922 -5.82129c2.09668 -6.03809 -5.15332 -9.75098 -10.2158 -10.2588c-58.4219 -5.85352 -98.6074 43.6426 -85.9766 100.263c11.6279 52.1162 61.2383 103.426 112.98 116.701c47.2539 12.123 98.2256 -6.45117 129.6 -43.0615
c37.7666 -44.0723 54.3818 -97.5293 53.8232 -155.133c-0.904297 -92.9346 -27.9316 -201.789 -88.3203 -277.829c41.2871 -28.1885 93.5488 -61.1719 139.572 -28.5781c9.31836 6.59668 36.8223 -1.8916 21.9922 -12.5361
c-32.4443 -23.2871 -75.2695 -22.6934 -112.096 -11.125c-23.7393 7.45801 -44.7881 20.3643 -65.8018 33.3369c-5.2041 -5.50293 -10.5967 -10.7979 -16.2256 -15.8213c-42.8525 -38.2461 -120.773 -62.5049 -170.855 -22.9482zM138.157 -7.27441
c-14.4092 -4.67676 -31.2607 -20.7432 -22.6387 -37.0674c7.12402 -13.4805 13.3828 -12.0098 27.1074 -5.60156c15.9111 7.42676 29.1953 20.168 40.8975 32.9639c1.69531 1.85254 3.2998 3.7959 4.95215 5.69238c-16.0967 5.30664 -34.2773 9.2207 -50.3184 4.0127z" />
    <glyph glyph-name="three" unicode="3" horiz-adv-x="437" 
d="M97.6992 304.508c-21.2646 -5.10156 -44.7061 7.09082 -47.4043 30.0391c-3.16699 26.957 20.0684 54.374 38.3867 71.6543c39.1309 36.9131 94.8662 54.9922 148.21 48.3525c26.7285 -3.33203 52.0879 -14.6611 70.1904 -35.0488
c20.1592 -22.7012 20.8359 -55.7158 12.583 -83.5107c-10.2002 -34.3604 -31.6025 -69.9316 -58.5596 -98.627c29.3291 -7.81641 56.6514 -22.7168 77.126 -43.5098c80.041 -81.2832 59.9131 -228.097 -41.6875 -281.247
c-47.8486 -25.0332 -112.918 -27.9678 -161.647 -2.85938c-49.54 25.5293 -51.2354 79.4199 -46.0039 128.397c1.39648 13.083 33.9785 12.5049 32.9443 0c-4.24805 -51.3369 0.208984 -114.467 65.5928 -118.876c49.7129 -3.35547 85.8311 35.8818 101.616 79.3047
c16.7373 46.0312 16.0566 100.743 -7.55664 144.272c-16.9463 31.2402 -50.1143 58.9287 -85.792 46.4043c-16.8828 -5.92773 -45.5586 -5.4082 -58.7715 8.78418c-13.9561 14.9951 1.51074 27.4688 15.4121 33.499c35.7246 15.4941 64.6953 52.0723 87.333 82.5107
c19.4395 26.1426 60.9541 89.3203 19.0967 114.177c-34.7764 20.6553 -84.0088 8.83887 -116.661 -10.2705c-16.4111 -9.60547 -31.0869 -22.2559 -42.8955 -37.1719c-6.2627 -7.91016 -12.3398 -16.7529 -16.0967 -26.1895
c-2.26562 -5.68359 -8.73633 -38.4814 7.29688 -35.0156c13.665 2.9502 24.9424 -10.8291 7.28809 -15.0693z" />
    <glyph glyph-name="four" unicode="4" horiz-adv-x="461" 
d="M157.476 114.425c-26.5986 -25.541 -94.4707 -38.6885 -106.496 9.72656c-5.01953 20.1992 10.0693 37.8574 27.2197 46.3145c22.9482 11.3174 51.168 9.0752 75.8477 7.20312c3.56738 -0.275391 7.13086 -0.597656 10.6904 -0.943359
c18.8301 31.9014 31.4609 68.4521 41.6211 102.481c16.8867 56.5566 24.6709 115.238 24.3486 174.207c-0.0585938 10.7305 27.126 10.7461 27.4131 0c1.77051 -66.3789 -6.98926 -132.608 -26.7363 -196.049c-8.48828 -27.2715 -18.7666 -57.3281 -32.7588 -84.8828
c16.4033 -2.42676 32.751 -5.2666 49.1064 -8.04004c21.2725 -3.60352 43.8232 -8.63867 65.8438 -8.26855c-0.212891 5.22754 -0.464844 10.4473 -0.645508 15.6748c-3.08398 88.8877 -4.64941 177.885 3.38672 266.536c3.0332 33.459 84.8242 33.5654 85.4932 0
c1.77051 -88.8438 -0.589844 -177.684 1.5459 -266.535c1.08203 -45.0273 2.50195 -90.0713 4.33105 -135.075c1.64062 -40.3701 9.16992 -89.2373 -5.23047 -127.731c-7.12793 -19.0508 -48.2139 -15.2588 -56.9541 0c-21.0801 36.8027 -21.3711 90.1348 -24.7891 131.587
c-2.68652 32.6133 -4.8457 65.2227 -6.40332 97.8828c-40.0088 -0.837891 -81.1152 10.1719 -119.861 16.0254c-1.75879 0.267578 -3.52148 0.511719 -5.28418 0.767578c-9.0625 -15.1836 -19.4824 -29.1631 -31.6885 -40.8809zM97.1289 155.098
c-14.0664 -8.68555 -19.958 -29.3252 -1.76953 -37.8018c11.876 -5.53809 23.8574 4.69727 32.2598 12.4072c9.7002 8.90137 18.2715 18.9717 25.9736 29.793c-1.95898 0.161133 -3.91406 0.349609 -5.87695 0.483398c-15.8252 1.05859 -36.5518 3.78418 -50.5869 -4.88184z
" />
    <glyph glyph-name="five" unicode="5" horiz-adv-x="419" 
d="M65.248 88.8604c4 10.6328 34.3389 7.81738 29.6934 -4.66016c-15.1172 -40.6494 -24.1406 -91.6758 3.74414 -129.312c24.3604 -32.877 64.6562 -33.6045 97.2539 -14.1016c60.3887 36.1338 89.7646 109.778 89.2891 177.829
c-0.420898 60.1445 -36.0518 144.261 -109.448 129.864c-17.1855 -3.37109 -32.9951 -10.7588 -49.0879 -17.3555c-19.208 -7.87109 -51.0107 -10.5811 -67.1504 6.2627c-14.2832 14.9082 -0.645508 36.209 5.4873 51.8252c8.13086 20.7061 15.7617 41.6797 25.0137 61.918
c14.9316 32.6602 30.8311 76.0635 68.1494 87.8486c16.7256 5.2832 35.8037 3.89844 53.0957 4.49609c22.0752 0.762695 44.127 1.50195 66.21 1.82812c17.3271 0.255859 16.6309 -14.8486 0 -15.9736c-24.6514 -1.66797 -49.3193 -2.81641 -73.999 -3.99609
c-11.4424 -0.546875 -27.499 2.41504 -31.2793 -9.7041c-2.74219 -8.7998 -1.81348 -20.4043 -2.95801 -29.5889c-2.87891 -23.1055 -8.34277 -45.9121 -14.7471 -68.2861c-2.32129 -8.11914 -4.70898 -16.2227 -7.08496 -24.3301
c16.5088 3.34375 33.293 5.23145 50.1797 4.83398c40.6416 -0.956055 80.748 -13.1309 111.93 -39.8125c106.439 -91.0859 57.3682 -269.494 -53.7129 -332.632c-47.8281 -27.1846 -118.637 -36.5625 -165.631 -2.51758c-52.7217 38.1914 -45.0908 112.005 -24.9473 165.564
z" />
    <glyph glyph-name="six" unicode="6" horiz-adv-x="383" 
d="M138.286 -72.1211c-85.7881 38.3877 -95.4961 148.84 -84.7217 230.615c5.9707 45.335 18.9912 89.2256 38.2852 130.65c18.3428 39.3789 42.3887 82.1768 74.4629 112.146c30.1309 28.1523 72.6455 53.2881 114.889 41.668
c40.0752 -11.0176 55.7666 -46.6836 50.916 -86.1299c-1.33301 -10.8447 -28.333 -10.4043 -27.4121 0c1.71484 19.373 0.0117188 39.5449 -12.666 55.2002c-14.6016 18.0352 -28.6719 12.6895 -44.4102 -0.629883c-25.1904 -21.3203 -42.8408 -53.9297 -57.5527 -82.9717
c-28.4756 -56.2148 -48.5293 -116.726 -53.5879 -179.805c-1.12109 -13.96 -1.70312 -28.6562 -1.48633 -43.6113c64.3379 20.4473 151.506 -1.21094 169.518 -72.1299c10.2158 -40.2129 -12.7363 -79.7256 -46.6123 -100.55
c-34.5645 -21.249 -83.4043 -20.6592 -119.621 -4.45312zM274.141 36.3682c-19.4043 56.1406 -89.4463 71.1973 -138.234 47.25c2.68652 -38.6865 11.5254 -77.6133 31.2559 -108.842c15.9629 -25.2695 40.2568 -38.9902 69.125 -24.4482
c29.8086 15.0146 49.0166 53.7451 37.8535 86.04z" />
    <glyph glyph-name="seven" unicode="7" horiz-adv-x="359" 
d="M70.1699 406.384c-4.95996 -1.25488 -15.1562 -2.3584 -18.748 2.80273c-3.28027 4.7041 -0.59375 9.24707 4.91699 10.6865c32.0039 8.36719 64.043 16.7539 96.4795 23.2998c28.2393 5.69629 59.3457 13.0674 88.2461 8.59082
c67.4688 -10.4512 63.7793 -85.2559 57.6113 -137.557c-6.06934 -51.4707 -17.7598 -102.151 -30.7441 -152.363c10.1016 -0.542969 20.207 -1.18457 30.3164 -1.99902c5.4082 -0.436523 12.8154 -4.46484 10.7539 -10.7979
c-2.1748 -6.6709 -13.5898 -6.5918 -18.9395 -6.12793c-8.85449 0.766602 -17.7129 1.36426 -26.5752 1.87988c-2.23828 -8.48438 -4.49609 -16.957 -6.76172 -25.418c-17.0762 -63.7598 -32.8613 -127.72 -48.4541 -191.849
c-6.76562 -27.8262 -91.1455 -23.6094 -85.7803 6.61621c12.7686 71.9062 34.6787 141.999 56.4785 211.985c-11.1162 -0.291016 -22.2324 -0.739258 -33.3486 -1.37695c-17.9648 -1.03027 -17.4297 15.5732 0 16.6748c12.8828 0.814453 25.7617 1.37305 38.6328 1.69531
c9.91309 31.9482 19.6523 63.9004 28.3262 96.0264c7.43066 27.5234 14.417 55.1963 20.9307 82.9482c2.93066 12.4814 5.2832 25.0254 8.04102 37.5264c2.34863 10.6445 11.1875 31.1465 9.02832 41.999c-5.70801 28.6523 -75.6113 8.63086 -93.749 5.03906
c-29.1162 -5.7627 -57.8945 -13.0166 -86.6611 -20.2822z" />
    <glyph glyph-name="eight" unicode="8" horiz-adv-x="381" 
d="M143.809 -57.835c-30.1748 33.168 -31.5781 85.916 -24.4463 127.585c5.25098 30.6738 14.6758 59.5547 29.8242 85.6182c-12.9297 11.8164 -25.9463 23.582 -38.8643 35.583c-31.9883 29.7227 -63.6143 69.9512 -60.0469 116.427
c3.7168 48.4346 39.2256 85.5088 77.9521 110.719c38.0498 24.7734 87.2979 42.7812 132.833 31.665c39.6816 -9.68848 61.3398 -40.626 67.4092 -79.5488c12.9805 -83.2344 -27.2441 -166.005 -54.3936 -245.436c25.2578 -29.9541 49.9961 -64.9785 54.1582 -102.714
c10.3535 -93.8984 -122.586 -147.879 -184.426 -79.8984zM154.371 376.059c-28.707 -38.7021 -27.9902 -85.9727 -2.30371 -125.596c25.7217 -39.6777 68.7549 -66.4971 100.554 -101.211c11.2734 35.1035 23.3613 69.9707 31.9873 105.845
c11.1201 46.2432 25.5801 117.48 -10.5928 156.809c-34.2305 37.2119 -96.4639 -4.59863 -119.645 -35.8467zM171.735 134.484c-16.9297 -35.5361 -24.8994 -76.2568 -22.1221 -114.239c3.56348 -48.7412 58.4053 -111.419 105.05 -62.6426
c38.042 39.7764 -7.11133 98.0918 -35.1465 128.888c-15.3096 16.8125 -31.3857 32.5859 -47.7812 47.9941z" />
    <glyph glyph-name="nine" unicode="9" horiz-adv-x="382" 
d="M209.869 411.809c-17.1699 -7.54102 -32.1191 -27.7051 -42.3115 -42.6445c-24.5264 -35.9141 -40.918 -78.8926 -40.6191 -122.693c0.137695 -20.4072 3.85059 -43.293 17.3428 -59.5186c7.39551 -8.88965 10.3652 -8.6377 20.5527 -2.94531
c10.4277 5.82129 19.3809 14.5342 27.1572 23.5186c28.8252 33.2939 44.7402 77.7549 59.2822 119.463c0.826172 4.53906 2.00977 9.05469 3.71289 13.5273c5.15723 13.5469 34.667 12.4219 42.7422 3.18555c20.8594 -23.8535 25.6504 -55.7939 29.9297 -86.3301
c4.39355 -31.3428 4.53516 -63.6416 3.13867 -95.2129c-2.54883 -57.6348 -12.2568 -120.246 -33.3799 -174.219c-20.6514 -52.7529 -67.4922 -88.1006 -126.13 -78.2627c-47.4941 7.96582 -83.707 41.7676 -93.498 88.8604
c-2.26562 10.9082 28.9707 12.8594 31.752 2.45117c9.32617 -34.9023 46.3291 -82.5107 83.4072 -49.3662c27.4883 24.5732 35.8945 74.7148 43.5693 108.858c10.4434 46.4678 16.0215 94.3828 16.832 141.995c0.294922 17.3115 -0.149414 34.6709 -0.892578 51.9902
c-16.7139 -36.5039 -38.5293 -70.2266 -71.6348 -91.9521c-27.7432 -18.2051 -64.4824 -17.8115 -92.7178 -0.259766c-29.4268 18.291 -38.5371 51.3057 -38.0889 84.2178c0.900391 66.2969 40.5117 133.73 94.1465 171.693c26.9609 19.082 60.377 30.71 92.9512 19.2471
c28.542 -10.042 45.6055 -38.7061 54.0508 -66.2959c3.66211 -11.9658 -23.6484 -13.8662 -27.3223 -4.2959c-7.59961 19.8057 -27.0947 56.7891 -53.9727 44.9883z" />
    <glyph glyph-name="colon" unicode=":" horiz-adv-x="163" 
d="M94.9971 205.533c-0.896484 -10.1328 -14.4316 -12.5986 -22.4678 -12.8066c-5.07812 -0.125977 -11.4424 1.13281 -15.8838 3.75293c-2.51367 1.4834 -7.25 5.38184 -6.58105 9.05566c1.73438 9.47168 1.4082 18.7744 1.61621 28.3408
c0.326172 15.0967 35.3545 15.541 39.9609 3.08301c3.74512 -10.1289 4.2998 -20.7461 3.35547 -31.4258zM112.844 -15.9697c0.0869141 -7.46191 0.258789 -14.9189 0.514648 -22.377c0.44043 -12.5361 -19.2979 -15.7383 -27.9951 -15.959
c-9.16113 -0.232422 -28.0977 3.73242 -27.9951 15.958c0.0830078 9.53125 -0.157227 19.2705 0.727539 28.7744c1.03027 11.0693 4.19336 18.4131 14.043 24.3447c10.3535 6.23438 45.4648 6.14355 40.1152 -13.3115c-1.27051 -4.61426 0.53125 -12.249 0.589844 -17.4297z
" />
    <glyph glyph-name="semicolon" unicode=";" horiz-adv-x="222" 
d="M98.3896 46.8281c7.72949 25.0967 77.5547 19.8818 69.6953 -10.9531c-8.6377 -33.915 -19.416 -67.1104 -32.4004 -99.6289c-12.2568 -30.7061 -25.6621 -69.6562 -52.3281 -90.6934c-6.49805 -5.125 -27.1143 -8.62598 -30.666 2.28613
c-9.26367 28.46 7.79199 67.6543 15.4229 95.3037c9.58203 34.7139 19.6797 69.2705 30.2764 103.686zM172.038 206.509c1.3252 -11.4229 -18.5996 -14.5449 -25.8457 -14.7256c-5.8457 -0.149414 -13.1621 1.30566 -18.2754 4.31445
c-3.19824 1.88379 -8.0127 6.01758 -7.56836 10.415c0.554688 5.4834 0.956055 10.9746 1.12109 16.4854c0.0751953 2.58789 0.0673828 5.09766 0.4375 7.66211c0.617188 4.31152 2.1123 6.84473 4.7793 10.2119c3.65039 4.60645 12.2061 5.73535 17.54 5.73535
c6.2666 0 12.7412 -1.52246 17.54 -5.73535c8.6543 -7.59961 9.0166 -23.5381 10.2715 -34.3633z" />
    <glyph glyph-name="less" unicode="&#x3c;" horiz-adv-x="313" 
d="M222.748 136.88c11.667 -0.845703 38.3955 -4.2627 37.9863 -21.6494c-0.397461 -16.6709 -25.1475 -21.8945 -37.9824 -21.6504c-25.9463 0.491211 -201.329 0.0859375 -168.728 57.8545c7.54102 13.3623 23.999 19.5732 37.0703 25.749
c16.793 7.9375 33.7822 15.4385 50.7285 23.042c31.6221 14.1924 70.376 38.8994 105.979 37.3535c4.33887 -0.18457 15.7422 -1.86426 15.2422 -8.68555c-1.35352 -18.4561 -31.7246 -30.4297 -45.5713 -38.3838c-20.585 -11.8242 -41.1816 -23.6602 -61.9072 -35.2285
c-3.22168 -1.79785 -10.5576 -7.0332 -17.3506 -11.1045c3.08398 -0.37793 6.16406 -0.779297 9.25195 -1.12891c25.0527 -2.83203 50.1455 -4.34668 75.2812 -6.16797z" />
    <glyph glyph-name="equal" unicode="=" horiz-adv-x="441" 
d="M67.917 198.153c-3.89844 2.77344 -6.41895 6.67383 -2.4541 10.8477c13.7832 14.499 44.1387 13.5947 62.5166 15.2783c24.4395 2.24219 49.0049 3.32031 73.5312 3.92969c51.0615 1.27441 102.144 1.50684 153.17 -0.983398
c11.1201 -0.542969 36.5312 -4.24805 36.1416 -20.5996c-0.381836 -15.8799 -23.9287 -20.8086 -36.1426 -20.6006c-49.7754 0.845703 -99.5469 2.25781 -149.338 2.32031c-24.2471 0.03125 -48.5098 -0.149414 -72.749 0.503906
c-19.5381 0.527344 -47.9775 -2.5918 -64.6758 9.30371zM356.435 134.655c10.2197 0.680664 32.2998 -4.625 32.2998 -18.4121c0 -14.7549 -21.6426 -17.7402 -32.2988 -18.4092c-48.6035 -3.05664 -97.3252 -5.26758 -146.031 -5.52344
c-46.9395 -0.251953 -98.6348 -3.78418 -144.67 6.56934c-19.9199 4.48047 -22.0127 22.3467 0 25.71c47.0889 7.19824 97.1045 2.69434 144.67 3.81934c48.7295 1.15625 97.3916 3.00098 146.03 6.24609z" />
    <glyph glyph-name="greater" unicode="&#x3e;" horiz-adv-x="333" 
d="M280.766 165.34c14.0625 -31.752 -41.3623 -52.751 -62.1475 -61.7393c-37.6289 -16.2539 -75.9814 -30.5215 -114.538 -44.3877c-13.8818 -4.99219 -38.9424 -4.68164 -49.6572 7.42188c-10.959 12.3789 0.389648 23.877 13.0205 28.3066
c29.6045 10.3809 59.2871 20.5889 88.7656 31.3232c13.7793 5.01953 27.5742 10.1055 41.1689 15.6084c6.10059 2.4668 12.2529 4.94141 17.7988 8.54492c7.04883 4.5791 8.85449 4.68945 2.83594 10.79c-8.13477 8.24902 -27.4053 12.1035 -38.3877 14.999
c-12.5322 3.30469 -25.3633 5.52344 -38.124 7.73828c-25.7373 4.46875 -51.6318 8.0957 -76.1582 17.4854c-27.2832 10.4395 1.52637 27.0352 18.1377 24.5215c37.3887 -5.66016 75.5049 -9.18066 112.41 -17.5635c26.0244 -5.9082 72.6182 -15.3721 84.875 -43.0488z" />
    <glyph glyph-name="question" unicode="?" horiz-adv-x="374" 
d="M304.869 431.754c17.4932 -19.9941 21.5996 -47.3398 18.2207 -72.9668c-8.12695 -61.7334 -37.3184 -121.378 -58.4453 -179.406c-21.8672 -60.0742 -39.7568 -120.223 -44.1387 -184.328c-2.14355 -31.3467 -80.2607 -30.709 -79.3486 0.000976562
c3.86719 130.292 81.2842 241.133 122.119 361.064c9.08301 26.6699 12.875 67.1074 -20.7217 77.9717c-28.625 9.25195 -62.041 -3.04492 -86.2168 -18.2324c-23.7432 -14.916 -46.9238 -37.1719 -62.1904 -60.7656c-15.0146 -23.2041 -21.4893 -60.3096 4.29102 -79.0811
c14.6445 -10.6602 -12.6152 -18.9326 -21.7725 -12.4111c-51.4316 36.6377 -18.5039 101.845 15.4551 138.337c36.7598 39.5049 89.3164 63.0479 143.611 58.7686c24.7461 -1.95117 52.2021 -9.59766 69.1367 -28.9512zM181.197 -55.29
c5.78613 -0.40918 24.4336 -4.57422 22.2744 -14.3848c-3.92188 -17.8232 -5.80566 -35.9883 -5.01074 -54.2285c0.944336 -21.6543 -55.8447 -21.8945 -55.6836 0c0.145508 20.0615 3.46582 39.2334 10.2314 58.1221c3.48535 9.73535 19.873 11.0771 28.1885 10.4912z" />
    <glyph glyph-name="at" unicode="@" horiz-adv-x="636" 
d="M584.468 319.792c8.36719 -68.3418 -18.248 -140.61 -59.2637 -194.383c-40.5674 -53.2061 -106.003 -94.8311 -174.432 -69.4316c-40.4102 14.999 -53.3516 49.2051 -53.7646 86.8965c-10.2939 -11.333 -21.5049 -21.8242 -34.5527 -30.6748
c-21.9141 -14.8652 -50.5625 -25.0527 -76.6387 -15.042c-19.6562 7.54883 -28.4355 25.4902 -27.4482 45.8506c2.30469 47.4033 37.9629 95.2314 77.5938 118.896c39.6348 23.6641 99.8262 28.9551 126.744 -15.9189
c0.676758 -1.12891 0.880859 -2.16309 0.754883 -3.11133c3.46191 -2.37988 5.26758 -5.75098 4.20508 -10.3223c-7.26172 -31.2686 -34.5371 -170.655 36.8027 -147.546c28.082 9.09473 51.6758 35.957 68.5938 59.0469c18.4014 25.1123 32.2197 53.9023 41.1016 83.6992
c14.9082 50.0156 18.3301 113.027 -18.5713 154.515c-32.8018 36.8857 -82.7822 52.7617 -131.169 51.2158c-106.022 -3.38281 -191.751 -83.3916 -230.3 -177.515c-39.3945 -96.1924 -46.8057 -236.944 26.9141 -319.349
c36.3145 -40.5947 89.6621 -57.7529 142.325 -41.248c53.8467 16.875 95.5156 59.0664 133.688 98.6934c13.0947 13.5947 64.5225 4.5 46.4912 -15.4902c-52.6748 -58.3945 -115.966 -111.828 -197.324 -119.982c-77.9121 -7.80859 -151.187 23.4199 -194.409 89.4453
c-38.2656 58.457 -46.3174 134.332 -39.7441 202.485c6.35254 65.8799 28.0146 131.032 66.8945 184.935c76.0166 105.393 220.159 162.343 345.92 117.913c60.9395 -21.5283 111.438 -67.001 119.589 -133.577zM316.699 240.423
c2.35645 2.78125 8.10742 4.92969 14.9365 6.09375c-49.1699 49.1504 -125.875 -60.5771 -122.764 -108.382c0.263672 -4.04395 0.739258 -11.1357 3.83887 -14.751c-2.8877 3.93359 8.06738 6.77734 12.5869 9.99902c12.6504 9.01172 23.4443 20.7256 33.377 32.5732
c20.2266 24.1289 37.6641 50.4131 58.0244 74.4668z" />
    <glyph glyph-name="A" unicode="A" horiz-adv-x="955" 
d="M431.736 414.748c15.6758 61.6943 32.5391 123.987 60.2158 181.567c23.2002 48.2646 59.6924 96.6436 115.073 108.24c117.54 24.6123 145.562 -139.194 163.7 -219.833c27.7041 -123.156 39.7959 -249.142 61.2021 -373.436
c48.2373 4.33887 96.1758 12.4502 143.65 26.4463c5.4082 1.59668 16.9531 2.47363 20.8555 -3.11621c3.72949 -5.3457 0.575195 -10.1094 -5.4668 -11.8877c-28.2314 -8.30762 -56.8994 -14.9951 -85.9258 -19.8535c-23.3301 -3.90234 -46.707 -6.67969 -70.1201 -8.60742
c23.7549 -132.554 55.7188 -263.507 95.3027 -392.218c3.91406 -12.7295 -25.8789 -14.9951 -29.1006 -4.5752c-10.0107 32.3535 -19.5928 64.833 -28.6436 97.4658c-27.1934 98.0293 -49.8154 197.266 -68.0166 297.332
c-124.853 -6.43945 -250.609 9.16895 -375.749 13.0752c-29.7383 -103.092 -74.4785 -204.157 -144.653 -285.917c-38.8877 -45.3066 -86.7754 -83.9072 -141.735 -107.701c-53.9766 -23.3691 -121.123 -32.3066 -174.888 -3.41016
c-40.4453 21.7373 -68.7793 66.1943 -77.5039 110.565c-10.625 54.0078 8.68066 110.317 40.9004 153.48c69.459 93.0527 196.077 128.789 306.024 142.568c40.6143 5.08984 81.4414 7.12695 122.386 7.375c28.8291 96.1484 47.7852 195.196 72.4922 292.438z
M141.548 -231.89c93.3203 66.6426 153.067 172.999 192.399 278.337c7.34375 19.6719 14.0273 39.5361 20.29 59.5264c-57.6982 -0.975586 -115.199 -5.85742 -172.347 -18.0791c-111.997 -23.9551 -246.562 -86.9238 -260.919 -215.835
c-5.8418 -52.4463 16.3008 -108.614 63.2441 -135.473c52.7568 -30.1865 112.858 -0.236328 157.332 31.5234zM606.593 681.27c-50.5977 -29.7021 -68.4873 -101.592 -82.2236 -154.065c-33.9785 -129.797 -53.6543 -262.666 -87.5303 -392.451
c-1.19141 -4.57129 -2.45801 -9.1377 -3.70898 -13.7041c122.983 -4.56738 246.564 -19.0898 368.399 -12.002c-4.77148 26.9883 -9.30273 54.0156 -13.4326 81.1143c-20.1914 132.491 -34.7139 266.961 -76.3271 394.976
c-13.1621 40.4922 -47.3291 130.096 -105.177 96.1328z" />
    <glyph glyph-name="A" unicode="&#xc5;" horiz-adv-x="955" 
d="M431.736 414.748c15.6758 61.6943 32.5391 123.987 60.2158 181.567c23.2002 48.2646 59.6924 96.6436 115.073 108.24c117.54 24.6123 145.562 -139.194 163.7 -219.833c27.7041 -123.156 39.7959 -249.142 61.2021 -373.436
c48.2373 4.33887 96.1758 12.4502 143.65 26.4463c5.4082 1.59668 16.9531 2.47363 20.8555 -3.11621c3.72949 -5.3457 0.575195 -10.1094 -5.4668 -11.8877c-28.2314 -8.30762 -56.8994 -14.9951 -85.9258 -19.8535c-23.3301 -3.90234 -46.707 -6.67969 -70.1201 -8.60742
c23.7549 -132.554 55.7188 -263.507 95.3027 -392.218c3.91406 -12.7295 -25.8789 -14.9951 -29.1006 -4.5752c-10.0107 32.3535 -19.5928 64.833 -28.6436 97.4658c-27.1934 98.0293 -49.8154 197.266 -68.0166 297.332
c-124.853 -6.43945 -250.609 9.16895 -375.749 13.0752c-29.7383 -103.092 -74.4785 -204.157 -144.653 -285.917c-38.8877 -45.3066 -86.7754 -83.9072 -141.735 -107.701c-53.9766 -23.3691 -121.123 -32.3066 -174.888 -3.41016
c-40.4453 21.7373 -68.7793 66.1943 -77.5039 110.565c-10.625 54.0078 8.68066 110.317 40.9004 153.48c69.459 93.0527 196.077 128.789 306.024 142.568c40.6143 5.08984 81.4414 7.12695 122.386 7.375c28.8291 96.1484 47.7852 195.196 72.4922 292.438z
M141.548 -231.89c93.3203 66.6426 153.067 172.999 192.399 278.337c7.34375 19.6719 14.0273 39.5361 20.29 59.5264c-57.6982 -0.975586 -115.199 -5.85742 -172.347 -18.0791c-111.997 -23.9551 -246.562 -86.9238 -260.919 -215.835
c-5.8418 -52.4463 16.3008 -108.614 63.2441 -135.473c52.7568 -30.1865 112.858 -0.236328 157.332 31.5234zM606.593 681.27c-50.5977 -29.7021 -68.4873 -101.592 -82.2236 -154.065c-33.9785 -129.797 -53.6543 -262.666 -87.5303 -392.451
c-1.19141 -4.57129 -2.45801 -9.1377 -3.70898 -13.7041c122.983 -4.56738 246.564 -19.0898 368.399 -12.002c-4.77148 26.9883 -9.30273 54.0156 -13.4326 81.1143c-20.1914 132.491 -34.7139 266.961 -76.3271 394.976
c-13.1621 40.4922 -47.3291 130.096 -105.177 96.1328z" />
    <glyph glyph-name="A" unicode="&#xc4;" horiz-adv-x="955" 
d="M431.736 414.748c15.6758 61.6943 32.5391 123.987 60.2158 181.567c23.2002 48.2646 59.6924 96.6436 115.073 108.24c117.54 24.6123 145.562 -139.194 163.7 -219.833c27.7041 -123.156 39.7959 -249.142 61.2021 -373.436
c48.2373 4.33887 96.1758 12.4502 143.65 26.4463c5.4082 1.59668 16.9531 2.47363 20.8555 -3.11621c3.72949 -5.3457 0.575195 -10.1094 -5.4668 -11.8877c-28.2314 -8.30762 -56.8994 -14.9951 -85.9258 -19.8535c-23.3301 -3.90234 -46.707 -6.67969 -70.1201 -8.60742
c23.7549 -132.554 55.7188 -263.507 95.3027 -392.218c3.91406 -12.7295 -25.8789 -14.9951 -29.1006 -4.5752c-10.0107 32.3535 -19.5928 64.833 -28.6436 97.4658c-27.1934 98.0293 -49.8154 197.266 -68.0166 297.332
c-124.853 -6.43945 -250.609 9.16895 -375.749 13.0752c-29.7383 -103.092 -74.4785 -204.157 -144.653 -285.917c-38.8877 -45.3066 -86.7754 -83.9072 -141.735 -107.701c-53.9766 -23.3691 -121.123 -32.3066 -174.888 -3.41016
c-40.4453 21.7373 -68.7793 66.1943 -77.5039 110.565c-10.625 54.0078 8.68066 110.317 40.9004 153.48c69.459 93.0527 196.077 128.789 306.024 142.568c40.6143 5.08984 81.4414 7.12695 122.386 7.375c28.8291 96.1484 47.7852 195.196 72.4922 292.438z
M141.548 -231.89c93.3203 66.6426 153.067 172.999 192.399 278.337c7.34375 19.6719 14.0273 39.5361 20.29 59.5264c-57.6982 -0.975586 -115.199 -5.85742 -172.347 -18.0791c-111.997 -23.9551 -246.562 -86.9238 -260.919 -215.835
c-5.8418 -52.4463 16.3008 -108.614 63.2441 -135.473c52.7568 -30.1865 112.858 -0.236328 157.332 31.5234zM606.593 681.27c-50.5977 -29.7021 -68.4873 -101.592 -82.2236 -154.065c-33.9785 -129.797 -53.6543 -262.666 -87.5303 -392.451
c-1.19141 -4.57129 -2.45801 -9.1377 -3.70898 -13.7041c122.983 -4.56738 246.564 -19.0898 368.399 -12.002c-4.77148 26.9883 -9.30273 54.0156 -13.4326 81.1143c-20.1914 132.491 -34.7139 266.961 -76.3271 394.976
c-13.1621 40.4922 -47.3291 130.096 -105.177 96.1328z" />
    <glyph glyph-name="A" unicode="&#xc3;" horiz-adv-x="955" 
d="M431.736 414.748c15.6758 61.6943 32.5391 123.987 60.2158 181.567c23.2002 48.2646 59.6924 96.6436 115.073 108.24c117.54 24.6123 145.562 -139.194 163.7 -219.833c27.7041 -123.156 39.7959 -249.142 61.2021 -373.436
c48.2373 4.33887 96.1758 12.4502 143.65 26.4463c5.4082 1.59668 16.9531 2.47363 20.8555 -3.11621c3.72949 -5.3457 0.575195 -10.1094 -5.4668 -11.8877c-28.2314 -8.30762 -56.8994 -14.9951 -85.9258 -19.8535c-23.3301 -3.90234 -46.707 -6.67969 -70.1201 -8.60742
c23.7549 -132.554 55.7188 -263.507 95.3027 -392.218c3.91406 -12.7295 -25.8789 -14.9951 -29.1006 -4.5752c-10.0107 32.3535 -19.5928 64.833 -28.6436 97.4658c-27.1934 98.0293 -49.8154 197.266 -68.0166 297.332
c-124.853 -6.43945 -250.609 9.16895 -375.749 13.0752c-29.7383 -103.092 -74.4785 -204.157 -144.653 -285.917c-38.8877 -45.3066 -86.7754 -83.9072 -141.735 -107.701c-53.9766 -23.3691 -121.123 -32.3066 -174.888 -3.41016
c-40.4453 21.7373 -68.7793 66.1943 -77.5039 110.565c-10.625 54.0078 8.68066 110.317 40.9004 153.48c69.459 93.0527 196.077 128.789 306.024 142.568c40.6143 5.08984 81.4414 7.12695 122.386 7.375c28.8291 96.1484 47.7852 195.196 72.4922 292.438z
M141.548 -231.89c93.3203 66.6426 153.067 172.999 192.399 278.337c7.34375 19.6719 14.0273 39.5361 20.29 59.5264c-57.6982 -0.975586 -115.199 -5.85742 -172.347 -18.0791c-111.997 -23.9551 -246.562 -86.9238 -260.919 -215.835
c-5.8418 -52.4463 16.3008 -108.614 63.2441 -135.473c52.7568 -30.1865 112.858 -0.236328 157.332 31.5234zM606.593 681.27c-50.5977 -29.7021 -68.4873 -101.592 -82.2236 -154.065c-33.9785 -129.797 -53.6543 -262.666 -87.5303 -392.451
c-1.19141 -4.57129 -2.45801 -9.1377 -3.70898 -13.7041c122.983 -4.56738 246.564 -19.0898 368.399 -12.002c-4.77148 26.9883 -9.30273 54.0156 -13.4326 81.1143c-20.1914 132.491 -34.7139 266.961 -76.3271 394.976
c-13.1621 40.4922 -47.3291 130.096 -105.177 96.1328z" />
    <glyph glyph-name="A" unicode="&#xc2;" horiz-adv-x="955" 
d="M431.736 414.748c15.6758 61.6943 32.5391 123.987 60.2158 181.567c23.2002 48.2646 59.6924 96.6436 115.073 108.24c117.54 24.6123 145.562 -139.194 163.7 -219.833c27.7041 -123.156 39.7959 -249.142 61.2021 -373.436
c48.2373 4.33887 96.1758 12.4502 143.65 26.4463c5.4082 1.59668 16.9531 2.47363 20.8555 -3.11621c3.72949 -5.3457 0.575195 -10.1094 -5.4668 -11.8877c-28.2314 -8.30762 -56.8994 -14.9951 -85.9258 -19.8535c-23.3301 -3.90234 -46.707 -6.67969 -70.1201 -8.60742
c23.7549 -132.554 55.7188 -263.507 95.3027 -392.218c3.91406 -12.7295 -25.8789 -14.9951 -29.1006 -4.5752c-10.0107 32.3535 -19.5928 64.833 -28.6436 97.4658c-27.1934 98.0293 -49.8154 197.266 -68.0166 297.332
c-124.853 -6.43945 -250.609 9.16895 -375.749 13.0752c-29.7383 -103.092 -74.4785 -204.157 -144.653 -285.917c-38.8877 -45.3066 -86.7754 -83.9072 -141.735 -107.701c-53.9766 -23.3691 -121.123 -32.3066 -174.888 -3.41016
c-40.4453 21.7373 -68.7793 66.1943 -77.5039 110.565c-10.625 54.0078 8.68066 110.317 40.9004 153.48c69.459 93.0527 196.077 128.789 306.024 142.568c40.6143 5.08984 81.4414 7.12695 122.386 7.375c28.8291 96.1484 47.7852 195.196 72.4922 292.438z
M141.548 -231.89c93.3203 66.6426 153.067 172.999 192.399 278.337c7.34375 19.6719 14.0273 39.5361 20.29 59.5264c-57.6982 -0.975586 -115.199 -5.85742 -172.347 -18.0791c-111.997 -23.9551 -246.562 -86.9238 -260.919 -215.835
c-5.8418 -52.4463 16.3008 -108.614 63.2441 -135.473c52.7568 -30.1865 112.858 -0.236328 157.332 31.5234zM606.593 681.27c-50.5977 -29.7021 -68.4873 -101.592 -82.2236 -154.065c-33.9785 -129.797 -53.6543 -262.666 -87.5303 -392.451
c-1.19141 -4.57129 -2.45801 -9.1377 -3.70898 -13.7041c122.983 -4.56738 246.564 -19.0898 368.399 -12.002c-4.77148 26.9883 -9.30273 54.0156 -13.4326 81.1143c-20.1914 132.491 -34.7139 266.961 -76.3271 394.976
c-13.1621 40.4922 -47.3291 130.096 -105.177 96.1328z" />
    <glyph glyph-name="A" unicode="&#xc1;" horiz-adv-x="955" 
d="M431.736 414.748c15.6758 61.6943 32.5391 123.987 60.2158 181.567c23.2002 48.2646 59.6924 96.6436 115.073 108.24c117.54 24.6123 145.562 -139.194 163.7 -219.833c27.7041 -123.156 39.7959 -249.142 61.2021 -373.436
c48.2373 4.33887 96.1758 12.4502 143.65 26.4463c5.4082 1.59668 16.9531 2.47363 20.8555 -3.11621c3.72949 -5.3457 0.575195 -10.1094 -5.4668 -11.8877c-28.2314 -8.30762 -56.8994 -14.9951 -85.9258 -19.8535c-23.3301 -3.90234 -46.707 -6.67969 -70.1201 -8.60742
c23.7549 -132.554 55.7188 -263.507 95.3027 -392.218c3.91406 -12.7295 -25.8789 -14.9951 -29.1006 -4.5752c-10.0107 32.3535 -19.5928 64.833 -28.6436 97.4658c-27.1934 98.0293 -49.8154 197.266 -68.0166 297.332
c-124.853 -6.43945 -250.609 9.16895 -375.749 13.0752c-29.7383 -103.092 -74.4785 -204.157 -144.653 -285.917c-38.8877 -45.3066 -86.7754 -83.9072 -141.735 -107.701c-53.9766 -23.3691 -121.123 -32.3066 -174.888 -3.41016
c-40.4453 21.7373 -68.7793 66.1943 -77.5039 110.565c-10.625 54.0078 8.68066 110.317 40.9004 153.48c69.459 93.0527 196.077 128.789 306.024 142.568c40.6143 5.08984 81.4414 7.12695 122.386 7.375c28.8291 96.1484 47.7852 195.196 72.4922 292.438z
M141.548 -231.89c93.3203 66.6426 153.067 172.999 192.399 278.337c7.34375 19.6719 14.0273 39.5361 20.29 59.5264c-57.6982 -0.975586 -115.199 -5.85742 -172.347 -18.0791c-111.997 -23.9551 -246.562 -86.9238 -260.919 -215.835
c-5.8418 -52.4463 16.3008 -108.614 63.2441 -135.473c52.7568 -30.1865 112.858 -0.236328 157.332 31.5234zM606.593 681.27c-50.5977 -29.7021 -68.4873 -101.592 -82.2236 -154.065c-33.9785 -129.797 -53.6543 -262.666 -87.5303 -392.451
c-1.19141 -4.57129 -2.45801 -9.1377 -3.70898 -13.7041c122.983 -4.56738 246.564 -19.0898 368.399 -12.002c-4.77148 26.9883 -9.30273 54.0156 -13.4326 81.1143c-20.1914 132.491 -34.7139 266.961 -76.3271 394.976
c-13.1621 40.4922 -47.3291 130.096 -105.177 96.1328z" />
    <glyph glyph-name="B" unicode="B" horiz-adv-x="799" 
d="M174.852 421.467c48.3164 96.1133 120.994 188.252 217.466 239.463c42.5615 22.5986 98.2021 41.4521 146.255 26.0322c48.7021 -15.624 57.9971 -68.9951 43.6436 -112.918c-17.166 -52.5137 -49.3154 -97.085 -81.6572 -141.133
c-16.0723 -21.8867 -31.8857 -43.9541 -46.2275 -67.0283c-14.7314 -23.7002 -32.3027 -51.2158 -32.0742 -80.0879c0.385742 -48.6035 48.332 -93.6152 80.749 -124.962c23.1924 -22.4297 47.5176 -43.876 69.833 -67.1865c80.8945 32.9795 165.27 59.2402 252.261 56.1992
c21.418 -0.750977 21.5205 -20.9932 0 -20.1787c-67.957 2.56836 -133.117 -15.4121 -196.283 -38.8916c-13.2246 -4.91699 -26.418 -9.97949 -39.5762 -15.1562c5.16113 -5.99121 10.2119 -12.084 14.9795 -18.4365c32.582 -43.415 50.46 -94.2139 45.7314 -149.001
c-4.99609 -57.8984 -31.5791 -110.376 -68.8975 -154.133c-71.2256 -83.5137 -182.743 -135.846 -293.273 -123.073c-51.0107 5.89258 -105.605 29.5889 -134.049 74.2861c-29.5254 46.4043 -5.03906 110.137 24.9629 149.284
c35.2412 45.9912 86.0674 81.2637 134.446 112.17c50.165 32.0469 103.626 58.5557 157.953 82.7393c15.9512 7.10059 32.0674 14.3184 48.3369 21.4697c-17.6582 18.7988 -37.0469 36.1416 -55.6963 53.626c-31.9131 29.9229 -63.9834 61.0654 -86.6846 98.8594
c-12.8828 21.4502 -22.9209 46.499 -19.668 71.9609c2.95801 23.1572 13.5586 44.249 25.2217 64.125c50.1455 85.4688 130.513 152.309 165.101 246.853c9.80273 26.792 5.68457 55.3535 -25.123 65.0303c-23.0859 7.25 -49.6611 0.275391 -71.7598 -7.28516
c-51.2354 -17.5322 -96.1611 -52.3564 -134.176 -90.1738c-158.76 -157.945 -196.841 -389.304 -219.738 -602.418c-0.0712891 -0.65332 -0.255859 -1.25879 -0.492188 -1.83691c0.110352 -0.762695 0.228516 -1.52539 0.338867 -2.29199
c1.84473 -12.8633 6.34082 -25.3447 -0.15332 -37.1143c-5.21191 -9.44824 -23.2275 -10.2188 -31.3818 -4.72363c-22.6143 15.2471 -30.501 47.0654 -37.4873 72.3428c-7.74512 28.0352 -12.3789 56.9072 -16.6982 85.6416
c-8.99219 59.7949 -15.5254 120.136 -21.1582 180.331c-11.3916 121.765 -18.8613 244.686 -6.4668 366.65c3.06055 30.1152 77.8066 29.6396 76.583 0c-4.94824 -119.77 -1.99414 -239.461 7.51367 -358.936c4.5625 -57.3711 10.207 -114.656 14.876 -172.02
c15.6123 110.853 42.0459 221.614 92.4707 321.921zM549.664 33.9277c-4.61426 6.73828 -9.6416 13.1699 -14.8379 19.46c-26.127 -11.0693 -52.0488 -22.6025 -77.6641 -34.6113c-53.709 -25.1787 -106.733 -53.2373 -154.763 -88.2383
c-47.2031 -34.4033 -105.196 -79.207 -116.518 -140.095c-9.84961 -52.958 31.665 -95.8184 77.8457 -113.291c40.8105 -15.4395 84.918 -12.1943 125.65 1.71484c90.9131 31.0439 175.722 115.254 191.979 212.095c8.58691 51.1641 -2.47461 100.33 -31.6934 142.966z" />
    <glyph glyph-name="C" unicode="C" horiz-adv-x="519" 
d="M30.3818 -104.934c-39.9414 76.8076 -55.9121 167.948 -58.1152 253.768c-2.26953 88.4785 9.9834 178.29 35.3984 263.062c23.0312 76.8232 59.9121 155.196 120.293 209.933c57.2812 51.9238 147.273 78.6719 211.489 23.1338
c61.0527 -52.8086 58.9326 -141.842 39.0605 -213.304c-18.1807 -65.376 -63.1494 -136.704 -136.424 -145.814c-30.3477 -3.77246 -63.2832 5.70703 -79.1436 33.6396c-16.4854 29.0381 -8.03223 65.8369 -0.436523 96.1924c2.8125 11.2422 34.6865 9 31.1738 -4.89746
c-7.69434 -30.4307 -17.7285 -76.4336 11.2539 -99.2012c32.1055 -25.2227 76.2832 8.99121 97.0723 33.5371c46.373 54.752 69.0498 148.615 49.6768 217.917c-8.62207 30.8477 -27.2197 60.6406 -56.5449 75.4307c-28.4277 14.3379 -58.2676 4.11035 -82.833 -13.0908
c-53.7441 -37.6328 -88.5371 -102.12 -112.391 -161.628c-53.0527 -132.346 -67.9609 -284.639 -44.9219 -424.958c10.8447 -66.0527 31.1455 -139.93 74.1787 -192.781c19.7861 -24.2979 46.5537 -45.209 77.7861 -51.8057
c37.7939 -7.98145 74.2705 9.68457 105.146 29.8916c109.685 71.7803 169.703 196.715 218.169 313.963c4.14648 10.0264 32.9482 7.17871 28.2119 -4.43359c-33.1367 -81.209 -70.5723 -161.918 -125.705 -230.811c-51.8213 -64.7627 -128.317 -129.069 -215.116 -132.799
c-83.5332 -3.5918 -150.641 54.6016 -187.278 125.056z" />
    <glyph glyph-name="D" unicode="D" horiz-adv-x="687" 
d="M166.603 502.684c25.7178 47.0811 59.8086 91.7568 110.474 113.446c97.8359 41.8887 185.099 -29.0693 220.434 -118.059c36.4766 -91.8613 44.6465 -195.425 34.1318 -293.005c-8.55176 -79.3643 -30.4619 -157.753 -65.1094 -229.812
c90.3311 14.3145 178.864 50.3584 229.942 130.384c6.30176 9.87305 36.6299 5.69922 29.9902 -4.71289c-54.752 -85.8545 -152.356 -127.688 -249.779 -142.81c-6.69922 -1.03809 -13.4102 -1.94629 -20.125 -2.76855c-3.5166 -6.72656 -7.1084 -13.418 -10.8535 -20.0186
c-48.6904 -85.7842 -120.907 -168.153 -209.318 -214.156c-86.625 -45.0713 -205.974 -54.2051 -279.54 19.7266c-31.0518 31.2051 -50.6611 78.8096 -28.0977 120.466c23.3105 43.0332 78.4551 65.8633 123.86 79.1787c-17.8037 13.3936 -21.4385 32.499 -26.3359 53.9492
c-6.29395 27.5664 -11.3916 55.5615 -16.1553 83.4307c-9.7002 56.7656 -17.0713 114.251 -21.9727 171.626c-9.86523 115.431 -16.0137 233.297 -5.02344 348.846c2.78125 29.2305 74.4316 29.3213 74.7383 0c1.14844 -110.03 -1.44727 -219.781 5.40527 -329.717
c2.36035 -37.8809 5.0625 -75.749 8.38281 -113.562c5.51855 59.5508 14.5381 118.7 29.3398 176.823c15.0732 59.1885 36.2949 117.075 65.6123 170.745zM245.123 -210.328c54.2832 44.5908 98.6904 99.2998 133.346 159.908
c-88.2383 -3.0957 -177.078 2.30078 -264.271 -13.6895c-49.9648 -9.16113 -110.519 -25.7998 -144.324 -66.709c-34.71 -42.0068 -3.16211 -99.5869 39.0371 -122.052c82.1963 -43.7607 168.421 -13.1455 236.212 42.542zM348.534 610.534
c-51.6797 6.86426 -97.5059 -31.6377 -126.087 -70.4775c-58.3584 -79.2969 -88.9697 -181.499 -106.564 -277.129c-17.9531 -97.5762 -22.3779 -197.01 -23.5146 -296.042c1.21582 -3.47754 3.0918 -6.67188 6.27051 -9.33105
c1.98242 -1.65625 3.07227 -3.39844 3.54395 -5.14062c94.04 17.6582 190.818 10.6914 286.259 15.2578c45.6494 86.1143 72.3115 182.939 80.1514 279.155c3.55566 43.6436 3.88574 87.959 0.56543 131.626c-3.50879 46.1484 -7.63086 93.7686 -23.3652 137.616
c-15.8213 44.084 -47.3965 87.8447 -97.2588 94.4648z" />
    <glyph glyph-name="E" unicode="E" horiz-adv-x="573" 
d="M389.379 330.982c0.0830078 -12.4297 -31.585 -12.418 -31.7188 -0.00390625c-0.908203 88.6904 30.667 181.232 4.20215 268.57c-10.2549 33.8486 -30.3984 67.0439 -60.7734 86.3105c-39.4854 25.0449 -87.4912 17.1191 -127.983 -1.2666
c-60.8252 -27.6143 -110.979 -78.2988 -134.435 -141.182c-25.8477 -69.3096 -10.499 -138.092 40.6064 -190.967c25.832 -26.7246 56.1797 -48.4658 85.6973 -70.8359c25.0215 -18.9639 59.4287 -42.1289 68.8613 -73.9199
c9.9209 -33.4199 -10.8408 -68.9639 -26.1504 -97.4902c-16.3516 -30.4619 -35.0049 -59.6016 -51.9785 -89.709c-16.6553 -29.541 -32.1533 -60.3564 -40.9648 -93.2607c-8.15039 -30.4346 -13.7285 -70.3604 8.58691 -96.4121
c19.959 -23.2988 55.5459 -23.374 83.3799 -20.0498c38.4268 4.59082 76.5586 17.8623 111.222 34.8164c119.168 58.2803 215.053 162.441 270.226 282.243c4.2998 9.33398 31.501 6.5918 26.7295 -4.20215c-33.2393 -75.21 -81.7207 -143.041 -142.243 -198.748
c-60.6992 -55.8691 -136.476 -104.661 -215.82 -128.798c-63.0752 -19.1924 -158.705 -27.5273 -199.127 37.8291c-39.8906 64.499 11.9463 156.974 44.1934 213.365c19.1924 33.5615 39.7373 66.5332 55.46 101.936c9.2207 20.7656 17.957 43.502 2.69824 63.6104
c-11.1045 14.6367 -28.585 25.9736 -42.998 36.9873c-60.9785 46.5977 -134.485 96.5264 -150.889 177.008c-15.7969 77.5039 30.0449 154.134 83.6279 206.403c52.7695 51.4785 127.944 91.5977 203.34 87.8057c71.5752 -3.5957 124.462 -55.96 142.309 -123.397
c23.2637 -87.9121 -6.66309 -177.9 -6.05762 -266.643z" />
    <glyph glyph-name="E" unicode="&#xcb;" horiz-adv-x="573" 
d="M389.379 330.982c0.0830078 -12.4297 -31.585 -12.418 -31.7188 -0.00390625c-0.908203 88.6904 30.667 181.232 4.20215 268.57c-10.2549 33.8486 -30.3984 67.0439 -60.7734 86.3105c-39.4854 25.0449 -87.4912 17.1191 -127.983 -1.2666
c-60.8252 -27.6143 -110.979 -78.2988 -134.435 -141.182c-25.8477 -69.3096 -10.499 -138.092 40.6064 -190.967c25.832 -26.7246 56.1797 -48.4658 85.6973 -70.8359c25.0215 -18.9639 59.4287 -42.1289 68.8613 -73.9199
c9.9209 -33.4199 -10.8408 -68.9639 -26.1504 -97.4902c-16.3516 -30.4619 -35.0049 -59.6016 -51.9785 -89.709c-16.6553 -29.541 -32.1533 -60.3564 -40.9648 -93.2607c-8.15039 -30.4346 -13.7285 -70.3604 8.58691 -96.4121
c19.959 -23.2988 55.5459 -23.374 83.3799 -20.0498c38.4268 4.59082 76.5586 17.8623 111.222 34.8164c119.168 58.2803 215.053 162.441 270.226 282.243c4.2998 9.33398 31.501 6.5918 26.7295 -4.20215c-33.2393 -75.21 -81.7207 -143.041 -142.243 -198.748
c-60.6992 -55.8691 -136.476 -104.661 -215.82 -128.798c-63.0752 -19.1924 -158.705 -27.5273 -199.127 37.8291c-39.8906 64.499 11.9463 156.974 44.1934 213.365c19.1924 33.5615 39.7373 66.5332 55.46 101.936c9.2207 20.7656 17.957 43.502 2.69824 63.6104
c-11.1045 14.6367 -28.585 25.9736 -42.998 36.9873c-60.9785 46.5977 -134.485 96.5264 -150.889 177.008c-15.7969 77.5039 30.0449 154.134 83.6279 206.403c52.7695 51.4785 127.944 91.5977 203.34 87.8057c71.5752 -3.5957 124.462 -55.96 142.309 -123.397
c23.2637 -87.9121 -6.66309 -177.9 -6.05762 -266.643z" />
    <glyph glyph-name="E" unicode="&#xca;" horiz-adv-x="573" 
d="M389.379 330.982c0.0830078 -12.4297 -31.585 -12.418 -31.7188 -0.00390625c-0.908203 88.6904 30.667 181.232 4.20215 268.57c-10.2549 33.8486 -30.3984 67.0439 -60.7734 86.3105c-39.4854 25.0449 -87.4912 17.1191 -127.983 -1.2666
c-60.8252 -27.6143 -110.979 -78.2988 -134.435 -141.182c-25.8477 -69.3096 -10.499 -138.092 40.6064 -190.967c25.832 -26.7246 56.1797 -48.4658 85.6973 -70.8359c25.0215 -18.9639 59.4287 -42.1289 68.8613 -73.9199
c9.9209 -33.4199 -10.8408 -68.9639 -26.1504 -97.4902c-16.3516 -30.4619 -35.0049 -59.6016 -51.9785 -89.709c-16.6553 -29.541 -32.1533 -60.3564 -40.9648 -93.2607c-8.15039 -30.4346 -13.7285 -70.3604 8.58691 -96.4121
c19.959 -23.2988 55.5459 -23.374 83.3799 -20.0498c38.4268 4.59082 76.5586 17.8623 111.222 34.8164c119.168 58.2803 215.053 162.441 270.226 282.243c4.2998 9.33398 31.501 6.5918 26.7295 -4.20215c-33.2393 -75.21 -81.7207 -143.041 -142.243 -198.748
c-60.6992 -55.8691 -136.476 -104.661 -215.82 -128.798c-63.0752 -19.1924 -158.705 -27.5273 -199.127 37.8291c-39.8906 64.499 11.9463 156.974 44.1934 213.365c19.1924 33.5615 39.7373 66.5332 55.46 101.936c9.2207 20.7656 17.957 43.502 2.69824 63.6104
c-11.1045 14.6367 -28.585 25.9736 -42.998 36.9873c-60.9785 46.5977 -134.485 96.5264 -150.889 177.008c-15.7969 77.5039 30.0449 154.134 83.6279 206.403c52.7695 51.4785 127.944 91.5977 203.34 87.8057c71.5752 -3.5957 124.462 -55.96 142.309 -123.397
c23.2637 -87.9121 -6.66309 -177.9 -6.05762 -266.643z" />
    <glyph glyph-name="E" unicode="&#xc9;" horiz-adv-x="573" 
d="M389.379 330.982c0.0830078 -12.4297 -31.585 -12.418 -31.7188 -0.00390625c-0.908203 88.6904 30.667 181.232 4.20215 268.57c-10.2549 33.8486 -30.3984 67.0439 -60.7734 86.3105c-39.4854 25.0449 -87.4912 17.1191 -127.983 -1.2666
c-60.8252 -27.6143 -110.979 -78.2988 -134.435 -141.182c-25.8477 -69.3096 -10.499 -138.092 40.6064 -190.967c25.832 -26.7246 56.1797 -48.4658 85.6973 -70.8359c25.0215 -18.9639 59.4287 -42.1289 68.8613 -73.9199
c9.9209 -33.4199 -10.8408 -68.9639 -26.1504 -97.4902c-16.3516 -30.4619 -35.0049 -59.6016 -51.9785 -89.709c-16.6553 -29.541 -32.1533 -60.3564 -40.9648 -93.2607c-8.15039 -30.4346 -13.7285 -70.3604 8.58691 -96.4121
c19.959 -23.2988 55.5459 -23.374 83.3799 -20.0498c38.4268 4.59082 76.5586 17.8623 111.222 34.8164c119.168 58.2803 215.053 162.441 270.226 282.243c4.2998 9.33398 31.501 6.5918 26.7295 -4.20215c-33.2393 -75.21 -81.7207 -143.041 -142.243 -198.748
c-60.6992 -55.8691 -136.476 -104.661 -215.82 -128.798c-63.0752 -19.1924 -158.705 -27.5273 -199.127 37.8291c-39.8906 64.499 11.9463 156.974 44.1934 213.365c19.1924 33.5615 39.7373 66.5332 55.46 101.936c9.2207 20.7656 17.957 43.502 2.69824 63.6104
c-11.1045 14.6367 -28.585 25.9736 -42.998 36.9873c-60.9785 46.5977 -134.485 96.5264 -150.889 177.008c-15.7969 77.5039 30.0449 154.134 83.6279 206.403c52.7695 51.4785 127.944 91.5977 203.34 87.8057c71.5752 -3.5957 124.462 -55.96 142.309 -123.397
c23.2637 -87.9121 -6.66309 -177.9 -6.05762 -266.643z" />
    <glyph glyph-name="F" unicode="F" horiz-adv-x="567" 
d="M-3.80273 299.506c-46.8809 77.6963 -45.5801 191.501 36.0342 245.867c44.1504 29.4111 99.917 35.0361 151.384 39.6582c28.125 2.52148 56.2969 4.33887 84.4854 5.87695c0.12207 3.48145 0.220703 6.95898 0.358398 10.4404
c1.16016 29.5293 74.585 29.3125 75.0449 -0.000976562c0.0351562 -2.24219 0.0703125 -4.48047 0.105469 -6.71875c8.53223 0.401367 17.0605 0.810547 25.5889 1.23926c64.959 3.25293 129.978 7.66602 194.146 18.7236c57.1074 9.8418 122.822 21.4336 165.333 64.1094
c8.04004 8.07129 38.6553 2.00195 27.6494 -9.21289c-43.25 -44.0566 -107.788 -58.0244 -166.316 -69.2744c-67.8975 -13.0518 -137.05 -18.1572 -206.002 -21.7686c-13.3662 -0.700195 -26.7363 -1.3252 -40.1104 -1.93848
c1.77441 -113.287 3.6748 -226.555 9.70117 -339.692c22.4258 3.06055 45.04 5.02344 67.7959 5.86133c19.5928 0.723633 19.2432 -17.5752 0 -18.252c-22.4219 -0.787109 -44.6699 -2.83691 -66.7178 -6.05078c0.68457 -11.9307 1.34961 -23.8652 2.13672 -35.792
c3.2373 -49.1582 6.9668 -98.3164 11.2305 -147.415c30.6777 -32.5547 52.7959 -71.4229 57.6377 -117.1c5.69629 -53.7168 -10.9902 -107.54 -37.168 -153.94c-0.68457 -1.21191 -1.7666 -2.19922 -3.10059 -2.99414c-7.43457 -10.876 -37.1768 -10.1328 -41.2246 1.84473
c-22.6143 66.9375 -33.4238 137.05 -42.5381 207.111c-4.37402 33.6318 -8.34277 67.292 -11.8984 100.991c-13.3389 9.7041 -26.9844 18.7471 -40.3311 27.2754c-90.4844 57.8037 -195.578 105.608 -253.225 201.151zM386.703 -44.0322
c-3.74512 10.585 -8.59473 20.5654 -14.2002 30.0889c0.381836 -4.03613 0.731445 -8.07617 1.12109 -12.1123c4.68457 -48.3711 10.2705 -96.79 12.6035 -145.271c12.4141 41.582 15.0967 85.9648 0.475586 127.295zM192.031 567.626
c-54.5469 -4.85449 -117.131 -9.87207 -157.435 -51.6348c-33.7422 -34.9775 -43.1631 -87.0742 -36.4922 -133.868c7.3916 -51.8291 37.0859 -97.1123 73.5781 -133.455c62.2373 -61.9775 142.723 -99.0908 215.073 -147.427
c-2.52539 25.7969 -4.87793 51.6094 -6.86426 77.4727c-0.601562 7.83984 -1.18359 15.6797 -1.75781 23.5234c-15.3682 -4.26758 -30.6025 -9.12207 -45.6875 -14.5586c-12.167 -4.38184 -35.1748 8.45312 -15.8535 15.459
c19.8135 7.18262 39.8828 13.3623 60.1602 18.5977c-8.12695 116.819 -12.5645 234.06 -9.24805 351.115c-25.1826 -1.36523 -50.3496 -2.98633 -75.4736 -5.22461z" />
    <glyph glyph-name="G" unicode="G" horiz-adv-x="665" 
d="M181.109 480.581c-73.499 -72.3545 -130.342 -171.596 -144.313 -274.746c-7.52148 -55.5576 -1.31445 -115.667 34.8037 -160.876c37.9551 -47.5059 93.3164 -51.3018 146.936 -28.8604c78.4434 32.8301 146.845 97.1875 198.406 167.965
c-5.73535 39.0254 -11.1719 78.0859 -14.9092 117.363c-3.18652 33.5059 -4.35449 67.5469 -2.64746 101.159c1.44336 28.4043 5.41602 59.4092 24.8711 81.6611c30.3164 34.6748 88.7656 38.9541 113.791 -3.59961c30.6426 -52.1045 3.52832 -122.343 -17.3711 -172.94
c-12.0762 -29.2422 -26.5127 -57.4502 -42.916 -84.4658c9.95996 -55.1172 20.5254 -110.124 28.499 -165.572c56.4199 32.4443 117.489 56.4316 181.347 71.1436c15.6045 3.5957 28.6211 -12.5557 8.35156 -17.2598c-28.0781 -6.52148 -55.6641 -15.1123 -82.5264 -25.5674
c-36.1934 -14.0859 -70.958 -31.7949 -103.843 -52.5088c14.2393 -110.526 20.25 -246.082 -56.5176 -335.992c-34.1084 -39.9453 -86.0039 -62.1777 -138.611 -54.3066c-50.1221 7.49707 -76.5635 49.8662 -71.6855 98.749c5.31055 53.1904 37.2793 101.231 68.418 143.058
c30.2891 40.6816 65.4277 77.6416 104.52 109.96c7.875 6.50977 15.9268 12.7686 24.0771 18.8857c-2.56445 26.2451 -5.89648 52.4033 -9.45605 78.3496c-2.45801 17.9453 -5.08594 35.875 -7.74512 53.8008c-32.3105 -38.7188 -69.1758 -73.6533 -109.668 -103.726
c-46.9707 -34.8867 -100.243 -62.7363 -159.53 -66.8076c-56.0498 -3.84668 -110.086 21.3916 -144.521 65.5381c-74.9229 96.0547 -36.8496 235.229 17.3398 332.108c52.8594 94.5127 133.958 173.043 230.983 221.34c54.1689 26.9648 115.82 49.8311 177.177 45.0752
c44.1426 -3.42188 94.3984 -24.2734 105.212 -71.6377c2.27734 -9.97949 -26.457 -11.793 -29.3369 -2.26172c-7.58398 25.1123 -28.4434 39.3281 -53.8076 43.5762c-52.749 8.83496 -111.93 -16.9932 -157.512 -41.3418
c-43.3242 -23.1416 -82.833 -52.8242 -117.814 -87.2627zM443.78 -112.604c1.71094 32.2988 0.844727 64.7549 -1.50391 97.1484c-35.0557 -29.2148 -66.9883 -62.1621 -94.8145 -98.2412c-34.8555 -45.1895 -76.791 -104.335 -70.5449 -164.479
c3.0166 -29.0381 23.6094 -60.0391 56.8564 -52.1641c22.7637 5.39258 43.2656 24.8721 57.0957 42.8486c37.6836 48.9814 49.7246 114.704 52.9111 174.888zM492.15 491.146c-33.168 16.0879 -43.6318 -45.2314 -43.2227 -64.624
c1.09766 -52.2148 10.8887 -105.85 20.5537 -157.97c22.9561 43.0488 43.2412 90.9404 48.4648 138.458c2.77734 25.2695 1.59766 70.8477 -25.7959 84.1357z" />
    <glyph glyph-name="H" unicode="H" horiz-adv-x="856" 
d="M-5.26953 168.077c-9.9834 -10.3574 -49.5762 -3.99414 -35.8838 11.9609c43.0645 50.1299 107.06 71.6855 171.665 78.9629c-8.75977 128.274 -13.2441 257.729 -6.34082 386.102c1.56934 29.1602 73.7471 28.9561 74.125 0.000976562
c1.66406 -127.834 1.66797 -255.486 7.35547 -383.218c99.0674 -1.79395 197.454 -12.7021 294.397 15.2891c-2.37598 38.0928 -3.1709 76.2568 -1.74316 114.429c3.56738 95.3105 22.0117 201.592 75.4609 282.454c22.2881 33.7188 54.4922 65.7578 96.7979 69.8291
c36.9639 3.55566 67.4258 -17.9102 83.6357 -50.0479c39.9062 -79.1162 15.7188 -185.909 -22.126 -261.328c-33.9229 -67.6025 -89.7363 -117.413 -156.997 -148.917c3.72559 -70.3281 12.2383 -140.602 22.5049 -210.101
c12.3047 -83.2822 28.6172 -168.318 64.7041 -244.988c13.2637 -28.1807 40.5078 -74.3213 76.7246 -49.3311c30.0645 20.7461 44.957 59.9443 58.7168 92.2314c35.0645 82.2832 58.8701 169.007 71.9883 257.43c1.66016 11.2031 29.4707 10.3066 28.0273 0.000976562
c-7.77246 -55.416 -19.5811 -110.195 -35.7754 -163.771c-15.1006 -49.9609 -32.5264 -101.794 -57.5166 -147.785c-18.2676 -33.6201 -46.0391 -63.4131 -86.3506 -66.3711c-44.3672 -3.25684 -80.5322 24.7734 -105.16 59.0117
c-54.999 76.457 -74.667 179.596 -89.3867 270.646c-9.46777 58.5479 -17.5986 117.587 -22.1299 176.835c-77.1572 -19.9004 -158.095 -20.0146 -237.593 -17.5684c-18.8066 0.578125 -37.9951 0.959961 -57.2227 0.645508
c3.2959 -66.2734 8.23242 -132.44 13.3457 -198.592c5.1416 -66.4736 14.3779 -133.148 14.1699 -199.87c-0.0546875 -17.8701 -43.8828 -19.2939 -48.3516 -3.72852c-18.6494 64.9824 -26.3984 132.813 -34.793 199.747
c-8.18945 65.2861 -13.9873 130.855 -18.7393 196.479c-51.1953 -8.28418 -99.3662 -26.8701 -137.51 -66.4385zM605.572 604.496c-28.1641 -84.2373 -33.6084 -176.836 -32.4521 -265.062c0.141602 -10.7822 0.428711 -21.5723 0.830078 -32.3584
c46.9902 25.2178 87.6953 60.8955 115.698 107.686c39.6035 66.1709 64.0703 155.928 47.8682 232.684c-6.9502 32.9316 -36.2871 99.2285 -76.6182 62.8818c-28.6367 -25.8086 -43.4463 -70.3018 -55.3262 -105.83z" />
    <glyph glyph-name="I" unicode="I" horiz-adv-x="441" 
d="M454.143 134.401c3.0332 9.84961 30.251 7.83691 27.3242 -4.27832c-25.5918 -105.904 -58.2285 -213.901 -112.461 -308.988c-19.5264 -34.2383 -41.373 -70.7188 -81.3936 -82.791c-38.3135 -11.5566 -79.7656 5.29102 -105.979 33.6992
c-32.165 34.8633 -50.1221 83.6006 -63.6064 128.286c-14.4561 47.9033 -24.4355 97.3174 -32.2002 146.708c-16.2617 103.441 -25.1436 207.717 -29.6123 312.291c-4.10645 96.1719 -6.42285 192.769 -3.38184 289.047
c-27.5312 -3.34375 -55.2158 -5.05469 -83.3838 -2.30078c-5.0625 0.496094 -12.0684 4.13477 -10.1094 10.1494c2.0332 6.25488 12.7793 6.23145 17.8027 5.76367c25.5605 -2.37598 50.9521 -0.68457 76.2803 2.56055c0.208008 5.50684 0.357422 11.0176 0.605469 16.5244
c1.28223 28.668 71.7402 28.5303 72.8926 0c0.0664062 -1.62891 0.101562 -3.25781 0.164062 -4.88672c21.0996 3.34766 42.2227 6.16016 63.4404 6.99023c18.834 0.735352 18.5117 -16.9189 0 -17.5527c-21.1426 -0.727539 -42.0537 -3.22949 -62.8779 -6.24219
c3.27246 -99.9805 1.72656 -200.074 5.34961 -300.062c3.41016 -94.1699 9.53906 -188.454 21.1113 -281.995c10.9355 -88.3721 21.4541 -180.953 59.3066 -262.622c8.70508 -18.7832 18.7715 -37.9951 36.2764 -50.0205c20.4512 -14.0508 38.2354 -5.99902 54.0283 10.7891
c28.4199 30.21 47.6592 72.2949 64.9316 109.577c37.1484 80.1904 59.5498 165.207 85.4922 249.354z" />
    <glyph glyph-name="I" unicode="&#xcf;" horiz-adv-x="441" 
d="M454.143 134.401c3.0332 9.84961 30.251 7.83691 27.3242 -4.27832c-25.5918 -105.904 -58.2285 -213.901 -112.461 -308.988c-19.5264 -34.2383 -41.373 -70.7188 -81.3936 -82.791c-38.3135 -11.5566 -79.7656 5.29102 -105.979 33.6992
c-32.165 34.8633 -50.1221 83.6006 -63.6064 128.286c-14.4561 47.9033 -24.4355 97.3174 -32.2002 146.708c-16.2617 103.441 -25.1436 207.717 -29.6123 312.291c-4.10645 96.1719 -6.42285 192.769 -3.38184 289.047
c-27.5312 -3.34375 -55.2158 -5.05469 -83.3838 -2.30078c-5.0625 0.496094 -12.0684 4.13477 -10.1094 10.1494c2.0332 6.25488 12.7793 6.23145 17.8027 5.76367c25.5605 -2.37598 50.9521 -0.68457 76.2803 2.56055c0.208008 5.50684 0.357422 11.0176 0.605469 16.5244
c1.28223 28.668 71.7402 28.5303 72.8926 0c0.0664062 -1.62891 0.101562 -3.25781 0.164062 -4.88672c21.0996 3.34766 42.2227 6.16016 63.4404 6.99023c18.834 0.735352 18.5117 -16.9189 0 -17.5527c-21.1426 -0.727539 -42.0537 -3.22949 -62.8779 -6.24219
c3.27246 -99.9805 1.72656 -200.074 5.34961 -300.062c3.41016 -94.1699 9.53906 -188.454 21.1113 -281.995c10.9355 -88.3721 21.4541 -180.953 59.3066 -262.622c8.70508 -18.7832 18.7715 -37.9951 36.2764 -50.0205c20.4512 -14.0508 38.2354 -5.99902 54.0283 10.7891
c28.4199 30.21 47.6592 72.2949 64.9316 109.577c37.1484 80.1904 59.5498 165.207 85.4922 249.354z" />
    <glyph glyph-name="I" unicode="&#xce;" horiz-adv-x="441" 
d="M454.143 134.401c3.0332 9.84961 30.251 7.83691 27.3242 -4.27832c-25.5918 -105.904 -58.2285 -213.901 -112.461 -308.988c-19.5264 -34.2383 -41.373 -70.7188 -81.3936 -82.791c-38.3135 -11.5566 -79.7656 5.29102 -105.979 33.6992
c-32.165 34.8633 -50.1221 83.6006 -63.6064 128.286c-14.4561 47.9033 -24.4355 97.3174 -32.2002 146.708c-16.2617 103.441 -25.1436 207.717 -29.6123 312.291c-4.10645 96.1719 -6.42285 192.769 -3.38184 289.047
c-27.5312 -3.34375 -55.2158 -5.05469 -83.3838 -2.30078c-5.0625 0.496094 -12.0684 4.13477 -10.1094 10.1494c2.0332 6.25488 12.7793 6.23145 17.8027 5.76367c25.5605 -2.37598 50.9521 -0.68457 76.2803 2.56055c0.208008 5.50684 0.357422 11.0176 0.605469 16.5244
c1.28223 28.668 71.7402 28.5303 72.8926 0c0.0664062 -1.62891 0.101562 -3.25781 0.164062 -4.88672c21.0996 3.34766 42.2227 6.16016 63.4404 6.99023c18.834 0.735352 18.5117 -16.9189 0 -17.5527c-21.1426 -0.727539 -42.0537 -3.22949 -62.8779 -6.24219
c3.27246 -99.9805 1.72656 -200.074 5.34961 -300.062c3.41016 -94.1699 9.53906 -188.454 21.1113 -281.995c10.9355 -88.3721 21.4541 -180.953 59.3066 -262.622c8.70508 -18.7832 18.7715 -37.9951 36.2764 -50.0205c20.4512 -14.0508 38.2354 -5.99902 54.0283 10.7891
c28.4199 30.21 47.6592 72.2949 64.9316 109.577c37.1484 80.1904 59.5498 165.207 85.4922 249.354z" />
    <glyph glyph-name="I" unicode="&#xcd;" horiz-adv-x="441" 
d="M454.143 134.401c3.0332 9.84961 30.251 7.83691 27.3242 -4.27832c-25.5918 -105.904 -58.2285 -213.901 -112.461 -308.988c-19.5264 -34.2383 -41.373 -70.7188 -81.3936 -82.791c-38.3135 -11.5566 -79.7656 5.29102 -105.979 33.6992
c-32.165 34.8633 -50.1221 83.6006 -63.6064 128.286c-14.4561 47.9033 -24.4355 97.3174 -32.2002 146.708c-16.2617 103.441 -25.1436 207.717 -29.6123 312.291c-4.10645 96.1719 -6.42285 192.769 -3.38184 289.047
c-27.5312 -3.34375 -55.2158 -5.05469 -83.3838 -2.30078c-5.0625 0.496094 -12.0684 4.13477 -10.1094 10.1494c2.0332 6.25488 12.7793 6.23145 17.8027 5.76367c25.5605 -2.37598 50.9521 -0.68457 76.2803 2.56055c0.208008 5.50684 0.357422 11.0176 0.605469 16.5244
c1.28223 28.668 71.7402 28.5303 72.8926 0c0.0664062 -1.62891 0.101562 -3.25781 0.164062 -4.88672c21.0996 3.34766 42.2227 6.16016 63.4404 6.99023c18.834 0.735352 18.5117 -16.9189 0 -17.5527c-21.1426 -0.727539 -42.0537 -3.22949 -62.8779 -6.24219
c3.27246 -99.9805 1.72656 -200.074 5.34961 -300.062c3.41016 -94.1699 9.53906 -188.454 21.1113 -281.995c10.9355 -88.3721 21.4541 -180.953 59.3066 -262.622c8.70508 -18.7832 18.7715 -37.9951 36.2764 -50.0205c20.4512 -14.0508 38.2354 -5.99902 54.0283 10.7891
c28.4199 30.21 47.6592 72.2949 64.9316 109.577c37.1484 80.1904 59.5498 165.207 85.4922 249.354z" />
    <glyph glyph-name="J" unicode="J" horiz-adv-x="689" 
d="M-17.8037 459.269c18.4561 -9.08691 52.1533 19.6621 67.0889 29.7168c17.4141 11.7139 34.3564 24.0967 51.1729 36.6406c32.4443 24.2031 64.4717 49.0986 98.5127 71.0596c61.2891 39.54 146.329 81.8652 220.571 55.5225
c66.7959 -23.7002 93.1035 -102.568 105.585 -165.325c16.793 -84.4385 21.7607 -171.422 21.5361 -257.383c-0.161133 -61.7061 -4.42871 -123.164 -14.9551 -183.769c61.1748 19.5225 120.151 43.376 170.076 85.4854c8.26074 6.9668 37.3691 0.546875 26.3232 -8.76758
c-58.7285 -49.54 -128.601 -74.4355 -200.034 -96.291c-2.82812 -14.3496 -6.00293 -28.6445 -9.59082 -42.8799c-17.9258 -71.0879 -45.4141 -155.148 -109.858 -197.419c-54.0117 -35.4297 -157.827 -40.6963 -193.024 25.4785
c-37.4082 70.3242 43.4463 130.469 96.7861 158.13c43.749 22.6846 91.125 37.9111 138.953 52.1309c21.8232 103.689 23.1729 211.057 21.9453 317.669c-0.861328 74.6875 -3.80762 151.267 -18.0664 224.773c-6.54199 33.7266 -21.6074 64.4287 -56.8252 75.0771
c-34.4697 10.4199 -73.6367 -2.20703 -105.641 -15.2666c-63.4287 -25.8867 -117.614 -69.9785 -172.173 -110.368c-25.8906 -19.1641 -52.0723 -38.0967 -79.7764 -54.582c-24.6514 -14.6719 -51.5771 -24.6865 -78.8604 -11.1787
c-6.17969 3.06055 -4.24414 8.19434 0 11.5459c5.24707 4.1416 14.7744 2.69824 20.2539 0zM412.564 -104.712c14.5625 34.7852 25.7305 70.2422 34.2822 106.176c-36.6533 -11.6514 -72.7637 -24.6484 -107.018 -41.9521
c-30.7646 -15.542 -64.1455 -34.4385 -83.998 -63.5391c-21.7178 -31.8311 -20.9551 -77.2832 14.9941 -98.2295c68.4561 -39.8867 120.104 45.8652 141.739 97.5449z" />
    <glyph glyph-name="K" unicode="K" horiz-adv-x="757" 
d="M-28.6523 -251.248c-41.7783 53.0439 -47.5508 125.342 -33.4209 189.385c32.0508 145.169 147.809 262.351 250.369 362.925c3.66602 3.5918 7.35547 7.16309 11.0332 10.7422c-4.85449 37.3926 -10.5225 74.6748 -17.4219 111.729
c-13.8779 74.5459 -37.6406 144.91 -60.5225 216.927c-9.96777 31.3662 58.0791 33.3721 69.9941 10.998c42.5693 -79.9502 60.1328 -175.021 73.5859 -263.803c0.566406 -3.7207 1.0498 -7.46191 1.59277 -11.1914c28.3301 27.1611 56.5459 54.4404 84.0186 82.4756
c25.958 26.4893 51.2744 53.6426 75.2852 81.917c25.5684 30.1074 54.083 62.6299 53.1191 104.46c-0.259766 11.3994 28.8682 11.5059 29.2578 0c1.29004 -38.0098 -20.1719 -69.2656 -43.124 -97.6855c-23.9834 -29.6943 -49.8701 -57.9102 -76.3271 -85.4062
c-34.3916 -35.7402 -70.1045 -70.1475 -105.889 -104.483c68.96 -19.1963 105.57 -84.958 127.933 -148.914c21.2451 -60.7539 29.8711 -124.863 46.6592 -186.798c15.0732 -55.6094 34.293 -118.739 76.4961 -160.399c57.4854 -56.7461 129.214 25.1865 159.778 71.3428
c36.7354 55.4795 59.0156 119.204 72.3662 184.054c2.5332 12.3047 33.0107 10.8418 30.792 0.000976562c-15.9785 -78.0703 -43.958 -153.949 -93.7061 -217.056c-38.8242 -49.2529 -95.0234 -90.2998 -160.824 -73.0947
c-66.5762 17.4062 -109.543 72.8896 -134.073 134.262c-26.1543 65.4355 -35.1582 135.874 -51.1172 204.106c-7.76465 33.2109 -17.1348 66.4814 -31.2803 97.5918c-11.624 25.5723 -27.4053 62.9609 -54.3975 76.9805c9.49219 -75.332 14.8223 -151.651 16.9971 -227.282
c2.36426 -82.1455 -3.90234 -165.207 -27.3193 -244.292c-19.625 -66.2734 -58.4219 -128.062 -123.44 -157.01c-58.7949 -26.1777 -125.874 -13.9482 -166.414 37.5186zM-25.1416 -41.3574c-18.9951 -64.3418 -19.3105 -140.805 21.4297 -197.212
c19.0586 -26.3906 47.7109 -46.833 81.4141 -45.9912c33.3643 0.833984 63.3105 20.002 83.8828 45.2441c45.2012 55.46 52.8799 137.224 57.6865 205.786c5.41699 77.2832 0.0283203 155.424 -7.38281 232.396c-2.62012 27.2324 -5.47559 54.4688 -8.68945 81.666
c-92.9863 -91.6016 -190.85 -194.886 -228.341 -321.89z" />
    <glyph glyph-name="L" unicode="L" horiz-adv-x="297" 
d="M169.635 537.582c2.37598 -43.3564 -1.19727 -87.3262 -8.05762 -130.136c-12.6152 -78.6289 -37.9551 -154.496 -75.2217 -224.766c7.0293 -39.8984 13.5713 -79.8633 18.0439 -120.1c1.5459 -13.8975 2.97363 -28.043 4.12988 -42.3262
c74.3369 26.2139 145.551 58.1504 203.905 113.937c7.52148 7.19043 35.501 1.45508 25.2617 -8.41797c-65.0068 -62.6816 -145.087 -95.9043 -227.834 -124.258c4.19336 -68.2793 0.519531 -138.733 -28.8096 -200.337s-88.7188 -116.478 -158.453 -124.376
c-66.4893 -7.5293 -143.98 23.6445 -169.671 89.4375c-30.875 79.0654 47.9854 130.895 108.185 162.261c57.21 29.8086 119.715 49.6885 182.011 69.8799c-2.32129 19.3301 -5.09082 38.3887 -7.84473 56.9043c-13.3896 90 -33.4199 178.789 -47.6436 268.632
c-13.2559 83.7539 -25.167 176.976 -2.02148 259.982c9.8418 35.292 29.5527 78.1289 66.1387 92.4434c31.3193 12.2529 67.0479 1.78125 87.0977 -24.9512c22.9922 -30.6543 28.7471 -76.665 30.7842 -113.81zM30.2031 -205.292
c21.5635 57.8945 21.3613 122.591 14.9609 185.296c-70.8994 -23.3848 -141.409 -47.8477 -203.879 -88.5449c-33.8408 -22.0479 -68.2051 -52.9346 -63.9219 -97.1992c3.92578 -40.5908 36.1533 -74.5303 72.3896 -90.0996
c35.3516 -15.1875 75.9424 -14.3691 110.086 3.57617c34.6982 18.2402 56.9307 50.9043 70.3643 86.9717zM135.716 455.808c4.1543 50.2637 5.70312 105.424 -11.2979 153.657c-4.83398 13.7129 -22.3428 54.3506 -41.8965 44.1465
c-16.4619 -8.59082 -22.8662 -41.4404 -26.5713 -57.293c-9.90918 -42.3604 -9.2207 -87.0732 -7.99316 -130.275c1.28223 -45.2168 6.42773 -90.1387 12.9492 -134.863c4.85449 -33.2744 10.7158 -66.4189 16.6748 -99.5518
c31.6416 70.8594 51.7188 146.534 58.1348 224.18z" />
    <glyph glyph-name="M" unicode="M" horiz-adv-x="959" 
d="M734.258 463.1c2.84766 -64.1367 1.23438 -128.197 0.825195 -192.351c-0.420898 -64.9629 -0.358398 -130.166 6.77734 -194.811c6.50195 -58.917 13.0195 -123.381 44.0518 -175.265c6.06934 -10.1445 13.6064 -22.4404 24.5693 -28.0068
c12.2842 -6.23438 26.1934 0.920898 36.5186 8.10742c23.5859 16.415 39.332 42.7148 53.5439 67.0713c31.457 53.9023 55.1133 112.521 72.5273 172.354c2.99316 10.2861 32.043 8.05176 28.5068 -4.48047c-19.0625 -67.5283 -46.6846 -132.283 -82.1816 -192.829
c-27.0791 -46.1846 -73.291 -95.0439 -132.413 -79.1523c-54.417 14.6289 -85.9766 71.8701 -100.342 122.252c-17.127 60.0693 -23.6689 122.283 -25.624 184.528c-4.05957 129.266 12.4375 258.185 9.66406 387.446c-0.688477 31.9727 -2.62402 64.1221 -10.6133 95.2129
c-1.65234 6.43164 -3.56445 13.249 -6.77832 19.1064c-5.15332 9.39746 -11.3643 9.17285 -21.0879 4.8457c-13.3037 -5.91992 -25.4385 -22.417 -33.3965 -33.8877c-32.8496 -47.3564 -52.3643 -106.564 -69.8291 -160.978
c-38.1836 -118.956 -56.9746 -242.903 -75.6592 -366.084c-0.129883 -0.845703 -0.424805 -1.6123 -0.806641 -2.32812c8.72461 -23.0117 -56.333 -29.6631 -69.4316 -8.16992c-70.2422 115.262 -94.5088 248.414 -109.527 380.787
c-6.86035 60.4434 -13.083 122.161 -31.2598 180.465c-6.06543 19.4434 -21.1113 68.0664 -48.9297 49.1455c-22.9961 -15.6396 -34.6201 -50.1611 -43.5498 -75.1318c-43.0488 -120.353 -59.8887 -250.433 -87.4668 -374.848
c-24.8369 -112.04 -50.7393 -236.617 -119.554 -331.142c-27.6572 -37.9902 -65.1133 -76.0479 -114.594 -80.1035c-39.3008 -3.22168 -86.9443 21.8545 -85.1504 66.21c0.479492 11.8477 30.3076 11.5137 29.8711 0c-1.30176 -34.2969 33.7148 -56.8398 65.2783 -46.2588
c29.4268 9.86914 52.4814 35.1113 70.9375 59.0273c39.0957 50.6562 61.9893 112.189 80.7568 172.728c38.3525 123.719 58.8545 251.863 86.6016 378.144c12.8193 58.3428 25.0801 118.542 47.0811 174.233c16.1396 40.8662 44.4336 91.3066 96.6523 79.5449
c48.6982 -10.9668 72.2451 -72.1143 86.792 -113.547c19.585 -55.7822 27.6807 -115.042 38.0654 -172.991c17.9961 -100.409 39.458 -202.281 84.2539 -294.449c18.5938 122.799 39.4736 245.943 81.0244 363.294c18.0869 51.0898 37.8252 109.012 75.5361 149.335
c33.6162 35.9414 83.4434 41.0117 110.943 -4.12988c32.3027 -53.0244 34.7373 -122.57 37.416 -182.896z" />
    <glyph glyph-name="N" unicode="N" horiz-adv-x="725" 
d="M492.146 -83.4639c30.7529 47.5254 54.1631 100.856 73.3311 153.972c4.46875 12.3867 8.61523 24.8838 12.5332 37.4512c-68.4365 22.8975 -127.161 71.8545 -161.879 137.341c-54.8379 103.43 -50.9756 241.282 18.7393 337.163
c29.7773 40.9521 82.873 70.6748 133.23 47.8203c50.6484 -22.9844 66.5205 -88.5137 73.8408 -138.285c18.1924 -123.684 5.05859 -254.153 -29.3525 -374.01c42.2314 -10.0381 87.082 -8.54297 129.797 7.52148c12.041 4.52734 34.7422 -8.17383 15.6953 -15.3057
c-24.9668 -9.35449 -50.9834 -14.7871 -77.6143 -16.2266c-24.9385 -1.34961 -49.5391 0.774414 -73.2822 5.94336c-17.7676 -57.5996 -41.1055 -113.787 -70.4775 -166.415c-27.2832 -48.8867 -64.4912 -94.7881 -121.158 -109.103
c-55.0859 -13.917 -111.438 5.43262 -145.122 50.7119c-35.4336 47.6357 -50.2549 108.232 -59.6172 165.902c-20.832 128.31 -4.61816 258.696 -17.5869 387.51c-3.19043 31.6973 -7.52148 63.7832 -14.5234 94.8779c-6.15625 27.3545 -7.29688 59.9521 -34.9189 75.502
c-30.6426 17.249 -52.2422 -33.4082 -60.1846 -54.9365c-12.2881 -33.3057 -18.0352 -68.5781 -23.5303 -103.517c-21.293 -135.319 -28.8574 -272.641 -56.2197 -407.027c-12.4893 -61.3447 -27.2559 -124.802 -55.3418 -181.127
c-19.2432 -38.5928 -59.4365 -105.637 -111.557 -88.7656c-18.0078 5.8291 3.39062 17.8623 14.6094 14.2471c11.5879 -3.7334 31.2441 22.0391 37.6279 29.8232c8.94531 10.9043 16.7061 22.6338 23.6094 34.9219c29.0967 51.8018 44.2256 111.636 56.833 169.247
c13.1699 60.1602 21.9414 121.182 29.415 182.278c7.65039 62.5518 13.917 125.269 22.1025 187.754c7.57617 57.8281 13.7051 118.952 35.458 173.534c15.3604 38.5449 46.9033 74.8242 92.7178 62.7012c20.4707 -5.41699 34.0137 -20.085 45.7871 -36.7949
c16.124 -22.8857 28.1289 -43.9033 37.1094 -70.6758c37.3691 -111.407 33.8799 -232.235 40.001 -348.127c3.06445 -58.0791 8.22168 -116.949 22.5088 -173.475c12.3594 -48.9141 26.9336 -95.6172 64.873 -130.709c46.2119 -42.75 107.772 19.9951 132.546 58.2764z
M461.087 223.683c29.9385 -44.5283 73.5527 -78.5225 122.554 -96.8486c27.4561 95.3506 39.3154 195.146 35.3779 294.288c-2.26562 57.0527 -6.12012 126.89 -42.7061 173.955c-48.8271 62.8193 -110.132 -4.62988 -134.521 -52.9033
c-50.4834 -99.9287 -43.2178 -225.513 19.2949 -318.491z" />
    <glyph glyph-name="O" unicode="O" horiz-adv-x="613" 
d="M486.673 442.622c27.46 -96.0547 25.4336 -197.436 -4.0957 -292.723c42.6562 -23.8379 102.541 -54.6143 143.392 -19.9707c8.31934 7.05664 37.7305 0.601562 26.5869 -8.8584c-33.75 -28.6523 -79.4541 -28.5029 -119.852 -15.5342
c-19.3613 6.21484 -38.4082 14.3262 -56.9824 23.6016c-29.6631 -83.0029 -83.1123 -163.413 -165.309 -200.554c-97.75 -44.1699 -213.283 -15.8242 -261.355 84.1797c-29.2656 60.8838 -27.9521 135.268 2.1123 195.361c-37.7549 32.5703 -64.6445 78.29 -75.5957 129.297
c-22.2246 103.509 12.7959 226.343 91.5029 298.465c66.8672 61.2695 165.537 81.752 248.406 41.8027c88.4307 -42.6357 145.169 -144.048 171.189 -235.067zM6.30957 337.417c8.68164 -39.6504 28.7119 -78.3447 57.1318 -108.016
c7.26953 11.0254 15.6123 21.3867 25.0684 30.8389c31.9404 31.9365 72.9482 50.5498 118.559 47.6426c48.4893 -3.0918 91.0039 -27.6768 128.893 -56.3369c30.2139 -22.8623 59.334 -46.2354 90.3105 -67.3701c0.176758 0.597656 0.376953 1.19922 0.549805 1.79688
c25.085 85.5322 26.6895 178.786 8.78809 265.86c-18.0039 87.5771 -59.9121 176.933 -145.798 215.58c-86.2324 38.8086 -180.965 -6.86035 -232.224 -79.8477c-49.4453 -70.4072 -69.7188 -165.938 -51.2783 -250.148zM295.652 -22.0576
c60.7344 42.2744 99.6328 113.656 123.368 183.497c-6.78906 4.2998 -13.4883 8.66602 -20.0654 13.0635c-72.917 48.7842 -179.931 171.953 -269.923 86.2324c-16.6191 -15.8291 -28.9746 -34.8955 -37.3887 -55.6846c24.9434 -17.5479 54.0947 -28.6484 86.2676 -29.8203
c18.4326 -0.668945 18.5391 -18.04 0 -17.375c-34.0684 1.22363 -65.5527 10.7783 -93.2021 26.5361c-13.083 -48.2646 -7.2334 -102.639 14.1416 -146.671c17.1152 -35.2529 46.2471 -69.3057 83.7422 -83.4941c38.585 -14.5977 80.9492 1.36914 113.06 23.7158z" />
    <glyph glyph-name="O" unicode="&#xd6;" horiz-adv-x="613" 
d="M486.673 442.622c27.46 -96.0547 25.4336 -197.436 -4.0957 -292.723c42.6562 -23.8379 102.541 -54.6143 143.392 -19.9707c8.31934 7.05664 37.7305 0.601562 26.5869 -8.8584c-33.75 -28.6523 -79.4541 -28.5029 -119.852 -15.5342
c-19.3613 6.21484 -38.4082 14.3262 -56.9824 23.6016c-29.6631 -83.0029 -83.1123 -163.413 -165.309 -200.554c-97.75 -44.1699 -213.283 -15.8242 -261.355 84.1797c-29.2656 60.8838 -27.9521 135.268 2.1123 195.361c-37.7549 32.5703 -64.6445 78.29 -75.5957 129.297
c-22.2246 103.509 12.7959 226.343 91.5029 298.465c66.8672 61.2695 165.537 81.752 248.406 41.8027c88.4307 -42.6357 145.169 -144.048 171.189 -235.067zM6.30957 337.417c8.68164 -39.6504 28.7119 -78.3447 57.1318 -108.016
c7.26953 11.0254 15.6123 21.3867 25.0684 30.8389c31.9404 31.9365 72.9482 50.5498 118.559 47.6426c48.4893 -3.0918 91.0039 -27.6768 128.893 -56.3369c30.2139 -22.8623 59.334 -46.2354 90.3105 -67.3701c0.176758 0.597656 0.376953 1.19922 0.549805 1.79688
c25.085 85.5322 26.6895 178.786 8.78809 265.86c-18.0039 87.5771 -59.9121 176.933 -145.798 215.58c-86.2324 38.8086 -180.965 -6.86035 -232.224 -79.8477c-49.4453 -70.4072 -69.7188 -165.938 -51.2783 -250.148zM295.652 -22.0576
c60.7344 42.2744 99.6328 113.656 123.368 183.497c-6.78906 4.2998 -13.4883 8.66602 -20.0654 13.0635c-72.917 48.7842 -179.931 171.953 -269.923 86.2324c-16.6191 -15.8291 -28.9746 -34.8955 -37.3887 -55.6846c24.9434 -17.5479 54.0947 -28.6484 86.2676 -29.8203
c18.4326 -0.668945 18.5391 -18.04 0 -17.375c-34.0684 1.22363 -65.5527 10.7783 -93.2021 26.5361c-13.083 -48.2646 -7.2334 -102.639 14.1416 -146.671c17.1152 -35.2529 46.2471 -69.3057 83.7422 -83.4941c38.585 -14.5977 80.9492 1.36914 113.06 23.7158z" />
    <glyph glyph-name="O" unicode="&#xd5;" horiz-adv-x="613" 
d="M486.673 442.622c27.46 -96.0547 25.4336 -197.436 -4.0957 -292.723c42.6562 -23.8379 102.541 -54.6143 143.392 -19.9707c8.31934 7.05664 37.7305 0.601562 26.5869 -8.8584c-33.75 -28.6523 -79.4541 -28.5029 -119.852 -15.5342
c-19.3613 6.21484 -38.4082 14.3262 -56.9824 23.6016c-29.6631 -83.0029 -83.1123 -163.413 -165.309 -200.554c-97.75 -44.1699 -213.283 -15.8242 -261.355 84.1797c-29.2656 60.8838 -27.9521 135.268 2.1123 195.361c-37.7549 32.5703 -64.6445 78.29 -75.5957 129.297
c-22.2246 103.509 12.7959 226.343 91.5029 298.465c66.8672 61.2695 165.537 81.752 248.406 41.8027c88.4307 -42.6357 145.169 -144.048 171.189 -235.067zM6.30957 337.417c8.68164 -39.6504 28.7119 -78.3447 57.1318 -108.016
c7.26953 11.0254 15.6123 21.3867 25.0684 30.8389c31.9404 31.9365 72.9482 50.5498 118.559 47.6426c48.4893 -3.0918 91.0039 -27.6768 128.893 -56.3369c30.2139 -22.8623 59.334 -46.2354 90.3105 -67.3701c0.176758 0.597656 0.376953 1.19922 0.549805 1.79688
c25.085 85.5322 26.6895 178.786 8.78809 265.86c-18.0039 87.5771 -59.9121 176.933 -145.798 215.58c-86.2324 38.8086 -180.965 -6.86035 -232.224 -79.8477c-49.4453 -70.4072 -69.7188 -165.938 -51.2783 -250.148zM295.652 -22.0576
c60.7344 42.2744 99.6328 113.656 123.368 183.497c-6.78906 4.2998 -13.4883 8.66602 -20.0654 13.0635c-72.917 48.7842 -179.931 171.953 -269.923 86.2324c-16.6191 -15.8291 -28.9746 -34.8955 -37.3887 -55.6846c24.9434 -17.5479 54.0947 -28.6484 86.2676 -29.8203
c18.4326 -0.668945 18.5391 -18.04 0 -17.375c-34.0684 1.22363 -65.5527 10.7783 -93.2021 26.5361c-13.083 -48.2646 -7.2334 -102.639 14.1416 -146.671c17.1152 -35.2529 46.2471 -69.3057 83.7422 -83.4941c38.585 -14.5977 80.9492 1.36914 113.06 23.7158z" />
    <glyph glyph-name="O" unicode="&#xd4;" horiz-adv-x="613" 
d="M486.673 442.622c27.46 -96.0547 25.4336 -197.436 -4.0957 -292.723c42.6562 -23.8379 102.541 -54.6143 143.392 -19.9707c8.31934 7.05664 37.7305 0.601562 26.5869 -8.8584c-33.75 -28.6523 -79.4541 -28.5029 -119.852 -15.5342
c-19.3613 6.21484 -38.4082 14.3262 -56.9824 23.6016c-29.6631 -83.0029 -83.1123 -163.413 -165.309 -200.554c-97.75 -44.1699 -213.283 -15.8242 -261.355 84.1797c-29.2656 60.8838 -27.9521 135.268 2.1123 195.361c-37.7549 32.5703 -64.6445 78.29 -75.5957 129.297
c-22.2246 103.509 12.7959 226.343 91.5029 298.465c66.8672 61.2695 165.537 81.752 248.406 41.8027c88.4307 -42.6357 145.169 -144.048 171.189 -235.067zM6.30957 337.417c8.68164 -39.6504 28.7119 -78.3447 57.1318 -108.016
c7.26953 11.0254 15.6123 21.3867 25.0684 30.8389c31.9404 31.9365 72.9482 50.5498 118.559 47.6426c48.4893 -3.0918 91.0039 -27.6768 128.893 -56.3369c30.2139 -22.8623 59.334 -46.2354 90.3105 -67.3701c0.176758 0.597656 0.376953 1.19922 0.549805 1.79688
c25.085 85.5322 26.6895 178.786 8.78809 265.86c-18.0039 87.5771 -59.9121 176.933 -145.798 215.58c-86.2324 38.8086 -180.965 -6.86035 -232.224 -79.8477c-49.4453 -70.4072 -69.7188 -165.938 -51.2783 -250.148zM295.652 -22.0576
c60.7344 42.2744 99.6328 113.656 123.368 183.497c-6.78906 4.2998 -13.4883 8.66602 -20.0654 13.0635c-72.917 48.7842 -179.931 171.953 -269.923 86.2324c-16.6191 -15.8291 -28.9746 -34.8955 -37.3887 -55.6846c24.9434 -17.5479 54.0947 -28.6484 86.2676 -29.8203
c18.4326 -0.668945 18.5391 -18.04 0 -17.375c-34.0684 1.22363 -65.5527 10.7783 -93.2021 26.5361c-13.083 -48.2646 -7.2334 -102.639 14.1416 -146.671c17.1152 -35.2529 46.2471 -69.3057 83.7422 -83.4941c38.585 -14.5977 80.9492 1.36914 113.06 23.7158z" />
    <glyph glyph-name="O" unicode="&#xd3;" horiz-adv-x="613" 
d="M486.673 442.622c27.46 -96.0547 25.4336 -197.436 -4.0957 -292.723c42.6562 -23.8379 102.541 -54.6143 143.392 -19.9707c8.31934 7.05664 37.7305 0.601562 26.5869 -8.8584c-33.75 -28.6523 -79.4541 -28.5029 -119.852 -15.5342
c-19.3613 6.21484 -38.4082 14.3262 -56.9824 23.6016c-29.6631 -83.0029 -83.1123 -163.413 -165.309 -200.554c-97.75 -44.1699 -213.283 -15.8242 -261.355 84.1797c-29.2656 60.8838 -27.9521 135.268 2.1123 195.361c-37.7549 32.5703 -64.6445 78.29 -75.5957 129.297
c-22.2246 103.509 12.7959 226.343 91.5029 298.465c66.8672 61.2695 165.537 81.752 248.406 41.8027c88.4307 -42.6357 145.169 -144.048 171.189 -235.067zM6.30957 337.417c8.68164 -39.6504 28.7119 -78.3447 57.1318 -108.016
c7.26953 11.0254 15.6123 21.3867 25.0684 30.8389c31.9404 31.9365 72.9482 50.5498 118.559 47.6426c48.4893 -3.0918 91.0039 -27.6768 128.893 -56.3369c30.2139 -22.8623 59.334 -46.2354 90.3105 -67.3701c0.176758 0.597656 0.376953 1.19922 0.549805 1.79688
c25.085 85.5322 26.6895 178.786 8.78809 265.86c-18.0039 87.5771 -59.9121 176.933 -145.798 215.58c-86.2324 38.8086 -180.965 -6.86035 -232.224 -79.8477c-49.4453 -70.4072 -69.7188 -165.938 -51.2783 -250.148zM295.652 -22.0576
c60.7344 42.2744 99.6328 113.656 123.368 183.497c-6.78906 4.2998 -13.4883 8.66602 -20.0654 13.0635c-72.917 48.7842 -179.931 171.953 -269.923 86.2324c-16.6191 -15.8291 -28.9746 -34.8955 -37.3887 -55.6846c24.9434 -17.5479 54.0947 -28.6484 86.2676 -29.8203
c18.4326 -0.668945 18.5391 -18.04 0 -17.375c-34.0684 1.22363 -65.5527 10.7783 -93.2021 26.5361c-13.083 -48.2646 -7.2334 -102.639 14.1416 -146.671c17.1152 -35.2529 46.2471 -69.3057 83.7422 -83.4941c38.585 -14.5977 80.9492 1.36914 113.06 23.7158z" />
    <glyph glyph-name="P" unicode="P" horiz-adv-x="499" 
d="M-10.3828 613.886c2.41504 28.8291 73.9609 28.4082 73.1943 0.0117188c-4.13379 -154.103 -7.50488 -308.492 1.72754 -462.48c4.6377 -77.3584 11.6279 -154.756 21.8828 -231.579c1.04199 -7.81641 2.0918 -15.6328 3.15039 -23.4453
c1.22754 19.9551 2.55273 39.8398 3.61523 59.5508c4.0166 74.6201 9.02832 149.209 15.3652 223.668c9.83398 115.545 24.7344 235.173 79.3838 339.287c24.3486 46.3848 57.0254 94.8428 106.974 116.068c46.2197 19.6445 103.599 14.2402 136.759 -26.3311
c33.2393 -40.6611 43.7061 -104.681 38.2617 -155.629c-6.0498 -56.6279 -21.7959 -113.999 -47.8594 -164.715c-36.252 -70.541 -100.421 -131.036 -176.225 -153.709c30.4346 -5.69629 60.8691 -11.3965 91.3545 -16.793
c58.9365 -10.4355 118.609 -13.2988 175.462 8.38281c12.2607 4.67676 35.3867 -8.20215 16.0059 -15.6094c-55.7031 -21.2842 -115.879 -22.6016 -174.352 -14.416c-51.2354 7.1709 -103.34 24.1406 -155.468 29.5889
c-15.4512 -1.22754 -31.2129 -0.818359 -47.1758 1.41602c-8.20117 0.310547 -14.082 4.44043 -16.1357 9.19238c-1.40039 -19.2861 -2.72168 -38.541 -4.09082 -57.7168c-4.19727 -58.7559 -7.70996 -117.559 -10.5381 -176.397
c-2.78125 -57.875 -7.43066 -116.541 -0.597656 -174.274c0.267578 -2.25391 -0.754883 -4.06738 -2.51758 -5.46387c0.783203 -6.43945 1.44824 -12.8828 1.79785 -19.3379c0.775391 -14.2275 -30.0723 -13.4053 -36.4209 -5.62109
c-24.1992 29.6865 -33.8994 65.6123 -42.4512 102.332c-8.67383 37.2471 -16.7578 74.7148 -23.2207 112.414c-13.1504 76.7051 -22.5361 153.905 -28.4092 231.503c-11.8398 156.486 -12.5752 313.704 0.527344 470.104zM232.896 540.241
c-26.6504 -43.5215 -45.5752 -91.334 -59.0986 -140.437c-22.8428 -82.9395 -31.292 -169.392 -37.6562 -255.333c1.93164 2.875 5.88867 5.19141 12.4854 5.93457c115.785 13.0986 198.308 95.9639 242.435 199.818c20.7139 48.7568 36.4248 102.568 39.1904 155.699
c2.41895 46.4678 -15.2861 111.23 -69.082 121.253c-57.0762 10.6328 -102.104 -44.2012 -128.273 -86.9355z" />
    <glyph glyph-name="Q" unicode="Q" horiz-adv-x="613" 
d="M-24.4258 337.418c-22.2246 103.509 12.793 226.341 91.4922 298.463c66.8672 61.2695 165.537 81.752 248.406 41.8027c88.4346 -42.6357 145.169 -144.048 171.189 -235.067c27.46 -96.0508 25.4346 -197.431 -4.09863 -292.722
c42.6562 -23.8379 102.541 -54.6143 143.392 -19.9707c8.31934 7.05664 37.7305 0.601562 26.5869 -8.8584c-33.7461 -28.6523 -79.4502 -28.5029 -119.848 -15.5342c-19.3613 6.21484 -38.4082 14.3262 -56.9824 23.6016
c-29.6592 -83.0029 -83.1084 -163.413 -165.305 -200.554c-21.2568 -9.60547 -43.3516 -15.7734 -65.415 -18.5273c1.41992 -70.0537 11.9307 -138.525 62.8232 -190.386c10.8174 -11.0215 -19.3213 -16.9805 -27.1172 -9.03418
c-53.5947 54.6104 -64.3291 125.289 -65.5449 197.793c-68.7393 1.0625 -133.207 35.918 -166.096 104.335c-29.2695 60.8838 -27.9521 135.268 2.1123 195.361c-37.7549 32.5703 -64.6445 78.29 -75.5957 129.297zM295.651 -22.0586
c60.7344 42.2744 99.6357 113.657 123.371 183.498c-6.78906 4.2998 -13.4883 8.66602 -20.0654 13.0635c-72.917 48.7842 -179.931 171.953 -269.923 86.2324c-16.6191 -15.8291 -28.9746 -34.8955 -37.3887 -55.6846c24.9434 -17.5479 54.0908 -28.6484 86.2676 -29.8203
c18.4326 -0.668945 18.5391 -18.04 0 -17.375c-34.0684 1.22363 -65.5566 10.7783 -93.2021 26.5361c-13.083 -48.2646 -7.2373 -102.639 14.1416 -146.671c17.1152 -35.2529 46.2471 -69.3057 83.7422 -83.4941c10.6914 -4.04785 21.6699 -5.67676 32.6406 -5.54297
c0.558594 34.4932 1.87598 68.8096 0.400391 101.427c-0.507812 11.3135 28.6436 11.5537 29.2568 0.000976562c1.64453 -30.8984 0.574219 -63.7324 0.102539 -96.9004c18.1768 5.17285 35.5557 14.2197 50.6562 24.7305zM289.812 667.413
c-86.2324 38.8086 -180.965 -6.86035 -232.224 -79.8477c-49.4453 -70.4072 -69.7188 -165.938 -51.2783 -250.148c8.68164 -39.6504 28.7119 -78.3447 57.1279 -108.016c7.26953 11.0254 15.6123 21.3867 25.0684 30.8389c31.9443 31.9365 72.9521 50.5498 118.559 47.6426
c48.4932 -3.0918 91.0039 -27.6768 128.893 -56.3369c30.2178 -22.8623 59.3379 -46.2354 90.3145 -67.3701c0.176758 0.597656 0.376953 1.19922 0.549805 1.79688c25.085 85.5322 26.6895 178.786 8.78809 265.86c-18.0039 87.5771 -59.9121 176.933 -145.798 215.58z" />
    <glyph glyph-name="R" unicode="R" horiz-adv-x="574" 
d="M95.2559 323.721c22.2285 112.823 58.3516 248.509 152.978 323.216c39.4346 31.1309 91.6367 52.4707 142.593 44.1943c49.2285 -7.99707 74.9346 -46.2549 83.8682 -92.7227c10.3457 -53.835 -7.39453 -111.254 -31.582 -159.066
c-25.2021 -49.8154 -58.4453 -95.7676 -96.6641 -136.382c-43.6191 -46.3574 -95.1416 -86.9834 -151.356 -118.806c5.88477 0.601562 11.8438 0.814453 17.9365 0.40918c29.2266 -1.93164 56.5811 -18.4727 75.502 -40.3945
c43.2539 -50.1143 38.5537 -126.296 47.4395 -188.403c5.03125 -35.1465 12.2891 -69.7539 21.7529 -103.973c7.39941 -26.7441 17.3242 -60.7266 42.5469 -76.3896c27.9053 -17.3311 66.1318 21.5205 81.9453 41.6836c18.2949 23.3262 31.2754 50.6094 42.3643 77.9482
c26.5361 65.4199 43.3369 134.179 60.1963 202.568c2.69043 10.9199 33.5928 8.77246 30.2842 -4.75879c-19.2275 -78.6523 -37.4248 -160.184 -72.457 -233.644c-24.0498 -50.4365 -65.6631 -105.164 -125.146 -112.775
c-30.3633 -3.88672 -63.0518 7.15137 -85.2607 28.0664c-24.8408 23.3965 -36.2441 55.7939 -44.2178 88.1006c-8.77148 35.5322 -15.0303 71.6504 -19.0898 108.021c-4.0752 36.4727 -2.5293 73.291 -6.3252 109.724c-3.0918 29.6631 -8.56738 72.04 -41.0664 84.0371
c-32.0664 11.8359 -73.1328 -12.6738 -104.526 -19.6797c-2.29297 -0.511719 -4.50391 -0.527344 -6.55371 -0.240234c-3.98828 -1.49121 -8.00879 -2.87207 -12.0254 -4.26855c-8.10352 -69.1953 -13.7324 -138.662 -17.123 -208.255
c3.18262 -28.0859 6.02246 -56.1992 7.52148 -84.4111c0.873047 -16.4307 -39.1709 -16.9346 -43.8242 -3.37988c-20.8164 60.6201 -31.7041 124.356 -41.4238 187.554c-9.66895 62.8906 -15.8799 126.143 -19.8721 189.639
c-8.04004 127.818 -6.01855 256.888 8.61035 384.151c3.37109 29.3213 76.3545 28.2393 74.124 0c-9.99512 -126.665 -14.373 -253.326 -9.74707 -380.346c0.582031 -15.9824 1.3252 -31.9609 2.20215 -47.9355c4.45312 1.79004 8.90234 3.58008 13.3076 5.44824
c6.2666 47.3096 13.8936 94.3867 23.0898 141.07zM65.7666 130.023c-1.25879 -0.271484 -2.55273 -0.523438 -3.89062 -0.740234c0.5 -7.03711 1.02344 -14.0703 1.5625 -21.1035c0.750977 7.28516 1.51758 14.5664 2.32812 21.8438zM327.917 667.305
c-53.5244 -18.665 -93.2959 -63.2012 -121.153 -110.951c-57.584 -98.7012 -79.8916 -214.18 -96.417 -325.835c-1.6084 -10.8643 -3.08789 -21.748 -4.5752 -32.6279c73.499 35.5049 140.027 82.6689 196.702 143.277c33.9473 36.3027 64.248 75.9883 88.6484 119.337
c24.416 43.3799 48.1787 95.1143 45.8623 146.141c-1.08594 24.0107 -11.8604 47.6475 -33.4795 59.9395c-23.0469 13.1025 -51.6445 9.06641 -75.5879 0.719727z" />
    <glyph glyph-name="S" unicode="S" horiz-adv-x="635" 
d="M364.815 18.3682c-141.598 85.874 -340.413 153.403 -389.74 331.362c-23.7783 85.7754 0.696289 166.63 55.5615 234.89c48.3711 60.1797 119.003 104.637 196.88 111.619c75.7061 6.78516 153.528 -21.4736 199.021 -83.9941
c45.7676 -62.8984 53.2842 -145.138 53.7324 -220.521c0.0751953 -12.3164 -31.3467 -12.2852 -31.4053 -0.000976562c-0.420898 88.7061 -11.25 196.356 -89.5557 252.744c-81.708 58.835 -188.371 35.1982 -257.822 -30.4258
c-64.5898 -61.0293 -94.3242 -156.435 -66.6826 -242.167c27.0234 -83.8008 89.6699 -146.569 160.95 -195.113c75.124 -51.1641 159.161 -87.5889 234.01 -139.15c36 14.1689 72.748 26.3906 109.146 39.4854c39.7256 14.2949 85.0645 26.7881 112.741 60.7822
c6.30176 7.74121 32.9365 2.98535 24.2002 -8.06445c-27.3818 -34.627 -72.2803 -49.3115 -112.241 -64.1133c-38.1523 -14.1377 -76.8545 -26.7686 -114.786 -41.4883c29.8359 -21.4893 59.2393 -45.5908 78.9619 -76.5439
c22.6025 -35.4766 22.8389 -79.0605 3.86328 -116.146c-35.7842 -69.9434 -116.214 -107.316 -193.21 -102.974c-79.6084 4.48828 -142.519 69.2939 -113.831 150.629c22.5117 63.8262 86.9951 105.074 148.575 134.116c-2.80469 1.70312 -5.59766 3.39453 -8.36719 5.07422
zM472.108 -66.9814c-20.1084 27.9287 -48.9844 48.9766 -78.4189 67.6182c-34.6436 -16.5723 -68.0361 -36.6299 -95.9961 -62.6504c-36.3975 -33.8721 -65.3447 -87.5342 -43.0254 -137.278c40.2559 -89.7129 181.381 -59.0781 228.753 7.66699
c25.6152 36.0947 12.7803 91.1768 -11.3125 124.644z" />
    <glyph glyph-name="T" unicode="T" horiz-adv-x="623" 
d="M80.9033 647.723c32.8096 4.48828 65.3252 10.9795 97.5332 18.6221c58.2451 13.8223 115.668 31.3027 173.417 47.332c4 1.78613 8.67285 3.02539 13.6328 3.7334c54.3311 14.8213 109.023 28.0303 165.038 35.3311c53.6582 6.99805 112.068 11.2656 162.808 -11.3096
c40.5635 -18.0469 73.4248 -55.0068 74.5342 -100.876c0.298828 -12.2412 -31.1191 -12.3477 -31.4062 0c-1.87598 81.2168 -90.5586 103.092 -156.47 99.1816c-58.4102 -3.46582 -116.08 -15.7822 -172.791 -30.5254c4.44141 -3.42578 7.43848 -7.83105 8.06348 -13.2754
c18.8496 -163.889 35.3545 -328.848 39.0322 -493.881c0.853516 -38.4033 1.51855 -76.917 0.0478516 -115.297c64.334 10.9277 127.378 26.0605 183.695 60.9834c9.2002 5.7041 35.8779 -2.68652 21.1191 -12.041c-62.7725 -39.7764 -133.68 -55.3184 -205.664 -67.0762
c-1.51855 -26.4932 -4.2207 -52.8994 -8.75586 -79.1484c-9.77539 -56.5488 -25.8955 -115.132 -65.0977 -158.768c-70.0449 -77.96 -206.532 -72.2998 -259.82 22.5625c-27.1299 48.2969 -16.832 102.907 24.1992 139.485c40.6064 36.2012 96.3018 53.7061 148.213 66.0342
c31.3662 7.44629 63.5547 12.6621 95.8809 17.5986c-0.00390625 76.0244 -7.50879 152.722 -13.0039 226.964c-9.57422 129.309 -23.8057 258.232 -35.6377 387.345c-64.4561 -18.1807 -128.755 -37.2275 -194.485 -50.3379
c-56.6123 -11.293 -133.234 -30.4971 -185.587 3.50879c-14.9512 9.71191 12.25 18.3223 21.5566 12.2881c29.6357 -19.2158 66.8594 -12.9619 99.9482 -8.43457zM375.404 -73.2168c8.2959 43.1396 11.8369 87.2197 12.5645 131.618
c-23.1729 -3.65039 -46.2393 -7.54102 -68.96 -12.3711c-51.2197 -10.8838 -108.493 -26.4922 -148.498 -62.0986c-42.7266 -38.0303 -46.2119 -96.0703 -11.4189 -141.059c32.4678 -41.9756 93.2969 -62.9023 143.018 -40.2646
c45.1338 20.5488 64.6367 79.1436 73.2949 124.175z" />
    <glyph glyph-name="U" unicode="U" horiz-adv-x="815" 
d="M194.368 -67.459c76.5986 -80.1865 183.997 -15.9268 241.554 53.5127c10.3496 12.4854 19.8379 25.6436 28.7275 39.2266c-30.123 122.728 -39.3037 250.856 -37.1875 376.983c2.01758 120.242 16.8945 253.398 86.2197 355.491
c13.8105 20.3447 30.7129 37.5068 55.6875 42.6084c20.8125 4.24805 43.4111 -0.488281 56.2031 -18.5078c15.0889 -21.2568 16.5879 -53.8428 19.2783 -78.6875c3.4502 -31.8311 3.57227 -63.9131 2.43555 -95.877c-4.58301 -128.903 -26.5635 -257.401 -63.9639 -380.817
c-14.6641 -48.3906 -31.6611 -98.9883 -54.2246 -146.565c5.30664 -30.5918 11.7148 -60.9746 19.5156 -91.0469c11.2773 -43.4697 20.7969 -94.0127 49.0713 -130.375c14.6523 -18.8457 33.085 -31.6572 57.583 -22.8652c23.3926 8.39453 43.2373 26.6426 59.9512 44.4541
c64.8691 69.1289 90.2998 165.463 113.721 254.739c2.69824 10.2861 31.7754 8.18555 28.5107 -4.48047c-6.6084 -25.6514 -13.3271 -51.2822 -21.0293 -76.6338c-27.873 -91.7783 -79.3281 -212.814 -182.608 -239.465
c-107.002 -27.6094 -154.744 86.3701 -179.585 174.399c-17.3594 -22.4648 -37.0469 -42.9629 -59.6338 -60.6016c-81.2363 -63.4453 -195.972 -80.4736 -276.067 -6.02637c-40.0713 37.2471 -63.9561 88.207 -84.2852 138.081
c-23.4678 57.5762 -39.2217 118.846 -51.1875 179.773c-24.0029 122.244 -31.3701 249.161 -31.0439 373.521c0.0791016 29.3564 72.4141 29.2031 74.7393 0c9.8457 -123.68 12.3906 -247.415 33.1045 -370.029c10.3096 -61.0176 24.9072 -120.65 44.9453 -179.226
c15.8096 -46.2158 35.2686 -95.6807 69.5693 -131.587zM507.355 324.469c1.30566 -62.874 5.16992 -125.981 13.25 -188.479c17.9014 45.4766 31.9053 92.625 44.3516 138.404c30.4219 111.898 47.5332 228.01 50.0703 343.976
c0.645508 29.5137 0.0517578 59.1221 -3.46875 88.459c-1.75391 14.625 -4.24805 29.2773 -8.22461 43.4736c-1.99805 7.13574 -5.88086 24.1016 -13.6025 27.4688c-24.6084 10.7305 -52.7529 -114.763 -56.8867 -133.073
c-23.6719 -104.85 -27.7119 -213.13 -25.4893 -320.229z" />
    <glyph glyph-name="U" unicode="&#xdc;" horiz-adv-x="815" 
d="M194.368 -67.459c76.5986 -80.1865 183.997 -15.9268 241.554 53.5127c10.3496 12.4854 19.8379 25.6436 28.7275 39.2266c-30.123 122.728 -39.3037 250.856 -37.1875 376.983c2.01758 120.242 16.8945 253.398 86.2197 355.491
c13.8105 20.3447 30.7129 37.5068 55.6875 42.6084c20.8125 4.24805 43.4111 -0.488281 56.2031 -18.5078c15.0889 -21.2568 16.5879 -53.8428 19.2783 -78.6875c3.4502 -31.8311 3.57227 -63.9131 2.43555 -95.877c-4.58301 -128.903 -26.5635 -257.401 -63.9639 -380.817
c-14.6641 -48.3906 -31.6611 -98.9883 -54.2246 -146.565c5.30664 -30.5918 11.7148 -60.9746 19.5156 -91.0469c11.2773 -43.4697 20.7969 -94.0127 49.0713 -130.375c14.6523 -18.8457 33.085 -31.6572 57.583 -22.8652c23.3926 8.39453 43.2373 26.6426 59.9512 44.4541
c64.8691 69.1289 90.2998 165.463 113.721 254.739c2.69824 10.2861 31.7754 8.18555 28.5107 -4.48047c-6.6084 -25.6514 -13.3271 -51.2822 -21.0293 -76.6338c-27.873 -91.7783 -79.3281 -212.814 -182.608 -239.465
c-107.002 -27.6094 -154.744 86.3701 -179.585 174.399c-17.3594 -22.4648 -37.0469 -42.9629 -59.6338 -60.6016c-81.2363 -63.4453 -195.972 -80.4736 -276.067 -6.02637c-40.0713 37.2471 -63.9561 88.207 -84.2852 138.081
c-23.4678 57.5762 -39.2217 118.846 -51.1875 179.773c-24.0029 122.244 -31.3701 249.161 -31.0439 373.521c0.0791016 29.3564 72.4141 29.2031 74.7393 0c9.8457 -123.68 12.3906 -247.415 33.1045 -370.029c10.3096 -61.0176 24.9072 -120.65 44.9453 -179.226
c15.8096 -46.2158 35.2686 -95.6807 69.5693 -131.587zM507.355 324.469c1.30566 -62.874 5.16992 -125.981 13.25 -188.479c17.9014 45.4766 31.9053 92.625 44.3516 138.404c30.4219 111.898 47.5332 228.01 50.0703 343.976
c0.645508 29.5137 0.0517578 59.1221 -3.46875 88.459c-1.75391 14.625 -4.24805 29.2773 -8.22461 43.4736c-1.99805 7.13574 -5.88086 24.1016 -13.6025 27.4688c-24.6084 10.7305 -52.7529 -114.763 -56.8867 -133.073
c-23.6719 -104.85 -27.7119 -213.13 -25.4893 -320.229z" />
    <glyph glyph-name="U" unicode="&#xdb;" horiz-adv-x="815" 
d="M194.368 -67.459c76.5986 -80.1865 183.997 -15.9268 241.554 53.5127c10.3496 12.4854 19.8379 25.6436 28.7275 39.2266c-30.123 122.728 -39.3037 250.856 -37.1875 376.983c2.01758 120.242 16.8945 253.398 86.2197 355.491
c13.8105 20.3447 30.7129 37.5068 55.6875 42.6084c20.8125 4.24805 43.4111 -0.488281 56.2031 -18.5078c15.0889 -21.2568 16.5879 -53.8428 19.2783 -78.6875c3.4502 -31.8311 3.57227 -63.9131 2.43555 -95.877c-4.58301 -128.903 -26.5635 -257.401 -63.9639 -380.817
c-14.6641 -48.3906 -31.6611 -98.9883 -54.2246 -146.565c5.30664 -30.5918 11.7148 -60.9746 19.5156 -91.0469c11.2773 -43.4697 20.7969 -94.0127 49.0713 -130.375c14.6523 -18.8457 33.085 -31.6572 57.583 -22.8652c23.3926 8.39453 43.2373 26.6426 59.9512 44.4541
c64.8691 69.1289 90.2998 165.463 113.721 254.739c2.69824 10.2861 31.7754 8.18555 28.5107 -4.48047c-6.6084 -25.6514 -13.3271 -51.2822 -21.0293 -76.6338c-27.873 -91.7783 -79.3281 -212.814 -182.608 -239.465
c-107.002 -27.6094 -154.744 86.3701 -179.585 174.399c-17.3594 -22.4648 -37.0469 -42.9629 -59.6338 -60.6016c-81.2363 -63.4453 -195.972 -80.4736 -276.067 -6.02637c-40.0713 37.2471 -63.9561 88.207 -84.2852 138.081
c-23.4678 57.5762 -39.2217 118.846 -51.1875 179.773c-24.0029 122.244 -31.3701 249.161 -31.0439 373.521c0.0791016 29.3564 72.4141 29.2031 74.7393 0c9.8457 -123.68 12.3906 -247.415 33.1045 -370.029c10.3096 -61.0176 24.9072 -120.65 44.9453 -179.226
c15.8096 -46.2158 35.2686 -95.6807 69.5693 -131.587zM507.355 324.469c1.30566 -62.874 5.16992 -125.981 13.25 -188.479c17.9014 45.4766 31.9053 92.625 44.3516 138.404c30.4219 111.898 47.5332 228.01 50.0703 343.976
c0.645508 29.5137 0.0517578 59.1221 -3.46875 88.459c-1.75391 14.625 -4.24805 29.2773 -8.22461 43.4736c-1.99805 7.13574 -5.88086 24.1016 -13.6025 27.4688c-24.6084 10.7305 -52.7529 -114.763 -56.8867 -133.073
c-23.6719 -104.85 -27.7119 -213.13 -25.4893 -320.229z" />
    <glyph glyph-name="U" unicode="&#xda;" horiz-adv-x="815" 
d="M194.368 -67.459c76.5986 -80.1865 183.997 -15.9268 241.554 53.5127c10.3496 12.4854 19.8379 25.6436 28.7275 39.2266c-30.123 122.728 -39.3037 250.856 -37.1875 376.983c2.01758 120.242 16.8945 253.398 86.2197 355.491
c13.8105 20.3447 30.7129 37.5068 55.6875 42.6084c20.8125 4.24805 43.4111 -0.488281 56.2031 -18.5078c15.0889 -21.2568 16.5879 -53.8428 19.2783 -78.6875c3.4502 -31.8311 3.57227 -63.9131 2.43555 -95.877c-4.58301 -128.903 -26.5635 -257.401 -63.9639 -380.817
c-14.6641 -48.3906 -31.6611 -98.9883 -54.2246 -146.565c5.30664 -30.5918 11.7148 -60.9746 19.5156 -91.0469c11.2773 -43.4697 20.7969 -94.0127 49.0713 -130.375c14.6523 -18.8457 33.085 -31.6572 57.583 -22.8652c23.3926 8.39453 43.2373 26.6426 59.9512 44.4541
c64.8691 69.1289 90.2998 165.463 113.721 254.739c2.69824 10.2861 31.7754 8.18555 28.5107 -4.48047c-6.6084 -25.6514 -13.3271 -51.2822 -21.0293 -76.6338c-27.873 -91.7783 -79.3281 -212.814 -182.608 -239.465
c-107.002 -27.6094 -154.744 86.3701 -179.585 174.399c-17.3594 -22.4648 -37.0469 -42.9629 -59.6338 -60.6016c-81.2363 -63.4453 -195.972 -80.4736 -276.067 -6.02637c-40.0713 37.2471 -63.9561 88.207 -84.2852 138.081
c-23.4678 57.5762 -39.2217 118.846 -51.1875 179.773c-24.0029 122.244 -31.3701 249.161 -31.0439 373.521c0.0791016 29.3564 72.4141 29.2031 74.7393 0c9.8457 -123.68 12.3906 -247.415 33.1045 -370.029c10.3096 -61.0176 24.9072 -120.65 44.9453 -179.226
c15.8096 -46.2158 35.2686 -95.6807 69.5693 -131.587zM507.355 324.469c1.30566 -62.874 5.16992 -125.981 13.25 -188.479c17.9014 45.4766 31.9053 92.625 44.3516 138.404c30.4219 111.898 47.5332 228.01 50.0703 343.976
c0.645508 29.5137 0.0517578 59.1221 -3.46875 88.459c-1.75391 14.625 -4.24805 29.2773 -8.22461 43.4736c-1.99805 7.13574 -5.88086 24.1016 -13.6025 27.4688c-24.6084 10.7305 -52.7529 -114.763 -56.8867 -133.073
c-23.6719 -104.85 -27.7119 -213.13 -25.4893 -320.229z" />
    <glyph glyph-name="V" unicode="V" horiz-adv-x="725" 
d="M250.455 -63.3047c24.1289 -29.3916 61.5459 -58.9893 102.243 -51.1299c41.8379 8.08789 71.8037 54.3193 92.2979 87.8096c23.582 38.5371 41.582 80.249 57.1279 122.586c15.0264 40.9209 28.208 82.5732 39.8008 124.679
c-14.0312 14.9316 -26.9922 30.332 -38.6709 45.6338c-66.2256 86.7666 -103.721 192.623 -105.916 301.875c-0.979492 48.8594 4.77539 98.3203 18.1611 145.378c11.5176 40.4883 30.6426 85.7051 65.9775 111.163c32.1455 23.1611 75.3994 19.2197 103.367 -8.88965
c33.5059 -33.6758 40.582 -91.8145 44.5156 -136.822c9.51562 -108.882 -5.07812 -222.11 -25.2373 -329.037c-8.05176 -42.707 -16.8438 -86.0234 -27.165 -129.061c16.7803 -16.5879 34.6699 -32.0547 53.6143 -46.0898
c36.209 -26.8232 78.1484 -52.7852 124.155 -56.1562c18.0635 -1.32129 18.3896 -18.5508 0 -17.2012c-68.374 5.00781 -132.248 43.2617 -184.71 91.4131c-13.6025 -52.8516 -29.833 -104.964 -50.2598 -154.646c-32.877 -79.9541 -86.8105 -181.027 -185.937 -181.035
c-102.025 -0.0078125 -166.804 88.2031 -209.094 170.159c-93.1826 180.579 -118.79 387.958 -160.45 584.394c-5.23535 24.6992 65.9824 29.333 72.1973 5.57031c50.0273 -191.22 67.3662 -392.481 152.154 -573.355c17.3271 -36.9678 35.7793 -75.5049 61.8271 -107.237z
M541.007 260.204c2.84375 -3.46191 5.75195 -6.87012 8.68652 -10.2529c10.3379 40.4297 19.2598 81.2168 26.6436 122.197c17.1934 95.4248 29.0967 194.768 23.7275 291.856c-2.45898 44.4258 -6.73438 103.15 -36.7197 138.785
c-19.9863 23.751 -45.4287 25.3164 -67.9521 4.19336c-14.6055 -13.6963 -25.4932 -31.4561 -34.1904 -49.3379c-38.8008 -79.7656 -41.7471 -179.985 -26.5674 -265.954c14.9473 -84.6465 51.7461 -165.08 106.372 -231.487z" />
    <glyph glyph-name="W" unicode="W" horiz-adv-x="1040" 
d="M55.8867 306.626c6.9541 -85.5674 20.7588 -171.35 47.3457 -253.137c12.3711 -38.0459 25.7881 -76.2646 45.6406 -111.144c16.9893 -29.8438 44.418 -71.5361 80.4893 -79.7578c43.9062 -10.0029 81.9326 28.7197 104.555 61.3096
c23.2158 33.4395 40.874 71.0762 55.3965 108.996c30.3438 79.2305 45.7676 162.992 60.6367 246.23c-0.349609 5.44824 -0.683594 10.8887 -1.00195 16.3213c-1.59277 27.0117 67.8545 27.6807 70.1279 0c7.20605 -87.8213 12.4453 -177.747 43.2217 -261.187
c14.1807 -38.4434 34.0771 -78.2314 62.0215 -108.587c13.3115 -14.46 29.2422 -28.6758 48.1592 -35.1113c22.1465 -7.53711 44.3281 -0.185547 63.8271 11.1318c71.5596 41.5312 103.642 134.588 125.383 209.617c3.24512 11.1953 6.23438 22.4492 9.00781 33.7539
c-23.1885 11.9033 -44.7998 25.6475 -63.709 39.9463c-79.832 60.373 -129.631 148.553 -151.883 245.213c-20.8955 90.7559 -22.752 190.429 1.30176 280.736c17.9844 67.5322 68.5156 175.049 157.136 148.458c84.6904 -25.4111 100.838 -145.087 110.609 -218.476
c14.082 -105.767 13.4287 -214.066 5.02246 -320.293c-4.47656 -56.5693 -12.1035 -113.422 -24.8682 -168.979c50.7471 -24.0186 108.63 -37.5029 158.06 -19.7471c11.6826 4.19727 33.8008 -8.11523 15.2305 -14.8535
c-56.1797 -20.3877 -120.423 -9.6416 -178.148 14.5732c-9.19629 -36.1855 -20.6865 -71.7412 -35.0674 -106.211c-31.0908 -74.5176 -90.1611 -165.273 -181.086 -164.573c-91.0508 0.704102 -153.567 87.3652 -184.93 163.354
c-20.0928 48.6904 -31.5674 100.271 -38.7305 152.549c-13.7871 -67.457 -31.6768 -134.045 -61.1748 -196.369c-34.2969 -72.4688 -92.9307 -153.237 -183.962 -142.282c-89.3477 10.75 -141.696 109.889 -170.919 184.666
c-35.3555 90.4766 -53.332 187.412 -61.9824 283.852c-8.76367 97.7178 -10.1602 197.002 -3.06348 294.869c2.02148 27.8926 70.5488 27.8174 71.0527 -0.000976562c1.77832 -98.3711 -1.67969 -196.655 6.30176 -294.869zM834.086 194.037
c12.501 -9.33398 26.5488 -18.6631 41.6104 -27.3486c15.2979 69.707 22.5908 141.152 25.9893 212.351c4.34668 91.0898 3.42578 182.849 -9.66895 273.238c-6.12891 42.2979 -13.7207 85.4297 -31.6221 124.553c-14.625 31.9639 -46.625 81.9717 -88.5693 64.8252
c-36 -14.7197 -56.6982 -56.1523 -70.4854 -89.9971c-16.1396 -39.623 -24.6797 -81.8145 -28.373 -124.337c-7.13184 -82.0156 0.361328 -167.614 27.3613 -245.641c25.6904 -74.2422 70.5059 -140.421 133.758 -187.644z" />
    <glyph glyph-name="X" unicode="X" horiz-adv-x="690" 
d="M271.773 548.872c-22.791 -29.1875 -43.0273 -60.3311 -61.5625 -92.3623c-13.9961 -24.1953 -26.957 -48.9258 -39.2578 -73.9941c1.39258 -5.74316 2.72168 -11.498 4.16504 -17.2334c38.0654 -151.368 83.6201 -323.82 203.862 -432.525
c27.0947 -24.4941 60.9629 -46.6602 98.1787 -50.0742c39.7568 -3.65039 77.3467 18.5625 106.03 44.0996c59.6494 53.1113 98.8516 128.924 118.771 205.44c2.7334 10.5029 32.416 8.36719 29.0996 -4.57031c-22.8936 -89.3164 -73.7549 -183.058 -152.978 -234.316
c-69.4199 -44.9141 -156.006 -37.4912 -223.321 7.62305c-72.4375 48.5439 -124.711 126.303 -162.029 203.826c-27.5469 57.2256 -49.0518 117.315 -67.2324 178.31c-3.32031 -7.66309 -6.62891 -15.3301 -9.91699 -23.001
c-30.5879 -71.3203 -60.3887 -143.136 -96.9746 -211.659c-10.8525 -20.3291 -72.2285 -142.065 -107.619 -102.089c-1.67578 1.8916 -2.62012 4.08301 -1.50684 6.56152c0.374023 0.822266 0.744141 1.64844 1.11426 2.47461c2.23828 4.97559 10.4316 6.75 17.6064 5.92383
c3.69336 3.87109 7.6582 8.92578 9.22754 10.6328c6.54199 7.1123 12.415 14.7832 17.8867 22.7412c8.5752 12.4658 16.0605 25.667 23.3926 38.8916c17.8896 32.2715 34.0879 65.459 49.4209 99.0127c29.4629 64.4756 55.7354 130.348 84.6787 195.056
c-4.10254 15.0615 -8.06348 30.1426 -11.8867 45.2275c-24.8135 97.9502 -46.9043 197.155 -62.875 296.946c-2.4668 15.4082 26.0947 20.25 35.5234 20.25c14.4365 0 31.9209 -4.67676 35.5244 -20.25c18.6611 -80.7207 33.4785 -162.229 51.5498 -243.063
c16.3799 30.9258 34.0811 61.1318 53.749 90.1143c31.374 46.2393 71.6221 111.246 131.81 119.707c15.8604 2.23047 29.7031 -14.6406 8.5127 -17.5986c-35.9609 -5.02344 -62.1582 -43.4863 -82.9434 -70.1006z" />
    <glyph glyph-name="Y" unicode="Y" horiz-adv-x="644" 
d="M40.1387 614.642c8.35449 -118.885 11.585 -242.28 61.1562 -352.865c21.6777 -48.3594 50.1289 -104.181 107.174 -115.568c57.1826 -11.415 111.789 23.5078 149.091 64.0117c-10.8291 52.5527 -21.3125 105.164 -28.4131 158.354
c-14.1768 106.18 -23.3857 231.165 34.3438 326.681c22.7129 37.5771 63.0947 76.417 110.892 57.7832c42.1914 -16.4463 49.4648 -82.3887 51.0898 -121.174c4.61426 -110.156 -22.5625 -224.353 -70.8516 -323.026c-8.88574 -18.1611 -18.7041 -36.0039 -29.5645 -53.0361
c11.624 -70.4229 24.3252 -140.677 32.0664 -211.666c0.672852 -6.1875 1.30176 -12.375 1.8877 -18.5664c24.0381 14.2471 48.7061 27.4561 73.7041 39.957c44.7129 22.3584 95.0352 40.0088 127.932 79.5059c6.70312 8.04395 34.5918 2.83594 25.2617 -8.41797
c-36.8262 -44.4258 -94.7168 -63.708 -144.606 -89.3516c-27.2676 -14.0195 -54.252 -28.959 -80.2881 -45.3506c2.8877 -38.5488 3.76074 -77.1768 1.21973 -115.859c-3.28418 -50.0234 -12.8311 -107.111 -39.0684 -150.668
c-20.8838 -34.6709 -55.3145 -60.0146 -97.6045 -49.8896c-35.8779 8.58691 -58.2285 42.5459 -64.168 77.3105c-15.8252 92.5928 66.9648 172.035 134.076 221.099c0.585938 0.428711 1.19141 0.833984 1.77734 1.25879c-2.18359 19.7344 -4.85059 39.4062 -7.8877 58.9678
c-7.1709 46.1729 -16.4854 91.9795 -25.9453 137.759c-32.582 -28.8252 -71.5596 -49.4258 -118.59 -56.0381c-48.7568 -6.85254 -96.7939 4.99121 -135.697 35.5195c-41.2158 32.3418 -68.165 80.4736 -87.5693 128.259c-41.6211 102.493 -51.0498 215.549 -55.542 325.013
c-1.17969 28.7344 72.0752 29.1904 74.125 -0.000976562zM403.336 -120.805c0.102539 26.5283 -1.2002 53.0869 -3.48535 79.5674c-6.09668 -4.87012 -12.0996 -9.8584 -17.9883 -14.9922c-42.0029 -36.6104 -81.9326 -84.5371 -89.875 -141.574
c-3.4375 -24.7031 -0.65625 -49.7012 12.0488 -71.501c17.0127 -29.1914 46.2393 -39.2295 72.2402 -13.4883c21.1309 20.9229 22.6768 51.8486 24.7188 79.8438c1.99414 27.3105 2.23438 54.7783 2.34082 82.1445zM417.456 679.936
c-14.5068 -50.6016 -17.543 -106.995 -17.9717 -159.383c-0.432617 -53.3115 2.9541 -106.014 9.69629 -158.896c2.74219 -21.4932 5.87305 -42.9316 9.20117 -64.3379c35.0557 65.1045 57.1465 139.422 68.2979 209.145c8.20117 51.2666 13.2051 106.899 4.73633 158.457
c-2.90332 17.6582 -12.9854 65.8525 -34.8955 70.7148c-22.1777 4.9209 -34.8672 -41.0625 -39.0645 -55.6992z" />
    <glyph glyph-name="Y" unicode="&#x178;" horiz-adv-x="644" 
d="M40.1387 614.642c8.35449 -118.885 11.585 -242.28 61.1562 -352.865c21.6777 -48.3594 50.1289 -104.181 107.174 -115.568c57.1826 -11.415 111.789 23.5078 149.091 64.0117c-10.8291 52.5527 -21.3125 105.164 -28.4131 158.354
c-14.1768 106.18 -23.3857 231.165 34.3438 326.681c22.7129 37.5771 63.0947 76.417 110.892 57.7832c42.1914 -16.4463 49.4648 -82.3887 51.0898 -121.174c4.61426 -110.156 -22.5625 -224.353 -70.8516 -323.026c-8.88574 -18.1611 -18.7041 -36.0039 -29.5645 -53.0361
c11.624 -70.4229 24.3252 -140.677 32.0664 -211.666c0.672852 -6.1875 1.30176 -12.375 1.8877 -18.5664c24.0381 14.2471 48.7061 27.4561 73.7041 39.957c44.7129 22.3584 95.0352 40.0088 127.932 79.5059c6.70312 8.04395 34.5918 2.83594 25.2617 -8.41797
c-36.8262 -44.4258 -94.7168 -63.708 -144.606 -89.3516c-27.2676 -14.0195 -54.252 -28.959 -80.2881 -45.3506c2.8877 -38.5488 3.76074 -77.1768 1.21973 -115.859c-3.28418 -50.0234 -12.8311 -107.111 -39.0684 -150.668
c-20.8838 -34.6709 -55.3145 -60.0146 -97.6045 -49.8896c-35.8779 8.58691 -58.2285 42.5459 -64.168 77.3105c-15.8252 92.5928 66.9648 172.035 134.076 221.099c0.585938 0.428711 1.19141 0.833984 1.77734 1.25879c-2.18359 19.7344 -4.85059 39.4062 -7.8877 58.9678
c-7.1709 46.1729 -16.4854 91.9795 -25.9453 137.759c-32.582 -28.8252 -71.5596 -49.4258 -118.59 -56.0381c-48.7568 -6.85254 -96.7939 4.99121 -135.697 35.5195c-41.2158 32.3418 -68.165 80.4736 -87.5693 128.259c-41.6211 102.493 -51.0498 215.549 -55.542 325.013
c-1.17969 28.7344 72.0752 29.1904 74.125 -0.000976562zM403.336 -120.805c0.102539 26.5283 -1.2002 53.0869 -3.48535 79.5674c-6.09668 -4.87012 -12.0996 -9.8584 -17.9883 -14.9922c-42.0029 -36.6104 -81.9326 -84.5371 -89.875 -141.574
c-3.4375 -24.7031 -0.65625 -49.7012 12.0488 -71.501c17.0127 -29.1914 46.2393 -39.2295 72.2402 -13.4883c21.1309 20.9229 22.6768 51.8486 24.7188 79.8438c1.99414 27.3105 2.23438 54.7783 2.34082 82.1445zM417.456 679.936
c-14.5068 -50.6016 -17.543 -106.995 -17.9717 -159.383c-0.432617 -53.3115 2.9541 -106.014 9.69629 -158.896c2.74219 -21.4932 5.87305 -42.9316 9.20117 -64.3379c35.0557 65.1045 57.1465 139.422 68.2979 209.145c8.20117 51.2666 13.2051 106.899 4.73633 158.457
c-2.90332 17.6582 -12.9854 65.8525 -34.8955 70.7148c-22.1777 4.9209 -34.8672 -41.0625 -39.0645 -55.6992z" />
    <glyph glyph-name="Y" unicode="&#xdd;" horiz-adv-x="644" 
d="M40.1387 614.642c8.35449 -118.885 11.585 -242.28 61.1562 -352.865c21.6777 -48.3594 50.1289 -104.181 107.174 -115.568c57.1826 -11.415 111.789 23.5078 149.091 64.0117c-10.8291 52.5527 -21.3125 105.164 -28.4131 158.354
c-14.1768 106.18 -23.3857 231.165 34.3438 326.681c22.7129 37.5771 63.0947 76.417 110.892 57.7832c42.1914 -16.4463 49.4648 -82.3887 51.0898 -121.174c4.61426 -110.156 -22.5625 -224.353 -70.8516 -323.026c-8.88574 -18.1611 -18.7041 -36.0039 -29.5645 -53.0361
c11.624 -70.4229 24.3252 -140.677 32.0664 -211.666c0.672852 -6.1875 1.30176 -12.375 1.8877 -18.5664c24.0381 14.2471 48.7061 27.4561 73.7041 39.957c44.7129 22.3584 95.0352 40.0088 127.932 79.5059c6.70312 8.04395 34.5918 2.83594 25.2617 -8.41797
c-36.8262 -44.4258 -94.7168 -63.708 -144.606 -89.3516c-27.2676 -14.0195 -54.252 -28.959 -80.2881 -45.3506c2.8877 -38.5488 3.76074 -77.1768 1.21973 -115.859c-3.28418 -50.0234 -12.8311 -107.111 -39.0684 -150.668
c-20.8838 -34.6709 -55.3145 -60.0146 -97.6045 -49.8896c-35.8779 8.58691 -58.2285 42.5459 -64.168 77.3105c-15.8252 92.5928 66.9648 172.035 134.076 221.099c0.585938 0.428711 1.19141 0.833984 1.77734 1.25879c-2.18359 19.7344 -4.85059 39.4062 -7.8877 58.9678
c-7.1709 46.1729 -16.4854 91.9795 -25.9453 137.759c-32.582 -28.8252 -71.5596 -49.4258 -118.59 -56.0381c-48.7568 -6.85254 -96.7939 4.99121 -135.697 35.5195c-41.2158 32.3418 -68.165 80.4736 -87.5693 128.259c-41.6211 102.493 -51.0498 215.549 -55.542 325.013
c-1.17969 28.7344 72.0752 29.1904 74.125 -0.000976562zM403.336 -120.805c0.102539 26.5283 -1.2002 53.0869 -3.48535 79.5674c-6.09668 -4.87012 -12.0996 -9.8584 -17.9883 -14.9922c-42.0029 -36.6104 -81.9326 -84.5371 -89.875 -141.574
c-3.4375 -24.7031 -0.65625 -49.7012 12.0488 -71.501c17.0127 -29.1914 46.2393 -39.2295 72.2402 -13.4883c21.1309 20.9229 22.6768 51.8486 24.7188 79.8438c1.99414 27.3105 2.23438 54.7783 2.34082 82.1445zM417.456 679.936
c-14.5068 -50.6016 -17.543 -106.995 -17.9717 -159.383c-0.432617 -53.3115 2.9541 -106.014 9.69629 -158.896c2.74219 -21.4932 5.87305 -42.9316 9.20117 -64.3379c35.0557 65.1045 57.1465 139.422 68.2979 209.145c8.20117 51.2666 13.2051 106.899 4.73633 158.457
c-2.90332 17.6582 -12.9854 65.8525 -34.8955 70.7148c-22.1777 4.9209 -34.8672 -41.0625 -39.0645 -55.6992z" />
    <glyph glyph-name="Z" unicode="Z" horiz-adv-x="688" 
d="M53.5332 571.883c20.4707 7.74512 40.6348 16.2441 60.6172 25.1611c37.7471 16.8516 74.9902 34.832 113.06 50.96c73.1455 30.9893 159.803 61.9902 239.726 40.7061c62.918 -16.7568 102.758 -67.2441 111.546 -131.012
c9.18457 -66.6387 -15.8291 -136.487 -40.6025 -197.281c-20.6826 -50.7588 -46.4004 -99.0518 -74.1396 -146.317c10.3418 0.991211 20.7656 1.47461 31.3389 1.14062c18.4521 -0.582031 18.5273 -17.9805 0 -17.375
c-14.3691 0.467773 -28.5186 -0.637695 -42.5381 -2.66309c-41.3496 -68.8535 -86.2197 -135.894 -125.288 -205.581c-17.9688 -32.0508 -34.6982 -64.8018 -50.1768 -98.1309c-14.6719 -31.5986 -30.1895 -64.0156 -32.8252 -99.1738
c-1.25488 -16.6943 -1.58105 -36.0244 10.1289 -49.4502c13.5869 -15.5732 37.0938 -18.0195 56.2227 -14.9551c39.3789 6.30957 71.1504 34.332 97.7646 62.123c103.517 108.095 180.521 239.052 293.619 338.398c8.13477 7.14746 37.2627 0.845703 26.3232 -8.77148
c-66.0566 -58.083 -120.619 -127.047 -174.671 -196.054c-26.418 -33.7266 -52.8125 -67.5 -80.6855 -100.047c-27.0518 -31.5908 -54.9609 -63.6963 -89.6553 -87.1562c-56.75 -38.3682 -142.632 -41.9678 -187.688 16.875
c-21.7139 28.3574 -16.2422 63.4375 -7.22266 95.5674c9.72363 34.627 25.5088 68.2275 41.6211 100.286c39.4023 78.4082 87.4941 151.758 134.469 225.765c-15.9707 -4.0752 -31.9961 -7.81641 -48.2021 -10.3262c-14.9678 -2.3125 -27.9404 13.4883 -8.02441 16.5879
c23.7041 3.68945 46.9238 9.73535 70.1162 15.7266c27.873 44.3271 55.0146 89.0791 79.2969 135.503c33.8018 64.6211 68.8184 134.041 78.1602 207.214c4.51562 35.3711 1.23145 72.1621 -23.9746 99.4453c-26.9727 29.1953 -67.1348 40.2334 -105.893 38.9277
c-82.6758 -2.78906 -162.445 -43.4824 -236.157 -77.2324c-35.4766 -16.2461 -71.0752 -32.5742 -107.814 -45.7949c-32.0859 -11.5449 -65.8398 -22.3975 -99.4326 -10.7148c-17.0205 5.91992 3.28516 16.9854 13.835 13.4922
c25.4189 -8.41406 53.4541 5.19238 77.1465 14.1572z" />
    <glyph glyph-name="bracketleft" unicode="[" horiz-adv-x="290" 
d="M198.115 -125.562c15.2383 6.23438 60.3418 -8.27148 33.5537 -24.7891c-30.3281 -18.7002 -63.4219 -31.6064 -99.6582 -25.8203c-32.4287 5.17285 -56.9551 24.9434 -66.3525 56.6006c-17.8623 60.1719 -14.3652 128.16 -15.2148 190.271
c-0.936523 68.3457 -0.542969 136.798 2.64746 205.085c1.60449 34.3682 4.50391 68.4326 9.53906 102.481c4.23242 28.6094 6.5332 63.4883 20.5488 89.4189c12.6309 23.3691 36.8105 35.1895 62.458 38.3477c21.2568 2.61621 61.2852 0.983398 76.1465 -17.3037
c5.78223 -7.11621 -2.80469 -12.1787 -9.38574 -13.1504c-26.6816 -3.92969 -61.3369 15.4629 -76.3867 -16.1982c-12.6699 -26.6582 -11.5684 -63.5195 -13.4844 -92.4629c-4.37402 -66.1074 -5.13281 -132.389 -4.49902 -198.618
c0.649414 -67.9287 0.932617 -136.22 5.94824 -203.999c2.06543 -27.8652 2.73047 -60.998 15.4434 -86.5156c13.6416 -27.3818 36.2949 -12.5166 58.6963 -3.34766z" />
    <glyph glyph-name="backslash" unicode="\" horiz-adv-x="342" 
d="M290.545 -77.084c12.584 -33.2393 -68.1582 -40.3828 -78.8887 -12.3916c-70.6748 184.402 -97.2773 382.175 -160.907 568.977c-7.33594 21.54 41.3936 24.1357 49.2529 7.73633c86.0586 -179.533 120.281 -378.715 190.543 -564.321z" />
    <glyph glyph-name="bracketright" unicode="]" horiz-adv-x="290" 
d="M238.021 249.133c2.35254 -68.5547 2.45508 -137.177 1.11719 -205.751c-0.661133 -33.7344 -1.19238 -67.583 -4.375 -101.191c-2.54883 -26.9375 -4.69629 -58.9883 -19.4121 -82.582c-35.0127 -56.1279 -110.286 -38.749 -156.981 -9.95508
c-26.874 16.5723 18.2441 31.0518 33.5537 24.7891c10.9746 -4.49219 29.3955 -15.5264 41.9834 -13.3154c9.19629 1.61719 14.3926 11.4238 17.8545 19.2793c11.7139 26.5752 12.5713 59.0234 14.5576 87.5928c4.63379 66.584 5.05078 133.589 5.69238 200.307
c0.645508 67.4766 -0.0507812 135.06 -4.74707 202.402c-1.92773 27.5938 -0.331055 66.7246 -14.4844 91.4121c-16.1592 28.1807 -49.6025 9.7002 -75.1396 13.4648c-6.58105 0.97168 -15.168 6.03418 -9.38574 13.1504c17.2217 21.1982 64.4092 20.7578 88.1875 15.1367
c31.6973 -7.49316 50.9053 -28.333 58.7012 -59.4717c15.9229 -63.5986 20.6357 -129.981 22.8779 -195.268z" />
    <glyph glyph-name="asciicircum" unicode="^" horiz-adv-x="282" 
d="M211.689 408.62c13.252 -34.5762 20.835 -71.6533 19.8906 -108.708c-0.641602 -25.1592 -62.5566 -25.0332 -63.9844 0c-1.44336 25.3281 -4.05957 50.8252 -10.7227 75.3633c-2.75391 10.1406 -6.11328 20.1514 -10.0195 29.9141
c-2.69824 -3.48145 -5.2666 -6.86426 -7.03711 -9.94043c-5.66797 -9.8457 -11.0137 -19.9277 -16.0645 -30.1035c-10.2119 -20.5723 -17.623 -42.6514 -28.4131 -62.8818c-6.64355 -12.4502 -45.1963 -14.8379 -45.334 3.49609
c-0.255859 33.7109 14.8408 69.6133 30.4883 98.8125c15.0459 28.0703 31.9248 55.3535 67.7285 55.3535c34.2969 0 52.1748 -21.835 63.4678 -51.3057z" />
    <glyph glyph-name="underscore" unicode="_" horiz-adv-x="412" 
d="M332.324 -101.26c9.55078 0.279297 30.1494 -4.05566 30.1494 -17.1895c0 -13.6533 -20.1953 -16.7295 -30.1475 -17.1816c-48.2812 -2.19922 -96.6641 -3.76465 -144.984 -4.80664c-24.8135 -0.535156 -49.6348 -0.913086 -74.4521 -0.862305
c-19.1523 0.0429688 -41.165 -3.26172 -58.4531 6.3916c-6.55762 3.66211 -5.23633 9.2793 -0.000976562 13.0322c16.3359 11.7061 43.8906 8.7832 63.1533 10.2627c23.2236 1.78223 46.4912 3.09961 69.751 4.33496c48.2773 2.56445 96.6562 4.61426 144.984 6.01855z" />
    <glyph glyph-name="grave" unicode="`" horiz-adv-x="164" 
d="M114.003 360.917c3.20215 -19.3223 -50.4932 -21.6338 -53.5342 -0.00292969c-3.0166 21.4854 -5.8916 42.9785 -7.68555 64.6055c-1.59277 19.1924 -6.85938 42.4355 3.31641 59.7666c5.02734 8.56348 24.373 10.168 30.667 2.28516
c13.083 -16.3877 13.3428 -38.0342 16.5059 -58.2412c3.57129 -22.8066 6.9541 -45.6416 10.7305 -68.4131z" />
    <glyph glyph-name="a" unicode="a" horiz-adv-x="350" 
d="M348.696 132.496c4.27148 9.4834 31.9268 7.42578 27.6191 -4.34375c-22.3389 -61.0537 -83.2705 -181.795 -167.8 -133.903c-37.3184 21.1426 -47.5107 69.0146 -51.6484 108.909c-6.58496 -22.083 -14.7471 -43.4229 -25.875 -63.1533
c-23.2197 -41.1768 -74.5684 -58.2207 -115.344 -29.9619c-46.3223 32.1055 -39.5332 100.577 -23.9287 147.686c16.7334 50.5195 56.5889 101.381 113.838 104.41c18.6807 0.987305 38.7539 -2.26953 55.043 -11.9541c0.900391 6.34082 1.87598 12.6699 2.94238 18.9717
c4.58691 27.0908 72.1465 27.7754 70.7422 0c-2.06152 -40.7012 -5.59766 -81.4727 -6.19141 -122.232c-0.507812 -34.9268 -2.03809 -73.4014 7.62305 -107.305c2.57617 -9.03906 9.66016 -34.7373 21.6455 -34.0879c12.8506 0.696289 29.8828 20.8242 37.3018 29.6436
c23.7197 28.1924 39.0332 64.0195 54.0322 97.3213zM121.081 93.4902c13.5234 40.4414 21.8613 82.3242 31.8877 123.737c-6.38379 11.4902 -15.5645 20.2578 -29.4023 19.0029c-19.5342 -1.77051 -36.4727 -22.0713 -46.9395 -36.7275
c-28.3535 -39.7061 -43.4463 -94.9219 -36.6016 -143.564c1.56934 -11.1553 4.93262 -22.9443 12.0449 -31.8574c9.99121 -12.5244 20.3086 -10.1211 32.082 -0.211914c19.8926 16.7451 28.9551 45.7715 36.9287 69.6211z" />
    <glyph glyph-name="a" unicode="&#xe5;" horiz-adv-x="350" 
d="M348.696 132.496c4.27148 9.4834 31.9268 7.42578 27.6191 -4.34375c-22.3389 -61.0537 -83.2705 -181.795 -167.8 -133.903c-37.3184 21.1426 -47.5107 69.0146 -51.6484 108.909c-6.58496 -22.083 -14.7471 -43.4229 -25.875 -63.1533
c-23.2197 -41.1768 -74.5684 -58.2207 -115.344 -29.9619c-46.3223 32.1055 -39.5332 100.577 -23.9287 147.686c16.7334 50.5195 56.5889 101.381 113.838 104.41c18.6807 0.987305 38.7539 -2.26953 55.043 -11.9541c0.900391 6.34082 1.87598 12.6699 2.94238 18.9717
c4.58691 27.0908 72.1465 27.7754 70.7422 0c-2.06152 -40.7012 -5.59766 -81.4727 -6.19141 -122.232c-0.507812 -34.9268 -2.03809 -73.4014 7.62305 -107.305c2.57617 -9.03906 9.66016 -34.7373 21.6455 -34.0879c12.8506 0.696289 29.8828 20.8242 37.3018 29.6436
c23.7197 28.1924 39.0332 64.0195 54.0322 97.3213zM121.081 93.4902c13.5234 40.4414 21.8613 82.3242 31.8877 123.737c-6.38379 11.4902 -15.5645 20.2578 -29.4023 19.0029c-19.5342 -1.77051 -36.4727 -22.0713 -46.9395 -36.7275
c-28.3535 -39.7061 -43.4463 -94.9219 -36.6016 -143.564c1.56934 -11.1553 4.93262 -22.9443 12.0449 -31.8574c9.99121 -12.5244 20.3086 -10.1211 32.082 -0.211914c19.8926 16.7451 28.9551 45.7715 36.9287 69.6211z" />
    <glyph glyph-name="a" unicode="&#xe4;" horiz-adv-x="350" 
d="M348.696 132.496c4.27148 9.4834 31.9268 7.42578 27.6191 -4.34375c-22.3389 -61.0537 -83.2705 -181.795 -167.8 -133.903c-37.3184 21.1426 -47.5107 69.0146 -51.6484 108.909c-6.58496 -22.083 -14.7471 -43.4229 -25.875 -63.1533
c-23.2197 -41.1768 -74.5684 -58.2207 -115.344 -29.9619c-46.3223 32.1055 -39.5332 100.577 -23.9287 147.686c16.7334 50.5195 56.5889 101.381 113.838 104.41c18.6807 0.987305 38.7539 -2.26953 55.043 -11.9541c0.900391 6.34082 1.87598 12.6699 2.94238 18.9717
c4.58691 27.0908 72.1465 27.7754 70.7422 0c-2.06152 -40.7012 -5.59766 -81.4727 -6.19141 -122.232c-0.507812 -34.9268 -2.03809 -73.4014 7.62305 -107.305c2.57617 -9.03906 9.66016 -34.7373 21.6455 -34.0879c12.8506 0.696289 29.8828 20.8242 37.3018 29.6436
c23.7197 28.1924 39.0332 64.0195 54.0322 97.3213zM121.081 93.4902c13.5234 40.4414 21.8613 82.3242 31.8877 123.737c-6.38379 11.4902 -15.5645 20.2578 -29.4023 19.0029c-19.5342 -1.77051 -36.4727 -22.0713 -46.9395 -36.7275
c-28.3535 -39.7061 -43.4463 -94.9219 -36.6016 -143.564c1.56934 -11.1553 4.93262 -22.9443 12.0449 -31.8574c9.99121 -12.5244 20.3086 -10.1211 32.082 -0.211914c19.8926 16.7451 28.9551 45.7715 36.9287 69.6211z" />
    <glyph glyph-name="a" unicode="&#xe3;" horiz-adv-x="350" 
d="M348.696 132.496c4.27148 9.4834 31.9268 7.42578 27.6191 -4.34375c-22.3389 -61.0537 -83.2705 -181.795 -167.8 -133.903c-37.3184 21.1426 -47.5107 69.0146 -51.6484 108.909c-6.58496 -22.083 -14.7471 -43.4229 -25.875 -63.1533
c-23.2197 -41.1768 -74.5684 -58.2207 -115.344 -29.9619c-46.3223 32.1055 -39.5332 100.577 -23.9287 147.686c16.7334 50.5195 56.5889 101.381 113.838 104.41c18.6807 0.987305 38.7539 -2.26953 55.043 -11.9541c0.900391 6.34082 1.87598 12.6699 2.94238 18.9717
c4.58691 27.0908 72.1465 27.7754 70.7422 0c-2.06152 -40.7012 -5.59766 -81.4727 -6.19141 -122.232c-0.507812 -34.9268 -2.03809 -73.4014 7.62305 -107.305c2.57617 -9.03906 9.66016 -34.7373 21.6455 -34.0879c12.8506 0.696289 29.8828 20.8242 37.3018 29.6436
c23.7197 28.1924 39.0332 64.0195 54.0322 97.3213zM121.081 93.4902c13.5234 40.4414 21.8613 82.3242 31.8877 123.737c-6.38379 11.4902 -15.5645 20.2578 -29.4023 19.0029c-19.5342 -1.77051 -36.4727 -22.0713 -46.9395 -36.7275
c-28.3535 -39.7061 -43.4463 -94.9219 -36.6016 -143.564c1.56934 -11.1553 4.93262 -22.9443 12.0449 -31.8574c9.99121 -12.5244 20.3086 -10.1211 32.082 -0.211914c19.8926 16.7451 28.9551 45.7715 36.9287 69.6211z" />
    <glyph glyph-name="a" unicode="&#xe2;" horiz-adv-x="350" 
d="M348.696 132.496c4.27148 9.4834 31.9268 7.42578 27.6191 -4.34375c-22.3389 -61.0537 -83.2705 -181.795 -167.8 -133.903c-37.3184 21.1426 -47.5107 69.0146 -51.6484 108.909c-6.58496 -22.083 -14.7471 -43.4229 -25.875 -63.1533
c-23.2197 -41.1768 -74.5684 -58.2207 -115.344 -29.9619c-46.3223 32.1055 -39.5332 100.577 -23.9287 147.686c16.7334 50.5195 56.5889 101.381 113.838 104.41c18.6807 0.987305 38.7539 -2.26953 55.043 -11.9541c0.900391 6.34082 1.87598 12.6699 2.94238 18.9717
c4.58691 27.0908 72.1465 27.7754 70.7422 0c-2.06152 -40.7012 -5.59766 -81.4727 -6.19141 -122.232c-0.507812 -34.9268 -2.03809 -73.4014 7.62305 -107.305c2.57617 -9.03906 9.66016 -34.7373 21.6455 -34.0879c12.8506 0.696289 29.8828 20.8242 37.3018 29.6436
c23.7197 28.1924 39.0332 64.0195 54.0322 97.3213zM121.081 93.4902c13.5234 40.4414 21.8613 82.3242 31.8877 123.737c-6.38379 11.4902 -15.5645 20.2578 -29.4023 19.0029c-19.5342 -1.77051 -36.4727 -22.0713 -46.9395 -36.7275
c-28.3535 -39.7061 -43.4463 -94.9219 -36.6016 -143.564c1.56934 -11.1553 4.93262 -22.9443 12.0449 -31.8574c9.99121 -12.5244 20.3086 -10.1211 32.082 -0.211914c19.8926 16.7451 28.9551 45.7715 36.9287 69.6211z" />
    <glyph glyph-name="a" unicode="&#xe1;" horiz-adv-x="350" 
d="M348.696 132.496c4.27148 9.4834 31.9268 7.42578 27.6191 -4.34375c-22.3389 -61.0537 -83.2705 -181.795 -167.8 -133.903c-37.3184 21.1426 -47.5107 69.0146 -51.6484 108.909c-6.58496 -22.083 -14.7471 -43.4229 -25.875 -63.1533
c-23.2197 -41.1768 -74.5684 -58.2207 -115.344 -29.9619c-46.3223 32.1055 -39.5332 100.577 -23.9287 147.686c16.7334 50.5195 56.5889 101.381 113.838 104.41c18.6807 0.987305 38.7539 -2.26953 55.043 -11.9541c0.900391 6.34082 1.87598 12.6699 2.94238 18.9717
c4.58691 27.0908 72.1465 27.7754 70.7422 0c-2.06152 -40.7012 -5.59766 -81.4727 -6.19141 -122.232c-0.507812 -34.9268 -2.03809 -73.4014 7.62305 -107.305c2.57617 -9.03906 9.66016 -34.7373 21.6455 -34.0879c12.8506 0.696289 29.8828 20.8242 37.3018 29.6436
c23.7197 28.1924 39.0332 64.0195 54.0322 97.3213zM121.081 93.4902c13.5234 40.4414 21.8613 82.3242 31.8877 123.737c-6.38379 11.4902 -15.5645 20.2578 -29.4023 19.0029c-19.5342 -1.77051 -36.4727 -22.0713 -46.9395 -36.7275
c-28.3535 -39.7061 -43.4463 -94.9219 -36.6016 -143.564c1.56934 -11.1553 4.93262 -22.9443 12.0449 -31.8574c9.99121 -12.5244 20.3086 -10.1211 32.082 -0.211914c19.8926 16.7451 28.9551 45.7715 36.9287 69.6211z" />
    <glyph glyph-name="b" unicode="b" horiz-adv-x="306" 
d="M306.968 134.742c7.5127 7.21387 35.4912 1.46484 25.2637 -8.42773c-21.5205 -20.8008 -47.9229 -32.043 -75.7295 -40.0908c-3.06055 -44.2803 -18.7363 -87.6797 -55.9443 -109.142c-26.4766 -15.2744 -67.1855 -18.7119 -89.4258 5.9082
c-18.7754 20.7812 -12.7139 50.2402 4.50781 69.5898c18.1338 20.376 45.6494 28.8291 71.7764 35.1582c0.366211 2.37207 0.704102 4.72461 1.01855 7.0332c5.21191 38.4268 3.46973 83.6709 -8.19336 120.918c-1.24707 3.96875 -3.03711 10.3174 -6.1875 13.4131
c-7.08008 6.95898 -20.627 3.9541 -27.8135 -2.66211c-7.80078 -7.18262 -13.8623 -16.2412 -19.0352 -25.4141c-9.83789 -17.4492 -16.5215 -36.5898 -22.3506 -55.6914c-11.2656 -36.9053 -23.4404 -80.249 -24.1016 -120.384
c1.03418 -10.1836 1.79297 -20.3555 2.03711 -30.4844c0.542969 -22.4219 -51.6006 -22.1855 -58.6143 -4.51953c-18.2832 46.0508 -25.1826 98.5566 -31.4248 147.436c-6.44727 50.46 -10.3184 101.16 -10.6963 152.041c-0.574219 77.0391 2.87207 160.864 39.2031 230.701
c27.0713 52.0332 94.6738 127.582 160.105 86.8887c65.4668 -40.7168 27.5898 -134.619 -1.30273 -185.473c-31.7285 -55.8486 -75.0645 -103.87 -122.838 -146.49c0.444336 -19.3809 1.23145 -38.7227 2.23828 -57.9619c1.65625 -31.626 4.46094 -63.1855 8.19824 -94.6348
c0.880859 3.38672 1.76172 6.75 2.62695 10.0625c9.27539 35.4648 21.1387 77.0391 48.8779 102.949c20.2617 18.9287 48.1387 23.8379 73.0459 11.1992c30.792 -15.624 48.001 -45.917 56.6152 -78.4277c4.89746 -18.4883 8.02441 -40.2881 8.24512 -62.6465
c18.1963 6.37207 35.2998 15.1396 49.8975 29.1514zM63.9062 428.304c-5.11719 -39.4502 -7.04102 -79.4521 -7.08398 -119.449c36.7041 35.7842 69.6084 75.3643 94.7598 120.259c16.0371 28.625 31.3037 60.3223 33.7539 93.4902
c1.87988 25.4385 -12.6426 90.752 -52.1904 70.6006c-25.6309 -13.0557 -38.6553 -48.541 -48.0645 -73.7354c-10.998 -29.459 -17.1387 -60.0703 -21.1748 -91.165zM140.646 -2.32715c24.7461 14.0547 36.7002 42.4092 43.0967 70.6914
c-12.418 -3.76855 -24.3057 -8.82715 -34.0928 -16.7061c-12.8428 -10.3379 -26.7715 -43.876 -9.00391 -53.9854z" />
    <glyph glyph-name="c" unicode="c" horiz-adv-x="225" 
d="M221.266 138.771c4.93262 10.1484 34.5928 6.83496 29.0977 -4.57617c-27.1455 -56.3369 -69.0693 -124.403 -131.947 -144.696c-27.9209 -9.01172 -60.1094 -3.02832 -84.0371 13.5361c-28.5498 19.7666 -42.1045 52.4307 -49.0908 85.2529
c-13.0869 61.4863 2.43848 146.003 65.0332 175.402c25.9541 12.1904 62.5723 16.25 82.2012 -8.98438c19.3652 -24.8916 16.0928 -60.4277 11.6357 -89.4541c-1.8877 -12.3008 -32.5342 -11.6123 -31.0986 0c2.80078 22.6611 5.92773 49.0078 -5.05859 70.0684
c-13.9795 26.8037 -32.6992 -9.62891 -38.8906 -23.8369c-17.709 -40.6299 -21.6543 -86.7314 -13.4375 -130.158c3.85449 -20.3682 11.6982 -42.1484 26.0322 -57.4736c5.4248 -5.79785 12.6709 -13.0752 20.7461 -14.8379
c13.6338 -2.97363 28.2627 8.45703 37.8447 16.7334c34.8281 30.0762 61.0498 72.0205 80.9697 113.024z" />
    <glyph glyph-name="d" unicode="d" horiz-adv-x="421" 
d="M419.895 132.622c3.81152 9.59766 31.3018 7.09961 27.0303 -4.25293c-18.0752 -47.9229 -45.7012 -110.069 -93.6592 -135.429c-43.5488 -23.0273 -100.826 -8.31152 -134.112 25.958c-30.5244 31.4297 -44.3467 77.2871 -52.71 120.887
c-8.0957 -35.0088 -18.2637 -69.2979 -35.4531 -99.7832c-23.2197 -41.1768 -74.5684 -58.2207 -115.344 -29.9619c-46.3223 32.1055 -39.5332 100.577 -23.9287 147.686c16.7334 50.5195 56.5889 101.381 113.838 104.41
c16.1436 0.853516 33.3213 -1.46289 48.2061 -8.35449c-0.869141 25.9775 -0.499023 51.9863 0.980469 77.6494c3.0918 53.583 11.5449 107.43 29.0537 158.326c16.041 46.6406 39.3672 97.2383 77.1104 130.257c27.335 23.916 81.6934 52.623 108.355 11.5918
c26.0049 -40.0244 3.50098 -103.17 -8.71289 -144.556c-26.6104 -90.1699 -72.0508 -173.885 -131.842 -246.216c0.574219 -20.5967 1.74219 -41.1768 3.82715 -61.7061c4.31152 -42.4277 9.82227 -86.8848 27.252 -126.271
c7.8125 -17.6543 18.7559 -36.3623 35.8037 -46.542c20.584 -12.2969 41.3096 -0.240234 56.8789 14.416c31.2881 29.4512 51.79 72.5283 67.4258 111.892zM121.065 93.4912c13.5234 40.4414 21.8613 82.3242 31.8877 123.737
c-6.38379 11.4902 -15.5645 20.2578 -29.4023 19.0029c-19.5342 -1.77051 -36.4727 -22.0713 -46.9395 -36.7275c-28.3535 -39.7061 -43.4463 -94.9219 -36.6016 -143.564c1.56934 -11.1553 4.93262 -22.9443 12.0449 -31.8574
c9.99121 -12.5244 20.3086 -10.1211 32.082 -0.211914c19.8926 16.7451 28.9551 45.7715 36.9287 69.6211zM228.68 311.056c-0.188477 -8.62988 -0.310547 -17.2627 -0.380859 -25.8965c41.3535 57.2021 73.7471 120.6 95.6768 187.962
c12.8633 39.5088 30.8789 89.7051 22.1152 131.578c-1.83301 8.75977 -7.40723 26.5713 -17.8867 24.7969c-7.26953 -1.23145 -16.4111 -13.1777 -20.9268 -18.9365c-11.6318 -14.834 -20.1602 -32.8535 -27.8506 -49.957
c-35.2959 -78.4951 -48.8389 -163.917 -50.7471 -249.547z" />
    <glyph glyph-name="e" unicode="e" horiz-adv-x="197" 
d="M193.727 137.358c3.4541 10.3652 32.8496 7.87988 28.8057 -4.53027c-17.4648 -53.5752 -53.0088 -128.816 -114.325 -141.955c-133.836 -28.6758 -151.687 177.755 -98.0049 256.246c16.2812 23.8018 38.9346 40.0479 68.0586 43.5488
c19.4756 2.33691 43.207 -3.91309 50.1025 -24.1396c14.1807 -41.5898 -35.1777 -74.6201 -72.2041 -84.9062c-4.65723 -24.6357 -5.72363 -50.0625 -3.74512 -74.3564c1.86816 -22.9326 6.27734 -46.6406 16.1543 -67.5674
c4.19336 -8.88965 9.07129 -17.4375 16.3682 -24.1875c10.8369 -10.0264 20.5996 -6.89551 32.3213 0.928711c38.7852 25.8789 62.2451 78.2471 76.4688 120.919zM76.8594 242.701c-6.4043 -12.2021 -11.4707 -25.1934 -15.3613 -38.6191
c12.4775 6.36816 23.2363 15.9346 30.502 28.3057c2.62012 4.46094 13.3584 30.5088 1.43945 32.6172c-4.91309 0.869141 -13.6885 -16.793 -16.5801 -22.3037z" />
    <glyph glyph-name="e" unicode="&#xeb;" horiz-adv-x="197" 
d="M193.727 137.358c3.4541 10.3652 32.8496 7.87988 28.8057 -4.53027c-17.4648 -53.5752 -53.0088 -128.816 -114.325 -141.955c-133.836 -28.6758 -151.687 177.755 -98.0049 256.246c16.2812 23.8018 38.9346 40.0479 68.0586 43.5488
c19.4756 2.33691 43.207 -3.91309 50.1025 -24.1396c14.1807 -41.5898 -35.1777 -74.6201 -72.2041 -84.9062c-4.65723 -24.6357 -5.72363 -50.0625 -3.74512 -74.3564c1.86816 -22.9326 6.27734 -46.6406 16.1543 -67.5674
c4.19336 -8.88965 9.07129 -17.4375 16.3682 -24.1875c10.8369 -10.0264 20.5996 -6.89551 32.3213 0.928711c38.7852 25.8789 62.2451 78.2471 76.4688 120.919zM76.8594 242.701c-6.4043 -12.2021 -11.4707 -25.1934 -15.3613 -38.6191
c12.4775 6.36816 23.2363 15.9346 30.502 28.3057c2.62012 4.46094 13.3584 30.5088 1.43945 32.6172c-4.91309 0.869141 -13.6885 -16.793 -16.5801 -22.3037z" />
    <glyph glyph-name="e" unicode="&#xea;" horiz-adv-x="197" 
d="M193.727 137.358c3.4541 10.3652 32.8496 7.87988 28.8057 -4.53027c-17.4648 -53.5752 -53.0088 -128.816 -114.325 -141.955c-133.836 -28.6758 -151.687 177.755 -98.0049 256.246c16.2812 23.8018 38.9346 40.0479 68.0586 43.5488
c19.4756 2.33691 43.207 -3.91309 50.1025 -24.1396c14.1807 -41.5898 -35.1777 -74.6201 -72.2041 -84.9062c-4.65723 -24.6357 -5.72363 -50.0625 -3.74512 -74.3564c1.86816 -22.9326 6.27734 -46.6406 16.1543 -67.5674
c4.19336 -8.88965 9.07129 -17.4375 16.3682 -24.1875c10.8369 -10.0264 20.5996 -6.89551 32.3213 0.928711c38.7852 25.8789 62.2451 78.2471 76.4688 120.919zM76.8594 242.701c-6.4043 -12.2021 -11.4707 -25.1934 -15.3613 -38.6191
c12.4775 6.36816 23.2363 15.9346 30.502 28.3057c2.62012 4.46094 13.3584 30.5088 1.43945 32.6172c-4.91309 0.869141 -13.6885 -16.793 -16.5801 -22.3037z" />
    <glyph glyph-name="e" unicode="&#xe9;" horiz-adv-x="197" 
d="M193.727 137.358c3.4541 10.3652 32.8496 7.87988 28.8057 -4.53027c-17.4648 -53.5752 -53.0088 -128.816 -114.325 -141.955c-133.836 -28.6758 -151.687 177.755 -98.0049 256.246c16.2812 23.8018 38.9346 40.0479 68.0586 43.5488
c19.4756 2.33691 43.207 -3.91309 50.1025 -24.1396c14.1807 -41.5898 -35.1777 -74.6201 -72.2041 -84.9062c-4.65723 -24.6357 -5.72363 -50.0625 -3.74512 -74.3564c1.86816 -22.9326 6.27734 -46.6406 16.1543 -67.5674
c4.19336 -8.88965 9.07129 -17.4375 16.3682 -24.1875c10.8369 -10.0264 20.5996 -6.89551 32.3213 0.928711c38.7852 25.8789 62.2451 78.2471 76.4688 120.919zM76.8594 242.701c-6.4043 -12.2021 -11.4707 -25.1934 -15.3613 -38.6191
c12.4775 6.36816 23.2363 15.9346 30.502 28.3057c2.62012 4.46094 13.3584 30.5088 1.43945 32.6172c-4.91309 0.869141 -13.6885 -16.793 -16.5801 -22.3037z" />
    <glyph glyph-name="f" unicode="f" horiz-adv-x="217" 
d="M220.136 132.579c6.8252 4.66895 32.9727 -1.65723 22.4932 -9.88672c-51.4746 -40.4336 -105.164 -78.2705 -158.095 -116.843c47.8877 -10.542 95.4443 -35.0645 113.326 -83.373c16.6074 -44.8584 -3.05273 -110.463 -60.9238 -103.253
c-24.1406 3.00488 -44.6582 20.5918 -61.8281 36.5898c-20.541 19.1367 -34.7764 46.2744 -46.333 71.5947c-25.7891 56.5098 -33.9316 120.501 -38.8057 181.846c-9.16504 115.356 -6.75391 246.979 54.543 349.24c25.2422 42.1172 68.1738 89.7998 122.544 79.8789
c54.0947 -9.86914 48.4502 -74.7578 39.4502 -115.376c-25.2266 -113.857 -77.874 -221.469 -145.465 -316.024c1.84473 -27.9287 4.71582 -55.8135 8.94824 -83.4355c49.7402 36.7393 99.1582 74.1396 150.146 109.042zM94.0928 420.78
c-29.0576 -86.4131 -37.7441 -174.727 -35.3096 -265.25c48.3516 73.3184 84.5371 154.504 107.765 239.249c7.1709 26.1699 14.6133 53.7793 12.4814 81.1729c-0.719727 9.23242 -2.48242 18.7754 -7.01367 26.9727c-2.01758 3.65039 -4.73145 6.12109 -7.07227 9.45703
c-2.19922 0.956055 -3.66602 1.73145 -4.54688 2.36035c-36.2715 -14.5586 -54.8691 -59.9561 -66.3037 -93.9619zM164.53 -74.0264c-16.7607 35.8506 -51.6514 54.2373 -88.4189 62.875c8.68555 -43.3643 21.2617 -85.835 39.4463 -126.496
c4.63379 -10.3574 12.9727 -23.0078 25.1709 -25.1279c14.999 -2.6084 24.1328 14.2939 28.373 25.5127c7.72168 20.415 4.49609 43.8438 -4.57129 63.2363z" />
    <glyph glyph-name="g" unicode="g" horiz-adv-x="336" 
d="M336.714 145.54c6.73828 7.78027 34.3027 2.78027 24.9961 -8.32812c-39.6191 -47.2939 -88.1797 -85.5791 -134.132 -126.583c0.291016 -32.6641 0.806641 -65.3281 1.79785 -98.0127c1.41211 -46.4199 1.17188 -93.041 -8.72461 -138.619
c-8.19336 -37.7314 -24.2578 -82.2168 -54.5146 -108.249c-25.1006 -21.5996 -63.1025 -28.9746 -92.9111 -12.7168c-33.4004 18.2168 -44.4658 56.5537 -41.3271 92.3926c7.1709 81.8545 55.9004 156.715 109.869 215.942c5.53027 6.07324 11.2344 11.9697 17.001 17.7988
c-0.271484 3.55957 -0.542969 7.11914 -0.767578 10.6631c-2.15527 34.3564 -3.62598 68.8936 -4.23535 103.458c-6.03418 -18.5625 -13.3193 -36.5078 -22.7754 -53.2803c-23.2197 -41.1768 -74.5684 -58.2207 -115.344 -29.9619
c-46.3223 32.1055 -39.5332 100.577 -23.9287 147.686c16.7334 50.5195 56.5889 101.381 113.838 104.41c18.0752 0.956055 37.4092 -2.12402 53.4033 -11.0889c8.87793 22.4492 67.9727 20.8369 68.1377 -4.60156c0.44043 -68.1729 -0.0634766 -136.279 0.250977 -204.401
c38.0225 32.9277 76.4102 65.4346 109.366 103.492zM121.08 93.4912c13.5234 40.4414 21.8604 82.3242 31.8867 123.737c-6.38379 11.4902 -15.5645 20.2578 -29.4023 19.0029c-19.5342 -1.77051 -36.4727 -22.0713 -46.9395 -36.7275
c-28.3535 -39.7061 -43.4463 -94.9219 -36.6016 -143.564c1.56934 -11.1553 4.93262 -22.9443 12.0449 -31.8574c9.99121 -12.5244 20.3086 -10.1211 32.082 -0.211914c19.8926 16.7451 28.9561 45.7715 36.9297 69.6211zM169.984 -250.987
c8.73242 64.1533 -1.41113 131.162 -8.15332 196.396c-45.8496 -52.1748 -84.2852 -113.778 -96.6172 -182.809c-5.84961 -32.7588 -4.45703 -86.2119 34.6826 -99.0625c22.8066 -7.48926 44.9883 13.4141 55.9316 31.084c10.1445 16.3799 11.6152 35.7178 14.1562 54.3906z
" />
    <glyph glyph-name="h" unicode="h" horiz-adv-x="343" 
d="M340.019 111.22c2.66309 10.1836 31.6064 8.05859 28.208 -4.43848c-13.0986 -48.1318 -42.915 -129.148 -102.745 -132.335c-67.1816 -3.5791 -93.627 66.9346 -97.7646 121.792c-2.49023 32.9639 -1.28613 66.2148 -0.963867 99.2373
c0.0751953 7.46191 3.83984 40.5635 -5.72266 44.8789c-13.6729 6.17578 -27.1064 -25.9775 -31.0088 -34.9502c-27.335 -62.8154 -31.6973 -134.163 -47.7188 -200.239c0.200195 -3.56738 0.396484 -7.13867 0.483398 -10.6982
c0.542969 -22.4219 -51.6006 -22.1855 -58.6143 -4.51953c-18.2832 46.0508 -25.1826 98.5566 -31.4248 147.436c-6.44727 50.46 -10.3184 101.16 -10.6963 152.041c-0.574219 77.0391 2.87207 160.864 39.2031 230.701c27.0713 52.0332 94.6738 127.582 160.105 86.8887
c65.4668 -40.7168 27.5898 -134.619 -1.30273 -185.473c-31.7285 -55.8486 -75.0645 -103.87 -122.838 -146.49c0.444336 -19.3809 1.23145 -38.7227 2.23828 -57.9619c1.92773 -36.7676 5.32227 -73.4521 10.0352 -109.964
c0.275391 -2.11621 0.582031 -4.24414 0.873047 -6.36816c6.80859 37.4795 14.8057 74.6875 29.8398 109.335c9.09863 20.9619 23.8184 44.8857 47.7031 50.3496c25.4307 5.81738 48.8594 -14.9404 62.6152 -34.2188c17.6465 -24.7305 21.501 -58.1152 25.7061 -87.3887
c4.7002 -32.7432 8.70898 -65.4277 15.1523 -97.8955c2.32129 -11.7021 2.54199 -28.2031 7.19922 -39.1191c8.6543 -20.2852 31.8623 6.83691 39.3594 17.084c20.1797 27.5859 33.4756 59.4043 42.0781 92.3164zM63.9043 428.306
c-5.11719 -39.4502 -7.04102 -79.4521 -7.08398 -119.449c36.7041 35.7842 69.6084 75.3643 94.7598 120.259c16.0371 28.625 31.3037 60.3223 33.7539 93.4902c1.87988 25.4385 -12.6426 90.752 -52.1904 70.6006c-25.6309 -13.0557 -38.6553 -48.541 -48.0645 -73.7354
c-10.998 -29.459 -17.1387 -60.0703 -21.1748 -91.165z" />
    <glyph glyph-name="i" unicode="i" horiz-adv-x="181" 
d="M179.766 132.496c4.27148 9.4834 31.9268 7.42773 27.623 -4.3418c-22.3389 -61.0537 -83.2705 -181.795 -167.8 -133.903c-39.0488 22.1182 -48.415 73.5303 -52.2031 114.42c-4.94824 53.4219 -1.70703 107.725 7.22656 160.485
c4.58691 27.0908 72.1465 27.7754 70.7422 0c-2.06152 -40.7012 -5.59766 -81.4727 -6.19141 -122.232c-0.507812 -34.9268 -2.03809 -73.4014 7.62305 -107.305c2.57617 -9.03906 9.66016 -34.7373 21.6455 -34.0879c12.8506 0.696289 29.8828 20.8242 37.3018 29.6436
c23.7197 28.1924 39.0332 64.0195 54.0322 97.3213zM26.3809 328.013c-19.1719 8.31152 -31.2939 34.4941 -38.0049 53.1279c-6.13281 17.0283 -14.2002 48.9453 -2.1123 64.9785c9.85352 13.0713 30.9922 6.6709 37.502 -5.94824
c5.21973 -10.1211 8.75977 -21.4463 11.3916 -33.168c16.0098 28.3535 38.8643 53.5674 64.8574 41.5898c37.4355 -17.249 -33.6797 -99.292 -48.3955 -116.627c-2.77344 -3.26465 -8.83105 -4.45605 -14.7119 -4.03125
c-3.89844 -0.932617 -7.86719 -1.07422 -10.5264 0.078125z" />
    <glyph glyph-name="i" unicode="&#xef;" horiz-adv-x="181" 
d="M179.766 132.496c4.27148 9.4834 31.9268 7.42773 27.623 -4.3418c-22.3389 -61.0537 -83.2705 -181.795 -167.8 -133.903c-39.0488 22.1182 -48.415 73.5303 -52.2031 114.42c-4.94824 53.4219 -1.70703 107.725 7.22656 160.485
c4.58691 27.0908 72.1465 27.7754 70.7422 0c-2.06152 -40.7012 -5.59766 -81.4727 -6.19141 -122.232c-0.507812 -34.9268 -2.03809 -73.4014 7.62305 -107.305c2.57617 -9.03906 9.66016 -34.7373 21.6455 -34.0879c12.8506 0.696289 29.8828 20.8242 37.3018 29.6436
c23.7197 28.1924 39.0332 64.0195 54.0322 97.3213zM26.3809 328.013c-19.1719 8.31152 -31.2939 34.4941 -38.0049 53.1279c-6.13281 17.0283 -14.2002 48.9453 -2.1123 64.9785c9.85352 13.0713 30.9922 6.6709 37.502 -5.94824
c5.21973 -10.1211 8.75977 -21.4463 11.3916 -33.168c16.0098 28.3535 38.8643 53.5674 64.8574 41.5898c37.4355 -17.249 -33.6797 -99.292 -48.3955 -116.627c-2.77344 -3.26465 -8.83105 -4.45605 -14.7119 -4.03125
c-3.89844 -0.932617 -7.86719 -1.07422 -10.5264 0.078125z" />
    <glyph glyph-name="i" unicode="&#xee;" horiz-adv-x="181" 
d="M179.766 132.496c4.27148 9.4834 31.9268 7.42773 27.623 -4.3418c-22.3389 -61.0537 -83.2705 -181.795 -167.8 -133.903c-39.0488 22.1182 -48.415 73.5303 -52.2031 114.42c-4.94824 53.4219 -1.70703 107.725 7.22656 160.485
c4.58691 27.0908 72.1465 27.7754 70.7422 0c-2.06152 -40.7012 -5.59766 -81.4727 -6.19141 -122.232c-0.507812 -34.9268 -2.03809 -73.4014 7.62305 -107.305c2.57617 -9.03906 9.66016 -34.7373 21.6455 -34.0879c12.8506 0.696289 29.8828 20.8242 37.3018 29.6436
c23.7197 28.1924 39.0332 64.0195 54.0322 97.3213zM26.3809 328.013c-19.1719 8.31152 -31.2939 34.4941 -38.0049 53.1279c-6.13281 17.0283 -14.2002 48.9453 -2.1123 64.9785c9.85352 13.0713 30.9922 6.6709 37.502 -5.94824
c5.21973 -10.1211 8.75977 -21.4463 11.3916 -33.168c16.0098 28.3535 38.8643 53.5674 64.8574 41.5898c37.4355 -17.249 -33.6797 -99.292 -48.3955 -116.627c-2.77344 -3.26465 -8.83105 -4.45605 -14.7119 -4.03125
c-3.89844 -0.932617 -7.86719 -1.07422 -10.5264 0.078125z" />
    <glyph glyph-name="i" unicode="&#xed;" horiz-adv-x="181" 
d="M179.766 132.496c4.27148 9.4834 31.9268 7.42773 27.623 -4.3418c-22.3389 -61.0537 -83.2705 -181.795 -167.8 -133.903c-39.0488 22.1182 -48.415 73.5303 -52.2031 114.42c-4.94824 53.4219 -1.70703 107.725 7.22656 160.485
c4.58691 27.0908 72.1465 27.7754 70.7422 0c-2.06152 -40.7012 -5.59766 -81.4727 -6.19141 -122.232c-0.507812 -34.9268 -2.03809 -73.4014 7.62305 -107.305c2.57617 -9.03906 9.66016 -34.7373 21.6455 -34.0879c12.8506 0.696289 29.8828 20.8242 37.3018 29.6436
c23.7197 28.1924 39.0332 64.0195 54.0322 97.3213zM26.3809 328.013c-19.1719 8.31152 -31.2939 34.4941 -38.0049 53.1279c-6.13281 17.0283 -14.2002 48.9453 -2.1123 64.9785c9.85352 13.0713 30.9922 6.6709 37.502 -5.94824
c5.21973 -10.1211 8.75977 -21.4463 11.3916 -33.168c16.0098 28.3535 38.8643 53.5674 64.8574 41.5898c37.4355 -17.249 -33.6797 -99.292 -48.3955 -116.627c-2.77344 -3.26465 -8.83105 -4.45605 -14.7119 -4.03125
c-3.89844 -0.932617 -7.86719 -1.07422 -10.5264 0.078125z" />
    <glyph glyph-name="j" unicode="j" horiz-adv-x="171" 
d="M171.324 145.54c6.73828 7.78027 34.3057 2.78223 24.999 -8.33008c-39.6191 -47.2939 -88.1797 -85.5791 -134.132 -126.583c0.291016 -32.6641 0.806641 -65.3281 1.79785 -98.0127c1.41211 -46.4199 1.17188 -93.041 -8.72461 -138.619
c-8.19336 -37.7314 -24.2578 -82.2168 -54.5146 -108.249c-25.1006 -21.5996 -63.1025 -28.9746 -92.9111 -12.7168c-33.4004 18.2168 -44.4658 56.5537 -41.3271 92.3926c7.1709 81.8545 55.9004 156.715 109.869 215.943c5.53027 6.07324 11.2344 11.9736 17.001 17.7988
c-0.271484 3.55957 -0.542969 7.11914 -0.767578 10.6631c-5.3418 85.1934 -6.77344 171.484 -0.114258 256.623c2.12793 27.165 69.0303 27.0625 69.207 -0.000976562c0.44043 -68.1729 -0.0634766 -136.279 0.250977 -204.401
c38.0225 32.9277 76.4141 65.4346 109.366 103.492zM4.5957 -250.983c8.73242 64.1533 -1.40723 131.162 -8.15332 196.396c-45.8496 -52.1748 -84.2852 -113.778 -96.6172 -182.809c-5.84961 -32.7588 -4.45703 -86.2119 34.6826 -99.0625
c22.8066 -7.48926 44.9883 13.4141 55.9316 31.084c10.1445 16.3799 11.6152 35.7178 14.1562 54.3906zM16.4727 309.718c-19.1846 7.56445 -32.4023 33.9912 -39.6045 52.0664c-6.58887 16.5254 -15.8174 48.7891 -4.0752 64.8027
c9.71582 13.252 30.8154 6.76562 37.6279 -5.58984c5.42871 -9.83789 9.2959 -20.8594 12.2891 -32.29c15.1211 29.1045 37.2988 55.3809 63.7959 43.4346c37.4951 -16.9062 -30.627 -100.412 -44.835 -118.334c-2.48633 -3.13477 -7.87891 -4.44824 -13.3506 -4.29492
c-3.97266 -1.03809 -8.37012 -1.16406 -11.8477 0.205078z" />
    <glyph glyph-name="k" unicode="k" horiz-adv-x="297" 
d="M293.681 121.329c5.35742 9.83789 34.6445 6.30859 28.8105 -4.53613c-26.7637 -49.6299 -54.6016 -138.21 -126.929 -127.719c-31.0674 4.50781 -64.165 25.1553 -78.1846 53.3672c-8.74414 17.5986 -13.126 37.3291 -19.7227 55.7773
c-0.810547 2.27344 -1.95898 5.93555 -3.375 9.96387c-5.7002 -36.4844 -7.62012 -73.9873 -11.668 -109.791c0.046875 -1.30957 0.145508 -2.62305 0.176758 -3.92871c0.542969 -22.4219 -51.6006 -22.1855 -58.6143 -4.51953
c-18.2832 46.0508 -25.1826 98.5566 -31.4248 147.436c-6.44727 50.46 -10.3184 101.16 -10.6963 152.041c-0.570312 77.0391 2.87598 160.864 39.207 230.701c27.0713 52.0332 94.6738 127.582 160.105 86.8887c65.4668 -40.7168 27.5898 -134.619 -1.30273 -185.473
c-31.7324 -55.8486 -75.0684 -103.87 -122.842 -146.49c0.444336 -19.3809 1.23145 -38.7227 2.23828 -57.9619c1.60449 -30.5918 4.27539 -61.124 7.82715 -91.5508c2.03809 10.5928 4.4375 21.123 7.35645 31.5586c11.9971 42.8799 35.4883 93.7334 80.8115 109.763
c17.2959 6.1123 40.5078 6.7334 54.9756 -6.60938c15.5137 -14.3066 10.3096 -36.5703 1.01074 -52.7764c-19.0742 -33.2393 -53.3594 -55.4092 -89.4854 -67.8906c11.9814 -4.66113 21.9805 -12.7246 30.5947 -25.7207c15.7344 -23.7432 24.8213 -54.8418 34.168 -81.7041
c5.41309 -15.5576 10.5303 -30.7217 31.8506 -22.3506c14.3613 5.64062 25.7646 22.0166 33.8721 34.3877c15.998 24.4082 27.3066 51.5615 41.2393 77.1377zM63.9023 428.306c-5.11719 -39.4502 -7.04102 -79.4521 -7.08398 -119.449
c36.7041 35.7842 69.6084 75.3643 94.7598 120.259c16.0371 28.625 31.3037 60.3223 33.7539 93.4902c1.87988 25.4385 -12.6426 90.752 -52.1904 70.6006c-25.6309 -13.0557 -38.6553 -48.541 -48.0645 -73.7354c-10.998 -29.459 -17.1387 -60.0703 -21.1748 -91.165z
M103.911 153.461c31.335 10.2744 61.7539 30.2451 78.1299 58.6338c9.31445 16.1553 12.6973 52.6865 -16.7734 37.1611c-16.0723 -8.46875 -28.3691 -23.5859 -37.4912 -38.9307c-10.6641 -17.9414 -18.2637 -37.0586 -23.8652 -56.8643z" />
    <glyph glyph-name="l" unicode="l" horiz-adv-x="248" 
d="M246.629 132.622c3.81152 9.59766 31.3027 7.10059 27.0273 -4.25195c-18.0752 -47.9229 -45.7012 -110.069 -93.6592 -135.429c-43.5488 -23.0273 -100.826 -8.31152 -134.112 25.958c-37.2471 38.3525 -49.6416 98.1982 -57.5674 149.193
c-8.33105 53.5947 -9.96387 109.243 -6.84473 163.338c3.0918 53.583 11.5449 107.43 29.0537 158.326c16.041 46.6406 39.3672 97.2383 77.1104 130.257c27.3389 23.916 81.6973 52.623 108.359 11.5918c26.001 -40.0244 3.50098 -103.17 -8.71289 -144.556
c-26.6104 -90.1699 -72.0508 -173.885 -131.842 -246.216c0.574219 -20.5967 1.73828 -41.1768 3.82715 -61.7061c4.31152 -42.4277 9.82227 -86.8848 27.252 -126.271c7.81641 -17.6543 18.7598 -36.3623 35.8037 -46.542
c20.584 -12.2969 41.3057 -0.240234 56.8789 14.416c31.2881 29.4512 51.79 72.5283 67.4258 111.892zM55.4199 311.059c-0.192383 -8.62988 -0.310547 -17.2627 -0.380859 -25.8965c41.3535 57.2021 73.7471 120.6 95.6768 187.962
c12.8633 39.5088 30.8789 89.7051 22.1152 131.578c-1.83301 8.75977 -7.40723 26.5713 -17.8867 24.7969c-7.26953 -1.23145 -16.4111 -13.1777 -20.9268 -18.9365c-11.6318 -14.834 -20.1602 -32.8535 -27.8506 -49.957
c-35.2959 -78.4951 -48.8389 -163.917 -50.7471 -249.547z" />
    <glyph glyph-name="m" unicode="m" horiz-adv-x="479" 
d="M474.631 113.914c4.1543 10.459 34.0322 7.32227 29.1074 -4.58105c-18.4365 -44.4854 -38.9971 -108.123 -89.6934 -125.293c-21.9932 -7.4502 -50.8779 -2.21094 -68.626 12.7803c-21.0957 17.8154 -28.4912 44.5283 -34.0615 70.4551
c-6.1084 28.4316 -7.08789 57.9023 -9.16113 86.8184c-0.71582 9.94824 0.192383 78.5029 -11.6953 78.8525c-10.6602 0.314453 -24.5146 -32.0664 -27.9326 -39.4414c-6.59277 -14.2236 -12.3594 -28.8604 -17.6738 -43.6074
c-10.7422 -29.793 -19.4199 -60.2744 -28.0898 -90.7207c-0.306641 -1.07812 -0.952148 -1.98633 -1.7666 -2.79297c-1.36523 -26.123 -66.0889 -25.9268 -66.4385 0.0195312c-0.527344 38.9854 3.18945 78.085 4.57422 117.039
c0.5625 15.8604 3.19434 34.9385 -0.0117188 50.4805c-3.61523 17.5322 -10.4717 6.80566 -17.4502 -1.19922c-5.97949 -6.85645 -10.8535 -14.4482 -15.2119 -22.4062c-31.748 -57.9736 -42.7617 -126.705 -53.6934 -191.472
c0.168945 -6.60449 -0.401367 -13.0322 -2.45508 -18.8701c-4.2832 -12.1826 -28.0967 -10.5537 -36.5186 -5.49512c-36.7041 22.0518 -39.1191 83.7773 -41.4795 121.965c-3.0332 49.0518 -1.51465 98.0088 10.1953 145.853
c5.14551 21.0254 65.0381 18.9014 64.9512 -5.01074c-0.157227 -44.0049 -4.85742 -87.7861 -3.65723 -131.818c1.85254 7.19043 3.78418 14.3613 5.89648 21.4893c10.9004 36.791 25.2773 84.8867 58.6377 107.984c34.6787 24.0068 66.1006 -5.46387 78.1846 -38.0889
c6.66309 -17.9961 10.6719 -37.7705 12.9688 -58.0557c0.645508 1.9043 1.23535 3.82812 1.90039 5.72852c8.87402 25.3721 18.2676 52.6553 34.9424 74.0977c31.4844 40.4922 78.9707 21.666 98.5283 -19.5146c25.8516 -54.4287 24.5811 -113.9 38.8398 -171.3
c1.68359 -6.77344 6.2627 -28.5928 13.7842 -32.0586c12.5322 -5.77832 29.875 21.1357 34.7842 28.5156c16.3164 24.5381 27.4922 52.3877 38.3213 79.6475z" />
    <glyph glyph-name="n" unicode="n" horiz-adv-x="311" 
d="M306.894 125.738c4.11816 10.2939 33.5957 7.35156 28.8086 -4.52832c-13.6455 -33.8369 -27.3936 -67.7881 -46.2549 -99.1309c-12.041 -20.0098 -27.2129 -41.5693 -50.2129 -49.7588c-25.1201 -8.94922 -59.3545 -0.542969 -75.3721 20.8281
c-19.4873 26.0049 -19.5186 60.7305 -18.8223 91.9043c0.798828 35.5908 3.98145 71.0801 3.82812 106.694c-0.03125 8.16211 2.59668 46.3457 -10.833 45.3467c-10.1055 -0.750977 -22.7988 -28.707 -26.6338 -36.5859
c-30.6895 -63.0752 -36.1104 -139.41 -45.2051 -208.004c-0.149414 -1.125 -0.617188 -2.10449 -1.22656 -3.00488c-0.0078125 -0.0625 -0.0117188 -0.125 -0.015625 -0.1875c-1.70312 -18.7275 -40.2012 -17.5195 -47.4473 -3.65723
c-19.9121 38.0811 -25.5098 87.0459 -29.5303 129.32c-4.22852 44.4062 -4.1582 90.0166 1.57324 134.246c3.70898 28.6289 74.8594 28.2832 73.1992 0.000976562c-2.09668 -35.7012 -3.875 -71.1904 -3.82422 -106.864c5.00781 19.7432 11.2461 39.0176 19.3613 57.4033
c9.60938 21.7568 24.6475 46.7041 47.6475 56.0547c24.2744 9.86523 51.5889 -2.73438 65.2852 -23.9404c18.543 -28.7109 21.001 -67.8896 21.9336 -100.983c0.991211 -35.249 1.05762 -70.0693 5.16406 -105.146c1.01855 -8.68555 1.69922 -16.0889 5.2002 -24.2549
c1.77441 -2.65137 3.21387 -5.47559 4.31934 -8.46875c0.496094 -0.787109 0.850586 -1.41211 1.1377 -1.94727c12.2607 2.34473 27.1221 27.6299 31.9482 35.4893c19.0781 31.0752 32.4678 65.4395 45.9717 99.1738z" />
    <glyph glyph-name="o" unicode="o" horiz-adv-x="215" 
d="M239.229 133.425c4.22461 -3.44141 6.22461 -8.72559 0.00976562 -11.7939c-21.8867 -10.7783 -48.9775 -19.9199 -77.3701 -25.0098c-4.98828 -42.4434 -22.2959 -82.5498 -61.9463 -99.5703c-32.126 -13.7871 -73.7432 -9.49121 -95.3193 20.4473
c-22.4053 31.0908 -18.5586 77.3379 -10.8213 112.614c0.995117 4.54297 3.92578 8.2998 8.0127 11.2617c-30.7295 46.0586 -19.4365 121.827 35.166 144.024c70.6475 28.7188 109.948 -49.0518 121.147 -105.585c3.81543 -19.2588 6.03418 -41.8652 5.16895 -64.6602
c20.5801 4.33887 39.8975 10.9902 55.2656 18.2715c5.51465 2.6123 15.415 4.29199 20.6865 0zM113.349 67.127c3.61914 8.16211 6.58203 16.6426 9.02832 25.2969c-22.5596 -0.676758 -44.8076 1.84082 -64.8926 8.68555
c-2.87891 -23.6484 -4.7041 -48.0527 5.59375 -69.3848c7.72168 -15.9902 13.626 -11.9307 26.1621 -0.5c10.7188 9.7793 18.2832 22.7598 24.1084 35.9023zM126.594 110.294c8.36328 45.4443 1.03809 94.2969 -23.1416 133.652
c-9.16113 14.9082 -25.5566 33.8008 -45.5352 28.4668c-16.1826 -4.32324 -28.459 -20.6553 -34.8594 -35.0684c-11.459 -25.8008 -10.2676 -58.6777 3.2959 -83.4873c0.849609 -1.55371 1.77051 -3.0166 2.69922 -4.47559
c16.7568 0.479492 32.8848 -5.74316 31.7793 -19.2666c-0.220703 -2.7373 -0.511719 -5.52246 -0.822266 -8.32715c19.2705 -9.66113 42.7266 -12.6904 66.584 -11.4941z" />
    <glyph glyph-name="o" unicode="&#xf6;" horiz-adv-x="215" 
d="M239.229 133.425c4.22461 -3.44141 6.22461 -8.72559 0.00976562 -11.7939c-21.8867 -10.7783 -48.9775 -19.9199 -77.3701 -25.0098c-4.98828 -42.4434 -22.2959 -82.5498 -61.9463 -99.5703c-32.126 -13.7871 -73.7432 -9.49121 -95.3193 20.4473
c-22.4053 31.0908 -18.5586 77.3379 -10.8213 112.614c0.995117 4.54297 3.92578 8.2998 8.0127 11.2617c-30.7295 46.0586 -19.4365 121.827 35.166 144.024c70.6475 28.7188 109.948 -49.0518 121.147 -105.585c3.81543 -19.2588 6.03418 -41.8652 5.16895 -64.6602
c20.5801 4.33887 39.8975 10.9902 55.2656 18.2715c5.51465 2.6123 15.415 4.29199 20.6865 0zM113.349 67.127c3.61914 8.16211 6.58203 16.6426 9.02832 25.2969c-22.5596 -0.676758 -44.8076 1.84082 -64.8926 8.68555
c-2.87891 -23.6484 -4.7041 -48.0527 5.59375 -69.3848c7.72168 -15.9902 13.626 -11.9307 26.1621 -0.5c10.7188 9.7793 18.2832 22.7598 24.1084 35.9023zM126.594 110.294c8.36328 45.4443 1.03809 94.2969 -23.1416 133.652
c-9.16113 14.9082 -25.5566 33.8008 -45.5352 28.4668c-16.1826 -4.32324 -28.459 -20.6553 -34.8594 -35.0684c-11.459 -25.8008 -10.2676 -58.6777 3.2959 -83.4873c0.849609 -1.55371 1.77051 -3.0166 2.69922 -4.47559
c16.7568 0.479492 32.8848 -5.74316 31.7793 -19.2666c-0.220703 -2.7373 -0.511719 -5.52246 -0.822266 -8.32715c19.2705 -9.66113 42.7266 -12.6904 66.584 -11.4941z" />
    <glyph glyph-name="o" unicode="&#xf5;" horiz-adv-x="215" 
d="M239.229 133.425c4.22461 -3.44141 6.22461 -8.72559 0.00976562 -11.7939c-21.8867 -10.7783 -48.9775 -19.9199 -77.3701 -25.0098c-4.98828 -42.4434 -22.2959 -82.5498 -61.9463 -99.5703c-32.126 -13.7871 -73.7432 -9.49121 -95.3193 20.4473
c-22.4053 31.0908 -18.5586 77.3379 -10.8213 112.614c0.995117 4.54297 3.92578 8.2998 8.0127 11.2617c-30.7295 46.0586 -19.4365 121.827 35.166 144.024c70.6475 28.7188 109.948 -49.0518 121.147 -105.585c3.81543 -19.2588 6.03418 -41.8652 5.16895 -64.6602
c20.5801 4.33887 39.8975 10.9902 55.2656 18.2715c5.51465 2.6123 15.415 4.29199 20.6865 0zM113.349 67.127c3.61914 8.16211 6.58203 16.6426 9.02832 25.2969c-22.5596 -0.676758 -44.8076 1.84082 -64.8926 8.68555
c-2.87891 -23.6484 -4.7041 -48.0527 5.59375 -69.3848c7.72168 -15.9902 13.626 -11.9307 26.1621 -0.5c10.7188 9.7793 18.2832 22.7598 24.1084 35.9023zM126.594 110.294c8.36328 45.4443 1.03809 94.2969 -23.1416 133.652
c-9.16113 14.9082 -25.5566 33.8008 -45.5352 28.4668c-16.1826 -4.32324 -28.459 -20.6553 -34.8594 -35.0684c-11.459 -25.8008 -10.2676 -58.6777 3.2959 -83.4873c0.849609 -1.55371 1.77051 -3.0166 2.69922 -4.47559
c16.7568 0.479492 32.8848 -5.74316 31.7793 -19.2666c-0.220703 -2.7373 -0.511719 -5.52246 -0.822266 -8.32715c19.2705 -9.66113 42.7266 -12.6904 66.584 -11.4941z" />
    <glyph glyph-name="o" unicode="&#xf4;" horiz-adv-x="215" 
d="M239.229 133.425c4.22461 -3.44141 6.22461 -8.72559 0.00976562 -11.7939c-21.8867 -10.7783 -48.9775 -19.9199 -77.3701 -25.0098c-4.98828 -42.4434 -22.2959 -82.5498 -61.9463 -99.5703c-32.126 -13.7871 -73.7432 -9.49121 -95.3193 20.4473
c-22.4053 31.0908 -18.5586 77.3379 -10.8213 112.614c0.995117 4.54297 3.92578 8.2998 8.0127 11.2617c-30.7295 46.0586 -19.4365 121.827 35.166 144.024c70.6475 28.7188 109.948 -49.0518 121.147 -105.585c3.81543 -19.2588 6.03418 -41.8652 5.16895 -64.6602
c20.5801 4.33887 39.8975 10.9902 55.2656 18.2715c5.51465 2.6123 15.415 4.29199 20.6865 0zM113.349 67.127c3.61914 8.16211 6.58203 16.6426 9.02832 25.2969c-22.5596 -0.676758 -44.8076 1.84082 -64.8926 8.68555
c-2.87891 -23.6484 -4.7041 -48.0527 5.59375 -69.3848c7.72168 -15.9902 13.626 -11.9307 26.1621 -0.5c10.7188 9.7793 18.2832 22.7598 24.1084 35.9023zM126.594 110.294c8.36328 45.4443 1.03809 94.2969 -23.1416 133.652
c-9.16113 14.9082 -25.5566 33.8008 -45.5352 28.4668c-16.1826 -4.32324 -28.459 -20.6553 -34.8594 -35.0684c-11.459 -25.8008 -10.2676 -58.6777 3.2959 -83.4873c0.849609 -1.55371 1.77051 -3.0166 2.69922 -4.47559
c16.7568 0.479492 32.8848 -5.74316 31.7793 -19.2666c-0.220703 -2.7373 -0.511719 -5.52246 -0.822266 -8.32715c19.2705 -9.66113 42.7266 -12.6904 66.584 -11.4941z" />
    <glyph glyph-name="o" unicode="&#xf3;" horiz-adv-x="215" 
d="M239.229 133.425c4.22461 -3.44141 6.22461 -8.72559 0.00976562 -11.7939c-21.8867 -10.7783 -48.9775 -19.9199 -77.3701 -25.0098c-4.98828 -42.4434 -22.2959 -82.5498 -61.9463 -99.5703c-32.126 -13.7871 -73.7432 -9.49121 -95.3193 20.4473
c-22.4053 31.0908 -18.5586 77.3379 -10.8213 112.614c0.995117 4.54297 3.92578 8.2998 8.0127 11.2617c-30.7295 46.0586 -19.4365 121.827 35.166 144.024c70.6475 28.7188 109.948 -49.0518 121.147 -105.585c3.81543 -19.2588 6.03418 -41.8652 5.16895 -64.6602
c20.5801 4.33887 39.8975 10.9902 55.2656 18.2715c5.51465 2.6123 15.415 4.29199 20.6865 0zM113.349 67.127c3.61914 8.16211 6.58203 16.6426 9.02832 25.2969c-22.5596 -0.676758 -44.8076 1.84082 -64.8926 8.68555
c-2.87891 -23.6484 -4.7041 -48.0527 5.59375 -69.3848c7.72168 -15.9902 13.626 -11.9307 26.1621 -0.5c10.7188 9.7793 18.2832 22.7598 24.1084 35.9023zM126.594 110.294c8.36328 45.4443 1.03809 94.2969 -23.1416 133.652
c-9.16113 14.9082 -25.5566 33.8008 -45.5352 28.4668c-16.1826 -4.32324 -28.459 -20.6553 -34.8594 -35.0684c-11.459 -25.8008 -10.2676 -58.6777 3.2959 -83.4873c0.849609 -1.55371 1.77051 -3.0166 2.69922 -4.47559
c16.7568 0.479492 32.8848 -5.74316 31.7793 -19.2666c-0.220703 -2.7373 -0.511719 -5.52246 -0.822266 -8.32715c19.2705 -9.66113 42.7266 -12.6904 66.584 -11.4941z" />
    <glyph glyph-name="p" unicode="p" horiz-adv-x="307" 
d="M307.343 133.508c9.57422 7.14746 38.8174 0.618164 23.7041 -10.4199c-24.0811 -17.583 -52.4111 -26.1191 -81.4961 -31.1426c-3.30859 -30.0449 -13.8115 -58.5 -32.7002 -80.0723c-23.2715 -26.5713 -67.0088 -39.6074 -99.8428 -24.3057
c-14.7354 6.86816 -22.7207 20.1436 -24.3926 34.5762c-5.11328 -46.8486 -9.16504 -93.7959 -16.0098 -140.452c-0.302734 -11.8916 -2.00586 -23.3701 -6.36816 -33.6602c-4.41699 -10.4199 -27.2715 -10.1367 -33.7578 -2.51367
c-21.7764 25.5996 -26.5361 63.4521 -32.3613 95.6289c-6.125 33.833 -10.2471 68.1572 -12.7139 102.438c-4.97559 69.1328 -8.04004 140.913 3.84375 209.515c4.44922 25.6982 66.8516 27.2051 67.6699 0c2.02148 -67.2051 -1.93164 -134.379 1.22266 -201.615
c4.75977 39.5996 11.2344 78.8682 21.8555 117.166c8.52832 30.7529 22.8467 69.7227 55.1064 82.7354c29.4033 11.8633 56.9932 -2.73438 74.8867 -26.4385c22.8936 -30.3281 35.4258 -73.3418 34.6943 -115.281c20.1992 4.37012 39.5918 11.1006 56.6592 23.8418z
M179.954 69.127c1.58105 4.5791 2.88574 9.27344 4.06543 14.0098c-11.498 -2.34082 -22.6064 -5.69629 -32.7705 -11.1094c-13.0674 -6.95898 -25.7891 -18.9883 -26.7529 -34.7383c-0.676758 -11.0381 4 -26.0254 16.6973 -21.9502
c20.71 6.64355 32.4082 35.4258 38.7607 53.7881zM187.396 99.8389c3.02539 19.373 3.41406 39.3721 2.35156 58.5127c-0.97168 17.5439 -1.79004 90.6533 -34.5645 76.3945c-23.2314 -10.1055 -34.2139 -52.25 -39.9727 -74.0498
c-8.24512 -31.2168 -13.2285 -63.3779 -17.457 -95.3545c-0.884766 -6.72266 -1.70703 -13.4492 -2.50977 -20.1797c1.4707 4.22852 3.42969 8.33105 5.98633 12.1426c17.9414 26.7402 49.3193 36.0781 79.4902 41.4238c2.21094 0.393555 4.44141 0.751953 6.67578 1.11035z
" />
    <glyph glyph-name="q" unicode="q" horiz-adv-x="335" 
d="M318.904 -34.665c29.0225 -32.4639 65.6504 -98.71 30.2402 -139.316c-15.8291 -18.1494 -44.7764 -20.6982 -66.8359 -15.1758c-28.9551 7.24609 -47.1797 28.4443 -62.9531 52.3916c-34.8672 52.9307 -48.084 117.973 -56.1836 179.863
c-2.54883 19.459 -4.75195 39.4453 -6.41992 59.6523c-6.56543 -21.9375 -14.7041 -43.1318 -25.7617 -62.7451c-23.2197 -41.1768 -74.5684 -58.2207 -115.344 -29.9619c-46.3223 32.1055 -39.5332 100.577 -23.9287 147.686
c16.7334 50.5195 56.5889 101.381 113.838 104.41c17.6895 0.936523 36.5781 -2.01758 52.3711 -10.5459c0.232422 1.86035 0.436523 3.73242 0.688477 5.58496c3.95312 28.9434 70.2148 29.0732 73.8184 0c5.03125 -40.583 2.77734 -81.6729 3.5918 -122.483
c0.65332 -32.7861 2.03027 -65.6982 4.59863 -98.4258c1.64844 8.0752 5.59766 16.2061 11.9541 24.3408c23.0078 29.4473 53.4697 54.5361 83.0781 77.0166c5.47559 4.1543 13.8857 5.7793 20.4355 3.05371c4.03223 -1.67969 11.1797 -7.20215 5.3584 -11.6475
c-29.3643 -22.4258 -64.6484 -48.9463 -84.958 -80.3604c-23.3809 -36.1611 21.5762 -60.0303 42.4121 -83.3369zM121.078 93.4902c13.5195 40.4414 21.8623 82.3242 31.8887 123.737c-6.38379 11.4902 -15.5645 20.2578 -29.4023 19.0029
c-19.5342 -1.77051 -36.4727 -22.0713 -46.9404 -36.7275c-28.3535 -39.7061 -43.4463 -94.9219 -36.6016 -143.564c1.56934 -11.1553 4.93262 -22.9443 12.0449 -31.8574c9.99121 -12.5244 20.3086 -10.1211 32.082 -0.211914
c19.8926 16.7451 28.9512 45.7715 36.9287 69.6211zM303.688 -167.128c22.335 -14.0273 27.54 23.3623 27.3828 36.5713c-0.216797 17.748 -5.41699 34.8115 -13.4141 50.5459c-15.4316 30.3516 -40.5986 48.2256 -62.6504 72.8574
c-5.73535 6.4082 -9.81836 12.918 -12.3281 19.4951c3.11133 -31.3311 7.74902 -62.9141 16.8984 -93.0332c5.17676 -17.04 11.667 -33.8877 19.3848 -49.9443c5.59766 -11.6436 13.3271 -29.333 24.7266 -36.4922z" />
    <glyph glyph-name="r" unicode="r" horiz-adv-x="288" 
d="M283.611 131.635c2.83984 10.2939 31.5947 8.19727 28.5029 -4.47656c-10.3965 -42.7461 -21.4346 -85.7871 -42.3887 -124.797c-15.8135 -29.4395 -39.5332 -66.2969 -76.2568 -69.1641c-90.8105 -7.08398 -99.4766 123.555 -96.4512 193.518
c-38.5254 -11.8555 -84.0371 -5.14062 -107.466 30.2891c-28.6406 43.3125 -3.42676 109.311 27.2197 145.062c27.6885 32.2988 86.7949 36.3584 90.8662 -16.2451c3.63086 -46.9629 -21.3906 -97.749 -48.9492 -136.637
c10.8877 -7.54102 25.1113 -8.58691 43.0127 0.767578c14.5508 17.3984 64.708 14.2598 65.6162 -9.38867c1.38477 -36.0312 0.197266 -72.0156 3.56055 -107.957c1.75879 -18.8184 3.86719 -37.9473 9.19727 -56.1484c2.96973 -10.1445 6.16797 -29.2969 18.9756 -20.8555
c26.6465 17.5635 43.6514 54.9326 55.2354 83.4121c12.2021 29.9932 20.7344 61.4502 29.3252 92.6201zM41.833 287.196c-14.417 -25.0293 -16.2412 -80.4502 -0.904297 -114.771c12.1074 19.6328 21.8662 40.6543 28.8164 62.7607
c5.46387 17.3789 11.1719 37.7275 7.65918 56.1172c-1.73047 9.05469 -5.52246 20.1084 -17.6816 16.4541c-7.375 -2.21875 -14.4316 -14.5586 -17.8896 -20.5615z" />
    <glyph glyph-name="s" unicode="s" horiz-adv-x="202" 
d="M212.402 143.625c14.8379 2.64746 27.54 -12.8896 7.94336 -16.4219c-34.1318 -6.14062 -66.6426 -25.8047 -94.7637 -45.5674c-4.09082 -2.875 -8.10352 -5.87988 -12.0449 -8.99121c8.05957 -11.75 15.2148 -24.0469 19.7188 -37.4639
c8.47266 -25.2344 4.58984 -47.5732 -7.23047 -70.9229c-17.3389 -34.2578 -75.7881 -63.4414 -102.14 -21.6553c-21.7568 34.5059 7.54102 81.6973 34.6084 111.671c-1.71875 2.18359 -3.44922 4.3584 -5.20312 6.52539
c-37.7227 46.6016 -95.8301 103.241 -69.7861 169.396c20.0811 51.0029 96.0107 66.3633 127.511 18.3818c7.15137 -10.8965 -24.2227 -14.2637 -30.8779 -4.85449c-14.0312 19.8369 -35.2451 13.7793 -40.3037 -8.53223
c-3.4541 -15.2422 -1.4248 -30.9453 2.69336 -45.8301c8.87012 -32.0547 28.5771 -59.6211 48.2256 -85.9053c3.00488 -4.02051 6.08887 -8.06445 9.17285 -12.1318c33.3447 24.9512 72.9873 45.2607 112.477 52.3018zM95.623 -30.958
c4.5625 16.1357 -5.36621 34.7773 -12.6123 48.6553c-2.69043 5.15723 -5.66406 10.1094 -8.81055 14.9434c-5.99902 -8.1543 -11.3018 -16.8164 -15.6875 -26.0254c-7.22168 -15.168 -14.9395 -34.8477 -8.92871 -51.6797
c9.79492 -27.4248 40.7246 -4.69238 46.0391 14.1064z" />
    <glyph glyph-name="t" unicode="t" horiz-adv-x="204" 
d="M383.765 388.207c6.45117 -11.3525 -24.0381 -14.1885 -29.9893 -4.7168c-13.4131 21.3555 -37.2822 27.5938 -60.8369 31.252c-26.7012 4.14648 -53.6973 5.62207 -80.7012 5.32715c-52.584 -0.574219 -104.755 -8.04395 -156.545 -16.6504
c0.0869141 -10.9551 0.0908203 -21.9062 -0.188477 -32.8301c-0.849609 -33.0029 -1.29004 -66.0215 -0.884766 -99.0361c0.802734 -65.7695 3.76074 -131.331 12.1191 -196.617c3.875 -30.2412 7.19531 -61.4697 16.1836 -90.6768
c3.4541 -11.2227 8.26855 -30.3125 18.4648 -37.708c13.5752 -9.8457 25.415 7.99316 33.1719 18.8184c35.8154 49.9805 50.1494 111.836 63.6729 170.745c2.75781 12.0049 32.5508 10.4629 30.1787 0c-13.5078 -59.5938 -27.3623 -121.438 -62.3711 -172.673
c-11.8477 -17.335 -25.9736 -34.5088 -47.4395 -39.2959c-21.1865 -4.72461 -43.9229 2.00977 -60.1484 16.0137c-42.4199 36.6143 -52.3955 105.283 -61.4033 157.293c-10.7939 62.3281 -14.5029 126.146 -14.916 189.328
c-0.208008 31.752 0.295898 63.5039 1.14551 95.2441c0.0791016 3.02539 0.224609 6.04199 0.366211 9.05859c-30.0879 -5.12109 -60.2188 -9.95508 -90.5352 -13.543c-24.998 -2.95801 -50.1416 -5.10156 -75.3086 -5.94727
c-22.6689 -0.762695 -46.5693 -2.24609 -68.0273 6.23047c-17.626 6.96289 3.45801 18.6221 14.6094 14.248c26.3984 -10.3535 64.6289 -3.86719 92.3682 -1.36914c28.6289 2.58008 57.1162 6.61621 85.4893 11.167c14.1885 2.27344 28.3574 4.7002 42.5186 7.16699
c1.72656 22.7402 4.33887 45.3896 5.22754 68.1416c1.01855 26.1191 66.8154 25.3682 65.8242 0c-0.727539 -18.5586 -0.523438 -37.2236 -0.298828 -55.9004c17.8115 2.9502 35.6504 5.73926 53.5518 8.11914c53.1152 7.06836 106.832 10.7383 160.329 6.15918
c39.8984 -3.41406 92.3525 -8.5752 114.373 -47.3486z" />
    <glyph glyph-name="u" unicode="u" horiz-adv-x="351" 
d="M346.592 130.23c2.28906 9.39746 30.6104 7.48438 28.4395 -2.19629c-13.1504 -58.2803 -44.6543 -173.522 -128.42 -134.226c-41.3652 19.4043 -54.625 68.8379 -61.3711 110.239c-0.5625 3.46582 -1.00684 6.94336 -1.49414 10.417
c-2.49023 -10.9941 -5.16895 -21.9258 -8.27637 -32.7041c-11.3486 -39.332 -34.8994 -87.2471 -80.6035 -92.0615c-51.1445 -5.38477 -82.7432 42.2549 -97.333 84.6709c-18.5234 53.8506 -16.9854 113.767 -8.40234 169.34c4.03613 26.1348 68.7598 26.7842 67.9766 0
c-1.30176 -44.5283 -7.76074 -89.001 -2.97754 -133.553c2.19531 -20.4551 5.86523 -40.3154 12.501 -59.8262c5.69141 -16.7295 14.6836 -46.3848 37.8369 -35.8271c15.3096 6.98242 26.8701 34.1514 32.8613 48.5439c7.29688 17.5322 12.001 36.0361 15.8838 54.583
c8.82715 42.168 16.2227 84.6738 24.251 126.999c0.161133 0.849609 0.495117 1.6123 0.916016 2.32812c0.172852 0.924805 0.279297 1.87305 0.479492 2.79395c5.02344 23.1182 60.8174 29.6992 68.2715 5.26758c10.0146 -32.8379 6.09668 -71.0254 6.80078 -105.094
c0.71582 -34.6553 1.12891 -70.0303 8.31934 -104.056c2.29688 -10.8799 6.65918 -44.7598 25.0215 -38.541c13.5986 4.60645 25.1865 27.3311 31.1934 38.7305c13.8584 26.2998 21.124 55.4717 28.126 84.1709z" />
    <glyph glyph-name="u" unicode="&#xfc;" horiz-adv-x="351" 
d="M346.592 130.23c2.28906 9.39746 30.6104 7.48438 28.4395 -2.19629c-13.1504 -58.2803 -44.6543 -173.522 -128.42 -134.226c-41.3652 19.4043 -54.625 68.8379 -61.3711 110.239c-0.5625 3.46582 -1.00684 6.94336 -1.49414 10.417
c-2.49023 -10.9941 -5.16895 -21.9258 -8.27637 -32.7041c-11.3486 -39.332 -34.8994 -87.2471 -80.6035 -92.0615c-51.1445 -5.38477 -82.7432 42.2549 -97.333 84.6709c-18.5234 53.8506 -16.9854 113.767 -8.40234 169.34c4.03613 26.1348 68.7598 26.7842 67.9766 0
c-1.30176 -44.5283 -7.76074 -89.001 -2.97754 -133.553c2.19531 -20.4551 5.86523 -40.3154 12.501 -59.8262c5.69141 -16.7295 14.6836 -46.3848 37.8369 -35.8271c15.3096 6.98242 26.8701 34.1514 32.8613 48.5439c7.29688 17.5322 12.001 36.0361 15.8838 54.583
c8.82715 42.168 16.2227 84.6738 24.251 126.999c0.161133 0.849609 0.495117 1.6123 0.916016 2.32812c0.172852 0.924805 0.279297 1.87305 0.479492 2.79395c5.02344 23.1182 60.8174 29.6992 68.2715 5.26758c10.0146 -32.8379 6.09668 -71.0254 6.80078 -105.094
c0.71582 -34.6553 1.12891 -70.0303 8.31934 -104.056c2.29688 -10.8799 6.65918 -44.7598 25.0215 -38.541c13.5986 4.60645 25.1865 27.3311 31.1934 38.7305c13.8584 26.2998 21.124 55.4717 28.126 84.1709z" />
    <glyph glyph-name="u" unicode="&#xfb;" horiz-adv-x="351" 
d="M346.592 130.23c2.28906 9.39746 30.6104 7.48438 28.4395 -2.19629c-13.1504 -58.2803 -44.6543 -173.522 -128.42 -134.226c-41.3652 19.4043 -54.625 68.8379 -61.3711 110.239c-0.5625 3.46582 -1.00684 6.94336 -1.49414 10.417
c-2.49023 -10.9941 -5.16895 -21.9258 -8.27637 -32.7041c-11.3486 -39.332 -34.8994 -87.2471 -80.6035 -92.0615c-51.1445 -5.38477 -82.7432 42.2549 -97.333 84.6709c-18.5234 53.8506 -16.9854 113.767 -8.40234 169.34c4.03613 26.1348 68.7598 26.7842 67.9766 0
c-1.30176 -44.5283 -7.76074 -89.001 -2.97754 -133.553c2.19531 -20.4551 5.86523 -40.3154 12.501 -59.8262c5.69141 -16.7295 14.6836 -46.3848 37.8369 -35.8271c15.3096 6.98242 26.8701 34.1514 32.8613 48.5439c7.29688 17.5322 12.001 36.0361 15.8838 54.583
c8.82715 42.168 16.2227 84.6738 24.251 126.999c0.161133 0.849609 0.495117 1.6123 0.916016 2.32812c0.172852 0.924805 0.279297 1.87305 0.479492 2.79395c5.02344 23.1182 60.8174 29.6992 68.2715 5.26758c10.0146 -32.8379 6.09668 -71.0254 6.80078 -105.094
c0.71582 -34.6553 1.12891 -70.0303 8.31934 -104.056c2.29688 -10.8799 6.65918 -44.7598 25.0215 -38.541c13.5986 4.60645 25.1865 27.3311 31.1934 38.7305c13.8584 26.2998 21.124 55.4717 28.126 84.1709z" />
    <glyph glyph-name="u" unicode="&#xfa;" horiz-adv-x="351" 
d="M346.592 130.23c2.28906 9.39746 30.6104 7.48438 28.4395 -2.19629c-13.1504 -58.2803 -44.6543 -173.522 -128.42 -134.226c-41.3652 19.4043 -54.625 68.8379 -61.3711 110.239c-0.5625 3.46582 -1.00684 6.94336 -1.49414 10.417
c-2.49023 -10.9941 -5.16895 -21.9258 -8.27637 -32.7041c-11.3486 -39.332 -34.8994 -87.2471 -80.6035 -92.0615c-51.1445 -5.38477 -82.7432 42.2549 -97.333 84.6709c-18.5234 53.8506 -16.9854 113.767 -8.40234 169.34c4.03613 26.1348 68.7598 26.7842 67.9766 0
c-1.30176 -44.5283 -7.76074 -89.001 -2.97754 -133.553c2.19531 -20.4551 5.86523 -40.3154 12.501 -59.8262c5.69141 -16.7295 14.6836 -46.3848 37.8369 -35.8271c15.3096 6.98242 26.8701 34.1514 32.8613 48.5439c7.29688 17.5322 12.001 36.0361 15.8838 54.583
c8.82715 42.168 16.2227 84.6738 24.251 126.999c0.161133 0.849609 0.495117 1.6123 0.916016 2.32812c0.172852 0.924805 0.279297 1.87305 0.479492 2.79395c5.02344 23.1182 60.8174 29.6992 68.2715 5.26758c10.0146 -32.8379 6.09668 -71.0254 6.80078 -105.094
c0.71582 -34.6553 1.12891 -70.0303 8.31934 -104.056c2.29688 -10.8799 6.65918 -44.7598 25.0215 -38.541c13.5986 4.60645 25.1865 27.3311 31.1934 38.7305c13.8584 26.2998 21.124 55.4717 28.126 84.1709z" />
    <glyph glyph-name="v" unicode="v" horiz-adv-x="334" 
d="M157.177 32.6934c19.4355 24.4473 30.5811 55.2764 40.2461 84.6094c3.97656 12.0723 7.81152 24.3057 11.3906 36.6572c-28.9941 26.3193 -49.1973 63.3027 -53.1465 100.538c-3.81152 35.9414 4.57129 81.5635 31.5752 107.805
c19.3174 18.7715 52.5605 17.8711 65.0264 -8.32617c17.6816 -37.1602 9.24414 -91.4668 2.96582 -130.335c-3.61523 -22.374 -8.55176 -44.6543 -14.4795 -66.667c21.123 -17.166 65.6592 -2.4541 102.536 58.0244c7.7959 12.7842 12.127 -2.75781 2.9502 -20.1602
c-37.8604 -71.7881 -81.1299 -72.7715 -111.796 -59.8848c-3.94922 -13.1104 -8.18945 -26.1191 -12.7363 -38.9541c-12.7881 -36.0947 -30.0684 -73.79 -63.0947 -95.4443c-31.583 -20.71 -69.3691 -16.9688 -97.7422 7.50977
c-31.7754 27.417 -48.0332 70.958 -59.9131 109.947c-13.3584 43.8555 -19.4551 89.4893 -22.9131 135.067c-2.07324 27.374 68.208 28.082 71.3584 0c7.75684 -69.1836 14.0703 -143.445 45.6729 -206.654c4.97559 -9.95215 12.2139 -26.1387 22.2363 -32.1299
c15.2861 -9.1377 30.7061 6.87988 39.8633 18.3975zM189.478 235.72c4.42578 -17.6621 13.9521 -36.7363 26.9248 -53.5723c10.208 41.1494 16.4941 83.3564 14.126 125.497c-0.452148 8.08789 -1.23145 16.1875 -2.65918 24.165
c-0.880859 4.90137 -4.49219 24.5146 -9.59375 25.7344c-6.10059 1.45898 -18.5742 -23.3818 -21.3438 -29.6406c-12.6973 -28.6992 -15.0615 -61.8047 -7.4541 -92.1836z" />
    <glyph glyph-name="w" unicode="w" horiz-adv-x="469" 
d="M466.214 136.552c11.3369 4.85059 32.626 -6.77539 14.9209 -14.5439c-22.2881 -9.79102 -50.0479 -9.60254 -76.3594 -4.45703c-12.3125 -57.8398 -37.4912 -118.099 -97.4238 -118.7c-62.2178 -0.625 -94.0127 46.5391 -110.164 99.6465
c-17.4648 -60.959 -50.7041 -121.883 -116.27 -113.41c-104.268 13.4766 -103.606 153.713 -93.7139 231.382c3.42578 26.8779 70.25 26.4336 68.5938 0c-2.30469 -36.7871 -7.32812 -73.625 -4.48047 -110.538c2.25 -29.1836 7.58008 -68.3623 30.792 -89.2383
c56.5098 -50.8184 95.3301 121.288 101.238 155.239c-0.0625 0.657227 -0.137695 1.32617 -0.196289 1.97949c-2.40723 25.9385 66.4463 27.3818 68.5938 0c2.55664 -32.6016 3.50879 -66.4619 13.6299 -97.8359c7.66699 -23.7588 30.7295 -75.4072 61.7539 -50.5547
c22.6338 18.1299 33.2783 50.377 40.7207 77.2949c2.12012 7.6748 4.02832 15.4316 5.75488 23.2441c-5.86133 2.06152 -11.498 4.27637 -16.7412 6.61719c-40.7012 18.1768 -65.3018 52.5205 -76.5205 95.0107c-9.95215 37.6836 -12.4775 78.6836 0.589844 115.946
c11.3643 32.4092 37.7314 61.4551 75.2188 55.2402c36.6807 -6.08496 47.6318 -47.4033 54.6729 -78.3799c10.0742 -44.3232 9.74805 -90.1455 4.39062 -135.087c-1.71484 -14.373 -3.81152 -31.7754 -7.00586 -50.0898c20.0615 -4.72852 41.4756 -5.83789 58.0049 1.23438z
M384.966 199.731c3.14258 32.0117 3.51074 64.4609 -1.0127 96.3584c-2.77344 19.5459 -11.0303 81.5547 -36.8389 84.584c-30.3438 3.55957 -42.2822 -57.8164 -43.8125 -78.4326c-2.1875 -29.4072 2.18262 -60.2266 12.3428 -87.9072
c10.668 -29.0654 28.9941 -53.123 57.375 -66.6865c1.44727 -0.692383 2.9502 -1.37305 4.48438 -2.0498c3.26465 17.9648 5.69141 36.1104 7.46191 54.1338z" />
    <glyph glyph-name="x" unicode="x" horiz-adv-x="266" 
d="M262.147 132.961c4.87012 10.2627 34.8252 7.05664 29.3965 -4.61816c-28.8643 -62.1035 -87.5928 -213.483 -181.641 -150.117c-24.6162 16.584 -40.9365 43.541 -52.8672 72.0244c-10.499 -17.8271 -20.6045 -35.9062 -30.2656 -54.2529
c-5.45996 -10.3652 -36 -6.59668 -29.9893 4.71191c15.0264 28.2783 31.0713 55.9668 48.0801 83.0225c-1.92383 5.99512 -3.72949 11.9111 -5.43262 17.6504c-14.7275 49.6064 -23.1611 101.479 -26.7998 153.04c-2.05762 29.168 69.9707 28.6924 74.7383 0.000976562
c4.94043 -29.7383 8.70508 -59.5586 13.1025 -89.2061c21.458 29.0654 44.0918 57.2852 67.8936 84.5684c7.02539 8.04785 35.5244 2.63477 25.793 -8.5957c-31.3506 -36.1855 -60.5732 -74.0186 -87.6445 -113.331c6.01465 -33.6279 13.8662 -66.8828 26.3047 -99.3623
c5.37305 -14.0312 16.0723 -46.4004 37.2979 -40.5156c17.0205 4.7207 31.2051 31.6543 39.7959 45.2998c20.0137 31.7871 36.1611 65.793 52.2373 99.6807z" />
    <glyph glyph-name="y" unicode="y" horiz-adv-x="298" 
d="M299.084 138.778c6.90723 5.4082 34.7617 2.57324 24.4639 -8.14941c-22.8896 -23.8184 -53.2529 -40.1387 -81.6025 -56.6318c0.515625 -29.4189 -0.180664 -58.8896 -3.08008 -88.085c-3.8584 -38.8604 -10.6045 -79.9746 -28.8799 -114.933
c-14.46 -27.6689 -35.1152 -57.0918 -62.6582 -72.9795c-48.2969 -27.8574 -123.778 -13.5469 -131.57 49.9023c-8.09961 65.9746 49.5781 127.728 96.207 165.981c19.2432 15.7812 39.71 29.6826 60.6172 42.9072c-2.08887 31.5156 -4.3584 63.0469 -7.37109 94.4844
c-2.75391 -9.27539 -5.7666 -18.4756 -9.23242 -27.5303c-12.3516 -32.2949 -29.5137 -68.0986 -67.1113 -75.1123c-94.5322 -17.6299 -110.932 121.769 -109.818 185.158c0.463867 26.1777 63.2676 25.6387 66.1348 0c2.3125 -20.7061 9.70801 -181.846 48.6426 -160.116
c12.6582 7.06055 19.79 25.9932 25.6553 38.6865c6.8291 14.7783 12.3838 30.1348 17.0967 45.7041c9.26758 30.6113 14.9678 62.1309 20.3926 93.6035c0.228516 1.30957 0.833984 2.43848 1.66016 3.43359c0.110352 1.11328 0.197266 2.23047 0.327148 3.33594
c2.63965 22.5791 52.8994 24.2393 60.7275 4.68555c17.4727 -43.667 18.1016 -95.9209 20.5684 -142.349c0.385742 -7.26562 0.704102 -14.5508 0.987305 -21.8398c19.8447 12.4141 39.3438 25.3633 57.8438 39.8428zM162.995 -144.521
c18.5664 55.1211 15.0898 118.361 11.2432 176.421c-8.47656 -5.81738 -16.8193 -11.8164 -24.958 -18.1064c-44.9883 -34.7852 -94.6777 -83.7266 -102.766 -142.95c-4.16992 -30.5439 8.53906 -65.7656 43.2842 -69.8604
c32.3457 -3.80762 63.5117 25.7451 73.1963 54.4961z" />
    <glyph glyph-name="y" unicode="&#xff;" horiz-adv-x="298" 
d="M299.084 138.778c6.90723 5.4082 34.7617 2.57324 24.4639 -8.14941c-22.8896 -23.8184 -53.2529 -40.1387 -81.6025 -56.6318c0.515625 -29.4189 -0.180664 -58.8896 -3.08008 -88.085c-3.8584 -38.8604 -10.6045 -79.9746 -28.8799 -114.933
c-14.46 -27.6689 -35.1152 -57.0918 -62.6582 -72.9795c-48.2969 -27.8574 -123.778 -13.5469 -131.57 49.9023c-8.09961 65.9746 49.5781 127.728 96.207 165.981c19.2432 15.7812 39.71 29.6826 60.6172 42.9072c-2.08887 31.5156 -4.3584 63.0469 -7.37109 94.4844
c-2.75391 -9.27539 -5.7666 -18.4756 -9.23242 -27.5303c-12.3516 -32.2949 -29.5137 -68.0986 -67.1113 -75.1123c-94.5322 -17.6299 -110.932 121.769 -109.818 185.158c0.463867 26.1777 63.2676 25.6387 66.1348 0c2.3125 -20.7061 9.70801 -181.846 48.6426 -160.116
c12.6582 7.06055 19.79 25.9932 25.6553 38.6865c6.8291 14.7783 12.3838 30.1348 17.0967 45.7041c9.26758 30.6113 14.9678 62.1309 20.3926 93.6035c0.228516 1.30957 0.833984 2.43848 1.66016 3.43359c0.110352 1.11328 0.197266 2.23047 0.327148 3.33594
c2.63965 22.5791 52.8994 24.2393 60.7275 4.68555c17.4727 -43.667 18.1016 -95.9209 20.5684 -142.349c0.385742 -7.26562 0.704102 -14.5508 0.987305 -21.8398c19.8447 12.4141 39.3438 25.3633 57.8438 39.8428zM162.995 -144.521
c18.5664 55.1211 15.0898 118.361 11.2432 176.421c-8.47656 -5.81738 -16.8193 -11.8164 -24.958 -18.1064c-44.9883 -34.7852 -94.6777 -83.7266 -102.766 -142.95c-4.16992 -30.5439 8.53906 -65.7656 43.2842 -69.8604
c32.3457 -3.80762 63.5117 25.7451 73.1963 54.4961z" />
    <glyph glyph-name="y" unicode="&#xfd;" horiz-adv-x="298" 
d="M299.084 138.778c6.90723 5.4082 34.7617 2.57324 24.4639 -8.14941c-22.8896 -23.8184 -53.2529 -40.1387 -81.6025 -56.6318c0.515625 -29.4189 -0.180664 -58.8896 -3.08008 -88.085c-3.8584 -38.8604 -10.6045 -79.9746 -28.8799 -114.933
c-14.46 -27.6689 -35.1152 -57.0918 -62.6582 -72.9795c-48.2969 -27.8574 -123.778 -13.5469 -131.57 49.9023c-8.09961 65.9746 49.5781 127.728 96.207 165.981c19.2432 15.7812 39.71 29.6826 60.6172 42.9072c-2.08887 31.5156 -4.3584 63.0469 -7.37109 94.4844
c-2.75391 -9.27539 -5.7666 -18.4756 -9.23242 -27.5303c-12.3516 -32.2949 -29.5137 -68.0986 -67.1113 -75.1123c-94.5322 -17.6299 -110.932 121.769 -109.818 185.158c0.463867 26.1777 63.2676 25.6387 66.1348 0c2.3125 -20.7061 9.70801 -181.846 48.6426 -160.116
c12.6582 7.06055 19.79 25.9932 25.6553 38.6865c6.8291 14.7783 12.3838 30.1348 17.0967 45.7041c9.26758 30.6113 14.9678 62.1309 20.3926 93.6035c0.228516 1.30957 0.833984 2.43848 1.66016 3.43359c0.110352 1.11328 0.197266 2.23047 0.327148 3.33594
c2.63965 22.5791 52.8994 24.2393 60.7275 4.68555c17.4727 -43.667 18.1016 -95.9209 20.5684 -142.349c0.385742 -7.26562 0.704102 -14.5508 0.987305 -21.8398c19.8447 12.4141 39.3438 25.3633 57.8438 39.8428zM162.995 -144.521
c18.5664 55.1211 15.0898 118.361 11.2432 176.421c-8.47656 -5.81738 -16.8193 -11.8164 -24.958 -18.1064c-44.9883 -34.7852 -94.6777 -83.7266 -102.766 -142.95c-4.16992 -30.5439 8.53906 -65.7656 43.2842 -69.8604
c32.3457 -3.80762 63.5117 25.7451 73.1963 54.4961z" />
    <glyph glyph-name="z" unicode="z" horiz-adv-x="257" 
d="M258.393 129.652c9.60938 6.05762 37.3301 -2.88086 21.9854 -12.5342c-28.2979 -17.7959 -55.207 -37.6016 -80.5625 -59.2363c9.61719 -20.7422 15.624 -43.1318 18.8066 -65.9658c9.62109 -69.0107 -16.5527 -146.176 -70.4072 -191.03
c-33.876 -28.2119 -124.978 -62.8477 -137.715 5.72266c-12.3789 66.627 46.5664 136.818 86.3115 183.715c13.3545 15.7539 27.4961 30.7646 42.208 45.1816c-6.27441 16.8086 -14.9043 32.9873 -26.6182 46.2588c-18.4131 20.8672 -41.7393 29.3242 -67.1152 38.7373
c-9.32617 3.46191 -24.9502 16.167 -12.0957 26.2959c31.9688 25.1865 68.1543 44.4727 99.5322 70.415c11.9893 9.91309 21.4453 24.9785 -0.579102 29.168c-10.5693 2.00977 -21.8193 1.41992 -32.5342 1.14453c-26.9014 -0.692383 -53.6338 -4.10645 -80.3115 -7.41504
c-14.082 -1.74609 -26.666 13.0596 -7.61523 15.7422c35.166 4.95215 70.7529 10.1289 106.359 9.71191c18.2949 -0.216797 52.9736 -1.38867 61.1992 -22.2764c8.31152 -21.1113 -12.9854 -48.7646 -26.5723 -62.6113
c-13.3662 -13.6221 -28.6172 -25.1279 -43.2734 -37.3301c26.9531 -11.1953 51.4834 -27.3428 69.625 -50.9326c3.26465 -4.24805 6.28613 -8.63379 9.12598 -13.1182c22.3857 18.126 45.8262 34.9736 70.2461 50.3574zM131.638 -152.033
c22.2598 49.4141 27.8008 106.885 15.5791 159.957c-5.12109 -5.41699 -10.1758 -10.9004 -15.1201 -16.4941c-37.8252 -42.7939 -79.3359 -94.0957 -89.2646 -151.979c-2.26562 -13.2051 -3.39844 -28.6055 2.50195 -41.0557
c8.53613 -18.0078 28.2002 -13.3936 42.6055 -5.77051c22.2051 11.75 33.8018 33.373 43.6982 55.3418z" />
    <glyph glyph-name="braceleft" unicode="{" horiz-adv-x="385" 
d="M301.82 -121.419c8.46094 9.08691 42.4443 4.14258 31.0996 -10.3604c-23.8174 -30.4502 -67.9717 -36.9482 -104.011 -29.9854c-42.1328 8.13867 -75.6152 39.9141 -92.8643 78.3252c-21.5479 47.9854 -15.5605 100.389 -13.043 151.254
c1.21582 24.5215 1.71582 49.5352 -2.67773 73.7979c-1.94727 10.7549 -4.60254 23.2559 -11.2148 32.2559c-0.397461 0.539062 -2.34863 2.49023 -4.16602 4.20117c-14.0547 -3.5127 -31.4883 -2.72168 -43.6943 4.79492c-10.29 6.33691 -15.958 17.5078 -6.21484 27.4521
c56.8838 58.0791 85.3555 133.442 119.412 205.644c15.1006 32.0195 31.7197 63.3389 59.29 86.4326c19.3301 16.1943 46.8613 29.1709 69.3613 11.4697c10.373 -8.16211 -15.6201 -15.1953 -22.7324 -9.99902c-10.5615 7.71777 -30.0684 -23.8457 -33.4785 -30.4268
c-6.125 -11.8203 -10.3418 -24.4238 -14.083 -37.165c-8.33105 -28.3691 -14.7939 -57.0684 -23.9277 -85.2285c-15.2627 -47.0498 -34.502 -92.0811 -61.9463 -132.688c18.8496 -7.47363 34.9385 -20.7061 43.7344 -39.7881
c19.0264 -41.2715 13.96 -92.0381 11.3799 -135.929c-2.70605 -46.0312 -7.05273 -96.7314 14.3857 -139.233c17.3037 -34.3086 53.792 -58.7676 85.3906 -24.8242zM101.562 180.881c-0.0830078 -0.271484 0.295898 -0.463867 0.913086 -0.609375
c-0.511719 0.428711 -0.885742 0.700195 -0.913086 0.609375z" />
    <glyph glyph-name="verticalbar" unicode="|" horiz-adv-x="202" 
d="M145.354 12.5625c2.57617 -48.5166 13.6113 -103.122 -0.75 -150.184c-5.39258 -17.6777 -43.7959 -13.1543 -51.3252 0c-25.2617 44.1465 -25.915 104.322 -30.9697 154.039c-5.21582 51.3174 -8.00488 102.891 -9.84961 154.433
c-3.70898 103.717 -4.95605 209.939 9.0791 312.952c4.40918 32.3496 84.0371 32.959 83.6514 -0.000976562c-1.22363 -104.413 -7.90723 -208.437 -6.11328 -312.952c0.904297 -52.8086 3.47656 -105.554 6.27734 -158.287z" />
    <glyph glyph-name="braceright" unicode="}" horiz-adv-x="385" 
d="M330.201 210.312c9.63379 -9.83789 4.02246 -21.1699 -6.2207 -27.4482c-12.1787 -7.47754 -29.9072 -8.24805 -43.8916 -4.73145c-2.56836 -2.83203 -5.5459 -6.65137 -5.37695 -6.3877c-5.5625 -8.74805 -8.0127 -20.0928 -9.80664 -30.1309
c-4.54688 -25.4619 -3.84668 -51.6162 -2.50098 -77.3301c2.60059 -49.626 7.93457 -100.991 -13.2207 -147.723c-17.8662 -39.4658 -52.1006 -71.1826 -95.5508 -78.8018c-35.3555 -6.19531 -78.1055 0.783203 -101.325 30.4619
c-11.4072 14.5781 22.7246 19.3574 31.0996 10.3613c32.6768 -35.0996 69.7979 -7.7334 86.6924 27.3818c20.1357 41.8457 15.7383 91.7041 13.0869 136.673c-2.62402 44.4453 -8.16211 97.3359 12.7139 138.604c8.95703 17.7051 24.4434 29.9854 42.4199 37.0859
c-27.4561 40.6104 -46.6992 85.6543 -61.9658 132.716c-9.42871 29.0732 -15.9189 58.7959 -24.7461 88.0146c-3.81934 12.6465 -8.1582 25.1982 -14.5264 36.8262c-3.50098 6.3916 -22.335 35.1934 -32.2158 27.9756c-7.01758 -5.125 -33.1406 1.80957 -22.7324 9.99902
c23.4951 18.4883 51.9033 3.61914 71.5361 -13.335c26.4062 -22.7988 42.459 -53.4883 57.1191 -84.5674c34.0527 -72.2012 62.5283 -147.568 119.412 -205.644zM282.166 180.229c0.967773 0.0986328 1.60938 0.282227 1.49512 0.648438
c-0.118164 0.393555 -0.696289 0.0595703 -1.49512 -0.648438z" />
    <glyph glyph-name="nonbreakingspace" unicode="&#xa0;" horiz-adv-x="447" 
 />
    <glyph glyph-name="exclamdown" unicode="&#xa1;" horiz-adv-x="178" 
d="M127.454 123.368c1.45508 -60.6992 1.22168 -121.687 -1.31934 -182.351c-1.24316 -29.7656 -75.0762 -29.5693 -75.6582 -0.000976562c-1.2002 60.707 -0.0830078 121.697 2.70996 182.354c2.66699 57.8789 -0.310547 122.421 19.1768 177.72
c4.18164 11.8633 35.7529 12.2051 39.7695 -0.000976562c18.2949 -55.582 13.9365 -119.896 15.3213 -177.721zM60.1494 366.75c-2.30469 16.3516 0.313477 33.6396 -1.05957 50.2236c-1.12109 13.543 21.5361 17.1309 30.4531 17.3594
c10.8799 0.279297 29.3477 -4.03223 30.4531 -17.3594c1.46289 -17.6777 2.25781 -37.8252 -4.85449 -54.4678c-7.54492 -17.6582 -52.1084 -16.2148 -54.9922 4.24414z" />
    <glyph glyph-name="cent" unicode="&#xa2;" horiz-adv-x="400" 
d="M323.769 56.3125c2.36816 9.53125 29.3057 7.65039 26.4307 -4.16211c-14.1533 -58.1152 -60.6953 -130.352 -124.03 -144.497c0.869141 -49.6143 2.5332 -99.2168 5.09766 -148.772c0.609375 -11.7617 -29.8721 -12.0566 -30.4854 0
c-2.49023 48.8711 -4.08691 97.7578 -4.88574 146.645c-1.10938 0.0869141 -2.21094 0.125977 -3.32812 0.251953c-35.1309 3.93359 -66.1748 29.6084 -88.4551 55.5586c-26.4609 30.8154 -41.1455 67.1221 -48.0996 106.898
c-13.8184 79.0371 -3.80371 168.668 29.7344 241.927c23.9717 52.3525 74.2666 106.554 133.424 113.111c1.84082 17.2373 3.75684 34.4707 5.81055 51.6885c1.33789 11.207 29.2031 10.46 28.0273 0.000976562c-1.96289 -17.418 -3.78809 -34.8516 -5.53809 -52.2969
c6.47461 -1.00293 13.0127 -2.56445 19.6055 -4.85742c72.8662 -25.3398 64.1689 -135.646 48.9971 -195.031c-3.63477 -14.2197 -44.2998 -12.8779 -44.127 3.40332c0.366211 34.6865 7.80469 68.1143 2.4668 102.931c-2.58008 16.8398 -11.8008 53.1074 -30.4814 57.1201
c-13.9795 -151.899 -20.0137 -304.53 -18.0938 -457.063c26.0801 6.17188 48.3955 30.8115 63.2412 51.1719c16.6426 22.8262 27.8965 48.623 34.6895 75.9736zM195.514 -67.3408c-1.45508 146.302 4.68848 292.545 18.4092 438.261
c-33.0029 -31.3975 -50.9521 -84.3828 -62.7998 -125.284c-17.1309 -59.1377 -22.7598 -123.031 -16.7021 -184.324c2.79297 -28.2744 8.18945 -55.9277 21.2256 -81.4414c8.25684 -16.1592 22.0596 -37.6445 39.8672 -47.2109z" />
    <glyph glyph-name="sterling" unicode="&#xa3;" horiz-adv-x="466" 
d="M384.107 -39.4238c9.03516 7.55664 40.7764 0.532227 28.708 -9.55762c-54.0713 -45.2363 -118.039 -26.4609 -176.296 -1.34863c-9.90039 -21.0605 -23.5771 -40.0713 -43.9531 -51.6992c-32.5225 -18.5508 -77.6836 -15.6953 -108.681 4.74707
c-26.6143 17.5557 -46.9668 55.0664 -23.7354 83.4707c22.5 27.5078 62.0723 28.3887 93.9697 21.0879c8.16992 -1.87207 16.1396 -4.29102 23.9834 -7.06055c14.4131 44.748 19.5029 93.4141 20.8877 141.172c-1.58887 -0.251953 -3.18164 -0.480469 -4.77051 -0.736328
c-13.6025 -2.20312 -25.3486 12.1113 -7.28906 15.0693c4.12988 0.676758 8.26758 1.28223 12.4014 1.93164c0.232422 17.4971 0.0751953 34.8047 -0.235352 51.6562c-0.783203 42.6641 -4.69727 85.5088 -2.02637 128.173c2.1875 34.958 10.1094 77.4766 37.8213 101.751
c21.3398 18.6924 56.7734 21.918 81.7168 9.2832c30.2021 -15.3018 40.4844 -47.6279 44.2803 -79.1201c1.23926 -10.2783 -25.9023 -10.8486 -27.4131 0c-3.28418 23.6133 -10.2471 51.6006 -32.3613 64.7227c-26.4414 15.6875 -37.4395 -20.0928 -40.9248 -39.8633
c-8.41797 -47.7578 0.794922 -96.2275 5.25586 -143.816c2.57227 -27.4482 4.55078 -55.2236 5.28613 -83.042c9.13379 1.0498 18.2793 2.03711 27.4326 2.94531c13.6416 1.35742 25.8164 -13.4287 7.36816 -15.2344c-11.5254 -1.12891 -23.0273 -2.40723 -34.5215 -3.76074
c0.436523 -53.5283 -4.24414 -107.029 -18.9082 -158.512c-2.13184 -7.48145 -4.51562 -15.1357 -7.22949 -22.751c5.7627 -2.8125 11.5332 -5.58203 17.3428 -8.2373c38.4785 -17.583 85.8037 -31.457 121.891 -1.27051zM134.333 -73.9561
c-3.21387 0.298828 -4.16113 -2.94629 0.34668 -0.0195312c-0.102539 0.00390625 -0.201172 0.0078125 -0.34668 0.0195312zM161.559 -40.8037c3.24512 6.49414 6.12891 13.166 8.85059 19.9043c-14.3027 5.65625 -29.7695 10.1602 -43.6982 8.70117
c-22.3076 -2.33691 -28.2949 -24.459 -17.792 -42.0303c5.16504 -8.6377 12.6035 -13.2598 20.9346 -18.165c-0.0625 0.0390625 4.13086 -0.987305 5.07129 -1.41211c0.459961 0.306641 0.908203 0.597656 1.47852 1.03809c11.3408 8.73242 18.7754 19.1875 25.1553 31.9639
z" />
    </font>
</defs>
</svg>
