<?xml version="1.0" standalone="no"?>
<!DOCTYPE svg PUBLIC "-//W3C//DTD SVG 1.1//EN" "http://www.w3.org/Graphics/SVG/1.1/DTD/svg11.dtd" >
<svg xmlns="http://www.w3.org/2000/svg" xmlns:xlink="http://www.w3.org/1999/xlink" version="1.1">
<metadata>
Created by FontForge 20170812 at Sat Oct 29 06:56:41 2022
 By www-data
</metadata>
<defs>
<font id="AllowRegular" horiz-adv-x="0" >
  <font-face 
    font-family="Allow"
    font-weight="400"
    font-stretch="normal"
    units-per-em="1000"
    panose-1="0 0 0 0 0 0 0 0 0 0"
    ascent="800"
    descent="-200"
    x-height="338.604"
    cap-height="717.108"
    bbox="-209.997 -349.215 1074.43 815.679"
    underline-thickness="50"
    underline-position="-100"
    unicode-range="U+000A-20AC"
  />
<missing-glyph horiz-adv-x="527" 
d="M50 700h427v-700h-427v700zM78 680l185 -309l186 309h-371zM251 350l-180 300v-601zM264 329l-185 -308h370zM276 350l181 -303v605z" />
    <glyph glyph-name=".notdef" horiz-adv-x="527" 
d="M50 700h427v-700h-427v700zM78 680l185 -309l186 309h-371zM251 350l-180 300v-601zM264 329l-185 -308h370zM276 350l181 -303v605z" />
    <glyph glyph-name=".null" 
 />
    <glyph glyph-name=".null" 
 />
    <glyph glyph-name="LF" unicode="&#xa;" 
 />
    <glyph glyph-name="controlCR" unicode="&#xd;" 
 />
    <glyph glyph-name="space" unicode=" " horiz-adv-x="340" 
 />
    <glyph glyph-name="exclam" unicode="!" horiz-adv-x="191" 
d="M139.802 594.253c3.38379 -22.0674 0.52832 -45.8291 -0.150391 -68.0791c-0.698242 -22.6973 -1.33789 -45.3975 -1.92871 -68.0977c-1.12207 -43.2402 -2.0459 -86.4873 -2.77637 -129.737c-1.49414 -88.6797 -1.97363 -177.373 -2.96191 -266.06
c-0.352539 -31.6016 -80.542 -31.21 -80.1963 0c0.998047 89.8184 4.12402 179.562 7.91602 269.303c1.87598 44.3369 3.9541 88.6641 6.23828 132.981c1.16797 22.7002 2.3916 45.3975 3.6709 68.0947c1.25 22.165 1.46191 44.8818 6.84863 66.4824
c3.06055 12.2783 25.9404 13.835 35.3799 13.166c11.251 -0.795898 25.9893 -5.1875 27.96 -18.0537zM126.545 -63.3145c1.26562 -9.15234 0.700195 -18.5811 1.85547 -27.8086c0.861328 -6.91699 -6.24512 -12.2979 -11.2764 -15.5117
c-7.86035 -5.02148 -18.0898 -6.19629 -27.2158 -6.42773c-14.1025 -0.359375 -36.6328 5.11621 -38.4922 21.9395c-0.985352 8.9209 -2.32031 18.9385 -0.548828 27.8105c1.45898 7.30859 4.95703 11.3379 11.082 15.25c7.72656 4.93652 17.7832 6.08789 26.7559 6.31641
c14.2031 0.362305 35.5586 -5.05762 37.8398 -21.5684z" />
    <glyph glyph-name="quotedbl" unicode="&#x22;" horiz-adv-x="241" 
d="M76.7217 474.644c10.1377 0 24.9697 -3.40723 26.7188 -15.2285c2.40137 -16.2393 4.38184 -32.4072 5.96387 -48.7451c1.20117 -12.4287 -20.1641 -16.1416 -28.3213 -16.1416c-10.1318 0 -27.292 3.57324 -28.3232 16.1416
c-1.33789 16.2656 -2.25195 32.4336 -2.75488 48.7451c-0.362305 11.8281 18.3701 15.2285 26.7168 15.2285zM190.832 412.174c2.58789 -12.4482 -21.8086 -16.5479 -29.0361 -16.5479c-11.4238 0 -26.5898 3.75586 -29.0342 16.5498
c-3.11621 16.3184 -5.50098 33.6543 -2.87793 50.1709c3.40625 21.4404 53.4922 22.1904 55.5703 -0.000976562c1.58301 -16.8926 1.90625 -33.459 5.37793 -50.1719z" />
    <glyph glyph-name="quotedbl" unicode="&#x201d;" horiz-adv-x="241" 
d="M76.7217 474.644c10.1377 0 24.9697 -3.40723 26.7188 -15.2285c2.40137 -16.2393 4.38184 -32.4072 5.96387 -48.7451c1.20117 -12.4287 -20.1641 -16.1416 -28.3213 -16.1416c-10.1318 0 -27.292 3.57324 -28.3232 16.1416
c-1.33789 16.2656 -2.25195 32.4336 -2.75488 48.7451c-0.362305 11.8281 18.3701 15.2285 26.7168 15.2285zM190.832 412.174c2.58789 -12.4482 -21.8086 -16.5479 -29.0361 -16.5479c-11.4238 0 -26.5898 3.75586 -29.0342 16.5498
c-3.11621 16.3184 -5.50098 33.6543 -2.87793 50.1709c3.40625 21.4404 53.4922 22.1904 55.5703 -0.000976562c1.58301 -16.8926 1.90625 -33.459 5.37793 -50.1719z" />
    <glyph glyph-name="quotedbl" unicode="&#x201c;" horiz-adv-x="241" 
d="M76.7217 474.644c10.1377 0 24.9697 -3.40723 26.7188 -15.2285c2.40137 -16.2393 4.38184 -32.4072 5.96387 -48.7451c1.20117 -12.4287 -20.1641 -16.1416 -28.3213 -16.1416c-10.1318 0 -27.292 3.57324 -28.3232 16.1416
c-1.33789 16.2656 -2.25195 32.4336 -2.75488 48.7451c-0.362305 11.8281 18.3701 15.2285 26.7168 15.2285zM190.832 412.174c2.58789 -12.4482 -21.8086 -16.5479 -29.0361 -16.5479c-11.4238 0 -26.5898 3.75586 -29.0342 16.5498
c-3.11621 16.3184 -5.50098 33.6543 -2.87793 50.1709c3.40625 21.4404 53.4922 22.1904 55.5703 -0.000976562c1.58301 -16.8926 1.90625 -33.459 5.37793 -50.1719z" />
    <glyph glyph-name="numbersign" unicode="#" horiz-adv-x="522" 
d="M454.172 245.876c5.69727 0.114258 17.9727 -2.37305 17.9697 -10.2236c0 -8.04688 -12.0371 -10.1123 -17.9727 -10.2461c-24.3252 -0.538086 -48.6406 -1.36719 -72.9492 -2.34961c-0.140625 -5.47559 -0.28125 -10.9541 -0.382812 -16.4326
c-0.398438 -21.5391 -0.447266 -43.0615 -0.352539 -64.584c8.33008 0.00292969 16.6699 -0.140625 25.0264 -0.5c18.0371 -0.773438 18.1777 -17.8096 0 -17.0293c-8.33398 0.355469 -16.6543 0.499023 -24.9648 0.496094
c0.264648 -28.3975 0.848633 -56.792 1.6084 -85.1992c0.727539 -27.2197 1.62793 -54.4131 2.56445 -81.623c0.430664 -12.5293 0.600586 -25.0625 1.07324 -37.5918c0.277344 -7.2959 0.639648 -14.5889 0.753906 -21.8916
c0.0263672 -1.53711 0.646484 -12.0176 -0.616211 -15.2412c5.42969 -5.64453 4.5127 -12.373 -0.469727 -18.0215c-0.355469 -0.404297 -0.714844 -0.808594 -1.07031 -1.21289c-12.6797 -14.377 -42.4082 -11.1006 -55.6885 0
c-8.17969 6.83594 -8.57812 21.4346 -10.6924 31.3506c-3.08691 14.4775 -5.20801 29.1572 -7.36523 43.8018c-3.98438 27.0527 -6.26172 54.3242 -8.4248 81.5762c-2.62305 33.0244 -4.06543 66.1953 -4.89062 99.376
c-20.6865 -2.08203 -41.3408 -4.66016 -61.9922 -7.33594c-0.206055 -36.499 0.244141 -73.0117 1.27148 -109.481c1.40625 -49.9492 6.0752 -99.9834 6.25781 -149.948c2.52539 -3.34766 3.42285 -7.32812 1.03125 -11.8408
c-1.6123 -3.04785 -3.80469 -5.79199 -6.16406 -8.29492c-16.1846 -17.1797 -64.9229 -15.6885 -70.6133 10.9014c-11.1426 52.0537 -13.9385 106.13 -16.8232 159.182c-1.79102 32.8936 -2.72754 65.7998 -2.95605 98.7197
c-21.9463 -2.23828 -43.9316 -3.93164 -65.9951 -4.57812c-18.2725 -0.535156 -17.9785 16.5039 0 17.0293c22.0537 0.642578 44.0264 2.33594 65.9502 4.57129c0.00683594 14.6143 0.133789 29.2285 0.398438 43.8467c0.257812 14.1709 0.629883 28.3486 1.10645 42.5195
c-24.9062 -2.69531 -49.8125 -5.43652 -74.7705 -7.90039c-6.72461 -0.662109 -20.2725 -0.501953 -23.4375 7.58691c-3.16504 8.0957 7.08691 12.2725 13.3096 13.3623c4.7998 0.841797 10.1738 3.80762 14.6475 5.70703c5.13281 2.17285 14.1875 2.06836 19.627 -1.07715
c17.1309 2.18262 34.3135 4.16016 51.5381 5.94824c3.6123 84.3242 11.3945 168.491 24.9551 251.787c3.16797 19.4668 26.9746 24.9941 43.8477 24.9941c12.6279 0 46.3145 -5.90918 43.8477 -24.9941c-10.4873 -81.1104 -18.8467 -162.459 -23.3467 -244.081
c19.0781 1.33105 38.1758 2.47949 57.2773 3.47754c0.508789 99.9434 5.01855 201.499 22.8965 299.381c3.2168 17.6133 24.1582 22.6514 39.7422 22.6514c12.5527 0 40.5059 -5.12598 39.7422 -22.6514c-4.30078 -98.7559 -13.3945 -197.013 -16.8203 -295.802
c24.1621 0.776367 48.2783 1.37695 72.3164 1.86621zM235.474 130.047c20.4785 2.65625 40.9629 5.21289 61.4805 7.28516c-0.352539 18.8271 -0.547852 37.6475 -0.645508 56.4385c-0.0419922 8.28418 -0.0615234 16.5918 -0.0615234 24.9092
c-10.6045 -0.666016 -21.209 -1.3125 -31.8105 -2.06641c-8.85254 -0.632812 -17.6914 -1.34375 -26.5244 -2.09766c-0.792969 -17.124 -1.46875 -34.2578 -1.88672 -51.4082c-0.267578 -11.0156 -0.420898 -22.0381 -0.551758 -33.0605z" />
    <glyph glyph-name="dollar" unicode="$" horiz-adv-x="386" 
d="M301.963 363.133c-4.93066 27.8193 -25.1855 54.4238 -51.7363 65.5732c-3.08301 -73.9287 -8.83594 -147.766 -13.7041 -221.603c44.8135 -46.1113 95.2842 -95.499 92.041 -164.859c-1.41309 -30.208 -12.918 -66.7207 -36.3262 -87.1045
c-16.0469 -13.9756 -37.1611 -20.6553 -58.3672 -21.3174c0.854492 -13.5146 1.74805 -27.0293 2.89648 -40.5244c1.23633 -14.5557 4.22168 -29.542 3.1709 -44.1143c-1.1709 -16.2656 -40.6064 -18.2988 -44.7637 -3.45215
c-7.99414 28.5508 -6.58105 62.1758 -6.97266 91.7119c-0.0195312 1.45898 -0.00976562 2.9209 -0.0224609 4.38281c-55.7959 22.0703 -80.0693 83.7598 -94.6348 139.448c-3.84082 14.6895 29.7939 16.9736 32.9395 5.1748
c10.4736 -39.2764 22.8857 -80.9307 53.3457 -109.69c2.66895 -2.51855 5.46191 -4.8418 8.34961 -6.96582c0.166016 18.6865 0.625977 37.373 1.37012 56.04c1.6084 40.3887 4.0459 80.7871 6.76074 121.149c-6.74805 5.5498 -13.5186 11.0059 -20.1748 16.4424
c-29.7744 24.3057 -57.6855 49.6289 -81.1758 80.209c-21.8877 28.4922 -47.5703 62.6484 -44.7441 100.733c5.37109 72.46 90.5566 113.433 154.611 114.963c4.01367 0.0976562 8.03027 0.0195312 12.0342 -0.208984c1.29492 34.9102 1.9082 69.8496 1.41504 104.832
c-0.185547 13.2119 33.5332 13.2607 33.8008 0c0.75 -36.9785 0.287109 -73.9219 -0.936523 -110.839c41.9971 -12.5654 77.0771 -43.7197 84.624 -89.9814c2.01953 -12.3662 -31.4287 -13.3779 -33.8008 0zM203.169 243.42c4.7373 63.3467 9.68848 126.702 12.6279 190.137
c-25.627 -3.50391 -49.3027 -22.373 -61.9336 -44.2734c-17.4473 -30.2607 -8.62402 -60.1035 8.21973 -88.6318c12.1377 -20.5566 25.9365 -39.3281 41.0859 -57.2314zM256.829 86.9385c-7.51172 10.2422 -16.0557 19.7344 -25.1719 28.7402
c-1.10254 -29.9082 -1.625 -59.8359 -1.25977 -89.8447c0.290039 -23.6631 1.03711 -47.3096 2.26367 -70.9395c17.3359 0.756836 33.6045 9.7002 44.2773 29.3008c17.9561 32.9814 0.362305 74.8252 -20.1094 102.743z" />
    <glyph glyph-name="percent" unicode="%" horiz-adv-x="642" 
d="M567.431 568.244c9.02832 -2.15039 31.0615 -12.5488 22.3887 -26.002c-35.0898 -54.4385 -72.8096 -107.118 -107.896 -161.57c-123.976 -192.412 -224.908 -399.285 -300.813 -615.207c-9.01562 -25.6465 -81.8574 -19.3682 -71.4814 11.2314
c20.8896 61.6045 43.7334 122.526 68.6621 182.613c44.252 106.655 94.8926 210.635 151.423 311.315c56.0996 99.918 116.333 200.077 189.426 288.601c10.2881 12.4609 34.2998 12.3535 48.291 9.01855zM185.787 167.123
c-44.2393 -15.6104 -92.7354 1.50586 -118.81 39.7217c-23.6924 34.7305 -19.6465 82.627 -5.72656 121.727c0.22168 6.67285 2.96289 12.5166 7.21777 17.623c1.36719 2.69238 3.86328 5.0127 7.12598 6.91797c11.332 9.14648 26.9717 15.3428 37.8369 19.4316
c25.0137 9.41699 53.5186 11.2734 78.7773 1.6709c87.4727 -33.2559 79.3672 -176.818 -6.42188 -207.092zM129.18 223.091c4.9043 -10.373 13.4541 -23.6182 25.2793 -26.832c0.0751953 -0.0195312 0.117188 -0.0361328 0.178711 -0.0556641
c3.23047 0.345703 6.15723 1.79102 8.98633 3.29199c7.42676 3.93848 13.5449 10.1738 18.2529 17.0752c20.3311 29.8135 23.9199 75.8604 5.76855 107.367c-6.23242 10.8203 -19.2969 25.5557 -33.1807 24.7988c-4.4375 -0.245117 -14.0078 -3.04785 -22.4854 -7.06152
c-0.0166016 -0.260742 0 -0.505859 -0.0292969 -0.773438c-4.44434 -39.6377 -21.0557 -79.1484 -2.77051 -117.811zM478.263 90.0303c53.9131 0.868164 96.9785 -44.9531 81.7861 -99.4609c-15.4502 -55.4111 -83.3359 -84.8887 -136.927 -78.9307
c-28.6484 3.18457 -56.2656 17.7988 -67.4775 45.5762c-11.792 29.2168 -4.55762 60.1758 7.09082 88.1689c4.71191 11.3223 21.2715 14.0693 32.9756 13.9746c2.11133 1.67383 4.15723 3.20117 6.04297 4.5459c21.8975 15.5967 49.5117 25.6924 76.5088 26.126z
M513.461 -12.5273c14.5234 28.1104 8.33008 79.75 -32.4473 79.1396c-16.4385 -0.248047 -32.7402 -7.6416 -45.5508 -17.5352c-2.11719 -1.63477 -4.24121 -3.39648 -6.33594 -5.21387c0.235352 -1.13574 0.327148 -2.32031 0.105469 -3.60547
c-3.38379 -19.6592 -8.91797 -39.2432 -7.77637 -59.3789c0.636719 -11.2412 5.04785 -29.0146 16.2822 -34.5977c10.6797 -5.30859 28.1914 1.12598 37.8955 5.66504c16.0176 7.48828 29.6729 19.7471 37.8271 35.5264z" />
    <glyph glyph-name="ampersand" unicode="&#x26;" horiz-adv-x="521" 
d="M455.073 77.8701c40.9463 -60.5605 -6.43359 -132.196 -61.7041 -162.323c-32.1562 -17.5283 -69.1514 -26.7783 -105.285 -31.4707c-36.7373 -4.77344 -74.9297 -5.13574 -109.008 11.3848c-71.2949 34.5645 -51.2861 117.521 -23.9365 175.037
c18.2695 38.418 42.7158 74.0723 71.5996 105.569c-42.0596 -3.50781 -84.0957 0.671875 -120.771 19.9854c-55.1016 29.0137 -66.9561 89.1533 -46.7256 144.562c19.1924 52.5625 67.3828 95.0654 115.228 121.473c52.6309 29.0469 118.862 46.5039 177.693 26.8672
c24.2861 -8.1084 45.8154 -23.6885 58.0547 -46.5254c13.3418 -24.8994 13.0029 -54.4453 12.3271 -81.8936c-0.333008 -13.6035 -34.5674 -13.4434 -34.5156 0c0.111328 29.0723 0.692383 63.0068 -19.8379 86.1445c-20.4326 23.0303 -50.8662 27.458 -79.6875 21.1963
c-53.6719 -11.6582 -103.638 -42.1533 -138.691 -84.2979c-33.6865 -40.5 -47.5674 -105.36 -1.99414 -143.39c17.9785 -15 40.8486 -17.7607 63.4805 -16.3154c32.0977 2.05273 64.7529 9.15625 96.2822 15.2812c13.251 2.57422 33.6475 0.469727 43.4717 -10.083
c9.22461 -9.90918 4.07227 -19.9424 -6.01953 -26.5859c-49.3164 -32.4629 -89.623 -76.999 -118.454 -128.41c-21.1084 -37.6377 -54.0801 -99.9697 -27.6895 -142.241c29.6406 -47.4785 106.649 -21.7471 145.883 -3.56934
c45.1162 20.9053 91.2051 69.9443 70.8447 123.91c-8.14453 21.5781 -26.7559 39.4561 -49.3418 45.2148c-11.2764 2.87109 -23.3066 2.05176 -34.4658 -0.87207c-9.25684 -2.42773 -26.916 -7.01855 -30.0352 -16.9248
c-5.74316 -18.2432 -57.5488 -13.8545 -50.4912 7.93555c5.79785 17.8975 30.916 26.8213 47.0674 32.3262c19.3623 6.60059 40.1895 9.59277 60.6123 8.41504c37.5469 -2.16309 74.5947 -18.5791 96.1104 -50.3994z" />
    <glyph glyph-name="quotesingle" unicode="'" horiz-adv-x="161" 
d="M110.854 363.391c4.22852 -18.2949 -49.0947 -21.6836 -53.4316 -0.000976562c-5.00488 25.0264 -18.1709 71.918 10.3145 87.3193c9.97852 5.39355 25.667 6.26465 35.5117 0c8.77441 -5.58301 9.2998 -14.7646 0 -20.2402
c-4.05957 -2.3916 0.302734 -24.0215 0.791992 -28.3477c1.47852 -13.0547 3.85742 -25.9336 6.81348 -38.7305z" />
    <glyph glyph-name="quotesingle" unicode="&#x2019;" horiz-adv-x="161" 
d="M110.854 363.391c4.22852 -18.2949 -49.0947 -21.6836 -53.4316 -0.000976562c-5.00488 25.0264 -18.1709 71.918 10.3145 87.3193c9.97852 5.39355 25.667 6.26465 35.5117 0c8.77441 -5.58301 9.2998 -14.7646 0 -20.2402
c-4.05957 -2.3916 0.302734 -24.0215 0.791992 -28.3477c1.47852 -13.0547 3.85742 -25.9336 6.81348 -38.7305z" />
    <glyph glyph-name="quotesingle" unicode="&#x2018;" horiz-adv-x="161" 
d="M110.854 363.391c4.22852 -18.2949 -49.0947 -21.6836 -53.4316 -0.000976562c-5.00488 25.0264 -18.1709 71.918 10.3145 87.3193c9.97852 5.39355 25.667 6.26465 35.5117 0c8.77441 -5.58301 9.2998 -14.7646 0 -20.2402
c-4.05957 -2.3916 0.302734 -24.0215 0.791992 -28.3477c1.47852 -13.0547 3.85742 -25.9336 6.81348 -38.7305z" />
    <glyph glyph-name="parenleft" unicode="(" horiz-adv-x="422" 
d="M362.038 -196.458c14.0664 -8.24902 13.1104 -22.0146 0 -30.4492c-76.6953 -49.3652 -184.934 -16.2432 -237.503 52.6826c-48.2324 63.2393 -65.3926 145.661 -71.5918 223.443c-6.87793 86.3047 -1.21973 174.854 11.9072 260.317
c11.4004 74.2256 27.5127 156.461 70.9297 219.488c19.5811 28.4268 45.6123 53.3428 76.8975 68.4824c17.7051 8.56836 37.71 14.292 57.5449 13.8027c17.1826 -0.423828 29.4736 -7.22363 42.9268 -16.9141c16.3506 -11.7793 -13.9424 -20.752 -24.1553 -13.7656
c-21.6494 14.8037 -58.4453 -20.5859 -71.3369 -35.2334c-21.0098 -23.8721 -35.5166 -53.9141 -46.3174 -83.5967c-23.3887 -64.2861 -32.1104 -134.155 -36.9619 -202.051c-5.14258 -71.9473 -7.53711 -144.821 0.242188 -216.661
c6.9502 -64.1689 21.4082 -131.793 57.2715 -186.548c14.416 -22.0117 34.9795 -42.6338 59.5693 -52.9316c20.4199 -8.55176 36.5254 -10.5654 57.1504 -0.0654297c15.7695 8.02637 37.7812 9.1748 53.4268 -0.000976562z" />
    <glyph glyph-name="parenright" unicode=")" horiz-adv-x="386" 
d="M236.845 518.94c80.542 -123.548 105.113 -277.863 97.6416 -422.979c-3.55957 -69.083 -15.9355 -141.879 -52.249 -201.881c-37.6182 -62.1592 -99.0723 -104.414 -173.928 -96.332c-11.3057 1.2207 -29.9141 9.3291 -26.9316 23.5166
c3.14551 14.9414 24.5957 18.0801 36.9297 18.583c20.2861 0.829102 42.9766 17.6465 58.4785 34.0195c21.4961 22.7031 36.2539 51.4434 47.5732 80.3662c21.46 54.8467 27.5879 114.281 29.0986 172.743c1.5957 61.8389 -1.7002 124.366 -11.6885 185.451
c-9.85449 60.2695 -24.5283 120.389 -47.4043 177.125c-17.8096 44.167 -55.9668 104.616 -112.089 83.1006c-8.02051 -3.07324 -21.1338 -2.58398 -28.0186 3.18848c-6.37891 5.35156 -5.40625 11.9854 1.7002 16.2568c32.0615 19.2676 73.9346 15.4561 106.724 0.0878906
c32.3389 -15.1592 55.0713 -43.958 74.1631 -73.2461z" />
    <glyph glyph-name="asterisk" unicode="*" horiz-adv-x="252" 
d="M202.183 348.342c0 -7.88672 -11.9121 -10.1318 -17.7891 -10.1445c-12.7227 -0.0263672 -25.3896 -0.483398 -38.0371 -1.12305c11.7207 -10.082 24.293 -19.1172 37.6543 -27.1533c15.7832 -9.49512 -12.5654 -18.6934 -22.3867 -12.7617
c-9.7207 5.87012 -19.1279 12.2363 -28.1436 19.1016c-0.375 -13.3613 -0.420898 -26.7461 -0.0585938 -40.167c0.359375 -13.1592 -33.4414 -13.2959 -33.8008 0.000976562c-0.241211 8.89844 -0.277344 17.793 -0.206055 26.6846
c-5.08984 -4.69531 -10.1543 -9.41699 -15.2803 -14.0762c-9.39746 -8.54199 -42.5029 -0.727539 -30.1104 10.0332c13.29 11.5439 26.4434 23.2354 39.5244 35.0049c-9.36816 -0.626953 -18.7393 -1.22363 -28.1367 -1.7002
c-16.3379 -0.832031 -22.498 15.2285 -4.39844 18.5244c10.291 1.87305 20.71 3.29883 31.2002 4.39551c-3.31836 3.83398 -6.55176 7.74609 -9.65527 11.7627c-6.99609 9.05469 -12.9668 19.3945 -22.8115 25.6924c-15.4141 9.86035 12.5488 18.7256 22.1357 12.6172
c8.87207 -5.65137 15.9033 -13.3125 22.4521 -21.4932c1.12207 9.86426 2.40137 19.7148 3.90234 29.543c2.13086 13.9395 36.5713 12.4189 34.5156 0c-2.15039 -12.9834 -3.89258 -25.9863 -5.31836 -39.0117c9.87988 9.3125 19.6943 18.6963 29.4111 28.1846
c7.95801 7.77246 37.8984 1.75879 27.0293 -9.00586c-11.8281 -11.7168 -23.7441 -23.3428 -35.7061 -34.9199c8.77734 0.111328 17.5352 0.15332 26.2207 0.15332c5.6416 0 17.793 -2.27441 17.793 -10.1416z" />
    <glyph glyph-name="plus" unicode="+" horiz-adv-x="273" 
d="M209.101 143.282c19.3945 0.910156 18.9668 -17.1592 -0.000976562 -18.043c-14.7842 -0.695312 -29.5488 -1.57324 -44.3105 -2.53613c-0.0712891 -3.11914 -0.15625 -6.23828 -0.192383 -9.36133c-0.231445 -19.9658 -0.0908203 -39.958 0.0332031 -59.9238
c0.111328 -17.8154 4.67578 -39.6768 -11.0059 -51.4883c-10.9111 -8.21582 -28.4326 -10.3301 -40.5576 -2.97852c-10.4639 6.33984 -14.1865 11.1885 -16.8623 22.9805c-2.36523 10.4248 -3.48145 20.8535 -4.53223 31.4844
c-1.86621 18.9189 -2.78027 37.7588 -3.03516 56.7686c-0.0292969 2.11133 -0.0361328 4.22266 -0.0556641 6.33008c-6.24805 -0.603516 -12.5 -1.1748 -18.748 -1.82715c-5.18848 -0.544922 -17.3203 -0.447266 -19.4736 6.30078
c-2.09766 6.58105 5.45312 10.5127 11.0586 11.0996c9.03516 0.946289 18.0801 1.79102 27.1221 2.64258c0.146484 31.8369 1.64062 63.6836 6.52539 95.1484c4.50293 28.9912 76.584 29.4316 75.2002 0c-1.39648 -29.7119 -3.69727 -59.3555 -4.9082 -89.0645
c14.5752 0.933594 29.1543 1.78223 43.7432 2.46777z" />
    <glyph glyph-name="comma" unicode="," horiz-adv-x="239" 
d="M116.386 80.6309c10.6406 25.751 84.1475 17.3994 71.4805 -11.2295c-20.3838 -46.0664 -44.9346 -89.0723 -73.7598 -130.378c-8.68262 -12.4453 -25.6104 -15.1963 -39.8857 -12.9121c-8.95312 1.43262 -30.1357 9.82812 -22.6475 22.7363
c24.5244 42.2744 46.1514 86.6211 64.8125 131.783z" />
    <glyph glyph-name="hyphen" unicode="-" horiz-adv-x="274" 
d="M200.329 137.154c8.67578 -0.753906 23.4102 -6.93652 23.4131 -17.5283c0 -10.6504 -14.8037 -16.7617 -23.4111 -17.5283c-41.6543 -3.71289 -83.7852 0.277344 -125.143 5.88672c-10.7119 1.45215 -30.1494 9.81543 -24.0186 24.1133
c6.1377 14.3076 29.4551 15.459 42.3008 13.6904c35.5566 -4.9043 71.165 -5.53418 106.858 -8.63379z" />
    <glyph glyph-name="period" unicode="." horiz-adv-x="165" 
d="M111.126 25.0234c3.84375 -9.55078 2.86426 -21.5918 3.38281 -31.7822c0.299805 -5.96094 -4.99316 -10.1504 -9.44727 -12.9961c-6.58789 -4.20605 -15.1533 -5.18848 -22.8018 -5.38379c-7.29297 -0.185547 -16.4229 1.62891 -22.8018 5.38477
c-4.24219 2.49609 -9.7334 7.38086 -9.44629 12.9961c0.522461 10.1768 -0.453125 22.2266 3.40039 31.7773c1.99707 4.95312 9.11328 8.76074 13.7529 10.1963c4.8877 1.51367 9.99707 2.19922 15.1035 2.33008c8.83594 0.225586 24.9971 -2.93262 28.8574 -12.5225z" />
    <glyph glyph-name="slash" unicode="/" horiz-adv-x="537" 
d="M454.152 526.557c11.8213 -1.89258 40.4229 -13.2031 30.252 -30.3662c-130.802 -220.773 -256.072 -444.157 -364.604 -676.883c-11.0684 -23.7344 -80.5068 -17.042 -68.3848 10.7451c101.719 233.179 215.105 462.984 349.46 679.262
c10.5654 17.0068 35.1064 20.1494 53.2773 17.2422z" />
    <glyph glyph-name="zero" unicode="0" horiz-adv-x="398" 
d="M259.03 434.972c77.5371 -40.542 91.0557 -145.419 88.4521 -223.24c-1.51758 -45.2178 -9.71094 -90.1455 -24.0479 -133.079c-13.2871 -39.7949 -32.4277 -81.2666 -63.7324 -110.277c-34.5547 -32.0195 -86.5889 -48.1943 -132.345 -32.7539
c-46.3633 15.6455 -62.541 61.8223 -70.2451 105.892c-16.5625 94.7295 -2.17578 195.6 22.3096 287.575c0.15625 0.583984 0.414062 1.1123 0.632812 1.66016c5.87012 35.5068 20.8369 68.9287 50.5879 91.583c36.457 27.7607 87.333 34.1074 128.388 12.6406z
M277.166 217.642c6.72461 60.9414 12.0557 149.913 -44.5664 190.631c-25.6367 18.4355 -52.5947 7.53125 -72.5635 -14.252c-12.5488 -13.6885 -20.5557 -30.6426 -25.626 -48.5752c12.8164 -2.65234 32.3682 -9.75293 29.3857 -22.8633
c-19.1865 -84.3828 -32.6689 -171.154 -24.4688 -257.848c1.81445 -19.1465 4.77051 -38.1533 11.3848 -56.2891c2.82227 -7.73633 8.73828 -27.1895 17.3623 -31.291c4.17969 -0.185547 12.3105 5.81836 15.2832 7.92578c11.3193 8.02637 21.0654 19.5381 28.8477 30.9229
c40.1436 58.7227 57.2705 131.949 64.9609 201.639z" />
    <glyph glyph-name="one" unicode="1" horiz-adv-x="314" 
d="M235.578 -39.4521c8.93066 -0.408203 23.9229 -2.33496 28.0078 -12.1533c3.74219 -9.00586 -5.35449 -16.6113 -13.3418 -18.6895c-19.166 -4.98926 -38.7012 -6.5918 -58.2529 -9.45996c-10.1738 -1.49414 -20.3213 -3.14551 -30.4434 -4.95605
c-4.71777 -0.844727 -11.041 -1.19727 -16.3926 -2.28711c-8.84277 -4.16699 -21.5156 -4.65625 -27.6602 -3.43555c-0.22168 0.0419922 -0.44043 0.0878906 -0.662109 0.129883c-7.33496 1.45898 -27.9277 8.82031 -20.707 20.792
c7.35156 12.1904 25.3828 16.3965 42.0957 18.8408c-0.65625 2.00684 -1.00879 4.14746 -0.992188 6.43164c0.642578 98.8828 9.50781 199.146 23.9922 296.904c3.41016 23.0195 7.30566 46.0332 9.44922 69.2168c1.96387 21.248 3.81738 46.8096 -4.29395 67.1016
c-1.43262 3.58301 -3.21777 6.9043 -5.60938 9.94238c-1.23633 1.56934 -2.75391 2.63965 -3.81445 3.41016c-2.13086 -1.91211 -6.48047 -4.72461 -7.25098 -5.36426c-4.02637 -3.33496 -7.67773 -7.2373 -11.2246 -11.0811
c-14.3115 -15.5088 -24.6221 -33.6348 -32.4238 -53.1602c-7.93848 -19.8682 -64.5469 -13.5254 -54.9639 8.63672c19.375 44.8037 60.3574 99.791 115.367 93.7383c55.5576 -6.11133 68.7012 -69.8984 71.9707 -116.184
c4.15332 -58.8145 -0.568359 -118.999 -1.90918 -177.885c-1.37012 -60.1133 -1.54297 -120.363 -3.59863 -180.447c0.883789 -0.0263672 1.77441 0 2.6582 -0.0419922z" />
    <glyph glyph-name="two" unicode="2" horiz-adv-x="310" 
d="M145.441 432.492c42.1377 18.4131 96.4902 2.57031 110.605 -44.791c7.68457 -25.7607 2.61426 -54.2266 -2.86426 -79.834c-6.16016 -28.7959 -14.4023 -56.7793 -23.3496 -84.8145c-18.1221 -56.7979 -42.542 -111.491 -62.3447 -167.708
c-5.13867 -14.5918 -10.0654 -29.2617 -14.6143 -44.0459c-3.86035 -12.5488 -2.37207 -22.8398 -3.80469 -35.2393c2.72754 0.160156 5.35449 0.359375 6.21582 0.460938c13.3262 1.57227 25.8135 5.18066 38.3857 9.76172s35.3965 4.21875 45.0977 -6.73828
c10.3896 -11.7402 -0.913086 -20.916 -11.8242 -25.7061c-29.5 -12.9502 -63.0068 -20.8076 -95.3066 -21.5547c-30.2021 -0.698242 -69.4385 10.6211 -79.5107 42.9668c-8.08203 25.9502 8.88477 59.04 17.5703 83.1436c9.47266 26.2832 19.8066 52.25 30.4375 78.083
c21.8516 53.1104 46.2129 105.556 71.458 157.13c12.5166 25.5713 26.2178 52.3633 32.2734 80.3916c2.11719 9.79883 6.7666 26.7363 0.821289 35.6797c-6.11816 9.20508 -19.2715 11.9326 -29.3115 9.7793c-23.2451 -4.98242 -43.6904 -26.7656 -56.7393 -45.5957
c-14.1611 -20.4395 -22.9551 -43.7334 -25.4287 -68.4697c-1.34766 -13.4893 -34.9561 -12.7549 -33.8008 0c4.69531 51.8252 37.1387 105.735 86.0342 127.101zM142.399 -24.1562c-0.486328 0.143555 -0.821289 0.214844 -0.837891 0.136719
s0.30957 -0.120117 0.837891 -0.136719zM148.998 -26.2715c0.280273 -2.19238 1.85352 -0.730469 0 0z" />
    <glyph glyph-name="three" unicode="3" horiz-adv-x="362" 
d="M271.325 188.875c30.5869 -28.6582 46.9209 -73.2734 38.9141 -114.645c-8.97949 -46.3662 -36.793 -84.1084 -75.5596 -110.44c-41.6543 -28.293 -98.2822 -34.1406 -139.51 -2.19629c-37.5596 29.1025 -44.8682 79.0742 -45.1719 123.715
c-0.169922 24.9941 61.8906 24.958 63.7803 0c1.74902 -23.1113 1.49121 -46.9209 9.56055 -68.9746c5.44629 -14.8887 15.999 -34.4307 32.2646 -39.5957c0.894531 -0.28418 1.36719 -0.459961 1.64453 -0.577148
c-0.0722656 0.101562 -0.0234375 0.232422 0.475586 0.349609c3.05078 0.710938 5.79199 2.3877 8.46777 3.95703c8.34375 4.9043 15.4404 11.9521 21.8818 19.0977c12.2295 13.5703 21.8027 30.1758 28.2734 47.2275c12.6797 33.4258 9.51465 75.4717 -12.4092 104.6
c-22.71 30.1689 -50.5654 26.2832 -82.8877 22.5664c-16.6377 -1.91211 -38.5518 -0.956055 -51.2217 11.8799c-10.7188 10.8652 -5.16895 24.5303 7.09277 31.3301c30.7207 17.0391 58.9023 38.1924 84.5654 62.1553c23.9629 22.374 50.249 51.6104 51.4004 86.2656
c0.518555 15.6719 -4.47656 30.877 -18.0762 40.0234c-16.1777 10.8789 -35.3047 2.45117 -49.8379 -7.16504c-27.0303 -17.8838 -50.7188 -44.3984 -58.9736 -76.1855c-3.15234 -12.1348 -37.3906 -9.6875 -33.6289 5.2832
c10.1221 40.3066 46.2002 77.0605 83.3916 94.2695c36.3916 16.8398 83.5479 12.4443 106.346 -23.5527c38.7607 -61.1992 3.24023 -126.057 -45.041 -173.313c27.4385 -5.29883 53.2422 -16.3828 74.2588 -36.0742z" />
    <glyph glyph-name="four" unicode="4" horiz-adv-x="336" 
d="M286.399 403.054c-4.19629 -75.1064 -11.5674 -150.008 -13.3428 -225.251c-1.76172 -74.7539 3.18848 -149.136 9.95898 -223.527c2.24512 -24.6777 -60.958 -26.4268 -67.1963 -5.18457c-13.5146 46.0273 -20.5039 93.2422 -23.8223 140.839
c-22.7783 -5.74316 -46.2979 -8.09863 -69.2949 -5.64844c-39.749 4.23535 -73.4482 26.5801 -72.6914 69.6963c0.780273 44.3887 16.4688 89.5967 26.4961 132.508c10.4971 44.918 21.0986 89.8125 25.9961 135.761c2.14746 20.1582 52.3506 19.0752 50.5752 0
c-6.9209 -74.3848 -29.624 -145.977 -38.666 -220.049c-2.63965 -21.6133 -13.0352 -72.1592 16.3506 -80.9922c17.8516 -5.36426 39.2666 1.53027 59.2295 9.56055c-0.443359 14.6309 -0.625977 29.2744 -0.613281 43.9121
c0.0615234 76.2578 5.00195 152.588 13.2539 228.376c3.59277 32.9785 85.5674 32.2578 83.7666 0z" />
    <glyph glyph-name="five" unicode="5" horiz-adv-x="422" 
d="M311.963 282.59c53.541 -40.2285 64.0801 -110.133 58.8174 -172.905c-5.33789 -63.8193 -30.8604 -126.859 -81.5596 -167.937c-46.999 -38.082 -129.737 -57.3428 -172.736 -1.96094c-41.5664 53.5381 -26.7334 139.67 -13.4463 200.406
c5.03516 23.0195 63.6377 23.9004 61.2822 -0.000976562c-4.15723 -42.1836 -11.584 -84.4023 -8.0957 -126.912c1.87305 -22.8408 7.21484 -72.1729 38.7383 -73.3936c26.0869 -1.01172 52.6797 26.8701 66.7656 45.8184c19.3525 26.0312 30.6621 57.417 36.5127 89.0703
c10.7969 58.4326 13.2568 137.291 -35.7852 180.179c-20.4131 17.8545 -46.0664 20.0664 -71.3867 12.6924c-32.2969 -9.41016 -59.4609 -35.0078 -94.9326 -28.0674c-18.1094 3.54395 -32.8613 15.043 -27.6533 34.7119c4.39844 16.6113 11.6289 32.877 17.3945 49.0645
c8.71191 24.459 16.6152 49.5508 26.29 73.7979c-13.5186 -2.12402 -27.0332 -4.28125 -40.5283 -6.56543c-5.55957 -0.939453 -18.9609 -0.228516 -21.2285 6.87207c-2.375 7.43652 6.0332 11.0615 12.0537 12.0996c19.7148 3.40039 39.4619 6.57227 59.2256 9.63281
c1.30176 2.77344 2.57715 5.55957 3.9541 8.29395c5.75879 11.4434 42.6396 13.9268 44.3857 -1.15137c29.0303 4.08496 58.1025 7.86035 87.2344 11.2148c5.81445 0.668945 19.4795 0.457031 21.8877 -7.08398c2.36914 -7.42285 -6.13379 -11.7695 -12.4277 -12.4746
c-33.1807 -3.7168 -66.2959 -7.91309 -99.3496 -12.5723c-3.6377 -20.5791 -9.25 -40.8096 -14.2324 -61.0957c-3.23047 -13.1592 -6.46387 -26.3154 -9.69434 -39.4746c-0.515625 -2.10742 -1.44922 -4.95312 -2.5127 -8.15723
c1.40332 0.532227 2.80273 1.07422 4.21582 1.57715c19.7637 7.02539 40.4014 11.2705 61.3232 12.5557c36.9141 2.26465 75.5439 -5.73633 105.488 -28.2344z" />
    <glyph glyph-name="six" unicode="6" horiz-adv-x="346" 
d="M250.116 143.935c29.2129 -16.2168 46.3252 -47.4443 46.2109 -80.668c-0.225586 -67.3369 -59.0234 -120.48 -125.277 -117.922c-36.3525 1.40332 -68.8975 17.2451 -89.9561 47.2383c-19.6719 28.0186 -29.376 64.9941 -30.8281 98.8438
c-3.08008 71.749 20.876 143.403 49.2959 208.326c14.6279 33.4121 32.1895 66.2344 52.8115 96.3613c20.002 29.2227 40.7578 50.7158 74.4805 63.0625c10.2559 3.75195 51.127 -1.5957 34.6006 -19.7217c-36.0615 -39.5566 -58.2236 -95.3818 -78.7568 -144.045
c-20.5889 -48.791 -37.7158 -100.222 -44.248 -152.957c36.0977 13.9814 75.9736 21.2939 111.667 1.48145zM235.134 49.4424c4.00391 23.4961 -0.984375 47.7393 -17.9775 65.0391c-17.7598 18.0703 -39.8564 11.9688 -62.2041 6.20312
c-5.10938 -1.31836 -12.249 -2.20898 -18.4453 -0.926758c-0.985352 -20.1973 -0.0419922 -40.3848 2.38281 -60.5762c2.63672 -21.9727 8.51367 -46.6338 22.6162 -64.3545c30.7568 -38.6465 68.9688 27.2617 73.6279 54.6152z" />
    <glyph glyph-name="seven" unicode="7" horiz-adv-x="324" 
d="M251.236 185.984c7.14258 -0.505859 21.5459 -2.16992 23.0928 -11.623c1.46191 -8.98926 -9.34863 -13.8018 -16.8369 -14.6992c-8.25488 -0.988281 -16.585 -1.51367 -24.9385 -1.83301c-0.81543 -4.4375 -1.62109 -8.875 -2.4043 -13.3125
c-10.8301 -61.3691 -20.5898 -122.376 -26.4961 -184.453c-3.48828 -36.6299 -94.8018 -34.874 -91.9756 0c5.36719 66.2344 20.0801 130.681 36.5449 194.758c-6.93652 -0.172852 -13.8633 -0.133789 -20.7646 0.254883
c-7.14258 -0.525391 -14.5205 0.887695 -18.8467 5.86719c-8.25195 9.49219 4.34961 15.4111 12.3633 17.3232c11.0938 2.64941 22.7783 3.76562 34.4951 4.41797c7.25684 27.6143 14.6309 55.2021 21.5254 82.8682c6.33691 25.4316 12.0537 51.1045 16.8271 76.8721
c4.19336 22.6416 10.4971 50.1709 2.31348 72.5908c-1.41309 3.87012 -3.19434 8.32031 -5.97754 11.4531c-2.8418 3.20703 0.897461 2.6748 -5.37109 1.66699c-8.98633 -1.44531 -17.7861 -2.77637 -26.5244 -5.41602c-22.5078 -6.79688 -42.04 -18.6543 -61.2227 -31.9961
c-9.49805 -6.60449 -26.1777 -5.90625 -36.2471 -1.23047c-7.75586 3.60254 -15.6133 12.5947 -7.11035 20.3018c37.8896 34.3428 102.062 60.5439 153.733 50.5303c62.5801 -12.125 56.4258 -87.4727 52.2822 -136.349
c-3.91895 -46.2061 -12.9932 -91.9199 -21.751 -137.536c4.4502 -0.0292969 8.8877 -0.146484 13.2891 -0.456055z" />
    <glyph glyph-name="eight" unicode="8" horiz-adv-x="342" 
d="M239.547 144.234c2.84863 -3.00195 5.6543 -6.03613 8.35938 -9.14941c27.4775 -31.5264 46.915 -71.5332 44.0859 -114.216c-2.60059 -39.2568 -21.6074 -81.7236 -57.5781 -100.609c-32.6816 -17.1562 -73.1289 -15.1562 -102.626 7.56055
c-31.9014 24.5732 -44.4443 65.7812 -44.9043 104.691c-0.274414 23.209 3.41895 46.3984 9.49805 68.7559c5.53418 20.3574 11.1924 42.2256 21.6504 60.6777c-31.1279 28.3223 -55.0322 61.7705 -64.5928 103.66c-9.76562 42.793 1.78223 83.6221 28.1367 117.938
c45.9229 59.7969 171.425 98.4658 199.11 1.6123c11.3252 -39.6152 1.24609 -82.0957 -8.30469 -120.986c-9.75586 -39.7324 -19.9199 -80.6729 -32.835 -119.936zM146.523 349.261c-10.5391 -39.7881 -3.02246 -85.2256 17.1621 -120.629
c11.8408 -20.7656 28.4199 -37.8662 45.5605 -54.501c4.23828 10.1318 8.43164 20.2832 12.2725 30.5684c10.3594 27.748 18.1611 56.791 24.3545 85.7402c4.75098 22.1982 8.72168 45.0029 7.30273 67.7979c-1.40625 22.5928 -11.8213 58.7754 -38.3945 63.6406
c-35.5498 6.50586 -61.0762 -45.5088 -68.2578 -72.6172zM216.516 -60.3105c41.6514 28.7695 31.9639 80.375 8.68945 117.813c-18.9873 30.5439 -46.0732 53.584 -73.5117 76.124c-8.93359 -16.2852 -16.6699 -32.623 -20.9902 -51.9199
c-5.49121 -24.541 -7.62207 -50.4912 -4.00684 -75.4629c5.99121 -41.3809 42.8359 -99.0078 89.8193 -66.5547z" />
    <glyph glyph-name="nine" unicode="9" horiz-adv-x="429" 
d="M363.691 430.476c10.6602 -16.3184 11.2734 -40.7588 12.8691 -59.4941c1.6123 -18.873 2.32031 -37.8145 2.36914 -56.7529c0.114258 -43.1064 -3.24023 -86.0303 -7.92285 -128.854c-9.3418 -85.46 -18.1807 -172.368 -36.4434 -256.447
c-4.35938 -20.0703 -27.0566 -25.9072 -45.4531 -25.9072c-12.6865 0 -48.5459 6.24219 -45.4521 25.9082c16.9707 107.902 41.3086 214.643 59.542 322.349c7.40039 43.7041 12.957 88.2012 12.7119 132.623c-6.54199 -11.8838 -12.6406 -24.0117 -18.5693 -36.2148
c-17.793 -36.6299 -34.0586 -74.2188 -55.8945 -108.708c-20.8105 -32.8711 -46.6338 -67.9082 -86.9766 -76.1084c-49.8643 -10.1348 -93.1895 16.3867 -102.809 66.5283c-7.44922 38.8291 11.3125 86.8398 32.6162 118.83c23.9307 35.9346 57.1211 63.8779 99.0371 76.127
c24.873 7.2666 52.4902 9.87402 77.6836 2.34668c5.25293 -1.56934 9.74902 -3.6123 13.7949 -6.05957c10.0889 14.2031 21.917 24.8564 40.1602 27.666c17.8877 2.75684 38.3467 -1.92871 48.7363 -17.832zM221.963 323.212
c11.1787 22.6582 22.0215 45.7217 34.4727 67.8057c-27.9209 6.40527 -61.5781 -21.6689 -76.9756 -40.3721c-25.1992 -30.6162 -40.9004 -73.4521 -40.5117 -112.95c0.0878906 -9.02539 0.202148 -18.498 2.71484 -27.249
c0.37207 -1.29199 1.14551 -2.74707 1.92871 -4.22559c3.17188 2.4043 6.32422 4.87109 7.11426 5.64746c6.18652 6.09863 11.8701 12.7646 17.2803 19.5479c22.1982 27.833 38.2979 60.0186 53.9766 91.7959z" />
    <glyph glyph-name="colon" unicode=":" horiz-adv-x="179" 
d="M111.998 227.159c0.235352 -13.9062 -21.1562 -17.4189 -30.9971 -17.6699c-10.0596 -0.257812 -31.2266 4.14062 -30.998 17.6689c0.179688 10.5127 0.355469 21.0293 0.535156 31.543c0.231445 13.7041 20.3994 17.1074 30.4619 17.3652
c10.2227 0.260742 30.2373 -4.04297 30.4629 -17.3652c0.179688 -10.5127 0.355469 -21.0293 0.535156 -31.542zM128.352 37.874c4.08203 -13.9326 -12.8184 -19.3223 -23.5439 -20.1445c-10.7383 -0.822266 -30.7109 1.78125 -32.085 15.8545
c-0.760742 7.78223 -3.7793 19.542 0.501953 26.5801c8.2002 13.4854 33.5205 13.1523 44.2617 3.29492c6.77344 -6.21582 8.36621 -17.0684 10.8652 -25.585z" />
    <glyph glyph-name="semicolon" unicode=";" horiz-adv-x="230" 
d="M175.488 267.229c2.58789 -9.44336 4.42676 -18.7939 4.43945 -28.6025c0.00976562 -7.06055 -5.63867 -11.7236 -11.0127 -15.1562c-7.68066 -4.90723 -17.6689 -6.04883 -26.5869 -6.27734c-8.50293 -0.21582 -19.1494 1.89551 -26.5859 6.27734
c-5.16504 3.04395 -11.1064 8.5 -11.0117 15.1562c0.0849609 6.00684 -0.466797 11.9062 -1.59277 17.7832c-1.54688 3.6084 -1.51758 7.21387 0.182617 10.8193c1.25586 1.69629 2.51562 3.39648 3.77148 5.09668c5.40625 6.07227 14.6855 8.35938 22.3633 9.80176
c8.9502 1.68359 20.2109 0.805664 28.835 -2.15039c5.03125 -1.72266 15.5117 -6.59082 17.1982 -12.748zM121.394 54.4277c5.16895 15.9854 54.2891 14.6963 51.4238 -3.96484c-8.41211 -54.8047 -25.0273 -106.117 -50.6934 -155.283
c-13.502 -25.8682 -84.9502 -12.4316 -70.1035 11.0156c29.1572 46.0469 52.5986 96.3779 69.373 148.232z" />
    <glyph glyph-name="less" unicode="&#x3c;" horiz-adv-x="320" 
d="M268.619 118.38c6.91113 -16.1611 -14.8027 -25.5879 -27.2539 -27.3594c-35.0117 -4.98926 -71.7852 -7.17871 -106.584 0.492188c-26.6318 5.87305 -65.082 17.6162 -80.9756 42.0527c-11.0479 16.9834 4.1543 28.5078 17.7344 36.8252
c14.3467 8.78711 29.2158 16.8105 43.9346 24.9551c29.8955 16.5361 60.5605 36.2119 93.7285 45.1592c11.7363 3.16504 26.2959 3.94141 37.1318 -2.73145c8.04688 -4.95996 12.1582 -13.4014 4.79004 -21.167c-16.9512 -17.8711 -41.2764 -28.8115 -62.1855 -41.4297
c-11.4238 -6.89746 -22.8018 -13.8799 -34.124 -20.9473c-5.23047 -3.2627 -10.4385 -6.56152 -15.6592 -9.83789c-0.163086 -0.104492 -0.378906 -0.248047 -0.614258 -0.408203c2.80273 -1.72266 5.76855 -3.32129 8.54199 -4.57422
c5.36133 -2.4248 11.0391 -4.10547 16.7529 -5.2998c18.6055 -3.88574 38.0332 -1.91211 56.7754 -0.192383c14.2783 1.30859 40.9297 1.01855 48.0068 -15.5371z" />
    <glyph glyph-name="equal" unicode="=" horiz-adv-x="324" 
d="M95.167 125.825c-12.5488 -1.44922 -38.1992 -0.804688 -44.0566 14.2607c-5.93164 15.2607 13.3135 22.9971 25.0176 25.1113c48.334 8.73828 97.5098 13.75 146.379 18.4648c13.0547 1.25977 39.4648 1.00488 45.5928 -14.7549
c5.87695 -15.1143 -13.4951 -24.835 -25.8877 -25.9902c-49.1729 -4.59082 -98.0029 -11.4336 -147.045 -17.0918zM272.805 93.501c5.97754 -15.3779 -13.665 -24.8955 -26.1357 -26.2402c-51.8223 -5.59277 -106.127 -11.874 -158.295 -9.82129
c-11.1562 0.4375 -31.2988 3.43262 -34.1992 17.209c-2.81543 13.3809 14.3838 20.2949 24.9424 21.7764c48.5654 6.80957 98.7334 8.13477 147.654 11.9717c13.2471 1.04102 39.7812 1.18457 46.0332 -14.8955z" />
    <glyph glyph-name="greater" unicode="&#x3e;" horiz-adv-x="319" 
d="M266.13 178.088c15.75 -32.8936 -36.9883 -50.2812 -59.0586 -57.166c-32.7529 -10.2061 -66.2695 -17.5537 -98.6016 -29.1865c-15.6592 -5.63184 -40.9824 -4.60059 -53.3975 7.98145c-12.9209 13.0938 1.45605 25.4932 14.002 30.4365
c26.9775 10.6309 55.2383 16.6084 83.4043 23.1797c11.2246 2.62012 22.5439 4.99902 33.5762 8.35352c2.24512 0.681641 13.4434 3.19727 14.2822 6.07812c0.107422 0.365234 -7.46289 7.17871 -7.29004 7.02832c-34.9131 30.5049 -86.2354 26.7686 -125.43 48.0107
c-8.92383 4.83594 -12.0205 14.2852 -4.98535 22.0283c8.02637 8.83594 25.2676 10.3008 36.0127 8.35254c30.6777 -5.56348 63.3066 -15.1855 92.7217 -25.6143c24.8047 -8.79395 62.5273 -23.9307 74.7637 -49.4824z" />
    <glyph glyph-name="question" unicode="?" horiz-adv-x="416" 
d="M363.978 387.369c9.37109 -77.4492 -16.1396 -159.543 -39.8584 -232.323c-24.165 -74.1338 -48.2393 -147.847 -54.1582 -226.114c-2.67871 -35.3994 -91.1006 -34.1201 -89.1201 0c4.25781 73.334 29.3828 143.33 54.7324 211.637
c22.1846 59.7832 46.6436 119.276 60.7002 181.674c7.23047 32.0977 13.7139 68.6006 4.77637 101.044c-6.85547 24.8867 -24.7822 51.5518 -52.3545 54.71c-52.5137 6.01367 -106.757 -39.0928 -129.94 -82.4834c-13.4209 -25.1211 -20.6221 -54.6963 -15.8809 -83.1357
c3.36719 -20.2109 23.1992 -58.8535 49.1494 -55.127c6.44727 0.926758 19.7695 0.287109 22.7646 -7.36816c3.06055 -7.81836 -6.8623 -11.9785 -12.9248 -12.9766c-38.6299 -6.35254 -79.0771 6.73535 -99.2686 42.2002
c-19.2939 33.8857 -14.2988 77.0674 0.743164 111.491c26.4492 60.5303 87.6582 103.897 152.365 113.781c36.9785 5.64844 74.2578 -0.834961 103.543 -25.0137c27.2842 -22.5273 40.584 -57.7412 44.7314 -91.9951zM223.562 -115.344
c8.96973 0.228516 31.4561 -3.42188 34.1875 -14.8418c3.60254 -15.0322 0.832031 -31.6113 0 -47.0283c-0.914062 -16.9473 -24.6484 -21.0977 -37.5986 -21.4307c-8.50293 -0.21582 -19.1494 1.89844 -26.5859 6.27734
c-4.60742 2.71484 -11.7109 8.78711 -11.0127 15.1562c1.63184 14.876 1.09375 33.1318 6.81738 47.0283c4.89746 11.8965 23.1504 14.5586 34.1924 14.8389z" />
    <glyph glyph-name="at" unicode="@" horiz-adv-x="687" 
d="M575.638 441.646c95.7607 -110.092 72.1572 -296.707 -17.5078 -403.688c-25.5029 -30.4297 -64.7197 -47.7363 -104.472 -43.1123c-38.8809 4.51953 -71.0049 28.5645 -83.4629 65.9512c-8.78418 26.3682 -10.6738 54.1455 -9.16016 81.7432
c-0.790039 -1.5957 -1.56348 -3.20117 -2.37598 -4.78711c-20.2725 -39.5859 -48.5527 -83.3389 -98.4365 -81.499c-31.6895 1.17188 -53.8936 21.4316 -57.9883 52.2373c-3.25684 24.5049 3.90234 50.2852 11.9883 73.2266c8.66016 24.5703 20.1328 48.125 34.0752 70.1299
c13.4238 21.1895 29.0439 43.7295 51.6631 55.8086c20.3936 10.8848 50.2168 14.4902 69.6934 -0.405273c4.0918 -3.12891 7.74316 -7.15527 11.0098 -11.6709c4.89453 19.8193 47.0322 20.7822 55.3887 3.2998c33.3477 -69.7744 -11.5176 -151.067 12.4229 -223.406
c4.37598 -13.2246 10.8662 -26.3906 20.0322 -36.9531c8.73828 -10.0762 16.2793 -10.1973 28.1631 -4.57227c33.1289 15.6787 55.6338 55.0234 70.9365 86.501c54.8438 112.797 48.8174 270.593 -61.5742 348.169c-106.63 74.9297 -247.605 21.6953 -320.34 -74.708
c-75.2725 -99.7607 -109.957 -250.14 -50.0986 -365.185c24.3867 -46.8691 65.1895 -89.3457 115.377 -108.18c61.2979 -23.0039 123.274 -3.76562 180.977 20.3799c10.1475 4.24805 26.5928 2.93262 35.3828 -4.02734c7.81836 -6.19336 7.18848 -15.8516 -2.14355 -20.5303
c-78.3564 -39.2988 -173.663 -54.8955 -256.121 -18.8076c-66.8809 29.2686 -119.57 88.1582 -142.933 157.248c-48.8428 144.438 18.6123 309.644 129.855 406.171c57.7637 50.1221 132.645 77.8633 209.356 69.9473c64.0645 -6.61035 128.083 -40.7539 170.292 -89.2803z
M341.226 173.858c11.7363 25.7637 21.0186 52.5117 31.3623 78.8301c-2.68555 1.08691 -4.81934 2.67969 -5.84082 4.80078c-4.55176 9.46289 -9.21484 18.5928 -16.6768 26.0488c-0.388672 0.388672 -0.668945 0.672852 -0.926758 0.94043
c-2.50586 -2.04297 -4.58789 -5.49512 -6.40234 -7.7959c-13.3027 -16.8535 -23.8457 -36.9561 -32.9102 -56.3604c-16.3242 -34.9424 -37.7354 -86.6172 -21.7539 -124.702c0.136719 -0.326172 0.30957 -0.65918 0.485352 -0.992188
c8.9043 7.03516 16.7549 16.5137 23.1992 25.7148c11.6875 16.6797 21.0361 35.0176 29.4639 53.5156z" />
    <glyph glyph-name="A" unicode="A" horiz-adv-x="684" 
d="M803.63 -99.3594c10.1934 2.23828 37.5039 -8.5791 19.3975 -18.9883c-53.1504 -30.5732 -125.979 -4 -166.016 36.5488c-40.0098 40.5156 -61.4404 96.7559 -78.665 149.788c-13.4404 41.3809 -25.4805 83.2021 -36.3721 125.32
c-49.4434 0.522461 -98.6807 9.00977 -145.344 25.6406c-17.5967 -47.9941 -37.1973 -95.3496 -61.2188 -140.509c-23.6533 -44.4678 -51.2051 -92.0869 -90.8789 -124.253c-38.0137 -30.8213 -89.085 -48.4736 -137.458 -34.3584
c-42.5059 12.4023 -71.5361 47.3154 -87.0908 87.4883c-34.2188 88.377 -22.4922 208.75 37.791 283.784c24.0605 29.9443 88.1152 66.9131 116.62 22.7725c14.6016 -22.6123 19.5186 -50.4941 20.2656 -78.8428c9.81445 13.5381 20.9512 25.8945 33.4678 36.1045
c33.9082 27.6533 72.8086 20.7949 108.443 0.515625c11.916 -6.7832 23.9824 -13.0479 36.1826 -18.7969c8.34961 23.5225 16.3145 47.166 24.123 70.7764c29.4219 88.9639 55.3135 179.057 77.9023 269.991c-0.211914 3.00195 -0.447266 6.01074 -0.642578 9.0127
c-1.28906 19.8057 31.458 25.6035 44.918 25.6035c16.8369 0 42.2549 -5.70996 44.917 -25.6045c8.12793 -60.7656 14.6309 -121.737 23.7568 -182.376c16.1348 -107.22 37.5361 -214.179 66.9023 -318.593c13.5508 -48.1768 27.7246 -98.4258 53.2373 -141.865
c10.4023 -17.708 23.5264 -36.5869 40.3008 -48.8037c17.251 -12.5654 35.1387 -14.8232 55.46 -10.3564zM288.621 63.2158c30.9648 53.4766 55.1592 110.432 76.4795 168.437c-16.8662 7.62207 -33.0107 16.3271 -49.126 25.5029
c-21.4668 12.2197 -40.1533 20.8174 -61.2314 2.80957c-30.3848 -25.9531 -51.2217 -64.8535 -64.8057 -101.826c-3.72266 -10.1348 -34.6162 -10.0859 -33.5654 2.58691c2.22852 26.8574 4.51562 54.0244 2.20508 80.957
c-1.05762 12.3311 -3.10645 24.6221 -6.69238 36.4766c-2.18262 7.2207 -4.75391 14.6084 -8.24219 21.3174c-1.1748 2.26074 -8.28125 9.30859 -5.25684 10.7803c-7.08398 -1.80762 -17.9463 -13.6816 -21.6494 -17.4766
c-8.04004 -8.23926 -15.1855 -17.6396 -21.248 -27.4121c-12.0342 -19.3984 -20.5762 -40.9531 -27.001 -62.7949c-12.4873 -42.4609 -15.0322 -88.0146 -9.24414 -131.823c4.88477 -36.9756 16.5332 -76.542 42.8291 -104.198
c72.5186 -76.2676 153.169 39.0215 186.549 96.6641zM404.028 239.444c42.8486 -16.5791 87.3389 -26.4111 133.323 -27.9414c-2.53516 10.1416 -5.03125 20.293 -7.44238 30.4639c-19.8193 83.6455 -35.625 169.517 -45.9521 255.537
c-23.2939 -87.0195 -49.7168 -173.259 -79.9287 -258.06z" />
    <glyph glyph-name="A" unicode="&#xc5;" horiz-adv-x="684" 
d="M803.63 -99.3594c10.1934 2.23828 37.5039 -8.5791 19.3975 -18.9883c-53.1504 -30.5732 -125.979 -4 -166.016 36.5488c-40.0098 40.5156 -61.4404 96.7559 -78.665 149.788c-13.4404 41.3809 -25.4805 83.2021 -36.3721 125.32
c-49.4434 0.522461 -98.6807 9.00977 -145.344 25.6406c-17.5967 -47.9941 -37.1973 -95.3496 -61.2188 -140.509c-23.6533 -44.4678 -51.2051 -92.0869 -90.8789 -124.253c-38.0137 -30.8213 -89.085 -48.4736 -137.458 -34.3584
c-42.5059 12.4023 -71.5361 47.3154 -87.0908 87.4883c-34.2188 88.377 -22.4922 208.75 37.791 283.784c24.0605 29.9443 88.1152 66.9131 116.62 22.7725c14.6016 -22.6123 19.5186 -50.4941 20.2656 -78.8428c9.81445 13.5381 20.9512 25.8945 33.4678 36.1045
c33.9082 27.6533 72.8086 20.7949 108.443 0.515625c11.916 -6.7832 23.9824 -13.0479 36.1826 -18.7969c8.34961 23.5225 16.3145 47.166 24.123 70.7764c29.4219 88.9639 55.3135 179.057 77.9023 269.991c-0.211914 3.00195 -0.447266 6.01074 -0.642578 9.0127
c-1.28906 19.8057 31.458 25.6035 44.918 25.6035c16.8369 0 42.2549 -5.70996 44.917 -25.6045c8.12793 -60.7656 14.6309 -121.737 23.7568 -182.376c16.1348 -107.22 37.5361 -214.179 66.9023 -318.593c13.5508 -48.1768 27.7246 -98.4258 53.2373 -141.865
c10.4023 -17.708 23.5264 -36.5869 40.3008 -48.8037c17.251 -12.5654 35.1387 -14.8232 55.46 -10.3564zM288.621 63.2158c30.9648 53.4766 55.1592 110.432 76.4795 168.437c-16.8662 7.62207 -33.0107 16.3271 -49.126 25.5029
c-21.4668 12.2197 -40.1533 20.8174 -61.2314 2.80957c-30.3848 -25.9531 -51.2217 -64.8535 -64.8057 -101.826c-3.72266 -10.1348 -34.6162 -10.0859 -33.5654 2.58691c2.22852 26.8574 4.51562 54.0244 2.20508 80.957
c-1.05762 12.3311 -3.10645 24.6221 -6.69238 36.4766c-2.18262 7.2207 -4.75391 14.6084 -8.24219 21.3174c-1.1748 2.26074 -8.28125 9.30859 -5.25684 10.7803c-7.08398 -1.80762 -17.9463 -13.6816 -21.6494 -17.4766
c-8.04004 -8.23926 -15.1855 -17.6396 -21.248 -27.4121c-12.0342 -19.3984 -20.5762 -40.9531 -27.001 -62.7949c-12.4873 -42.4609 -15.0322 -88.0146 -9.24414 -131.823c4.88477 -36.9756 16.5332 -76.542 42.8291 -104.198
c72.5186 -76.2676 153.169 39.0215 186.549 96.6641zM404.028 239.444c42.8486 -16.5791 87.3389 -26.4111 133.323 -27.9414c-2.53516 10.1416 -5.03125 20.293 -7.44238 30.4639c-19.8193 83.6455 -35.625 169.517 -45.9521 255.537
c-23.2939 -87.0195 -49.7168 -173.259 -79.9287 -258.06z" />
    <glyph glyph-name="A" unicode="&#xc4;" horiz-adv-x="684" 
d="M803.63 -99.3594c10.1934 2.23828 37.5039 -8.5791 19.3975 -18.9883c-53.1504 -30.5732 -125.979 -4 -166.016 36.5488c-40.0098 40.5156 -61.4404 96.7559 -78.665 149.788c-13.4404 41.3809 -25.4805 83.2021 -36.3721 125.32
c-49.4434 0.522461 -98.6807 9.00977 -145.344 25.6406c-17.5967 -47.9941 -37.1973 -95.3496 -61.2188 -140.509c-23.6533 -44.4678 -51.2051 -92.0869 -90.8789 -124.253c-38.0137 -30.8213 -89.085 -48.4736 -137.458 -34.3584
c-42.5059 12.4023 -71.5361 47.3154 -87.0908 87.4883c-34.2188 88.377 -22.4922 208.75 37.791 283.784c24.0605 29.9443 88.1152 66.9131 116.62 22.7725c14.6016 -22.6123 19.5186 -50.4941 20.2656 -78.8428c9.81445 13.5381 20.9512 25.8945 33.4678 36.1045
c33.9082 27.6533 72.8086 20.7949 108.443 0.515625c11.916 -6.7832 23.9824 -13.0479 36.1826 -18.7969c8.34961 23.5225 16.3145 47.166 24.123 70.7764c29.4219 88.9639 55.3135 179.057 77.9023 269.991c-0.211914 3.00195 -0.447266 6.01074 -0.642578 9.0127
c-1.28906 19.8057 31.458 25.6035 44.918 25.6035c16.8369 0 42.2549 -5.70996 44.917 -25.6045c8.12793 -60.7656 14.6309 -121.737 23.7568 -182.376c16.1348 -107.22 37.5361 -214.179 66.9023 -318.593c13.5508 -48.1768 27.7246 -98.4258 53.2373 -141.865
c10.4023 -17.708 23.5264 -36.5869 40.3008 -48.8037c17.251 -12.5654 35.1387 -14.8232 55.46 -10.3564zM288.621 63.2158c30.9648 53.4766 55.1592 110.432 76.4795 168.437c-16.8662 7.62207 -33.0107 16.3271 -49.126 25.5029
c-21.4668 12.2197 -40.1533 20.8174 -61.2314 2.80957c-30.3848 -25.9531 -51.2217 -64.8535 -64.8057 -101.826c-3.72266 -10.1348 -34.6162 -10.0859 -33.5654 2.58691c2.22852 26.8574 4.51562 54.0244 2.20508 80.957
c-1.05762 12.3311 -3.10645 24.6221 -6.69238 36.4766c-2.18262 7.2207 -4.75391 14.6084 -8.24219 21.3174c-1.1748 2.26074 -8.28125 9.30859 -5.25684 10.7803c-7.08398 -1.80762 -17.9463 -13.6816 -21.6494 -17.4766
c-8.04004 -8.23926 -15.1855 -17.6396 -21.248 -27.4121c-12.0342 -19.3984 -20.5762 -40.9531 -27.001 -62.7949c-12.4873 -42.4609 -15.0322 -88.0146 -9.24414 -131.823c4.88477 -36.9756 16.5332 -76.542 42.8291 -104.198
c72.5186 -76.2676 153.169 39.0215 186.549 96.6641zM404.028 239.444c42.8486 -16.5791 87.3389 -26.4111 133.323 -27.9414c-2.53516 10.1416 -5.03125 20.293 -7.44238 30.4639c-19.8193 83.6455 -35.625 169.517 -45.9521 255.537
c-23.2939 -87.0195 -49.7168 -173.259 -79.9287 -258.06z" />
    <glyph glyph-name="A" unicode="&#xc3;" horiz-adv-x="684" 
d="M803.63 -99.3594c10.1934 2.23828 37.5039 -8.5791 19.3975 -18.9883c-53.1504 -30.5732 -125.979 -4 -166.016 36.5488c-40.0098 40.5156 -61.4404 96.7559 -78.665 149.788c-13.4404 41.3809 -25.4805 83.2021 -36.3721 125.32
c-49.4434 0.522461 -98.6807 9.00977 -145.344 25.6406c-17.5967 -47.9941 -37.1973 -95.3496 -61.2188 -140.509c-23.6533 -44.4678 -51.2051 -92.0869 -90.8789 -124.253c-38.0137 -30.8213 -89.085 -48.4736 -137.458 -34.3584
c-42.5059 12.4023 -71.5361 47.3154 -87.0908 87.4883c-34.2188 88.377 -22.4922 208.75 37.791 283.784c24.0605 29.9443 88.1152 66.9131 116.62 22.7725c14.6016 -22.6123 19.5186 -50.4941 20.2656 -78.8428c9.81445 13.5381 20.9512 25.8945 33.4678 36.1045
c33.9082 27.6533 72.8086 20.7949 108.443 0.515625c11.916 -6.7832 23.9824 -13.0479 36.1826 -18.7969c8.34961 23.5225 16.3145 47.166 24.123 70.7764c29.4219 88.9639 55.3135 179.057 77.9023 269.991c-0.211914 3.00195 -0.447266 6.01074 -0.642578 9.0127
c-1.28906 19.8057 31.458 25.6035 44.918 25.6035c16.8369 0 42.2549 -5.70996 44.917 -25.6045c8.12793 -60.7656 14.6309 -121.737 23.7568 -182.376c16.1348 -107.22 37.5361 -214.179 66.9023 -318.593c13.5508 -48.1768 27.7246 -98.4258 53.2373 -141.865
c10.4023 -17.708 23.5264 -36.5869 40.3008 -48.8037c17.251 -12.5654 35.1387 -14.8232 55.46 -10.3564zM288.621 63.2158c30.9648 53.4766 55.1592 110.432 76.4795 168.437c-16.8662 7.62207 -33.0107 16.3271 -49.126 25.5029
c-21.4668 12.2197 -40.1533 20.8174 -61.2314 2.80957c-30.3848 -25.9531 -51.2217 -64.8535 -64.8057 -101.826c-3.72266 -10.1348 -34.6162 -10.0859 -33.5654 2.58691c2.22852 26.8574 4.51562 54.0244 2.20508 80.957
c-1.05762 12.3311 -3.10645 24.6221 -6.69238 36.4766c-2.18262 7.2207 -4.75391 14.6084 -8.24219 21.3174c-1.1748 2.26074 -8.28125 9.30859 -5.25684 10.7803c-7.08398 -1.80762 -17.9463 -13.6816 -21.6494 -17.4766
c-8.04004 -8.23926 -15.1855 -17.6396 -21.248 -27.4121c-12.0342 -19.3984 -20.5762 -40.9531 -27.001 -62.7949c-12.4873 -42.4609 -15.0322 -88.0146 -9.24414 -131.823c4.88477 -36.9756 16.5332 -76.542 42.8291 -104.198
c72.5186 -76.2676 153.169 39.0215 186.549 96.6641zM404.028 239.444c42.8486 -16.5791 87.3389 -26.4111 133.323 -27.9414c-2.53516 10.1416 -5.03125 20.293 -7.44238 30.4639c-19.8193 83.6455 -35.625 169.517 -45.9521 255.537
c-23.2939 -87.0195 -49.7168 -173.259 -79.9287 -258.06z" />
    <glyph glyph-name="A" unicode="&#xc2;" horiz-adv-x="684" 
d="M803.63 -99.3594c10.1934 2.23828 37.5039 -8.5791 19.3975 -18.9883c-53.1504 -30.5732 -125.979 -4 -166.016 36.5488c-40.0098 40.5156 -61.4404 96.7559 -78.665 149.788c-13.4404 41.3809 -25.4805 83.2021 -36.3721 125.32
c-49.4434 0.522461 -98.6807 9.00977 -145.344 25.6406c-17.5967 -47.9941 -37.1973 -95.3496 -61.2188 -140.509c-23.6533 -44.4678 -51.2051 -92.0869 -90.8789 -124.253c-38.0137 -30.8213 -89.085 -48.4736 -137.458 -34.3584
c-42.5059 12.4023 -71.5361 47.3154 -87.0908 87.4883c-34.2188 88.377 -22.4922 208.75 37.791 283.784c24.0605 29.9443 88.1152 66.9131 116.62 22.7725c14.6016 -22.6123 19.5186 -50.4941 20.2656 -78.8428c9.81445 13.5381 20.9512 25.8945 33.4678 36.1045
c33.9082 27.6533 72.8086 20.7949 108.443 0.515625c11.916 -6.7832 23.9824 -13.0479 36.1826 -18.7969c8.34961 23.5225 16.3145 47.166 24.123 70.7764c29.4219 88.9639 55.3135 179.057 77.9023 269.991c-0.211914 3.00195 -0.447266 6.01074 -0.642578 9.0127
c-1.28906 19.8057 31.458 25.6035 44.918 25.6035c16.8369 0 42.2549 -5.70996 44.917 -25.6045c8.12793 -60.7656 14.6309 -121.737 23.7568 -182.376c16.1348 -107.22 37.5361 -214.179 66.9023 -318.593c13.5508 -48.1768 27.7246 -98.4258 53.2373 -141.865
c10.4023 -17.708 23.5264 -36.5869 40.3008 -48.8037c17.251 -12.5654 35.1387 -14.8232 55.46 -10.3564zM288.621 63.2158c30.9648 53.4766 55.1592 110.432 76.4795 168.437c-16.8662 7.62207 -33.0107 16.3271 -49.126 25.5029
c-21.4668 12.2197 -40.1533 20.8174 -61.2314 2.80957c-30.3848 -25.9531 -51.2217 -64.8535 -64.8057 -101.826c-3.72266 -10.1348 -34.6162 -10.0859 -33.5654 2.58691c2.22852 26.8574 4.51562 54.0244 2.20508 80.957
c-1.05762 12.3311 -3.10645 24.6221 -6.69238 36.4766c-2.18262 7.2207 -4.75391 14.6084 -8.24219 21.3174c-1.1748 2.26074 -8.28125 9.30859 -5.25684 10.7803c-7.08398 -1.80762 -17.9463 -13.6816 -21.6494 -17.4766
c-8.04004 -8.23926 -15.1855 -17.6396 -21.248 -27.4121c-12.0342 -19.3984 -20.5762 -40.9531 -27.001 -62.7949c-12.4873 -42.4609 -15.0322 -88.0146 -9.24414 -131.823c4.88477 -36.9756 16.5332 -76.542 42.8291 -104.198
c72.5186 -76.2676 153.169 39.0215 186.549 96.6641zM404.028 239.444c42.8486 -16.5791 87.3389 -26.4111 133.323 -27.9414c-2.53516 10.1416 -5.03125 20.293 -7.44238 30.4639c-19.8193 83.6455 -35.625 169.517 -45.9521 255.537
c-23.2939 -87.0195 -49.7168 -173.259 -79.9287 -258.06z" />
    <glyph glyph-name="A" unicode="&#xc1;" horiz-adv-x="684" 
d="M803.63 -99.3594c10.1934 2.23828 37.5039 -8.5791 19.3975 -18.9883c-53.1504 -30.5732 -125.979 -4 -166.016 36.5488c-40.0098 40.5156 -61.4404 96.7559 -78.665 149.788c-13.4404 41.3809 -25.4805 83.2021 -36.3721 125.32
c-49.4434 0.522461 -98.6807 9.00977 -145.344 25.6406c-17.5967 -47.9941 -37.1973 -95.3496 -61.2188 -140.509c-23.6533 -44.4678 -51.2051 -92.0869 -90.8789 -124.253c-38.0137 -30.8213 -89.085 -48.4736 -137.458 -34.3584
c-42.5059 12.4023 -71.5361 47.3154 -87.0908 87.4883c-34.2188 88.377 -22.4922 208.75 37.791 283.784c24.0605 29.9443 88.1152 66.9131 116.62 22.7725c14.6016 -22.6123 19.5186 -50.4941 20.2656 -78.8428c9.81445 13.5381 20.9512 25.8945 33.4678 36.1045
c33.9082 27.6533 72.8086 20.7949 108.443 0.515625c11.916 -6.7832 23.9824 -13.0479 36.1826 -18.7969c8.34961 23.5225 16.3145 47.166 24.123 70.7764c29.4219 88.9639 55.3135 179.057 77.9023 269.991c-0.211914 3.00195 -0.447266 6.01074 -0.642578 9.0127
c-1.28906 19.8057 31.458 25.6035 44.918 25.6035c16.8369 0 42.2549 -5.70996 44.917 -25.6045c8.12793 -60.7656 14.6309 -121.737 23.7568 -182.376c16.1348 -107.22 37.5361 -214.179 66.9023 -318.593c13.5508 -48.1768 27.7246 -98.4258 53.2373 -141.865
c10.4023 -17.708 23.5264 -36.5869 40.3008 -48.8037c17.251 -12.5654 35.1387 -14.8232 55.46 -10.3564zM288.621 63.2158c30.9648 53.4766 55.1592 110.432 76.4795 168.437c-16.8662 7.62207 -33.0107 16.3271 -49.126 25.5029
c-21.4668 12.2197 -40.1533 20.8174 -61.2314 2.80957c-30.3848 -25.9531 -51.2217 -64.8535 -64.8057 -101.826c-3.72266 -10.1348 -34.6162 -10.0859 -33.5654 2.58691c2.22852 26.8574 4.51562 54.0244 2.20508 80.957
c-1.05762 12.3311 -3.10645 24.6221 -6.69238 36.4766c-2.18262 7.2207 -4.75391 14.6084 -8.24219 21.3174c-1.1748 2.26074 -8.28125 9.30859 -5.25684 10.7803c-7.08398 -1.80762 -17.9463 -13.6816 -21.6494 -17.4766
c-8.04004 -8.23926 -15.1855 -17.6396 -21.248 -27.4121c-12.0342 -19.3984 -20.5762 -40.9531 -27.001 -62.7949c-12.4873 -42.4609 -15.0322 -88.0146 -9.24414 -131.823c4.88477 -36.9756 16.5332 -76.542 42.8291 -104.198
c72.5186 -76.2676 153.169 39.0215 186.549 96.6641zM404.028 239.444c42.8486 -16.5791 87.3389 -26.4111 133.323 -27.9414c-2.53516 10.1416 -5.03125 20.293 -7.44238 30.4639c-19.8193 83.6455 -35.625 169.517 -45.9521 255.537
c-23.2939 -87.0195 -49.7168 -173.259 -79.9287 -258.06z" />
    <glyph glyph-name="B" unicode="B" horiz-adv-x="532" 
d="M495.283 29.1289c-41.9482 -84.8037 -126.566 -147.013 -224.5 -129.781c-86.8887 15.2871 -152.526 91.7734 -133.128 182.059c9.04785 42.1113 35.8467 89.1533 84.3857 89.708c29.4385 0.335938 47.4268 -20.3672 59.7178 -45.1426
c12.3047 18.6738 30.1436 32.874 54.3154 39.4326c26.1816 7.10059 54.0244 9.34863 80.8164 13.2803c9.04492 1.33105 18.0928 2.65625 27.1377 3.98438c-5.73926 51.3223 -24.4297 101.535 -54.9219 142.817c-19.6465 26.5957 -45.3359 51.5674 -77.1465 62.4424
c-34.7666 11.8867 -69.6865 8.23828 -106.541 7.41895c-6.96973 -0.15625 -15.2412 0.848633 -22.8076 3.42969c-2.98926 -11.5674 -5.83105 -23.125 -8.56836 -34.6035c-32.4697 -136.091 -43.4531 -276.097 -52.0898 -415.443
c1.64453 -10.9795 3.33789 -21.9531 5.12891 -32.9072c2.49609 -15.2871 -25.96 -20.1094 -35.2822 -20.1094c-13.6553 0 -32.6162 4.5293 -35.2822 20.1094c-19.0391 111.279 -30.1885 223.655 -32.8574 336.53c-1.31836 55.8516 -0.65625 111.746 1.97363 167.549
c2.67188 56.707 5.71973 114.203 15.8418 170.123c4.74121 26.2012 70.3193 27.0361 68.7764 -0.000976562c-3.24023 -56.7812 -9.94238 -113.272 -12.6309 -170.123c-2.63965 -55.8027 -3.2959 -111.697 -1.97461 -167.549
c1.05371 -44.5879 3.36719 -89.1533 6.88184 -133.627c2.98926 30.4395 6.40234 60.8301 10.5459 91.1465c11.4629 83.8311 28.1729 167.238 53.9404 247.918c21.3135 66.7432 51.3389 142.188 112.003 182.825c24.0801 16.1289 64.3447 31.5205 90.543 11.6426
c24.2207 -18.377 17.7598 -60.0938 11.4854 -85.375c-12.0078 -48.3896 -43.9941 -89.5254 -82.7354 -122.057c28.7656 -3.57617 56.9375 -10.6533 83.4648 -23.1016c48.8525 -22.9219 86.8135 -66.6221 112.34 -113.318
c47.9844 -87.7793 45.0703 -190.525 1.16797 -279.277zM308.613 631.228c-28.0088 -16.5498 -48.6631 -44.2031 -64.8506 -71.8203c-19.8193 -33.8203 -34.5029 -70.793 -46.4092 -108.64c24.6387 13.4141 47.5049 29.4219 68.7168 48.2002
c13.7988 12.2168 26.7041 25.4287 38.5391 39.5576c13.3906 15.9912 27.9072 29.79 37.833 48.4639c7.57031 14.2363 14.002 30.3613 6.62793 46.167c-7.77539 16.6641 -29.1807 4.73438 -40.457 -1.92871zM227.007 140.407c0.691406 -0.117188 0.623047 0.124023 0 0z
M340.101 -55.79c60.9844 32.6426 96.209 104.525 103.916 170.93c1.79492 15.4697 2.25781 31.1484 1.5791 46.8271c-24.2695 -3.55371 -48.5332 -7.12988 -72.7764 -10.8467c-20.2529 -3.10645 -38.8291 -7.74023 -52.3311 -24.2607
c-11.5801 -14.1641 -17.6104 -32.4629 -20.459 -50.2754c-2.07812 -12.9863 -32.2734 -15.2471 -36.502 -2.81543c-6.93359 20.3672 -15.3975 43.3125 -29.8555 59.7119c-2.38477 2.70508 -4.75977 4.73828 -7.47168 6.6377
c-0.763672 -0.369141 -1.82129 -1.11914 -3.06738 -2.64648c-5.81738 -7.11328 -11.5996 -13.0879 -16.0498 -21.3369c-18.0146 -33.3867 -20.041 -74.6436 -5.93164 -109.824c21.4277 -53.4375 84.2168 -91.3955 138.949 -62.1006z" />
    <glyph glyph-name="C" unicode="C" horiz-adv-x="478" 
d="M484.089 220.249c-19.3135 -71.2041 -53.9385 -144.094 -107.206 -196.327c-52.1387 -51.1299 -128.374 -79.6445 -200.374 -60.9678c-63.6436 16.5068 -113.958 65.7383 -138.271 125.985c-26.6748 66.1035 -27.8691 145.595 -23.001 215.666
c4.9209 70.8184 17.4961 143.677 41.8828 210.537c22.5791 61.9111 64.5537 125.718 130.217 147.165c63.8193 20.8467 137.865 -5.7002 165.195 -69.1445c25.8193 -59.9365 10.1738 -135.581 -20.1191 -190.897c-14.9053 -27.2158 -35.1514 -59.0195 -64.7725 -71.4189
c-29.915 -12.5195 -64.042 -17.668 -92.834 1.06152c-23.5449 15.3193 -38.917 44.3857 -41.5664 71.9805c-1.35059 14.0791 0.607422 28.4102 4.64062 41.9219c4.63379 15.5312 13.832 24.7363 26.7988 33.9902c8.95312 6.39258 26.1943 4.12793 32.4229 -4.87793
c5.59961 -8.0957 11.3066 -16.0869 17.0625 -24.0449c8.25195 17.5518 19.1631 34.3916 33.1289 45.835c9.77246 8.00684 21.7607 10.6045 34.1855 9.97754c5.52051 -0.280273 15.5049 -4.12109 23.8877 -5.89258c0.270508 2.58398 0.554688 5.17188 0.737305 7.76562
c2.97559 42.1543 -7.13965 108.51 -57.3135 120.028c-17.9785 4.12793 -33.2227 -11.8018 -44.2705 -23.9697c-15.7373 -17.3262 -27.0498 -39.2793 -37.1162 -60.2539c-49.1074 -102.336 -64.9844 -223.391 -59.7705 -335.962
c2.48633 -53.6719 10.7773 -108.567 38.7637 -155.397c21.751 -36.3984 60.3711 -66.1045 104.287 -65.0342c56.9385 1.38965 101.993 44.6689 133.177 88.6436c31.8271 44.8818 55.2188 95.5225 70.3848 148.323c3.09375 10.7646 33.416 8.48047 29.8428 -4.69238z
M231.751 351.303c36.6787 35.0146 61.8945 81.8369 71.0605 131.718c-8.63672 2.14355 -18.8232 6.12402 -25.8223 3.67383c-10.2559 -3.58887 -19.0986 -22.9834 -24.084 -31.9863c-6.98926 -12.6182 -12.2461 -25.915 -16.3184 -39.7334
c-3.02832 -10.2617 -27.0303 -9.43262 -32.4238 -2.41406c-5.03516 6.55176 -10.0859 13.0742 -15.1602 19.5771c-2.36523 -11.2959 -3.79102 -22.7744 -2.18555 -35.3789c2.43066 -19.0723 19.2637 -69.9609 44.9336 -45.4561z" />
    <glyph glyph-name="D" unicode="D" horiz-adv-x="496" 
d="M127.074 -45.0244c2.49902 -15.2871 -25.9648 -20.1113 -35.2803 -20.1143c-13.6553 0 -32.6162 4.5293 -35.2822 20.1094c-19.0391 111.279 -30.1885 223.655 -32.8574 336.53c-1.31836 55.8516 -0.65625 111.746 1.97363 167.549
c2.67188 56.707 5.71973 114.203 15.8418 170.123c4.74121 26.2012 70.3193 27.0361 68.7764 -0.000976562c-3.24023 -56.7812 -9.94238 -113.272 -12.6309 -170.123c-2.63965 -55.8027 -3.29199 -111.697 -1.97363 -167.549
c1.23633 -52.3604 4.20605 -104.691 8.83008 -156.876c3.51465 27.3535 7.38477 54.6582 11.7148 81.9004c13.2217 83.1982 28.5898 166.938 53.2051 247.614c18.9189 62.002 42.9053 132.752 96.0029 174.172c23.3857 18.2402 52.5566 28.251 82.1025 21.5029
c29.9736 -6.8457 46.8008 -28.2637 65.3213 -50.7354c44.3438 -53.793 61.6992 -123.234 66.042 -191.651c4.84863 -76.3496 0.0361328 -153.887 -14.9053 -228.947c-13.541 -68.0254 -32.5088 -140.86 -76.7734 -195.893
c-44.6797 -55.5518 -136.025 -78.418 -195.754 -32.5215c-50.7383 38.9893 -61.4766 115.473 -48.8291 174.329c2.98535 13.8936 7.16797 27.6045 20.1279 35.3633c11.459 6.8623 27.209 8.01367 39.7158 3.66113c13.1533 -4.58398 20.3447 -14.3828 27.0078 -26.0312
c3.78516 -6.62012 7.7168 -13.1162 11.7109 -19.5732c18.3047 16.2588 40.4629 29.6104 61.2734 37.9639c20.7363 8.32031 43.0029 12.9082 65.4355 14.1094c12.1973 53.0322 19.3691 107.324 24.0029 161.44c5.08691 59.4512 5.43262 118.04 2.69531 177.55
c-1.25586 27.2646 -6.17676 54.0244 -14.9736 79.8994c-7.10645 20.9092 -32.5146 46.9707 -56.4873 43.6846c-27.7803 -3.81152 -51.7402 -32.8809 -66.3418 -54.6514c-15.1143 -22.5273 -26.166 -47.5869 -35.873 -72.8291
c-22.8115 -59.3174 -37.8076 -121.248 -50.3467 -183.446c-23.252 -115.309 -39.0605 -232.04 -47.7461 -349.333c1.37988 -9.08105 2.79297 -18.1621 4.27441 -27.2266zM199.147 153.735c-0.00292969 0.00683594 -0.0615234 -0.124023 -0.136719 -0.313477
c0.133789 0.0722656 0.205078 0.166992 0.136719 0.313477zM296.699 7.25879c16.5762 19.4736 27.9297 44.7939 37.9922 68.1045c11.0576 25.5977 19.7695 52.1582 26.8955 79.1035c-13.3682 -1.71289 -26.5117 -5.42285 -39.4717 -10.9307
c-13.3945 -5.69336 -26.8379 -12.7871 -38.0918 -22.083c-11.2051 -9.25684 -18.1719 -20.6641 -27.0635 -31.8555c-7.99707 -10.0625 -35.4053 -8.86133 -41.125 3.06152c-7.21777 15.0518 -13.7637 30.9746 -22.6025 45.2334
c-0.130859 -0.384766 -0.222656 -0.678711 -0.239258 -0.783203c-5.05469 -30.2764 -1.13574 -62.4355 9.43262 -91.1133c8.52637 -23.1338 22.5703 -56.8174 47.4795 -66.8574c16.5205 -6.65625 37.3154 16.9805 46.7939 28.1201z" />
    <glyph glyph-name="E" unicode="E" horiz-adv-x="499" 
d="M348.804 -46.2451c-80.7969 -34.7344 -187.463 -49.4746 -264.224 3.25781c-36.0586 24.7686 -64.4629 65.7188 -59.1572 111.302c5.24316 45.0645 36.3359 84.5332 64.5273 118.275c17.1855 20.5732 36.3457 39.3643 56.9414 56.4521
c-5.41602 1.08691 -10.8291 2.33008 -16.2324 3.78516c-57.9824 15.6035 -107.168 57.1699 -118.964 117.566c-10.373 53.1006 10.7217 109.791 36.9297 155.279c26.9033 46.6992 64.6592 87.2217 109.991 116.448c46.252 29.8203 104.084 46.4648 158.895 34.9961
c49.0254 -10.2588 94.2725 -41.3975 103.95 -93.1611c10.4873 -56.1094 -22.7422 -108.584 -62.3799 -145.126c-38.5742 -35.5566 -92.2295 -54.6055 -142.86 -33.3145c-45.7305 19.2285 -73.2959 74.1074 -46.5693 120.298
c12.3604 21.3623 40.1309 33.5918 63.9238 23.9404c8.10547 -3.28906 12.2822 -8.26465 15.4346 -14.4512c8.60156 14.0762 20.9033 25.1504 37.5674 28.8672c16.5859 3.7002 32.9141 -1.01465 44.582 -13.3193c8.43164 -8.88867 16.4844 -18.3809 26.958 -19.9668
c2.33301 8.30762 3.83398 16.8242 4.18652 25.5068c1.40332 34.5352 -15.3066 66.1562 -47.4658 80.4443c-63.6143 28.2637 -135.125 -40.2578 -169.164 -86.8945c-40.0166 -54.834 -75.2959 -145.583 -30.1396 -207.608
c9.66504 -13.2773 22.9121 -23.9795 37.2686 -31.7285c12.3115 -6.64648 22.3809 -9.77539 34.1172 -11.6094c10.1768 -1.58594 20.9775 -1.2793 32.2539 0.136719c36.4238 20.7656 77.6836 35.9346 118.418 21.2578c17.9102 -6.4541 32.2344 -26.9941 8.76758 -38.79
c-30.8809 -15.5186 -63.4941 -27.0371 -96.8838 -33.0244c-9.98828 -6.13086 -19.7676 -12.627 -29.1191 -19.6484c-29.8848 -22.4424 -57.3193 -49.1201 -80.1465 -78.7314c-19.9268 -25.8486 -41.3711 -57.0391 -39.9062 -91.0547
c1.33496 -31.0146 20.8408 -61.083 46.9248 -77.2412c54.1777 -33.5596 130.771 -28.626 186.861 -2.96973c56.501 25.8486 126.146 80.3857 131.311 147.514c2.33594 30.3516 -11.248 66.3779 -43.7012 74.1797c-34.5479 8.30371 -72.4629 -14.9287 -91.4531 -42.5596
c-7.33789 -10.6797 -40.8936 -5.90625 -33.2812 5.23047c26.6123 38.9395 73.6211 61.8779 120.878 58.2891c44.6797 -3.39355 78.3047 -34.1367 82.6279 -79.2275c4.1084 -42.8457 -21.3389 -82.3398 -49.4912 -112.186
c-28.6455 -30.3682 -63.9082 -53.9658 -102.176 -70.4141zM262.899 420.602c17.4209 -0.0224609 34.2773 15.2568 45.8604 26.6445c16.6445 16.373 32.1338 36.1982 42.1514 58.0859c-11.5312 1.33496 -22.7227 5.24414 -32.3584 11.9922
c-6.38184 4.4707 -10.7705 9.92969 -15.9189 15.6787c-3.66406 4.0918 -3.42285 5.67773 -8.91406 3.17871c-3.02441 -1.37988 -6.40527 -6.43066 -8.23242 -9.00195c-10.8105 -15.1953 -15.3496 -33.6768 -15.875 -52.0469
c-0.388672 -13.5938 -31.7129 -13.9629 -35.9287 -2.77441c-4.5127 11.9648 -9.29004 23.8125 -14.498 35.4941c-0.0585938 0.133789 -0.120117 0.260742 -0.178711 0.394531c-8.16406 -18.8594 -6.50684 -41.292 3.47461 -59.1211
c7.85352 -14.0342 23.248 -28.502 40.418 -28.5244zM304.391 271.093c2.03613 0.443359 2.53516 0.883789 0 0z" />
    <glyph glyph-name="E" unicode="&#xcb;" horiz-adv-x="499" 
d="M348.804 -46.2451c-80.7969 -34.7344 -187.463 -49.4746 -264.224 3.25781c-36.0586 24.7686 -64.4629 65.7188 -59.1572 111.302c5.24316 45.0645 36.3359 84.5332 64.5273 118.275c17.1855 20.5732 36.3457 39.3643 56.9414 56.4521
c-5.41602 1.08691 -10.8291 2.33008 -16.2324 3.78516c-57.9824 15.6035 -107.168 57.1699 -118.964 117.566c-10.373 53.1006 10.7217 109.791 36.9297 155.279c26.9033 46.6992 64.6592 87.2217 109.991 116.448c46.252 29.8203 104.084 46.4648 158.895 34.9961
c49.0254 -10.2588 94.2725 -41.3975 103.95 -93.1611c10.4873 -56.1094 -22.7422 -108.584 -62.3799 -145.126c-38.5742 -35.5566 -92.2295 -54.6055 -142.86 -33.3145c-45.7305 19.2285 -73.2959 74.1074 -46.5693 120.298
c12.3604 21.3623 40.1309 33.5918 63.9238 23.9404c8.10547 -3.28906 12.2822 -8.26465 15.4346 -14.4512c8.60156 14.0762 20.9033 25.1504 37.5674 28.8672c16.5859 3.7002 32.9141 -1.01465 44.582 -13.3193c8.43164 -8.88867 16.4844 -18.3809 26.958 -19.9668
c2.33301 8.30762 3.83398 16.8242 4.18652 25.5068c1.40332 34.5352 -15.3066 66.1562 -47.4658 80.4443c-63.6143 28.2637 -135.125 -40.2578 -169.164 -86.8945c-40.0166 -54.834 -75.2959 -145.583 -30.1396 -207.608
c9.66504 -13.2773 22.9121 -23.9795 37.2686 -31.7285c12.3115 -6.64648 22.3809 -9.77539 34.1172 -11.6094c10.1768 -1.58594 20.9775 -1.2793 32.2539 0.136719c36.4238 20.7656 77.6836 35.9346 118.418 21.2578c17.9102 -6.4541 32.2344 -26.9941 8.76758 -38.79
c-30.8809 -15.5186 -63.4941 -27.0371 -96.8838 -33.0244c-9.98828 -6.13086 -19.7676 -12.627 -29.1191 -19.6484c-29.8848 -22.4424 -57.3193 -49.1201 -80.1465 -78.7314c-19.9268 -25.8486 -41.3711 -57.0391 -39.9062 -91.0547
c1.33496 -31.0146 20.8408 -61.083 46.9248 -77.2412c54.1777 -33.5596 130.771 -28.626 186.861 -2.96973c56.501 25.8486 126.146 80.3857 131.311 147.514c2.33594 30.3516 -11.248 66.3779 -43.7012 74.1797c-34.5479 8.30371 -72.4629 -14.9287 -91.4531 -42.5596
c-7.33789 -10.6797 -40.8936 -5.90625 -33.2812 5.23047c26.6123 38.9395 73.6211 61.8779 120.878 58.2891c44.6797 -3.39355 78.3047 -34.1367 82.6279 -79.2275c4.1084 -42.8457 -21.3389 -82.3398 -49.4912 -112.186
c-28.6455 -30.3682 -63.9082 -53.9658 -102.176 -70.4141zM262.899 420.602c17.4209 -0.0224609 34.2773 15.2568 45.8604 26.6445c16.6445 16.373 32.1338 36.1982 42.1514 58.0859c-11.5312 1.33496 -22.7227 5.24414 -32.3584 11.9922
c-6.38184 4.4707 -10.7705 9.92969 -15.9189 15.6787c-3.66406 4.0918 -3.42285 5.67773 -8.91406 3.17871c-3.02441 -1.37988 -6.40527 -6.43066 -8.23242 -9.00195c-10.8105 -15.1953 -15.3496 -33.6768 -15.875 -52.0469
c-0.388672 -13.5938 -31.7129 -13.9629 -35.9287 -2.77441c-4.5127 11.9648 -9.29004 23.8125 -14.498 35.4941c-0.0585938 0.133789 -0.120117 0.260742 -0.178711 0.394531c-8.16406 -18.8594 -6.50684 -41.292 3.47461 -59.1211
c7.85352 -14.0342 23.248 -28.502 40.418 -28.5244zM304.391 271.093c2.03613 0.443359 2.53516 0.883789 0 0z" />
    <glyph glyph-name="E" unicode="&#xca;" horiz-adv-x="499" 
d="M348.804 -46.2451c-80.7969 -34.7344 -187.463 -49.4746 -264.224 3.25781c-36.0586 24.7686 -64.4629 65.7188 -59.1572 111.302c5.24316 45.0645 36.3359 84.5332 64.5273 118.275c17.1855 20.5732 36.3457 39.3643 56.9414 56.4521
c-5.41602 1.08691 -10.8291 2.33008 -16.2324 3.78516c-57.9824 15.6035 -107.168 57.1699 -118.964 117.566c-10.373 53.1006 10.7217 109.791 36.9297 155.279c26.9033 46.6992 64.6592 87.2217 109.991 116.448c46.252 29.8203 104.084 46.4648 158.895 34.9961
c49.0254 -10.2588 94.2725 -41.3975 103.95 -93.1611c10.4873 -56.1094 -22.7422 -108.584 -62.3799 -145.126c-38.5742 -35.5566 -92.2295 -54.6055 -142.86 -33.3145c-45.7305 19.2285 -73.2959 74.1074 -46.5693 120.298
c12.3604 21.3623 40.1309 33.5918 63.9238 23.9404c8.10547 -3.28906 12.2822 -8.26465 15.4346 -14.4512c8.60156 14.0762 20.9033 25.1504 37.5674 28.8672c16.5859 3.7002 32.9141 -1.01465 44.582 -13.3193c8.43164 -8.88867 16.4844 -18.3809 26.958 -19.9668
c2.33301 8.30762 3.83398 16.8242 4.18652 25.5068c1.40332 34.5352 -15.3066 66.1562 -47.4658 80.4443c-63.6143 28.2637 -135.125 -40.2578 -169.164 -86.8945c-40.0166 -54.834 -75.2959 -145.583 -30.1396 -207.608
c9.66504 -13.2773 22.9121 -23.9795 37.2686 -31.7285c12.3115 -6.64648 22.3809 -9.77539 34.1172 -11.6094c10.1768 -1.58594 20.9775 -1.2793 32.2539 0.136719c36.4238 20.7656 77.6836 35.9346 118.418 21.2578c17.9102 -6.4541 32.2344 -26.9941 8.76758 -38.79
c-30.8809 -15.5186 -63.4941 -27.0371 -96.8838 -33.0244c-9.98828 -6.13086 -19.7676 -12.627 -29.1191 -19.6484c-29.8848 -22.4424 -57.3193 -49.1201 -80.1465 -78.7314c-19.9268 -25.8486 -41.3711 -57.0391 -39.9062 -91.0547
c1.33496 -31.0146 20.8408 -61.083 46.9248 -77.2412c54.1777 -33.5596 130.771 -28.626 186.861 -2.96973c56.501 25.8486 126.146 80.3857 131.311 147.514c2.33594 30.3516 -11.248 66.3779 -43.7012 74.1797c-34.5479 8.30371 -72.4629 -14.9287 -91.4531 -42.5596
c-7.33789 -10.6797 -40.8936 -5.90625 -33.2812 5.23047c26.6123 38.9395 73.6211 61.8779 120.878 58.2891c44.6797 -3.39355 78.3047 -34.1367 82.6279 -79.2275c4.1084 -42.8457 -21.3389 -82.3398 -49.4912 -112.186
c-28.6455 -30.3682 -63.9082 -53.9658 -102.176 -70.4141zM262.899 420.602c17.4209 -0.0224609 34.2773 15.2568 45.8604 26.6445c16.6445 16.373 32.1338 36.1982 42.1514 58.0859c-11.5312 1.33496 -22.7227 5.24414 -32.3584 11.9922
c-6.38184 4.4707 -10.7705 9.92969 -15.9189 15.6787c-3.66406 4.0918 -3.42285 5.67773 -8.91406 3.17871c-3.02441 -1.37988 -6.40527 -6.43066 -8.23242 -9.00195c-10.8105 -15.1953 -15.3496 -33.6768 -15.875 -52.0469
c-0.388672 -13.5938 -31.7129 -13.9629 -35.9287 -2.77441c-4.5127 11.9648 -9.29004 23.8125 -14.498 35.4941c-0.0585938 0.133789 -0.120117 0.260742 -0.178711 0.394531c-8.16406 -18.8594 -6.50684 -41.292 3.47461 -59.1211
c7.85352 -14.0342 23.248 -28.502 40.418 -28.5244zM304.391 271.093c2.03613 0.443359 2.53516 0.883789 0 0z" />
    <glyph glyph-name="E" unicode="&#xc9;" horiz-adv-x="499" 
d="M348.804 -46.2451c-80.7969 -34.7344 -187.463 -49.4746 -264.224 3.25781c-36.0586 24.7686 -64.4629 65.7188 -59.1572 111.302c5.24316 45.0645 36.3359 84.5332 64.5273 118.275c17.1855 20.5732 36.3457 39.3643 56.9414 56.4521
c-5.41602 1.08691 -10.8291 2.33008 -16.2324 3.78516c-57.9824 15.6035 -107.168 57.1699 -118.964 117.566c-10.373 53.1006 10.7217 109.791 36.9297 155.279c26.9033 46.6992 64.6592 87.2217 109.991 116.448c46.252 29.8203 104.084 46.4648 158.895 34.9961
c49.0254 -10.2588 94.2725 -41.3975 103.95 -93.1611c10.4873 -56.1094 -22.7422 -108.584 -62.3799 -145.126c-38.5742 -35.5566 -92.2295 -54.6055 -142.86 -33.3145c-45.7305 19.2285 -73.2959 74.1074 -46.5693 120.298
c12.3604 21.3623 40.1309 33.5918 63.9238 23.9404c8.10547 -3.28906 12.2822 -8.26465 15.4346 -14.4512c8.60156 14.0762 20.9033 25.1504 37.5674 28.8672c16.5859 3.7002 32.9141 -1.01465 44.582 -13.3193c8.43164 -8.88867 16.4844 -18.3809 26.958 -19.9668
c2.33301 8.30762 3.83398 16.8242 4.18652 25.5068c1.40332 34.5352 -15.3066 66.1562 -47.4658 80.4443c-63.6143 28.2637 -135.125 -40.2578 -169.164 -86.8945c-40.0166 -54.834 -75.2959 -145.583 -30.1396 -207.608
c9.66504 -13.2773 22.9121 -23.9795 37.2686 -31.7285c12.3115 -6.64648 22.3809 -9.77539 34.1172 -11.6094c10.1768 -1.58594 20.9775 -1.2793 32.2539 0.136719c36.4238 20.7656 77.6836 35.9346 118.418 21.2578c17.9102 -6.4541 32.2344 -26.9941 8.76758 -38.79
c-30.8809 -15.5186 -63.4941 -27.0371 -96.8838 -33.0244c-9.98828 -6.13086 -19.7676 -12.627 -29.1191 -19.6484c-29.8848 -22.4424 -57.3193 -49.1201 -80.1465 -78.7314c-19.9268 -25.8486 -41.3711 -57.0391 -39.9062 -91.0547
c1.33496 -31.0146 20.8408 -61.083 46.9248 -77.2412c54.1777 -33.5596 130.771 -28.626 186.861 -2.96973c56.501 25.8486 126.146 80.3857 131.311 147.514c2.33594 30.3516 -11.248 66.3779 -43.7012 74.1797c-34.5479 8.30371 -72.4629 -14.9287 -91.4531 -42.5596
c-7.33789 -10.6797 -40.8936 -5.90625 -33.2812 5.23047c26.6123 38.9395 73.6211 61.8779 120.878 58.2891c44.6797 -3.39355 78.3047 -34.1367 82.6279 -79.2275c4.1084 -42.8457 -21.3389 -82.3398 -49.4912 -112.186
c-28.6455 -30.3682 -63.9082 -53.9658 -102.176 -70.4141zM262.899 420.602c17.4209 -0.0224609 34.2773 15.2568 45.8604 26.6445c16.6445 16.373 32.1338 36.1982 42.1514 58.0859c-11.5312 1.33496 -22.7227 5.24414 -32.3584 11.9922
c-6.38184 4.4707 -10.7705 9.92969 -15.9189 15.6787c-3.66406 4.0918 -3.42285 5.67773 -8.91406 3.17871c-3.02441 -1.37988 -6.40527 -6.43066 -8.23242 -9.00195c-10.8105 -15.1953 -15.3496 -33.6768 -15.875 -52.0469
c-0.388672 -13.5938 -31.7129 -13.9629 -35.9287 -2.77441c-4.5127 11.9648 -9.29004 23.8125 -14.498 35.4941c-0.0585938 0.133789 -0.120117 0.260742 -0.178711 0.394531c-8.16406 -18.8594 -6.50684 -41.292 3.47461 -59.1211
c7.85352 -14.0342 23.248 -28.502 40.418 -28.5244zM304.391 271.093c2.03613 0.443359 2.53516 0.883789 0 0z" />
    <glyph glyph-name="F" unicode="F" horiz-adv-x="423" 
d="M347.125 534.032c-8.63086 -92.0146 -13.0078 -184.401 -12.7725 -276.851c0.0263672 -11.2666 0.111328 -22.5469 0.245117 -33.8301c8.71191 1.9541 17.4043 3.46484 26.002 4.22461c10.1572 0.900391 24.377 0.910156 31.9824 -7.41992
c5.98047 -6.54883 4.00293 -15.832 -4.42871 -19.5615c-16.6309 -7.35449 -34.6846 -12.1641 -52.7939 -16.6377c0.81543 -29.6475 2.21875 -59.2754 4.65625 -88.7949c2.26465 -27.4609 5.56641 -54.8496 10.4248 -81.9775
c4.22266 -23.5908 8.18066 -50.7422 17.5615 -73.1719c5.11621 -5.2334 6.24512 -12.2324 0.411133 -18.6543c-8.55566 -9.41699 -25.0693 -9.52441 -36.418 -8.44727c-34.9951 3.33105 -39.2764 36.6885 -46.1582 64.8965
c-6.74414 27.6533 -11.9971 55.5811 -15.7793 83.792c-4.49023 33.4775 -7.07129 67.125 -8.62793 100.831c-19.8613 -6.4834 -40.2021 -11.9229 -60.1289 -10.2686c-5.89941 0.489258 -21.917 7.41309 -16.292 16.3535c8.06641 12.8232 23.6729 15.8809 37.2988 20.5146
c10.709 3.6416 21.4639 7.14551 32.2578 10.5293c-8.08594 94.0635 -16.4326 188.571 -37.5566 280.766c-1.43555 6.27441 -2.96289 12.5654 -4.58105 18.8467c-2.23145 -0.554688 -4.45996 -1.12598 -6.69141 -1.6709c-26.4395 -6.4707 -52.9766 -12.5527 -79.7266 -17.623
c-25.9375 -4.91406 -53.917 -11.5801 -80.4512 -10.0664c-19.8223 1.13184 -44.8232 10.8779 -52.4424 31.0723c-8.24902 21.8652 9.12598 43.4072 26.0605 55.3076c23.2061 16.3086 53.8975 21.0566 79.2012 11.9434c0.483398 38.3105 8.125 82.8174 51.5352 77.9688
c23.666 -2.64648 39.0186 -22.8799 51.375 -41.1846c14.001 -20.7422 24.2139 -43.7754 32.1562 -67.4443c1.33789 -3.98438 2.54883 -8.01367 3.80859 -12.0273c11.2803 2.88086 22.5537 5.78809 33.8203 8.69824c1.88281 20.7812 3.90234 41.5527 6.22559 62.292
c3.42969 30.6133 79.5381 28.3623 76.2715 0.000976562c-1.63184 -14.1807 -3.16211 -28.374 -4.59082 -42.5771c34.0811 8.24512 68.335 15.7432 102.961 21.2832c28.7334 4.60059 57.7021 7.79199 86.7686 9.22754c8.5459 0.423828 60.5967 3.2627 48.2891 -19.4766
c-5.1748 -9.56348 -30.9189 -7.42578 -31.9961 1.37793c-0.411133 0.0390625 -0.868164 0.111328 -1.42578 0.261719c-2.97559 -0.0615234 -5.95117 -0.149414 -8.92383 -0.266602c-2.96973 -0.111328 -5.93945 -0.251953 -8.90918 -0.405273
c-8.45801 -0.4375 -16.8955 -1.05762 -25.3271 -1.85742c-15.7471 -1.49805 -31.4414 -3.50488 -47.0742 -5.91602c-30.3848 -4.68262 -60.5117 -10.9014 -90.4521 -17.8516c-8.60449 -1.99707 -17.1895 -4.08496 -25.7646 -6.20605zM96.582 494.57
c37.2461 6.08496 74.0498 14.3369 110.676 23.3457c-8.60449 28.9785 -20.0342 57.2031 -37.1094 82.1123c-4.18262 6.10449 -13.1162 21.5352 -21.0088 23.6592c-5.42969 1.45898 -2.78711 1.17871 -6.1377 -3.23633c-2.77051 -3.65137 -2.99902 -9.60645 -3.80176 -14.041
c-4.30078 -23.79 -4.47363 -48.6992 -3.2959 -72.7637c0.763672 -15.5576 -30.2373 -10.957 -36.0127 -2.78027c-16.9248 23.9629 -42.9766 7.17871 -56.1748 -10.5947c-6.9502 -9.3584 -12.6641 -23.918 1.63379 -29.8496c13.665 -5.66406 37.1484 1.84766 51.2314 4.14844
zM269.273 513.838c-8.82617 -2.33301 -17.6553 -4.64648 -26.4883 -6.94043c8.34961 -29.5723 14.8105 -59.7705 19.9434 -90.3213c1.625 32.4531 3.83691 64.877 6.54492 97.2617z" />
    <glyph glyph-name="G" unicode="G" horiz-adv-x="476" 
d="M435.159 28.7334c-22.2012 -65.2783 -62.3623 -122.405 -117.313 -161.629c21.46 -16.7939 44.9756 -30.4102 72.707 -33.1123c6.12793 -0.59668 14.5039 -4.97559 12.1777 -12.2256c-2.4082 -7.51172 -15.4277 -7.53418 -21.4482 -6.94043
c-32.7139 3.22656 -61.0195 18.1182 -86.6895 37.2979c-11.2607 -6.53613 -23.0303 -12.3936 -35.3213 -17.4541c-44.7285 -18.4189 -95.2188 -24.8564 -143.047 -17.1787c-41.1553 6.60742 -92.8633 25.5361 -110.102 67.3574
c-16.2266 39.3672 1.01172 77.8662 37.2568 97.9785c38.0137 21.0918 83.3975 16.0801 121.809 -1.15137c39.9746 -17.9336 74.7119 -45.9424 107.299 -74.9561c55.7764 50.7744 89.1826 121.756 103.363 195.194c12.0928 62.6289 15.2842 126.628 10.4287 190.03
c-21.2451 -46.0664 -50.0205 -88.9316 -86.376 -123.754c-49.1367 -47.0615 -126.292 -86.3633 -194.794 -60.9453c-66.2021 24.5605 -93.3691 90.8799 -99.0957 156.706c-6.01367 69.1191 12.9443 139.051 40.6895 201.859
c25.1348 56.8955 58.4854 112.744 104.477 155.303c50.8789 47.0811 124.203 83.4336 194.51 62.8057c62.2441 -18.2627 85.2285 -81.3096 73.0508 -140.092c2.05566 -4.41504 1.28223 -9.35156 -3.24023 -12.8818c-16.1445 -55.3984 -58.8398 -105.08 -114.952 -122.061
c-30.9131 -9.35449 -69.3965 -11.1523 -97.04 8.02344c-25.9961 18.0371 -33.749 49.2695 -27.9375 79.2334c6.55566 33.791 24.1689 60.8867 62.0645 60.5117c21.1992 -0.208984 34.6553 -11.4824 45.4033 -26.1953c5.82715 6.14746 12.2324 11.6973 19.9395 15.9297
c12.0371 6.61035 26.4004 9.37109 40.0391 8.96289c6.0498 -0.182617 12.0566 -0.919922 18.0312 -1.82422c3.94531 34.708 -5.39355 72.7344 -38.8682 88.2891c-15.0352 6.98633 -33.2158 -1.30762 -47.0674 -8.07129
c-19.3652 -9.45898 -36.7334 -21.8154 -52.5225 -36.4268c-33.1445 -30.6748 -58.3184 -68.3975 -79.4365 -108.068c-24.501 -46.0234 -44.8262 -95.584 -53.7988 -147.148c-8.69531 -49.9717 -9.80176 -103.745 8.78027 -151.645
c17.1953 -44.3232 54.1904 -78.0225 103.807 -58.4512c45.7334 18.0439 83.0615 56.0537 111.194 95.3555c28.7627 40.1865 50.3926 84.8916 64.9385 132.034c-0.121094 0.720703 -0.222656 1.43848 -0.34668 2.15625c-3.84668 22.5693 57.043 24.8926 63.3438 4.8877
c17.0459 -54.1318 19.3525 -114.578 20.0312 -170.991c0.675781 -56.1943 -7.82715 -113.449 -25.9434 -166.714zM310.272 458.757c18.7393 16.6084 32.7275 37.4443 42.1904 60.5625c0.632812 1.54688 1.22949 3.13965 1.80664 4.75195
c-5.14551 0.96875 -10.0986 1.55273 -13.5244 0.538086c-4.94629 -1.46875 -12.252 -11.0518 -16.415 -16.1162c-7.31543 -8.9043 -13.8672 -18.3213 -21.79 -26.7266c-11.6357 -12.3438 -41.2666 -10.543 -50.3281 3.74902
c-4.48047 7.06738 -10.5303 14.5947 -15.7539 22.2988c-0.834961 -2.8125 -1.54297 -5.66113 -2.16309 -8.45703c-4.06934 -18.3604 -4.5293 -58.7881 20.458 -64.041c19.082 -4.01367 42.2686 11.6973 55.5195 23.4404zM87.0029 -128.484
c47.8574 -35.4355 116.65 -14.6494 163.516 17.6963c-24.9482 22.002 -49.7793 43.8184 -78.6465 61.2168c-28.7363 17.3232 -78.5059 42.5068 -106.14 9.58398c-22.5537 -26.8701 -3.52148 -70.1396 21.2705 -88.4971z" />
    <glyph glyph-name="H" unicode="H" horiz-adv-x="706" 
d="M307.233 -140.257c1.25293 63.252 7.03027 126.509 9.5752 189.754c1.28906 32.0645 2.26465 64.1426 2.88477 96.2305c-36.5449 -4.5 -76.9824 -8.2168 -109.246 12.0625c-12.1025 7.60938 -20.7783 17.8154 -26.71 29.4805
c-4.5 -6.26465 -9.20801 -12.4248 -14.2656 -18.416c-18.2852 -21.6689 -39.6475 -45.1748 -68.1426 -52.4932c-65.2461 -16.7549 -89.3916 54.4424 -94.0449 105.455c-5.24023 57.4307 6.35254 117.515 21.0098 172.867c14.4902 54.7295 36.7373 107.667 69.9473 153.749
c29.875 41.4492 69.9375 81.4336 116.787 103.344c48.083 22.4883 100.371 5.79883 127.633 -39.3701c29.3008 -48.5459 34.8477 -113.315 39.8271 -168.508c5.7334 -63.542 6.73828 -127.806 7.09082 -191.57c0.117188 -21.418 -0.0292969 -42.8389 -0.287109 -64.2539
c36.0029 5.63477 71.6992 12.7158 107.549 19.333c28.8447 5.3252 58.1426 9.03223 87.3389 7.87402c-0.0263672 12.1807 -0.0136719 24.3643 0.0576172 36.542c0.375 64.2764 2.375 128.543 5.99316 192.719c3.56348 63.1709 4.09863 130.11 19.4707 191.672
c3.70996 14.8594 31.3926 16.7422 42.8193 15.9365c12.0693 -0.851562 33.2852 -6.30078 33.8398 -21.8486c1.1416 -31.9473 -3.63184 -64.1455 -6.26465 -95.9854c-2.65234 -32.0391 -4.99219 -64.0977 -6.88184 -96.1885
c-3.65137 -62.0352 -5.78906 -124.158 -6.40918 -186.301c-0.616211 -61.9141 0.356445 -123.871 2.02734 -185.766c0.854492 -31.6475 2.375 -63.3008 5.1709 -94.8438c2.72461 -30.7236 11.2764 -63.0234 9.58594 -93.7832
c-1.40625 -25.5557 -55.8027 -24.123 -65.0957 -5.02148c-13.5381 27.8428 -16.3018 62.1396 -20.4131 92.5146c-4.26172 31.4746 -7.11328 63.1152 -9.2207 94.8018c-2.75098 41.3184 -4.02051 82.7217 -4.4834 124.132
c-38.8154 2.45996 -77.543 -7.67773 -115.625 -14.9512c-26.5469 -5.06738 -53.208 -9.59668 -79.9346 -13.6816c-0.671875 -33.1094 -1.73926 -66.2051 -3.13281 -99.2881c-2.75391 -65.2881 -4.71777 -131.304 -12.5293 -196.197
c-3.08984 -25.6699 -66.4336 -25.8066 -65.9209 0zM308.642 177.519c3.84375 0.423828 7.67969 0.919922 11.5166 1.36328c0.21582 19.1172 0.336914 38.2383 0.258789 57.3555c-0.443359 106.773 -1.52344 216.633 -20.9053 321.898
c-3.83691 20.8535 -9.71387 40.7148 -19.793 59.4473c-4.0293 7.48828 -8.21191 15.0908 -16.1836 19.0488c-11.3779 5.64844 -24.1689 -1.30859 -34.4834 -6.70898c-40.5391 -21.2217 -74.5713 -56.0898 -100.43 -93.4209
c-56.0576 -80.9375 -85.4072 -187.926 -86.4053 -285.977c-0.228516 -22.3516 10.2852 -137.011 52.1777 -110.924c19.6426 12.2324 35.2588 35.2197 47.9092 54.1084c13.0195 19.4404 25.9502 40.6621 32.541 63.2383c5.10645 17.4961 46.2002 13.0947 49.4824 -3.81738
c5.17871 -26.6582 6.5625 -71.2627 40.5391 -77.293c14.2168 -2.51855 29.5918 0.121094 43.7754 1.68066z" />
    <glyph glyph-name="I" unicode="I" horiz-adv-x="317" 
d="M338.294 -90.2129c8.25488 1.43262 33.6641 -8.24414 16.9609 -16.6104c-41.1289 -20.6123 -86.9404 4.11133 -108.838 40.5742c-24.9844 41.6055 -28.7461 97.6299 -31.8555 144.881c-6.34961 96.4521 -5.38672 193.671 -7.34082 290.293
c-0.163086 8.01367 -0.306641 16.0566 -0.450195 24.1094c-18.1943 -1.33789 -36.3691 0.280273 -53.7871 7.16797c-12.1377 4.80273 -23.4795 12.1152 -31.9961 21.3818c-23.9893 -26.5967 -54.0605 -49.8291 -87.1436 -38.4707
c-48.3955 16.6211 -36.7109 84.9766 -27.8125 122.217c10.748 44.9893 28.958 88.0596 53.9688 126.983c21.8223 33.9609 49.8379 78.1055 93.3945 84.7949c49.5547 7.6123 82.4023 -26.1523 99.2686 -68.7725c18.9248 -47.8184 26.8145 -99.2295 30.0645 -150.34
c6.81934 -107.229 4.97559 -215.409 6.67188 -322.818c0.832031 -52.7061 1.2793 -105.164 5.53711 -157.727c1.87598 -23.1475 2.97852 -114.68 43.3574 -107.664zM183.119 426.631c7.13574 -2.80957 15.0205 -3.09473 23.0371 -2.06738
c-1.6123 73.5137 -5.30273 147.794 -25.4287 218.482c-4.35645 15.3066 -9.51855 33.4814 -21.0527 45.1104c-10.1709 10.252 -30.917 -14.4453 -38.9404 -23.624c-28.3125 -32.3975 -49.8379 -70.626 -65.3271 -110.669
c-14.2432 -36.8223 -30.5449 -84.4512 -21.7939 -124.312c1.34766 -6.12793 7.94238 -28.3359 16.9189 -29.3086c7.53711 -0.819336 19.9951 16.0859 24.4814 21.1504c13.1367 14.8271 25.1738 31.5596 32.6787 49.9756c5.99121 14.6963 47.4141 14.6934 48.0732 -3.70996
c0.623047 -17.3486 10.5166 -34.4043 27.3535 -41.0283z" />
    <glyph glyph-name="I" unicode="&#xcf;" horiz-adv-x="317" 
d="M338.294 -90.2129c8.25488 1.43262 33.6641 -8.24414 16.9609 -16.6104c-41.1289 -20.6123 -86.9404 4.11133 -108.838 40.5742c-24.9844 41.6055 -28.7461 97.6299 -31.8555 144.881c-6.34961 96.4521 -5.38672 193.671 -7.34082 290.293
c-0.163086 8.01367 -0.306641 16.0566 -0.450195 24.1094c-18.1943 -1.33789 -36.3691 0.280273 -53.7871 7.16797c-12.1377 4.80273 -23.4795 12.1152 -31.9961 21.3818c-23.9893 -26.5967 -54.0605 -49.8291 -87.1436 -38.4707
c-48.3955 16.6211 -36.7109 84.9766 -27.8125 122.217c10.748 44.9893 28.958 88.0596 53.9688 126.983c21.8223 33.9609 49.8379 78.1055 93.3945 84.7949c49.5547 7.6123 82.4023 -26.1523 99.2686 -68.7725c18.9248 -47.8184 26.8145 -99.2295 30.0645 -150.34
c6.81934 -107.229 4.97559 -215.409 6.67188 -322.818c0.832031 -52.7061 1.2793 -105.164 5.53711 -157.727c1.87598 -23.1475 2.97852 -114.68 43.3574 -107.664zM183.119 426.631c7.13574 -2.80957 15.0205 -3.09473 23.0371 -2.06738
c-1.6123 73.5137 -5.30273 147.794 -25.4287 218.482c-4.35645 15.3066 -9.51855 33.4814 -21.0527 45.1104c-10.1709 10.252 -30.917 -14.4453 -38.9404 -23.624c-28.3125 -32.3975 -49.8379 -70.626 -65.3271 -110.669
c-14.2432 -36.8223 -30.5449 -84.4512 -21.7939 -124.312c1.34766 -6.12793 7.94238 -28.3359 16.9189 -29.3086c7.53711 -0.819336 19.9951 16.0859 24.4814 21.1504c13.1367 14.8271 25.1738 31.5596 32.6787 49.9756c5.99121 14.6963 47.4141 14.6934 48.0732 -3.70996
c0.623047 -17.3486 10.5166 -34.4043 27.3535 -41.0283z" />
    <glyph glyph-name="I" unicode="&#xce;" horiz-adv-x="317" 
d="M338.294 -90.2129c8.25488 1.43262 33.6641 -8.24414 16.9609 -16.6104c-41.1289 -20.6123 -86.9404 4.11133 -108.838 40.5742c-24.9844 41.6055 -28.7461 97.6299 -31.8555 144.881c-6.34961 96.4521 -5.38672 193.671 -7.34082 290.293
c-0.163086 8.01367 -0.306641 16.0566 -0.450195 24.1094c-18.1943 -1.33789 -36.3691 0.280273 -53.7871 7.16797c-12.1377 4.80273 -23.4795 12.1152 -31.9961 21.3818c-23.9893 -26.5967 -54.0605 -49.8291 -87.1436 -38.4707
c-48.3955 16.6211 -36.7109 84.9766 -27.8125 122.217c10.748 44.9893 28.958 88.0596 53.9688 126.983c21.8223 33.9609 49.8379 78.1055 93.3945 84.7949c49.5547 7.6123 82.4023 -26.1523 99.2686 -68.7725c18.9248 -47.8184 26.8145 -99.2295 30.0645 -150.34
c6.81934 -107.229 4.97559 -215.409 6.67188 -322.818c0.832031 -52.7061 1.2793 -105.164 5.53711 -157.727c1.87598 -23.1475 2.97852 -114.68 43.3574 -107.664zM183.119 426.631c7.13574 -2.80957 15.0205 -3.09473 23.0371 -2.06738
c-1.6123 73.5137 -5.30273 147.794 -25.4287 218.482c-4.35645 15.3066 -9.51855 33.4814 -21.0527 45.1104c-10.1709 10.252 -30.917 -14.4453 -38.9404 -23.624c-28.3125 -32.3975 -49.8379 -70.626 -65.3271 -110.669
c-14.2432 -36.8223 -30.5449 -84.4512 -21.7939 -124.312c1.34766 -6.12793 7.94238 -28.3359 16.9189 -29.3086c7.53711 -0.819336 19.9951 16.0859 24.4814 21.1504c13.1367 14.8271 25.1738 31.5596 32.6787 49.9756c5.99121 14.6963 47.4141 14.6934 48.0732 -3.70996
c0.623047 -17.3486 10.5166 -34.4043 27.3535 -41.0283z" />
    <glyph glyph-name="I" unicode="&#xcd;" horiz-adv-x="317" 
d="M338.294 -90.2129c8.25488 1.43262 33.6641 -8.24414 16.9609 -16.6104c-41.1289 -20.6123 -86.9404 4.11133 -108.838 40.5742c-24.9844 41.6055 -28.7461 97.6299 -31.8555 144.881c-6.34961 96.4521 -5.38672 193.671 -7.34082 290.293
c-0.163086 8.01367 -0.306641 16.0566 -0.450195 24.1094c-18.1943 -1.33789 -36.3691 0.280273 -53.7871 7.16797c-12.1377 4.80273 -23.4795 12.1152 -31.9961 21.3818c-23.9893 -26.5967 -54.0605 -49.8291 -87.1436 -38.4707
c-48.3955 16.6211 -36.7109 84.9766 -27.8125 122.217c10.748 44.9893 28.958 88.0596 53.9688 126.983c21.8223 33.9609 49.8379 78.1055 93.3945 84.7949c49.5547 7.6123 82.4023 -26.1523 99.2686 -68.7725c18.9248 -47.8184 26.8145 -99.2295 30.0645 -150.34
c6.81934 -107.229 4.97559 -215.409 6.67188 -322.818c0.832031 -52.7061 1.2793 -105.164 5.53711 -157.727c1.87598 -23.1475 2.97852 -114.68 43.3574 -107.664zM183.119 426.631c7.13574 -2.80957 15.0205 -3.09473 23.0371 -2.06738
c-1.6123 73.5137 -5.30273 147.794 -25.4287 218.482c-4.35645 15.3066 -9.51855 33.4814 -21.0527 45.1104c-10.1709 10.252 -30.917 -14.4453 -38.9404 -23.624c-28.3125 -32.3975 -49.8379 -70.626 -65.3271 -110.669
c-14.2432 -36.8223 -30.5449 -84.4512 -21.7939 -124.312c1.34766 -6.12793 7.94238 -28.3359 16.9189 -29.3086c7.53711 -0.819336 19.9951 16.0859 24.4814 21.1504c13.1367 14.8271 25.1738 31.5596 32.6787 49.9756c5.99121 14.6963 47.4141 14.6934 48.0732 -3.70996
c0.623047 -17.3486 10.5166 -34.4043 27.3535 -41.0283z" />
    <glyph glyph-name="J" unicode="J" horiz-adv-x="448" 
d="M185.847 -136.844c-55.1309 -5.38086 -104.985 18.2256 -132.11 66.9932c-26.4463 47.5439 -32.3164 110.268 -33.2822 163.662c-0.919922 50.8721 3.46875 105.614 24.5342 152.613c9.53125 21.2676 23.4736 43.7295 42.8555 57.2607
c21.9531 15.3262 58.208 19.4541 79.4102 0.206055c16.7979 -15.251 22.1748 -43.6152 23.9629 -65.1641c0.192383 -2.32031 0.28418 -4.63672 0.385742 -6.95703c12.7422 5.60254 26.8613 7.85742 40.9541 7.23047c21.9434 -0.975586 42.6406 -8.66309 63.0049 -16.2461
c8.27148 -3.08008 17.0264 -6.69824 25.96 -9.2959c5.58301 44.1504 8.74121 88.6699 11.6318 132.406c3.21387 48.6143 6.26172 97.2354 7.7627 145.938c1.12891 36.6035 0.365234 73.6113 1.43848 110.346c-105.125 -8.46387 -210.188 -17.6689 -315.147 -27.9893
c-6.7832 -0.668945 -20.4482 -0.508789 -23.6426 7.65137c-3.06348 7.82812 7.00879 12.8857 13.4238 13.4766c108.686 9.99414 217.423 19.4111 326.223 28.0771c0.30957 5.86035 0.668945 11.7109 1.12598 17.5479c1.65137 21.1865 50.4326 22.7627 57.0332 4.40234
c2.00391 -5.57324 3.76953 -11.2344 5.43359 -16.9385c1.38672 0.107422 2.77344 0.22168 4.16016 0.326172c18.1094 1.38672 25.5068 -19.1309 4.9209 -20.7197c-1.25 -0.0947266 -2.49609 -0.199219 -3.74609 -0.296875
c11.6191 -52.0859 12.0107 -108.035 13.0908 -160.317c1.36719 -66.3555 -1.19141 -132.537 -6.65332 -198.68c-8.71191 -105.523 -27.04 -223.724 -96.9482 -307.747c-33.876 -40.7119 -82.2266 -72.5547 -135.781 -77.7852zM157.176 -95.5918
c13.998 -3.99414 30.082 6.23828 41.0557 13.9062c14.0693 9.8252 26.5889 22.8047 36.9941 36.4307c24.5205 32.1074 40.3037 69.8828 53.3232 107.821c14.5 42.2549 23.79 86.2715 30.251 130.843c-18.7061 3.86328 -37.0898 11.0283 -55.6104 17.5117
c-17.4531 6.11133 -37.1709 12.9697 -54.4092 2.65527c-8.16016 -4.88184 -14.0889 -12.2852 -18.7578 -20.416c-1.09961 -10.1025 -2.55859 -20.1689 -4.07617 -30.1729c-0.0585938 -0.691406 -0.160156 -1.40234 -0.323242 -2.14941
c-4.66895 -21.4209 -58.9834 -21.085 -55.9648 0c3.68066 25.7051 7.37402 51.8896 4.91016 77.8955c-1.06738 11.2471 -3.18164 22.4424 -7.6416 32.8867c-0.192383 0.457031 -0.417969 0.890625 -0.620117 1.34375c-29.6406 -33.7646 -38.1182 -83.1885 -41.1953 -126.445
c-3.37109 -47.3975 0.129883 -95.5518 10.1143 -141.996c7.40039 -34.4307 22.498 -88.8438 61.9502 -100.114z" />
    <glyph glyph-name="K" unicode="K" horiz-adv-x="532" 
d="M409.729 539.974c-38.1631 -61.6758 -74.1191 -124.287 -115.16 -184.097c0.0849609 -0.776367 0.172852 -1.55273 0.254883 -2.32617c41.3574 -3.50488 69.8457 -40.2295 88.6533 -78.9014c23.5977 -48.5137 35.3545 -101.833 54.2402 -152.193
c18.0508 -48.125 40.9893 -97.457 79.5312 -132.69c28.8447 -26.3711 70.8975 -40.7637 94.9717 0.0917969c10.7217 18.2002 69.0469 15.498 58.4033 -9.17969c-22.4814 -52.1191 -90.2295 -63.9893 -139.921 -51.1074c-53.4307 13.8574 -92.7686 55.7441 -120.559 101.52
c-28.5312 46.9961 -44.0469 100.176 -59.3242 152.572c-7.96484 27.3145 -14.7031 54.9512 -22.4297 82.3271c-3.81152 13.499 -8.01758 27.8721 -16.2178 39.4424c-2.33594 3.29199 -8.4541 10.252 -14.0596 15.1299c11.5508 -125.744 12.7646 -252.9 8.4541 -378.765
c-0.992188 -29.0078 -72.7373 -28.8643 -73.7715 0c-3.78809 105.719 -3.86621 211.471 -9.93848 316.909c-0.326172 -0.414062 -0.645508 -0.834961 -0.97168 -1.24609c-19.9434 -25.2295 -39.7197 -53.4443 -66.1787 -72.3203
c-24.0996 -17.1953 -56.0273 -24.7363 -84.7637 -15.5215c-31.4453 10.082 -43.29 38.793 -50.7227 68.4336c-17.4629 69.6504 -12.4971 142.055 0.936523 211.943c12.2129 63.5361 29.334 130.527 64.8086 185.449c19.4473 30.1035 45.251 47.8115 82.7715 41.3604
c34.7959 -5.97754 59.252 -35.7939 73.6934 -66.084c14.5303 -30.4795 21.5293 -63.9902 28.2246 -96.8711c7.51758 -36.9336 13.5635 -74.1602 18.4316 -111.53c24.0703 36.8613 46.8096 74.5186 69.1445 112.577c28.0518 47.7988 57.7119 96.4658 98.7822 134.365
c19.5811 18.0664 42.2783 34.6846 67.0215 44.9004c20.9189 8.63672 59.2842 9.44238 66.1133 -18.4785c4.21582 -17.2217 -35.7324 -19.209 -37.4033 -2.88477c-1.35449 13.2217 -16.8926 1.11914 -23.2451 -2.4834c-8.20605 -4.65332 -16.1611 -9.7959 -23.6982 -15.4795
c-12.957 -9.77246 -24.8467 -20.9971 -35.8945 -32.8643c-23.1768 -24.8965 -42.3232 -53.1406 -60.1777 -81.998zM189.437 265.266c10.3145 12.8564 20.4414 25.8633 30.416 38.9863c-2.95605 38.8809 -6.91113 77.7168 -12.3867 116.483
c-4.99512 35.3477 -11.0742 70.5479 -18.5068 105.465c-6.33301 29.7646 -12.5361 60.0479 -26.873 87.1855c-3.70312 7.01172 -7.51758 14.4385 -12.4248 20.6973c-0.652344 0.829102 -1.62793 1.75293 -2.62305 2.69629
c-3.08984 -1.90234 -6.13379 -3.74902 -7.1748 -4.72461c-5.31543 -4.98242 -9.95508 -10.7646 -14.4482 -16.4814c-19.9492 -25.3955 -33.4316 -54.8662 -43.6475 -85.3125c-21.4893 -64.0352 -35.4189 -132.625 -35.3574 -200.331
c0.0361328 -40.0586 6.97266 -178.502 77.3477 -134.605c26.6807 16.6445 46.3135 45.8018 65.6787 69.9414z" />
    <glyph glyph-name="L" unicode="L" horiz-adv-x="506" 
d="M285.333 -109.269c-15.7959 0.231445 -31.585 -1.32812 -46.4219 -7.20508c-7.27637 -2.87793 -17.2344 -6.84277 -22.582 -12.7061c-3.24707 -3.55664 -4.00391 -8.04297 -6.17676 -12.2197c-3.14258 -6.0459 -11.7598 -7.67773 -17.8447 -7.74609
c-15.2773 -0.175781 -33.6865 9.18262 -24.4785 26.6689c7.43652 14.125 26.3486 23.4961 40.4053 29.2939c22.0635 9.10645 45.3906 12.5557 68.9297 12.9111c-6.06543 25.0234 -10.0986 50.7129 -13.9326 75.6055c-7.29297 47.3555 -10.3047 95.334 -11.9785 143.188
c-0.264648 7.51172 -0.417969 15.0391 -0.600586 22.5635c-10.4971 -5.12305 -21.291 -9.64844 -32.4629 -13.3027c-34.5811 -11.3096 -73.5996 -15.3232 -108.872 -4.76074c-32.6035 9.76953 -56.873 32.3721 -74.7119 60.6973
c-38.3428 60.8828 -45.0576 147.935 -14.0176 213.428c15.5605 32.835 60.1162 36.2061 85.9326 12.5039c13.8643 -12.7285 22.583 -32.2441 31.3311 -48.5586c2.43066 -4.5293 4.7998 -9.08789 7.12988 -13.6689c9.34863 6.35254 20.0186 11.2441 30.8154 15.0264
c25.4414 8.91113 52.8076 13.5479 80.0859 16.0312c0.606445 9.84766 1.22949 19.6885 1.91113 29.5127c5.49512 78.9795 14.9414 164.554 53.3232 235.229c17.29 31.8428 43.2568 66.1621 78.7539 78.499c38.5547 13.4043 83.8184 1.14844 101.327 -37.5332
c15.4238 -34.0811 17.0908 -76.8027 15.1953 -113.501c-1.9873 -38.4736 -8.85547 -76.7412 -18.6641 -113.955c-18.8857 -71.6406 -51.2412 -141.412 -98.8604 -198.556c-17.4531 -20.9443 -36.4404 -41.6279 -57.085 -60.4678
c-0.551758 -49.3164 0.0947266 -98.665 3.06738 -147.863c2.18652 -36.1855 5.19531 -72.4434 9.49902 -108.44c1.91211 -15.998 4.4082 -31.9277 6.61035 -47.8672c38.4014 -5.64844 76.9951 -13.1826 115.603 -15.3359c39.8857 -2.22559 71.4902 13.2861 81.9609 53.6582
c3.94141 15.1992 47.4033 13.793 47.2178 -3.64062c-0.362305 -33.9707 -31.1416 -58.6289 -60.4395 -69.8506c-37.2529 -14.2725 -78.6172 -9.4043 -117.101 -4.09863c-21.1377 2.91699 -42.415 6.54883 -63.7412 9.68164
c0.724609 -7.80176 1.2666 -15.6201 1.47559 -23.4609c0.59668 -22.4951 -48.873 -20.2832 -56.6846 -4.37598c-5.46191 11.1201 -10.0166 22.7197 -13.9189 34.6162zM346.121 495.008c-9.0127 -69.2432 -10.8799 -139.506 -12.9355 -209.229
c-0.0488281 -1.68066 -0.0849609 -3.35742 -0.133789 -5.03809c25.7188 36.8936 47.1104 77.9775 64.7432 118.147c25.2393 57.5029 41.9453 119.848 45.2178 182.708c1.72266 33.1445 1.35742 70.7793 -11.3711 101.95c-2.38867 5.84375 -5.1748 12.1279 -9.08984 17.1533
c-6.03613 -6.29102 -15.123 -15.4307 -17.502 -18.9512c-36.584 -54.1807 -50.6309 -122.977 -58.9287 -186.741zM72.1445 419.24c-0.0820312 0.0722656 -0.214844 -0.00585938 -0.384766 -0.181641c0.126953 0.0585938 0.257812 0.120117 0.384766 0.181641z
M147.888 156.799c37.5625 -2.20898 72.1777 13.2109 102.21 35.4707c-0.629883 59.2227 0.978516 118.634 4.15039 177.791c-15.3975 -1.9248 -30.6904 -4.7832 -45.3965 -9.06738c-18.8369 -5.49121 -40.5225 -15.5996 -44.1445 -37.1318
c-2.99512 -17.8096 -41.6709 -19.5977 -48.4707 -3.74023c-7.79199 18.1777 -16.1611 36.085 -25.333 53.6035c-4.58105 8.75098 -9.2793 17.4561 -14.2686 25.9785c-2.09473 3.5791 -4.13086 7.18457 -6.66309 10.4805
c-0.525391 0.766602 -1.11621 1.48145 -1.70312 2.19629c-5.21387 -11.5635 -13.7695 -33.8721 -14.4707 -36.3418c-5.34766 -18.8438 -7.98438 -38.4639 -8.38281 -58.0312c-1.31152 -64.7363 24.6162 -156.637 102.473 -161.208z" />
    <glyph glyph-name="M" unicode="M" horiz-adv-x="920" 
d="M358.859 -122.203c-0.0615234 -29.0498 -72.7949 -29.0469 -74.126 0.0126953c-5.76855 125.219 -6.44727 250.806 -9.22754 376.125c-0.192383 8.71875 -0.352539 17.4502 -0.499023 26.1914c-23.3398 -7.57031 -47.5215 -12.6055 -71.8955 -13.5098
c-10.8135 -0.398438 -24.2402 1.21973 -36.6592 5.29492c-7.7002 -17.9102 -16.0469 -35.5332 -24.958 -52.9863c-12.252 -24.002 -23.4336 -54.3672 -51.1396 -64.166c-26.5176 -9.37402 -58.083 -0.8125 -71.334 24.8867
c-13.0908 25.3926 -11.0547 59.9209 -10.6924 87.5352c0.799805 61.1309 11.998 121.668 27.7383 180.587c15.4697 57.9141 34.457 115.987 59.1084 170.688c11.7725 26.126 25.1084 52.1777 41.0703 76.0166c15.7568 23.5322 32.417 42.5752 62.0771 46.9316
c65.4707 9.61621 102.919 -51.6484 119.958 -105.461c18.0273 -56.9443 23.7051 -118.007 27.2939 -177.34c3.85645 -63.7998 4.32617 -127.809 5.71582 -191.7c0.880859 -40.6133 1.98047 -81.2471 3.06738 -121.891c1.68359 8.7998 3.36719 17.5967 5.03125 26.3867
c15.6396 82.6338 31.3633 165.522 52.5527 246.952c10.334 39.7129 22.501 79.041 38.5674 116.839c13.0449 30.6914 30.2344 69.2002 59.6299 87.75c30.9297 19.5156 62.4141 4.24805 80.5234 -23.7676c21.7607 -33.667 28.9492 -78.7676 33.6543 -117.838
c3.01465 -25.0039 4.79004 -50.0791 5.98145 -75.1904c10.458 37.2949 22.7168 74.0879 36.8164 110.199c15.835 40.5586 32.5342 82.7031 56.9932 118.961c18.292 27.1152 44.167 58.7949 80.9014 49.6191c36.6621 -9.15625 51.4336 -56.1787 59.7314 -88.2793
c11.1787 -43.25 16.8467 -88.791 18.6836 -133.362c3.98438 -96.583 -0.475586 -193.228 4.54297 -289.813c2.46387 -47.3779 7.00879 -94.6318 12.8428 -141.709c5.27246 -42.5459 11.041 -84.7588 28.915 -124.149c16.0703 -35.4189 -67.0693 -40.584 -83.4004 -20.041
c-29.8428 37.5371 -35.8926 82.0791 -41.1201 128.504c-5.41309 48.0986 -8.28125 96.374 -9.11621 144.767c-1.51074 87.5801 7.66797 173.875 16.6016 260.852c4.4707 43.4951 8.70312 87.3457 9.98242 131.062c0.982422 33.5303 5.10352 85.9102 -23.333 110.199
c-10.1055 8.62695 -17.4014 -1.38086 -24.7432 -9.10742c-6.93359 -7.29297 -13.1592 -15.2158 -18.8232 -23.5264c-10.376 -15.2217 -18.8887 -31.6543 -26.8115 -48.2559c-17.9268 -37.5596 -33.5264 -76.3066 -47.1719 -115.618
c-21.0586 -60.6738 -36.9229 -122.94 -47.7559 -186.16c0.727539 -21.4863 1.74219 -42.96 3.44238 -64.3945c1.50391 -18.9805 -30.4307 -24.583 -43.1328 -24.583c-14.8008 0 -42.3926 5.45215 -43.1328 24.583c-3.47168 89.7178 6.06543 178.985 7.29199 268.625
c0.479492 35.002 6.17285 75.0605 -6.22949 108.616c-1.74902 4.73145 -6.13477 17.4736 -11.8809 18.2666c-5.64453 0.776367 -15.7568 -12.4482 -19.0723 -16.4453c-11.1719 -13.4697 -19.8418 -28.9521 -27.4639 -44.6465
c-32.3359 -66.5635 -49.8086 -139.729 -65.7803 -211.602c-16.9121 -76.1016 -31.3242 -152.735 -45.7793 -229.336c-9.31543 -49.3652 -18.2393 -98.8701 -23.9463 -148.741c0.349609 -27.6143 0.568359 -55.2256 0.509766 -82.8301zM211.979 702.568
c0.561523 -2.45703 2.18652 4.56152 -0.0292969 0h0.0292969zM184.593 319.692c-5.86035 -39.7227 64.7861 -12.3633 89.8066 -1.34766c-1.29492 86.3408 -2.98828 173.252 -18.1807 258.121c-4.18945 23.4082 -9.94824 46.5166 -18.8721 68.6035
c-4.4502 11.0156 -9.75586 21.5713 -15.7207 31.8369c-2.54492 4.38574 -5.02832 8.90137 -7.9873 13.0254c-1.46191 2.03613 -4.35938 4.44727 -6.89746 6.86523c-2.48633 -1.90527 -5.25 -3.79492 -6.59082 -5.21777
c-7.95801 -8.43164 -14.5947 -18.2529 -21.0029 -27.8916c-14.0371 -21.1211 -25.1475 -43.9131 -35.168 -67.1709c-40.79 -94.6934 -72.8838 -198.448 -79.6348 -301.724c-1.73633 -26.5566 -1.79492 -53.3418 0.632812 -79.8564
c0.783203 -8.57129 2.05859 -17.2217 5.74902 -25.0693c14.1611 17.6855 23.8916 40.7119 32.9561 61.167c10.5195 23.7441 19.584 48.0527 27.4932 72.7793c5.31543 16.6211 56.2822 15.3027 53.417 -4.12109z" />
    <glyph glyph-name="N" unicode="N" horiz-adv-x="666" 
d="M685.741 -119.303c11.1758 -3.09961 25.4248 -14.3008 19.5059 -27.3008c-6.16406 -13.5215 -27.915 -18.3672 -40.9043 -17.751c-34.2051 1.62207 -61.7021 14.2461 -81.4561 42.6367c-15.6523 22.4951 -22.8076 49.4668 -28.4395 75.9229
c-12.0469 56.5928 -12.876 115.851 -11.9033 173.487c1.82422 108.059 15.1758 215.817 23.8652 323.462c2.18652 27.0889 3.84375 54.2236 4.74414 81.3877c0.450195 13.5244 0.110352 27.0586 0.462891 40.5771c0.287109 11.0684 2.06543 22.2832 0.277344 33.3184
c-0.267578 1.65137 -4.9209 14.0176 -1.89648 13.4014c-2.68848 0.551758 -9.52441 -9.38379 -10.7607 -11.1064c-6.5459 -9.11621 -11.9229 -19.3623 -17.3262 -29.1768c-12.373 -22.4717 -23.2256 -45.7588 -32.9951 -69.4736
c-40.4053 -98.0908 -65.7715 -202.4 -90.6934 -305.258c-20.7686 -85.7178 -40.6201 -171.66 -59.7148 -257.769c0.245117 -23.0889 0.408203 -46.1709 0.359375 -69.25c-0.0654297 -29.0498 -72.793 -29.0498 -74.1309 0
c-5.76855 125.219 -6.44727 250.806 -9.22754 376.125c-0.192383 8.71875 -0.352539 17.4502 -0.499023 26.1914c-23.3398 -7.57031 -47.5215 -12.6055 -71.8955 -13.5098c-10.8135 -0.398438 -24.2402 1.21973 -36.6592 5.29492
c-7.7002 -17.9102 -16.0469 -35.5332 -24.958 -52.9863c-12.252 -24.002 -23.4336 -54.3672 -51.1396 -64.166c-26.5176 -9.37402 -58.083 -0.8125 -71.334 24.8867c-13.0908 25.3926 -11.0547 59.9209 -10.6924 87.5352c0.799805 61.1309 11.998 121.668 27.7383 180.587
c15.4697 57.9141 34.457 115.988 59.1084 170.688c11.7725 26.126 25.1084 52.1777 41.0703 76.0166c15.7568 23.5322 32.417 42.5752 62.0771 46.9316c65.4707 9.61621 102.919 -51.6484 119.958 -105.461c18.0273 -56.9443 23.7051 -118.007 27.2939 -177.34
c3.85645 -63.7998 4.32617 -127.809 5.71582 -191.7c1.29883 -59.8486 3.06055 -119.743 4.56445 -179.638c13.1201 56.3281 26.6289 112.568 40.6885 168.661c26.5732 106.02 54.1846 215.36 104.378 313.089c15.8574 30.877 43.2109 89.9131 88.4092 65.2979
c17.3232 -9.43652 24.1689 -30.6357 29.0732 -48.2754c7.3584 -26.4521 11.0195 -54.3828 14.1426 -81.6348c12.8916 -112.52 4.09473 -226.168 3.14551 -339.072c-0.476562 -56.5078 1.88574 -112.862 9.25684 -168.916
c3.28613 -25.0107 7.49512 -49.2051 15.8779 -73.0674c3.92188 -11.166 8.11523 -22.7236 14.6807 -32.6621c4.18945 -6.34277 6.72168 -9.01172 10.2324 -9.98438zM211.979 702.562c0.561523 -2.45703 2.18652 4.56152 -0.0292969 0h0.0292969zM184.594 319.687
c-5.86035 -39.7227 64.7871 -12.3633 89.8076 -1.34766c-1.29492 86.3408 -2.98828 173.252 -18.1807 258.121c-4.18945 23.4082 -9.94824 46.5166 -18.8721 68.6035c-4.4502 11.0156 -9.75586 21.5713 -15.7207 31.8369c-2.54492 4.38574 -5.02832 8.90137 -7.9873 13.0254
c-1.46191 2.03613 -4.35938 4.44727 -6.89746 6.86523c-2.48633 -1.90527 -5.25 -3.79492 -6.59082 -5.21777c-7.95801 -8.43164 -14.5947 -18.2529 -21.0029 -27.8916c-14.0371 -21.1211 -25.1475 -43.9131 -35.168 -67.1709
c-40.79 -94.6934 -72.8848 -198.448 -79.6357 -301.724c-1.73633 -26.5566 -1.79492 -53.3418 0.632812 -79.8564c0.783203 -8.57129 2.05859 -17.2217 5.74902 -25.0693c14.1611 17.6855 23.8916 40.7119 32.9561 61.167c10.5195 23.7441 19.584 48.0527 27.4932 72.7793
c5.31543 16.6211 56.2822 15.3027 53.417 -4.12109z" />
    <glyph glyph-name="O" unicode="O" horiz-adv-x="515" 
d="M490.317 430.594c14.4287 -103.242 10.6787 -212.306 -12.8506 -313.878c-20.958 -90.4551 -57.5 -205.447 -151.792 -243.124c-48.6797 -19.4502 -108.672 -14.1123 -148.424 21.5908c-33.1973 29.8203 -45.998 75.0898 -55.3721 117.067
c-6.04004 27.0498 -9.98145 54.5693 -11.916 82.2354c-3.91602 2.43066 -7.78906 4.98242 -11.5605 7.75879c-76.7998 56.5303 -93.8945 168.194 -88.4844 257.221c5.5957 92.0996 37.3604 186.405 100.978 254.807c62.0811 66.75 170.623 110.098 255.906 60.7197
c81.6064 -47.251 111.384 -157.606 123.516 -244.397zM407.624 149.658c0.701172 0.496094 1.5166 0.894531 2.40723 1.21777c6.45703 31.3018 11.0312 63.04 14.2256 94.9062c-1.39648 -0.760742 -2.90039 -1.37695 -4.47949 -1.79785
c-30.4893 -8.12793 -61.3564 -9.29297 -92.0869 -1.52441c-6.31055 1.59277 -12.3799 3.74609 -18.6152 5.58008c-1.57617 0.248047 -2.60352 0.489258 -3.1123 0.720703c-0.910156 -0.557617 -1.78125 -1.1748 -2.58105 -1.91211
c-8.69238 -9.10059 -14.7188 -18.7783 -20.416 -30c-7.85059 -15.4668 -53.124 -17.3369 -54.0537 4.16895c-1.14844 26.6064 -3.47852 53.1045 -7.47852 79.4365c-1.625 10.6924 -3.16211 21.6885 -5.54688 32.3125c-3.66406 -5.90234 -7.47852 -11.8242 -10.1836 -18.0566
c-4.3623 -10.0566 -8.17676 -20.3252 -11.3906 -30.8086c-6.84277 -22.3086 -11.1006 -45.3906 -14.1807 -68.4922c-5.12891 -38.46 -6.13379 -77.3994 -3.1123 -116.059c78.291 -28.4756 165.953 4.74414 230.604 50.3076zM70.3408 285.611
c4.00684 -42.376 14.8086 -91.0625 38.7197 -129.111c0.21875 5.46875 0.466797 10.9404 0.845703 16.4062c3.45508 49.7725 11.7988 103.376 32.9688 149.002c9.93848 21.418 23.7109 45.127 45.501 56.0283c22.3379 11.1758 54.6504 9.17871 70.9492 -11.3291
c13.29 -16.7227 14.2363 -42.8037 17.1533 -63.1152c1.29883 -9.03809 2.37207 -18.1025 3.35059 -27.1768c4.21582 1.50098 8.67578 2.66895 13.4824 3.36426c18.6611 2.69531 35.1035 -3.02441 52.5244 -8.58789c15.5742 -4.97559 31.8105 -5.61523 47.6875 -1.51074
c9.30957 2.4082 23.918 3.6709 32.6924 -2.72168c6.93359 82.0957 6.8457 168.146 -14.8789 247.774c-16.8926 61.9141 -58.2373 156.167 -137.145 146.854c-71.5234 -8.44434 -127.186 -70.8545 -158.846 -130.974c-39.2988 -74.6201 -52.8984 -161.365 -45.0059 -244.903z
M360.068 0.290039c18.6709 38.3164 32.5391 78.3662 42.8398 119.378c-12.4746 -7.63574 -25.3799 -14.5469 -38.7705 -20.6025c-55.1963 -24.9619 -122.38 -40.5068 -183.817 -30.4111c0.238281 -1.79102 0.423828 -3.5957 0.681641 -5.38672
c6.23242 -43.165 15.835 -90.8301 40.3066 -127.842c17.3652 -26.2637 40.623 -37.3867 69.3076 -21.6035c32.9951 18.1553 53.4766 53.6816 69.4521 86.4678z" />
    <glyph glyph-name="O" unicode="&#xd6;" horiz-adv-x="515" 
d="M490.317 430.594c14.4287 -103.242 10.6787 -212.306 -12.8506 -313.878c-20.958 -90.4551 -57.5 -205.447 -151.792 -243.124c-48.6797 -19.4502 -108.672 -14.1123 -148.424 21.5908c-33.1973 29.8203 -45.998 75.0898 -55.3721 117.067
c-6.04004 27.0498 -9.98145 54.5693 -11.916 82.2354c-3.91602 2.43066 -7.78906 4.98242 -11.5605 7.75879c-76.7998 56.5303 -93.8945 168.194 -88.4844 257.221c5.5957 92.0996 37.3604 186.405 100.978 254.807c62.0811 66.75 170.623 110.098 255.906 60.7197
c81.6064 -47.251 111.384 -157.606 123.516 -244.397zM407.624 149.658c0.701172 0.496094 1.5166 0.894531 2.40723 1.21777c6.45703 31.3018 11.0312 63.04 14.2256 94.9062c-1.39648 -0.760742 -2.90039 -1.37695 -4.47949 -1.79785
c-30.4893 -8.12793 -61.3564 -9.29297 -92.0869 -1.52441c-6.31055 1.59277 -12.3799 3.74609 -18.6152 5.58008c-1.57617 0.248047 -2.60352 0.489258 -3.1123 0.720703c-0.910156 -0.557617 -1.78125 -1.1748 -2.58105 -1.91211
c-8.69238 -9.10059 -14.7188 -18.7783 -20.416 -30c-7.85059 -15.4668 -53.124 -17.3369 -54.0537 4.16895c-1.14844 26.6064 -3.47852 53.1045 -7.47852 79.4365c-1.625 10.6924 -3.16211 21.6885 -5.54688 32.3125c-3.66406 -5.90234 -7.47852 -11.8242 -10.1836 -18.0566
c-4.3623 -10.0566 -8.17676 -20.3252 -11.3906 -30.8086c-6.84277 -22.3086 -11.1006 -45.3906 -14.1807 -68.4922c-5.12891 -38.46 -6.13379 -77.3994 -3.1123 -116.059c78.291 -28.4756 165.953 4.74414 230.604 50.3076zM70.3408 285.611
c4.00684 -42.376 14.8086 -91.0625 38.7197 -129.111c0.21875 5.46875 0.466797 10.9404 0.845703 16.4062c3.45508 49.7725 11.7988 103.376 32.9688 149.002c9.93848 21.418 23.7109 45.127 45.501 56.0283c22.3379 11.1758 54.6504 9.17871 70.9492 -11.3291
c13.29 -16.7227 14.2363 -42.8037 17.1533 -63.1152c1.29883 -9.03809 2.37207 -18.1025 3.35059 -27.1768c4.21582 1.50098 8.67578 2.66895 13.4824 3.36426c18.6611 2.69531 35.1035 -3.02441 52.5244 -8.58789c15.5742 -4.97559 31.8105 -5.61523 47.6875 -1.51074
c9.30957 2.4082 23.918 3.6709 32.6924 -2.72168c6.93359 82.0957 6.8457 168.146 -14.8789 247.774c-16.8926 61.9141 -58.2373 156.167 -137.145 146.854c-71.5234 -8.44434 -127.186 -70.8545 -158.846 -130.974c-39.2988 -74.6201 -52.8984 -161.365 -45.0059 -244.903z
M360.068 0.290039c18.6709 38.3164 32.5391 78.3662 42.8398 119.378c-12.4746 -7.63574 -25.3799 -14.5469 -38.7705 -20.6025c-55.1963 -24.9619 -122.38 -40.5068 -183.817 -30.4111c0.238281 -1.79102 0.423828 -3.5957 0.681641 -5.38672
c6.23242 -43.165 15.835 -90.8301 40.3066 -127.842c17.3652 -26.2637 40.623 -37.3867 69.3076 -21.6035c32.9951 18.1553 53.4766 53.6816 69.4521 86.4678z" />
    <glyph glyph-name="O" unicode="&#xd5;" horiz-adv-x="515" 
d="M490.317 430.594c14.4287 -103.242 10.6787 -212.306 -12.8506 -313.878c-20.958 -90.4551 -57.5 -205.447 -151.792 -243.124c-48.6797 -19.4502 -108.672 -14.1123 -148.424 21.5908c-33.1973 29.8203 -45.998 75.0898 -55.3721 117.067
c-6.04004 27.0498 -9.98145 54.5693 -11.916 82.2354c-3.91602 2.43066 -7.78906 4.98242 -11.5605 7.75879c-76.7998 56.5303 -93.8945 168.194 -88.4844 257.221c5.5957 92.0996 37.3604 186.405 100.978 254.807c62.0811 66.75 170.623 110.098 255.906 60.7197
c81.6064 -47.251 111.384 -157.606 123.516 -244.397zM407.624 149.658c0.701172 0.496094 1.5166 0.894531 2.40723 1.21777c6.45703 31.3018 11.0312 63.04 14.2256 94.9062c-1.39648 -0.760742 -2.90039 -1.37695 -4.47949 -1.79785
c-30.4893 -8.12793 -61.3564 -9.29297 -92.0869 -1.52441c-6.31055 1.59277 -12.3799 3.74609 -18.6152 5.58008c-1.57617 0.248047 -2.60352 0.489258 -3.1123 0.720703c-0.910156 -0.557617 -1.78125 -1.1748 -2.58105 -1.91211
c-8.69238 -9.10059 -14.7188 -18.7783 -20.416 -30c-7.85059 -15.4668 -53.124 -17.3369 -54.0537 4.16895c-1.14844 26.6064 -3.47852 53.1045 -7.47852 79.4365c-1.625 10.6924 -3.16211 21.6885 -5.54688 32.3125c-3.66406 -5.90234 -7.47852 -11.8242 -10.1836 -18.0566
c-4.3623 -10.0566 -8.17676 -20.3252 -11.3906 -30.8086c-6.84277 -22.3086 -11.1006 -45.3906 -14.1807 -68.4922c-5.12891 -38.46 -6.13379 -77.3994 -3.1123 -116.059c78.291 -28.4756 165.953 4.74414 230.604 50.3076zM70.3408 285.611
c4.00684 -42.376 14.8086 -91.0625 38.7197 -129.111c0.21875 5.46875 0.466797 10.9404 0.845703 16.4062c3.45508 49.7725 11.7988 103.376 32.9688 149.002c9.93848 21.418 23.7109 45.127 45.501 56.0283c22.3379 11.1758 54.6504 9.17871 70.9492 -11.3291
c13.29 -16.7227 14.2363 -42.8037 17.1533 -63.1152c1.29883 -9.03809 2.37207 -18.1025 3.35059 -27.1768c4.21582 1.50098 8.67578 2.66895 13.4824 3.36426c18.6611 2.69531 35.1035 -3.02441 52.5244 -8.58789c15.5742 -4.97559 31.8105 -5.61523 47.6875 -1.51074
c9.30957 2.4082 23.918 3.6709 32.6924 -2.72168c6.93359 82.0957 6.8457 168.146 -14.8789 247.774c-16.8926 61.9141 -58.2373 156.167 -137.145 146.854c-71.5234 -8.44434 -127.186 -70.8545 -158.846 -130.974c-39.2988 -74.6201 -52.8984 -161.365 -45.0059 -244.903z
M360.068 0.290039c18.6709 38.3164 32.5391 78.3662 42.8398 119.378c-12.4746 -7.63574 -25.3799 -14.5469 -38.7705 -20.6025c-55.1963 -24.9619 -122.38 -40.5068 -183.817 -30.4111c0.238281 -1.79102 0.423828 -3.5957 0.681641 -5.38672
c6.23242 -43.165 15.835 -90.8301 40.3066 -127.842c17.3652 -26.2637 40.623 -37.3867 69.3076 -21.6035c32.9951 18.1553 53.4766 53.6816 69.4521 86.4678z" />
    <glyph glyph-name="O" unicode="&#xd4;" horiz-adv-x="515" 
d="M490.317 430.594c14.4287 -103.242 10.6787 -212.306 -12.8506 -313.878c-20.958 -90.4551 -57.5 -205.447 -151.792 -243.124c-48.6797 -19.4502 -108.672 -14.1123 -148.424 21.5908c-33.1973 29.8203 -45.998 75.0898 -55.3721 117.067
c-6.04004 27.0498 -9.98145 54.5693 -11.916 82.2354c-3.91602 2.43066 -7.78906 4.98242 -11.5605 7.75879c-76.7998 56.5303 -93.8945 168.194 -88.4844 257.221c5.5957 92.0996 37.3604 186.405 100.978 254.807c62.0811 66.75 170.623 110.098 255.906 60.7197
c81.6064 -47.251 111.384 -157.606 123.516 -244.397zM407.624 149.658c0.701172 0.496094 1.5166 0.894531 2.40723 1.21777c6.45703 31.3018 11.0312 63.04 14.2256 94.9062c-1.39648 -0.760742 -2.90039 -1.37695 -4.47949 -1.79785
c-30.4893 -8.12793 -61.3564 -9.29297 -92.0869 -1.52441c-6.31055 1.59277 -12.3799 3.74609 -18.6152 5.58008c-1.57617 0.248047 -2.60352 0.489258 -3.1123 0.720703c-0.910156 -0.557617 -1.78125 -1.1748 -2.58105 -1.91211
c-8.69238 -9.10059 -14.7188 -18.7783 -20.416 -30c-7.85059 -15.4668 -53.124 -17.3369 -54.0537 4.16895c-1.14844 26.6064 -3.47852 53.1045 -7.47852 79.4365c-1.625 10.6924 -3.16211 21.6885 -5.54688 32.3125c-3.66406 -5.90234 -7.47852 -11.8242 -10.1836 -18.0566
c-4.3623 -10.0566 -8.17676 -20.3252 -11.3906 -30.8086c-6.84277 -22.3086 -11.1006 -45.3906 -14.1807 -68.4922c-5.12891 -38.46 -6.13379 -77.3994 -3.1123 -116.059c78.291 -28.4756 165.953 4.74414 230.604 50.3076zM70.3408 285.611
c4.00684 -42.376 14.8086 -91.0625 38.7197 -129.111c0.21875 5.46875 0.466797 10.9404 0.845703 16.4062c3.45508 49.7725 11.7988 103.376 32.9688 149.002c9.93848 21.418 23.7109 45.127 45.501 56.0283c22.3379 11.1758 54.6504 9.17871 70.9492 -11.3291
c13.29 -16.7227 14.2363 -42.8037 17.1533 -63.1152c1.29883 -9.03809 2.37207 -18.1025 3.35059 -27.1768c4.21582 1.50098 8.67578 2.66895 13.4824 3.36426c18.6611 2.69531 35.1035 -3.02441 52.5244 -8.58789c15.5742 -4.97559 31.8105 -5.61523 47.6875 -1.51074
c9.30957 2.4082 23.918 3.6709 32.6924 -2.72168c6.93359 82.0957 6.8457 168.146 -14.8789 247.774c-16.8926 61.9141 -58.2373 156.167 -137.145 146.854c-71.5234 -8.44434 -127.186 -70.8545 -158.846 -130.974c-39.2988 -74.6201 -52.8984 -161.365 -45.0059 -244.903z
M360.068 0.290039c18.6709 38.3164 32.5391 78.3662 42.8398 119.378c-12.4746 -7.63574 -25.3799 -14.5469 -38.7705 -20.6025c-55.1963 -24.9619 -122.38 -40.5068 -183.817 -30.4111c0.238281 -1.79102 0.423828 -3.5957 0.681641 -5.38672
c6.23242 -43.165 15.835 -90.8301 40.3066 -127.842c17.3652 -26.2637 40.623 -37.3867 69.3076 -21.6035c32.9951 18.1553 53.4766 53.6816 69.4521 86.4678z" />
    <glyph glyph-name="O" unicode="&#xd3;" horiz-adv-x="515" 
d="M490.317 430.594c14.4287 -103.242 10.6787 -212.306 -12.8506 -313.878c-20.958 -90.4551 -57.5 -205.447 -151.792 -243.124c-48.6797 -19.4502 -108.672 -14.1123 -148.424 21.5908c-33.1973 29.8203 -45.998 75.0898 -55.3721 117.067
c-6.04004 27.0498 -9.98145 54.5693 -11.916 82.2354c-3.91602 2.43066 -7.78906 4.98242 -11.5605 7.75879c-76.7998 56.5303 -93.8945 168.194 -88.4844 257.221c5.5957 92.0996 37.3604 186.405 100.978 254.807c62.0811 66.75 170.623 110.098 255.906 60.7197
c81.6064 -47.251 111.384 -157.606 123.516 -244.397zM407.624 149.658c0.701172 0.496094 1.5166 0.894531 2.40723 1.21777c6.45703 31.3018 11.0312 63.04 14.2256 94.9062c-1.39648 -0.760742 -2.90039 -1.37695 -4.47949 -1.79785
c-30.4893 -8.12793 -61.3564 -9.29297 -92.0869 -1.52441c-6.31055 1.59277 -12.3799 3.74609 -18.6152 5.58008c-1.57617 0.248047 -2.60352 0.489258 -3.1123 0.720703c-0.910156 -0.557617 -1.78125 -1.1748 -2.58105 -1.91211
c-8.69238 -9.10059 -14.7188 -18.7783 -20.416 -30c-7.85059 -15.4668 -53.124 -17.3369 -54.0537 4.16895c-1.14844 26.6064 -3.47852 53.1045 -7.47852 79.4365c-1.625 10.6924 -3.16211 21.6885 -5.54688 32.3125c-3.66406 -5.90234 -7.47852 -11.8242 -10.1836 -18.0566
c-4.3623 -10.0566 -8.17676 -20.3252 -11.3906 -30.8086c-6.84277 -22.3086 -11.1006 -45.3906 -14.1807 -68.4922c-5.12891 -38.46 -6.13379 -77.3994 -3.1123 -116.059c78.291 -28.4756 165.953 4.74414 230.604 50.3076zM70.3408 285.611
c4.00684 -42.376 14.8086 -91.0625 38.7197 -129.111c0.21875 5.46875 0.466797 10.9404 0.845703 16.4062c3.45508 49.7725 11.7988 103.376 32.9688 149.002c9.93848 21.418 23.7109 45.127 45.501 56.0283c22.3379 11.1758 54.6504 9.17871 70.9492 -11.3291
c13.29 -16.7227 14.2363 -42.8037 17.1533 -63.1152c1.29883 -9.03809 2.37207 -18.1025 3.35059 -27.1768c4.21582 1.50098 8.67578 2.66895 13.4824 3.36426c18.6611 2.69531 35.1035 -3.02441 52.5244 -8.58789c15.5742 -4.97559 31.8105 -5.61523 47.6875 -1.51074
c9.30957 2.4082 23.918 3.6709 32.6924 -2.72168c6.93359 82.0957 6.8457 168.146 -14.8789 247.774c-16.8926 61.9141 -58.2373 156.167 -137.145 146.854c-71.5234 -8.44434 -127.186 -70.8545 -158.846 -130.974c-39.2988 -74.6201 -52.8984 -161.365 -45.0059 -244.903z
M360.068 0.290039c18.6709 38.3164 32.5391 78.3662 42.8398 119.378c-12.4746 -7.63574 -25.3799 -14.5469 -38.7705 -20.6025c-55.1963 -24.9619 -122.38 -40.5068 -183.817 -30.4111c0.238281 -1.79102 0.423828 -3.5957 0.681641 -5.38672
c6.23242 -43.165 15.835 -90.8301 40.3066 -127.842c17.3652 -26.2637 40.623 -37.3867 69.3076 -21.6035c32.9951 18.1553 53.4766 53.6816 69.4521 86.4678z" />
    <glyph glyph-name="P" unicode="P" horiz-adv-x="654" 
d="M294.706 113.913c-0.117188 -0.0292969 -0.227539 -0.0517578 -0.334961 -0.0878906c-2.81934 -23.8223 -5.69434 -47.8213 -8.01074 -71.8594c4.26758 -49.7725 10.333 -99.3691 13.9512 -149.171c1.1748 -16.168 -25.8096 -20.9219 -36.708 -20.9219
c-14.2129 0 -33.9238 4.71191 -36.707 20.9219c-10.2881 59.917 -14.0566 121.606 -18.1904 182.209c-0.603516 8.8457 -1.09961 17.6982 -1.63184 26.5508c-60.1621 -1.24609 -119.685 14.334 -161.209 61.8877c-25.1543 28.8018 -39.7627 63.3564 -44.373 101.232
c-4.79004 39.3643 1.66113 88.873 23.9434 122.638c21.8555 33.1152 70.6465 31.5723 93.3398 0.391602c19.6328 -26.9746 32.7139 -58.6973 41.1582 -91.1084c13.5508 4.61426 27.249 8.73535 41.0967 12.3994c0.146484 102.845 4.83496 205.813 15.2344 308.09
c3.06055 30.1201 78.1045 28.5381 75.5557 0c-10.4873 -117.403 -16.2432 -235 -15.1533 -352.874c12.4248 89.8936 29.6465 179.356 57.1201 265.926c22.2012 69.9512 56.5303 144.235 129.839 171.935c31.9307 12.0664 69.5225 14.5625 101.976 2.98242
c33.54 -11.9688 53.9336 -37.3906 67.8564 -69.2012c33.1055 -75.6318 17.874 -169.79 -13.6006 -243.291c-28.5312 -66.6289 -72.8848 -126.05 -127.496 -173.617c-56.6152 -49.3125 -124.667 -86.6768 -197.655 -105.031zM398.823 600.403
c-33.9512 -65.3203 -50.8389 -141.422 -65.4531 -213.027c-14.3115 -70.1143 -24.0645 -141.057 -32.0654 -212.146c22.5986 9.70703 44.2676 21.4375 64.0898 33.8008c51.3486 32.0293 96.2627 72.7344 133.082 120.827c39.7197 51.8867 71.3672 111.954 89.7832 174.753
c16.6572 56.7949 30.2861 156.151 -41.1064 182.45c-64.0908 23.6074 -121.711 -35.4385 -148.33 -86.6572zM65.2676 382.635c-0.195312 0.107422 -0.349609 0.137695 -0.417969 0.0205078c0.136719 -0.00683594 0.277344 -0.0136719 0.417969 -0.0205078zM201.732 150.416
c0.914062 0.0322266 1.8291 0.129883 2.73633 0.181641c-1.57227 34.6787 -2.66504 69.377 -3.15137 104.088c-0.101562 7.32812 -0.108398 14.6602 -0.166992 21.9922c-16.3311 -5.10645 -32.4268 -10.9639 -48.2842 -17.4932
c-11.8311 -4.87109 -35.5332 -2.57715 -38.4473 12.5762c-4.01367 20.873 -10.2656 41.1426 -18.7725 60.6318c-4.13086 9.46875 -8.77051 18.7061 -13.8799 27.6826c-0.182617 0.326172 -3.71289 5.70312 -7.50098 11.1396
c-0.493164 -1.16797 -0.96582 -2.3457 -1.43555 -3.51367c-4.0791 -10.1182 -7.00586 -20.8145 -8.8916 -31.5361c-3.48145 -19.8125 -4.0293 -40.1504 -1.34082 -60.0996c9.42383 -69.9248 67.6084 -128.501 139.135 -125.649z" />
    <glyph glyph-name="Q" unicode="Q" horiz-adv-x="515" 
d="M366.803 674.994c81.6064 -47.2539 111.383 -157.609 123.511 -244.4c14.4316 -103.242 10.6826 -212.306 -12.8525 -313.878c-17.1562 -74.0391 -44.7734 -164.497 -105.938 -215.559c10.667 0.0419922 21.3271 -0.121094 31.9482 -0.639648
c11.4561 -0.564453 37.6445 -4.37891 37.2432 -21.2285c-0.388672 -16.3145 -24.6582 -21.5186 -37.2432 -21.2285c-45.7305 1.05078 -90.8213 -1.91895 -135.759 -10.7129c-45.7041 -8.94336 -87.1855 -26.3379 -130.654 -42.1172
c-14.3662 -5.21777 -34.8643 -4.05664 -47.3516 5.38672c-11.0977 8.38867 -8.99316 20.8828 2.86719 27.4736c33.0996 18.3965 71.0283 30.8643 108.774 40.2881c-8.59473 4.57422 -16.7002 10.1602 -24.0977 16.8066c-33.1973 29.8203 -45.998 75.0898 -55.3721 117.067
c-6.04004 27.0498 -9.98145 54.5693 -11.916 82.2354c-3.91504 2.43066 -7.78809 4.98242 -11.5596 7.75879c-76.7998 56.5303 -93.8945 168.194 -88.4844 257.221c5.5957 92.0996 37.3604 186.405 100.978 254.807c62.0811 66.75 170.623 110.098 255.906 60.7197z
M407.624 149.658c0.701172 0.496094 1.5166 0.894531 2.40723 1.21777c6.45703 31.3018 11.0312 63.04 14.2256 94.9062c-1.39648 -0.760742 -2.90039 -1.37695 -4.47949 -1.79785c-30.4893 -8.12793 -61.3564 -9.29297 -92.0869 -1.52441
c-6.31055 1.59277 -12.3799 3.74609 -18.6152 5.58008c-1.57617 0.248047 -2.60352 0.489258 -3.1123 0.720703c-0.910156 -0.557617 -1.78125 -1.1748 -2.58105 -1.91211c-8.69238 -9.10059 -14.7188 -18.7783 -20.416 -30
c-7.85059 -15.4668 -53.124 -17.3369 -54.0537 4.16895c-1.14844 26.6064 -3.47852 53.1045 -7.47852 79.4365c-1.625 10.6924 -3.16211 21.6885 -5.54688 32.3125c-3.66406 -5.90234 -7.47852 -11.8242 -10.1836 -18.0566
c-4.3623 -10.0566 -8.17676 -20.3252 -11.3906 -30.8086c-6.84277 -22.3086 -11.1006 -45.3906 -14.1807 -68.4922c-5.12891 -38.46 -6.13379 -77.3994 -3.1123 -116.059c78.291 -28.4756 165.953 4.74414 230.604 50.3076zM70.3408 285.611
c4.00684 -42.376 14.8086 -91.0625 38.7197 -129.111c0.21875 5.46875 0.466797 10.9404 0.845703 16.4062c3.45508 49.7725 11.7988 103.376 32.9688 149.002c9.93848 21.418 23.7109 45.127 45.501 56.0283c22.3379 11.1758 54.6504 9.17871 70.9492 -11.3291
c13.29 -16.7227 14.2363 -42.8037 17.1533 -63.1152c1.29883 -9.03809 2.37207 -18.1025 3.35059 -27.1768c4.21582 1.50098 8.67578 2.66895 13.4824 3.36426c18.6611 2.69531 35.1035 -3.02441 52.5244 -8.58789c15.5742 -4.97559 31.8105 -5.61523 47.6875 -1.51074
c9.30957 2.4082 23.918 3.6709 32.6924 -2.72168c6.93359 82.0957 6.8457 168.146 -14.8789 247.774c-16.8926 61.9141 -58.2373 156.167 -137.145 146.854c-71.5234 -8.44434 -127.186 -70.8545 -158.846 -130.974c-39.2988 -74.6201 -52.8984 -161.365 -45.0059 -244.903z
M360.068 0.290039c18.6709 38.3164 32.5391 78.3662 42.8398 119.378c-12.4746 -7.63574 -25.3799 -14.5469 -38.7705 -20.6025c-55.1963 -24.9619 -122.38 -40.5068 -183.817 -30.4111c0.238281 -1.79102 0.423828 -3.5957 0.681641 -5.38672
c6.23242 -43.165 15.835 -90.8301 40.3066 -127.842c17.3652 -26.2637 40.623 -37.3867 69.3076 -21.6035c32.9951 18.1553 53.4766 53.6816 69.4521 86.4678z" />
    <glyph glyph-name="R" unicode="R" horiz-adv-x="500" 
d="M472.572 -100.423c-11.123 24.8242 51.79 31.1641 61.5039 9.6709c20.0508 -44.4023 -1.58203 -94.0967 -40.3975 -120.001c-82.6895 -55.1895 -195.711 -12.5791 -257.759 53.3877c-33.0957 35.1777 -56.9346 77.9805 -76.1895 121.965
c-10.9834 25.0889 -21.1377 50.6992 -29.9346 76.7402c-2.51562 -39.5762 -5.6123 -79.71 -7.2832 -119.821c3.14551 -36.8516 6.44434 -73.6963 9.66797 -110.57c1.31543 -15.0391 -24.2363 -19.5029 -34.208 -19.5029c-13.4404 0 -31.3604 4.4209 -34.209 19.502
c-11.3652 60.1328 -19.1699 120.813 -24.8604 181.729c-20.0049 214.101 -17.9268 430.077 3.03125 644.028c3.13281 31.9834 82.8174 29.9502 79.8418 0c-6.02637 -60.6738 -10.5615 -121.485 -13.4492 -182.392c-4.02344 -84.8955 -4.89453 -169.938 -2.71191 -254.897
c0.316406 4.62012 0.724609 9.2041 1.21387 13.7266c1.19727 11.0127 2.95605 22.4951 5.75195 33.7266c6.65625 56.3701 15.124 112.516 26.5674 168.126c15.0947 73.3477 34.9004 148.52 78.4346 210.672c38.8906 55.5254 105.33 106.144 174.808 70.2705
c68.8125 -35.5303 88.4619 -131.461 95.21 -201.199c8.04004 -83.1074 -3.87305 -167.373 -30.668 -246.274c-25.2939 -74.4736 -66.9814 -145.524 -142.378 -177.263c-37.5332 -15.7988 -87.9746 -21.9658 -129.894 -9.35156
c29.4287 -80.5586 60.6973 -164.409 126.628 -220.287c29.4512 -24.958 71.709 -47.2148 111.494 -38.0332c41.0381 9.47559 67.2979 56.9678 49.7891 96.0479zM292.348 127.914c23.9336 19.8809 42.5977 44.8135 57.8262 71.8008
c11.0254 19.5352 20.7002 40.043 29.1416 61.1475c-13.6094 1.56641 -27.4932 2.78027 -40.1465 -3.36426c-33.8594 -16.4482 -42.1113 -61.4111 -50.8623 -93.877c-3.89551 -14.458 -36.0029 -10.6631 -41.8662 0c-19.9629 36.29 -41.0117 71.9209 -62.1689 107.529
c-0.472656 0.795898 -6.7373 9.96484 -11.2764 16.667c-0.248047 -0.267578 -0.499023 -0.535156 -0.75 -0.802734c-2.32324 -2.71777 -4.26758 -5.44922 -6.10449 -8.47363c-8.55176 -14.0537 -12.3594 -30.0059 -14.0303 -46.2129
c-5.2207 -50.6309 2.19238 -147.494 74.7861 -138.639c24.9414 3.04102 46.6367 18.5986 65.4512 34.2246zM280.578 654.579c-46.6797 -45.7168 -72.542 -109.885 -89.8682 -171.688c-15.7012 -56.0078 -26.1133 -113.667 -34.3428 -171.369
c9.52734 4.4375 20.1777 5.72949 31.0039 2.29004c15.1729 -4.81641 21.832 -19.082 29.5322 -31.6641c13.5186 -22.0938 27.2881 -44.0371 41.2832 -65.8369c8.4375 22.5762 21.3555 42.9111 42.7832 56.3574c17.9756 11.2832 38.3652 14.3994 59.2451 13.3584
c8.9082 -0.443359 18.2334 -1.83301 27.5625 -2.6875c12.9932 36.9102 22.3477 75.2363 28.3838 113.185c10.7158 67.376 14.3184 141.171 1.28906 208.524c-6.26172 32.3682 -21.3008 63.6826 -52.9385 77.7852c-31.0342 13.835 -62.1924 -6.95996 -83.9336 -28.2539z" />
    <glyph glyph-name="S" unicode="S" horiz-adv-x="396" 
d="M276.207 -63.5781c19.5518 8.40527 37.1377 20.9072 50.5879 37.7178c21.499 26.8535 22.0996 57.1729 10.7188 88.6475c-19.4795 53.8711 -39.2559 105.193 -75.3994 150.584c-34.7891 43.6875 -76.085 79.625 -119.038 114.956
c-41.8369 34.4111 -82.7871 71.2363 -110.81 118.259c-29.7061 49.8516 -38.0654 110.145 -19.2119 165.311c18.3672 53.7402 64.9785 94.1162 118.314 111.433c53.0293 17.2148 129.836 17.7666 168.612 -29.3604c39.5205 -48.0332 34.2637 -117.038 26.3545 -174.573
c-3.6582 -26.6162 -69.915 -26.1885 -68.0615 0c2.62695 37.0928 7.21484 76.166 -2.43359 112.643c-7.20117 27.2227 -23.3066 55.6426 -52.4834 57.0781c-9.3125 0.457031 -17.6104 -0.890625 -28.2021 -5.6123c-11.6162 -5.18164 -21.8389 -12.7842 -30.835 -21.6758
c-20.7422 -20.498 -34.0029 -48.9023 -37.5234 -77.7725c-6.99902 -57.4014 10.9932 -111.175 48.1191 -155.12c36.8389 -43.6055 82.9834 -78.2871 123.486 -118.274c42.3008 -41.7627 78.0361 -90.7881 98.9062 -146.78
c10.0693 -27.0137 16.2725 -54.2725 16.4941 -83.1592c0.231445 -30.0254 -10.5098 -64.5859 -23.6035 -91.4141c-17.3721 -35.5859 -49.6943 -58.916 -86.0176 -71.8955c13.0449 -27.3496 31.9404 -50.709 61.1865 -65.457c6.74121 -3.39648 5.2334 -9.55078 0 -13.1924
c-6.4707 -4.5 -16.4941 -3.12305 -23.1436 0c-31.9736 15.0225 -53.7207 40.4863 -68.8965 70.2217c-6.59473 -1.29492 -13.2188 -2.2998 -19.8135 -3.00098c-56.4189 -5.99707 -122.408 0.202148 -166.628 39.3896c-37.6025 33.3213 -51.7705 94.2861 -12.9092 132.828
c23.7832 23.5908 63.8418 27.7773 93.3682 12.9209c3.51465 14.4482 7.22754 28.9355 12.4971 42.5156c6.30371 16.2432 21.0459 24.665 38.4795 21.96c17.4307 -2.70508 25.9502 -16.667 32.0254 -31.7256c7.80469 -19.3428 12.9531 -39.6289 17.2012 -60.0127
c8.27832 -39.707 13.6133 -86.5303 28.6582 -127.438zM75.1729 -21.8926c32.7207 -54.4648 111.072 -64.292 170.066 -51.4355c-8.78027 21.418 -14.7969 44.2881 -19.2148 66.6094c-7.77246 39.2764 -12.1348 79.5605 -25.8916 117.385
c-0.678711 1.86621 -3.87988 7.75293 -6.73145 13.293c-0.795898 -2.32617 -1.5791 -4.50293 -1.89551 -5.7334c-5.05762 -19.6133 -10.6113 -39.1064 -15.998 -58.6348c-3.32812 -12.0635 -29.6729 -8.71582 -34.6621 -0.000976562
c-14.8623 25.9668 -46.1543 24.5635 -63.6797 2.21875c-19.0127 -24.2373 -17.2998 -58.2207 -1.99316 -83.7012z" />
    <glyph glyph-name="T" unicode="T" horiz-adv-x="530" 
d="M425.188 621.74c-1.51758 -30.7236 -2.74219 -61.4629 -3.59375 -92.2197c-3.23047 -116.529 -1.36719 -233.049 4.41113 -349.471c2.86133 -57.6426 6.87793 -115.23 12.0527 -172.714c5.25684 -58.3613 13.6621 -116.631 14.8887 -175.246
c0.525391 -25.0791 -62.7627 -27.3564 -68.251 -5.2627c-0.734375 2.95312 -1.42285 5.91309 -2.11426 8.87305c-2.20605 1.60547 -3.74902 3.69043 -4.19629 6.28809c-14.0498 81.6387 -22.0342 164.09 -29.9014 246.505
c-13.5244 141.693 -26.4814 286.786 -75.8789 421.444c-2.00391 5.46191 -4.11523 10.9336 -6.29199 16.3926c-10.6729 -6.85254 -21.3359 -13.7207 -31.9961 -20.5928c-32.832 -21.1699 -65.1934 -44.5879 -100.221 -62.0352
c-30.3262 -15.1074 -66.0684 -26.8574 -99.9053 -16.6904c-36.2549 10.8916 -45.1855 43.8828 -35.6221 77.7031c8.41211 29.7383 29.9053 56.9639 53.043 77.5469c-5.18848 8.125 -8.49707 17.6719 -10.4805 27.7217c-8.71484 44.1113 12.7549 84.1309 57.7803 94.1289
c76.5156 16.9932 135.637 -44.833 174.619 -102.068c4.74805 -6.9668 9.14941 -14.1514 13.3389 -21.4639c0.701172 0.430664 1.39648 0.874023 2.09766 1.30762c18.0605 11.166 36.2773 22.0703 54.6543 32.6846c1.79492 37.8633 4.02344 75.7129 6.79688 113.523
c2.37891 32.4434 83.5312 30.874 81.2666 0c-1.67383 -22.8604 -3.1123 -45.7334 -4.44043 -68.6133c18.3896 9.06445 36.9912 17.7178 55.9004 25.7578c65.9248 28.0322 136.064 49.1631 207.542 56.374c30.127 3.03809 68.1758 4.125 91.6133 -18.8066
c17.3652 -16.9902 21.9199 -45.1006 3.56641 -62.9229c-7.71973 -7.49805 -22.5723 -8.32031 -32.1553 -4.80566c-7.40332 2.71777 -16.4453 10.7539 -8.43164 18.3301c12.0205 11.3682 4.67871 32.5869 -8.83301 39.54
c-15.874 8.16992 -39.6318 2.13672 -56.2861 -0.323242c-42.3232 -6.25488 -83.6318 -17.3486 -123.89 -31.7412c-45.2539 -16.1777 -88.7656 -36.5059 -131.083 -59.1445zM192.057 520.332c19.9785 12.8232 39.9492 25.6631 59.9971 38.3818
c-18.9385 38.7178 -44.2002 74.2842 -81.0781 97.582c-16.2627 10.2754 -42.5586 25.6279 -58.2012 7.4375c-9.21777 -10.7217 -11.4395 -25.7773 -10.9863 -39.4258c0.211914 -6.35645 0.949219 -12.7979 2.65234 -18.9424
c17.5449 1.21387 34.4111 -4.0166 43.4824 -20.1318c2.4502 -4.35254 0.323242 -10.3594 -3.08984 -13.4629c-12.6572 -11.5049 -29.7031 -15.9453 -46.4521 -14.751c-6.02051 -5.67383 -11.8447 -11.5732 -17.251 -17.835
c-10.9209 -12.6436 -20.1904 -27.3887 -24.9971 -43.5107c-3.16211 -10.6074 -7.98828 -36.8057 4.83496 -42.415c9.98438 -4.36621 30.9619 7.44922 40.0947 11.9297c31.7422 15.5674 61.2949 36.0811 90.9941 55.1436zM339.051 572.118
c-12.1543 -7.42676 -24.2275 -14.9834 -36.2715 -22.583c15.9463 -34.9922 27.1904 -72.5156 36.1016 -110.131c0.303711 44.8232 1.31152 89.6396 3.01172 134.437c-0.946289 -0.574219 -1.89551 -1.14551 -2.8418 -1.72266z" />
    <glyph glyph-name="U" unicode="U" horiz-adv-x="726" 
d="M619.644 -32.4658c-20.168 73.5889 -26.2275 149.347 -24.6289 225.158c-10.0762 -41.8174 -21.1641 -83.4004 -33.9121 -124.599c-9.11621 -29.4639 -17.9717 -59.4082 -37.5098 -83.9033c-18.3438 -22.9971 -46.8779 -37.0869 -76.1631 -38.6699
c-67.5752 -3.64844 -108.506 56.416 -121.985 115.518c-15.7178 68.9131 -14.8203 139.977 -16.4189 210.685c-37.3477 -2.83887 -75.0537 1.50781 -105.807 24.8936c-17.6006 13.3848 -27.6572 30.9102 -32.584 50.1807
c-10.4609 -11.7363 -20.9639 -23.4307 -31.6797 -34.9326c-21.1865 -22.7393 -46.8496 -53.2578 -78.5781 -60.459c-89.665 -20.3545 -52.3662 123.835 -40.8223 166.276c16.4814 60.5898 37.1455 120.82 90.9346 158.155c53.4961 37.1318 129.343 41.8662 184.532 5.52344
c55.1016 -36.2871 75.2402 -104.312 86.5625 -165.721c13.0615 -70.835 11.5508 -143.054 10.8887 -214.744c-0.323242 -34.9756 -0.682617 -70.1465 1.54297 -105.066c2 -31.3896 6.60352 -64.0225 22.6797 -91.6338c5.50781 -9.46289 16.3047 -25.7314 28.498 -26.834
c10.3828 -0.936523 23.8721 12.4775 30.4111 20.1621c21.0293 24.7197 29.4414 60.2109 39.165 90.4258c46.3887 144.141 83.7754 291.002 115.357 439.002c0.280273 1.32812 0.883789 2.5 1.70898 3.53418c4.37891 27.8457 8.92383 55.6455 13.541 83.3906
c3.48145 20.9316 53.8477 22.0244 54.8594 0c2.8125 -61.209 -1.79102 -122.226 -6.05859 -183.266c-7.2666 -103.96 -14.585 -207.023 -5.1748 -311.137c4.48047 -49.5508 13.5518 -98.0088 27.6309 -145.72c11.3711 -38.5322 25.7314 -80.7578 58.1846 -106.715
c14.4023 -11.5215 0.143555 -26.1953 -11.0156 -31.4551c-17.5645 -8.27441 -39.041 -6.29102 -56.165 1.90918c-51.417 24.6055 -73.7549 78.085 -87.9941 130.041zM251.953 325.964c14.5498 -16.6738 35.1807 -18.627 55.8613 -16.46
c-2.26074 51.5186 -7.66406 102.606 -23.6914 152.291c-7.82129 24.2432 -18.5137 48.7217 -34.0449 69.0918c-11.2568 14.7646 -28.5176 31.7285 -47.2012 33.4941c-24.2695 2.29395 -50.582 -13.0254 -68.042 -28.4463
c-22.7031 -20.0479 -41.9775 -47.3975 -55.626 -74.333c-14.1055 -27.8291 -25.2188 -58.2988 -32.8477 -88.5068c-4.51953 -17.8809 -7.64844 -36.2939 -7.98828 -54.7715c-0.189453 -10.3438 -2.12109 -36.9199 6.74121 -44.5293
c26.0518 -22.377 115.561 132.051 126.919 150.251c9.83496 15.7598 58.5967 20.3379 60.0029 -4.62695c1.69336 -30.0586 -1.32812 -69.1094 19.917 -93.4541z" />
    <glyph glyph-name="U" unicode="&#xdc;" horiz-adv-x="726" 
d="M619.644 -32.4658c-20.168 73.5889 -26.2275 149.347 -24.6289 225.158c-10.0762 -41.8174 -21.1641 -83.4004 -33.9121 -124.599c-9.11621 -29.4639 -17.9717 -59.4082 -37.5098 -83.9033c-18.3438 -22.9971 -46.8779 -37.0869 -76.1631 -38.6699
c-67.5752 -3.64844 -108.506 56.416 -121.985 115.518c-15.7178 68.9131 -14.8203 139.977 -16.4189 210.685c-37.3477 -2.83887 -75.0537 1.50781 -105.807 24.8936c-17.6006 13.3848 -27.6572 30.9102 -32.584 50.1807
c-10.4609 -11.7363 -20.9639 -23.4307 -31.6797 -34.9326c-21.1865 -22.7393 -46.8496 -53.2578 -78.5781 -60.459c-89.665 -20.3545 -52.3662 123.835 -40.8223 166.276c16.4814 60.5898 37.1455 120.82 90.9346 158.155c53.4961 37.1318 129.343 41.8662 184.532 5.52344
c55.1016 -36.2871 75.2402 -104.312 86.5625 -165.721c13.0615 -70.835 11.5508 -143.054 10.8887 -214.744c-0.323242 -34.9756 -0.682617 -70.1465 1.54297 -105.066c2 -31.3896 6.60352 -64.0225 22.6797 -91.6338c5.50781 -9.46289 16.3047 -25.7314 28.498 -26.834
c10.3828 -0.936523 23.8721 12.4775 30.4111 20.1621c21.0293 24.7197 29.4414 60.2109 39.165 90.4258c46.3887 144.141 83.7754 291.002 115.357 439.002c0.280273 1.32812 0.883789 2.5 1.70898 3.53418c4.37891 27.8457 8.92383 55.6455 13.541 83.3906
c3.48145 20.9316 53.8477 22.0244 54.8594 0c2.8125 -61.209 -1.79102 -122.226 -6.05859 -183.266c-7.2666 -103.96 -14.585 -207.023 -5.1748 -311.137c4.48047 -49.5508 13.5518 -98.0088 27.6309 -145.72c11.3711 -38.5322 25.7314 -80.7578 58.1846 -106.715
c14.4023 -11.5215 0.143555 -26.1953 -11.0156 -31.4551c-17.5645 -8.27441 -39.041 -6.29102 -56.165 1.90918c-51.417 24.6055 -73.7549 78.085 -87.9941 130.041zM251.953 325.964c14.5498 -16.6738 35.1807 -18.627 55.8613 -16.46
c-2.26074 51.5186 -7.66406 102.606 -23.6914 152.291c-7.82129 24.2432 -18.5137 48.7217 -34.0449 69.0918c-11.2568 14.7646 -28.5176 31.7285 -47.2012 33.4941c-24.2695 2.29395 -50.582 -13.0254 -68.042 -28.4463
c-22.7031 -20.0479 -41.9775 -47.3975 -55.626 -74.333c-14.1055 -27.8291 -25.2188 -58.2988 -32.8477 -88.5068c-4.51953 -17.8809 -7.64844 -36.2939 -7.98828 -54.7715c-0.189453 -10.3438 -2.12109 -36.9199 6.74121 -44.5293
c26.0518 -22.377 115.561 132.051 126.919 150.251c9.83496 15.7598 58.5967 20.3379 60.0029 -4.62695c1.69336 -30.0586 -1.32812 -69.1094 19.917 -93.4541z" />
    <glyph glyph-name="U" unicode="&#xdb;" horiz-adv-x="726" 
d="M619.644 -32.4658c-20.168 73.5889 -26.2275 149.347 -24.6289 225.158c-10.0762 -41.8174 -21.1641 -83.4004 -33.9121 -124.599c-9.11621 -29.4639 -17.9717 -59.4082 -37.5098 -83.9033c-18.3438 -22.9971 -46.8779 -37.0869 -76.1631 -38.6699
c-67.5752 -3.64844 -108.506 56.416 -121.985 115.518c-15.7178 68.9131 -14.8203 139.977 -16.4189 210.685c-37.3477 -2.83887 -75.0537 1.50781 -105.807 24.8936c-17.6006 13.3848 -27.6572 30.9102 -32.584 50.1807
c-10.4609 -11.7363 -20.9639 -23.4307 -31.6797 -34.9326c-21.1865 -22.7393 -46.8496 -53.2578 -78.5781 -60.459c-89.665 -20.3545 -52.3662 123.835 -40.8223 166.276c16.4814 60.5898 37.1455 120.82 90.9346 158.155c53.4961 37.1318 129.343 41.8662 184.532 5.52344
c55.1016 -36.2871 75.2402 -104.312 86.5625 -165.721c13.0615 -70.835 11.5508 -143.054 10.8887 -214.744c-0.323242 -34.9756 -0.682617 -70.1465 1.54297 -105.066c2 -31.3896 6.60352 -64.0225 22.6797 -91.6338c5.50781 -9.46289 16.3047 -25.7314 28.498 -26.834
c10.3828 -0.936523 23.8721 12.4775 30.4111 20.1621c21.0293 24.7197 29.4414 60.2109 39.165 90.4258c46.3887 144.141 83.7754 291.002 115.357 439.002c0.280273 1.32812 0.883789 2.5 1.70898 3.53418c4.37891 27.8457 8.92383 55.6455 13.541 83.3906
c3.48145 20.9316 53.8477 22.0244 54.8594 0c2.8125 -61.209 -1.79102 -122.226 -6.05859 -183.266c-7.2666 -103.96 -14.585 -207.023 -5.1748 -311.137c4.48047 -49.5508 13.5518 -98.0088 27.6309 -145.72c11.3711 -38.5322 25.7314 -80.7578 58.1846 -106.715
c14.4023 -11.5215 0.143555 -26.1953 -11.0156 -31.4551c-17.5645 -8.27441 -39.041 -6.29102 -56.165 1.90918c-51.417 24.6055 -73.7549 78.085 -87.9941 130.041zM251.953 325.964c14.5498 -16.6738 35.1807 -18.627 55.8613 -16.46
c-2.26074 51.5186 -7.66406 102.606 -23.6914 152.291c-7.82129 24.2432 -18.5137 48.7217 -34.0449 69.0918c-11.2568 14.7646 -28.5176 31.7285 -47.2012 33.4941c-24.2695 2.29395 -50.582 -13.0254 -68.042 -28.4463
c-22.7031 -20.0479 -41.9775 -47.3975 -55.626 -74.333c-14.1055 -27.8291 -25.2188 -58.2988 -32.8477 -88.5068c-4.51953 -17.8809 -7.64844 -36.2939 -7.98828 -54.7715c-0.189453 -10.3438 -2.12109 -36.9199 6.74121 -44.5293
c26.0518 -22.377 115.561 132.051 126.919 150.251c9.83496 15.7598 58.5967 20.3379 60.0029 -4.62695c1.69336 -30.0586 -1.32812 -69.1094 19.917 -93.4541z" />
    <glyph glyph-name="U" unicode="&#xda;" horiz-adv-x="726" 
d="M619.644 -32.4658c-20.168 73.5889 -26.2275 149.347 -24.6289 225.158c-10.0762 -41.8174 -21.1641 -83.4004 -33.9121 -124.599c-9.11621 -29.4639 -17.9717 -59.4082 -37.5098 -83.9033c-18.3438 -22.9971 -46.8779 -37.0869 -76.1631 -38.6699
c-67.5752 -3.64844 -108.506 56.416 -121.985 115.518c-15.7178 68.9131 -14.8203 139.977 -16.4189 210.685c-37.3477 -2.83887 -75.0537 1.50781 -105.807 24.8936c-17.6006 13.3848 -27.6572 30.9102 -32.584 50.1807
c-10.4609 -11.7363 -20.9639 -23.4307 -31.6797 -34.9326c-21.1865 -22.7393 -46.8496 -53.2578 -78.5781 -60.459c-89.665 -20.3545 -52.3662 123.835 -40.8223 166.276c16.4814 60.5898 37.1455 120.82 90.9346 158.155c53.4961 37.1318 129.343 41.8662 184.532 5.52344
c55.1016 -36.2871 75.2402 -104.312 86.5625 -165.721c13.0615 -70.835 11.5508 -143.054 10.8887 -214.744c-0.323242 -34.9756 -0.682617 -70.1465 1.54297 -105.066c2 -31.3896 6.60352 -64.0225 22.6797 -91.6338c5.50781 -9.46289 16.3047 -25.7314 28.498 -26.834
c10.3828 -0.936523 23.8721 12.4775 30.4111 20.1621c21.0293 24.7197 29.4414 60.2109 39.165 90.4258c46.3887 144.141 83.7754 291.002 115.357 439.002c0.280273 1.32812 0.883789 2.5 1.70898 3.53418c4.37891 27.8457 8.92383 55.6455 13.541 83.3906
c3.48145 20.9316 53.8477 22.0244 54.8594 0c2.8125 -61.209 -1.79102 -122.226 -6.05859 -183.266c-7.2666 -103.96 -14.585 -207.023 -5.1748 -311.137c4.48047 -49.5508 13.5518 -98.0088 27.6309 -145.72c11.3711 -38.5322 25.7314 -80.7578 58.1846 -106.715
c14.4023 -11.5215 0.143555 -26.1953 -11.0156 -31.4551c-17.5645 -8.27441 -39.041 -6.29102 -56.165 1.90918c-51.417 24.6055 -73.7549 78.085 -87.9941 130.041zM251.953 325.964c14.5498 -16.6738 35.1807 -18.627 55.8613 -16.46
c-2.26074 51.5186 -7.66406 102.606 -23.6914 152.291c-7.82129 24.2432 -18.5137 48.7217 -34.0449 69.0918c-11.2568 14.7646 -28.5176 31.7285 -47.2012 33.4941c-24.2695 2.29395 -50.582 -13.0254 -68.042 -28.4463
c-22.7031 -20.0479 -41.9775 -47.3975 -55.626 -74.333c-14.1055 -27.8291 -25.2188 -58.2988 -32.8477 -88.5068c-4.51953 -17.8809 -7.64844 -36.2939 -7.98828 -54.7715c-0.189453 -10.3438 -2.12109 -36.9199 6.74121 -44.5293
c26.0518 -22.377 115.561 132.051 126.919 150.251c9.83496 15.7598 58.5967 20.3379 60.0029 -4.62695c1.69336 -30.0586 -1.32812 -69.1094 19.917 -93.4541z" />
    <glyph glyph-name="V" unicode="V" horiz-adv-x="539" 
d="M496.94 783.196c18.6543 -31.416 22.7275 -76.3047 26.3008 -111.884c4.12109 -41.0215 3.92188 -82.3662 1.85938 -123.502c-4.16699 -83.0547 -14.5459 -165.895 -30.3027 -247.533c-5.45605 -28.2568 -11.5479 -56.4287 -18.2861 -84.4473
c7.29297 -6.65332 14.5859 -13.29 21.7969 -19.9727c10.8164 -10.0273 -1.30566 -20.9385 -11.1855 -24.3125c-6.99609 -2.3916 -14.8984 -3.14844 -22.4814 -2.10059c-9.44922 -34.9785 -19.9756 -69.6572 -31.8525 -103.85
c-23.0918 -66.4727 -53.7568 -137.21 -103.514 -188.33c-25.748 -26.4521 -62.0518 -35.2656 -97.7744 -27.6797c-39.2891 8.34668 -70.042 33.21 -93.6592 64.8281c-46.1318 61.7637 -64.6689 142.028 -78.125 216.566c-14.0791 77.9873 -18.6602 157.361 -23.9561 236.324
c-5.25293 78.3301 -13.1494 155.632 -25.5947 233.159c-3.87988 24.1689 61.6758 26.9492 67.8984 5.2373c43.2832 -151.016 38.4932 -312.087 65.9443 -466.114c11.6387 -65.291 28.5146 -134.554 59.4443 -193.652c11.7988 -22.5469 30.1592 -53.998 56.6738 -61.6338
c24.7461 -7.12305 48.6895 23.6172 61.7803 40.3037c41.8408 53.3486 67.957 120.467 88.2588 184.519c8.22949 25.9668 15.7861 52.1582 22.7197 78.5098c-53.7148 45.4727 -106.503 96.5078 -136.166 161.137c-7.63867 16.6348 -13.2832 33.9971 -17.1924 51.875
c-3.02148 13.8223 -6.47656 30.0195 4.27148 41.5244c11.9297 12.7676 28.4434 15.5996 45.0127 12.5684c5.09668 81.8184 15.1592 163.284 30.4922 243.846c7.00586 36.8154 13.29 85.0156 47.5732 107.321c30.6455 19.9395 71.8926 7.89258 90.0635 -22.707z
M489.222 544.721c3.87012 71.0371 5.35059 150.512 -19.4932 218.342c-3.24316 8.85254 -7.46191 18.3252 -14.6143 24.7432c-6.93359 6.22266 -10.7451 6.65625 -16.7256 -0.551758c-9.16602 -11.0449 -14.7354 -26.8438 -18.6113 -40.4404
c-9.6416 -33.8037 -12.6826 -70.3877 -16.8984 -105.187c-9.23438 -76.2256 -13.7764 -152.94 -13.9922 -229.718c-0.0458984 -16.2236 -24.7598 -20.4912 -42.4844 -16.7197c2.37207 -8.96973 5.39648 -17.7891 8.85156 -26.3838
c8.94336 -22.25 21.0293 -43.3281 35.1318 -62.7031c16.5557 -22.7461 35.9443 -43.0713 56.2461 -62.5088c6.14746 26.9551 11.668 54.0537 16.585 81.2441c13.1396 72.6426 21.9883 146.163 26.0049 219.883z" />
    <glyph glyph-name="W" unicode="W" horiz-adv-x="675" 
d="M582.078 783.362c55.0127 -20.1162 71.6221 -98.5586 80.2529 -149.15c11.5605 -67.6729 14.957 -136.654 13.8701 -205.231c-1.9248 -121.6 -16.2559 -246.136 -60.5273 -360.198c-20.8076 -53.6064 -48.21 -108.538 -86.0146 -152.304
c-42.8164 -49.5742 -125.336 -64.7598 -173.193 -12.5039c-39.2695 42.8779 -52.8369 105.177 -61.9434 160.748c-3.79492 23.1533 -5.95801 46.9238 -7.58301 70.4727c-9.61914 -41.4355 -18.9316 -82.9561 -33.3438 -123.009
c-10.3438 -28.75 -23.3926 -60.1758 -42.7158 -84.1719c-23.0137 -28.5732 -68.6621 -30.0186 -99.0918 -13.4072c-32.1045 17.5215 -47.5547 51.3936 -55.7412 85.416c-9.08398 37.7422 -14.4092 76.542 -18.7393 115.087
c-17.8838 159.251 -8.79688 319.716 -15.2969 479.485c-0.880859 21.6201 50.915 20.7129 54.501 0c13.9424 -80.5947 19.9365 -161.479 23.9961 -243.108c3.50781 -70.457 6.80371 -141.122 14.1221 -211.305c3.70703 -35.5625 8.57227 -71.0205 15.1992 -106.162
c5.32227 -28.2148 11.7471 -60.9873 29.6963 -84.3076c0.420898 -0.551758 3.6582 -3.28906 5.90918 -5.45898c1.48828 0.695312 2.92383 1.40332 3.92188 2.02637c12.0078 7.48828 20.668 20.2822 27.54 32.3652c15.1953 26.7139 26.1621 56.5732 34.4629 86.0967
c16.9219 60.1621 23.627 122.634 42.7637 182.312c4.0918 12.7549 37.2793 12.4414 41.6318 0c9.80176 -27.9893 21.8057 -54.7188 30.3086 -83.2764c8.4248 -28.2959 16.125 -57.0195 23.2607 -85.6748c6.74414 -27.0859 13.9424 -54.0996 24.6348 -79.9482
c10.125 -24.4688 20.7979 -51.7432 39.9707 -70.6816c0.338867 -0.333008 3.41895 -2.94629 6.09766 -5.08984c5.53711 3.44531 12.6865 8.61719 13.9463 9.72949c18.2822 16.125 31.9932 37.1221 44.8789 57.6133c27.21 43.2637 47.4268 90.6484 62.834 139.299
c16.8984 53.3623 27.8389 108.555 34.6875 164.315c-39.5137 16.7979 -85.3379 13.0781 -126.444 24.4463c-41.5107 11.4824 -75.1357 40.5586 -80.7578 84.9053c-5.46191 43.0703 21.0557 88.4482 65.8008 95.7441c15.0127 2.44727 27.5879 0.420898 38.1016 -4.74121
c-4.41797 52.543 -6.01074 105.487 -3.33203 157.906c1.75195 34.3193 9.03516 65.8135 19.3525 98.4033c4.34668 13.7178 9.18555 25.2168 22.8379 31.9023c15.2119 7.44922 34.4014 7.21387 50.1455 1.45508zM167.624 -58.2871
c0.359375 -2.0332 4.36816 1.13867 -0.385742 0.655273c0.21875 -0.280273 0.359375 -0.501953 0.385742 -0.655273zM433.347 -80.5957c0.101562 -0.342773 0.763672 -0.205078 1.76172 0.228516c-1.07324 -0.0488281 -1.79395 -0.126953 -1.76172 -0.228516z
M443.791 -80.4053c0.169922 -0.0878906 0.291016 -0.129883 0.300781 -0.0712891c0.00292969 0.0263672 -0.121094 0.0488281 -0.300781 0.0712891zM529.31 328.443c23.6045 -2.98926 47.0781 -5.81641 69.6279 -12.4434c4.42773 42.9531 6.59766 86.1348 7.23047 128.987
c0.893555 60.4365 -2.21582 121.032 -9.80566 181.008c-3.2373 25.6006 -7.53125 51.3809 -15.4404 76c-3.87598 12.0664 -8.63379 23.9238 -14.6211 35.1055c-2.47363 4.61719 -5.12012 8.9209 -8.53613 12.8164c-3.45898 -4.56152 -8.11816 -10.0303 -8.98633 -11.7822
c-2.52246 -5.08691 -4.31055 -10.7383 -6.11816 -16.1094c-4.56152 -13.5508 -7.66113 -27.5127 -9.86328 -41.625c-4.21875 -27.0371 -5.40332 -54.5205 -5.56641 -81.8506c-0.349609 -58.5049 3.125 -116.938 10.0459 -175.027
c1.69629 -14.249 -33.5498 -13.7236 -36.6953 0c-3.53027 15.4141 -8.06543 32.916 -18.4346 45.3252c-13.877 16.6084 -31.3467 6.92773 -42.7539 -7.81738c-20.8271 -26.9229 -19.2969 -68.584 0.753906 -95.4121c20.8701 -27.9238 56.9316 -33.0957 89.1631 -37.1748z
" />
    <glyph glyph-name="X" unicode="X" horiz-adv-x="549" 
d="M570.045 -25.9336c11.7568 3.51074 35.2744 -7.50586 15.8008 -15.4082c-44.1895 -17.9434 -96.1191 -7.27051 -133 21.5381c-39.3115 30.7109 -60.8896 79.5605 -80.2295 124.158c-25.2939 58.335 -44.0752 119.156 -61.4932 180.33
c-5.66797 -6.34961 -11.3389 -12.7021 -17 -19.0449c-67.0664 -75.1553 -152.715 -165.062 -146.091 -273.353c1.32812 -21.6855 -52.334 -21.4443 -55.5713 0c-8.9668 59.4111 22.0176 119.919 54.6143 167.496c43.1064 62.9229 96.6777 117.998 150.839 171.954
c-3.45508 12.3994 -6.91406 24.792 -10.4053 37.1582c-32.9912 -8.07617 -67.376 -13.3818 -100.109 -5.99805c-16.1748 3.64844 -35.2402 11.3623 -42.9307 27.3145c-0.15332 0.319336 -0.254883 0.635742 -0.398438 0.955078
c-4.3623 -4.76367 -8.74121 -9.51172 -13.1621 -14.2168c-19.3691 -20.6182 -38.2744 -37.3926 -68.8711 -33.0264c-57.4795 8.2002 -61.0166 79.4492 -58.4453 125.059c2.93359 52.0146 16.5889 105.448 34.1562 154.383c16.1348 44.9473 46.418 86.2949 97.1465 91.6328
c117.482 12.3604 164.566 -132.83 193.358 -220.342c11.0938 -33.7227 21.0557 -67.7812 30.6914 -101.938c36.6982 37.3604 70.7305 76.418 100.596 119.548c29.2783 42.2812 58.0342 88.7783 64.668 140.734c1.5625 12.2422 32.0449 11.7139 30.9453 0
c-5.35449 -56.9609 -35.5107 -106.786 -67.4453 -152.849c-35.9082 -51.7959 -75.9707 -100.665 -117.328 -148.372c15.0059 -54.0342 29.96 -108.085 47.9844 -161.212c16.3184 -48.0859 34.1436 -96.4102 57.8682 -141.402
c16.5361 -31.373 50.3076 -88.0957 93.8125 -75.0996zM208.667 387.927c22.9648 -3.46484 47.75 2.1709 70.9658 8.53711c-11.0908 38.4277 -22.7461 76.7051 -36.1074 114.415c-15.3096 43.2178 -31.8984 88.0244 -59.0889 125.385
c-7.04492 9.68066 -15.1309 18.8301 -23.957 26.9316c-3.6084 3.31152 -10.6758 10.7119 -15.6064 10.7383c-8.7998 0.0488281 -21.4629 -15.9922 -26.8828 -23.1641c-27.6211 -36.5449 -39.5078 -86.5918 -48.5068 -130.599
c-4.86523 -23.7803 -8.09863 -47.9941 -8.0625 -72.2998c0.0292969 -20.834 0.717773 -44.8496 10.748 -63.6543c0.74707 -1.39648 2.42383 -3.25293 3.94434 -5.08301c7.30566 7.54688 19.9336 13.1787 27.8008 20.1191c18.2002 16.0635 33.7061 32.959 46.5684 53.6133
c7.11621 11.4297 41.0928 14.2949 42.5742 -3.28223c1.81445 -21.5293 -17.1465 -56.7139 15.6104 -61.6572z" />
    <glyph glyph-name="Y" unicode="Y" horiz-adv-x="492" 
d="M430.054 596.354c20.9287 -57.0947 34.8428 -114.448 40.6572 -175.048c5.56934 -58.0215 4.22852 -116.372 -0.50293 -174.406c-8.4375 -103.529 -30.6191 -210.694 -71.4355 -306.491c-17.7275 -41.6055 -42.4609 -82.1934 -78.8398 -110.007
c-43.2891 -33.0996 -99.9824 -45.5215 -153.628 -39.2793c-50.0273 5.82129 -97.1797 30.9365 -122.396 75.5244c-23.4932 41.5469 -30.3945 93.3428 -24.3447 140.225c2.93652 22.7422 7.38672 50.999 20.6602 70.2109c14.1191 20.4326 45.6328 28.2959 67.3311 14.751
c9.64551 -6.02051 11.6094 -15.1465 11.7852 -25.7773c0.241211 -14.3076 1.29199 -27.1836 4.18945 -41.25c2.4082 -11.6875 4.92676 -23.3496 7.49512 -34.998c20.7266 30.541 46.4805 57.2188 82.5752 69.5654c26.7529 9.14941 54.4453 7.25977 81.6094 1.06348
c16.2236 -3.70312 34.8125 -10.3887 52.6611 -11.4658c6.00098 21.751 11.1699 43.5771 15.7871 64.9951c16.5791 76.9531 26.5342 156.478 29.2979 235.156c1.31836 37.5205 1.33789 75.8994 -1.25586 114.069c-9.75586 -46.9863 -22.4131 -93.3721 -38.2021 -138.651
c-20.3018 -58.2109 -49.7461 -125.564 -100.778 -163.61c-52.0342 -38.79 -128.573 -24.0518 -170.891 22.8496c-45.834 50.8037 -59.7793 129.18 -63.6396 195.192c-4.29395 73.416 3.48145 148.033 16.1387 220.298c3.22656 18.416 25.3594 23.6689 41.5273 23.6689
c11.9941 0 43.8174 -5.58594 41.5264 -23.6689c-9.14941 -72.2217 -19.8613 -144.212 -16.8984 -217.249c2.30664 -56.8633 7.50488 -122.188 37.4326 -172.188c10.9404 -18.2793 28.9131 -39.8896 51.9268 -41.6025c24.3545 -1.81738 50.5498 20.0674 64.9717 37.5146
c39.3574 47.5996 60.749 109.151 78.5059 167.431c19.2451 63.1611 32.6104 127.872 40.624 193.396c0.202148 1.65723 0.887695 3.0957 1.90918 4.33203c-1.31836 5.45215 -2.70508 10.8818 -4.20312 16.2725c-7.1748 25.8037 50.8594 29.7617 58.4033 9.17871z
M286.188 -98.332c24.7266 38.6982 42.4268 82.7227 56.0264 127.719c-3.2168 0.245117 -6.4502 0.583984 -9.70996 1.02734c-26.3682 3.57617 -52.1621 15.2832 -78.9707 15.1074c-57.2939 -0.37207 -89.5869 -62.5469 -112.473 -106.078
c-4.86133 -9.24707 -33.5 -12.624 -36.5283 0c-5.58008 23.2617 -11.0361 46.5488 -17.125 69.6865c-0.447266 1.69043 -0.875 3.40039 -1.29883 5.11035c-0.0722656 -0.522461 -0.166992 -1.03516 -0.235352 -1.55762
c-2.99512 -22.2725 -2.92285 -44.9531 0.288086 -67.2031c5.31836 -36.8291 20.3994 -77.8701 53.123 -98.835c55.3096 -35.4385 116.669 7.7041 146.903 55.0234z" />
    <glyph glyph-name="Y" unicode="&#x178;" horiz-adv-x="492" 
d="M430.054 596.354c20.9287 -57.0947 34.8428 -114.448 40.6572 -175.048c5.56934 -58.0215 4.22852 -116.372 -0.50293 -174.406c-8.4375 -103.529 -30.6191 -210.694 -71.4355 -306.491c-17.7275 -41.6055 -42.4609 -82.1934 -78.8398 -110.007
c-43.2891 -33.0996 -99.9824 -45.5215 -153.628 -39.2793c-50.0273 5.82129 -97.1797 30.9365 -122.396 75.5244c-23.4932 41.5469 -30.3945 93.3428 -24.3447 140.225c2.93652 22.7422 7.38672 50.999 20.6602 70.2109c14.1191 20.4326 45.6328 28.2959 67.3311 14.751
c9.64551 -6.02051 11.6094 -15.1465 11.7852 -25.7773c0.241211 -14.3076 1.29199 -27.1836 4.18945 -41.25c2.4082 -11.6875 4.92676 -23.3496 7.49512 -34.998c20.7266 30.541 46.4805 57.2188 82.5752 69.5654c26.7529 9.14941 54.4453 7.25977 81.6094 1.06348
c16.2236 -3.70312 34.8125 -10.3887 52.6611 -11.4658c6.00098 21.751 11.1699 43.5771 15.7871 64.9951c16.5791 76.9531 26.5342 156.478 29.2979 235.156c1.31836 37.5205 1.33789 75.8994 -1.25586 114.069c-9.75586 -46.9863 -22.4131 -93.3721 -38.2021 -138.651
c-20.3018 -58.2109 -49.7461 -125.564 -100.778 -163.61c-52.0342 -38.79 -128.573 -24.0518 -170.891 22.8496c-45.834 50.8037 -59.7793 129.18 -63.6396 195.192c-4.29395 73.416 3.48145 148.033 16.1387 220.298c3.22656 18.416 25.3594 23.6689 41.5273 23.6689
c11.9941 0 43.8174 -5.58594 41.5264 -23.6689c-9.14941 -72.2217 -19.8613 -144.212 -16.8984 -217.249c2.30664 -56.8633 7.50488 -122.188 37.4326 -172.188c10.9404 -18.2793 28.9131 -39.8896 51.9268 -41.6025c24.3545 -1.81738 50.5498 20.0674 64.9717 37.5146
c39.3574 47.5996 60.749 109.151 78.5059 167.431c19.2451 63.1611 32.6104 127.872 40.624 193.396c0.202148 1.65723 0.887695 3.0957 1.90918 4.33203c-1.31836 5.45215 -2.70508 10.8818 -4.20312 16.2725c-7.1748 25.8037 50.8594 29.7617 58.4033 9.17871z
M286.188 -98.332c24.7266 38.6982 42.4268 82.7227 56.0264 127.719c-3.2168 0.245117 -6.4502 0.583984 -9.70996 1.02734c-26.3682 3.57617 -52.1621 15.2832 -78.9707 15.1074c-57.2939 -0.37207 -89.5869 -62.5469 -112.473 -106.078
c-4.86133 -9.24707 -33.5 -12.624 -36.5283 0c-5.58008 23.2617 -11.0361 46.5488 -17.125 69.6865c-0.447266 1.69043 -0.875 3.40039 -1.29883 5.11035c-0.0722656 -0.522461 -0.166992 -1.03516 -0.235352 -1.55762
c-2.99512 -22.2725 -2.92285 -44.9531 0.288086 -67.2031c5.31836 -36.8291 20.3994 -77.8701 53.123 -98.835c55.3096 -35.4385 116.669 7.7041 146.903 55.0234z" />
    <glyph glyph-name="Y" unicode="&#xdd;" horiz-adv-x="492" 
d="M430.054 596.354c20.9287 -57.0947 34.8428 -114.448 40.6572 -175.048c5.56934 -58.0215 4.22852 -116.372 -0.50293 -174.406c-8.4375 -103.529 -30.6191 -210.694 -71.4355 -306.491c-17.7275 -41.6055 -42.4609 -82.1934 -78.8398 -110.007
c-43.2891 -33.0996 -99.9824 -45.5215 -153.628 -39.2793c-50.0273 5.82129 -97.1797 30.9365 -122.396 75.5244c-23.4932 41.5469 -30.3945 93.3428 -24.3447 140.225c2.93652 22.7422 7.38672 50.999 20.6602 70.2109c14.1191 20.4326 45.6328 28.2959 67.3311 14.751
c9.64551 -6.02051 11.6094 -15.1465 11.7852 -25.7773c0.241211 -14.3076 1.29199 -27.1836 4.18945 -41.25c2.4082 -11.6875 4.92676 -23.3496 7.49512 -34.998c20.7266 30.541 46.4805 57.2188 82.5752 69.5654c26.7529 9.14941 54.4453 7.25977 81.6094 1.06348
c16.2236 -3.70312 34.8125 -10.3887 52.6611 -11.4658c6.00098 21.751 11.1699 43.5771 15.7871 64.9951c16.5791 76.9531 26.5342 156.478 29.2979 235.156c1.31836 37.5205 1.33789 75.8994 -1.25586 114.069c-9.75586 -46.9863 -22.4131 -93.3721 -38.2021 -138.651
c-20.3018 -58.2109 -49.7461 -125.564 -100.778 -163.61c-52.0342 -38.79 -128.573 -24.0518 -170.891 22.8496c-45.834 50.8037 -59.7793 129.18 -63.6396 195.192c-4.29395 73.416 3.48145 148.033 16.1387 220.298c3.22656 18.416 25.3594 23.6689 41.5273 23.6689
c11.9941 0 43.8174 -5.58594 41.5264 -23.6689c-9.14941 -72.2217 -19.8613 -144.212 -16.8984 -217.249c2.30664 -56.8633 7.50488 -122.188 37.4326 -172.188c10.9404 -18.2793 28.9131 -39.8896 51.9268 -41.6025c24.3545 -1.81738 50.5498 20.0674 64.9717 37.5146
c39.3574 47.5996 60.749 109.151 78.5059 167.431c19.2451 63.1611 32.6104 127.872 40.624 193.396c0.202148 1.65723 0.887695 3.0957 1.90918 4.33203c-1.31836 5.45215 -2.70508 10.8818 -4.20312 16.2725c-7.1748 25.8037 50.8594 29.7617 58.4033 9.17871z
M286.188 -98.332c24.7266 38.6982 42.4268 82.7227 56.0264 127.719c-3.2168 0.245117 -6.4502 0.583984 -9.70996 1.02734c-26.3682 3.57617 -52.1621 15.2832 -78.9707 15.1074c-57.2939 -0.37207 -89.5869 -62.5469 -112.473 -106.078
c-4.86133 -9.24707 -33.5 -12.624 -36.5283 0c-5.58008 23.2617 -11.0361 46.5488 -17.125 69.6865c-0.447266 1.69043 -0.875 3.40039 -1.29883 5.11035c-0.0722656 -0.522461 -0.166992 -1.03516 -0.235352 -1.55762
c-2.99512 -22.2725 -2.92285 -44.9531 0.288086 -67.2031c5.31836 -36.8291 20.3994 -77.8701 53.123 -98.835c55.3096 -35.4385 116.669 7.7041 146.903 55.0234z" />
    <glyph glyph-name="Z" unicode="Z" horiz-adv-x="591" 
d="M451.016 675.34c71.749 -7.79883 147.326 -56.3496 136.145 -137.818c-10.5459 -76.8457 -73.3379 -139.344 -133.559 -182.088c-29.0527 -20.6221 -59.5771 -39.1621 -91.1885 -55.624c13.5869 -3.04785 26.9424 -7.25684 39.9482 -12.8789
c54.207 -23.415 97.6045 -68.1953 118.876 -123.476c41.6221 -108.163 -2.24512 -233.205 -68.9424 -321.402c-63.6533 -84.1709 -177.317 -163.404 -285.666 -117.867c-44.7021 18.7852 -82.8389 55.2979 -99.3623 101.455
c-17.7207 49.5088 -12.3564 104.447 8.60449 152.096c20.4092 46.3896 61.209 101.507 119.221 79.1133c22.0674 -8.52246 33.9512 -28.792 41.7266 -49.9258c13.1592 17.9033 28.4072 33.1475 50.667 40.541c30.3682 10.0859 64.4531 6.39551 95.9375 10.291
c20.9023 2.58398 41.5107 6.4375 61.8711 11.4531c-1.52051 39.3701 -11.293 77.9775 -31.8135 112.127c-18.0869 30.1006 -47.1533 56.4033 -78.2197 65.5918c-38.1699 11.29 -80.2129 0.783203 -123.463 -6.71875c-17.8975 -3.09961 -45.29 -0.267578 -56.916 15.9229
c-11.0547 15.3975 4.89453 30.2441 19.7412 34.3428c81.208 22.4004 159.169 55.6953 230.03 101.441c54.0049 34.8613 121.838 82.9766 127.234 153.188c2.50879 32.6387 -12.8984 60.7754 -41.2178 77.0967c-26.9648 15.5381 -57.0098 16.2041 -87.0615 11.3779
c-133.575 -21.4443 -249.621 -88.8242 -343.176 -185.13c-12.0732 -12.4287 -36.2969 -12.8564 -51.4434 -7.6875c-13.3262 4.54883 -24.5635 16.4521 -13.4893 29.3242c56.3184 65.4512 130.361 117.442 208.74 153.109c76.1475 34.6523 162.321 61.3232 246.775 52.1445z
M415.493 -78.6807c15.5254 35.0928 26.0361 74.1387 29.0801 113.499c-36.2744 -7.12012 -72.9404 -11.0156 -110.451 -12.9277c-12.6113 -0.646484 -22.0869 -2.20312 -31.6406 -10.9414c-8.875 -8.11816 -15.417 -18.501 -21.9492 -28.4795
c-14.2227 -21.7217 -27.4375 -43.9189 -27.6133 -70.5967c-0.228516 -21.499 -54.3701 -21.4111 -54.7451 0c-0.0390625 2.20898 0.0195312 4.39844 0.130859 6.57129c0.469727 27.1934 -2.12109 54.7324 -10.7549 80.6338
c-3.24707 9.73633 -7.77637 19.9463 -15.0947 27.3535c-0.81543 0.933594 -1.69629 1.79199 -2.62988 2.58203c-2.43066 -2.45703 -8.7832 -7.75 -9.55957 -8.61426c-30.7139 -34.127 -47.3154 -84.458 -47.2861 -129.895
c0.0263672 -41.8018 14.9385 -81.8086 45.4727 -110.826c23.6533 -22.4785 57.4805 -39.8604 90.7979 -32.2803c40.2285 9.15625 75.0967 43.1719 101.529 73.0771c26.5078 29.9893 48.5195 64.2373 64.7139 100.844z" />
    <glyph glyph-name="bracketleft" unicode="[" horiz-adv-x="385" 
d="M322.677 -139.444c8.61133 -3.83398 18.1445 -14.7441 8.12109 -23.1855c-64.6777 -54.4746 -169.102 -78.6396 -238.696 -17.5996c-29.8066 26.1455 -36.2969 65.2227 -39.459 102.727c-3.47168 41.2041 -2.97266 82.6045 -1.6123 123.891
c2.75391 83.5801 7.95801 167.056 16.0693 250.283c8.25488 84.7061 19.1045 169.04 33.083 252.995c3.55371 21.333 7.07812 42.6758 10.7881 63.9824c3.06055 17.5869 4.77344 36.3027 9.90918 53.4395c11.9102 39.752 62.9258 28.6777 93.4014 24.2666
c19.1338 -2.77051 10.9932 -18.7227 -4.39844 -18.5234c-7.06445 0.0917969 -26.1787 1.11621 -32.7539 -2.4209c-0.228516 1.72266 -0.532227 1.38379 -0.907227 -1.01758c-0.848633 -2.06543 -1.15527 -4.23242 -0.916992 -6.5
c-0.319336 -3.48438 -0.168945 -7.45898 -0.286133 -10.8623c-0.652344 -19.1963 -1.42578 -38.3887 -2.26465 -57.5752c-1.67676 -38.3916 -2.7832 -76.8457 -5.21094 -115.198c-8.91797 -140.981 -19.624 -282.11 -23.6699 -423.337
c-0.998047 -34.9561 -1.55957 -69.9609 0.225586 -104.9c1.52344 -29.7871 1.08301 -66.8506 17.9102 -92.8857c5.78516 -8.95703 14.4287 -16.1582 23.999 -20.8564c6.12109 -3.00488 15.8223 -4.73145 18.9678 -4.83887c27.1084 -0.916992 53.4922 13.6553 76.2969 26.71
c12.0078 6.875 28.9297 6.95703 41.4043 1.40723z" />
    <glyph glyph-name="backslash" unicode="\" horiz-adv-x="330" 
d="M279.085 -175.007c9.50781 -37.4131 -74.1914 -43.2148 -84.2148 -13.2383c-41.3184 123.567 -61.2939 255.455 -80.9697 383.907c-9.80469 64.0127 -18.9863 128.116 -29.5645 192.008c-10.6924 64.5898 -23.1475 128.83 -34.1729 193.338
c-3.55957 20.8271 51.9756 22.5762 58.084 4.4834c41.5303 -122.996 62.0996 -253.553 86.7383 -380.677c12.1904 -62.8994 23.6338 -125.916 37.25 -188.532c13.9619 -64.2051 30.6748 -127.633 46.8496 -191.289z" />
    <glyph glyph-name="bracketright" unicode="]" horiz-adv-x="328" 
d="M268.445 332.797c8.17676 -83.1562 10.6885 -167.206 8.12402 -250.715c-2.4248 -78.7832 -5.13281 -163.042 -31.9219 -238.061c-11.5703 -32.4043 -32.9814 -62.2598 -63.6562 -78.8418c-35.377 -19.1211 -85.1924 -24.9287 -120.468 -2.58691
c-12.2852 7.7793 -14.4941 19.3232 -2.98242 28.541c13.2773 10.6338 33.7363 9.93262 49.1963 5.59961c0.620117 -0.172852 1.11621 -0.296875 1.60938 -0.417969c1.05371 0.0849609 3.00781 0.211914 3.68359 0.381836
c0.0976562 0.166016 7.35742 3.84668 9.04102 5.03125c10.5293 7.39355 17.9297 18.3408 23.6953 29.6631c15.2148 29.8818 22.3643 64.1758 27.8525 96.9883c11.1426 66.5967 13.1885 134.557 14.751 201.937c1.59277 68.6289 0.750977 137.102 -2.08105 205.691
c-2.80957 68.1006 -6.68555 137.206 -15.9004 204.771c-4.19336 30.7109 -9.67871 62.3682 -23.6377 90.3252c-5.91895 11.8604 -27.4873 47.9873 -45.4463 39.6729c-11.9199 -5.51465 -28.5742 -7.46582 -40.3076 0c-9.3252 5.93555 -11.2861 17.5029 0 22.9746
c36.2217 17.5615 80.8027 12.6016 111.817 -13.5479c30.0879 -25.373 43.9814 -68.2314 55.0752 -104.606c23.9268 -78.4375 33.5586 -161.466 41.5557 -242.801zM108.842 -203.81c4.10449 -0.962891 3.24414 -0.0185547 0.862305 -0.00585938
c-0.333008 0 -0.617188 0.00292969 -0.862305 0.00585938z" />
    <glyph glyph-name="asciicircum" unicode="^" horiz-adv-x="264" 
d="M212.119 398.708c3.90527 -32.2275 1.11719 -64.7891 -1.60059 -96.9873c-2.35938 -27.9375 -72.1074 -26.3779 -69.8467 0c1.90527 22.2109 3.84375 44.4902 3.57324 66.8018c-0.0556641 4.4541 0.149414 10.6963 0.0839844 17.457
c-1.11621 -1.75586 -2.21289 -3.52441 -3.2832 -5.3125c-9.94824 -16.6211 -17.5088 -34.3125 -23.2285 -52.7969c-7.48145 -24.1787 -75.9834 -18.6025 -67.0068 10.5322c15.2773 49.5967 52.9932 124.491 115.1 117.013c33.8594 -4.0791 42.5742 -26.7178 46.209 -56.707z
M170 417.76c1.33789 0.799805 1.38672 1.13867 0 0z" />
    <glyph glyph-name="underscore" unicode="_" horiz-adv-x="369" 
d="M296.183 -73.6602c9.27637 -0.946289 24.5137 -7.67969 22.0732 -19.2695c-2.55176 -12.1221 -20.1816 -14.9971 -30.2705 -15.2324c-34.6426 -0.802734 -69.2754 0.547852 -103.931 0.166016c-34.4336 -0.381836 -69.5 -4.16016 -103.858 -2.57715
c-9.76562 0.450195 -27.3691 2.95898 -29.918 15.0547c-2.51562 11.9551 12.6533 17.4014 21.8223 19.0527c36.2646 6.5293 75.1748 5.67773 111.958 6.19629c37.4619 0.52832 74.832 0.416992 112.124 -3.39062z" />
    <glyph glyph-name="grave" unicode="`" horiz-adv-x="173" 
d="M121.67 369.094c8.9375 -21.1572 -45.0928 -27.0332 -51.8633 -8.14746c-8.73535 24.3477 -43.1855 101.252 6.33301 100.615c7.1748 -0.0917969 18.748 -5.35156 15.8184 -11.7861c8.21582 -27.5029 18.543 -54.2393 29.7119 -80.6816z" />
    <glyph glyph-name="a" unicode="a" horiz-adv-x="351" 
d="M343.185 0.0410156c12.6992 -2.34961 18.2539 -15.6846 1.10059 -17.5576c-3.34082 -0.362305 -6.52246 -0.567383 -9.75293 -0.655273c-28.8057 -7.58984 -60.0674 12.1348 -75.4619 35.8301c-18.4189 28.3486 -23.1016 68.8086 -25.6826 101.8
c-0.169922 2.16992 -0.28418 4.35645 -0.444336 6.5293c-9.09668 -30.4238 -19.9814 -61.4834 -37.8135 -87.4141c-17.5771 -25.5615 -36.7373 -35.4316 -67.5391 -36.8545c-33.1777 -1.53027 -71.4844 7.51465 -91.7734 36.0029
c-18.3213 25.7285 -22.9873 61.1055 -23.7314 92.0088c-0.861328 35.7686 4.875 71.667 15.1367 105.882c19.333 64.459 69.6602 130.771 145.217 118.992c26.4072 -4.11426 45.2441 -18.9961 59.333 -38.9297c0.59668 10.0596 1.27832 20.1064 2.08105 30.124
c2.56445 32.0488 81.6514 31.8828 81.625 0.000976562c-0.0517578 -65.0469 -5.13867 -129.979 -4.58105 -195.056c0.274414 -31.7646 0.529297 -64.4531 6.74219 -95.7188c2.51562 -12.6602 5.9707 -25.1279 11.7432 -36.6982
c2.7832 -5.58301 5.55957 -9.84473 9.79492 -14.3447c1.27246 -1.35059 2.70508 -2.60352 4.00684 -3.94141zM190.095 99.6592c17.1533 46.0498 28.4023 93.9033 38.7588 141.865c-5.11328 15.4766 -11.0029 30.6719 -18.6641 45.0156
c-6.65625 12.4648 -14.1875 26.6426 -25.5127 35.4492c-10.1182 7.86719 -14.8135 5.05469 -23.3135 -2.81836c-16.3242 -15.124 -24.792 -36.6299 -33.3018 -56.7949c-9.85449 -23.3467 -18.1719 -47.6104 -22.5732 -72.6045
c-7.90625 -44.8818 -11.2871 -101.692 8.10156 -144.183c3.88574 -8.51953 8.80273 -14.8721 16.9961 -19.4658c10.2158 -5.73633 16.5586 -0.345703 24.3672 7.91895c17.042 18.0371 26.6123 42.7246 35.1416 65.6172z" />
    <glyph glyph-name="a" unicode="&#xe5;" horiz-adv-x="351" 
d="M343.185 0.0410156c12.6992 -2.34961 18.2539 -15.6846 1.10059 -17.5576c-3.34082 -0.362305 -6.52246 -0.567383 -9.75293 -0.655273c-28.8057 -7.58984 -60.0674 12.1348 -75.4619 35.8301c-18.4189 28.3486 -23.1016 68.8086 -25.6826 101.8
c-0.169922 2.16992 -0.28418 4.35645 -0.444336 6.5293c-9.09668 -30.4238 -19.9814 -61.4834 -37.8135 -87.4141c-17.5771 -25.5615 -36.7373 -35.4316 -67.5391 -36.8545c-33.1777 -1.53027 -71.4844 7.51465 -91.7734 36.0029
c-18.3213 25.7285 -22.9873 61.1055 -23.7314 92.0088c-0.861328 35.7686 4.875 71.667 15.1367 105.882c19.333 64.459 69.6602 130.771 145.217 118.992c26.4072 -4.11426 45.2441 -18.9961 59.333 -38.9297c0.59668 10.0596 1.27832 20.1064 2.08105 30.124
c2.56445 32.0488 81.6514 31.8828 81.625 0.000976562c-0.0517578 -65.0469 -5.13867 -129.979 -4.58105 -195.056c0.274414 -31.7646 0.529297 -64.4531 6.74219 -95.7188c2.51562 -12.6602 5.9707 -25.1279 11.7432 -36.6982
c2.7832 -5.58301 5.55957 -9.84473 9.79492 -14.3447c1.27246 -1.35059 2.70508 -2.60352 4.00684 -3.94141zM190.095 99.6592c17.1533 46.0498 28.4023 93.9033 38.7588 141.865c-5.11328 15.4766 -11.0029 30.6719 -18.6641 45.0156
c-6.65625 12.4648 -14.1875 26.6426 -25.5127 35.4492c-10.1182 7.86719 -14.8135 5.05469 -23.3135 -2.81836c-16.3242 -15.124 -24.792 -36.6299 -33.3018 -56.7949c-9.85449 -23.3467 -18.1719 -47.6104 -22.5732 -72.6045
c-7.90625 -44.8818 -11.2871 -101.692 8.10156 -144.183c3.88574 -8.51953 8.80273 -14.8721 16.9961 -19.4658c10.2158 -5.73633 16.5586 -0.345703 24.3672 7.91895c17.042 18.0371 26.6123 42.7246 35.1416 65.6172z" />
    <glyph glyph-name="a" unicode="&#xe4;" horiz-adv-x="351" 
d="M343.185 0.0410156c12.6992 -2.34961 18.2539 -15.6846 1.10059 -17.5576c-3.34082 -0.362305 -6.52246 -0.567383 -9.75293 -0.655273c-28.8057 -7.58984 -60.0674 12.1348 -75.4619 35.8301c-18.4189 28.3486 -23.1016 68.8086 -25.6826 101.8
c-0.169922 2.16992 -0.28418 4.35645 -0.444336 6.5293c-9.09668 -30.4238 -19.9814 -61.4834 -37.8135 -87.4141c-17.5771 -25.5615 -36.7373 -35.4316 -67.5391 -36.8545c-33.1777 -1.53027 -71.4844 7.51465 -91.7734 36.0029
c-18.3213 25.7285 -22.9873 61.1055 -23.7314 92.0088c-0.861328 35.7686 4.875 71.667 15.1367 105.882c19.333 64.459 69.6602 130.771 145.217 118.992c26.4072 -4.11426 45.2441 -18.9961 59.333 -38.9297c0.59668 10.0596 1.27832 20.1064 2.08105 30.124
c2.56445 32.0488 81.6514 31.8828 81.625 0.000976562c-0.0517578 -65.0469 -5.13867 -129.979 -4.58105 -195.056c0.274414 -31.7646 0.529297 -64.4531 6.74219 -95.7188c2.51562 -12.6602 5.9707 -25.1279 11.7432 -36.6982
c2.7832 -5.58301 5.55957 -9.84473 9.79492 -14.3447c1.27246 -1.35059 2.70508 -2.60352 4.00684 -3.94141zM190.095 99.6592c17.1533 46.0498 28.4023 93.9033 38.7588 141.865c-5.11328 15.4766 -11.0029 30.6719 -18.6641 45.0156
c-6.65625 12.4648 -14.1875 26.6426 -25.5127 35.4492c-10.1182 7.86719 -14.8135 5.05469 -23.3135 -2.81836c-16.3242 -15.124 -24.792 -36.6299 -33.3018 -56.7949c-9.85449 -23.3467 -18.1719 -47.6104 -22.5732 -72.6045
c-7.90625 -44.8818 -11.2871 -101.692 8.10156 -144.183c3.88574 -8.51953 8.80273 -14.8721 16.9961 -19.4658c10.2158 -5.73633 16.5586 -0.345703 24.3672 7.91895c17.042 18.0371 26.6123 42.7246 35.1416 65.6172z" />
    <glyph glyph-name="a" unicode="&#xe3;" horiz-adv-x="351" 
d="M343.185 0.0410156c12.6992 -2.34961 18.2539 -15.6846 1.10059 -17.5576c-3.34082 -0.362305 -6.52246 -0.567383 -9.75293 -0.655273c-28.8057 -7.58984 -60.0674 12.1348 -75.4619 35.8301c-18.4189 28.3486 -23.1016 68.8086 -25.6826 101.8
c-0.169922 2.16992 -0.28418 4.35645 -0.444336 6.5293c-9.09668 -30.4238 -19.9814 -61.4834 -37.8135 -87.4141c-17.5771 -25.5615 -36.7373 -35.4316 -67.5391 -36.8545c-33.1777 -1.53027 -71.4844 7.51465 -91.7734 36.0029
c-18.3213 25.7285 -22.9873 61.1055 -23.7314 92.0088c-0.861328 35.7686 4.875 71.667 15.1367 105.882c19.333 64.459 69.6602 130.771 145.217 118.992c26.4072 -4.11426 45.2441 -18.9961 59.333 -38.9297c0.59668 10.0596 1.27832 20.1064 2.08105 30.124
c2.56445 32.0488 81.6514 31.8828 81.625 0.000976562c-0.0517578 -65.0469 -5.13867 -129.979 -4.58105 -195.056c0.274414 -31.7646 0.529297 -64.4531 6.74219 -95.7188c2.51562 -12.6602 5.9707 -25.1279 11.7432 -36.6982
c2.7832 -5.58301 5.55957 -9.84473 9.79492 -14.3447c1.27246 -1.35059 2.70508 -2.60352 4.00684 -3.94141zM190.095 99.6592c17.1533 46.0498 28.4023 93.9033 38.7588 141.865c-5.11328 15.4766 -11.0029 30.6719 -18.6641 45.0156
c-6.65625 12.4648 -14.1875 26.6426 -25.5127 35.4492c-10.1182 7.86719 -14.8135 5.05469 -23.3135 -2.81836c-16.3242 -15.124 -24.792 -36.6299 -33.3018 -56.7949c-9.85449 -23.3467 -18.1719 -47.6104 -22.5732 -72.6045
c-7.90625 -44.8818 -11.2871 -101.692 8.10156 -144.183c3.88574 -8.51953 8.80273 -14.8721 16.9961 -19.4658c10.2158 -5.73633 16.5586 -0.345703 24.3672 7.91895c17.042 18.0371 26.6123 42.7246 35.1416 65.6172z" />
    <glyph glyph-name="a" unicode="&#xe2;" horiz-adv-x="351" 
d="M343.185 0.0410156c12.6992 -2.34961 18.2539 -15.6846 1.10059 -17.5576c-3.34082 -0.362305 -6.52246 -0.567383 -9.75293 -0.655273c-28.8057 -7.58984 -60.0674 12.1348 -75.4619 35.8301c-18.4189 28.3486 -23.1016 68.8086 -25.6826 101.8
c-0.169922 2.16992 -0.28418 4.35645 -0.444336 6.5293c-9.09668 -30.4238 -19.9814 -61.4834 -37.8135 -87.4141c-17.5771 -25.5615 -36.7373 -35.4316 -67.5391 -36.8545c-33.1777 -1.53027 -71.4844 7.51465 -91.7734 36.0029
c-18.3213 25.7285 -22.9873 61.1055 -23.7314 92.0088c-0.861328 35.7686 4.875 71.667 15.1367 105.882c19.333 64.459 69.6602 130.771 145.217 118.992c26.4072 -4.11426 45.2441 -18.9961 59.333 -38.9297c0.59668 10.0596 1.27832 20.1064 2.08105 30.124
c2.56445 32.0488 81.6514 31.8828 81.625 0.000976562c-0.0517578 -65.0469 -5.13867 -129.979 -4.58105 -195.056c0.274414 -31.7646 0.529297 -64.4531 6.74219 -95.7188c2.51562 -12.6602 5.9707 -25.1279 11.7432 -36.6982
c2.7832 -5.58301 5.55957 -9.84473 9.79492 -14.3447c1.27246 -1.35059 2.70508 -2.60352 4.00684 -3.94141zM190.095 99.6592c17.1533 46.0498 28.4023 93.9033 38.7588 141.865c-5.11328 15.4766 -11.0029 30.6719 -18.6641 45.0156
c-6.65625 12.4648 -14.1875 26.6426 -25.5127 35.4492c-10.1182 7.86719 -14.8135 5.05469 -23.3135 -2.81836c-16.3242 -15.124 -24.792 -36.6299 -33.3018 -56.7949c-9.85449 -23.3467 -18.1719 -47.6104 -22.5732 -72.6045
c-7.90625 -44.8818 -11.2871 -101.692 8.10156 -144.183c3.88574 -8.51953 8.80273 -14.8721 16.9961 -19.4658c10.2158 -5.73633 16.5586 -0.345703 24.3672 7.91895c17.042 18.0371 26.6123 42.7246 35.1416 65.6172z" />
    <glyph glyph-name="a" unicode="&#xe1;" horiz-adv-x="351" 
d="M343.185 0.0410156c12.6992 -2.34961 18.2539 -15.6846 1.10059 -17.5576c-3.34082 -0.362305 -6.52246 -0.567383 -9.75293 -0.655273c-28.8057 -7.58984 -60.0674 12.1348 -75.4619 35.8301c-18.4189 28.3486 -23.1016 68.8086 -25.6826 101.8
c-0.169922 2.16992 -0.28418 4.35645 -0.444336 6.5293c-9.09668 -30.4238 -19.9814 -61.4834 -37.8135 -87.4141c-17.5771 -25.5615 -36.7373 -35.4316 -67.5391 -36.8545c-33.1777 -1.53027 -71.4844 7.51465 -91.7734 36.0029
c-18.3213 25.7285 -22.9873 61.1055 -23.7314 92.0088c-0.861328 35.7686 4.875 71.667 15.1367 105.882c19.333 64.459 69.6602 130.771 145.217 118.992c26.4072 -4.11426 45.2441 -18.9961 59.333 -38.9297c0.59668 10.0596 1.27832 20.1064 2.08105 30.124
c2.56445 32.0488 81.6514 31.8828 81.625 0.000976562c-0.0517578 -65.0469 -5.13867 -129.979 -4.58105 -195.056c0.274414 -31.7646 0.529297 -64.4531 6.74219 -95.7188c2.51562 -12.6602 5.9707 -25.1279 11.7432 -36.6982
c2.7832 -5.58301 5.55957 -9.84473 9.79492 -14.3447c1.27246 -1.35059 2.70508 -2.60352 4.00684 -3.94141zM190.095 99.6592c17.1533 46.0498 28.4023 93.9033 38.7588 141.865c-5.11328 15.4766 -11.0029 30.6719 -18.6641 45.0156
c-6.65625 12.4648 -14.1875 26.6426 -25.5127 35.4492c-10.1182 7.86719 -14.8135 5.05469 -23.3135 -2.81836c-16.3242 -15.124 -24.792 -36.6299 -33.3018 -56.7949c-9.85449 -23.3467 -18.1719 -47.6104 -22.5732 -72.6045
c-7.90625 -44.8818 -11.2871 -101.692 8.10156 -144.183c3.88574 -8.51953 8.80273 -14.8721 16.9961 -19.4658c10.2158 -5.73633 16.5586 -0.345703 24.3672 7.91895c17.042 18.0371 26.6123 42.7246 35.1416 65.6172z" />
    <glyph glyph-name="b" unicode="b" horiz-adv-x="358" 
d="M345.031 217.297c10.2686 -55.2285 -13.4834 -121.963 -45.1016 -167.076c-36.8613 -52.5957 -97.833 -85.3652 -163.17 -80.4805c-11.7305 0.874023 -34.9785 3.78809 -41.6221 16.9766c-13.8418 -2.16309 -30.5713 1.25977 -36.415 8.55566
c-5.74902 7.17871 -10.3887 12.9639 -13.5508 21.4863c-1.78516 4.81641 -2.73145 10.1738 -3.97168 15.1592c-3.00879 12.0928 -5.16602 24.3682 -7.26758 36.6494c-4.0459 23.6396 -7.01172 47.3379 -9.11328 71.2295c-4.37598 49.7822 -5.59277 99.8164 -4.37207 149.771
c1.09961 45.0215 3.75586 90.1836 9.33887 134.883c5.3418 42.7539 14.0215 88.9248 33.1162 127.868c16.7549 34.1699 47.6221 66.2148 89.459 57.2021c36.2871 -7.81445 42.9961 -49.0029 45.7402 -80.3662c3.75586 -42.9209 -2.3584 -86.8887 -9.14844 -129.226
c-6.57812 -41.002 -15.6133 -81.5537 -25.4316 -121.884c-3.90918 -16.0537 -7.93848 -32.0615 -11.9229 -48.0762c19.1562 42.2617 47.0088 90.6807 95.4531 98.0811c58.8994 8.99219 89.3232 -64.1885 97.9795 -110.754zM101.249 233.333
c0.15625 -15.4111 0.576172 -30.8174 1.27148 -46.2148c8.38281 28.1426 16.6768 56.2559 23.8223 84.4668c18.9512 74.7959 38.1406 153.002 37.668 230.656c-0.121094 19.959 -1.08008 41.8535 -7.47559 60.9316c-1.53711 4.57812 -5.10059 8.87891 -7.45312 13.1602
c-0.355469 -0.571289 -0.642578 -1.03418 -0.740234 -1.22656c-16.4453 -31.791 -24.1162 -68.6816 -29.9531 -103.748c-13.0547 -78.4316 -17.9424 -158.566 -17.1396 -238.025zM276.262 193.337c6.4668 28.5508 14.2715 65.4414 4.53516 94.2012
c-6.36914 18.8203 -23.1992 26.8076 -40.5352 16.4414c-12.6084 -7.54102 -22.8672 -19.1572 -31.1709 -31.1191c-15.75 -22.6934 -27.4375 -48.6699 -37.8066 -74.1533c-23.6689 -58.1621 -37.7451 -119.531 -49.0869 -181.129
c5.36719 1.02148 10.5459 1.52734 14.5596 1.73633c50.2627 2.63672 84.4521 46.5459 107.495 91.0234c13.5674 26.1816 25.4775 54.168 32.0098 82.999z" />
    <glyph glyph-name="c" unicode="c" horiz-adv-x="256" 
d="M213.969 120.254c2.70801 10.8721 35.4404 8.58301 32.8467 -2.53027c-12.1709 -52.2197 -41.3057 -118.376 -102.062 -125.229c-62.1104 -6.99902 -114.983 38.375 -127.859 97.0879c-11.9033 54.2725 -0.946289 119.312 20.5039 169.956
c22.8535 53.9531 78.917 103.912 141.546 87.2715c57.6426 -15.3193 52.3369 -95.4766 43.25 -141.305c-2.7666 -13.959 -37.5303 -12.6836 -35.2295 -0.000976562c5.32227 29.3438 6.73535 61.3955 -1.66309 90.377c-1.92871 6.66602 -8.90137 24.4229 -15.3232 23.4834
c-5.67383 -0.829102 -13.4004 -14.4355 -16.0566 -18.7197c-26.5508 -42.8877 -43.2832 -86.918 -49.2607 -137.111c-3.14258 -26.3682 -4.17676 -53.3428 0.717773 -79.5771c3.53711 -18.958 12.3896 -42.2031 28.1133 -54.3213
c42.8877 -33.0498 73.6992 63.4121 80.4766 90.6182z" />
    <glyph glyph-name="d" unicode="d" horiz-adv-x="409" 
d="M381.997 278.05c-10.3496 -42.5029 -21.5498 -84.6826 -30.4639 -127.516c-6.95312 -33.3867 -12.1221 -66.917 -17.3525 -100.516c1.00781 -7.11035 1.98047 -14.2139 2.82227 -21.3535c13.6387 2.0166 27.3105 3.07715 40.4795 1.49805
c14.8789 -1.78809 34.9131 -19.2803 13.9131 -30.041c-22.4951 -11.5244 -52.9453 -12.0596 -77.8086 -15.4502c-12.3311 -1.68066 -34.7373 -0.430664 -40.9854 13.2637c-0.780273 1.70996 -1.16211 3.32227 -1.22754 4.84961
c-3.10645 4.26172 -5.71387 8.56836 -7.72363 13.9814c-1.78516 4.81641 -2.73145 10.1738 -3.97168 15.1592c-3.00879 12.0928 -5.16602 24.3682 -7.26758 36.6494c-4.0459 23.6396 -7.01172 47.3379 -9.11328 71.2295
c-0.512695 5.84766 -0.975586 11.6982 -1.40332 17.5518c-1.22656 -4.54883 -2.47656 -9.08789 -3.77539 -13.6201c-10.2686 -35.8174 -21.666 -74.1533 -42.9893 -105.158c-17.5771 -25.5615 -36.7373 -35.4316 -67.5391 -36.8545
c-33.1777 -1.53027 -71.4844 7.51465 -91.7734 36.0029c-18.3213 25.7285 -22.9873 61.1055 -23.7314 92.0088c-0.861328 35.7686 4.875 71.667 15.1367 105.882c19.333 64.459 69.6572 130.769 145.217 118.992c31.4414 -4.90137 52.168 -25.0439 66.8965 -50.8438
c1.28906 40.3105 3.93164 80.6826 8.92676 120.689c5.3418 42.7539 14.0215 88.9248 33.1162 127.868c16.7549 34.1699 47.6221 66.2148 89.459 57.2021c36.2871 -7.81445 42.9961 -49.0029 45.7402 -80.3662c3.75586 -42.9209 -2.35938 -86.8887 -9.14941 -129.226
c-6.5752 -41.002 -15.6133 -81.5537 -25.4316 -121.884zM190.096 99.6621c17.1533 46.0498 28.4023 93.9023 38.7588 141.864c-5.11328 15.4766 -11.0029 30.6719 -18.6641 45.0156c-6.65625 12.4648 -14.1875 26.6426 -25.5127 35.4492
c-10.1182 7.86719 -14.8135 5.05469 -23.3135 -2.81836c-16.3242 -15.124 -24.792 -36.6299 -33.3018 -56.7949c-9.85449 -23.3467 -18.1719 -47.6094 -22.5732 -72.6035c-7.90625 -44.8818 -11.2871 -101.692 8.10156 -144.183
c3.88574 -8.51953 8.80273 -14.8721 16.9961 -19.4658c10.2158 -5.73633 16.5586 -0.345703 24.3672 7.91895c17.042 18.0371 26.6123 42.7246 35.1416 65.6172zM320.997 187.116c8.38281 28.1426 16.6758 56.2568 23.8252 84.4678
c18.9512 74.7959 38.1406 153.002 37.668 230.656c-0.121094 19.959 -1.08008 41.8535 -7.47559 60.9316c-1.53711 4.57812 -5.10059 8.87891 -7.45312 13.1602c-0.355469 -0.571289 -0.642578 -1.03418 -0.740234 -1.22656
c-16.4453 -31.791 -24.1162 -68.6816 -29.9531 -103.748c-13.0547 -78.4316 -17.9424 -158.566 -17.1396 -238.025c0.15332 -15.4111 0.577148 -30.8184 1.26855 -46.2158z" />
    <glyph glyph-name="e" unicode="e" horiz-adv-x="257" 
d="M215.443 130.238c2.80957 12.4189 33.9258 11.3135 31.6611 0.0078125c-7.08398 -35.3799 -20.5732 -69.1318 -42.2158 -98.2012c-21.96 -29.4941 -47.2734 -45.0684 -85.0645 -43.5059c-36.3428 1.50391 -70.5479 16.6797 -87.835 50.1807
c-16.4844 31.9404 -18.9248 71.1123 -17.7275 106.395c1.22363 35.9932 7.65527 72.4531 17.3301 107.103c9.73633 34.8643 28.0117 66.7656 59.3262 86.3135c30.9102 19.2998 76.249 23.8291 108.235 4.30078c25.0918 -15.3193 35.6699 -48.4805 32.0449 -76.5615
c-8.2002 -63.5361 -66.9521 -98.9717 -125.114 -110.457c-0.832031 -10.7021 -1.34473 -21.4014 -1.55664 -32.0352c-0.476562 -23.9307 0.319336 -49.5508 8.05859 -72.3975c5.00879 -14.7842 10.373 -32.6426 29.1279 -32.8613
c22.3672 -0.260742 38.4473 28.9258 48.0107 45.6191c11.8154 20.6221 20.4756 42.9238 25.7188 66.1006zM131.404 269.688c-9.99121 -24.2598 -16.6348 -49.8955 -20.8477 -75.96c35.5957 12.291 63.8691 39.9346 62.7275 82.3008
c-0.28418 10.543 -2.65332 21.457 -8.37305 30.4658c-0.44043 0.698242 -3.13281 3.49121 -5.34863 5.82715c-4.4082 -4.60059 -11.6875 -12.2754 -12.8359 -14.0635c-5.89941 -9.19531 -11.1523 -18.4424 -15.3223 -28.5703z" />
    <glyph glyph-name="e" unicode="&#xeb;" horiz-adv-x="257" 
d="M215.443 130.238c2.80957 12.4189 33.9258 11.3135 31.6611 0.0078125c-7.08398 -35.3799 -20.5732 -69.1318 -42.2158 -98.2012c-21.96 -29.4941 -47.2734 -45.0684 -85.0645 -43.5059c-36.3428 1.50391 -70.5479 16.6797 -87.835 50.1807
c-16.4844 31.9404 -18.9248 71.1123 -17.7275 106.395c1.22363 35.9932 7.65527 72.4531 17.3301 107.103c9.73633 34.8643 28.0117 66.7656 59.3262 86.3135c30.9102 19.2998 76.249 23.8291 108.235 4.30078c25.0918 -15.3193 35.6699 -48.4805 32.0449 -76.5615
c-8.2002 -63.5361 -66.9521 -98.9717 -125.114 -110.457c-0.832031 -10.7021 -1.34473 -21.4014 -1.55664 -32.0352c-0.476562 -23.9307 0.319336 -49.5508 8.05859 -72.3975c5.00879 -14.7842 10.373 -32.6426 29.1279 -32.8613
c22.3672 -0.260742 38.4473 28.9258 48.0107 45.6191c11.8154 20.6221 20.4756 42.9238 25.7188 66.1006zM131.404 269.688c-9.99121 -24.2598 -16.6348 -49.8955 -20.8477 -75.96c35.5957 12.291 63.8691 39.9346 62.7275 82.3008
c-0.28418 10.543 -2.65332 21.457 -8.37305 30.4658c-0.44043 0.698242 -3.13281 3.49121 -5.34863 5.82715c-4.4082 -4.60059 -11.6875 -12.2754 -12.8359 -14.0635c-5.89941 -9.19531 -11.1523 -18.4424 -15.3223 -28.5703z" />
    <glyph glyph-name="e" unicode="&#xea;" horiz-adv-x="257" 
d="M215.443 130.238c2.80957 12.4189 33.9258 11.3135 31.6611 0.0078125c-7.08398 -35.3799 -20.5732 -69.1318 -42.2158 -98.2012c-21.96 -29.4941 -47.2734 -45.0684 -85.0645 -43.5059c-36.3428 1.50391 -70.5479 16.6797 -87.835 50.1807
c-16.4844 31.9404 -18.9248 71.1123 -17.7275 106.395c1.22363 35.9932 7.65527 72.4531 17.3301 107.103c9.73633 34.8643 28.0117 66.7656 59.3262 86.3135c30.9102 19.2998 76.249 23.8291 108.235 4.30078c25.0918 -15.3193 35.6699 -48.4805 32.0449 -76.5615
c-8.2002 -63.5361 -66.9521 -98.9717 -125.114 -110.457c-0.832031 -10.7021 -1.34473 -21.4014 -1.55664 -32.0352c-0.476562 -23.9307 0.319336 -49.5508 8.05859 -72.3975c5.00879 -14.7842 10.373 -32.6426 29.1279 -32.8613
c22.3672 -0.260742 38.4473 28.9258 48.0107 45.6191c11.8154 20.6221 20.4756 42.9238 25.7188 66.1006zM131.404 269.688c-9.99121 -24.2598 -16.6348 -49.8955 -20.8477 -75.96c35.5957 12.291 63.8691 39.9346 62.7275 82.3008
c-0.28418 10.543 -2.65332 21.457 -8.37305 30.4658c-0.44043 0.698242 -3.13281 3.49121 -5.34863 5.82715c-4.4082 -4.60059 -11.6875 -12.2754 -12.8359 -14.0635c-5.89941 -9.19531 -11.1523 -18.4424 -15.3223 -28.5703z" />
    <glyph glyph-name="e" unicode="&#xe9;" horiz-adv-x="257" 
d="M215.443 130.238c2.80957 12.4189 33.9258 11.3135 31.6611 0.0078125c-7.08398 -35.3799 -20.5732 -69.1318 -42.2158 -98.2012c-21.96 -29.4941 -47.2734 -45.0684 -85.0645 -43.5059c-36.3428 1.50391 -70.5479 16.6797 -87.835 50.1807
c-16.4844 31.9404 -18.9248 71.1123 -17.7275 106.395c1.22363 35.9932 7.65527 72.4531 17.3301 107.103c9.73633 34.8643 28.0117 66.7656 59.3262 86.3135c30.9102 19.2998 76.249 23.8291 108.235 4.30078c25.0918 -15.3193 35.6699 -48.4805 32.0449 -76.5615
c-8.2002 -63.5361 -66.9521 -98.9717 -125.114 -110.457c-0.832031 -10.7021 -1.34473 -21.4014 -1.55664 -32.0352c-0.476562 -23.9307 0.319336 -49.5508 8.05859 -72.3975c5.00879 -14.7842 10.373 -32.6426 29.1279 -32.8613
c22.3672 -0.260742 38.4473 28.9258 48.0107 45.6191c11.8154 20.6221 20.4756 42.9238 25.7188 66.1006zM131.404 269.688c-9.99121 -24.2598 -16.6348 -49.8955 -20.8477 -75.96c35.5957 12.291 63.8691 39.9346 62.7275 82.3008
c-0.28418 10.543 -2.65332 21.457 -8.37305 30.4658c-0.44043 0.698242 -3.13281 3.49121 -5.34863 5.82715c-4.4082 -4.60059 -11.6875 -12.2754 -12.8359 -14.0635c-5.89941 -9.19531 -11.1523 -18.4424 -15.3223 -28.5703z" />
    <glyph glyph-name="f" unicode="f" horiz-adv-x="151" 
d="M194.868 428.188c5.83789 -16.6895 -30.8018 -17.4658 -37.4189 -5.87305c-4.67871 8.20312 -9.96484 13.8838 -15.6621 20.2109c-8.19336 -15.3164 -13.0322 -33.834 -18.041 -50.2402c-12.5 -40.9561 -15.6748 -84.6992 -16.4287 -127.307
c-0.476562 -26.9844 0.0263672 -54.0176 0.910156 -81.0312c4.23828 -0.0849609 8.45117 -0.254883 12.6182 -0.490234c7.05078 -0.401367 22.2529 -2.55859 22.2529 -12.6865c0 -10.0762 -14.9053 -12.3604 -22.2529 -12.6865
c-3.90234 -0.172852 -7.78809 -0.287109 -11.6611 -0.378906c0.391602 -9.78223 0.802734 -19.5576 1.2207 -29.3271c1.84375 -43.2178 7.97461 -86.041 9.93848 -129.196c1.16113 -25.5166 -59.4707 -25.5488 -67.1973 -5.18164
c-18.5527 48.8984 -19.6748 103.478 -21.8643 155.488c-6.69531 -0.462891 -14.1475 0.581055 -17.9941 5.2959c-5.68359 6.96289 0.206055 12.1738 6.89551 14.9893c3.2793 1.37988 6.62988 2.61621 10.0166 3.76758c-2.33594 51.7598 -3.99316 103.706 1.9873 155.283
c5.28906 45.6123 14.2197 106.101 51.3359 137.797c19.8486 16.9512 49.1201 21.9502 73.54 12.6182c21.6729 -8.28125 30.6689 -30.6426 37.8047 -51.0518z" />
    <glyph glyph-name="g" unicode="g" horiz-adv-x="344" 
d="M306.25 338.604c18.3701 -133.072 20.3096 -266.102 7.76367 -399.855c-5.3252 -56.7949 -13.3066 -117.988 -47.4727 -165.398c-17.3135 -24.0254 -39.9287 -42.1084 -67.0176 -52.1025c1.19727 -19.1631 1.74902 -38.3887 2.22559 -57.5195
c0.345703 -13.8711 -35.2891 -13.9883 -35.5859 0c-0.345703 16.4258 -0.688477 32.9854 -1.45898 49.5449c-39.0869 -4.09863 -80.999 6.3916 -111.771 30.2305c-37.4355 28.998 -63.001 81.1562 -52.5957 128.733c10.0039 45.7461 55.8086 74.8389 101.454 59.8359
c46.2422 -15.1953 70.2578 -68.9326 82.4648 -112.039c1.94824 -6.875 3.64453 -13.792 5.16211 -20.7451c8.81641 17.75 14.9316 37.1221 19.9795 56.0566c13.5049 50.6602 15.8701 113.642 19.4463 168.391c2.27051 34.7246 3.86914 69.6025 4.96875 104.529
c-9.23438 -31.1514 -20.2139 -63.1123 -38.4932 -89.6924c-17.5771 -25.5615 -36.7373 -35.4316 -67.5391 -36.8545c-33.1777 -1.53027 -71.4844 7.51465 -91.7734 36.0029c-18.3213 25.7285 -22.9873 61.1055 -23.7314 92.0088
c-0.861328 35.7686 4.875 71.667 15.1367 105.882c19.333 64.459 69.6572 130.769 145.217 118.992c28.2305 -4.39844 47.8213 -21.0879 62.1914 -43.1221c-0.169922 9.04492 -0.333008 18.0898 -0.561523 27.1221c-0.720703 28.3975 68.1602 27.751 71.9912 0z
M190.286 99.6562c17.1533 46.0498 28.4023 93.9023 38.7588 141.864c-5.11328 15.4766 -11.0029 30.6719 -18.6641 45.0156c-6.65625 12.4648 -14.1875 26.6426 -25.5127 35.4492c-10.1182 7.86719 -14.8135 5.05469 -23.3135 -2.81836
c-16.3242 -15.124 -24.792 -36.6299 -33.3018 -56.7949c-9.85449 -23.3467 -18.1719 -47.6094 -22.5732 -72.6035c-7.90625 -44.8818 -11.2871 -101.692 8.10156 -144.183c3.88574 -8.51953 8.80273 -14.8721 16.9961 -19.4658
c10.2158 -5.73633 16.5586 -0.345703 24.3672 7.91895c17.042 18.0371 26.6123 42.7246 35.1416 65.6172zM160.21 -238.48c0.22168 0.146484 0.375 0.245117 0.570312 0.369141c-2.44043 19.6465 -6.11426 39.084 -11.7783 58.0674
c-9.0127 30.208 -44.6729 120.115 -89.3916 89.2314c-40.0039 -27.624 -27.6895 -89.9951 -2.4248 -122.713c13.2832 -17.2021 32.6816 -30.9199 54.0215 -35.6709c3.78223 -0.844727 7.14648 -1.20703 10.9639 -1.42285
c-0.753906 0.0419922 7.87988 0.136719 7.55371 -0.0888672c2.17285 0.241211 4.35547 0.629883 6.50879 1.09668c-0.378906 0.0263672 5.45801 1.67773 5.77734 1.7793c1.87305 0.685547 3.75293 1.36719 5.62891 2.0459
c-3.17773 -1.54688 -3.0957 -1.50781 0.249023 0.107422c2.53516 1.2793 4.97559 2.71777 7.41016 4.17285c1.65137 0.992188 3.30273 1.96777 4.91113 3.02539z" />
    <glyph glyph-name="h" unicode="h" horiz-adv-x="360" 
d="M346.838 2.67773c10.1836 -5.72949 16.5303 -15.2305 2.05566 -22.8398c-10.9736 -5.77539 -23.9893 -10.2656 -40.4111 -10.0498c-19.1309 0.254883 -39.4424 7.83105 -52.5303 22.2305c-22.1846 24.4072 -18.3828 64.1299 -18.9014 94.8174
c-1.12891 66.5508 2.09766 134.439 11.9746 200.263c0.532227 3.53027 4.43457 38.6006 6.85254 38.7637c-1.72656 -0.117188 -12.4775 -15.6455 -13.2676 -16.7617c-4.45996 -6.29395 -8.35254 -12.9893 -12.1348 -19.7041
c-15.5605 -27.627 -28.5898 -56.6797 -40.8555 -85.8857c-26.1494 -62.2598 -48.8564 -125.9 -70.8389 -189.733c-0.0390625 -0.121094 -0.100586 -0.225586 -0.146484 -0.339844c-0.59668 -4.27441 -1.78125 -8.52637 -3.5791 -13.959
c-5.88965 -17.7832 -46.5029 -16.4717 -56.3311 -4.19629c-5.74902 7.17871 -10.3887 12.9639 -13.5508 21.4863c-1.78516 4.81641 -2.73145 10.1738 -3.97168 15.1592c-3.00879 12.0928 -5.16602 24.3682 -7.26758 36.6494
c-4.0459 23.6396 -7.01172 47.3379 -9.11328 71.2295c-4.37598 49.7822 -5.59277 99.8164 -4.37207 149.771c1.09961 45.0215 3.75586 90.1836 9.33887 134.883c5.3418 42.7539 14.0215 88.9248 33.1162 127.868c16.7549 34.1699 47.6221 66.2148 89.459 57.2021
c36.2871 -7.81445 42.9961 -49.0029 45.7402 -80.3662c3.75586 -42.9209 -2.3584 -86.8887 -9.14844 -129.226c-6.5752 -41.002 -15.6133 -81.5537 -25.4316 -121.884c-10.3467 -42.5029 -21.5547 -84.6865 -30.4756 -127.529
c-1.44531 -6.94336 -2.79297 -13.8936 -4.10156 -20.8506c8.1084 21.6299 16.4814 43.1592 25.2266 64.5449c18.2529 44.6338 36.8027 96.3252 69.0205 133.072c12.5137 14.2725 32.0654 23.2588 50.7197 15.1602c18.7422 -8.14062 32.9355 -29.3008 39.3604 -47.7295
c18.3184 -52.5459 17.9199 -108.346 19.1758 -163.265c0.629883 -27.6113 0.880859 -55.2715 2.64941 -82.8369c0.766602 -11.9453 1.0957 -25.0195 5.82031 -36.1953c1.60547 -3.79785 3.76855 -6.18945 5.91895 -9.74902zM102.52 187.116
c8.38281 28.1426 16.6758 56.2568 23.8252 84.4678c18.9512 74.7959 38.1406 153.002 37.668 230.656c-0.121094 19.959 -1.08008 41.8535 -7.47559 60.9316c-1.53711 4.57812 -5.10059 8.87891 -7.45312 13.1602
c-0.355469 -0.571289 -0.642578 -1.03418 -0.740234 -1.22656c-16.4453 -31.791 -24.1162 -68.6816 -29.9531 -103.748c-13.0547 -78.4316 -17.9424 -158.566 -17.1396 -238.025c0.15332 -15.4141 0.577148 -30.8184 1.26855 -46.2158z" />
    <glyph glyph-name="i" unicode="i" horiz-adv-x="142" 
d="M134.433 0.0410156c12.6992 -2.34961 18.252 -15.6836 1.0918 -17.5596c-3.34082 -0.362305 -6.52246 -0.568359 -9.75293 -0.65625c-28.8057 -7.58984 -60.0674 12.1348 -75.4619 35.8301c-18.4189 28.3486 -23.1016 68.8086 -25.6826 101.8
c-5.86328 74.9795 -5.52051 151.397 0.473633 226.344c2.56445 32.0488 81.6514 31.8828 81.625 0.000976562c-0.0517578 -65.0469 -5.1416 -129.979 -4.58008 -195.056c0.274414 -31.7646 0.529297 -64.4531 6.74219 -95.7188
c2.51562 -12.6602 5.9707 -25.1279 11.7432 -36.6982c2.7832 -5.58301 5.55957 -9.84473 9.79492 -14.3447c1.27246 -1.35059 2.70508 -2.60352 4.00684 -3.94141zM44.127 420.279c-10.0234 8.33008 -17.3057 18.0557 -22.5039 30.5947
c-4.64648 11.2051 -12.1182 26.2764 -4.04883 36.8193c4.70508 6.14746 17.2188 5.57031 23.6113 3.52734c6.0332 -1.9248 10.2393 -6.0293 13.4463 -11.2568c2.19922 5.15234 4.76367 10.1514 8.05566 14.5791c9.87988 13.2832 27.8428 19.2871 43.3643 12.1807
c37.9541 -17.3818 -11.4141 -76.082 -28.46 -92.002c-8.07617 -7.54395 -33.873 -2.93945 -33.4648 5.55762z" />
    <glyph glyph-name="i" unicode="&#xef;" horiz-adv-x="142" 
d="M134.433 0.0410156c12.6992 -2.34961 18.252 -15.6836 1.0918 -17.5596c-3.34082 -0.362305 -6.52246 -0.568359 -9.75293 -0.65625c-28.8057 -7.58984 -60.0674 12.1348 -75.4619 35.8301c-18.4189 28.3486 -23.1016 68.8086 -25.6826 101.8
c-5.86328 74.9795 -5.52051 151.397 0.473633 226.344c2.56445 32.0488 81.6514 31.8828 81.625 0.000976562c-0.0517578 -65.0469 -5.1416 -129.979 -4.58008 -195.056c0.274414 -31.7646 0.529297 -64.4531 6.74219 -95.7188
c2.51562 -12.6602 5.9707 -25.1279 11.7432 -36.6982c2.7832 -5.58301 5.55957 -9.84473 9.79492 -14.3447c1.27246 -1.35059 2.70508 -2.60352 4.00684 -3.94141zM44.127 420.279c-10.0234 8.33008 -17.3057 18.0557 -22.5039 30.5947
c-4.64648 11.2051 -12.1182 26.2764 -4.04883 36.8193c4.70508 6.14746 17.2188 5.57031 23.6113 3.52734c6.0332 -1.9248 10.2393 -6.0293 13.4463 -11.2568c2.19922 5.15234 4.76367 10.1514 8.05566 14.5791c9.87988 13.2832 27.8428 19.2871 43.3643 12.1807
c37.9541 -17.3818 -11.4141 -76.082 -28.46 -92.002c-8.07617 -7.54395 -33.873 -2.93945 -33.4648 5.55762z" />
    <glyph glyph-name="i" unicode="&#xee;" horiz-adv-x="142" 
d="M134.433 0.0410156c12.6992 -2.34961 18.252 -15.6836 1.0918 -17.5596c-3.34082 -0.362305 -6.52246 -0.568359 -9.75293 -0.65625c-28.8057 -7.58984 -60.0674 12.1348 -75.4619 35.8301c-18.4189 28.3486 -23.1016 68.8086 -25.6826 101.8
c-5.86328 74.9795 -5.52051 151.397 0.473633 226.344c2.56445 32.0488 81.6514 31.8828 81.625 0.000976562c-0.0517578 -65.0469 -5.1416 -129.979 -4.58008 -195.056c0.274414 -31.7646 0.529297 -64.4531 6.74219 -95.7188
c2.51562 -12.6602 5.9707 -25.1279 11.7432 -36.6982c2.7832 -5.58301 5.55957 -9.84473 9.79492 -14.3447c1.27246 -1.35059 2.70508 -2.60352 4.00684 -3.94141zM44.127 420.279c-10.0234 8.33008 -17.3057 18.0557 -22.5039 30.5947
c-4.64648 11.2051 -12.1182 26.2764 -4.04883 36.8193c4.70508 6.14746 17.2188 5.57031 23.6113 3.52734c6.0332 -1.9248 10.2393 -6.0293 13.4463 -11.2568c2.19922 5.15234 4.76367 10.1514 8.05566 14.5791c9.87988 13.2832 27.8428 19.2871 43.3643 12.1807
c37.9541 -17.3818 -11.4141 -76.082 -28.46 -92.002c-8.07617 -7.54395 -33.873 -2.93945 -33.4648 5.55762z" />
    <glyph glyph-name="i" unicode="&#xed;" horiz-adv-x="142" 
d="M134.433 0.0410156c12.6992 -2.34961 18.252 -15.6836 1.0918 -17.5596c-3.34082 -0.362305 -6.52246 -0.568359 -9.75293 -0.65625c-28.8057 -7.58984 -60.0674 12.1348 -75.4619 35.8301c-18.4189 28.3486 -23.1016 68.8086 -25.6826 101.8
c-5.86328 74.9795 -5.52051 151.397 0.473633 226.344c2.56445 32.0488 81.6514 31.8828 81.625 0.000976562c-0.0517578 -65.0469 -5.1416 -129.979 -4.58008 -195.056c0.274414 -31.7646 0.529297 -64.4531 6.74219 -95.7188
c2.51562 -12.6602 5.9707 -25.1279 11.7432 -36.6982c2.7832 -5.58301 5.55957 -9.84473 9.79492 -14.3447c1.27246 -1.35059 2.70508 -2.60352 4.00684 -3.94141zM44.127 420.279c-10.0234 8.33008 -17.3057 18.0557 -22.5039 30.5947
c-4.64648 11.2051 -12.1182 26.2764 -4.04883 36.8193c4.70508 6.14746 17.2188 5.57031 23.6113 3.52734c6.0332 -1.9248 10.2393 -6.0293 13.4463 -11.2568c2.19922 5.15234 4.76367 10.1514 8.05566 14.5791c9.87988 13.2832 27.8428 19.2871 43.3643 12.1807
c37.9541 -17.3818 -11.4141 -76.082 -28.46 -92.002c-8.07617 -7.54395 -33.873 -2.93945 -33.4648 5.55762z" />
    <glyph glyph-name="j" unicode="j" horiz-adv-x="135" 
d="M26.2646 338.604c-0.724609 28.3975 68.1582 27.75 71.9854 -0.00488281c18.374 -133.072 20.3086 -266.099 7.76562 -399.85c-5.3252 -56.7949 -13.3066 -117.988 -47.4727 -165.398c-17.3135 -24.0254 -39.9287 -42.1084 -67.0176 -52.1025
c1.19727 -19.1631 1.74902 -38.3887 2.22559 -57.5195c0.345703 -13.8711 -35.2891 -13.9883 -35.5859 0c-0.345703 16.4258 -0.688477 32.9854 -1.45898 49.5449c-39.0869 -4.09863 -80.999 6.3916 -111.771 30.2305c-37.4355 28.998 -63.001 81.1562 -52.5957 128.733
c10.0039 45.7461 55.8086 74.8389 101.454 59.8359c46.2422 -15.1953 70.2578 -68.9326 82.4648 -112.039c1.94824 -6.875 3.64453 -13.792 5.16211 -20.7451c8.81641 17.75 14.9307 37.1221 19.9785 56.0566c13.5049 50.6602 15.8701 113.642 19.4463 168.391
c6.82617 104.463 8.08594 210.225 5.41992 314.867zM-47.7891 -238.477c0.22168 0.146484 0.375977 0.245117 0.571289 0.369141c-2.44043 19.6465 -6.11426 39.084 -11.7783 58.0674c-9.0127 30.208 -44.6729 120.115 -89.3916 89.2314
c-40.0039 -27.624 -27.6895 -89.9951 -2.4248 -122.713c13.2832 -17.2021 32.6816 -30.9199 54.0215 -35.6709c3.78125 -0.844727 7.14551 -1.20703 10.9629 -1.42285c-0.753906 0.0419922 7.87988 0.136719 7.55371 -0.0888672
c2.17285 0.241211 4.35547 0.629883 6.50879 1.09668c-0.378906 0.0263672 5.45801 1.67773 5.77734 1.7793c1.87305 0.685547 3.75293 1.36719 5.62891 2.0459c-3.17773 -1.54688 -3.0957 -1.50781 0.249023 0.107422c2.53516 1.2793 4.97559 2.71777 7.41016 4.17285
c1.65137 0.992188 3.30273 1.96777 4.91113 3.02539zM38.7354 403.964c-10.0234 8.33008 -17.3066 18.0566 -22.5049 30.5957c-4.64648 11.2051 -12.1182 26.2764 -4.04883 36.8193c4.70508 6.14746 17.2188 5.57031 23.6113 3.52734
c6.0332 -1.9248 10.2393 -6.0293 13.4463 -11.2568c2.19922 5.15234 4.76074 10.1514 8.05664 14.5791c9.87988 13.2832 27.8428 19.2871 43.3643 12.1807c37.9541 -17.3818 -11.4141 -76.082 -28.46 -92.002c-8.07617 -7.54395 -33.873 -2.94043 -33.4648 5.55664z" />
    <glyph glyph-name="k" unicode="k" horiz-adv-x="356" 
d="M295.898 139.776c36.8613 -31.458 49.9453 -86.7012 48.2881 -133.172c-1.03418 -28.9648 -74.0654 -28.1914 -73.0605 0c1.33789 37.5137 2.58105 78.0195 -24.9971 107.337c-22.8145 24.2529 -55.5811 25.0879 -86.7393 24.2852
c-15.5674 -41.7588 -29.291 -84.3633 -41.165 -127.258c0 -0.00292969 -0.00292969 -0.00585938 -0.00292969 -0.00878906c-0.668945 -3.48438 -1.71289 -7.09961 -3.16797 -11.4912c-5.89258 -17.7832 -46.5029 -16.4717 -56.3311 -4.19629
c-5.74902 7.17871 -10.3887 12.9639 -13.5508 21.4863c-1.78516 4.81641 -2.73145 10.1738 -3.97168 15.1592c-3.00879 12.0928 -5.16602 24.3682 -7.26758 36.6494c-4.0459 23.6396 -7.01172 47.3379 -9.11328 71.2295c-4.37598 49.7822 -5.59277 99.8164 -4.37207 149.771
c1.09961 45.0215 3.75586 90.1836 9.33887 134.883c5.3418 42.7539 14.0215 88.9248 33.1162 127.868c16.7549 34.1699 47.6221 66.2148 89.459 57.2021c36.2871 -7.81445 42.9961 -49.0029 45.7402 -80.3662c3.75586 -42.9209 -2.3584 -86.8887 -9.14844 -129.226
c-6.57812 -41.002 -15.6133 -81.5537 -25.4316 -121.884c-8.4873 -34.8584 -17.5322 -69.501 -25.4385 -104.467c1.08984 1.17188 2.40137 2.19336 3.90918 3.05469c1.18164 2.82227 2.32031 5.66406 3.52734 8.4668c18.6182 43.2305 43.1914 87.1953 79.7002 117.916
c26.3877 22.2012 76.1641 44.5068 103.459 10.4551c28.1982 -35.1807 -16.9316 -84.6729 -42.5752 -105.853c-17.5811 -14.5234 -37.5928 -26.9883 -58.8018 -36.7246c24.9775 -4.84863 48.7158 -14.1514 68.5967 -31.1182zM102.518 187.117
c8.38281 28.1426 16.6758 56.2568 23.8252 84.4678c18.9512 74.7959 38.1406 153.002 37.668 230.656c-0.121094 19.959 -1.08008 41.8535 -7.47559 60.9316c-1.53711 4.57812 -5.10059 8.87891 -7.45312 13.1602
c-0.355469 -0.571289 -0.642578 -1.03418 -0.740234 -1.22656c-16.4453 -31.791 -24.1162 -68.6816 -29.9531 -103.748c-13.0547 -78.4316 -17.9424 -158.566 -17.1396 -238.025c0.15332 -15.4141 0.577148 -30.8184 1.26855 -46.2158zM238.858 281.068
c-27.1182 -27.9629 -46.2617 -62.5361 -61.7412 -98.2295c40.7373 5.83691 76.7891 27.2285 104.416 58.4189c12.6963 14.3369 34.7246 47.9746 16.7617 66.3545c-16.8135 17.2021 -48.2549 -15.0156 -59.4365 -26.5439z" />
    <glyph glyph-name="l" unicode="l" horiz-adv-x="191" 
d="M163.521 278.05c-10.3467 -42.5029 -21.5508 -84.6846 -30.4688 -127.521c-6.95312 -33.3867 -12.1221 -66.917 -17.3525 -100.512c1.00781 -7.11328 1.98047 -14.2168 2.82227 -21.3564c13.6387 2.0166 27.3105 3.07715 40.4795 1.49805
c14.8818 -1.78809 34.916 -19.2803 13.916 -30.041c-22.4951 -11.5244 -52.9453 -12.0596 -77.8086 -15.4502c-12.3311 -1.68066 -34.7373 -0.430664 -40.9854 13.2637c-0.780273 1.70996 -1.16211 3.32227 -1.22754 4.84961
c-3.10645 4.26172 -5.71387 8.56836 -7.72363 13.9814c-1.78516 4.81641 -2.73145 10.1738 -3.97168 15.1592c-3.00879 12.0928 -5.16602 24.3682 -7.26758 36.6494c-4.0459 23.6396 -7.01172 47.3379 -9.11328 71.2295c-4.37598 49.7822 -5.59277 99.8164 -4.37207 149.771
c1.09961 45.0215 3.75586 90.1836 9.33887 134.883c5.3418 42.7539 14.0215 88.9248 33.1162 127.868c16.7549 34.1699 47.6221 66.2148 89.459 57.2021c36.2871 -7.81445 42.9961 -49.0029 45.7402 -80.3662c3.75586 -42.9209 -2.35938 -86.8887 -9.14941 -129.226
c-6.5752 -41.002 -15.6133 -81.5537 -25.4316 -121.884zM102.521 187.117c8.38281 28.1426 16.6758 56.2568 23.8252 84.4678c18.9512 74.7959 38.1406 153.002 37.668 230.656c-0.121094 19.959 -1.08008 41.8535 -7.47559 60.9316
c-1.53711 4.57812 -5.10059 8.87891 -7.45312 13.1602c-0.355469 -0.571289 -0.642578 -1.03418 -0.740234 -1.22656c-16.4453 -31.791 -24.1162 -68.6816 -29.9531 -103.748c-13.0547 -78.4316 -17.9424 -158.566 -17.1396 -238.025
c0.15332 -15.4141 0.577148 -30.8184 1.26855 -46.2158z" />
    <glyph glyph-name="m" unicode="m" horiz-adv-x="524" 
d="M534.65 145.153c3.18457 13.9658 37.9268 12.3135 35.2188 0.00195312c-7.15527 -32.6133 -17.7822 -64.1367 -33.1211 -93.8525c-13.1074 -25.3926 -29.0498 -51.4336 -56.7783 -62.5117c-27.1514 -10.8428 -54.6191 -5.67383 -77.9033 11.0557
c-25.6699 18.4453 -35.4355 48.7676 -36.3623 79.4102c-1.79102 59.2744 22.4492 118.206 30.8418 176.41c1.50391 10.4219 10.3428 39.0508 0.707031 46.6631c-11.1953 8.8457 -27.1377 -13.417 -33.1084 -21.1631c-18.8691 -24.4814 -30.6123 -55.0586 -40.3721 -84.0986
c-20.1191 -59.8584 -35.0469 -123.013 -46.4834 -185.191c-0.0166016 -1.02441 -0.0390625 -2.05566 -0.0556641 -3.07715c-0.600586 -37.1318 -92.126 -36.9561 -94.4717 0c-3.49121 54.9736 7.26367 111.207 14.7393 165.492
c3.58301 25.9922 6.38281 52.1416 8.66699 78.2744c1.12598 12.8789 2.33008 26.0771 1.84082 39.0312c-0.21582 5.73633 0.75293 15.2803 -9.68164 14.2324c-4.93652 -0.499023 -11.9482 -7.91602 -15.1621 -11.3291
c-16.4326 -17.4307 -25.4805 -44.4609 -34.0195 -66.4014c-8.94043 -22.9609 -16.3574 -46.4961 -22.6973 -70.2988c-12.1416 -45.5801 -19.6982 -92.1357 -26.5469 -138.757c0.0947266 -6.19629 -0.160156 -12.3564 -0.969727 -18.4385
c-3.06738 -23.0195 -45.9883 -19.5215 -55.9824 -4.31934c-14.6016 22.2139 -18.1748 50.8652 -20.3838 76.9102c-2.08203 24.5469 -2.54883 49.1982 -2.56543 73.8271c-0.0361328 52.2139 1.35742 104.431 4.48633 156.553c1.76855 29.458 75.583 28.4434 74.1309 0
c-2.52246 -49.4307 -4.55859 -98.9062 -5.23047 -148.405c2.82227 11.1074 5.78223 22.1816 9.06445 33.1611c8.44434 28.2705 18.625 56.1455 31.416 82.7549c11.2637 23.4375 26.2471 45.1982 52.5625 52.6377c63.1182 17.8447 83.5176 -65.5068 88.3691 -111.221
c1.78125 -16.7939 2.89062 -33.7285 3.53711 -50.7412c5.05078 17.4307 10.5361 34.6396 16.5332 51.5127c15.0977 42.4766 47.3555 120.758 104.845 112.829c12.9795 -1.79102 23.9434 -8.47656 31.8623 -18.7812c8.12793 -10.585 17.6494 -21.3398 23.3564 -33.501
c12.8203 -27.3145 15.5127 -58.208 15.2383 -87.8877c-0.277344 -30.0449 -4.71484 -59.9004 -5.43945 -89.9258c-0.355469 -14.8271 -0.267578 -29.7227 -1.03418 -44.5166c-0.629883 -12.0889 -3.22363 -25.5938 -2.24805 -37.6309
c0.163086 -2.00977 0.603516 -3.31152 1.08691 -4.8584c0.0820312 0.124023 0.154297 0.228516 0.246094 0.37207c2.32031 3.60254 11.5352 7.6875 15.252 11.4893c10.1348 10.3633 17.2451 23.1738 23.9541 35.9023c14.6895 27.8789 25.6533 57.6729 32.6621 88.3867z
M461.556 7.56738c-0.250977 -0.264648 -0.326172 -0.44043 0 0z" />
    <glyph glyph-name="n" unicode="n" horiz-adv-x="347" 
d="M358.458 145.153c3.18457 13.9658 37.9287 12.3125 35.2207 0.000976562c-7.15527 -32.6133 -17.7822 -64.1367 -33.1211 -93.8525c-13.1074 -25.3926 -29.0498 -51.4336 -56.7783 -62.5117c-27.1514 -10.8428 -54.6221 -5.67383 -77.9033 11.0557
c-25.6699 18.4453 -35.4395 48.7676 -36.3633 79.4102c-1.79102 59.2744 22.4463 118.206 30.8418 176.41c1.50391 10.4219 10.3428 39.0508 0.707031 46.6631c-11.1953 8.8457 -27.1377 -13.417 -33.1084 -21.1631c-18.8691 -24.4814 -30.6123 -55.0586 -40.3721 -84.0986
c-20.8857 -62.1396 -36.2188 -127.842 -47.8154 -192.311c-0.117188 -0.639648 -0.319336 -1.23047 -0.570312 -1.80176c-0.0849609 -0.786133 -0.157227 -1.56934 -0.261719 -2.34961c-3.06738 -23.0195 -45.9883 -19.5215 -55.9824 -4.31934
c-14.6016 22.2139 -18.1748 50.8652 -20.3838 76.9102c-2.08496 24.5469 -2.54785 49.1982 -2.56738 73.8271c-0.0361328 52.2139 1.35742 104.431 4.48633 156.553c1.76855 29.458 75.583 28.4434 74.1309 0c-2.60742 -51.1201 -4.73145 -102.289 -5.3252 -153.478
c-0.0820312 -7.06055 -0.114258 -14.1279 -0.101562 -21.1953c7.36426 28.668 15.7471 56.9736 25.4873 84.3721c15.0977 42.4766 47.3555 120.758 104.845 112.829c12.9795 -1.79102 23.9434 -8.47656 31.8623 -18.7812c8.12793 -10.585 17.6494 -21.3398 23.3564 -33.501
c12.8203 -27.3145 15.5127 -58.208 15.2383 -87.8877c-0.277344 -30.0449 -4.71484 -59.9004 -5.43945 -89.9258c-0.355469 -14.8271 -0.267578 -29.7227 -1.03418 -44.5166c-0.629883 -12.0889 -3.22363 -25.5938 -2.24805 -37.6309
c0.163086 -2.00977 0.603516 -3.31152 1.08594 -4.8584c0.0820312 0.124023 0.154297 0.228516 0.246094 0.37207c2.32031 3.60254 11.5352 7.6875 15.252 11.4893c10.1348 10.3633 17.2451 23.1738 23.9541 35.9023c14.6895 27.8789 25.6533 57.6729 32.6621 88.3867z
M285.365 7.56641c-0.250977 -0.264648 -0.326172 -0.44043 0 0z" />
    <glyph glyph-name="o" unicode="o" horiz-adv-x="275" 
d="M311.484 174.568c13.0488 4.97949 37.7021 -8.62402 17.0576 -16.6348c-25.6855 -9.96777 -55.1631 -20.2432 -85.7891 -27.5029c-2.94922 -19.7275 -7.41602 -39.1611 -13.4424 -57.665c-13.3457 -40.96 -36.9365 -72.415 -80.7578 -81.499
c-46.5332 -9.64844 -99.8398 5.56055 -119.506 52.2666c-18.8789 44.8457 -14.0498 96.6348 -5.57617 143.285c0.8125 4.4668 2.66211 8.18652 5.18066 11.332c-21.7607 58.3018 6.31055 137.946 70.793 151.471c37.3672 7.83398 77.3223 -4.00684 104.134 -31.1934
c28.9717 -29.3799 41.2275 -70.875 43.1104 -111.228c0.844727 -18.1611 0.391602 -36.7891 -1.35059 -55.3584c23.0889 6.48047 45.5117 14.8564 66.1465 22.7266zM206.551 122.091c0.0820312 0.493164 0.15918 0.984375 0.244141 1.47363
c-34.1396 -4.8418 -68.4102 -4.46289 -99.3496 5.48926c-1.37402 -20.707 -1.02441 -41.4365 2.75098 -62.5146c2.48926 -13.9033 6.77051 -32.4854 18.1484 -42.0195c11.3223 -9.49219 27.7119 -0.5 37.6836 7.07324c26.665 20.2529 35.2822 59.3594 40.5225 90.498z
M209.822 143.781c3.85059 29.0889 5.36523 58.9756 1.14941 87.791c-4.38867 30.0322 -16.6738 60.0215 -39.5732 80.6787c-24.3711 21.9824 -61.1084 28.9453 -86.249 4.22852c-21.9697 -21.6035 -29.4482 -58.2041 -27.0889 -87.8906
c0.447266 -5.63477 1.40625 -11.0576 2.77344 -16.2783c2.77051 0.270508 5.49512 0.411133 8.08594 0.411133c12.7871 0 48.4121 -6.20898 45.4531 -25.9043c-1.6416 -10.9209 -3.22461 -21.7705 -4.53027 -32.5908c31.2559 -15.1895 65.7285 -16.1523 99.9795 -10.4453z
" />
    </font>
</defs>
</svg>
