<?xml version="1.0" standalone="no"?>
<!DOCTYPE svg PUBLIC "-//W3C//DTD SVG 1.1//EN" "http://www.w3.org/Graphics/SVG/1.1/DTD/svg11.dtd" >
<svg xmlns="http://www.w3.org/2000/svg" xmlns:xlink="http://www.w3.org/1999/xlink" version="1.1">
<metadata>
Created by FontForge 20170812 at Sat Oct 29 11:46:44 2022
 By www-data
</metadata>
<defs>
<font id="StyleRegular" horiz-adv-x="0" >
  <font-face 
    font-family="Style"
    font-weight="400"
    font-stretch="normal"
    units-per-em="1000"
    panose-1="0 0 0 0 0 0 0 0 0 0"
    ascent="800"
    descent="-200"
    x-height="341.354"
    cap-height="2022.65"
    bbox="-254.001 -1362.89 3457.93 2534.51"
    underline-thickness="50"
    underline-position="-100"
    unicode-range="U+000A-20AC"
  />
<missing-glyph horiz-adv-x="527" 
d="M50 700h427v-700h-427v700zM78 680l185 -309l186 309h-371zM251 350l-180 300v-601zM264 329l-185 -308h370zM276 350l181 -303v605z" />
    <glyph glyph-name=".notdef" horiz-adv-x="527" 
d="M50 700h427v-700h-427v700zM78 680l185 -309l186 309h-371zM251 350l-180 300v-601zM264 329l-185 -308h370zM276 350l181 -303v605z" />
    <glyph glyph-name=".null" 
 />
    <glyph glyph-name=".null" 
 />
    <glyph glyph-name="LF" unicode="&#xa;" 
 />
    <glyph glyph-name="controlCR" unicode="&#xd;" 
 />
    <glyph glyph-name="space" unicode=" " horiz-adv-x="266" 
 />
    <glyph glyph-name="exclam" unicode="!" horiz-adv-x="251" 
d="M162.006 269.319c-3.0332 -72.0518 -116.274 -71.6729 -111.881 -0.000976562c31.8887 519.933 36.582 1039.04 36.1689 1559.73c-0.0400391 53.4375 79.999 52.751 82.5059 0c24.6621 -518.712 15.0811 -1041.08 -6.79395 -1559.73zM195.263 -101.489
c2.57324 -32.0762 4.36133 -64.123 5.76172 -96.2656c2.62012 -60.1641 -89.7266 -59.4707 -93.1338 0c-1.72656 30.2021 -3.12695 60.3506 -3.79395 90.5996c-0.626953 28.2354 -5.31445 60.9248 19.0742 80.4932c11.5205 9.24707 27.2217 14.0137 40.9023 5.2793
c28.9092 -18.4482 28.6689 -48.5908 31.1895 -80.1064z" />
    <glyph glyph-name="quotedbl" unicode="&#x22;" horiz-adv-x="321" 
d="M112.443 1197.13c20.0615 6.2002 36.3506 -7.44727 43.4375 -24.6621c7.82715 -18.9746 -2.16699 -40.0625 -7.54102 -58.5439c-4.93359 -16.9482 -9.10742 -34.2959 -12.4941 -51.624c-4.58691 -23.4688 -32.582 -36.7168 -54.2041 -30.7764
c-24.502 6.72754 -34.8496 30.7822 -30.7764 54.2041c6.59375 37.8896 20.248 98.6279 61.5781 111.402zM227.866 1178.6c24.7422 7.10059 48.4033 -16.9131 41.5166 -41.5078c-1.95312 -7.00684 -3.74707 -13.4541 -7.16699 -20.001
c-1.06055 -2.02051 -2.16699 -4.31445 -3.4209 -6.21484c-0.240234 -0.366211 -0.339844 -0.493164 -0.493164 -0.712891c-2.24023 -4.91406 -5.60742 -16.002 -3.01367 -7.50781c-0.693359 -2.27344 -1.5332 -4.4873 -2.17285 -6.77441
c-0.639648 -2.29395 -1.12598 -4.61426 -1.64648 -6.93457c-0.0136719 -0.046875 -0.0205078 -0.0664062 -0.0273438 -0.113281c0.0263672 0.233398 0.0527344 0.446289 0.0791016 0.706055c-0.0263672 -0.313477 -0.0927734 -0.620117 -0.125977 -0.933594
c-0.620117 -2.84668 -0.486328 -3.0332 -0.226562 -1.65332c-3.41992 -24.0352 -21.6211 -42.3301 -47.4434 -38.8564c-27.3555 3.67383 -38.8896 27.7158 -35.0762 52.6514c5.13379 33.5557 25.1953 68.0781 59.2178 77.8525zM251.167 1086.95
c0.0800781 0.553711 0.168945 1.09961 0.228516 1.65332c0.0195312 0.0800781 0.0263672 0.133789 0.0458984 0.220703c-0.09375 -0.773438 -0.1875 -1.40723 -0.274414 -1.87402z" />
    <glyph glyph-name="quotedbl" unicode="&#x201d;" horiz-adv-x="321" 
d="M112.443 1197.13c20.0615 6.2002 36.3506 -7.44727 43.4375 -24.6621c7.82715 -18.9746 -2.16699 -40.0625 -7.54102 -58.5439c-4.93359 -16.9482 -9.10742 -34.2959 -12.4941 -51.624c-4.58691 -23.4688 -32.582 -36.7168 -54.2041 -30.7764
c-24.502 6.72754 -34.8496 30.7822 -30.7764 54.2041c6.59375 37.8896 20.248 98.6279 61.5781 111.402zM227.866 1178.6c24.7422 7.10059 48.4033 -16.9131 41.5166 -41.5078c-1.95312 -7.00684 -3.74707 -13.4541 -7.16699 -20.001
c-1.06055 -2.02051 -2.16699 -4.31445 -3.4209 -6.21484c-0.240234 -0.366211 -0.339844 -0.493164 -0.493164 -0.712891c-2.24023 -4.91406 -5.60742 -16.002 -3.01367 -7.50781c-0.693359 -2.27344 -1.5332 -4.4873 -2.17285 -6.77441
c-0.639648 -2.29395 -1.12598 -4.61426 -1.64648 -6.93457c-0.0136719 -0.046875 -0.0205078 -0.0664062 -0.0273438 -0.113281c0.0263672 0.233398 0.0527344 0.446289 0.0791016 0.706055c-0.0263672 -0.313477 -0.0927734 -0.620117 -0.125977 -0.933594
c-0.620117 -2.84668 -0.486328 -3.0332 -0.226562 -1.65332c-3.41992 -24.0352 -21.6211 -42.3301 -47.4434 -38.8564c-27.3555 3.67383 -38.8896 27.7158 -35.0762 52.6514c5.13379 33.5557 25.1953 68.0781 59.2178 77.8525zM251.167 1086.95
c0.0800781 0.553711 0.168945 1.09961 0.228516 1.65332c0.0195312 0.0800781 0.0263672 0.133789 0.0458984 0.220703c-0.09375 -0.773438 -0.1875 -1.40723 -0.274414 -1.87402z" />
    <glyph glyph-name="quotedbl" unicode="&#x201c;" horiz-adv-x="321" 
d="M112.443 1197.13c20.0615 6.2002 36.3506 -7.44727 43.4375 -24.6621c7.82715 -18.9746 -2.16699 -40.0625 -7.54102 -58.5439c-4.93359 -16.9482 -9.10742 -34.2959 -12.4941 -51.624c-4.58691 -23.4688 -32.582 -36.7168 -54.2041 -30.7764
c-24.502 6.72754 -34.8496 30.7822 -30.7764 54.2041c6.59375 37.8896 20.248 98.6279 61.5781 111.402zM227.866 1178.6c24.7422 7.10059 48.4033 -16.9131 41.5166 -41.5078c-1.95312 -7.00684 -3.74707 -13.4541 -7.16699 -20.001
c-1.06055 -2.02051 -2.16699 -4.31445 -3.4209 -6.21484c-0.240234 -0.366211 -0.339844 -0.493164 -0.493164 -0.712891c-2.24023 -4.91406 -5.60742 -16.002 -3.01367 -7.50781c-0.693359 -2.27344 -1.5332 -4.4873 -2.17285 -6.77441
c-0.639648 -2.29395 -1.12598 -4.61426 -1.64648 -6.93457c-0.0136719 -0.046875 -0.0205078 -0.0664062 -0.0273438 -0.113281c0.0263672 0.233398 0.0527344 0.446289 0.0791016 0.706055c-0.0263672 -0.313477 -0.0927734 -0.620117 -0.125977 -0.933594
c-0.620117 -2.84668 -0.486328 -3.0332 -0.226562 -1.65332c-3.41992 -24.0352 -21.6211 -42.3301 -47.4434 -38.8564c-27.3555 3.67383 -38.8896 27.7158 -35.0762 52.6514c5.13379 33.5557 25.1953 68.0781 59.2178 77.8525zM251.167 1086.95
c0.0800781 0.553711 0.168945 1.09961 0.228516 1.65332c0.0195312 0.0800781 0.0263672 0.133789 0.0458984 0.220703c-0.09375 -0.773438 -0.1875 -1.40723 -0.274414 -1.87402z" />
    <glyph glyph-name="numbersign" unicode="#" horiz-adv-x="1180" 
d="M1129.29 645.395c7.50684 -19.1416 -23.3203 -27.3496 -30.7207 -8.48828c-15.8682 40.376 -73.3262 50.3164 -110.896 56.8105c-45.7363 7.90039 -92.4395 8.7002 -138.71 6.74023c-4.30078 -0.179688 -8.59473 -0.472656 -12.8887 -0.692383
c-12.5811 -45.8564 -24.6084 -91.8604 -36.1963 -137.978c26.0088 0.44043 51.8037 -0.512695 77.166 -3.27246c41.8496 -4.56055 42.5098 -61.958 0 -65.6318c-31.9756 -2.75977 -63.8984 -4.5 -95.7744 -6.69336c-21.8545 -91.5732 -41.8164 -183.601 -59.7246 -276.027
c-24.9951 -129.01 -45.5703 -258.727 -63.458 -388.896c-17.748 -129.149 -21.4219 -262.459 -48.0176 -389.981c-10.5342 -50.4971 -83.8398 -35.4229 -85.9463 11.6338c-3.34668 74.7324 7.40723 149.778 16.1348 223.944
c8.78711 74.6855 18.5547 149.312 30.1094 223.617c30.6621 197.241 70.6318 393.089 119.369 586.69c-4.51367 -0.639648 -9.02051 -1.21973 -13.5273 -1.93359c-63.585 -10.1211 -126.423 -24.5625 -188.461 -41.7109
c-2.7207 -0.75293 -5.4209 -1.58008 -8.14062 -2.33984c-49.377 -225.863 -84.4795 -454.667 -100.44 -685.991c-3.68066 -53.3506 -87.627 -53.0977 -83.1328 0c10.001 118.302 26.6484 235.971 47.8496 352.772c19.1543 105.494 42.3828 209.896 68.8252 313.403
c-101.055 -31.3486 -200.222 -68.5176 -298.336 -108.08c-45.71 -18.4346 -67.9316 58.1045 -20.6016 74.7393c113.162 39.7627 225.584 82.1855 340.759 115.821c13.748 50.4102 28.209 100.614 43.3037 150.638c-138.051 -33.042 -273.374 -77.0117 -407.124 -124.442
c-14.9414 -5.30078 -28.1895 16.8672 -15.8086 27.1543c4.12012 3.41992 8.2334 6.83984 12.3535 10.2666c5.9209 4.92676 12.8213 4.86719 18.3418 2.17383c132.39 46.3701 266.493 88.9736 403.184 120.51c65.3184 211.916 141.397 420.685 221.144 627.906
c6.12012 15.9209 31.835 9.24707 25.9141 -7.14062c-72.3125 -200.095 -137.791 -403.17 -192.762 -608.872c34.1963 7.08691 68.5459 13.4805 103.082 18.9609c36.7959 5.84082 74.1318 11.3076 111.675 15.4209c30.9961 105.515 64.4717 210.31 100.741 314.138
c22.0215 63.0518 45.6504 125.45 70.3457 187.502c22.3945 56.2773 42.2031 122.615 82.4531 168.732c12.0146 13.7676 37.1699 2.81348 36.2764 -15.0283c-3.52051 -70.1123 -40.4434 -141.938 -63.1182 -207.796c-23.708 -68.8789 -46.9561 -137.964 -69.1973 -207.329
c-24.8223 -77.4062 -48.0244 -155.318 -69.9531 -233.591c32.5225 1.21387 65.0049 0.874023 97.207 -1.72656c65.0986 -5.26074 159.259 -16.0078 186.701 -85.9326zM739.954 665.035c2.62012 9.24707 5.4082 18.4492 8.0752 27.6895
c-56.0244 -6.10742 -111.775 -15.0283 -166.993 -25.7695c-15.7549 -3.06738 -31.4561 -6.34766 -47.1309 -9.72754c-12.6543 -48.4834 -24.709 -97.1074 -36.123 -145.871c67.8115 17.8682 139.903 34.7432 212.103 43.7637
c9.7207 36.7227 19.7217 73.3721 30.0693 109.915z" />
    <glyph glyph-name="dollar" unicode="$" horiz-adv-x="836" 
d="M784.718 19.3604c11.7471 -94.9336 -49.8408 -183.513 -123.399 -237.083c-49.5107 -36.0498 -108.122 -59.125 -168.58 -65.9121c2.21387 -26.209 4.27441 -52.4307 5.875 -78.6797c2.14062 -35.1162 -54.9238 -42.7637 -61.3906 -8.30762
c-5.36719 28.6084 -9.78711 57.457 -13.5479 86.4521c-12.1338 1.21387 -24.2275 3.12109 -36.2285 5.76758c-185.014 40.79 -296.302 241.252 -212.922 416.071c8.32031 17.4414 34.1758 2.2002 25.9082 -15.1406c-54.8037 -114.902 -14.4404 -253.226 88.7744 -325.624
c39.7627 -27.8887 84.6191 -44.2031 130.683 -49.8232c-11.0811 98.2803 -15.0078 197.968 -19.4414 296.068c-4.33984 96.0273 -7.04688 192.154 -8.40723 288.288c-142.817 83.9932 -300.35 184.434 -335.252 348.399c-44.75 210.256 139.184 420.845 331.598 477.122
c6.38086 1.86719 12.7949 3.4873 19.2354 4.89453c1.60645 47.7236 3.17969 95.4541 4.59961 143.185c1.21387 40.7031 65.2451 40.4766 63.1318 0c-2.37988 -45.6035 -4.58691 -91.2334 -6.69336 -136.863c79.9727 -1.02637 154.238 -39.6621 186.907 -121.395
c41.623 -104.121 29.9824 -224.184 17.4883 -332.738c-3 -26.0557 -19.915 -49.0576 -48.7568 -48.7578c-24.9287 0.266602 -50.7373 22.2812 -48.7568 48.7568c5 66.7979 11.0273 134.189 5.12695 201.121c-4.30664 48.9365 -13.5137 116.975 -65.2773 137.923
c-16.5479 6.7002 -33.9492 8.54688 -51.4238 7.20703c-8.00684 -196.688 -12.9541 -393.523 -12.7471 -590.358c0.0195312 -18.0811 0.0927734 -36.1689 0.206055 -54.25c143.724 -99.4346 310.816 -214.696 333.291 -396.323zM390.972 463.354
c-0.0800781 193.908 6.11621 387.659 12.6963 581.414c-15.0615 -6.19336 -29.4697 -13.5469 -42.5977 -20.9736c-46.2764 -26.1816 -86.6729 -61.3838 -119.855 -102.953c-58.0381 -72.7119 -94.5605 -172.359 -52.4443 -261.34
c41.0693 -86.7734 126.202 -147.064 202.234 -201.502c-0.00683594 1.78027 -0.0332031 3.56738 -0.0332031 5.35449zM624.012 -207.426c96.1475 58.998 183.693 191.786 99.5742 296.054c-62.3184 77.2461 -154.186 136.23 -237.992 187.501
c-10.5605 6.46094 -21.4414 12.9609 -32.5352 19.5215c1.66016 -79.8457 4.56738 -159.658 9.35449 -239.391c6.21387 -103.475 18.3682 -206.449 27.7285 -309.59c46.7168 5.06738 92.6738 20.6289 133.87 45.9043z" />
    <glyph glyph-name="percent" unicode="%" horiz-adv-x="1305" 
d="M1112.63 1286.84c-89.8867 -120.329 -172.959 -245.551 -249.805 -374.601c-271.974 -456.747 -464.415 -953.811 -647.188 -1451.27c-10.4541 -28.4619 -37.6025 -47.6436 -68.8115 -39.0693c-27.3223 7.51367 -49.5908 40.4893 -39.0703 68.8184
c53.2441 143.311 107.175 286.381 163.525 428.505c197.755 498.764 424.952 990.807 747.443 1422.51c17.6279 23.6016 46.6367 35.749 74.3984 19.5078c23.335 -13.6475 37.0957 -50.8506 19.5078 -74.3994zM225.105 383.735
c-53.5107 -4.48047 -103.589 28.2676 -128.438 74.7646c-14.8008 27.709 -20.6143 57.1445 -21.4678 87.0801c-12.4609 6.54004 -22.1953 18.6006 -23.7021 36.1553c-10.501 122.449 34.6221 247.959 121.509 335.152c37.6963 37.8232 86.7871 70.832 141.805 73.0791
c52.4639 2.14062 98.0674 -27.0352 125.477 -70.418c54.5645 -86.373 39.8496 -211.369 5.82031 -302.256c-34.3955 -91.8604 -111.168 -224.363 -221.003 -233.558zM224.698 843.455c-42.8301 -46.6104 -69.7598 -104.286 -80.9473 -165.317
c1.25977 -0.240234 2.51367 -0.493164 3.7334 -0.839844c28.9619 -8.28711 39.3027 -35.209 35.582 -62.6641c-5.12012 -37.7764 -17.0879 -99.8281 19.1016 -127.811c35.123 -27.1621 80.9463 31.042 100.555 54.8633c59.0713 71.7852 92.9141 174.346 82.2002 267.413
c-3.5332 30.7021 -14.7139 75.9258 -46.9092 89.2598c-41.9033 17.3545 -87.8672 -27.2021 -113.315 -54.9043zM1098.78 491.351c136.49 -26.0557 180.808 -179.759 143.698 -298.548c-34.5361 -110.495 -120.256 -200.455 -227.518 -242.852
c-55.6777 -22.0088 -122.656 -30.3623 -177.434 -0.986328c-49.917 26.7617 -77.5127 79.1924 -85.9736 133.576c-19.9414 128.189 19.1211 267.326 68.7451 384.395c11.3945 26.8818 50.9912 32.4824 73.5459 19.2881c11.501 -6.72754 18.7412 -16.1816 22.4414 -26.8555
c55.5908 30.2891 119.169 44.0703 182.494 31.9824zM1083.78 116.611c57.4111 60.7715 118.903 211.335 19.5293 265.186c-45.2168 24.5088 -103.688 5.87402 -145.184 -17.8408c-37.6162 -21.4951 -66.8721 -51.3838 -88.8809 -87.5801
c-3.41992 -15.3145 -6.40723 -30.709 -8.94727 -46.1299c-7.96094 -48.3232 -17.168 -107.748 0.113281 -155.238c36.209 -99.4736 180.279 -4.00684 223.369 41.6035z" />
    <glyph glyph-name="ampersand" unicode="&#x26;" horiz-adv-x="1313" 
d="M1238.12 421.117c59.2246 -95.8535 1.74707 -220.141 -56.3906 -301.46c-70.0518 -97.9277 -164.052 -174.66 -265.953 -237.524c-91.8203 -56.6377 -191.574 -101.941 -295.235 -132.657c0.893555 -63.5645 3.76758 -127.036 10.4414 -189.808
c2.55371 -24.0088 -38.1289 -24.9551 -38.1289 0c0.00683594 60.585 -0.786133 121.083 -1.43262 181.567c-9.2207 -2.4668 -18.4609 -4.86035 -27.7354 -7.09375c-121.669 -29.3154 -269.02 -52.0508 -385.155 7.16699c-115.188 58.7314 -154.505 185.395 -111.628 303.957
c42.8564 118.516 133.896 219.49 222.257 306.67c81.7129 80.6191 168.946 156.472 259.713 226.971c-43.5898 -3.90039 -87.1533 -4.58008 -130.276 -1.22656c-74.4727 5.78711 -151.712 29.4951 -190.854 98.5605c-40.6367 71.6982 -16.0615 156.238 18.2012 224.736
c68.4648 136.877 194.008 245.299 318.137 330.745c33.5029 23.0684 73.4189 48.0967 116.402 69.4053c4.77344 103.861 7.60742 207.822 7.40723 311.95c-0.0332031 16.1143 24.9082 16.0879 25.002 0c0.55957 -99.8203 -1.56738 -199.614 -5.54102 -299.342
c85.5732 37.8828 180.187 57.291 259.732 16.4209c67.0254 -34.4355 80.6201 -104.667 84.7471 -173.565c5.14062 -85.7734 -5.37988 -172.333 -28.3145 -255.025c-15.0547 -54.291 -98.9541 -31.2021 -84.3799 23.2617c20.3145 75.8857 28.3281 153.325 22.9678 231.765
c-1.80664 26.4219 -2.50684 62.2842 -23.2021 81.8525c-16.7344 15.8281 -42.1963 18.4883 -64.1914 18.2686c-59.4043 -0.599609 -118.176 -22.4209 -172.479 -53.4229c-0.84668 -16.1279 -1.71973 -32.2559 -2.65332 -48.3838
c-7.96094 -137.73 -18.5889 -275.274 -29.4434 -412.805c89.5801 21.1084 177.6 50.2568 266.88 71.3721c69.3447 16.4014 100.307 -77.2461 45.7891 -108.668c0.0263672 -0.046875 0.0527344 -0.09375 0.0791016 -0.133789
c-0.386719 -0.179688 -0.773438 -0.34668 -1.16016 -0.520508c-2.81348 -1.54688 -5.89355 -2.88672 -9.15332 -4.08691c-28.8018 -12.8213 -58.3369 -25.2354 -88.4727 -36.9297c-27.2422 -13.9941 -53.791 -29.502 -79.4199 -44.3428
c-52.1035 -30.1689 -102.44 -63.3447 -151.284 -98.5273c-0.200195 -0.139648 -0.393555 -0.286133 -0.586914 -0.425781c-3.10059 -40.9297 -6.07422 -81.8662 -8.91406 -122.816c23.7549 17.4014 51.124 31.4629 65.8447 39.7637
c57.8906 32.6357 121.042 55.2236 186.54 66.498c106.828 18.3877 276.181 24.0947 341.846 -82.167zM537.409 718.781c34.9355 3.56738 69.4385 9.47363 103.668 16.7676c12.3877 150.225 24.5352 300.463 33.3555 450.874
c-40.1367 -25.7891 -77.293 -55.7109 -109.729 -84.4727c-86.4932 -76.6924 -177.087 -167.826 -215.963 -279.481c-12.9746 -37.2627 -22.7285 -79.3994 19.7881 -96.9736c50.7041 -20.9551 116.062 -12.1074 168.88 -6.71387zM612.015 367.4
c3.06055 43.21 6.32715 86.3994 9.70703 129.589c-85.793 -63.9717 -167.786 -133.856 -245.618 -207.068c-98.1338 -92.3135 -369.554 -369.601 -136.717 -468.515c97.9873 -41.623 223.644 -21.6016 324.104 0.900391c9.10742 2.04004 18.1748 4.25391 27.2217 6.55371
c-0.287109 62.7783 0.0664062 125.576 2.21289 188.487c3.37988 99.2139 8.83398 198.308 15.4609 297.342c-2.94043 2.77344 -5.24023 6.29395 -6.61328 10.208c-5.13379 14.6406 -0.106445 29.0352 10.2412 42.5029zM1104.02 125.749
c56.2646 63.0176 135.443 174.371 86.54 262.131c-47.0635 84.4727 -199.048 74.6855 -279.487 61.6914c-50.084 -8.08691 -99.9141 -23.041 -146.164 -43.916c-22.6748 -10.2412 -44.71 -21.9824 -65.8516 -35.1104c-5.16699 -3.21387 -42.4434 -27.8428 -52.6309 -33.1162
c3.32031 -9.26074 0.613281 -20.3018 -8.26074 -25.4756c-7.46094 -117.695 -13.2812 -235.518 -15.7686 -353.433c-0.853516 -40.376 -1.68652 -80.9854 -2.04004 -121.668c86.2129 24.709 168.979 60.7119 246.932 105.115
c86.9268 49.5107 169.84 108.862 236.731 183.781z" />
    <glyph glyph-name="quotesingle" unicode="'" horiz-adv-x="212" 
d="M127.251 1203.35c22.7686 -6.25391 40.7686 -33.3877 32.3008 -56.8965c-9.3877 -26.0684 -15.9346 -52.6904 -19.7012 -80.1328c-3.12012 -22.7354 -30.0283 -35.0625 -50.0635 -32.6826c-20.1279 2.40039 -42.2695 22.6152 -39.5625 44.8164
c3.87402 31.7227 9.74805 62.3252 20.1289 92.5938c8.13379 23.708 31.5156 39.2754 56.8975 32.3018z" />
    <glyph glyph-name="quotesingle" unicode="&#x2019;" horiz-adv-x="212" 
d="M127.251 1203.35c22.7686 -6.25391 40.7686 -33.3877 32.3008 -56.8965c-9.3877 -26.0684 -15.9346 -52.6904 -19.7012 -80.1328c-3.12012 -22.7354 -30.0283 -35.0625 -50.0635 -32.6826c-20.1279 2.40039 -42.2695 22.6152 -39.5625 44.8164
c3.87402 31.7227 9.74805 62.3252 20.1289 92.5938c8.13379 23.708 31.5156 39.2754 56.8975 32.3018z" />
    <glyph glyph-name="quotesingle" unicode="&#x2018;" horiz-adv-x="212" 
d="M127.251 1203.35c22.7686 -6.25391 40.7686 -33.3877 32.3008 -56.8965c-9.3877 -26.0684 -15.9346 -52.6904 -19.7012 -80.1328c-3.12012 -22.7354 -30.0283 -35.0625 -50.0635 -32.6826c-20.1279 2.40039 -42.2695 22.6152 -39.5625 44.8164
c3.87402 31.7227 9.74805 62.3252 20.1289 92.5938c8.13379 23.708 31.5156 39.2754 56.8975 32.3018z" />
    <glyph glyph-name="parenleft" unicode="(" horiz-adv-x="909" 
d="M845.239 -142.444c18.0615 -18.4609 19.8301 -51.6875 0.00878906 -69.8291c-88.5068 -80.9795 -190.288 -152.898 -311.69 -170.7c-117.762 -17.2676 -234.518 15.8281 -314.017 107.335c-141.617 163.019 -165.312 401.423 -169.119 608.305
c-3.89355 211.35 19.4551 423.252 72.2725 628.034c52.7969 204.729 135.263 403.337 248.364 582.21c48.9707 77.4453 109.688 166.719 203.075 192.561c77.5996 21.4746 153.665 -10.5947 192.048 -81.0801c8.52734 -15.668 -14.0273 -28.5752 -23.748 -13.8809
c-25.0752 37.8828 -78.0195 38.543 -118.423 28.376c-40.3701 -10.1611 -74.0791 -38.0234 -101.175 -68.6191c-64.2051 -72.4854 -110.988 -168.479 -153.019 -254.992c-157.745 -324.704 -218.93 -693.585 -204.742 -1052.68
c3.74707 -94.7939 13.0342 -189.354 38.2227 -281.088c21.9688 -80.0059 55.3242 -164.292 115.822 -223.35c136.497 -133.243 334.132 -27.3018 456.288 69.3984c20.7949 16.4609 49.4033 20.8809 69.8311 -0.000976562z" />
    <glyph glyph-name="parenright" unicode=")" horiz-adv-x="910" 
d="M582.559 1469.41c209.022 -367.127 296.238 -798.608 273.644 -1218.72c-10.8271 -201.215 -51.083 -452.58 -225.869 -580.27c-84.8135 -61.958 -197.982 -70.5449 -297.45 -44.9297c-103.567 26.6689 -190.921 91.1475 -268.606 162.232
c-19.5947 17.9277 -18.4551 51.7773 0 69.832c20.6211 20.1748 48.7695 16.6748 69.8311 0c75.5859 -59.8379 164.266 -118.502 262.387 -129.749c93.2139 -10.6807 177.127 25.7686 230.237 103.281c104.074 151.898 117.382 351.847 119.455 530.227
c2.06641 178.427 -14.6348 357.72 -52.5576 532.152c-38.75 178.233 -99.3613 351.693 -184.987 512.905c-39.3496 74.0918 -81.373 158.165 -143.357 216.016c-46.4639 43.3633 -153.292 85.9932 -198.209 18.1211c-9.73438 -14.708 -32.2695 -1.7666 -23.749 13.8809
c46.5234 85.4326 142.684 107.407 228.243 67.1113c97.8408 -46.083 159.912 -162.378 210.989 -252.091z" />
    <glyph glyph-name="asterisk" unicode="*" horiz-adv-x="465" 
d="M397.691 1047.35c22.8018 2.35352 22.6104 -33.3555 -0.00488281 -35.6221c-52.5039 -5.28027 -105.048 -9.78711 -157.651 -13.3008c29.0156 -32.5693 58.5176 -64.7188 88.7803 -96.1807c30.416 -31.6289 -17.7871 -79.8926 -48.1758 -48.1768
c-16.9678 17.708 -33.709 35.6289 -50.2832 53.6904c-0.240234 -25.2949 -0.473633 -50.5967 -0.879883 -75.8916c-0.693359 -43.0635 -67.5713 -43.0566 -66.8779 0c0.526367 32.7754 1.24023 65.5449 2.02051 98.3145c-29.249 -36.1426 -57.251 -73.332 -83.6592 -111.774
c-11.8008 -17.1816 -40.0361 -0.760742 -28.0615 16.4004c35.2158 50.4707 72.9717 98.9346 112.908 145.491c-3.83398 4.41992 -7.60059 8.90039 -11.4072 13.3408c-28.1289 -1.24023 -56.2773 -2.16016 -84.4531 -2.69336c-20.6553 -0.386719 -20.3418 30.7754 0 31.875
c18.9014 1.02637 37.8027 2.16602 56.6973 3.28613c-16.8545 20.1553 -33.4961 40.5039 -49.8906 61.0586c-26.8154 33.6162 20.5615 81.6602 47.7373 47.7314c14.5342 -18.1416 29.3086 -36.083 44.2031 -53.918c0.620117 17.0342 1.33398 34.0625 2.18066 51.1035
c1.31348 26.3418 -1.33301 50.7568 22.4756 66.5117c4.5332 3 12.2139 3.21973 16.7207 -0.000976562c23.415 -16.7344 20.3145 -39.4297 20.7949 -66.5117c0.466797 -26.4424 0.573242 -52.8574 0.506836 -79.2861c34.2422 35.8428 69.8652 70.4121 107.055 103.428
c14.0879 12.501 34.8691 -8.07422 20.7744 -20.7754c-35.709 -32.1758 -69.958 -65.7852 -102.907 -100.581c47.1768 3.60059 94.3271 7.62109 141.397 12.4814z" />
    <glyph glyph-name="plus" unicode="+" horiz-adv-x="470" 
d="M397.009 560.968c26.3086 0.533203 33.0283 -42.6045 6.31348 -46.6514c-51.1035 -7.74023 -101.841 -14.4336 -153.171 -20.001c-4.95996 -81.1592 -8.44043 -162.412 -11.9336 -243.651c-2.89355 -67.332 -106.688 -67.752 -105.008 0
c1.91309 76.9189 6.04004 153.718 11.2676 230.477c-23.9355 -2.61328 -47.7969 -4.32031 -71.0254 -3.49316c-27.4023 0.973633 -32.3965 39.1699 -6.40137 47.2705c25.749 8.02051 53.5781 12.6807 81.6338 16.1406c2.41309 32.5361 5.04004 65.0654 8.38672 97.5146
c4.18652 40.6299 2.56641 89.2939 22.9014 125.437c19.335 34.3623 69.0986 24.335 80.5391 -10.5273c12.6543 -38.5498 1.4668 -87.7598 -1.29297 -127.823c-1.68652 -24.4883 -3.4668 -48.9639 -5.20703 -73.4453c47.624 4.82031 94.9072 7.78711 142.997 8.75391z" />
    <glyph glyph-name="comma" unicode="," horiz-adv-x="354" 
d="M247.506 96.5c14.834 24.4814 58.4443 15.7871 56.4844 -15.2949c-3.59375 -57.1973 -34.1162 -116.769 -64.0117 -164.825c-31.9619 -51.3701 -71.6113 -97.8604 -116.882 -137.917c-40.5693 -35.8965 -100.434 25.1143 -59.2236 59.2236
c41.5029 34.3496 78.5859 73.3457 108.675 118.109c30.1152 44.7969 47.3096 95.0605 74.958 140.704z" />
    <glyph glyph-name="hyphen" unicode="-" horiz-adv-x="748" 
d="M653.222 562.595c60.1777 4.30664 59.0039 -87.9004 -0.000976562 -93.1338c-186.08 -16.501 -373.921 -36.4355 -560.628 -42.7158c-58.6973 -1.97363 -54.8506 81.8193 0 88.7598c185.461 23.4688 374.175 33.7559 560.629 47.0898z" />
    <glyph glyph-name="period" unicode="." horiz-adv-x="167" 
d="M101.206 13.2539c9.28711 -3.74023 16.2832 -13.5811 16.0303 -23.8154c-0.313477 -12.4072 -2.75391 -25.8613 -3.2207 -39.9355c-0.646484 -19.4746 -17.0146 -34.2295 -36.4697 -31.6162c-20.0947 2.69336 -30.6025 21.248 -26.7627 40.1699
c3.71387 18.3076 10.5146 35.002 21.9551 49.8096c6.34668 8.21387 19.7607 8.8877 28.4678 5.3877z" />
    <glyph glyph-name="slash" unicode="/" horiz-adv-x="1201" 
d="M1111.01 1376.05c19.1611 20.1484 49.8008 -5.65918 37.2998 -28.7744c-37.2959 -69.0117 -83.1523 -133.003 -126.309 -198.421c-42.1631 -63.9053 -83.8193 -128.184 -124.796 -192.855c-294.488 -464.814 -543.827 -958.185 -742.582 -1471.29
c-10.3477 -26.7021 -35.1162 -45.0898 -64.9717 -36.8896c-25.1885 6.9209 -47.6631 38.5498 -36.8887 64.9717c59.5381 145.978 122.656 290.481 189.935 433.065c119.562 253.379 251.699 500.824 395.703 741.155c71.5322 119.376 145.991 237.012 223.304 352.727
c76.7061 114.795 153.898 236.011 249.306 336.312z" />
    <glyph glyph-name="zero" unicode="0" horiz-adv-x="940" 
d="M630.786 1190.45c114.849 -46.9766 182.701 -160.626 217.57 -274.527c43.7295 -142.804 49.5762 -296.349 34.0752 -444.093c-14.3008 -136.29 -42.1562 -275.387 -92.1602 -403.356c-44.0703 -112.802 -108.389 -219.85 -204.603 -295.715
c-52.2637 -41.21 -116.282 -76.9658 -185.154 -65.752c-61.6777 10.0479 -106.521 57.418 -135.137 110.396c-67.1787 124.369 -86.9668 279.081 -91.5605 418.285c-4.89355 148.378 12.0479 296.449 32.5156 443.153c9.00098 64.5312 120.949 48.7363 113.568 -15.3682
c-16.3477 -142.018 -33.082 -284.568 -29.6016 -427.786c3.04004 -124.862 18.6348 -267.479 80.6924 -378.508c25.8555 -46.2637 64.125 -64.4385 115.256 -42.7373c46.4297 19.7012 88.0996 55.0908 122.002 91.7598c73.4258 79.4121 120.529 180.699 154.578 282.313
c79.2197 236.425 116.589 513.672 33.376 754.217c-37.8232 109.328 -120.123 214.776 -242.325 229.037c-121.189 14.1406 -234.265 -57.5781 -304.264 -151.665c-71.1523 -95.6406 -111.655 -213.656 -137.297 -328.984
c-14.3877 -64.7178 -23.168 -130.562 -26.2344 -196.787c-2.99316 -64.5986 -2.9668 -131.471 23.9287 -191.568c8.96094 -20.0283 -20.5947 -37.5098 -29.6816 -17.3545c-32.3359 71.7188 -32.8428 150.138 -28.2559 227.391c4.7207 79.4863 17.248 158.719 37.583 235.711
c36.7227 139.07 96.9141 286.008 211.763 378.802c90.6133 73.2119 218.203 108.607 329.365 63.1377z" />
    <glyph glyph-name="one" unicode="1" horiz-adv-x="856" 
d="M768.104 -65.6123c50.7305 6.02051 50.0684 -73.376 -0.00195312 -79.376c-170.819 -20.4814 -326.704 -103.435 -496.157 -131.063c-50.4707 -8.23438 -71.9453 68.9443 -21.2686 77.1445c79.2461 12.8271 155.559 36.6885 231.731 61.0166
c-0.726562 3.55371 -1.25293 7.25391 -1.39258 11.2139c-5.63379 159.792 1.22656 319.19 12.3203 478.596c9.89453 142.178 22.6758 284.148 32.3701 426.332c8.79395 129.062 28.6553 274.646 -8.6543 400.923c-44.4434 150.418 -242.104 -103.067 -277.074 -155.618
c-68.5518 -103.015 -137.471 -220.837 -155.405 -344.853c-3.27344 -22.6416 -37.6025 -12.9609 -34.3555 9.46777c11.501 79.5322 44.6104 152.598 82.1602 222.937c35.4893 66.4854 74.0654 131.557 120.522 191.041c50.3574 64.4844 186.987 226.123 276.228 134.029
c40.9766 -42.2832 53.291 -115.502 63.1318 -170.893c13.3076 -74.9189 16.7676 -152.018 17.6543 -227.983c3.66016 -312.97 -25.1357 -625.807 -9.49414 -938.684c54.8975 15.748 110.448 28.9756 167.686 35.7695z" />
    <glyph glyph-name="two" unicode="2" horiz-adv-x="791" 
d="M575.591 -36.0908c57.9443 13.4941 82.4365 -74.8477 24.5986 -89.2217c-113.549 -28.1816 -227.104 -56.3633 -340.652 -84.5449c-40.5693 -10.0674 -86.9395 -22.4287 -125.702 0.65332c-49.3037 29.3623 -41.3369 83.6865 -22.1621 128.757
c36.5098 85.7998 89.0605 164.393 137.997 243.445c51.9707 83.9658 104.602 167.539 155.592 252.105c48.7568 80.8594 95.7666 162.825 138.59 246.998c44.2236 86.9268 88.7539 175.327 112.789 270.354c16.9277 66.918 38.0498 183.74 -46.7295 214.129
c-73.5586 26.3623 -173.1 -18.5215 -235.544 -55.5176c-66.8184 -39.583 -125.123 -94.3936 -169.826 -157.872c-50.2373 -71.332 -94.374 -157.345 -84.1396 -246.858c5.01367 -43.9297 -63.8711 -43.5029 -68.7578 0c-11.3008 100.475 37.3232 201.155 93.9873 281.288
c51.6641 73.0654 117.275 136.363 194.541 181.946c126.01 74.332 356.073 128.783 394.576 -69.332c16.7881 -86.4062 -4.52051 -178.62 -31.5889 -260.767c-31.7627 -96.374 -75.3457 -188.947 -121.636 -279.074c-92.1201 -179.354 -200.081 -349.659 -301.889 -523.512
c-24.3486 -41.583 -49.4102 -83.4395 -68.418 -127.829c-0.379883 -0.893555 -1.36621 -3.84082 -2.61328 -7.56152c15.7676 4.30664 36.7158 5.5 50.3164 8.66699c105.555 24.582 211.116 49.1641 316.671 73.7461z" />
    <glyph glyph-name="three" unicode="3" horiz-adv-x="993" 
d="M127.506 642.993c2.45996 -49.7373 -77.4512 -50.041 -77.5049 -0.0107422c-0.0869141 79.1855 38.9961 146.063 79.8125 211.248c36.4824 58.2715 82.6729 111.342 133.884 157.099c89.5137 79.9795 207.029 145.505 327.378 161.3
c115.809 15.2012 251.619 -48.9639 239.405 -183.174c-11.9805 -131.71 -100.854 -243.451 -191.98 -332.458c-29.0088 -28.3418 -59.4043 -54.9902 -90.9404 -80.1191c66.9121 -3.91992 132.771 -17.9346 192.602 -41.4297
c67.1113 -26.3555 130.869 -65.5381 168.358 -129.189c39.0166 -66.2451 40.3096 -145.798 27.9883 -219.557c-22.4814 -134.57 -97.0869 -263.82 -192.214 -360.147c-86.8535 -87.9531 -248.506 -218.136 -376.682 -137.569
c-135.217 84.9932 -118.108 291.769 -106.548 427.632c5.38086 63.2852 104.468 63.8584 99.3809 0c-5.87402 -73.7051 -13.4482 -150.424 0.919922 -223.589c10.0674 -51.2637 31.8154 -127.789 95.3467 -130.303c54.3975 -2.15332 110.135 39.9902 150.751 72.1191
c41.3896 32.749 78.9121 71.6455 109.914 114.362c60.9844 84.0332 110.021 190.181 113.802 295.415c1.95312 54.5176 -11.3076 106.468 -54.6641 142.443c-41.0498 34.0625 -95.501 51.7305 -146.651 63.665c-122.803 28.6426 -237.505 5.69434 -352.54 -39.4688
c-0.0869141 0.306641 -0.173828 0.606445 -0.253906 0.913086c-57.6377 -12.9609 -101.614 68.832 -42.5703 100.654c29.7285 16.0283 61.3779 28.9629 94.2139 38.9971c95.0869 43.457 185.214 99.9678 265.967 165.239c82.0996 66.3584 185.421 154.085 204.969 264.08
c12.2012 68.6387 -28.7686 126.33 -91.1797 151.205c-62.9912 25.1084 -133.823 11.6807 -195.888 -9.53418c-195.854 -66.9521 -395.982 -259.127 -385.075 -479.823z" />
    <glyph glyph-name="four" unicode="4" horiz-adv-x="1074" 
d="M72.4141 191.479c-16.3545 5.4873 -29.8926 27.2568 -17.7451 43.6445c39.9834 53.9443 97.1543 89.3799 157.893 116.148c42.543 18.748 85.9727 35.416 130.003 50.3301c50.5439 64.085 92.834 135.457 128.257 208.669
c83.1865 171.933 124.443 362.387 121.97 553.201c-0.266602 20.5547 31.5762 20.4951 31.876 0c3.10059 -210.002 -46.1436 -419.098 -143.271 -605.405c-24.7148 -47.4033 -52.3965 -94.4404 -83.665 -138.784c7.14062 2.16016 14.2881 4.31348 21.4551 6.40039
c74.4053 21.6348 150.038 38.9424 226.104 53.6436c61.6982 11.9277 123.943 21.6221 186.688 21.9951c-1.66699 181.874 4.48633 363.761 12.6133 545.441c3.06738 68.6318 110.075 68.7451 106.882 0c-9.91406 -213.623 -17.2617 -427.519 -12.1611 -641.381
c4.7666 -199.868 9.99414 -407.257 81.8926 -596.298c9.86719 -25.9424 -10.9941 -55.7783 -35.5762 -62.665c-28.4219 -7.96094 -52.7373 10.04 -62.665 35.5752c-74.7324 192.274 -83.4062 406.204 -89.1064 610.173
c-0.433594 15.3408 -0.65332 30.6885 -0.953125 46.0293c-127.249 0.207031 -257.938 -34.582 -378.728 -68.6113c-44.0303 -12.4072 -87.7803 -26.2148 -130.804 -41.9424c-5.60742 -5.94043 -11.2676 -11.8145 -17.0684 -17.542
c-33.249 -32.8428 -69.7988 -58.8848 -109.708 -82.8994c-36.2158 -21.7881 -80.4658 -50.4033 -124.183 -35.7227zM233.756 291.301c-29.2959 -13.3145 -57.1318 -28.0693 -82.5137 -46.5508c30.8027 10.3076 62.8584 31.9297 79.9668 44.5908
c0.860352 0.639648 1.69336 1.31348 2.54688 1.95996z" />
    <glyph glyph-name="five" unicode="5" horiz-adv-x="1176" 
d="M97.2422 788.591c-29.1953 -17.0742 -63.9111 21.4395 -38.3428 49.4951c32.5088 35.7031 76.0449 63.1787 116.055 89.7402c41.4697 27.5283 85.1133 51.9697 129.49 74.4785c88.4668 44.8701 181.414 81.5391 276.835 108.675
c98.0078 27.875 201.636 49.3965 303.93 48.7227c78.9395 -0.520508 199.328 -9.81445 235.978 -94.2344c9.1543 -21.082 6.68066 -46.0371 -15.3613 -58.5781c-18.3213 -10.4277 -49.3701 -6.04785 -58.5771 15.3604c-14.7812 34.3623 -54.791 41.1426 -88.373 46.8164
c-44.3096 7.48047 -90.1797 7.05371 -134.85 3.49316c-87.7529 -6.99414 -175.34 -26.876 -259.513 -52.1641c-31.2686 -9.39355 -62.1904 -19.8281 -92.7197 -31.2891c2.21387 -2.95312 3.30762 -6.86719 2.28711 -11.5273
c-23.7021 -107.941 -52.0439 -214.896 -78.8457 -322.111c-19.9814 -79.9131 -42.2432 -163.186 -54.7178 -246.191c45.7705 39.2158 95.0811 75.7051 145.552 105.454c69.8789 41.1826 151.932 65.8779 233.538 57.5176
c148.551 -15.2148 238.777 -143.104 247.358 -285.476c8.9209 -147.931 -54.6836 -298.242 -153.351 -406.443c-47.3232 -51.8975 -106.327 -106.342 -178.173 -117.736c-77.4854 -12.2939 -143.431 32.3428 -172.319 103.188
c-31.3887 76.9922 -33.5352 168.365 -28.041 250.178c6.11426 91.0469 24.2227 180.674 43.5039 269.681c13.0605 60.3047 104.747 34.5557 92.2129 -25.4219c-16.8682 -80.7461 -34.749 -161.858 -41.0166 -244.258c-5.42676 -71.3115 -7.12695 -152.524 20.4814 -219.923
c56.2646 -137.363 223.244 6.8877 275.748 73.7393c79.4463 101.147 125.017 245.218 95.334 372.621c-14.5811 62.5918 -49.9502 122.31 -105.348 156.933c-54.7705 34.2227 -122.096 39.7363 -184.407 27.3887c-64.0312 -12.6943 -122.829 -44.1299 -173.579 -84.5596
c-50.5303 -40.2627 -90.0527 -88.7061 -135.256 -134.156c-17.8281 -17.9277 -56.5312 -5.80664 -53.5908 22.2021c5.65332 53.8037 25.2148 104.728 41.5625 156.005c17.5078 54.9307 33.7227 109.701 48.1836 165.519c28.2617 109.115 55.0166 218.75 86.252 327.058
c-41.2764 -16.4346 -81.7998 -34.7559 -121.402 -55.0371c-39.2432 -20.0879 -77.4258 -42.1162 -115.115 -64.9648c-37.4365 -22.7021 -72.499 -50.3643 -111.402 -70.4062v0.212891z" />
    <glyph glyph-name="six" unicode="6" horiz-adv-x="881" 
d="M107.626 91.0928c-22.2812 -31.4355 -74.2637 -2.12988 -52.3418 30.6055c23.7021 35.4023 50.1504 68.6777 78.9463 99.6934c4.33984 117.535 37.7227 236.037 74.8389 346.579c36.9023 109.895 83.959 217.643 148.344 314.343
c32.4092 48.6836 68.4521 95.8936 108.775 138.316c37.623 39.583 81.4795 82.7461 131.257 106.614c47.9971 23.0146 99.9873 27.6279 147.157 0.539062c35.1357 -20.1816 58.5107 -54.1172 63.7109 -94.2939c2.2666 -17.5479 -27.4424 -21.208 -30.6963 -4.15332
c-10.374 54.3311 -72.1387 53.2705 -112.429 34.7021c-45.3633 -20.8945 -81.0527 -61.5645 -113.035 -98.6807c-67.2119 -78.0127 -119.909 -165.699 -163.713 -258.706c-38.376 -81.4863 -67.0586 -167.453 -90.0605 -254.439
c-9.80762 -37.083 -19.4688 -74.8193 -27.1758 -112.922c19.0811 13.0205 38.7422 25.2617 58.9639 36.6494c111.635 62.8984 249.065 125.217 378.769 82.0674c47.6973 -15.8682 91.7676 -43.8906 110.803 -92.4277c19.1279 -48.7637 11.9541 -105.675 -7.96777 -152.878
c-44.3496 -105.081 -132.75 -196.722 -223.057 -263.88c-90.46 -67.2715 -214.282 -109.821 -318.95 -47.3828c-81.5596 48.6504 -120.089 138.637 -131.903 229.83c-10.4873 -13.1475 -20.5811 -26.5547 -30.2354 -40.1758zM560.734 392.152
c-112.936 -14.7275 -215.517 -66.3584 -302.63 -138.063c-3.0332 -31.3623 -3.86035 -62.8379 -1.40723 -94.2871c5.40723 -69.3789 37.0566 -159.872 108.089 -186.774c85.8535 -32.5088 181.961 32.916 243.639 86.627c63.3184 55.1445 146.364 136.591 157.778 224.184
c14.1211 108.401 -130.883 118.042 -205.469 108.314z" />
    <glyph glyph-name="seven" unicode="7" horiz-adv-x="886" 
d="M376.785 1126.62c-54.4971 -24.1416 -106.168 -54.7959 -153.838 -90.5586c-46.4033 -34.7959 -107.574 -79.0596 -131.562 -133.624c-8.9209 -20.2812 -42.6035 -9.89355 -41.3496 11.2012c4.33398 72.7988 75.6396 128.097 129.023 170.16
c58.6777 46.2305 123.402 84.7402 192.601 113.016c63.625 25.9951 138.117 42.5762 204.662 17.1074c55.1504 -21.1152 94.2402 -66.1523 117.722 -119.276c55.8838 -126.437 43.3232 -281.182 31.8428 -415.212c-7.46094 -87.1133 -18.4619 -173.753 -30.9033 -260.206
c30.709 9.49414 61.5977 18.1611 93.127 23.6084c48.5234 8.3877 69.0518 -65.9248 20.4346 -74.1318c-42.8428 -7.2334 -84.3857 -19.5547 -125.829 -32.0488c-31.3291 -205.035 -67.5117 -409.431 -82.0059 -616.706c-4.67383 -66.8916 -109.715 -66.8115 -104.381 0
c12.8672 161.219 42.3896 320.684 72.8789 479.335c7.14062 37.1562 14.3613 74.2988 21.502 111.462c-34.5889 -8.30762 -69.7051 -14.3018 -106.015 -15.1484c-47.6436 -1.11328 -47.2568 71.9189 0 73.7588c41.5361 1.61328 81.6328 10.7207 121.296 22.1885
c14.041 75.5654 27.1816 151.284 37.8359 227.41c18.335 131.05 37.1494 275.061 2.0332 404.95c-12.3145 45.5371 -34.583 94.541 -77.7793 118.316c-59.5781 32.7822 -133.424 10.0273 -191.295 -15.6016z" />
    <glyph glyph-name="eight" unicode="8" horiz-adv-x="857" 
d="M787.206 893.386c-12.6875 -75.792 -29.7559 -150.627 -49.4707 -224.866c-29.4688 -110.868 -62.5244 -220.729 -93.1338 -331.277c25.5283 -42.7363 45.543 -88.5664 57.5371 -137.523c29.9287 -122.156 8.62012 -254.079 -72.126 -352.427
c-38.6094 -47.0234 -92.793 -90.5596 -154.704 -99.2197c-57.8975 -8.09375 -112.321 20.8213 -147.684 65.5518c-86.5801 109.508 -48.3906 282.354 -12.0283 404.057c21.1484 70.792 47.2637 140.457 83.54 205.002c3.90723 6.9541 8.14746 14.6348 12.7549 22.5352
c-39.4492 28.1953 -79.4658 55.4111 -117.648 83.54c-110.068 81.0791 -246.599 180.213 -244.212 332.244c2.17383 138.33 103.541 267.547 208.449 348.786c97.2539 75.3193 227.337 139.364 353.633 124.956c56.6904 -6.4668 110.562 -30.6953 146.011 -76.6191
c34.5361 -44.7363 45.3701 -103.107 48.2705 -158.371c3.61328 -68.7646 -7.86719 -138.757 -19.1885 -206.368zM679.711 71.7412c2.49316 64.585 -22.5264 125.431 -58.5957 178.034c-2.79395 -10.7344 -5.63379 -21.4551 -8.34766 -32.2158
c-10.541 -41.8096 -74.6992 -24.002 -64.4922 17.7812c6.43359 26.3623 13.2939 52.6045 20.3945 78.7861c-35.7891 37.9492 -76.3057 71.5254 -118.502 103.121c-10.0811 -19.1484 -18.1621 -37.1768 -22.3154 -45.0977
c-19.8613 -37.8428 -37.8164 -76.4189 -52.6709 -116.528c-28.2285 -76.2119 -44.416 -157.618 -51.3164 -238.511c-6.74707 -79.0596 2.68652 -176.207 80.0459 -219.317c78.5654 -43.7832 164.625 25.9219 209.802 87.333c39.623 53.8643 63.418 119.709 65.998 186.614z
M595.253 408.107c34.6562 118.315 72.5225 235.748 103.972 354.977c22.1553 83.9932 42.6172 168.8 54.1113 255.006c9.4541 70.8721 14.4482 157.512 -42.5361 210.929c-95.9336 89.9199 -263.886 -4.31348 -345.285 -70.6982
c-50.6572 -41.3027 -95.9473 -90.5527 -130.456 -146.13c-31.9756 -51.4971 -66.0186 -114.521 -56.124 -177.46c10.2412 -65.1445 72.5127 -117.128 118.796 -158.331c56.6514 -50.4307 117.449 -96.0137 175.514 -144.764
c5.00684 -4.20703 9.9668 -8.52051 14.9209 -12.8408c10.8809 2.06055 22.6748 0.994141 35.4961 -4.44629c13.7275 -5.83398 10.9941 -21.8018 1.67383 -29.6895c24.8086 -24.002 48.3633 -49.5234 69.918 -76.5518z" />
    <glyph glyph-name="nine" unicode="9" horiz-adv-x="1022" 
d="M838.108 165.138c21.1152 81.3857 36.0664 164.448 47.0605 247.774c18.7549 142.058 24.3818 289.755 -9.02734 430.059c-7.9873 33.543 -15.5684 73.7529 -33.3301 103.742c-18.8281 31.7822 -46.0498 3.71387 -64.3311 -15.4746
c-41.8301 -43.8965 -78.4795 -92.8799 -113.495 -142.277c-69.1787 -97.5938 -131.823 -199.682 -205.522 -294.062c-35.6562 -45.6631 -72.8262 -90.0859 -115.136 -129.802c-41.8369 -39.2627 -94.1943 -92.6396 -151.192 -107.434
c-62.7178 -16.2744 -117.148 27.9756 -134.097 86.1533c-18.1543 62.3379 -5.84668 135.33 9.68066 196.854c33.0088 130.776 103.561 256.459 182.807 364.721c74.8721 102.281 171.492 202.422 292.354 248.726c60.6846 23.248 126.143 24.1748 179.826 -15.4551
c34.7158 -25.6289 63.4717 -65.6318 67.7783 -109.155c21.7881 8.54688 45.2363 9.92676 69.4385 -1.83398c55.2842 -26.8691 70.0449 -106.002 82.8457 -159.819c33.082 -139.023 32.6416 -283.208 20.2207 -424.745
c-12.7939 -145.777 -35.0156 -293.281 -82.1992 -432.225c-34.0957 -100.4 -125.729 -282.534 -260.986 -212.855c-55.3105 28.502 -84.5527 88.3799 -104.98 144.145c-24.2354 66.1514 -34.8691 137.537 -33.5889 207.843c0.986328 54.3174 84.5059 54.3438 84.3789 0
c-0.179688 -77.5996 15.4414 -159.312 55.9912 -226.551c11.6943 -19.3877 30.7354 -46.4629 56.3242 -45.0557c31.5957 1.7334 58.0244 39.8164 73.3789 63.4053c43.3369 66.585 66.0322 147.138 85.8008 223.323zM709.401 964.84
c14.6279 16.2676 32.0889 34.0303 51.5439 47.7646c-0.393555 1.38672 -0.680664 2.86035 -0.700195 4.51367c-1.25391 97.3672 -114.636 86.0264 -176.394 57.1172c-65.0186 -30.4355 -119.282 -78.459 -167.253 -131.13
c-48.5898 -53.3506 -89.4199 -112.361 -125.636 -174.699c-38.2959 -65.918 -75.3252 -133.97 -99.8535 -206.361c-18.6143 -54.9443 -39.8496 -126.323 -25.3818 -184.521c1.65332 -6.64746 4.20703 -18.5283 10.1143 -23.1152
c-2.2334 2.83984 13.5342 3.83984 20.4609 7.00684c24.6016 11.2275 49.25 29.6484 70.1387 46.6768c92.2734 75.2119 162.612 171.099 229.61 268.459c67.7451 98.4336 133.264 199.194 213.35 288.288z" />
    <glyph glyph-name="colon" unicode=":" horiz-adv-x="186" 
d="M135.651 744.774c2.50684 -38.9492 -62.5576 -39.124 -60.6309 -0.000976562c1.33984 27.209 -0.0673828 57.8379 8.47363 83.9336c6.93359 21.1553 35.3887 20.6416 42.4961 0c8.94043 -25.9688 7.90723 -56.7441 9.66113 -83.9326zM130.544 186.358
c0.373047 -1.91309 0.743164 -3.81836 1.10938 -5.73828c1.98047 -7.36719 1.98047 -14.7344 0 -22.0947c-1.98047 -7.04102 -5.54102 -13.1553 -10.6943 -18.3428c-7.53418 -7.54102 -18.7285 -12.1748 -29.3896 -12.1748c-11.2607 0 -21.2549 4.70703 -29.3887 12.1738
c-5.15332 5.18066 -8.7207 11.2949 -10.6943 18.3418c-1.98047 7.36035 -1.98047 14.7275 0 22.0947c0.373047 1.91309 0.740234 3.82031 1.10645 5.7334c1.24707 5.26074 3.66016 9.84766 7.2334 13.748c2.85352 4.40723 6.62695 7.87402 11.3408 10.4141
c6.35352 3.36035 13.2275 5.2002 20.4014 5.52051c8.85352 0.393555 17.6738 -3.41309 24.4873 -8.67969c4.40723 -2.84668 7.87402 -6.62695 10.4141 -11.3408c1.35352 -3.21387 2.71387 -6.43457 4.07422 -9.65527z" />
    <glyph glyph-name="semicolon" unicode=";" horiz-adv-x="319" 
d="M227.236 714.159c-19.3818 0 -41.4775 18.0732 -39.0703 39.0547c3.42676 29.7891 4.98047 59.8584 6.21387 89.8076c1.47363 35.9629 59.3516 47.4434 65.5918 8.88086c5.34082 -32.9824 7.30078 -65.2852 6.32715 -98.6807
c-0.613281 -21.168 -17.3809 -39.0625 -39.0625 -39.0625zM200.32 255.357c11.168 44.25 75.7041 25.0693 67.4971 -18.6143c-31.9824 -170.326 -74.3652 -338.992 -136.59 -500.944c-18.5352 -48.2568 -95.3271 -29.2021 -78.9521 21.7686
c52.9639 164.872 105.635 329.798 148.045 497.79z" />
    <glyph glyph-name="less" unicode="&#x3c;" horiz-adv-x="818" 
d="M722.908 256.719c49.5439 -2.54004 64.3076 -78.1787 12.1436 -89.6328c-119.662 -26.2617 -249.512 -18.5879 -370.834 -7.62695c-89.9668 8.12695 -212.276 8.75391 -278.281 80.7725c-74.9727 81.793 -20.6221 178.273 53.3633 236.118
c81.9258 64.0586 168.105 124.083 256.999 178.08c87.3066 53.0303 177.634 107.641 276.948 134.276c25.9883 6.9668 51.1035 -29.1025 27.9756 -48.0576c-87.0068 -71.3057 -187.441 -125.463 -280.769 -188.067c-45.7432 -30.6826 -90.7334 -62.4785 -134.837 -95.4814
c-38.4365 -28.7559 -85.1465 -57.7783 -114.829 -96.1611c-30.2158 -39.0693 2.90625 -61.8242 41.6758 -72.665c48.8232 -13.6475 101.474 -17.9541 151.744 -22.8076c119.876 -11.5742 238.991 -2.62695 358.7 -8.74707z" />
    <glyph glyph-name="equal" unicode="=" horiz-adv-x="652" 
d="M563.492 616.771c51.3574 5.95996 51.2373 -75.2012 0 -80.6348c-87.3936 -9.26758 -174.94 -14.2676 -262.834 -14.501c-44.7695 -0.113281 -89.6865 0.306641 -134.35 3.54688c-32.0762 2.33398 -74.2725 -5.29297 -99.4072 17.6357
c-6.46094 5.89355 -7.24121 16.5547 -3.08105 23.8623c19.0547 33.4824 68.9121 28.6621 102.488 29.376c42.6367 0.90625 85.2803 -0.0869141 127.924 1.08008c89.96 2.45996 179.873 9.26074 269.26 19.6348zM529.123 432.963
c46.9834 2.04688 47.1719 -72.9521 0.00195312 -73.1318c-153.191 -0.566406 -311.804 -10.4541 -462.429 -39.4893c-16.875 -3.25391 -23.8223 20.7412 -7.14746 25.915c77.332 23.9951 152.971 48.1836 233.104 61.6846c78.1592 13.1738 157.305 21.5742 236.471 25.0215z
" />
    <glyph glyph-name="greater" unicode="&#x3e;" horiz-adv-x="800" 
d="M720.586 472.241c37.2764 -37.0225 39.5186 -92.8467 1.12891 -129.743c-36.5098 -35.0889 -96.4678 -48.6367 -142.725 -65.9248c-116.002 -43.3633 -233.564 -81.166 -353.587 -111.688c-65.2246 -16.5811 -92.6602 83.4326 -27.749 100.654
c100.841 26.7549 201.401 55.5107 300.596 87.8662c46.917 15.3008 95.9336 29.248 141.197 49.0166c3.68652 1.61328 7.13379 3.75391 10.5674 5.80078c-0.853516 0.65332 -1.64648 1.37305 -2.55957 1.95312c-18.1279 5.67383 -38.5498 22.415 -55.8047 31.0293
c-166.039 82.9463 -352.72 113.362 -518.419 197.962c-52.7773 26.9482 -6.24023 105.914 46.377 79.332c99.1611 -50.0908 206.162 -80.2061 311.396 -114.488c51.0576 -16.6348 101.675 -34.4424 151.151 -55.3574c46.2031 -19.5352 102.207 -40.4365 138.43 -76.4121z
" />
    <glyph glyph-name="question" unicode="?" horiz-adv-x="1153" 
d="M1098.49 1634.86c16.4209 -142.091 -12.7891 -289.421 -46.9854 -426.805c-35.2959 -141.817 -79.2061 -281.281 -123.59 -420.465c-89.5195 -280.721 -182.467 -561.955 -232.337 -853.063c-5.67383 -33.1162 -46.3633 -51.3906 -76.1191 -43.2168
c-33.7295 9.26758 -49.917 43.4102 -43.2168 76.1191c60.2578 294.176 168.02 574.271 271.801 855.118c46.3232 125.35 92.1533 251.065 132.91 378.354c41.5361 129.736 77.9922 264.866 77.9922 402.083c0 61.0645 -9.35449 125.482 -51.7578 172.612
c-40.21 44.6963 -101.555 65.3916 -160.513 66.4912c-118.035 2.2002 -236.864 -60.4443 -332.364 -124.996c-177.293 -119.829 -312.723 -300.916 -381.354 -503.291c-64.2783 -189.548 -109.861 -522.732 112.202 -628.34
c18.1943 -8.64746 2.2998 -35.4824 -15.7744 -26.9814c-128.517 60.4512 -174.72 204.108 -178.946 336.725c-4.10059 128.756 20.6348 258.639 67.8984 378.254c82.5732 208.956 233.444 391.456 427.459 505.938c103.388 61.0049 228.997 116.216 351.42 93.9346
c123.529 -22.4814 187.534 -119.568 201.275 -238.471zM624.802 -228.931c23.7754 -18.0479 27.248 -41.9307 27.248 -70.666c-0.0136719 -24.7148 -3.84082 -49.6504 -10.3408 -73.459c-14.208 -52.0234 -95.8076 -29.5752 -80.7666 22.2617
c4.91992 16.9746 8.05371 33.4893 8.34082 51.1904c0.327148 20.208 -4.21973 40.583 8.05469 58.2246c9.64062 13.8545 31.7227 24.3955 47.4639 12.4482z" />
    <glyph glyph-name="at" unicode="@" horiz-adv-x="1548" 
d="M1338.19 1418.74c274.62 -264.7 150.973 -744.18 -39.0684 -1020.7c-51.4102 -74.8193 -113.422 -150.372 -191.228 -198.956c-73.8857 -46.1367 -174.547 -62.1709 -250.479 -11.1475c-67.7051 45.4971 -91.0869 126.837 -98.2539 203.949
c-3.95996 42.5898 -4.16016 85.7461 -1.62695 128.85c-5.18066 -7.58691 -10.3682 -15.167 -15.5557 -22.7539c-32.2627 -47.1768 -62.3447 -97.0273 -98.3145 -141.497c-27.1484 -33.5693 -73.0117 -70.0518 -118.168 -48.8965
c-46.5303 21.7949 -39.6367 79.2256 -30.4697 120.162c21.6221 96.5342 80.2266 191.814 162.566 248.365c36.1094 24.7949 83.9795 39.1631 126.896 25.3818c26.2354 37.2363 81.6865 13.5215 72.7988 -31.2354c-22.5283 -113.476 -78.9258 -459.441 129.616 -434.626
c88.6934 10.5537 158.686 90.0264 211.189 155.591c56.4238 70.459 101.654 150.765 136.471 233.911c64.8311 154.818 108.314 335.738 73.999 503.084c-31.0488 151.404 -126.822 279.761 -274.727 332.432c-160.646 57.2109 -339.353 2.49316 -477.276 -87.0732
c-128.203 -83.2529 -238.818 -195.941 -324.198 -322.411c-171.173 -253.553 -282.875 -610.68 -159.112 -907.042c55.1641 -132.104 165.053 -247.926 305.05 -287.749c166.339 -47.3105 341.632 13.6406 487.736 92.9932
c43.5303 23.6416 82.293 -42.7637 38.8027 -66.3857c-183.653 -99.7412 -406.39 -165.593 -607.658 -77.2324c-176.84 77.6328 -294.229 253.973 -330.878 439.64c-69.1055 350.086 89.0264 728.221 333.151 976.506c121.096 123.156 274.854 234.024 441.119 285.528
c169.779 52.5977 364.74 39.3896 497.617 -88.6865zM649.763 506.313c32.0762 46.4697 64.1514 92.9473 96.2207 139.431c-3.54004 -0.879883 -6.9873 -1.9668 -10.2412 -3.35352c-29.9893 -12.748 -56.1514 -39.8965 -77.3594 -63.9648
c-42.5898 -48.3369 -71.8516 -109.375 -85.2656 -172.213c-0.299805 -1.38672 -0.493164 -2.97363 -0.666992 -4.62695c6.52051 5.80664 12.2812 11.0605 13.3281 12.4141c22.8213 29.502 42.7959 61.6182 63.9844 92.3135z" />
    <glyph glyph-name="A" unicode="A" horiz-adv-x="2054" 
d="M1825.15 129.078c60.6914 -239.831 135.357 -488.385 282.229 -690.967c24.248 -33.4492 -34.1826 -69.0781 -56.1309 -32.8086c-139.804 231.037 -222.396 482.556 -284.234 744.129c-60.1445 254.419 -106.568 511.838 -159.359 767.83
c-26.5488 128.75 -55.1641 256.926 -87.873 384.262c-29.2559 113.889 -55.1113 234.345 -104.702 341.539c-21.5684 46.6172 -50.3174 88.0205 -86.5 118.529c2.71387 -11.8945 1.36719 -25.1758 -5.98633 -38.7832c-91.2266 -168.739 -177.653 -340.039 -259.213 -513.652
c-125.136 -266.373 -237.718 -537.54 -339.158 -812.728c23.4619 5.45996 46.9238 10.9199 70.4189 16.2266c122.249 27.6289 245.012 53.0439 368.487 74.5918c63.1514 11.0205 126.51 21.3076 190.067 29.7285c53.917 7.14746 107.301 8.68066 155.691 -20.0615
c42.8965 -25.4814 3.7666 -92.6201 -39.1162 -66.9248c-46.3369 27.7754 -108.175 11.4004 -158.299 4.06641c-59.8779 -8.76074 -119.603 -18.5811 -179.167 -29.248c-117.035 -20.9619 -233.464 -45.21 -349.452 -71.3115
c-29.6553 -6.67383 -59.3037 -13.4141 -88.9395 -20.2148c-124.482 -346.346 -231.557 -698.919 -323.811 -1056.25c-17.7617 -68.7852 -122.123 -39.5293 -106.082 29.2422c44.5166 190.787 97.7734 379.548 155.378 566.782
c44.3164 144.044 91.833 287.161 142.15 429.325c-77.6924 -18.3877 -155.271 -37.2627 -232.704 -56.7041c5.42676 -8.52051 3.89355 -21.3477 -8.70703 -23.9883c-76.9395 -16.1211 -155.665 -19.8281 -231.924 -38.4297
c-31.5957 -7.70703 -54.8506 40.623 -22.9746 54.4912c115.476 50.25 241.725 76.5322 363.514 106.975c54.0176 13.501 108.082 26.8555 162.192 39.9961c176.573 486.323 388.162 960.299 633.947 1415.18c6.9209 12.8076 16.375 20.7148 26.7627 24.7549
c-26.3086 8.39355 -55.1445 12.0068 -86.6006 9.65332c-121.989 -9.12695 -223.391 -93.5195 -306.99 -175.859c-166.679 -164.159 -282.094 -371.262 -387.175 -578.044c-9.12109 -17.9609 -36.0498 -2.12012 -26.9824 15.7744
c121.496 239.831 259.206 484.183 470.822 656.608c85.9268 70.0117 191.262 126.996 305.703 112.575c101.461 -12.7881 172.966 -84.2666 216.869 -172.58c52.2705 -105.142 78.6523 -224.431 108.262 -337.359c34.9492 -133.264 66.2246 -267.573 96.7471 -401.917
c60.9111 -268.12 115.375 -537.827 182.84 -804.427z" />
    <glyph glyph-name="A" unicode="&#xc5;" horiz-adv-x="2054" 
d="M1825.15 129.078c60.6914 -239.831 135.357 -488.385 282.229 -690.967c24.248 -33.4492 -34.1826 -69.0781 -56.1309 -32.8086c-139.804 231.037 -222.396 482.556 -284.234 744.129c-60.1445 254.419 -106.568 511.838 -159.359 767.83
c-26.5488 128.75 -55.1641 256.926 -87.873 384.262c-29.2559 113.889 -55.1113 234.345 -104.702 341.539c-21.5684 46.6172 -50.3174 88.0205 -86.5 118.529c2.71387 -11.8945 1.36719 -25.1758 -5.98633 -38.7832c-91.2266 -168.739 -177.653 -340.039 -259.213 -513.652
c-125.136 -266.373 -237.718 -537.54 -339.158 -812.728c23.4619 5.45996 46.9238 10.9199 70.4189 16.2266c122.249 27.6289 245.012 53.0439 368.487 74.5918c63.1514 11.0205 126.51 21.3076 190.067 29.7285c53.917 7.14746 107.301 8.68066 155.691 -20.0615
c42.8965 -25.4814 3.7666 -92.6201 -39.1162 -66.9248c-46.3369 27.7754 -108.175 11.4004 -158.299 4.06641c-59.8779 -8.76074 -119.603 -18.5811 -179.167 -29.248c-117.035 -20.9619 -233.464 -45.21 -349.452 -71.3115
c-29.6553 -6.67383 -59.3037 -13.4141 -88.9395 -20.2148c-124.482 -346.346 -231.557 -698.919 -323.811 -1056.25c-17.7617 -68.7852 -122.123 -39.5293 -106.082 29.2422c44.5166 190.787 97.7734 379.548 155.378 566.782
c44.3164 144.044 91.833 287.161 142.15 429.325c-77.6924 -18.3877 -155.271 -37.2627 -232.704 -56.7041c5.42676 -8.52051 3.89355 -21.3477 -8.70703 -23.9883c-76.9395 -16.1211 -155.665 -19.8281 -231.924 -38.4297
c-31.5957 -7.70703 -54.8506 40.623 -22.9746 54.4912c115.476 50.25 241.725 76.5322 363.514 106.975c54.0176 13.501 108.082 26.8555 162.192 39.9961c176.573 486.323 388.162 960.299 633.947 1415.18c6.9209 12.8076 16.375 20.7148 26.7627 24.7549
c-26.3086 8.39355 -55.1445 12.0068 -86.6006 9.65332c-121.989 -9.12695 -223.391 -93.5195 -306.99 -175.859c-166.679 -164.159 -282.094 -371.262 -387.175 -578.044c-9.12109 -17.9609 -36.0498 -2.12012 -26.9824 15.7744
c121.496 239.831 259.206 484.183 470.822 656.608c85.9268 70.0117 191.262 126.996 305.703 112.575c101.461 -12.7881 172.966 -84.2666 216.869 -172.58c52.2705 -105.142 78.6523 -224.431 108.262 -337.359c34.9492 -133.264 66.2246 -267.573 96.7471 -401.917
c60.9111 -268.12 115.375 -537.827 182.84 -804.427z" />
    <glyph glyph-name="A" unicode="&#xc4;" horiz-adv-x="2054" 
d="M1825.15 129.078c60.6914 -239.831 135.357 -488.385 282.229 -690.967c24.248 -33.4492 -34.1826 -69.0781 -56.1309 -32.8086c-139.804 231.037 -222.396 482.556 -284.234 744.129c-60.1445 254.419 -106.568 511.838 -159.359 767.83
c-26.5488 128.75 -55.1641 256.926 -87.873 384.262c-29.2559 113.889 -55.1113 234.345 -104.702 341.539c-21.5684 46.6172 -50.3174 88.0205 -86.5 118.529c2.71387 -11.8945 1.36719 -25.1758 -5.98633 -38.7832c-91.2266 -168.739 -177.653 -340.039 -259.213 -513.652
c-125.136 -266.373 -237.718 -537.54 -339.158 -812.728c23.4619 5.45996 46.9238 10.9199 70.4189 16.2266c122.249 27.6289 245.012 53.0439 368.487 74.5918c63.1514 11.0205 126.51 21.3076 190.067 29.7285c53.917 7.14746 107.301 8.68066 155.691 -20.0615
c42.8965 -25.4814 3.7666 -92.6201 -39.1162 -66.9248c-46.3369 27.7754 -108.175 11.4004 -158.299 4.06641c-59.8779 -8.76074 -119.603 -18.5811 -179.167 -29.248c-117.035 -20.9619 -233.464 -45.21 -349.452 -71.3115
c-29.6553 -6.67383 -59.3037 -13.4141 -88.9395 -20.2148c-124.482 -346.346 -231.557 -698.919 -323.811 -1056.25c-17.7617 -68.7852 -122.123 -39.5293 -106.082 29.2422c44.5166 190.787 97.7734 379.548 155.378 566.782
c44.3164 144.044 91.833 287.161 142.15 429.325c-77.6924 -18.3877 -155.271 -37.2627 -232.704 -56.7041c5.42676 -8.52051 3.89355 -21.3477 -8.70703 -23.9883c-76.9395 -16.1211 -155.665 -19.8281 -231.924 -38.4297
c-31.5957 -7.70703 -54.8506 40.623 -22.9746 54.4912c115.476 50.25 241.725 76.5322 363.514 106.975c54.0176 13.501 108.082 26.8555 162.192 39.9961c176.573 486.323 388.162 960.299 633.947 1415.18c6.9209 12.8076 16.375 20.7148 26.7627 24.7549
c-26.3086 8.39355 -55.1445 12.0068 -86.6006 9.65332c-121.989 -9.12695 -223.391 -93.5195 -306.99 -175.859c-166.679 -164.159 -282.094 -371.262 -387.175 -578.044c-9.12109 -17.9609 -36.0498 -2.12012 -26.9824 15.7744
c121.496 239.831 259.206 484.183 470.822 656.608c85.9268 70.0117 191.262 126.996 305.703 112.575c101.461 -12.7881 172.966 -84.2666 216.869 -172.58c52.2705 -105.142 78.6523 -224.431 108.262 -337.359c34.9492 -133.264 66.2246 -267.573 96.7471 -401.917
c60.9111 -268.12 115.375 -537.827 182.84 -804.427z" />
    <glyph glyph-name="A" unicode="&#xc3;" horiz-adv-x="2054" 
d="M1825.15 129.078c60.6914 -239.831 135.357 -488.385 282.229 -690.967c24.248 -33.4492 -34.1826 -69.0781 -56.1309 -32.8086c-139.804 231.037 -222.396 482.556 -284.234 744.129c-60.1445 254.419 -106.568 511.838 -159.359 767.83
c-26.5488 128.75 -55.1641 256.926 -87.873 384.262c-29.2559 113.889 -55.1113 234.345 -104.702 341.539c-21.5684 46.6172 -50.3174 88.0205 -86.5 118.529c2.71387 -11.8945 1.36719 -25.1758 -5.98633 -38.7832c-91.2266 -168.739 -177.653 -340.039 -259.213 -513.652
c-125.136 -266.373 -237.718 -537.54 -339.158 -812.728c23.4619 5.45996 46.9238 10.9199 70.4189 16.2266c122.249 27.6289 245.012 53.0439 368.487 74.5918c63.1514 11.0205 126.51 21.3076 190.067 29.7285c53.917 7.14746 107.301 8.68066 155.691 -20.0615
c42.8965 -25.4814 3.7666 -92.6201 -39.1162 -66.9248c-46.3369 27.7754 -108.175 11.4004 -158.299 4.06641c-59.8779 -8.76074 -119.603 -18.5811 -179.167 -29.248c-117.035 -20.9619 -233.464 -45.21 -349.452 -71.3115
c-29.6553 -6.67383 -59.3037 -13.4141 -88.9395 -20.2148c-124.482 -346.346 -231.557 -698.919 -323.811 -1056.25c-17.7617 -68.7852 -122.123 -39.5293 -106.082 29.2422c44.5166 190.787 97.7734 379.548 155.378 566.782
c44.3164 144.044 91.833 287.161 142.15 429.325c-77.6924 -18.3877 -155.271 -37.2627 -232.704 -56.7041c5.42676 -8.52051 3.89355 -21.3477 -8.70703 -23.9883c-76.9395 -16.1211 -155.665 -19.8281 -231.924 -38.4297
c-31.5957 -7.70703 -54.8506 40.623 -22.9746 54.4912c115.476 50.25 241.725 76.5322 363.514 106.975c54.0176 13.501 108.082 26.8555 162.192 39.9961c176.573 486.323 388.162 960.299 633.947 1415.18c6.9209 12.8076 16.375 20.7148 26.7627 24.7549
c-26.3086 8.39355 -55.1445 12.0068 -86.6006 9.65332c-121.989 -9.12695 -223.391 -93.5195 -306.99 -175.859c-166.679 -164.159 -282.094 -371.262 -387.175 -578.044c-9.12109 -17.9609 -36.0498 -2.12012 -26.9824 15.7744
c121.496 239.831 259.206 484.183 470.822 656.608c85.9268 70.0117 191.262 126.996 305.703 112.575c101.461 -12.7881 172.966 -84.2666 216.869 -172.58c52.2705 -105.142 78.6523 -224.431 108.262 -337.359c34.9492 -133.264 66.2246 -267.573 96.7471 -401.917
c60.9111 -268.12 115.375 -537.827 182.84 -804.427z" />
    <glyph glyph-name="A" unicode="&#xc2;" horiz-adv-x="2054" 
d="M1825.15 129.078c60.6914 -239.831 135.357 -488.385 282.229 -690.967c24.248 -33.4492 -34.1826 -69.0781 -56.1309 -32.8086c-139.804 231.037 -222.396 482.556 -284.234 744.129c-60.1445 254.419 -106.568 511.838 -159.359 767.83
c-26.5488 128.75 -55.1641 256.926 -87.873 384.262c-29.2559 113.889 -55.1113 234.345 -104.702 341.539c-21.5684 46.6172 -50.3174 88.0205 -86.5 118.529c2.71387 -11.8945 1.36719 -25.1758 -5.98633 -38.7832c-91.2266 -168.739 -177.653 -340.039 -259.213 -513.652
c-125.136 -266.373 -237.718 -537.54 -339.158 -812.728c23.4619 5.45996 46.9238 10.9199 70.4189 16.2266c122.249 27.6289 245.012 53.0439 368.487 74.5918c63.1514 11.0205 126.51 21.3076 190.067 29.7285c53.917 7.14746 107.301 8.68066 155.691 -20.0615
c42.8965 -25.4814 3.7666 -92.6201 -39.1162 -66.9248c-46.3369 27.7754 -108.175 11.4004 -158.299 4.06641c-59.8779 -8.76074 -119.603 -18.5811 -179.167 -29.248c-117.035 -20.9619 -233.464 -45.21 -349.452 -71.3115
c-29.6553 -6.67383 -59.3037 -13.4141 -88.9395 -20.2148c-124.482 -346.346 -231.557 -698.919 -323.811 -1056.25c-17.7617 -68.7852 -122.123 -39.5293 -106.082 29.2422c44.5166 190.787 97.7734 379.548 155.378 566.782
c44.3164 144.044 91.833 287.161 142.15 429.325c-77.6924 -18.3877 -155.271 -37.2627 -232.704 -56.7041c5.42676 -8.52051 3.89355 -21.3477 -8.70703 -23.9883c-76.9395 -16.1211 -155.665 -19.8281 -231.924 -38.4297
c-31.5957 -7.70703 -54.8506 40.623 -22.9746 54.4912c115.476 50.25 241.725 76.5322 363.514 106.975c54.0176 13.501 108.082 26.8555 162.192 39.9961c176.573 486.323 388.162 960.299 633.947 1415.18c6.9209 12.8076 16.375 20.7148 26.7627 24.7549
c-26.3086 8.39355 -55.1445 12.0068 -86.6006 9.65332c-121.989 -9.12695 -223.391 -93.5195 -306.99 -175.859c-166.679 -164.159 -282.094 -371.262 -387.175 -578.044c-9.12109 -17.9609 -36.0498 -2.12012 -26.9824 15.7744
c121.496 239.831 259.206 484.183 470.822 656.608c85.9268 70.0117 191.262 126.996 305.703 112.575c101.461 -12.7881 172.966 -84.2666 216.869 -172.58c52.2705 -105.142 78.6523 -224.431 108.262 -337.359c34.9492 -133.264 66.2246 -267.573 96.7471 -401.917
c60.9111 -268.12 115.375 -537.827 182.84 -804.427z" />
    <glyph glyph-name="A" unicode="&#xc1;" horiz-adv-x="2054" 
d="M1825.15 129.078c60.6914 -239.831 135.357 -488.385 282.229 -690.967c24.248 -33.4492 -34.1826 -69.0781 -56.1309 -32.8086c-139.804 231.037 -222.396 482.556 -284.234 744.129c-60.1445 254.419 -106.568 511.838 -159.359 767.83
c-26.5488 128.75 -55.1641 256.926 -87.873 384.262c-29.2559 113.889 -55.1113 234.345 -104.702 341.539c-21.5684 46.6172 -50.3174 88.0205 -86.5 118.529c2.71387 -11.8945 1.36719 -25.1758 -5.98633 -38.7832c-91.2266 -168.739 -177.653 -340.039 -259.213 -513.652
c-125.136 -266.373 -237.718 -537.54 -339.158 -812.728c23.4619 5.45996 46.9238 10.9199 70.4189 16.2266c122.249 27.6289 245.012 53.0439 368.487 74.5918c63.1514 11.0205 126.51 21.3076 190.067 29.7285c53.917 7.14746 107.301 8.68066 155.691 -20.0615
c42.8965 -25.4814 3.7666 -92.6201 -39.1162 -66.9248c-46.3369 27.7754 -108.175 11.4004 -158.299 4.06641c-59.8779 -8.76074 -119.603 -18.5811 -179.167 -29.248c-117.035 -20.9619 -233.464 -45.21 -349.452 -71.3115
c-29.6553 -6.67383 -59.3037 -13.4141 -88.9395 -20.2148c-124.482 -346.346 -231.557 -698.919 -323.811 -1056.25c-17.7617 -68.7852 -122.123 -39.5293 -106.082 29.2422c44.5166 190.787 97.7734 379.548 155.378 566.782
c44.3164 144.044 91.833 287.161 142.15 429.325c-77.6924 -18.3877 -155.271 -37.2627 -232.704 -56.7041c5.42676 -8.52051 3.89355 -21.3477 -8.70703 -23.9883c-76.9395 -16.1211 -155.665 -19.8281 -231.924 -38.4297
c-31.5957 -7.70703 -54.8506 40.623 -22.9746 54.4912c115.476 50.25 241.725 76.5322 363.514 106.975c54.0176 13.501 108.082 26.8555 162.192 39.9961c176.573 486.323 388.162 960.299 633.947 1415.18c6.9209 12.8076 16.375 20.7148 26.7627 24.7549
c-26.3086 8.39355 -55.1445 12.0068 -86.6006 9.65332c-121.989 -9.12695 -223.391 -93.5195 -306.99 -175.859c-166.679 -164.159 -282.094 -371.262 -387.175 -578.044c-9.12109 -17.9609 -36.0498 -2.12012 -26.9824 15.7744
c121.496 239.831 259.206 484.183 470.822 656.608c85.9268 70.0117 191.262 126.996 305.703 112.575c101.461 -12.7881 172.966 -84.2666 216.869 -172.58c52.2705 -105.142 78.6523 -224.431 108.262 -337.359c34.9492 -133.264 66.2246 -267.573 96.7471 -401.917
c60.9111 -268.12 115.375 -537.827 182.84 -804.427z" />
    <glyph glyph-name="B" unicode="B" horiz-adv-x="1855" 
d="M1729.49 2015.12c61.6045 -19.4219 109.5 -64.9209 121.147 -130.06c13.9541 -78.0391 -14.4951 -158.719 -46.9307 -228.384c-72.8125 -156.372 -203.855 -283.568 -328.312 -399.764c-127.816 -119.336 -265.173 -228.424 -408.123 -329.038
c-129.416 -91.0869 -263.619 -174.62 -401.036 -252.619c-7.02051 -31.9961 -13.7881 -64.0381 -20.1484 -96.167c31.9492 0.827148 63.9385 0.827148 95.9541 -0.392578c156.265 -5.9668 312.616 -37.042 455.334 -100.88c6.40039 16.0879 12.8271 32.1553 19.3008 48.2031
c13.9873 34.6758 70.7979 19.4346 56.6572 -15.6211c-7.78711 -19.3145 -15.5342 -38.6689 -23.2412 -58.0566c17.875 -9.27441 35.5693 -18.9688 52.9102 -29.3828c134.437 -80.7256 251.005 -195.314 322.95 -335.559c69.5918 -135.637 96.3809 -292.082 87.4004 -443.594
c-9.06738 -152.932 -51.6377 -302.376 -124.95 -436.933c-74.9326 -137.53 -183.841 -269.293 -331.459 -330.998c-69.4385 -29.0225 -150.704 -44.2305 -221.883 -11.9551c-57.1514 25.915 -94.4072 77.2451 -115.556 134.856
c-22.9883 62.625 -27.7686 131.311 -27.6221 197.476c0.200195 90.9336 6.52734 181.841 17.7686 272.055c37.9561 304.603 129.876 597.831 238.758 883.893c-16.3076 7.44727 -32.8291 14.4014 -49.5566 20.7949c-152.498 58.2773 -315.617 76.6592 -477.989 69.5918
c-25.0156 -144.944 -44.9971 -290.855 -63.6514 -436.753c0.719727 -7.08691 1.41309 -14.1738 2.15332 -21.2607c3.13379 -29.9561 5.38086 -60.0449 7.75391 -90.0742c2.30664 -29.1289 6.50684 -60.6309 -10.668 -85.9062
c-11.8672 -17.4609 -31.7217 -18.834 -47.6094 -6.13281c-25.2422 20.1748 -29.7295 55.7705 -35.6367 85.8398c-5.85352 29.8018 -11.2275 59.7373 -15.2344 89.8398c-8.28027 62.2451 -15.3945 124.644 -21.2881 187.161
c-7.9873 84.7129 -13.0742 169.646 -15.8809 254.665c-106.975 -15.835 -213.85 -31.2295 -321.431 -15.4414c-56.5508 8.30078 -67.918 102.374 -16.3271 124.949c112.976 49.4502 225.277 100.968 336.232 155.266c4.52051 205.862 22.2617 411.164 51.6641 615.1
c4.43359 30.7627 43.4902 47.3242 70.3525 39.9434c32.2959 -8.87402 44.5098 -39.8428 39.9424 -70.3516c-26.1953 -174.953 -42.4229 -351.406 -49.1162 -528.206c44.377 22.748 88.4736 46.0361 132.264 69.8584c22.0752 87.6865 47.2236 174.613 76.332 260.5
c107.688 317.717 270.447 661.582 564.702 845.923c117.562 73.6455 284.135 141.737 424.072 97.6143zM1429.3 141.53c-63.4512 75.2393 -141.855 137.411 -228.396 184.421c-112.162 -294.902 -206.862 -598.571 -238.731 -913.008
c-8.28027 -81.7666 -13.3877 -164.593 -11.2676 -246.806c1.54004 -59.7178 8.97363 -122.362 36.0752 -176.427c32.6426 -65.125 94.0068 -101.621 167.966 -88.9199c75.9727 13.041 141.258 62.5518 194.288 116.109c189.514 191.381 279.78 497.137 237.271 761.937
c-21.0215 130.923 -71.0186 260.499 -157.205 362.693zM542.744 171.767c0.459961 -6.63379 1 -13.2676 1.49316 -19.8945c13.041 96.4668 27.1553 192.841 43.4502 288.788c-19.2217 -1.43359 -38.4229 -3.35352 -57.6113 -5.60742
c2.16699 -87.8398 6.58105 -175.64 12.668 -263.286zM612.676 577.91c4.94043 25.3223 10.0664 50.6045 15.4004 75.8398c-32.916 -18.3613 -66.0254 -36.376 -99.2744 -54.1504c-0.0869141 -9.19434 -0.160156 -18.3818 -0.193359 -27.5762
c27.9824 2.58691 56.0049 4.58691 84.0674 5.88672zM1765.69 1698.45c41.0166 69.585 84.6201 169.504 23.1553 241.003c-44.4766 51.7373 -122.775 58.5576 -186.24 52.2568c-159.125 -15.7949 -309.296 -106.435 -422.558 -215.176
c-120.636 -115.815 -209.729 -259.979 -282.795 -409.331c-74.4258 -152.138 -131.797 -312.083 -177.327 -475.082c-5.52051 -19.7744 -10.8408 -39.583 -16.0283 -59.4307c118.782 65.8584 235.111 136.023 347.96 211.683
c135.236 90.6738 264.959 189.408 386.515 297.803c117.902 105.142 246.379 218.957 327.318 356.274z" />
    <glyph glyph-name="C" unicode="C" horiz-adv-x="1438" 
d="M1362.21 451.296c4.0332 16.4414 29.2275 9.43457 25.3008 -6.99316c-13.7607 -57.7646 -29.4814 -115.022 -47.5898 -171.587c-71.5049 -223.396 -176.673 -440.293 -315.264 -629.961c-63.625 -87.0732 -135.943 -172.906 -230.03 -228.044
c-93.2139 -54.624 -203.735 -76.832 -309.057 -47.5635c-222.91 61.9443 -341.919 279.761 -388.729 491.07c-53.2969 240.598 -57.8906 492.109 -29.9756 736.281c28.375 248.186 88.666 491.483 175.353 725.647c79.4863 214.709 179.014 448.854 358.728 599.705
c82.8066 69.5049 186.581 126.235 297.996 120.615c107.955 -5.44727 200.575 -69.125 257.026 -159.585c118.836 -190.44 62.9854 -463.027 -36.3818 -649.381c-95.7207 -179.521 -276.714 -358.947 -494.743 -350.6c-86.1797 3.2998 -175.46 57.6309 -134.924 154.785
c39.043 93.5801 133.903 171.673 220.116 219.99c18.2881 10.2471 34.6094 -17.748 16.4082 -28.0625c-43.4502 -24.6221 -83.7803 -54.1377 -118.51 -90.1533c-31.2285 -32.3887 -83.792 -87.0459 -86.5059 -134.67c-2.90039 -50.9639 54.5908 -60.0049 94.0205 -57.7246
c89.4404 5.17383 178.421 50.1309 247.993 104.382c150.031 117.009 246.418 306.716 266.266 494.623c10.4736 99.127 3.43945 205.175 -52.5176 290.774c-47.1035 72.0586 -128.303 115.042 -214.836 98.6211c-188.421 -35.7559 -313.144 -240.958 -393.869 -397.243
c-95.6807 -185.24 -163.612 -387.535 -214.663 -589.283c-52.9443 -209.209 -83.2734 -423.745 -83.8135 -639.728c-0.506836 -201.495 11.874 -424.299 95.6006 -610.76c75.7793 -168.766 241.458 -306.109 435.446 -256.286
c205.662 52.8174 327.751 247.898 426.458 420.665c105.555 184.768 184.087 383.849 234.697 590.464z" />
    <glyph glyph-name="D" unicode="D" horiz-adv-x="2121" 
d="M1738.93 -42.6748c-155.552 -258.739 -369.898 -494.077 -623.11 -659.903c-127.616 -83.5664 -272.841 -151.638 -424.285 -176.746c-149.131 -24.7285 -315.083 -17.8418 -451.013 54.4502c-297.636 158.299 -185.354 537.294 -72.2656 777.905
c97.8535 208.209 235.65 397.41 387.815 571.743c-4.49414 288.542 8.04004 577.097 35.2949 864.991c3.19336 33.749 26.0488 62.5049 62.5049 62.5049c31.1152 0 66.2246 -28.9023 62.5039 -62.5049c-26.9424 -243.245 -39.3369 -488.177 -40.0898 -732.941
c16.2881 17.2217 32.6494 34.3096 49.0703 51.2373c215.529 222.15 455.414 421.078 713.06 592.577c121.149 80.6396 246.432 155.052 375.161 222.937c-62.9385 93.7471 -146.171 173.786 -250.039 231.684c-244.951 136.523 -539.693 134.257 -799.106 41.9697
c-135.403 -48.1641 -261.866 -120.223 -377.388 -205.275c-114.596 -84.3662 -233.298 -182.96 -292.469 -315.677c-10.5479 -23.6621 -50.4775 -6.43457 -41.6973 17.5811c24.1621 66.085 61.4316 123.456 107.882 176.04c101.254 114.622 233.837 209.242 366.2 284.548
c132.036 75.1191 276.181 131.75 426.405 156.632c279.728 46.3369 586.304 -18.7881 797.227 -216.036c45.9238 -42.9561 85.627 -90.7197 119.723 -142.004c57.5439 29.3955 115.715 57.7705 174.799 83.8389c71.5186 31.5557 150.005 58.2979 227.23 30.4287
c49.2568 -17.7744 27.9219 -96.8203 -21.7686 -78.959c-70.3652 25.2949 -141.671 -11.6748 -204.862 -41.1299c-44.7432 -20.8545 -89.0732 -42.5498 -133.036 -64.9512c104.461 -194.821 137.844 -428.825 119.702 -646.975
c-25.7891 -310.13 -133.597 -612.065 -293.448 -877.965zM468.427 -779.85c283.421 -16.3877 555.388 133.266 763.517 313.599c209.002 181.106 380.528 403.057 506.737 648.975c134.323 261.732 230.124 564.389 221.73 860.838
c-4.07324 143.704 -38.7295 285.461 -104.487 409.29c-443.253 -234.378 -844.136 -547.081 -1178.92 -920.709c1.72656 -133.11 6.99316 -266.181 16.0273 -398.997c4.74023 -69.7383 10.4873 -139.403 17.248 -208.976c6.12695 -63.0713 10.1006 -126.456 34.9688 -185.54
c25.7822 -61.2441 -75.499 -100.934 -105.675 -44.5498c-29.8555 55.7773 -36.5361 115.922 -43.2637 177.934c-6.60059 60.8242 -12.4072 121.735 -17.4541 182.707c-9.39355 113.488 -15.8809 227.037 -19.6943 340.605
c-151.231 -183.721 -286.062 -384.343 -366.521 -608.286c-43.2637 -120.409 -80.9795 -260.406 -35.7627 -385.909c46.3232 -128.557 186.5 -173.747 311.55 -180.98z" />
    <glyph glyph-name="E" unicode="E" horiz-adv-x="1649" 
d="M1761.32 -298.014c17.7812 6.86719 25.0234 -21.3574 7.7959 -28.3447c-207.683 -84.0732 -422.085 -148.925 -641.562 -194.055c-191.654 -39.4092 -387.516 -68.6045 -582.783 -81.9189c-78.8857 -5.38086 -186.061 -11.335 -251.879 41.8691
c-80.3262 64.9316 11.8604 155.512 64.6172 202.162c123.416 109.135 278.901 188.221 432.272 251.079c-55.2773 3.63379 -110.262 9.99414 -164.553 19.3818c-194.541 33.6426 -374.421 126.423 -476.988 300.93c-108.201 184.094 -113.708 405.304 -79.8184 610.692
c32.6494 197.875 98.8213 391.236 187.341 570.95c87.0996 176.826 200.521 342.959 334.758 487.41c125.743 135.304 291.882 276.134 482.369 297.829c88.1328 10.041 178.993 -15.9873 237.791 -85.0127c54.7979 -64.3311 77.8193 -148.297 89.6064 -230.35
c32.3359 -225.117 7.35449 -452.741 -26.3818 -676.138c-58.6514 -388.322 -122.729 -775.918 -185.475 -1163.64c70.1582 8.09375 140.21 18.4883 210.309 30.0488c54.7236 10.8213 74.7588 -63.9443 22.875 -82.9727
c-51.0967 -18.7412 -103.228 -35.5029 -156.678 -46.1699c-31.4619 -6.28027 -63.2178 -11.7012 -95.1338 -16.4219c-5.25391 -32.6426 -10.5273 -65.2852 -15.748 -97.9277c-6.78711 -42.4502 -71.2256 -24.3223 -64.4922 17.7812
c3.79395 23.7422 7.67383 47.4707 11.501 71.2061c-35.623 -3.94727 -71.4189 -6.86719 -107.275 -8.74023c-49.5771 -15.1279 -98.5742 -32.1162 -146.878 -51.1914c-153.305 -60.5312 -315.891 -137.917 -440.633 -247.485
c-19.6279 -17.248 -93.54 -73.9326 -75.2656 -102.194c18.4082 -28.4756 91.4873 -35.376 120.902 -38.1562c83.4531 -7.90039 169.753 -0.453125 253.173 5.06738c361.714 23.9482 718.594 113.962 1056.23 244.312zM318.657 189.727
c121.216 -123.256 301.482 -164.328 468.095 -176.942c111.901 -8.47363 222.79 -5.14648 333.292 4.96777c67.332 413.031 137.704 825.896 196.955 1240.04c29.3486 205.155 51.1768 421.765 10.5205 627.026c-14.7412 74.4258 -42.0762 156.738 -110.234 198.682
c-76.9326 47.3438 -176.247 26.6289 -254.053 -7.54004c-164.646 -72.3184 -298.042 -211.936 -407.57 -350.846c-114.556 -145.284 -207.543 -309.783 -275.222 -481.902c-69.4785 -176.706 -117.382 -369.7 -123.502 -559.941
c-5.66699 -176.073 34.3496 -364.021 161.719 -493.544z" />
    <glyph glyph-name="E" unicode="&#xcb;" horiz-adv-x="1649" 
d="M1761.32 -298.014c17.7812 6.86719 25.0234 -21.3574 7.7959 -28.3447c-207.683 -84.0732 -422.085 -148.925 -641.562 -194.055c-191.654 -39.4092 -387.516 -68.6045 -582.783 -81.9189c-78.8857 -5.38086 -186.061 -11.335 -251.879 41.8691
c-80.3262 64.9316 11.8604 155.512 64.6172 202.162c123.416 109.135 278.901 188.221 432.272 251.079c-55.2773 3.63379 -110.262 9.99414 -164.553 19.3818c-194.541 33.6426 -374.421 126.423 -476.988 300.93c-108.201 184.094 -113.708 405.304 -79.8184 610.692
c32.6494 197.875 98.8213 391.236 187.341 570.95c87.0996 176.826 200.521 342.959 334.758 487.41c125.743 135.304 291.882 276.134 482.369 297.829c88.1328 10.041 178.993 -15.9873 237.791 -85.0127c54.7979 -64.3311 77.8193 -148.297 89.6064 -230.35
c32.3359 -225.117 7.35449 -452.741 -26.3818 -676.138c-58.6514 -388.322 -122.729 -775.918 -185.475 -1163.64c70.1582 8.09375 140.21 18.4883 210.309 30.0488c54.7236 10.8213 74.7588 -63.9443 22.875 -82.9727
c-51.0967 -18.7412 -103.228 -35.5029 -156.678 -46.1699c-31.4619 -6.28027 -63.2178 -11.7012 -95.1338 -16.4219c-5.25391 -32.6426 -10.5273 -65.2852 -15.748 -97.9277c-6.78711 -42.4502 -71.2256 -24.3223 -64.4922 17.7812
c3.79395 23.7422 7.67383 47.4707 11.501 71.2061c-35.623 -3.94727 -71.4189 -6.86719 -107.275 -8.74023c-49.5771 -15.1279 -98.5742 -32.1162 -146.878 -51.1914c-153.305 -60.5312 -315.891 -137.917 -440.633 -247.485
c-19.6279 -17.248 -93.54 -73.9326 -75.2656 -102.194c18.4082 -28.4756 91.4873 -35.376 120.902 -38.1562c83.4531 -7.90039 169.753 -0.453125 253.173 5.06738c361.714 23.9482 718.594 113.962 1056.23 244.312zM318.657 189.727
c121.216 -123.256 301.482 -164.328 468.095 -176.942c111.901 -8.47363 222.79 -5.14648 333.292 4.96777c67.332 413.031 137.704 825.896 196.955 1240.04c29.3486 205.155 51.1768 421.765 10.5205 627.026c-14.7412 74.4258 -42.0762 156.738 -110.234 198.682
c-76.9326 47.3438 -176.247 26.6289 -254.053 -7.54004c-164.646 -72.3184 -298.042 -211.936 -407.57 -350.846c-114.556 -145.284 -207.543 -309.783 -275.222 -481.902c-69.4785 -176.706 -117.382 -369.7 -123.502 -559.941
c-5.66699 -176.073 34.3496 -364.021 161.719 -493.544z" />
    <glyph glyph-name="E" unicode="&#xca;" horiz-adv-x="1649" 
d="M1761.32 -298.014c17.7812 6.86719 25.0234 -21.3574 7.7959 -28.3447c-207.683 -84.0732 -422.085 -148.925 -641.562 -194.055c-191.654 -39.4092 -387.516 -68.6045 -582.783 -81.9189c-78.8857 -5.38086 -186.061 -11.335 -251.879 41.8691
c-80.3262 64.9316 11.8604 155.512 64.6172 202.162c123.416 109.135 278.901 188.221 432.272 251.079c-55.2773 3.63379 -110.262 9.99414 -164.553 19.3818c-194.541 33.6426 -374.421 126.423 -476.988 300.93c-108.201 184.094 -113.708 405.304 -79.8184 610.692
c32.6494 197.875 98.8213 391.236 187.341 570.95c87.0996 176.826 200.521 342.959 334.758 487.41c125.743 135.304 291.882 276.134 482.369 297.829c88.1328 10.041 178.993 -15.9873 237.791 -85.0127c54.7979 -64.3311 77.8193 -148.297 89.6064 -230.35
c32.3359 -225.117 7.35449 -452.741 -26.3818 -676.138c-58.6514 -388.322 -122.729 -775.918 -185.475 -1163.64c70.1582 8.09375 140.21 18.4883 210.309 30.0488c54.7236 10.8213 74.7588 -63.9443 22.875 -82.9727
c-51.0967 -18.7412 -103.228 -35.5029 -156.678 -46.1699c-31.4619 -6.28027 -63.2178 -11.7012 -95.1338 -16.4219c-5.25391 -32.6426 -10.5273 -65.2852 -15.748 -97.9277c-6.78711 -42.4502 -71.2256 -24.3223 -64.4922 17.7812
c3.79395 23.7422 7.67383 47.4707 11.501 71.2061c-35.623 -3.94727 -71.4189 -6.86719 -107.275 -8.74023c-49.5771 -15.1279 -98.5742 -32.1162 -146.878 -51.1914c-153.305 -60.5312 -315.891 -137.917 -440.633 -247.485
c-19.6279 -17.248 -93.54 -73.9326 -75.2656 -102.194c18.4082 -28.4756 91.4873 -35.376 120.902 -38.1562c83.4531 -7.90039 169.753 -0.453125 253.173 5.06738c361.714 23.9482 718.594 113.962 1056.23 244.312zM318.657 189.727
c121.216 -123.256 301.482 -164.328 468.095 -176.942c111.901 -8.47363 222.79 -5.14648 333.292 4.96777c67.332 413.031 137.704 825.896 196.955 1240.04c29.3486 205.155 51.1768 421.765 10.5205 627.026c-14.7412 74.4258 -42.0762 156.738 -110.234 198.682
c-76.9326 47.3438 -176.247 26.6289 -254.053 -7.54004c-164.646 -72.3184 -298.042 -211.936 -407.57 -350.846c-114.556 -145.284 -207.543 -309.783 -275.222 -481.902c-69.4785 -176.706 -117.382 -369.7 -123.502 -559.941
c-5.66699 -176.073 34.3496 -364.021 161.719 -493.544z" />
    <glyph glyph-name="E" unicode="&#xc9;" horiz-adv-x="1649" 
d="M1761.32 -298.014c17.7812 6.86719 25.0234 -21.3574 7.7959 -28.3447c-207.683 -84.0732 -422.085 -148.925 -641.562 -194.055c-191.654 -39.4092 -387.516 -68.6045 -582.783 -81.9189c-78.8857 -5.38086 -186.061 -11.335 -251.879 41.8691
c-80.3262 64.9316 11.8604 155.512 64.6172 202.162c123.416 109.135 278.901 188.221 432.272 251.079c-55.2773 3.63379 -110.262 9.99414 -164.553 19.3818c-194.541 33.6426 -374.421 126.423 -476.988 300.93c-108.201 184.094 -113.708 405.304 -79.8184 610.692
c32.6494 197.875 98.8213 391.236 187.341 570.95c87.0996 176.826 200.521 342.959 334.758 487.41c125.743 135.304 291.882 276.134 482.369 297.829c88.1328 10.041 178.993 -15.9873 237.791 -85.0127c54.7979 -64.3311 77.8193 -148.297 89.6064 -230.35
c32.3359 -225.117 7.35449 -452.741 -26.3818 -676.138c-58.6514 -388.322 -122.729 -775.918 -185.475 -1163.64c70.1582 8.09375 140.21 18.4883 210.309 30.0488c54.7236 10.8213 74.7588 -63.9443 22.875 -82.9727
c-51.0967 -18.7412 -103.228 -35.5029 -156.678 -46.1699c-31.4619 -6.28027 -63.2178 -11.7012 -95.1338 -16.4219c-5.25391 -32.6426 -10.5273 -65.2852 -15.748 -97.9277c-6.78711 -42.4502 -71.2256 -24.3223 -64.4922 17.7812
c3.79395 23.7422 7.67383 47.4707 11.501 71.2061c-35.623 -3.94727 -71.4189 -6.86719 -107.275 -8.74023c-49.5771 -15.1279 -98.5742 -32.1162 -146.878 -51.1914c-153.305 -60.5312 -315.891 -137.917 -440.633 -247.485
c-19.6279 -17.248 -93.54 -73.9326 -75.2656 -102.194c18.4082 -28.4756 91.4873 -35.376 120.902 -38.1562c83.4531 -7.90039 169.753 -0.453125 253.173 5.06738c361.714 23.9482 718.594 113.962 1056.23 244.312zM318.657 189.727
c121.216 -123.256 301.482 -164.328 468.095 -176.942c111.901 -8.47363 222.79 -5.14648 333.292 4.96777c67.332 413.031 137.704 825.896 196.955 1240.04c29.3486 205.155 51.1768 421.765 10.5205 627.026c-14.7412 74.4258 -42.0762 156.738 -110.234 198.682
c-76.9326 47.3438 -176.247 26.6289 -254.053 -7.54004c-164.646 -72.3184 -298.042 -211.936 -407.57 -350.846c-114.556 -145.284 -207.543 -309.783 -275.222 -481.902c-69.4785 -176.706 -117.382 -369.7 -123.502 -559.941
c-5.66699 -176.073 34.3496 -364.021 161.719 -493.544z" />
    <glyph glyph-name="F" unicode="F" horiz-adv-x="1200" 
d="M1352.76 1694.91c-62.1182 -216.136 -146.01 -426.577 -242.004 -629.779c-159.398 -337.405 -354.773 -657.256 -560.615 -968.739c154.385 56.751 319.924 126.649 487.37 112.469c44.6367 -3.78027 44.8896 -73.8057 0 -70.0059
c-162.825 13.7939 -325.011 -56.8584 -474.615 -112.562c-21.8887 -8.14746 -43.6836 -16.4951 -65.4248 -24.9492c6.7002 -50.7441 14.1406 -101.395 22.5146 -151.898c18.0078 -108.615 39.749 -216.663 64.1504 -324.018
c12.4941 -54.9639 25.5088 -109.908 41.5498 -163.952c7.66699 -25.8281 16.4014 -51.3096 24.375 -77.0312c4.2666 -13.7744 8.88672 -27.4619 13.8936 -40.9834c0.726562 -1.95312 1.9668 -4.43359 3.18652 -7.02051c18.7744 -6.76074 33.082 -24.6953 32.7422 -45.5303
c-0.919922 -55.7979 -65.9248 -69.5322 -102.254 -35.0566c-20.0352 19.0146 -31.2764 50.5166 -42.8311 75.0518c-12.708 27.002 -23.5352 54.2578 -32.9893 82.5664c-19.1543 57.3848 -34.5088 115.976 -49.21 174.627c-29.3418 117.056 -53.2168 235.345 -72.832 354.414
c-2.06641 12.5205 -4.05273 25.0547 -6.02637 37.5957c-20.1416 -2.08691 -41.6895 18.2949 -27.0352 39.0361c5.82715 8.25391 11.5879 16.5615 17.4082 24.8223c-0.540039 3.74023 -1.06641 7.4873 -1.59961 11.2275
c-44.3496 -18.335 -88.4863 -37.1631 -132.503 -56.2979c20.0547 -16.6875 21.5879 -53.25 -10.6748 -59.0908c-50.6572 -9.17383 -101.314 -12.9541 -152.745 -10.0068c-33.042 1.88672 -53.2432 51.1367 -18.3535 67.7646c99.5742 47.4639 201.441 90.834 304.282 131.45
c-22.748 178.267 -36.1689 357.713 -39.6094 537.406c-4.66016 243.398 9.58789 487.19 41.4639 728.521c29.2422 221.363 70.0391 445.127 152.465 653.596c76.0986 192.468 182.153 407.797 360.74 524.819c82.7393 54.2178 191.721 75.3857 288.081 51.2842
c91.373 -22.8555 159.672 -90.3408 195.888 -175.674c86.5332 -203.896 40.0566 -449.301 -18.7881 -654.056zM486.494 90.6025c228.137 330.944 441.479 671.958 610.185 1037.6c88.7871 192.447 165.926 391.329 221.417 596.058
c29.2227 107.821 52.1777 219.123 53.6846 331.211c1.29297 95.874 -7.66113 200.675 -57.5244 284.935c-47.6572 80.5322 -131.264 121.162 -224.311 108.295c-89.7598 -12.4141 -166.579 -69.252 -225.323 -135.431
c-64.1045 -72.2119 -112.382 -160.231 -154.719 -246.505c-43.7695 -89.1797 -78.3389 -182.693 -107.681 -277.534c-61.085 -197.448 -95.4678 -402.637 -117.763 -607.792c-24.248 -223.097 -32.9688 -447.854 -26.9814 -672.17
c3.7334 -139.877 13.334 -279.614 29.0156 -418.665z" />
    <glyph glyph-name="G" unicode="G" horiz-adv-x="1518" 
d="M1134.63 -489.208c4.93359 214.35 16.5576 428.5 34.5459 642.149c8.16699 96.9668 17.7344 193.814 28.542 290.528c-68.1113 -155.198 -153.151 -302.709 -254.572 -438.786c-105.755 -141.897 -247.879 -310.87 -438.953 -320.457
c-173.807 -8.7207 -317.598 125.256 -383.263 275.693c-76.7061 175.733 -78.8125 384.709 -63.1777 572.729c16.9014 203.182 64.1582 402.49 130.75 594.892c61.458 177.573 136.59 351.833 229.457 515.332c90.1201 158.651 198.775 308.476 328.651 437.045
c62.0449 61.418 134.403 130.097 228.044 127.923c97.4141 -2.25977 151.378 -81.2119 169.699 -169.205c20.5615 -98.7344 7.60059 -203.249 -3.94727 -302.337c-11.7539 -100.867 -28.4219 -201.074 -47.8838 -300.722
c-40.5635 -207.723 -92.0938 -413.165 -129.236 -621.574c-11.2871 -63.3379 -107.708 -36.3555 -96.4336 26.5889c37.3096 208.369 88.9863 413.765 129.749 621.434c20.2812 103.321 37.9297 207.256 48.7441 312.03c9.44727 91.54 27.7686 203.502 -12.1875 290.361
c-71.125 154.632 -292.802 -132.149 -340.405 -190.414c-104.635 -128.069 -190.548 -271.327 -263.434 -419.505c-156.905 -318.99 -272.421 -675.717 -282.382 -1033.21c-4.60742 -165.239 4.67285 -351.073 91.3789 -496.817
c80.2393 -134.877 233.537 -214.463 386.902 -157.266c155.378 57.9443 261.973 207.469 352.366 338.932c73.4258 106.788 137.217 219.877 190.947 337.659c-0.719727 -0.193359 -1.44629 -0.373047 -2.17285 -0.566406
c-86.6396 -23.2549 -170.1 -56.8643 -251.365 -94.5732c-164.605 -76.3789 -316.264 -170.873 -470.775 -265.14c-16.915 -10.3203 -30.1963 14.6611 -15.1416 25.9082c158.806 118.603 342.64 214.896 524.007 293.896c75.5928 32.9229 153.306 61.8184 233.538 81.0801
c7.6875 17.7676 15.1084 35.6621 22.3418 53.6299c3.90723 30.3486 8.02051 60.6709 12.2344 90.9795c7.42676 53.4502 12.7002 108.941 27.8213 160.879c12.9609 44.5303 80.1055 35.416 80.4189 -10.8809c0.367188 -54.1377 -8.98047 -108.896 -14.8545 -162.633
c-4.06055 -37.1426 -7.94043 -74.3057 -11.8203 -111.469c20.2881 2.2334 40.6426 3.7666 61.0039 4.39355c36.2295 1.11328 68.8789 -1.20703 98.248 -23.9824c18.0811 -14.0273 -7.30762 -39.1357 -25.1953 -25.1943c-32.916 25.6484 -94.8809 13.7812 -133.21 9.56738
c-1.5332 -0.166992 -3.05371 -0.374023 -4.58691 -0.553711c-0.320312 -3.06055 -0.640625 -6.12793 -0.960938 -9.18848c-10.9873 -104.374 -20.4482 -208.908 -28.3691 -313.556c-16.0078 -211.529 -25.4883 -423.505 -29.4287 -635.601
c-1.2666 -68.0186 -107.201 -67.9785 -105.635 0z" />
    <glyph glyph-name="H" unicode="H" horiz-adv-x="1962" 
d="M1787.62 505.173c41.1299 -0.90625 109.454 -4.77734 122.202 -40.4131c14.0146 -39.2432 -52.71 -86.3398 -79.9189 -104.135c-16.8613 -11.0205 -32.7559 16.2412 -15.7744 26.9883c17.0078 10.7676 32.4219 22.8154 46.1299 37.5361
c18.0479 19.3945 23.7412 33.0156 -5.78809 40.416c-21.835 5.4668 -44.1299 8.39355 -66.5449 9.7207c2.21387 -167.979 7.78809 -335.959 17.1885 -503.685c4.89355 -87.3066 10.8145 -174.553 17.7754 -261.72c6.90723 -86.4531 19.4678 -174.479 18.4678 -261.206
c-0.586914 -50.6709 -78.0928 -63.1123 -89.627 -12.1289c-21.9814 97.1738 -26.5146 200.321 -34.7217 299.482c-7.94043 95.8936 -14.6406 191.888 -20.0879 287.955c-8.4873 149.671 -13.708 299.495 -15.8145 449.34
c-52.7705 -3.54004 -105.521 -9.85352 -157.778 -16.3408c-265.399 -32.9492 -526.059 -96.4736 -783.225 -168.605c-1.56055 -0.433594 -3.12109 -0.893555 -4.6875 -1.33398c5.43359 -134.49 14.9541 -268.807 28.6816 -402.703
c8.69434 -84.8066 19.1953 -169.399 31.25 -253.799c10.0205 -70.1855 19.2812 -135.07 61.9912 -193.734c32.4756 -44.6104 -34.9297 -85.5664 -71.1729 -54.917c-64.8711 54.8506 -77.2852 149.051 -88.793 228.236c-14.168 97.5068 -26.3555 195.314 -36.2695 293.349
c-11.9346 118.049 -20.542 236.418 -25.9961 354.92c-92.5273 -26.8018 -184.821 -54.4375 -277.115 -82.04c-62.5117 -18.7012 -125.029 -37.376 -187.634 -55.751c-35.2363 -10.3408 -88.0732 -32.8428 -116.102 3.2998c-5.36719 6.9209 -5.98047 14.8418 0 21.6553
c25.0889 28.5957 54.4912 48.9102 89.6738 63.2178c13.8213 5.62012 23.4824 -17.9014 10.1152 -23.9883c-25.6689 -11.6943 -47.5635 -27.3359 -66.4385 -47.4707c27.0684 -10.1211 76.7051 13.3477 98.8398 19.8545c38.3633 11.2812 76.6924 22.6621 115.016 34.0762
c76.7256 22.8555 153.411 45.8506 230.21 68.4727c33.9688 10.0078 67.9775 19.9482 102.026 29.7686c-23.668 573.903 28.3291 1150.79 153.771 1711.38c14.6016 65.2383 114.609 37.4629 100.055 -27.582c-41.916 -187.314 -76.2588 -376.436 -101.414 -566.743
c-44.25 -334.719 -62.2451 -672.984 -54.2578 -1010.51c0.613281 -25.9951 1.43359 -51.9834 2.36035 -77.9717c205.568 57.5107 412.857 109.128 623.467 144.391c105.468 17.6611 214.816 36.0293 323.038 41.5967c-6.08008 544.28 29.2764 1088.83 102.335 1628.29
c3.90039 28.7959 40.8301 44.1699 65.7383 37.3291c30.4561 -8.36719 41.1904 -37.1758 37.3232 -65.7383c-26.3555 -194.595 -47.2568 -389.942 -63.085 -585.67c-27.249 -336.925 -38.9834 -675.09 -35.4102 -1013.09z" />
    <glyph glyph-name="I" unicode="I" horiz-adv-x="776" 
d="M1007.02 1943.1c-18.0615 -32.082 -59.4521 -14.9336 -63.5459 14.042c-11.6875 0.00683594 -55.2637 -1.87988 -58.9102 -2.2334c-22.3555 -2.14062 -44.3574 -6.82812 -66.1592 -12.1221c-40.3496 -9.79395 -80.2529 -21.7686 -119.742 -34.5625
c-13.668 -4.43359 -27.2686 -9.06055 -40.8359 -13.7812c-23.0547 -166.586 -41.9561 -333.738 -55.8701 -501.338c-26.249 -316.097 -35.583 -633.594 -27.9961 -950.69c3.79395 -158.532 11.8145 -316.964 24.0752 -475.069
c10.334 -133.304 26.0547 -266.061 38.582 -399.097c70.9385 28.7354 143.563 52.7705 219.803 66.8047c16.5479 3.04004 23.5752 -22.2617 6.98047 -25.3154c-77.8057 -14.3213 -151.885 -39.0635 -224.25 -68.6123c1.60645 -17.7676 3.17285 -35.542 4.62598 -53.3232
c4.10059 -50.29 -78.7188 -60.9775 -87.7861 -11.8809c-1.65332 8.96777 -3.2334 17.9551 -4.7998 26.9492c-107.588 -49.124 -213.162 -103.995 -323.624 -145.432c-15.8682 -5.94727 -22.6553 19.4346 -6.98047 25.3154c111.355 41.7695 217.684 97.1738 326.132 146.584
c-26.6553 161.719 -40.1699 326.944 -52.1572 489.983c-44.917 610.812 -27.1553 1226.61 54.6973 1833.64c-23.2354 -9.6875 -46.2969 -19.7754 -69.125 -30.3896c-71.8584 -33.4023 -141.544 -71.292 -209.462 -112.088
c-34.7559 -20.875 -68.8779 -42.7969 -102.294 -65.752c-22.748 -15.6279 -46.5098 -30.249 -65.0645 -50.2773c7.63379 -1.59375 15.6348 -1.78027 24.3418 -1.7334c19.8945 0.09375 19.501 -29.4219 0 -30.6289c-19.4746 -1.21387 -37.4756 2.65332 -56.8174 3.54688
c-11.2744 0.526367 -20.8486 9.19336 -20.8418 20.8408c0.0195312 43.9834 38.6357 70.6191 70.4111 94.5742c40.1562 30.2754 81.4531 59.0439 123.783 86.1992c84.5 54.2041 174.187 100.555 266.26 140.471c16.3408 7.08691 32.8018 13.9346 49.3232 20.668
c1.37305 9.54785 2.70605 19.1016 4.11328 28.6494c4.02734 27.3623 38.9629 42.6904 63.0518 35.7969c15.6543 -4.48047 25.9355 -14.4746 31.5098 -27.0352c44.6504 15.6074 89.8467 29.6084 135.557 41.4229c51.8838 13.4072 111.081 25.9619 164.646 15.4209
c37.7432 -7.42676 70.2188 -40.7559 48.3701 -79.5518z" />
    <glyph glyph-name="I" unicode="&#xcf;" horiz-adv-x="776" 
d="M1007.02 1943.1c-18.0615 -32.082 -59.4521 -14.9336 -63.5459 14.042c-11.6875 0.00683594 -55.2637 -1.87988 -58.9102 -2.2334c-22.3555 -2.14062 -44.3574 -6.82812 -66.1592 -12.1221c-40.3496 -9.79395 -80.2529 -21.7686 -119.742 -34.5625
c-13.668 -4.43359 -27.2686 -9.06055 -40.8359 -13.7812c-23.0547 -166.586 -41.9561 -333.738 -55.8701 -501.338c-26.249 -316.097 -35.583 -633.594 -27.9961 -950.69c3.79395 -158.532 11.8145 -316.964 24.0752 -475.069
c10.334 -133.304 26.0547 -266.061 38.582 -399.097c70.9385 28.7354 143.563 52.7705 219.803 66.8047c16.5479 3.04004 23.5752 -22.2617 6.98047 -25.3154c-77.8057 -14.3213 -151.885 -39.0635 -224.25 -68.6123c1.60645 -17.7676 3.17285 -35.542 4.62598 -53.3232
c4.10059 -50.29 -78.7188 -60.9775 -87.7861 -11.8809c-1.65332 8.96777 -3.2334 17.9551 -4.7998 26.9492c-107.588 -49.124 -213.162 -103.995 -323.624 -145.432c-15.8682 -5.94727 -22.6553 19.4346 -6.98047 25.3154c111.355 41.7695 217.684 97.1738 326.132 146.584
c-26.6553 161.719 -40.1699 326.944 -52.1572 489.983c-44.917 610.812 -27.1553 1226.61 54.6973 1833.64c-23.2354 -9.6875 -46.2969 -19.7754 -69.125 -30.3896c-71.8584 -33.4023 -141.544 -71.292 -209.462 -112.088
c-34.7559 -20.875 -68.8779 -42.7969 -102.294 -65.752c-22.748 -15.6279 -46.5098 -30.249 -65.0645 -50.2773c7.63379 -1.59375 15.6348 -1.78027 24.3418 -1.7334c19.8945 0.09375 19.501 -29.4219 0 -30.6289c-19.4746 -1.21387 -37.4756 2.65332 -56.8174 3.54688
c-11.2744 0.526367 -20.8486 9.19336 -20.8418 20.8408c0.0195312 43.9834 38.6357 70.6191 70.4111 94.5742c40.1562 30.2754 81.4531 59.0439 123.783 86.1992c84.5 54.2041 174.187 100.555 266.26 140.471c16.3408 7.08691 32.8018 13.9346 49.3232 20.668
c1.37305 9.54785 2.70605 19.1016 4.11328 28.6494c4.02734 27.3623 38.9629 42.6904 63.0518 35.7969c15.6543 -4.48047 25.9355 -14.4746 31.5098 -27.0352c44.6504 15.6074 89.8467 29.6084 135.557 41.4229c51.8838 13.4072 111.081 25.9619 164.646 15.4209
c37.7432 -7.42676 70.2188 -40.7559 48.3701 -79.5518z" />
    <glyph glyph-name="I" unicode="&#xce;" horiz-adv-x="776" 
d="M1007.02 1943.1c-18.0615 -32.082 -59.4521 -14.9336 -63.5459 14.042c-11.6875 0.00683594 -55.2637 -1.87988 -58.9102 -2.2334c-22.3555 -2.14062 -44.3574 -6.82812 -66.1592 -12.1221c-40.3496 -9.79395 -80.2529 -21.7686 -119.742 -34.5625
c-13.668 -4.43359 -27.2686 -9.06055 -40.8359 -13.7812c-23.0547 -166.586 -41.9561 -333.738 -55.8701 -501.338c-26.249 -316.097 -35.583 -633.594 -27.9961 -950.69c3.79395 -158.532 11.8145 -316.964 24.0752 -475.069
c10.334 -133.304 26.0547 -266.061 38.582 -399.097c70.9385 28.7354 143.563 52.7705 219.803 66.8047c16.5479 3.04004 23.5752 -22.2617 6.98047 -25.3154c-77.8057 -14.3213 -151.885 -39.0635 -224.25 -68.6123c1.60645 -17.7676 3.17285 -35.542 4.62598 -53.3232
c4.10059 -50.29 -78.7188 -60.9775 -87.7861 -11.8809c-1.65332 8.96777 -3.2334 17.9551 -4.7998 26.9492c-107.588 -49.124 -213.162 -103.995 -323.624 -145.432c-15.8682 -5.94727 -22.6553 19.4346 -6.98047 25.3154c111.355 41.7695 217.684 97.1738 326.132 146.584
c-26.6553 161.719 -40.1699 326.944 -52.1572 489.983c-44.917 610.812 -27.1553 1226.61 54.6973 1833.64c-23.2354 -9.6875 -46.2969 -19.7754 -69.125 -30.3896c-71.8584 -33.4023 -141.544 -71.292 -209.462 -112.088
c-34.7559 -20.875 -68.8779 -42.7969 -102.294 -65.752c-22.748 -15.6279 -46.5098 -30.249 -65.0645 -50.2773c7.63379 -1.59375 15.6348 -1.78027 24.3418 -1.7334c19.8945 0.09375 19.501 -29.4219 0 -30.6289c-19.4746 -1.21387 -37.4756 2.65332 -56.8174 3.54688
c-11.2744 0.526367 -20.8486 9.19336 -20.8418 20.8408c0.0195312 43.9834 38.6357 70.6191 70.4111 94.5742c40.1562 30.2754 81.4531 59.0439 123.783 86.1992c84.5 54.2041 174.187 100.555 266.26 140.471c16.3408 7.08691 32.8018 13.9346 49.3232 20.668
c1.37305 9.54785 2.70605 19.1016 4.11328 28.6494c4.02734 27.3623 38.9629 42.6904 63.0518 35.7969c15.6543 -4.48047 25.9355 -14.4746 31.5098 -27.0352c44.6504 15.6074 89.8467 29.6084 135.557 41.4229c51.8838 13.4072 111.081 25.9619 164.646 15.4209
c37.7432 -7.42676 70.2188 -40.7559 48.3701 -79.5518z" />
    <glyph glyph-name="I" unicode="&#xcd;" horiz-adv-x="776" 
d="M1007.02 1943.1c-18.0615 -32.082 -59.4521 -14.9336 -63.5459 14.042c-11.6875 0.00683594 -55.2637 -1.87988 -58.9102 -2.2334c-22.3555 -2.14062 -44.3574 -6.82812 -66.1592 -12.1221c-40.3496 -9.79395 -80.2529 -21.7686 -119.742 -34.5625
c-13.668 -4.43359 -27.2686 -9.06055 -40.8359 -13.7812c-23.0547 -166.586 -41.9561 -333.738 -55.8701 -501.338c-26.249 -316.097 -35.583 -633.594 -27.9961 -950.69c3.79395 -158.532 11.8145 -316.964 24.0752 -475.069
c10.334 -133.304 26.0547 -266.061 38.582 -399.097c70.9385 28.7354 143.563 52.7705 219.803 66.8047c16.5479 3.04004 23.5752 -22.2617 6.98047 -25.3154c-77.8057 -14.3213 -151.885 -39.0635 -224.25 -68.6123c1.60645 -17.7676 3.17285 -35.542 4.62598 -53.3232
c4.10059 -50.29 -78.7188 -60.9775 -87.7861 -11.8809c-1.65332 8.96777 -3.2334 17.9551 -4.7998 26.9492c-107.588 -49.124 -213.162 -103.995 -323.624 -145.432c-15.8682 -5.94727 -22.6553 19.4346 -6.98047 25.3154c111.355 41.7695 217.684 97.1738 326.132 146.584
c-26.6553 161.719 -40.1699 326.944 -52.1572 489.983c-44.917 610.812 -27.1553 1226.61 54.6973 1833.64c-23.2354 -9.6875 -46.2969 -19.7754 -69.125 -30.3896c-71.8584 -33.4023 -141.544 -71.292 -209.462 -112.088
c-34.7559 -20.875 -68.8779 -42.7969 -102.294 -65.752c-22.748 -15.6279 -46.5098 -30.249 -65.0645 -50.2773c7.63379 -1.59375 15.6348 -1.78027 24.3418 -1.7334c19.8945 0.09375 19.501 -29.4219 0 -30.6289c-19.4746 -1.21387 -37.4756 2.65332 -56.8174 3.54688
c-11.2744 0.526367 -20.8486 9.19336 -20.8418 20.8408c0.0195312 43.9834 38.6357 70.6191 70.4111 94.5742c40.1562 30.2754 81.4531 59.0439 123.783 86.1992c84.5 54.2041 174.187 100.555 266.26 140.471c16.3408 7.08691 32.8018 13.9346 49.3232 20.668
c1.37305 9.54785 2.70605 19.1016 4.11328 28.6494c4.02734 27.3623 38.9629 42.6904 63.0518 35.7969c15.6543 -4.48047 25.9355 -14.4746 31.5098 -27.0352c44.6504 15.6074 89.8467 29.6084 135.557 41.4229c51.8838 13.4072 111.081 25.9619 164.646 15.4209
c37.7432 -7.42676 70.2188 -40.7559 48.3701 -79.5518z" />
    <glyph glyph-name="J" unicode="J" horiz-adv-x="1820" 
d="M1545.86 2047.92c-2.24707 -5.66016 -4.44141 -11.3486 -6.66797 -17.0156c75.7725 -407.71 85.7129 -824.401 68.4053 -1238.01c-8.29395 -198.269 -20.5215 -396.79 -41.3096 -594.165c-19.7744 -187.728 -41.0557 -384.849 -103.707 -563.882
c-45.8369 -130.963 -148.665 -317.924 -316.531 -237.704c-74.792 35.7422 -115.469 117.161 -141.23 192.026c-30.3027 88.0801 -40.6104 183.501 -44.1904 276.114c-7.60742 196.495 10.5068 394.217 37.1885 588.711c25.6953 187.301 61.1582 373.154 105.828 556.848
c84.3398 346.833 197.382 686.745 327.038 1019.2c-224.75 -75.0186 -445.173 -165.605 -661.129 -262.359c-118.422 -53.0645 -235.544 -109.562 -349.359 -171.953c-55.957 -30.6689 -111.102 -62.8242 -165.132 -96.7734
c-12.8408 -8.06738 -25.8154 -16.0811 -38.5898 -24.4014c26.2549 -0.0595703 39.9961 -43.416 13.3945 -57.3574c-19.0352 -9.98047 -38.75 -18.3213 -59.6982 -23.3887c-21.2354 -5.13379 -43.4902 -4.88672 -64.3848 -10.7002
c-30.7822 -8.56055 -64.4844 21.6885 -53.75 53.751c21.6816 64.7578 88.8604 104.854 143.124 140.11c65.5986 42.623 132.897 82.5928 201.376 120.402c242.944 134.123 501.044 241.598 759.276 342.419c131.276 51.2568 264.086 98.874 399.256 138.884
c66.4912 19.6816 133.536 37.5361 201.128 53.0107c67.9717 15.5547 135.483 30.4092 204.889 15.2744c66.0781 -14.4082 37.9629 -115.742 -27.915 -101.261c-67.4922 14.8408 -145.251 -13.3408 -210.476 -29.5889c-58.6582 -14.6074 -116.862 -30.9424 -174.687 -48.5439
c0.959961 -6.52734 0.400391 -13.2207 -2.14648 -19.6475zM1583.55 979.508c7.32715 334.792 -7.1543 670.889 -64.085 1001.08c-133.457 -343.959 -248.659 -695.952 -333.546 -1055.07c-82.2529 -347.992 -143.984 -713.727 -128.87 -1072.45
c3.7666 -89.3467 16.9941 -177.18 47.043 -261.692c23.0752 -64.8916 72.252 -144.178 148.178 -152.165c88.5801 -9.32031 140.364 103.941 167.113 170.366c31.7627 78.8662 50.0977 162.452 66.0459 245.719c70.5449 368.348 89.9268 749.863 98.1211 1124.22z" />
    <glyph glyph-name="K" unicode="K" horiz-adv-x="1213" 
d="M1323.84 -580.415c-233.037 192.081 -437.423 416.089 -620.456 655.773c-92.2402 120.782 -177.286 246.552 -262.486 372.328c-35.1562 51.9043 -70.8193 103.481 -107.849 154.065c-27.7822 -104.234 -50.3975 -209.688 -67.3916 -316.057
c0.320312 -160.358 -0.879883 -320.764 -7.58691 -481.002c-3.45996 -82.6396 -8.36719 -165.219 -15.2812 -247.639c-3.63379 -43.3701 -7.82031 -86.6865 -12.6406 -129.937c-4.26074 -38.2695 -4.01367 -85.1934 -16.8809 -122.216
c-2.44043 -48.9639 -89.9873 -59.3584 -97.5479 5.57324c-5.24023 45.0029 9.46777 97.3672 14.3086 142.598c5.10059 47.6035 9.44727 95.2871 13.1611 143.018c7.26074 93.3398 12.0615 186.86 15.208 280.421c11.0811 329.631 8.80078 660.969 -0.186523 990.64
c-8.94043 328.098 -37.209 653.102 -107.001 974.279c-12.248 56.3779 71.7451 80.1602 86.793 23.9297c48.3301 -180.634 75.6719 -366.114 94.127 -552.015c16.1348 -162.586 24.2285 -325.751 28.4287 -489.076c8.59375 -4.30078 15.5078 -11.7275 17.6484 -21.4287
c2.21387 -10.0273 17.9951 -23.3555 28.9629 -35.9365c9.64746 -11.0605 18.9219 -22.4609 28.123 -33.9082c75.8789 247.559 178.76 487.116 300.136 715.826c101.914 192.034 213.223 384.469 350.38 553.795c65.1914 80.4795 138.197 154.752 221.483 216.59
c48.1973 35.7822 151.991 112.921 200.661 36.502c11.9346 -18.7344 -17.834 -35.9619 -29.6816 -17.3535c-30.4355 47.7832 -116.789 -22.0283 -144.831 -42.377c-45.8965 -33.3096 -88.5596 -71.0322 -128.449 -111.295
c-80.459 -81.2061 -149.251 -173.02 -212.309 -268.133c-227.49 -343.126 -413.671 -720.9 -531.687 -1116.09c20.8682 -26.6152 41.416 -53.4844 61.4844 -80.7129c48.2236 -65.4453 94.4668 -132.33 140.25 -199.488c160.545 -235.498 331.598 -462.255 530.146 -667.363
c98.0742 -101.314 201.802 -197.229 311.437 -285.929c103.015 -83.3467 219.123 -169.706 355.479 -182.181c55.4707 -5.07324 56.4707 -91.6133 0 -87.5059c-170.419 12.4014 -308.649 117.369 -435.952 222.304zM265.107 466.494
c12.541 57.0508 26.623 113.74 42.1309 170.045c-1.20703 1.59375 -2.37402 3.2207 -3.58105 4.82129c-13.2412 17.4814 -26.8223 34.6963 -40.4766 51.8506c1.11328 -75.5791 1.61328 -151.158 1.92676 -226.717z" />
    <glyph glyph-name="L" unicode="L" horiz-adv-x="1225" 
d="M1137.81 -359.492c-117.662 -1.54004 -235.362 -10.3164 -351.938 -26.3643c-82.8262 -11.3877 -164.339 -26.916 -245.052 -45.2979c5.27344 -36.8096 10.8076 -73.5859 16.8281 -110.275c3.44727 -21.0215 7.02051 -41.9834 9.85449 -63.0986
c1.75391 -13.0605 3.34766 -26.1416 5.1543 -39.1963c0.0595703 -0.459961 1.10645 -4.10645 2.17969 -8.44629c4.58691 -3.10059 8.56055 -7.46094 11.4473 -13.335c18.1016 -36.7832 -13.9141 -84.7471 -56.8105 -66.6787
c-41.5498 17.501 -46.5566 89.7529 -54.7373 128.009c-10.6475 49.7842 -19.0215 100.194 -27.2822 150.458c-104.668 -26.7422 -208.289 -57.6777 -311.937 -90.3799c-4.91406 -9.59375 -14.0879 -16.8477 -25.8691 -16.1875
c-8.62695 0.480469 -17.2539 0.966797 -25.8809 1.45312c-41.3965 2.33301 -45.0234 54.3037 -9.29395 68.6777c116.369 46.8164 237.571 84.3926 360.754 114.288c-9.14062 61.7314 -16.9482 123.663 -23.709 185.701
c-12.8271 -19.9551 -25.6611 -39.9033 -38.4951 -59.8447c-18.3076 -28.4492 -64.2109 -1.47363 -45.3359 26.502c25.2686 37.4424 50.5439 74.8984 75.793 112.381c-20.3145 212.683 -28.4014 426.525 -24.1006 640.128c4.36719 217.029 21.9287 433.438 51.6309 648.454
c27.3955 198.342 66.0918 396.736 138.018 584.224c34.9297 91.0469 76.2529 180.733 128.757 263.086c49.584 77.7656 112.669 151.211 198.442 189.688c81.1064 36.3896 177.227 42.8438 256.732 -1.81934c71.6123 -40.2227 113.242 -114.468 137.45 -190.394
c61.1777 -191.888 33.6221 -410.204 -16.7021 -601.392c-52.0703 -197.821 -136.977 -385.302 -232.438 -565.596c-165.479 -312.55 -352.88 -613.186 -543.554 -911.121c1.06055 -12.9141 2.04102 -25.8418 3.19434 -38.749
c7.74023 -86.833 18.0547 -173.333 29.3887 -259.746c100.174 21.0146 201.168 37.2754 301.528 49.3965c130.557 15.7607 262.18 23.0146 393.683 20.6211c91.9199 -1.67383 202.928 -11.6475 242.411 -108.621c15.7275 -38.623 -45.2373 -60.665 -65.1191 -27.4561
c-48.3037 80.6797 -186.501 61.958 -264.993 60.9316zM479.83 496.829c-2.80664 -158.759 1.32031 -317.625 12.1143 -476.05c189.281 283.675 372.935 571.29 527.64 875.573c86.2061 169.566 163.305 345.366 207.348 531.021
c43.3232 182.634 57.9639 385.516 -4.32031 566.049c-23.248 67.3848 -68.165 136.177 -141.65 153.592c-74.7988 17.7275 -152.984 -17.2285 -207.168 -67.3721c-60.8379 -56.2979 -103.328 -127.557 -141.084 -200.629
c-41.5762 -80.4531 -74.6787 -164.68 -101.881 -251.013c-55.3438 -175.646 -86.5928 -358.293 -109.168 -540.747c-24.2422 -195.888 -38.3428 -393.062 -41.8301 -590.424z" />
    <glyph glyph-name="M" unicode="M" horiz-adv-x="2038" 
d="M1052.89 68.9668c4.70703 -18.5146 9.49609 -37.0137 14.4229 -55.4951c17.8281 -67.0713 -86.7061 -95.5605 -103.667 -28.582c-75.3594 297.615 -116.956 601.705 -155.933 905.821c-17.3613 135.464 -33.6025 271.094 -51.8574 406.438
c-17.4014 128.963 -26.9492 268.073 -80.5664 388.229c-10.1807 22.8086 -34.7695 84.7861 -67.3652 48.8564c-20.6885 -22.8018 -31.5889 -58.4443 -43.043 -86.333c-24.8887 -60.585 -45.0771 -123.076 -62.4385 -186.201
c-35.0293 -127.369 -59.291 -257.745 -81.9258 -387.795c-47.8164 -274.78 -81.0859 -551.874 -111.055 -829.095c-24.3486 -225.203 -44.8564 -451.007 -51.8633 -677.41c9.53418 -50.79 21.2422 -101.867 42.9434 -147.544
c22.708 -47.7969 -43.6299 -88.2998 -71.7852 -41.9561c-46.6631 76.8125 -60.7979 166.179 -78.1191 253.052c-17.5547 88.04 -32.1221 176.606 -44.5098 265.52c-89.4932 642.435 -64.791 1292.83 23.4688 1933.9c3.63379 26.3887 37.7363 41.0967 60.7451 34.4893
c28.0488 -8.04688 38.1299 -34.1152 34.4893 -60.7373c-24.0752 -176.113 -43.0098 -352.967 -56.1309 -530.24c-23.082 -311.837 -28.8555 -625.054 -9.96094 -937.284c9.4209 -155.651 24.6553 -311.057 47.2568 -465.361
c7.1543 -48.8506 14.9951 -97.6211 23.3486 -146.305c12.7012 228.117 36.8496 455.641 62.7646 682.598c33.1094 289.941 71.4854 579.743 129.449 865.892c27.6553 136.53 61.3379 272.427 115.582 401.097c16.0879 38.1699 36.1631 102.021 85.4336 107.922
c50.3301 6.02734 73.9521 -54.8037 89.5264 -91.6201c52.8574 -124.936 74.3789 -265.479 101.154 -397.763c28.4824 -140.724 53.3574 -281.994 78.0859 -423.411c42.0762 -240.638 84.7061 -481.556 141.511 -719.22c30.1152 284.568 79.6455 567.01 149.138 844.664
c67.8516 271.12 149.311 551.794 295.309 792.565c28.709 47.3506 67.4521 113.355 121.956 134.057c44.1299 16.7549 82.2793 -10.3672 105.208 -46.8633c33.1895 -52.8311 45.7168 -119.629 59.1846 -179.587c14.9482 -66.5654 24.0293 -134.197 31.9697 -201.909
c70.2783 -598.979 57.9043 -1206.18 190.348 -1797.29c16.2881 -72.6855 -95.7803 -103.341 -111.501 -30.7422c-67.2314 310.51 -89.9531 629.327 -100.527 946.204c-9.4541 283.328 -10.1611 566.89 -22.1084 850.138c-2.86719 67.9785 -6.09375 136.097 -15.1143 203.589
c-8.36035 62.5781 -21.8076 136.197 -54.6504 191.095c-24.2217 40.4961 -61.9307 54.7568 -100.387 20.6943c-22.6348 -20.041 -41.1562 -45.4697 -58.0908 -70.3115c-36.3623 -53.3506 -65.8516 -111.588 -93.7002 -169.726
c-119.183 -248.806 -192.581 -518.686 -253.232 -786.933c-58.1914 -257.386 -99.3076 -518.398 -123.763 -781.104z" />
    <glyph glyph-name="N" unicode="N" horiz-adv-x="1377" 
d="M298.695 67.8672c-10.9746 -81.2793 -21.0391 -162.697 -30.3066 -244.196c-4.7002 -41.3496 -12.9941 -85.8994 -16.4609 -130.029c3.37402 -15.8076 6.59473 -31.6221 9.79492 -47.4766c1.71387 -8.47363 3.58691 -16.7207 4.21387 -25.3477
c0.046875 -0.673828 0.160156 -1.26074 0.266602 -1.86035c1.25977 -1.2334 2.43945 -2.55371 3.5332 -3.94043c-0.867188 0.787109 -1.91406 1.64062 -3.27441 2.60742c1.54004 -6.10059 5.68066 -8.11426 6.16113 -6.84766
c3.2207 -5.43359 5.1543 -11.6875 5.19434 -18.3877c0.00683594 -1.30664 0.0136719 -2.62012 0.0205078 -3.93359c0.0732422 -13.7744 -7.58105 -27.4619 -19.6553 -34.2559c-88.373 -49.7441 -106.308 111.981 -117.695 163.352
c-19.0879 86.126 -34.9424 172.912 -47.0967 260.292c-88.127 633.334 -25.7754 1273.04 43.5303 1904.91c3.2334 29.4893 22.4414 54.6914 54.6904 54.6914c27.3086 0 57.8242 -25.2754 54.6904 -54.6904c-17.9883 -168.605 -35.4365 -337.271 -50.4111 -506.178
c-26.5488 -299.396 -43.6836 -600.171 -35.2559 -900.827c4.18066 -149.124 14.6943 -298.129 33.542 -446.14c9.20703 -72.2988 20.5342 -144.444 33.6816 -216.13c1.80664 -9.85449 3.7666 -19.6748 5.65332 -29.5088c2.78711 19.9883 5.56738 39.6895 7.68066 58.8105
c10.001 90.5537 21.2148 180.954 33.7227 271.188c25.5215 184.094 56.3574 367.487 94.2803 549.447c65.4053 313.837 145.198 633.327 276.455 926.843c29.749 66.5117 61.1709 134.804 104.021 194.075c32.6826 45.21 83.0527 105.001 144.657 104.021
c58.4912 -0.926758 92.6074 -61.8643 114.235 -108.048c30.6221 -65.3848 47.25 -137.356 60.8574 -207.948c63.1113 -327.431 79.5264 -662.056 106.948 -993.74c27.4951 -332.484 71.3779 -662.436 149.124 -987.153
c17.8076 -74.3652 -96.2344 -105.794 -114.516 -31.5684c-84.0332 341.159 -113.436 694.306 -130.657 1044.36c-15.5078 315.23 -9.66113 631.935 -47.5576 945.765c-8.84766 73.2783 -20.7422 146.584 -51.6846 214.235
c-14.6543 32.0293 -35.5957 78.2197 -71.9648 90.2402c-36.7227 12.1406 -72.7451 -19.3154 -96.4932 -43.2236c-50.4707 -50.8037 -83.3262 -117.068 -114.229 -180.833c-33.4355 -69.0186 -62.6846 -139.978 -89.127 -211.943
c-106.354 -289.502 -179.493 -592.444 -237.051 -895.073c-28.7422 -151.125 -52.9238 -303.109 -73.5186 -455.554z" />
    <glyph glyph-name="O" unicode="O" horiz-adv-x="1492" 
d="M1193.86 -385.733c-47.4307 -99.4072 -110.511 -200.181 -202.611 -263.752c-92.0137 -63.5244 -207.709 -65.0312 -290.182 14.9746c-78.9326 76.5723 -114.769 198.055 -134.217 302.956c-22.7148 122.549 -28.2822 248.818 -26.3086 373.221
c4.06738 256.286 47.1035 510.698 105.602 759.71c14.6406 62.3184 110.588 35.7764 95.833 -26.4219c-13.3076 -56.0977 -25.8818 -112.355 -37.3096 -168.866c-46.0234 -227.597 -73.665 -459.607 -65.3379 -692.104c3.90723 -109.262 13.4678 -219.844 46.6172 -324.592
c24.0547 -75.9922 71.0986 -193.808 166.633 -195.128c96.5068 -1.32715 174.772 97.9873 221.77 170.646c58.2842 90.1201 98.3672 190.421 134.184 291.155c76.8525 216.149 130.083 441.14 157.365 668.937c26.4023 220.456 34.7764 447.753 3.74121 668.196
c-27.9756 198.729 -90.8799 410.385 -231.204 559.896c-66.498 70.8584 -150.584 124.209 -247.491 140.391c-100.308 16.748 -205.989 -6.44043 -295.322 -53.1641c-177.267 -92.707 -294.068 -272.787 -371.841 -451.487
c-83.2666 -191.321 -121.716 -402.15 -115.282 -610.459c3.25977 -105.488 18.8613 -209.736 44.7969 -311.997c21.8818 -86.2793 53.6846 -183.78 136.357 -229.63c25.6621 -14.2275 3.07422 -51.1904 -22.7148 -38.8564
c-41.7363 19.9551 -74.9385 51.624 -100.721 89.7871c-57.4111 84.9932 -80.126 197.262 -96.4072 296.716c-18.1611 110.929 -24.0684 223.684 -16.7549 335.865c14.541 223.104 78.3525 443.82 190.44 637.648c105.255 182.014 265.987 346.299 479.883 387.175
c102.708 19.6279 210.076 9.75391 303.557 -38.9297c90.0332 -46.8906 161.771 -123.59 216.688 -207.816c124.803 -191.414 174.974 -418.744 190.835 -644.041c17.3076 -245.731 4.32031 -493.797 -35.4229 -736.809c-39.0498 -238.778 -100.601 -484.05 -205.175 -703.22
z" />
    <glyph glyph-name="O" unicode="&#xd6;" horiz-adv-x="1492" 
d="M1193.86 -385.733c-47.4307 -99.4072 -110.511 -200.181 -202.611 -263.752c-92.0137 -63.5244 -207.709 -65.0312 -290.182 14.9746c-78.9326 76.5723 -114.769 198.055 -134.217 302.956c-22.7148 122.549 -28.2822 248.818 -26.3086 373.221
c4.06738 256.286 47.1035 510.698 105.602 759.71c14.6406 62.3184 110.588 35.7764 95.833 -26.4219c-13.3076 -56.0977 -25.8818 -112.355 -37.3096 -168.866c-46.0234 -227.597 -73.665 -459.607 -65.3379 -692.104c3.90723 -109.262 13.4678 -219.844 46.6172 -324.592
c24.0547 -75.9922 71.0986 -193.808 166.633 -195.128c96.5068 -1.32715 174.772 97.9873 221.77 170.646c58.2842 90.1201 98.3672 190.421 134.184 291.155c76.8525 216.149 130.083 441.14 157.365 668.937c26.4023 220.456 34.7764 447.753 3.74121 668.196
c-27.9756 198.729 -90.8799 410.385 -231.204 559.896c-66.498 70.8584 -150.584 124.209 -247.491 140.391c-100.308 16.748 -205.989 -6.44043 -295.322 -53.1641c-177.267 -92.707 -294.068 -272.787 -371.841 -451.487
c-83.2666 -191.321 -121.716 -402.15 -115.282 -610.459c3.25977 -105.488 18.8613 -209.736 44.7969 -311.997c21.8818 -86.2793 53.6846 -183.78 136.357 -229.63c25.6621 -14.2275 3.07422 -51.1904 -22.7148 -38.8564
c-41.7363 19.9551 -74.9385 51.624 -100.721 89.7871c-57.4111 84.9932 -80.126 197.262 -96.4072 296.716c-18.1611 110.929 -24.0684 223.684 -16.7549 335.865c14.541 223.104 78.3525 443.82 190.44 637.648c105.255 182.014 265.987 346.299 479.883 387.175
c102.708 19.6279 210.076 9.75391 303.557 -38.9297c90.0332 -46.8906 161.771 -123.59 216.688 -207.816c124.803 -191.414 174.974 -418.744 190.835 -644.041c17.3076 -245.731 4.32031 -493.797 -35.4229 -736.809c-39.0498 -238.778 -100.601 -484.05 -205.175 -703.22
z" />
    <glyph glyph-name="O" unicode="&#xd5;" horiz-adv-x="1492" 
d="M1193.86 -385.733c-47.4307 -99.4072 -110.511 -200.181 -202.611 -263.752c-92.0137 -63.5244 -207.709 -65.0312 -290.182 14.9746c-78.9326 76.5723 -114.769 198.055 -134.217 302.956c-22.7148 122.549 -28.2822 248.818 -26.3086 373.221
c4.06738 256.286 47.1035 510.698 105.602 759.71c14.6406 62.3184 110.588 35.7764 95.833 -26.4219c-13.3076 -56.0977 -25.8818 -112.355 -37.3096 -168.866c-46.0234 -227.597 -73.665 -459.607 -65.3379 -692.104c3.90723 -109.262 13.4678 -219.844 46.6172 -324.592
c24.0547 -75.9922 71.0986 -193.808 166.633 -195.128c96.5068 -1.32715 174.772 97.9873 221.77 170.646c58.2842 90.1201 98.3672 190.421 134.184 291.155c76.8525 216.149 130.083 441.14 157.365 668.937c26.4023 220.456 34.7764 447.753 3.74121 668.196
c-27.9756 198.729 -90.8799 410.385 -231.204 559.896c-66.498 70.8584 -150.584 124.209 -247.491 140.391c-100.308 16.748 -205.989 -6.44043 -295.322 -53.1641c-177.267 -92.707 -294.068 -272.787 -371.841 -451.487
c-83.2666 -191.321 -121.716 -402.15 -115.282 -610.459c3.25977 -105.488 18.8613 -209.736 44.7969 -311.997c21.8818 -86.2793 53.6846 -183.78 136.357 -229.63c25.6621 -14.2275 3.07422 -51.1904 -22.7148 -38.8564
c-41.7363 19.9551 -74.9385 51.624 -100.721 89.7871c-57.4111 84.9932 -80.126 197.262 -96.4072 296.716c-18.1611 110.929 -24.0684 223.684 -16.7549 335.865c14.541 223.104 78.3525 443.82 190.44 637.648c105.255 182.014 265.987 346.299 479.883 387.175
c102.708 19.6279 210.076 9.75391 303.557 -38.9297c90.0332 -46.8906 161.771 -123.59 216.688 -207.816c124.803 -191.414 174.974 -418.744 190.835 -644.041c17.3076 -245.731 4.32031 -493.797 -35.4229 -736.809c-39.0498 -238.778 -100.601 -484.05 -205.175 -703.22
z" />
    <glyph glyph-name="O" unicode="&#xd4;" horiz-adv-x="1492" 
d="M1193.86 -385.733c-47.4307 -99.4072 -110.511 -200.181 -202.611 -263.752c-92.0137 -63.5244 -207.709 -65.0312 -290.182 14.9746c-78.9326 76.5723 -114.769 198.055 -134.217 302.956c-22.7148 122.549 -28.2822 248.818 -26.3086 373.221
c4.06738 256.286 47.1035 510.698 105.602 759.71c14.6406 62.3184 110.588 35.7764 95.833 -26.4219c-13.3076 -56.0977 -25.8818 -112.355 -37.3096 -168.866c-46.0234 -227.597 -73.665 -459.607 -65.3379 -692.104c3.90723 -109.262 13.4678 -219.844 46.6172 -324.592
c24.0547 -75.9922 71.0986 -193.808 166.633 -195.128c96.5068 -1.32715 174.772 97.9873 221.77 170.646c58.2842 90.1201 98.3672 190.421 134.184 291.155c76.8525 216.149 130.083 441.14 157.365 668.937c26.4023 220.456 34.7764 447.753 3.74121 668.196
c-27.9756 198.729 -90.8799 410.385 -231.204 559.896c-66.498 70.8584 -150.584 124.209 -247.491 140.391c-100.308 16.748 -205.989 -6.44043 -295.322 -53.1641c-177.267 -92.707 -294.068 -272.787 -371.841 -451.487
c-83.2666 -191.321 -121.716 -402.15 -115.282 -610.459c3.25977 -105.488 18.8613 -209.736 44.7969 -311.997c21.8818 -86.2793 53.6846 -183.78 136.357 -229.63c25.6621 -14.2275 3.07422 -51.1904 -22.7148 -38.8564
c-41.7363 19.9551 -74.9385 51.624 -100.721 89.7871c-57.4111 84.9932 -80.126 197.262 -96.4072 296.716c-18.1611 110.929 -24.0684 223.684 -16.7549 335.865c14.541 223.104 78.3525 443.82 190.44 637.648c105.255 182.014 265.987 346.299 479.883 387.175
c102.708 19.6279 210.076 9.75391 303.557 -38.9297c90.0332 -46.8906 161.771 -123.59 216.688 -207.816c124.803 -191.414 174.974 -418.744 190.835 -644.041c17.3076 -245.731 4.32031 -493.797 -35.4229 -736.809c-39.0498 -238.778 -100.601 -484.05 -205.175 -703.22
z" />
    <glyph glyph-name="O" unicode="&#xd3;" horiz-adv-x="1492" 
d="M1193.86 -385.733c-47.4307 -99.4072 -110.511 -200.181 -202.611 -263.752c-92.0137 -63.5244 -207.709 -65.0312 -290.182 14.9746c-78.9326 76.5723 -114.769 198.055 -134.217 302.956c-22.7148 122.549 -28.2822 248.818 -26.3086 373.221
c4.06738 256.286 47.1035 510.698 105.602 759.71c14.6406 62.3184 110.588 35.7764 95.833 -26.4219c-13.3076 -56.0977 -25.8818 -112.355 -37.3096 -168.866c-46.0234 -227.597 -73.665 -459.607 -65.3379 -692.104c3.90723 -109.262 13.4678 -219.844 46.6172 -324.592
c24.0547 -75.9922 71.0986 -193.808 166.633 -195.128c96.5068 -1.32715 174.772 97.9873 221.77 170.646c58.2842 90.1201 98.3672 190.421 134.184 291.155c76.8525 216.149 130.083 441.14 157.365 668.937c26.4023 220.456 34.7764 447.753 3.74121 668.196
c-27.9756 198.729 -90.8799 410.385 -231.204 559.896c-66.498 70.8584 -150.584 124.209 -247.491 140.391c-100.308 16.748 -205.989 -6.44043 -295.322 -53.1641c-177.267 -92.707 -294.068 -272.787 -371.841 -451.487
c-83.2666 -191.321 -121.716 -402.15 -115.282 -610.459c3.25977 -105.488 18.8613 -209.736 44.7969 -311.997c21.8818 -86.2793 53.6846 -183.78 136.357 -229.63c25.6621 -14.2275 3.07422 -51.1904 -22.7148 -38.8564
c-41.7363 19.9551 -74.9385 51.624 -100.721 89.7871c-57.4111 84.9932 -80.126 197.262 -96.4072 296.716c-18.1611 110.929 -24.0684 223.684 -16.7549 335.865c14.541 223.104 78.3525 443.82 190.44 637.648c105.255 182.014 265.987 346.299 479.883 387.175
c102.708 19.6279 210.076 9.75391 303.557 -38.9297c90.0332 -46.8906 161.771 -123.59 216.688 -207.816c124.803 -191.414 174.974 -418.744 190.835 -644.041c17.3076 -245.731 4.32031 -493.797 -35.4229 -736.809c-39.0498 -238.778 -100.601 -484.05 -205.175 -703.22
z" />
    <glyph glyph-name="P" unicode="P" horiz-adv-x="1477" 
d="M1506.28 944.926c-107.495 -232.337 -315.403 -411.622 -530.666 -542.059c-152.878 -92.6406 -317.971 -169.62 -486.877 -233.205c4.34082 -46.7568 9.36133 -93.4541 15.2949 -140.044c9.20703 -72.2988 20.5342 -144.444 33.6816 -216.13
c6.83398 -37.2764 14.248 -74.4521 22.3018 -111.488c4.04004 -18.5879 7.78711 -37.1826 11.5479 -55.8242c1.71387 -8.47363 3.58691 -16.7207 4.21387 -25.3477c0.046875 -0.673828 0.160156 -1.26074 0.266602 -1.86035
c1.25977 -1.2334 2.43945 -2.55371 3.5332 -3.94043c-0.867188 0.787109 -1.91406 1.64062 -3.27441 2.60742c1.54004 -6.10059 5.68066 -8.11426 6.16113 -6.84766c3.2207 -5.43359 5.1543 -11.6875 5.19434 -18.3877
c0.00683594 -1.30664 0.0136719 -2.62012 0.0205078 -3.93359c0.0800781 -13.7744 -7.57422 -27.4619 -19.6484 -34.2559c-88.373 -49.7441 -106.308 111.981 -117.695 163.352c-19.0879 86.126 -34.9424 172.912 -47.0967 260.292
c-7.16016 51.4639 -13.2275 102.975 -18.4814 154.519c-39.21 -13.4072 -78.5195 -26.208 -117.855 -38.2627c-31.1025 -9.53418 -65.3916 11.2676 -73.8125 41.9102c-9.22754 33.5762 11.7471 62.0117 41.9092 73.8125c46.0234 18.0146 92.207 35.4824 138.364 52.8906
c-34.249 469.855 2.08691 942.024 50.9502 1410.77c-16.5547 -7.64062 -33.0029 -15.5078 -49.2178 -23.8555c-51.5439 -26.5283 -101.341 -56.4375 -148.958 -89.4932c-25.8955 -17.9814 -51.2236 -36.8828 -75.9854 -56.3975
c-13.3877 -10.5537 -64.1113 -41.1895 -55.4375 -62.751c8.84766 -22.0088 -25.8682 -34.7168 -37.1289 -15.6553c-33.3428 56.4512 51.8232 109.002 88.4131 137.724c54.5703 42.8428 113.121 80.9658 173.899 114.375c35.9697 19.7744 72.8994 37.9023 110.562 54.3965
c5.35352 50.3574 10.8076 100.675 16.3213 150.938c3.2334 29.4893 22.4414 54.6914 54.6904 54.6914c27.3086 0 57.8311 -25.2754 54.6904 -54.6914c-3.79395 -35.6094 -7.54785 -71.2188 -11.2812 -106.835c60.5381 20.168 122.51 35.9561 185.281 46.917
c246.571 43.0498 521.999 4.85352 700.339 -185.947c175.92 -188.214 179.641 -467.495 75.7793 -691.979zM478.367 302.486c160.686 61.3916 319.438 126.366 468.603 215.14c192.281 114.448 378.002 263.812 486.503 463.428
c110.015 202.415 116.941 461.941 -54.3711 632.841c-175.227 174.813 -439.5 199.775 -671.518 152.519c-57.1445 -11.6338 -113.469 -27.168 -168.493 -46.4023c-11.8271 -114.408 -23.168 -228.856 -33.3291 -343.425
c-26.5488 -299.396 -43.6836 -600.171 -35.2559 -900.827c1.62012 -57.791 4.2207 -115.562 7.86133 -173.272z" />
    <glyph glyph-name="Q" unicode="Q" horiz-adv-x="1492" 
d="M741.986 774.953c-13.3076 -56.0908 -25.8906 -112.344 -37.3115 -168.848c-46.0234 -227.597 -73.665 -459.607 -65.3379 -692.104c3.91406 -109.262 13.4678 -219.844 46.6172 -324.592c24.0547 -75.9922 71.0986 -193.808 166.633 -195.128
c87.8467 -1.20703 160.565 80.959 208.355 150.518c-15.4014 30.4961 -29.9424 61.7451 -37.583 93.7607c-4.22656 17.7148 20.2617 36.1826 33.4297 19.4609c14.5342 -18.4551 26.5752 -39.1504 37.5693 -60.5586c47.7236 81.4258 82.6133 169.846 114.176 258.619
c76.8525 216.149 130.083 441.14 157.365 668.937c26.4023 220.456 34.7764 447.753 3.74023 668.196c-27.9756 198.729 -90.8799 410.385 -231.204 559.896c-66.5049 70.8584 -150.585 124.209 -247.492 140.391c-100.308 16.748 -205.989 -6.44043 -295.322 -53.1641
c-177.26 -92.707 -294.068 -272.787 -371.841 -451.487c-83.2666 -191.321 -121.716 -402.15 -115.282 -610.459c3.25977 -105.488 18.8613 -209.736 44.7969 -311.997c21.8818 -86.2793 53.6846 -183.78 136.357 -229.63
c25.6553 -14.2275 3.07324 -51.1904 -22.7158 -38.8564c-41.7363 19.9551 -74.9385 51.624 -100.721 89.7871c-57.4111 84.9932 -80.126 197.262 -96.4072 296.716c-18.1611 110.929 -24.0684 223.684 -16.7549 335.865c14.541 223.104 78.3525 443.82 190.44 637.648
c105.261 182.014 265.986 346.299 479.882 387.175c102.714 19.6279 210.082 9.75391 303.562 -38.9297c90.0264 -46.8906 161.765 -123.59 216.682 -207.816c124.803 -191.414 174.974 -418.744 190.835 -644.041c17.3076 -245.731 4.32031 -493.797 -35.4229 -736.809
c-39.043 -238.778 -100.601 -484.05 -205.168 -703.22c-16.8945 -35.4092 -35.8223 -70.959 -57.2969 -104.975c24.2686 -49.3838 48.5371 -98.7676 72.8125 -148.151c50.3242 -102.395 100.475 -204.869 150.571 -307.377
c15.8682 -32.4824 -32.915 -60.958 -48.5762 -28.3955c-49.4902 102.874 -98.9277 205.775 -148.191 308.763c-20.1211 42.0693 -40.2422 84.1328 -60.3633 126.202c-31.7686 -42.1094 -68.4512 -80.0723 -111.562 -109.835
c-92.0205 -63.5244 -207.716 -65.0312 -290.188 14.9746c-78.9258 76.5723 -114.762 198.055 -134.21 302.956c-22.7148 122.549 -28.2822 248.818 -26.3086 373.221c4.06738 256.286 47.1035 510.698 105.602 759.71c14.6406 62.3184 110.588 35.7764 95.833 -26.4219z" />
    <glyph glyph-name="R" unicode="R" horiz-adv-x="1723" 
d="M1883.51 -641.739c28.0088 -2.7666 51.8838 -21.5215 51.8701 -51.8701c0 -26.0557 -23.9551 -54.6377 -51.877 -51.8779c-136.896 13.541 -272.733 35.9092 -407.09 65.3516c-234.098 51.2969 -463.222 122.376 -691.619 194.348
c-113.521 35.7764 -226.97 71.832 -341.005 105.948c-3.36035 1.00684 -6.7207 2.02051 -10.0742 3.02734c18.7148 -235.19 56.8711 -468.668 117.756 -697.492c15.3682 -57.7441 -72.3984 -81.5859 -89.1992 -24.5947c-17.8682 60.6045 -34.2363 121.622 -48.8379 183.1
c-44.3096 186.587 -72.585 377.808 -87.0928 570.528c-17.9678 5.02734 -35.9629 9.9209 -54.0439 14.4277c-41.2227 10.2803 -82.0654 16.7139 -123.115 11.3936c-12.1543 -2.86035 -24.3623 -5.56055 -36.6299 -8.01367
c-64.9111 -12.9678 -87.9863 75.1318 -27.0488 98.1064c28.9219 10.9072 58.9971 15.8145 89.6064 16.5674c23.6016 5.24707 47.0898 11.0605 70.4385 17.5947c24.0947 6.74707 47.877 14.3213 71.4189 22.4883c-8.21387 245.639 4.82031 492.204 34.749 733.289
c29.9824 241.558 80.0791 481.143 165.532 709.526c75.7188 202.355 175.586 412.312 342.358 555.976c159.005 136.964 391.683 213.223 594.438 131.937c178.033 -71.3789 290.429 -249.992 325.031 -433.692c42.0029 -222.983 -32.7891 -453.087 -140.164 -646.814
c-103.975 -187.601 -239.012 -357.446 -392.043 -507.371c-154.564 -151.432 -327.004 -284.155 -506.251 -404.958c-100.607 -67.7988 -205.969 -132.604 -316.477 -185.461c0.660156 -15.1543 1.40039 -30.3018 2.21387 -45.4434
c15.335 -4.91992 30.3691 -9.7002 45.0234 -14.0801c464.981 -139.097 925.836 -313.843 1412.13 -361.939zM432.12 322.393c-10.6338 -151.111 -14.5352 -302.711 -10.9482 -454.016c140.224 61.5977 271.493 144.07 398.416 229.184
c171.533 115.028 335.759 242.131 481.656 388.695c145.878 146.551 271.907 313.67 357.28 502.817c87.4131 193.654 135.99 432.379 41.7832 633.041c-79.9258 170.232 -244.458 290.861 -437.246 276.813c-199.962 -14.5674 -365.287 -149.997 -473.976 -310.389
c-121.096 -178.693 -196.534 -388.982 -251.418 -596.397c-57.958 -219.036 -89.6602 -443.966 -105.548 -669.749z" />
    <glyph glyph-name="S" unicode="S" horiz-adv-x="1721" 
d="M1648.87 -203.293c32.0361 -246.646 -90.1777 -481.229 -265.098 -647.595c-183.267 -174.3 -467.954 -330.092 -721.986 -219.144c-115.542 50.4639 -194.881 155.905 -233.49 273.701c-45.3701 138.41 -31.4688 289.148 -1.5127 429.172
c29.5293 138.037 78.333 272.101 143.251 397.417c32.5557 62.8584 68.4521 125.483 112.096 181.374c35.5361 45.5098 84.9336 79.0654 142.791 54.5039c31.0352 -13.1748 8.0332 -60.1719 -22.1553 -52.5518c-30.542 7.71387 -55.9043 -33.8291 -70.1318 -55.584
c-18.0742 -27.6484 -36.1221 -55.3506 -53.1162 -83.6797c-71.4658 -119.148 -126.29 -247.558 -162.812 -381.614c-38.4297 -141.044 -64.7783 -295.962 -27.3818 -440.046c32.2354 -124.223 114.908 -234.718 241.538 -272.174
c133.196 -39.4033 272.747 -0.820312 391.123 63.9111c213.322 116.662 403.583 317.617 450.566 562.688c46.4971 242.585 -100.801 457.994 -281.274 603.759c-213.129 172.14 -484.656 251.445 -731.314 361.434c-218.17 97.2871 -505.472 254.119 -509.912 528.553
c-2.24023 138.823 74.9658 262.986 158.752 367.475c79.1055 98.6475 170.539 186.86 270.413 264.279c202.035 156.599 440.927 270.193 692.506 318.804c134.53 25.9951 280.181 30.1289 402.503 -40.6562c112.969 -65.3652 173.439 -178.341 168.419 -308.424
c-5.5 -142.357 -46.0293 -288.875 -85.8652 -424.925c-41.5635 -141.978 -94.4941 -280.335 -156.766 -414.498c-23.7217 -51.1104 -99.0273 -6.58691 -75.5586 44.1699c31.2422 67.5781 59.8643 136.25 85.5791 206.129c51.1768 139.051 91.4795 282.155 120.335 427.486
c25.6553 129.229 51.4375 276.027 -67.4717 367.141c-109.481 83.8926 -256.159 74.7588 -383.615 46.8037c-126.529 -27.749 -249.425 -71.5928 -364.974 -130.11c-223.23 -113.055 -435.819 -282.694 -573.203 -494.137
c-68.665 -105.682 -107.694 -231.331 -41.1758 -347.859c61.7109 -108.108 174.953 -178.807 281.628 -236.345c247.379 -133.437 523.973 -211.476 758.017 -369.728c200.042 -135.257 377.115 -331.898 409.298 -579.73z" />
    <glyph glyph-name="T" unicode="T" horiz-adv-x="1552" 
d="M3218.23 1624.22c73.665 -0.973633 73.6348 -115.2 0.015625 -114.387c-228.237 2.54004 -456.481 3.59375 -684.731 3.35352c-385.882 -0.40625 -771.558 -5.94043 -1157.14 -15.1748c-13.4141 -36.9492 -25.2686 -74.3516 -35.6094 -111.895
c-26.7617 -97.1543 -43.9697 -195.948 -54.8906 -295.589c-8.82715 -162.006 -14.4805 -324.198 -16.8145 -486.438c0.486328 -40.123 1.16602 -80.1729 1.83301 -120.109c0.0664062 -3.74023 -1.12012 -6.66016 -2.98047 -8.85352
c-0.599609 -171.466 2.47363 -342.945 9.48047 -514.265c8.9209 -218.163 24.2549 -436.079 46.3428 -653.309c10.6475 -104.708 21.3945 -209.683 39.8828 -313.351c17.8809 -100.214 46.123 -195.895 81.6523 -291.155
c20.875 -55.9844 -70.4053 -93.4004 -95.9668 -40.4561c-102.774 212.81 -117.269 465.509 -140.09 697.119c-43.4766 441.213 -59.3447 885.039 -49.8037 1328.26c5.79395 268.986 20.8486 537.687 44.25 805.68c-48.5566 -1.2998 -97.1201 -2.66016 -145.677 -4.06738
c-319.311 -59.6914 -643.995 -96.8213 -965.739 -31.5166c-68.1318 13.8281 -47.2305 112.195 15.6143 115.376c227.943 11.541 456.101 19.6279 684.204 27.0615c139.897 4.56055 279.801 8.53418 419.725 11.9941c0.933594 0.166992 1.87402 0.333984 2.81445 0.500977
c13.1475 136.11 28.4219 272.014 45.75 407.657c3.80664 29.7754 22.2744 55.3174 55.3164 55.3174c27.1885 0 59.0977 -25.6289 55.3174 -55.3174c-16.3945 -128.716 -30.9355 -257.665 -43.5967 -386.795c27.3154 5.30664 54.6045 10.7871 81.833 16.5273
c100.228 202.089 255.872 386.716 466.861 472.129c68.3184 27.6553 142.997 42.25 216.689 33.8965c51.2842 -5.81348 106.769 -25.1748 122.243 -80.1523c14.9941 -53.2441 -11.9277 -109.568 -43.5303 -151.104c-41.8701 -55.0312 -93.9941 -101.628 -153.019 -137.598
c-122.329 -74.5391 -260.933 -124.67 -398.076 -166.54c532.56 9.08105 1065.25 10.2207 1597.84 3.2002zM1736.32 2007.63c-123.662 -91.0938 -219.088 -213.382 -289.7 -349.146c46.0098 10.1074 91.873 20.8613 137.483 32.6426
c136.17 35.1758 276.16 76.5459 401.163 142.15c57.2041 30.0225 128.51 65.0986 166.893 118.869c38.5361 53.9844 59.0508 139.638 -22.1289 165.272c-134.577 42.5029 -287.695 -31.6963 -393.71 -109.789zM1303.5 1360.32c11.5811 46.123 25.208 91.8066 41.1562 136.95
c-9.9873 -0.240234 -19.9746 -0.473633 -29.9688 -0.720703c-3.95996 -45.3896 -7.7207 -90.7998 -11.1875 -136.229z" />
    <glyph glyph-name="U" unicode="U" horiz-adv-x="1740" 
d="M1569.24 2406.85c60.8779 3.94043 104.312 -49.4551 114.412 -104.659c13.5879 -74.3525 1.56055 -156.452 -1.0127 -231.531c-5.50684 -160.405 -23.5615 -320.164 -48.4971 -478.643c-40.6299 -258.226 -93.6543 -515.225 -154.426 -769.797
c34.3428 -485.47 91.1201 -969.546 170.106 -1449.62c5.61328 -34.1025 -8.42773 -68.5049 -44.5303 -78.4258c-30.4023 -8.35352 -73.2256 10.4609 -78.4258 44.5303c-12.5547 82.3193 -24.5156 164.732 -35.7695 247.245
c-40.6426 297.956 -73.3447 597.639 -96.7061 898.081c-68.8389 -258.572 -148.564 -517.125 -263.366 -758.109c-104.228 -218.776 -294.602 -552.781 -585.724 -501.471c-139.517 24.5889 -244.664 139.444 -303.635 262.16
c-67.8652 141.23 -102.268 298.829 -126.583 452.721c-51.9238 328.578 -61.1982 664.943 -64.4785 997.035c-3.35352 338.852 7.79395 677.344 20.708 1015.9c2 52.5508 81.793 52.8506 81.8799 0c0.120117 -77.459 0.353516 -154.918 0.360352 -232.377
c0.0332031 -316.397 0.526367 -633.181 12.0811 -949.404c11.1738 -305.776 21.6416 -617.699 85.2598 -917.901c28.6357 -135.13 62.6719 -282.221 138.971 -399.442c65.3779 -100.447 183.993 -175.14 305.183 -133.703c119.669 40.9102 203.742 154.852 269.28 256.739
c76.626 119.122 136.464 248.198 187.555 380.048c92.834 239.585 164.286 487.117 227.817 736.103c-18.7285 297.436 -27.9492 595.392 -26.0361 892.934c1.06055 164.206 8.83398 328.531 32.1953 491.196c10.0674 70.1182 25.2021 138.25 54.3311 203.108
c24.1016 53.6504 62.6377 122.989 129.05 127.283zM1610.38 1731.19c22.6279 154.691 38.8477 311.479 35.0342 467.977c-0.913086 37.5166 2.35352 83.5137 -15.0674 117.949c-18.4277 36.4229 -49.1562 41.8301 -75.0381 11.6475
c-41.7168 -48.6299 -60.1113 -113.035 -73.7256 -174.467c-31.9824 -144.291 -35.1895 -297.396 -36.8359 -444.62c-1.75977 -157.332 4.05371 -314.744 10.9873 -471.89c2.90723 -65.958 6.32715 -131.903 10.0742 -197.828c56.2578 228.717 110.429 457.9 144.571 691.231
z" />
    <glyph glyph-name="U" unicode="&#xdc;" horiz-adv-x="1740" 
d="M1569.24 2406.85c60.8779 3.94043 104.312 -49.4551 114.412 -104.659c13.5879 -74.3525 1.56055 -156.452 -1.0127 -231.531c-5.50684 -160.405 -23.5615 -320.164 -48.4971 -478.643c-40.6299 -258.226 -93.6543 -515.225 -154.426 -769.797
c34.3428 -485.47 91.1201 -969.546 170.106 -1449.62c5.61328 -34.1025 -8.42773 -68.5049 -44.5303 -78.4258c-30.4023 -8.35352 -73.2256 10.4609 -78.4258 44.5303c-12.5547 82.3193 -24.5156 164.732 -35.7695 247.245
c-40.6426 297.956 -73.3447 597.639 -96.7061 898.081c-68.8389 -258.572 -148.564 -517.125 -263.366 -758.109c-104.228 -218.776 -294.602 -552.781 -585.724 -501.471c-139.517 24.5889 -244.664 139.444 -303.635 262.16
c-67.8652 141.23 -102.268 298.829 -126.583 452.721c-51.9238 328.578 -61.1982 664.943 -64.4785 997.035c-3.35352 338.852 7.79395 677.344 20.708 1015.9c2 52.5508 81.793 52.8506 81.8799 0c0.120117 -77.459 0.353516 -154.918 0.360352 -232.377
c0.0332031 -316.397 0.526367 -633.181 12.0811 -949.404c11.1738 -305.776 21.6416 -617.699 85.2598 -917.901c28.6357 -135.13 62.6719 -282.221 138.971 -399.442c65.3779 -100.447 183.993 -175.14 305.183 -133.703c119.669 40.9102 203.742 154.852 269.28 256.739
c76.626 119.122 136.464 248.198 187.555 380.048c92.834 239.585 164.286 487.117 227.817 736.103c-18.7285 297.436 -27.9492 595.392 -26.0361 892.934c1.06055 164.206 8.83398 328.531 32.1953 491.196c10.0674 70.1182 25.2021 138.25 54.3311 203.108
c24.1016 53.6504 62.6377 122.989 129.05 127.283zM1610.38 1731.19c22.6279 154.691 38.8477 311.479 35.0342 467.977c-0.913086 37.5166 2.35352 83.5137 -15.0674 117.949c-18.4277 36.4229 -49.1562 41.8301 -75.0381 11.6475
c-41.7168 -48.6299 -60.1113 -113.035 -73.7256 -174.467c-31.9824 -144.291 -35.1895 -297.396 -36.8359 -444.62c-1.75977 -157.332 4.05371 -314.744 10.9873 -471.89c2.90723 -65.958 6.32715 -131.903 10.0742 -197.828c56.2578 228.717 110.429 457.9 144.571 691.231
z" />
    <glyph glyph-name="U" unicode="&#xdb;" horiz-adv-x="1740" 
d="M1569.24 2406.85c60.8779 3.94043 104.312 -49.4551 114.412 -104.659c13.5879 -74.3525 1.56055 -156.452 -1.0127 -231.531c-5.50684 -160.405 -23.5615 -320.164 -48.4971 -478.643c-40.6299 -258.226 -93.6543 -515.225 -154.426 -769.797
c34.3428 -485.47 91.1201 -969.546 170.106 -1449.62c5.61328 -34.1025 -8.42773 -68.5049 -44.5303 -78.4258c-30.4023 -8.35352 -73.2256 10.4609 -78.4258 44.5303c-12.5547 82.3193 -24.5156 164.732 -35.7695 247.245
c-40.6426 297.956 -73.3447 597.639 -96.7061 898.081c-68.8389 -258.572 -148.564 -517.125 -263.366 -758.109c-104.228 -218.776 -294.602 -552.781 -585.724 -501.471c-139.517 24.5889 -244.664 139.444 -303.635 262.16
c-67.8652 141.23 -102.268 298.829 -126.583 452.721c-51.9238 328.578 -61.1982 664.943 -64.4785 997.035c-3.35352 338.852 7.79395 677.344 20.708 1015.9c2 52.5508 81.793 52.8506 81.8799 0c0.120117 -77.459 0.353516 -154.918 0.360352 -232.377
c0.0332031 -316.397 0.526367 -633.181 12.0811 -949.404c11.1738 -305.776 21.6416 -617.699 85.2598 -917.901c28.6357 -135.13 62.6719 -282.221 138.971 -399.442c65.3779 -100.447 183.993 -175.14 305.183 -133.703c119.669 40.9102 203.742 154.852 269.28 256.739
c76.626 119.122 136.464 248.198 187.555 380.048c92.834 239.585 164.286 487.117 227.817 736.103c-18.7285 297.436 -27.9492 595.392 -26.0361 892.934c1.06055 164.206 8.83398 328.531 32.1953 491.196c10.0674 70.1182 25.2021 138.25 54.3311 203.108
c24.1016 53.6504 62.6377 122.989 129.05 127.283zM1610.38 1731.19c22.6279 154.691 38.8477 311.479 35.0342 467.977c-0.913086 37.5166 2.35352 83.5137 -15.0674 117.949c-18.4277 36.4229 -49.1562 41.8301 -75.0381 11.6475
c-41.7168 -48.6299 -60.1113 -113.035 -73.7256 -174.467c-31.9824 -144.291 -35.1895 -297.396 -36.8359 -444.62c-1.75977 -157.332 4.05371 -314.744 10.9873 -471.89c2.90723 -65.958 6.32715 -131.903 10.0742 -197.828c56.2578 228.717 110.429 457.9 144.571 691.231
z" />
    <glyph glyph-name="U" unicode="&#xda;" horiz-adv-x="1740" 
d="M1569.24 2406.85c60.8779 3.94043 104.312 -49.4551 114.412 -104.659c13.5879 -74.3525 1.56055 -156.452 -1.0127 -231.531c-5.50684 -160.405 -23.5615 -320.164 -48.4971 -478.643c-40.6299 -258.226 -93.6543 -515.225 -154.426 -769.797
c34.3428 -485.47 91.1201 -969.546 170.106 -1449.62c5.61328 -34.1025 -8.42773 -68.5049 -44.5303 -78.4258c-30.4023 -8.35352 -73.2256 10.4609 -78.4258 44.5303c-12.5547 82.3193 -24.5156 164.732 -35.7695 247.245
c-40.6426 297.956 -73.3447 597.639 -96.7061 898.081c-68.8389 -258.572 -148.564 -517.125 -263.366 -758.109c-104.228 -218.776 -294.602 -552.781 -585.724 -501.471c-139.517 24.5889 -244.664 139.444 -303.635 262.16
c-67.8652 141.23 -102.268 298.829 -126.583 452.721c-51.9238 328.578 -61.1982 664.943 -64.4785 997.035c-3.35352 338.852 7.79395 677.344 20.708 1015.9c2 52.5508 81.793 52.8506 81.8799 0c0.120117 -77.459 0.353516 -154.918 0.360352 -232.377
c0.0332031 -316.397 0.526367 -633.181 12.0811 -949.404c11.1738 -305.776 21.6416 -617.699 85.2598 -917.901c28.6357 -135.13 62.6719 -282.221 138.971 -399.442c65.3779 -100.447 183.993 -175.14 305.183 -133.703c119.669 40.9102 203.742 154.852 269.28 256.739
c76.626 119.122 136.464 248.198 187.555 380.048c92.834 239.585 164.286 487.117 227.817 736.103c-18.7285 297.436 -27.9492 595.392 -26.0361 892.934c1.06055 164.206 8.83398 328.531 32.1953 491.196c10.0674 70.1182 25.2021 138.25 54.3311 203.108
c24.1016 53.6504 62.6377 122.989 129.05 127.283zM1610.38 1731.19c22.6279 154.691 38.8477 311.479 35.0342 467.977c-0.913086 37.5166 2.35352 83.5137 -15.0674 117.949c-18.4277 36.4229 -49.1562 41.8301 -75.0381 11.6475
c-41.7168 -48.6299 -60.1113 -113.035 -73.7256 -174.467c-31.9824 -144.291 -35.1895 -297.396 -36.8359 -444.62c-1.75977 -157.332 4.05371 -314.744 10.9873 -471.89c2.90723 -65.958 6.32715 -131.903 10.0742 -197.828c56.2578 228.717 110.429 457.9 144.571 691.231
z" />
    <glyph glyph-name="V" unicode="V" horiz-adv-x="2612" 
d="M2870.11 2303.35c34.0762 -1.84668 62.7324 -9.67188 87.8945 -33.8271c10.9609 -10.5273 -0.333008 -33.5889 -15.8145 -27.1621c-35.4492 14.7148 -73.5518 0.320312 -102.44 -22.748c-28.9287 -23.1016 -46.6699 -60.9307 -61.6973 -93.8193
c-292.195 -639.468 -327.545 -1360.54 -432.973 -2045.4c-27.0156 -175.473 -57.9443 -350.525 -98.2744 -523.479c-18.2012 -78.0527 -33.7285 -163.732 -69.418 -236.078c-29.4424 -59.6846 -82.8193 -119.695 -155.111 -115.115
c-76.6992 4.86035 -127.236 85.0127 -164.072 143.45c-45.9033 72.832 -84.0664 151.118 -116.136 230.951c-65.0918 162.039 -112.648 331.765 -149.685 502.237c-40.8027 187.814 -68.7715 377.815 -93.54 568.316c-48.624 -27.8086 -97.5811 -55.0371 -147.358 -80.7393
c-285.095 -147.218 -636.188 -249.445 -939.771 -91.2939c-287.648 149.845 -371.361 496.023 -360.848 796.319c11.6807 333.559 134.297 682.218 355.54 935.297c99.2803 113.568 236.157 212.436 392.242 217.47c157.265 5.07324 294.935 -95.3213 381.141 -220.077
c101.107 -146.317 147.711 -329.838 189.36 -500.364c44.3965 -181.76 74.999 -366.554 100.814 -551.761c20.7012 -148.518 38.3096 -297.602 57.5176 -446.439c16.1943 9.36035 32.3086 18.7207 48.29 28.0352c20.2217 11.7812 38.4434 -19.5547 18.3018 -31.3018
c-20.4951 -11.9473 -40.9902 -23.8945 -61.5322 -35.7686c26.9824 -205.542 57.8447 -410.45 105.108 -612.552c41.7295 -178.434 93.7139 -357.7 174.847 -522.593c39.2363 -79.7461 87.373 -155.418 151.531 -217.656c27.5684 -26.749 50.1104 -32.8291 77.2793 -4.78711
c20.708 21.3818 33.3359 49.9639 43.0898 77.7529c28.8086 82.0459 45.1768 170.206 64.5049 254.886c20.1816 88.3799 38.123 177.26 54.5176 266.42c32.8887 178.894 59.124 358.854 85.4863 538.794c52.4443 357.953 101.381 717.474 190.414 1068.63
c44.5029 175.513 98.3467 349.919 169.252 516.698c31.4092 73.8857 61.1182 162.072 119.376 219.776c27.0957 26.8291 63.1455 50.0371 102.162 47.9307zM602.644 450.811c319.523 -64.458 619.506 83.4707 891.146 238.896
c-19.4619 152.145 -37.29 304.536 -58.3379 456.321c-24.8623 179.273 -54.2314 358.153 -96.2412 534.293c-39.7627 166.713 -83.7656 344.613 -177.032 490.511c-90.0869 140.931 -244.245 241.071 -415.998 202.188
c-151.258 -34.2422 -276.78 -154.438 -366.653 -275.233c-203.295 -273.228 -306.996 -620.42 -287.708 -960.485c8.67383 -152.951 45.2969 -310.083 130.77 -439.186c87.8994 -132.776 225.236 -216.069 380.055 -247.305z" />
    <glyph glyph-name="W" unicode="W" horiz-adv-x="2666" 
d="M2875.94 2399.79c50.624 18.0352 112.512 2.05469 146.168 -41.1885c10.5479 -13.5479 -6.83984 -32.5957 -19.4473 -19.4482c-29.2285 30.4824 -72.6914 17.1416 -103.007 -6.44727c-30.0752 -23.4082 -49.5098 -60.6309 -65.1777 -94.5068
c-37.6494 -81.4062 -69.5381 -166.032 -98.334 -250.925c-59.084 -174.187 -102.007 -353.453 -136.016 -534.094c-60.6445 -322.124 -95.6338 -648.422 -143.884 -972.479c-24.3281 -163.398 -49.9102 -327.678 -90.2129 -488.017
c-37.0557 -147.397 -86.4189 -313.843 -196.947 -424.225c-48.3232 -48.2568 -109.895 -85.6064 -179.013 -91.6865c-69.5322 -6.11426 -135.717 24.0146 -188.348 67.4375c-117.896 97.2676 -182.82 252.952 -227.063 395.13
c-63.8516 205.182 -89.9736 418.077 -101.748 632.093c-6.69336 -46.9307 -13.8271 -93.7139 -21.1943 -140.284c-28.9619 -183.181 -67.5918 -365.321 -125.59 -541.668c-72.292 -219.81 -224.75 -652.988 -537.033 -493.609
c-130.17 66.4316 -218.696 199.269 -278.681 328.138c-67.5186 145.051 -113.021 301.656 -152.511 456.328c-168.186 658.77 -163.505 1347.13 -306.575 2010.73c-13.8145 64.0713 84.626 91.1465 98.2402 27.0879c75.5127 -355.26 110.896 -717.153 150.985 -1077.65
c35.3564 -317.964 76.2793 -635.567 151.278 -946.997c35.543 -147.584 77.0391 -296.368 136.743 -436.232c52.3838 -122.716 135.896 -265.507 267.347 -315.664c142.124 -54.2373 241.385 70.8057 298.936 183.567c70.0986 137.356 120.376 285.654 160.306 434.306
c40.9766 152.558 69.9316 308.103 92.8936 464.308c20.5947 140.03 33.209 281.395 54.291 421.332c-0.0595703 4.54688 -0.125977 9.10059 -0.185547 13.6406c-0.106445 7.85352 1.93359 14.3145 5.33398 19.4551c0.546875 3.41406 1.02734 6.84082 1.58691 10.248
c3.86719 23.4414 38.5693 20.335 44.4961 0.766602c10.7412 -4.99414 18.9551 -15.1484 19.2148 -30.4766c6.20703 -371.348 8.07422 -764.604 153.418 -1113.18c30.4824 -73.0986 69.7383 -144.371 123.989 -202.603c45.1836 -48.4971 107.155 -94.4805 177.261 -78.5723
c60.5049 13.7275 104.035 64.0908 136.958 113.588c42.0635 63.2451 70.3389 136.277 94.4336 207.916c52.4971 156.071 81.0723 320.11 108.414 482.122c26.9482 159.698 49.1768 320.144 71.625 480.529c44.9238 320.904 92.4004 642.375 181.62 954.538
c43.3037 151.512 95.4473 302.323 163.712 444.554c29.1221 60.6709 64.1182 128.049 131.717 152.131z" />
    <glyph glyph-name="X" unicode="X" horiz-adv-x="1814" 
d="M1962.02 -588.648c19.1484 1.21973 23.7539 -21.8975 14.1396 -34.1455c-21.2949 -27.1357 -42.5635 -36.7227 -76.5859 -41.6826c-29.502 -4.30078 -60.1514 -3.14062 -89.1533 4.0332c-54.1973 13.4072 -101.688 45.3965 -141.464 83.7129
c-86.4463 83.2666 -138.724 196.009 -187.761 303.617c-123.562 271.146 -205.889 556.401 -286.642 842.256c-47.0703 -85.333 -94.8936 -170.253 -143.624 -254.68c-123.249 -213.549 -249.139 -427.078 -400.87 -621.939
c-139.83 -179.58 -308.249 -357.394 -531.806 -425.959c-69.6855 -21.3682 -96.6807 84.0068 -29.7422 107.889c117.735 42.0098 219.543 121.456 307.136 208.942c96.6875 96.5674 181.747 204.182 259.6 316.29c146.071 210.329 273.601 434.239 399.057 657.249
c32.0225 56.9238 63.7451 114.035 95.2139 171.279c-31.6289 110.802 -64.125 221.316 -99.8076 330.758c-71.6318 219.703 -158.151 432.719 -273.054 633.554c-54.3506 95 -118.269 187.601 -210.396 249.679c-85.6064 57.6846 -198.481 84.9062 -297.608 48.0166
c-31.1689 -11.6006 -48.5771 36.0498 -21.915 51.9775c107.354 64.1445 233.063 55.3174 343.312 2.79297c115.396 -54.9775 199.602 -161.712 266.5 -267.359c123.716 -195.375 210.409 -416.078 284.048 -634.421c30.6221 -90.793 58.6504 -182.387 85.5723 -274.313
c69.292 128.097 137.544 256.76 205.189 385.689c122.843 234.131 244.085 469.095 367.008 703.186c61.0713 116.315 120.456 233.918 184.641 348.553c25.4287 45.4102 57.9775 94.0801 110.208 110.088c44.1104 13.5215 86.3467 5.67383 112.875 -33.1426
c8.13379 -11.9072 -5.36719 -27.6748 -18.3545 -23.875c-63.8779 18.7148 -104.741 -42.3359 -129.163 -91.0059c-32.082 -63.9512 -64.0908 -127.942 -95.9395 -192.007c-64.6318 -130.003 -128.71 -260.279 -192.795 -390.556
c-161.112 -327.524 -324.871 -653.995 -498.211 -975.272c22.4551 -79.5195 44.6299 -159.125 67.3848 -238.544c63.7451 -222.497 131.483 -445.42 223.664 -658.062c41.8232 -96.4805 85.5801 -197.802 149.418 -282.175
c27.5752 -36.4424 61.1846 -67.8984 100.821 -90.7666c46.6504 -26.915 96.3203 -33.0225 149.104 -29.6553z" />
    <glyph glyph-name="Y" unicode="Y" horiz-adv-x="2176" 
d="M2065.51 842.291c43.543 33.1895 85.8516 -40.667 42.915 -73.4023c-43.1162 -32.8691 -84.8994 -67.5381 -125.609 -103.395c-23.9414 -251.205 -67.4248 -501.137 -124.456 -745.342c-44.2432 -189.454 -102.361 -381.021 -191.848 -554.481
c-70.9189 -137.464 -230.364 -346.886 -410.671 -261.18c-70.9453 33.7227 -107.488 113.402 -118.069 187.388c-13.5811 94.9268 2.77344 194.094 28.915 285.514c48.8975 170.966 127.644 336.698 216.104 490.503c134.116 233.197 304.049 442.819 501.99 623.366
c39.9893 330.305 50.5635 667.85 -4.72754 995.627c-14.9814 88.8467 -32.2891 178.634 -65.7451 262.646c-16.2881 40.8965 -36.79 84.6797 -64.6855 119.149c-28.6025 35.3428 -58.6318 39.21 -95.6279 12.9609c-63.2246 -44.8496 -91.667 -125.469 -116.455 -195.407
c-30.8223 -86.9463 -58.7041 -174.926 -84.5596 -263.473c-100.621 -344.599 -169.986 -697.158 -258.446 -1044.88c-87.7129 -344.799 -196.494 -682.604 -364.646 -997.314c-76.8525 -143.831 -195.821 -320.751 -385.849 -282.694
c-169.906 34.0293 -248.358 230.044 -295.516 375.655c-58.8115 181.613 -81.54 373.901 -92.1338 563.822c-11.4277 204.795 -6.84082 410.243 8.27344 614.726c30.0088 405.896 98.1006 808.986 172.359 1208.81c10.2344 55.0908 91.6602 30.9561 83.1797 -22.9277
c-16.0283 -101.794 -32.8496 -203.455 -49.084 -305.223c-65.7852 -412.397 -120.329 -828.408 -117.603 -1246.82c1.32031 -201.962 12.2412 -407.317 52.5977 -605.619c19.4082 -95.3809 45.877 -190.321 84.5127 -279.828
c29.209 -67.665 69.0322 -142.098 133.644 -182.188c173.227 -107.481 304.937 142.891 368.048 264c84.7861 162.705 152.784 333.378 210.315 507.458c116.035 351.1 189.601 714.06 277.087 1072.83c43.8096 179.66 91.0195 358.646 148.49 534.479
c26.3086 80.4922 51.1836 165.191 92.5 239.59c36.1758 65.1445 103.247 142.271 185.394 138.203c83.5859 -4.13379 131.136 -100.088 160.165 -166.133c37.1025 -84.4199 58.4707 -174.713 75.8115 -264.973c38.5166 -200.488 58.8711 -403.83 61.2314 -607.959
c1.34668 -116.949 -2.54004 -234.211 -10.7402 -351.359c24.002 19.6484 48.2305 39.0361 72.9395 57.8711zM1857.95 496.521c3.08691 20.1016 6.06934 40.2578 8.96973 60.4395c-220.363 -220.01 -398.877 -480.569 -523.733 -766.051
c-35.4561 -81.0664 -67.7715 -164.579 -90.4863 -250.179c-21.9346 -82.6465 -37.376 -175.4 -13.0342 -259.287c20.6748 -71.2256 76.4326 -99.4277 144.991 -65.0986c73.8184 36.9561 125.122 109.048 164.925 179.047c90.9131 159.879 144.597 341.572 190.92 518.499
c50.1436 191.494 87.4062 387.035 117.448 582.63z" />
    <glyph glyph-name="Y" unicode="&#x178;" horiz-adv-x="2176" 
d="M2065.51 842.291c43.543 33.1895 85.8516 -40.667 42.915 -73.4023c-43.1162 -32.8691 -84.8994 -67.5381 -125.609 -103.395c-23.9414 -251.205 -67.4248 -501.137 -124.456 -745.342c-44.2432 -189.454 -102.361 -381.021 -191.848 -554.481
c-70.9189 -137.464 -230.364 -346.886 -410.671 -261.18c-70.9453 33.7227 -107.488 113.402 -118.069 187.388c-13.5811 94.9268 2.77344 194.094 28.915 285.514c48.8975 170.966 127.644 336.698 216.104 490.503c134.116 233.197 304.049 442.819 501.99 623.366
c39.9893 330.305 50.5635 667.85 -4.72754 995.627c-14.9814 88.8467 -32.2891 178.634 -65.7451 262.646c-16.2881 40.8965 -36.79 84.6797 -64.6855 119.149c-28.6025 35.3428 -58.6318 39.21 -95.6279 12.9609c-63.2246 -44.8496 -91.667 -125.469 -116.455 -195.407
c-30.8223 -86.9463 -58.7041 -174.926 -84.5596 -263.473c-100.621 -344.599 -169.986 -697.158 -258.446 -1044.88c-87.7129 -344.799 -196.494 -682.604 -364.646 -997.314c-76.8525 -143.831 -195.821 -320.751 -385.849 -282.694
c-169.906 34.0293 -248.358 230.044 -295.516 375.655c-58.8115 181.613 -81.54 373.901 -92.1338 563.822c-11.4277 204.795 -6.84082 410.243 8.27344 614.726c30.0088 405.896 98.1006 808.986 172.359 1208.81c10.2344 55.0908 91.6602 30.9561 83.1797 -22.9277
c-16.0283 -101.794 -32.8496 -203.455 -49.084 -305.223c-65.7852 -412.397 -120.329 -828.408 -117.603 -1246.82c1.32031 -201.962 12.2412 -407.317 52.5977 -605.619c19.4082 -95.3809 45.877 -190.321 84.5127 -279.828
c29.209 -67.665 69.0322 -142.098 133.644 -182.188c173.227 -107.481 304.937 142.891 368.048 264c84.7861 162.705 152.784 333.378 210.315 507.458c116.035 351.1 189.601 714.06 277.087 1072.83c43.8096 179.66 91.0195 358.646 148.49 534.479
c26.3086 80.4922 51.1836 165.191 92.5 239.59c36.1758 65.1445 103.247 142.271 185.394 138.203c83.5859 -4.13379 131.136 -100.088 160.165 -166.133c37.1025 -84.4199 58.4707 -174.713 75.8115 -264.973c38.5166 -200.488 58.8711 -403.83 61.2314 -607.959
c1.34668 -116.949 -2.54004 -234.211 -10.7402 -351.359c24.002 19.6484 48.2305 39.0361 72.9395 57.8711zM1857.95 496.521c3.08691 20.1016 6.06934 40.2578 8.96973 60.4395c-220.363 -220.01 -398.877 -480.569 -523.733 -766.051
c-35.4561 -81.0664 -67.7715 -164.579 -90.4863 -250.179c-21.9346 -82.6465 -37.376 -175.4 -13.0342 -259.287c20.6748 -71.2256 76.4326 -99.4277 144.991 -65.0986c73.8184 36.9561 125.122 109.048 164.925 179.047c90.9131 159.879 144.597 341.572 190.92 518.499
c50.1436 191.494 87.4062 387.035 117.448 582.63z" />
    <glyph glyph-name="Y" unicode="&#xdd;" horiz-adv-x="2176" 
d="M2065.51 842.291c43.543 33.1895 85.8516 -40.667 42.915 -73.4023c-43.1162 -32.8691 -84.8994 -67.5381 -125.609 -103.395c-23.9414 -251.205 -67.4248 -501.137 -124.456 -745.342c-44.2432 -189.454 -102.361 -381.021 -191.848 -554.481
c-70.9189 -137.464 -230.364 -346.886 -410.671 -261.18c-70.9453 33.7227 -107.488 113.402 -118.069 187.388c-13.5811 94.9268 2.77344 194.094 28.915 285.514c48.8975 170.966 127.644 336.698 216.104 490.503c134.116 233.197 304.049 442.819 501.99 623.366
c39.9893 330.305 50.5635 667.85 -4.72754 995.627c-14.9814 88.8467 -32.2891 178.634 -65.7451 262.646c-16.2881 40.8965 -36.79 84.6797 -64.6855 119.149c-28.6025 35.3428 -58.6318 39.21 -95.6279 12.9609c-63.2246 -44.8496 -91.667 -125.469 -116.455 -195.407
c-30.8223 -86.9463 -58.7041 -174.926 -84.5596 -263.473c-100.621 -344.599 -169.986 -697.158 -258.446 -1044.88c-87.7129 -344.799 -196.494 -682.604 -364.646 -997.314c-76.8525 -143.831 -195.821 -320.751 -385.849 -282.694
c-169.906 34.0293 -248.358 230.044 -295.516 375.655c-58.8115 181.613 -81.54 373.901 -92.1338 563.822c-11.4277 204.795 -6.84082 410.243 8.27344 614.726c30.0088 405.896 98.1006 808.986 172.359 1208.81c10.2344 55.0908 91.6602 30.9561 83.1797 -22.9277
c-16.0283 -101.794 -32.8496 -203.455 -49.084 -305.223c-65.7852 -412.397 -120.329 -828.408 -117.603 -1246.82c1.32031 -201.962 12.2412 -407.317 52.5977 -605.619c19.4082 -95.3809 45.877 -190.321 84.5127 -279.828
c29.209 -67.665 69.0322 -142.098 133.644 -182.188c173.227 -107.481 304.937 142.891 368.048 264c84.7861 162.705 152.784 333.378 210.315 507.458c116.035 351.1 189.601 714.06 277.087 1072.83c43.8096 179.66 91.0195 358.646 148.49 534.479
c26.3086 80.4922 51.1836 165.191 92.5 239.59c36.1758 65.1445 103.247 142.271 185.394 138.203c83.5859 -4.13379 131.136 -100.088 160.165 -166.133c37.1025 -84.4199 58.4707 -174.713 75.8115 -264.973c38.5166 -200.488 58.8711 -403.83 61.2314 -607.959
c1.34668 -116.949 -2.54004 -234.211 -10.7402 -351.359c24.002 19.6484 48.2305 39.0361 72.9395 57.8711zM1857.95 496.521c3.08691 20.1016 6.06934 40.2578 8.96973 60.4395c-220.363 -220.01 -398.877 -480.569 -523.733 -766.051
c-35.4561 -81.0664 -67.7715 -164.579 -90.4863 -250.179c-21.9346 -82.6465 -37.376 -175.4 -13.0342 -259.287c20.6748 -71.2256 76.4326 -99.4277 144.991 -65.0986c73.8184 36.9561 125.122 109.048 164.925 179.047c90.9131 159.879 144.597 341.572 190.92 518.499
c50.1436 191.494 87.4062 387.035 117.448 582.63z" />
    <glyph glyph-name="Z" unicode="Z" horiz-adv-x="2464" 
d="M2486.85 2021.66c62.251 -121.476 53.6367 -265.343 26.7744 -395.146c-30.749 -148.758 -83.8193 -293.062 -146.317 -431.191c-128.083 -283.088 -306.189 -541.78 -499.657 -783.785c-153.312 -191.774 -320.297 -373.588 -502.137 -538.867
c314.323 32.5957 638.794 44.1768 942.097 -58.1045c41.3896 -13.9609 23.5547 -79.6992 -18.1084 -65.6982c-69.6787 23.4082 -140.931 41.3359 -213.369 53.8232c-263.187 45.3701 -534.934 23.6816 -799.767 -8.6875
c-17.5947 -15.0547 -35.2832 -30.0088 -53.1445 -44.7432c-234.298 -193.268 -502.238 -390.676 -814.088 -420.671c-106.501 -10.2412 -314.923 -8.34766 -354.353 122.522c-19.7881 65.6846 24.915 119.455 77.1387 152.771
c64.4248 41.1035 138.863 69.2256 211.582 91.6475c156.139 48.1436 320.371 74.8525 481.13 102.541c125.729 21.6553 251.979 40.3232 378.588 56.0508c56.3711 48.1367 111.175 97.5801 164.586 147.03c210.883 195.281 402.804 411.124 575.724 640.595
c172.053 228.323 330.705 470.222 435.433 737.575c85.5068 218.283 203.303 569.89 -32.2744 738.575c-98.0078 70.1787 -224.457 87.167 -342.126 86.4072c-144.678 -0.933594 -290.068 -25.6357 -429.912 -61.5117
c-274.827 -70.5117 -547.694 -188.794 -779.785 -353.126c-110.695 -78.3789 -212.937 -171.339 -294.176 -280.38c-81.5527 -109.468 -150.478 -253.691 -94.3936 -389.542c6.90723 -16.7275 -22.0879 -28.6748 -29.1289 -12.2803
c-26.0488 60.6982 -30.8154 124.35 -18.2012 189.048c26.835 137.644 119.016 256.372 214.743 354.513c98.6143 101.107 213.716 185.447 335.125 257.086c268.627 158.512 572.956 273.801 882.266 317.791c234.544 33.3555 568.775 43.5098 695.752 -204.242z
M274.221 -579.505c139.811 -7.9541 277.373 26.8057 404.303 83.957c151.592 68.252 292.336 162.319 424.439 267.001c-138.217 -19.2344 -275.921 -42.2559 -412.911 -68.7578c-144.331 -27.9219 -293.969 -54.8105 -429.159 -114.668
c-34.4629 -15.2607 -152.165 -58.6309 -130.156 -113.295c18.915 -46.9902 102.388 -51.8975 143.484 -54.2373z" />
    <glyph glyph-name="bracketleft" unicode="[" horiz-adv-x="697" 
d="M596.616 -322.385c53.3838 12.2744 69.5303 -59.5225 21.9336 -79.5576c-100.321 -42.2295 -207.749 -70.2715 -316.211 -44.8027c-97.2471 22.835 -168.886 87.8467 -206.202 179.727c-34.9756 86.126 -40.5557 184.54 -44.3428 276.46
c-4.31348 104.642 -0.206055 209.409 5.56152 313.903c11.4941 208.482 23.5889 416.878 37.3896 625.22c13.8145 208.529 28.8223 416.991 39.3701 625.707c3.87988 76.9121 3.74609 174.466 69.4912 227.83c50.5234 41.0098 128.716 49.6641 169.699 -8
c13.0879 -18.4082 -12.2939 -41.6504 -30.3555 -30.3564c-28.5889 17.8809 -65.5117 11.1738 -89.8467 -11.1279c-28.3887 -26.0156 -37.2158 -68.1719 -40.7158 -104.795c-9.28027 -97.001 -9.06738 -195.842 -11.5205 -293.209
c-9.14746 -363.454 -20.6084 -726.741 -31.8955 -1090.13c-2.77344 -89.373 -5.02734 -178.733 -0.306641 -268.094c3.9668 -75.0918 8.00684 -157.845 39.1494 -227.616c68.8115 -154.151 256.452 -121.582 388.802 -91.1602z" />
    <glyph glyph-name="backslash" unicode="\" horiz-adv-x="1069" 
d="M985.122 1664.83c12.1475 14.7676 38.9443 -1.0791 32.3838 -18.8604c-27.6152 -74.8721 -65.8652 -145.991 -102.274 -216.93c-37.5361 -73.1387 -73.6123 -146.978 -110.042 -220.67c-258.52 -522.939 -476.343 -1064.15 -650.056 -1621.09
c-20.3281 -65.1719 -122.869 -37.1836 -102.461 28.248c49.5234 158.771 103.034 316.13 161.038 472.008c102.354 275.054 215.569 546.574 342.705 811.121c63.9043 132.977 129.656 265.46 200.868 394.696c69.3252 125.816 136.277 260.16 227.838 371.481z" />
    <glyph glyph-name="bracketright" unicode="]" horiz-adv-x="565" 
d="M508.658 997.721c7.49414 -188.627 9.91699 -378.389 -0.990234 -566.923c-10.6611 -184.347 -33.2832 -371.041 -85.0537 -548.768c-42.8428 -147.084 -144.65 -314.45 -320.497 -303.356c-68.9453 4.35352 -70.0254 109.968 0 108.135
c171.22 -4.48047 218.903 213.289 247.905 342.065c71.9258 319.377 73.0322 656.056 66.6514 981.94c-3.27344 167.426 -7.88086 338.719 -40.4697 503.431c-13.5742 68.625 -32.416 159.285 -82.4668 211.622c-51.0439 53.377 -135.243 38.1426 -199.995 26.1621
c-42.0635 -7.78027 -60.085 56.3047 -17.7822 64.4922c80.2256 15.5273 172.652 29.2422 243.424 -22.2012c73.8584 -53.6904 99.5332 -159.479 121.269 -242.958c46.6572 -179.227 60.6787 -369.201 68.0059 -553.642z" />
    <glyph glyph-name="asciicircum" unicode="^" horiz-adv-x="470" 
d="M418.951 831.008c8.30078 -54.5244 -70.1387 -63.6689 -73.6719 -9.97168c-4.89355 74.4258 -13.3809 148.444 -21.4619 222.583c-3.7666 34.583 -5.19336 70.7256 -12.9473 104.682c-1.64648 7.2002 -4.01367 14.0869 -6.00684 21.1738
c-0.926758 3.30664 -1.75977 5.28027 -2.41992 6.4668c-9.28711 -6.80762 -18.0947 -20.1016 -24.8623 -28.3887c-74.2324 -90.9131 -100.208 -214.643 -178.733 -301.689c-23.2217 -25.7422 -59.9043 7.20703 -45.6504 35.2227
c33.7695 66.3379 68.6123 132.596 102.988 198.721c16.6211 31.9619 34.5488 63.3447 55.9434 92.3867c17.9414 24.3623 39.5762 57.0312 67.9248 69.959c82.5928 37.6562 100.147 -90.5801 106.107 -141.317c10.5742 -89.9736 19.1553 -180.261 32.79 -269.827z
M301.815 1176.95c-0.953125 1.2334 -1.16016 0.240234 0 0z" />
    <glyph glyph-name="underscore" unicode="_" horiz-adv-x="850" 
d="M760.729 -67.8193c52.5371 -5.1875 52.623 -88.0605 -0.000976562 -82.5068c-112.722 11.9014 -225.977 17.5752 -339.332 16.3486c-113.142 -1.22656 -225.903 -17.874 -338.752 -18.3076c-37.8564 -0.146484 -45.3369 56.0908 -8.8877 65.6846
c108.988 28.6885 228.944 30.4551 341.106 32.709c115.482 2.32031 230.931 -2.57324 345.866 -13.9277z" />
    <glyph glyph-name="grave" unicode="`" horiz-adv-x="257" 
d="M204.847 916.055c18.1348 -60.7441 -76.6045 -86.4521 -94.626 -26.0879c-14.3408 48.0303 -27.9355 96.3477 -38.7627 145.305c-10.3145 46.623 -27.8096 98.8135 -19.1025 146.443c6.7207 36.7764 58.0381 37.5566 75.3994 9.86133
c24.0889 -38.4365 27.7021 -92.834 39.043 -136.518c12.0811 -46.5166 24.2949 -92.9404 38.0488 -139.004z" />
    <glyph glyph-name="a" unicode="a" horiz-adv-x="408" 
d="M412.986 230.631c8.18066 18.001 34.3232 2.35156 26.4492 -15.4561c-28.9688 -65.458 -61.458 -130.25 -99.1475 -191.175c-13.7812 -22.2686 -29.9229 -45.8701 -51.9316 -60.8184c-18.2549 -12.3945 -44.9766 -30.0762 -68.0781 -27.4297
c-69.8916 8.00684 -88.6533 95.6396 -93.3936 153.957c-16.8281 -26.8955 -37.8428 -52.6445 -71.2256 -57.0186c-35.3828 -4.64062 -65.3516 17.2012 -75.9922 50.5635c-22.6553 71.0117 16.0479 160.832 61.7783 215.029c29.7285 35.2363 84.5996 63.8252 129.87 55.6709
c33.0957 18.708 87.793 0.759766 82.3057 -44.5303c-6.74707 -55.6904 -19.0947 -110.715 -22.6279 -166.786c-2.44727 -38.7832 -11.4209 -116.569 18.708 -147.738c28.5088 -29.4893 78.8525 73.0254 91.4072 95.127c26.0215 45.8105 50.0762 92.6338 71.8779 140.604z
M116.186 215.241c5.38672 13.7412 9.64844 27.876 13.6289 42.084c-18.0283 -16.4883 -39.4102 -50.3643 -41.8906 -55.251c-7.51367 -14.8076 -13.4209 -30.5557 -17.5947 -46.6367c-2.14648 -8.29395 -1.97949 -19.875 -3.5127 -29.1152
c4.42676 4.59375 8.66016 9.13379 9.55371 10.4141c5.08008 7.27344 9.55371 14.9805 13.834 22.7539c9.88086 17.9414 18.5146 36.6963 25.9814 55.751z" />
    <glyph glyph-name="a" unicode="&#xe5;" horiz-adv-x="408" 
d="M412.986 230.631c8.18066 18.001 34.3232 2.35156 26.4492 -15.4561c-28.9688 -65.458 -61.458 -130.25 -99.1475 -191.175c-13.7812 -22.2686 -29.9229 -45.8701 -51.9316 -60.8184c-18.2549 -12.3945 -44.9766 -30.0762 -68.0781 -27.4297
c-69.8916 8.00684 -88.6533 95.6396 -93.3936 153.957c-16.8281 -26.8955 -37.8428 -52.6445 -71.2256 -57.0186c-35.3828 -4.64062 -65.3516 17.2012 -75.9922 50.5635c-22.6553 71.0117 16.0479 160.832 61.7783 215.029c29.7285 35.2363 84.5996 63.8252 129.87 55.6709
c33.0957 18.708 87.793 0.759766 82.3057 -44.5303c-6.74707 -55.6904 -19.0947 -110.715 -22.6279 -166.786c-2.44727 -38.7832 -11.4209 -116.569 18.708 -147.738c28.5088 -29.4893 78.8525 73.0254 91.4072 95.127c26.0215 45.8105 50.0762 92.6338 71.8779 140.604z
M116.186 215.241c5.38672 13.7412 9.64844 27.876 13.6289 42.084c-18.0283 -16.4883 -39.4102 -50.3643 -41.8906 -55.251c-7.51367 -14.8076 -13.4209 -30.5557 -17.5947 -46.6367c-2.14648 -8.29395 -1.97949 -19.875 -3.5127 -29.1152
c4.42676 4.59375 8.66016 9.13379 9.55371 10.4141c5.08008 7.27344 9.55371 14.9805 13.834 22.7539c9.88086 17.9414 18.5146 36.6963 25.9814 55.751z" />
    <glyph glyph-name="a" unicode="&#xe4;" horiz-adv-x="408" 
d="M412.986 230.631c8.18066 18.001 34.3232 2.35156 26.4492 -15.4561c-28.9688 -65.458 -61.458 -130.25 -99.1475 -191.175c-13.7812 -22.2686 -29.9229 -45.8701 -51.9316 -60.8184c-18.2549 -12.3945 -44.9766 -30.0762 -68.0781 -27.4297
c-69.8916 8.00684 -88.6533 95.6396 -93.3936 153.957c-16.8281 -26.8955 -37.8428 -52.6445 -71.2256 -57.0186c-35.3828 -4.64062 -65.3516 17.2012 -75.9922 50.5635c-22.6553 71.0117 16.0479 160.832 61.7783 215.029c29.7285 35.2363 84.5996 63.8252 129.87 55.6709
c33.0957 18.708 87.793 0.759766 82.3057 -44.5303c-6.74707 -55.6904 -19.0947 -110.715 -22.6279 -166.786c-2.44727 -38.7832 -11.4209 -116.569 18.708 -147.738c28.5088 -29.4893 78.8525 73.0254 91.4072 95.127c26.0215 45.8105 50.0762 92.6338 71.8779 140.604z
M116.186 215.241c5.38672 13.7412 9.64844 27.876 13.6289 42.084c-18.0283 -16.4883 -39.4102 -50.3643 -41.8906 -55.251c-7.51367 -14.8076 -13.4209 -30.5557 -17.5947 -46.6367c-2.14648 -8.29395 -1.97949 -19.875 -3.5127 -29.1152
c4.42676 4.59375 8.66016 9.13379 9.55371 10.4141c5.08008 7.27344 9.55371 14.9805 13.834 22.7539c9.88086 17.9414 18.5146 36.6963 25.9814 55.751z" />
    <glyph glyph-name="a" unicode="&#xe3;" horiz-adv-x="408" 
d="M412.986 230.631c8.18066 18.001 34.3232 2.35156 26.4492 -15.4561c-28.9688 -65.458 -61.458 -130.25 -99.1475 -191.175c-13.7812 -22.2686 -29.9229 -45.8701 -51.9316 -60.8184c-18.2549 -12.3945 -44.9766 -30.0762 -68.0781 -27.4297
c-69.8916 8.00684 -88.6533 95.6396 -93.3936 153.957c-16.8281 -26.8955 -37.8428 -52.6445 -71.2256 -57.0186c-35.3828 -4.64062 -65.3516 17.2012 -75.9922 50.5635c-22.6553 71.0117 16.0479 160.832 61.7783 215.029c29.7285 35.2363 84.5996 63.8252 129.87 55.6709
c33.0957 18.708 87.793 0.759766 82.3057 -44.5303c-6.74707 -55.6904 -19.0947 -110.715 -22.6279 -166.786c-2.44727 -38.7832 -11.4209 -116.569 18.708 -147.738c28.5088 -29.4893 78.8525 73.0254 91.4072 95.127c26.0215 45.8105 50.0762 92.6338 71.8779 140.604z
M116.186 215.241c5.38672 13.7412 9.64844 27.876 13.6289 42.084c-18.0283 -16.4883 -39.4102 -50.3643 -41.8906 -55.251c-7.51367 -14.8076 -13.4209 -30.5557 -17.5947 -46.6367c-2.14648 -8.29395 -1.97949 -19.875 -3.5127 -29.1152
c4.42676 4.59375 8.66016 9.13379 9.55371 10.4141c5.08008 7.27344 9.55371 14.9805 13.834 22.7539c9.88086 17.9414 18.5146 36.6963 25.9814 55.751z" />
    <glyph glyph-name="a" unicode="&#xe2;" horiz-adv-x="408" 
d="M412.986 230.631c8.18066 18.001 34.3232 2.35156 26.4492 -15.4561c-28.9688 -65.458 -61.458 -130.25 -99.1475 -191.175c-13.7812 -22.2686 -29.9229 -45.8701 -51.9316 -60.8184c-18.2549 -12.3945 -44.9766 -30.0762 -68.0781 -27.4297
c-69.8916 8.00684 -88.6533 95.6396 -93.3936 153.957c-16.8281 -26.8955 -37.8428 -52.6445 -71.2256 -57.0186c-35.3828 -4.64062 -65.3516 17.2012 -75.9922 50.5635c-22.6553 71.0117 16.0479 160.832 61.7783 215.029c29.7285 35.2363 84.5996 63.8252 129.87 55.6709
c33.0957 18.708 87.793 0.759766 82.3057 -44.5303c-6.74707 -55.6904 -19.0947 -110.715 -22.6279 -166.786c-2.44727 -38.7832 -11.4209 -116.569 18.708 -147.738c28.5088 -29.4893 78.8525 73.0254 91.4072 95.127c26.0215 45.8105 50.0762 92.6338 71.8779 140.604z
M116.186 215.241c5.38672 13.7412 9.64844 27.876 13.6289 42.084c-18.0283 -16.4883 -39.4102 -50.3643 -41.8906 -55.251c-7.51367 -14.8076 -13.4209 -30.5557 -17.5947 -46.6367c-2.14648 -8.29395 -1.97949 -19.875 -3.5127 -29.1152
c4.42676 4.59375 8.66016 9.13379 9.55371 10.4141c5.08008 7.27344 9.55371 14.9805 13.834 22.7539c9.88086 17.9414 18.5146 36.6963 25.9814 55.751z" />
    <glyph glyph-name="a" unicode="&#xe1;" horiz-adv-x="408" 
d="M412.986 230.631c8.18066 18.001 34.3232 2.35156 26.4492 -15.4561c-28.9688 -65.458 -61.458 -130.25 -99.1475 -191.175c-13.7812 -22.2686 -29.9229 -45.8701 -51.9316 -60.8184c-18.2549 -12.3945 -44.9766 -30.0762 -68.0781 -27.4297
c-69.8916 8.00684 -88.6533 95.6396 -93.3936 153.957c-16.8281 -26.8955 -37.8428 -52.6445 -71.2256 -57.0186c-35.3828 -4.64062 -65.3516 17.2012 -75.9922 50.5635c-22.6553 71.0117 16.0479 160.832 61.7783 215.029c29.7285 35.2363 84.5996 63.8252 129.87 55.6709
c33.0957 18.708 87.793 0.759766 82.3057 -44.5303c-6.74707 -55.6904 -19.0947 -110.715 -22.6279 -166.786c-2.44727 -38.7832 -11.4209 -116.569 18.708 -147.738c28.5088 -29.4893 78.8525 73.0254 91.4072 95.127c26.0215 45.8105 50.0762 92.6338 71.8779 140.604z
M116.186 215.241c5.38672 13.7412 9.64844 27.876 13.6289 42.084c-18.0283 -16.4883 -39.4102 -50.3643 -41.8906 -55.251c-7.51367 -14.8076 -13.4209 -30.5557 -17.5947 -46.6367c-2.14648 -8.29395 -1.97949 -19.875 -3.5127 -29.1152
c4.42676 4.59375 8.66016 9.13379 9.55371 10.4141c5.08008 7.27344 9.55371 14.9805 13.834 22.7539c9.88086 17.9414 18.5146 36.6963 25.9814 55.751z" />
    <glyph glyph-name="b" unicode="b" horiz-adv-x="489" 
d="M505.272 227.69c24.4287 2.07324 23.3398 -34.5723 0.00488281 -37.499c-35.7695 -4.5 -70.9854 -12.2939 -105.062 -23.1885c-2.86035 -17.6416 -6.34766 -35.1162 -10.2412 -52.291c-28.9688 -127.81 -102.421 -252.912 -224.863 -308.449
c-31.8486 -14.4473 -61.3975 -22.1475 -91.6797 0.287109c-21.9014 16.2217 -33.542 40.0439 -36.8223 66.7129c-2.88672 23.502 0.673828 46.6104 8.37402 68.7383c-13.8545 -0.473633 -27.876 5.59375 -35.583 19.2686
c-19.4414 34.4893 -20.7217 77.8457 -22.8418 116.755c-1.99316 36.5898 -2.35352 73.2529 -2.51367 109.883c-0.339844 76.0986 1.15332 152.058 5.16699 228.05c8.18066 154.925 23.5684 309.217 44.4102 462.935c4.2207 31.1494 44.1699 47.791 71.1182 40.3838
c32.7295 -8.9873 44.8906 -40.2627 40.3838 -71.1182c-21.2617 -145.518 -36.2764 -291.929 -45.377 -438.706c-3.33984 -53.8838 -6.37305 -107.828 -8.7998 -161.779c0.0400391 0.0800781 0.0664062 0.15332 0.106445 0.233398
c31.8828 65.8848 84.4004 151.111 158.072 175.627c74.6455 24.8418 139.997 -21.2354 153.185 -95.6611c6.80762 -38.4365 7.13477 -77.8994 3.50781 -117.049c32.8887 8.31445 66.2246 14.0479 99.4541 16.8682zM230.724 -115.444
c66.5586 66.4785 105.412 169.06 117.96 263.207c-63.5312 -27.6084 -121.315 -67.4248 -168.479 -119.682c-32.6621 -36.1963 -74.9521 -85.9268 -75.292 -137.817c-0.179688 -28.1289 21.2617 -52.6045 51.291 -51.1514c27.7021 1.33984 56.0645 27.0088 74.5195 45.4434z
M353.31 195.192c3.32031 45.2705 4.47363 106.354 -29.9893 134.75c-38.5029 31.7227 -88.707 -34.082 -107.981 -60.8174c-48.1641 -66.8252 -75.2197 -143.391 -99.8545 -220.896c3.62012 3.7002 7.25391 7.32031 10.8877 10.7939
c63.5186 60.6309 142.611 107.114 226.938 136.17z" />
    <glyph glyph-name="c" unicode="c" horiz-adv-x="337" 
d="M348.917 209.543c6.77344 13.8477 26.7891 1.72754 20.5156 -11.9805c-40.4297 -88.2529 -96.2471 -205.775 -189.254 -249.952c-40.916 -19.4277 -79.5654 -41.0693 -125.603 -19.334c-50.1572 23.6748 -69.2324 81.6729 -75.6797 132.563
c-7.72754 60.9912 0.212891 124.782 21.3809 182.526c19.5752 53.4043 48.417 114.815 103.062 139.69c41.2432 18.7744 95.2207 5.75977 114.016 -38.5303c19.5215 -46.0098 3.2334 -106.361 -6.18066 -152.925c-4.33398 -21.4219 -36.3896 -12.168 -32.5498 8.97363
c3.9668 21.8486 7.79395 43.7637 8.7002 65.999c0.446289 10.9346 0.426758 21.8955 -0.913086 32.7695c-1.2334 9.96777 1.40723 28.0889 -11.2334 22.2686c-10.3203 -4.75391 -22.041 -27.0889 -28.542 -36.0166c-10.9404 -15.0273 -20.8477 -30.6748 -29.335 -47.2295
c-29.4023 -57.3711 -43.9102 -134.697 -28.7158 -198.249c6.58691 -27.5625 21.2881 -53.3379 48.9434 -63.5586c34.2422 -12.6611 71.2246 26.7754 93.2129 49.8301c50.5703 53.0244 86.1934 117.803 118.176 183.154z" />
    <glyph glyph-name="d" unicode="d" horiz-adv-x="414" 
d="M464.983 -151.744c25.5488 20.7148 59.7822 -11.6582 36.6934 -36.6865c-17.7617 -19.2412 -36.0635 -44.6768 -61.792 -53.4043c-24.4219 -8.28027 -52.624 -3.54004 -74.3926 9.54785c-48.2568 29.0225 -66.085 91.9072 -78.333 143.058
c-31.6426 132.184 -34.4092 272.074 -32.1689 407.298c0.0800781 4.97363 0.24707 9.94043 0.34668 14.9141c-26.1816 -77.8662 -56.6572 -154.271 -93.1797 -228.41c-23.835 -48.377 -48.9307 -118.162 -107.042 -133.03
c-74.0459 -18.9414 -111.062 61.165 -103.034 122.057c10.5674 80.126 87.5732 247.085 188.181 226.977c30.2891 83.2598 54.9707 168.486 76.1123 254.499c22.3281 90.8535 40.7832 182.613 57.9443 274.566c5.95996 31.9492 11.7734 63.9248 17.5205 95.9072
c4.13379 69.3721 7.34766 138.777 8.6875 208.263c0.580078 30.002 23.3418 48.8701 51.4844 51.4834c85.9795 7.9873 66.0244 -117.716 59.4902 -167.286c-9.54102 -72.3457 -23.8086 -144.225 -37.0293 -215.97c-1.21973 -6.60742 -2.47949 -13.2217 -3.71289 -19.8359
c-0.480469 -5.9873 -0.947266 -11.9746 -1.42773 -17.9619c-9.3877 -116.495 -19.7354 -233.03 -25.1895 -349.792c-5.44043 -116.522 -7.86719 -233.738 1.90039 -350.107c4.91406 -58.5645 12.0811 -117.902 28.1621 -174.58
c6.36035 -22.415 13.5674 -49.417 28.2217 -68.0986c17.0615 -21.7549 44.4834 -8.06055 62.5576 6.59375z" />
    <glyph glyph-name="e" unicode="e" horiz-adv-x="268" 
d="M277.542 229.685c7.32031 14.4873 28.3418 1.77539 21.5879 -12.6191c-24.1953 -51.5508 -50.5635 -102.222 -85.1465 -147.679c-25.7686 -33.8623 -58.458 -80.0322 -97.3008 -98.9736c-42.9697 -20.9551 -95.7471 -8.97461 -121.269 32.8281
c-27.2549 44.6436 -23.9482 101.368 -14.8477 150.565c9.21387 49.8174 27.6553 102.321 57.791 143.524c29.0557 39.7295 79.6865 78.3721 131.844 59.3438c48.3369 -17.6348 56.9111 -76.2588 29.4355 -115.108c-24.8086 -35.083 -68.6582 -54.4375 -111.388 -60.498
c-12.708 -34.8223 -19.0547 -73.0986 -16.9014 -107.848c4.54688 -73.4521 71.4648 -39.623 104.434 -2.91406c42.3564 47.1699 73.3389 103.101 101.761 159.378z" />
    <glyph glyph-name="e" unicode="&#xeb;" horiz-adv-x="268" 
d="M277.542 229.685c7.32031 14.4873 28.3418 1.77539 21.5879 -12.6191c-24.1953 -51.5508 -50.5635 -102.222 -85.1465 -147.679c-25.7686 -33.8623 -58.458 -80.0322 -97.3008 -98.9736c-42.9697 -20.9551 -95.7471 -8.97461 -121.269 32.8281
c-27.2549 44.6436 -23.9482 101.368 -14.8477 150.565c9.21387 49.8174 27.6553 102.321 57.791 143.524c29.0557 39.7295 79.6865 78.3721 131.844 59.3438c48.3369 -17.6348 56.9111 -76.2588 29.4355 -115.108c-24.8086 -35.083 -68.6582 -54.4375 -111.388 -60.498
c-12.708 -34.8223 -19.0547 -73.0986 -16.9014 -107.848c4.54688 -73.4521 71.4648 -39.623 104.434 -2.91406c42.3564 47.1699 73.3389 103.101 101.761 159.378z" />
    <glyph glyph-name="e" unicode="&#xea;" horiz-adv-x="268" 
d="M277.542 229.685c7.32031 14.4873 28.3418 1.77539 21.5879 -12.6191c-24.1953 -51.5508 -50.5635 -102.222 -85.1465 -147.679c-25.7686 -33.8623 -58.458 -80.0322 -97.3008 -98.9736c-42.9697 -20.9551 -95.7471 -8.97461 -121.269 32.8281
c-27.2549 44.6436 -23.9482 101.368 -14.8477 150.565c9.21387 49.8174 27.6553 102.321 57.791 143.524c29.0557 39.7295 79.6865 78.3721 131.844 59.3438c48.3369 -17.6348 56.9111 -76.2588 29.4355 -115.108c-24.8086 -35.083 -68.6582 -54.4375 -111.388 -60.498
c-12.708 -34.8223 -19.0547 -73.0986 -16.9014 -107.848c4.54688 -73.4521 71.4648 -39.623 104.434 -2.91406c42.3564 47.1699 73.3389 103.101 101.761 159.378z" />
    <glyph glyph-name="e" unicode="&#xe9;" horiz-adv-x="268" 
d="M277.542 229.685c7.32031 14.4873 28.3418 1.77539 21.5879 -12.6191c-24.1953 -51.5508 -50.5635 -102.222 -85.1465 -147.679c-25.7686 -33.8623 -58.458 -80.0322 -97.3008 -98.9736c-42.9697 -20.9551 -95.7471 -8.97461 -121.269 32.8281
c-27.2549 44.6436 -23.9482 101.368 -14.8477 150.565c9.21387 49.8174 27.6553 102.321 57.791 143.524c29.0557 39.7295 79.6865 78.3721 131.844 59.3438c48.3369 -17.6348 56.9111 -76.2588 29.4355 -115.108c-24.8086 -35.083 -68.6582 -54.4375 -111.388 -60.498
c-12.708 -34.8223 -19.0547 -73.0986 -16.9014 -107.848c4.54688 -73.4521 71.4648 -39.623 104.434 -2.91406c42.3564 47.1699 73.3389 103.101 101.761 159.378z" />
    <glyph glyph-name="f" unicode="f" horiz-adv-x="230" 
d="M215.924 235.604c18.9619 2.10059 65.4658 -2.53223 42.0977 -32.0811c-7.36035 -9.31445 -18.4678 -3.81445 -22.0352 5.0127c-26.6484 4.60059 -60.4707 -9.1875 -84.8789 -16.4277c-13.4541 -3.99316 -26.8418 -8.28027 -40.1562 -12.7744
c-4.48047 -11.1406 -9.05371 -22.3281 -13.7803 -33.4619c-0.160156 -18.4951 -0.200195 -36.9902 -0.00683594 -55.4785c1.28027 -122.596 15.1016 -245.665 12.3945 -367.888c-0.959961 -43.3027 -61.6514 -50.6104 -74.2793 -10.0537
c-24.9951 80.2998 -33.1094 164.692 -40.0566 248.472c-2.09375 25.2949 -3.64746 50.6035 -4.80762 75.9316c-9.01367 7.21387 -14.0811 19.0752 -9.96094 34.1963c2.33984 8.56738 5.04688 17.0684 8.00684 25.5293
c-0.693359 34.6289 -0.693359 69.2783 -0.0595703 103.94c2.63379 143.645 11.9941 290.709 42.71 431.366c13.748 62.9717 30.709 130.997 71.7783 182.301c17.5342 21.9082 39.1426 44.7832 68.458 48.4033c27.5752 3.40039 54.8838 -10.4209 69.3916 -34.0498
c33.2295 -54.1172 22.7686 -138.311 14.335 -197.981c-9.61426 -68.0449 -27.5957 -134.983 -48.3975 -200.395c-21.0547 -66.2314 -46.0635 -131.083 -73.0859 -195.081c-3.10059 -7.34082 -6.16699 -14.835 -9.2334 -22.4023
c29.9619 10.7871 60.8379 19.5215 91.5664 22.9219zM108.656 380.449c7.60059 21.3213 14.9795 42.7227 21.8398 64.2979c17.5742 55.3711 32.9688 111.742 43.5293 168.899c5.86719 31.7822 9.77441 64.1377 9.3877 96.5137
c-0.0996094 8.03418 -0.505859 16.0078 -1.25879 23.9482c-5.07324 -10.0205 -10.1738 -20.0742 -13.6475 -30.3281c-8.69434 -25.6885 -16.3613 -51.5771 -22.7617 -77.9395c-13.374 -55.0771 -22.4678 -111.208 -29.0879 -167.466
c-3.05371 -25.9355 -5.66699 -51.917 -8.00098 -77.9258z" />
    <glyph glyph-name="g" unicode="g" horiz-adv-x="424" 
d="M438.278 181.392c18.5947 6.75391 26.498 -22.8232 8.14355 -29.5439c-40.75 -14.9141 -79.9199 -34.4219 -117.496 -56.9971c1.93359 -23.3818 3.2002 -46.8174 4.22656 -70.1055c8.9541 -203.215 -15.0674 -415.011 -105.881 -599.404
c-40.3564 -81.9463 -105.368 -164.079 -202.882 -170.96c-80.293 -5.66699 -155.832 22.0352 -195.995 94.7676c-90.3135 163.565 54.9775 356.5 154.538 479.442c73.3252 90.54 161.952 179.373 261.34 249.325c-2.83398 35.0029 -7.6543 69.5654 -15.4277 102.941
c-2.48047 10.6611 -7.48047 21.8223 -10.8672 32.8027c-8.94727 -8.28711 -18.4414 -16.2676 -26.3955 -24.4482c-32.0293 -32.9287 -62.5518 -66.8975 -97.8877 -96.3867c-36.7832 -30.6953 -78.2129 -77.1387 -130.21 -46.7295
c-51.8506 30.3223 -30.3027 95.5938 -7.58105 136.91c21.4014 38.9092 53.2373 72.8447 89.9131 97.7529c19.2549 13.0811 42.1299 23.4414 64.3447 30.2822c21.6084 6.6543 40.4365 2.73438 61.6445 -3.08594c3.24707 -0.893555 6.29395 -2.2666 9.13379 -3.98633
c17.6484 12.9609 36.6895 21.1279 56.6572 17.7207c51.6973 -8.83398 66.8916 -81.1064 76.4453 -123.59c5.10059 -22.668 8.72754 -45.6768 11.4541 -68.832c36.5029 20.4551 74.1523 38.083 112.782 52.124zM244.247 -124.486
c2.78711 53.124 4.65332 108.562 2.39355 163.539c-33.5361 -25.209 -65.6182 -52.1914 -96.1475 -79.7334c-81.5459 -73.5586 -153.991 -157.132 -214.763 -248.625c-54.584 -82.1797 -118.103 -183.66 -96.7412 -286.881
c8.88086 -42.9102 31.9424 -84.3604 71.7588 -105.389c48.1035 -25.4023 88.9531 -5.14062 129.71 22.6016c78.6592 53.5439 119.336 143.984 148.685 231.617c32.7627 97.8477 49.7109 199.982 55.1045 302.87z" />
    <glyph glyph-name="h" unicode="h" horiz-adv-x="414" 
d="M421.122 211.39c4.48047 15.4541 28.2764 8.9248 24.1094 -6.64941c-14.334 -53.6035 -28.9951 -107.867 -54.9033 -157.271c-18.9746 -36.1826 -42.7568 -75.8193 -88.6934 -76.0195c-55.3838 -0.24707 -75.8984 60.2637 -81.1924 104.521
c-7.49414 62.5977 2.32617 124.129 7.2998 186.407c0.453125 5.60742 1.55273 10.6279 3.08594 15.1953c-33.3359 -29.002 -59.7715 -107.841 -67.4717 -128.742c-19.7744 -53.6973 -33.9219 -109.248 -42.6758 -165.752
c0.09375 -1.67969 0.240234 -3.36621 0.313477 -5.0459c1.94727 -46.1973 -71.7852 -70.2119 -91.4336 -24.7686c-37.2627 86.1934 -37.7559 191.408 -44.4102 283.929c-6.90723 96.04 -10.3477 192.167 -10.1406 288.454c0.426758 197.354 12.8008 395.549 41.6963 590.85
c9.53418 64.458 121.256 48.71 113.568 -15.3682c-22.6816 -189.154 -38.6299 -378.282 -39.8369 -568.916c-0.599609 -93.9668 1.40039 -188.074 6.07422 -281.921c2.32715 -46.7432 5.10742 -93.5195 9.34082 -140.137
c1.24023 -13.6748 3.01367 -27.3887 4.90039 -41.1162c29.6885 124.296 90.126 298.629 177.02 240.357c25.8223 -4.59375 48.1641 -26.4756 38.8037 -60.3916c-11.1143 -40.2559 -13.5742 -83.2793 -14.3613 -124.896
c-0.367188 -19.3545 -0.987305 -39.0293 -0.240234 -58.3906c0.486328 -12.7412 -1.13379 -32.5557 4.05371 -44.0967c10.7139 -23.8555 33.3086 12.7939 40.9561 25.1748c9.14062 14.8145 17.1211 30.3086 24.1885 46.21c16.9209 38.0898 28.3613 78.4395 39.9492 118.383z
" />
    <glyph glyph-name="i" unicode="i" horiz-adv-x="211" 
d="M216.318 216.523c5.07324 15.1611 28.8018 8.84766 24.1016 -6.65332c-20.7412 -68.4316 -40.9824 -139.384 -72.7783 -203.688c-20.9414 -42.3496 -56.7441 -102.647 -112.828 -87.5264c-68.8652 18.5684 -75.7656 106.748 -75.8125 165.346
c-0.0664062 76.6455 11.5742 157.812 27.6816 232.657c11.4277 53.0977 100.268 41.3896 95.1543 -12.8809c-5.30664 -56.2979 -18.0479 -111.582 -23.8281 -167.853c-4.51367 -43.9502 -12.8877 -95.1406 -0.787109 -138.617
c2.14648 -7.7002 7.58008 -26.208 17.2344 -28.7686c14.1006 -3.74023 26.0283 19.4277 32.0752 28.7354c14.1279 21.7412 25.082 45.5029 35.0156 69.3779c20.4219 49.0771 37.8965 99.4873 54.7715 149.871zM33.2051 396.983
c-6.44043 8.34766 -7.66699 17.9893 -8.39355 28.1699c-1.17969 16.5811 0.707031 32.4219 3.29395 48.8096c3 18.9951 25.8213 27.7627 42.2891 24.0088c18.4814 -4.21387 28.2354 -24.8418 24.0088 -42.29c-2.78027 -11.4873 -4.99414 -23.1816 -7.04102 -34.8223
c-2.62695 -14.9482 -7.64746 -30.6826 -24.6084 -34.5566c-11.2471 -2.56641 -22.5283 1.58008 -29.5488 10.6807z" />
    <glyph glyph-name="i" unicode="&#xef;" horiz-adv-x="211" 
d="M216.318 216.523c5.07324 15.1611 28.8018 8.84766 24.1016 -6.65332c-20.7412 -68.4316 -40.9824 -139.384 -72.7783 -203.688c-20.9414 -42.3496 -56.7441 -102.647 -112.828 -87.5264c-68.8652 18.5684 -75.7656 106.748 -75.8125 165.346
c-0.0664062 76.6455 11.5742 157.812 27.6816 232.657c11.4277 53.0977 100.268 41.3896 95.1543 -12.8809c-5.30664 -56.2979 -18.0479 -111.582 -23.8281 -167.853c-4.51367 -43.9502 -12.8877 -95.1406 -0.787109 -138.617
c2.14648 -7.7002 7.58008 -26.208 17.2344 -28.7686c14.1006 -3.74023 26.0283 19.4277 32.0752 28.7354c14.1279 21.7412 25.082 45.5029 35.0156 69.3779c20.4219 49.0771 37.8965 99.4873 54.7715 149.871zM33.2051 396.983
c-6.44043 8.34766 -7.66699 17.9893 -8.39355 28.1699c-1.17969 16.5811 0.707031 32.4219 3.29395 48.8096c3 18.9951 25.8213 27.7627 42.2891 24.0088c18.4814 -4.21387 28.2354 -24.8418 24.0088 -42.29c-2.78027 -11.4873 -4.99414 -23.1816 -7.04102 -34.8223
c-2.62695 -14.9482 -7.64746 -30.6826 -24.6084 -34.5566c-11.2471 -2.56641 -22.5283 1.58008 -29.5488 10.6807z" />
    <glyph glyph-name="i" unicode="&#xee;" horiz-adv-x="211" 
d="M216.318 216.523c5.07324 15.1611 28.8018 8.84766 24.1016 -6.65332c-20.7412 -68.4316 -40.9824 -139.384 -72.7783 -203.688c-20.9414 -42.3496 -56.7441 -102.647 -112.828 -87.5264c-68.8652 18.5684 -75.7656 106.748 -75.8125 165.346
c-0.0664062 76.6455 11.5742 157.812 27.6816 232.657c11.4277 53.0977 100.268 41.3896 95.1543 -12.8809c-5.30664 -56.2979 -18.0479 -111.582 -23.8281 -167.853c-4.51367 -43.9502 -12.8877 -95.1406 -0.787109 -138.617
c2.14648 -7.7002 7.58008 -26.208 17.2344 -28.7686c14.1006 -3.74023 26.0283 19.4277 32.0752 28.7354c14.1279 21.7412 25.082 45.5029 35.0156 69.3779c20.4219 49.0771 37.8965 99.4873 54.7715 149.871zM33.2051 396.983
c-6.44043 8.34766 -7.66699 17.9893 -8.39355 28.1699c-1.17969 16.5811 0.707031 32.4219 3.29395 48.8096c3 18.9951 25.8213 27.7627 42.2891 24.0088c18.4814 -4.21387 28.2354 -24.8418 24.0088 -42.29c-2.78027 -11.4873 -4.99414 -23.1816 -7.04102 -34.8223
c-2.62695 -14.9482 -7.64746 -30.6826 -24.6084 -34.5566c-11.2471 -2.56641 -22.5283 1.58008 -29.5488 10.6807z" />
    <glyph glyph-name="i" unicode="&#xed;" horiz-adv-x="211" 
d="M216.318 216.523c5.07324 15.1611 28.8018 8.84766 24.1016 -6.65332c-20.7412 -68.4316 -40.9824 -139.384 -72.7783 -203.688c-20.9414 -42.3496 -56.7441 -102.647 -112.828 -87.5264c-68.8652 18.5684 -75.7656 106.748 -75.8125 165.346
c-0.0664062 76.6455 11.5742 157.812 27.6816 232.657c11.4277 53.0977 100.268 41.3896 95.1543 -12.8809c-5.30664 -56.2979 -18.0479 -111.582 -23.8281 -167.853c-4.51367 -43.9502 -12.8877 -95.1406 -0.787109 -138.617
c2.14648 -7.7002 7.58008 -26.208 17.2344 -28.7686c14.1006 -3.74023 26.0283 19.4277 32.0752 28.7354c14.1279 21.7412 25.082 45.5029 35.0156 69.3779c20.4219 49.0771 37.8965 99.4873 54.7715 149.871zM33.2051 396.983
c-6.44043 8.34766 -7.66699 17.9893 -8.39355 28.1699c-1.17969 16.5811 0.707031 32.4219 3.29395 48.8096c3 18.9951 25.8213 27.7627 42.2891 24.0088c18.4814 -4.21387 28.2354 -24.8418 24.0088 -42.29c-2.78027 -11.4873 -4.99414 -23.1816 -7.04102 -34.8223
c-2.62695 -14.9482 -7.64746 -30.6826 -24.6084 -34.5566c-11.2471 -2.56641 -22.5283 1.58008 -29.5488 10.6807z" />
    <glyph glyph-name="j" unicode="j" horiz-adv-x="155" 
d="M148.371 241.158c20.9951 7.30762 29.8359 -25.8408 9.14062 -33.1348c-21.6152 -7.63379 -42.6035 -16.6279 -62.9854 -26.749c0.0732422 -24.9082 -0.506836 -49.6904 -0.759766 -73.8721c-0.787109 -74.9727 -2.27344 -149.771 -12.3213 -224.177
c-14.1143 -104.555 -50.7305 -249.165 -175.16 -266.866c-107.708 -15.3281 -171.779 92.8398 -158.571 189.667c13.8545 101.588 83.1201 201.528 152.226 274.327c32.7754 34.5293 69.2051 65.085 108.521 91.2266c1.40039 52.5703 0.707031 105.301 5.73438 157.444
c3.32715 34.4756 50.3369 43.2432 61.3906 8.30762c11.9404 -37.7363 16.5742 -77.7988 18.1807 -118.175c17.8018 8.16016 36.0098 15.5273 54.6045 22.001zM6.16699 120.45c0.160156 2.28711 0.240234 4.58691 0.379883 6.89355
c-41.1436 -30.4824 -78.4795 -66.2051 -111.102 -106.175c-34.1562 -41.8496 -63.1982 -88.5527 -85.4062 -137.816c-24.2617 -53.8242 -46.4834 -140.791 8.66699 -184.447c51.2109 -40.543 96.4072 10.9541 120.989 53.5439
c30.6895 53.1709 42.877 114.869 50.3037 175.233c7.86035 63.8711 11.7676 128.576 16.168 192.768zM24.1621 369.822c-32.0156 15.5879 -26.0664 64.1719 -21.6465 92.9736c3.52051 22.9814 31.2959 33.542 51.1309 29.0283
c22.7148 -5.17383 33.6221 -29.9355 29.0283 -51.1309c-0.546875 -2.33984 -1.02051 -4.69336 -1.43359 -7.06055c-0.00683594 -0.0332031 -0.00683594 -0.0595703 -0.0136719 -0.0996094c-0.313477 -4.90723 -0.646484 -9.77441 -0.580078 -14.7012
c0.226562 -16.1211 -1.06055 -31.3291 -13.3086 -43.4434c-11.8613 -11.7275 -28.7227 -12.6006 -43.1768 -5.56641z" />
    <glyph glyph-name="k" unicode="k" horiz-adv-x="453" 
d="M461.957 157.926c19.0547 9.32715 35.8135 -18.9961 16.7188 -28.5967c-64.3652 -32.3887 -130.077 -65.0244 -199.482 -85.2588c-33.1895 -9.68066 -67.1982 -16.4746 -101.301 -21.9014c-17.6016 -2.7998 -36.8633 -6.89355 -55.5977 -6.97363
c7.24023 -70.7656 15.7539 -141.518 25.2549 -212.39c9.53418 -71.0986 -112.128 -86.3535 -124.615 -16.8682c-41.9297 233.371 -44.5762 474.683 -35.9688 711.047c4.36035 119.723 12.6875 239.271 23.4619 358.58c5.09375 56.4707 10.7471 112.889 16.7871 169.267
c6.36719 59.4307 9.68066 121.396 22.7949 179.746c10.4209 46.3564 79.5664 33.9619 80.4199 -10.8877c1.14648 -60.1777 -7.86719 -121.815 -12.2139 -181.873c-4.08691 -56.3975 -7.77344 -112.821 -10.8867 -169.285
c-6.35352 -115.068 -10.374 -230.29 -10.7139 -345.545c-0.313477 -106.661 3.87305 -212.569 11.4199 -318.197c58.0439 61.6377 141.33 119.028 170.619 132.529c14.1943 6.54688 32.8691 -7.61426 23.0889 -23.0889
c-28.8223 -45.6035 -66.832 -83.9062 -102.441 -124.169c-17.9209 -20.2686 -36.3486 -40.2305 -53.79 -60.9121c-2.87988 -3.41406 -12.9473 -12.8477 -16.5938 -20.4619c2.35352 0.513672 7.11426 -2.7998 12.1611 -4.14648
c109.115 -29.0557 225.464 32.6689 320.878 79.3857z" />
    <glyph glyph-name="l" unicode="l" horiz-adv-x="177" 
d="M152.535 -202.828c13.5479 -3.74023 11.207 -26.8799 -3.41406 -25.1602c-33.7422 3.9668 -74.8389 16.4873 -99.8145 40.6562c-35.1895 34.0488 -45.5166 88.1064 -51.6436 134.443c-14.8682 112.475 -15.5146 225.229 -11.6748 338.451
c7.68066 226.316 28.5293 451.36 47.6572 676.884c2.55371 30.0625 23.4219 55.6309 55.6309 55.6309c27.4287 0 59.3115 -25.7617 55.6309 -55.6309c-25.0088 -202.868 -38.9229 -407.717 -50.7441 -611.732c-5.91406 -102.114 -8.51465 -203.976 -6.02734 -306.236
c1.15332 -47.1973 2.05371 -96.1211 9.19434 -142.845c5.94727 -38.9365 12.2549 -92.5869 55.2051 -104.461z" />
    <glyph glyph-name="m" unicode="m" horiz-adv-x="520" 
d="M530.018 194.302c18.1611 11.3477 34.6826 -17.2441 16.7275 -28.6055c-36.0029 -22.7686 -69.1924 -58.085 -115.543 -53.7109c-41.0293 3.86719 -58.9707 38.2295 -66.251 74.792c-2.2002 11.0479 -4.93359 21.042 -8.02734 31.3232
c-0.0263672 -0.0332031 -0.0400391 -0.0527344 -0.0664062 -0.0859375c-2.29395 -7.07422 -4.3877 -14.2012 -6.28125 -21.3887c-8.81445 -25.3086 -19.6689 -49.4707 -26.8232 -75.4326c-7.03418 -25.5283 -12.501 -51.6836 -15.9941 -77.9385
c-3.33984 -25.1348 -2.31934 -50.583 -10.7529 -74.8115c-18.748 -53.8438 -94.9941 -56.8369 -112.495 0.000976562c-21.8613 70.9854 -17.4746 152.031 -7.00684 224.63c5.29395 36.7432 11.9209 72.9258 19.7217 109.202c3.84668 17.875 7.90039 35.7363 11.4072 53.6846
c2.75977 14.1143 12.8535 35.4492 10.5068 49.4365c-3.05371 18.1943 -13.4014 4.01953 -20.8223 -6.35449c-4.19336 -5.86035 -7.7334 -12.2812 -11.1133 -18.6279c-9.38086 -17.6016 -16.2676 -36.6699 -23.2344 -55.3379
c-12.8809 -34.4893 -24.0488 -69.5918 -34.0693 -105.008c-19.5352 -69.0049 -34.6768 -139.137 -49.8047 -209.209c-0.313477 -1.4668 -0.860352 -2.66699 -1.50684 -3.7334c0.0136719 -0.200195 0.0205078 -0.400391 0.0341797 -0.600586
c4.06738 -61.5908 -94.4268 -62.1113 -96.2598 0c-2.82031 95.4404 -8.07422 203.375 19.1416 295.942c11.7744 40.0566 62.5518 27.002 67.3389 -9.11426c6.24023 -47.0771 2.7666 -95.9141 4.00684 -143.351c0.459961 -17.3281 0.959961 -34.6494 1.51953 -51.9639
c13.3545 61.1309 27.9688 121.995 46.8105 181.687c11.708 37.0957 42.0371 170.053 98.9609 165.019c24.6084 -2.17383 27.2891 -29.8955 33.2959 -48.2236c13.7812 -42.0303 18.5879 -85.2998 21.4746 -129.503c1.06055 -16.2812 1.52734 -32.6025 1.76074 -48.9434
c16.668 26.1484 38.4092 50.1768 65.6641 55.4971c48.5107 9.46777 49.7373 -51.9365 56.6582 -83.2451c19.001 -85.9463 89.2998 -22.0811 131.022 3.97461z" />
    <glyph glyph-name="n" unicode="n" horiz-adv-x="339" 
d="M347.312 199.135c4.74023 14.9014 28.1182 8.57422 23.5107 -6.47363c-12.2812 -40.123 -27.6025 -79.5723 -46.6904 -116.969c-13.2744 -26.0156 -28.7021 -59.6377 -55.4238 -74.7725c-27.415 -15.5273 -68.4443 -12.8672 -91.1465 8.88086
c-31.0088 29.709 -31.1484 76.6924 -31.4355 116.702c-0.333008 46.3838 4.53418 94.1543 13.9551 139.564c4.72656 22.7881 13.9941 43.6494 19.835 66.0049c13.3877 51.2441 -23.3018 4.2207 -32.4893 -15.0273c-34.9629 -73.2188 -53.918 -156.818 -74.2266 -236.131
c0.486328 -7.36035 0.939453 -14.7207 1.48633 -22.0684c4.32031 -57.9639 -87.8799 -58.3438 -90.6338 0.000976562c-4.45996 94.4268 -1.7666 187.554 9.24121 281.447c5.52051 47.0635 77.0928 49.7773 75.6328 0c-1.7002 -58.0312 -1.74707 -116.309 0.113281 -174.479
c13.6475 51.417 28.7617 102.514 48.75 151.264c9.68066 23.6084 26.1348 63.4912 54.1172 71.1982c21.3682 5.88672 34.376 -9.6748 40.21 -27.7627c13.1406 -40.75 24.835 -81.3525 27.7354 -124.369c3.0332 -44.9434 0.826172 -90.6602 7.21289 -135.356
c2.39355 -16.7676 6.53418 -33.2422 9.80762 -49.8232c1.64648 -5.13379 2.56641 -10.4209 2.75293 -15.8613c0.259766 2.54004 0.526367 5.08008 0.786133 7.62012c14.4746 6.60059 22.082 19.6211 30.1562 32.2754c24.6348 38.6162 42.9023 80.5859 56.7432 124.136z" />
    <glyph glyph-name="o" unicode="o" horiz-adv-x="335" 
d="M352.43 230.718c13.6875 6.16016 25.8008 -13.5 11.9863 -20.5137c-33.4688 -16.9814 -66.4443 -32.3291 -100.521 -43.7168c-5.83398 -39.5967 -16.0811 -78.5664 -31.1826 -115.449c-10.374 -25.3555 -23.1084 -49.5703 -39.9229 -71.2783
c-15.7275 -20.3018 -30.9883 -46.0166 -53.1104 -60.1514c-55.4912 -35.4424 -110.782 5.94727 -125.85 62.9111c-19.3213 73.0518 -5.12012 154.951 3.94043 228.523c0.15332 1.2666 0.40625 2.44043 0.613281 3.66016c-8.14062 10.0205 -15.6475 20.8076 -22.4814 32.2021
c-56.4971 94.1807 -4.2002 245.092 110.009 267.521c133.703 26.2549 162.318 -170.967 163.712 -262.42c0.287109 -19.0146 -0.545898 -38.0957 -2.2998 -57.1172c30.1426 10.334 59.2646 24.1953 85.1064 35.8291zM192.917 45.0586
c17.0283 34.7559 28.9297 72.4854 36.0566 111.401c-24.4082 -5.87402 -49.5898 -9.48047 -76.1455 -9.90039c-12.208 -0.193359 -23.8291 1.04004 -34.9365 3.37988c-6.46094 -47.7432 -11.1016 -96.4863 -6.92773 -144.003
c0.853516 -9.78027 1.36719 -22.875 9.3877 -30.1025c6.60742 -5.9541 -0.766602 -2.7207 9.99414 -1.16016c30.4824 4.41992 50.5703 45.8828 62.5713 70.3848zM233.253 185.089c8.76758 72.4922 1.3457 147.639 -21.4023 214.67
c-9.70117 28.5889 -23.749 58.7178 -50.7773 74.8389c-35.9961 21.4688 -79.0928 3.26758 -106.555 -23.4746c-42.1162 -41.0098 -67.2246 -112.382 -37.9092 -167.086c5.9541 -11.1143 13.8018 -21.6953 22.8955 -31.623c33.9756 26.0215 93.7002 2.75977 85.0791 -55.8242
c-0.113281 -0.773438 -0.226562 -1.55371 -0.339844 -2.32031c11.2744 -4.67383 22.582 -8.40039 33.5498 -10.9404c24.4287 -5.64746 50.0107 -3.93359 75.459 1.75977z" />
    <glyph glyph-name="o" unicode="&#xf6;" horiz-adv-x="335" 
d="M352.43 230.718c13.6875 6.16016 25.8008 -13.5 11.9863 -20.5137c-33.4688 -16.9814 -66.4443 -32.3291 -100.521 -43.7168c-5.83398 -39.5967 -16.0811 -78.5664 -31.1826 -115.449c-10.374 -25.3555 -23.1084 -49.5703 -39.9229 -71.2783
c-15.7275 -20.3018 -30.9883 -46.0166 -53.1104 -60.1514c-55.4912 -35.4424 -110.782 5.94727 -125.85 62.9111c-19.3213 73.0518 -5.12012 154.951 3.94043 228.523c0.15332 1.2666 0.40625 2.44043 0.613281 3.66016c-8.14062 10.0205 -15.6475 20.8076 -22.4814 32.2021
c-56.4971 94.1807 -4.2002 245.092 110.009 267.521c133.703 26.2549 162.318 -170.967 163.712 -262.42c0.287109 -19.0146 -0.545898 -38.0957 -2.2998 -57.1172c30.1426 10.334 59.2646 24.1953 85.1064 35.8291zM192.917 45.0586
c17.0283 34.7559 28.9297 72.4854 36.0566 111.401c-24.4082 -5.87402 -49.5898 -9.48047 -76.1455 -9.90039c-12.208 -0.193359 -23.8291 1.04004 -34.9365 3.37988c-6.46094 -47.7432 -11.1016 -96.4863 -6.92773 -144.003
c0.853516 -9.78027 1.36719 -22.875 9.3877 -30.1025c6.60742 -5.9541 -0.766602 -2.7207 9.99414 -1.16016c30.4824 4.41992 50.5703 45.8828 62.5713 70.3848zM233.253 185.089c8.76758 72.4922 1.3457 147.639 -21.4023 214.67
c-9.70117 28.5889 -23.749 58.7178 -50.7773 74.8389c-35.9961 21.4688 -79.0928 3.26758 -106.555 -23.4746c-42.1162 -41.0098 -67.2246 -112.382 -37.9092 -167.086c5.9541 -11.1143 13.8018 -21.6953 22.8955 -31.623c33.9756 26.0215 93.7002 2.75977 85.0791 -55.8242
c-0.113281 -0.773438 -0.226562 -1.55371 -0.339844 -2.32031c11.2744 -4.67383 22.582 -8.40039 33.5498 -10.9404c24.4287 -5.64746 50.0107 -3.93359 75.459 1.75977z" />
    <glyph glyph-name="o" unicode="&#xf5;" horiz-adv-x="335" 
d="M352.43 230.718c13.6875 6.16016 25.8008 -13.5 11.9863 -20.5137c-33.4688 -16.9814 -66.4443 -32.3291 -100.521 -43.7168c-5.83398 -39.5967 -16.0811 -78.5664 -31.1826 -115.449c-10.374 -25.3555 -23.1084 -49.5703 -39.9229 -71.2783
c-15.7275 -20.3018 -30.9883 -46.0166 -53.1104 -60.1514c-55.4912 -35.4424 -110.782 5.94727 -125.85 62.9111c-19.3213 73.0518 -5.12012 154.951 3.94043 228.523c0.15332 1.2666 0.40625 2.44043 0.613281 3.66016c-8.14062 10.0205 -15.6475 20.8076 -22.4814 32.2021
c-56.4971 94.1807 -4.2002 245.092 110.009 267.521c133.703 26.2549 162.318 -170.967 163.712 -262.42c0.287109 -19.0146 -0.545898 -38.0957 -2.2998 -57.1172c30.1426 10.334 59.2646 24.1953 85.1064 35.8291zM192.917 45.0586
c17.0283 34.7559 28.9297 72.4854 36.0566 111.401c-24.4082 -5.87402 -49.5898 -9.48047 -76.1455 -9.90039c-12.208 -0.193359 -23.8291 1.04004 -34.9365 3.37988c-6.46094 -47.7432 -11.1016 -96.4863 -6.92773 -144.003
c0.853516 -9.78027 1.36719 -22.875 9.3877 -30.1025c6.60742 -5.9541 -0.766602 -2.7207 9.99414 -1.16016c30.4824 4.41992 50.5703 45.8828 62.5713 70.3848zM233.253 185.089c8.76758 72.4922 1.3457 147.639 -21.4023 214.67
c-9.70117 28.5889 -23.749 58.7178 -50.7773 74.8389c-35.9961 21.4688 -79.0928 3.26758 -106.555 -23.4746c-42.1162 -41.0098 -67.2246 -112.382 -37.9092 -167.086c5.9541 -11.1143 13.8018 -21.6953 22.8955 -31.623c33.9756 26.0215 93.7002 2.75977 85.0791 -55.8242
c-0.113281 -0.773438 -0.226562 -1.55371 -0.339844 -2.32031c11.2744 -4.67383 22.582 -8.40039 33.5498 -10.9404c24.4287 -5.64746 50.0107 -3.93359 75.459 1.75977z" />
    <glyph glyph-name="o" unicode="&#xf4;" horiz-adv-x="335" 
d="M352.43 230.718c13.6875 6.16016 25.8008 -13.5 11.9863 -20.5137c-33.4688 -16.9814 -66.4443 -32.3291 -100.521 -43.7168c-5.83398 -39.5967 -16.0811 -78.5664 -31.1826 -115.449c-10.374 -25.3555 -23.1084 -49.5703 -39.9229 -71.2783
c-15.7275 -20.3018 -30.9883 -46.0166 -53.1104 -60.1514c-55.4912 -35.4424 -110.782 5.94727 -125.85 62.9111c-19.3213 73.0518 -5.12012 154.951 3.94043 228.523c0.15332 1.2666 0.40625 2.44043 0.613281 3.66016c-8.14062 10.0205 -15.6475 20.8076 -22.4814 32.2021
c-56.4971 94.1807 -4.2002 245.092 110.009 267.521c133.703 26.2549 162.318 -170.967 163.712 -262.42c0.287109 -19.0146 -0.545898 -38.0957 -2.2998 -57.1172c30.1426 10.334 59.2646 24.1953 85.1064 35.8291zM192.917 45.0586
c17.0283 34.7559 28.9297 72.4854 36.0566 111.401c-24.4082 -5.87402 -49.5898 -9.48047 -76.1455 -9.90039c-12.208 -0.193359 -23.8291 1.04004 -34.9365 3.37988c-6.46094 -47.7432 -11.1016 -96.4863 -6.92773 -144.003
c0.853516 -9.78027 1.36719 -22.875 9.3877 -30.1025c6.60742 -5.9541 -0.766602 -2.7207 9.99414 -1.16016c30.4824 4.41992 50.5703 45.8828 62.5713 70.3848zM233.253 185.089c8.76758 72.4922 1.3457 147.639 -21.4023 214.67
c-9.70117 28.5889 -23.749 58.7178 -50.7773 74.8389c-35.9961 21.4688 -79.0928 3.26758 -106.555 -23.4746c-42.1162 -41.0098 -67.2246 -112.382 -37.9092 -167.086c5.9541 -11.1143 13.8018 -21.6953 22.8955 -31.623c33.9756 26.0215 93.7002 2.75977 85.0791 -55.8242
c-0.113281 -0.773438 -0.226562 -1.55371 -0.339844 -2.32031c11.2744 -4.67383 22.582 -8.40039 33.5498 -10.9404c24.4287 -5.64746 50.0107 -3.93359 75.459 1.75977z" />
    <glyph glyph-name="o" unicode="&#xf3;" horiz-adv-x="335" 
d="M352.43 230.718c13.6875 6.16016 25.8008 -13.5 11.9863 -20.5137c-33.4688 -16.9814 -66.4443 -32.3291 -100.521 -43.7168c-5.83398 -39.5967 -16.0811 -78.5664 -31.1826 -115.449c-10.374 -25.3555 -23.1084 -49.5703 -39.9229 -71.2783
c-15.7275 -20.3018 -30.9883 -46.0166 -53.1104 -60.1514c-55.4912 -35.4424 -110.782 5.94727 -125.85 62.9111c-19.3213 73.0518 -5.12012 154.951 3.94043 228.523c0.15332 1.2666 0.40625 2.44043 0.613281 3.66016c-8.14062 10.0205 -15.6475 20.8076 -22.4814 32.2021
c-56.4971 94.1807 -4.2002 245.092 110.009 267.521c133.703 26.2549 162.318 -170.967 163.712 -262.42c0.287109 -19.0146 -0.545898 -38.0957 -2.2998 -57.1172c30.1426 10.334 59.2646 24.1953 85.1064 35.8291zM192.917 45.0586
c17.0283 34.7559 28.9297 72.4854 36.0566 111.401c-24.4082 -5.87402 -49.5898 -9.48047 -76.1455 -9.90039c-12.208 -0.193359 -23.8291 1.04004 -34.9365 3.37988c-6.46094 -47.7432 -11.1016 -96.4863 -6.92773 -144.003
c0.853516 -9.78027 1.36719 -22.875 9.3877 -30.1025c6.60742 -5.9541 -0.766602 -2.7207 9.99414 -1.16016c30.4824 4.41992 50.5703 45.8828 62.5713 70.3848zM233.253 185.089c8.76758 72.4922 1.3457 147.639 -21.4023 214.67
c-9.70117 28.5889 -23.749 58.7178 -50.7773 74.8389c-35.9961 21.4688 -79.0928 3.26758 -106.555 -23.4746c-42.1162 -41.0098 -67.2246 -112.382 -37.9092 -167.086c5.9541 -11.1143 13.8018 -21.6953 22.8955 -31.623c33.9756 26.0215 93.7002 2.75977 85.0791 -55.8242
c-0.113281 -0.773438 -0.226562 -1.55371 -0.339844 -2.32031c11.2744 -4.67383 22.582 -8.40039 33.5498 -10.9404c24.4287 -5.64746 50.0107 -3.93359 75.459 1.75977z" />
    <glyph glyph-name="p" unicode="p" horiz-adv-x="411" 
d="M426.977 210.096c18.1279 3.14062 25.8418 -24.5752 7.63379 -27.7217c-29.3486 -5.08008 -58.6172 -4.52637 -87.9131 -3.71289c-9.1543 -38.6631 -26.8223 -76.3594 -58.2578 -96.3008c-36.2559 -23.002 -93.1006 -13.8477 -113.936 26.7822
c-33.9492 -163.679 -40.4297 -335.052 -47.4102 -501.725c4.25391 -16.5078 8.96777 -32.8828 14.2686 -49.0703c8.86719 -27.0625 -10.2744 -57.3311 -36.6699 -64.585c-29.3691 -8.07422 -54.2773 10.2734 -64.585 36.6689
c-27.5625 70.5781 -37.3232 146.057 -45.2305 221.009c-7.79395 73.832 -11.6406 148.051 -12.6211 222.283c-2.02051 153.178 8.18066 306.169 20.6416 458.747c5.67383 69.4121 114.562 69.7256 108.761 0c-12.3271 -148.225 -22.5146 -296.815 -21.4414 -445.64
c0.599609 -82.8125 2.71289 -167.785 13.0801 -251.231c5.24707 88.8398 12.168 177.593 23.3291 265.666c8.39355 66.252 19.708 132.17 36.8291 196.762c15.1074 56.9912 33.4092 119.35 66.3115 169.014c20.375 30.749 57.6045 49.457 87.0537 18.1543
c16.5342 -17.5742 21.1816 -43.8691 27.2158 -66.1777c6.78711 -25.1084 11.8408 -51.1504 10.9473 -77.3594c-0.373047 -10.8408 -1.33301 -22.5283 -2.98633 -34.5156c25.1416 -1.04004 50.2373 -1.32715 74.9795 2.95312zM226.321 140.591
c10.1475 11.6611 19.9805 22.9873 28.5811 35.4287c-10.7539 -1.62695 -21.7148 -4.2334 -30.8486 -9.00684c-18.4609 -6.75391 -21.5742 -19.9014 -9.33984 -39.4424c4 4.22656 7.86719 8.56641 11.6074 13.0205zM273.443 208.475
c21.1885 41.2695 50.377 104.181 27.4756 143.237c-26.7021 45.5303 -56.1377 -21.7285 -64.7852 -40.3428c-12.0479 -25.9287 -21.7754 -52.8506 -30.2822 -80.1328c-5.2334 -16.7744 -10.0342 -33.6758 -14.5283 -50.6768c11.834 10.4805 26.7285 18.1748 41.2832 21.8818
c13.4873 3.43359 27.1221 5.19336 40.8369 6.0332z" />
    <glyph glyph-name="q" unicode="q" horiz-adv-x="302" 
d="M274.046 -371.228c17.168 7.82031 30.4902 -14.4688 14.8291 -25.3564c-130.903 -91.1064 -160.179 147.498 -162.266 226.871c-0.44043 16.8545 -0.600586 33.7158 -0.581055 50.5771c-4.12012 -0.686523 -8.24707 -1.36035 -12.3604 -2.11328
c-20.3545 -3.71387 -29.2422 26.9082 -8.64062 31.3418c7.09375 1.52637 14.1943 2.93945 21.3018 4.28613c0.900391 51.0234 3.66016 102.021 7.76074 152.885c1.70703 21.1553 3.6875 42.2832 5.80762 63.3984c-13.9814 -21.7617 -28.4756 -43.1963 -43.7031 -64.085
c-20.5947 -28.2559 -44.377 -55.958 -82.8135 -52.7842c-35.4023 2.92676 -58.624 32.9619 -61.0244 67.0449c-4.78027 67.7314 39.6162 136.323 81.1924 185.627c35.2822 41.8301 92.96 95.7344 147.424 65.6719c29.4219 13.3672 58.1777 -14.5215 61.665 -43.2773
c6.9541 -57.3574 -8.41992 -118.448 -14.1533 -175.612c-5.9209 -59.0508 -10.3076 -118.262 -12.248 -177.579c-0.0996094 -3.10059 -0.106445 -6.20703 -0.193359 -9.31348c13.0742 0.986328 26.2021 1.66016 39.3896 1.95996
c22.9746 0.526367 22.8877 -35.1025 -0.000976562 -35.6289c-13.3945 -0.313477 -26.7617 -0.900391 -40.0957 -1.74023c-0.400391 -42.9502 0.419922 -85.9199 1.18652 -128.856c0.5 -28.042 3 -55.291 7.81348 -82.9062c5.30078 -30.4023 5.47363 -70.5654 49.71 -50.4102
z" />
    <glyph glyph-name="r" unicode="r" horiz-adv-x="230" 
d="M262.193 279.481c7.91406 -17.835 -18.3164 -33.4385 -26.4365 -15.4707c-5.56738 12.3145 -10.4678 28.3154 -17.502 41.2363c-8.89355 -12.8877 -17.0137 -39.6895 -19.3604 -45.9365c-5.78711 -15.4082 -10.9346 -31.083 -16.1279 -46.6973
c-11.4678 -34.4629 -22.1816 -69.1719 -33.0293 -103.834c-11.4805 -36.6689 -22.501 -73.5117 -34.3887 -110.048c-4.27344 -13.1348 -8.7207 -26.2295 -13.2881 -39.2637c-2.82031 -8.04102 -6.4541 -15.5215 -8.79395 -23.8086
c-0.633789 -2.2334 -1.75391 -12.3271 -1.04688 -4.36621c-1.09375 -12.3008 -6.08105 -26.3555 -18.3623 -32.0088c-0.639648 -0.292969 -1.27344 -0.585938 -1.91309 -0.878906c-16.7812 -7.7207 -36.5693 -7.78027 -50.3701 6.50098
c-24.7217 25.582 -28.2949 65.3984 -32.7285 99.1279c-4.4668 33.9824 -6.07324 68.1045 -5.82031 102.367c0.533203 72.0918 0.246094 148.604 9.49316 220.05c5.10742 39.4434 66.7588 57.0977 76.1191 10.3008c13.748 -68.7383 3.00098 -142.464 2.71387 -212.082
c-0.146484 -36.1689 0.640625 -72.7783 6.16797 -108.588c0.759766 -4.90723 1.71289 -9.76074 2.7334 -14.5879c9.36035 22.9814 16.0811 49.9971 19.9678 61.1514c13.3545 38.3359 24.9883 77.292 37.5693 115.889c11.9746 36.7432 23.5625 74.0127 38.7568 109.575
c7.94043 18.5947 18.6816 49.8838 41.3438 54.0371c5.15332 0.946289 11.4736 0.432617 15.1143 -3.99414c13.6143 -16.5547 20.5479 -39.1963 29.1885 -58.6709z" />
    <glyph glyph-name="s" unicode="s" horiz-adv-x="282" 
d="M290.96 248.539c14.4746 11.4141 35.1611 -7.92676 20.7734 -20.7812c-47.4639 -42.3828 -88.8604 -93 -124.81 -147.417c9.31445 -12.1875 18.5283 -24.4414 27.3428 -36.9824c70.1924 -99.874 90.1943 -225.797 55.1719 -343.019
c-28.8291 -96.4873 -144.725 -122.216 -208.496 -42.3496c-70.9922 88.9131 -21.6416 212.542 22.0615 301.842c6.74023 13.7812 13.7412 27.6885 20.9951 41.623c-60.0381 70.4385 -122.236 141.79 -130.403 237.91c-7.40723 87.166 54.7041 197.954 155.531 174.053
c21.6748 -5.13379 13.8408 -33.2959 -4.82031 -35.6025c-33.7627 -4.17383 -47.8369 -53.3105 -49.1299 -82.7725c-1.21387 -27.7354 7.63965 -56.958 20.0869 -81.4863c19.3682 -38.1494 44.7705 -72.2051 70.7129 -105.921
c35.3496 53.2305 76.2793 102.48 124.983 140.903zM230.94 -181.999c-20.6553 50.9971 -54.1035 93.6738 -87.833 136.351c-5.56738 7.04004 -11.2812 14.0273 -17.0752 21.001c-10.1006 -19.7881 -19.6348 -39.7031 -28.5488 -59.5645
c-24.7285 -55.1377 -49.8701 -120.482 -37.6289 -181.894c11.3271 -56.8105 63.7773 -110.888 125.136 -88.2529c70.2715 25.9219 69.2383 114.855 45.9502 172.359z" />
    <glyph glyph-name="t" unicode="t" horiz-adv-x="162" 
d="M171.818 -32.7285c11.1611 8.00098 23.9121 -9.56934 14.3916 -18.6562c-36.9561 -35.2559 -104.814 -53.8174 -144.917 -14.168c-52.0635 51.4639 -55.5566 148.925 -58.1436 217.116c-3.15332 83.2061 4.60059 166.473 10.5146 249.393
c1.20703 16.8477 2.40723 33.6953 3.60742 50.5361c-10.5273 -0.25293 -21.041 -0.392578 -31.5215 -0.25293c0.00683594 0.046875 0.0136719 0.100586 0.0205078 0.147461c-16.1875 0.306641 -21.2549 26.8887 -4.00684 29.3086
c12.5674 1.7666 25.2217 3.16699 37.9023 4.41406l12.4805 174.932c4.70703 65.9785 108.068 66.1523 103.135 0.000976562c-4.18066 -56.0107 -8.81445 -112.042 -13.2881 -168.093c16.4746 0.820312 32.916 1.62695 49.2773 2.58691
c21.375 1.25391 21.1221 -31.6953 0.000976562 -33.1289c-17.2617 -1.17383 -34.6162 -2.55371 -52.0107 -3.91406c-5.30078 -67.9521 -10.1611 -135.938 -13.4346 -203.942c-3.14062 -65.2178 -3.06738 -131.256 7.27344 -195.9
c6.12695 -38.2891 22.7217 -130.549 78.7188 -90.3789z" />
    <glyph glyph-name="u" unicode="u" horiz-adv-x="406" 
d="M407.524 179.407c10.9678 19.2412 40.6582 1.90137 29.7109 -17.3604c-29.5889 -51.8906 -90.8135 -116.876 -154.651 -72.3789c-24.7822 17.2744 -37.3164 47.25 -40.7305 76.3389c-0.0996094 0.839844 -0.113281 1.78027 -0.179688 2.66016
c-9.16113 -25.2949 -18.5283 -50.5303 -28.6826 -75.4385c-22.7217 -55.7109 -55.2236 -129.09 -123.995 -135.511c-81.8057 -7.64062 -104.487 78.6328 -109.895 142.551c-3.2998 39.0498 1.4209 78.5059 6.80176 117.176c4.91992 35.376 7.9668 73.3389 25.3145 105.034
c8.98047 16.4082 28.9424 22.7822 46.377 18.875c0.646484 -0.139648 1.2998 -0.286133 1.94629 -0.432617c12.7207 -2.85352 22.0479 -13.9277 25.4883 -26.2021c0.0664062 0.173828 0.139648 0.34082 0.206055 0.507812c9.43359 -23.168 3.43359 -50.377 1.70703 -74.4258
c-1.75977 -24.4551 -2.9668 -48.9707 -2.66699 -73.4922c0.339844 -27.3955 1.87988 -55.6113 6.78027 -82.6064c1.80664 -9.9541 5.7334 -19.6416 7.45996 -29.4824c0.413086 -2.36719 0.786133 -4.1875 1.12598 -5.70801c16.7812 10.6074 27.8418 40.7764 35.2158 56.8105
c12.001 26.1084 22.415 52.8906 32.4756 79.793c17.4609 46.71 29.3555 105.541 57.8174 146.604c21.2754 30.6953 73.7197 12.541 62.4326 -26.3223c-0.00683594 -0.0136719 -0.0136719 -0.0273438 -0.0136719 -0.0410156
c-1.21387 -8.13379 -2.99414 -16.2012 -5.21387 -24.208c-2.89355 -18.6816 -3.57324 -37.4102 -5.16699 -56.918c-2.14062 -26.1016 -5.4209 -53.5566 4.37988 -78.5654c11.8809 -30.3154 40.376 -44.6436 70.6787 -30.4287
c26.1484 12.2676 41.6025 39.1895 55.2773 63.1709zM100.07 47.665c1.74707 -6.78711 2.08691 -1.94043 0 0z" />
    <glyph glyph-name="u" unicode="&#xfc;" horiz-adv-x="406" 
d="M407.524 179.407c10.9678 19.2412 40.6582 1.90137 29.7109 -17.3604c-29.5889 -51.8906 -90.8135 -116.876 -154.651 -72.3789c-24.7822 17.2744 -37.3164 47.25 -40.7305 76.3389c-0.0996094 0.839844 -0.113281 1.78027 -0.179688 2.66016
c-9.16113 -25.2949 -18.5283 -50.5303 -28.6826 -75.4385c-22.7217 -55.7109 -55.2236 -129.09 -123.995 -135.511c-81.8057 -7.64062 -104.487 78.6328 -109.895 142.551c-3.2998 39.0498 1.4209 78.5059 6.80176 117.176c4.91992 35.376 7.9668 73.3389 25.3145 105.034
c8.98047 16.4082 28.9424 22.7822 46.377 18.875c0.646484 -0.139648 1.2998 -0.286133 1.94629 -0.432617c12.7207 -2.85352 22.0479 -13.9277 25.4883 -26.2021c0.0664062 0.173828 0.139648 0.34082 0.206055 0.507812c9.43359 -23.168 3.43359 -50.377 1.70703 -74.4258
c-1.75977 -24.4551 -2.9668 -48.9707 -2.66699 -73.4922c0.339844 -27.3955 1.87988 -55.6113 6.78027 -82.6064c1.80664 -9.9541 5.7334 -19.6416 7.45996 -29.4824c0.413086 -2.36719 0.786133 -4.1875 1.12598 -5.70801c16.7812 10.6074 27.8418 40.7764 35.2158 56.8105
c12.001 26.1084 22.415 52.8906 32.4756 79.793c17.4609 46.71 29.3555 105.541 57.8174 146.604c21.2754 30.6953 73.7197 12.541 62.4326 -26.3223c-0.00683594 -0.0136719 -0.0136719 -0.0273438 -0.0136719 -0.0410156
c-1.21387 -8.13379 -2.99414 -16.2012 -5.21387 -24.208c-2.89355 -18.6816 -3.57324 -37.4102 -5.16699 -56.918c-2.14062 -26.1016 -5.4209 -53.5566 4.37988 -78.5654c11.8809 -30.3154 40.376 -44.6436 70.6787 -30.4287
c26.1484 12.2676 41.6025 39.1895 55.2773 63.1709zM100.07 47.665c1.74707 -6.78711 2.08691 -1.94043 0 0z" />
    <glyph glyph-name="u" unicode="&#xfb;" horiz-adv-x="406" 
d="M407.524 179.407c10.9678 19.2412 40.6582 1.90137 29.7109 -17.3604c-29.5889 -51.8906 -90.8135 -116.876 -154.651 -72.3789c-24.7822 17.2744 -37.3164 47.25 -40.7305 76.3389c-0.0996094 0.839844 -0.113281 1.78027 -0.179688 2.66016
c-9.16113 -25.2949 -18.5283 -50.5303 -28.6826 -75.4385c-22.7217 -55.7109 -55.2236 -129.09 -123.995 -135.511c-81.8057 -7.64062 -104.487 78.6328 -109.895 142.551c-3.2998 39.0498 1.4209 78.5059 6.80176 117.176c4.91992 35.376 7.9668 73.3389 25.3145 105.034
c8.98047 16.4082 28.9424 22.7822 46.377 18.875c0.646484 -0.139648 1.2998 -0.286133 1.94629 -0.432617c12.7207 -2.85352 22.0479 -13.9277 25.4883 -26.2021c0.0664062 0.173828 0.139648 0.34082 0.206055 0.507812c9.43359 -23.168 3.43359 -50.377 1.70703 -74.4258
c-1.75977 -24.4551 -2.9668 -48.9707 -2.66699 -73.4922c0.339844 -27.3955 1.87988 -55.6113 6.78027 -82.6064c1.80664 -9.9541 5.7334 -19.6416 7.45996 -29.4824c0.413086 -2.36719 0.786133 -4.1875 1.12598 -5.70801c16.7812 10.6074 27.8418 40.7764 35.2158 56.8105
c12.001 26.1084 22.415 52.8906 32.4756 79.793c17.4609 46.71 29.3555 105.541 57.8174 146.604c21.2754 30.6953 73.7197 12.541 62.4326 -26.3223c-0.00683594 -0.0136719 -0.0136719 -0.0273438 -0.0136719 -0.0410156
c-1.21387 -8.13379 -2.99414 -16.2012 -5.21387 -24.208c-2.89355 -18.6816 -3.57324 -37.4102 -5.16699 -56.918c-2.14062 -26.1016 -5.4209 -53.5566 4.37988 -78.5654c11.8809 -30.3154 40.376 -44.6436 70.6787 -30.4287
c26.1484 12.2676 41.6025 39.1895 55.2773 63.1709zM100.07 47.665c1.74707 -6.78711 2.08691 -1.94043 0 0z" />
    <glyph glyph-name="u" unicode="&#xfa;" horiz-adv-x="406" 
d="M407.524 179.407c10.9678 19.2412 40.6582 1.90137 29.7109 -17.3604c-29.5889 -51.8906 -90.8135 -116.876 -154.651 -72.3789c-24.7822 17.2744 -37.3164 47.25 -40.7305 76.3389c-0.0996094 0.839844 -0.113281 1.78027 -0.179688 2.66016
c-9.16113 -25.2949 -18.5283 -50.5303 -28.6826 -75.4385c-22.7217 -55.7109 -55.2236 -129.09 -123.995 -135.511c-81.8057 -7.64062 -104.487 78.6328 -109.895 142.551c-3.2998 39.0498 1.4209 78.5059 6.80176 117.176c4.91992 35.376 7.9668 73.3389 25.3145 105.034
c8.98047 16.4082 28.9424 22.7822 46.377 18.875c0.646484 -0.139648 1.2998 -0.286133 1.94629 -0.432617c12.7207 -2.85352 22.0479 -13.9277 25.4883 -26.2021c0.0664062 0.173828 0.139648 0.34082 0.206055 0.507812c9.43359 -23.168 3.43359 -50.377 1.70703 -74.4258
c-1.75977 -24.4551 -2.9668 -48.9707 -2.66699 -73.4922c0.339844 -27.3955 1.87988 -55.6113 6.78027 -82.6064c1.80664 -9.9541 5.7334 -19.6416 7.45996 -29.4824c0.413086 -2.36719 0.786133 -4.1875 1.12598 -5.70801c16.7812 10.6074 27.8418 40.7764 35.2158 56.8105
c12.001 26.1084 22.415 52.8906 32.4756 79.793c17.4609 46.71 29.3555 105.541 57.8174 146.604c21.2754 30.6953 73.7197 12.541 62.4326 -26.3223c-0.00683594 -0.0136719 -0.0136719 -0.0273438 -0.0136719 -0.0410156
c-1.21387 -8.13379 -2.99414 -16.2012 -5.21387 -24.208c-2.89355 -18.6816 -3.57324 -37.4102 -5.16699 -56.918c-2.14062 -26.1016 -5.4209 -53.5566 4.37988 -78.5654c11.8809 -30.3154 40.376 -44.6436 70.6787 -30.4287
c26.1484 12.2676 41.6025 39.1895 55.2773 63.1709zM100.07 47.665c1.74707 -6.78711 2.08691 -1.94043 0 0z" />
    <glyph glyph-name="v" unicode="v" horiz-adv-x="437" 
d="M446.854 266.527c18.9746 8.26758 35.5293 -19.626 16.4014 -28.0664c-29.5625 -13.041 -62.6582 -23.9551 -95.874 -28.582c-8.31445 -28.2959 -17.042 -56.4648 -26.4424 -84.4004c-16.5615 -49.2305 -34.9297 -99.3145 -60.4854 -144.691
c-18.0146 -31.9824 -40.9697 -68.125 -74.2256 -85.9131c-35.3691 -18.9219 -77.0859 -11.4014 -109.055 10.3672c-36.3828 24.7754 -53.7637 65.7852 -68.3047 105.802c-33.8291 93.1133 -46.543 194.294 -53.75 292.568c-3.68066 50.1436 79.6318 61.2842 87.7861 11.8809
c13.4746 -81.626 22.2021 -164.266 46.7236 -243.618c10.5537 -34.1357 23.0146 -66.8379 44.9629 -95.4463c10.6279 -13.8613 16.0088 -20.042 31.71 -7.98145c15.2812 11.7275 25.9482 30.2822 35.6289 46.5498c35.5225 59.7109 61.3311 126.315 82.2793 194.86
c-31.209 5.07324 -60.4648 18.708 -84.5938 44.8301c-60.3174 65.3047 -63.791 176.706 -62.124 260.132c1.70703 85.5 17.6416 171.213 52.1377 249.699c26.2822 59.8047 79.9463 144.364 156.985 132.696c86.3467 -13.0742 98.6875 -127.729 98.1875 -197.041
c-0.700195 -97.9336 -23.4551 -197.221 -45.8037 -292.055c-12.9014 -54.7441 -26.542 -109.435 -41.7031 -163.672c24.2686 4.62012 48.1572 12.7539 69.5586 22.0811zM361.954 437.096c17.6543 74.499 34.5098 150.583 40.4834 227.062
c3.54688 45.4238 11.8604 176.707 -57.8115 174.667c-69.7988 -2.04004 -102.861 -88.127 -121.442 -143.817c-22.5547 -67.6113 -32.1758 -138.53 -31.0361 -209.695c1.01367 -63.2109 4.04102 -140.957 41.5908 -194.715
c20.7285 -29.6689 49.0371 -44.0029 79.9658 -48.5234c18.4746 65.3184 33.2422 131.703 48.25 195.021z" />
    </font>
</defs>
</svg>
