<?xml version="1.0" standalone="no"?>
<!DOCTYPE svg PUBLIC "-//W3C//DTD SVG 1.1//EN" "http://www.w3.org/Graphics/SVG/1.1/DTD/svg11.dtd" >
<svg xmlns="http://www.w3.org/2000/svg" xmlns:xlink="http://www.w3.org/1999/xlink" version="1.1">
<metadata>
Created by FontForge 20170812 at Sat Oct 29 06:08:20 2022
 By www-data
</metadata>
<defs>
<font id="AnalyticRegular" horiz-adv-x="0" >
  <font-face 
    font-family="Analytic"
    font-weight="400"
    font-stretch="normal"
    units-per-em="1000"
    panose-1="0 0 0 0 0 0 0 0 0 0"
    ascent="800"
    descent="-200"
    x-height="399.01"
    cap-height="893.173"
    bbox="-238.998 -499.002 1354.28 1034.47"
    underline-thickness="50"
    underline-position="-100"
    unicode-range="U+000A-20AC"
  />
<missing-glyph horiz-adv-x="527" 
d="M50 700h427v-700h-427v700zM78 680l185 -309l186 309h-371zM251 350l-180 300v-601zM264 329l-185 -308h370zM276 350l181 -303v605z" />
    <glyph glyph-name=".notdef" horiz-adv-x="527" 
d="M50 700h427v-700h-427v700zM78 680l185 -309l186 309h-371zM251 350l-180 300v-601zM264 329l-185 -308h370zM276 350l181 -303v605z" />
    <glyph glyph-name=".null" 
 />
    <glyph glyph-name=".null" 
 />
    <glyph glyph-name="LF" unicode="&#xa;" 
 />
    <glyph glyph-name="controlCR" unicode="&#xd;" 
 />
    <glyph glyph-name="space" unicode=" " horiz-adv-x="292" 
 />
    <glyph glyph-name="exclam" unicode="!" horiz-adv-x="219" 
d="M166.515 771.021c4.39062 -28.6318 0.686523 -59.4619 -0.194336 -88.3301c-0.90625 -29.4482 -1.73633 -58.9014 -2.50293 -88.3545c-1.45605 -56.1025 -2.6543 -112.214 -3.60254 -168.329c-1.93945 -115.06 -2.56152 -230.136 -3.84473 -345.203
c-0.457031 -41.002 -104.501 -40.4941 -104.052 0c1.2959 116.537 5.35156 232.977 10.2705 349.412c2.43457 57.5254 5.13184 115.038 8.0957 172.538c1.51562 29.4531 3.10352 58.9014 4.7627 88.3496c1.62109 28.7588 1.89648 58.2324 8.88574 86.2588
c3.9707 15.9307 33.6562 17.9502 45.9043 17.082c14.5977 -1.0332 33.7207 -6.73145 36.2773 -23.4238zM149.313 -82.1484c1.64258 -11.875 0.908203 -24.1064 2.40723 -36.0791c1.11719 -8.97559 -8.10352 -15.957 -14.6318 -20.127
c-10.1982 -6.51562 -23.4707 -8.04004 -35.3115 -8.34082c-18.2969 -0.46582 -47.5293 6.6377 -49.9424 28.4658c-1.27832 11.5742 -3.00977 24.5713 -0.710938 36.082c1.89258 9.4834 6.43066 14.7119 14.377 19.7881c10.0254 6.40527 23.0732 7.89941 34.7158 8.19531
c18.4287 0.469727 46.1377 -6.5625 49.0967 -27.9844z" />
    <glyph glyph-name="quotedbl" unicode="&#x22;" horiz-adv-x="283" 
d="M84.6709 615.833c13.1533 0 32.3965 -4.41992 34.666 -19.7578c3.11621 -21.0703 5.68555 -42.0479 7.73926 -63.2451c1.55762 -16.126 -26.1641 -20.9434 -36.748 -20.9434c-13.1455 0 -35.4102 4.63574 -36.748 20.9434
c-1.73535 21.1045 -2.9209 42.082 -3.57324 63.2451c-0.469727 15.3467 23.835 19.7578 34.6641 19.7578zM232.724 534.782c3.35742 -16.1514 -28.2979 -21.4727 -37.6748 -21.4727c-14.8213 0 -34.499 4.87305 -37.6699 21.4727
c-4.04297 21.1719 -7.1377 43.665 -3.73438 65.0957c4.41992 27.8184 69.4043 28.792 72.1016 0c2.05371 -21.917 2.47266 -43.4111 6.97754 -65.0957z" />
    <glyph glyph-name="quotedbl" unicode="&#x201d;" horiz-adv-x="283" 
d="M84.6709 615.833c13.1533 0 32.3965 -4.41992 34.666 -19.7578c3.11621 -21.0703 5.68555 -42.0479 7.73926 -63.2451c1.55762 -16.126 -26.1641 -20.9434 -36.748 -20.9434c-13.1455 0 -35.4102 4.63574 -36.748 20.9434
c-1.73535 21.1045 -2.9209 42.082 -3.57324 63.2451c-0.469727 15.3467 23.835 19.7578 34.6641 19.7578zM232.724 534.782c3.35742 -16.1514 -28.2979 -21.4727 -37.6748 -21.4727c-14.8213 0 -34.499 4.87305 -37.6699 21.4727
c-4.04297 21.1719 -7.1377 43.665 -3.73438 65.0957c4.41992 27.8184 69.4043 28.792 72.1016 0c2.05371 -21.917 2.47266 -43.4111 6.97754 -65.0957z" />
    <glyph glyph-name="quotedbl" unicode="&#x201c;" horiz-adv-x="283" 
d="M84.6709 615.833c13.1533 0 32.3965 -4.41992 34.666 -19.7578c3.11621 -21.0703 5.68555 -42.0479 7.73926 -63.2451c1.55762 -16.126 -26.1641 -20.9434 -36.748 -20.9434c-13.1455 0 -35.4102 4.63574 -36.748 20.9434
c-1.73535 21.1045 -2.9209 42.082 -3.57324 63.2451c-0.469727 15.3467 23.835 19.7578 34.6641 19.7578zM232.724 534.782c3.35742 -16.1514 -28.2979 -21.4727 -37.6748 -21.4727c-14.8213 0 -34.499 4.87305 -37.6699 21.4727
c-4.04297 21.1719 -7.1377 43.665 -3.73438 65.0957c4.41992 27.8184 69.4043 28.792 72.1016 0c2.05371 -21.917 2.47266 -43.4111 6.97754 -65.0957z" />
    <glyph glyph-name="numbersign" unicode="#" horiz-adv-x="648" 
d="M574.398 319.015c7.3916 0.148438 23.3203 -3.08691 23.3164 -13.2725c0 -10.4395 -15.6172 -13.1191 -23.3184 -13.293c-31.5615 -0.698242 -63.1104 -1.77344 -94.6504 -3.04785c-0.181641 -7.10352 -0.363281 -14.2119 -0.494141 -21.3203
c-0.516602 -27.9453 -0.580078 -55.8701 -0.457031 -83.7949c10.8086 0.00390625 21.6299 -0.182617 32.4717 -0.648438c23.4033 -1.00293 23.585 -23.1064 0 -22.0947c-10.8125 0.461914 -21.6084 0.648438 -32.3916 0.644531
c0.342773 -36.8447 1.10059 -73.6846 2.08691 -110.542c0.944336 -35.3164 2.1123 -70.5986 3.32715 -105.902c0.558594 -16.2568 0.77832 -32.5176 1.39258 -48.7744c0.359375 -9.46582 0.829102 -18.9277 0.977539 -28.4023
c0.0341797 -1.99414 0.838867 -15.5918 -0.799805 -19.7744c7.04492 -7.32422 5.85547 -16.0537 -0.609375 -23.3818c-0.461914 -0.525391 -0.927734 -1.05078 -1.38965 -1.57617c-16.4512 -18.6533 -55.0234 -14.4033 -72.2539 -0.000976562
c-10.6133 8.86914 -11.1299 27.8096 -13.873 40.6758c-4.00488 18.7842 -6.75684 37.8311 -9.55566 56.8311c-5.16895 35.1006 -8.12402 70.4844 -10.9307 105.843c-3.40332 42.8477 -5.27441 85.8857 -6.3457 128.937
c-26.8408 -2.70117 -53.6387 -6.0459 -80.4326 -9.51758c-0.266602 -47.3564 0.317383 -94.7295 1.65137 -142.048c1.82422 -64.8066 7.88281 -129.724 8.12012 -194.552c3.27637 -4.34375 4.44043 -9.50879 1.33691 -15.3643
c-2.0918 -3.9541 -4.93652 -7.51465 -7.99707 -10.7617c-20.998 -22.29 -84.2344 -20.3555 -91.6182 14.1436c-14.458 67.5381 -18.0859 137.7 -21.8281 206.533c-2.32422 42.6787 -3.53906 85.374 -3.83496 128.086c-28.4746 -2.9043 -57 -5.10156 -85.627 -5.93945
c-23.708 -0.694336 -23.3271 21.4131 0 22.0947c28.6143 0.833984 57.123 3.03125 85.5684 5.93164c0.00878906 18.9619 0.173828 37.9238 0.516602 56.8896c0.333984 18.3867 0.816406 36.7812 1.43457 55.168c-32.3145 -3.49707 -64.6289 -7.05371 -97.0117 -10.25
c-8.72559 -0.859375 -26.3037 -0.652344 -30.4102 9.84277c-4.10645 10.5029 9.19531 15.9219 17.2686 17.3359c6.22754 1.0918 13.2002 4.94043 19.0039 7.4043c6.65918 2.81934 18.4072 2.68359 25.4648 -1.39746c22.2266 2.83203 44.5205 5.39746 66.8691 7.71777
c4.68652 109.407 14.7832 218.611 32.3779 326.686c4.11035 25.2568 34.998 32.4287 56.8896 32.4287c16.3838 0 60.0908 -7.66699 56.8906 -32.4287c-13.6064 -105.237 -24.4531 -210.784 -30.291 -316.687c24.7539 1.72754 49.5332 3.21777 74.3164 4.51367
c0.660156 129.674 6.51074 261.438 29.7061 388.437c4.17383 22.8525 31.3447 29.3887 51.5645 29.3887c16.2861 0 52.5547 -6.65137 51.5645 -29.3896c-5.58008 -128.133 -17.3789 -255.617 -21.8242 -383.792c31.3496 1.00781 62.6396 1.78711 93.8281 2.42188z
M290.647 168.723c26.5693 3.44629 53.1455 6.75977 79.7656 9.44824c-0.457031 24.4277 -0.710938 48.8467 -0.837891 73.2275c-0.0546875 10.749 -0.0800781 21.5273 -0.0800781 32.3184c-13.7588 -0.863281 -27.5176 -1.70117 -41.2725 -2.67871
c-11.4854 -0.821289 -22.9541 -1.74414 -34.4141 -2.72168c-1.02832 -22.2178 -1.9043 -44.4482 -2.44629 -66.7002c-0.34668 -14.292 -0.545898 -28.5928 -0.714844 -42.8936z" />
    <glyph glyph-name="dollar" unicode="$" horiz-adv-x="471" 
d="M376.912 471.151c-6.39648 36.0947 -32.6777 70.6172 -67.126 85.083c-4.00098 -95.9189 -11.4648 -191.72 -17.7812 -287.521c58.1436 -59.8281 123.628 -123.907 119.42 -213.899c-1.83301 -39.1943 -16.7607 -86.5674 -47.1318 -113.015
c-20.8203 -18.1318 -48.2158 -26.7979 -75.7295 -27.6572c1.10938 -17.5352 2.26953 -35.0703 3.75977 -52.5801c1.60449 -18.8857 5.47852 -38.3301 4.11523 -57.2373c-1.51953 -21.1045 -52.6865 -23.7422 -58.0801 -4.47949
c-10.3721 37.0439 -8.53906 80.6709 -9.04688 118.993c-0.0253906 1.89258 -0.0126953 3.78906 -0.0292969 5.68555c-72.3936 28.6357 -103.887 108.675 -122.785 180.929c-4.98242 19.0596 38.6572 22.0234 42.7383 6.71484
c13.5898 -50.959 29.6943 -105.004 69.2148 -142.318c3.46289 -3.26855 7.08691 -6.2832 10.834 -9.03906c0.21582 24.2451 0.8125 48.4902 1.77734 72.71c2.08691 52.4023 5.24902 104.817 8.77148 157.187c-8.75488 7.20117 -17.5391 14.2793 -26.1758 21.332
c-38.6309 31.5352 -74.8447 64.3916 -105.322 104.068c-28.3984 36.9668 -61.7207 81.2832 -58.0547 130.697c6.96875 94.0146 117.494 147.175 200.603 149.16c5.20703 0.126953 10.4189 0.0253906 15.6133 -0.270508c1.68066 45.2949 2.47656 90.6279 1.83691 136.016
c-0.241211 17.1416 43.5078 17.2051 43.8545 0c0.973633 -47.9785 0.37207 -95.9111 -1.21582 -143.81c54.4902 -16.3037 100.005 -56.7256 109.797 -116.749c2.62012 -16.0449 -40.7783 -17.3574 -43.8564 0zM248.729 315.833
c6.14746 82.1904 12.5693 164.392 16.3838 246.696c-33.25 -4.54688 -63.9688 -29.0293 -80.3564 -57.4453c-22.6367 -39.2617 -11.1895 -77.9814 10.6641 -114.995c15.749 -26.6709 33.6523 -51.0264 53.3086 -74.2559zM318.35 112.803
c-9.74609 13.2891 -20.834 25.6025 -32.6621 37.2871c-1.43066 -38.8047 -2.1084 -77.6348 -1.63379 -116.57c0.376953 -30.7012 1.34668 -61.3818 2.93848 -92.041c22.4932 0.982422 43.6016 12.5869 57.4492 38.0176c23.2969 42.793 0.469727 97.084 -26.0918 133.307z
" />
    <glyph glyph-name="percent" unicode="%" horiz-adv-x="803" 
d="M721.348 737.276c11.7139 -2.79004 40.2998 -16.2832 29.0469 -33.7383c-45.5273 -70.6328 -94.4668 -138.983 -139.99 -209.633c-160.854 -249.647 -291.81 -518.059 -390.295 -798.209c-11.6973 -33.2754 -106.207 -25.1299 -92.7441 14.5723
c27.1035 79.9297 56.7422 158.975 89.0869 236.936c57.415 138.382 123.119 273.292 196.465 403.922c72.7871 129.64 150.938 259.593 245.774 374.449c13.3486 16.168 44.5029 16.0283 62.6562 11.7012zM226.177 216.833
c-57.3984 -20.2529 -120.321 1.95703 -154.151 51.54c-30.7393 45.0615 -25.4893 107.206 -7.42871 157.937c0.288086 8.65723 3.84473 16.2393 9.36523 22.8643c1.77344 3.49316 5.01172 6.50293 9.24512 8.97559c14.7031 11.8662 34.9941 19.9053 49.0918 25.21
c32.4541 12.2178 69.4385 14.627 102.21 2.16797c113.493 -43.1484 102.977 -229.416 -8.33203 -268.694zM152.729 289.452c6.36328 -13.458 17.4531 -30.6436 32.7959 -34.8135c0.0976562 -0.0253906 0.152344 -0.046875 0.232422 -0.0722656
c4.19141 0.449219 7.98926 2.32422 11.6602 4.27148c9.63574 5.11035 17.5732 13.2002 23.6826 22.1543c26.3789 38.6816 31.0361 98.4258 7.48535 139.305c-8.08594 14.0381 -25.0371 33.1572 -43.0508 32.1748c-5.75781 -0.317383 -18.1748 -3.9541 -29.1738 -9.16113
c-0.0214844 -0.338867 0 -0.65625 -0.0380859 -1.00293c-5.76562 -51.4287 -27.3184 -102.692 -3.59375 -152.855zM605.648 116.811c69.9512 1.12598 125.826 -58.3252 106.115 -129.047c-20.0459 -71.8936 -108.125 -110.14 -177.656 -102.409
c-37.1709 4.13184 -73.0039 23.0938 -87.5508 59.1338c-15.2998 37.9072 -5.91406 78.0752 9.19922 114.395c6.11328 14.6904 27.5986 18.2549 42.7842 18.1318c2.73926 2.17188 5.39355 4.15332 7.84082 5.89746c28.4111 20.2363 64.2393 33.335 99.2676 33.8984z
M651.316 -16.2539c18.8438 36.4717 10.8076 103.473 -42.0986 102.681c-21.3281 -0.321289 -42.4785 -9.91406 -59.0996 -22.75c-2.74805 -2.12109 -5.50391 -4.40723 -8.22168 -6.76562c0.304688 -1.47363 0.422852 -3.01074 0.134766 -4.67871
c-4.39062 -25.5068 -11.5703 -50.917 -10.0889 -77.042c0.825195 -14.585 6.54883 -37.6455 21.125 -44.8887c13.8564 -6.8877 36.5781 1.46094 49.1689 7.34961c20.7822 9.71582 38.5 25.6211 49.0801 46.0947z" />
    <glyph glyph-name="ampersand" unicode="&#x26;" horiz-adv-x="646" 
d="M575.567 101.034c53.127 -78.5742 -8.34473 -171.518 -80.0566 -210.605c-41.7217 -22.7422 -89.7217 -34.7441 -136.604 -40.832c-47.665 -6.19336 -97.2188 -6.66309 -141.434 14.7715c-92.5029 44.8457 -66.543 152.479 -31.0576 227.104
c23.7031 49.8457 55.4209 96.1055 92.8965 136.972c-54.5703 -4.55078 -109.111 0.87207 -156.696 25.9307c-71.4922 37.6445 -86.873 115.673 -60.625 187.562c24.9014 68.1982 87.4268 123.345 149.503 157.606c68.2871 37.6865 154.22 60.3359 230.551 34.8584
c31.5098 -10.5205 59.4424 -30.7354 75.3223 -60.3662c17.3105 -32.3066 16.8701 -70.6416 15.9941 -106.254c-0.431641 -17.6494 -44.8496 -17.4424 -44.7822 0c0.143555 37.7207 0.897461 81.75 -25.7402 111.771c-26.5107 29.8799 -65.9971 35.625 -103.392 27.501
c-69.6377 -15.126 -134.466 -54.6924 -179.946 -109.373c-43.707 -52.5469 -61.7168 -136.701 -2.58691 -186.043c23.3271 -19.4619 53 -23.0439 82.3643 -21.1689c41.6455 2.66309 84.0146 11.8799 124.924 19.8262c17.1924 3.33984 43.6562 0.609375 56.4033 -13.082
c11.9678 -12.8574 5.2832 -25.876 -7.81152 -34.4951c-63.9854 -42.1191 -116.282 -99.9023 -153.689 -166.606c-27.3867 -48.834 -70.167 -129.707 -35.9258 -184.553c38.457 -61.6025 138.373 -28.2168 189.277 -4.63184c58.5371 27.124 118.336 90.75 91.9189 160.769
c-10.5674 27.9961 -34.7158 51.1914 -64.0205 58.6641c-14.6309 3.72559 -30.2402 2.66309 -44.7188 -1.12988c-12.0107 -3.14941 -34.9229 -9.10645 -38.9697 -21.96c-7.45117 -23.6699 -74.667 -17.9756 -65.5098 10.2959
c7.52344 23.2207 40.1133 34.7998 61.0693 41.9414c25.1221 8.56445 52.1445 12.4463 78.6426 10.918c48.7158 -2.80664 96.7832 -24.1055 124.699 -65.3906z" />
    <glyph glyph-name="quotesingle" unicode="'" horiz-adv-x="179" 
d="M128.957 471.485c5.48633 -23.7373 -63.6982 -28.1328 -69.3242 -0.000976562c-6.49414 32.4717 -23.5762 93.3115 13.3828 113.294c12.9463 6.99805 33.3008 8.12793 46.0732 0c11.3838 -7.24316 12.0654 -19.1562 0 -26.2598
c-5.2666 -3.10352 0.393555 -31.168 1.02832 -36.7812c1.91797 -16.9385 5.00391 -33.6484 8.83984 -50.252z" />
    <glyph glyph-name="quotesingle" unicode="&#x2019;" horiz-adv-x="179" 
d="M128.957 471.485c5.48633 -23.7373 -63.6982 -28.1328 -69.3242 -0.000976562c-6.49414 32.4717 -23.5762 93.3115 13.3828 113.294c12.9463 6.99805 33.3008 8.12793 46.0732 0c11.3838 -7.24316 12.0654 -19.1562 0 -26.2598
c-5.2666 -3.10352 0.393555 -31.168 1.02832 -36.7812c1.91797 -16.9385 5.00391 -33.6484 8.83984 -50.252z" />
    <glyph glyph-name="quotesingle" unicode="&#x2018;" horiz-adv-x="179" 
d="M128.957 471.485c5.48633 -23.7373 -63.6982 -28.1328 -69.3242 -0.000976562c-6.49414 32.4717 -23.5762 93.3115 13.3828 113.294c12.9463 6.99805 33.3008 8.12793 46.0732 0c11.3838 -7.24316 12.0654 -19.1562 0 -26.2598
c-5.2666 -3.10352 0.393555 -31.168 1.02832 -36.7812c1.91797 -16.9385 5.00391 -33.6484 8.83984 -50.252z" />
    <glyph glyph-name="parenleft" unicode="(" horiz-adv-x="518" 
d="M454.858 -254.896c18.251 -10.7021 17.0146 -28.5605 0.00390625 -39.5039c-99.5098 -64.0488 -239.944 -21.0742 -308.151 68.3555c-62.5801 82.0498 -84.8447 188.989 -92.8887 289.908c-8.92383 111.978 -1.58301 226.867 15.4482 337.752
c14.792 96.3047 35.6973 203.003 92.0283 284.778c25.4053 36.8828 59.1807 69.21 99.7715 88.8535c22.9717 11.1172 48.9277 18.543 74.6631 17.9082c22.2939 -0.550781 38.2422 -9.37305 55.6973 -21.9463c21.2139 -15.2832 -18.0908 -26.9258 -31.3418 -17.8613
c-28.0898 19.208 -75.8311 -26.709 -92.5576 -45.7129c-27.2598 -30.9727 -46.082 -69.9512 -60.0947 -108.464c-30.3457 -83.4092 -41.6621 -174.062 -47.957 -262.154c-6.67188 -93.3496 -9.7793 -187.901 0.313477 -281.111
c9.01758 -83.2568 27.7764 -170.997 74.3076 -242.04c18.7041 -28.5596 45.3838 -55.3154 77.2881 -68.6768c26.4932 -11.0957 47.3896 -13.708 74.1494 -0.0849609c20.4609 10.4141 49.0205 11.9043 69.3203 0z" />
    <glyph glyph-name="parenright" unicode=")" horiz-adv-x="471" 
d="M292.424 673.307c104.501 -160.299 136.379 -360.516 126.685 -548.798c-4.61914 -89.6328 -20.6768 -184.083 -67.792 -261.934c-48.8086 -80.6494 -128.543 -135.474 -225.665 -124.987c-14.6689 1.58301 -38.8125 12.1035 -34.9434 30.5107
c4.08105 19.3857 31.9121 23.458 47.915 24.1104c26.3203 1.0752 55.7607 22.8945 75.874 44.1387c27.8906 29.457 47.0391 66.7461 61.7256 104.272c27.8438 71.1611 35.7939 148.275 37.7539 224.128c2.07031 80.2344 -2.20605 161.361 -15.165 240.617
c-12.7852 78.1973 -31.8232 156.2 -61.5049 229.813c-23.1064 57.3057 -72.6133 135.736 -145.431 107.82c-10.4062 -3.98828 -27.4209 -3.35352 -36.3535 4.13574c-8.27637 6.94336 -7.01465 15.5498 2.20605 21.0918c41.5986 24.999 95.9277 20.0547 138.471 0.114258
c41.959 -19.6689 71.4541 -57.0342 96.2246 -95.0342z" />
    <glyph glyph-name="asterisk" unicode="*" horiz-adv-x="297" 
d="M247.452 451.961c0 -10.2324 -15.4561 -13.1475 -23.0811 -13.1641c-16.5068 -0.0341797 -32.9414 -0.626953 -49.3506 -1.45703c15.207 -13.082 31.5186 -24.8047 48.8545 -35.2314c20.4775 -12.3193 -16.3037 -24.2539 -29.0469 -16.5576
c-12.6113 7.61621 -24.8164 15.876 -36.5137 24.7832c-0.487305 -17.3359 -0.546875 -34.7021 -0.0771484 -52.1143c0.46582 -17.0742 -43.3896 -17.252 -43.8555 0c-0.313477 11.5449 -0.360352 23.0859 -0.267578 34.6221
c-6.60449 -6.0918 -13.1748 -12.2178 -19.8262 -18.2637c-12.1924 -11.083 -55.1455 -0.943359 -39.0664 13.0186c17.2432 14.9785 34.3086 30.1475 51.2812 45.418c-12.1543 -0.8125 -24.3135 -1.58691 -36.5059 -2.20508
c-21.1973 -1.0791 -29.1904 19.7588 -5.70703 24.0352c13.3525 2.42969 26.8701 4.2793 40.4805 5.70215c-4.30566 4.97461 -8.50098 10.0508 -12.5273 15.2627c-9.07715 11.748 -16.8242 25.1641 -29.5967 33.335c-19.999 12.7939 16.2822 24.2969 28.7207 16.3721
c11.5107 -7.33203 20.6338 -17.2725 29.1309 -27.8857c1.45605 12.7979 3.11523 25.5791 5.0625 38.3301c2.76465 18.0859 47.4492 16.1133 44.7822 0c-2.79004 -16.8457 -5.05078 -33.7168 -6.90039 -50.6172c12.8193 12.083 25.5537 24.2588 38.1611 36.5703
c10.3252 10.084 49.1719 2.28125 35.0703 -11.6855c-15.3467 -15.2031 -30.8076 -30.2871 -46.3281 -45.3076c11.3887 0.143555 22.752 0.198242 34.0215 0.198242c7.31934 0 23.085 -2.95117 23.085 -13.1582z" />
    <glyph glyph-name="plus" unicode="+" horiz-adv-x="325" 
d="M256.428 185.903c25.1641 1.18164 24.6094 -22.2588 0 -23.4062c-19.1826 -0.901367 -38.3398 -2.04004 -57.4922 -3.28906c-0.0927734 -4.04688 -0.203125 -8.09375 -0.25 -12.1455c-0.300781 -25.9053 -0.119141 -51.8438 0.0419922 -77.749
c0.143555 -23.1152 6.06641 -51.4795 -14.2803 -66.8047c-14.1572 -10.6602 -36.8916 -13.4033 -52.623 -3.86523c-13.5771 8.22559 -18.4072 14.5166 -21.8789 29.8164c-3.06934 13.5264 -4.51758 27.0566 -5.88086 40.8496
c-2.42188 24.5459 -3.60742 48.9902 -3.9375 73.6553c-0.0380859 2.73926 -0.046875 5.47852 -0.0722656 8.21289c-8.10742 -0.783203 -16.2188 -1.52441 -24.3262 -2.37109c-6.73145 -0.707031 -22.4717 -0.580078 -25.2656 8.1748
c-2.72168 8.53906 7.0752 13.6406 14.3486 14.4023c11.7227 1.22754 23.458 2.32422 35.1895 3.42871c0.19043 41.3066 2.12988 82.626 8.46777 123.45c5.84277 37.6152 99.3662 38.1865 97.5713 0c-1.81152 -38.5508 -4.7959 -77.0127 -6.36621 -115.56
c18.9111 1.21094 37.8262 2.31152 56.7539 3.2002z" />
    <glyph glyph-name="comma" unicode="," horiz-adv-x="281" 
d="M136.133 104.615c13.8057 33.4111 109.181 22.5742 92.7461 -14.5713c-26.4473 -59.7695 -58.3008 -115.567 -95.7002 -169.16c-11.2656 -16.1465 -33.2295 -19.7158 -51.751 -16.752c-11.6172 1.8584 -39.1016 12.751 -29.3857 29.499
c31.8193 54.8496 59.8789 112.388 84.0908 170.984z" />
    <glyph glyph-name="hyphen" unicode="-" horiz-adv-x="325" 
d="M245.046 177.953c11.2568 -0.977539 30.376 -9 30.3799 -22.7422c0 -13.8184 -19.208 -21.748 -30.376 -22.7432c-54.0449 -4.81738 -108.708 0.360352 -162.368 7.6377c-13.8984 1.88379 -39.1172 12.7344 -31.1621 31.2861
c7.96289 18.5645 38.2158 20.0586 54.8828 17.7637c46.1328 -6.36328 92.333 -7.18066 138.644 -11.2021z" />
    <glyph glyph-name="period" unicode="." horiz-adv-x="184" 
d="M129.309 32.4678c4.9873 -12.3916 3.71387 -28.0137 4.38672 -41.2354c0.389648 -7.73438 -6.47754 -13.1699 -12.2559 -16.8613c-8.54785 -5.45703 -19.6611 -6.73145 -29.585 -6.98535c-9.46191 -0.241211 -21.3076 2.1123 -29.584 6.98535
c-5.50391 3.23828 -12.6289 9.57617 -12.2568 16.8623c0.677734 13.2041 -0.587891 28.8389 4.41211 41.2305c2.59082 6.42676 11.8242 11.3672 17.8447 13.2295c6.3418 1.96484 12.9717 2.85352 19.5967 3.02246c11.4648 0.291992 32.4336 -3.80566 37.4414 -16.248z" />
    <glyph glyph-name="slash" unicode="/" horiz-adv-x="666" 
d="M574.373 683.188c15.3379 -2.45508 52.4463 -17.1299 39.25 -39.3984c-169.71 -286.445 -332.244 -576.277 -473.061 -878.23c-14.3604 -30.7949 -104.454 -22.1123 -88.7266 13.9404c131.977 302.542 279.092 600.706 453.412 881.318
c13.708 22.0654 45.5488 26.1426 69.125 22.3701z" />
    <glyph glyph-name="zero" unicode="0" horiz-adv-x="486" 
d="M321.21 564.36c100.602 -52.6016 118.142 -188.68 114.764 -289.649c-1.96875 -58.668 -12.5996 -116.96 -31.2021 -172.665c-17.2393 -51.6318 -42.0732 -105.44 -82.6895 -143.081c-44.833 -41.5439 -112.346 -62.5293 -171.713 -42.4961
c-60.1543 20.2998 -81.1445 80.2129 -91.1396 137.391c-21.4893 122.908 -2.82324 253.784 28.9453 373.119c0.203125 0.757812 0.537109 1.44336 0.820312 2.1543c7.61621 46.0693 27.0352 89.4336 65.6367 118.827c47.3018 36.0186 113.312 44.2529 166.578 16.4004z
M344.74 282.378c8.72559 79.0703 15.6445 194.506 -57.8203 247.336c-33.2627 23.9199 -68.2402 9.77148 -94.1494 -18.4912c-16.2822 -17.7598 -26.6709 -39.7568 -33.25 -63.0244c16.6289 -3.44141 41.9961 -12.6533 38.127 -29.6641
c-24.8936 -109.483 -42.3867 -222.066 -31.748 -334.548c2.35352 -24.8428 6.18945 -49.5029 14.7705 -73.0332c3.66211 -10.0381 11.3379 -35.2783 22.5273 -40.5996c5.42285 -0.241211 15.9727 7.54883 19.8291 10.2842c14.6865 10.4141 27.332 25.3496 37.4287 40.1201
c52.085 76.1914 74.3066 171.2 84.2852 261.62z" />
    <glyph glyph-name="one" unicode="1" horiz-adv-x="378" 
d="M290.781 -51.1875c11.5869 -0.529297 31.0352 -3.02539 36.3359 -15.7637c4.85547 -11.6846 -6.94727 -21.5527 -17.3105 -24.25c-24.8682 -6.47266 -50.2148 -8.55176 -75.582 -12.2734c-13.2002 -1.93848 -26.3662 -4.08105 -39.499 -6.43066
c-6.12207 -1.09668 -14.3271 -1.55371 -21.2705 -2.96777c-11.4727 -5.40625 -27.916 -6.04102 -35.8877 -4.45801c-0.288086 0.0546875 -0.571289 0.114258 -0.859375 0.168945c-9.5166 1.89258 -36.2344 11.4434 -26.8652 26.9766
c9.53809 15.8164 32.9326 21.2734 54.6172 24.4443c-0.850586 2.60352 -1.30762 5.38086 -1.28613 8.34473c0.833984 128.298 12.3369 258.386 31.1299 385.223c4.42383 29.8672 9.47852 59.7266 12.2598 89.8057c2.54883 27.5684 4.95312 60.7344 -5.57129 87.0625
c-1.8584 4.64844 -4.17383 8.95801 -7.27734 12.8994c-1.60449 2.03613 -3.57324 3.4248 -4.94922 4.42383c-2.76465 -2.48047 -8.4082 -6.12988 -9.40723 -6.95996c-5.22461 -4.32715 -9.96191 -9.39062 -14.5635 -14.3779
c-18.5684 -20.1221 -31.9463 -43.6396 -42.0684 -68.9736c-10.2998 -25.7783 -83.7471 -17.5479 -71.3135 11.2061c25.1387 58.1309 78.3115 129.475 149.685 121.621c72.085 -7.92969 89.1377 -90.6914 93.3799 -150.744
c5.38965 -76.3096 -0.736328 -154.397 -2.47656 -230.8c-1.77832 -77.9941 -2.00293 -156.166 -4.66992 -234.122c1.14746 -0.0341797 2.30273 0 3.4502 -0.0546875z" />
    <glyph glyph-name="two" unicode="2" horiz-adv-x="372" 
d="M173.832 561.144c54.6719 23.8896 125.196 3.33691 143.511 -58.1133c9.96973 -33.4238 3.39062 -70.3574 -3.71777 -103.582c-7.99316 -37.3613 -18.6875 -73.668 -30.2959 -110.043c-23.5127 -73.6934 -55.1963 -144.656 -80.8896 -217.596
c-6.66797 -18.9326 -13.0605 -37.9668 -18.9619 -57.1494c-5.00781 -16.2822 -3.07715 -29.6348 -4.93555 -45.7227c3.53906 0.207031 6.94727 0.464844 8.06445 0.595703c17.29 2.04102 33.4922 6.72363 49.8037 12.668s45.9248 5.47461 58.5107 -8.74121
c13.4795 -15.2324 -1.18555 -27.1367 -15.3428 -33.3516c-38.2754 -16.8027 -81.75 -26.9971 -123.658 -27.9668c-39.1855 -0.90625 -90.0938 13.7803 -103.163 55.7471c-10.4863 33.6689 11.5283 76.6016 22.7979 107.875c12.29 34.1016 25.6973 67.792 39.4902 101.309
c28.3516 68.9092 59.959 136.955 92.7139 203.87c16.2402 33.1787 34.0166 67.9404 41.874 104.307c2.74805 12.7129 8.78125 34.6895 1.06738 46.2939c-7.9375 11.9424 -25.0029 15.4814 -38.0293 12.6875c-30.1602 -6.46484 -56.6875 -34.7275 -73.6172 -59.1592
c-18.374 -26.5186 -29.7832 -56.7422 -32.9922 -88.8369c-1.74805 -17.501 -45.3535 -16.5488 -43.8545 0c6.0918 67.2412 48.1855 137.188 111.625 164.909zM169.889 -31.3398c-0.630859 0.186523 -1.06641 0.279297 -1.08789 0.177734
s0.402344 -0.15625 1.08789 -0.177734zM178.45 -34.083c0.364258 -2.84473 2.4043 -0.948242 0 0z" />
    <glyph glyph-name="three" unicode="3" horiz-adv-x="440" 
d="M337.161 245.059c39.6855 -37.1836 60.8818 -95.0664 50.4932 -148.743c-11.6504 -60.1582 -47.7373 -109.128 -98.0361 -143.293c-54.0449 -36.709 -127.518 -44.2959 -181.009 -2.84961c-48.7324 37.7588 -58.2158 102.596 -58.6094 160.515
c-0.219727 32.4287 80.3018 32.3818 82.7529 -0.000976562c2.26953 -29.9863 1.93555 -60.8789 12.4053 -89.4932c7.06543 -19.3174 20.7568 -44.6719 41.8613 -51.374c1.16016 -0.368164 1.77441 -0.59668 2.13379 -0.749023
c-0.0927734 0.130859 -0.0292969 0.299805 0.618164 0.452148c3.95801 0.922852 7.51465 3.09863 10.9863 5.13477c10.8252 6.36328 20.0332 15.5078 28.3906 24.7793c15.8672 17.6074 28.2881 39.1523 36.6836 61.2764c16.4512 43.3682 12.3447 97.9219 -16.1006 135.715
c-29.4658 39.1436 -65.6074 34.1016 -107.545 29.2793c-21.5869 -2.48047 -50.0195 -1.24023 -66.458 15.4141c-13.9072 14.0977 -6.70605 31.8281 9.20312 40.6504c39.8584 22.1074 76.4238 49.5537 109.721 80.6445c31.0908 29.0293 65.1963 66.9619 66.6904 111.927
c0.672852 20.334 -5.80859 40.0625 -23.4541 51.9287c-20.9902 14.1143 -45.8076 3.17871 -64.6641 -9.29785c-35.0703 -23.2041 -65.8057 -57.6055 -76.5166 -98.8486c-4.08984 -15.7441 -48.5127 -12.5693 -43.6318 6.85449
c13.1328 52.2969 59.9434 99.9834 108.197 122.312c47.2168 21.8496 108.4 16.1475 137.98 -30.5566c50.29 -79.4043 4.2041 -163.555 -58.4395 -224.869c35.5996 -6.875 69.0781 -21.2568 96.3467 -46.8066z" />
    <glyph glyph-name="four" unicode="4" horiz-adv-x="407" 
d="M356.72 522.948c-5.44434 -97.4473 -15.002 -194.632 -17.3047 -292.257c-2.28613 -96.9902 4.13574 -193.498 12.9199 -290.019c2.91309 -32.0186 -79.0908 -34.2881 -87.1855 -6.72754c-17.5352 59.7188 -26.6035 120.979 -30.9092 182.733
c-29.5547 -7.45117 -60.0703 -10.5078 -89.9082 -7.32812c-51.5732 5.49512 -95.2969 34.4863 -94.3145 90.4287c1.01172 57.5928 21.3662 116.248 34.376 171.924c13.6191 58.2793 27.374 116.528 33.7285 176.146c2.78613 26.1553 67.9238 24.75 65.6211 0.000976562
c-8.97949 -96.5117 -38.4365 -189.399 -50.168 -285.505c-3.4248 -28.043 -16.9131 -93.625 21.2139 -105.085c23.1621 -6.95996 50.9473 1.98535 76.8477 12.4043c-0.576172 18.9834 -0.813477 37.9834 -0.796875 56.9746
c0.0800781 98.9424 6.48926 197.978 17.1963 296.31c4.66113 42.7881 111.021 41.8525 108.684 0z" />
    <glyph glyph-name="five" unicode="5" horiz-adv-x="518" 
d="M389.887 366.65c69.4678 -52.1953 83.1436 -142.894 76.3145 -224.339c-6.92578 -82.8037 -40.041 -164.596 -105.822 -217.892c-60.9795 -49.4102 -168.329 -74.4004 -224.119 -2.54492c-53.9307 69.4639 -34.6846 181.217 -17.4453 260.02
c6.53223 29.8672 82.5664 31.0098 79.5098 -0.000976562c-5.39355 -54.7314 -15.0293 -109.509 -10.5039 -164.663c2.42969 -29.6348 9.36035 -93.6416 50.2607 -95.2246c33.8467 -1.3125 68.3496 34.8633 86.626 59.4473c25.1094 33.7754 39.7832 74.498 47.374 115.567
c14.0088 75.8145 17.2012 178.131 -46.4287 233.776c-26.4854 23.166 -59.7695 26.0361 -92.6221 16.4688c-41.9033 -12.21 -77.1475 -45.4219 -123.17 -36.417c-23.4961 4.59766 -42.6357 19.5166 -35.8789 45.0361c5.70703 21.5527 15.0889 42.6572 22.5693 63.6602
c11.3037 31.7344 21.5576 64.29 34.1104 95.749c-17.54 -2.75586 -35.0752 -5.55469 -52.585 -8.51855c-7.21387 -1.21973 -24.6006 -0.296875 -27.543 8.91504c-3.08203 9.64844 7.82812 14.3516 15.6387 15.6982c25.5791 4.41113 51.2002 8.52637 76.8428 12.4971
c1.68945 3.59863 3.34473 7.21387 5.13086 10.7617c7.47266 14.8467 55.3242 18.0684 57.5889 -1.49512c37.666 5.30078 75.3867 10.1992 113.184 14.5518c7.54395 0.868164 25.2744 0.592773 28.3984 -9.19141c3.07324 -9.63086 -7.95898 -15.2695 -16.125 -16.1836
c-43.0508 -4.82227 -86.0166 -10.2666 -128.902 -16.3125c-4.7207 -26.7012 -12.002 -52.9492 -18.4668 -79.2695c-4.19141 -17.0742 -8.38672 -34.1436 -12.5781 -51.2178c-0.668945 -2.73438 -1.87988 -6.42578 -3.25977 -10.583
c1.82031 0.69043 3.63672 1.39355 5.46973 2.0459c25.6426 9.11523 52.4199 14.623 79.5654 16.291c47.8945 2.93848 98.0156 -7.44238 136.867 -36.6328z" />
    <glyph glyph-name="six" unicode="6" horiz-adv-x="420" 
d="M309.643 186.75c37.9033 -21.041 60.1084 -61.5566 59.96 -104.662c-0.291992 -87.3672 -76.5801 -156.319 -162.542 -153c-47.166 1.82031 -89.3916 22.374 -116.715 61.2891c-25.5244 36.3535 -38.1152 84.3281 -39.999 128.247
c-3.99609 93.0918 27.0869 186.061 63.9609 270.295c18.9785 43.3516 41.7637 85.9365 68.5195 125.024c25.9512 37.916 52.8809 65.8027 96.6348 81.8223c13.3057 4.86816 66.335 -2.07031 44.8916 -25.5879c-46.7891 -51.3232 -75.543 -123.755 -102.185 -186.894
c-26.7139 -63.3037 -48.9355 -130.033 -57.4111 -198.456c46.8359 18.1406 98.5742 27.6279 144.885 1.92188zM290.206 64.1494c5.19434 30.4854 -1.27637 61.9395 -23.3242 84.3857c-23.043 23.4453 -51.7129 15.5283 -80.708 8.04785
c-6.62988 -1.70996 -15.8926 -2.86523 -23.9316 -1.20117c-1.27832 -26.2061 -0.0546875 -52.3994 3.09082 -78.5967c3.4209 -28.5088 11.0459 -60.5059 29.3428 -83.498c39.9053 -50.1416 89.4844 35.3721 95.5303 70.8623z" />
    <glyph glyph-name="seven" unicode="7" horiz-adv-x="391" 
d="M311.097 241.308c9.26758 -0.65625 27.959 -2.8125 29.9658 -15.0771c1.89648 -11.6631 -12.1289 -17.9072 -21.8447 -19.0713c-10.7109 -1.2832 -21.5195 -1.96484 -32.3574 -2.37988c-1.05859 -5.75781 -2.10449 -11.5156 -3.12012 -17.2734
c-14.0508 -79.624 -26.7129 -158.778 -34.376 -239.321c-4.52539 -47.5254 -123.001 -45.248 -119.335 0c6.96387 85.9365 26.0527 169.553 47.415 252.691c-9.00098 -0.224609 -17.9893 -0.173828 -26.9434 0.330078c-9.26758 -0.681641 -18.8398 1.15137 -24.4531 7.61133
c-10.707 12.3154 5.64258 19.9951 16.04 22.4756c14.3936 3.4375 29.5537 4.88574 44.7568 5.73242c9.41504 35.8281 18.9824 71.623 27.9277 107.52c8.22168 32.9961 15.6387 66.3057 21.832 99.7383c5.44043 29.377 13.6201 65.0957 3.00195 94.1846
c-1.83301 5.02051 -4.14453 10.7949 -7.75586 14.8594c-3.6875 4.16113 1.16406 3.4707 -6.96875 2.16211c-11.6592 -1.875 -23.0771 -3.60254 -34.415 -7.02734c-29.2031 -8.81836 -54.5449 -24.2031 -79.4336 -41.5137
c-12.3242 -8.56836 -33.9658 -7.66211 -47.0303 -1.5957c-10.0635 4.67383 -20.2578 16.3418 -9.22559 26.3418c49.1602 44.5576 132.421 78.5527 199.463 65.5596c81.1953 -15.7314 73.2109 -113.492 67.834 -176.906
c-5.08398 -59.9512 -16.8574 -119.263 -28.2207 -178.447c5.77441 -0.0380859 11.5322 -0.19043 17.2432 -0.592773z" />
    <glyph glyph-name="eight" unicode="8" horiz-adv-x="414" 
d="M295.931 187.14c3.69629 -3.89453 7.33789 -7.83301 10.8477 -11.8721c35.6504 -40.9043 60.8691 -92.8115 57.1982 -148.19c-3.37402 -50.9336 -28.0342 -106.033 -74.7051 -130.537c-42.4033 -22.2598 -94.8818 -19.665 -133.153 9.80859
c-41.3916 31.8828 -57.665 85.3486 -58.2617 135.834c-0.355469 30.1133 4.43652 60.2012 12.3232 89.209c7.17969 26.4131 14.5205 54.7861 28.0889 78.7266c-40.3877 36.7471 -71.4023 80.1455 -83.8066 134.496c-12.6709 55.5225 2.31152 108.497 36.5059 153.021
c59.583 77.584 222.418 127.756 258.34 2.0918c14.6943 -51.3994 1.61719 -106.516 -10.7744 -156.976c-12.6582 -51.5518 -25.8457 -104.67 -42.6025 -155.612zM175.237 453.153c-13.6748 -51.624 -3.91992 -110.574 22.2686 -156.508
c15.3633 -26.9424 36.874 -49.1309 59.1133 -70.7139c5.49902 13.1455 10.9395 26.3164 15.9219 39.6602c13.4414 36.002 23.5635 73.6846 31.5986 111.244c6.16406 28.8008 11.3164 58.3887 9.47461 87.9639c-1.82422 29.3135 -15.3379 76.2588 -49.8154 82.5713
c-46.124 8.44141 -79.2432 -59.0459 -88.5615 -94.2178zM266.052 -78.2471c54.041 37.3271 41.4736 104.282 11.2754 152.857c-24.6348 39.6299 -59.7773 69.5225 -95.377 98.7676c-11.5918 -21.1299 -21.6299 -42.3271 -27.2354 -67.3643
c-7.125 -31.8408 -9.88965 -65.5098 -5.19922 -97.9092c7.77246 -53.6895 55.5771 -128.458 116.536 -86.3516z" />
    <glyph glyph-name="nine" unicode="9" horiz-adv-x="527" 
d="M457.003 558.527c13.8311 -21.1719 14.627 -52.8809 16.6973 -77.1895c2.0918 -24.4863 3.01074 -49.0625 3.07422 -73.6338c0.148438 -55.9297 -4.2041 -111.622 -10.2793 -167.183c-12.1211 -110.881 -23.5898 -223.642 -47.2852 -332.731
c-5.65625 -26.04 -35.1045 -33.6143 -58.9736 -33.6143c-16.46 0 -62.9863 8.09863 -58.9727 33.6143c22.0186 139.999 53.5967 278.491 77.2539 418.236c9.60156 56.7041 16.8115 114.437 16.4941 172.072c-8.48828 -15.4189 -16.4004 -31.1553 -24.0928 -46.9883
c-23.0859 -47.5254 -44.1904 -96.2959 -72.5215 -141.045c-27.002 -42.6484 -60.5059 -88.1084 -112.85 -98.7471c-64.6973 -13.1494 -120.91 21.2607 -133.391 86.3174c-9.66504 50.3789 14.6777 112.671 42.3184 154.177c31.0488 46.624 74.1123 82.8799 128.496 98.7725
c32.2725 9.42773 68.1055 12.8105 100.793 3.04395c6.81641 -2.03613 12.6504 -4.68652 17.9004 -7.86133c13.0898 18.4287 28.4365 32.251 52.1064 35.8965c23.208 3.57715 49.752 -2.50195 63.2314 -23.1367zM273.115 419.358
c14.5039 29.3975 28.5771 59.3213 44.7324 87.9736c-36.2266 8.31055 -79.8955 -28.1152 -99.874 -52.3818c-32.6953 -39.7236 -53.0674 -95.3018 -52.5635 -146.549c0.114258 -11.71 0.262695 -24 3.52246 -35.3545c0.482422 -1.67676 1.48535 -3.56445 2.50098 -5.48242
c4.11523 3.12012 8.20508 6.32031 9.22949 7.32812c8.02637 7.91211 15.4014 16.5615 22.4209 25.3633c28.8008 36.1123 49.6895 77.8721 70.0312 119.103z" />
    <glyph glyph-name="colon" unicode=":" horiz-adv-x="202" 
d="M130.44 294.731c0.304688 -18.043 -27.4492 -22.6006 -40.2178 -22.9268c-13.0518 -0.333984 -40.5146 5.37305 -40.2188 22.9258c0.232422 13.6406 0.460938 27.2852 0.693359 40.9258c0.300781 17.7812 26.4688 22.1973 39.5254 22.5312
c13.2637 0.338867 39.2324 -5.24512 39.5244 -22.5303c0.232422 -13.6406 0.460938 -27.2852 0.693359 -40.9258zM151.66 49.1416c5.2959 -18.0771 -16.6348 -25.0723 -30.5508 -26.1387c-13.9326 -1.06641 -39.8457 2.31152 -41.6279 20.5713
c-0.986328 10.0967 -4.90234 25.3545 0.652344 34.4863c10.6387 17.4971 43.4912 17.0654 57.4277 4.27637c8.78906 -8.06445 10.8555 -22.1455 14.0986 -33.1953z" />
    <glyph glyph-name="semicolon" unicode=";" horiz-adv-x="269" 
d="M212.817 346.719c3.35742 -12.252 5.74219 -24.3877 5.75879 -37.1133c0.0126953 -9.16113 -7.31543 -15.2109 -14.2881 -19.665c-9.96582 -6.36719 -22.9248 -7.84863 -34.4951 -8.14453c-11.0322 -0.279297 -24.8467 2.45996 -34.4951 8.14551
c-6.70215 3.9502 -14.4111 11.0283 -14.2881 19.665c0.110352 7.79395 -0.605469 15.4482 -2.06641 23.0732c-2.00684 4.68262 -1.96875 9.36035 0.237305 14.0381c1.62988 2.20117 3.26367 4.40723 4.89355 6.61328c7.01465 7.87891 19.0547 10.8467 29.0166 12.7178
c11.6123 2.18457 26.2227 1.0459 37.4121 -2.79004c6.52832 -2.23535 20.126 -8.55176 22.3145 -16.54zM142.631 70.6133c6.70605 20.7402 70.4375 19.0684 66.7207 -5.14355c-10.9141 -71.1064 -32.4717 -137.684 -65.7725 -201.475
c-17.5186 -33.5635 -110.221 -16.1299 -90.958 14.292c37.8311 59.7441 68.2451 125.047 90.0098 192.326z" />
    <glyph glyph-name="less" unicode="&#x3c;" horiz-adv-x="385" 
d="M333.651 153.594c8.9668 -20.9688 -19.208 -33.2002 -35.3633 -35.499c-45.4258 -6.47266 -93.1377 -9.31348 -138.288 0.639648c-34.5537 7.62012 -84.4414 22.8564 -105.063 54.5615c-14.335 22.0352 5.38867 36.9883 23.0088 47.7793
c18.6152 11.4014 37.9072 21.8115 57.0049 32.3789c38.7881 21.4561 78.5752 46.9844 121.609 58.5928c15.2285 4.10645 34.1182 5.11426 48.1777 -3.54297c10.4395 -6.43457 15.7734 -17.3867 6.21387 -27.4629c-21.9932 -23.1875 -53.5547 -37.3828 -80.6836 -53.7539
c-14.8213 -8.94922 -29.584 -18.0088 -44.2744 -27.1787c-6.78613 -4.2334 -13.543 -8.51367 -20.3164 -12.7637c-0.211914 -0.135742 -0.491211 -0.322266 -0.795898 -0.529297c3.63672 -2.23535 7.48535 -4.30957 11.084 -5.93555
c6.95605 -3.14551 14.3223 -5.32617 21.7354 -6.87598c24.1396 -5.04199 49.3457 -2.48047 73.6631 -0.249023c18.5264 1.69727 53.1055 1.32031 62.2881 -20.1611z" />
    <glyph glyph-name="equal" unicode="=" horiz-adv-x="391" 
d="M108.603 163.254c-16.2822 -1.87988 -49.5625 -1.04492 -57.1621 18.501c-7.69629 19.7998 17.2734 29.8379 32.459 32.5811c62.7119 11.3379 126.516 17.8408 189.921 23.958c16.9385 1.63379 51.2051 1.30371 59.1553 -19.1445
c7.625 -19.6094 -17.5098 -32.2207 -33.5889 -33.7197c-63.7998 -5.95703 -127.154 -14.835 -190.784 -22.1758zM339.081 121.313c7.75586 -19.9531 -17.7305 -32.3018 -33.9111 -34.0459c-67.2373 -7.25586 -137.696 -15.4053 -205.382 -12.7422
c-14.4746 0.567383 -40.6084 4.4541 -44.3721 22.3281c-3.65332 17.3613 18.6621 26.332 32.3623 28.2539c63.0117 8.83496 128.103 10.5537 191.576 15.5322c17.1885 1.35059 51.6152 1.53711 59.7266 -19.3262z" />
    <glyph glyph-name="greater" unicode="&#x3e;" horiz-adv-x="384" 
d="M330.42 231.062c20.4355 -42.6787 -47.9883 -65.2412 -76.624 -74.1738c-42.4961 -13.2422 -85.9834 -22.7764 -127.934 -37.8691c-20.3164 -7.30664 -53.1729 -5.96875 -69.2812 10.3555c-16.7646 16.9893 1.88867 33.0771 18.167 39.4912
c35.0029 13.793 71.6699 21.5488 108.214 30.0752c14.5635 3.39941 29.25 6.48535 43.5635 10.8379c2.91309 0.884766 17.4424 4.14844 18.5303 7.88672c0.139648 0.474609 -9.68262 9.31445 -9.45801 9.12012c-45.2988 39.5791 -111.889 34.7314 -162.742 62.292
c-11.5791 6.27441 -15.5967 18.5352 -6.46875 28.5811c10.4141 11.4648 32.7842 13.3652 46.7256 10.8379c39.8037 -7.21777 82.1387 -19.7021 120.304 -33.2324c32.1836 -11.4092 81.1279 -31.0488 97.0039 -64.2021z" />
    <glyph glyph-name="question" unicode="?" horiz-adv-x="510" 
d="M457.375 502.598c12.1592 -100.487 -20.9473 -206.999 -51.7207 -301.428c-31.3535 -96.1865 -62.5889 -191.826 -70.2686 -293.376c-3.47559 -45.9297 -118.2 -44.2705 -115.631 0c5.52441 95.1484 38.123 185.967 71.0137 274.592
c28.7842 77.5674 60.5186 154.758 78.7568 235.716c9.38184 41.6455 17.7939 89.0059 6.19824 131.1c-8.89453 32.2891 -32.1533 66.8857 -67.9268 70.9834c-68.1348 7.80273 -138.513 -50.7217 -168.592 -107.02c-17.4121 -32.5938 -26.7559 -70.9668 -20.6045 -107.866
c4.36914 -26.2227 30.1006 -76.3604 63.7695 -71.5254c8.36523 1.20215 25.6504 0.37207 29.5371 -9.55957c3.9707 -10.1436 -8.90332 -15.541 -16.7695 -16.8369c-50.1211 -8.24316 -102.6 8.7373 -128.797 54.752c-25.0332 43.9658 -18.5518 99.9922 0.964844 144.656
c34.3174 78.5361 113.734 134.804 197.689 147.627c47.9785 7.32812 96.3467 -1.08398 134.343 -32.4541c35.4004 -29.2285 52.6562 -74.917 58.0371 -119.36zM275.185 -149.651c11.6377 0.295898 40.8145 -4.44043 44.3584 -19.2578
c4.67383 -19.5039 1.0791 -41.0146 0 -61.0186c-1.18555 -21.9893 -31.9805 -27.374 -48.7832 -27.8057c-11.0322 -0.279297 -24.8467 2.46387 -34.4951 8.14551c-5.97754 3.52246 -15.1943 11.4014 -14.2881 19.665c2.11719 19.3008 1.41895 42.9873 8.84473 61.0176
c6.35449 15.4355 30.0371 18.8896 44.3633 19.2539z" />
    <glyph glyph-name="at" unicode="@" horiz-adv-x="862" 
d="M731.996 573.019c124.246 -142.84 93.6328 -384.961 -22.7051 -523.766c-33.0889 -39.4824 -83.9717 -61.9375 -135.549 -55.9385c-50.4473 5.86328 -92.127 37.0605 -108.291 85.5684c-11.3965 34.2109 -13.8477 70.251 -11.8828 106.059
c-1.02441 -2.07031 -2.02734 -4.15332 -3.08105 -6.21094c-26.3027 -51.3613 -62.9951 -108.129 -127.718 -105.741c-41.1162 1.51953 -69.9258 27.8057 -75.2393 67.7744c-4.22461 31.7939 5.06348 65.2432 15.5537 95.0088c11.2354 31.8789 26.1201 62.4404 44.21 90.9912
c17.417 27.4922 37.6826 56.7373 67.0293 72.4102c26.46 14.123 65.1543 18.8008 90.4238 -0.525391c5.30859 -4.05957 10.0459 -9.28418 14.2832 -15.1436c6.35059 25.7148 61.0225 26.9639 71.8643 4.28027c43.2666 -90.5303 -14.9443 -196.005 16.1172 -289.862
c5.67676 -17.1582 14.0977 -34.2402 25.9893 -47.9443c11.3379 -13.0732 21.1221 -13.2295 36.541 -5.93066c42.9834 20.3418 72.1826 71.3896 92.0381 112.23c71.1572 146.35 63.3379 351.084 -79.8916 451.736c-138.348 97.2188 -321.258 28.1484 -415.628 -96.9316
c-97.6631 -129.437 -142.666 -324.548 -65.002 -473.814c31.6416 -60.8105 84.582 -115.923 149.698 -140.358c79.5312 -29.8467 159.943 -4.88574 234.81 26.4424c13.166 5.51172 34.5029 3.80566 45.9082 -5.22461c10.1436 -8.03516 9.32617 -20.5664 -2.78223 -26.6377
c-101.664 -50.9893 -225.321 -71.2256 -332.307 -24.4023c-86.7754 37.9746 -155.139 114.382 -185.451 204.022c-63.3721 187.402 24.1475 401.751 168.481 526.992c74.9463 65.0312 172.102 101.024 271.632 90.7539c83.1211 -8.57715 166.184 -52.877 220.948 -115.838z
M427.866 225.58c15.2285 33.4277 27.2676 68.1338 40.6875 102.281c-3.48438 1.41016 -6.25293 3.47656 -7.57812 6.22852c-5.90625 12.2773 -11.9561 24.123 -21.6377 33.7969c-0.503906 0.503906 -0.868164 0.87207 -1.20215 1.21875
c-3.25098 -2.65039 -5.95215 -7.12988 -8.30566 -10.1143c-17.2598 -21.8662 -30.9385 -47.9492 -42.6992 -73.126c-21.1807 -45.3369 -48.9609 -112.384 -28.2246 -161.798c0.177734 -0.423828 0.402344 -0.855469 0.630859 -1.28711
c11.5537 9.12793 21.7393 21.4268 30.1006 33.3652c15.1641 21.6416 27.293 45.4346 38.2285 69.4346z" />
    <glyph glyph-name="A" unicode="A" horiz-adv-x="793" 
d="M167.01 -33.2227c12.0566 39.3301 23.29 78.9023 34.2002 118.562c9.72461 35.3418 19.1904 70.7559 28.7324 106.148l-3.49219 -0.544922c-50.8232 -8.03125 -102.273 -14.6953 -153.682 -8.85352c-9.47461 1.0791 -24.9697 7.75586 -22.5059 19.6523
c2.53125 12.2227 20.6299 15.4951 30.8584 15.5293c53.4482 0.186523 106.871 7.18848 160.116 15.7275c7.91211 28.9658 15.9219 57.9023 24.3213 86.7285c20.4014 70.0352 42.8057 139.575 69.7734 207.384c24.1816 60.8018 50.4336 123.818 89.0605 177.085
c31.8447 43.9189 84.7891 92.4053 143.572 85.9453c65.7383 -7.22656 99.7129 -74.1035 115.157 -130.672c33.2119 -121.638 26.5146 -248.237 22.332 -373.495c6.3418 -2.85352 11.5791 -7.21875 12.8242 -13.3535c1.84961 -9.12793 -5.50781 -15.4697 -13.8145 -19.001
c-0.487305 -17.709 -0.855469 -35.3838 -0.973633 -53c-0.491211 -73.6426 3.61523 -147.441 15.668 -220.169c5.74023 -34.6299 12.1201 -69.3154 21.8867 -103.073c3.98828 -13.7715 8.27637 -28.585 16.4004 -40.583c2.92969 -4.32227 6.16406 -7.6748 10.2871 -10.6426
c0.330078 -0.237305 0.600586 -0.436523 0.854492 -0.626953c18.7373 1.79102 64.2861 -3.63184 43.4189 -28.1055c-26.6631 -31.2734 -80.3193 -24.4404 -113.129 -7.69629c-34.1855 17.4463 -53.1094 52.0176 -68.2822 85.6533
c-33.3262 73.8672 -44.2695 155.427 -46.5215 235.767c-1.18945 42.5303 -0.126953 84.9971 1.89258 127.438c-68.2998 -7.45117 -136.583 -14.9316 -204.705 -24.3809c-33.542 -4.65234 -67.0293 -9.64746 -100.491 -14.791
c-14.8047 -55.3955 -29.2959 -110.872 -44.7695 -166.086c-9.70312 -34.6221 -19.792 -69.1426 -30.6045 -103.435c-9.34375 -29.6309 -17.0615 -58.8379 -37.8232 -82.7871c-13.5518 -15.6299 -65.9922 -2.6709 -47.4658 15.8125
c27.2344 27.1709 35.9854 68.2324 46.9033 103.862zM769.712 -175.743c-0.507812 0.199219 -1.38867 0.65918 -2.1377 1.08301c-0.118164 -0.00390625 -0.241211 -0.0078125 -0.368164 -0.0166016c1.10938 -0.833984 1.98535 -1.0918 2.50586 -1.06641zM770.042 -175.678
c0.415039 0.199219 0.143555 0.724609 -1.10156 0.931641c0.614258 -0.46582 0.96582 -0.766602 1.10156 -0.931641zM767.459 -174.603c-0.634766 0.355469 -1.14746 0.667969 -1.22754 0.748047c0.317383 -0.304688 0.618164 -0.5625 0.910156 -0.782227
c0.101562 0.0126953 0.21582 0.0214844 0.317383 0.0341797zM765.994 -174.803c-0.614258 -0.0888672 -1.27441 -0.202148 -2.04492 -0.388672c0.59668 0.143555 1.2998 0.270508 2.04492 0.388672zM292.214 241.939
c-0.046875 -0.165039 -0.0869141 -0.330078 -0.128906 -0.491211c29.0039 4.91504 57.9443 9.80078 86.7871 13.793c69.5566 9.63574 139.419 18.9668 209.399 26.2861c5.63867 93.8369 14.1055 187.593 12.124 281.658
c-0.766602 36.4297 -1.65137 73.3037 -5.46973 109.556c-2.69629 25.6299 -8.1875 66.2764 -28.5977 84.832c-20.8672 18.9746 -64.4385 -24.2793 -78.3545 -39.2744c-20.9141 -22.5352 -36.9971 -49.0625 -51.3193 -76.1279
c-66.458 -125.597 -107.282 -263.708 -144.44 -400.231z" />
    <glyph glyph-name="A" unicode="&#xc5;" horiz-adv-x="793" 
d="M167.01 -33.2227c12.0566 39.3301 23.29 78.9023 34.2002 118.562c9.72461 35.3418 19.1904 70.7559 28.7324 106.148l-3.49219 -0.544922c-50.8232 -8.03125 -102.273 -14.6953 -153.682 -8.85352c-9.47461 1.0791 -24.9697 7.75586 -22.5059 19.6523
c2.53125 12.2227 20.6299 15.4951 30.8584 15.5293c53.4482 0.186523 106.871 7.18848 160.116 15.7275c7.91211 28.9658 15.9219 57.9023 24.3213 86.7285c20.4014 70.0352 42.8057 139.575 69.7734 207.384c24.1816 60.8018 50.4336 123.818 89.0605 177.085
c31.8447 43.9189 84.7891 92.4053 143.572 85.9453c65.7383 -7.22656 99.7129 -74.1035 115.157 -130.672c33.2119 -121.638 26.5146 -248.237 22.332 -373.495c6.3418 -2.85352 11.5791 -7.21875 12.8242 -13.3535c1.84961 -9.12793 -5.50781 -15.4697 -13.8145 -19.001
c-0.487305 -17.709 -0.855469 -35.3838 -0.973633 -53c-0.491211 -73.6426 3.61523 -147.441 15.668 -220.169c5.74023 -34.6299 12.1201 -69.3154 21.8867 -103.073c3.98828 -13.7715 8.27637 -28.585 16.4004 -40.583c2.92969 -4.32227 6.16406 -7.6748 10.2871 -10.6426
c0.330078 -0.237305 0.600586 -0.436523 0.854492 -0.626953c18.7373 1.79102 64.2861 -3.63184 43.4189 -28.1055c-26.6631 -31.2734 -80.3193 -24.4404 -113.129 -7.69629c-34.1855 17.4463 -53.1094 52.0176 -68.2822 85.6533
c-33.3262 73.8672 -44.2695 155.427 -46.5215 235.767c-1.18945 42.5303 -0.126953 84.9971 1.89258 127.438c-68.2998 -7.45117 -136.583 -14.9316 -204.705 -24.3809c-33.542 -4.65234 -67.0293 -9.64746 -100.491 -14.791
c-14.8047 -55.3955 -29.2959 -110.872 -44.7695 -166.086c-9.70312 -34.6221 -19.792 -69.1426 -30.6045 -103.435c-9.34375 -29.6309 -17.0615 -58.8379 -37.8232 -82.7871c-13.5518 -15.6299 -65.9922 -2.6709 -47.4658 15.8125
c27.2344 27.1709 35.9854 68.2324 46.9033 103.862zM769.712 -175.743c-0.507812 0.199219 -1.38867 0.65918 -2.1377 1.08301c-0.118164 -0.00390625 -0.241211 -0.0078125 -0.368164 -0.0166016c1.10938 -0.833984 1.98535 -1.0918 2.50586 -1.06641zM770.042 -175.678
c0.415039 0.199219 0.143555 0.724609 -1.10156 0.931641c0.614258 -0.46582 0.96582 -0.766602 1.10156 -0.931641zM767.459 -174.603c-0.634766 0.355469 -1.14746 0.667969 -1.22754 0.748047c0.317383 -0.304688 0.618164 -0.5625 0.910156 -0.782227
c0.101562 0.0126953 0.21582 0.0214844 0.317383 0.0341797zM765.994 -174.803c-0.614258 -0.0888672 -1.27441 -0.202148 -2.04492 -0.388672c0.59668 0.143555 1.2998 0.270508 2.04492 0.388672zM292.214 241.939
c-0.046875 -0.165039 -0.0869141 -0.330078 -0.128906 -0.491211c29.0039 4.91504 57.9443 9.80078 86.7871 13.793c69.5566 9.63574 139.419 18.9668 209.399 26.2861c5.63867 93.8369 14.1055 187.593 12.124 281.658
c-0.766602 36.4297 -1.65137 73.3037 -5.46973 109.556c-2.69629 25.6299 -8.1875 66.2764 -28.5977 84.832c-20.8672 18.9746 -64.4385 -24.2793 -78.3545 -39.2744c-20.9141 -22.5352 -36.9971 -49.0625 -51.3193 -76.1279
c-66.458 -125.597 -107.282 -263.708 -144.44 -400.231z" />
    <glyph glyph-name="A" unicode="&#xc4;" horiz-adv-x="793" 
d="M167.01 -33.2227c12.0566 39.3301 23.29 78.9023 34.2002 118.562c9.72461 35.3418 19.1904 70.7559 28.7324 106.148l-3.49219 -0.544922c-50.8232 -8.03125 -102.273 -14.6953 -153.682 -8.85352c-9.47461 1.0791 -24.9697 7.75586 -22.5059 19.6523
c2.53125 12.2227 20.6299 15.4951 30.8584 15.5293c53.4482 0.186523 106.871 7.18848 160.116 15.7275c7.91211 28.9658 15.9219 57.9023 24.3213 86.7285c20.4014 70.0352 42.8057 139.575 69.7734 207.384c24.1816 60.8018 50.4336 123.818 89.0605 177.085
c31.8447 43.9189 84.7891 92.4053 143.572 85.9453c65.7383 -7.22656 99.7129 -74.1035 115.157 -130.672c33.2119 -121.638 26.5146 -248.237 22.332 -373.495c6.3418 -2.85352 11.5791 -7.21875 12.8242 -13.3535c1.84961 -9.12793 -5.50781 -15.4697 -13.8145 -19.001
c-0.487305 -17.709 -0.855469 -35.3838 -0.973633 -53c-0.491211 -73.6426 3.61523 -147.441 15.668 -220.169c5.74023 -34.6299 12.1201 -69.3154 21.8867 -103.073c3.98828 -13.7715 8.27637 -28.585 16.4004 -40.583c2.92969 -4.32227 6.16406 -7.6748 10.2871 -10.6426
c0.330078 -0.237305 0.600586 -0.436523 0.854492 -0.626953c18.7373 1.79102 64.2861 -3.63184 43.4189 -28.1055c-26.6631 -31.2734 -80.3193 -24.4404 -113.129 -7.69629c-34.1855 17.4463 -53.1094 52.0176 -68.2822 85.6533
c-33.3262 73.8672 -44.2695 155.427 -46.5215 235.767c-1.18945 42.5303 -0.126953 84.9971 1.89258 127.438c-68.2998 -7.45117 -136.583 -14.9316 -204.705 -24.3809c-33.542 -4.65234 -67.0293 -9.64746 -100.491 -14.791
c-14.8047 -55.3955 -29.2959 -110.872 -44.7695 -166.086c-9.70312 -34.6221 -19.792 -69.1426 -30.6045 -103.435c-9.34375 -29.6309 -17.0615 -58.8379 -37.8232 -82.7871c-13.5518 -15.6299 -65.9922 -2.6709 -47.4658 15.8125
c27.2344 27.1709 35.9854 68.2324 46.9033 103.862zM769.712 -175.743c-0.507812 0.199219 -1.38867 0.65918 -2.1377 1.08301c-0.118164 -0.00390625 -0.241211 -0.0078125 -0.368164 -0.0166016c1.10938 -0.833984 1.98535 -1.0918 2.50586 -1.06641zM770.042 -175.678
c0.415039 0.199219 0.143555 0.724609 -1.10156 0.931641c0.614258 -0.46582 0.96582 -0.766602 1.10156 -0.931641zM767.459 -174.603c-0.634766 0.355469 -1.14746 0.667969 -1.22754 0.748047c0.317383 -0.304688 0.618164 -0.5625 0.910156 -0.782227
c0.101562 0.0126953 0.21582 0.0214844 0.317383 0.0341797zM765.994 -174.803c-0.614258 -0.0888672 -1.27441 -0.202148 -2.04492 -0.388672c0.59668 0.143555 1.2998 0.270508 2.04492 0.388672zM292.214 241.939
c-0.046875 -0.165039 -0.0869141 -0.330078 -0.128906 -0.491211c29.0039 4.91504 57.9443 9.80078 86.7871 13.793c69.5566 9.63574 139.419 18.9668 209.399 26.2861c5.63867 93.8369 14.1055 187.593 12.124 281.658
c-0.766602 36.4297 -1.65137 73.3037 -5.46973 109.556c-2.69629 25.6299 -8.1875 66.2764 -28.5977 84.832c-20.8672 18.9746 -64.4385 -24.2793 -78.3545 -39.2744c-20.9141 -22.5352 -36.9971 -49.0625 -51.3193 -76.1279
c-66.458 -125.597 -107.282 -263.708 -144.44 -400.231z" />
    <glyph glyph-name="A" unicode="&#xc3;" horiz-adv-x="793" 
d="M167.01 -33.2227c12.0566 39.3301 23.29 78.9023 34.2002 118.562c9.72461 35.3418 19.1904 70.7559 28.7324 106.148l-3.49219 -0.544922c-50.8232 -8.03125 -102.273 -14.6953 -153.682 -8.85352c-9.47461 1.0791 -24.9697 7.75586 -22.5059 19.6523
c2.53125 12.2227 20.6299 15.4951 30.8584 15.5293c53.4482 0.186523 106.871 7.18848 160.116 15.7275c7.91211 28.9658 15.9219 57.9023 24.3213 86.7285c20.4014 70.0352 42.8057 139.575 69.7734 207.384c24.1816 60.8018 50.4336 123.818 89.0605 177.085
c31.8447 43.9189 84.7891 92.4053 143.572 85.9453c65.7383 -7.22656 99.7129 -74.1035 115.157 -130.672c33.2119 -121.638 26.5146 -248.237 22.332 -373.495c6.3418 -2.85352 11.5791 -7.21875 12.8242 -13.3535c1.84961 -9.12793 -5.50781 -15.4697 -13.8145 -19.001
c-0.487305 -17.709 -0.855469 -35.3838 -0.973633 -53c-0.491211 -73.6426 3.61523 -147.441 15.668 -220.169c5.74023 -34.6299 12.1201 -69.3154 21.8867 -103.073c3.98828 -13.7715 8.27637 -28.585 16.4004 -40.583c2.92969 -4.32227 6.16406 -7.6748 10.2871 -10.6426
c0.330078 -0.237305 0.600586 -0.436523 0.854492 -0.626953c18.7373 1.79102 64.2861 -3.63184 43.4189 -28.1055c-26.6631 -31.2734 -80.3193 -24.4404 -113.129 -7.69629c-34.1855 17.4463 -53.1094 52.0176 -68.2822 85.6533
c-33.3262 73.8672 -44.2695 155.427 -46.5215 235.767c-1.18945 42.5303 -0.126953 84.9971 1.89258 127.438c-68.2998 -7.45117 -136.583 -14.9316 -204.705 -24.3809c-33.542 -4.65234 -67.0293 -9.64746 -100.491 -14.791
c-14.8047 -55.3955 -29.2959 -110.872 -44.7695 -166.086c-9.70312 -34.6221 -19.792 -69.1426 -30.6045 -103.435c-9.34375 -29.6309 -17.0615 -58.8379 -37.8232 -82.7871c-13.5518 -15.6299 -65.9922 -2.6709 -47.4658 15.8125
c27.2344 27.1709 35.9854 68.2324 46.9033 103.862zM769.712 -175.743c-0.507812 0.199219 -1.38867 0.65918 -2.1377 1.08301c-0.118164 -0.00390625 -0.241211 -0.0078125 -0.368164 -0.0166016c1.10938 -0.833984 1.98535 -1.0918 2.50586 -1.06641zM770.042 -175.678
c0.415039 0.199219 0.143555 0.724609 -1.10156 0.931641c0.614258 -0.46582 0.96582 -0.766602 1.10156 -0.931641zM767.459 -174.603c-0.634766 0.355469 -1.14746 0.667969 -1.22754 0.748047c0.317383 -0.304688 0.618164 -0.5625 0.910156 -0.782227
c0.101562 0.0126953 0.21582 0.0214844 0.317383 0.0341797zM765.994 -174.803c-0.614258 -0.0888672 -1.27441 -0.202148 -2.04492 -0.388672c0.59668 0.143555 1.2998 0.270508 2.04492 0.388672zM292.214 241.939
c-0.046875 -0.165039 -0.0869141 -0.330078 -0.128906 -0.491211c29.0039 4.91504 57.9443 9.80078 86.7871 13.793c69.5566 9.63574 139.419 18.9668 209.399 26.2861c5.63867 93.8369 14.1055 187.593 12.124 281.658
c-0.766602 36.4297 -1.65137 73.3037 -5.46973 109.556c-2.69629 25.6299 -8.1875 66.2764 -28.5977 84.832c-20.8672 18.9746 -64.4385 -24.2793 -78.3545 -39.2744c-20.9141 -22.5352 -36.9971 -49.0625 -51.3193 -76.1279
c-66.458 -125.597 -107.282 -263.708 -144.44 -400.231z" />
    <glyph glyph-name="A" unicode="&#xc2;" horiz-adv-x="793" 
d="M167.01 -33.2227c12.0566 39.3301 23.29 78.9023 34.2002 118.562c9.72461 35.3418 19.1904 70.7559 28.7324 106.148l-3.49219 -0.544922c-50.8232 -8.03125 -102.273 -14.6953 -153.682 -8.85352c-9.47461 1.0791 -24.9697 7.75586 -22.5059 19.6523
c2.53125 12.2227 20.6299 15.4951 30.8584 15.5293c53.4482 0.186523 106.871 7.18848 160.116 15.7275c7.91211 28.9658 15.9219 57.9023 24.3213 86.7285c20.4014 70.0352 42.8057 139.575 69.7734 207.384c24.1816 60.8018 50.4336 123.818 89.0605 177.085
c31.8447 43.9189 84.7891 92.4053 143.572 85.9453c65.7383 -7.22656 99.7129 -74.1035 115.157 -130.672c33.2119 -121.638 26.5146 -248.237 22.332 -373.495c6.3418 -2.85352 11.5791 -7.21875 12.8242 -13.3535c1.84961 -9.12793 -5.50781 -15.4697 -13.8145 -19.001
c-0.487305 -17.709 -0.855469 -35.3838 -0.973633 -53c-0.491211 -73.6426 3.61523 -147.441 15.668 -220.169c5.74023 -34.6299 12.1201 -69.3154 21.8867 -103.073c3.98828 -13.7715 8.27637 -28.585 16.4004 -40.583c2.92969 -4.32227 6.16406 -7.6748 10.2871 -10.6426
c0.330078 -0.237305 0.600586 -0.436523 0.854492 -0.626953c18.7373 1.79102 64.2861 -3.63184 43.4189 -28.1055c-26.6631 -31.2734 -80.3193 -24.4404 -113.129 -7.69629c-34.1855 17.4463 -53.1094 52.0176 -68.2822 85.6533
c-33.3262 73.8672 -44.2695 155.427 -46.5215 235.767c-1.18945 42.5303 -0.126953 84.9971 1.89258 127.438c-68.2998 -7.45117 -136.583 -14.9316 -204.705 -24.3809c-33.542 -4.65234 -67.0293 -9.64746 -100.491 -14.791
c-14.8047 -55.3955 -29.2959 -110.872 -44.7695 -166.086c-9.70312 -34.6221 -19.792 -69.1426 -30.6045 -103.435c-9.34375 -29.6309 -17.0615 -58.8379 -37.8232 -82.7871c-13.5518 -15.6299 -65.9922 -2.6709 -47.4658 15.8125
c27.2344 27.1709 35.9854 68.2324 46.9033 103.862zM769.712 -175.743c-0.507812 0.199219 -1.38867 0.65918 -2.1377 1.08301c-0.118164 -0.00390625 -0.241211 -0.0078125 -0.368164 -0.0166016c1.10938 -0.833984 1.98535 -1.0918 2.50586 -1.06641zM770.042 -175.678
c0.415039 0.199219 0.143555 0.724609 -1.10156 0.931641c0.614258 -0.46582 0.96582 -0.766602 1.10156 -0.931641zM767.459 -174.603c-0.634766 0.355469 -1.14746 0.667969 -1.22754 0.748047c0.317383 -0.304688 0.618164 -0.5625 0.910156 -0.782227
c0.101562 0.0126953 0.21582 0.0214844 0.317383 0.0341797zM765.994 -174.803c-0.614258 -0.0888672 -1.27441 -0.202148 -2.04492 -0.388672c0.59668 0.143555 1.2998 0.270508 2.04492 0.388672zM292.214 241.939
c-0.046875 -0.165039 -0.0869141 -0.330078 -0.128906 -0.491211c29.0039 4.91504 57.9443 9.80078 86.7871 13.793c69.5566 9.63574 139.419 18.9668 209.399 26.2861c5.63867 93.8369 14.1055 187.593 12.124 281.658
c-0.766602 36.4297 -1.65137 73.3037 -5.46973 109.556c-2.69629 25.6299 -8.1875 66.2764 -28.5977 84.832c-20.8672 18.9746 -64.4385 -24.2793 -78.3545 -39.2744c-20.9141 -22.5352 -36.9971 -49.0625 -51.3193 -76.1279
c-66.458 -125.597 -107.282 -263.708 -144.44 -400.231z" />
    <glyph glyph-name="A" unicode="&#xc1;" horiz-adv-x="793" 
d="M167.01 -33.2227c12.0566 39.3301 23.29 78.9023 34.2002 118.562c9.72461 35.3418 19.1904 70.7559 28.7324 106.148l-3.49219 -0.544922c-50.8232 -8.03125 -102.273 -14.6953 -153.682 -8.85352c-9.47461 1.0791 -24.9697 7.75586 -22.5059 19.6523
c2.53125 12.2227 20.6299 15.4951 30.8584 15.5293c53.4482 0.186523 106.871 7.18848 160.116 15.7275c7.91211 28.9658 15.9219 57.9023 24.3213 86.7285c20.4014 70.0352 42.8057 139.575 69.7734 207.384c24.1816 60.8018 50.4336 123.818 89.0605 177.085
c31.8447 43.9189 84.7891 92.4053 143.572 85.9453c65.7383 -7.22656 99.7129 -74.1035 115.157 -130.672c33.2119 -121.638 26.5146 -248.237 22.332 -373.495c6.3418 -2.85352 11.5791 -7.21875 12.8242 -13.3535c1.84961 -9.12793 -5.50781 -15.4697 -13.8145 -19.001
c-0.487305 -17.709 -0.855469 -35.3838 -0.973633 -53c-0.491211 -73.6426 3.61523 -147.441 15.668 -220.169c5.74023 -34.6299 12.1201 -69.3154 21.8867 -103.073c3.98828 -13.7715 8.27637 -28.585 16.4004 -40.583c2.92969 -4.32227 6.16406 -7.6748 10.2871 -10.6426
c0.330078 -0.237305 0.600586 -0.436523 0.854492 -0.626953c18.7373 1.79102 64.2861 -3.63184 43.4189 -28.1055c-26.6631 -31.2734 -80.3193 -24.4404 -113.129 -7.69629c-34.1855 17.4463 -53.1094 52.0176 -68.2822 85.6533
c-33.3262 73.8672 -44.2695 155.427 -46.5215 235.767c-1.18945 42.5303 -0.126953 84.9971 1.89258 127.438c-68.2998 -7.45117 -136.583 -14.9316 -204.705 -24.3809c-33.542 -4.65234 -67.0293 -9.64746 -100.491 -14.791
c-14.8047 -55.3955 -29.2959 -110.872 -44.7695 -166.086c-9.70312 -34.6221 -19.792 -69.1426 -30.6045 -103.435c-9.34375 -29.6309 -17.0615 -58.8379 -37.8232 -82.7871c-13.5518 -15.6299 -65.9922 -2.6709 -47.4658 15.8125
c27.2344 27.1709 35.9854 68.2324 46.9033 103.862zM769.712 -175.743c-0.507812 0.199219 -1.38867 0.65918 -2.1377 1.08301c-0.118164 -0.00390625 -0.241211 -0.0078125 -0.368164 -0.0166016c1.10938 -0.833984 1.98535 -1.0918 2.50586 -1.06641zM770.042 -175.678
c0.415039 0.199219 0.143555 0.724609 -1.10156 0.931641c0.614258 -0.46582 0.96582 -0.766602 1.10156 -0.931641zM767.459 -174.603c-0.634766 0.355469 -1.14746 0.667969 -1.22754 0.748047c0.317383 -0.304688 0.618164 -0.5625 0.910156 -0.782227
c0.101562 0.0126953 0.21582 0.0214844 0.317383 0.0341797zM765.994 -174.803c-0.614258 -0.0888672 -1.27441 -0.202148 -2.04492 -0.388672c0.59668 0.143555 1.2998 0.270508 2.04492 0.388672zM292.214 241.939
c-0.046875 -0.165039 -0.0869141 -0.330078 -0.128906 -0.491211c29.0039 4.91504 57.9443 9.80078 86.7871 13.793c69.5566 9.63574 139.419 18.9668 209.399 26.2861c5.63867 93.8369 14.1055 187.593 12.124 281.658
c-0.766602 36.4297 -1.65137 73.3037 -5.46973 109.556c-2.69629 25.6299 -8.1875 66.2764 -28.5977 84.832c-20.8672 18.9746 -64.4385 -24.2793 -78.3545 -39.2744c-20.9141 -22.5352 -36.9971 -49.0625 -51.3193 -76.1279
c-66.458 -125.597 -107.282 -263.708 -144.44 -400.231z" />
    <glyph glyph-name="B" unicode="B" horiz-adv-x="834" 
d="M97.2822 648.788c29.4404 33.5674 65.1133 62.0732 102.91 85.7051c70.1924 43.8809 151.21 69.8281 233.684 75.8018c80.3018 5.82129 180.882 -4.4873 222.235 -84.2217c42.3818 -81.7197 -35.3799 -167.982 -92.7871 -218.184
c-25.3418 -22.1621 -52.2041 -42.6992 -80.1582 -61.7119c66.4746 -4.46191 135.181 -18.2422 191.682 -54.8457c110.872 -71.8223 136.76 -213.629 78.3789 -328.455c-60.3105 -118.615 -183.93 -204.142 -312.748 -231.017
c-97.0078 -20.2363 -300.383 -4.05957 -271.176 142.938c9.71973 48.9189 37.3008 95.1152 68.5527 135.164c-6.70996 27.4248 -9.59766 56.6914 -13.5352 83.5449c-5.96094 40.6719 -9.4873 81.4238 -11.1299 122.489c-3.26855 81.8389 0.210938 163.957 10.8369 245.178
c4.75879 36.3574 94.9971 33.4277 90.624 0c-5.8125 -44.4141 -9.86426 -88.9717 -12.0234 -133.631c15.0713 5.67676 30.6758 9.92676 46.5977 13.0254c52.3896 24.0342 101.808 54.1055 148.051 89.3242c50.3027 38.3135 134.397 109.306 108.035 182.368
c-24.6777 68.3975 -123.345 67.6309 -182.183 60.5566c-65.7295 -7.9043 -128.5 -31.3242 -184.222 -66.9326c-28.2295 -18.0391 -53.8555 -39.4102 -77.4873 -63.1133c-7.97168 -8.00098 -67.0342 -66.208 -54.9053 -76.8086
c19.4111 -16.9639 -29.6768 -26.9424 -42.0771 -18.5049c-39.4902 26.8662 12.3457 77.957 32.8447 101.33zM460.482 385.493c-33.1484 1.0918 -65.8848 1.37207 -96.5527 -8.53906c-11.1172 -5.49902 -22.3066 -10.8203 -33.5596 -15.9346
c-9.38574 -4.2627 -19.3896 -7.12891 -29.5205 -8.2334c0.0253906 -10.8975 0.15625 -21.7949 0.439453 -32.6963c1.02832 -39.5078 3.59766 -79.0664 6.9209 -118.447c0.431641 -5.11426 0.995117 -10.2666 1.63867 -15.4482
c29.415 25.2783 61.7725 47.1699 96.0264 65.2383c14.2666 7.52344 36.2598 8.9541 50.3281 0c11.998 -7.63281 13.6953 -21.4258 0 -28.6865c-51.3867 -27.2471 -96.7402 -63.207 -134.791 -107.244c-0.541992 -0.62207 -1.08789 -1.28223 -1.62988 -1.91309
c1.0332 -11.2275 1.53711 -22.374 1.0332 -33.335c-0.753906 -16.4385 -22.5479 -22.8438 -42.0518 -20.7988c-20.6299 -31.8105 -36.8955 -67.1523 -38.623 -102.108c-5.70703 -115.491 153.732 -94.6074 220.91 -66.4375c93.3027 39.1309 173.367 122.714 203.43 219.869
c28.3389 91.5889 4.70312 200.349 -84.9678 247.434c-37.7461 19.8213 -81.2969 26.0361 -119.03 27.2812z" />
    <glyph glyph-name="C" unicode="C" horiz-adv-x="703" 
d="M72.1055 46.5537c-40.3799 143.58 -20.9932 298.952 22.3838 439.688c39.9473 129.58 118.594 278.08 252.327 330.11c66.8057 25.9941 159.063 17.3574 176.756 -64.1514c15.5244 -71.5303 1.96875 -152.247 -17.3535 -221.656
c-7.56934 -27.1875 -84.2812 -21.4678 -75.332 11.8379c10.0928 37.5596 16.0195 76.0811 17.8232 114.933c1.48633 31.9336 3.97559 69.7607 -8.36914 99.9922c-2.37109 5.80371 -5.14844 11.7012 -9.33105 16.4004c-1.89258 2.12988 -9.00098 6.8457 -6.62988 6.37598
c-9.64844 1.90039 -24.2207 -8.1582 -31.8877 -12.9629c-25.9854 -16.291 -46.3779 -41.8447 -66.1523 -64.875c-74.29 -86.5293 -120.229 -197.96 -144.664 -308.447c-26.7773 -121.059 -42.751 -258.556 -4.03516 -378.793
c14.7754 -45.8828 44.0459 -111.812 101.105 -113.645c57.7832 -1.8584 112.582 51.002 151.755 87.8125c84.2598 79.1797 146.434 179.312 181.364 289.426c4.62695 14.5889 45.9082 11.2441 40.502 -6.36719c-43.9912 -143.318 -136.028 -274.122 -259.99 -359.449
c-59.9854 -41.29 -128.539 -63.7363 -198.291 -31.3154c-66.6865 30.998 -102.866 97.1172 -121.98 165.087z" />
    <glyph glyph-name="D" unicode="D" horiz-adv-x="889" 
d="M139.479 118.329c23.6396 33.0889 52.0186 61.2627 83.6562 85.1904c-18.3438 114.683 -21.3076 236.893 3.90723 350.292c4.63184 20.8125 27.9883 26.8838 47.166 26.8838c13.8145 0 49.5117 -6.2998 47.166 -26.8828
c-7.02344 -61.6025 -14.5342 -122.633 -14.7334 -184.765c-0.118164 -37.5518 1.5625 -75.1494 4.93652 -112.582c14.6016 6.8877 29.5166 13.2041 44.6768 18.9316c15.9219 6.01562 45.2861 5.2666 57.5596 -8.60254
c12.4385 -14.0508 -0.143555 -28.1572 -15.0918 -32.8096c-27.3652 -8.51758 -54.6543 -21.2559 -80.2588 -37.2676c0.583984 -4.17383 1.13477 -8.34766 1.75684 -12.5088c3.06055 -20.3975 -34.3086 -26.752 -46.9326 -26.752c-2.02344 0 -4.14062 0.0888672 -6.2959 0.25
c-25.4561 -23.2549 -47.1738 -50.0615 -62.5293 -79.3623c-19.4316 -37.0859 -27.1074 -80.9238 -8.78906 -120.105c13.124 -28.0723 39.6514 -46.0391 68.6387 -48.5322c59.5576 -5.12305 125.961 26.6924 176.967 58.8457c59.7988 37.6953 110.774 86.584 155.6 141.002
c95.8428 116.359 170.239 271.252 150.312 425.222c-9.34375 72.1992 -41.5693 140.33 -97.3672 187.982c-53.0078 45.2734 -126.701 67.2119 -195.683 66.8223c-74.9297 -0.423828 -147.51 -27.4971 -210.166 -67.377
c-57.0977 -36.3408 -141.841 -98.3076 -133.521 -175.074c2.43848 -22.4805 -56.5938 -23.5938 -59.5996 0c-6.40527 50.2695 24.207 94.1377 58.3887 127.786c34.8887 34.3428 75.2891 64.1895 118.099 87.8887c85.2295 47.1826 183.168 69.9756 280.336 58.4219
c82.5586 -9.81738 163.437 -45.8789 223.435 -103.912c63.4062 -61.3311 98.5234 -146.51 106.466 -233.585c16.0957 -176.521 -85.0771 -357.149 -209.103 -476.129c-62.4658 -59.9258 -137.082 -108.044 -220.246 -133.454
c-80.0137 -24.4482 -182.312 -36.3193 -254.41 15.8887c-76.6445 55.502 -63.7998 159.05 -14.3389 228.294z" />
    <glyph glyph-name="E" unicode="E" horiz-adv-x="784" 
d="M222.741 162.308c30.2998 37.3105 66.6123 68.8799 105.188 97.3291c-14.7119 -0.62207 -29.3809 -0.707031 -43.9404 -0.237305c-69.4297 2.24414 -147.001 18.6914 -195.538 72.707c-87.1348 96.9648 -9.4873 233.344 67.792 309.294
c85.1748 83.71 204.065 143.623 323.549 154.317c64.2227 5.74512 137.243 2.35449 192.834 -34.1299c48.4951 -31.8281 73.0322 -84.2686 55.0273 -140.854c-16.7607 -52.6826 -62.458 -99.0488 -103.282 -134.509c-44.6465 -38.7832 -94.8135 -69.3408 -149.498 -91.6943
c-15.9727 -6.53223 -40.3623 -4.33887 -54.2695 6.17773c-11.9385 9.03027 -11.1641 24.876 3.28906 31.4883c47.2588 21.625 91.3848 48.707 129.838 83.833c35.2607 32.2129 76.4658 73.7314 88.2773 121.634c10.707 43.4277 -16.4727 83.6758 -56.9326 98.4043
c-40.625 14.792 -89.7002 9.79199 -130.838 -0.246094c-87.4814 -21.3496 -167.914 -75.6787 -224.812 -144.931c-50.3281 -61.251 -106.858 -177.284 -27.2002 -238.641c33.0254 -25.4355 73.0576 -25.8926 112.205 -24.2285
c48.4355 2.05762 97.4639 10.8086 144.621 22.3193c23.1191 5.64746 50.7344 7.16699 70.8779 -8.06543c16.1133 -12.1846 14.0088 -31.8369 -4.29688 -41.1211c-22.3359 -11.3291 -46.332 -16.8076 -68.1943 -29.5459
c-18.8516 -10.9814 -37.1191 -23.293 -54.9463 -35.8584c-33.9619 -23.9365 -65.8955 -51.3447 -93.6758 -82.292c-24.2285 -26.9932 -55.8828 -64.0283 -61.666 -101c-5.49121 -35.1084 16.0869 -69.0273 46.2852 -85.4531
c32.1279 -17.4717 73.2021 -18.623 108.878 -16.417c38.8262 2.39648 76.9785 11.8457 113.107 26.0488c63.8545 25.1045 161.869 76.0723 146.95 159.481c-7.48047 41.8145 -50.6367 60.4297 -88.8652 64.3457c-39.2871 4.02148 -77.4355 -8.04395 -109.661 -30.126
c-13.209 -9.05176 -52.0557 2.77246 -31.0107 17.6748c44.1943 31.2939 99.2773 43.8379 152.887 37.7031c46.04 -5.27051 103.6 -25.9814 119.552 -74.2861c30.5029 -92.3633 -76.1992 -169.427 -147.331 -202.355c-91.665 -42.4375 -214.201 -63.749 -309.485 -20.8213
c-41.4209 18.6611 -77.165 53.3467 -84.5908 99.7969c-7.9502 49.7607 29.3984 97.9551 58.877 134.258z" />
    <glyph glyph-name="E" unicode="&#xcb;" horiz-adv-x="784" 
d="M222.741 162.308c30.2998 37.3105 66.6123 68.8799 105.188 97.3291c-14.7119 -0.62207 -29.3809 -0.707031 -43.9404 -0.237305c-69.4297 2.24414 -147.001 18.6914 -195.538 72.707c-87.1348 96.9648 -9.4873 233.344 67.792 309.294
c85.1748 83.71 204.065 143.623 323.549 154.317c64.2227 5.74512 137.243 2.35449 192.834 -34.1299c48.4951 -31.8281 73.0322 -84.2686 55.0273 -140.854c-16.7607 -52.6826 -62.458 -99.0488 -103.282 -134.509c-44.6465 -38.7832 -94.8135 -69.3408 -149.498 -91.6943
c-15.9727 -6.53223 -40.3623 -4.33887 -54.2695 6.17773c-11.9385 9.03027 -11.1641 24.876 3.28906 31.4883c47.2588 21.625 91.3848 48.707 129.838 83.833c35.2607 32.2129 76.4658 73.7314 88.2773 121.634c10.707 43.4277 -16.4727 83.6758 -56.9326 98.4043
c-40.625 14.792 -89.7002 9.79199 -130.838 -0.246094c-87.4814 -21.3496 -167.914 -75.6787 -224.812 -144.931c-50.3281 -61.251 -106.858 -177.284 -27.2002 -238.641c33.0254 -25.4355 73.0576 -25.8926 112.205 -24.2285
c48.4355 2.05762 97.4639 10.8086 144.621 22.3193c23.1191 5.64746 50.7344 7.16699 70.8779 -8.06543c16.1133 -12.1846 14.0088 -31.8369 -4.29688 -41.1211c-22.3359 -11.3291 -46.332 -16.8076 -68.1943 -29.5459
c-18.8516 -10.9814 -37.1191 -23.293 -54.9463 -35.8584c-33.9619 -23.9365 -65.8955 -51.3447 -93.6758 -82.292c-24.2285 -26.9932 -55.8828 -64.0283 -61.666 -101c-5.49121 -35.1084 16.0869 -69.0273 46.2852 -85.4531
c32.1279 -17.4717 73.2021 -18.623 108.878 -16.417c38.8262 2.39648 76.9785 11.8457 113.107 26.0488c63.8545 25.1045 161.869 76.0723 146.95 159.481c-7.48047 41.8145 -50.6367 60.4297 -88.8652 64.3457c-39.2871 4.02148 -77.4355 -8.04395 -109.661 -30.126
c-13.209 -9.05176 -52.0557 2.77246 -31.0107 17.6748c44.1943 31.2939 99.2773 43.8379 152.887 37.7031c46.04 -5.27051 103.6 -25.9814 119.552 -74.2861c30.5029 -92.3633 -76.1992 -169.427 -147.331 -202.355c-91.665 -42.4375 -214.201 -63.749 -309.485 -20.8213
c-41.4209 18.6611 -77.165 53.3467 -84.5908 99.7969c-7.9502 49.7607 29.3984 97.9551 58.877 134.258z" />
    <glyph glyph-name="E" unicode="&#xca;" horiz-adv-x="784" 
d="M222.741 162.308c30.2998 37.3105 66.6123 68.8799 105.188 97.3291c-14.7119 -0.62207 -29.3809 -0.707031 -43.9404 -0.237305c-69.4297 2.24414 -147.001 18.6914 -195.538 72.707c-87.1348 96.9648 -9.4873 233.344 67.792 309.294
c85.1748 83.71 204.065 143.623 323.549 154.317c64.2227 5.74512 137.243 2.35449 192.834 -34.1299c48.4951 -31.8281 73.0322 -84.2686 55.0273 -140.854c-16.7607 -52.6826 -62.458 -99.0488 -103.282 -134.509c-44.6465 -38.7832 -94.8135 -69.3408 -149.498 -91.6943
c-15.9727 -6.53223 -40.3623 -4.33887 -54.2695 6.17773c-11.9385 9.03027 -11.1641 24.876 3.28906 31.4883c47.2588 21.625 91.3848 48.707 129.838 83.833c35.2607 32.2129 76.4658 73.7314 88.2773 121.634c10.707 43.4277 -16.4727 83.6758 -56.9326 98.4043
c-40.625 14.792 -89.7002 9.79199 -130.838 -0.246094c-87.4814 -21.3496 -167.914 -75.6787 -224.812 -144.931c-50.3281 -61.251 -106.858 -177.284 -27.2002 -238.641c33.0254 -25.4355 73.0576 -25.8926 112.205 -24.2285
c48.4355 2.05762 97.4639 10.8086 144.621 22.3193c23.1191 5.64746 50.7344 7.16699 70.8779 -8.06543c16.1133 -12.1846 14.0088 -31.8369 -4.29688 -41.1211c-22.3359 -11.3291 -46.332 -16.8076 -68.1943 -29.5459
c-18.8516 -10.9814 -37.1191 -23.293 -54.9463 -35.8584c-33.9619 -23.9365 -65.8955 -51.3447 -93.6758 -82.292c-24.2285 -26.9932 -55.8828 -64.0283 -61.666 -101c-5.49121 -35.1084 16.0869 -69.0273 46.2852 -85.4531
c32.1279 -17.4717 73.2021 -18.623 108.878 -16.417c38.8262 2.39648 76.9785 11.8457 113.107 26.0488c63.8545 25.1045 161.869 76.0723 146.95 159.481c-7.48047 41.8145 -50.6367 60.4297 -88.8652 64.3457c-39.2871 4.02148 -77.4355 -8.04395 -109.661 -30.126
c-13.209 -9.05176 -52.0557 2.77246 -31.0107 17.6748c44.1943 31.2939 99.2773 43.8379 152.887 37.7031c46.04 -5.27051 103.6 -25.9814 119.552 -74.2861c30.5029 -92.3633 -76.1992 -169.427 -147.331 -202.355c-91.665 -42.4375 -214.201 -63.749 -309.485 -20.8213
c-41.4209 18.6611 -77.165 53.3467 -84.5908 99.7969c-7.9502 49.7607 29.3984 97.9551 58.877 134.258z" />
    <glyph glyph-name="E" unicode="&#xc9;" horiz-adv-x="784" 
d="M222.741 162.308c30.2998 37.3105 66.6123 68.8799 105.188 97.3291c-14.7119 -0.62207 -29.3809 -0.707031 -43.9404 -0.237305c-69.4297 2.24414 -147.001 18.6914 -195.538 72.707c-87.1348 96.9648 -9.4873 233.344 67.792 309.294
c85.1748 83.71 204.065 143.623 323.549 154.317c64.2227 5.74512 137.243 2.35449 192.834 -34.1299c48.4951 -31.8281 73.0322 -84.2686 55.0273 -140.854c-16.7607 -52.6826 -62.458 -99.0488 -103.282 -134.509c-44.6465 -38.7832 -94.8135 -69.3408 -149.498 -91.6943
c-15.9727 -6.53223 -40.3623 -4.33887 -54.2695 6.17773c-11.9385 9.03027 -11.1641 24.876 3.28906 31.4883c47.2588 21.625 91.3848 48.707 129.838 83.833c35.2607 32.2129 76.4658 73.7314 88.2773 121.634c10.707 43.4277 -16.4727 83.6758 -56.9326 98.4043
c-40.625 14.792 -89.7002 9.79199 -130.838 -0.246094c-87.4814 -21.3496 -167.914 -75.6787 -224.812 -144.931c-50.3281 -61.251 -106.858 -177.284 -27.2002 -238.641c33.0254 -25.4355 73.0576 -25.8926 112.205 -24.2285
c48.4355 2.05762 97.4639 10.8086 144.621 22.3193c23.1191 5.64746 50.7344 7.16699 70.8779 -8.06543c16.1133 -12.1846 14.0088 -31.8369 -4.29688 -41.1211c-22.3359 -11.3291 -46.332 -16.8076 -68.1943 -29.5459
c-18.8516 -10.9814 -37.1191 -23.293 -54.9463 -35.8584c-33.9619 -23.9365 -65.8955 -51.3447 -93.6758 -82.292c-24.2285 -26.9932 -55.8828 -64.0283 -61.666 -101c-5.49121 -35.1084 16.0869 -69.0273 46.2852 -85.4531
c32.1279 -17.4717 73.2021 -18.623 108.878 -16.417c38.8262 2.39648 76.9785 11.8457 113.107 26.0488c63.8545 25.1045 161.869 76.0723 146.95 159.481c-7.48047 41.8145 -50.6367 60.4297 -88.8652 64.3457c-39.2871 4.02148 -77.4355 -8.04395 -109.661 -30.126
c-13.209 -9.05176 -52.0557 2.77246 -31.0107 17.6748c44.1943 31.2939 99.2773 43.8379 152.887 37.7031c46.04 -5.27051 103.6 -25.9814 119.552 -74.2861c30.5029 -92.3633 -76.1992 -169.427 -147.331 -202.355c-91.665 -42.4375 -214.201 -63.749 -309.485 -20.8213
c-41.4209 18.6611 -77.165 53.3467 -84.5908 99.7969c-7.9502 49.7607 29.3984 97.9551 58.877 134.258z" />
    <glyph glyph-name="F" unicode="F" horiz-adv-x="539" 
d="M807.542 852.328c-30.2275 -34.3428 -74.1396 -55.4033 -115.607 -72.8281c-43.085 -18.1064 -88.875 -31.1035 -134.995 -38.6855c-55.709 -9.16113 -112.134 -11.1641 -168.169 -6.71875c-19.9023 -140.753 -28.5938 -282.822 -26.0244 -424.727
c33.4785 4.52539 67.0254 8.58984 100.644 12.1846c13.7207 1.46875 41.6328 0.960938 48.0508 -15.5498c6.23633 -16.041 -14.2578 -25.9941 -27.2803 -27.3867c-40.1592 -4.29297 -80.2168 -9.43652 -120.169 -15.2832c3.74219 -106.131 13.75 -212.084 30.083 -317.22
c3.00977 -19.3682 -32.7041 -25.4307 -44.6172 -25.4307c-17.1123 0 -41.4512 5.70703 -44.6182 25.4307c-16.1006 100.339 -26.4434 201.44 -31.0752 302.771c-23.3779 -4.08496 -46.7129 -8.41602 -70.002 -12.9883
c-13.7383 -2.69629 -43.1992 -0.126953 -49.4736 16.0117c-6.69727 17.2217 14.9873 25.6973 28.0898 28.1992c29.8213 5.68945 59.7139 10.9092 89.6572 15.7695c-0.181641 6.50684 -0.34668 13.0137 -0.482422 19.5205
c-14.2881 80.3184 -38.0596 156.488 -99.5811 216.156c-17.5859 17.0527 -36.624 32.5303 -55.9883 47.5039c-15.4609 11.9551 -32.6787 22.8477 -45.5654 37.707c-23.3311 26.8955 -25.9639 63.3633 -11.4854 95.3389c35.4053 78.1846 138.255 79.9414 210.737 73.4639
c12.1504 -1.08398 24.2334 -2.14258 36.2734 -3.12891c18.9707 23.2295 82.4023 19.584 88.0879 -4.88574c42.9834 -0.795898 85.9072 1.40137 129.56 9.5127c38.7324 7.19727 76.7578 17.8867 113.09 33.2334c38.457 16.2441 73.4434 39.2363 110.241 58.6934
c15.1602 8.01367 35.0195 8.68652 50.6797 1.71777c12.3496 -5.49512 20.1689 -16.7607 9.94043 -28.3818zM164.888 582.42c32.2295 -25.96 62.5488 -54.2656 86.2441 -88.4131c8.06445 -11.625 15.0283 -23.7754 21.209 -36.2773
c3.10352 96.749 11.4268 193.367 24.9951 289.371c-40.9854 8.53027 -82.9268 20.5107 -124.632 11.0107c-40.0703 -9.12305 -75.1709 -38.5889 -78.4902 -81.6055c-3.58594 -46.5137 39.1768 -68.7227 70.6738 -94.0859z" />
    <glyph glyph-name="G" unicode="G" horiz-adv-x="705" 
d="M154.494 -44.7676c-54.8242 31.4424 -82.0059 90.3652 -94.3467 149.97c-29.0459 140.291 7.07422 288.528 72.4531 413.562c60.5947 115.885 158.144 229.602 291.191 259.731c65.6748 14.8721 143.538 -1.86328 170.272 -70.5059
c26.252 -67.4111 -3.90332 -130.144 -21.8408 -195.022c-7.32812 -26.5059 -83.2656 -18.7881 -71.7588 11.2783c21.5488 56.3105 49.5029 132.468 9.68262 187.437c-13.5518 18.708 -29.1143 25.9346 -51.2812 19.3936
c-26.8154 -7.91211 -52.8008 -24.6045 -75.0566 -41.1826c-86.8848 -64.7266 -147.043 -160.667 -186.783 -260.05c-42.8818 -107.248 -63.8926 -233.577 -34.3506 -347.146c11.3379 -43.5762 33.458 -91.623 78.998 -107.342
c56.1025 -19.3604 115.639 22.873 157.551 55.9033c69.4473 54.7314 123.624 126.135 158.627 206.674c3.71289 32.7256 9.7666 65.0908 20.9434 94.5898c8.87793 23.4287 76.0557 23.1455 76.2715 -5.88379c0.232422 -31.1289 -6.16406 -62.4482 -9.36035 -93.374
c-3.09473 -29.9355 -5.14355 -59.9688 -6.14648 -90.0439c-2.05371 -61.543 -0.491211 -123.425 7.40039 -184.523c4.40332 -34.1055 -89.9922 -37.5469 -92.4775 0c-4.00098 60.4131 -6.2959 120.745 -3.43359 181.238
c-48.8594 -74.7773 -115.602 -138.505 -194.544 -176.294c-63.1514 -30.2275 -137.886 -45.1807 -202.011 -8.4082z" />
    <glyph glyph-name="H" unicode="H" horiz-adv-x="833" 
d="M781.971 334.862c4.88086 -11.4219 -6.91504 -19.7363 -16.3682 -22.9072c-12.9971 -4.36914 -26.8447 -6.88379 -40.8574 -8.7207c2.80664 -65.5518 6.86621 -131.032 11.9385 -196.453c3.00586 -38.7959 6.46484 -77.5586 10.3721 -116.274
c4.13574 -41.002 12.5439 -83.1084 13.001 -124.259c0.342773 -30.8711 -77.1777 -33.7207 -84.002 -6.48242c-9.94434 39.6895 -12.5264 81.8047 -17.1279 122.442c-4.69531 41.4678 -8.87402 82.9941 -12.5361 124.567c-5.45703 61.9453 -9.43652 124.03 -12.3115 186.153
c-13.0137 -1.49023 -26.0322 -2.95117 -39.0547 -4.39062c-55.6709 -6.15527 -111.38 -11.9727 -166.983 -18.7041c-38.5293 -4.66504 -77.0078 -9.83398 -115.359 -15.7822c1.77344 -33.9365 4.09766 -67.8428 6.93457 -101.703
c2.94629 -35.2148 6.51562 -70.3613 10.3174 -105.495c3.27637 -30.291 -0.0595703 -70.3193 18.458 -96.1436c11.5918 -16.1592 -16.6885 -28.9658 -27.3066 -31.7139c-18.0811 -4.67773 -44.8203 -3.25488 -58.8965 10.999
c-24.4951 24.8125 -25.5361 59.7646 -30.0195 92.5791c-5.15234 37.6914 -8.7041 75.6406 -12.0908 113.522c-2.98047 33.3516 -5.47852 66.7461 -7.46387 100.17c-10.8252 -2.20117 -21.6416 -4.44531 -32.4199 -6.8584
c-28.2676 -6.3252 -56.8906 -17.1543 -85.6279 -20.2656c-12.6582 -1.37207 -30.7441 -1.0166 -40.1895 9.32129c-7.84082 8.58105 -4.64062 19.3467 5.5625 24.584c25.668 13.1787 56.5986 17.9502 84.5693 24.4785c21.8242 5.09277 43.75 9.7373 65.7471 14.001
c-1.15527 26.1338 -1.98535 52.2803 -2.4043 78.4355c-2.3877 149.655 6.42188 302.021 39.9053 448.26c5.06738 22.1201 29.6562 28.5977 50.1758 28.5977c13.5215 0 54.2314 -7.04492 50.1758 -28.5977c-27.167 -144.274 -40.6592 -289.185 -39.1904 -436.046
c0.245117 -24.5586 0.867188 -49.1133 1.78125 -73.6553c29.6982 4.39844 59.4639 8.36523 89.2637 12.0186c56.916 6.98145 113.95 12.9424 170.942 19.2295c20.4648 2.26074 40.917 4.59375 61.3652 6.99023c-0.148438 3.83594 -0.338867 7.67578 -0.478516 11.5156
c-5.88867 163.982 -3.63184 328.185 6.38867 491.959c2.25684 36.874 94.7305 35.2734 92.4785 0c-10.3682 -162.369 -13.0986 -325.17 -7.82324 -487.789c0.0419922 -1.22363 0.101562 -2.44727 0.143555 -3.6709c8.26855 0.749023 16.5117 1.18066 24.6738 0.981445
c11.0029 -0.270508 29.2412 -3.02246 34.3174 -14.8936z" />
    <glyph glyph-name="I" unicode="I" horiz-adv-x="317" 
d="M241.568 866.324c-10.9102 0.550781 -21.8096 0.311523 -32.707 -0.429688c4.74121 -75.4121 -1.40625 -151.459 -2.93066 -226.926c-1.6084 -79.9043 -1.95996 -159.834 -1.0498 -239.746c1.83301 -161.107 8.7002 -322.333 18.4121 -483.148
c0.118164 -1.93945 -0.0888672 -3.75586 -0.507812 -5.4834c8.10742 0.918945 16.2061 1.81641 24.2793 2.70508c13.4668 1.48145 40.9004 0.914062 47.1953 -15.2754c6.23145 -16.0371 -14.1191 -25.1016 -26.7988 -26.9004
c-47.4492 -6.72754 -95.4199 -12.9512 -143.225 -16.3594c-11.4395 -0.817383 -32.8438 4.41992 -35.6934 17.9629c-3.00977 14.2842 15.0967 20.7275 26.0322 22.7305c9.28418 1.69727 18.623 3.23828 27.9873 4.69434c-5.30469 4.08984 -8.82324 9.38574 -9.42871 15.9219
c-14.8516 160.765 -22.6416 321.729 -25.0293 483.149c-1.18164 79.9121 -1.10547 159.837 0.232422 239.745c1.18945 71.0137 0.503906 143.052 10.2666 213.558c-12.167 -2.12109 -24.3135 -4.10254 -36.4346 -5.60156
c-8.93262 -1.10449 -29.8291 -0.333984 -31.9883 12.1465c-2.20605 12.7432 16.1338 16.4014 25.1768 16.5537c16.0537 0.275391 31.8994 2.125 47.6738 4.52148c0.161133 0.875977 0.296875 1.75195 0.458008 2.62793c5.31348 28.5889 65.9463 33.1904 80.8818 9.61426
c12.2861 1.08398 24.6611 1.52441 37.1963 0.788086c7.46387 -0.44043 23.5518 -2.69238 23.5518 -13.4248c0 -10.1602 -15.791 -13.8135 -23.5508 -13.4238z" />
    <glyph glyph-name="I" unicode="&#xcf;" horiz-adv-x="317" 
d="M241.568 866.324c-10.9102 0.550781 -21.8096 0.311523 -32.707 -0.429688c4.74121 -75.4121 -1.40625 -151.459 -2.93066 -226.926c-1.6084 -79.9043 -1.95996 -159.834 -1.0498 -239.746c1.83301 -161.107 8.7002 -322.333 18.4121 -483.148
c0.118164 -1.93945 -0.0888672 -3.75586 -0.507812 -5.4834c8.10742 0.918945 16.2061 1.81641 24.2793 2.70508c13.4668 1.48145 40.9004 0.914062 47.1953 -15.2754c6.23145 -16.0371 -14.1191 -25.1016 -26.7988 -26.9004
c-47.4492 -6.72754 -95.4199 -12.9512 -143.225 -16.3594c-11.4395 -0.817383 -32.8438 4.41992 -35.6934 17.9629c-3.00977 14.2842 15.0967 20.7275 26.0322 22.7305c9.28418 1.69727 18.623 3.23828 27.9873 4.69434c-5.30469 4.08984 -8.82324 9.38574 -9.42871 15.9219
c-14.8516 160.765 -22.6416 321.729 -25.0293 483.149c-1.18164 79.9121 -1.10547 159.837 0.232422 239.745c1.18945 71.0137 0.503906 143.052 10.2666 213.558c-12.167 -2.12109 -24.3135 -4.10254 -36.4346 -5.60156
c-8.93262 -1.10449 -29.8291 -0.333984 -31.9883 12.1465c-2.20605 12.7432 16.1338 16.4014 25.1768 16.5537c16.0537 0.275391 31.8994 2.125 47.6738 4.52148c0.161133 0.875977 0.296875 1.75195 0.458008 2.62793c5.31348 28.5889 65.9463 33.1904 80.8818 9.61426
c12.2861 1.08398 24.6611 1.52441 37.1963 0.788086c7.46387 -0.44043 23.5518 -2.69238 23.5518 -13.4248c0 -10.1602 -15.791 -13.8135 -23.5508 -13.4238z" />
    <glyph glyph-name="I" unicode="&#xce;" horiz-adv-x="317" 
d="M241.568 866.324c-10.9102 0.550781 -21.8096 0.311523 -32.707 -0.429688c4.74121 -75.4121 -1.40625 -151.459 -2.93066 -226.926c-1.6084 -79.9043 -1.95996 -159.834 -1.0498 -239.746c1.83301 -161.107 8.7002 -322.333 18.4121 -483.148
c0.118164 -1.93945 -0.0888672 -3.75586 -0.507812 -5.4834c8.10742 0.918945 16.2061 1.81641 24.2793 2.70508c13.4668 1.48145 40.9004 0.914062 47.1953 -15.2754c6.23145 -16.0371 -14.1191 -25.1016 -26.7988 -26.9004
c-47.4492 -6.72754 -95.4199 -12.9512 -143.225 -16.3594c-11.4395 -0.817383 -32.8438 4.41992 -35.6934 17.9629c-3.00977 14.2842 15.0967 20.7275 26.0322 22.7305c9.28418 1.69727 18.623 3.23828 27.9873 4.69434c-5.30469 4.08984 -8.82324 9.38574 -9.42871 15.9219
c-14.8516 160.765 -22.6416 321.729 -25.0293 483.149c-1.18164 79.9121 -1.10547 159.837 0.232422 239.745c1.18945 71.0137 0.503906 143.052 10.2666 213.558c-12.167 -2.12109 -24.3135 -4.10254 -36.4346 -5.60156
c-8.93262 -1.10449 -29.8291 -0.333984 -31.9883 12.1465c-2.20605 12.7432 16.1338 16.4014 25.1768 16.5537c16.0537 0.275391 31.8994 2.125 47.6738 4.52148c0.161133 0.875977 0.296875 1.75195 0.458008 2.62793c5.31348 28.5889 65.9463 33.1904 80.8818 9.61426
c12.2861 1.08398 24.6611 1.52441 37.1963 0.788086c7.46387 -0.44043 23.5518 -2.69238 23.5518 -13.4248c0 -10.1602 -15.791 -13.8135 -23.5508 -13.4238z" />
    <glyph glyph-name="I" unicode="&#xcd;" horiz-adv-x="317" 
d="M241.568 866.324c-10.9102 0.550781 -21.8096 0.311523 -32.707 -0.429688c4.74121 -75.4121 -1.40625 -151.459 -2.93066 -226.926c-1.6084 -79.9043 -1.95996 -159.834 -1.0498 -239.746c1.83301 -161.107 8.7002 -322.333 18.4121 -483.148
c0.118164 -1.93945 -0.0888672 -3.75586 -0.507812 -5.4834c8.10742 0.918945 16.2061 1.81641 24.2793 2.70508c13.4668 1.48145 40.9004 0.914062 47.1953 -15.2754c6.23145 -16.0371 -14.1191 -25.1016 -26.7988 -26.9004
c-47.4492 -6.72754 -95.4199 -12.9512 -143.225 -16.3594c-11.4395 -0.817383 -32.8438 4.41992 -35.6934 17.9629c-3.00977 14.2842 15.0967 20.7275 26.0322 22.7305c9.28418 1.69727 18.623 3.23828 27.9873 4.69434c-5.30469 4.08984 -8.82324 9.38574 -9.42871 15.9219
c-14.8516 160.765 -22.6416 321.729 -25.0293 483.149c-1.18164 79.9121 -1.10547 159.837 0.232422 239.745c1.18945 71.0137 0.503906 143.052 10.2666 213.558c-12.167 -2.12109 -24.3135 -4.10254 -36.4346 -5.60156
c-8.93262 -1.10449 -29.8291 -0.333984 -31.9883 12.1465c-2.20605 12.7432 16.1338 16.4014 25.1768 16.5537c16.0537 0.275391 31.8994 2.125 47.6738 4.52148c0.161133 0.875977 0.296875 1.75195 0.458008 2.62793c5.31348 28.5889 65.9463 33.1904 80.8818 9.61426
c12.2861 1.08398 24.6611 1.52441 37.1963 0.788086c7.46387 -0.44043 23.5518 -2.69238 23.5518 -13.4248c0 -10.1602 -15.791 -13.8135 -23.5508 -13.4238z" />
    <glyph glyph-name="J" unicode="J" horiz-adv-x="702" 
d="M580.353 -186.625c-3.9248 -10.0039 -20.1123 -10.0684 -28.6895 -9.27246c-34.6768 3.2002 -58.626 26.9502 -74.1504 56.6191c-5.53711 10.5801 -10.4014 21.625 -14.8555 32.9072c-7.84082 -5.55469 -16.1934 -10.4824 -25.1475 -14.5723
c-36.4717 -16.6631 -80.0684 -20.6719 -117.772 -5.49023c-33.7959 13.6104 -58.1768 41.3232 -75.4619 72.6426c-20.3467 36.8613 -36.0908 77.7617 -47.7969 118.146c-23.3857 80.6914 -29.6221 166.129 -16.9092 249.237
c5.97754 39.0713 15.5664 78.8408 35.0488 113.556c16.9639 30.2275 44.749 65.7764 81.835 69.4131c34.9053 3.4209 58.4014 -18.8057 70.8906 -49.3633c17.1543 -41.959 28.1992 -87.2617 38.8467 -131.228c18.7549 -77.4443 32.8018 -155.913 50.2012 -233.649
c2.04102 8.78418 4.01367 17.5771 5.82129 26.374c16.8027 81.7285 26.8701 164.079 34.8584 247.082c8.1748 84.916 15.0293 169.523 18.543 254.766c1.77344 42.9531 1.49414 85.9277 -0.0302734 128.886c-0.355469 10.0967 -1.16797 20.2363 -1.79883 30.3633
c-53.457 -2.98438 -106.936 -5.71875 -160.351 -9.2627c-45.9043 -3.04395 -91.7793 -6.44727 -137.658 -9.7959c-45.8242 -3.34473 -93.5195 -10.4863 -139.36 -6.23145c-25.8291 2.40039 -39.3721 31.1377 -9.11035 39.7314
c44.7148 12.7002 94.6152 12.8438 140.833 16.5352c47.0176 3.75977 94.0645 7.19727 141.12 10.4609c54.8457 3.80566 109.776 7.81055 164.732 10.9473c0.418945 14.8682 0.520508 29.7402 1.11719 44.6172c0.745117 18.5264 40.5449 17.4258 47.166 3.63672
c6.80762 -14.1777 14.0723 -29.4189 20.0752 -44.9092c15.5498 0.626953 31.0996 1.18164 46.6494 1.5625c13.5264 0.330078 44.3809 -5.88477 43.9238 -25.0371c-0.482422 -20.2109 -29.0801 -23.9531 -43.9229 -25.0371
c-10.9941 -0.804688 -21.9932 -1.55859 -32.9922 -2.28711c3.6709 -19.6904 6.7998 -39.5244 9.25977 -59.3711c6.62598 -53.4863 9.51367 -107.578 9.04395 -161.45c-0.931641 -106.998 -8.72168 -214.255 -21.5107 -320.475
c-10.6895 -88.752 -24.999 -184.354 -67.1484 -264.405c-7.70508 -14.6309 -16.6592 -28.6182 -27.002 -41.3359c1.10938 -3.22559 2.20117 -6.45996 3.34375 -9.67773c10.1562 -28.6143 25.249 -84.9033 62.0723 -88.2812
c7.6416 -0.703125 20.0332 -6.80371 16.2861 -16.3506zM379.146 -93.8994c29.0078 18.0137 42.0479 53.7803 51.9336 84.6094c0.253906 0.791992 0.482422 1.60059 0.736328 2.39648c-22.8311 84.1504 -38.0508 170.096 -56.3867 255.278
c-8.69531 40.3838 -18.2549 80.5771 -29.8164 120.245c-6.11719 20.9902 -12.6875 41.8916 -20.1553 62.4453c-2.6582 7.31543 -13.2715 39.7148 -24.0586 39.2236c-0.868164 -0.0380859 -16.2236 -16.6162 -18.2051 -18.7539
c-6.6084 -7.12891 -12.4082 -14.8086 -17.5439 -23.0596c-8.84375 -14.208 -15.7949 -29.5078 -21.3789 -45.2646c-12.8145 -36.1846 -18.5469 -74.9346 -21.1504 -113.112c-5.29199 -77.5205 6.04102 -156.272 32.7334 -229.212
c12.9844 -35.4854 29.3721 -70.8477 52.7832 -100.758c16.1338 -20.6094 42.6143 -51.3574 70.5088 -34.0381z" />
    <glyph glyph-name="K" unicode="K" horiz-adv-x="752" 
d="M475.498 -83.5684c-54.3799 41.2852 -92.2578 101.397 -120.513 162.627c-28.623 62.0254 -49.7949 126.993 -76.7793 189.688c-12.54 29.1396 -27.9248 61.0566 -53.7363 80.8525c-20.9727 16.0879 -45.502 20.1221 -70.5732 20.6348
c-0.211914 -130.215 8.25977 -260.502 26.3076 -390.755c3.00195 -21.6543 -36.1367 -28.335 -49.709 -28.335c-18.8984 0 -46.4082 6.3418 -49.71 28.335c-41.8018 278.402 -42.3818 567.27 6.5791 844.884c3.95801 22.4551 30.8965 28.8643 50.6377 28.8643
c14.2715 0 53.9014 -6.91309 50.6377 -28.8643c-18.5771 -124.902 -29.999 -249.986 -33.5508 -375.164c22.5225 15.1348 45.2139 30.0283 67.6006 45.3457c43.0088 29.4277 82.6348 62.2676 121.117 97.3936c34.5283 31.5146 68.7695 64.7695 93.6377 104.684
c11.875 19.0557 24.0723 41.0107 27.9971 63.3848c1.93066 11.0117 2.3584 25.5625 -2.52734 35.8545c-2.81543 5.93164 -7.31543 8.58984 -12.0693 12.6416c-1.01172 0.868164 -2.04004 1.43164 -2.99707 1.82129c1.62109 0.0673828 3.73828 0.261719 6.57031 0.685547
c-1.93457 -0.288086 -4.24609 -0.491211 -6.79883 -0.592773c-3.22168 1.22363 -5.38965 0.208008 -2.56152 -0.0673828c-20.7529 -0.237305 -54.2148 6.18945 -49.2109 30.0117c5.72754 27.2725 50.5059 24.5967 69.7812 19.542
c50.0742 -13.1279 58.0498 -70.5645 45.8701 -113.823c-14.1953 -50.4219 -50.5361 -94.3662 -86.6016 -131.037c-42.2588 -42.9707 -90.3604 -79.0654 -134.529 -119.834c-31.8535 -29.4023 -64.2363 -58.8047 -97.9814 -86.2715
c15.207 -2.25195 30.1553 -5.67676 44.46 -11.1338c30.2695 -11.5488 57.3984 -31.5781 79.5225 -55.0996c45.333 -48.2031 74.4385 -110.292 100.843 -170.247c26.0195 -59.0791 52.543 -121.604 93.498 -172.195c30.0283 -37.0947 81.208 -91.0977 133.399 -73.2402
c14.1572 4.84277 33.6904 4.61816 46.7725 -3.44238c8.59375 -5.29199 17.1748 -18.3359 6.03613 -26.6631c-65.0234 -48.6182 -160.973 -26.3711 -221.419 19.5166z" />
    <glyph glyph-name="L" unicode="L" horiz-adv-x="400" 
d="M120.434 -97.4756c-7.04004 -7.40918 -5.00781 -10.7422 -14.0508 -6.13184c9.34375 -4.7627 9.1875 -15.6348 0.000976562 -20.2871c-17.4678 -8.85254 -58.3301 -7.08691 -56.3105 21.1426c1.5918 22.1963 28.8223 41.9756 46.1797 51.7471
c22.4082 12.6113 46.6455 19.0674 71.4326 21.2139c0.228516 140.295 5.93945 280.51 11.9297 420.67c3.21289 75.1836 8.04297 150.304 11.7012 225.471c3.63281 74.6504 1.66797 148.043 -2.59082 222.562c-1.61328 28.2041 69.1885 30.0537 76.2715 5.88477
c21.1846 -72.2959 21.9512 -149.537 22.6074 -224.302c0.65625 -75.124 1.29102 -150.308 0.960938 -225.432c-0.639648 -146.303 -1.87988 -292.694 -9.11035 -438.828c54.4561 -16.1045 105.627 -41.7979 159.829 -58.7236
c47.2637 -14.7539 109.729 -28.9746 145.376 14.6816c10.9561 13.416 68.1133 9.7373 56.1582 -13.4961c-21.2695 -41.332 -75.916 -51.3525 -118.133 -52.1572c-50.7139 -0.969727 -100.538 12.3154 -147.856 29.4443c-36.54 13.2256 -72.6562 29.5039 -109.882 41.4551
c-26.9043 -17.9668 -84.8662 -13.4873 -95.5352 12.9854c-3.9668 -0.787109 -7.89551 -1.82422 -11.7568 -3.19629c-9.30566 -3.30664 -17.9805 -7.875 -25.6855 -14.0898c-4.01758 -3.23828 -7.97168 -6.86621 -11.5361 -10.6133z" />
    <glyph glyph-name="M" unicode="M" horiz-adv-x="1004" 
d="M1017.53 -135.497c15.334 19.0723 93.0889 9.57422 75.2236 -18.0625c-35.3076 -54.5576 -82.1514 -94.2432 -151.679 -83.8838c-70.7764 10.5459 -110.538 63.9561 -131.833 127.916c-38.6689 116.126 -43.9609 242.616 -44.1221 364.072
c-0.173828 127.548 9.55859 254.414 22.4883 381.229c3.09082 30.291 5.40625 61.2002 4.91504 91.6689c-0.342773 21.168 2.5957 60.3828 -14.3262 76.6484c-22.2471 21.3838 -56.6484 -16.6797 -70.1494 -32.3604c-18.2637 -21.2139 -32.5352 -45.5479 -45.752 -70.1191
c-57.0342 -106.055 -100.437 -219.492 -131.27 -335.805c-0.351562 -1.33398 -1.02441 -2.51562 -1.93066 -3.56152c0.710938 -3.21289 1.38867 -6.43066 2.1377 -9.63574c5.13086 -21.9805 -36.248 -30.9219 -49.7275 -32.1074
c-16.0752 -1.41406 -57.5508 1.83691 -62.9277 23.415c-25.8203 103.649 -25.8584 210.517 -37.623 316.131c-2.58203 23.1621 -4.99121 46.3535 -8.49219 69.4014c-1.60059 10.542 -3.68359 20.707 -3.83984 31.3457c-24.0801 -36.3447 -33.0469 -85.0518 -43.042 -126.447
c-24.207 -100.263 -41.2559 -202.164 -55.2012 -304.315c-13.4414 -98.4512 -21.2188 -197.758 -36.1162 -295.98c-6.69727 -44.1562 -16.0068 -88.0879 -30.2314 -130.482c-12.4043 -36.9717 -28.1738 -76.3057 -66.2969 -91.2715
c-17.1504 -16.3672 -48.1318 -13.1924 -68.4863 -5.01758c-18.3438 7.37012 -28.1699 24.4736 -8.28027 36.6279c18.458 11.2822 44.7695 8.35254 62.123 -3.25977c20.0078 12.8828 30.3672 46.5605 37.5771 65.916c10.3682 27.8398 17.7852 56.5303 23.5215 85.6572
c10.8086 54.8623 16.1641 110.622 22.4639 166.128c12.2266 107.73 25.6934 215.39 44.7441 322.155c9.10254 51.0273 19.5166 101.817 31.5732 152.234c11.0625 46.2637 21.1211 97.1973 47.2588 137.788c21.832 33.9062 58.7188 33.5166 88.0273 9.10156
c18.8135 -15.6729 28.7031 -39.8975 37.8818 -62.001c9.79688 -23.5938 17.1035 -47.666 23.3018 -72.4277c15.9346 -63.6514 23.6016 -128.86 33.4785 -193.68c12.252 38.8428 25.9473 77.2197 41.2305 115.009c24.7871 61.2979 52.0342 123.853 87.7061 179.714
c25.7061 40.2529 60.5859 82.4023 110.881 89.2393c53.6768 7.29395 85.6016 -36.1807 104.072 -80.6201c22.7129 -54.6504 24.9355 -115.216 25.668 -173.559c0.804688 -64.2354 0.986328 -128.483 1.95605 -192.715c1.91309 -126.808 2.21387 -254.678 20.5117 -380.456
c7.97559 -54.8496 16.1162 -115.961 44.3838 -164.812c4.7373 -8.19238 12.7002 -13.8818 17.9668 -21.2188c-2.46387 -1.08398 -1.24902 -8.57715 1.66406 -4.62695c0.503906 0.681641 1.54102 1.35059 2.74316 1.99414c1.58301 -1.96875 2.68359 -3.36133 2.1582 -2.59473
c-0.749023 1.0918 -1.41797 1.93457 -2.04883 2.6582c2.0957 1.10938 4.66504 2.125 5.87988 2.96777c5.19434 3.60254 9.91504 8.39941 14.3896 12.832c9.17871 9.09375 17.3623 19.1143 25.4482 29.1689z" />
    <glyph glyph-name="N" unicode="N" horiz-adv-x="811" 
d="M89.9014 -131.818c-13.4629 0.181641 -43.6738 6.10547 -39.5127 25.9648c3.50098 16.6543 29.0762 21.1416 44.9727 19.7656c2.27344 1.50293 4.38184 3.20508 6.30371 5.13086c4.11035 3.69629 7.9248 7.80664 11.1045 12.3408
c6.8418 9.75879 11.7607 21.0068 16.0107 32.0645c10.8545 28.2461 16.8828 57.8643 21.3701 87.6934c8.94531 59.4473 14.2412 119.504 19.1436 179.396c9.78418 119.475 15.4658 239.508 31.8115 358.335c6.60449 48.0039 14.0977 96.3887 27.5049 143.038
c9.86426 34.3174 24.8506 90.3564 60.0312 107.494c39.8545 19.415 71.2246 -12.6494 91.5498 -43.0762c25.6514 -38.4023 43.8936 -87.7021 52.543 -132.865c18.9453 -98.9043 21.3799 -201.03 33.0303 -300.967c12.1973 -104.615 26.4473 -210.877 47.1279 -314.167
c5.08496 -25.3926 11.7568 -50.083 20.084 -74.6084c6.09668 -17.9541 9.11523 -37.2637 20.5371 -52.9023c4.92773 -6.75293 11.8076 -15.1943 20.0547 -18.2676c6.51953 -2.42969 3.9375 -2.66211 14.1992 2.49414c18.8564 9.47461 31.4854 26.2266 42.5098 43.6855
c53.4824 84.7129 69.0029 189.053 78.2148 287.038c9.7207 103.408 10.5635 209.454 0.588867 312.884c-4.81348 49.8926 -12.8701 100.302 -29.2539 147.823c-13.6533 39.6006 -44.8164 99.6025 -95.4619 95.5088c-7.92969 -0.643555 -26.291 -0.516602 -28.2344 10.7188
c-1.99805 11.541 14.293 14.0811 22.2178 14.6104c122.404 8.14062 156.188 -136.07 169.557 -229.657c17.3994 -121.79 15.8711 -249.918 2.82715 -372.056c-10.4316 -97.6846 -27.5605 -208.138 -85.1406 -290.557c-25.3594 -36.2988 -57.3564 -61.793 -103.366 -62.7666
c-49.9941 -1.05859 -86.0254 30.5156 -115.16 67.6484c-32.3447 41.2217 -46.5527 97.9092 -58.957 148.005c-13.8438 55.917 -23.6699 112.735 -31.7139 169.766c-15.6641 111.029 -15.2275 221.99 -16.8867 333.781c-0.37207 24.8975 -1.26953 49.8037 -3.41992 74.6162
c-2.08691 24.0762 -1.99805 48.8379 -5.63867 72.6855c-3.84375 25.1768 -8.67383 52.6182 -16.9082 76.7412c-1.14258 3.35742 -2.28125 5.05078 -2.81055 6.15137c-1.66406 -2.43848 -3.18359 -5.28809 -4.03906 -6.62988
c-6.44727 -10.1143 -11.5742 -21.3418 -16.375 -32.3232c-21.4688 -49.1045 -30.8584 -102.587 -39.0801 -155.227c-8.9248 -57.165 -15.0801 -114.725 -20.0332 -172.364c-9.68164 -112.634 -13.5596 -225.694 -25.1641 -338.171
c-5.5498 -53.7832 -13.0557 -107.003 -28.0635 -159.024c-13.1914 -45.7305 -35.2822 -80.4668 -88.0742 -79.751z" />
    <glyph glyph-name="O" unicode="O" horiz-adv-x="655" 
d="M558.262 144.323c-28.6143 -76.1611 -71.3672 -154.67 -139.138 -202.801c-65.3613 -46.4082 -153.309 -53.0928 -218.399 -2.61621c-67.9736 52.7119 -81.5039 142.887 -81.8506 223.587c-0.143555 33.3438 2.04492 66.5391 6.39746 99.417
c-42.7842 -3.21289 -62.25 43.123 -70.0527 82.1348c-9.59277 47.9658 -4.64844 97.5996 4.25 145.27c17.4297 93.3838 49.4141 188.791 122.265 253.949c62.8174 56.1875 155.367 82.4395 237.054 57.377c74.4092 -22.8271 119.141 -87.7734 144.767 -157.97
c57.9404 -158.703 53.9014 -340.805 -5.29199 -498.348zM265.81 -46.6748c58.9521 -37.8018 130.457 12.5674 168.631 58.1162c46.002 54.8877 74.7646 124.631 94.2139 192.914c39.0498 137.116 38.1104 293.851 -14.377 427.394
c-22.2979 56.7295 -62.0293 120.863 -127.243 132.526c-64.79 11.5869 -121.947 -25.7695 -162.221 -73.3672c-46.7041 -55.2012 -70.0693 -128.577 -85.6699 -198.02c-7.78516 -34.6602 -13.5088 -70.1416 -13.2803 -105.754
c0.123047 -19.1904 2.15918 -38.3301 6.24023 -57.0928c0.833984 -3.82715 1.81641 -7.61621 2.9082 -11.3711c8.03906 38.0635 18.9697 75.5469 32.6699 112.15c10.4482 27.9248 90.0645 20.0928 77.5625 -12.1875c-31.6631 -81.7666 -49.6729 -168.427 -51.9932 -256.142
c-1.91797 -72.5166 4.65234 -165.625 72.5586 -209.167z" />
    <glyph glyph-name="O" unicode="&#xd6;" horiz-adv-x="655" 
d="M558.262 144.323c-28.6143 -76.1611 -71.3672 -154.67 -139.138 -202.801c-65.3613 -46.4082 -153.309 -53.0928 -218.399 -2.61621c-67.9736 52.7119 -81.5039 142.887 -81.8506 223.587c-0.143555 33.3438 2.04492 66.5391 6.39746 99.417
c-42.7842 -3.21289 -62.25 43.123 -70.0527 82.1348c-9.59277 47.9658 -4.64844 97.5996 4.25 145.27c17.4297 93.3838 49.4141 188.791 122.265 253.949c62.8174 56.1875 155.367 82.4395 237.054 57.377c74.4092 -22.8271 119.141 -87.7734 144.767 -157.97
c57.9404 -158.703 53.9014 -340.805 -5.29199 -498.348zM265.81 -46.6748c58.9521 -37.8018 130.457 12.5674 168.631 58.1162c46.002 54.8877 74.7646 124.631 94.2139 192.914c39.0498 137.116 38.1104 293.851 -14.377 427.394
c-22.2979 56.7295 -62.0293 120.863 -127.243 132.526c-64.79 11.5869 -121.947 -25.7695 -162.221 -73.3672c-46.7041 -55.2012 -70.0693 -128.577 -85.6699 -198.02c-7.78516 -34.6602 -13.5088 -70.1416 -13.2803 -105.754
c0.123047 -19.1904 2.15918 -38.3301 6.24023 -57.0928c0.833984 -3.82715 1.81641 -7.61621 2.9082 -11.3711c8.03906 38.0635 18.9697 75.5469 32.6699 112.15c10.4482 27.9248 90.0645 20.0928 77.5625 -12.1875c-31.6631 -81.7666 -49.6729 -168.427 -51.9932 -256.142
c-1.91797 -72.5166 4.65234 -165.625 72.5586 -209.167z" />
    <glyph glyph-name="O" unicode="&#xd5;" horiz-adv-x="655" 
d="M558.262 144.323c-28.6143 -76.1611 -71.3672 -154.67 -139.138 -202.801c-65.3613 -46.4082 -153.309 -53.0928 -218.399 -2.61621c-67.9736 52.7119 -81.5039 142.887 -81.8506 223.587c-0.143555 33.3438 2.04492 66.5391 6.39746 99.417
c-42.7842 -3.21289 -62.25 43.123 -70.0527 82.1348c-9.59277 47.9658 -4.64844 97.5996 4.25 145.27c17.4297 93.3838 49.4141 188.791 122.265 253.949c62.8174 56.1875 155.367 82.4395 237.054 57.377c74.4092 -22.8271 119.141 -87.7734 144.767 -157.97
c57.9404 -158.703 53.9014 -340.805 -5.29199 -498.348zM265.81 -46.6748c58.9521 -37.8018 130.457 12.5674 168.631 58.1162c46.002 54.8877 74.7646 124.631 94.2139 192.914c39.0498 137.116 38.1104 293.851 -14.377 427.394
c-22.2979 56.7295 -62.0293 120.863 -127.243 132.526c-64.79 11.5869 -121.947 -25.7695 -162.221 -73.3672c-46.7041 -55.2012 -70.0693 -128.577 -85.6699 -198.02c-7.78516 -34.6602 -13.5088 -70.1416 -13.2803 -105.754
c0.123047 -19.1904 2.15918 -38.3301 6.24023 -57.0928c0.833984 -3.82715 1.81641 -7.61621 2.9082 -11.3711c8.03906 38.0635 18.9697 75.5469 32.6699 112.15c10.4482 27.9248 90.0645 20.0928 77.5625 -12.1875c-31.6631 -81.7666 -49.6729 -168.427 -51.9932 -256.142
c-1.91797 -72.5166 4.65234 -165.625 72.5586 -209.167z" />
    <glyph glyph-name="O" unicode="&#xd4;" horiz-adv-x="655" 
d="M558.262 144.323c-28.6143 -76.1611 -71.3672 -154.67 -139.138 -202.801c-65.3613 -46.4082 -153.309 -53.0928 -218.399 -2.61621c-67.9736 52.7119 -81.5039 142.887 -81.8506 223.587c-0.143555 33.3438 2.04492 66.5391 6.39746 99.417
c-42.7842 -3.21289 -62.25 43.123 -70.0527 82.1348c-9.59277 47.9658 -4.64844 97.5996 4.25 145.27c17.4297 93.3838 49.4141 188.791 122.265 253.949c62.8174 56.1875 155.367 82.4395 237.054 57.377c74.4092 -22.8271 119.141 -87.7734 144.767 -157.97
c57.9404 -158.703 53.9014 -340.805 -5.29199 -498.348zM265.81 -46.6748c58.9521 -37.8018 130.457 12.5674 168.631 58.1162c46.002 54.8877 74.7646 124.631 94.2139 192.914c39.0498 137.116 38.1104 293.851 -14.377 427.394
c-22.2979 56.7295 -62.0293 120.863 -127.243 132.526c-64.79 11.5869 -121.947 -25.7695 -162.221 -73.3672c-46.7041 -55.2012 -70.0693 -128.577 -85.6699 -198.02c-7.78516 -34.6602 -13.5088 -70.1416 -13.2803 -105.754
c0.123047 -19.1904 2.15918 -38.3301 6.24023 -57.0928c0.833984 -3.82715 1.81641 -7.61621 2.9082 -11.3711c8.03906 38.0635 18.9697 75.5469 32.6699 112.15c10.4482 27.9248 90.0645 20.0928 77.5625 -12.1875c-31.6631 -81.7666 -49.6729 -168.427 -51.9932 -256.142
c-1.91797 -72.5166 4.65234 -165.625 72.5586 -209.167z" />
    <glyph glyph-name="O" unicode="&#xd3;" horiz-adv-x="655" 
d="M558.262 144.323c-28.6143 -76.1611 -71.3672 -154.67 -139.138 -202.801c-65.3613 -46.4082 -153.309 -53.0928 -218.399 -2.61621c-67.9736 52.7119 -81.5039 142.887 -81.8506 223.587c-0.143555 33.3438 2.04492 66.5391 6.39746 99.417
c-42.7842 -3.21289 -62.25 43.123 -70.0527 82.1348c-9.59277 47.9658 -4.64844 97.5996 4.25 145.27c17.4297 93.3838 49.4141 188.791 122.265 253.949c62.8174 56.1875 155.367 82.4395 237.054 57.377c74.4092 -22.8271 119.141 -87.7734 144.767 -157.97
c57.9404 -158.703 53.9014 -340.805 -5.29199 -498.348zM265.81 -46.6748c58.9521 -37.8018 130.457 12.5674 168.631 58.1162c46.002 54.8877 74.7646 124.631 94.2139 192.914c39.0498 137.116 38.1104 293.851 -14.377 427.394
c-22.2979 56.7295 -62.0293 120.863 -127.243 132.526c-64.79 11.5869 -121.947 -25.7695 -162.221 -73.3672c-46.7041 -55.2012 -70.0693 -128.577 -85.6699 -198.02c-7.78516 -34.6602 -13.5088 -70.1416 -13.2803 -105.754
c0.123047 -19.1904 2.15918 -38.3301 6.24023 -57.0928c0.833984 -3.82715 1.81641 -7.61621 2.9082 -11.3711c8.03906 38.0635 18.9697 75.5469 32.6699 112.15c10.4482 27.9248 90.0645 20.0928 77.5625 -12.1875c-31.6631 -81.7666 -49.6729 -168.427 -51.9932 -256.142
c-1.91797 -72.5166 4.65234 -165.625 72.5586 -209.167z" />
    <glyph glyph-name="P" unicode="P" horiz-adv-x="733" 
d="M732.783 663.834c14.9229 -156.997 -117.667 -302.028 -241.088 -379.812c-41.082 -25.8877 -87.1729 -47.9736 -134.961 -62.9648c1.18945 -19.0088 2.41309 -38.0088 3.7168 -57.0049c4.00098 -58.3379 4.06445 -120.305 20.5078 -176.768
c10.791 -37.0566 -73.5029 -42.9834 -84.2607 -13.2432c-20.626 57.0254 -25.2832 117.48 -30.6387 177.406c-1.49414 16.7568 -2.89551 33.5137 -4.2207 50.2744c-62.9531 -5.05469 -199.794 16.3887 -167.356 109.269c21.4307 61.3652 93.6123 88.5068 155.354 96.3135
c-4.61426 108.281 -7.1416 217.05 -3.41992 325.208c1.30859 38.0557 96.3984 37.7002 96.6436 0.000976562c0.707031 -109.416 0.605469 -218.62 4.36914 -327.926c44.9141 -7.34473 88.96 -21.0488 133.378 -31.8232c4.91895 3.98828 9.8125 8.00586 14.6006 12.1758
c90.5176 78.8457 199.375 209.958 166.548 339.538c-35.248 139.136 -198.468 154.093 -314.585 118.646c-59.2695 -18.0938 -114.429 -49.2354 -160.231 -91.0117c-45.1631 -41.1924 -96.6807 -100.123 -90.373 -165.408c1.68945 -17.4551 -44.3711 -18.374 -46.1699 0
c-8.10254 82.7314 68.2236 160.011 129.043 205.703c65.6787 49.3457 144.354 81.5625 226.083 91.0586c74.9756 8.71289 159.299 2.81152 222.789 -41.9033c57.4785 -40.4766 97.6123 -107.663 104.271 -177.729zM180.708 261.891
c21.4639 -15.1982 49.4004 -14.7031 77.3037 -7.91699c-2.06152 30.2871 -3.86035 60.5947 -5.3418 90.9326c-0.368164 7.56152 -0.702148 15.1309 -1.05762 22.6963c-19.957 -4.7373 -39.1523 -12.8994 -55.1211 -25.7783
c-23.6572 -19.0801 -48.5762 -56.708 -15.7832 -79.9336zM349.473 353.331c0.948242 -20.3379 2.00293 -40.6719 3.10352 -61.0098c32.0312 15.7021 63.0039 33.3477 92.2705 53.5586c-31.7773 8.58105 -63.791 17.7129 -96.0039 22.8867
c0.219727 -5.14355 0.388672 -10.2871 0.629883 -15.4355z" />
    <glyph glyph-name="Q" unicode="Q" horiz-adv-x="655" 
d="M558.262 144.323c-28.6143 -76.1611 -71.3721 -154.67 -139.139 -202.801c-16.7734 -11.9092 -35.041 -21.1807 -54.0195 -27.5645c6.0332 -11.083 12.0029 -22.2041 18.1416 -33.2285c22.4629 -40.3545 46.082 -80.0352 68.7529 -120.267
c14.5635 -25.8418 -55.2393 -33.0469 -68.6338 -10.7871c-23.6699 39.334 -45.1768 79.9121 -66.3145 120.651c-5.78711 11.1592 -11.5107 22.3486 -17.1924 33.5635c-34.9268 0.87207 -69.4131 11.9678 -99.1328 35.0156
c-67.9736 52.7119 -81.5039 142.887 -81.8506 223.587c-0.143555 33.3438 2.04492 66.5391 6.39746 99.417c-42.7842 -3.21289 -62.25 43.123 -70.0527 82.1348c-9.59277 47.9658 -4.64844 97.5996 4.25 145.27c17.4297 93.3838 49.4141 188.791 122.265 253.949
c62.8174 56.1875 155.367 82.4395 237.054 57.377c74.4092 -22.8271 119.141 -87.7734 144.767 -157.97c57.9404 -158.703 53.9014 -340.805 -5.29199 -498.348zM347.378 -53.1309c34.084 12.2646 65.7607 39.1562 87.0635 64.5703
c46.002 54.8877 74.7646 124.631 94.2139 192.914c39.0498 137.116 38.1104 293.851 -14.377 427.394c-22.2979 56.7295 -62.0293 120.863 -127.243 132.526c-64.79 11.5869 -121.947 -25.7695 -162.221 -73.3672c-46.7041 -55.2012 -70.0693 -128.577 -85.6699 -198.02
c-7.78516 -34.6602 -13.5088 -70.1416 -13.2803 -105.754c0.123047 -19.1904 2.16406 -38.3301 6.24121 -57.0928c0.833984 -3.82715 1.81641 -7.61621 2.9082 -11.3711c8.03906 38.0635 18.9697 75.5469 32.6699 112.15c10.4482 27.9248 90.0645 20.0928 77.5625 -12.1875
c-31.6631 -81.7666 -49.6729 -168.427 -51.9932 -256.142c-1.91797 -72.5166 4.65234 -165.625 72.5586 -209.167c3.9668 -2.54395 7.99316 -4.65625 12.0576 -6.42969c-7.44727 14.0635 -14.708 29.5498 -12.7861 44.1133c2.62891 19.9023 36.2393 16.0459 47.335 7.30762
c16.083 -12.6621 25.5957 -32.9238 34.96 -51.4453z" />
    <glyph glyph-name="R" unicode="R" horiz-adv-x="745" 
d="M365.909 -34.6924c2.35352 -20.6426 -33.8799 -26.8896 -47.1689 -26.8984c-17.7002 0 -44.3418 5.99512 -47.166 26.8838c-12.2012 90.3145 -20.9053 181.064 -26.1123 272.03c-5.5625 2.43457 -10.5068 5.5459 -14.3174 9.40723
c-15.5078 15.7109 -2.65039 29.8125 11.9219 38.1445c-1.13867 26.2607 -2.07031 52.5303 -2.60352 78.8125c-2.68848 131.803 -3.89941 268.686 19.1436 398.854c6.875 38.8389 103.476 40.5537 102.201 0.000976562
c-2.08691 -66.4873 -9.06348 -132.738 -12.9033 -199.154c-3.84375 -66.4922 -5.78223 -133.099 -5.79883 -199.701c0 -10.7402 0.130859 -21.4727 0.228516 -32.209c60.9248 30.1133 120.122 64.2148 173.528 105.534c68.1348 52.7119 150.773 123.479 170.565 211.49
c10.4736 46.5732 -0.507812 90.5254 -35.5703 123.132c-30.498 28.3643 -70.1914 44.9297 -109.906 55.7461c-80.8057 22.0059 -168.089 17.8652 -247.426 -8.13672c-40.9639 -13.4248 -79.7773 -32.666 -115.259 -57.1533
c-35.0957 -24.2246 -72.1221 -54.3164 -85.1191 -96.4443c-4.85547 -15.7363 -49.4258 -12.1377 -43.6299 6.8584c15.2871 50.0957 62.6396 85.7764 104.556 113.511c44.9434 29.7402 95.4238 51.6914 147.581 65.1201c93.1123 23.9746 193.172 23.1367 284.786 -7.1709
c89.7002 -29.6768 171.865 -99.585 161.247 -202.854c-10.2109 -99.3018 -91.2158 -184.866 -165.188 -244.821c-54.0195 -43.7832 -112.76 -79.8525 -174.091 -111.384c20.5117 -0.482422 40.8877 -4.77051 60.5605 -14.5205
c43.0508 -21.333 72.3936 -67.4619 98.7646 -105.924c53.0039 -77.3086 100.246 -159.842 177.132 -216.55c15.3428 -11.3125 18.5098 -26.5918 0.000976562 -37.459c-17.8193 -10.4609 -48.1104 -11.7695 -65.7178 0c-71.2588 47.6318 -113.332 121.296 -158.145 192.081
c-22.7002 35.8623 -45.9131 72.127 -73.833 104.213c-11.6758 13.416 -26.3408 31.1592 -45.3877 32.0781c-18.6484 0.901367 -39.2998 -9.05176 -56.75 -16.583c3.50098 -85.8438 10.1309 -171.548 19.876 -256.935z" />
    <glyph glyph-name="S" unicode="S" horiz-adv-x="572" 
d="M408.933 551.459c15.8203 42.4922 33.5898 85.9492 41.5869 130.728c6.58691 36.9209 11.1211 85.4756 -16.3379 115.491c-46.0781 50.3711 -129.119 7.6123 -169.9 -27.8223c-47.043 -40.875 -81.8516 -102.926 -96.8506 -163.165
c-16.8584 -67.7158 10.9219 -135.698 56.9873 -185.375c49.7734 -53.6768 114.911 -88.8027 172.504 -132.903c52.5508 -40.2402 106.647 -92.4141 116.47 -161.234c9.79688 -68.6641 -20.6045 -135.135 -78.917 -171.937
c-54.5615 -34.4316 -127.035 -44.4736 -188.438 -23.9072c-61.0225 20.4395 -100.525 73.0459 -108.396 136.266c-8.53027 68.5195 22.6875 132.675 64.1807 184.98c8.30176 10.4697 48.292 3.61133 38.8086 -9.32617c-46.0098 -62.75 -78.4639 -145.182 -44.0879 -220.898
c34.292 -75.5352 123.691 -92.0967 193.295 -55.3965c33.5977 17.7178 60.3115 46.1846 71.9922 82.7197c12.6543 39.584 -7.37012 73.3926 -32.4746 103.234c-47.251 56.1748 -110.187 94.9375 -171.603 133.581c-64.0742 40.3164 -126.607 82.9482 -170.044 146.273
c-41.5479 60.5693 -48.8252 132.015 -21.5186 199.976c48.5039 120.707 173.613 227.667 307.601 228.064c66.8857 0.194336 131.625 -29.1777 144.965 -99.8057c14.1016 -74.6709 -20.9561 -152.873 -51.9033 -218.646
c-9.24609 -19.6523 -67.1055 -15.5752 -57.9189 9.10254z" />
    <glyph glyph-name="T" unicode="T" horiz-adv-x="556" 
d="M774.813 823.616c0 -13.8818 -18.4814 -19.9473 -29.1924 -21.8564c-27.8184 -4.94434 -57.3223 -4.05566 -85.5303 -5.57129c-26.3662 -1.41406 -52.7285 -2.95117 -79.0869 -4.60254c-39.207 -2.45508 -78.3926 -5.24902 -117.562 -8.24609
c-6.13477 -138.106 -12.9463 -275.972 -12.5361 -414.294c0.415039 -140.066 1.89648 -282.517 17.6201 -421.83c2.45508 -21.7607 -35.6807 -28.335 -49.7109 -28.335c-18.7373 0 -46.624 6.3252 -49.71 28.335c-9.80078 69.8662 -11.7441 141.074 -14.5977 211.499
c-2.84082 70.0693 -4.38184 140.198 -4.64453 210.327c-0.503906 135.258 1.92188 271.29 14.0684 406.103c-33.3311 -2.94238 -66.6572 -6.01172 -99.9541 -9.33105c-51.416 -5.12695 -106.397 -6.68945 -156.696 -18.666
c-16.1934 -3.85645 -52.4492 0.686523 -56.8398 21.583c-4.70312 22.3916 29.3174 29.3682 44.7314 29.4102c26.3965 0.0722656 53.5293 5.06738 79.8154 7.66211c27.6836 2.73438 55.3457 5.61328 83.0371 8.26758c52.5889 5.04199 105.225 9.61426 157.898 13.7207
c54.998 4.28906 110.025 8.18359 165.087 11.5234c54.1045 3.28125 110.567 10.6094 164.617 6.15137c10.8164 -0.888672 29.1855 -8.67871 29.1855 -21.8496z" />
    <glyph glyph-name="U" unicode="U" horiz-adv-x="677" 
d="M625.229 796.289c5.5166 -148.195 1.4707 -297.678 -26.9062 -443.607c-12.375 -63.626 -29.5 -126.139 -51.5859 -187.08c-19.3555 -53.4062 -41.8398 -109.67 -75.7588 -155.727c-74.7051 -101.432 -223.463 -90.6064 -304.819 -2.27344
c-42.8945 46.5732 -64.9678 106.554 -81.3301 166.699c-17.916 65.8525 -27.9961 133.179 -32.208 201.254c-8.58105 138.775 5.39844 277.407 20.3428 415.238c4.4541 41.0908 106.711 38.4199 102.664 0.000976562c-14.915 -141.6 -30.541 -284.478 -21.7012 -427.017
c3.87793 -62.5078 12.2051 -125.427 27.5771 -186.195c13.1748 -52.085 31.2861 -107.43 65.8447 -149.574c26.5273 -32.3525 73.5234 -66.4668 116.858 -48.2334c46.5859 19.6055 80.6318 65.0654 102.761 108.836c109.433 216.474 124.809 469.44 117.184 707.679
c-0.512695 15.9648 40.4766 16.1807 41.0781 0z" />
    <glyph glyph-name="U" unicode="&#xdc;" horiz-adv-x="677" 
d="M625.229 796.289c5.5166 -148.195 1.4707 -297.678 -26.9062 -443.607c-12.375 -63.626 -29.5 -126.139 -51.5859 -187.08c-19.3555 -53.4062 -41.8398 -109.67 -75.7588 -155.727c-74.7051 -101.432 -223.463 -90.6064 -304.819 -2.27344
c-42.8945 46.5732 -64.9678 106.554 -81.3301 166.699c-17.916 65.8525 -27.9961 133.179 -32.208 201.254c-8.58105 138.775 5.39844 277.407 20.3428 415.238c4.4541 41.0908 106.711 38.4199 102.664 0.000976562c-14.915 -141.6 -30.541 -284.478 -21.7012 -427.017
c3.87793 -62.5078 12.2051 -125.427 27.5771 -186.195c13.1748 -52.085 31.2861 -107.43 65.8447 -149.574c26.5273 -32.3525 73.5234 -66.4668 116.858 -48.2334c46.5859 19.6055 80.6318 65.0654 102.761 108.836c109.433 216.474 124.809 469.44 117.184 707.679
c-0.512695 15.9648 40.4766 16.1807 41.0781 0z" />
    <glyph glyph-name="U" unicode="&#xdb;" horiz-adv-x="677" 
d="M625.229 796.289c5.5166 -148.195 1.4707 -297.678 -26.9062 -443.607c-12.375 -63.626 -29.5 -126.139 -51.5859 -187.08c-19.3555 -53.4062 -41.8398 -109.67 -75.7588 -155.727c-74.7051 -101.432 -223.463 -90.6064 -304.819 -2.27344
c-42.8945 46.5732 -64.9678 106.554 -81.3301 166.699c-17.916 65.8525 -27.9961 133.179 -32.208 201.254c-8.58105 138.775 5.39844 277.407 20.3428 415.238c4.4541 41.0908 106.711 38.4199 102.664 0.000976562c-14.915 -141.6 -30.541 -284.478 -21.7012 -427.017
c3.87793 -62.5078 12.2051 -125.427 27.5771 -186.195c13.1748 -52.085 31.2861 -107.43 65.8447 -149.574c26.5273 -32.3525 73.5234 -66.4668 116.858 -48.2334c46.5859 19.6055 80.6318 65.0654 102.761 108.836c109.433 216.474 124.809 469.44 117.184 707.679
c-0.512695 15.9648 40.4766 16.1807 41.0781 0z" />
    <glyph glyph-name="U" unicode="&#xda;" horiz-adv-x="677" 
d="M625.229 796.289c5.5166 -148.195 1.4707 -297.678 -26.9062 -443.607c-12.375 -63.626 -29.5 -126.139 -51.5859 -187.08c-19.3555 -53.4062 -41.8398 -109.67 -75.7588 -155.727c-74.7051 -101.432 -223.463 -90.6064 -304.819 -2.27344
c-42.8945 46.5732 -64.9678 106.554 -81.3301 166.699c-17.916 65.8525 -27.9961 133.179 -32.208 201.254c-8.58105 138.775 5.39844 277.407 20.3428 415.238c4.4541 41.0908 106.711 38.4199 102.664 0.000976562c-14.915 -141.6 -30.541 -284.478 -21.7012 -427.017
c3.87793 -62.5078 12.2051 -125.427 27.5771 -186.195c13.1748 -52.085 31.2861 -107.43 65.8447 -149.574c26.5273 -32.3525 73.5234 -66.4668 116.858 -48.2334c46.5859 19.6055 80.6318 65.0654 102.761 108.836c109.433 216.474 124.809 469.44 117.184 707.679
c-0.512695 15.9648 40.4766 16.1807 41.0781 0z" />
    <glyph glyph-name="V" unicode="V" horiz-adv-x="706" 
d="M305.431 735.178c6.47754 51.4971 18.9092 102.821 39.3828 150.597c19.0889 44.5537 45.7979 91.7666 84.6152 122.066c35.917 28.0391 83.8281 35.9941 124.843 13.8867c41.7686 -22.5137 65.8955 -68.5488 79.248 -112.239
c16.3203 -53.3848 19.9658 -110.225 21.8027 -165.705c2.02344 -61.1494 -0.393555 -122.366 -5.5459 -183.312c-8.33984 -98.6201 -23.6904 -197.528 -46.166 -294.201c15.042 -2.01953 29.3848 -11.1934 13.8691 -20.5244
c-6.80762 -4.09766 -13.958 -7.4043 -21.2949 -10.1221c-1.78613 -7.16309 -3.49609 -14.3477 -5.36328 -21.4766c-14 -53.457 -31.1455 -106.194 -53.2363 -156.887c-20.0625 -46.0479 -43.2031 -95.6943 -77.6895 -132.924
c-74.8027 -80.7588 -206.58 -40.5947 -269.512 34.5381c-35.0879 41.8906 -55.0488 96.8848 -69.6885 148.784c-15.4609 54.7988 -25.7354 110.627 -32.5469 167.111c-13.623 112.989 -20.96 226.432 -37.9658 339.048c-4.4707 29.5928 75.0225 32.7129 82.6387 6.37598
c59.9678 -207.358 42.0088 -434.89 142.915 -630.822c18.6279 -36.1709 39.4062 -73.7305 83.9561 -78.9629c46.7637 -5.49121 78.5488 44.7275 98.6289 79.5273c42.6787 73.9639 71.8438 154.804 93.625 237.205c-29.9268 -0.880859 -60.3662 7.20508 -86.0381 22.543
c-49.1895 29.3896 -79.8828 81.4072 -103.701 131.858c-51.5352 109.166 -71.8438 233.822 -56.7764 353.636zM430.195 959.26c-56.5771 -76.293 -80.832 -174.346 -85.3916 -267.937c-4.58496 -94.2939 11.6553 -189.181 48.1699 -276.277
c17.8145 -42.4961 39.4229 -86.5 71.5049 -120.136c24.6904 -25.8877 59.6172 -46.4199 94.3242 -40.832c0.253906 1.04102 0.524414 2.08203 0.77832 3.12793c24.7744 102.092 42.2588 206.745 51.3994 311.398c8.63672 98.8955 11.6172 204.104 -8.09375 301.92
c-8.84375 43.8887 -25.6895 92.9932 -60.6885 123.06c-19.4658 16.7227 -40.8154 22.8447 -64.3203 10.5381c-19.3516 -10.1309 -34.8467 -27.5518 -47.6826 -44.8623z" />
    <glyph glyph-name="W" unicode="W" horiz-adv-x="907" 
d="M301.376 13.4854c-78.8584 -40.291 -174.038 -24.9102 -214.112 60.3408c-40.7178 86.6094 -37.3398 193.828 -37.1025 287.359c0.257812 103.142 6.75195 206.753 15.8115 309.467c3.59863 40.8154 105.263 39.6133 103.125 0
c-5.49512 -101.809 -13.5684 -203.278 -14.9609 -305.285c-1.16406 -85.1191 -3.44141 -175.925 20.9307 -258.377c7.54395 -25.5195 21.2949 -63.8672 47.9365 -75.8271c30.2822 -13.5938 59.8496 19.8467 76.3096 40.2988
c52.3945 65.0947 73.3506 151.531 86.1611 232.257c10.042 63.2832 16.3799 127.248 21.7227 191.2c-1.61719 37.458 -1.58301 74.8906 0.449219 111.879c1.3291 24.1865 61.4238 27.332 66.7197 5.14844c40.9854 -171.653 43.7588 -354.081 127.261 -513.33
c8.20508 -15.6426 17.8105 -29.4443 30.7568 -41.5273c4.80469 -4.4834 9.25391 -8.21289 15.4092 -10.8506c2.34082 -1.00293 5.13086 -1.36719 7.39551 -2.49316c29.3721 8.40332 48.6689 39.1475 61.5684 65.1924c26.0576 52.6064 43.2881 109.459 55.6963 167.026
c-64.1377 44.2617 -109.326 113.146 -138.199 184.658c-37.3057 92.3887 -54.5146 196.771 -45.8701 296.106c6.69727 76.9951 33.6143 175.895 117.819 198.413c32.8018 8.77148 67.7324 3.58984 91.8555 -21.9258c25.3594 -26.8232 34.8086 -65.1074 42.6113 -100.089
c20.9219 -93.79 17.7217 -192.288 11.8154 -287.598c-5.05957 -81.6611 -14.4795 -163.576 -29.7119 -244.106c5.22852 -4.16602 10.5547 -8.23828 16.0713 -12.1328c11.2402 -7.92969 12.4932 -18.501 0 -26.2607c-6.94336 -4.30957 -16.0625 -6.04102 -25.0293 -5.62598
c-8.78418 -40.041 -19.6562 -79.6885 -34.4521 -117.955c-13.3652 -34.5713 -29.3301 -71.6914 -56.0693 -98.2568c-27.0439 -26.8701 -65.8359 -41.2598 -103.849 -36.4121c-46.3701 5.91406 -81.5039 33.0557 -107.972 70.04
c-45.6504 63.7871 -66.9492 142.807 -81.0635 219.743c-3.52637 -21.6162 -7.58203 -43.1143 -12.3447 -64.4424c-18.3105 -81.9531 -34.9395 -174.866 -116.689 -216.635zM657.403 650.866c10.8545 -112.904 48.5752 -230.122 126.591 -313.595
c13.3486 81.0176 21.7734 162.856 25.2871 244.886c3.4668 80.8857 4.47461 163.613 -12.4043 243.212c-6.75293 31.8447 -15.4229 73.2695 -40.1934 96.8203c-15.1514 14.4111 -26.5781 12.6797 -40.7686 -1.0791c-11.8203 -11.4648 -20.207 -24.1611 -27.7891 -38.6992
c-36.0186 -69.0664 -38.0215 -155.638 -30.7227 -231.545zM656.163 43.2734c3.49707 -1.79102 2.39648 -0.431641 0 0z" />
    <glyph glyph-name="X" unicode="X" horiz-adv-x="552" 
d="M612.246 -43.1758c6.11328 -2.98438 15.0449 -11.9609 6.43359 -18.3369c-65.6963 -48.6348 -163.352 -31.3623 -221.546 21.3369c-53.3467 48.3086 -87.2783 122.552 -116.291 186.982c-21.7393 48.2754 -40.2188 97.876 -56.6445 148.162
c-31.3535 -50.4551 -61.2334 -102.405 -85.7285 -156.502c-27.4717 -60.6797 -41.874 -120.83 -34.6895 -187.555c2.0918 -19.4238 -47.4072 -19.665 -50.8027 0c-12.0312 69.7227 14.3945 143.217 44.3301 205.285c31.8613 66.0645 69.5312 129.64 110.631 190.865
c-2.0791 6.97656 -4.1582 13.9531 -6.17383 20.9473c-22.1709 76.9277 -40.9805 154.757 -60.5566 232.37c-10.1182 40.1084 -20.8379 79.9883 -32.2559 119.745c-5.92285 20.626 -13.2383 40.8662 -19.0039 61.5176c-4.60645 16.4941 -3.9209 27.582 12.4717 36.4004
c13.1963 7.0957 57.0049 12.4678 62.2627 -9.36914c4.03906 -16.7734 12.5654 -32.3271 18.6025 -48.5459c7.09082 -19.0596 13.4199 -38.2969 19.0674 -57.8301c11.3076 -39.1221 21.29 -78.6299 31.4248 -118.069c12.5566 -48.8633 25.0371 -97.8662 38.4365 -146.611
c10.3848 13.9072 20.8838 27.6963 31.4893 41.3496c38.2881 49.2822 79.502 95.9023 119.641 143.636c38.0977 45.3076 74.0488 96.0254 85.0938 155.4c2.78125 14.9785 40.4297 14.7588 38.7617 0.000976562c-7.27344 -64.4346 -43.4912 -116.503 -83.8203 -165.299
c-61.082 -73.9004 -121.778 -146.979 -177.166 -224.618c19.3936 -66.5684 41.1455 -132.388 67.8672 -196.416c24.876 -59.6123 53.042 -121.554 91.7236 -173.664c29.6006 -39.8799 81.085 -91.9609 133.699 -62.292c9.28027 5.23242 23.1201 5.8125 32.7432 1.10938z" />
    <glyph glyph-name="Y" unicode="Y" horiz-adv-x="686" 
d="M586.751 79.8467c-19.6475 -92.4775 -55.4521 -186.252 -135.259 -243.087c-75.1113 -53.499 -196.64 -67.7871 -270.938 -5.35938c-65.2266 54.8076 -36.9297 175.413 30.2607 216.812c13.9922 8.61914 55.2441 -3.14551 32.6494 -18.6104
c-67.3301 -46.0908 -41.916 -183.093 44.3594 -188.283c70.2432 -4.22949 127.426 65.2939 154.677 121.854c37.3057 77.4277 49.3203 167.005 54.3877 251.938c5.7998 97.2744 0.0927734 194.489 -5.32617 291.733c-4.7793 -20.1943 -10.0713 -40.2744 -16.0449 -60.1846
c-22.5352 -75.1201 -53.2197 -165.002 -114.072 -218.234c-56.0225 -49.0029 -142.738 -55.7559 -205.271 -13.7969c-73.0625 49.0205 -88.8369 141.777 -99.374 222.786c-12.0234 92.4395 -7.55664 187.397 9.08984 278.981
c4.28809 23.5723 32.3477 30.3164 53.1855 30.3164c14.2285 0 57.6221 -7.51074 53.1855 -30.3164c-17.7002 -90.9326 -22.7422 -182.517 -17.3486 -274.939c3.83984 -65.8018 8.60254 -148.678 56.1963 -199.599c9.72852 -10.4102 20.5703 -22.8359 34.6045 -27.3867
c14.9482 -4.84766 32.8984 0.740234 46.6494 7.08203c33.6777 15.5283 57.8555 45.6123 76.3184 76.8682c73.626 124.631 99.6201 272.801 116.013 415.099c0.186523 19.9189 0.711914 39.8467 1.71973 59.7783c1.83691 36.2988 92.418 35.7656 92.0117 0.000976562
c-1.41797 -124.821 15.2617 -248.534 22.4209 -372.933c6.12207 -106.436 8.18359 -215.665 -14.0938 -320.521z" />
    <glyph glyph-name="Y" unicode="&#x178;" horiz-adv-x="686" 
d="M586.751 79.8467c-19.6475 -92.4775 -55.4521 -186.252 -135.259 -243.087c-75.1113 -53.499 -196.64 -67.7871 -270.938 -5.35938c-65.2266 54.8076 -36.9297 175.413 30.2607 216.812c13.9922 8.61914 55.2441 -3.14551 32.6494 -18.6104
c-67.3301 -46.0908 -41.916 -183.093 44.3594 -188.283c70.2432 -4.22949 127.426 65.2939 154.677 121.854c37.3057 77.4277 49.3203 167.005 54.3877 251.938c5.7998 97.2744 0.0927734 194.489 -5.32617 291.733c-4.7793 -20.1943 -10.0713 -40.2744 -16.0449 -60.1846
c-22.5352 -75.1201 -53.2197 -165.002 -114.072 -218.234c-56.0225 -49.0029 -142.738 -55.7559 -205.271 -13.7969c-73.0625 49.0205 -88.8369 141.777 -99.374 222.786c-12.0234 92.4395 -7.55664 187.397 9.08984 278.981
c4.28809 23.5723 32.3477 30.3164 53.1855 30.3164c14.2285 0 57.6221 -7.51074 53.1855 -30.3164c-17.7002 -90.9326 -22.7422 -182.517 -17.3486 -274.939c3.83984 -65.8018 8.60254 -148.678 56.1963 -199.599c9.72852 -10.4102 20.5703 -22.8359 34.6045 -27.3867
c14.9482 -4.84766 32.8984 0.740234 46.6494 7.08203c33.6777 15.5283 57.8555 45.6123 76.3184 76.8682c73.626 124.631 99.6201 272.801 116.013 415.099c0.186523 19.9189 0.711914 39.8467 1.71973 59.7783c1.83691 36.2988 92.418 35.7656 92.0117 0.000976562
c-1.41797 -124.821 15.2617 -248.534 22.4209 -372.933c6.12207 -106.436 8.18359 -215.665 -14.0938 -320.521z" />
    <glyph glyph-name="Y" unicode="&#xdd;" horiz-adv-x="686" 
d="M586.751 79.8467c-19.6475 -92.4775 -55.4521 -186.252 -135.259 -243.087c-75.1113 -53.499 -196.64 -67.7871 -270.938 -5.35938c-65.2266 54.8076 -36.9297 175.413 30.2607 216.812c13.9922 8.61914 55.2441 -3.14551 32.6494 -18.6104
c-67.3301 -46.0908 -41.916 -183.093 44.3594 -188.283c70.2432 -4.22949 127.426 65.2939 154.677 121.854c37.3057 77.4277 49.3203 167.005 54.3877 251.938c5.7998 97.2744 0.0927734 194.489 -5.32617 291.733c-4.7793 -20.1943 -10.0713 -40.2744 -16.0449 -60.1846
c-22.5352 -75.1201 -53.2197 -165.002 -114.072 -218.234c-56.0225 -49.0029 -142.738 -55.7559 -205.271 -13.7969c-73.0625 49.0205 -88.8369 141.777 -99.374 222.786c-12.0234 92.4395 -7.55664 187.397 9.08984 278.981
c4.28809 23.5723 32.3477 30.3164 53.1855 30.3164c14.2285 0 57.6221 -7.51074 53.1855 -30.3164c-17.7002 -90.9326 -22.7422 -182.517 -17.3486 -274.939c3.83984 -65.8018 8.60254 -148.678 56.1963 -199.599c9.72852 -10.4102 20.5703 -22.8359 34.6045 -27.3867
c14.9482 -4.84766 32.8984 0.740234 46.6494 7.08203c33.6777 15.5283 57.8555 45.6123 76.3184 76.8682c73.626 124.631 99.6201 272.801 116.013 415.099c0.186523 19.9189 0.711914 39.8467 1.71973 59.7783c1.83691 36.2988 92.418 35.7656 92.0117 0.000976562
c-1.41797 -124.821 15.2617 -248.534 22.4209 -372.933c6.12207 -106.436 8.18359 -215.665 -14.0938 -320.521z" />
    <glyph glyph-name="Z" unicode="Z" horiz-adv-x="645" 
d="M165.748 122.838c28.5381 51.1709 65.9199 98.8213 102.997 144.031c24.292 29.626 49.0371 58.8076 73.4268 88.2178c-9.01758 8.12793 -17.9883 16.3027 -26.8916 24.5586c-16.4092 15.2197 27.916 24.3682 39.8672 13.2852
c3.4248 -3.17969 6.9043 -6.2959 10.3457 -9.4541c42.1025 51.8105 82.2998 104.979 116.193 163.132c26.7598 45.9131 70.1201 120.373 43.0254 174.359c-28.1064 55.9932 -108.392 68.584 -163.254 57.4072c-64.1719 -13.0732 -121.625 -53.4736 -167.698 -98.5566
c-23.0986 -22.6025 -44.0332 -47.4961 -61.9707 -74.3877c-17.916 -26.8623 -35.0537 -55.6162 -36.9883 -88.5576c-1.0459 -17.8232 -45.752 -17.1377 -44.7822 0c3.82715 67.7705 60.6494 133.348 107.273 178.46c49.8623 48.2412 110.783 88.6035 178.791 105.182
c112.435 27.4121 258.284 -23.4033 258.682 -157.623c0.168945 -58.4863 -27.2051 -117.832 -54.4736 -168.312c-28.4873 -52.7412 -63.6768 -101.109 -99.4033 -149.101c-1.29102 -1.73535 -2.59082 -3.4668 -3.88672 -5.20215
c11.9727 -10.1816 24.0039 -20.2959 36.1631 -30.2617c8.64062 -7.08301 -1.5625 -15.6221 -8.28125 -18.0059c-10.2236 -3.62793 -23.1357 -2.20508 -31.5859 4.7207c-5.97754 4.90234 -11.8877 9.88086 -17.8193 14.834
c-61.7627 -82.1309 -124.034 -164.439 -167.72 -257.976c-10.4062 -22.2773 -23.7676 -52.9873 -11.0371 -76.9658c9.25 -17.4336 23.9951 -15.1182 40.3623 -14.7842c65.7891 1.3418 125.604 25.2695 183.438 54.6162c16.2402 8.24316 39.8467 9.88574 55.8965 0
c14.8555 -9.15332 13.4248 -22.4551 0 -31.8623c-61.0479 -42.7803 -139.021 -64.6846 -212.338 -73.3037c-59.9512 -7.05273 -162.911 -8.7627 -184.045 65.0107c-16.0791 56.1279 19.1562 118.92 45.7129 166.539z" />
    <glyph glyph-name="bracketleft" unicode="[" horiz-adv-x="470" 
d="M403.788 -180.924c11.1719 -4.97461 23.5469 -19.1279 10.541 -30.0801c-83.917 -70.6787 -219.403 -102.032 -309.7 -22.835c-38.6738 33.9238 -47.0947 84.625 -51.1973 133.285c-4.50488 53.4609 -3.85742 107.176 -2.0918 160.743
c3.57324 108.442 10.3262 216.749 20.8506 324.734c10.7109 109.902 24.7871 219.322 42.9238 328.251c4.61035 27.6787 9.18262 55.3701 13.9961 83.0156c3.9707 22.8184 6.19336 47.1016 12.8574 69.3359c15.4521 51.5771 81.6436 37.209 121.185 31.4854
c24.8252 -3.59473 14.2627 -24.293 -5.70703 -24.0352c-9.16602 0.118164 -33.9658 1.44727 -42.4961 -3.1416c-0.295898 2.23535 -0.689453 1.79492 -1.17676 -1.32129c-1.10059 -2.67969 -1.49805 -5.49121 -1.18945 -8.43359
c-0.415039 -4.52148 -0.220703 -9.67773 -0.373047 -14.0938c-0.84668 -24.9062 -1.84961 -49.8076 -2.9375 -74.7012c-2.17578 -49.8115 -3.61133 -99.7041 -6.76074 -149.465c-11.5703 -182.919 -25.4609 -366.028 -30.7109 -549.265
c-1.2959 -45.3535 -2.02441 -90.7705 0.291016 -136.104c1.97754 -38.6484 1.40625 -86.7373 23.2383 -120.517c7.50586 -11.6211 18.7207 -20.9648 31.1377 -27.0615c7.94238 -3.89941 20.5283 -6.13867 24.6094 -6.27832
c35.1719 -1.18945 69.4043 17.7178 98.9922 34.6562c15.5791 8.91992 37.5342 9.02539 53.7188 1.82422z" />
    <glyph glyph-name="backslash" unicode="\" horiz-adv-x="398" 
d="M347.229 -227.065c12.3369 -48.542 -96.2578 -56.0703 -109.264 -17.1768c-53.6094 160.324 -79.5273 331.444 -105.056 498.106c-12.7217 83.0537 -24.6348 166.226 -38.3604 249.123c-13.873 83.8027 -30.0322 167.152 -44.3369 250.85
c-4.61914 27.0225 67.4355 29.292 75.3604 5.81738c53.8848 -159.583 80.5732 -328.976 112.541 -493.914c15.8164 -81.6104 30.6631 -163.373 48.3301 -244.614c18.1152 -83.3037 39.7998 -165.6 60.7852 -248.191z" />
    <glyph glyph-name="bracketright" unicode="]" horiz-adv-x="395" 
d="M333.425 431.792c10.6094 -107.892 13.8643 -216.945 10.5371 -325.294c-3.14551 -102.219 -6.65918 -211.541 -41.417 -308.874c-15.0117 -42.043 -42.792 -80.7803 -82.5918 -102.295c-45.9004 -24.8086 -110.534 -32.3447 -156.303 -3.35742
c-15.9395 10.0928 -18.8057 25.0713 -3.87012 37.0312c17.2266 13.7969 43.7705 12.8867 63.8291 7.26465c0.804688 -0.224609 1.44824 -0.385742 2.08789 -0.541992c1.36719 0.110352 3.90332 0.275391 4.7793 0.495117c0.126953 0.21582 9.54688 4.99121 11.7314 6.52832
c13.6621 9.59277 23.2637 23.7959 30.7441 38.4863c19.7412 38.7705 29.0166 83.2646 36.1377 125.837c14.458 86.4062 17.1123 174.582 19.1406 262.005c2.06641 89.0439 0.974609 177.885 -2.7002 266.878c-3.64551 88.3584 -8.6748 178.021 -20.6299 265.685
c-5.44043 39.8457 -12.5566 80.9199 -30.668 117.193c-7.67969 15.3887 -35.6631 62.2627 -58.9648 51.4756c-15.4648 -7.1543 -37.0732 -9.68555 -52.2969 0.000976562c-12.0996 7.70117 -14.6436 22.709 0 29.8086c46.9961 22.7852 104.839 16.3506 145.079 -17.5771
c39.0371 -32.9199 57.0635 -88.5273 71.457 -135.723c31.0449 -101.771 43.542 -209.497 53.918 -315.026zM126.34 -264.438c5.32617 -1.24902 4.20801 -0.0244141 1.11719 -0.0078125c-0.431641 0 -0.799805 0.00390625 -1.11719 0.0078125z" />
    <glyph glyph-name="asciicircum" unicode="^" horiz-adv-x="313" 
d="M260.344 517.31c5.06738 -41.8145 1.4502 -84.0605 -2.07617 -125.837c-3.06055 -36.248 -93.5566 -34.2246 -90.623 -0.000976562c2.47266 28.8174 4.9873 57.7236 4.63574 86.6729c-0.0722656 5.77832 0.194336 13.877 0.109375 22.6484
c-1.44824 -2.27734 -2.87109 -4.57227 -4.25977 -6.89258c-12.9082 -21.5654 -22.7178 -44.5195 -30.1396 -68.5029c-9.70703 -31.3701 -98.5859 -24.1348 -86.9395 13.667c19.8213 64.3496 68.7568 161.522 149.338 151.819
c43.9316 -5.29199 55.2393 -34.6641 59.9551 -73.5742zM205.696 542.029c1.73535 1.03711 1.79883 1.47754 0 0z" />
    <glyph glyph-name="underscore" unicode="_" horiz-adv-x="448" 
d="M369.412 -95.5723c12.0361 -1.22754 31.8066 -9.96875 28.6396 -25.0059c-3.31055 -15.7275 -26.1846 -19.457 -39.2744 -19.7617c-44.9473 -1.04102 -89.8818 0.711914 -134.847 0.216797c-44.6768 -0.495117 -90.1748 -5.39746 -134.754 -3.34375
c-12.6709 0.583984 -35.5107 3.83984 -38.8174 19.5332c-3.26367 15.5117 16.418 22.5771 28.3145 24.7197c47.0518 8.47168 97.5371 7.36719 145.262 8.04004c48.6055 0.685547 97.0918 0.541992 145.477 -4.39844z" />
    <glyph glyph-name="grave" unicode="`" horiz-adv-x="194" 
d="M142.988 478.886c11.5957 -27.4502 -58.5088 -35.0762 -67.293 -10.5723c-11.333 31.5908 -56.0303 131.371 8.21777 130.546c9.30957 -0.118164 24.3262 -6.94238 20.5244 -15.291c10.6602 -35.6846 24.0596 -70.374 38.5508 -104.683z" />
    <glyph glyph-name="a" unicode="a" horiz-adv-x="441" 
d="M435.263 215.697c4.75 13.8525 43.7744 10.7881 38.7197 -6.08691c-17.6797 -58.9307 -40.2949 -122.916 -76.5889 -173.249c-34.5625 -47.9277 -101.486 -56.5049 -148.47 -20.7021c-25.8369 19.6904 -38.7998 52.4668 -45.0312 87.5039
c-9.45801 -32.9287 -22.8525 -71.4199 -49.5488 -94.2129c-27.2256 -23.2422 -67.1094 -23.0557 -98.5352 -9.41895c-85.8643 37.2598 -88.21 134.817 -77.0889 214.976c11.2188 80.8564 51.2725 158.749 134.029 185.086c36.3193 11.5576 78.7178 8.66211 112.565 -9.5127
c0.884766 3.64551 1.75293 7.29492 2.64648 10.9355c0.491211 1.99805 1.8125 3.64062 3.6748 4.96582c8.28516 19.6523 46.1758 22.2393 62.6904 21.0713c14.3428 -1.01562 53.7236 -9.96094 50.3281 -32.4961c-8.07324 -53.6094 -19.9141 -106.566 -24.8887 -160.638
c-4.81738 -52.3818 -2.35352 -103.807 2.44727 -156.027c0.957031 -10.4229 2.27344 -20.8838 5.44043 -30.8711c1.63867 -5.17773 4.59766 -19.5508 9.72852 -22.7256c-2.80664 1.73535 1.73145 4.65234 6.10059 8.37402c4.70801 4.00879 8.63281 8.85645 12.3242 13.7754
c6.63379 8.84375 11.9639 18.6064 17.3027 28.2676c24.8555 44.998 45.4814 92.3799 62.1533 140.985zM171.805 155.806c14.2246 62.0977 27.6943 124.368 42.1182 186.406c-10.9102 9.02637 -29.1055 21.8838 -43.7539 20.8428
c-26.54 -1.8877 -46.8564 -43.0254 -57.6777 -62.9697c-18.2461 -33.6309 -27.8389 -71.0303 -32.4531 -108.802c-4.75 -38.8682 -7.46777 -79.2266 0.211914 -117.832c2.78125 -13.9668 7.35352 -29.5 15.9814 -41.125c4.83496 -6.51562 10.1816 -13.1494 18.6699 -10.2451
c6.62988 2.26953 13.0098 14.2969 16.4639 19.7158c21.7773 34.1562 31.5107 75.0225 40.4395 114.009z" />
    <glyph glyph-name="a" unicode="&#xe5;" horiz-adv-x="441" 
d="M435.263 215.697c4.75 13.8525 43.7744 10.7881 38.7197 -6.08691c-17.6797 -58.9307 -40.2949 -122.916 -76.5889 -173.249c-34.5625 -47.9277 -101.486 -56.5049 -148.47 -20.7021c-25.8369 19.6904 -38.7998 52.4668 -45.0312 87.5039
c-9.45801 -32.9287 -22.8525 -71.4199 -49.5488 -94.2129c-27.2256 -23.2422 -67.1094 -23.0557 -98.5352 -9.41895c-85.8643 37.2598 -88.21 134.817 -77.0889 214.976c11.2188 80.8564 51.2725 158.749 134.029 185.086c36.3193 11.5576 78.7178 8.66211 112.565 -9.5127
c0.884766 3.64551 1.75293 7.29492 2.64648 10.9355c0.491211 1.99805 1.8125 3.64062 3.6748 4.96582c8.28516 19.6523 46.1758 22.2393 62.6904 21.0713c14.3428 -1.01562 53.7236 -9.96094 50.3281 -32.4961c-8.07324 -53.6094 -19.9141 -106.566 -24.8887 -160.638
c-4.81738 -52.3818 -2.35352 -103.807 2.44727 -156.027c0.957031 -10.4229 2.27344 -20.8838 5.44043 -30.8711c1.63867 -5.17773 4.59766 -19.5508 9.72852 -22.7256c-2.80664 1.73535 1.73145 4.65234 6.10059 8.37402c4.70801 4.00879 8.63281 8.85645 12.3242 13.7754
c6.63379 8.84375 11.9639 18.6064 17.3027 28.2676c24.8555 44.998 45.4814 92.3799 62.1533 140.985zM171.805 155.806c14.2246 62.0977 27.6943 124.368 42.1182 186.406c-10.9102 9.02637 -29.1055 21.8838 -43.7539 20.8428
c-26.54 -1.8877 -46.8564 -43.0254 -57.6777 -62.9697c-18.2461 -33.6309 -27.8389 -71.0303 -32.4531 -108.802c-4.75 -38.8682 -7.46777 -79.2266 0.211914 -117.832c2.78125 -13.9668 7.35352 -29.5 15.9814 -41.125c4.83496 -6.51562 10.1816 -13.1494 18.6699 -10.2451
c6.62988 2.26953 13.0098 14.2969 16.4639 19.7158c21.7773 34.1562 31.5107 75.0225 40.4395 114.009z" />
    <glyph glyph-name="a" unicode="&#xe4;" horiz-adv-x="441" 
d="M435.263 215.697c4.75 13.8525 43.7744 10.7881 38.7197 -6.08691c-17.6797 -58.9307 -40.2949 -122.916 -76.5889 -173.249c-34.5625 -47.9277 -101.486 -56.5049 -148.47 -20.7021c-25.8369 19.6904 -38.7998 52.4668 -45.0312 87.5039
c-9.45801 -32.9287 -22.8525 -71.4199 -49.5488 -94.2129c-27.2256 -23.2422 -67.1094 -23.0557 -98.5352 -9.41895c-85.8643 37.2598 -88.21 134.817 -77.0889 214.976c11.2188 80.8564 51.2725 158.749 134.029 185.086c36.3193 11.5576 78.7178 8.66211 112.565 -9.5127
c0.884766 3.64551 1.75293 7.29492 2.64648 10.9355c0.491211 1.99805 1.8125 3.64062 3.6748 4.96582c8.28516 19.6523 46.1758 22.2393 62.6904 21.0713c14.3428 -1.01562 53.7236 -9.96094 50.3281 -32.4961c-8.07324 -53.6094 -19.9141 -106.566 -24.8887 -160.638
c-4.81738 -52.3818 -2.35352 -103.807 2.44727 -156.027c0.957031 -10.4229 2.27344 -20.8838 5.44043 -30.8711c1.63867 -5.17773 4.59766 -19.5508 9.72852 -22.7256c-2.80664 1.73535 1.73145 4.65234 6.10059 8.37402c4.70801 4.00879 8.63281 8.85645 12.3242 13.7754
c6.63379 8.84375 11.9639 18.6064 17.3027 28.2676c24.8555 44.998 45.4814 92.3799 62.1533 140.985zM171.805 155.806c14.2246 62.0977 27.6943 124.368 42.1182 186.406c-10.9102 9.02637 -29.1055 21.8838 -43.7539 20.8428
c-26.54 -1.8877 -46.8564 -43.0254 -57.6777 -62.9697c-18.2461 -33.6309 -27.8389 -71.0303 -32.4531 -108.802c-4.75 -38.8682 -7.46777 -79.2266 0.211914 -117.832c2.78125 -13.9668 7.35352 -29.5 15.9814 -41.125c4.83496 -6.51562 10.1816 -13.1494 18.6699 -10.2451
c6.62988 2.26953 13.0098 14.2969 16.4639 19.7158c21.7773 34.1562 31.5107 75.0225 40.4395 114.009z" />
    <glyph glyph-name="a" unicode="&#xe3;" horiz-adv-x="441" 
d="M435.263 215.697c4.75 13.8525 43.7744 10.7881 38.7197 -6.08691c-17.6797 -58.9307 -40.2949 -122.916 -76.5889 -173.249c-34.5625 -47.9277 -101.486 -56.5049 -148.47 -20.7021c-25.8369 19.6904 -38.7998 52.4668 -45.0312 87.5039
c-9.45801 -32.9287 -22.8525 -71.4199 -49.5488 -94.2129c-27.2256 -23.2422 -67.1094 -23.0557 -98.5352 -9.41895c-85.8643 37.2598 -88.21 134.817 -77.0889 214.976c11.2188 80.8564 51.2725 158.749 134.029 185.086c36.3193 11.5576 78.7178 8.66211 112.565 -9.5127
c0.884766 3.64551 1.75293 7.29492 2.64648 10.9355c0.491211 1.99805 1.8125 3.64062 3.6748 4.96582c8.28516 19.6523 46.1758 22.2393 62.6904 21.0713c14.3428 -1.01562 53.7236 -9.96094 50.3281 -32.4961c-8.07324 -53.6094 -19.9141 -106.566 -24.8887 -160.638
c-4.81738 -52.3818 -2.35352 -103.807 2.44727 -156.027c0.957031 -10.4229 2.27344 -20.8838 5.44043 -30.8711c1.63867 -5.17773 4.59766 -19.5508 9.72852 -22.7256c-2.80664 1.73535 1.73145 4.65234 6.10059 8.37402c4.70801 4.00879 8.63281 8.85645 12.3242 13.7754
c6.63379 8.84375 11.9639 18.6064 17.3027 28.2676c24.8555 44.998 45.4814 92.3799 62.1533 140.985zM171.805 155.806c14.2246 62.0977 27.6943 124.368 42.1182 186.406c-10.9102 9.02637 -29.1055 21.8838 -43.7539 20.8428
c-26.54 -1.8877 -46.8564 -43.0254 -57.6777 -62.9697c-18.2461 -33.6309 -27.8389 -71.0303 -32.4531 -108.802c-4.75 -38.8682 -7.46777 -79.2266 0.211914 -117.832c2.78125 -13.9668 7.35352 -29.5 15.9814 -41.125c4.83496 -6.51562 10.1816 -13.1494 18.6699 -10.2451
c6.62988 2.26953 13.0098 14.2969 16.4639 19.7158c21.7773 34.1562 31.5107 75.0225 40.4395 114.009z" />
    <glyph glyph-name="a" unicode="&#xe2;" horiz-adv-x="441" 
d="M435.263 215.697c4.75 13.8525 43.7744 10.7881 38.7197 -6.08691c-17.6797 -58.9307 -40.2949 -122.916 -76.5889 -173.249c-34.5625 -47.9277 -101.486 -56.5049 -148.47 -20.7021c-25.8369 19.6904 -38.7998 52.4668 -45.0312 87.5039
c-9.45801 -32.9287 -22.8525 -71.4199 -49.5488 -94.2129c-27.2256 -23.2422 -67.1094 -23.0557 -98.5352 -9.41895c-85.8643 37.2598 -88.21 134.817 -77.0889 214.976c11.2188 80.8564 51.2725 158.749 134.029 185.086c36.3193 11.5576 78.7178 8.66211 112.565 -9.5127
c0.884766 3.64551 1.75293 7.29492 2.64648 10.9355c0.491211 1.99805 1.8125 3.64062 3.6748 4.96582c8.28516 19.6523 46.1758 22.2393 62.6904 21.0713c14.3428 -1.01562 53.7236 -9.96094 50.3281 -32.4961c-8.07324 -53.6094 -19.9141 -106.566 -24.8887 -160.638
c-4.81738 -52.3818 -2.35352 -103.807 2.44727 -156.027c0.957031 -10.4229 2.27344 -20.8838 5.44043 -30.8711c1.63867 -5.17773 4.59766 -19.5508 9.72852 -22.7256c-2.80664 1.73535 1.73145 4.65234 6.10059 8.37402c4.70801 4.00879 8.63281 8.85645 12.3242 13.7754
c6.63379 8.84375 11.9639 18.6064 17.3027 28.2676c24.8555 44.998 45.4814 92.3799 62.1533 140.985zM171.805 155.806c14.2246 62.0977 27.6943 124.368 42.1182 186.406c-10.9102 9.02637 -29.1055 21.8838 -43.7539 20.8428
c-26.54 -1.8877 -46.8564 -43.0254 -57.6777 -62.9697c-18.2461 -33.6309 -27.8389 -71.0303 -32.4531 -108.802c-4.75 -38.8682 -7.46777 -79.2266 0.211914 -117.832c2.78125 -13.9668 7.35352 -29.5 15.9814 -41.125c4.83496 -6.51562 10.1816 -13.1494 18.6699 -10.2451
c6.62988 2.26953 13.0098 14.2969 16.4639 19.7158c21.7773 34.1562 31.5107 75.0225 40.4395 114.009z" />
    <glyph glyph-name="a" unicode="&#xe1;" horiz-adv-x="441" 
d="M435.263 215.697c4.75 13.8525 43.7744 10.7881 38.7197 -6.08691c-17.6797 -58.9307 -40.2949 -122.916 -76.5889 -173.249c-34.5625 -47.9277 -101.486 -56.5049 -148.47 -20.7021c-25.8369 19.6904 -38.7998 52.4668 -45.0312 87.5039
c-9.45801 -32.9287 -22.8525 -71.4199 -49.5488 -94.2129c-27.2256 -23.2422 -67.1094 -23.0557 -98.5352 -9.41895c-85.8643 37.2598 -88.21 134.817 -77.0889 214.976c11.2188 80.8564 51.2725 158.749 134.029 185.086c36.3193 11.5576 78.7178 8.66211 112.565 -9.5127
c0.884766 3.64551 1.75293 7.29492 2.64648 10.9355c0.491211 1.99805 1.8125 3.64062 3.6748 4.96582c8.28516 19.6523 46.1758 22.2393 62.6904 21.0713c14.3428 -1.01562 53.7236 -9.96094 50.3281 -32.4961c-8.07324 -53.6094 -19.9141 -106.566 -24.8887 -160.638
c-4.81738 -52.3818 -2.35352 -103.807 2.44727 -156.027c0.957031 -10.4229 2.27344 -20.8838 5.44043 -30.8711c1.63867 -5.17773 4.59766 -19.5508 9.72852 -22.7256c-2.80664 1.73535 1.73145 4.65234 6.10059 8.37402c4.70801 4.00879 8.63281 8.85645 12.3242 13.7754
c6.63379 8.84375 11.9639 18.6064 17.3027 28.2676c24.8555 44.998 45.4814 92.3799 62.1533 140.985zM171.805 155.806c14.2246 62.0977 27.6943 124.368 42.1182 186.406c-10.9102 9.02637 -29.1055 21.8838 -43.7539 20.8428
c-26.54 -1.8877 -46.8564 -43.0254 -57.6777 -62.9697c-18.2461 -33.6309 -27.8389 -71.0303 -32.4531 -108.802c-4.75 -38.8682 -7.46777 -79.2266 0.211914 -117.832c2.78125 -13.9668 7.35352 -29.5 15.9814 -41.125c4.83496 -6.51562 10.1816 -13.1494 18.6699 -10.2451
c6.62988 2.26953 13.0098 14.2969 16.4639 19.7158c21.7773 34.1562 31.5107 75.0225 40.4395 114.009z" />
    <glyph glyph-name="b" unicode="b" horiz-adv-x="448" 
d="M446.157 207.412c9.65625 11.5195 49.7051 4.02148 36.2598 -12.0791c-30.791 -36.8955 -73.4141 -48.4404 -118.569 -49.8584c-7.20117 -34.6768 -19.2324 -68.6895 -38.791 -95.7246c-33.3096 -46.04 -86.7539 -73.7783 -143.975 -72.1953
c-30.9893 0.859375 -59.7939 12.3574 -81.1436 31.9248c-0.257812 -3.63672 -0.486328 -7.28223 -0.799805 -10.915c-2.31152 -26.7979 -67.9102 -30.7354 -74.4512 -5.74023c-16.6719 63.6982 -23.793 129.492 -30.7363 194.871
c-6.93848 65.3281 -11.3037 131.13 -14.2715 196.754c-5.04688 111.643 -6.07129 228.793 25.6631 337.011c15.4102 52.543 40.6084 102.198 85.3232 135.517c35.8965 26.7471 84.8066 36.1455 125.14 13.4287c40.3584 -22.7344 54.3037 -67.4531 57.458 -111.118
c3.79297 -52.5342 -4.82227 -105.754 -20.7656 -155.756c-31.3242 -98.248 -95.335 -184.261 -165.201 -258.81c0.660156 -14.0127 1.40137 -28.0176 2.21875 -42.0176c0.952148 -16.3076 2.08203 -32.6826 3.25879 -49.0957
c6.02832 17.5527 12.6113 34.9189 20.0791 51.9502c20.9561 47.7969 49.7529 109.264 104.429 124.775c46.5898 13.2168 95.335 -18.0566 120.423 -56.4805c29.6133 -45.3535 37.9453 -107.485 34.8594 -160.46c-0.799805 -13.7715 -2.15918 -28.1611 -4.25879 -42.6992
c29.0889 1.94727 56.167 10.8633 77.8516 36.7178zM90.7676 600.814c-6.50293 -67.1904 -7.41602 -134.637 -5.53613 -202.03c54.5742 65.4248 102.447 135.931 127.611 218.578c13.9072 45.6797 20.7061 94.1748 17.3955 141.925
c-1.5625 22.5439 -5.80469 45.3965 -17.8496 64.9219c-9.00098 14.5977 -27.8701 35.5195 -47.3486 29.9648c-20.4814 -5.84277 -31.3662 -31.1846 -36.2217 -49.6426c-5.30859 -20.1982 -11.2441 -40.4854 -15.8926 -60.874
c-10.6816 -46.8691 -17.5312 -95.0254 -22.1582 -142.843zM179.187 31.1475c-3.92871 -0.241211 -8.21289 -5.67676 0 0zM226.679 99.3926c7.70508 17.959 13.5391 36.582 18.3486 55.4893c-4.38574 0.482422 -8.72559 0.931641 -12.9756 1.3252
c-23.5508 2.17188 -51.501 7.42578 -74.9805 3.17969c-20.8252 -3.76367 -27.4932 -22.5566 -27.5439 -41.8066c-0.0888672 -36.1328 21.5488 -68.4727 50.2773 -86.0127c0.0292969 0.0166016 0.0458984 0.0292969 0.0751953 0.0507812
c1.8418 1.30371 3.97559 2.36621 5.87598 3.67871c5.71094 3.94141 11.2021 9.90234 15.457 15.457c10.9102 14.25 18.4336 32.251 25.4658 48.6387zM259.76 228.566c6.86719 41.0439 10.2285 85.6055 5.56738 127.068c-1.98535 17.6621 2.19727 49.3672 -20.5703 53.7109
c-22.3359 4.2627 -42.9238 -22.6416 -53.9648 -38.8516c-39.7188 -58.3301 -62.2285 -128.099 -79.0996 -197.216c5.39746 2.91309 11.1719 5.31738 17.3486 7.04883c26.8281 7.51855 56.6787 3.92383 84.0908 1.91309c12.5225 -0.918945 25.0195 -2.0791 37.5088 -3.30664
c3.4668 16.4893 6.35449 33.1055 9.11914 49.6328z" />
    <glyph glyph-name="c" unicode="c" horiz-adv-x="333" 
d="M329.356 214.754c5.65625 13.708 45.0762 10.001 38.7305 -6.07422c-30.1387 -76.2676 -83.8623 -151.803 -158.368 -190.002c-65.5566 -33.6055 -152.229 -37.873 -201.004 25.9346c-49.6553 64.9639 -39.2871 168.461 -18.2041 241.977
c21.7646 75.9033 63.2578 161.078 147.751 179.815c37.082 8.22168 76.9365 1.68555 92.8711 -36.5176c14.7666 -35.4053 10.8125 -73.1475 5.88086 -110.174c-2.48535 -18.6533 -48.9277 -17.752 -47.0986 -0.000976562c1.92188 18.6738 3.74609 37.4238 2.53125 56.2119
c-0.65625 10.1855 -1.95605 20.3672 -5.08887 30.126c-0.538086 1.67676 -5.86816 11.5029 -9.80957 18.4541c-0.253906 -0.25 -0.499023 -0.507812 -0.75293 -0.757812c-4.89844 -5.20703 -9.84766 -10.6094 -14.1064 -16.3584
c-9.47461 -12.7852 -17.7812 -26.7598 -25.3428 -40.7432c-36.8271 -68.126 -57.5508 -140.812 -62.6357 -218.111c-2.30762 -35.083 -4.83105 -77.1309 13.1826 -108.819c22.1074 -38.8936 72.7363 -14.4199 102.596 3.09863
c64.6543 37.9365 110.728 103.734 138.868 171.941z" />
    <glyph glyph-name="d" unicode="d" horiz-adv-x="509" 
d="M501.896 219.639c4.71582 14.8936 46.6289 11.623 41.3916 -6.51367c-24.9736 -86.4873 -50.7344 -224.886 -161.929 -235.732c-46.793 -4.56348 -90.1484 20.3125 -117.552 57.0684c-23.2168 31.1416 -32.3398 68.4141 -36.8701 106.427
c-1.90527 15.9688 -3.27246 32.001 -4.29688 48.0674c-5.97754 -27.9072 -12.2217 -55.7764 -19.9902 -83.1592c-9.5 -33.4873 -22.8945 -73.4473 -50.3066 -96.8506c-27.2256 -23.2422 -67.1094 -23.0557 -98.5352 -9.41895
c-85.8643 37.2598 -88.21 134.817 -77.0889 214.976c11.2188 80.8564 51.2725 158.749 134.029 185.086c35.1338 11.1846 75.9619 8.83887 109.233 -7.77344c0.761719 55.7773 2.57812 111.537 4.94922 167.268c2.77344 65.2471 5.13184 130.964 12.8076 195.855
c5.07617 42.8945 111.829 41.5098 108.684 0c-5.08887 -67.1182 -9.91113 -134.198 -13.0693 -201.448c-5.99512 -127.591 -9.60645 -255.452 -7.27344 -383.174c0.415039 -22.7168 2.00293 -45.1719 4.2041 -67.7744c2.91699 -29.9434 10.8887 -89.4326 50.4297 -94.6396
c17.0996 -2.25195 35.4482 21.126 45.4053 32.8994c14.1953 16.79 25.334 35.6885 34.4658 55.6455c18.0479 39.457 28.2549 81.9619 41.3115 123.192zM169.814 155.808c14.2207 62.0977 27.6904 124.368 42.1182 186.406
c-10.9102 9.02637 -29.1055 21.8838 -43.7539 20.8428c-26.54 -1.8877 -46.8564 -43.0254 -57.6777 -62.9697c-18.2461 -33.6309 -27.8389 -71.0303 -32.4531 -108.802c-4.75 -38.8682 -7.46777 -79.2266 0.211914 -117.832c2.78125 -13.9668 7.35352 -29.5 15.9814 -41.125
c4.83496 -6.51562 10.1816 -13.1494 18.6699 -10.2451c6.62988 2.26953 13.0098 14.2969 16.4639 19.7158c21.7773 34.1562 31.5107 75.0225 40.4395 114.009z" />
    <glyph glyph-name="e" unicode="e" horiz-adv-x="314" 
d="M310.68 214.385c5.34277 13.3945 43.7197 10.0176 37.8262 -5.94238c-17.6543 -47.7666 -43.3857 -91.8379 -76.8389 -130.291c-31.8408 -36.5986 -70.8105 -71.3516 -119.514 -81.8037c-45.7051 -9.80957 -88.2607 -4.03516 -125.355 25.7812
c-35.4814 28.5215 -50.8027 71.873 -53.3047 116.283c-2.84473 50.5312 6.92676 101.49 20.334 150.007c12.4424 45.0195 30.7783 88.875 61.5098 124.551c31.6543 36.751 83.1084 60.5391 132.002 50.9756c37.2295 -7.28125 66.7793 -32.2764 68.2949 -72.0801
c1.52832 -40.1641 -26.8613 -77.1992 -55.0098 -102.757c-31.9336 -28.9951 -62.1016 -42.877 -105.415 -45.8154c-11.9551 -45.0664 -18.6572 -91.9355 -15.5625 -137.633c1.72754 -25.5156 9.32715 -57.0898 29.8555 -74.4639
c28.3564 -24 64.0449 2.43848 87.3467 22.2471c50.8232 43.2031 89.1787 99.166 113.831 160.941zM116.944 310.267c-4.12793 -10.8164 -8.03711 -21.8633 -11.6992 -33.0693c26.7217 7.45117 53.7529 20.042 72.3506 39.5498c22.4043 23.5 47.0732 67.4482 26.0537 98.8018
c-2.24805 3.35742 -8.00098 6.75293 -10.0117 9.67871c-2.30273 -1.90527 -5.37598 -4.11133 -6.31543 -5.00879c-9.65625 -9.21191 -18.4111 -18.6738 -26.832 -29.0713c-19.165 -23.6738 -32.7461 -52.5674 -43.5459 -80.8809z" />
    <glyph glyph-name="e" unicode="&#xeb;" horiz-adv-x="314" 
d="M310.68 214.385c5.34277 13.3945 43.7197 10.0176 37.8262 -5.94238c-17.6543 -47.7666 -43.3857 -91.8379 -76.8389 -130.291c-31.8408 -36.5986 -70.8105 -71.3516 -119.514 -81.8037c-45.7051 -9.80957 -88.2607 -4.03516 -125.355 25.7812
c-35.4814 28.5215 -50.8027 71.873 -53.3047 116.283c-2.84473 50.5312 6.92676 101.49 20.334 150.007c12.4424 45.0195 30.7783 88.875 61.5098 124.551c31.6543 36.751 83.1084 60.5391 132.002 50.9756c37.2295 -7.28125 66.7793 -32.2764 68.2949 -72.0801
c1.52832 -40.1641 -26.8613 -77.1992 -55.0098 -102.757c-31.9336 -28.9951 -62.1016 -42.877 -105.415 -45.8154c-11.9551 -45.0664 -18.6572 -91.9355 -15.5625 -137.633c1.72754 -25.5156 9.32715 -57.0898 29.8555 -74.4639
c28.3564 -24 64.0449 2.43848 87.3467 22.2471c50.8232 43.2031 89.1787 99.166 113.831 160.941zM116.944 310.267c-4.12793 -10.8164 -8.03711 -21.8633 -11.6992 -33.0693c26.7217 7.45117 53.7529 20.042 72.3506 39.5498c22.4043 23.5 47.0732 67.4482 26.0537 98.8018
c-2.24805 3.35742 -8.00098 6.75293 -10.0117 9.67871c-2.30273 -1.90527 -5.37598 -4.11133 -6.31543 -5.00879c-9.65625 -9.21191 -18.4111 -18.6738 -26.832 -29.0713c-19.165 -23.6738 -32.7461 -52.5674 -43.5459 -80.8809z" />
    <glyph glyph-name="e" unicode="&#xea;" horiz-adv-x="314" 
d="M310.68 214.385c5.34277 13.3945 43.7197 10.0176 37.8262 -5.94238c-17.6543 -47.7666 -43.3857 -91.8379 -76.8389 -130.291c-31.8408 -36.5986 -70.8105 -71.3516 -119.514 -81.8037c-45.7051 -9.80957 -88.2607 -4.03516 -125.355 25.7812
c-35.4814 28.5215 -50.8027 71.873 -53.3047 116.283c-2.84473 50.5312 6.92676 101.49 20.334 150.007c12.4424 45.0195 30.7783 88.875 61.5098 124.551c31.6543 36.751 83.1084 60.5391 132.002 50.9756c37.2295 -7.28125 66.7793 -32.2764 68.2949 -72.0801
c1.52832 -40.1641 -26.8613 -77.1992 -55.0098 -102.757c-31.9336 -28.9951 -62.1016 -42.877 -105.415 -45.8154c-11.9551 -45.0664 -18.6572 -91.9355 -15.5625 -137.633c1.72754 -25.5156 9.32715 -57.0898 29.8555 -74.4639
c28.3564 -24 64.0449 2.43848 87.3467 22.2471c50.8232 43.2031 89.1787 99.166 113.831 160.941zM116.944 310.267c-4.12793 -10.8164 -8.03711 -21.8633 -11.6992 -33.0693c26.7217 7.45117 53.7529 20.042 72.3506 39.5498c22.4043 23.5 47.0732 67.4482 26.0537 98.8018
c-2.24805 3.35742 -8.00098 6.75293 -10.0117 9.67871c-2.30273 -1.90527 -5.37598 -4.11133 -6.31543 -5.00879c-9.65625 -9.21191 -18.4111 -18.6738 -26.832 -29.0713c-19.165 -23.6738 -32.7461 -52.5674 -43.5459 -80.8809z" />
    <glyph glyph-name="e" unicode="&#xe9;" horiz-adv-x="314" 
d="M310.68 214.385c5.34277 13.3945 43.7197 10.0176 37.8262 -5.94238c-17.6543 -47.7666 -43.3857 -91.8379 -76.8389 -130.291c-31.8408 -36.5986 -70.8105 -71.3516 -119.514 -81.8037c-45.7051 -9.80957 -88.2607 -4.03516 -125.355 25.7812
c-35.4814 28.5215 -50.8027 71.873 -53.3047 116.283c-2.84473 50.5312 6.92676 101.49 20.334 150.007c12.4424 45.0195 30.7783 88.875 61.5098 124.551c31.6543 36.751 83.1084 60.5391 132.002 50.9756c37.2295 -7.28125 66.7793 -32.2764 68.2949 -72.0801
c1.52832 -40.1641 -26.8613 -77.1992 -55.0098 -102.757c-31.9336 -28.9951 -62.1016 -42.877 -105.415 -45.8154c-11.9551 -45.0664 -18.6572 -91.9355 -15.5625 -137.633c1.72754 -25.5156 9.32715 -57.0898 29.8555 -74.4639
c28.3564 -24 64.0449 2.43848 87.3467 22.2471c50.8232 43.2031 89.1787 99.166 113.831 160.941zM116.944 310.267c-4.12793 -10.8164 -8.03711 -21.8633 -11.6992 -33.0693c26.7217 7.45117 53.7529 20.042 72.3506 39.5498c22.4043 23.5 47.0732 67.4482 26.0537 98.8018
c-2.24805 3.35742 -8.00098 6.75293 -10.0117 9.67871c-2.30273 -1.90527 -5.37598 -4.11133 -6.31543 -5.00879c-9.65625 -9.21191 -18.4111 -18.6738 -26.832 -29.0713c-19.165 -23.6738 -32.7461 -52.5674 -43.5459 -80.8809z" />
    <glyph glyph-name="f" unicode="f" horiz-adv-x="326" 
d="M362.216 244.193c5.74902 -7.04883 0.325195 -14.1768 -7.53223 -16.3828c-73.6553 -20.6211 -146.045 -44.9043 -217.516 -71.9609c73.8711 -22.8613 132.696 -82.7148 147.831 -161.171c13.4502 -69.7354 -11.1426 -174.516 -96.7832 -180.02
c-98.9424 -6.36328 -158.284 86.4102 -180.417 170.564c-25.9346 98.6074 -29.2871 203.604 -25.502 304.979c3.99219 106.96 17.7432 213.814 39.1396 318.658c5.09277 24.9521 33.8555 32.1621 56.4248 32.1621c15.4521 0 60.6621 -7.84082 56.4248 -32.1621
c-16.998 -97.5957 -34.0342 -195.162 -41.959 -294.016c-3.94531 -49.2275 -5.38867 -98.5098 -4.5 -147.767c80.2344 31.8232 162.412 58.6387 245.656 81.4062c8.10254 2.21875 22.5645 3.26465 28.7324 -4.29199zM238.6 11.3535
c-20.1387 68.8799 -79.3965 119.151 -150.042 128.474c1.05371 -29.084 2.87402 -58.1602 5.62598 -87.2021c3.61133 -38.123 7.43457 -77.6006 18.5645 -114.373c9.79688 -32.3652 22.709 -68.7314 50.9639 -89.8438c34.834 -26.0273 62.6484 19.3945 72.834 48.5381
c12.6836 36.2988 12.8066 77.6221 2.05371 114.407z" />
    <glyph glyph-name="g" unicode="g" horiz-adv-x="419" 
d="M444.334 235.786c6.26953 -2.30762 15.6035 -10.2275 7.70801 -16.7559c-37.6104 -31.0068 -75.1875 -62.2627 -111.773 -94.5898c2.03223 -63.833 4.57227 -127.666 7.49316 -191.537c3.16699 -69.2734 2.56543 -141.582 -13.5605 -209.361
c-14.9912 -63.0244 -46.5312 -120.575 -88.2021 -170.129c-36.1074 -42.9365 -97.79 -65.8994 -151.708 -43.9824c-52.1699 21.21 -82.5664 76.3516 -92.4434 129.301c-22.7344 121.909 58.626 239.678 131.739 329.069c32.1836 39.3555 67.123 76.2207 103.781 111.372
c-3.25098 43.9736 -6.37109 87.9648 -9 131.981c-7.48926 -35.2988 -14.8857 -70.7129 -24.7158 -105.356c-9.5 -33.4873 -22.8945 -73.4473 -50.3066 -96.8506c-27.2256 -23.2422 -67.1094 -23.0557 -98.5352 -9.41895c-85.8643 37.2598 -88.21 134.817 -77.0889 214.976
c11.2188 80.8564 51.2725 158.749 134.029 185.086c35.2402 11.2188 76.2129 8.83105 109.539 -7.9209c-0.0419922 2.8877 -0.130859 5.77051 -0.165039 8.65332c-0.507812 44.7695 114.175 44.6934 114.238 0c0.110352 -76.9824 1.40137 -153.859 3.53125 -230.711
c25.0879 20.9854 50.5312 41.5225 76.0723 61.7842c7.9248 6.28711 19.8379 7.9043 29.3672 4.39062zM170.812 155.808c14.2246 62.0977 27.6943 124.368 42.1182 186.411c-10.9102 9.02148 -29.1104 21.8789 -43.7539 20.8379
c-26.54 -1.8877 -46.8564 -43.0254 -57.6777 -62.9697c-18.2461 -33.6309 -27.8389 -71.0303 -32.4531 -108.802c-4.75 -38.8682 -7.46777 -79.2266 0.211914 -117.832c2.78125 -13.9668 7.35352 -29.5 15.9814 -41.125c4.83496 -6.51562 10.1816 -13.1494 18.6699 -10.2451
c6.62988 2.26953 13.0098 14.2969 16.4639 19.7158c21.7773 34.1562 31.5107 75.0225 40.4395 114.009zM242.815 -341.876c22.2432 122.341 7.81445 243.751 -1.39746 366.57c-0.135742 1.83691 -0.275391 3.66992 -0.411133 5.50293
c-23.4453 -24.2793 -46.002 -49.4219 -67.3008 -75.7627c-68.8076 -85.0986 -144.363 -197.325 -125.071 -312.516c7.3877 -44.1182 40.8584 -119.628 95.7969 -114.015c62.2334 6.3584 88.9131 78.1299 98.3838 130.22z" />
    <glyph glyph-name="h" unicode="h" horiz-adv-x="518" 
d="M507.747 212.493c7.19727 15.6348 52.6055 10.79 44.5234 -7.00781c-36.0488 -79.3193 -74.4893 -173.271 -143.67 -230.004c-31.6582 -25.9639 -74.7637 -27.8096 -107.993 -2.56543c-35.4385 26.9209 -49.8457 78.3457 -52.001 120.757
c-4.75 93.5059 25.4229 182.198 46.1338 272.06c2.3623 10.2324 4.5 20.2324 7.35352 30.3125c3.4082 12.0527 2.91699 11.3076 -8.1875 4.98242c-18.0303 -10.2705 -32.4033 -26.5947 -44.3203 -43.3301c-24.127 -33.8857 -42.9873 -72.1523 -59.8496 -110.051
c-17.4971 -39.3252 -32.2422 -79.8193 -45.6797 -120.694c-13.0986 -39.833 -20.8672 -84.7549 -42.0098 -121.197c-0.647461 -1.11719 -1.54102 -2.09473 -2.59473 -2.95801c-0.114258 -1.41406 -0.19043 -2.83203 -0.313477 -4.24219
c-2.31152 -26.7979 -67.9102 -30.7354 -74.4512 -5.74023c-16.6719 63.6982 -23.793 129.492 -30.7363 194.871c-6.93848 65.3281 -11.3037 131.13 -14.2715 196.754c-5.04688 111.643 -6.07129 228.793 25.6631 337.011c15.4102 52.543 40.6084 102.198 85.3232 135.517
c35.8965 26.7471 84.8066 36.1455 125.14 13.4287c40.3545 -22.7344 54.3037 -67.4531 57.458 -111.118c3.79297 -52.5342 -4.82227 -105.754 -20.7656 -155.756c-31.3242 -98.248 -95.335 -184.261 -165.201 -258.81c0.660156 -14.0127 1.40137 -28.0176 2.21875 -42.0176
c3.49707 -60.0361 9.31836 -120.914 11.6172 -181.64c2.90039 10.2705 5.89355 20.3975 9.21289 30.1816c15.0205 44.291 31.8535 88.0527 52.2842 130.155c26.417 54.4434 73.8877 155.155 148.589 148.741c36.248 -3.11133 62.4199 -40.8105 72.8682 -72.0244
c14.0557 -42.001 11.1133 -87.626 7.73926 -131.108c-3.55664 -45.8066 -6.3125 -91.6133 -10.499 -137.369c-2.08691 -22.8018 -9.03027 -43.8174 -12.7812 -66.166c-1.55371 -9.2627 -1.38477 -16.252 1.24023 -25.125
c-0.203125 0.677734 0.749023 -1.58301 1.86621 -3.67871c1.03711 2.22266 5.65137 4.61035 6.70508 5.53711c61.4375 54.1172 95.9277 139.618 129.39 212.295zM90.7715 600.809c-6.50684 -67.1904 -7.41602 -134.637 -5.53613 -202.03
c54.5742 65.4248 102.447 135.931 127.611 218.578c13.9072 45.6797 20.7061 94.1748 17.3955 141.925c-1.5625 22.5439 -5.80469 45.3965 -17.8486 64.9219c-9.00098 14.5977 -27.8701 35.5195 -47.3486 29.9648c-20.4814 -5.84277 -31.3662 -31.1846 -36.2217 -49.6426
c-5.30859 -20.1982 -11.2441 -40.4854 -15.8926 -60.874c-10.6816 -46.8691 -17.5273 -95.0254 -22.1592 -142.843z" />
    <glyph glyph-name="i" unicode="i" horiz-adv-x="223" 
d="M217.002 215.697c4.75 13.8525 43.7852 10.792 38.7217 -6.08301c-17.6797 -58.9307 -40.2949 -122.916 -76.5938 -173.244c-34.6689 -48.0723 -101.009 -55.79 -148.103 -20.5459c-50.2441 37.6025 -51.8701 125.686 -52.0225 182.355
c-0.181641 66.8984 5.00488 134.355 12.0371 200.83c4.79199 45.2988 115.872 45.5908 116.092 0c0.266602 -55.2559 -6.70996 -110.169 -8.97949 -165.357c-2.10449 -51.1709 0.710938 -101.521 5.34277 -152.433c1.61719 -17.7559 3.6875 -38.9951 13.1113 -54.668
c3.39062 -4.08496 4.11035 -4.52539 2.16699 -1.3291c-2.03223 2.23535 -1.13477 3.80566 2.70117 4.70312c2.68359 4.41113 9.56738 8.22168 13.1621 12.5742c8.04395 9.74121 14.1318 21.2061 20.2158 32.2129c24.8633 44.9854 45.4805 92.3838 62.1475 140.984z
M49.7109 474.223c-11.9219 -0.304688 -31.876 3.86523 -37.4512 16.248c-8.37012 18.6191 -5.17383 44.376 -2.61719 64.0996c2.50195 19.2842 26.8066 23.9707 42.7676 24.377c9.67383 0.245117 21.7822 -2.15918 30.2412 -7.1416
c4.87305 -2.87012 13.7168 -10.1943 12.5273 -17.2344c-1.74805 -10.3721 -2.95898 -20.8115 -3.9541 -31.2764c-1.05859 -11.1553 -0.507812 -22.0908 -4.07227 -32.8232c-4.34766 -13.0947 -26.0781 -15.9609 -37.4414 -16.249z" />
    <glyph glyph-name="i" unicode="&#xef;" horiz-adv-x="223" 
d="M217.002 215.697c4.75 13.8525 43.7852 10.792 38.7217 -6.08301c-17.6797 -58.9307 -40.2949 -122.916 -76.5938 -173.244c-34.6689 -48.0723 -101.009 -55.79 -148.103 -20.5459c-50.2441 37.6025 -51.8701 125.686 -52.0225 182.355
c-0.181641 66.8984 5.00488 134.355 12.0371 200.83c4.79199 45.2988 115.872 45.5908 116.092 0c0.266602 -55.2559 -6.70996 -110.169 -8.97949 -165.357c-2.10449 -51.1709 0.710938 -101.521 5.34277 -152.433c1.61719 -17.7559 3.6875 -38.9951 13.1113 -54.668
c3.39062 -4.08496 4.11035 -4.52539 2.16699 -1.3291c-2.03223 2.23535 -1.13477 3.80566 2.70117 4.70312c2.68359 4.41113 9.56738 8.22168 13.1621 12.5742c8.04395 9.74121 14.1318 21.2061 20.2158 32.2129c24.8633 44.9854 45.4805 92.3838 62.1475 140.984z
M49.7109 474.223c-11.9219 -0.304688 -31.876 3.86523 -37.4512 16.248c-8.37012 18.6191 -5.17383 44.376 -2.61719 64.0996c2.50195 19.2842 26.8066 23.9707 42.7676 24.377c9.67383 0.245117 21.7822 -2.15918 30.2412 -7.1416
c4.87305 -2.87012 13.7168 -10.1943 12.5273 -17.2344c-1.74805 -10.3721 -2.95898 -20.8115 -3.9541 -31.2764c-1.05859 -11.1553 -0.507812 -22.0908 -4.07227 -32.8232c-4.34766 -13.0947 -26.0781 -15.9609 -37.4414 -16.249z" />
    <glyph glyph-name="i" unicode="&#xee;" horiz-adv-x="223" 
d="M217.002 215.697c4.75 13.8525 43.7852 10.792 38.7217 -6.08301c-17.6797 -58.9307 -40.2949 -122.916 -76.5938 -173.244c-34.6689 -48.0723 -101.009 -55.79 -148.103 -20.5459c-50.2441 37.6025 -51.8701 125.686 -52.0225 182.355
c-0.181641 66.8984 5.00488 134.355 12.0371 200.83c4.79199 45.2988 115.872 45.5908 116.092 0c0.266602 -55.2559 -6.70996 -110.169 -8.97949 -165.357c-2.10449 -51.1709 0.710938 -101.521 5.34277 -152.433c1.61719 -17.7559 3.6875 -38.9951 13.1113 -54.668
c3.39062 -4.08496 4.11035 -4.52539 2.16699 -1.3291c-2.03223 2.23535 -1.13477 3.80566 2.70117 4.70312c2.68359 4.41113 9.56738 8.22168 13.1621 12.5742c8.04395 9.74121 14.1318 21.2061 20.2158 32.2129c24.8633 44.9854 45.4805 92.3838 62.1475 140.984z
M49.7109 474.223c-11.9219 -0.304688 -31.876 3.86523 -37.4512 16.248c-8.37012 18.6191 -5.17383 44.376 -2.61719 64.0996c2.50195 19.2842 26.8066 23.9707 42.7676 24.377c9.67383 0.245117 21.7822 -2.15918 30.2412 -7.1416
c4.87305 -2.87012 13.7168 -10.1943 12.5273 -17.2344c-1.74805 -10.3721 -2.95898 -20.8115 -3.9541 -31.2764c-1.05859 -11.1553 -0.507812 -22.0908 -4.07227 -32.8232c-4.34766 -13.0947 -26.0781 -15.9609 -37.4414 -16.249z" />
    <glyph glyph-name="i" unicode="&#xed;" horiz-adv-x="223" 
d="M217.002 215.697c4.75 13.8525 43.7852 10.792 38.7217 -6.08301c-17.6797 -58.9307 -40.2949 -122.916 -76.5938 -173.244c-34.6689 -48.0723 -101.009 -55.79 -148.103 -20.5459c-50.2441 37.6025 -51.8701 125.686 -52.0225 182.355
c-0.181641 66.8984 5.00488 134.355 12.0371 200.83c4.79199 45.2988 115.872 45.5908 116.092 0c0.266602 -55.2559 -6.70996 -110.169 -8.97949 -165.357c-2.10449 -51.1709 0.710938 -101.521 5.34277 -152.433c1.61719 -17.7559 3.6875 -38.9951 13.1113 -54.668
c3.39062 -4.08496 4.11035 -4.52539 2.16699 -1.3291c-2.03223 2.23535 -1.13477 3.80566 2.70117 4.70312c2.68359 4.41113 9.56738 8.22168 13.1621 12.5742c8.04395 9.74121 14.1318 21.2061 20.2158 32.2129c24.8633 44.9854 45.4805 92.3838 62.1475 140.984z
M49.7109 474.223c-11.9219 -0.304688 -31.876 3.86523 -37.4512 16.248c-8.37012 18.6191 -5.17383 44.376 -2.61719 64.0996c2.50195 19.2842 26.8066 23.9707 42.7676 24.377c9.67383 0.245117 21.7822 -2.15918 30.2412 -7.1416
c4.87305 -2.87012 13.7168 -10.1943 12.5273 -17.2344c-1.74805 -10.3721 -2.95898 -20.8115 -3.9541 -31.2764c-1.05859 -11.1553 -0.507812 -22.0908 -4.07227 -32.8232c-4.34766 -13.0947 -26.0781 -15.9609 -37.4414 -16.249z" />
    <glyph glyph-name="j" unicode="j" horiz-adv-x="182" 
d="M207.376 235.786c6.26562 -2.30762 15.6055 -10.2266 7.70605 -16.75c-37.6104 -31.0068 -75.1875 -62.2627 -111.773 -94.5898c2.03223 -63.833 4.57227 -127.666 7.49316 -191.537c3.16699 -69.2734 2.56543 -141.582 -13.5605 -209.361
c-14.9951 -63.0244 -46.5312 -120.575 -88.2021 -170.129c-36.1074 -42.9365 -97.79 -65.8994 -151.708 -43.9824c-52.166 21.21 -82.5674 76.3516 -92.4443 129.301c-22.7344 121.909 58.626 239.678 131.739 329.069c32.1836 39.3555 67.123 76.2207 103.781 111.372
c-7.89551 106.914 -15.0293 213.946 -16.2402 321.144c-0.507812 44.7695 114.175 44.6934 114.238 0c0.110352 -76.9824 1.40137 -153.859 3.53125 -230.711c25.0879 20.9854 50.5312 41.5225 76.0723 61.7842c7.9248 6.28711 19.8379 7.9043 29.3672 4.39062z
M5.86035 -341.874c22.2432 122.341 7.81152 243.751 -1.40039 366.57c-0.135742 1.83691 -0.275391 3.66992 -0.411133 5.50293c-23.4414 -24.2793 -45.998 -49.4219 -67.2969 -75.7627c-68.8076 -85.0986 -144.363 -197.325 -125.071 -312.516
c7.3916 -44.1182 40.8574 -119.628 95.7959 -114.015c62.2334 6.3584 88.9131 78.1299 98.3838 130.22zM65.8594 486.805c-14.4658 -23.3018 -68.3721 -26.0234 -82.0293 0c-6.60449 12.5859 -5.49512 26.7891 -5.5625 40.624
c-0.0634766 13.2979 0.0722656 26.5449 0.694336 39.834c1.0625 22.7129 33.1826 28.2881 50.4043 28.7285c14.8516 0.380859 52.7881 -6.96875 50.4043 -28.7295c-1.45605 -13.3018 -3.2002 -26.5566 -4.85156 -39.833
c-1.68066 -13.5215 -1.75293 -28.8594 -9.05957 -40.624z" />
    <glyph glyph-name="k" unicode="k" horiz-adv-x="424" 
d="M421.428 198.771c6.20605 13.3818 45.1895 9.34082 38.2637 -6.00977c-38.0381 -84.5059 -91.1855 -192.258 -194.434 -205.297c-51.0566 -6.44727 -106.901 15.7578 -139.868 55.6084c-9.01758 10.8975 -16.6807 22.4336 -23.2939 34.4482
c0.114258 -26.417 -0.694336 -52.7627 -2.95508 -78.9512c-2.31152 -26.7979 -67.9102 -30.7354 -74.4512 -5.74023c-16.6719 63.6982 -23.793 129.492 -30.7363 194.871c-6.93848 65.3281 -11.3037 131.13 -14.2715 196.754
c-5.04688 111.643 -6.07129 228.793 25.6631 337.011c15.4102 52.543 40.6084 102.198 85.3232 135.517c35.8965 26.7471 84.8066 36.1455 125.14 13.4287c40.3584 -22.7344 54.3037 -67.4531 57.458 -111.118c3.79297 -52.5342 -4.82227 -105.754 -20.7656 -155.756
c-31.3242 -98.248 -95.335 -184.261 -165.201 -258.81c0.660156 -14.0127 1.40137 -28.0176 2.21875 -42.0176c0.808594 -13.8945 1.75293 -27.8398 2.73926 -41.8145c13.708 33.0088 29.7451 64.959 49.876 94.7168c29.9863 44.3164 72.2412 96.2705 128.594 104.521
c49.7988 7.29004 101.304 -24.7031 87.168 -79.7812c-13.9746 -54.4434 -67.3848 -93.2139 -111.401 -123.2c-26.7559 -18.2295 -54.1592 -34.5918 -82.8418 -48.1729c1.3291 -1.83301 2.3623 -3.83594 2.91699 -6.08398
c10.2324 -41.3828 19.1016 -83.8203 39.3633 -121.774c10.7617 -20.1641 36.4766 -65.2383 63.0713 -66.6777c16.0449 -0.868164 40.5654 20.6006 51.7207 30.126c15.5879 13.3105 29.3135 28.6992 41.3027 45.2988c24.2881 33.627 42.0186 71.4111 59.4014 108.903z
M90.7803 600.812c-6.50684 -67.1904 -7.41602 -134.637 -5.54102 -202.03c54.5742 65.4248 102.447 135.931 127.611 218.578c13.9072 45.6797 20.7061 94.1748 17.3955 141.925c-1.5625 22.5439 -5.80469 45.3965 -17.8496 64.9219
c-9.00098 14.5977 -27.8701 35.5195 -47.3486 29.9648c-20.4814 -5.84277 -31.3662 -31.1846 -36.2217 -49.6426c-5.30859 -20.1982 -11.2441 -40.4854 -15.8926 -60.874c-10.6768 -46.8691 -17.5264 -95.0254 -22.1533 -142.843zM123.405 227.683
c36.1416 15.0117 70.9814 32.8652 102.919 55.8574c23.7842 17.1162 47.877 36.29 66.1104 59.4346c16.6211 21.0957 37.416 61.4502 13.2168 84.4766c-44.334 42.1787 -119.348 -73.2441 -136.964 -103.095c-18.1621 -30.7783 -32.6582 -63.3428 -45.2822 -96.6738z" />
    <glyph glyph-name="l" unicode="l" horiz-adv-x="271" 
d="M263.314 219.639c4.71582 14.8936 46.6309 11.6221 41.3984 -6.50586c-24.9736 -86.4873 -50.7344 -224.886 -161.929 -235.732c-46.793 -4.56348 -90.1533 20.3125 -117.557 57.0684c-23.2168 31.1416 -32.3398 68.4141 -36.8701 106.427
c-7.19727 60.417 -7.10449 121.702 -7.33301 182.462c-0.295898 78.6045 1.98633 157.196 5.32617 235.725c2.77344 65.2471 5.13184 130.964 12.8076 195.855c5.07129 42.8945 111.828 41.5098 108.683 0c-5.08887 -67.1182 -9.91113 -134.198 -13.0693 -201.448
c-5.99512 -127.591 -9.60645 -255.452 -7.27344 -383.174c0.415039 -22.7168 2.00293 -45.1719 4.2041 -67.7744c2.91309 -29.9434 10.8887 -89.4326 50.4297 -94.6396c17.0996 -2.25195 35.4482 21.126 45.4053 32.8994c14.1992 16.79 25.3379 35.6885 34.4658 55.6455
c18.0479 39.457 28.2549 81.9619 41.3115 123.192z" />
    <glyph glyph-name="m" unicode="m" horiz-adv-x="665" 
d="M657.268 198.107c3.62402 14.6104 44.8916 11.7373 40.5186 -6.35645c-10.4609 -43.2334 -25.7783 -85.2178 -46.3574 -124.688c-15.9902 -30.6592 -35.5576 -63.2959 -71.373 -72.4189c-36.2812 -9.2373 -71.5977 -2.81934 -104.945 13.6191
c-38.0938 18.7803 -53.5039 59.748 -59.1299 99.3447c-10.8125 76.085 4.25 156.035 10.9141 231.917c1.71484 19.542 4.84375 39.3291 5.13574 58.9512c0.00878906 0.665039 -0.0292969 1.45215 -0.0888672 2.27734c-3.91602 -4.59375 -7.74316 -8.9209 -7.9043 -9.16602
c-19.915 -30.625 -32.6963 -66.8555 -43.7285 -101.447c-22.2559 -69.7773 -34.8467 -142.142 -54.8506 -212.541c-0.0595703 -3.64062 -0.119141 -7.28613 -0.178711 -10.9141c-0.770508 -46.8613 -117.468 -46.7178 -119.335 -0.000976562
c-2.79395 69.9336 6.65137 140.079 10.1436 209.844c1.55762 31.0908 3.28516 62.1611 2.68359 93.3076c-0.152344 7.95898 -0.435547 16.1172 -1.29883 24.0342c-0.161133 3.01855 -0.623047 5.99512 -1.38086 8.92871c2.39648 4.54297 1.73633 5.36816 -1.98535 2.46777
c-10.6855 -0.668945 -25.7949 -24.207 -30.5156 -31.7471c-32.3066 -51.5771 -48.9658 -115.482 -64.2021 -173.816c-8.76758 -33.5547 -16.2607 -67.4316 -22.5645 -101.533c-5.30078 -28.6738 -9.52539 -57.2676 -20.1348 -84.5947
c-0.84668 -2.18066 -2.51465 -3.94629 -4.69531 -5.32617c-1.80762 -4.4668 -4.14453 -8.50586 -7.23535 -11.833c-6.78223 -7.29883 -21.6084 -7.69238 -30.3213 -4.53027c-33.707 12.2393 -40.4932 49.0586 -45.9209 80.9199
c-6.02832 35.375 -6.80273 71.6436 -7.31934 107.472c-1.07129 74.5654 2.6123 149.499 4.66992 224.03c1.02441 37.082 92.5195 36.917 94.3271 0.000976562c3.19238 -65.2344 -0.922852 -130.77 -2.92969 -196.076c3.1543 12.0957 6.41016 24.165 9.88965 36.167
c10.7578 37.1201 23.1494 74.0703 39.3721 109.204c12.7764 27.6621 30.0615 56.501 58.0625 71.0176c73.2188 37.9619 111.181 -52.3818 124.296 -107.6c6.52832 -27.4795 10.626 -55.6533 13.1953 -84.1113c7.55664 29.9482 15.9141 59.6631 26.4043 88.7686
c18.3691 50.9629 50.0781 139.093 119.513 108.323c33.0469 -14.6436 48.5293 -53.6006 57.1318 -86.7236c9.82227 -37.8145 10.9521 -77.0342 12.3193 -115.835c2.42188 -68.6465 4.86035 -134.724 26.2734 -200.475c-0.114258 0.342773 1.94727 -1.43945 3.51758 -3.1748
c2.30273 0.681641 5.76172 1.41406 7.6875 2.73535c7.18848 4.94043 12.916 12.3789 17.7969 19.4785c9.65625 14.043 17.7676 29.415 25.4004 44.6309c17.1924 34.2705 29.9141 70.2852 39.1436 107.469z" />
    <glyph glyph-name="n" unicode="n" horiz-adv-x="420" 
d="M411.303 180.018c5.05078 14.8174 46.7637 11.5527 41.3955 -6.50781c-18.0811 -60.8906 -45.6924 -166.911 -123.61 -171.297c-36.3066 -2.04102 -77.9902 11.4219 -103.281 37.873c-27.8867 29.1602 -35.4688 72.4395 -39.5205 111.104
c-8.36133 79.8154 5.78711 155.744 13.543 234.746c0.300781 3.02734 0.351562 6.11328 0.347656 9.20801c-2.60742 -3.4668 -5.15137 -6.9082 -7.14941 -10.3545c-4.33105 -7.46777 -8.31934 -15.1309 -12.083 -22.8994
c-16.7773 -34.6133 -29.1436 -71.4453 -40.6973 -108.069c-24.3516 -77.1816 -42.1748 -156.171 -59.6885 -235.122c0.821289 -4.90234 1.68066 -9.80859 2.625 -14.707c3.09863 -16.0449 -25.6807 -22.2637 -35.875 -23.1611
c-13.4375 -1.18555 -39.3047 1.48145 -45.3965 16.8916c-23.7754 60.1504 -19.3594 134.551 -19.8506 198.16c-0.538086 69.6289 2.54004 139.216 8.84375 208.557c3.37012 37.0732 95.7461 34.2578 92.0117 0c-7.40039 -67.9268 -11.71 -136.134 -12.54 -204.463
c-0.21582 -17.6416 -0.283203 -35.2275 -0.0419922 -52.7676c10.3086 41.7686 21.5869 83.2822 34.8086 124.237c11.6885 36.2012 24.1729 72.6816 41.7588 106.512c12.8193 24.665 30.7656 61.6494 62.0088 65.1846c32.6953 3.7002 59.8662 -23.0176 71.4873 -50.9883
c14.834 -35.71 19.25 -77.1475 23.6787 -115.254c4.55078 -39.1641 5.0127 -78.752 9.53418 -117.954c4.08105 -35.3838 10.6426 -70.5859 15.6504 -105.839c0.507812 -3.58984 1.12207 -18.6484 3.28516 -20.6553c3.04395 0.888672 10.1689 7.74707 10.3506 7.9209
c11.8623 11.1045 20.6553 26.333 28.4277 40.4434c17.2773 31.3623 28.4668 65.4385 39.9775 99.2012z" />
    <glyph glyph-name="o" unicode="o" horiz-adv-x="340" 
d="M369.194 224.698c24.6904 -10.249 -5.41211 -23.0713 -19.8018 -19.3115c-3.62402 0.948242 -20.8291 -7.98438 -25.2705 -9.36914c-7.22656 -2.25195 -14.5 -4.36914 -21.8154 -6.32129c-13.4795 -3.59473 -27.1328 -6.86328 -40.8789 -9.41211
c-8.86523 -87.4141 -42.8604 -189.218 -139.55 -198.337c-51.0439 -4.81348 -104.242 11.7061 -126.6 60.9551c-25.9941 57.2754 -19.7793 118.713 -14.9492 179.342c1.0459 13.124 12.6709 21.4473 27.332 25.1816c-52.3643 87.1221 16.1006 233.459 124.327 224.776
c107.896 -8.65723 132.984 -160.976 132.02 -245.808c-0.0673828 -5.83789 -0.232422 -11.8623 -0.515625 -18.0303c17.9541 3.59863 35.6416 8.25586 53.1982 13.6025c17.8145 5.42773 34.499 10.2119 52.5039 2.73145zM210.608 145.643
c1.76953 9.57617 3.21094 19.2148 4.40527 28.8887c-19.2754 -1.25293 -38.6484 -1.13477 -57.8564 0.511719c-29.3643 2.51465 -61.0859 8.50488 -88.9805 21.1211c-7.69629 -44.9346 -6.12988 -94.9111 6.21484 -137.691
c4.4873 -15.541 11.7432 -40.2822 27.2207 -48.7832c18.5176 -10.1729 44.7275 8.64941 57.5674 20.9395c31.125 29.7832 43.834 73.876 51.4287 115.014zM217.574 201.651c1.67188 25.3975 1.31641 50.9209 -1.49023 76.2207
c-5.98633 53.999 -51.9502 227.375 -135.029 148.843c-32.2852 -30.5195 -48.9521 -82.4443 -44.6084 -126.059c4.38184 -43.9863 32.5605 -75.3818 73.8672 -89.0391c34.6729 -11.46 71.1914 -13.2383 107.261 -9.96582z" />
    <glyph glyph-name="o" unicode="&#xf6;" horiz-adv-x="340" 
d="M369.194 224.698c24.6904 -10.249 -5.41211 -23.0713 -19.8018 -19.3115c-3.62402 0.948242 -20.8291 -7.98438 -25.2705 -9.36914c-7.22656 -2.25195 -14.5 -4.36914 -21.8154 -6.32129c-13.4795 -3.59473 -27.1328 -6.86328 -40.8789 -9.41211
c-8.86523 -87.4141 -42.8604 -189.218 -139.55 -198.337c-51.0439 -4.81348 -104.242 11.7061 -126.6 60.9551c-25.9941 57.2754 -19.7793 118.713 -14.9492 179.342c1.0459 13.124 12.6709 21.4473 27.332 25.1816c-52.3643 87.1221 16.1006 233.459 124.327 224.776
c107.896 -8.65723 132.984 -160.976 132.02 -245.808c-0.0673828 -5.83789 -0.232422 -11.8623 -0.515625 -18.0303c17.9541 3.59863 35.6416 8.25586 53.1982 13.6025c17.8145 5.42773 34.499 10.2119 52.5039 2.73145zM210.608 145.643
c1.76953 9.57617 3.21094 19.2148 4.40527 28.8887c-19.2754 -1.25293 -38.6484 -1.13477 -57.8564 0.511719c-29.3643 2.51465 -61.0859 8.50488 -88.9805 21.1211c-7.69629 -44.9346 -6.12988 -94.9111 6.21484 -137.691
c4.4873 -15.541 11.7432 -40.2822 27.2207 -48.7832c18.5176 -10.1729 44.7275 8.64941 57.5674 20.9395c31.125 29.7832 43.834 73.876 51.4287 115.014zM217.574 201.651c1.67188 25.3975 1.31641 50.9209 -1.49023 76.2207
c-5.98633 53.999 -51.9502 227.375 -135.029 148.843c-32.2852 -30.5195 -48.9521 -82.4443 -44.6084 -126.059c4.38184 -43.9863 32.5605 -75.3818 73.8672 -89.0391c34.6729 -11.46 71.1914 -13.2383 107.261 -9.96582z" />
    <glyph glyph-name="o" unicode="&#xf5;" horiz-adv-x="340" 
d="M369.194 224.698c24.6904 -10.249 -5.41211 -23.0713 -19.8018 -19.3115c-3.62402 0.948242 -20.8291 -7.98438 -25.2705 -9.36914c-7.22656 -2.25195 -14.5 -4.36914 -21.8154 -6.32129c-13.4795 -3.59473 -27.1328 -6.86328 -40.8789 -9.41211
c-8.86523 -87.4141 -42.8604 -189.218 -139.55 -198.337c-51.0439 -4.81348 -104.242 11.7061 -126.6 60.9551c-25.9941 57.2754 -19.7793 118.713 -14.9492 179.342c1.0459 13.124 12.6709 21.4473 27.332 25.1816c-52.3643 87.1221 16.1006 233.459 124.327 224.776
c107.896 -8.65723 132.984 -160.976 132.02 -245.808c-0.0673828 -5.83789 -0.232422 -11.8623 -0.515625 -18.0303c17.9541 3.59863 35.6416 8.25586 53.1982 13.6025c17.8145 5.42773 34.499 10.2119 52.5039 2.73145zM210.608 145.643
c1.76953 9.57617 3.21094 19.2148 4.40527 28.8887c-19.2754 -1.25293 -38.6484 -1.13477 -57.8564 0.511719c-29.3643 2.51465 -61.0859 8.50488 -88.9805 21.1211c-7.69629 -44.9346 -6.12988 -94.9111 6.21484 -137.691
c4.4873 -15.541 11.7432 -40.2822 27.2207 -48.7832c18.5176 -10.1729 44.7275 8.64941 57.5674 20.9395c31.125 29.7832 43.834 73.876 51.4287 115.014zM217.574 201.651c1.67188 25.3975 1.31641 50.9209 -1.49023 76.2207
c-5.98633 53.999 -51.9502 227.375 -135.029 148.843c-32.2852 -30.5195 -48.9521 -82.4443 -44.6084 -126.059c4.38184 -43.9863 32.5605 -75.3818 73.8672 -89.0391c34.6729 -11.46 71.1914 -13.2383 107.261 -9.96582z" />
    <glyph glyph-name="o" unicode="&#xf4;" horiz-adv-x="340" 
d="M369.194 224.698c24.6904 -10.249 -5.41211 -23.0713 -19.8018 -19.3115c-3.62402 0.948242 -20.8291 -7.98438 -25.2705 -9.36914c-7.22656 -2.25195 -14.5 -4.36914 -21.8154 -6.32129c-13.4795 -3.59473 -27.1328 -6.86328 -40.8789 -9.41211
c-8.86523 -87.4141 -42.8604 -189.218 -139.55 -198.337c-51.0439 -4.81348 -104.242 11.7061 -126.6 60.9551c-25.9941 57.2754 -19.7793 118.713 -14.9492 179.342c1.0459 13.124 12.6709 21.4473 27.332 25.1816c-52.3643 87.1221 16.1006 233.459 124.327 224.776
c107.896 -8.65723 132.984 -160.976 132.02 -245.808c-0.0673828 -5.83789 -0.232422 -11.8623 -0.515625 -18.0303c17.9541 3.59863 35.6416 8.25586 53.1982 13.6025c17.8145 5.42773 34.499 10.2119 52.5039 2.73145zM210.608 145.643
c1.76953 9.57617 3.21094 19.2148 4.40527 28.8887c-19.2754 -1.25293 -38.6484 -1.13477 -57.8564 0.511719c-29.3643 2.51465 -61.0859 8.50488 -88.9805 21.1211c-7.69629 -44.9346 -6.12988 -94.9111 6.21484 -137.691
c4.4873 -15.541 11.7432 -40.2822 27.2207 -48.7832c18.5176 -10.1729 44.7275 8.64941 57.5674 20.9395c31.125 29.7832 43.834 73.876 51.4287 115.014zM217.574 201.651c1.67188 25.3975 1.31641 50.9209 -1.49023 76.2207
c-5.98633 53.999 -51.9502 227.375 -135.029 148.843c-32.2852 -30.5195 -48.9521 -82.4443 -44.6084 -126.059c4.38184 -43.9863 32.5605 -75.3818 73.8672 -89.0391c34.6729 -11.46 71.1914 -13.2383 107.261 -9.96582z" />
    <glyph glyph-name="o" unicode="&#xf3;" horiz-adv-x="340" 
d="M369.194 224.698c24.6904 -10.249 -5.41211 -23.0713 -19.8018 -19.3115c-3.62402 0.948242 -20.8291 -7.98438 -25.2705 -9.36914c-7.22656 -2.25195 -14.5 -4.36914 -21.8154 -6.32129c-13.4795 -3.59473 -27.1328 -6.86328 -40.8789 -9.41211
c-8.86523 -87.4141 -42.8604 -189.218 -139.55 -198.337c-51.0439 -4.81348 -104.242 11.7061 -126.6 60.9551c-25.9941 57.2754 -19.7793 118.713 -14.9492 179.342c1.0459 13.124 12.6709 21.4473 27.332 25.1816c-52.3643 87.1221 16.1006 233.459 124.327 224.776
c107.896 -8.65723 132.984 -160.976 132.02 -245.808c-0.0673828 -5.83789 -0.232422 -11.8623 -0.515625 -18.0303c17.9541 3.59863 35.6416 8.25586 53.1982 13.6025c17.8145 5.42773 34.499 10.2119 52.5039 2.73145zM210.608 145.643
c1.76953 9.57617 3.21094 19.2148 4.40527 28.8887c-19.2754 -1.25293 -38.6484 -1.13477 -57.8564 0.511719c-29.3643 2.51465 -61.0859 8.50488 -88.9805 21.1211c-7.69629 -44.9346 -6.12988 -94.9111 6.21484 -137.691
c4.4873 -15.541 11.7432 -40.2822 27.2207 -48.7832c18.5176 -10.1729 44.7275 8.64941 57.5674 20.9395c31.125 29.7832 43.834 73.876 51.4287 115.014zM217.574 201.651c1.67188 25.3975 1.31641 50.9209 -1.49023 76.2207
c-5.98633 53.999 -51.9502 227.375 -135.029 148.843c-32.2852 -30.5195 -48.9521 -82.4443 -44.6084 -126.059c4.38184 -43.9863 32.5605 -75.3818 73.8672 -89.0391c34.6729 -11.46 71.1914 -13.2383 107.261 -9.96582z" />
    <glyph glyph-name="p" unicode="p" horiz-adv-x="463" 
d="M468.357 207.298c16.4473 6.0332 47.5117 -11.3105 21.4414 -20.8994c-34.3594 -12.6367 -69.4639 -23.2246 -105.063 -31.7344c-7.78516 -34.8887 -19.9521 -68.8887 -35.21 -100.496c-14.0723 -29.1523 -32.5352 -57.4404 -58.499 -77.2197
c-35.6084 -27.124 -86.5205 -37.4834 -129.55 -23.3984c-13.8604 4.53809 -25.875 12.2178 -35.6758 21.959c-11.2314 -108.865 -21.4551 -218.091 -30.5908 -327.168c0.207031 -10.8506 0.330078 -21.7012 0.224609 -32.5518
c-0.228516 -23.1152 -47.6143 -19.2461 -56.2637 -4.33984c-33.7246 58.1143 -44.1094 125.732 -49.3252 191.831c-5.18652 65.7383 -7.84961 131.515 -8.56934 197.448c-1.47363 135.334 2.81055 271.192 16.3115 405.891c4.14844 41.3789 107.239 39.4951 104.052 0
c-10.7959 -133.75 -18.0947 -267.518 -17.6035 -401.746c0.046875 -12.3154 0.157227 -24.6396 0.262695 -36.9639c4.7666 53.7363 10.6768 107.358 20.1348 160.523c12.1289 68.1855 28.085 138.962 58.6084 201.529c25.5957 52.4658 75.2383 113.369 141.265 89.1494
c60.2012 -22.082 85.374 -99.8145 89.2861 -157.721c1.76074 -26.0996 0.368164 -52.5508 -3.61523 -78.7314c26.4297 6.97656 52.5723 15.1729 78.3799 24.6387zM169.295 9.20703c2.72168 0.935547 2.65137 1.01172 -0.210938 0.224609
c0.0673828 -0.0722656 0.143555 -0.157227 0.210938 -0.224609zM171.947 6.76855c0.211914 -0.123047 0.367188 -0.172852 0.392578 -0.0546875c-0.130859 0.0253906 -0.261719 0.0292969 -0.392578 0.0546875zM240.449 93.1299
c6.98145 13.4541 13.3525 27.2256 19.1484 41.2256c-48.3682 -4.65234 -102.324 -13.0938 -111.973 -68.1426c-2.32031 -13.2256 0.0292969 -26.7471 6.11328 -38.6562c0.469727 -0.922852 10.1006 -12.5947 15.3125 -18.0859
c1.73145 0.799805 3.46289 1.60449 5.19043 2.40918c7.9082 4.2041 15.0117 8.47168 21.6709 14.3984c19.9229 17.7383 32.4375 43.5332 44.5371 66.8516zM272.874 170.163c17.2432 53.1436 27.2129 111.151 25.2871 167.145
c-0.774414 22.459 -4.03027 76.3389 -38.8301 55.9375c-22.2773 -13.0605 -37.6367 -38.377 -49.5332 -60.4971c-33.3008 -61.916 -52.0635 -132.214 -64.3701 -203.375c29.9434 18.6572 68.6631 24.9395 103.86 28.25c6.68066 0.630859 13.3271 1.42676 19.9785 2.20605
c1.20703 3.44629 2.48145 6.8623 3.60742 10.334z" />
    <glyph glyph-name="q" unicode="q" horiz-adv-x="437" 
d="M430.8 -37.2441c55.752 -71.2549 82.1543 -191.431 26.873 -270.793c-24.6602 -35.4092 -69.1084 -55.5312 -112.011 -51.2471c-50.9551 5.08887 -89.6201 43.8389 -108.23 89.5996c-20.4941 50.3916 -28.1484 108.146 -33.5127 161.911
c-5.88086 58.9688 -9.80078 118.962 -8.71289 178.235c0.0546875 2.92578 0.160156 5.85938 0.219727 8.78516c-9.04688 -26.2734 -21.6797 -52.873 -42.085 -70.2939c-27.2217 -23.2422 -67.1055 -23.0557 -98.5312 -9.41895
c-85.8643 37.2598 -88.21 134.817 -77.0889 214.976c11.2188 80.8564 51.2764 158.749 134.029 185.086c33.4404 10.6436 72.0508 9.05176 104.383 -5.45215c0.977539 8.9668 1.92578 17.9375 2.9668 26.8789c5.0293 43.2373 112.468 42.4414 110.071 0
c-6.3252 -111.863 -21.1133 -222.973 -26.498 -334.933c6.07129 5.42285 12.0537 10.5918 16.7998 15.46c38.8213 39.8164 77.6475 79.6289 116.469 119.445c9.87695 10.1309 48.2627 3.04004 34.6689 -11.5527c-23.4365 -25.1602 -46.8779 -50.3203 -70.3145 -75.4805
c-23.1113 -24.8086 -49.4141 -48.8125 -70.3154 -75.4795c-5.00781 -6.38867 -10.1602 -8.00977 -4.17773 -14.9785c2.90039 -3.38281 12.1592 -5.65234 16.126 -7.66797c11.6807 -5.93164 22.8018 -12.8408 33.458 -20.457
c20.876 -14.9189 39.5879 -32.3994 55.4131 -52.623zM209.366 326.767c0.516602 5.69434 1.05762 11.376 1.59961 17.0527c-11.041 8.86523 -27.9922 20.2236 -41.7891 19.2412c-26.54 -1.8877 -46.8564 -43.0254 -57.6777 -62.9697
c-18.2461 -33.6309 -27.8389 -71.0303 -32.4531 -108.802c-4.75 -38.8682 -7.46777 -79.2266 0.211914 -117.832c2.78125 -13.9668 7.35352 -29.5 15.9814 -41.125c4.83496 -6.51562 10.1816 -13.1494 18.6699 -10.2451c6.62988 2.26953 13.0098 14.2969 16.4639 19.7158
c21.7773 34.1562 31.5098 75.0225 40.4385 114.009c13.0391 56.9414 25.46 114.026 38.5547 170.955zM389.735 -320.812c39.4951 25.8418 49.0088 80.9668 48.5684 124.623c-0.982422 95.9316 -55.8574 172.22 -138.103 215.791
c-1.25781 -39.7363 -1.94824 -79.3662 -0.0605469 -119.246c2.3916 -50.5693 2.8916 -103.865 12.9463 -153.588c6.37988 -31.5566 35.4092 -94.5645 76.6484 -67.5801z" />
    <glyph glyph-name="r" unicode="r" horiz-adv-x="363" 
d="M388.763 237.848c6.65137 -3.24707 15.4668 -12.2852 6.71191 -19.1982c-27.5938 -21.7607 -58.8672 -40.0244 -94.8223 -41.4004c-37.0391 -1.42285 -75.2471 11.4053 -99.2305 40.5918c-22.4756 27.3486 -29.1729 61.5811 -30.5576 96.25
c-0.364258 9.08984 -0.0810547 18.1875 0.613281 27.2559c-2.78613 -6.35059 -5.50879 -12.7305 -8.1377 -19.1484c-13.7715 -33.6309 -25.9561 -67.9482 -36.9336 -102.592c-19.9482 -62.9609 -35.2402 -127.196 -46.2471 -192.266
c0.65625 -12.54 0.516602 -24.9658 -1.55371 -37.0107c-3.04785 -17.7686 -34.3545 -19.5469 -46.5215 -10.9824c-15.0967 10.626 -25.1299 18.9277 -31.3408 36.8564c-5.5166 15.9307 -8.31543 33.1523 -10.5596 49.8115c-5.16504 38.335 -7.67578 77.0508 -8.7041 115.703
c-2.06152 77.2871 2.65918 155.091 10.9277 231.934c4.16602 38.6992 100.441 37.5947 98.0322 0.000976562c-4.68652 -73.2109 -12.54 -146.163 -15.4609 -219.509c-0.0888672 -2.32031 -0.126953 -4.64453 -0.207031 -6.96484
c2.60352 9.17383 5.29199 18.3223 8.08203 27.4453c21.0742 68.9521 45.2861 139.821 83.6123 201.317c7.14648 11.4688 13.459 21.2656 27.7217 23.7256c10.542 1.82031 23.0312 -1.14746 30.3809 -9.05957c23.0605 -24.8301 26.6338 -61.3779 30.1055 -93.7939
c3.53125 -32.9922 7.02441 -64.498 24.166 -93.8496c6.32031 -10.8164 14.0088 -21.1973 26.9336 -22.8994c17.1836 -2.26074 34.4561 8.62402 48.7227 16.6172c9.74121 5.45703 24.1738 6.09668 34.2666 1.16504z" />
    <glyph glyph-name="s" unicode="s" horiz-adv-x="274" 
d="M287.104 238.372c21.3076 5.08887 39.083 -17.0723 11.4043 -23.5879c-46.5645 -10.9736 -91.3975 -28.7803 -132.878 -52.5898c-2.4043 -1.37988 -4.82129 -2.78125 -7.25098 -4.2041c31.3496 -44.6846 55.9678 -91.9395 39.1904 -149.588
c-9.58887 -32.9541 -22.0186 -57.1699 -57.1523 -66.6406c-32.1455 -8.66211 -70.5947 -3.33203 -98.9639 14.1826c-29.1094 17.9717 -42.458 50.5322 -36.9717 84.0068c6.28223 38.3223 33.3008 68.0293 62.3896 91.75c1.40527 1.14746 2.84863 2.23535 4.2627 3.36523
c-19.2666 23.1279 -39.2197 45.7051 -56.5479 70.3613c-22.0781 31.4082 -41.5146 68.041 -43.4111 107.167c-1.83691 37.9746 10.8379 74.3877 33.7705 104.311c23.6143 30.8115 59.5234 54.2021 99.8145 50.0156c35.0576 -3.64551 54.7607 -31.9004 64.7012 -62.9746
c6.72266 -21.0234 -40.1211 -23.3984 -47.6484 -7.48926c-2.54395 5.38477 -5.02441 10.9688 -8.27539 15.9854c-1.68066 2.59473 -7.21777 7.49316 -9.58398 10.9561c-1.61328 -1.41406 -3.04883 -2.73535 -3.30273 -2.98535
c-14.1699 -14.0127 -22.6074 -36.3916 -26.832 -55.459c-10.3174 -46.5771 6.40918 -92.748 31.0186 -131.912c10.7871 -17.167 23.5176 -34.0508 36.1719 -51.1123c45.6416 25.499 94.9111 44.2197 146.095 56.4424zM109.074 427.219
c-0.0673828 0.19043 -0.638672 -0.152344 -1.44336 -0.757812c1.13867 -0.46582 1.90039 -0.558594 1.44336 0.757812zM64.4404 -22.4131c23.627 -20.4736 84.7373 -26.5371 85.1865 18.1943c0.199219 20.376 -13.9785 43.1016 -23.6904 60.2139
c-9.33496 16.4473 -18.8896 33.0889 -30.2188 48.2529c-1.54492 2.06641 -3.14551 4.08203 -4.7207 6.12305c-10.5967 -9.70703 -20.1855 -20.2363 -28.0596 -31.7686c-19.8467 -29.0586 -28.4453 -75.0684 1.50293 -101.016z" />
    <glyph glyph-name="t" unicode="t" horiz-adv-x="271" 
d="M189.52 678.203c39.9727 6.43066 247.8 42.5068 226.738 -44.6914c-3.52246 -14.5977 -44.8799 -11.7656 -40.502 6.3623c9.46191 39.1895 -100.86 24.2666 -120.737 22.3271c-42.9912 -4.19141 -85.5596 -11.9473 -127.691 -21.3545
c-9.30078 -2.07422 -18.5635 -4.28027 -27.8262 -6.51172c-1.70996 -26.9336 -3.29785 -53.876 -4.56348 -80.8477c-5.99512 -127.591 -9.60645 -255.452 -7.27344 -383.174c0.415039 -22.7168 2.00293 -45.1719 4.2041 -67.7744
c2.91699 -29.9434 10.8887 -89.4326 50.4297 -94.6396c17.0996 -2.25195 35.4482 21.126 45.4053 32.8994c14.1953 16.79 25.3379 35.6885 34.4658 55.6455c18.0518 39.457 28.2549 81.9619 41.3115 123.192c4.71191 14.8896 46.6328 11.6211 41.3955 -6.50684
c-24.9736 -86.4873 -50.7344 -224.886 -161.929 -235.732c-46.7979 -4.56348 -90.1533 20.3125 -117.557 57.0684c-23.2168 31.1416 -32.3398 68.4141 -36.8701 106.427c-7.19727 60.417 -7.10449 121.702 -7.33301 182.462
c-0.295898 78.6045 1.98633 157.196 5.32617 235.725c0.660156 15.5459 1.30371 31.1211 1.99414 46.7002c-35.5918 -9.88574 -77.4746 -26.5195 -113.854 -22.1592c-7.09961 0.855469 -16.9258 5.69043 -14.1826 14.2422c2.78613 8.67871 17.9971 8.88574 24.9824 8.08594
c10.4268 -1.19434 27.7168 6.14648 37.873 8.75c12.7559 3.26855 25.4941 6.62109 38.2197 10.0039c9.40234 2.49805 18.8008 5.0166 28.1992 7.52734c2.04492 41.0146 4.7627 82.0254 9.57617 122.71c5.07227 42.8945 111.829 41.5098 108.684 0
c-2.38379 -31.4717 -4.69531 -62.9395 -6.82031 -94.416c29.2627 6.79492 58.6777 12.9043 88.334 17.6797z" />
    <glyph glyph-name="u" unicode="u" horiz-adv-x="498" 
d="M492.449 215.697c4.75 13.8525 43.7871 10.792 38.7285 -6.08691c-17.6797 -58.9307 -40.2949 -122.916 -76.5938 -173.244c-34.6689 -48.0723 -101.004 -55.79 -148.102 -20.5459c-41.5264 31.0781 -49.833 96.6299 -51.5557 150.438
c-10.6602 -33.7031 -21.9131 -69.5654 -41.4805 -99.2637c-18.4668 -28.0215 -43.1738 -43.3467 -75.0146 -52.2197c-75.9502 -21.1719 -131.655 45.2988 -147.15 112.227c-18.6738 80.6621 -15.4521 162.831 -10.2324 244.852
c2.54395 39.9854 102.812 37.8428 99.8857 -0.000976562c-5.16113 -66.7676 -8.46777 -133.653 -2.3252 -200.488c2.625 -28.5723 5.63477 -60.2939 15.7617 -87.334c4.55078 -12.167 10.3213 -22.1748 19.7451 -31.124c8.47949 -8.05664 13.6572 -12.167 24.1221 -8.7207
c27.9541 9.21191 43.9697 47.6104 54.4561 72.207c12.2861 28.8174 22.4844 58.4902 31.1719 88.5781c17.832 61.7842 29.6602 125.062 41.5098 188.201c0.152344 0.821289 0.422852 1.58301 0.75293 2.31152c0.123047 1.17676 0.237305 2.35352 0.360352 3.52637
c4.79199 45.2988 115.872 45.5908 116.092 0c0.266602 -55.2559 -6.70996 -110.169 -8.97949 -165.357c-2.10449 -51.1709 0.710938 -101.521 5.34277 -152.433c1.61719 -17.7559 3.6875 -38.9951 13.1113 -54.668c3.39062 -4.08496 4.11035 -4.52539 2.16699 -1.3291
c-2.03223 2.23535 -1.13477 3.80566 2.70117 4.70312c2.68359 4.41113 9.56738 8.22168 13.1621 12.5742c8.04395 9.74121 14.1318 21.2061 20.2158 32.2129c24.8633 44.9854 45.4805 92.3838 62.1475 140.984z" />
    <glyph glyph-name="u" unicode="&#xfc;" horiz-adv-x="498" 
d="M492.449 215.697c4.75 13.8525 43.7871 10.792 38.7285 -6.08691c-17.6797 -58.9307 -40.2949 -122.916 -76.5938 -173.244c-34.6689 -48.0723 -101.004 -55.79 -148.102 -20.5459c-41.5264 31.0781 -49.833 96.6299 -51.5557 150.438
c-10.6602 -33.7031 -21.9131 -69.5654 -41.4805 -99.2637c-18.4668 -28.0215 -43.1738 -43.3467 -75.0146 -52.2197c-75.9502 -21.1719 -131.655 45.2988 -147.15 112.227c-18.6738 80.6621 -15.4521 162.831 -10.2324 244.852
c2.54395 39.9854 102.812 37.8428 99.8857 -0.000976562c-5.16113 -66.7676 -8.46777 -133.653 -2.3252 -200.488c2.625 -28.5723 5.63477 -60.2939 15.7617 -87.334c4.55078 -12.167 10.3213 -22.1748 19.7451 -31.124c8.47949 -8.05664 13.6572 -12.167 24.1221 -8.7207
c27.9541 9.21191 43.9697 47.6104 54.4561 72.207c12.2861 28.8174 22.4844 58.4902 31.1719 88.5781c17.832 61.7842 29.6602 125.062 41.5098 188.201c0.152344 0.821289 0.422852 1.58301 0.75293 2.31152c0.123047 1.17676 0.237305 2.35352 0.360352 3.52637
c4.79199 45.2988 115.872 45.5908 116.092 0c0.266602 -55.2559 -6.70996 -110.169 -8.97949 -165.357c-2.10449 -51.1709 0.710938 -101.521 5.34277 -152.433c1.61719 -17.7559 3.6875 -38.9951 13.1113 -54.668c3.39062 -4.08496 4.11035 -4.52539 2.16699 -1.3291
c-2.03223 2.23535 -1.13477 3.80566 2.70117 4.70312c2.68359 4.41113 9.56738 8.22168 13.1621 12.5742c8.04395 9.74121 14.1318 21.2061 20.2158 32.2129c24.8633 44.9854 45.4805 92.3838 62.1475 140.984z" />
    <glyph glyph-name="u" unicode="&#xfb;" horiz-adv-x="498" 
d="M492.449 215.697c4.75 13.8525 43.7871 10.792 38.7285 -6.08691c-17.6797 -58.9307 -40.2949 -122.916 -76.5938 -173.244c-34.6689 -48.0723 -101.004 -55.79 -148.102 -20.5459c-41.5264 31.0781 -49.833 96.6299 -51.5557 150.438
c-10.6602 -33.7031 -21.9131 -69.5654 -41.4805 -99.2637c-18.4668 -28.0215 -43.1738 -43.3467 -75.0146 -52.2197c-75.9502 -21.1719 -131.655 45.2988 -147.15 112.227c-18.6738 80.6621 -15.4521 162.831 -10.2324 244.852
c2.54395 39.9854 102.812 37.8428 99.8857 -0.000976562c-5.16113 -66.7676 -8.46777 -133.653 -2.3252 -200.488c2.625 -28.5723 5.63477 -60.2939 15.7617 -87.334c4.55078 -12.167 10.3213 -22.1748 19.7451 -31.124c8.47949 -8.05664 13.6572 -12.167 24.1221 -8.7207
c27.9541 9.21191 43.9697 47.6104 54.4561 72.207c12.2861 28.8174 22.4844 58.4902 31.1719 88.5781c17.832 61.7842 29.6602 125.062 41.5098 188.201c0.152344 0.821289 0.422852 1.58301 0.75293 2.31152c0.123047 1.17676 0.237305 2.35352 0.360352 3.52637
c4.79199 45.2988 115.872 45.5908 116.092 0c0.266602 -55.2559 -6.70996 -110.169 -8.97949 -165.357c-2.10449 -51.1709 0.710938 -101.521 5.34277 -152.433c1.61719 -17.7559 3.6875 -38.9951 13.1113 -54.668c3.39062 -4.08496 4.11035 -4.52539 2.16699 -1.3291
c-2.03223 2.23535 -1.13477 3.80566 2.70117 4.70312c2.68359 4.41113 9.56738 8.22168 13.1621 12.5742c8.04395 9.74121 14.1318 21.2061 20.2158 32.2129c24.8633 44.9854 45.4805 92.3838 62.1475 140.984z" />
    <glyph glyph-name="u" unicode="&#xfa;" horiz-adv-x="498" 
d="M492.449 215.697c4.75 13.8525 43.7871 10.792 38.7285 -6.08691c-17.6797 -58.9307 -40.2949 -122.916 -76.5938 -173.244c-34.6689 -48.0723 -101.004 -55.79 -148.102 -20.5459c-41.5264 31.0781 -49.833 96.6299 -51.5557 150.438
c-10.6602 -33.7031 -21.9131 -69.5654 -41.4805 -99.2637c-18.4668 -28.0215 -43.1738 -43.3467 -75.0146 -52.2197c-75.9502 -21.1719 -131.655 45.2988 -147.15 112.227c-18.6738 80.6621 -15.4521 162.831 -10.2324 244.852
c2.54395 39.9854 102.812 37.8428 99.8857 -0.000976562c-5.16113 -66.7676 -8.46777 -133.653 -2.3252 -200.488c2.625 -28.5723 5.63477 -60.2939 15.7617 -87.334c4.55078 -12.167 10.3213 -22.1748 19.7451 -31.124c8.47949 -8.05664 13.6572 -12.167 24.1221 -8.7207
c27.9541 9.21191 43.9697 47.6104 54.4561 72.207c12.2861 28.8174 22.4844 58.4902 31.1719 88.5781c17.832 61.7842 29.6602 125.062 41.5098 188.201c0.152344 0.821289 0.422852 1.58301 0.75293 2.31152c0.123047 1.17676 0.237305 2.35352 0.360352 3.52637
c4.79199 45.2988 115.872 45.5908 116.092 0c0.266602 -55.2559 -6.70996 -110.169 -8.97949 -165.357c-2.10449 -51.1709 0.710938 -101.521 5.34277 -152.433c1.61719 -17.7559 3.6875 -38.9951 13.1113 -54.668c3.39062 -4.08496 4.11035 -4.52539 2.16699 -1.3291
c-2.03223 2.23535 -1.13477 3.80566 2.70117 4.70312c2.68359 4.41113 9.56738 8.22168 13.1621 12.5742c8.04395 9.74121 14.1318 21.2061 20.2158 32.2129c24.8633 44.9854 45.4805 92.3838 62.1475 140.984z" />
    <glyph glyph-name="v" unicode="v" horiz-adv-x="483" 
d="M520.635 227.196c2.74316 -8.59375 -7.04004 -13.2617 -14.1904 -14.2393c-41.8828 -5.76172 -94.1631 -5 -143.911 5.37598c-7.93359 -25.4434 -16.3965 -50.6963 -25.2998 -75.6152c-19.0293 -53.2705 -42.5596 -116.947 -94.7803 -145.998
c-55.4932 -30.8711 -123.099 -30.8877 -167.589 19.8262c-43.1055 49.1348 -61.627 115.03 -76.2285 177.34c-15.9775 68.1729 -25.3125 137.387 -25.6338 207.443c-0.199219 42.7246 107.79 42.7969 109.145 0c1.95117 -61.6357 7.59863 -123.271 19.4014 -183.837
c10.3379 -53.0547 22.9033 -107.346 46.7803 -156.142c7.73047 -15.7949 19.1699 -39.6934 35.2783 -48.7578c20.249 -11.3926 44.1641 10.0967 56.6445 24.5293c32.4463 37.5137 49.4824 91.0469 64.9219 137.319c6.03711 18.1025 11.9766 36.2812 17.7002 54.5361
c-71.6699 23.915 -129.542 71.7031 -128.979 154.062c0.368164 53.3848 21.9844 123.247 66.6943 156.112c40.9131 30.0752 101.999 27.3701 131.528 -16.832c34.6182 -51.8184 14.7285 -133.458 1.75293 -189.408c-7.03613 -30.3418 -15.1562 -60.6416 -24.0762 -90.7207
c42.9785 -10.4648 89.1328 -11.6377 125.858 -6.90918c6.61719 0.850586 22.2559 0.457031 24.9824 -8.08594zM349.173 320.683c12.459 48.8809 25.5254 105.798 17.7734 156.452c-3.6875 24.1182 -19.6143 61.7246 -50.0029 57.6602
c-21.583 -2.8877 -38.2676 -24.0254 -48.2295 -41.5605c-23.4961 -41.3535 -35.8281 -94.002 -26.417 -141.075c9.61426 -48.1143 44.7529 -78.9854 88.502 -97.2959c6.55371 21.8408 12.7559 43.7793 18.374 65.8193z" />
    <glyph glyph-name="w" unicode="w" horiz-adv-x="657" 
d="M671.325 225.955c23.708 -0.199219 34.3506 -22.9092 6.56152 -27.6592c-43.2842 -7.40039 -93.71 -0.681641 -138.149 15.499c-4.4668 -18.0684 -9.30566 -36.04 -14.6143 -53.8721c-15.2578 -51.2471 -32.9883 -110.165 -71.9746 -148.906
c-39.0752 -38.8301 -99.1914 -35.9473 -140.642 -2.21484c-40.6719 33.0977 -62.1318 89.167 -74.0957 139.267c-3.27637 -14.5166 -6.80273 -28.9785 -10.8291 -43.3262c-8.08594 -28.8301 -19.334 -57.3643 -43.3936 -76.5801
c-21.3408 -17.0439 -49.248 -23.4912 -76.207 -23.3604c-32.9326 0.161133 -67.3047 16.7266 -87.4863 42.665c-21.6338 27.8145 -28.835 60.9082 -34.5674 94.9756c-12.6963 75.4336 -10.2236 155.951 -2.6875 231.854c4.13574 41.6709 107.053 41.502 106.367 0.000976562
c-1.02441 -62.3008 -7.07422 -124.17 -3.57715 -186.556c2.6123 -46.5693 1.49512 -109.082 33.6445 -147.015c8.4209 -9.94043 10.9316 -12.0615 20.7744 -4.80566c11.9385 8.80176 20.9346 18.1113 28.4873 31.1377c13.1201 22.6328 19.5039 49.1055 25.791 74.248
c12.0107 48.0381 19.7412 97.0156 25.4688 146.18c-0.842773 14.165 -1.53711 28.3389 -2.19727 42.4834c-1.76074 37.75 96.6611 38.542 97.5713 0c2.22266 -94.1113 5.2373 -197.659 47.7207 -283.943c7.50195 -15.249 21.5869 -41.7168 41.3193 -29.5029
c16.4346 10.1777 27.9375 30.2021 37.0947 46.5771c21.9766 39.2959 35.0625 83.498 47.0225 126.68c3.87402 14 7.43848 28.0811 10.7617 42.2207c-3.93262 2.18457 -7.78906 4.42383 -11.502 6.76074c-48.3848 30.46 -75.3105 79.5693 -80.1621 136.058
c-4.22949 49.2402 6.45215 105.648 39.1562 144.105c29.8164 35.0576 89.5986 41.0098 112.739 -4.97461c13.3652 -26.5654 12.4932 -61.7754 11.6299 -90.6865c-0.875977 -29.415 -4.18262 -58.7871 -8.19629 -87.918
c-4.30176 -31.2227 -9.91113 -62.2715 -16.7188 -93.0576c40.1553 -16.0371 81.3818 -15.9697 124.89 -16.334zM517.66 327.419c6.93457 47.3223 12.9307 96.168 8.05371 143.978c-1.31641 12.9336 -2.81934 27.9121 -10.0674 39.1016
c-7.07031 10.9102 -11.499 13.7256 -21.8418 5.03809c-14.8213 -12.4463 -24.4062 -31.7002 -30.9727 -49.583c-14.4199 -39.2783 -16.7061 -86.3086 -5.05078 -126.616c8.6748 -29.999 25.3164 -55.5742 48.9307 -74.3877c4.2168 20.7188 7.88281 41.5479 10.9482 62.4697z
" />
    <glyph glyph-name="x" unicode="x" horiz-adv-x="466" 
d="M461.133 222.522c4.4873 14.3135 45.1377 10.8799 39.6045 -6.21973c-23.0479 -71.3096 -62.665 -139.809 -116.731 -192.267c-53.5547 -51.9668 -136.511 -49.6426 -198.054 -11.9434c-41.8018 25.6084 -71.3984 65.9121 -92.4941 110.36
c-3.47559 -4.72461 -6.90039 -9.47852 -10.2402 -14.2832c-24.6309 -35.4141 -45.5742 -73.2666 -69.9932 -108.884c-9.79199 -14.2881 -60.0146 -13.0303 -49.8799 7.84082c20.0293 41.2559 47.501 74.5107 76.2471 109.907
c12.4551 15.3379 24.7539 30.7734 37.1162 46.1582c-4.81738 13.5596 -9 27.209 -12.6201 40.6758c-10.4229 38.7451 -17.29 77.9727 -22.7559 117.688c-5.34277 38.8301 -12.8994 78.6123 -13.6064 117.802c-0.40625 22.666 32.0732 30.1045 48.9268 31.5859
c16.2021 1.42285 56.1582 -1.82031 61.9111 -23.0391c15.7021 -57.9229 18.335 -120.084 26.5098 -179.942c43.7197 50.3154 87.4609 100.61 127.934 153.627c8.78027 11.5029 47.2969 4.75879 35.0703 -11.6846c-48.749 -65.5732 -102.485 -127.104 -155.054 -189.591
c10.084 -50.9717 25.5361 -101.8 50.8828 -147.019c12.6709 -22.6074 29.6348 -48.7705 54.2148 -59.7188c33.3057 -14.834 65.083 14.1611 86.2715 37.0264c45.0234 48.5928 77.0166 108.988 96.7402 171.92z" />
    <glyph glyph-name="y" unicode="y" horiz-adv-x="471" 
d="M496.508 235.786c6.26562 -2.30762 15.6006 -10.2285 7.70898 -16.7441c-37.6104 -31.0068 -75.1875 -62.2627 -111.773 -94.5898c2.03223 -63.833 4.57227 -127.666 7.49316 -191.537c3.16699 -69.2734 2.56543 -141.582 -13.5605 -209.361
c-14.9951 -63.0244 -46.5312 -120.575 -88.2021 -170.129c-36.1074 -42.9365 -97.79 -65.8994 -151.708 -43.9824c-52.1699 21.21 -82.5664 76.3516 -92.4434 129.301c-22.7344 121.909 58.626 239.678 131.739 329.069c32.1836 39.3555 67.123 76.2207 103.781 111.372
c-3.9834 53.918 -7.73047 107.874 -10.6602 161.86c-8.23047 -25.2822 -17.333 -50.1758 -26.8799 -74.4551c-22.6533 -57.5928 -56.0859 -142.75 -125.059 -156.429c-33.6143 -6.66797 -71.1738 0.821289 -95.957 25.5156
c-26.7852 26.6885 -36.2305 66.3525 -43.8809 102.024c-17.3232 80.7764 -8.85156 164.253 -0.642578 245.609c2.45996 24.3975 34.9775 31.2393 54.8037 31.2393c15.9219 0 57.6982 -7.34961 54.8027 -31.2393c-7.81055 -64.4219 -16.2139 -129.58 -14.3936 -194.599
c0.922852 -32.9365 3.54785 -64.9424 9.18652 -97.4141c3.01855 -17.374 7.75195 -43.5498 22.7051 -56.1787c28.585 5.66895 51.6621 44.2959 64.1807 66.5098c16.0537 28.4873 28.9072 58.791 40.3418 89.3867c24.5547 65.709 46.6709 134.703 54.1562 204.671
c0.135742 1.25781 0.521484 2.40039 1.07227 3.45898c-0.00390625 0.389648 -0.0166016 0.783203 -0.0205078 1.17676c-0.507812 44.7695 114.175 44.6934 114.238 0c0.110352 -76.9824 1.40137 -153.859 3.53125 -230.711c25.0879 20.9854 50.5273 41.5225 76.0723 61.7842
c7.9248 6.28711 19.8379 7.9043 29.3672 4.39062zM294.987 -341.876c22.2432 122.341 7.81641 243.751 -1.40039 366.57c-0.139648 1.83691 -0.275391 3.66992 -0.411133 5.50293c-23.4414 -24.2793 -46.002 -49.4219 -67.2969 -75.7627
c-68.8076 -85.0986 -144.363 -197.325 -125.071 -312.516c7.3877 -44.1182 40.8584 -119.628 95.7969 -114.015c62.2285 6.3584 88.9121 78.1299 98.3828 130.22z" />
    <glyph glyph-name="y" unicode="&#xff;" horiz-adv-x="471" 
d="M496.508 235.786c6.26562 -2.30762 15.6006 -10.2285 7.70898 -16.7441c-37.6104 -31.0068 -75.1875 -62.2627 -111.773 -94.5898c2.03223 -63.833 4.57227 -127.666 7.49316 -191.537c3.16699 -69.2734 2.56543 -141.582 -13.5605 -209.361
c-14.9951 -63.0244 -46.5312 -120.575 -88.2021 -170.129c-36.1074 -42.9365 -97.79 -65.8994 -151.708 -43.9824c-52.1699 21.21 -82.5664 76.3516 -92.4434 129.301c-22.7344 121.909 58.626 239.678 131.739 329.069c32.1836 39.3555 67.123 76.2207 103.781 111.372
c-3.9834 53.918 -7.73047 107.874 -10.6602 161.86c-8.23047 -25.2822 -17.333 -50.1758 -26.8799 -74.4551c-22.6533 -57.5928 -56.0859 -142.75 -125.059 -156.429c-33.6143 -6.66797 -71.1738 0.821289 -95.957 25.5156
c-26.7852 26.6885 -36.2305 66.3525 -43.8809 102.024c-17.3232 80.7764 -8.85156 164.253 -0.642578 245.609c2.45996 24.3975 34.9775 31.2393 54.8037 31.2393c15.9219 0 57.6982 -7.34961 54.8027 -31.2393c-7.81055 -64.4219 -16.2139 -129.58 -14.3936 -194.599
c0.922852 -32.9365 3.54785 -64.9424 9.18652 -97.4141c3.01855 -17.374 7.75195 -43.5498 22.7051 -56.1787c28.585 5.66895 51.6621 44.2959 64.1807 66.5098c16.0537 28.4873 28.9072 58.791 40.3418 89.3867c24.5547 65.709 46.6709 134.703 54.1562 204.671
c0.135742 1.25781 0.521484 2.40039 1.07227 3.45898c-0.00390625 0.389648 -0.0166016 0.783203 -0.0205078 1.17676c-0.507812 44.7695 114.175 44.6934 114.238 0c0.110352 -76.9824 1.40137 -153.859 3.53125 -230.711c25.0879 20.9854 50.5273 41.5225 76.0723 61.7842
c7.9248 6.28711 19.8379 7.9043 29.3672 4.39062zM294.987 -341.876c22.2432 122.341 7.81641 243.751 -1.40039 366.57c-0.139648 1.83691 -0.275391 3.66992 -0.411133 5.50293c-23.4414 -24.2793 -46.002 -49.4219 -67.2969 -75.7627
c-68.8076 -85.0986 -144.363 -197.325 -125.071 -312.516c7.3877 -44.1182 40.8584 -119.628 95.7969 -114.015c62.2285 6.3584 88.9121 78.1299 98.3828 130.22z" />
    <glyph glyph-name="y" unicode="&#xfd;" horiz-adv-x="471" 
d="M496.508 235.786c6.26562 -2.30762 15.6006 -10.2285 7.70898 -16.7441c-37.6104 -31.0068 -75.1875 -62.2627 -111.773 -94.5898c2.03223 -63.833 4.57227 -127.666 7.49316 -191.537c3.16699 -69.2734 2.56543 -141.582 -13.5605 -209.361
c-14.9951 -63.0244 -46.5312 -120.575 -88.2021 -170.129c-36.1074 -42.9365 -97.79 -65.8994 -151.708 -43.9824c-52.1699 21.21 -82.5664 76.3516 -92.4434 129.301c-22.7344 121.909 58.626 239.678 131.739 329.069c32.1836 39.3555 67.123 76.2207 103.781 111.372
c-3.9834 53.918 -7.73047 107.874 -10.6602 161.86c-8.23047 -25.2822 -17.333 -50.1758 -26.8799 -74.4551c-22.6533 -57.5928 -56.0859 -142.75 -125.059 -156.429c-33.6143 -6.66797 -71.1738 0.821289 -95.957 25.5156
c-26.7852 26.6885 -36.2305 66.3525 -43.8809 102.024c-17.3232 80.7764 -8.85156 164.253 -0.642578 245.609c2.45996 24.3975 34.9775 31.2393 54.8037 31.2393c15.9219 0 57.6982 -7.34961 54.8027 -31.2393c-7.81055 -64.4219 -16.2139 -129.58 -14.3936 -194.599
c0.922852 -32.9365 3.54785 -64.9424 9.18652 -97.4141c3.01855 -17.374 7.75195 -43.5498 22.7051 -56.1787c28.585 5.66895 51.6621 44.2959 64.1807 66.5098c16.0537 28.4873 28.9072 58.791 40.3418 89.3867c24.5547 65.709 46.6709 134.703 54.1562 204.671
c0.135742 1.25781 0.521484 2.40039 1.07227 3.45898c-0.00390625 0.389648 -0.0166016 0.783203 -0.0205078 1.17676c-0.507812 44.7695 114.175 44.6934 114.238 0c0.110352 -76.9824 1.40137 -153.859 3.53125 -230.711c25.0879 20.9854 50.5273 41.5225 76.0723 61.7842
c7.9248 6.28711 19.8379 7.9043 29.3672 4.39062zM294.987 -341.876c22.2432 122.341 7.81641 243.751 -1.40039 366.57c-0.139648 1.83691 -0.275391 3.66992 -0.411133 5.50293c-23.4414 -24.2793 -46.002 -49.4219 -67.2969 -75.7627
c-68.8076 -85.0986 -144.363 -197.325 -125.071 -312.516c7.3877 -44.1182 40.8584 -119.628 95.7969 -114.015c62.2285 6.3584 88.9121 78.1299 98.3828 130.22z" />
    <glyph glyph-name="z" unicode="z" horiz-adv-x="337" 
d="M363.098 203.59c6.0332 -2.22266 15.127 -9.91992 7.44336 -16.1943c-34.1562 -27.9326 -68.3633 -56.0732 -101.969 -84.9287c19.335 -23.75 34.7236 -50.459 44.7529 -79.2764c36.0186 -103.493 10.8252 -236.973 -62.2588 -319.412
c-35.7012 -40.2734 -92.0283 -72.1094 -144.846 -82.1514c-47.1064 -8.95801 -108.022 -3.49707 -140.714 36.0869c-32.8145 39.7275 -17.8613 99.082 -1.33398 142.522c20.0293 52.6357 53.7285 99.1709 90.4717 141.366c38.1611 43.8252 79.5566 84.7295 122.607 123.915
c-15.0547 20.4053 -33.166 38.6602 -53.8428 52.957c-16.3584 11.3076 -33.9492 20.376 -52.873 26.4727c-9.68164 3.12012 -12.9502 3.83105 -23.0137 5.32129c-3.39062 0.5 -6.79004 0.87207 -10.1934 1.23145c2.19336 -0.44043 -21.9043 0.977539 -12.4131 0.630859
c-16.6377 0.609375 -44.0283 4.42773 -51.7334 22.4502c-7.66699 17.9375 10.9053 28.6611 24.6562 34.5332c62.0088 26.4893 120.631 76.627 161.591 129.69c11.9385 15.4697 24.542 34.3262 12.667 53.6943c-9.61816 15.6895 -30.1084 21.0869 -46.9072 24.2451
c-43.3428 8.15332 -88.1426 0.634766 -131.185 -5.82129c-7.17969 -1.0752 -24.3174 -0.393555 -27.2598 8.82324c-3.02246 9.46191 7.71387 14.3389 15.4785 15.5371c55.0195 8.49219 111.647 16.3496 166.726 3.97949c37.7969 -8.48828 77.499 -29.4658 73.3672 -73.7314
c-6.12207 -65.5947 -49.3555 -122.346 -100.929 -164.427c46.7637 -14.377 90.416 -40.4004 125.33 -74.7051c29.0967 24.6904 58.5576 48.9023 87.96 72.9443c7.54883 6.16797 19.3135 7.60352 28.4199 4.24609zM199.653 -243.545
c41.6455 84.9795 43.2842 188.236 -0.0166016 272.933c-1.33398 2.61621 -2.81152 5.17285 -4.23828 7.75098c-32.2891 -30.1602 -63.4941 -61.416 -92.9385 -94.3145c-32.001 -35.7607 -61.5684 -74.1416 -82.9141 -117.319
c-19.0889 -38.6143 -39.9902 -92.5117 -25.2959 -135.816c17.1328 -50.4932 79.2646 -53.1348 120.923 -34.2832c41.5479 18.8008 65.1963 61.7031 84.4805 101.05z" />
    <glyph glyph-name="braceleft" unicode="{" horiz-adv-x="651" 
d="M537.82 -218.561c16.2529 10.542 82.8398 2.90723 58.0732 -25.542c-51.4883 -59.1553 -144.368 -82.6475 -218.277 -59.1641c-70.8818 22.5225 -122.218 83.7949 -146.992 152.019c-26.6201 73.3125 -30.6719 151.587 -39.918 228.29
c-4.7334 39.2783 -9.83496 80.1787 -24.5889 117.176c-5.02148 12.5986 -11.6299 28.4492 -23.2676 36.5518c-11.1084 7.73438 -24.165 6.08789 -36.6836 5.71582c-25.4902 -0.757812 -74.3838 17.1328 -49.1221 48.791c84.29 105.636 139.127 231.838 185.218 357.845
c20.2656 55.4004 36.3867 115.868 71.0889 164.443c25.0537 35.0664 86.2881 90.9365 132.209 58.4951c19.4697 -13.7588 -14.8555 -22.2383 -27.5176 -16.5996c-1.09668 -0.431641 -2.73926 -1.02051 -5.04199 -1.80762
c-2.52344 -1.20215 -4.9707 -2.54004 -7.34961 -4.00488c-5.86816 -3.45898 -10.8428 -7.42578 -15.5508 -12.332c-7.74316 -8.07324 -13.751 -17.5898 -18.9072 -27.4707c-10.6641 -20.4434 -17.8018 -42.9238 -23.6992 -65.1455
c-14.4658 -54.5156 -25.9814 -109.683 -41.5732 -163.961c-28.8809 -100.538 -66.3604 -196.957 -123.603 -283.851c18.6992 -5.0332 36.6367 -12.8311 52.4023 -25.6846c26.6035 -21.6885 39.4102 -54.3418 47.7334 -86.6094
c19.0342 -73.7861 20.7695 -149.909 32.2383 -224.902c9.59277 -62.7246 28.7373 -132.972 72.5928 -181.031c15.4521 -16.9346 36.8818 -35.5117 61.3809 -34.085c33.2168 1.93457 62.5049 25.5791 89.1553 42.8643z" />
    <glyph glyph-name="verticalbar" unicode="|" horiz-adv-x="232" 
d="M169.441 756.132c33.2041 -336.347 -9.60547 -674.949 -2.73047 -1012.06c0.922852 -45.3076 -115.165 -45.5957 -116.092 0c-6.89258 337.959 45.9805 674.229 49.498 1012.06c0.283203 27.3447 66.6611 26.9766 69.3242 0z" />
    <glyph glyph-name="braceright" unicode="}" horiz-adv-x="531" 
d="M456.989 324.814c16.1426 -4.55957 31.5322 -19.5996 20.6143 -35.8818c-8.53516 -12.7344 -25.668 -16.8877 -41.6406 -17.4082c-1.41797 -1.2832 -3.28027 -3.31543 -5.40137 -6.56641c-3.58594 -5.48633 -6.15527 -12.2344 -8.44531 -18.3311
c-6.05371 -16.1045 -10.084 -33.2295 -13.3096 -50.0957c-6.27832 -32.8145 -9.34766 -66.1328 -11.1641 -99.4639c-3.79785 -69.71 -1.87207 -139.928 -11.8926 -209.185c-9.15332 -63.2275 -31.7686 -125.037 -93.502 -153.639
c-55.1631 -25.5625 -146.303 -20.1182 -176.026 41.8105c-7.31543 15.2412 12.2227 24.4277 23.5557 27.3574c16.6338 4.30176 37.4463 2.16406 50.8027 -9.48633c7.96289 -6.95117 16.4893 -13.6357 26.5527 -17.0732c5.83789 -1.99414 4.60156 -2.48535 10.4521 0.0419922
c22.5439 9.7334 36.2188 37.0693 44.2412 58.6348c21.6719 58.2617 19.9238 126.498 21.8037 187.812c2.01562 65.6709 3.94629 131.494 19.0391 195.734c6.51074 27.709 13.4834 57.4199 33.4873 78.9092c2.19336 2.35352 4.51367 4.50391 6.88477 6.55762
c-31.5361 26.959 -54.0801 65.793 -71.5947 102.485c-26.1299 54.7354 -41.5566 117.281 -46.9717 177.622c-5.75781 64.1895 2.43359 134.721 -16.8164 196.873c-16.7734 54.1387 -77.6855 107.77 -137.192 89.9805c-7.82324 -2.33691 -22.166 -3.07324 -28.1016 4.2002
c-5.70215 6.99414 -0.228516 13.709 7.37109 16.0205c54.748 16.6543 114.568 0.87207 155.989 -38.3223c47.1621 -44.6338 75.2217 -112.468 90.708 -174.116c17.1074 -68.1055 22.6572 -137.553 47.5674 -203.846c11.9043 -31.667 25.9512 -62.6611 43.834 -91.4238
c14.1738 -22.7979 31.9082 -51.5059 59.1553 -59.2021zM437.841 273.006c1.13477 0.427734 0.999023 0.634766 0 0z" />
    </font>
</defs>
</svg>
