<?xml version="1.0" standalone="no"?>
<!DOCTYPE svg PUBLIC "-//W3C//DTD SVG 1.1//EN" "http://www.w3.org/Graphics/SVG/1.1/DTD/svg11.dtd" >
<svg xmlns="http://www.w3.org/2000/svg" xmlns:xlink="http://www.w3.org/1999/xlink" version="1.1">
<metadata>
Created by FontForge 20170812 at Tue Oct 25 09:44:55 2022
 By www-data
</metadata>
<defs>
<font id="MellodyRegular" horiz-adv-x="0" >
  <font-face 
    font-family="Mellody"
    font-weight="400"
    font-stretch="normal"
    units-per-em="1000"
    panose-1="0 0 0 0 0 0 0 0 0 0"
    ascent="800"
    descent="-200"
    x-height="333.827"
    cap-height="695.412"
    bbox="-284.001 -390.53 855.74 890.85"
    underline-thickness="50"
    underline-position="-100"
    unicode-range="U+000A-20AC"
  />
<missing-glyph horiz-adv-x="527" 
d="M50 700h427v-700h-427v700zM78 680l185 -309l186 309h-371zM251 350l-180 300v-601zM264 329l-185 -308h370zM276 350l181 -303v605z" />
    <glyph glyph-name=".notdef" horiz-adv-x="527" 
d="M50 700h427v-700h-427v700zM78 680l185 -309l186 309h-371zM251 350l-180 300v-601zM264 329l-185 -308h370zM276 350l181 -303v605z" />
    <glyph glyph-name=".null" 
 />
    <glyph glyph-name=".null" 
 />
    <glyph glyph-name="LF" unicode="&#xa;" 
 />
    <glyph glyph-name="controlCR" unicode="&#xd;" 
 />
    <glyph glyph-name="space" unicode=" " horiz-adv-x="298" 
 />
    <glyph glyph-name="exclam" unicode="!" horiz-adv-x="143" 
d="M66.5752 98.875c-9.36426 0.209961 -16.7793 7.97363 -16.5693 17.3379c3.95117 174.273 6.01953 351.036 6.15527 525.384c0.00683594 9.36035 7.59668 16.9434 16.957 16.9434h0.0126953c9.36719 -0.00683594 16.9502 -7.60352 16.9434 -16.9707
c-0.135742 -174.592 -2.20801 -351.605 -6.16211 -526.123c-0.207031 -9.23145 -7.75977 -16.5742 -16.9473 -16.5742c-0.128906 0 -0.260742 0 -0.389648 0.00292969zM87.9639 17.4775c2.55078 -29.6514 4.15137 -59.8281 4.76172 -89.6865
c0.193359 -9.36426 -7.24414 -17.1104 -16.6084 -17.2998c-0.119141 -0.00292969 -0.238281 -0.00292969 -0.353516 -0.00292969c-9.2041 0 -16.7568 7.36621 -16.9463 16.6113c-0.59375 29.126 -2.15723 58.5566 -4.64355 87.4717
c-0.803711 9.33008 6.11133 17.5439 15.4414 18.3477c9.35059 0.796875 17.5479 -6.11133 18.3486 -15.4414z" />
    <glyph glyph-name="quotedbl" unicode="&#x22;" horiz-adv-x="202" 
d="M65.7588 621.772c9.27539 0.671875 17.4521 -6.37109 18.1133 -15.7148c1.55664 -21.916 2.03809 -44.1738 1.43457 -66.1475c-0.253906 -9.2041 -7.79297 -16.4922 -16.9434 -16.4922c-0.15918 0 -0.31543 0.00292969 -0.474609 0.00585938
c-9.36035 0.257812 -16.7432 8.05469 -16.4854 17.415c0.573242 20.8711 0.115234 42.0029 -1.36035 62.8193c-0.661133 9.34375 6.37598 17.4531 15.7158 18.1143zM150.233 606.807c1.62402 -13.2744 2.09961 -26.7842 1.41406 -40.1602
c-0.460938 -9.05859 -7.95312 -16.0928 -16.9199 -16.0928c-0.291992 0 -0.583984 0.00683594 -0.878906 0.0205078c-9.35352 0.478516 -16.5498 8.44824 -16.0713 17.8018c0.586914 11.4287 0.179688 22.9766 -1.20703 34.3145
c-1.13574 9.2959 5.47754 17.7539 14.7734 18.8896c9.28906 1.13965 17.7539 -5.47754 18.8896 -14.7734z" />
    <glyph glyph-name="quotedbl" unicode="&#x201d;" horiz-adv-x="202" 
d="M65.7588 621.772c9.27539 0.671875 17.4521 -6.37109 18.1133 -15.7148c1.55664 -21.916 2.03809 -44.1738 1.43457 -66.1475c-0.253906 -9.2041 -7.79297 -16.4922 -16.9434 -16.4922c-0.15918 0 -0.31543 0.00292969 -0.474609 0.00585938
c-9.36035 0.257812 -16.7432 8.05469 -16.4854 17.415c0.573242 20.8711 0.115234 42.0029 -1.36035 62.8193c-0.661133 9.34375 6.37598 17.4531 15.7158 18.1143zM150.233 606.807c1.62402 -13.2744 2.09961 -26.7842 1.41406 -40.1602
c-0.460938 -9.05859 -7.95312 -16.0928 -16.9199 -16.0928c-0.291992 0 -0.583984 0.00683594 -0.878906 0.0205078c-9.35352 0.478516 -16.5498 8.44824 -16.0713 17.8018c0.586914 11.4287 0.179688 22.9766 -1.20703 34.3145
c-1.13574 9.2959 5.47754 17.7539 14.7734 18.8896c9.28906 1.13965 17.7539 -5.47754 18.8896 -14.7734z" />
    <glyph glyph-name="quotedbl" unicode="&#x201c;" horiz-adv-x="202" 
d="M65.7588 621.772c9.27539 0.671875 17.4521 -6.37109 18.1133 -15.7148c1.55664 -21.916 2.03809 -44.1738 1.43457 -66.1475c-0.253906 -9.2041 -7.79297 -16.4922 -16.9434 -16.4922c-0.15918 0 -0.31543 0.00292969 -0.474609 0.00585938
c-9.36035 0.257812 -16.7432 8.05469 -16.4854 17.415c0.573242 20.8711 0.115234 42.0029 -1.36035 62.8193c-0.661133 9.34375 6.37598 17.4531 15.7158 18.1143zM150.233 606.807c1.62402 -13.2744 2.09961 -26.7842 1.41406 -40.1602
c-0.460938 -9.05859 -7.95312 -16.0928 -16.9199 -16.0928c-0.291992 0 -0.583984 0.00683594 -0.878906 0.0205078c-9.35352 0.478516 -16.5498 8.44824 -16.0713 17.8018c0.586914 11.4287 0.179688 22.9766 -1.20703 34.3145
c-1.13574 9.2959 5.47754 17.7539 14.7734 18.8896c9.28906 1.13965 17.7539 -5.47754 18.8896 -14.7734z" />
    <glyph glyph-name="numbersign" unicode="#" horiz-adv-x="522" 
d="M455.901 279.239l-123.24 -6.53711c-1.9502 -19.6465 -3.83887 -39.2998 -5.62988 -58.9668c39.7041 1.82129 79.3604 3.32031 118.854 4.40918c9.45508 0.241211 17.1602 -7.12207 17.418 -16.4824c0.260742 -9.36426 -7.12207 -17.1611 -16.4824 -17.4189
c-40.7959 -1.12598 -81.7676 -2.68652 -122.78 -4.5957c-8.60449 -99.7559 -15.1699 -199.654 -19.5957 -299.271c-0.40332 -9.09961 -7.9082 -16.2051 -16.9258 -16.2051c-0.257812 0 -0.511719 0.00683594 -0.765625 0.0166016
c-9.35352 0.416992 -16.6045 8.33594 -16.1875 17.6934c4.37793 98.5586 10.835 197.389 19.2832 296.09c-33.6094 -1.74316 -67.2148 -3.74707 -100.776 -6.00586c-7.36621 -97.2129 -11.0049 -194.778 -10.7471 -292.266
c0.0234375 -9.36426 -7.5459 -16.9785 -16.9131 -17.002h-0.046875c-9.34668 0 -16.9336 7.5625 -16.957 16.9131c-0.257812 96.7207 3.29004 193.52 10.4697 289.979c-28.8916 -2.09961 -57.7324 -4.36133 -86.4648 -6.83398
c-0.495117 -0.0439453 -0.987305 -0.0644531 -1.47559 -0.0644531c-8.70898 0 -16.1162 6.66797 -16.876 15.5029c-0.803711 9.33008 6.11133 17.5439 15.4414 18.3477c30.5811 2.63477 61.2803 5.0459 92.041 7.25391c1.67188 19.9854 3.54102 39.9473 5.52832 59.8955
l-93.9297 -4.98535c-0.308594 -0.0166016 -0.614258 -0.0234375 -0.916016 -0.0234375c-8.95312 0 -16.4385 7.01367 -16.9199 16.0586c-0.495117 9.35352 6.68457 17.3369 16.0352 17.832l99.2607 5.27051c11.1982 102.859 26.5713 205.118 46.1602 306.234
c1.78027 9.19434 10.6865 15.2041 19.8701 13.4238c9.19434 -1.78027 15.2041 -10.6758 13.4238 -19.8701c-19.0596 -98.3965 -34.0801 -197.888 -45.123 -297.963l100.909 5.35547c11.877 115.018 26.4502 229.614 43.7129 343.137
c1.41113 9.25488 10.0732 15.6211 19.3154 14.2139c9.25879 -1.40723 15.625 -10.0557 14.2178 -19.3145c-16.9131 -111.243 -31.252 -223.523 -42.9727 -336.218l117.988 6.26367c9.39746 0.495117 17.3369 -6.68164 17.832 -16.0352s-6.68457 -17.3369 -16.0352 -17.832z
M292.835 212.087c1.77051 19.6064 3.61523 39.2012 5.54492 58.79l-101.052 -5.36523c-1.99805 -19.7754 -3.85645 -39.5645 -5.54199 -59.377c33.6533 2.24219 67.3545 4.22949 101.049 5.95215z" />
    <glyph glyph-name="dollar" unicode="$" horiz-adv-x="345" 
d="M271.104 136.602c19.7217 -42.3018 27.2236 -84.1025 21.7021 -120.886c-7.14258 -47.6055 -38.4863 -86.8613 -76.2227 -95.4619c-5.94141 -1.35352 -11.8086 -1.99121 -17.5635 -1.99121c-0.691406 0 -1.37305 0.0810547 -2.06445 0.0976562
c-0.0917969 -26.7549 -0.237305 -53.4893 -0.481445 -80.1797c-0.0849609 -9.3125 -7.66113 -16.8008 -16.9541 -16.8008h-0.160156c-9.36426 0.0878906 -16.8867 7.74902 -16.8018 17.1133c0.267578 29.3262 0.423828 58.6992 0.511719 88.0967
c-24.5645 11.5039 -45.001 33.5352 -57.7227 57.1875c-21.5117 40.0059 -27.3213 88.2969 -31.9883 127.102c-1.11914 9.2959 5.51074 17.7402 14.8105 18.8594c9.2793 1.11914 17.7441 -5.51074 18.8633 -14.8105c4.55176 -37.8418 9.70996 -80.7334 28.1865 -115.089
c6.67773 -12.416 16.4346 -24.6084 27.9082 -33.5518c0.0136719 90.8975 -0.84082 182.046 -2.56055 273.201c-0.0371094 0.0478516 -0.0742188 0.0917969 -0.111328 0.139648c-9.19434 11.4023 -18.7041 23.1943 -27.834 35.0645
c-32.6592 42.4473 -76.7002 107.729 -82.0889 184.237c-2.01758 28.624 1.69238 54.0527 11.0254 75.5781c15.875 36.624 49.5898 62.1992 87.5674 68.1924c-1.11914 25.3447 -2.28223 50.665 -3.53711 75.9414c-0.464844 9.35742 6.74219 17.3135 16.0957 17.7783
c9.27539 0.460938 17.3096 -6.73926 17.7744 -16.0967c1.27832 -25.8154 2.46582 -51.6787 3.6084 -77.5586c32.3379 -5.1377 60.416 -24.7471 75.1621 -53.2793c4.30078 -8.31934 1.04199 -18.5479 -7.27734 -22.8486
c-8.31543 -4.30078 -18.5508 -1.04492 -22.8516 7.27734c-8.72656 16.8857 -24.6836 29.0479 -43.5195 33.918c4.375 -105.074 7.60742 -210.582 9.68262 -316.114c28.2646 -35.166 56.6787 -71.8652 76.8408 -115.116zM84.3643 461.312
c4.68652 -66.5508 42.542 -123.561 75.0391 -165.814c-2.0752 91.1553 -4.99902 182.253 -8.79395 273.021c-24.9609 -5.36914 -47.416 -23.2314 -57.9365 -47.501c-7.04395 -16.248 -9.91602 -36.8916 -8.30859 -59.7061zM259.271 20.75
c5.71777 38.1201 -7.12598 76.25 -18.9043 101.526c-12.2939 26.3682 -27.874 50.0205 -45.1094 73.0928c1.27832 -81.1172 1.87891 -162.196 1.78711 -243.062c3.97168 -0.200195 7.9834 0.0986328 12.0059 1.01758c24.0625 5.48438 45.1807 33.8398 50.2207 67.4258z" />
    <glyph glyph-name="percent" unicode="%" horiz-adv-x="460" 
d="M382.064 592.84c8.51953 -3.88281 12.2764 -13.9414 8.39355 -22.4678c-103.622 -227.224 -195.984 -464.12 -274.521 -704.099c-2.33984 -7.14941 -8.97656 -11.6875 -16.1123 -11.6875c-1.74707 0 -3.52441 0.274414 -5.27734 0.847656
c-8.90234 2.91309 -13.7559 12.4902 -10.8428 21.3896c78.9258 241.173 171.75 479.253 275.895 707.623c3.88281 8.52246 13.9453 12.2803 22.4648 8.39355zM116.679 348.049c-10.7344 0 -21.2451 2.99316 -30.2188 8.86719
c-16.3838 10.7344 -27.8301 30.8965 -33.1035 58.3096c-5.20215 27.0605 -4.32422 55.9014 2.38379 82.6357c-6.54883 6.20312 -7.1084 16.5264 -1.14258 23.4111c21.8643 25.2227 59.8857 29.7637 90.4121 10.8057c22.1025 -13.7285 38.7344 -38.3438 44.4932 -65.8447
c5.68359 -27.1387 0.751953 -57.1328 -13.1865 -80.2285c-9.5127 -15.7637 -22.8037 -27.6943 -37.4209 -33.5986c-7.22363 -2.91992 -14.7764 -4.35742 -22.2168 -4.35742zM91.9404 500.865c-8.43457 -24.9473 -10.3066 -53.0859 -5.27734 -79.2305
c3.44531 -17.9307 9.97363 -30.8389 18.3809 -36.3467c5.9043 -3.86621 13.8066 -4.40527 21.1494 -1.4375c7.85449 3.1709 15.3428 10.1572 21.085 19.6768c9.625 15.9463 12.999 36.7871 9.02734 55.752c-3.89648 18.6123 -14.8066 35.0537 -29.1895 43.9863
c-9.64551 5.99316 -23.0146 8.44531 -34.332 4.37598c0.176758 -2.22461 -0.0839844 -4.52441 -0.84375 -6.77637zM395.482 90.3506c19.9658 -27.1924 19.9971 -69.9453 0.0693359 -101.648c-10.6523 -16.9541 -25.1475 -28.1836 -40.8164 -31.6191
c-3.43555 -0.755859 -6.93262 -1.12207 -10.4424 -1.12207c-17.8896 0 -36.1016 9.54395 -48.5273 26.0469c-11.2227 14.9053 -17.999 35.1045 -19.5898 58.4141c-1.05469 15.4854 0.172852 30.9268 1.75293 45.2354c-1.71289 4.36523 -1.61816 9.41895 0.68457 13.9229
c7.2207 14.1182 22.2715 17.4043 27.2158 18.4824c37.3945 8.16309 70.916 -2.19434 89.6533 -27.7119zM366.836 6.74414c12.4023 19.7344 12.9785 47.6426 1.30859 63.5352c-15.665 21.3291 -46.1201 16.6045 -55.084 14.6475
c-0.40332 -0.0878906 -0.773438 -0.172852 -1.11621 -0.257812c-1.60059 -13.9658 -2.87598 -28.1826 -1.93652 -41.9414c0.800781 -11.6699 3.67285 -28.1387 12.8506 -40.3242c6.80371 -9.03125 16.7002 -13.9355 24.6123 -12.1953
c6.61328 1.45117 13.6709 7.47754 19.3652 16.5361z" />
    <glyph glyph-name="ampersand" unicode="&#x26;" horiz-adv-x="442" 
d="M369.303 11.7178c9.09961 2.19434 18.2744 -3.39355 20.4717 -12.4932c2.20117 -9.10254 -3.39453 -18.2666 -12.4971 -20.4678c-65.0889 -15.7363 -115.642 -23.5537 -163.912 -25.3545c-4.28711 -0.15918 -8.66895 -0.264648 -13.1221 -0.264648
c-25.3574 0 -52.9023 3.38477 -76.8291 19.2021c-13.7012 9.06152 -14.8271 20.2021 -14.2812 26.0391c0.851562 9.09961 6.48145 14.9463 8.88281 17.4424c27.1113 28.166 59.5098 47.3105 92.875 60.7471c-6.69824 0.99707 -13.3896 2.21777 -20.0645 3.72656
c-52.9639 11.9688 -94.4756 41.1592 -116.887 82.1992c-12.9043 23.6387 -20.4297 52.5137 -23.0039 88.2764c-6.7832 94.2686 23.7637 195.765 83.8125 278.469c30.4785 41.9824 63.8164 72.7969 99.0771 91.5889c34.2432 18.249 66.0957 21.1348 92.1084 8.34863
c19.7344 -9.69629 36.3389 -29.0547 46.7607 -54.5039c9.21094 -22.499 12.6768 -46.6602 14.8545 -67.3281c8.04492 -76.416 2.84277 -153.558 -2.19043 -228.159c-0.630859 -9.34375 -8.7334 -16.3848 -18.0596 -15.7773
c-9.34375 0.630859 -16.4082 8.71582 -15.7773 18.0596c4.9375 73.167 10.042 148.82 2.30273 222.326c-1.92285 18.2871 -4.91797 39.4766 -12.5117 58.0244c-7.17285 17.5098 -18.2285 30.9668 -30.3359 36.9189c-19.9893 9.82129 -44.3125 1.15234 -61.1982 -7.84473
c-30.6855 -16.3535 -60.1543 -43.8008 -87.5879 -81.585c-55.4268 -76.3379 -83.6475 -169.685 -77.4307 -256.108c2.21777 -30.8184 8.41406 -55.1719 18.9414 -74.4561c23.8486 -43.6719 69.5039 -59.7031 94.5938 -65.3701
c29.085 -6.56934 58.7939 -7.09863 90.2461 -7.6582c11.0664 -0.196289 22.5088 -0.399414 33.8398 -0.891602c8.68848 -0.375977 15.6846 -7.27051 16.1895 -15.9561s-5.64355 -16.3438 -14.2305 -17.7275c-59.9473 -9.65918 -127.454 -26.0332 -176.807 -73.7373
c19.1172 -10.2012 42.2334 -10.9473 64.5625 -10.1133c45.9199 1.71289 94.4043 9.24512 157.207 24.4287z" />
    <glyph glyph-name="quotesingle" unicode="'" horiz-adv-x="134" 
d="M66.957 622.898c9.36719 0 16.958 -7.59375 16.958 -16.958v-48.6094c0 -9.36426 -7.59375 -16.958 -16.958 -16.958s-16.958 7.59375 -16.958 16.958v48.6094c0 9.36426 7.59375 16.958 16.958 16.958z" />
    <glyph glyph-name="quotesingle" unicode="&#x2019;" horiz-adv-x="134" 
d="M66.957 622.898c9.36719 0 16.958 -7.59375 16.958 -16.958v-48.6094c0 -9.36426 -7.59375 -16.958 -16.958 -16.958s-16.958 7.59375 -16.958 16.958v48.6094c0 9.36426 7.59375 16.958 16.958 16.958z" />
    <glyph glyph-name="quotesingle" unicode="&#x2018;" horiz-adv-x="134" 
d="M66.957 622.898c9.36719 0 16.958 -7.59375 16.958 -16.958v-48.6094c0 -9.36426 -7.59375 -16.958 -16.958 -16.958s-16.958 7.59375 -16.958 16.958v48.6094c0 9.36426 7.59375 16.958 16.958 16.958z" />
    <glyph glyph-name="parenleft" unicode="(" horiz-adv-x="359" 
d="M303.059 -104.127c7.03711 -6.17969 7.73438 -16.8955 1.55469 -23.9326c-23.6855 -26.9727 -57.6816 -42.8379 -91.4805 -42.8379c-1.01074 0 -2.02148 0.0136719 -3.02832 0.0410156c-34.7354 0.980469 -69.2705 18.9111 -92.3799 47.9619
c-21.9736 27.6201 -32.9717 63.0713 -40.8262 94.1035c-45.3984 179.228 -33.1523 392.421 35.4092 616.535c10.2793 33.6025 22.2744 69.0264 40.2695 100.451c13.8164 24.1201 28.0703 39.4189 44.8613 48.1416c24.6016 12.7822 53.5068 8.22461 70.2773 -11.0791
c6.14551 -7.07129 5.39258 -17.7812 -1.67871 -23.9229c-7.06445 -6.1416 -17.7812 -5.3916 -23.9229 1.67969c-7.52539 8.66504 -20.3281 7.74902 -29.041 3.22461c-10.6084 -5.51074 -20.7695 -16.9268 -31.0625 -34.9014
c-16.333 -28.5254 -27.5654 -61.8027 -37.2686 -93.5195c-66.751 -218.186 -78.8447 -425.07 -34.9697 -598.285c6.97266 -27.5322 16.5234 -58.7266 34.4951 -81.3135c16.9609 -21.3252 41.9326 -34.4707 66.792 -35.1729
c24.8828 -0.711914 50.2607 10.9922 68.0693 31.2734c6.18555 7.03711 16.8955 7.73242 23.9297 1.55273z" />
    <glyph glyph-name="parenright" unicode=")" horiz-adv-x="359" 
d="M246.521 587.742c68.5615 -224.114 80.8057 -437.308 35.4072 -616.535c-7.85449 -31.0322 -18.8525 -66.4795 -40.8262 -94.1025c-23.1094 -29.0547 -57.6445 -46.9814 -92.3799 -47.9619c-1.00684 -0.0273438 -2.01758 -0.0410156 -3.02832 -0.0410156
c-33.7988 -0.00292969 -67.7949 15.8623 -91.4805 42.8379c-6.17969 7.03711 -5.48438 17.751 1.55273 23.9307s17.751 5.48438 23.9307 -1.55273c17.8086 -20.2812 43.1123 -31.9854 68.0703 -31.2734c24.8594 0.698242 49.8311 13.8467 66.792 35.1719
c17.9717 22.5869 27.5225 53.7812 34.4951 81.3135c43.8721 173.219 31.7812 380.101 -34.9697 598.286c-9.70312 31.7139 -20.9355 64.9941 -37.2686 93.5195c-10.293 17.9746 -20.4541 29.3906 -31.0625 34.9014c-8.71289 4.52441 -21.5088 5.44336 -29.041 -3.22559
c-6.1416 -7.07129 -16.8584 -7.82031 -23.9229 -1.67871c-7.07129 6.1416 -7.82422 16.8516 -1.67871 23.9229c16.7773 19.3076 45.6797 23.8623 70.2783 11.0801c16.7949 -8.72266 31.0488 -24.0186 44.8623 -48.1416c17.9951 -31.4219 29.9902 -66.8486 40.2695 -100.451z
" />
    <glyph glyph-name="asterisk" unicode="*" horiz-adv-x="282" 
d="M214.845 559.79c9.30566 0.393555 17.2451 -6.90918 17.6152 -16.2695c0.373047 -9.35742 -6.91211 -17.2461 -16.2695 -17.6191l-43.9941 -1.75c10.5479 -9.27246 21.2305 -18.3174 32.0322 -27.0703c7.27441 -5.89746 8.39355 -16.5742 2.49609 -23.8525
c-3.35059 -4.13379 -8.24414 -6.28027 -13.1816 -6.28027c-3.75391 0 -7.52832 1.23828 -10.6689 3.78516c-11.3447 9.19727 -22.5703 18.7002 -33.6436 28.4502l-0.651367 -37.0957c-0.163086 -9.26172 -7.72266 -16.6621 -16.9473 -16.6621
c-0.101562 0 -0.203125 0.00292969 -0.304688 0.00292969c-9.36426 0.166016 -16.8223 7.88867 -16.6562 17.2529l0.305664 17.3809c-6.03711 -8.15332 -12.0127 -16.3604 -17.8457 -24.6729c-3.2998 -4.7041 -8.55273 -7.2207 -13.8945 -7.2207
c-3.36816 0 -6.7627 1 -9.72656 3.0791c-7.66797 5.37891 -9.51953 15.9531 -4.14062 23.6211c11.0967 15.8145 22.6006 31.3232 34.3994 46.5576l-36.1357 -1.4375c-0.227539 -0.00976562 -0.458008 -0.0126953 -0.685547 -0.0126953
c-9.05566 0 -16.5713 7.15625 -16.9346 16.2861c-0.373047 9.35352 6.91211 17.2451 16.2695 17.6152l24.1875 0.962891l-1.04492 1.06445c-8.2207 8.37695 -15.9834 16.2891 -24.4453 21.8506c-7.82422 5.14453 -10.002 15.6543 -4.85742 23.4814
c5.1416 7.82715 15.6514 10.0078 23.4824 4.85938c11.4971 -7.55957 20.915 -17.1572 30.0244 -26.4395l1.95703 -1.99121c0.356445 -0.363281 0.722656 -0.722656 1.0791 -1.08203l0.363281 20.5928c0.163086 9.36719 8.02832 16.7676 17.2529 16.6592
c9.36426 -0.166016 16.8223 -7.88867 16.6562 -17.2529l-0.318359 -18.2695c10.9004 12.4326 21.9902 24.6182 33.3008 36.4785c6.45703 6.77637 17.1943 7.03027 23.9736 0.569336c6.7793 -6.46387 7.0332 -17.1943 0.569336 -23.9736
c-10.2695 -10.7676 -20.3662 -21.7998 -30.2861 -33.0557z" />
    <glyph glyph-name="plus" unicode="+" horiz-adv-x="253" 
d="M185.355 221.825c9.39746 0.318359 17.1592 -7.13184 17.4131 -16.4922s-7.12598 -17.1572 -16.4902 -17.4111c-13.8096 -0.379883 -27.6904 -0.55957 -41.585 -0.624023c0.112305 -38.2559 2.02148 -76.5117 5.85059 -114.462
c0.939453 -9.31934 -5.85059 -17.6348 -15.1699 -18.5742c-0.580078 -0.0576172 -1.15625 -0.0878906 -1.72266 -0.0878906c-8.60059 0 -15.9697 6.51855 -16.8516 15.2588c-3.95117 39.1377 -5.91504 78.5938 -6.02051 118.054
c-14.8613 0.207031 -29.7061 0.525391 -44.4658 1.08789c-9.36035 0.356445 -16.6553 8.23145 -16.2988 17.5918s8.19434 16.6523 17.5918 16.2998c14.4609 -0.552734 29.0068 -0.868164 43.5693 -1.07129c0.576172 22.7939 1.71875 45.5645 3.58105 68.2363
c0.766602 9.33301 8.91992 16.2783 18.29 15.5117c9.33301 -0.766602 16.2783 -8.95703 15.5117 -18.29c-1.79102 -21.8037 -2.89648 -43.6953 -3.46289 -65.6143c13.4502 0.0644531 26.8906 0.223633 40.2598 0.586914z" />
    <glyph glyph-name="comma" unicode="," horiz-adv-x="176" 
d="M115.959 111.539c8.47559 -3.98535 12.1123 -14.0898 8.12695 -22.5615c-18.6699 -39.6797 -32.2803 -82.1572 -40.4473 -126.26c-1.5127 -8.16699 -8.6416 -13.875 -16.6553 -13.875c-1.02734 0 -2.06543 0.0917969 -3.11035 0.285156
c-9.20801 1.70605 -15.292 10.5547 -13.5859 19.7627c8.69531 46.958 23.1973 92.2168 43.1084 134.525c3.98145 8.47559 14.085 12.1113 22.5635 8.12305z" />
    <glyph glyph-name="hyphen" unicode="-" horiz-adv-x="221" 
d="M153.402 211.417c9.30957 0.549805 17.3809 -6.55859 17.9434 -15.9092s-6.55566 -17.3848 -15.9062 -17.9473l-87.4658 -5.2666c-0.345703 -0.0205078 -0.688477 -0.0302734 -1.03418 -0.0302734c-8.89941 0 -16.3672 6.93848 -16.9102 15.9395
c-0.5625 9.35059 6.55664 17.3848 15.9072 17.9473z" />
    <glyph glyph-name="period" unicode="." horiz-adv-x="143" 
d="M80.791 35.1328c8.91309 -2.87598 13.8066 -12.4346 10.9277 -21.3477l-8.62109 -26.7109c-2.31641 -7.17969 -8.97363 -11.751 -16.1328 -11.751c-1.72656 0 -3.4834 0.264648 -5.21289 0.824219c-8.91309 2.87598 -13.8037 12.4326 -10.9277 21.3457l8.62109 26.708
c2.87891 8.91309 12.4297 13.8105 21.3457 10.9316z" />
    <glyph glyph-name="slash" unicode="/" horiz-adv-x="379" 
d="M318.686 577.449c8.56641 -3.78809 12.4355 -13.8027 8.64746 -22.3691c-92.9395 -210.094 -175.094 -429.06 -244.181 -650.812c-2.26172 -7.26074 -8.95605 -11.917 -16.1836 -11.917c-1.67188 0 -3.37109 0.250977 -5.0498 0.773438
c-8.94336 2.78418 -13.9326 12.2939 -11.1484 21.2334c69.4707 222.984 152.083 443.171 245.545 654.444c3.78809 8.56348 13.7998 12.4395 22.3701 8.64746z" />
    <glyph glyph-name="zero" unicode="0" horiz-adv-x="379" 
d="M211.304 -40.3525c-7.38281 -2.48633 -15.0381 -3.68457 -22.7568 -3.68457c-30.7129 0 -62.5107 18.9482 -82.8154 51.1836c-63.7656 101.234 -69.3008 324.453 -34.3857 461.468c11.9951 47.0771 34.8506 107.978 75.5986 130.755
c38.3164 21.417 86.5527 11.1611 120.029 -25.5176c25.0459 -27.4365 42.6846 -68.2998 52.4346 -121.45c15.1904 -82.8154 8.72656 -166.489 1.40137 -230.13c-0.373047 -3.22559 -0.75293 -6.45117 -1.14258 -9.67969v-0.00292969
c-7.69824 -63.4678 -18.083 -113.041 -32.6836 -156.004c-18.1982 -53.5439 -43.6611 -86.1592 -75.6797 -96.9375zM241.928 550.979c-15.1396 16.5879 -34.2471 25.4561 -52.5068 25.4561c-9.04883 0 -17.8867 -2.17773 -25.9316 -6.6748
c-23.5908 -13.1855 -44.6416 -52.0791 -59.2822 -109.523c-33.1484 -130.079 -27.2676 -343.754 30.2178 -435.021c14.376 -22.8242 41.6807 -41.6328 66.0547 -33.4326c21.1729 7.125 39.9785 33.3066 54.3926 75.707c13.8301 40.6875 23.7197 88.0898 31.127 149.173
v-0.00292969c0.382812 3.16113 0.755859 6.32227 1.11914 9.47949c10.4863 91.0635 10.1543 158.953 -1.06445 220.132c-8.58398 46.8057 -23.4316 82.0361 -44.126 104.708z" />
    <glyph glyph-name="one" unicode="1" horiz-adv-x="308" 
d="M241.721 -20.4482c9.36426 -0.209961 16.7812 -7.97559 16.5674 -17.3262c-0.209961 -9.36426 -8.02051 -16.7441 -17.333 -16.5742c-47.0498 1.05859 -94.1807 -4.32715 -140.114 -15.9971c-1.40039 -0.356445 -2.80469 -0.526367 -4.18848 -0.526367
c-7.57324 0 -14.4717 5.11133 -16.4219 12.7861c-2.30664 9.0752 3.18066 18.3037 12.2598 20.6104c18.7959 4.77832 37.7881 8.53906 56.8887 11.3271c2.54004 75.2939 9.58398 151.144 16.4346 224.562c7.07422 75.8262 14.3926 154.233 16.6211 231.433
c0.84082 29.1465 1.16602 63.4277 -2.79199 96.7217c-2.81152 23.6348 -8.37988 38.3604 -17.0283 45.0215c-10.6455 8.19336 -27.0498 3.11328 -37.8652 -3.73047c-8.85547 -5.60254 -17.1064 -13.1523 -25.8428 -21.1396
c-6.87109 -6.28125 -13.9727 -12.7754 -21.749 -18.6357c-7.48145 -5.63672 -18.1104 -4.14062 -23.7471 3.33789c-5.63281 7.48145 -4.14062 18.1104 3.34082 23.7471c6.48828 4.89062 12.6982 10.5684 19.2705 16.5781c9.44141 8.63086 19.2021 17.5605 30.5938 24.7676
c26.8232 16.9707 56.207 17.71 76.6914 1.93945c21.6514 -16.6729 27.498 -46.7314 30.0146 -67.8906c4.21582 -35.4814 3.89062 -71.3223 3.0127 -101.699c-2.25879 -78.2881 -9.62793 -157.251 -16.7529 -233.609c-6.65039 -71.2744 -13.4668 -144.849 -16.1152 -217.514
c19.3818 1.61816 38.8252 2.24219 58.2549 1.81152z" />
    <glyph glyph-name="two" unicode="2" horiz-adv-x="327" 
d="M230.417 592.516c20.4297 -13.3789 35.458 -37.0879 42.3262 -66.7695c6.22656 -26.9385 4.87012 -54.7041 2.99512 -75.8838c-9.20801 -103.948 -45.8691 -200.903 -81.3232 -294.667c-23.7842 -62.9043 -48.3789 -127.949 -64.207 -194.103
c-1.31934 -5.50781 -1.56055 -8.17676 -1.44141 -9.46191c1.41113 -0.288086 4.54785 -0.460938 9.77441 0.597656c36.709 7.44043 72.7529 19.6123 107.125 36.1758c8.43457 4.06934 18.5713 0.525391 22.6377 -7.91211s0.525391 -18.5713 -7.91211 -22.6377
c-36.9121 -17.7881 -75.6426 -30.8623 -115.115 -38.8623c-5.04688 -1.02441 -9.58789 -1.47168 -13.668 -1.47168c-21.7666 0 -30.459 12.748 -33.4092 19.0049c-5.80273 12.3076 -2.66602 25.4189 -0.980469 32.4629c16.3262 68.2461 41.3076 134.314 65.4688 198.206
c36.2373 95.8359 70.4668 186.357 79.2646 285.666c1.65527 18.6768 2.89355 42.9697 -2.25781 65.248c-4.8125 20.8096 -14.9668 37.5869 -27.8574 46.0283c-11.1006 7.27148 -25.8564 9.14062 -40.4805 5.12891c-13.668 -3.74805 -27.7285 -12.4033 -41.793 -25.7178
c-31.0449 -29.3936 -48.3926 -70.7588 -45.2754 -107.956c0.891602 -10.6318 3.85547 -16.0918 5.51758 -17.0342c8.14258 -4.62598 10.9912 -14.9766 6.36523 -23.1191c-4.62598 -8.13965 -14.9805 -10.9883 -23.1201 -6.36621
c-12.9824 7.37598 -20.7832 22.4854 -22.5605 43.6924c-4.01562 47.9346 16.8281 98.5557 55.7549 135.414c18.1543 17.1875 37.0381 28.5586 56.1357 33.7988c24.0049 6.58301 48.7998 3.13379 68.0361 -9.46191z" />
    <glyph glyph-name="three" unicode="3" horiz-adv-x="339" 
d="M224.382 368.932c-22.3799 -25.626 -46.6387 -49.2539 -72.3633 -70.4912c50.2168 -26.3955 91.7588 -78.2334 114.115 -144c11.4258 -33.6055 16.0518 -65.4209 13.7559 -94.5605c-2.82812 -35.8643 -16.8115 -68.5439 -38.3672 -89.6621
c-17.3779 -17.0215 -40.0127 -26.168 -61.9961 -26.168c-10.4521 0 -20.7549 2.06543 -30.2812 6.33887c-24.5605 11.0186 -44.3594 35.9932 -54.3203 68.5303c-8.79102 28.7119 -9.14746 58.8447 -8.33398 84.5312c0.294922 9.36035 8.12891 16.6992 17.4863 16.4111
c9.35742 -0.298828 16.707 -8.12598 16.4121 -17.4863c-0.725586 -22.9092 -0.477539 -49.5596 6.86133 -73.5342c6.99316 -22.8418 20.3652 -40.6025 35.7725 -47.5146c16.9336 -7.59668 38.9033 -2.32617 54.6631 13.1113c15.7871 15.4648 26.1006 40.2871 28.291 68.1006
c1.93359 24.5166 -2.12598 51.7637 -12.0557 80.9814c-22.5938 66.4619 -68.6602 117.931 -120.228 134.318c-6.06055 1.92676 -10.5342 7.0752 -11.5889 13.3457c-1.05469 6.26758 1.48242 12.5996 6.57617 16.4053c32.3984 24.1875 62.6973 52.3369 90.0527 83.6572
c15.1865 17.3809 34.084 40.8936 45.5713 68.6562c11.0898 26.8027 13.7656 55.4873 7.33887 78.6982c-6.74512 24.3604 -24.4961 43.0576 -43.1631 45.4727c-9.44531 1.22461 -20.291 -1.10156 -34.1484 -7.30762c-34.9629 -15.6553 -64.0342 -44.6523 -79.7637 -79.5576
c-6.26367 -13.9014 -15.6172 -41.0332 -7.86816 -66.584c2.71973 -8.96387 -2.33984 -18.4326 -11.3037 -21.1494c-8.95312 -2.71973 -18.4326 2.33984 -21.1494 11.3037c-8.12598 26.792 -4.78906 58.8818 9.40039 90.3643c19.0977 42.373 54.3857 77.5693 96.8232 96.5752
c19.8096 8.87207 36.4375 12.0469 52.3574 9.98828c32.3203 -4.17871 61.0527 -32.3311 71.502 -70.0576c8.52637 -30.8008 5.44336 -66.5674 -8.68555 -100.716c-13.3721 -32.3242 -34.4736 -58.666 -51.3633 -78.001z" />
    <glyph glyph-name="four" unicode="4" horiz-adv-x="328" 
d="M271.546 64.0908c0.294922 -33.1074 0.600586 -67.3359 6.59668 -99.6162c1.70898 -9.20801 -4.36816 -18.0596 -13.5762 -19.7686c-1.04785 -0.193359 -2.08887 -0.288086 -3.11621 -0.288086c-8.01074 0 -15.1357 5.7041 -16.6514 13.8643
c-6.53906 35.2002 -6.85742 70.9395 -7.16895 105.505l-0.769531 85.4277c-35.9863 -17.0078 -86.6611 -36.1523 -122.237 -38.001c-2.2998 -0.12207 -4.66406 -0.200195 -7.06543 -0.200195c-11.7646 0 -24.4385 1.91992 -35.4434 10.5137
c-12.0771 9.42773 -19.749 25.8115 -21.6006 46.126c-2.24512 24.6455 3.22852 48.0225 9.02441 69.8564c10.8496 40.877 24.0596 81.2051 36.7197 118.701c22.0547 65.3125 49.1221 142.203 82.6807 217.26c8.13574 18.1982 16.5264 35.7393 29.6748 50.3154
c6.27441 6.95605 16.998 7.50879 23.9502 1.23438c0.305664 -0.271484 0.526367 -0.600586 0.807617 -0.888672c2.02148 7.02051 8.3877 12.2197 16.0693 12.2871c9.33008 0.145508 17.0254 -7.44141 17.1104 -16.8057zM112.86 145.08
c30.832 1.60449 85.7061 22.0684 123.663 41.7695l-3.71387 413.038c-9.30957 -10.7881 -16.167 -25.1777 -22.9092 -40.2559c-32.9785 -73.7637 -59.71 -149.708 -81.5098 -214.268c-12.4736 -36.9434 -25.4766 -76.6299 -36.0752 -116.554
c-5.01953 -18.9004 -9.77051 -38.9473 -8.02734 -58.0781c0.962891 -10.5742 4.21191 -18.9746 8.69531 -22.4746c4.44238 -3.46973 12.1748 -3.57812 19.877 -3.17773z" />
    <glyph glyph-name="five" unicode="5" horiz-adv-x="365" 
d="M296.564 597.664c9.33008 0.600586 17.4004 -6.51172 18.001 -15.8623c0.589844 -9.34668 -6.50879 -17.4014 -15.8555 -17.9951c-31.5713 -1.99707 -63.3223 -2.99414 -95.0898 -2.99414c-18.209 0 -36.4248 0.389648 -54.6201 1.04395l-32.666 -189.582
c-0.101562 -0.610352 -0.301758 -1.77344 -0.444336 -2.86914c0.294922 -0.0986328 0.626953 -0.204102 1.00684 -0.319336c6.24707 -1.89941 12.626 -3.44629 19.3779 -5.08105c9.85547 -2.39062 20.0498 -4.86328 30.251 -8.58691
c42.6748 -15.5869 80.3711 -52.2109 103.419 -100.491c20.2842 -42.4883 29.6748 -93.6416 27.1553 -147.925c-1.5332 -33.0127 -7.19043 -60.4697 -17.2969 -83.9424c-12.8467 -29.8281 -33.1719 -52.6523 -57.2344 -64.2646
c-13.4775 -6.50488 -28.4473 -9.79102 -44.5566 -9.79102c-1.57715 0 -3.16406 0.0302734 -4.76465 0.0947266c-37.4414 1.47559 -71.6377 21.7432 -89.2461 52.8906c-11.9785 21.1865 -15.7666 45.3164 -17.7266 63.9697
c-5.84668 55.5889 0.474609 110.571 7.42676 157.027c1.38672 9.26172 10.0049 15.6514 19.2803 14.2607c9.26172 -1.38672 15.6475 -10.0176 14.2607 -19.2793c-6.63672 -44.3428 -12.6875 -96.6592 -7.24121 -148.46c2.4043 -22.8584 6.57227 -38.5332 13.5215 -50.8242
c11.8701 -21 35.2676 -34.6777 61.0596 -35.6953c12.3213 -0.485352 23.5029 1.65137 33.2432 6.35156c16.4658 7.94629 31.3477 25.127 40.8271 47.1338c8.46191 19.6572 13.2266 43.2412 14.5664 72.1025c2.26172 48.7246 -6 94.2783 -23.8828 131.744
c-19.2529 40.3379 -50.0342 70.6777 -84.4434 83.2432c-8.41406 3.07227 -17.252 5.21582 -26.6123 7.48438c-6.91504 1.67578 -14.0645 3.40918 -21.2373 5.58691c-4.54102 1.37695 -16.6006 5.04004 -22.3359 17.1953c-4.37207 9.26855 -2.76074 18.6191 -1.79785 24.2051
l31.9473 185.421c-12.0361 0.705078 -24.0586 1.5127 -36.0537 2.50684c-5.89746 -3.96777 -13.8535 -4.12402 -20.1787 -0.172852c-7.02734 4.38867 -10.1914 12.6572 -7.87207 20.5762c2.28906 7.81348 10.1162 15.2139 22.4473 14.1182
c17.4932 -1.5498 35.0508 -2.76367 52.6426 -3.68652c3.50684 2.39746 7.90918 3.50684 12.4365 2.73047c2.97754 -0.511719 5.58887 -1.83105 7.77637 -3.61523c50.1973 -1.94629 100.574 -1.41016 150.51 1.75098z" />
    <glyph glyph-name="six" unicode="6" horiz-adv-x="337" 
d="M199.191 197.249c42.9189 -10.5781 77.4531 -47.0977 85.9385 -90.8779c7.1084 -36.6748 -3.79199 -78.8174 -29.1562 -112.729c-19.1553 -25.6084 -43.5059 -42.7559 -68.5654 -48.2842c-6.23047 -1.37695 -12.5996 -2.04883 -18.999 -2.04883
c-23.9404 0 -48.3555 9.42188 -68.0566 26.7861c-22.167 19.542 -38.3574 48.5967 -45.585 81.8164c-7.86816 36.1699 -4.57129 73.7441 -0.308594 105.732c18.6904 140.253 70.7529 285.902 154.742 432.901c4.64648 8.13281 14.9971 10.9609 23.1367 6.31152
c8.13281 -4.64648 10.958 -15.0039 6.31152 -23.1367c-76.877 -134.549 -126.246 -267.616 -146.947 -395.938c35.7158 20.9082 73.5918 27.8232 107.489 19.4668zM228.814 13.9648c19.7344 26.3818 28.3389 58.5166 23.0146 85.96
c-5.92188 30.5566 -30.9102 57.0371 -60.7617 64.3965c-27.0674 6.6748 -58.4346 -0.267578 -88.3271 -19.5518c-4.92773 -3.18164 -10.8867 -3.48047 -15.8994 -1.32715c-3.19434 -26.748 -4.9541 -56.6641 1.0625 -84.3145
c5.70117 -26.209 18.0869 -48.7891 34.8711 -63.583c16.8789 -14.8779 38.3125 -21.2568 57.3252 -17.0615c17.127 3.77832 34.4268 16.3809 48.7148 35.4814z" />
    <glyph glyph-name="seven" unicode="7" horiz-adv-x="318" 
d="M249.291 264.8c9.31641 0.881836 17.5928 -5.96191 18.4746 -15.292c0.881836 -9.32324 -5.96191 -17.5947 -15.2881 -18.4766c-20.1895 -1.90625 -40.5283 -3.40527 -60.8867 -4.5752c-21.8105 -84.0605 -44.1641 -170.882 -56.4414 -258.266
c-1.19043 -8.47559 -8.45117 -14.6006 -16.7705 -14.6006c-0.787109 0 -1.58105 0.0546875 -2.38184 0.166992c-9.27246 1.30273 -15.7334 9.87988 -14.4307 19.1523c12.04 85.7227 33.3555 170.068 54.5518 251.87
c-12.2598 -0.444336 -24.5029 -0.783203 -36.7051 -0.953125h-0.240234c-9.25488 0 -16.8213 7.4375 -16.9502 16.7197c-0.128906 9.36719 7.35645 17.0625 16.7207 17.1943c15.3125 0.216797 30.6924 0.728516 46.083 1.38281
c14.5557 56.2578 29.1562 114.008 40.4023 171.551c4.65625 23.8145 9.02148 49.0908 6.86816 73.3193c-2.15039 24.2383 -11.4463 45.1904 -24.8662 56.0537c-12.2598 9.92383 -29.627 13.6709 -54.6426 11.8018c-20.4062 -1.52637 -40.6875 -5.74219 -60.2764 -12.5254
c-8.84473 -3.06543 -18.5107 1.625 -21.5732 10.4736c-3.06543 8.85156 1.625 18.5068 10.4736 21.5723c22.3535 7.73926 45.5176 12.5518 68.8438 14.2988c33.708 2.52344 59.3809 -3.78125 78.5117 -19.2637c20.7217 -16.7705 34.3213 -45.7168 37.3125 -79.4141
c2.54688 -28.6445 -2.24219 -56.6201 -7.36328 -82.8262c-10.7373 -54.9316 -24.3916 -109.68 -38.1777 -163.146c16.2988 1.04492 32.5781 2.25195 48.752 3.78125z" />
    <glyph glyph-name="eight" unicode="8" horiz-adv-x="325" 
d="M236.609 590.76c15.9775 -13.0811 27.918 -34.0977 33.6357 -59.167c5.00195 -21.9736 4.97168 -44.8252 4.2832 -64.2822c-3.66309 -103.138 -29.2207 -204.925 -73.9678 -294.689c21.1084 -37.5264 36.6074 -78.4307 46.1064 -121.729
c3.45215 -15.7295 6.63379 -34.3486 4.08691 -53.2119c-5.86719 -43.3975 -42.627 -77.8008 -83.6904 -78.3193c-0.329102 -0.00292969 -0.661133 -0.00585938 -0.990234 -0.00585938c-37.6895 -0.00292969 -73.54 27.1045 -89.4492 67.748
c-12.3955 31.6621 -13.2705 70.7246 -2.67578 119.416c9.65918 44.3838 23.7773 80.1123 43.1699 109.231c2.40137 3.60547 5.94238 5.99316 9.8291 7.00684c-10.1338 14.4785 -20.3594 29.4209 -29.6318 45.123c-24.0254 40.6768 -51.6387 104.345 -46.748 176.647
c4.65332 68.748 41.8945 130.639 92.6709 154.006c33.1279 15.2441 68.9082 12.2666 93.3711 -7.77344zM213.536 43.6201c-9.37402 42.7256 -25.042 82.8867 -46.5742 119.372c-6.75195 11.4463 -14.2031 22.6885 -21.79 33.7041
c-16.917 -25.4902 -29.377 -57.3525 -38.0898 -97.3916c-9.12988 -41.9453 -8.76367 -74.6084 1.11523 -99.8438c10.7607 -27.4941 34.7178 -46.5098 58.4307 -46.1914c23.832 0.301758 46.9648 22.7158 50.5088 48.9482c1.8418 13.623 -0.786133 28.5723 -3.60059 41.4023z
M240.632 468.508c0.644531 18.1406 0.666992 37.4268 -3.45996 55.5508c-4.0459 17.7607 -11.8799 32.1338 -22.0547 40.4668c-8.57715 7.02734 -18.8467 9.74023 -29.0518 9.74023c-10.1943 0 -20.3281 -2.70996 -28.6504 -6.53906
c-39.833 -18.3271 -69.1729 -68.7578 -73.0117 -125.486c-4.30371 -63.6338 20.5254 -120.56 42.1123 -157.109c10.3877 -17.5918 22.4209 -34.7021 34.0537 -51.2461c6.21973 -8.84863 12.5518 -17.8496 18.748 -27.0781c36.957 80.6826 58.082 170.617 61.3145 261.701z
" />
    <glyph glyph-name="nine" unicode="9" horiz-adv-x="386" 
d="M268.307 -48.0303c-12.8506 -9.01758 -27.1885 -13.6475 -41.1201 -13.6504c-8.63086 0 -17.1064 1.77344 -24.9814 5.38184c-17.4287 7.9873 -31.8047 24.7646 -42.7314 49.875c-16.6348 38.2285 -21.0908 79.6924 -24.8379 126.026
c-0.75293 9.33301 6.20312 17.5127 15.5361 18.2686c9.34668 0.766602 17.5137 -6.19922 18.2695 -15.5322c3.49609 -43.2578 7.5791 -81.7852 22.1318 -115.231c7.38281 -16.9707 16.2891 -28.2334 25.7578 -32.5713c9.37402 -4.29395 21.8203 -2.30273 32.4971 5.18945
c10.5781 7.42383 19.9932 19.8535 27.9834 36.9434c19.7285 42.1934 22.8184 93.1299 24.2939 141.688c2.45508 80.9307 1.37988 162.946 -3.19531 243.768c-2.8418 50.2236 -6.82031 92.6611 -16.3369 132.806c-29.0273 -82.918 -58.3701 -155.468 -113.742 -205.698
c-30.832 -27.9658 -63.8916 -34.8848 -88.4424 -18.5107c-14.3291 9.55664 -24.5205 26.9238 -27.9629 47.6494c-3.05273 18.3818 -0.611328 36.4277 1.85742 50.0957c7.64453 42.3115 23.6758 83.0127 46.3574 117.711c23.1123 35.3525 49.501 58.0381 78.4365 67.4326
c31.5205 10.2324 64.7266 2.53711 86.8086 -18.6494c2.69238 2.60156 5.83301 4.81934 9.47559 6.29102c6.6875 2.70605 13.9316 2.39062 20.3818 -0.87207c11.4189 -5.77246 14.79 -18.1924 16.2275 -23.4932c12.7285 -46.8838 17.5137 -95.0088 20.79 -152.847
c4.62891 -81.7988 5.71387 -164.805 3.23145 -246.712c-1.58008 -52.0957 -5.00195 -106.979 -27.4668 -155.022c-10.5342 -22.5264 -23.7305 -39.46 -39.2188 -50.3359zM145.038 354.351c48.7422 44.2139 76.1406 111.081 103.164 187.921
c-9.8623 15.1699 -26.6123 21.7256 -42.5322 21.7256c-5.95508 0 -11.7988 -0.918945 -17.1201 -2.64551c-21.3896 -6.94238 -41.752 -25.0225 -60.5234 -53.7344c-20.2236 -30.9268 -34.5283 -67.2998 -41.3721 -105.179
c-1.98438 -10.9746 -3.97559 -25.2695 -1.77832 -38.5127c1.85547 -11.1719 6.95996 -20.7461 13.3223 -24.9893c16.374 -10.9209 41.8916 10.9238 46.8398 15.4141z" />
    <glyph glyph-name="colon" unicode=":" horiz-adv-x="147" 
d="M69.3271 402.549c-0.389648 -0.0273438 -0.774414 -0.0410156 -1.15723 -0.0410156c-8.84473 0 -16.2959 6.86133 -16.8994 15.8184l-1.23145 18.2764c-0.633789 9.34375 6.43066 17.4287 15.7773 18.0596c9.33691 0.617188 17.4258 -6.43359 18.0566 -15.7773
l1.23145 -18.2764c0.633789 -9.34375 -6.43066 -17.4287 -15.7773 -18.0596zM97.2266 139.691c1.54004 -9.23828 -4.70312 -17.9746 -13.9414 -19.5107c-0.942383 -0.15918 -1.88184 -0.233398 -2.80469 -0.233398c-8.14258 0 -15.3252 5.87695 -16.7051 14.1729
c-2.26562 13.5996 -3.1709 27.5049 -2.68555 41.335c0.329102 9.36035 8.05469 16.6719 17.541 16.3564c9.35742 -0.329102 16.6826 -8.18066 16.3535 -17.541c-0.40332 -11.5752 0.349609 -23.208 2.24219 -34.5791z" />
    <glyph glyph-name="semicolon" unicode=";" horiz-adv-x="187" 
d="M111.666 402.546c-9.34375 0.665039 -16.375 8.77637 -15.7139 18.1201l1.70215 23.9609c0.661133 9.33984 8.73242 16.377 18.1133 15.7158c9.34375 -0.661133 16.3779 -8.77344 15.7168 -18.1133l-1.70215 -23.9746
c-0.633789 -8.93262 -8.07812 -15.7529 -16.8955 -15.7529c-0.40332 0 -0.810547 0.0136719 -1.2207 0.0439453zM124.312 174.029c9.01465 -2.5332 14.2676 -11.9004 11.7344 -20.918c-14.0879 -50.0645 -32.1543 -99.0137 -53.7002 -145.49
c-2.86914 -6.18555 -8.99414 -9.82812 -15.3936 -9.82812c-2.3877 0 -4.8125 0.508789 -7.12207 1.57715c-8.49902 3.9375 -12.1924 14.0205 -8.25488 22.5156c20.7861 44.8418 38.2178 92.085 51.8174 140.413c2.54395 9.01758 11.9277 14.2607 20.9189 11.7305z" />
    <glyph glyph-name="less" unicode="&#x3c;" horiz-adv-x="271" 
d="M219.16 390.319c4.53125 -8.19336 1.56152 -18.5166 -6.62891 -23.0479c-43.5898 -24.1064 -85.3018 -53.1035 -124.11 -86.2715c4.78516 -4.51367 10.8623 -8.22363 17.1973 -11.8896c30.998 -17.9443 63.4375 -33.3652 96.4189 -45.8389
c8.75977 -3.30957 13.1758 -13.0977 9.8623 -21.8574c-2.56738 -6.78613 -9.01465 -10.9648 -15.8652 -10.9648c-1.99414 0 -4.02246 0.356445 -5.99609 1.10254c-34.7012 13.1211 -68.8223 29.3428 -101.411 48.2061c-12.5752 7.27832 -25.6123 15.5938 -34.6094 30.0176
c-1.1875 1.89941 -4.7959 7.68555 -3.86328 15.4287c1.01758 8.32617 6.58984 13.2168 8.4209 14.8213c42.7354 37.4824 89.0078 70.0908 137.536 96.9277c8.20703 4.53125 18.5107 1.56348 23.0488 -6.63379z" />
    <glyph glyph-name="equal" unicode="=" horiz-adv-x="234" 
d="M67.2705 297.018c-9.36035 0.370117 -16.6494 8.25391 -16.2793 17.6143c0.370117 9.35742 8.22852 16.666 17.6123 16.2764c28.8408 -1.13965 57.9053 0.898438 86.4072 6.05664c9.20801 1.66895 18.0361 -4.45215 19.7051 -13.667
c1.66504 -9.21777 -4.45312 -18.0391 -13.668 -19.708c-25.3818 -4.58887 -51.1836 -6.90527 -76.918 -6.90527c-5.62305 0 -11.2461 0.112305 -16.8594 0.333008zM165.988 272.571c9.39453 0.545898 17.373 -6.58203 17.9258 -15.9326
c0.552734 -9.34668 -6.58301 -17.374 -15.9297 -17.9238c-33.4326 -1.9668 -67.3574 -3.16406 -100.828 -3.55762h-0.202148c-9.27539 0 -16.8447 7.46094 -16.9531 16.7568c-0.112305 9.36426 7.39258 17.0459 16.7568 17.1543
c32.9375 0.389648 66.3232 1.56641 99.2305 3.50293z" />
    <glyph glyph-name="greater" unicode="&#x3e;" horiz-adv-x="275" 
d="M221.587 315.649c1.10254 -1.95312 4.46484 -7.89258 3.20996 -15.5811c-1.33984 -8.29199 -7.17285 -12.9453 -9.08594 -14.4746c-44.1836 -35.251 -91.7178 -65.4551 -141.284 -89.7754c-2.40137 -1.17676 -4.94824 -1.73633 -7.4541 -1.73633
c-6.26367 0 -12.29 3.48633 -15.2373 9.49219c-4.12402 8.40723 -0.651367 18.5684 7.75586 22.6924c44.4521 21.8066 87.2119 48.5889 127.241 79.6748c-4.62891 4.80566 -10.5947 8.85547 -16.8213 12.874c-30.2754 19.5312 -62.0869 36.6143 -94.543 50.7773
c-8.58398 3.74414 -12.5078 13.7422 -8.76367 22.3262c3.74414 8.58008 13.7383 12.5107 22.3223 8.75977c34.1318 -14.8916 67.5645 -32.8457 99.373 -53.3643c12.2432 -7.89844 24.9004 -16.8516 33.2871 -31.665z" />
    <glyph glyph-name="question" unicode="?" horiz-adv-x="347" 
d="M291.755 516.353c8.41406 -32.5752 4.89453 -65.4414 0.899414 -90.4297c-11.4697 -71.6035 -38.1807 -139.636 -64.0137 -205.423c-22.6953 -57.79 -46.1543 -117.548 -58.5195 -178.411c-1.6377 -8.04102 -8.70508 -13.5859 -16.6035 -13.5859
c-1.11914 0 -2.25195 0.112305 -3.3916 0.342773c-9.17773 1.86523 -15.1064 10.8154 -13.2441 19.9932c12.9521 63.7588 36.9668 124.917 60.1885 184.057c25.1748 64.1123 51.208 130.405 62.0947 198.394c5.17578 32.29 5.09766 55.9111 -0.240234 76.5889
c-6.38574 24.7207 -21.5117 44.6484 -40.4629 53.3066c-11.918 5.44629 -26.2979 7.11523 -41.5898 4.8291c-32.5039 -4.86719 -62.7314 -27.3623 -78.8887 -58.7061c-15.3193 -29.7129 -18.3037 -66.9717 -8.19336 -102.229
c9.46191 -33.002 29.5732 -57.4336 53.7988 -65.3564c8.89941 -2.91309 13.7529 -12.4873 10.8428 -21.3896c-2.91309 -8.90234 -12.4873 -13.7559 -21.3896 -10.8457c-34.9287 11.4258 -63.2842 44.4111 -75.8564 88.2393
c-12.4639 43.4717 -8.58398 89.8057 10.6523 127.115c21.0645 40.8633 60.9209 70.2539 104.013 76.7041c21.8066 3.2627 42.7891 0.661133 60.7031 -7.52246c28.1523 -12.8604 50.2852 -41.1484 59.2012 -75.6699zM151.088 -30.3154
c9.32324 0.485352 17.3125 -6.73535 17.7871 -16.0889c0.644531 -12.8574 -0.817383 -25.5957 -4.34082 -37.8623c-2.13672 -7.4375 -8.91992 -12.2803 -16.293 -12.2803c-1.5498 0 -3.12305 0.213867 -4.68945 0.665039
c-9.00098 2.58398 -14.2031 11.9785 -11.6152 20.9795c2.45215 8.54688 3.51367 17.8154 3.0625 26.8027c-0.467773 9.35352 6.73535 17.3164 16.0889 17.7842z" />
    <glyph glyph-name="at" unicode="@" horiz-adv-x="615" 
d="M368.198 130.884c-9.59473 23.7471 -9.2373 49.4482 -8.04004 73.7412c1.32617 26.9785 3.54785 54.0664 6.58691 81.0049c-3.3916 -8.53613 -6.70508 -17.0928 -9.96387 -25.5107c-12.1445 -31.374 -24.7061 -63.8203 -40.7607 -94.082
c-9.57422 -18.0391 -23.1943 -40.623 -43.7295 -55.2266c-5.375 -3.8252 -13.7422 -8.96289 -24.2695 -9.44141c-0.504883 -0.0234375 -1.00977 -0.0332031 -1.51465 -0.0332031c-13.4678 -0.00292969 -26.7686 8.14355 -35.0127 21.5537
c-6.94238 11.2871 -9.37402 23.9307 -10.7168 33.6807c-6.00586 43.6035 2.34766 91.7041 24.8291 142.966c7.14258 16.2861 17.3818 37.0586 33.2812 53.2393c17.9102 18.2295 40.3174 27.2646 61.4971 24.7959c24.0996 -2.81445 44.7471 -21.4814 50.7432 -45.1982
c0.569336 -0.375977 1.06738 -0.820312 1.5791 -1.25098c0.532227 3.57129 1.05469 7.14551 1.61719 10.7031c1.46191 9.25195 10.1543 15.5566 19.3965 14.1016c9.25195 -1.46484 15.5664 -10.1465 14.1016 -19.3984c-6.95605 -44.001 -11.5957 -88.9414 -13.7861 -133.566
c-1.01074 -20.5215 -1.4043 -42.0098 5.60938 -59.374c5.81934 -14.4102 18.1436 -24.3467 27.4834 -22.1426c6.34863 1.49609 13.2705 8.26855 17.9238 13.2334c31.791 33.9141 55.2061 84.5312 71.583 154.741c11.626 49.8477 16.0146 90.877 13.8105 129.122
c-2.64551 45.9307 -15.2891 86.3467 -36.5566 116.88c-40.1074 57.5732 -117.076 81.2119 -187.188 57.4688c-61.3076 -20.7627 -119.257 -74.9141 -163.169 -152.479c-44.96 -79.4111 -65.6035 -165.703 -58.1289 -242.984
c8.45117 -87.3574 56.3486 -165.178 119.195 -193.652c46.8701 -21.2373 94.9404 -14.8584 127.017 -5.77637c37.7295 10.6865 76.6494 31.0117 122.479 63.96c7.61035 5.4668 18.2021 3.73047 23.666 -3.87012c5.4668 -7.60742 3.7334 -18.2021 -3.87012 -23.6689
c-49.1221 -35.3184 -91.3965 -57.2578 -133.033 -69.0537c-23.0615 -6.53223 -45.7881 -9.78809 -67.7275 -9.78809c-29.251 0 -57.1045 5.78613 -82.5264 17.3037c-74.6865 33.8369 -129.228 120.695 -138.954 221.279c-8.13965 84.1523 14.0137 177.539 62.3721 262.956
c48.0264 84.8301 112.59 144.455 181.803 167.894c84.3115 28.5527 177.21 -0.31543 225.895 -70.21c24.8525 -35.6777 39.5781 -82.1201 42.5859 -134.312c2.39746 -41.5791 -2.25195 -85.6777 -14.6406 -138.777c-17.7646 -76.1689 -43.8887 -131.85 -79.8652 -170.23
c-8.30566 -8.8584 -19.7754 -19.4873 -34.8877 -23.0479c-29.709 -7.00293 -56.0469 16.0557 -66.7129 42.4512zM325.151 272.358c5.375 13.8916 10.9033 28.1592 16.7402 42.2441c-1.62402 2.12988 -2.76367 4.67383 -3.23145 7.49902
c-2.02832 12.2393 -12.8848 20.6836 -22.208 21.7725c-0.966797 0.112305 -1.9502 0.169922 -2.94434 0.169922c-9.8623 0 -21.0166 -5.4668 -30.4316 -15.0479c-12.0293 -12.2432 -20.4336 -29.458 -26.4131 -43.0918
c-19.9316 -45.4424 -27.4336 -87.4053 -22.292 -124.718c0.820312 -5.95508 2.33594 -14.5693 6.00879 -20.5381c2.36426 -3.84277 5.26367 -5.40625 6.07129 -5.40625h0.0263672c0.294922 0.0136719 1.9834 0.230469 6.1582 3.19824
c14.7324 10.4834 25.5986 28.7461 33.4229 43.4854c15.1123 28.4883 27.3008 59.9775 39.0928 90.4326z" />
    <glyph glyph-name="A" unicode="A" horiz-adv-x="529" 
d="M535.262 204.008c9.32324 0 16.9092 -7.52441 16.957 -16.8545c0.0507812 -9.36719 -7.49902 -16.998 -16.8633 -17.0527c-33.2324 -0.183594 -66.584 -0.899414 -99.9766 -1.98438c-6.91211 -110.914 -10.8262 -223.873 7.22266 -332.135
c1.54004 -9.23828 -4.7002 -17.9746 -13.9385 -19.5146c-0.942383 -0.15918 -1.88184 -0.233398 -2.80762 -0.233398c-8.13965 0 -15.3223 5.87695 -16.7061 14.1729c-18.4561 110.721 -14.7285 224.7 -7.82324 336.476
c-89.0088 -3.57129 -178.109 -9.63867 -265.826 -16.0791c-13.2373 -95.5879 -23.6289 -192.889 -34.3701 -297.254c-0.956055 -9.31641 -9.26465 -16.1094 -18.6016 -15.1328c-9.31641 0.956055 -16.0928 9.28516 -15.1328 18.6016
c10.5098 102.097 20.6943 197.471 33.5273 291.228c-7.9873 -0.59668 -15.9639 -1.19043 -23.9238 -1.78418c-30.7568 -2.2959 -62.5615 -4.66699 -93.2334 -9.80859c-0.949219 -0.15918 -1.89551 -0.237305 -2.8252 -0.237305
c-8.13281 0 -15.3125 5.86719 -16.7031 14.1562c-1.5498 9.23535 4.68066 17.9785 13.9189 19.5283c32.2051 5.39941 64.7998 7.83105 96.3203 10.1816c10.3984 0.776367 20.8301 1.55273 31.2754 2.3291c4.94141 34.1182 10.2793 68.1035 16.1738 102.201
c17.6084 101.886 42.5352 220.661 93.8984 329.056c23.3164 49.2031 46.9951 84.7861 74.5205 111.979c24.4053 24.1162 48.3018 34.0088 71.0479 29.4268c30.3164 -6.11523 51.8252 -35.4922 63.9258 -87.3105c33.8027 -144.768 23.6113 -296.575 13.752 -443.388
c-0.501953 -7.47168 -1.00391 -14.9639 -1.50293 -22.4619c32.5752 1.03418 65.1299 1.71582 97.5996 1.89551h0.0947266zM140.415 185.166c86.7979 6.3457 174.925 12.2715 263.086 15.7412c0.573242 8.66895 1.15332 17.3203 1.7334 25.9482
c9.69238 144.326 19.7139 293.567 -12.9395 433.403c-8.56348 36.6748 -21.9189 58.6104 -37.6045 61.7744c-13.6982 2.76074 -29.5869 -9.51953 -40.5078 -20.3076c-24.625 -24.3271 -46.1367 -56.8584 -67.7061 -102.379
c-49.6172 -104.711 -73.9102 -220.678 -91.1289 -320.309c-5.40918 -31.2998 -10.3369 -62.5312 -14.9326 -93.8721z" />
    <glyph glyph-name="A" unicode="&#xc5;" horiz-adv-x="529" 
d="M535.262 204.008c9.32324 0 16.9092 -7.52441 16.957 -16.8545c0.0507812 -9.36719 -7.49902 -16.998 -16.8633 -17.0527c-33.2324 -0.183594 -66.584 -0.899414 -99.9766 -1.98438c-6.91211 -110.914 -10.8262 -223.873 7.22266 -332.135
c1.54004 -9.23828 -4.7002 -17.9746 -13.9385 -19.5146c-0.942383 -0.15918 -1.88184 -0.233398 -2.80762 -0.233398c-8.13965 0 -15.3223 5.87695 -16.7061 14.1729c-18.4561 110.721 -14.7285 224.7 -7.82324 336.476
c-89.0088 -3.57129 -178.109 -9.63867 -265.826 -16.0791c-13.2373 -95.5879 -23.6289 -192.889 -34.3701 -297.254c-0.956055 -9.31641 -9.26465 -16.1094 -18.6016 -15.1328c-9.31641 0.956055 -16.0928 9.28516 -15.1328 18.6016
c10.5098 102.097 20.6943 197.471 33.5273 291.228c-7.9873 -0.59668 -15.9639 -1.19043 -23.9238 -1.78418c-30.7568 -2.2959 -62.5615 -4.66699 -93.2334 -9.80859c-0.949219 -0.15918 -1.89551 -0.237305 -2.8252 -0.237305
c-8.13281 0 -15.3125 5.86719 -16.7031 14.1562c-1.5498 9.23535 4.68066 17.9785 13.9189 19.5283c32.2051 5.39941 64.7998 7.83105 96.3203 10.1816c10.3984 0.776367 20.8301 1.55273 31.2754 2.3291c4.94141 34.1182 10.2793 68.1035 16.1738 102.201
c17.6084 101.886 42.5352 220.661 93.8984 329.056c23.3164 49.2031 46.9951 84.7861 74.5205 111.979c24.4053 24.1162 48.3018 34.0088 71.0479 29.4268c30.3164 -6.11523 51.8252 -35.4922 63.9258 -87.3105c33.8027 -144.768 23.6113 -296.575 13.752 -443.388
c-0.501953 -7.47168 -1.00391 -14.9639 -1.50293 -22.4619c32.5752 1.03418 65.1299 1.71582 97.5996 1.89551h0.0947266zM140.415 185.166c86.7979 6.3457 174.925 12.2715 263.086 15.7412c0.573242 8.66895 1.15332 17.3203 1.7334 25.9482
c9.69238 144.326 19.7139 293.567 -12.9395 433.403c-8.56348 36.6748 -21.9189 58.6104 -37.6045 61.7744c-13.6982 2.76074 -29.5869 -9.51953 -40.5078 -20.3076c-24.625 -24.3271 -46.1367 -56.8584 -67.7061 -102.379
c-49.6172 -104.711 -73.9102 -220.678 -91.1289 -320.309c-5.40918 -31.2998 -10.3369 -62.5312 -14.9326 -93.8721z" />
    <glyph glyph-name="A" unicode="&#xc4;" horiz-adv-x="529" 
d="M535.262 204.008c9.32324 0 16.9092 -7.52441 16.957 -16.8545c0.0507812 -9.36719 -7.49902 -16.998 -16.8633 -17.0527c-33.2324 -0.183594 -66.584 -0.899414 -99.9766 -1.98438c-6.91211 -110.914 -10.8262 -223.873 7.22266 -332.135
c1.54004 -9.23828 -4.7002 -17.9746 -13.9385 -19.5146c-0.942383 -0.15918 -1.88184 -0.233398 -2.80762 -0.233398c-8.13965 0 -15.3223 5.87695 -16.7061 14.1729c-18.4561 110.721 -14.7285 224.7 -7.82324 336.476
c-89.0088 -3.57129 -178.109 -9.63867 -265.826 -16.0791c-13.2373 -95.5879 -23.6289 -192.889 -34.3701 -297.254c-0.956055 -9.31641 -9.26465 -16.1094 -18.6016 -15.1328c-9.31641 0.956055 -16.0928 9.28516 -15.1328 18.6016
c10.5098 102.097 20.6943 197.471 33.5273 291.228c-7.9873 -0.59668 -15.9639 -1.19043 -23.9238 -1.78418c-30.7568 -2.2959 -62.5615 -4.66699 -93.2334 -9.80859c-0.949219 -0.15918 -1.89551 -0.237305 -2.8252 -0.237305
c-8.13281 0 -15.3125 5.86719 -16.7031 14.1562c-1.5498 9.23535 4.68066 17.9785 13.9189 19.5283c32.2051 5.39941 64.7998 7.83105 96.3203 10.1816c10.3984 0.776367 20.8301 1.55273 31.2754 2.3291c4.94141 34.1182 10.2793 68.1035 16.1738 102.201
c17.6084 101.886 42.5352 220.661 93.8984 329.056c23.3164 49.2031 46.9951 84.7861 74.5205 111.979c24.4053 24.1162 48.3018 34.0088 71.0479 29.4268c30.3164 -6.11523 51.8252 -35.4922 63.9258 -87.3105c33.8027 -144.768 23.6113 -296.575 13.752 -443.388
c-0.501953 -7.47168 -1.00391 -14.9639 -1.50293 -22.4619c32.5752 1.03418 65.1299 1.71582 97.5996 1.89551h0.0947266zM140.415 185.166c86.7979 6.3457 174.925 12.2715 263.086 15.7412c0.573242 8.66895 1.15332 17.3203 1.7334 25.9482
c9.69238 144.326 19.7139 293.567 -12.9395 433.403c-8.56348 36.6748 -21.9189 58.6104 -37.6045 61.7744c-13.6982 2.76074 -29.5869 -9.51953 -40.5078 -20.3076c-24.625 -24.3271 -46.1367 -56.8584 -67.7061 -102.379
c-49.6172 -104.711 -73.9102 -220.678 -91.1289 -320.309c-5.40918 -31.2998 -10.3369 -62.5312 -14.9326 -93.8721z" />
    <glyph glyph-name="A" unicode="&#xc3;" horiz-adv-x="529" 
d="M535.262 204.008c9.32324 0 16.9092 -7.52441 16.957 -16.8545c0.0507812 -9.36719 -7.49902 -16.998 -16.8633 -17.0527c-33.2324 -0.183594 -66.584 -0.899414 -99.9766 -1.98438c-6.91211 -110.914 -10.8262 -223.873 7.22266 -332.135
c1.54004 -9.23828 -4.7002 -17.9746 -13.9385 -19.5146c-0.942383 -0.15918 -1.88184 -0.233398 -2.80762 -0.233398c-8.13965 0 -15.3223 5.87695 -16.7061 14.1729c-18.4561 110.721 -14.7285 224.7 -7.82324 336.476
c-89.0088 -3.57129 -178.109 -9.63867 -265.826 -16.0791c-13.2373 -95.5879 -23.6289 -192.889 -34.3701 -297.254c-0.956055 -9.31641 -9.26465 -16.1094 -18.6016 -15.1328c-9.31641 0.956055 -16.0928 9.28516 -15.1328 18.6016
c10.5098 102.097 20.6943 197.471 33.5273 291.228c-7.9873 -0.59668 -15.9639 -1.19043 -23.9238 -1.78418c-30.7568 -2.2959 -62.5615 -4.66699 -93.2334 -9.80859c-0.949219 -0.15918 -1.89551 -0.237305 -2.8252 -0.237305
c-8.13281 0 -15.3125 5.86719 -16.7031 14.1562c-1.5498 9.23535 4.68066 17.9785 13.9189 19.5283c32.2051 5.39941 64.7998 7.83105 96.3203 10.1816c10.3984 0.776367 20.8301 1.55273 31.2754 2.3291c4.94141 34.1182 10.2793 68.1035 16.1738 102.201
c17.6084 101.886 42.5352 220.661 93.8984 329.056c23.3164 49.2031 46.9951 84.7861 74.5205 111.979c24.4053 24.1162 48.3018 34.0088 71.0479 29.4268c30.3164 -6.11523 51.8252 -35.4922 63.9258 -87.3105c33.8027 -144.768 23.6113 -296.575 13.752 -443.388
c-0.501953 -7.47168 -1.00391 -14.9639 -1.50293 -22.4619c32.5752 1.03418 65.1299 1.71582 97.5996 1.89551h0.0947266zM140.415 185.166c86.7979 6.3457 174.925 12.2715 263.086 15.7412c0.573242 8.66895 1.15332 17.3203 1.7334 25.9482
c9.69238 144.326 19.7139 293.567 -12.9395 433.403c-8.56348 36.6748 -21.9189 58.6104 -37.6045 61.7744c-13.6982 2.76074 -29.5869 -9.51953 -40.5078 -20.3076c-24.625 -24.3271 -46.1367 -56.8584 -67.7061 -102.379
c-49.6172 -104.711 -73.9102 -220.678 -91.1289 -320.309c-5.40918 -31.2998 -10.3369 -62.5312 -14.9326 -93.8721z" />
    <glyph glyph-name="A" unicode="&#xc2;" horiz-adv-x="529" 
d="M535.262 204.008c9.32324 0 16.9092 -7.52441 16.957 -16.8545c0.0507812 -9.36719 -7.49902 -16.998 -16.8633 -17.0527c-33.2324 -0.183594 -66.584 -0.899414 -99.9766 -1.98438c-6.91211 -110.914 -10.8262 -223.873 7.22266 -332.135
c1.54004 -9.23828 -4.7002 -17.9746 -13.9385 -19.5146c-0.942383 -0.15918 -1.88184 -0.233398 -2.80762 -0.233398c-8.13965 0 -15.3223 5.87695 -16.7061 14.1729c-18.4561 110.721 -14.7285 224.7 -7.82324 336.476
c-89.0088 -3.57129 -178.109 -9.63867 -265.826 -16.0791c-13.2373 -95.5879 -23.6289 -192.889 -34.3701 -297.254c-0.956055 -9.31641 -9.26465 -16.1094 -18.6016 -15.1328c-9.31641 0.956055 -16.0928 9.28516 -15.1328 18.6016
c10.5098 102.097 20.6943 197.471 33.5273 291.228c-7.9873 -0.59668 -15.9639 -1.19043 -23.9238 -1.78418c-30.7568 -2.2959 -62.5615 -4.66699 -93.2334 -9.80859c-0.949219 -0.15918 -1.89551 -0.237305 -2.8252 -0.237305
c-8.13281 0 -15.3125 5.86719 -16.7031 14.1562c-1.5498 9.23535 4.68066 17.9785 13.9189 19.5283c32.2051 5.39941 64.7998 7.83105 96.3203 10.1816c10.3984 0.776367 20.8301 1.55273 31.2754 2.3291c4.94141 34.1182 10.2793 68.1035 16.1738 102.201
c17.6084 101.886 42.5352 220.661 93.8984 329.056c23.3164 49.2031 46.9951 84.7861 74.5205 111.979c24.4053 24.1162 48.3018 34.0088 71.0479 29.4268c30.3164 -6.11523 51.8252 -35.4922 63.9258 -87.3105c33.8027 -144.768 23.6113 -296.575 13.752 -443.388
c-0.501953 -7.47168 -1.00391 -14.9639 -1.50293 -22.4619c32.5752 1.03418 65.1299 1.71582 97.5996 1.89551h0.0947266zM140.415 185.166c86.7979 6.3457 174.925 12.2715 263.086 15.7412c0.573242 8.66895 1.15332 17.3203 1.7334 25.9482
c9.69238 144.326 19.7139 293.567 -12.9395 433.403c-8.56348 36.6748 -21.9189 58.6104 -37.6045 61.7744c-13.6982 2.76074 -29.5869 -9.51953 -40.5078 -20.3076c-24.625 -24.3271 -46.1367 -56.8584 -67.7061 -102.379
c-49.6172 -104.711 -73.9102 -220.678 -91.1289 -320.309c-5.40918 -31.2998 -10.3369 -62.5312 -14.9326 -93.8721z" />
    <glyph glyph-name="A" unicode="&#xc1;" horiz-adv-x="529" 
d="M535.262 204.008c9.32324 0 16.9092 -7.52441 16.957 -16.8545c0.0507812 -9.36719 -7.49902 -16.998 -16.8633 -17.0527c-33.2324 -0.183594 -66.584 -0.899414 -99.9766 -1.98438c-6.91211 -110.914 -10.8262 -223.873 7.22266 -332.135
c1.54004 -9.23828 -4.7002 -17.9746 -13.9385 -19.5146c-0.942383 -0.15918 -1.88184 -0.233398 -2.80762 -0.233398c-8.13965 0 -15.3223 5.87695 -16.7061 14.1729c-18.4561 110.721 -14.7285 224.7 -7.82324 336.476
c-89.0088 -3.57129 -178.109 -9.63867 -265.826 -16.0791c-13.2373 -95.5879 -23.6289 -192.889 -34.3701 -297.254c-0.956055 -9.31641 -9.26465 -16.1094 -18.6016 -15.1328c-9.31641 0.956055 -16.0928 9.28516 -15.1328 18.6016
c10.5098 102.097 20.6943 197.471 33.5273 291.228c-7.9873 -0.59668 -15.9639 -1.19043 -23.9238 -1.78418c-30.7568 -2.2959 -62.5615 -4.66699 -93.2334 -9.80859c-0.949219 -0.15918 -1.89551 -0.237305 -2.8252 -0.237305
c-8.13281 0 -15.3125 5.86719 -16.7031 14.1562c-1.5498 9.23535 4.68066 17.9785 13.9189 19.5283c32.2051 5.39941 64.7998 7.83105 96.3203 10.1816c10.3984 0.776367 20.8301 1.55273 31.2754 2.3291c4.94141 34.1182 10.2793 68.1035 16.1738 102.201
c17.6084 101.886 42.5352 220.661 93.8984 329.056c23.3164 49.2031 46.9951 84.7861 74.5205 111.979c24.4053 24.1162 48.3018 34.0088 71.0479 29.4268c30.3164 -6.11523 51.8252 -35.4922 63.9258 -87.3105c33.8027 -144.768 23.6113 -296.575 13.752 -443.388
c-0.501953 -7.47168 -1.00391 -14.9639 -1.50293 -22.4619c32.5752 1.03418 65.1299 1.71582 97.5996 1.89551h0.0947266zM140.415 185.166c86.7979 6.3457 174.925 12.2715 263.086 15.7412c0.573242 8.66895 1.15332 17.3203 1.7334 25.9482
c9.69238 144.326 19.7139 293.567 -12.9395 433.403c-8.56348 36.6748 -21.9189 58.6104 -37.6045 61.7744c-13.6982 2.76074 -29.5869 -9.51953 -40.5078 -20.3076c-24.625 -24.3271 -46.1367 -56.8584 -67.7061 -102.379
c-49.6172 -104.711 -73.9102 -220.678 -91.1289 -320.309c-5.40918 -31.2998 -10.3369 -62.5312 -14.9326 -93.8721z" />
    <glyph glyph-name="B" unicode="B" horiz-adv-x="518" 
d="M408.916 0.761719c-32.4424 -94.0039 -96.6064 -173.972 -176.044 -219.41c-28.7051 -16.418 -68.0869 -32.9141 -110.402 -32.9141c-15.7129 -0.00292969 -31.8193 2.27246 -47.9453 7.66504c-36.1289 12.084 -64.6338 39.2256 -76.2529 72.6045
c-11.7207 33.6699 -7.18262 75.7578 12.4541 115.465c7.35938 14.8818 16.3027 28.9697 26.9521 42.4707c-2.94727 2.16699 -5.22266 5.29395 -6.28125 9.09277c-61.6328 221.231 -45.5264 464.097 -31.3164 678.372c0.617188 9.34375 8.69238 16.3945 18.043 15.7979
c9.34375 -0.621094 16.418 -8.69922 15.7969 -18.043c-10.5645 -159.29 -22.1768 -334.58 -1.63477 -503.521c2.91309 43.0752 7.33887 86.0078 13.4404 128.536c22.709 158.319 65.1494 278.75 129.739 368.183c28.5898 39.585 57.4277 66.0859 88.168 81.0215
c29.4346 14.3018 56.9531 12.8438 75.4941 -4.01172c20.8604 -18.9619 25.8018 -54.3623 13.2266 -94.6973c-14.5693 -46.707 -40.8193 -86.6885 -59.2959 -112.701c-45.7236 -64.3701 -99.1758 -119.942 -159.303 -165.689
c46.3916 -3.7373 93.2207 -10.4287 138.374 -28.4473c69.2939 -27.6475 121.77 -79.8789 143.977 -143.303c2.29297 -6.5459 4.28027 -13.2783 5.97266 -20.1729c30.7979 6.26074 64.292 10.1953 97.5654 4.3584c9.22461 -1.61816 15.3906 -10.4092 13.7725 -19.6338
c-1.62109 -9.22461 -10.4385 -15.3799 -19.6328 -13.7725c-28.2812 4.96191 -58.1357 1.30957 -85.9834 -4.40137c4.52734 -44.3164 -1.82129 -93.4072 -18.8838 -142.848zM202.959 645.207c-48.5049 -67.1572 -83.9541 -153.508 -107.491 -262.302
c64.665 45.998 121.757 103.564 169.946 171.403c27.6064 38.8662 44.4346 70.6816 54.5645 103.161c6.29785 20.1895 9.11621 47.8877 -3.66309 59.5039c-3.96094 3.59863 -9.05176 4.86719 -14.2539 4.86719c-9.65527 0 -19.6943 -4.3584 -23.6084 -6.26074
c-25.5752 -12.4268 -50.2686 -35.4443 -75.4941 -70.373zM79.2988 292.064c-13.1416 -91.6201 -18.7695 -185.128 -16.7383 -277.941c18.8125 18.2295 41.4297 35.499 68.3916 52.3584c70.9453 44.3672 153.069 77.1592 258.068 103.012
c-1.4043 5.65332 -3.0459 11.1641 -4.9248 16.5264c-18.9648 54.165 -64.3564 99 -124.534 123.012c-54.7891 21.8643 -114.764 25.6699 -172.894 29.0957c-2.65527 -14.9629 -5.11035 -30.3164 -7.36914 -46.0625zM216.044 -189.208
c72.4004 41.4092 131.016 114.682 160.81 201.031c14.9258 43.2373 20.8506 85.8066 17.6318 124.086c-100.136 -24.8623 -178.336 -56.1484 -245.555 -98.1816c-53.4355 -33.416 -87.6924 -67.9209 -107.8 -108.591c-15.6279 -31.6045 -19.5723 -64.1455 -10.8223 -89.2832
c8.19043 -23.5264 28.7422 -42.8105 54.9814 -51.5879c47.6533 -15.9395 97.4062 3.44922 130.754 22.5264z" />
    <glyph glyph-name="C" unicode="C" horiz-adv-x="386" 
d="M294.376 -94.6367c-21.1084 -31.9375 -50.54 -71.8057 -91.041 -96.8008c-24.6934 -15.2344 -51.1602 -22.96 -76.4707 -22.96c-19.2227 0 -37.7773 4.45312 -54.3955 13.4541c-46.4766 25.1748 -76.0742 81.9102 -87.9678 168.633
c-16.8652 122.96 -5.45996 259.178 35.8955 428.686c20.457 83.8535 51.4209 191.342 109.761 278.994c13.7627 20.6846 32.9893 46.3574 59.6904 61.4258c29.8242 16.835 64.6953 15.9258 88.8291 -2.30664c21.2539 -16.0547 34.9795 -45.4688 38.6494 -82.8223
c6.16895 -62.7754 -15.3125 -128.627 -56.0605 -171.854c-32.4463 -34.416 -72.7705 -48.7549 -107.868 -38.3359c-8.98047 2.66211 -14.0986 12.1006 -11.4365 21.0781s12.0938 14.0957 21.0781 11.4365c26.582 -7.88184 55.4199 9.8584 73.5469 29.0879
c34.2197 36.3018 52.2217 91.9658 46.9854 145.276c-2.69238 27.4131 -11.9307 48.9453 -25.3408 59.0791c-16.2314 12.2568 -38.0078 7.57031 -51.7197 -0.168945c-20.4336 -11.5342 -36.4551 -33.1445 -48.125 -50.6816
c-55.4131 -83.2529 -85.248 -187.082 -105.047 -268.239c-40.3145 -165.238 -51.5127 -297.438 -35.2441 -416.04c7.1123 -51.8555 25.1172 -118.83 70.5186 -143.422c27.6914 -14.9971 63.9189 -11.8027 96.9072 8.5498c34.8711 21.5117 61.3721 57.5967 80.5645 86.6309
c47.9648 72.5635 83.8398 153.552 106.627 240.716c2.36719 9.05859 11.6328 14.4854 20.6943 12.1182s14.4844 -11.6328 12.1172 -20.6943c-23.7295 -90.7725 -61.124 -175.165 -111.147 -250.839z" />
    <glyph glyph-name="D" unicode="D" horiz-adv-x="552" 
d="M300.159 -171.066c-28.6338 -27.084 -69.0977 -45.791 -109.337 -45.7939c-24.2832 -0.00292969 -48.4775 6.80664 -69.9492 22.6953c-28.7256 21.2578 -50.6172 58.041 -61.6396 103.578c-6.42676 26.5547 -8.21387 52.0449 -5.39551 75.1475
c-0.518555 -0.200195 -1.00684 -0.454102 -1.55664 -0.606445c-1.52246 -0.423828 -3.05566 -0.626953 -4.56152 -0.626953c-7.4209 0 -14.2344 4.91406 -16.3232 12.4121c-61.6299 221.231 -45.5234 464.097 -31.3135 678.372
c0.617188 9.34375 8.6748 16.4355 18.042 15.7979c9.34375 -0.621094 16.418 -8.69922 15.7969 -18.043c-11.7139 -176.593 -24.6895 -372.839 6.26074 -558.311c14.8779 111.589 39.8457 221.258 74.6182 327.092c25.1201 76.4463 49.3652 131.588 78.6201 178.79
c35.9082 57.9463 78.7119 85.7393 120.515 78.292c28.3291 -5.05371 54.6738 -26.7285 76.1895 -62.6846c42.2441 -70.5967 51.0078 -158.855 53.9248 -219.104c3.90039 -80.4863 -0.477539 -162.542 -12.748 -243.157c40.7588 9.00098 82.4463 18.083 116.242 22.5771
c9.28223 1.22461 17.8115 -5.29004 19.0459 -14.5723c1.23438 -9.28613 -5.29102 -17.8125 -14.5732 -19.0469c-33.8809 -4.50391 -77.0947 -14.0508 -118.884 -23.2822c-2.61523 -0.576172 -5.24023 -1.15625 -7.86523 -1.73633
c-8.48242 -46.4629 -19.5996 -92.292 -33.2842 -136.896c-16.9102 -55.1182 -42.6279 -124.352 -91.8242 -170.893zM147.024 430.068c-42.834 -130.371 -70.582 -266.689 -82.5068 -405.247c16.3164 37.7705 49.7354 69.1582 95.418 89.2559
c47.792 21.0273 98.2158 27.7324 146.981 34.2168c25.7852 3.42578 56.9697 9.77441 88.8252 16.6826c13.4775 82.5137 18.4355 166.771 14.4375 249.332c-2.74023 56.6064 -10.8184 139.267 -49.1523 203.331c-11.3818 19.0225 -29.8242 42.5664 -53.0459 46.7109
c-2.45508 0.4375 -4.90332 0.647461 -7.32812 0.647461c-35.1113 0 -66.1465 -43.6445 -78.3994 -63.417c-27.7832 -44.8281 -50.9844 -97.7246 -75.2295 -171.513zM92.1992 -82.6064c9.15332 -37.8213 26.5 -67.7578 48.8467 -84.2949
c42.0576 -31.1201 100.153 -13.2578 135.812 20.4736c43.4375 41.0938 67.0186 105.06 82.7041 156.199c11.9307 38.8867 21.8574 78.7363 29.7256 119.125c-27.7832 -5.89453 -54.7012 -11.1406 -77.8984 -14.2266c-46.415 -6.16895 -94.4111 -12.5518 -137.795 -31.6387
c-24.042 -10.5781 -66.584 -35.1387 -81.3877 -80.8008c-7.69531 -23.7266 -7.69531 -53.0625 -0.00683594 -84.8369z" />
    <glyph glyph-name="E" unicode="E" horiz-adv-x="493" 
d="M504.218 167.909c8.08496 -4.72461 10.8125 -15.1133 6.08789 -23.1953c-51.6689 -88.415 -111.918 -170.6 -179.082 -244.275c-24.2725 -26.626 -53.374 -55.3281 -91.6367 -58.8516c-2.39453 -0.220703 -4.80273 -0.329102 -7.21777 -0.329102
c-29.9941 0 -61.1484 16.8213 -84.6172 46.0625c-36.2549 45.1709 -47.9111 106.892 -54.0195 155.616c-5.74805 45.8936 -8.23438 91.8545 -8.25098 137.608c-0.078125 0.322266 -0.203125 0.624023 -0.264648 0.953125c-3.1875 17.1641 -6.62012 34.7656 -10.6768 52.3535
c-17.9141 -2.80469 -35.7637 -6.02344 -53.5078 -9.72363c-1.16699 -0.241211 -2.33398 -0.360352 -3.48047 -0.360352c-7.86523 0 -14.916 5.49707 -16.585 13.4971c-1.91309 9.1709 3.9707 18.1514 13.1377 20.0645c17.2188 3.58789 34.5254 6.74902 51.8896 9.51953
c-3.28613 11.2871 -6.93164 22.4619 -11.1436 33.3721c-8.43066 21.8271 -18.7607 42.2812 -29.7012 63.9326c-5.2334 10.3506 -10.6396 21.0537 -15.7607 31.8145c-13.6406 28.6611 -29.7803 66.9541 -33.5791 109.021c-4.05273 44.9268 7.24121 86.7432 30.9912 114.729
c35.2402 41.5215 89.1943 45.9336 126.826 45.6182c40.1143 -0.325195 80.6455 -5.23926 119.841 -9.99023c75.9209 -9.20801 147.63 -17.9033 216.859 3.83203c8.93262 2.80176 18.4521 -2.16309 21.2568 -11.0996s-2.16406 -18.4531 -11.1006 -21.2578
c-76.209 -23.9268 -154.952 -14.3799 -231.104 -5.14453c-24.3271 2.94727 -49.1768 5.95215 -73.8701 7.83398c-21.4678 -111.534 -44.4248 -232.062 -52.8086 -355.091c42.0811 4.52734 84.3691 6.69141 126.524 6.41992
c9.36426 -0.0644531 16.9072 -7.70508 16.8428 -17.0723c-0.0673828 -9.32617 -7.64355 -16.8418 -16.9561 -16.8418h-0.119141c-42.7021 0.28125 -85.5732 -2.09277 -128.225 -6.90527c-2.87207 -64.0879 -1.43066 -128.678 6.61035 -192.864
c5.55176 -44.292 15.8857 -100.071 46.8154 -138.604c18.2158 -22.6992 41.4912 -35.0947 62.2773 -33.1924c26.1787 2.4082 49.6953 26.0029 69.6846 47.9287c65.5605 71.9189 124.396 152.174 174.863 238.537c4.72461 8.08496 15.1094 10.8086 23.1982 6.08398z
M40.0137 410.536c4.94824 -10.3984 10.2627 -20.917 15.4043 -31.0947c10.832 -21.4375 22.0303 -43.6074 31.0684 -67.0088c1.48242 -3.83887 2.84277 -7.70898 4.20605 -11.582c9.52344 114.668 30.6016 226.342 50.6211 330.392
c-2.65527 0.0644531 -5.31738 0.15625 -7.96289 0.176758c-48.8574 0.525391 -80.876 -10.2969 -100.692 -33.6504c-17.6387 -20.7861 -26.2627 -54.3311 -23.0684 -89.7314c3.31348 -36.7129 17.998 -71.3906 30.4238 -97.501z" />
    <glyph glyph-name="E" unicode="&#xcb;" horiz-adv-x="493" 
d="M504.218 167.909c8.08496 -4.72461 10.8125 -15.1133 6.08789 -23.1953c-51.6689 -88.415 -111.918 -170.6 -179.082 -244.275c-24.2725 -26.626 -53.374 -55.3281 -91.6367 -58.8516c-2.39453 -0.220703 -4.80273 -0.329102 -7.21777 -0.329102
c-29.9941 0 -61.1484 16.8213 -84.6172 46.0625c-36.2549 45.1709 -47.9111 106.892 -54.0195 155.616c-5.74805 45.8936 -8.23438 91.8545 -8.25098 137.608c-0.078125 0.322266 -0.203125 0.624023 -0.264648 0.953125c-3.1875 17.1641 -6.62012 34.7656 -10.6768 52.3535
c-17.9141 -2.80469 -35.7637 -6.02344 -53.5078 -9.72363c-1.16699 -0.241211 -2.33398 -0.360352 -3.48047 -0.360352c-7.86523 0 -14.916 5.49707 -16.585 13.4971c-1.91309 9.1709 3.9707 18.1514 13.1377 20.0645c17.2188 3.58789 34.5254 6.74902 51.8896 9.51953
c-3.28613 11.2871 -6.93164 22.4619 -11.1436 33.3721c-8.43066 21.8271 -18.7607 42.2812 -29.7012 63.9326c-5.2334 10.3506 -10.6396 21.0537 -15.7607 31.8145c-13.6406 28.6611 -29.7803 66.9541 -33.5791 109.021c-4.05273 44.9268 7.24121 86.7432 30.9912 114.729
c35.2402 41.5215 89.1943 45.9336 126.826 45.6182c40.1143 -0.325195 80.6455 -5.23926 119.841 -9.99023c75.9209 -9.20801 147.63 -17.9033 216.859 3.83203c8.93262 2.80176 18.4521 -2.16309 21.2568 -11.0996s-2.16406 -18.4531 -11.1006 -21.2578
c-76.209 -23.9268 -154.952 -14.3799 -231.104 -5.14453c-24.3271 2.94727 -49.1768 5.95215 -73.8701 7.83398c-21.4678 -111.534 -44.4248 -232.062 -52.8086 -355.091c42.0811 4.52734 84.3691 6.69141 126.524 6.41992
c9.36426 -0.0644531 16.9072 -7.70508 16.8428 -17.0723c-0.0673828 -9.32617 -7.64355 -16.8418 -16.9561 -16.8418h-0.119141c-42.7021 0.28125 -85.5732 -2.09277 -128.225 -6.90527c-2.87207 -64.0879 -1.43066 -128.678 6.61035 -192.864
c5.55176 -44.292 15.8857 -100.071 46.8154 -138.604c18.2158 -22.6992 41.4912 -35.0947 62.2773 -33.1924c26.1787 2.4082 49.6953 26.0029 69.6846 47.9287c65.5605 71.9189 124.396 152.174 174.863 238.537c4.72461 8.08496 15.1094 10.8086 23.1982 6.08398z
M40.0137 410.536c4.94824 -10.3984 10.2627 -20.917 15.4043 -31.0947c10.832 -21.4375 22.0303 -43.6074 31.0684 -67.0088c1.48242 -3.83887 2.84277 -7.70898 4.20605 -11.582c9.52344 114.668 30.6016 226.342 50.6211 330.392
c-2.65527 0.0644531 -5.31738 0.15625 -7.96289 0.176758c-48.8574 0.525391 -80.876 -10.2969 -100.692 -33.6504c-17.6387 -20.7861 -26.2627 -54.3311 -23.0684 -89.7314c3.31348 -36.7129 17.998 -71.3906 30.4238 -97.501z" />
    <glyph glyph-name="E" unicode="&#xca;" horiz-adv-x="493" 
d="M504.218 167.909c8.08496 -4.72461 10.8125 -15.1133 6.08789 -23.1953c-51.6689 -88.415 -111.918 -170.6 -179.082 -244.275c-24.2725 -26.626 -53.374 -55.3281 -91.6367 -58.8516c-2.39453 -0.220703 -4.80273 -0.329102 -7.21777 -0.329102
c-29.9941 0 -61.1484 16.8213 -84.6172 46.0625c-36.2549 45.1709 -47.9111 106.892 -54.0195 155.616c-5.74805 45.8936 -8.23438 91.8545 -8.25098 137.608c-0.078125 0.322266 -0.203125 0.624023 -0.264648 0.953125c-3.1875 17.1641 -6.62012 34.7656 -10.6768 52.3535
c-17.9141 -2.80469 -35.7637 -6.02344 -53.5078 -9.72363c-1.16699 -0.241211 -2.33398 -0.360352 -3.48047 -0.360352c-7.86523 0 -14.916 5.49707 -16.585 13.4971c-1.91309 9.1709 3.9707 18.1514 13.1377 20.0645c17.2188 3.58789 34.5254 6.74902 51.8896 9.51953
c-3.28613 11.2871 -6.93164 22.4619 -11.1436 33.3721c-8.43066 21.8271 -18.7607 42.2812 -29.7012 63.9326c-5.2334 10.3506 -10.6396 21.0537 -15.7607 31.8145c-13.6406 28.6611 -29.7803 66.9541 -33.5791 109.021c-4.05273 44.9268 7.24121 86.7432 30.9912 114.729
c35.2402 41.5215 89.1943 45.9336 126.826 45.6182c40.1143 -0.325195 80.6455 -5.23926 119.841 -9.99023c75.9209 -9.20801 147.63 -17.9033 216.859 3.83203c8.93262 2.80176 18.4521 -2.16309 21.2568 -11.0996s-2.16406 -18.4531 -11.1006 -21.2578
c-76.209 -23.9268 -154.952 -14.3799 -231.104 -5.14453c-24.3271 2.94727 -49.1768 5.95215 -73.8701 7.83398c-21.4678 -111.534 -44.4248 -232.062 -52.8086 -355.091c42.0811 4.52734 84.3691 6.69141 126.524 6.41992
c9.36426 -0.0644531 16.9072 -7.70508 16.8428 -17.0723c-0.0673828 -9.32617 -7.64355 -16.8418 -16.9561 -16.8418h-0.119141c-42.7021 0.28125 -85.5732 -2.09277 -128.225 -6.90527c-2.87207 -64.0879 -1.43066 -128.678 6.61035 -192.864
c5.55176 -44.292 15.8857 -100.071 46.8154 -138.604c18.2158 -22.6992 41.4912 -35.0947 62.2773 -33.1924c26.1787 2.4082 49.6953 26.0029 69.6846 47.9287c65.5605 71.9189 124.396 152.174 174.863 238.537c4.72461 8.08496 15.1094 10.8086 23.1982 6.08398z
M40.0137 410.536c4.94824 -10.3984 10.2627 -20.917 15.4043 -31.0947c10.832 -21.4375 22.0303 -43.6074 31.0684 -67.0088c1.48242 -3.83887 2.84277 -7.70898 4.20605 -11.582c9.52344 114.668 30.6016 226.342 50.6211 330.392
c-2.65527 0.0644531 -5.31738 0.15625 -7.96289 0.176758c-48.8574 0.525391 -80.876 -10.2969 -100.692 -33.6504c-17.6387 -20.7861 -26.2627 -54.3311 -23.0684 -89.7314c3.31348 -36.7129 17.998 -71.3906 30.4238 -97.501z" />
    <glyph glyph-name="E" unicode="&#xc9;" horiz-adv-x="493" 
d="M504.218 167.909c8.08496 -4.72461 10.8125 -15.1133 6.08789 -23.1953c-51.6689 -88.415 -111.918 -170.6 -179.082 -244.275c-24.2725 -26.626 -53.374 -55.3281 -91.6367 -58.8516c-2.39453 -0.220703 -4.80273 -0.329102 -7.21777 -0.329102
c-29.9941 0 -61.1484 16.8213 -84.6172 46.0625c-36.2549 45.1709 -47.9111 106.892 -54.0195 155.616c-5.74805 45.8936 -8.23438 91.8545 -8.25098 137.608c-0.078125 0.322266 -0.203125 0.624023 -0.264648 0.953125c-3.1875 17.1641 -6.62012 34.7656 -10.6768 52.3535
c-17.9141 -2.80469 -35.7637 -6.02344 -53.5078 -9.72363c-1.16699 -0.241211 -2.33398 -0.360352 -3.48047 -0.360352c-7.86523 0 -14.916 5.49707 -16.585 13.4971c-1.91309 9.1709 3.9707 18.1514 13.1377 20.0645c17.2188 3.58789 34.5254 6.74902 51.8896 9.51953
c-3.28613 11.2871 -6.93164 22.4619 -11.1436 33.3721c-8.43066 21.8271 -18.7607 42.2812 -29.7012 63.9326c-5.2334 10.3506 -10.6396 21.0537 -15.7607 31.8145c-13.6406 28.6611 -29.7803 66.9541 -33.5791 109.021c-4.05273 44.9268 7.24121 86.7432 30.9912 114.729
c35.2402 41.5215 89.1943 45.9336 126.826 45.6182c40.1143 -0.325195 80.6455 -5.23926 119.841 -9.99023c75.9209 -9.20801 147.63 -17.9033 216.859 3.83203c8.93262 2.80176 18.4521 -2.16309 21.2568 -11.0996s-2.16406 -18.4531 -11.1006 -21.2578
c-76.209 -23.9268 -154.952 -14.3799 -231.104 -5.14453c-24.3271 2.94727 -49.1768 5.95215 -73.8701 7.83398c-21.4678 -111.534 -44.4248 -232.062 -52.8086 -355.091c42.0811 4.52734 84.3691 6.69141 126.524 6.41992
c9.36426 -0.0644531 16.9072 -7.70508 16.8428 -17.0723c-0.0673828 -9.32617 -7.64355 -16.8418 -16.9561 -16.8418h-0.119141c-42.7021 0.28125 -85.5732 -2.09277 -128.225 -6.90527c-2.87207 -64.0879 -1.43066 -128.678 6.61035 -192.864
c5.55176 -44.292 15.8857 -100.071 46.8154 -138.604c18.2158 -22.6992 41.4912 -35.0947 62.2773 -33.1924c26.1787 2.4082 49.6953 26.0029 69.6846 47.9287c65.5605 71.9189 124.396 152.174 174.863 238.537c4.72461 8.08496 15.1094 10.8086 23.1982 6.08398z
M40.0137 410.536c4.94824 -10.3984 10.2627 -20.917 15.4043 -31.0947c10.832 -21.4375 22.0303 -43.6074 31.0684 -67.0088c1.48242 -3.83887 2.84277 -7.70898 4.20605 -11.582c9.52344 114.668 30.6016 226.342 50.6211 330.392
c-2.65527 0.0644531 -5.31738 0.15625 -7.96289 0.176758c-48.8574 0.525391 -80.876 -10.2969 -100.692 -33.6504c-17.6387 -20.7861 -26.2627 -54.3311 -23.0684 -89.7314c3.31348 -36.7129 17.998 -71.3906 30.4238 -97.501z" />
    <glyph glyph-name="F" unicode="F" horiz-adv-x="357" 
d="M351.537 -56.1094c-3.31055 -64.7363 -51.8271 -120.32 -105.948 -121.372c-0.552734 -0.0136719 -1.11523 -0.0166016 -1.67188 -0.0166016c-43.7529 -0.00292969 -86.6074 33.291 -109.567 85.3027c-19.4326 44.0273 -23.458 94.1221 -25.9131 141.663
c-9.87207 191.054 -2.10547 384.729 6.26465 572.775c-9.64551 1.73633 -19.2871 3.20508 -28.8711 4.17871c-40.165 4.08301 -69.376 -3.80859 -86.8594 -23.4453c1.54004 -5.86035 -0.118164 -12.3613 -4.87598 -16.7666
c-3.2627 -3.02148 -7.39648 -4.51758 -11.5205 -4.51758c-4.55859 0 -9.10352 1.82812 -12.4443 5.43359c-9.04492 9.76074 -7.99023 25.1074 2.55762 37.3203c25.0664 29.0137 64.2822 41.0361 116.568 35.7188c9.33984 -0.949219 18.6221 -2.30566 27.8467 -3.89648
c2.49902 6.71484 9.06152 11.3887 16.584 11.0801c9.34668 -0.420898 16.5908 -8.33691 16.1807 -17.6836c11.7246 -2.65918 23.3271 -5.53125 34.7832 -8.36621c8.50586 -2.10645 17.0117 -4.21289 25.5244 -6.22363c36.6143 -8.64844 75.792 -16.1025 114.214 -12.2061
c39.917 4.05957 74.5947 20.9121 97.6465 47.46c6.14551 7.07129 16.8555 7.82422 23.9229 1.68555c7.07129 -6.1416 7.82715 -16.8516 1.68555 -23.9229c-28.7354 -33.0908 -71.2881 -54.0293 -119.823 -58.9639c-43.4072 -4.41211 -85.9424 3.6123 -125.439 12.9385
c-8.63477 2.03809 -17.2559 4.1709 -25.8799 6.30762c-9.30273 2.30273 -18.7109 4.61914 -28.166 6.82324c-7.08789 -159.611 -13.6201 -323.198 -9.12988 -485.255l220.074 81.9033c8.48242 3.1543 17.9512 -0.905273 21.5088 -9.22754
s-0.0507812 -17.9707 -8.19336 -21.9219l-7.93555 -3.84961c-2.17383 -1.05859 -4.4668 -1.6084 -6.73926 -1.69629l-144.31 -53.7041c21.6309 -5.25293 43.7939 -14.335 64.6611 -29.1484c47.3955 -33.6436 76.1553 -91.8955 73.2656 -148.407zM244.932 -143.573
c36.3525 0.705078 70.3408 42.3857 72.7354 89.1982c2.27539 44.5127 -21.4443 92.3428 -59.0254 119.02c-39.1104 27.7627 -84.793 31.0898 -118.216 28.3906c0.539062 -13.959 1.16309 -27.8945 1.88184 -41.8164c2.39062 -46.2256 5.95117 -90.9316 23.0713 -129.72
c14.5117 -32.877 44.665 -65.7607 79.5527 -65.0723z" />
    <glyph glyph-name="G" unicode="G" horiz-adv-x="495" 
d="M484.741 190.771c8.28516 4.375 18.5439 1.19922 22.915 -7.0791c4.37207 -8.28516 1.20117 -18.541 -7.08105 -22.9131c-33.3418 -17.5947 -67.3447 -33.2637 -101.917 -46.9717c-1.46484 -60.7412 -13.1895 -146.446 -59.2695 -219.807
c-22.6348 -36.0312 -50.5195 -63.2031 -80.6318 -78.5801c-22.7363 -11.6123 -48.749 -17.6182 -75.9248 -17.6182c-4.53809 0 -9.10254 0.166016 -13.6943 0.501953c-89.5342 6.56934 -172.845 81.9541 -198.094 179.251
c-6.61719 25.4932 -5.12793 44.9805 4.55762 59.5742c9.33984 14.0713 23.5635 19.6846 37.543 23.6523c39.0527 11.0869 79.1328 16.2891 117.894 21.3154c15.5156 2.01465 31.5576 4.09668 47.168 6.51465c63.4951 9.8418 125.915 26.1006 186.643 48.5625
c-0.796875 54.7822 -8.86133 108.984 -18.6182 158.584c-17.5645 -34.9219 -37.4893 -69.4092 -62.6641 -99.332c-40.1885 -47.7686 -88.9883 -76.3213 -137.411 -80.4043c-3.77832 -0.318359 -7.5127 -0.477539 -11.1855 -0.477539
c-28.3936 0 -53.3887 9.43164 -71.248 27.0947c-25.9756 25.6797 -37.3467 68.4121 -33.7959 126.996c6.60352 108.865 46.2227 218.389 111.562 308.388c44.2988 61.0225 89.5811 95.6826 138.438 105.973c37.8721 7.98047 72.6582 -2.55664 93.0547 -28.1758
c28.4268 -35.7119 21.3662 -89.3643 2.77441 -124.1c-21.5459 -40.2666 -59.1396 -68.2559 -100.562 -74.873c-23.374 -3.72754 -42.9697 1.1123 -56.6846 14.0068c-17.7139 16.6553 -21.4238 41.7588 -23.7031 66.042c-0.87793 9.32617 5.97266 17.5947 15.2959 18.4697
c9.36035 0.87793 17.5947 -5.97266 18.4697 -15.2959c1.67188 -17.832 4.06934 -35.9521 13.1689 -44.5088c7.29492 -6.86133 19.3076 -6.62695 28.1016 -5.22266c30.5537 4.87988 59.6826 26.8662 76.0127 57.3828c13.6104 25.4287 18.4395 64.5527 0.589844 86.9766
c-18.124 22.7666 -50.1494 18.0898 -59.5303 16.1123c-39.6973 -8.36035 -79.3906 -39.5518 -117.982 -92.7129c-61.5918 -84.8408 -98.9385 -188.016 -105.155 -290.519c-2.93359 -48.3955 5.07031 -82.3203 23.791 -100.827
c17.5439 -17.3506 42.4541 -18.0693 55.7383 -16.9404c39.3711 3.32031 79.9668 27.627 114.306 68.4434c32.5107 38.6426 56.2988 87.083 77.875 133.387c2.0791 4.45312 5.85742 7.53613 10.1953 8.93359c1.18066 0.576172 2.41504 1.06152 3.75098 1.35645
c9.13672 2.02832 18.1982 -3.73047 20.2295 -12.877c13.1484 -59.1943 26.4258 -127.919 28.793 -198.746c29.2109 12.0361 58.001 25.5342 86.2861 40.4629zM310.672 -87.96c38.6963 61.6055 50.8408 133.752 53.5742 188.843
c-58.9473 -20.9385 -119.406 -36.2607 -180.843 -45.7842c-16.0244 -2.48633 -32.2793 -4.5957 -47.999 -6.63379c-37.5361 -4.87012 -76.3516 -9.90625 -112.996 -20.3076c-8.91602 -2.53027 -15.4814 -5.16211 -18.5439 -9.77832
c-2.74707 -4.1377 -4.97559 -13.1016 0.00976562 -32.3037c21.709 -83.667 92.2578 -148.41 167.745 -153.945c25.9111 -1.89941 50.709 2.76758 71.7158 13.4951c24.6689 12.5928 47.9551 35.5596 67.3369 66.415z" />
    <glyph glyph-name="H" unicode="H" horiz-adv-x="614" 
d="M622.104 179.542c9.26172 -1.36719 15.6738 -9.98633 14.3066 -19.2412c-12.1074 -82.0801 -29.292 -168.026 -72.6689 -240.509c-6.3252 -10.5742 -25.582 -42.749 -56.7666 -44.8721c-1.07812 -0.0742188 -2.16016 -0.111328 -3.24219 -0.111328
c-12.2334 0 -24.8496 4.67383 -37.5605 13.9219c-29.1016 21.166 -44.8857 54.083 -53.002 77.9688c-9.44531 27.793 -13.6777 56.4609 -17.127 90.9551c-7.25098 72.543 -9.21484 145.351 -7.8584 218.013c-39.4189 -1.91602 -79.4346 -6.53223 -118.276 -11.0361
c-35.1084 -4.06641 -70.79 -8.1123 -106.753 -10.3545c-0.237305 -124.907 5.93555 -249.828 18.626 -373.826c0.953125 -9.31641 -5.82617 -17.6426 -15.1426 -18.5957c-0.586914 -0.0576172 -1.16992 -0.0878906 -1.74609 -0.0878906
c-8.58691 0 -15.9531 6.50098 -16.8486 15.2305c-7.70215 75.2695 -13.0469 150.879 -16.0312 226.617c-0.549805 1.01367 -1.03809 2.0752 -1.38086 3.22461c-10.1035 33.8369 -22.459 67.127 -36.7266 98.9492c-6.84082 15.2578 -14.957 32.2217 -25.1348 48.1445
c-4.73828 0.332031 -9.46582 0.728516 -14.2002 1.18945c-20.6738 2.02148 -42.5898 5.47754 -62.8066 17.002c-6.06348 3.45605 -14.7969 9.21777 -20.5488 19.3008c-6.71875 11.7715 -6.96289 26.2568 -0.621094 36.8994c8.15332 13.6846 24.9609 18.7715 43.8682 13.2607
c24.8691 -7.24414 48.6094 -24.334 68.6533 -49.4238c1.38672 -1.74023 2.74707 -3.5 4.08008 -5.28418c14.0166 -0.566406 28.0908 -0.59375 42.1895 -0.241211c1.13574 106.04 6.8877 212.006 17.2588 317.341c0.918945 9.31934 9.22754 16.123 18.5371 15.2139
c9.31934 -0.918945 16.1328 -9.21777 15.2139 -18.5371c-10.2148 -103.718 -15.8926 -208.06 -17.0693 -312.469c34.4365 2.22461 68.833 6.20605 102.67 10.127c40.2295 4.66309 81.7031 9.43457 123.052 11.3271c3.81836 117.87 15.6377 235.197 27.2402 350.235
c0.939453 9.31641 9.26172 16.1367 18.5713 15.1699c9.31641 -0.939453 16.1094 -9.25488 15.1699 -18.5742c-19.6943 -195.286 -40.0596 -397.22 -20.2471 -595.45c3.21875 -32.1748 7.08496 -58.6719 15.4922 -83.416c6.53906 -19.2393 18.9316 -45.5195 40.8438 -61.459
c7.125 -5.18262 13.5488 -7.74316 18.5439 -7.40039c8.95312 0.614258 19.0361 10.1846 29.9697 28.4541c40.3311 67.3916 56.624 149.431 68.2227 228.045c1.36328 9.26562 9.97754 15.6787 19.25 14.2988zM8.55859 301.589
c8.46191 -4.82617 17.916 -7.75879 27.6533 -9.69531c-8.88184 7.27148 -19.375 13.6777 -31.2314 17.1338c-2.12305 0.617188 -3.78125 0.820312 -4.9209 0.854492c0.119141 -0.536133 0.31543 -1.12305 0.614258 -1.64844
c1.24121 -2.17383 3.74414 -4.28711 7.88477 -6.64453zM129.436 209.193c-0.152344 14.5088 -0.225586 29.0176 -0.202148 43.5293c-6.78613 -0.169922 -13.5791 -0.254883 -20.3789 -0.241211c6.24414 -11.5684 11.5283 -22.8584 15.9951 -32.8223
c1.55371 -3.46973 3.07324 -6.96582 4.58594 -10.4658z" />
    <glyph glyph-name="I" unicode="I" horiz-adv-x="279" 
d="M60.7236 261.038l0.0693359 6.84863c1.13281 125.416 0.501953 252.436 -1.72266 378.17l-74.7168 -6.14551c-0.474609 -0.0410156 -0.946289 -0.0615234 -1.41113 -0.0615234c-8.73633 0 -16.1533 6.70508 -16.8828 15.5674
c-0.766602 9.33301 6.17578 17.5234 15.5088 18.29l77.1318 6.3457c0.803711 8.46191 7.75977 15.1836 16.459 15.3564c0.115234 0.00292969 0.230469 0.00292969 0.345703 0.00292969c7.83105 0 14.417 -5.35156 16.3398 -12.6328l87.1504 7.16992
c9.34375 0.749023 17.5205 -6.17969 18.29 -15.5127c0.766602 -9.33301 -6.17578 -17.5195 -15.5088 -18.2891l-88.8359 -7.30859c2.25879 -126.749 2.90332 -254.82 1.76367 -381.261l-0.0644531 -6.85742c-0.898438 -97.8506 -1.82129 -199.031 26.6562 -290.339
c4.89746 -15.6992 12.0332 -35.5117 23.8486 -49.5146c10.2012 -12.0908 23.2822 -18.3242 34.1553 -16.2686c13.8301 2.61523 27.1689 17.7275 40.7793 46.1992c32.5 67.9883 51.085 144.862 53.7471 222.319c0.322266 9.35742 8.20703 16.6689 17.5303 16.3633
c9.36035 -0.322266 16.6855 -8.16992 16.3633 -17.5303c-2.82129 -82.083 -22.5459 -163.613 -57.0439 -235.776c-11.8633 -24.8184 -31.5166 -58.5459 -65.0752 -64.8945c-3.5166 -0.661133 -7.07129 -0.990234 -10.6318 -0.990234
c-19.9521 0 -40.1787 10.2588 -55.749 28.7148c-15.7295 18.6396 -24.4561 42.543 -30.3027 61.2842c-30.0654 96.3916 -29.1123 200.278 -28.1934 300.75z" />
    <glyph glyph-name="I" unicode="&#xcf;" horiz-adv-x="279" 
d="M60.7236 261.038l0.0693359 6.84863c1.13281 125.416 0.501953 252.436 -1.72266 378.17l-74.7168 -6.14551c-0.474609 -0.0410156 -0.946289 -0.0615234 -1.41113 -0.0615234c-8.73633 0 -16.1533 6.70508 -16.8828 15.5674
c-0.766602 9.33301 6.17578 17.5234 15.5088 18.29l77.1318 6.3457c0.803711 8.46191 7.75977 15.1836 16.459 15.3564c0.115234 0.00292969 0.230469 0.00292969 0.345703 0.00292969c7.83105 0 14.417 -5.35156 16.3398 -12.6328l87.1504 7.16992
c9.34375 0.749023 17.5205 -6.17969 18.29 -15.5127c0.766602 -9.33301 -6.17578 -17.5195 -15.5088 -18.2891l-88.8359 -7.30859c2.25879 -126.749 2.90332 -254.82 1.76367 -381.261l-0.0644531 -6.85742c-0.898438 -97.8506 -1.82129 -199.031 26.6562 -290.339
c4.89746 -15.6992 12.0332 -35.5117 23.8486 -49.5146c10.2012 -12.0908 23.2822 -18.3242 34.1553 -16.2686c13.8301 2.61523 27.1689 17.7275 40.7793 46.1992c32.5 67.9883 51.085 144.862 53.7471 222.319c0.322266 9.35742 8.20703 16.6689 17.5303 16.3633
c9.36035 -0.322266 16.6855 -8.16992 16.3633 -17.5303c-2.82129 -82.083 -22.5459 -163.613 -57.0439 -235.776c-11.8633 -24.8184 -31.5166 -58.5459 -65.0752 -64.8945c-3.5166 -0.661133 -7.07129 -0.990234 -10.6318 -0.990234
c-19.9521 0 -40.1787 10.2588 -55.749 28.7148c-15.7295 18.6396 -24.4561 42.543 -30.3027 61.2842c-30.0654 96.3916 -29.1123 200.278 -28.1934 300.75z" />
    <glyph glyph-name="I" unicode="&#xce;" horiz-adv-x="279" 
d="M60.7236 261.038l0.0693359 6.84863c1.13281 125.416 0.501953 252.436 -1.72266 378.17l-74.7168 -6.14551c-0.474609 -0.0410156 -0.946289 -0.0615234 -1.41113 -0.0615234c-8.73633 0 -16.1533 6.70508 -16.8828 15.5674
c-0.766602 9.33301 6.17578 17.5234 15.5088 18.29l77.1318 6.3457c0.803711 8.46191 7.75977 15.1836 16.459 15.3564c0.115234 0.00292969 0.230469 0.00292969 0.345703 0.00292969c7.83105 0 14.417 -5.35156 16.3398 -12.6328l87.1504 7.16992
c9.34375 0.749023 17.5205 -6.17969 18.29 -15.5127c0.766602 -9.33301 -6.17578 -17.5195 -15.5088 -18.2891l-88.8359 -7.30859c2.25879 -126.749 2.90332 -254.82 1.76367 -381.261l-0.0644531 -6.85742c-0.898438 -97.8506 -1.82129 -199.031 26.6562 -290.339
c4.89746 -15.6992 12.0332 -35.5117 23.8486 -49.5146c10.2012 -12.0908 23.2822 -18.3242 34.1553 -16.2686c13.8301 2.61523 27.1689 17.7275 40.7793 46.1992c32.5 67.9883 51.085 144.862 53.7471 222.319c0.322266 9.35742 8.20703 16.6689 17.5303 16.3633
c9.36035 -0.322266 16.6855 -8.16992 16.3633 -17.5303c-2.82129 -82.083 -22.5459 -163.613 -57.0439 -235.776c-11.8633 -24.8184 -31.5166 -58.5459 -65.0752 -64.8945c-3.5166 -0.661133 -7.07129 -0.990234 -10.6318 -0.990234
c-19.9521 0 -40.1787 10.2588 -55.749 28.7148c-15.7295 18.6396 -24.4561 42.543 -30.3027 61.2842c-30.0654 96.3916 -29.1123 200.278 -28.1934 300.75z" />
    <glyph glyph-name="I" unicode="&#xcd;" horiz-adv-x="279" 
d="M60.7236 261.038l0.0693359 6.84863c1.13281 125.416 0.501953 252.436 -1.72266 378.17l-74.7168 -6.14551c-0.474609 -0.0410156 -0.946289 -0.0615234 -1.41113 -0.0615234c-8.73633 0 -16.1533 6.70508 -16.8828 15.5674
c-0.766602 9.33301 6.17578 17.5234 15.5088 18.29l77.1318 6.3457c0.803711 8.46191 7.75977 15.1836 16.459 15.3564c0.115234 0.00292969 0.230469 0.00292969 0.345703 0.00292969c7.83105 0 14.417 -5.35156 16.3398 -12.6328l87.1504 7.16992
c9.34375 0.749023 17.5205 -6.17969 18.29 -15.5127c0.766602 -9.33301 -6.17578 -17.5195 -15.5088 -18.2891l-88.8359 -7.30859c2.25879 -126.749 2.90332 -254.82 1.76367 -381.261l-0.0644531 -6.85742c-0.898438 -97.8506 -1.82129 -199.031 26.6562 -290.339
c4.89746 -15.6992 12.0332 -35.5117 23.8486 -49.5146c10.2012 -12.0908 23.2822 -18.3242 34.1553 -16.2686c13.8301 2.61523 27.1689 17.7275 40.7793 46.1992c32.5 67.9883 51.085 144.862 53.7471 222.319c0.322266 9.35742 8.20703 16.6689 17.5303 16.3633
c9.36035 -0.322266 16.6855 -8.16992 16.3633 -17.5303c-2.82129 -82.083 -22.5459 -163.613 -57.0439 -235.776c-11.8633 -24.8184 -31.5166 -58.5459 -65.0752 -64.8945c-3.5166 -0.661133 -7.07129 -0.990234 -10.6318 -0.990234
c-19.9521 0 -40.1787 10.2588 -55.749 28.7148c-15.7295 18.6396 -24.4561 42.543 -30.3027 61.2842c-30.0654 96.3916 -29.1123 200.278 -28.1934 300.75z" />
    <glyph glyph-name="J" unicode="J" horiz-adv-x="421" 
d="M416.491 166.729c-41.7422 33.5586 -75.9883 76.2119 -107.481 120.857c-4.97559 -76.6602 -13.2197 -158.116 -28.502 -237.429c-6.8916 -35.7627 -16.3301 -77.4102 -34.0742 -115.153c-12.6709 -26.9482 -26.6846 -43.9492 -44.0967 -53.4961
c-10.2451 -5.61914 -21.5078 -8.34961 -33.1777 -8.34961c-25.6602 -0.00292969 -53.3174 13.1895 -76.6475 37.8691c-31.4756 33.3008 -50.0811 76.7861 -62.7754 110.951c-57.1836 153.897 -60.1982 317.254 -8.26465 448.178
c18.6396 46.9854 42.2344 73.2422 72.1406 80.2725c30.7939 7.23047 62.7012 -7.1123 97.5586 -43.8721c33.2021 -35.0098 61.8604 -75.4189 89.0967 -115.855c0.0917969 2.33691 0.179688 4.66992 0.267578 6.98926c2.52344 66.5303 4.31055 138.076 0.325195 210.453
c-1.41797 25.7207 -3.5957 48.1895 -8.19434 68.7383c-91.1621 -12.0703 -182.287 -28.583 -271.872 -49.373c-1.29199 -0.298828 -2.57715 -0.441406 -3.84863 -0.441406c-7.70898 0 -14.6855 5.29395 -16.5029 13.1279c-2.11621 9.12305 3.56152 18.2324 12.6846 20.3525
c89.0732 20.6738 179.659 37.1934 270.306 49.3516c-0.318359 7.08789 3.78906 13.9014 10.7725 16.5908c8.72949 3.36133 18.5508 -0.990234 21.9189 -9.73047c0.332031 -0.861328 0.630859 -1.7334 0.949219 -2.59863c18.168 2.21777 36.3359 4.32031 54.4834 6.18262
c9.36035 0.962891 17.6426 -5.82031 18.5986 -15.1367s-5.82031 -17.6426 -15.1367 -18.5986c-16.1807 -1.6582 -32.375 -3.49609 -48.5762 -5.44238c4.96191 -23.5303 6.99023 -47.7822 8.27539 -71.1562c4.0625 -73.7607 2.25781 -146.253 -0.295898 -213.601
c-0.658203 -17.3369 -1.4043 -35.1758 -2.28906 -53.4082c38.2793 -57.0547 76.1621 -110.087 125.609 -149.838c7.29883 -5.86719 8.45898 -16.5439 2.5918 -23.8428c-5.87109 -7.29883 -16.5439 -8.45898 -23.8428 -2.5918zM247.204 56.5791
c17.8867 92.8271 25.9609 189.108 30.4854 276.903c-2.76367 4.14062 -5.52051 8.28125 -8.27051 12.4082c-31.7305 47.6465 -64.5391 96.918 -102.869 137.337c-22.0781 23.2822 -41.4941 35.0303 -57.8516 35.0303c-2.51953 0 -4.96094 -0.28125 -7.33496 -0.837891
c-18.0527 -4.24609 -34.3252 -24.3535 -48.373 -59.7637c-48.8809 -123.229 -45.7705 -277.723 8.53027 -423.86c11.5752 -31.1543 28.3594 -70.6143 55.6338 -99.4688c18.8535 -19.9453 47.46 -34.8232 68.874 -23.0791c10.6562 5.84375 20.373 18.3379 29.71 38.1914
c16.1533 34.3555 24.9707 73.4385 31.4658 107.14z" />
    <glyph glyph-name="K" unicode="K" horiz-adv-x="514" 
d="M206.996 29.3545c-0.407227 -0.329102 -0.817383 -0.658203 -1.23145 -0.990234c-5.09766 -4.0498 -10.1982 -7.83105 -15.2988 -11.4023c4.36816 -27.7559 9.05176 -55.457 14.1523 -83.0732c1.69922 -9.20801 -4.38477 -18.0527 -13.5957 -19.7549
c-1.04102 -0.193359 -2.0791 -0.285156 -3.09961 -0.285156c-8.01758 0 -15.1465 5.71094 -16.6553 13.8809c-4.32031 23.3809 -8.29199 46.8291 -12.0938 70.3086c-19.8672 -10.0898 -39.6562 -16.4932 -59.1914 -19.1279
c-6.71875 -0.905273 -13.4062 -1.35254 -20.0029 -1.35254c-35.8779 0 -69.3281 13.2061 -93.9434 37.584c-12.4326 12.3076 -19.4287 25.4697 -20.792 39.1201c-1.75977 17.6318 6.10547 35.9258 20.5264 47.7412c10.4902 8.59375 23.791 13.6807 40.667 15.5498
c42.2305 4.67383 81.3711 -10.9131 119.192 -27.4023c-26.0088 196.511 -34.0703 395.778 -23.791 594.426c0.481445 9.35352 8.49219 16.5537 17.8086 16.0586c9.35352 -0.481445 16.543 -8.45508 16.0576 -17.8086c-10.5205 -203.317 -1.70312 -407.296 26.1816 -608.219
c5.94141 -2.40137 11.9033 -4.72461 17.9023 -6.90918c43.2441 38.7783 80.4316 91.9863 110.714 158.479c32.8633 72.1562 53.1611 149.942 68.6768 216.52c16.6855 71.5693 33.334 154.202 21.793 234.519c-2.08594 1.10254 -3.97461 2.65625 -5.51074 4.64355
c-5.61621 7.27148 -5.2666 17.3545 0.848633 24.5107c6.17578 7.2373 16.5264 9.28613 24.6016 4.86719c9.67285 -5.28418 11.4639 -15.7334 12.0537 -19.166c15.3057 -89.3887 -2.68945 -179.561 -20.7559 -257.068c-15.8955 -68.2021 -36.7432 -148.017 -70.8408 -222.876
c-28.9355 -63.542 -64.0918 -115.95 -104.807 -156.339c34.457 -9.81445 69.6436 -16.1025 105.166 -18.7715c27.5723 -2.06836 59.2686 -2.14941 85.2197 13.0039c34.6777 20.25 54.9082 63.043 75.9424 112.748c3.64941 8.62402 13.6035 12.6631 22.2246 9.00684
c8.62402 -3.64941 12.6562 -13.5996 9.00684 -22.2236c-18.0762 -42.7256 -42.8369 -101.238 -90.0732 -128.821c-34.1758 -19.959 -73.9844 -19.8604 -104.86 -17.5342c-44.8184 3.36426 -89.1074 12.1416 -132.192 26.1582zM95.458 12.5293
c18.8633 2.54395 38.3291 9.67383 58.1455 21.1299c-0.858398 5.69727 -1.68555 11.3984 -2.5127 17.1025c-3.60156 1.56348 -7.18945 3.13379 -10.7129 4.68066c-33.9316 14.8916 -66.1846 29.0439 -98.5596 29.0439c-3.88281 0 -7.7627 -0.203125 -11.6494 -0.633789
c-10.1504 -1.12305 -17.6426 -3.76465 -22.9023 -8.0752c-5.4873 -4.49707 -8.88867 -11.9551 -8.27148 -18.1377c0.55957 -5.58887 4.22949 -11.7783 10.9111 -18.3916c21.6064 -21.4004 52.7871 -31.1309 85.5518 -26.7188z" />
    <glyph glyph-name="L" unicode="L" horiz-adv-x="361" 
d="M7.58691 -150.734c-25.7041 41.7861 -40.6963 90.7559 -43.3486 141.61c-1.24805 23.8994 1.26465 66.6924 32.0928 84.8096c25.0898 14.7363 52.71 3.4668 70.9902 -3.99121c31.6562 -12.918 59.585 -22.7061 85.5195 -29.916
c2.81445 93.584 -9.73047 188.392 -21.9434 280.666c-1.18652 8.9668 -2.37695 17.9707 -3.56055 27.0088c-0.0205078 0.138672 -0.0371094 0.28125 -0.0537109 0.419922c-8.59082 65.6855 -16.6689 133.033 -18.7139 199.953
c-1.25098 40.9346 0.367188 83.7109 20.4951 119.246c13.1182 23.1641 36.126 40.5381 60.0459 45.3506c18.6533 3.75781 36.8213 -0.285156 51.1572 -11.3721c27.9561 -21.624 34.417 -61.0596 35.7773 -82.6426c5.7793 -91.5996 -21.2305 -159.818 -44.9023 -200.919
c-20.3115 -35.2607 -46.6562 -64.7354 -68.5752 -77.8057c0.651367 -4.94141 1.30273 -9.87305 1.9541 -14.791c12.7041 -96.0156 25.7715 -194.737 21.9834 -293.272c1.01758 -0.209961 2.03809 -0.413086 3.05176 -0.616211
c24.7852 -4.90039 56.5801 -8.84082 82.6436 4.26367c39.0664 19.6504 59.8867 72.2246 77.8613 124.385c3.04883 8.85547 12.7041 13.5596 21.5557 10.5068c8.85547 -3.04883 13.5596 -12.7012 10.5068 -21.5566c-20.25 -58.7666 -44.2412 -118.263 -94.6855 -143.634
c-34.6914 -17.4492 -73.0586 -13.335 -102.947 -7.53223c-0.729492 -9.06543 -1.61816 -18.124 -2.67969 -27.1758c-5.3584 -45.707 -14.1797 -81.2227 -27.7588 -111.77c-17.3877 -39.124 -43.7256 -62.1553 -72.2578 -63.1865
c-0.695312 -0.0234375 -1.39746 -0.0371094 -2.09277 -0.0371094c-26.2734 -0.00292969 -51.1631 17.9307 -72.1152 51.998zM142.466 550.859c1.7334 -56.6367 7.94922 -114.083 15.0986 -170.618c32.7578 29.126 92.7051 110.05 84.6338 238.033
c-1.70215 26.999 -9.9668 48.1211 -22.6777 57.9492c-4.87988 3.77148 -10.5029 5.6709 -16.7734 5.6709c-2.23535 0 -4.55176 -0.241211 -6.94629 -0.722656c-14.3359 -2.88574 -28.9463 -14.1924 -37.2285 -28.8164
c-16.0176 -28.2744 -17.2051 -65.4922 -16.1064 -101.496zM13.5117 46.4404c-10.9004 -6.40625 -16.8047 -27.0225 -15.4072 -53.8018c2.32617 -44.5566 15.9531 -89.1641 38.3643 -125.605c14.3086 -23.2686 30.5234 -36.2676 44.0957 -35.833
c14.8613 0.536133 30.7471 16.6387 42.4951 43.0713c12.1484 27.335 20.1152 59.7266 25.0664 101.943c1.2041 10.2764 2.17383 20.583 2.93359 30.9062c-29.3018 7.73633 -60.7129 18.5479 -96.5508 33.1719c-11.2295 4.57812 -22.0518 8.59668 -30.8965 8.59668
c-3.76465 0 -7.16992 -0.729492 -10.1006 -2.44922z" />
    <glyph glyph-name="M" unicode="M" horiz-adv-x="517" 
d="M523.795 167.692c9.2793 -1.25098 15.7871 -9.78223 14.5488 -19.0615c-8.17383 -60.7031 -27.8574 -120.148 -56.9258 -171.916c-10.9307 -19.4707 -28.7285 -45.7676 -56.9248 -49.3154c-2.12598 -0.267578 -4.22168 -0.396484 -6.28027 -0.396484
c-30.5674 -0.00292969 -53.5479 28.4238 -64.3467 54.1309c-11.1953 26.6572 -15.3223 55.8574 -17.666 78.3193c-9.4082 90.1279 -0.0917969 180.818 9.0791 249.757c1.26172 9.48926 2.57715 19.0059 3.89648 28.543c10.1133 73.082 20.5693 148.646 6.21973 219.504
c-5.19531 25.6533 -12.874 34.1621 -18.3984 36.7803c-10.0352 4.75098 -24.9844 -6.34961 -34.6162 -18.6807c-18.1543 -23.2344 -29.5459 -53.8389 -38.2959 -80.7129c-39.209 -120.399 -53.5107 -250.577 -67.3408 -376.468
c-0.149414 -1.37012 -0.501953 -2.65918 -0.949219 -3.89746c0.183594 -2.44531 0.342773 -4.89746 0.542969 -7.33203c0.773438 -9.33301 -6.16504 -17.5264 -15.498 -18.2998c-9.33301 -0.776367 -17.5234 6.16602 -18.2998 15.499
c-3.3916 40.9277 -3.79199 82.5752 -4.18164 122.852c-0.610352 63.8135 -1.24805 129.798 -14.0645 191.99c-1.47168 7.13574 -3.17773 14.4951 -6.39648 19.1582c-0.858398 1.24121 -1.80762 2.06152 -2.49609 2.5127
c-0.685547 -0.708984 -2.01172 -2.25195 -3.99902 -5.40918c-12.2705 -19.4805 -18.8467 -43.4209 -25.0391 -68.29c-28.9189 -116.137 -46.7168 -235.835 -63.8779 -358.477c-0.172852 -1.23828 -0.508789 -2.40527 -0.925781 -3.53125
c0.678711 -2.96094 1.35742 -5.92188 2.08984 -8.86914c2.25488 -9.09277 -3.28711 -18.2871 -12.376 -20.542c-1.37305 -0.338867 -2.74707 -0.501953 -4.09668 -0.501953c-7.61035 0 -14.5322 5.1582 -16.4453 12.877c-16.3438 65.8994 -20.1045 133.756 -21.7324 197.268
c-3.33398 129.831 2.28613 261.402 7.71973 388.643c0.400391 9.35742 8.37012 16.5469 17.666 16.2178c9.35742 -0.400391 16.6182 -8.30957 16.2178 -17.667c-5.41309 -126.671 -11.0088 -257.655 -7.70215 -386.323c0.501953 -19.5723 1.21094 -39.5576 2.44238 -59.7236
c12.9551 84.3389 27.8027 167.283 48.1074 248.817c6.61035 26.5518 14.3154 54.46 29.2549 78.1729c4.67383 7.41699 11.4639 16.4014 22.6221 20.0811c14.3389 4.73145 30.6074 -1.69531 40.4795 -15.9971c6.83008 -9.89941 9.61816 -21.4912 11.6973 -31.5771
c6.69141 -32.4766 10.2188 -65.5059 12.1553 -98.5391c10.1543 60.2256 23.3203 119.942 42.1797 177.854c9.66211 29.6787 22.4277 63.709 43.8145 91.0918c22.6514 28.9902 51.7197 39.8936 75.8701 28.4473c18.4766 -8.75684 30.6143 -28.6104 37.1123 -60.6934
c15.4951 -76.5146 4.63867 -154.993 -5.86426 -230.887c-1.3125 -9.47559 -2.61816 -18.9346 -3.87305 -28.3633c-8.92285 -67.083 -18.0049 -155.187 -8.9668 -241.767c2.09961 -20.1387 5.72852 -46.1514 15.2012 -68.708
c7.46094 -17.7646 21.9326 -34.8711 35.1221 -33.2197c9.75391 1.22754 20.084 11.7812 31.5879 32.2686c26.9893 48.0674 45.2793 103.341 52.8867 159.839c1.25098 9.28223 9.81055 15.79 19.0654 14.542z" />
    <glyph glyph-name="N" unicode="N" horiz-adv-x="371" 
d="M269.086 -55.6113c-2.57031 0 -5.13281 0.198242 -7.70312 0.612305c-16.3164 2.59766 -31.4014 13.5312 -42.4844 30.7764c-15.0205 23.3809 -19.3857 52.1943 -22.2959 77.3623c-8.11914 70.1621 -9.80469 141.515 -5.00586 212.07
c1.93945 28.5625 4.96777 57.5596 7.89453 85.6035c8.16992 78.2412 16.6143 159.145 1.53906 235.364c-4.47363 22.6143 -10.6865 27.4473 -13.1484 28.4785c-5.49707 2.2793 -16.418 -6.4707 -24.8389 -19.9717c-16.8418 -27.0029 -27.4941 -59.2217 -36.1562 -87.2998
c-38.8086 -125.843 -60.3066 -286.696 -79.2754 -428.615c-3.83887 -28.7422 -7.4707 -55.8945 -11.1777 -82.3447c-0.00292969 -0.0410156 -0.0195312 -0.0751953 -0.0263672 -0.116211c-0.108398 -0.755859 -0.329102 -1.47168 -0.536133 -2.19434
c-0.101562 -0.359375 -0.15625 -0.742188 -0.28125 -1.0918c-0.250977 -0.698242 -0.603516 -1.34277 -0.942383 -1.99707c-0.166016 -0.325195 -0.288086 -0.677734 -0.474609 -0.986328c-0.532227 -0.884766 -1.15332 -1.70508 -1.83496 -2.47461
c-0.0341797 -0.0371094 -0.0576172 -0.0849609 -0.0917969 -0.12207c-2.08203 -2.3125 -4.80859 -4.02148 -7.90137 -4.91309c-0.12207 -0.0371094 -0.234375 -0.0986328 -0.359375 -0.132812c-0.59668 -0.15625 -1.22754 -0.210938 -1.84863 -0.302734
c-0.511719 -0.078125 -1.01074 -0.200195 -1.5332 -0.230469c-0.0478516 -0.00292969 -0.0917969 -0.0166016 -0.142578 -0.0195312c-0.27832 -0.0136719 -0.552734 -0.0205078 -0.827148 -0.0205078c-0.43457 0 -0.848633 0.0917969 -1.27637 0.125977
c-0.356445 0.0273438 -0.706055 -0.00976562 -1.06543 0.0410156c-0.152344 0.0234375 -0.288086 0.0810547 -0.44043 0.108398c-0.637695 0.105469 -1.24805 0.27832 -1.8623 0.455078c-0.460938 0.131836 -0.928711 0.240234 -1.36914 0.410156
c-0.556641 0.209961 -1.0752 0.484375 -1.60059 0.751953c-0.451172 0.227539 -0.90918 0.430664 -1.33301 0.695312c-0.474609 0.298828 -0.905273 0.658203 -1.34961 1.00098c-0.40332 0.3125 -0.824219 0.597656 -1.19727 0.943359
c-0.430664 0.400391 -0.796875 0.858398 -1.18652 1.29883c-0.311523 0.356445 -0.654297 0.688477 -0.935547 1.07129c-0.373047 0.501953 -0.665039 1.05469 -0.980469 1.59766c-0.223633 0.386719 -0.484375 0.75 -0.677734 1.15332
c-0.250977 0.529297 -0.420898 1.09863 -0.617188 1.65527c-0.169922 0.474609 -0.376953 0.932617 -0.505859 1.4248c-0.12207 0.474609 -0.15918 0.979492 -0.240234 1.47168c-0.101562 0.607422 -0.233398 1.20801 -0.267578 1.83203
c-0.00292969 0.0371094 -0.0166016 0.0742188 -0.0166016 0.111328c-9.44824 196.863 -14.0508 396.671 -13.6875 593.863c0.0166016 9.35742 7.60645 16.9268 16.957 16.9268h0.0292969c9.36719 -0.0166016 16.9434 -7.62012 16.9268 -16.9873
c-0.244141 -132.439 1.81445 -266.046 6.02637 -399.157c16.0586 112.369 35.7188 228.119 65.5264 324.766c9.28906 30.1191 20.793 64.7998 39.7881 95.252c18.667 29.9258 44.2178 42.6982 66.6797 33.3174c22.3057 -9.31641 29.7197 -34.8203 33.3516 -53.1953
c16.0723 -81.2354 7.35254 -164.727 -1.0752 -245.467c-2.89648 -27.7422 -5.8916 -56.4307 -7.79102 -84.3799c-4.65332 -68.501 -3.01855 -137.768 4.85938 -205.878c2.47559 -21.3896 6.04297 -45.6523 17.1396 -62.9287c5.62305 -8.75 12.833 -14.5869 19.29 -15.6182
c13.6406 -2.15039 28.4033 14.9531 34.1045 22.4209c31.5371 41.3008 45.3135 98.9727 57.4688 149.854c2.17773 9.11328 11.3311 14.7266 20.4336 12.5557c9.10938 -2.17773 14.7324 -11.3242 12.5547 -20.4336c-12.9385 -54.1582 -27.6035 -115.543 -63.502 -162.559
c-17.8828 -23.418 -38.4658 -35.9355 -58.7061 -35.9355z" />
    <glyph glyph-name="O" unicode="O" horiz-adv-x="356" 
d="M67.1602 -49.3096c-32.1816 24.6084 -57.1133 67.6016 -70.2012 121.067c-9.89941 40.4297 -13.5078 86.8896 -11.3643 146.216c0.803711 22.2783 2.2998 44.7402 3.74805 66.4629c1.66211 24.9609 3.38184 50.7666 4.02246 76.0537
c0.0986328 3.73438 1.39062 7.15625 3.51074 9.90625c-0.0576172 0.288086 -0.112305 0.580078 -0.169922 0.868164c-17.3672 89.4355 -4.2627 182.795 35.0479 249.735c28.3965 48.3555 68.5449 75.9551 107.485 73.8691c29.7666 -1.60742 59.71 -20.6572 82.1445 -52.2686
c17.1572 -24.167 30.5605 -55.5586 40.9756 -95.9678c27.8232 -107.953 21.4512 -225.464 12.7891 -315.778c-0.651367 -6.79004 -1.35352 -13.8711 -2.12988 -21.1963c9.24805 -1.18359 18.6387 -2.23535 28.2061 -3.16113
c21.0029 -2.02832 52.7432 -5.09766 71.2236 -34.2578c5.0127 -7.91211 2.66602 -18.3848 -5.24609 -23.4004c-7.91211 -5.00879 -18.3916 -2.66504 -23.4004 5.24707c-8.89258 14.0342 -25.3076 16.6689 -45.8398 18.6533
c-9.77734 0.946289 -19.3857 2.02148 -28.8516 3.22559c-4.76172 -37.3633 -11.5781 -78.5459 -22.1055 -118.494c-8.65137 -32.833 -23.7939 -79.625 -55.2598 -106.784c-17.5 -15.1025 -38.7676 -22.6582 -60.5986 -22.6582s-44.2246 7.55273 -63.9863 22.6621z
M60.9971 603.826c-34.7217 -59.1201 -46.5967 -145.759 -31.0029 -226.096c6.5625 -33.8057 16.7266 -61.1172 30.2139 -81.1807c26.5859 -39.5547 69.04 -55.5557 107.062 -65.9941c23.3633 -6.41309 47.2793 -11.6934 72.1689 -15.916
c0.702148 6.70801 1.34668 13.2061 1.94727 19.4502c8.39746 87.5537 14.6348 201.238 -11.8691 304.077c-9.36426 36.333 -21.0713 64.0713 -35.7871 84.8027c-16.415 23.123 -36.9404 36.9873 -56.3193 38.0322
c-0.800781 0.0439453 -1.61133 0.0644531 -2.41895 0.0644531c-25.3408 0 -52.8184 -21.1826 -73.9941 -57.2402zM19.4873 216.749c-2.02832 -56.1113 1.28418 -99.6221 10.417 -136.932c11.0938 -45.3096 32.1816 -82.5547 57.8613 -102.188
c26.833 -20.5146 58.9463 -21.0127 81.8252 -1.27148c24.334 21.0029 37.123 61.2803 44.625 89.752c10.1367 38.4688 16.7227 78.4336 21.3389 114.786c-26.6436 4.46289 -52.2324 10.083 -77.2578 16.9512c-44.0273 12.0869 -93.4541 31.0176 -126.229 79.7803
c-2.89648 4.30762 -5.65723 8.8623 -8.2793 13.665c-0.200195 -3.0459 -0.40332 -6.08789 -0.603516 -9.11328c-1.43164 -21.4678 -2.91016 -43.668 -3.69727 -65.4307z" />
    <glyph glyph-name="O" unicode="&#xd6;" horiz-adv-x="356" 
d="M67.1602 -49.3096c-32.1816 24.6084 -57.1133 67.6016 -70.2012 121.067c-9.89941 40.4297 -13.5078 86.8896 -11.3643 146.216c0.803711 22.2783 2.2998 44.7402 3.74805 66.4629c1.66211 24.9609 3.38184 50.7666 4.02246 76.0537
c0.0986328 3.73438 1.39062 7.15625 3.51074 9.90625c-0.0576172 0.288086 -0.112305 0.580078 -0.169922 0.868164c-17.3672 89.4355 -4.2627 182.795 35.0479 249.735c28.3965 48.3555 68.5449 75.9551 107.485 73.8691c29.7666 -1.60742 59.71 -20.6572 82.1445 -52.2686
c17.1572 -24.167 30.5605 -55.5586 40.9756 -95.9678c27.8232 -107.953 21.4512 -225.464 12.7891 -315.778c-0.651367 -6.79004 -1.35352 -13.8711 -2.12988 -21.1963c9.24805 -1.18359 18.6387 -2.23535 28.2061 -3.16113
c21.0029 -2.02832 52.7432 -5.09766 71.2236 -34.2578c5.0127 -7.91211 2.66602 -18.3848 -5.24609 -23.4004c-7.91211 -5.00879 -18.3916 -2.66504 -23.4004 5.24707c-8.89258 14.0342 -25.3076 16.6689 -45.8398 18.6533
c-9.77734 0.946289 -19.3857 2.02148 -28.8516 3.22559c-4.76172 -37.3633 -11.5781 -78.5459 -22.1055 -118.494c-8.65137 -32.833 -23.7939 -79.625 -55.2598 -106.784c-17.5 -15.1025 -38.7676 -22.6582 -60.5986 -22.6582s-44.2246 7.55273 -63.9863 22.6621z
M60.9971 603.826c-34.7217 -59.1201 -46.5967 -145.759 -31.0029 -226.096c6.5625 -33.8057 16.7266 -61.1172 30.2139 -81.1807c26.5859 -39.5547 69.04 -55.5557 107.062 -65.9941c23.3633 -6.41309 47.2793 -11.6934 72.1689 -15.916
c0.702148 6.70801 1.34668 13.2061 1.94727 19.4502c8.39746 87.5537 14.6348 201.238 -11.8691 304.077c-9.36426 36.333 -21.0713 64.0713 -35.7871 84.8027c-16.415 23.123 -36.9404 36.9873 -56.3193 38.0322
c-0.800781 0.0439453 -1.61133 0.0644531 -2.41895 0.0644531c-25.3408 0 -52.8184 -21.1826 -73.9941 -57.2402zM19.4873 216.749c-2.02832 -56.1113 1.28418 -99.6221 10.417 -136.932c11.0938 -45.3096 32.1816 -82.5547 57.8613 -102.188
c26.833 -20.5146 58.9463 -21.0127 81.8252 -1.27148c24.334 21.0029 37.123 61.2803 44.625 89.752c10.1367 38.4688 16.7227 78.4336 21.3389 114.786c-26.6436 4.46289 -52.2324 10.083 -77.2578 16.9512c-44.0273 12.0869 -93.4541 31.0176 -126.229 79.7803
c-2.89648 4.30762 -5.65723 8.8623 -8.2793 13.665c-0.200195 -3.0459 -0.40332 -6.08789 -0.603516 -9.11328c-1.43164 -21.4678 -2.91016 -43.668 -3.69727 -65.4307z" />
    <glyph glyph-name="O" unicode="&#xd5;" horiz-adv-x="356" 
d="M67.1602 -49.3096c-32.1816 24.6084 -57.1133 67.6016 -70.2012 121.067c-9.89941 40.4297 -13.5078 86.8896 -11.3643 146.216c0.803711 22.2783 2.2998 44.7402 3.74805 66.4629c1.66211 24.9609 3.38184 50.7666 4.02246 76.0537
c0.0986328 3.73438 1.39062 7.15625 3.51074 9.90625c-0.0576172 0.288086 -0.112305 0.580078 -0.169922 0.868164c-17.3672 89.4355 -4.2627 182.795 35.0479 249.735c28.3965 48.3555 68.5449 75.9551 107.485 73.8691c29.7666 -1.60742 59.71 -20.6572 82.1445 -52.2686
c17.1572 -24.167 30.5605 -55.5586 40.9756 -95.9678c27.8232 -107.953 21.4512 -225.464 12.7891 -315.778c-0.651367 -6.79004 -1.35352 -13.8711 -2.12988 -21.1963c9.24805 -1.18359 18.6387 -2.23535 28.2061 -3.16113
c21.0029 -2.02832 52.7432 -5.09766 71.2236 -34.2578c5.0127 -7.91211 2.66602 -18.3848 -5.24609 -23.4004c-7.91211 -5.00879 -18.3916 -2.66504 -23.4004 5.24707c-8.89258 14.0342 -25.3076 16.6689 -45.8398 18.6533
c-9.77734 0.946289 -19.3857 2.02148 -28.8516 3.22559c-4.76172 -37.3633 -11.5781 -78.5459 -22.1055 -118.494c-8.65137 -32.833 -23.7939 -79.625 -55.2598 -106.784c-17.5 -15.1025 -38.7676 -22.6582 -60.5986 -22.6582s-44.2246 7.55273 -63.9863 22.6621z
M60.9971 603.826c-34.7217 -59.1201 -46.5967 -145.759 -31.0029 -226.096c6.5625 -33.8057 16.7266 -61.1172 30.2139 -81.1807c26.5859 -39.5547 69.04 -55.5557 107.062 -65.9941c23.3633 -6.41309 47.2793 -11.6934 72.1689 -15.916
c0.702148 6.70801 1.34668 13.2061 1.94727 19.4502c8.39746 87.5537 14.6348 201.238 -11.8691 304.077c-9.36426 36.333 -21.0713 64.0713 -35.7871 84.8027c-16.415 23.123 -36.9404 36.9873 -56.3193 38.0322
c-0.800781 0.0439453 -1.61133 0.0644531 -2.41895 0.0644531c-25.3408 0 -52.8184 -21.1826 -73.9941 -57.2402zM19.4873 216.749c-2.02832 -56.1113 1.28418 -99.6221 10.417 -136.932c11.0938 -45.3096 32.1816 -82.5547 57.8613 -102.188
c26.833 -20.5146 58.9463 -21.0127 81.8252 -1.27148c24.334 21.0029 37.123 61.2803 44.625 89.752c10.1367 38.4688 16.7227 78.4336 21.3389 114.786c-26.6436 4.46289 -52.2324 10.083 -77.2578 16.9512c-44.0273 12.0869 -93.4541 31.0176 -126.229 79.7803
c-2.89648 4.30762 -5.65723 8.8623 -8.2793 13.665c-0.200195 -3.0459 -0.40332 -6.08789 -0.603516 -9.11328c-1.43164 -21.4678 -2.91016 -43.668 -3.69727 -65.4307z" />
    <glyph glyph-name="O" unicode="&#xd4;" horiz-adv-x="356" 
d="M67.1602 -49.3096c-32.1816 24.6084 -57.1133 67.6016 -70.2012 121.067c-9.89941 40.4297 -13.5078 86.8896 -11.3643 146.216c0.803711 22.2783 2.2998 44.7402 3.74805 66.4629c1.66211 24.9609 3.38184 50.7666 4.02246 76.0537
c0.0986328 3.73438 1.39062 7.15625 3.51074 9.90625c-0.0576172 0.288086 -0.112305 0.580078 -0.169922 0.868164c-17.3672 89.4355 -4.2627 182.795 35.0479 249.735c28.3965 48.3555 68.5449 75.9551 107.485 73.8691c29.7666 -1.60742 59.71 -20.6572 82.1445 -52.2686
c17.1572 -24.167 30.5605 -55.5586 40.9756 -95.9678c27.8232 -107.953 21.4512 -225.464 12.7891 -315.778c-0.651367 -6.79004 -1.35352 -13.8711 -2.12988 -21.1963c9.24805 -1.18359 18.6387 -2.23535 28.2061 -3.16113
c21.0029 -2.02832 52.7432 -5.09766 71.2236 -34.2578c5.0127 -7.91211 2.66602 -18.3848 -5.24609 -23.4004c-7.91211 -5.00879 -18.3916 -2.66504 -23.4004 5.24707c-8.89258 14.0342 -25.3076 16.6689 -45.8398 18.6533
c-9.77734 0.946289 -19.3857 2.02148 -28.8516 3.22559c-4.76172 -37.3633 -11.5781 -78.5459 -22.1055 -118.494c-8.65137 -32.833 -23.7939 -79.625 -55.2598 -106.784c-17.5 -15.1025 -38.7676 -22.6582 -60.5986 -22.6582s-44.2246 7.55273 -63.9863 22.6621z
M60.9971 603.826c-34.7217 -59.1201 -46.5967 -145.759 -31.0029 -226.096c6.5625 -33.8057 16.7266 -61.1172 30.2139 -81.1807c26.5859 -39.5547 69.04 -55.5557 107.062 -65.9941c23.3633 -6.41309 47.2793 -11.6934 72.1689 -15.916
c0.702148 6.70801 1.34668 13.2061 1.94727 19.4502c8.39746 87.5537 14.6348 201.238 -11.8691 304.077c-9.36426 36.333 -21.0713 64.0713 -35.7871 84.8027c-16.415 23.123 -36.9404 36.9873 -56.3193 38.0322
c-0.800781 0.0439453 -1.61133 0.0644531 -2.41895 0.0644531c-25.3408 0 -52.8184 -21.1826 -73.9941 -57.2402zM19.4873 216.749c-2.02832 -56.1113 1.28418 -99.6221 10.417 -136.932c11.0938 -45.3096 32.1816 -82.5547 57.8613 -102.188
c26.833 -20.5146 58.9463 -21.0127 81.8252 -1.27148c24.334 21.0029 37.123 61.2803 44.625 89.752c10.1367 38.4688 16.7227 78.4336 21.3389 114.786c-26.6436 4.46289 -52.2324 10.083 -77.2578 16.9512c-44.0273 12.0869 -93.4541 31.0176 -126.229 79.7803
c-2.89648 4.30762 -5.65723 8.8623 -8.2793 13.665c-0.200195 -3.0459 -0.40332 -6.08789 -0.603516 -9.11328c-1.43164 -21.4678 -2.91016 -43.668 -3.69727 -65.4307z" />
    <glyph glyph-name="O" unicode="&#xd3;" horiz-adv-x="356" 
d="M67.1602 -49.3096c-32.1816 24.6084 -57.1133 67.6016 -70.2012 121.067c-9.89941 40.4297 -13.5078 86.8896 -11.3643 146.216c0.803711 22.2783 2.2998 44.7402 3.74805 66.4629c1.66211 24.9609 3.38184 50.7666 4.02246 76.0537
c0.0986328 3.73438 1.39062 7.15625 3.51074 9.90625c-0.0576172 0.288086 -0.112305 0.580078 -0.169922 0.868164c-17.3672 89.4355 -4.2627 182.795 35.0479 249.735c28.3965 48.3555 68.5449 75.9551 107.485 73.8691c29.7666 -1.60742 59.71 -20.6572 82.1445 -52.2686
c17.1572 -24.167 30.5605 -55.5586 40.9756 -95.9678c27.8232 -107.953 21.4512 -225.464 12.7891 -315.778c-0.651367 -6.79004 -1.35352 -13.8711 -2.12988 -21.1963c9.24805 -1.18359 18.6387 -2.23535 28.2061 -3.16113
c21.0029 -2.02832 52.7432 -5.09766 71.2236 -34.2578c5.0127 -7.91211 2.66602 -18.3848 -5.24609 -23.4004c-7.91211 -5.00879 -18.3916 -2.66504 -23.4004 5.24707c-8.89258 14.0342 -25.3076 16.6689 -45.8398 18.6533
c-9.77734 0.946289 -19.3857 2.02148 -28.8516 3.22559c-4.76172 -37.3633 -11.5781 -78.5459 -22.1055 -118.494c-8.65137 -32.833 -23.7939 -79.625 -55.2598 -106.784c-17.5 -15.1025 -38.7676 -22.6582 -60.5986 -22.6582s-44.2246 7.55273 -63.9863 22.6621z
M60.9971 603.826c-34.7217 -59.1201 -46.5967 -145.759 -31.0029 -226.096c6.5625 -33.8057 16.7266 -61.1172 30.2139 -81.1807c26.5859 -39.5547 69.04 -55.5557 107.062 -65.9941c23.3633 -6.41309 47.2793 -11.6934 72.1689 -15.916
c0.702148 6.70801 1.34668 13.2061 1.94727 19.4502c8.39746 87.5537 14.6348 201.238 -11.8691 304.077c-9.36426 36.333 -21.0713 64.0713 -35.7871 84.8027c-16.415 23.123 -36.9404 36.9873 -56.3193 38.0322
c-0.800781 0.0439453 -1.61133 0.0644531 -2.41895 0.0644531c-25.3408 0 -52.8184 -21.1826 -73.9941 -57.2402zM19.4873 216.749c-2.02832 -56.1113 1.28418 -99.6221 10.417 -136.932c11.0938 -45.3096 32.1816 -82.5547 57.8613 -102.188
c26.833 -20.5146 58.9463 -21.0127 81.8252 -1.27148c24.334 21.0029 37.123 61.2803 44.625 89.752c10.1367 38.4688 16.7227 78.4336 21.3389 114.786c-26.6436 4.46289 -52.2324 10.083 -77.2578 16.9512c-44.0273 12.0869 -93.4541 31.0176 -126.229 79.7803
c-2.89648 4.30762 -5.65723 8.8623 -8.2793 13.665c-0.200195 -3.0459 -0.40332 -6.08789 -0.603516 -9.11328c-1.43164 -21.4678 -2.91016 -43.668 -3.69727 -65.4307z" />
    <glyph glyph-name="P" unicode="P" horiz-adv-x="343" 
d="M349.573 168.14c-44.2012 -3.75391 -87.7939 3.54004 -130.071 11.1875c-9.11328 -20.3389 -21.5195 -40.5518 -38.8359 -56.3086c-31.5742 -28.7285 -84.8408 -38.6182 -119.346 -5.42969c-0.15918 0.15625 -0.318359 0.308594 -0.477539 0.464844
c-0.193359 -15.8145 -0.332031 -31.5537 -0.474609 -47.1582c-0.379883 -42.5322 -0.776367 -86.5088 -2.16309 -129.824c0.959961 -5.11133 1.91602 -10.2256 2.91309 -15.333c1.79785 -9.19043 -4.20117 -18.0967 -13.3916 -19.8906
c-1.0957 -0.216797 -2.19141 -0.318359 -3.2666 -0.318359c-7.94922 0 -15.0439 5.61621 -16.624 13.7119c-46.0801 235.994 -53.1992 476.835 -21.1602 715.834c1.24512 9.28613 9.79492 15.8008 19.0605 14.5557c9.28613 -1.24512 15.8008 -9.77832 14.5557 -19.0605
c-20.6035 -153.69 -24.748 -308.15 -12.5186 -461.546c0.708984 32.124 1.83203 64.3799 3.76855 96.3887c7.84766 129.683 27.8877 230.968 63.0703 318.756c6.38574 15.9258 25.8086 64.3926 65.9121 70.7178c37.333 5.89453 68.1035 -27.9932 82.0459 -64.1768
c15.0781 -39.1201 17.8252 -82.5508 18.5439 -123.655c1.60059 -91.1729 -6.10156 -167.918 -23.5537 -234.617c-1.68848 -6.46387 -3.6416 -13.4873 -5.95117 -20.833c39.4326 -7.05762 77.1045 -12.8945 115.096 -9.67285
c9.37012 0.780273 17.54 -6.13184 18.3301 -15.4619c0.790039 -9.33301 -6.13184 -17.54 -15.4619 -18.3301zM157.842 148.102c10.3164 9.38379 19.2432 21.6543 27.0771 37.3877c-19.1445 3.24609 -38.4658 6.05078 -57.4307 7.33301
c-4.22559 0.288086 -8.21777 0.467773 -11.9922 0.467773c-9.37695 0 -17.4248 -1.1123 -24.4961 -4.45312c-7.89844 -3.73438 -16.5264 -12.7861 -16.8115 -23.8418c-0.200195 -7.77344 3.77832 -16.3604 10.6426 -22.9639
c20.1895 -19.416 52.9775 -12.1621 73.0107 6.07031zM204.752 241.021c16.6592 63.6611 24.0049 137.401 22.4512 225.437c-0.667969 37.9873 -3.09961 77.8574 -16.2822 112.057c-8.50586 22.0752 -25.3408 43.1094 -42.0713 43.1094
c-1.01367 0 -2.03125 -0.078125 -3.04492 -0.237305c-13.9834 -2.20801 -27.3457 -18.9717 -39.7139 -49.834c-33.7891 -84.3115 -53.0762 -182.243 -60.7002 -308.191c-1.05469 -17.415 -1.8623 -34.9492 -2.49609 -52.5098
c4.10059 3.3877 8.66504 6.31152 13.6133 8.64844c17.5137 8.27539 35.9561 8.33301 53.2695 7.15918c22.9258 -1.55371 45.7539 -5.08105 68.124 -8.99512c2.39746 7.27832 4.67969 15.0547 6.85059 23.3574z" />
    <glyph glyph-name="Q" unicode="Q" horiz-adv-x="408" 
d="M191.059 -198.727c-7.33203 -9.24219 -18.2305 -14.7598 -29.168 -14.7598h-0.0410156c-15.3564 0.0205078 -30.0684 8.83496 -42.542 25.4902c-19.1045 25.5068 -29.6895 61.7441 -30.6123 104.795c-0.193359 9.05176 0.0136719 18.0693 0.444336 27.0293
c-3.54102 1.91309 -7.04395 3.9375 -10.4561 6.19922c-36.9697 24.5029 -65.668 67.5303 -80.8105 121.152c-11.4805 40.6504 -15.665 87.3232 -13.1826 146.888c0.932617 22.3086 2.65527 44.7871 4.32715 66.5264c1.91309 24.9375 3.89355 50.7227 4.63281 75.958
c0.115234 3.93066 1.55664 7.50879 3.88672 10.3174c-20.125 89.9482 -4.94141 183.797 40.6191 251.056c32.3203 47.708 77.5557 74.9922 120.895 72.9502c33.1416 -1.5498 66.7441 -20.2637 92.1904 -51.3467c19.8398 -24.2285 35.3457 -55.7285 47.4053 -96.2969
c32.2021 -108.299 24.8389 -226.098 14.8271 -316.622c-0.736328 -6.63672 -1.53027 -13.5518 -2.39844 -20.7012c11.3408 -1.27539 22.875 -2.4043 34.626 -3.3916c23.5059 -1.9707 59.0312 -4.94824 79.79 -33.3486c5.52441 -7.55957 3.87598 -18.1719 -3.68359 -23.6963
s-18.1719 -3.87598 -23.6963 3.68359c-10.7539 14.7119 -31.3809 17.5645 -55.2432 19.5654c-12.3105 1.03125 -24.3975 2.21777 -36.2773 3.56445c-5.51074 -37.6211 -13.4092 -79.1426 -25.6553 -119.423c-10.0117 -32.9346 -27.5049 -79.8516 -63.6748 -106.915
c-19.4326 -14.5391 -43.0508 -21.8066 -67.3096 -21.8066c-9.0791 0 -18.2461 1.02441 -27.3184 3.05957c-0.0947266 -4.55469 -0.125 -9.10938 -0.0263672 -13.6709c0.532227 -25.0527 5.10742 -60.1709 23.8486 -85.1934
c5.49414 -7.33594 11.4092 -11.9004 15.4385 -11.9033c0.423828 0.0576172 1.83105 0.800781 2.82812 2.23242c0.525391 0.755859 0.810547 1.55273 0.711914 1.97656c-2.14355 9.11621 3.50977 18.2461 12.626 20.3896c9.12598 2.13281 18.2451 -3.51074 20.3887 -12.627
c2.5127 -10.6934 -0.179688 -22.0381 -7.38965 -31.1309zM66.2344 602.903c-39.8262 -58.791 -53.46 -144.89 -35.5908 -224.704c7.52539 -33.5928 19.1924 -60.748 34.6777 -80.7236c31.0078 -39.9951 80.625 -56.1992 125.073 -66.7773
c28.1455 -6.69434 56.9697 -12.1611 87.0352 -16.4854c0.844727 6.94531 1.61816 13.6709 2.33008 20.125c9.66211 87.3506 16.8418 200.757 -13.624 303.229c-10.7539 36.166 -24.208 63.7959 -41.1377 84.4736c-19.3652 23.6553 -43.9805 37.8516 -67.5303 38.9541
c-1.00391 0.0478516 -2.01465 0.0712891 -3.02148 0.0712891c-30.6348 0 -63.3896 -21.5186 -88.2119 -58.1631zM30.5127 80.3994c12.1553 -43.041 33.8594 -77.6416 61.4824 -98.2783c0.0917969 1.05176 0.186523 2.11328 0.28125 3.16504
c1.02441 11.3477 2.0791 23.0791 2.75781 34.5078c0.990234 16.6895 -2.39746 22.167 -3.10254 22.5537c-8.21777 4.49414 -11.2363 14.7979 -6.74219 23.0156c4.49414 8.2207 14.7979 11.2324 23.0156 6.74219c15.3633 -8.40039 22.3223 -26.6768 20.6846 -54.3135
c-0.705078 -11.9482 -1.78711 -23.9434 -2.83203 -35.5459c-0.501953 -5.5791 -0.99707 -11.083 -1.45117 -16.5293c25.4834 -7.36328 52.2588 -3.63281 72.333 11.3877c21.4609 16.0586 37.8379 44.5361 51.5459 89.6221c11.5918 38.1299 19.1514 77.7627 24.459 113.868
c-31.2051 4.47656 -61.1416 10.1504 -90.3994 17.1133c-50.1973 11.9443 -106.566 30.6719 -144.025 78.9932c-5.18555 6.6875 -9.99805 13.9824 -14.4307 21.8535c-0.414062 -5.55176 -0.837891 -11.0732 -1.25879 -16.5537
c-1.64453 -21.4512 -3.35059 -43.6279 -4.25586 -65.3467c-2.33008 -55.8672 1.46191 -99.1621 11.9385 -136.255z" />
    <glyph glyph-name="R" unicode="R" horiz-adv-x="392" 
d="M399.74 150.979c8.34668 -4.24609 11.6729 -14.4512 7.41992 -22.7979c-7.86133 -15.4482 -14.96 -32.0625 -21.8213 -48.1309c-8.64844 -20.2471 -17.5918 -41.1855 -28.4717 -60.9443c-24.7783 -44.998 -56.0947 -74.3174 -90.5684 -84.79
c-8.93945 -2.7168 -17.7061 -4.07715 -26.208 -4.07715c-5.43652 0 -10.7646 0.556641 -15.9639 1.66895c-13.5967 2.91699 -27.21 9.96094 -40.4639 20.9424c-30.8555 25.5713 -49.709 62.6738 -67.9385 98.5518c-1.92676 3.79199 -3.84961 7.57715 -5.7832 11.335
c-11.8428 23.0479 -24.8828 45.8115 -40.8154 63.1553c-6.11816 -58.377 -10.3574 -117.021 -12.6699 -175.521c1.50586 -8.21387 3.04883 -16.4209 4.64941 -24.625c1.79785 -9.19043 -4.20117 -18.0967 -13.3916 -19.8906
c-1.0957 -0.216797 -2.19141 -0.318359 -3.2666 -0.318359c-7.94922 0 -15.0439 5.61621 -16.624 13.7119c-1.07129 5.49414 -2.10254 10.9951 -3.13379 16.4961c-1.62109 2.71289 -2.52637 5.89746 -2.40137 9.29199c0.0371094 1.01074 0.0917969 2.02441 0.128906 3.03809
c-41.1621 226.759 -46.4902 457.727 -15.7539 687.002c1.24512 9.28613 9.80469 15.8008 19.0596 14.5557c9.28613 -1.24512 15.8008 -9.77832 14.5557 -19.0605c-19.4971 -145.445 -24.2451 -291.583 -14.335 -436.855c5.93848 1.81738 11.8398 3.79102 17.7002 5.92383
c4.10742 31.374 8.75391 62.6328 13.9297 93.6914c18.582 111.48 40.8467 198.417 70.0713 273.596c11.1338 28.6475 26.9893 65.5664 51.001 97.0693c22.9131 30.0723 48.0166 47.002 74.6162 50.3184c50.1357 6.26367 93.1494 -40.0361 105.725 -88.4082
c10.4014 -40.002 6.64062 -86.5801 -11.5107 -142.4c-45.6357 -140.396 -149.255 -255.63 -272.721 -308.024c-0.332031 -2.68945 -0.626953 -5.38574 -0.952148 -8.0752c28.7598 -21.6104 48.8672 -55.2334 66.3096 -89.1748
c1.95703 -3.80566 3.90332 -7.6377 5.85352 -11.4766c16.6689 -32.7988 33.9014 -66.7129 59.3438 -87.8008c9.00391 -7.46094 17.7305 -12.1348 25.9307 -13.8916c7.63379 -1.6377 16.1162 -1.06836 25.2021 1.69531c32.6465 9.91699 56.4785 42.8311 70.7227 68.6973
c10.0654 18.2764 18.2861 37.5264 26.9883 57.9053c7.08105 16.5811 14.4062 33.7314 22.7832 50.1934c4.24902 8.34668 14.457 11.6699 22.8037 7.42383zM91.0322 287.762c-4.02246 -24.127 -7.71777 -48.3799 -11.0859 -72.707
c106.458 51.8418 194.924 154.786 235.282 278.94c16.0889 49.4746 19.6631 89.833 10.9404 123.381c-8.24121 31.6895 -34.4434 63.5996 -63.7383 63.5996c-1.64844 0 -3.30371 -0.101562 -4.96875 -0.308594c-21.4443 -2.67285 -40.0264 -21.7197 -51.8389 -37.2217
c-21.4375 -28.1318 -36.0381 -62.2324 -46.3652 -88.8008c-28.3594 -72.9531 -50.0371 -157.756 -68.2256 -266.883zM28.5898 159.15c1.39746 -16.5811 2.9873 -33.1484 4.77148 -49.6982c1.31934 13.5352 2.76367 27.0537 4.2832 40.5615
c-3.7002 2.24902 -6.27441 5.69434 -7.4375 9.62207c-0.539062 -0.15918 -1.07812 -0.329102 -1.61719 -0.485352z" />
    <glyph glyph-name="S" unicode="S" horiz-adv-x="346" 
d="M319.059 134.714c-21.0234 -8.00684 -42.5811 -13.5254 -63.4287 -18.8535c-7.06055 -1.80762 -14.0059 -3.58496 -20.8535 -5.42969c13.4541 -18.2598 26.6396 -39.6123 35.6953 -63.6035c15.1494 -40.1348 16.2109 -82.6904 2.89941 -116.761
c-10.917 -27.9385 -32.8525 -50.7295 -60.1914 -62.5283c-13.2197 -5.7041 -26.9414 -8.56641 -40.4258 -8.56641c-11.8496 0 -23.5127 2.20801 -34.4912 6.64062c-49.9492 20.1592 -81.127 84.1113 -69.4873 142.56c10.0557 50.5391 48.1826 93.3594 104.603 117.476
c1.24512 0.529297 2.49023 1.05176 3.73828 1.56348c-17.4355 19.6094 -35.9258 38.6045 -53.8975 57.0674c-36.9941 37.998 -75.2393 77.2881 -106.318 123.741c-20.9355 31.2959 -33.4844 58.7969 -39.4834 86.5527c-8.26465 38.2217 -4.9541 81.5547 10.1143 132.478
c15.6172 52.7607 37 91.1016 65.3662 117.219c35.9287 33.0771 86.3936 46.4297 131.689 34.834c38.7334 -9.91016 71.2334 -37.1943 86.9326 -72.9873c14.9531 -34.0947 15.4316 -76.5654 1.2998 -116.521c-11.2598 -31.8525 -31.707 -62.3926 -60.7646 -90.7725
c-6.69824 -6.5459 -17.4326 -6.4209 -23.9785 0.280273s-6.41699 17.4355 0.28418 23.9814c25.3105 24.7168 42.9697 50.8984 52.4863 77.8125c11.124 31.4521 10.9814 65.6885 -0.382812 91.5889c-11.541 26.3174 -35.5693 46.4121 -64.2783 53.7549
c-34.2871 8.77344 -72.7363 -1.54297 -100.312 -26.9277c-23.7295 -21.8477 -41.9893 -55.1787 -55.8193 -101.896c-13.4131 -45.3232 -16.5166 -83.165 -9.48926 -115.683c5.07031 -23.4414 16.042 -47.2324 34.5254 -74.8594
c29.3525 -43.875 66.5029 -82.0391 102.429 -118.944c21.4199 -22 43.5596 -44.7461 64.1895 -68.7676c11.9043 3.50977 23.8086 6.55566 35.5156 9.55078c20.8438 5.33105 40.5381 10.3711 59.7578 17.6934c11.1543 4.24902 22.3193 9.48926 28.4072 18.9688
c5.05957 7.87793 15.5498 10.167 23.4316 5.10352c7.87793 -5.05957 10.1641 -15.5498 5.10449 -23.4316c-11.4189 -17.7812 -29.0889 -26.3242 -44.8662 -32.334zM238.747 34.8447c-9.34668 24.7607 -23.7666 46.3145 -38.4824 64.9502
c-4.56152 -1.65527 -9.0752 -3.42188 -13.5557 -5.33789c-21.749 -9.2998 -73.54 -36.9639 -84.6709 -92.9131c-8.46484 -42.5254 13.9395 -90.3721 48.9189 -104.49c15.0068 -6.05371 32.3301 -5.48438 48.7891 1.61719c19.0771 8.23438 34.3994 24.1709 42.04 43.7324
c10.2998 26.3584 9.19043 60.0527 -3.03906 92.4414z" />
    <glyph glyph-name="T" unicode="T" horiz-adv-x="423" 
d="M227.854 644.462c-0.685547 -67.917 -3.26758 -136.862 -5.77344 -203.562c-5.20215 -138.894 -10.584 -282.515 1.0625 -422.588c3.95801 -47.5654 12.04 -100.16 41.9834 -129.588c10.0215 -9.84863 21.2197 -15.1152 30.6787 -14.5488
c15.9062 1.01074 29.6758 17.4834 36.4688 27.2139c14.1289 20.2402 23.6689 44.3701 33.6436 74.3779c22.1797 66.7197 38.8252 136.204 49.4707 206.522c1.40039 9.25879 10.0762 15.6113 19.3008 14.2275c9.25879 -1.40039 15.6309 -10.0449 14.2266 -19.3037
c-10.9307 -72.2207 -28.0273 -143.594 -50.8145 -212.142c-9.43848 -28.3936 -20.5791 -58.1133 -38.0215 -83.0947c-18.0156 -25.8057 -39.4971 -40.2061 -62.1211 -41.6436c-1.21777 -0.078125 -2.44238 -0.115234 -3.66309 -0.115234
c-18.2227 0 -36.8857 8.54004 -52.9404 24.3203c-37.7568 37.1094 -47.3076 94.4893 -52.0049 150.967c-11.8193 142.112 -6.39941 286.771 -1.15625 426.669c2.48926 66.5059 5.06348 135.254 5.73828 202.751c-49.0068 1.50195 -97.165 6.31445 -143.529 11.8633
c-11.8467 1.41797 -22.7363 2.72363 -32.293 0.621094c-8.69531 -1.90918 -15.7119 -7.07422 -18.7676 -13.8164c-3.0459 -6.71484 -1.05859 -15.4717 1.80762 -17.415c7.74609 -5.25977 9.76367 -15.8037 4.50391 -23.5527
c-3.2793 -4.8291 -8.61426 -7.43359 -14.0469 -7.43359c-3.2793 0 -6.59277 0.949219 -9.50977 2.92969c-19.1855 13.0264 -22.0205 41.0195 -13.6436 59.4824c7.45117 16.4316 23.2959 28.7422 42.3828 32.9336c15.1738 3.33008 30.1133 1.53906 43.2891 -0.0380859
c86.3428 -10.3301 178.502 -18.168 269.519 -5.92188c28.6885 3.86328 61.4092 10.375 87.5127 29.2686c-1.20703 1.71973 -2.11621 3.69043 -2.62793 5.86133c-2.16016 9.11328 3.47949 18.2529 12.5928 20.4102c7.20312 1.70215 14.749 -0.482422 20.2061 -5.84082
c6.33887 -6.21973 9.19141 -15.9297 7.27832 -24.7373c-2.58789 -11.9111 -11.7852 -18.8467 -15.248 -21.458c-32.6396 -24.6182 -71.4883 -32.5742 -105.186 -37.1084c-33.541 -4.51758 -67.0723 -6.39258 -100.318 -6.51172z" />
    <glyph glyph-name="U" unicode="U" horiz-adv-x="487" 
d="M497.292 191.768c9.2959 -1.13281 15.9141 -9.58984 14.7812 -18.8955c-6.52832 -53.5371 -13.9287 -114.221 -40.2363 -165.733c-6.99609 -13.7012 -18.5342 -33.0186 -37.8584 -42.5488c-8.08203 -3.98535 -17.127 -5.98633 -26.6191 -5.98633
c-8.34668 0 -17.0322 1.54688 -25.7178 4.64648c-23.5303 8.40039 -44.1299 26.9111 -56.5088 50.7832c-9.76758 18.8398 -14.1729 40.1621 -17.5371 58.6689c-14.6953 80.8828 -19.708 162.576 -19.3623 244.194c-9.07227 -50.875 -17.9512 -99.1426 -26.0156 -140.6
c-9.47949 -48.7178 -19.2842 -99.0977 -36.9023 -146.571c-14.8887 -40.1211 -42.6104 -89.7891 -90.1182 -98.5625c-4.50684 -0.831055 -9.05859 -1.23828 -13.6201 -1.23828c-32.6123 0 -65.6689 20.8438 -87.0859 55.9727
c-20.2676 33.2432 -28.1328 73.0889 -33.6104 111.195c-27.1924 189.301 -9.02441 381.593 8.54688 567.556c0.87793 9.32324 9.10254 16.1738 18.4766 15.2891c9.32324 -0.881836 16.167 -9.15332 15.2852 -18.4766c-17.3809 -183.989 -35.3594 -374.239 -8.73633 -559.541
c4.96191 -34.5283 11.9111 -70.3418 28.9971 -98.3623c13.9521 -22.8857 39.666 -43.835 65.5869 -39.0391c33.5381 6.19629 54.7988 50.9092 64.4844 77.0127c16.6553 44.8721 26.1855 93.8652 35.4033 141.247c24.1943 124.351 55.7344 310.229 77.9316 444.263
c0.0615234 0.363281 0.200195 0.688477 0.28125 1.04102c0.128906 0.556641 0.260742 1.10938 0.444336 1.6416c0.193359 0.55957 0.423828 1.0918 0.667969 1.62109c0.213867 0.458008 0.420898 0.90918 0.671875 1.33984
c0.318359 0.5625 0.681641 1.08496 1.06152 1.60059c0.253906 0.342773 0.504883 0.685547 0.783203 1.00781c0.451172 0.525391 0.939453 1.00391 1.44824 1.46875c0.285156 0.257812 0.563477 0.515625 0.865234 0.75293
c0.552734 0.44043 1.13281 0.827148 1.73633 1.19336c0.325195 0.200195 0.647461 0.400391 0.990234 0.577148c0.610352 0.318359 1.2373 0.579102 1.88477 0.820312c0.396484 0.145508 0.783203 0.291016 1.19043 0.410156
c0.624023 0.179688 1.25781 0.304688 1.90527 0.413086c0.47168 0.078125 0.939453 0.152344 1.4209 0.193359c0.603516 0.0507812 1.21387 0.0439453 1.83105 0.0273438c0.345703 -0.00976562 0.681641 0.0449219 1.03125 0.0146484
c0.220703 -0.0205078 0.420898 -0.0947266 0.641602 -0.12207c0.216797 -0.0273438 0.426758 -0.00390625 0.643555 -0.0410156c0.349609 -0.0615234 0.665039 -0.197266 1.00781 -0.275391c0.580078 -0.131836 1.14941 -0.270508 1.70605 -0.459961
c0.515625 -0.176758 1.00781 -0.390625 1.5 -0.614258c0.518555 -0.234375 1.02344 -0.475586 1.50879 -0.756836c0.47168 -0.274414 0.916016 -0.580078 1.35645 -0.898438c0.444336 -0.322266 0.878906 -0.644531 1.28906 -1.00391
c0.410156 -0.356445 0.783203 -0.739258 1.15625 -1.13574s0.732422 -0.796875 1.06836 -1.22754c0.325195 -0.423828 0.617188 -0.864258 0.905273 -1.31836c0.294922 -0.467773 0.576172 -0.932617 0.827148 -1.42773
c0.244141 -0.478516 0.444336 -0.970703 0.640625 -1.47266c0.200195 -0.511719 0.389648 -1.02344 0.539062 -1.55957s0.254883 -1.0791 0.353516 -1.63184c0.0947266 -0.536133 0.182617 -1.06836 0.223633 -1.62109
c0.0478516 -0.580078 0.0410156 -1.16309 0.0244141 -1.75293c-0.00976562 -0.352539 0.0449219 -0.695312 0.0146484 -1.05176c-15.7598 -179.384 -32.0625 -364.879 0.488281 -544.022c3.05273 -16.8145 6.67188 -34.457 14.2725 -49.1182
c8.47852 -16.3467 22.2549 -28.9014 37.8018 -34.4531c5.70117 -2.03516 16.6523 -4.76855 25.9346 -0.183594c7.72266 3.80566 15.1299 12.8164 22.6553 27.5557c23.5742 46.1641 30.5908 103.673 36.7803 154.416c1.12891 9.29297 9.53613 15.9033 18.8828 14.7803z" />
    <glyph glyph-name="U" unicode="&#xdc;" horiz-adv-x="487" 
d="M497.292 191.768c9.2959 -1.13281 15.9141 -9.58984 14.7812 -18.8955c-6.52832 -53.5371 -13.9287 -114.221 -40.2363 -165.733c-6.99609 -13.7012 -18.5342 -33.0186 -37.8584 -42.5488c-8.08203 -3.98535 -17.127 -5.98633 -26.6191 -5.98633
c-8.34668 0 -17.0322 1.54688 -25.7178 4.64648c-23.5303 8.40039 -44.1299 26.9111 -56.5088 50.7832c-9.76758 18.8398 -14.1729 40.1621 -17.5371 58.6689c-14.6953 80.8828 -19.708 162.576 -19.3623 244.194c-9.07227 -50.875 -17.9512 -99.1426 -26.0156 -140.6
c-9.47949 -48.7178 -19.2842 -99.0977 -36.9023 -146.571c-14.8887 -40.1211 -42.6104 -89.7891 -90.1182 -98.5625c-4.50684 -0.831055 -9.05859 -1.23828 -13.6201 -1.23828c-32.6123 0 -65.6689 20.8438 -87.0859 55.9727
c-20.2676 33.2432 -28.1328 73.0889 -33.6104 111.195c-27.1924 189.301 -9.02441 381.593 8.54688 567.556c0.87793 9.32324 9.10254 16.1738 18.4766 15.2891c9.32324 -0.881836 16.167 -9.15332 15.2852 -18.4766c-17.3809 -183.989 -35.3594 -374.239 -8.73633 -559.541
c4.96191 -34.5283 11.9111 -70.3418 28.9971 -98.3623c13.9521 -22.8857 39.666 -43.835 65.5869 -39.0391c33.5381 6.19629 54.7988 50.9092 64.4844 77.0127c16.6553 44.8721 26.1855 93.8652 35.4033 141.247c24.1943 124.351 55.7344 310.229 77.9316 444.263
c0.0615234 0.363281 0.200195 0.688477 0.28125 1.04102c0.128906 0.556641 0.260742 1.10938 0.444336 1.6416c0.193359 0.55957 0.423828 1.0918 0.667969 1.62109c0.213867 0.458008 0.420898 0.90918 0.671875 1.33984
c0.318359 0.5625 0.681641 1.08496 1.06152 1.60059c0.253906 0.342773 0.504883 0.685547 0.783203 1.00781c0.451172 0.525391 0.939453 1.00391 1.44824 1.46875c0.285156 0.257812 0.563477 0.515625 0.865234 0.75293
c0.552734 0.44043 1.13281 0.827148 1.73633 1.19336c0.325195 0.200195 0.647461 0.400391 0.990234 0.577148c0.610352 0.318359 1.2373 0.579102 1.88477 0.820312c0.396484 0.145508 0.783203 0.291016 1.19043 0.410156
c0.624023 0.179688 1.25781 0.304688 1.90527 0.413086c0.47168 0.078125 0.939453 0.152344 1.4209 0.193359c0.603516 0.0507812 1.21387 0.0439453 1.83105 0.0273438c0.345703 -0.00976562 0.681641 0.0449219 1.03125 0.0146484
c0.220703 -0.0205078 0.420898 -0.0947266 0.641602 -0.12207c0.216797 -0.0273438 0.426758 -0.00390625 0.643555 -0.0410156c0.349609 -0.0615234 0.665039 -0.197266 1.00781 -0.275391c0.580078 -0.131836 1.14941 -0.270508 1.70605 -0.459961
c0.515625 -0.176758 1.00781 -0.390625 1.5 -0.614258c0.518555 -0.234375 1.02344 -0.475586 1.50879 -0.756836c0.47168 -0.274414 0.916016 -0.580078 1.35645 -0.898438c0.444336 -0.322266 0.878906 -0.644531 1.28906 -1.00391
c0.410156 -0.356445 0.783203 -0.739258 1.15625 -1.13574s0.732422 -0.796875 1.06836 -1.22754c0.325195 -0.423828 0.617188 -0.864258 0.905273 -1.31836c0.294922 -0.467773 0.576172 -0.932617 0.827148 -1.42773
c0.244141 -0.478516 0.444336 -0.970703 0.640625 -1.47266c0.200195 -0.511719 0.389648 -1.02344 0.539062 -1.55957s0.254883 -1.0791 0.353516 -1.63184c0.0947266 -0.536133 0.182617 -1.06836 0.223633 -1.62109
c0.0478516 -0.580078 0.0410156 -1.16309 0.0244141 -1.75293c-0.00976562 -0.352539 0.0449219 -0.695312 0.0146484 -1.05176c-15.7598 -179.384 -32.0625 -364.879 0.488281 -544.022c3.05273 -16.8145 6.67188 -34.457 14.2725 -49.1182
c8.47852 -16.3467 22.2549 -28.9014 37.8018 -34.4531c5.70117 -2.03516 16.6523 -4.76855 25.9346 -0.183594c7.72266 3.80566 15.1299 12.8164 22.6553 27.5557c23.5742 46.1641 30.5908 103.673 36.7803 154.416c1.12891 9.29297 9.53613 15.9033 18.8828 14.7803z" />
    <glyph glyph-name="U" unicode="&#xdb;" horiz-adv-x="487" 
d="M497.292 191.768c9.2959 -1.13281 15.9141 -9.58984 14.7812 -18.8955c-6.52832 -53.5371 -13.9287 -114.221 -40.2363 -165.733c-6.99609 -13.7012 -18.5342 -33.0186 -37.8584 -42.5488c-8.08203 -3.98535 -17.127 -5.98633 -26.6191 -5.98633
c-8.34668 0 -17.0322 1.54688 -25.7178 4.64648c-23.5303 8.40039 -44.1299 26.9111 -56.5088 50.7832c-9.76758 18.8398 -14.1729 40.1621 -17.5371 58.6689c-14.6953 80.8828 -19.708 162.576 -19.3623 244.194c-9.07227 -50.875 -17.9512 -99.1426 -26.0156 -140.6
c-9.47949 -48.7178 -19.2842 -99.0977 -36.9023 -146.571c-14.8887 -40.1211 -42.6104 -89.7891 -90.1182 -98.5625c-4.50684 -0.831055 -9.05859 -1.23828 -13.6201 -1.23828c-32.6123 0 -65.6689 20.8438 -87.0859 55.9727
c-20.2676 33.2432 -28.1328 73.0889 -33.6104 111.195c-27.1924 189.301 -9.02441 381.593 8.54688 567.556c0.87793 9.32324 9.10254 16.1738 18.4766 15.2891c9.32324 -0.881836 16.167 -9.15332 15.2852 -18.4766c-17.3809 -183.989 -35.3594 -374.239 -8.73633 -559.541
c4.96191 -34.5283 11.9111 -70.3418 28.9971 -98.3623c13.9521 -22.8857 39.666 -43.835 65.5869 -39.0391c33.5381 6.19629 54.7988 50.9092 64.4844 77.0127c16.6553 44.8721 26.1855 93.8652 35.4033 141.247c24.1943 124.351 55.7344 310.229 77.9316 444.263
c0.0615234 0.363281 0.200195 0.688477 0.28125 1.04102c0.128906 0.556641 0.260742 1.10938 0.444336 1.6416c0.193359 0.55957 0.423828 1.0918 0.667969 1.62109c0.213867 0.458008 0.420898 0.90918 0.671875 1.33984
c0.318359 0.5625 0.681641 1.08496 1.06152 1.60059c0.253906 0.342773 0.504883 0.685547 0.783203 1.00781c0.451172 0.525391 0.939453 1.00391 1.44824 1.46875c0.285156 0.257812 0.563477 0.515625 0.865234 0.75293
c0.552734 0.44043 1.13281 0.827148 1.73633 1.19336c0.325195 0.200195 0.647461 0.400391 0.990234 0.577148c0.610352 0.318359 1.2373 0.579102 1.88477 0.820312c0.396484 0.145508 0.783203 0.291016 1.19043 0.410156
c0.624023 0.179688 1.25781 0.304688 1.90527 0.413086c0.47168 0.078125 0.939453 0.152344 1.4209 0.193359c0.603516 0.0507812 1.21387 0.0439453 1.83105 0.0273438c0.345703 -0.00976562 0.681641 0.0449219 1.03125 0.0146484
c0.220703 -0.0205078 0.420898 -0.0947266 0.641602 -0.12207c0.216797 -0.0273438 0.426758 -0.00390625 0.643555 -0.0410156c0.349609 -0.0615234 0.665039 -0.197266 1.00781 -0.275391c0.580078 -0.131836 1.14941 -0.270508 1.70605 -0.459961
c0.515625 -0.176758 1.00781 -0.390625 1.5 -0.614258c0.518555 -0.234375 1.02344 -0.475586 1.50879 -0.756836c0.47168 -0.274414 0.916016 -0.580078 1.35645 -0.898438c0.444336 -0.322266 0.878906 -0.644531 1.28906 -1.00391
c0.410156 -0.356445 0.783203 -0.739258 1.15625 -1.13574s0.732422 -0.796875 1.06836 -1.22754c0.325195 -0.423828 0.617188 -0.864258 0.905273 -1.31836c0.294922 -0.467773 0.576172 -0.932617 0.827148 -1.42773
c0.244141 -0.478516 0.444336 -0.970703 0.640625 -1.47266c0.200195 -0.511719 0.389648 -1.02344 0.539062 -1.55957s0.254883 -1.0791 0.353516 -1.63184c0.0947266 -0.536133 0.182617 -1.06836 0.223633 -1.62109
c0.0478516 -0.580078 0.0410156 -1.16309 0.0244141 -1.75293c-0.00976562 -0.352539 0.0449219 -0.695312 0.0146484 -1.05176c-15.7598 -179.384 -32.0625 -364.879 0.488281 -544.022c3.05273 -16.8145 6.67188 -34.457 14.2725 -49.1182
c8.47852 -16.3467 22.2549 -28.9014 37.8018 -34.4531c5.70117 -2.03516 16.6523 -4.76855 25.9346 -0.183594c7.72266 3.80566 15.1299 12.8164 22.6553 27.5557c23.5742 46.1641 30.5908 103.673 36.7803 154.416c1.12891 9.29297 9.53613 15.9033 18.8828 14.7803z" />
    <glyph glyph-name="U" unicode="&#xda;" horiz-adv-x="487" 
d="M497.292 191.768c9.2959 -1.13281 15.9141 -9.58984 14.7812 -18.8955c-6.52832 -53.5371 -13.9287 -114.221 -40.2363 -165.733c-6.99609 -13.7012 -18.5342 -33.0186 -37.8584 -42.5488c-8.08203 -3.98535 -17.127 -5.98633 -26.6191 -5.98633
c-8.34668 0 -17.0322 1.54688 -25.7178 4.64648c-23.5303 8.40039 -44.1299 26.9111 -56.5088 50.7832c-9.76758 18.8398 -14.1729 40.1621 -17.5371 58.6689c-14.6953 80.8828 -19.708 162.576 -19.3623 244.194c-9.07227 -50.875 -17.9512 -99.1426 -26.0156 -140.6
c-9.47949 -48.7178 -19.2842 -99.0977 -36.9023 -146.571c-14.8887 -40.1211 -42.6104 -89.7891 -90.1182 -98.5625c-4.50684 -0.831055 -9.05859 -1.23828 -13.6201 -1.23828c-32.6123 0 -65.6689 20.8438 -87.0859 55.9727
c-20.2676 33.2432 -28.1328 73.0889 -33.6104 111.195c-27.1924 189.301 -9.02441 381.593 8.54688 567.556c0.87793 9.32324 9.10254 16.1738 18.4766 15.2891c9.32324 -0.881836 16.167 -9.15332 15.2852 -18.4766c-17.3809 -183.989 -35.3594 -374.239 -8.73633 -559.541
c4.96191 -34.5283 11.9111 -70.3418 28.9971 -98.3623c13.9521 -22.8857 39.666 -43.835 65.5869 -39.0391c33.5381 6.19629 54.7988 50.9092 64.4844 77.0127c16.6553 44.8721 26.1855 93.8652 35.4033 141.247c24.1943 124.351 55.7344 310.229 77.9316 444.263
c0.0615234 0.363281 0.200195 0.688477 0.28125 1.04102c0.128906 0.556641 0.260742 1.10938 0.444336 1.6416c0.193359 0.55957 0.423828 1.0918 0.667969 1.62109c0.213867 0.458008 0.420898 0.90918 0.671875 1.33984
c0.318359 0.5625 0.681641 1.08496 1.06152 1.60059c0.253906 0.342773 0.504883 0.685547 0.783203 1.00781c0.451172 0.525391 0.939453 1.00391 1.44824 1.46875c0.285156 0.257812 0.563477 0.515625 0.865234 0.75293
c0.552734 0.44043 1.13281 0.827148 1.73633 1.19336c0.325195 0.200195 0.647461 0.400391 0.990234 0.577148c0.610352 0.318359 1.2373 0.579102 1.88477 0.820312c0.396484 0.145508 0.783203 0.291016 1.19043 0.410156
c0.624023 0.179688 1.25781 0.304688 1.90527 0.413086c0.47168 0.078125 0.939453 0.152344 1.4209 0.193359c0.603516 0.0507812 1.21387 0.0439453 1.83105 0.0273438c0.345703 -0.00976562 0.681641 0.0449219 1.03125 0.0146484
c0.220703 -0.0205078 0.420898 -0.0947266 0.641602 -0.12207c0.216797 -0.0273438 0.426758 -0.00390625 0.643555 -0.0410156c0.349609 -0.0615234 0.665039 -0.197266 1.00781 -0.275391c0.580078 -0.131836 1.14941 -0.270508 1.70605 -0.459961
c0.515625 -0.176758 1.00781 -0.390625 1.5 -0.614258c0.518555 -0.234375 1.02344 -0.475586 1.50879 -0.756836c0.47168 -0.274414 0.916016 -0.580078 1.35645 -0.898438c0.444336 -0.322266 0.878906 -0.644531 1.28906 -1.00391
c0.410156 -0.356445 0.783203 -0.739258 1.15625 -1.13574s0.732422 -0.796875 1.06836 -1.22754c0.325195 -0.423828 0.617188 -0.864258 0.905273 -1.31836c0.294922 -0.467773 0.576172 -0.932617 0.827148 -1.42773
c0.244141 -0.478516 0.444336 -0.970703 0.640625 -1.47266c0.200195 -0.511719 0.389648 -1.02344 0.539062 -1.55957s0.254883 -1.0791 0.353516 -1.63184c0.0947266 -0.536133 0.182617 -1.06836 0.223633 -1.62109
c0.0478516 -0.580078 0.0410156 -1.16309 0.0244141 -1.75293c-0.00976562 -0.352539 0.0449219 -0.695312 0.0146484 -1.05176c-15.7598 -179.384 -32.0625 -364.879 0.488281 -544.022c3.05273 -16.8145 6.67188 -34.457 14.2725 -49.1182
c8.47852 -16.3467 22.2549 -28.9014 37.8018 -34.4531c5.70117 -2.03516 16.6523 -4.76855 25.9346 -0.183594c7.72266 3.80566 15.1299 12.8164 22.6553 27.5557c23.5742 46.1641 30.5908 103.673 36.7803 154.416c1.12891 9.29297 9.53613 15.9033 18.8828 14.7803z" />
    <glyph glyph-name="V" unicode="V" horiz-adv-x="444" 
d="M72.6406 -7.86328c-31.7744 49.3555 -46.875 109.188 -56.4766 155.81c-29.6035 143.747 -33.0557 290.438 -34.168 440.594c-0.0673828 9.36426 7.46484 17.0117 16.832 17.083h0.128906c9.30566 0 16.8818 -7.50879 16.9531 -16.832
c1.09863 -148.403 4.48633 -293.266 33.4727 -434.001c9.00781 -43.7295 23.0283 -99.6475 51.7705 -144.289c12.9922 -20.1787 34.7656 -46.6523 64.7051 -58.1699c8.03125 -3.08984 19.5146 -5.94531 28.6211 -1.97363c9.67578 4.21875 17.7852 16.1904 23.7744 26.1514
c16.8213 27.9961 29.3018 59.3467 40.2832 89.0557c15.5361 42.0371 29.4072 84.7461 41.915 126.732c-25.6328 12.5928 -47.0264 29.2891 -63.8652 49.8789c-29.8486 36.502 -46.874 88.0996 -47.9355 145.283c-0.831055 44.7803 7.83105 93.5361 26.4844 149.044
c27.8271 82.8359 64.7773 137.482 112.96 167.053c24.8936 15.2822 48.4844 17.2285 66.4219 5.4707c16.5537 -10.8525 25.8535 -31.1572 28.4277 -62.0771c2.97754 -35.7021 -0.667969 -71.0039 -4.1748 -97.7725c-8.97754 -68.4834 -25.1484 -136.397 -39.6064 -194.68
c-11.0088 -44.4004 -23.374 -92.6201 -37.5977 -142.376c1.57715 -0.522461 3.16113 -1.02734 4.76562 -1.51953c32.6533 -10.0146 67.7646 -13.0938 101.72 -16.0713c9.33008 -0.817383 16.2314 -9.04492 15.4111 -18.375
c-0.813477 -9.33008 -9.06445 -16.2285 -18.3701 -15.4111c-35.7119 3.13379 -72.6309 6.36914 -108.702 17.4316c-1.45508 0.447266 -2.90625 0.905273 -4.34375 1.37305c-12.4531 -41.6299 -26.2529 -83.9717 -41.6973 -125.744
c-11.5547 -31.2588 -24.7607 -64.376 -43.0234 -94.7666c-8.58398 -14.2852 -20.8066 -31.71 -39.2803 -39.7715c-7.38281 -3.21875 -15.3154 -4.82617 -23.7461 -4.82617c-9.58398 -0.00292969 -19.8125 2.07617 -30.6172 6.23438
c-30.4619 11.7178 -58.4854 36.4316 -81.042 71.4619zM262.845 263.637c12.542 -15.3398 28.3584 -28.1055 47.2559 -38.1816c13.6133 47.8877 25.5068 94.3271 36.1426 137.198c14.2305 57.3838 30.1465 124.192 38.8896 190.923
c3.29004 25.0898 6.71875 58.0547 4.0127 90.5479c-1.58008 19.0059 -6.27734 31.9785 -13.2227 36.5303c-2.21484 1.45508 -4.82617 2.03809 -7.58984 2.03809c-8.27832 0 -17.9268 -5.24316 -22.4951 -8.04785c-40.5547 -24.8896 -73.7129 -75.002 -98.5557 -148.949
c-17.3916 -51.7666 -25.4805 -96.7783 -24.7207 -137.615c0.922852 -49.6104 15.2275 -93.8047 40.2832 -124.443z" />
    <glyph glyph-name="W" unicode="W" horiz-adv-x="635" 
d="M649.431 163.73c-18.3584 -14.2373 -42.6592 -20.6729 -72.3789 -19.0684c-15.7871 0.844727 -31.5068 3.68652 -46.8936 8.36035c-7.54297 -27.335 -16.0967 -54.8867 -25.9219 -82.168c-14.5498 -40.3955 -35.9229 -91.5557 -72.3398 -128.902
c-24.5537 -25.1816 -51.96 -38.6055 -78.2842 -38.6055c-3.74707 0 -7.46777 0.271484 -11.1611 0.821289c-35.8613 5.32812 -66.9707 35.8135 -89.9717 88.1602c-16.2285 36.9297 -26.9521 76.0098 -34.1865 115.795
c-2.53027 -15.6748 -5.29785 -30.9502 -8.28906 -45.6221c-4.66016 -22.8486 -9.89648 -44.8926 -22.6348 -63.4912c-15.4346 -22.543 -40.7891 -35.915 -66.2109 -35.915c-4.83984 0 -9.67285 0.485352 -14.4482 1.48242
c-34.6064 7.22363 -63.7393 38.3672 -84.251 90.0596c-29.8447 75.2393 -35.7861 158.57 -37.6611 214.702c-3.23535 96.8467 3.31055 203.331 20.6074 335.119c1.21777 9.28613 9.74023 15.8252 19.0156 14.6074c9.28906 -1.21777 15.8242 -9.7334 14.6064 -19.0195
c-17.042 -129.906 -23.5098 -234.631 -20.335 -329.578c1.78711 -53.6055 7.39355 -133.003 35.292 -203.328c9.19434 -23.1738 29.1738 -63.0029 59.6562 -69.3652c16.6279 -3.47656 35.0127 4.72363 45.75 20.3984c9.15723 13.3691 13.4473 31.8018 17.3818 51.1025
c15.502 76.0264 24.9268 168.786 25.2188 248.133c0.00292969 0.508789 0.108398 0.990234 0.15625 1.48828c0.0507812 0.55957 0.0673828 1.12891 0.172852 1.6748c0.108398 0.55957 0.294922 1.08203 0.458008 1.62109c0.15918 0.525391 0.28418 1.06152 0.491211 1.56348
c0.209961 0.515625 0.491211 0.987305 0.751953 1.47559c0.253906 0.474609 0.477539 0.966797 0.772461 1.41406c0.301758 0.454102 0.661133 0.854492 1.00391 1.27832c0.338867 0.423828 0.654297 0.861328 1.03418 1.25098
c0.373047 0.379883 0.796875 0.698242 1.2041 1.04395c0.420898 0.359375 0.821289 0.736328 1.2793 1.05176c0.43457 0.301758 0.916016 0.536133 1.38086 0.796875c0.488281 0.274414 0.956055 0.573242 1.47168 0.796875
c0.501953 0.220703 1.03809 0.359375 1.56348 0.529297c0.529297 0.172852 1.04102 0.373047 1.59375 0.495117c0.556641 0.12207 1.13965 0.152344 1.71289 0.216797c0.495117 0.0546875 0.969727 0.173828 1.47852 0.1875
c0.142578 0.00292969 0.285156 0.00292969 0.430664 0.00292969h0.0644531c0.335938 0 0.647461 -0.0810547 0.976562 -0.101562c0.803711 -0.0478516 1.61133 -0.0888672 2.38477 -0.248047c0.427734 -0.0878906 0.817383 -0.257812 1.23438 -0.376953
c0.647461 -0.186523 1.30176 -0.345703 1.91602 -0.603516c0.4375 -0.183594 0.827148 -0.444336 1.24414 -0.661133c0.542969 -0.285156 1.10254 -0.539062 1.61133 -0.881836c0.396484 -0.267578 0.742188 -0.599609 1.11523 -0.898438
c0.467773 -0.373047 0.956055 -0.725586 1.37988 -1.14648c0.338867 -0.338867 0.620117 -0.732422 0.932617 -1.09863c0.386719 -0.454102 0.790039 -0.884766 1.12891 -1.37988c0.27832 -0.407227 0.485352 -0.858398 0.729492 -1.28906
c0.291992 -0.511719 0.603516 -1.00684 0.837891 -1.55273c0.207031 -0.478516 0.332031 -0.987305 0.495117 -1.48633c0.179688 -0.549805 0.386719 -1.08594 0.508789 -1.65918c0.115234 -0.532227 0.142578 -1.0918 0.207031 -1.64453
c0.0576172 -0.501953 0.172852 -0.983398 0.186523 -1.49512c2.59473 -101.238 5.53125 -215.988 47.6289 -311.804c10.3164 -23.4795 32.3369 -63.5664 63.9082 -68.2568c18.3311 -2.72656 40.2363 7.4541 60.1816 27.915c31.8691 32.6836 51.3262 79.5469 64.7158 116.721
c9.91699 27.5381 18.5146 55.4365 26.0742 83.1377c-39.0117 18.8867 -74.3984 49.7188 -101.245 89.4873c-40.4092 59.8525 -61.3408 137.733 -58.9365 219.298c2.15332 73.001 22.9258 148.424 60.0762 218.118c11.5518 21.665 26.3281 46.1611 48.3691 63.5488
c25.1816 19.8633 56.4004 25.5166 81.4629 14.7695c30.4209 -13.0508 46.5068 -45.7207 54.6396 -70.8271c14.6982 -45.3877 15.2549 -94.9336 14.0947 -133.029c-2.66602 -87.5098 -16.1436 -171.648 -28.9736 -242.414
c-7.7832 -42.9258 -16.9941 -90.0869 -29.1221 -138.608c13.1787 -4.09668 26.6191 -6.57617 40.0938 -7.29883c21.5732 -1.15625 37.8721 2.77148 49.7764 12.0029c7.40039 5.73828 18.0596 4.38867 23.7949 -3.00781c5.73828 -7.40332 4.3916 -18.0557 -3.00879 -23.7939z
M507.107 199.036c11.3105 45.917 20.0195 90.6211 27.4199 131.454c12.6094 69.5352 25.8467 152.117 28.4443 237.398c1.14258 37.5498 0.555664 81.3535 -12.4609 121.542c-4.88379 15.082 -16.0283 41.6504 -35.7432 50.1084
c-4.40234 1.88574 -8.97363 2.70312 -13.5488 2.70312c-12.3682 0 -24.7236 -5.97559 -33.541 -12.9316c-17.123 -13.5078 -29.5488 -34.3076 -39.4453 -52.876c-34.7012 -65.1055 -54.1035 -135.359 -56.1016 -203.165
c-2.19434 -74.5205 16.6758 -145.307 53.1406 -199.319c22.085 -32.7109 50.5596 -58.4248 81.8359 -74.9141z" />
    <glyph glyph-name="X" unicode="X" horiz-adv-x="417" 
d="M443.029 173.22c-5.43652 -54.3105 -20.2939 -108.497 -42.9727 -156.713c-25.002 -53.1543 -57.4648 -83.2363 -93.8691 -86.9941c-2.58789 -0.264648 -5.20605 -0.400391 -7.85449 -0.400391c-14.3047 0 -29.5557 3.90332 -46.3564 11.8428
c-42.0137 19.8574 -79.7773 56.96 -109.208 107.303c-24.5234 41.9453 -40.4971 87.8389 -51.8789 126.559c-18.4121 -27.5352 -35.9629 -55.7451 -51.6416 -84.8672c-19.2334 -35.7354 -40.501 -82.7783 -34.1963 -129.739
c1.24805 -9.28223 -5.2666 -17.8154 -14.5459 -19.0635c-0.769531 -0.101562 -1.52539 -0.152344 -2.27832 -0.152344c-8.36328 0 -15.6416 6.18555 -16.7842 14.7012c-7.61035 56.624 16.2793 110.083 37.9443 150.329c20.9521 38.9307 44.9023 75.9482 69.748 111.786
c-18.8701 73.3262 -32.3818 148.803 -45.4355 222.052c-9.21094 51.6758 -18.7373 105.115 -30.0273 156.957c-1.99121 9.15039 3.80859 18.1855 12.959 20.1768c9.15039 1.99707 18.1855 -3.80957 20.1797 -12.96c11.4258 -52.4727 21.0098 -106.234 30.2754 -158.226
c11.2627 -63.1992 22.8818 -128.067 37.9297 -191.386c8.39355 11.6865 16.8076 23.2715 25.168 34.7754c58.2344 80.1436 118.453 163.017 154.612 258.788c4.05273 10.7305 8.38672 23.1602 8.50195 34.9219c0.0986328 9.76367 -3.2959 18.9883 -8.25391 22.4375
c-7.69141 5.34863 -9.58691 15.916 -4.23828 23.6045c5.34473 7.68457 15.9023 9.58691 23.6045 4.23828c14.2783 -9.92969 23.0186 -29.3291 22.8047 -50.6172c-0.169922 -17.3096 -5.60645 -33.1104 -10.6865 -46.5645
c-37.7705 -100.034 -99.3486 -184.783 -158.902 -266.741c-13.8672 -19.084 -27.8877 -38.3945 -41.6875 -58.001c0.729492 -2.70312 1.4043 -5.43652 2.14746 -8.13281c16.4414 -59.5605 33.0869 -102.045 53.9609 -137.754
c25.9648 -44.4141 58.6143 -76.833 94.4209 -93.7559c14.1562 -6.68457 25.999 -9.41504 36.2441 -8.37012c31.8389 3.2832 55.4297 43.8213 66.6592 67.6934c21.0537 44.7637 34.8564 95.127 39.9062 145.646c0.939453 9.31934 9.21094 16.1191 18.5645 15.1865
c9.31934 -0.932617 16.1162 -9.24121 15.1865 -18.5605z" />
    <glyph glyph-name="Y" unicode="Y" horiz-adv-x="453" 
d="M451.755 218.561c6.76953 6.47461 17.499 6.2207 23.9629 -0.548828c5.17578 -5.41309 7.69922 -12.6475 7.1123 -20.3633c-0.946289 -12.4062 -9.66895 -23.2656 -16.8516 -28.7969c-33.8125 -26.0195 -73.1367 -33.2266 -114.102 -31.249
c1.25098 -35.291 1.37012 -70.6396 -0.0546875 -105.935c-2.03125 -50.4102 -7.55957 -115.889 -32.4492 -175.273c-26.2256 -62.582 -70.3691 -107.108 -121.108 -122.163c-13.0537 -3.87305 -26.6299 -5.7793 -40.3623 -5.7793
c-30.1836 0 -61.1064 9.21484 -88.8447 27.0029c-53.042 34.0166 -90.585 96.3721 -100.427 166.799c-9.36426 67.0215 6.4707 138.015 43.4404 194.771c18.6426 28.624 40.2803 50.1602 64.3057 64.0078c62.2705 35.8887 134.458 18.5957 198.146 3.34473
l0.607422 -0.145508c13.6611 -3.26953 27.3965 -6.25098 41.0098 -8.51953c-4.82227 83.1006 -15.1387 166.072 -25.2725 247.314c-4.62598 -21.8311 -10.3135 -44.2617 -17.1611 -67.4316c-11.4287 -38.6895 -25.9541 -78.3965 -54.5879 -106.732
c-19.8398 -19.6328 -44.9062 -29.8135 -68.7178 -29.8135c-17.4492 0 -34.2197 5.4668 -47.7617 16.6924c-11.9307 9.88965 -21.7324 24.0898 -29.9766 43.4111c-13.752 32.2354 -18.8594 67.5576 -21.7695 94.7295c-9.75 91.0234 -3.71973 181.419 4.25391 265.551
c0.884766 9.32324 9.22461 16.1807 18.4795 15.2822c9.32324 -0.881836 16.167 -9.15723 15.2822 -18.4805c-7.80371 -82.3613 -13.7217 -170.709 -4.29395 -258.741c2.65918 -24.8291 7.25098 -56.9287 19.2402 -85.0371
c6.07422 -14.2373 12.7559 -24.249 20.4277 -30.6084c21.1221 -17.5029 52.334 -7.33496 70.9834 11.1211c23.1875 22.9434 35.7695 57.8887 45.917 92.2344c23.418 79.2549 33.165 149.346 29.8037 214.285c-0.12207 2.38379 0.264648 4.67676 1.04785 6.7793
c-0.145508 1.48926 -0.31543 2.98535 -0.458008 4.4707c-0.888672 9.32324 5.94824 17.6016 15.2715 18.4902c9.34375 0.895508 17.6016 -5.94824 18.4902 -15.2715c5.25 -55.04 12.2363 -111.047 18.9922 -165.208c10.5137 -84.2705 21.2578 -170.417 26.0088 -257.031
c35.1729 -2.05176 68.1279 3.36426 94.958 24.0146c1.13281 0.87207 2.18457 2.12305 2.89648 3.19434c-3.11328 6.44727 -1.89258 14.4209 3.56055 19.6338zM317.94 33.042c1.44824 35.9121 1.25 71.9678 -0.129883 108.05
c-16.8418 2.53711 -33.7852 6.13574 -50.5762 10.1582l-0.607422 0.142578c-35.0332 8.39062 -70.7617 16.9473 -104.463 16.9473c-24.3506 0 -47.6396 -4.4668 -68.8496 -16.6895c-19.3516 -11.1543 -37.126 -29.0303 -52.8252 -53.1338
c-32.0898 -49.2607 -46.3916 -113.399 -38.2656 -171.566c8.36035 -59.8525 40.9863 -114.624 85.1465 -142.942c32.0459 -20.5518 68.9482 -26.8428 101.255 -17.2588c40.335 11.9688 77.5254 50.3867 99.4746 102.761c22.7969 54.3887 27.9248 115.964 29.8408 163.532z
" />
    <glyph glyph-name="Y" unicode="&#x178;" horiz-adv-x="453" 
d="M451.755 218.561c6.76953 6.47461 17.499 6.2207 23.9629 -0.548828c5.17578 -5.41309 7.69922 -12.6475 7.1123 -20.3633c-0.946289 -12.4062 -9.66895 -23.2656 -16.8516 -28.7969c-33.8125 -26.0195 -73.1367 -33.2266 -114.102 -31.249
c1.25098 -35.291 1.37012 -70.6396 -0.0546875 -105.935c-2.03125 -50.4102 -7.55957 -115.889 -32.4492 -175.273c-26.2256 -62.582 -70.3691 -107.108 -121.108 -122.163c-13.0537 -3.87305 -26.6299 -5.7793 -40.3623 -5.7793
c-30.1836 0 -61.1064 9.21484 -88.8447 27.0029c-53.042 34.0166 -90.585 96.3721 -100.427 166.799c-9.36426 67.0215 6.4707 138.015 43.4404 194.771c18.6426 28.624 40.2803 50.1602 64.3057 64.0078c62.2705 35.8887 134.458 18.5957 198.146 3.34473
l0.607422 -0.145508c13.6611 -3.26953 27.3965 -6.25098 41.0098 -8.51953c-4.82227 83.1006 -15.1387 166.072 -25.2725 247.314c-4.62598 -21.8311 -10.3135 -44.2617 -17.1611 -67.4316c-11.4287 -38.6895 -25.9541 -78.3965 -54.5879 -106.732
c-19.8398 -19.6328 -44.9062 -29.8135 -68.7178 -29.8135c-17.4492 0 -34.2197 5.4668 -47.7617 16.6924c-11.9307 9.88965 -21.7324 24.0898 -29.9766 43.4111c-13.752 32.2354 -18.8594 67.5576 -21.7695 94.7295c-9.75 91.0234 -3.71973 181.419 4.25391 265.551
c0.884766 9.32324 9.22461 16.1807 18.4795 15.2822c9.32324 -0.881836 16.167 -9.15723 15.2822 -18.4805c-7.80371 -82.3613 -13.7217 -170.709 -4.29395 -258.741c2.65918 -24.8291 7.25098 -56.9287 19.2402 -85.0371
c6.07422 -14.2373 12.7559 -24.249 20.4277 -30.6084c21.1221 -17.5029 52.334 -7.33496 70.9834 11.1211c23.1875 22.9434 35.7695 57.8887 45.917 92.2344c23.418 79.2549 33.165 149.346 29.8037 214.285c-0.12207 2.38379 0.264648 4.67676 1.04785 6.7793
c-0.145508 1.48926 -0.31543 2.98535 -0.458008 4.4707c-0.888672 9.32324 5.94824 17.6016 15.2715 18.4902c9.34375 0.895508 17.6016 -5.94824 18.4902 -15.2715c5.25 -55.04 12.2363 -111.047 18.9922 -165.208c10.5137 -84.2705 21.2578 -170.417 26.0088 -257.031
c35.1729 -2.05176 68.1279 3.36426 94.958 24.0146c1.13281 0.87207 2.18457 2.12305 2.89648 3.19434c-3.11328 6.44727 -1.89258 14.4209 3.56055 19.6338zM317.94 33.042c1.44824 35.9121 1.25 71.9678 -0.129883 108.05
c-16.8418 2.53711 -33.7852 6.13574 -50.5762 10.1582l-0.607422 0.142578c-35.0332 8.39062 -70.7617 16.9473 -104.463 16.9473c-24.3506 0 -47.6396 -4.4668 -68.8496 -16.6895c-19.3516 -11.1543 -37.126 -29.0303 -52.8252 -53.1338
c-32.0898 -49.2607 -46.3916 -113.399 -38.2656 -171.566c8.36035 -59.8525 40.9863 -114.624 85.1465 -142.942c32.0459 -20.5518 68.9482 -26.8428 101.255 -17.2588c40.335 11.9688 77.5254 50.3867 99.4746 102.761c22.7969 54.3887 27.9248 115.964 29.8408 163.532z
" />
    <glyph glyph-name="Y" unicode="&#xdd;" horiz-adv-x="453" 
d="M451.755 218.561c6.76953 6.47461 17.499 6.2207 23.9629 -0.548828c5.17578 -5.41309 7.69922 -12.6475 7.1123 -20.3633c-0.946289 -12.4062 -9.66895 -23.2656 -16.8516 -28.7969c-33.8125 -26.0195 -73.1367 -33.2266 -114.102 -31.249
c1.25098 -35.291 1.37012 -70.6396 -0.0546875 -105.935c-2.03125 -50.4102 -7.55957 -115.889 -32.4492 -175.273c-26.2256 -62.582 -70.3691 -107.108 -121.108 -122.163c-13.0537 -3.87305 -26.6299 -5.7793 -40.3623 -5.7793
c-30.1836 0 -61.1064 9.21484 -88.8447 27.0029c-53.042 34.0166 -90.585 96.3721 -100.427 166.799c-9.36426 67.0215 6.4707 138.015 43.4404 194.771c18.6426 28.624 40.2803 50.1602 64.3057 64.0078c62.2705 35.8887 134.458 18.5957 198.146 3.34473
l0.607422 -0.145508c13.6611 -3.26953 27.3965 -6.25098 41.0098 -8.51953c-4.82227 83.1006 -15.1387 166.072 -25.2725 247.314c-4.62598 -21.8311 -10.3135 -44.2617 -17.1611 -67.4316c-11.4287 -38.6895 -25.9541 -78.3965 -54.5879 -106.732
c-19.8398 -19.6328 -44.9062 -29.8135 -68.7178 -29.8135c-17.4492 0 -34.2197 5.4668 -47.7617 16.6924c-11.9307 9.88965 -21.7324 24.0898 -29.9766 43.4111c-13.752 32.2354 -18.8594 67.5576 -21.7695 94.7295c-9.75 91.0234 -3.71973 181.419 4.25391 265.551
c0.884766 9.32324 9.22461 16.1807 18.4795 15.2822c9.32324 -0.881836 16.167 -9.15723 15.2822 -18.4805c-7.80371 -82.3613 -13.7217 -170.709 -4.29395 -258.741c2.65918 -24.8291 7.25098 -56.9287 19.2402 -85.0371
c6.07422 -14.2373 12.7559 -24.249 20.4277 -30.6084c21.1221 -17.5029 52.334 -7.33496 70.9834 11.1211c23.1875 22.9434 35.7695 57.8887 45.917 92.2344c23.418 79.2549 33.165 149.346 29.8037 214.285c-0.12207 2.38379 0.264648 4.67676 1.04785 6.7793
c-0.145508 1.48926 -0.31543 2.98535 -0.458008 4.4707c-0.888672 9.32324 5.94824 17.6016 15.2715 18.4902c9.34375 0.895508 17.6016 -5.94824 18.4902 -15.2715c5.25 -55.04 12.2363 -111.047 18.9922 -165.208c10.5137 -84.2705 21.2578 -170.417 26.0088 -257.031
c35.1729 -2.05176 68.1279 3.36426 94.958 24.0146c1.13281 0.87207 2.18457 2.12305 2.89648 3.19434c-3.11328 6.44727 -1.89258 14.4209 3.56055 19.6338zM317.94 33.042c1.44824 35.9121 1.25 71.9678 -0.129883 108.05
c-16.8418 2.53711 -33.7852 6.13574 -50.5762 10.1582l-0.607422 0.142578c-35.0332 8.39062 -70.7617 16.9473 -104.463 16.9473c-24.3506 0 -47.6396 -4.4668 -68.8496 -16.6895c-19.3516 -11.1543 -37.126 -29.0303 -52.8252 -53.1338
c-32.0898 -49.2607 -46.3916 -113.399 -38.2656 -171.566c8.36035 -59.8525 40.9863 -114.624 85.1465 -142.942c32.0459 -20.5518 68.9482 -26.8428 101.255 -17.2588c40.335 11.9688 77.5254 50.3867 99.4746 102.761c22.7969 54.3887 27.9248 115.964 29.8408 163.532z
" />
    <glyph glyph-name="Z" unicode="Z" horiz-adv-x="561" 
d="M565.302 174.044c8.11914 -4.66309 10.9199 -15.0391 6.25684 -23.1582s-15.0244 -10.9238 -23.1504 -6.26074c-20.9385 12.0293 -47.3135 15.082 -82.0518 9.32031c5.42969 -25.0938 7.22754 -50.8311 6.30469 -74.3408
c-3.21191 -81.6963 -33.2432 -157.217 -82.3916 -207.2c-39.5576 -40.2227 -91.2871 -62.1182 -141.772 -62.1211c-19.1348 0 -38.083 3.14062 -56.1289 9.62207c-28.3867 10.1943 -49.2412 27.3584 -60.3105 49.6338c-12.3242 24.8018 -12.7891 57.7705 -1.24805 88.1953
c10.3643 27.3184 28.1016 48.9727 44.0889 66.5576c68.2666 75.0869 155.945 129.567 248.508 154.752c-9.81445 24.7979 -24.8115 46.4688 -46.4521 59.5225c-28.4883 17.1875 -66.3535 18.0527 -119.155 2.71973c-8.09863 -2.35352 -16.7295 1.62109 -20.1924 9.33301
c-3.46289 7.70898 -0.71875 16.791 6.43066 21.2979c82.0664 51.7031 150.16 128.174 196.922 221.15c20.2881 40.335 40.0469 97.7246 18.9658 142.088c-20.1387 42.3691 -68.626 53.1543 -95.7334 55.8096c-65.1396 6.37598 -133.121 -12.8574 -191.481 -54.1689
c-56.5693 -40.043 -103.104 -99.2471 -134.569 -171.217c-24.2832 -55.5381 -34.0098 -107.479 -28.9092 -154.372c5.90137 -54.29 33.915 -100.946 71.3633 -118.863c16.8281 -8.05176 37.4414 -11.5518 64.8408 -11.0566c41.834 0.776367 71.0615 11.5342 89.3555 32.8867
c6.09082 7.11523 16.7979 7.93945 23.9102 1.84473s7.93945 -16.7979 1.84473 -23.9102c-24.958 -29.1289 -62.4033 -43.7598 -114.479 -44.7295c-20.6504 -0.393555 -51.502 0.68457 -80.1084 14.3721c-47.7959 22.8652 -83.2979 80.0928 -90.4404 145.788
c-5.74512 52.8486 4.87012 110.592 31.5537 171.621c33.9385 77.627 84.4404 141.708 146.046 185.315c65.0176 46.0254 141.152 67.4258 214.381 60.2393c58.2646 -5.71094 103.116 -33.0459 123.055 -75.0049c26.9688 -56.7422 4.3916 -124.792 -19.2939 -171.886
c-37.9131 -75.3887 -89.1816 -140.603 -150.292 -191.708c24.4219 0.285156 50.085 -4.37793 73.5127 -18.5098c30.1631 -18.1953 50.1553 -47.6768 62.4014 -80.8418c31.7744 5.7998 72.458 7.92969 108.421 -12.7207zM438.772 80.9395
c0.796875 20.2471 -0.779297 43.2188 -5.62891 65.6055c-86.6885 -23.3906 -168.982 -74.4893 -233.155 -145.068c-13.8438 -15.2275 -29.1221 -33.7588 -37.4717 -55.7695c-8.12598 -21.4268 -8.16016 -44.8281 -0.0888672 -61.0732
c8.9707 -18.0488 27.4639 -27.8027 41.4023 -32.8086c53.2529 -19.1172 116.951 -1.71191 162.254 44.3613c43.3125 44.041 69.8027 111.382 72.6885 184.753z" />
    <glyph glyph-name="bracketleft" unicode="[" horiz-adv-x="261" 
d="M209.384 -157.719c3.51367 -8.67871 -0.676758 -18.5654 -9.3584 -22.082c-13.4883 -5.45996 -31.0156 -12.5547 -49.75 -12.5547c-4.39551 0 -8.8623 0.389648 -13.3564 1.28516c-21.1182 4.20215 -40.1064 19.1484 -52.1016 41.0029
c-9.81836 17.9004 -13.875 37.8252 -16.792 56.6914c-6.77246 43.79 -9.00098 86.6855 -11.0293 134.2c-10.3369 242.441 -9.24121 437.843 3.44629 614.935c0.586914 8.18359 1.47168 20.5557 9.02148 31.0186c14.2607 19.7686 41.7861 22.0479 75.541 6.23047
c8.48242 -3.97168 12.1348 -14.0684 8.16016 -22.5469c-3.97168 -8.48242 -14.085 -12.1318 -22.5469 -8.16016c-16.2891 7.62695 -30.1191 9.5332 -33.6533 4.63574c-1.91309 -2.64844 -2.36426 -8.98047 -2.69629 -13.5996
c-12.5957 -175.775 -13.6709 -369.946 -3.3916 -611.064c1.98438 -46.4863 4.1582 -88.3906 10.666 -130.462c2.82129 -18.2627 6.11816 -32.999 13.0098 -45.5576c7.05469 -12.8574 17.8936 -21.8516 28.9902 -24.0596c12.6875 -2.53027 26.7314 2.5498 43.7598 9.44141
c8.68848 3.52051 18.5713 -0.674805 22.0811 -9.35352z" />
    <glyph glyph-name="backslash" unicode="\" horiz-adv-x="304" 
d="M253.716 -28.9658c2.33301 -9.06836 -3.13379 -18.3105 -12.2061 -20.6436c-1.41406 -0.363281 -2.83496 -0.536133 -4.23242 -0.536133c-7.55566 0 -14.4434 5.08691 -16.4102 12.7412l-170.329 662.994c-2.33008 9.07227 3.13379 18.3145 12.2061 20.6445
c9.05469 2.33008 18.3096 -3.13379 20.6426 -12.2061z" />
    <glyph glyph-name="bracketright" unicode="]" horiz-adv-x="261" 
d="M200.183 655.762c12.6875 -177.092 13.7812 -372.49 3.44043 -614.935c-2.02832 -47.5342 -4.25684 -90.4395 -11.0264 -134.203c-2.91992 -18.873 -6.97656 -38.8008 -16.7949 -56.6904c-11.9951 -21.8545 -30.9834 -36.8008 -52.1016 -41.0029
c-4.49414 -0.895508 -8.96094 -1.28516 -13.3594 -1.28516c-18.7373 0 -36.2539 7.09473 -49.7451 12.5547c-8.68164 3.51367 -12.8662 13.3994 -9.35254 22.0811c3.5166 8.68164 13.3994 12.8662 22.085 9.35254c17.0254 -6.89453 31.0459 -11.9678 43.7568 -9.44141
c11.0967 2.20801 21.9326 11.2021 28.9873 24.0596c6.8877 12.5547 10.1846 27.2939 13.0127 45.5605c6.50488 42.0439 8.67578 83.959 10.6631 130.463c10.2793 241.118 9.2041 435.289 -3.3916 611.064c-0.332031 4.62207 -0.786133 10.9502 -2.69531 13.5986
c-3.53418 4.9043 -17.375 2.99121 -33.6543 -4.63281c-8.47559 -3.97168 -18.5752 -0.322266 -22.5469 8.16016c-3.97461 8.47852 -0.322266 18.5752 8.16016 22.5469c33.7383 15.8105 61.2832 13.542 75.541 -6.2334c7.5459 -10.459 8.43457 -22.8311 9.02148 -31.0176z
" />
    <glyph glyph-name="asciicircum" unicode="^" horiz-adv-x="217" 
d="M167.238 462.899c1.50879 -9.24512 -4.76367 -17.957 -14.0117 -19.4658c-9.24805 -1.50195 -17.957 4.76172 -19.4629 14.0068c-5.89746 36.1562 -11.9717 73.3975 -22.8477 108.133c-12.6641 -33.4766 -21.5059 -68.5918 -26.3594 -104.771
c3.06934 -6.35254 1.94043 -14.207 -3.35742 -19.4404c-3.43848 -3.39844 -8 -5.18945 -12.6025 -5.18945c-2.6416 0 -5.29688 0.589844 -7.76562 1.80078c-8.59766 4.22266 -11.5654 13.9189 -10.6836 21.1426c6.15234 50.4033 19.5117 98.9824 39.7148 144.391
c0.891602 2.00781 2.74707 6.16895 6.99609 9.53027c6.71191 5.29785 15.8691 5.88086 23.9072 1.54297c11.0117 -5.94824 15.2852 -17.7881 17.3408 -23.4756c15 -41.5625 22.1865 -85.6074 29.1318 -128.204z" />
    <glyph glyph-name="underscore" unicode="_" horiz-adv-x="294" 
d="M227.222 -22.9463c9.36426 -0.0615234 16.9043 -7.70215 16.8467 -17.0693c-0.0644531 -9.32617 -7.64062 -16.8486 -16.957 -16.8486h-0.111328c-52.7402 0.352539 -106.169 -1.43457 -158.808 -5.27734c-0.420898 -0.0302734 -0.837891 -0.0439453 -1.25488 -0.0439453
c-8.80078 0 -16.2412 6.80371 -16.8926 15.7236c-0.681641 9.33984 6.33887 17.4658 15.6787 18.1475c53.5342 3.91016 107.899 5.7041 161.498 5.36816z" />
    <glyph glyph-name="grave" unicode="`" horiz-adv-x="151" 
d="M83.6953 633.109c7.05078 -43.0371 12.8135 -86.9268 17.127 -130.449c0.925781 -9.31934 -5.88086 -17.625 -15.2002 -18.5479c-0.569336 -0.0546875 -1.13184 -0.0820312 -1.69141 -0.0820312c-8.61426 0 -15.9873 6.53516 -16.8555 15.2852
c-4.24316 42.8105 -9.91406 85.9805 -16.8496 128.31c-1.5127 9.24219 4.75098 17.9619 13.9922 19.4775c9.23145 1.5127 17.958 -4.75098 19.4775 -13.9932z" />
    <glyph glyph-name="a" unicode="a" horiz-adv-x="367" 
d="M376.397 180.172c8.91992 -2.86621 13.8252 -12.4141 10.9531 -21.3301c-17.585 -54.7314 -33.9863 -103.806 -56.6787 -150.174c-11.0527 -22.584 -25.7617 -46.7578 -51.0449 -54.8428c-5.18262 -1.6582 -10.5381 -2.45898 -15.9238 -2.45898
c-22.2988 0 -45.2314 13.6914 -59.5811 36.875c-14.7803 23.8721 -19.1074 52.4482 -21.3896 77.25c-2.75391 29.9092 -3.09277 59.9473 -1.875 89.8467c-8.12207 -31.9072 -16.7461 -63.624 -25.8789 -94.9746c-5.21973 -17.9268 -10.2285 -33.9883 -18.6494 -49.0195
c-7.58691 -13.5488 -21.0615 -31.2354 -42.1396 -38.5742c-6.88086 -2.39453 -14.2812 -3.57812 -22.4512 -3.57812c-2.6416 0 -5.36133 0.12207 -8.17285 0.370117c-13.4238 1.17676 -25.0664 4.94434 -34.6064 11.2012c-17.2588 11.3203 -29.6338 31.625 -36.79 60.3535
c-8.05176 32.3379 -9.2832 68.2773 -3.87695 113.115c5.5957 46.4121 16.1738 83.9893 32.3447 114.879c20.7998 39.7441 51.2012 68.127 85.6006 79.9189c25.707 8.81055 50.9971 7.09082 71.2168 -4.84668c9.19043 -5.42676 16.7402 -12.6367 22.9531 -20.4883
c3.02539 6.84766 10.3066 11.1348 18.0459 9.94141c9.25488 -1.43457 15.5967 -10.0967 14.165 -19.3516c-12.2842 -79.4277 -23.6484 -163.824 -16.1094 -245.681c1.91992 -20.8711 5.37891 -44.6182 16.4551 -62.5117c8.10938 -13.1045 23.1982 -24.1709 36.3369 -19.9658
c13.2197 4.22949 23.4648 22.2383 30.9121 37.4521c21.6982 44.3301 37.6787 92.1836 54.8525 145.637c2.86621 8.91602 12.4229 13.8301 21.332 10.957zM122.423 69.8506c21.583 74.1035 40.4258 150.22 56.0234 226.283
c-5.37891 8.46484 -11.585 14.9258 -18.2285 18.8496c-7.17285 4.23242 -14.8682 5.66699 -21.9971 5.66699c-8.34961 0 -15.9258 -1.9668 -20.9795 -3.7002c-25.7783 -8.83496 -50.0342 -32.002 -66.5508 -63.5625c-14.2344 -27.1895 -23.6289 -60.9512 -28.7227 -103.212
c-4.89746 -40.6055 -3.90723 -72.6543 3.11621 -100.854c4.95508 -19.8975 12.7285 -33.7959 22.4785 -40.1924c4.87305 -3.19434 11.0762 -5.08301 18.9678 -5.77441c6.63379 -0.580078 12.0332 -0.105469 16.5166 1.45117c8.60742 2.99805 17.0254 11.209 23.7002 23.1201
c6.6748 11.9072 11.0469 26.0322 15.6758 41.9248z" />
    <glyph glyph-name="a" unicode="&#xe5;" horiz-adv-x="367" 
d="M376.397 180.172c8.91992 -2.86621 13.8252 -12.4141 10.9531 -21.3301c-17.585 -54.7314 -33.9863 -103.806 -56.6787 -150.174c-11.0527 -22.584 -25.7617 -46.7578 -51.0449 -54.8428c-5.18262 -1.6582 -10.5381 -2.45898 -15.9238 -2.45898
c-22.2988 0 -45.2314 13.6914 -59.5811 36.875c-14.7803 23.8721 -19.1074 52.4482 -21.3896 77.25c-2.75391 29.9092 -3.09277 59.9473 -1.875 89.8467c-8.12207 -31.9072 -16.7461 -63.624 -25.8789 -94.9746c-5.21973 -17.9268 -10.2285 -33.9883 -18.6494 -49.0195
c-7.58691 -13.5488 -21.0615 -31.2354 -42.1396 -38.5742c-6.88086 -2.39453 -14.2812 -3.57812 -22.4512 -3.57812c-2.6416 0 -5.36133 0.12207 -8.17285 0.370117c-13.4238 1.17676 -25.0664 4.94434 -34.6064 11.2012c-17.2588 11.3203 -29.6338 31.625 -36.79 60.3535
c-8.05176 32.3379 -9.2832 68.2773 -3.87695 113.115c5.5957 46.4121 16.1738 83.9893 32.3447 114.879c20.7998 39.7441 51.2012 68.127 85.6006 79.9189c25.707 8.81055 50.9971 7.09082 71.2168 -4.84668c9.19043 -5.42676 16.7402 -12.6367 22.9531 -20.4883
c3.02539 6.84766 10.3066 11.1348 18.0459 9.94141c9.25488 -1.43457 15.5967 -10.0967 14.165 -19.3516c-12.2842 -79.4277 -23.6484 -163.824 -16.1094 -245.681c1.91992 -20.8711 5.37891 -44.6182 16.4551 -62.5117c8.10938 -13.1045 23.1982 -24.1709 36.3369 -19.9658
c13.2197 4.22949 23.4648 22.2383 30.9121 37.4521c21.6982 44.3301 37.6787 92.1836 54.8525 145.637c2.86621 8.91602 12.4229 13.8301 21.332 10.957zM122.423 69.8506c21.583 74.1035 40.4258 150.22 56.0234 226.283
c-5.37891 8.46484 -11.585 14.9258 -18.2285 18.8496c-7.17285 4.23242 -14.8682 5.66699 -21.9971 5.66699c-8.34961 0 -15.9258 -1.9668 -20.9795 -3.7002c-25.7783 -8.83496 -50.0342 -32.002 -66.5508 -63.5625c-14.2344 -27.1895 -23.6289 -60.9512 -28.7227 -103.212
c-4.89746 -40.6055 -3.90723 -72.6543 3.11621 -100.854c4.95508 -19.8975 12.7285 -33.7959 22.4785 -40.1924c4.87305 -3.19434 11.0762 -5.08301 18.9678 -5.77441c6.63379 -0.580078 12.0332 -0.105469 16.5166 1.45117c8.60742 2.99805 17.0254 11.209 23.7002 23.1201
c6.6748 11.9072 11.0469 26.0322 15.6758 41.9248z" />
    <glyph glyph-name="a" unicode="&#xe4;" horiz-adv-x="367" 
d="M376.397 180.172c8.91992 -2.86621 13.8252 -12.4141 10.9531 -21.3301c-17.585 -54.7314 -33.9863 -103.806 -56.6787 -150.174c-11.0527 -22.584 -25.7617 -46.7578 -51.0449 -54.8428c-5.18262 -1.6582 -10.5381 -2.45898 -15.9238 -2.45898
c-22.2988 0 -45.2314 13.6914 -59.5811 36.875c-14.7803 23.8721 -19.1074 52.4482 -21.3896 77.25c-2.75391 29.9092 -3.09277 59.9473 -1.875 89.8467c-8.12207 -31.9072 -16.7461 -63.624 -25.8789 -94.9746c-5.21973 -17.9268 -10.2285 -33.9883 -18.6494 -49.0195
c-7.58691 -13.5488 -21.0615 -31.2354 -42.1396 -38.5742c-6.88086 -2.39453 -14.2812 -3.57812 -22.4512 -3.57812c-2.6416 0 -5.36133 0.12207 -8.17285 0.370117c-13.4238 1.17676 -25.0664 4.94434 -34.6064 11.2012c-17.2588 11.3203 -29.6338 31.625 -36.79 60.3535
c-8.05176 32.3379 -9.2832 68.2773 -3.87695 113.115c5.5957 46.4121 16.1738 83.9893 32.3447 114.879c20.7998 39.7441 51.2012 68.127 85.6006 79.9189c25.707 8.81055 50.9971 7.09082 71.2168 -4.84668c9.19043 -5.42676 16.7402 -12.6367 22.9531 -20.4883
c3.02539 6.84766 10.3066 11.1348 18.0459 9.94141c9.25488 -1.43457 15.5967 -10.0967 14.165 -19.3516c-12.2842 -79.4277 -23.6484 -163.824 -16.1094 -245.681c1.91992 -20.8711 5.37891 -44.6182 16.4551 -62.5117c8.10938 -13.1045 23.1982 -24.1709 36.3369 -19.9658
c13.2197 4.22949 23.4648 22.2383 30.9121 37.4521c21.6982 44.3301 37.6787 92.1836 54.8525 145.637c2.86621 8.91602 12.4229 13.8301 21.332 10.957zM122.423 69.8506c21.583 74.1035 40.4258 150.22 56.0234 226.283
c-5.37891 8.46484 -11.585 14.9258 -18.2285 18.8496c-7.17285 4.23242 -14.8682 5.66699 -21.9971 5.66699c-8.34961 0 -15.9258 -1.9668 -20.9795 -3.7002c-25.7783 -8.83496 -50.0342 -32.002 -66.5508 -63.5625c-14.2344 -27.1895 -23.6289 -60.9512 -28.7227 -103.212
c-4.89746 -40.6055 -3.90723 -72.6543 3.11621 -100.854c4.95508 -19.8975 12.7285 -33.7959 22.4785 -40.1924c4.87305 -3.19434 11.0762 -5.08301 18.9678 -5.77441c6.63379 -0.580078 12.0332 -0.105469 16.5166 1.45117c8.60742 2.99805 17.0254 11.209 23.7002 23.1201
c6.6748 11.9072 11.0469 26.0322 15.6758 41.9248z" />
    <glyph glyph-name="a" unicode="&#xe3;" horiz-adv-x="367" 
d="M376.397 180.172c8.91992 -2.86621 13.8252 -12.4141 10.9531 -21.3301c-17.585 -54.7314 -33.9863 -103.806 -56.6787 -150.174c-11.0527 -22.584 -25.7617 -46.7578 -51.0449 -54.8428c-5.18262 -1.6582 -10.5381 -2.45898 -15.9238 -2.45898
c-22.2988 0 -45.2314 13.6914 -59.5811 36.875c-14.7803 23.8721 -19.1074 52.4482 -21.3896 77.25c-2.75391 29.9092 -3.09277 59.9473 -1.875 89.8467c-8.12207 -31.9072 -16.7461 -63.624 -25.8789 -94.9746c-5.21973 -17.9268 -10.2285 -33.9883 -18.6494 -49.0195
c-7.58691 -13.5488 -21.0615 -31.2354 -42.1396 -38.5742c-6.88086 -2.39453 -14.2812 -3.57812 -22.4512 -3.57812c-2.6416 0 -5.36133 0.12207 -8.17285 0.370117c-13.4238 1.17676 -25.0664 4.94434 -34.6064 11.2012c-17.2588 11.3203 -29.6338 31.625 -36.79 60.3535
c-8.05176 32.3379 -9.2832 68.2773 -3.87695 113.115c5.5957 46.4121 16.1738 83.9893 32.3447 114.879c20.7998 39.7441 51.2012 68.127 85.6006 79.9189c25.707 8.81055 50.9971 7.09082 71.2168 -4.84668c9.19043 -5.42676 16.7402 -12.6367 22.9531 -20.4883
c3.02539 6.84766 10.3066 11.1348 18.0459 9.94141c9.25488 -1.43457 15.5967 -10.0967 14.165 -19.3516c-12.2842 -79.4277 -23.6484 -163.824 -16.1094 -245.681c1.91992 -20.8711 5.37891 -44.6182 16.4551 -62.5117c8.10938 -13.1045 23.1982 -24.1709 36.3369 -19.9658
c13.2197 4.22949 23.4648 22.2383 30.9121 37.4521c21.6982 44.3301 37.6787 92.1836 54.8525 145.637c2.86621 8.91602 12.4229 13.8301 21.332 10.957zM122.423 69.8506c21.583 74.1035 40.4258 150.22 56.0234 226.283
c-5.37891 8.46484 -11.585 14.9258 -18.2285 18.8496c-7.17285 4.23242 -14.8682 5.66699 -21.9971 5.66699c-8.34961 0 -15.9258 -1.9668 -20.9795 -3.7002c-25.7783 -8.83496 -50.0342 -32.002 -66.5508 -63.5625c-14.2344 -27.1895 -23.6289 -60.9512 -28.7227 -103.212
c-4.89746 -40.6055 -3.90723 -72.6543 3.11621 -100.854c4.95508 -19.8975 12.7285 -33.7959 22.4785 -40.1924c4.87305 -3.19434 11.0762 -5.08301 18.9678 -5.77441c6.63379 -0.580078 12.0332 -0.105469 16.5166 1.45117c8.60742 2.99805 17.0254 11.209 23.7002 23.1201
c6.6748 11.9072 11.0469 26.0322 15.6758 41.9248z" />
    <glyph glyph-name="a" unicode="&#xe2;" horiz-adv-x="367" 
d="M376.397 180.172c8.91992 -2.86621 13.8252 -12.4141 10.9531 -21.3301c-17.585 -54.7314 -33.9863 -103.806 -56.6787 -150.174c-11.0527 -22.584 -25.7617 -46.7578 -51.0449 -54.8428c-5.18262 -1.6582 -10.5381 -2.45898 -15.9238 -2.45898
c-22.2988 0 -45.2314 13.6914 -59.5811 36.875c-14.7803 23.8721 -19.1074 52.4482 -21.3896 77.25c-2.75391 29.9092 -3.09277 59.9473 -1.875 89.8467c-8.12207 -31.9072 -16.7461 -63.624 -25.8789 -94.9746c-5.21973 -17.9268 -10.2285 -33.9883 -18.6494 -49.0195
c-7.58691 -13.5488 -21.0615 -31.2354 -42.1396 -38.5742c-6.88086 -2.39453 -14.2812 -3.57812 -22.4512 -3.57812c-2.6416 0 -5.36133 0.12207 -8.17285 0.370117c-13.4238 1.17676 -25.0664 4.94434 -34.6064 11.2012c-17.2588 11.3203 -29.6338 31.625 -36.79 60.3535
c-8.05176 32.3379 -9.2832 68.2773 -3.87695 113.115c5.5957 46.4121 16.1738 83.9893 32.3447 114.879c20.7998 39.7441 51.2012 68.127 85.6006 79.9189c25.707 8.81055 50.9971 7.09082 71.2168 -4.84668c9.19043 -5.42676 16.7402 -12.6367 22.9531 -20.4883
c3.02539 6.84766 10.3066 11.1348 18.0459 9.94141c9.25488 -1.43457 15.5967 -10.0967 14.165 -19.3516c-12.2842 -79.4277 -23.6484 -163.824 -16.1094 -245.681c1.91992 -20.8711 5.37891 -44.6182 16.4551 -62.5117c8.10938 -13.1045 23.1982 -24.1709 36.3369 -19.9658
c13.2197 4.22949 23.4648 22.2383 30.9121 37.4521c21.6982 44.3301 37.6787 92.1836 54.8525 145.637c2.86621 8.91602 12.4229 13.8301 21.332 10.957zM122.423 69.8506c21.583 74.1035 40.4258 150.22 56.0234 226.283
c-5.37891 8.46484 -11.585 14.9258 -18.2285 18.8496c-7.17285 4.23242 -14.8682 5.66699 -21.9971 5.66699c-8.34961 0 -15.9258 -1.9668 -20.9795 -3.7002c-25.7783 -8.83496 -50.0342 -32.002 -66.5508 -63.5625c-14.2344 -27.1895 -23.6289 -60.9512 -28.7227 -103.212
c-4.89746 -40.6055 -3.90723 -72.6543 3.11621 -100.854c4.95508 -19.8975 12.7285 -33.7959 22.4785 -40.1924c4.87305 -3.19434 11.0762 -5.08301 18.9678 -5.77441c6.63379 -0.580078 12.0332 -0.105469 16.5166 1.45117c8.60742 2.99805 17.0254 11.209 23.7002 23.1201
c6.6748 11.9072 11.0469 26.0322 15.6758 41.9248z" />
    <glyph glyph-name="a" unicode="&#xe1;" horiz-adv-x="367" 
d="M376.397 180.172c8.91992 -2.86621 13.8252 -12.4141 10.9531 -21.3301c-17.585 -54.7314 -33.9863 -103.806 -56.6787 -150.174c-11.0527 -22.584 -25.7617 -46.7578 -51.0449 -54.8428c-5.18262 -1.6582 -10.5381 -2.45898 -15.9238 -2.45898
c-22.2988 0 -45.2314 13.6914 -59.5811 36.875c-14.7803 23.8721 -19.1074 52.4482 -21.3896 77.25c-2.75391 29.9092 -3.09277 59.9473 -1.875 89.8467c-8.12207 -31.9072 -16.7461 -63.624 -25.8789 -94.9746c-5.21973 -17.9268 -10.2285 -33.9883 -18.6494 -49.0195
c-7.58691 -13.5488 -21.0615 -31.2354 -42.1396 -38.5742c-6.88086 -2.39453 -14.2812 -3.57812 -22.4512 -3.57812c-2.6416 0 -5.36133 0.12207 -8.17285 0.370117c-13.4238 1.17676 -25.0664 4.94434 -34.6064 11.2012c-17.2588 11.3203 -29.6338 31.625 -36.79 60.3535
c-8.05176 32.3379 -9.2832 68.2773 -3.87695 113.115c5.5957 46.4121 16.1738 83.9893 32.3447 114.879c20.7998 39.7441 51.2012 68.127 85.6006 79.9189c25.707 8.81055 50.9971 7.09082 71.2168 -4.84668c9.19043 -5.42676 16.7402 -12.6367 22.9531 -20.4883
c3.02539 6.84766 10.3066 11.1348 18.0459 9.94141c9.25488 -1.43457 15.5967 -10.0967 14.165 -19.3516c-12.2842 -79.4277 -23.6484 -163.824 -16.1094 -245.681c1.91992 -20.8711 5.37891 -44.6182 16.4551 -62.5117c8.10938 -13.1045 23.1982 -24.1709 36.3369 -19.9658
c13.2197 4.22949 23.4648 22.2383 30.9121 37.4521c21.6982 44.3301 37.6787 92.1836 54.8525 145.637c2.86621 8.91602 12.4229 13.8301 21.332 10.957zM122.423 69.8506c21.583 74.1035 40.4258 150.22 56.0234 226.283
c-5.37891 8.46484 -11.585 14.9258 -18.2285 18.8496c-7.17285 4.23242 -14.8682 5.66699 -21.9971 5.66699c-8.34961 0 -15.9258 -1.9668 -20.9795 -3.7002c-25.7783 -8.83496 -50.0342 -32.002 -66.5508 -63.5625c-14.2344 -27.1895 -23.6289 -60.9512 -28.7227 -103.212
c-4.89746 -40.6055 -3.90723 -72.6543 3.11621 -100.854c4.95508 -19.8975 12.7285 -33.7959 22.4785 -40.1924c4.87305 -3.19434 11.0762 -5.08301 18.9678 -5.77441c6.63379 -0.580078 12.0332 -0.105469 16.5166 1.45117c8.60742 2.99805 17.0254 11.209 23.7002 23.1201
c6.6748 11.9072 11.0469 26.0322 15.6758 41.9248z" />
    <glyph glyph-name="b" unicode="b" horiz-adv-x="390" 
d="M402.301 144.327c1.2002 -9.28906 -5.35645 -17.793 -14.6455 -18.9902c-31.252 -4.03613 -63.1689 -8.16016 -94.6211 -14.3594c-10.001 -63.9521 -30.1865 -120.22 -59.543 -165.218c-17.5918 -26.9658 -36.1094 -46.1885 -56.6104 -58.7744
c-17.3984 -10.6797 -36.2783 -16.1738 -54.4668 -16.1738c-9.5127 0 -18.8359 1.50195 -27.6602 4.55078c-29.5703 10.2148 -52.0527 38.3438 -55.9424 69.9961c-1.51953 12.3418 -0.366211 24.1172 2.54688 35.1631c-2.19043 -1.69922 -4.77832 -2.94434 -7.71191 -3.40234
c-0.884766 -0.138672 -1.7666 -0.206055 -2.63867 -0.206055c-8.21094 0 -15.4277 5.97559 -16.7334 14.3428c-11.7617 75.3379 -19.0732 149.441 -21.915 221.92c-0.0136719 0.237305 -0.0234375 0.478516 -0.0263672 0.719727
c-3.4834 89.6289 -0.135742 176.762 10.0625 260.632c6.65039 54.7246 18.2354 125.328 49.0332 186.045c20.8643 41.1318 48.6709 63.4678 78.2549 62.8135c38.9473 -0.824219 64.0098 -39.2188 73.6416 -71.8516c10.334 -35.0166 11.3037 -75.3574 3.05566 -126.955
c-17.9648 -112.372 -81.7236 -224.829 -179.831 -317.453c2.05859 -47.3311 6.09766 -95.3848 12.0195 -144.028c8.88867 37.8252 22.5361 73.4053 35.0332 105.99c14.7734 38.5166 31.5205 82.1748 54.375 121.729c17.5605 30.3975 34.9619 50.8271 54.751 64.2979
c23.6787 16.1162 49.8779 19.2666 70.084 8.42383c20.7051 -11.1104 33.9795 -34.8027 40.5898 -72.4277c5.91797 -33.7041 7.98633 -69.9619 6.32422 -110.843c-0.467773 -11.4971 -1.22754 -22.8105 -2.2793 -33.9307c28.7734 5.25684 57.584 8.97754 85.8623 12.6338
c9.27539 1.19043 17.791 -5.35547 18.9912 -14.6445zM36.0605 470.434c-8.52637 -70.1348 -12.1572 -142.623 -10.9062 -217.024c80.2686 83.002 132.311 180.018 147.738 276.528c7.42383 46.4219 6.75586 82.0117 -2.09277 111.999
c-6.6748 22.6143 -22.6113 47.1377 -41.8311 47.5449c-0.166016 0.00292969 -0.332031 0.00292969 -0.495117 0.00292969c-21.9697 0 -40.0186 -30.8926 -46.7979 -44.252c-28.4033 -56 -39.2969 -122.832 -45.6152 -174.799zM205.085 -35.7119
c24.7236 37.8965 42.3623 84.9424 52.1875 138.564c-7.1123 -1.8584 -14.1729 -3.8623 -21.1758 -6.04297c-53.9346 -16.7949 -98.125 -42.417 -131.338 -76.1553c-13.623 -13.8369 -35.9355 -41.4844 -32.2861 -71.1523c2.3125 -18.792 16.0273 -36.0947 33.3574 -42.0811
c16.0654 -5.55566 35.498 -2.46582 53.3066 8.46777c16.1299 9.89941 31.1611 25.7305 45.9482 48.3994zM265.84 181.649c1.56348 38.4287 -0.345703 72.3115 -5.84277 103.598c-4.62598 26.335 -12.4395 42.624 -23.2207 48.4102
c-3.22168 1.72656 -6.6709 2.41211 -10.1162 2.41211c-10.6055 0 -21.166 -6.47754 -24.8496 -8.9873c-15.4248 -10.4961 -29.5537 -27.4092 -44.4727 -53.2285c-21.5117 -37.2344 -37.7471 -79.5635 -52.0723 -116.91
c-15.0781 -39.3105 -31.9102 -83.1855 -39.002 -128.706c4.69727 5.96875 9.58398 11.3955 14.3252 16.2109c37.1699 37.7568 86.0986 66.2686 145.422 84.7422c12.124 3.77441 24.3369 7.04395 36.5967 9.92676c1.56055 13.8271 2.64258 28.0205 3.23242 42.5322z" />
    <glyph glyph-name="c" unicode="c" horiz-adv-x="256" 
d="M266.211 175.396c8.98047 -2.66211 14.1045 -12.1025 11.4385 -21.0898c-20.9355 -70.5928 -55.5215 -136.808 -100.021 -191.488c-16.0146 -19.6807 -35.9697 -41.084 -62.5557 -50.6514c-8.98047 -3.23242 -18.3311 -4.77246 -27.6953 -4.77246
c-35.3047 0 -70.8916 21.875 -88.5371 57.3838c-12.3418 24.8359 -15.4893 53.2461 -16.8525 75.2197c-4.60254 74.2695 7.01953 153.494 33.6123 229.11c14.5225 41.291 30.2822 71.3193 49.5996 94.5c13.1689 15.8037 26.4395 26.0088 40.5713 31.1943
c20.0059 7.33887 41.5078 3.67969 56.1279 -9.55371c14.5938 -13.21 19.9014 -33.2061 22.6279 -47.0977c9.76367 -49.793 3.25879 -101.743 -2.47949 -147.579c-1.16699 -9.29297 -9.65625 -15.8721 -18.9355 -14.7188c-9.29297 1.16699 -15.8828 9.64258 -14.7197 18.9355
c5.6875 45.418 11.5684 92.3857 2.84863 136.838c-2.81152 14.3389 -6.76953 23.6553 -12.1045 28.4814c-6.27051 5.67383 -15.3154 5.19922 -21.6846 2.85938c-8.37988 -3.07227 -16.9502 -9.96387 -26.1982 -21.0645c-16.6523 -19.9824 -30.5234 -46.6865 -43.6621 -84.04
c-25.1006 -71.373 -36.082 -145.981 -31.7578 -215.761c1.16699 -18.7822 3.74121 -42.834 13.376 -62.2227c14.79 -29.7568 47.4463 -45.4795 74.3779 -35.7939c18.7686 6.75586 34.6641 24.0859 47.7344 40.1475c41.6943 51.2383 74.1367 113.387 93.8105 179.727
c2.65918 8.97754 12.0938 14.0986 21.0781 11.4365z" />
    <glyph glyph-name="d" unicode="d" horiz-adv-x="391" 
d="M400.528 189.977c9.28613 -1.21777 15.8291 -9.72754 14.6182 -19.0137c-6.59961 -50.3701 -19.7383 -99.5186 -39.0527 -146.08c-9.65527 -23.2754 -22.9229 -48.5244 -48.1348 -59.333c-7.68164 -3.29297 -16.042 -4.94141 -24.6533 -4.94141
c-8.25781 0 -16.7432 1.51562 -25.0791 4.55078c-26.8535 9.77441 -49.458 34.3691 -62.0166 67.4795c-10.3408 27.2676 -13.1045 56.0918 -15.2305 85.6855c-2.47559 34.4805 -4.08984 67.71 -4.85645 99.8301c-12.2803 -53.0996 -26.0391 -105.928 -41.1445 -157.79
c-5.21973 -17.9268 -10.2285 -33.9883 -18.6494 -49.0195c-7.58691 -13.5488 -21.0615 -31.2383 -42.1396 -38.5742c-6.88086 -2.39453 -14.2812 -3.57812 -22.4512 -3.57812c-2.6416 0 -5.36133 0.12207 -8.17285 0.370117
c-13.4238 1.17676 -25.0664 4.94434 -34.6064 11.2012c-17.2588 11.3203 -29.6338 31.625 -36.79 60.3535c-8.05176 32.3379 -9.2832 68.2773 -3.87695 113.115c5.5957 46.4121 16.1738 83.9893 32.3447 114.879c20.7998 39.7441 51.2012 68.127 85.6006 79.9189
c25.707 8.81055 50.9971 7.09082 71.2168 -4.84668c7.58984 -4.48047 14.0576 -10.1846 19.5859 -16.4521c5.11426 117.809 24.0381 219.722 57.4883 312.244c8.04102 22.248 18.29 47.5039 38.2012 65.6514c12.7012 11.5752 27.0977 17.9541 41.6299 18.4463
c18.6152 0.644531 37.5771 -8.90625 50.7559 -25.5146c9.76074 -12.3008 16.6592 -28.5391 20.5088 -48.2607c4.6123 -23.6387 4.8125 -50.2002 0.610352 -81.2119c-14.3828 -106.203 -98.2598 -231.962 -176.725 -311.861
c0.0849609 -43.2207 1.8584 -88.6152 5.29688 -136.469c1.93652 -26.9854 4.39844 -53.1094 13.1143 -76.0898c9.05176 -23.876 24.3271 -41.2402 41.9053 -47.6396c8.88867 -3.23535 17.6826 -3.34375 24.7607 -0.304688c14.125 6.05371 23.543 25.1748 30.1729 41.1553
c18.1719 43.8105 30.54 90.0732 36.7529 137.489c1.21387 9.28906 9.76074 15.8242 19.0156 14.6104zM286.417 628.446c-33.9824 -93.9971 -52.4688 -198.404 -56.2031 -320.592c65.0586 74.0215 130.656 179.004 142.411 265.784
c3.69336 27.2744 3.59863 50.2246 -0.291016 70.1631c-2.79785 14.3428 -7.4375 25.6738 -13.79 33.6777c-6.25684 7.88867 -14.7998 12.7109 -22.4336 12.7109c-0.203125 0 -0.40332 -0.00292969 -0.606445 -0.00976562
c-6.28418 -0.213867 -13.3623 -3.62891 -19.9346 -9.61816c-14.1895 -12.9346 -22.4883 -33.6836 -29.1523 -52.1162zM122.407 69.8496c21.5898 74.1201 40.4326 150.236 56.0234 226.283c-5.37891 8.46484 -11.585 14.9258 -18.2285 18.8496
c-7.17285 4.23242 -14.8682 5.66699 -21.9971 5.66699c-8.34961 0 -15.9258 -1.9668 -20.9795 -3.7002c-25.7783 -8.83496 -50.0342 -32.002 -66.5508 -63.5625c-14.2344 -27.1895 -23.6289 -60.9512 -28.7227 -103.212
c-4.89746 -40.6055 -3.90723 -72.6543 3.11621 -100.854c4.95508 -19.8975 12.7285 -33.7959 22.4785 -40.1924c4.87305 -3.19434 11.0762 -5.08301 18.9678 -5.77441c6.63379 -0.580078 12.0332 -0.105469 16.5166 1.45117c8.60742 2.99805 17.0254 11.209 23.7002 23.1201
c6.6748 11.9072 11.0469 26.0322 15.6758 41.9248z" />
    <glyph glyph-name="e" unicode="e" horiz-adv-x="228" 
d="M236.809 177.082c9.12305 -2.11621 14.8008 -11.2266 12.6914 -20.3428c-10.0215 -43.1729 -26.0801 -83.9551 -47.7383 -121.217c-8.63477 -14.8545 -20.7324 -33.5957 -37.7783 -46.7617c-14.8955 -11.5039 -33.5352 -18.8535 -55.3994 -21.8447
c-6.25391 -0.854492 -12.3008 -1.28223 -18.1309 -1.28223c-17.7881 0 -33.5586 3.97461 -47.0566 11.8838c-20.5078 12.0195 -36.8779 34.1416 -46.0859 62.2871c-8.49902 25.9648 -9.94043 53.3301 -10.249 74.2686c-0.573242 39.1172 2.79785 78.3428 10.0215 116.592
c12.915 68.3916 37.0049 120.793 71.5947 155.752c16.5635 16.7334 32.7607 25.8799 49.5215 27.9521c29.9189 3.7168 60.4014 -17.3574 72.4443 -50.0752c10.1641 -27.6162 7.28809 -60.9707 -7.69238 -89.2285c-12.5684 -23.7031 -33.0732 -43.3701 -59.3027 -56.875
c-21.2471 -10.9375 -62.7754 -24.4453 -98.8125 -29.9365c-2.93066 -24.4014 -4.22949 -49.0674 -3.86621 -73.6895c0.271484 -18.541 1.49219 -42.5967 8.57031 -64.2207c6.53906 -19.9756 17.8359 -35.8613 31.002 -43.5732
c11.2051 -6.56543 25.8252 -8.67871 43.4434 -6.26074c15.9131 2.17383 29.126 7.25098 39.2666 15.082c12.3857 9.56738 22.1025 24.7812 29.1836 36.9629c19.9551 34.335 34.7656 71.9668 44.0205 111.844c2.12012 9.12305 11.2266 14.8037 20.3525 12.6836z
M30.4014 224.368c-0.0478516 -0.264648 -0.0986328 -0.53418 -0.149414 -0.794922c30.9805 5.91113 63.0225 17.1299 77.8701 24.7744c13.9766 7.19336 33.1045 20.4268 44.8623 42.6064c10.3779 19.5791 12.6133 43.1904 5.82715 61.626
c-6.03711 16.4082 -20.4883 28.2949 -33.7998 28.2949c-0.891602 0 -1.77637 -0.0546875 -2.6543 -0.163086c-8.78418 -1.08496 -18.7344 -7.19336 -29.5771 -18.1514c-29.7529 -30.0654 -50.7393 -76.5625 -62.3789 -138.192z" />
    <glyph glyph-name="e" unicode="&#xeb;" horiz-adv-x="228" 
d="M236.809 177.082c9.12305 -2.11621 14.8008 -11.2266 12.6914 -20.3428c-10.0215 -43.1729 -26.0801 -83.9551 -47.7383 -121.217c-8.63477 -14.8545 -20.7324 -33.5957 -37.7783 -46.7617c-14.8955 -11.5039 -33.5352 -18.8535 -55.3994 -21.8447
c-6.25391 -0.854492 -12.3008 -1.28223 -18.1309 -1.28223c-17.7881 0 -33.5586 3.97461 -47.0566 11.8838c-20.5078 12.0195 -36.8779 34.1416 -46.0859 62.2871c-8.49902 25.9648 -9.94043 53.3301 -10.249 74.2686c-0.573242 39.1172 2.79785 78.3428 10.0215 116.592
c12.915 68.3916 37.0049 120.793 71.5947 155.752c16.5635 16.7334 32.7607 25.8799 49.5215 27.9521c29.9189 3.7168 60.4014 -17.3574 72.4443 -50.0752c10.1641 -27.6162 7.28809 -60.9707 -7.69238 -89.2285c-12.5684 -23.7031 -33.0732 -43.3701 -59.3027 -56.875
c-21.2471 -10.9375 -62.7754 -24.4453 -98.8125 -29.9365c-2.93066 -24.4014 -4.22949 -49.0674 -3.86621 -73.6895c0.271484 -18.541 1.49219 -42.5967 8.57031 -64.2207c6.53906 -19.9756 17.8359 -35.8613 31.002 -43.5732
c11.2051 -6.56543 25.8252 -8.67871 43.4434 -6.26074c15.9131 2.17383 29.126 7.25098 39.2666 15.082c12.3857 9.56738 22.1025 24.7812 29.1836 36.9629c19.9551 34.335 34.7656 71.9668 44.0205 111.844c2.12012 9.12305 11.2266 14.8037 20.3525 12.6836z
M30.4014 224.368c-0.0478516 -0.264648 -0.0986328 -0.53418 -0.149414 -0.794922c30.9805 5.91113 63.0225 17.1299 77.8701 24.7744c13.9766 7.19336 33.1045 20.4268 44.8623 42.6064c10.3779 19.5791 12.6133 43.1904 5.82715 61.626
c-6.03711 16.4082 -20.4883 28.2949 -33.7998 28.2949c-0.891602 0 -1.77637 -0.0546875 -2.6543 -0.163086c-8.78418 -1.08496 -18.7344 -7.19336 -29.5771 -18.1514c-29.7529 -30.0654 -50.7393 -76.5625 -62.3789 -138.192z" />
    <glyph glyph-name="e" unicode="&#xea;" horiz-adv-x="228" 
d="M236.809 177.082c9.12305 -2.11621 14.8008 -11.2266 12.6914 -20.3428c-10.0215 -43.1729 -26.0801 -83.9551 -47.7383 -121.217c-8.63477 -14.8545 -20.7324 -33.5957 -37.7783 -46.7617c-14.8955 -11.5039 -33.5352 -18.8535 -55.3994 -21.8447
c-6.25391 -0.854492 -12.3008 -1.28223 -18.1309 -1.28223c-17.7881 0 -33.5586 3.97461 -47.0566 11.8838c-20.5078 12.0195 -36.8779 34.1416 -46.0859 62.2871c-8.49902 25.9648 -9.94043 53.3301 -10.249 74.2686c-0.573242 39.1172 2.79785 78.3428 10.0215 116.592
c12.915 68.3916 37.0049 120.793 71.5947 155.752c16.5635 16.7334 32.7607 25.8799 49.5215 27.9521c29.9189 3.7168 60.4014 -17.3574 72.4443 -50.0752c10.1641 -27.6162 7.28809 -60.9707 -7.69238 -89.2285c-12.5684 -23.7031 -33.0732 -43.3701 -59.3027 -56.875
c-21.2471 -10.9375 -62.7754 -24.4453 -98.8125 -29.9365c-2.93066 -24.4014 -4.22949 -49.0674 -3.86621 -73.6895c0.271484 -18.541 1.49219 -42.5967 8.57031 -64.2207c6.53906 -19.9756 17.8359 -35.8613 31.002 -43.5732
c11.2051 -6.56543 25.8252 -8.67871 43.4434 -6.26074c15.9131 2.17383 29.126 7.25098 39.2666 15.082c12.3857 9.56738 22.1025 24.7812 29.1836 36.9629c19.9551 34.335 34.7656 71.9668 44.0205 111.844c2.12012 9.12305 11.2266 14.8037 20.3525 12.6836z
M30.4014 224.368c-0.0478516 -0.264648 -0.0986328 -0.53418 -0.149414 -0.794922c30.9805 5.91113 63.0225 17.1299 77.8701 24.7744c13.9766 7.19336 33.1045 20.4268 44.8623 42.6064c10.3779 19.5791 12.6133 43.1904 5.82715 61.626
c-6.03711 16.4082 -20.4883 28.2949 -33.7998 28.2949c-0.891602 0 -1.77637 -0.0546875 -2.6543 -0.163086c-8.78418 -1.08496 -18.7344 -7.19336 -29.5771 -18.1514c-29.7529 -30.0654 -50.7393 -76.5625 -62.3789 -138.192z" />
    <glyph glyph-name="e" unicode="&#xe9;" horiz-adv-x="228" 
d="M236.809 177.082c9.12305 -2.11621 14.8008 -11.2266 12.6914 -20.3428c-10.0215 -43.1729 -26.0801 -83.9551 -47.7383 -121.217c-8.63477 -14.8545 -20.7324 -33.5957 -37.7783 -46.7617c-14.8955 -11.5039 -33.5352 -18.8535 -55.3994 -21.8447
c-6.25391 -0.854492 -12.3008 -1.28223 -18.1309 -1.28223c-17.7881 0 -33.5586 3.97461 -47.0566 11.8838c-20.5078 12.0195 -36.8779 34.1416 -46.0859 62.2871c-8.49902 25.9648 -9.94043 53.3301 -10.249 74.2686c-0.573242 39.1172 2.79785 78.3428 10.0215 116.592
c12.915 68.3916 37.0049 120.793 71.5947 155.752c16.5635 16.7334 32.7607 25.8799 49.5215 27.9521c29.9189 3.7168 60.4014 -17.3574 72.4443 -50.0752c10.1641 -27.6162 7.28809 -60.9707 -7.69238 -89.2285c-12.5684 -23.7031 -33.0732 -43.3701 -59.3027 -56.875
c-21.2471 -10.9375 -62.7754 -24.4453 -98.8125 -29.9365c-2.93066 -24.4014 -4.22949 -49.0674 -3.86621 -73.6895c0.271484 -18.541 1.49219 -42.5967 8.57031 -64.2207c6.53906 -19.9756 17.8359 -35.8613 31.002 -43.5732
c11.2051 -6.56543 25.8252 -8.67871 43.4434 -6.26074c15.9131 2.17383 29.126 7.25098 39.2666 15.082c12.3857 9.56738 22.1025 24.7812 29.1836 36.9629c19.9551 34.335 34.7656 71.9668 44.0205 111.844c2.12012 9.12305 11.2266 14.8037 20.3525 12.6836z
M30.4014 224.368c-0.0478516 -0.264648 -0.0986328 -0.53418 -0.149414 -0.794922c30.9805 5.91113 63.0225 17.1299 77.8701 24.7744c13.9766 7.19336 33.1045 20.4268 44.8623 42.6064c10.3779 19.5791 12.6133 43.1904 5.82715 61.626
c-6.03711 16.4082 -20.4883 28.2949 -33.7998 28.2949c-0.891602 0 -1.77637 -0.0546875 -2.6543 -0.163086c-8.78418 -1.08496 -18.7344 -7.19336 -29.5771 -18.1514c-29.7529 -30.0654 -50.7393 -76.5625 -62.3789 -138.192z" />
    <glyph glyph-name="f" unicode="f" horiz-adv-x="201" 
d="M219.427 191.184c7.07129 -6.1416 7.82812 -16.8477 1.68945 -23.9258c-19.915 -22.9434 -44.5439 -40.1582 -64.3301 -53.9922c-31.7471 -22.1934 -64.04 -44.1865 -96.3848 -65.6445c31.873 -12.0293 60.042 -36.041 78.3525 -68.1475
c25.7549 -45.1602 30.5059 -104.066 12.4023 -153.73c-5.49707 -15.0889 -11.9404 -25.8604 -20.2764 -33.8916c-11.4971 -11.0801 -25.416 -15.8486 -39.4326 -15.8486c-19.1484 0 -38.4902 8.89258 -52.1406 22.7334c-22.3838 22.6924 -32.1514 55.7959 -38.1572 82.0996
c-20.1416 88.1875 -19.7412 178.549 -12.9482 287.092c5.7793 92.3291 14.8447 185.688 23.6113 275.979c0.905273 9.31934 9.19434 16.1328 18.5176 15.2373c9.31934 -0.905273 16.1426 -9.19434 15.2373 -18.5176c-8.74023 -90.002 -17.7783 -183.07 -23.5205 -274.819
c-2.33008 -37.2041 -3.89355 -72.1797 -4.10352 -105.552c40.0088 26.1924 80.1299 53.3408 119.413 80.8047c23.2217 16.2354 42.2441 30.1064 58.1504 48.4307c6.13867 7.07812 16.8486 7.83398 23.9199 1.69238zM109.297 -37.3242
c-19.7549 34.6367 -55.2773 57.8242 -90.9521 59.5508c1.34668 -46.8018 6.03027 -90.7588 15.8691 -133.837c5.00879 -21.9258 12.8564 -49.2266 29.2402 -65.835c11.8154 -11.9785 31.9541 -17.7812 43.8955 -6.27734c4.42285 4.2627 8.33008 11.1572 11.9453 21.0811
c14.5596 39.9443 10.6357 89.1338 -9.99805 125.317z" />
    <glyph glyph-name="g" unicode="g" horiz-adv-x="303" 
d="M309.432 185.364c9.35059 -0.556641 16.4707 -8.58789 15.9209 -17.9346c-2.12988 -35.7559 -28.6777 -64.1865 -50.0098 -87.0312l-2.88574 -3.09277c-17.0654 -18.3447 -35.7832 -33.874 -55.4365 -47.6064c0.172852 -10.9268 0.311523 -21.8369 0.416992 -32.7402
c0.467773 -49.2773 0.196289 -101.601 -8.5332 -151.943c-10.0352 -57.8887 -29.8477 -105.376 -58.8887 -141.146c-32.6729 -40.2363 -77.1445 -63.4033 -120.734 -63.4033c-3.42871 0 -6.85742 0.142578 -10.2725 0.43457
c-52.5439 4.46289 -99.4404 46.3984 -111.518 99.7051c-5.30078 23.3975 -4.55762 50.2168 2.14746 77.5586c7.35645 30.0039 21 58.082 39.4561 81.1943c23.3369 29.2275 52.8525 48.8672 75.959 62.7109c24.1543 14.4717 49.4648 27.2676 73.9414 39.6396
c29.166 14.7461 57.4746 29.0547 83.7988 45.8457c-1.17676 62.1582 -3.33008 124.636 -5.81934 186.536c-11.043 -47.9961 -23.4453 -95.748 -37.0928 -142.604c-4.66016 -15.9941 -9.12988 -30.333 -16.6895 -43.8203
c-6.8877 -12.2939 -19.1377 -28.3486 -38.377 -35.0469c-6.30176 -2.19043 -13.0674 -3.27539 -20.5215 -3.27539c-2.39746 0 -4.86328 0.112305 -7.41016 0.335938c-12.209 1.07129 -22.8242 4.51367 -31.5439 10.2314c-15.709 10.3027 -26.9482 28.6777 -33.4053 54.6084
c-7.18945 28.875 -8.29492 60.9346 -3.47559 100.893c4.98242 41.3418 14.4209 74.8428 28.8516 102.419c18.6562 35.6445 45.9707 61.1182 76.9111 71.7236c23.3057 7.99316 46.2861 6.41309 64.6914 -4.45605c5.14844 -3.03906 9.72656 -6.68848 13.8066 -10.7002
c-0.142578 3.2998 -0.288086 6.62305 -0.430664 9.91602c-0.407227 9.35352 6.84375 17.2695 16.2012 17.6797c9.37012 0.356445 17.2725 -6.84375 17.6797 -16.2012c3.93359 -89.9717 7.96973 -182.365 10.0518 -274.439c11.0088 8.82812 21.5156 18.4258 31.4082 29.0547
l2.92676 3.13672c17.6182 18.8662 39.54 42.3457 40.9404 65.8994c0.556641 9.34668 8.59766 16.4414 17.9346 15.9189zM107.316 100.979c19.0293 65.3428 35.6514 132.446 49.417 199.509c-4.49023 6.9082 -9.61426 12.1787 -15.0742 15.4043
c-6.00586 3.54785 -12.4834 4.75195 -18.5029 4.75195c-7.12891 0 -13.6201 -1.68848 -17.9473 -3.17383c-22.3662 -7.66797 -43.4541 -27.8467 -57.8613 -55.3682c-12.4902 -23.8721 -20.7451 -53.5576 -25.2285 -90.748
c-4.30762 -35.7285 -3.44238 -63.8945 2.7168 -88.6348c4.26953 -17.1406 10.873 -29.0547 19.0977 -34.4473c4.03906 -2.64844 9.24512 -4.22168 15.9062 -4.80469c5.5957 -0.492188 10.1201 -0.102539 13.8232 1.18652c7.07129 2.46191 14.3389 9.60449 19.9385 19.5957
c5.80664 10.3643 9.64551 22.7666 13.7148 36.7295zM175.485 -149.194c8.24805 47.582 8.50488 96.1309 8.03027 145.833c-0.0371094 3.87012 -0.078125 7.73633 -0.125977 11.6094c-22.7061 -13.3418 -46.0664 -25.1543 -69.1045 -36.8008
c-23.9434 -12.1045 -48.7012 -24.6191 -71.8105 -38.4668c-20.6641 -12.3818 -46.9375 -29.7939 -66.8896 -54.7822c-15.4072 -19.2969 -26.8262 -42.8506 -33.0186 -68.1104c-5.45703 -22.2617 -6.15234 -43.6953 -2.00781 -61.9922
c8.89941 -39.2832 43.0957 -70.1553 81.3135 -73.4043c35.624 -3.03516 73.6494 15.876 101.809 50.5566c24.9814 30.7705 42.8984 74.1875 51.8047 125.558z" />
    <glyph glyph-name="h" unicode="h" horiz-adv-x="371" 
d="M380.033 179.711c9.07227 -2.32617 14.5371 -11.5752 12.207 -20.6436c-10.1436 -39.5176 -22.8721 -78.5566 -37.835 -116.028c-5.2666 -13.1924 -11.1641 -27.1006 -20.1953 -39.4082c-12.0293 -16.4043 -28.7969 -28.4062 -47.2061 -33.792
c-5.89746 -1.72656 -11.4014 -2.58789 -16.6104 -2.58789c-3.80176 0 -7.44727 0.458008 -10.9775 1.37402c-12.959 3.36816 -24.5234 13.1592 -33.4434 28.3154c-9.56348 16.248 -14.3457 34.7217 -17.4453 49c-18.8564 86.8818 -22.8613 187.119 -11.4902 278.661
c-3.06934 -2.23828 -6.11816 -4.83984 -9.09277 -7.87207c-10.7236 -10.9336 -19.623 -25.5947 -27.125 -38.4756c-50.9258 -87.459 -88.1572 -184.35 -110.656 -287.979c-1.72266 -7.93945 -8.74609 -13.3623 -16.5527 -13.3623
c-0.515625 0 -1.03418 0.0341797 -1.55664 0.0820312c-0.345703 -0.0205078 -0.698242 -0.0820312 -1.04395 -0.0820312c-8.21094 0 -15.4277 5.97559 -16.7334 14.3428c-26.3516 168.769 -30.3496 331.361 -11.8799 483.271
c6.65039 54.7246 18.2354 125.328 49.0332 186.045c20.8643 41.1318 48.6475 63.4678 78.2549 62.8135c38.9473 -0.824219 64.0098 -39.2188 73.6416 -71.8516c10.334 -35.0166 11.3037 -75.3574 3.05566 -126.955c-19.2363 -120.318 -84.8271 -244.906 -175.457 -333.28
c-1.06836 -1.04102 -2.23828 -1.90918 -3.47656 -2.61426c2.00781 -37.2686 5.23633 -74.9814 9.62109 -113.061c23.1367 77.9219 54.7656 151.554 94.4453 219.698c8.5332 14.6514 18.7617 31.4326 32.2158 45.1543c15.9707 16.2891 34.0234 25.4902 52.2012 26.6094
c9.33301 0.542969 17.3945 -6.53516 17.9678 -15.8857c0.0810547 -1.28516 -0.0175781 -2.54004 -0.213867 -3.76074c0.230469 -1.62109 0.308594 -3.2832 0.0439453 -4.98535c-14.5527 -93.5527 -11.6602 -199.003 7.94238 -289.317
c2.56055 -11.8018 6.41309 -26.9004 13.5283 -38.9912c4.08008 -6.93555 8.84473 -11.6807 12.7383 -12.6914c2.22852 -0.576172 5.44043 -0.263672 9.54102 0.936523c11.3008 3.30371 21.7363 10.8701 29.3877 21.3018c6.67773 9.09961 11.5889 20.7598 16.0449 31.9248
c14.4238 36.126 26.6973 73.7676 36.4814 111.884c2.32617 9.07227 11.5713 14.5498 20.6396 12.21zM36.0566 470.429c-9.25195 -76.1045 -12.7402 -154.992 -10.4785 -236.068c76.0596 81.792 130.506 190.461 147.311 295.572
c7.42383 46.4219 6.75586 82.0117 -2.09277 111.999c-6.6748 22.6143 -22.6113 47.1377 -41.8311 47.5449c-0.166016 0.00292969 -0.332031 0.00292969 -0.495117 0.00292969c-21.9697 0 -40.0186 -30.8926 -46.7979 -44.252
c-28.4033 -56 -39.2969 -122.832 -45.6152 -174.799z" />
    <glyph glyph-name="i" unicode="i" horiz-adv-x="156" 
d="M164.344 180.355c9.01758 -2.52637 14.2783 -11.8828 11.7451 -20.9043c-15.3193 -54.6738 -29.6074 -103.694 -49.3662 -149.987c-9.69238 -22.7021 -22.6748 -47.043 -45.4922 -55.4102c-4.99219 -1.83105 -10.1367 -2.71289 -15.2988 -2.71289
c-20.5488 0 -41.3857 13.9834 -54.2295 37.7715c-12.7686 23.6523 -16.5098 51.9844 -18.4834 76.5791c-4.51074 56.1621 -1.28906 109.024 2.11914 164.99c1.70605 27.9697 3.46582 56.8887 4.22168 86.625c0.237305 9.36426 8.0918 16.7236 17.3809 16.5234
c9.36426 -0.237305 16.7607 -8.02051 16.5234 -17.3809c-0.769531 -30.3369 -2.5498 -59.5645 -4.27246 -87.8252c-3.33398 -54.7383 -6.48145 -106.441 -2.16406 -160.216c1.69238 -21.0781 4.74121 -45.0693 14.5225 -63.1865
c7.47461 -13.8506 19.7822 -22.3359 28.0068 -19.3242c12.1348 4.44922 22.1934 28.0098 25.9785 36.8818c18.958 44.4141 32.9102 92.3184 47.9033 145.825c2.52637 9.01074 11.8838 14.2842 20.9053 11.751zM15.6162 383.786
c-9.36035 0.244141 -16.7529 8.0293 -16.5117 17.3936c0.410156 15.8994 2.02832 31.8662 4.80957 47.4639c1.64453 9.22168 10.4551 15.3535 19.6699 13.7188c9.21777 -1.64453 15.3594 -10.4492 13.7178 -19.6709c-2.48242 -13.9248 -3.92676 -28.1855 -4.29297 -42.3887
c-0.241211 -9.21484 -7.78418 -16.5195 -16.9443 -16.5195c-0.149414 0 -0.298828 0 -0.448242 0.00292969z" />
    <glyph glyph-name="i" unicode="&#xef;" horiz-adv-x="156" 
d="M164.344 180.355c9.01758 -2.52637 14.2783 -11.8828 11.7451 -20.9043c-15.3193 -54.6738 -29.6074 -103.694 -49.3662 -149.987c-9.69238 -22.7021 -22.6748 -47.043 -45.4922 -55.4102c-4.99219 -1.83105 -10.1367 -2.71289 -15.2988 -2.71289
c-20.5488 0 -41.3857 13.9834 -54.2295 37.7715c-12.7686 23.6523 -16.5098 51.9844 -18.4834 76.5791c-4.51074 56.1621 -1.28906 109.024 2.11914 164.99c1.70605 27.9697 3.46582 56.8887 4.22168 86.625c0.237305 9.36426 8.0918 16.7236 17.3809 16.5234
c9.36426 -0.237305 16.7607 -8.02051 16.5234 -17.3809c-0.769531 -30.3369 -2.5498 -59.5645 -4.27246 -87.8252c-3.33398 -54.7383 -6.48145 -106.441 -2.16406 -160.216c1.69238 -21.0781 4.74121 -45.0693 14.5225 -63.1865
c7.47461 -13.8506 19.7822 -22.3359 28.0068 -19.3242c12.1348 4.44922 22.1934 28.0098 25.9785 36.8818c18.958 44.4141 32.9102 92.3184 47.9033 145.825c2.52637 9.01074 11.8838 14.2842 20.9053 11.751zM15.6162 383.786
c-9.36035 0.244141 -16.7529 8.0293 -16.5117 17.3936c0.410156 15.8994 2.02832 31.8662 4.80957 47.4639c1.64453 9.22168 10.4551 15.3535 19.6699 13.7188c9.21777 -1.64453 15.3594 -10.4492 13.7178 -19.6709c-2.48242 -13.9248 -3.92676 -28.1855 -4.29297 -42.3887
c-0.241211 -9.21484 -7.78418 -16.5195 -16.9443 -16.5195c-0.149414 0 -0.298828 0 -0.448242 0.00292969z" />
    <glyph glyph-name="i" unicode="&#xee;" horiz-adv-x="156" 
d="M164.344 180.355c9.01758 -2.52637 14.2783 -11.8828 11.7451 -20.9043c-15.3193 -54.6738 -29.6074 -103.694 -49.3662 -149.987c-9.69238 -22.7021 -22.6748 -47.043 -45.4922 -55.4102c-4.99219 -1.83105 -10.1367 -2.71289 -15.2988 -2.71289
c-20.5488 0 -41.3857 13.9834 -54.2295 37.7715c-12.7686 23.6523 -16.5098 51.9844 -18.4834 76.5791c-4.51074 56.1621 -1.28906 109.024 2.11914 164.99c1.70605 27.9697 3.46582 56.8887 4.22168 86.625c0.237305 9.36426 8.0918 16.7236 17.3809 16.5234
c9.36426 -0.237305 16.7607 -8.02051 16.5234 -17.3809c-0.769531 -30.3369 -2.5498 -59.5645 -4.27246 -87.8252c-3.33398 -54.7383 -6.48145 -106.441 -2.16406 -160.216c1.69238 -21.0781 4.74121 -45.0693 14.5225 -63.1865
c7.47461 -13.8506 19.7822 -22.3359 28.0068 -19.3242c12.1348 4.44922 22.1934 28.0098 25.9785 36.8818c18.958 44.4141 32.9102 92.3184 47.9033 145.825c2.52637 9.01074 11.8838 14.2842 20.9053 11.751zM15.6162 383.786
c-9.36035 0.244141 -16.7529 8.0293 -16.5117 17.3936c0.410156 15.8994 2.02832 31.8662 4.80957 47.4639c1.64453 9.22168 10.4551 15.3535 19.6699 13.7188c9.21777 -1.64453 15.3594 -10.4492 13.7178 -19.6709c-2.48242 -13.9248 -3.92676 -28.1855 -4.29297 -42.3887
c-0.241211 -9.21484 -7.78418 -16.5195 -16.9443 -16.5195c-0.149414 0 -0.298828 0 -0.448242 0.00292969z" />
    <glyph glyph-name="i" unicode="&#xed;" horiz-adv-x="156" 
d="M164.344 180.355c9.01758 -2.52637 14.2783 -11.8828 11.7451 -20.9043c-15.3193 -54.6738 -29.6074 -103.694 -49.3662 -149.987c-9.69238 -22.7021 -22.6748 -47.043 -45.4922 -55.4102c-4.99219 -1.83105 -10.1367 -2.71289 -15.2988 -2.71289
c-20.5488 0 -41.3857 13.9834 -54.2295 37.7715c-12.7686 23.6523 -16.5098 51.9844 -18.4834 76.5791c-4.51074 56.1621 -1.28906 109.024 2.11914 164.99c1.70605 27.9697 3.46582 56.8887 4.22168 86.625c0.237305 9.36426 8.0918 16.7236 17.3809 16.5234
c9.36426 -0.237305 16.7607 -8.02051 16.5234 -17.3809c-0.769531 -30.3369 -2.5498 -59.5645 -4.27246 -87.8252c-3.33398 -54.7383 -6.48145 -106.441 -2.16406 -160.216c1.69238 -21.0781 4.74121 -45.0693 14.5225 -63.1865
c7.47461 -13.8506 19.7822 -22.3359 28.0068 -19.3242c12.1348 4.44922 22.1934 28.0098 25.9785 36.8818c18.958 44.4141 32.9102 92.3184 47.9033 145.825c2.52637 9.01074 11.8838 14.2842 20.9053 11.751zM15.6162 383.786
c-9.36035 0.244141 -16.7529 8.0293 -16.5117 17.3936c0.410156 15.8994 2.02832 31.8662 4.80957 47.4639c1.64453 9.22168 10.4551 15.3535 19.6699 13.7188c9.21777 -1.64453 15.3594 -10.4492 13.7178 -19.6709c-2.48242 -13.9248 -3.92676 -28.1855 -4.29297 -42.3887
c-0.241211 -9.21484 -7.78418 -16.5195 -16.9443 -16.5195c-0.149414 0 -0.298828 0 -0.448242 0.00292969z" />
    <glyph glyph-name="j" unicode="j" horiz-adv-x="115" 
d="M121.434 185.364c9.34668 -0.556641 16.4756 -8.58789 15.9189 -17.9316c-2.12988 -35.7529 -28.6748 -64.1836 -50.0039 -87.0254l-2.88965 -3.09961c-17.0654 -18.3408 -35.7832 -33.874 -55.4365 -47.6025c0.172852 -10.9238 0.311523 -21.8447 0.416992 -32.7451
c0.467773 -49.2773 0.196289 -101.601 -8.5332 -151.943c-10.0352 -57.8887 -29.8516 -105.376 -58.8926 -141.146c-32.6699 -40.2324 -77.1416 -63.3994 -120.731 -63.4023c-3.43555 0 -6.85742 0.142578 -10.2764 0.43457
c-52.54 4.46289 -99.4404 46.3984 -111.514 99.7051c-5.29785 23.3975 -4.55859 50.2168 2.14258 77.5586c7.35645 30.001 21.0039 58.0791 39.46 81.1953c23.333 29.2275 52.8525 48.8643 75.958 62.7119c24.1543 14.4717 49.4609 27.2676 73.9375 39.6396
c29.166 14.7461 57.4775 29.0576 83.8018 45.8486c-1.87891 99.3496 -6.25391 199.465 -10.5068 296.759c-0.407227 9.35352 6.84375 17.2695 16.2012 17.6797c9.36426 0.414062 17.2734 -6.84375 17.6807 -16.2012c3.93066 -89.9648 7.96973 -182.345 10.0518 -274.446
c11.0088 8.82812 21.5156 18.4229 31.4082 29.0547l2.93066 3.14062c17.6152 18.8633 39.5342 42.3428 40.9385 65.8965c0.55957 9.34668 8.58008 16.4414 17.9375 15.9189zM-12.5088 -149.192c8.24805 47.582 8.50781 96.1318 8.0293 145.83
c-0.0371094 3.87012 -0.078125 7.7334 -0.125977 11.6094c-22.7061 -13.3418 -46.0693 -25.1543 -69.1074 -36.8008c-23.9404 -12.1045 -48.6982 -24.6191 -71.8076 -38.4668c-20.6611 -12.3789 -46.9385 -29.7939 -66.8867 -54.7783
c-15.4111 -19.3008 -26.8301 -42.8506 -33.0225 -68.1104c-5.45703 -22.2617 -6.14844 -43.6953 -2.00391 -61.9922c8.89551 -39.2832 43.0918 -70.1553 81.3096 -73.4043c35.5762 -3.00488 73.6484 15.875 101.808 50.5557
c24.9844 30.7705 42.9014 74.1875 51.8076 125.558zM1.75781 386.2c-8.37305 0 -15.6602 6.20312 -16.7891 14.7324c-2.99512 22.6074 -2.09277 46.3066 2.61133 68.541c1.93945 9.16016 10.9336 15.0107 20.1006 13.0771
c9.16016 -1.93945 15.0176 -10.9365 13.0781 -20.1006c-3.91699 -18.5 -4.66602 -38.2344 -2.16992 -57.0605c1.23145 -9.28613 -5.29688 -17.8086 -14.5791 -19.04c-0.759766 -0.101562 -1.50879 -0.149414 -2.25195 -0.149414z" />
    <glyph glyph-name="k" unicode="k" horiz-adv-x="259" 
d="M271.187 181.854c8.67188 -3.53418 12.8428 -13.4307 9.3125 -22.0957c-21.4951 -52.7539 -42.0273 -99.4746 -75.6738 -137.059c-8.01074 -8.94629 -19.0771 -20.04 -33.6973 -26.4639c-8.83105 -3.87988 -18.4629 -5.82617 -28.5693 -5.82617
c-8.81445 0 -17.9922 1.47852 -27.3223 4.44238c-33.8633 10.7539 -58.9189 36.8984 -75.7842 61.0215c2.47266 -19.7041 5.22656 -39.4902 8.33301 -59.3779c1.44824 -9.25195 -4.88379 -17.9238 -14.1357 -19.3682
c-0.884766 -0.138672 -1.7666 -0.206055 -2.63867 -0.206055c-8.21094 0 -15.4277 5.97559 -16.7334 14.3428c-10.1475 64.9971 -16.9814 129.065 -20.4912 191.974c-0.0136719 0.196289 -0.0234375 0.389648 -0.0302734 0.585938
c-5.56543 100.23 -2.69336 197.48 8.64062 290.708c6.6543 54.7275 18.2393 125.331 49.0371 186.045c20.8604 41.1318 48.6836 63.4717 78.25 62.8135c38.9512 -0.824219 64.0137 -39.2188 73.6416 -71.8516c10.3369 -35.0166 11.3066 -75.3574 3.05859 -126.955
c-18.8906 -118.154 -91.7725 -259.5 -178.315 -346.762c1.39062 -23.208 3.25293 -46.582 5.5625 -70.1055c0.580078 0.250977 1.13281 0.549805 1.75 0.739258c10.5537 3.25195 20.8672 12.3916 29.7021 20.7002c30.5127 28.6885 58.2852 61.3213 82.5439 96.9893
c5.2666 7.74316 15.8145 9.75098 23.5566 4.48438c7.74316 -5.2666 9.75098 -15.8145 4.48438 -23.5566c-25.6533 -37.71 -55.0439 -72.2383 -87.3545 -102.622c-7.70898 -7.24707 -16.4385 -14.9766 -26.5352 -20.959c13.5186 -21.4541 34.9521 -47.1885 63.7148 -56.3213
c8.40723 -2.67285 20.7793 -4.81641 31.9883 0.108398c8.75293 3.8457 16.7871 12.1348 22.0713 18.0361c30.0215 33.5342 49.251 77.46 69.5322 127.232c3.53027 8.67188 13.4229 12.8438 22.1016 9.30664zM36.0566 470.436
c-9.59473 -78.9355 -12.9883 -160.883 -10.1973 -245.15c72.1699 83.0195 130.771 202.938 147.032 304.654c7.4209 46.4219 6.75586 82.0117 -2.0957 111.999c-6.6748 22.6143 -22.6113 47.1377 -41.8311 47.5449
c-0.166016 0.00292969 -0.332031 0.00292969 -0.495117 0.00292969c-21.9697 0 -40.0186 -30.8926 -46.7979 -44.252c-28.4004 -55.9961 -39.2969 -122.828 -45.6152 -174.799z" />
    </font>
</defs>
</svg>
