<?xml version="1.0" standalone="no"?>
<!DOCTYPE svg PUBLIC "-//W3C//DTD SVG 1.1//EN" "http://www.w3.org/Graphics/SVG/1.1/DTD/svg11.dtd" >
<svg>
<defs>
<font id="Viper Fangs" horiz-adv-x="250" >
<font-face units-per-em="100" ascent="80" descent="-20" />
<glyph unicode="!" horiz-adv-x="56" d="M21.000000000000000 112.000000000000000 L21.000000000000000 31.500000000000000 C9.411111111100013 31.500000000000000 0.000000000000000 40.911111111100013 0.000000000000000 52.500000000000000 L0.000000000000000 112.000000000000000 L21.000000000000000 112.000000000000000 zM21.000000000000000 21.000000000000000 L21.000000000000000 0.000000000000000 C9.411111111100013 0.000000000000000 0.000000000000000 9.411111111100013 0.000000000000000 21.000000000000000 L21.000000000000000 21.000000000000000 z" />
<glyph unicode="&#x22;" horiz-adv-x="56" d="M21.000000000000000 91.000000000000000 C9.411111111100013 91.000000000000000 0.000000000000000 100.411111111100013 0.000000000000000 112.000000000000000 L21.000000000000000 112.000000000000000 L21.000000000000000 91.000000000000000 zM42.000000000000000 91.000000000000000 C30.411111111100013 91.000000000000000 21.000000000000000 100.411111111100013 21.000000000000000 112.000000000000000 L42.000000000000000 112.000000000000000 L42.000000000000000 91.000000000000000 z" />
<glyph unicode="'" horiz-adv-x="56" d="M21.000000000000000 91.000000000000000 C9.411111111100013 91.000000000000000 0.000000000000000 100.411111111100013 0.000000000000000 112.000000000000000 L21.000000000000000 112.000000000000000 L21.000000000000000 91.000000000000000 z" />
<glyph unicode="." horiz-adv-x="56" d="M21.000000000000000 0.000000000000000 C9.411111111100013 0.000000000000000 0.000000000000000 9.411111111100013 0.000000000000000 21.000000000000000 L21.000000000000000 21.000000000000000 L21.000000000000000 0.000000000000000 z" />
<glyph unicode="?" horiz-adv-x="56" d="M38.500000000000000 21.000000000000000 L38.500000000000000 0.000000000000000 C26.911111111100013 0.000000000000000 17.500000000000000 9.411111111100013 17.500000000000000 21.000000000000000 L38.500000000000000 21.000000000000000 zM56.000000000000000 79.586111111099996 C56.000000000000000 71.866666666699984 52.266666666700019 63.369444444400017 44.897222222200014 54.308333333299970 C42.602777777799986 51.488888888900021 40.308333333300027 49.058333333299970 38.500000000000000 47.250000000000000 L38.500000000000000 31.500000000000000 C26.911111111100013 31.500000000000000 17.500000000000000 40.911111111100013 17.500000000000000 52.500000000000000 L17.500000000000000 58.586111111100024 C17.519444444399994 58.605555555600006 25.024999999999977 63.136111111100007 28.777777777799997 67.783333333299993 C33.366666666699984 73.480555555600006 35.000000000000000 77.602777777799986 35.000000000000000 79.586111111099996 C35.000000000000000 81.569444444400006 33.366666666699984 85.711111111099996 28.777777777799997 91.388888888899999 C28.524999999999977 91.719444444399983 28.252777777800020 92.030555555600017 28.000000000000000 92.341666666700007 C27.747222222199980 92.030555555600017 27.475000000000023 91.719444444399983 27.222222222200003 91.388888888899999 C22.633333333300016 85.691666666700002 21.000000000000000 81.569444444400006 21.000000000000000 79.586111111099996 L0.000000000000000 79.586111111099996 C0.000000000000000 87.305555555599994 3.733333333299981 95.802777777800003 11.102777777799986 104.863888888899993 C16.002777777800020 110.872222222199980 20.902777777799997 115.169444444400000 21.116666666699984 115.344444444399983 L28.000000000000000 121.313888888900010 L34.883333333300016 115.344444444399983 C35.097222222200003 115.169444444400000 39.997222222199980 110.872222222199980 44.897222222200014 104.863888888899993 C52.266666666700019 95.802777777800003 56.000000000000000 87.305555555599994 56.000000000000000 79.586111111099996 z" />
<glyph unicode="A" horiz-adv-x="56" d="M56.000000000000000 77.000000000000000 L56.000000000000000 0.000000000000000 L56.000000000000000 -21.000000000000000 C44.411111111100013 -21.000000000000000 35.000000000000000 -11.588888888899987 35.000000000000000 0.000000000000000 L35.000000000000000 35.000000000000000 L21.000000000000000 35.000000000000000 L21.000000000000000 0.000000000000000 L0.000000000000000 0.000000000000000 L0.000000000000000 77.000000000000000 C0.000000000000000 84.719444444399983 3.733333333299981 93.216666666700007 11.102777777799986 102.277777777799997 C16.002777777800020 108.286111111100013 20.902777777799997 112.583333333300004 21.116666666699984 112.758333333300016 L28.000000000000000 118.727777777799986 L34.883333333300016 112.758333333300016 C35.097222222200003 112.583333333300004 39.997222222199980 108.286111111100013 44.897222222200014 102.277777777799997 C52.266666666700019 93.216666666700007 56.000000000000000 84.719444444399983 56.000000000000000 77.000000000000000 zM35.000000000000000 56.000000000000000 L35.000000000000000 77.000000000000000 C35.000000000000000 79.002777777800020 33.308333333300027 83.222222222200003 28.602777777799986 89.016666666700019 C28.408333333299993 89.269444444399994 28.194444444400006 89.522222222200014 28.000000000000000 89.755555555599983 C27.747222222199980 89.444444444400006 27.475000000000023 89.133333333300016 27.222222222200003 88.802777777800003 C22.633333333300016 83.105555555600006 21.000000000000000 78.983333333299981 21.000000000000000 77.000000000000000 L21.000000000000000 56.000000000000000 L35.000000000000000 56.000000000000000 z" />
<glyph unicode="B" horiz-adv-x="56" d="M56.000000000000000 75.352777777800000 C56.000000000000000 69.111111111100001 53.550000000000011 62.344444444399983 48.708333333300004 55.188888888900010 C53.550000000000011 47.955555555599972 56.000000000000000 41.169444444400028 56.000000000000000 34.927777777799975 C56.000000000000000 27.208333333300004 52.266666666700019 18.711111111099967 44.897222222200014 9.649999999999977 C39.997222222199980 3.641666666700019 35.097222222200003 -0.655555555600017 34.883333333300016 -0.830555555599972 L28.000000000000000 -6.800000000000011 L21.116666666699984 -0.830555555599972 C20.902777777799997 -0.655555555600017 16.002777777800020 3.641666666700019 11.102777777799986 9.649999999999977 C3.733333333299981 18.711111111100024 0.000000000000000 27.208333333300004 0.000000000000000 34.927777777799975 L0.000000000000000 111.927777777800003 L35.855555555600006 111.927777777800003 C37.274999999999977 110.508333333300016 41.202777777800009 106.425000000000011 45.130555555599983 101.194444444400006 C52.344444444399983 91.608333333299981 56.000000000000000 82.916666666699996 56.000000000000000 75.352777777799986 zM21.116666666699999 55.461111111100003 C21.116666666699984 55.461111111100024 21.291666666699996 55.616666666699984 21.583333333300004 55.888888888899999 L30.936111111099990 66.447222222199997 C33.872222222199980 70.647222222200014 34.980555555600006 73.738888888899993 34.980555555600006 75.372222222199980 C34.980555555600006 77.491666666699984 33.250000000000000 82.061111111099990 28.350000000000023 88.574999999999989 C27.727777777799986 89.391666666700019 27.105555555600006 90.188888888900010 26.502777777800020 90.927777777800003 L21.000000000000000 90.927777777800003 L21.000000000000000 34.927777777799975 C21.000000000000000 32.905555555600017 22.672222222199991 28.705555555599972 27.397222222200014 22.911111111100013 C27.591666666700007 22.658333333299993 27.805555555599994 22.405555555600017 28.000000000000000 22.172222222199991 C28.252777777800020 22.483333333299981 28.524999999999977 22.794444444400028 28.777777777799997 23.125000000000000 C33.366666666699984 28.822222222200025 35.000000000000000 32.944444444400006 35.000000000000000 34.927777777799975 C35.000000000000000 36.677777777799975 33.736111111100001 40.100000000000023 30.352777777799986 44.786111111100013 L22.536111111100013 53.808333333299970 C21.622222222199980 54.702777777800009 21.038888888899976 55.227777777799986 21.019444444399994 55.247222222199980 L21.155555555600017 55.402777777799997 L21.116666666699984 55.461111111100024 z" />
<glyph unicode="C" horiz-adv-x="56" d="M27.940298507500000 -7.200000000000000 L21.032835820900004 -1.126865671600001 C20.819402985099998 -0.952238806000025 15.929850746300019 3.374626865700009 11.059701492499983 9.408955223900023 C3.725373134300014 18.489552238800002 0.000000000000000 26.988059701499992 0.000000000000000 34.671641791000013 L0.000000000000000 76.582089552199989 C0.000000000000000 84.265671641799997 3.725373134300014 92.764179104499988 11.059701492499983 101.864179104500010 C15.929850746300019 107.898507462699996 20.819402985099998 112.225373134300014 21.032835820900004 112.400000000000006 L27.940298507500017 118.473134328399993 L34.847761193999986 112.400000000000006 C35.061194029899980 112.225373134300014 39.950746268700016 107.898507462699996 44.820895522400008 101.864179104500010 C47.808955223900000 98.158208955199996 50.234328358200003 94.510447761199998 52.000000000000000 91.037313432800005 L33.334328358200025 81.510447761199998 C32.208955223899977 83.702985074600008 30.598507462700013 86.128358208999998 28.502985074600019 88.708955223900006 C28.308955223900000 88.941791044799999 28.114925373099993 89.174626865700020 27.920895522399974 89.407462686600013 C27.668656716399994 89.097014925400003 27.416417910400014 88.786567164199994 27.164179104500022 88.476119402999984 C22.565671641800009 82.732835820899993 20.935820895500001 78.561194029899980 20.935820895500001 76.582089552199989 L20.935820895500001 34.671641791000013 C20.935820895500001 32.692537313400010 22.565671641800009 28.520895522399996 27.164179104500022 22.777611940300005 C27.416417910400014 22.467164179099996 27.668656716399994 22.156716417899986 27.920895522399974 21.846268656699976 C28.114925373099993 22.079104477600026 28.308955223900000 22.311940298500019 28.502985074600019 22.544776119400012 C30.579104477600026 25.125373134299991 32.208955223899977 27.550746268699982 33.334328358200025 29.743283582099991 L52.000000000000000 20.216417910400025 C50.214925373100016 16.723880597000004 47.808955223900000 13.095522388099994 44.820895522400008 9.389552238799979 C39.950746268700016 3.355223880600022 35.061194029899980 -0.971641791000025 34.847761193999986 -1.146268656699988 L27.940298507500017 -7.199999999999989 z" />
<glyph unicode="D" horiz-adv-x="56" d="M44.897222222200000 107.055555555599994 C52.266666666700019 97.994444444400017 56.000000000000000 89.497222222199980 56.000000000000000 81.777777777799997 L56.000000000000000 34.527777777799997 C56.000000000000000 26.808333333299970 52.266666666700019 18.311111111099990 44.897222222200014 9.250000000000000 C39.997222222199980 3.241666666699984 35.097222222200003 -1.055555555599994 34.883333333300016 -1.230555555600006 L28.000000000000000 -7.199999999999989 L21.116666666699984 -1.230555555600006 C20.902777777799997 -1.055555555599994 16.002777777800020 3.241666666699984 11.102777777799986 9.250000000000000 C3.733333333299981 18.311111111099990 0.000000000000000 26.808333333299970 0.000000000000000 34.527777777799997 L0.000000000000000 111.527777777799997 L40.988888888900021 111.527777777799997 C42.233333333299981 110.205555555600000 43.555555555599994 108.688888888900010 44.897222222200014 107.055555555599994 zM35.000000000000000 81.777777777799997 C35.000000000000000 83.391666666700019 33.911111111100013 86.405555555600017 31.072222222200025 90.527777777799997 L21.000000000000000 90.527777777799997 L21.000000000000000 34.527777777799997 C21.000000000000000 32.505555555599983 22.672222222199991 28.305555555599994 27.397222222200014 22.511111111099979 C27.591666666700007 22.258333333300016 27.805555555599994 22.005555555599983 28.000000000000000 21.772222222200014 C28.252777777800020 22.083333333300004 28.524999999999977 22.394444444399994 28.777777777799997 22.725000000000023 C33.366666666699984 28.422222222199991 35.000000000000000 32.544444444400028 35.000000000000000 34.527777777799997 L35.000000000000000 81.777777777799997 z" />
<glyph unicode="E" horiz-adv-x="56" d="M21.000000000000000 90.527777777799997 L21.000000000000000 73.027777777799997 L42.000000000000000 73.027777777799997 C42.000000000000000 61.438888888900010 32.588888888899987 52.027777777799997 21.000000000000000 52.027777777799997 L21.000000000000000 34.527777777799997 C21.000000000000000 32.505555555599983 22.672222222199991 28.305555555599994 27.397222222200014 22.511111111099979 C27.591666666700007 22.258333333300016 27.805555555599994 22.005555555599983 28.000000000000000 21.772222222200014 C28.252777777800020 22.083333333300004 28.524999999999977 22.394444444399994 28.777777777799997 22.725000000000023 C33.366666666699984 28.422222222199991 35.000000000000000 32.544444444400028 35.000000000000000 34.527777777799997 L56.000000000000000 34.527777777799997 C56.000000000000000 26.808333333299970 52.266666666700019 18.311111111099990 44.897222222200014 9.250000000000000 C39.997222222199980 3.241666666699984 35.097222222200003 -1.055555555599994 34.883333333300016 -1.230555555600006 L28.000000000000000 -7.199999999999989 L21.116666666699984 -1.230555555600006 C20.902777777799997 -1.055555555599994 16.002777777800020 3.241666666699984 11.102777777799986 9.250000000000000 C3.733333333299981 18.311111111099990 0.000000000000000 26.808333333299970 0.000000000000000 34.527777777799997 L0.000000000000000 111.527777777799997 L56.000000000000000 111.527777777799997 L56.000000000000000 90.527777777799997 L21.000000000000000 90.527777777799997 z" />
<glyph unicode="F" horiz-adv-x="56.000000000001165" d="M20.951250000000002 73.329374999999999 L41.902499999999975 73.329374999999999 C41.902499999999975 61.767388888899973 32.513236111100014 52.378125000000011 20.951250000000016 52.378125000000011 L20.951250000000016 0.000000000000000 L0.000000000000000 0.000000000000000 L0.000000000000000 111.740000000000009 L55.870000000000005 111.740000000000009 L55.870000000000005 90.788749999999993 L20.951250000000016 90.788749999999993 L20.951250000000016 73.329374999999999 z" />
<glyph unicode="G" horiz-adv-x="56" d="M56.000000000000000 66.280555555600003 L56.000000000000000 34.780555555600017 C56.000000000000000 27.080555555599972 52.266666666700019 18.544444444399971 44.916666666699996 9.444444444400006 C40.036111111100013 3.397222222200014 35.136111111099979 -0.938888888900010 34.922222222199991 -1.113888888900021 L28.000000000000000 -7.199999999999989 L21.077777777800009 -1.113888888900021 C20.863888888900021 -0.938888888900010 15.963888888899987 3.397222222200014 11.083333333300004 9.444444444400006 C3.733333333299981 18.563888888900010 0.000000000000000 27.080555555599972 0.000000000000000 34.780555555600017 L0.000000000000000 76.780555555600017 C0.000000000000000 84.480555555600006 3.733333333299981 93.016666666700019 11.083333333300004 102.116666666699984 C15.963888888899987 108.163888888900004 20.863888888900021 112.500000000000000 21.077777777800009 112.675000000000011 L28.000000000000000 118.761111111100007 L34.941666666699973 112.675000000000011 C35.155555555600017 112.500000000000000 40.055555555599994 108.163888888900004 44.936111111099990 102.116666666699984 C47.930555555599994 98.402777777799997 50.341666666700007 94.766666666700019 52.130555555599983 91.266666666700019 L33.425000000000011 81.719444444399983 C32.297222222199991 83.916666666699996 30.663888888899976 86.347222222200003 28.583333333300004 88.933333333299998 C28.388888888899999 89.166666666699996 28.194444444400006 89.400000000000006 28.000000000000000 89.633333333300016 C27.747222222199980 89.322222222199997 27.494444444400017 89.011111111100007 27.241666666699984 88.699999999999989 C22.633333333300016 82.944444444400006 21.000000000000000 78.763888888899999 21.000000000000000 76.780555555600017 L21.000000000000000 34.780555555600017 C21.000000000000000 32.738888888900021 22.691666666700030 28.500000000000000 27.416666666699996 22.627777777800020 C27.611111111100001 22.394444444399994 27.805555555599994 22.161111111100013 28.000000000000000 21.927777777799975 C28.252777777800020 22.238888888900021 28.505555555599983 22.550000000000011 28.758333333300016 22.861111111100001 C33.366666666699984 28.616666666699984 35.000000000000000 32.797222222199991 35.000000000000000 34.780555555600017 L35.000000000000000 51.716666666700007 C30.858333333299981 53.680555555599994 28.000000000000000 57.899999999999977 28.000000000000000 62.780555555600017 L28.000000000000000 66.280555555600017 L56.000000000000000 66.280555555600017 z" />
<glyph unicode="H" horiz-adv-x="56" d="M56.000000000000000 112.000000000000000 L56.000000000000000 0.000000000000000 L56.000000000000000 -21.000000000000000 C44.411111111100013 -21.000000000000000 35.000000000000000 -11.588888888899987 35.000000000000000 0.000000000000000 L35.000000000000000 45.500000000000000 L21.000000000000000 45.500000000000000 L21.000000000000000 0.000000000000000 L0.000000000000000 0.000000000000000 L0.000000000000000 112.000000000000000 L21.000000000000000 112.000000000000000 L21.000000000000000 66.500000000000000 L35.000000000000000 66.500000000000000 L35.000000000000000 112.000000000000000 L56.000000000000000 112.000000000000000 z" />
<glyph unicode="I" horiz-adv-x="56" d="M21.000000000000000 -21.000000000000000 C9.411111111100013 -21.000000000000000 0.000000000000000 -11.588888888899987 0.000000000000000 0.000000000000000 L0.000000000000000 112.000000000000000 L21.000000000000000 112.000000000000000 L21.000000000000000 0.000000000000000 L21.000000000000000 -21.000000000000000 z" />
<glyph unicode="J" horiz-adv-x="56" d="M28.000000000000000 -7.200000000000000 L21.077777777800009 -1.113888888900021 C20.863888888900021 -0.938888888900010 15.963888888899987 3.397222222200014 11.083333333300004 9.444444444400006 C3.733333333299981 18.544444444400028 0.000000000000000 27.061111111099990 0.000000000000000 34.761111111099979 L0.000000000000000 59.261111111099979 L21.000000000000000 59.261111111099979 L21.000000000000000 34.761111111099979 C21.000000000000000 32.777777777799997 22.633333333300016 28.597222222200003 27.241666666699984 22.841666666700007 C27.494444444400017 22.530555555600017 27.747222222199980 22.219444444399983 28.000000000000000 21.908333333299993 C28.252777777800020 22.219444444399983 28.505555555599983 22.530555555600017 28.758333333300016 22.841666666700007 C33.366666666699984 28.597222222200003 35.000000000000000 32.777777777799997 35.000000000000000 34.761111111099979 L35.000000000000000 83.761111111100007 C35.000000000000000 85.744444444400017 33.366666666699984 89.925000000000011 28.758333333300016 95.680555555599994 C25.005555555599983 100.386111111100007 21.097222222200003 103.847222222200003 21.058333333300027 103.886111111100007 L34.922222222199991 119.655555555600017 C35.136111111099979 119.480555555600006 40.036111111100013 115.144444444399994 44.916666666699996 109.097222222200003 C52.266666666700019 99.997222222199980 56.000000000000000 91.461111111099996 56.000000000000000 83.761111111100007 L56.000000000000000 34.761111111099979 C56.000000000000000 27.061111111099990 52.266666666700019 18.544444444399971 44.916666666699996 9.425000000000011 C40.036111111100013 3.377777777800020 35.136111111099979 -0.958333333300004 34.922222222199991 -1.133333333300016 L28.000000000000000 -7.199999999999989 z" />
<glyph unicode="K" horiz-adv-x="56" d="M44.916666666699996 58.683333333299998 C44.177777777799975 57.750000000000000 43.419444444400028 56.855555555600006 42.680555555599994 56.019444444399994 C43.399999999999977 55.183333333299970 44.158333333299993 54.288888888899976 44.916666666699996 53.355555555600006 C52.266666666700019 44.236111111100001 56.000000000000000 35.719444444399983 56.000000000000000 28.019444444399994 L56.000000000000000 -21.000000000000000 C44.411111111100013 -21.000000000000000 35.000000000000000 -11.588888888899987 35.000000000000000 0.000000000000000 L35.000000000000000 28.000000000000000 C35.000000000000000 29.983333333299981 33.366666666699984 34.163888888899976 28.758333333300016 39.919444444400028 C24.986111111100001 44.625000000000000 21.097222222200003 48.086111111100024 21.058333333300027 48.125000000000000 L21.000000000000000 48.183333333299970 L21.000000000000000 0.019444444399994 L0.000000000000000 0.019444444399994 L0.000000000000000 112.019444444399994 L21.000000000000000 112.019444444399994 L21.000000000000000 63.855555555600006 L21.077777777800009 63.913888888900004 C21.097222222200003 63.933333333299998 25.005555555599983 67.394444444399994 28.758333333300016 72.099999999999994 C33.366666666699984 77.855555555600006 35.000000000000000 82.036111111100013 35.000000000000000 84.019444444399994 L35.000000000000000 112.019444444399994 L56.000000000000000 112.019444444399994 L56.000000000000000 84.019444444399994 C56.000000000000000 76.319444444400006 52.266666666700019 67.802777777800003 44.916666666699996 58.683333333299970 z" />
<glyph unicode="L" horiz-adv-x="56" d="M56.000000000000000 21.000000000000000 C56.000000000000000 9.411111111100013 46.588888888899987 0.000000000000000 35.000000000000000 0.000000000000000 L0.000000000000000 0.000000000000000 L0.000000000000000 82.250000000000000 C0.000000000000000 89.949999999999989 3.733333333299981 98.486111111100001 11.083333333300004 107.586111111099996 C15.963888888899987 113.633333333300016 20.863888888900021 117.969444444399983 21.077777777800009 118.144444444399994 L28.000000000000000 110.250000000000000 L34.941666666699973 102.375000000000000 C34.902777777799997 102.336111111099996 30.994444444400017 98.875000000000000 27.241666666699984 94.169444444400000 C22.633333333300016 88.413888888900004 21.000000000000000 84.233333333299981 21.000000000000000 82.250000000000000 L21.000000000000000 21.000000000000000 L56.000000000000000 21.000000000000000 z" />
<glyph unicode="M" horiz-adv-x="56" d="M91.250000000000000 -21.100000000000001 C79.629273504300045 -21.100000000000023 70.192307692300005 -11.663034187999983 70.192307692300005 -0.042307692300028 L70.192307692300005 76.993750000000006 C70.192307692300005 78.982532051299984 68.554487179500029 83.116079059800001 63.952991452999981 88.828952991499989 C63.699519230799979 89.160416666700002 63.426549145299987 89.472382478599997 63.173076923099984 89.784348290600008 C62.978098290599974 89.550373931600006 62.763621794900018 89.296901709400004 62.568643162400008 89.043429487200001 C57.850160256399988 83.233066239300001 56.153846153799975 79.002029914499985 56.153846153799975 76.993750000000006 L56.153846153799975 -0.042307692300028 L35.096153846200025 -0.042307692300028 L35.096153846200025 76.993750000000006 C35.096153846200025 78.982532051299984 33.458333333300004 83.116079059800001 28.856837606800013 88.828952991499989 C28.603365384600011 89.160416666700002 28.330395299100019 89.472382478599997 28.076923076900016 89.784348290600008 C27.881944444400006 89.550373931600006 27.667467948699993 89.296901709400004 27.472489316199983 89.043429487200001 C22.754006410300008 83.233066239300001 21.057692307699995 79.002029914499985 21.057692307699995 76.993750000000006 L21.057692307699995 -0.042307692300028 L0.000000000000000 -0.042307692300028 L0.000000000000000 76.993750000000006 C0.000000000000000 84.734401709400004 3.743589743600012 93.254967948699999 11.133279914500008 102.340972222199980 C16.046741452999981 108.365811965799992 20.960202991500012 112.674839743599989 21.174679487200024 112.850320512800010 L28.076923076900016 118.836164529900003 L34.979166666699996 112.850320512800010 C35.193643162400008 112.674839743599989 40.107104700899981 108.365811965799992 45.020566239300024 102.340972222199980 C45.235042734999979 102.087500000000006 45.430021367499990 101.834027777800003 45.625000000000000 101.580555555600000 C45.819978632500010 101.834027777800003 46.034455128200023 102.087500000000006 46.229433760699976 102.340972222199980 C51.142895299100019 108.365811965799992 56.056356837599992 112.674839743599989 56.270833333300004 112.850320512800010 L63.173076923099984 118.836164529900003 L70.075320512799976 112.850320512800010 C70.289797008499988 112.674839743599989 75.203258547000019 108.365811965799992 80.116720085499992 102.340972222199980 C87.506410256400045 93.254967948699999 91.250000000000000 84.734401709400004 91.250000000000000 76.993750000000006 L91.250000000000000 -21.100000000000023 z" />
<glyph unicode="N" horiz-adv-x="56" d="M56.000000000000000 112.000000000000000 L56.000000000000000 -21.000000000000000 C44.411111111100013 -21.000000000000000 35.000000000000000 -11.588888888899987 35.000000000000000 0.000000000000000 L35.000000000000000 42.350000000000023 C35.000000000000000 49.816666666700030 30.041666666699996 60.161111111100013 21.000000000000000 71.594444444399983 L21.000000000000000 0.000000000000000 L0.000000000000000 0.000000000000000 L0.000000000000000 121.022222222200014 L17.383333333300016 105.933333333299998 C17.752777777800020 105.622222222199980 26.191666666700030 98.252777777800020 35.000000000000000 87.675000000000011 L35.000000000000000 112.000000000000000 L56.000000000000000 112.000000000000000 z" />
<glyph unicode="O" horiz-adv-x="56" d="M28.000000000000000 -6.900000000000000 L21.116666666699984 -0.930555555599994 C20.902777777799997 -0.755555555599983 16.002777777800020 3.541666666699996 11.102777777799986 9.550000000000011 C3.733333333299981 18.611111111100001 0.000000000000000 27.108333333299981 0.000000000000000 34.827777777800009 L0.000000000000000 112.002777777800020 L56.000000000000000 112.002777777800020 L56.000000000000000 34.827777777800009 C56.000000000000000 27.108333333299981 52.266666666700019 18.611111111100001 44.897222222200014 9.550000000000011 C39.997222222199980 3.541666666699996 35.097222222200003 -0.755555555599983 34.883333333300016 -0.930555555599994 L28.000000000000000 -6.899999999999977 zM21.000000000000000 91.002777777800006 L21.000000000000000 34.827777777800009 C21.000000000000000 32.805555555599994 22.672222222199991 28.605555555600006 27.397222222200014 22.811111111099990 C27.591666666700007 22.558333333299970 27.805555555599994 22.324999999999989 28.000000000000000 22.072222222200025 C28.252777777800020 22.383333333300016 28.524999999999977 22.694444444400006 28.777777777799997 23.024999999999977 C33.366666666699984 28.702777777800009 35.000000000000000 32.844444444399983 35.000000000000000 34.827777777800009 L35.000000000000000 91.002777777800020 L21.000000000000000 91.002777777800020 z" />
<glyph unicode="P" horiz-adv-x="56" d="M56.000000000000000 77.194444444400006 C56.000000000000000 69.144444444399994 53.627777777800020 61.211111111100024 48.980555555600006 53.608333333299981 C45.519444444399994 47.949999999999989 40.794444444400028 42.486111111100001 34.902777777799997 37.333333333300004 C29.827777777800009 32.880555555599983 24.733333333299981 29.438888888900010 21.000000000000000 27.144444444399994 L21.000000000000000 -21.000000000000000 C9.411111111100013 -21.000000000000000 0.000000000000000 -11.588888888899987 0.000000000000000 0.000000000000000 L0.000000000000000 112.000000000000000 L35.913888888899976 112.000000000000000 C37.644444444399994 110.405555555600017 41.280555555600017 106.905555555600017 44.897222222200014 102.452777777800009 C52.266666666700019 93.391666666700019 56.000000000000000 84.894444444399994 56.000000000000000 77.194444444400006 zM35.000000000000000 77.174999999999997 C35.000000000000000 79.177777777800003 33.308333333300027 83.397222222200014 28.602777777799986 89.191666666700002 C28.097222222200003 89.833333333300004 27.591666666700007 90.436111111099990 27.086111111100024 91.000000000000000 L21.000000000000000 91.000000000000000 L21.000000000000000 53.044444444400028 C21.136111111099979 53.180555555599994 21.272222222200014 53.297222222199991 21.408333333299993 53.413888888899976 C27.611111111100001 58.897222222200014 35.000000000000000 67.472222222200003 35.000000000000000 77.175000000000011 z" />
<glyph unicode="Q" horiz-adv-x="56" d="M56.000000000000000 77.174999999999997 L56.000000000000000 34.824999999999989 C56.000000000000000 27.105555555600006 52.266666666700019 18.608333333299981 44.897222222200014 9.547222222199991 C42.602777777799986 6.727777777799986 40.308333333300027 4.297222222199991 38.500000000000000 2.488888888900021 L38.500000000000000 -21.000000000000000 C26.911111111100013 -21.000000000000000 17.500000000000000 -11.588888888899987 17.500000000000000 0.000000000000000 L17.500000000000000 2.488888888900021 C15.691666666699973 4.297222222199991 13.397222222200014 6.727777777799986 11.102777777799986 9.547222222199991 C3.733333333299981 18.608333333299981 0.000000000000000 27.105555555600006 0.000000000000000 34.824999999999989 L0.000000000000000 77.175000000000011 C0.000000000000000 84.894444444399994 3.733333333299981 93.391666666700019 11.102777777799986 102.452777777800009 C16.002777777800020 108.461111111099996 20.902777777799997 112.758333333300016 21.116666666699984 112.933333333299998 L28.000000000000000 118.902777777799997 L34.883333333300016 112.933333333299998 C35.097222222200003 112.758333333300016 39.997222222199980 108.461111111099996 44.897222222200014 102.452777777800009 C52.266666666700019 93.391666666700019 56.000000000000000 84.894444444399994 56.000000000000000 77.175000000000011 zM21.000000000000000 34.825000000000003 C21.000000000000000 32.822222222200025 22.691666666699973 28.602777777799986 27.397222222200014 22.808333333299970 C27.591666666700007 22.555555555599994 27.805555555599994 22.302777777799975 28.000000000000000 22.069444444400006 C28.252777777800020 22.380555555599983 28.524999999999977 22.691666666700030 28.777777777799997 23.022222222200014 C33.366666666699984 28.719444444399983 35.000000000000000 32.841666666700007 35.000000000000000 34.824999999999989 L35.000000000000000 77.175000000000011 C35.000000000000000 79.177777777800003 33.308333333300027 83.397222222200014 28.602777777799986 89.191666666700002 C28.408333333299993 89.444444444400006 28.194444444400006 89.697222222199997 28.000000000000000 89.930555555599994 C27.747222222199980 89.619444444400017 27.475000000000023 89.308333333299998 27.222222222200003 88.977777777799986 C22.633333333300016 83.280555555600017 21.000000000000000 79.158333333299993 21.000000000000000 77.175000000000011 L21.000000000000000 34.824999999999989 z" />
<glyph unicode="R" horiz-adv-x="56" d="M44.897222222200000 46.277777777799997 C52.266666666700019 37.216666666700007 56.000000000000000 28.719444444399983 56.000000000000000 21.000000000000000 L56.000000000000000 -21.000000000000000 C44.411111111100013 -21.000000000000000 35.000000000000000 -11.588888888899987 35.000000000000000 0.000000000000000 L35.000000000000000 21.000000000000000 C35.000000000000000 22.925000000000011 33.425000000000011 26.930555555599994 29.069444444400006 32.433333333299970 C26.094444444399983 30.216666666700007 23.294444444400028 28.369444444400017 21.000000000000000 26.969444444399983 L21.000000000000000 -0.175000000000011 L0.000000000000000 -0.175000000000011 L0.000000000000000 111.824999999999989 L35.913888888899976 111.824999999999989 C37.644444444399994 110.230555555600006 41.280555555600017 106.730555555600006 44.897222222200014 102.277777777799997 C52.266666666700019 93.216666666700007 56.000000000000000 84.719444444399983 56.000000000000000 77.000000000000000 C56.000000000000000 68.949999999999989 53.627777777800020 61.016666666700019 48.980555555600006 53.413888888899976 C47.638888888899999 51.216666666700007 46.102777777799986 49.038888888899976 44.372222222199980 46.899999999999977 C44.547222222199991 46.705555555599972 44.722222222200003 46.491666666699984 44.897222222200014 46.277777777799997 zM35.000000000000000 77.000000000000000 C35.000000000000000 79.002777777800020 33.308333333300027 83.222222222200003 28.602777777799986 89.016666666700019 C28.097222222200003 89.658333333299993 27.591666666700007 90.261111111100007 27.086111111100024 90.824999999999989 L21.000000000000000 90.824999999999989 L21.000000000000000 52.869444444400017 C21.136111111099979 53.005555555599983 21.272222222200014 53.122222222199980 21.408333333299993 53.238888888900021 C27.611111111100001 58.722222222200003 35.000000000000000 67.297222222199991 35.000000000000000 77.000000000000000 z" />
<glyph unicode="S" horiz-adv-x="56" d="M28.000000000000000 -7.200000000000000 L22.030555555600017 -3.038888888899976 C21.466666666700007 -2.649999999999977 16.430555555599994 0.927777777799975 11.355555555600006 6.780555555600017 C3.927777777799975 15.336111111100024 0.000000000000000 24.688888888900010 0.000000000000000 33.788888888899976 L21.000000000000000 33.788888888899976 C21.000000000000000 28.791666666699996 24.480555555600006 23.638888888899999 28.000000000000000 19.808333333299970 C31.519444444399994 23.638888888899999 35.000000000000000 28.772222222200014 35.000000000000000 33.788888888899976 C35.000000000000000 39.213888888899987 31.188888888900010 42.169444444400028 21.855555555600006 48.080555555599972 C17.149999999999977 51.074999999999989 12.269444444399994 54.147222222200014 8.225000000000023 58.386111111099979 C2.761111111099979 64.083333333300004 0.000000000000000 70.733333333299981 0.000000000000000 78.180555555599994 C0.000000000000000 88.116666666699984 3.986111111100001 97.741666666699984 11.511111111099979 106.044444444400000 C16.780555555600017 111.858333333299981 22.069444444400006 115.086111111099996 22.672222222199991 115.436111111099990 L28.000000000000000 118.605555555600006 L33.327777777800009 115.416666666699996 C33.911111111100013 115.066666666700002 39.199999999999989 111.838888888899987 44.488888888900021 106.025000000000006 C52.013888888899999 97.722222222200003 56.000000000000000 88.097222222200003 56.000000000000000 78.161111111100013 L35.000000000000000 78.161111111100013 C35.000000000000000 82.750000000000000 32.977777777799986 87.300000000000011 29.011111111099979 91.675000000000011 C28.680555555599994 92.044444444400000 28.330555555599972 92.413888888900004 28.000000000000000 92.744444444400017 C24.655555555600017 89.380555555599983 21.000000000000000 84.305555555599994 21.000000000000000 78.161111111100013 C21.000000000000000 74.077777777800009 24.655555555600017 71.336111111099996 32.997222222199980 66.047222222199991 C37.741666666699984 63.033333333299993 43.108333333299981 59.630555555599983 47.444444444400006 55.022222222200014 C53.122222222199980 48.955555555599972 56.000000000000000 41.800000000000011 56.000000000000000 33.769444444399994 C56.000000000000000 24.649999999999977 52.072222222200025 15.316666666699973 44.644444444399994 6.741666666699984 C39.550000000000011 0.888888888899999 34.513888888899999 -2.688888888900010 33.969444444399983 -3.077777777800009 L28.000000000000000 -7.199999999999989 z" />
<glyph unicode="T" horiz-adv-x="56" d="M56.000000000000000 91.000000000000000 L38.500000000000000 91.000000000000000 L38.500000000000000 -21.000000000000000 C26.911111111100013 -21.000000000000000 17.500000000000000 -11.588888888899987 17.500000000000000 0.000000000000000 L17.500000000000000 91.000000000000000 L0.000000000000000 91.000000000000000 L0.000000000000000 112.000000000000000 L56.000000000000000 112.000000000000000 L56.000000000000000 91.000000000000000 z" />
<glyph unicode="U" horiz-adv-x="56" d="M56.000000000000000 29.452777777800002 C56.000000000000000 21.363888888900021 52.033333333299993 13.236111111100001 44.236111111100001 5.302777777799975 C39.219444444399983 0.208333333300004 34.300000000000011 -3.077777777800009 33.755555555599983 -3.427777777799975 L28.000000000000000 -7.199999999999989 L22.244444444400017 -3.427777777799975 C21.699999999999989 -3.077777777800009 16.780555555600017 0.208333333300004 11.763888888899999 5.302777777799975 C3.966666666700007 13.236111111100001 0.000000000000000 21.363888888900021 0.000000000000000 29.452777777800009 L0.000000000000000 111.702777777800009 L21.000000000000000 111.702777777800009 L21.000000000000000 29.452777777800009 C21.000000000000000 27.722222222200003 22.516666666700019 24.319444444400006 26.736111111100001 20.002777777800020 C27.163888888899976 19.574999999999989 27.572222222200025 19.166666666699996 28.000000000000000 18.777777777799997 C28.486111111100001 19.244444444400017 28.991666666699984 19.730555555600006 29.497222222199980 20.255555555599983 C30.780555555600017 21.597222222200003 35.000000000000000 26.205555555599972 35.000000000000000 29.452777777800009 L35.000000000000000 111.702777777800009 C35.000000000000000 123.291666666699996 44.411111111100013 132.702777777800009 56.000000000000000 132.702777777800009 L56.000000000000000 29.452777777800009 z" />
<glyph unicode="V" horiz-adv-x="56" d="M56.000000000000000 62.963888888900001 C56.000000000000000 31.949999999999989 37.333333333300004 5.466666666700007 36.536111111100013 4.358333333299981 L28.000000000000000 -7.600000000000023 L19.463888888899987 4.358333333299981 C18.666666666699996 5.466666666700007 0.000000000000000 31.949999999999989 0.000000000000000 62.963888888899987 L0.000000000000000 111.963888888899987 L21.000000000000000 111.963888888899987 L21.000000000000000 62.963888888899987 C21.000000000000000 56.313888888900010 22.244444444400017 45.736111111100001 28.000000000000000 32.397222222200014 C31.616666666699984 40.758333333300016 35.000000000000000 51.627777777800020 35.000000000000000 62.963888888899987 L35.000000000000000 111.963888888899987 C35.000000000000000 123.552777777800003 44.411111111100013 132.963888888899987 56.000000000000000 132.963888888899987 L56.000000000000000 62.963888888899987 z" />
<glyph unicode="W" horiz-adv-x="56" d="M91.250000000000000 34.642414529900002 C91.250000000000000 26.901762820499982 87.506410256400045 18.381196581200015 80.116720085499992 9.295192307700006 C75.203258547000019 3.270352564099994 70.289797008499988 -1.038675213700003 70.075320512799976 -1.214155982900024 L63.173076923099984 -7.199999999999989 L56.270833333300004 -1.214155982900024 C56.056356837599992 -1.038675213700003 51.142895299100019 3.270352564099994 46.229433760699976 9.295192307700006 C46.034455128200023 9.548664529900009 45.819978632500010 9.802136752100012 45.625000000000000 10.055608974400002 C45.430021367499990 9.802136752100012 45.235042734999979 9.548664529900009 45.020566239300024 9.295192307700006 C40.107104700899981 3.270352564099994 35.193643162400008 -1.038675213700003 34.979166666699996 -1.214155982900024 L28.076923076900016 -7.199999999999989 L21.174679487200024 -1.214155982900024 C20.960202991500012 -1.038675213700003 16.046741452999981 3.270352564099994 11.133279914500008 9.295192307700006 C3.743589743600012 18.381196581200015 0.000000000000000 26.901762820499982 0.000000000000000 34.642414529900009 L0.000000000000000 111.678472222200014 L21.057692307699995 111.678472222200014 L21.057692307699995 34.642414529900009 C21.057692307699995 32.634134615400001 22.754006410300008 28.403098290599985 27.472489316199983 22.592735042699985 C27.667467948699993 22.339262820499982 27.881944444400006 22.085790598299980 28.076923076900016 21.851816239299978 C28.330395299100019 22.163782051300018 28.603365384600011 22.475747863200013 28.856837606800013 22.807211538499985 C33.458333333300004 28.520085470100014 35.096153846200025 32.653632478600002 35.096153846200025 34.642414529900009 L35.096153846200025 111.678472222200014 L56.153846153799975 111.678472222200014 L56.153846153799975 34.642414529900009 C56.153846153799975 32.634134615400001 57.850160256399988 28.403098290599985 62.568643162400008 22.592735042699985 C62.763621794900018 22.339262820499982 62.978098290599974 22.085790598299980 63.173076923099984 21.851816239299978 C63.426549145299987 22.163782051300018 63.699519230799979 22.475747863200013 63.952991452999981 22.807211538499985 C68.554487179500029 28.520085470100014 70.192307692300005 32.653632478600002 70.192307692300005 34.642414529900009 L70.192307692300005 111.678472222200014 C70.192307692300005 123.299198717899998 79.629273504300045 132.736164529900009 91.250000000000000 132.736164529900009 L91.250000000000000 34.642414529900009 z" />
<glyph unicode="X" horiz-adv-x="56" d="M44.897222222200000 58.547222222199998 C44.177777777799975 57.652777777799997 43.438888888900010 56.797222222199991 42.738888888900021 56.000000000000000 C43.458333333300004 55.202777777800009 44.177777777799975 54.347222222200003 44.897222222200014 53.452777777800009 C52.266666666700019 44.391666666700019 56.000000000000000 35.894444444399994 56.000000000000000 28.175000000000011 L56.000000000000000 -21.000000000000000 C44.411111111100013 -21.000000000000000 35.000000000000000 -11.588888888899987 35.000000000000000 0.000000000000000 L35.000000000000000 28.175000000000011 C35.000000000000000 30.158333333299993 33.366666666699984 34.300000000000011 28.777777777799997 39.977777777799986 C28.524999999999977 40.308333333299970 28.252777777800020 40.619444444400017 28.000000000000000 40.930555555599994 C27.747222222199980 40.619444444400017 27.475000000000023 40.308333333299970 27.222222222200003 39.977777777799986 C22.633333333300016 34.280555555600017 21.000000000000000 30.158333333299993 21.000000000000000 28.175000000000011 L21.000000000000000 0.000000000000000 L0.000000000000000 0.000000000000000 L0.000000000000000 28.175000000000011 C0.000000000000000 35.894444444399994 3.733333333299981 44.391666666700019 11.102777777799986 53.452777777800009 C11.822222222200025 54.347222222200003 12.561111111099990 55.202777777800009 13.261111111099979 56.000000000000000 C12.541666666699996 56.797222222199991 11.822222222200025 57.652777777799997 11.102777777799986 58.547222222199991 C3.733333333299981 67.608333333299981 0.000000000000000 76.105555555600006 0.000000000000000 83.824999999999989 L0.000000000000000 112.000000000000000 L21.000000000000000 112.000000000000000 L21.000000000000000 83.824999999999989 C21.000000000000000 81.841666666700007 22.633333333300016 77.699999999999989 27.222222222200003 72.022222222200014 C27.475000000000023 71.691666666700002 27.747222222199980 71.380555555599983 28.000000000000000 71.069444444400006 C28.252777777800020 71.380555555599983 28.524999999999977 71.691666666700002 28.777777777799997 72.022222222200014 C33.366666666699984 77.719444444399983 35.000000000000000 81.841666666700007 35.000000000000000 83.824999999999989 L35.000000000000000 112.000000000000000 L56.000000000000000 112.000000000000000 L56.000000000000000 83.824999999999989 C56.000000000000000 76.105555555600006 52.266666666700019 67.608333333299981 44.897222222200014 58.547222222199991 z" />
<glyph unicode="Y" horiz-adv-x="56" d="M56.000000000000000 111.825000000000003 L56.000000000000000 83.824999999999989 C56.000000000000000 76.105555555600006 52.266666666700019 67.608333333299981 44.897222222200014 58.547222222199991 C42.602777777799986 55.727777777799986 40.308333333300027 53.297222222199991 38.500000000000000 51.488888888900021 L38.500000000000000 -21.000000000000000 C26.911111111100013 -21.000000000000000 17.500000000000000 -11.588888888899987 17.500000000000000 0.000000000000000 L17.500000000000000 51.488888888900021 C15.691666666699973 53.297222222199991 13.397222222200014 55.727777777799986 11.102777777799986 58.547222222199991 C3.733333333299981 67.608333333299981 0.000000000000000 76.105555555600006 0.000000000000000 83.824999999999989 L0.000000000000000 111.824999999999989 L21.000000000000000 111.824999999999989 L21.000000000000000 83.824999999999989 C21.000000000000000 81.841666666700007 22.633333333300016 77.699999999999989 27.222222222200003 72.022222222200014 C27.475000000000023 71.691666666700002 27.747222222199980 71.380555555599983 28.000000000000000 71.069444444400006 C28.252777777800020 71.380555555599983 28.524999999999977 71.691666666700002 28.777777777799997 72.022222222200014 C33.366666666699984 77.719444444399983 35.000000000000000 81.841666666700007 35.000000000000000 83.824999999999989 L35.000000000000000 111.824999999999989 L56.000000000000000 111.824999999999989 z" />
<glyph unicode="Z" horiz-adv-x="56" d="M21.000000000000000 28.000000000000000 L21.000000000000000 21.000000000000000 L56.000000000000000 21.000000000000000 C56.000000000000000 9.411111111100013 46.588888888899987 0.000000000000000 35.000000000000000 0.000000000000000 L0.000000000000000 0.000000000000000 L0.000000000000000 28.000000000000000 C0.000000000000000 35.719444444399983 3.733333333299981 44.216666666700007 11.102777777799986 53.277777777799997 C16.002777777800020 59.286111111100013 20.902777777799997 63.583333333300004 21.116666666699984 63.758333333300016 C21.136111111099979 63.777777777799997 25.024999999999977 67.199999999999989 28.777777777799997 71.847222222200003 C33.366666666699984 77.544444444400000 35.000000000000000 81.666666666699996 35.000000000000000 83.650000000000006 L35.000000000000000 91.000000000000000 L21.000000000000000 91.000000000000000 C9.411111111100013 91.000000000000000 0.000000000000000 100.411111111100013 0.000000000000000 112.000000000000000 L56.000000000000000 112.000000000000000 L56.000000000000000 83.650000000000006 C56.000000000000000 75.930555555599994 52.266666666700019 67.433333333299998 44.897222222200014 58.372222222199980 C39.997222222199980 52.363888888900021 35.097222222200003 48.066666666700030 34.883333333300016 47.891666666700019 C34.863888888900021 47.872222222199980 30.975000000000023 44.449999999999989 27.222222222200003 39.802777777799975 C22.633333333300016 34.105555555600006 21.000000000000000 29.983333333299981 21.000000000000000 28.000000000000000 z" />
<glyph unicode="a" horiz-adv-x="56" d="M56.000000000000000 77.000000000000000 L56.000000000000000 0.000000000000000 L35.000000000000000 0.000000000000000 L35.000000000000000 35.000000000000000 L21.000000000000000 35.000000000000000 L21.000000000000000 0.000000000000000 L0.000000000000000 0.000000000000000 L0.000000000000000 77.000000000000000 C0.000000000000000 84.719444444399983 3.733333333299981 93.216666666700007 11.102777777799986 102.277777777799997 C16.002777777800020 108.286111111100013 20.902777777799997 112.583333333300004 21.116666666699984 112.758333333300016 L28.000000000000000 118.727777777799986 L34.883333333300016 112.758333333300016 C35.097222222200003 112.583333333300004 39.997222222199980 108.286111111100013 44.897222222200014 102.277777777799997 C52.266666666700019 93.216666666700007 56.000000000000000 84.719444444399983 56.000000000000000 77.000000000000000 zM35.000000000000000 56.000000000000000 L35.000000000000000 77.000000000000000 C35.000000000000000 79.002777777800020 33.308333333300027 83.222222222200003 28.602777777799986 89.016666666700019 C28.408333333299993 89.269444444399994 28.194444444400006 89.522222222200014 28.000000000000000 89.755555555599983 C27.747222222199980 89.444444444400006 27.475000000000023 89.133333333300016 27.222222222200003 88.802777777800003 C22.633333333300016 83.105555555600006 21.000000000000000 78.983333333299981 21.000000000000000 77.000000000000000 L21.000000000000000 56.000000000000000 L35.000000000000000 56.000000000000000 z" />
<glyph unicode="b" horiz-adv-x="56" d="M48.710864283199996 56.719194724099999 C53.550850399199987 49.566122874000030 56.000000000000000 42.801804928799982 56.000000000000000 36.562304755299976 C56.000000000000000 29.001041305099989 52.345713294000006 20.312391530699983 45.134328358199980 10.729607775100021 C41.188476223500004 5.500867754299975 37.262061784100013 1.418951752900000 35.843110031200013 0.000000000000000 L0.000000000000000 0.000000000000000 L0.000000000000000 76.973273168999981 C0.000000000000000 84.690038181200009 3.732037487000014 93.184311003099992 11.098923984699979 102.242276987200000 C15.997223186399992 108.248524817799989 20.895522388100005 112.544255466899983 21.109337035800024 112.719194724100021 L27.990281152399973 118.686567164200000 L34.871225268999979 112.719194724100021 C35.085039916699998 112.544255466899983 39.983339118400011 108.248524817799989 44.881638319999979 102.242276987200000 C52.248524817799989 93.184311003099992 55.980562304800003 84.690038181200009 55.980562304800003 76.973273168999981 C55.980562304800003 70.733772995500004 53.531412703900003 63.950017355099988 48.710864283200010 56.719194724100021 zM21.031586254800001 56.660881638299998 C21.031586254800004 56.660881638299998 21.556404026400003 57.127386324200017 22.411662617099978 57.963207219699996 L30.400555362700004 67.157237070500003 C33.743838944800018 71.841721624400009 34.987851440499981 75.243318292299989 34.987851440499981 76.973273168999981 C34.987851440499981 78.955918084000018 33.355085039900018 83.096147171100000 28.767788962199973 88.771954182599984 C28.515098923999972 89.102395001700017 28.242971190599974 89.413398125699985 27.990281152399973 89.724401249600021 C27.737591114199972 89.413398125699985 27.465463380799974 89.102395001700017 27.212773342599974 88.771954182599984 C22.625477264799997 83.076709475900003 20.992710864300022 78.955918084000018 20.992710864300022 76.973273168999981 L20.992710864300022 20.992710864300022 L26.513016313799994 20.992710864300022 C27.173897952099992 21.789656369300019 27.834779590399990 22.664352655299979 28.515098923999972 23.558486636599980 C33.277334258899998 29.972926067300023 34.987851440499981 34.482471364099979 34.987851440499981 36.562304755299976 C34.987851440499981 38.175633460600011 33.879902811500017 41.266227004500024 30.944810829599987 45.484206872599998 L21.595279416899984 56.019437695199997 C21.284276293000005 56.311003123899980 21.109337035800024 56.466504685900020 21.109337035800024 56.466504685900020 L21.148212426200018 56.524817771599999 L21.031586254800004 56.660881638299998 z" />
<glyph unicode="c" horiz-adv-x="56" d="M28.000000000000000 -7.200000000000000 L21.077777777800009 -1.113888888900021 C20.863888888900021 -0.938888888900010 15.963888888899987 3.397222222200014 11.083333333300004 9.444444444400006 C3.733333333299981 18.544444444400028 0.000000000000000 27.061111111099990 0.000000000000000 34.761111111099979 L0.000000000000000 76.761111111100007 C0.000000000000000 84.461111111099996 3.733333333299981 92.977777777799986 11.083333333300004 102.097222222200003 C15.963888888899987 108.144444444399994 20.863888888900021 112.480555555600006 21.077777777800009 112.655555555600017 L28.000000000000000 118.741666666699984 L34.922222222199991 112.655555555600017 C35.136111111099979 112.480555555600006 40.036111111100013 108.144444444399994 44.916666666699996 102.097222222200003 C52.266666666700019 92.997222222199980 56.000000000000000 84.461111111099996 56.000000000000000 76.761111111100007 L35.000000000000000 76.761111111100007 C35.000000000000000 78.744444444400017 33.366666666699984 82.925000000000011 28.758333333300016 88.680555555599994 C28.505555555599983 88.991666666699984 28.252777777800020 89.302777777800003 28.000000000000000 89.613888888899993 C27.747222222199980 89.302777777800003 27.494444444400017 88.991666666699984 27.241666666699984 88.680555555599994 C22.633333333300016 82.925000000000011 21.000000000000000 78.744444444400017 21.000000000000000 76.761111111100007 L21.000000000000000 34.761111111099979 C21.000000000000000 32.777777777799997 22.633333333300016 28.597222222200003 27.241666666699984 22.841666666700007 C27.494444444400017 22.530555555600017 27.747222222199980 22.219444444399983 28.000000000000000 21.908333333299993 C28.252777777800020 22.219444444399983 28.505555555599983 22.530555555600017 28.758333333300016 22.841666666700007 C33.366666666699984 28.597222222200003 35.000000000000000 32.777777777799997 35.000000000000000 34.761111111099979 L56.000000000000000 34.761111111099979 C56.000000000000000 27.061111111099990 52.266666666700019 18.544444444399971 44.916666666699996 9.425000000000011 C40.036111111100013 3.377777777800020 35.136111111099979 -0.958333333300004 34.922222222199991 -1.133333333300016 L28.000000000000000 -7.199999999999989 z" />
<glyph unicode="d" horiz-adv-x="56" d="M56.000000000000000 77.000000000000000 L56.000000000000000 29.750000000000000 C56.000000000000000 22.030555555600017 52.266666666700019 13.533333333299993 44.897222222200014 4.472222222200003 C43.555555555599994 2.838888888899987 42.233333333299981 1.322222222200025 40.988888888900021 0.000000000000000 L0.000000000000000 0.000000000000000 L0.000000000000000 77.000000000000000 C0.000000000000000 84.719444444399983 3.733333333299981 93.216666666700007 11.102777777799986 102.277777777799997 C16.002777777800020 108.286111111100013 20.902777777799997 112.583333333300004 21.116666666699984 112.758333333300016 L28.000000000000000 118.727777777799986 L34.883333333300016 112.758333333300016 C35.097222222200003 112.583333333300004 39.997222222199980 108.286111111100013 44.897222222200014 102.277777777799997 C52.266666666700019 93.216666666700007 56.000000000000000 84.719444444399983 56.000000000000000 77.000000000000000 zM35.000000000000000 77.000000000000000 C35.000000000000000 78.983333333299981 33.366666666699984 83.125000000000000 28.777777777799997 88.802777777800003 C28.524999999999977 89.133333333300016 28.252777777800020 89.444444444400006 28.000000000000000 89.755555555599983 C27.747222222199980 89.444444444400006 27.475000000000023 89.133333333300016 27.222222222200003 88.802777777800003 C22.633333333300016 83.105555555600006 21.000000000000000 78.983333333299981 21.000000000000000 77.000000000000000 L21.000000000000000 21.000000000000000 L31.072222222200025 21.000000000000000 C33.930555555599994 25.122222222199980 35.000000000000000 28.155555555600017 35.000000000000000 29.750000000000000 L35.000000000000000 77.000000000000000 z" />
<glyph unicode="e" horiz-adv-x="56" d="M21.000000000000000 21.000000000000000 L56.000000000000000 21.000000000000000 L56.000000000000000 0.000000000000000 L0.000000000000000 0.000000000000000 L0.000000000000000 77.000000000000000 C0.000000000000000 84.719444444399983 3.733333333299981 93.216666666700007 11.102777777799986 102.277777777799997 C16.002777777800020 108.286111111100013 20.902777777799997 112.583333333300004 21.116666666699984 112.758333333300016 L28.000000000000000 118.727777777799986 L34.883333333300016 112.758333333300016 C35.097222222200003 112.583333333300004 39.997222222199980 108.286111111100013 44.897222222200014 102.277777777799997 C52.266666666700019 93.216666666700007 56.000000000000000 84.719444444399983 56.000000000000000 77.000000000000000 L35.000000000000000 77.000000000000000 C35.000000000000000 78.983333333299981 33.366666666699984 83.125000000000000 28.777777777799997 88.802777777800003 C28.524999999999977 89.133333333300016 28.252777777800020 89.444444444400006 28.000000000000000 89.755555555599983 C27.747222222199980 89.444444444400006 27.475000000000023 89.133333333300016 27.222222222200003 88.802777777800003 C22.633333333300016 83.105555555600006 21.000000000000000 78.983333333299981 21.000000000000000 77.000000000000000 L21.000000000000000 59.500000000000000 L42.000000000000000 59.500000000000000 C42.000000000000000 47.911111111100013 32.588888888899987 38.500000000000000 21.000000000000000 38.500000000000000 L21.000000000000000 21.000000000000000 z" />
<glyph unicode="f" horiz-adv-x="56" d="M21.000000000000000 59.500000000000000 L42.000000000000000 59.500000000000000 C42.000000000000000 47.911111111100013 32.588888888899987 38.500000000000000 21.000000000000000 38.500000000000000 L21.000000000000000 0.000000000000000 L0.000000000000000 0.000000000000000 L0.000000000000000 77.000000000000000 C0.000000000000000 84.719444444399983 3.733333333299981 93.216666666700007 11.102777777799986 102.277777777799997 C16.002777777800020 108.286111111100013 20.902777777799997 112.583333333300004 21.116666666699984 112.758333333300016 L28.000000000000000 118.727777777799986 L34.883333333300016 112.758333333300016 C35.097222222200003 112.583333333300004 39.997222222199980 108.286111111100013 44.897222222200014 102.277777777799997 C52.266666666700019 93.216666666700007 56.000000000000000 84.719444444399983 56.000000000000000 77.000000000000000 L35.000000000000000 77.000000000000000 C35.000000000000000 78.983333333299981 33.366666666699984 83.125000000000000 28.777777777799997 88.802777777800003 C28.524999999999977 89.133333333300016 28.252777777800020 89.444444444400006 28.000000000000000 89.755555555599983 C27.747222222199980 89.444444444400006 27.475000000000023 89.133333333300016 27.222222222200003 88.802777777800003 C22.633333333300016 83.105555555600006 21.000000000000000 78.983333333299981 21.000000000000000 77.000000000000000 L21.000000000000000 59.500000000000000 z" />
<glyph unicode="g" horiz-adv-x="56" d="M56.000000000000000 59.280555555600003 L56.000000000000000 34.780555555600017 C56.000000000000000 27.080555555599972 52.266666666700019 18.544444444399971 44.916666666699996 9.444444444400006 C40.036111111100013 3.397222222200014 35.136111111099979 -0.938888888900010 34.922222222199991 -1.113888888900021 L28.000000000000000 -7.199999999999989 L21.077777777800009 -1.113888888900021 C20.863888888900021 -0.938888888900010 15.963888888899987 3.397222222200014 11.083333333300004 9.444444444400006 C3.733333333299981 18.563888888900010 0.000000000000000 27.080555555599972 0.000000000000000 34.780555555600017 L0.000000000000000 76.780555555600017 C0.000000000000000 84.480555555600006 3.733333333299981 93.016666666700019 11.083333333300004 102.116666666699984 C15.963888888899987 108.163888888900004 20.863888888900021 112.500000000000000 21.077777777800009 112.675000000000011 L28.000000000000000 118.761111111100007 L34.922222222199991 112.675000000000011 C35.136111111099979 112.500000000000000 40.036111111100013 108.163888888900004 44.916666666699996 102.116666666699984 C52.266666666700019 92.997222222199980 56.000000000000000 84.480555555600006 56.000000000000000 76.780555555600017 L35.000000000000000 76.780555555600017 C35.000000000000000 78.763888888899999 33.366666666699984 82.944444444400006 28.758333333300016 88.699999999999989 C28.505555555599983 89.011111111100007 28.252777777800020 89.322222222199997 28.000000000000000 89.633333333300016 C27.747222222199980 89.322222222199997 27.494444444400017 89.011111111100007 27.241666666699984 88.699999999999989 C22.633333333300016 82.944444444400006 21.000000000000000 78.763888888899999 21.000000000000000 76.780555555600017 L21.000000000000000 34.780555555600017 C21.000000000000000 32.797222222199991 22.633333333300016 28.616666666699984 27.241666666699984 22.861111111100001 C27.494444444400017 22.550000000000011 27.747222222199980 22.238888888900021 28.000000000000000 21.927777777799975 C28.252777777800020 22.238888888900021 28.505555555599983 22.550000000000011 28.758333333300016 22.861111111100001 C33.366666666699984 28.616666666699984 35.000000000000000 32.797222222199991 35.000000000000000 34.780555555600017 L35.000000000000000 44.716666666700007 C30.858333333299981 46.680555555599994 28.000000000000000 50.899999999999977 28.000000000000000 55.780555555600017 L28.000000000000000 59.280555555600017 L56.000000000000000 59.280555555600017 z" />
<glyph unicode="h" horiz-adv-x="56" d="M35.000000000000000 112.000000000000000 C35.000000000000000 100.625000000000000 35.000000000000000 77.875000000000000 35.000000000000000 66.500000000000000 C31.500000000000000 66.500000000000000 24.500000000000000 66.500000000000000 21.000000000000000 66.500000000000000 C21.000000000000000 77.875000000000000 21.000000000000000 100.625000000000000 21.000000000000000 112.000000000000000 C15.750000000000000 112.000000000000000 5.250000000000000 112.000000000000000 0.000000000000000 112.000000000000000 C0.000000000000000 84.000000000000000 0.000000000000000 37.333333333333314 0.000000000000000 0.000000000000000 L21.000000000000000 0.000000000000000 L21.000000000000000 45.500000000000000 L35.000000000000000 45.500000000000000 L35.000000000000000 0.000000000000000 L56.000000000000000 0.000000000000000 L56.000000000000000 112.000000000000000 L35.000000000000000 112.000000000000000 z" />
<glyph unicode="i" horiz-adv-x="56" d="M21.000000000000000 0.000000000000000 C18.375000000000000 0.000000000000000 13.125000000000000 0.000000000000000 10.500000000000000 0.000000000000000 C7.875000000000000 0.000000000000000 2.625000000000000 0.000000000000000 0.000000000000000 0.000000000000000 C0.000000000000000 14.000000000000000 0.000000000000000 42.000000000000000 0.000000000000000 56.000000000000000 C0.000000000000000 70.000000000000000 0.000000000000000 98.000000000000000 0.000000000000000 112.000000000000000 C2.625000000000000 112.000000000000000 7.000000000000000 112.000000000000000 10.500000000000000 112.000000000000000 L21.000000000000000 112.000000000000000 L21.000000000000000 56.000000000000000 L21.000000000000000 0.000000000000000 z" />
<glyph unicode="j" horiz-adv-x="56" d="M28.000000000000000 -7.200000000000000 L21.077777777800009 -1.113888888900021 C20.863888888900021 -0.938888888900010 15.963888888899987 3.397222222200014 11.083333333300004 9.444444444400006 C3.733333333299981 18.563888888900010 0.000000000000000 27.080555555599972 0.000000000000000 34.780555555600017 L21.000000000000000 34.780555555600017 C21.000000000000000 32.797222222199991 22.633333333300016 28.616666666699984 27.241666666699984 22.861111111100001 C27.494444444400017 22.550000000000011 27.747222222199980 22.238888888900021 28.000000000000000 21.927777777799975 C28.252777777800020 22.238888888900021 28.505555555599983 22.550000000000011 28.758333333300016 22.861111111100001 C33.366666666699984 28.616666666699984 35.000000000000000 32.797222222199991 35.000000000000000 34.780555555600017 L35.000000000000000 111.780555555600017 L56.000000000000000 111.780555555600017 L56.000000000000000 34.780555555600017 C56.000000000000000 27.080555555599972 52.266666666700019 18.563888888900010 44.916666666699996 9.444444444400006 C40.036111111100013 3.397222222200014 35.136111111099979 -0.938888888900010 34.922222222199991 -1.113888888900021 L28.000000000000000 -7.199999999999989 zM28.000000000000000 -7.200000000000000 L21.077777777800009 -1.113888888900021 C20.863888888900021 -0.938888888900010 15.963888888899987 3.397222222200014 11.083333333300004 9.444444444400006 C3.733333333299981 18.563888888900010 0.000000000000000 27.080555555599972 0.000000000000000 34.780555555600017 L21.000000000000000 34.780555555600017 C21.000000000000000 32.797222222199991 22.633333333300016 28.616666666699984 27.241666666699984 22.861111111100001 C27.494444444400017 22.550000000000011 27.747222222199980 22.238888888900021 28.000000000000000 21.927777777799975 C28.252777777800020 22.238888888900021 28.505555555599983 22.550000000000011 28.758333333300016 22.861111111100001 C33.366666666699984 28.616666666699984 35.000000000000000 32.797222222199991 35.000000000000000 34.780555555600017 L35.000000000000000 111.780555555600017 L56.000000000000000 111.780555555600017 L56.000000000000000 34.780555555600017 C56.000000000000000 27.080555555599972 52.266666666700019 18.563888888900010 44.916666666699996 9.444444444400006 C40.036111111100013 3.397222222200014 35.136111111099979 -0.938888888900010 34.922222222199991 -1.113888888900021 L28.000000000000000 -7.199999999999989 zM28.000000000000000 -7.200000000000000 L21.077777777800009 -1.113888888900021 C20.863888888900021 -0.938888888900010 15.963888888899987 3.397222222200014 11.083333333300004 9.444444444400006 C3.733333333299981 18.563888888900010 0.000000000000000 27.080555555599972 0.000000000000000 34.780555555600017 L21.000000000000000 34.780555555600017 C21.000000000000000 32.797222222199991 22.633333333300016 28.616666666699984 27.241666666699984 22.861111111100001 C27.494444444400017 22.550000000000011 27.747222222199980 22.238888888900021 28.000000000000000 21.927777777799975 C28.252777777800020 22.238888888900021 28.505555555599983 22.550000000000011 28.758333333300016 22.861111111100001 C33.366666666699984 28.616666666699984 35.000000000000000 32.797222222199991 35.000000000000000 34.780555555600017 L35.000000000000000 111.780555555600017 L56.000000000000000 111.780555555600017 L56.000000000000000 34.780555555600017 C56.000000000000000 27.080555555599972 52.266666666700019 18.563888888900010 44.916666666699996 9.444444444400006 C40.036111111100013 3.397222222200014 35.136111111099979 -0.938888888900010 34.922222222199991 -1.113888888900021 L28.000000000000000 -7.199999999999989 z" />
<glyph unicode="k" horiz-adv-x="56" d="M44.916666666699996 58.683333333299998 C44.177777777799975 57.750000000000000 43.419444444400028 56.855555555600006 42.680555555599994 56.019444444399994 C43.419444444400028 55.183333333299970 44.158333333299993 54.288888888899976 44.916666666699996 53.355555555600006 C52.266666666700019 44.236111111100001 56.000000000000000 35.719444444399983 56.000000000000000 28.019444444399994 L56.000000000000000 0.000000000000000 L35.000000000000000 0.000000000000000 L35.000000000000000 28.000000000000000 C35.000000000000000 29.983333333299981 33.366666666699984 34.163888888899976 28.758333333300016 39.919444444400028 C25.005555555599983 44.625000000000000 21.097222222200003 48.086111111100024 21.058333333300027 48.125000000000000 L21.000000000000000 48.183333333299970 L21.000000000000000 0.019444444399994 L0.000000000000000 0.019444444399994 L0.000000000000000 112.019444444399994 L21.000000000000000 112.019444444399994 L21.000000000000000 63.855555555600006 L21.077777777800009 63.913888888900004 C21.097222222200003 63.933333333299998 25.005555555599983 67.394444444399994 28.758333333300016 72.099999999999994 C33.366666666699984 77.855555555600006 35.000000000000000 82.036111111100013 35.000000000000000 84.019444444399994 L35.000000000000000 112.019444444399994 L56.000000000000000 112.019444444399994 L56.000000000000000 84.019444444399994 C56.000000000000000 76.319444444400006 52.266666666700019 67.802777777800003 44.916666666699996 58.683333333299970 z" />
<glyph unicode="l" horiz-adv-x="56" d="M56.000000000000000 0.000000000000000 C42.000000000000000 0.000000000000000 14.000000000000000 0.000000000000000 0.000000000000000 0.000000000000000 C0.000000000000000 28.000000000000000 0.000000000000000 84.000000000000000 0.000000000000000 112.000000000000000 C5.250000000000000 112.000000000000000 15.750000000000000 112.000000000000000 21.000000000000000 112.000000000000000 C21.000000000000000 89.250000000000000 21.000000000000000 51.333333333333314 21.000000000000000 21.000000000000000 L56.000000000000000 21.000000000000000 L56.000000000000000 0.000000000000000 z" />
<glyph unicode="m" horiz-adv-x="56" d="M90.750000000000000 76.962980769200001 L90.750000000000000 0.000000000000000 L69.807692307699995 0.000000000000000 L69.807692307699995 76.962980769199987 C69.807692307699995 78.960256410300019 68.120673076900005 83.168108974400013 63.428044871800012 88.946634615400001 C63.234134615400023 89.198717948699993 63.020833333300004 89.450801282100002 62.826923076900016 89.683493589699992 C62.574839743600023 89.373237179499995 62.303365384599999 89.062980769200010 62.051282051300007 88.733333333299981 C57.475000000000023 83.051762820500016 55.846153846200025 78.940865384599988 55.846153846200025 76.962980769199987 L55.846153846200025 0.000000000000000 L34.903846153799975 0.000000000000000 L34.903846153799975 76.962980769199987 C34.903846153799975 78.960256410300019 33.216826923099973 83.168108974400013 28.524198717899992 88.946634615400001 C28.330288461500004 89.198717948699993 28.116987179499972 89.450801282100002 27.923076923099984 89.683493589699992 C27.670993589700004 89.373237179499995 27.399519230800024 89.062980769200010 27.147435897399987 88.733333333299981 C22.571153846199991 83.051762820500016 20.942307692300005 78.940865384599988 20.942307692300005 76.962980769199987 L20.942307692300005 0.000000000000000 L0.000000000000000 0.000000000000000 L0.000000000000000 76.962980769199987 C0.000000000000000 84.661217948699999 3.723076923099995 93.135096153800021 11.072275640999976 102.171314102599979 C15.958814102600002 108.163141025599998 20.845352564099983 112.448557692300000 21.058653846200002 112.623076923100001 L27.923076923099984 118.576121794900018 L34.787500000000023 112.623076923100001 C35.000801282099985 112.448557692300000 39.887339743600023 108.163141025599998 44.773878205100004 102.171314102599979 C44.967788461499993 101.919230769199999 45.181089743600012 101.667147435900006 45.375000000000000 101.415064102600013 C45.568910256399988 101.667147435900006 45.762820512799976 101.919230769199999 45.976121794899996 102.171314102599979 C50.862660256399977 108.163141025599998 55.749198717900015 112.448557692300000 55.962499999999977 112.623076923100001 L62.826923076900016 118.576121794900018 L69.691346153799998 112.623076923100001 C69.904647435900017 112.448557692300000 74.791185897400055 108.163141025599998 79.677724358999967 102.171314102599979 C87.026923076899948 93.135096153800021 90.750000000000000 84.661217948699999 90.750000000000000 76.962980769199987 z" />
<glyph unicode="n" horiz-adv-x="56" d="M56.000000000000000 0.000000000000000 L35.000000000000000 0.000000000000000 L35.000000000000000 77.000000000000000 C35.000000000000000 79.022222222200014 33.327777777800009 83.222222222200003 28.602777777799986 89.016666666700019 C28.408333333299993 89.269444444399994 28.194444444400006 89.502777777800020 28.000000000000000 89.755555555599983 C27.747222222199980 89.444444444400006 27.475000000000023 89.133333333300016 27.222222222200003 88.802777777800003 C22.633333333300016 83.125000000000000 21.000000000000000 78.983333333299981 21.000000000000000 77.000000000000000 L21.000000000000000 0.000000000000000 L0.000000000000000 0.000000000000000 L0.000000000000000 77.000000000000000 C0.000000000000000 84.719444444399983 3.733333333299981 93.216666666700007 11.102777777799986 102.277777777799997 C16.002777777800020 108.286111111100013 20.902777777799997 112.583333333300004 21.116666666699984 112.758333333300016 L28.000000000000000 118.727777777799986 L34.883333333300016 112.758333333300016 C35.097222222200003 112.583333333300004 39.997222222199980 108.286111111100013 44.897222222200014 102.277777777799997 C52.266666666700019 93.216666666700007 56.000000000000000 84.719444444399983 56.000000000000000 77.000000000000000 L56.000000000000000 0.000000000000000 z" />
<glyph unicode="o" horiz-adv-x="56" d="M28.000000000000000 -7.200000000000000 L21.116666666699984 -1.230555555600006 C20.902777777799997 -1.055555555599994 16.002777777800020 3.241666666699984 11.102777777799986 9.250000000000000 C3.733333333299981 18.311111111099990 0.000000000000000 26.808333333299970 0.000000000000000 34.527777777799997 L0.000000000000000 76.877777777800020 C0.000000000000000 84.597222222200003 3.733333333299981 93.094444444399983 11.102777777799986 102.155555555600017 C16.002777777800020 108.163888888900004 20.902777777799997 112.461111111099996 21.116666666699984 112.636111111100007 L28.000000000000000 118.605555555600006 L34.883333333300016 112.636111111100007 C35.097222222200003 112.461111111099996 39.997222222199980 108.163888888900004 44.897222222200014 102.155555555600017 C52.266666666700019 93.094444444399983 56.000000000000000 84.597222222200003 56.000000000000000 76.877777777800020 L56.000000000000000 34.527777777799997 C56.000000000000000 26.808333333299970 52.266666666700019 18.311111111099990 44.897222222200014 9.250000000000000 C39.997222222199980 3.241666666699984 35.097222222200003 -1.055555555599994 34.883333333300016 -1.230555555600006 L28.000000000000000 -7.199999999999989 zM28.000000000000000 89.633333333300001 C27.747222222199980 89.322222222199997 27.475000000000023 89.011111111100007 27.222222222200003 88.680555555599994 C22.633333333300016 83.002777777800020 21.000000000000000 78.861111111100001 21.000000000000000 76.877777777800020 L21.000000000000000 34.527777777799997 C21.000000000000000 32.505555555599983 22.672222222199991 28.305555555599994 27.397222222200014 22.511111111099979 C27.591666666700007 22.258333333300016 27.805555555599994 22.024999999999977 28.000000000000000 21.772222222200014 C28.252777777800020 22.083333333300004 28.524999999999977 22.394444444399994 28.777777777799997 22.725000000000023 C33.366666666699984 28.402777777799997 35.000000000000000 32.544444444400028 35.000000000000000 34.527777777799997 L35.000000000000000 76.877777777800020 C35.000000000000000 78.900000000000006 33.327777777800009 83.099999999999994 28.602777777799986 88.894444444399994 C28.408333333299993 89.147222222200014 28.194444444400006 89.400000000000006 28.000000000000000 89.633333333300016 z" />
<glyph unicode="p" horiz-adv-x="56" d="M56.000000000000000 77.194444444400006 C56.000000000000000 69.144444444399994 53.627777777800020 61.211111111100024 48.980555555600006 53.608333333299981 C45.519444444399994 47.949999999999989 40.794444444400028 42.486111111100001 34.902777777799997 37.333333333300004 C29.827777777800009 32.880555555599983 24.733333333299981 29.438888888900010 21.000000000000000 27.144444444399994 L21.000000000000000 0.000000000000000 L0.000000000000000 0.000000000000000 L0.000000000000000 77.175000000000011 C0.000000000000000 84.894444444399994 3.733333333299981 93.391666666700019 11.102777777799986 102.452777777800009 C16.002777777800020 108.461111111099996 20.902777777799997 112.758333333300016 21.116666666699984 112.933333333299998 L28.000000000000000 118.902777777799997 L34.883333333300016 112.933333333299998 C35.097222222200003 112.758333333300016 39.997222222199980 108.461111111099996 44.897222222200014 102.452777777800009 C52.266666666700019 93.391666666700019 56.000000000000000 84.894444444399994 56.000000000000000 77.194444444400006 zM35.000000000000000 77.174999999999997 C35.000000000000000 79.177777777800003 33.308333333300027 83.397222222200014 28.602777777799986 89.191666666700002 C28.408333333299993 89.444444444400006 28.194444444400006 89.697222222199997 28.000000000000000 89.930555555599994 C27.747222222199980 89.619444444400017 27.475000000000023 89.308333333299998 27.222222222200003 88.977777777799986 C22.633333333300016 83.280555555600017 21.000000000000000 79.158333333299993 21.000000000000000 77.175000000000011 L21.000000000000000 53.044444444400028 C21.136111111099979 53.180555555599994 21.272222222200014 53.297222222199991 21.408333333299993 53.413888888899976 C27.611111111100001 58.897222222200014 35.000000000000000 67.472222222200003 35.000000000000000 77.175000000000011 z" />
<glyph unicode="q" horiz-adv-x="56" d="M50.184964200500005 -7.200000000000000 L39.345167064400016 3.639797136000027 C36.785501193299979 1.021957040600000 34.904534606200002 -0.606921241000009 34.788186157499979 -0.723269689699976 L27.923627684999985 -6.676431980900020 L21.059069212400004 -0.723269689699976 C20.845763723199980 -0.548747016700020 15.959128878300021 3.736754176600016 11.072494033400005 9.728699284000015 C3.723150357999998 18.765095465400009 0.000000000000000 27.239140811500022 0.000000000000000 34.937529832899997 L0.000000000000000 77.172016706400001 C0.000000000000000 84.870405727899993 3.723150357999998 93.344451074000006 11.072494033400005 102.380847255399999 C15.959128878300021 108.372792362799999 20.845763723199980 112.658293556100006 21.059069212400004 112.832816229099990 L27.923627684999985 118.785978520300006 L34.788186157499979 112.832816229099990 C35.001491646799991 112.658293556100006 39.888126491600019 108.372792362799999 44.774761336499978 102.380847255399999 C52.124105011899985 93.344451074000006 55.847255369899983 84.870405727899993 55.847255369899983 77.172016706400001 L55.847255369899983 34.937529832899997 C55.847255369899983 30.419331742200029 54.567422434399987 25.629653937900002 52.007756563200019 20.607279236299973 L65.000000000000000 7.615035799499992 L50.184964200500019 -7.199999999999989 zM28.699284009500001 23.166945107400000 C33.275656324599993 28.848627684999997 34.904534606200002 32.959606205199975 34.904534606200002 34.937529832899997 L34.904534606200002 77.172016706400001 C34.904534606200002 79.169331742200001 33.217482100200016 83.377267303099984 28.524761336499978 89.155906921200000 C28.330847255399988 89.407995226699995 28.117541766099976 89.660083532200019 27.923627684999985 89.892780429600009 C27.671539379500018 89.582517899799996 27.400059665900017 89.272255369899995 27.147971360399993 88.942601432000004 C22.571599045299990 83.260918854400018 20.942720763699981 79.149940334099995 20.942720763699981 77.172016706400001 L20.942720763699981 34.937529832899997 C20.942720763699981 32.940214797099998 22.629773269700024 28.732279236299973 27.322494033400005 22.953639618099999 C27.516408114599983 22.701551312599975 27.729713603800008 22.449463007199995 27.923627684999985 22.216766109800005 C28.175715990500009 22.527028639600019 28.447195704100011 22.837291169500020 28.699284009499991 23.166945107400011 z" />
<glyph unicode="r" horiz-adv-x="56" d="M44.897222222200000 46.277777777799997 C52.266666666700019 37.216666666700007 56.000000000000000 28.719444444399983 56.000000000000000 21.000000000000000 L56.000000000000000 0.000000000000000 L35.000000000000000 0.000000000000000 L35.000000000000000 21.000000000000000 C35.000000000000000 22.944444444400006 33.425000000000011 26.988888888900021 28.991666666699984 32.550000000000011 C26.036111111100013 30.352777777799986 23.274999999999977 28.544444444400028 21.000000000000000 27.144444444399994 L21.000000000000000 0.000000000000000 L0.000000000000000 0.000000000000000 L0.000000000000000 77.175000000000011 C0.000000000000000 84.894444444399994 3.733333333299981 93.391666666700019 11.102777777799986 102.452777777800009 C16.002777777800020 108.461111111099996 20.902777777799997 112.758333333300016 21.116666666699984 112.933333333299998 L28.000000000000000 118.902777777799997 L34.883333333300016 112.952777777800009 C35.097222222200003 112.777777777799997 39.997222222199980 108.480555555600006 44.897222222200014 102.472222222200003 C52.266666666700019 93.411111111100013 56.000000000000000 84.913888888900004 56.000000000000000 77.194444444400006 C56.000000000000000 69.144444444399994 53.627777777800020 61.211111111100024 48.980555555600006 53.608333333299981 C47.619444444400017 51.372222222199980 46.044444444400028 49.155555555600017 44.294444444400028 46.997222222199980 C44.508333333300016 46.763888888899999 44.702777777800009 46.511111111099979 44.897222222200014 46.277777777799997 zM21.000000000000000 53.044444444400000 C21.136111111099979 53.180555555599994 21.272222222200014 53.297222222199991 21.408333333299993 53.413888888899976 C27.611111111100001 58.897222222200014 35.000000000000000 67.472222222200003 35.000000000000000 77.175000000000011 C35.000000000000000 79.177777777800003 33.308333333300027 83.397222222200014 28.602777777799986 89.191666666700002 C28.408333333299993 89.444444444400006 28.194444444400006 89.697222222199997 28.000000000000000 89.930555555599994 C27.747222222199980 89.619444444400017 27.475000000000023 89.308333333299998 27.222222222200003 88.977777777799986 C22.633333333300016 83.280555555600017 21.000000000000000 79.158333333299993 21.000000000000000 77.175000000000011 L21.000000000000000 53.044444444400028 z" />
<glyph unicode="s" horiz-adv-x="56" d="M27.270580062499999 -7.200000000000000 L21.124001389400007 -1.870371656799989 C20.910038207699984 -1.695310871800018 16.008336227899974 2.603403959700017 11.106634247999978 8.613824244499995 C8.111149704800027 12.309551927799987 5.679749913199998 15.946926016000020 3.890239666599996 19.428690517500002 L22.582841264299987 29.018131295600028 C23.691559569300011 26.839597082299974 25.325460229200019 24.427648489100022 27.406738450899979 21.879541507499994 C27.756860020799991 21.432163945799971 28.126432789200010 21.004237582500025 28.476554359200009 20.595762417499998 C31.822160472400014 24.330392497399998 35.012156999000013 29.173740882300024 35.012156999000013 33.919833275399981 C35.012156999000013 39.288364015299976 31.199722125700021 42.206043765199979 21.863146926000013 48.080305661699981 C17.155956929500007 51.036887808299980 12.273706147999974 54.090725946500015 8.227856894799970 58.272733588099982 C2.762070163299995 63.894129906199993 0.000000000000000 70.488086140999997 0.000000000000000 77.840639110799998 C0.000000000000000 87.663494268799980 3.987495658199975 97.214032650200011 11.515109413000005 105.422438346600018 C16.786384161199976 111.179993053100020 22.077110107699980 114.369989579700018 22.680097256000010 114.720111149700017 L29.176797499100019 118.571448419600017 L34.895449809000013 113.611392844699992 C35.109412990599992 113.436332059700021 40.011114970499989 109.137617228199986 44.912816950299998 103.127196943400008 C47.908301493599993 99.431469260200004 50.339701285200022 95.794095171899983 52.129211531800024 92.312330670400002 L33.436609933999989 82.722889892300003 C32.327891629000021 84.901424105600000 30.693990969100014 87.313372698899997 28.612712747499984 89.861479680400009 C28.145883987499985 90.425564432100003 27.698506425800019 90.970197985400006 27.231677665900008 91.495380340400004 C24.119485932600014 88.188676623800006 20.987843000999987 83.462035428999997 20.987843000999987 77.840639110799998 C20.987843000999987 73.794789857599994 24.644668287599984 71.091073289299999 32.989232372400011 65.858700937799995 C37.735324765500025 62.882667592900020 43.103855505400020 59.517610281299994 47.441472733599994 54.946578673200008 C53.121222646799993 48.936158388299987 56.000000000000000 41.855922195199980 56.000000000000000 33.900382077100005 C56.000000000000000 24.875026050700001 52.070857936799996 15.616255644299997 44.640500173699991 7.154984369600015 C39.544286210499990 1.358527266400017 34.506425842300018 -2.181590830099992 33.961792289000016 -2.570614796799987 L27.270580062500017 -7.199999999999989 z" />
<glyph unicode="t" horiz-adv-x="56" d="M56.000000000000000 112.000000000000000 C49.000000000000000 112.000000000000000 35.000000000000000 112.000000000000000 28.000000000000000 112.000000000000000 C21.000000000000000 112.000000000000000 7.000000000000000 112.000000000000000 0.000000000000000 112.000000000000000 C0.000000000000000 109.375000000000000 0.000000000000000 104.125000000000000 0.000000000000000 101.500000000000000 C0.000000000000000 98.875000000000000 0.000000000000000 94.500000000000000 0.000000000000000 91.000000000000000 L8.750000000000000 91.000000000000000 L17.500000000000000 91.000000000000000 L17.500000000000000 45.500000000000000 L17.500000000000000 0.000000000000000 L28.000000000000000 0.000000000000000 L38.500000000000000 0.000000000000000 L38.500000000000000 45.500000000000000 L38.500000000000000 91.000000000000000 L47.250000000000000 91.000000000000000 L56.000000000000000 91.000000000000000 L56.000000000000000 101.500000000000000 L56.000000000000000 112.000000000000000 z" />
<glyph unicode="u" horiz-adv-x="56" d="M28.000000000000000 -7.200000000000000 L22.244444444400017 -3.427777777799975 C21.699999999999989 -3.077777777800009 16.780555555600017 0.208333333300004 11.763888888899999 5.302777777799975 C3.966666666700007 13.255555555599983 0.000000000000000 21.383333333300016 0.000000000000000 29.472222222200003 L0.000000000000000 111.722222222200003 L21.000000000000000 111.722222222200003 L21.000000000000000 29.472222222200003 C21.000000000000000 27.741666666699984 22.497222222199980 24.338888888899987 26.736111111100001 20.041666666699996 C27.163888888899976 19.613888888900021 27.572222222200025 19.205555555599972 28.000000000000000 18.816666666700030 C28.486111111100001 19.283333333299993 28.991666666699984 19.769444444399994 29.497222222199980 20.294444444400028 C30.780555555600017 21.636111111099979 35.000000000000000 26.225000000000023 35.000000000000000 29.491666666699984 L35.000000000000000 111.722222222200003 L56.000000000000000 111.722222222200003 L56.000000000000000 29.472222222200003 C56.000000000000000 21.383333333300016 52.033333333299993 13.255555555599983 44.236111111100001 5.322222222200025 C39.219444444399983 0.227777777799986 34.300000000000011 -3.058333333300027 33.755555555599983 -3.408333333299993 L28.000000000000000 -7.199999999999989 z" />
<glyph unicode="v" horiz-adv-x="56" d="M28.000000000000000 -7.800000000000000 L19.463888888899987 4.158333333299993 C18.666666666699996 5.266666666700019 0.000000000000000 31.750000000000000 0.000000000000000 62.763888888899999 L0.000000000000000 111.763888888899999 L21.000000000000000 111.763888888899999 L21.000000000000000 62.763888888899999 C21.000000000000000 56.113888888900021 22.244444444400017 45.536111111100013 28.000000000000000 32.197222222200025 C31.616666666699984 40.558333333299970 35.000000000000000 51.427777777799975 35.000000000000000 62.763888888899999 L35.000000000000000 111.763888888899999 L56.000000000000000 111.763888888899999 L56.000000000000000 62.763888888899999 C56.000000000000000 31.750000000000000 37.333333333300004 5.266666666700019 36.536111111100013 4.158333333299993 L28.000000000000000 -7.800000000000011 z" />
<glyph unicode="w" horiz-adv-x="56" d="M91.310000000000002 111.956638888900002 L91.309999999999945 34.869927350400019 C91.309999999999945 27.124185897400025 87.563948717899962 18.598017093999999 80.169399572600014 9.506038461499998 C75.252707265000026 3.477237179499980 70.336014957299994 -0.834623931599992 70.121397435900008 -1.010220085500009 L63.214615384599995 -7.000000000000000 L56.307833333299982 -1.010220085500009 C56.093215811999983 -0.834623931599992 51.176523504300008 3.477237179499980 46.259831196599976 9.506038461499998 C46.064724359000024 9.759677350400011 45.850106837599981 10.013316239300025 45.654999999999973 10.266955128199982 C45.459893162400022 10.013316239300025 45.264786324800014 9.759677350400011 45.050168803399970 9.506038461499998 C40.133476495699995 3.477237179499980 35.216784188000020 -0.834623931599992 35.002166666700020 -1.010220085500009 L28.095384615400008 -7.000000000000000 L21.188602564099995 -1.010220085500009 C20.973985042700008 -0.834623931599992 16.057292734999976 3.477237179499980 11.140600427399988 9.506038461499998 C3.746051282099984 18.598017093999999 0.000000000000000 27.124185897400025 0.000000000000000 34.869927350400019 L0.000000000000000 111.956638888899988 L21.071538461499983 111.956638888899988 L21.071538461499983 34.869927350400019 C21.071538461499983 32.860326923099990 22.768967948699981 28.626508547000014 27.490553418800005 22.812324786299996 C27.685660256400013 22.558685897399982 27.900277777800000 22.305047008500026 28.095384615400008 22.070918803399991 C28.349023504300021 22.383089743600010 28.622173076900026 22.695260683800029 28.875811965799983 23.026942307699983 C33.480333333299996 28.743572649600026 35.119230769199987 32.879837606799981 35.119230769199987 34.869927350400019 L35.119230769199987 111.956638888899988 L56.190769230800015 111.956638888899988 L56.190769230800015 34.869927350400019 C56.190769230800015 32.860326923099990 57.888198717900025 28.626508547000014 62.609784187999992 22.812324786299996 C62.804891025600000 22.558685897399982 63.019508546999987 22.305047008500026 63.214615384599995 22.070918803399991 C63.468254273500008 22.383089743600010 63.741403846200001 22.695260683800029 63.995042734999970 23.026942307699983 C68.599564102599970 28.743572649599969 70.238461538500019 32.879837606799981 70.238461538500019 34.869927350400019 L70.238461538500019 111.956638888899988 L91.309999999999945 111.956638888899988 z" />
<glyph unicode="x" horiz-adv-x="56" d="M44.897222222200000 58.547222222199998 C44.177777777799975 57.652777777799997 43.438888888900010 56.797222222199991 42.738888888900021 56.000000000000000 C43.458333333300004 55.202777777800009 44.177777777799975 54.347222222200003 44.897222222200014 53.452777777800009 C52.266666666700019 44.391666666700019 56.000000000000000 35.894444444399994 56.000000000000000 28.175000000000011 L56.000000000000000 0.000000000000000 L35.000000000000000 0.000000000000000 L35.000000000000000 28.175000000000011 C35.000000000000000 30.158333333299993 33.366666666699984 34.300000000000011 28.777777777799997 39.977777777799986 C28.524999999999977 40.308333333299970 28.252777777800020 40.619444444400017 28.000000000000000 40.930555555599994 C27.747222222199980 40.619444444400017 27.475000000000023 40.308333333299970 27.222222222200003 39.977777777799986 C22.633333333300016 34.280555555600017 21.000000000000000 30.158333333299993 21.000000000000000 28.175000000000011 L21.000000000000000 0.000000000000000 L0.000000000000000 0.000000000000000 L0.000000000000000 28.175000000000011 C0.000000000000000 35.894444444399994 3.733333333299981 44.391666666700019 11.102777777799986 53.452777777800009 C11.822222222200025 54.347222222200003 12.561111111099990 55.202777777800009 13.261111111099979 56.000000000000000 C12.541666666699996 56.797222222199991 11.822222222200025 57.652777777799997 11.102777777799986 58.547222222199991 C3.733333333299981 67.608333333299981 0.000000000000000 76.105555555600006 0.000000000000000 83.824999999999989 L0.000000000000000 112.000000000000000 L21.000000000000000 112.000000000000000 L21.000000000000000 83.824999999999989 C21.000000000000000 81.841666666700007 22.633333333300016 77.699999999999989 27.222222222200003 72.022222222200014 C27.475000000000023 71.691666666700002 27.747222222199980 71.380555555599983 28.000000000000000 71.069444444400006 C28.252777777800020 71.380555555599983 28.524999999999977 71.691666666700002 28.777777777799997 72.022222222200014 C33.366666666699984 77.719444444399983 35.000000000000000 81.841666666700007 35.000000000000000 83.824999999999989 L35.000000000000000 112.000000000000000 L56.000000000000000 112.000000000000000 L56.000000000000000 83.824999999999989 C56.000000000000000 76.105555555600006 52.266666666700019 67.608333333299981 44.897222222200014 58.547222222199991 z" />
<glyph unicode="y" horiz-adv-x="56" d="M56.000000000000000 111.825000000000003 L56.000000000000000 83.824999999999989 C56.000000000000000 76.105555555600006 52.266666666700019 67.608333333299981 44.897222222200014 58.547222222199991 C42.602777777799986 55.727777777799986 40.308333333300027 53.297222222199991 38.500000000000000 51.488888888900021 L38.500000000000000 0.000000000000000 L17.500000000000000 0.000000000000000 L17.500000000000000 51.488888888900021 C15.691666666699973 53.297222222199991 13.397222222200014 55.727777777799986 11.102777777799986 58.547222222199991 C3.733333333299981 67.608333333299981 0.000000000000000 76.105555555600006 0.000000000000000 83.824999999999989 L0.000000000000000 111.824999999999989 L21.000000000000000 111.824999999999989 L21.000000000000000 83.824999999999989 C21.000000000000000 81.841666666700007 22.633333333300016 77.699999999999989 27.222222222200003 72.022222222200014 C27.475000000000023 71.691666666700002 27.747222222199980 71.380555555599983 28.000000000000000 71.069444444400006 C28.252777777800020 71.380555555599983 28.524999999999977 71.691666666700002 28.777777777799997 72.022222222200014 C33.366666666699984 77.719444444399983 35.000000000000000 81.841666666700007 35.000000000000000 83.824999999999989 L35.000000000000000 111.824999999999989 L56.000000000000000 111.824999999999989 z" />
<glyph unicode="z" horiz-adv-x="56" d="M21.000000000000000 28.000000000000000 L21.000000000000000 21.000000000000000 L56.000000000000000 21.000000000000000 L56.000000000000000 0.000000000000000 L0.000000000000000 0.000000000000000 L0.000000000000000 28.000000000000000 C0.000000000000000 35.719444444399983 3.733333333299981 44.216666666700007 11.102777777799986 53.277777777799997 C16.002777777800020 59.286111111100013 20.902777777799997 63.583333333300004 21.116666666699984 63.758333333300016 C21.136111111099979 63.777777777799997 25.024999999999977 67.199999999999989 28.777777777799997 71.847222222200003 C33.366666666699984 77.544444444400000 35.000000000000000 81.666666666699996 35.000000000000000 83.650000000000006 L35.000000000000000 91.000000000000000 L0.000000000000000 91.000000000000000 L0.000000000000000 112.000000000000000 L56.000000000000000 112.000000000000000 L56.000000000000000 83.650000000000006 C56.000000000000000 75.930555555599994 52.266666666700019 67.433333333299998 44.897222222200014 58.372222222199980 C39.997222222199980 52.363888888900021 35.097222222200003 48.066666666700030 34.883333333300016 47.891666666700019 C34.863888888900021 47.872222222199980 30.975000000000023 44.449999999999989 27.222222222200003 39.802777777799975 C22.633333333300016 34.105555555600006 21.000000000000000 29.983333333299981 21.000000000000000 28.000000000000000 z" />
<glyph unicode="’" horiz-adv-x="56" d="M28.000000000000000 40.000000000000000 C12.548148148099983 40.000000000000000 0.000000000000000 52.548148148099983 0.000000000000000 68.000000000000000 L28.000000000000000 68.000000000000000 L28.000000000000000 40.000000000000000 z" />
<glyph unicode="“" horiz-adv-x="56" d="M10.500000000000000 91.000000000000000 C4.705555555599972 91.000000000000000 0.000000000000000 95.705555555600000 0.000000000000000 101.500000000000000 L10.500000000000000 101.500000000000000 L10.500000000000000 91.000000000000000 zM21.000000000000000 91.000000000000000 C15.205555555599972 91.000000000000000 10.500000000000000 95.705555555600000 10.500000000000000 101.500000000000000 L21.000000000000000 101.500000000000000 L21.000000000000000 91.000000000000000 z" />
</font>
</defs>
</svg>
