<?xml version="1.0" standalone="no"?>
<!DOCTYPE svg PUBLIC "-//W3C//DTD SVG 1.1//EN" "http://www.w3.org/Graphics/SVG/1.1/DTD/svg11.dtd" >
<svg xmlns="http://www.w3.org/2000/svg" xmlns:xlink="http://www.w3.org/1999/xlink" version="1.1">
<metadata>
Created by FontForge 20170812 at Fri Aug 19 15:19:47 2022
 By www-data
</metadata>
<defs>
<font id="OnceRegular" horiz-adv-x="0" >
  <font-face 
    font-family="Once"
    font-weight="400"
    font-stretch="normal"
    units-per-em="1000"
    panose-1="0 0 0 0 0 0 0 0 0 0"
    ascent="800"
    descent="-200"
    x-height="374.144"
    cap-height="816.821"
    bbox="-197 -499 1066.34 1007.22"
    underline-thickness="50"
    underline-position="-100"
    unicode-range="U+000A-20AC"
  />
<missing-glyph horiz-adv-x="527" 
d="M50 700h427v-700h-427v700zM78 680l185 -309l186 309h-371zM251 350l-180 300v-601zM264 329l-185 -308h370zM276 350l181 -303v605z" />
    <glyph glyph-name=".notdef" horiz-adv-x="527" 
d="M50 700h427v-700h-427v700zM78 680l185 -309l186 309h-371zM251 350l-180 300v-601zM264 329l-185 -308h370zM276 350l181 -303v605z" />
    <glyph glyph-name=".null" 
 />
    <glyph glyph-name=".null" 
 />
    <glyph glyph-name="LF" unicode="&#xa;" 
 />
    <glyph glyph-name="controlCR" unicode="&#xd;" 
 />
    <glyph glyph-name="space" unicode=" " horiz-adv-x="236" 
 />
    <glyph glyph-name="exclam" unicode="!" horiz-adv-x="237" 
d="M156.815 -23.668c-9.50488 -21.4912 -59.2705 -20.3867 -69.291 0.00488281c-27.623 56.2031 -25.8994 125.527 -29.3682 187.065c-3.41699 60.5469 -4.50781 121.016 -5.26562 181.649c-1.54199 123.207 -7.81641 249.229 5.02344 371.938
c5.12695 49.0234 122.055 49.4258 125.376 -0.000976562c8.2793 -123.254 -0.19043 -248.457 -1.14746 -371.937c-0.480469 -62.0361 -0.744141 -123.964 -2.63672 -185.975c-1.83594 -60.1611 2.02246 -126.857 -22.6904 -182.745zM104.79 -107.953
c9.68652 24.6309 76.4131 23.5703 78.4834 -6.05371c1.57617 -22.6045 -3.57715 -45.8369 -7.75195 -68.0469c-4.2002 -22.3623 -7.01074 -40.1211 -31.0654 -46.4648c-64.9512 -17.1309 -53.2939 85.918 -39.666 120.565z" />
    <glyph glyph-name="quotedbl" unicode="&#x22;" horiz-adv-x="341" 
d="M84.9619 765.462c14.792 31.5723 107.609 25.1602 93.042 -14.6182c-12.7139 -34.708 -30.9492 -70.1387 -56.1084 -97.4678c-9.97754 -10.8389 -29.9277 -12.2676 -43.5166 -10.0938c-9.00684 1.44238 -29.918 8.21484 -28.29 21.1797
c4.34375 34.6123 20.1758 69.6357 34.873 101zM259.25 782.455c11.8174 -1.89258 31.292 -8.79395 31.5947 -23.6475c0.416016 -20.5605 -15.2295 -39.8691 -25.3018 -57.0039c-11.042 -18.7852 -23.1152 -37.5742 -37.6396 -53.8867
c-15.3945 -17.291 -83.8096 -16.1523 -73.46 17.6504c5.71191 18.668 15.2305 36.1709 24.0732 53.5049c9.2666 18.1787 16.3857 38.5439 32.1348 52.1113c12.9736 11.1719 32.0615 13.917 48.5986 11.2715z" />
    <glyph glyph-name="quotedbl" unicode="&#x201d;" horiz-adv-x="341" 
d="M84.9619 765.462c14.792 31.5723 107.609 25.1602 93.042 -14.6182c-12.7139 -34.708 -30.9492 -70.1387 -56.1084 -97.4678c-9.97754 -10.8389 -29.9277 -12.2676 -43.5166 -10.0938c-9.00684 1.44238 -29.918 8.21484 -28.29 21.1797
c4.34375 34.6123 20.1758 69.6357 34.873 101zM259.25 782.455c11.8174 -1.89258 31.292 -8.79395 31.5947 -23.6475c0.416016 -20.5605 -15.2295 -39.8691 -25.3018 -57.0039c-11.042 -18.7852 -23.1152 -37.5742 -37.6396 -53.8867
c-15.3945 -17.291 -83.8096 -16.1523 -73.46 17.6504c5.71191 18.668 15.2305 36.1709 24.0732 53.5049c9.2666 18.1787 16.3857 38.5439 32.1348 52.1113c12.9736 11.1719 32.0615 13.917 48.5986 11.2715z" />
    <glyph glyph-name="quotedbl" unicode="&#x201c;" horiz-adv-x="341" 
d="M84.9619 765.462c14.792 31.5723 107.609 25.1602 93.042 -14.6182c-12.7139 -34.708 -30.9492 -70.1387 -56.1084 -97.4678c-9.97754 -10.8389 -29.9277 -12.2676 -43.5166 -10.0938c-9.00684 1.44238 -29.918 8.21484 -28.29 21.1797
c4.34375 34.6123 20.1758 69.6357 34.873 101zM259.25 782.455c11.8174 -1.89258 31.292 -8.79395 31.5947 -23.6475c0.416016 -20.5605 -15.2295 -39.8691 -25.3018 -57.0039c-11.042 -18.7852 -23.1152 -37.5742 -37.6396 -53.8867
c-15.3945 -17.291 -83.8096 -16.1523 -73.46 17.6504c5.71191 18.668 15.2305 36.1709 24.0732 53.5049c9.2666 18.1787 16.3857 38.5439 32.1348 52.1113c12.9736 11.1719 32.0615 13.917 48.5986 11.2715z" />
    <glyph glyph-name="numbersign" unicode="#" horiz-adv-x="490" 
d="M420.45 415.168c25.8047 -0.432617 25.7832 -24.6592 -0.0078125 -24.2305c-13.5371 0.225586 -27.0693 0.282227 -40.5977 0.200195c0.216797 -28.6016 0.702148 -57.2031 1.2998 -85.7959c1.46777 -70.0215 2.84082 -140.047 4.27832 -210.072
c0.706055 -34.3613 1.75879 -68.7139 1.53809 -103.088c-0.233398 -36.2148 -0.740234 -69.6016 -14.2773 -103.655c-7.72559 -19.4258 -53.5713 -18.0615 -61.9854 0c-16.1826 34.7334 -18.1836 70.2334 -20.665 107.95
c-2.25586 34.3135 -3.03516 68.7178 -4.19531 103.088c-2.31641 68.5879 -4.47754 137.172 -5.91992 205.781c-0.580078 27.584 -1.05176 55.1768 -1.28125 82.7695c-9.89453 -0.506836 -19.7891 -1.04395 -29.6836 -1.65039
c-4.6377 -0.28125 -9.27148 -0.623047 -13.9092 -0.925781c-0.823242 -29.7236 -1.47754 -59.4512 -1.89746 -89.1836c-0.948242 -67.0986 -0.515625 -134.201 -0.588867 -201.304c-0.078125 -68.4326 4.14355 -138.385 -10.3672 -205.471
c-3.8584 -17.8408 -21.9551 -23.3096 -38.3408 -24.752c-13.3242 -1.16895 -43.251 1.46387 -48.5166 18.0537c-21.2666 67.0254 -23.0293 137.939 -25.71 207.888c-2.62402 68.502 -2.68066 137.043 -1.97461 205.588c0.272461 26.4932 0.757812 52.9814 1.35156 79.4697
c-9.83398 -1.37305 -19.5508 -3.30469 -29.0166 -6.27539c-7.28809 -2.29102 -22.4482 -3.15234 -27.7744 4.14844c-5.21777 7.1582 -0.537109 13.3467 7.2832 15.832c16.1221 5.12695 32.9277 8.56543 50.0586 11.0029c0.272461 10.4492 0.619141 20.8936 0.939453 31.3428
c-10.2451 -1.14746 -20.4951 -2.29492 -30.7324 -3.5293c-7.24512 -0.875 -24.3027 -0.545898 -27.2998 8.83398c-2.9834 9.35352 7.68262 14.5498 15.5029 15.5635c14.4463 1.875 28.8965 3.63281 43.3594 5.30469c0.558594 16.0352 1.16016 32.0664 1.83594 48.0977
c2.84961 67.6143 0.567383 139.975 19.7852 205.319c6.38281 21.6904 45.1309 24.5049 62.5479 23.2754c19.7422 -1.39844 46.1182 -9.16699 49.4268 -31.9141c4.94043 -33.9756 1.58887 -68.4453 -0.467773 -102.572c-2.06152 -34.2051 -3.8584 -68.4277 -5.38672 -102.663
c-0.407227 -9.16309 -0.749023 -18.3301 -1.12109 -27.4971c13.6621 1.02637 27.3291 1.9707 41.0039 2.82422c0.229492 13.5059 0.52832 27.0117 0.978516 40.5137c1.13477 33.8936 3.02246 67.7656 5.97559 101.551c2.75879 31.5469 1.4209 76.4355 19.4092 103.5
c9.27539 13.957 26.7783 18.6035 42.8652 18.6035c12.4238 0 38.0117 -4.06152 42.8662 -18.6025c10.8389 -32.4775 -1.43359 -74.1006 -4.28711 -107.722c-2.86621 -33.7939 -4.67676 -67.6699 -5.74609 -101.567
c-0.329102 -10.5273 -0.567383 -21.0586 -0.766602 -31.5898c7.87207 0.24707 15.7402 0.533203 23.6123 0.723633c7.25781 0.177734 22.9033 -3.05664 22.9033 -13.0557c0 -10.2715 -15.3379 -12.8613 -22.9033 -13.0566
c-7.99414 -0.203125 -15.9883 -0.498047 -23.9775 -0.761719c-0.112305 -12.0518 -0.151367 -24.0986 -0.133789 -36.1504c13.5674 0.103516 27.1348 0.0859375 40.71 -0.139648zM278.52 411.987c-0.0302734 11.5449 0.0117188 23.0898 0.0986328 34.6299
c-13.9131 -0.878906 -27.8223 -1.84473 -41.7227 -2.89258c-0.416016 -11.4619 -0.779297 -22.9199 -1.13867 -34.3828c14.251 0.969727 28.5068 1.86621 42.7627 2.64551z" />
    <glyph glyph-name="dollar" unicode="$" horiz-adv-x="462" 
d="M366.384 125.624c22.8857 -38.0156 51.0107 -86.6758 44.0947 -132.941c-5.67676 -38.0029 -26.584 -81.3018 -58.5244 -103.897c-24.8262 -17.5596 -56.0439 -23.124 -87.0791 -21.7949c1.2168 -22.2754 2.9707 -44.5381 5.5127 -66.7783
c2.00098 -17.5117 -44.624 -18.6377 -46.7549 0c-2.80176 24.5312 -4.58105 49.0928 -5.71582 73.6719c-4.78516 1.17773 -9.50098 2.4375 -14.0654 3.83203c-44.7021 13.6406 -81.6055 44.9404 -96.8828 89.8936c-16.7412 49.249 -10.0771 106.457 -4.50879 156.996
c1.97852 17.958 46.6895 17.2568 45.334 0c-4.76367 -60.6338 -7.86816 -122.28 29.4072 -174.31c8.64746 -12.0684 22.9463 -24.124 39.3975 -33.0918c-0.969727 72.1045 3.39941 144.33 8.38379 216.469c-9.73926 12.3975 -19.3311 24.873 -28.3516 37.6602
c-32.5117 46.1006 -61.7373 95.6523 -87.46 145.85c-25.1553 49.0889 -47.4258 101.295 -56.1514 156.117c-16.8975 106.176 37.7295 213.317 149.664 231.873c14.7363 2.44238 30.3252 3.61621 45.9834 3.24805c0.670898 23.9727 1.35059 47.9414 2.06934 71.9102
c0.467773 15.6758 39.9863 15.3682 39.6484 0c-0.558594 -25.5615 -1.07812 -51.1279 -1.58887 -76.6943c26.0986 -5.88477 50.4697 -17.4336 69.1504 -36.7861c30.7324 -31.832 40.4326 -73.6543 40.4326 -116.615c0 -25.7441 -61.4297 -26.9219 -68.7129 -5.30078
c-8.43945 25.0508 -20.1963 66.9551 -42.1982 91.3613c-2.27344 -116.387 -4.62891 -232.795 -9.14941 -349.095c-0.186523 -4.7334 -0.416016 -9.4707 -0.624023 -14.2041c0.96582 -1.71875 1.93164 -3.4375 2.89746 -5.14844
c27.2158 -48.2656 57.2334 -94.7861 85.792 -142.225zM237.417 348.269c4.1875 102.426 6.97656 204.925 9.7959 307.402c-42.6152 0.37207 -59.8242 -49.3008 -63.0938 -86.0957c-6.91113 -77.8203 19.0625 -151.917 53.2979 -221.307zM309.959 -79.1221
c27.9043 32.4512 4.1084 85.9561 -14.5508 117.014c-8.70801 14.4893 -18.4385 28.377 -28.584 42.0176c-3.11328 -59.0654 -5.04492 -118.14 -3.39551 -177.128c17.6855 -0.978516 34.3965 3.98438 46.5303 18.0967z" />
    <glyph glyph-name="percent" unicode="%" horiz-adv-x="685" 
d="M519.141 752.021c22.5566 26.3633 134.101 23.2363 113.718 -27.3242c-15.4766 -38.3838 -39.4707 -73.291 -59.5117 -109.445c-20.3701 -36.7471 -39.874 -73.9707 -58.7109 -111.527c-36.5566 -72.875 -70.5713 -146.997 -103.568 -221.544
c-33.123 -74.833 -65.6611 -149.903 -99.2471 -224.532c-17.4902 -38.8691 -36.4697 -76.9502 -55.6875 -114.996c-9.72168 -19.248 -19.5859 -38.2275 -30.4941 -56.835c-12.1982 -20.8115 -26.1465 -36.0547 -43.2734 -52.7178
c-13.8271 -13.4502 -70.793 -18.2568 -70.9229 10.9512c-0.0957031 21.3311 1.74023 37.7861 8.72949 58.3379c6.68652 19.6602 14.1826 38.8779 21.7646 58.209c15.2559 38.8906 30.0098 77.9375 46.0664 116.508c31.8408 76.4824 63.6689 152.908 97.0605 228.736
c33.3564 75.7588 67.7959 151.067 104.911 225.068c37.4707 74.7109 74.543 157.273 129.166 221.111zM289.662 533.282c-14.8838 -69.1074 -82.1836 -106.759 -150.022 -93.1572c-78.167 15.6797 -98.9697 92.3047 -86.0996 161.789
c3.34277 18.0273 25.583 28.2861 48.6982 30.1523c25.6094 22.5439 63.9326 31.3125 98.8652 24.752c57.8877 -10.8691 101.398 -63.9375 88.5586 -123.536zM196.951 622.522c-16.2383 11.1201 -33.9854 8.43945 -48.332 -1.16504
c5.9502 -4.8457 9.5918 -11.2939 9.45801 -19.4395c-0.554688 -34.0664 -7.87695 -74.9922 14.1299 -104.525c1.77148 -2.37695 5.21875 -6.77246 8.41016 -8.93359c-0.640625 1.15234 5.88477 1.47754 9.89941 3.53906c16.3252 8.37891 28.0254 22.8896 33.9844 40.0596
c10.9814 31.6328 0.852539 71.0127 -27.5498 90.4648zM562.023 123.932c46.2432 -32.2607 61.2754 -90.3916 23.8916 -135.531c-40.082 -48.3955 -120.051 -68.4844 -172.24 -27.7578c-46.8584 36.5654 -41.8223 115.226 -17.1182 163.137
c9.18066 17.7979 43.0225 24.3799 68.3809 19.002c32.8975 7.40039 72.4033 -1.62793 97.0859 -18.8496zM517.142 2.55664c25.5752 20.0234 36.3467 54.0527 22.7061 84.6035c-8.71289 19.5254 -26.6963 29.251 -45.334 29.4541
c0.00390625 -2.50684 -0.381836 -5.1748 -1.26074 -8.02832c-9.45312 -30.6113 -20.3311 -65.3193 -11.4883 -97.5977c1.63672 -5.98438 4.19141 -12.4668 7.59473 -17.6807c0.142578 -0.216797 1.92676 -2.29492 3.32129 -4.23047
c1.34277 0.211914 2.9707 0.5625 4.81543 1.30273c6.9541 2.79297 13.7783 7.58203 19.6455 12.1768z" />
    <glyph glyph-name="ampersand" unicode="&#x26;" horiz-adv-x="610" 
d="M557.281 169.872c11.2939 -42.8613 -13.6211 -87.9453 -35.3809 -123.182c-20.8291 -33.7285 -45.9062 -63.166 -77.7471 -87.0352c-67.4062 -50.5303 -161.388 -75.1572 -244.521 -56.9131c-45.0352 9.88184 -89.7715 33.8672 -107.37 79.0586
c-17.9277 46.0312 -2.69824 97.709 20.4043 138.951c22.2188 39.6611 49.9326 76.9414 80.4141 110.623c13.4414 14.8535 27.9004 28.0693 42.7451 40.7529c-53.8604 7.36133 -105.616 27.5879 -142.922 65.041c-117.001 117.452 30.8535 294.294 139.319 353.953
c61.6514 33.9062 148.942 49.4561 206.93 -1.09668c59.1699 -51.5781 30.8145 -131.243 28.9873 -197.449c-0.736328 -26.5928 -68.0732 -24.1201 -65.2285 0c6.19629 52.5488 31.5508 169.767 -43.7578 188.392c-28.4678 7.04102 -59.2783 -10.9346 -81.3496 -27.1172
c-25.8564 -18.9541 -49.3613 -43.1992 -66.7256 -70.1855c-34.1621 -53.0898 -61.084 -128.473 -28.8184 -188.569c34.123 -63.5605 102.556 -56.3682 164.757 -54.8955c17.3086 0.407227 40.9951 -4.87109 51.7432 -19.8408
c9.65625 -13.4502 1.69238 -28.1172 -11.71 -35.2539c-32.8975 -17.5166 -61.8936 -45.7461 -87.7676 -72.2002c-25.1592 -25.7227 -48.0107 -53.5752 -67.6924 -83.7012c-28.4463 -43.542 -75.8936 -131.746 -16.7588 -172.521
c40.627 -28.0176 108.73 -7.77344 148.881 10.6309c56.459 25.8779 106.994 68.0254 133.4 125.069c14.0996 30.4512 26.2939 71.6973 -0.844727 98.7666c-11.4619 11.4316 -26.8389 17.1777 -42.9131 14.1729c-5.62988 -1.05273 -47.0625 -17.5039 -37.5059 -28.0703
c14.7705 -16.3301 -26.9873 -22.9082 -37.5098 -12.498c-37.2412 36.8379 55.9434 66.8555 79.1797 67.8818c41.8184 1.84863 88.3438 -19.4268 99.7627 -62.7646z" />
    <glyph glyph-name="quotesingle" unicode="'" horiz-adv-x="230" 
d="M87.9033 764.69c16.7891 28.0127 106.99 23.0312 89.8418 -14.1191c-14.3721 -31.1348 -36.8076 -58.208 -47.8672 -90.9189c-8.46582 -25.0332 -79.8213 -23.8506 -79.8779 6.16309c-0.0693359 37.4795 19.2656 67.7744 37.9033 98.875z" />
    <glyph glyph-name="quotesingle" unicode="&#x2019;" horiz-adv-x="230" 
d="M87.9033 764.69c16.7891 28.0127 106.99 23.0312 89.8418 -14.1191c-14.3721 -31.1348 -36.8076 -58.208 -47.8672 -90.9189c-8.46582 -25.0332 -79.8213 -23.8506 -79.8779 6.16309c-0.0693359 37.4795 19.2656 67.7744 37.9033 98.875z" />
    <glyph glyph-name="quotesingle" unicode="&#x2018;" horiz-adv-x="230" 
d="M87.9033 764.69c16.7891 28.0127 106.99 23.0312 89.8418 -14.1191c-14.3721 -31.1348 -36.8076 -58.208 -47.8672 -90.9189c-8.46582 -25.0332 -79.8213 -23.8506 -79.8779 6.16309c-0.0693359 37.4795 19.2656 67.7744 37.9033 98.875z" />
    <glyph glyph-name="parenleft" unicode="(" horiz-adv-x="598" 
d="M545.764 -204.455c5.85449 -10.0244 -2.31934 -17.6904 -11.9893 -20.8555c-115.729 -37.7998 -244.703 -26.6885 -342.911 49.4521c-94.458 73.2344 -127.551 204.071 -137.762 317.418c-10.9648 121.678 8.34375 246.148 38.9854 363.777
c27.4502 105.374 65.7432 208.549 125.502 300.161c29.6719 45.4854 65.2803 87.2686 106.172 123.055c39.584 34.6426 93.4014 65.8682 146.305 42.0215c7.8418 -3.5332 7.04102 -11.0117 1.64062 -15.7227c-7.00684 -6.11426 -18.8203 -5.30469 -27.0996 -3.08301
c-18.9189 5.0752 -49.6211 -37.5439 -60.5938 -49.7949c-16.4072 -18.3213 -31.3467 -37.8164 -44.7705 -58.4248c-27.3594 -42.0039 -50.5439 -86.6328 -69.3594 -133.089c-36.3311 -89.7119 -59.8926 -185.191 -77.6211 -280.164
c-19.4082 -103.976 -27.5791 -210.892 -14.0898 -316.158c11.9297 -93.1113 40.6309 -198.654 114.904 -261.553c57.9658 -49.0889 145.495 -62.5566 218.123 -47.3701c9.7041 2.02637 28.749 0.285156 34.5645 -9.66992z" />
    <glyph glyph-name="parenright" unicode=")" horiz-adv-x="598" 
d="M517.094 457.691c26.541 -118.582 40.7246 -242.217 21.8271 -363.06c-17.668 -112.979 -60.1357 -229.006 -162.137 -291.54c-94.4961 -57.9355 -209.268 -62.21 -312.771 -28.4033c-9.63477 3.14844 -17.9922 10.9824 -11.9863 20.8555
c6.01953 9.9082 24.4189 11.792 34.5605 9.66992c85.1514 -17.8018 180.254 4.5166 240.865 68.8477c33.3652 35.4131 51.9854 81.5098 67.0332 127.064c16.2773 49.2881 25.2148 100.533 29.0996 152.229c7.97168 106.119 -3.7373 212.217 -25.8867 316.028
c-19.8154 92.877 -43.9873 186.109 -83.4189 272.829c-18.6641 41.0469 -40.9268 81.1289 -67 117.958c-12.917 18.2441 -27.2803 35.5088 -42.6484 51.7393c-10.2676 10.8428 -34.1494 44.5068 -51.4531 39.8643c-8.01562 -2.15234 -20.2969 -3.0918 -27.0996 3.08301
c-5.32617 4.83301 -6.09668 12.2383 1.6416 15.7246c58.1045 26.1855 115.373 -13.2598 156.901 -51.5439c45.2344 -41.6973 82.9814 -90.5352 114.107 -143.499c57.6494 -98.0996 93.6133 -207.237 118.365 -317.847z" />
    <glyph glyph-name="asterisk" unicode="*" horiz-adv-x="431" 
d="M378.059 656.515c6.51758 -7.98926 0.0732422 -14.9814 -8.21484 -17.8652c-42.2119 -14.6797 -81.6436 -35.4092 -117.516 -61.9668c28.6846 -29.4121 46.7637 -68.9609 60.6074 -107.007c11.6572 -32.0312 -64.7129 -38.2236 -75.2266 -11.8213
c-8.75586 21.9893 -16.5674 44.7021 -20.9492 67.9863c-1.12109 5.97168 -2.20801 11.5146 -3.50684 16.707c-23.6006 -23.6094 -44.5508 -49.4053 -67.7393 -73.2959c-10.7568 -11.0811 -30.9365 -11.7002 -44.8672 -8.37891
c-8.65625 2.06152 -28.5625 11.5186 -20.8027 24.1592c13.3242 21.708 31.3555 41.1816 48.5508 59.9014c12.251 13.3379 35.4922 29.0264 43.8623 46.3564c-37.8213 23.5957 -76.9463 45.5547 -115.902 67.0635c-9.23242 5.10156 -7.67383 13.3203 0 18.6553
c8.82129 6.13574 23.709 4.87109 32.7246 -0.000976562c29.4727 -15.918 60.2139 -31.5898 89.7988 -48.7119c0.883789 15.083 0.666992 30.5596 1.34277 44.4727c1.21289 24.9775 -0.943359 49.5215 -0.779297 74.3779c0.0341797 5.46094 4.95801 11.082 9.64746 13.2773
c2.16504 1.01367 4.33008 2.03125 6.49512 3.04492c11.8047 5.53027 28.9658 4.24023 40.0908 -3.04297c12.2031 -7.98535 12.9346 -23.2021 14.2812 -36.54c3.33008 -32.9023 1.6582 -66.6006 0.583984 -99.5889c-0.0957031 -2.94043 -0.12207 -6.02344 -0.152344 -9.14551
c30.2734 18.7197 62.335 34.1533 96.3369 46.0488c8.4873 2.9707 24.9248 3.16992 31.334 -4.68555z" />
    <glyph glyph-name="plus" unicode="+" horiz-adv-x="330" 
d="M256.948 379.213c7.33594 -0.0869141 23.1445 -2.89258 23.1406 -13.1904c0 -10.168 -15.5029 -13.3076 -23.1416 -13.1904c-11.6396 0.177734 -23.2188 -0.0302734 -34.7725 -0.380859c-0.0478516 -5.08398 -0.0908203 -10.168 -0.177734 -15.252
c-0.476562 -28.2471 -0.615234 -56.7451 -2.37793 -84.9268c-1.73242 -27.6494 -2.60254 -56.2988 -12.1592 -82.5322c-8.95508 -24.583 -67.917 -22.5781 -77.9678 0c-11.8867 26.7051 -14.4551 57.9268 -17.3047 86.7754
c-2.63281 26.6621 -3.47266 53.8916 -4.13477 80.6787c-0.0654297 2.63281 -0.0742188 5.26953 -0.117188 7.90234c-12.7139 -0.905273 -25.4492 -1.74121 -38.2412 -2.33398c-21.4131 -0.996094 -28.333 18.6465 -5.64648 23.7861
c14.2471 3.23047 28.8701 5.65527 43.6924 7.50879c0.0478516 16.0264 0.264648 32.0615 0.442383 48.0664c0.311523 28.2773 -0.636719 57.0615 4.89746 84.9102c8.28809 41.6885 102.893 43.7412 108.799 0c3.97559 -29.4287 1.31641 -59.5547 0.814453 -89.1523
c-0.216797 -12.7871 -0.282227 -25.5742 -0.338867 -38.3613c11.6611 -0.0390625 23.2227 -0.168945 34.5938 -0.307617z" />
    <glyph glyph-name="comma" unicode="," horiz-adv-x="237" 
d="M163.027 36.8867c16.499 -4.15723 32.3418 -16.1055 19.333 -32.6904c-27.1162 -34.5605 -62.5293 -81.6748 -109.959 -84.1865c-6.79395 -0.359375 -20.8721 2.64551 -22.2617 11.2021c-0.960938 5.91504 3.20898 9.52246 8.19727 11.7227
c2.70605 4.93262 4.66797 12.918 7.03223 17.0059c3.84961 6.66016 7.94141 13.1035 12.415 19.3477c10.2021 14.2383 20.292 28.5713 30.6846 42.667c12.2158 16.5684 35.4658 19.7422 54.5586 14.9316z" />
    <glyph glyph-name="hyphen" unicode="-" horiz-adv-x="408" 
d="M357.904 283.417c4.61133 -21.9551 -28.1279 -27.2979 -42.7295 -28.0947c-82.2725 -4.47754 -169.429 -10.9775 -250.562 5.12695c-19.3916 3.8457 -19.582 20.1494 0 23.873c77.9941 14.8398 159.799 13.3975 238.996 19.7109
c15.9707 1.27344 49.7607 0.957031 54.2949 -20.6162z" />
    <glyph glyph-name="period" unicode="." horiz-adv-x="184" 
d="M121.946 36.3584c4.52051 -2.65918 13.5791 -10.0498 12.1846 -16.7705c-3.2998 -15.9482 -8.08008 -31.9492 -23.1064 -40.6748c-11.9473 -6.9375 -31.8496 -7.53516 -43.793 0c-13.9004 8.77344 -19.6162 24.7607 -16.3252 40.6748
c1.66699 8.03711 5.42578 12.4541 12.1895 16.7715c8.5 5.42578 19.5557 6.69434 29.4248 6.94531c9.41016 0.242188 21.1934 -2.09668 29.4258 -6.94629z" />
    <glyph glyph-name="slash" unicode="/" horiz-adv-x="638" 
d="M546.562 823.038c12.8398 -0.905273 43.2979 -8.01758 41.6348 -26.8809c-3.70703 -41.9092 -20.2402 -85.6807 -34.1836 -125.165c-14.6455 -41.4756 -29.8623 -82.6396 -46.0449 -123.548c-31.915 -80.6787 -64.7432 -161.015 -99.4248 -240.541
c-34.7207 -79.6172 -70.5586 -158.741 -107.501 -237.35c-18.7637 -39.9209 -37.8125 -79.708 -57.1436 -119.356c-19.292 -39.5703 -37.2109 -82.2021 -63.3008 -117.814c-18.9238 -25.8301 -51.9727 -30.7061 -82.3584 -26.6533
c-23.8252 3.17871 -55.4629 18.6211 -46.7637 46.9463c12.7012 41.3418 36.7949 80.4062 56.2256 118.929c19.9453 39.5488 39.6094 79.2363 58.9922 119.066c37.5479 77.1582 74.0264 154.831 109.432 232.993c35.4434 78.2539 70.4932 156.681 104.27 235.67
c17.4863 40.8916 35.124 81.6924 52.9434 122.44c17.8105 40.7227 35.2227 84.9873 60.5547 121.665c11.7607 17.0273 33.1006 20.9805 52.6689 19.5986z" />
    <glyph glyph-name="zero" unicode="0" horiz-adv-x="505" 
d="M447.139 380.819c7.91113 -70.9092 11.7188 -141.874 4.33594 -213.018c-6.50879 -62.7158 -19.2051 -130.065 -52.5225 -184.623c-37.9766 -62.1924 -101.555 -103.214 -176.266 -97.7275c-154.445 11.3457 -170.073 208.831 -172.45 327.595
c-2.84473 142.19 19.9678 289.772 63.0371 425.234c3.64648 11.4795 14.8662 18.4082 27.9219 22.4395c18.6426 45.3037 75.7939 60.9189 124.034 48.6035c68.0771 -17.3818 109.705 -74.3125 136.679 -135.561c26.5234 -60.2354 37.9775 -127.949 45.2305 -192.943z
M249.556 -47.874c0.580078 3.24316 -1.55078 4.0957 -4.43066 3.91406c2.45117 -2.44629 4.37402 -4.23047 4.43066 -3.91406zM341.575 180.009c7.24902 56.9785 8.35352 115.03 7.37891 172.403c-0.935547 54.8174 -2.71484 110.367 -12.3193 164.453
c-8.69141 48.9541 -23.5186 99.2119 -53.2461 139.77c-26.2461 35.8115 -74.5986 39.5049 -97.0557 8.65137c12.9521 -1.02148 26.2764 -3.67578 37.6523 -10.3486c6.93262 -4.06641 21.8809 -16.165 19.3994 -26.6963
c-30.4766 -129.412 -55.9473 -257.04 -58.9268 -390.475c-1.22559 -54.8525 -0.00878906 -110.744 9.60938 -164.891c4.64648 -26.1729 12.3584 -51.8086 23.5742 -75.9414c4.71582 -10.1504 9.86426 -20.543 16.5938 -29.5195
c0.311523 -0.419922 4.86719 -5.26562 8.92871 -9.40137c7.86426 4.63379 14.2686 10.0557 20.8682 16.6426c15.4424 15.416 26.8828 33.5986 36.3789 53.1631c23.0283 47.4346 34.5469 100.174 41.1641 152.189z" />
    <glyph glyph-name="one" unicode="1" horiz-adv-x="400" 
d="M56.0801 648.716c30.7803 22.6348 65.3564 49.126 101.636 62.1387c32.4473 11.6396 61.499 -0.68457 84.1816 -24.5361c54.3721 -57.1777 59.1875 -155.429 64.6914 -229.391c6.5 -87.3555 2.02637 -175.032 -0.814453 -262.436
c-1.46777 -45.1094 -2.97949 -90.2744 -3.38184 -135.405c-0.37207 -41.5361 3.39941 -83.6396 0.554688 -125.099c3.38672 0.0126953 6.76465 -0.0605469 10.1074 -0.277344c11.4277 -0.745117 29.9834 -2.82324 35.3311 -15.334
c5.05762 -11.8262 -7.1582 -20.21 -16.8369 -23.583c-28.7227 -10.0078 -62.166 -10.3545 -92.2969 -13.9922c-32.0576 -3.87109 -64.3145 -7.74707 -96.627 -8.22363c-11.3584 -0.164062 -37.2627 4.85938 -36.877 21.0205
c0.398438 16.7412 24.4062 20.4434 36.8779 21.0195c9.79102 0.450195 19.5605 1.40332 29.3125 2.58105c-0.883789 2.10059 -1.66797 4.2832 -2.21777 6.63477c-9.01562 38.5918 -7.58203 78.9033 -7.08398 118.34c0.480469 38.1152 1.91406 76.209 4.625 114.229
c5.44336 76.2832 12.8955 152.371 19.04 228.585c6.07129 75.2998 13.0518 151.181 12.6924 226.784c-0.0605469 12.043 1.3125 77.3662 -18.0137 76.3965c-13.1768 -0.662109 -37.5088 -20.3525 -48.6729 -27.2549c-15.3252 -9.47461 -30.2129 -19.5771 -44.8408 -30.0869
c-13.2295 -9.50488 -52.4062 2.43359 -31.3867 17.8887z" />
    <glyph glyph-name="two" unicode="2" horiz-adv-x="425" 
d="M55.9502 522.508c-29.2041 89.9883 54.2725 171.671 137.397 189.317c41.5625 8.82129 84.4766 -5.20508 112.823 -36.8643c29.5977 -33.0576 42.0215 -75.5771 49.0889 -118.525c14.9912 -91.1406 -6.24902 -188.447 -33.1494 -275.404
c-27.3984 -88.5557 -64.124 -173.963 -101.022 -258.876c-9.31055 -21.418 -19.041 -42.7451 -27.5889 -64.4746c-0.489258 -1.24707 -0.991211 -3.8457 -1.53223 -6.84277c9.46582 1.55469 18.9014 3.02734 27.835 4.94141c25.1074 5.38281 50.0498 11.5752 75.668 13.875
c24.2021 2.16992 58.2734 1.46875 74.2354 -20.7676c15.1602 -21.1191 -7.25391 -37.916 -25.749 -44.7881c-28.4463 -10.5664 -58.8018 -15.7285 -88.3652 -22.3232c-22.0977 -4.92773 -44.3984 -11.2324 -66.9121 -13.8916
c-49.2363 -5.81543 -134.951 4.02344 -135.743 70.1523c-0.250977 21.041 10.6094 42.5107 18.5732 61.4385c8.11035 19.2783 16.3555 38.4961 24.6094 57.7139c17.083 39.7656 34.7373 79.2842 51.3096 119.267c32.4951 78.4053 62.4658 159.547 79.3369 242.932
c8.88184 43.9053 15.7109 88.2656 16.0664 133.132c0.277344 35.292 -1.2207 79.4395 -18.2129 111.385c-20.249 38.0635 -66.5361 2.35938 -88.5254 -17.5908c-32.6338 -29.6064 -52.2676 -73.5029 -39.168 -117.365c5.36523 -17.9668 -36.2324 -21.0547 -40.9746 -6.43945
z" />
    <glyph glyph-name="three" unicode="3" horiz-adv-x="510" 
d="M84.834 618.23c-13.7314 24.0293 10.0283 51.8467 27.0771 67.7129c22.3965 20.8467 51.9688 33.6514 81.7227 39.6484c52.7871 10.6396 137.259 2.7627 160.066 -55.8008c11.3711 -29.1992 0.501953 -58.3945 -9.26758 -86.3164
c-10.0811 -28.8096 -24.4922 -55.2549 -38.1543 -82.4277c-14.1904 -28.2207 -13.8008 -49.1406 6.76855 -74.0059c16.6631 -20.1494 34.4648 -39.0859 50.1709 -60.0703c70.0303 -93.5654 115.793 -210.84 89.5898 -328.655
c-27.2383 -122.449 -132.032 -229.079 -266.221 -200.681c-143.923 30.46 -147.431 209.961 -128.343 325.814c4.58594 27.8271 38.5225 35.7344 62.6904 35.7344c19.1924 0 64.7041 -8.19336 62.6904 -35.7344c-4.25684 -58.2217 -8.45312 -117.738 3.04004 -175.41
c4.64648 -23.3359 11.6484 -48.9453 25.6309 -68.6055c4.37793 -6.15332 9.91602 -11.3672 15.6885 -15.2217c0.770508 -0.510742 1.47656 -0.926758 2.11719 -1.25977c-2.97949 -0.186523 -5.55176 -1.89746 0.774414 -0.347656
c3.65039 -1.64941 4.45996 -0.329102 0.943359 0.242188c0.770508 0.203125 1.61035 0.428711 2.60645 0.714844c29.7188 8.56152 58.8096 44.793 74.7578 73.9365c21.2139 38.7607 31.4463 81.4141 32.46 125.449c2.07812 90.4785 -36.8555 177.688 -92.1406 247.817
c-27.1602 34.4561 -73.1357 70.5273 -68.6797 119.175c2.2998 25.1162 16.3262 46.0703 28.5547 67.2627c11.7227 20.3135 22.1592 41.3115 32.3789 62.4092c14.0518 29.0049 42.5674 83.4844 -9.22363 88.291c-20.3701 1.8877 -42.2559 -4.29199 -60.209 -13.5195
c-15.0391 -7.72559 -55.6924 -27.5156 -46.5166 -49.7129c7.26172 -17.5635 -33.6514 -19.2568 -40.9736 -6.43945z" />
    <glyph glyph-name="four" unicode="4" horiz-adv-x="586" 
d="M127.627 213.486c-24.1113 -4.53418 -66.249 -5.48242 -75.9443 23.4531c-9.93848 29.6367 26.5615 53.4453 47.1475 66.8086c31.3643 20.3613 67.1328 33.668 102.33 45.7236c5.00977 1.71875 10.0635 3.30762 15.0996 4.95703
c2.5332 6.74707 4.91016 13.5195 7.17969 20.2578c13.0645 38.7568 22.7432 78.583 29.0527 118.994c12.5625 80.4531 11.835 163.02 -0.458984 243.455c-2.42969 15.9053 39.873 16.8496 42.9648 0c16.6934 -91.0283 15.9785 -183.711 -2.04004 -274.526
c-5.91113 -29.793 -12.9307 -61.3438 -22.877 -91.8896c40.9346 11.3672 82.4453 20.6123 124.315 27.8096c-0.450195 33.8594 -0.701172 67.7188 -0.866211 101.569c-0.333008 68.0771 -4.58984 138.463 3.45117 206.138c6.08887 51.2061 126.589 51.7432 131.062 0
c5.88086 -68.0166 0.576172 -137.865 0.649414 -206.138c0.0732422 -68.7227 1.22559 -137.41 2.23926 -206.124c1.01367 -68.6924 2.62012 -137.35 4.10156 -206.033c0.736328 -34.2354 1.80176 -68.7217 1.21289 -102.957
c-0.567383 -32.9932 1.71484 -72.0703 -23.7305 -96.5713c-16.2559 -15.6494 -48.3613 -13.7617 -64.9121 0c-28.0908 23.3623 -29.9658 66.7783 -33.7979 100.862c-3.67676 32.707 -5.9375 65.8213 -8.02051 98.667c-4.34375 68.5576 -7.20996 137.366 -9.22754 206.032
c-0.753906 25.5918 -1.27344 51.1885 -1.70215 76.7939c-46.3652 -8.45703 -92.1846 -19.5947 -137.216 -33.5039c-11.6484 -27.6582 -26.4541 -53.5488 -46.0576 -75.3086c-21.9854 -24.3975 -51.5439 -42.377 -83.9561 -48.4697zM106.95 265.861
c-4.75488 -5.10547 -17.5986 -20.8291 -7.54395 -28.0479c5.20508 -3.73242 21.0625 2.26074 26.1982 4.14844c16.9355 6.22656 31.542 17.8193 43.7842 30.832c12.5967 13.3896 22.6172 28.8184 31.001 45.1914c-32.4209 -11.8564 -69.7266 -26.6621 -93.4395 -52.124z" />
    <glyph glyph-name="five" unicode="5" horiz-adv-x="556" 
d="M311.264 388.367c48.3486 -10.1455 93.8623 -35.5576 127.448 -71.958c111.198 -120.539 76.4082 -312.949 -46.3701 -412.36c-72.5283 -58.7275 -200.832 -79.7559 -267.844 0.0517578c-56.5674 67.3711 -49.9121 171.581 -21.4355 249.691
c13.207 36.2236 119.858 35.8213 118.485 -9.14062c-1.67188 -54.666 -19.7334 -110.116 -4.37793 -164.519c5.0625 -17.9404 14.083 -38.7129 28.8232 -50.5479c4.84961 -3.89258 4.5166 -2.01367 6.79395 -3.85449c2.61133 0.727539 7.79883 1.92676 9.60449 2.875
c72.6504 38.085 117.785 131.945 118.733 211.472c0.818359 68.4932 -35.0498 153.121 -103.707 178.683c-4.60742 1.71484 -9.2666 3.75488 -14.1641 3.44336c1.35938 0.0869141 2.13867 -1.01758 3.68457 -0.545898c-3.56836 -1.09082 -11.9385 -5.29102 -17.001 -7.60742
c-25.4922 -11.6699 -50.1143 -21.2354 -78.6689 -20.4121c-32.335 0.930664 -68.3291 14.6279 -71.6895 50.9463c-2.07422 22.4482 4.15723 47.2354 6.47363 69.5713c5.23535 50.5264 7.55176 101.174 11.0723 151.817c2.44629 35.1924 1.27734 73.1523 5.98828 109.302
c-5.43848 0.376953 -10.8906 1.05273 -16.3682 2.16602c-26.2119 5.33496 -54.251 21.9248 -56.6934 50.8857c-1.81445 21.5518 43.1816 15.8789 51.0371 3.93555c8.40918 -12.792 18.4775 -18.4043 29.5195 -20.0498c1.02637 3.5293 2.12207 7.03223 3.35156 10.4834
c7.20117 20.2188 51.9766 17.4082 62.209 1.00879c32.1006 7.9375 64.2012 15.8965 96.3105 23.8076c35.5088 8.75195 71.459 17.2139 107.955 8.97363c24.2803 -5.48242 55.918 -19.9287 63.5439 -45.9805c7.47461 -25.5537 -45.9658 -29.1309 -57.4453 -13.8057
c-8.14062 10.8652 -15.5801 21.8604 -29.4893 25.3115c-17.3945 4.31738 -39.1152 -3.26953 -56.0557 -7.34863c-37.0371 -8.91602 -74.0654 -17.8887 -111.099 -26.8311c5.46094 -20.582 8.18066 -42.2598 10.6104 -62.7812
c3.79785 -32.1055 6.7207 -64.7344 7.33984 -97.0557c0.619141 -32.3262 0.489258 -64.665 -0.398438 -96.9863c-0.389648 -14.1035 -0.870117 -28.2246 -1.64551 -42.3203c0.203125 0.0429688 0.393555 0.103516 0.601562 0.146484
c27.8916 5.75977 57.0088 5.37891 84.8662 -0.466797zM161.622 364.284c-5.52148 -0.584961 -4.78027 -1.93555 0 0zM253.651 -75.0244c3.47754 -3.28711 3.79395 -0.0830078 -0.121094 0.107422c0.0429688 -0.0429688 0.0732422 -0.0644531 0.121094 -0.107422z" />
    <glyph glyph-name="six" unicode="6" horiz-adv-x="430" 
d="M244.853 459.047c-25.7832 -84.0605 -47.3662 -170.542 -55.585 -258.244c-1.56738 -16.7285 -2.94434 -34.2314 -3.84082 -52.0771c37.5312 2.62402 74.8066 0.645508 110.853 -14.6924c49.9717 -21.2617 82.5225 -63.5947 83.3584 -118.858
c0.658203 -43.71 -16.5635 -90.4512 -50.9941 -118.542c-40.1123 -32.7246 -97.7012 -41.4199 -146.53 -25.3066c-106.769 35.2314 -132.499 156.628 -132.109 255.979c0.428711 109.189 27.1035 218.934 62.0713 321.771c33.7852 99.3594 77.2402 211.493 162.422 277.959
c10.6094 8.2793 24.6396 11.0547 37.8994 8.79004c7.05371 -1.2041 26.9902 -7.34863 24.6387 -18.4473c-9.51367 -44.8711 -29 -86.2949 -46.3945 -128.615s-32.373 -85.9785 -45.7881 -129.715zM256.751 100.513c-22.4092 10.0596 -47.5703 10.7656 -72.3701 7.95508
c0.164062 -52.3799 6.72461 -105.5 28.0645 -150.332c6.26562 -13.1689 13.4326 -28.5723 24.7871 -38.2373c2.7627 -2.35156 5.49121 -4.55957 8.74805 -5.83301c-1.49805 1.06543 5.54785 1.70215 8.4668 2.91504c33.3779 13.8828 48.7637 58.3682 50.6348 91.3223
c2.15625 37.96 -11.792 75.8066 -48.3311 92.21z" />
    <glyph glyph-name="seven" unicode="7" horiz-adv-x="479" 
d="M163.071 735.288c37.3447 9.91211 77.248 17.7891 114.844 4.49023c64.0938 -22.6689 83.498 -92.7725 91.9766 -153.241c10.6309 -75.8242 2.45996 -155.688 -4.70215 -231.495c-2.55957 -27.0732 -5.56055 -54.0732 -8.89062 -81.0293
c14.4502 1.2041 28.8965 2.4082 43.3428 3.6123c7.69922 0.640625 25.54 0.774414 28.7578 -9.30664c3.05762 -9.5791 -8.01074 -15.7285 -16.3291 -16.3906l-59.2002 -4.7168c-5.59473 -42.3857 -11.9775 -84.667 -18.9404 -126.9
c-6.19629 -37.5957 -12.752 -75.1357 -19.5068 -112.637c-7.03223 -39.042 -11.5312 -80.7217 -25.085 -118.123c-8.93359 -24.6484 -50.4658 -28.2812 -71.6416 -26.6572c-18.5986 1.4248 -57.5547 10.6357 -56.6152 36.5527
c1.60254 44.3379 15.832 89.8066 24.4756 133.235c8.29297 41.6797 16.2998 83.415 23.7998 125.246c4.71094 26.2764 9.29199 52.5957 13.709 78.9453l-33.4131 -2.66309c-7.47461 -0.592773 -24.7568 -0.770508 -27.8838 9.02441
c-2.97461 9.31055 7.77344 15.2217 15.832 15.8926c16.6064 1.38184 33.2129 2.76758 49.8193 4.14941c8.14062 50.1191 15.5322 100.364 21.5771 150.748c9.63965 80.3447 24.748 165.319 10.9346 246.114c-2.36426 13.8525 -6.9541 29.0996 -16.1211 40.0771
c-10.0117 11.9902 -23.5869 11.2803 -38.2578 10.5312c-41.7314 -2.13086 -81.9297 -16.8018 -118.988 -35.4482c-8.56152 -4.30859 -22.3535 -5.81543 -30.7158 0c-7.2666 5.05371 -8.31055 12.6533 -0.000976562 17.5078c33.9111 19.8115 69.3984 32.4434 107.224 42.4814
z" />
    <glyph glyph-name="eight" unicode="8" horiz-adv-x="463" 
d="M147.189 649.63c41.8223 44.1914 110.814 76.6836 172.244 63.1855c65.7861 -14.459 83.7178 -84.1729 88.7412 -143.022c6.13184 -71.8184 -7.16699 -147.093 -19.4521 -217.69c-11.376 -65.3662 -25.2285 -133.118 -47.2998 -196.198
c18.0273 -23.583 34.7207 -47.9414 48.2402 -74.0791c30.5811 -59.1221 36.4355 -135.7 -18.3906 -183.044c-44.1826 -38.1592 -114.889 -53.0898 -167.936 -24.6309c-111.32 59.7236 -107.8 214.512 -47.4785 309.437c1.7666 2.77539 5.04492 4.74121 9.01172 5.9707
c-22.167 26.125 -43.5156 52.9033 -62.2051 81.9297c-36.8213 57.1865 -61.1621 124.718 -49.8906 193.371c11.2852 68.7354 46.6426 134.297 94.415 184.771zM295.665 -69.3555c26.7012 61.1572 -18.5996 125.939 -55.416 171.022
c-16.9746 20.7852 -34.6943 40.8994 -52.2881 61.0918c-30.7109 -59.9404 -40.0947 -134.223 -14.3418 -197.359c11.2158 -27.4932 32.417 -62.0234 63.6904 -68.8779c25.6963 -5.63379 48.292 11.0723 58.3555 34.123zM345.528 633.289
c-11.0254 31.9619 -34.4395 61.7461 -71.1865 46.3301c-26.1162 -10.9561 -41.6885 -36.085 -55.0264 -59.9316c-32.46 -58.0391 -46.4814 -126.826 -38.3408 -192.786c10.2803 -83.2939 58.5811 -146.062 109.35 -207.791c17.4775 56.9395 37.3672 113.303 51.2285 171.277
c18.374 76.8545 30.3604 166.406 3.97559 242.901z" />
    <glyph glyph-name="nine" unicode="9" horiz-adv-x="459" 
d="M247.006 43.6553c13.8652 37.9336 19.6523 77.8145 23.6582 117.831c8.51758 85.0352 9.76074 172.157 8.1543 257.573c-0.779297 41.6709 -1.3418 83.4541 -4.55469 125.025c-0.749023 9.69531 -1.66699 19.4121 -2.81934 29.1074
c-5.03223 -9.36621 -10.1504 -18.6895 -15.0996 -28.1162c-16.0918 -30.6504 -30.3691 -62.8252 -57.7715 -85.3604c-48.0449 -39.5059 -126.264 -23.8779 -144.408 39.375c-18.4385 64.2842 27.498 135.855 76.2227 174.136
c41.2725 32.4258 121.059 70.4023 160.01 14.5752c0.233398 -0.333008 0.411133 -0.658203 0.583984 -0.983398c11.2246 -1.03027 22.1504 -4.37305 30.1006 -8.89844c24.8213 -14.1387 38.9424 -40.0684 48.2998 -65.9121
c20.9414 -57.8447 27.8613 -123.471 32.9883 -184.411c5.7373 -68.1768 7.85449 -136.375 5.63281 -204.76c-3.57227 -109.965 -20.1924 -262.604 -132.807 -317.53c-58.9746 -28.7666 -135.773 -22.2793 -171.837 37.6914
c-29.8789 49.6865 -30.8008 115.893 -24.0625 171.421c3.82324 31.4941 72.2598 29.7666 78.0146 0c7.58203 -39.2158 10.2627 -80.6221 24.2627 -118.231c4.58105 -12.3027 10.0156 -26.3242 18.4902 -36.9902c22.5869 22.249 36.2842 55.2979 46.9414 84.458z
M188.128 -50.7949c0.0478516 -0.337891 0.545898 -0.143555 1.28223 0.345703c-0.428711 -0.121094 -0.853516 -0.211914 -1.28223 -0.345703zM244.197 666.247c2.05273 4.6377 5.04199 8.32812 8.60156 11.3164c-1.75391 1.00488 -3.23047 2.21289 -4.27441 3.66797
c-19.4824 27.1465 -69.5762 -12.6621 -86.4473 -27.4893c-23.2803 -20.4609 -41.9658 -45.4639 -54.0518 -74.0703c-12.8262 -30.3604 -19.4082 -70.4639 2.78516 -98.3818c7.78613 -9.7998 19.4609 -19.417 32.5518 -16.957
c16.0352 3.01367 31.6416 24.0811 40.1592 36.5693c17.04 24.9951 29 53.0645 38.3018 81.7051c4.16113 12.8223 8.02344 25.7441 11.5264 38.7607c3.85449 14.3291 4.85059 31.3252 10.8477 44.8789z" />
    <glyph glyph-name="colon" unicode=":" horiz-adv-x="194" 
d="M119.136 245.275c-11.9385 -17.9492 -51.4229 -19.7549 -62.8984 0c-12.7051 21.8896 -3.23438 53.9082 4.03223 76.1318c5.70703 17.4561 37.21 18.2959 50.8984 16.4727c13.7666 -1.83594 35.5049 -11.7656 28.8965 -29.0088
c-3.98828 -10.4102 -7.0459 -21.0762 -10.2373 -31.7422c-3.19141 -10.6611 -4.46875 -22.5088 -10.6914 -31.8535zM132.586 -16.1777c4.69824 -2.76758 12.2422 -9.15723 11.4238 -15.7178c-2.52441 -20.3135 -5.78516 -40.7568 -11.9258 -60.3086
c-4.46875 -14.2383 -29.5586 -16.2432 -41.2373 -15.3467c-10.8652 0.831055 -32.9326 6.10059 -32.5859 21.04c0.428711 18.3564 3.94922 36.6611 7.73828 54.6143c3.69336 17.4902 23.2617 21.8291 39.0068 22.2314c8.82129 0.225586 19.8682 -1.96582 27.5801 -6.5127z
" />
    <glyph glyph-name="semicolon" unicode=";" horiz-adv-x="289" 
d="M226.222 305.087c4.61621 -2.71973 14 -10.3545 12.5361 -17.248c-4.91895 -23.2021 -8.98926 -46.6641 -12.3535 -70.1387c-2.58105 -17.9707 -25.1641 -23.0459 -40.4287 -23.0459c-12.8008 0 -41.1689 5.21387 -40.4287 23.0459
c0.978516 23.6523 3.55469 46.8193 7.61621 70.1377c3.35645 19.2529 26.1084 23.9688 42.7979 24.3936c9.67871 0.24707 21.7949 -2.15625 30.2607 -7.14453zM153.472 19.3887c12.7705 28.5068 94.8047 23.4795 83.4463 -13.1123
c-12.043 -38.8174 -28.5801 -76.5869 -47.9805 -112.291c-17.2695 -31.7764 -36.9941 -63.6299 -70.0176 -80.8125c-16.6631 -8.66895 -41.3672 -10.1504 -57.8438 0c-14.2256 8.76465 -15.2998 24.4404 -0.000976562 32.9717
c26.4238 14.7314 39.917 48.7422 51.9551 74.9404c14.8057 32.2266 25.9521 65.9473 40.4414 98.3037z" />
    <glyph glyph-name="less" unicode="&#x3c;" horiz-adv-x="403" 
d="M308.851 267.426c17.8066 -2.90527 52.8018 -16.7812 41.4736 -41.6328c-11.4541 -25.1328 -50.1543 -25.8945 -73.0361 -23.6338c-46.5557 4.59473 -93.3887 16.2949 -137.771 30.8232c-27.6055 9.03711 -104.417 28.6924 -86.9658 72.2773
c8.09766 20.2188 33.625 30.793 51.0635 41.3809c19.5166 11.8525 39.1846 23.4014 58.9355 34.8594c39.2764 22.7822 80.8818 51.6006 127.247 56.1777c13.2246 1.30762 28.9824 0.926758 39.96 -7.76465c7.75098 -6.13574 11.5273 -16.4893 2.97461 -24.0674
c-45.7803 -40.5713 -100.03 -74.0879 -151.042 -107.878c13.4541 -4.81543 27.0469 -9.25391 40.7871 -13.1855c28.4072 -8.13281 57.2598 -12.6104 86.373 -17.3564z" />
    <glyph glyph-name="equal" unicode="=" horiz-adv-x="413" 
d="M75.2646 326.158c-14.2988 1.34277 -31.1846 17.3643 -12.7197 27.4629c35.2754 19.292 84.1992 18.2178 123.394 18.4434c43.2129 0.24707 87.3477 -1.25977 130.278 -6.33496c11.1416 -1.31641 29.5459 -9.13281 26.584 -23.2109
c-2.99219 -14.2256 -24.375 -18.5996 -36.4482 -18.3438c-38.791 0.818359 -77.4043 5.08789 -116.265 5.1875c-38.0508 0.0996094 -77.041 -6.75977 -114.823 -3.2041zM336.252 279.264c9.7168 -2.03516 26.376 -7.03027 26.376 -19.7529
c0 -12.2979 -16.6846 -18.4082 -26.376 -19.7461c-39.2109 -5.4082 -80.2803 -1.17773 -119.907 -4.27832c-39.5537 -3.0957 -78.1807 -12.3838 -117.573 -15.9434c-14.4854 -1.30762 -36.5703 -1.05664 -45.9062 12.8438c-8.5957 12.8008 3.71973 23.9902 15.9229 27.6973
c42.9482 13.0518 89.5771 15.6064 134.128 18.9238c42.5547 3.16504 91.293 9.05469 133.336 0.255859z" />
    <glyph glyph-name="greater" unicode="&#x3e;" horiz-adv-x="352" 
d="M292.091 316.06c29.9482 -33.9238 -16.1572 -52.3916 -42.8535 -65.2871c-36.2969 -17.5205 -73.2734 -35.7383 -110.896 -50.1797c-22.9248 -8.79883 -56.6533 -6.35645 -76.5898 8.71777c-17.4941 13.2246 -15.0479 34.3086 4.64258 44.4326
c24.9727 12.8438 51.583 23.0283 77.3486 34.2002c14.1299 6.12695 29.9014 11.3965 44.7588 16.9785c-12.9521 17.0576 -31.876 32.959 -45.8975 45.6074c-21.7646 19.6299 -45.7637 35.9766 -68.6279 54.1816c-9.78223 7.79004 -2.58105 19.2832 5.50391 24.3281
c11.7871 7.35254 29.9873 7.45605 42.6748 3.13867c63.3916 -21.5605 125.675 -65.9902 169.936 -116.118z" />
    <glyph glyph-name="question" unicode="?" horiz-adv-x="428" 
d="M312.006 724.029c65.4053 -52.8477 71.752 -152.271 62.9531 -229.454c-10.5361 -92.3701 -44.5986 -179.293 -75.3096 -266.337c-14.9443 -42.3594 -29.4941 -85.1045 -39.8086 -128.871c-10.6436 -45.1826 -12.0205 -91.1533 -20.75 -136.448
c-9.83887 -51.0635 -118.11 -50.0498 -128.693 0c-9.02051 42.6494 1.69727 89.5986 11.5879 131.273c10.0078 42.1777 24.0381 83.2686 39.2725 123.813c26.9648 71.7881 57.1475 142.151 78.8594 215.811c19.3008 65.4922 34.751 140.359 22.418 208.67
c-4.96289 27.498 -15.9971 57.0566 -40.5156 72.6455c-25.8047 16.4072 -56.2598 12.0508 -79.7998 -6.14551c-50.21 -38.8174 -76.2305 -139.719 -5.51562 -172.101c20.1924 -9.24512 -12.7959 -23.6006 -24.8857 -18.3828
c-84.6494 36.5225 -75.8975 147.621 -12.8262 201.391c59.7676 50.959 151.562 53.7871 213.014 4.13574zM185.077 -118.859c16.2002 0.411133 48.2139 -6.43945 48.4824 -27.6318c0.302734 -24.5312 -0.494141 -51.3232 -9.72656 -74.3779
c-5.19629 -12.9736 -25.7959 -16.4209 -37.8428 -16.4209c-12.9258 0 -31.1562 3.80664 -37.8418 16.4209c-11.6875 22.0547 -13.502 49.8984 -11.5488 74.3779c1.74512 21.8682 31.3037 27.1943 48.4775 27.6318z" />
    <glyph glyph-name="at" unicode="@" horiz-adv-x="719" 
d="M368.766 460.173c-12.8701 -22.124 -21.1133 -49.0645 -28.4404 -73.418c-16.8584 -56.0693 -24.1201 -115.716 -20.3135 -174.162c0.749023 -11.5537 1.53711 -23.1504 5.19629 -34.1758c2.16504 1.86621 4.26562 4.10938 6.45215 7.33105
c4.07031 5.99316 7.50391 12.9346 10.8076 19.3691c6.72949 13.1084 12.4238 26.623 17.3867 40.4883c19.8369 55.4238 31.667 113.516 59.2207 165.982c6.77734 12.9043 40 14.8613 45.9971 0c5.66406 -14.0391 13.1299 -27.0342 16.8066 -41.8135
c3.79297 -15.2432 6.0791 -30.9277 8.59961 -46.4131c2.36914 -14.5801 6.64355 -28.3682 9.61816 -42.7275c2.86621 -13.8311 3.12988 -28.5156 4.91406 -42.5635c3.60742 -28.4502 6.62598 -57.8184 15.0488 -85.3203c2.78906 -9.11133 6.03223 -18.0967 9.81738 -26.8486
c2.29102 3.50293 4.48242 7.0752 6.62207 10.6523c9.73438 16.3076 17.0791 33.7549 23.3018 51.6699c12.5361 36.0938 20.4473 73.8369 25.7178 111.637c9.68652 69.459 10.0156 142.871 -10.2549 210.546c-17.2256 57.5068 -48.46 115.768 -97.7432 151.969
c-52.4707 38.5439 -112.329 29.5156 -164.367 -5.26562c-53.4971 -35.7598 -93.8555 -92.2666 -123.727 -148.336c-30.6807 -57.5938 -51.3281 -120.457 -60.0195 -185.147c-16.6328 -123.809 4.62012 -270.819 103.001 -357.547
c43.3252 -38.1934 100.455 -61.127 158.287 -48.7422c60.5723 12.9697 111.579 54.9395 155.515 96.415c16.8145 15.8711 82.9209 6.76465 59.5938 -19.8535c-66.1846 -75.5293 -163.998 -128.555 -266.437 -121.683c-99.3115 6.66016 -186.122 67.4102 -234.761 152.965
c-89.2568 157.01 -61.6123 369.737 28.8223 519.628c46.2568 76.6729 111.853 149.557 200.638 174.988c89.3916 25.6094 181.242 -0.0478516 242.764 -70.0303c57.4287 -65.3271 84.3418 -151.063 90.7461 -236.674c6.64746 -88.8281 -5.5293 -186.607 -40.207 -269.04
c-17.7197 -42.1172 -42.2168 -85.8926 -90.6602 -95.3848c-54.7568 -10.7305 -106.781 14.1777 -124.709 68.0293c-10.085 30.3037 -14.4668 60.7285 -15.5322 91.6299c-1.48926 -3.67676 -3.00879 -7.33984 -4.60254 -10.9775
c-6.36523 -14.5107 -14.9307 -27.8311 -20.3223 -42.5977c-4.64648 -12.7227 -10.5918 -20.959 -22.3359 -28.4375c-33.209 -21.1445 -86.5762 -17.9355 -115.59 9.50977c-23.2578 22.002 -26.6699 53.8252 -28.0293 84.1719
c-1.44238 32.1875 2.27734 64.6045 9.11035 96.043c12.917 59.4336 45.2822 132.335 96.0039 168.965c23.4102 16.9053 53.7656 22.6904 80.8652 11.0156c23.1543 -9.97266 33.499 -31.5459 49.6904 -49.4043c14.6846 -16.1953 -26.6699 -22.457 -37.0977 -12.3584
c-9.19727 8.90723 -16.624 19.291 -25.5703 28.4111c-1.61523 1.7793 -3.36426 3.43359 -5.14355 5.04883c-0.211914 -0.121094 -0.376953 -0.229492 -0.610352 -0.359375c-1.52832 -2.2998 -2.8877 -4.69434 -4.07031 -7.18457zM512.248 103.815
c-8.09766 -0.416016 -4.48145 -3.71094 0 0z" />
    <glyph glyph-name="A" unicode="A" horiz-adv-x="590" 
d="M265.626 329.116c-28.2334 -10.4834 -56.2783 -21.4609 -84.1572 -32.8623c-1.46777 -6.59473 -2.92285 -13.1816 -4.36523 -19.7686c-11.8174 -54.0557 -21.4219 -108.522 -32.5293 -162.712c-11.4277 -55.7617 -31.04 -114.884 -28.1084 -172.144
c0.857422 -16.8145 -40.5625 -16.5889 -42.9658 0.000976562c-10.0029 68.9824 4.70312 144.694 15.7236 212.932c5.97168 36.9639 12.3506 73.8672 19.3271 110.657c-27.376 -12.1162 -54.5752 -24.6484 -81.5488 -37.6484c-9.24512 -4.45605 -23.7002 -6.27441 -32.7246 0
c-7.29688 5.0752 -9.37109 14.0303 0 18.6553c40.082 19.7852 80.6143 38.6182 121.597 56.416c3.68945 18.2178 7.53027 36.4004 11.5918 54.54c13.6055 60.7676 30.1084 120.968 49.6074 180.111c18.5342 56.2119 39.5449 112.562 72.5078 162.119
c27.8828 41.9219 65.167 78.6475 117.551 84.3379c59.8838 6.50391 109.098 -30.291 133.435 -82.9697c25.6006 -55.415 37.4873 -118.521 45.7148 -178.592c8.41797 -61.4561 13.2422 -123.467 15.6367 -185.438c5.04004 -130.403 4.75391 -261.37 3.77539 -391.848
c-0.329102 -43.793 -110.216 -43.7236 -111.641 0c-4.24805 130.556 6.2832 261.249 5.90625 391.848c-0.0566406 18.8457 -0.0908203 37.9336 -0.24707 57.1514c-25.2588 -7.30566 -50.3096 -15.8496 -74.9404 -23.7002
c-40.0342 -12.7529 -79.7607 -26.458 -119.146 -41.0859zM271.908 600.096c-35.7646 -85.5156 -60.8418 -176.112 -81.9648 -266.686c15.6934 6.24414 31.4346 12.3799 47.2578 18.2998c41.8701 15.6719 84.1338 30.2822 126.74 43.8232
c31.4248 9.98535 63.7598 17.9053 95.4229 27.4365c-1.44238 84.875 -6.96387 171.465 -30.2002 251.633c-6.30469 21.7559 -15.2168 48.002 -34.292 62.041c-16.8145 12.3721 -30.1865 2.05273 -44.3594 -10.3711c-36.9893 -32.4258 -59.9619 -81.6094 -78.6045 -126.177z
" />
    <glyph glyph-name="A" unicode="&#xc5;" horiz-adv-x="590" 
d="M265.626 329.116c-28.2334 -10.4834 -56.2783 -21.4609 -84.1572 -32.8623c-1.46777 -6.59473 -2.92285 -13.1816 -4.36523 -19.7686c-11.8174 -54.0557 -21.4219 -108.522 -32.5293 -162.712c-11.4277 -55.7617 -31.04 -114.884 -28.1084 -172.144
c0.857422 -16.8145 -40.5625 -16.5889 -42.9658 0.000976562c-10.0029 68.9824 4.70312 144.694 15.7236 212.932c5.97168 36.9639 12.3506 73.8672 19.3271 110.657c-27.376 -12.1162 -54.5752 -24.6484 -81.5488 -37.6484c-9.24512 -4.45605 -23.7002 -6.27441 -32.7246 0
c-7.29688 5.0752 -9.37109 14.0303 0 18.6553c40.082 19.7852 80.6143 38.6182 121.597 56.416c3.68945 18.2178 7.53027 36.4004 11.5918 54.54c13.6055 60.7676 30.1084 120.968 49.6074 180.111c18.5342 56.2119 39.5449 112.562 72.5078 162.119
c27.8828 41.9219 65.167 78.6475 117.551 84.3379c59.8838 6.50391 109.098 -30.291 133.435 -82.9697c25.6006 -55.415 37.4873 -118.521 45.7148 -178.592c8.41797 -61.4561 13.2422 -123.467 15.6367 -185.438c5.04004 -130.403 4.75391 -261.37 3.77539 -391.848
c-0.329102 -43.793 -110.216 -43.7236 -111.641 0c-4.24805 130.556 6.2832 261.249 5.90625 391.848c-0.0566406 18.8457 -0.0908203 37.9336 -0.24707 57.1514c-25.2588 -7.30566 -50.3096 -15.8496 -74.9404 -23.7002
c-40.0342 -12.7529 -79.7607 -26.458 -119.146 -41.0859zM271.908 600.096c-35.7646 -85.5156 -60.8418 -176.112 -81.9648 -266.686c15.6934 6.24414 31.4346 12.3799 47.2578 18.2998c41.8701 15.6719 84.1338 30.2822 126.74 43.8232
c31.4248 9.98535 63.7598 17.9053 95.4229 27.4365c-1.44238 84.875 -6.96387 171.465 -30.2002 251.633c-6.30469 21.7559 -15.2168 48.002 -34.292 62.041c-16.8145 12.3721 -30.1865 2.05273 -44.3594 -10.3711c-36.9893 -32.4258 -59.9619 -81.6094 -78.6045 -126.177z
" />
    <glyph glyph-name="A" unicode="&#xc4;" horiz-adv-x="590" 
d="M265.626 329.116c-28.2334 -10.4834 -56.2783 -21.4609 -84.1572 -32.8623c-1.46777 -6.59473 -2.92285 -13.1816 -4.36523 -19.7686c-11.8174 -54.0557 -21.4219 -108.522 -32.5293 -162.712c-11.4277 -55.7617 -31.04 -114.884 -28.1084 -172.144
c0.857422 -16.8145 -40.5625 -16.5889 -42.9658 0.000976562c-10.0029 68.9824 4.70312 144.694 15.7236 212.932c5.97168 36.9639 12.3506 73.8672 19.3271 110.657c-27.376 -12.1162 -54.5752 -24.6484 -81.5488 -37.6484c-9.24512 -4.45605 -23.7002 -6.27441 -32.7246 0
c-7.29688 5.0752 -9.37109 14.0303 0 18.6553c40.082 19.7852 80.6143 38.6182 121.597 56.416c3.68945 18.2178 7.53027 36.4004 11.5918 54.54c13.6055 60.7676 30.1084 120.968 49.6074 180.111c18.5342 56.2119 39.5449 112.562 72.5078 162.119
c27.8828 41.9219 65.167 78.6475 117.551 84.3379c59.8838 6.50391 109.098 -30.291 133.435 -82.9697c25.6006 -55.415 37.4873 -118.521 45.7148 -178.592c8.41797 -61.4561 13.2422 -123.467 15.6367 -185.438c5.04004 -130.403 4.75391 -261.37 3.77539 -391.848
c-0.329102 -43.793 -110.216 -43.7236 -111.641 0c-4.24805 130.556 6.2832 261.249 5.90625 391.848c-0.0566406 18.8457 -0.0908203 37.9336 -0.24707 57.1514c-25.2588 -7.30566 -50.3096 -15.8496 -74.9404 -23.7002
c-40.0342 -12.7529 -79.7607 -26.458 -119.146 -41.0859zM271.908 600.096c-35.7646 -85.5156 -60.8418 -176.112 -81.9648 -266.686c15.6934 6.24414 31.4346 12.3799 47.2578 18.2998c41.8701 15.6719 84.1338 30.2822 126.74 43.8232
c31.4248 9.98535 63.7598 17.9053 95.4229 27.4365c-1.44238 84.875 -6.96387 171.465 -30.2002 251.633c-6.30469 21.7559 -15.2168 48.002 -34.292 62.041c-16.8145 12.3721 -30.1865 2.05273 -44.3594 -10.3711c-36.9893 -32.4258 -59.9619 -81.6094 -78.6045 -126.177z
" />
    <glyph glyph-name="A" unicode="&#xc3;" horiz-adv-x="590" 
d="M265.626 329.116c-28.2334 -10.4834 -56.2783 -21.4609 -84.1572 -32.8623c-1.46777 -6.59473 -2.92285 -13.1816 -4.36523 -19.7686c-11.8174 -54.0557 -21.4219 -108.522 -32.5293 -162.712c-11.4277 -55.7617 -31.04 -114.884 -28.1084 -172.144
c0.857422 -16.8145 -40.5625 -16.5889 -42.9658 0.000976562c-10.0029 68.9824 4.70312 144.694 15.7236 212.932c5.97168 36.9639 12.3506 73.8672 19.3271 110.657c-27.376 -12.1162 -54.5752 -24.6484 -81.5488 -37.6484c-9.24512 -4.45605 -23.7002 -6.27441 -32.7246 0
c-7.29688 5.0752 -9.37109 14.0303 0 18.6553c40.082 19.7852 80.6143 38.6182 121.597 56.416c3.68945 18.2178 7.53027 36.4004 11.5918 54.54c13.6055 60.7676 30.1084 120.968 49.6074 180.111c18.5342 56.2119 39.5449 112.562 72.5078 162.119
c27.8828 41.9219 65.167 78.6475 117.551 84.3379c59.8838 6.50391 109.098 -30.291 133.435 -82.9697c25.6006 -55.415 37.4873 -118.521 45.7148 -178.592c8.41797 -61.4561 13.2422 -123.467 15.6367 -185.438c5.04004 -130.403 4.75391 -261.37 3.77539 -391.848
c-0.329102 -43.793 -110.216 -43.7236 -111.641 0c-4.24805 130.556 6.2832 261.249 5.90625 391.848c-0.0566406 18.8457 -0.0908203 37.9336 -0.24707 57.1514c-25.2588 -7.30566 -50.3096 -15.8496 -74.9404 -23.7002
c-40.0342 -12.7529 -79.7607 -26.458 -119.146 -41.0859zM271.908 600.096c-35.7646 -85.5156 -60.8418 -176.112 -81.9648 -266.686c15.6934 6.24414 31.4346 12.3799 47.2578 18.2998c41.8701 15.6719 84.1338 30.2822 126.74 43.8232
c31.4248 9.98535 63.7598 17.9053 95.4229 27.4365c-1.44238 84.875 -6.96387 171.465 -30.2002 251.633c-6.30469 21.7559 -15.2168 48.002 -34.292 62.041c-16.8145 12.3721 -30.1865 2.05273 -44.3594 -10.3711c-36.9893 -32.4258 -59.9619 -81.6094 -78.6045 -126.177z
" />
    <glyph glyph-name="A" unicode="&#xc2;" horiz-adv-x="590" 
d="M265.626 329.116c-28.2334 -10.4834 -56.2783 -21.4609 -84.1572 -32.8623c-1.46777 -6.59473 -2.92285 -13.1816 -4.36523 -19.7686c-11.8174 -54.0557 -21.4219 -108.522 -32.5293 -162.712c-11.4277 -55.7617 -31.04 -114.884 -28.1084 -172.144
c0.857422 -16.8145 -40.5625 -16.5889 -42.9658 0.000976562c-10.0029 68.9824 4.70312 144.694 15.7236 212.932c5.97168 36.9639 12.3506 73.8672 19.3271 110.657c-27.376 -12.1162 -54.5752 -24.6484 -81.5488 -37.6484c-9.24512 -4.45605 -23.7002 -6.27441 -32.7246 0
c-7.29688 5.0752 -9.37109 14.0303 0 18.6553c40.082 19.7852 80.6143 38.6182 121.597 56.416c3.68945 18.2178 7.53027 36.4004 11.5918 54.54c13.6055 60.7676 30.1084 120.968 49.6074 180.111c18.5342 56.2119 39.5449 112.562 72.5078 162.119
c27.8828 41.9219 65.167 78.6475 117.551 84.3379c59.8838 6.50391 109.098 -30.291 133.435 -82.9697c25.6006 -55.415 37.4873 -118.521 45.7148 -178.592c8.41797 -61.4561 13.2422 -123.467 15.6367 -185.438c5.04004 -130.403 4.75391 -261.37 3.77539 -391.848
c-0.329102 -43.793 -110.216 -43.7236 -111.641 0c-4.24805 130.556 6.2832 261.249 5.90625 391.848c-0.0566406 18.8457 -0.0908203 37.9336 -0.24707 57.1514c-25.2588 -7.30566 -50.3096 -15.8496 -74.9404 -23.7002
c-40.0342 -12.7529 -79.7607 -26.458 -119.146 -41.0859zM271.908 600.096c-35.7646 -85.5156 -60.8418 -176.112 -81.9648 -266.686c15.6934 6.24414 31.4346 12.3799 47.2578 18.2998c41.8701 15.6719 84.1338 30.2822 126.74 43.8232
c31.4248 9.98535 63.7598 17.9053 95.4229 27.4365c-1.44238 84.875 -6.96387 171.465 -30.2002 251.633c-6.30469 21.7559 -15.2168 48.002 -34.292 62.041c-16.8145 12.3721 -30.1865 2.05273 -44.3594 -10.3711c-36.9893 -32.4258 -59.9619 -81.6094 -78.6045 -126.177z
" />
    <glyph glyph-name="A" unicode="&#xc1;" horiz-adv-x="590" 
d="M265.626 329.116c-28.2334 -10.4834 -56.2783 -21.4609 -84.1572 -32.8623c-1.46777 -6.59473 -2.92285 -13.1816 -4.36523 -19.7686c-11.8174 -54.0557 -21.4219 -108.522 -32.5293 -162.712c-11.4277 -55.7617 -31.04 -114.884 -28.1084 -172.144
c0.857422 -16.8145 -40.5625 -16.5889 -42.9658 0.000976562c-10.0029 68.9824 4.70312 144.694 15.7236 212.932c5.97168 36.9639 12.3506 73.8672 19.3271 110.657c-27.376 -12.1162 -54.5752 -24.6484 -81.5488 -37.6484c-9.24512 -4.45605 -23.7002 -6.27441 -32.7246 0
c-7.29688 5.0752 -9.37109 14.0303 0 18.6553c40.082 19.7852 80.6143 38.6182 121.597 56.416c3.68945 18.2178 7.53027 36.4004 11.5918 54.54c13.6055 60.7676 30.1084 120.968 49.6074 180.111c18.5342 56.2119 39.5449 112.562 72.5078 162.119
c27.8828 41.9219 65.167 78.6475 117.551 84.3379c59.8838 6.50391 109.098 -30.291 133.435 -82.9697c25.6006 -55.415 37.4873 -118.521 45.7148 -178.592c8.41797 -61.4561 13.2422 -123.467 15.6367 -185.438c5.04004 -130.403 4.75391 -261.37 3.77539 -391.848
c-0.329102 -43.793 -110.216 -43.7236 -111.641 0c-4.24805 130.556 6.2832 261.249 5.90625 391.848c-0.0566406 18.8457 -0.0908203 37.9336 -0.24707 57.1514c-25.2588 -7.30566 -50.3096 -15.8496 -74.9404 -23.7002
c-40.0342 -12.7529 -79.7607 -26.458 -119.146 -41.0859zM271.908 600.096c-35.7646 -85.5156 -60.8418 -176.112 -81.9648 -266.686c15.6934 6.24414 31.4346 12.3799 47.2578 18.2998c41.8701 15.6719 84.1338 30.2822 126.74 43.8232
c31.4248 9.98535 63.7598 17.9053 95.4229 27.4365c-1.44238 84.875 -6.96387 171.465 -30.2002 251.633c-6.30469 21.7559 -15.2168 48.002 -34.292 62.041c-16.8145 12.3721 -30.1865 2.05273 -44.3594 -10.3711c-36.9893 -32.4258 -59.9619 -81.6094 -78.6045 -126.177z
" />
    <glyph glyph-name="B" unicode="B" horiz-adv-x="670" 
d="M99.9082 684.243c-7.23145 -5.70312 -66.9854 -56.7803 -67.7822 -72.7373c4.78516 -1.89258 8.65625 -5.01953 8.65625 -10.2422c0 -9.80859 -15.3594 -13.541 -22.9023 -13.0557c-16.2646 1.04395 -36.3008 7.40527 -31.0137 27.793
c4.43457 17.1006 22.6611 34.5869 34.3916 47.0889c29.5762 31.5117 65.6348 57.4805 102.854 79.21c69.7051 40.6924 149.895 67.8438 230.529 74.3389c66.7646 5.37793 162.123 -7.20996 192.726 -78.0674c15.6758 -36.2969 2.08301 -75.6377 -14.5371 -108.891
c-16.8711 -33.7598 -38.2979 -65.6914 -62.7207 -94.4492c-28.5977 -33.6729 -60.6426 -63.7988 -94.2715 -92.1543c22.3145 -2.5459 44.4248 -6.91504 65.7861 -12.666c61.2227 -16.4766 122.229 -46.9062 165.831 -93.7949
c38.6133 -41.5234 64.7295 -95.7734 64.5039 -153.263c-0.238281 -59.5293 -29.3037 -115.486 -67.4756 -159.591c-66.3447 -76.6602 -176.643 -122.506 -277.903 -115.673c-45.8887 3.0957 -97.8877 20.4258 -117.751 66.0459
c-12.9092 29.6416 -10.0811 62.2012 -0.567383 92.9424c-29.585 34.9199 -39.3408 84.8613 -46.6328 128.671c-8.97656 53.9385 -14.415 108.752 -16.4805 163.379c-4.19141 110.986 -0.541016 222.376 10.7393 332.834c4.24805 41.6191 106.781 41.6406 106.431 0
c-0.688477 -82.0469 -5.50391 -163.998 -6.82422 -246.019c44.0918 29.8711 86.6768 61.9805 125.251 98.793c43.0215 41.0557 90.7852 91.4697 110.727 148.786c26.7656 76.9326 -64.8984 99.9395 -122.601 96.9814c-65.0938 -3.33398 -130.963 -24.8037 -188.491 -54.7129
c-28.2725 -14.6973 -55.4414 -31.8018 -80.4707 -51.5479zM535.211 64.9912c42.918 81.3887 38.8701 181.335 -28.4492 247.797c-4.91016 4.84961 -10.1064 9.5 -15.5195 13.9648c-76.5781 -60.6162 -158.452 -117.023 -207.727 -203.916
c-1.96191 -3.45605 -3.94531 -7.06738 -5.91992 -10.7441c3.41211 -15.2207 7.23535 -30.416 9.17578 -45.7539c1.55469 -12.3027 -17.7979 -18.5771 -26.7266 -20.0107c-2.65039 -0.424805 -5.45215 -0.62793 -8.29688 -0.701172
c-3.62012 -18.3867 -3.62012 -36.8984 2.90527 -54.1504c14.7061 -38.8604 57.2383 -53.3848 95.9424 -51.5576c78.1758 3.69336 148.799 57.1514 184.615 125.072zM452.927 352.739c-53.0557 29.2734 -117.582 40.207 -173.24 18.3125
c-7.14062 -2.80566 -15.5107 -4.31738 -24.1328 -4.56836c1.13477 -54.2158 3.30859 -108.453 9.14551 -162.392c0.96582 -8.92871 1.89258 -17.8574 2.8584 -26.7783c50.4873 68.3799 118.192 125.853 185.369 175.426z" />
    <glyph glyph-name="C" unicode="C" horiz-adv-x="535" 
d="M541.332 295.205c-20.2744 -63.8252 -49.2197 -124.525 -86.7373 -180.036c-34.877 -51.5957 -76.4912 -103.036 -126.961 -140.078c-43.5068 -31.9316 -103.148 -49.3262 -156.351 -33.6768c-56.623 16.6592 -96.8125 67.8047 -121.045 119.262
c-52.3408 111.129 -45.001 249.608 -20.2617 366.774c13.6279 64.5439 33.3262 128.529 62.3955 187.92c26.5713 54.2803 63.041 109.544 113.996 143.628c49.7725 33.292 121.695 44.0312 170.845 4.08789c47.4521 -38.5664 50.9385 -102.326 51.1338 -158.798
c0.0654297 -18.8584 -47.3037 -18.8887 -48.1738 0c-1.49805 32.5117 -2.875 66.2539 -16.5459 96.3799c-8.20117 18.0791 -27.8086 45.5898 -50.6426 44.3125c-20.6729 -1.15625 -39.0723 -24.7305 -50.2617 -39.7354
c-15.3945 -20.6475 -28.1475 -44.1738 -39.7441 -67.1113c-46.5469 -92.0674 -79.0723 -194.982 -92.6309 -297.222c-12.6484 -95.3672 -17.5635 -202.47 18.4307 -293.641c14.1904 -35.9414 41.29 -87.8496 87.6289 -81.2109
c47.4824 6.79883 87.499 52.5059 117.725 86.127c64.79 72.0566 112.645 157.927 142.117 250.103c5.19629 16.2559 51.2793 12.4277 45.083 -7.08496z" />
    <glyph glyph-name="D" unicode="D" horiz-adv-x="648" 
d="M525.244 413.995c2.42969 1.09082 5.04883 2.0498 7.75977 2.87305c2.73242 26.2246 3.75391 52.5791 2.77539 78.8076c-2.65918 71.4727 -16.2344 157.348 -79.0762 201.885c-72.4678 51.3662 -141.653 -12.8223 -183.342 -72.0176
c-44.8838 -63.7383 -71.8613 -138.198 -93.9766 -212.359c-13.1992 -44.2686 -25.2461 -88.9443 -35.6045 -133.967c-2.37305 -10.3145 -4.99316 -20.9023 -7.38379 -31.6328c1.42871 -21.7861 3.08691 -43.5371 4.07031 -65.3535
c1.06055 -23.4443 5.06152 -48.4736 0.107422 -71.5547c-5.83301 -27.1768 -60.876 -28.9561 -72.8975 -5.62402c-11.3848 22.0938 -14.5156 48.7295 -19.2354 72.9619c-4.90625 25.2158 -8.43945 50.4961 -11.6396 75.9805
c-6.01465 47.8936 -10.5098 95.791 -13.2422 143.983c-5.64258 99.5801 -4.30469 197.653 2.11719 297.052c2.68066 41.4502 106.323 40.2295 104.539 0.000976562c-4.23535 -95.5312 -4.30078 -192.375 -1.33496 -288.015c5.38281 18.7676 11.0898 37.4404 17.2129 55.9834
c30.4248 92.1455 75.2568 193.653 157.438 251.13c70.8145 49.5303 165.242 37.6953 231.522 -13.9521c73.1953 -57.0352 99.4023 -153.705 102.797 -242.672c3.65918 -95.8691 -21.0107 -191.934 -59.5723 -279.207c-37.1807 -84.1387 -90.8203 -165.627 -167.801 -218.141
c-69.8789 -47.6641 -176.47 -84.6191 -259.452 -51.1113c-34.6689 14 -62.4697 41.1338 -62.1494 80.6738c0.329102 40.1982 27.2812 78.6816 48.8682 110.665c94.1934 139.558 235.103 245.092 387.5 313.61zM385.513 57.667
c48.3047 59.0098 84.2637 130.506 110.458 201.848c12.7744 34.7852 22.8682 70.9258 29.7617 107.664c-136.635 -63.4912 -262.146 -155.064 -344.365 -283.064c-18.4473 -28.7148 -42.792 -65.0244 -36.1621 -101.057c5.94141 -32.2744 36.4268 -40.7666 64.8164 -38.5586
c71.6885 5.58594 132.184 60.2646 175.491 113.168z" />
    <glyph glyph-name="E" unicode="E" horiz-adv-x="567" 
d="M262.59 193.152c-53.7441 2.97461 -107.726 12.5146 -155.87 37.3799c-39.4541 20.3828 -76.1924 53.5918 -93.457 95.2363c-19.6729 47.4473 -13.1338 98.3291 1.74512 146.066c26.251 84.2207 81.2891 162.98 148.582 219.639
c73.0439 61.499 181.143 116.373 274.345 63.7119c43.1602 -24.3887 59.5205 -71.416 67.7607 -117.686c9.32324 -52.3232 5.1748 -105.815 1.04785 -158.434c-2.61523 -33.3135 -85.8311 -31.915 -83.6963 0c3.26465 48.7939 6.52148 98.1943 -0.905273 146.78
c-5.15723 33.7461 -16.7666 87.3857 -55.1641 98.2891c-29.6797 8.42676 -62.5508 -13.9131 -85.9307 -29.5283c-29.1738 -19.4824 -55.3115 -43.667 -78.3486 -70.0645c-46.1094 -52.8389 -80.9512 -123.259 -89.335 -193.328
c-8.95898 -74.876 23.4014 -138.216 96.584 -162.041c72.3516 -23.5566 157.399 -10.3057 231.565 0.191406c18.8496 2.66797 46.7764 0.615234 59.083 -16.5283c11.376 -15.8447 -4.9707 -31.6113 -20.4902 -35.6475c-10.168 -3.11328 -20.4268 -5.87988 -30.75 -8.37891
c-51.1885 -14.4766 -101.724 -32.0928 -149.05 -56.5508c-27.1768 -14.043 -53.7822 -29.8535 -77.7979 -48.8721c-21.9072 -17.3477 -54.0684 -41.5586 -55.3242 -72.2998c-2.52441 -61.7939 122.176 -45.1875 157.178 -40.498
c70.1172 9.39648 141.395 27.7656 205.985 56.8223c9.05078 4.07031 22.5566 6.14062 31.3857 0c7.0459 -4.89746 8.93359 -13.3896 0 -17.8887c-67.917 -34.1797 -137.284 -59.8848 -212.438 -72.9277c-61.9756 -10.7568 -131.815 -16.7715 -192.457 4.03125
c-24.1504 8.28418 -50.4746 23.1328 -59.9492 48.3828c-10.3535 27.5977 2.14844 54.9824 19.1191 76.7549c35.4434 45.4775 90.5127 78.9463 141.221 104.751c1.77539 0.905273 3.57715 1.74512 5.36133 2.63672z" />
    <glyph glyph-name="E" unicode="&#xcb;" horiz-adv-x="567" 
d="M262.59 193.152c-53.7441 2.97461 -107.726 12.5146 -155.87 37.3799c-39.4541 20.3828 -76.1924 53.5918 -93.457 95.2363c-19.6729 47.4473 -13.1338 98.3291 1.74512 146.066c26.251 84.2207 81.2891 162.98 148.582 219.639
c73.0439 61.499 181.143 116.373 274.345 63.7119c43.1602 -24.3887 59.5205 -71.416 67.7607 -117.686c9.32324 -52.3232 5.1748 -105.815 1.04785 -158.434c-2.61523 -33.3135 -85.8311 -31.915 -83.6963 0c3.26465 48.7939 6.52148 98.1943 -0.905273 146.78
c-5.15723 33.7461 -16.7666 87.3857 -55.1641 98.2891c-29.6797 8.42676 -62.5508 -13.9131 -85.9307 -29.5283c-29.1738 -19.4824 -55.3115 -43.667 -78.3486 -70.0645c-46.1094 -52.8389 -80.9512 -123.259 -89.335 -193.328
c-8.95898 -74.876 23.4014 -138.216 96.584 -162.041c72.3516 -23.5566 157.399 -10.3057 231.565 0.191406c18.8496 2.66797 46.7764 0.615234 59.083 -16.5283c11.376 -15.8447 -4.9707 -31.6113 -20.4902 -35.6475c-10.168 -3.11328 -20.4268 -5.87988 -30.75 -8.37891
c-51.1885 -14.4766 -101.724 -32.0928 -149.05 -56.5508c-27.1768 -14.043 -53.7822 -29.8535 -77.7979 -48.8721c-21.9072 -17.3477 -54.0684 -41.5586 -55.3242 -72.2998c-2.52441 -61.7939 122.176 -45.1875 157.178 -40.498
c70.1172 9.39648 141.395 27.7656 205.985 56.8223c9.05078 4.07031 22.5566 6.14062 31.3857 0c7.0459 -4.89746 8.93359 -13.3896 0 -17.8887c-67.917 -34.1797 -137.284 -59.8848 -212.438 -72.9277c-61.9756 -10.7568 -131.815 -16.7715 -192.457 4.03125
c-24.1504 8.28418 -50.4746 23.1328 -59.9492 48.3828c-10.3535 27.5977 2.14844 54.9824 19.1191 76.7549c35.4434 45.4775 90.5127 78.9463 141.221 104.751c1.77539 0.905273 3.57715 1.74512 5.36133 2.63672z" />
    <glyph glyph-name="E" unicode="&#xca;" horiz-adv-x="567" 
d="M262.59 193.152c-53.7441 2.97461 -107.726 12.5146 -155.87 37.3799c-39.4541 20.3828 -76.1924 53.5918 -93.457 95.2363c-19.6729 47.4473 -13.1338 98.3291 1.74512 146.066c26.251 84.2207 81.2891 162.98 148.582 219.639
c73.0439 61.499 181.143 116.373 274.345 63.7119c43.1602 -24.3887 59.5205 -71.416 67.7607 -117.686c9.32324 -52.3232 5.1748 -105.815 1.04785 -158.434c-2.61523 -33.3135 -85.8311 -31.915 -83.6963 0c3.26465 48.7939 6.52148 98.1943 -0.905273 146.78
c-5.15723 33.7461 -16.7666 87.3857 -55.1641 98.2891c-29.6797 8.42676 -62.5508 -13.9131 -85.9307 -29.5283c-29.1738 -19.4824 -55.3115 -43.667 -78.3486 -70.0645c-46.1094 -52.8389 -80.9512 -123.259 -89.335 -193.328
c-8.95898 -74.876 23.4014 -138.216 96.584 -162.041c72.3516 -23.5566 157.399 -10.3057 231.565 0.191406c18.8496 2.66797 46.7764 0.615234 59.083 -16.5283c11.376 -15.8447 -4.9707 -31.6113 -20.4902 -35.6475c-10.168 -3.11328 -20.4268 -5.87988 -30.75 -8.37891
c-51.1885 -14.4766 -101.724 -32.0928 -149.05 -56.5508c-27.1768 -14.043 -53.7822 -29.8535 -77.7979 -48.8721c-21.9072 -17.3477 -54.0684 -41.5586 -55.3242 -72.2998c-2.52441 -61.7939 122.176 -45.1875 157.178 -40.498
c70.1172 9.39648 141.395 27.7656 205.985 56.8223c9.05078 4.07031 22.5566 6.14062 31.3857 0c7.0459 -4.89746 8.93359 -13.3896 0 -17.8887c-67.917 -34.1797 -137.284 -59.8848 -212.438 -72.9277c-61.9756 -10.7568 -131.815 -16.7715 -192.457 4.03125
c-24.1504 8.28418 -50.4746 23.1328 -59.9492 48.3828c-10.3535 27.5977 2.14844 54.9824 19.1191 76.7549c35.4434 45.4775 90.5127 78.9463 141.221 104.751c1.77539 0.905273 3.57715 1.74512 5.36133 2.63672z" />
    <glyph glyph-name="E" unicode="&#xc9;" horiz-adv-x="567" 
d="M262.59 193.152c-53.7441 2.97461 -107.726 12.5146 -155.87 37.3799c-39.4541 20.3828 -76.1924 53.5918 -93.457 95.2363c-19.6729 47.4473 -13.1338 98.3291 1.74512 146.066c26.251 84.2207 81.2891 162.98 148.582 219.639
c73.0439 61.499 181.143 116.373 274.345 63.7119c43.1602 -24.3887 59.5205 -71.416 67.7607 -117.686c9.32324 -52.3232 5.1748 -105.815 1.04785 -158.434c-2.61523 -33.3135 -85.8311 -31.915 -83.6963 0c3.26465 48.7939 6.52148 98.1943 -0.905273 146.78
c-5.15723 33.7461 -16.7666 87.3857 -55.1641 98.2891c-29.6797 8.42676 -62.5508 -13.9131 -85.9307 -29.5283c-29.1738 -19.4824 -55.3115 -43.667 -78.3486 -70.0645c-46.1094 -52.8389 -80.9512 -123.259 -89.335 -193.328
c-8.95898 -74.876 23.4014 -138.216 96.584 -162.041c72.3516 -23.5566 157.399 -10.3057 231.565 0.191406c18.8496 2.66797 46.7764 0.615234 59.083 -16.5283c11.376 -15.8447 -4.9707 -31.6113 -20.4902 -35.6475c-10.168 -3.11328 -20.4268 -5.87988 -30.75 -8.37891
c-51.1885 -14.4766 -101.724 -32.0928 -149.05 -56.5508c-27.1768 -14.043 -53.7822 -29.8535 -77.7979 -48.8721c-21.9072 -17.3477 -54.0684 -41.5586 -55.3242 -72.2998c-2.52441 -61.7939 122.176 -45.1875 157.178 -40.498
c70.1172 9.39648 141.395 27.7656 205.985 56.8223c9.05078 4.07031 22.5566 6.14062 31.3857 0c7.0459 -4.89746 8.93359 -13.3896 0 -17.8887c-67.917 -34.1797 -137.284 -59.8848 -212.438 -72.9277c-61.9756 -10.7568 -131.815 -16.7715 -192.457 4.03125
c-24.1504 8.28418 -50.4746 23.1328 -59.9492 48.3828c-10.3535 27.5977 2.14844 54.9824 19.1191 76.7549c35.4434 45.4775 90.5127 78.9463 141.221 104.751c1.77539 0.905273 3.57715 1.74512 5.36133 2.63672z" />
    <glyph glyph-name="F" unicode="F" horiz-adv-x="421" 
d="M515.579 747.037c-55 -10.3584 -112.653 -10.8721 -168.394 -8.4209c-8.47461 0.37207 -16.9404 0.84375 -25.4023 1.35449c0.172852 -0.861328 0.354492 -1.71484 0.436523 -2.61523c7.9248 -85.6191 9.0459 -171.94 9.25391 -258.188
c30.6455 3.2041 61.4385 5.2959 92.3574 6.26172c7.33594 0.229492 23.1416 -3.12695 23.1416 -13.1904c0 -10.4014 -15.498 -12.9609 -23.1406 -13.1904c-30.875 -0.935547 -61.668 -3.11328 -92.3135 -6.46973c0.0390625 -42.3936 0.00488281 -84.7568 0.59375 -126.986
c0.957031 -68.4717 1.52832 -136.93 2.04395 -205.405c0.242188 -32.4561 0.722656 -65.0723 0.112305 -97.5195c-0.480469 -25.376 -0.320312 -54.1553 -9.33203 -78.293c-4.81934 -12.9092 -29.7451 -12.9004 -39.5576 -9.17676
c-62.2402 23.6172 -58.793 113.116 -61.5859 168.718c-3.49414 69.5625 -5.53809 139.182 -7.01074 208.805c-0.848633 40.1465 -2.08691 80.4492 -3.15234 120.812c-20.2832 -4.35156 -40.4629 -9.21875 -60.5127 -14.6533
c-8.84668 -2.39941 -24.5957 -3.56836 -31.334 4.68555c-6.24414 7.65137 -0.389648 15.5195 8.21484 17.8623c27.4756 7.47852 55.1338 13.9912 82.9434 19.5986c-2.17383 92.2881 -2.73242 184.771 5.22266 276.328c0.320312 3.68945 1.41602 7.02832 3.10938 10.0508
c-16.5156 1.22559 -33.0361 2.35547 -49.5732 3.2002c-50.6348 2.58496 -119.37 9.76074 -144.486 -45.7412c-6.7168 -14.8398 -49.834 -10.4883 -42.3428 6.65527c19.2393 44.0225 66.9766 61.6426 111.891 65.4492c55.2422 4.68555 111.774 -1.7666 166.908 -5.6377
c58.0918 -4.0791 116.643 -8.1543 174.851 -3.95801c44.0566 3.17383 105.431 7.19238 130.265 49.335c9.24121 15.6797 59.5254 13.7051 50.5664 -7.94629c-16.3213 -39.4316 -65.6133 -54.5361 -103.772 -61.7246z" />
    <glyph glyph-name="G" unicode="G" horiz-adv-x="558" 
d="M556.471 -89.7656c2.84082 -23.9941 -39.499 -31.2764 -54.8584 -31.2803c-20.8721 0 -51.2188 7.00195 -54.874 31.2773c-9.81641 65.1807 -12.3887 132.054 -8.91992 197.953c-6.1582 -11.6699 -12.4844 -23.2578 -19.1621 -34.6729
c-31.1699 -53.2676 -69.4678 -111.146 -121.679 -145.962c-50.916 -33.9541 -122.475 -42.8525 -176.854 -10.9512c-48.1963 28.2773 -77.2314 80.1162 -92.3789 132.396c-36.418 125.688 -18.166 256.528 19.915 379.579c36.5566 118.136 94.873 248.777 192.167 329.672
c46.1914 38.4053 104.781 68.7266 166.09 50.7119c50.2881 -14.7754 82.0039 -67.0127 70.7148 -118.626c-3.62891 -16.5811 -45.5332 -15.9316 -42.9648 0c4.6377 28.8096 -2.85352 59.2734 -29.1602 75.2051c-20.9463 12.6797 -37.7354 11.2852 -57.1699 -2.68457
c-42.1338 -30.2822 -71.6143 -76.7168 -97.1201 -120.86c-51.9512 -89.9111 -88.2354 -192.566 -108.229 -294.342c-20.0146 -101.889 -23.042 -206.54 4.08301 -307.397c8.72559 -32.4385 24.4189 -82.2852 57.585 -98.498
c40.7529 -19.9238 90.5557 36.7686 112.979 63.4736c61.2002 72.8887 102.633 159.279 136.522 247.631c3.63281 23.0586 8.73828 46.7236 19.6162 65.5908c6.34375 11.0078 21.2227 14.3418 33.0449 14.3418c8.76074 0 30.3037 -3.13477 33.0449 -14.3418
c7.88086 -32.2305 2.27344 -68.3408 1.14746 -101.359c-1.14746 -33.668 -1.4502 -67.3018 -0.336914 -100.975c2.28223 -69.0215 8.68262 -137.319 16.7979 -205.882z" />
    <glyph glyph-name="H" unicode="H" horiz-adv-x="601" 
d="M569.824 754.58c1.06543 -133.205 -6.54297 -266.306 -7.12305 -399.541c-0.290039 -66.6484 1.875 -133.219 2.60254 -199.85c0.68457 -62.7939 7.45312 -126.42 2.49512 -188.984c-2.46387 -31.0654 -65.4395 -28 -77.5518 -5.98047
c-31.7461 57.71 -35.6436 126.216 -41.1689 190.716c-5.69043 66.3887 -7.35352 133.245 -8.65234 199.846c-0.380859 19.7461 -0.658203 39.5361 -0.814453 59.3389c-101.156 -47.3613 -201.455 -96.584 -300.689 -147.829
c1.57617 -34.1572 3.37793 -68.3066 5.13574 -102.438c3.30371 -64.1709 14.7441 -134.075 -3.4043 -196.696c-4.44336 -15.334 -37.1934 -10.8564 -43.7148 0c-35.2012 58.6064 -41.3721 134.383 -50.3447 200.91c-9.07227 67.2979 -14.1992 134.877 -17.7549 202.677
c-3.62402 69.0518 -4.42969 138.186 -3.46387 207.323c0.939453 67.2285 0.553711 136.076 16.6455 201.707c4.45605 18.1875 38.4883 20.4873 52.4102 19.5039c15.9619 -1.12598 39.333 -7.66895 41.4199 -26.7393c7.30957 -66.8867 -0.709961 -135.8 -1.89258 -202.933
c-1.18652 -67.6836 -0.47168 -135.428 1.24316 -203.094c0.5625 -22.3184 1.39355 -44.6416 2.30762 -66.96c99.5107 52.2148 200.131 102.187 301.98 149.69c0.125977 103.49 4.75977 207.302 20.5869 309.333c6.52148 42.0391 109.401 43.6973 109.748 0z" />
    <glyph glyph-name="I" unicode="I" horiz-adv-x="249" 
d="M255.147 802.955c0 -10.9561 -16.292 -13.5996 -24.3164 -13.8682c-13.2119 -0.441406 -26.4238 -0.896484 -39.6357 -1.36426c2.13477 -67.999 -3.16602 -136.349 -6.39258 -204.244c-3.26953 -68.7227 -4.80664 -137.445 -6.53906 -206.211
c-1.7666 -70.1992 -1.80078 -140.363 -2.48047 -210.571c-0.333008 -34.3525 0.0654297 -68.7529 -0.566406 -103.097c-0.316406 -17.1523 -1.25586 -34.3867 -2.19141 -51.5215c-0.601562 -10.9814 -6.26172 -29.957 -4.08398 -41.8701
c9.16309 1.47266 18.2959 3.08789 27.3682 4.97559c22.0332 4.57715 56.2861 -18.3438 22.9424 -31.0186c-27.9131 -10.6133 -55.7402 -16.7969 -85.4941 -19.2344c-27.1768 -2.23047 -59.2344 -5.53027 -85.3203 3.95703
c-11.8525 4.31348 -23.4229 15.1133 -12.4629 27.0957c10.6572 11.6533 33.751 12.0693 47.5391 7.10645c2.46875 -0.887695 5.32227 -1.42871 8.41406 -1.71484c-14.0127 24.0029 -13.6748 59.1221 -17.0781 85.0566c-4.47754 34.1143 -5.8418 68.7529 -7.97266 103.084
c-4.44336 71.4805 -5.41797 143.265 -6.04199 214.867c-0.624023 71.585 1.51562 143.278 4.23926 214.807c2.58105 67.8516 5.5 136.553 17.1924 203.578c-11.709 -0.181641 -26.3066 0.576172 -34.3008 -7.49121c-12.7832 -12.8955 -60.5381 -2.45898 -43.2344 14.4072
c23.0586 22.4785 60.0703 20.4307 90.5342 21.4834c20.5176 16.7451 63.0156 18.6768 83.8096 3.66309c17.248 0.692383 34.4961 1.37207 51.748 1.99121c7.7041 0.272461 24.3242 -3.31348 24.3242 -13.8662z" />
    <glyph glyph-name="I" unicode="&#xcf;" horiz-adv-x="249" 
d="M255.147 802.955c0 -10.9561 -16.292 -13.5996 -24.3164 -13.8682c-13.2119 -0.441406 -26.4238 -0.896484 -39.6357 -1.36426c2.13477 -67.999 -3.16602 -136.349 -6.39258 -204.244c-3.26953 -68.7227 -4.80664 -137.445 -6.53906 -206.211
c-1.7666 -70.1992 -1.80078 -140.363 -2.48047 -210.571c-0.333008 -34.3525 0.0654297 -68.7529 -0.566406 -103.097c-0.316406 -17.1523 -1.25586 -34.3867 -2.19141 -51.5215c-0.601562 -10.9814 -6.26172 -29.957 -4.08398 -41.8701
c9.16309 1.47266 18.2959 3.08789 27.3682 4.97559c22.0332 4.57715 56.2861 -18.3438 22.9424 -31.0186c-27.9131 -10.6133 -55.7402 -16.7969 -85.4941 -19.2344c-27.1768 -2.23047 -59.2344 -5.53027 -85.3203 3.95703
c-11.8525 4.31348 -23.4229 15.1133 -12.4629 27.0957c10.6572 11.6533 33.751 12.0693 47.5391 7.10645c2.46875 -0.887695 5.32227 -1.42871 8.41406 -1.71484c-14.0127 24.0029 -13.6748 59.1221 -17.0781 85.0566c-4.47754 34.1143 -5.8418 68.7529 -7.97266 103.084
c-4.44336 71.4805 -5.41797 143.265 -6.04199 214.867c-0.624023 71.585 1.51562 143.278 4.23926 214.807c2.58105 67.8516 5.5 136.553 17.1924 203.578c-11.709 -0.181641 -26.3066 0.576172 -34.3008 -7.49121c-12.7832 -12.8955 -60.5381 -2.45898 -43.2344 14.4072
c23.0586 22.4785 60.0703 20.4307 90.5342 21.4834c20.5176 16.7451 63.0156 18.6768 83.8096 3.66309c17.248 0.692383 34.4961 1.37207 51.748 1.99121c7.7041 0.272461 24.3242 -3.31348 24.3242 -13.8662z" />
    <glyph glyph-name="I" unicode="&#xce;" horiz-adv-x="249" 
d="M255.147 802.955c0 -10.9561 -16.292 -13.5996 -24.3164 -13.8682c-13.2119 -0.441406 -26.4238 -0.896484 -39.6357 -1.36426c2.13477 -67.999 -3.16602 -136.349 -6.39258 -204.244c-3.26953 -68.7227 -4.80664 -137.445 -6.53906 -206.211
c-1.7666 -70.1992 -1.80078 -140.363 -2.48047 -210.571c-0.333008 -34.3525 0.0654297 -68.7529 -0.566406 -103.097c-0.316406 -17.1523 -1.25586 -34.3867 -2.19141 -51.5215c-0.601562 -10.9814 -6.26172 -29.957 -4.08398 -41.8701
c9.16309 1.47266 18.2959 3.08789 27.3682 4.97559c22.0332 4.57715 56.2861 -18.3438 22.9424 -31.0186c-27.9131 -10.6133 -55.7402 -16.7969 -85.4941 -19.2344c-27.1768 -2.23047 -59.2344 -5.53027 -85.3203 3.95703
c-11.8525 4.31348 -23.4229 15.1133 -12.4629 27.0957c10.6572 11.6533 33.751 12.0693 47.5391 7.10645c2.46875 -0.887695 5.32227 -1.42871 8.41406 -1.71484c-14.0127 24.0029 -13.6748 59.1221 -17.0781 85.0566c-4.47754 34.1143 -5.8418 68.7529 -7.97266 103.084
c-4.44336 71.4805 -5.41797 143.265 -6.04199 214.867c-0.624023 71.585 1.51562 143.278 4.23926 214.807c2.58105 67.8516 5.5 136.553 17.1924 203.578c-11.709 -0.181641 -26.3066 0.576172 -34.3008 -7.49121c-12.7832 -12.8955 -60.5381 -2.45898 -43.2344 14.4072
c23.0586 22.4785 60.0703 20.4307 90.5342 21.4834c20.5176 16.7451 63.0156 18.6768 83.8096 3.66309c17.248 0.692383 34.4961 1.37207 51.748 1.99121c7.7041 0.272461 24.3242 -3.31348 24.3242 -13.8662z" />
    <glyph glyph-name="I" unicode="&#xcd;" horiz-adv-x="249" 
d="M255.147 802.955c0 -10.9561 -16.292 -13.5996 -24.3164 -13.8682c-13.2119 -0.441406 -26.4238 -0.896484 -39.6357 -1.36426c2.13477 -67.999 -3.16602 -136.349 -6.39258 -204.244c-3.26953 -68.7227 -4.80664 -137.445 -6.53906 -206.211
c-1.7666 -70.1992 -1.80078 -140.363 -2.48047 -210.571c-0.333008 -34.3525 0.0654297 -68.7529 -0.566406 -103.097c-0.316406 -17.1523 -1.25586 -34.3867 -2.19141 -51.5215c-0.601562 -10.9814 -6.26172 -29.957 -4.08398 -41.8701
c9.16309 1.47266 18.2959 3.08789 27.3682 4.97559c22.0332 4.57715 56.2861 -18.3438 22.9424 -31.0186c-27.9131 -10.6133 -55.7402 -16.7969 -85.4941 -19.2344c-27.1768 -2.23047 -59.2344 -5.53027 -85.3203 3.95703
c-11.8525 4.31348 -23.4229 15.1133 -12.4629 27.0957c10.6572 11.6533 33.751 12.0693 47.5391 7.10645c2.46875 -0.887695 5.32227 -1.42871 8.41406 -1.71484c-14.0127 24.0029 -13.6748 59.1221 -17.0781 85.0566c-4.47754 34.1143 -5.8418 68.7529 -7.97266 103.084
c-4.44336 71.4805 -5.41797 143.265 -6.04199 214.867c-0.624023 71.585 1.51562 143.278 4.23926 214.807c2.58105 67.8516 5.5 136.553 17.1924 203.578c-11.709 -0.181641 -26.3066 0.576172 -34.3008 -7.49121c-12.7832 -12.8955 -60.5381 -2.45898 -43.2344 14.4072
c23.0586 22.4785 60.0703 20.4307 90.5342 21.4834c20.5176 16.7451 63.0156 18.6768 83.8096 3.66309c17.248 0.692383 34.4961 1.37207 51.748 1.99121c7.7041 0.272461 24.3242 -3.31348 24.3242 -13.8662z" />
    <glyph glyph-name="J" unicode="J" horiz-adv-x="480" 
d="M382.373 -3.15039c-51.2451 -92.708 -174.015 -139.664 -270.104 -85.959c-99.1904 55.4414 -72.0088 179.319 -16.9961 256.096c31.7803 44.3516 69.8096 84.6973 108.839 122.709c35.2314 34.3135 72.8271 69.3896 114.078 96.9258
c-0.498047 14.9053 -1.08301 29.7969 -1.72852 44.6846c-2.3252 53.4922 -3.77539 106.963 -5.06543 160.494c-1.27344 52.8037 -3.94922 109.103 6.17969 161.127c0.930664 4.77637 4.07031 8.77344 8.4873 11.9082c-101.585 -0.4375 -203.677 3.33887 -302.438 -21.3877
c-9.12793 -2.28223 -25.0156 -3.75488 -31.9834 4.78027c-6.2959 7.71191 -0.475586 15.9961 8.38867 18.2305c147.231 37.0586 298.364 14.5498 447.704 30.5029c8.39648 0.900391 25.3926 0.583984 29.3379 -9.49316
c3.82812 -9.78223 -8.72559 -15.8838 -16.6592 -16.7236c-27.3682 -2.88867 -54.9004 -4.38281 -82.5146 -5.15332c2.36426 -2.07031 4.15723 -4.59082 5.13184 -7.61328c21.3057 -66.2148 24.6621 -139.705 31.5215 -208.579
c6.68652 -67.1631 12.4463 -134.396 15.8105 -201.818c3.05273 -61.1006 3.14844 -122.734 -3.37695 -183.641c-6.02344 -56.2207 -16.9707 -117.079 -44.6113 -167.09zM119.906 18.165c5.59961 -36.3184 29.5107 -73.0479 67.791 -80.0635
c33.9023 -6.21875 65.3799 19.6201 83.3115 46.0957c25.7695 38.042 32.4336 85.5977 38.21 130.131c8.8252 68.0684 11.1592 136.583 10.4746 205.115c-21.2402 -17.5205 -42.2725 -35.3008 -62.0967 -54.7139c-37.4873 -36.7041 -75.1348 -76.2314 -103.845 -120.345
c-24.6914 -37.9336 -40.917 -80.3359 -33.8457 -126.22z" />
    <glyph glyph-name="K" unicode="K" horiz-adv-x="438" 
d="M425.338 -22.208c-5.1709 -45.6592 -118.491 -45.0361 -116.383 -0.000976562c4.33496 91.9414 13.9092 189.465 -25.5752 275.694c-16.0312 35.0107 -37.9473 68.3242 -71.1396 89.2441c-22.0459 13.8965 -43.7363 19.3789 -66.6875 20.8428
c0.0429688 -2.50293 0.0605469 -5.00586 0.112305 -7.5127c1.39844 -69.2031 3.60254 -138.506 7.78613 -207.605c1.96191 -32.4209 4.15723 -64.6865 7.04102 -97.0381c2.96191 -33.2012 6.5 -65.9648 1.09961 -99.0879
c-3.23047 -19.8027 -43.1348 -22.3574 -54.1553 -8.36133c-42.7666 54.3193 -53.2725 125.406 -62.2061 192.306c-9.33203 69.8955 -13.6494 140.778 -16.1699 211.202c-5.08789 142.347 -6.08398 287.742 15.1777 428.907c6.38281 42.3857 110.947 43.5547 110.22 0
c-1.96582 -118.019 -8.83398 -235.7 -9.27539 -353.693c16.8193 11.584 32.2959 25.7617 45.1738 37.7441c27.6445 25.7227 51.8984 54.9873 73.0049 86.2568c43.7627 64.8291 95.7832 150.877 82.2549 231.837c-2.68457 16.0742 40.6406 17.2822 43.9141 0
c9.27539 -48.9541 -5.79004 -96.835 -26.1992 -141.043c-17.0703 -36.9727 -37.0508 -72.793 -60.2354 -106.288c-22.9121 -33.1055 -48.7988 -64.2881 -78.834 -91.1836c-13.376 -11.9824 -27.6055 -23.0771 -42.4365 -33.2275
c72.0176 -9.78223 141.052 -51.6436 183.229 -108.375c68.0342 -91.5127 72.6504 -211.476 60.2832 -320.617z" />
    <glyph glyph-name="L" unicode="L" horiz-adv-x="192" 
d="M42.6943 119.779c-9.97266 73.1953 -13.9746 147.66 -14.9707 221.505c-2.06543 153.112 -1.12988 308.728 22.2715 460.341c6.53906 42.3721 111.472 43.4326 110.221 -0.000976562c-2.45508 -85.2949 -8.83398 -170.377 -12.7314 -255.611
c-3.75879 -82.1855 -4.48242 -164.328 -5.06738 -246.578c-0.567383 -79.6396 -0.47168 -160.842 8.08105 -240.096c3.87598 -35.9111 10.3193 -75.0186 28.0566 -107.071c14.3203 -25.8779 42.7314 -39.7822 68.752 -19.8672
c8.61719 6.59473 21.0234 8.4873 31.3379 4.68555c6.58691 -2.43359 16.7588 -10.999 8.21484 -17.8623c-51.6699 -41.5322 -127.944 -39.5664 -175.651 7.61719c-49.6729 49.123 -59.5459 127.1 -68.5137 192.938z" />
    <glyph glyph-name="M" unicode="M" horiz-adv-x="682" 
d="M529.929 177.343c1.89648 69.1465 1.85254 138.25 2.49805 207.41c0.62793 67.3848 1.3125 134.782 0.693359 202.167c-0.302734 32.9844 -1.90039 65.7871 -4.01758 98.6895c-0.389648 6.01953 -2.96582 47.4561 -2.69727 70.2246
c-7.52148 -10.2764 -13.7012 -22.9248 -18.5293 -30.7061c-9.75195 -15.7236 -18.8027 -31.876 -27.3506 -48.2793c-17.1738 -32.958 -32.0312 -66.9727 -46.3818 -101.238c-25.2588 -60.3213 -52.124 -119.989 -78.3398 -179.713
c-4.59473 -10.4707 -7.73438 -24.3672 -15.8926 -32.6035c-14.3555 -14.4932 -40.8525 -17.291 -59.6201 -14.4287c-35.7383 5.45605 -60.417 30.7021 -77.626 61.002c-30.1826 53.1328 -41.3848 117.533 -52.54 176.846
c-5.59082 29.7275 -10.7354 59.3994 -17.3086 88.9414c-3.33008 14.9482 -7.64355 29.7539 -12.6621 44.2217c-1.93164 5.57324 -3.91016 11.333 -6.62988 16.6377c-3.37793 -8.24512 -5.33984 -17.9277 -6.84668 -23.1758
c-4.74219 -16.5244 -8.22363 -33.3262 -10.9902 -50.2842c-5.13574 -31.4941 -7.73438 -63.3398 -9.95605 -95.1504c-4.69824 -67.2891 -6.82422 -134.729 -7.91113 -202.166c-2.22168 -138.168 -2.10938 -276.384 -3.88086 -414.564
c-0.216797 -16.7061 -42.4033 -16.5889 -42.4941 0.000976562c-1.2041 217.045 -8.56543 436.506 10.0156 652.992c3.69824 43.082 9.58789 86.377 22.7949 127.697c11.0723 34.6338 37.1279 52.0156 74.2695 42.7139c38.2236 -9.57422 60.4639 -50.5352 77.9883 -82.7227
c18.8408 -34.5947 32.3428 -72.5889 43.667 -110.245c11.2197 -37.3057 22.6865 -74.668 37.2188 -110.844c5.97168 -14.8662 13.1387 -29.0693 20.3398 -43.3203c19.4521 29.1133 32.0625 66.2373 45.4824 96.9912c16.9404 38.8125 33.3867 77.8242 51.4316 116.144
c17.8926 37.999 37.1973 75.3135 60.6416 110.229c19.0791 28.4199 43.8184 57.3379 82.1465 42.1602c35.5088 -14.0605 48.9893 -68.0645 57.9316 -100.702c12.4111 -45.2734 19.916 -91.998 26 -138.476c12.5059 -95.5488 12.4629 -193.804 13.1299 -290.023
c0.670898 -97.6016 2.25586 -196.528 -7.37891 -293.749c-4.74609 -47.8809 -121.994 -48.1143 -122.535 0c-0.779297 69.0605 3.44727 138.281 5.33984 207.324z" />
    <glyph glyph-name="N" unicode="N" horiz-adv-x="667" 
d="M523.154 778.017c0.96582 41.7314 101.161 40.9609 105.496 0c10.7568 -102.006 11.0127 -204.882 10.168 -307.351c-0.831055 -101.057 -2.92676 -202.408 -11.5098 -303.153c-3.44238 -40.458 -5.93262 -80.9209 -18.3262 -119.842
c-9.87305 -30.9961 -29.5547 -70.9785 -59.5254 -87.6455c-73.2305 -40.7266 -141.174 48.665 -167.758 105.535c-34.0498 72.8408 -52.5488 153.523 -70.2207 231.595c-18.8975 83.4893 -33.5469 167.987 -54.3848 251.03
c-10.4668 41.7012 -22.0938 83.1465 -35.9639 123.852c-6.38281 18.7334 -12.4756 40.8271 -26.4795 55.5117c-2.63672 2.7627 -8.35742 5.87207 -10.6826 8.95117c-0.948242 1.25586 -1.77539 2.07031 -2.46387 2.59863
c-3.91504 -2.57617 -7.06348 -6.91113 -9.56641 -10.5918c-19.7334 -29.0352 -22.6475 -71.6504 -25.7354 -105.453c-3.86719 -42.3594 -4.75879 -84.7832 -5.2832 -127.29c-2.21289 -179.865 5.22656 -360.496 -18.9238 -539.066
c-4.33887 -32.0703 -77.877 -32.2217 -81.8047 0c-12.5537 102.937 -13.4756 204.644 -13.4541 308.295c0.0214844 97.7656 -4.35645 197.554 7.97656 294.748c5.21777 41.1338 14.2334 81.709 28.1211 120.825c11.627 32.7461 27.3154 67.8906 58.5244 86.4502
c33.6162 19.9844 78.8594 18.8848 111.437 -2.68848c32.9629 -21.8291 44.9229 -62.0576 56.2939 -97.7393c51.4795 -161.53 71.8672 -331.093 122.359 -492.887c11.8604 -38.0029 25.5186 -75.1445 43.0742 -110.909c8.41797 -17.1523 16.875 -34.5732 27.2422 -50.6514
c8.66113 -13.4326 29.291 -44.4072 44.04 -21.9805c9.22754 14.0342 7.87695 39.6348 9.04199 55.6094c1.39453 19.1318 0.931641 38.501 1.00098 57.6709c0.164062 44.1006 -2.11816 88.2783 -2.94531 132.379c-1.68457 89.6641 -3.13086 179.362 -5.6123 269.009
c-2.52051 91.0195 -6.24902 182.13 -4.13574 273.188zM181.045 739.399c-2.1084 1.33789 -2.44629 -0.398438 0 0z" />
    <glyph glyph-name="O" unicode="O" horiz-adv-x="491" 
d="M471.119 463.188c10.1289 -81.8213 7.03223 -165.233 -8.98535 -246.115c-15.0781 -76.1182 -38.7568 -154.41 -88.5898 -215.442c-45.7764 -56.0605 -120.608 -85.5762 -189.968 -56.3418c-69.4668 29.2812 -109.934 105.941 -128.879 175.313
c-20.998 76.876 -19.5732 153.497 -19.2178 232.322c0.0478516 9.84766 6.93262 16.8281 16.8535 21.1416c-7.43555 10.4492 -13.7451 21.3184 -18.5859 32.3262c-34.374 78.1191 -20.5469 182.658 15.958 257.837c34.582 71.2119 96.5361 127.645 177.466 135.803
c78.79 7.94629 142.649 -39.4229 177.855 -106.868c36.5693 -70.0566 56.4365 -151.938 66.0928 -229.976zM420.038 262.883c18.707 134.608 2.68262 275.551 -52.6543 400.187c-12.9824 29.2432 -29.0049 57.5723 -54.0557 78.1582
c-22.4482 18.4473 -55.5273 34.2656 -83.4619 19.0576c-51.0938 -27.8135 -77.0762 -82.4668 -90.1533 -136.713c-23.3535 -96.8779 -25.9688 -258.304 98.6064 -286.629c16.0918 -3.65918 42.667 -22.1494 16.4814 -35.582
c-42.8574 -21.9854 -90.8809 -14.0566 -132.11 9.20996c-3.12695 -58.9531 -1.00098 -119.669 10.6738 -176.708c11.6357 -56.8574 37.1895 -139.636 96.7578 -164.085c59.8408 -24.5576 112.879 58.165 134.674 101.438c29.9014 59.3691 46.1357 126.126 55.2422 191.666z
" />
    <glyph glyph-name="O" unicode="&#xd6;" horiz-adv-x="491" 
d="M471.119 463.188c10.1289 -81.8213 7.03223 -165.233 -8.98535 -246.115c-15.0781 -76.1182 -38.7568 -154.41 -88.5898 -215.442c-45.7764 -56.0605 -120.608 -85.5762 -189.968 -56.3418c-69.4668 29.2812 -109.934 105.941 -128.879 175.313
c-20.998 76.876 -19.5732 153.497 -19.2178 232.322c0.0478516 9.84766 6.93262 16.8281 16.8535 21.1416c-7.43555 10.4492 -13.7451 21.3184 -18.5859 32.3262c-34.374 78.1191 -20.5469 182.658 15.958 257.837c34.582 71.2119 96.5361 127.645 177.466 135.803
c78.79 7.94629 142.649 -39.4229 177.855 -106.868c36.5693 -70.0566 56.4365 -151.938 66.0928 -229.976zM420.038 262.883c18.707 134.608 2.68262 275.551 -52.6543 400.187c-12.9824 29.2432 -29.0049 57.5723 -54.0557 78.1582
c-22.4482 18.4473 -55.5273 34.2656 -83.4619 19.0576c-51.0938 -27.8135 -77.0762 -82.4668 -90.1533 -136.713c-23.3535 -96.8779 -25.9688 -258.304 98.6064 -286.629c16.0918 -3.65918 42.667 -22.1494 16.4814 -35.582
c-42.8574 -21.9854 -90.8809 -14.0566 -132.11 9.20996c-3.12695 -58.9531 -1.00098 -119.669 10.6738 -176.708c11.6357 -56.8574 37.1895 -139.636 96.7578 -164.085c59.8408 -24.5576 112.879 58.165 134.674 101.438c29.9014 59.3691 46.1357 126.126 55.2422 191.666z
" />
    <glyph glyph-name="O" unicode="&#xd5;" horiz-adv-x="491" 
d="M471.119 463.188c10.1289 -81.8213 7.03223 -165.233 -8.98535 -246.115c-15.0781 -76.1182 -38.7568 -154.41 -88.5898 -215.442c-45.7764 -56.0605 -120.608 -85.5762 -189.968 -56.3418c-69.4668 29.2812 -109.934 105.941 -128.879 175.313
c-20.998 76.876 -19.5732 153.497 -19.2178 232.322c0.0478516 9.84766 6.93262 16.8281 16.8535 21.1416c-7.43555 10.4492 -13.7451 21.3184 -18.5859 32.3262c-34.374 78.1191 -20.5469 182.658 15.958 257.837c34.582 71.2119 96.5361 127.645 177.466 135.803
c78.79 7.94629 142.649 -39.4229 177.855 -106.868c36.5693 -70.0566 56.4365 -151.938 66.0928 -229.976zM420.038 262.883c18.707 134.608 2.68262 275.551 -52.6543 400.187c-12.9824 29.2432 -29.0049 57.5723 -54.0557 78.1582
c-22.4482 18.4473 -55.5273 34.2656 -83.4619 19.0576c-51.0938 -27.8135 -77.0762 -82.4668 -90.1533 -136.713c-23.3535 -96.8779 -25.9688 -258.304 98.6064 -286.629c16.0918 -3.65918 42.667 -22.1494 16.4814 -35.582
c-42.8574 -21.9854 -90.8809 -14.0566 -132.11 9.20996c-3.12695 -58.9531 -1.00098 -119.669 10.6738 -176.708c11.6357 -56.8574 37.1895 -139.636 96.7578 -164.085c59.8408 -24.5576 112.879 58.165 134.674 101.438c29.9014 59.3691 46.1357 126.126 55.2422 191.666z
" />
    <glyph glyph-name="O" unicode="&#xd4;" horiz-adv-x="491" 
d="M471.119 463.188c10.1289 -81.8213 7.03223 -165.233 -8.98535 -246.115c-15.0781 -76.1182 -38.7568 -154.41 -88.5898 -215.442c-45.7764 -56.0605 -120.608 -85.5762 -189.968 -56.3418c-69.4668 29.2812 -109.934 105.941 -128.879 175.313
c-20.998 76.876 -19.5732 153.497 -19.2178 232.322c0.0478516 9.84766 6.93262 16.8281 16.8535 21.1416c-7.43555 10.4492 -13.7451 21.3184 -18.5859 32.3262c-34.374 78.1191 -20.5469 182.658 15.958 257.837c34.582 71.2119 96.5361 127.645 177.466 135.803
c78.79 7.94629 142.649 -39.4229 177.855 -106.868c36.5693 -70.0566 56.4365 -151.938 66.0928 -229.976zM420.038 262.883c18.707 134.608 2.68262 275.551 -52.6543 400.187c-12.9824 29.2432 -29.0049 57.5723 -54.0557 78.1582
c-22.4482 18.4473 -55.5273 34.2656 -83.4619 19.0576c-51.0938 -27.8135 -77.0762 -82.4668 -90.1533 -136.713c-23.3535 -96.8779 -25.9688 -258.304 98.6064 -286.629c16.0918 -3.65918 42.667 -22.1494 16.4814 -35.582
c-42.8574 -21.9854 -90.8809 -14.0566 -132.11 9.20996c-3.12695 -58.9531 -1.00098 -119.669 10.6738 -176.708c11.6357 -56.8574 37.1895 -139.636 96.7578 -164.085c59.8408 -24.5576 112.879 58.165 134.674 101.438c29.9014 59.3691 46.1357 126.126 55.2422 191.666z
" />
    <glyph glyph-name="O" unicode="&#xd3;" horiz-adv-x="491" 
d="M471.119 463.188c10.1289 -81.8213 7.03223 -165.233 -8.98535 -246.115c-15.0781 -76.1182 -38.7568 -154.41 -88.5898 -215.442c-45.7764 -56.0605 -120.608 -85.5762 -189.968 -56.3418c-69.4668 29.2812 -109.934 105.941 -128.879 175.313
c-20.998 76.876 -19.5732 153.497 -19.2178 232.322c0.0478516 9.84766 6.93262 16.8281 16.8535 21.1416c-7.43555 10.4492 -13.7451 21.3184 -18.5859 32.3262c-34.374 78.1191 -20.5469 182.658 15.958 257.837c34.582 71.2119 96.5361 127.645 177.466 135.803
c78.79 7.94629 142.649 -39.4229 177.855 -106.868c36.5693 -70.0566 56.4365 -151.938 66.0928 -229.976zM420.038 262.883c18.707 134.608 2.68262 275.551 -52.6543 400.187c-12.9824 29.2432 -29.0049 57.5723 -54.0557 78.1582
c-22.4482 18.4473 -55.5273 34.2656 -83.4619 19.0576c-51.0938 -27.8135 -77.0762 -82.4668 -90.1533 -136.713c-23.3535 -96.8779 -25.9688 -258.304 98.6064 -286.629c16.0918 -3.65918 42.667 -22.1494 16.4814 -35.582
c-42.8574 -21.9854 -90.8809 -14.0566 -132.11 9.20996c-3.12695 -58.9531 -1.00098 -119.669 10.6738 -176.708c11.6357 -56.8574 37.1895 -139.636 96.7578 -164.085c59.8408 -24.5576 112.879 58.165 134.674 101.438c29.9014 59.3691 46.1357 126.126 55.2422 191.666z
" />
    <glyph glyph-name="P" unicode="P" horiz-adv-x="663" 
d="M663.853 587.499c-14.71 -136.601 -117.759 -259.895 -236.185 -322.503c-54.9043 -29.0264 -133.427 -60.9932 -198.893 -47.0889c0.78418 -27.584 1.76758 -55.1641 3.15723 -82.7139c1.63672 -32.5117 3.00098 -65.0586 4.25293 -97.5879
c0.645508 -16.7412 2.29102 -34.084 1.33789 -50.8037c-0.753906 -13.251 -5.4043 -23.4492 -9.58301 -35.6309c-6.63379 6.65527 -13.2676 13.3154 -19.9014 19.9756c-8.95508 -2.07812 -17.9102 -4.15625 -26.8652 -6.23047l46.7666 -13.7432
c-5.18359 -15.1045 -32.4648 -12.7744 -43.3037 -10.042c-32.0488 8.07617 -36.2969 48.3486 -41.6406 75.2959c-6.66406 33.6123 -11.8906 67.7441 -15.9092 101.776c-8.00684 67.7607 -13.125 136.033 -15.5156 204.214c-4.82812 137.622 -3.26465 276.098 14.5508 412.78
c5.95898 45.7285 119.665 45.0742 116.851 0c-6.85449 -109.817 -14.0039 -219.608 -15.8057 -329.604c44.5068 51.4961 98.4365 93.249 156.55 128.459c58.3213 35.3311 119.21 63.1621 186.257 72.3164c1.49805 11.0469 2.3291 22.1367 2.35059 33.2227
c0.103516 54.835 -27.9229 104.638 -72.9932 135.521c-50.8555 34.8467 -116.2 42.7451 -176.306 37.3672c-57.0605 -5.10156 -114.407 -18.6035 -165.778 -44.4473c-26.3154 -13.2383 -51.0762 -29.3945 -72.8623 -49.2842
c-19.4082 -17.7158 -47.2266 -42.6934 -47.6289 -70.667c-0.263672 -18.4209 -46.9102 -18.2002 -46.7539 0c0.320312 37.1455 36.9805 70.6709 63.4258 92.9893c27.9697 23.6094 59.4814 42.3203 92.9424 57c73.5244 32.2568 155.472 45.6328 235.496 44.4463
c72.9316 -1.08301 144.681 -20.7559 202.478 -66.4189c57.4805 -45.417 87.377 -115.508 79.5088 -188.6zM280.869 281.011c47.7158 15.1904 92.0615 39.541 131.112 70.832c65.7432 52.6826 127.533 132.897 150.688 218.677
c-57.541 -9.19336 -111.558 -36.5479 -160.222 -67.8477c-53.1807 -34.2051 -104.109 -77.9326 -137.396 -132.27c-13.0088 -21.2314 -36.0635 -58.8574 -26.8525 -84.9043c1.58105 -4.46484 11.6445 -12.7969 8.86035 -13.2432
c9.02832 -1.12598 26.0205 6.27441 33.8105 8.75586z" />
    <glyph glyph-name="Q" unicode="Q" horiz-adv-x="492" 
d="M373.545 1.63477c-7.54297 -9.23242 -15.8809 -17.7314 -24.8447 -25.3828c9.45703 1.32031 18.9277 2.5498 28.4326 3.57129c15.0303 1.61133 45.6113 1.04395 52.6436 -17.0391c6.90723 -17.7715 -15.7012 -28.1855 -29.8916 -30.0088
c-47.4346 -6.09668 -94.7305 -13.4971 -141.26 -24.6992c-48.1191 -11.5879 -94.8867 -28.8789 -143.183 -39.4189c-17.5117 -3.82324 -63.1836 14.0264 -32.8838 32.1963c32.1963 19.3086 70.4287 31.7021 107.765 41.7832
c-2.25195 0.827148 -4.50391 1.70215 -6.74707 2.65039c-69.4629 29.2812 -109.93 105.941 -128.875 175.313c-20.998 76.876 -19.5732 153.497 -19.2178 232.322c0.0478516 9.84766 6.93262 16.8281 16.8535 21.1416c-7.43555 10.4492 -13.7451 21.3184 -18.5869 32.3262
c-34.374 78.1191 -20.5518 182.658 15.957 257.837c34.582 71.2119 96.5361 127.645 177.466 135.803c78.79 7.94629 142.649 -39.4229 177.855 -106.868c36.5693 -70.0566 56.4365 -151.938 66.0928 -229.976c10.1289 -81.8262 7.03223 -165.237 -8.98535 -246.11
c-15.0781 -76.1182 -38.7568 -154.41 -88.5908 -215.441zM133.365 133.863c11.6357 -56.8574 37.1826 -139.641 96.7461 -164.09c59.8408 -24.5576 112.879 58.165 134.674 101.438c29.9014 59.3691 46.1357 126.126 55.2422 191.666
c18.707 134.608 2.68945 275.552 -52.6475 400.191c-12.9824 29.2432 -29.0049 57.5723 -54.0557 78.1582c-22.4482 18.4473 -55.5273 34.2656 -83.4619 19.0576c-51.0889 -27.8135 -77.0713 -82.4668 -90.1484 -136.713
c-23.3535 -96.8779 -25.9688 -258.304 98.6064 -286.629c16.0869 -3.65918 42.667 -22.1494 16.4814 -35.582c-42.8574 -21.9854 -90.8809 -14.0566 -132.11 9.20996c-3.12695 -58.9531 -0.996094 -119.669 10.6738 -176.708z" />
    <glyph glyph-name="R" unicode="R" horiz-adv-x="630" 
d="M415.566 847.345c81.8604 -4.72461 195.934 -29.5088 206.218 -129.232c4.7334 -45.8018 -18.3945 -89.0361 -44.2246 -124.874c-27.5586 -38.2412 -59.4951 -72.165 -94.4414 -103.733c-35.8027 -32.3389 -73.8447 -61.9238 -112.354 -90.9414
c-3.29102 -2.48145 -6.59082 -4.95801 -9.89453 -7.43066c8.10645 1.10449 16.2344 1.91406 24.3447 2.36914c61.0703 3.43848 111.22 -23.752 145.065 -73.5635c33.4307 -49.2012 47.9238 -114.468 56.5537 -172.416c9.76074 -65.5225 12.0342 -131.616 12.043 -197.762
c0.00878906 -45.8193 -116.092 -45.7412 -116.85 0c-1.69727 102.581 1.90527 210.194 -27.1602 309.701c-8.71289 29.832 -22.2666 76.5303 -55.3369 88.123c-18.7939 6.58691 -44.1875 0.979492 -63.2578 -2.21191c-25.2588 -4.22656 -48.3652 -9.53516 -68.5186 -26.1982
c-4.32129 -3.57227 -9.9248 -5.70703 -15.7314 -6.45215c-0.757812 -62.8896 0.277344 -125.645 1.25586 -188.521c0.498047 -32.0576 1.49414 -64.1191 2.4209 -96.168c0.701172 -24.3018 5.11816 -51.7217 -0.220703 -75.833
c1.95312 -8.33594 -12.2109 -14.7188 -18.0264 -16.1826c-12.4629 -3.13965 -25.5752 -1.05273 -35.8203 6.68945c-25.4316 19.2178 -32.75 51.5303 -38.7783 81.1543c-6.20117 30.4639 -10.4492 61.0791 -13.9736 91.959
c-7.30078 63.9502 -8.66504 128.767 -10.5967 193.06c-1.97852 65.8037 -1.7832 131.729 -2.07812 197.562c-0.290039 65.4014 -2.23438 134.318 11.5625 198.48c8.00293 37.2109 88.1572 37.8428 95.54 0c12.5576 -64.3662 9.76855 -133.098 9.34375 -198.481
c-0.199219 -30.4727 -0.172852 -60.9453 -0.172852 -91.4219c14.6104 9.93848 28.9131 20.375 43.1816 30.7939c35.8252 26.1553 71.5938 52.501 105.422 81.2236c31.5986 26.835 61.7158 55.8398 88.7676 87.2822c24.5527 28.5371 51.4873 64.96 54.3193 103.794
c6.16602 84.5801 -97.3682 103.244 -161.448 102.803c-72.1611 -0.494141 -143.733 -20.8467 -206.367 -56.4248c-32.1309 -18.248 -61.7764 -40.4023 -88.1826 -66.2676c-25.8525 -25.3242 -58.0742 -57.1738 -52.6396 -96.3848
c2.35156 -16.9492 -43.1904 -18.2393 -45.8057 0c-6.8291 47.6641 35.9854 89.1875 67.8955 118.807c34.7471 32.2568 74.7598 59.2266 117.612 79.4756c74.8936 35.3916 157.586 52.0029 240.334 47.2227z" />
    <glyph glyph-name="S" unicode="S" horiz-adv-x="458" 
d="M452 81.5117c-14.9355 -58.6631 -52.291 -109.04 -103.428 -141.24c-93.665 -58.9834 -253.896 -46.127 -305.696 64.0674c-49.751 105.842 12.1729 237.748 101.157 300.265c10.5918 7.44434 49.8721 -2.9834 34.1094 -15.0049
c-51.916 -39.5967 -89.6162 -97.8135 -100.745 -162.552c-11.5537 -67.1807 3.74512 -138.346 66.5527 -174.162c53.1416 -30.3037 115.702 -22.7949 159.885 19.2695c43.0605 40.9951 57.2246 99.377 52.6602 157.209c-9.87793 125.173 -121.912 214.897 -207.73 293.189
c-74.0527 67.5615 -199.061 200.763 -109.895 303.898c35.292 40.8262 89.4902 63.3828 143.208 60.9141c55.2207 -2.53711 101.438 -30.4463 136.362 -72.1045c16.3818 -19.5381 -35.1973 -30.4248 -46.625 -11.2021c-31.5938 53.1416 -111.718 73.1436 -149.772 16.2646
c-40.4238 -60.417 -2.0791 -126.87 41.9688 -172.204c89.3779 -91.998 207.985 -165.951 265.25 -284.732c27.333 -56.6973 38.4014 -120.362 22.7383 -181.875z" />
    <glyph glyph-name="T" unicode="T" horiz-adv-x="503" 
d="M665.101 745.513c-74.6113 -9.96387 -150.288 -9.73535 -225.272 -5.1543c-8.52637 0.519531 -17.0488 1.1084 -25.5713 1.71484c-2.9707 -130.257 -8.72168 -260.267 -6.10156 -390.636c1.34277 -66.8301 3.98828 -133.712 7.14062 -200.481
c3.10059 -65.6133 11.5488 -134.514 3.74512 -199.759c-3.52441 -29.5029 -70.5664 -32.5127 -80.3398 -6.19727c-23.4922 63.2314 -30.2559 134.851 -37.4355 201.698c-7.16211 66.709 -11.7695 133.431 -14.459 200.469
c-5.39551 134.461 -6.68555 270.494 7.42285 404.462c-30.5596 2.34668 -61.1445 4.36035 -91.7861 5.41309c-38.124 1.30371 -78.0625 3.10547 -115.914 -2.51074c-27.0859 -4.02246 -74.3213 -27.6572 -52.2754 -62.2998
c9.5791 -15.0566 -32.6113 -18.8193 -41.4326 -6.50781c-17.2783 24.124 -3.49902 54.376 17.7539 70.7061c24.2842 18.6592 55.8223 24.0635 85.5762 26.3584c72.1436 5.56445 144.789 0.714844 216.872 -4.87109c27.3984 15.5156 76.8896 13.0732 94.7822 -7.23633
c56.5322 -3.92285 113.147 -6.44727 169.814 -3.70605c40.7051 1.96582 81.7568 8.02832 121.206 18.3477c28.623 7.4873 66.1152 15.9873 77.5771 46.8838c8.98535 24.2197 74.3125 12.415 61.9795 -9.74316c-32.3262 -58.0781 -113.628 -68.9863 -173.282 -76.9502z" />
    <glyph glyph-name="U" unicode="U" horiz-adv-x="633" 
d="M98.6406 31.3799c-55.9434 98.8008 -71.9609 221.285 -77.7764 332.974c-6.08887 116.824 3.41211 233.587 18.7891 349.346c3.49414 26.2979 37.0371 33.707 59.1348 33.707c17.5166 0 61.8115 -7.85059 59.1357 -33.707
c-12.0254 -116.104 -25.666 -232.47 -26.376 -349.346c-0.610352 -101.07 5.11914 -209.97 38.3672 -306.259c10.4229 -30.1953 37.5176 -98.1943 78.041 -65.0713c36.8252 30.1084 60.6377 77.5908 79.5742 120.244c41.8652 94.2979 66.6865 195.269 89.793 295.46
c22.4619 97.3896 44.958 195.009 59.0664 294.03c0.272461 6.0625 0.475586 12.1211 0.783203 18.1797c2.33008 46.1357 116.2 45.8887 117.326 0c3.17383 -129.521 -1.31641 -259.002 -0.298828 -388.544c0.506836 -63.9678 1.14746 -127.975 3.19141 -191.907
c1.03906 -32.6504 1.75781 -65.2754 2.50684 -97.9346c0.640625 -27.9697 -1.07031 -57.2734 10.9678 -83.1514c8.52637 -18.3213 -17.334 -28.6924 -30.7148 -30.8359c-19.5039 -3.12695 -42.1035 0.80957 -54.1025 17.5078
c-17.7891 24.7568 -24.4619 53.9736 -28.6621 83.7148c-4.59863 32.5596 -8.60449 65.1367 -11.2109 97.917c-5.19629 65.3018 -8.96777 130.664 -10.7783 196.151c-1.1084 40.2891 -1.95312 80.5869 -2.46387 120.894
c-8.46191 -37.2275 -17.3301 -74.3252 -26.1641 -111.268c-25.6143 -107.106 -55.0342 -223.449 -120.895 -313.806c-26.9131 -36.9248 -63.4697 -71.5195 -112.299 -70.1689c-53.0771 1.46777 -90.2744 38.3232 -114.936 81.873z" />
    <glyph glyph-name="U" unicode="&#xdc;" horiz-adv-x="633" 
d="M98.6406 31.3799c-55.9434 98.8008 -71.9609 221.285 -77.7764 332.974c-6.08887 116.824 3.41211 233.587 18.7891 349.346c3.49414 26.2979 37.0371 33.707 59.1348 33.707c17.5166 0 61.8115 -7.85059 59.1357 -33.707
c-12.0254 -116.104 -25.666 -232.47 -26.376 -349.346c-0.610352 -101.07 5.11914 -209.97 38.3672 -306.259c10.4229 -30.1953 37.5176 -98.1943 78.041 -65.0713c36.8252 30.1084 60.6377 77.5908 79.5742 120.244c41.8652 94.2979 66.6865 195.269 89.793 295.46
c22.4619 97.3896 44.958 195.009 59.0664 294.03c0.272461 6.0625 0.475586 12.1211 0.783203 18.1797c2.33008 46.1357 116.2 45.8887 117.326 0c3.17383 -129.521 -1.31641 -259.002 -0.298828 -388.544c0.506836 -63.9678 1.14746 -127.975 3.19141 -191.907
c1.03906 -32.6504 1.75781 -65.2754 2.50684 -97.9346c0.640625 -27.9697 -1.07031 -57.2734 10.9678 -83.1514c8.52637 -18.3213 -17.334 -28.6924 -30.7148 -30.8359c-19.5039 -3.12695 -42.1035 0.80957 -54.1025 17.5078
c-17.7891 24.7568 -24.4619 53.9736 -28.6621 83.7148c-4.59863 32.5596 -8.60449 65.1367 -11.2109 97.917c-5.19629 65.3018 -8.96777 130.664 -10.7783 196.151c-1.1084 40.2891 -1.95312 80.5869 -2.46387 120.894
c-8.46191 -37.2275 -17.3301 -74.3252 -26.1641 -111.268c-25.6143 -107.106 -55.0342 -223.449 -120.895 -313.806c-26.9131 -36.9248 -63.4697 -71.5195 -112.299 -70.1689c-53.0771 1.46777 -90.2744 38.3232 -114.936 81.873z" />
    <glyph glyph-name="U" unicode="&#xdb;" horiz-adv-x="633" 
d="M98.6406 31.3799c-55.9434 98.8008 -71.9609 221.285 -77.7764 332.974c-6.08887 116.824 3.41211 233.587 18.7891 349.346c3.49414 26.2979 37.0371 33.707 59.1348 33.707c17.5166 0 61.8115 -7.85059 59.1357 -33.707
c-12.0254 -116.104 -25.666 -232.47 -26.376 -349.346c-0.610352 -101.07 5.11914 -209.97 38.3672 -306.259c10.4229 -30.1953 37.5176 -98.1943 78.041 -65.0713c36.8252 30.1084 60.6377 77.5908 79.5742 120.244c41.8652 94.2979 66.6865 195.269 89.793 295.46
c22.4619 97.3896 44.958 195.009 59.0664 294.03c0.272461 6.0625 0.475586 12.1211 0.783203 18.1797c2.33008 46.1357 116.2 45.8887 117.326 0c3.17383 -129.521 -1.31641 -259.002 -0.298828 -388.544c0.506836 -63.9678 1.14746 -127.975 3.19141 -191.907
c1.03906 -32.6504 1.75781 -65.2754 2.50684 -97.9346c0.640625 -27.9697 -1.07031 -57.2734 10.9678 -83.1514c8.52637 -18.3213 -17.334 -28.6924 -30.7148 -30.8359c-19.5039 -3.12695 -42.1035 0.80957 -54.1025 17.5078
c-17.7891 24.7568 -24.4619 53.9736 -28.6621 83.7148c-4.59863 32.5596 -8.60449 65.1367 -11.2109 97.917c-5.19629 65.3018 -8.96777 130.664 -10.7783 196.151c-1.1084 40.2891 -1.95312 80.5869 -2.46387 120.894
c-8.46191 -37.2275 -17.3301 -74.3252 -26.1641 -111.268c-25.6143 -107.106 -55.0342 -223.449 -120.895 -313.806c-26.9131 -36.9248 -63.4697 -71.5195 -112.299 -70.1689c-53.0771 1.46777 -90.2744 38.3232 -114.936 81.873z" />
    <glyph glyph-name="U" unicode="&#xda;" horiz-adv-x="633" 
d="M98.6406 31.3799c-55.9434 98.8008 -71.9609 221.285 -77.7764 332.974c-6.08887 116.824 3.41211 233.587 18.7891 349.346c3.49414 26.2979 37.0371 33.707 59.1348 33.707c17.5166 0 61.8115 -7.85059 59.1357 -33.707
c-12.0254 -116.104 -25.666 -232.47 -26.376 -349.346c-0.610352 -101.07 5.11914 -209.97 38.3672 -306.259c10.4229 -30.1953 37.5176 -98.1943 78.041 -65.0713c36.8252 30.1084 60.6377 77.5908 79.5742 120.244c41.8652 94.2979 66.6865 195.269 89.793 295.46
c22.4619 97.3896 44.958 195.009 59.0664 294.03c0.272461 6.0625 0.475586 12.1211 0.783203 18.1797c2.33008 46.1357 116.2 45.8887 117.326 0c3.17383 -129.521 -1.31641 -259.002 -0.298828 -388.544c0.506836 -63.9678 1.14746 -127.975 3.19141 -191.907
c1.03906 -32.6504 1.75781 -65.2754 2.50684 -97.9346c0.640625 -27.9697 -1.07031 -57.2734 10.9678 -83.1514c8.52637 -18.3213 -17.334 -28.6924 -30.7148 -30.8359c-19.5039 -3.12695 -42.1035 0.80957 -54.1025 17.5078
c-17.7891 24.7568 -24.4619 53.9736 -28.6621 83.7148c-4.59863 32.5596 -8.60449 65.1367 -11.2109 97.917c-5.19629 65.3018 -8.96777 130.664 -10.7783 196.151c-1.1084 40.2891 -1.95312 80.5869 -2.46387 120.894
c-8.46191 -37.2275 -17.3301 -74.3252 -26.1641 -111.268c-25.6143 -107.106 -55.0342 -223.449 -120.895 -313.806c-26.9131 -36.9248 -63.4697 -71.5195 -112.299 -70.1689c-53.0771 1.46777 -90.2744 38.3232 -114.936 81.873z" />
    <glyph glyph-name="V" unicode="V" horiz-adv-x="598" 
d="M618.511 789.669c5.9668 15.29 49.6963 11.123 42.7979 -6.72656c-52.7266 -136.565 -96 -276.452 -136.511 -417.054c-17.5938 -61.0664 -34.6982 -122.267 -51.9375 -183.433c-17.6982 -62.7852 -33.7852 -126.853 -59.373 -187.027
c-18.9629 -44.585 -49.2793 -80.7559 -101.256 -82.1201c-62.9111 -1.6543 -109.259 31.8926 -147.223 78.9854c-78.1494 96.9307 -103.764 224.9 -121.137 345.102c-18.9102 130.841 -27.4062 263.93 -32.8496 395.953c-1.11328 26.9912 42.2031 34.79 61.0312 34.79
c22.8428 0 57.4551 -7.75586 61.0322 -34.79c17.7285 -134.023 16.4463 -269.914 30.8574 -404.323c11.666 -108.761 28.9609 -219.544 78.9854 -318.012c11.1416 -21.9287 24.457 -43.8057 43.9346 -59.3945c21.7646 -17.417 43.2002 -9.44043 59.3828 11.1328
c15.8838 20.2012 24.7783 46.3652 33.5908 70.1514c9.91211 26.7529 18.3213 54.0381 26.3584 81.4062c66.5225 226.533 126.376 455.088 212.315 675.359z" />
    <glyph glyph-name="W" unicode="W" horiz-adv-x="997" 
d="M1002.93 806.531c5.60352 16.0479 51.2285 11.998 44.6201 -7.01172c-45.6631 -131.33 -69.0596 -268.429 -92.7812 -405.017c-20.4092 -117.517 -40.835 -236.622 -73.3428 -351.51c-11.9824 -42.3418 -30.6113 -86.8486 -70.7578 -109.652
c-48.1875 -27.3682 -111.887 -16.0967 -155.628 14.5879c-92.4697 64.877 -135.384 185.962 -154.987 292.25c-11.54 62.5732 -15.4326 126.004 -17.5107 189.6c-13.8223 -68.9863 -29.0391 -137.67 -47.2002 -205.674
c-14.1729 -53.0684 -29.7969 -106.007 -52.0029 -156.352c-19.417 -44.0176 -44.2383 -94.8906 -84.4668 -123.657c-36.8125 -26.3242 -85.0996 -27.2686 -124.691 -6.52637c-46.6338 24.4277 -76.7168 74.1924 -95.458 121.657
c-43.0996 109.168 -53.9082 232.687 -56.3154 349.008c-2.50684 121.094 6.6084 241.949 19.9844 362.207c5.10547 45.8975 119.283 44.6377 116.378 0.000976562c-7.94141 -122.06 -20.1611 -244.011 -21.4258 -366.412
c-1.08691 -104.751 3.15234 -212.957 25.7871 -315.577c9.08984 -41.2246 22.5186 -89.6855 52.6191 -120.934c16.8623 -17.5029 31.8623 -18.8584 51.0068 -3.22168c16.252 13.2764 28.3037 31.0264 39.1602 48.7549c53.0469 86.624 78.4619 188.824 102.422 286.543
c25.8262 105.335 45.6768 212.025 65.6133 318.6c0.302734 1.60645 0.943359 3.04395 1.85254 4.33008c-0.411133 24.9033 41.4463 32.2695 58.6807 32.2695c21.2617 0 56.1514 -7.41309 58.6631 -33.4385c12.4629 -129.2 1.45117 -259.621 19.1318 -388.475
c6.53418 -47.625 17.2002 -95.4531 33.9199 -140.588c16.001 -43.1953 38.0293 -96.3281 76.4482 -124.445c80.3018 -58.7666 125.351 146.365 137.861 190.877c30.2686 107.7 44.1211 220.574 64.1318 330.479c19.5303 107.284 42.2773 214.213 78.2881 317.327z" />
    <glyph glyph-name="X" unicode="X" horiz-adv-x="531" 
d="M475.506 791.311c13.0947 15.4639 79.0059 13.2285 66.5342 -15.9971c-32.0752 -75.1357 -75.8545 -145.564 -115.624 -216.785c-39.8564 -71.377 -78.7256 -143.339 -117.27 -215.426c-7.15332 -13.3809 -14.2207 -26.8047 -21.2881 -40.2285
c59.7715 -133.02 122.471 -265.961 215.712 -379.208c18.7461 -22.7646 -35.8164 -30.0479 -49.3662 -16.4463c-92.2314 92.5439 -148.435 214.248 -198.164 334.653c-20.7598 -40.2246 -41.2383 -80.5918 -61.4697 -121.094
c-36.7949 -73.6543 -70.5371 -150.02 -112.126 -221.098c-19.7676 -33.7812 -127.203 -31.0967 -109.479 17.2041c28.9873 78.9941 70.6367 155.013 109.762 229.391c38.4795 73.1436 78.0547 145.711 118.682 217.681c1.00488 1.7793 2.04004 3.54199 3.04883 5.32129
c-22.332 56.0869 -44.1963 112.377 -65.6445 168.779c-14.9092 39.2158 -29.4893 78.5566 -43.7617 118.011c-6.66016 18.4121 -13.2549 36.8467 -19.7852 55.3066c-3.73242 10.5439 -7.4873 21.0801 -11.0596 31.6768c-1.03906 3.08301 -1.91406 7.02832 -3.20898 10.7832
c-1.22949 0.368164 -2.36426 0.827148 -3.33887 1.39844c-7.35742 4.34375 -12.1211 9.25879 -10.9824 18.1963c1.6416 12.8789 22.9297 14.4248 32.2314 10.5449c32.0527 -13.3682 38.249 -59.8633 49.1787 -89.3438c14.624 -39.4365 29.5459 -78.7607 44.7891 -117.959
c20.0586 -51.5781 40.8271 -102.823 62.3838 -153.748c30.3125 52.0723 61.4561 103.643 93.2021 154.879c45.373 73.2305 91.2568 147.635 147.045 213.508z" />
    <glyph glyph-name="Y" unicode="Y" horiz-adv-x="525" 
d="M469.077 -5.2373c-11.9385 -46.6035 -30.1885 -99.6885 -70.2012 -129.629c-36.5137 -27.3203 -87.4082 -33.8545 -130.46 -19.8936c-97.9258 31.75 -110.154 146.616 -77.7285 230.175c35.8682 92.4219 108.229 169.922 192.307 220.734
c1.07422 0.649414 2.32617 1.15137 3.68164 1.5498c-3.01367 65.4316 -6.4082 130.863 -8.99805 196.312c-0.662109 -3.14844 -1.31152 -6.30566 -2.00879 -9.44922c-16.0527 -72.5898 -40.043 -148.215 -87.291 -207.008
c-46.9062 -58.3643 -133.457 -79.0068 -193.527 -27.666c-59.1348 50.5391 -74.8535 145.014 -82.7129 217.824c-9.37988 86.8799 -1.82812 174.518 12.8174 260.345c4.31738 25.2891 34.9023 32.4902 57.0039 32.4902c16.1777 0 60.5293 -7.74707 57.0049 -32.4902
c-11.917 -83.6191 -22.3877 -167.744 -20.9023 -252.367c0.649414 -37.0283 4.44238 -73.8965 10.0244 -110.492c4.46875 -29.3037 9.3877 -61.7637 24.583 -87.7676c44.0439 -75.374 113.243 38.5098 132.028 77.6299c57.0869 118.885 63.626 253.329 89.5947 380.923
c0.168945 8.01953 0.302734 16.0391 0.541016 24.0635c1.3291 44.2998 109.852 44.0312 112.588 0c8.54395 -137.389 5.31738 -275.608 4.93164 -413.188c-0.320312 -116.378 5.82031 -238.52 -23.2754 -352.096zM386.5 -14.5938
c7.70801 47.2139 7.26465 95.1748 6.26465 142.856c-0.935547 44.5332 -2.58105 89.0625 -4.49902 133.596c-73.5811 -52.0244 -135.882 -128.135 -160.772 -214.815c-11.96 -41.6533 -12.0986 -87.5244 7.99023 -126.727
c16.2002 -31.6113 63.3145 -73.9014 100.768 -48.2871c33.6162 22.9941 44.1826 76.2012 50.249 113.377z" />
    <glyph glyph-name="Y" unicode="&#x178;" horiz-adv-x="525" 
d="M469.077 -5.2373c-11.9385 -46.6035 -30.1885 -99.6885 -70.2012 -129.629c-36.5137 -27.3203 -87.4082 -33.8545 -130.46 -19.8936c-97.9258 31.75 -110.154 146.616 -77.7285 230.175c35.8682 92.4219 108.229 169.922 192.307 220.734
c1.07422 0.649414 2.32617 1.15137 3.68164 1.5498c-3.01367 65.4316 -6.4082 130.863 -8.99805 196.312c-0.662109 -3.14844 -1.31152 -6.30566 -2.00879 -9.44922c-16.0527 -72.5898 -40.043 -148.215 -87.291 -207.008
c-46.9062 -58.3643 -133.457 -79.0068 -193.527 -27.666c-59.1348 50.5391 -74.8535 145.014 -82.7129 217.824c-9.37988 86.8799 -1.82812 174.518 12.8174 260.345c4.31738 25.2891 34.9023 32.4902 57.0039 32.4902c16.1777 0 60.5293 -7.74707 57.0049 -32.4902
c-11.917 -83.6191 -22.3877 -167.744 -20.9023 -252.367c0.649414 -37.0283 4.44238 -73.8965 10.0244 -110.492c4.46875 -29.3037 9.3877 -61.7637 24.583 -87.7676c44.0439 -75.374 113.243 38.5098 132.028 77.6299c57.0869 118.885 63.626 253.329 89.5947 380.923
c0.168945 8.01953 0.302734 16.0391 0.541016 24.0635c1.3291 44.2998 109.852 44.0312 112.588 0c8.54395 -137.389 5.31738 -275.608 4.93164 -413.188c-0.320312 -116.378 5.82031 -238.52 -23.2754 -352.096zM386.5 -14.5938
c7.70801 47.2139 7.26465 95.1748 6.26465 142.856c-0.935547 44.5332 -2.58105 89.0625 -4.49902 133.596c-73.5811 -52.0244 -135.882 -128.135 -160.772 -214.815c-11.96 -41.6533 -12.0986 -87.5244 7.99023 -126.727
c16.2002 -31.6113 63.3145 -73.9014 100.768 -48.2871c33.6162 22.9941 44.1826 76.2012 50.249 113.377z" />
    <glyph glyph-name="Y" unicode="&#xdd;" horiz-adv-x="525" 
d="M469.077 -5.2373c-11.9385 -46.6035 -30.1885 -99.6885 -70.2012 -129.629c-36.5137 -27.3203 -87.4082 -33.8545 -130.46 -19.8936c-97.9258 31.75 -110.154 146.616 -77.7285 230.175c35.8682 92.4219 108.229 169.922 192.307 220.734
c1.07422 0.649414 2.32617 1.15137 3.68164 1.5498c-3.01367 65.4316 -6.4082 130.863 -8.99805 196.312c-0.662109 -3.14844 -1.31152 -6.30566 -2.00879 -9.44922c-16.0527 -72.5898 -40.043 -148.215 -87.291 -207.008
c-46.9062 -58.3643 -133.457 -79.0068 -193.527 -27.666c-59.1348 50.5391 -74.8535 145.014 -82.7129 217.824c-9.37988 86.8799 -1.82812 174.518 12.8174 260.345c4.31738 25.2891 34.9023 32.4902 57.0039 32.4902c16.1777 0 60.5293 -7.74707 57.0049 -32.4902
c-11.917 -83.6191 -22.3877 -167.744 -20.9023 -252.367c0.649414 -37.0283 4.44238 -73.8965 10.0244 -110.492c4.46875 -29.3037 9.3877 -61.7637 24.583 -87.7676c44.0439 -75.374 113.243 38.5098 132.028 77.6299c57.0869 118.885 63.626 253.329 89.5947 380.923
c0.168945 8.01953 0.302734 16.0391 0.541016 24.0635c1.3291 44.2998 109.852 44.0312 112.588 0c8.54395 -137.389 5.31738 -275.608 4.93164 -413.188c-0.320312 -116.378 5.82031 -238.52 -23.2754 -352.096zM386.5 -14.5938
c7.70801 47.2139 7.26465 95.1748 6.26465 142.856c-0.935547 44.5332 -2.58105 89.0625 -4.49902 133.596c-73.5811 -52.0244 -135.882 -128.135 -160.772 -214.815c-11.96 -41.6533 -12.0986 -87.5244 7.99023 -126.727
c16.2002 -31.6113 63.3145 -73.9014 100.768 -48.2871c33.6162 22.9941 44.1826 76.2012 50.249 113.377z" />
    <glyph glyph-name="Z" unicode="Z" horiz-adv-x="491" 
d="M168.905 86.4834c-16.9443 -24.7695 -32.0449 -50.6992 -46.0449 -77.2266c-10.4443 -19.7939 -34.5684 -55.9395 -20.9102 -78.418c13.415 -22.0762 51.5605 -15.4287 72.5146 -12.9473c31.9453 3.78516 63.5088 10.1855 94.7217 17.8594
c60.5859 14.9004 120.825 31.6758 183.126 37.6729c7.67773 0.740234 25.5625 0.706055 28.7578 -9.30566c3.11328 -9.75586 -8.06348 -15.4717 -16.3301 -16.3945c-70.8965 -7.91992 -139.472 -28.7139 -208.502 -45.8447
c-32.2744 -8.01074 -64.6562 -14.5283 -97.5752 -19.3047c-34.5605 -5.01465 -69.7275 -8.18848 -102.976 5.09668c-134.781 53.8604 -6.54688 220.895 46.2314 289.258c70.6191 91.4697 149.669 176.128 216.802 270.317c34.9111 48.9766 69.7656 102.356 87.7539 160.136
c14.6104 46.9238 14.3291 117.136 -36.2402 142.797c-48.5166 24.6221 -115.425 15.0352 -165.886 1.60645c-57.5459 -15.3164 -110.549 -43.3506 -155.827 -81.9688c-8.0459 -6.85938 -21.249 -8.23633 -31.0137 -4.63379
c-6.75977 2.49023 -16.3164 10.6748 -8.13184 17.6768c92.0586 78.7988 229.889 128.589 351.294 101.005c50.1885 -11.4062 93.8037 -44.7373 114.13 -92.6309c23.4229 -55.1992 12.5234 -113.715 -7.70312 -167.987c-41.1992 -110.545 -120.007 -205.631 -192.86 -296.672
c-36.5439 -45.668 -72.2949 -91.7949 -105.331 -140.091z" />
    <glyph glyph-name="bracketleft" unicode="[" horiz-adv-x="363" 
d="M305.123 -185.146c13.7793 -13.957 7.85742 -34.2549 -9.58105 -42.3223c-54.0771 -25.0166 -130.326 -38.6143 -179.333 5.59863c-35.4658 31.9971 -39.2334 95.8994 -43.499 140.411c-18.7412 195.523 -22.1924 393.272 -22.7031 589.566
c-0.263672 99.624 6.67773 198.944 23.2764 297.208c6.96777 41.2295 9.41016 95.9219 51.9258 116.24c31.7676 15.1826 83.9092 13.541 109.493 -13.29c9.41016 -9.87305 -4.88867 -18.7979 -13.9736 -19.5732c-8.95117 -0.766602 -32.3008 0.545898 -36.4453 -2.97852
c-8.56934 -7.30078 -10.4141 -38.5527 -12.1289 -51.9814c-5.79785 -45.3818 -3.93164 -91.9111 -2.48926 -137.535c5.1709 -163.639 12.9219 -327.208 21.1152 -490.726c4.05762 -80.8604 9.13672 -161.678 15.9697 -242.352
c3.2002 -37.7344 5.31348 -76.543 14.2988 -113.455c1.41992 -5.83301 5.71973 -13.6406 7.29199 -20.1582c2.5332 0.450195 5.0625 0.887695 7.5918 1.39453c21.5479 4.31738 52.96 0.394531 69.1904 -16.0479zM211.581 -173.062
c-3.33398 -0.172852 -5.87988 -1.51074 2.39941 -0.137695c-0.0566406 0.0126953 -0.117188 0.0166016 -0.173828 0.0253906c-2.22168 -0.211914 -6.20996 -0.450195 -2.22559 0.112305z" />
    <glyph glyph-name="backslash" unicode="\" horiz-adv-x="702" 
d="M649.817 -140.046c12.2549 -26.082 -24.7959 -40.9121 -43.7754 -43.9561c-26.9307 -4.31348 -61.1494 0.658203 -77.1152 24.9561c-44.9795 68.4453 -82.584 142.117 -121.882 213.923c-67.5918 123.492 -134.335 248.231 -191.785 376.838
c-27.4932 61.5469 -52.8125 124.017 -79.9375 185.715c-25.0078 56.8789 -58.3125 109.471 -83.9268 165.864c-6.45215 14.1992 11.042 22.5049 21.7598 25.2764c15.793 4.08789 34.1104 1.70215 46.9365 -8.76465c58.7324 -47.915 96.4971 -120.153 131.083 -186.174
c65.0674 -124.207 124.679 -251.116 191.466 -374.5c34.3652 -63.4961 68.8086 -126.944 103.928 -190.028c34.8682 -62.6387 72.75 -124.229 103.249 -189.149z" />
    <glyph glyph-name="bracketright" unicode="]" horiz-adv-x="364" 
d="M295.194 768.575c27.9521 -195.472 18.79 -396.2 10.4199 -592.893c-4.12207 -96.9473 -5.33008 -196.463 -20.0312 -292.497c-6.8291 -44.6152 -14.4287 -93.6738 -57.29 -117.499c-50.708 -28.1904 -111.51 -16.1387 -161.196 6.84277
c-17.3125 8.01074 -23.1973 28.502 -9.57812 42.3203c16.165 16.4033 47.9326 20.3096 69.1904 16.0488c2.47656 -0.494141 4.94922 -0.931641 7.41797 -1.36426c2.68945 10.6221 9.39258 28.8574 10.3838 34.1836c8.16309 43.875 10.6533 88.9492 14.1562 133.379
c12.835 162.881 19.6895 326.395 26.4277 489.631c3.35645 81.1719 7.42285 162.388 8.69141 243.625c0.624023 39.9824 0.835938 79.9346 -5.63379 119.505c-1.6543 10.1074 -3.99219 19.6387 -7.04102 29.3477c-2.17383 6.91113 -1.62402 6.8291 -6.56055 7.85938
c-9.98535 2.08301 -22.3359 0.753906 -32.6377 1.63281c-9.08496 0.775391 -23.3877 9.69629 -13.9688 19.5742c29.2295 30.6592 94.3447 30.3213 125.735 3.25195c19.0322 -16.4121 23.2021 -42.251 28.3115 -65.6777c5.55176 -25.4844 9.51367 -51.4619 13.2031 -77.2705z
" />
    <glyph glyph-name="asciicircum" unicode="^" horiz-adv-x="329" 
d="M276.438 615.875c19.6514 -42.5889 -90.8418 -55.1553 -107.202 -16.8408c-6.4873 15.1953 -11.2246 30.8711 -15.8105 46.6465c-11.0029 -19.9893 -22.1621 -41.1777 -42.5801 -51.8779c-13.0254 -6.8291 -41.1816 -9.75195 -51.9639 3.81543
c-20.9023 26.2939 -0.117188 66.8262 13.3721 93.4316c16.2695 32.0879 32.4951 64.4053 70.4893 72.8105c22.9121 5.06641 48.4395 2.70215 68.2637 -10.4619c14.8535 -9.86426 23.8994 -27.043 31.0703 -43.0137c13.7705 -30.6543 20.2578 -63.9463 34.3613 -94.5098z" />
    <glyph glyph-name="underscore" unicode="_" horiz-adv-x="420" 
d="M334.21 -44.0596c11.3936 -0.229492 35.9307 -4.43164 35.9307 -20.4795c0 -15.6973 -24.0723 -20.7812 -35.9287 -20.4785c-43.8926 1.12598 -87.8154 1.06934 -131.717 0.666992c-43.6885 -0.402344 -87.9229 1.55469 -131.495 -0.978516
c-21.8203 -1.26855 -30.9961 22.3623 -5.96289 25.1123c44.5762 4.90234 88.2861 12.0996 133.209 14.499c45.3125 2.4209 90.6035 2.56348 135.964 1.6582z" />
    <glyph glyph-name="grave" unicode="`" horiz-adv-x="203" 
d="M145.118 629.528c8.84277 -6.14062 12.5498 -14.9746 -1.47656 -23.4707c-30.0088 -18.1787 -69.3633 -4.04883 -79.8604 28.6104c-10.7041 33.3223 -17.8711 73.5469 -11.1982 108.012c6.0625 31.3213 74.0576 31.4688 79.9082 0
c3.87988 -20.8721 4.1748 -41.835 6.03223 -62.9844c1.25586 -14.3379 0.930664 -35.7256 6.59473 -50.167z" />
    <glyph glyph-name="a" unicode="a" horiz-adv-x="452" 
d="M426.235 81.4863c0.59375 -27.9434 9.09766 -78.0713 -22.5186 -91.4092c-38.2891 -16.1523 -66.3496 13.9219 -74.8672 48.0273c-9.20215 36.8379 -11.6709 74.9922 -14.3516 112.787c-1.68848 23.8213 -2.84473 47.707 -3.875 71.5928
c-15.0605 -52.7607 -30.3809 -105.418 -51.2793 -156.001c-13.6533 -33.0449 -32.3174 -71.4072 -64.6475 -89.8848c-32.5078 -18.5811 -74.7158 -12.6611 -104.353 8.49707c-68.7354 49.0674 -85.6104 150.67 -73.9404 229.058
c12.2764 82.458 58.2949 171.273 143.308 197.018c54.5146 16.5117 108.852 8.96387 152.276 -18.4902c0.220703 1.35547 0.368164 2.71094 0.606445 4.06152c7.01562 40.1162 94.4844 39.8086 101.694 0c12.5361 -69.2373 8.58301 -141.835 10.6748 -211.947
c1.02637 -34.4434 0.541016 -68.8652 1.27246 -103.309zM246.184 165.365c16.6592 53.835 31.8135 108.132 49.7061 161.556c-16.6328 18.9795 -34.7119 38.6133 -57.9922 44.6104c-28.8838 7.44434 -52.7744 -12.2324 -67.2637 -35.4082
c-32.6807 -52.2803 -46.8145 -120.717 -50.6123 -181.385c-1.99219 -31.876 -0.316406 -65.501 8.05859 -96.4502c3.73242 -13.8096 7.53418 -28.0869 12.3799 -41.5498c2.26074 -6.2832 5.00195 -11.999 8.51367 -17.6807c4.01855 -6.50391 3.55957 -5.45605 8.5 -5.03125
c14.5195 1.24707 29.2988 26.4844 35.6641 36.9033c7.65625 12.5361 14.1387 25.7305 19.915 39.2285c13.2119 30.8662 23.2148 63.1621 33.1309 95.207z" />
    <glyph glyph-name="a" unicode="&#xe5;" horiz-adv-x="452" 
d="M426.235 81.4863c0.59375 -27.9434 9.09766 -78.0713 -22.5186 -91.4092c-38.2891 -16.1523 -66.3496 13.9219 -74.8672 48.0273c-9.20215 36.8379 -11.6709 74.9922 -14.3516 112.787c-1.68848 23.8213 -2.84473 47.707 -3.875 71.5928
c-15.0605 -52.7607 -30.3809 -105.418 -51.2793 -156.001c-13.6533 -33.0449 -32.3174 -71.4072 -64.6475 -89.8848c-32.5078 -18.5811 -74.7158 -12.6611 -104.353 8.49707c-68.7354 49.0674 -85.6104 150.67 -73.9404 229.058
c12.2764 82.458 58.2949 171.273 143.308 197.018c54.5146 16.5117 108.852 8.96387 152.276 -18.4902c0.220703 1.35547 0.368164 2.71094 0.606445 4.06152c7.01562 40.1162 94.4844 39.8086 101.694 0c12.5361 -69.2373 8.58301 -141.835 10.6748 -211.947
c1.02637 -34.4434 0.541016 -68.8652 1.27246 -103.309zM246.184 165.365c16.6592 53.835 31.8135 108.132 49.7061 161.556c-16.6328 18.9795 -34.7119 38.6133 -57.9922 44.6104c-28.8838 7.44434 -52.7744 -12.2324 -67.2637 -35.4082
c-32.6807 -52.2803 -46.8145 -120.717 -50.6123 -181.385c-1.99219 -31.876 -0.316406 -65.501 8.05859 -96.4502c3.73242 -13.8096 7.53418 -28.0869 12.3799 -41.5498c2.26074 -6.2832 5.00195 -11.999 8.51367 -17.6807c4.01855 -6.50391 3.55957 -5.45605 8.5 -5.03125
c14.5195 1.24707 29.2988 26.4844 35.6641 36.9033c7.65625 12.5361 14.1387 25.7305 19.915 39.2285c13.2119 30.8662 23.2148 63.1621 33.1309 95.207z" />
    <glyph glyph-name="a" unicode="&#xe4;" horiz-adv-x="452" 
d="M426.235 81.4863c0.59375 -27.9434 9.09766 -78.0713 -22.5186 -91.4092c-38.2891 -16.1523 -66.3496 13.9219 -74.8672 48.0273c-9.20215 36.8379 -11.6709 74.9922 -14.3516 112.787c-1.68848 23.8213 -2.84473 47.707 -3.875 71.5928
c-15.0605 -52.7607 -30.3809 -105.418 -51.2793 -156.001c-13.6533 -33.0449 -32.3174 -71.4072 -64.6475 -89.8848c-32.5078 -18.5811 -74.7158 -12.6611 -104.353 8.49707c-68.7354 49.0674 -85.6104 150.67 -73.9404 229.058
c12.2764 82.458 58.2949 171.273 143.308 197.018c54.5146 16.5117 108.852 8.96387 152.276 -18.4902c0.220703 1.35547 0.368164 2.71094 0.606445 4.06152c7.01562 40.1162 94.4844 39.8086 101.694 0c12.5361 -69.2373 8.58301 -141.835 10.6748 -211.947
c1.02637 -34.4434 0.541016 -68.8652 1.27246 -103.309zM246.184 165.365c16.6592 53.835 31.8135 108.132 49.7061 161.556c-16.6328 18.9795 -34.7119 38.6133 -57.9922 44.6104c-28.8838 7.44434 -52.7744 -12.2324 -67.2637 -35.4082
c-32.6807 -52.2803 -46.8145 -120.717 -50.6123 -181.385c-1.99219 -31.876 -0.316406 -65.501 8.05859 -96.4502c3.73242 -13.8096 7.53418 -28.0869 12.3799 -41.5498c2.26074 -6.2832 5.00195 -11.999 8.51367 -17.6807c4.01855 -6.50391 3.55957 -5.45605 8.5 -5.03125
c14.5195 1.24707 29.2988 26.4844 35.6641 36.9033c7.65625 12.5361 14.1387 25.7305 19.915 39.2285c13.2119 30.8662 23.2148 63.1621 33.1309 95.207z" />
    <glyph glyph-name="a" unicode="&#xe3;" horiz-adv-x="452" 
d="M426.235 81.4863c0.59375 -27.9434 9.09766 -78.0713 -22.5186 -91.4092c-38.2891 -16.1523 -66.3496 13.9219 -74.8672 48.0273c-9.20215 36.8379 -11.6709 74.9922 -14.3516 112.787c-1.68848 23.8213 -2.84473 47.707 -3.875 71.5928
c-15.0605 -52.7607 -30.3809 -105.418 -51.2793 -156.001c-13.6533 -33.0449 -32.3174 -71.4072 -64.6475 -89.8848c-32.5078 -18.5811 -74.7158 -12.6611 -104.353 8.49707c-68.7354 49.0674 -85.6104 150.67 -73.9404 229.058
c12.2764 82.458 58.2949 171.273 143.308 197.018c54.5146 16.5117 108.852 8.96387 152.276 -18.4902c0.220703 1.35547 0.368164 2.71094 0.606445 4.06152c7.01562 40.1162 94.4844 39.8086 101.694 0c12.5361 -69.2373 8.58301 -141.835 10.6748 -211.947
c1.02637 -34.4434 0.541016 -68.8652 1.27246 -103.309zM246.184 165.365c16.6592 53.835 31.8135 108.132 49.7061 161.556c-16.6328 18.9795 -34.7119 38.6133 -57.9922 44.6104c-28.8838 7.44434 -52.7744 -12.2324 -67.2637 -35.4082
c-32.6807 -52.2803 -46.8145 -120.717 -50.6123 -181.385c-1.99219 -31.876 -0.316406 -65.501 8.05859 -96.4502c3.73242 -13.8096 7.53418 -28.0869 12.3799 -41.5498c2.26074 -6.2832 5.00195 -11.999 8.51367 -17.6807c4.01855 -6.50391 3.55957 -5.45605 8.5 -5.03125
c14.5195 1.24707 29.2988 26.4844 35.6641 36.9033c7.65625 12.5361 14.1387 25.7305 19.915 39.2285c13.2119 30.8662 23.2148 63.1621 33.1309 95.207z" />
    <glyph glyph-name="a" unicode="&#xe2;" horiz-adv-x="452" 
d="M426.235 81.4863c0.59375 -27.9434 9.09766 -78.0713 -22.5186 -91.4092c-38.2891 -16.1523 -66.3496 13.9219 -74.8672 48.0273c-9.20215 36.8379 -11.6709 74.9922 -14.3516 112.787c-1.68848 23.8213 -2.84473 47.707 -3.875 71.5928
c-15.0605 -52.7607 -30.3809 -105.418 -51.2793 -156.001c-13.6533 -33.0449 -32.3174 -71.4072 -64.6475 -89.8848c-32.5078 -18.5811 -74.7158 -12.6611 -104.353 8.49707c-68.7354 49.0674 -85.6104 150.67 -73.9404 229.058
c12.2764 82.458 58.2949 171.273 143.308 197.018c54.5146 16.5117 108.852 8.96387 152.276 -18.4902c0.220703 1.35547 0.368164 2.71094 0.606445 4.06152c7.01562 40.1162 94.4844 39.8086 101.694 0c12.5361 -69.2373 8.58301 -141.835 10.6748 -211.947
c1.02637 -34.4434 0.541016 -68.8652 1.27246 -103.309zM246.184 165.365c16.6592 53.835 31.8135 108.132 49.7061 161.556c-16.6328 18.9795 -34.7119 38.6133 -57.9922 44.6104c-28.8838 7.44434 -52.7744 -12.2324 -67.2637 -35.4082
c-32.6807 -52.2803 -46.8145 -120.717 -50.6123 -181.385c-1.99219 -31.876 -0.316406 -65.501 8.05859 -96.4502c3.73242 -13.8096 7.53418 -28.0869 12.3799 -41.5498c2.26074 -6.2832 5.00195 -11.999 8.51367 -17.6807c4.01855 -6.50391 3.55957 -5.45605 8.5 -5.03125
c14.5195 1.24707 29.2988 26.4844 35.6641 36.9033c7.65625 12.5361 14.1387 25.7305 19.915 39.2285c13.2119 30.8662 23.2148 63.1621 33.1309 95.207z" />
    <glyph glyph-name="a" unicode="&#xe1;" horiz-adv-x="452" 
d="M426.235 81.4863c0.59375 -27.9434 9.09766 -78.0713 -22.5186 -91.4092c-38.2891 -16.1523 -66.3496 13.9219 -74.8672 48.0273c-9.20215 36.8379 -11.6709 74.9922 -14.3516 112.787c-1.68848 23.8213 -2.84473 47.707 -3.875 71.5928
c-15.0605 -52.7607 -30.3809 -105.418 -51.2793 -156.001c-13.6533 -33.0449 -32.3174 -71.4072 -64.6475 -89.8848c-32.5078 -18.5811 -74.7158 -12.6611 -104.353 8.49707c-68.7354 49.0674 -85.6104 150.67 -73.9404 229.058
c12.2764 82.458 58.2949 171.273 143.308 197.018c54.5146 16.5117 108.852 8.96387 152.276 -18.4902c0.220703 1.35547 0.368164 2.71094 0.606445 4.06152c7.01562 40.1162 94.4844 39.8086 101.694 0c12.5361 -69.2373 8.58301 -141.835 10.6748 -211.947
c1.02637 -34.4434 0.541016 -68.8652 1.27246 -103.309zM246.184 165.365c16.6592 53.835 31.8135 108.132 49.7061 161.556c-16.6328 18.9795 -34.7119 38.6133 -57.9922 44.6104c-28.8838 7.44434 -52.7744 -12.2324 -67.2637 -35.4082
c-32.6807 -52.2803 -46.8145 -120.717 -50.6123 -181.385c-1.99219 -31.876 -0.316406 -65.501 8.05859 -96.4502c3.73242 -13.8096 7.53418 -28.0869 12.3799 -41.5498c2.26074 -6.2832 5.00195 -11.999 8.51367 -17.6807c4.01855 -6.50391 3.55957 -5.45605 8.5 -5.03125
c14.5195 1.24707 29.2988 26.4844 35.6641 36.9033c7.65625 12.5361 14.1387 25.7305 19.915 39.2285c13.2119 30.8662 23.2148 63.1621 33.1309 95.207z" />
    <glyph glyph-name="b" unicode="b" horiz-adv-x="479" 
d="M451.012 280.466c32.0449 -94.4102 7.0293 -203.934 -53.8857 -280.888c-31.1611 -39.3584 -75.2568 -69.6406 -126.952 -70.8184c-43.3125 -0.991211 -88.8066 19.5127 -93.999 66.709c-4.97949 45.2646 30.1484 89.3652 57.9277 121.562
c33.915 39.3066 74.6934 71.8838 115.459 103.721c2.61523 2.04395 5.625 3.58105 8.80371 4.71973c-0.286133 21.6045 -2.36035 43.3037 -6.22754 64.9385c-2.96191 16.5635 -9.28027 34.8809 -20.0586 48.0664c-12.9951 15.8965 -26.6396 14.6104 -43.6494 5.41309
c-32.3955 -17.5117 -56.126 -50.5957 -73.5986 -82.1123c-34.3096 -61.8848 -55.6367 -132.305 -69.3115 -202.045c0.411133 -24.0986 -0.108398 -46.9629 -7.84668 -70.9785c-6.48242 -20.1143 -51.4961 -17.8672 -62.6377 -4.66797
c-12.3115 14.585 -20.8945 26.9434 -26.4199 45.291c-4.60742 15.29 -6.95898 31.3428 -9.48828 47.0967c-5.26562 32.7803 -7.14453 66.3926 -9.63867 99.4893c-5.11426 67.8047 -6.16211 136.168 -6.99805 204.137c-1.69336 137.821 -0.108398 276.201 22.8428 412.36
c6.2793 37.2578 97.2422 39.2236 97.9043 -0.000976562c2.30371 -136.085 -5.8457 -271.983 -5.49023 -408.104c0.151367 -58.4424 2.0957 -116.78 3.82324 -175.166c18.5254 47.7031 42.7061 95.4971 80.8301 130.521c34.2012 31.417 83.5537 50.501 129.85 38.3721
c45.8672 -12.0166 83.7617 -53.415 98.7617 -97.6152zM328.165 75.6094c14.9219 33.6123 24.1104 68.6299 28.0381 104.265c-23.0723 -18.9023 -45.5078 -38.5791 -66.0205 -60.2568c-26.1982 -27.6924 -65.1064 -69.3545 -63.2832 -110.523
c0.62793 -14.2334 9.04199 -32.6328 25.8955 -32.0176c7.5957 0.277344 15.0312 6.9375 20.4746 12.043c24.7305 23.1934 41.3066 55.8877 54.8955 86.4902z" />
    <glyph glyph-name="c" unicode="c" horiz-adv-x="344" 
d="M297.282 172.445c3.45996 13.6357 44.5303 10.7773 41.2607 -3.17969c-16.3857 -70.0566 -47.3564 -161.574 -116.403 -196.685c-60.0137 -30.5156 -138.488 -13.9912 -177.678 41.4756c-42.1387 59.6416 -34.8027 147.794 -19.0488 215.174
c16.4121 70.1865 60.8848 144.383 130.811 170.932c31.1182 11.8135 69.3203 15.5117 97.4463 -5.50781c27.2119 -20.335 32.1143 -55.0205 34.4961 -86.5928c1.33789 -17.7588 -44.2256 -18.2051 -46.2822 0c-1.9834 17.5635 -3.59863 36.5518 -12.8701 52.0977
c-10.2109 17.127 -14.8613 20.6436 -26.1162 6.72559c-17.0273 -21.0537 -29.0439 -50.0449 -38.8135 -75.04c-23.332 -59.6982 -36.3965 -123.116 -37.6348 -187.287c-0.592773 -30.7754 -0.891602 -61.625 11.6494 -90.3398
c4.39551 -10.0547 10.0557 -21.2139 20.3096 -26.4404c13.6582 -6.96289 31.0918 2.45605 42.8828 10.1641c54.1553 35.4092 80.9258 115.113 95.9912 174.504z" />
    <glyph glyph-name="d" unicode="d" horiz-adv-x="438" 
d="M450.219 -46.7344c21.3613 3.81543 39.3799 -17.4023 11.415 -23.6162c-73.4336 -16.3125 -113.441 69.541 -130.282 125.649c-14.8789 49.5693 -21.8115 100.832 -24.9766 152.385c-13.7354 -47.79 -28.0908 -95.3457 -47.0312 -141.195
c-13.6533 -33.0449 -32.3174 -71.4072 -64.6475 -89.8848c-32.5078 -18.5811 -74.7158 -12.6611 -104.353 8.49707c-68.7354 49.0674 -85.6104 150.67 -73.9404 229.058c12.2764 82.458 58.2949 171.273 143.308 197.018c51.4404 15.5801 102.716 9.72949 144.819 -14.04
c0.679688 44.6152 1.73633 89.2217 2.72754 133.833c1.89648 85.3555 1.64941 171.104 8.41309 256.243c3.18262 40.0596 101.087 40.0723 102.17 -0.000976562c1.99609 -73.9971 -1.75391 -148.115 -3.99316 -222.077c-2.23047 -73.75 -4.33887 -147.487 -7.56934 -221.198
c-1.78809 -40.9131 -15.3809 -401.262 43.9404 -390.67zM246.19 165.366c16.6592 53.835 31.8125 108.133 49.7012 161.557c-16.6328 18.9795 -34.7119 38.6133 -57.9922 44.6104c-28.8789 7.44336 -52.7695 -12.2334 -67.2588 -35.4092
c-32.6807 -52.2803 -46.8145 -120.717 -50.6123 -181.385c-1.99219 -31.876 -0.316406 -65.501 8.05859 -96.4502c3.73242 -13.8096 7.53418 -28.0869 12.3799 -41.5498c2.26074 -6.2832 5.00195 -11.999 8.51367 -17.6807c4.01855 -6.50391 3.55957 -5.45605 8.5 -5.03125
c14.5195 1.24707 29.2988 26.4844 35.6641 36.9033c7.65625 12.5361 14.1387 25.7305 19.915 39.2285c13.2119 30.8662 23.2148 63.1621 33.1309 95.207z" />
    <glyph glyph-name="e" unicode="e" horiz-adv-x="359" 
d="M312.774 158.237c4.70312 15.2646 47.8506 11.835 42.3467 -6.65527c-26.0205 -87.3857 -81.8037 -188.326 -182.017 -198.628c-42.3594 -4.35645 -83.2725 13.2979 -114.101 41.7227c-33.8896 31.248 -45.2832 77.0244 -45.959 121.778
c-1.35059 89.5342 26.7188 191.626 98.3467 250.943c36.3965 30.1387 83.7744 48.7422 130.889 32.8369c32.9453 -11.1201 57.7666 -42.9268 50.6045 -78.4873c-13.2383 -65.7256 -91.583 -99.2383 -158.266 -100.818c-3.86719 -16.126 -7.03223 -32.3955 -9.63477 -48.5176
c-6.44824 -39.9258 -9.28027 -83.29 -0.273438 -123.021c5.6123 -24.7568 16.3086 -60.9238 45.3086 -67.1641c37.1885 -8.00293 74.4121 41.9561 91.9287 68.042c22.3447 33.2744 39.043 69.7139 50.8262 107.968zM156.177 287.749
c-5.75977 -13.4844 -10.6553 -27.4404 -14.8691 -41.6523c31.832 2.52051 66.1113 19.1016 86.6113 39.4629c15.3506 15.251 25.2666 36.5 17.5068 58.0264c-2.81934 7.82031 -8.11133 15.8311 -14.8926 20.7588c-10.0723 7.31348 -7.23633 4.70215 -14.9053 0.696289
c-28.377 -14.8223 -47.3135 -48.8848 -59.4512 -77.292z" />
    <glyph glyph-name="e" unicode="&#xeb;" horiz-adv-x="359" 
d="M312.774 158.237c4.70312 15.2646 47.8506 11.835 42.3467 -6.65527c-26.0205 -87.3857 -81.8037 -188.326 -182.017 -198.628c-42.3594 -4.35645 -83.2725 13.2979 -114.101 41.7227c-33.8896 31.248 -45.2832 77.0244 -45.959 121.778
c-1.35059 89.5342 26.7188 191.626 98.3467 250.943c36.3965 30.1387 83.7744 48.7422 130.889 32.8369c32.9453 -11.1201 57.7666 -42.9268 50.6045 -78.4873c-13.2383 -65.7256 -91.583 -99.2383 -158.266 -100.818c-3.86719 -16.126 -7.03223 -32.3955 -9.63477 -48.5176
c-6.44824 -39.9258 -9.28027 -83.29 -0.273438 -123.021c5.6123 -24.7568 16.3086 -60.9238 45.3086 -67.1641c37.1885 -8.00293 74.4121 41.9561 91.9287 68.042c22.3447 33.2744 39.043 69.7139 50.8262 107.968zM156.177 287.749
c-5.75977 -13.4844 -10.6553 -27.4404 -14.8691 -41.6523c31.832 2.52051 66.1113 19.1016 86.6113 39.4629c15.3506 15.251 25.2666 36.5 17.5068 58.0264c-2.81934 7.82031 -8.11133 15.8311 -14.8926 20.7588c-10.0723 7.31348 -7.23633 4.70215 -14.9053 0.696289
c-28.377 -14.8223 -47.3135 -48.8848 -59.4512 -77.292z" />
    <glyph glyph-name="e" unicode="&#xea;" horiz-adv-x="359" 
d="M312.774 158.237c4.70312 15.2646 47.8506 11.835 42.3467 -6.65527c-26.0205 -87.3857 -81.8037 -188.326 -182.017 -198.628c-42.3594 -4.35645 -83.2725 13.2979 -114.101 41.7227c-33.8896 31.248 -45.2832 77.0244 -45.959 121.778
c-1.35059 89.5342 26.7188 191.626 98.3467 250.943c36.3965 30.1387 83.7744 48.7422 130.889 32.8369c32.9453 -11.1201 57.7666 -42.9268 50.6045 -78.4873c-13.2383 -65.7256 -91.583 -99.2383 -158.266 -100.818c-3.86719 -16.126 -7.03223 -32.3955 -9.63477 -48.5176
c-6.44824 -39.9258 -9.28027 -83.29 -0.273438 -123.021c5.6123 -24.7568 16.3086 -60.9238 45.3086 -67.1641c37.1885 -8.00293 74.4121 41.9561 91.9287 68.042c22.3447 33.2744 39.043 69.7139 50.8262 107.968zM156.177 287.749
c-5.75977 -13.4844 -10.6553 -27.4404 -14.8691 -41.6523c31.832 2.52051 66.1113 19.1016 86.6113 39.4629c15.3506 15.251 25.2666 36.5 17.5068 58.0264c-2.81934 7.82031 -8.11133 15.8311 -14.8926 20.7588c-10.0723 7.31348 -7.23633 4.70215 -14.9053 0.696289
c-28.377 -14.8223 -47.3135 -48.8848 -59.4512 -77.292z" />
    <glyph glyph-name="e" unicode="&#xe9;" horiz-adv-x="359" 
d="M312.774 158.237c4.70312 15.2646 47.8506 11.835 42.3467 -6.65527c-26.0205 -87.3857 -81.8037 -188.326 -182.017 -198.628c-42.3594 -4.35645 -83.2725 13.2979 -114.101 41.7227c-33.8896 31.248 -45.2832 77.0244 -45.959 121.778
c-1.35059 89.5342 26.7188 191.626 98.3467 250.943c36.3965 30.1387 83.7744 48.7422 130.889 32.8369c32.9453 -11.1201 57.7666 -42.9268 50.6045 -78.4873c-13.2383 -65.7256 -91.583 -99.2383 -158.266 -100.818c-3.86719 -16.126 -7.03223 -32.3955 -9.63477 -48.5176
c-6.44824 -39.9258 -9.28027 -83.29 -0.273438 -123.021c5.6123 -24.7568 16.3086 -60.9238 45.3086 -67.1641c37.1885 -8.00293 74.4121 41.9561 91.9287 68.042c22.3447 33.2744 39.043 69.7139 50.8262 107.968zM156.177 287.749
c-5.75977 -13.4844 -10.6553 -27.4404 -14.8691 -41.6523c31.832 2.52051 66.1113 19.1016 86.6113 39.4629c15.3506 15.251 25.2666 36.5 17.5068 58.0264c-2.81934 7.82031 -8.11133 15.8311 -14.8926 20.7588c-10.0723 7.31348 -7.23633 4.70215 -14.9053 0.696289
c-28.377 -14.8223 -47.3135 -48.8848 -59.4512 -77.292z" />
    <glyph glyph-name="f" unicode="f" horiz-adv-x="219" 
d="M223.179 635.73c53.6963 9.75195 116.136 -20.9492 115.945 -81.3662c-0.0566406 -17.248 -43.8535 -17.1523 -43.9141 0c-0.125977 34.9502 -31.0186 67.9775 -67.2549 54.6484c-34.5996 -12.7266 -44.3125 -59.3818 -51.7256 -91.2139
c-17.9102 -76.8896 -16.5635 -157.447 -13.3936 -235.917c0.424805 -10.5439 0.905273 -21.084 1.43359 -31.624c5.78125 0.666992 11.5625 1.38184 17.3525 2.22656c8.3877 1.22559 25.7393 0.364258 29.6318 -9.58691
c3.94531 -10.0811 -8.88965 -15.7324 -16.8232 -16.8887c-9.53125 -1.38574 -19.084 -2.56348 -28.6494 -3.6377c8.47852 -147.946 24.7695 -295.546 26.9219 -443.722c0.363281 -24.96 -38.3672 -32.0879 -56.2949 -32.0879c-21.3135 0 -52.6738 7.1709 -56.2939 32.0879
c-12.8438 88.3994 -17.8975 177.708 -20.7598 266.965c-1.75391 54.7529 -4.02734 111.064 -3.85449 167.523c-5.31348 -1.39844 -10.5146 -3.24316 -15.5205 -5.77246c-9.11133 -4.60352 -23.8262 -6.18359 -32.7246 0c-7.52637 5.23535 -9.11133 13.7441 0 18.6543
c15.5332 8.37891 31.7461 12.9863 48.5605 15.5928c1.72363 89.8809 10.9258 179.536 39.6836 263.276c20.249 58.9619 62.292 118.968 127.68 130.842z" />
    <glyph glyph-name="g" unicode="g" horiz-adv-x="457" 
d="M440.847 -24.3896c2.28613 -59.8496 1.95703 -119.383 -4.87598 -178.968c-6.34375 -55.2939 -18.2041 -115.473 -44.667 -164.925c-46.2959 -86.5205 -155.528 -155.827 -253.438 -108.314c-108.925 52.8604 -58.4023 189.552 -16.5371 270.373
c49.3438 95.2588 122.297 175.95 197.324 251.584c0.489258 0.494141 1.05664 0.935547 1.6543 1.36035c-0.259766 7.05859 -0.532227 14.1172 -0.818359 21.1758c-2.16504 53.4883 -5.36523 107.777 -6.74707 162.032
c-15.7539 -55.251 -31.5205 -110.484 -53.4014 -163.444c-13.6533 -33.0449 -32.3174 -71.4072 -64.6475 -89.8848c-32.5078 -18.5811 -74.7158 -12.6611 -104.353 8.49707c-68.7354 49.0674 -85.6104 150.67 -73.9404 229.058
c12.2764 82.458 58.2949 171.273 143.308 197.018c56.541 17.1221 112.879 8.36133 157.062 -21.6436c0.151367 1.61133 0.268555 3.22656 0.428711 4.83789c3.30859 33.3086 73.9844 30.0391 80.8564 0c15.9443 -69.6885 21.8594 -141.359 28.7188 -212.477
c6.62109 -68.6572 11.4404 -137.341 14.0732 -206.279zM246.186 165.361c16.6592 53.835 31.8125 108.131 49.7051 161.555c-16.6328 18.9844 -34.7119 38.6143 -57.9922 44.6113c-28.8789 7.44434 -52.7734 -12.2324 -67.2627 -35.4082
c-32.6807 -52.2803 -46.8145 -120.717 -50.6123 -181.385c-1.99609 -31.876 -0.316406 -65.501 8.05859 -96.4502c3.73242 -13.8096 7.53418 -28.0869 12.3799 -41.5498c2.26074 -6.2832 5.00195 -11.999 8.51367 -17.6807c4.01855 -6.50391 3.55957 -5.45605 8.5 -5.03125
c14.5195 1.24707 29.2988 26.4844 35.6641 36.9033c7.65625 12.5361 14.1387 25.7305 19.915 39.2285c13.2119 30.8662 23.2148 63.1621 33.1309 95.207zM313.143 -252.761c9.56152 81.8779 10.7188 164.211 8.77832 246.505
c-61.4258 -65.6396 -118.456 -135.934 -157.681 -217.287c-20.9072 -43.3594 -41.4805 -95.0684 -32.3652 -143.967c6.55566 -35.1758 28.8096 -84.4639 71.2031 -83.3164c86.9268 2.35156 102.629 134.384 110.064 198.065z" />
    <glyph glyph-name="h" unicode="h" horiz-adv-x="418" 
d="M387.832 262.581c10.042 -84.3467 11.124 -171.907 7.2832 -256.674c-2.06543 -45.585 -114.788 -45.3252 -115.905 0c-1.7666 71.6191 2.34277 143.343 7.62988 214.768c2.66797 36.0195 4.38281 72.3379 3.27832 108.448
c-0.424805 13.8271 -1.0791 27.3809 -3.17969 41.0645c-0.0214844 0.147461 -0.722656 3.90625 -1.55371 7.90332c-1.48926 -1.31641 -2.92676 -2.69336 -4.28613 -4.15723c-43.6758 -42.1816 -64.3613 -105.47 -83.3281 -161.539
c-22.3096 -65.9551 -39.748 -133.4 -54.6318 -201.383c-0.0869141 -0.402344 -0.220703 -0.783203 -0.34668 -1.16406c-1.19043 -6.97168 -2.82715 -13.9785 -5.11816 -21.0938c-6.47852 -20.1143 -51.4971 -17.8672 -62.6387 -4.66797
c-12.3115 14.585 -20.8945 26.9434 -26.4199 45.291c-4.60742 15.29 -6.95898 31.3428 -9.48828 47.0967c-5.26562 32.7803 -7.14453 66.3926 -9.63867 99.4893c-5.11426 67.8047 -6.16211 136.168 -6.99805 204.137c-1.69336 137.821 -0.108398 276.201 22.8428 412.36
c6.2793 37.2578 97.2422 39.2236 97.9043 -0.000976562c2.30371 -136.085 -5.8457 -271.983 -5.49023 -408.104c0.172852 -65.9766 2.63672 -131.811 4.48145 -197.74c6.18359 20.0752 12.7568 40.0342 19.8281 59.8369c11.9346 33.4258 24.9209 66.8516 43.749 97.0898
c15.7881 25.3584 37.1631 55.8652 66.7568 65.6953c31.7539 10.5488 63.4395 -8.07617 81.5791 -33.8721c21.9287 -31.1787 29.2773 -75.7295 33.6904 -112.784z" />
    <glyph glyph-name="i" unicode="i" horiz-adv-x="167" 
d="M141.089 81.4863c0.59375 -27.9434 9.09473 -78.0703 -22.5215 -91.4082c-38.2891 -16.1523 -66.3496 13.9219 -74.8672 48.0273c-9.20215 36.8379 -11.6709 74.9922 -14.3516 112.787c-2.80176 39.4756 -4.1875 79.1201 -5.83691 118.66
c-1.77148 42.4326 -3.4209 85.1553 3.93164 127.189c7.01562 40.1162 94.4844 39.8086 101.694 0c12.5361 -69.2373 8.58301 -141.835 10.6748 -211.947c1.03027 -34.4434 0.544922 -68.8652 1.27637 -103.309zM100.974 470.183
c-20.9375 -19.374 -54.6934 -1.35059 -62.6133 21.2842c-10.0547 28.7314 -8.02832 63.9629 4.85059 91.2227c10.7002 22.6475 79.8945 25.25 79.4092 -6.12793c-0.320312 -20.6426 -5.16992 -40.8311 -8.21387 -61.2656
c-2.04395 -13.7188 -2.68066 -35.167 -13.4326 -45.1133z" />
    <glyph glyph-name="i" unicode="&#xef;" horiz-adv-x="167" 
d="M141.089 81.4863c0.59375 -27.9434 9.09473 -78.0703 -22.5215 -91.4082c-38.2891 -16.1523 -66.3496 13.9219 -74.8672 48.0273c-9.20215 36.8379 -11.6709 74.9922 -14.3516 112.787c-2.80176 39.4756 -4.1875 79.1201 -5.83691 118.66
c-1.77148 42.4326 -3.4209 85.1553 3.93164 127.189c7.01562 40.1162 94.4844 39.8086 101.694 0c12.5361 -69.2373 8.58301 -141.835 10.6748 -211.947c1.03027 -34.4434 0.544922 -68.8652 1.27637 -103.309zM100.974 470.183
c-20.9375 -19.374 -54.6934 -1.35059 -62.6133 21.2842c-10.0547 28.7314 -8.02832 63.9629 4.85059 91.2227c10.7002 22.6475 79.8945 25.25 79.4092 -6.12793c-0.320312 -20.6426 -5.16992 -40.8311 -8.21387 -61.2656
c-2.04395 -13.7188 -2.68066 -35.167 -13.4326 -45.1133z" />
    <glyph glyph-name="i" unicode="&#xee;" horiz-adv-x="167" 
d="M141.089 81.4863c0.59375 -27.9434 9.09473 -78.0703 -22.5215 -91.4082c-38.2891 -16.1523 -66.3496 13.9219 -74.8672 48.0273c-9.20215 36.8379 -11.6709 74.9922 -14.3516 112.787c-2.80176 39.4756 -4.1875 79.1201 -5.83691 118.66
c-1.77148 42.4326 -3.4209 85.1553 3.93164 127.189c7.01562 40.1162 94.4844 39.8086 101.694 0c12.5361 -69.2373 8.58301 -141.835 10.6748 -211.947c1.03027 -34.4434 0.544922 -68.8652 1.27637 -103.309zM100.974 470.183
c-20.9375 -19.374 -54.6934 -1.35059 -62.6133 21.2842c-10.0547 28.7314 -8.02832 63.9629 4.85059 91.2227c10.7002 22.6475 79.8945 25.25 79.4092 -6.12793c-0.320312 -20.6426 -5.16992 -40.8311 -8.21387 -61.2656
c-2.04395 -13.7188 -2.68066 -35.167 -13.4326 -45.1133z" />
    <glyph glyph-name="i" unicode="&#xed;" horiz-adv-x="167" 
d="M141.089 81.4863c0.59375 -27.9434 9.09473 -78.0703 -22.5215 -91.4082c-38.2891 -16.1523 -66.3496 13.9219 -74.8672 48.0273c-9.20215 36.8379 -11.6709 74.9922 -14.3516 112.787c-2.80176 39.4756 -4.1875 79.1201 -5.83691 118.66
c-1.77148 42.4326 -3.4209 85.1553 3.93164 127.189c7.01562 40.1162 94.4844 39.8086 101.694 0c12.5361 -69.2373 8.58301 -141.835 10.6748 -211.947c1.03027 -34.4434 0.544922 -68.8652 1.27637 -103.309zM100.974 470.183
c-20.9375 -19.374 -54.6934 -1.35059 -62.6133 21.2842c-10.0547 28.7314 -8.02832 63.9629 4.85059 91.2227c10.7002 22.6475 79.8945 25.25 79.4092 -6.12793c-0.320312 -20.6426 -5.16992 -40.8311 -8.21387 -61.2656
c-2.04395 -13.7188 -2.68066 -35.167 -13.4326 -45.1133z" />
    <glyph glyph-name="j" unicode="j" horiz-adv-x="187" 
d="M171.485 -24.3896c2.28613 -59.8496 1.95801 -119.381 -4.87109 -178.966c-6.34375 -55.2939 -18.2041 -115.473 -44.667 -164.925c-46.2959 -86.5205 -155.528 -155.827 -253.438 -108.314c-108.93 52.8604 -58.4072 189.552 -16.542 270.373
c49.3438 95.2588 122.297 175.95 197.324 251.584c0.489258 0.494141 1.05664 0.935547 1.6543 1.36035c-0.259766 7.05859 -0.532227 14.1172 -0.818359 21.1758c-4.36035 107.852 -12.9648 218.959 -2.29102 326.468c3.30859 33.3086 73.9844 30.0391 80.8564 0
c15.9443 -69.6885 21.8594 -141.359 28.7188 -212.477c6.62109 -68.6572 11.4404 -137.341 14.0732 -206.279zM43.7803 -252.756c9.56152 81.8779 10.7188 164.212 8.77832 246.506c-61.4258 -65.6396 -118.456 -135.934 -157.681 -217.288
c-20.9072 -43.3594 -41.4805 -95.0684 -32.3652 -143.967c6.55566 -35.1758 28.8096 -84.4639 71.2031 -83.3164c86.9268 2.35156 102.629 134.384 110.064 198.065zM62.1025 478.898c-19.9629 8.53516 -25.8896 19.7764 -29.8564 40.4365
c-4.11426 21.4307 -3.60742 43.6621 -0.970703 65.2441c4.4209 36.1543 94.4092 34.5869 91.2744 0.000976562c-2.67578 -29.4639 -0.480469 -67.8477 -13.9043 -94.8906c-7.10645 -14.3115 -33.8896 -16.2041 -46.543 -10.791z" />
    <glyph glyph-name="k" unicode="k" horiz-adv-x="380" 
d="M338.078 91.2383c12.3672 -0.467773 40.6191 -4.82129 40.1943 -22.9004c-0.416016 -17.4639 -26.623 -23.4229 -40.1904 -22.9072c-52.4404 1.99219 -103.729 14.0957 -150.955 37.1465c-13.7832 6.72949 -29.3076 15.5938 -42.7314 26.6582
c0.24707 -9.5918 0.533203 -19.1875 0.702148 -28.7793c0.5625 -32.0273 2.49805 -60.9062 -7.42285 -91.6953c-6.48242 -20.1143 -51.4961 -17.8672 -62.6377 -4.66797c-12.3115 14.585 -20.8945 26.9434 -26.4199 45.291
c-4.60742 15.29 -6.95898 31.3428 -9.48828 47.0967c-5.26562 32.7803 -7.14453 66.3926 -9.63867 99.4893c-5.11426 67.8047 -6.16211 136.168 -6.99805 204.137c-1.69727 137.821 -0.108398 276.201 22.8428 412.36c6.2793 37.2578 97.2422 39.2236 97.9043 -0.000976562
c2.30371 -136.085 -5.8457 -271.983 -5.49023 -408.104c0.125977 -48.751 1.52051 -97.4199 2.97949 -146.11c15.1348 19.6074 33.2441 37.4307 47.3955 51.8984c35.5303 36.3184 75.0273 68.5664 115.854 98.7051c8.23242 6.0752 19.582 8.00684 29.3945 4.39062
c6.29199 -2.32129 15.5938 -10.2158 7.70801 -16.7549c-61.4912 -50.9814 -133.514 -104.032 -172.569 -175.582c-10.9424 -20.0498 -14.957 -43.1387 3.72363 -59.7539c14.2119 -12.6406 35.0801 -20.0195 52.5361 -26.8008
c36.5088 -14.1865 74.2305 -21.6309 113.308 -23.1162z" />
    <glyph glyph-name="l" unicode="l" horiz-adv-x="157" 
d="M168.385 -46.7344c21.3613 3.81543 39.3809 -17.4023 11.4238 -23.6123c-73.4385 -16.3125 -113.446 69.541 -130.287 125.649c-22.5088 75.001 -26.8955 153.878 -27.4277 231.776c-0.558594 81.3154 1.5332 162.604 3.33496 243.89
c1.89648 85.3555 1.64941 171.104 8.41309 256.243c3.18262 40.0596 101.087 40.0723 102.17 -0.000976562c1.99609 -73.9971 -1.75391 -148.115 -3.99316 -222.077c-2.23047 -73.75 -4.33887 -147.487 -7.56934 -221.198
c-1.79297 -40.9131 -15.3857 -401.262 43.9355 -390.67z" />
    <glyph glyph-name="m" unicode="m" horiz-adv-x="662" 
d="M630.639 234.611c14.4629 -78.6777 16.1748 -163.599 11.3945 -243.264c-2.72852 -45.4512 -115.499 -44.9922 -115.43 0c0.108398 67.9258 4.75879 135.8 5.50391 203.738c0.341797 31.1787 1.60645 62.3135 -0.355469 93.4707
c-0.926758 14.7314 -2.52051 29.2598 -5.3916 43.7451c-1.5459 7.79883 -4.02246 27.0127 -11.332 33.959c2.9834 -3.64648 -5.87207 -7.08887 -10.1289 -11.4629c-5.63379 -5.79004 -10.835 -12.6924 -15.5117 -19.2139
c-8.46191 -11.7959 -15.9365 -24.3145 -22.6787 -37.1582c-13.5889 -25.8994 -23.9727 -53.3584 -32.5986 -81.2676c-16.377 -52.9727 -26.9688 -107.47 -41.4277 -160.954c0.138672 -9.37988 0.225586 -18.7373 0.255859 -28.0518
c0.15625 -44.5508 -113.381 -44.3867 -113.537 -0.000976562c-0.238281 67.7568 3.58984 135.44 3.2998 203.206c-0.129883 30.8105 0.311523 61.4258 -2.0918 92.1885c-1.09961 14.0781 -2.14746 29.7803 -6.10547 43.373
c-0.363281 1.24707 -3.54199 13.0215 -5.41309 13.1943c-4.62012 0.432617 -13.8086 -11.4453 -16.9873 -15.083c-20.4258 -23.3662 -33.1396 -53.627 -45.0615 -81.9473c-12.251 -29.0957 -22.6699 -58.9316 -31.833 -89.127
c-18.8193 -62.0273 -32.2002 -125.493 -45.5293 -188.872c-0.28125 -1.34668 -0.80957 -2.56738 -1.50195 -3.69336c-0.498047 -7.95898 -1.4248 -15.8008 -3.25195 -23.3096c-4.4043 -18.0918 -39.6055 -12.8301 -50.5088 -7.59863
c-25.8955 12.4238 -34.123 49.4961 -39.6396 75.1445c-6.7168 31.2393 -8.41895 63.9766 -9.93848 95.8135c-3.2041 67.1592 -4.90137 134.734 1.61621 201.742c3.92773 40.3457 100.775 40.6055 103.118 0c2.75 -47.6855 1.29102 -95.4277 0.134766 -143.156
c3.11816 10.4189 6.35254 20.8027 9.79492 31.1309c12.2422 36.7295 26.2725 73.6279 44.6807 107.755c14.5928 27.0518 34.4297 56.4199 65.0498 66.3145c75.3691 24.3584 108.466 -72.1602 121.054 -127.095c5.30859 -23.167 9.375 -46.7324 12.5322 -70.5059
c4.84961 17.3604 10.2578 34.5557 16.6621 51.4697c19.4736 51.4443 58.6758 141.018 126.021 135.016c74.3125 -6.62109 94.2451 -100.261 105.136 -159.5z" />
    <glyph glyph-name="n" unicode="n" horiz-adv-x="414" 
d="M380.096 241.77c16.8281 -69.4932 16.0498 -143.633 19.0986 -214.698c1.80176 -41.9482 -105.604 -42.71 -108.327 0c-3.76758 59.0957 2.47656 118.309 1.38086 177.448c-0.532227 28.7539 -1.54102 57.6895 -5.36914 86.2139
c-1.69727 12.6621 -3.80566 25.6055 -6.60742 38.0723c-0.501953 2.22559 -3.02637 14.7363 -5.8457 16.0742c-3.75879 1.7793 -13.5371 -6.81641 -15.9531 -8.70898c-22.4004 -17.5293 -35.79 -44.3389 -48.248 -69.2725
c-13.1299 -26.2725 -24.6143 -53.3496 -35.1416 -80.7607c-19.4609 -50.6602 -34.7773 -102.784 -53.6143 -153.636c-1.67969 -18.127 -5.51172 -35.8252 -15.1982 -49.8125c-9.83008 -14.1992 -40.3242 -17.5166 -52.25 -3.89355
c-22.583 25.7959 -25.8047 63.1533 -28.5586 96.1289c-2.79785 33.5518 -3.97168 66.9297 -3.24805 100.581c1.41992 65.9902 0.964844 141.16 25.0762 203.431c11.9082 30.7539 96.4922 29.667 98.4844 -7.5957c1.77148 -33.2051 -5.03125 -66.7129 -8.65137 -99.6836
c-3.00098 -27.2988 -5.72949 -54.5928 -7.7041 -81.9775c5.23926 13.6191 10.6172 27.1689 16.2852 40.5713c22.418 52.9951 53.7822 132.703 119.742 141.849c72.1084 10.0029 101.308 -75.2227 114.649 -130.33z" />
    <glyph glyph-name="o" unicode="o" horiz-adv-x="346" 
d="M307.771 322.223c31.9404 -81.9346 30.6924 -177.641 -3.7334 -258.535c-16.6328 -39.0859 -41.3506 -78.1191 -79.1025 -99.6406c-43.6934 -24.9082 -104.985 -25.8525 -146.18 4.49023c-35.8115 26.3848 -47.668 69.0771 -54.3232 111.012
c-7.58203 47.7598 -5.88477 94.9521 -2.95312 142.867c-0.177734 3.74121 -0.294922 7.40918 -0.433594 10.8955c-0.978516 24.5098 2.2002 48.9805 8.6875 72.6113c12.0293 43.8398 37.8643 85.918 79.5566 106.808c79.9121 40.0469 168.308 -13.1035 198.481 -90.5078z
M229.118 111.3c18.8193 59.6768 21.2676 125.854 10.2646 187.336c-5.32617 29.7627 -15.0869 61.8896 -37.6738 83.2207c-26.1465 24.6914 -57.6846 17.0264 -82.8311 -6.01562c-23.8086 -21.8203 -38.2803 -53.6182 -46.0703 -84.502
c-2.61523 -10.3711 -4.27344 -21.0068 -5.26074 -31.6982c28.043 1.49805 58.0996 -9.03809 55.168 -29.083c-5.89746 -40.3457 -7.6084 -81.8301 -5.43848 -122.565c1.71094 -32.1221 3.27832 -74.083 25.6924 -99.6885
c2.84961 -3.25684 5.99805 -6.62988 9.85254 -8.71289c0.199219 -0.108398 0.476562 -0.225586 0.753906 -0.342773c1.24316 0.432617 3.23047 0.964844 3.95801 1.43262c11.1377 7.13672 20.3096 14.4463 28.7539 24.8955c19.8672 24.5791 33.3906 55.7832 42.8311 85.7236
z" />
    <glyph glyph-name="o" unicode="&#xf6;" horiz-adv-x="346" 
d="M307.771 322.223c31.9404 -81.9346 30.6924 -177.641 -3.7334 -258.535c-16.6328 -39.0859 -41.3506 -78.1191 -79.1025 -99.6406c-43.6934 -24.9082 -104.985 -25.8525 -146.18 4.49023c-35.8115 26.3848 -47.668 69.0771 -54.3232 111.012
c-7.58203 47.7598 -5.88477 94.9521 -2.95312 142.867c-0.177734 3.74121 -0.294922 7.40918 -0.433594 10.8955c-0.978516 24.5098 2.2002 48.9805 8.6875 72.6113c12.0293 43.8398 37.8643 85.918 79.5566 106.808c79.9121 40.0469 168.308 -13.1035 198.481 -90.5078z
M229.118 111.3c18.8193 59.6768 21.2676 125.854 10.2646 187.336c-5.32617 29.7627 -15.0869 61.8896 -37.6738 83.2207c-26.1465 24.6914 -57.6846 17.0264 -82.8311 -6.01562c-23.8086 -21.8203 -38.2803 -53.6182 -46.0703 -84.502
c-2.61523 -10.3711 -4.27344 -21.0068 -5.26074 -31.6982c28.043 1.49805 58.0996 -9.03809 55.168 -29.083c-5.89746 -40.3457 -7.6084 -81.8301 -5.43848 -122.565c1.71094 -32.1221 3.27832 -74.083 25.6924 -99.6885
c2.84961 -3.25684 5.99805 -6.62988 9.85254 -8.71289c0.199219 -0.108398 0.476562 -0.225586 0.753906 -0.342773c1.24316 0.432617 3.23047 0.964844 3.95801 1.43262c11.1377 7.13672 20.3096 14.4463 28.7539 24.8955c19.8672 24.5791 33.3906 55.7832 42.8311 85.7236
z" />
    <glyph glyph-name="o" unicode="&#xf5;" horiz-adv-x="346" 
d="M307.771 322.223c31.9404 -81.9346 30.6924 -177.641 -3.7334 -258.535c-16.6328 -39.0859 -41.3506 -78.1191 -79.1025 -99.6406c-43.6934 -24.9082 -104.985 -25.8525 -146.18 4.49023c-35.8115 26.3848 -47.668 69.0771 -54.3232 111.012
c-7.58203 47.7598 -5.88477 94.9521 -2.95312 142.867c-0.177734 3.74121 -0.294922 7.40918 -0.433594 10.8955c-0.978516 24.5098 2.2002 48.9805 8.6875 72.6113c12.0293 43.8398 37.8643 85.918 79.5566 106.808c79.9121 40.0469 168.308 -13.1035 198.481 -90.5078z
M229.118 111.3c18.8193 59.6768 21.2676 125.854 10.2646 187.336c-5.32617 29.7627 -15.0869 61.8896 -37.6738 83.2207c-26.1465 24.6914 -57.6846 17.0264 -82.8311 -6.01562c-23.8086 -21.8203 -38.2803 -53.6182 -46.0703 -84.502
c-2.61523 -10.3711 -4.27344 -21.0068 -5.26074 -31.6982c28.043 1.49805 58.0996 -9.03809 55.168 -29.083c-5.89746 -40.3457 -7.6084 -81.8301 -5.43848 -122.565c1.71094 -32.1221 3.27832 -74.083 25.6924 -99.6885
c2.84961 -3.25684 5.99805 -6.62988 9.85254 -8.71289c0.199219 -0.108398 0.476562 -0.225586 0.753906 -0.342773c1.24316 0.432617 3.23047 0.964844 3.95801 1.43262c11.1377 7.13672 20.3096 14.4463 28.7539 24.8955c19.8672 24.5791 33.3906 55.7832 42.8311 85.7236
z" />
    <glyph glyph-name="o" unicode="&#xf4;" horiz-adv-x="346" 
d="M307.771 322.223c31.9404 -81.9346 30.6924 -177.641 -3.7334 -258.535c-16.6328 -39.0859 -41.3506 -78.1191 -79.1025 -99.6406c-43.6934 -24.9082 -104.985 -25.8525 -146.18 4.49023c-35.8115 26.3848 -47.668 69.0771 -54.3232 111.012
c-7.58203 47.7598 -5.88477 94.9521 -2.95312 142.867c-0.177734 3.74121 -0.294922 7.40918 -0.433594 10.8955c-0.978516 24.5098 2.2002 48.9805 8.6875 72.6113c12.0293 43.8398 37.8643 85.918 79.5566 106.808c79.9121 40.0469 168.308 -13.1035 198.481 -90.5078z
M229.118 111.3c18.8193 59.6768 21.2676 125.854 10.2646 187.336c-5.32617 29.7627 -15.0869 61.8896 -37.6738 83.2207c-26.1465 24.6914 -57.6846 17.0264 -82.8311 -6.01562c-23.8086 -21.8203 -38.2803 -53.6182 -46.0703 -84.502
c-2.61523 -10.3711 -4.27344 -21.0068 -5.26074 -31.6982c28.043 1.49805 58.0996 -9.03809 55.168 -29.083c-5.89746 -40.3457 -7.6084 -81.8301 -5.43848 -122.565c1.71094 -32.1221 3.27832 -74.083 25.6924 -99.6885
c2.84961 -3.25684 5.99805 -6.62988 9.85254 -8.71289c0.199219 -0.108398 0.476562 -0.225586 0.753906 -0.342773c1.24316 0.432617 3.23047 0.964844 3.95801 1.43262c11.1377 7.13672 20.3096 14.4463 28.7539 24.8955c19.8672 24.5791 33.3906 55.7832 42.8311 85.7236
z" />
    <glyph glyph-name="o" unicode="&#xf3;" horiz-adv-x="346" 
d="M307.771 322.223c31.9404 -81.9346 30.6924 -177.641 -3.7334 -258.535c-16.6328 -39.0859 -41.3506 -78.1191 -79.1025 -99.6406c-43.6934 -24.9082 -104.985 -25.8525 -146.18 4.49023c-35.8115 26.3848 -47.668 69.0771 -54.3232 111.012
c-7.58203 47.7598 -5.88477 94.9521 -2.95312 142.867c-0.177734 3.74121 -0.294922 7.40918 -0.433594 10.8955c-0.978516 24.5098 2.2002 48.9805 8.6875 72.6113c12.0293 43.8398 37.8643 85.918 79.5566 106.808c79.9121 40.0469 168.308 -13.1035 198.481 -90.5078z
M229.118 111.3c18.8193 59.6768 21.2676 125.854 10.2646 187.336c-5.32617 29.7627 -15.0869 61.8896 -37.6738 83.2207c-26.1465 24.6914 -57.6846 17.0264 -82.8311 -6.01562c-23.8086 -21.8203 -38.2803 -53.6182 -46.0703 -84.502
c-2.61523 -10.3711 -4.27344 -21.0068 -5.26074 -31.6982c28.043 1.49805 58.0996 -9.03809 55.168 -29.083c-5.89746 -40.3457 -7.6084 -81.8301 -5.43848 -122.565c1.71094 -32.1221 3.27832 -74.083 25.6924 -99.6885
c2.84961 -3.25684 5.99805 -6.62988 9.85254 -8.71289c0.199219 -0.108398 0.476562 -0.225586 0.753906 -0.342773c1.24316 0.432617 3.23047 0.964844 3.95801 1.43262c11.1377 7.13672 20.3096 14.4463 28.7539 24.8955c19.8672 24.5791 33.3906 55.7832 42.8311 85.7236
z" />
    <glyph glyph-name="p" unicode="p" horiz-adv-x="446" 
d="M429.989 193.015c8.94238 -94.124 -23.2559 -217.624 -112.417 -265.587c-38.2588 -20.5781 -112.32 -30.6855 -134.583 19.0352c-18.3779 41.043 -2.92773 97.7578 6.92383 139.338c21.8594 92.2666 67.0332 177.219 130.325 247.526
c-11.9434 37.5654 -33.2529 60.9883 -70.9004 32.5986c-32.958 -24.8516 -54.709 -69.2334 -72.126 -105.678c-17.3994 -36.4092 -30.5293 -74.6201 -39.4326 -113.944c-0.00878906 -53.96 1.12988 -107.868 2.80176 -161.408
c2.16504 -69.3457 6.11035 -138.652 9.83398 -207.925c3.61133 -67.1328 16.1221 -142.16 -1.82715 -207.96c-5.43457 -19.9277 -51.9941 -16.0176 -59.6982 0c-15.7842 32.8193 -20.877 70.6494 -26.8965 106.245c-5.69434 33.6816 -9.13281 67.792 -13.0996 101.716
c-8.08496 69.1602 -14.1953 138.428 -18.4951 207.925c-4.28223 69.2295 -6.12305 138.489 -5.13965 207.856c1.01367 71.2734 7.76855 140.857 16.2168 211.524c5.13184 42.9141 111.931 40.584 107.852 0c-4.06641 -40.4629 -6.8418 -81.1807 -8.67383 -122.016
c3.78906 7.52637 7.7168 14.9873 11.8867 22.3447c26.4805 46.7246 60.4912 95.6357 118.773 100.343c109.679 8.85547 150.565 -126.554 158.676 -211.935zM334.784 203.842c0.355469 14.4932 -0.00390625 45.7549 -4.00488 77.8906
c-39.1025 -52.8818 -68.4834 -112.628 -86.4111 -176.215c-10.6436 -37.7471 -19.6641 -79.457 -17.1826 -118.889c0.446289 -7.13672 1.13477 -14.9092 3.77148 -21.6562c0.129883 -0.341797 3.37305 -5.59473 5.06641 -8.68652
c0.441406 0.28125 0.887695 0.549805 1.3291 0.844727c12.6875 8.50879 23.21 20.7246 32.5244 32.8018c46.4775 60.2432 63.084 139.549 64.9072 213.909z" />
    <glyph glyph-name="q" unicode="q" horiz-adv-x="443" 
d="M420.759 -392.065c0.532227 -32.9277 5.83594 -75.75 -19.5527 -100.238c-10.1592 -9.7998 -29.1348 -8.01172 -39.5537 -0.000976562c-28.2031 21.6865 -31.1738 66.917 -35.959 100.239c-5.2959 36.8682 -9.39648 73.7324 -12.709 110.83
c-6.60352 73.9229 -11.3145 147.833 -13.9688 222.003c-2.75391 76.9678 -4.28711 154.147 -3.10059 231.249c-10.7305 -35.7207 -22.3535 -71.1035 -36.5742 -105.525c-13.6533 -33.0449 -32.3174 -71.4072 -64.6475 -89.8848
c-32.5078 -18.5811 -74.7158 -12.6611 -104.353 8.49707c-68.7354 49.0674 -85.6104 150.67 -73.9404 229.058c12.2764 82.458 58.2949 171.273 143.308 197.018c53.6963 16.2646 107.215 9.17578 150.306 -17.2783c16.8838 33.9932 107.756 31.083 107.613 -8.86035
c-0.532227 -148.115 -5.91016 -296.135 -4.34668 -444.271c0.779297 -73.9922 2.26074 -148.045 4.64258 -222.003c1.19043 -36.9551 2.23828 -73.8584 2.83594 -110.831zM246.181 165.365c16.6631 53.835 31.8115 108.131 49.6963 161.555
c-16.6328 18.9844 -34.7119 38.6143 -57.9922 44.6113c-28.875 7.44434 -52.7695 -12.2324 -67.2588 -35.4082c-32.6807 -52.2803 -46.8145 -120.717 -50.6123 -181.385c-1.99609 -31.876 -0.316406 -65.501 8.05859 -96.4502
c3.73242 -13.8096 7.53418 -28.0869 12.3799 -41.5498c2.26074 -6.2832 5.00195 -11.999 8.51367 -17.6807c4.02246 -6.50391 3.56348 -5.45605 8.5 -5.03125c14.5195 1.24707 29.3037 26.4844 35.6689 36.9033c7.65625 12.5361 14.1387 25.7305 19.915 39.2285
c13.2119 30.8662 23.2148 63.1621 33.1309 95.207z" />
    <glyph glyph-name="r" unicode="r" horiz-adv-x="349" 
d="M340.054 182.756c3.86719 -38.2324 -99.3506 -40.8467 -101.689 0.000976562c-2.08301 36.3008 -4.11816 72.7881 -3.95312 109.158c0.0820312 18.1748 -0.113281 36.3193 1.51953 54.4287c0.0605469 0.649414 0.164062 1.49414 0.293945 2.41699
c-0.0693359 -0.138672 -0.142578 -0.286133 -0.211914 -0.419922c-6.94141 -13.6973 -13 -27.875 -18.7764 -42.0918c-12.1426 -29.8662 -22.4268 -60.4512 -32.1055 -91.1924c-19.0967 -60.6641 -35.1143 -122.211 -48.3301 -184.398
c-0.948242 -17.0703 -3.41699 -33.8418 -10.1289 -48.1055c-10.0508 -21.3662 -58.9014 -23.0293 -72.5938 -5.40918c-21.7949 28.0518 -22.1201 64.4482 -24.7314 98.6973c-2.73242 35.8076 -2.34277 72.0742 -2.82324 107.973
c-0.978516 72.9961 -1.82324 147.92 9.61328 220.176c6.41309 40.5186 102.533 42.2207 105.482 0c4.16602 -59.6416 1.62012 -120.028 -0.501953 -179.974c14.8662 49.4395 31.625 99.7451 57.1562 144.222c11.8691 20.6729 26.627 45.7236 53.0684 46.8066
c26.1514 1.06934 38.5322 -19.2266 47.8252 -41.0254c25.332 -59.4297 34.4346 -127.468 40.8867 -191.263z" />
    <glyph glyph-name="s" unicode="s" horiz-adv-x="285" 
d="M250.951 113.522c17.2129 -24.0811 34.793 -53.6387 31.0732 -84.5791c-3.47266 -28.8662 -22.4824 -52.3623 -45.9658 -68.3633c-43.0439 -29.3203 -111.615 -38.0635 -156.547 -8.3877c-52.0156 34.3525 -48.6641 101.807 -25.0293 152.121
c7.11523 15.1514 51.2285 10.3711 43.2568 -6.79883c-15.9746 -34.4043 -23.8125 -75.8154 -1.91406 -109.709c20.3828 -31.542 57.8926 -32.0742 89.5947 -18.5898c78.9463 33.582 -22.3359 121.601 -54.8135 152.796c-45.5547 43.7578 -103.807 90.1396 -116.408 155.541
c-12.7314 66.0684 31.3037 123.762 94.0244 139.957c26.1855 6.75977 56.2207 4.6377 79.2754 -10.4404c21.8984 -14.3252 29.8926 -37.2715 36.9941 -61.127c6.85449 -23.0283 -49.752 -26.1631 -50.5703 -3.90039c-0.519531 14.0869 -9.80371 37.6396 -24.2588 43.46
c-12.4238 5.00195 -20.0664 -8.62109 -25.8779 -18.668c-18.7109 -32.3604 -10.9854 -66.9033 5.62598 -98.4844c30.793 -58.5371 83.3594 -101.412 121.54 -154.827z" />
    <glyph glyph-name="t" unicode="t" horiz-adv-x="157" 
d="M212.481 574.772c7.11035 -0.242188 22.4277 -2.6875 22.4277 -12.7773c0 -9.74805 -15.0303 -13.0566 -22.4307 -12.7881c-26.7832 0.969727 -53.54 1.09082 -80.2578 0.536133c-2.06543 -68.6143 -4.10059 -137.22 -7.10547 -205.804
c-1.79297 -40.9131 -15.3818 -401.262 43.9355 -390.67c21.3613 3.81055 39.3838 -17.4082 11.4229 -23.6182c-73.4336 -16.3125 -113.441 69.541 -130.282 125.649c-22.5088 75.001 -26.8955 153.878 -27.4277 231.776c-0.558594 81.3154 1.52832 162.604 3.33398 243.89
c0.0957031 4.1875 0.165039 8.38379 0.24707 12.5752c-22.6436 -2.20801 -45.252 -4.93164 -67.8213 -8.26562c-7.11426 -1.05273 -24.0889 -0.398438 -27.0078 8.73828c-2.98828 9.35352 7.63379 14.2422 15.333 15.3984c26.5801 3.98438 53.2549 7.14941 79.9775 9.66992
c1.24316 72.7363 1.92285 145.655 7.68262 218.128c3.18262 40.0596 101.087 40.0723 102.17 -0.000976562c1.90527 -70.6367 -1.41602 -141.386 -3.66797 -212.005c26.4756 0.554688 52.9688 0.472656 79.4707 -0.432617z" />
    <glyph glyph-name="u" unicode="u" horiz-adv-x="440" 
d="M413.894 93.9062c1.0957 -30.4033 4.28027 -61.5811 -4.15527 -91.1396c-4.12207 -14.4326 -29.7275 -18.1787 -41.8916 -18.1787c-14.459 0 -34.3096 4.24805 -41.8916 18.1787c-14.6582 26.9219 -17.6416 61.0752 -21.3311 91.1367
c-3.54688 28.8701 -5.38281 58.0996 -6.98535 87.1602c-3.52441 -10.2197 -7.24023 -20.3789 -11.2246 -30.4512c-22.626 -57.2256 -53.4365 -133.855 -115.646 -156.976c-31.3994 -11.6699 -69.9912 -5.17871 -95.168 17.5508
c-26.8867 24.2715 -37.1494 62.9023 -44.1992 97.0127c-16.5244 79.9424 -14.6621 165.691 -5.27441 246.426c5.12695 44.1084 114.901 42.6016 111.641 0c-5.09277 -66.5137 -12.1465 -132.733 -10.9775 -199.551c0.52832 -30.1523 0.407227 -60.3955 6.90234 -90.0195
c2.77148 -12.6445 6.94141 -25.4619 13.6709 -36.626c3.36035 -5.57715 2.94043 -7.0752 9.02441 -6.78516c4.51172 0.211914 11.4531 8.2832 14.3154 11.1152c39.458 39.0645 63.2051 101.616 81.5225 152.939c20.7471 58.1309 34.9678 118.396 47.6855 178.714
c0.24707 1.16895 0.688477 2.24316 1.27344 3.23926c0.311523 2.16504 0.606445 4.33496 0.948242 6.49121c6.66406 42.1729 108.795 44.083 110.22 0c2.00977 -62.1572 -1.95703 -124.657 -1.4502 -186.893c0.255859 -31.1611 1.87109 -62.2139 2.99219 -93.3447z" />
    <glyph glyph-name="u" unicode="&#xfc;" horiz-adv-x="440" 
d="M413.894 93.9062c1.0957 -30.4033 4.28027 -61.5811 -4.15527 -91.1396c-4.12207 -14.4326 -29.7275 -18.1787 -41.8916 -18.1787c-14.459 0 -34.3096 4.24805 -41.8916 18.1787c-14.6582 26.9219 -17.6416 61.0752 -21.3311 91.1367
c-3.54688 28.8701 -5.38281 58.0996 -6.98535 87.1602c-3.52441 -10.2197 -7.24023 -20.3789 -11.2246 -30.4512c-22.626 -57.2256 -53.4365 -133.855 -115.646 -156.976c-31.3994 -11.6699 -69.9912 -5.17871 -95.168 17.5508
c-26.8867 24.2715 -37.1494 62.9023 -44.1992 97.0127c-16.5244 79.9424 -14.6621 165.691 -5.27441 246.426c5.12695 44.1084 114.901 42.6016 111.641 0c-5.09277 -66.5137 -12.1465 -132.733 -10.9775 -199.551c0.52832 -30.1523 0.407227 -60.3955 6.90234 -90.0195
c2.77148 -12.6445 6.94141 -25.4619 13.6709 -36.626c3.36035 -5.57715 2.94043 -7.0752 9.02441 -6.78516c4.51172 0.211914 11.4531 8.2832 14.3154 11.1152c39.458 39.0645 63.2051 101.616 81.5225 152.939c20.7471 58.1309 34.9678 118.396 47.6855 178.714
c0.24707 1.16895 0.688477 2.24316 1.27344 3.23926c0.311523 2.16504 0.606445 4.33496 0.948242 6.49121c6.66406 42.1729 108.795 44.083 110.22 0c2.00977 -62.1572 -1.95703 -124.657 -1.4502 -186.893c0.255859 -31.1611 1.87109 -62.2139 2.99219 -93.3447z" />
    <glyph glyph-name="u" unicode="&#xfb;" horiz-adv-x="440" 
d="M413.894 93.9062c1.0957 -30.4033 4.28027 -61.5811 -4.15527 -91.1396c-4.12207 -14.4326 -29.7275 -18.1787 -41.8916 -18.1787c-14.459 0 -34.3096 4.24805 -41.8916 18.1787c-14.6582 26.9219 -17.6416 61.0752 -21.3311 91.1367
c-3.54688 28.8701 -5.38281 58.0996 -6.98535 87.1602c-3.52441 -10.2197 -7.24023 -20.3789 -11.2246 -30.4512c-22.626 -57.2256 -53.4365 -133.855 -115.646 -156.976c-31.3994 -11.6699 -69.9912 -5.17871 -95.168 17.5508
c-26.8867 24.2715 -37.1494 62.9023 -44.1992 97.0127c-16.5244 79.9424 -14.6621 165.691 -5.27441 246.426c5.12695 44.1084 114.901 42.6016 111.641 0c-5.09277 -66.5137 -12.1465 -132.733 -10.9775 -199.551c0.52832 -30.1523 0.407227 -60.3955 6.90234 -90.0195
c2.77148 -12.6445 6.94141 -25.4619 13.6709 -36.626c3.36035 -5.57715 2.94043 -7.0752 9.02441 -6.78516c4.51172 0.211914 11.4531 8.2832 14.3154 11.1152c39.458 39.0645 63.2051 101.616 81.5225 152.939c20.7471 58.1309 34.9678 118.396 47.6855 178.714
c0.24707 1.16895 0.688477 2.24316 1.27344 3.23926c0.311523 2.16504 0.606445 4.33496 0.948242 6.49121c6.66406 42.1729 108.795 44.083 110.22 0c2.00977 -62.1572 -1.95703 -124.657 -1.4502 -186.893c0.255859 -31.1611 1.87109 -62.2139 2.99219 -93.3447z" />
    <glyph glyph-name="u" unicode="&#xfa;" horiz-adv-x="440" 
d="M413.894 93.9062c1.0957 -30.4033 4.28027 -61.5811 -4.15527 -91.1396c-4.12207 -14.4326 -29.7275 -18.1787 -41.8916 -18.1787c-14.459 0 -34.3096 4.24805 -41.8916 18.1787c-14.6582 26.9219 -17.6416 61.0752 -21.3311 91.1367
c-3.54688 28.8701 -5.38281 58.0996 -6.98535 87.1602c-3.52441 -10.2197 -7.24023 -20.3789 -11.2246 -30.4512c-22.626 -57.2256 -53.4365 -133.855 -115.646 -156.976c-31.3994 -11.6699 -69.9912 -5.17871 -95.168 17.5508
c-26.8867 24.2715 -37.1494 62.9023 -44.1992 97.0127c-16.5244 79.9424 -14.6621 165.691 -5.27441 246.426c5.12695 44.1084 114.901 42.6016 111.641 0c-5.09277 -66.5137 -12.1465 -132.733 -10.9775 -199.551c0.52832 -30.1523 0.407227 -60.3955 6.90234 -90.0195
c2.77148 -12.6445 6.94141 -25.4619 13.6709 -36.626c3.36035 -5.57715 2.94043 -7.0752 9.02441 -6.78516c4.51172 0.211914 11.4531 8.2832 14.3154 11.1152c39.458 39.0645 63.2051 101.616 81.5225 152.939c20.7471 58.1309 34.9678 118.396 47.6855 178.714
c0.24707 1.16895 0.688477 2.24316 1.27344 3.23926c0.311523 2.16504 0.606445 4.33496 0.948242 6.49121c6.66406 42.1729 108.795 44.083 110.22 0c2.00977 -62.1572 -1.95703 -124.657 -1.4502 -186.893c0.255859 -31.1611 1.87109 -62.2139 2.99219 -93.3447z" />
    <glyph glyph-name="v" unicode="v" horiz-adv-x="435" 
d="M411.655 421.388c23.9854 -34.1191 10.1631 -93.0938 3.55078 -130.703c-8.76074 -49.79 -23.376 -98.4375 -41.9404 -145.417c-17.542 -44.3945 -36.2314 -94.167 -66.2363 -131.819c-28.1514 -35.3271 -70.2422 -47.4043 -113.662 -37.8125
c-48.1533 10.6357 -85.7881 46.79 -109.631 88.7334c-51.5703 90.7246 -65.5186 198.9 -72.6855 301.296c-1.67188 23.8643 38.0283 30.8711 54.1631 30.8711c19.668 0 51.7949 -6.84668 54.1641 -30.8711c7.95898 -80.7568 11.5703 -163.25 33.9189 -241.664
c8.79102 -30.8535 19.1885 -63.9287 34.5918 -92.21c7.02832 -12.9004 19.4395 -30.7979 35.3711 -32.0576c15.6582 -1.23438 31.0049 13.6318 40.2246 24.709c22.6387 27.1943 37.0547 63.2881 51.1504 95.4492c14.623 33.3691 27.4756 67.54 37.7295 102.512
c0.419922 1.44629 0.80957 2.90527 1.22559 4.35547c-42.082 1.33789 -78.4355 28.8057 -88.6504 72.0098c-10.6309 44.9619 4.72461 100.871 42.8184 128.871c29.208 21.4658 80.5439 26.9658 103.897 -6.25195zM374.268 332.953
c1.70605 17.0576 11.4326 96.9121 -24.2969 81.916c-29.0439 -12.1895 -40.5537 -56.666 -41.3896 -84.5488c-0.848633 -28.3291 13.1855 -83.1426 51.6865 -78.3535c6.4873 26.6406 11.2764 53.6748 14 80.9863z" />
    <glyph glyph-name="w" unicode="w" horiz-adv-x="675" 
d="M654.718 252.423c6.86816 -4.77246 9.3125 -13.8594 0.00195312 -18.0811c-2.3125 -1.04395 -4.65527 -1.99707 -7.01074 -2.90234c-11.4541 -50.8428 -29.2646 -100.087 -53.0684 -146.456c-20.7383 -40.3887 -46.958 -80.457 -90.4258 -98.6709
c-44.4551 -18.625 -95.4365 -14.1738 -133.946 15.3379c-40.8828 31.3301 -59.0576 81.3242 -69.8271 129.915c-1.63281 7.37012 -3.05762 14.7705 -4.35645 22.1924c-6.41797 -20.6992 -13.8926 -41.043 -22.8994 -60.8066
c-25.2461 -55.3848 -63.5869 -111.307 -132.102 -104.478c-70.5371 7.03223 -101.599 77.5039 -112.923 138.752c-14.2168 76.8984 -9.56152 156.209 -1.6582 233.514c4.2002 41.082 106.548 38.9814 103.118 0c-5.46484 -62.0752 -10.7178 -124.125 -11.6924 -186.451
c-0.736328 -47.2529 -4.03613 -107.198 26.2197 -147.41c33.3613 -44.334 88.3828 81.501 97.2773 104.452c20.2705 52.3057 31.8936 107.331 43.3086 162.093c0.458984 2.2041 1.56738 4.0918 3.13477 5.68555c4.53809 40.0342 105.699 39.1729 106.69 -1.95703
c2.00488 -83.1338 -3.97559 -169.325 26.54 -248.522c4.95801 -12.8701 11.2539 -27.043 22.0107 -36.167c13.4287 -11.3936 26.71 -8.10645 41.4287 -0.19043c30.9404 16.6328 50.0029 49.665 65.9258 79.6572c22.0107 41.4629 39.5225 85.4023 51.457 130.793
c-26.9473 -0.255859 -53.7783 7.83789 -76.1055 24.6221c-38.5576 28.9873 -51.332 79.3408 -40.2725 125.078c10.168 42.043 40.8184 78.834 85.46 84.541c45.165 5.77637 79.9854 -22.8906 88.083 -66.54c8.0498 -43.3945 2.17383 -92.418 -6.65137 -136.748
c0.775391 -0.394531 1.56348 -0.753906 2.28223 -1.25195zM617.423 308.56c3.27832 33.5986 9.01953 78.1162 -10.9863 107.74c-29.0693 43.0479 -66.3574 -11.2246 -75.5029 -41.0127c-9.67871 -31.5078 -6.11523 -68.8789 13.7217 -95.8096
c14.2686 -19.374 39.1162 -33.9844 63.3535 -31.165c4.24414 19.876 7.43555 39.9814 9.41406 60.2471z" />
    <glyph glyph-name="x" unicode="x" horiz-adv-x="329" 
d="M324.252 -38.2559c19.7637 0.103516 29.126 -20.5732 5.52148 -23.2578c-117.854 -13.4111 -190.635 52.8945 -234.696 145.391c-20.4346 -37.1973 -37.9854 -75.915 -51.375 -116.494c-5.36523 -16.2607 -51.5225 -12.2812 -45.083 7.08398
c18.6592 56.1035 45.291 108.562 76.4561 158.391c-31.6074 90.6816 -41.7842 195.506 -42.7588 274.365c-0.498047 40.4629 96.7314 39.3242 102.17 0c7.14062 -51.6172 14.7705 -104.122 24.791 -156.013c14.7227 18.8887 29.7139 37.5654 44.9648 56.0127
c27.6533 33.4561 56.1641 68.874 92.6943 93.0332c8.95508 5.92383 46.5029 -0.121094 31.8789 -14.0215c-59.1523 -56.2246 -110.648 -120.322 -158.72 -186.352c5.23145 -22.7129 11.0557 -45.209 17.6426 -67.3545c11.4014 -38.3408 26.9346 -77.8984 51.6826 -109.696
c19.3916 -24.9209 50.5176 -61.2695 84.8311 -61.0879z" />
    <glyph glyph-name="y" unicode="y" horiz-adv-x="470" 
d="M453.943 -24.3896c2.28613 -59.8496 1.95801 -119.386 -4.87988 -178.971c-6.34375 -55.2939 -18.2041 -115.473 -44.667 -164.925c-46.2959 -86.5205 -155.528 -155.827 -253.438 -108.314c-108.925 52.8604 -58.4023 189.552 -16.5371 270.373
c49.3438 95.2588 122.301 175.95 197.324 251.584c0.489258 0.494141 1.05664 0.935547 1.6543 1.36035c-0.259766 7.05859 -0.52832 14.1172 -0.814453 21.1758c-1.91797 47.4434 -4.6543 95.5146 -6.21289 143.634c-7.10156 -22.9336 -14.7188 -45.707 -23.2021 -68.1943
c-23.2715 -61.6768 -54.5322 -160.084 -132.132 -168.225c-85.9229 -9.01562 -129.958 76.1191 -142.36 147.812c-15.0908 87.2344 -8.6084 177.639 5.01465 264.57c3.94922 25.2158 35.0498 32.3613 56.7666 32.3613c17.4121 0 58.542 -7.41309 56.7666 -32.3604
c-5.21777 -73.3555 -15.9268 -146.274 -15.6846 -219.985c0.108398 -32.2129 0.727539 -66.9248 8.5918 -98.3496c3.48633 -13.9219 7.8252 -27.9609 14.9658 -40.4883c5.6377 -9.89062 11.6484 -20.5127 23.1152 -17.7627c15.9092 3.81055 26.709 26.1895 34.0703 39.4658
c8.81641 15.9053 16.7061 32.3955 24.1934 48.959c14.126 31.2607 26.3027 63.3828 37.1543 95.917c21.8037 65.3486 38.207 132.326 54.5674 199.195c0.498047 2.03125 1.6582 3.75488 3.29492 5.17969c9.88574 27.5801 73.1689 23.0898 79.6562 -5.25684
c15.9443 -69.6885 21.8643 -141.359 28.7188 -212.477c6.62109 -68.6572 11.4404 -137.341 14.0732 -206.279zM326.238 -252.761c9.56543 81.8779 10.7178 164.211 8.77344 246.505c-61.4258 -65.6396 -118.456 -135.934 -157.681 -217.287
c-20.9072 -43.3594 -41.4805 -95.0684 -32.3652 -143.967c6.56055 -35.1758 28.8145 -84.4639 71.208 -83.3164c86.9268 2.35156 102.629 134.384 110.064 198.065z" />
    <glyph glyph-name="y" unicode="&#xff;" horiz-adv-x="470" 
d="M453.943 -24.3896c2.28613 -59.8496 1.95801 -119.386 -4.87988 -178.971c-6.34375 -55.2939 -18.2041 -115.473 -44.667 -164.925c-46.2959 -86.5205 -155.528 -155.827 -253.438 -108.314c-108.925 52.8604 -58.4023 189.552 -16.5371 270.373
c49.3438 95.2588 122.301 175.95 197.324 251.584c0.489258 0.494141 1.05664 0.935547 1.6543 1.36035c-0.259766 7.05859 -0.52832 14.1172 -0.814453 21.1758c-1.91797 47.4434 -4.6543 95.5146 -6.21289 143.634c-7.10156 -22.9336 -14.7188 -45.707 -23.2021 -68.1943
c-23.2715 -61.6768 -54.5322 -160.084 -132.132 -168.225c-85.9229 -9.01562 -129.958 76.1191 -142.36 147.812c-15.0908 87.2344 -8.6084 177.639 5.01465 264.57c3.94922 25.2158 35.0498 32.3613 56.7666 32.3613c17.4121 0 58.542 -7.41309 56.7666 -32.3604
c-5.21777 -73.3555 -15.9268 -146.274 -15.6846 -219.985c0.108398 -32.2129 0.727539 -66.9248 8.5918 -98.3496c3.48633 -13.9219 7.8252 -27.9609 14.9658 -40.4883c5.6377 -9.89062 11.6484 -20.5127 23.1152 -17.7627c15.9092 3.81055 26.709 26.1895 34.0703 39.4658
c8.81641 15.9053 16.7061 32.3955 24.1934 48.959c14.126 31.2607 26.3027 63.3828 37.1543 95.917c21.8037 65.3486 38.207 132.326 54.5674 199.195c0.498047 2.03125 1.6582 3.75488 3.29492 5.17969c9.88574 27.5801 73.1689 23.0898 79.6562 -5.25684
c15.9443 -69.6885 21.8643 -141.359 28.7188 -212.477c6.62109 -68.6572 11.4404 -137.341 14.0732 -206.279zM326.238 -252.761c9.56543 81.8779 10.7178 164.211 8.77344 246.505c-61.4258 -65.6396 -118.456 -135.934 -157.681 -217.287
c-20.9072 -43.3594 -41.4805 -95.0684 -32.3652 -143.967c6.56055 -35.1758 28.8145 -84.4639 71.208 -83.3164c86.9268 2.35156 102.629 134.384 110.064 198.065z" />
    <glyph glyph-name="y" unicode="&#xfd;" horiz-adv-x="470" 
d="M453.943 -24.3896c2.28613 -59.8496 1.95801 -119.386 -4.87988 -178.971c-6.34375 -55.2939 -18.2041 -115.473 -44.667 -164.925c-46.2959 -86.5205 -155.528 -155.827 -253.438 -108.314c-108.925 52.8604 -58.4023 189.552 -16.5371 270.373
c49.3438 95.2588 122.301 175.95 197.324 251.584c0.489258 0.494141 1.05664 0.935547 1.6543 1.36035c-0.259766 7.05859 -0.52832 14.1172 -0.814453 21.1758c-1.91797 47.4434 -4.6543 95.5146 -6.21289 143.634c-7.10156 -22.9336 -14.7188 -45.707 -23.2021 -68.1943
c-23.2715 -61.6768 -54.5322 -160.084 -132.132 -168.225c-85.9229 -9.01562 -129.958 76.1191 -142.36 147.812c-15.0908 87.2344 -8.6084 177.639 5.01465 264.57c3.94922 25.2158 35.0498 32.3613 56.7666 32.3613c17.4121 0 58.542 -7.41309 56.7666 -32.3604
c-5.21777 -73.3555 -15.9268 -146.274 -15.6846 -219.985c0.108398 -32.2129 0.727539 -66.9248 8.5918 -98.3496c3.48633 -13.9219 7.8252 -27.9609 14.9658 -40.4883c5.6377 -9.89062 11.6484 -20.5127 23.1152 -17.7627c15.9092 3.81055 26.709 26.1895 34.0703 39.4658
c8.81641 15.9053 16.7061 32.3955 24.1934 48.959c14.126 31.2607 26.3027 63.3828 37.1543 95.917c21.8037 65.3486 38.207 132.326 54.5674 199.195c0.498047 2.03125 1.6582 3.75488 3.29492 5.17969c9.88574 27.5801 73.1689 23.0898 79.6562 -5.25684
c15.9443 -69.6885 21.8643 -141.359 28.7188 -212.477c6.62109 -68.6572 11.4404 -137.341 14.0732 -206.279zM326.238 -252.761c9.56543 81.8779 10.7178 164.211 8.77344 246.505c-61.4258 -65.6396 -118.456 -135.934 -157.681 -217.287
c-20.9072 -43.3594 -41.4805 -95.0684 -32.3652 -143.967c6.56055 -35.1758 28.8145 -84.4639 71.208 -83.3164c86.9268 2.35156 102.629 134.384 110.064 198.065z" />
    <glyph glyph-name="z" unicode="z" horiz-adv-x="302" 
d="M247.99 6.44238c11.709 1.51953 31.4141 0.716797 38.75 -10.8408c7.19238 -11.3369 -3.1875 -19.5908 -13.4414 -23.3838c-39.9648 -14.7754 -81.0723 -25.0947 -123.64 -28.7539c-38.6787 -3.32617 -88.1611 -6.7168 -119.539 21.1963
c-33.4131 29.7275 -10.6748 69.748 8.62109 100.018c19.2744 30.2471 41.7051 58.1387 64.6641 85.6318c22.6738 27.1514 46.0967 53.8477 67.5488 81.9863c22.4482 29.4424 48.1484 62.3662 60.4902 97.6797c16.7451 47.9199 -31.4346 62.0674 -70.0654 61.5264
c-20.5254 -0.286133 -41.0078 -3.8457 -60.5596 -10.042c-6.57324 -2.07812 -54.0029 -17.7061 -51.8203 -26.1328c5.11426 -19.7207 -40.0078 -22.7607 -44.1689 -6.94238c-7.54785 28.6885 38.0898 42.8838 58.8496 50.8818
c32.0449 12.3457 66.9736 18.7334 101.313 18.6729c52.6875 -0.0957031 126.801 -21.7305 128.749 -85.6201c1.71875 -56.4199 -36.3574 -115.117 -67.3369 -159.339c-34.0625 -48.625 -73.5029 -95.042 -100.524 -148.214
c-3.30371 -6.50879 -6.56445 -13.1172 -7.94141 -20.3057c-0.307617 -1.59375 -0.0820312 -6.81152 -0.333008 -10.0986c2.92285 -0.498047 6.01465 -1.28223 8.49609 -1.43848c6.53906 -0.411133 13.2773 -0.078125 19.8164 0.177734
c34.1406 1.32031 68.2207 8.94141 102.071 13.3408zM112.574 -5.29395c0.654297 0.0820312 1.4209 0.0166016 2.16992 -0.0263672c-4.5166 8.86035 -0.957031 0.177734 -2.16992 0.0263672z" />
    <glyph glyph-name="braceleft" unicode="{" horiz-adv-x="515" 
d="M459.052 -260.247c8.0332 -6.7334 7.53809 -16.2285 -2.23535 -21.3994c-32.6416 -17.2607 -67.7783 -33.0322 -105.271 -34.21c-38.5488 -1.20801 -73.3691 12.8789 -102.638 37.4229c-53.5752 44.9268 -74.0312 114.771 -83.1641 181.384
c-9.57422 69.8184 -6.54688 140.615 -12.4365 210.732c-2.78906 33.1748 -6.20117 67.8828 -17.7891 99.3252c-5.20508 14.126 -11.6924 27.9873 -21.9688 39.1201c-2.9707 3.21777 -6.66406 5.78613 -9.69922 8.84375c-3.62402 1.84082 -5.54199 2.88477 -5.77148 3.15332
c-0.610352 0.078125 -1.24707 0.165039 -1.9834 0.260742c-13.584 1.99609 -59.0352 19.4521 -42.5361 42.7061c38.6611 54.4883 76.5381 109.232 104.979 169.9c27.7441 59.1787 46.7461 121.354 68.3545 182.888c21.8203 62.1406 44.3037 124.874 77.6689 181.918
c29.0049 49.582 63.9814 95.873 126.581 95.8555c24.7822 -0.00390625 23.8555 -21.3047 0 -22.8682c-30.8359 -2.01758 -55.1729 -34.2266 -64.5479 -60.9062c-9.25391 -26.3369 -14.4893 -54.5234 -20.374 -81.7617
c-11.7998 -54.6357 -18.9492 -110.246 -31.3252 -164.756c-12.7529 -56.1777 -28.0869 -113.187 -52.3545 -165.588c-21.041 -45.4336 -47.9062 -87.7109 -75.6035 -129.33c96.3799 -55.0947 93.6514 -208.393 99.0293 -310.26
c3.29492 -62.3955 8.53906 -124.791 27.666 -184.623c8.06738 -25.2324 15.2041 -54.8955 34.1494 -74.5596c22.0332 -22.8643 48.79 -9.93848 74.3906 0.948242c10.2676 4.36914 28.0439 3.20898 36.8779 -4.19629zM99.5811 263.725
c4.06152 -0.407227 3.74609 -0.298828 -0.891602 0.320312c0.233398 -0.078125 0.52832 -0.181641 0.891602 -0.320312z" />
    <glyph glyph-name="verticalbar" unicode="|" horiz-adv-x="242" 
d="M176.281 336.464c5.27441 -177.877 15.8369 -356.3 15.3906 -534.251c-0.129883 -51.6172 -127.861 -51.4521 -131.533 0.000976562c-12.7529 178.661 -10.3838 359.539 -9.04102 538.563c0.679688 90.5645 2.47656 180.999 5.71582 271.508
c3.12207 87.334 6.22656 178.31 27.999 263.158c5.56836 21.7168 54.8906 14.9229 59.4072 -4.58105c20.002 -86.3428 20.7598 -178.787 23.791 -267.199c3.04883 -89.0664 5.63379 -178.12 8.27051 -267.199z" />
    <glyph glyph-name="braceright" unicode="}" horiz-adv-x="515" 
d="M461.142 307.096c16.5205 -23.2881 -28.0439 -40.5791 -42.542 -42.6963c-0.736328 -0.0957031 -1.37305 -0.177734 -1.9834 -0.259766c-0.229492 -0.263672 -2.14746 -1.31152 -5.77148 -3.15234c-3.61621 -3.93164 -8.23633 -7.05859 -11.8047 -11.1855
c-9.93848 -11.4971 -16.1348 -26.0215 -21.0674 -40.2773c-10.9561 -31.6592 -14.2344 -66.3193 -16.8799 -99.5283c-5.49121 -68.9004 -2.74121 -138.45 -12.1465 -207.034c-9.31445 -67.9434 -30.4902 -138.385 -85.6973 -183.516
c-63.8682 -52.2109 -137.978 -36.7217 -205.37 -1.08301c-10.0332 5.30469 -10.1543 14.7402 -2.23438 21.3955c8.82129 7.40918 26.4717 8.62207 36.8779 4.19629c26.9473 -11.4629 54.4102 -24.2031 76.3955 1.15527c17.334 19.9893 24.2578 47.833 32.1475 72.4512
c19.166 59.8066 24.3623 122.241 27.666 184.624c5.39551 101.867 2.64551 255.17 99.0303 310.265c-28.4023 42.7012 -55.9082 86.0957 -77.2266 132.837c-23.4053 51.3271 -38.2715 107.188 -50.7295 162.075c-12.6484 55.7402 -19.8848 112.61 -32.1357 168.441
c-5.96289 27.1689 -11.1025 55.3027 -20.7764 81.4541c-9.37988 25.3545 -34.1533 55.6152 -63.335 57.5293c-24.0244 1.57227 -24.6133 22.8604 0 22.8691c62.6035 0.0214844 97.5801 -46.2568 126.58 -95.8564c33.3525 -57.0518 55.8486 -119.772 77.6689 -181.917
c21.6084 -61.5381 40.6406 -123.695 68.3545 -182.887c28.4111 -60.6768 66.3271 -115.421 104.979 -169.9zM415.118 263.728c0.363281 0.138672 0.65918 0.242188 0.892578 0.320312c-4.63379 -0.619141 -4.9541 -0.727539 -0.892578 -0.320312z" />
    <glyph glyph-name="nonbreakingspace" unicode="&#xa0;" horiz-adv-x="236" 
 />
    <glyph glyph-name="exclamdown" unicode="&#xa1;" horiz-adv-x="243" 
d="M183.367 222.078c5.89746 -122.229 15.9492 -248.32 4.18359 -370.384c-4.90625 -50.9072 -127.316 -51.2324 -130.114 0c-3.35645 61.5293 -1.22168 123.587 -1.08789 185.208c0.133789 60.2959 -0.567383 120.587 -1.82715 180.869
c-1.28613 61.707 -2.23926 123.405 -3.07031 185.121c-0.791992 58.9141 -5.00977 122.7 6.00195 180.739c3.4082 17.9756 22.4229 23.4707 38.5449 24.8867c13.1338 1.15625 43.793 -1.4502 48.7725 -18.1484c17.7588 -59.5381 21.0801 -125.762 26.2373 -187.474
c5.03223 -60.2266 9.44922 -120.453 12.3594 -180.818zM100.75 645.232c-10.2412 0 -31.7773 3.37891 -35.6924 15.4912c-7.49609 23.1885 -6.47461 49.3311 -4.8252 73.377c1.39844 20.3701 29.3594 25.3418 45.165 25.7441
c13.9004 0.355469 46.5117 -6.13184 45.165 -25.7441c-1.63672 -23.9082 -3.84082 -51.4668 -14.1172 -73.3779c-5.69043 -12.1338 -23.7656 -15.4902 -35.6953 -15.4902z" />
    <glyph glyph-name="cent" unicode="&#xa2;" horiz-adv-x="464" 
d="M414.298 111.339c-7.40039 -74.6377 -38.8018 -190.103 -112.426 -221.865c0.24707 -33.2441 0.515625 -66.4834 0.948242 -99.7227c0.242188 -18.4814 -47.041 -18.5029 -47.2275 0.000976562c-0.302734 30.5244 -0.480469 61.0488 -0.597656 91.5732
c-10.2891 0.537109 -21.1621 2.43359 -32.6631 5.93652c-113.528 34.5996 -154.961 162.231 -167.186 267.788c-13.3682 115.403 -0.191406 242.407 33.8057 353.338c16.3643 53.3926 38.3018 103.486 73.0264 147.655c27.8047 35.3662 67.8945 71.2861 113.796 76.249
c1.11719 21.2832 2.27734 42.5625 3.48145 63.8418c0.891602 15.7412 40.3408 15.2432 39.6484 0c-1.03027 -22.6299 -1.89648 -45.2686 -2.83594 -67.9072c47.0752 -14.9395 61.4863 -61.8066 69.3809 -106.534c10.3887 -58.8711 8.47461 -119.11 6.38281 -178.57
c-0.636719 -18.083 -46.0537 -17.793 -45.8066 0c0.736328 52.9775 1.93555 106.708 -7.61719 159.049c-4.26074 23.3496 -9.06348 52.1504 -24.6221 71.3857c-9.4707 -247.895 -13.4629 -496.062 -12.1943 -744.138c0.211914 0.19043 0.415039 0.363281 0.631836 0.558594
c13.3896 12.168 23.1592 27.9219 31.2871 43.9307c21.7949 42.9307 34.9893 89.8018 41.1387 137.431c2.02637 15.7109 41.1338 14.9658 39.6484 0zM254.887 -62.5469c-0.0126953 232.985 5.4248 465.861 16.1768 698.604
c-12.3115 -23.6787 -21.5088 -49.501 -28.9697 -74.1445c-12.7051 -41.9648 -23.4658 -84.666 -32.2734 -127.618c-19.0664 -92.959 -25.1025 -188.36 -17.8926 -282.979c3.20898 -42.082 10.5449 -84.208 23.5488 -124.424
c6.59961 -20.4092 14.6152 -39.9434 23.293 -59.5078c4.66406 -10.5137 9.32324 -20.9238 16.1172 -29.9307z" />
    <glyph glyph-name="sterling" unicode="&#xa3;" horiz-adv-x="427" 
d="M371.972 -33.6973c14.7061 -20.4873 -6.81641 -38.0693 -25.4541 -44.2793c-27.415 -9.14551 -55.3545 -15.8184 -83.6797 -21.5c-27.5928 -5.53418 -56.4111 -12.6572 -84.6621 -13.125c-26.8701 -0.446289 -59.6113 4.00488 -79.9854 23.6035
c-18.46 17.7588 -11.7871 37.5703 -8.34473 59.6338c16.3994 105.075 8.88672 210.38 1.68945 315.745c-4.96289 -0.615234 -9.93848 -1.17773 -14.9014 -1.80957c-6.91992 -0.887695 -23.2803 -0.485352 -26.1338 8.45703c-2.875 9.00293 7.37012 13.8486 14.8398 14.8965
c8.1709 1.14746 16.3418 2.26855 24.5176 3.37305c-4.26562 64.2148 -7.7041 128.446 -4.8291 192.656c3.30859 73.8838 5.20508 181.865 82.8008 218.521c29.4033 13.8877 67.3457 17.4814 96.4453 0.887695c27.333 -15.5889 41.627 -45.5029 50.0361 -74.5547
c4.98438 -17.2217 -34.3135 -20.0273 -39.1465 -6.15332c-6.33984 18.2002 -29.3604 75.1221 -56.3945 62.8193c-26.7959 -12.1943 -27.8096 -61.1016 -28.5156 -84.9229c-2.90527 -98.3115 10.7178 -196.61 22.752 -294.61
c22.0713 2.22559 44.1689 4.23926 66.3018 5.94141c7.24023 0.554688 23.9727 0.757812 27.0078 -8.74316c2.90137 -9.08105 -7.54297 -14.6494 -15.333 -15.3945c-24.9688 -2.38574 -49.9336 -4.8623 -74.8896 -7.4082c3.75 -31.6113 7.18848 -63.1885 9.66504 -94.7217
c5.41309 -68.8916 7.56543 -138.029 -0.250977 -206.83c-0.835938 -7.33984 -1.07812 -16.8926 -1.93945 -26.2939c24.9727 4.94043 49.8896 10.1279 75.0098 14.3457c23.1416 3.88477 58.3555 0.416016 73.3945 -20.5342zM218.015 -59.957
c1.78809 -2.62402 4.59473 -3.12695 0 0z" />
    <glyph glyph-name="currency" unicode="&#xa4;" horiz-adv-x="461" 
d="M407.746 531.701c-23.4189 -22.4053 -45.0938 -46.3945 -66.6504 -70.5664c31.9277 -43.5977 35.375 -100.971 18.4609 -152.472c-3.10059 -9.44434 -7.07129 -18.3516 -11.748 -26.7217c9.84766 -6.52539 18.4697 -15.4678 27.1045 -23.2715
c10.6826 -9.65234 18.6162 -19.3262 25.4629 -31.9971c10.2451 -18.9541 -38.1162 -23.3584 -47.4873 -11.4111c-8.01953 10.2236 -15.3076 20.3174 -22.5869 31.0605c-1.36426 2.01367 -2.87598 3.89258 -4.43945 5.72852
c-31.0957 -32.9189 -76.2354 -51.1885 -123.826 -49.123c-26.1289 1.13477 -50.5303 8.28418 -71.6406 20.3828c-11.3975 -14.5283 -22.332 -29.2949 -31.8721 -45.248c-9.18457 -15.3555 -55.3506 -8.99023 -45.542 7.15723
c13.3809 22.0283 28.541 43.3203 46.9277 61.4512c-17.6934 17.7539 -30.9619 40.2676 -37.8037 66.7002c-14.8701 57.4199 1.23047 124.558 37.7656 171.758c-17.1914 11.0811 -32.7715 23.8037 -46.8623 38.917c-7.46582 8.00684 0.333008 15.6367 8.46973 18.417
c9.44434 3.22656 25.0166 3.1875 32.3086 -4.82812c10.1201 -11.125 21.0928 -21.7217 32.6328 -31.5381c12.8096 4.41309 27.9697 5.01465 41.1387 3.56445c41.2852 28.208 108.54 8.50977 147.565 -21.6377c16.4814 20.0195 34.3486 38.7656 53.0732 56.8535
c7.54785 7.29688 21.9766 8.12012 31.334 4.68652c7.25781 -2.66309 15.9707 -10.4443 8.21484 -17.8623zM229.646 271.887c39.835 30.624 52.5244 93.9229 40.4814 140.539c-6.94629 26.8701 -26.5801 58.2646 -53.1602 66.6875
c0.416016 -3.49902 -0.263672 -7.26172 -2.39844 -11.2539c-25.3154 -47.3311 -47.4824 -89.8242 -37.8779 -145.646c3.35156 -19.4688 12.1855 -40.7695 27.6016 -53.834c10.0723 -8.53516 13.6143 -5.5166 25.3535 3.50781z" />
    <glyph glyph-name="yen" unicode="&#xa5;" horiz-adv-x="617" 
d="M543.241 169.521c7.41309 0.0605469 23.377 -3.04004 23.3682 -13.3203c0 -10.5576 -15.6543 -13.0176 -23.375 -13.3252c-16.7412 -0.666992 -33.4258 -1.52832 -50.0801 -2.5459c-7.55664 -62.4912 -22.5703 -123.549 -48.8594 -180.887
c-16.1475 -35.2188 -38.5742 -74.8799 -73.2432 -94.626c-33.958 -19.3438 -77.8975 -19.4473 -113.095 -3.49414c-64.6777 29.3203 -76.8936 99.1816 -76.0098 163.561c0.268555 19.4736 48.6514 19.417 49.5957 0c1.67969 -34.6426 3.90137 -75.7803 27.2461 -103.611
c6.46094 -7.69922 20.3916 -22.0625 31.707 -21.5684c3.02734 0.133789 -0.505859 0.302734 -0.713867 0.237305c4.65918 1.51562 7.8418 7.34863 10.4141 11.2939c16.7842 25.7529 25.4531 58.5293 33.3477 87.876c8.65625 32.1875 13.9092 65.626 18.4521 98.6104
c1.3252 9.61328 2.47754 19.2568 3.53027 28.9131c-13.8613 -1.9834 -27.7139 -4.10059 -41.5664 -6.5166c-7.43945 -1.29883 -25.4316 -0.28125 -28.4629 9.21094c-3.19141 9.99902 8.09766 14.8018 16.1611 16.2266c18.7588 3.31738 37.6221 6.33984 56.5459 9.07227
c1.51172 18.1094 2.58105 36.2666 3.26953 54.4414c-10.4365 -2.14746 -20.8428 -4.52051 -31.2441 -6.93262c-22.2754 -5.16211 -40.9092 18.0225 -11.9258 24.6562c14.6016 3.34277 29.2168 6.55566 43.9141 9.19238c0.389648 22.3145 0.293945 44.6289 -0.325195 66.874
c-1.58887 57.3594 -5.53809 114.788 -10.042 172.062c-1.94434 -14.3506 -4.04492 -28.6758 -6.44434 -42.957c-5.7373 -34.1836 -12.9434 -68.2549 -23.0811 -101.425c-9.05859 -29.6328 -19.3086 -60.9805 -38.9512 -85.5029
c-42.7148 -53.332 -121.332 -45.2383 -166.225 1.2998c-49.9805 51.8125 -65.5176 130.46 -66.96 200.122c-1.60645 77.5693 7.30957 155.039 15.1904 232.041c4.74219 46.3262 114.729 46.5684 118.275 0c6.2959 -82.666 -9.43164 -164.812 -8.51758 -247.591
c0.424805 -38.3584 3.29102 -76.7422 11.5186 -114.299c3.70703 -16.9189 6.77246 -34.3828 14.3027 -50.1367c3.6416 -7.62598 12.3369 -23.6348 21.7725 -24.6484c13.3379 -1.43359 28.0957 28.7051 32.6123 37.7168c8.11523 16.1953 14.2646 33.4648 19.8984 50.6562
c12.5059 38.1592 20.6553 77.5088 27.0811 117.097c12.2725 75.6074 19.4951 151.817 36.3701 226.637c-0.501953 21.8291 1.46387 43.7275 11.9609 59.6152c12.7051 19.2227 48.1445 19.418 64.3701 4.79492c19.04 -17.165 27.792 -44.9092 34.2441 -69.1846
c6.69434 -25.1768 12.4238 -50.5654 17.2129 -76.166c8.97266 -47.9414 14.9834 -96.0771 20.3525 -144.538c7.49609 -67.6523 13.3809 -138.072 12.5928 -208.197c6.24414 0.411133 12.4795 1.12988 18.7148 2.30762c21.8203 4.11816 40.3975 -18.6338 11.6748 -24.1377
c-10.3535 -1.9834 -20.6553 -2.87988 -30.9443 -3.25684c-0.554688 -15.7363 -1.48145 -31.4385 -2.83203 -47.0713c15.7412 0.749023 31.4775 1.29492 47.2012 1.4248z" />
    <glyph glyph-name="section" unicode="&#xa7;" horiz-adv-x="531" 
d="M478.197 696.514c11.1768 -15.6631 -16.123 -28.0244 -26.4248 -30.6924c-16.3691 -4.23535 -44.7158 -3.7373 -56.9883 10.6436c-10.9648 12.8398 -25.6406 23.9561 -40.5625 31.8721c-10.6875 5.66797 -3.53809 2.84473 -6.98926 0.857422
c-26.8135 -15.4502 -39.8223 -59.9619 -43.9141 -88.0264c-11.4707 -78.665 8.73926 -151.722 39.8223 -223.527c32.7939 -75.7637 72.0186 -148.124 83.875 -230.972c5.46094 -38.1982 6.4873 -84.2432 -14.3457 -118.375
c-11.1377 -18.2441 -26.0381 -33.9287 -44.2822 -42.957c7.54297 -17.2217 14.3809 -34.6816 19.8936 -52.5791c17.7197 -57.5332 21.3057 -123.363 -15.0479 -174.79c-45.8838 -64.9199 -134.751 -81.6348 -208.311 -62.2695
c-58.6328 15.4375 -116.928 66.0723 -114.871 131.23c1.30371 41.3154 91.5605 39.4795 105.924 8.1709c12.1377 -26.4453 25.3496 -51.9727 50.2227 -68.2158c6.41797 -4.1875 9.41895 -5.76855 15.001 -7.10645
c-0.666992 -0.0957031 -1.33789 -0.229492 -2.00488 -0.432617c1.89258 -0.467773 4.00586 -0.355469 6.28809 0.185547c0.359375 -0.0693359 0.666992 -0.125977 1.06152 -0.199219c-0.320312 0.0996094 -0.636719 0.147461 -0.953125 0.220703
c4.46875 1.09082 9.63086 3.95312 15.3467 8.20996c52.5527 39.1074 37.9727 124.082 19.292 175.934c-27.0693 75.127 -58.1006 146.378 -69.4766 226.217c-9.63477 67.6006 -15.082 139.632 35.708 190.929c-35.6084 77.4092 -61.8457 158.36 -41.4756 242.49
c14.6279 60.4258 52.6357 120.154 114.768 139.692c37.8643 11.9082 79.3057 8.76465 115.178 -7.88086c28.8574 -13.3896 45.2305 -33.3701 63.2666 -58.6289zM350.097 44.4883c4.23047 52.2197 -46.7637 177.311 -55.1865 195.961
c-12.6963 28.1299 -27.4453 56.8311 -42.1074 86.0693c-1.29004 -18.4121 1.95312 -37.873 5.98926 -55.4932c9.39258 -41.043 25.207 -81.3281 40.9307 -120.301c14.5625 -36.1064 33.0791 -70.957 50.374 -106.236z" />
    <glyph glyph-name="copyright" unicode="&#xa9;" horiz-adv-x="858" 
d="M790.748 457.237c23.3271 -98.4629 21.3379 -202.943 1.03711 -301.822c-19.4473 -94.7998 -59.3467 -187.079 -132.732 -252.696c-74.46 -66.583 -171.78 -99.4023 -271.3 -90.0752c-94.2803 8.83398 -184.615 59.0879 -243.053 133.405
c-136.146 173.14 -99.8008 404.41 -49.1055 601.869c4.13574 16.126 24.9561 23.2148 44.4033 25.8301c9.74316 31.3691 22.665 59.7109 33.6211 77.3096c52.7344 84.7012 141.315 129.603 239.869 132.851c191.722 6.30957 335.58 -150.747 377.26 -326.671z
M687.619 177.442c18.4258 86.1865 24.1631 177.488 10.5918 264.797c-21.9287 141.112 -119.097 292.574 -273.72 305.483c-73.9883 6.1748 -143.992 -26.666 -188.742 -85.3076c-20.7383 -27.1816 -36.5225 -58.8496 -47.3135 -91.5303
c18.5039 -5.10156 39.7617 -15.4336 36.3359 -32.9453c-7.15332 -36.5527 -14.7139 -73.2695 -21.3477 -110.138c7.5957 -0.376953 21.3662 -3.36914 21.3662 -12.8789c0 -10.0684 -15.1777 -12.8789 -22.665 -12.9219
c-1.08301 -0.00390625 -2.11816 0.0351562 -3.1709 0.0566406c-9.72559 -58.6973 -16.2598 -117.811 -14.0771 -177.353c3.17383 -86.6201 23.4141 -179.675 79.1582 -248.64c22.1367 -27.3848 48.2227 -51.002 78.6953 -68.7178
c16.0439 -9.32715 26.3848 -14.0381 42.8877 -19.2695c3.27832 -1.03906 6.62988 -2.05273 9.98145 -2.94922c0.978516 -0.15625 5.71582 -1.17383 6.14844 -1.24316c1.73633 -0.277344 19.9932 -2.35156 17.75 -2.50293
c5.78516 -0.229492 11.5879 -0.220703 17.3691 -0.0566406c-2.68457 -0.078125 -9.9375 -1.39453 3.23926 0.254883c8.6084 1.07812 17.334 2.30371 25.7568 4.4209c5.37793 1.35156 24.6309 8.23242 34.9844 13.2471c31.6631 15.3379 59.2646 37.0156 83.3457 62.5254
c55.1211 58.3945 86.832 138.056 103.426 215.668zM531.112 230.732c-2.16113 16.3428 41.3789 17.4219 43.9209 -0.0078125c11.5879 -79.8555 -22.3535 -176.751 -102.387 -208.298c-83.9307 -33.0791 -167.16 40.0996 -196.724 113.104
c-33.6943 83.2158 -18.209 178.098 4.85449 261.968c23.2715 84.6191 92.8555 169.247 190.167 153.233c78.2061 -12.8701 112.84 -114.659 102.148 -184.248c-3.67676 -23.9424 -59.5771 -24.6738 -61.9111 0c-3.65527 38.7607 -8.65234 79.9121 -31.3438 112.966
c-4.83691 7.04102 -12.3584 11.7354 -17.2256 18.4043c-0.138672 0.172852 -0.259766 0.306641 -0.393555 0.466797c-7.09277 -7.375 -21.1016 -24.8691 -22.1797 -26.7441c-18.9668 -32.9668 -29.5762 -71.6455 -38.6006 -108.337
c-9.75586 -39.6787 -16.8623 -80.8945 -18.0879 -121.79c-1.12988 -37.6738 3.41699 -76.2178 15.832 -111.887c5.90234 -16.9658 13.2295 -32.6895 22.8779 -47.8584c6.35254 -9.99902 15.6543 -27.6455 28.6104 -30.4951
c27.2334 -5.98926 54.9648 45.8496 63.8682 64.9287c16.8281 36.0547 21.7607 75.335 16.5732 114.594zM459.313 501.396c-1.36426 1.12988 -2.0752 1.01758 -2.10938 -0.350586c0.766602 0.129883 1.4209 0.238281 2.10938 0.350586z" />
    <glyph glyph-name="softhyphen" unicode="&#xad;" 
 />
    <glyph glyph-name="registered" unicode="&#xae;" horiz-adv-x="858" 
d="M790.748 457.237c23.3232 -98.4629 21.3408 -202.943 1.04492 -301.822c-19.4521 -94.7998 -59.3516 -187.079 -132.733 -252.696c-74.46 -66.583 -171.78 -99.4023 -271.3 -90.0752c-94.2842 8.83398 -184.615 59.0879 -243.053 133.405
c-136.15 173.14 -99.8018 404.41 -49.1113 601.869c4.13965 16.126 24.96 23.2148 44.4072 25.8301c9.73926 31.3691 22.665 59.7109 33.6211 77.3096c52.7344 84.7012 141.315 129.603 239.869 132.851c191.722 6.30957 335.58 -150.747 377.255 -326.671zM687.622 177.442
c18.4258 86.1865 24.168 177.488 10.5928 264.797c-21.9248 141.112 -119.098 292.574 -273.717 305.483c-73.9883 6.1748 -143.997 -26.666 -188.742 -85.3076c-20.7422 -27.1816 -36.5264 -58.8496 -47.3174 -91.5303c18.5078 -5.10156 39.7607 -15.4336 36.3398 -32.9453
c-7.15332 -36.5527 -14.7139 -73.2695 -21.3477 -110.138c7.59082 -0.376953 21.3613 -3.36914 21.3613 -12.8789c0 -10.0684 -15.1777 -12.8789 -22.665 -12.9219c-1.08301 -0.00390625 -2.11328 0.0351562 -3.16992 0.0566406
c-9.72559 -58.6973 -16.2559 -117.811 -14.0732 -177.353c3.16992 -86.6201 23.4141 -179.675 79.1582 -248.64c22.1367 -27.3848 48.2227 -51.002 78.6953 -68.7178c16.04 -9.32715 26.3848 -14.0381 42.8877 -19.2695c3.27344 -1.03906 6.62988 -2.05273 9.97754 -2.94922
c0.978516 -0.15625 5.7207 -1.17383 6.15332 -1.24316c1.73242 -0.277344 19.9893 -2.35156 17.75 -2.50293c5.78516 -0.229492 11.583 -0.220703 17.3682 -0.0566406c-2.68945 -0.078125 -9.94238 -1.39453 3.23926 0.254883
c8.60449 1.07812 17.334 2.30371 25.7568 4.4209c5.37793 1.35156 24.6309 8.23242 34.9844 13.2471c31.6631 15.3379 59.2607 37.0156 83.3457 62.5254c55.1162 58.3945 86.832 138.056 103.422 215.668zM541.972 483.979
c21.2969 2.30762 49.9385 -2.57031 57.6982 -25.7812c7.47461 -22.3662 -10.7559 -45.7109 -24.7559 -61.0615c-31.7676 -34.8242 -72.4551 -61.0312 -109.869 -90.3564c24.3145 0.4375 48.4521 2.62012 73.2217 7.89062
c11.6572 2.47656 36.8379 -0.0302734 42.1553 -13.6445c5.78516 -14.8184 -12.8652 -21.6729 -23.9336 -24.0283c-47.4434 -10.0898 -98.7188 -13.9697 -147.071 -6.31348c-1.9834 -11.0557 -2.50781 -22.0283 -0.796875 -32.5684
c0.731445 -4.52051 -2.17383 -7.88965 -6.79883 -10.0205c-0.0390625 -0.800781 -0.0693359 -1.60645 -0.112305 -2.41211c-0.818359 -16.7588 -0.960938 -33.5645 -2.12109 -50.2969c-0.779297 -11.2803 -5.58594 -28.5107 -0.307617 -39.2461
c12.4717 -25.3408 -42.7051 -24.3496 -53.9941 -17.915c-30.4902 17.3818 -29.3037 55.4932 -30.9404 86.498c-2.06543 39.2021 -1.87012 78.0977 -0.155273 117.313c1.7627 40.415 4.47754 80.917 9.30566 121.09c4.54688 37.8125 7.2832 78.8643 21.6211 114.325
c10.5488 26.082 82.9219 25.6963 84.5332 -6.52148c1.77539 -35.5088 -7.55176 -72.4248 -11.6611 -107.804c-2.50293 -21.5176 -4.84961 -43.0439 -6.92383 -64.5957c3.57227 5.75977 7.28809 11.4326 11.1592 17.001c28.6064 41.1904 66.9043 82.7227 119.747 88.4473z
M548.996 429.484c2.70605 5.13184 10.3516 21.4727 3.96875 26.8467c-5.98926 5.03223 -20.292 -3.6543 -25.709 -6.60352c-35.4824 -19.3086 -61.3037 -57.7705 -80.877 -91.8848c-4.7373 -8.2627 -9.80371 -17.2695 -14.6621 -26.7314
c25.3193 16.1436 49.6777 33.707 73.2178 52.6309c15.8535 12.7402 34.4219 27.4678 44.0615 45.7422z" />
    <glyph glyph-name="mu" unicode="&#xb5;" horiz-adv-x="570" 
d="M513.039 579.894c9.44434 -77.6992 7.96973 -157.641 0.907227 -235.487c-4.35645 -47.9932 -123.938 -46.3906 -121.115 0c3.84082 63.2227 11.2539 125.995 13.4883 189.356c0.706055 19.9062 0.580078 39.7432 0.0908203 59.5889
c-8.76465 -26.6406 -17.9922 -53.0342 -28.8135 -78.9814c-19.5859 -46.9795 -39.5918 -125.099 -102.295 -127.043c-44.4854 -1.38184 -76.0488 31.416 -95.1504 69.1768c-0.757812 -71.7188 0.203125 -143.455 3.08301 -215.122
c3.23047 -80.5137 7.16699 -160.911 14.0908 -241.209c3.39062 -39.3018 6.57324 -78.6641 9.05859 -118.04c2.56348 -40.5059 0.983398 -77.4482 -4.3252 -117.616c-3.57227 -26.9863 -61.3174 -28.0518 -71.5068 -5.5166
c-18.335 40.5576 -30.6113 79.3838 -38.999 123.133c-7.49121 39.0596 -13.2676 78.5303 -17.6885 118.04c-8.80762 78.7168 -16.1045 157.828 -19.6768 236.97c-3.56836 79.1191 -4.81543 158.352 -3.89746 237.54c0.944336 81.6309 1.00098 164.912 12.7188 245.829
c4.03613 27.8613 38.9824 35.7334 62.6914 35.7334c20.7812 0 62.5908 -7.97168 62.6904 -35.7334c0.0478516 -12.5234 -0.125 -25.042 -0.388672 -37.5654c0.541016 -1.10449 0.900391 -2.2998 0.991211 -3.60742c5.09668 -73.291 1.19043 -160.11 40.5312 -225.265
c7.99805 -13.2383 19.6729 -30.5557 34.3223 -37.2158c17.3428 -7.88965 29.1123 17.1436 35.6123 29.7617c17.2256 33.4521 27.1982 68.3457 34.8027 105.032c7.11914 34.335 14.5283 68.6182 23.0068 102.654c7.08008 28.4199 10.5225 67.3457 42.792 77.249
c86.8359 26.6484 105.998 -94.2549 112.979 -151.662z" />
    <glyph glyph-name="paragraph" unicode="&#xb6;" horiz-adv-x="595" 
d="M544.497 -69.0674c0.723633 -40.4453 3.25293 -81.2695 -9.02344 -120.381c-6.85059 -21.8418 -57.2168 -18.0225 -66.0938 0c-18.9023 38.3838 -22.25 82.7607 -27.3467 124.652c-4.83691 39.7744 -10.0938 79.627 -13.1074 119.587
c-6.01074 79.7695 -10.0635 159.47 -12.207 239.438c-1.93555 72.0693 -2.84082 144.165 -2.82324 216.261c-9.68262 -5.16602 -19.4736 -10.085 -29.4033 -14.6836c-0.172852 -4.65039 -0.375977 -9.29688 -0.514648 -13.9473
c-2.17773 -73.0742 -1.88281 -146.27 0.12207 -219.344c2.04004 -74.4121 6.85547 -148.772 12.4629 -222.99c5.27051 -69.7881 19.2188 -142.386 11.3154 -212.178c-4.16113 -36.752 -72.0693 -29.7197 -87.7969 -6.77344
c-20.7295 30.2305 -25.5664 74.876 -32.3779 110.077c-6.98926 36.124 -12.584 72.4121 -17.5469 108.869c-9.88184 72.6113 -15.6797 145.591 -19.2871 218.773c-3.27344 66.3975 -3.93555 132.833 -2.55859 199.277
c-2.48535 -0.220703 -4.9541 -0.493164 -7.44824 -0.662109c-58.1348 -3.89258 -141.671 4.88477 -178.639 56.9697c-40.6572 57.2734 29.3164 110.463 75.417 133.016c39.2021 19.1787 82.3799 33.8975 126.324 41.9385c0.839844 5.38672 1.71875 10.7695 2.66699 16.1387
c4.99316 28.3203 38.9736 36.4053 63.873 36.4053c20.7549 0 64.3223 -8.16309 63.8721 -36.4053c-0.078125 -4.81934 -0.238281 -9.63477 -0.359375 -14.4502c7.19238 -1.3252 14.3291 -2.90137 21.3877 -4.78906c1.50293 32.3301 4.35645 64.5088 9.77832 96.2246
c7.11035 41.623 104.045 43.4111 108.327 0c8.10254 -82.1123 1.49414 -165.744 0.844727 -248.124c-0.62793 -79.873 -0.0693359 -159.755 1.68848 -239.61c1.75781 -79.8125 4.00098 -159.651 6.66895 -239.438c1.37695 -41.251 1.04785 -82.5801 1.78418 -123.853z
M249.346 498.412c1.4502 49.4824 3.54395 99.1562 9.02148 148.379c-48.3789 -11.5186 -103.4 -32.4775 -129.525 -70.2861c-44.3857 -64.2314 67.748 -82.3145 107.306 -79.4521c4.42969 0.320312 8.82031 0.791992 13.1982 1.35938zM413.861 567.049
c-0.0654297 25.2109 -0.178711 50.5508 0.228516 75.875c-6.9541 3.13965 -14.0557 5.98047 -21.4561 8.14551c-1.51172 -33.3691 -3.65527 -66.7129 -5.52148 -100.074c8.49609 4.97168 16.8838 10.0684 25.1289 15.2393
c0.494141 0.307617 1.0957 0.52832 1.62012 0.814453z" />
    <glyph glyph-name="questiondown" unicode="&#xbf;" horiz-adv-x="428" 
d="M316.232 9.16016c84.7617 -36.3057 76.2158 -147.467 13.3174 -201.388c-59.6465 -51.1279 -151.484 -54.0938 -213.019 -4.55078c-65.5098 52.7432 -72.1309 152.094 -63.5312 229.343c10.2891 92.3965 44.1484 179.428 74.6299 266.546
c14.8311 42.3936 29.3164 85.1855 39.4541 128.987c10.4668 45.2129 11.7656 91.1836 20.3789 136.496c9.73047 51.1885 118.006 49.9199 128.693 0c9.12012 -42.6064 -1.41992 -89.6338 -11.2539 -131.309c-9.95508 -42.1943 -23.8291 -83.3154 -38.9551 -123.908
c-26.7783 -71.8535 -56.7744 -142.295 -78.2871 -216.01c-19.1143 -65.4834 -34.4004 -140.484 -21.8428 -208.7c5.05762 -27.4805 16.1738 -56.9746 40.748 -72.4727c25.8525 -16.2998 56.3125 -11.7744 79.7656 6.47754c50.0938 38.9863 75.8291 139.905 5.01562 172.105
c-20.21 9.18945 12.7871 23.5664 24.8857 18.3828zM241.177 646.355c-16.2432 -0.411133 -48.1621 6.43457 -48.4824 27.6318c-0.368164 24.5312 0.368164 51.293 9.54395 74.374c5.16211 12.9736 25.8223 16.4209 37.8438 16.4209
c12.9561 0 31.1221 -3.81543 37.8428 -16.4209c11.7441 -22.0371 13.623 -49.877 11.7305 -74.374c-1.68457 -21.8682 -31.3516 -27.1943 -48.4785 -27.6318z" />
    <glyph glyph-name="Agrave" unicode="&#xc0;" horiz-adv-x="590" 
d="M561.917 336.754c5.03613 -130.403 4.75488 -261.368 3.77637 -391.854c-0.329102 -43.793 -110.216 -43.7236 -111.641 0c-4.24805 130.551 6.2832 261.249 5.90625 391.848c-0.0566406 18.8408 -0.0908203 37.9336 -0.24707 57.1514
c-25.2588 -7.30957 -50.3096 -15.8535 -74.9404 -23.7002c-40.0342 -12.7529 -79.7607 -26.458 -119.146 -41.0859c-28.2334 -10.4922 -56.2852 -21.4648 -84.1592 -32.8623c-1.46777 -6.59082 -2.92285 -13.1816 -4.36523 -19.7686
c-11.8174 -54.0508 -21.4219 -108.518 -32.5293 -162.712c-11.4277 -55.7617 -31.0352 -114.888 -28.1074 -172.144c0.861328 -16.8193 -40.5586 -16.5898 -42.9658 0c-10.0029 68.9824 4.70312 144.689 15.7236 212.927c5.97168 36.9639 12.3506 73.8711 19.3271 110.661
c-27.376 -12.1123 -54.5752 -24.6445 -81.5488 -37.6445c-9.24512 -4.45605 -23.7002 -6.27441 -32.7246 0c-7.29688 5.07129 -9.37109 14.0303 0 18.6553c40.082 19.7812 80.6143 38.6143 121.597 56.4121c3.68945 18.2178 7.53027 36.4053 11.5918 54.5449
c13.6016 60.7676 30.1084 120.968 49.6074 180.111c18.5342 56.2119 39.5449 112.562 72.5078 162.119c27.8828 41.9219 65.167 78.6475 117.551 84.3379c59.8838 6.50391 109.098 -30.291 133.435 -82.9697c25.6006 -55.415 37.4873 -118.521 45.7148 -178.588
c8.41797 -61.4561 13.2422 -123.467 15.6367 -185.438zM363.942 395.531c31.4209 9.99023 63.7549 17.9062 95.4229 27.4414c-1.44238 84.875 -6.96387 171.465 -30.2002 251.633c-6.30957 21.7559 -15.2217 48.0059 -34.2969 62.04
c-16.8145 12.3721 -30.1865 2.05273 -44.3594 -10.3711c-36.9893 -32.4258 -59.9658 -81.6055 -78.6035 -126.178c-35.7646 -85.5156 -60.8418 -176.11 -81.9648 -266.688c15.6973 6.24414 31.4385 12.3799 47.2617 18.2998c41.8701 15.667 84.1338 30.2773 126.74 43.8223z
M297.648 872.318c-16.9961 -4.00977 -43.1855 16.6533 -17.4678 23.6123c75.209 20.3438 149.375 44.2734 223.394 68.541c9.83398 3.22656 28.4326 3.75488 35.8721 -5.36035c7.49121 -9.18066 0.046875 -17.0918 -9.40625 -20.4482
c-76.0625 -27.0088 -153.861 -47.8242 -232.392 -66.3447z" />
    </font>
</defs>
</svg>
