<?xml version="1.0" standalone="no"?>
<!DOCTYPE svg PUBLIC "-//W3C//DTD SVG 1.1//EN" "http://www.w3.org/Graphics/SVG/1.1/DTD/svg11.dtd" >
<svg xmlns="http://www.w3.org/2000/svg" xmlns:xlink="http://www.w3.org/1999/xlink" version="1.1">
<metadata>
Created by FontForge 20170812 at Fri Nov  4 18:34:07 2022
 By www-data
</metadata>
<defs>
<font id="TimeoutRegular" horiz-adv-x="0" >
  <font-face 
    font-family="Timeout"
    font-weight="400"
    font-stretch="normal"
    units-per-em="1000"
    panose-1="0 0 0 0 0 0 0 0 0 0"
    ascent="800"
    descent="-200"
    x-height="427.451"
    cap-height="881.861"
    bbox="-194 -499 1073.93 1062.36"
    underline-thickness="50"
    underline-position="-100"
    unicode-range="U+000A-20AC"
  />
<missing-glyph horiz-adv-x="527" 
d="M50 700h427v-700h-427v700zM78 680l185 -309l186 309h-371zM251 350l-180 300v-601zM264 329l-185 -308h370zM276 350l181 -303v605z" />
    <glyph glyph-name=".notdef" horiz-adv-x="527" 
d="M50 700h427v-700h-427v700zM78 680l185 -309l186 309h-371zM251 350l-180 300v-601zM264 329l-185 -308h370zM276 350l181 -303v605z" />
    <glyph glyph-name=".null" 
 />
    <glyph glyph-name=".null" 
 />
    <glyph glyph-name="LF" unicode="&#xa;" 
 />
    <glyph glyph-name="controlCR" unicode="&#xd;" 
 />
    <glyph glyph-name="space" unicode=" " horiz-adv-x="275" 
 />
    <glyph glyph-name="exclam" unicode="!" horiz-adv-x="216" 
d="M159.029 755.537c10.1494 -109.461 6.66113 -220.469 4.36133 -330.226c-2.31641 -110.58 -4.98047 -221.393 -12.1963 -331.776c-1.59277 -24.3467 -28.7324 -33.3193 -49.4404 -34.6484c-17.6396 -1.12891 -52.6025 7.7793 -51.7373 31.1162
c2.32227 62.8037 6.63965 125.553 10.2842 188.295c6.35742 109.438 12.4121 218.857 17.9102 328.344c2.70508 53.8701 4.49414 107.853 5.14746 161.783c0.325195 26.8691 0.75 53.7734 0.625 80.6426c-0.0673828 14.4609 0.666016 28.9023 1.82129 43.3242
c1.04883 13.0996 5.08594 24.4688 7.23145 37.2119c1.44727 8.58594 16.5547 9.86328 20.5596 2.53516c8.61816 -15.7705 16.6738 -28.4551 22.3779 -45.8467c4.46875 -13.6211 7.79492 -27.165 10.5518 -41.2305c5.82617 -29.7031 9.71191 -59.3965 12.5039 -89.5244z
M131.898 7.6582c14.252 -14.0361 8.3291 -36.8779 7.84375 -55.5107c-0.511719 -19.5791 -0.344727 -39.0137 0.990234 -58.5635c2.27734 -33.4092 -74.582 -36.3818 -76.3613 -2.66699c-1.07812 20.4609 -1.5957 41.2275 0.0839844 61.6748
c0.845703 10.2979 2.48047 20.5986 4.12793 30.79c2.12012 13.1289 5.13477 18.7588 15.957 26.583c12.8652 9.30371 35.7578 9.12402 47.3584 -2.30664z" />
    <glyph glyph-name="quotedbl" unicode="&#x22;" horiz-adv-x="261" 
d="M107.466 914.59c7.76953 -1.13574 25.4521 -7.70312 23.6348 -18.792c-4.52637 -27.5674 -13.5596 -52.2842 -14.2637 -80.7227c-0.746094 -29.9834 -68.2275 -31.0068 -66.8154 -2.33301c1.51172 30.6943 6.24707 64.7246 22.4678 91.2754
c6.21582 10.1758 24.4756 12.1064 34.9766 10.5723zM209.638 886.591c3.06543 -14.6152 0.604492 -31.1592 -0.53418 -45.958c-1.01367 -13.2129 -15.7314 -18.7207 -27.2842 -19.123c-8.71191 -0.305664 -30.418 4.27832 -28.5518 17.1719
c2.38086 16.4268 3.67773 35.0566 10.3916 50.3408c7.3418 16.7129 41.999 16.5361 45.9785 -2.43164z" />
    <glyph glyph-name="quotedbl" unicode="&#x201d;" horiz-adv-x="261" 
d="M107.466 914.59c7.76953 -1.13574 25.4521 -7.70312 23.6348 -18.792c-4.52637 -27.5674 -13.5596 -52.2842 -14.2637 -80.7227c-0.746094 -29.9834 -68.2275 -31.0068 -66.8154 -2.33301c1.51172 30.6943 6.24707 64.7246 22.4678 91.2754
c6.21582 10.1758 24.4756 12.1064 34.9766 10.5723zM209.638 886.591c3.06543 -14.6152 0.604492 -31.1592 -0.53418 -45.958c-1.01367 -13.2129 -15.7314 -18.7207 -27.2842 -19.123c-8.71191 -0.305664 -30.418 4.27832 -28.5518 17.1719
c2.38086 16.4268 3.67773 35.0566 10.3916 50.3408c7.3418 16.7129 41.999 16.5361 45.9785 -2.43164z" />
    <glyph glyph-name="quotedbl" unicode="&#x201c;" horiz-adv-x="261" 
d="M107.466 914.59c7.76953 -1.13574 25.4521 -7.70312 23.6348 -18.792c-4.52637 -27.5674 -13.5596 -52.2842 -14.2637 -80.7227c-0.746094 -29.9834 -68.2275 -31.0068 -66.8154 -2.33301c1.51172 30.6943 6.24707 64.7246 22.4678 91.2754
c6.21582 10.1758 24.4756 12.1064 34.9766 10.5723zM209.638 886.591c3.06543 -14.6152 0.604492 -31.1592 -0.53418 -45.958c-1.01367 -13.2129 -15.7314 -18.7207 -27.2842 -19.123c-8.71191 -0.305664 -30.418 4.27832 -28.5518 17.1719
c2.38086 16.4268 3.67773 35.0566 10.3916 50.3408c7.3418 16.7129 41.999 16.5361 45.9785 -2.43164z" />
    <glyph glyph-name="numbersign" unicode="#" horiz-adv-x="711" 
d="M659.335 911.237c-28.6318 -70.4053 -55.5977 -141.483 -80.7393 -213.211c-19.8818 -56.7295 -38.5762 -113.881 -56.2666 -171.348c22.8545 -1.35156 45.5127 -4.26953 68.1191 -10.25c6.4375 -1.70215 12.3184 -8.02344 10.0732 -14.9043
c-2.46777 -7.57324 -12.9229 -10.1182 -19.6719 -10.6074c-23.292 -1.69238 -46.5518 -1.68555 -69.8271 -1.48242c-9.09473 -30.3945 -17.9092 -60.873 -26.4219 -91.4355c20.5117 -0.743164 41.0176 -1.74414 61.5137 -2.98926
c9.81836 -0.594727 23.4971 -9.24219 19.4111 -20.7178c-4.43359 -12.4561 -21.4746 -13.9678 -32.4512 -13.2793c-19.2803 1.20605 -38.5791 2.14844 -57.8877 2.82715c-4.75488 -17.5332 -9.43262 -35.082 -14.0039 -52.6572
c-33.7275 -129.696 -58.1641 -261.612 -92.3711 -391.138c-5.52051 -20.9014 -60.249 -21.2197 -58.7695 3.10742c4.6582 76.5146 16.9277 152.582 32.1475 227.682c14.5674 71.8857 31.126 143.334 49.4443 214.322
c-29.7285 -0.0966797 -59.457 -0.77832 -89.1543 -2.06152c-0.485352 -0.0195312 -0.970703 -0.0517578 -1.45605 -0.0712891c-2.92773 -12.9355 -5.82617 -25.8779 -8.67676 -38.8359c-14.9502 -67.9766 -27.4131 -136.34 -39.8184 -204.812
c-6.19238 -34.1777 -11.8027 -68.5264 -18.3242 -102.637c-3.53516 -18.4951 -6.77832 -37.627 -12.083 -55.6748c-4.4043 -14.9814 -9.50293 -28.9111 -24.1631 -35.9883c-18.4727 -8.9209 -36.8965 2.96973 -41.0791 20.915
c-4.76172 20.4219 -2.50684 41.6582 -1.67676 62.4082c1.5791 39.5283 6.31738 79.4268 11.3008 118.669c9.76367 76.917 22.3457 153.548 37.498 229.66c-5.6748 -0.466797 -11.3525 -0.916992 -17.0273 -1.40625c-19.7334 -1.70508 -39.4443 -3.6709 -59.123 -5.90332
c-18.3691 -2.08496 -37.4082 -5.63379 -55.9062 -4.90332c-6.89453 0.273438 -17.3018 1.66309 -20.3643 9.20703c-2.76953 6.82324 2.71875 13.3086 9.00781 15.5703c37.875 13.624 82.3027 15.0137 122.098 19.3145c9.45508 1.01953 18.916 1.94238 28.3867 2.79785
c5.79395 27.6123 11.9385 55.1475 18.3984 82.5986c-49.6816 -4.54883 -99.373 -8.98535 -149.209 -11.6357c-10.5811 -0.563477 -30.0479 4.41992 -30.2598 18.1982c-0.21582 14.0488 17.665 19.6816 28.918 20.2676c53.4521 2.76953 106.743 7.5918 160.034 12.4043
c2.80859 11.3438 5.65234 22.6807 8.57031 33.9951c34.9951 135.639 76.8623 270.704 133.663 398.914c16.3652 36.9453 112.591 30.1992 95.3926 -13.6748c-27.9824 -71.3867 -55.2441 -143.086 -79.4297 -215.859c-21.3936 -64.3604 -40.3096 -129.354 -57.5205 -194.809
c32.3506 2.41895 64.7432 4.33984 97.1709 5.2793c40.2168 134.081 86.7803 266.268 139.18 396.105c13.5088 33.4736 98.6035 25.5439 83.3545 -11.9512zM400.602 399.53c7.95605 29.8027 16.2432 59.5127 24.833 89.1318
c-31.5693 -1.2002 -63.1064 -3.25293 -94.5986 -5.74902c-0.408203 -0.0351562 -0.820312 -0.0703125 -1.22852 -0.102539c-7.14551 -28.3037 -14.0137 -56.6816 -20.6406 -85.1299c30.543 1.26465 61.0889 1.86914 91.6348 1.84961z" />
    <glyph glyph-name="dollar" unicode="$" horiz-adv-x="506" 
d="M441.384 267.887c10.501 -29.5967 17.6396 -60.7314 14.127 -92.2168c-2.83789 -25.4375 -10.4209 -53.3711 -21.957 -76.3604c-28.6094 -57.0029 -88.6172 -94.0859 -151.009 -99.8799c2.28418 -37.6562 4.375 -75.3154 5.125 -112.975
c0.385742 -19.4922 -38.5146 -19.0928 -42.4746 -1.48242c-8.60547 38.2764 -12.4912 77.5146 -13.7812 116.939c-17.752 3.52637 -35.0439 9.89941 -51.1777 19.4414c-43.0859 25.4854 -67.6963 72.3867 -73.5967 121.132c-7.3252 60.5293 14.3838 120.206 38.9395 174.424
c3.95703 8.7373 26.5957 6.59473 22.2266 -3.18848c-27.416 -61.3916 -51.5889 -131.25 -31.3535 -198.468c14.5732 -48.4072 49.2988 -83.4287 94.5439 -96.0488c-0.507812 35.3779 0.833984 70.8174 2.53613 105.771c3.45801 71.0293 11.375 142.062 13.1826 213.138
c0.601562 23.7031 1.08105 47.4131 1.58594 71.123c-40.4707 39.5576 -81.8936 78.291 -118.819 120.641c-39.0264 44.7559 -75.2666 98.2656 -79.2363 159.252c-3.23633 49.7139 25.7754 113.74 72.3262 136.144c22.832 10.9863 44.0225 23.7676 68.7842 30.3916
c19.4277 5.19922 40.3838 6.96191 60.6738 5.41113c-0.0351562 41.0078 -0.0742188 82.0195 -0.0322266 123.031c0.00976562 8.65723 19.3086 9.26855 19.5664 0.682617c1.26758 -42.25 2.07227 -84.5 2.59668 -126.753c42.7295 -8.71875 81.5791 -32.7314 106.366 -68.9014
c5.17285 -7.54395 -14.9209 -12.373 -19.4375 -6.06445c-20.3027 28.3652 -52.29 49.8584 -86.7578 57.6279c0.353516 -33.3545 0.582031 -66.7119 0.678711 -100.079c0.208984 -71.7666 -0.0351562 -143.53 -0.730469 -215.294
c-0.102539 -10.5713 -0.273438 -21.1494 -0.472656 -31.7305c23.3789 -24.3789 46.9277 -48.5967 69.293 -73.9248c39.7598 -45.0264 78.0039 -94.6084 98.2842 -151.782zM250.843 553.412c1.24805 96.7725 1.26562 193.54 1.19531 290.312
c-16.5488 0.755859 -33.21 -1.85938 -49.0215 -8.57031c-11.4756 -4.87402 -24.6943 -12.0703 -32.4248 -22.2461c-4.11816 -5.41797 -5.50195 -12.2861 -9.20117 -18.1416c-3.20117 -5.06348 -7.02637 -9.63184 -9.9668 -14.8857
c-13.4893 -24.1152 -15.8662 -50.1289 -13.4922 -77.2002c4.96094 -56.5918 43.1963 -106.231 79.0635 -147.597c10.8291 -12.4883 21.9863 -24.6748 33.2852 -36.7256c0.176758 11.6816 0.411133 23.3691 0.5625 35.0537zM420.696 127.302
c3.83789 15.7891 -0.475586 34.2432 -4.91504 49.498c-8.78613 30.1924 -22.4297 59.2363 -39.6406 85.5098c-29.7998 45.4893 -66.2881 85.4932 -104.616 123.953c-0.392578 -25.415 -0.53418 -50.8135 -0.0576172 -76.1768
c1.3291 -70.7109 2.05664 -141.451 5.38965 -212.104c1.3125 -27.7861 3.0498 -55.5752 4.76172 -83.3672c50.7852 4.13379 101.625 34.9277 126.213 79.9473c5.61426 10.2822 10.0957 21.3486 12.8652 32.7402z" />
    <glyph glyph-name="percent" unicode="%" horiz-adv-x="810" 
d="M736.202 995.907c19.4502 -6.76855 30.7441 -23.5 18.6895 -42.0596c-48.7197 -75.0098 -102.448 -146.744 -152.892 -220.621c-88.8008 -130.057 -170.038 -264.359 -248.235 -400.982c-80.25 -140.2 -152.325 -284.579 -224.587 -428.98
c-8.23535 -16.4551 -29.3486 -21.4541 -46.3604 -18.9707c-13.6016 1.98535 -34.1875 12.6143 -27.7305 29.5977c32 84.1494 68.6074 166.709 107.74 247.772c70.0293 145.067 147.67 285.75 231.983 422.997c42.3848 68.9902 86.1045 137.275 131.932 204.036
c45.5508 66.3584 91.5996 132.766 144.228 193.735c15.0625 17.4492 44.5469 20.6758 65.2324 13.4756zM199.027 532.717c-60.8604 -9.16895 -115.896 28.3789 -137.483 84.5488c-23.3203 60.6904 -8.46387 132.914 19.1934 189.516
c14.6348 29.9473 95.1104 27.5889 81.502 -11.6855c-0.624023 -1.79492 -1.24805 -3.59961 -1.875 -5.41113c27.6895 5.20508 56.6523 3.16895 82.1641 -9.77051c48.8066 -24.7588 69.5859 -85.8867 62.209 -137.575c-7.94336 -55.668 -49.1152 -101.097 -105.71 -109.622z
M148.45 753.799c-12.9033 -42.0371 -21.1982 -86.0625 -6.86914 -128.725c6.44727 -19.1895 18.2666 -40.9531 36.4463 -51.4023c18.0127 -10.3555 38.3193 -1.49609 52.4902 11.6006c38.666 35.7354 36.9316 107.489 7.50488 148.159
c-14.7627 20.4023 -36.4268 31.4756 -61.7607 28.1621c-10.0566 -1.3125 -19.2705 -3.99219 -27.8115 -7.79492zM504.277 276.15c33.2939 6.57227 69.8877 -2.42969 93.6904 -27.4326c37.1699 -39.042 39.5928 -101.997 24.0928 -150.884
c-16.0273 -50.5596 -45.8691 -98.8281 -101.039 -111.385c-62.3633 -14.1934 -115.416 27.7861 -124.556 88.7275c-9.50977 63.415 20.9141 125.518 48.8926 180.198c9.70605 18.9707 33.7764 24.832 53.6035 21.9365c1.60254 -0.234375 3.4043 -0.626953 5.31543 -1.16113z
M559.849 46.7012c44.791 36.7002 58.9385 102.184 40.624 156.186c-9.01465 26.5791 -26.8438 50.0635 -54.7227 58.0703c-6.2959 1.80762 -12.6436 2.7666 -18.9395 2.95312c5.69141 -5.62305 8.50977 -12.7227 4.21191 -20.8203
c-26.6885 -50.2793 -59.126 -108.199 -52.1318 -167.242c1.98828 -16.7871 8.36133 -43.1797 26.4385 -50.0029c17.5107 -6.61133 41.9922 10.5938 54.5195 20.8564z" />
    <glyph glyph-name="ampersand" unicode="&#x26;" horiz-adv-x="628" 
d="M549.024 742.994c46.7275 -88.6074 34.7744 -197.498 -19.3916 -279.894c-51.4443 -78.2812 -135.79 -127.882 -215.914 -172.101c-42.417 -23.4102 -84.8145 -46.5957 -124.005 -75.25c-1.75977 -1.28711 -3.47754 -2.63477 -5.2207 -3.94043
c8.74414 -18.4141 18.2217 -36.4775 28.4844 -54.0752c22.6836 -38.8945 49.4785 -77.4902 81.4756 -110.362c1.95312 0.904297 3.90234 1.81445 5.8457 2.75098c82.3994 39.7441 168.26 124.479 159.441 223.358c-0.755859 8.52246 18.5918 9.28125 19.5693 0.681641
c2.40918 -21.1748 0.569336 -42.2695 -5.19238 -62.791c-12.2373 -43.585 -39.6016 -79.1758 -69.0342 -112.54c-25.9268 -29.3877 -51.0137 -56.6973 -84.9922 -75.5137c26.1289 -22.2559 55.3623 -40.4834 88.1602 -52.3701
c13.2383 -4.79297 -1.13574 -15.8047 -10.417 -12.4297c-19.8076 7.20312 -38.7783 16.3818 -56.5723 27.6992c-13.5244 8.59961 -26.335 18.2246 -38.5273 28.6289c-73.0176 -31.3564 -173.377 -25.6748 -227.494 38.6895
c-13.1191 15.6025 -24.7363 35.1494 -25.2217 56.0703c-0.53125 22.9248 11.3848 43.4043 25.4824 60.583c21.3838 26.0615 47.5254 48.6035 74.9707 68.7646c-28.5518 68.7871 -46.4004 141.94 -52.3682 216.229c-7.35449 91.5518 3.64746 187.903 39.7979 272.873
c33.0166 77.6025 97.7959 158.029 189.097 160.912c44.2607 1.39941 87.6299 -17.1631 122.77 -43.0635c39.1582 -28.8574 76.1934 -59.1787 99.2568 -102.911zM276.272 39.6035c-42.8193 43.9004 -76.6953 97.6133 -103.767 151.293
c-1.39941 2.77344 -2.73145 5.5752 -4.0918 8.36426c-11.1982 -9.09473 -22.0205 -18.6367 -32.1445 -28.9414c-16.0918 -16.375 -35.6035 -37.2148 -36.1572 -61.5908c-0.936523 -41.124 47.5449 -70.9531 82.5439 -79.1982
c32.4697 -7.65039 63.6943 -1.57617 93.6162 10.0732zM478.32 524.846c16.6035 45.5381 19.7314 91.1084 13.7764 139.001c-5.29883 42.5781 -21.4258 85.6963 -41.0469 123.706c-21.0205 40.7246 -58.1426 72.4004 -104.275 80.3887
c-99.4756 17.2246 -169.595 -90.6631 -197.893 -170.44c-31.1279 -87.7461 -38.6396 -183.882 -26.6621 -275.945c7.6084 -58.5029 22.96 -115.928 45.0576 -170.628c4.85449 3.35547 9.72559 6.64355 14.5967 9.87012c74.7588 49.5205 159.419 89.7021 223.828 153.21
c32.3955 31.9453 57.0059 68.0186 72.6182 110.838z" />
    <glyph glyph-name="quotesingle" unicode="'" horiz-adv-x="168" 
d="M109.553 893.453c10.5293 -12.4082 8.70508 -26.5615 8.36426 -42.0938c-0.353516 -15.8984 -1.65918 -31.6875 -2.87207 -47.5381c-1.17383 -15.3584 -18.2949 -21.7568 -31.7168 -22.2266c-10.1016 -0.350586 -35.3975 4.9834 -33.1904 19.9619
c2.46094 16.71 4.74512 33.4326 8.08398 49.9941c3.50293 17.375 5.16602 31.3438 18.7256 43.4883c7.7207 6.91699 25.5371 6.30566 32.6055 -1.58594z" />
    <glyph glyph-name="quotesingle" unicode="&#x2019;" horiz-adv-x="168" 
d="M109.553 893.453c10.5293 -12.4082 8.70508 -26.5615 8.36426 -42.0938c-0.353516 -15.8984 -1.65918 -31.6875 -2.87207 -47.5381c-1.17383 -15.3584 -18.2949 -21.7568 -31.7168 -22.2266c-10.1016 -0.350586 -35.3975 4.9834 -33.1904 19.9619
c2.46094 16.71 4.74512 33.4326 8.08398 49.9941c3.50293 17.375 5.16602 31.3438 18.7256 43.4883c7.7207 6.91699 25.5371 6.30566 32.6055 -1.58594z" />
    <glyph glyph-name="quotesingle" unicode="&#x2018;" horiz-adv-x="168" 
d="M109.553 893.453c10.5293 -12.4082 8.70508 -26.5615 8.36426 -42.0938c-0.353516 -15.8984 -1.65918 -31.6875 -2.87207 -47.5381c-1.17383 -15.3584 -18.2949 -21.7568 -31.7168 -22.2266c-10.1016 -0.350586 -35.3975 4.9834 -33.1904 19.9619
c2.46094 16.71 4.74512 33.4326 8.08398 49.9941c3.50293 17.375 5.16602 31.3438 18.7256 43.4883c7.7207 6.91699 25.5371 6.30566 32.6055 -1.58594z" />
    <glyph glyph-name="parenleft" unicode="(" horiz-adv-x="537" 
d="M482.771 -30.4971c7.82031 -8.74707 5.4541 -20.751 -4.40625 -27.0664c-25.8945 -16.5938 -56.54 -25.6084 -86.2686 -32.8271c-28.0752 -6.82031 -57.2832 -10.623 -86.1855 -9.47754c-61.0342 2.42285 -119.543 24.3213 -160.059 71.541
c-29.835 34.7734 -48.5615 77.0977 -61.127 120.779c-14.6309 50.8682 -23.8506 103.593 -29.3613 156.192c-11.3945 108.747 -4.3457 217.899 18.3857 324.755c21.6641 101.82 56.0703 206.41 113.061 294.304c26.3672 40.6641 58.4541 78.751 98.04 107.129
c21.001 15.0527 45.3867 30.7969 71.9053 32.3955c16.8154 1.01367 41.1592 -6.61035 37.8008 -27.5693c-1.35449 -8.43555 -14.5352 -9.43652 -19.8887 -4.22461c-1.93066 2.09473 -4.19824 3.45898 -6.77148 4.15723
c-0.736328 -0.234375 -1.84277 -0.533203 -3.42578 -0.916016c-3.7998 -3.2334 -8.12402 -6.12598 -12.0781 -9.19824c-8.78613 -6.81738 -17.3721 -13.6084 -25.2793 -21.4609c-16.3457 -16.2402 -31.1406 -33.9697 -44.1211 -53.0049
c-26.1318 -38.3184 -45.6016 -81.9707 -62.3623 -125.073c-67.7383 -174.218 -94.7744 -363.61 -69.1855 -549.374c10.3232 -74.958 25.1377 -165.384 79.4062 -222.593c12.2217 -12.8809 26.2158 -23.3779 42.124 -29.9629
c8.51855 -3.52637 16.8857 -6.08398 22.7891 -7.31641c4.95117 -1.03223 10.002 -1.73047 15.0234 -2.31641c-0.922852 0.106445 10.7744 -0.694336 10.1152 -0.791016c43.1182 -1.1582 80.2363 12.6367 122.979 20.7666c12.4277 2.36426 29.7578 1.37012 38.8906 -8.84766z
" />
    <glyph glyph-name="parenright" unicode=")" horiz-adv-x="538" 
d="M472.672 532.041c18.8682 -106.556 20.4629 -215.767 4.51562 -322.827c-14.001 -94 -35.5361 -198.259 -112.324 -262.099c-40.918 -34.0205 -96.252 -48.6387 -148.803 -47.1748c-51.0518 1.42188 -111.938 12.5273 -155.385 40.8154
c-30.1084 19.6045 10.8799 42.1719 31.9033 38.2305c48.4492 -9.08203 91.4844 -25.4404 139.454 -20.5059c-3.48047 -0.563477 -2.41602 -0.40625 3.18848 0.46875c3.32324 0.556641 6.63086 1.19727 9.91895 1.92773c-1.16797 -0.260742 10.3682 2.83398 9.78223 2.50879
c9.16211 2.95312 18.2471 6.83594 26.1318 11.6611c16.1621 9.88965 28.4189 22.5264 39.8203 37.8047c22.8828 30.6553 35.9668 68.2051 45.8203 104.809c11.292 41.9473 18.6367 84.9824 23.3203 128.14c10.1016 93.0508 7.09082 187.749 -6.75879 280.269
c-13.7051 91.5645 -39.709 181.849 -75.9688 267.04c-15.8438 37.2275 -33.8115 74.9189 -57.2705 108.017c-12.334 17.4014 -26.5986 33.6797 -41.957 48.4717c-7.91406 7.62109 -34.0596 36.9414 -44.5283 26.4922c-4.87988 -4.87402 -18.6553 -6.05176 -20.1318 2.82422
c-4.51367 27.1172 32.7275 30.502 51.0293 26.542c27.1943 -5.88379 51.5381 -23.7285 72.9609 -40.6982c43.2891 -34.2969 77.998 -81.334 104.069 -129.693c50.6621 -93.9805 82.6465 -198.152 101.212 -303.022z" />
    <glyph glyph-name="asterisk" unicode="*" horiz-adv-x="368" 
d="M305.727 769.918c15.6152 0.881836 16.0049 -15.5537 0.576172 -16.4453c-33.2256 -1.91406 -66.2969 -5.18262 -99.1982 -9.64746c-1.40918 -1.80176 -2.81836 -3.60352 -4.22754 -5.4082c33.0781 -30.7227 64.8145 -62.8809 96.5029 -95.0225
c9.42969 -9.56445 -14.3926 -16.3848 -21.5508 -9.05957c-28.8857 29.5557 -57.8174 59.0791 -87.7812 87.5469c-0.305664 -0.395508 -0.608398 -0.794922 -0.914062 -1.19043c-0.125 -38.4121 -0.0380859 -76.8301 1.00781 -115.28
c0.430664 -15.7666 -35.8418 -16.04 -34.8379 -1.21582c1.73438 25.666 3.03125 51.3379 4.1416 77.0098c-14.0938 -19.293 -27.8564 -38.8301 -41.2363 -58.6309c-11.7129 -17.334 -60.4482 -7.30664 -44.6777 15.2129c22.9668 32.7949 46.9502 64.8535 71.915 96.1494
c-26.666 -4.93457 -53.207 -10.6289 -79.5713 -17.2236c-13.4316 -3.3584 -23.9326 11.8066 -7.41602 15.915c32.3672 8.05273 65.0049 14.8154 97.8379 20.3975c-7.0293 6.26074 -14.1162 12.457 -21.3027 18.5371c-7.40234 6.26074 -14.8857 12.4277 -22.4746 18.46
c-5.43066 4.32031 -10.9219 8.56641 -16.4648 12.7393c-1.9082 1.44141 -3.83203 2.86621 -5.75879 4.28516c-6.50781 -4.08887 -19.8711 -2.59277 -20.3701 5.25c-1.41895 22.2529 28.207 12.5859 38.042 5.56934c19.0391 -13.5859 37.2441 -28.5068 55.0059 -43.7881
c1.1709 32.46 2.42188 64.9238 4.19434 97.3838c0.527344 9.65723 21.8184 10.4326 21.9531 0.765625c0.395508 -28.1201 0.388672 -56.2246 0.289062 -84.3262c17.6299 20.2197 36.9746 39.0977 59.4102 51.3193c6.22852 3.39355 22.915 0.875 19.9717 -9.12402
c-5.57812 -18.9551 -20.6279 -34.6895 -32.834 -49.7969c-4.77051 -5.90332 -9.46387 -11.8682 -14.1709 -17.8232c27.8789 3.33008 55.8672 5.8623 83.9395 7.44141z" />
    <glyph glyph-name="plus" unicode="+" horiz-adv-x="357" 
d="M289.899 410.563c14.1455 2.49609 25.6152 -13.5469 7.8252 -16.7959c-26.7568 -4.88379 -53.4551 -10.0537 -80.1025 -15.4873c0.00683594 -0.228516 0.00976562 -0.459961 0.0166016 -0.688477c1.04199 -38.9199 2.14258 -77.7891 4.64551 -116.651
c2.30371 -35.7188 11.1572 -78.1846 -3.76074 -111.765c-6.84961 -15.4199 -37.8008 -19.2549 -48.2695 -5.80469c-24.6465 31.666 -27.0781 75.8105 -31.875 114.634c-4.13379 33.4541 -7.74609 67.0498 -10.2646 100.685
c-2.48633 -0.594727 -4.98242 -1.1416 -7.46582 -1.75293c-17.9414 -4.40723 -38.0098 -13.0742 -56.4697 -12.1992c-6.93555 0.328125 -21.1289 7.63086 -10.1426 14.7568c15.291 9.92188 37.3564 11.1641 55.0342 14.9404c5.89648 1.26074 11.793 2.53516 17.6895 3.80566
c-4.66113 75.2891 -4.59375 151.418 1.20312 226.572c1.66602 21.5674 25.6816 30.5557 44.543 31.2148c16.0146 0.55957 47.2432 -6.67578 46.6123 -28.0342c-2.07227 -70.3799 -3.28516 -140.612 -1.89551 -210.982c24.1826 4.73535 48.4072 9.26465 72.6768 13.5527z" />
    <glyph glyph-name="comma" unicode="," horiz-adv-x="207" 
d="M89.8643 99.6885c7.52441 27.6152 76.4502 20.9619 65.7568 -9.42676c-10.5166 -29.8926 -21.1172 -59.7178 -32.3418 -89.3506c-9.06543 -23.9385 -18.2148 -54.3174 -41.4258 -68.2861c-9.45801 -5.69141 -34.8311 -6.14453 -31.5654 10.7002
c10.2041 52.6543 25.4756 104.613 39.5762 156.363z" />
    <glyph glyph-name="hyphen" unicode="-" horiz-adv-x="320" 
d="M268.26 411.639c7.64355 -17.0537 -12.4141 -30.0918 -26.7207 -32.8389c-49.3213 -9.46777 -101.897 -19.1797 -152.271 -18.3203c-14.3291 0.244141 -34.5293 4.15332 -38.7275 20.4609c-3.85449 14.9727 13.6846 26.7891 26.7266 28.5361
c47.3135 6.34082 94.3408 9.29102 141.339 18.54c15.8027 3.11133 41.8838 0.956055 49.6533 -16.3779z" />
    <glyph glyph-name="period" unicode="." horiz-adv-x="178" 
d="M108.93 39.3906c7.44434 -1.7666 19.2969 -7.50684 18.9531 -17.0811c-0.537109 -15.0654 -5.85449 -27.4062 -5.78711 -41.9697c0.0771484 -17.2979 -21.4805 -23.7998 -35.2139 -24.6777c-8.24219 -0.527344 -18.6045 1.57617 -25.7178 5.9707
c-4.87109 3.01074 -11.6816 9.6123 -11.1318 16.1914c1.89453 22.668 8.39258 41.7617 26.4531 56.4189c8.41895 6.83301 22.4131 7.52441 32.4443 5.14746z" />
    <glyph glyph-name="slash" unicode="/" horiz-adv-x="604" 
d="M516.381 923.337c15.1621 -1.75684 46.4834 -17.4424 35.3555 -37.7354c-37.3438 -68.1279 -74.5654 -136.362 -109.988 -205.517c-62.7686 -122.538 -120.688 -247.56 -173.587 -374.676c-26.5059 -63.6953 -52.8115 -127.454 -77.4834 -191.886
c-12.1992 -31.8652 -24.9521 -63.5088 -37.2412 -95.3418c-6.58496 -17.0537 -13.8906 -33.6572 -21.1836 -50.418c-7.07129 -16.2529 -17.4629 -30.8809 -24.293 -47.0977c-9.33887 -22.1787 -63.9424 -20.2969 -57.4209 8.23242
c2.11719 9.25879 1.86328 19.2217 3.41406 28.7246c1.62109 9.94434 3.73438 19.6152 6.03125 29.4209c4.52637 19.3086 9.93457 38.1475 15.7764 57.1055c11.1152 36.0664 22.9287 71.7891 35.6426 107.321c92.3135 257.983 207.553 511 345.867 747.674
c12.209 20.8916 35.9248 26.8789 59.1104 24.1924z" />
    <glyph glyph-name="zero" unicode="0" horiz-adv-x="601" 
d="M417.708 821.52c58.9141 -43.8682 89.7959 -109.632 107.403 -179.313c19.3535 -76.5791 27.6602 -155.156 25.627 -234.104c-1.98535 -77.1328 -11.4785 -156.205 -33.7793 -230.243c-21.0264 -69.8105 -55.6289 -144.637 -123.235 -179.915
c-72.8408 -38.0098 -156.842 -19.457 -213.024 38.2959c-48.208 49.5557 -69.582 118.456 -77.7891 185.619c-18.9775 155.285 0.234375 317.635 45.8076 466.727c7.95215 26.0195 72.5059 21.0938 63.4404 -9.0957c-43.9551 -146.39 -62.3018 -306.266 -39.4219 -458.138
c9.01074 -59.7891 30.2754 -117.664 76.2051 -158.9c17.4014 -15.6221 42.9805 -31.5752 64.332 -29.5742c5.89355 0.553711 16.3135 3.95703 24.8584 8.67676c10.9385 6.04492 20.7285 13.9658 29.1377 23.1572c41.8896 45.7725 61.208 112.521 73.9414 171.824
c14.1582 65.9336 19.3379 134.506 18.6367 201.861c-0.701172 67.3398 -8.04883 135.712 -26.2412 200.693c-15.0625 53.8184 -38.9746 111.404 -86.8867 144.038c-11.5977 7.89746 -21.7666 13.4502 -34.5098 17.7773c-6.3252 2.14551 -8.23242 2.65039 -12.9395 3.4873
c-3.25293 0.579102 -6.55371 1.00977 -9.83496 1.36035c-0.34375 0.0390625 -3.63184 0.106445 -4.65527 0.145508c-21.3389 -0.206055 -41.5127 -7.00098 -63.1348 -21.5908c-51.2773 -34.5996 -75.0391 -91.5967 -102.886 -144.356
c-7.27734 -13.7852 -22.9707 -18.2188 -37.6602 -17.5557c-9.77344 0.4375 -32.9268 6.74609 -30.9834 21.1846c11.0703 82.2861 58.8564 156.385 132.949 195.401c74.3301 39.1455 167.113 32.8203 234.643 -17.4629z" />
    <glyph glyph-name="one" unicode="1" horiz-adv-x="416" 
d="M71.5098 742.724c-5.5498 -7.4668 -27.3037 -3.17773 -20.043 6.82129c24.501 33.7568 50.6426 66.2852 78.6025 97.249c13.415 14.8564 26.3223 30.1631 39.7119 45.0352c1.91113 2.12695 3.84766 4.09277 5.80371 5.98438
c0.144531 0.543945 0.266602 1.09375 0.417969 1.63379c6.71094 24.2119 60.0049 24.9678 69.0283 2.41309c12.1318 -30.3174 13.7402 -66.3193 16.4043 -98.5967c2.56738 -31.0645 4.62012 -62.1836 6.65332 -93.2861c14.7822 -226.296 15.7861 -454.566 2.22266 -680.98
c-0.379883 -6.29883 -2.32617 -11.6621 -5.29199 -16.2754c3.47461 -1.21582 6.99707 -2.37109 10.6162 -3.39746c21.9209 -6.20605 43.3301 0.160156 63.2793 9.625c11.5039 5.45898 37.2402 -3.77051 22.0264 -17.2793
c-30.4531 -27.0391 -77.8184 -29.3525 -114.802 -15.8086c-5.5498 2.03027 -10.7842 3.99316 -15.8926 5.76855c-5.72363 -1.34766 -11.4785 -2.1709 -16.8379 -2.51465c-11.3271 -0.723633 -29.1689 2.20996 -42.3779 9.70605
c-6.90039 -0.678711 -13.7686 -1.97559 -19.8682 -4.9834c-8.31641 -4.10547 -14.0166 -11.0576 -20.7207 -17.1377c-8.80859 -7.98828 -42.5332 -11.3887 -37.1445 8.79883c6.85254 25.6719 33.0039 37.1084 60.6709 41.6572
c2.94043 63.4248 6.28613 126.817 8.47656 190.274c3.93457 113.891 6.36621 227.907 6.4502 341.865c0.0419922 56.3691 1.14258 112.735 1.00781 169.111c-0.0703125 29.0498 -0.922852 58.1416 -0.401367 87.1826c0.263672 14.5986 -0.0126953 29.5322 0.740234 44.3408
c-10.2852 -10.4648 -19.8105 -21.5605 -28.7607 -31.5107c-24.6816 -27.4414 -47.9512 -56.083 -69.9717 -85.6963z" />
    <glyph glyph-name="two" unicode="2" horiz-adv-x="497" 
d="M82.7129 684.996c1.58301 -11.4717 -24.0254 -12.8945 -27.5703 -3.40137c-19.9072 53.3613 21.7441 101.604 61.0088 132.607c42.6523 33.6768 96.2002 59.2754 150.591 64.7705c48.0986 4.86133 95.7852 -10.3809 129.284 -45.7266
c34.3164 -36.208 49.6357 -87.5205 50.9961 -136.462c2.97559 -106.961 -32.4248 -212.532 -79.0078 -307.375c-47.3262 -96.3545 -106.108 -186.587 -152.367 -283.434c-11.2949 -23.6455 -22.4775 -47.6484 -31.8359 -72.1367
c-2.22949 -5.8291 -2.97949 -12.874 -5.45703 -18.4561c-0.0996094 -0.228516 -0.176758 -0.415039 -0.263672 -0.624023c3.97266 -0.148438 7.91992 -0.113281 11.9092 0.00292969c57.4639 1.68262 114.168 10.4141 170.602 20.7861
c13.1094 2.40918 36.752 1.09961 42.8125 -14.124c6.04199 -15.1777 -10.333 -25.4434 -23.04 -28.3135c-62.543 -14.123 -126.167 -20.6123 -189.881 -26.5859c-33.7217 -3.15918 -70.123 -10.291 -97.5938 15.7451c-24.1152 22.8545 -15.3232 52.7705 -4.5332 79.6045
c77.6992 193.272 227.596 350.633 288.26 551.819c14.9434 49.5527 27.3809 105.936 15.6768 157.45c-11.4336 50.3242 -51.9658 82.3311 -103.439 83.0225c-47.9697 0.643555 -94.7715 -22.4521 -132.794 -50.1416c-34.8574 -25.3857 -79.8262 -72.1846 -73.3564 -119.028z
M166.125 15.6895c0.0449219 -0.0839844 0.263672 -0.161133 0.591797 -0.235352c-0.367188 0.154297 -0.598633 0.248047 -0.591797 0.235352z" />
    <glyph glyph-name="three" unicode="3" horiz-adv-x="482" 
d="M84.7871 745.776c-3.7998 -12.2412 -34.6592 -12.8076 -34.7842 1.83691c-0.640625 70.9492 73.8057 113.383 133.823 128.789c57.6279 14.792 126.032 17.3174 173.584 -24.0156c38.3252 -33.3096 53.082 -91.7119 46.7793 -140.634
c-8.05273 -62.5049 -43.2217 -115.304 -83.3447 -162.17c-20.0459 -23.417 -41.4814 -45.29 -64.5771 -65.1133c49.1152 -4.88965 94.9229 -22.2012 127.229 -65.3906c42.3691 -56.6396 54.4912 -138.405 45.1074 -207.331
c-9.88965 -72.6416 -42.4883 -145.843 -105.105 -187.877c-55.9863 -37.585 -128.438 -46.2773 -187.739 -10.3721c-63.917 38.7051 -73.2949 109.175 -72.6514 178.107c0.09375 9.97949 22.5195 10.5518 22.4297 0.785156
c-0.630859 -67.292 7.92285 -148.439 84.0518 -169.836c50.293 -14.1328 100.756 10.8057 132.859 48.957c40.915 48.626 47.4004 110.413 45.0234 171.688c-2.03613 52.4219 -11.7705 114.225 -48.5898 154.502c-39.0742 42.7422 -93.9189 31.8584 -143.355 22.5576
c-18.5781 -3.49414 -43.9902 -1.3418 -55.79 15.6729c-11.3818 16.4131 2.75098 31.8135 17.8105 38.6309c53.1748 24.0674 97.6699 63.8691 138.491 104.852c36.9062 37.0547 74.2402 77.5576 91.1719 128.046c13.7178 40.9111 8.43555 90.7344 -22.0752 122.94
c-35.2656 37.2217 -94.334 29.3428 -138.7 15.6572c-50.708 -15.6416 -85.9287 -49.6621 -101.647 -100.283z" />
    <glyph glyph-name="four" unicode="4" horiz-adv-x="457" 
d="M78.2627 277.454c-24.54 10.8223 -30.4854 34.5957 -27.5898 59.4375c3.68359 31.5918 15.0498 61.8037 26.0684 91.4326c12.1416 32.6533 25.4375 64.8691 39.4414 96.7666c55.1533 125.64 116.731 249.581 183.055 369.681
c0.765625 1.38672 2.10742 2.46484 3.74512 3.25586c0.125 0.472656 0.231445 0.949219 0.363281 1.41895c6.71094 24.2119 60.0049 24.9678 69.0283 2.41309c12.1318 -30.3174 13.7402 -66.3193 16.4043 -98.5967c2.56738 -31.0645 4.62012 -62.1836 6.65332 -93.2861
c14.7822 -226.296 15.7861 -454.566 2.22266 -680.98c-1.67969 -28.0205 -33.2002 -38.3604 -56.9033 -39.8789c-20.1162 -1.29004 -60.7832 8.96875 -59.5449 35.8125c2.95996 64.165 6.36328 128.301 8.58008 192.501c0.984375 28.5195 1.87891 57.0449 2.66113 85.5771
c-46.9375 -12.2891 -94.5088 -22.0371 -142.627 -28.8447c-23.5264 -3.33008 -49.083 -6.62109 -71.5576 3.29102zM83.4707 367.479c-6.16113 -23.1406 -16.9814 -66.1973 13.7998 -76.5596c24.4658 -8.23926 56.4336 1.25781 80.8994 5.36621
c38.6113 6.47949 76.9043 14.792 114.737 24.8389c2.05273 79.3779 3.27246 158.788 3.33008 238.173c0.0419922 56.3691 1.14258 112.735 1.00781 169.111c-0.0703125 29.0498 -0.922852 58.1416 -0.401367 87.1816c0.179688 9.88281 0.109375 19.917 0.276367 29.9639
c-23.5654 -47.2266 -47.3232 -94.3604 -70.4736 -141.796c-26.7207 -54.751 -53.1582 -109.688 -77.8301 -165.401c-24.498 -55.3242 -49.749 -112.279 -65.3457 -170.878z" />
    <glyph glyph-name="five" unicode="5" horiz-adv-x="516" 
d="M74.6982 824.907c2.0752 -9.84766 -21.5811 -11.2227 -23.8623 -0.825195c-6.74316 30.7197 28.7285 47.6895 53.5254 51.209c6.84277 0.96875 13.7402 1.37695 20.6572 1.35742c11.8711 8.91406 36.916 6.61719 45.3379 -5.15723
c13.8496 -2.75684 27.5381 -6.24121 40.8242 -9.5127c37.3408 -9.20117 75.1895 -20.3613 113.98 -20.2197c17.208 0.0644531 33.9238 1.75684 49.8262 8.65723c14.8271 6.43457 26.3477 16.9482 39.4092 26.1455c9.51953 6.70117 45.2256 1.69824 31.2695 -14.3418
c-20.0684 -23.0664 -53.1943 -30.0283 -82.0576 -34.4619c-29.2783 -4.49707 -58.502 -3.65723 -87.6582 1.43848c-34.3008 6 -67.5713 16.5264 -101.557 23.916c3.43555 -34.1367 2.39941 -69.3926 2.67578 -103.532
c0.295898 -36.3047 0.466797 -72.6094 0.797852 -108.911c0.504883 -55.6328 -1.42578 -111.42 -3.65234 -167.104c64.4893 21.667 134.647 22.1396 194.707 -17.4727c63.4893 -41.8701 98.3652 -112.655 97.1172 -188.208
c-0.708008 -42.9189 -11.7842 -84.4639 -29.8389 -123.239c-15.4805 -33.2451 -34.7344 -67.4102 -61.0117 -93.3496c-55.5947 -54.877 -147.175 -73.4648 -209.621 -18.6748c-62.292 54.6514 -56.6719 147.023 -40.6152 220.446
c4.28809 19.6143 56.0381 19.1348 54.0693 -2.86035c-5.89355 -65.7666 -23.3105 -152.328 36.5371 -200.437c47.9541 -38.5469 103.905 10.4326 128.664 52c31.6689 53.1719 44.8232 124.668 36.665 185.741c-6.91699 51.7852 -34.9053 103.847 -81.1348 130.371
c-19.6592 11.2822 -39.3545 14.8818 -60.1758 11.5518c-29.1465 -4.66113 -55.7617 -18.4365 -80.2246 -34.5537c-14.3936 -9.48047 -32.7529 -11.6777 -49.3076 -7.82031c-11.1855 2.60547 -29.4678 11.4648 -28.8047 25.9541
c3.46777 75.958 6.4209 152.229 13.3857 227.955c3.54883 38.5723 6.87891 77.168 10.6592 115.718c3.38477 34.5029 5.5791 69.8584 12.3193 103.937c-4.00879 -0.173828 -7.98828 -0.579102 -11.9131 -1.30664c-17.1631 -3.16895 -35.1143 -14.8369 -30.9932 -34.4092z
" />
    <glyph glyph-name="six" unicode="6" horiz-adv-x="503" 
d="M117.722 70.2461c-44.9043 61.665 -61.9658 132.577 -66.3184 207.806c-8.53125 146.976 22.041 294.652 87.6562 426.398c31.3604 62.9707 73.6748 127.917 136.312 163.546c28.4033 16.1562 64.7695 23.9902 96.2646 12.4502
c22.1719 -8.12598 43.3535 -27.2969 49.6201 -50.4307c2.7373 -10.1016 -17.2148 -12.6592 -20.5801 -4.43359c-10.7324 26.2227 -37.334 36.3691 -62.292 22.7324c-24.582 -13.4277 -42.7422 -39.0166 -58.0977 -61.6455
c-35.7646 -52.7021 -59.4971 -116.368 -77.7734 -177.014c-22.9893 -76.2734 -36.54 -155.922 -39.8086 -235.824c34.8281 25.4922 74.9033 42.7002 119.569 42.7969c69.5625 0.151367 133.289 -42.1465 156.107 -108.457
c22.1748 -64.4473 17.3232 -143.131 -6.10059 -206.717c-22.082 -59.9434 -70.1641 -110.217 -135.68 -118.974c-69.3926 -9.27441 -139.022 33.0303 -178.879 87.7656zM347.169 378.456c-22.3975 16.9922 -52.1836 22.7207 -79.6963 19.6064
c-40.6055 -4.59375 -75.7744 -26.0576 -105.52 -53.2842c-0.270508 -28.8027 0.791016 -57.5957 3.27441 -86.2217c4.83496 -55.6846 12.6816 -113.846 39.1064 -163.891c18.8838 -35.7646 53.3867 -84.7959 100.108 -74.2119
c54.4365 12.334 82.8916 72.1816 94.3701 121.357c13.1133 56.1865 15.3203 122.269 -9.3418 175.627c-10.0635 21.7666 -22.8477 46.2578 -42.3018 61.0176z" />
    <glyph glyph-name="seven" unicode="7" horiz-adv-x="449" 
d="M379.474 686.402c-17.3848 -78.4932 -40.9062 -155.462 -65.6426 -231.909c-5.19922 -16.0625 -10.3721 -32.1348 -15.5127 -48.2197c3.2207 0.305664 6.44141 0.566406 9.6582 0.884766c15.3389 1.51172 15.5352 -14.6543 0.5625 -16.1309
c-5.17578 -0.511719 -10.3584 -0.984375 -15.5381 -1.45117c-18.1123 -57.1094 -35.5361 -114.438 -50.8623 -172.364c-10.333 -39.0615 -20.5186 -78.1357 -28.8799 -117.68c-4.3623 -20.6406 -8.74121 -41.3936 -12.3857 -62.1729
c-3.66406 -20.8916 -4.5459 -44.6338 -15.1846 -63.0195c-16.7705 -28.9766 -69.0605 -32.5801 -87.4365 -3.05371c-12.3701 19.8779 -11.5146 45.3281 -9.73926 68.1787c1.83984 23.7158 5.73535 47.0107 10.7637 70.248c8.97559 41.4805 19.46 82.7842 31.6367 123.441
c14.9951 50.0605 31.1543 99.8799 48.1533 149.458c-7.22852 -0.250977 -14.4609 -0.472656 -21.6963 -0.65625c-14.1006 -0.357422 -14.5801 14.4121 -0.521484 14.8887c9.17871 0.31543 18.3438 0.755859 27.5127 1.19043
c31.6816 91.3779 66.1816 181.906 101.695 271.512c14.3545 36.2148 28.6641 72.5615 41.9277 109.191c5.09863 14.0781 14.1738 32.5732 10.7568 47.9736c-3.04004 13.6953 -15.2969 17.6045 -27.6475 19.8535c-35.9736 6.55273 -74.9775 4.8125 -111.312 2.72168
c-20.9941 -1.20996 -41.834 -3.44922 -62.6484 -6.40918c-18.4307 -2.62207 -38.5117 -3.92773 -55.8359 -11.0566c-8.55078 -3.51953 -26.0996 -3.76074 -30.4238 6.91992c-4.70312 11.6133 10.7549 16.8057 19.1992 17.5742
c24.7871 2.25879 49.2627 10.4268 74.0537 13.7852c22.2842 3.02051 44.6689 5.2793 67.1338 6.4375c41.5098 2.14258 88.1221 4.69727 128.531 -6.84277c31.6143 -9.03027 54.0176 -32.0068 58.29 -65.0039c2.52539 -19.5176 -3.3457 -40.21 -6.7627 -59.3486
c-3.52246 -19.7432 -7.50879 -39.3613 -11.8457 -58.9404z" />
    <glyph glyph-name="eight" unicode="8" horiz-adv-x="463" 
d="M96.3662 76.5605c-44.9717 63.7363 -49.5879 145.902 -37.0859 220.625c9.0625 54.1533 24.8711 105.932 49.3145 154.053c-13.6504 20.0068 -25.6885 41.1973 -35.25 64.2119c-30.0342 72.2881 -32.9717 151.84 2.26855 222.873
c31.2021 62.9004 92.1885 120.087 164.184 129.555c67.5615 8.88574 132.9 -17.2432 159.663 -82.8584c14.5928 -35.7773 14.9336 -75.1572 11.5234 -113.083c-3.66113 -40.7188 -10.1826 -81.6045 -17 -121.904c-13.3086 -78.6699 -38.1025 -153.962 -65.2354 -228.743
c33.9043 -49.0986 59.876 -105.095 59.249 -165.328c-0.755859 -72.5801 -38.1387 -138.997 -112.816 -154.918c-69.8975 -14.9014 -138.495 18.376 -178.814 75.5176zM172.048 759.754c-31.5273 -64.3057 -27.9365 -140.674 -4.12402 -207.01
c25.708 -71.6084 75.7881 -125.501 123.375 -182.791c29.9385 71.5186 59.8633 143.455 81.3535 217.785c12.875 44.5342 18.8975 95.9912 14.9082 142.288c-3.59375 41.7383 -20.6699 85.4746 -60.3525 105.073c-60.748 30.0029 -129.385 -22.7695 -155.16 -75.3457z
M124.574 429.263c-23.8193 -56.6719 -35.3623 -117.886 -31.5469 -180.117c4.83887 -78.9111 27.9248 -176.649 108.284 -211.828c28.5127 -12.4824 62.1152 -12.6855 89.3418 3.38672c31.5596 18.627 45.2803 54.4424 44.1797 90.0068
c-2.38672 77.252 -62.1729 139.76 -112.643 191.654c-33.7764 34.7256 -68.3311 68.8721 -97.6162 106.897z" />
    <glyph glyph-name="nine" unicode="9" horiz-adv-x="569" 
d="M408.312 450.761c5.69141 74.5781 8.31836 150.402 2.51172 225.115c-15.2168 -54.2012 -39.3154 -107.025 -69.4141 -152.122c-22.8281 -34.1973 -50.6914 -60.1016 -83.9014 -83.7568c-15.9629 -11.3721 -30.5977 -22.2881 -49.5781 -28.2754
c-22.5518 -7.11621 -46.8213 -10.4102 -70.3418 -6.68457c-92.5811 14.6631 -96.3291 130.043 -80.2695 200.922c16.4268 72.5 51.9268 145.933 105.019 198.654c27.0039 26.8145 60.0625 48.3076 95.8975 61.2754c39.9854 14.4707 78.6484 17.1758 116.581 -3.29785
c74.417 -40.165 107.643 -125.646 124.639 -203.801c19.9746 -91.8574 22.6484 -187.787 15.6035 -281.25c-3.6582 -48.5293 -11.8291 -97.0166 -21.6768 -144.643c-8.77344 -42.4199 -19.1611 -84.6123 -35.8711 -124.685
c-17.8643 -42.8389 -42.71 -82.4277 -78.2939 -112.668c-37.3535 -31.7432 -89.4609 -43.2148 -137.553 -37.6074c-77.3027 9.01074 -146.177 71.3643 -146.022 152.032c0.0517578 25.9746 57.998 27.7988 58.7021 2.0498
c0.919922 -33.6377 16.2529 -69.7686 45.1133 -88.8428c12.9229 -8.54102 26.5664 -12.3564 41.6807 -11.5713c10.6191 0.553711 19.8389 3.99902 29.7891 10.916c26.502 18.4209 42.9766 45.2734 58.0742 75.9609c18.8232 38.2578 31.1895 79.6611 41.7803 120.843
c19.4668 75.6846 31.5889 153.531 37.5312 231.436zM341.399 569.437c29.4814 56.9873 53.0938 121.098 60.1807 185.207c-9.14941 46.4482 -28.6543 91.7861 -76.0479 94.1318c-60.2812 2.98535 -115.743 -56.5527 -146.604 -101.904
c-35.6807 -52.4385 -60.0625 -119.389 -66.252 -182.527c-3.25293 -33.1777 -0.791992 -69.2861 16.1816 -98.79c17.2051 -29.9023 46.4512 -29.9639 76.9521 -24.083c63.8848 12.3115 107.393 73.4619 135.59 127.966z" />
    <glyph glyph-name="colon" unicode=":" horiz-adv-x="175" 
d="M113.074 667.341c15.667 -18.0605 11.79 -50.1523 10.4355 -72.585c-0.994141 -16.6006 -20.001 -23.5273 -34.2783 -24.0264c-11.7295 -0.408203 -37.1572 5.21484 -35.874 21.5771c0.96875 12.3115 1.53516 24.6201 2.69043 36.9121
c1.27441 13.5088 0.920898 25.2285 9.4043 36.459c9.56152 12.6562 37.2119 13.6631 47.6221 1.66309zM53.2852 222.846c7.91113 20.1934 46.7539 19.9678 56.6045 1.97461c7.79199 -14.2295 6.61426 -35.6621 7.95605 -51.5605
c1.31934 -15.6797 -20.6826 -21.8184 -32.1836 -22.5547c-12.4697 -0.797852 -32.9082 5.03809 -33.6807 20.2549c-0.813477 16.0469 -4.68652 36.5947 1.30371 51.8857z" />
    <glyph glyph-name="semicolon" unicode=";" horiz-adv-x="213" 
d="M115.002 584.093c-13.0195 -0.833008 -34.3262 5.25293 -35.1436 21.1357c-0.3125 6.08398 -0.424805 12.1641 -0.231445 18.251c0.21582 6.82031 -0.169922 15.4902 3.26562 21.3867c6.68848 11.4814 18.2793 15.9951 31.2051 16.8223
c10.4268 0.668945 27.998 -3.41992 32.3027 -14.6055c2.7959 -7.26367 1.81836 -13.7236 1.68359 -21.2158c-0.109375 -6.08984 0.0996094 -12.167 0.501953 -18.2412c1.08398 -16.3975 -21.333 -22.748 -33.584 -23.5332zM115.484 243.661
c7.91406 12.7588 48.2939 13.041 47.4258 -6.64746c-1.20996 -27.3809 -9.70605 -54.4336 -17.2148 -80.6074c-7.86914 -27.4316 -15.9219 -54.3584 -26.6377 -80.8223c-10.7451 -26.5312 -77.9404 -23.0918 -68.0732 9.76074
c8.23926 27.4287 18.6533 53.793 29.0186 80.4785c10.3525 26.6533 20.3516 53.4424 35.4814 77.8379z" />
    <glyph glyph-name="less" unicode="&#x3c;" horiz-adv-x="437" 
d="M350.483 347.081c16.4365 -3.75098 42.6807 -14.4756 34.4863 -36.8145c-7.90137 -21.5449 -38.168 -25.6758 -57.6602 -23.5977c-55.5527 5.92871 -111.051 20.1641 -164.969 34.4092c-25.7139 6.79492 -52.667 12.7402 -76.6406 24.5371
c-24.5557 12.0898 -48.4297 38.4697 -27.9561 65.5254c7.55078 9.97656 19.2129 15.8281 29.7549 21.915c12.543 7.23828 25.2021 14.2607 37.9189 21.1904c22.5811 12.3057 45.4443 24.0674 68.6328 35.1924c46.2842 22.1982 98.5518 47.1787 150.437 47.6387
c8.67676 0.0771484 25.9561 -6.58203 16.9229 -17.8711c-2.89844 -3.62207 -4.19531 -7.36719 -7.87598 -10.5459c-3.73145 -3.22363 -8.87207 -6.10645 -13.0186 -8.7666c-7.52441 -4.8252 -15.1523 -9.70508 -22.8604 -14.2314
c-18.9805 -11.1436 -38.5176 -21.4805 -57.8555 -31.9814c-34.4033 -18.6816 -67.9248 -39.126 -100.585 -60.7031c-0.0478516 -0.0322266 -0.0957031 -0.0673828 -0.143555 -0.0996094c1.05859 -0.318359 2.11426 -0.630859 3.15625 -0.952148
c20.8691 -6.4209 41.9473 -12.2217 63.0869 -17.6807c41.4131 -10.6934 83.5146 -17.6611 125.169 -27.1641zM145.932 397.957c-0.521484 -0.193359 0.517578 -0.775391 1.64062 -1.27441c-0.44043 0.469727 -0.984375 0.894531 -1.64062 1.27441z" />
    <glyph glyph-name="equal" unicode="=" horiz-adv-x="435" 
d="M343.623 519.156c14.7471 -0.0546875 40.5635 -5.41211 41.2451 -24.8047c0.640625 -18.3984 -24.3301 -27.8887 -39.4121 -27.6221c-44.3574 0.788086 -88.5664 -0.412109 -132.882 -2.14648c-22.124 -0.865234 -44.209 -2.03906 -66.3164 -3.23926
c-21.7764 -1.18359 -44.4082 -4.4873 -66.165 -3.49023c-9.9668 0.457031 -24.4824 2.35156 -29.0254 13.126c-4.00195 9.49316 3.88965 19.2832 12.8398 22.1943c44.2734 14.4033 94.4053 17.1543 140.596 21.2627c46.1748 4.10547 92.7842 4.88086 139.12 4.71973z
M319.529 307.134c14.0459 0.138672 38.6465 -5.28809 39.293 -23.6289c0.617188 -17.6621 -23.1797 -26.3711 -37.5469 -26.3135c-38.0391 0.154297 -76.0518 -1.28027 -113.952 -4.57422c-37.6719 -3.27539 -75.3213 -11.1895 -113.032 -13.0234
c-10.7871 -0.524414 -27.3193 3.23633 -32.0674 14.499c-4.45898 10.5781 4.33984 21.1787 14.1846 24.5244c39.1973 13.3125 82.1191 17.3691 123.089 21.7188c39.8818 4.23047 79.9316 6.40234 120.032 6.79785z" />
    <glyph glyph-name="greater" unicode="&#x3e;" horiz-adv-x="397" 
d="M346.244 437.259c9.65137 -46.5029 -57.6611 -73.6846 -89.8965 -89.7832c-43.9873 -21.9561 -91.1045 -38.1348 -137.752 -53.3516c-19.5947 -6.39258 -46.6982 -8.33887 -62.3975 8.40625c-14.0391 14.9785 -2.13867 34.8926 14.8574 40.8896
c39.4121 13.9102 79.3291 26.5146 118.333 41.5508c19.7109 7.60156 39.5215 15.043 58.9141 23.4395c7.38965 3.20117 34.5 10.2754 35.0693 21.0205c0.666016 12.5625 -27.1074 21.918 -35.3242 25.9004c-17.1729 8.32227 -34.7637 15.7666 -52.5762 22.5996
c-37.7461 14.4736 -76.457 26.2324 -116.046 34.4521c-10.2588 2.12988 -25.9805 8.98242 -21.1455 22.5684c4.49414 12.6299 23.7451 16.6348 35.3486 14.4668c49.623 -9.27441 98.5391 -22.4834 145.557 -40.9336c23.1055 -9.06543 46.1172 -19.0254 68.1895 -30.3945
c16.7803 -8.64453 34.7959 -21.21 38.8691 -40.8311z" />
    <glyph glyph-name="question" unicode="?" horiz-adv-x="476" 
d="M424.962 687.486c8.66992 -103.056 -32.4932 -206.804 -63.0068 -303.31c-15.9951 -50.585 -31.1279 -101.646 -43.7646 -153.188c-12.7461 -51.9883 -18.7588 -103.793 -25.627 -156.711c-3.27539 -25.2285 -28.4619 -34.4941 -51.3066 -35.958
c-18.5273 -1.1875 -54.2754 8.05176 -53.6865 32.2891c1.27734 52.5449 14.0332 106.366 27.2686 157.051c13.2998 50.9326 30.3691 100.482 49.2666 149.581c33.4961 87.0283 75.6074 171.74 100.736 261.764c10.6357 38.0938 20.6699 77.9375 14.4062 117.765
c-6.13184 38.9912 -38.7852 71.1006 -74.5586 84.8311c-77.2998 29.668 -155.887 -16.9893 -197.625 -81.9512c-23.1982 -36.1055 -39.3672 -83.5186 -26.0615 -126.187c10.6328 -34.0918 45.1357 -66.7383 83.1104 -60.0117
c11.8262 2.09473 21.542 -10.6514 6.5918 -14.1455c-42.9443 -10.04 -85.3838 12.6504 -106.807 50.1807c-25.7783 45.168 -12.1768 102.612 12.2275 145.178c41.1846 71.8369 119.404 123.783 204.419 111.771c39.5703 -5.59082 78.4033 -24.8125 102.516 -57.3633
c25.3535 -34.2324 38.3662 -79.5801 41.9014 -121.585zM215.4 4.74805c9.82129 13.332 41.0322 13.167 48.5537 -2.42578c11.2793 -23.375 1.41602 -59.7764 -1.125 -84.751c-1.61816 -15.9082 -18.6299 -22.5449 -32.8818 -23.0439
c-10.6455 -0.370117 -36.4629 5.12109 -34.4102 20.6953c3.64844 27.7119 2.8252 66.3975 19.8633 89.5254z" />
    <glyph glyph-name="at" unicode="@" horiz-adv-x="884" 
d="M795.695 764.326c47.4902 -87.9062 45.9395 -192.472 19.8164 -286.636c-23.8164 -85.8477 -69.1709 -189.415 -156.868 -226.672c-47.4326 -20.1514 -113.512 -12.8457 -133.689 41.2686c-6.99414 18.752 -8.95312 38.1826 -9.21094 57.8555
c-0.836914 -1.11621 -1.6543 -2.24902 -2.49414 -3.36523c-9.36133 -12.4434 -18.7197 -24.8838 -28.0811 -37.3271c-8.53125 -11.3438 -15.6309 -24.1055 -25.1631 -34.6514c-40.5479 -44.8428 -134.21 -44.3574 -145.039 25.9932
c-7.65625 49.752 25.7725 101.029 56.2314 136.971c35.5 41.8926 85.8955 86.2822 145.324 77.8213c38.4668 -5.47852 80.543 -38.7656 64.7021 -81.4785c-0.521484 -1.39648 -1.35156 -2.60938 -2.40039 -3.65137c1.99414 -23.1055 5.25586 -45.5352 10.4902 -68.3633
c4.44238 -19.3828 5.26562 -41.5771 15.1514 -59.2744c1.70801 -3.05273 4.16602 -5.21094 5.81641 -8.1123c0.09375 -0.164062 0.177734 -0.283203 0.267578 -0.427734c3.30762 1.02344 9.24023 3.26855 13.1133 5.52734c17.8037 10.3779 32.6055 26.0127 45.29 42.0205
c27.709 34.9697 45.6152 76.9014 59.9541 118.846c16.4199 48.0273 26.6436 97.9688 26.0195 148.889c-0.939453 76.6279 -29.1309 157.283 -90.3838 206.518c-53.2393 42.7939 -126.904 55.3213 -192.893 42.6816c-157.199 -30.1123 -272.866 -180.317 -330.677 -320.456
c-31.6465 -76.7109 -49.3174 -159.57 -44.6562 -242.764c4.41992 -78.8564 28.6768 -161.925 83.2578 -221.003c55.1084 -59.6475 136.822 -80.4717 215.792 -72.8926c87.1924 8.36719 167.812 51.7627 240.3 98.2139c8.69238 5.57227 22.4102 7.03906 31.3828 1.09668
c7.7373 -5.12109 9.2207 -14.9492 0.714844 -20.3994c-20.8242 -13.3408 -41.957 -26.1611 -63.6338 -38.0742c-84.4902 -46.4258 -177.827 -77.9434 -275.308 -69.8359c-91.5938 7.61523 -172.729 53.0918 -221.416 131.707
c-100.318 161.989 -56.2441 374.618 33.335 530.376c44.6143 77.5732 102.953 150.749 176.348 202.959c75.5303 53.7285 166.979 79.8154 259.476 70.5146c93.0254 -9.35547 174.514 -61.2852 219.131 -143.874zM392.032 301.102c-0.96875 -0.164062 -3.2334 -3.03418 0 0z
M518.724 465.172c-4.08594 0.499023 -2.53516 -0.273438 0 0zM514.441 449.537c3.89551 4.73242 10.8877 8.27734 18.8398 10.2363c-4.36914 2.77637 -9.00195 4.59766 -13.2002 5.21582c-0.412109 0.0615234 -0.785156 0.109375 -1.12305 0.154297
c-7.71777 -1.83984 -7.58301 -1.83691 -12.917 -4.34961c-7.09082 -3.33594 -13.9492 -8.42578 -20.1582 -13.9688c-29.4141 -26.2607 -57.5762 -61.4619 -70.4443 -99.0342c-3.05664 -8.92773 -5.04199 -17.6465 -5.66016 -27.0498
c-0.015625 -0.238281 -0.03125 -0.479492 -0.046875 -0.717773c1.97559 2.27441 3.97949 4.51367 5.8877 6.8623c33.1006 40.7666 65.4189 82.1191 98.8223 122.651zM610.753 293.966c2.98828 -4.61035 4.15039 -0.186523 0 0z" />
    <glyph glyph-name="A" unicode="A" horiz-adv-x="713" 
d="M595.932 392.827c9.52539 -67.3076 17.8633 -134.786 28.0742 -201.991c10.3555 -68.1699 25.498 -135.098 38.2051 -202.778c3.89941 -20.7695 -27.6025 -31.7012 -42.334 -33.5059c-16.1016 -1.97559 -49.874 1.25098 -55.7969 21.4092
c-20.6953 70.4473 -30.7715 144.794 -40.793 217.4c-4.9668 35.9961 -9.33594 72.0469 -13.4053 108.133c-56.0703 -7.04199 -112.25 -13.1865 -168.542 -18.1631c-32.6953 -2.89258 -65.4258 -5.54688 -98.1885 -7.54785
c-29.1406 -1.7793 -60.5557 -6.51172 -89.6865 -3.31738c-26.5791 -91.3779 -52.2998 -183.007 -79.0693 -274.188c-2.90527 -9.90234 -27.4424 -8.04297 -24.0801 3.45117c39.1484 133.837 76.6084 268.166 117.166 401.588
c33.6699 110.761 67.9834 222.345 112.704 329.248c11.6904 27.9463 24.8486 55.3301 41.417 80.7451c14.6279 22.4355 32.5312 47.0176 59.0527 55.7871c58.1357 19.2217 105.845 -27.1875 127.216 -76.7754c13.1963 -30.627 21.2744 -64.4453 30.0283 -96.5742
c9.14258 -33.5605 16.8213 -67.5391 24.0176 -101.566c14.1104 -66.7217 24.46 -133.853 34.0146 -201.354zM334.422 299.618c57.9814 5.1084 115.846 11.416 173.576 18.7832c-3.16602 28.7158 -6.18066 57.4512 -9.16895 86.1992
c-6.67578 64.2354 -13.1553 128.59 -21.3037 192.654c-7.90723 62.1729 -19.6982 123.326 -30.9805 184.904c-4.45898 24.3369 -10.6328 53.9658 -33.8379 67.6611c-29.7324 17.5459 -54.7773 -22.9697 -68.6299 -44.1641
c-30.54 -46.7246 -49.4951 -100.807 -68.6338 -152.923c-44.209 -120.396 -81.9355 -243.053 -117.902 -366.241c27.4932 4.99609 57.3086 3.90234 85.0303 5.92285c30.6328 2.22949 61.2559 4.50684 91.8506 7.20312z" />
    <glyph glyph-name="A" unicode="&#xc5;" horiz-adv-x="713" 
d="M595.932 392.827c9.52539 -67.3076 17.8633 -134.786 28.0742 -201.991c10.3555 -68.1699 25.498 -135.098 38.2051 -202.778c3.89941 -20.7695 -27.6025 -31.7012 -42.334 -33.5059c-16.1016 -1.97559 -49.874 1.25098 -55.7969 21.4092
c-20.6953 70.4473 -30.7715 144.794 -40.793 217.4c-4.9668 35.9961 -9.33594 72.0469 -13.4053 108.133c-56.0703 -7.04199 -112.25 -13.1865 -168.542 -18.1631c-32.6953 -2.89258 -65.4258 -5.54688 -98.1885 -7.54785
c-29.1406 -1.7793 -60.5557 -6.51172 -89.6865 -3.31738c-26.5791 -91.3779 -52.2998 -183.007 -79.0693 -274.188c-2.90527 -9.90234 -27.4424 -8.04297 -24.0801 3.45117c39.1484 133.837 76.6084 268.166 117.166 401.588
c33.6699 110.761 67.9834 222.345 112.704 329.248c11.6904 27.9463 24.8486 55.3301 41.417 80.7451c14.6279 22.4355 32.5312 47.0176 59.0527 55.7871c58.1357 19.2217 105.845 -27.1875 127.216 -76.7754c13.1963 -30.627 21.2744 -64.4453 30.0283 -96.5742
c9.14258 -33.5605 16.8213 -67.5391 24.0176 -101.566c14.1104 -66.7217 24.46 -133.853 34.0146 -201.354zM334.422 299.618c57.9814 5.1084 115.846 11.416 173.576 18.7832c-3.16602 28.7158 -6.18066 57.4512 -9.16895 86.1992
c-6.67578 64.2354 -13.1553 128.59 -21.3037 192.654c-7.90723 62.1729 -19.6982 123.326 -30.9805 184.904c-4.45898 24.3369 -10.6328 53.9658 -33.8379 67.6611c-29.7324 17.5459 -54.7773 -22.9697 -68.6299 -44.1641
c-30.54 -46.7246 -49.4951 -100.807 -68.6338 -152.923c-44.209 -120.396 -81.9355 -243.053 -117.902 -366.241c27.4932 4.99609 57.3086 3.90234 85.0303 5.92285c30.6328 2.22949 61.2559 4.50684 91.8506 7.20312z" />
    <glyph glyph-name="A" unicode="&#xc4;" horiz-adv-x="713" 
d="M595.932 392.827c9.52539 -67.3076 17.8633 -134.786 28.0742 -201.991c10.3555 -68.1699 25.498 -135.098 38.2051 -202.778c3.89941 -20.7695 -27.6025 -31.7012 -42.334 -33.5059c-16.1016 -1.97559 -49.874 1.25098 -55.7969 21.4092
c-20.6953 70.4473 -30.7715 144.794 -40.793 217.4c-4.9668 35.9961 -9.33594 72.0469 -13.4053 108.133c-56.0703 -7.04199 -112.25 -13.1865 -168.542 -18.1631c-32.6953 -2.89258 -65.4258 -5.54688 -98.1885 -7.54785
c-29.1406 -1.7793 -60.5557 -6.51172 -89.6865 -3.31738c-26.5791 -91.3779 -52.2998 -183.007 -79.0693 -274.188c-2.90527 -9.90234 -27.4424 -8.04297 -24.0801 3.45117c39.1484 133.837 76.6084 268.166 117.166 401.588
c33.6699 110.761 67.9834 222.345 112.704 329.248c11.6904 27.9463 24.8486 55.3301 41.417 80.7451c14.6279 22.4355 32.5312 47.0176 59.0527 55.7871c58.1357 19.2217 105.845 -27.1875 127.216 -76.7754c13.1963 -30.627 21.2744 -64.4453 30.0283 -96.5742
c9.14258 -33.5605 16.8213 -67.5391 24.0176 -101.566c14.1104 -66.7217 24.46 -133.853 34.0146 -201.354zM334.422 299.618c57.9814 5.1084 115.846 11.416 173.576 18.7832c-3.16602 28.7158 -6.18066 57.4512 -9.16895 86.1992
c-6.67578 64.2354 -13.1553 128.59 -21.3037 192.654c-7.90723 62.1729 -19.6982 123.326 -30.9805 184.904c-4.45898 24.3369 -10.6328 53.9658 -33.8379 67.6611c-29.7324 17.5459 -54.7773 -22.9697 -68.6299 -44.1641
c-30.54 -46.7246 -49.4951 -100.807 -68.6338 -152.923c-44.209 -120.396 -81.9355 -243.053 -117.902 -366.241c27.4932 4.99609 57.3086 3.90234 85.0303 5.92285c30.6328 2.22949 61.2559 4.50684 91.8506 7.20312z" />
    <glyph glyph-name="A" unicode="&#xc3;" horiz-adv-x="713" 
d="M595.932 392.827c9.52539 -67.3076 17.8633 -134.786 28.0742 -201.991c10.3555 -68.1699 25.498 -135.098 38.2051 -202.778c3.89941 -20.7695 -27.6025 -31.7012 -42.334 -33.5059c-16.1016 -1.97559 -49.874 1.25098 -55.7969 21.4092
c-20.6953 70.4473 -30.7715 144.794 -40.793 217.4c-4.9668 35.9961 -9.33594 72.0469 -13.4053 108.133c-56.0703 -7.04199 -112.25 -13.1865 -168.542 -18.1631c-32.6953 -2.89258 -65.4258 -5.54688 -98.1885 -7.54785
c-29.1406 -1.7793 -60.5557 -6.51172 -89.6865 -3.31738c-26.5791 -91.3779 -52.2998 -183.007 -79.0693 -274.188c-2.90527 -9.90234 -27.4424 -8.04297 -24.0801 3.45117c39.1484 133.837 76.6084 268.166 117.166 401.588
c33.6699 110.761 67.9834 222.345 112.704 329.248c11.6904 27.9463 24.8486 55.3301 41.417 80.7451c14.6279 22.4355 32.5312 47.0176 59.0527 55.7871c58.1357 19.2217 105.845 -27.1875 127.216 -76.7754c13.1963 -30.627 21.2744 -64.4453 30.0283 -96.5742
c9.14258 -33.5605 16.8213 -67.5391 24.0176 -101.566c14.1104 -66.7217 24.46 -133.853 34.0146 -201.354zM334.422 299.618c57.9814 5.1084 115.846 11.416 173.576 18.7832c-3.16602 28.7158 -6.18066 57.4512 -9.16895 86.1992
c-6.67578 64.2354 -13.1553 128.59 -21.3037 192.654c-7.90723 62.1729 -19.6982 123.326 -30.9805 184.904c-4.45898 24.3369 -10.6328 53.9658 -33.8379 67.6611c-29.7324 17.5459 -54.7773 -22.9697 -68.6299 -44.1641
c-30.54 -46.7246 -49.4951 -100.807 -68.6338 -152.923c-44.209 -120.396 -81.9355 -243.053 -117.902 -366.241c27.4932 4.99609 57.3086 3.90234 85.0303 5.92285c30.6328 2.22949 61.2559 4.50684 91.8506 7.20312z" />
    <glyph glyph-name="A" unicode="&#xc2;" horiz-adv-x="713" 
d="M595.932 392.827c9.52539 -67.3076 17.8633 -134.786 28.0742 -201.991c10.3555 -68.1699 25.498 -135.098 38.2051 -202.778c3.89941 -20.7695 -27.6025 -31.7012 -42.334 -33.5059c-16.1016 -1.97559 -49.874 1.25098 -55.7969 21.4092
c-20.6953 70.4473 -30.7715 144.794 -40.793 217.4c-4.9668 35.9961 -9.33594 72.0469 -13.4053 108.133c-56.0703 -7.04199 -112.25 -13.1865 -168.542 -18.1631c-32.6953 -2.89258 -65.4258 -5.54688 -98.1885 -7.54785
c-29.1406 -1.7793 -60.5557 -6.51172 -89.6865 -3.31738c-26.5791 -91.3779 -52.2998 -183.007 -79.0693 -274.188c-2.90527 -9.90234 -27.4424 -8.04297 -24.0801 3.45117c39.1484 133.837 76.6084 268.166 117.166 401.588
c33.6699 110.761 67.9834 222.345 112.704 329.248c11.6904 27.9463 24.8486 55.3301 41.417 80.7451c14.6279 22.4355 32.5312 47.0176 59.0527 55.7871c58.1357 19.2217 105.845 -27.1875 127.216 -76.7754c13.1963 -30.627 21.2744 -64.4453 30.0283 -96.5742
c9.14258 -33.5605 16.8213 -67.5391 24.0176 -101.566c14.1104 -66.7217 24.46 -133.853 34.0146 -201.354zM334.422 299.618c57.9814 5.1084 115.846 11.416 173.576 18.7832c-3.16602 28.7158 -6.18066 57.4512 -9.16895 86.1992
c-6.67578 64.2354 -13.1553 128.59 -21.3037 192.654c-7.90723 62.1729 -19.6982 123.326 -30.9805 184.904c-4.45898 24.3369 -10.6328 53.9658 -33.8379 67.6611c-29.7324 17.5459 -54.7773 -22.9697 -68.6299 -44.1641
c-30.54 -46.7246 -49.4951 -100.807 -68.6338 -152.923c-44.209 -120.396 -81.9355 -243.053 -117.902 -366.241c27.4932 4.99609 57.3086 3.90234 85.0303 5.92285c30.6328 2.22949 61.2559 4.50684 91.8506 7.20312z" />
    <glyph glyph-name="A" unicode="&#xc1;" horiz-adv-x="713" 
d="M595.932 392.827c9.52539 -67.3076 17.8633 -134.786 28.0742 -201.991c10.3555 -68.1699 25.498 -135.098 38.2051 -202.778c3.89941 -20.7695 -27.6025 -31.7012 -42.334 -33.5059c-16.1016 -1.97559 -49.874 1.25098 -55.7969 21.4092
c-20.6953 70.4473 -30.7715 144.794 -40.793 217.4c-4.9668 35.9961 -9.33594 72.0469 -13.4053 108.133c-56.0703 -7.04199 -112.25 -13.1865 -168.542 -18.1631c-32.6953 -2.89258 -65.4258 -5.54688 -98.1885 -7.54785
c-29.1406 -1.7793 -60.5557 -6.51172 -89.6865 -3.31738c-26.5791 -91.3779 -52.2998 -183.007 -79.0693 -274.188c-2.90527 -9.90234 -27.4424 -8.04297 -24.0801 3.45117c39.1484 133.837 76.6084 268.166 117.166 401.588
c33.6699 110.761 67.9834 222.345 112.704 329.248c11.6904 27.9463 24.8486 55.3301 41.417 80.7451c14.6279 22.4355 32.5312 47.0176 59.0527 55.7871c58.1357 19.2217 105.845 -27.1875 127.216 -76.7754c13.1963 -30.627 21.2744 -64.4453 30.0283 -96.5742
c9.14258 -33.5605 16.8213 -67.5391 24.0176 -101.566c14.1104 -66.7217 24.46 -133.853 34.0146 -201.354zM334.422 299.618c57.9814 5.1084 115.846 11.416 173.576 18.7832c-3.16602 28.7158 -6.18066 57.4512 -9.16895 86.1992
c-6.67578 64.2354 -13.1553 128.59 -21.3037 192.654c-7.90723 62.1729 -19.6982 123.326 -30.9805 184.904c-4.45898 24.3369 -10.6328 53.9658 -33.8379 67.6611c-29.7324 17.5459 -54.7773 -22.9697 -68.6299 -44.1641
c-30.54 -46.7246 -49.4951 -100.807 -68.6338 -152.923c-44.209 -120.396 -81.9355 -243.053 -117.902 -366.241c27.4932 4.99609 57.3086 3.90234 85.0303 5.92285c30.6328 2.22949 61.2559 4.50684 91.8506 7.20312z" />
    <glyph glyph-name="B" unicode="B" horiz-adv-x="723" 
d="M414.199 429.788c-42.6035 -112.395 -95.4199 -220.145 -105.605 -341.879c-3.31348 -39.5732 -2.6543 -87.0254 24.5137 -119c29.916 -35.2109 81.1475 -23.7422 117.655 -6.43457c85.3008 40.4414 129.69 132.061 136.713 222.608
c7.58301 97.7666 -25.3594 193.159 -104.354 254.097c-74.9033 57.7822 -169.337 71.1396 -260.38 59.9766c-4.15625 -0.507812 -8.93359 -0.298828 -13.8047 0.556641c-39.6533 -122.078 -59.2646 -249.896 -75.0059 -377.407
c0.389648 -13.666 0.811523 -27.332 1.21973 -40.998c0.791016 -26.5215 3.15234 -56.3047 -6.3252 -81.5039c-7.57324 -20.1426 -47.6641 -20.4062 -57.0645 -1.99512c-14.0264 27.4805 -13.666 63.1738 -15.2451 93.4463
c-1.65332 31.6787 -3.02051 63.373 -4.10449 95.0742c-3.7959 110.954 -2.8916 222.026 1.2002 332.964c2.02637 54.9375 4.90527 109.844 8.63379 164.691c3.8252 56.2285 7.29297 112.54 17.5205 168.016c5.16699 28.0234 76.6084 27.0869 76.1641 -4.02832
c-0.884766 -62.2148 -8.56348 -124.333 -12.6553 -186.416c-7.30566 -110.79 -11.1406 -221.812 -11.501 -332.843c-0.0644531 -19.5596 -0.0449219 -39.123 0.0195312 -58.6895c5.72949 33.8984 12.1416 67.6777 19.5508 101.271
c10.1533 46.0361 22.1885 91.8252 36.7842 136.752c-4.20801 3.00195 -7.63379 6.70117 -9.60938 11.1084c-7.00977 15.6348 7.05859 27.5801 19.5635 33.8184c2.32617 1.16113 4.62598 2.34473 6.94238 3.5127c12.9482 34.5449 27.6182 68.418 44.4111 101.303
c40.8887 80.0664 97.9238 170.756 194.597 185.886c36.0381 5.63965 78.7959 -0.817383 92.9795 -39.4062c8.18457 -22.2617 -1.55371 -42.4395 -13.3828 -61.3945c-12.9551 -20.7568 -28.4131 -40.2588 -43.9229 -59.1523
c-30.5684 -37.2412 -69.2119 -70.6084 -107.425 -99.7773c-11.3271 -8.64746 -22.918 -17.0439 -34.7051 -25.1895c92.6875 -9.69922 182.386 -45.2158 248.67 -112.623c82.2803 -83.6729 106.438 -204.21 71.1338 -315.202
c-33.5898 -105.598 -119.171 -189.74 -228.97 -211.854c-49.9932 -10.0693 -110.857 -5.04785 -144.508 38.1123c-29.2627 37.5332 -30.0479 89.5859 -25.1709 134.805c12.8809 119.392 59.5732 237.288 113.327 343.838c7.75977 15.3779 49.7139 13.9336 42.1406 -6.04102z
M290.365 686.313c-21.0176 -36.6846 -39.249 -74.9199 -55.0898 -114.113c30.1182 16.1436 59.3838 33.4385 87.7227 53.1113c41.1016 28.5293 79.0693 60.5068 116.471 93.6426c17.7939 15.7666 36.8682 32.2314 50.3867 51.9648
c10.6777 15.5869 24.8428 39.1973 3.43652 51.5283c-36.3018 20.9111 -89.9043 -7.34473 -118.469 -29.6035c-35.9893 -28.0469 -62.0283 -67.3818 -84.458 -106.53z" />
    <glyph glyph-name="C" unicode="C" horiz-adv-x="595" 
d="M471.811 568.013c-1.83398 -9.96289 -26.1631 -8.47559 -24.082 3.45703c11.5557 66.0469 25.8457 141.159 2.06836 206.26c-10.1338 27.7412 -28.748 54.5557 -59.3164 60.8027c-24.8965 5.09277 -42.8545 -7.36328 -59.8281 -23.79
c-36.7646 -35.5811 -61.9033 -79.6611 -86.1855 -124.379c-26.3281 -48.4941 -47.7891 -99.6201 -64.1191 -152.325c-31.9131 -102.998 -45.0488 -210.558 -38.3184 -318.278c5.91016 -94.6016 37.708 -209.68 145.551 -229.271
c122.14 -22.1885 191.538 102.882 237.085 194.257c3.70898 7.44141 23.4746 5.65234 19.4502 -2.78906c-29.208 -61.2373 -60.0176 -124.62 -114.306 -167.748c-23.6201 -18.7617 -51.3096 -33.0166 -80.8652 -39.502c-34.0234 -7.4668 -67.4268 -2.40918 -100.405 7.28711
c-30.2529 8.89551 -59.416 16.7129 -86.3398 34.0625c-24.5625 15.8281 -46.8018 36.627 -62.0537 61.6621c-30.8809 50.6885 -41.7188 110.391 -47.0879 168.684c-11.5723 125.575 10.1885 255.953 57.1963 372.688c23.5234 58.4121 52.915 116.486 91.9541 166.142
c19.8623 25.2568 44.9775 50.5332 73.9922 64.9844c28.1689 14.0293 62.1152 19.6074 93.4043 17.4102c147.712 -10.375 120.688 -199.243 102.206 -299.612z" />
    <glyph glyph-name="D" unicode="D" horiz-adv-x="671" 
d="M351.936 322.979c52.6348 71.21 113.525 135.941 180.83 193.392c0.128906 7.8916 0.231445 15.7803 0.266602 23.665c0.206055 44.9717 -1.31836 89.5254 -7.4248 134.159c-5.88379 43.0186 -14.6602 89.1221 -32.9912 128.779
c-9.67676 20.9336 -23.2275 37.9102 -45.293 46.291c-20.1035 7.6377 -40.8506 5.36621 -59.0723 -6.06738c-34.1846 -21.4453 -55.8545 -61.4883 -75.1758 -95.5957c-44.6914 -78.8887 -76.5078 -164.383 -101.807 -251.25
c-23.2598 -79.873 -40.4424 -160.513 -52.3457 -242.828c-8.75977 -60.5811 -15.8506 -121.396 -23.4336 -182.142c0.852539 -23.8574 1.64355 -49.4785 -6.66602 -71.5801c-7.57324 -20.1426 -47.6641 -20.4062 -57.0645 -1.99512
c-14.0264 27.4805 -13.666 63.1738 -15.2451 93.4463c-1.65332 31.6787 -3.02051 63.373 -4.10449 95.0742c-3.7959 110.954 -2.8916 222.026 1.2002 332.964c2.02637 54.9375 4.90527 109.844 8.63379 164.691c3.8252 56.2285 7.29297 112.54 17.5205 168.016
c5.16699 28.0234 76.6084 27.0869 76.1641 -4.02832c-0.884766 -62.2148 -8.56348 -124.333 -12.6553 -186.416c-7.30566 -110.79 -11.1406 -221.812 -11.501 -332.843c-0.125 -38.0166 -0.0126953 -76.042 0.405273 -114.062c18.7236 137.221 46.5 272.56 96.4414 402.957
c17.8711 46.6602 38.6533 92.2588 63.335 135.731c20.2676 35.6934 42.3369 75.4785 77.332 98.8252c32.248 21.5127 72.0303 22.1592 105.723 3.36133c41.0371 -22.8926 68.6719 -58.8174 87.1279 -101.376c41.0371 -94.627 57.959 -197.026 59.0723 -299.667
c1.04883 -96.708 -4.97363 -198.834 -32.3096 -292.055c-25.959 -88.5303 -79.3105 -189.469 -177.84 -210.418c-41.1172 -8.74121 -80.5967 2.24805 -114.801 25.1279c-33.0488 22.1113 -50.0225 55.0225 -54.3008 93.9619
c-5.19922 47.3066 12.3076 94.4209 34.4443 135.358c21.9756 40.6348 48.0986 79.4033 75.5342 116.521zM427.322 46.1953c48.2402 66.3711 70.5566 148.195 84.0938 228.037c12.2119 71.9824 18.6621 145.154 20.8047 218.198
c-63.6631 -56.666 -121.001 -120.277 -170.611 -189.65c-28.5645 -39.9434 -56.6621 -81.8135 -76.0029 -127.129c-18.6973 -43.8066 -31.3242 -99.6611 -4.14941 -142.792c16.2783 -25.8359 47.2139 -45.4375 78.0557 -42.208
c29.6807 3.11133 50.1641 31.2676 67.8096 55.5439z" />
    <glyph glyph-name="E" unicode="E" horiz-adv-x="623" 
d="M558.819 30.2402c11.6904 2.86328 20.8193 -10.2002 6.45215 -13.8516c-89.1553 -22.6807 -180.729 -42.3945 -273.104 -32.4473c-36.5811 3.9375 -74.9482 7.63672 -106.225 29.0459c-31.502 21.5645 -49.5527 56.0098 -61.3174 91.3877
c-25.3604 76.2451 -24.4375 161.443 -19.5088 240.831c0.206055 3.34863 0.479492 6.69434 0.705078 10.043c-11.0508 -0.936523 -22.1045 -1.85059 -33.168 -2.67773c-13.9014 -1.03906 -14.0723 13.3926 -0.508789 14.5801c11.585 1.01367 23.1631 2.0918 34.7383 3.19824
c11.459 153.255 40.1484 305.5 70.1191 456.152c-37.2959 -5.06055 -74.501 -10.8291 -111.584 -17.3438c-12.8945 -2.26758 -23.3721 12.3477 -7.13867 15.3232c40.6123 7.44141 81.3633 13.9561 122.227 19.583c0.758789 3.79297 1.51172 7.59277 2.27051 11.3857
c3.75781 18.8105 34.4199 23.6357 49.2666 22.9668c11.3623 -0.514648 38.4561 -7.58594 40.5859 -23.2373c87.2988 9.08203 175.013 14.085 262.881 14.9795c16.6963 0.170898 17.3623 -17.5264 0.617188 -17.6807c-88.7715 -0.813477 -177.453 -5.78027 -265.724 -14.833
c-13.9883 -84.6318 -31.9492 -168.581 -46.7666 -253.074c-11.9414 -68.0859 -23.002 -136.313 -30.2178 -205.06c62.4365 7.25488 124.716 15.8867 186.731 26.0332c12.6562 2.06836 22.9541 -12.3955 7.00391 -15.0303
c-64.8848 -10.7256 -129.973 -19.7334 -195.282 -26.9141c-0.392578 -4.10156 -0.833008 -8.2002 -1.19629 -12.3086c-6.67871 -75.3408 -14.4609 -152.493 -2.24219 -227.718c4.97363 -30.6396 13.6055 -69.4121 36.6816 -91.8193
c24.5977 -23.8799 63.833 -32.5986 96.7666 -35.1172c80.7422 -6.17676 159.277 14.5674 236.938 33.6025z" />
    <glyph glyph-name="E" unicode="&#xcb;" horiz-adv-x="623" 
d="M558.819 30.2402c11.6904 2.86328 20.8193 -10.2002 6.45215 -13.8516c-89.1553 -22.6807 -180.729 -42.3945 -273.104 -32.4473c-36.5811 3.9375 -74.9482 7.63672 -106.225 29.0459c-31.502 21.5645 -49.5527 56.0098 -61.3174 91.3877
c-25.3604 76.2451 -24.4375 161.443 -19.5088 240.831c0.206055 3.34863 0.479492 6.69434 0.705078 10.043c-11.0508 -0.936523 -22.1045 -1.85059 -33.168 -2.67773c-13.9014 -1.03906 -14.0723 13.3926 -0.508789 14.5801c11.585 1.01367 23.1631 2.0918 34.7383 3.19824
c11.459 153.255 40.1484 305.5 70.1191 456.152c-37.2959 -5.06055 -74.501 -10.8291 -111.584 -17.3438c-12.8945 -2.26758 -23.3721 12.3477 -7.13867 15.3232c40.6123 7.44141 81.3633 13.9561 122.227 19.583c0.758789 3.79297 1.51172 7.59277 2.27051 11.3857
c3.75781 18.8105 34.4199 23.6357 49.2666 22.9668c11.3623 -0.514648 38.4561 -7.58594 40.5859 -23.2373c87.2988 9.08203 175.013 14.085 262.881 14.9795c16.6963 0.170898 17.3623 -17.5264 0.617188 -17.6807c-88.7715 -0.813477 -177.453 -5.78027 -265.724 -14.833
c-13.9883 -84.6318 -31.9492 -168.581 -46.7666 -253.074c-11.9414 -68.0859 -23.002 -136.313 -30.2178 -205.06c62.4365 7.25488 124.716 15.8867 186.731 26.0332c12.6562 2.06836 22.9541 -12.3955 7.00391 -15.0303
c-64.8848 -10.7256 -129.973 -19.7334 -195.282 -26.9141c-0.392578 -4.10156 -0.833008 -8.2002 -1.19629 -12.3086c-6.67871 -75.3408 -14.4609 -152.493 -2.24219 -227.718c4.97363 -30.6396 13.6055 -69.4121 36.6816 -91.8193
c24.5977 -23.8799 63.833 -32.5986 96.7666 -35.1172c80.7422 -6.17676 159.277 14.5674 236.938 33.6025z" />
    <glyph glyph-name="E" unicode="&#xca;" horiz-adv-x="623" 
d="M558.819 30.2402c11.6904 2.86328 20.8193 -10.2002 6.45215 -13.8516c-89.1553 -22.6807 -180.729 -42.3945 -273.104 -32.4473c-36.5811 3.9375 -74.9482 7.63672 -106.225 29.0459c-31.502 21.5645 -49.5527 56.0098 -61.3174 91.3877
c-25.3604 76.2451 -24.4375 161.443 -19.5088 240.831c0.206055 3.34863 0.479492 6.69434 0.705078 10.043c-11.0508 -0.936523 -22.1045 -1.85059 -33.168 -2.67773c-13.9014 -1.03906 -14.0723 13.3926 -0.508789 14.5801c11.585 1.01367 23.1631 2.0918 34.7383 3.19824
c11.459 153.255 40.1484 305.5 70.1191 456.152c-37.2959 -5.06055 -74.501 -10.8291 -111.584 -17.3438c-12.8945 -2.26758 -23.3721 12.3477 -7.13867 15.3232c40.6123 7.44141 81.3633 13.9561 122.227 19.583c0.758789 3.79297 1.51172 7.59277 2.27051 11.3857
c3.75781 18.8105 34.4199 23.6357 49.2666 22.9668c11.3623 -0.514648 38.4561 -7.58594 40.5859 -23.2373c87.2988 9.08203 175.013 14.085 262.881 14.9795c16.6963 0.170898 17.3623 -17.5264 0.617188 -17.6807c-88.7715 -0.813477 -177.453 -5.78027 -265.724 -14.833
c-13.9883 -84.6318 -31.9492 -168.581 -46.7666 -253.074c-11.9414 -68.0859 -23.002 -136.313 -30.2178 -205.06c62.4365 7.25488 124.716 15.8867 186.731 26.0332c12.6562 2.06836 22.9541 -12.3955 7.00391 -15.0303
c-64.8848 -10.7256 -129.973 -19.7334 -195.282 -26.9141c-0.392578 -4.10156 -0.833008 -8.2002 -1.19629 -12.3086c-6.67871 -75.3408 -14.4609 -152.493 -2.24219 -227.718c4.97363 -30.6396 13.6055 -69.4121 36.6816 -91.8193
c24.5977 -23.8799 63.833 -32.5986 96.7666 -35.1172c80.7422 -6.17676 159.277 14.5674 236.938 33.6025z" />
    <glyph glyph-name="E" unicode="&#xc9;" horiz-adv-x="623" 
d="M558.819 30.2402c11.6904 2.86328 20.8193 -10.2002 6.45215 -13.8516c-89.1553 -22.6807 -180.729 -42.3945 -273.104 -32.4473c-36.5811 3.9375 -74.9482 7.63672 -106.225 29.0459c-31.502 21.5645 -49.5527 56.0098 -61.3174 91.3877
c-25.3604 76.2451 -24.4375 161.443 -19.5088 240.831c0.206055 3.34863 0.479492 6.69434 0.705078 10.043c-11.0508 -0.936523 -22.1045 -1.85059 -33.168 -2.67773c-13.9014 -1.03906 -14.0723 13.3926 -0.508789 14.5801c11.585 1.01367 23.1631 2.0918 34.7383 3.19824
c11.459 153.255 40.1484 305.5 70.1191 456.152c-37.2959 -5.06055 -74.501 -10.8291 -111.584 -17.3438c-12.8945 -2.26758 -23.3721 12.3477 -7.13867 15.3232c40.6123 7.44141 81.3633 13.9561 122.227 19.583c0.758789 3.79297 1.51172 7.59277 2.27051 11.3857
c3.75781 18.8105 34.4199 23.6357 49.2666 22.9668c11.3623 -0.514648 38.4561 -7.58594 40.5859 -23.2373c87.2988 9.08203 175.013 14.085 262.881 14.9795c16.6963 0.170898 17.3623 -17.5264 0.617188 -17.6807c-88.7715 -0.813477 -177.453 -5.78027 -265.724 -14.833
c-13.9883 -84.6318 -31.9492 -168.581 -46.7666 -253.074c-11.9414 -68.0859 -23.002 -136.313 -30.2178 -205.06c62.4365 7.25488 124.716 15.8867 186.731 26.0332c12.6562 2.06836 22.9541 -12.3955 7.00391 -15.0303
c-64.8848 -10.7256 -129.973 -19.7334 -195.282 -26.9141c-0.392578 -4.10156 -0.833008 -8.2002 -1.19629 -12.3086c-6.67871 -75.3408 -14.4609 -152.493 -2.24219 -227.718c4.97363 -30.6396 13.6055 -69.4121 36.6816 -91.8193
c24.5977 -23.8799 63.833 -32.5986 96.7666 -35.1172c80.7422 -6.17676 159.277 14.5674 236.938 33.6025z" />
    <glyph glyph-name="F" unicode="F" horiz-adv-x="474" 
d="M298.848 882.279c14.0908 0.492188 39.3652 -4.77148 46.7295 -19.7148c13.1934 0.276367 26.3838 0.549805 39.5674 0.871094c49.3857 1.20312 98.8516 3.13965 147.932 9.02344c44.6982 5.35938 99.9131 10.0146 133.854 42.9893
c6.18945 6.00977 26.75 1.3125 18.791 -6.39844c-31.9551 -30.9609 -76.3086 -39.3828 -118.797 -45.9131c-49.7646 -7.65039 -100.073 -10.8447 -150.359 -12.4951c-22.9824 -0.755859 -46.0039 -1.20312 -69.0283 -1.65039
c-1.7793 -62.0059 -3.87402 -123.999 -5.09668 -186.021c-2.08496 -105.787 -2.35547 -211.612 -0.556641 -317.406c23.668 4.41699 47.4131 8.38965 71.374 10.8828c15.7793 1.64355 32.1191 3.27734 47.9893 2.42773c8.09082 -0.43457 16.0498 -1.75977 21.0068 -8.69922
c7.24805 -10.1494 -14.1035 -15.7344 -19.5176 -8.20605c-3.6582 5.08984 -24.0283 1.50879 -30.4141 1.07129c-11.3594 -0.775391 -22.667 -1.98145 -33.9463 -3.5293c-18.8428 -2.58301 -37.5566 -6.01855 -56.2285 -9.62793
c1.02637 -55.71 2.02051 -111.43 3.60645 -167.127c1.625 -57.042 7.34473 -116.284 -4.88379 -172.432c-4.81934 -22.1211 -55.8682 -22.7871 -63.0488 -2.2041c-21.5254 61.7002 -20.4834 131.472 -23.8486 196.132c-0.810547 15.5225 -1.54395 31.0547 -2.23535 46.5898
c-4.02734 22.4492 -8.84668 44.7432 -14.8271 66.79c-1.17773 4.33984 -2.43262 8.75684 -3.77051 13.209c-5.65234 -0.681641 -11.3145 -1.30566 -16.9961 -1.81738c-34.7959 -3.13379 -70.4023 -2.73145 -104.664 4.67383
c-25.0967 5.42383 -53.0596 14.1455 -59.7188 42.208c-13.9336 58.7246 58.0098 83.5283 103.516 73.4844c50.8037 -11.2119 76.8877 -51.3613 92.7451 -96.1689c-4.87988 170.984 -3.10449 342.471 4.05371 513.127c-51.2832 -2.25879 -102.399 -6.55664 -153.021 -16.2783
c-10.6934 -2.05566 -19.2705 10.0889 -5.90332 12.6719c53.4521 10.3271 107.46 14.8242 161.639 17.1982c7.22559 15.1592 28.2012 21.7861 44.0586 22.3398zM135.035 325.908c31.0732 -4.63867 62.2529 -3.68066 93.2754 -0.0966797
c-15.0879 43.4629 -40.2227 86.0186 -90.5762 90.7383c-28.127 2.63477 -60.4814 -12.251 -63.3057 -43.3311c-3.23633 -35.6162 32.541 -43.1221 60.6064 -47.3105z" />
    <glyph glyph-name="G" unicode="G" horiz-adv-x="634" 
d="M560.501 228.457c2.87891 -61.3428 6.3623 -122.933 -1.64844 -184.038c-12.543 -95.6113 -51.2568 -187.076 -138.977 -236.175c-69.8525 -39.1006 -174.34 -51.457 -237.275 7.6377c-28.7637 27.0107 -39.3994 66.1689 -26.46 103.722
c13.9297 40.4258 48.6006 68.6201 85.7773 87.0215c70.2549 34.7705 151.795 48.5713 230.703 45.6699c3.0918 25.1611 4.62305 50.6465 5.21484 76.1865c1.00977 43.54 -0.998047 87.041 -1.11719 130.568c-8.82812 -34.0947 -20.8184 -67.1826 -38.8438 -97.8643
c-31.6113 -53.8086 -81.0576 -97.2744 -143.707 -109.171c-58.248 -11.0635 -117.812 1.0293 -163.724 39.2061c-49.1436 40.8633 -71.2002 105.221 -77.1836 167.065c-12.1191 125.25 10.0146 257.729 58.998 373.39c45.9268 108.441 129.767 245.415 258.961 260.741
c54.0693 6.41504 110.162 -16.8311 123.851 -73.3418c16.208 -66.915 -2.75391 -139.408 -19.1768 -204.357c-2.5127 -9.94043 -26.8818 -8.27051 -24.0801 3.45215c8.53125 35.7061 16.918 71.6123 20.2832 108.245c2.95312 32.1445 4.17871 68.3076 -9.03027 98.5195
c-26.0645 59.6152 -92.3711 26.8398 -127.694 -4.22461c-37.1865 -32.7012 -67.5811 -76.2383 -93.5176 -118.086c-27.7539 -44.7783 -49.1768 -93.8643 -65.5742 -143.848c-33.1748 -101.122 -48.5947 -214.807 -36.4824 -320.896
c5.63281 -49.3398 20.0547 -98.5967 53.7666 -136.436c14.3193 -16.0723 35.0312 -31.3691 56.5439 -35.709c25.3701 -5.11816 55.3467 3.77051 78.1592 14.5508c106.389 50.2695 132.312 180.58 149.484 285.823c0.862305 15.9346 2.32617 31.7373 4.7998 47.2207
c4.28809 26.8271 54.5811 28.667 60.6094 2.11621c7.01953 -30.9189 8.77246 -63.3926 11.2754 -94.9941c2.42871 -30.668 4.62305 -61.2656 6.06445 -91.9951zM421.732 -107.591c26.9912 45.6084 41.5059 95.126 49.0205 146.213
c-35.0215 1.21973 -70.0977 -1.21191 -104.694 -7.56934c-45.8887 -8.42871 -94.5469 -22.04 -134.043 -47.6895c-34.6094 -22.4746 -63.541 -60.6484 -58.2715 -104.104c4.49707 -37.125 34.918 -65.249 68.7842 -77.4385c75.9873 -27.3486 142.87 29.1914 179.204 90.5889
z" />
    <glyph glyph-name="H" unicode="H" horiz-adv-x="707" 
d="M234.416 847.976c-0.884766 -62.2178 -8.56445 -124.333 -12.6631 -186.403c-7.13184 -108.196 -10.9316 -216.608 -11.4434 -325.037c40.3906 1.01953 81.1797 -1.86328 121.168 -4.52734c73.4688 -4.89355 147.271 -12.8203 220.987 -14.207
c-0.196289 67.1787 1.08691 134.367 3.56445 201.504c2.02637 54.9375 4.90527 109.844 8.63379 164.691c3.82227 56.2285 7.29004 112.54 17.5176 168.016c5.16699 28.0244 76.6113 27.0879 76.167 -4.02734c-0.884766 -62.2148 -8.56348 -124.333 -12.6553 -186.416
c-7.30566 -110.79 -11.1406 -221.812 -11.501 -332.843c-0.00976562 -3.10156 -0.00292969 -6.20312 -0.00976562 -9.30078c19.1484 1.24219 38.2803 3.15625 57.3867 5.93262c12.3828 1.80176 22.5459 -12.4463 6.86621 -14.7334
c-21.4033 -3.12402 -42.8291 -5.21191 -64.2676 -6.53418c-0.0322266 -46.7793 0.273438 -93.5654 1.17773 -140.329c0.527344 -27.4863 1.40918 -54.9629 2.22949 -82.4434c0.791016 -26.5215 3.15234 -56.3047 -6.3252 -81.5039
c-7.57324 -20.1426 -47.6641 -20.4062 -57.0645 -1.99512c-14.0264 27.4805 -13.666 63.1738 -15.2451 93.4463c-1.65332 31.6787 -3.02051 63.373 -4.10449 95.0742c-1.32227 38.6953 -2.04297 77.4033 -2.28711 116.114
c-61.2402 1.0166 -122.522 6.31543 -183.676 11.0254c-52.7119 4.05957 -105.71 7.77539 -158.624 6.77148c-0.125 -52.1621 0.151367 -104.343 1.1582 -156.491c0.527344 -27.4863 1.40918 -54.9629 2.22949 -82.4434c0.791016 -26.5215 3.15234 -56.3047 -6.3252 -81.5039
c-7.57324 -20.1426 -47.6641 -20.4062 -57.0645 -1.99512c-14.0264 27.4805 -13.666 63.1738 -15.2451 93.4463c-1.65332 31.6787 -3.02051 63.373 -4.10449 95.0742c-1.41504 41.3779 -2.17383 82.7725 -2.36035 124.17
c-21.2686 -6.18359 -41.0439 -16.2402 -57.1035 -32.7725c-6.23145 -6.41504 -27.7471 -1.90137 -19.624 6.68164c21.0947 22.2842 47.9443 35.1553 76.7246 42.5098c-0.0546875 64.1357 1.2002 128.277 3.56445 192.371c2.02637 54.9375 4.90527 109.844 8.63379 164.691
c3.82227 56.2285 7.29004 112.54 17.5176 168.016c5.16699 28.0234 76.6113 27.0869 76.167 -4.02832z" />
    <glyph glyph-name="I" unicode="I" horiz-adv-x="304" 
d="M279.693 881.861c11.2021 2.16797 20.1621 -10.5859 6.16797 -13.2686c-22.0947 -4.2373 -44.2314 -8.83789 -66.416 -13.4121c2.16797 -61.626 0.150391 -123.436 -0.577148 -185.065c-1.35449 -115.235 -2.43262 -230.391 -1.87891 -345.633
c0.266602 -55.3564 1.08008 -110.703 2.37695 -166.043c1.3125 -55.9287 4.77734 -112.093 -0.334961 -167.87c15.6934 0.09375 31.3223 -0.182617 46.71 -0.597656c16.2979 -0.44043 17.0957 -17.9248 0.608398 -17.3711
c-17.8936 0.601562 -35.6328 0.353516 -53.3203 -0.31543c-10.2881 -10.6191 -32.6182 -11.542 -44.5088 -2.36035c-13.5312 -0.859375 -27.0908 -1.75391 -40.7051 -2.55469c-1.83691 -0.601562 -3.90234 -0.900391 -6.06445 -0.749023
c-1.92676 0.134766 -3.85742 0.266602 -5.78418 0.401367c-11.0986 0.772461 -10.9092 12.7979 -0.517578 14.8018c14.583 2.81543 29.4521 4.78125 44.4531 6.13574c-11.7451 62.9229 -13.0156 127.657 -16.4287 191.462c-5.92871 110.79 -8.13574 221.242 -7.1709 332.183
l1.57324 181.096c0.427734 48.9766 0.179688 98.0371 2.37988 146.976c-22.0918 -3.92188 -44.2285 -7.37402 -66.4131 -9.94727c-2.01367 -1.29004 -4.60059 -2.13281 -7.38672 -1.97168l-9.6123 0.55957c-11.8389 0.691406 -6.45996 11.4463 2.14258 12.4531
c27.3711 3.20703 54.6875 7.73047 81.9453 12.8682c0.373047 6.75293 0.78125 13.5088 1.27051 20.2578c2.41895 33.3672 74.5879 36.5908 76.3604 2.66699c0.12207 -2.37109 0.186523 -4.74512 0.295898 -7.11621c20.3154 4.25977 40.5928 8.49707 60.835 12.415z" />
    <glyph glyph-name="I" unicode="&#xcf;" horiz-adv-x="304" 
d="M279.693 881.861c11.2021 2.16797 20.1621 -10.5859 6.16797 -13.2686c-22.0947 -4.2373 -44.2314 -8.83789 -66.416 -13.4121c2.16797 -61.626 0.150391 -123.436 -0.577148 -185.065c-1.35449 -115.235 -2.43262 -230.391 -1.87891 -345.633
c0.266602 -55.3564 1.08008 -110.703 2.37695 -166.043c1.3125 -55.9287 4.77734 -112.093 -0.334961 -167.87c15.6934 0.09375 31.3223 -0.182617 46.71 -0.597656c16.2979 -0.44043 17.0957 -17.9248 0.608398 -17.3711
c-17.8936 0.601562 -35.6328 0.353516 -53.3203 -0.31543c-10.2881 -10.6191 -32.6182 -11.542 -44.5088 -2.36035c-13.5312 -0.859375 -27.0908 -1.75391 -40.7051 -2.55469c-1.83691 -0.601562 -3.90234 -0.900391 -6.06445 -0.749023
c-1.92676 0.134766 -3.85742 0.266602 -5.78418 0.401367c-11.0986 0.772461 -10.9092 12.7979 -0.517578 14.8018c14.583 2.81543 29.4521 4.78125 44.4531 6.13574c-11.7451 62.9229 -13.0156 127.657 -16.4287 191.462c-5.92871 110.79 -8.13574 221.242 -7.1709 332.183
l1.57324 181.096c0.427734 48.9766 0.179688 98.0371 2.37988 146.976c-22.0918 -3.92188 -44.2285 -7.37402 -66.4131 -9.94727c-2.01367 -1.29004 -4.60059 -2.13281 -7.38672 -1.97168l-9.6123 0.55957c-11.8389 0.691406 -6.45996 11.4463 2.14258 12.4531
c27.3711 3.20703 54.6875 7.73047 81.9453 12.8682c0.373047 6.75293 0.78125 13.5088 1.27051 20.2578c2.41895 33.3672 74.5879 36.5908 76.3604 2.66699c0.12207 -2.37109 0.186523 -4.74512 0.295898 -7.11621c20.3154 4.25977 40.5928 8.49707 60.835 12.415z" />
    <glyph glyph-name="I" unicode="&#xce;" horiz-adv-x="304" 
d="M279.693 881.861c11.2021 2.16797 20.1621 -10.5859 6.16797 -13.2686c-22.0947 -4.2373 -44.2314 -8.83789 -66.416 -13.4121c2.16797 -61.626 0.150391 -123.436 -0.577148 -185.065c-1.35449 -115.235 -2.43262 -230.391 -1.87891 -345.633
c0.266602 -55.3564 1.08008 -110.703 2.37695 -166.043c1.3125 -55.9287 4.77734 -112.093 -0.334961 -167.87c15.6934 0.09375 31.3223 -0.182617 46.71 -0.597656c16.2979 -0.44043 17.0957 -17.9248 0.608398 -17.3711
c-17.8936 0.601562 -35.6328 0.353516 -53.3203 -0.31543c-10.2881 -10.6191 -32.6182 -11.542 -44.5088 -2.36035c-13.5312 -0.859375 -27.0908 -1.75391 -40.7051 -2.55469c-1.83691 -0.601562 -3.90234 -0.900391 -6.06445 -0.749023
c-1.92676 0.134766 -3.85742 0.266602 -5.78418 0.401367c-11.0986 0.772461 -10.9092 12.7979 -0.517578 14.8018c14.583 2.81543 29.4521 4.78125 44.4531 6.13574c-11.7451 62.9229 -13.0156 127.657 -16.4287 191.462c-5.92871 110.79 -8.13574 221.242 -7.1709 332.183
l1.57324 181.096c0.427734 48.9766 0.179688 98.0371 2.37988 146.976c-22.0918 -3.92188 -44.2285 -7.37402 -66.4131 -9.94727c-2.01367 -1.29004 -4.60059 -2.13281 -7.38672 -1.97168l-9.6123 0.55957c-11.8389 0.691406 -6.45996 11.4463 2.14258 12.4531
c27.3711 3.20703 54.6875 7.73047 81.9453 12.8682c0.373047 6.75293 0.78125 13.5088 1.27051 20.2578c2.41895 33.3672 74.5879 36.5908 76.3604 2.66699c0.12207 -2.37109 0.186523 -4.74512 0.295898 -7.11621c20.3154 4.25977 40.5928 8.49707 60.835 12.415z" />
    <glyph glyph-name="I" unicode="&#xcd;" horiz-adv-x="304" 
d="M279.693 881.861c11.2021 2.16797 20.1621 -10.5859 6.16797 -13.2686c-22.0947 -4.2373 -44.2314 -8.83789 -66.416 -13.4121c2.16797 -61.626 0.150391 -123.436 -0.577148 -185.065c-1.35449 -115.235 -2.43262 -230.391 -1.87891 -345.633
c0.266602 -55.3564 1.08008 -110.703 2.37695 -166.043c1.3125 -55.9287 4.77734 -112.093 -0.334961 -167.87c15.6934 0.09375 31.3223 -0.182617 46.71 -0.597656c16.2979 -0.44043 17.0957 -17.9248 0.608398 -17.3711
c-17.8936 0.601562 -35.6328 0.353516 -53.3203 -0.31543c-10.2881 -10.6191 -32.6182 -11.542 -44.5088 -2.36035c-13.5312 -0.859375 -27.0908 -1.75391 -40.7051 -2.55469c-1.83691 -0.601562 -3.90234 -0.900391 -6.06445 -0.749023
c-1.92676 0.134766 -3.85742 0.266602 -5.78418 0.401367c-11.0986 0.772461 -10.9092 12.7979 -0.517578 14.8018c14.583 2.81543 29.4521 4.78125 44.4531 6.13574c-11.7451 62.9229 -13.0156 127.657 -16.4287 191.462c-5.92871 110.79 -8.13574 221.242 -7.1709 332.183
l1.57324 181.096c0.427734 48.9766 0.179688 98.0371 2.37988 146.976c-22.0918 -3.92188 -44.2285 -7.37402 -66.4131 -9.94727c-2.01367 -1.29004 -4.60059 -2.13281 -7.38672 -1.97168l-9.6123 0.55957c-11.8389 0.691406 -6.45996 11.4463 2.14258 12.4531
c27.3711 3.20703 54.6875 7.73047 81.9453 12.8682c0.373047 6.75293 0.78125 13.5088 1.27051 20.2578c2.41895 33.3672 74.5879 36.5908 76.3604 2.66699c0.12207 -2.37109 0.186523 -4.74512 0.295898 -7.11621c20.3154 4.25977 40.5928 8.49707 60.835 12.415z" />
    <glyph glyph-name="J" unicode="J" horiz-adv-x="559" 
d="M379.497 -33.9629c-52.7051 -37.8486 -118.156 -43.1201 -177.109 -18.0498c-53.7412 22.8545 -96.0684 65.7217 -120.808 118.389c-26.4863 56.3857 -34.4199 121.67 -30.7266 183.393c3.74121 62.5654 21.0938 124.999 57.3506 176.72
c68.208 97.3096 184.715 135.245 298.271 150.629c-0.238281 95.5371 -0.482422 191.042 2.73828 286.563c-42.0215 -1.33203 -84.0459 -2.44238 -126.08 -3.25977c-36.3945 -0.708008 -72.793 -1.22266 -109.194 -1.54395
c-28.2363 -0.250977 -74.1113 5.87109 -82.9482 -29.7324c-2.27734 -9.18457 -24.9062 -7.61133 -22.2266 3.18555c7.05469 28.4229 36.8994 38.6787 63.1094 40.6865c39.2227 3.00195 79.2881 1.07812 118.627 1.72168c55.9092 0.910156 111.806 2.3252 167.692 4.14258
c12.6885 8.92383 35.5654 10.2979 46.751 1.63086c10.9248 0.405273 21.8496 0.78125 32.7715 1.21582c14.1201 0.566406 14.5508 -14.3291 0.521484 -14.8887c-8.625 -0.34375 -17.25 -0.642578 -25.875 -0.967773c21.1172 -83.7949 28.7031 -168.218 32.2773 -254.525
c3.54883 -85.7031 6.03516 -171.949 3.56445 -257.703c-2.14941 -74.5947 -6.19336 -150.038 -27.4775 -221.962c-18.2412 -61.6484 -47.459 -127.029 -101.229 -165.644zM128.7 38.9912c31.8809 -46.2676 81.8301 -73.6855 138.39 -67.9336
c48.4043 4.92188 79.0469 47.7764 96.5449 89.5312c23.9668 57.1895 30.3652 120.096 35.9082 181.297c6.18359 68.2822 6.58887 136.883 6.93262 205.391c0.189453 38.3311 0.12793 76.6533 0.0341797 114.972c-122.95 -17.7324 -247.904 -64.9238 -300.818 -186.545
c-23.4971 -54.0049 -30.8193 -113.916 -27.2676 -172.39c3.47754 -57.2637 17.3076 -116.478 50.2764 -164.322z" />
    <glyph glyph-name="K" unicode="K" horiz-adv-x="550" 
d="M268.886 401.729c-45.0518 12.7686 -92.0361 2.97363 -138.095 2.31738c-0.0292969 -26.5146 -0.00976562 -53.0332 0.119141 -79.5576c0.266602 -55.3564 1.08008 -110.703 2.37695 -166.043c1.36426 -58.2744 5.09961 -116.806 -1 -174.887
c-2.69238 -25.627 -52.335 -26.8398 -57.2695 -2.00098c-12.8975 64.9268 -14.1006 131.894 -17.6299 197.863c-5.92871 110.79 -8.13574 221.242 -7.1709 332.183l1.57324 181.096c0.524414 60.4004 -0.0419922 120.923 4.32324 181.194
c2.41895 33.3672 74.5879 36.5908 76.3604 2.66699c3.58691 -68.6973 1.12598 -137.681 0.31543 -206.439c-0.865234 -73.5098 -1.56641 -146.984 -1.85254 -220.472c33.4443 17.9609 66.9922 34.5703 97.8887 57.6113c35.4775 26.4541 66.2939 60.0176 92.127 95.8525
c56.209 77.9658 88.3574 172.316 94.3477 268.044c0.649414 10.3818 23.8027 10.9414 23.3848 0.817383c-4.0791 -98.4453 -36.2402 -194.002 -93.0059 -274.635c-27.1582 -38.5791 -59.6406 -72.0723 -94.8486 -103.313
c-16.3555 -14.5127 -34.0625 -29.0312 -52.8564 -41.8516c2.49316 0.208984 5.00293 0.420898 7.46094 0.636719c30.4883 2.68945 62.0547 2.4707 92.2471 -3.09766c61.9609 -11.4307 110.604 -45.6572 138.85 -102.354c26.1865 -52.5635 36.9121 -113.189 40.0967 -171.36
c1.49902 -27.3643 1.67285 -54.8477 1.49902 -82.2471c-0.193359 -30.2852 2.73047 -62.0732 -0.078125 -92.1436c-3.85742 -41.2939 -84.3711 -43.0791 -92.1084 -3.2168c-5.00879 25.8135 -2.55078 54.6318 -2.38672 80.873
c0.161133 25.7334 1.20312 51.4502 0.977539 77.1865c-0.453125 51.875 -5.87988 103.477 -23.9658 152.401c-16.9219 45.7754 -43.3467 79.1748 -91.6797 92.876z" />
    <glyph glyph-name="L" unicode="L" horiz-adv-x="469" 
d="M50.4707 -46.249c10.9541 28.7441 33.1084 44.792 59.4854 52.626c-19.7822 72.8311 -24.0518 150.186 -27.668 225.275c-3.72559 77.3613 -3.53223 154.954 1.79492 232.234c4.73242 68.623 13.4736 137.092 27.0107 204.548
c12.2695 61.1406 33.332 121.583 71.0107 171.981c35.7285 47.79 96.998 80.292 157.212 64.0908c53.3613 -14.3574 82.7168 -62.585 93.9512 -113.798c27.2295 -124.102 -6.55664 -251.983 -59.4229 -364.179c-24.7871 -52.6025 -60.9053 -97.2197 -99.1914 -140.602
c-32.6279 -36.9707 -68.6748 -70.1094 -109.252 -97.6797c3.84082 -58.7119 11.459 -117.633 10.584 -176.438c19.4375 -1.53418 38.3311 -5.2207 54.5293 -9.71191c65.8633 -18.2598 162.009 -64.3184 214.604 5.28906c6.10254 8.07812 29.748 3.2207 21.7119 -7.39258
c-41.1016 -54.2881 -116.612 -51.0449 -175.498 -34.6025c-38.7559 10.8223 -76.3799 27.1299 -116.758 31.1514c-0.482422 0.0478516 -0.97168 0.0869141 -1.45703 0.128906c-9.85059 -15.3613 -43.2949 -18.9355 -56.2695 -6.33105
c-18.9229 -6.92969 -34.9443 -19.5186 -42.7617 -39.9756c-3.6416 -9.5293 -27.7275 -7.40625 -23.6162 3.38379zM161.532 383.248c-1.45703 -53.085 -0.680664 -106.213 1.88379 -159.253c32.6689 25.9678 64.4082 53.1523 93.2207 83.2959
c20.4961 21.4414 38.2773 45.5146 54.6621 70.2061c17.4844 26.3545 36.5557 52.291 50.6211 80.7041c26.042 52.6084 43.459 110.921 50.9482 169.092c7.26758 56.4336 7.94629 118.372 -7.88477 173.497c-13.7783 47.9824 -59.2705 106.308 -113.224 72.043
c-43.7041 -27.7568 -63.1514 -80.4336 -78.3389 -127.563c-37.2119 -115.458 -48.5811 -241.346 -51.8887 -362.021z" />
    <glyph glyph-name="M" unicode="M" horiz-adv-x="864" 
d="M155.933 847.976c-0.884766 -62.2178 -8.55664 -124.331 -12.6621 -186.408c-7.11914 -108.01 -10.9189 -216.232 -11.4404 -324.474c10.9834 74.2852 24.6045 148.172 41.9609 221.032c11.8486 49.7324 26.0098 98.8311 45.9883 145.958
c20.4023 48.127 52.8047 117.416 107.975 132.906c89.6084 25.1572 109.126 -112.624 119.494 -170.802c17.3594 -97.4131 19.3252 -198.005 22.2783 -296.683c0.308594 -10.4268 0.546875 -20.8535 0.772461 -31.2803c6.37988 39.2324 13.2158 78.3877 20.75 117.407
c17.5713 91.0205 37.71 183.428 77.084 267.892c18.373 39.4219 45.7725 96.9492 92.8477 106.951c48.9092 10.3916 81.8457 -41.3877 100.109 -78.6543c24.582 -50.1572 34.1465 -107.897 39.4482 -163.038c6.02539 -62.6943 6.70703 -125.421 6.8584 -188.347
c0.292969 -122.77 -2.16504 -245.501 6.39258 -368.098c1.86914 -26.7529 -34.8955 -37.1309 -54.8027 -38.4082c-21.3516 -1.37012 -55.8711 8.58008 -57.3477 34.4902c-7.30566 128.21 -1.57324 256.655 8.2002 384.576c4.31445 56.4785 8.91211 113.131 10.1602 169.777
c1.13867 51.7178 1.65332 103.931 -8.12305 154.947c-4.20508 21.9375 -10.9932 47.7188 -25.5312 65.3262c-21.4229 25.9453 -45.5576 -2.01465 -59.6455 -21.1533c-30.623 -41.6035 -50.1445 -90.8984 -66.5996 -139.515
c-26.5283 -78.3838 -42.2568 -160.638 -56.9199 -241.91c-11.7686 -65.2295 -21.96 -130.739 -31.2383 -196.374c0.633789 -37.9805 2.42578 -76.334 -0.0292969 -114.125c-2.76367 -42.5586 -92.9414 -46.2803 -96.8828 -3.38379
c-4.12402 44.8877 -1.08691 91.0137 -0.701172 136.065c0.453125 53.0332 1.08008 106.057 1.75195 159.087c1.16797 92.208 -0.0283203 184.3 -1.53027 276.479c-0.556641 34.2266 -1.53418 68.9482 -6.15723 102.904c-1.49316 10.9863 -3.61035 23.9385 -6.11328 33.6963
c-3.72559 14.5215 -14.1904 31.8418 -31.5947 25.3818c-14.252 -5.29199 -26.0586 -18.6523 -35.7158 -29.8994c-35.5938 -41.4453 -57.0615 -95.2832 -74.0957 -146.634c-15.8926 -47.9053 -27.6514 -97.1777 -38.0879 -146.524
c-21.5732 -102.01 -36.7676 -205.374 -50.2539 -308.787c0.125 -8.2002 0.231445 -16.4004 0.388672 -24.6006c0.53125 -27.4863 1.41309 -54.9629 2.2334 -82.4434c0.791016 -26.5215 3.15234 -56.3047 -6.3252 -81.5039
c-7.57324 -20.1426 -47.668 -20.4062 -57.0654 -1.99512c-14.0293 27.4805 -13.6689 63.1738 -15.248 93.4463c-1.65332 31.6787 -3.02051 63.373 -4.10449 95.0742c-3.7959 110.954 -2.8916 222.026 1.2002 332.964c2.02637 54.9375 4.90527 109.844 8.63379 164.691
c3.8252 56.2285 7.29297 112.54 17.5205 168.016c5.16699 28.0234 76.6084 27.0869 76.168 -4.02832z" />
    <glyph glyph-name="N" unicode="N" horiz-adv-x="577" 
d="M143.273 661.556c-7.30566 -110.79 -11.1396 -221.81 -11.5029 -332.827c-0.0615234 -18.833 -0.0458984 -37.666 0.0117188 -56.499c14.876 91.3428 32.3604 182.306 55.4297 271.747c14.5156 56.2832 32.1641 111.774 57.2314 164.338
c22.8223 47.8506 62.0742 125.35 124.756 123.706c64.6797 -1.69531 101.261 -85.7803 115.892 -137.913c11.1152 -39.5957 16.542 -79.3555 20.4053 -120.094c17.0312 -179.67 22.6416 -361.238 21.0488 -541.675c-0.238281 -26.9434 -33.126 -37.0195 -54.8027 -38.4092
c-19.8457 -1.27441 -57.9033 8.5957 -57.3467 34.4902c2.02637 94.5176 2.48926 189.132 3.13574 283.669c0.585938 85.9121 3.39746 171.795 5.125 257.69c0.701172 34.9824 1.37402 70.3027 -1.17676 105.205c-2.63477 36.0566 -22.4424 177.393 -85.1914 129.069
c-26.9395 -20.7471 -46.1455 -54.1631 -61.5586 -83.7861c-14.4736 -27.8242 -26.6377 -56.9775 -37.2412 -86.4814c-17.501 -48.6904 -30.3213 -99.0762 -41.9248 -149.449c-26.084 -113.219 -45.2324 -228.036 -62.0967 -342.988
c0.501953 -20.0137 1.08398 -40.0273 1.68262 -60.041c0.791016 -26.5215 3.15234 -56.3047 -6.3252 -81.5039c-7.57324 -20.1426 -47.6641 -20.4062 -57.0645 -1.99512c-14.0264 27.4805 -13.666 63.1738 -15.2451 93.4463
c-1.65332 31.6787 -3.02051 63.373 -4.10449 95.0742c-3.7959 110.954 -2.8916 222.026 1.2002 332.964c2.02637 54.9375 4.90527 109.844 8.63379 164.691c3.82227 56.2285 7.29004 112.54 17.5176 168.016c5.16699 28.0234 76.6113 27.0869 76.167 -4.02832
c-0.884766 -62.2148 -8.56348 -124.333 -12.6553 -186.416z" />
    <glyph glyph-name="O" unicode="O" horiz-adv-x="588" 
d="M102.226 696.866c30.9033 70.7656 78.96 147.092 152.077 179.807c76.8691 34.3936 152.782 -5.16699 195.479 -71.9248c46.21 -72.249 70.0674 -163.189 81.6035 -247.402c11.958 -87.2949 8.37109 -176.511 -10.2041 -262.629
c-30.1895 -139.965 -118.006 -346.678 -293.829 -324.479c-42.2979 5.33691 -80.1016 27.3193 -102.843 64.0391c-22.4453 36.2402 -28.667 84.8662 -30.6582 126.44c-1.0166 21.2744 -0.591797 42.459 0.75293 63.5791c-11.0957 14.7666 -18.9648 33.7275 -24.0576 48.3652
c-16.2236 46.6221 -20.1191 96.6416 -20.5176 145.683c-0.772461 94.7754 14.0967 191.278 52.1963 278.522zM235.531 844.203c-59.7119 -44.1221 -98.3359 -116.792 -122.914 -185.303c-25.6885 -71.5801 -37.0098 -147.773 -37.9326 -223.651
c-0.469727 -38.8203 1.0166 -78.123 8.36426 -116.329c3.48047 -18.1123 8.45703 -35.957 15.3291 -53.0752c7.30273 62.6748 20.8691 124.877 29.999 187.121c3.02051 20.5928 23.4102 29.2373 42.6768 29.9092c13.8818 0.485352 47.2334 -6.63086 44.6602 -26.8594
c-12.1348 -95.3828 -39.3291 -189.614 -38.8047 -286.329c0.231445 -42.6748 5.19531 -84.6641 21.9756 -124.076c14.7344 -34.6064 38.3252 -54.7842 77.3936 -50.1416c73.9248 8.78223 124.961 68.6621 158 130.397c36.2373 67.7197 59.2266 143.7 70.4834 219.514
c11.459 77.1836 10.9092 156.124 -1.76562 233.121c-12.1963 74.0889 -34.6543 152.055 -74.1377 216.538c-20.2578 33.0879 -49.498 63.4346 -87.6299 74.7686c-37.6885 11.2021 -75.3086 -3.14941 -105.697 -25.6045z" />
    <glyph glyph-name="O" unicode="&#xd6;" horiz-adv-x="588" 
d="M102.226 696.866c30.9033 70.7656 78.96 147.092 152.077 179.807c76.8691 34.3936 152.782 -5.16699 195.479 -71.9248c46.21 -72.249 70.0674 -163.189 81.6035 -247.402c11.958 -87.2949 8.37109 -176.511 -10.2041 -262.629
c-30.1895 -139.965 -118.006 -346.678 -293.829 -324.479c-42.2979 5.33691 -80.1016 27.3193 -102.843 64.0391c-22.4453 36.2402 -28.667 84.8662 -30.6582 126.44c-1.0166 21.2744 -0.591797 42.459 0.75293 63.5791c-11.0957 14.7666 -18.9648 33.7275 -24.0576 48.3652
c-16.2236 46.6221 -20.1191 96.6416 -20.5176 145.683c-0.772461 94.7754 14.0967 191.278 52.1963 278.522zM235.531 844.203c-59.7119 -44.1221 -98.3359 -116.792 -122.914 -185.303c-25.6885 -71.5801 -37.0098 -147.773 -37.9326 -223.651
c-0.469727 -38.8203 1.0166 -78.123 8.36426 -116.329c3.48047 -18.1123 8.45703 -35.957 15.3291 -53.0752c7.30273 62.6748 20.8691 124.877 29.999 187.121c3.02051 20.5928 23.4102 29.2373 42.6768 29.9092c13.8818 0.485352 47.2334 -6.63086 44.6602 -26.8594
c-12.1348 -95.3828 -39.3291 -189.614 -38.8047 -286.329c0.231445 -42.6748 5.19531 -84.6641 21.9756 -124.076c14.7344 -34.6064 38.3252 -54.7842 77.3936 -50.1416c73.9248 8.78223 124.961 68.6621 158 130.397c36.2373 67.7197 59.2266 143.7 70.4834 219.514
c11.459 77.1836 10.9092 156.124 -1.76562 233.121c-12.1963 74.0889 -34.6543 152.055 -74.1377 216.538c-20.2578 33.0879 -49.498 63.4346 -87.6299 74.7686c-37.6885 11.2021 -75.3086 -3.14941 -105.697 -25.6045z" />
    <glyph glyph-name="O" unicode="&#xd5;" horiz-adv-x="588" 
d="M102.226 696.866c30.9033 70.7656 78.96 147.092 152.077 179.807c76.8691 34.3936 152.782 -5.16699 195.479 -71.9248c46.21 -72.249 70.0674 -163.189 81.6035 -247.402c11.958 -87.2949 8.37109 -176.511 -10.2041 -262.629
c-30.1895 -139.965 -118.006 -346.678 -293.829 -324.479c-42.2979 5.33691 -80.1016 27.3193 -102.843 64.0391c-22.4453 36.2402 -28.667 84.8662 -30.6582 126.44c-1.0166 21.2744 -0.591797 42.459 0.75293 63.5791c-11.0957 14.7666 -18.9648 33.7275 -24.0576 48.3652
c-16.2236 46.6221 -20.1191 96.6416 -20.5176 145.683c-0.772461 94.7754 14.0967 191.278 52.1963 278.522zM235.531 844.203c-59.7119 -44.1221 -98.3359 -116.792 -122.914 -185.303c-25.6885 -71.5801 -37.0098 -147.773 -37.9326 -223.651
c-0.469727 -38.8203 1.0166 -78.123 8.36426 -116.329c3.48047 -18.1123 8.45703 -35.957 15.3291 -53.0752c7.30273 62.6748 20.8691 124.877 29.999 187.121c3.02051 20.5928 23.4102 29.2373 42.6768 29.9092c13.8818 0.485352 47.2334 -6.63086 44.6602 -26.8594
c-12.1348 -95.3828 -39.3291 -189.614 -38.8047 -286.329c0.231445 -42.6748 5.19531 -84.6641 21.9756 -124.076c14.7344 -34.6064 38.3252 -54.7842 77.3936 -50.1416c73.9248 8.78223 124.961 68.6621 158 130.397c36.2373 67.7197 59.2266 143.7 70.4834 219.514
c11.459 77.1836 10.9092 156.124 -1.76562 233.121c-12.1963 74.0889 -34.6543 152.055 -74.1377 216.538c-20.2578 33.0879 -49.498 63.4346 -87.6299 74.7686c-37.6885 11.2021 -75.3086 -3.14941 -105.697 -25.6045z" />
    <glyph glyph-name="O" unicode="&#xd4;" horiz-adv-x="588" 
d="M102.226 696.866c30.9033 70.7656 78.96 147.092 152.077 179.807c76.8691 34.3936 152.782 -5.16699 195.479 -71.9248c46.21 -72.249 70.0674 -163.189 81.6035 -247.402c11.958 -87.2949 8.37109 -176.511 -10.2041 -262.629
c-30.1895 -139.965 -118.006 -346.678 -293.829 -324.479c-42.2979 5.33691 -80.1016 27.3193 -102.843 64.0391c-22.4453 36.2402 -28.667 84.8662 -30.6582 126.44c-1.0166 21.2744 -0.591797 42.459 0.75293 63.5791c-11.0957 14.7666 -18.9648 33.7275 -24.0576 48.3652
c-16.2236 46.6221 -20.1191 96.6416 -20.5176 145.683c-0.772461 94.7754 14.0967 191.278 52.1963 278.522zM235.531 844.203c-59.7119 -44.1221 -98.3359 -116.792 -122.914 -185.303c-25.6885 -71.5801 -37.0098 -147.773 -37.9326 -223.651
c-0.469727 -38.8203 1.0166 -78.123 8.36426 -116.329c3.48047 -18.1123 8.45703 -35.957 15.3291 -53.0752c7.30273 62.6748 20.8691 124.877 29.999 187.121c3.02051 20.5928 23.4102 29.2373 42.6768 29.9092c13.8818 0.485352 47.2334 -6.63086 44.6602 -26.8594
c-12.1348 -95.3828 -39.3291 -189.614 -38.8047 -286.329c0.231445 -42.6748 5.19531 -84.6641 21.9756 -124.076c14.7344 -34.6064 38.3252 -54.7842 77.3936 -50.1416c73.9248 8.78223 124.961 68.6621 158 130.397c36.2373 67.7197 59.2266 143.7 70.4834 219.514
c11.459 77.1836 10.9092 156.124 -1.76562 233.121c-12.1963 74.0889 -34.6543 152.055 -74.1377 216.538c-20.2578 33.0879 -49.498 63.4346 -87.6299 74.7686c-37.6885 11.2021 -75.3086 -3.14941 -105.697 -25.6045z" />
    <glyph glyph-name="O" unicode="&#xd3;" horiz-adv-x="588" 
d="M102.226 696.866c30.9033 70.7656 78.96 147.092 152.077 179.807c76.8691 34.3936 152.782 -5.16699 195.479 -71.9248c46.21 -72.249 70.0674 -163.189 81.6035 -247.402c11.958 -87.2949 8.37109 -176.511 -10.2041 -262.629
c-30.1895 -139.965 -118.006 -346.678 -293.829 -324.479c-42.2979 5.33691 -80.1016 27.3193 -102.843 64.0391c-22.4453 36.2402 -28.667 84.8662 -30.6582 126.44c-1.0166 21.2744 -0.591797 42.459 0.75293 63.5791c-11.0957 14.7666 -18.9648 33.7275 -24.0576 48.3652
c-16.2236 46.6221 -20.1191 96.6416 -20.5176 145.683c-0.772461 94.7754 14.0967 191.278 52.1963 278.522zM235.531 844.203c-59.7119 -44.1221 -98.3359 -116.792 -122.914 -185.303c-25.6885 -71.5801 -37.0098 -147.773 -37.9326 -223.651
c-0.469727 -38.8203 1.0166 -78.123 8.36426 -116.329c3.48047 -18.1123 8.45703 -35.957 15.3291 -53.0752c7.30273 62.6748 20.8691 124.877 29.999 187.121c3.02051 20.5928 23.4102 29.2373 42.6768 29.9092c13.8818 0.485352 47.2334 -6.63086 44.6602 -26.8594
c-12.1348 -95.3828 -39.3291 -189.614 -38.8047 -286.329c0.231445 -42.6748 5.19531 -84.6641 21.9756 -124.076c14.7344 -34.6064 38.3252 -54.7842 77.3936 -50.1416c73.9248 8.78223 124.961 68.6621 158 130.397c36.2373 67.7197 59.2266 143.7 70.4834 219.514
c11.459 77.1836 10.9092 156.124 -1.76562 233.121c-12.1963 74.0889 -34.6543 152.055 -74.1377 216.538c-20.2578 33.0879 -49.498 63.4346 -87.6299 74.7686c-37.6885 11.2021 -75.3086 -3.14941 -105.697 -25.6045z" />
    <glyph glyph-name="P" unicode="P" horiz-adv-x="500" 
d="M143.276 661.556c-7.30566 -110.79 -11.1396 -221.812 -11.5068 -332.839c-0.00683594 -2.31348 0 -4.62305 -0.00683594 -6.93652c1.09668 0.0800781 2.16113 0.119141 3.20312 0.12207c7.04492 58.5762 15.8691 116.947 26.7236 175.031
c11.9775 64.084 25.499 128.31 45.8184 190.335c18.3115 55.8936 42.3047 114.515 79.8604 160.516c31.6367 38.7559 79.1367 59.8184 127.444 38.6592c52.8506 -23.1504 72.2529 -77.5059 84.7129 -129.684c26.3125 -110.179 -0.0644531 -225.285 -59.9922 -319.967
c-62.2822 -98.4072 -170.234 -183.981 -290.881 -179.12c-5.90039 -57.0801 -10.3525 -114.324 -13.6406 -171.595c0.0478516 -1.58887 0.0927734 -3.18164 0.140625 -4.77051c0.791016 -26.5215 3.15234 -56.3047 -6.3252 -81.5039
c-7.57324 -20.1426 -47.668 -20.4062 -57.0654 -1.99512c-14.0293 27.4805 -13.6689 63.1738 -15.248 93.4463c-1.65332 31.6787 -3.02051 63.373 -4.10449 95.0742c-3.7959 110.954 -2.8916 222.026 1.2002 332.964c2.02637 54.9375 4.90527 109.844 8.63379 164.691
c3.8252 56.2285 7.29297 112.54 17.5205 168.016c5.16699 28.0234 76.6084 27.0869 76.168 -4.02832c-0.884766 -62.2148 -8.56348 -124.333 -12.6553 -186.416zM167.537 405.949c-4.28223 -27.9629 -8.12207 -55.9971 -11.5996 -84.0918
c1.75293 0.0839844 3.50586 0.183594 5.2627 0.325195c1.55664 0.125 6.25 0.749023 7.4082 0.874023c2.84668 0.454102 5.69043 0.907227 8.51855 1.47363c15.2236 3.05273 21.2939 4.9541 34.9443 10.5518c26.5859 10.8994 49.8906 26.6631 72.6543 44.251
c43.5879 33.6797 79.1816 76.0742 108.464 122.567c26.6406 42.2979 43.8555 88.8555 57.8203 136.6c6.98438 23.8672 11.9971 48.2949 15.1787 72.957c3.40039 26.3604 6.32129 54.8955 -0.660156 80.8506c-12.9844 48.2822 -60.1816 107.139 -116.696 83.2773
c-47.2842 -19.9619 -74.835 -80.5234 -94.4111 -124.279c-48.3145 -107.984 -69.084 -229.155 -86.8838 -345.356z" />
    <glyph glyph-name="Q" unicode="Q" horiz-adv-x="569" 
d="M254.3 876.672c76.8691 34.3936 152.782 -5.16699 195.482 -71.9248c46.21 -72.249 70.0674 -163.189 81.6035 -247.402c11.958 -87.2949 8.37109 -176.511 -10.2041 -262.629c-25.7881 -119.565 -93.6455 -287.812 -222.482 -320.484
c0.704102 -3.00195 1.35352 -5.9873 1.95215 -8.93066c5.12793 -25.2734 12.2822 -49.9004 25.585 -72.2109c9.58008 -16.0664 42.6484 -53.1816 56.4912 -20.0781c3.94043 9.42969 28.0303 7.1748 23.6162 -3.38379c-7.74023 -18.5078 -28.1201 -27.0039 -47.4609 -25.1025
c-23.7324 2.33203 -40.751 19.4854 -52.9824 38.6465c-15.8633 24.8486 -23.7646 52.6895 -29.5908 81.2832c-0.357422 1.75293 -0.733398 3.57031 -1.12891 5.42285c-15.165 -1.7793 -31.0957 -1.75391 -47.8281 0.359375
c-42.2979 5.33691 -80.1016 27.3193 -102.843 64.0391c-22.4453 36.2402 -28.667 84.8662 -30.6582 126.44c-1.0166 21.2744 -0.591797 42.459 0.75293 63.5791c-11.0957 14.7666 -18.9648 33.7285 -24.0576 48.3662c-16.2236 46.6221 -20.1191 96.6416 -20.5176 145.683
c-0.772461 94.7754 14.0967 191.278 52.1963 278.522c30.9062 70.7656 78.9629 147.094 152.074 179.805zM341.231 869.81c-37.6885 11.2021 -75.3076 -3.14941 -105.696 -25.6113c-59.7119 -44.1221 -98.333 -116.796 -122.918 -185.3
c-25.6885 -71.5801 -37.0098 -147.773 -37.9326 -223.651c-0.469727 -38.8203 1.0166 -78.123 8.36426 -116.329c3.48047 -18.1123 8.45703 -35.957 15.3291 -53.0752c7.30273 62.6748 20.8691 124.877 29.999 187.121c3.02051 20.5928 23.4102 29.2373 42.6768 29.9092
c13.8818 0.485352 47.2334 -6.63086 44.6602 -26.8594c-12.1348 -95.3828 -39.3291 -189.614 -38.8047 -286.329c0.231445 -42.6748 5.19531 -84.6641 21.9756 -124.076c13.7051 -32.1865 35.0918 -51.8623 69.4502 -50.7236
c-6.7334 18.5234 -17.9678 34.9531 -39.2168 36.0635c-4.80273 0.250977 -10.3076 4.17871 -8.84082 9.43262c1.6084 5.75488 10.082 6.29199 14.7793 6.04785c30.6719 -1.60254 46.9795 -23.1025 56.5244 -48.3271c65.7285 14.6406 111.993 70.3896 142.7 127.767
c36.2373 67.7197 59.2266 143.7 70.4834 219.514c11.459 77.1836 10.9092 156.124 -1.76562 233.121c-12.1963 74.0889 -34.6543 152.055 -74.1377 216.538c-20.2578 33.0879 -49.498 63.4346 -87.6299 74.7686z" />
    <glyph glyph-name="R" unicode="R" horiz-adv-x="530" 
d="M439.537 436.792c-42.0762 -66.4805 -105.009 -127.067 -178.609 -157.913c47.1914 1.44434 93.4082 -0.53418 131.512 -35.5684c59.1396 -54.375 48.6074 -144.794 60.7646 -216.544c4.44238 -26.2256 -59.4619 -30.5205 -62.9971 -2.2002
c-7.93652 63.5723 12.5947 146.473 -37.1152 197.447c-22.3262 22.8926 -54.7383 26.8105 -85.2266 26.3477c-36.8867 -0.55957 -73.3525 -4.9834 -109.979 1.78809c-2.99512 0.553711 -6.53418 1.67285 -9.66113 3.37109
c-5.6875 -55.7041 -10.002 -111.559 -13.2129 -167.442c0.0478516 -1.58887 0.0927734 -3.17773 0.140625 -4.7666c0.791016 -26.5215 3.15234 -56.3047 -6.3252 -81.5039c-7.57324 -20.1426 -47.668 -20.4062 -57.0654 -1.99512
c-14.0264 27.4805 -13.666 63.1738 -15.2451 93.4463c-1.65332 31.6787 -3.02051 63.373 -4.10449 95.0742c-3.7959 110.954 -2.8916 222.026 1.2002 332.964c2.02637 54.9375 4.90527 109.844 8.63379 164.691c3.82227 56.2285 7.29004 112.54 17.5176 168.016
c5.16699 28.0234 76.6113 27.0869 76.167 -4.02832c-0.884766 -62.2148 -8.56348 -124.333 -12.6553 -186.416c-7.30566 -110.79 -11.1406 -221.812 -11.501 -332.843c-0.00683594 -2.31348 0 -4.62305 -0.00683594 -6.93652
c1.09668 0.0800781 2.16113 0.119141 3.20312 0.12207c7.04492 58.5762 15.8662 116.946 26.7236 175.03c11.9736 64.084 25.4951 128.31 45.8145 190.335c18.3115 55.8936 42.3047 114.515 79.8604 160.516c31.6367 38.7559 79.1367 59.8184 127.444 38.6592
c52.8496 -23.1504 72.252 -77.5059 84.7119 -129.684c26.3125 -110.179 -0.0615234 -225.285 -59.9893 -319.967zM284.731 379.339c43.5918 33.6797 79.1826 76.0771 108.465 122.563c26.6377 42.2979 43.8525 88.8555 57.8174 136.6
c6.98438 23.8672 11.9961 48.2949 15.1777 72.957c3.40039 26.3604 6.32129 54.8955 -0.660156 80.8506c-12.9844 48.2822 -60.1816 107.139 -116.696 83.2773c-47.2842 -19.9619 -74.835 -80.5234 -94.4111 -124.279c-48.3145 -107.984 -69.084 -229.155 -86.8838 -345.356
c-4.28516 -27.9658 -8.12598 -56.0029 -11.6006 -84.0879c1.75293 0.0839844 3.50586 0.183594 5.2627 0.325195c1.55664 0.125 6.25 0.749023 7.4082 0.874023c2.84375 0.454102 5.69043 0.907227 8.51855 1.47363c15.2236 3.05273 21.2939 4.9541 34.9443 10.5518
c26.5859 10.8994 49.8906 26.6631 72.6582 44.251z" />
    <glyph glyph-name="S" unicode="S" horiz-adv-x="486" 
d="M413.489 689.873c-3.2334 -9.58691 -27.1289 -7.80469 -23.6162 3.375c21.7637 69.3086 -21.7119 144.55 -94.582 155.983c-63.7559 10.002 -116.654 -44.1797 -134.178 -100.565c-17.1758 -55.2627 -10.9512 -124.26 10.0439 -177.589
c18.7041 -47.5098 46.5029 -84.04 80.1152 -121.332c66.542 -73.8223 150.035 -143.903 178.921 -242.555c7.61816 -26.0195 7.19336 -55.0889 1.74707 -81.5234c-5.48828 -26.6377 -10.0947 -53.3721 -27.7109 -75.1006
c-32.9658 -40.6602 -98.0508 -65.0684 -149.498 -56.874c-51.5117 8.20703 -90.5928 50.917 -103.242 100.234c-13.6826 53.3555 1.12891 110.169 37.0283 151.527c6.47559 7.45996 29.7383 2.47656 21.2939 -7.25195
c-43.5752 -50.2021 -53.6611 -127.482 -15.2012 -183.769c19.3447 -28.3066 49.7559 -47.5186 84.6738 -46.6084c34.6738 0.904297 74.0801 17.6973 98.7324 42.2373c23.0146 22.9121 32.2441 53.3486 21.7178 84.1426c-8.93359 26.1484 -24.501 50.2959 -39.8594 73.082
c-28.4199 42.1602 -64.2549 78.0342 -100.9 112.949c-75.7529 72.1748 -164.767 143.848 -196.461 247.949c-19.2061 63.084 -17.5684 128.562 13.7783 187.602c29.2334 55.0635 78.2842 98.4775 140.02 112.295c54.7803 12.2607 112.066 5.98438 156.034 -31.2148
c42.9355 -36.3242 59.1367 -93.6328 41.1436 -146.994z" />
    <glyph glyph-name="T" unicode="T" horiz-adv-x="520" 
d="M747.877 869.672c3.84473 7.39648 21.9287 6.90723 21.2275 -1.59863c-1.55371 -18.6748 -48.0273 -16.0596 -59.6768 -16.4775c-97.9277 -3.50977 -196.3 1.88184 -294.263 2.71191c0.685547 -1.95605 1.08105 -4.05371 1.04883 -6.33496
c-0.859375 -62.1953 -7.9209 -124.281 -11.0352 -186.416c-5.55566 -110.845 -6.51758 -221.889 -4.47754 -332.843c1.00977 -54.9893 2.35449 -109.991 4.18164 -164.961c0.914062 -27.4863 2.10156 -54.96 3.12793 -82.4434
c0.987305 -26.5088 3.44238 -56.2959 -6.03223 -81.5049c-7.57324 -20.1484 -47.6611 -20.3965 -57.0645 -1.99512c-14.0391 27.4805 -13.8047 63.1641 -15.6445 93.4463c-1.92383 31.6816 -3.69629 63.373 -5.27539 95.0742
c-5.52734 110.886 -7.49023 221.945 -5.80762 332.963c0.833008 54.9248 2.62793 109.837 5.57812 164.691c3.02734 56.2539 6.07422 112.55 16.2822 168.016c0.154297 0.839844 0.375977 1.64746 0.642578 2.43555c-35.6484 -0.208984 -71.2939 -0.868164 -106.91 -2.32227
c-26.7568 -1.09082 -53.5 -2.63184 -80.1758 -5.00879c-20.8984 -1.8623 -85.0664 -0.56543 -80.8066 -30.8672c1.34473 -9.55469 -21.043 -10.7002 -22.4297 -0.785156c-5.05371 36.1152 43.2891 39.5605 68.0312 42.5586c28.9697 3.5127 58.084 5.73242 87.2207 7.30273
c50.8076 2.74121 101.683 3.73535 152.573 3.81543c12.0479 4.10156 27.6826 4.08203 39.7051 -0.116211c52.9277 -0.353516 105.855 -1.46387 158.725 -2.41602c45.2773 -0.817383 90.6025 -1.91113 135.886 -1.12305c14.2422 0.248047 28.6162 0.469727 42.7871 2.04297
c3.9668 0.44043 7.9043 1.41504 12.0645 2.03906c0.225586 0.0322266 0.360352 0.0771484 0.517578 0.116211zM747.482 868.804c-0.151367 -0.389648 -0.283203 -0.849609 -0.334961 -1.49316c0.0419922 0.53125 0.173828 1.02051 0.334961 1.49316zM748.004 869.698
c1.01953 0.289062 0.582031 0.604492 0 0z" />
    <glyph glyph-name="U" unicode="U" horiz-adv-x="632" 
d="M156.27 843.977c-14.7402 -120.184 -20.9355 -241.652 -25.4785 -362.602c-4.55566 -120.965 -8.32324 -244.372 16.8438 -363.526c9.57715 -45.335 26.8652 -100.575 79.9697 -107.495c57.4951 -7.49219 98.835 44.248 121.444 90.5801
c26.7793 54.8799 41.7295 116.387 57.0625 175.211c16.6514 63.8906 30.7295 128.422 43.543 193.182c16.1367 81.5693 30.1152 163.08 42.0117 245.061c2.67676 46.1074 6.21875 92.1377 14.5859 137.611c5.15723 28.0303 76.5957 27.084 76.165 -4.02832
c-0.862305 -62.1953 -7.92383 -124.281 -11.0381 -186.416c-5.55566 -110.845 -6.51758 -221.889 -4.47754 -332.843c1.00977 -54.9893 2.35449 -109.991 4.18164 -164.961c0.916992 -27.4863 2.10449 -54.96 3.13086 -82.4434
c0.991211 -26.5088 3.44238 -56.2959 -6.03223 -81.5049c-7.57324 -20.1484 -47.6641 -20.3965 -57.0645 -1.99512c-14.0391 27.4805 -13.8047 63.1641 -15.6445 93.4463c-1.92676 31.6816 -3.69922 63.373 -5.27832 95.0742
c-5.52344 110.886 -7.48633 221.945 -5.80371 332.963c0.0644531 4.33691 0.176758 8.67676 0.253906 13.0166c-8.28418 -45.3965 -17.1631 -90.7119 -26.8145 -135.954c-14.625 -68.5586 -31.2256 -136.738 -51.3223 -203.914
c-16.8506 -56.3242 -35.6221 -116.635 -78.6855 -158.965c-34.6025 -34.0137 -89.4473 -57.7754 -138.286 -50.627c-65.873 9.6416 -95.8496 68.1406 -111.359 126.447c-33.5029 125.961 -29.4297 257.392 -25.8105 386.589
c3.22363 115.181 8.51562 230.719 21.8154 345.228c2.25195 19.3955 22.4941 27.4961 40.1113 28.1104c13.1123 0.459961 44.3086 -6.21875 41.9766 -25.2441z" />
    <glyph glyph-name="U" unicode="&#xdc;" horiz-adv-x="632" 
d="M156.27 843.977c-14.7402 -120.184 -20.9355 -241.652 -25.4785 -362.602c-4.55566 -120.965 -8.32324 -244.372 16.8438 -363.526c9.57715 -45.335 26.8652 -100.575 79.9697 -107.495c57.4951 -7.49219 98.835 44.248 121.444 90.5801
c26.7793 54.8799 41.7295 116.387 57.0625 175.211c16.6514 63.8906 30.7295 128.422 43.543 193.182c16.1367 81.5693 30.1152 163.08 42.0117 245.061c2.67676 46.1074 6.21875 92.1377 14.5859 137.611c5.15723 28.0303 76.5957 27.084 76.165 -4.02832
c-0.862305 -62.1953 -7.92383 -124.281 -11.0381 -186.416c-5.55566 -110.845 -6.51758 -221.889 -4.47754 -332.843c1.00977 -54.9893 2.35449 -109.991 4.18164 -164.961c0.916992 -27.4863 2.10449 -54.96 3.13086 -82.4434
c0.991211 -26.5088 3.44238 -56.2959 -6.03223 -81.5049c-7.57324 -20.1484 -47.6641 -20.3965 -57.0645 -1.99512c-14.0391 27.4805 -13.8047 63.1641 -15.6445 93.4463c-1.92676 31.6816 -3.69922 63.373 -5.27832 95.0742
c-5.52344 110.886 -7.48633 221.945 -5.80371 332.963c0.0644531 4.33691 0.176758 8.67676 0.253906 13.0166c-8.28418 -45.3965 -17.1631 -90.7119 -26.8145 -135.954c-14.625 -68.5586 -31.2256 -136.738 -51.3223 -203.914
c-16.8506 -56.3242 -35.6221 -116.635 -78.6855 -158.965c-34.6025 -34.0137 -89.4473 -57.7754 -138.286 -50.627c-65.873 9.6416 -95.8496 68.1406 -111.359 126.447c-33.5029 125.961 -29.4297 257.392 -25.8105 386.589
c3.22363 115.181 8.51562 230.719 21.8154 345.228c2.25195 19.3955 22.4941 27.4961 40.1113 28.1104c13.1123 0.459961 44.3086 -6.21875 41.9766 -25.2441z" />
    <glyph glyph-name="U" unicode="&#xdb;" horiz-adv-x="632" 
d="M156.27 843.977c-14.7402 -120.184 -20.9355 -241.652 -25.4785 -362.602c-4.55566 -120.965 -8.32324 -244.372 16.8438 -363.526c9.57715 -45.335 26.8652 -100.575 79.9697 -107.495c57.4951 -7.49219 98.835 44.248 121.444 90.5801
c26.7793 54.8799 41.7295 116.387 57.0625 175.211c16.6514 63.8906 30.7295 128.422 43.543 193.182c16.1367 81.5693 30.1152 163.08 42.0117 245.061c2.67676 46.1074 6.21875 92.1377 14.5859 137.611c5.15723 28.0303 76.5957 27.084 76.165 -4.02832
c-0.862305 -62.1953 -7.92383 -124.281 -11.0381 -186.416c-5.55566 -110.845 -6.51758 -221.889 -4.47754 -332.843c1.00977 -54.9893 2.35449 -109.991 4.18164 -164.961c0.916992 -27.4863 2.10449 -54.96 3.13086 -82.4434
c0.991211 -26.5088 3.44238 -56.2959 -6.03223 -81.5049c-7.57324 -20.1484 -47.6641 -20.3965 -57.0645 -1.99512c-14.0391 27.4805 -13.8047 63.1641 -15.6445 93.4463c-1.92676 31.6816 -3.69922 63.373 -5.27832 95.0742
c-5.52344 110.886 -7.48633 221.945 -5.80371 332.963c0.0644531 4.33691 0.176758 8.67676 0.253906 13.0166c-8.28418 -45.3965 -17.1631 -90.7119 -26.8145 -135.954c-14.625 -68.5586 -31.2256 -136.738 -51.3223 -203.914
c-16.8506 -56.3242 -35.6221 -116.635 -78.6855 -158.965c-34.6025 -34.0137 -89.4473 -57.7754 -138.286 -50.627c-65.873 9.6416 -95.8496 68.1406 -111.359 126.447c-33.5029 125.961 -29.4297 257.392 -25.8105 386.589
c3.22363 115.181 8.51562 230.719 21.8154 345.228c2.25195 19.3955 22.4941 27.4961 40.1113 28.1104c13.1123 0.459961 44.3086 -6.21875 41.9766 -25.2441z" />
    <glyph glyph-name="U" unicode="&#xda;" horiz-adv-x="632" 
d="M156.27 843.977c-14.7402 -120.184 -20.9355 -241.652 -25.4785 -362.602c-4.55566 -120.965 -8.32324 -244.372 16.8438 -363.526c9.57715 -45.335 26.8652 -100.575 79.9697 -107.495c57.4951 -7.49219 98.835 44.248 121.444 90.5801
c26.7793 54.8799 41.7295 116.387 57.0625 175.211c16.6514 63.8906 30.7295 128.422 43.543 193.182c16.1367 81.5693 30.1152 163.08 42.0117 245.061c2.67676 46.1074 6.21875 92.1377 14.5859 137.611c5.15723 28.0303 76.5957 27.084 76.165 -4.02832
c-0.862305 -62.1953 -7.92383 -124.281 -11.0381 -186.416c-5.55566 -110.845 -6.51758 -221.889 -4.47754 -332.843c1.00977 -54.9893 2.35449 -109.991 4.18164 -164.961c0.916992 -27.4863 2.10449 -54.96 3.13086 -82.4434
c0.991211 -26.5088 3.44238 -56.2959 -6.03223 -81.5049c-7.57324 -20.1484 -47.6641 -20.3965 -57.0645 -1.99512c-14.0391 27.4805 -13.8047 63.1641 -15.6445 93.4463c-1.92676 31.6816 -3.69922 63.373 -5.27832 95.0742
c-5.52344 110.886 -7.48633 221.945 -5.80371 332.963c0.0644531 4.33691 0.176758 8.67676 0.253906 13.0166c-8.28418 -45.3965 -17.1631 -90.7119 -26.8145 -135.954c-14.625 -68.5586 -31.2256 -136.738 -51.3223 -203.914
c-16.8506 -56.3242 -35.6221 -116.635 -78.6855 -158.965c-34.6025 -34.0137 -89.4473 -57.7754 -138.286 -50.627c-65.873 9.6416 -95.8496 68.1406 -111.359 126.447c-33.5029 125.961 -29.4297 257.392 -25.8105 386.589
c3.22363 115.181 8.51562 230.719 21.8154 345.228c2.25195 19.3955 22.4941 27.4961 40.1113 28.1104c13.1123 0.459961 44.3086 -6.21875 41.9766 -25.2441z" />
    <glyph glyph-name="V" unicode="V" horiz-adv-x="667" 
d="M540.372 1046.06c40.6475 17.1436 83.8115 -0.549805 108.171 -35.6641c29.6553 -42.752 27.7441 -101.206 28.3105 -150.945c1.30957 -115.213 -11.2051 -230.51 -33.2451 -343.516c-13.377 -68.585 -29.6104 -137.543 -49.5527 -205.211
c3.11426 -2.99219 3.5166 -6.67578 -2.66992 -9.02148c-12.2793 -40.9023 -25.9258 -81.3086 -41.168 -120.827c-34.085 -88.3662 -94.7109 -179.593 -197.915 -188.575c-48.5137 -4.2207 -93.2568 7.23242 -130.871 38.3672
c-37.8164 31.3018 -63.4014 75.1699 -83.3086 119.363c-46.3486 102.892 -63.6055 218.24 -72.5518 329.924c-9.70312 121.113 -10.7871 243.102 -15.5518 364.481c-1.42188 36.2344 78.4551 38.8018 82.0869 2.86719c2.75391 -27.21 4.25 -54.375 5.28223 -81.7012
c7.82422 -206.829 -1.07129 -417.789 75.1865 -614.246c14.6152 -37.6592 32.29 -76.4922 60.9287 -105.7c12.7334 -12.9873 28.3652 -25.9971 45.3418 -32.8594c20.5732 -8.31641 44.1797 -3.95703 64.5371 3.31348c94.2891 33.6855 131.549 137.404 160.631 224.057
c6.22852 18.5557 12.2637 37.1953 18.0967 55.9092c-14.165 -0.785156 -28.2334 1.2002 -42.7773 5.72656c-90.1074 28.0371 -150.627 114.605 -172.381 202.85c-25.293 102.596 -9.17188 216.043 25.4697 314.682c16.2881 46.3809 38.3311 90.9209 66.8408 131.038
c25.46 35.832 59.5127 78.1426 101.109 95.6885zM653.164 858.622c-0.633789 47.2588 1.81836 104.301 -26.4307 144.938c-12.0322 17.3145 -31.5889 33.7148 -53.748 33.8145c-24.4531 0.109375 -45.9854 -19.9004 -62.4121 -35.8213
c-65.5156 -63.502 -106.826 -148.166 -129.182 -235.825c-24.208 -94.917 -32.1797 -202.017 3.64258 -295.08c15.1104 -39.2646 38.1377 -75.585 68.8672 -104.478c29.2686 -27.5186 71.9395 -52.6211 113.829 -51.8105c53.5195 176.438 87.9072 359.463 85.4336 544.262z
" />
    <glyph glyph-name="W" unicode="W" horiz-adv-x="1032" 
d="M209.98 10.501c56.3828 -11.1475 94.0986 51.5791 112.391 95.2158c23.3076 55.5947 36.4561 116.186 49.9971 174.729c14.998 64.8398 27.6377 130.201 39.1553 195.739c18.2822 104.057 33.4277 207.981 45.501 312.774
c-0.504883 18.498 -1.02246 36.9902 -1.59863 55.4688c-1.12598 36.2568 78.6924 38.8301 82.0859 2.86621c2.46777 -26.1709 3.79688 -52.2871 4.69727 -78.5547c6.97754 -203.409 -1.43848 -410.193 62.2275 -606.354c12.4014 -38.2188 26.4375 -79.3555 51.6816 -111.243
c10.6455 -13.4443 22.8516 -27.6475 37.8428 -36.292c19.1641 -11.0508 43.2021 -6.73047 62.8584 1.16699c87.874 35.3076 118.539 142.079 143.211 224.221c5.56543 18.5234 10.9541 37.1113 16.1562 55.7607c-13.0674 -0.608398 -26.0703 1.54102 -39.2891 6.28613
c-86.3008 30.9736 -136.48 122.554 -154.235 207.504c-21.3965 102.387 -6.49219 214.067 25.0967 312.883c14.5674 45.5703 34.2783 89.5449 60.1885 129.822c22.6582 35.2207 54.0244 80.2051 94.7207 95.8242c39.8115 15.2812 78.4131 -9.56738 97.1875 -44.502
c24.0029 -44.6562 21.2881 -101.75 21.5811 -150.865c0.681641 -114.059 -10.6621 -228.136 -30.376 -340.412c-11.8359 -67.4199 -26.1133 -135.14 -43.666 -201.843c2.75684 -2.83398 3.02734 -6.2959 -2.2998 -8.71875
c-10.835 -40.4482 -22.8857 -80.498 -36.3779 -119.85c-28.7637 -83.8818 -82.6113 -184.586 -183.199 -190.216c-43.833 -2.45508 -87.1572 12.668 -118.469 43.3906c-34.7285 34.0684 -57.4346 78.5801 -75.0605 123.365
c-41.1367 104.52 -55.498 218.896 -63.1582 330.291c-3.58105 52.1006 -5.8623 104.34 -7.64453 156.611c-11.459 -81.3311 -24.7422 -162.382 -40.0391 -243.278c-13.1123 -69.3506 -27.9941 -138.398 -46.1221 -206.623
c-14.6182 -55.0156 -30.0381 -114.129 -67.9131 -158.341c-31.6689 -36.9639 -85.3008 -63.415 -134.3 -52.7119c-62.7939 13.7148 -85.0244 75.2764 -98.2754 131.016c-29.9248 125.868 -25.4307 256.797 -22.2139 385.242c2.84375 113.498 7.50879 227.26 19.1934 340.233
c2.00781 19.4053 22.7002 27.5029 40.1113 28.1113c13.2861 0.462891 44.0732 -6.18066 41.9756 -25.2451c-12.9717 -117.883 -18.5215 -236.76 -22.7266 -355.238c-4.26562 -120.283 -8.10059 -242.497 12.5078 -361.6c7.01367 -40.542 17.4238 -106.913 66.5967 -116.635z
M819.628 368.838c24.6074 -26.6758 63.0762 -54.7305 101.61 -54.4824c47.3291 174.301 77.6279 353.778 76.5244 534.703c-0.286133 46.6895 2.30957 99.9453 -17.6719 143.337c-8.52832 18.5205 -23.9443 38.5498 -44.7168 43.752
c-24.4756 6.12891 -46.2422 -16.8984 -61.2559 -32.9834c-60.0146 -64.3027 -95.9014 -148.133 -115.776 -232.947c-22.1143 -94.376 -29.9346 -199.378 0.103516 -292.908c12.7461 -39.6924 32.8076 -77.7119 61.1826 -108.471z" />
    <glyph glyph-name="X" unicode="X" horiz-adv-x="710" 
d="M289.428 433.514c-18.0312 -21.4551 -35.7705 -43.1611 -53.0684 -65.2461c-87.2021 -111.407 -170.813 -241.307 -158.408 -389.09c0.974609 -11.6328 -25.7363 -12.7393 -26.7275 -0.932617c-6.58496 78.4385 13.9688 156.15 48.6484 226.112
c31 62.54 72.4551 119.396 115.635 173.977c20.666 26.126 41.9697 51.7207 63.6396 77.0098c-62.752 135.072 -112.958 276.199 -150.257 418.967c-5.10547 19.5312 10.71 31.2803 28.6387 35.1953c14.876 3.24902 48.0986 1.44727 53.2197 -17.5557
c19.3994 -71.9727 41.7158 -143.228 66.957 -213.363c18.7939 -52.2168 39.335 -103.803 61.5264 -154.668c5.85547 6.55957 11.7197 13.1094 17.5908 19.6533c48.4424 53.9697 97.4316 107.46 144.655 162.511c23.2695 27.123 46.1045 54.6191 68.2021 82.7041
c21.873 27.7988 47.1045 57.0039 50.5371 93.6494c0.977539 10.4326 24.2754 10.7383 23.3838 0.816406c-3.32031 -36.9482 -25.6211 -66.1172 -47.6064 -94.5176c-24.2764 -31.3604 -49.5107 -61.9736 -75.2568 -92.1338
c-56.1416 -65.7695 -114.789 -129.403 -171.956 -194.292c28.2783 -63.1934 59.124 -125.238 92.498 -185.896c31.3857 -57.0547 64.9268 -113.109 100.208 -167.845c16.5967 -25.7461 34.1045 -50.8613 53.3906 -74.6777
c19.3604 -23.9092 41.2266 -45.3545 60.9668 -68.791c9.31348 -11.0605 3.33008 -22.1338 -7.67871 -28.5166c-12.6016 -7.30273 -31.6855 -7.64062 -44.2383 0.166992c-62.0283 38.5791 -107.09 104.776 -147.335 164.096
c-62.8516 92.6426 -118.597 190.854 -167.165 292.668z" />
    <glyph glyph-name="Y" unicode="Y" horiz-adv-x="611" 
d="M152.492 837.781c-4.29492 -101.318 -15.4893 -202.341 -16.0332 -303.817c-0.231445 -43.9775 0.334961 -88.1416 4.76172 -131.929c3.60645 -35.6416 10.8516 -72.4385 35.2471 -99.9766c18.8135 -21.2393 41.4131 -35.665 70.5762 -36.6143
c38.502 -1.25098 68.3242 25.4697 89.3379 54.832c50.3311 70.3223 70.4502 160.329 86.0752 243.902c15.9346 85.2207 23.7266 171.68 32.625 257.855c-0.109375 6.45703 -0.234375 12.9102 -0.408203 19.3672c-0.668945 24.7646 50.5947 25.2178 54.8828 1.91699
c13.6826 -74.334 28.5039 -148.642 35.832 -223.947c7.14844 -73.4268 12.9551 -146.982 14.8018 -220.747c3.13379 -125.218 1.19434 -261.956 -54.8467 -376.699c-26.2002 -53.6387 -60.8066 -104.305 -115.033 -132.374
c-47.2842 -24.4756 -105.703 -31.7432 -156.787 -15.6514c-45.0225 14.1807 -81.0312 45.6885 -94.501 91.583c-13.4502 45.834 0.538086 93.3984 28.9639 130.526c65.998 86.2109 184.608 130.706 289.675 138.7c0.382812 0.0292969 0.713867 0.00390625 1.07129 0.0107422
c7.01953 84.7539 5.00879 169.903 2.06152 255.124c-1.57617 45.5889 -3.36523 91.1748 -4.4209 136.773c-5.73242 -40.2744 -12.7812 -80.3428 -21.7539 -120.048c-19.4502 -86.0918 -47.6865 -171.335 -112.066 -234.428
c-56.6689 -55.54 -151.569 -48.2246 -209.268 3.35156c-32.4346 28.9951 -45.998 71.0293 -52.834 112.706c-7.87207 47.999 -10.6582 97.2207 -10.4395 145.805c0.454102 100.424 11.1826 200.442 15.1465 300.729c1.54102 39.0068 88.9297 40.7051 87.334 3.04883z
M408.315 -8.34473c20.7207 48.6875 30.4307 101.702 39.29 153.616c4.28516 25.0967 7.46387 50.2412 9.85449 75.4209c-61.2627 -4.83203 -121.064 -22.7285 -174.722 -52.7793c-46.3545 -25.9619 -92.4805 -61.9258 -112.716 -112.746
c-18.0312 -45.2832 -4.24902 -89.042 31.5342 -120.679c32.2256 -28.4902 69.708 -44.8076 113.097 -35.1367c46.6475 10.3975 75.9102 50.5879 93.6621 92.3037z" />
    <glyph glyph-name="Y" unicode="&#x178;" horiz-adv-x="611" 
d="M152.492 837.781c-4.29492 -101.318 -15.4893 -202.341 -16.0332 -303.817c-0.231445 -43.9775 0.334961 -88.1416 4.76172 -131.929c3.60645 -35.6416 10.8516 -72.4385 35.2471 -99.9766c18.8135 -21.2393 41.4131 -35.665 70.5762 -36.6143
c38.502 -1.25098 68.3242 25.4697 89.3379 54.832c50.3311 70.3223 70.4502 160.329 86.0752 243.902c15.9346 85.2207 23.7266 171.68 32.625 257.855c-0.109375 6.45703 -0.234375 12.9102 -0.408203 19.3672c-0.668945 24.7646 50.5947 25.2178 54.8828 1.91699
c13.6826 -74.334 28.5039 -148.642 35.832 -223.947c7.14844 -73.4268 12.9551 -146.982 14.8018 -220.747c3.13379 -125.218 1.19434 -261.956 -54.8467 -376.699c-26.2002 -53.6387 -60.8066 -104.305 -115.033 -132.374
c-47.2842 -24.4756 -105.703 -31.7432 -156.787 -15.6514c-45.0225 14.1807 -81.0312 45.6885 -94.501 91.583c-13.4502 45.834 0.538086 93.3984 28.9639 130.526c65.998 86.2109 184.608 130.706 289.675 138.7c0.382812 0.0292969 0.713867 0.00390625 1.07129 0.0107422
c7.01953 84.7539 5.00879 169.903 2.06152 255.124c-1.57617 45.5889 -3.36523 91.1748 -4.4209 136.773c-5.73242 -40.2744 -12.7812 -80.3428 -21.7539 -120.048c-19.4502 -86.0918 -47.6865 -171.335 -112.066 -234.428
c-56.6689 -55.54 -151.569 -48.2246 -209.268 3.35156c-32.4346 28.9951 -45.998 71.0293 -52.834 112.706c-7.87207 47.999 -10.6582 97.2207 -10.4395 145.805c0.454102 100.424 11.1826 200.442 15.1465 300.729c1.54102 39.0068 88.9297 40.7051 87.334 3.04883z
M408.315 -8.34473c20.7207 48.6875 30.4307 101.702 39.29 153.616c4.28516 25.0967 7.46387 50.2412 9.85449 75.4209c-61.2627 -4.83203 -121.064 -22.7285 -174.722 -52.7793c-46.3545 -25.9619 -92.4805 -61.9258 -112.716 -112.746
c-18.0312 -45.2832 -4.24902 -89.042 31.5342 -120.679c32.2256 -28.4902 69.708 -44.8076 113.097 -35.1367c46.6475 10.3975 75.9102 50.5879 93.6621 92.3037z" />
    <glyph glyph-name="Y" unicode="&#xdd;" horiz-adv-x="611" 
d="M152.492 837.781c-4.29492 -101.318 -15.4893 -202.341 -16.0332 -303.817c-0.231445 -43.9775 0.334961 -88.1416 4.76172 -131.929c3.60645 -35.6416 10.8516 -72.4385 35.2471 -99.9766c18.8135 -21.2393 41.4131 -35.665 70.5762 -36.6143
c38.502 -1.25098 68.3242 25.4697 89.3379 54.832c50.3311 70.3223 70.4502 160.329 86.0752 243.902c15.9346 85.2207 23.7266 171.68 32.625 257.855c-0.109375 6.45703 -0.234375 12.9102 -0.408203 19.3672c-0.668945 24.7646 50.5947 25.2178 54.8828 1.91699
c13.6826 -74.334 28.5039 -148.642 35.832 -223.947c7.14844 -73.4268 12.9551 -146.982 14.8018 -220.747c3.13379 -125.218 1.19434 -261.956 -54.8467 -376.699c-26.2002 -53.6387 -60.8066 -104.305 -115.033 -132.374
c-47.2842 -24.4756 -105.703 -31.7432 -156.787 -15.6514c-45.0225 14.1807 -81.0312 45.6885 -94.501 91.583c-13.4502 45.834 0.538086 93.3984 28.9639 130.526c65.998 86.2109 184.608 130.706 289.675 138.7c0.382812 0.0292969 0.713867 0.00390625 1.07129 0.0107422
c7.01953 84.7539 5.00879 169.903 2.06152 255.124c-1.57617 45.5889 -3.36523 91.1748 -4.4209 136.773c-5.73242 -40.2744 -12.7812 -80.3428 -21.7539 -120.048c-19.4502 -86.0918 -47.6865 -171.335 -112.066 -234.428
c-56.6689 -55.54 -151.569 -48.2246 -209.268 3.35156c-32.4346 28.9951 -45.998 71.0293 -52.834 112.706c-7.87207 47.999 -10.6582 97.2207 -10.4395 145.805c0.454102 100.424 11.1826 200.442 15.1465 300.729c1.54102 39.0068 88.9297 40.7051 87.334 3.04883z
M408.315 -8.34473c20.7207 48.6875 30.4307 101.702 39.29 153.616c4.28516 25.0967 7.46387 50.2412 9.85449 75.4209c-61.2627 -4.83203 -121.064 -22.7285 -174.722 -52.7793c-46.3545 -25.9619 -92.4805 -61.9258 -112.716 -112.746
c-18.0312 -45.2832 -4.24902 -89.042 31.5342 -120.679c32.2256 -28.4902 69.708 -44.8076 113.097 -35.1367c46.6475 10.3975 75.9102 50.5879 93.6621 92.3037z" />
    <glyph glyph-name="Z" unicode="Z" horiz-adv-x="509" 
d="M183.171 155.218c-14.2295 -23.0986 -28.4639 -46.5703 -39.4951 -71.4033c-9.9668 -22.4521 -23.9229 -44.7979 -23.7812 -70.1318c0.0419922 -7.77246 0.161133 -16.9736 7.74707 -21.1846c8.71484 -4.83887 21.8594 -4.15332 31.3789 -3.69043
c25.9912 1.26074 51.8047 7.04785 77.8955 8.62695c57.2129 3.46484 114.837 0.891602 171.589 10.2178c12.9131 2.12305 23.3975 -12.6533 7.1416 -15.3232c-62.8584 -10.333 -126.672 -7.35352 -189.948 -12.8125c-50.2412 -4.33301 -100.917 -21.9043 -146.573 8.95703
c-21.127 14.2803 -27.2266 38.2861 -28.8672 62.3623c-1.89453 27.7764 6.91992 51.666 17.8896 76.9141c22.4746 51.7178 49.2725 101.126 79.2266 148.861c59.5449 94.8945 123.121 187.228 184.12 281.176c30.8545 47.5195 59.7598 96.4805 87.2051 146.026
c13.9072 25.1064 27.8174 51.4961 37.4844 78.5674c9.12012 25.5439 4.14648 54.2402 -21.3008 68.251c-21.6738 11.9355 -49.7686 10.5391 -73.665 10.8418c-30.5332 0.385742 -61.083 -0.186523 -91.5811 -1.70215c-61.1533 -3.04004 -121.981 -10.04 -182.275 -20.6533
c-10.6777 -1.87891 -19.3184 10.2783 -5.90332 12.6719c66.2041 11.8135 133.129 19.4287 200.324 22.3438c33.3545 1.44727 66.8184 1.93945 100.195 0.922852c22.3945 -0.681641 45.7148 -2.49316 65.9893 -12.8906c18.6787 -9.58008 30.0996 -25.916 34.2949 -46.3057
c4.94434 -24.0186 6.98047 -49.0635 6.01562 -73.5684c-2.13965 -54.3818 -22.4043 -107.557 -45.541 -156.103c-48.2881 -101.309 -110.863 -194.134 -171.048 -288.545c-30.041 -47.127 -59.21 -94.8398 -88.5176 -142.427z" />
    <glyph glyph-name="bracketleft" unicode="[" horiz-adv-x="351" 
d="M299.754 -51.3955c5.71973 -12.7617 -5.53027 -26.2041 -17.4043 -30.0713c-46.2998 -15.0908 -98.2656 -20.9873 -144.778 -2.69531c-49.2793 19.3799 -69.5664 62.4277 -75.7432 112.405c-11.5137 93.1895 -12.5947 188.321 -11.4941 282.09
c1.14844 98.0078 6.27637 195.846 14.6533 293.493c8.32617 97.0078 18.9814 193.685 30.6758 290.338c4.94141 40.8477 4.86133 87.7754 44.9336 110.899c18.9775 10.9512 41.208 15.6611 63 14.2139c9.20703 -0.614258 18.2695 -2.01074 27.1904 -4.43359
c9.71191 -2.6416 17.8516 -7.95898 27.6348 -10.1143c15.9824 -3.52246 7.05859 -18.3311 -6.05469 -15.7861c-16.6836 3.24316 -44.0254 2.59375 -59.4766 -6.20801c-14.4033 -8.20703 -17.8389 -23.4336 -19.2412 -38.7949
c-4.05664 -44.4473 -4.76758 -89.4062 -6.41504 -133.991c-6.29297 -170.649 -18.917 -341.283 -18.5117 -512.123c0.203125 -85.417 3.00488 -171.3 11.7715 -256.305c1.55078 -15.0176 3.25879 -30.0059 8.94629 -44.0996
c5.45312 -13.5146 13.0771 -20.9297 22.0654 -27.3477c1.4668 -1.0459 2.09375 -1.5957 2.32227 -1.87598c0.417969 -0.0351562 1.35742 -0.24707 3.28809 -0.865234c2.19434 -0.701172 4.4043 -1.45117 6.63379 -2.08203
c-1.63379 0.820312 15.793 -1.45703 11.0352 -1.43164c15.123 -0.553711 30.6553 0.826172 45.6436 2.56641c13.2285 1.53418 33.4121 -4.58789 39.3252 -17.7812z" />
    <glyph glyph-name="backslash" unicode="\" horiz-adv-x="470" 
d="M419.075 -71.1221c6.67871 -25.6885 -13.9854 -39.665 -36.958 -45.4238c-13.0293 -3.26172 -29.9316 -2.29297 -42.6006 2.13086c-8.34863 2.91797 -23.2627 10.7451 -26.0781 20.5283c-21.5703 74.9639 -41.4775 150.337 -61.5107 225.726
c-35.0625 131.955 -69.1377 264.119 -102.814 396.431c-16.3301 64.1514 -31.335 128.618 -48.7812 192.49c-8.57324 31.3789 -17.748 62.5684 -27.3154 93.6582c-9.22656 29.9932 -19.8232 61.833 -22.9375 93.1387c-2.24512 22.5391 43.5791 25.5664 53.916 11.4463
c22.5352 -30.7812 37.5879 -66.9189 50.958 -102.451c12.9678 -34.4678 25.1445 -69.2314 36.8164 -104.156c42.501 -127.161 79.3975 -256.266 116.493 -385.09c38.1318 -132.421 76.1416 -265.061 110.812 -398.428z" />
    <glyph glyph-name="bracketright" unicode="]" horiz-adv-x="351" 
d="M260.048 856.479c22.9375 -191.86 40.5391 -384.384 40.7607 -577.784c0.0517578 -47.7861 -0.913086 -95.5762 -3.54785 -143.295c-2.49316 -45.1357 -3.30078 -92.5391 -13.8242 -136.693c-22.7227 -95.3154 -134.005 -107.74 -213.303 -81.5947
c-14.1748 4.6748 -25.4092 17.4404 -17.54 31.9688c8.39648 15.5029 31.0898 18.5303 46.7666 16.7383c1.69531 -0.193359 15.2197 -1.46777 12.9521 -1.3457c4.53906 -0.321289 9.12012 -0.594727 13.6787 -0.743164
c0.211914 0.0771484 8.16797 0.0800781 9.19727 0.109375c0.360352 0.00976562 9.13965 0.733398 9.35156 0.556641c2.53223 0.415039 5.04492 0.922852 7.53516 1.53125c0.891602 0.305664 3.2334 1.02344 3.90918 1.25195
c1.85352 0.624023 9.21777 4.73828 11.6631 6.96777c25.3857 23.1602 23.5293 69.4189 26.0098 100.531c13.6406 171.022 7.40234 342.062 -0.141602 513.19c-3.77051 85.5264 -7.86621 171.001 -11.2568 256.546c-0.823242 20.7344 -1.80469 41.459 -2.91113 62.1768
c-0.919922 17.2305 0.00292969 36.4424 -4.74219 53.1875c-8.55762 30.2021 -49.5625 34.4395 -75.5215 29.3955c-12.8848 -2.50293 -23.2852 11.7715 -7.1416 15.3262c13.0488 2.87598 24.4434 9.77637 37.7812 12.3438c11.4141 2.19727 23.25 3.43262 34.8672 2.52246
c21.7441 -1.69824 45.3447 -9.22656 61.2852 -24.7559c16.9219 -16.4902 21.6924 -38.0576 24.7197 -60.6289c3.46191 -25.791 6.36328 -51.6631 9.45215 -77.5029z" />
    <glyph glyph-name="asciicircum" unicode="^" horiz-adv-x="306" 
d="M256.098 696.282c2.07227 -19.4307 -26.4043 -27.9424 -40.5723 -28.4346c-16.2686 -0.569336 -40.7734 6.05176 -42.4619 25.5371c-2.39355 27.6377 -5.85547 55.1182 -8.99512 82.6729c-0.97168 8.50586 -2.03613 16.9961 -3.14941 25.4824
c-3.55762 -8.38086 -6.87793 -16.8711 -10.2363 -25.3223c-13.5439 -34.0654 -27.7568 -68.1279 -44.0547 -100.968c-10.1436 -20.4385 -62.7686 -20.3613 -56.0322 8.03223c9.55469 40.2686 23.2881 79.752 37.3721 118.64
c11.5361 31.8652 27.5859 71.1299 60.8564 85.5488c22.4004 9.70898 52.7344 6.02246 69.0029 -13.2676c12.7783 -15.1494 15.1328 -37.0898 19.1377 -55.8135c8.64453 -40.416 14.751 -81.0186 19.1328 -122.107z" />
    <glyph glyph-name="underscore" unicode="_" horiz-adv-x="367" 
d="M276.259 47.5039c14.4805 0.370117 39.8574 -5.625 40.5039 -24.3643c0.640625 -18.373 -23.8994 -26.9531 -38.7109 -27.1299c-33.7119 -0.405273 -67.4268 -0.260742 -101.142 -0.250977c-34.1553 0.00976562 -69.2793 -1.65039 -103.242 2.40918
c-9.63477 1.15137 -23.2627 7.49512 -23.6582 18.8125c-0.389648 11.1406 12.7842 18.9287 22.291 20.418c33.8496 5.29883 68.7451 5.25684 102.93 6.55371c33.6729 1.27734 67.3428 2.68945 101.028 3.55176z" />
    <glyph glyph-name="grave" unicode="`" horiz-adv-x="179" 
d="M89.2393 914.647c12.292 0.427734 41.8105 -5.87305 39.5361 -23.7764c-2.83398 -22.3164 -4.22363 -44.9004 -4.38477 -67.4004c-0.128906 -17.5166 4.89258 -40.3799 -1.26855 -57.1025c-4.27246 -11.5947 -22.4912 -15.9697 -33.3066 -13.6279
c-29.4648 6.37305 -33.1777 29.2275 -36.7998 55.9746c-3.59375 26.5508 -3.79688 52.7832 -1.55469 79.4561c1.53809 18.292 21.6738 25.9131 37.7783 26.4766z" />
    <glyph glyph-name="a" unicode="a" horiz-adv-x="476" 
d="M492.035 168.457c3.0918 8.02637 23.1016 6.97754 20.3799 -2.9248c-13.3223 -48.3916 -40.3555 -97.4902 -78.4844 -130.845c-32.5596 -28.4805 -73.4453 -35.4033 -113.752 -19.0859c-47.7539 19.3311 -73.5869 64.3633 -82.3828 113.314
c-1.21289 6.74609 -2.26855 13.5244 -3.19141 20.332c-9.41309 -35.7061 -21.6152 -71.7822 -41.5771 -101.579c-45.1709 -67.4199 -152.129 -68.3174 -193.211 4.41406c-22.6221 40.0498 -26.8525 93.2471 -25.624 138.431
c1.29688 47.7539 10.3818 97.5225 27.1846 142.298c14.918 39.75 38.5762 78.2002 76.2871 99.7607c33.3096 19.0449 80.3721 23.2236 114.541 3.68359c17.9482 -10.2656 32.0098 -27.5928 42.6514 -47.416c1.93066 21.332 4.30469 42.626 7.14258 63.8682
c2.63477 19.7109 22.5996 27.9658 40.8115 28.6025c13.1064 0.457031 45.3965 -6.38281 42.707 -25.6855c-8.20703 -58.9014 -12.9717 -118.221 -13.9238 -177.691c-0.926758 -57.7402 -0.65332 -116.298 8.47656 -173.401
c3.52246 -22.043 11.2656 -47.6279 24.1562 -66.2061c16.2305 -23.3945 41.4619 -14.8398 61.4912 -0.504883c42.5107 30.4238 68.0508 83.1904 86.3174 130.636zM229.332 290.696c0.211914 9.9248 0.566406 19.8369 0.984375 29.749
c-11.4082 35.9541 -34.7646 79.748 -72.4561 85.835c-2.16211 0.350586 -5.72363 0.21582 -8.55762 -0.507812c-3.73535 -0.952148 -5.51758 -1.50195 -10.958 -4.6582c-11.9287 -6.91992 -20.4121 -17.498 -28.5576 -28.3457
c-20.2676 -26.9883 -31.8457 -58.9824 -40.1426 -91.4648c-9.58984 -37.5557 -13.9199 -76.2734 -13.5078 -115.026c0.385742 -36.2305 3.97949 -75.6045 20.1875 -108.521c12.9619 -26.3281 34.918 -51.2764 65.5859 -32.1055
c30.8838 19.3057 45.8691 55.9131 57.6279 88.7051c12.4404 34.6992 23.3271 70.6279 29.6455 107.087c-0.594727 23.1631 -0.336914 46.3389 0.148438 69.2539z" />
    <glyph glyph-name="a" unicode="&#xe5;" horiz-adv-x="476" 
d="M492.035 168.457c3.0918 8.02637 23.1016 6.97754 20.3799 -2.9248c-13.3223 -48.3916 -40.3555 -97.4902 -78.4844 -130.845c-32.5596 -28.4805 -73.4453 -35.4033 -113.752 -19.0859c-47.7539 19.3311 -73.5869 64.3633 -82.3828 113.314
c-1.21289 6.74609 -2.26855 13.5244 -3.19141 20.332c-9.41309 -35.7061 -21.6152 -71.7822 -41.5771 -101.579c-45.1709 -67.4199 -152.129 -68.3174 -193.211 4.41406c-22.6221 40.0498 -26.8525 93.2471 -25.624 138.431
c1.29688 47.7539 10.3818 97.5225 27.1846 142.298c14.918 39.75 38.5762 78.2002 76.2871 99.7607c33.3096 19.0449 80.3721 23.2236 114.541 3.68359c17.9482 -10.2656 32.0098 -27.5928 42.6514 -47.416c1.93066 21.332 4.30469 42.626 7.14258 63.8682
c2.63477 19.7109 22.5996 27.9658 40.8115 28.6025c13.1064 0.457031 45.3965 -6.38281 42.707 -25.6855c-8.20703 -58.9014 -12.9717 -118.221 -13.9238 -177.691c-0.926758 -57.7402 -0.65332 -116.298 8.47656 -173.401
c3.52246 -22.043 11.2656 -47.6279 24.1562 -66.2061c16.2305 -23.3945 41.4619 -14.8398 61.4912 -0.504883c42.5107 30.4238 68.0508 83.1904 86.3174 130.636zM229.332 290.696c0.211914 9.9248 0.566406 19.8369 0.984375 29.749
c-11.4082 35.9541 -34.7646 79.748 -72.4561 85.835c-2.16211 0.350586 -5.72363 0.21582 -8.55762 -0.507812c-3.73535 -0.952148 -5.51758 -1.50195 -10.958 -4.6582c-11.9287 -6.91992 -20.4121 -17.498 -28.5576 -28.3457
c-20.2676 -26.9883 -31.8457 -58.9824 -40.1426 -91.4648c-9.58984 -37.5557 -13.9199 -76.2734 -13.5078 -115.026c0.385742 -36.2305 3.97949 -75.6045 20.1875 -108.521c12.9619 -26.3281 34.918 -51.2764 65.5859 -32.1055
c30.8838 19.3057 45.8691 55.9131 57.6279 88.7051c12.4404 34.6992 23.3271 70.6279 29.6455 107.087c-0.594727 23.1631 -0.336914 46.3389 0.148438 69.2539z" />
    <glyph glyph-name="a" unicode="&#xe4;" horiz-adv-x="476" 
d="M492.035 168.457c3.0918 8.02637 23.1016 6.97754 20.3799 -2.9248c-13.3223 -48.3916 -40.3555 -97.4902 -78.4844 -130.845c-32.5596 -28.4805 -73.4453 -35.4033 -113.752 -19.0859c-47.7539 19.3311 -73.5869 64.3633 -82.3828 113.314
c-1.21289 6.74609 -2.26855 13.5244 -3.19141 20.332c-9.41309 -35.7061 -21.6152 -71.7822 -41.5771 -101.579c-45.1709 -67.4199 -152.129 -68.3174 -193.211 4.41406c-22.6221 40.0498 -26.8525 93.2471 -25.624 138.431
c1.29688 47.7539 10.3818 97.5225 27.1846 142.298c14.918 39.75 38.5762 78.2002 76.2871 99.7607c33.3096 19.0449 80.3721 23.2236 114.541 3.68359c17.9482 -10.2656 32.0098 -27.5928 42.6514 -47.416c1.93066 21.332 4.30469 42.626 7.14258 63.8682
c2.63477 19.7109 22.5996 27.9658 40.8115 28.6025c13.1064 0.457031 45.3965 -6.38281 42.707 -25.6855c-8.20703 -58.9014 -12.9717 -118.221 -13.9238 -177.691c-0.926758 -57.7402 -0.65332 -116.298 8.47656 -173.401
c3.52246 -22.043 11.2656 -47.6279 24.1562 -66.2061c16.2305 -23.3945 41.4619 -14.8398 61.4912 -0.504883c42.5107 30.4238 68.0508 83.1904 86.3174 130.636zM229.332 290.696c0.211914 9.9248 0.566406 19.8369 0.984375 29.749
c-11.4082 35.9541 -34.7646 79.748 -72.4561 85.835c-2.16211 0.350586 -5.72363 0.21582 -8.55762 -0.507812c-3.73535 -0.952148 -5.51758 -1.50195 -10.958 -4.6582c-11.9287 -6.91992 -20.4121 -17.498 -28.5576 -28.3457
c-20.2676 -26.9883 -31.8457 -58.9824 -40.1426 -91.4648c-9.58984 -37.5557 -13.9199 -76.2734 -13.5078 -115.026c0.385742 -36.2305 3.97949 -75.6045 20.1875 -108.521c12.9619 -26.3281 34.918 -51.2764 65.5859 -32.1055
c30.8838 19.3057 45.8691 55.9131 57.6279 88.7051c12.4404 34.6992 23.3271 70.6279 29.6455 107.087c-0.594727 23.1631 -0.336914 46.3389 0.148438 69.2539z" />
    <glyph glyph-name="a" unicode="&#xe3;" horiz-adv-x="476" 
d="M492.035 168.457c3.0918 8.02637 23.1016 6.97754 20.3799 -2.9248c-13.3223 -48.3916 -40.3555 -97.4902 -78.4844 -130.845c-32.5596 -28.4805 -73.4453 -35.4033 -113.752 -19.0859c-47.7539 19.3311 -73.5869 64.3633 -82.3828 113.314
c-1.21289 6.74609 -2.26855 13.5244 -3.19141 20.332c-9.41309 -35.7061 -21.6152 -71.7822 -41.5771 -101.579c-45.1709 -67.4199 -152.129 -68.3174 -193.211 4.41406c-22.6221 40.0498 -26.8525 93.2471 -25.624 138.431
c1.29688 47.7539 10.3818 97.5225 27.1846 142.298c14.918 39.75 38.5762 78.2002 76.2871 99.7607c33.3096 19.0449 80.3721 23.2236 114.541 3.68359c17.9482 -10.2656 32.0098 -27.5928 42.6514 -47.416c1.93066 21.332 4.30469 42.626 7.14258 63.8682
c2.63477 19.7109 22.5996 27.9658 40.8115 28.6025c13.1064 0.457031 45.3965 -6.38281 42.707 -25.6855c-8.20703 -58.9014 -12.9717 -118.221 -13.9238 -177.691c-0.926758 -57.7402 -0.65332 -116.298 8.47656 -173.401
c3.52246 -22.043 11.2656 -47.6279 24.1562 -66.2061c16.2305 -23.3945 41.4619 -14.8398 61.4912 -0.504883c42.5107 30.4238 68.0508 83.1904 86.3174 130.636zM229.332 290.696c0.211914 9.9248 0.566406 19.8369 0.984375 29.749
c-11.4082 35.9541 -34.7646 79.748 -72.4561 85.835c-2.16211 0.350586 -5.72363 0.21582 -8.55762 -0.507812c-3.73535 -0.952148 -5.51758 -1.50195 -10.958 -4.6582c-11.9287 -6.91992 -20.4121 -17.498 -28.5576 -28.3457
c-20.2676 -26.9883 -31.8457 -58.9824 -40.1426 -91.4648c-9.58984 -37.5557 -13.9199 -76.2734 -13.5078 -115.026c0.385742 -36.2305 3.97949 -75.6045 20.1875 -108.521c12.9619 -26.3281 34.918 -51.2764 65.5859 -32.1055
c30.8838 19.3057 45.8691 55.9131 57.6279 88.7051c12.4404 34.6992 23.3271 70.6279 29.6455 107.087c-0.594727 23.1631 -0.336914 46.3389 0.148438 69.2539z" />
    <glyph glyph-name="a" unicode="&#xe2;" horiz-adv-x="476" 
d="M492.035 168.457c3.0918 8.02637 23.1016 6.97754 20.3799 -2.9248c-13.3223 -48.3916 -40.3555 -97.4902 -78.4844 -130.845c-32.5596 -28.4805 -73.4453 -35.4033 -113.752 -19.0859c-47.7539 19.3311 -73.5869 64.3633 -82.3828 113.314
c-1.21289 6.74609 -2.26855 13.5244 -3.19141 20.332c-9.41309 -35.7061 -21.6152 -71.7822 -41.5771 -101.579c-45.1709 -67.4199 -152.129 -68.3174 -193.211 4.41406c-22.6221 40.0498 -26.8525 93.2471 -25.624 138.431
c1.29688 47.7539 10.3818 97.5225 27.1846 142.298c14.918 39.75 38.5762 78.2002 76.2871 99.7607c33.3096 19.0449 80.3721 23.2236 114.541 3.68359c17.9482 -10.2656 32.0098 -27.5928 42.6514 -47.416c1.93066 21.332 4.30469 42.626 7.14258 63.8682
c2.63477 19.7109 22.5996 27.9658 40.8115 28.6025c13.1064 0.457031 45.3965 -6.38281 42.707 -25.6855c-8.20703 -58.9014 -12.9717 -118.221 -13.9238 -177.691c-0.926758 -57.7402 -0.65332 -116.298 8.47656 -173.401
c3.52246 -22.043 11.2656 -47.6279 24.1562 -66.2061c16.2305 -23.3945 41.4619 -14.8398 61.4912 -0.504883c42.5107 30.4238 68.0508 83.1904 86.3174 130.636zM229.332 290.696c0.211914 9.9248 0.566406 19.8369 0.984375 29.749
c-11.4082 35.9541 -34.7646 79.748 -72.4561 85.835c-2.16211 0.350586 -5.72363 0.21582 -8.55762 -0.507812c-3.73535 -0.952148 -5.51758 -1.50195 -10.958 -4.6582c-11.9287 -6.91992 -20.4121 -17.498 -28.5576 -28.3457
c-20.2676 -26.9883 -31.8457 -58.9824 -40.1426 -91.4648c-9.58984 -37.5557 -13.9199 -76.2734 -13.5078 -115.026c0.385742 -36.2305 3.97949 -75.6045 20.1875 -108.521c12.9619 -26.3281 34.918 -51.2764 65.5859 -32.1055
c30.8838 19.3057 45.8691 55.9131 57.6279 88.7051c12.4404 34.6992 23.3271 70.6279 29.6455 107.087c-0.594727 23.1631 -0.336914 46.3389 0.148438 69.2539z" />
    <glyph glyph-name="a" unicode="&#xe1;" horiz-adv-x="476" 
d="M492.035 168.457c3.0918 8.02637 23.1016 6.97754 20.3799 -2.9248c-13.3223 -48.3916 -40.3555 -97.4902 -78.4844 -130.845c-32.5596 -28.4805 -73.4453 -35.4033 -113.752 -19.0859c-47.7539 19.3311 -73.5869 64.3633 -82.3828 113.314
c-1.21289 6.74609 -2.26855 13.5244 -3.19141 20.332c-9.41309 -35.7061 -21.6152 -71.7822 -41.5771 -101.579c-45.1709 -67.4199 -152.129 -68.3174 -193.211 4.41406c-22.6221 40.0498 -26.8525 93.2471 -25.624 138.431
c1.29688 47.7539 10.3818 97.5225 27.1846 142.298c14.918 39.75 38.5762 78.2002 76.2871 99.7607c33.3096 19.0449 80.3721 23.2236 114.541 3.68359c17.9482 -10.2656 32.0098 -27.5928 42.6514 -47.416c1.93066 21.332 4.30469 42.626 7.14258 63.8682
c2.63477 19.7109 22.5996 27.9658 40.8115 28.6025c13.1064 0.457031 45.3965 -6.38281 42.707 -25.6855c-8.20703 -58.9014 -12.9717 -118.221 -13.9238 -177.691c-0.926758 -57.7402 -0.65332 -116.298 8.47656 -173.401
c3.52246 -22.043 11.2656 -47.6279 24.1562 -66.2061c16.2305 -23.3945 41.4619 -14.8398 61.4912 -0.504883c42.5107 30.4238 68.0508 83.1904 86.3174 130.636zM229.332 290.696c0.211914 9.9248 0.566406 19.8369 0.984375 29.749
c-11.4082 35.9541 -34.7646 79.748 -72.4561 85.835c-2.16211 0.350586 -5.72363 0.21582 -8.55762 -0.507812c-3.73535 -0.952148 -5.51758 -1.50195 -10.958 -4.6582c-11.9287 -6.91992 -20.4121 -17.498 -28.5576 -28.3457
c-20.2676 -26.9883 -31.8457 -58.9824 -40.1426 -91.4648c-9.58984 -37.5557 -13.9199 -76.2734 -13.5078 -115.026c0.385742 -36.2305 3.97949 -75.6045 20.1875 -108.521c12.9619 -26.3281 34.918 -51.2764 65.5859 -32.1055
c30.8838 19.3057 45.8691 55.9131 57.6279 88.7051c12.4404 34.6992 23.3271 70.6279 29.6455 107.087c-0.594727 23.1631 -0.336914 46.3389 0.148438 69.2539z" />
    <glyph glyph-name="b" unicode="b" horiz-adv-x="413" 
d="M430.316 147.108c6.3252 6.09277 27.3604 1.34961 19.208 -6.54199c-29.3271 -28.3584 -62.3086 -49.3398 -104.392 -48.1143c-7.55371 0.21875 -15.1172 0.987305 -22.6416 2.13867c-0.785156 -2.62207 -1.56738 -5.25 -2.39453 -7.8457
c-18.3438 -57.6113 -62.4824 -101.157 -120.097 -118.539c-27.4355 -8.27734 -54.7939 -7 -77.5449 11.5469c-16.2402 13.2383 -25.6826 34.0977 -29.3213 54.4424c-7.33496 41.0244 9.57715 88.7334 49.2148 106.54c33.9463 15.249 67.7129 6.7041 100.707 -5.25391
c0.367188 1.65039 0.740234 3.30762 1.09766 4.94531c10.626 48.8867 13.5635 99.8418 9.56445 149.71c-3.31641 41.3682 -4.67383 94.125 -43.5107 119.774c-23.1855 15.3135 -47.4717 -12.083 -59.7959 -29.4941c-14.2197 -20.0908 -23.6875 -43.1152 -32.0322 -66.1367
c-29.6807 -81.875 -46.3447 -167.487 -60.001 -253.351c-1.39258 -21.2773 -3.85645 -42.3037 -9.85352 -63.2021c-5.94238 -20.7119 -51.4668 -18.9072 -54.5391 2.88184c-5.4082 38.3379 -5.83594 76.1191 -6.92969 114.869
c-3.57422 126.515 -3.45801 253.656 -2.43848 380.21c0.932617 115.856 -0.907227 233.701 11.9316 349.004c2.1748 19.5117 22.7031 27.6602 40.3457 28.2744c13.9395 0.485352 43.5459 -6.11621 42.2168 -25.3926c-4.04102 -58.5664 -6.46973 -117.271 -8.13281 -175.951
c-3.83203 -135.165 -5.27051 -270.446 -7.2041 -405.65c-0.347656 -24.2637 -0.614258 -48.5234 -0.99707 -72.7832c1.07812 4.85742 2.12402 9.72168 3.25977 14.5693c8.00098 34.1777 17.4111 68.0439 28.8418 101.241c9.91797 28.8027 21.3389 57.6787 39.7666 82.2246
c29.2949 39.0195 80.54 50.8008 123.794 26.0098c22.9541 -13.1582 38.5859 -38.5088 50.0098 -61.6396c13.917 -28.1748 22.3848 -57.9199 27.7021 -88.8232c8.89844 -51.7246 3.84766 -106.878 -9.63477 -157.949c14.0039 -2.39062 28.2812 -3.06934 42.0088 -0.151367
c24.3633 5.17969 44.29 21.5771 61.791 38.4375zM191.352 14.5703c25.5596 28.6807 38.9482 68.0244 48.1846 105.799c-13.2998 5.16309 -26.7568 9.80566 -40.8633 12.1152c-24.3955 3.99609 -49.1094 -0.716797 -65.3398 -20.5176
c-12.4922 -15.2422 -18.7852 -36.0244 -18.1162 -55.6035c0.704102 -20.6055 7.82031 -46.2168 26.3535 -57.9395c17.2178 -10.8896 38.1934 3.14355 49.7812 16.1465z" />
    <glyph glyph-name="c" unicode="c" horiz-adv-x="275" 
d="M290.004 163.654c3.86328 7.38672 23.6455 5.45215 19.46 -2.7832c-28.9121 -56.7979 -64.5088 -121.931 -123.577 -152.394c-23.9189 -12.3379 -48.8125 -18.9746 -75.8262 -19.4121c-22.3457 -0.360352 -41.8408 2.34473 -61.7705 13.0869
c-19.6914 10.6133 -36.1689 26.6406 -48.8027 44.9492c-24.7744 35.9062 -27.1709 83.5449 -24.7393 125.641c2.82812 48.9346 11.7236 98.0234 27.9951 144.32c15.3193 43.5918 38.0703 93.9678 79.1074 119.016c36.459 22.2529 82.6172 23.9385 116.354 -3.61914
c39.2998 -32.0967 35.6133 -99.7715 19.4824 -142.874c-3.6709 -9.80566 -28.3809 -8.05566 -24.543 3.51953c7.3252 22.1016 9.26465 46.5605 6.82324 69.6592c-2.19043 20.7305 -11.3301 54.0723 -36.4873 57.1445c-12.7461 1.55664 -24.2314 -10.083 -32.2295 -18.7402
c-11.6621 -12.6172 -22.3428 -27.3838 -30.6621 -42.4111c-18.7559 -33.8818 -31.2832 -71.499 -39.834 -109.155c-8.48047 -37.3564 -14.4355 -76.5078 -14.043 -114.9c0.337891 -32.9238 4.74805 -70.1162 23.9697 -97.9727
c8.82422 -12.7842 23.0723 -25.2891 38.3047 -29.6035c16.085 -4.55566 35.3516 1.2832 50.4561 7.14453c10.4717 4.06348 20.2871 8.9082 29.5361 15.3359c45.875 31.8711 75.8037 85.8408 101.025 134.049z" />
    <glyph glyph-name="d" unicode="d" horiz-adv-x="497" 
d="M510.897 160.105c3.95703 8.62793 26.5068 6.75586 22.2217 -3.18457c-16.6387 -38.6406 -30.749 -80.6299 -53.7354 -116.072c-17.7031 -27.2969 -48.751 -53.0273 -82.7363 -54.1055c-33.2646 -1.05859 -65.4609 16.249 -87.8457 39.9912
c-25.8975 27.4639 -38.2354 62.3535 -46.1104 98.5684c-5.83887 26.8438 -10.6865 53.8447 -14.7305 80.958c-1.21289 -6.20605 -2.53223 -12.3955 -3.96387 -18.5596c-10.9414 -47.1113 -23.7549 -99.4053 -50.9717 -140.03
c-45.1709 -67.4199 -152.129 -68.3174 -193.211 4.41406c-22.6221 40.0498 -26.8525 93.2471 -25.624 138.431c1.2998 47.7539 10.3848 97.5225 27.1875 142.298c14.918 39.75 38.5762 78.2002 76.2871 99.7607c33.3096 19.0449 80.3721 23.2236 114.541 3.68359
c16.0918 -9.2041 29.0635 -24.0762 39.2451 -41.3418c-2.41309 69.7041 -1.25488 139.366 1.05176 209.115c2.67969 80.9482 2.99805 163.37 14.8789 243.607c3.47461 23.4844 26.168 32.1191 47.8057 33.5059c18.8037 1.20312 48.5039 -7.49219 50.0283 -30.0889
c5.4502 -80.7617 -3.46777 -162.627 -7.00684 -243.334c-6.29297 -143.437 -9.08887 -287.867 3.46777 -431.056c2.7666 -31.5596 5.05762 -64.4248 12.6211 -95.2666c5.94531 -24.2402 16.1182 -55.2461 41.5205 -65.6689c32.6855 -13.4121 58.2197 26.2314 71.249 50.4209
c16.3398 30.3369 29.4756 62.6455 43.8301 93.9541zM199.541 114.358c22.3945 62.46 39.752 128.902 34.4795 195.261c-0.482422 0.618164 -0.887695 1.28418 -1.09961 2.05273c-10.2207 37.1865 -34.2422 88.0195 -75.0605 94.6113
c-2.16211 0.350586 -5.72363 0.21582 -8.55762 -0.507812c-3.73535 -0.952148 -5.51758 -1.50195 -10.958 -4.6582c-11.9287 -6.91992 -20.4121 -17.498 -28.5576 -28.3457c-20.2676 -26.9883 -31.8457 -58.9824 -40.1426 -91.4648
c-9.58984 -37.5557 -13.9199 -76.2734 -13.5078 -115.026c0.385742 -36.2305 3.97949 -75.6045 20.1875 -108.521c12.9648 -26.3281 34.9209 -51.2764 65.5889 -32.1055c30.8838 19.3057 45.8691 55.9131 57.6279 88.7051z" />
    <glyph glyph-name="e" unicode="e" horiz-adv-x="266" 
d="M278.691 162.824c4.21777 10.208 28.6982 5.74902 23.6084 -3.3877c-40.5898 -72.9854 -104.468 -170.585 -201.099 -160.007c-39.1582 4.28809 -79.4971 22.7383 -100.15 57.6465c-23.7578 40.1553 -29.1074 90.5635 -26.415 136.32
c4.94141 83.998 30.6777 188.199 97.0811 245.579c34.1621 29.5195 93.6426 35.5576 123.259 -3.10547c24.6172 -32.1387 21.8252 -73.9385 7.55762 -110.002c-13.0576 -33.0137 -38.2988 -60.6318 -64.3477 -83.9873
c-26.6631 -23.9092 -56.2695 -44.8359 -87.7773 -61.9766c-0.353516 -5.55273 -0.65625 -11.0986 -0.855469 -16.6123c-1.26758 -35.1689 0.507812 -69.4727 11.7744 -102.856c4.90234 -14.5215 9.3418 -28.3867 21.9111 -38.3721
c13.9561 -11.0889 33.667 -10.835 50.3857 -7.61426c33.9141 6.53418 62.1504 30.0381 84.7822 54.9346c25.293 27.8213 45.9209 58.6699 60.2852 93.4404zM104.47 371.015c-30.0117 -49.7646 -45.6572 -108.186 -51.9365 -166.205
c21.9727 13.4023 43.0225 28.252 62.5176 45.1572c25.0898 21.7539 50.2441 47.751 61.543 79.6221c6.53027 18.4209 11.6133 40.0781 6.2373 59.4033c-2.82422 10.1533 -11.8125 31.2988 -24.1084 33.0742c-9.43262 1.36426 -20.7568 -10.1436 -26.8691 -15.6514
c-10.8379 -9.7666 -19.8975 -22.9893 -27.3838 -35.4004z" />
    <glyph glyph-name="e" unicode="&#xeb;" horiz-adv-x="266" 
d="M278.691 162.824c4.21777 10.208 28.6982 5.74902 23.6084 -3.3877c-40.5898 -72.9854 -104.468 -170.585 -201.099 -160.007c-39.1582 4.28809 -79.4971 22.7383 -100.15 57.6465c-23.7578 40.1553 -29.1074 90.5635 -26.415 136.32
c4.94141 83.998 30.6777 188.199 97.0811 245.579c34.1621 29.5195 93.6426 35.5576 123.259 -3.10547c24.6172 -32.1387 21.8252 -73.9385 7.55762 -110.002c-13.0576 -33.0137 -38.2988 -60.6318 -64.3477 -83.9873
c-26.6631 -23.9092 -56.2695 -44.8359 -87.7773 -61.9766c-0.353516 -5.55273 -0.65625 -11.0986 -0.855469 -16.6123c-1.26758 -35.1689 0.507812 -69.4727 11.7744 -102.856c4.90234 -14.5215 9.3418 -28.3867 21.9111 -38.3721
c13.9561 -11.0889 33.667 -10.835 50.3857 -7.61426c33.9141 6.53418 62.1504 30.0381 84.7822 54.9346c25.293 27.8213 45.9209 58.6699 60.2852 93.4404zM104.47 371.015c-30.0117 -49.7646 -45.6572 -108.186 -51.9365 -166.205
c21.9727 13.4023 43.0225 28.252 62.5176 45.1572c25.0898 21.7539 50.2441 47.751 61.543 79.6221c6.53027 18.4209 11.6133 40.0781 6.2373 59.4033c-2.82422 10.1533 -11.8125 31.2988 -24.1084 33.0742c-9.43262 1.36426 -20.7568 -10.1436 -26.8691 -15.6514
c-10.8379 -9.7666 -19.8975 -22.9893 -27.3838 -35.4004z" />
    <glyph glyph-name="e" unicode="&#xea;" horiz-adv-x="266" 
d="M278.691 162.824c4.21777 10.208 28.6982 5.74902 23.6084 -3.3877c-40.5898 -72.9854 -104.468 -170.585 -201.099 -160.007c-39.1582 4.28809 -79.4971 22.7383 -100.15 57.6465c-23.7578 40.1553 -29.1074 90.5635 -26.415 136.32
c4.94141 83.998 30.6777 188.199 97.0811 245.579c34.1621 29.5195 93.6426 35.5576 123.259 -3.10547c24.6172 -32.1387 21.8252 -73.9385 7.55762 -110.002c-13.0576 -33.0137 -38.2988 -60.6318 -64.3477 -83.9873
c-26.6631 -23.9092 -56.2695 -44.8359 -87.7773 -61.9766c-0.353516 -5.55273 -0.65625 -11.0986 -0.855469 -16.6123c-1.26758 -35.1689 0.507812 -69.4727 11.7744 -102.856c4.90234 -14.5215 9.3418 -28.3867 21.9111 -38.3721
c13.9561 -11.0889 33.667 -10.835 50.3857 -7.61426c33.9141 6.53418 62.1504 30.0381 84.7822 54.9346c25.293 27.8213 45.9209 58.6699 60.2852 93.4404zM104.47 371.015c-30.0117 -49.7646 -45.6572 -108.186 -51.9365 -166.205
c21.9727 13.4023 43.0225 28.252 62.5176 45.1572c25.0898 21.7539 50.2441 47.751 61.543 79.6221c6.53027 18.4209 11.6133 40.0781 6.2373 59.4033c-2.82422 10.1533 -11.8125 31.2988 -24.1084 33.0742c-9.43262 1.36426 -20.7568 -10.1436 -26.8691 -15.6514
c-10.8379 -9.7666 -19.8975 -22.9893 -27.3838 -35.4004z" />
    <glyph glyph-name="e" unicode="&#xe9;" horiz-adv-x="266" 
d="M278.691 162.824c4.21777 10.208 28.6982 5.74902 23.6084 -3.3877c-40.5898 -72.9854 -104.468 -170.585 -201.099 -160.007c-39.1582 4.28809 -79.4971 22.7383 -100.15 57.6465c-23.7578 40.1553 -29.1074 90.5635 -26.415 136.32
c4.94141 83.998 30.6777 188.199 97.0811 245.579c34.1621 29.5195 93.6426 35.5576 123.259 -3.10547c24.6172 -32.1387 21.8252 -73.9385 7.55762 -110.002c-13.0576 -33.0137 -38.2988 -60.6318 -64.3477 -83.9873
c-26.6631 -23.9092 -56.2695 -44.8359 -87.7773 -61.9766c-0.353516 -5.55273 -0.65625 -11.0986 -0.855469 -16.6123c-1.26758 -35.1689 0.507812 -69.4727 11.7744 -102.856c4.90234 -14.5215 9.3418 -28.3867 21.9111 -38.3721
c13.9561 -11.0889 33.667 -10.835 50.3857 -7.61426c33.9141 6.53418 62.1504 30.0381 84.7822 54.9346c25.293 27.8213 45.9209 58.6699 60.2852 93.4404zM104.47 371.015c-30.0117 -49.7646 -45.6572 -108.186 -51.9365 -166.205
c21.9727 13.4023 43.0225 28.252 62.5176 45.1572c25.0898 21.7539 50.2441 47.751 61.543 79.6221c6.53027 18.4209 11.6133 40.0781 6.2373 59.4033c-2.82422 10.1533 -11.8125 31.2988 -24.1084 33.0742c-9.43262 1.36426 -20.7568 -10.1436 -26.8691 -15.6514
c-10.8379 -9.7666 -19.8975 -22.9893 -27.3838 -35.4004z" />
    <glyph glyph-name="f" unicode="f" horiz-adv-x="330" 
d="M353.447 174.772c8.6543 3.74512 23.0996 -5.81641 10.7588 -11.1504c-57.2441 -24.7617 -113.923 -51.0742 -169.215 -79.96c-40.4258 -21.1201 -80.2949 -41.8184 -112.678 -72.9463c7.83008 3.39355 15.8086 6.42773 24.0342 8.86328
c36.4365 10.79 80.501 8.96289 105.32 -23.6582c20.0332 -26.3281 22.4141 -63.5625 13.0527 -94.4629c-4.53906 -14.9883 -12.7334 -29.2627 -22.1338 -41.7383c-4.29199 -5.7002 -8.69629 -11.1436 -13.75 -16.1787
c-1.26074 -1.25488 -1.56934 -1.67285 -1.46973 -1.70508c-0.144531 -0.109375 -0.263672 -0.196289 -0.43457 -0.325195c-2.11035 -1.58301 -4.02148 -2.81543 -6.36035 -4.10254c-1.46387 -0.804688 -3.05273 -1.54785 -4.58398 -2.2168
c-4.75781 -2.07812 -9.81836 -3.77051 -14.8623 -4.97363c-11.8486 -2.82812 -24.0576 -3.19141 -36.1504 -2.0752c-4.96387 0.459961 -9.7666 1.33496 -14.624 2.41602c0.318359 -0.0703125 -2.53223 0.592773 -4.87793 1.13672
c1.32227 -0.298828 -8.56055 2.04297 -7.95898 1.84668c-2.41602 0.782227 -4.83203 1.95605 -7.16406 2.96289c-41.5039 17.9131 -63.4736 52.3779 -76.1172 94.5537c-29.9414 99.877 -35.6904 206.236 -32.4219 309.864c2.54785 80.7549 11.4209 162.494 25.2451 242.14
c11.7588 67.7607 28.0566 142.046 77.8213 192.814c25.0742 25.582 57.3926 47.7578 93.7842 51.6826c39.4541 4.25293 80.9707 -7.3418 102.448 -42.6104c23.2402 -38.1611 18.9199 -89.2061 11.5176 -131.24c-7.82715 -44.4443 -23.0088 -85.3594 -46.9629 -123.649
c-44.0352 -70.3926 -107.27 -126.229 -171.875 -177.544c-0.865234 -16.3203 -1.55371 -32.6504 -1.95312 -48.9766c-1.1709 -47.8672 0.65332 -95.4863 4.46875 -143.192c0.704102 -8.82422 1.41211 -17.7031 2.1709 -26.5947
c28.6162 22.7256 63.2354 39.4092 94.5088 55.4941c59.2227 30.4629 119.334 59.085 180.462 85.5264zM90.291 426.544c-6.34375 -48.3945 -11.4717 -97.0527 -14.792 -145.805c58.1289 46.8604 114.572 98.832 151.739 163.505
c22.8184 39.7051 36.3203 83.6699 41.1299 129.191c3.88965 36.7998 0.884766 105.848 -43.0703 120.177c-52.8984 17.2432 -78.6768 -56 -92.8926 -92.8223c-21.7637 -56.3691 -34.2715 -114.428 -42.1143 -174.246zM181.351 -3.08301
c-27.6406 24.665 -68.8262 10.4893 -98.7002 -3.7041c2.3291 -18.5205 5.36328 -36.9219 9.8418 -54.9053c6.95898 -27.9404 18.8203 -54.4004 44.3125 -69.2471c2.00391 -1.16797 3.91211 -2.41016 5.93848 -3.5293c0.994141 -0.412109 2.36133 -0.984375 2.85352 -1.12305
c1.25488 -0.353516 2.53516 -0.807617 3.77344 -1.20312c1.86621 -0.598633 2.12988 -0.637695 1.75977 -0.466797c0.0839844 -0.0322266 0.125977 -0.0546875 0.200195 -0.0839844c0.186523 0.148438 0.919922 0.242188 2.73438 0.155273
c0.476562 -0.0224609 1.6543 0.0644531 2.57715 0.134766c1.67285 0.250977 3.29395 0.457031 -0.341797 -0.373047c-0.0898438 -0.0195312 16.4395 3.67969 9.14941 2.13867c0.331055 0.0673828 5.5332 1.84668 2.34473 0.43457
c2.39355 1.05859 4.74219 1.6123 6.92969 2.88965c5.51367 3.22363 10.2041 8.28711 13.6396 13.5693c7.3125 11.2441 11.7646 25.0938 13.9492 38.248c4.38184 26.3672 -0.0380859 58.3936 -20.9619 77.0654z" />
    <glyph glyph-name="g" unicode="g" horiz-adv-x="433" 
d="M289.612 441.812c17.2373 1.10645 50.6133 -7.50488 50.0244 -30.0947c-2.57324 -98.6035 -1.27051 -197.294 -2.04297 -295.917c-0.817383 -104.185 -0.541016 -208.527 -5.0293 -312.632c-1.74023 -40.3193 -3.3584 -80.7324 -7.56934 -120.882
c-3.03711 -28.9219 -6.23145 -58.377 -15.7666 -86.0049c-22.4648 -65.0908 -87.2441 -118.362 -156.575 -85.0625c-43.2568 20.7793 -67.4463 67.4521 -75.6338 112.794c-16.4355 90.998 -13.7754 185.235 -16.6992 277.33
c-0.375977 11.7969 26.3389 12.6719 26.7246 0.932617c1.49609 -45.4443 2.0625 -90.9053 4.13477 -136.337c2.33887 -51.3125 3.83203 -104.693 15.7129 -154.89c9.59375 -40.5283 56.7207 -116.168 103.648 -76.4561c30.501 25.8105 36.7197 72.5029 38.0098 110.629
c2.54102 75.0771 -2.42578 150.392 -3.81543 225.437c-1.78516 96.4834 -5.16602 192.935 -6.34375 289.424c-9.7959 -39.165 -22.3809 -79.6006 -44.3662 -112.418c-45.1709 -67.4199 -152.129 -68.3174 -193.211 4.41406
c-22.6221 40.0498 -26.8525 93.2471 -25.624 138.431c1.2998 47.7539 10.3848 97.5225 27.1875 142.298c14.918 39.75 38.5762 78.2002 76.2871 99.7607c33.3096 19.0449 80.3721 23.2236 114.541 3.68359c20.2705 -11.5908 35.5811 -32.1836 46.6094 -55.2178
c0.556641 9.09766 1.20605 18.1895 1.99121 27.2715c2.0332 23.543 27.3672 32.1973 47.8057 33.5068zM200.537 114.359c22.3945 62.46 39.7529 128.903 34.4863 195.262c-0.482422 0.617188 -0.887695 1.2832 -1.09961 2.05176
c-10.2207 37.1865 -34.2422 88.0195 -75.0605 94.6113c-2.16211 0.350586 -5.72363 0.21582 -8.55762 -0.507812c-3.73535 -0.952148 -5.51758 -1.50195 -10.958 -4.6582c-11.9287 -6.91992 -20.4121 -17.498 -28.5576 -28.3457
c-20.2676 -26.9883 -31.8457 -58.9824 -40.1426 -91.4648c-9.59375 -37.5557 -13.9238 -76.2734 -13.5117 -115.026c0.385742 -36.2305 3.97949 -75.6045 20.1875 -108.521c12.9619 -26.3281 34.918 -51.2764 65.5859 -32.1055
c30.8838 19.3057 45.8691 55.9131 57.6279 88.7051z" />
    <glyph glyph-name="h" unicode="h" horiz-adv-x="471" 
d="M487.796 177.764c3.25879 7.56348 22.6416 5.66504 18.9932 -2.72168c-18.501 -42.4658 -40.252 -83.6416 -65.252 -122.655c-20.2031 -31.5303 -45.2607 -67.5713 -84.2676 -76.3154c-17.1699 -3.85059 -35.1982 -0.604492 -51.0967 6.38281
c-18.5371 8.14844 -35.6162 15.2393 -49.2949 31.1055c-31.7812 36.8643 -32.1123 89.3896 -29.1973 135.072c2.89551 45.4219 10.2627 90.4033 15.1943 135.619c2.58691 23.7256 5.86523 48.2783 6.18652 72.1621c0.208984 15.5547 5.55273 39.1484 -6.67871 52.0488
c-29.0215 30.6172 -83.1582 -70.6084 -91.915 -87.8936c-16.4844 -32.5273 -30.2246 -66.8887 -41.1885 -101.672c-22.5166 -71.4287 -38.0068 -144.891 -59.458 -216.638c-0.0351562 -0.12207 -0.112305 -0.22168 -0.157227 -0.34082
c-0.370117 -1.39941 -0.733398 -2.79883 -1.13574 -4.19824c-5.94238 -20.7119 -51.4668 -18.9072 -54.5391 2.88184c-5.4082 38.3379 -5.83594 76.1191 -6.92969 114.869c-3.57422 126.515 -3.45801 253.656 -2.43848 380.21
c0.932617 115.856 -0.907227 233.701 11.9316 349.004c2.1748 19.5117 22.7031 27.6602 40.3457 28.2744c13.9395 0.485352 43.5459 -6.11621 42.2168 -25.3926c-4.04102 -58.5664 -6.46973 -117.271 -8.13281 -175.951
c-3.83203 -135.165 -5.27051 -270.446 -7.2041 -405.65c-0.65918 -46.0527 -1.02246 -92.1055 -2.48926 -138.132c9.63867 37.791 19.7949 75.418 32.6533 112.157c13.624 38.9268 29.8477 77.4863 51.1543 112.871c17.1309 28.4482 40.6572 66.8252 75.958 73.9736
c33.6123 6.80371 69.4893 -15.5518 88.7793 -41.3145c13.5508 -18.0996 19.0742 -45.2168 21.9668 -67.4111c2.87598 -22.0625 3.01758 -45.3506 2.10742 -67.5449c-1.93945 -47.2041 -7.10645 -94.1924 -7.02246 -141.468
c0.0390625 -21.6797 -2.01367 -43.2627 -2.34473 -64.9297c-0.203125 -13.3408 -3.82227 -40.1387 8 -49.4424c19.6562 -15.4678 47.6094 8.75684 60.542 22.5c12.9678 13.7822 23.8604 29.8223 34.2285 45.5957c23.7773 36.166 43.376 75.2314 60.4844 114.943z" />
    <glyph glyph-name="i" unicode="i" horiz-adv-x="227" 
d="M242.2 168.457c3.0918 8.02637 23.1035 6.97754 20.3789 -2.92188c-13.3223 -48.3916 -40.3555 -97.4902 -78.4844 -130.845c-32.5596 -28.4805 -73.4453 -35.4033 -113.752 -19.0859c-47.7539 19.3311 -73.5869 64.3633 -82.3828 113.314
c-9.52246 53.0049 -9.59961 108.104 -8.46094 161.777c1.15137 54.208 5.48438 108.277 12.665 162.012c2.63477 19.7109 22.5996 27.9658 40.8115 28.6025c13.1064 0.457031 45.3965 -6.38281 42.707 -25.6855c-8.20703 -58.9014 -12.9717 -118.221 -13.9238 -177.691
c-0.926758 -57.7402 -0.65332 -116.298 8.47656 -173.401c3.52246 -22.043 11.2656 -47.6279 24.1562 -66.2061c16.2305 -23.3945 41.4619 -14.8398 61.4912 -0.504883c42.5107 30.4238 68.0508 83.1904 86.3174 130.636zM15.2148 535.071
c-11.4395 15.5703 -20.0684 31.8545 -24.5977 50.7422c-2.98535 12.4404 -7.19043 35.0215 5.96094 43.5176c16.6162 10.7324 28.4072 -5.4043 36.4307 -25.5176c3.22949 7.05469 7.22852 13.7334 12.0928 19.8008c11.71 14.5986 33.4834 25.8262 51.7275 15.5898
c37.5693 -21.0781 -40.709 -93.6328 -56.0352 -108.206c-6.1416 -5.83887 -23.8867 -3.06543 -24.6943 3.17871c-0.328125 0.273438 -0.640625 0.55957 -0.884766 0.894531z" />
    <glyph glyph-name="i" unicode="&#xef;" horiz-adv-x="227" 
d="M242.2 168.457c3.0918 8.02637 23.1035 6.97754 20.3789 -2.92188c-13.3223 -48.3916 -40.3555 -97.4902 -78.4844 -130.845c-32.5596 -28.4805 -73.4453 -35.4033 -113.752 -19.0859c-47.7539 19.3311 -73.5869 64.3633 -82.3828 113.314
c-9.52246 53.0049 -9.59961 108.104 -8.46094 161.777c1.15137 54.208 5.48438 108.277 12.665 162.012c2.63477 19.7109 22.5996 27.9658 40.8115 28.6025c13.1064 0.457031 45.3965 -6.38281 42.707 -25.6855c-8.20703 -58.9014 -12.9717 -118.221 -13.9238 -177.691
c-0.926758 -57.7402 -0.65332 -116.298 8.47656 -173.401c3.52246 -22.043 11.2656 -47.6279 24.1562 -66.2061c16.2305 -23.3945 41.4619 -14.8398 61.4912 -0.504883c42.5107 30.4238 68.0508 83.1904 86.3174 130.636zM15.2148 535.071
c-11.4395 15.5703 -20.0684 31.8545 -24.5977 50.7422c-2.98535 12.4404 -7.19043 35.0215 5.96094 43.5176c16.6162 10.7324 28.4072 -5.4043 36.4307 -25.5176c3.22949 7.05469 7.22852 13.7334 12.0928 19.8008c11.71 14.5986 33.4834 25.8262 51.7275 15.5898
c37.5693 -21.0781 -40.709 -93.6328 -56.0352 -108.206c-6.1416 -5.83887 -23.8867 -3.06543 -24.6943 3.17871c-0.328125 0.273438 -0.640625 0.55957 -0.884766 0.894531z" />
    <glyph glyph-name="i" unicode="&#xee;" horiz-adv-x="227" 
d="M242.2 168.457c3.0918 8.02637 23.1035 6.97754 20.3789 -2.92188c-13.3223 -48.3916 -40.3555 -97.4902 -78.4844 -130.845c-32.5596 -28.4805 -73.4453 -35.4033 -113.752 -19.0859c-47.7539 19.3311 -73.5869 64.3633 -82.3828 113.314
c-9.52246 53.0049 -9.59961 108.104 -8.46094 161.777c1.15137 54.208 5.48438 108.277 12.665 162.012c2.63477 19.7109 22.5996 27.9658 40.8115 28.6025c13.1064 0.457031 45.3965 -6.38281 42.707 -25.6855c-8.20703 -58.9014 -12.9717 -118.221 -13.9238 -177.691
c-0.926758 -57.7402 -0.65332 -116.298 8.47656 -173.401c3.52246 -22.043 11.2656 -47.6279 24.1562 -66.2061c16.2305 -23.3945 41.4619 -14.8398 61.4912 -0.504883c42.5107 30.4238 68.0508 83.1904 86.3174 130.636zM15.2148 535.071
c-11.4395 15.5703 -20.0684 31.8545 -24.5977 50.7422c-2.98535 12.4404 -7.19043 35.0215 5.96094 43.5176c16.6162 10.7324 28.4072 -5.4043 36.4307 -25.5176c3.22949 7.05469 7.22852 13.7334 12.0928 19.8008c11.71 14.5986 33.4834 25.8262 51.7275 15.5898
c37.5693 -21.0781 -40.709 -93.6328 -56.0352 -108.206c-6.1416 -5.83887 -23.8867 -3.06543 -24.6943 3.17871c-0.328125 0.273438 -0.640625 0.55957 -0.884766 0.894531z" />
    <glyph glyph-name="i" unicode="&#xed;" horiz-adv-x="227" 
d="M242.2 168.457c3.0918 8.02637 23.1035 6.97754 20.3789 -2.92188c-13.3223 -48.3916 -40.3555 -97.4902 -78.4844 -130.845c-32.5596 -28.4805 -73.4453 -35.4033 -113.752 -19.0859c-47.7539 19.3311 -73.5869 64.3633 -82.3828 113.314
c-9.52246 53.0049 -9.59961 108.104 -8.46094 161.777c1.15137 54.208 5.48438 108.277 12.665 162.012c2.63477 19.7109 22.5996 27.9658 40.8115 28.6025c13.1064 0.457031 45.3965 -6.38281 42.707 -25.6855c-8.20703 -58.9014 -12.9717 -118.221 -13.9238 -177.691
c-0.926758 -57.7402 -0.65332 -116.298 8.47656 -173.401c3.52246 -22.043 11.2656 -47.6279 24.1562 -66.2061c16.2305 -23.3945 41.4619 -14.8398 61.4912 -0.504883c42.5107 30.4238 68.0508 83.1904 86.3174 130.636zM15.2148 535.071
c-11.4395 15.5703 -20.0684 31.8545 -24.5977 50.7422c-2.98535 12.4404 -7.19043 35.0215 5.96094 43.5176c16.6162 10.7324 28.4072 -5.4043 36.4307 -25.5176c3.22949 7.05469 7.22852 13.7334 12.0928 19.8008c11.71 14.5986 33.4834 25.8262 51.7275 15.5898
c37.5693 -21.0781 -40.709 -93.6328 -56.0352 -108.206c-6.1416 -5.83887 -23.8867 -3.06543 -24.6943 3.17871c-0.328125 0.273438 -0.640625 0.55957 -0.884766 0.894531z" />
    <glyph glyph-name="j" unicode="j" horiz-adv-x="189" 
d="M11.5625 533.907c-12.9258 15.7246 -22.7295 32.6709 -28.1055 52.4209c-3.05957 11.2402 -7.21289 31.2637 3.66406 39.9365c15.9277 12.7012 29.0176 -3.5293 38.4277 -23.6201c2.9248 7.55664 6.68555 14.7725 11.4111 21.3965
c11.0117 15.4326 32.3311 26.9688 50.9512 17.3564c37.9131 -19.5693 -35.9219 -95.7598 -50.5469 -111.282c-5.77832 -6.12891 -23.0156 -3.74219 -24.4922 2.5918c-0.489258 0.350586 -0.936523 0.746094 -1.30957 1.2002zM35.2871 441.814
c17.2334 1.10645 50.6123 -7.50586 50.0332 -30.0928c-2.57324 -98.6035 -1.27051 -197.294 -2.04297 -295.917c-0.817383 -104.185 -0.541016 -208.527 -5.0293 -312.632c-1.74023 -40.3193 -3.3584 -80.7324 -7.56934 -120.882
c-3.03711 -28.9219 -6.23145 -58.377 -15.7666 -86.0049c-22.4648 -65.0908 -87.2441 -118.362 -156.575 -85.0625c-43.2568 20.7793 -67.4463 67.4521 -75.6338 112.794c-16.4355 90.998 -13.7754 185.235 -16.6992 277.33
c-0.375977 11.7969 26.3389 12.6719 26.7246 0.932617c1.49609 -45.4443 2.0625 -90.9053 4.13477 -136.337c2.33887 -51.3125 3.83203 -104.693 15.7129 -154.89c9.58984 -40.5283 56.7168 -116.168 103.645 -76.4561c30.501 25.8105 36.7197 72.5029 38.0098 110.629
c2.54102 75.0771 -2.42578 150.392 -3.81543 225.437c-1.85645 100.125 -5.4502 200.218 -6.49219 300.353c-0.823242 79.0117 -3.25488 158.486 3.55859 237.292c2.0332 23.543 27.3672 32.1973 47.8057 33.5068z" />
    <glyph glyph-name="k" unicode="k" horiz-adv-x="342" 
d="M356.408 156.728c3.3877 8.2998 24.5791 6.49023 20.8477 -2.99023c-26.1484 -66.3066 -62.8584 -167.854 -150.17 -162.336c-42.6387 2.69238 -87.4238 11.2178 -110.731 50.9521c-20.2129 34.4551 -27.5957 77.9277 -30.9863 118.363
c-10.6162 -38.1572 -19.6113 -76.8135 -28.207 -115.077c-1.56055 -16.082 -4.07031 -32.0391 -8.62891 -47.9219c-5.94238 -20.7119 -51.4668 -18.9072 -54.5391 2.88184c-5.4082 38.3379 -5.83594 76.1191 -6.92969 114.869
c-3.57422 126.515 -3.45801 253.656 -2.43848 380.21c0.932617 115.856 -0.907227 233.701 11.9316 349.004c2.1748 19.5117 22.7031 27.6602 40.3457 28.2744c13.9395 0.485352 43.5459 -6.11621 42.2168 -25.3926c-4.04102 -58.5664 -6.46973 -117.271 -8.13281 -175.951
c-3.83203 -135.165 -5.27051 -270.446 -7.2041 -405.65c-0.585938 -41.0342 -0.933594 -82.0684 -2.03711 -123.086c7.4541 28.7988 15.5479 57.415 24.6875 85.6514c17.2373 53.249 39.1943 109.516 74.8359 153.448c27.9277 34.4229 79.2109 54.4688 112.401 14.6963
c14.876 -17.8262 23.9932 -46.207 25.0322 -69.1416c1.22852 -27.123 -8.22363 -51.0996 -24.0068 -72.7471c-25.8008 -35.3877 -67.1143 -63.7529 -110.197 -77.1709c2.26758 -36.0537 5.76465 -71.3711 14.708 -106.553
c6.69434 -26.3252 15.8369 -59.5869 46.9492 -63.2256c39.3867 -4.60352 64.4766 23.6201 84.2998 53.8184c19.3672 29.501 32.667 62.5371 45.9531 95.0742zM113.166 222.74c39.5986 11.3271 74.9414 33.1768 104.172 65.9971
c15.2783 17.1562 32.876 35.0752 41.7998 56.5488c5.30469 12.7686 6.7334 23.0889 -0.164062 35.4619c-5.06348 9.08203 -12.9609 17.7617 -22.8857 21.4971c-25.9873 9.77637 -49.8613 -18.2734 -63.3027 -36.9746c-14.1846 -19.7363 -25.9658 -41.2588 -36.376 -63.1865
c-12.749 -26.8496 -23.623 -54.668 -33.2031 -83.043c3.41309 1.56348 6.85547 2.81152 9.95996 3.69922z" />
    <glyph glyph-name="l" unicode="l" horiz-adv-x="242" 
d="M255.795 160.105c3.95703 8.62793 26.5078 6.75488 22.2256 -3.18262c-16.6387 -38.6406 -30.749 -80.6299 -53.7354 -116.072c-17.7031 -27.2969 -48.751 -53.0273 -82.7363 -54.1055c-33.2646 -1.05859 -65.4609 16.249 -87.8457 39.9912
c-25.8975 27.4639 -38.2354 62.3535 -46.1104 98.5684c-16.9053 77.7441 -25.6914 156.784 -29.8193 236.156c-4.20508 80.874 -3.0498 161.664 -0.373047 242.57c2.67969 80.9482 2.99805 163.37 14.8789 243.607c3.47461 23.4844 26.168 32.1191 47.8057 33.5059
c18.8037 1.20312 48.5039 -7.49219 50.0283 -30.0889c5.4502 -80.7617 -3.46777 -162.627 -7.00684 -243.334c-6.29297 -143.437 -9.08887 -287.867 3.46777 -431.056c2.7666 -31.5596 5.05762 -64.4248 12.6211 -95.2666
c5.94531 -24.2402 16.1182 -55.2461 41.5205 -65.6689c32.6855 -13.4121 58.2197 26.2314 71.249 50.4209c16.3398 30.3369 29.4756 62.6455 43.8301 93.9541z" />
    <glyph glyph-name="m" unicode="m" horiz-adv-x="766" 
d="M782.008 177.764c3.25879 7.56348 22.6357 5.65234 18.9814 -2.74121c-17.79 -40.8242 -38.6299 -80.3398 -62.3047 -118.066c-19.6631 -31.3311 -43.0283 -66.7061 -79.9922 -78.9209c-16.2812 -5.37891 -32.9365 -4.20117 -48.9961 1.40625
c-15.0947 5.27246 -31.6436 13.1445 -44.2383 23.0078c-36.6719 28.7256 -46.0146 77.3193 -44.7568 121.563c1.29004 45.3965 7.56934 90.5576 13.4248 135.542c2.94336 22.6133 4.6582 45.332 7.55957 67.9131c1.24219 9.65137 1.84375 19.2676 2.39746 28.9639
c0.549805 9.61914 3.12695 19.6689 2.05273 29.3262c-0.952148 8.56055 -5.91602 21.4551 -14.1934 25.7275c-11.5303 5.95117 -25.0352 -4.49121 -32.9141 -11.8711c-13.0127 -12.1924 -23.6162 -27.3516 -33.3252 -42.2236
c-22.9961 -35.2266 -39.4736 -74.6289 -53.9248 -113.996c-23.6553 -64.4414 -37.8877 -132.373 -55.7168 -198.657c-0.507812 -4.08203 -1.07422 -8.14844 -1.74316 -12.1855c-3.85059 -23.2207 -25.5723 -31.7812 -47.3389 -33.1777
c-16.542 -1.06152 -50.833 7.47949 -49.54 29.793c2.09082 36.0732 7.68848 71.9727 9.89258 108.104c2.06543 33.9043 4.24707 67.8125 5.67871 101.753c1.26758 30.1025 2.99219 60.1143 3.72852 90.2422c0.53125 21.7217 4.55859 56.9678 -10.7832 74.7197
c-23.166 26.8018 -57.9814 -8.75977 -72.2363 -27.2607c-17.3203 -22.4805 -31.3564 -47.3037 -43.3398 -72.9756c-42.2627 -90.5352 -65.0684 -191.339 -88.0322 -288.118c-0.134766 -0.572266 -0.356445 -1.09375 -0.645508 -1.5791
c-0.572266 -3.45508 -1.23828 -6.90332 -2.08398 -10.3359c-5.22754 -21.1719 -48.71 -19.3154 -57.0645 -1.99121c-15.3359 31.8076 -15.4424 70.001 -18.0449 104.703c-2.5 33.2998 -3.21387 66.8213 -3.45801 100.208c-0.501953 68.9453 2.80859 137.855 9.6123 206.463
c1.82422 18.3955 21.5771 26.0684 38.0127 26.6406c12.6719 0.44043 41.6572 -5.84277 39.7783 -23.9258c-7.12891 -68.6006 -10.7705 -137.523 -10.5938 -206.497c0.0898438 -34.4971 1.5791 -68.9033 2.88184 -103.364
c0.0742188 -1.93359 0.164062 -3.87012 0.263672 -5.80957c9.94727 38.6143 20.6572 77.0361 32.6377 115.043c16.7705 53.2012 36.999 105.871 68.3105 152.387c14.9434 22.1982 32.6436 45.2803 58.377 55.3662c23.0859 9.0498 49.0186 6.39551 68.9805 -8.6123
c49.9414 -37.5498 63.2959 -111.156 66.7988 -169.392c2.03613 -33.8633 3.84082 -67.7588 3.69922 -101.689c11.4492 43.7969 23.9092 87.292 40.6602 129.32c14.6699 36.8066 31.8975 72.957 55.1729 105.176c19.0869 26.4219 43.582 54.0117 79.4043 49.7295
c35.8477 -4.28516 70.0068 -33.1934 80.5781 -67.709c13.1357 -42.8838 13.8496 -86.292 11.292 -130.732c-2.54102 -44.1348 -4.38086 -88.1025 -6.02441 -132.234c-0.855469 -22.9824 -2.86328 -45.833 -3.18164 -68.8379
c-0.234375 -16.8477 -2.1582 -34.8955 19.5342 -37.4629c38.541 -4.56152 69.8242 49.9453 87.2539 76.959c22.4717 34.8281 41.124 72.2783 57.5088 110.311z" />
    <glyph glyph-name="n" unicode="n" horiz-adv-x="481" 
d="M497.162 177.764c3.25879 7.56348 22.6367 5.66699 18.9854 -2.71387c-18.501 -42.4658 -40.252 -83.6416 -65.252 -122.655c-20.2031 -31.5303 -45.2607 -67.5713 -84.2676 -76.3154c-17.1699 -3.85059 -35.1982 -0.604492 -51.0967 6.38281
c-18.5332 8.14844 -35.6162 15.2393 -49.2949 31.1055c-31.7812 36.8643 -32.1123 89.3896 -29.1973 135.072c2.89551 45.4219 10.2627 90.4033 15.1943 135.619c2.58691 23.7256 5.86523 48.2783 6.18652 72.1621c0.208984 15.5547 5.55273 39.1484 -6.67871 52.0488
c-29.0215 30.6172 -83.1582 -70.6084 -91.915 -87.8936c-16.4844 -32.5273 -30.2246 -66.8887 -41.1885 -101.672c-22.3398 -70.8721 -37.7783 -143.739 -58.9727 -214.952c-0.015625 -0.0742188 -0.0283203 -0.148438 -0.0478516 -0.222656
c-0.0546875 -0.21582 -0.134766 -0.412109 -0.196289 -0.624023c-0.0800781 -0.280273 -0.157227 -0.560547 -0.241211 -0.84082c-0.0126953 -0.0478516 -0.0449219 -0.0869141 -0.0605469 -0.134766c-6.9873 -19.46 -48.4297 -17.2695 -56.5654 -0.395508
c-15.3359 31.8076 -15.4424 70.001 -18.0449 104.703c-2.5 33.2998 -3.21387 66.8213 -3.45801 100.208c-0.504883 68.9453 2.80859 137.855 9.6123 206.463c1.82422 18.3955 21.5771 26.0684 38.0127 26.6406c12.6719 0.44043 41.6572 -5.84277 39.7783 -23.9258
c-7.12891 -68.6006 -10.7705 -137.523 -10.5938 -206.497c0.0898438 -34.4971 1.5791 -68.9033 2.88184 -103.364c0.179688 -4.76465 0.453125 -9.54199 0.758789 -14.3262c12.5693 49.8867 24.8389 99.8926 41.8027 148.354
c13.6279 38.9268 29.8516 77.4863 51.1582 112.871c17.1279 28.4482 40.6572 66.8252 75.958 73.9736c33.6123 6.80371 69.4893 -15.5518 88.7793 -41.3145c13.5508 -18.0996 19.0742 -45.2168 21.9668 -67.4111c2.87598 -22.0625 3.01758 -45.3506 2.10742 -67.5449
c-1.93945 -47.2041 -7.10938 -94.1924 -7.02246 -141.468c0.0351562 -21.6797 -2.01367 -43.2627 -2.34473 -64.9297c-0.203125 -13.3408 -3.8252 -40.1387 8.00098 -49.4424c19.6562 -15.4678 47.6094 8.75684 60.542 22.5
c12.9678 13.7822 23.8604 29.8223 34.2285 45.5957c23.7773 36.166 43.376 75.2314 60.4844 114.943z" />
    <glyph glyph-name="o" unicode="o" horiz-adv-x="330" 
d="M349.274 180.348c7.04883 5.10254 25.4082 -1.56152 15.1875 -9.12793c-37.9355 -28.085 -82.5117 -46.0234 -129.005 -53.0723c-16.0078 -46.9697 -45.6631 -96.9277 -92.0889 -118.843c-50.3018 -23.7451 -103.371 -10.623 -135.731 34.9277
c-35.0791 49.3789 -34.2168 111.874 -31.4375 169.839c0.643555 13.4443 12.0195 21.2812 24.3027 24.8906c-20.6182 62.6816 -6.15723 139.042 42.9287 182.92c35.9639 32.1445 89.3027 44.874 130.774 15.5693c43.3662 -30.6426 60.04 -87.6455 69.9033 -137.166
c10.2627 -51.5244 10.2695 -105.397 -3.75684 -156.128c39.3574 7.20605 77.2188 23.2461 108.923 46.1904zM169.25 46.4551c17.1338 20.8691 29.9141 44.1494 38.9121 68.8145c-0.608398 -0.0351562 -1.2168 -0.0966797 -1.8252 -0.128906
c-52.4258 -2.7666 -111.362 7.44141 -154.156 39.8564c-1.16797 -34.291 0.990234 -68.7812 11.2949 -101.402c6.34375 -20.0713 18.1758 -40.6025 41.0781 -43.2021c26.5928 -3.01758 49.0127 16.96 64.6963 36.0625zM213.21 130.619
c17.7617 59.9209 14.7744 126.54 -1.5166 186.297c-10.6064 38.9141 -29.5742 93.0156 -72.2422 106.907c-41.1436 13.3926 -81.9844 -27.7412 -97.7773 -61.7646c-15.8027 -34.0459 -19.2129 -75.4492 -14.5771 -112.397
c0.868164 -6.94238 2.3291 -13.6631 4.22754 -20.1875c12.6719 -3.06934 25.8232 -10.0635 24.5781 -22.6201c-0.688477 -6.94238 -1.3291 -13.9395 -1.89844 -20.9688c12.1152 -15.0303 27.7344 -27.3516 46.1484 -35.9512
c35.2559 -16.4678 74.3662 -22.2842 113.058 -19.3145z" />
    <glyph glyph-name="o" unicode="&#xf6;" horiz-adv-x="330" 
d="M349.274 180.348c7.04883 5.10254 25.4082 -1.56152 15.1875 -9.12793c-37.9355 -28.085 -82.5117 -46.0234 -129.005 -53.0723c-16.0078 -46.9697 -45.6631 -96.9277 -92.0889 -118.843c-50.3018 -23.7451 -103.371 -10.623 -135.731 34.9277
c-35.0791 49.3789 -34.2168 111.874 -31.4375 169.839c0.643555 13.4443 12.0195 21.2812 24.3027 24.8906c-20.6182 62.6816 -6.15723 139.042 42.9287 182.92c35.9639 32.1445 89.3027 44.874 130.774 15.5693c43.3662 -30.6426 60.04 -87.6455 69.9033 -137.166
c10.2627 -51.5244 10.2695 -105.397 -3.75684 -156.128c39.3574 7.20605 77.2188 23.2461 108.923 46.1904zM169.25 46.4551c17.1338 20.8691 29.9141 44.1494 38.9121 68.8145c-0.608398 -0.0351562 -1.2168 -0.0966797 -1.8252 -0.128906
c-52.4258 -2.7666 -111.362 7.44141 -154.156 39.8564c-1.16797 -34.291 0.990234 -68.7812 11.2949 -101.402c6.34375 -20.0713 18.1758 -40.6025 41.0781 -43.2021c26.5928 -3.01758 49.0127 16.96 64.6963 36.0625zM213.21 130.619
c17.7617 59.9209 14.7744 126.54 -1.5166 186.297c-10.6064 38.9141 -29.5742 93.0156 -72.2422 106.907c-41.1436 13.3926 -81.9844 -27.7412 -97.7773 -61.7646c-15.8027 -34.0459 -19.2129 -75.4492 -14.5771 -112.397
c0.868164 -6.94238 2.3291 -13.6631 4.22754 -20.1875c12.6719 -3.06934 25.8232 -10.0635 24.5781 -22.6201c-0.688477 -6.94238 -1.3291 -13.9395 -1.89844 -20.9688c12.1152 -15.0303 27.7344 -27.3516 46.1484 -35.9512
c35.2559 -16.4678 74.3662 -22.2842 113.058 -19.3145z" />
    <glyph glyph-name="o" unicode="&#xf5;" horiz-adv-x="330" 
d="M349.274 180.348c7.04883 5.10254 25.4082 -1.56152 15.1875 -9.12793c-37.9355 -28.085 -82.5117 -46.0234 -129.005 -53.0723c-16.0078 -46.9697 -45.6631 -96.9277 -92.0889 -118.843c-50.3018 -23.7451 -103.371 -10.623 -135.731 34.9277
c-35.0791 49.3789 -34.2168 111.874 -31.4375 169.839c0.643555 13.4443 12.0195 21.2812 24.3027 24.8906c-20.6182 62.6816 -6.15723 139.042 42.9287 182.92c35.9639 32.1445 89.3027 44.874 130.774 15.5693c43.3662 -30.6426 60.04 -87.6455 69.9033 -137.166
c10.2627 -51.5244 10.2695 -105.397 -3.75684 -156.128c39.3574 7.20605 77.2188 23.2461 108.923 46.1904zM169.25 46.4551c17.1338 20.8691 29.9141 44.1494 38.9121 68.8145c-0.608398 -0.0351562 -1.2168 -0.0966797 -1.8252 -0.128906
c-52.4258 -2.7666 -111.362 7.44141 -154.156 39.8564c-1.16797 -34.291 0.990234 -68.7812 11.2949 -101.402c6.34375 -20.0713 18.1758 -40.6025 41.0781 -43.2021c26.5928 -3.01758 49.0127 16.96 64.6963 36.0625zM213.21 130.619
c17.7617 59.9209 14.7744 126.54 -1.5166 186.297c-10.6064 38.9141 -29.5742 93.0156 -72.2422 106.907c-41.1436 13.3926 -81.9844 -27.7412 -97.7773 -61.7646c-15.8027 -34.0459 -19.2129 -75.4492 -14.5771 -112.397
c0.868164 -6.94238 2.3291 -13.6631 4.22754 -20.1875c12.6719 -3.06934 25.8232 -10.0635 24.5781 -22.6201c-0.688477 -6.94238 -1.3291 -13.9395 -1.89844 -20.9688c12.1152 -15.0303 27.7344 -27.3516 46.1484 -35.9512
c35.2559 -16.4678 74.3662 -22.2842 113.058 -19.3145z" />
    <glyph glyph-name="o" unicode="&#xf4;" horiz-adv-x="330" 
d="M349.274 180.348c7.04883 5.10254 25.4082 -1.56152 15.1875 -9.12793c-37.9355 -28.085 -82.5117 -46.0234 -129.005 -53.0723c-16.0078 -46.9697 -45.6631 -96.9277 -92.0889 -118.843c-50.3018 -23.7451 -103.371 -10.623 -135.731 34.9277
c-35.0791 49.3789 -34.2168 111.874 -31.4375 169.839c0.643555 13.4443 12.0195 21.2812 24.3027 24.8906c-20.6182 62.6816 -6.15723 139.042 42.9287 182.92c35.9639 32.1445 89.3027 44.874 130.774 15.5693c43.3662 -30.6426 60.04 -87.6455 69.9033 -137.166
c10.2627 -51.5244 10.2695 -105.397 -3.75684 -156.128c39.3574 7.20605 77.2188 23.2461 108.923 46.1904zM169.25 46.4551c17.1338 20.8691 29.9141 44.1494 38.9121 68.8145c-0.608398 -0.0351562 -1.2168 -0.0966797 -1.8252 -0.128906
c-52.4258 -2.7666 -111.362 7.44141 -154.156 39.8564c-1.16797 -34.291 0.990234 -68.7812 11.2949 -101.402c6.34375 -20.0713 18.1758 -40.6025 41.0781 -43.2021c26.5928 -3.01758 49.0127 16.96 64.6963 36.0625zM213.21 130.619
c17.7617 59.9209 14.7744 126.54 -1.5166 186.297c-10.6064 38.9141 -29.5742 93.0156 -72.2422 106.907c-41.1436 13.3926 -81.9844 -27.7412 -97.7773 -61.7646c-15.8027 -34.0459 -19.2129 -75.4492 -14.5771 -112.397
c0.868164 -6.94238 2.3291 -13.6631 4.22754 -20.1875c12.6719 -3.06934 25.8232 -10.0635 24.5781 -22.6201c-0.688477 -6.94238 -1.3291 -13.9395 -1.89844 -20.9688c12.1152 -15.0303 27.7344 -27.3516 46.1484 -35.9512
c35.2559 -16.4678 74.3662 -22.2842 113.058 -19.3145z" />
    <glyph glyph-name="o" unicode="&#xf3;" horiz-adv-x="330" 
d="M349.274 180.348c7.04883 5.10254 25.4082 -1.56152 15.1875 -9.12793c-37.9355 -28.085 -82.5117 -46.0234 -129.005 -53.0723c-16.0078 -46.9697 -45.6631 -96.9277 -92.0889 -118.843c-50.3018 -23.7451 -103.371 -10.623 -135.731 34.9277
c-35.0791 49.3789 -34.2168 111.874 -31.4375 169.839c0.643555 13.4443 12.0195 21.2812 24.3027 24.8906c-20.6182 62.6816 -6.15723 139.042 42.9287 182.92c35.9639 32.1445 89.3027 44.874 130.774 15.5693c43.3662 -30.6426 60.04 -87.6455 69.9033 -137.166
c10.2627 -51.5244 10.2695 -105.397 -3.75684 -156.128c39.3574 7.20605 77.2188 23.2461 108.923 46.1904zM169.25 46.4551c17.1338 20.8691 29.9141 44.1494 38.9121 68.8145c-0.608398 -0.0351562 -1.2168 -0.0966797 -1.8252 -0.128906
c-52.4258 -2.7666 -111.362 7.44141 -154.156 39.8564c-1.16797 -34.291 0.990234 -68.7812 11.2949 -101.402c6.34375 -20.0713 18.1758 -40.6025 41.0781 -43.2021c26.5928 -3.01758 49.0127 16.96 64.6963 36.0625zM213.21 130.619
c17.7617 59.9209 14.7744 126.54 -1.5166 186.297c-10.6064 38.9141 -29.5742 93.0156 -72.2422 106.907c-41.1436 13.3926 -81.9844 -27.7412 -97.7773 -61.7646c-15.8027 -34.0459 -19.2129 -75.4492 -14.5771 -112.397
c0.868164 -6.94238 2.3291 -13.6631 4.22754 -20.1875c12.6719 -3.06934 25.8232 -10.0635 24.5781 -22.6201c-0.688477 -6.94238 -1.3291 -13.9395 -1.89844 -20.9688c12.1152 -15.0303 27.7344 -27.3516 46.1484 -35.9512
c35.2559 -16.4678 74.3662 -22.2842 113.058 -19.3145z" />
    <glyph glyph-name="p" unicode="p" horiz-adv-x="419" 
d="M436.073 147.108c6.3252 6.09277 27.3672 1.35156 19.209 -6.54004c-31.502 -30.4688 -66.4141 -50.9453 -111.44 -47.7539c-5.36914 0.379883 -10.7324 1.04297 -16.0762 1.86621c-14.9785 -46.3838 -40.96 -88.1895 -86.2275 -112.147
c-25.3477 -13.4121 -57.3252 -24.6494 -85.999 -17.1504c-24.6689 6.4502 -41.6836 25.498 -50.9873 48.5869c-16.127 40.0234 -5.7168 95.4502 31.6465 120.261c35.8223 23.7842 75.293 14.4092 112.958 0.977539c4.31445 19.4404 7.38672 39.0771 9.3457 58.3955
c2.74707 27.0908 3.0459 54.8027 1.87207 81.9971c-1.10059 25.4375 -2.62207 52.4707 -8.41602 77.3291c-4.88379 20.9531 -16.375 42.9834 -34.2461 55.791c-23.6104 16.915 -48.3115 -8.68652 -60.6074 -27.5967c-21.7314 -33.4219 -36.6006 -71.5342 -49.1895 -109.181
c-25.5986 -76.5439 -42.3213 -157.396 -47.9512 -238.202c-0.862305 -36.4883 -1.27441 -72.9541 -0.820312 -109.343c0.713867 -57.2256 2.18359 -114.457 3.89844 -171.66c1.69531 -56.4951 4.72266 -112.141 0.360352 -168.578
c-1.83984 -23.8125 -47.7568 -24.2246 -52.4951 -1.83398c-13.5117 63.8555 -15.9082 128.332 -18.9902 193.381c-2.65723 56.1094 -3.85352 112.289 -4.53223 168.453c-0.675781 56.1279 -4.05371 112.211 -4.33008 168.353
c-0.5625 113.125 3.20801 227.215 13.5127 339.86c1.78516 19.5273 23.0244 27.6699 40.3447 28.2744c14.2871 0.499023 43.0771 -6.07031 42.2178 -25.3916c-2.87598 -64.5791 -6.96191 -129.081 -9.93164 -193.66c-0.952148 -20.6982 -1.93652 -41.4355 -2.91113 -62.1826
c11.623 49.2988 26.6338 98.2275 47.9531 144.122c18.2598 39.3096 41.625 82.4502 89.8906 85.9951c26.8018 1.96875 53.6934 -4.45605 74.0059 -22.7256c21.583 -19.4121 35.3975 -47.2402 46.0781 -73.7617c24.582 -61.0371 26.5283 -129.436 14.6992 -193.545
c-1.9043 -10.3203 -4.20801 -20.6182 -6.97461 -30.7676c12.9297 -2.18457 26.043 -2.84766 38.667 -0.766602c25.9453 4.27832 47.0684 21.4189 65.4668 39.1445zM217.794 44.6035c11.8809 23.6973 21.002 49.3477 27.7607 75.6123
c-20.6055 8.07129 -41.8379 15.1484 -64.0127 13.543c-50.8906 -3.68359 -70.3574 -63.0322 -55.3887 -105.543c4.2627 -12.1025 11.4688 -24.7324 23.1816 -31.0254c9.05566 -4.86719 19.7393 -1.87891 28.7891 2.05859c17.9932 7.83008 31.2021 28.4678 39.6699 45.3545z
" />
    <glyph glyph-name="q" unicode="q" horiz-adv-x="488" 
d="M348.572 -4.83984c-5.78711 -5.80371 -16.5752 -13.7646 -20.3936 -21.0928c-0.626953 -0.678711 -1.25391 -1.35742 -1.88086 -2.0332c0.0292969 -2.38086 0.0449219 -4.76465 0.0839844 -7.14551c1.33789 -2.15527 3.38672 -3.64844 6.18555 -4.44336
c3.46777 -2.21973 8.28711 -3.66113 12.0771 -5.12207c16.9736 -6.53711 34.2686 -11.417 50.4629 -19.8936c29.6875 -15.5381 55.0156 -38.9229 74.3115 -66.1807c37.7236 -53.2842 54.6426 -126.289 45.04 -190.93c-3.90918 -26.3057 -13.7373 -52.457 -35.2432 -69.3691
c-21.3516 -16.79 -46.4707 -17.9189 -72.3389 -15.8379c-103.319 8.31934 -147.814 128.921 -164.962 216.12c-20.3545 103.496 -18.8203 210.779 -14.1592 315.861c-8.46387 -27.5127 -19.2666 -54.3496 -34.7246 -77.4229
c-45.1709 -67.4199 -152.129 -68.3174 -193.211 4.41406c-22.6221 40.0498 -26.8525 93.2471 -25.624 138.431c1.29688 47.7539 10.3818 97.5225 27.1846 142.298c14.918 39.75 38.5762 78.2002 76.2871 99.7607c33.3066 19.0449 80.3691 23.2236 114.538 3.68359
c24.7422 -14.1523 42.1113 -41.707 53.2969 -70.7568c2.7832 31.2471 6.19336 62.4492 12.3672 93.1211c4.06934 20.2061 37.1182 25.6074 53.1357 24.7705c16.4941 -0.862305 43.2246 -9.0625 43.7168 -29.8926c1.22266 -51.8496 -7.26074 -104.291 -11.8193 -155.899
c-5.2373 -59.3037 -9.95703 -118.704 -13.2705 -178.146c-2.2002 -39.4863 -3.41602 -78.8955 -3.50293 -118.266c9.5127 9.57422 19.1797 18.9941 28.9697 28.2822c49.6719 47.124 101.235 92.2109 149.24 141.088c5.91895 6.02832 27.0488 2.4541 19.2061 -6.54102
c-53.3135 -61.1211 -117.79 -111.514 -174.974 -168.858zM199.533 114.36c22.3945 62.46 39.752 128.902 34.4824 195.261c-0.485352 0.618164 -0.887695 1.28418 -1.09961 2.05273c-10.2207 37.1865 -34.2422 88.0195 -75.0605 94.6113
c-2.16211 0.350586 -5.72363 0.21582 -8.55762 -0.507812c-3.73535 -0.952148 -5.51758 -1.50195 -10.958 -4.6582c-11.9287 -6.91992 -20.4121 -17.498 -28.5576 -28.3457c-20.2676 -26.9883 -31.8457 -58.9824 -40.1426 -91.4648
c-9.58984 -37.5557 -13.9199 -76.2734 -13.5078 -115.026c0.382812 -36.2305 3.97656 -75.6045 20.1846 -108.521c12.9648 -26.3281 34.9209 -51.2764 65.5889 -32.1055c30.8838 19.3057 45.8691 55.9131 57.6279 88.7051zM370.722 -72.6963
c-14.2354 6.49512 -29.4531 10.4102 -43.9141 16.3389c1.21582 -45.6602 4.05371 -91.291 8.74414 -136.944c4.21777 -41.0625 9.59375 -80.1816 23.5498 -119.005c13.0547 -36.3115 36.3145 -94.6885 86.3018 -77.2168c60.002 20.9717 50.3506 116.632 39.8691 164.193
c-14.1006 63.9941 -53.5742 124.822 -114.551 152.634z" />
    <glyph glyph-name="r" unicode="r" horiz-adv-x="302" 
d="M315.723 163.03c0.939453 8.86914 20.7646 9.27344 20.0508 0.700195c-3.45215 -41.1846 -13.9561 -86.5713 -32.6504 -123.651c-16.2588 -32.2451 -42.8154 -49.7617 -78.8076 -50.7363c-20.7949 -0.5625 -39.4639 4.67773 -54.832 19.2129
c-14.8789 14.0713 -26.0488 33.9014 -33.1875 52.9365c-12.6494 33.7344 -13.2383 70.1133 -11.2627 105.797c-11.1533 -8.1582 -24.459 -13.1416 -38.8682 -14.3291c-25.833 -2.12988 -47.8154 9.51562 -68.1855 24.2373c-24.167 17.4619 -39.2354 39.959 -45.0225 69.1377
c-6.33789 31.9551 -1.33203 64.3223 4.30762 96.0068c5.1084 28.7061 13.1963 58.1582 31.4404 81.4277c18.3633 23.4268 48.8389 40.1494 79.292 35.3525c60.6221 -9.55176 48.5996 -102.612 43.1465 -145.181c-6.71387 -52.4121 -27.9756 -104.001 -70.7559 -136.95
c-0.43457 -0.334961 -0.911133 -0.618164 -1.41016 -0.875977c2.14258 -1.7373 4.61621 -3.2334 7.50488 -4.4209c22.2686 -9.15625 45.5244 2.37695 60.1523 19.4277c0.015625 0.225586 0.03125 0.447266 0.046875 0.672852
c1.53125 20.3291 24.2305 28.7998 41.9756 29.4209c13.7627 0.482422 46.3096 -6.49902 43.9258 -26.4189c-3.94727 -32.9912 -7.62402 -66.8125 -6.21777 -100.083c1.11035 -26.2803 2.41992 -62.2959 20.0459 -83.709c10.1592 -12.334 31.2119 3.27246 39.541 11.7881
c11.25 11.5039 18.4141 26.3506 24.1465 41.2002c12.2314 31.6787 22.0371 65.2227 25.624 99.0371zM48.4277 192.989c39.7725 32.7432 58.2246 84.9414 63.417 135.054c2.81836 27.1807 4.59766 67.2334 -10.127 91.3291
c0.598633 -0.977539 -8.52539 12.1963 -9.2334 12.1572c-2.29688 -0.131836 -7.03906 -9.20117 -8.22949 -11.1602c-6.06055 -9.98242 -9.92773 -21.0557 -14.1357 -31.875c-19.627 -50.4697 -28.9238 -105.588 -25.5459 -159.496
c0.708008 -11.3076 0.479492 -24.6973 3.85449 -36.0088z" />
    <glyph glyph-name="s" unicode="s" horiz-adv-x="291" 
d="M327.303 171.919c-29.4102 -30.8838 -82.2979 -33.501 -121.697 -41.2412c-1.09668 -0.21582 -2.1709 -0.476562 -3.25195 -0.727539c9.5127 -30.2305 9.24902 -59.8145 -0.595703 -92.458c-5.54297 -18.3857 -10.8477 -33.2197 -25.6885 -46.3389
c-13.4443 -11.8838 -30.1406 -19.1318 -47.918 -21.29c-33.5898 -4.0791 -69.9102 10.2822 -88.6143 39.1523c-21.3809 33.0068 -7.37988 69.1602 21.7705 91.6729c15.9629 12.3242 35.6221 23.0791 56.1982 30.8867c-42.0508 48.5137 -88.3828 93.7461 -122.754 148.037
c-22.6416 35.7607 -36.2949 79.4229 -18.791 120.142c16.5586 38.5215 51.4287 60.2822 91.5166 68.3027c35.1396 7.0293 73.8701 1.41211 101.83 -22.4492c26.5469 -22.6582 37.5811 -57.377 31.1924 -91.2686c-1.46387 -7.77539 -22.1562 -7.36328 -21.1553 1.12012
c5.66211 47.9502 -30.4238 97.6475 -81.6689 94.6045c-22.0303 -1.30957 -36.9023 -12.9971 -46.7373 -32.2803c-10.6162 -20.8145 -3.08203 -40.6348 5.14355 -60.6992c31.1221 -75.8906 100.987 -128.776 136.417 -202.345
c1.25781 -2.60938 2.43164 -5.20508 3.54785 -7.79492c15.9082 2.31348 31.6621 5.58496 47.5225 8.625c21.6475 4.15039 47.918 6.98145 64.5273 22.8896c6.08984 5.83301 27.3262 1.98828 19.2061 -6.54004zM172.141 20.541
c10.3916 22.4873 -2.65625 44.4932 -16.0166 62.9268c-7.05469 9.73145 -14.4697 19.1895 -22.0879 28.4932c-0.166992 -0.0390625 -0.333984 -0.0683594 -0.500977 -0.103516c-24.7969 -5.50098 -51.9971 -13.2188 -68.8125 -33.7305
c-33.4482 -40.8057 6.94238 -95.2705 54.7451 -93.5498c22.5967 0.813477 43.2627 15.5996 52.6729 35.9639z" />
    <glyph glyph-name="t" unicode="t" horiz-adv-x="243" 
d="M256.38 160.105c3.95703 8.62793 26.5059 6.75684 22.2207 -3.18066c-16.6416 -38.6406 -30.748 -80.6299 -53.7344 -116.072c-17.7031 -27.2969 -48.751 -53.0273 -82.7363 -54.1055c-33.2646 -1.05859 -65.4609 16.249 -87.8457 39.9912
c-25.8975 27.4639 -38.2354 62.3535 -46.1104 98.5684c-16.9053 77.7441 -25.6914 156.784 -29.8193 236.156c-4.20508 80.874 -3.0498 161.664 -0.373047 242.57c0.318359 9.66699 0.604492 19.3564 0.880859 29.0625
c-19.0391 -0.75293 -38.0645 -1.74414 -57.0713 -2.98242c-14.1836 -0.926758 -14.418 13.8135 -0.520508 14.8877c19.3408 1.49609 38.6855 2.70898 58.0303 3.64551c1.86621 66.458 3.85742 133.453 13.5605 198.991c3.47461 23.4844 26.168 32.1191 47.8057 33.5059
c18.8037 1.20312 48.5039 -7.49219 50.0283 -30.0889c4.48145 -66.3877 -0.743164 -133.521 -4.71289 -200.144c21.625 -0.116211 43.2598 -0.553711 64.9072 -1.39062c15.0625 -0.582031 15.9219 -16.6768 0.563477 -16.1299
c-22.1211 0.788086 -44.2578 1.22266 -66.3975 1.37988c-0.501953 -9.02734 -0.96875 -18.0479 -1.36426 -27.0488c-6.29297 -143.437 -9.08887 -287.867 3.46777 -431.056c2.7666 -31.5596 5.05762 -64.4248 12.6211 -95.2666
c5.94531 -24.2402 16.1182 -55.2461 41.5205 -65.6689c32.6855 -13.4121 58.2197 26.2314 71.249 50.4209c16.3398 30.3369 29.4756 62.6455 43.8301 93.9541z" />
    <glyph glyph-name="u" unicode="u" horiz-adv-x="517" 
d="M532.771 168.457c3.0918 8.02637 23.1035 6.97754 20.3818 -2.91797c-13.3223 -48.3916 -40.3555 -97.4902 -78.4844 -130.845c-32.5596 -28.4805 -73.4453 -35.4033 -113.752 -19.0859c-47.751 19.3311 -73.584 64.3633 -82.3799 113.314
c-7.47949 41.6318 -9.12695 84.5537 -8.9375 127.067c-3.18457 -14.1777 -6.4502 -28.3359 -9.89258 -42.4561c-14.8242 -60.7705 -30.832 -131.533 -72.416 -180.403c-36.8389 -43.292 -105.385 -56.665 -146.354 -11.668
c-47.5068 52.1709 -57.6758 129.474 -61.498 196.945c-4.21094 74.3271 1.22559 149.797 11.0791 223.484c2.48633 18.582 21.3096 26.3672 38.4795 26.9658c12.2539 0.427734 42.9482 -6.04492 40.2686 -24.2178c-10.8096 -73.2686 -14.541 -146.547 -14.8398 -220.54
c-0.128906 -31.8203 2.05859 -63.2158 5.39453 -94.8369c2.97559 -28.249 7.92969 -56.7041 21.3994 -82.0518c5.86816 -11.0479 13.8145 -20.8057 23.1475 -29.1377c12.3828 -11.0566 27.1104 -4.74121 39.7666 3.45898c22.4551 14.5537 37.0352 38.9971 48.166 62.6621
c26.3896 56.0996 40.5127 117.488 54.2041 177.66c14.0977 61.9512 26.0752 124.353 35.7617 187.146c0.161133 1.23535 0.305664 2.4707 0.469727 3.70605c2.63477 19.7109 22.5996 27.9658 40.8115 28.6025c13.1064 0.457031 45.3965 -6.38281 42.707 -25.6855
c-8.20703 -58.9014 -12.9717 -118.221 -13.9238 -177.691c-0.926758 -57.7402 -0.65332 -116.298 8.47656 -173.401c3.52246 -22.043 11.2656 -47.6279 24.1562 -66.2061c16.2305 -23.3945 41.4619 -14.8398 61.4912 -0.504883
c42.5107 30.4238 68.0508 83.1904 86.3174 130.636z" />
    <glyph glyph-name="u" unicode="&#xfc;" horiz-adv-x="517" 
d="M532.771 168.457c3.0918 8.02637 23.1035 6.97754 20.3818 -2.91797c-13.3223 -48.3916 -40.3555 -97.4902 -78.4844 -130.845c-32.5596 -28.4805 -73.4453 -35.4033 -113.752 -19.0859c-47.751 19.3311 -73.584 64.3633 -82.3799 113.314
c-7.47949 41.6318 -9.12695 84.5537 -8.9375 127.067c-3.18457 -14.1777 -6.4502 -28.3359 -9.89258 -42.4561c-14.8242 -60.7705 -30.832 -131.533 -72.416 -180.403c-36.8389 -43.292 -105.385 -56.665 -146.354 -11.668
c-47.5068 52.1709 -57.6758 129.474 -61.498 196.945c-4.21094 74.3271 1.22559 149.797 11.0791 223.484c2.48633 18.582 21.3096 26.3672 38.4795 26.9658c12.2539 0.427734 42.9482 -6.04492 40.2686 -24.2178c-10.8096 -73.2686 -14.541 -146.547 -14.8398 -220.54
c-0.128906 -31.8203 2.05859 -63.2158 5.39453 -94.8369c2.97559 -28.249 7.92969 -56.7041 21.3994 -82.0518c5.86816 -11.0479 13.8145 -20.8057 23.1475 -29.1377c12.3828 -11.0566 27.1104 -4.74121 39.7666 3.45898c22.4551 14.5537 37.0352 38.9971 48.166 62.6621
c26.3896 56.0996 40.5127 117.488 54.2041 177.66c14.0977 61.9512 26.0752 124.353 35.7617 187.146c0.161133 1.23535 0.305664 2.4707 0.469727 3.70605c2.63477 19.7109 22.5996 27.9658 40.8115 28.6025c13.1064 0.457031 45.3965 -6.38281 42.707 -25.6855
c-8.20703 -58.9014 -12.9717 -118.221 -13.9238 -177.691c-0.926758 -57.7402 -0.65332 -116.298 8.47656 -173.401c3.52246 -22.043 11.2656 -47.6279 24.1562 -66.2061c16.2305 -23.3945 41.4619 -14.8398 61.4912 -0.504883
c42.5107 30.4238 68.0508 83.1904 86.3174 130.636z" />
    <glyph glyph-name="u" unicode="&#xfb;" horiz-adv-x="517" 
d="M532.771 168.457c3.0918 8.02637 23.1035 6.97754 20.3818 -2.91797c-13.3223 -48.3916 -40.3555 -97.4902 -78.4844 -130.845c-32.5596 -28.4805 -73.4453 -35.4033 -113.752 -19.0859c-47.751 19.3311 -73.584 64.3633 -82.3799 113.314
c-7.47949 41.6318 -9.12695 84.5537 -8.9375 127.067c-3.18457 -14.1777 -6.4502 -28.3359 -9.89258 -42.4561c-14.8242 -60.7705 -30.832 -131.533 -72.416 -180.403c-36.8389 -43.292 -105.385 -56.665 -146.354 -11.668
c-47.5068 52.1709 -57.6758 129.474 -61.498 196.945c-4.21094 74.3271 1.22559 149.797 11.0791 223.484c2.48633 18.582 21.3096 26.3672 38.4795 26.9658c12.2539 0.427734 42.9482 -6.04492 40.2686 -24.2178c-10.8096 -73.2686 -14.541 -146.547 -14.8398 -220.54
c-0.128906 -31.8203 2.05859 -63.2158 5.39453 -94.8369c2.97559 -28.249 7.92969 -56.7041 21.3994 -82.0518c5.86816 -11.0479 13.8145 -20.8057 23.1475 -29.1377c12.3828 -11.0566 27.1104 -4.74121 39.7666 3.45898c22.4551 14.5537 37.0352 38.9971 48.166 62.6621
c26.3896 56.0996 40.5127 117.488 54.2041 177.66c14.0977 61.9512 26.0752 124.353 35.7617 187.146c0.161133 1.23535 0.305664 2.4707 0.469727 3.70605c2.63477 19.7109 22.5996 27.9658 40.8115 28.6025c13.1064 0.457031 45.3965 -6.38281 42.707 -25.6855
c-8.20703 -58.9014 -12.9717 -118.221 -13.9238 -177.691c-0.926758 -57.7402 -0.65332 -116.298 8.47656 -173.401c3.52246 -22.043 11.2656 -47.6279 24.1562 -66.2061c16.2305 -23.3945 41.4619 -14.8398 61.4912 -0.504883
c42.5107 30.4238 68.0508 83.1904 86.3174 130.636z" />
    <glyph glyph-name="u" unicode="&#xfa;" horiz-adv-x="517" 
d="M532.771 168.457c3.0918 8.02637 23.1035 6.97754 20.3818 -2.91797c-13.3223 -48.3916 -40.3555 -97.4902 -78.4844 -130.845c-32.5596 -28.4805 -73.4453 -35.4033 -113.752 -19.0859c-47.751 19.3311 -73.584 64.3633 -82.3799 113.314
c-7.47949 41.6318 -9.12695 84.5537 -8.9375 127.067c-3.18457 -14.1777 -6.4502 -28.3359 -9.89258 -42.4561c-14.8242 -60.7705 -30.832 -131.533 -72.416 -180.403c-36.8389 -43.292 -105.385 -56.665 -146.354 -11.668
c-47.5068 52.1709 -57.6758 129.474 -61.498 196.945c-4.21094 74.3271 1.22559 149.797 11.0791 223.484c2.48633 18.582 21.3096 26.3672 38.4795 26.9658c12.2539 0.427734 42.9482 -6.04492 40.2686 -24.2178c-10.8096 -73.2686 -14.541 -146.547 -14.8398 -220.54
c-0.128906 -31.8203 2.05859 -63.2158 5.39453 -94.8369c2.97559 -28.249 7.92969 -56.7041 21.3994 -82.0518c5.86816 -11.0479 13.8145 -20.8057 23.1475 -29.1377c12.3828 -11.0566 27.1104 -4.74121 39.7666 3.45898c22.4551 14.5537 37.0352 38.9971 48.166 62.6621
c26.3896 56.0996 40.5127 117.488 54.2041 177.66c14.0977 61.9512 26.0752 124.353 35.7617 187.146c0.161133 1.23535 0.305664 2.4707 0.469727 3.70605c2.63477 19.7109 22.5996 27.9658 40.8115 28.6025c13.1064 0.457031 45.3965 -6.38281 42.707 -25.6855
c-8.20703 -58.9014 -12.9717 -118.221 -13.9238 -177.691c-0.926758 -57.7402 -0.65332 -116.298 8.47656 -173.401c3.52246 -22.043 11.2656 -47.6279 24.1562 -66.2061c16.2305 -23.3945 41.4619 -14.8398 61.4912 -0.504883
c42.5107 30.4238 68.0508 83.1904 86.3174 130.636z" />
    <glyph glyph-name="v" unicode="v" horiz-adv-x="398" 
d="M387.547 169.705c6.95215 3.97656 25.9824 -1.67676 15.1953 -9.13379c-32.4766 -22.4395 -71.5098 -31.9912 -110.539 -31.1035c-16.6738 -46.458 -40.9854 -94.7236 -83.4219 -120.148c-23.2471 -13.9297 -50.7783 -24.9932 -78.2197 -23.1143
c-30.2568 2.07227 -60.8154 16.7549 -80.6133 39.873c-21.0625 24.5918 -33.1133 53.9766 -42.0566 84.6992c-9.95996 34.207 -17.3076 69.1191 -21.6797 104.475c-8.5127 68.832 -6.19043 137.703 -10.1729 206.729c-2.10059 36.3984 83.0518 37.7334 81.1309 2.83496
c-3.49023 -63.4443 -1.18066 -128.552 5.01562 -191.771c5.63965 -57.5469 12.4629 -122.953 38.8652 -175.298c9.38086 -18.6045 24.0059 -38.6885 45.332 -43.6719c26.6309 -6.22461 49.2119 6.98438 67.4434 25.666c24.2949 24.8936 40.7178 57.9521 52.9102 91.7314
c-11.0215 1.52441 -21.9238 3.85352 -32.5625 6.94531c-54.4453 15.8281 -88.9707 60.2432 -103.663 113.746c-16.1719 58.8789 -11.9023 123.97 12.3604 180.088c20.3994 47.1885 68.6553 92.7998 123.883 70.335c57.3027 -23.3105 58.6406 -101.411 60.1299 -153.276
c1.88477 -65.5898 -6.35449 -131.804 -26.1621 -194.437c-0.952148 -3.01074 -1.93652 -6.05762 -2.94336 -9.12012c31.2441 0.138672 62.2598 8.20996 89.7686 23.9512zM281.269 177.969c14.4961 52.5928 20.7881 107.201 20.0225 161.705
c-0.379883 27.0625 -1.9209 54.5713 -6.55371 81.2666c-4.33691 25.0029 -14.6191 53.5254 -38.6865 65.9688c-26.9785 13.9492 -55.8516 -6.52441 -71.5859 -27.6992c-15.7217 -21.1592 -25.042 -47.8027 -31.1318 -73.2207
c-11.9639 -49.9453 -9.91113 -105.649 9.70312 -153.436c16.3496 -39.834 44.8301 -69.499 86.9033 -80.707c7.3418 -1.95605 14.7705 -3.3877 22.2344 -4.40723c3.33008 10.2881 6.34082 20.5342 9.09473 30.5293z" />
    <glyph glyph-name="w" unicode="w" horiz-adv-x="697" 
d="M686.55 169.705c6.95215 3.97656 25.9824 -1.67676 15.1924 -9.13672c-32.4795 -22.4395 -71.5127 -31.9912 -110.539 -31.1035c-16.6738 -46.458 -40.9854 -94.7236 -83.4219 -120.148c-23.2471 -13.9297 -50.7783 -24.9932 -78.2197 -23.1143
c-30.2568 2.07227 -60.8154 16.7549 -80.6133 39.873c-21.0625 24.5918 -33.1133 53.9766 -42.0566 84.6992c-9.95996 34.207 -17.3076 69.1191 -21.6797 104.475c-3.44824 27.8916 -5.1084 55.79 -6.1377 83.7012c-7.99805 -39.1328 -16.9961 -78.0566 -27.2842 -116.62
c-14.7539 -55.3076 -32.7148 -122.548 -77.1553 -162.131c-20.4609 -18.2246 -46.1914 -26.9717 -73.4912 -27.0742c-30.4629 -0.116211 -53.2266 17.2725 -70.6084 40.9248c-40.165 54.6582 -48.6611 127.789 -51.6045 193.559
c-3.19141 71.335 2.13281 143.597 11.585 214.282c2.48633 18.582 21.3066 26.3643 38.4795 26.9658c12.2539 0.427734 42.9482 -6.04492 40.2686 -24.2178c-10.3496 -70.1738 -14.4385 -140.441 -14.7373 -211.32c-0.131836 -30.8291 0.862305 -61.2598 3.98633 -91.9375
c2.77344 -27.207 5.89355 -54.4268 16.3525 -79.9482c5.03809 -12.3018 11.1572 -24.3301 20.4482 -33.9814c9.57715 -9.9502 15.2842 -18.3984 30.5137 -14.4863c26.0225 6.68164 45.0293 31.5879 57.5723 53.8242c27.5254 48.79 41.5322 105.086 54.6416 159.101
c14.6855 60.5039 27.2451 121.545 37.6875 182.924c-0.206055 4.3877 -0.431641 8.77539 -0.685547 13.167c-2.10059 36.3984 83.0518 37.7334 81.1309 2.83496c-3.49023 -63.4443 -1.18066 -128.552 5.01562 -191.771c5.63965 -57.5469 12.4629 -122.953 38.8652 -175.298
c9.38086 -18.6045 24.0059 -38.6885 45.332 -43.6719c26.6309 -6.22461 49.2119 6.98438 67.4434 25.666c24.2949 24.8936 40.7178 57.9521 52.9102 91.7314c-11.0215 1.52441 -21.9238 3.85352 -32.5625 6.94531c-54.4424 15.8281 -88.9717 60.2432 -103.664 113.746
c-16.1719 58.8789 -11.9023 123.97 12.3604 180.088c20.3994 47.1885 68.6553 92.7998 123.883 70.335c57.3027 -23.3105 58.6406 -101.411 60.1299 -153.276c1.88477 -65.5898 -6.35742 -131.804 -26.1621 -194.437
c-0.952148 -3.01074 -1.93652 -6.05762 -2.94336 -9.12012c31.2441 0.138672 62.2598 8.20996 89.7686 23.9512zM580.274 177.969c14.4932 52.5928 20.7852 107.201 20.0195 161.705c-0.379883 27.0625 -1.9209 54.5713 -6.55371 81.2666
c-4.33984 25.0029 -14.6182 53.5254 -38.6855 65.9688c-26.9785 13.9492 -55.8516 -6.52441 -71.5859 -27.6992c-15.7217 -21.1592 -25.042 -47.8027 -31.1318 -73.2207c-11.9639 -49.9453 -9.91113 -105.649 9.70312 -153.436
c16.3496 -39.834 44.8301 -69.499 86.9033 -80.707c7.3418 -1.95605 14.7695 -3.3877 22.2334 -4.40723c3.33301 10.2881 6.34375 20.5342 9.09766 30.5293z" />
    <glyph glyph-name="x" unicode="x" horiz-adv-x="417" 
d="M431.024 166.038c3.6709 8.52832 25.7021 6.8291 21.7773 -3.10547c-20.4316 -51.6982 -43.0703 -105.542 -90.3135 -138.498c-41.6455 -29.0537 -90.6611 -28.1621 -138.596 -17.8711c-54.9092 11.7871 -94.5596 52.4287 -118.797 101.084
c-2.6416 5.30176 -5.14453 10.6709 -7.57324 16.0723c-25.5596 -38.3027 -51.0488 -76.6504 -76.4609 -115.05c-5.80957 -8.77637 -30.3301 -3.86426 -22.5479 7.67871c29.5586 43.8193 59.2393 87.5557 88.9873 131.247
c-15.8984 40.8018 -27.0098 83.6338 -37.2598 125.983c-13.6309 56.3242 -26.0234 113.16 -35.1084 170.398c-3.86719 24.3496 34.0264 34.4033 50.6035 35.4648c22.6133 1.45117 47.7158 -8.34473 52.9561 -31.8486c13.9424 -62.5459 24.1758 -125.839 39.0771 -188.202
c0.524414 -2.20703 1.04199 -4.42969 1.55957 -6.64648c23.0117 33.5703 46.0039 67.1504 69.0898 100.669c12.0508 17.4941 24.1152 34.9785 36.1982 52.4502c13.0771 18.9102 25.0801 40.6445 40.96 57.2705c3.75098 3.9248 21.5801 4.55566 17.6133 -4.17188
c-8.78223 -19.3252 -23.8799 -36.8516 -35.8574 -54.3594c-13.1738 -19.2607 -26.3281 -38.5312 -39.4639 -57.8174c-25.0771 -36.8164 -50.1221 -73.6553 -74.9902 -110.609c-2.43164 -3.61621 -4.84473 -7.24219 -7.27637 -10.8584
c10.5869 -46.8662 21.5029 -94.8584 41.957 -137.688c10.5967 -22.1885 23.2754 -41.6514 41.79 -57.9775c22.7354 -20.0459 56.5889 -14.9727 82.0967 -1.66406c52.5215 27.4033 77.4219 86.5303 99.5781 138.049z" />
    <glyph glyph-name="y" unicode="y" horiz-adv-x="445" 
d="M311.768 441.812c17.2334 1.10645 50.6133 -7.50488 50.0244 -30.0947c-2.57324 -98.6035 -1.27344 -197.294 -2.04199 -295.917c-0.813477 -104.185 -0.537109 -208.527 -5.02832 -312.632c-1.7373 -40.3193 -3.35547 -80.7324 -7.57031 -120.882
c-3.03418 -28.9219 -6.22852 -58.377 -15.7637 -86.0049c-22.4648 -65.0908 -87.2441 -118.362 -156.575 -85.0625c-43.2568 20.7793 -67.4463 67.4521 -75.6338 112.794c-16.4326 90.998 -13.7725 185.235 -16.6973 277.33
c-0.375977 11.7969 26.3389 12.6719 26.7246 0.932617c1.49609 -45.4443 2.0625 -90.9053 4.13477 -136.337c2.3418 -51.3125 3.83496 -104.693 15.7158 -154.89c9.58984 -40.5283 56.7168 -116.168 103.645 -76.4561c30.501 25.8105 36.7197 72.5029 38.0098 110.629
c2.53809 75.0771 -2.42578 150.392 -3.81836 225.437c-1.85645 100.125 -5.4502 200.218 -6.49219 300.353c-0.385742 37.1475 -1.11914 74.4014 -1.08691 111.636c-7.69824 -31.0645 -16.3486 -61.9102 -25.6455 -92.585
c-16.2139 -53.4971 -30.0693 -116.281 -67.0625 -160.001c-14.998 -17.7266 -35.71 -34.0215 -59.7188 -35.5625c-25.0059 -1.60547 -51.3857 11.9902 -69.417 28.3848c-48.2012 43.8291 -56.8516 119.955 -58.1025 181.141
c-1.43457 70.1738 1.25488 141.493 9.69043 211.182c2.29102 18.9385 21.8926 26.8525 39.1777 27.457c14.0234 0.489258 41.6357 -5.88086 40.999 -24.6592c-2.31641 -68.4463 -10.3496 -136.462 -10.5137 -205.05c-0.131836 -53.3936 -1.09375 -112.25 13.6055 -164.038
c3.0752 -10.835 7.20605 -24.125 15.8281 -31.9365c12.6748 -11.4814 28.0166 -4.68359 39.8584 4.0957c20.4932 15.1943 34.1299 38.0166 44.5986 60.835c22.6387 49.3467 37.543 103.323 52.7852 155.312c14.9141 50.8721 27.7695 102.451 37.2852 154.626
c0.385742 5.48828 0.807617 10.9766 1.28027 16.458c2.0332 23.543 27.3672 32.1973 47.8057 33.5068z" />
    </font>
</defs>
</svg>
