<?xml version="1.0" standalone="no"?>
<!DOCTYPE svg PUBLIC "-//W3C//DTD SVG 1.1//EN" "http://www.w3.org/Graphics/SVG/1.1/DTD/svg11.dtd" >
<svg xmlns="http://www.w3.org/2000/svg" xmlns:xlink="http://www.w3.org/1999/xlink" version="1.1">
<metadata>
Created by FontForge 20170812 at Wed Aug 17 19:28:01 2022
 By www-data
</metadata>
<defs>
<font id="BulldogRegular" horiz-adv-x="0" >
  <font-face 
    font-family="Bulldog"
    font-weight="400"
    font-stretch="normal"
    units-per-em="1000"
    panose-1="0 0 0 0 0 0 0 0 0 0"
    ascent="800"
    descent="-200"
    x-height="369.404"
    cap-height="769.347"
    bbox="-208.574 -668.362 1612.12 1245.45"
    underline-thickness="50"
    underline-position="-100"
    unicode-range="U+000A-20AC"
  />
<missing-glyph horiz-adv-x="527" 
d="M50 700h427v-700h-427v700zM78 680l185 -309l186 309h-371zM251 350l-180 300v-601zM264 329l-185 -308h370zM276 350l181 -303v605z" />
    <glyph glyph-name=".notdef" horiz-adv-x="527" 
d="M50 700h427v-700h-427v700zM78 680l185 -309l186 309h-371zM251 350l-180 300v-601zM264 329l-185 -308h370zM276 350l181 -303v605z" />
    <glyph glyph-name=".null" 
 />
    <glyph glyph-name=".null" 
 />
    <glyph glyph-name="LF" unicode="&#xa;" 
 />
    <glyph glyph-name="controlCR" unicode="&#xd;" 
 />
    <glyph glyph-name="space" unicode=" " horiz-adv-x="307" 
 />
    <glyph glyph-name="exclam" unicode="!" horiz-adv-x="236" 
d="M174.612 121.436c0.28418 -58.918 -122.773 -98.7656 -123.815 -32.998c-2.07812 130.755 0.307617 261.641 2.54492 392.384c2.2207 129.719 -3.09668 265.729 27.4355 392.595c3.4502 14.3467 40.6777 34.5117 47.0146 12.7012
c34.9102 -120.205 31.4258 -251.626 36.1738 -375.811c4.95898 -129.548 10.0146 -259.227 10.6465 -388.871zM186.124 -112.725c3.09668 -26.1484 -25.8135 -45.8916 -47.1348 -52.2627c-22.0498 -6.59277 -48.9385 0.660156 -53.624 25.4082
c-3.41016 18.0244 -5.6875 36.1172 -8.02734 54.3125c-3.33594 25.9209 25.876 45.6816 46.8555 51.9551c21.7363 6.49609 48.9043 -0.591797 53.3105 -25.2598c3.22266 -18.0361 6.46777 -35.958 8.62012 -54.1533z" />
    <glyph glyph-name="quotedbl" unicode="&#x22;" horiz-adv-x="311" 
d="M55.7188 791.059c7.50391 44.5771 102.396 62.9941 94.9609 5.74414c-2.15234 -16.5557 -5.16992 -32.9521 -7.26465 -49.5195c-1.01367 -8.01562 -7.00879 -34.1533 -2.29492 -40.5635c8.22656 -11.1875 -3.45605 -28.0791 -11.1357 -35.4229
c-9.91699 -9.47949 -29.0742 -18.3262 -43.4609 -14.4092c-28.4258 7.74316 -32.6729 29.4678 -35.5195 56.4307c-2.7041 25.6533 0.450195 52.4229 4.71484 77.7402zM166.604 797.213c7.54883 45.2607 106.287 58.9688 93.2217 5.63574
c-5.875 -23.9736 -8.59082 -47.9932 -10.9141 -72.5137c-2.48242 -26.2568 -3.22852 -45.1016 -23.7754 -63.2852c-9.71777 -8.60254 -27.9307 -10.0205 -39.3115 -4.00293c-12.8438 6.79199 -17.4326 23.2969 -20.4727 36.4824
c-7.40137 32.0928 -4.12207 65.4941 1.25195 97.6836z" />
    <glyph glyph-name="quotedbl" unicode="&#x201d;" horiz-adv-x="311" 
d="M55.7188 791.059c7.50391 44.5771 102.396 62.9941 94.9609 5.74414c-2.15234 -16.5557 -5.16992 -32.9521 -7.26465 -49.5195c-1.01367 -8.01562 -7.00879 -34.1533 -2.29492 -40.5635c8.22656 -11.1875 -3.45605 -28.0791 -11.1357 -35.4229
c-9.91699 -9.47949 -29.0742 -18.3262 -43.4609 -14.4092c-28.4258 7.74316 -32.6729 29.4678 -35.5195 56.4307c-2.7041 25.6533 0.450195 52.4229 4.71484 77.7402zM166.604 797.213c7.54883 45.2607 106.287 58.9688 93.2217 5.63574
c-5.875 -23.9736 -8.59082 -47.9932 -10.9141 -72.5137c-2.48242 -26.2568 -3.22852 -45.1016 -23.7754 -63.2852c-9.71777 -8.60254 -27.9307 -10.0205 -39.3115 -4.00293c-12.8438 6.79199 -17.4326 23.2969 -20.4727 36.4824
c-7.40137 32.0928 -4.12207 65.4941 1.25195 97.6836z" />
    <glyph glyph-name="quotedbl" unicode="&#x201c;" horiz-adv-x="311" 
d="M55.7188 791.059c7.50391 44.5771 102.396 62.9941 94.9609 5.74414c-2.15234 -16.5557 -5.16992 -32.9521 -7.26465 -49.5195c-1.01367 -8.01562 -7.00879 -34.1533 -2.29492 -40.5635c8.22656 -11.1875 -3.45605 -28.0791 -11.1357 -35.4229
c-9.91699 -9.47949 -29.0742 -18.3262 -43.4609 -14.4092c-28.4258 7.74316 -32.6729 29.4678 -35.5195 56.4307c-2.7041 25.6533 0.450195 52.4229 4.71484 77.7402zM166.604 797.213c7.54883 45.2607 106.287 58.9688 93.2217 5.63574
c-5.875 -23.9736 -8.59082 -47.9932 -10.9141 -72.5137c-2.48242 -26.2568 -3.22852 -45.1016 -23.7754 -63.2852c-9.71777 -8.60254 -27.9307 -10.0205 -39.3115 -4.00293c-12.8438 6.79199 -17.4326 23.2969 -20.4727 36.4824
c-7.40137 32.0928 -4.12207 65.4941 1.25195 97.6836z" />
    <glyph glyph-name="numbersign" unicode="#" horiz-adv-x="678" 
d="M615.052 236.335c28.9102 -2.5332 1.39941 -38.0488 -19.7793 -36.21c-30.3555 2.60742 -60.7568 4.35547 -91.1641 5.36328c-0.814453 -46.3936 -1.32715 -92.793 -1.31055 -139.181c0.0283203 -71.8477 3.93359 -147.731 -9.0127 -218.577
c-4.84473 -26.4902 -51.8359 -43.5303 -67.5488 -18.2471c-36.7891 59.1807 -37.6318 143.269 -41.2529 211.028c-2.93164 54.8711 -4.85059 109.708 -5.30566 164.607c-24.4521 -0.945312 -48.8867 -2.37402 -73.2764 -4.34961
c0.631836 -116.34 6.12012 -232.622 10.8281 -348.711c1.40039 -34.5518 -51.5742 -60.2227 -77.9453 -38.0195c-28.2832 23.8203 -30.2871 74.6943 -36.043 108.762c-6.71777 39.7549 -10.3672 79.9717 -13.8398 120.12c-4.12793 47.6973 -6.62109 95.4062 -7.8623 143.172
c-36.2715 -5.59668 -72.4004 -12.2686 -108.312 -20.1592c-31.3232 -6.88281 -29.6152 29.9404 -2.98828 35.7422c36.7041 8.00488 73.5898 14.791 110.596 20.4844c-0.290039 22.8184 -0.324219 45.6533 -0.0791016 68.5059
c0.239258 21.959 0.649414 43.9746 1.24707 66.0244c-31.5576 -6.55273 -63.0811 -14.9961 -94.8145 -18.2295c-15.7412 -1.60547 -29.5928 12.502 -20.3867 27.7656c21.4805 35.6055 80.0801 29.2344 116.658 33.4072c5.24316 132.314 18.4971 265.301 47.6514 393.847
c12.6045 55.5996 130.652 81.6455 121.691 7.36133c-15.5703 -129.092 -32.3652 -257.444 -40.7168 -386.964c5.04395 0.489258 10.082 1.0127 15.126 1.47949c18.5479 1.70801 37.2383 3.44434 56.0088 5.00391c3.5752 94.916 10.5156 189.884 24.5488 283.263
c4.47461 29.7471 40.2842 49.7305 66.7402 54.2285c20.541 3.49023 61.4922 -3.85938 59.5342 -33.4697c-6.59863 -99.8008 -15.5596 -199.226 -21.7988 -298.913c31.8018 -0.746094 63.4443 -3.41602 94.626 -9.18359c30.043 -5.55664 1.56055 -41.5488 -20.5459 -37.6494
c-25.2549 4.45215 -50.7715 6.71191 -76.4023 7.51465c-1.83301 -33.7207 -3.31934 -67.4814 -4.15625 -101.315c-0.352539 -14.0791 -0.654297 -28.1641 -0.950195 -42.249c36.749 -0.985352 73.5039 -3.03516 110.236 -6.25195zM379.69 256.777
c0.404297 41.2695 1.06055 82.7334 2.24512 124.242c-15.9922 -1.39453 -31.9326 -2.91992 -47.7822 -4.41113c-8.0957 -0.762695 -16.2031 -1.56543 -24.3047 -2.37402c-0.831055 -16.5557 -1.54883 -33.123 -2.05566 -49.7295
c-0.887695 -29.1436 -1.22363 -58.293 -1.33789 -87.4365c24.3779 2.02637 48.7959 3.5293 73.2363 4.56543c0.0166016 5.0498 -0.0517578 10.0938 -0.000976562 15.1436z" />
    <glyph glyph-name="dollar" unicode="$" horiz-adv-x="602" 
d="M405.272 331.559c106.154 -78.1445 190.903 -217.974 122.683 -349.246c-38.5596 -74.1992 -116.51 -123.422 -196.146 -120.78c0.22168 -39.5557 0.489258 -79.1172 0.740234 -118.696c0.142578 -21.9014 -45.5508 -37.21 -46.3652 -12.3594
c-1.52539 46.4443 -2.62988 92.9463 -3.3418 139.493c-12.2061 3.89453 -24.2754 9.10352 -36.0488 15.8613c-51.8818 29.7754 -89.252 80.0117 -105.011 137.495c-11.751 42.8633 -22.1465 122.141 32.8379 138.736c29.9287 9.0293 27.1338 -26.4395 2.875 -34.376
c9.84375 3.2168 2.59668 -17.29 2.35156 -25.1299c-0.176758 -5.63086 -0.205078 -11.2783 0.0283203 -16.9092c0.756836 -18.1445 3.77441 -36.3057 9.33105 -53.6074c10.7539 -33.4873 29.5869 -64.3271 55.3545 -88.335
c11.5059 -10.7148 24.2529 -19.7959 37.7686 -26.9521c-1.05371 110.14 0.101562 220.462 3.30664 330.767c-100.348 65.7051 -225.085 137 -234.979 265.323c-9.77539 126.804 90.8174 246.673 216.329 261.816c15.5762 1.87891 32.1602 2.33984 48.9834 1.34375
c2.27734 26.8721 4.63477 53.7207 7.12305 80.5352c1.51465 16.3057 40.7861 25.8135 39.5225 6.49707c-2.01562 -30.8115 -3.94531 -61.6396 -5.83008 -92.4678c33.0371 -6.93457 64.6172 -20.0801 88.8418 -40.5527c43.9395 -37.1367 61.9131 -96.3799 68.3691 -151.518
c2.18066 -18.6162 -36.5781 -31.5566 -39.2705 -10.4688c-4.97559 38.9756 -15.127 80.5645 -40.4219 111.803c-20.8828 25.7959 -49.1953 39.8584 -80.1377 47.3672c-6.86035 -116.306 -12.6387 -232.702 -16.7324 -349.127
c23.8486 -16.0039 47.1846 -31.3066 67.8389 -46.5127zM291.803 409.686c5.06738 108.152 12.001 216.164 20.6777 323.815c-71.0225 4.26953 -141.942 -26.0234 -151.211 -105.808c-11.3232 -97.4502 55.3037 -163.365 130.533 -218.008zM434.057 -74.1064
c52.9521 41.0361 49.3252 108.658 20.3359 163.723c-26.7354 50.7832 -75.1045 91.6943 -121.35 125.387c-1.86719 -104.993 -1.91797 -209.935 -1.42285 -314.91c35.0586 -5.56836 71.3691 1.72461 102.437 25.8008z" />
    <glyph glyph-name="percent" unicode="%" horiz-adv-x="719" 
d="M664.073 790.854c-86.1826 -163.166 -173.3 -325.542 -251.558 -492.744c-78.4287 -167.566 -149.28 -338.537 -220.303 -509.332c-13.0312 -31.335 -95.1553 -41.6113 -80.9961 3.84277c54.9727 176.442 123.837 348.177 198.264 517.252
c74.6484 169.582 154.176 338.162 246.741 498.789c15.2295 26.4219 49.5703 44.3896 80.1084 39.0723c28.335 -4.93555 41.1162 -31.5625 27.7432 -56.8799zM318.953 498.702c-25.6816 -74.1416 -109.728 -128.553 -187.991 -107.368
c-87.749 23.7461 -88.9336 146.906 -73.3115 218.464c7.63477 34.9727 56.8857 58.0469 90.3047 51.9951c31.8643 19.9834 73.6123 26.5479 105.243 10.7207c58.9521 -29.5078 86.5352 -113.812 65.7549 -173.812zM197.617 642.464
c-6.59277 -0.438477 -13.6006 -2.20215 -20.2559 -5.05469c1.69043 -5.69922 2.2998 -12.3945 1.40039 -20.291c-3.49609 -30.5947 -1.71387 -191.192 58.6162 -120.421c23.9629 28.1123 31.5977 75.0352 14.2959 108.426
c-10.1172 19.5215 -30.6582 38.8896 -54.0566 37.3408zM605.475 147.485c62.3857 -40.9619 77.54 -125.894 44.7021 -190.426c-36.2822 -71.3184 -136.505 -127.584 -216.152 -103.325c-90.0996 27.4414 -86.2109 142.58 -78.2061 217.422
c2.10059 19.6074 25.1924 35.9297 49.1494 42.6025c47.5264 56.1689 137.535 75.0762 200.507 33.7266zM568.735 -33.3701c20.877 34.9561 13.4707 84.623 -15.1602 113.169c-23.3018 23.2393 -63.3926 31.6309 -86.6211 4.49707
c-2.1123 -2.4707 -4.49805 -4.61719 -7.04297 -6.51855c-2.32324 -45.2432 -7.39062 -101.418 20.751 -138.48c25.1123 -33.0713 72.8154 1.78809 88.0732 27.333z" />
    <glyph glyph-name="ampersand" unicode="&#x26;" horiz-adv-x="792" 
d="M736.266 257.104c21.5254 -17.0225 -21.5898 -47.5352 -39.9336 -36.7979c-13.6182 7.96484 -27.8799 11.791 -42.4883 13.5215c-29.2686 -95.3662 -74.7451 -186.087 -146.832 -256.01c43.5752 -26.6328 92.252 -35.0762 142.631 1.41699
c22.625 16.3906 53.6357 -4.42383 27.333 -25.2891c-43.8428 -34.7852 -101.811 -51.2217 -157.29 -40.416c-21.6172 4.21289 -42.9668 12.001 -63.627 21.9131c-71.7793 -50.4814 -161.766 -79.5732 -248.706 -60.957c-80.3477 17.2051 -147.385 80.1885 -156.511 164.18
c-4.50293 41.4746 9.37109 80.3643 33.6523 113.606c29.0918 39.835 66.4561 77.1816 103.462 109.689c1.22363 1.07617 2.4707 2.1123 3.7002 3.18262c-1.69629 5.99512 -3.33008 11.9902 -4.82129 17.9678c-50.8174 203.508 12.8037 515.311 260.553 549.35
c53.4355 7.34375 109.524 -5.91016 151.898 -39.9102c43.7061 -35.0645 57.5234 -91.8369 51.6201 -145.353c-11.8926 -107.84 -99.8799 -198.366 -181.616 -261.72c-54.3584 -42.1348 -112.986 -78.1836 -171.21 -114.842
c19.6699 -67.7148 53.0889 -132.024 97.6377 -185.956c22.9268 -27.7539 50.7725 -60.2842 82.0225 -85.8691c65.7959 63.9053 107.248 148.579 134.37 235.992c-17.7568 -0.546875 -35.6104 -1.41797 -53.0771 0.722656c-24.0537 2.94336 -12.8896 31.6426 2.83496 38.0869
c53.4756 21.9189 127.816 20.3418 174.397 -16.5098zM340.004 652.069c-52.9346 -88.7217 -71.0684 -200.104 -58.4463 -301.874c0.506836 -4.11621 1.13867 -8.21484 1.75391 -12.3193c48.4033 36.5098 96.9941 72.7578 140.052 115.781
c52.1494 52.1035 141.515 159.682 87.9648 237.513c-19.5674 28.4316 -55.9121 44.2305 -89.5078 35.6221c-35.8496 -9.18262 -62.6875 -42.6641 -81.8164 -74.7227zM148.411 -48.9463c76.6299 -70.8281 191.819 -48.915 273.351 3.0127
c-20.2559 12.2119 -39.5273 25.8301 -57.2959 39.3623c-70.7998 53.9365 -122.989 134.677 -155.32 219.191c-6.53613 -4.51465 -13.0381 -9.06348 -19.4883 -13.6924c-41.5938 -29.8545 -86.165 -68.0439 -92.3535 -122.368
c-5.35156 -46.9688 17.0908 -94.0625 51.1074 -125.506z" />
    <glyph glyph-name="quotesingle" unicode="'" horiz-adv-x="198" 
d="M112.65 849.191c19.4189 1.05273 39.0088 -11.3359 34.3516 -32.8613c-4.96973 -22.9434 -10.2129 -45.7041 -14.585 -68.7842c-4.39551 -23.2051 -6.88867 -44.5488 -26.957 -59.5049c-26.1084 -19.459 -48.5566 4.98145 -53.0312 30.2422
c-5.37402 30.3389 -1.57715 64.0879 8.9043 92.8672c7.8623 21.5938 27.9473 36.7656 51.3174 38.041z" />
    <glyph glyph-name="quotesingle" unicode="&#x2019;" horiz-adv-x="198" 
d="M112.65 849.191c19.4189 1.05273 39.0088 -11.3359 34.3516 -32.8613c-4.96973 -22.9434 -10.2129 -45.7041 -14.585 -68.7842c-4.39551 -23.2051 -6.88867 -44.5488 -26.957 -59.5049c-26.1084 -19.459 -48.5566 4.98145 -53.0312 30.2422
c-5.37402 30.3389 -1.57715 64.0879 8.9043 92.8672c7.8623 21.5938 27.9473 36.7656 51.3174 38.041z" />
    <glyph glyph-name="quotesingle" unicode="&#x2018;" horiz-adv-x="198" 
d="M112.65 849.191c19.4189 1.05273 39.0088 -11.3359 34.3516 -32.8613c-4.96973 -22.9434 -10.2129 -45.7041 -14.585 -68.7842c-4.39551 -23.2051 -6.88867 -44.5488 -26.957 -59.5049c-26.1084 -19.459 -48.5566 4.98145 -53.0312 30.2422
c-5.37402 30.3389 -1.57715 64.0879 8.9043 92.8672c7.8623 21.5938 27.9473 36.7656 51.3174 38.041z" />
    <glyph glyph-name="parenleft" unicode="(" horiz-adv-x="551" 
d="M499.174 -183.074c8.29492 -17.0059 -8.91309 -31.9072 -21.6602 -39.6895c-57.8311 -35.2979 -124.782 -61.5205 -193.806 -50.7832c-59.9658 9.3252 -108.301 46.6836 -143.621 94.3184c-67.9648 91.6543 -90.9307 209.514 -90.0596 321.686
c0.893555 114.626 14.3691 231.375 44.3662 342.102c30.3389 112.001 75.3086 219.135 142.044 314.449c43.1602 61.6396 138.919 202.603 229.383 141.697c17.3867 -11.7051 -16.5449 -36.8691 -31.1992 -28.7568c-51.9443 28.75 -82.4482 -62.5342 -99.2891 -97.5986
c-21.1162 -43.9629 -39.4941 -89.0869 -56.1982 -134.889c-61.2529 -167.925 -94.1826 -350.806 -89.2578 -529.701c2.49902 -90.5723 11.75 -185.711 51.8184 -268.353c16.8066 -34.6602 42.4482 -71.7627 81.9756 -81.7256
c43.0117 -10.8457 91.5742 8.44238 130.886 24.6113c13.6299 5.60742 36.4141 9.4502 44.6182 -7.36719z" />
    <glyph glyph-name="parenright" unicode=")" horiz-adv-x="491" 
d="M417.992 525.257c17.6826 -104.583 27.6865 -214.593 21.5947 -320.576c-6.30762 -109.656 -30.0938 -224.897 -94.1133 -316.46c-55.292 -79.0723 -164.526 -145.478 -260.462 -96.2432c-35.8555 18.4004 12.2461 57.5293 37.4951 52.9922
c91.6484 -16.459 132.781 76.2939 149.354 150.151c37.5459 167.311 19.1572 348.717 1.05859 517.49c-8.89844 82.9326 -23.9971 165.733 -48.5 245.534c-11.5742 37.7061 -23.9512 80.2568 -45.4424 113.732c-10.7197 16.6982 -23.4893 36.1914 -44.1729 39.7441
c-21.0703 3.62109 -40.4326 -0.472656 -59.0488 -10.4697c-24.4463 -13.1279 -36.3506 14.3184 -13.6465 27.9873c44.2412 26.6328 96.1455 24.8848 144.07 9.08105c50.959 -16.8066 85.8633 -68.0674 112.438 -111.848c55.5254 -91.4775 81.6855 -196.493 99.374 -301.116z
" />
    <glyph glyph-name="asterisk" unicode="*" horiz-adv-x="322" 
d="M260.214 680.395c26.7754 -6.03516 1.40527 -38.4023 -18.4756 -33.8701c-11.7676 2.6875 -23.5869 5.13574 -35.4404 7.37305c10.3789 -12.4912 20.7178 -25.0166 30.9766 -37.6094c15.2178 -18.6797 -23.3301 -43.5244 -36.333 -27.4521
c-7.17383 8.86426 -14.415 17.6826 -21.6514 26.501c-0.0966797 -9.87793 -0.130859 -19.7559 -0.00585938 -29.6338c0.273438 -21.8906 -45.374 -35.6055 -45.1865 -12.0469c0.130859 16.4873 0.591797 32.918 1.37793 49.3027
c-12.0469 -12.2344 -23.957 -24.6172 -35.6797 -37.1875c-14.2217 -15.252 -49.6904 -6.5127 -30.7832 14.0508c19.7842 21.5146 40.1543 42.4258 60.8945 62.9609c-22.8125 0.438477 -45.6133 -0.688477 -68.3799 1.58887
c-26.6729 2.66992 -1.31543 35.2803 18.2178 33.3848c10.4473 -1.01367 20.9453 -1.29297 31.4551 -1.34961c-2.25488 2.61914 -4.48047 5.2666 -6.74023 7.87988c-7.13965 8.25488 -14.4326 20.877 -22.915 28.6143c-3.31934 1.86719 -5.83594 4.9873 -6.62207 9.04102
c-0.0507812 0.279297 -0.107422 0.552734 -0.158203 0.826172c-2.57324 13.3105 17.9619 23.7344 28.6934 21.3262c15.2861 -3.43262 29.5703 -19.4473 41.9639 -35.4961c1.69043 11.9727 3.51758 23.9395 5.6123 35.8955c3.12012 17.8027 40.7295 25.2949 38.0195 2.2998
c-2.06055 -17.4775 -3.77441 -34.9893 -5.20312 -52.5244c10.8906 9.98047 21.8389 19.8975 32.958 29.6387c18.7705 16.4473 45.9727 -3.17676 23.9746 -22.1865c-11.7334 -10.1396 -23.3018 -20.4502 -34.751 -30.8799c18.167 -2.84082 36.2197 -6.39941 54.1816 -10.4473
z" />
    <glyph glyph-name="plus" unicode="+" horiz-adv-x="357" 
d="M290.596 282.494c33.2539 -1.48047 10.2383 -36.2314 -13.7246 -35.0586c-13.7373 0.671875 -27.4746 1.03613 -41.2119 1.22949c-0.0683594 -5.00977 -0.210938 -10.0137 -0.250977 -15.0176c-0.267578 -33.9365 -0.956055 -67.8789 -2.08301 -101.799
c-1.08691 -32.6846 -1.63867 -66.6895 -15.3994 -96.7324c-7.42383 -16.2139 -45.3574 -35.041 -59.4365 -16.3564c-19.5215 25.9092 -23.29 59.9824 -26.3477 91.7617c-3.01172 31.2949 -5.40332 62.5449 -6.0918 93.9766
c-0.295898 13.5957 -0.495117 27.1855 -0.625977 40.7754c-19.9199 -1.49707 -39.8115 -3.39844 -59.6689 -5.80078c-28.9043 -3.49609 -13.1455 31.6709 8.2207 34.3467c17.0908 2.14648 34.1934 3.91113 51.3125 5.36328
c0.136719 42.0947 1.34961 84.1553 4.28125 126.211c2.0498 29.3877 24.1562 50.6348 52.3887 58.0928c20.0801 5.30566 60.6719 0.819336 59.6016 -28.2383c-1.86133 -50.4814 -4.09863 -100.963 -5.32227 -151.473c18.1104 -0.0458984 36.2256 -0.466797 54.3584 -1.28125
z" />
    <glyph glyph-name="comma" unicode="," horiz-adv-x="258" 
d="M180.163 83.1543c22.2314 -3.87109 35.2402 -26.4209 22.8066 -46.7686c-24.6055 -40.2793 -47.0254 -81.9189 -70.1279 -123.069c-10.7773 -19.1914 -36.7041 -32.8887 -58.7422 -28.6475c-21.0537 4.05371 -29.7129 22.7383 -20.3418 41.708
c20.4443 41.3945 41.7363 82.4873 60.541 124.65c9.99707 22.4199 42.8066 36.1406 65.8643 32.127z" />
    <glyph glyph-name="hyphen" unicode="-" horiz-adv-x="434" 
d="M348.88 289.719c19.6641 0.746094 39.3008 -10.8789 34.5752 -33.082c-4.85059 -22.835 -30.4639 -35.9805 -51.665 -38.2979c-85.6934 -9.36523 -173.129 -5.89258 -258.925 0.455078c-49.1494 3.6377 -8.9668 68.5566 26.2451 67.0479
c83.5469 -3.5752 166.331 0.694336 249.77 3.87695z" />
    <glyph glyph-name="period" unicode="." horiz-adv-x="183" 
d="M132.885 22.8301c1.21875 -18.0928 0.558594 -37.2393 -4.57129 -54.6602c-5.3457 -18.1328 -22.6699 -30.123 -40.7168 -33.0889c-15.9297 -2.61328 -33.2998 2.72168 -36.3174 20.4219c-3.02832 17.7686 -0.175781 36.9199 3.39941 54.4717
c3.74609 18.4121 24.2188 30.7773 41.332 33.5898c14.6826 2.40234 35.6445 -2.47656 36.874 -20.7344z" />
    <glyph glyph-name="slash" unicode="/" horiz-adv-x="689" 
d="M605.333 854.696c28.2148 -4.91309 42.459 -32.2529 28.1465 -57.7236c-90.2539 -160.684 -179.665 -321.486 -261.265 -486.804c-82.0957 -166.314 -155.657 -336.728 -239.58 -502.074c-9.22852 -18.1895 -32.832 -29.7695 -52.6895 -28.5166
c-16.5498 1.04199 -34.5967 13.2256 -28.8584 32.3828c52.8271 176.368 130.584 345.751 210.687 511.233c80.877 167.088 166.439 332.799 262.261 491.849c16.0381 26.6211 49.8271 45.1299 81.2988 39.6533z" />
    <glyph glyph-name="zero" unicode="0" horiz-adv-x="623" 
d="M479.103 641.015c43.1826 -70.7256 70.248 -155.034 83.3477 -236.549c13.7949 -85.8984 14.3643 -173.772 0.871094 -259.762c-12.0068 -76.5391 -39.5391 -153.277 -97.2217 -207.316c-56.2031 -52.6504 -136.728 -81.9014 -212.669 -60.3184
c-79.0947 22.4766 -129.126 91.335 -158.435 164.635c-65.7334 164.418 -48.1074 347.282 -18.4463 517.524c3.52441 20.2217 20.1309 36.498 40.3818 46.4326c5.29492 16.208 11.54 31.54 18.3604 45.3633c33.8174 68.5684 100.695 130.021 182.284 122.545
c72.7871 -6.67285 126.178 -74.6436 161.526 -132.555zM482.724 174.006c8.3291 69.2461 8 139.858 -0.550781 209.064c-8.6084 69.6729 -22.1182 138.885 -46.4219 204.902c-20.6494 56.083 -55.9131 123.854 -116.853 144.275
c-72.0586 24.1504 -128.222 -47.4863 -152.799 -105.34c-1.45703 -3.43848 -2.86914 -6.99121 -4.24121 -10.6006c27.3213 -0.392578 49.5137 -14.8877 45.1074 -49.1943c-19.8066 -154.137 -40.4502 -310.118 -6.55859 -463.953
c12.6328 -57.3301 37.1074 -126.018 94.7559 -152.258c49.9229 -22.7217 103.529 8.95508 132.752 49.792c35.6221 49.7754 47.6465 113.801 54.8086 173.312z" />
    <glyph glyph-name="one" unicode="1" horiz-adv-x="482" 
d="M406.929 -85.9951c20.29 -2.60156 29.8018 -20.8027 23.1748 -38.8838c-7.77637 -21.207 -30.9365 -32.9922 -52.2285 -35.3203c-67.0312 -7.32715 -136.066 -2.44824 -203.514 -6.64453c-49.2178 -3.0625 -31.1758 55.958 5.14062 62.4883
c11.6826 2.10059 23.541 4.23535 35.4971 6.31348c2.05566 177.587 14.5234 353.597 27.4355 530.659c6.18848 84.7939 11.4551 171.262 -1.78125 255.748c-2.90332 18.543 -9.29102 47.8682 -34.8701 37.7627c-16.4873 -6.5127 -29.3027 -26.5068 -39.7783 -39.7949
c-26.917 -34.165 -51.5508 -69.9297 -74.5 -106.861c-10.6182 -17.085 -52.873 -17.4668 -38.5889 6.37012c25.8018 43.0684 53.8691 84.9697 84.8682 124.497c22.4766 28.6592 50.6807 55.5596 89.2578 57.4102c92.6787 4.45801 118.417 -131.329 126.364 -198.93
c12.1777 -103.604 5.35742 -209.826 3.18262 -313.88c-2.28906 -109.337 -3.2627 -218.771 -3.78613 -328.13c-0.0166016 -3.35352 -0.386719 -6.59863 -0.921875 -9.78711c18.5312 0.176758 36.9375 -0.694336 55.0479 -3.01758z" />
    <glyph glyph-name="two" unicode="2" horiz-adv-x="563" 
d="M513.124 477.951c-0.677734 -157.752 -42.3145 -317.314 -125.924 -451.906c-19.8291 -31.9219 -42.4648 -63.6729 -68.585 -91.8936c11.3125 -3.74609 22.5791 -7.62305 33.8174 -11.4541c36.1631 -12.3252 84.8789 -35.6553 122.658 -18.291
c26.4219 12.1377 41.1846 -17.9902 14.6201 -29.9746c-55.4971 -25.0439 -111.632 -2.47656 -165.443 16.3848c-12.0586 4.21875 -24.4131 8.625 -36.9834 12.8438c-23.7744 -20.5693 -50.1113 -37.8369 -79.4482 -49.8896
c-38.5879 -15.8496 -89.4395 -24.082 -126.041 0.386719c-20.9512 14.0049 -41.7715 34.6201 -26.5879 60.9619c15.9863 27.7314 59.0664 37.8936 87.9248 42.459c14.2158 2.24902 28.6426 3.13184 43.0693 2.98926c3.55273 3.28516 6.89453 6.56445 9.97461 9.74121
c38.2354 39.4707 67.2529 83.8379 93.3223 131.99c56.6123 104.566 94.7109 221.048 115.047 338.082c10.2646 59.1064 19.4873 124.896 2.15723 183.604c-17.2393 58.4121 -76.374 90.4414 -135.805 76.2139c-56.5898 -13.5381 -97.5918 -72.2861 -119.521 -122.671
c-20.2217 -46.4502 -37.29 -135.258 19.1064 -164.412c21.6904 -11.21 -9.67871 -39.0439 -26.7578 -30.2881c-68.9502 35.3486 -57.9336 131.882 -33.7207 191.934c27.2764 67.6465 81.0596 136.613 153.892 157.132c69.0127 19.4424 129.167 -8.48828 178.856 -55.0977
c55.1152 -51.6992 70.6855 -125.921 70.3721 -198.845zM105.048 -85.2393c-7.93652 -2.33398 -13.7139 -4.05273 2.65918 0.604492c-2.74414 -0.780273 -3.25684 -0.860352 -2.65918 -0.604492z" />
    <glyph glyph-name="three" unicode="3" horiz-adv-x="589" 
d="M391.203 366.496c54.6484 -21.9639 100.404 -64.6523 125.466 -119.922c70.3047 -154.99 -30.5498 -380.104 -200.667 -416.653c-38.6963 -8.31738 -78.958 -7.05957 -116.789 4.66797c-32.4912 10.0771 -61.207 34.2051 -84.4062 58.4746
c-48.9443 51.1982 -71.1025 121.981 -63.2627 191.797c2.21484 19.7549 50.0205 31.6025 48.3125 7.94141c-5.03809 -69.9004 26.0811 -153.624 98.082 -177.968c58.543 -19.7949 122.215 -10.0596 159.01 41.3096c40.416 56.4307 61.1221 141.953 39.3232 209.093
c-20.0283 61.6855 -69.7236 103.377 -133.965 108.654c-19.0723 1.57129 -36.1348 16.9316 -37.9512 36.1172c-2.1123 22.2832 13.5439 40.1201 29.166 53.4424c42.6982 36.4189 72.2461 88.6426 85.9668 142.688c13.7207 54.0508 21.4404 123.627 -17.6602 169.542
c-94.6484 111.136 -288.66 -64.3271 -195.384 -173.607c15.417 -18.0645 -21.0195 -41.3438 -35.8447 -27.082c-63.0293 60.6377 -31.8369 156.556 22.9316 211.432c56.6982 56.8066 135.451 76.5508 211.027 49.7871c162.363 -57.4951 143.997 -244.259 66.6445 -369.713z
" />
    <glyph glyph-name="four" unicode="4" horiz-adv-x="657" 
d="M534.629 723.93c25.0215 6.60938 66.8564 0.708984 68.3936 -32.4082c6.06348 -129.377 3.18262 -259.203 2.12402 -388.688c-0.541016 -66.2168 -2.07227 -132.337 -4.04199 -198.525c-1.85645 -62.3457 1.18945 -134.182 -18.1045 -193.994
c-5.6875 -17.6436 -21.292 -30.9375 -39.208 -35.4521c-13.4355 -3.3877 -37.0508 -2.80176 -43.165 13.1963c-21.9531 57.4102 -18.7246 128.859 -20.9277 189.525c-2.30566 63.501 -4.11035 126.934 -5.01562 190.469
c-0.102539 7.31543 -0.22168 14.6309 -0.335938 21.9521c-33.8857 -5.19238 -67.9482 -9.45703 -101.902 -14.2568c-19.8574 -43.8828 -47.999 -83.4502 -87.7539 -114.888c-35.0811 -27.7432 -79.2822 -50.7266 -124.167 -56.0381
c-36.9316 -4.36621 -84.6914 0.541016 -103.832 37.1143c-19.1514 36.5898 5.9043 65.2715 35.8789 84.2529c40.3584 25.5625 84.2188 44.1621 130.077 57.3643c16.3506 4.70215 32.8379 8.65918 49.4111 12.166c16.123 42.8633 24.8105 89.3135 30.5664 132.223
c13.5615 101.06 20.2451 203.024 32.833 304.254c2.41406 19.4141 36.2197 32.3486 50.4814 19.0723c20.5352 -19.1172 23.8262 -44.7422 26.8662 -71.3691c3.17676 -27.8506 6.2627 -56.0264 7.36719 -84.0537c2.3623 -59.8916 -1.7998 -121.446 -9.91797 -180.764
c-4.70215 -34.3643 -11.9834 -68.415 -22.8457 -100.877c28.8135 3.71777 57.666 7.24219 86.3877 11.4609c-1.80469 110.521 -3.71191 221.18 0.700195 331.587c1.34375 33.6406 28.5283 58.332 60.1309 66.6777zM206.033 193.166
c19.209 17.3184 34.5166 37.9961 46.9336 60.6094c-5.88672 -1.46875 -11.7617 -2.99414 -17.6143 -4.62207c-24.9756 -6.93457 -49.4277 -15.4287 -72.9404 -26.3711c-14.8994 -6.93457 -61.0654 -23.7119 -61.0771 -43.957
c-0.0166016 -28.7842 43.1201 -18.6787 57.7402 -13.208c17.4385 6.53027 33.0664 15.0186 46.958 27.5488z" />
    <glyph glyph-name="five" unicode="5" horiz-adv-x="608" 
d="M501.21 330.886c144.299 -198.941 -12.8408 -498.813 -256.263 -503.847c-50.4131 -1.04199 -102.295 12.3369 -139.517 48.0049c-38.1387 36.5557 -55.0703 91.8301 -54.7568 143.672c0.581055 97.0459 51.8652 184.584 134.649 234.285
c22.8926 13.7432 35.4629 -13.8057 13.2598 -27.1904c-101.605 -61.2637 -153.18 -233.316 -53.0596 -320.473c46.8604 -40.791 114.433 -42.9541 167.687 -13.8682c40.165 21.9355 74.0283 68.3916 93.0381 109.365c42.5166 91.6367 16.7324 208.893 -53.4355 279.926
c-34.9277 35.3545 -79.6934 60.416 -128.934 68.5742c-23.9795 3.97363 -47.5889 3.09082 -71.6826 -0.176758c-32.4053 -4.38965 -78.8555 -14.4609 -97.3242 23.4102c-14.2324 29.1777 6.33691 68.4893 15.5596 96.3516c10.6523 32.1602 22.4941 63.7178 35.1729 95.1328
c21.9248 54.3066 49.4795 107.304 69.9404 162.157c-38.9697 3.49023 -82.71 1.50879 -78.3203 -28.1865c2.98926 -20.2109 -39.4248 -34.3867 -42.8184 -11.415c-10.3613 70.0771 75.5088 76.3965 137.678 72.6562c6.09766 6.18848 13.8574 10.7539 22.5283 12.9854
c10.4014 2.67578 32.667 2.60156 36.5898 -11.1875c0.802734 -2.81836 1.53711 -5.60254 2.27148 -8.38672c44.1279 -5.79004 88.2783 -11.5684 132.469 -16.8232c46.4844 -5.52832 95.9863 -9.26855 132.781 24.623c17.2959 15.9355 53.9199 -1.08105 32.3711 -21.2637
c-55.5713 -52.041 -125.512 -49.502 -196.454 -39.0889c-31.3633 4.59961 -62.71 9.31934 -94.0566 13.999c1.16699 -12.9922 0.950195 -26.1318 -1.41797 -39.9609c-4.69727 -27.4521 -12.0186 -54.1357 -19.5566 -80.9102
c-8.47754 -30.1172 -16.0205 -60.4727 -24.4463 -90.6006c-3.1543 -11.2842 -6.18262 -22.6025 -9.20605 -33.9209c16.7207 0.722656 33.5498 0.1875 50.2197 -1.06543c31.415 -2.35156 62.1807 -10.0371 91.8193 -20.5977
c61.6172 -21.9531 114.99 -63.4844 153.214 -116.181z" />
    <glyph glyph-name="six" unicode="6" horiz-adv-x="580" 
d="M270.686 -122.215c-69.8545 8.36328 -135.466 51.0088 -173.297 109.95c-41.7598 65.0615 -50.1455 146.645 -46.6836 222.096c7.28125 158.851 50.6855 321.333 162.807 439.466c49.1543 51.791 115.314 107.322 190.361 109.195
c55.332 1.38379 118.372 -25.3857 125.973 -86.0977c2.49902 -19.9375 -38.167 -33.874 -42.2266 -11.2549c-4.90723 27.3438 -31.2783 51.8125 -59.6982 53.708c-27.2812 1.81641 -51.1865 -21.1494 -68.6416 -39.2363
c-39.9941 -41.4346 -69.7578 -89.041 -94.8252 -140.695c-49.1777 -101.344 -67.8516 -213.066 -69.1611 -324.988c49.9688 36.4873 106.474 64.0537 170.311 59.0098c76.0771 -6.01172 131.415 -64.8955 143.979 -138.411
c11.3574 -66.4502 -7.27051 -141.531 -54.8311 -190.526c-46.502 -47.9023 -118.526 -70.0713 -184.066 -62.2148zM456.512 151.447c-22.0605 55.1719 -74.4111 88.541 -133.962 81.0654c-48.6992 -6.1084 -89.6953 -34.8926 -126.609 -66.1826
c3.79199 -84.3271 24.7656 -178.686 106.793 -215.816c120.963 -54.7627 192.617 103.797 153.778 200.934z" />
    <glyph glyph-name="seven" unicode="7" horiz-adv-x="533" 
d="M58.3945 707.351c-24.1445 8.24414 9.5625 38.9004 28.6797 32.4785c30.9424 -10.4014 65.1699 3.22852 95.5254 10.3848c26.8662 6.33105 53.8516 12.1611 81.1787 16.1465c45.4141 6.62695 96.5781 10.0938 140.358 -6.67871
c38.2695 -14.6602 69.2627 -45.1299 76.709 -86.2227c8.50586 -46.9111 -10.0312 -97.7344 -22.8467 -142.237c-20.9053 -72.6104 -45.9609 -143.929 -70.7656 -215.315c16.9658 0.933594 33.9258 1.91895 50.8857 3.1084
c30.6406 2.15234 14.4268 -34.751 -8.68164 -36.2715c-18.252 -1.20117 -36.5156 -2.25488 -54.7852 -3.23438c-6.16602 -17.9111 -12.292 -35.8389 -18.2637 -53.8125c-16.2031 -48.7676 -30.9365 -97.9854 -44.5947 -147.527
c-14.6484 -53.1514 -21.3496 -109.542 -39.6357 -161.464c-11.8242 -33.5723 -40.6201 -55.3652 -75.4111 -61.2744c-25.9775 -4.41211 -66.0234 4.52051 -67.2705 37.8193c-1.96387 52.4336 14.0107 105.744 27.5889 155.98
c13.5664 50.1963 30.2363 99.3682 48.1182 148.176c9.43945 25.7559 19.2432 51.3691 29.292 76.8799c-15.9121 -0.341797 -31.8242 -0.660156 -47.7422 -0.819336c-31.5 -0.318359 -15.1318 37.2568 8.91602 37.2344c17.8535 -0.0166016 35.6963 0.160156 53.5391 0.416016
c23.4102 57.8311 47.9648 115.212 72.7305 172.479c20.2793 46.8945 42.1641 93.1514 61.9023 140.268c8.28906 19.7783 18.9805 41.4746 18.5645 63.3936c-0.512695 27.2988 -18.3721 37.416 -42.2031 42.9668c-53.043 12.3545 -111.984 -0.1875 -163.985 -11.915
c-45.8018 -10.3271 -91.4492 -26.7803 -137.803 -10.959z" />
    <glyph glyph-name="eight" unicode="8" horiz-adv-x="519" 
d="M67.5645 -26.8379c-36.9482 119.078 7.48535 253.47 79.5488 354.5c-3.01172 3.0918 -6.01172 6.2002 -8.96094 9.36523c-54.29 58.3203 -91.3008 132.667 -87.9414 213.761c3.33594 80.4727 43.3477 158.145 114.859 198.475
c58.3037 32.8779 139.83 47.3613 185.95 -11.9609c45.0898 -58.002 40.2568 -148.967 27.9307 -217.108c-9.87793 -54.5742 -28.8252 -106.724 -50.71 -157.632c10.0088 -9.50195 19.8691 -19.1006 29.3428 -28.9893c58.3721 -60.9336 100.137 -134.358 109.57 -219.317
c8.81348 -79.3516 -12.0117 -160.018 -73.1045 -214.279c-47.333 -42.0439 -118.39 -66.8828 -181.578 -56.123c-69.7695 11.8818 -124.116 62.3008 -144.907 129.31zM199.389 695.65c-52.4619 -57.7227 -29.6211 -135.828 4.99902 -196.136
c23.0459 -40.1533 55.4854 -72.7637 89.0293 -104.326c22.8184 57.4551 40.2617 116.835 42.4824 178.907c1.57715 44.042 -1.08691 97.9502 -32.0635 132.576c-32.793 36.6523 -75.7021 20.6035 -104.447 -11.0215zM106.636 122.912
c-12.2861 -78.7822 0.269531 -176.14 74.8096 -221.008c65.8125 -39.6133 155.57 -22.1523 175.388 58.8389c17.3184 70.7598 -13.5615 145.784 -51.7793 204.287c-35.1553 53.8115 -84.6748 93.1914 -130.932 136.346c-34.21 -54.0967 -57.5576 -114.786 -67.4863 -178.464
z" />
    <glyph glyph-name="nine" unicode="9" horiz-adv-x="639" 
d="M423.966 716.921c4.70801 -5.0332 4.68066 -10.668 2.03906 -15.7402c27.5146 1.03027 55.3145 -9.83203 75.0527 -28.6592c55.0928 -52.5361 72.1719 -133.886 81.5488 -206.82c10.4473 -81.2588 5.87598 -163.775 -2.31641 -245.028
c-8.2666 -81.9756 -21.3271 -163.348 -54.3818 -239.38c-31.6934 -72.9062 -100.438 -136.197 -183.012 -140.854c-73.7949 -4.15625 -120.906 42.2598 -142.067 109.188c-9.48438 30.0088 40.5469 54 58.4463 28.5059c16.3223 -23.251 50.6631 -59.2148 82.9033 -51.25
c21.7764 5.38574 36.3105 38.2578 44.8105 59.584c32.1094 80.5693 42.9834 171.973 52.1895 257.609c8.58496 79.9033 15.9463 159.522 11.6309 239.983c-2.00391 37.3809 -9.40527 73.6914 -13.0605 110.68c-1.84473 18.6738 -5.86426 33.4414 -13.8115 50.6406
c-9.82617 21.2578 -19.749 14.7959 -30.623 -2.37988c-36.1348 -57.0566 -57.7236 -122.277 -93.4424 -179.688c-32.1436 -51.665 -78.3496 -106.764 -140.046 -122.066c-62.1006 -15.4053 -112.81 24.6748 -109.689 88.3701
c3.00586 61.3604 28.5566 122.909 63.0742 173.037c55.9463 81.2412 216.243 215.281 310.755 114.268zM353.6 649.561c9.58691 15.5703 21.2549 30.6221 36.2959 40.4141c-0.255859 0.22168 -0.551758 0.370117 -0.796875 0.609375
c-63.9004 63.752 -166.662 -14.9844 -212.19 -66.1318c-24.9072 -27.9873 -45.0947 -60.125 -59.4814 -94.7275c-13.7266 -33.0146 -27.8516 -77.1816 -21.6514 -113.271c9.00684 -52.4053 64.0537 -47.1846 97.8428 -22.4248
c27.1445 19.8916 48.6416 47.5771 66.2959 75.8896c35.8154 57.4326 58.2461 122.062 93.6855 179.642z" />
    <glyph glyph-name="colon" unicode=":" horiz-adv-x="179" 
d="M113.222 354.279c0.814453 -28.1523 -54.7549 -49.2246 -60.5566 -16.1416c-3.60938 20.5693 -4.81055 46.8203 4.65137 65.8984c7.82812 15.7705 33.9023 22.7676 45.0264 7.62402c5.84082 -7.95312 6.3418 -18.7988 8.07227 -28.3232
c1.77051 -9.75195 2.52246 -19.1514 2.80664 -29.0576zM128.942 94.5049c2.88086 -18.5938 -19.084 -33.126 -33.8574 -37.5439c-7.76562 -2.32324 -18.4404 -2.33984 -25.9268 1.18945c-5.7041 2.69238 -13.1162 9.91699 -12.5928 17.0615
c1.77637 24.1045 -4.22949 54.7568 17.6318 71.2666c7.54297 5.69922 18.3711 8.00488 27.4863 5.06738c7.99316 -2.5791 12.4111 -8.70508 16.5615 -15.6562c6.96289 -11.6543 8.63672 -28.0566 10.6973 -41.3848z" />
    <glyph glyph-name="semicolon" unicode=";" horiz-adv-x="234" 
d="M172.207 374.877c-0.506836 -29.6846 -55.5479 -52.082 -64.1045 -17.0918c-5.19238 21.2637 -1.21875 44.293 3.1875 65.4434c3.2793 15.7588 35.1328 30.208 44.1621 11.9277c9.2168 -18.6562 17.1133 -39.2314 16.7549 -60.2793zM177.644 153.259
c19.0264 -79.1973 -11.1064 -153.089 -41.1211 -225.95c-16.9941 -41.2578 -105.568 -41.5713 -82.8076 13.6689c27.8447 67.6064 56.7266 135.565 79.7158 205.011c5.44824 16.4648 38.5537 30.8174 44.2129 7.27051z" />
    <glyph glyph-name="less" unicode="&#x3c;" horiz-adv-x="421" 
d="M350.179 146.713c27.5947 -9.53027 23.6973 -41.8896 11.041 -60.7568c-14.9277 -22.2314 -50.6748 -41.3379 -78.1611 -34.1133c-53.9766 14.1934 -106.2 34.3584 -156.42 58.6738c-41.8613 20.2676 -90.5039 48.4883 -72.9521 102.892
c8.25488 25.5908 29.4502 42.5508 49.8262 58.543c22.9434 18.0078 46.291 35.5146 69.792 52.7764c44.4463 32.6387 90.0029 66.0059 141.07 87.4404c13.5322 5.67578 31.3857 9.02344 43.5576 -1.82227c0.0849609 -0.0800781 0.175781 -0.154297 0.260742 -0.234375
c1.51465 -1.90723 2.94922 -3.87109 4.30371 -5.89258c6.42188 -9.36523 -0.848633 -23.4326 -7.01465 -30.5488c-27.9648 -32.2803 -61.543 -59.1406 -94.3467 -86.3428c-15.2803 -12.6787 -30.5264 -25.3857 -45.6074 -38.2979
c-3.93945 -3.37012 -22.8408 -22.4082 -34.9385 -32.667c2.24902 -1.39453 3.90527 -2.35059 3.58691 -2.15137c15.9639 -10.1396 35.2471 -17.4326 52.4863 -25.0215c37.085 -16.3164 75.2578 -29.2627 113.516 -42.4766zM170.618 224.454
c-0.444336 -0.182617 -0.205078 -0.676758 0.466797 -1.36035c-0.15332 0.455078 -0.255859 0.905273 -0.466797 1.36035z" />
    <glyph glyph-name="equal" unicode="=" horiz-adv-x="448" 
d="M194.626 234.963c-41.2295 -0.416016 -84.1045 -4.66699 -124.993 1.78906c-39.5273 6.23926 -11.1182 50.1504 13.2822 55.9805c45.8926 10.9648 94.5459 16.0713 141.366 21.8154c47.2705 5.80176 95.252 7.58398 142.597 2.0498
c25.4316 -2.97754 35.543 -28.3066 24.1797 -49.5762c-13.4414 -25.1582 -42.8584 -35.793 -69.8213 -34.0566c-42.2998 2.72656 -84.2588 2.41895 -126.61 1.99805zM374.188 199.354c19.5332 -1.91895 28.3184 -20.2607 22.1299 -37.1406
c-6.93457 -18.9014 -29.8955 -33.4531 -49.8789 -33.7266c-47.1904 -0.654297 -94.4717 1.34375 -141.708 1.07031c-43.3936 -0.250977 -90.5439 -7.7832 -133.009 2.79492c-21.7363 5.41406 -13.1172 28.3516 2.67578 35.9121
c45.1182 21.5996 97.501 25.5625 146.775 29.9521c50.5322 4.50879 102.499 6.10254 153.015 1.1377z" />
    <glyph glyph-name="greater" unicode="&#x3e;" horiz-adv-x="423" 
d="M290.289 315.355c37.4951 -22.0439 84.9512 -46.8027 82.127 -97.4258c-2.875 -51.6602 -52.1318 -82.2607 -93.5039 -103.086c-47.9814 -24.1504 -95.7012 -49.2861 -145.061 -70.4932c-24.2871 -10.4355 -65.4541 -16.6748 -80.0283 13.2139
c-14.54 29.8096 15.4287 58.2012 38.8613 71.1982c34.5234 19.1514 70.2256 35.792 105.785 52.9229c16.248 7.82227 32.9346 17.9395 49.8945 24.6797c-3.49023 4.13281 -8.2041 10.1963 -9.11523 11.0215c-5.29492 4.78809 -11.1016 9.00098 -16.7832 13.3164
c-16.1113 12.2402 -32.4961 24.1387 -48.5166 36.4932c-31.5908 24.3613 -62.2656 50.0322 -91.4434 77.2109c-29.957 27.9082 30.6406 64.3672 56.6582 52.2178c51.916 -24.2412 101.754 -52.2402 151.125 -81.2695z" />
    <glyph glyph-name="question" unicode="?" horiz-adv-x="526" 
d="M388.767 833.205c101.76 -47.2246 93.4922 -174.3 76.2305 -266.045c-20.5635 -109.269 -66.8828 -211.637 -105.722 -315.161c-20.5469 -54.751 -38.9639 -110.453 -52.582 -167.367c-13.0205 -54.4326 -17.3984 -108.403 -19.9492 -164.105
c-1.68555 -36.7549 -30.9707 -63.6494 -65.6592 -72.8096c-29.6045 -7.81641 -69.8604 -0.227539 -74.7051 35.3945c-14.8193 108.967 21.1328 224.891 59.8467 325.506c34.0225 88.4199 75.4688 173.806 109.32 262.237c17.4551 45.6074 33.6465 92.251 45.0781 139.766
c9.76953 40.6094 18.9639 87.3555 2.52246 127.464c-35.4229 86.4219 -146.604 55.3545 -200.245 5.27148c-66.9453 -62.5107 -82.4141 -162.585 -47.9531 -245.677c9.08594 -21.9014 -35.4121 -43.165 -44.4531 -21.6787
c-41.7139 99.1807 -18.8271 214.774 60.1885 288.569c62.4941 58.3604 174.308 107.515 258.082 68.6357zM288.446 -193.188c15.4111 -23.0576 14.1416 -62.6973 17.4951 -89.626c5.5166 -44.1445 -88.375 -72.5879 -91.2959 -24.333
c-1.75879 29.1201 -9.24512 66.1084 0.546875 94.1758c9.34277 26.7803 53.7891 48.9209 73.2539 19.7832z" />
    <glyph glyph-name="at" unicode="@" horiz-adv-x="1010" 
d="M834.801 701.722c80.4951 -82.9092 122.651 -194.897 124.718 -309.819c1.11035 -61.6963 -7.9248 -124.27 -25.4141 -183.398c-16.709 -56.4873 -39.7266 -117.308 -79.0947 -162.17c-36.2139 -41.2637 -89.6387 -71.249 -145.118 -73.0195
c-62.2832 -1.9873 -117.723 39.1455 -138.406 97.2383c-18.3545 51.5576 -14.665 112.565 -9.12012 168.433c-9.42188 -20.125 -19.8516 -39.6465 -31.7393 -58.2236c-23.8428 -37.2676 -59.0381 -65.7676 -103.376 -73.2939
c-46.7861 -7.94238 -95.3828 7.08789 -115.292 53.6689c-21.4863 50.2588 -3.26855 107.515 14.7275 155.906c18.6396 50.1172 43.0742 96.835 78.5771 137.251c34.3467 39.1064 83.1309 76.4531 137.529 77.7744c35.332 0.853516 57.1826 -17.5469 68.3643 -45.2607
c1.86719 0.585938 3.75195 1.04102 5.61914 1.35938c0.0341797 0.0966797 0.0683594 0.199219 0.102539 0.295898c6.76367 18.7305 22.8408 31.5342 42.5732 34.5967c13.6182 2.11816 38.5879 -2.32812 37.9785 -21.3486
c-2.12305 -66.376 -3.43848 -132.878 -5.18652 -199.328c-1.61133 -61.2529 -5.4541 -123.9 5.76172 -184.498c7.63477 -41.2412 39.1006 -91.9443 88.085 -70.7314c50.5723 21.9014 77.2051 96.1797 93.7441 143.951c67.1738 194.074 24.458 435.355 -165.374 543.98
c-184.953 105.83 -406.759 2.75 -521.396 -157.342c-122.232 -170.698 -108.99 -403.97 1.14941 -577.349c54.6943 -86.0977 137.895 -156.01 242.091 -167.288c108.295 -11.7227 212.377 41.5996 293.453 108.955c25.1465 20.8936 59.835 -3.87695 31.3633 -29.0176
c-103.575 -91.4492 -239.722 -146.98 -379.278 -122.466c-134.877 23.6953 -230.704 130.413 -283.872 251.119c-93.5723 212.445 -48.9834 478.965 122.671 638.766c167.589 156.016 444.8 195.691 614.16 21.2588zM526.281 269.09
c23.2393 54.9619 39.8408 112.395 55.5254 169.918c-2.20312 1.30371 -4.03613 3.18848 -5.16309 5.92676c-20.9336 50.7998 -88.5742 -54.4551 -97.5869 -71.2041c-27.5039 -51.1074 -52.5254 -115.708 -43.8262 -174.587
c1.02441 -6.96875 3.95117 -29.8779 11.5234 -34.1475c10.0371 -5.65332 26.5303 12.3203 31.9902 18.3496c21.7988 24.0703 35.0352 56.1855 47.5371 85.7441z" />
    <glyph glyph-name="A" unicode="A" horiz-adv-x="1357" 
d="M13.7969 -394.4c-75.4688 50.6631 -111.363 145.213 -118.872 233.184c-17.8594 209.155 155.457 367.419 342.512 419.625c117.017 32.6562 241.64 37.8145 362.369 32.167c14.3242 -0.677734 28.625 -1.55469 42.9092 -2.5791
c31.4375 106.639 69.0176 212.133 116.043 312.941c34.8994 74.8193 63.8828 159.533 127.902 213.436c15.4912 19.5498 43.6719 32.542 64.5605 36.0947c25.2607 4.29297 67.3105 -4.45703 67.5439 -37.9727c1.16699 -167.516 -9.99707 -334.832 -7.89648 -502.501
c0.939453 -74.8535 5.6709 -149.325 10.1396 -224.02c3.95117 -66.0693 7.74805 -133.288 20.3809 -198.39c10.4922 -54.0566 29.3477 -123.018 72.0518 -161.133c30.9766 -27.6455 64.2021 -6.74609 87.7207 19.0439c55.8779 61.2695 82.5166 149.98 104.339 228.085
c21.9639 78.6113 37.666 158.902 50.3789 239.483c3.35352 21.2471 49.1152 29.6445 44.9932 2.72168c-15.7812 -103.074 -35.9746 -206.382 -69.2393 -305.386c-25.9092 -77.1084 -61.0869 -168.934 -132.61 -215.202c-107.919 -69.8154 -213.254 42.4082 -252.047 137.984
c-49.6445 122.312 -65.4717 260.649 -75.0645 393.181c-45.0215 -0.848633 -90.8174 4.20117 -136.306 10.0371c-11.2217 -52.1719 -23.3994 -104.145 -37.9229 -155.673c-60.0908 -213.243 -165.46 -432.281 -392.15 -504.499
c-95.543 -30.4355 -206.6 -27.7822 -291.735 29.3711zM781.61 462.503c-12.8154 -61.3555 -24.5303 -122.848 -37.1523 -184.135c13.4756 -1.53125 26.9453 -3.125 40.415 -4.78711c28.1016 -3.4668 56.2598 -6.6377 84.3096 -7.42383
c-0.375977 5.6875 -0.751953 11.3867 -1.11621 17.04c-9.74707 151.944 -10.5156 307.948 2.98828 460.212c-17.9502 -29.5137 -31.1299 -62.8301 -42.8291 -92.918c-23.2051 -59.6758 -33.5723 -125.534 -46.6152 -187.988zM-15.0537 33.6094
c-43.6553 -77.501 -55.9873 -175.065 -14.3877 -256.182c39.2432 -76.5273 121.293 -134.312 207.926 -138.28c85.1357 -3.89941 164.351 36.1348 221.977 96.7666c129.935 136.71 179.863 334.484 230.925 513.027c-9.12012 0.819336 -18.1895 1.51953 -27.2021 2.03223
c-130.367 7.37305 -267.606 2.85254 -392.491 -38.7305c-93.8457 -31.2441 -177.66 -91.5 -226.746 -178.634z" />
    <glyph glyph-name="A" unicode="&#xc5;" horiz-adv-x="1357" 
d="M13.7969 -394.4c-75.4688 50.6631 -111.363 145.213 -118.872 233.184c-17.8594 209.155 155.457 367.419 342.512 419.625c117.017 32.6562 241.64 37.8145 362.369 32.167c14.3242 -0.677734 28.625 -1.55469 42.9092 -2.5791
c31.4375 106.639 69.0176 212.133 116.043 312.941c34.8994 74.8193 63.8828 159.533 127.902 213.436c15.4912 19.5498 43.6719 32.542 64.5605 36.0947c25.2607 4.29297 67.3105 -4.45703 67.5439 -37.9727c1.16699 -167.516 -9.99707 -334.832 -7.89648 -502.501
c0.939453 -74.8535 5.6709 -149.325 10.1396 -224.02c3.95117 -66.0693 7.74805 -133.288 20.3809 -198.39c10.4922 -54.0566 29.3477 -123.018 72.0518 -161.133c30.9766 -27.6455 64.2021 -6.74609 87.7207 19.0439c55.8779 61.2695 82.5166 149.98 104.339 228.085
c21.9639 78.6113 37.666 158.902 50.3789 239.483c3.35352 21.2471 49.1152 29.6445 44.9932 2.72168c-15.7812 -103.074 -35.9746 -206.382 -69.2393 -305.386c-25.9092 -77.1084 -61.0869 -168.934 -132.61 -215.202c-107.919 -69.8154 -213.254 42.4082 -252.047 137.984
c-49.6445 122.312 -65.4717 260.649 -75.0645 393.181c-45.0215 -0.848633 -90.8174 4.20117 -136.306 10.0371c-11.2217 -52.1719 -23.3994 -104.145 -37.9229 -155.673c-60.0908 -213.243 -165.46 -432.281 -392.15 -504.499
c-95.543 -30.4355 -206.6 -27.7822 -291.735 29.3711zM781.61 462.503c-12.8154 -61.3555 -24.5303 -122.848 -37.1523 -184.135c13.4756 -1.53125 26.9453 -3.125 40.415 -4.78711c28.1016 -3.4668 56.2598 -6.6377 84.3096 -7.42383
c-0.375977 5.6875 -0.751953 11.3867 -1.11621 17.04c-9.74707 151.944 -10.5156 307.948 2.98828 460.212c-17.9502 -29.5137 -31.1299 -62.8301 -42.8291 -92.918c-23.2051 -59.6758 -33.5723 -125.534 -46.6152 -187.988zM-15.0537 33.6094
c-43.6553 -77.501 -55.9873 -175.065 -14.3877 -256.182c39.2432 -76.5273 121.293 -134.312 207.926 -138.28c85.1357 -3.89941 164.351 36.1348 221.977 96.7666c129.935 136.71 179.863 334.484 230.925 513.027c-9.12012 0.819336 -18.1895 1.51953 -27.2021 2.03223
c-130.367 7.37305 -267.606 2.85254 -392.491 -38.7305c-93.8457 -31.2441 -177.66 -91.5 -226.746 -178.634z" />
    <glyph glyph-name="A" unicode="&#xc4;" horiz-adv-x="1357" 
d="M13.7969 -394.4c-75.4688 50.6631 -111.363 145.213 -118.872 233.184c-17.8594 209.155 155.457 367.419 342.512 419.625c117.017 32.6562 241.64 37.8145 362.369 32.167c14.3242 -0.677734 28.625 -1.55469 42.9092 -2.5791
c31.4375 106.639 69.0176 212.133 116.043 312.941c34.8994 74.8193 63.8828 159.533 127.902 213.436c15.4912 19.5498 43.6719 32.542 64.5605 36.0947c25.2607 4.29297 67.3105 -4.45703 67.5439 -37.9727c1.16699 -167.516 -9.99707 -334.832 -7.89648 -502.501
c0.939453 -74.8535 5.6709 -149.325 10.1396 -224.02c3.95117 -66.0693 7.74805 -133.288 20.3809 -198.39c10.4922 -54.0566 29.3477 -123.018 72.0518 -161.133c30.9766 -27.6455 64.2021 -6.74609 87.7207 19.0439c55.8779 61.2695 82.5166 149.98 104.339 228.085
c21.9639 78.6113 37.666 158.902 50.3789 239.483c3.35352 21.2471 49.1152 29.6445 44.9932 2.72168c-15.7812 -103.074 -35.9746 -206.382 -69.2393 -305.386c-25.9092 -77.1084 -61.0869 -168.934 -132.61 -215.202c-107.919 -69.8154 -213.254 42.4082 -252.047 137.984
c-49.6445 122.312 -65.4717 260.649 -75.0645 393.181c-45.0215 -0.848633 -90.8174 4.20117 -136.306 10.0371c-11.2217 -52.1719 -23.3994 -104.145 -37.9229 -155.673c-60.0908 -213.243 -165.46 -432.281 -392.15 -504.499
c-95.543 -30.4355 -206.6 -27.7822 -291.735 29.3711zM781.61 462.503c-12.8154 -61.3555 -24.5303 -122.848 -37.1523 -184.135c13.4756 -1.53125 26.9453 -3.125 40.415 -4.78711c28.1016 -3.4668 56.2598 -6.6377 84.3096 -7.42383
c-0.375977 5.6875 -0.751953 11.3867 -1.11621 17.04c-9.74707 151.944 -10.5156 307.948 2.98828 460.212c-17.9502 -29.5137 -31.1299 -62.8301 -42.8291 -92.918c-23.2051 -59.6758 -33.5723 -125.534 -46.6152 -187.988zM-15.0537 33.6094
c-43.6553 -77.501 -55.9873 -175.065 -14.3877 -256.182c39.2432 -76.5273 121.293 -134.312 207.926 -138.28c85.1357 -3.89941 164.351 36.1348 221.977 96.7666c129.935 136.71 179.863 334.484 230.925 513.027c-9.12012 0.819336 -18.1895 1.51953 -27.2021 2.03223
c-130.367 7.37305 -267.606 2.85254 -392.491 -38.7305c-93.8457 -31.2441 -177.66 -91.5 -226.746 -178.634z" />
    <glyph glyph-name="A" unicode="&#xc3;" horiz-adv-x="1357" 
d="M13.7969 -394.4c-75.4688 50.6631 -111.363 145.213 -118.872 233.184c-17.8594 209.155 155.457 367.419 342.512 419.625c117.017 32.6562 241.64 37.8145 362.369 32.167c14.3242 -0.677734 28.625 -1.55469 42.9092 -2.5791
c31.4375 106.639 69.0176 212.133 116.043 312.941c34.8994 74.8193 63.8828 159.533 127.902 213.436c15.4912 19.5498 43.6719 32.542 64.5605 36.0947c25.2607 4.29297 67.3105 -4.45703 67.5439 -37.9727c1.16699 -167.516 -9.99707 -334.832 -7.89648 -502.501
c0.939453 -74.8535 5.6709 -149.325 10.1396 -224.02c3.95117 -66.0693 7.74805 -133.288 20.3809 -198.39c10.4922 -54.0566 29.3477 -123.018 72.0518 -161.133c30.9766 -27.6455 64.2021 -6.74609 87.7207 19.0439c55.8779 61.2695 82.5166 149.98 104.339 228.085
c21.9639 78.6113 37.666 158.902 50.3789 239.483c3.35352 21.2471 49.1152 29.6445 44.9932 2.72168c-15.7812 -103.074 -35.9746 -206.382 -69.2393 -305.386c-25.9092 -77.1084 -61.0869 -168.934 -132.61 -215.202c-107.919 -69.8154 -213.254 42.4082 -252.047 137.984
c-49.6445 122.312 -65.4717 260.649 -75.0645 393.181c-45.0215 -0.848633 -90.8174 4.20117 -136.306 10.0371c-11.2217 -52.1719 -23.3994 -104.145 -37.9229 -155.673c-60.0908 -213.243 -165.46 -432.281 -392.15 -504.499
c-95.543 -30.4355 -206.6 -27.7822 -291.735 29.3711zM781.61 462.503c-12.8154 -61.3555 -24.5303 -122.848 -37.1523 -184.135c13.4756 -1.53125 26.9453 -3.125 40.415 -4.78711c28.1016 -3.4668 56.2598 -6.6377 84.3096 -7.42383
c-0.375977 5.6875 -0.751953 11.3867 -1.11621 17.04c-9.74707 151.944 -10.5156 307.948 2.98828 460.212c-17.9502 -29.5137 -31.1299 -62.8301 -42.8291 -92.918c-23.2051 -59.6758 -33.5723 -125.534 -46.6152 -187.988zM-15.0537 33.6094
c-43.6553 -77.501 -55.9873 -175.065 -14.3877 -256.182c39.2432 -76.5273 121.293 -134.312 207.926 -138.28c85.1357 -3.89941 164.351 36.1348 221.977 96.7666c129.935 136.71 179.863 334.484 230.925 513.027c-9.12012 0.819336 -18.1895 1.51953 -27.2021 2.03223
c-130.367 7.37305 -267.606 2.85254 -392.491 -38.7305c-93.8457 -31.2441 -177.66 -91.5 -226.746 -178.634z" />
    <glyph glyph-name="A" unicode="&#xc2;" horiz-adv-x="1357" 
d="M13.7969 -394.4c-75.4688 50.6631 -111.363 145.213 -118.872 233.184c-17.8594 209.155 155.457 367.419 342.512 419.625c117.017 32.6562 241.64 37.8145 362.369 32.167c14.3242 -0.677734 28.625 -1.55469 42.9092 -2.5791
c31.4375 106.639 69.0176 212.133 116.043 312.941c34.8994 74.8193 63.8828 159.533 127.902 213.436c15.4912 19.5498 43.6719 32.542 64.5605 36.0947c25.2607 4.29297 67.3105 -4.45703 67.5439 -37.9727c1.16699 -167.516 -9.99707 -334.832 -7.89648 -502.501
c0.939453 -74.8535 5.6709 -149.325 10.1396 -224.02c3.95117 -66.0693 7.74805 -133.288 20.3809 -198.39c10.4922 -54.0566 29.3477 -123.018 72.0518 -161.133c30.9766 -27.6455 64.2021 -6.74609 87.7207 19.0439c55.8779 61.2695 82.5166 149.98 104.339 228.085
c21.9639 78.6113 37.666 158.902 50.3789 239.483c3.35352 21.2471 49.1152 29.6445 44.9932 2.72168c-15.7812 -103.074 -35.9746 -206.382 -69.2393 -305.386c-25.9092 -77.1084 -61.0869 -168.934 -132.61 -215.202c-107.919 -69.8154 -213.254 42.4082 -252.047 137.984
c-49.6445 122.312 -65.4717 260.649 -75.0645 393.181c-45.0215 -0.848633 -90.8174 4.20117 -136.306 10.0371c-11.2217 -52.1719 -23.3994 -104.145 -37.9229 -155.673c-60.0908 -213.243 -165.46 -432.281 -392.15 -504.499
c-95.543 -30.4355 -206.6 -27.7822 -291.735 29.3711zM781.61 462.503c-12.8154 -61.3555 -24.5303 -122.848 -37.1523 -184.135c13.4756 -1.53125 26.9453 -3.125 40.415 -4.78711c28.1016 -3.4668 56.2598 -6.6377 84.3096 -7.42383
c-0.375977 5.6875 -0.751953 11.3867 -1.11621 17.04c-9.74707 151.944 -10.5156 307.948 2.98828 460.212c-17.9502 -29.5137 -31.1299 -62.8301 -42.8291 -92.918c-23.2051 -59.6758 -33.5723 -125.534 -46.6152 -187.988zM-15.0537 33.6094
c-43.6553 -77.501 -55.9873 -175.065 -14.3877 -256.182c39.2432 -76.5273 121.293 -134.312 207.926 -138.28c85.1357 -3.89941 164.351 36.1348 221.977 96.7666c129.935 136.71 179.863 334.484 230.925 513.027c-9.12012 0.819336 -18.1895 1.51953 -27.2021 2.03223
c-130.367 7.37305 -267.606 2.85254 -392.491 -38.7305c-93.8457 -31.2441 -177.66 -91.5 -226.746 -178.634z" />
    <glyph glyph-name="A" unicode="&#xc1;" horiz-adv-x="1357" 
d="M13.7969 -394.4c-75.4688 50.6631 -111.363 145.213 -118.872 233.184c-17.8594 209.155 155.457 367.419 342.512 419.625c117.017 32.6562 241.64 37.8145 362.369 32.167c14.3242 -0.677734 28.625 -1.55469 42.9092 -2.5791
c31.4375 106.639 69.0176 212.133 116.043 312.941c34.8994 74.8193 63.8828 159.533 127.902 213.436c15.4912 19.5498 43.6719 32.542 64.5605 36.0947c25.2607 4.29297 67.3105 -4.45703 67.5439 -37.9727c1.16699 -167.516 -9.99707 -334.832 -7.89648 -502.501
c0.939453 -74.8535 5.6709 -149.325 10.1396 -224.02c3.95117 -66.0693 7.74805 -133.288 20.3809 -198.39c10.4922 -54.0566 29.3477 -123.018 72.0518 -161.133c30.9766 -27.6455 64.2021 -6.74609 87.7207 19.0439c55.8779 61.2695 82.5166 149.98 104.339 228.085
c21.9639 78.6113 37.666 158.902 50.3789 239.483c3.35352 21.2471 49.1152 29.6445 44.9932 2.72168c-15.7812 -103.074 -35.9746 -206.382 -69.2393 -305.386c-25.9092 -77.1084 -61.0869 -168.934 -132.61 -215.202c-107.919 -69.8154 -213.254 42.4082 -252.047 137.984
c-49.6445 122.312 -65.4717 260.649 -75.0645 393.181c-45.0215 -0.848633 -90.8174 4.20117 -136.306 10.0371c-11.2217 -52.1719 -23.3994 -104.145 -37.9229 -155.673c-60.0908 -213.243 -165.46 -432.281 -392.15 -504.499
c-95.543 -30.4355 -206.6 -27.7822 -291.735 29.3711zM781.61 462.503c-12.8154 -61.3555 -24.5303 -122.848 -37.1523 -184.135c13.4756 -1.53125 26.9453 -3.125 40.415 -4.78711c28.1016 -3.4668 56.2598 -6.6377 84.3096 -7.42383
c-0.375977 5.6875 -0.751953 11.3867 -1.11621 17.04c-9.74707 151.944 -10.5156 307.948 2.98828 460.212c-17.9502 -29.5137 -31.1299 -62.8301 -42.8291 -92.918c-23.2051 -59.6758 -33.5723 -125.534 -46.6152 -187.988zM-15.0537 33.6094
c-43.6553 -77.501 -55.9873 -175.065 -14.3877 -256.182c39.2432 -76.5273 121.293 -134.312 207.926 -138.28c85.1357 -3.89941 164.351 36.1348 221.977 96.7666c129.935 136.71 179.863 334.484 230.925 513.027c-9.12012 0.819336 -18.1895 1.51953 -27.2021 2.03223
c-130.367 7.37305 -267.606 2.85254 -392.491 -38.7305c-93.8457 -31.2441 -177.66 -91.5 -226.746 -178.634z" />
    <glyph glyph-name="B" unicode="B" horiz-adv-x="853" 
d="M22.1631 -71.2061c-11.9043 71.9277 -22.4805 143.852 -29.916 216.399c-15.1494 147.965 -20.666 296.841 -0.301758 444.572c4.32715 31.3691 42.8184 52.5537 70.459 57.251c21.6572 3.67773 64.9482 -4.08203 62.8477 -35.3379
c-9.28027 -138.082 -10.5781 -276.426 -2.80078 -414.621c1.48633 -26.3369 3.22852 -52.6621 5.06738 -78.9873c3.66602 33.4189 8.05566 66.7578 13.1963 99.9834c18.3779 118.72 45.3291 237.012 91.6084 348.199c36.1455 86.832 91.7393 192.827 190.771 218.816
c36.8857 9.68359 82.4766 4.43457 102.801 -32.1094c21.9072 -39.3906 17.4893 -86.4727 1.10449 -126.563c-26.1943 -64.0879 -61.6572 -122.938 -104.862 -175.856c156.926 -27.9932 284.179 -162.665 328.369 -316.307c37.626 18.9922 74.335 39.7666 109.53 63.5469
c22.7842 15.3945 54.3584 -6.49609 26.9971 -24.9814c-41.0645 -27.748 -84.0479 -51.5449 -128.067 -73.2246c31.7051 -159.716 -34.165 -319.506 -155.128 -426.708c-59.249 -52.5078 -133.795 -91.2266 -210.63 -110.265
c-74.085 -18.3604 -170.727 -26.9512 -237.519 17.1709c-66.5127 43.9395 -63.3643 115.035 -29.1826 175.405c-12.8779 -6.65527 -29.0693 -8.91016 -40.3535 -5.23828c-28.21 9.18262 -35.6562 43.7627 -42.0615 69.2852
c-9.01758 35.9404 -15.8838 73.0254 -21.9297 109.569zM571.167 -248.318c57.1191 83.3135 72.542 189.109 54.3408 287.852c-79.4873 -33.6865 -159.59 -66.2285 -235.679 -107.276c-67.6006 -36.4707 -132.218 -80.5068 -184.498 -137.245
c-28.0049 -30.3955 -59.0156 -69.3428 -55.9473 -113.328c2.65918 -38.0811 32.7246 -66.2734 66.9062 -78.9062c65.2432 -24.1162 148.955 -3.25684 209.673 25.3057c57.7627 27.168 109.075 70.9023 145.204 123.599zM222.364 409.423
c-26.2734 -99.3398 -43.4404 -201.446 -54.793 -303.53c-10.6807 -96.0664 -7.06543 -194.791 -23.5527 -290.134c-0.927734 -7.66309 -1.51367 -15.6963 0.928711 -21.708c1.18457 -2.9209 1.8623 -5.7334 2.11816 -8.4375c52.2285 67.8057 124.993 119.967 198.31 162.455
c86.667 50.2305 180.126 86.8662 272.355 125.824c-4.47461 16.6641 -9.88281 33.0205 -16.2588 48.9043c-51.0957 127.327 -175.872 239.437 -320.905 216.431c-22.46 -3.55859 -47.1455 9.43359 -53.7266 31.0049c-7.20801 23.6094 10.082 47.6113 27.9873 61.3828
c80.8828 62.2031 150.88 135.685 205.614 222.078c10.834 17.1025 25.7334 37.7744 26.7578 58.8789c1.19531 24.6455 -21.5605 40.0684 -44.0771 39.9375c-42.3857 -0.250977 -79.2832 -37.6719 -103.365 -68.7109c-60.3301 -77.7461 -92.5762 -180.547 -117.393 -274.376z
" />
    <glyph glyph-name="C" unicode="C" horiz-adv-x="522" 
d="M100.299 -353c-69.9688 56.1006 -99.0684 151.112 -118.545 235.001c-22.1807 95.457 -27.7715 196.966 -24.4121 294.649c3.19434 93.0771 11.7109 188.858 39.8066 278.081c28.6533 90.999 74.0225 173.823 145.796 237.928
c55.8389 49.8662 147.095 82.9551 215.367 37.1533c135.742 -91.0674 48.8643 -312.855 -99.3799 -327.999c-33.3906 -3.41602 -15.4404 37.0908 9.49023 39.6357c76.3682 7.7998 116.215 96.8809 104.441 165.518c-6.3418 36.9824 -27.9873 74.0391 -65.249 86.5586
c-35.9062 12.0635 -58.1436 -10.6299 -79.7549 -35.8672c-38.127 -44.5264 -61.4238 -107.271 -79.4941 -162.363c-21.9639 -66.957 -35.0352 -137.393 -42.6924 -207.345c-16.248 -148.392 -12.6895 -308.961 19.2949 -455.149
c7.67969 -35.1211 18.4854 -68.1182 31.1416 -101.68c9.71289 -25.7441 21.3672 -53.4131 43.4277 -71.1016c63.877 -51.21 138.776 61.8047 165.785 107.315c76.7266 129.274 114.608 282.699 158.435 425.312c5.74414 18.7021 48.5791 26.1602 41.5029 2.51074
c-31.6885 -105.881 -62.5684 -212.536 -102.717 -315.6c-33.1572 -85.1064 -77.4785 -181.213 -153.511 -236.624c-64.4121 -46.9453 -146.348 -45.96 -208.733 4.06543z" />
    <glyph glyph-name="D" unicode="D" horiz-adv-x="871" 
d="M9.5459 -108.411c-9.61621 67.9873 -16.8906 136.051 -21.7529 204.534c-10.0146 141.185 -13.4707 283.417 -3.21191 424.658c2.60742 35.9062 29.4277 61.8389 64.002 70.9707c25.209 6.65527 73.168 0.951172 72.8203 -34.5
c-1.38379 -140.188 -4.89648 -280.28 -2.4082 -420.497c0.267578 -14.8418 0.666016 -29.6895 0.984375 -44.5312c25.5449 167.174 59.1006 332.668 130.931 486.884c22.5674 48.4482 51.9043 96.5322 101.543 121.001c42.1406 20.7744 93.3564 18.1836 134.518 -4.33887
c99.875 -54.6367 145.58 -188.38 168.711 -292.041c27.5605 -123.49 21.7363 -252.326 -0.518555 -376.175c-4.16211 -23.1709 -8.96191 -46.2334 -14.3018 -69.165c90.7715 43.0576 176.857 99.79 230.834 186.582c11.1699 17.9619 55.3145 17.7344 40.1875 -6.6377
c-67.7656 -109.178 -170.129 -170.111 -280.781 -219.312c-6.88867 -26.3877 -14.4268 -52.6104 -22.585 -78.6221c-18.4854 -58.9238 -38.793 -118.6 -72.4619 -170.812c-35.1377 -54.4893 -83.085 -103.639 -142.829 -130.909
c-52.8037 -24.0986 -126.098 -40.2334 -179.864 -10.0996c-107.584 60.3018 -17.4102 208.91 51.084 259.796c66.6553 49.5195 146.741 79.8584 226.104 109.201c49.5361 176.744 67.5664 362.66 29.8379 543.726c-10.3613 49.7412 -21.8213 99.7383 -39.7715 147.407
c-14.21 37.7344 -40.1768 94.0283 -88.4092 88.9902c-56.2031 -5.87012 -85.1699 -69.4854 -105.586 -114.495c-23.1602 -51.0566 -42.0898 -103.9 -58.0195 -157.638c-53.6299 -180.963 -72.9922 -369.292 -101.031 -555.486
c1.18457 -46.8428 -0.916016 -94.0107 -17.5742 -136.652c-4.84473 -12.4053 -28.1807 -29.3135 -40.3242 -15.2344c-43.9336 50.9307 -50.9365 128.386 -60.125 193.396zM457.319 -207.151c7.41211 20.9111 14.415 42.0059 21.002 63.2412
c-47.2422 -19.2773 -93.8633 -39.3916 -137.911 -63.0186c-42.1465 -22.6074 -95.0244 -57.791 -103.809 -109.28c-6.78613 -39.7549 25.5908 -88.7676 67.999 -81.3154c85.4717 15.0186 127.47 119.157 152.719 190.373z" />
    <glyph glyph-name="E" unicode="E" horiz-adv-x="598" 
d="M281.277 -384.17c-108.136 -41.6055 -231.574 -6.5127 -297.057 89.7588c-62.8809 92.4795 -46.0693 227.345 -13.6016 328.005c32.7529 101.549 89.707 198.993 169.286 271.239c-25.6875 3.08594 -51.0508 9.17773 -73.4473 18.4238
c-50.9082 21.0137 -80.1084 67.1455 -88.085 120.388c-15.4287 103.018 49.166 219.933 130.51 279.625c78.5312 57.626 195.981 86.5811 285.045 34.7451c70.4189 -40.9854 100.639 -134.205 75.1504 -210.596c-25.9893 -77.8877 -100.957 -136.578 -182.329 -145.191
c-33.2646 -3.51855 -20.9502 37.8252 3.48438 42.3516c42.0381 7.78223 79.2881 22.7266 106.12 57.4775c24.333 31.5176 32.417 70.5215 24.4014 109.337c-17.8193 86.291 -112.218 120.273 -188.631 87.834c-74.9961 -31.8359 -126.866 -113.026 -139.835 -191.427
c-7.08203 -42.8242 -2.26562 -88.7793 23.3535 -124.834c20.6836 -29.1035 46.7695 -40.8027 78.5205 -44.2412c18.4346 4.58301 38.2861 3.5293 53.5264 -6.43945c24.8789 -16.2822 20.4102 -49.8096 1.48633 -69.4277
c-69.957 -72.5361 -127.361 -149.57 -156.966 -247.447c-25.1016 -82.9951 -45.9043 -192.229 -0.814453 -271.751c47.8965 -84.4697 151.626 -98.3955 227.737 -44.6924c158.099 111.558 224.822 315.213 278.326 492.048c5.9375 19.624 50.6689 27.1387 43.251 2.6123
c-36.5049 -120.638 -73.6416 -242.597 -138.122 -351.791c-54.085 -91.5967 -117.814 -186.188 -221.311 -226.007z" />
    <glyph glyph-name="E" unicode="&#xcb;" horiz-adv-x="598" 
d="M281.277 -384.17c-108.136 -41.6055 -231.574 -6.5127 -297.057 89.7588c-62.8809 92.4795 -46.0693 227.345 -13.6016 328.005c32.7529 101.549 89.707 198.993 169.286 271.239c-25.6875 3.08594 -51.0508 9.17773 -73.4473 18.4238
c-50.9082 21.0137 -80.1084 67.1455 -88.085 120.388c-15.4287 103.018 49.166 219.933 130.51 279.625c78.5312 57.626 195.981 86.5811 285.045 34.7451c70.4189 -40.9854 100.639 -134.205 75.1504 -210.596c-25.9893 -77.8877 -100.957 -136.578 -182.329 -145.191
c-33.2646 -3.51855 -20.9502 37.8252 3.48438 42.3516c42.0381 7.78223 79.2881 22.7266 106.12 57.4775c24.333 31.5176 32.417 70.5215 24.4014 109.337c-17.8193 86.291 -112.218 120.273 -188.631 87.834c-74.9961 -31.8359 -126.866 -113.026 -139.835 -191.427
c-7.08203 -42.8242 -2.26562 -88.7793 23.3535 -124.834c20.6836 -29.1035 46.7695 -40.8027 78.5205 -44.2412c18.4346 4.58301 38.2861 3.5293 53.5264 -6.43945c24.8789 -16.2822 20.4102 -49.8096 1.48633 -69.4277
c-69.957 -72.5361 -127.361 -149.57 -156.966 -247.447c-25.1016 -82.9951 -45.9043 -192.229 -0.814453 -271.751c47.8965 -84.4697 151.626 -98.3955 227.737 -44.6924c158.099 111.558 224.822 315.213 278.326 492.048c5.9375 19.624 50.6689 27.1387 43.251 2.6123
c-36.5049 -120.638 -73.6416 -242.597 -138.122 -351.791c-54.085 -91.5967 -117.814 -186.188 -221.311 -226.007z" />
    <glyph glyph-name="E" unicode="&#xca;" horiz-adv-x="598" 
d="M281.277 -384.17c-108.136 -41.6055 -231.574 -6.5127 -297.057 89.7588c-62.8809 92.4795 -46.0693 227.345 -13.6016 328.005c32.7529 101.549 89.707 198.993 169.286 271.239c-25.6875 3.08594 -51.0508 9.17773 -73.4473 18.4238
c-50.9082 21.0137 -80.1084 67.1455 -88.085 120.388c-15.4287 103.018 49.166 219.933 130.51 279.625c78.5312 57.626 195.981 86.5811 285.045 34.7451c70.4189 -40.9854 100.639 -134.205 75.1504 -210.596c-25.9893 -77.8877 -100.957 -136.578 -182.329 -145.191
c-33.2646 -3.51855 -20.9502 37.8252 3.48438 42.3516c42.0381 7.78223 79.2881 22.7266 106.12 57.4775c24.333 31.5176 32.417 70.5215 24.4014 109.337c-17.8193 86.291 -112.218 120.273 -188.631 87.834c-74.9961 -31.8359 -126.866 -113.026 -139.835 -191.427
c-7.08203 -42.8242 -2.26562 -88.7793 23.3535 -124.834c20.6836 -29.1035 46.7695 -40.8027 78.5205 -44.2412c18.4346 4.58301 38.2861 3.5293 53.5264 -6.43945c24.8789 -16.2822 20.4102 -49.8096 1.48633 -69.4277
c-69.957 -72.5361 -127.361 -149.57 -156.966 -247.447c-25.1016 -82.9951 -45.9043 -192.229 -0.814453 -271.751c47.8965 -84.4697 151.626 -98.3955 227.737 -44.6924c158.099 111.558 224.822 315.213 278.326 492.048c5.9375 19.624 50.6689 27.1387 43.251 2.6123
c-36.5049 -120.638 -73.6416 -242.597 -138.122 -351.791c-54.085 -91.5967 -117.814 -186.188 -221.311 -226.007z" />
    <glyph glyph-name="E" unicode="&#xc9;" horiz-adv-x="598" 
d="M281.277 -384.17c-108.136 -41.6055 -231.574 -6.5127 -297.057 89.7588c-62.8809 92.4795 -46.0693 227.345 -13.6016 328.005c32.7529 101.549 89.707 198.993 169.286 271.239c-25.6875 3.08594 -51.0508 9.17773 -73.4473 18.4238
c-50.9082 21.0137 -80.1084 67.1455 -88.085 120.388c-15.4287 103.018 49.166 219.933 130.51 279.625c78.5312 57.626 195.981 86.5811 285.045 34.7451c70.4189 -40.9854 100.639 -134.205 75.1504 -210.596c-25.9893 -77.8877 -100.957 -136.578 -182.329 -145.191
c-33.2646 -3.51855 -20.9502 37.8252 3.48438 42.3516c42.0381 7.78223 79.2881 22.7266 106.12 57.4775c24.333 31.5176 32.417 70.5215 24.4014 109.337c-17.8193 86.291 -112.218 120.273 -188.631 87.834c-74.9961 -31.8359 -126.866 -113.026 -139.835 -191.427
c-7.08203 -42.8242 -2.26562 -88.7793 23.3535 -124.834c20.6836 -29.1035 46.7695 -40.8027 78.5205 -44.2412c18.4346 4.58301 38.2861 3.5293 53.5264 -6.43945c24.8789 -16.2822 20.4102 -49.8096 1.48633 -69.4277
c-69.957 -72.5361 -127.361 -149.57 -156.966 -247.447c-25.1016 -82.9951 -45.9043 -192.229 -0.814453 -271.751c47.8965 -84.4697 151.626 -98.3955 227.737 -44.6924c158.099 111.558 224.822 315.213 278.326 492.048c5.9375 19.624 50.6689 27.1387 43.251 2.6123
c-36.5049 -120.638 -73.6416 -242.597 -138.122 -351.791c-54.085 -91.5967 -117.814 -186.188 -221.311 -226.007z" />
    <glyph glyph-name="F" unicode="F" horiz-adv-x="495" 
d="M74.3789 -332.197c-57.1992 93.9941 -79.1191 213.401 -95.2422 320.649c-33.5039 222.933 -26.7295 472.23 97.5977 667.784c48.4775 76.248 130.772 155.844 230.01 125.465c94.6943 -28.9834 108.381 -148.289 91.8594 -231.665
c-30.3896 -153.368 -143.575 -288.103 -280.609 -364.203c3.19922 -63.9512 9.74023 -127.561 18.6787 -189.81c1.16113 -8.08984 2.43066 -16.1348 3.7002 -24.1787c126.303 76.9824 251.558 156.544 367.083 249.194c19.1465 15.3604 45.3975 -3.125 23.6387 -21.8721
c-107.441 -92.5762 -228.791 -168.677 -349.549 -242.915c79.2881 -32.502 157.165 -82.334 202.488 -155.634c53.4648 -86.4736 46.7012 -211.483 -58.6562 -253.328c-108.164 -42.9551 -197.729 32.9746 -250.999 120.513zM307.273 -181.142
c-43.7178 46.2686 -99.6357 79.3516 -158.292 103.536c11.876 -62.0381 27.8164 -122.807 50.7373 -182.277c13.5156 -35.0703 27.7031 -71.6602 52.5879 -100.474c18.8955 -21.8789 58.8789 -57.4209 89.7012 -37.1592c39.2939 25.8301 29.8604 91.8994 18.1094 129.258
c-10.3613 32.9463 -29.2168 62.1123 -52.8438 87.1162zM141.711 535.558c-21.2012 -100.268 -28.0479 -204.532 -25.3213 -308.467c122.505 74.4268 224.281 196.732 242.454 339.682c5.48828 43.1709 1.33203 91.5625 -21.1621 129.707
c-21.5146 36.4707 -62.6025 56.5508 -102.272 33.8633c-63.4902 -36.3105 -80.0576 -130.276 -93.6982 -194.785z" />
    <glyph glyph-name="G" unicode="G" horiz-adv-x="741" 
d="M29.1855 6.4375c-52.1836 59.1064 -60.4326 148.391 -63.8203 223.865c-3.69531 82.4648 6.22754 168.158 27.0361 247.977c21.3838 82.0381 51.6826 165.659 104.942 232.747c50.0596 63.0518 130.544 119.863 214.632 112.474
c73.2998 -6.43945 114.257 -63.4219 107.744 -134.415c-11.4941 -125.227 -158.6 -192.554 -273.59 -168.808c-33.9316 -111.813 -47.0146 -229.36 -39.5684 -345.979c3.02832 -47.4014 2.32227 -116.374 47.207 -146.502c52.8037 -35.4453 111.449 14.2217 142.062 54.4609
c73.373 96.4531 119.835 215.821 144.173 333.743c3.38184 32.0586 27.748 55.1953 59.0322 63.4561c24.002 6.33691 66.8828 0.802734 67.4688 -31.9668c2.12402 -118.799 9.52539 -238.759 6.0293 -357.968c63.4844 34.9277 125.227 72.5078 179.818 121.452
c14.8311 13.2939 46.0576 -0.670898 27.6631 -18.166c-62.2656 -59.2197 -134.802 -102.75 -209.108 -143.792c-2.21484 -42.6758 -6.0459 -85.2324 -12.2969 -127.578c-19.2432 -130.356 -66.4736 -284.675 -195.229 -344.982
c-49.4277 -23.1484 -104.464 -27.6514 -151.751 3.05176c-46.291 30.0596 -70.5898 82.1572 -62.4434 136.892c9.25098 62.1631 53.4814 118.383 96.5049 161.714c45.5791 45.9043 98.4062 83.3818 153.789 116.477c16.1006 9.62695 32.4229 18.8838 48.8477 27.9648
c-2.15234 80.6553 -8.53418 161.635 -10.8574 242.494c-13.0371 -34.4834 -28.0557 -68.2207 -45.2656 -100.911c-36.3564 -69.0469 -82.6475 -144.47 -152.531 -184.111c-68.1074 -38.6279 -156.676 -34.54 -210.487 26.4111zM393.854 -339.662
c26.0293 50.2246 37.3936 111.363 45.2725 166.951c7.25293 51.1533 9.91699 102.893 9.81445 154.558c-94.3184 -53.9707 -209.121 -127.06 -247.294 -234.569c-19.1689 -53.9941 -1.23535 -112.417 49.8838 -141.099c57.4668 -32.2402 114.609 0.677734 142.323 54.1592z
M330.434 736.925c-75.8154 65.9092 -145.186 -103.155 -170.702 -175.259c56.3164 -15.9863 120.928 -3.13086 164.987 36.4873c42.3682 38.1045 51.2832 99.1582 5.71484 138.771z" />
    <glyph glyph-name="H" unicode="H" horiz-adv-x="907" 
d="M191.976 52.9619c-104.088 12.6445 -185.438 99.3965 -212.036 201.145c-29.1885 111.705 -8.16406 248.085 56.499 344.168c29.3877 43.666 71.8867 80.5693 126.706 83.251c60.4844 2.95508 104.953 -44.6055 123.404 -98.0469
c20.8545 -60.3877 25.8643 -129.479 29.8271 -192.799c4.53711 -72.4395 3.7627 -144.691 2.71484 -217.233c-0.460938 -31.6543 -0.916016 -63.3135 -1.47363 -94.9727c60.3359 18.2637 116.442 46.3311 166.827 82.3174c0.631836 16.2197 1.32031 32.377 2.00879 48.4033
c4.53223 105.647 11.0107 216.692 39.0781 319.118c13.7949 50.3506 32.0811 99.5967 57.4668 145.307c24.1729 43.5186 54.6484 88.4316 106.2 100.416c33.749 7.84473 72.8438 -5.67676 91.7168 -35.2979c19.624 -30.8057 15.7588 -70.7256 11.9443 -105.209
c-10.5156 -94.9844 -39.4541 -188.432 -85.3467 -272.32c-24.4639 -44.7197 -53.9316 -86.3936 -87.584 -124.185c-0.512695 -31.1416 -0.689453 -62.0381 -0.826172 -92.4736c-0.370117 -84.0137 1.16699 -168.91 13.2588 -252.189
c6.20508 -42.71 12.1943 -85.6309 26.7744 -126.439c8.44336 -23.627 30.2764 -78.7314 64.1963 -61.3223c32.6045 16.7266 53.9541 61.9756 68.8018 93.6807c18.127 38.7188 31.0166 80.0283 43.1768 120.939c25.1299 84.5488 44.5547 170.675 73.5674 254.057
c6.43848 18.5088 49.5469 25.4199 41.5029 2.51074c-39.7783 -113.282 -61.7197 -232.109 -104.8 -344.293c-30.8906 -80.4502 -88.124 -198.196 -194.723 -175.845c-99.5225 20.8711 -142.512 143.473 -156.842 231.216c-12.4053 75.9756 -13.1904 155.03 -10.9648 233.061
c-51.1924 -32.8721 -107.042 -58.5654 -166.114 -75.6104c-0.581055 -27.7939 -1.25879 -55.5938 -2.19824 -83.376c-2.41992 -71.4658 -1.18457 -152.063 -25.2783 -220.034c-12.4229 -35.0586 -90.0205 -72.0352 -100.479 -16.5215
c-11.8926 63.165 -1.57129 133.584 0.386719 197.598c1.33203 43.6494 2.05469 87.3154 2.60645 130.981zM674.772 650.618c-37.2959 -111.91 -49.2559 -233.968 -53.3545 -354.332c22.4307 30.4873 42.209 63.1201 58.998 97.4668
c36.2139 74.0732 58.6904 155.064 67.2412 237.04c2.57324 24.6348 9.11426 76.5107 -17 92.4121c-27.8115 16.9375 -50.123 -55.3027 -55.8848 -72.5869zM58.6318 549.221c-44.2305 -89.9287 -56.749 -208.898 -22.8809 -304.11
c25.4258 -71.4551 83.5127 -133.704 156.727 -150.698c0.102539 9.55859 0.205078 19.1064 0.307617 28.6592c1.24707 117.911 3.78027 236.096 2.56152 353.995c-0.460938 44.8105 0.456055 100.99 -29.5186 137.933c-41.7256 51.4209 -90.3789 -31.5791 -107.196 -65.7783
z" />
    <glyph glyph-name="I" unicode="I" horiz-adv-x="559" 
d="M9.14355 396.213c-1.32617 -19.2939 -42.5371 -34.9111 -42.8164 -11.4102c-0.933594 78.8789 17.4209 156.221 49.1885 228.256c26.2227 59.459 66.1885 138.571 134.984 156.288c58.7988 15.1436 113.51 -33.334 144.104 -78.9072
c41.2812 -61.4922 41.3721 -142.13 42.6699 -213.442c1.45703 -80.3193 -7.68652 -161.544 -16.9609 -241.248c-9.26855 -79.6475 -16.6982 -159.426 -25.1865 -239.142c-7.21289 -67.7373 -14.1582 -134.33 -11.875 -202.438
c1.07031 -31.9785 11.4033 -67.9189 41.9639 -84.0586c33.3506 -17.6143 63.4336 3.72949 82.7959 30.7207c41.5713 57.9502 62.3623 135.087 85.4082 201.748c26.1484 75.6338 48.7158 152.417 68.0957 230.061c4.7998 19.209 47.5498 26.5762 41.5098 2.51074
c-21.668 -86.2793 -47.3047 -171.5 -77.3301 -255.246c-23.9678 -66.8545 -45.6016 -145.044 -90.458 -201.395c-80.3477 -100.939 -234.814 -36.8457 -266.775 74.8145c-20.0908 70.1855 -19.8008 144.248 -13.5098 216.488
c6.97363 80.0117 18.2686 159.585 28.4648 239.227c10.2422 79.9658 21.873 159.767 30.6572 239.909c4.17285 38.0361 7.26953 75.9355 9.15918 114.153c1.55957 31.5625 3.97949 81.3721 -16.8799 108.107c-59.0264 75.6396 -124.104 -52.792 -144.344 -96.2197
c-32.0635 -68.8135 -47.668 -143.309 -52.8662 -218.777z" />
    <glyph glyph-name="I" unicode="&#xcf;" horiz-adv-x="559" 
d="M9.14355 396.213c-1.32617 -19.2939 -42.5371 -34.9111 -42.8164 -11.4102c-0.933594 78.8789 17.4209 156.221 49.1885 228.256c26.2227 59.459 66.1885 138.571 134.984 156.288c58.7988 15.1436 113.51 -33.334 144.104 -78.9072
c41.2812 -61.4922 41.3721 -142.13 42.6699 -213.442c1.45703 -80.3193 -7.68652 -161.544 -16.9609 -241.248c-9.26855 -79.6475 -16.6982 -159.426 -25.1865 -239.142c-7.21289 -67.7373 -14.1582 -134.33 -11.875 -202.438
c1.07031 -31.9785 11.4033 -67.9189 41.9639 -84.0586c33.3506 -17.6143 63.4336 3.72949 82.7959 30.7207c41.5713 57.9502 62.3623 135.087 85.4082 201.748c26.1484 75.6338 48.7158 152.417 68.0957 230.061c4.7998 19.209 47.5498 26.5762 41.5098 2.51074
c-21.668 -86.2793 -47.3047 -171.5 -77.3301 -255.246c-23.9678 -66.8545 -45.6016 -145.044 -90.458 -201.395c-80.3477 -100.939 -234.814 -36.8457 -266.775 74.8145c-20.0908 70.1855 -19.8008 144.248 -13.5098 216.488
c6.97363 80.0117 18.2686 159.585 28.4648 239.227c10.2422 79.9658 21.873 159.767 30.6572 239.909c4.17285 38.0361 7.26953 75.9355 9.15918 114.153c1.55957 31.5625 3.97949 81.3721 -16.8799 108.107c-59.0264 75.6396 -124.104 -52.792 -144.344 -96.2197
c-32.0635 -68.8135 -47.668 -143.309 -52.8662 -218.777z" />
    <glyph glyph-name="I" unicode="&#xce;" horiz-adv-x="559" 
d="M9.14355 396.213c-1.32617 -19.2939 -42.5371 -34.9111 -42.8164 -11.4102c-0.933594 78.8789 17.4209 156.221 49.1885 228.256c26.2227 59.459 66.1885 138.571 134.984 156.288c58.7988 15.1436 113.51 -33.334 144.104 -78.9072
c41.2812 -61.4922 41.3721 -142.13 42.6699 -213.442c1.45703 -80.3193 -7.68652 -161.544 -16.9609 -241.248c-9.26855 -79.6475 -16.6982 -159.426 -25.1865 -239.142c-7.21289 -67.7373 -14.1582 -134.33 -11.875 -202.438
c1.07031 -31.9785 11.4033 -67.9189 41.9639 -84.0586c33.3506 -17.6143 63.4336 3.72949 82.7959 30.7207c41.5713 57.9502 62.3623 135.087 85.4082 201.748c26.1484 75.6338 48.7158 152.417 68.0957 230.061c4.7998 19.209 47.5498 26.5762 41.5098 2.51074
c-21.668 -86.2793 -47.3047 -171.5 -77.3301 -255.246c-23.9678 -66.8545 -45.6016 -145.044 -90.458 -201.395c-80.3477 -100.939 -234.814 -36.8457 -266.775 74.8145c-20.0908 70.1855 -19.8008 144.248 -13.5098 216.488
c6.97363 80.0117 18.2686 159.585 28.4648 239.227c10.2422 79.9658 21.873 159.767 30.6572 239.909c4.17285 38.0361 7.26953 75.9355 9.15918 114.153c1.55957 31.5625 3.97949 81.3721 -16.8799 108.107c-59.0264 75.6396 -124.104 -52.792 -144.344 -96.2197
c-32.0635 -68.8135 -47.668 -143.309 -52.8662 -218.777z" />
    <glyph glyph-name="I" unicode="&#xcd;" horiz-adv-x="559" 
d="M9.14355 396.213c-1.32617 -19.2939 -42.5371 -34.9111 -42.8164 -11.4102c-0.933594 78.8789 17.4209 156.221 49.1885 228.256c26.2227 59.459 66.1885 138.571 134.984 156.288c58.7988 15.1436 113.51 -33.334 144.104 -78.9072
c41.2812 -61.4922 41.3721 -142.13 42.6699 -213.442c1.45703 -80.3193 -7.68652 -161.544 -16.9609 -241.248c-9.26855 -79.6475 -16.6982 -159.426 -25.1865 -239.142c-7.21289 -67.7373 -14.1582 -134.33 -11.875 -202.438
c1.07031 -31.9785 11.4033 -67.9189 41.9639 -84.0586c33.3506 -17.6143 63.4336 3.72949 82.7959 30.7207c41.5713 57.9502 62.3623 135.087 85.4082 201.748c26.1484 75.6338 48.7158 152.417 68.0957 230.061c4.7998 19.209 47.5498 26.5762 41.5098 2.51074
c-21.668 -86.2793 -47.3047 -171.5 -77.3301 -255.246c-23.9678 -66.8545 -45.6016 -145.044 -90.458 -201.395c-80.3477 -100.939 -234.814 -36.8457 -266.775 74.8145c-20.0908 70.1855 -19.8008 144.248 -13.5098 216.488
c6.97363 80.0117 18.2686 159.585 28.4648 239.227c10.2422 79.9658 21.873 159.767 30.6572 239.909c4.17285 38.0361 7.26953 75.9355 9.15918 114.153c1.55957 31.5625 3.97949 81.3721 -16.8799 108.107c-59.0264 75.6396 -124.104 -52.792 -144.344 -96.2197
c-32.0635 -68.8135 -47.668 -143.309 -52.8662 -218.777z" />
    <glyph glyph-name="J" unicode="J" horiz-adv-x="610" 
d="M7.90137 415.615c-0.945312 -20.3418 -43.7686 -33.7168 -42.8232 -11.4229c4.40625 103.684 40.1084 212.485 112.491 289.138c32.0186 33.9023 74.7744 64.9131 122.819 67.8906c45.1123 2.79492 79.5049 -25.8477 109.286 -56.3057
c68.3291 -69.8887 104.372 -169.77 119.413 -264.515c15.8271 -99.7324 17.9336 -202.533 10.2422 -303.148c-1.30371 -17.0908 -2.83496 -34.7109 -4.69141 -52.6787c23.5928 11.0615 46.9629 22.584 69.918 34.9268c42.3232 22.7559 82.9834 47.6807 111.631 87.1631
c13.459 18.543 50.5439 9.05859 33.0322 -15.0742c-50.4355 -69.4902 -137.837 -107.436 -213.521 -142.312c-1.79883 -0.831055 -3.60938 -1.62793 -5.41406 -2.45312c-21.127 -164.987 -74.0273 -348.147 -231.568 -420.814
c-44.7656 -20.6494 -99.0439 -33.4023 -147.186 -17.2227c-47.043 15.8096 -64.6748 54.375 -69.3945 100.859c-9.00098 88.6367 50.6807 165.631 119.728 213.032c55.2119 37.8994 116.391 66.752 178.082 93.7266c6.58105 42.5449 10.9473 85.46 14.2773 128.5
c6.42188 82.9951 9.92285 167.3 5.5166 250.5c-4.43457 83.6777 -10.5381 171.729 -32.3887 252.941c-9.24023 34.335 -26.3027 72.126 -66.4795 76.6182c-43.4785 4.85645 -83.792 -37.0791 -108.051 -68.1016c-53.2021 -68.0332 -80.9453 -155.64 -84.9189 -241.248z
M252.68 -108.731c8.30664 28.4092 14.9355 57.124 20.4463 86.04c-30.5156 -13.8633 -60.7578 -28.3066 -90.3623 -44.0938c-65.8984 -35.1553 -156.585 -93.2422 -141.977 -181.173c5.24316 -31.5625 37.2441 -70.3154 72.6494 -65.9834
c25.8867 3.16504 44.082 21.7646 58.457 37.9336c40.1367 45.1582 63.3311 107.606 80.7861 167.276z" />
    <glyph glyph-name="K" unicode="K" horiz-adv-x="782" 
d="M28.0176 213.013c-60.8828 14.4834 -109.362 80.2471 -49.6182 129.771c37.2158 30.8682 78.6904 26.0234 117.005 8.15234c2.20898 115.246 13.6299 231.033 41.8223 341.338c14.9443 58.4912 140.632 87.9932 130.407 7.88477
c-16.3682 -128.227 -27.458 -255.31 -31.1475 -383.741c21.9697 18.4346 42.0664 38.7822 59.9717 58.6738c60.7285 67.4697 108.357 145.312 166.923 214.535c29.0859 34.375 111.688 127.418 162.744 82.1797c16.1348 -14.3008 -18.0752 -35.542 -32.4277 -24.5029
c-15.9746 12.2861 -59.1914 -31.21 -68.8643 -40.8828c-16.1855 -16.1914 -30.6914 -34.0908 -44.8564 -52.041c-30.0713 -38.1104 -57.6777 -78.0703 -86.5361 -117.091c-43.7979 -59.2256 -91.6719 -117.176 -151.427 -160.979
c32.7812 -10.5781 62.75 -37.0176 84.333 -61.2021c32.1318 -36.0039 58.002 -77 78.2812 -120.729c40.3018 -86.917 60.4844 -180.905 116.362 -260.376c18.0244 -25.6416 52.502 -70.0371 86.0684 -73.8115c41.4688 -4.66309 67.6514 61.8613 81.0303 91.2832
c42.3398 93.1348 67.1445 192.861 92.126 291.7c5.2373 20.7061 51.4033 28.9502 44.9932 2.72168c-23.3643 -95.5996 -47.2529 -191.393 -84.458 -282.739c-25.585 -62.8066 -58.0361 -128.796 -126.729 -151.927c-78.9756 -26.5986 -167.96 7.97559 -219.483 70.4922
c-54.7002 66.3711 -74.3867 149.964 -101.43 229.736c-14.4492 42.6133 -28.0332 85.4375 -41.5547 128.33c-5.16895 16.3965 -10.9248 32.6787 -16.208 49.0576c0.791016 -75.5479 3.64941 -151.102 6.52441 -226.587c1.55469 -40.7686 4.19629 -81.5371 5.34082 -122.317
c1.14453 -40.7969 6.42773 -88.3408 -4.81055 -127.88c-8.24414 -29.001 -62.2725 -55.3086 -81.2363 -21.9414c-19.7842 34.8193 -22.7783 85.6709 -28.6084 124.891c-5.90918 39.7549 -10.2021 79.8516 -14.8594 119.771
c-9.75781 83.6094 -16.3223 167.458 -19.9775 251.558c-0.352539 8.11816 -0.654297 16.2646 -0.944336 24.417c-22.835 -3.41016 -45.9775 -3.16504 -68.7559 2.25488zM2.04297 310.47c-22.3115 -46.0176 58.7627 -64.2715 88.2246 -62.125
c1.79297 0.136719 3.5752 0.324219 5.36328 0.506836c-0.386719 17.04 -0.574219 34.1426 -0.625 51.2676c-33.0312 22.7217 -76.5557 44.1904 -92.9629 10.3506z" />
    <glyph glyph-name="L" unicode="L" horiz-adv-x="617" 
d="M-4.35742 -380.959c-37.8652 23.376 -56.9307 64.2725 -48.6416 108.395c10.1279 53.9941 52.5078 99.0215 89.5479 136.881c39.0781 39.9375 81.9473 75.7305 127.419 107.948c-0.746094 9.98535 -1.48633 19.9541 -2.21484 29.8887
c-3.97949 54.4209 -9.47363 108.506 -15.9756 162.585c-80.7861 -12.3086 -170.55 11.1582 -190.982 98.5879c-13.1279 56.1689 24.248 111.489 57.3311 153.419c28.8701 36.584 63.6729 67.4697 102.153 93.248c2.08984 40.1367 7.94238 80.0908 19.4766 119.652
c19.6074 67.2705 55.3262 127.339 112.781 168.17c45.5049 32.3369 102.807 46.3594 148.699 6.66699c42.9092 -37.1133 54.3926 -106.291 57.6211 -159.658c3.66602 -60.6035 -4.02539 -122.488 -21.9365 -180.468c-26.4502 -85.6191 -75.5654 -171.472 -144.846 -231.443
c4.93555 -46.2227 9.05762 -92.5361 10.7197 -139.135c0.466797 -12.9971 0.945312 -26.2617 1.36621 -39.709c3.87695 2.04395 7.74805 4.09961 11.6475 6.10352c51.9902 26.7354 105.614 50.1973 160.104 71.3418c55.292 21.457 111.773 40.2217 158.224 78.4629
c14.9619 12.3203 46.3027 -0.3125 27.6572 -18.166c-50.6348 -48.4941 -115.81 -69.1826 -179.664 -94.5283c-60.501 -24.0137 -119.881 -51.0107 -177.012 -82.2373c1.71387 -103.935 -4.66797 -215.02 -55.0869 -303.451
c-45.9043 -80.5186 -159.238 -147.59 -248.388 -92.5537zM270.543 671.338c-10.1396 -59.4531 -13.5381 -118.282 -10.4014 -178.572c3.71777 -71.3008 12.542 -142.032 20.6943 -212.844c41.2812 44.2305 72.9121 100.2 91.8135 148.95
c21.457 55.3428 33.0596 114.967 33.0312 174.353c-0.0224609 52.9297 -5.14648 130.026 -50.0654 166.417c-28.4541 23.0518 -58.0186 7.71484 -67.2188 -23.4268c-7.20215 -24.3896 -13.5781 -49.8154 -17.8535 -74.877zM91.8633 205.249
c16.8916 -3.61523 33.3125 -4.48633 49.2021 -3.0293c-0.523438 4.07617 -1.00195 8.1582 -1.53711 12.2402c-10.7832 82.2207 -24.9648 165.779 -26.1094 248.882c-36.3105 -28.916 -67.6289 -64.3213 -90.624 -104.492
c-17.2676 -30.168 -27.9541 -64.0078 -11.0459 -96.8174c15.6621 -30.3955 47.4414 -49.792 80.1143 -56.7832zM41.1738 -186.97c-23.7178 -27.6572 -49.2676 -61.5869 -47.543 -100.027c2.33984 -52.4229 70.9082 -93.6133 118.281 -67.0146
c48.3291 27.1396 61.4912 103.188 61.0811 152.292c-0.364258 43.6953 -2.90332 87.8682 -5.97754 131.87c-17.5068 -13.248 -34.6035 -27.0371 -51.1133 -41.5205c-26.6387 -23.3701 -51.6543 -48.6934 -74.7285 -75.5996z" />
    <glyph glyph-name="M" unicode="M" horiz-adv-x="1280" 
d="M46.9863 171.596c-43.5586 31.5234 -64.7578 85.3535 -73.793 136.609c-16.3564 92.7246 3.30762 215.463 76.7041 281.305c32.3652 29.0293 76.9023 43.3535 119.436 30.9141c49.3828 -14.4434 77.8086 -52.9121 94.0342 -100.519
c19.0547 -55.9072 22.6074 -114.074 24.8789 -172.555c2.37988 -61.1162 3.43848 -122.341 4.64551 -183.497c1.01953 -51.7168 2.41992 -103.319 6.03516 -154.882c5.875 57.0791 12.832 114.045 21.457 170.8c16.1914 106.542 33.1172 220.775 80.251 318.783
c18.6338 38.7529 44.418 83.8203 87.4473 98.8223c42.0605 14.6602 84.0879 -7.08203 113.129 -37.6543c35.7188 -37.5977 54.0166 -89.3086 68.0049 -138.161c15.1777 -53.0088 23.9111 -108.187 28.2773 -163.125c1.73633 -21.8447 3.22266 -43.7178 4.60059 -65.6025
c16.8516 92.7588 38.6787 184.447 70.5146 273.402c25.0039 69.8604 53.1504 151.335 106.513 204.913c49.5586 49.7578 117.438 33.3164 161.401 -16.3164c47.7773 -53.9365 54.791 -129.895 57.3076 -199.175c3.0918 -85.1016 -10.4062 -170.676 -22.7324 -254.61
c-12.3711 -84.2471 -22.9775 -168.534 -32.9629 -253.066c-4.85645 -41.1562 -7.7998 -82.2266 -5.31738 -123.661c1.97559 -32.9463 -5.5625 -92.3828 32.8838 -108.597c44.7705 -18.8838 77.375 38.7539 92.041 71.2109c18.0928 40.04 32.7637 81.9248 47.4346 123.314
c29.0176 81.8506 54.0273 165.045 75.4395 249.207c4.59961 18.0811 44.9297 25.084 39.1797 2.36816c-23.9678 -94.666 -52.5303 -188.107 -86.1367 -279.807c-25.9834 -70.9082 -50.3105 -165.466 -127.532 -197.137c-70.1396 -28.7617 -127.287 16.8232 -165.704 73.0371
c-22.3574 32.7188 -30.7607 77.6436 -35.5713 116.374c-5.3291 42.9033 -6.37109 85.6309 -2.42578 128.677c15.2295 166.023 62.1641 328.062 71.8877 494.734c2.18066 37.3242 4.38379 79.3174 -3.81445 115.998c-3.05762 13.6631 -8.0957 31.0498 -17.9619 41.3887
c-20.7061 21.708 -39.5508 6.3877 -55.0078 -11.46c-27.8223 -32.1318 -45.5449 -73.4238 -62.2773 -112.069c-17.1592 -39.6416 -31.876 -80.2969 -44.7705 -121.516c-41.3838 -132.246 -63.6328 -269.246 -82.5459 -406.337
c1.29785 -26.7012 2.64746 -53.3848 4.16797 -80.0459c3.70605 -64.9873 -125.488 -112.069 -138.594 -36.9424c-18.7305 107.345 -8.76758 218.601 -8.1416 326.981c0.557617 95.9072 -0.108398 192.867 -14.541 287.914
c-3.86523 25.4424 -13.1963 56.3223 -42.6416 61.543c-25.625 4.54297 -41.7705 -22.2891 -53.1455 -41.0703c-24.1104 -39.7949 -39.459 -83.7578 -51.5908 -128.478c-52.5078 -193.544 -66.4336 -395.161 -87.8115 -593.75
c-0.0966797 -0.939453 -0.347656 -1.85059 -0.689453 -2.73828c-0.0117188 -1.45703 0.0107422 -2.92578 -0.0117188 -4.38867c-0.541016 -33.2305 -25.8984 -56.6064 -55.2295 -67.8848c-24.3154 -9.34863 -65.374 -10.9658 -78.5195 17.8477
c-23.251 50.959 -28.6592 112.986 -33.5098 168.222c-4.7998 54.6484 -5.00488 109.923 -4.43555 164.748c0.245117 23.6895 1.11621 47.3105 2.37402 70.8975c-35.5879 -5.82422 -72.1318 2.95996 -102.63 25.0322zM26.0605 477.61
c-13.9766 -44.6689 -18.4287 -91.8662 -13.1396 -138.356c4.73145 -41.5596 16.8008 -84.8506 43.8545 -117.683c22.6758 -27.5205 59.1689 -47.8789 94.8418 -42.3848c4.28711 63.376 10.8623 126.547 16.0889 189.985c4.07617 49.502 35.127 256.38 -66.1943 215.708
c-41.3779 -16.6064 -63.1025 -67.7822 -75.4512 -107.27z" />
    <glyph glyph-name="N" unicode="N" horiz-adv-x="779" 
d="M4.59766 -54.3545c-11.0107 74.3066 -16.9189 149.669 -21.1543 224.631c-8.67676 153.556 -3.96289 309.252 16.9141 461.641c4.14453 30.2588 41.3262 50.709 67.9756 55.2354c20.7861 3.5293 62.8018 -3.93457 60.6387 -34.0908
c-10.709 -149.371 -17.7227 -298.275 -15.2119 -448.057c1.27539 -75.8955 6.08594 -151.489 11.6592 -227.163c0.375977 -5.03809 0.814453 -10.0654 1.23047 -15.0986c22.9268 144.601 52.1953 288.205 94.626 428.422c23.5527 77.8369 52.4229 155.372 99.5732 222.278
c37.6094 53.373 113.477 118.178 177.001 60.665c29.1318 -26.3711 52.6221 -50.4756 66.7529 -88.0391c14.8311 -39.4189 19.5049 -83.9854 22.4648 -125.693c6.34766 -89.4854 -3.66699 -180.217 -13.0381 -269.189
c-9.43359 -89.5586 -16.7148 -179.237 -23.3818 -269.024c-3.2793 -44.207 -5.53418 -89.7979 -3.64355 -134.113c1.29785 -30.4756 9.18262 -63.502 45.1289 -65.2217c40.0684 -1.91895 68.6992 42.249 85.2432 73.0146c20.3301 37.8027 35.5078 78.4746 48.3008 119.363
c26.1943 83.7295 41.0645 170.408 55.8379 256.717c3.35352 19.5791 45.7393 27.2305 41.5088 2.51074c-16.7891 -98.0361 -33.6973 -196.807 -67.2012 -290.789c-25.7725 -72.2969 -60.25 -157.894 -135.013 -191.472
c-63.3418 -28.4482 -142.881 -23.1426 -179.163 43.4043c-18.9756 34.8018 -24.208 78.998 -28.4268 117.757c-5.00977 46.0518 -6.02344 91.124 -2.58496 137.307c6.92285 93.1006 21.002 185.552 34.7051 277.85c12.8838 86.7578 26.9746 176.294 28.6885 264.076
c0.625977 32.166 8.24316 105.835 -27.5557 121.936c-46.707 21.0078 -87.2705 -49.8379 -106.24 -81.6455c-45.1523 -75.7188 -70.6289 -161.4 -93.7656 -245.893c-45.7393 -167.021 -74.5752 -338.083 -100.24 -509.208
c3.42773 -17.9619 6.75781 -35.918 8.92676 -53.9199c4.95898 -41.1104 -68.9609 -70.2881 -91.1641 -34.1084c-38.0303 61.9814 -48.916 145.238 -59.3916 215.919z" />
    <glyph glyph-name="O" unicode="O" horiz-adv-x="767" 
d="M-4.62109 218.302c6.1084 31.3633 46.3428 52.6875 78.5205 52.2207c-14.4326 13.834 -27.6006 29.2227 -39.1348 46.376c-60.0518 89.291 -68.7734 204.657 -30.4814 304.162c36.584 95.0527 116.903 190.18 220.872 211.574
c107.015 22.0215 196.744 -56.9316 252.827 -139.784c67.9023 -100.308 97.4385 -226.058 103.661 -345.818c2.29395 -44.207 1.37207 -88.5283 -2.65332 -132.542c74.6426 7.56055 148.824 15.4111 219.459 10.8164c11.7334 -0.762695 14.8818 -12.7471 10.6123 -21.7598
c-5.33984 -11.2666 -19.1973 -15.5645 -30.6406 -14.9443c-68.0957 3.7002 -135.765 -2.9043 -203.411 -10.0039c-8.89844 -67.7373 -25.3398 -134.461 -49.4844 -198.561c-42.75 -113.465 -114.751 -218.561 -235.73 -256.295
c-107.868 -33.6465 -226.536 3.42773 -270.562 112.851c-46.5703 115.753 -47.373 260.899 -23.8545 381.708zM135.261 744.227c-147.737 -134.495 -133.698 -388.792 45.7217 -488.917c85.9551 -47.9648 180.803 -55.4287 277.684 -50.7715
c10.4922 74.9619 12.7412 150.823 6.46191 226.61c-8.16992 98.5713 -28.5908 206.303 -84.9756 289.588c-25.8125 38.127 -65.374 68.5684 -112.081 74.7969c-49.918 6.66113 -96.9268 -18.6338 -132.811 -51.3066zM341.507 166.997
c-78.9072 5.40234 -160.825 26.1943 -226.501 70.4639c0.324219 -3.64941 0.273438 -7.6123 -0.261719 -11.9395c-7.83398 -63.7061 -10.7715 -127.19 -4.79395 -191.216c4.8623 -52.0352 11.7285 -107.971 35.4346 -155.292
c17.7227 -35.3711 48.625 -60.1074 89.1777 -61.0244c40.5869 -0.921875 66.7754 13.5156 94.3701 42.9434c62.5674 66.7119 92.5986 165.352 112.832 252.445c4.16699 17.9336 7.81641 35.9414 11.0215 54.0117c-37 -2.26562 -74.0742 -2.9375 -111.279 -0.392578z" />
    <glyph glyph-name="O" unicode="&#xd6;" horiz-adv-x="767" 
d="M-4.62109 218.302c6.1084 31.3633 46.3428 52.6875 78.5205 52.2207c-14.4326 13.834 -27.6006 29.2227 -39.1348 46.376c-60.0518 89.291 -68.7734 204.657 -30.4814 304.162c36.584 95.0527 116.903 190.18 220.872 211.574
c107.015 22.0215 196.744 -56.9316 252.827 -139.784c67.9023 -100.308 97.4385 -226.058 103.661 -345.818c2.29395 -44.207 1.37207 -88.5283 -2.65332 -132.542c74.6426 7.56055 148.824 15.4111 219.459 10.8164c11.7334 -0.762695 14.8818 -12.7471 10.6123 -21.7598
c-5.33984 -11.2666 -19.1973 -15.5645 -30.6406 -14.9443c-68.0957 3.7002 -135.765 -2.9043 -203.411 -10.0039c-8.89844 -67.7373 -25.3398 -134.461 -49.4844 -198.561c-42.75 -113.465 -114.751 -218.561 -235.73 -256.295
c-107.868 -33.6465 -226.536 3.42773 -270.562 112.851c-46.5703 115.753 -47.373 260.899 -23.8545 381.708zM135.261 744.227c-147.737 -134.495 -133.698 -388.792 45.7217 -488.917c85.9551 -47.9648 180.803 -55.4287 277.684 -50.7715
c10.4922 74.9619 12.7412 150.823 6.46191 226.61c-8.16992 98.5713 -28.5908 206.303 -84.9756 289.588c-25.8125 38.127 -65.374 68.5684 -112.081 74.7969c-49.918 6.66113 -96.9268 -18.6338 -132.811 -51.3066zM341.507 166.997
c-78.9072 5.40234 -160.825 26.1943 -226.501 70.4639c0.324219 -3.64941 0.273438 -7.6123 -0.261719 -11.9395c-7.83398 -63.7061 -10.7715 -127.19 -4.79395 -191.216c4.8623 -52.0352 11.7285 -107.971 35.4346 -155.292
c17.7227 -35.3711 48.625 -60.1074 89.1777 -61.0244c40.5869 -0.921875 66.7754 13.5156 94.3701 42.9434c62.5674 66.7119 92.5986 165.352 112.832 252.445c4.16699 17.9336 7.81641 35.9414 11.0215 54.0117c-37 -2.26562 -74.0742 -2.9375 -111.279 -0.392578z" />
    <glyph glyph-name="O" unicode="&#xd5;" horiz-adv-x="767" 
d="M-4.62109 218.302c6.1084 31.3633 46.3428 52.6875 78.5205 52.2207c-14.4326 13.834 -27.6006 29.2227 -39.1348 46.376c-60.0518 89.291 -68.7734 204.657 -30.4814 304.162c36.584 95.0527 116.903 190.18 220.872 211.574
c107.015 22.0215 196.744 -56.9316 252.827 -139.784c67.9023 -100.308 97.4385 -226.058 103.661 -345.818c2.29395 -44.207 1.37207 -88.5283 -2.65332 -132.542c74.6426 7.56055 148.824 15.4111 219.459 10.8164c11.7334 -0.762695 14.8818 -12.7471 10.6123 -21.7598
c-5.33984 -11.2666 -19.1973 -15.5645 -30.6406 -14.9443c-68.0957 3.7002 -135.765 -2.9043 -203.411 -10.0039c-8.89844 -67.7373 -25.3398 -134.461 -49.4844 -198.561c-42.75 -113.465 -114.751 -218.561 -235.73 -256.295
c-107.868 -33.6465 -226.536 3.42773 -270.562 112.851c-46.5703 115.753 -47.373 260.899 -23.8545 381.708zM135.261 744.227c-147.737 -134.495 -133.698 -388.792 45.7217 -488.917c85.9551 -47.9648 180.803 -55.4287 277.684 -50.7715
c10.4922 74.9619 12.7412 150.823 6.46191 226.61c-8.16992 98.5713 -28.5908 206.303 -84.9756 289.588c-25.8125 38.127 -65.374 68.5684 -112.081 74.7969c-49.918 6.66113 -96.9268 -18.6338 -132.811 -51.3066zM341.507 166.997
c-78.9072 5.40234 -160.825 26.1943 -226.501 70.4639c0.324219 -3.64941 0.273438 -7.6123 -0.261719 -11.9395c-7.83398 -63.7061 -10.7715 -127.19 -4.79395 -191.216c4.8623 -52.0352 11.7285 -107.971 35.4346 -155.292
c17.7227 -35.3711 48.625 -60.1074 89.1777 -61.0244c40.5869 -0.921875 66.7754 13.5156 94.3701 42.9434c62.5674 66.7119 92.5986 165.352 112.832 252.445c4.16699 17.9336 7.81641 35.9414 11.0215 54.0117c-37 -2.26562 -74.0742 -2.9375 -111.279 -0.392578z" />
    <glyph glyph-name="O" unicode="&#xd4;" horiz-adv-x="767" 
d="M-4.62109 218.302c6.1084 31.3633 46.3428 52.6875 78.5205 52.2207c-14.4326 13.834 -27.6006 29.2227 -39.1348 46.376c-60.0518 89.291 -68.7734 204.657 -30.4814 304.162c36.584 95.0527 116.903 190.18 220.872 211.574
c107.015 22.0215 196.744 -56.9316 252.827 -139.784c67.9023 -100.308 97.4385 -226.058 103.661 -345.818c2.29395 -44.207 1.37207 -88.5283 -2.65332 -132.542c74.6426 7.56055 148.824 15.4111 219.459 10.8164c11.7334 -0.762695 14.8818 -12.7471 10.6123 -21.7598
c-5.33984 -11.2666 -19.1973 -15.5645 -30.6406 -14.9443c-68.0957 3.7002 -135.765 -2.9043 -203.411 -10.0039c-8.89844 -67.7373 -25.3398 -134.461 -49.4844 -198.561c-42.75 -113.465 -114.751 -218.561 -235.73 -256.295
c-107.868 -33.6465 -226.536 3.42773 -270.562 112.851c-46.5703 115.753 -47.373 260.899 -23.8545 381.708zM135.261 744.227c-147.737 -134.495 -133.698 -388.792 45.7217 -488.917c85.9551 -47.9648 180.803 -55.4287 277.684 -50.7715
c10.4922 74.9619 12.7412 150.823 6.46191 226.61c-8.16992 98.5713 -28.5908 206.303 -84.9756 289.588c-25.8125 38.127 -65.374 68.5684 -112.081 74.7969c-49.918 6.66113 -96.9268 -18.6338 -132.811 -51.3066zM341.507 166.997
c-78.9072 5.40234 -160.825 26.1943 -226.501 70.4639c0.324219 -3.64941 0.273438 -7.6123 -0.261719 -11.9395c-7.83398 -63.7061 -10.7715 -127.19 -4.79395 -191.216c4.8623 -52.0352 11.7285 -107.971 35.4346 -155.292
c17.7227 -35.3711 48.625 -60.1074 89.1777 -61.0244c40.5869 -0.921875 66.7754 13.5156 94.3701 42.9434c62.5674 66.7119 92.5986 165.352 112.832 252.445c4.16699 17.9336 7.81641 35.9414 11.0215 54.0117c-37 -2.26562 -74.0742 -2.9375 -111.279 -0.392578z" />
    <glyph glyph-name="O" unicode="&#xd3;" horiz-adv-x="767" 
d="M-4.62109 218.302c6.1084 31.3633 46.3428 52.6875 78.5205 52.2207c-14.4326 13.834 -27.6006 29.2227 -39.1348 46.376c-60.0518 89.291 -68.7734 204.657 -30.4814 304.162c36.584 95.0527 116.903 190.18 220.872 211.574
c107.015 22.0215 196.744 -56.9316 252.827 -139.784c67.9023 -100.308 97.4385 -226.058 103.661 -345.818c2.29395 -44.207 1.37207 -88.5283 -2.65332 -132.542c74.6426 7.56055 148.824 15.4111 219.459 10.8164c11.7334 -0.762695 14.8818 -12.7471 10.6123 -21.7598
c-5.33984 -11.2666 -19.1973 -15.5645 -30.6406 -14.9443c-68.0957 3.7002 -135.765 -2.9043 -203.411 -10.0039c-8.89844 -67.7373 -25.3398 -134.461 -49.4844 -198.561c-42.75 -113.465 -114.751 -218.561 -235.73 -256.295
c-107.868 -33.6465 -226.536 3.42773 -270.562 112.851c-46.5703 115.753 -47.373 260.899 -23.8545 381.708zM135.261 744.227c-147.737 -134.495 -133.698 -388.792 45.7217 -488.917c85.9551 -47.9648 180.803 -55.4287 277.684 -50.7715
c10.4922 74.9619 12.7412 150.823 6.46191 226.61c-8.16992 98.5713 -28.5908 206.303 -84.9756 289.588c-25.8125 38.127 -65.374 68.5684 -112.081 74.7969c-49.918 6.66113 -96.9268 -18.6338 -132.811 -51.3066zM341.507 166.997
c-78.9072 5.40234 -160.825 26.1943 -226.501 70.4639c0.324219 -3.64941 0.273438 -7.6123 -0.261719 -11.9395c-7.83398 -63.7061 -10.7715 -127.19 -4.79395 -191.216c4.8623 -52.0352 11.7285 -107.971 35.4346 -155.292
c17.7227 -35.3711 48.625 -60.1074 89.1777 -61.0244c40.5869 -0.921875 66.7754 13.5156 94.3701 42.9434c62.5674 66.7119 92.5986 165.352 112.832 252.445c4.16699 17.9336 7.81641 35.9414 11.0215 54.0117c-37 -2.26562 -74.0742 -2.9375 -111.279 -0.392578z" />
    <glyph glyph-name="P" unicode="P" horiz-adv-x="722" 
d="M28.6777 -124.106c-17.8652 87.4639 -30.502 177.036 -37.2881 266.043c-13.9424 182.949 -12.9746 370.863 17.5293 552.133c10.6465 63.2568 141.51 89.6387 134.479 8.13574c-15.2178 -176.386 -24.8965 -351.684 -12.8096 -528.644
c5.04395 -73.835 12.1094 -147.117 21.4971 -220.388c9.23438 165.745 22.3232 331.199 53.2314 494.536c17.7627 93.8457 39.6074 203.82 108.922 274.939c27.8682 28.5967 68.1641 48.4541 108.192 34.9385c40.4551 -13.6641 78.6338 -47.4639 103.08 -81.6396
c56.499 -78.9922 77.3193 -178.27 81.4414 -273.772c3.56348 -82.625 -3.02344 -167.516 -22.9434 -248.512c53.1738 8.92676 105.175 22.4766 153.663 48.3174c25.5283 13.6006 39.5332 -16.0947 14.4268 -29.5762c-55.8838 -30.0029 -116.385 -45.3975 -178.121 -55.5195
c-3.83691 -12.7012 -8.01562 -25.2891 -12.5762 -37.7227c-37.4951 -102.261 -108.893 -215.617 -230.624 -221.168c-48.9385 -2.23145 -86.6895 14.4268 -114.66 54.2959c-10.5264 15.001 -17.5576 29.7578 -21.0078 44.8389
c-4.43457 -67.5322 -8.43652 -135.11 -13.042 -202.614c5.60254 -36.0205 9.61035 -71.8076 3.76953 -108.381c-3.94531 -24.7139 -49.3252 -45.6133 -68.124 -25.7383c-30.9248 32.7012 -43.752 76.0371 -55.6221 118.457
c-12.6504 45.1982 -24.0195 91.0449 -33.4131 137.04zM320.841 -48.7158c26.5361 4.20703 45.791 21.9854 61.7266 44.6104c21.3379 30.3047 37.5518 65.8359 50.3047 102.949c-29.3369 -3.66602 -58.5879 -7.99316 -87.4121 -14.5117
c-38.4463 -8.69336 -106.224 -33.1172 -96.1299 -84.8105c6.74023 -34.5059 37.54 -53.623 71.5107 -48.2373zM222.049 264.549c-10.1279 -83.0176 -17.1367 -166.348 -23.0176 -249.775c1.01367 3 2.11816 6.01758 3.38184 9.08594
c36.3447 88.0674 149.166 100.251 231.216 110.755c3.59277 0.460938 7.19629 0.887695 10.7939 1.32617c9.05762 32.2461 15.9805 64.7881 21.6797 95.3828c15.8037 84.8447 21.5479 171.904 15.8203 258.087c-2.5791 38.7988 -7.75391 78.9639 -19.584 116.101
c-10.5205 33.0371 -24.9297 78.2979 -49.6035 103.633c-67.5947 69.4053 -131.62 -129.041 -142.323 -170.134c-23.376 -89.7695 -37.1475 -182.494 -48.3633 -274.461z" />
    <glyph glyph-name="Q" unicode="Q" horiz-adv-x="767" 
d="M-4.62207 218.302c6.1084 31.3633 46.3398 52.6904 78.5293 52.2178c-14.4375 13.834 -27.6055 29.2227 -39.1396 46.376c-60.0518 89.291 -68.7793 204.657 -30.4814 304.162c36.5781 95.0527 116.902 190.18 220.871 211.574
c107.015 22.0215 196.744 -56.9316 252.827 -139.784c67.9023 -100.308 97.4385 -226.058 103.661 -345.818c2.29395 -44.207 1.37695 -88.5283 -2.65332 -132.542c74.6426 7.56055 148.824 15.4111 219.459 10.8164c11.7275 -0.762695 14.8818 -12.7471 10.6123 -21.7598
c-5.33984 -11.2666 -19.1973 -15.5645 -30.6406 -14.9443c-68.0957 3.7002 -135.765 -2.9043 -203.411 -10.0039c-8.89844 -67.7373 -25.3398 -134.461 -49.4844 -198.561c-42.75 -113.465 -114.751 -218.561 -235.73 -256.295
c-20.6602 -6.43848 -41.7139 -10.2646 -62.5684 -11.5117c83.1484 -42.1064 189.884 -86.3418 272.281 -18.7812c21.1221 17.3184 51.0225 -3.98535 26.3252 -24.3613c-65.8867 -54.3643 -154.427 -58.1504 -233.282 -33.5791
c-45.0957 14.0566 -85.3691 37.4668 -128.017 57.165c-40.7627 18.8271 -100.723 38.1494 -136.914 -0.273438c-16.5557 -17.5801 -57.751 -7.53125 -35.7295 16.3115c26.9746 29.2002 58.8223 41.5254 92.1445 43.29c-27.6572 20.3984 -50.293 48.5449 -64.7988 84.5938
c-46.5762 115.753 -47.3789 260.899 -23.8604 381.708zM135.257 744.229c-147.737 -134.495 -133.698 -388.792 45.7217 -488.917c85.9551 -47.9648 180.803 -55.4287 277.684 -50.7715c10.4922 74.9619 12.7412 150.823 6.46191 226.61
c-8.16992 98.5713 -28.5908 206.303 -84.9756 289.588c-25.8125 38.127 -65.374 68.5684 -112.081 74.7969c-49.918 6.66113 -96.9268 -18.6338 -132.811 -51.3066zM341.503 167c-78.9072 5.40234 -160.824 26.1943 -226.495 70.4639
c0.324219 -3.64941 0.273438 -7.6123 -0.261719 -11.9395c-7.83398 -63.7061 -10.7715 -127.19 -4.79395 -191.216c4.8623 -52.0352 11.7285 -107.971 35.4346 -155.292c17.7227 -35.3711 48.6191 -60.1074 89.1768 -61.0244
c40.5869 -0.921875 66.7754 13.5156 94.3701 42.9434c62.5674 66.7119 92.5928 165.352 112.832 252.445c4.16211 17.9336 7.81152 35.9414 11.0166 54.0117c-37.0059 -2.26562 -74.0742 -2.9375 -111.279 -0.392578z" />
    <glyph glyph-name="R" unicode="R" horiz-adv-x="724" 
d="M28.6641 -124.106c-17.8652 87.4639 -30.4961 177.03 -37.2705 266.02c-13.9424 182.949 -12.9688 370.863 17.5293 552.133c10.6465 63.2568 141.51 89.6387 134.479 8.13574c-14.4658 -167.646 -23.8877 -334.319 -14.4082 -502.358
c11.6025 9.62109 25.5107 16.6182 38.2295 19.6699c5.27734 1.26953 10.5146 2.7041 15.7354 4.22949c14.9385 68.6143 33.8564 136.368 53.7764 203.673c18.5771 62.7725 39.5283 125.853 71.5635 183.223c29.2686 52.417 69.3145 106.946 125.164 132.986
c51.8643 24.1787 110.213 13.3164 142.948 -35.4795c77.2559 -115.144 17.4668 -256.886 -59.1855 -354.785c-66.376 -84.7764 -153.293 -159.863 -252.154 -206.188c12.5703 -5.2207 24.7822 -12.3828 36.9717 -23.0977
c33.0029 -29.0068 55.7246 -69.3086 70.5664 -110.157c15.918 -43.8145 27.6855 -89.1543 43.165 -133.156c13.2822 -37.751 25.3115 -80.7168 54.1982 -109.837c29.1152 -29.3535 68.3809 -43.0342 103.354 -13.7539c33.8682 28.3574 53.1221 77.415 69.7686 117.073
c37.9277 90.3447 57.9795 186.912 78.207 282.387c4.57129 21.583 51.9102 29.958 46.1543 2.7959c-22.3623 -105.545 -45.2773 -212.035 -88.9385 -311.21c-36.7607 -83.501 -92.4004 -160.791 -193.477 -154.711c-102.044 6.14258 -175.85 77.1133 -204.014 172.645
c-15.5703 52.7979 -26.9854 107.042 -48.0332 158.053c-8.40918 20.376 -18.2754 39.3115 -29.6045 58.1904c-0.506836 0.848633 -1.01953 1.73145 -1.53809 2.63086c-0.227539 -1.96973 -0.489258 -3.93359 -0.706055 -5.90332
c-12.1377 -111.552 -10.1279 -224.009 -17.3926 -335.902c4.63379 -32.2119 7.30371 -64.3213 2.07129 -97.0625c-3.95117 -24.7139 -49.3252 -45.6133 -68.124 -25.7383c-30.9248 32.7012 -43.752 76.0371 -55.6221 118.457
c-12.6504 45.1982 -24.0195 91.0449 -33.4131 137.04zM287.858 452.572c-21.8047 -69.7412 -42.5215 -140.41 -58.8555 -211.95c87.3447 38.6846 163.821 110.014 221.669 182.527c33.4355 41.9072 61.9014 90.2422 79.5898 141.042
c17.8652 51.3184 30.208 137.86 -41.4229 153.494c-59.4766 12.9746 -109.52 -62.585 -134.854 -105.79c-29.2285 -49.8496 -48.9385 -104.361 -66.126 -159.323zM164.067 112.338c-9.51855 -1.01953 -19.6973 -0.47168 -28.9824 2.07324
c4.50293 -53.9883 10.1387 -107.766 17.0273 -161.532c2.27148 53.2705 5.53906 106.45 11.9551 159.459z" />
    <glyph glyph-name="S" unicode="S" horiz-adv-x="621" 
d="M233.836 94.8115c-68.3516 62.6816 -142.593 116.964 -197.07 193.212c-54.9561 76.9375 -74.7285 166.024 -54.1191 258.687c19.0439 85.625 76.6416 162.295 158.691 196.118c67.4521 27.8057 159.316 24.8057 207.139 -37.9609
c53.7432 -70.5439 -2.24316 -155.019 -56.8975 -204.406c-20.4102 -18.4404 -49.7979 2.9375 -26.3252 24.3604c37.877 34.5742 76.1914 91.6191 47.8564 143.376c-23.8086 43.4961 -79.5215 57.0625 -124.981 46.8096
c-106.576 -24.042 -136.442 -143.581 -94.8252 -233.675c70.0088 -151.558 229.804 -232.099 330.783 -360.679c71.4941 29.8262 145.966 53.2822 212.559 92.6904c20.376 12.0576 41.1621 -12.6621 19.4424 -25.9902
c-65.9492 -40.4727 -139.141 -66.2344 -210.334 -96.4141c0.0166016 -0.0224609 0.0332031 -0.0390625 0.0449219 -0.0615234c55.1777 -82.46 72.6611 -185.164 46.2217 -281.202c-24.3838 -88.5801 -88.2666 -167.641 -180.194 -190.755
c-78.0078 -19.6133 -160.2 -3.08008 -206.457 67.9648c-47.8965 73.5723 -21.2871 169.081 27.9648 234.285c38.9521 51.5684 92.707 92.1553 149.075 126.456c-15.7246 16.4873 -32.2002 32.166 -48.5732 47.1846zM296.925 -342.168
c82.2998 37.7461 94.9346 152.62 78.9824 230.497c-10.2188 49.8662 -36.3447 92.958 -68.5908 131.495c-78.7139 -48.1865 -158.834 -111.955 -173.539 -205.459c-7.38965 -47.0195 5.63086 -95.292 41.0078 -128.085c31.1582 -28.8867 81.3486 -47.1562 122.14 -28.4482z
" />
    <glyph glyph-name="T" unicode="T" horiz-adv-x="1002" 
d="M18.0693 635.815c-6.61523 -17.3184 -47.9414 -24.1416 -39.7549 -2.41113c31.1191 82.7158 111.916 120.945 193.089 140.394c146.957 35.2061 298.344 27.8506 448.131 18.4395c7.12793 2.86914 14.3467 4.94727 21.1729 6.1084
c14.4209 2.4541 37.5068 -0.0507812 51.5742 -10.6738c0.654297 -0.0400391 1.31445 -0.0800781 1.96875 -0.120117c90.9258 -5.4707 182.307 -9.08594 273.221 -1.34863c71.3242 6.06934 170.978 12.9639 213.824 79.8809c11.6992 18.2754 57.1191 17.8486 41.252 -6.80859
c-42.3516 -65.7959 -117.404 -89.4395 -191.073 -101.02c-108.733 -17.0908 -218.27 -14.3467 -327.737 -7.87891c-6.63281 -124.287 -12.4053 -248.854 -11.2783 -373.34c1.03027 -113.521 5.6875 -226.855 7.83398 -340.331
c1.01953 -54.0342 1.75977 -108.107 4.62891 -162.084c2.58496 -48.6592 7.33887 -103.16 26.7529 -148.347c7.30469 -17 21.0078 -46.0977 43.2227 -46.1201c22.0439 -0.0283203 41.0986 25.7959 51.9326 42.2607c29.3535 44.6055 45.1914 96.7324 61.0068 147.23
c34.8477 111.284 66.001 223.593 99.3457 335.315c5.5625 18.6396 48.2559 27.4189 42.0898 2.5459c-18.0527 -72.7988 -39.8066 -144.709 -61.2637 -216.562c-20.6777 -69.2119 -38.6562 -140.188 -65.1064 -207.476
c-17.3643 -44.1787 -40.4219 -92.4053 -80.2744 -120.752c-39.6924 -28.2324 -95.5537 -34.9902 -137.273 -7.7998c-42.2656 27.5488 -67.6855 83.7744 -81.5488 130.401c-17.3418 58.3438 -24.3789 117.678 -31.085 177.951
c-28.4199 255.315 -50.7656 522.859 -3.4043 777.081c1.22363 6.57031 3.78516 12.6562 7.25781 18.2637c-25.1807 1.59961 -50.3389 3.08008 -75.4629 4.21875c-86.832 3.92871 -174.421 4.03711 -260.615 -8.52734c-80.8086 -11.7793 -189.434 -32.041 -222.426 -118.491z
" />
    <glyph glyph-name="U" unicode="U" horiz-adv-x="807" 
d="M-3.42969 123.637c-9.78613 61.4629 -10.4824 124.711 -12.0596 186.812c-3.2793 128.984 3.03418 259.176 22.499 386.754c9.38281 61.4971 139.688 86.5586 130.407 7.88477c-14.7969 -125.454 -22.1582 -251.091 -25.0615 -377.342
c-2.27148 -98.7422 -9.49609 -209.104 21.2812 -304.464c11.25 -34.8535 33.7607 -94.2734 79.1982 -91.4551c50.5781 3.13672 68.6709 78.1494 82.6309 116.566c70.2881 193.453 104.407 397.581 165.222 593.915c1.01953 5.43652 1.9707 10.8848 3.01855 16.3164
c11.8584 61.4287 141.395 88.1699 132.154 7.99316c-14.0508 -121.919 -32.4795 -243.269 -46.1143 -365.256c-11.8643 -106.148 -21.1729 -213.055 -24.5088 -319.83c-1.63965 -52.4453 -1.37793 -104.766 3.66602 -157.052
c3.60352 -37.3359 10.1963 -78.1504 31.6875 -109.912c14.3184 -21.1611 38.1953 -34.6709 59.7041 -14.0732c16.1055 15.4229 27.1953 37.4893 37.5459 57c24.0137 45.2773 43.6953 93.2021 62.2148 140.939c37.165 95.7764 66.7578 194.473 89.5869 294.615
c4.37793 19.1914 46.667 27.0479 41.5088 2.50488c-27.2471 -129.633 -67.293 -256.026 -119.482 -377.792c-19.9717 -46.5986 -40.9619 -99.5107 -77.0566 -136.306c-34.1475 -34.8076 -74.0791 -36.0488 -117.614 -20.2959
c-100.074 36.2031 -122.915 157.239 -131.973 250.26c-11.9385 122.602 -2.1748 248.261 8.1123 370.635c1.33203 15.8555 2.75 31.6934 4.25293 47.5312c-5.85254 -23.9678 -11.7559 -47.9248 -17.8701 -71.8242c-14.7793 -57.7344 -30.7656 -115.167 -49.0234 -171.899
c-15.6963 -48.7793 -30.1055 -105.381 -62.0098 -146.52c-62.5625 -80.666 -189.036 -48.084 -240.263 27.6807c-30.7939 45.5391 -43.1484 103.217 -51.6543 156.613z" />
    <glyph glyph-name="U" unicode="&#xdc;" horiz-adv-x="807" 
d="M-3.42969 123.637c-9.78613 61.4629 -10.4824 124.711 -12.0596 186.812c-3.2793 128.984 3.03418 259.176 22.499 386.754c9.38281 61.4971 139.688 86.5586 130.407 7.88477c-14.7969 -125.454 -22.1582 -251.091 -25.0615 -377.342
c-2.27148 -98.7422 -9.49609 -209.104 21.2812 -304.464c11.25 -34.8535 33.7607 -94.2734 79.1982 -91.4551c50.5781 3.13672 68.6709 78.1494 82.6309 116.566c70.2881 193.453 104.407 397.581 165.222 593.915c1.01953 5.43652 1.9707 10.8848 3.01855 16.3164
c11.8584 61.4287 141.395 88.1699 132.154 7.99316c-14.0508 -121.919 -32.4795 -243.269 -46.1143 -365.256c-11.8643 -106.148 -21.1729 -213.055 -24.5088 -319.83c-1.63965 -52.4453 -1.37793 -104.766 3.66602 -157.052
c3.60352 -37.3359 10.1963 -78.1504 31.6875 -109.912c14.3184 -21.1611 38.1953 -34.6709 59.7041 -14.0732c16.1055 15.4229 27.1953 37.4893 37.5459 57c24.0137 45.2773 43.6953 93.2021 62.2148 140.939c37.165 95.7764 66.7578 194.473 89.5869 294.615
c4.37793 19.1914 46.667 27.0479 41.5088 2.50488c-27.2471 -129.633 -67.293 -256.026 -119.482 -377.792c-19.9717 -46.5986 -40.9619 -99.5107 -77.0566 -136.306c-34.1475 -34.8076 -74.0791 -36.0488 -117.614 -20.2959
c-100.074 36.2031 -122.915 157.239 -131.973 250.26c-11.9385 122.602 -2.1748 248.261 8.1123 370.635c1.33203 15.8555 2.75 31.6934 4.25293 47.5312c-5.85254 -23.9678 -11.7559 -47.9248 -17.8701 -71.8242c-14.7793 -57.7344 -30.7656 -115.167 -49.0234 -171.899
c-15.6963 -48.7793 -30.1055 -105.381 -62.0098 -146.52c-62.5625 -80.666 -189.036 -48.084 -240.263 27.6807c-30.7939 45.5391 -43.1484 103.217 -51.6543 156.613z" />
    <glyph glyph-name="U" unicode="&#xdb;" horiz-adv-x="807" 
d="M-3.42969 123.637c-9.78613 61.4629 -10.4824 124.711 -12.0596 186.812c-3.2793 128.984 3.03418 259.176 22.499 386.754c9.38281 61.4971 139.688 86.5586 130.407 7.88477c-14.7969 -125.454 -22.1582 -251.091 -25.0615 -377.342
c-2.27148 -98.7422 -9.49609 -209.104 21.2812 -304.464c11.25 -34.8535 33.7607 -94.2734 79.1982 -91.4551c50.5781 3.13672 68.6709 78.1494 82.6309 116.566c70.2881 193.453 104.407 397.581 165.222 593.915c1.01953 5.43652 1.9707 10.8848 3.01855 16.3164
c11.8584 61.4287 141.395 88.1699 132.154 7.99316c-14.0508 -121.919 -32.4795 -243.269 -46.1143 -365.256c-11.8643 -106.148 -21.1729 -213.055 -24.5088 -319.83c-1.63965 -52.4453 -1.37793 -104.766 3.66602 -157.052
c3.60352 -37.3359 10.1963 -78.1504 31.6875 -109.912c14.3184 -21.1611 38.1953 -34.6709 59.7041 -14.0732c16.1055 15.4229 27.1953 37.4893 37.5459 57c24.0137 45.2773 43.6953 93.2021 62.2148 140.939c37.165 95.7764 66.7578 194.473 89.5869 294.615
c4.37793 19.1914 46.667 27.0479 41.5088 2.50488c-27.2471 -129.633 -67.293 -256.026 -119.482 -377.792c-19.9717 -46.5986 -40.9619 -99.5107 -77.0566 -136.306c-34.1475 -34.8076 -74.0791 -36.0488 -117.614 -20.2959
c-100.074 36.2031 -122.915 157.239 -131.973 250.26c-11.9385 122.602 -2.1748 248.261 8.1123 370.635c1.33203 15.8555 2.75 31.6934 4.25293 47.5312c-5.85254 -23.9678 -11.7559 -47.9248 -17.8701 -71.8242c-14.7793 -57.7344 -30.7656 -115.167 -49.0234 -171.899
c-15.6963 -48.7793 -30.1055 -105.381 -62.0098 -146.52c-62.5625 -80.666 -189.036 -48.084 -240.263 27.6807c-30.7939 45.5391 -43.1484 103.217 -51.6543 156.613z" />
    <glyph glyph-name="U" unicode="&#xda;" horiz-adv-x="807" 
d="M-3.42969 123.637c-9.78613 61.4629 -10.4824 124.711 -12.0596 186.812c-3.2793 128.984 3.03418 259.176 22.499 386.754c9.38281 61.4971 139.688 86.5586 130.407 7.88477c-14.7969 -125.454 -22.1582 -251.091 -25.0615 -377.342
c-2.27148 -98.7422 -9.49609 -209.104 21.2812 -304.464c11.25 -34.8535 33.7607 -94.2734 79.1982 -91.4551c50.5781 3.13672 68.6709 78.1494 82.6309 116.566c70.2881 193.453 104.407 397.581 165.222 593.915c1.01953 5.43652 1.9707 10.8848 3.01855 16.3164
c11.8584 61.4287 141.395 88.1699 132.154 7.99316c-14.0508 -121.919 -32.4795 -243.269 -46.1143 -365.256c-11.8643 -106.148 -21.1729 -213.055 -24.5088 -319.83c-1.63965 -52.4453 -1.37793 -104.766 3.66602 -157.052
c3.60352 -37.3359 10.1963 -78.1504 31.6875 -109.912c14.3184 -21.1611 38.1953 -34.6709 59.7041 -14.0732c16.1055 15.4229 27.1953 37.4893 37.5459 57c24.0137 45.2773 43.6953 93.2021 62.2148 140.939c37.165 95.7764 66.7578 194.473 89.5869 294.615
c4.37793 19.1914 46.667 27.0479 41.5088 2.50488c-27.2471 -129.633 -67.293 -256.026 -119.482 -377.792c-19.9717 -46.5986 -40.9619 -99.5107 -77.0566 -136.306c-34.1475 -34.8076 -74.0791 -36.0488 -117.614 -20.2959
c-100.074 36.2031 -122.915 157.239 -131.973 250.26c-11.9385 122.602 -2.1748 248.261 8.1123 370.635c1.33203 15.8555 2.75 31.6934 4.25293 47.5312c-5.85254 -23.9678 -11.7559 -47.9248 -17.8701 -71.8242c-14.7793 -57.7344 -30.7656 -115.167 -49.0234 -171.899
c-15.6963 -48.7793 -30.1055 -105.381 -62.0098 -146.52c-62.5625 -80.666 -189.036 -48.084 -240.263 27.6807c-30.7939 45.5391 -43.1484 103.217 -51.6543 156.613z" />
    <glyph glyph-name="V" unicode="V" horiz-adv-x="842" 
d="M60.332 -55.6406c-36.749 108.142 -52.6064 225.367 -61.4248 338.911c-9.68359 124.811 -13.2871 251.022 -3.57422 375.907c2.8584 36.6924 29.9121 63.1318 65.3857 72.5029c25.4941 6.73535 75.1152 0.99707 74.3926 -35.2451
c-4.53711 -226.667 -5.65332 -456.466 35.9863 -680.292c15.1553 -81.4922 42.2373 -175.06 100.062 -237.092c31.8877 -34.2041 63.9463 -47.1045 104.994 -17.9209c37.4209 26.6045 66.8486 68.3066 91.3809 106.394c52.2627 81.1445 92.7695 170.749 130.174 259.511
c27.5488 65.3799 52.1719 131.995 74.0391 199.499c-11.7852 19.8174 -21.7705 39.8916 -29.792 58.833c-40.125 94.7627 -48.2549 204.105 -18.5312 302.95c12.6328 42.0098 31.0557 87.1738 67.9756 113.596c33.9199 24.2754 76.2031 19.8408 91.9053 -21.7871
c17.0742 -45.2607 9.36523 -103.166 4.32129 -150.101c-6.33691 -58.9756 -19.3057 -116.955 -34.4043 -174.239c-10.2871 -39.0381 -21.5938 -77.791 -33.7373 -116.282c36.2939 -56.9717 88.8818 -110.276 155.156 -119.801
c24.2754 -3.49023 3.54102 -32.1387 -12.6045 -32.1953c-65.0439 -0.239258 -119.881 42.4648 -160.963 95.7188c-18.7529 -55.0186 -39.3398 -109.411 -61.6914 -163.075c-42.8867 -102.978 -90.1973 -206.667 -154.695 -298.122
c-54.9961 -77.9902 -139.334 -157.751 -242.682 -121.28c-48.5967 17.1533 -81.9131 58.8389 -110.566 99.7158c-30.999 44.2246 -53.7656 92.8613 -71.1074 143.895zM652.686 620.71c-8.93848 -78.2578 5.30566 -159.185 38.8379 -230.354
c2.15234 7.28711 4.33887 14.5684 6.42871 21.8779c27.9873 97.8369 53.4131 199.096 49.5303 301.629c-0.666016 17.6143 0.381836 49.3193 -15.0977 61.9922c-18.998 15.5537 -39.71 -22.8584 -46.8037 -36.8633c-18.3662 -36.2656 -28.3008 -78.0537 -32.8955 -118.281z
" />
    <glyph glyph-name="W" unicode="W" horiz-adv-x="1243" 
d="M95.7871 -65.917c-70.2881 83.2734 -91.7051 212.062 -101.36 317.077c-11.415 124.06 -8.8584 248.979 -1.90723 373.186c1.89062 33.8457 28.2217 58.4854 60.4053 66.9854c22.8291 6.02344 70.4297 0.961914 68.7275 -32.5654
c-6.24512 -123.086 -12.1377 -246.679 -5.77832 -369.873c2.73242 -52.9521 6.36426 -105.745 15.9287 -157.974c8.40332 -45.8643 17.4043 -94.2559 39.1123 -135.998c19.0205 -36.5615 50.6748 -61.7822 90.4131 -36.0889
c38.3545 24.7998 61.8613 72.0127 78.3604 112.912c72.8721 180.655 86.0684 379.426 125.545 568.604c0.290039 1.38867 0.841797 2.69824 1.51367 3.96191c7.95312 27.4072 32.832 47.2305 61.0703 54.6885c26.3818 6.96289 71.0449 0.768555 72.502 -34.3525
c4.56055 -110.065 0.216797 -220.398 5.3125 -330.526c4.8623 -105.146 14.9277 -210.265 35.8672 -313.487c8.73926 -43.0859 21.6914 -83.707 38.1045 -124.481c12.9238 -32.1094 38.1162 -82.0215 79.6191 -78.042c42.7441 4.10449 77.3242 43.9854 100.814 76.6133
c24.3271 33.7998 42.4375 72.0518 58.6455 110.253c38.3545 90.3955 65.3916 185.227 90.248 280.068c2.20312 8.40918 4.40625 16.8232 6.60352 25.2432l-0.0498047 0.0673828c-67.2188 91.3184 -80.7744 210.897 -82.625 321.037
c-1.17285 69.707 5.72168 209.053 100.058 218.76c104.196 10.7207 90.168 -172.325 85.2949 -232.963c-7.89648 -98.252 -30.6865 -194.598 -55.0645 -290.009c3.01172 -3.94531 6.1084 -7.85059 9.33594 -11.6533c49.4395 -58.2354 121.002 -98.332 198.93 -90.3848
c28.7051 2.92676 12.9297 -31.4141 -8.10645 -33.8682c-80.8086 -9.42188 -157.843 24.834 -214.421 80.5586c-27.1963 -104.674 -57.5469 -209.798 -103.474 -307.959c-36.3105 -77.6035 -97.7734 -172.884 -191.118 -184.168
c-102.5 -12.3887 -175.145 76.8799 -209.696 161.986c-42.5508 104.816 -59.3174 223.342 -69.4912 335.326c-3.54102 38.9131 -6.3877 78.0762 -8.52832 117.33c-6.52441 -41.0703 -13.584 -82.0498 -22.0615 -122.812
c-11.3291 -54.5117 -24.9814 -108.637 -43.0576 -161.333c-15.7871 -46.0293 -32.5137 -96.6758 -58.3262 -138.11c-51.5576 -82.7559 -177.257 -121.042 -247.346 -38.0078zM984.415 555.477c6.31348 -60.9111 20.0107 -123.827 48.0498 -179.051
c15.2344 61.1562 28.915 122.728 37.4775 185.124c6.72363 48.9893 10.5947 98.8047 6.92285 148.222c-1.79297 24.0986 -4.11035 50.3154 -13.3447 72.8379c-9.55859 23.3193 -32.9912 43.6045 -53.1162 19.1982c-26.416 -32.0352 -30.6064 -81.3604 -31.3291 -121.115
c-0.756836 -41.6914 1.04199 -83.7412 5.33984 -125.216z" />
    <glyph glyph-name="X" unicode="X" horiz-adv-x="604" 
d="M-152.387 -251.338c-8.96094 -3.31348 -21.2334 0.570312 -22.7988 10.7891c-1.74219 11.415 11.2783 18.9414 20.0283 22.209c22.3682 8.35156 34.3633 39.8174 44.8447 59.1631c11.0732 20.4268 21.873 41.002 32.4736 61.6738
c21.9922 42.8926 43.0967 86.2344 63.8711 129.725c16.9766 35.5312 33.7656 71.1592 50.623 106.747c-7.65137 56.5332 -13.373 113.328 -18.873 169.639c-13.2939 136.106 -25.21 275.475 -18.3955 412.225c1.75391 35.2178 29.5537 60.9395 62.8926 69.7412
c27.0537 7.14453 68.7109 0.563477 71.5576 -33.9033c10.458 -126.502 12.5186 -253.658 21.0303 -380.388c31.5283 58.3037 65.1182 115.497 102.169 170.481c49.0635 72.8154 101.839 147.663 181.304 189.508c26.251 13.8291 40.7568 -16.7256 14.8135 -30.3662
c-86.4219 -45.4375 -143.462 -143.719 -193.254 -224.175c-35.9062 -58.0244 -68.5967 -117.934 -99.6582 -178.674c7.83984 -101.002 16.6133 -202.203 32.4746 -302.237c15.1211 -95.3945 38.9814 -207.419 105.961 -281.077
c39.0498 -42.9375 93.0156 -24.7246 128.786 13.4883c36.8799 39.4023 59.1348 93.4365 80.1709 142.369c44.8965 104.412 74.7061 214.66 96.2998 326.058c3.93359 20.2734 48.1006 28.2666 43.25 2.61328c-26.3535 -139.396 -66.0693 -277.746 -130.362 -404.709
c-48.3174 -95.4111 -128.295 -166.929 -240.769 -135.805c-110.214 30.498 -167.322 157.569 -196.033 258.076c-13.8857 48.6191 -24.4355 98.252 -32.918 148.34c-17.8311 -37.3809 -35.7529 -74.7168 -54.165 -111.813
c-22.1689 -44.6631 -44.9307 -89.0586 -69.0752 -132.691c-18.8213 -34.0283 -38.3945 -63.0068 -76.248 -77.0059z" />
    <glyph glyph-name="Y" unicode="Y" horiz-adv-x="700" 
d="M-8.04785 102.48c-11.46 53.0371 -17.1416 106.363 -18.3652 160.591c-2.5332 113.777 9.66699 227.39 26.8945 339.682c9.22266 60.1201 135.707 84.7598 127.503 7.70898c-11.5176 -108.182 -28.1416 -216.221 -30.1631 -325.171
c-0.876953 -47.3447 -0.0517578 -95.127 4.11035 -142.306c3.67188 -41.6113 5.56738 -87.7656 23.1133 -126.371c6.76367 -14.8877 19.0781 -35.041 33.4932 -44.0137c19.3398 -12.041 42.9092 4.49805 56.8916 18.1562c30.1113 29.4219 46.1436 73.9541 62.1641 111.944
c71.0391 168.421 103.068 350.625 132.895 530.017c-0.0908203 4.49805 -0.193359 9.00098 -0.267578 13.499c-1.09277 64.2646 131.233 112.076 138.003 36.7842c16.0889 -178.867 19.1807 -360.945 7.56641 -540.194
c-0.529297 -8.24902 -1.09277 -16.5439 -1.67871 -24.8506c52.7529 31.4209 106.007 62.1016 157.268 95.5146c19.3965 12.6387 46.3818 -5.36914 22.9717 -21.2529c-59.4824 -40.3584 -121.971 -76.4814 -183.309 -114.256
c-10.7715 -129.781 -31.335 -263.365 -90.2871 -379.221c-31.3691 -61.6396 -78.2578 -112.542 -149.428 -123.945c-53.3447 -8.5459 -102.243 23.5518 -123.541 72.04c-52.6279 119.824 68.5732 249.229 150.452 321.464c27.3096 24.0938 56.0596 46.1436 85.71 66.9297
c5.73828 133.874 -0.512695 268.267 -6.45605 402.42c-10.0029 -52.1436 -21.3379 -104.008 -35.0869 -155.36c-13.4014 -50.0488 -28.9326 -99.5449 -47.3496 -147.977c-17.2217 -45.2949 -34.9502 -92.9697 -62.4307 -133.181
c-47.9082 -70.1113 -158.042 -106.172 -222.637 -35.3438c-34.1074 37.4043 -47.5947 88.3691 -58.0361 136.692zM406.493 -154.089c7.21289 48.3809 12.0469 96.8818 15.1387 145.462c-14.6143 -10.9883 -28.9668 -22.3408 -42.9717 -34.1943
c-75.0752 -63.5186 -205.778 -195.475 -139.101 -302.757c14.1758 -22.8125 38.7305 -43.4727 66.9453 -42.4932c30.6523 1.06445 45.6426 30.2764 56.875 54.9443c25.0723 55.0703 34.2607 119.642 43.1133 179.038z" />
    <glyph glyph-name="Y" unicode="&#x178;" horiz-adv-x="700" 
d="M-8.04785 102.48c-11.46 53.0371 -17.1416 106.363 -18.3652 160.591c-2.5332 113.777 9.66699 227.39 26.8945 339.682c9.22266 60.1201 135.707 84.7598 127.503 7.70898c-11.5176 -108.182 -28.1416 -216.221 -30.1631 -325.171
c-0.876953 -47.3447 -0.0517578 -95.127 4.11035 -142.306c3.67188 -41.6113 5.56738 -87.7656 23.1133 -126.371c6.76367 -14.8877 19.0781 -35.041 33.4932 -44.0137c19.3398 -12.041 42.9092 4.49805 56.8916 18.1562c30.1113 29.4219 46.1436 73.9541 62.1641 111.944
c71.0391 168.421 103.068 350.625 132.895 530.017c-0.0908203 4.49805 -0.193359 9.00098 -0.267578 13.499c-1.09277 64.2646 131.233 112.076 138.003 36.7842c16.0889 -178.867 19.1807 -360.945 7.56641 -540.194
c-0.529297 -8.24902 -1.09277 -16.5439 -1.67871 -24.8506c52.7529 31.4209 106.007 62.1016 157.268 95.5146c19.3965 12.6387 46.3818 -5.36914 22.9717 -21.2529c-59.4824 -40.3584 -121.971 -76.4814 -183.309 -114.256
c-10.7715 -129.781 -31.335 -263.365 -90.2871 -379.221c-31.3691 -61.6396 -78.2578 -112.542 -149.428 -123.945c-53.3447 -8.5459 -102.243 23.5518 -123.541 72.04c-52.6279 119.824 68.5732 249.229 150.452 321.464c27.3096 24.0938 56.0596 46.1436 85.71 66.9297
c5.73828 133.874 -0.512695 268.267 -6.45605 402.42c-10.0029 -52.1436 -21.3379 -104.008 -35.0869 -155.36c-13.4014 -50.0488 -28.9326 -99.5449 -47.3496 -147.977c-17.2217 -45.2949 -34.9502 -92.9697 -62.4307 -133.181
c-47.9082 -70.1113 -158.042 -106.172 -222.637 -35.3438c-34.1074 37.4043 -47.5947 88.3691 -58.0361 136.692zM406.493 -154.089c7.21289 48.3809 12.0469 96.8818 15.1387 145.462c-14.6143 -10.9883 -28.9668 -22.3408 -42.9717 -34.1943
c-75.0752 -63.5186 -205.778 -195.475 -139.101 -302.757c14.1758 -22.8125 38.7305 -43.4727 66.9453 -42.4932c30.6523 1.06445 45.6426 30.2764 56.875 54.9443c25.0723 55.0703 34.2607 119.642 43.1133 179.038z" />
    <glyph glyph-name="Y" unicode="&#xdd;" horiz-adv-x="700" 
d="M-8.04785 102.48c-11.46 53.0371 -17.1416 106.363 -18.3652 160.591c-2.5332 113.777 9.66699 227.39 26.8945 339.682c9.22266 60.1201 135.707 84.7598 127.503 7.70898c-11.5176 -108.182 -28.1416 -216.221 -30.1631 -325.171
c-0.876953 -47.3447 -0.0517578 -95.127 4.11035 -142.306c3.67188 -41.6113 5.56738 -87.7656 23.1133 -126.371c6.76367 -14.8877 19.0781 -35.041 33.4932 -44.0137c19.3398 -12.041 42.9092 4.49805 56.8916 18.1562c30.1113 29.4219 46.1436 73.9541 62.1641 111.944
c71.0391 168.421 103.068 350.625 132.895 530.017c-0.0908203 4.49805 -0.193359 9.00098 -0.267578 13.499c-1.09277 64.2646 131.233 112.076 138.003 36.7842c16.0889 -178.867 19.1807 -360.945 7.56641 -540.194
c-0.529297 -8.24902 -1.09277 -16.5439 -1.67871 -24.8506c52.7529 31.4209 106.007 62.1016 157.268 95.5146c19.3965 12.6387 46.3818 -5.36914 22.9717 -21.2529c-59.4824 -40.3584 -121.971 -76.4814 -183.309 -114.256
c-10.7715 -129.781 -31.335 -263.365 -90.2871 -379.221c-31.3691 -61.6396 -78.2578 -112.542 -149.428 -123.945c-53.3447 -8.5459 -102.243 23.5518 -123.541 72.04c-52.6279 119.824 68.5732 249.229 150.452 321.464c27.3096 24.0938 56.0596 46.1436 85.71 66.9297
c5.73828 133.874 -0.512695 268.267 -6.45605 402.42c-10.0029 -52.1436 -21.3379 -104.008 -35.0869 -155.36c-13.4014 -50.0488 -28.9326 -99.5449 -47.3496 -147.977c-17.2217 -45.2949 -34.9502 -92.9697 -62.4307 -133.181
c-47.9082 -70.1113 -158.042 -106.172 -222.637 -35.3438c-34.1074 37.4043 -47.5947 88.3691 -58.0361 136.692zM406.493 -154.089c7.21289 48.3809 12.0469 96.8818 15.1387 145.462c-14.6143 -10.9883 -28.9668 -22.3408 -42.9717 -34.1943
c-75.0752 -63.5186 -205.778 -195.475 -139.101 -302.757c14.1758 -22.8125 38.7305 -43.4727 66.9453 -42.4932c30.6523 1.06445 45.6426 30.2764 56.875 54.9443c25.0723 55.0703 34.2607 119.642 43.1133 179.038z" />
    <glyph glyph-name="Z" unicode="Z" horiz-adv-x="709" 
d="M27.2305 -357.19c-47.709 -4.82812 -106.47 1.2832 -140.367 39.2568c-36.8857 41.3154 -23.2275 91.626 -5.56152 138.139c35.6787 93.9258 118.896 167.288 201.185 220.542c91.7793 59.3965 195.127 109.679 303.16 142.881
c0.722656 1.93555 1.51367 3.85449 2.22559 5.78418c25.2949 68.3291 44.834 139.221 58.5547 211.012c-9.90625 -2.3623 -19.7949 -4.79883 -29.6553 -7.41211c-27.9473 -7.40137 -26.165 25.8809 -2.68066 32.0977c12.7529 3.37598 25.5508 6.49609 38.3828 9.46191
c2.45898 14.9619 4.75293 29.9404 6.70605 44.9424c10.3213 79.4199 9.92285 179.842 -46.7236 243.115c-54.8936 61.3096 -161.708 59.4023 -230.737 26.5703c-38.918 -18.5088 -72.4961 -46.2002 -100.449 -78.8047
c-14.7285 -17.1816 -27.8281 -35.5986 -39.3281 -55.0859c-5.4541 -9.24609 -32.8721 -49.5137 -22.835 -59.1865c16.4365 -15.8379 -20.4092 -40.3643 -34.8701 -26.3477c-32.3652 31.375 24.8906 101.931 44.0312 128.228
c31.4434 43.2168 71.0449 80.4502 117.444 107.186c96.1514 55.4004 203.814 49.2344 299.716 -1.71973c98.5879 -52.3828 131.147 -159.295 132.833 -264.373c0.227539 -14.0508 0.00585938 -28.0674 -0.569336 -42.0615c10.043 1.29199 20.1025 2.49902 30.1855 3.55762
c28.5225 2.98926 13.1738 -31.6367 -8.10742 -33.8682c-8.07324 -0.848633 -16.1348 -1.78809 -24.1787 -2.7959c-5.875 -70.1855 -20.9902 -139.414 -42.1855 -206.673c69.0977 10.083 138.821 12.167 207.504 4.16211
c27.4121 -3.19434 1.42285 -36.6641 -18.7422 -34.3301c-67.3154 7.79395 -134.626 4.82227 -200.843 -6.0918c-3.67188 -10.4863 -7.42969 -20.9385 -11.3584 -31.3174c-43.6611 -115.36 -102.232 -229.035 -181.214 -324.396
c-75.5029 -91.1758 -180.627 -170.248 -301.521 -182.472zM-64.7783 -184.35c-6.5127 -36.7324 13.5605 -81.5947 53.4805 -86.2969c34.6885 -4.08789 70.9307 10.7998 100.479 27.5205c68.3975 38.708 126.229 109.81 170.248 176.249
c43.3311 65.3975 79.8525 136.334 109.89 209.184c-96.5391 -32.582 -192.918 -76.8633 -277.057 -134.205c-63.9395 -43.5811 -142.71 -111.631 -157.04 -192.451z" />
    <glyph glyph-name="bracketleft" unicode="[" horiz-adv-x="362" 
d="M275.023 -145.072c36.9033 13.7432 49.6426 -26.8779 23.6309 -48.4375c-39.4482 -32.707 -96.0156 -35.4336 -141.641 -14.0273c-48.0332 22.5391 -71.6484 69.3594 -83.9629 118.61c-25.6475 102.602 -23.04 213.1 -22.9209 318.161
c0.125 109.61 1.91309 219.42 8.91016 328.819c7.04199 110.18 15.4053 220.57 42.2998 327.994c6.93457 27.7031 14.8477 54.8535 24.4688 81.7422c6.96875 19.4707 13.2139 39.3857 29.2285 53.4023c22.334 19.5449 62.8574 28.8643 81.8389 0.780273
c9.1543 -13.5381 -12.8154 -27.8047 -28.3008 -26.8594c-0.267578 -1.51465 -0.609375 -3.01758 -0.854492 -4.54297c-2.03223 -13.4697 -2.56152 -27.1621 -3.72852 -40.7178c-2.13477 -24.7656 -4.64551 -49.4395 -6.14844 -74.25
c-3.2793 -54.1592 -5.66504 -108.261 -8.05078 -162.46c-4.82812 -109.729 -6.0918 -219.887 -6.46777 -329.713c-0.375977 -110.407 -0.478516 -221.47 6.64355 -331.684c3.00586 -46.4961 1.03613 -97.9336 16.6064 -142.528
c9.62695 -27.5664 34.2441 -67.0312 68.4482 -54.29z" />
    <glyph glyph-name="backslash" unicode="\" horiz-adv-x="513" 
d="M460.933 -231.938c10.3164 -33.4307 -12.0322 -62.041 -41.79 -76.5586c-24.3154 -11.8584 -73.0947 -17.8193 -86.0576 14.21c-78.7588 194.638 -129.649 401.777 -173.561 606.799c-21.8047 101.805 -42.3281 203.974 -60.9102 306.416
c-9.04688 49.8887 -18.3496 99.7041 -26.3486 149.77c-8.41406 52.7129 -21.6787 107.333 -22.2646 160.837c-0.1875 17.0449 30.5332 37.2725 43.9463 21.4346c64.0361 -75.5996 86.1143 -187.339 111.955 -280.376c27.8447 -100.273 53.4521 -201.128 80.6543 -301.578
c54.5693 -201.538 112.833 -401.437 174.376 -600.953z" />
    <glyph glyph-name="bracketright" unicode="]" horiz-adv-x="345" 
d="M275.523 815.63c24.9932 -212.229 21.7734 -426.243 12.3916 -639.366c-4.65723 -105.864 -11.3691 -212.946 -24.5547 -318.116c-6.22266 -49.6104 -26.3311 -95.5371 -67.9023 -125.512c-39.0664 -28.1641 -94.5518 -42.3115 -135.093 -9.76953
c-33.6924 27.0479 23.2217 72.0859 50.5029 71.1348c7.99902 -0.279297 7.87402 -3.0459 13.0205 2.49316c-2.20312 -2.37402 -5.02734 -2.33398 -3.79785 0.888672c6.87207 18.0186 8.05664 37.4209 8.88184 56.4473c2.4082 55.5479 5.12402 111.056 7.89062 166.581
c5.57324 111.768 11.9043 223.541 14.7734 335.423c2.88086 112.155 2.93164 224.236 0.944336 336.403c-0.996094 56.4531 -3.2793 112.878 -3.71191 169.325c-0.205078 26.9512 11.4834 137.899 -32.9805 130.926c-26.9229 -4.21875 -14.1875 27.6738 2.70996 32.9795
c43.2393 13.5723 95.3145 -3.99707 118.85 -43.166c28.0156 -46.627 31.8525 -113.84 38.0752 -166.672z" />
    <glyph glyph-name="asciicircum" unicode="^" horiz-adv-x="322" 
d="M268.639 668.536c12.793 -26.541 -13.5 -54.1592 -35.3848 -64.8281c-18.708 -9.12598 -64.6172 -15.9688 -72.8721 12.0303c-5.0957 17.2842 -11.5742 34.0615 -18.2803 50.7656c-7.90234 -18.7139 -16.8574 -36.75 -30.1113 -52.0479
c-11.2383 -12.9629 -47.1621 -26.4443 -56.749 -3.79688c-12.8037 30.2422 0.552734 71.2158 11.2393 100.7c12.7129 35.0811 25.4141 74.8535 61.1162 92.3828c85.7441 42.1064 114.472 -80.0684 141.042 -135.206z" />
    <glyph glyph-name="underscore" unicode="_" horiz-adv-x="469" 
d="M373.815 -97.1016c24.2529 -0.301758 50.2646 -12.8018 43.666 -41.7744c-6.24512 -27.4355 -38.3428 -47.4814 -65.2432 -48.3643c-91.4375 -2.98926 -184.919 -11.5635 -276.277 -5.85938c-17.5918 1.09863 -28.6934 18.2354 -25.374 34.5459
c3.87109 19.0322 25.0322 34.4209 42.7383 38.6396c90.3848 21.5371 187.977 23.9395 280.49 22.8125z" />
    <glyph glyph-name="grave" unicode="`" horiz-adv-x="196" 
d="M145.817 694.668c8.4541 -37.3701 -73.3389 -65.3916 -81.2471 -21.6621c-4.75391 26.2793 -10.5322 52.6045 -13.5664 79.1406c-2.86914 25.0723 -1.04688 47.583 25.29 58.8955c10.0596 4.32129 27.3955 8.18652 36.1113 -1.50879
c11.2549 -12.5195 14.54 -33.2422 18.542 -49.1436c5.47656 -21.7588 9.91699 -43.8369 14.8701 -65.7217z" />
    <glyph glyph-name="a" unicode="a" horiz-adv-x="480" 
d="M470.539 197.693c6.45605 15.0869 46.0312 18.3975 38.1123 -1.81348c-22.1523 -56.5215 -44.2988 -113.749 -78.623 -164.236c-31.7676 -46.7236 -71.0957 -62.2549 -126.496 -55.0869c-68.8643 8.91504 -84.0996 86.0059 -89.8438 143.774
c-8.7334 -28.8584 -18.8896 -57.3926 -33.293 -83.2969c-21.1221 -37.9736 -48.7676 -59.8408 -92.6387 -60.8652c-49.918 -1.16699 -88.165 26.8721 -103.069 74.877c-29.417 94.7168 0.620117 216.869 71.8643 286.69c33.8457 33.1738 93.3447 67.2129 141.901 45.0498
c14.0508 -6.41602 26.3311 -15.502 37.2051 -26.1885c14.7676 15.9355 37.4717 26.3887 56.5322 29.6279c24.082 4.09375 63.126 -4.22949 63.6777 -35.7979c1.67969 -96.2939 -14.6934 -192.702 -7.30957 -289.264c0.819336 -10.6914 1.69043 -21.7471 3.13672 -32.376
c1.75879 -12.9287 0.676758 -21.6055 19.0889 -9.34766c19.1348 12.7295 33.1572 41.9697 44.1445 61.082c21.5713 37.5352 38.5996 77.4385 55.6104 117.171zM214.417 281.374c0.495117 4.71387 1.07031 9.39844 1.65625 14.0781
c-13.1621 16.1738 -29.6094 26.957 -50.8389 15.5479c-19.9199 -10.7031 -29.4502 -29.1885 -38.5254 -49.2969c-26.957 -59.7207 -37.1416 -124.492 -28.334 -189.331c1.89551 -13.9307 2.35059 -31.6875 9.30176 -44.2637
c11.0957 -20.0801 22.8184 3.24512 30.1113 15.958c17.4268 30.373 27.4072 65.2549 37.6377 98.5488c13.999 45.5566 25.1572 92.7471 38.9912 138.759z" />
    <glyph glyph-name="a" unicode="&#xe5;" horiz-adv-x="480" 
d="M470.539 197.693c6.45605 15.0869 46.0312 18.3975 38.1123 -1.81348c-22.1523 -56.5215 -44.2988 -113.749 -78.623 -164.236c-31.7676 -46.7236 -71.0957 -62.2549 -126.496 -55.0869c-68.8643 8.91504 -84.0996 86.0059 -89.8438 143.774
c-8.7334 -28.8584 -18.8896 -57.3926 -33.293 -83.2969c-21.1221 -37.9736 -48.7676 -59.8408 -92.6387 -60.8652c-49.918 -1.16699 -88.165 26.8721 -103.069 74.877c-29.417 94.7168 0.620117 216.869 71.8643 286.69c33.8457 33.1738 93.3447 67.2129 141.901 45.0498
c14.0508 -6.41602 26.3311 -15.502 37.2051 -26.1885c14.7676 15.9355 37.4717 26.3887 56.5322 29.6279c24.082 4.09375 63.126 -4.22949 63.6777 -35.7979c1.67969 -96.2939 -14.6934 -192.702 -7.30957 -289.264c0.819336 -10.6914 1.69043 -21.7471 3.13672 -32.376
c1.75879 -12.9287 0.676758 -21.6055 19.0889 -9.34766c19.1348 12.7295 33.1572 41.9697 44.1445 61.082c21.5713 37.5352 38.5996 77.4385 55.6104 117.171zM214.417 281.374c0.495117 4.71387 1.07031 9.39844 1.65625 14.0781
c-13.1621 16.1738 -29.6094 26.957 -50.8389 15.5479c-19.9199 -10.7031 -29.4502 -29.1885 -38.5254 -49.2969c-26.957 -59.7207 -37.1416 -124.492 -28.334 -189.331c1.89551 -13.9307 2.35059 -31.6875 9.30176 -44.2637
c11.0957 -20.0801 22.8184 3.24512 30.1113 15.958c17.4268 30.373 27.4072 65.2549 37.6377 98.5488c13.999 45.5566 25.1572 92.7471 38.9912 138.759z" />
    <glyph glyph-name="a" unicode="&#xe4;" horiz-adv-x="480" 
d="M470.539 197.693c6.45605 15.0869 46.0312 18.3975 38.1123 -1.81348c-22.1523 -56.5215 -44.2988 -113.749 -78.623 -164.236c-31.7676 -46.7236 -71.0957 -62.2549 -126.496 -55.0869c-68.8643 8.91504 -84.0996 86.0059 -89.8438 143.774
c-8.7334 -28.8584 -18.8896 -57.3926 -33.293 -83.2969c-21.1221 -37.9736 -48.7676 -59.8408 -92.6387 -60.8652c-49.918 -1.16699 -88.165 26.8721 -103.069 74.877c-29.417 94.7168 0.620117 216.869 71.8643 286.69c33.8457 33.1738 93.3447 67.2129 141.901 45.0498
c14.0508 -6.41602 26.3311 -15.502 37.2051 -26.1885c14.7676 15.9355 37.4717 26.3887 56.5322 29.6279c24.082 4.09375 63.126 -4.22949 63.6777 -35.7979c1.67969 -96.2939 -14.6934 -192.702 -7.30957 -289.264c0.819336 -10.6914 1.69043 -21.7471 3.13672 -32.376
c1.75879 -12.9287 0.676758 -21.6055 19.0889 -9.34766c19.1348 12.7295 33.1572 41.9697 44.1445 61.082c21.5713 37.5352 38.5996 77.4385 55.6104 117.171zM214.417 281.374c0.495117 4.71387 1.07031 9.39844 1.65625 14.0781
c-13.1621 16.1738 -29.6094 26.957 -50.8389 15.5479c-19.9199 -10.7031 -29.4502 -29.1885 -38.5254 -49.2969c-26.957 -59.7207 -37.1416 -124.492 -28.334 -189.331c1.89551 -13.9307 2.35059 -31.6875 9.30176 -44.2637
c11.0957 -20.0801 22.8184 3.24512 30.1113 15.958c17.4268 30.373 27.4072 65.2549 37.6377 98.5488c13.999 45.5566 25.1572 92.7471 38.9912 138.759z" />
    <glyph glyph-name="a" unicode="&#xe3;" horiz-adv-x="480" 
d="M470.539 197.693c6.45605 15.0869 46.0312 18.3975 38.1123 -1.81348c-22.1523 -56.5215 -44.2988 -113.749 -78.623 -164.236c-31.7676 -46.7236 -71.0957 -62.2549 -126.496 -55.0869c-68.8643 8.91504 -84.0996 86.0059 -89.8438 143.774
c-8.7334 -28.8584 -18.8896 -57.3926 -33.293 -83.2969c-21.1221 -37.9736 -48.7676 -59.8408 -92.6387 -60.8652c-49.918 -1.16699 -88.165 26.8721 -103.069 74.877c-29.417 94.7168 0.620117 216.869 71.8643 286.69c33.8457 33.1738 93.3447 67.2129 141.901 45.0498
c14.0508 -6.41602 26.3311 -15.502 37.2051 -26.1885c14.7676 15.9355 37.4717 26.3887 56.5322 29.6279c24.082 4.09375 63.126 -4.22949 63.6777 -35.7979c1.67969 -96.2939 -14.6934 -192.702 -7.30957 -289.264c0.819336 -10.6914 1.69043 -21.7471 3.13672 -32.376
c1.75879 -12.9287 0.676758 -21.6055 19.0889 -9.34766c19.1348 12.7295 33.1572 41.9697 44.1445 61.082c21.5713 37.5352 38.5996 77.4385 55.6104 117.171zM214.417 281.374c0.495117 4.71387 1.07031 9.39844 1.65625 14.0781
c-13.1621 16.1738 -29.6094 26.957 -50.8389 15.5479c-19.9199 -10.7031 -29.4502 -29.1885 -38.5254 -49.2969c-26.957 -59.7207 -37.1416 -124.492 -28.334 -189.331c1.89551 -13.9307 2.35059 -31.6875 9.30176 -44.2637
c11.0957 -20.0801 22.8184 3.24512 30.1113 15.958c17.4268 30.373 27.4072 65.2549 37.6377 98.5488c13.999 45.5566 25.1572 92.7471 38.9912 138.759z" />
    <glyph glyph-name="a" unicode="&#xe2;" horiz-adv-x="480" 
d="M470.539 197.693c6.45605 15.0869 46.0312 18.3975 38.1123 -1.81348c-22.1523 -56.5215 -44.2988 -113.749 -78.623 -164.236c-31.7676 -46.7236 -71.0957 -62.2549 -126.496 -55.0869c-68.8643 8.91504 -84.0996 86.0059 -89.8438 143.774
c-8.7334 -28.8584 -18.8896 -57.3926 -33.293 -83.2969c-21.1221 -37.9736 -48.7676 -59.8408 -92.6387 -60.8652c-49.918 -1.16699 -88.165 26.8721 -103.069 74.877c-29.417 94.7168 0.620117 216.869 71.8643 286.69c33.8457 33.1738 93.3447 67.2129 141.901 45.0498
c14.0508 -6.41602 26.3311 -15.502 37.2051 -26.1885c14.7676 15.9355 37.4717 26.3887 56.5322 29.6279c24.082 4.09375 63.126 -4.22949 63.6777 -35.7979c1.67969 -96.2939 -14.6934 -192.702 -7.30957 -289.264c0.819336 -10.6914 1.69043 -21.7471 3.13672 -32.376
c1.75879 -12.9287 0.676758 -21.6055 19.0889 -9.34766c19.1348 12.7295 33.1572 41.9697 44.1445 61.082c21.5713 37.5352 38.5996 77.4385 55.6104 117.171zM214.417 281.374c0.495117 4.71387 1.07031 9.39844 1.65625 14.0781
c-13.1621 16.1738 -29.6094 26.957 -50.8389 15.5479c-19.9199 -10.7031 -29.4502 -29.1885 -38.5254 -49.2969c-26.957 -59.7207 -37.1416 -124.492 -28.334 -189.331c1.89551 -13.9307 2.35059 -31.6875 9.30176 -44.2637
c11.0957 -20.0801 22.8184 3.24512 30.1113 15.958c17.4268 30.373 27.4072 65.2549 37.6377 98.5488c13.999 45.5566 25.1572 92.7471 38.9912 138.759z" />
    <glyph glyph-name="a" unicode="&#xe1;" horiz-adv-x="480" 
d="M470.539 197.693c6.45605 15.0869 46.0312 18.3975 38.1123 -1.81348c-22.1523 -56.5215 -44.2988 -113.749 -78.623 -164.236c-31.7676 -46.7236 -71.0957 -62.2549 -126.496 -55.0869c-68.8643 8.91504 -84.0996 86.0059 -89.8438 143.774
c-8.7334 -28.8584 -18.8896 -57.3926 -33.293 -83.2969c-21.1221 -37.9736 -48.7676 -59.8408 -92.6387 -60.8652c-49.918 -1.16699 -88.165 26.8721 -103.069 74.877c-29.417 94.7168 0.620117 216.869 71.8643 286.69c33.8457 33.1738 93.3447 67.2129 141.901 45.0498
c14.0508 -6.41602 26.3311 -15.502 37.2051 -26.1885c14.7676 15.9355 37.4717 26.3887 56.5322 29.6279c24.082 4.09375 63.126 -4.22949 63.6777 -35.7979c1.67969 -96.2939 -14.6934 -192.702 -7.30957 -289.264c0.819336 -10.6914 1.69043 -21.7471 3.13672 -32.376
c1.75879 -12.9287 0.676758 -21.6055 19.0889 -9.34766c19.1348 12.7295 33.1572 41.9697 44.1445 61.082c21.5713 37.5352 38.5996 77.4385 55.6104 117.171zM214.417 281.374c0.495117 4.71387 1.07031 9.39844 1.65625 14.0781
c-13.1621 16.1738 -29.6094 26.957 -50.8389 15.5479c-19.9199 -10.7031 -29.4502 -29.1885 -38.5254 -49.2969c-26.957 -59.7207 -37.1416 -124.492 -28.334 -189.331c1.89551 -13.9307 2.35059 -31.6875 9.30176 -44.2637
c11.0957 -20.0801 22.8184 3.24512 30.1113 15.958c17.4268 30.373 27.4072 65.2549 37.6377 98.5488c13.999 45.5566 25.1572 92.7471 38.9912 138.759z" />
    <glyph glyph-name="b" unicode="b" horiz-adv-x="556" 
d="M572.613 225.972c30.6865 1.86719 14.4287 -34.8906 -8.69141 -36.2627c-43.5068 -2.60156 -87.8848 -12.2344 -130.72 -27.2354c-4.20703 -104.959 -57.5059 -219.432 -154.933 -261.339c-47.9473 -20.626 -113.282 -12.4453 -122.585 48.3633
c-8.91504 58.2979 39.5391 104.247 79.9268 138.622c20.416 17.376 42.7393 33.459 66.3145 48.1592c5.44238 32.8271 7.29883 66.5303 7.14551 100.883c-0.108398 24.2988 -4.70312 130.909 -46.4736 119.557c-20.1768 -5.48242 -36.2539 -32.0293 -46.9746 -48.0674
c-11.1475 -16.6865 -20.9678 -34.2441 -29.7354 -52.2803c-37.0449 -76.209 -53.584 -160.564 -69.3369 -243.309c-0.535156 -6.77441 -1.09863 -13.5781 -1.71875 -20.4609c-2.74414 -30.3896 -76.6924 -61.5996 -88.084 -23.791
c-14.9902 49.7578 -25.7842 97.9844 -31.8018 149.849c-6.00586 51.7568 -12.2568 103.559 -16.4814 155.497c-8.05566 99.0664 -14.6367 198.537 -15.126 297.968c-0.842773 170.635 12.1777 358.093 93.9541 511.632c36.2197 68.0049 95.3486 140.473 178.024 146.621
c65.875 4.90137 115.423 -33.5615 132.594 -95.9355c20.3076 -73.7891 10.8057 -156.983 -4.87891 -230.732c-17.4668 -82.1406 -48.0674 -160.649 -80.6553 -237.797c-47.7773 -113.089 -99.4082 -226.029 -175.816 -322.056
c1.90137 -34.1533 3.91699 -68.3008 5.82422 -102.46c0.945312 -16.9141 2.14648 -33.8457 3.3252 -50.7773c1.35449 4.04199 2.63574 8.10645 4.07031 12.126c20.5127 57.5576 48.876 120.575 94.6201 162.693c41.2236 37.9502 92.3877 35.6787 138.389 6.16504
c50.4072 -32.3486 71.5117 -101.714 78.4521 -157.849c0.649414 -5.23242 1.11035 -10.5498 1.48047 -15.9014c46.1143 15.4395 93.5947 25.2939 139.892 28.1182zM102.145 432.853c56.0889 78.4805 102.644 162.756 141.129 253.613
c30.0488 70.9199 56.4082 143.798 71.751 219.442c13.3564 65.8467 25.0615 146.9 1.60547 211.928c-9.59277 26.5928 -27.6348 56.3789 -58.4062 59.8291c-30.5156 3.42188 -55.042 -24.1328 -71.125 -46.4268c-37.8652 -52.4854 -52.4111 -118.765 -62.2148 -181.521
c-24.1621 -154.678 -29.2402 -310.853 -24.6064 -467.141c0.489258 -16.5781 1.16699 -33.1514 1.86719 -49.7246zM213.664 -38.1992c0.267578 0.1875 0.563477 0.324219 0.842773 0.489258c-3.39355 -0.973633 -10.6182 -7.54883 -0.842773 -0.489258zM215.024 -37.6074
c0.318359 -0.15332 0.631836 -0.301758 0.945312 -0.460938c-0.114258 0.392578 -0.466797 0.506836 -0.945312 0.460938zM259.408 13.8018c13.9424 24.2188 24.1865 49.2148 31.6904 74.8516c-5.42578 -3.89941 -10.7549 -7.87305 -15.9639 -11.9326
c-19.083 -14.8701 -37.9502 -31.3408 -53.1221 -50.2764c-6.80859 -8.5 -12.7354 -17.5576 -16.2422 -27.9131c-3.11426 -9.19434 -5.19824 -16.6123 -0.711914 -25.6816c0.255859 -4.95312 2.56738 -7.94727 6.94531 -8.98926
c0.945312 -0.460938 1.89062 -0.916016 2.83594 -1.37695c1.85059 0.979492 3.96289 1.54297 5.67676 2.77246c4.09375 2.94336 7.83984 7.57715 11.2334 11.3691c10.3672 11.5801 19.915 23.7295 27.6582 37.1768z" />
    <glyph glyph-name="c" unicode="c" horiz-adv-x="300" 
d="M286.874 197.562c8.24902 20.6602 52.1885 20.8623 41.2578 -6.8125c-30.3506 -76.8008 -79.9268 -167.077 -154.689 -208.688c-78.1328 -43.4902 -165.187 3.1084 -189.172 85.0273c-26.3193 89.8896 1.95898 210.129 70.083 274.945
c31.0557 29.5479 77.0732 54.1484 121.503 46.6904c38.7705 -6.50684 51.5684 -41.3604 56.7891 -75.8721c3.49023 -23.0859 -42.6016 -38.6621 -48.7334 -12.9912c-2.33398 9.78125 -6.0459 29.9521 -15.6562 35.8789
c-12.6953 7.82812 -15.7871 -8.32324 -20.2275 -17.4434c-11.0215 -22.6299 -17.7334 -48.4658 -25.0322 -72.4971c-16.4248 -54.085 -26.5186 -110.737 -22.9834 -167.447c1.26953 -20.3643 2.49316 -59.584 22.209 -72.1885
c22.8467 -14.6084 61.3496 26.041 74.8594 41.0479c39.1973 43.5303 68.1758 96.1973 89.793 150.351z" />
    <glyph glyph-name="d" unicode="d" horiz-adv-x="641" 
d="M629.471 177.255c10.4297 17.1416 52.4932 17.873 38.585 -6.38574c-50.3047 -87.709 -108.864 -229.309 -229.28 -227.031c-25.0898 0.472656 -49.9004 2.44238 -72.1494 15.0068c-22.3574 12.627 -39.7559 32.2568 -54.7969 52.6494
c-26.5645 36.0088 -43.8662 76.3906 -56.334 119.152c-7.15039 24.543 -12.7695 49.4844 -17.2842 74.6592c-2.96582 -9.77539 -5.89258 -19.5225 -8.63672 -29.2295c-13.208 -46.6553 -25.4658 -96.4023 -49.1836 -139.05
c-21.1221 -37.9736 -48.7676 -59.8408 -92.6387 -60.8652c-49.918 -1.16699 -88.165 26.8721 -103.069 74.877c-29.4111 94.7168 0.625977 216.869 71.8643 286.69c33.8457 33.1738 93.3447 67.2129 141.901 45.0498c8.2041 -3.74609 15.7988 -8.41406 22.875 -13.7539
c-0.791016 15.6963 -1.45117 31.3643 -2.04883 46.9688c-5.06152 132.479 1.59961 267.111 18.4512 398.583c12.001 93.6465 26.126 187.162 62.8584 274.672c35.4346 84.4121 114.062 167.384 213.106 154.961c67.1904 -8.42578 97.1992 -61.748 100.706 -124.675
c4.13281 -74.1475 -7.95898 -148.979 -25.4766 -220.826c-43.6436 -179.01 -128.198 -343.388 -225.454 -498.981c0.831055 -75.167 4.22949 -150.271 9.94531 -224.954c4.54297 -59.3564 13.874 -153.186 71.7617 -187.049
c38.2354 -22.3623 80.0518 29.0469 100.04 55.3438c31.8984 41.9639 56.9141 89.2402 84.2578 134.188zM490.977 1163.5c-6.47852 -1.79883 -5.89844 -4.13281 0 0zM380.215 754.516c-10.1338 -92.127 -15.4463 -185.003 -16.6592 -277.967
c79.0381 134.473 145.733 275.686 181.811 428.211c14.4893 61.2637 31.4609 133.049 16.3232 195.765c-5.21484 21.5996 -14.5293 44.5205 -33.9375 57.2158c-2.13477 1.40039 -8.88672 4.57129 -9.84863 4.89551c0.500977 -0.165039 -12.5762 2.12891 -10.3164 2.2373
c-4.37207 0.0742188 -13.7832 -0.722656 -12.8496 -0.574219c-1.34961 -0.210938 -2.49414 -0.472656 -3.50781 -0.746094c-4.53711 -3.63184 -12.6328 -9.95117 -12.4795 -9.14258c-2.84082 -3.01172 -5.55664 -6.13184 -8.14746 -9.35449
c2.21484 2.48242 -6.71777 -9.89453 -8.2041 -12.4453c-3.86035 -6.63867 -7.33887 -13.5107 -10.5498 -20.4844c-0.205078 -0.438477 -3.97949 -9.60449 -4.44043 -10.4697c-0.916992 -2.52734 -1.83398 -5.06641 -2.75098 -7.58887
c-2.77832 -7.64062 -5.55664 -15.2812 -8.03906 -23.0293c-4.89062 -15.2686 -8.80762 -30.7656 -12.6445 -46.3252c-21.8906 -88.6992 -33.7783 -179.482 -43.7588 -270.197zM175.426 142.623c15.1953 49.4336 26.9678 100.801 42.5215 150.474
c-13.4639 17.4492 -30.4639 29.8721 -52.7129 17.9111c-19.9199 -10.7031 -29.4502 -29.1885 -38.5254 -49.2969c-26.957 -59.7207 -37.1416 -124.492 -28.334 -189.331c1.89551 -13.9307 2.35059 -31.6875 9.30176 -44.2637
c11.0957 -20.0801 22.8184 3.24512 30.1113 15.958c17.4268 30.373 27.4072 65.2549 37.6377 98.5488z" />
    <glyph glyph-name="e" unicode="e" horiz-adv-x="291" 
d="M276.233 198.155c10.3213 20.0801 56.1201 20.2275 42.3203 -6.98535c-38.0186 -74.9844 -82.9775 -174.592 -166.069 -209.013c-33.8916 -14.0391 -76.0098 -17.1533 -109.588 -0.716797c-38.0703 18.6338 -55.958 62.8691 -63.3701 102.157
c-16.0322 84.9814 7.00781 187.048 70.3096 248.579c31.6768 30.7939 74.3359 58.5596 120.86 52.4961c30.0537 -3.91699 57.3125 -24.0254 59.9141 -55.7705c5.61914 -68.5342 -65.2832 -101.19 -124.708 -111.745c-8.00488 -25.3799 -12.5938 -51.7617 -13.0381 -77.6602
c-0.512695 -29.8203 -0.120117 -65.4307 11.3916 -93.458c6.08008 -14.8135 9.64941 -26.7861 26.501 -28.6475c16.7949 -1.86133 28.9551 9.44531 40.7969 20.4277c47.1338 43.6895 75.7529 104.054 104.68 160.336zM148.032 300.91
c-10.1562 -13.8174 -19.1113 -28.8818 -26.7119 -44.7256c22.5225 4.62305 44.1162 14.0107 54.1934 35.2236c2.56738 5.4082 10.0479 39.4648 -5.76172 36.6699c-4.88477 -0.865234 -18.8389 -23.2451 -21.7197 -27.168z" />
    <glyph glyph-name="e" unicode="&#xeb;" horiz-adv-x="291" 
d="M276.233 198.155c10.3213 20.0801 56.1201 20.2275 42.3203 -6.98535c-38.0186 -74.9844 -82.9775 -174.592 -166.069 -209.013c-33.8916 -14.0391 -76.0098 -17.1533 -109.588 -0.716797c-38.0703 18.6338 -55.958 62.8691 -63.3701 102.157
c-16.0322 84.9814 7.00781 187.048 70.3096 248.579c31.6768 30.7939 74.3359 58.5596 120.86 52.4961c30.0537 -3.91699 57.3125 -24.0254 59.9141 -55.7705c5.61914 -68.5342 -65.2832 -101.19 -124.708 -111.745c-8.00488 -25.3799 -12.5938 -51.7617 -13.0381 -77.6602
c-0.512695 -29.8203 -0.120117 -65.4307 11.3916 -93.458c6.08008 -14.8135 9.64941 -26.7861 26.501 -28.6475c16.7949 -1.86133 28.9551 9.44531 40.7969 20.4277c47.1338 43.6895 75.7529 104.054 104.68 160.336zM148.032 300.91
c-10.1562 -13.8174 -19.1113 -28.8818 -26.7119 -44.7256c22.5225 4.62305 44.1162 14.0107 54.1934 35.2236c2.56738 5.4082 10.0479 39.4648 -5.76172 36.6699c-4.88477 -0.865234 -18.8389 -23.2451 -21.7197 -27.168z" />
    <glyph glyph-name="e" unicode="&#xea;" horiz-adv-x="291" 
d="M276.233 198.155c10.3213 20.0801 56.1201 20.2275 42.3203 -6.98535c-38.0186 -74.9844 -82.9775 -174.592 -166.069 -209.013c-33.8916 -14.0391 -76.0098 -17.1533 -109.588 -0.716797c-38.0703 18.6338 -55.958 62.8691 -63.3701 102.157
c-16.0322 84.9814 7.00781 187.048 70.3096 248.579c31.6768 30.7939 74.3359 58.5596 120.86 52.4961c30.0537 -3.91699 57.3125 -24.0254 59.9141 -55.7705c5.61914 -68.5342 -65.2832 -101.19 -124.708 -111.745c-8.00488 -25.3799 -12.5938 -51.7617 -13.0381 -77.6602
c-0.512695 -29.8203 -0.120117 -65.4307 11.3916 -93.458c6.08008 -14.8135 9.64941 -26.7861 26.501 -28.6475c16.7949 -1.86133 28.9551 9.44531 40.7969 20.4277c47.1338 43.6895 75.7529 104.054 104.68 160.336zM148.032 300.91
c-10.1562 -13.8174 -19.1113 -28.8818 -26.7119 -44.7256c22.5225 4.62305 44.1162 14.0107 54.1934 35.2236c2.56738 5.4082 10.0479 39.4648 -5.76172 36.6699c-4.88477 -0.865234 -18.8389 -23.2451 -21.7197 -27.168z" />
    <glyph glyph-name="e" unicode="&#xe9;" horiz-adv-x="291" 
d="M276.233 198.155c10.3213 20.0801 56.1201 20.2275 42.3203 -6.98535c-38.0186 -74.9844 -82.9775 -174.592 -166.069 -209.013c-33.8916 -14.0391 -76.0098 -17.1533 -109.588 -0.716797c-38.0703 18.6338 -55.958 62.8691 -63.3701 102.157
c-16.0322 84.9814 7.00781 187.048 70.3096 248.579c31.6768 30.7939 74.3359 58.5596 120.86 52.4961c30.0537 -3.91699 57.3125 -24.0254 59.9141 -55.7705c5.61914 -68.5342 -65.2832 -101.19 -124.708 -111.745c-8.00488 -25.3799 -12.5938 -51.7617 -13.0381 -77.6602
c-0.512695 -29.8203 -0.120117 -65.4307 11.3916 -93.458c6.08008 -14.8135 9.64941 -26.7861 26.501 -28.6475c16.7949 -1.86133 28.9551 9.44531 40.7969 20.4277c47.1338 43.6895 75.7529 104.054 104.68 160.336zM148.032 300.91
c-10.1562 -13.8174 -19.1113 -28.8818 -26.7119 -44.7256c22.5225 4.62305 44.1162 14.0107 54.1934 35.2236c2.56738 5.4082 10.0479 39.4648 -5.76172 36.6699c-4.88477 -0.865234 -18.8389 -23.2451 -21.7197 -27.168z" />
    <glyph glyph-name="f" unicode="f" horiz-adv-x="413" 
d="M427.877 222.835c33.7998 2.33398 14.4678 -36.1973 -9.38086 -39.1631c-54.9961 -6.83203 -106.747 -9.58789 -160.849 -3.91797c19.2031 -20.9902 33.1631 -47.8672 39.8359 -79.2422c15.4004 -72.4053 -19.1396 -158.622 -99.5723 -168.739
c-111.768 -14.0566 -171.136 99.5049 -195.565 190.51c-27.7656 103.434 -33.4189 214.319 -34.7344 320.935c-1.93555 156.448 8.36914 313.323 34.6035 467.636c15.7705 92.7695 40.502 192.399 105.809 263.718c54.7002 59.7324 178.651 102.858 232.617 17.9111
c39.2432 -61.7705 24.8789 -154.739 13.3389 -222.414c-34.8877 -204.572 -129.439 -392.44 -238.332 -567.072c0.700195 -53.7266 2.71582 -107.391 6.77539 -160.963c101.845 -6.80859 202.943 -26.2734 305.454 -19.1973zM144.223 866.463
c-18.4004 -128.085 -27.8848 -257.604 -28.7676 -386.993c88.5742 151.022 162.016 311.313 192.366 484.857c9.59277 54.8535 25.9717 145.13 -18.6113 190.14c-7.67969 7.75391 -17.5117 12.9346 -28.084 14.8301c-9.93457 1.77637 -25.5566 -4.02539 -29.582 -4.45801
c7.16797 0.768555 0.319336 -0.939453 -0.415039 0.0849609c-1.41211 -1.65137 -2.82422 -3.63281 -3.78613 -4.8623c11.2441 14.4033 -11.8818 -17.2334 -11.1875 -15.3096c-8.06738 -12.7529 -14.7285 -26.5527 -20.5352 -40.4785
c0.666016 1.26953 -4.12207 -11.5059 -4.68555 -13.2256c-1.56543 -4.74805 -3.04004 -9.53027 -4.43457 -14.335c-2.5166 -8.67676 -4.82812 -17.4219 -7.17383 -26.1377c-4.77637 -17.7402 -9.00098 -35.583 -12.5361 -53.6133
c-8.5 -43.3418 -16.2822 -86.7695 -22.5674 -130.499zM246.739 14.2266c10.5205 25.2373 8.81152 56.6289 1.82031 82.499c-16.1113 59.585 -63.2451 96.4023 -121.861 96.8184c0.410156 -4.08203 0.757812 -8.16992 1.19629 -12.252
c3.82617 -35.5254 9.50781 -72.3086 21.207 -106.148c10.8281 -31.3291 28.084 -74.1416 65.5166 -79.5674c8.2041 -1.18945 15.252 0.615234 18.7529 2.51074c5.16406 2.79004 9.87793 7.75977 13.3682 16.1396z" />
    <glyph glyph-name="g" unicode="g" horiz-adv-x="476" 
d="M467.455 201.713c16.2998 16.8232 56.5908 7.08887 34.8262 -15.9004c-43.3311 -45.7734 -86.8271 -91.4834 -129.189 -138.179c-0.358398 -68.2441 -2.52734 -136.402 -5.18066 -203.832c-3.00586 -76.4707 -7.19629 -154.644 -21.7598 -229.913
c-12.8037 -66.2061 -33.2197 -141.828 -79.6699 -192.924c-38.332 -42.1689 -101.424 -69.9629 -156.796 -46.3994c-52.8662 22.499 -82.6982 79.0264 -88.5967 134.005c-6.99121 65.1582 17.6201 129.599 45.9326 186.985c31.4033 63.6553 71.5342 122.54 113.504 179.608
c17.1025 23.251 34.7744 46.0352 52.8789 68.4551c-2.5332 71.1699 -6.0625 142.329 -9.14258 213.493c-11.4033 -40.9395 -23.3418 -83.166 -43.8711 -120.075c-21.1221 -37.9736 -48.7676 -59.8408 -92.6387 -60.8652c-49.918 -1.16699 -88.165 26.8721 -103.069 74.877
c-29.4111 94.7168 0.625977 216.869 71.8643 286.69c33.8457 33.1738 93.3447 67.2129 141.901 45.0498c13.5098 -6.16602 25.3857 -14.791 35.9463 -24.9424c34.6826 40.5977 115.56 57.1191 122.955 -2.10645c10.4072 -83.3701 14.7227 -168.09 15.6279 -252.935
c31.1357 33.3164 62.7607 66.1777 94.4775 98.9072zM175.414 142.619c15.1953 49.4336 26.9678 100.801 42.5215 150.474c-13.4639 17.4492 -30.4639 29.8721 -52.7129 17.9111c-19.9199 -10.7031 -29.4502 -29.1885 -38.5254 -49.2969
c-26.957 -59.7207 -37.1416 -124.492 -28.334 -189.331c1.89551 -13.9307 2.35059 -31.6875 9.30176 -44.2637c11.0957 -20.0801 22.8184 3.24512 30.1113 15.958c17.4268 30.373 27.4072 65.2549 37.6377 98.5488zM233.574 -445.417
c13.3447 108.842 6.76953 219.774 2.11816 329.407c-4.29297 -5.65332 -8.57422 -11.3184 -12.7988 -17.0283c-35.7246 -48.3174 -69.8379 -98.0645 -98.4004 -151.011c-30.3848 -56.3281 -59.9951 -120.245 -55.8047 -185.848
c3.21094 -50.2764 33.1631 -118.247 90.584 -124.715c63.7295 -7.17383 69.1777 107.412 74.3018 149.194z" />
    <glyph glyph-name="h" unicode="h" horiz-adv-x="499" 
d="M484.204 194.528c5.39746 19.6982 49.6006 26.873 42.666 2.58594c-14.335 -50.2539 -28.9609 -100.883 -50.6572 -148.562c-17.1475 -37.6777 -39.4648 -73.4248 -79.209 -90.168c-36.9434 -15.5654 -88.085 -16.5215 -119.739 10.9707
c-44.9756 39.0664 -36.1572 109.263 -31.5918 162.42c4.83301 56.2197 12.376 112.069 17.5225 168.215c1.04199 11.3291 11.2607 59.2422 -9.61621 58.5361c-18.8389 -0.637695 -42.4033 -53.7432 -50.2197 -68.3066
c-45.9668 -85.5908 -66.8662 -182.329 -86.7861 -276.772c-0.541016 -6.90039 -1.11621 -13.835 -1.74805 -20.8486c-2.73828 -30.3896 -76.6865 -61.5996 -88.0781 -23.791c-14.9902 49.7578 -25.7842 97.9844 -31.8018 149.849
c-6.00586 51.7568 -12.2568 103.559 -16.4814 155.497c-8.05566 99.0664 -14.6367 198.537 -15.126 297.968c-0.842773 170.635 12.1777 358.093 93.9541 511.632c36.2197 68.0049 95.3486 140.473 178.024 146.621c65.875 4.90137 115.423 -33.5615 132.594 -95.9355
c20.3076 -73.7891 10.8057 -156.983 -4.87891 -230.732c-17.4668 -82.1406 -48.0674 -160.649 -80.6553 -237.797c-47.7773 -113.089 -99.4082 -226.029 -175.816 -322.056c1.90137 -34.1533 3.91699 -68.3008 5.82422 -102.46
c1.17285 -21.0244 2.74414 -42.0664 4.16699 -63.1084c41.3604 137.581 111.979 281.856 216.288 187.43c37.165 -33.6406 47.1621 -91.9668 49.8779 -139.618c3.12598 -54.8594 0.695312 -111.073 -1.13184 -165.915
c-0.318359 -9.56445 -7.91895 -58.8555 2.18652 -65.8184c15.457 -10.6572 39.374 33.334 44.3154 42.4658c26.752 49.4219 41.3662 103.82 56.1172 157.7zM102.145 432.851c56.0889 78.4805 102.648 162.756 141.129 253.613
c30.0488 70.9199 56.4082 143.798 71.751 219.442c13.3564 65.8467 25.0615 146.9 1.60547 211.928c-9.59277 26.5928 -27.6348 56.3789 -58.4062 59.8291c-30.5156 3.42188 -55.042 -24.1328 -71.125 -46.4268c-37.8652 -52.4854 -52.4111 -118.765 -62.2148 -181.521
c-24.1621 -154.678 -29.2402 -310.853 -24.6064 -467.141c0.489258 -16.5781 1.16699 -33.1514 1.86719 -49.7246z" />
    <glyph glyph-name="i" unicode="i" horiz-adv-x="256" 
d="M246.041 197.693c6.45605 15.0869 46.0371 18.3984 38.1123 -1.80664c-22.1523 -56.5215 -44.2988 -113.749 -78.623 -164.236c-31.7676 -46.7236 -71.0957 -62.2549 -126.496 -55.0869c-69.6162 9.00684 -84.4355 87.6914 -90.0381 145.653
c-6.52441 67.5381 -4.08203 139.118 7.30957 206.007c5.43164 31.8643 42.6133 53.1113 71.3867 58.002c24.082 4.09375 63.126 -4.22949 63.6777 -35.7979c1.67969 -96.2939 -14.6934 -192.702 -7.30957 -289.264c0.819336 -10.6914 1.69043 -21.7471 3.13672 -32.376
c1.75879 -12.9287 0.676758 -21.6055 19.0889 -9.34766c19.1348 12.7295 33.1572 41.9697 44.1445 61.082c21.5713 37.5352 38.5996 77.4385 55.6104 117.171zM42.4561 448.19c-21.668 30.5156 -38.877 63.126 -51.8574 98.2295
c-5.5791 15.0928 12.1553 28.7734 25.9609 29.001c25.9893 0.432617 40.2275 -19.334 51.5967 -41.7422c0.717773 1.61719 1.32715 3.29102 2.10156 4.87402c8.16992 16.7891 21.5488 36.2881 39.2432 43.8486c8.30664 3.55273 18.5254 5.18066 26.0635 -1.08789
c15.1611 -12.6104 1.53125 -38.833 -4.93652 -52.6562c-12.1094 -25.8701 -26.502 -50.5381 -42.3008 -74.3125c-6.64355 -9.99707 -19.2422 -18.1045 -31.8301 -15.5254c-3.46191 0.706055 -6.61621 2.44824 -9.02441 4.7998
c-1.91895 1.13281 -3.63281 2.62402 -5.0166 4.57129z" />
    <glyph glyph-name="i" unicode="&#xef;" horiz-adv-x="256" 
d="M246.041 197.693c6.45605 15.0869 46.0371 18.3984 38.1123 -1.80664c-22.1523 -56.5215 -44.2988 -113.749 -78.623 -164.236c-31.7676 -46.7236 -71.0957 -62.2549 -126.496 -55.0869c-69.6162 9.00684 -84.4355 87.6914 -90.0381 145.653
c-6.52441 67.5381 -4.08203 139.118 7.30957 206.007c5.43164 31.8643 42.6133 53.1113 71.3867 58.002c24.082 4.09375 63.126 -4.22949 63.6777 -35.7979c1.67969 -96.2939 -14.6934 -192.702 -7.30957 -289.264c0.819336 -10.6914 1.69043 -21.7471 3.13672 -32.376
c1.75879 -12.9287 0.676758 -21.6055 19.0889 -9.34766c19.1348 12.7295 33.1572 41.9697 44.1445 61.082c21.5713 37.5352 38.5996 77.4385 55.6104 117.171zM42.4561 448.19c-21.668 30.5156 -38.877 63.126 -51.8574 98.2295
c-5.5791 15.0928 12.1553 28.7734 25.9609 29.001c25.9893 0.432617 40.2275 -19.334 51.5967 -41.7422c0.717773 1.61719 1.32715 3.29102 2.10156 4.87402c8.16992 16.7891 21.5488 36.2881 39.2432 43.8486c8.30664 3.55273 18.5254 5.18066 26.0635 -1.08789
c15.1611 -12.6104 1.53125 -38.833 -4.93652 -52.6562c-12.1094 -25.8701 -26.502 -50.5381 -42.3008 -74.3125c-6.64355 -9.99707 -19.2422 -18.1045 -31.8301 -15.5254c-3.46191 0.706055 -6.61621 2.44824 -9.02441 4.7998
c-1.91895 1.13281 -3.63281 2.62402 -5.0166 4.57129z" />
    <glyph glyph-name="i" unicode="&#xee;" horiz-adv-x="256" 
d="M246.041 197.693c6.45605 15.0869 46.0371 18.3984 38.1123 -1.80664c-22.1523 -56.5215 -44.2988 -113.749 -78.623 -164.236c-31.7676 -46.7236 -71.0957 -62.2549 -126.496 -55.0869c-69.6162 9.00684 -84.4355 87.6914 -90.0381 145.653
c-6.52441 67.5381 -4.08203 139.118 7.30957 206.007c5.43164 31.8643 42.6133 53.1113 71.3867 58.002c24.082 4.09375 63.126 -4.22949 63.6777 -35.7979c1.67969 -96.2939 -14.6934 -192.702 -7.30957 -289.264c0.819336 -10.6914 1.69043 -21.7471 3.13672 -32.376
c1.75879 -12.9287 0.676758 -21.6055 19.0889 -9.34766c19.1348 12.7295 33.1572 41.9697 44.1445 61.082c21.5713 37.5352 38.5996 77.4385 55.6104 117.171zM42.4561 448.19c-21.668 30.5156 -38.877 63.126 -51.8574 98.2295
c-5.5791 15.0928 12.1553 28.7734 25.9609 29.001c25.9893 0.432617 40.2275 -19.334 51.5967 -41.7422c0.717773 1.61719 1.32715 3.29102 2.10156 4.87402c8.16992 16.7891 21.5488 36.2881 39.2432 43.8486c8.30664 3.55273 18.5254 5.18066 26.0635 -1.08789
c15.1611 -12.6104 1.53125 -38.833 -4.93652 -52.6562c-12.1094 -25.8701 -26.502 -50.5381 -42.3008 -74.3125c-6.64355 -9.99707 -19.2422 -18.1045 -31.8301 -15.5254c-3.46191 0.706055 -6.61621 2.44824 -9.02441 4.7998
c-1.91895 1.13281 -3.63281 2.62402 -5.0166 4.57129z" />
    <glyph glyph-name="i" unicode="&#xed;" horiz-adv-x="256" 
d="M246.041 197.693c6.45605 15.0869 46.0371 18.3984 38.1123 -1.80664c-22.1523 -56.5215 -44.2988 -113.749 -78.623 -164.236c-31.7676 -46.7236 -71.0957 -62.2549 -126.496 -55.0869c-69.6162 9.00684 -84.4355 87.6914 -90.0381 145.653
c-6.52441 67.5381 -4.08203 139.118 7.30957 206.007c5.43164 31.8643 42.6133 53.1113 71.3867 58.002c24.082 4.09375 63.126 -4.22949 63.6777 -35.7979c1.67969 -96.2939 -14.6934 -192.702 -7.30957 -289.264c0.819336 -10.6914 1.69043 -21.7471 3.13672 -32.376
c1.75879 -12.9287 0.676758 -21.6055 19.0889 -9.34766c19.1348 12.7295 33.1572 41.9697 44.1445 61.082c21.5713 37.5352 38.5996 77.4385 55.6104 117.171zM42.4561 448.19c-21.668 30.5156 -38.877 63.126 -51.8574 98.2295
c-5.5791 15.0928 12.1553 28.7734 25.9609 29.001c25.9893 0.432617 40.2275 -19.334 51.5967 -41.7422c0.717773 1.61719 1.32715 3.29102 2.10156 4.87402c8.16992 16.7891 21.5488 36.2881 39.2432 43.8486c8.30664 3.55273 18.5254 5.18066 26.0635 -1.08789
c15.1611 -12.6104 1.53125 -38.833 -4.93652 -52.6562c-12.1094 -25.8701 -26.502 -50.5381 -42.3008 -74.3125c-6.64355 -9.99707 -19.2422 -18.1045 -31.8301 -15.5254c-3.46191 0.706055 -6.61621 2.44824 -9.02441 4.7998
c-1.91895 1.13281 -3.63281 2.62402 -5.0166 4.57129z" />
    <glyph glyph-name="j" unicode="j" horiz-adv-x="248" 
d="M238.993 201.713c16.2998 16.8232 56.5908 7.08887 34.832 -15.8945c-43.3311 -45.7734 -86.8271 -91.4834 -129.189 -138.179c-0.358398 -68.2441 -2.52734 -136.402 -5.18066 -203.832c-3.00586 -76.4707 -7.19629 -154.644 -21.7598 -229.913
c-12.8037 -66.2061 -33.2197 -141.828 -79.6699 -192.924c-38.3379 -42.1689 -101.43 -69.9629 -156.802 -46.3994c-52.8662 22.499 -82.6982 79.0264 -88.5967 134.005c-6.99121 65.1582 17.6201 129.599 45.9326 186.985c31.4033 63.6553 71.5342 122.54 113.504 179.608
c17.1025 23.251 34.7744 46.0352 52.8789 68.4551c-4.44629 125.062 -12.0869 250.077 -14.6484 375.173c-1.31543 64.2588 129.109 112.918 138.594 36.9424c10.4072 -83.3701 14.7227 -168.09 15.6279 -252.935c31.1357 33.3164 62.7607 66.1777 94.4775 98.9072z
M5.11328 -445.415c13.3447 108.842 6.76953 219.774 2.11816 329.407c-4.29297 -5.65332 -8.57422 -11.3184 -12.7988 -17.0283c-35.7246 -48.3174 -69.8379 -98.0645 -98.4004 -151.011c-30.3848 -56.3281 -59.9951 -120.245 -55.8047 -185.848
c3.21094 -50.2764 33.1631 -118.247 90.584 -124.715c63.7295 -7.17383 69.1777 107.412 74.3018 149.194zM29.6279 448.195c-21.6621 30.5156 -38.8779 63.126 -51.8584 98.2295c-5.5791 15.0928 12.1553 28.7734 25.9609 29.001
c25.9893 0.432617 40.2275 -19.334 51.5967 -41.7422c0.711914 1.61719 1.32715 3.29102 2.0957 4.87402c8.17578 16.7891 21.5547 36.2881 39.249 43.8486c8.30664 3.55273 18.5254 5.18066 26.0635 -1.08789c15.1611 -12.6104 1.53125 -38.833 -4.93652 -52.6562
c-12.1094 -25.8701 -26.4961 -50.5381 -42.2998 -74.3125c-6.64355 -9.99707 -19.2422 -18.1045 -31.8301 -15.5254c-3.46191 0.706055 -6.61621 2.44824 -9.02441 4.7998c-1.91895 1.13281 -3.63281 2.62402 -5.0166 4.57129z" />
    <glyph glyph-name="k" unicode="k" horiz-adv-x="480" 
d="M464.182 184.702c6.13184 18.9238 49.7344 26.1533 42.083 2.5498c-18.4004 -56.7891 -23.6777 -119.943 -61.6396 -168.455c-30.8965 -39.4766 -80.9502 -61.7764 -131.021 -58.7529c-58.6172 3.53516 -101.999 40.8477 -121.504 95.4795
c-9.08105 25.4424 -16.459 52.291 -20.7002 78.9863c-2.1123 13.3389 -3.27344 26.501 -5.2207 39.5498c-20.3242 -50.5039 -36.2988 -102.835 -49.2168 -155.633c-0.643555 -8.54004 -1.34961 -17.125 -2.13574 -25.8301
c-2.73828 -30.3896 -76.6865 -61.5996 -88.0781 -23.791c-14.9902 49.7578 -25.7842 97.9844 -31.8018 149.849c-6.00586 51.7568 -12.2568 103.559 -16.4814 155.497c-8.05566 99.0664 -14.6367 198.537 -15.126 297.968
c-0.842773 170.635 12.1777 358.093 93.9541 511.632c36.2197 68.0049 95.3486 140.473 178.024 146.621c65.875 4.90137 115.423 -33.5615 132.594 -95.9355c20.3076 -73.7891 10.8057 -156.983 -4.87891 -230.732c-17.4668 -82.1406 -48.0674 -160.649 -80.6553 -237.797
c-47.7773 -113.089 -99.4082 -226.029 -175.816 -322.056c1.90137 -34.1533 3.91699 -68.3008 5.82422 -102.46c1.59375 -28.5625 3.89355 -57.1475 5.58398 -85.7324c8.89258 24.1729 18.6221 48.0439 29.5361 71.4717c27.3672 58.7422 62.4541 129.861 122.301 161.92
c22.7324 12.1836 55.667 17.1533 73.333 -6.05762c16.8691 -22.1631 4.62891 -50.6631 -9.12598 -70.7197c-24.9307 -36.3623 -63.5869 -68.8193 -106.542 -85.9668c50.8115 -47.8057 74.3701 -110.806 104.794 -173.567
c6.20508 -12.8037 13.5947 -35.1035 25.8125 -43.1934c22.9951 -15.2236 51.4727 18.7764 61.4756 35.5029c25.1982 42.1406 29.7129 93.624 44.6289 139.653zM102.147 432.849c56.0889 78.4805 102.644 162.756 141.129 253.613
c30.0488 70.9199 56.4141 143.798 71.751 219.442c13.3506 65.8467 25.0615 146.9 1.60547 211.928c-9.59277 26.5928 -27.6348 56.3789 -58.4062 59.8291c-30.5156 3.42188 -55.042 -24.1328 -71.125 -46.4268c-37.8652 -52.4854 -52.4111 -118.765 -62.2148 -181.521
c-24.1621 -154.678 -29.2402 -310.853 -24.6064 -467.141c0.489258 -16.5781 1.16699 -33.1514 1.86719 -49.7246zM221.751 287.229c-4.9248 -8.2666 -9.63379 -16.6465 -14.2334 -25.0947c34.0283 10.623 63.9805 26.0742 86.5371 57.7734
c6.70117 9.41602 21.0078 30.4238 7.35547 40.9678c-9.30273 7.19043 -27.2646 -8.76172 -33.7266 -14.4775c-18.7871 -16.6123 -33.1797 -37.7852 -45.9326 -59.1689z" />
    <glyph glyph-name="l" unicode="l" horiz-adv-x="400" 
d="M387.779 177.255c10.4297 17.1416 52.4912 17.873 38.5889 -6.37988c-50.3047 -87.709 -108.864 -229.309 -229.28 -227.031c-25.0898 0.472656 -49.9004 2.44238 -72.1494 15.0068c-22.3574 12.627 -39.7559 32.2568 -54.7969 52.6494
c-26.5645 36.0088 -43.8662 76.3906 -56.334 119.152c-26.877 92.1836 -32.5811 189.918 -36.2246 285.341c-5.06152 132.479 1.59961 267.111 18.4512 398.583c12.001 93.6465 26.126 187.162 62.8584 274.672c35.4346 84.4121 114.062 167.384 213.106 154.961
c67.1904 -8.42578 97.1992 -61.748 100.706 -124.675c4.13281 -74.1475 -7.95898 -148.979 -25.4766 -220.826c-43.6436 -179.01 -128.198 -343.388 -225.454 -498.981c0.831055 -75.167 4.22949 -150.271 9.94531 -224.954
c4.54297 -59.3564 13.8799 -153.186 71.7617 -187.049c38.2354 -22.3623 80.0518 29.0469 100.04 55.3438c31.8984 41.9639 56.9141 89.2402 84.2578 134.188zM249.283 1163.5c-6.48438 -1.79883 -5.89844 -4.13281 0 0zM138.522 754.516
c-10.1338 -92.127 -15.4473 -185.003 -16.6484 -277.967c79.0381 134.473 145.733 275.686 181.811 428.211c14.4893 61.2637 31.4609 133.049 16.3232 195.765c-5.21484 21.5996 -14.5293 44.5205 -33.9375 57.2158c-2.14062 1.40039 -8.89258 4.57129 -9.85449 4.89551
c0.500977 -0.165039 -12.5762 2.12891 -10.3164 2.2373c-4.37207 0.0742188 -13.7832 -0.722656 -12.8496 -0.574219c-1.34961 -0.210938 -2.49414 -0.472656 -3.50781 -0.746094c-4.53711 -3.63184 -12.6328 -9.95703 -12.4795 -9.14258
c-2.84082 -3.01172 -5.55664 -6.13184 -8.14746 -9.35449c2.21484 2.48242 -6.71777 -9.89453 -8.2041 -12.4453c-3.86523 -6.63867 -7.34375 -13.5107 -10.5547 -20.4844c-0.205078 -0.438477 -3.97949 -9.61035 -4.44043 -10.4697
c-0.916992 -2.52734 -1.83398 -5.06641 -2.75098 -7.58887c-2.77832 -7.64062 -5.55664 -15.2812 -8.03906 -23.0293c-4.89062 -15.2686 -8.80176 -30.7656 -12.6445 -46.3252c-21.8906 -88.6992 -33.7783 -179.482 -43.7588 -270.197z" />
    <glyph glyph-name="m" unicode="m" horiz-adv-x="756" 
d="M741.131 194.528c5.3916 19.7041 49.6016 26.8652 42.6729 2.57812c-13.8857 -48.6768 -28.1016 -97.5586 -48.6201 -143.94c-16.8115 -38.0078 -38.0869 -74.9053 -77.5293 -92.6504c-35.9014 -16.1514 -86.3027 -15.7695 -118.691 7.71484
c-46.5186 33.7207 -41.0762 98.3438 -37.5752 149.161c3.94531 57.3018 14.0449 114.376 16.4814 171.684c0.404297 9.55273 1.13867 19.2256 1.27539 28.7783c0.108398 7.44141 2.67578 28.8252 -1.63965 35.0195c-13.1514 18.8789 -45.5225 -41.8047 -51.8936 -53.1172
c-44.4062 -78.833 -67.3379 -168.067 -86.7178 -256.01c-0.819336 -5.06738 -1.91211 -10.0547 -3.2666 -14.9619c-0.176758 -0.808594 -0.353516 -1.62305 -0.530273 -2.43164c-0.267578 -1.23535 -0.717773 -2.41406 -1.28125 -3.54688
c-3.42773 -10.2988 -8.27246 -20.165 -15.252 -29.3428c-12.832 -16.875 -41.6055 -27.584 -62.1465 -23.5645c-81.5654 15.9521 -54.21 141.788 -49.0518 201.071c3.08594 35.457 8.625 70.4414 12.2969 105.812c1.42285 13.6924 14.9443 82.2041 -7.80566 81.7197
c-13.083 -0.279297 -30.4131 -34.4102 -35.9697 -43.4678c-8.31738 -13.5498 -15.9463 -27.5381 -22.96 -41.7998c-14.0674 -28.6025 -25.459 -58.3662 -35.1377 -88.7168c-12.9121 -40.4785 -23.165 -81.7021 -32.4795 -123.143
c-1.18945 -20.5068 -4.37793 -40.4385 -11.4033 -58.8613c-9.46777 -24.8223 -55.8389 -57.8428 -79.8867 -30.1855c-39.3398 45.2432 -40.3477 118.32 -44.3389 175.753c-4.38379 63.0859 -3.01172 127.481 5.86426 190.078c4.42969 31.2441 42.5342 52.3086 70.1455 57
c21.8164 3.71191 64.3496 -4.05957 62.5732 -35.1787c-2.9375 -51.6201 -5.59082 -102.955 -6.11426 -154.586c3.01758 8.7793 6.1543 17.5244 9.51367 26.2012c13.2256 34.1416 28.9385 67.333 48.5801 98.2812c16.9141 26.6436 36.4414 55.1211 68.6758 63.8086
c28.4941 7.68555 57.2783 -6.63281 78.377 -25.3174c30.8398 -27.3096 41.9297 -65.2148 49.0518 -104.503c3.30176 -18.2178 4.75391 -36.7148 5.33496 -55.2969c10.2988 29.251 22.3057 57.8936 36.7266 85.5684c18.0527 34.6367 40.9502 79.9766 79.0488 95.8203
c34.4668 14.335 77.4277 -0.973633 100.85 -28.7959c32.542 -38.6562 40.0342 -97.0166 41.5254 -146.103c1.70801 -56.043 1.21289 -112.997 -2.80078 -168.893c-0.666016 -9.23438 -7.26465 -47.2588 1.29199 -54.4492c15.9922 -13.4473 46.9004 45.249 51.3926 54.1357
c23.8027 47.0879 37.5459 98.0186 51.4141 148.676z" />
    <glyph glyph-name="n" unicode="n" horiz-adv-x="498" 
d="M483.106 194.528c5.3916 19.6982 49.5967 26.875 42.668 2.57617c-14.335 -50.2539 -28.9609 -100.883 -50.6572 -148.562c-17.1416 -37.6777 -39.4648 -73.4248 -79.209 -90.168c-36.9434 -15.5654 -88.085 -16.5215 -119.739 10.9707
c-44.9756 39.0664 -36.1572 109.263 -31.5918 162.42c4.83301 56.2197 12.376 112.069 17.5225 168.215c1.04199 11.3291 11.2607 59.2422 -9.61621 58.5361c-18.8389 -0.637695 -42.4033 -53.7432 -50.2197 -68.3066
c-38.6455 -71.9619 -59.5732 -151.814 -77.0967 -231.547c-1.31543 -19.5449 -4.54297 -38.5264 -11.2607 -56.1357c-9.46777 -24.8223 -55.8389 -57.8428 -79.8867 -30.1855c-39.3398 45.2432 -40.3477 118.32 -44.3389 175.753
c-4.38379 63.0859 -3.01172 127.481 5.86426 190.078c4.42969 31.2441 42.5342 52.3086 70.1455 57c21.8164 3.71191 64.3496 -4.05957 62.5732 -35.1787c-3.05762 -53.5498 -5.81348 -106.804 -6.17773 -160.399c42.1064 130.521 110.726 255.674 209.655 166.12
c37.165 -33.6406 47.1621 -91.9668 49.8779 -139.618c3.12598 -54.8594 0.695312 -111.073 -1.13184 -165.915c-0.318359 -9.56445 -7.91895 -58.8555 2.18652 -65.8184c15.457 -10.6572 39.374 33.334 44.3154 42.4658c26.752 49.4219 41.3604 103.82 56.1172 157.7z" />
    <glyph glyph-name="o" unicode="o" horiz-adv-x="345" 
d="M356.732 226.684c29.9854 8.27832 27.6377 -27.123 2.87207 -34.376c-34.7627 -10.1904 -69.958 -20.29 -105.665 -26.7969c-0.0566406 -0.438477 -0.107422 -0.905273 -0.164062 -1.33789c-6.08008 -47.0137 -20.6318 -96.043 -48.1758 -135.155
c-27.0312 -38.3828 -73.8633 -51.6191 -119.169 -42.6523c-119.237 23.6035 -115.884 179.562 -100.222 270.874c4.11621 23.9795 27.6123 42.084 52.9014 49.5879c16.8008 57.7285 68.3867 106.188 132.782 96.1973c84.6113 -13.1279 91.4375 -122.545 85.8242 -200.154
c33.4473 5.66992 66.3711 14.7959 99.0156 23.8135zM205.201 151.954c0.438477 2.43652 0.774414 4.91016 1.16113 7.36914c-12.7695 -0.927734 -25.6074 -1.24121 -38.5254 -0.728516c-22.5957 0.899414 -46.9912 4.01367 -68.7051 11.9609
c-0.666016 -16.3105 -0.581055 -32.6895 0.961914 -49.251c1.88477 -20.2168 14.4609 -96.7158 47.5439 -91.877c18.6738 2.72656 32.2295 39.9707 38.6055 55.2686c8.96094 21.4971 14.8936 44.3604 18.958 67.2578zM210.77 197.604
c1.92383 27.2646 1.46777 54.8359 -1.12793 81.7588c-3.92871 40.7568 -30.5898 109.649 -84.5664 80.9844c-21.0879 -11.1982 -34.1709 -31.7676 -38.3379 -54.0791c14.2275 -6.2627 23.4502 -19.5332 21.167 -41.668
c-0.921875 -8.94922 -1.92969 -17.8535 -2.92578 -26.7402c26.4053 -33.333 59.2949 -42.1572 103.588 -40.4033c0.734375 0.0283203 1.46875 0.113281 2.20312 0.147461z" />
    <glyph glyph-name="o" unicode="&#xf6;" horiz-adv-x="345" 
d="M356.732 226.684c29.9854 8.27832 27.6377 -27.123 2.87207 -34.376c-34.7627 -10.1904 -69.958 -20.29 -105.665 -26.7969c-0.0566406 -0.438477 -0.107422 -0.905273 -0.164062 -1.33789c-6.08008 -47.0137 -20.6318 -96.043 -48.1758 -135.155
c-27.0312 -38.3828 -73.8633 -51.6191 -119.169 -42.6523c-119.237 23.6035 -115.884 179.562 -100.222 270.874c4.11621 23.9795 27.6123 42.084 52.9014 49.5879c16.8008 57.7285 68.3867 106.188 132.782 96.1973c84.6113 -13.1279 91.4375 -122.545 85.8242 -200.154
c33.4473 5.66992 66.3711 14.7959 99.0156 23.8135zM205.201 151.954c0.438477 2.43652 0.774414 4.91016 1.16113 7.36914c-12.7695 -0.927734 -25.6074 -1.24121 -38.5254 -0.728516c-22.5957 0.899414 -46.9912 4.01367 -68.7051 11.9609
c-0.666016 -16.3105 -0.581055 -32.6895 0.961914 -49.251c1.88477 -20.2168 14.4609 -96.7158 47.5439 -91.877c18.6738 2.72656 32.2295 39.9707 38.6055 55.2686c8.96094 21.4971 14.8936 44.3604 18.958 67.2578zM210.77 197.604
c1.92383 27.2646 1.46777 54.8359 -1.12793 81.7588c-3.92871 40.7568 -30.5898 109.649 -84.5664 80.9844c-21.0879 -11.1982 -34.1709 -31.7676 -38.3379 -54.0791c14.2275 -6.2627 23.4502 -19.5332 21.167 -41.668
c-0.921875 -8.94922 -1.92969 -17.8535 -2.92578 -26.7402c26.4053 -33.333 59.2949 -42.1572 103.588 -40.4033c0.734375 0.0283203 1.46875 0.113281 2.20312 0.147461z" />
    <glyph glyph-name="o" unicode="&#xf5;" horiz-adv-x="345" 
d="M356.732 226.684c29.9854 8.27832 27.6377 -27.123 2.87207 -34.376c-34.7627 -10.1904 -69.958 -20.29 -105.665 -26.7969c-0.0566406 -0.438477 -0.107422 -0.905273 -0.164062 -1.33789c-6.08008 -47.0137 -20.6318 -96.043 -48.1758 -135.155
c-27.0312 -38.3828 -73.8633 -51.6191 -119.169 -42.6523c-119.237 23.6035 -115.884 179.562 -100.222 270.874c4.11621 23.9795 27.6123 42.084 52.9014 49.5879c16.8008 57.7285 68.3867 106.188 132.782 96.1973c84.6113 -13.1279 91.4375 -122.545 85.8242 -200.154
c33.4473 5.66992 66.3711 14.7959 99.0156 23.8135zM205.201 151.954c0.438477 2.43652 0.774414 4.91016 1.16113 7.36914c-12.7695 -0.927734 -25.6074 -1.24121 -38.5254 -0.728516c-22.5957 0.899414 -46.9912 4.01367 -68.7051 11.9609
c-0.666016 -16.3105 -0.581055 -32.6895 0.961914 -49.251c1.88477 -20.2168 14.4609 -96.7158 47.5439 -91.877c18.6738 2.72656 32.2295 39.9707 38.6055 55.2686c8.96094 21.4971 14.8936 44.3604 18.958 67.2578zM210.77 197.604
c1.92383 27.2646 1.46777 54.8359 -1.12793 81.7588c-3.92871 40.7568 -30.5898 109.649 -84.5664 80.9844c-21.0879 -11.1982 -34.1709 -31.7676 -38.3379 -54.0791c14.2275 -6.2627 23.4502 -19.5332 21.167 -41.668
c-0.921875 -8.94922 -1.92969 -17.8535 -2.92578 -26.7402c26.4053 -33.333 59.2949 -42.1572 103.588 -40.4033c0.734375 0.0283203 1.46875 0.113281 2.20312 0.147461z" />
    <glyph glyph-name="o" unicode="&#xf4;" horiz-adv-x="345" 
d="M356.732 226.684c29.9854 8.27832 27.6377 -27.123 2.87207 -34.376c-34.7627 -10.1904 -69.958 -20.29 -105.665 -26.7969c-0.0566406 -0.438477 -0.107422 -0.905273 -0.164062 -1.33789c-6.08008 -47.0137 -20.6318 -96.043 -48.1758 -135.155
c-27.0312 -38.3828 -73.8633 -51.6191 -119.169 -42.6523c-119.237 23.6035 -115.884 179.562 -100.222 270.874c4.11621 23.9795 27.6123 42.084 52.9014 49.5879c16.8008 57.7285 68.3867 106.188 132.782 96.1973c84.6113 -13.1279 91.4375 -122.545 85.8242 -200.154
c33.4473 5.66992 66.3711 14.7959 99.0156 23.8135zM205.201 151.954c0.438477 2.43652 0.774414 4.91016 1.16113 7.36914c-12.7695 -0.927734 -25.6074 -1.24121 -38.5254 -0.728516c-22.5957 0.899414 -46.9912 4.01367 -68.7051 11.9609
c-0.666016 -16.3105 -0.581055 -32.6895 0.961914 -49.251c1.88477 -20.2168 14.4609 -96.7158 47.5439 -91.877c18.6738 2.72656 32.2295 39.9707 38.6055 55.2686c8.96094 21.4971 14.8936 44.3604 18.958 67.2578zM210.77 197.604
c1.92383 27.2646 1.46777 54.8359 -1.12793 81.7588c-3.92871 40.7568 -30.5898 109.649 -84.5664 80.9844c-21.0879 -11.1982 -34.1709 -31.7676 -38.3379 -54.0791c14.2275 -6.2627 23.4502 -19.5332 21.167 -41.668
c-0.921875 -8.94922 -1.92969 -17.8535 -2.92578 -26.7402c26.4053 -33.333 59.2949 -42.1572 103.588 -40.4033c0.734375 0.0283203 1.46875 0.113281 2.20312 0.147461z" />
    <glyph glyph-name="o" unicode="&#xf3;" horiz-adv-x="345" 
d="M356.732 226.684c29.9854 8.27832 27.6377 -27.123 2.87207 -34.376c-34.7627 -10.1904 -69.958 -20.29 -105.665 -26.7969c-0.0566406 -0.438477 -0.107422 -0.905273 -0.164062 -1.33789c-6.08008 -47.0137 -20.6318 -96.043 -48.1758 -135.155
c-27.0312 -38.3828 -73.8633 -51.6191 -119.169 -42.6523c-119.237 23.6035 -115.884 179.562 -100.222 270.874c4.11621 23.9795 27.6123 42.084 52.9014 49.5879c16.8008 57.7285 68.3867 106.188 132.782 96.1973c84.6113 -13.1279 91.4375 -122.545 85.8242 -200.154
c33.4473 5.66992 66.3711 14.7959 99.0156 23.8135zM205.201 151.954c0.438477 2.43652 0.774414 4.91016 1.16113 7.36914c-12.7695 -0.927734 -25.6074 -1.24121 -38.5254 -0.728516c-22.5957 0.899414 -46.9912 4.01367 -68.7051 11.9609
c-0.666016 -16.3105 -0.581055 -32.6895 0.961914 -49.251c1.88477 -20.2168 14.4609 -96.7158 47.5439 -91.877c18.6738 2.72656 32.2295 39.9707 38.6055 55.2686c8.96094 21.4971 14.8936 44.3604 18.958 67.2578zM210.77 197.604
c1.92383 27.2646 1.46777 54.8359 -1.12793 81.7588c-3.92871 40.7568 -30.5898 109.649 -84.5664 80.9844c-21.0879 -11.1982 -34.1709 -31.7676 -38.3379 -54.0791c14.2275 -6.2627 23.4502 -19.5332 21.167 -41.668
c-0.921875 -8.94922 -1.92969 -17.8535 -2.92578 -26.7402c26.4053 -33.333 59.2949 -42.1572 103.588 -40.4033c0.734375 0.0283203 1.46875 0.113281 2.20312 0.147461z" />
    <glyph glyph-name="p" unicode="p" horiz-adv-x="564" 
d="M565.188 199.783c27.7197 13.1172 43.0635 -18.3848 15.3945 -31.5586c-44.5488 -21.207 -91.6826 -33.5156 -139.539 -43.957c-5.36816 -33.5664 -15.8213 -66.0576 -32.0869 -94.0566c-33.4873 -57.6543 -115.059 -113.055 -183.895 -82.9492
c-14.6484 6.40527 -32.1211 14.5293 -43.2451 27.208c-3.89941 -24.8848 -7.57129 -49.7412 -11.1748 -74.4492c-14.7676 -101.253 -26.3242 -203.013 -37.8701 -304.704c2.16309 -24.2812 3.21094 -49.3711 -3.67773 -70.8457
c-7.64551 -23.832 -41.8447 -40.8486 -63.3135 -23.9229c-27.0195 21.3037 -37.1191 64.4346 -45.5625 96.4014c-9.18262 34.751 -14.9209 69.4395 -18.9912 105.13c-8.02734 70.4531 -9.95703 141.077 -11.5566 211.911c-3.43848 151.813 -7.07617 306.121 12.002 456.995
c6.00098 47.4355 116.875 81.7598 120.41 19.7959c8.37988 -146.707 -0.581055 -294.752 -0.768555 -441.703c-0.0341797 -26.0742 -0.0566406 -52.1826 0.0117188 -78.2969c9.05176 67.2764 19.6641 134.348 32.6504 201.071
c14.3984 73.9658 30.9199 148.051 60.4443 217.667c19.4248 45.8066 62.1748 120.501 123.587 101.924c64.042 -19.374 90.6406 -91.2158 101.726 -150.447c4.67383 -24.9814 6.49609 -51.79 5.23828 -78.7129c41.1562 8.88672 81.834 19.3389 120.217 37.5z
M281.363 29.8691c17.8994 18.6963 28.6016 41.959 35.667 66.6104c-23.3643 -7.31543 -45.5674 -16.9141 -64.4229 -30.8398c-14.4834 -10.6973 -48.8184 -54.3867 -10.293 -57.125c14.3125 -1.01953 29.792 11.6816 39.0488 21.3545zM328.94 157.948
c7.19629 52.2002 9.96973 109.945 -1.34277 161.747c-1.47461 6.77441 -2.2998 18.7988 -7.48047 24.1787c-17.2275 17.9053 -16.7773 6.41113 -26.541 -0.294922c-9.62695 -6.62109 -16.6006 -22.3115 -22.1348 -32.4854
c-12.6445 -23.251 -22.0273 -48.335 -30.3965 -73.3789c-18.6797 -55.918 -32.3945 -113.795 -43.5762 -172.207c32.457 37.3926 80.5811 56.6865 128.067 69.8779c1.26367 7.57227 2.37988 15.1211 3.4043 22.5625z" />
    <glyph glyph-name="q" unicode="q" horiz-adv-x="487" 
d="M477.817 200.518c14.6709 19.083 53.8662 9.21289 34.834 -15.9053c-55.3721 -73.0488 -110.738 -146.098 -166.11 -219.146c72.0469 -36.7148 114.837 -133.817 109.685 -211.751c-6.50684 -98.3662 -125.864 -130.162 -189.349 -60.1475
c-69.1836 76.2998 -75.7646 196.38 -73.6299 294.183c0.609375 27.9531 1.83301 55.998 3.60352 84.0537c-4.8623 -11.9502 -10.2539 -23.6152 -16.459 -34.7734c-21.1221 -37.9736 -48.7676 -59.8408 -92.6387 -60.8652c-49.918 -1.16699 -88.165 26.8721 -103.069 74.877
c-29.4111 94.7168 0.625977 216.869 71.8643 286.69c33.8457 33.1738 93.3447 67.2129 141.901 45.0498c16.6016 -7.57715 30.7432 -18.8613 42.9775 -32.1436c1.35449 1.03027 2.86914 1.92969 4.46875 2.73242c35.7363 30.584 106.576 42.124 108.278 -9.52441
c2.77832 -84.2471 -10.4814 -167.265 -18.873 -250.88c-2.90332 -28.9209 -5.28906 -57.9043 -6.98535 -86.9277c49.832 64.8281 99.6699 129.65 149.502 194.479zM175.424 142.614c15.1895 49.4336 26.9678 100.8 42.5273 150.473
c-13.4639 17.4492 -30.4639 29.8721 -52.7129 17.9111c-19.9199 -10.7031 -29.4502 -29.1885 -38.5254 -49.2969c-26.9629 -59.7207 -37.1475 -124.491 -28.3398 -189.33c1.89551 -13.9307 2.35059 -31.6875 9.30176 -44.2637
c11.0957 -20.0801 22.8184 3.24512 30.1113 15.958c17.4268 30.373 27.4072 65.2549 37.6377 98.5488zM389.89 -245.155c4.02539 64.207 -10.3955 133.289 -64.2295 168.615c-0.114258 -23.3818 0.295898 -46.7637 1.48535 -70.1279
c1.85059 -36.2822 6.17773 -75.8438 23.7129 -108.323c5.03809 -9.33691 13.8057 -23.9629 25.1465 -26.582c8.81836 -2.03809 2.90332 -3.74609 7.82812 5.44824c4.63379 8.65918 5.46484 21.5537 6.05664 30.9697z" />
    <glyph glyph-name="r" unicode="r" horiz-adv-x="398" 
d="M395.369 217.113c21.4746 13.4932 51.4824 -4.61426 25.6523 -23.7266c-25.75 -19.0605 -55.3711 -33.5664 -87.6914 -36.5381c-29.3428 -2.69824 -67.3789 -0.267578 -92.582 15.4795c-29.9062 18.6846 -42.1582 49.6211 -42.6768 84.2412
c-0.267578 18.1387 2.41406 37.7119 6.22852 55.3555c0.700195 3.23926 5.5332 18.1211 8.88086 31.7393c-1.88477 -4.34375 -3.5127 -8.44824 -4.95312 -11.4199c-8.13574 -16.7832 -15.5479 -33.9482 -22.2432 -51.3525
c-10.959 -28.4658 -20.2334 -57.5752 -28.8809 -86.8154c-15.7246 -53.1914 -29.2969 -106.986 -45.4141 -160.052c-1.45215 -11.5342 -3.28516 -23.0176 -5.63086 -34.4092c-4.04199 -19.6299 -25.0098 -34.3066 -43.2852 -39.1348
c-14.1982 -3.75195 -41.6904 -3.13672 -47.6514 14.5693c-20.376 60.5234 -21.5654 125.266 -23.3877 188.557c-1.88477 65.4883 -2.10645 131.432 3.88867 196.715c4.73633 51.5576 127.788 85.6309 128.027 21.0479c0.216797 -58.668 -3.39258 -117.455 -5.10059 -176.135
c0.585938 1.92383 1.13281 3.84766 1.71875 5.7666c9.88379 32.2803 20.9346 64.2021 33.9434 95.3721c10.749 25.7617 21.7363 55.7812 41.0986 76.5439c14.1309 15.1553 40.3652 29.1201 59.2266 13.418c20.0684 -16.7041 33.043 -50.2998 39.3965 -74.6611
c7.7373 -29.6445 13.7041 -59.0781 23.9912 -88.0391c5.0957 -14.3525 8.26074 -28.4199 24.6855 -31.7275c18.3096 -3.68945 37.752 5.77832 52.7588 15.2061z" />
    <glyph glyph-name="s" unicode="s" horiz-adv-x="327" 
d="M337.825 217.54c25.1123 8.5791 30.2344 -22.9824 8.63477 -31.75c-39.9941 -16.2197 -80.917 -31.0957 -119.135 -51.3291c19.96 -21.457 35.9688 -46.3926 36.3105 -73.2246c0.546875 -43.2051 -33.0088 -84.959 -70.2988 -104.054
c-31.7275 -16.2422 -78.4053 -21.5938 -107.338 3.71777c-32.1719 28.1465 -19.9375 72.9971 1.55957 103.416c3.5127 4.96973 7.20215 9.77441 11.0225 14.4424c-11.0791 7.79395 -22.1299 15.5371 -32.8105 23.4502c-34.3809 25.4824 -69.8887 54.3467 -82.9092 96.8174
c-13.5039 44.0479 -1.04688 84.9756 26.7305 120.962c24.5889 31.8594 59.4307 59.2324 100.358 64.3223c34.6484 4.30957 70.874 -11.1299 81.8223 -46.291c6.62695 -21.2812 -34.4209 -42.0615 -42.7725 -20.8662c-10.874 27.6113 -41.6914 35.8945 -63.7012 14.5508
c-17.3926 -16.8691 -17.5352 -38.0928 -7.21875 -58.3662c20.7285 -40.7344 66.8486 -68.8867 101.879 -96.6064c6.39941 -5.07227 13.3506 -10.6631 20.416 -16.7148c43.8828 24.1328 91.916 41.9639 137.45 57.5234zM161.968 -16.7666
c24.7822 4.93555 29.9004 17.166 12.7588 34.6436c-14.1982 14.4717 -30.1963 27.4062 -46.7637 39.7314c-8.94434 -12.4053 -14.7686 -25.6191 -14.9111 -39.1514c-0.28418 -26.7637 24.2822 -40.1309 48.916 -35.2236z" />
    <glyph glyph-name="t" unicode="t" horiz-adv-x="339" 
d="M327.286 177.705c9.46191 18.1211 50.8984 18.7549 38.5957 -6.35742c-35.7529 -72.9639 -72.0811 -184.134 -153.413 -219.187c-64.293 -27.7139 -127.259 13.1514 -161.064 66.3535c-33.1396 52.1553 -51.5801 114.62 -61.8447 175.121
c-25.7158 151.518 -26.1885 307.447 -17.2441 461.401c-34.54 0.450195 -77.1074 -1.80469 -89.2393 -31.5283c-7.85645 -19.2539 -49.0469 -19.4307 -38.5889 6.37109c20.1084 49.5986 78.6855 58.2461 129.986 59.6465c1.95312 29.1494 4.16211 58.2188 6.59863 87.1514
c3.22852 38.3438 57.8545 65.1699 90.3057 66.9346c37.2441 2.02637 64.4346 -19.9551 60.4375 -57.8203c-3.5293 -33.4531 -6.31348 -66.9287 -8.625 -100.422l10.1455 -0.580078c22.0781 -1.25293 106.49 -16.7324 111.176 14.25
c3.0918 20.4727 47.2256 28.4775 43.2461 2.61914c-10.8223 -70.4072 -107.828 -55.5029 -157.119 -52.7529c-3.24512 0.182617 -6.49023 0.375977 -9.73535 0.563477c-3.42773 -58.7139 -5.4541 -117.496 -6.83789 -176.392
c-1.76465 -74.8877 -0.620117 -149.924 1.42969 -224.8c1.42285 -51.8252 1.65039 -104.538 10.082 -155.811c5.76172 -35.0586 28.3467 -134.308 81.6172 -103.417c28.5225 16.5391 47.3613 52.1777 63.0576 79.8525c20.1934 35.6162 38.0928 72.5195 57.0342 108.802z" />
    <glyph glyph-name="u" unicode="u" horiz-adv-x="477" 
d="M467.235 197.693c6.45605 15.0869 46.0293 18.4004 38.1211 -1.80469c-22.1582 -56.5215 -44.3047 -113.749 -78.6289 -164.236c-31.7734 -46.7236 -71.0957 -62.2549 -126.496 -55.0869c-69.6162 9.00684 -84.4355 87.6924 -90.0381 145.654
c-1.04785 10.8281 -1.77637 21.7871 -2.3623 32.792c-2.74414 -9.62109 -5.53906 -19.2256 -8.44238 -28.7959c-15.0186 -49.4961 -33.4648 -121.919 -92.9521 -132.805c-150.351 -27.5098 -122.978 247.305 -113.333 331.751
c3.25684 28.5283 39.5566 48.0156 64.2588 52.2119c20.2051 3.43262 58.6621 -3.72363 57.3184 -32.2295c-2.81836 -59.7383 -9.44531 -119.266 -11.7285 -179.044c-1.54883 -40.541 -6.68359 -91.876 12.0635 -130.134c14.2324 11.6201 27.9414 58.3379 31.2832 67.7197
c9.3252 26.1826 16.8975 52.957 24.2471 79.749c13.8916 50.6523 26.1494 101.987 47.2998 150.226c0.484375 1.11035 1.21289 2.14062 2.04395 3.13672c9.96289 27.0654 42.8975 44.9932 68.9951 49.4277c24.082 4.09375 63.1318 -4.22949 63.6787 -35.7979
c1.67969 -96.2939 -14.6934 -192.702 -7.30957 -289.264c0.820312 -10.6914 1.69141 -21.7471 3.1377 -32.376c1.75879 -12.9287 0.676758 -21.6055 19.0889 -9.34766c19.1348 12.7295 33.1572 41.9697 44.1445 61.082c21.5713 37.5352 38.5996 77.4385 55.6104 117.171z
" />
    <glyph glyph-name="u" unicode="&#xfc;" horiz-adv-x="477" 
d="M467.235 197.693c6.45605 15.0869 46.0293 18.4004 38.1211 -1.80469c-22.1582 -56.5215 -44.3047 -113.749 -78.6289 -164.236c-31.7734 -46.7236 -71.0957 -62.2549 -126.496 -55.0869c-69.6162 9.00684 -84.4355 87.6924 -90.0381 145.654
c-1.04785 10.8281 -1.77637 21.7871 -2.3623 32.792c-2.74414 -9.62109 -5.53906 -19.2256 -8.44238 -28.7959c-15.0186 -49.4961 -33.4648 -121.919 -92.9521 -132.805c-150.351 -27.5098 -122.978 247.305 -113.333 331.751
c3.25684 28.5283 39.5566 48.0156 64.2588 52.2119c20.2051 3.43262 58.6621 -3.72363 57.3184 -32.2295c-2.81836 -59.7383 -9.44531 -119.266 -11.7285 -179.044c-1.54883 -40.541 -6.68359 -91.876 12.0635 -130.134c14.2324 11.6201 27.9414 58.3379 31.2832 67.7197
c9.3252 26.1826 16.8975 52.957 24.2471 79.749c13.8916 50.6523 26.1494 101.987 47.2998 150.226c0.484375 1.11035 1.21289 2.14062 2.04395 3.13672c9.96289 27.0654 42.8975 44.9932 68.9951 49.4277c24.082 4.09375 63.1318 -4.22949 63.6787 -35.7979
c1.67969 -96.2939 -14.6934 -192.702 -7.30957 -289.264c0.820312 -10.6914 1.69141 -21.7471 3.1377 -32.376c1.75879 -12.9287 0.676758 -21.6055 19.0889 -9.34766c19.1348 12.7295 33.1572 41.9697 44.1445 61.082c21.5713 37.5352 38.5996 77.4385 55.6104 117.171z
" />
    <glyph glyph-name="u" unicode="&#xfb;" horiz-adv-x="477" 
d="M467.235 197.693c6.45605 15.0869 46.0293 18.4004 38.1211 -1.80469c-22.1582 -56.5215 -44.3047 -113.749 -78.6289 -164.236c-31.7734 -46.7236 -71.0957 -62.2549 -126.496 -55.0869c-69.6162 9.00684 -84.4355 87.6924 -90.0381 145.654
c-1.04785 10.8281 -1.77637 21.7871 -2.3623 32.792c-2.74414 -9.62109 -5.53906 -19.2256 -8.44238 -28.7959c-15.0186 -49.4961 -33.4648 -121.919 -92.9521 -132.805c-150.351 -27.5098 -122.978 247.305 -113.333 331.751
c3.25684 28.5283 39.5566 48.0156 64.2588 52.2119c20.2051 3.43262 58.6621 -3.72363 57.3184 -32.2295c-2.81836 -59.7383 -9.44531 -119.266 -11.7285 -179.044c-1.54883 -40.541 -6.68359 -91.876 12.0635 -130.134c14.2324 11.6201 27.9414 58.3379 31.2832 67.7197
c9.3252 26.1826 16.8975 52.957 24.2471 79.749c13.8916 50.6523 26.1494 101.987 47.2998 150.226c0.484375 1.11035 1.21289 2.14062 2.04395 3.13672c9.96289 27.0654 42.8975 44.9932 68.9951 49.4277c24.082 4.09375 63.1318 -4.22949 63.6787 -35.7979
c1.67969 -96.2939 -14.6934 -192.702 -7.30957 -289.264c0.820312 -10.6914 1.69141 -21.7471 3.1377 -32.376c1.75879 -12.9287 0.676758 -21.6055 19.0889 -9.34766c19.1348 12.7295 33.1572 41.9697 44.1445 61.082c21.5713 37.5352 38.5996 77.4385 55.6104 117.171z
" />
    <glyph glyph-name="u" unicode="&#xfa;" horiz-adv-x="477" 
d="M467.235 197.693c6.45605 15.0869 46.0293 18.4004 38.1211 -1.80469c-22.1582 -56.5215 -44.3047 -113.749 -78.6289 -164.236c-31.7734 -46.7236 -71.0957 -62.2549 -126.496 -55.0869c-69.6162 9.00684 -84.4355 87.6924 -90.0381 145.654
c-1.04785 10.8281 -1.77637 21.7871 -2.3623 32.792c-2.74414 -9.62109 -5.53906 -19.2256 -8.44238 -28.7959c-15.0186 -49.4961 -33.4648 -121.919 -92.9521 -132.805c-150.351 -27.5098 -122.978 247.305 -113.333 331.751
c3.25684 28.5283 39.5566 48.0156 64.2588 52.2119c20.2051 3.43262 58.6621 -3.72363 57.3184 -32.2295c-2.81836 -59.7383 -9.44531 -119.266 -11.7285 -179.044c-1.54883 -40.541 -6.68359 -91.876 12.0635 -130.134c14.2324 11.6201 27.9414 58.3379 31.2832 67.7197
c9.3252 26.1826 16.8975 52.957 24.2471 79.749c13.8916 50.6523 26.1494 101.987 47.2998 150.226c0.484375 1.11035 1.21289 2.14062 2.04395 3.13672c9.96289 27.0654 42.8975 44.9932 68.9951 49.4277c24.082 4.09375 63.1318 -4.22949 63.6787 -35.7979
c1.67969 -96.2939 -14.6934 -192.702 -7.30957 -289.264c0.820312 -10.6914 1.69141 -21.7471 3.1377 -32.376c1.75879 -12.9287 0.676758 -21.6055 19.0889 -9.34766c19.1348 12.7295 33.1572 41.9697 44.1445 61.082c21.5713 37.5352 38.5996 77.4385 55.6104 117.171z
" />
    <glyph glyph-name="v" unicode="v" horiz-adv-x="483" 
d="M501.712 221.4c27.6797 3.71777 12.374 -30 -7.87695 -32.915c-46.9453 -6.72949 -97.6602 -13.0371 -144.367 -1.86133c-9.85449 -40.4668 -21.6396 -80.626 -37.5068 -118.901c-20.2451 -48.8418 -49.2178 -98.6572 -99.6934 -120.85
c-43.8203 -19.2656 -107.606 -14.0449 -146.16 14.0342c-49.5869 36.1172 -60.9336 108.699 -68.124 165.392c-8.4541 66.6494 -10.8398 133.51 -7.12207 200.558c1.89062 34.1533 28.4951 59.0264 60.957 67.6006c24.7881 6.54102 68.6025 0.813477 69.3594 -32.8613
c1.34375 -59.5391 0.0283203 -119.237 3.70605 -178.696c3.33008 -53.8633 6.30762 -110.396 24.8047 -161.544c7.85059 -21.7139 14.8418 -53.1855 44.6338 -43.9453c28.2207 8.75 46.0918 36.5156 59.3623 61.0303c25.5508 47.1963 39.6416 99.6641 52.7754 151.387
c0.996094 3.92285 1.95215 7.8623 2.92578 11.7959c-1.33203 0.700195 -2.68652 1.31543 -4.00781 2.06152c-49.6611 27.9873 -75.3486 81.332 -72.9746 137.586c1.95312 46.1719 19.4141 105.893 62.6475 130.123c16.9258 9.48438 39.6699 14.1357 56.8008 2.60742
c18.7471 -12.6104 23.0449 -40.6895 25.1172 -61.373c5.75586 -57.5635 -3.87695 -117.849 -15.7354 -174.046c-1.04785 -4.96973 -2.14062 -9.94531 -3.22754 -14.9268c45.6133 -15.8555 96.6465 -8.56836 143.706 -2.25488zM334.211 356.104
c0.677734 18.1494 5.93262 68.21 -9.46191 81.5889c-25.79 22.3965 -43.2627 -47.9258 -46.2002 -63.4229c-8.9668 -47.3213 3.69434 -98.8672 40.7686 -129.474c7.74316 36.7041 13.499 73.835 14.8936 111.308z" />
    <glyph glyph-name="w" unicode="w" horiz-adv-x="708" 
d="M726.13 221.4c27.6797 3.71777 12.373 -30 -7.88281 -32.9033c-46.9453 -6.72949 -97.6602 -13.0371 -144.367 -1.86133c-9.85449 -40.4668 -21.6445 -80.626 -37.5059 -118.901c-20.2451 -48.8418 -49.2178 -98.6572 -99.6934 -120.85
c-43.8203 -19.2656 -107.612 -14.0449 -146.16 14.0342c-49.5869 36.1172 -60.9336 108.699 -68.124 165.392c-2.52734 19.9492 -4.45117 39.9268 -5.8916 59.915c-5.45996 -20.0801 -11.0732 -40.1084 -17.1133 -60.0117
c-15.0186 -49.4961 -33.4648 -121.919 -92.9521 -132.805c-150.351 -27.5098 -122.978 247.305 -113.333 331.751c3.25684 28.5283 39.5566 48.0156 64.2588 52.2119c20.2051 3.43262 58.6621 -3.72363 57.3184 -32.2295
c-2.81836 -59.7383 -9.44531 -119.266 -11.7285 -179.044c-1.54883 -40.541 -6.68359 -91.876 12.0635 -130.134c14.2324 11.6201 27.9414 58.3379 31.2832 67.7207c9.3252 26.1826 16.8975 52.957 24.2471 79.749c13.3105 48.5508 25.2148 97.7051 44.7988 144.179
c2.24902 33.7549 28.6592 58.332 60.8828 66.8438c24.7822 6.54102 68.6025 0.813477 69.3594 -32.8613c1.33789 -59.5391 0.0224609 -119.237 3.7002 -178.696c3.33008 -53.8633 6.30762 -110.396 24.8047 -161.544c7.85645 -21.7139 14.8477 -53.1855 44.6396 -43.9453
c28.2207 8.75 46.0918 36.5156 59.3623 61.0303c25.5508 47.1963 39.6416 99.6641 52.7754 151.387c0.996094 3.92285 1.95215 7.8623 2.92578 11.7959c-1.33203 0.700195 -2.68652 1.31543 -4.00781 2.06152c-49.6611 27.9873 -75.3486 81.332 -72.9746 137.586
c1.95312 46.1719 19.4141 105.893 62.6475 130.123c16.9258 9.48438 39.6699 14.1357 56.8008 2.60742c18.7471 -12.6104 23.0508 -40.6895 25.1172 -61.373c5.75586 -57.5635 -3.87109 -117.849 -15.7354 -174.046c-1.04785 -4.96973 -2.14062 -9.94531 -3.22754 -14.9268
c45.6191 -15.8555 96.6523 -8.56836 143.712 -2.25488zM558.628 356.104c0.671875 18.1494 5.93262 68.21 -9.46191 81.5889c-25.79 22.3965 -43.2627 -47.9258 -46.2002 -63.4229c-8.9668 -47.3213 3.69434 -98.8672 40.7686 -129.474
c7.74316 36.7041 13.499 73.835 14.8936 111.308z" />
    <glyph glyph-name="x" unicode="x" horiz-adv-x="344" 
d="M327.216 192.587c11.21 20.9336 59.6406 20.7002 44.4512 -7.34473c-29.6553 -54.7344 -64.6279 -110.914 -108.778 -155.281c-40.1309 -40.3193 -83.3701 -57.4561 -140.006 -45.9844c-32.2803 6.53613 -56.0605 29.9922 -73.6123 58.3779
c-6.23438 -12.3311 -12.2578 -24.7363 -17.8311 -37.29c-9.25098 -20.8486 -55.001 -20.7344 -42.3164 6.98535c11.5566 25.2607 24.6904 49.9805 38.4736 74.415c-4.47461 11.3467 -8.24316 22.5625 -11.4033 33.0156c-19.4873 64.4922 -27.5264 130.703 -27.9814 197.837
c-0.392578 57.8311 113.926 102.647 125.585 33.4756c5.4082 -32.0869 8.86426 -64.2588 12.4229 -96.4648c22.8525 38.5088 45.8867 76.9092 69.3086 115.076c10.2764 16.749 51.3691 16.9365 37.5234 -6.19434c-33.7891 -56.4365 -66.9346 -113.254 -99.4365 -170.441
c5.54492 -43.1426 10.7539 -89.8779 25.8809 -130.288c3.91699 -10.4521 14.876 -39.874 26.7461 -42.3906c18.3203 -3.88281 49.6729 36.7383 58.8672 47.7715c31.9219 38.3037 58.6055 80.8428 82.1064 124.726z" />
    <glyph glyph-name="y" unicode="y" horiz-adv-x="507" 
d="M497.85 201.713c16.2998 16.8232 56.5938 7.08496 34.8291 -15.8984c-43.3311 -45.7734 -86.8271 -91.4834 -129.189 -138.179c-0.358398 -68.2441 -2.52734 -136.402 -5.18066 -203.832c-3.00586 -76.4707 -7.19629 -154.644 -21.7598 -229.913
c-12.8037 -66.2061 -33.2197 -141.828 -79.6699 -192.924c-38.3379 -42.1689 -101.43 -69.9629 -156.802 -46.3994c-52.8662 22.499 -82.6982 79.0264 -88.5967 134.005c-6.99121 65.1582 17.6201 129.599 45.9326 186.985c31.4033 63.6553 71.5342 122.54 113.504 179.608
c17.1025 23.251 34.7744 46.0352 52.8789 68.4551c-2.64746 74.5352 -6.40527 149.064 -9.58203 223.6c-6.22852 -22.6982 -12.8037 -45.2549 -19.8516 -67.5547c-17.1758 -54.3467 -37.6543 -124.27 -105.289 -124.31
c-164.987 -0.0908203 -151.261 237.428 -136.021 349.406c3.88867 28.6025 39.0898 47.9424 64.2588 52.2178c20.8594 3.54102 57.8535 -3.75195 57.3242 -32.2295c-1.09277 -58.5879 -7.25293 -116.538 -5.16895 -175.229
c0.990234 -27.834 2.84668 -55.5371 6.26855 -83.1777c2.43066 -19.6582 5.28906 -48.7217 21.5889 -62.8125c14.7334 -12.7354 18.3604 -2.35059 25.79 11.4492c6.53027 12.1211 12.1611 24.834 17.2852 37.6094c11.0449 27.5547 19.3965 56.1455 27.6855 84.6172
c15.793 54.25 29.8662 109.019 41.1895 164.385c2.44824 62.8467 129.127 109.013 138.476 34.1475c10.4072 -83.3701 14.7227 -168.09 15.6279 -252.935c31.1299 33.3164 62.7549 66.1777 94.4717 98.9072zM263.973 -445.419
c13.3389 108.842 6.77051 219.774 2.11328 329.407c-4.29297 -5.65332 -8.57422 -11.3184 -12.7988 -17.0283c-35.7246 -48.3174 -69.8379 -98.0645 -98.4004 -151.011c-30.3848 -56.3281 -59.9951 -120.245 -55.8047 -185.848
c3.21094 -50.2764 33.1631 -118.247 90.584 -124.715c63.7344 -7.17383 69.1826 107.412 74.3066 149.194z" />
    <glyph glyph-name="y" unicode="&#xff;" horiz-adv-x="507" 
d="M497.85 201.713c16.2998 16.8232 56.5938 7.08496 34.8291 -15.8984c-43.3311 -45.7734 -86.8271 -91.4834 -129.189 -138.179c-0.358398 -68.2441 -2.52734 -136.402 -5.18066 -203.832c-3.00586 -76.4707 -7.19629 -154.644 -21.7598 -229.913
c-12.8037 -66.2061 -33.2197 -141.828 -79.6699 -192.924c-38.3379 -42.1689 -101.43 -69.9629 -156.802 -46.3994c-52.8662 22.499 -82.6982 79.0264 -88.5967 134.005c-6.99121 65.1582 17.6201 129.599 45.9326 186.985c31.4033 63.6553 71.5342 122.54 113.504 179.608
c17.1025 23.251 34.7744 46.0352 52.8789 68.4551c-2.64746 74.5352 -6.40527 149.064 -9.58203 223.6c-6.22852 -22.6982 -12.8037 -45.2549 -19.8516 -67.5547c-17.1758 -54.3467 -37.6543 -124.27 -105.289 -124.31
c-164.987 -0.0908203 -151.261 237.428 -136.021 349.406c3.88867 28.6025 39.0898 47.9424 64.2588 52.2178c20.8594 3.54102 57.8535 -3.75195 57.3242 -32.2295c-1.09277 -58.5879 -7.25293 -116.538 -5.16895 -175.229
c0.990234 -27.834 2.84668 -55.5371 6.26855 -83.1777c2.43066 -19.6582 5.28906 -48.7217 21.5889 -62.8125c14.7334 -12.7354 18.3604 -2.35059 25.79 11.4492c6.53027 12.1211 12.1611 24.834 17.2852 37.6094c11.0449 27.5547 19.3965 56.1455 27.6855 84.6172
c15.793 54.25 29.8662 109.019 41.1895 164.385c2.44824 62.8467 129.127 109.013 138.476 34.1475c10.4072 -83.3701 14.7227 -168.09 15.6279 -252.935c31.1299 33.3164 62.7549 66.1777 94.4717 98.9072zM263.973 -445.419
c13.3389 108.842 6.77051 219.774 2.11328 329.407c-4.29297 -5.65332 -8.57422 -11.3184 -12.7988 -17.0283c-35.7246 -48.3174 -69.8379 -98.0645 -98.4004 -151.011c-30.3848 -56.3281 -59.9951 -120.245 -55.8047 -185.848
c3.21094 -50.2764 33.1631 -118.247 90.584 -124.715c63.7344 -7.17383 69.1826 107.412 74.3066 149.194z" />
    <glyph glyph-name="y" unicode="&#xfd;" horiz-adv-x="507" 
d="M497.85 201.713c16.2998 16.8232 56.5938 7.08496 34.8291 -15.8984c-43.3311 -45.7734 -86.8271 -91.4834 -129.189 -138.179c-0.358398 -68.2441 -2.52734 -136.402 -5.18066 -203.832c-3.00586 -76.4707 -7.19629 -154.644 -21.7598 -229.913
c-12.8037 -66.2061 -33.2197 -141.828 -79.6699 -192.924c-38.3379 -42.1689 -101.43 -69.9629 -156.802 -46.3994c-52.8662 22.499 -82.6982 79.0264 -88.5967 134.005c-6.99121 65.1582 17.6201 129.599 45.9326 186.985c31.4033 63.6553 71.5342 122.54 113.504 179.608
c17.1025 23.251 34.7744 46.0352 52.8789 68.4551c-2.64746 74.5352 -6.40527 149.064 -9.58203 223.6c-6.22852 -22.6982 -12.8037 -45.2549 -19.8516 -67.5547c-17.1758 -54.3467 -37.6543 -124.27 -105.289 -124.31
c-164.987 -0.0908203 -151.261 237.428 -136.021 349.406c3.88867 28.6025 39.0898 47.9424 64.2588 52.2178c20.8594 3.54102 57.8535 -3.75195 57.3242 -32.2295c-1.09277 -58.5879 -7.25293 -116.538 -5.16895 -175.229
c0.990234 -27.834 2.84668 -55.5371 6.26855 -83.1777c2.43066 -19.6582 5.28906 -48.7217 21.5889 -62.8125c14.7334 -12.7354 18.3604 -2.35059 25.79 11.4492c6.53027 12.1211 12.1611 24.834 17.2852 37.6094c11.0449 27.5547 19.3965 56.1455 27.6855 84.6172
c15.793 54.25 29.8662 109.019 41.1895 164.385c2.44824 62.8467 129.127 109.013 138.476 34.1475c10.4072 -83.3701 14.7227 -168.09 15.6279 -252.935c31.1299 33.3164 62.7549 66.1777 94.4717 98.9072zM263.973 -445.419
c13.3389 108.842 6.77051 219.774 2.11328 329.407c-4.29297 -5.65332 -8.57422 -11.3184 -12.7988 -17.0283c-35.7246 -48.3174 -69.8379 -98.0645 -98.4004 -151.011c-30.3848 -56.3281 -59.9951 -120.245 -55.8047 -185.848
c3.21094 -50.2764 33.1631 -118.247 90.584 -124.715c63.7344 -7.17383 69.1826 107.412 74.3066 149.194z" />
    <glyph glyph-name="z" unicode="z" horiz-adv-x="444" 
d="M436.961 200.198c23.4668 16.3623 56.0713 -6.27148 27.998 -25.9131c-46.9346 -32.832 -89.0811 -70.8965 -127.441 -112.524c26.2686 -53.7207 34.9336 -117.302 36.8242 -175.918c4.09863 -127.02 -35.833 -285.317 -140.78 -366.707
c-41.6396 -32.2969 -107.595 -59.8633 -159.505 -35.6328c-45.5225 21.2471 -48.7275 76.3457 -41.8789 119.79c19.1748 121.555 92.5654 238.265 160.188 338.709c7.89648 11.7275 15.9922 23.3301 24.2588 34.8018c-7.01953 19.7607 -16.5332 38.4111 -29.6221 54.7617
c-19.2373 24.0479 -44.6738 38.4004 -71.7451 51.8477c-30.2646 15.0352 -72.3145 29.8203 -63.9629 72.2061c6.12598 31.1133 37.1426 55.8955 58.1963 77.7119c21.4346 22.2207 43.4443 44.5205 61.8789 69.3594c8.99512 12.1152 18.5654 24.2988 26.9111 36.8584
c7.58301 11.4209 11.9609 10.749 -7.03125 11.4209c-7.23633 0.250977 -14.501 0.301758 -21.7314 0.364258c-36.1064 0.330078 -72.2637 -0.615234 -108.318 -2.59082c-29.0977 -1.59375 -12.8604 31.7686 8.10742 33.8691c47.0654 4.71387 94.6201 7.7998 141.953 6.25098
c29.6729 -0.973633 52.1895 -14.4434 57.6377 -45.1182c6.26855 -35.2979 -12.8145 -71.4668 -30.4404 -100.86c-9.00684 -15.0186 -19.2598 -29.3027 -29.251 -43.667c-2.99414 -4.30957 -5.9375 -8.66504 -8.9209 -12.9863
c44.3496 -23.9395 85.3174 -47.042 116.174 -89.3076c36.7891 37.9619 76.7607 72.7871 120.501 103.274zM226.019 -332.839c13.3389 68.1523 14.626 140.251 9.3252 209.337c-1.16113 15.1895 -2.8291 30.8232 -5.36816 46.417
c-14.6768 -22.249 -28.6934 -44.9365 -42.1523 -67.9141c-34.5293 -58.9639 -68.0732 -120.08 -88.3975 -185.603c-11.0557 -35.6338 -42.0781 -158.891 37.085 -135.326c56.6582 16.8691 79.334 81.1104 89.5078 133.089z" />
    <glyph glyph-name="braceleft" unicode="{" horiz-adv-x="567" 
d="M475.916 -249.468c30.6465 17.541 58.5166 -15.7656 28.6904 -38.3955c-62.0215 -47.043 -149.4 -49.417 -216.118 -10.5957c-67.2471 39.1348 -106.251 108.421 -127.657 181.168c-25.9092 88.0557 -32.3936 180.193 -41.793 271.079
c-4.57715 44.2471 -9.68359 88.4824 -17.5859 132.274c-5.88672 32.6162 -11.4658 67.168 -40.125 87.4639c-20.791 14.7227 -9.06836 47.9248 4.17383 62.499c91.8936 101.11 130.709 232.839 177.654 358.003c25.4941 67.9707 51.0332 136.551 92.8096 196.403
c14.7568 21.1387 35.5088 42.1924 63.1943 42.7842c21.1162 0.455078 38.6797 -11.6426 42.1182 -32.6162c3.13086 -19.1006 -35.417 -32.1152 -40.4551 -10.7832c-6.34766 26.877 -30.0312 -19.1689 -32.5928 -26.4102
c-4.57129 -12.918 -7.7998 -26.3311 -10.6523 -39.7217c-5.66504 -26.5469 -10.6064 -53.2822 -15.4395 -79.9941c-9.37695 -51.8418 -19.0664 -103.871 -33.1797 -154.677c-25.9492 -93.4014 -60.4209 -182.801 -116.743 -260.956
c33.7656 -43.8203 40.791 -103.154 49.0859 -159.607c11.8926 -80.9111 17.2217 -162.659 30.3213 -243.405c11.375 -70.0996 24.8223 -144.561 60.0518 -207.123c27.1846 -48.2832 87.1055 -100.097 144.242 -67.3896z" />
    <glyph glyph-name="verticalbar" unicode="|" horiz-adv-x="265" 
d="M119.177 930.097c4.65723 38.5713 98.2236 63.415 95.793 15.7461c-9.90625 -194.216 -17.6943 -388.779 -22.0381 -583.206c-4.37793 -195.958 -3.99121 -392.093 -9.49121 -587.994c-0.961914 -34.2158 -29.376 -59.4873 -61.2344 -67.9014
c-25.1924 -6.64941 -68.5 -0.768555 -69.6729 33.0088c-6.87207 197.746 1.14941 397.148 13.1396 594.559c12.0977 199.227 29.5869 397.627 53.5039 595.788z" />
    <glyph glyph-name="braceright" unicode="}" horiz-adv-x="489" 
d="M427.776 519.66c24.1846 -22.374 5.54688 -59.5029 -16.8105 -74.9541c-5.49414 -3.79199 -3.86035 -3.17188 -7.65723 -14.2109c-5.27148 -15.3262 -8.4082 -31.6426 -11.6475 -47.498c-7.24707 -35.4795 -11.9268 -71.5283 -14.1641 -107.668
c-4.42969 -71.5918 -1.67969 -143.388 -3.14258 -215.059c-1.47461 -72.041 -6.41016 -149.81 -24.8164 -219.732c-15.8154 -60.0859 -55.7988 -113.75 -119.505 -126.839c-33.6641 -6.91699 -40.4336 28.8643 -11.416 41.9873
c53.5557 24.2188 39.0039 118.907 36.0488 165.136c-4.41797 69.1543 -10.9199 137.791 -11.165 207.179c-0.250977 70.2705 2.03223 141.002 12.752 210.556c6.54688 42.4766 14.8984 90.5264 37.4658 128.659c-55.5137 66.0117 -93.1338 145.903 -119.471 227.736
c-16.3223 50.709 -30.4189 102.072 -45.4658 153.146c-8.02148 27.2246 -17 54.1416 -26.251 80.9619c-4.49219 13.0264 -11.0908 57.4727 -31.0684 54.1768c-29.166 -4.81055 -27.1504 26.5303 -2.76074 33.0088c47.5264 12.6221 92.2861 -13.1963 118.054 -51.9727
c33.2256 -50.0029 57.5527 -104.452 79.9609 -159.938c40.9229 -101.344 78.8965 -208.665 161.06 -284.675z" />
    <glyph glyph-name="nonbreakingspace" unicode="&#xa0;" horiz-adv-x="307" 
 />
    <glyph glyph-name="exclamdown" unicode="&#xa1;" horiz-adv-x="229" 
d="M169.913 122.933c-0.170898 -67.748 0.310547 -135.522 0.805664 -203.266c0.255859 -34.1191 0.631836 -68.1641 0.147461 -102.277c-0.466797 -32.8613 1.44043 -68.415 -7.26465 -100.325c-6.39355 -23.4619 -53.4932 -47.3447 -68.1191 -18.4004
c-14.8594 29.3994 -17.4326 66.2168 -22.0615 98.4453c-4.74805 33.0547 -7.7998 66.1943 -10.6523 99.459c-5.5625 64.9307 -8.8877 129.799 -10.7549 194.939c-3.86035 134.672 -2.58496 269.184 7.45215 403.559c2.3457 31.4092 25.6875 54.0791 55.9805 62.0781
c21.5654 5.69336 64.6855 0.871094 63.6953 -30.1797c-4.29785 -134.62 -8.88086 -269.326 -9.22852 -404.032zM149.358 651.004c-3.08594 -12.9062 -36.8984 -31.1924 -42.4492 -11.46c-11.9785 42.5166 -11.5 87.6572 -2.69238 130.834
c4.89648 24.0078 65.9043 42.875 63.5527 10.4473c-3.13672 -43.2969 -8.31738 -87.5898 -18.4111 -129.821z" />
    <glyph glyph-name="cent" unicode="&#xa2;" horiz-adv-x="620" 
d="M530.877 161.134c5.85254 16.5273 45.0518 23.8994 38.0146 2.2998c-24.4639 -75.1836 -50.5156 -152.286 -103.291 -212.918c-44.5889 -51.2324 -99.2031 -78.918 -164.601 -90.5264c-0.899414 -25.5342 -1.71387 -51.0791 -2.37988 -76.6299
c-0.575195 -22.1631 -47.0312 -36.5664 -46.3652 -12.3594c0.774414 28.2832 1.73633 56.5664 2.78418 84.8447c-48.3408 0.358398 -96.9775 16.0488 -129.218 53.5439c-47.6855 55.4629 -63.3135 134.097 -70.9248 204.834
c-15.7988 146.752 6.3877 311.204 70.2881 445.011c28.7451 60.1934 69.6279 116.208 126.827 151.938c24.873 15.5361 54.3008 31.4883 84.5088 39.0713c6.79785 45.7842 14.0059 91.5059 21.6465 137.165c3.13086 18.708 43.3359 26.2461 39.7607 2.40332
c-6.75781 -45.0615 -13.1963 -90.1738 -19.334 -135.32c15.8779 -1.08203 31.4883 -5.59082 46.2676 -14.8818c50.248 -31.5908 64.7939 -96.6582 71.7793 -151.677c9.30273 -73.2139 -0.0966797 -147.447 -9.17773 -220.183
c-2.25488 -18.042 -40.8262 -25.1865 -38.0195 -2.2998c8.40332 68.5508 16.6924 137.962 8.61914 206.969c-5.39746 46.1084 -23.8828 138.65 -84.999 140.312c-35.4287 -269.445 -59.5449 -540.32 -70.4756 -811.872c9.35352 -1.28711 18.9922 -1.15039 28.7783 0.899414
c115.958 24.2988 165.044 161.965 199.511 259.375zM257.63 -80.4219c11.5684 260.502 34.9062 520.377 71.3994 778.533c-27.7314 -20 -47.0029 -56.5156 -60.5527 -84.2871c-22.0557 -45.2148 -38.3555 -92.8838 -51.3867 -141.435
c-30.7207 -114.438 -45.25 -232.856 -34.7861 -351.257c4.66309 -52.7354 12.2295 -111.785 38.002 -158.947c8.99512 -16.4648 21.9414 -31.4492 37.3242 -42.6074z" />
    <glyph glyph-name="sterling" unicode="&#xa3;" horiz-adv-x="513" 
d="M462.173 712.236c7.05371 -18.292 -28.3672 -35.8867 -37.1748 -18.1299c-21.2754 42.8584 -73.9883 48.1357 -108.979 18.6904c-30.9482 -26.04 -35.3037 -83.5068 -39.0781 -121.133c-8.9834 -89.5303 1.44629 -180.456 -2.45898 -270.288
c-0.176758 -4.15625 -0.416016 -8.34082 -0.615234 -12.5078c14.4434 0.136719 28.8926 0.279297 43.3359 0.416016c33.624 0.324219 15.9863 -39.2266 -9.49023 -39.6367c-12.0186 -0.199219 -24.0312 -0.392578 -36.0498 -0.585938
c-4.62305 -73.7715 -12.6504 -148.187 -27.6973 -220.051c-9.54785 -45.5732 -23.7461 -98.8438 -49.8662 -141.827c59.7725 10.8623 119.181 25.8584 177.889 39.7559c32.502 7.69141 30.4463 -30.3613 3.10254 -37.1133
c-73.3105 -18.1045 -147.782 -32.1152 -221.082 -50.2881c-14.7227 -12.1719 -31.751 -21.5996 -51.5459 -27.1621c0.370117 0.512695 0.746094 1.03613 1.11621 1.55469c-22.6934 -7.79395 -46.8945 -4.87305 -52.4229 22.7559
c-8.0332 40.1201 28.0439 83.9912 40.1416 121.128c14.7969 45.4424 22.4424 92.7637 30.1172 139.812c8.08984 49.582 13.5723 99.4082 18.5371 149.292c-15.7871 -0.255859 -31.5684 -0.511719 -47.3496 -0.767578c-34.7734 -0.563477 -16.6406 40.8311 9.83789 41.082
c13.8398 0.136719 27.6738 0.267578 41.5137 0.398438c4.33203 44.8105 8.68164 89.6211 14.5176 134.301c13.0371 99.8066 37.9785 207.652 113.117 279.466c29.502 28.2041 65.335 49.5479 107.584 47.959c36.6865 -1.38379 69.6328 -22.46 83 -57.1201z" />
    </font>
</defs>
</svg>
