<?xml version="1.0" standalone="no"?>
<!DOCTYPE svg PUBLIC "-//W3C//DTD SVG 1.1//EN" "http://www.w3.org/Graphics/SVG/1.1/DTD/svg11.dtd" >
<svg xmlns="http://www.w3.org/2000/svg">
<metadata>
Created by FontPrep 20130207 at Tue Apr 11 17:39:48 2017
 By Martin Campillo
Generated with Fons http://osp.kitchen/tools/fons/ from hd scan found in Specimen de caracteres Plantin, MIB G 158 B, KRB Brussels.
Prepared by Paol Darcel et Ludi in April 2016 - zigzaganimal.be
</metadata>
<defs>
<font id="3f5c8da7ffb38350628fe42746e01d5a" horiz-adv-x='1024' >
  <font-face 
    font-family="AntiqueNobleItalic"
    font-weight="400"
    font-style="italic"
    font-stretch="normal"
    units-per-em="2048"
    panose-1="2 0 5 3 0 0 0 0 0 0"
    ascent="1597"
    descent="-451"
    x-height="883"
    cap-height="1593"
    bbox="-287.037 -464 2026.78 2070.56"
    underline-thickness="51"
    underline-position="-105"
    unicode-range="U+0020-FEFF"
  />
<missing-glyph horiz-adv-x="1024" 
d="M205 102h614v861h-614v-861zM102 0v1065h820v-1065h-820z" />
    <glyph glyph-name=".notdef" horiz-adv-x="1024" 
d="M205 102h614v861h-614v-861zM102 0v1065h820v-1065h-820z" />
    <glyph glyph-name=".null" horiz-adv-x="0" 
 />
    <glyph glyph-name="nonmarkingreturn" horiz-adv-x="681" 
 />
    <glyph glyph-name="space" unicode=" " horiz-adv-x="512" 
 />
    <glyph glyph-name="exclam" unicode="!" horiz-adv-x="602" 
d="M70 73q0 38 4 49t10 25q6 13 6 18t-1 35t7 31q21 27 66 29q4 2 13 0t13 -2l37 2l23 -6l33 6q3 0 25 -5q38 -9 38 -38q0 -3 -14 -45q0 -34 -1 -35l-3 -6t-6 -10t0 -16q4 -11 2 -17l-15 -39q-8 -25 -10 -28q-1 -3 -19 -14t-22 -11l-55 6q-21 0 -41 -10q-2 0 -35 6t-44 22
t-11 53zM524 1451v-24q-6 -18 -7 -24t-3 -11q-2 -6 -3 -22q-2 -29 -11 -47l4 -20l-10 -29q-2 -2 -1 -16t0 -19q-1 -6 -6 -39l-10 -20q-2 -8 -2 -20v-17q-4 -24 -10 -46t-5 -35t1 -18l-2 -34l2 -23v-12l-8 -25q0 -18 -4 -30l-9 -21q-2 -4 -1 -16q1 -13 -1 -19t-5 -12t-5 -13
t-4 -13t-1 -17q1 -12 -1 -18l-14 -27q0 -6 1 -22t-6 -29q-8 -13 -9 -17t-1 -11t-5 -21t-6 -16q-1 -3 0 -15q1 -14 -9 -36t-10 -47q-1 -30 -9 -46t-8 -21l-2 -57q0 -9 -10 -25t-16 -31t-7 -20q-31 -52 -121 -26q-30 8 -30 26q0 19 6 25l-2 33l10 45q2 10 -2 28q-4 17 -3 29
t4 26t3 30v24l6 26v13l-2 28q0 27 17 72l-11 39q6 20 5 29q-1 8 2 12l8 57q2 4 1 19t6 33t8 23t1 13t2 13l8 24q2 5 1 17t-1 18q4 4 4 14l-4 45q7 21 13 35t2 24q-4 11 -2 17l12 37q2 8 2 24v25q10 29 11 33t-3 15t-2 19t10 23q8 16 12 26t-8 28l7 24l-2 42q0 28 10 38
q19 27 79 29t69 4t44 -4l23 -2q21 0 28 -27q2 -8 -3 -21t-5 -23z" />
    <glyph glyph-name="quotedbl" unicode="&#x22;" horiz-adv-x="829" 
d="M257 1554q9 0 17 2t22 2q14 -1 32 3q18 3 40 -11t28 -34q5 -20 -3 -36t-8 -20l-2 -33l-14 -38q0 -6 1 -28t-10 -33q-12 -11 -12 -22l-2 -16q-4 -8 -14 -18l-7 -21q-5 -14 -18 -31q-12 -16 -15 -21t-8 -18q-7 -19 -21 -28t-19 -24q-6 -15 -8 -19t-25 -16t-23 -15
q-8 0 -32 11q-55 23 -62 55q-6 6 -2 22q4 15 4 19t7 20q10 22 11 36q1 13 13 27t12 31l6 23l-4 37q0 21 11 43v24l8 46l2 26q0 6 1 12q1 7 2 13q3 20 53 34q6 0 18 -2t21 -2zM599 1554q9 0 17 2t22 2q14 -1 32 3q18 3 40 -11t28 -33q5 -19 -4 -40t-8 -32t-1 -18l-14 -38
q0 -6 1 -28t-10 -33q-12 -11 -12 -22l-2 -16l-14 -18l-7 -21q-5 -14 -18 -31q-12 -16 -15 -21t-8 -18q-7 -19 -21 -28t-19 -24q-6 -15 -8 -19t-25 -16t-23 -15q-8 0 -32 11q-55 23 -62 55q-6 6 -2 22q4 15 4 19t7 20q10 22 11 36q1 13 13 26t12 32l6 23q0 6 -3 17
q-7 24 10 63v24l10 65q0 30 10 43t31 18t33 3t21 -2z" />
    <glyph glyph-name="percent" unicode="%" horiz-adv-x="1976" 
d="M1868 1591q0 -6 -4 -20l-6 -21v-69l-5 -13l7 -28q-2 -68 -2 -146l-5 -34q-1 -9 3 -17t1 -19q-5 -19 -1 -30q5 -10 -1 -34l3 -23l-5 -29q0 -4 2 -11q1 -7 3 -15t1 -64q-1 -55 -1 -74v-45l4 -18l-4 -17l6 -22l-4 -35l4 -29l-6 -16l10 -27q2 -4 -3 -16t-1 -103l8 -71
q0 -13 -4 -19v-290q6 -12 6 -31l-2 -19l8 -33l-6 -30l6 -31l-6 -22q0 -29 -7 -37q-7 -9 -37 -15t-44 -3t-21 3l-32 -10q-7 -2 -20 3t-32 5t-34 15t-15 27l2 34v88q2 8 10 26t5 30l-7 45l3 75l-5 20q0 3 2 9q14 43 -2 102q0 5 4 17q4 14 0 29q-4 14 -2 30q2 17 -2 35l-6 27
l6 55v63l-6 33q0 6 5 18q9 21 3 40l3 73q1 66 -3 78t0 23t5 23q-1 11 -9 12t-16 -19t-30 -41t-33 -53q-5 -6 -13 -16t-22 -32t-13 -24q-29 -31 -31 -35l-8 -16q-8 -13 -11 -17q-8 -12 -14 -16q-6 -5 -19 -25q-17 -26 -28 -37t-22 -37t-19 -35q-9 -9 -17 -16t-22 -31
q-16 -24 -19 -28t-7 -16q-4 -13 -15 -23t-15 -14q-46 -73 -57 -86t-23 -36t-32 -42q-19 -18 -22 -27q-2 -11 -8 -23t-15 -24t-12 -17t-5 -13q-3 -12 -17 -23q-14 -12 -22 -31l-2 -16q-3 -4 -11 -13t-13 -17q-22 -37 -48 -18q-4 3 -10 6t-6 10l-29 57v22l-14 29q-2 4 -1 16
t-5 18q-7 9 -7 23q0 13 -14 27q-12 24 -12 38v19q-5 7 -11 17t-11 18t-6 23q-1 16 -7 28q-6 13 -10 19t-6 10t-3 10q0 6 -2 8l-12 25q-2 4 -2 9v7q-7 28 -15 41q-12 19 -11 36t-13 34t-14 27v14q-9 18 -13 24q-4 7 -5 13q0 6 -2 15t-10 25l-10 20l-11 33q-9 20 -12 31
t-10 22q-11 17 -11 30v12l-23 45q-4 6 -7 29t-17 18q-9 -4 -11 -21t-5 -25t-9 -39q-5 -32 -12 -47q-8 -15 -7 -25t-4 -17q-6 -8 -7 -10t-1 -8t-2 -12t-13 -24q-15 -23 -15 -37q1 -13 -9 -27t-12 -20q-2 -5 -1 -15t-1 -15l-10 -24q0 -45 -13 -68t-15 -44q-1 -21 -10 -45
t-19 -42q-9 -19 -10 -29q-1 -15 -7 -26q-6 -12 -6 -19l-2 -10l-12 -25q-2 -4 -4 -15t-7 -19t-11 -28t-7 -24q0 -2 1 -12t-1 -14t-7 -12q-7 -11 -13 -38q-7 -28 -15 -54q-8 -27 -15 -61t-22 -48q-25 -33 -65 -35l-17 2h-6l-28 -4l-27 4q-6 0 -24 -3q-58 -10 -78 32
q-3 6 -3 61l27 45v15l11 22q1 2 4 19t18 40q14 23 21 32q8 9 10 13t0 22t2 34t4 22q0 11 14 24t13 33q-1 19 1 25q0 6 8 19t19 47q9 34 17 47t8 26v19l14 29q4 6 5 19q3 33 24 63v12q4 4 10 16q2 18 10 34q8 17 14 38t19 44q13 22 11 36q-1 15 -1 19t16 34v23l17 28v4
q17 25 25 60q8 33 7 43t1 15t11 16t11 17t1 12q-1 5 -3 10q-2 6 9 26t15 37t4 25q1 8 13 29q12 22 12 46l11 19v17q0 18 8 31t13 41q5 29 13 40q11 18 6 35t4 28t9 21v14q22 70 57 70q19 4 26 -14q7 -17 9 -21q31 -45 41 -96q0 -28 6 -40t8 -22t14 -34t17 -44q7 -20 27 -72
t27 -76t16 -36q10 -12 11 -20t10 -27t8 -30t17 -41q25 -39 25 -52v-10q11 -11 11 -22t1 -14t4 -7t6 -7q5 -5 5 -16v-10q1 -6 15 -32t19 -46q5 -19 17 -39q12 -19 12 -29t2 -14t7 -12q6 -8 8 -15l8 -28q12 -41 18 -47q5 -6 5 -10l2 -25q0 -2 2 -5t4 -7q2 -3 10 -25t10 -22
q6 -14 15 -13q4 0 16 15q10 8 21 27q13 22 40 51t35 50q7 21 11 25l13 13q9 8 11 11t7 18t17 27t13 23q65 101 79 112t17 14q4 3 10 18q6 14 16 22q9 8 20 30q15 31 22 38t9 17q2 9 21 25t28 34q8 18 17 26q9 9 11 13t4 11t9 16t17 23q9 14 16 21q7 8 11 20q4 11 8 16t10 12
t12 15l10 16q5 9 12 15q10 8 19 26t22 34q14 16 19 30q7 20 20 29q14 9 18 28t19 33t18 25q8 21 16 30t15 26q6 18 12 24t24 19l23 16q18 2 26 -8q9 -10 17 -33t8 -29z" />
    <glyph glyph-name="ampersand" unicode="&#x26;" horiz-adv-x="1466" 
d="M774 1540q20 10 31 10t33 13q12 0 42 -1t43 4q13 4 35 -6t47 -17q24 -7 39 -22t21 -19t18 -7q12 -2 28 -14t29 -43t22 -44q8 -12 12 -20t3 -17q-2 -16 8 -38t8 -34q-3 -13 -4 -20t-2 -11t0 -18q1 -13 -1 -17l-15 -27v-8q0 -6 -2 -10l-20 -62q0 -24 -33 -51q-2 -4 -11 -9
q-13 -7 -17 -25q-3 -17 -11 -20t-11 -5t-10 -4q-7 -3 -16 -22q-10 -19 -16 -26q-10 -10 -35 -22t-35 -27q-10 -14 -14 -17t-16 -7q-18 -6 -27 -15l-14 -14q-6 -6 -34 -12t-30 -23q0 -7 7 -21t14 -32t20 -31q12 -23 18 -32t8 -19q3 -10 13 -23q14 -17 14 -22q1 -5 15 -30
q21 -37 39 -71q19 -34 35 -30t22 17q7 16 23 26q10 15 18 35q17 17 37 60q20 42 36 56q15 13 27 42q11 30 15 36t9 11t8 11t6 25q3 18 10 33q7 16 25 18t37 -7q18 -9 26 -21q18 -29 40 -29q23 -15 32 -33q9 -17 21 -33q22 -29 -4 -55t-31 -48q-4 -21 -16 -31
q-17 -15 -21 -34t-22 -45t-43 -48t-33 -43t-14 -30t-10 -16q-4 -4 -16 -10t-22 -25q-14 -25 -24 -34q-10 -8 -13 -24q-4 -16 33 -53q3 -3 7 -15t17 -22q16 -12 21 -25q14 -32 73 -76q6 -6 25 -37q19 -30 19 -56t-25 -26h-11q-57 -7 -72 -2q-16 4 -44 3t-35 -1l-19 6l-45 -6
q-30 0 -74 63q-2 5 -8 11t-8 10l-2 14q-2 4 -17 25q-16 21 -24 21t-15 -15q-7 -14 -11 -15q-28 -6 -36 -13t-17 -12t-19 -8q-11 -3 -14 -6q-5 -5 -35 -21t-46 -19t-29 -16q-14 -13 -48 -13q-2 -2 -6 -3t-8 -4q-3 -3 -13 -3h-29q-16 -8 -32 -8l-46 2l-30 -11q-62 -5 -82 5
q-25 12 -61 11q-36 -2 -59 20q-6 5 -22 11t-32 14t-21 8q-6 0 -13 6q-7 5 -13 14q-6 8 -20 19t-21 25q-8 15 -12 20t-14 13q-9 9 -12 13t-6 9t-6 12q-4 7 -6 10t-5 6t-3 8l-8 43q0 2 -12 48t-4 76q8 28 7 40t1 17t7 14t10 17t7 15q2 6 1 15t0 13t9 24t8 29q1 9 19 27
q19 17 23 22t7 15q5 16 21 29t25 28q9 14 22 22q13 9 59 52t77 52q31 10 60 39q29 28 59 32t32 12t2 15q4 4 4 14q-2 10 -14 28t-11 30t1 16q-6 6 -6 16v27l-21 45q0 6 3 22t1 27l-10 37q0 12 9 34q8 22 10 27t0 12t-3 11l11 33q0 11 24 62q24 50 31 58q5 8 27 30t30 38
t25 18q17 3 37 20q20 16 28 20t17 4q13 0 24 8t31 8zM641 20q4 0 10 2t-1 6t-13 0q-6 -3 4 -8zM639 698q0 21 -18 5q-18 -15 -43 -15q-34 -14 -48 -28t-20 -17q-6 -4 -36 -20q-30 -15 -38 -23q-12 -11 -16 -19t-21 -23q-22 -18 -27 -31q-6 -13 -18 -22t-15 -13t-8 -20
q-5 -18 -10 -30t-7 -17t-2 -14q1 -9 -2 -17t-3 -15l4 -39q7 -80 68 -113q14 0 29 -12t20 -14q6 -2 22 -1t19 1q16 -8 55 -8l88 22q18 4 36 0q23 -5 39 9q17 14 27 18t20 10q9 6 11 6q13 20 17 22t22 4q18 3 31 21q12 17 5 31t-12 20t-11 22q-7 16 -25 44t-20 32q-2 3 -3 7
t-5 7t-8 10q-5 7 -16 20t-12 32q-2 18 -14 30q-16 17 -21 34t-17 36q-12 18 -14 23q-3 7 -3 25v20zM709 1210q0 -11 -25 -55q0 -6 5 -14t4 -17q-2 -10 13 -47t15 -47t4 -14q14 -29 39 -23q2 2 7 5t5 6q17 0 38 21t40 29t33 25t23 25q10 8 12 13t4 9t4 9q52 72 48 105
q-1 9 -1 15l6 31q-12 53 -92 68q-37 6 -47 2q-10 -3 -31 -13l-22 -8q-38 -26 -52 -62q-2 -5 -5 -10t-7 -13t-9 -13q-5 -6 -7 -11t-2 -16z" />
    <glyph glyph-name="quotesingle" unicode="'" horiz-adv-x="477" 
d="M257 1554q9 0 17 2t22 2q14 -1 32 3q18 3 40 -11t28 -34q5 -20 -3 -36t-8 -20l-2 -33l-14 -38q0 -6 1 -28t-10 -33q-12 -11 -12 -22l-2 -16q-4 -8 -14 -18l-7 -21q-5 -14 -18 -31q-12 -16 -15 -21t-8 -18q-7 -19 -21 -28t-19 -24q-6 -15 -8 -19t-25 -16t-23 -15
q-8 0 -32 11q-55 23 -62 55q-6 6 -2 22q4 15 4 19t7 20q10 22 11 36q1 13 13 27t12 31l6 23l-4 37q0 21 11 43v24l8 46l2 26q0 6 1 12q1 7 2 13q3 20 53 34q6 0 18 -2t21 -2z" />
    <glyph glyph-name="parenleft" unicode="(" horiz-adv-x="841" 
d="M209 1091v8q0 6 15 23q24 26 24 37q6 7 15 21l13 20q2 2 4 9q7 19 25 28q4 4 11 15q8 10 12 16q9 11 20 21q11 9 25 36q6 4 17 11q12 6 18 12t21 22t21 22t13 10q8 5 12 8t7 7t5 9q3 6 7 10t16 7t16 6t10 8t13 11q14 14 41 25q12 12 16 15l8 8t10 8t13 9t23 13t22 13
q41 22 70 4q4 -5 9 -17t12 -26t4 -21q-3 -8 -9 -18q-9 -15 -6 -30q3 -16 -11 -40t-15 -30q-6 -22 -58 -48q-53 -26 -59 -35q-7 -10 -10 -16t-7 -10t-14 -10q-17 -10 -36 -37t-32 -38q-18 -14 -37 -52q-20 -28 -26 -51t-20 -38t-23 -53q-12 -49 -22 -65q-9 -15 -9 -28
l-27 -95q0 -29 -7 -36t-7 -11l2 -23l-8 -26l2 -25q0 -8 -4 -16v-35l-17 -53q0 -13 4 -23t-3 -23l-9 -18l4 -53l-4 -10q0 -4 -2 -9l4 -36l-2 -33l6 -43q0 -101 13 -127l2 -25q0 -2 2 -5t3 -7t3 -11q4 -12 -6 -22t10 -35q20 -24 26 -28t4 -26q-2 -30 9 -45q10 -14 12 -31
q3 -17 11 -25t13 -17t11 -23q6 -15 26 -48t25 -44q6 -11 4 -33t-2 -24l6 -32q0 -3 -10 -33q0 -17 -6 -35q-1 -38 -23 -47q-39 -15 -67 29q-2 2 -16 14t-16 32q-2 21 -27 44q-25 22 -28 29t-6 23t-7 23q-3 3 -15 11t-16 14q-2 6 -2 20t-12 20q-12 7 -15 13q-6 18 -6 37
l-18 37l-2 20q-4 8 -16 21t-14 29q-1 16 -3 21t-4 9t-4 7l-4 8t-4 12t-1 18q3 15 -8 28q-11 12 -9 24q1 12 -1 16q0 4 -7 12t-7 17l2 26q-1 7 -9 21t-10 20q0 6 1 18q1 15 -5 31t-6 29l6 35q-16 64 -16 69l8 66l-12 41l10 37l-8 57q0 5 14 47l2 33q6 24 13 44t3 36q2 4 9 16
t9 30q1 17 9 33q8 17 10 21t0 14t11 45q14 35 21 45t13 31q8 27 14 35q7 9 7 14z" />
    <glyph glyph-name="parenright" unicode=")" horiz-adv-x="841" 
d="M758 943q4 -17 4 -66l8 -31q0 -69 -6 -90l6 -39l-6 -35l4 -35q0 -10 -6 -16l-2 -66q0 -14 -8 -30q0 -8 1 -31t-11 -42q-13 -18 -15 -26t-1 -22t-1 -20t-12 -16q-16 -18 -19 -52q-3 -35 -21 -60q-17 -24 -21 -35t-5 -34q-4 -8 -14 -21t-14 -28q-5 -21 -22 -37
q-17 -17 -17 -26l-2 -17q-4 -6 -15 -14t-14 -20q-2 -11 -4 -16q-5 -4 -13 -9t-11 -9t-4 -15q-1 -14 -18 -31t-22 -29q-7 -18 -26 -28t-22 -21q-3 -12 -16 -24q-18 -17 -26 -36t-21 -23q-14 -4 -18 -7t-7 -13t-7 -15q-6 -4 -18 -8t-19 -6q-6 -6 -13 -20t-21 -26t-25 -11
q-34 -20 -40 -34q-11 -22 -28 -28t-30 -16t-23 -10q-47 -5 -51 41l10 57q0 6 -1 18q-1 14 7 28q9 14 14 35q4 21 24 44t45 43q25 19 33 29q12 15 22 23q11 7 18 19q9 15 23 27q14 11 21 32t11 27t7 6q3 1 6 3t24 15t16 40q0 13 10 24t13 15q2 4 3 8t11 19t25 60q16 45 28 67
t14 39q3 16 10 29t7 34l18 51q2 4 0 15t-2 18l17 29q0 10 -1 29t1 25q10 32 10 52q4 8 10 23v28l10 21q0 4 -4 15t1 28q5 16 4 49t-1 43l7 27l-7 34l2 67q0 15 -2 30l-10 28q-2 8 0 40t-10 40q0 2 -1 8q-1 7 -2 15t-4 14l-11 22t-12 23q-4 6 -12 37q-9 31 -30 47q-2 6 -5 19
q-3 12 -9 22t-37 39t-39 51q-4 4 -5 16t-4 28t7 59l-6 34q6 22 25 35q14 19 18 21q35 10 75 -32t43 -50q3 -7 5 -13t5 -11t6 -9t12 -12t13 -14t10 -18q7 -13 13 -20q26 -13 30 -31t12 -28q9 -10 24 -40t29 -46q14 -17 16 -31t4 -18t4 -9t5 -9t5 -8l4 -10t4 -12q2 -8 4 -14
q6 -16 14 -26q7 -10 6 -18t7 -27q8 -21 8 -33t2 -14l17 -47z" />
    <glyph glyph-name="plus" unicode="+" horiz-adv-x="1056" 
d="M635 743q0 -4 -8 -52t-17 -69t-6 -30q10 -10 40 -10h67l50 8l56 -4h40q36 0 38 -6q21 -6 29 -16t8 -17l-8 -41q-2 -10 -14 -33t-16 -47q-3 -24 -26 -35q-8 -6 -41 -1t-45 3l-39 -10q-14 -2 -43 4t-39 6h-25q-15 0 -32 2t-34 -4q-21 -7 -21 -16v-9q0 -4 -1 -10t0 -23
t-3 -41t-14 -52q-9 -27 -9 -43v-25l-16 -57q-16 -53 -33 -76q-18 -24 -21 -25q-2 0 -10 4t-15 6t-37 0q-30 -3 -34 0t-11 5t-21 9t-14 20q-1 12 3 62t4 66q-1 16 13 48q14 33 16 44t6 26q4 14 6 26t6 26q3 14 3 20t-2 11q-3 2 -15 2t-33 -2t-40 -3t-25 -2t-24 4t-27 5
l-80 -6q-43 -1 -59 15t-15 23l2 40q0 4 -5 14q-7 15 10 32q18 18 18 34t12 22q40 20 109 10q75 15 84 15q8 0 56 -7t57 -2q11 6 20 60q10 53 15 73t16 74q11 55 28 77q23 28 41 25t26 -3t13 2q4 2 12 4t12 0q5 -2 13 -13q14 -18 27 -18q21 0 24 -22q2 -4 -2 -56v-41z" />
    <glyph glyph-name="comma" unicode="," horiz-adv-x="485" 
d="M294 244q8 0 28 1q21 1 51 -3l18 -9q6 -7 9 -29t-1 -36l-8 -37v-39q0 -25 -6 -45l-12 -33q-2 -2 -2 -8v-8q-11 -36 -25 -50q-14 -13 -25 -40t-18 -39q-6 -25 -39 -51l-5 -10t-5 -9q-2 -2 -11 -12t-13 -24q-5 -13 -8 -16t-10 -7q-8 -4 -20 -13q-33 -23 -68 -6
q-36 17 -44 35t-7 53t9 51t19 29t15 21t2 20q-1 12 -1 17l14 39q4 6 5 18q2 27 14 43q4 16 4 47q6 12 6 18v42q6 20 3 30t6 34t50 28l25 8q8 2 25 -4t25 -6z" />
    <glyph glyph-name="hyphen" unicode="-" horiz-adv-x="671" 
d="M335 569q15 0 21 -6q18 0 27 2l25 8q8 2 24 -1t25 -3l26 9q31 0 31 -7q2 0 22 1t21 -7q18 -11 21 -36l-5 -46q0 -4 -9 -54t-19 -59q-10 -8 -34 -14t-29 -8t-7 -2l-47 12q-46 0 -59 -6q-14 -6 -19 -6l-35 6l-41 -6l-47 6q-10 0 -22 -6l-31 2q-47 0 -61 8q-21 17 -21 37v43
q0 4 -2 16t-1 18q1 7 7 18q8 15 8 28v10q0 16 8 24t35 15l23 8q2 1 40 3t42 -3l49 -4h34z" />
    <glyph glyph-name="period" unicode="." horiz-adv-x="436" 
d="M191 2q-5 0 -11 -2t-13 -4q-27 -8 -56 3q-51 18 -31 97q3 0 12 35v55q0 29 19 52q2 2 22 10l41 18l51 -6q7 0 13 3t12 5t18 4t39 -5t37 -23t4 -47t-9 -35t-9 -9t-6 -11l10 -27q0 -18 -2 -23l-10 -18q-2 -4 -1 -16t-1 -16q-2 -5 -24 -26q-20 -21 -30 -20h-20l-31 -4
q-20 10 -24 10z" />
    <glyph glyph-name="slash" unicode="/" horiz-adv-x="1202" 
d="M1341 1614h34q36 0 36 -24q-1 -17 -29 -53t-37 -49q-9 -12 -13 -18t-13 -12q-8 -6 -12 -12t-6 -16q-3 -9 -7 -14t-12 -14t-43 -61t-58 -77q-31 -34 -38 -48q-6 -13 -18 -25q-11 -13 -16 -21t-14 -23q-15 -26 -29 -39t-28 -36q-14 -22 -17 -28t-11 -15t-14 -20
q-7 -11 -11 -17t-15 -17q-12 -13 -16 -19t-9 -15t-11 -20t-21 -26l-18 -18q-8 -12 -28 -50t-38 -56q-19 -18 -28 -34q-8 -16 -15 -22q-6 -10 -26 -34q-36 -42 -62 -86q-27 -44 -44 -62q-17 -17 -30 -42t-36 -52t-34 -51t-20 -29q-8 -5 -22 -16t-19 -27q-5 -15 -9 -20
t-16 -23q-14 -17 -26 -39t-18 -30l-18 -22q-12 -14 -16 -18t-17 -23q-14 -19 -21 -34q-16 -31 -45 -60q-10 -20 -14 -24q-32 -32 -51 -70q-18 -18 -33 -46q-14 -27 -50 -69t-51 -70q-16 -28 -20 -34l-14 -21q-10 -14 -14 -20t-13 -25q-8 -19 -36 -45q-27 -26 -48 -47
t-35 -27l-49 -12q-10 -2 -26 0q-15 2 -19 2t-14 -1t-14 0t-12 5q-7 4 -11 4l-19 -4q-10 1 -13 15t3 29t41 61t59 76t29 42t11 17q6 6 24 31l24 32t12 22q5 14 30 37q26 24 41 53q16 28 21 35t10 12q6 5 8 10t20 32q17 8 37 43t41 51q6 10 17 31t20 29q8 8 15 18t17 31
q11 20 19 31t23 23q14 14 20 22t13 25t14 27t29 36q36 40 45 65t36 54t39 49l18 30q4 2 9 8t15 16q9 9 12 13t7 7l8 8q9 12 16 31q8 19 32 38q4 5 10 17q8 16 19 27t24 36t47 59q6 8 20 34t25 38l17 17q4 4 18 28t35 41q12 16 36 54t33 48q17 17 21 25q4 9 10 19q5 10 23 36
t27 40q9 13 31 39t32 41t27 47t29 47t38 49q39 49 52 73q12 24 46 46q33 22 58 18l24 -10l31 10q2 2 22 2z" />
    <glyph glyph-name="zero" unicode="0" horiz-adv-x="1296" 
d="M843 1589q24 0 54 -10l18 -2q5 -2 17 -9t38 -17q26 -11 40 -17q12 -6 69 -57t72 -106q4 -14 20 -39q15 -25 15 -35q0 -11 11 -33q11 -23 13 -49q2 -25 9 -39v-48l8 -26q2 -6 0 -20t1 -44t-5 -125v-49q0 -17 -11 -35v-55q-10 -18 -10 -23t-2 -8l-14 -26q0 -49 -8 -81
t-12 -36q-3 -4 -5 -7l-4 -6t-5 -7t-4 -12t-1 -20q0 -13 -2 -32t-16 -41q-19 -28 -19 -46t-11 -35q-11 -18 -15 -34t-7 -23q-4 -7 -12 -16t-10 -16q-4 -2 -7 -13t-15 -21q-12 -11 -17 -34q-4 -22 -21 -26q-16 -4 -22 -9q-5 -4 -17 -22t-20 -24t-24 -12t-23 -9q-6 -4 -13 -15
q-12 -19 -27 -21t-25 -12q-13 -13 -38 -23q-24 -9 -30 -15q-8 -2 -25 -3t-29 -10t-17 -12t-16 -2t-16 1l-32 -17h-121q-20 10 -27 10h-29q-49 0 -82 22t-46 23q-13 -1 -22 7q-10 8 -30 30t-26 29q-33 16 -45 47q-4 11 -18 25q-19 21 -19 30v9q-8 23 -22 40q-15 17 -19 25
t-2 30t-8 45q-11 22 -12 28t-1 55l-4 24q-2 4 -1 12t-5 31v25q-10 35 -10 39l14 49l-4 23q18 81 16 106q-2 24 0 30t5 19q3 11 5 17t3 21q3 23 12 37t7 36t3 35l6 18t6 15q8 17 5 40q-2 23 15 43q17 19 19 23t3 18t6 25t8 25q2 14 4 21t9 15q8 10 17 30q8 21 18 39t19 30
q10 12 24 35t32 38q22 18 29 36q6 17 36 32q10 10 13 14q4 4 8 7t10 7t16 11q10 6 27 20t45 25q109 61 126 39q3 -3 6 -9t7 -8l-2 19q3 8 19 13t22 4t12 -4t42 4t58 3q21 -4 45 -4zM987 936q19 37 4 88l4 35q0 2 -2 28l-6 21v47q0 4 -10 29v20q-8 41 -29 78l-28 29
q-4 4 -14 15q-36 44 -66 44q-11 11 -45 21h-21q-8 0 -18 3q-9 3 -17 0q-9 -4 -31 -2q-23 2 -36 -12q-19 0 -32 -11t-26 -12q-19 -3 -41 -28q-22 -24 -39 -35q-30 -17 -30 -39q-13 -26 -29 -38q-16 -13 -22 -21q-7 -21 -20 -39t-13 -33q0 -14 -3 -22t-11 -19q-7 -10 -9 -15
t-3 -16t-12 -43t-11 -37v-14q-6 -19 -11 -28q-4 -8 -5 -14t0 -20t-14 -52t-14 -56t1 -24t-6 -21v-69l-9 -37l4 -45q-2 -100 0 -119l11 -34v-7l10 -22q0 -2 7 -30t20 -41q12 -13 14 -18t9 -17q26 -43 52 -50q25 -8 42 -19t24 -10q8 2 26 -1t48 -3h32l21 10q4 2 13 1
q29 -3 93 53q7 8 11 9t14 8t18 17q8 11 17 23l12 18q2 4 11 14q8 10 12 14q4 5 5 15q1 14 14 21q12 7 17 26q4 19 7 23q4 4 7 11t17 32q15 25 19 35t3 21q-1 16 8 28t13 21q0 16 -6 22q0 19 10 39t12 26t4 18q1 11 3 17l10 27v23q14 63 14 94z" />
    <glyph glyph-name="one" unicode="1" horiz-adv-x="757" 
d="M672 1400q0 -18 -2 -28q-2 -8 -8 -23t-8 -19t-2 -20q1 -15 1 -18l-4 -22v-26q0 -22 -3 -29q-5 -12 -4 -22t-4 -21t-6 -15t0 -15q2 -23 -11 -36q-2 -12 0 -41t-6 -40q-9 -11 -11 -17t0 -30t0 -32l-10 -24q-2 -12 -2 -46t-14 -61v-49q0 -6 -4 -17q-9 -22 -6 -62t-11 -54
q-2 -5 -3 -19t-3 -20l-8 -24l4 -33q-10 -10 -10 -23l-2 -47l-11 -45v-8l-8 -39l-2 -31l-4 -16q-2 -4 -1 -27t-4 -31q-7 -11 -7 -20v-8q-18 -64 -15 -77q4 -13 4 -18l-4 -26q-4 -39 -6 -44t-11 -40q-19 -69 -116 -37q-12 2 -37 -3t-56 6t-29 35q1 25 1 28l-4 24q4 14 15 31
q2 8 1 25q-2 28 12 50q13 22 13 80l12 90q-1 13 7 32t8 46v21q0 20 2 20l12 50l-2 24q12 36 12 45l-2 31l11 24q2 12 3 36t3 32t6 15t4 12v63q11 23 13 51q1 28 8 41q6 11 7 19t2 26t7 38t6 34q0 15 5 28t5 16v36q0 20 4 32t2 19q-5 15 -26 7t-32 -17q-11 -10 -20 -13
q-9 -4 -19 -10t-17 -13q-14 -12 -35 -14t-38 -14t-32 -16q-16 -4 -18 -6q-55 -18 -75 0t-15 45q4 28 4 32t-3 19q-3 14 1 17l14 26q2 6 4 24t8 29q29 34 53 31t58 12q35 15 42 14t13 3t16 10t23 17q14 11 43 28q29 16 37 22t15 15q7 8 12 10q2 4 12 10q12 7 19 21
q7 13 22 16t27 23t16 26q10 9 33 16t42 0q20 -7 27 -7l27 10q46 4 51 -51q2 -21 -14 -45q-4 -16 -4 -34z" />
    <glyph glyph-name="two" unicode="2" horiz-adv-x="1310" 
d="M986 999q11 9 12 13t-3 18q-6 22 0 41q7 18 11 33t-2 49l-17 31q0 4 1 18t-3 26t-23 27q-18 15 -34 33t-24 23q-8 6 -32 14t-30 12q-9 6 -24 6h-13q-1 0 -19 7l-28 -4l-17 2q-6 0 -28 -6q-21 -6 -35 -4q-14 1 -18 -1t-12 -5t-18 -11t-49 -29q-39 -20 -51 -28
q-4 -4 -14 -19t-24 -27t-18 -32q-5 -20 -7 -26t-13 -23q-10 -19 -12 -27t-3 -18t-3 -18t-6 -26q-4 -17 -12 -22q-21 -19 -76 -12l-25 -10q-6 -2 -15 0t-13 2q-87 4 -99 32l5 29q-2 39 6 55t8 21q6 6 6 24v11q0 13 9 24q9 10 12 15l2 14q28 71 61 102q2 4 12 12t25 31
q15 24 29 32q15 8 24 24q10 16 17 22q8 4 27 10t25 10t9 5q4 2 7 5q21 21 52 21q8 5 32 17t33 15t18 1t14 -2l55 16q17 0 25 4t26 0t29 -4t37 4q27 4 51 -6q24 -11 45 -9q21 1 45 -11t33 -14t19 -6q23 -11 33 -17q9 -6 24 -13q15 -8 31 -18t38 -38t35 -38q18 -12 31 -42
q14 -30 32 -60q19 -44 19 -61v-21l8 -45q5 -67 -4 -100v-58l-23 -60v-9q-4 -8 -14 -25t-17 -40t-12 -34l-10 -20q0 -7 -13 -17t-16 -27q-2 -16 -22 -38q-19 -22 -23 -34q-4 -11 -7 -15t-12 -12t-12 -12t-5 -11q-6 -19 -20 -27q-13 -8 -20 -19t-28 -21q-4 -4 -11 -14
q-11 -17 -27 -26t-23 -24q-4 -2 -14 -6t-18 -19q-9 -14 -13 -17q-5 -3 -9 -6q-4 -4 -20 -18t-23 -19q-8 -5 -17 -8t-12 -6q-4 -3 -8 -7t-9 -10t-24 -5q-19 0 -40 -33q-2 0 -5 -8t-13 -10q-10 -3 -56 -33q-13 0 -22 -12t-14 -14q-5 -3 -15 -7t-14 -6t-11 -8q-6 -6 -17 -10
t-25 -10t-9 -19q4 -18 30 -18t68 4l29 2q20 -10 25 -10l22 4q4 2 40 1t42 -1h13l20 -4h6l22 4q7 2 25 1t27 1l24 8q9 2 23 -4t20 -6q42 8 52 10q9 2 48 -2t43 -13q5 -8 2 -26t-3 -36v-19l-9 -21l6 -30q0 -2 -5 -14t-8 -21q-7 -25 -23 -35l-33 -6q-26 -13 -89 -4t-79 3
q-17 -7 -29 -7l-33 10l-16 -2l-27 4h-86l-20 -2l-33 8q-47 -9 -59 -2q-12 8 -19 7t-26 -11l-47 6q-4 0 -13 -6h-28l-26 -8l-28 8q-6 2 -17 -1t-17 -3l-39 6l-31 -6q-6 -2 -18 1t-19 3l-43 -4h-14l-48 -6q-10 0 -28 13t-18 33l6 56l2 35q2 4 3 8t3 8t3 19t12 24q10 8 20 13
q26 12 44 27t43 22q26 8 66 41l54 30q2 3 8 11t10 11t14 6t18 8t13 13q6 8 12 13q21 14 40 23q19 8 33 18t28 18q4 4 15 19t27 24q15 9 23 15q7 6 15 10t15 9q28 20 61 53t52 44q18 10 37 39q4 2 13 6t17 18t27 26t60 73q5 16 22 28t29 40t24 37q12 10 14 20q3 10 5 13t5 10
t10 14q4 10 4 33t11 32z" />
    <glyph glyph-name="three" unicode="3" horiz-adv-x="1347" 
d="M992 1548h12q18 -6 34 -14l15 -2q8 -4 21 -16t20 -11h10q35 -12 88 -75q2 -4 20 -22q27 -28 27 -40t12 -32q11 -19 15 -28t10 -73t0 -86q-6 -21 -18 -47q-13 -26 -24 -53q-27 -65 -59 -92q-32 -26 -49 -33q-4 -4 -12 -16t-15 -17q-7 -4 -29 -12q-22 -9 -33 -19t-11 -16
t10 -16t27 -18q17 -7 35 -22q56 -53 76 -120q4 -19 15 -29t13 -14q2 -5 1 -17t-1 -14t3 -11t2 -15t-1 -7l6 -22q6 -39 0 -93l-14 -34v-10l-16 -50q0 -28 -12 -38t-11 -22q0 -12 -18 -42q-17 -29 -25 -36t-19 -14q-15 -10 -25 -31t-31 -35q-22 -15 -35 -32q-18 -24 -39 -29
t-43 -18q-39 -24 -64 -24q-12 -4 -38 -19t-42 -13q-16 1 -22 -1l-25 -10h-49l-49 -11h-27l-18 7l-41 -4l-31 8q-8 2 -23 1t-24 -1q-20 10 -29 10l-47 -4q-8 0 -18 5q-11 5 -15 7t-13 2t-12 1q-7 2 -14 7t-27 7t-30 5t-33 16t-33 17q-10 5 -28 17t-24 15t-24 6q-41 6 -53 51
t37 83q9 8 15 13q6 8 18 26t26 36t45 14q30 -4 67 -34t59 -36l98 -29q4 0 24 -9t30 -11q8 -2 19 -1t15 1q74 -12 146 0h18q8 0 23 10q6 0 19 -4t22 4q14 11 33 13q18 2 29 11t13 11t18 8t23 19q6 12 10 15t23 19q47 38 62 98q3 16 9 25q6 8 5 12v50q17 59 -6 96t-26 44
q-13 31 -36 40q-4 7 -24 31q-40 32 -64 30t-30 -2q-20 10 -33 10l-33 -10q-4 -2 -26 -1t-23 1l-51 2q-45 -2 -66 8q-4 0 -24 -1q-38 -2 -19 89v21q10 20 13 48t13 33q17 9 63 9h26q44 2 58 -5t29 -1t19 6l25 -4l26 8q4 2 15 -3t27 -2t22 7t14 8t38 17t32 15t5 3q3 2 6 5
t19 13q16 11 19 15q4 4 11 18q8 17 19 29q10 12 12 26l4 20t7 12t8 13t0 15q-3 10 -4 14l5 39q-1 4 -7 14q-10 15 -10 22v9q-7 14 -24 31q-18 27 -22 30t-16 7q-11 3 -34 19t-37 20h-33q-23 6 -37 4q-13 -2 -20 -2l-19 2l-16 -4q-6 0 -36 1t-38 -3t-25 -18q-23 -20 -35 -22
q-52 -7 -153 -122q-2 0 -9 -10t-14 -15t-46 -4h-27q-9 2 -24 18q-20 21 -33 22q-13 2 -25 13t-14 13q-1 2 -17 10t-16 28q0 19 19 44l12 26q6 4 25 15t32 27l26 29q9 12 26 20q18 8 32 18t19 13q4 3 8 9t8 8l8 6t13 5q10 2 14 4t16 9q21 12 31 12h10q6 2 15 10q11 10 46 14
q35 5 49 12q13 8 19 10t15 -2q14 -5 42 9q24 2 34 -2q9 -4 12 -4l16 6l16 -6l18 2l19 -2l14 6q22 0 48 2t59 -23q4 -2 11 -2z" />
    <glyph glyph-name="four" unicode="4" horiz-adv-x="1294" 
d="M724 216q5 34 5 40t12 41v35q0 2 7 12t-3 25q-14 11 -30 6q-16 -4 -33 -4h-23q-4 0 -16 6q-31 2 -63 -6l-35 10l-31 -6l-27 4l-24 -8l-53 6l-37 -17l-41 11l-19 -2h-51l-84 -2q-4 0 -16 -5t-22 -1q-9 3 -13 5t-13 1q-22 0 -38 16q-12 18 -3 51t8 46q-4 48 89 128
q29 14 29 30v11q6 13 21 23t20 14q4 6 10 17t10 18q8 8 26 22q18 15 24 21q4 6 8 14t6 10t15 18t27 28q14 10 19 17q6 7 14 22t15 24q8 4 13 9t17 14q30 44 41 50q12 6 22 24t31 31t24 22q10 31 28 51l24 24q2 2 6 10t5 12q2 3 8 6t10 6t11 13q11 15 27 26t29 33
q13 21 19 30q6 10 10 16t15 13t33 35q23 29 31 40q8 12 16 17t13 11t16 26q16 28 32 36t27 37q11 30 28 33t24 7q7 3 17 7t25 0q14 -4 49 1t53 3t34 -21q17 -19 7 -40t-10 -27l-2 -43l-14 -49v-12q1 -15 -5 -28t-6 -45q0 -35 -9 -50t-8 -30q2 -24 -7 -50t-11 -58
q-2 -31 -4 -43l-10 -30q-3 -18 4 -41q0 -7 -6 -19l-8 -16t-1 -19t0 -19t-5 -13q-6 -12 -6 -30v-15l-4 -21v-37q-1 -8 -11 -25t-10 -34q-4 -4 -2 -19t2 -20l-6 -29q-2 -4 -1 -16q2 -19 -11 -35q-27 -36 19 -44q24 -3 33 -1t26 2h22q8 2 35 11t35 7q8 -1 23 -11t17 -17
q2 -8 3 -35l-9 -74q-2 -4 -6 -11t-4 -11l-2 -32q0 -15 -16 -23q-2 -2 -13 -1t-27 -4t-28 2t-16 7h-70l-30 2q-21 0 -25 -8q-8 -7 -5 -27t-1 -34l-13 -64q-2 -29 0 -35l5 -25q-1 -6 -9 -16t-8 -21l2 -15v-7l-6 -25q-2 -6 -1 -16t-4 -22q-5 -11 -5 -14t-3 -14l-4 -16
q-4 -18 -32 -18l-35 -8q-4 -2 -10 0t-8 2h-16q-15 0 -24 4q-16 7 -41 2t-46 4q-21 8 -25 17t-4 38t2 34t17 22t13 35q-1 18 -1 24q6 12 11 46zM815 751q0 9 -3 20t-1 19t8 23q6 16 6 25v82q3 10 11 21q8 10 9 26t2 22q1 5 1 19v20l8 49q0 25 -20 21q-12 -3 -17 -17
q-4 -14 -7 -19t-10 -11l-19 -19t-18 -19q-5 -7 -7 -10t-9 -7q-13 -8 -19 -21q-6 -12 -40 -40q-33 -27 -35 -34q-3 -13 -13 -23t-18 -27q-13 -26 -34 -38q-20 -12 -25 -27q-6 -16 -10 -22t-15 -12q-10 -6 -16 -10t-10 -17q-4 -12 -7 -16q-3 -3 -10 -15q-11 -18 -24 -25
q-13 -6 -27 -31q-14 -24 -24 -33t-8 -18t32 -15t48 -2q18 5 20 3l27 -8l20 2l33 -8l27 8l38 -4l25 2q77 -9 94 11t19 60q2 38 3 48t8 34t7 33z" />
    <glyph glyph-name="five" unicode="5" horiz-adv-x="1294" 
d="M1184 571q-10 -20 -10 -41t-4 -40t-2 -39q1 -20 -11 -33q-15 -37 -27 -75q-24 -73 -53 -93q-4 -6 -10 -18q-12 -25 -29 -39q-16 -13 -25 -31t-14 -22q-6 -5 -20 -11t-21 -10q-4 -3 -12 -13t-13 -13t-12 -5q-13 -4 -28 -24t-39 -25t-41 -18t-37 -12t-41 -7t-40 -8t-32 -6
q-14 -6 -22 -8t-82 -3h-70q-31 15 -42 10t-18 -9t-12 0q-5 2 -8 4t-7 4t-8 7q-5 5 -13 5l-29 8l-20 8q-4 2 -20 3t-23 9q-12 11 -37 11q-8 4 -26 19q-18 16 -30 18q-10 2 -20 8t-19 15q-15 15 -36 19t-38 27q-33 45 4 70q9 6 13 10q13 26 27 36q14 9 18 16q3 7 7 11t12 8
q15 9 23 21q28 40 77 9q4 -2 11 -10t17 -12q10 -6 37 -26q28 -20 37 -25t19 -8t43 -21t56 -19h30l23 -10h75q6 0 12 3t9 4l8 2t17 3t33 8t39 18q20 11 30 12q23 2 55 46t39 47q8 4 13 9t11 17t7 15q61 105 58 165q-1 19 3 59t1 57t-14 45t-19 48t-40 51q-32 32 -36 34t-20 0
t-38 9q-26 13 -48 13h-23l-21 4l-33 -4q-4 -2 -19 -1t-24 -4q-8 -5 -19 -11t-22 -8q-10 -2 -17 -6q-8 -4 -22 -8q-14 -6 -38 -24t-43 -44q-18 -26 -29 -31q0 -6 -25 -29t-65 -16q-9 0 -21 4t-19 6t-12 4t-28 4t-28 20t7 57q13 39 13 50t4 21t10 23t7 19t0 19t5 23t6 20v23
q15 48 27 73v17q0 17 10 42t13 34l-7 30q3 7 9 17t6 18l-2 25l14 28q4 14 6 43q4 52 17 70l4 35q2 2 1 12t1 14l8 19q6 18 6 28t-1 26t6 26t32 17t36 1t44 4l26 -8q6 -2 16 1t16 3q5 0 20 -6l22 4l23 -4l26 6l31 -6l102 2l27 -6q24 8 59 8l29 -4l28 6h31q12 0 25 6l29 -6
q56 -3 80 6l49 -6l39 2q8 0 24 -7t17 -37v-32q-2 -8 -7 -20q-7 -16 -12 -58t-21 -60q-17 -17 -36 -13l-23 4l-56 -2q-13 0 -26 2l-55 10l-19 2q-5 0 -30 -6t-61 0l-23 4l-27 -4l-55 10l-35 -6q-24 12 -70 8t-58 -4t-21 -6q-38 -22 -34 -58q1 -9 -1 -14t-9 -45t-11 -50
q-3 -10 -5 -12q-2 -3 -1 -10t-8 -32t-9 -35v-13l-8 -32q0 -6 18 -15t26 -3q9 6 17 14t22 8t42 17h38q19 0 25 6q25 0 41 4l21 6q24 -8 28 -8q63 7 86 -5q23 -14 33 -20q14 -9 37 -14t90 -53q6 -3 15 -19t15 -21t16 -19q17 -21 30 -30q13 -10 26 -55q12 -21 20 -45t11 -28
q2 -4 3 -8t2 -14t2 -22q2 -12 8 -26t6 -23l-4 -24z" />
    <glyph glyph-name="six" unicode="6" horiz-adv-x="1204" 
d="M1118 698l10 -61l-4 -21q7 -20 9 -38l-11 -56l6 -28q-4 -18 -18 -58t-17 -56q-3 -15 -7 -23q-6 -8 -10 -23t-11 -27q-9 -13 -11 -23t-14 -18t-15 -18t-25 -35q-21 -25 -27 -36t-22 -21q-15 -10 -22 -16t-14 -11q-4 -4 -10 -12t-10 -13q-6 -4 -19 -11q-12 -7 -18 -11
t-15 -14t-17 -14t-22 -9q-16 -4 -22 -7t-18 -14q-17 -16 -37 -16h-16q-3 0 -7 -2q-17 -10 -40 -11t-52 -13l-45 12q-10 -3 -30 -16t-68 4h-33l-45 16q-6 0 -27 -2t-63 31q-12 24 -31 24h-6q-19 9 -22 17q-4 8 -11 12t-61 57q-8 12 -20 34q-12 21 -34 55t-26 48t-3 31
q1 16 1 25q-10 20 -10 22v35q-6 12 -6 35l6 31l-2 40q0 52 2 60l10 25q0 6 -1 21t1 23t10 22t10 22t2 18q-1 10 -1 16l30 82q2 2 2 8v7q4 10 21 31t23 43q7 22 15 29t12 24q5 17 21 49q15 32 45 69q31 36 38 46q6 10 12 18l12 16t10 14t15 18q11 13 28 38q16 25 27 31
q12 6 28 23t39 28q9 10 16 20t13 15q33 16 41 37q61 61 83 73q20 13 30 19q36 25 53 39q10 19 23 23q14 3 18 4t9 4t9 10q4 6 19 13q16 7 38 26q22 18 30 18h10q45 23 67 -3q22 -24 24 -34l3 -15q0 -10 19 -35q51 -66 22 -91q-12 -17 -35 -25q-60 -20 -80 -41
q-37 -19 -45 -23t-17 -10q-9 -8 -13 -11t-16 -7q-11 -4 -22 -19q-15 -18 -39 -25t-32 -23t-24 -24q-17 -8 -23 -17t-14 -14q-8 -6 -20 -16q-10 -10 -17 -14t-11 -7q-22 -16 -29 -28q-8 -12 -13 -18t-8 -10t-10 -9q-27 -19 -7 -36q6 -6 14 -6l22 8q1 2 15 1t22 -1t13 6h22
l31 6l59 -2q3 0 13 3t14 2q8 -2 16 -8t26 -12q18 -7 34 -8t20 -3l25 -9q4 -2 10 -2h10q17 -6 30 -22q14 -16 36 -27t35 -32q14 -22 30 -40t33 -44q16 -26 21 -30q4 -4 5 -16q1 -14 11 -33q12 -25 12 -53zM342 654q-2 -6 -2 -15q0 -8 -15 -31t-13 -35q1 -12 -1 -16l-14 -61
l4 -37l-4 -33l16 -66q0 -17 15 -32l2 -13q33 -33 43 -49t20 -23q9 -7 31 -17t31 -17q9 -6 29 -6q24 -8 38 -7t19 1l14 -4q3 0 33 8t48 6t26 0t16 8t16 13q8 8 16 12t23 14t19 13t12 6t10 8q19 12 30 35q11 22 21 28q14 8 16 21q3 12 6 16t19 34t15 36q0 8 12 32q2 11 3 27
t3 25l10 26l-10 31q-2 6 -1 21t0 23t-3 15q-2 9 -4 19q-12 61 -43 88q-27 9 -37 22q-10 14 -14 19q-9 6 -23 12t-28 16t-23 12q-8 3 -32 2q-23 -1 -29 -1t-25 7t-27 4l-16 -6t-14 -5l-18 -6t-25 -5q-26 -9 -43 -20q-17 -12 -29 -18t-28 -25t-35 -31t-25 -20q-2 -4 -3 -15
t-16 -25q-14 -15 -16 -21z" />
    <glyph glyph-name="seven" unicode="7" horiz-adv-x="1089" 
d="M82 1453q0 20 16 52q6 23 21 31l22 2q3 0 15 3t24 0t20 -3t17 10q9 2 25 -4t21 -6h10l28 4l21 -4l53 2l33 -8q60 -4 110 2l45 -6l39 10l23 -6l26 2l45 -2l27 6h47q12 -6 25 -6l23 4h6l12 -4h14l29 4l20 -2q66 4 74 4l22 -2q18 0 27 -29t-2 -44q-10 -15 -10 -22t2 -36
t-6 -43q-9 -14 -14 -20t-12 -16q-7 -9 -11 -19t-9 -17q-6 -6 -10 -12t-8 -8q-6 -12 -18 -34t-11 -30q0 -6 -2 -9t-11 -21t-22 -32q-13 -15 -29 -51q-17 -37 -19 -51t-4 -20q-3 -6 -6 -10t-5 -8t-6 -8q-7 -7 -15 -31q-9 -23 -27 -53t-32 -70q-16 -16 -20 -32q-3 -15 -17 -43
q-16 -32 -16 -40v-8q-2 -4 -7 -10q-8 -9 -10 -21q-2 -11 -6 -20q-4 -8 -14 -31t-13 -29t-6 -20t-16 -34q-14 -20 -15 -29t-4 -13l-6 -8t-5 -9t-4 -11t-5 -14q-2 -9 -3 -15t-5 -17t-4 -24l-14 -27q-2 0 -2 -7t-11 -13l-10 -11q-2 -6 -1 -17t-7 -26q-8 -16 -8 -20
q0 -5 -17 -39v-23q-2 -4 -10 -16t-12 -40t-17 -54q-14 -27 -17 -35t-5 -32t-8 -32t-20 -15t-24 -8q-12 -1 -16 -2t-16 -1h-16l-27 -6q-6 -2 -17 3t-18 5l-35 -8q-4 -2 -9 0t-11 4q-12 4 -37 5q-25 2 -33 24v26q-1 43 7 57t16 23q16 19 23 54q8 34 21 49q18 22 21 41
q3 18 19 34l2 17q2 4 7 12t9 23t22 45t26 59q8 30 13 37q5 6 7 10t6 9t4 17q0 11 3 18t11 19q13 20 14 30q2 10 9 22q5 11 25 41q29 43 32 60t12 27q13 15 15 24t4 11l8 17q2 2 2 6t2 7t8 9q5 6 9 11t5 12q1 8 8 17q13 17 13 28v15q0 17 13 29q13 13 20 30q6 17 18 32
q13 15 15 21t4 16t9 22t19 31q13 19 15 25t5 12l5 10t13 16q11 11 21 36q11 26 20 44t13 24q7 15 15 24q35 35 9 50q-5 3 -10 3l-23 -2h-31q-7 0 -27 -6t-49 -4l-41 8l-35 -2q-22 6 -41 2q-18 -4 -25 -4t-19 3q-20 5 -40 -7h-18q-29 -2 -41 2t-16 4l-33 -10q-7 -2 -21 3
t-22 5l-51 -16l-48 6l-29 -4q-19 0 -28 12q-18 14 -16 37l2 20l-4 31l10 27v13z" />
    <glyph glyph-name="eight" unicode="8" horiz-adv-x="1306" 
d="M732 1567l46 6h25l35 -6h63l27 -11h13q17 0 33 -13t36 -13t77 -53q82 -67 103 -121q8 -20 8 -26q0 -5 2 -10t12 -18q15 -20 15 -30v-9l8 -24q2 -9 -4 -27t-4 -26l8 -31q4 -21 -12 -53v-22q-1 -20 -17 -49t-20 -37l-7 -14q-3 -5 -10 -12q-9 -8 -16 -24t-21 -26
q-14 -11 -17 -13t-23 -22t-25 -23q-35 -12 -43 -19t-8 -17t22 -28t37 -34q4 -8 22 -26t24 -34q7 -17 14 -26l20 -31q2 -6 1 -15q-1 -8 1 -14q1 -5 13 -20q12 -14 14 -34t0 -40t-2 -28v-97q-16 -29 -27 -71l-8 -19q-2 -2 -2 -8t-11 -21q-11 -14 -18 -27t-14 -29
q-14 -39 -42 -56t-36 -30q-8 -12 -22 -20t-33 -32q-18 -25 -43 -25q-28 -6 -41 -20t-17 -16t-18 -1t-19 1q-7 -7 -14 -7l-30 -4q-8 0 -22 -10q-13 -10 -29 -10h-19q-15 0 -31 -8q-12 -2 -42 0t-49 -2t-50 -2t-42 1t-18 -1l-96 16q-4 0 -15 8t-30 7q-20 -2 -41 15t-37 20
q-24 4 -33 18q-9 13 -34 30q-10 20 -33 36t-24 24t-4 21t-16 27q-12 13 -16 18q-4 4 -3 16t-1 18t-5 12t-7 10t-9 15t-4 31t1 24t-4 26q-4 23 4 54l-4 31l8 35v15q0 13 11 46q11 35 27 53t19 22q2 4 5 15q3 10 13 18q9 9 12 13t7 15t7 15t23 22t28 26q7 8 14 10q10 8 36 30
t53 33q26 11 29 20t-23 33t-36 39q-9 14 -21 43t-17 38q-9 16 -9 26v8q-21 69 -15 104q5 36 6 44t6 19t7 15t2 12v11q6 14 22 42t18 39q3 11 9 22t10 15q5 3 10 7t8 8t9 14q7 12 17 18q9 6 29 28q31 34 59 44q27 11 44 28q17 18 31 20t19 4q3 2 23 10t32 15t18 9t12 1
q5 -2 17 -4t31 7q20 9 30 6t18 -3zM657 190q36 0 74 19q29 0 45 16q16 15 22 19t21 9q32 11 39 25q8 14 21 24q13 9 19 19q7 9 12 14q16 16 16 42q10 10 10 16v15q0 8 2 12t5 11t9 15t9 25l-9 59v33l-14 25q-4 4 -10 22t-17 24q-13 8 -37 30t-43 28h-24q-31 10 -41 10h-18
q-8 0 -15 3l-59 4l-18 4l-17 -2l-34 4q-5 0 -15 -2q-46 -22 -63 -21q-17 2 -22 0t-11 -10t-10 -10t-15 -3q-10 -1 -14 -4q-3 -3 -9 -7t-11 -8q-5 -5 -12 -10t-17 -11q-9 -6 -27 -27t-27 -28q-11 -9 -18 -30t-17 -36t-9 -25t-1 -14l-12 -45q-2 -2 0 -7t3 -23t4 -23
q3 -7 5 -11t4 -7t2 -6v-9q1 -7 9 -18t10 -15t4 -10t8 -21q4 -6 17 -11q19 -7 27 -17t20 -19q12 -8 30 -12t45 -14t47 -13l33 5l29 -11l35 8h30zM930 752q-12 -6 2 -15l10 -2q10 6 -2 15zM479 1171v-12l-4 -35q-6 -6 -6 -16l6 -18q0 -6 -2 -32t1 -29q16 -16 38 -60l27 -21
q45 -37 67 -47h33q79 -17 120 -5q40 11 53 13t26 10q12 7 28 12t20 8q5 3 9 10t6 7l25 23q2 2 6 4q19 10 25 26t20 31q14 14 17 20q3 7 4 21q1 13 3 23q2 9 4 62q3 52 1 53q-2 18 -30 58t-31 42t-14 8t-21 19q-9 12 -24 12q-14 0 -20 1t-15 7t-15 8l-33 -6q-7 0 -21 6t-20 4
t-10 -5t-8 -5t-13 -3q-11 -1 -20 -6q-10 -5 -13 -5l-20 2q-15 -5 -25 -11t-15 -8t-18 -4q-14 -2 -18 -4t-18 -18q-2 -5 -10 -13t-13 -12q-4 -4 -21 -17t-22 -27q-4 -13 -22 -38t-17 -33z" />
    <glyph glyph-name="nine" unicode="9" horiz-adv-x="1200" 
d="M1120 1002q0 -22 -2 -28t-4 -11q-2 -7 -4 -11l-5 -10t-6 -14t-3 -21q0 -14 -14 -48t-15 -41q0 -9 -6 -20t-7 -21q-4 -28 -15 -39t-23 -36t-32 -47q-19 -23 -22 -36q-4 -13 -6 -18t-11 -19t-11 -18t-3 -10q-1 -5 -4 -11q-3 -7 -15 -19t-16 -18q-3 -6 -7 -11t-6 -9t-11 -11
q-9 -8 -18 -30q-10 -22 -21 -29q-10 -6 -16 -9q-11 -6 -19 -22q-7 -16 -17 -23l-12 -8q-5 -3 -11 -14t-17 -15q-10 -5 -12 -10q-6 -4 -14 -19t-43 -32q-6 -6 -14 -18q-13 -19 -30 -30q-16 -11 -22 -19t-12 -15t-17 -12q-10 -4 -16 -13t-28 -18q-30 -14 -39 -29
q-9 -16 -24 -20t-20 -11q-4 -7 -7 -11t-5 -7q-4 -2 -17 -4t-22 -11q-12 -12 -26 -20q-14 -7 -19 -10q-2 -2 -9 -12t-31 -16t-40 9t-32 28t-30 45q-14 31 -24 40q-36 32 2 70q8 8 11 10q2 2 6 8q10 17 29 21t30 10q12 7 22 15q12 11 30 14q18 4 34 16q16 13 26 21t24 19
l20 16q6 6 14 10t11 7l11 11q18 17 34 21t32 25q16 22 34 34t31 26q13 13 23 18q10 6 16 10t18 18q11 14 27 30q15 16 13 28q-2 13 -14 14l-23 -13h-22l-17 -4l-26 -2q-4 0 -16 -9t-37 -4t-49 5t-23 -2l-21 -4q-10 0 -22 7t-18 8t-18 0q-14 -1 -18 1t-9 3t-8 3t-8 4t-7 5
q-31 4 -46 19t-40 22q-25 6 -38 29q-13 22 -17 27q-5 7 -38 48q-34 41 -34 66l-27 63l-4 49q-12 36 -12 47l6 31q-2 84 0 100l10 30v9q10 20 10 23l9 39q0 4 3 9q11 18 11 38q19 28 21 42q2 13 6 17t8 7q7 5 15 28t21 35t17 15t12 16t22 23q13 9 29 30q17 21 39 41q3 2 15 4
t24 14t35 24q30 16 39 25q8 8 17 12t31 4q22 1 30 3t19 13t20 13l30 -6q31 10 39 10q8 -1 42 -1t36 5t35 1l61 -13q4 -2 19 -1t30 -9t20 -12t13 -1q18 2 29 -10q10 -12 12 -14t7 -3q8 -2 21 -13q12 -11 34 -25t37 -33q16 -18 18 -25t20 -24q51 -44 55 -116q2 -27 11 -49
q10 -21 11 -27t1 -47l4 -27v-14l-4 -30l4 -34l-8 -47v-28zM335 1170q-3 -8 -3 -21q0 -14 -12 -30q-12 -15 -14 -22q-3 -7 -2 -33t-3 -45t-2 -40q6 -62 18 -90l9 -12l18 -43q16 -25 72 -56t94 -35l17 2l24 -4l16 7q6 0 36 -2t34 2q11 2 25 12t44 22t40 20q11 8 23 20
q11 12 21 16q16 8 21 24q5 18 19 28t18 17q2 7 6 15t4 12q10 10 21 35q0 21 10 39t12 25t0 33t3 45t-2 71q-7 53 -11 63t-31 37q-17 34 -28 41q-11 6 -23 13t-24 18q-11 12 -18 15t-21 4q-20 1 -41 10q-22 9 -35 7q-14 -4 -54 -4t-51 -4q-10 -4 -19 -12q-8 -8 -14 -10
t-16 -3t-14 -3t-10 -8l-10 -10t-13 -7q-8 -4 -14 -8t-16 -10t-15 -18q-5 -15 -19 -31t-22 -29t-26 -34q-19 -21 -22 -29z" />
    <glyph glyph-name="colon" unicode=":" horiz-adv-x="507" 
d="M278 270q3 0 20 -8q18 -8 30 -12q37 -7 19 -45q-17 -38 -17 -88v-51q-12 -55 -78 -74q-10 -2 -22 4t-20 6l-36 -10q-6 -2 -15 3t-34 5t-38 14t-6 34t7 22q-12 24 -12 26l16 82v30q0 14 8 28q6 6 26 16t28 10l88 -2l18 10h18zM238 644q-22 11 -36 11q-16 -1 -26 9t-7 32
t3 39v25l4 20v31q8 15 8 25v15q0 60 99 60q37 0 45 2l37 -8q4 -2 17 -1q34 3 48 -26t-2 -61l-8 -20l2 -27l-8 -29q-4 -53 -12 -65t-23 -22q-14 -10 -72 -9l-33 -10q-14 -2 -36 9z" />
    <glyph glyph-name="semicolon" unicode=";" horiz-adv-x="569" 
d="M235 261q33 -3 39 -3t22 7q15 7 42 -7q70 0 74 -26q2 -12 0 -21l-5 -20q-3 -11 -5 -16t-1 -18v-19q0 -7 -10 -27q0 -27 -6 -45l-8 -21q-2 -6 -4 -18q-4 -23 -9 -30t-7 -21q-1 -15 -3 -21t-10 -18t-24 -43q-16 -32 -30 -54q-16 -22 -22 -32t-18 -20q-12 -11 -16 -20
q-7 -14 -16 -19t-20 -17q-12 -12 -22 -14t-41 12q-78 37 -59 96l12 24q2 4 2 12t2 13q2 4 6 8t6 7q2 4 6 8t5 9q2 5 2 16q0 21 9 36t8 29t-1 20l14 29q2 6 1 19t2 22l10 28v48l10 29l-10 30q0 12 21 32q21 19 54 16zM388 637q-22 6 -33 6t-31 -10q-28 -6 -52 10
q-18 6 -25 12t-6 36t-4 43t4 36q9 24 9 43l10 25q0 57 27 57l16 2q28 14 45 14l27 -4l33 6q20 2 46 -7t35 -20q8 -11 3 -52v-46l-11 -47l-4 -32q0 -15 -5 -27l-9 -22q-17 -39 -75 -23z" />
    <glyph glyph-name="equal" unicode="=" horiz-adv-x="1056" 
d="M857 436q36 0 38 -6q21 -6 29 -16t8 -17l-8 -41q0 -10 -12 -29q-15 -23 -18 -49q-4 -26 -26 -36q-8 -6 -41 -1q-40 6 -65 -3t-58 -1q-33 7 -60 7t-66 -13h-30l-30 2l-63 5q-14 0 -74 -5l-86 5q-9 0 -29 -4t-38 2t-29 6q-9 0 -27 -2t-40 -4t-47 6q-26 8 -33 18t-4 30t1 23
q0 5 -5 15t-2 16t13 16q17 18 17 34t12 22t42 10t44 2q16 -2 23 -2q70 14 88 14l63 -8h158l28 -4q33 -2 52 2t41 8l88 -6l51 8l55 -4h40zM947 721q36 0 38 -6q21 -7 29 -17t8 -16l-8 -41q0 -10 -13 -31t-16 -47t-27 -37q-8 -6 -40 -1t-46 3l-38 -10q-14 -2 -43 4t-40 6
t-83 -12l-60 2l-63 4l-74 -4l-86 4l-39 -4q-10 -2 -28 3t-27 5l-80 -6q-53 0 -69 25q-7 10 -4 29q3 20 2 24t-6 14q-7 15 10 32q18 18 18 34t12 22q12 7 41 11t37 3l16 -2t47 6t56 7l63 -8h158l29 -4q33 -2 42 0t15 3t11 2t11 3t13 2l88 -6l50 8l56 -4h40z" />
    <glyph glyph-name="question" unicode="?" horiz-adv-x="972" 
d="M670 1055l18 60l-6 24v43q0 6 -6 15t-11 27t-9 24q-4 8 -16 18l-26 26t-25 18q-9 3 -21 4t-16 3q-5 2 -16 8t-18 6l-45 -4h-31l-12 4h-6q-6 -2 -13 -9q-12 -12 -27 -14q-31 -3 -60 -32q-4 -2 -13 -5t-26 -34q-16 -16 -20 -19q-5 -4 -8 -10t-11 -15q-19 -21 -87 27
q-5 4 -8 4q-3 1 -9 4q-10 5 -21 17l-15 15q-41 41 -40 55t13 27q13 12 15 14t7 11t10 13q16 8 45 35q28 27 65 45q78 51 125 54q14 2 45 12t33 10q55 0 72 -2l45 4l26 -10q5 -2 21 -1t20 1t8 -2t8 -3t14 -2q11 -1 17 -5l29 -19q2 0 27 -12t41 -29t31 -27q15 -11 31 -25
t34 -48t28 -49q15 -22 16 -53t5 -43q4 -13 5 -18t-1 -13t-2 -13l4 -49q0 -8 -10 -33q0 -8 1 -26q1 -19 -1 -25t-5 -14q-11 -30 -10 -43q2 -13 -22 -49q-2 -6 -2 -23t-15 -34q-22 -25 -32 -50q-11 -19 -35 -45t-26 -30t-5 -6q-5 -8 -19 -15t-21 -21t-11 -17t-11 -6t-9 -5
t-10 -8q-16 -13 -42 -29q-26 -17 -34 -25t-14 -11t-12 -9q-7 -6 -22 -13q-14 -7 -22 -13t-18 -16q-10 -11 -14 -14q-4 -4 -18 -12q-12 -8 -22 -16t-20 -49l-14 -31v-37q-6 -63 -91 -69q-28 -2 -45 1q-18 3 -36 0t-29 7q-10 10 -10 40v34q11 23 13 44q1 21 3 29l10 25
q0 2 -2 20t17 31q27 64 45 82t30 27q2 2 6 9t26 17t32 31q82 71 107 80q29 10 45 29t34 32q63 44 74 86q2 8 4 13l10 19q19 36 19 51v24zM391 106q0 -6 -5 -18t-7 -24l-4 -24q-2 -11 -10 -19q-7 -7 -20 -12t-26 -11q-14 -6 -18 -6l-51 6l-47 -4q-49 0 -64 41q0 6 2 18
q2 11 1 27q-1 22 8 41q10 18 10 42q0 23 2 45t22 40q10 6 46 8t68 6t63 -7t37 -19t3 -17l-10 -26q6 -6 6 -31l-6 -21v-35z" />
    <glyph glyph-name="A" unicode="A" horiz-adv-x="1601" 
d="M1212 1118l27 -74v-10q17 -35 16 -48q-2 -13 3 -22q8 -12 8 -26v-14q2 -6 16 -30t11 -52q-2 -28 11 -47q13 -17 15 -23t1 -18t1 -13l4 -24q2 -2 3 -6q1 -5 3 -9q4 -9 4 -16q-1 -8 15 -40t16 -51t3 -27t10 -23q7 -17 13 -33t8 -28q5 -19 5 -46q13 -27 27 -65q0 -31 9 -49
q13 -27 12 -34q-1 -8 7 -25t13 -37l14 -43v-9q26 -52 26 -67q-1 -15 3 -33t6 -30q5 -30 -25 -38q-29 -8 -96 -8l-65 -2q-27 0 -56 18l-4 8t-4 9q-2 4 -2 8q-23 35 -25 41t-1 17t-1 16l-14 43l4 22q0 6 -6 16t-6 24t-4 24l-9 20q-6 18 -6 32q0 26 -22 76t-21 71q0 20 -2 25
t-24 26t-72 6q-5 -2 -17 -1t-16 -1l-41 -4q-4 0 -16 3q-11 3 -19 0t-12 -3l-22 4q-25 -6 -50 -4l-34 6q-40 -14 -61 -8t-29 7t-20 -2q-13 -3 -19 -3h-68q-25 0 -30 -3t-10 -25t-22 -28q-36 -47 -45 -90q-4 -8 -14 -18t-23 -40q-14 -30 -17 -35t-9 -12t-18 -32t-14 -33
q-3 -8 -6 -12t-5 -8t-5 -8t-12 -30t-29 -49q-25 -30 -37 -51q-12 -20 -22 -20q-13 0 -26 -8t-29 -8q-30 10 -39 10q-53 -12 -75 -5q-23 7 -43 9t-29 10q-23 25 10 78q10 10 14 20t10 20t16 22q17 21 17 32q11 10 31 46t32 54q11 18 19 28q7 8 11 14t6 12t7 16t8 14t5 7
q2 4 5 11t21 27t20 37q3 18 20 38q18 18 22 26t7 21q4 19 19 32t15 31q23 23 25 29q16 46 26 55q14 12 29 45t22 38t10 9t10 10t10 19q3 18 28 50q24 32 34 54l15 36q6 13 10 24q4 4 14 13t19 42q18 18 25 32q8 17 14 23t7 13t12 17q10 9 13 15t3 14t11 22q11 15 20 31
q8 17 12 21q0 6 5 10t7 8l4 6t4 7t8 15t11 24q4 4 12 11t10 13q4 2 3 13t10 21q14 12 21 29q6 18 20 33q13 15 15 29q1 15 4 19q8 12 13 15q6 4 10 20q4 15 18 24q13 9 17 32q5 28 19 42t14 35q1 0 19 18t30 19q12 2 35 -16t23 -33t1 -17t5 -8q4 -7 4 -37t1 -34t11 -23
q0 -41 17 -58v-14l16 -55q0 -6 -1 -18t2 -26t17 -54q15 -40 17 -46t5 -21t13 -34t10 -27v-10zM842 918v-9q-6 -12 -20 -30q-21 -29 -23 -44t-17 -28q-14 -13 -22 -31t-19 -34t-2 -33q9 -16 60 -2q15 -5 61 -5l14 -6l31 6h92q23 7 37 3t21 -3q22 9 28 14t7 15l-13 57
q0 14 -9 41l-11 33v12q0 11 -9 33q-10 21 -12 29t-1 18q1 14 -9 30t-11 20t-1 24t-10 31q0 36 -14 47q-37 32 -55 -28q-5 -14 -21 -34t-34 -54q-16 -34 -25 -46q-13 -18 -13 -26z" />
    <glyph glyph-name="B" unicode="B" horiz-adv-x="1394" 
d="M965 1595q48 -16 71 -16q49 -13 70 -31q24 -21 46 -30q23 -8 28 -17q6 -7 30 -29t40 -44q14 -22 24 -32q10 -11 14 -18l12 -55l5 -14q7 -7 8 -13q2 -6 8 -59t2 -86l-8 -35v-24q1 -31 -11 -47q-16 -22 -16 -32q0 -9 -11 -19t-13 -15q-57 -80 -90 -100q0 -2 -12 -9t-26 -22
t-36 -20q-22 -4 -23 -14q-2 -9 20 -20t51 -41t45 -41t18 -19q3 -7 24 -43t26 -50q5 -12 5 -37t2 -33l10 -53q-10 -30 -10 -33q10 -35 -2 -59q-12 -25 -14 -31q-3 -12 -4 -23q-2 -12 -15 -31t-15 -28q0 -10 -4 -14l-11 -11t-31 -39l-27 -36q-3 -6 -17 -14t-18 -12
q-8 -7 -14 -17t-14 -12q-7 -2 -12 -5t-9 -9q-8 -15 -27 -19q-18 -3 -33 -15q-19 -15 -51 -19t-49 -18q-16 -14 -33 -14q-18 0 -26 -2l-35 -14q-45 -2 -62 0l-30 4l-15 -4h-26q-39 -10 -41 -10l-39 12q-38 -19 -59 -3q-5 3 -25 2t-25 -1l-20 4q-4 0 -29 -10h-28q-36 -9 -62 0
l-22 -2l-50 8q-8 0 -60 -7t-92 1t-48 24q-8 4 -3 24t5 26l-4 18l8 29q2 6 1 17t6 33l8 26q1 4 1 9t2 9l10 47q-1 5 5 28l-4 17q12 25 12 59t4 46l14 41v20q6 6 6 13t-2 20t2 28q3 15 5 18t1 11t1 11l4 8l4 8t2 6v33l6 16q0 4 -1 15t6 26t8 37t2 30t12 23v51q6 19 5 26t1 9
l16 83l2 27v17q0 10 19 86v57q0 13 10 23q0 10 -1 31t7 38t9 22t0 13q-1 9 0 13t6 18t5 21v47q0 4 4 8t7 6q2 2 1 24t-1 28t6 14q0 6 -1 20t5 29q6 16 6 24l-4 17q13 63 23 70q11 8 36 8t35 2q9 2 21 -3t16 -6l16 4l33 -2l21 2q10 0 30 -10l29 6l29 -4q33 2 51 8q46 3 74 -4
l34 4l21 -4l33 4l22 -4q8 -2 39 0l23 4q30 -10 32 -10zM780 688q-18 -4 -61 -4q-12 -6 -21 -6l-49 10l-59 -10l-29 10q-30 5 -43 0q-14 -4 -16 -4t-24 4t-50 -3t-31 -9l-10 -50q0 -4 1 -20t-7 -28t-4 -27l10 -29q-2 -10 -8 -29t-7 -25t0 -15q1 -10 -1 -17l-11 -24
q0 -8 1 -31t-1 -30t-8 -20t-8 -20v-55l-6 -24q0 -15 14 -15q3 0 23 10l36 -6l35 6q20 -10 30 -12t54 2l33 6l27 -6q6 -2 13 1t9 3h82l19 6q6 0 49 2l22 -2q8 0 23 9t29 7q14 -1 22 2t19 10q10 7 14 9t14 5t27 13t37 38t33 41q18 18 18 29v7q10 10 10 27v35q0 3 6 12
q8 35 0 43q-20 20 -24 37t-9 21q-4 5 -17 34t-58 42t-56 21q-10 7 -17 9t-21 0t-23 0zM652 1380l-82 6q-44 0 -51 -7t-8 -13t0 -16t-1 -13l-10 -43v-8q0 -21 -10 -41q-10 -21 -8 -37q1 -16 1 -22q-16 -80 -16 -93v-24q0 -2 -3 -10t-2 -17q1 -10 0 -14t-16 -24v-11l5 -22
q1 -7 -5 -23q-16 -45 18 -55q7 -2 13 -1q7 1 35 -4t49 -3l41 6q9 3 22 -1q13 -3 17 -3l51 4l43 -10l35 12q4 0 26 -1t37 6t20 9t12 1t12 -1q26 13 31 13h7q4 2 14 9q11 7 15 8q44 11 100 83q5 10 6 14t13 16t14 15q2 4 2 11t1 11t2 15t7 23q5 13 5 18l-4 31l6 34l-6 19
q0 2 1 13t-8 20q-10 29 -22 38q-12 14 -41 30t-41 28q-20 17 -48 13q-28 -3 -46 14q-19 18 -23 18l-28 -21l-27 6q-4 0 -17 -2t-27 2q-13 5 -19 5t-14 -4q-9 -4 -28 -2q-18 1 -24 1q-6 -6 -26 -6z" />
    <glyph glyph-name="C" unicode="C" horiz-adv-x="1697" 
d="M798 1401h-12q-38 -19 -54 -29q-15 -10 -24 -11q-11 -1 -22 -14t-33 -20t-44 -31q-23 -24 -27 -30q-53 -35 -60 -54t-22 -29q-17 -11 -20 -22q-4 -11 -20 -27q-28 -28 -36 -54q-9 -27 -14 -35q-6 -7 -7 -9l-18 -39q0 -2 -10 -15t-13 -33q-2 -21 -4 -26t-3 -9t-3 -6l-4 -6
t-3 -7t-2 -6q-1 -1 -4 -29t-5 -34t-2 -18v-26l-10 -41q-5 -64 1 -86q5 -22 4 -32q-1 -9 4 -27q7 -24 7 -33v-10l12 -33q0 -4 6 -13t12 -32q6 -22 13 -30l10 -15t8 -11q5 -5 11 -19t10 -21l39 -39q2 -2 11 -15t22 -19q12 -5 19 -9t13 -6q56 -43 68 -49t28 -10t31 -13
q17 -8 25 -8t10 -2l31 -12q4 -2 16 -2t35 -8q22 -8 37 -5q14 4 22 8q22 11 38 1t42 4q10 2 34 3t46 13q25 0 49 6q31 16 38 25q7 8 11 10t28 10t32 14t13 10q5 5 10 11q8 10 22 15q16 5 35 26q19 22 35 32q16 9 22 15q2 4 5 8t9 19q12 14 32 17t33 -2q14 -5 26 -22
q11 -17 25 -31t31 -35t24 -29t15 -19q8 -12 7 -38q-3 -26 -15 -35t-20 -13t-13 -8q-8 -6 -28 -20q-20 -13 -35 -28t-47 -27t-74 -40l-16 -2q-5 -4 -19 -16q-14 -11 -21 -14t-23 -6t-22 -5t-14 -7q-16 -9 -25 -9h-11q-8 -1 -22 -7t-18 -8q-5 -2 -11 -1q-5 1 -11 -1t-22 -10
t-22 -10t-26 -1q-18 1 -30 1t-24 -6h-46l-26 -11q-12 -2 -37 2t-31 4l-19 -6l-18 6q-6 0 -23 -1t-39 12q-21 13 -36 6q-16 -6 -20 -6q-21 10 -31 10t-22 4t-22 12q-18 13 -34 13q-17 0 -29 4t-25 17t-20 17l-16 5q-53 40 -64 45q-16 9 -25 22t-24 21q-24 12 -40 41t-44 53
q-27 24 -33 45q-9 30 -19 41t-12 30t-14 31t-14 17l-14 39q-13 13 -11 32q1 20 1 27q-29 72 -27 97q2 26 4 44l6 27l-16 43l14 47l-4 18q6 24 5 55t1 34l10 22q2 6 3 28t20 67q20 45 26 57t13 37q6 25 18 42q17 24 17 36q-1 12 25 40q26 27 32 35l14 28q15 29 29 38t20 23
q7 14 14 21q16 15 23 29l30 24q34 26 45 38t19 19q9 7 15 13t17 11q18 10 25 17t31 22t41 19t26 15t15 14t23 6q16 4 50 20t77 30l19 8q6 2 19 2h19q63 21 140 21t108 -4l25 4l33 -6q5 0 35 2t34 -1t14 -8q23 -12 45 -15q23 -3 36 -9q12 -6 22 -8q30 -6 72 -33t64 -40
t37 -27q16 -14 20 -16q4 -3 24 -16t31 -25t20 -28t23 -33t12 -39t-28 -33t-27 -11q-20 -20 -37 -39t-51 -29q-35 -10 -38 -10t-13 7t-18 8q-7 1 -18 21q-12 19 -19 28t-17 25t-12 17l-43 31q-4 4 -11 4t-20 10q-19 16 -33 17l-22 14h-23l-21 10h-10q-7 1 -22 11
q-13 10 -21 12t-17 -2t-11 -4l-43 6q-12 -6 -29 -6l-35 6l-26 -6q-6 0 -19 1t-38 -8t-45 -8t-33 -12q-17 -16 -28 -16z" />
    <glyph glyph-name="D" unicode="D" horiz-adv-x="1554" 
d="M867 1593q24 0 44 -10h23q30 -10 32 -10h10q14 -1 51 -17q38 -16 44 -16t21 -12q16 -12 26 -16q14 -5 34 -23q21 -19 35 -24l21 -7q20 -16 80 -74q58 -61 66 -69q8 -9 14 -25t29 -50t25 -45q3 -11 4 -14t2 -7q1 -5 10 -17q8 -11 7 -27t5 -28t8 -21t8 -22q6 -15 5 -35
t2 -27l8 -24q2 -11 -1 -31t-3 -27l4 -53l-8 -26q-2 -4 0 -17t-2 -27q-5 -14 -5 -18t1 -22t-7 -40t-11 -46t-14 -45t-15 -28t-5 -21q-2 -14 -4 -18q-2 -5 -9 -13q-7 -9 -9 -13t-3 -13q0 -9 -4 -13t-10 -12q-9 -12 -11 -21q-4 -23 -18 -37t-29 -39q-16 -25 -20 -31t-7 -14
t-6 -12t-15 -11t-17 -12l-14 -21q-16 -24 -27 -29q-10 -5 -17 -12t-21 -19t-22 -20q-7 -9 -20 -14q-14 -5 -28 -20q-13 -16 -26 -17t-33 -21q-21 -19 -31 -25l-17 -2q-4 -2 -9 -4q-5 -3 -8 -5t-13 -6t-25 -13t-29 -9t-45 -18t-52 -16t-35 -8q-13 -9 -18 -11t-13 -1
q-8 2 -12 0l-18 -9q-20 -11 -46 -5q-26 5 -38 -3q-13 -9 -15 -9l-37 2q-52 -4 -62 -3t-20 11l-37 -6l-33 8l-31 -12q-8 -2 -22 4t-21 6l-47 -10q-10 -2 -27 1t-37 3t-22 1t-8 3t-11 1t-12 -5t-10 -4q-80 -20 -108 18q-4 8 -5 30t1 27t6 10t4 9v39l16 55q4 10 4 35t8 40t9 19
q2 4 1 22t-1 24t8 22v64l14 30q2 8 1 28t0 29q1 10 8 21q6 12 8 18t1 22q-1 15 -1 24l10 18q2 4 1 13t2 17t3 14v15l10 35v37q2 4 6 10q4 5 6 11t0 23q-1 17 1 26l12 24q2 7 2 19v18q10 20 10 25l2 43q10 18 10 24v11l5 16q0 10 -1 52t1 51q2 8 11 26t11 29l-6 24l10 25
q2 8 1 23t-1 24q12 35 12 53v25q2 8 12 25q9 17 9 26l-4 31q0 4 7 16t7 33l-4 22l21 54q0 4 -4 15q-16 52 49 69h6q2 0 10 -6t49 -5l25 4l30 -4q23 6 41 6q80 -8 140 -8l69 4l37 -2l22 6l21 -6h48zM747 1384h-122q-1 0 -21 4t-26 2q-6 -3 -28 -6t-28 -13q-6 -9 -5 -22
t-1 -19t-10 -23q-8 -19 -9 -25t-1 -57l-4 -25q-4 -9 0 -26q0 -23 -8 -33t-10 -26q-1 -15 1 -40t0 -34t-6 -18t-4 -13l-2 -31q0 -10 -8 -36q-7 -26 -7 -41t-2 -21l-8 -23q-2 -2 -2 -9v-9q-10 -30 -10 -34v-15l-10 -62q-2 -4 -1 -17t0 -27t-7 -35t-9 -30q-4 -8 -5 -14t0 -17
t-1 -16l-10 -26v-41l-14 -60v-13q0 -9 -2 -15l-9 -23l4 -26q0 -17 -16 -33q-2 -4 -1 -15t0 -17t-5 -23q-4 -19 -4 -33t6 -25t30 -8q25 2 27 0h27l25 4q38 -10 81 0l31 -2q4 -2 12 0t65 4q59 3 85 16q27 13 41 13t22 6t15 10q12 8 24 7q12 -2 28 10q17 12 33 22t26 16
q9 6 34 19q25 14 34 25t28 22t26 25q7 13 37 28q4 4 5 8l3 12q2 7 7 12q6 5 17 16t14 21q3 11 5 15q18 18 26 38q9 21 15 30t10 13q5 5 6 17t3 16q2 5 10 13q11 11 13 33q2 21 8 29t10 14l16 109v34l6 17l-6 33l6 32q-13 26 -11 38q1 13 -2 25q-3 13 -3 24t-2 15t-5 9
q-3 6 -11 16t-21 51q-6 10 -20 28q-20 24 -30 41t-26 36q-17 19 -83 63t-94 52t-39 13t-18 5l-63 16l-61 -6q-6 6 -11 6z" />
    <glyph glyph-name="E" unicode="E" horiz-adv-x="1298" 
d="M377 496l-12 -84q0 -26 -5 -47l-10 -42v-12l-4 -15v-13q0 -10 -4 -23t0 -16q10 -18 53 -19h109l22 6l19 -6q12 6 29 6l30 -6l27 2l69 -6l23 4h143l60 8l43 -2l38 7q28 0 43 -19q24 -31 -8 -94q-5 -27 -9 -66t-29 -57q-2 -2 -10 -2h-9l-18 -4l-47 4l-31 -4l-41 14
q-2 0 -16 -8t-58 -4q-45 4 -55 6q-9 2 -19 2t-16 -6h-113l-28 6q-4 0 -19 -6l-32 2l-25 -4q-4 0 -6 -2l-37 8h-22q-28 0 -42 -4h-69q-8 0 -45 2t-45 -2l-25 -10l-35 6q-55 0 -67 22q-2 4 -2 43v41q5 5 16 27v29l10 24q0 4 -1 19t7 31q13 25 13 70t6 61t6 22l-2 25q2 4 4 9
t8 15t6 33q-2 0 -4 11t0 20t7 19q6 9 5 21t1 19l8 45v45q14 27 12 47t0 27l8 27q2 2 2 6v6q11 22 11 24l-5 37l15 45q2 8 1 24t1 21l10 29q0 6 -4 20t-2 21q2 6 5 12q3 5 4 9t1 11t1 11t7 20q7 16 9 26t0 36q-2 25 0 37l10 22q2 6 1 24t4 29q8 17 4 28t7 31q12 20 11 39
t-1 25q9 18 9 31l-2 29q10 19 10 33t-4 18q0 28 7 36l14 18t0 24q-7 16 -7 24t20 31t41 23q22 0 70 -6l25 2l30 -5q18 7 35 6q16 -1 23 1l26 8q5 2 9 0t7 -3t8 -3t7 -2l27 4q4 0 13 -3t15 -1t36 0t42 -2l60 6l45 -4l39 4l26 -6q20 10 31 10l47 -4q18 0 33 6q55 2 57 4l37 -4
l23 2q92 8 92 -60q0 -8 -11 -30v-19q0 -19 -6 -32t-6 -42q0 -30 -10 -36q-29 -31 -78 -15q-8 2 -28 1t-27 -1l-27 7h-196l-18 4l-13 -4h-25q-44 9 -75 0q-15 0 -30 3t-23 0t-12 -3h-85q-29 -1 -36 -7t-11 -17t-2 -22t0 -26l-6 -25l-11 -37q0 -2 4 -10t-7 -31
q-11 -24 -11 -34l4 -23l-6 -22v-27l-14 -53q-4 -14 -2 -38t-11 -42q0 -18 -2 -41t12 -31t72 -8l35 -6l39 2q18 2 60 0t63 -2l20 6q6 0 37 -2t35 2l31 10l74 -2q35 2 40 2t14 -4t26 2q16 6 20 6l25 -4q29 0 40 -15t9 -23q-2 -7 -3 -16t-2 -14t0 -23t-9 -37q-10 -18 -8 -39
q3 -21 -1 -32q-4 -10 -28 -26t-35 -16l-29 10q-4 2 -18 1q-15 -1 -19 0t-16 0t-15 1l-36 8l-19 -4h-82l-18 -4l-39 4h-125q-42 0 -69 -1t-37 5t-20 7q-46 4 -69 -36q-10 -29 -7 -38t7 -19q6 -14 -6 -37v-18q-14 -15 -15 -23t-1 -26z" />
    <glyph glyph-name="F" unicode="F" horiz-adv-x="1159" 
d="M221 975q4 14 4 43l6 14v31l11 24q0 7 -1 25t1 26t8 24q6 17 8 26v49q0 5 10 35v26q0 4 6 44t10 48q3 8 4 14q1 5 -2 19q-3 13 -1 21t8 19q8 15 8 36v19l4 18q-3 52 21 64q8 4 23 4h18q71 8 86 -7q4 -2 15 -1t14 0q20 -8 38 2t39 -1q12 -2 47 0l49 11l41 -11q3 0 23 5
q40 -11 77 -8t44 7q8 3 18 2t16 -1q6 6 20 6h49q36 0 50 2l31 -2q36 2 37 0q18 -8 23 -38t-3 -46l-8 -29l-4 -49q-5 -53 -26 -56q-5 -1 -14 -1t-36 -11l-58 10q-10 -1 -33 4q-24 5 -36 1l-32 -11l-60 17q-10 0 -30 -10t-45 -2q-25 9 -42 5q-15 -3 -33 -3h-20q-6 0 -16 4
q-35 14 -66 -13q-12 -10 -14 -43t-4 -39l-8 -24q-2 -10 -1 -32t-1 -32l-17 -45l6 -30l-22 -76v-12q-10 -41 -10 -53t-6 -60q-6 -47 26 -47l34 2q7 0 19 -6q29 -2 72 2h59l54 10l30 -6l52 8q14 0 30 -8h37q4 0 16 4q98 23 102 -38q1 -16 -6 -48t-10 -57q-2 -25 -5 -35
t-19 -25q-25 -18 -32 -21q-6 -3 -28 1t-24 4l-37 -4l-18 4h-117q-2 2 -5 2l-13 2l-50 -4q-24 12 -32 12l-48 -12l-28 14l-25 -2h-33q-53 0 -48 -37q1 -5 -5 -27l4 -18q0 -10 -10 -30t-5 -39t5 -27l-16 -31v-10q0 -8 -5 -23q-4 -16 -6 -26t0 -40t0 -44l-10 -29l-6 -33
q-2 -10 0 -43t-3 -41q-11 -16 -11 -45l-2 -45q0 -17 -11 -43v-15q0 -21 -8 -30l-20 -8q-23 -8 -53 -11t-34 -2t-10 2t-9 2t-15 0t-15 1t-7 4t-9 4q-4 2 -11 2t-20 -2t-26 12q-14 20 -6 72l2 27q2 2 5 9t5 11v10l10 50v45q13 27 12 40q-1 14 11 39q0 9 -1 27t1 24t8 17
q6 10 6 16l-2 48l14 34q2 3 1 19t-1 19l7 20v30l14 41l4 33q2 4 0 11t-2 12l18 53l-2 35l13 54l-2 44q0 4 4 12q6 13 5 25t7 27q8 14 10 18v39z" />
    <glyph glyph-name="G" unicode="G" horiz-adv-x="1695" 
d="M334 780q0 -6 5 -26t-7 -64v-26l-4 -13l12 -47l-2 -18q0 -15 12 -37t17 -56q4 -33 27 -56t38 -50q21 -38 38 -51t31 -29t28 -23q14 -6 17 -10q19 -22 37 -26q18 -3 34 -14q24 -17 39 -17h16q10 -2 26 -9t22 -9t16 -1q11 1 14 -1l16 -4l25 4l49 -15q16 -2 45 6t36 10
t23 -2q16 -3 24 -2t20 7q17 8 26 8h10q6 2 17 10q16 11 30 13q15 1 36 13q20 11 33 14q14 3 28 20l18 18t9 5t10 6t6 10q3 6 7 10t13 12q10 8 14 12q0 8 28 30t34 46v27l12 18q8 15 -1 27t-13 13q-3 1 -13 0t-14 -2t-30 -1t-51 6q-24 6 -36 4l-22 -8q-7 -2 -19 -1t-20 -1
l-43 -10l-21 6q-2 0 -20 -1t-21 1q-40 17 -4 98q2 10 3 30q3 63 32 85q36 17 82 2q4 -2 12 1t13 3l26 -6h391q6 6 18 7q37 3 50 -26q2 -14 4 -21t-12 -28v-14q0 -17 -8 -27t-10 -14t0 -11q1 -7 -1 -13t-6 -12q-4 -7 -9 -13q-10 -12 -8 -36q2 -25 -10 -43t-12 -42t-30 -39
q0 -9 -10 -22q-18 -23 -19 -41q-4 -4 -8 -10q-3 -6 -9 -13q-6 -6 -9 -12q-3 -7 -6 -15t-10 -17t-30 -33q-36 -37 -47 -60q-4 -4 -12 -11t-10 -11t-7 -9q-4 -6 -8 -10t-12 -5t-12 -3q-3 -5 -15 -17t-23 -19t-46 -23t-46 -24q-11 -7 -19 -9t-22 0q-16 3 -22 -1t-16 -12
t-16 -10t-20 0t-20 0t-15 -8q-13 -8 -35 -7t-46 -9q-24 -11 -76 -3l-39 7l-57 -11l-31 11q-11 0 -37 -2t-36 2l-39 14q-5 2 -17 3t-17 3t-12 7q-13 10 -26 7t-29 13h-10q-10 0 -23 9q-19 13 -34 13l-23 14h-6q-10 -1 -24 9q-15 10 -21 19t-24 20q-19 10 -24 15t-12 16
q-7 12 -13 16t-42 41q-37 37 -40 49q-2 11 -15 19q-13 9 -20 18q0 14 -9 20q-2 4 -13 21t-11 22l-6 27q-2 6 -16 20t-23 42q-8 28 -7 39q2 17 -5 31t-6 22q1 9 -11 46t-9 69t6 44t3 21l-4 15l2 13l-2 33l10 23q-12 23 -11 31t11 28q0 6 -1 18t3 26t10 23q5 9 4 19t11 36
t14 34l6 24q3 16 7 26t12 21q8 13 15 25t14 20q0 17 7 27q51 73 68 111q8 8 24 22t20 20l24 33q13 17 27 26q15 9 30 29q27 38 48 47q22 8 30 19q8 12 12 17q8 6 28 11t39 20q20 16 34 24t67 32t63 30q10 7 26 8q18 2 24 4t16 8t14 7t15 0q10 -1 15 3t16 6q10 4 34 3t29 -1
q6 0 17 6t32 6l37 5l43 -7q68 0 98 -6q29 -6 53 -4q25 2 47 -3t111 -40q20 0 39 -10t23 -17q3 -6 23 -19t34 -17t22 -8t24 -24t56 -48t46 -60q8 -32 6 -40t-20 -25q-18 -19 -52 -39q-36 -20 -60 -40t-37 -16t-29 22t-28 24q-11 6 -22 28q-41 41 -70 55q-29 13 -44 24t-41 20
q-27 8 -35 9t-17 11h-33l-49 17l-51 -4q-78 4 -82 4l-39 -17h-12q-11 0 -19 -5t-68 -25t-92 -46q-31 -26 -58 -40q-28 -15 -41 -25t-24 -25q-11 -16 -17 -21t-14 -10q-9 -6 -14 -10t-13 -15q-7 -11 -21 -21t-28 -28q-15 -16 -20 -28t-7 -17t-17 -20t-38 -80t-31 -75t-7 -15
q2 -7 -4 -27t-6 -27v-15q-3 -20 -11 -38q-9 -18 -9 -24zM1135 1524q2 -10 6 0h-6z" />
    <glyph glyph-name="H" unicode="H" horiz-adv-x="1579" 
d="M753 673q-20 -3 -32 -1t-53 2l-17 6l-30 -6h-199q-27 -4 -27 -35q0 -2 3 -10q3 -9 2 -15t-5 -17t-4 -17l-6 -41v-25l-10 -20q-2 -6 -1 -24t1 -26l-10 -43q-2 -4 -1 -13t1 -13q-7 -7 -7 -13v-18q0 -12 -2 -16l-8 -31q-2 -8 -1 -30q1 -29 -11 -54v-35q-6 -21 -7 -36t-3 -22
q-2 -6 -1 -26t0 -40t-21 -36q-20 -18 -30 -20l-47 10q-2 0 -37 -14q-8 0 -17 3t-14 0t-9 -3h-21l-33 17q-10 5 -13 9l-11 50q-4 22 -1 30t11 20q14 22 14 107l13 21v31l4 14v9l10 36q2 6 1 15q-2 14 4 27q5 13 5 17l2 35q0 6 9 19t7 36q-1 23 -1 29l10 45q2 10 3 34t3 31
t6 14t4 11l6 51q0 4 4 12q7 14 2 29q-4 14 4 28q7 13 7 20v30l10 25q2 8 1 25t-1 26q10 20 10 23v45l12 26v47q4 8 11 29v35l10 22l-2 19l6 24q2 9 1 27q-1 27 11 51q2 16 2 54t6 48q6 11 7 15l2 31q0 6 10 26l-6 39l10 29q2 6 -1 16t-3 15q-4 45 39 61q14 6 67 8l23 4
q10 0 22 -6l29 6q10 0 16 -3q7 -3 28 -6t30 -23q12 -33 2 -45q-10 -13 -12 -15q-4 -20 -4 -31v-24l-23 -55v-33l-6 -23l4 -30l-14 -41v-39q0 -5 -9 -23v-21l-22 -85v-23q-3 -3 -6 -14v-33q0 -6 -7 -27t3 -51q-3 -6 -9 -17t-8 -17t1 -16q3 -9 3 -13q28 -6 58 -4l28 4l29 -13
q4 0 25 7l24 -5q4 0 9 4t26 2q20 -1 29 1l30 4l67 -2l23 2h11l20 -4l25 4q12 -4 26 -4h21l39 4q17 -8 55 0l25 -4q8 -2 23 1t22 3q47 -12 65 -6q17 6 28 6t15 2q6 8 6 21q1 18 11 39t12 27t1 36q-1 31 -1 34l6 27q-6 5 -6 17t10 24t6 31q-4 18 -4 24l19 35q2 6 -1 14
q-14 40 7 93l4 30q2 3 1 15t1 16l10 29q0 12 -6 18l6 23q0 17 8 30t2 44q-7 30 7 42q25 35 38 40t27 -2t21 -7l30 6h70q51 0 54 -19q1 -7 2 -13q1 -5 0 -17t-1 -16t-6 -27l-12 -51q0 -6 1 -27t-8 -39q-9 -17 -9 -30l-15 -117q0 -23 -1 -26t-15 -38v-32q-13 -27 -12 -43
q2 -22 -6 -37q-7 -15 -6 -33t1 -22l-4 -17v-21l-16 -92q0 -10 -5 -25q-4 -15 -6 -21t-1 -16q1 -9 -1 -13l-4 -23q0 -4 4 -11t-2 -17q-8 -14 -8 -25v-12q-2 -5 -9 -23t-6 -30t-2 -20q-3 -7 -3 -13v-26q0 -19 -2 -26l-9 -32v-27q-10 -30 -10 -31v-28q-6 -6 -6 -15l-6 -75
l-12 -50l2 -22l-4 -41v-37q-17 -17 -17 -74l-6 -35q4 -28 -2 -58t-16 -35t-36 -10t-30 -5l-24 10l-37 -8h-56q-31 0 -39 6q-10 10 -10 53v45l10 33q2 24 13 46q10 22 9 34q-1 13 5 43t6 34t6 11l4 74q2 6 7 13q4 7 4 11l2 41q0 14 8 32t7 30t-1 14l10 35q2 9 3 27t7 44
q11 49 -30 50l-21 -2h-131q-32 0 -42 5t-13 5l-35 -14l-51 4q-38 2 -58 -1z" />
    <glyph glyph-name="I" unicode="I" horiz-adv-x="634" 
d="M254 1134q6 18 6 54q0 37 14 86v33q0 4 15 34v17q0 15 5 27t7 20t0 31t-1 27t11 24v11l-4 24l4 13q0 38 18 44q5 2 13 3t24 5t21 6q6 2 15 0t12 -2l22 2l23 -4l26 4q6 3 14 -1q9 -3 13 -3q39 0 49 -24q3 -22 -5 -47q-7 -25 -6 -35q2 -19 -15 -53v-29l-11 -21v-12l-10 -43
q-2 -10 0 -35t-6 -42q-8 -18 -8 -45t-4 -42t-6 -19t-3 -12v-12q0 -10 -6 -16v-53q0 -9 -6 -22t-4 -29t-6 -36q-10 -25 -10 -65v-37l-15 -35q-2 -4 -1 -13t-4 -23q-5 -15 -5 -47t-4 -43t-3 -20t-1 -12t-4 -9l-4 -12q-2 -5 -2 -9v-41q0 -11 -11 -18q-2 -4 -1 -16q1 -13 -5 -25
t-6 -39t-4 -43l-10 -26q0 -5 1 -28t-1 -27q-10 -22 -10 -46q-9 -18 -9 -27l2 -41l-10 -30v-13q-12 -37 -11 -75t1 -48l-14 -35q-2 -6 -6 -32q-6 -37 -48 -28q-14 3 -17 3t-26 -6q-15 7 -34 1q-19 -7 -27 -5l-31 10q-39 0 -49 10t-15 22t0 28q5 18 5 23t2 11t7 22t7 20t1 16
q-2 18 9 39q10 20 8 34q-1 15 2 23t3 18v23q10 20 10 31v30l10 23q2 4 1 14t-1 14l27 115v29q8 43 8 49l-2 22l12 33q2 6 -2 24t7 35q10 16 9 32q-1 15 11 40v35l14 64q4 17 4 61t19 82l-4 25l10 45v16q0 6 6 24z" />
    <glyph glyph-name="J" unicode="J" horiz-adv-x="1267" 
d="M1178 1508v-19l-4 -18v-27l-11 -31q0 -38 -16 -78v-45l-2 -11v-5l2 -21q-2 -8 -8 -24q-6 -15 -7 -21t0 -17t-9 -39t-8 -49q1 -21 -1 -30l-10 -20v-31l-4 -16v-33q-23 -23 -23 -57v-35l-4 -27v-27q-10 -20 -10 -24v-47q-10 -20 -10 -29l-2 -39l-13 -53q-2 -7 -2 -25v-24
l-16 -29v-12l4 -23q0 -12 -4 -47l-16 -43l6 -37q-6 -12 -16 -23t-12 -20q-1 -8 0 -22t-1 -22t-12 -21q-11 -11 -13 -19t-7 -26t-8 -24t-50 -66q-47 -59 -79 -69q-33 -11 -41 -22q-9 -12 -15 -16l-12 -2h-5q-33 -16 -46 -15q-13 2 -31 -14l-23 -14q-4 0 -13 3q-8 3 -14 1
t-21 -8t-24 -6h-63l-23 -10q-10 0 -35 10q-6 0 -28 -1t-27 1q-6 2 -16 8t-17 6l-43 12h-12l-18 17h-15q-18 0 -29 15q-11 16 -17 20t-19 10q-29 12 -39 34q-10 21 -32 40q-23 19 -28 32q-8 18 -20 29q-10 11 -12 17t-4 41t15 45t28 10q35 23 59 29q24 5 30 12q7 8 9 10
q39 27 68 16q14 -3 17 -21q3 -17 25 -63t59 -62q12 -5 31 -20t36 -13q18 1 24 -1l23 -10l41 10q6 2 22 1t25 -1l20 10q41 16 47 19q4 4 11 13q8 10 26 21t27 31q12 28 22 39q11 11 12 21t2 13t5 7t4 8l6 37l4 12q2 2 1 10t1 11l14 53v22q0 15 2 23l15 53q0 10 -1 32t1 28
t6 12t4 10v45q10 21 13 31t3 62l11 24v19q0 37 9 59t8 32t-1 11l20 51q2 7 -4 21t-3 30t9 25q7 10 6 24t4 30t6 24t0 24t0 24t6 23q5 16 5 25l10 93v11q0 5 11 27q0 8 -1 30t7 36t10 22t-4 31t0 35q12 39 63 47h27l68 -2h34q46 2 60 -18t9 -34t-10 -22t-7 -11t-2 -19z" />
    <glyph glyph-name="K" unicode="K" horiz-adv-x="1452" 
d="M1030 370v-8l35 -40q2 0 10 -20t12 -23q3 -5 5 -7t2 -7q0 -8 42 -64q42 -57 58 -93q16 -35 26 -48t7 -33q-2 -20 -21 -27l-65 -10l-30 14l-36 -16q-25 0 -44 9t-36 8t-39 15q-21 21 -32 47l-12 30t-6 9q-3 4 -5 8q-4 9 -4 19q1 10 -15 30q-22 29 -22 37q0 10 -9 26
t-11 20q-2 2 -18 16t-17 22v13l-27 50v13q-10 15 -24 29q-4 19 -23 43q-19 25 -27 49q-8 25 -10 29t-17 28t-19 33q-4 10 -15 23q-25 34 -25 72q-4 6 -13 16t-12 19t-19 33t-25 26q-6 0 -12 -6t-33 -29q-6 -2 -17 -13t-20 -15q-10 -4 -16 -18q-7 -14 -19 -20t-16 -14t-7 -33
t-10 -38q-8 -13 -8 -15l-2 -61l-8 -25q-4 -17 -4 -39t-6 -34t-6 -17v-53q-11 -22 -11 -23l-2 -47l-8 -27q-2 -2 -2 -16v-18l-4 -21q-2 -10 -1 -32t1 -31l-8 -25q-2 -62 -24 -76q-3 -2 -6 -5t-12 -3l-16 -2l-20 -4q-4 -2 -14 0t-15 2l-57 -4q-25 0 -70 18q-4 2 -17 26t-9 34
t9 17t8 14t3 29q0 24 9 55q9 30 9 39t1 14l10 30v45q0 15 10 35v21q10 30 10 31v30l6 13v13q-1 15 5 26t6 18l2 45l8 22q2 7 2 15v12q18 54 18 69t-2 25q-3 17 7 35q10 17 9 35t-1 24l10 25q2 4 1 16t-1 17q14 42 14 63l-2 19q5 28 11 46t5 32q-1 12 0 16l2 8t3 8l4 8t3 17
q1 12 2 21t1 17q0 9 3 15t2 11q-5 25 -5 32l14 68q2 6 1 22q-2 34 12 43v35q0 5 4 19q6 20 6 39v20l10 31q1 10 3 31t7 46l-4 15q-2 39 23 55q14 14 104 14t94 -2q57 -17 25 -84l-10 -20q-2 -4 -4 -26t-9 -54l-10 -22q0 -30 -11 -67t-10 -62t1 -32q0 -6 -5 -14t-7 -14
t-3 -29q-2 -23 -7 -35t-5 -42q0 -29 -2 -37l-14 -49q-4 -39 14 -37q26 3 41 37q4 8 34 30t56 50q25 28 28 32t5 9t6 9t17 10q13 5 20 11q6 7 15 23t33 32t40 39t40 40t33 33q9 14 13 18t15 9t19 12t23 29q16 22 23 27t13 10q5 5 10 9q19 16 34 41l36 30q37 31 40 43
q4 12 9 18t40 23l16 2q4 4 50 2t56 -2q16 0 57 12t58 5q39 -18 26 -66q-5 -18 -9 -32t-33 -35q-2 -4 -10 -6q-8 -3 -11 -5t-8 -7q-4 -5 -8 -8t-8 -8t-39 -31t-42 -40q-7 -13 -13 -16q-4 -6 -18 -13q-43 -22 -54 -45q-10 -23 -31 -34q-20 -12 -32 -27t-25 -29q-4 -2 -7 -5
t-11 -9t-19 -21q-10 -15 -16 -22q-6 -4 -22 -12t-26 -21t-17 -17q-7 -3 -17 -17q-14 -19 -26 -22q-12 -4 -15 -11q-8 -6 -18 -22t-19 -21q-60 -40 -64 -50q-5 -10 -19 -21t-9 -26l10 -26q21 -43 28 -50t10 -13t9 -20t10 -22t15 -21q10 -13 13 -19t7 -16q3 -9 7 -13t9 -8
t5 -9q6 -8 14 -30t12 -28q4 -7 12 -13q17 -15 17 -35q4 -4 9 -11q6 -7 10 -13q10 -13 36 -66q26 -54 41 -71q27 -32 27 -61z" />
    <glyph glyph-name="L" unicode="L" horiz-adv-x="1028" 
d="M702 2q-111 2 -180 2h-184l-19 8l-24 -8h-76q-33 0 -35 -1l-22 -11l-31 6q-33 4 -45 18q-35 46 -5 93q7 9 7 33v26q0 8 10 18q0 40 6 56l9 22q2 8 1 22t1 19l10 23v39l10 30q0 6 -1 25t11 48q12 28 10 52q-1 25 3 37l10 33v26q6 21 4 27t-2 10l14 35v37q0 7 6 31t4 49
q-1 25 11 51v25l6 22q0 5 4 13q9 18 6 49t5 45q7 14 6 37t6 40q8 17 10 26t0 33q-3 39 10 66q10 70 10 97l6 14v35l11 37v47l10 31q0 9 -1 35q-3 84 54 85h17q19 4 65 1t68 4t34 -12q14 -19 14 -48v-34q-1 -5 -8 -22q-10 -25 -9 -53t-12 -52q-13 -23 -8 -43t0 -32t-7 -18
t-4 -11t-1 -15t-4 -32t-10 -65l2 -37l-8 -28q-2 -8 -3 -26t-8 -34q-7 -17 -7 -65t-15 -78v-16q-12 -23 -16 -41v-47l-6 -29q-2 -6 0 -20t2 -19q-8 -24 -8 -37l2 -31q-6 -17 -5 -26q1 -8 -16 -58q-18 -51 -20 -65t1 -42t-3 -56q-6 -29 -7 -49t-8 -35q-6 -15 -7 -20t-5 -21
t2 -32q6 -15 20 -17q14 -1 27 -1l23 -6q4 -2 45 0l35 4l30 -4l24 4l30 -4q21 6 47 6l28 -6l31 11q6 0 23 -8t40 2q23 9 45 6q23 -2 27 -2l19 4l12 -4q12 -4 22 1q10 6 38 -5q39 -17 28 -64l-10 -21q0 -125 -36 -143q-11 -6 -48 -6l-49 -2q-27 0 -43 8z" />
    <glyph glyph-name="M" unicode="M" horiz-adv-x="1951" 
d="M1853 1474q0 -8 -1 -12t-5 -11q-8 -14 -8 -51t-4 -49t-3 -21t-1 -13l-8 -29q-2 -8 -1 -25t0 -25t-7 -18q-7 -10 -9 -16t-1 -15t1 -15q-12 -24 -11 -50t-8 -54t-7 -61q2 -34 -4 -46q-6 -11 -8 -15t0 -19q1 -15 -1 -21t-6 -13q-4 -8 -4 -12v-43q0 -6 -6 -15v-30
q0 -1 -10 -21v-37l-8 -20l2 -17l-4 -16v-43q-1 -4 -5 -11q-4 -6 -6 -10t-1 -16t1 -17t-6 -14q0 -6 1 -21q1 -19 -10 -48t-11 -40q0 -12 -15 -42l9 -47l-11 -41q-2 -4 -1 -13t1 -14l-10 -28l-4 -39l2 -23q-2 -8 -4 -21q-2 -12 -5 -24t-4 -22t-2 -34t-2 -33t-5 -17
q-3 -7 -7 -26t-11 -25q-7 -5 -13 -6q-3 -1 -23 -11q-70 0 -123 1t-62 14t-7 44l-2 37l10 29q2 6 -3 18q-5 13 -3 19t10 17q14 20 13 41q-2 22 7 36t15 55l4 13q0 4 -3 20t-1 26t9 26q13 32 13 56t6 35q6 12 9 19l-4 22q0 4 2 10t4 11q2 6 3 10t0 12q-1 7 1 13t8 22t6 24
t-3 17q-3 11 -1 19t8 24t7 18t0 11q-1 8 4 13q6 5 6 7l-2 33l4 16v43l14 25q2 2 1 18t-1 19l6 14v23l10 39l7 47q0 16 -13 18q-9 0 -24 -12t-19 -18q-5 -9 -35 -33q-2 -3 -5 -11q-4 -10 -21 -22q-17 -11 -37 -43q-20 -33 -43 -45q-6 -8 -22 -22t-20 -21q-5 -6 -28 -24
t-30 -35q-12 -25 -31 -35q-2 -1 -8 -13q-5 -12 -11 -15t-10 -6t-10 -6t-12 -14q-7 -11 -19 -21q-11 -11 -27 -34t-20 -28t-15 -12t-17 -12q-6 -6 -10 -18q-5 -12 -9 -16q-23 -12 -29 -18t-17 -26t-25 -31q-15 -11 -21 -17q-17 -51 -55 -59q-27 0 -52 41q-2 4 -12 13t-24 39
l-18 36t-6 15t-23 39q-21 30 -29 42q0 16 -14 31t-15 23q0 8 -12 26t-29 51q-8 10 -25 33q-16 24 -21 30t-10 29t-36 59q-30 37 -34 50q-5 14 -9 19q-3 5 -15 17t-12 16q0 5 -2 9t-11 14t-18 31q-9 20 -18 20q-20 -4 -20 -16v-24l-4 -17q4 -8 4 -26l-7 -33q0 -2 1 -16
t-7 -25q-8 -13 -9 -23t1 -34t0 -34q-2 -11 -11 -33t-9 -34l-2 -37l-4 -14v-31q-11 -33 -11 -41l-2 -30q0 -4 -3 -14t-4 -14q-1 -5 2 -17t1 -21l-10 -20q-2 -6 -1 -20t1 -21l-10 -29l4 -23q0 -17 -11 -32q0 -5 2 -17t-2 -18q-10 -25 -10 -55l-6 -15v-28l-6 -21v-78l-10 -24
v-35l-4 -25q-4 -33 -10 -41t-25 -16l-23 -8q-10 -2 -29 2t-30 2l-35 -8l-31 8q-5 2 -25 2q-37 0 -44 41l-4 33l6 26v43q2 6 12 18t11 38t3 34l9 27q0 6 -4 20t3 30t7 22v14q0 12 5 20t6 12t0 14q-1 9 1 13l8 25q2 8 2 21v20l11 31q0 4 -2 15q0 11 8 28t8 43l2 36q0 8 7 20
t9 22q2 9 0 36t0 37l11 45v13q12 35 16 61v51q0 5 12 29l-2 18l21 99l-2 24q2 27 4 29l8 20q2 8 1 24t-1 25q12 25 12 33v13q0 12 6 24l-2 24v11q10 20 10 26v20q0 13 3 17l8 17q2 10 1 34t-1 33q10 20 10 33v31q0 15 12 51l-4 34q0 5 8 21q9 31 17 36q38 22 57 -17
q8 -16 8 -21q14 -25 62 -98q10 -29 28 -48t51 -83t49 -84q17 -20 20 -24t6 -11q3 -6 7 -12t6 -10q2 -3 8 -9q5 -6 8 -11t10 -19q6 -14 12 -22t17 -21q11 -15 15 -23t9 -19t9 -17t14 -18q9 -10 12 -16t7 -17q3 -11 7 -15t10 -12q12 -14 17 -28t17 -26t25 -43q8 -14 31 -35
q13 -17 21 -40t23 -41q15 -19 19 -29q18 -43 41 -43q25 2 62 57q6 8 23 22t34 36q19 22 23 26t8 11t7 11t10 6q7 3 11 6t7 7q4 5 11 13t14 12t20 24t38 40q24 20 32 28t11 14t7 11t6 10q6 6 23 21t29 29q11 15 18 23q8 4 14 10t11 9q5 4 13 18q7 13 12 19t13 13t15 12
q6 5 14 13t14 11q4 4 10 15t27 29q20 17 27 23q6 6 15 23t20 26q16 12 26 30q11 18 19 22q13 7 22 24l25 25q2 2 4 6q3 4 7 11t12 12q8 6 14 14q8 8 11 12q3 5 21 21q21 20 30 37q9 18 19 28q9 9 15 20t30 31t29 19q25 8 34 -20t5 -54l-8 -22q-2 -7 -3 -25q-2 -28 -8 -41
q-6 -12 -6 -21z" />
    <glyph glyph-name="N" unicode="N" horiz-adv-x="1673" 
d="M287 1368q6 18 6 72q10 30 10 41v37q6 6 7 30t3 28q2 5 0 22t13 32q38 41 72 2q7 -8 18 -18t45 -74q33 -65 45 -79q12 -13 22 -28l14 -21t14 -15q12 -13 14 -26t23 -36t28 -34q13 -19 19 -36q5 -17 11 -25q5 -7 19 -18q32 -26 90 -118q4 -4 11 -10t9 -11q7 -5 21 -32
q22 -22 31 -45q9 -24 49 -72q24 -12 33 -39q8 -25 12 -31t8 -9q7 -5 16 -11q10 -6 17 -23q7 -18 55 -76q2 -6 9 -20t11 -23q12 -12 19 -12q2 -4 10 -15t11 -19t16 -19q14 -12 22 -33q8 -22 15 -31q31 -53 55 -57q10 -2 14 4t4 21v14q6 6 6 16l7 33l-2 51q10 19 11 23t2 28
t8 42t1 40t4 45q12 28 12 66v33q1 4 3 8t4 12t4 11v26q0 4 4 12q4 7 7 19t3 44t2 50l10 27q2 6 1 21q-1 21 11 58t8 54q-3 16 -1 22l14 60q0 8 -1 26t7 55t9 41q1 3 0 16t-1 19q7 7 8 27q2 44 42 57q0 4 29 4l30 -2l18 5q134 14 134 -53q0 -28 -6 -40t-7 -26q-2 -13 -3 -19
t-7 -20t-8 -22t0 -24q2 -15 0 -24l-10 -20l4 -19q-3 -8 -11 -24t-8 -25l4 -31q-6 -27 -6 -30q-10 -10 -10 -21l6 -29l-6 -22q0 -27 -6 -57l-8 -21q-2 -4 -4 -14t-5 -14l-8 -23q-2 -6 1 -17t3 -18l-16 -76l-4 -12q0 -21 -3 -28t-2 -10t3 -8t1 -10t-11 -13q-9 -8 -11 -14
t1 -20q3 -13 3 -16l-4 -16v-45l-20 -84q-2 -6 -2 -18q0 -20 -7 -38q-7 -19 -7 -34l-7 -37v-47q0 -14 -9 -36t-9 -23l6 -35l-12 -54q-2 -4 -2 -12v-12q0 -16 -11 -53v-21q-2 -6 -5 -16q-3 -11 -5 -15t-1 -18t1 -18l-6 -21v-88q0 -2 -10 -27v-18q-8 -33 -35 -39q-10 2 -14 -1
q-3 -3 -13 2t-16 7t-17 17q-10 14 -25 29t-19 25l-11 30q-31 31 -39 52t-13 26q-5 4 -8 8t-8 9t-11 23q-7 18 -11 24t-13 13q-13 12 -13 24t-20 30t-28 22q-2 4 -4 9t-5 11q-3 7 -5 11t-8 9q-9 7 -12 18q-3 10 -11 17t-12 11q-2 4 -3 16q-1 17 -14 26q-12 9 -19 25t-28 35
q-32 29 -32 41t-19 26t-22 26q-2 12 -4 16q-4 4 -14 13t-16 23q-7 19 -43 62q-35 43 -47 68q-12 24 -22 34q-16 16 -27 43q-10 27 -56 77q-56 62 -56 72t-11 23q-19 23 -19 38l-50 63v8q0 9 -8 15q-8 0 -8 -13q9 -30 2 -49t-10 -30q-4 -11 -2 -22t2 -23t-8 -19v-27
q-1 -8 -7 -25q-10 -30 -9 -40t-5 -39l4 -31l-14 -49l4 -18q0 -19 -6 -31l2 -27l-16 -25v-32l-9 -23l2 -32q0 -8 -9 -22t-4 -27t3 -19l-8 -23l2 -16q0 -15 -16 -63q0 -8 1 -33t-6 -41q-8 -16 -10 -25l4 -22q-12 -24 -12 -42t-2 -27t-6 -17q-4 -9 -5 -13t2 -10q7 -14 7 -18
t-3 -14q-3 -12 -9 -34t-7 -30q-2 -8 -3 -26t-4 -24t-9 -12q-7 -6 -14 -8t-19 -8t-23 -5t-18 -1l-36 -4l-39 6q-4 0 -23 -3t-35 5q-33 23 -28 62l6 24l22 123q0 42 10 78q10 37 15 45q4 8 4 12l-2 33q0 6 6 18q6 13 7 19t0 16q-2 16 14 47q0 8 -2 30t1 31t6 17t3 16q0 7 1 11
t5 11t4 11v39l6 23q0 4 -1 18t4 22q5 9 7 13v27q16 49 17 53l6 59l4 17v28l10 21q2 8 1 23t0 28t10 31q8 18 7 24t1 14t5 33t9 45l-4 23l14 37q2 8 1 27t-1 28l6 19q2 39 8 52q6 14 7 32v24zM446 795h3l2 -4l-2 -3h-3v7z" />
    <glyph glyph-name="O" unicode="O" horiz-adv-x="1814" 
d="M1142 16h-12q-35 -14 -77 -26h-23q-30 -15 -35 -15l-43 -2q-8 0 -28 -10h-107l-18 6l-39 -8l-33 12q-8 2 -30 -3t-76 14q-25 6 -45 11t-25 5q-6 0 -9 1t-7 4t-11 7t-30 11q-23 6 -33 12l-70 51q-37 19 -43 27t-14 23t-39 30q-6 6 -11 12q-6 6 -12 13t-10 14q-8 4 -23 19
q-19 18 -21 34q-2 15 -14 27q-13 12 -24 39q-24 36 -24 38v19t-18 45q-18 27 -23 37q-4 10 -3 23q2 21 -9 37t-9 51t2 44l-10 33q-5 72 0 99q6 26 5 53t0 43t9 39q8 25 10 41t2 28q1 12 11 21q0 24 10 41t13 33q4 16 6 21t7 11q9 11 19 41q4 6 16 23t20 42t24 38
q16 12 20 19t12 26l15 15t16 23q7 22 23 28t54 49q39 43 44 45q2 2 11 14t19 13q17 2 24 15t26 19q18 6 37 21q18 15 28 22l49 20q2 2 14 1t25 10q12 12 19 15t16 4q10 1 27 11t40 12q23 1 31 3l66 14h23l26 10h37q21 10 38 5t21 -5l35 8q21 0 37 -8q4 0 15 1q27 2 40 -11
h39q23 -6 46 -4q35 3 83 -27l20 -5q48 -13 65 -26q17 -12 39 -30t26 -20t8 -6q10 -7 16 -8q6 -2 18 -12t42 -43q30 -34 50 -53q20 -20 28 -32q10 -12 24 -44q18 -40 32 -56t27 -63q13 -48 21 -58t16 -64v-35l5 -22q2 -4 1 -14t1 -11l4 -16q2 -3 1 -15t5 -38t-14 -129
q0 -6 2 -27t-4 -38q-17 -40 -17 -85l-37 -88q0 -37 -16 -57q-16 -19 -21 -24t-10 -20q-6 -14 -14 -24t-18 -38t-30 -46t-33 -41t-21 -33q-14 -18 -32 -34q-18 -15 -36 -41q-4 -3 -16 -7t-16 -9q-5 -5 -16 -19q-10 -14 -16 -18t-10 -6q-5 -1 -31 -20t-37 -22q-12 -2 -62 -34
q-74 -46 -96 -46zM774 1384h-10q-15 -5 -33 -14l-12 -2q-13 -6 -31 -19t-58 -37t-81 -69q-52 -26 -94 -110q-2 -3 -5 -15q-4 -12 -8 -17t-12 -12t-11 -11t-6 -11q-3 -6 -6 -13q-3 -6 -7 -10t-7 -10q-4 -6 -9 -13t-5 -18v-16q-25 -37 -28 -57t-5 -27l-8 -29q-2 -4 -1 -16
t-1 -16l-4 -17v-32q-16 -47 -15 -56l15 -41l-10 -32q0 -11 10 -31v-45l14 -45q6 -19 6 -23v-16q0 -12 2 -14q23 -23 28 -45q5 -21 8 -27t9 -11t23 -22q74 -100 127 -121q70 -47 78 -50t27 -3t39 -9q21 -9 32 -9l55 2q5 0 23 -9q56 -12 79 -3t31 11t36 2q33 -1 58 13t39 14
q13 -1 27 13q13 14 21 17t23 2t22 1q6 4 12 14t13 15t17 7q29 4 50 40q4 2 9 5t17 9t15 16q4 11 7 16t5 9q6 5 22 21q20 21 33 30q14 10 22 28q7 16 11 22t12 11t10 10t5 16q2 11 4 15t8 13q9 13 11 24t20 27t18 31v20q2 6 10 17t6 28q-1 16 1 24t10 34q8 25 10 35t1 29
t-1 30q11 39 4 90l-8 29l4 18q0 14 -6 45l-8 23q-2 4 -2 9v7q-2 4 -7 11q-6 8 -8 12t-1 15t-4 20t-14 25t-28 42q-25 33 -43 65q-18 33 -28 40q-15 10 -22 20t-20 17q-14 8 -19 12t-16 13t-40 9q-27 13 -52 19q-26 6 -39 17t-22 13q-2 4 -22 1t-25 -3q-18 9 -33 9l-53 -3
l-41 -6q-6 0 -21 4t-23 2t-13 -5q-7 -3 -13 -6t-11 -4t-20 0t-23 -1t-18 -12q-16 -15 -28 -15z" />
    <glyph glyph-name="P" unicode="P" horiz-adv-x="1323" 
d="M475 643h-22q-21 10 -29 10t-16 -15t-16 -26q-7 -11 -7 -14l4 -31q0 -12 -10 -22v-31q0 -4 3 -13t2 -13t-4 -11q-3 -6 -6 -11q-5 -8 -5 -38l-4 -18q-2 -4 -1 -13t-4 -17q-6 -7 -6 -9q0 -3 -4 -25t-5 -51t-3 -41t-10 -41t-8 -45l-2 -51l4 -33l-11 -35q0 -13 -7 -31
t-17 -20l-39 6l-29 -4l-20 4l-29 -10q-7 -2 -17 4q-9 6 -18 6l-22 -6q-27 -4 -45 29v82q2 6 9 17t6 24q-1 12 1 16q0 4 10 24v43q0 6 9 20t7 43q-1 28 0 34t11 26v31l14 27q2 12 2 46q-1 34 7 44t8 14v45l10 23q2 8 1 26t-1 25q10 20 10 27l6 38q0 5 6 11v20l11 27v39l10 24
q2 8 -3 27t6 39t13 29l-2 22l6 29l-4 19q0 3 2 8q2 4 3 8t0 16t1 14l9 23q2 2 2 7v7q0 6 2 13q2 6 4 14t4 13t1 18t-1 20q8 7 8 17v14q-2 2 -2 4l6 45q10 52 9 68t6 28t5 28q-1 16 7 33t8 23v41q16 108 18 111q11 24 64 30q12 2 98 -2l56 2l43 -6h43l20 6l21 -6h57l20 -4
l27 4l29 -4q8 -2 23 -2t22 -2l26 2l27 -10q4 0 12 1t20 -3t18 -9q7 -4 13 -5t11 -5q12 -8 19 -8q30 0 48 -16q23 -19 42 -25q20 -5 36 -21t24 -27t26 -27q17 -16 21 -30q6 -18 17 -32t16 -23q4 -9 10 -35t7 -30l18 -53l-4 -25l4 -22l-4 -29l4 -37l-18 -53q-2 -5 -1 -17
t-1 -21t-31 -63t-31 -57q-2 -4 -5 -13q-3 -10 -7 -14t-16 -9q-13 -5 -17 -8t-10 -13t-9 -14t-15 -8q-11 -5 -18 -13t-11 -10t-10 -4t-11 -7q-12 -24 -18 -28t-21 -6t-37 -20q-22 -17 -31 -20q-9 -2 -17 -6t-17 -6q-8 -2 -12 -4t-8 -5q-5 -3 -9 -5t-9 -3t-17 0q-17 1 -29 -7
q-21 -17 -54 -16t-66 -10q-34 -11 -77 -5l-15 6l-17 -6q-2 -2 -52 -1t-59 1zM410 984q0 5 -6 10t-13 0q-8 -5 6 -16q13 -10 13 6zM713 1368q-15 4 -70 4l-29 6l-29 -6q-5 0 -24 3t-35 -5q-14 -8 -17 -30t-7 -29q-4 -8 -4 -15l-2 -43l-9 -22l5 -23q-2 -12 -10 -38
q-12 -37 -14 -63q-1 -25 -5 -37q-4 -11 -3 -19q1 -7 -1 -11t-7 -12q-6 -8 -8 -14t-1 -30t0 -28t-1 -10v-14l-8 -37l4 -14v-16l6 -15l23 -4l35 4l20 -4l23 4l35 -4q20 2 32 6l25 8q8 2 33 -2q26 -4 32 0t20 3t25 6q15 10 25 10t36 13q37 19 44 19h10l27 15q2 2 14 5t28 23
q17 21 27 28t15 13q5 7 7 11q1 4 3 7l4 6q4 5 13 12q10 6 10 22l14 26q0 2 6 60l4 27v14q-3 15 -13 32q-13 24 -13 33v8q-2 5 -14 19t-17 24q-6 10 -19 11q-12 0 -22 4t-22 13t-14 11q-2 3 -24 9t-30 11t-18 5h-15q-2 0 -47 10h-53z" />
    <glyph glyph-name="Q" unicode="Q" horiz-adv-x="1830" 
d="M1488 166l68 -12q39 -2 41 -29q0 -23 -14 -33q-15 -10 -29 -19q-31 -19 -38 -34q-26 -13 -31 -21q-4 -8 -10 -19t-13 -15q-8 -10 -25 -14t-27 -10q-11 -7 -33 -7t-32 8q-9 8 -33 18q-24 9 -32 17t-16 17t-12 13t-24 13q-18 8 -26 7t-34 -20t-47 -17q-21 1 -39 -9
q-17 -10 -23 -11t-13 2q-12 5 -29 -7q-17 -13 -34 -16q-15 -3 -25 0t-14 3l-49 -8q-4 -2 -12 1t-15 1l-28 -10q-4 0 -43 6l-52 4q-4 2 -13 -1t-13 -3l-37 14q-8 2 -27 -3t-49 13q-30 17 -46 17t-28 10t-18 13l-18 2q-49 16 -79 43q-30 26 -36 30t-10 8q-5 4 -9 5q-4 2 -7 5
l-29 28q-26 26 -37 34q-12 8 -20 23q-10 20 -20 27q-10 8 -19 24q-8 15 -17 23q-12 10 -23 33q-10 23 -20 34q-10 10 -14 16l-2 16q0 3 -3 6q-8 8 -8 36q-4 6 -8 13t-9 13t-8 14t-4 20q-1 13 -3 20l-11 22v35l-10 31v10q-8 23 -6 54q2 30 2 40t1 56t-2 61t6 30t9 21v45
q4 8 13 23q0 4 -1 16t6 22q13 19 15 48q3 29 17 52q14 22 17 36t5 20l12 18q8 11 12 15t2 12q-1 9 12 22t18 29q8 24 28 41q21 18 31 41t16 31q4 2 7 4t10 5t13 11q7 9 10 12t11 9t14 10t25 25q20 21 24 25q3 4 16 12q12 8 24 20q19 20 30 23q11 4 36 20q24 15 27 18
q9 9 14 16t30 12q24 5 32 9t18 12q19 15 38 14q19 -2 33 8t24 11q12 1 24 8t27 8q14 1 34 7t32 6h31q43 6 53 6l78 -2q19 1 33 7t23 0q8 -5 16 -7t15 -4t32 0t37 0l26 -10q10 -2 32 -5t27 -4t15 -1t15 -2t18 -13q15 -13 37 -17q21 -4 43 -19q23 -16 43 -25q20 -8 28 -14
q4 -4 10 -16q9 -17 22 -22q14 -6 28 -16q31 -31 77 -93t60 -75q18 -16 18 -30q1 -15 9 -27t12 -26l6 -21q2 -2 14 -26t12 -37v-19l21 -57q2 -5 -1 -15t-2 -14t5 -12t4 -12t-4 -52l4 -16v-49l2 -21q2 -20 2 -32l-4 -21v-25q0 -22 -3 -27t-27 2q-23 6 -23 -5q-2 -8 20 -10
t23 -21l-19 -74q0 -33 -10 -48t-12 -22t-9 -20q-7 -14 -14 -37q-6 -23 -23 -47t-27 -48q-19 -44 -34 -54q-9 -27 -22 -38q-12 -11 -14 -15q-1 -4 -5 -8t-7 -9q-3 -4 -5 -8t-5 -8q-3 -3 -8 -13t-9 -12q-2 -6 -22 -16t-36 -28q-18 -18 -18 -25q9 -25 18 -29q10 -4 26 -4z
M1518 934q0 2 4 13t-5 25q-10 13 -10 19l6 31q0 13 -12 31q0 33 -11 50t-12 34t-19 37q-17 20 -21 28q-6 36 -28 49t-41 39q-19 25 -36 36q-18 11 -55 54q-6 2 -22 1t-47 16q-32 18 -50 17t-26 4q-9 5 -13 7t-24 0t-25 0l-29 11q-8 2 -20 -2t-16 -4q-36 13 -49 10
q-13 -2 -39 -8t-30 -7l-14 -2l-20 -10q-22 -11 -38 -7t-31 -7t-70 -33q-24 -16 -31 -25q-4 -2 -16 -6q-16 -6 -30 -19q-13 -13 -37 -29q-24 -15 -44 -39t-26 -28q-7 -6 -11 -10l-8 -8t-8 -11q-11 -22 -29 -38q-19 -16 -26 -30q-7 -13 -12 -21t-8 -17q-3 -8 -8 -13
q-8 -8 -11 -22t-10 -20t-10 -14t-8 -33q-7 -36 -19 -51t-10 -34t-6 -35q-7 -17 -8 -33t-3 -25l-10 -25q0 -13 3 -29t4 -22t-3 -17t-4 -18l10 -37q2 -7 -2 -21t-2 -21t8 -22q7 -18 9 -43t13 -40q11 -16 13 -22t7 -22q9 -32 22 -43q12 -11 16 -22q4 -12 6 -15t10 -11t9 -14
q2 -7 10 -18q7 -11 27 -29t38 -29q18 -9 22 -13t15 -11q10 -7 14 -11l25 -25q6 -2 19 -4t17 -3t7 -5q4 -4 15 -7q10 -3 28 -4q18 0 34 -10t26 -12q9 -2 37 0t44 -1t27 -3l21 4l40 -4q5 0 25 10q40 0 68 7l42 14q9 0 13 4t9 8t8 13q3 10 -3 22t-8 18t-4 8t-15 18
q-14 15 -22 40t0 45q12 12 22 16q10 5 22 17l17 16l9 6t11 7q8 5 18 16t26 18q41 16 58 -34t40 -72q2 -4 3 -9q5 -23 23 -16q5 2 11 8t6 9q22 11 30 17t18 26q12 20 29 33q16 13 29 39t16 31t11 15t13 17q0 43 26 69q4 8 7 26q4 24 14 38t11 33t24 86v139z" />
    <glyph glyph-name="R" unicode="R" horiz-adv-x="1243" 
d="M977 1094l10 23l2 30v16l4 49q-10 23 -8 33q2 11 -6 19t-8 14q-1 6 -15 24t-19 17q-5 0 -24 20h-8l-20 7l-27 16l-43 10l-37 4q-4 0 -12 9t-29 2q-22 -7 -25 -4q-2 3 -16 5t-18 4q-4 3 -41 1q-57 3 -70 -2q-2 -6 -16 -2t-16 4l-17 -4q-18 -13 -21 -29t-5 -32t-6 -42
t-5 -41q-23 -27 -17 -32t2 -19q-5 -14 -5 -17q0 -8 -10 -28q-7 -57 -13 -65t-3 -23t-4 -21t-12 -47t-8 -49t-4 -32t1 -28t3 -14t2 -11t11 6t31 7l24 7q2 0 13 6q8 -6 14 -6l37 -7l24 7l15 4l52 2q42 0 46 4h2l33 10l28 12q1 0 34 11l22 6q18 0 25 7q6 7 16 7t30 22t25 23
q47 29 47 51l6 15q0 8 12 23t17 18zM818 729q-22 0 -30 -9t-32 -9q-25 0 -28 -3t-7 -3q-12 0 -12 -15l8 -28q-3 -14 14 -31t18 -37t25 -53t25 -49l8 -19q25 -25 22 -38t13 -31t16 -29q25 -25 27 -43l8 -21q-1 -10 15 -27t16 -28l12 -37l22 -47q-2 -6 6 -16t7 -15l17 -16
q17 -16 18 -31l16 -53q0 -7 -5 -16q-5 -8 -9 -9q-33 0 -39 -5q-5 -5 -13 -6t-18 0t-13 1l-28 6q-6 0 -20 2q-15 2 -19 -1t-27 0t-28 3t-29 27q-15 -1 -19 25q-3 26 -7 32t-5 11l-12 22q-10 10 -10 17l-10 47q1 15 -17 33t-18 32l-8 31q0 2 -12 14q-11 12 -11 19l-8 16
q0 4 -7 14t-5 15l-17 35q-2 2 -3 12t-12 28t-11 23l-9 25q0 8 -13 21t-13 24l-17 32l-12 27l-4 10q0 31 -35 70h-10q-5 0 -21 7t-32 -2t-21 -4q-6 5 -9 5t-14 12q-10 12 -12 2l-14 -90l-10 -22q0 -2 -3 -14t-1 -18q2 -7 -2 -44q-4 -38 -14 -56t-11 -54q-2 -36 -8 -50
q-6 -12 -7 -46t-7 -42q-5 -8 -7 -39t-5 -37t-3 -12t-6 -24t-3 -32t-1 -41q-4 -28 -9 -33t-10 -17q-5 -13 -11 -15t-15 -6q-8 -4 -11 -4l-22 4l-41 -4l-51 -6q-8 0 -12 2t-14 4t-15 4q-35 0 -20 98q2 20 20 46l2 38q12 16 12 41q7 28 7 35l14 53v21q10 20 12 31l-4 28l6 17
q0 8 6 30t11 25q2 4 3 15q1 12 5 20t8 61l18 66q12 29 4 41t19 67l12 64q2 29 9 38t9 41t6 40q3 8 4 26t7 37q6 20 8 46t9 39t10 40l14 74q0 24 8 32t3 24t4 34t10 24l-2 16v11l6 25q2 55 9 63t13 30t2 34q-6 3 -1 27t5 28l7 24l6 13q0 10 11 17t20 7t27 8t26 2q8 -5 14 -7
t14 -5q8 -2 13 -4q14 6 30 6q17 1 29 7t28 -2t23 -4q8 5 26 5l85 -6h184q23 -2 37 -17t47 -15l35 -11l20 -10l13 -6l18 -10l37 -27q9 0 17 -12q8 -11 8 -13q2 -2 10 -11t24 -25t18 -25q1 -8 15 -25t14 -40l5 -19q13 -26 12 -42q-2 -15 0 -27t1 -17q-1 -6 2 -44t-2 -49
q-5 -10 -6 -26l-2 -32t-6 -24t-7 -13q-2 -4 -11 -17v-28q-4 -2 -11 -14t-11 -16q-5 -5 -5 -11q0 -7 -7 -15t-8 -13t-10 -18t-13 -20q0 -10 -20 -22q-20 -13 -22 -23q-4 -10 -18 -21t-28 -12h-9q-2 -2 -4 -6t-14 -16l-10 -4l-13 -6q-8 1 -21 -13t-20 -14l-22 -10l-17 -6
q-4 2 -17 -8t-15 -10q-2 -1 -24 -1z" />
    <glyph glyph-name="S" unicode="S" horiz-adv-x="1263" 
d="M408 -27q-13 4 -41 4l-31 11q-4 2 -11 2h-12l-55 20h-6q-5 0 -15 7q-9 7 -33 16t-45 16q-20 6 -24 10t-8 7q-5 4 -11 10t-23 16q-17 9 -21 23q-15 31 32 85q26 28 33 48q8 20 15 26q31 37 45 36t35 -15t36 -20q15 -5 21 -8q18 -9 36 -21t36 -17q18 -6 23 -12t12 -9t32 -6
q33 -4 45 -10q13 -6 26 -4t62 -1t70 6q21 10 37 16t22 9t20 6t24 12q9 10 20 16q12 6 16 10t12 14t12 14t16 9q11 4 15 8q3 5 11 23t17 32t11 20t2 10q0 5 2 7l17 31l-11 41l3 21q0 17 -21 59v10q0 7 -9 25t-27 30t-22 12q-5 1 -8 4q-2 3 -10 10t-17 18t-40 22
q-30 11 -43 27q-13 17 -38 28q-31 13 -50 30q-19 18 -36 24q-17 7 -36 20q-20 14 -28 17t-10 3q-7 0 -17 12t-17 15t-22 18q-17 18 -36 29t-33 25q-13 14 -33 32t-27 27q-8 10 -19 37t-32 65q-21 37 -20 50t-4 39t-2 43t3 39q0 21 4 47q9 9 12 30q4 29 24 54q20 26 20 32v9
q9 34 27 45q33 18 42 39q10 8 39 23t45 31q16 15 26 15t26 9q32 18 69 18q19 10 31 12t46 -1q44 -4 65 7t30 8l29 -10q4 -2 28 -1t27 1l21 -4l38 4q8 -8 25 -8l29 2q4 0 13 -5t40 -10q30 -4 46 -14q23 -14 38 -13q15 2 65 -24q99 -52 48 -98q-10 -8 -12 -12t-5 -7
q-2 -3 -3 -6t-3 -7t-3 -7q-2 -8 -19 -28t-29 -40t-29 -24q-18 -4 -49 12q-31 17 -36 19t-15 2q-9 0 -15 2t-16 11t-16 14h-15l-20 10h-9q-6 0 -24 9q-19 9 -41 8t-31 -1q-20 10 -24 10l-35 -10l-35 12q-6 0 -17 -3t-15 -4t-14 0q-9 1 -13 1l-47 -16q-19 0 -62 -42t-55 -44
q0 -32 -8 -49t-8 -29v-24l-4 -23l30 -31l10 -18q8 -23 18 -33t28 -20q17 -11 61 -47q43 -36 89 -56q46 -21 55 -27q10 -6 16 -10t11 -9t32 -19t47 -33h7q16 1 44 -29q38 -40 70 -59q2 -4 7 -8t13 -13q7 -9 25 -22q36 -27 53 -76q12 -18 25 -31q6 -9 12 -33t6 -27t6 -11
t6 -29l-2 -49l4 -23q2 -20 0 -53l-14 -43q-2 -4 -1 -17q1 -12 0 -18t-7 -16t-18 -49t-20 -48q-9 -8 -14 -12q-11 -9 -25 -36t-26 -35t-19 -14t-15 -12q-8 -7 -15 -11l-49 -49q-20 -10 -30 -23t-18 -16q-7 -5 -23 -9q-23 -6 -52 -20h-16q-20 -10 -23 -10l-28 4l-23 -10h-31
l-51 -17h-51q-4 0 -20 -6t-46 -4l-45 16h-34z" />
    <glyph glyph-name="T" unicode="T" horiz-adv-x="1099" 
d="M72 1460v21q12 25 11 39q-4 43 32 71q8 4 16 4h12l39 13l51 -6q9 -2 29 -1t29 1l43 -7h45q6 -1 10 3t27 4l18 -7h35l41 7l27 -11q16 -4 39 0q22 4 36 3t30 5q15 7 24 7l30 -2q29 4 29 2l59 -15l41 15l30 -7l30 7q20 2 26 0l23 -4h16q12 0 32 3t35 -9t9 -38q-6 -24 -5 -36
t1 -15l-12 -30q0 -4 1 -22t-5 -31q-7 -13 -7 -17v-6q-12 -25 -37 -25q-24 0 -44 10h-74l-21 -4q-6 -2 -17 1t-14 3h-65q-2 0 -31 6t-30 -3q-6 -1 -12 -17t-14 -30q-7 -14 -9 -19q-2 -4 -1 -41t1 -59t-13 -39q0 -6 2 -18t0 -18q-2 -5 -3 -9t-3 -7q-2 -2 -3 -8t-2 -10t2 -15
t2 -17t-8 -15q-7 -10 -7 -16v-62q-10 -10 -10 -15v-8q0 -3 -1 -5q-1 -1 -3 -7t-4 -10t-3 -7t2 -10t3 -13t-7 -19v-35q-2 -10 -16 -65v-43l-14 -54q-2 -10 -1 -32t0 -29q-1 -8 -4 -16l-5 -15t-8 -17q-13 -23 -11 -52t-2 -41q-4 -13 -4 -22v-11q-4 -18 -4 -23q-10 -10 -10 -22
l4 -25l-8 -49q-2 -8 -1 -25t-7 -31q-7 -12 -5 -30q4 -33 -10 -47v-25q0 -10 -6 -16v-74q0 -4 -5 -16t-8 -30q-9 -47 -34 -52q-4 -2 -14 -1t-13 1l-31 -6q-26 13 -46 9q-20 -3 -27 -3l-23 4h-14q-8 0 -16 2t-11 3q-4 1 -13 10t-9 19v11q-9 56 3 73q12 18 11 36q0 18 4 30
l8 25q4 8 5 26t8 37q0 42 6 58l10 22q2 8 1 29t11 45q0 6 -1 19t1 19t8 15q6 11 8 17t0 20q-1 14 -1 21q6 6 6 45l-6 24q2 6 8 18l8 16q2 5 1 16q-2 18 10 51q11 33 10 41t1 10l5 16v45q10 20 10 21l2 32q0 6 8 22t4 36t-2 29l21 67q0 8 -1 28t3 34t6 20t2 16v25
q10 21 10 25v10q0 6 2 10l14 31q2 10 -2 36t7 53q10 28 11 38t-3 35q-11 16 -40 9t-51 -5t-36 -2l-25 -9q-6 -2 -17 1t-16 3l-75 -10q-8 0 -36 6t-38 18t-10 60z" />
    <glyph glyph-name="U" unicode="U" horiz-adv-x="1597" 
d="M549 203q117 0 182 -13l35 13l20 -4l17 4q33 0 51 9t54 19t61 29q26 20 28 25q35 18 41 33t9 17q22 16 22 40q27 40 27 65q2 8 14 25t12 55q-10 20 -10 35l14 33q2 4 1 20t5 26q7 11 7 15v37q10 20 10 29v37l10 26l-4 19l16 37q0 6 -1 20t11 51q13 37 13 54v20l10 57
q0 10 9 38t6 67q-2 39 0 48t8 18t6 16v20q0 53 8 77q10 29 10 62l11 43q0 8 -1 33t11 37q2 4 1 26t-1 25q8 49 63 56q35 0 60 -7l51 4q6 0 15 -3t13 -4t19 3q16 4 20 -4q20 -18 11 -55l-8 -23q-2 -6 2 -18t-5 -25q-8 -14 -10 -19t-1 -16t0 -19t-7 -20t-7 -20t0 -26t-1 -27
l-10 -29q-2 -12 -3 -32t-4 -31l-10 -27q-2 -8 0 -30t-7 -44t-9 -42v-21q-10 -20 -10 -32v-27q0 -8 -7 -17v-33l-5 -20q-3 -12 -5 -19t-3 -28t-13 -55v-54q0 -4 -4 -12t-11 -33q-6 -26 -6 -30v-33l-16 -74v-29l-10 -30v-43q-13 -38 -14 -66q-1 -27 -4 -32t-5 -9t-3 -7t-7 -26
q-6 -22 -11 -34q-4 -12 -14 -26q-40 -57 -42 -76q-1 -19 -16 -30q-14 -12 -36 -36t-36 -34q-14 -9 -22 -12t-32 -22q-24 -20 -30 -22t-17 -6t-43 -20q-39 -21 -56 -23q-17 -1 -44 -13t-42 -17t-69 -5l-16 -5l-25 3q-4 0 -9 -2t-9 -4q-4 -1 -18 -5t-36 -4l-29 10l-28 -8
q-3 -2 -19 -2t-40 12h-54l-16 5h-16q-25 0 -45 10q-86 0 -120 28q-14 11 -50 27l-17 2q-8 8 -18 23q-6 4 -26 16t-32 30q-12 19 -16 23q-4 5 -12 13t-13 12q-2 4 -5 13t-13 20t-13 19t-7 22q-5 14 -9 25t-9 25t-10 20q-5 8 -5 24v22q-4 49 -4 58l6 16v49l10 28v8l8 26l-2 18
l4 14v29q2 6 6 20t6 18q1 5 0 19q-1 21 10 54t10 47q-2 22 11 47v15q0 16 5 30t6 20l-11 48q2 12 18 38t9 58q-6 31 -6 33l22 63v39l4 19q0 3 -1 30t7 36q8 10 6 29q-1 19 7 57q8 37 13 81q4 44 9 53q4 10 3 24t2 23q4 8 6 32t4 28q8 31 55 43q12 4 41 -5t73 3q44 11 72 -15
q8 -10 11 -30t-6 -36q-9 -17 -11 -27t-8 -33q-8 -32 -8 -64l-10 -51q-1 -26 -7 -36t-8 -16t-2 -57l-10 -39v-24q-10 -10 -10 -19l4 -45l-10 -22q-2 -6 -1 -18q2 -22 -5 -32q-7 -9 -9 -23q-2 -15 1 -25t1 -17l-12 -37l2 -18l-4 -29q0 -39 -2 -44t-13 -19q-10 -14 -12 -20
q-2 -8 -1 -28t1 -26q-6 -6 -6 -20v-29q0 -5 -6 -17q0 -86 -6 -92l-8 -23q-2 -7 0 -29t-2 -28l-9 -22q0 -4 5 -17t-7 -28t-12 -26t12 -50l19 -56q10 -17 34 -35t32 -28q10 -10 16 -14t55 -23l23 -14h53z" />
    <glyph glyph-name="V" unicode="V" horiz-adv-x="1435" 
d="M205 1612h31q32 0 34 -2t27 -12q49 -19 45 -70l-2 -47q0 -21 10 -31q0 -6 1 -12l2 -12q2 -15 9 -31q7 -15 7 -50q0 -33 13 -59t15 -36t1 -25q-2 -27 5 -38q7 -10 6 -22t1 -15t4 -9q2 -5 5 -11q5 -9 5 -33v-24q8 -16 12 -20v-31q0 -6 6 -20q8 -19 11 -47q2 -29 26 -105
q10 -10 10 -23v-28q11 -11 12 -16t0 -21q-1 -21 5 -38t6 -26v-12l4 -14q0 -91 33 -97q12 -1 19 9t17 22q9 12 13 20t20 25q16 18 19 39t12 29q7 8 15 15q14 13 14 26v10q4 16 18 36q22 31 27 52t22 41q17 19 20 25q4 7 6 21q3 14 17 28q13 14 13 33q26 39 26 48v11
q2 4 15 15t30 52t41 80q23 40 29 59t28 44q23 24 23 51q3 4 21 34t23 44q5 15 12 20q6 6 9 10t7 13q4 8 13 24t17 41q9 25 21 41t35 15l23 -2q11 0 47 8q43 4 84 -3t45 -9q47 -35 -29 -119q-6 -8 -12 -34t-25 -36q-35 -81 -49 -94q-18 -16 -24 -35t-19 -32q-14 -12 -18 -30
t-16 -38t-20 -26q-8 -7 -12 -16t-13 -33q-18 -48 -35 -76t-23 -46q-7 -19 -26 -43q-19 -23 -19 -29v-8q-26 -55 -49 -79q-22 -24 -26 -39q-5 -15 -7 -19t-7 -10t-8 -10q-25 -73 -36 -84q-11 -12 -14 -16t-5 -10q-2 -5 -3 -9q-5 -20 -25 -44q-20 -25 -25 -40q-5 -17 -16 -35
t-11 -24q0 -9 -10 -19t-15 -23q-5 -12 -9 -16q-17 -20 -20 -38q-4 -18 -22 -42q-22 -29 -27 -43t-15 -23q-9 -10 -12 -16t-5 -19t-5 -19t-7 -13q-4 -6 -9 -13q-6 -6 -8 -12t-5 -12t-6 -16t-19 -37q-16 -26 -29 -64q-14 -38 -24 -57q-11 -18 -21 -35t-36 -22q-26 -6 -37 5
t-18 40t-12 37t-5 28q1 20 1 33q-10 30 -10 36v14q0 7 -2 10l-14 38l4 29q-2 9 -7 23t-8 42t-8 33l-8 19q0 37 -10 47q-14 39 -12 54t0 22l-15 28q-2 9 -1 25t1 23l-10 28q-6 30 -7 47t-9 36t-6 40q2 20 -2 29l-21 43q0 33 -13 78t-17 59t-4 37q-1 29 -9 50t-8 28l2 22
q1 2 -11 30t-13 40q-1 14 -3 18l-8 21q-4 8 -1 37t-21 65q-11 43 -11 68q-26 39 -26 96q-13 25 -13 33v10l-14 33q-2 4 -1 14t-1 14l-10 43q0 12 12 37q12 13 45 17t35 6t18 0t19 -2z" />
    <glyph glyph-name="W" unicode="W" horiz-adv-x="2015" 
d="M419 835q3 -7 3 -34t12 -51l-6 -37q0 -6 6 -15v-22l7 -32q1 -3 3 -16t10 -18q9 -4 15 -2q21 4 39 58q22 64 54 105t32 56t12 41t15 29q2 4 5 19t32 56t57 107t33 71q19 17 21 42t24 43q0 27 16 39q16 13 26 41q9 27 13 35t15 27t15 27t4 21q1 18 12 31q10 14 13 26
q2 11 5 16l15 25q16 28 21 54t23 41q18 14 29 18q12 4 28 -8t22 -26t11 -72q10 -20 10 -31l-2 -20l8 -60l10 -33q5 -10 0 -30q7 -8 7 -20v-27q2 -7 11 -21t9 -22l-4 -19q0 -2 6 -26l14 -31q4 -19 0 -62q2 -4 6 -11t6 -10q1 -3 0 -10t1 -15t7 -24q7 -24 7 -50q10 -30 11 -32
t0 -13q-1 -9 1 -19q1 -10 7 -42q8 -48 15 -57q6 -9 4 -18q-2 -12 10 -33q11 -21 18 -44v-72l10 -23q2 -2 5 -17t13 -15q19 -4 23 14t28 62t33 77t11 39t10 16q8 9 10 13t4 11t3 10t6 8t7 11q15 49 25 63q14 19 14 27q-1 9 7 20q8 12 9 16t1 9t1 7t5 6t5 8q10 40 26 56
q2 6 6 20t7 20t12 19q10 13 12 19t2 15q0 14 8 27t8 31t29 58q2 6 4 16t6 17l14 24q16 27 20 45q7 26 19 41q12 14 15 35t13 32q15 18 19 46t27 36t47 2q83 3 97 7t50 1t44 -23q8 -21 3 -32q-6 -10 -10 -19t-6 -13t-5 -14t-7 -18q-4 -7 -10 -25t-16 -32q-11 -14 -14 -20
q-4 -7 -6 -21t-16 -39q-14 -24 -25 -38l-14 -21t-6 -11t-3 -10t-9 -17t-11 -32q-3 -21 -13 -30q-11 -9 -11 -15t-39 -94q0 -20 -9 -29q-17 -17 -17 -42q-6 -18 -18 -42l-15 -30q-2 -4 -8 -9t-6 -15q1 -10 -11 -26q-16 -23 -21 -41q-4 -17 -23 -48t-25 -43l-2 -17
q-3 -6 -13 -20q-10 -15 -12 -21t-2 -13t-2 -12t-7 -13t-9 -16t-9 -13v-17q-4 -8 -8 -14t-11 -28t-18 -31q-16 -14 -14 -38t-23 -54q-25 -29 -28 -46q-4 -16 -6 -22t-11 -16q-8 -11 -12 -17t-3 -18t-2 -18q-4 -8 -18 -19q-14 -10 -10 -23q5 -14 3 -25t-25 -34q-2 -5 -4 -15
t-4 -16l-9 -18q-10 -20 -10 -36t-13 -29t-13 -23t-10 -24q-10 -13 -8 -24q1 -12 0 -18t-13 -22t-22 -41q-10 -24 -31 -27q-8 -4 -16 0t-16 19t-12 19t-5 11q-2 6 -10 25t-9 24l6 39l-12 54q0 4 1 17t-1 17q-14 14 -14 31l-2 49l-8 19q-2 8 -4 23q-1 15 -13 42q-2 9 -1 29
t1 29q-16 32 -16 82q-8 21 -9 41t-4 30l-10 25q-2 6 -1 19q2 24 -10 59t-10 59t-22 66v14q-10 10 -10 24v27q-6 6 -6 16v39q0 9 -10 19q-13 48 -17 88t-17 41q-13 2 -24 -22q-12 -24 -24 -33q-4 -7 -8 -11q-5 -4 -6 -8t0 -17t-2 -21t-17 -21q-21 -21 -21 -31v-6
q-4 -18 -20 -41q0 -27 -21 -41q-26 -52 -26 -61q0 -13 -9 -23q-9 -11 -14 -26q-4 -15 -6 -21l-18 -29q-3 -4 -11 -9t-11 -8t-5 -9t-5 -12t-4 -11q-1 -4 -8 -11t-13 -30t-21 -45q-15 -21 -19 -31t-5 -24t-5 -24t-19 -31q-15 -23 -19 -29t-7 -14l-3 -12q-4 -21 -22 -41
q-18 -21 -18 -37v-21q-4 -8 -15 -18t-20 -39q-10 -28 -19 -41t-17 -46q-3 -4 -13 -12q-14 -11 -14 -27v-14q-4 -31 -16 -45t-27 -34q-14 -20 -35 -15q-29 6 -39 68q-6 12 -6 16v37l-8 31l2 36q0 6 -3 14t-8 21q-5 14 -1 25q8 23 -13 62v52l-6 27v29q0 4 -6 10q-2 12 -2 39
t-2 35t-6 16t-4 12l-2 33q0 14 -11 47v33l-10 25v34l-4 19q-2 4 -1 17t-1 18l-10 35v45q1 6 -7 21q-11 23 -6 54q6 31 -3 50q-13 27 -13 68q0 43 -6 57t-6 18l-8 33q0 3 -11 18v23l-4 34q-2 4 -1 23t-6 43t-10 30t-5 11q-2 4 -1 18t1 19l-11 30v33l-6 33q0 4 1 15t-3 24
t-9 29t-4 25q1 13 -7 30q-8 16 0 52t16 41q14 9 46 9h26q8 0 20 6h37l19 5q11 0 43 -14t41 -38q4 -8 2 -40t4 -51t6 -34v-18q10 -30 10 -33l-4 -55q0 -4 10 -29v-30q0 -8 11 -21v-35l12 -45q2 -6 -1 -16t-1 -15l10 -43l-4 -22q0 -4 3 -10q3 -5 6 -13t5 -12t1 -19t0 -21t5 -9
q7 -7 7 -17v-12q4 -23 4 -24l-6 -27q-2 -37 4 -47t9 -17z" />
    <glyph glyph-name="X" unicode="X" horiz-adv-x="1689" 
d="M420 1616q60 -12 83 -12t44 4t37 -6q37 -29 37 -68q6 -12 21 -46q16 -34 22 -43q28 -39 38 -75q4 -6 12 -16t11 -14q2 -4 4 -10q2 -7 14 -19t15 -34q4 -22 13 -31t11 -13t4 -9t4 -8q2 -4 5 -12q2 -8 4 -12t11 -16t11 -18t2 -10q1 -5 15 -24t14 -28l6 -13q5 -5 11 -20
q6 -14 16 -16q10 -1 16 3t14 16q9 12 11 15q2 2 22 23t53 69q34 48 42 54t13 11t14 8t13 16q6 6 8 21t17 29q16 13 20 17q6 8 16 27t21 30q12 11 17 16t13 20q9 14 15 19t12 11q5 6 10 11t6 9q1 5 3 8q6 9 14 17t17 26t22 26q12 7 15 12q25 47 52 50q9 1 20 2t30 4t21 3
l45 -6l30 6h45q57 0 64 -23q10 -37 -19 -61q-24 -12 -28 -16t-9 -14q-6 -10 -10 -15q-8 -7 -17 -14q-10 -7 -18 -22t-21 -30t-23 -25q-17 -14 -27 -34t-33 -31q-30 -35 -40 -53q-11 -18 -31 -38l-27 -27q-8 -24 -19 -33q-8 -10 -32 -30t-27 -30q-2 -10 -4 -13t-11 -8t-12 -7
q-4 -6 -8 -18q-7 -20 -20 -24q-14 -5 -21 -18q-6 -12 -9 -15q-5 -5 -15 -10t-13 -20t-16 -23q-14 -7 -19 -12q-6 -12 -6 -20q-13 -32 -29 -45q-16 -11 -20 -17t-10 -12t-14 -18t5 -30q13 -19 13 -21l29 -50q0 -8 18 -37t24 -42q5 -13 9 -18q13 -16 16 -34t14 -28t13 -14
t5 -11q3 -6 6 -14t19 -26q16 -19 26 -45q16 -39 47 -78t37 -55q5 -15 13 -25q10 -13 13 -30q4 -18 20 -39q17 -20 21 -25t9 -10q6 -6 20 -40t33 -59q20 -25 22 -33t8 -24t6 -26q0 -30 -65 -30l-27 -4q-32 16 -37 16q-54 -18 -66 -14t-21 9t-21 6q-13 1 -19 5l-16 21
q-2 0 -13 11t-17 31q-5 21 -7 25l-4 8q-3 8 -13 19t-10 27q-6 10 -18 28q-13 20 -33 63q-20 44 -28 54q-12 16 -16 35t-26 43q-22 25 -34 54q-11 31 -23 53q-13 25 -17 45t-30 55q-25 34 -30 46t-16 11q-11 0 -38 -43q-37 -37 -51 -72q-6 -8 -35 -41t-33 -45t-8 -17t-20 -17
t-22 -20t-9 -32q-17 0 -24 -10t-11 -14t-11 -16q-7 -13 -20 -24t-20 -28q-8 -18 -12 -20q-21 -9 -22 -29t-20 -33q-18 -14 -22 -18t-10 -17q-7 -12 -13 -18t-10 -11t-10 -12q-6 -8 -10 -14t-7 -16t-7 -14t-6 -8q-3 -4 -10 -8q-7 -5 -19 -21q-17 -23 -31 -23q-15 0 -29 -9
t-24 -9l-76 12h-27q-15 -15 -30 -10q-15 6 -19 6h-12q-9 0 -13 1t-13 3t-16 13t-7 18l8 26q2 5 11 17t12 25t10 19q6 6 25 22q18 14 24 20t12 17t10 18q23 11 28 27q5 15 23 30q17 14 19 19t5 11t5 9q6 6 20 16t25 30t22 30q18 18 26 31q8 14 14 17t13 10t14 21q12 23 42 46
q8 16 23 27q16 12 20 22t38 44t46 58q81 95 91 107t32 34l7 14t7 15q4 4 20 17t11 27q-6 15 -6 21v7l-12 24q-39 74 -45 82q-6 7 -18 19t-16 17q-5 8 -5 19q1 11 -13 28q-14 18 -20 33q-5 15 -18 29t-15 27q-3 20 -17 33q-14 12 -28 33t-17 34q-2 13 -21 41q-19 27 -30 56
q-10 29 -24 42q-14 12 -21 34q-13 39 -37 55q-30 19 -30 51v8q-16 47 8 58q2 2 43 4z" />
    <glyph glyph-name="Y" unicode="Y" horiz-adv-x="1466" 
d="M473 690l16 45q0 11 -13 31t-16 25t-3 12t-37 69q0 13 -4 17q-2 4 -10 15q-11 16 -15 32q-3 16 -14 30q-13 14 -15 20q-2 5 -2 13q0 9 -2 15t-11 17t-15 26t-22 42t-31 59q-16 32 -25 44q-8 12 -10 18t-8 17l-9 10q-2 5 -8 25t-11 31t-19 32q-23 32 -33 66q-21 21 -21 47
q-15 38 -27 46q-12 7 -22 18t-10 39t5 36t23 11q17 3 21 4q61 18 158 -3h26q23 0 27 -6q25 -23 31 -47v-26l6 -12t7 -13q3 -4 5 -8t3 -8l3 -9t4 -13q1 -7 13 -25q15 -24 22 -45t18 -34q13 -15 17 -35q4 -19 29 -52q4 -8 7 -22t6 -22q3 -7 18 -34t17 -37t8 -17q7 -7 13 -22
q6 -16 6 -23q-1 -7 11 -22q12 -16 17 -29t14 -30t27 -15t25 14q7 11 14 26t19 25q12 11 16 16t6 13q5 13 15 23t13 23q5 18 21 26q16 7 19 20q2 13 5 17q6 6 17 14t17 16t17 24q10 14 19 30q13 23 26 32q13 8 18 20q6 12 21 26q15 15 22 33q4 2 9 6t21 16t31 39q15 26 18 32
t9 12t12 20q10 21 26 30q15 9 21 23q15 32 62 31t64 6q18 8 24 8l47 -4q4 0 19 6q17 0 41 -8t28 -11q25 -16 12 -46q-12 -30 -24 -40t-19 -14t-12 -8q-2 -4 -7 -15q-10 -22 -27 -27t-22 -21q-9 -30 -36 -51t-32 -35q-5 -15 -13 -24t-14 -13t-10 -7q-5 -10 -11 -16l-15 -15
q-22 -22 -25 -36t-25 -32q-21 -18 -34 -37q-12 -20 -30 -34t-23 -20t-8 -17q-4 -13 -17 -24q-13 -12 -17 -21q-4 -8 -8 -12q-3 -4 -17 -15t-20 -21t-12 -16q-6 -7 -9 -11q-4 -2 -23 -21t-22 -31q-2 -12 -4 -15t-14 -10t-17 -11q-2 -4 -8 -23t-28 -35q-23 -16 -28 -23
q-5 -8 -13 -24t-24 -37t-15 -42v-27q0 -21 -11 -43v-43q-2 -8 -4 -18t-5 -17q-3 -9 -6 -19t-5 -16t0 -15t2 -16l-8 -32q-2 -9 -1 -29t1 -29l-10 -39v-47q0 -7 -7 -14v-29l-10 -20q-2 -8 -1 -24t1 -21l-10 -27q-2 -6 0 -16t2 -15l-8 -75q-7 -46 -17 -54t-41 -18l-22 -8
q-7 -2 -23 4t-22 6l-31 -12l-37 10q-4 2 -12 2h-12q-25 8 -31 13t-10 26q-14 34 -9 43q18 34 16 52q-1 17 -1 26l14 49q2 4 1 15q-2 19 8 38t9 36t4 34q7 25 14 66l7 42q2 6 0 16t-1 16q1 8 11 24t13 25q2 9 0 29t0 27q2 5 5 15t5 15t1 17t3 25q4 14 4 19l-2 17v9z" />
    <glyph glyph-name="Z" unicode="Z" horiz-adv-x="1544" 
d="M431 1591q25 0 40 11l41 -11q12 -2 70 -1t73 1h39l23 -6q16 -2 47 3t45 5l47 -8h41l23 4q6 0 36 -10l29 6h47l25 -6q6 6 18 6h29l33 -6l34 12q6 2 32 1t32 -1l20 4l30 -4l30 11l30 -11q17 0 23 6q29 7 45 11t37 -18t20 -82t-37 -73q-14 -5 -19 -19q-5 -15 -8 -18t-11 -6
q-9 -4 -13 -8t-7 -15t-7 -15t-8 -7t-9 -7t-9 -7q-4 -4 -12 -16q-7 -13 -15 -21t-38 -39t-40 -43t-17 -28q-12 -28 -34 -39q-6 -7 -16 -19t-17 -24l-14 -21q-19 -9 -22 -15q-3 -5 -7 -13q-8 -16 -18 -28q-11 -13 -15 -21t-7 -12t-14 -11q-12 -6 -16 -10t-7 -11q-3 -8 -15 -21
t-12 -24q0 -10 -4 -14t-24 -15q-37 -19 -42 -45t-29 -44q-25 -17 -31 -25t-12 -22q-7 -17 -20 -28t-20 -22q-8 -12 -27 -23q-19 -12 -32 -36q-20 -36 -36 -47t-21 -22q-4 -11 -6 -15l-5 -10q-4 -8 -14 -14t-15 -23q-6 -16 -28 -36t-32 -34q-10 -12 -26 -29t-45 -55t-40 -51
q-11 -12 -19 -22q-8 -11 -14 -19q-7 -8 -17 -19q-11 -11 -7 -19t12 -7q8 0 15 2q5 2 21 -3t34 -1l21 4l92 -4l67 8l27 -4l19 6l34 -6l58 4l24 -4l33 6q10 2 40 1t38 -1t21 4t21 0q9 -4 13 -4l23 2l30 -2q22 0 60 11l26 -2q47 2 63 0q48 -6 36 -76l-11 -31l5 -29q0 -8 -6 -24
t-7 -24q-2 -8 -3 -11q-1 -4 -3 -10t-5 -10t-8 -11t-41 -13q-36 -7 -47 -3q-10 4 -18 7q-21 9 -49 -5l-88 6l-37 -6q-24 6 -36 6t-25 -6l-31 2l-31 -4l-43 10q-15 5 -28 -8l-31 6q-35 0 -41 -6l-25 6l-36 -6l-23 6q-20 2 -74 1t-70 -6q-15 -5 -24 -3l-39 8l-53 -10l-21 4
q-6 2 -23 1t-24 -1q-6 6 -15 6t-28 -11t-39 -7t-23 5t-5 2t-5 1t-31 -3t-30 5q-25 11 -20 54q2 15 -1 38t-1 31l12 22q2 2 2 9l2 8q28 55 30 58q3 3 15 14q18 17 21 28t11 16q9 6 16 11t18 25q10 20 21 30t20 20t21 16q12 7 15 20q3 14 7 18t7 6t7 4l8 4t7 5t8 5q6 10 16 30
t17 28q7 9 12 14q9 6 14 15q4 9 6 12q23 12 28 24l7 17q8 8 22 21q22 20 30 34t19 22q12 8 17 20t28 36q23 25 34 42q10 17 30 38q20 22 26 28q6 5 10 15q5 10 7 12q-1 2 21 26t46 46q24 21 46 59q4 4 15 12t22 33q11 26 36 44q25 19 29 24q12 25 25 32q12 8 18 14
q5 6 21 30t19 27t6 5t5 5t5 6t6 9l5 10t26 28q22 24 29 32t11 11t14 18t22 26q42 36 -3 42q-8 1 -9 3t-11 4q-10 1 -23 -6t-29 -5q-16 1 -22 1q-12 -6 -60 -6l-53 6q-27 -14 -42 -10t-21 4l-33 -6l-31 6l-28 -6l-23 6l-41 -6q-49 6 -51 6l-23 -10q-16 -4 -57 -1t-68 -5
q-72 -7 -88 49q-8 34 3 52q12 17 12 24q4 6 2 24q-7 63 49 82h9z" />
    <glyph glyph-name="backslash" unicode="\" horiz-adv-x="1081" 
d="M-287 1592q0 22 42 22h26q27 0 31 -2l26 -10l27 10q21 5 59 -21q20 -16 38 -51l20 -41q47 -69 64 -111q16 -41 24 -56t26 -41t24 -39t19 -40q13 -28 17 -34t6 -14t5 -11q3 -4 11 -14q8 -11 12 -19t20 -41q20 -43 33 -59q16 -20 23 -37q7 -18 21 -33q14 -16 25 -50
q12 -34 38 -60q6 -10 14 -28q12 -29 20 -41q8 -13 12 -24q3 -11 15 -26q16 -21 19 -36t28 -44t38 -59q14 -31 33 -52t23 -45q5 -24 15 -40t30 -46q19 -29 21 -39t7 -22t20 -32q17 -19 23 -29t15 -33q15 -38 21 -43q7 -5 16 -31t25 -43q16 -16 23 -41q7 -26 27 -39
q4 -6 8 -17q7 -19 20 -32q21 -63 41 -84q20 -22 24 -30q6 -10 11 -24t22 -42t21 -35q4 -6 8 -17t50 -84q85 -135 34 -139l-18 4q-4 0 -11 -4t-13 -5t-15 0q-10 1 -12 1l-45 -2q-2 0 -50 12q-25 12 -61 62t-40 63q-3 12 -7 21t-15 27q-10 18 -19 42t-39 68q-29 45 -37 68
q-8 22 -17 35q-10 14 -12 18q-1 4 -5 10t-6 12t-8 17t-15 23t-12 20t-14 19t-20 39q-15 42 -40 76t-35 64q-11 29 -22 44q-10 14 -12 18q-4 7 -4 19t-14 26l-23 23t-15 32t-23 44t-21 29t-8 22q-7 23 -23 43q-16 19 -36 64q-21 45 -46 83q-25 39 -31 53q-7 16 -22 35t-34 66
q-18 46 -32 61t-22 36q-7 21 -22 42q-15 20 -20 31q-5 12 -7 15l-4 6t-3 5t-4 5t-11 26q-13 34 -25 45q-12 12 -24 41t-23 45q-10 15 -14 24q-6 16 -28 45q-23 29 -50 82t-37 66q-9 13 -10 23t-4 15t-13 16q-9 11 -17 25t-26 40q-26 39 -25 53v11z" />
    <glyph glyph-name="asciicircum" unicode="^" horiz-adv-x="911" 
d="M613 1378q14 0 24 -20q2 0 8 -5q7 -6 9 -16q2 -11 11 -20q10 -9 16 -25q5 -16 8 -22t5 -8t4 -10t13 -17q10 -10 12 -13q2 -2 7 -8t14 -22t12 -16q3 -19 11 -28q7 -8 9 -14t5 -7t5 -4t2 -10t3 -11l12 -21q6 -14 -6 -21t-33 -1h-41l-29 -4l-24 4q-23 -6 -27 -2
q-10 4 -29 28l-12 17q0 10 -11 21l-16 16q-6 12 -7 17t-21 22q1 18 -17 41q-18 24 -31 24t-33 -19q-25 -23 -31 -35t-16 -18q-9 -6 -12 -9l-7 -7t-10 -12q-5 -8 -17 -16q-12 -7 -17 -11q0 -2 -2 -5t-3 -5t-4 -5t-9 -8t-25 -24t-47 -10l-24 -4l-29 4h-41q-23 -6 -33 1t0 21
q17 8 23 23q6 14 8 18t6 4t9 9t17 16q11 7 17 25l27 28q4 4 11 9t10 7t13 11l15 12q2 2 6 8t9 10t15 21q11 16 16 22t13 11q8 6 13 10q8 16 10 18t8 13t20 13q15 3 34 2t25 -1t15 -3q8 -3 21 7t36 6t25 -4l19 2h33z" />
    <glyph glyph-name="grave" unicode="`" horiz-adv-x="710" 
d="M200 1252q-1 1 -1 9q-1 8 -13 16q-12 9 -14 11t-5 8q-5 10 -16 16t-15 17q-5 10 -8 15q-3 6 -6 14t3 15t25 5h40q4 0 22 -3t38 3q46 13 72 -22q12 0 17 -15t18 -26t19 -26q7 -15 9 -17q1 -1 10 -14q7 -13 11 -17t13 -11t11 -10t8 -9q7 -5 11 -9l20 -28q6 -14 16 -26
q9 -12 13 -16q4 -6 7 -7t5 -4t3 -10t3 -11t9 -10t11 -16t-6 -16q-10 -7 -32 -1h-41l-29 -4l-25 4q-20 -6 -31 -1t-25 23q-18 21 -21 28t-14 16q-17 14 -23 26t-15 18q-12 8 -16 19t-16 26q-13 15 -24 20t-13 8t-3 7t-2 5z" />
    <glyph glyph-name="a" unicode="a" horiz-adv-x="1050" 
d="M907 186l-16 -44v-31q0 -75 -24 -97t-56 -22l-16 4h-58l-29 -2q-8 0 -22 6t-17 12t-8 20t-16 15l-57 -24h-8l-21 -13q-21 -14 -38 -14h-21l-21 -4q-2 0 -14 4t-30 -11t-70 -3q-3 0 -33 10q-8 0 -26 -1t-40 4q-20 5 -61 31t-45 25q-14 0 -25 25q-2 2 -3 8t-3 10
q-16 16 -24 23t-15 45l-10 40v11l-10 41l10 27q2 8 1 22t-1 21l16 26v9q0 14 16 35q23 32 29 49q6 18 23 26q18 9 40 25t32 20q8 4 17 6t11 4l27 15h20q30 10 49 10q20 10 27 10h45q8 2 34 10q38 12 77 6l20 7q5 2 19 1t18 -1l27 6q8 0 37 -2t36 2l27 14q33 18 35 29
q12 76 -33 108q-9 9 -53 9q-10 10 -35 14t-52 -3q-26 -7 -52 -5t-39 -6q-12 -9 -28 -13t-34 -18q-18 -15 -34 -18q-15 -3 -20 -5t-12 -9q-8 -7 -16 -7q-39 0 -72 40l-17 17q-52 57 -50 86q0 9 12 21t38 22t34 16t25 10q17 5 37 10t30 11q11 5 19 7t27 1t28 1l18 10q7 2 21 1
t42 4t32 6q5 1 25 1t29 2t15 0t13 -2l18 4q16 0 22 -6q4 0 18 1t27 -9t17 -12t23 -1q58 3 82 -26q5 -6 9 -11q4 -6 10 -12q5 -6 9 -11t17 -14q14 -9 24 -23t18 -38q8 -26 13 -31q4 -5 6 -13t-5 -28q-7 -18 -7 -26t6 -20t5 -36t-11 -34v-16l-11 -50q-2 -6 -1 -20t0 -20
t-7 -18q-6 -11 -8 -18t-1 -33t1 -36q-9 -54 -16 -57q0 -76 -11 -115v-27zM594 412q-14 -4 -59 -4l-21 -13q-8 0 -31 1t-36 -7t-37 -16q-30 -10 -37 -20q-8 -10 -17 -15q-10 -4 -16 -7t-12 -17q-6 -15 -6 -17q-31 -57 0 -96l18 -15q28 -22 37 -22h12q61 -7 76 -3q16 5 39 3
t28 2l19 8q8 4 22 8t27 11q14 6 20 8t18 7q13 5 25 8t24 24q13 20 20 48q8 29 2 42t10 39t17 31q2 12 -11 15q-54 14 -104 -3h-27z" />
    <glyph glyph-name="b" unicode="b" horiz-adv-x="1107" 
d="M215 982v24l16 49q0 8 -1 24t7 44q9 28 9 42l2 60l8 22q2 3 2 17v20q0 7 10 27v45l4 22q2 8 1 26t0 24q1 4 12 26v41l10 16q0 4 -2 40t8 38q18 23 68 19q4 -2 20 -1t37 1t33 4t42 -10t34 -26q8 -23 -9 -80q-16 -57 -16 -73v-22l-10 -37q0 -28 -6 -64l-17 -47v-39l-10 -35
v-40q-10 -10 -10 -19v-22q-6 -18 -6 -35l-11 -21v-47q0 -18 -3 -22t-6 -30q-4 -31 -12 -48q-8 -16 -3 -27q13 -16 27 -3q14 12 55 30q0 2 6 10t11 9q5 2 17 4t19 2q20 10 24 10h11q14 0 22 8t34 8h67q20 -10 24 -10l27 4l31 -8q4 -2 12 -3t44 -19t48 -30q12 -10 17 -20
t10 -14l22 -24q33 -34 37 -55t7 -29t13 -22q16 -23 14 -34t4 -26q5 -16 9 -34t1 -60t0 -54t-4 -42t-5 -44t0 -20t-8 -18q-6 -11 -8 -30t-8 -29q-8 -12 -9 -26v-12q-6 -36 -24 -55t-28 -38t-24 -30q-13 -11 -26 -36q-11 -24 -17 -30t-28 -19t-23 -13q-4 -4 -11 -14t-14 -14
t-34 -16t-37 -19t-18 -6q-12 2 -30 -8q-17 -10 -79 -7l-29 6l-35 -13q-17 -1 -26 5q-10 6 -17 6h-16q-27 5 -40 15q-16 11 -26 11t-22 14t-18 11q-5 -2 -15 5t-17 12t-12 11t-10 7q-4 0 -4 -23t-11 -32t-16 -9t-22 -5t-45 -5l-35 -8l-22 6q-4 2 -14 3t-21 4q-10 3 -22 4
q-12 2 -21 11q-6 10 -6 26t-1 24t1 16t5 18t3 16q0 7 2 11t9 16q7 11 9 19t-1 19t-3 16l10 41q2 28 -2 38q-4 9 -2 19t17 57l12 37q2 4 0 11q-2 6 -1 12t5 19t4 20l-4 19q10 42 10 83q1 8 11 29t10 37l2 96l20 53q0 10 -1 31t7 47q9 26 11 37v26q6 22 5 34q-1 11 2 19t3 18z
M510 752v-11q-3 -19 -43 -48q-39 -29 -41 -33t-4 -19t-13 -28t-15 -19t-5 -17q-2 -14 -17 -48q-14 -34 -14 -53l-2 -40q0 -8 -7 -32t-5 -37l16 -37v-23q2 -6 10 -17q8 -12 10 -16q3 -4 6 -16t12 -25t34 -29t31 -21t11 -6t13 0q7 1 17 -1t32 -3t29 -3q8 -2 64 16t74 50
q5 8 29 34t39 60q17 37 17 53t10 29q10 14 8 37q-1 22 -1 30l10 33q0 6 1 26t-1 29q-2 8 -8 30q-6 21 -11 41q-6 20 -8 24t-10 10t-10 8l-23 33q-4 2 -11 5t-14 10t-17 8q-11 2 -35 13q-23 10 -27 11l-27 -8q-6 -2 -19 -1t-20 1q-22 -22 -36 0q-13 22 -20 20q-9 -3 -9 -20z
" />
    <glyph glyph-name="c" unicode="c" horiz-adv-x="1036" 
d="M104 585v9q2 6 10 19q7 13 9 19t5 12q3 7 5 14q4 13 17 30q14 17 20 34t29 36q2 4 5 17t14 18q12 5 31 23t31 23q11 5 16 13t9 12q3 2 15 6t23 14t22 9l8 2q4 0 14 10t40 17q30 8 38 8q13 0 23 6q11 6 41 12q31 6 49 3t21 -4q5 -2 13 4t32 1q24 -4 36 -14t39 -15
q25 -5 35 -9t24 -16q16 -13 35 -17q18 -4 27 -14q9 -12 26 -24q18 -12 28 -26q11 -14 34 -34t35 -48v-24q0 -32 -25 -45q-6 -6 -19 -8t-20 -11t-22 -15t-29 -22t-27 -12q-45 17 -51 44q-7 27 -41 69q-10 10 -45 24q-29 16 -35 19l-16 -2q-4 0 -8 -2l-39 4q-6 -6 -14 -6
t-30 1t-40 -4t-50 -28q-38 -29 -45 -32q-7 -4 -26 -26t-28 -44q-8 -21 -25 -41q-16 -19 -20 -32t-5 -42v-47q-8 -16 -8 -31l10 -57q2 -9 2 -25v-25q4 -14 35 -61t73 -50q18 -1 29 -9q12 -7 18 -9t15 1q13 4 35 -3t35 -4l20 8q5 2 25 2q28 0 58 30t46 30q31 20 56 52
q26 32 53 28q38 -19 46 -31q9 -12 16 -23t26 -25q18 -13 27 -36q6 -58 -50 -80q-4 -4 -12 -10t-15 -12t-14 -11q-6 -12 -20 -26q-8 -4 -17 -9t-26 -12t-23 -14q-8 -16 -24 -18q-15 -1 -23 -3t-13 -4t-14 -9q-14 -11 -24 -11h-8l-29 -10l-8 -2q-11 -11 -25 -15l-24 6
q-43 -11 -58 -3q-16 7 -20 8l-27 -11q-28 -1 -36 7t-15 8l-26 -2q-7 2 -21 12t-16 11t-8 2t-10 2t-8 6q-8 8 -25 8t-42 17q-24 17 -38 44q-5 4 -17 13q-20 15 -26 34q-6 20 -12 25q-11 9 -19 29q-7 19 -20 32t-15 35l-8 20q-2 6 -2 22v23q0 11 -10 41l6 43v58l14 39
q2 6 -2 21t-2 23t7 19t7 15t2 9z" />
    <glyph glyph-name="d" unicode="d" horiz-adv-x="1230" 
d="M860 1186q0 56 17 84v39l14 53q2 6 1 23t1 24l8 21q2 4 2 14v13l4 44l-4 29q0 33 35 55q8 5 45 19q4 6 23 0t50 -4q32 2 38 -1l20 -4q61 -3 40 -65q-7 -20 -7 -34t-2 -23q-3 -15 -11 -25t-7 -22q1 -11 0 -16t-5 -16t-6 -18v-39q0 -4 -10 -24v-35l-10 -29q0 -33 -6 -39
q-16 -17 -15 -100l-16 -63v-48q-12 -25 -11 -37t-1 -18t-5 -21t-8 -31q-4 -16 -3 -32t1 -22q-12 -48 -12 -63v-21l-16 -56v-22q0 -4 -4 -12l-7 -14q-2 -6 0 -23q2 -15 0 -23t-7 -19t-7 -19t-1 -25q2 -18 -12 -90t-16 -80t1 -30t-11 -50q-17 -81 -13 -110q4 -40 -6 -54
q-10 -15 -9 -36t1 -30q-6 -55 -45 -69q-6 -2 -12 1t-16 3h-25q-21 10 -33 10t-18 -2t-23 -7q-37 -11 -57 28q-10 18 -22 18t-29 -11q-16 -11 -21 -14q-16 -2 -32 -9t-27 -10t-45 -19q-22 -5 -141 -5q-16 3 -38 13q-21 10 -27 12t-13 1q-16 -2 -33 15t-38 31q-21 13 -30 23
q-8 10 -15 22q-15 26 -28 35q-42 31 -46 86q-1 12 -3 16q0 3 -4 11q-6 11 -6 24v12l-14 82l4 20v25q0 3 6 15l-6 33l4 18q2 2 1 13q-1 10 1 14q16 28 16 46v17q4 13 15 31v14q10 20 10 25l2 12q-1 3 13 25t15 26t3 8t2 9l22 28q2 2 6 11t10 14q7 4 9 6t5 9t6 10t14 15t15 26
q3 12 6 16t28 11t34 23q10 15 17 17l18 2q14 -1 33 13t29 14q13 0 24 7q12 7 49 9t47 -1t15 -3q55 12 76 -2q37 0 60 -14t42 -22q19 -9 35 -24l20 -20q27 -20 41 0q4 2 3 26t-1 29l13 35q0 6 -3 25t7 35t10 22q-10 40 -10 64l16 40v35zM301 324q0 -9 10 -19q2 -6 11 -38
t24 -42q16 -10 29 -21q13 -10 19 -14t20 -5t38 -7t46 -6t48 12t34 13q10 2 14 4t9 6q51 41 54 41q24 30 27 39q4 10 9 17t12 11q6 3 11 11t6 20t11 27t8 35q-3 19 4 30q7 12 9 20t4 11v57l10 35l-10 29v15q0 11 -2 16q-38 113 -172 135l-29 -4l-18 4q-10 0 -27 -13t-31 -15
q-14 -1 -25 -6t-51 -44t-44 -55q-6 -21 -27 -56q-21 -34 -20 -52t-6 -39t-6 -40q1 -18 1 -28q-6 -6 -6 -46l6 -14v-24z" />
    <glyph glyph-name="e" unicode="e" 
d="M784 920q51 0 160 -144q14 -14 20 -23t18 -43q11 -34 18 -46t11 -36q3 -24 8 -38t5 -30v-23l4 -43l-6 -23q0 -4 1 -20t-16 -34q-18 -18 -51 -11l-28 6q-4 0 -21 -2t-31 5t-20 9l-18 -4l-41 2l-31 -8l-31 6q-37 2 -45 0l-20 -6l-23 6q-22 2 -41 -4l-16 4h-66l-16 -4
q-20 10 -37 10l-43 -12l-20 6l-27 -2l-41 2q-33 -4 -45 -21l-2 -14q-4 -10 -4 -14l14 -33q29 -92 92 -123q31 -25 45 -31t58 -10q98 -14 180 23q11 3 25 13q14 11 25 11t38 27q17 6 41 20q24 15 39 15q15 -1 23 -21q9 -20 12 -24q35 -24 49 -51q4 -7 8 -13q45 -48 -8 -72
q-8 -4 -28 -19t-29 -17l-31 -7q-6 -4 -20 -22t-58 -19q-74 -15 -100 -29t-45 -14t-23 -4l-6 -2q-23 -2 -45 0l-19 6q-4 0 -8 -1t-24 -5t-36 0t-22 7q-6 4 -13 6t-23 5t-19 3q-4 0 -16 -3q-15 -4 -38 12t-40 22q-18 6 -37 17t-57 49t-44 47t-12 32q-2 2 -9 8t-21 37
q-13 31 -19 67t-11 54q-5 16 -5 24l6 25q0 8 -1 39q-1 33 8 55q9 23 9 49l2 17q0 6 9 20t7 29q-1 14 1 20l8 19q19 55 28 58t17 19q11 20 22 28t31 41t30 41q11 9 21 13q10 3 16 7l18 12q13 8 15 10t40 26t43 25q6 2 24 5q18 4 26 6q11 4 24 12q14 9 28 14l31 -4l36 4
q37 2 64 0l14 -4q5 0 21 3q18 4 43 -6q24 -10 37 -12q12 -3 18 -5t16 -2zM374 569h48q6 6 20 6l42 -6l36 6q12 2 35 -1t27 -3l32 4q22 -6 29 -5t30 -4t71 0t63 28q4 6 0 22t-4 23v10q-1 4 -21 33q-28 41 -41 41q-23 16 -75 37l-37 14q-17 2 -31 -4t-23 -6l-30 8q-9 0 -23 -8
q-21 -12 -39 -15t-40 -19q-22 -17 -46 -30q-23 -12 -28 -20t-13 -27q-54 -54 -18 -80q4 -4 36 -4z" />
    <glyph glyph-name="f" unicode="f" horiz-adv-x="727" 
d="M330 128q0 -5 -3 -21q-3 -17 -2 -34q4 -68 -46 -83h-19l-33 -4q-14 0 -34 10h-38q-50 0 -57 24q-6 24 -6 41l-6 31l16 55v23l17 59v19l10 24q2 2 2 18v15l6 29l-2 24q5 33 23 88v23q10 30 10 43v31q2 10 10 29q8 18 10 28t7 84l6 16q1 20 -41 6t-54 -6q-25 10 -24 45
l4 21q-2 2 -6 21t-4 28l10 26v10q0 7 2 9l10 23v8q0 25 67 17q67 -7 77 28q8 10 6 54t0 57l10 28q2 8 3 30t3 29t6 15t4 12v60q0 7 7 16v31l10 32q2 6 1 24t1 24l8 26v7q0 9 6 18t6 33q6 10 17 26q10 16 24 43t25 37q11 8 26 18q21 13 26 18t19 5t19 6q4 6 10 8t11 1t12 -1
l18 2q4 -1 13 5t32 6h42q34 0 46 -23q4 -2 1 -17q-3 -16 -3 -18t1 -26t-1 -26q-2 -3 -12 -23v-23l-4 -20q-17 -33 -23 -36t-38 -2q-32 0 -43 -16t-17 -60t-9 -55t-8 -38t-8 -37l-8 -25q-2 -10 -4 -32t-8 -44v-30q-2 -14 -15 -54q-31 -94 35 -94h74q4 0 11 3q17 7 33 -11
q17 -19 4 -54q-15 -41 -15 -76t-18 -46q-18 -10 -31 -10l-62 10l-26 -4q-35 0 -40 -4q-5 -5 -8 -21t-13 -43t-8 -61q3 -36 -3 -56q-6 -19 -27 -145v-76l-14 -39q-2 -12 -4 -62t-7 -64t-5 -20z" />
    <glyph glyph-name="g" unicode="g" 
d="M895 39l-16 -96q1 -23 -9 -38t-12 -19t-2 -10q0 -5 -2 -9t-13 -17q-11 -12 -31 -42t-24 -35q-55 -63 -141 -101q-8 -4 -22 -13q-15 -9 -25 -13t-40 -6t-56 -10t-43 -11l-39 6l-31 -4l-24 10l-39 -4l-29 4q-12 -12 -29 -4l-22 11q-12 4 -27 4t-44 14t-37 15t-13 3l-19 15
q-27 20 -30 30q-18 38 22 73q14 12 18 26t31 32q26 19 48 22t67 -30q6 -4 26 -8q21 -4 52 -20h12q42 0 86 -11l35 9q66 11 84 27t31 22q35 15 57 63q2 2 2 8t2 8t4 7q3 4 7 10t4 12v6q10 20 10 30v28q0 2 3 7t0 14q-10 31 -51 -13q-21 -23 -33 -23t-24 -7t-17 -9t-16 -2
t-16 -2l-33 -8h-28l-25 -6q-20 0 -57 9t-56 8t-39 9t-27 24t-10 18q-3 3 -20 2t-41 20q-13 20 -19 31q-6 12 -22 26q-4 11 -9 21t-10 23t-7 19q-3 6 -11 20q-8 16 -7 28t1 18l-26 55l6 37q-13 25 -2 47q10 21 10 29l-4 25l6 22v51q0 1 10 21v26l15 27q31 92 104 182
q12 23 26 40q15 16 21 18t8 4t10 9t12 11q5 4 20 10q22 9 50 28q28 20 50 20t37 8t35 8t44 6l39 2q5 0 13 -5t13 -6t10 0t11 3t11 2l37 -16h7q9 0 19 -9t22 -13q50 -13 62 -41q4 -11 10 -11t18 22t21 29l13 2q7 0 29 3t48 -3l27 8q2 2 10 1t12 -1t14 1q9 1 18 -1t20 -14
q10 -12 12 -20q2 -7 -2 -23t-3 -24t-8 -26q-9 -19 -8 -39q1 -21 1 -28l-11 -22q-4 -10 -4 -32q0 -30 -7 -44t-8 -36q-1 -26 -7 -41t-6 -19v-37l-7 -14q0 -10 1 -30t0 -30q-1 -8 -8 -25t-9 -31t-2 -30q0 -24 -8 -41t-3 -30q5 -15 -7 -52q-13 -37 -13 -64q0 -26 -3 -35
q-3 -8 -6 -18t-6 -18t-5 -16zM518 741h-22q-18 -9 -22 -13t-12 -5q-27 -8 -87 -84q-2 -4 -10 -9t-13 -9v-7q0 -4 -3 -11t-7 -23t-9 -32t-14 -48q-9 -31 -14 -41q-6 -10 -6 -15v-90l10 -23q0 -5 -2 -27t1 -26t8 -10l16 -24t17 -23q5 -4 13 -8l12 -6t7 -6q4 -4 9 -8t9 -9
q7 -2 17 -1t15 -1t21 -8t21 -6q3 0 21 -3t22 3l29 14q6 2 26 6t28 8q7 5 17 16q12 13 30 23q40 23 47 50t23 47q15 19 16 41t3 28l6 25q0 23 4 37l11 16l-6 33l6 18q3 75 -4 82l-8 8t0 8q1 5 -1 9t-7 13q-5 8 -6 12l-3 12t-5 12t-7 6t-8 5t-7 5q-2 2 -7 10t-8 11q-3 2 -8 2
t-7 2l-27 12q-2 2 -7 1t-9 3q-3 5 -11 7t-17 1t-26 1t-32 -4q-13 -7 -23 -7z" />
    <glyph glyph-name="h" unicode="h" horiz-adv-x="1042" 
d="M536 1589q15 -20 1 -50t-16 -68q-2 -37 -9 -59q-8 -23 -8 -39q0 -17 -12 -68t-12 -71q2 -34 -10 -68q-11 -34 -10 -49q1 -14 -7 -31q-7 -17 -9 -23t1 -16t4 -17l-7 -49q0 -20 -10 -38t-10 -23l6 -19q0 -4 -4 -16t0 -19q10 -23 39 4q5 8 33 19q22 22 30 24l25 -2
q4 0 12 12t25 15q16 2 76 2h61l23 -10h31q28 0 40 -8q74 -47 115 -129q25 -47 24 -52v-45l7 -16q1 -23 -3 -68t-4 -61q-6 -20 -5 -31t-7 -37t-8 -32t-2 -11l-8 -34q-2 -8 2 -24t2 -24l-8 -26q-2 -6 -2 -18v-19q-14 -28 -12 -49q1 -22 0 -28t-5 -19q-4 -12 -4 -17l-2 -24
q0 -7 -10 -37v-37l-4 -37q-3 -25 -9 -30t-19 -7t-21 -10t-23 -8l-35 10l-39 -10l-45 14q-2 2 -12 1q-31 -3 -34 23q-1 7 -1 12l4 30q2 6 1 20q-2 30 12 49v19q2 4 8 15t8 17t1 24q-1 17 -1 24q10 20 10 26l-4 19q10 20 10 29v22q13 26 20 90t10 80t6 24t4 16t2 13q1 3 1 59
t-1 59t-16 30t-30 26q-23 10 -35 15h-22q-26 13 -35 10l-16 -10q-44 0 -68 -18t-30 -28t-13 -12q-2 -4 -11 -8t-16 -11t-10 -13q-4 -5 -11 -11q-12 -10 -15 -23t-19 -40q-16 -28 -16 -41v-25q-1 -16 -11 -27q-10 -12 -10 -16l4 -24q-10 -20 -10 -23v-45l-6 -21l6 -47
l-12 -24q0 -66 -7 -85q-10 -29 -5 -43t-2 -63q-7 -6 -8 -12t-3 -15q-7 -33 -12 -39q-4 -6 -18 -22q-11 -8 -28 -8q-21 0 -40 -11t-38 -6t-23 7q-8 4 -36 12q-46 13 -46 49l8 39v14q0 9 2 13l14 26l-4 31q0 8 5 20q11 28 10 55q-2 26 9 59q11 32 11 46l-4 29q10 40 13 70
q3 31 4 35q0 4 6 16t6 20t2 16t6 19q4 10 5 35q1 36 7 46t6 22v16l4 20v46q8 38 17 63v23q10 20 10 34v62l12 24v43l10 19v51l11 27v22l6 23l-2 26q0 7 5 17t7 18t0 38t0 42l14 49q2 5 1 19t1 18l9 23q0 2 -5 22l11 27q2 8 1 14t-1 15v16l6 30l-4 17q0 20 8 42t43 30
q25 13 42 10q17 -2 22 -2l30 6l26 -4l19 -2q29 0 37 -6z" />
    <glyph glyph-name="i" unicode="i" horiz-adv-x="575" 
d="M160 588q10 10 10 39t4 48t3 39t-1 28t6 14v26l11 23v20q0 12 -2 28t8 30t43 28q4 2 37 -2l22 2q24 -8 31 -8l30 10q35 5 59 -17q23 -22 10 -56t-12 -51t0 -22t-5 -12q-7 -11 -5 -37q2 -25 -7 -41q-9 -15 -10 -23t1 -22q3 -24 -5 -47q-9 -22 -8 -35t-3 -24l-6 -18l2 -19
l-8 -26v-33q-3 -6 -9 -16t-7 -16t2 -18q4 -19 -2 -33q-7 -13 -10 -20t-2 -27t1 -30q0 -8 -6 -30t-5 -30q1 -9 -1 -13l-15 -76l4 -24l-4 -19q0 -2 1 -27t-3 -26q-16 -33 -97 -33q-80 0 -104 6t-32 31v8q0 7 -3 23t-2 21t7 14t7 13t17 97q0 8 -1 24t14 72t13 84q-1 28 11 77
q13 50 12 60t0 16t5 15q4 10 4 14v21zM459 1341q25 1 39 -29t8 -56t-13 -41q-6 -15 -7 -28t-3 -18l-6 -26v-29q0 -12 -11 -27q-10 -15 -36 -19t-32 1q-6 4 -13 8q-6 4 -12 4q-7 0 -13 -4l-9 -6t-20 -1t-21 1t-17 -3q-33 -7 -47 44l-6 27q0 25 9 49t10 44t3 28t2 28t8 28
q8 9 19 11q10 2 14 4l19 8q8 2 23 0t23 -3t37 2q27 3 52 3z" />
    <glyph glyph-name="j" unicode="j" horiz-adv-x="636" 
d="M145 31l17 90v47q2 6 8 18t8 18t0 26q-2 18 0 24t6 12q13 20 8 38t-1 31t5 21t7 29l-2 21q2 4 10 28v45q0 11 3 27l6 32l5 28q2 11 4 44q1 33 5 45q4 13 6 29t4 25l12 30l-2 31l4 14v27l10 39q2 6 -4 26t2 27q13 21 62 21l30 -4q5 0 17 6q13 0 43 -3t42 -2q29 3 40 -30
v-13q0 -13 -11 -20l-2 -18q-6 -11 -14 -45l2 -25q0 -43 -8 -59q-8 -15 -10 -23t0 -31t0 -33q-1 -10 -13 -30t-14 -32t-1 -35q1 -24 -1 -35l-8 -31q-2 -8 -1 -26t-16 -81q-2 -12 0 -37t1 -31t-11 -26v-20l-6 -17q0 -6 1 -18q1 -11 -1 -19q-10 -38 -10 -60l-10 -52
q-4 -29 -5 -31q5 -5 5 -25q-11 -22 -11 -28l-2 -35q0 -4 -2 -10q-2 -5 -3 -11t-2 -10t0 -11t1 -13l-8 -33q-2 -2 -1 -9t-3 -20t-2 -28q2 -14 -1 -24t-19 -40q-16 -28 -18 -38q-3 -10 -8 -19q-6 -10 -20 -14q-14 -5 -18 -7t-12 -9q-17 -15 -46 -15t-46 -5t-43 4t-31 23
q-2 2 -2 18t10 103l-8 31q0 25 20 43t28 27q8 10 11 28q4 18 5 27t5 30t4 36v22zM344 1353q10 7 16 8t19 9t49 8l37 4q2 2 18 1q17 -1 27 -1t28 -7q34 -14 30 -39t-7 -35q-4 -11 -5 -28t-3 -26l-8 -24q-5 -25 -3 -50q2 -24 -16 -40l-20 -11q-24 -16 -88 0l-21 -8
q-72 -17 -84 27q-4 21 -3 35t1 28q0 21 10 32t6 25q-5 15 -5 19l10 35q2 2 2 16q0 15 10 22z" />
    <glyph glyph-name="k" unicode="k" horiz-adv-x="1077" 
d="M512 1458q0 -22 -2 -31l-10 -38q-14 -28 -9 -49t3 -28t-10 -29t-11 -34l2 -28l-2 -23v-51l-16 -29v-34l-11 -35q0 -4 1 -23t-11 -31q0 -2 -12 -65l-8 -31v-30q0 -22 -1 -30t-12 -22v-41l-14 -39q-2 -6 -1 -15t-1 -13q-2 -5 -4 -13t-4 -13q-12 -30 9 -44q2 -2 10 -2t25 17
t43 37t34 29q10 11 25 21q15 9 21 15t20 22q13 16 20 23q6 4 19 8t17 7t8 11q6 16 50 45q4 4 10 19t22 17q23 2 37 9q13 7 21 7h11q8 0 14 -4q64 -3 77 1q13 5 16 5t9 -2h8q100 4 103 -26q0 -10 -10 -25t-13 -18q-2 -3 -3 -6t-4 -9q-2 -6 -20 -10t-28 -11l-18 -14
q-8 -5 -13 -13q-16 -20 -31 -27t-27 -21q-30 -35 -50 -35q-30 -30 -42 -33t-21 -19t-15 -20t-25 -11t-45 -40q-4 -4 -22 -14q-19 -10 -19 -18l23 -65q4 -4 8 -11t9 -14q5 -6 16 -30q12 -24 18 -34t14 -16q8 -7 10 -11l4 -8q2 -3 5 -9q2 -6 4 -10t4 -9q4 -9 31 -48t31 -59
t11 -26t14 -20t10 -18q2 -4 14 -16t14 -17q2 -6 15 -29t13 -30v-8q13 -13 13 -20v-19q-6 -20 -54 -31q-8 -2 -20 1t-46 1t-50 2q-15 4 -26 4h-16q-24 0 -46 21t-27 45t-22 48q-25 36 -25 61q1 24 -17 37t-24 21t-6 25q-4 6 -14 19t-13 26q-4 15 -7 21t-13 18q-16 19 -21 35
t-14 22q-9 2 -17 -5q-8 -8 -36 -25q-28 -18 -34 -30q-7 -11 -7 -50l-4 -31q-2 -4 -1 -16t-2 -26q-4 -13 -6 -37t-4 -33t-7 -25q-5 -17 -5 -23v-11l6 -23q6 -20 -11 -44t-44 -30l-23 8q-5 2 -21 -1t-24 -3t-12 1t-26 -3t-23 -4q-21 10 -31 14t-16 10q-2 6 -2 32v32l10 22
q0 6 -1 36t11 61q13 31 9 43q-5 12 -4 17t5 12q7 12 7 21v11l10 25l-2 18l18 49q0 8 -4 23t6 34t10 42v32q9 36 9 42v44q10 10 10 23l2 53q0 8 8 29t7 32t-1 17q13 40 12 53q-1 14 1 21l4 26l-4 25l16 33q2 8 0 23t2 27q4 11 3 21t-1 15q6 6 6 18v33q0 6 6 15q6 10 5 20
t-1 12l7 14q0 8 -1 28q-1 28 9 43t5 36q-6 28 7 56q14 28 12 53q-2 26 1 54t3 31l11 21l-4 29q0 8 13 22q13 13 3 31t-12 28t20 43q21 25 57 19t41 -6l56 8q23 2 47 -10t24 -28q2 -16 0 -30q-2 -12 -7 -27t-8 -29t-3 -36z" />
    <glyph glyph-name="l" unicode="l" horiz-adv-x="614" 
d="M450 1614h36q8 0 12 -1t10 -2t20 -8t15 -22q0 -14 -11 -51q0 -19 -8 -35q-8 -17 -4 -25t4 -12q-8 -8 -13 -55t-12 -64q-7 -18 -10 -26v-19q0 -14 -6 -26v-37l-10 -25v-39l-4 -16q-2 -4 -1 -11q1 -6 0 -10l-2 -8t-3 -7t-3 -7t-3 -8v-37q0 -4 -5 -12q-4 -9 -6 -17t0 -33
t1 -32t-11 -27v-31q-18 -55 -18 -87t-2 -40t-13 -30l5 -33q0 -9 -15 -39l4 -27q-4 -19 -11 -28t-9 -15l6 -26q0 -17 -6 -23v-49q0 -16 -5 -24t-7 -19q-2 -10 -4 -18t4 -31l-9 -31v-18q-10 -21 -10 -27v-15q0 -5 -4 -23t-3 -36t-1 -24l-14 -66q-2 -6 -1 -18t1 -19l-5 -30
l3 -27q0 -10 -10 -28q-10 -20 -19 -36t-17 -19t-17 -5t-16 -4t-14 -2l-47 2l-28 -2l-29 8l-16 -4q-9 0 -21 11t-16 25t20 126v24q10 30 10 54l-2 26q8 16 15 26t5 32q-1 22 -1 27t3 12q3 8 2 17t5 18q6 8 6 14v16q0 16 5 26t5 13v39l7 16v51l16 35l-4 41l14 60q2 8 -2 22
t-2 23l14 39q2 6 1 22t9 36q11 19 13 30l-4 22q11 22 9 35q-1 14 3 26t3 27q-1 14 -1 21q10 20 10 26v47l11 21q2 4 1 14q-3 25 11 39q4 28 4 74q10 20 10 22l-2 17q2 10 2 30t2 33l15 60q2 9 1 35t-1 38l18 82q0 71 68 64l30 -8l25 8q2 2 24 2z" />
    <glyph glyph-name="m" unicode="m" horiz-adv-x="1570" 
d="M297 57q0 -76 -89 -55q-3 0 -8 -2q-4 -2 -8 -1t-12 4t-12 3l-23 -8q-30 -6 -54 13q-25 20 -21 35q4 16 6 20t2 8l-4 26q-2 12 -2 35q2 5 8 17t8 17t1 18q-1 19 5 33t5 30t9 36t5 35q-4 15 -3 20t5 13t6 14t3 23q1 16 3 25l12 39q2 8 2 23v26l6 12v14q-1 15 5 28t6 20v59
l10 45q2 6 1 17t-1 18q10 30 10 41l2 22l13 54l-9 24q-2 12 16 38t25 28q6 4 17 4l55 -8q9 0 29 6l24 -6q4 0 24 1t26 -2q8 -3 18 -23q22 -43 47 -5q9 14 24 16t21 11q8 4 16 4l43 18q12 6 45 6l25 12q0 2 24 0t25 -2h21q10 -2 28 -12t51 -24q65 -26 99 -89q12 -23 20 -23
t21 19q18 9 28 21q13 16 18 20q6 4 18 16t16 13q4 2 11 4t11 4t14 9q16 11 29 14q14 3 23 7q22 11 43 11q20 10 30 10l54 -10q4 0 12 -8t17 -8t28 8t34 -4q16 -13 29 -15q66 -11 107 -71q4 -4 5 -16t17 -40q15 -28 17 -42l-4 -35l8 -23q4 -37 0 -74l-8 -26v-41l2 -23
l-14 -51v-43q-2 -6 -6 -13t-9 -20q-4 -12 -2 -28q2 -15 1 -21t-7 -19t-8 -38l4 -21l-6 -20v-25l-17 -63v-53l-14 -52q-1 -2 -21 -19t-24 -18t-22 -1t-33 -8q-16 -8 -39 -7q-6 -6 -20 -6t-33 13q-21 13 -25 23t-4 30v47q2 6 8 19q10 22 10 40v23q0 18 15 43v33l10 34v27
q0 12 3 18t2 16t3 18q4 7 10 30l-2 35q0 10 10 30l-4 23l4 18v19q2 4 6 10q3 6 5 13t4 12t2 34v35q0 4 3 16t-14 47q-16 35 -44 38q-10 2 -28 8t-25 6h-11q-4 0 -7 -1t-15 3t-18 4q-5 0 -8 -1q-5 -1 -13 -9t-18 -8h-13q-26 -4 -41 -28q-14 -24 -20 -30q-14 -12 -27 -19
t-22 -41t-13 -42l-14 -27q-4 -10 -4 -32q0 -30 -11 -52l-2 -20v-23q-2 -10 -10 -45t-7 -52t1 -24q-10 -30 -10 -34v-37q-14 -41 -12 -80q1 -39 -1 -53l-10 -25q0 -4 2 -23t-7 -32t-61 -25t-87 -6l-21 8q-6 2 -23 4t-27 14q-9 14 -10 48t1 40t9 20q7 16 9 24t1 21q-2 23 9 36
q11 14 11 51q0 38 6 57t6 27l6 66q0 6 8 18t7 28q-1 17 1 21l9 19q2 2 2 12v12q4 15 4 70q10 20 12 31l-12 62v5q-5 10 -21 20q-21 13 -27 25q-7 12 -40 27q-9 2 -29 2t-26 -2t-15 -8q-11 -8 -18 -8h-7l-28 -21q-28 0 -36 -20t-27 -30q-18 -9 -21 -13q-4 -4 -4 -10t-5 -15
q-5 -10 -9 -16q-4 -7 -7 -11q-2 -4 -1 -9t-7 -17t-8 -19l-8 -43q-1 -8 -7 -15t-8 -10t-3 -7t-3 -9v-67q-6 -20 -7 -38q-1 -23 -9 -43q-8 -21 -10 -28v-33l-11 -30q0 -6 1 -28t-6 -41t0 -45t-1 -48z" />
    <glyph glyph-name="n" unicode="n" horiz-adv-x="1030" 
d="M950 594l-8 -37q0 -8 -2 -14q-12 -37 -14 -75t-9 -53q-6 -15 -6 -24v-53l-12 -49v-49l-10 -27q0 -8 3 -30t-9 -62q0 -13 -9 -25l3 -11v-5q3 -42 -27 -68q-8 -6 -13 -6l-39 2h-55l-30 -12q-6 0 -37 12t-37 31q-7 7 0 23q8 15 8 22v43q12 25 11 39t1 17q1 3 5 11q6 12 6 25
v14q15 44 15 51q1 7 -3 23q-4 17 -2 23t4 10q6 12 6 15v10l10 34q2 5 1 19q-2 21 8 46q10 24 9 45t-1 30l16 41v34q0 66 -19 88q-20 22 -60 35q-40 12 -68 11l-17 -5l-20 5l-43 -27q-12 0 -72 -51q-2 0 -10 -5q-18 -11 -18 -38q-2 -4 -11 -18t-12 -33q-2 -19 -4 -24t-4 -9
q-6 -12 -6 -33q-11 -11 -11 -18v-39l-10 -29q-2 -6 -1 -16t-1 -17l-8 -37q-2 -6 -1 -16t-1 -14l-8 -27q-2 -9 -1 -27t1 -22t-9 -39l3 -31q-2 -12 -17 -45q-2 -8 1 -20t3 -17q2 -43 -24 -73q-7 -11 -22 -11l-70 -10q-43 -6 -54 -6l-22 10q-25 0 -43 27v71l8 23q2 6 2 19v28
q4 25 6 29q0 4 6 13t5 22q-1 14 1 20l15 59v24q0 9 3 15t1 14q-2 7 0 11l12 31v45l10 28q2 14 3 50t12 63q10 28 10 31l-2 16q-2 3 1 11t3 18v53l10 25q2 10 3 31t5 31q4 11 1 16t-7 24t8 36t56 23q17 17 28 12t28 -5h58q42 0 48 -2t16 -20t20 -19l19 8h5q5 0 22 12
q16 12 25 14t52 19t62 15q18 -1 23 -1q4 0 10 2t19 6t68 -10q56 -14 74 -28t39 -35t27 -26t15 -23q10 -18 20 -32q10 -16 15 -32t9 -78l4 -43l-4 -16z" />
    <glyph glyph-name="o" unicode="o" horiz-adv-x="1124" 
d="M569 946h60l22 4l19 -4h35q14 0 22 -3q9 -3 21 -2t17 -1t18 -10t53 -26t53 -30q11 -11 29 -34t23 -29t18 -15q19 -13 25 -35q8 -32 19 -47q12 -16 25 -55v-20q16 -64 15 -73q-1 -8 2 -26t2 -24l-9 -33q0 -4 3 -15t-7 -36q-10 -24 -11 -32t0 -20q1 -13 -1 -20l-6 -24
q-2 -4 -7 -12t-17 -46q-16 -52 -24 -60q-8 -9 -12 -12t-8 -7t-8 -19q-4 -14 -8 -19t-12 -11t-12 -10t-10 -19q-7 -14 -13 -21q-4 -2 -12 -5t-50 -40q-41 -37 -65 -51l-31 -8q-6 -2 -23 -9t-35 -10q-30 -4 -51 -23q-22 -20 -57 -12q-35 7 -43 5l-22 -4l-80 4q-50 0 -56 2
t-22 14t-22 11q-10 -2 -50 20q-40 21 -73 63t-40 62t-19 33q-13 14 -17 20q-2 6 -4 16t-8 28q-5 18 -9 27t-8 15t-4 10v29q-14 82 -10 109l10 31l14 28q-6 27 -4 43l10 24q2 4 1 14q-3 36 33 95q8 12 12 25q4 12 7 16t5 7t5 6q5 5 16 25t34 41q22 21 53 54q48 51 67 53
t38 21q12 8 31 18h10q8 0 19 6t25 9q13 2 17 4l27 8q2 2 7 2l34 12q6 2 13 0t11 -2zM813 430q0 8 6 38t0 90q-6 62 -11 72t-9 14q-4 5 -9 9q-6 3 -12 9q-13 11 -24 28t-39 28q-29 11 -47 21q-18 9 -30 13t-50 -2l-31 2q-2 0 -9 -5t-22 -7q-15 -1 -65 -46q-59 -39 -69 -48
t-17 -34q-39 -51 -44 -63t-8 -37t-5 -30t-8 -17q-7 -12 -7 -19l4 -30l-4 -23l4 -24l-4 -31l16 -37v-25q13 -20 19 -33t11 -22t19 -16q15 -8 19 -10t30 -21t40 -18q14 2 18 0l29 -11q11 0 16 7q32 6 50 5q25 -2 40 13t28 13q13 -1 17 3q9 2 15 12t17 20q11 9 47 49
q36 41 43 57t10 34t5 24t11 18q8 10 9 16t1 14z" />
    <glyph glyph-name="p" unicode="p" horiz-adv-x="1165" 
d="M1087 502q-3 -13 -18 -43l4 -13q2 -41 0 -51q-2 -11 -15 -41q-14 -30 -16 -40q-5 -20 -14 -35q-10 -14 -15 -34q-5 -21 -9 -27t-9 -8q-4 -3 -9 -8t-7 -18q-2 -14 -4 -18q-5 -6 -17 -14t-16 -14l-8 -12q-4 -7 -8 -15q-4 -7 -7 -11t-21 -16t-38 -30q-19 -18 -42 -23
q-23 -6 -31 -13q-11 -10 -20 -10h-9q-43 -14 -50 -15q-6 -1 -14 -5q-32 -17 -80 -4l-24 8q-6 2 -24 -2t-40 6t-26 12t-12 1q-17 -2 -29 16q-4 2 -19 7t-24 13q-10 8 -21 22q-15 21 -20 27q-7 6 -17 6t-10 -27t-6 -43q-14 -38 -14 -118q-3 -15 -8 -35q-5 -21 -4 -33t-1 -18
l-8 -23q-2 -12 -2 -29v-28q0 -8 1 -32t0 -38q-3 -42 -40 -47q-6 -2 -15 1t-14 3t-21 -4t-26 -1q-12 2 -30 16t-30 19q-11 5 -22 14t-28 51l-10 22l10 43v12q0 9 10 29q2 10 3 35t7 48t13 58v52l10 28q0 6 2 8l8 23q2 8 1 30t8 41q10 19 9 41q-1 21 -1 31l16 69v13
q10 20 10 29l-4 35q12 28 13 35t5 19q4 13 0 25t-4 17q11 22 11 23l2 43q0 21 14 63q-10 37 6 53q2 7 0 23t0 24l10 17q2 6 1 19t-1 20l13 45l4 43q5 60 14 69q10 9 12 11t12 2h25l82 2q19 -10 37 -5t25 3q10 -4 22 -24q11 -20 23 -18q13 1 28 11q14 10 86 47q24 8 53 11
t40 5t19 1t20 -3q13 -2 31 1t35 0t28 -3l18 -10q43 -18 85 -51t44 -36t8 -15q7 -12 25 -30t21 -26q3 -6 7 -13t4 -12q1 -5 4 -12q30 -71 19 -122l14 -37l-4 -23v-37zM682 203h6q6 2 12 9q6 6 34 22t41 34t18 26q4 7 7 16q4 14 19 28q23 39 25 50t3 16t1 10q4 4 10 16v23
l6 26q2 11 1 31t-1 27l4 36q0 27 -10 37q0 29 -16 55q-16 27 -21 37q-11 28 -49 41q-9 0 -15 4l-18 12q-14 9 -25 13t-61 -3q-49 -7 -55 -9t-14 -12t-12 -12q-12 -7 -22 -11q-9 -4 -21 -17q-13 -13 -31 -30t-21 -20q-2 -3 -4 -12q-3 -12 -15 -29t-16 -33q-4 -18 -15 -40
t-13 -31t-1 -17t0 -12t-7 -15q-6 -10 -3 -14l9 -25l-11 -22q0 -4 2 -41l-2 -31l11 -19q29 -80 84 -108q2 -2 9 -4t11 -4l21 -8q4 -1 14 -1t38 -6t56 5q29 12 37 12z" />
    <glyph glyph-name="q" unicode="q" horiz-adv-x="1114" 
d="M559 975q30 -10 53 -10q23 1 47 -11q25 -12 49 -20t41 -25q43 -40 60 2q14 36 46 31q13 -2 17 -2h62q49 4 51 3q23 -9 29 -9q20 -10 24 -32t-3 -38t-4 -27q5 -17 -7 -51t-13 -50q-1 -17 -3 -25l-9 -23q-2 -4 -2 -11v-9l-10 -35l4 -39q-4 -18 -13 -53q-14 -53 -12 -77
q1 -25 -9 -54q-11 -29 -6 -45q5 -17 3 -24t-8 -18t-7 -17t0 -17t-8 -29q-10 -18 -9 -23q15 -56 -15 -128q-6 -18 -6 -48q-10 -20 -10 -24l-2 -47q0 -10 -6 -30t-9 -23v-23l-10 -35q-4 -14 -4 -42t-2 -38l-10 -22q-2 -5 0 -23t2 -24q-10 -146 -160 -97l-20 -6q-39 -4 -60 19
q-25 20 -2 96q2 6 2 18t2 19l11 35q10 10 10 45l14 35q5 14 11 44t11 50q7 26 7 55l2 14v6q0 7 -6 13q-12 6 -18 3t-20 -17t-40 -15q-31 -20 -46 -23q-16 -4 -22 -6t-19 -9t-19 -10t-20 -2q-15 1 -36 -2q-20 -3 -58 3t-48 5t-17 1t-25 15q-18 12 -24 15t-16 4q-28 3 -51 38
q-46 41 -51 53l-8 19q-4 7 -26 42t-22 66l2 18l-12 52q-2 8 3 22t5 20t-10 27l2 51v46q0 8 6 23t8 21t1 15q-1 8 0 12t5 10q4 5 5 11t3 19q3 22 13 38q10 15 10 30t2 19q4 4 20 18t25 45q10 31 16 40t46 49q96 90 157 102q15 3 35 15q19 12 47 12q27 0 35 2l31 -2zM342 607
v-9q-4 -6 -9 -15t-10 -17t-9 -23t-2 -21q1 -6 3 -13t-5 -21q-11 -21 -10 -26t-2 -20q-3 -14 -3 -19l4 -30q2 -4 -1 -13q-11 -32 19 -79q2 -4 12 -14t13 -16q2 -7 4 -11q39 -52 82 -48q15 1 36 -6t32 -7l26 8h17q15 0 23 5t28 13q21 8 38 26q16 18 48 46q4 4 6 14q2 11 4 15
t14 19q18 22 21 44t17 56q14 35 13 57t-1 30q10 30 10 36t-10 36l6 21q0 4 -4 11t-7 7q-10 27 -23 41q-12 14 -18 26t-10 17q-8 8 -26 14q-18 7 -32 13q-13 6 -20 8l-20 10h-18l-17 2l-29 -8q-4 0 -16 4t-30 -8t-27 -19q-9 -8 -21 -13t-24 -15q-12 -11 -41 -55
q-31 -48 -31 -53z" />
    <glyph glyph-name="r" unicode="r" horiz-adv-x="815" 
d="M717 770l4 -29l-10 -36q-4 -29 -9 -36t-21 -9t-39 10t-37 15t-20 8q-10 8 -28 12l-39 -15q-4 -2 -14 -2t-14 -3t-9 -8q-4 -5 -8 -11q-11 -16 -27 -26q-17 -10 -22 -32t-17 -34q-12 -13 -14 -19t-2 -13q0 -11 -9 -26t-11 -32t-4 -23l-9 -31l4 -31l-16 -34q0 -12 2 -43
t-3 -45q-5 -15 -5 -21l-6 -72l-8 -55q0 -23 -12 -74t-28 -56q-17 -5 -44 -5t-34 -1t-17 -7q-11 -6 -31 -4l-24 10h-21q-45 9 -45 48l10 40q0 4 -1 13t8 21q9 13 11 20t-1 21q-4 19 5 42t10 44t7 36q6 14 7 20t-3 17t-2 18l20 57q0 12 -1 44t7 48q9 16 9 23l2 39q0 8 10 18
q2 8 0 31t6 42q8 18 10 30t0 44q-3 43 4 61t2 40q9 27 11 43t7 24q5 6 59 12t76 2q23 -5 41 -2t24 -3q16 -8 14 -25l-6 -16q7 -15 16 -17q6 0 15 11t22 14t36 23t48 22q24 2 31 10q8 8 13 12t30 -4l20 7q13 4 31 -6t30 -10q12 -1 17 -7q28 -25 5 -69q-7 -13 -7 -30
q0 -18 -6 -30z" />
    <glyph glyph-name="s" unicode="s" horiz-adv-x="899" 
d="M730 895h13q7 -1 23 -13t29 -17t19 -13q7 -8 8 -22t-2 -22q-3 -7 -36 -34q-4 -4 -7 -14t-26 -39q-24 -29 -31 -31t-13 1t-28 4t-49 26q-27 24 -56 22t-37 -2q-21 11 -27 12t-20 -4t-17 -7q-4 -2 -9 1q-20 8 -48 -15q-41 -34 20 -89q10 -10 16 -17q7 -8 13 -12t12 -9
t25 -11t39 -19q20 -14 23 -16t13 -14t28 -17q17 -6 21 -9t47 -27t67 -52q24 -27 24 -35q0 -12 13 -31t24 -46q10 -49 1 -76q-11 -32 -11 -40q1 -8 -5 -15q-6 -6 -16 -34t-17 -38q-7 -11 -29 -31t-28 -28q-8 -8 -12 -10q-4 -3 -10 -9t-18 -13q-11 -7 -18 -12t-29 -11t-33 -11
q-11 -6 -37 -4t-47 -5t-32 -6t-45 -4t-40 5h-43q-7 0 -37 10q-8 0 -30 -1t-45 11q-22 12 -34 12t-26 6q-18 8 -32 9q-14 0 -32 15t-26 34t20 51q39 45 48 68q9 24 26 36q16 13 32 13t45 -16q30 -16 51 -18q22 -1 36 -13t22 -17l35 4l29 -8l55 4q43 2 50 4t34 24q69 56 2 90
q-7 3 -31 29q-24 25 -41 38t-38 19q-21 7 -34 17q-13 11 -21 15t-24 9q-63 21 -143 101q-2 2 -3 6t-4 8q-3 3 -15 14t-17 17q-4 5 -2 23t1 22t-11 25l10 37q2 6 1 27t10 28q2 4 3 17t12 23q11 11 16 27q7 22 25 24q17 2 22 18t11 22t26 14t38 17q18 10 35 11q16 1 30 10
q13 8 19 8q0 4 31 3l31 -1l22 4l20 -4q48 11 63 3q15 -9 52 -14t43 -8l25 -12q4 -2 13 -2z" />
    <glyph glyph-name="t" unicode="t" horiz-adv-x="665" 
d="M387 464q-4 -13 -4 -97l-6 -70q0 -5 6 -14q6 -43 14 -55q9 -12 49 -29q40 -16 41 -31q2 -8 -2 -32t-3 -42t1 -28q-10 -30 -14 -51t-13 -24q-10 -3 -24 -2t-20 1l-29 -8l-23 2l-16 -2q-16 3 -38 13q-21 11 -41 16t-29 18q-9 12 -17 16q-45 45 -51 65t-16 44q-10 22 -13 36
l6 29q0 4 -1 37t6 46q8 12 10 18t1 15t5 29t10 30q4 11 2 42t-2 41l10 29q2 2 1 17t-1 19t7 17v27l16 43l-6 28q10 9 10 19t-8 18t-12 8q-3 0 -15 -6t-15 -7t-9 0t-27 0t-41 11q-8 6 -8 35l-2 27q0 14 6 20v54q0 19 22 32q22 14 29 15l39 -6l27 6l24 -2q18 0 21 10l2 22
l4 19q-9 26 -4 47l10 29q0 8 -1 30t4 43q5 22 14 60q10 39 14 57q-12 43 -2 61q10 19 51 44q21 21 45 30q23 9 31 15t13 11q21 21 28 22q7 2 21 9q48 24 61 -7q12 -30 9 -47t-9 -23q-5 -6 -5 -11v-8l-24 -53q-2 -5 0 -27t0 -36t-9 -20q-13 -13 -10 -39q2 -26 -4 -48
q-6 -23 -6 -49t-10 -37q0 -20 -6 -41q-29 -50 3 -63q5 -2 8 -2l20 4h26q17 0 35 -6q37 -2 39 -25q0 -4 -5 -26t-4 -28q2 -12 -5 -23t-6 -31q3 -53 -31 -56q-4 -2 -45 10h-33q-31 8 -41 -3t-11 -38t-3 -28l-15 -41q6 -23 5 -32q-1 -10 -2 -28t-6 -30t-5 -19z" />
    <glyph glyph-name="u" unicode="u" horiz-adv-x="1036" 
d="M371 696l-13 -36v-11q-2 -2 -8 -18t-6 -27q-4 -10 -2 -35t0 -34l-10 -23v-27q-10 -30 -10 -36l-7 -64q0 -6 -6 -12l-4 -49q-8 -8 -8 -19l18 -49v-12q23 -46 39 -47t32 -13t24 -14t24 2t19 4l24 -2l45 21q27 10 32 15q6 6 26 28q21 23 32 35t12 15t3 7t5 15t6 18q3 6 5 11
t5 11t5 17q2 12 3 22t10 26q11 20 9 43q-1 23 8 48t8 47t-1 31l10 28q2 6 1 24t-1 20q0 4 7 18q0 6 1 12t2 13t2 11t0 14q-1 9 3 23t3 26q-1 11 -1 18l4 16q2 61 20 75t56 17l41 -6l32 6l29 -6q63 5 66 -33q-1 -23 -9 -40t-7 -24t-8 -45t-9 -50t-4 -30t-3 -40t-6 -39
q-8 -16 -9 -22t-1 -10q0 -5 -1 -9q-3 -12 -8 -19t-9 -14l6 -51l-10 -37q0 -4 3 -17t1 -21t-11 -21q-10 -13 -12 -23t1 -34t1 -33l-10 -23q-6 -24 -6 -47q-3 -9 -16 -61l6 -37q0 -18 -17 -62q-1 -43 -25 -50t-30 -6t-14 3t-15 2l-20 -6l-66 6q-2 2 -23 -1t-34 19
q-14 23 -20 23l-17 -12q-4 -2 -14 -4l-15 -5t-11 -4t-14 -7t-35 -5t-45 -14t-29 -16t-30 2q-21 5 -42 3q-20 -3 -26 -1t-53 20q-48 18 -54 22t-56 54t-55 98q-2 4 0 14t2 15l-12 30q-6 22 1 43t9 28t8 23t6 35q0 18 -1 44t1 31t6 12t6 11t0 17q-2 18 8 43q9 25 8 42
q-1 16 -1 22t6 18v41q6 22 4 42q-3 33 17 60v26q0 11 6 26q0 23 -6 48t11 41q17 17 40 17l37 2q12 0 24 5t26 0t32 -5q16 0 32 3t23 -1q23 -8 22 -53q0 -10 -10 -31t-10 -57l-10 -47z" />
    <glyph glyph-name="v" unicode="v" horiz-adv-x="1044" 
d="M369 648l10 -38v-20q0 -2 13 -26q14 -24 14 -40q0 -18 4 -32t13 -26t10 -20q5 -38 22 -38q4 2 11 13q6 11 22 33t27 42q11 19 18 26q8 6 9 9q0 3 22 39t30 48q13 19 17 40q5 21 17 25q11 5 24 18t34 59q21 47 23 57t6 19q5 10 31 24t61 14l24 -4l29 7q10 0 28 -3l27 9
q13 1 31 -9t22 -19q13 -33 -11 -65q-9 -13 -11 -26q-2 -12 -15 -26q-13 -15 -17 -20t-5 -13q-2 -7 -5 -13t-16 -16q-14 -10 -18 -13t-6 -11t-5 -11q-3 -4 -12 -14q-9 -11 -14 -19t-13 -20t-16 -30q-9 -18 -33 -51q-23 -32 -26 -42t-13 -22q-14 -17 -17 -30t-24 -36t-23 -27
l-5 -10t-15 -16t-14 -26t-16 -29t-19 -31q-7 -27 -21 -34q-14 -8 -19 -23t-16 -32q-13 -16 -15 -19t-8 -14q-10 -19 -23 -26q-12 -7 -12 -16q0 -8 -2 -12t-7 -15q-5 -12 -7 -17t-11 -24t-20 -28q-10 -9 -15 -16q-33 -47 -62 11q-4 12 -14 23q-9 12 -9 18l2 35q-2 8 -10 20
t-12 34t-11 35q-6 13 -6 24l-2 28q0 10 -8 16q-8 5 -8 11q-15 19 -15 31t-1 15t-6 12t-7 15t-1 12q1 7 -7 24t-11 31q-3 21 -11 34q-9 13 -9 29q-4 12 -10 24l-31 56q-2 8 -1 26t-1 27q-14 28 -17 36t-10 20q-12 21 -12 42l-2 25q-2 8 -12 23q-11 15 -13 21t-2 11
q0 10 -9 19t-7 25q2 17 -8 40q-11 23 4 39q16 14 40 16t32 4t14 4t39 -6q33 -6 45 -6l29 4q6 0 21 -11t20 -47q6 -36 8 -44t6 -15t8 -15t6 -13q2 -6 1 -18t0 -19t8 -16q8 -11 8 -24z" />
    <glyph glyph-name="w" unicode="w" horiz-adv-x="1556" 
d="M901 549v-6q2 -4 3 -10t5 -15q4 -10 7 -20q2 -10 6 -20q8 -22 10 -26q2 -2 3 -6t2 -7t1 -16t10 -13q20 -6 26 1t13 23q6 16 19 25q2 4 3 8t4 13t19 28q16 20 28 38t31 51q19 34 26 41t13 24q7 18 10 23t10 12t11 13t8 13l19 35q11 20 23 49q12 28 34 43q0 2 13 2h14l47 6
l35 -6l34 6l29 -4q41 4 49 -6q25 -20 15 -53q-3 -3 -15 -19q-3 -14 -21 -35q-17 -22 -33 -48t-31 -40t-19 -22q-4 -9 -13 -19t-13 -15t-5 -13q-2 -8 -10 -20t-19 -27q-12 -15 -18 -26t-6 -17q-5 -20 -20 -33t-17 -25t-20 -29q-19 -17 -30 -40t-27 -40q-15 -17 -18 -25
t-9 -23q-5 -17 -11 -23t-16 -14q-15 -12 -17 -25t-7 -19q-5 -4 -7 -8q-4 -7 -4 -15q0 -7 -14 -25q-13 -19 -17 -22t-5 -7t-3 -7t-4 -10t-5 -11q-3 -5 -15 -16q-18 -16 -25 -42t-26 -45q-3 -4 -5 -12q-12 -42 -49 -50q-23 -5 -28 9q-6 14 -10 21q-5 12 -8 25t-13 33v14
q0 9 -12 37t-10 42q1 13 -5 27q-6 13 -5 22t-5 23q-6 13 -5 23t-1 13l-14 37q0 2 2 8v6q-1 22 -7 27q-12 9 -25 66t-24 69q-6 33 -17 36t-22 -20q-4 -4 -5 -18t-15 -25q-14 -12 -19 -22t-18 -24q-12 -13 -15 -20t-4 -12q0 -5 -4 -9q-11 -14 -21 -24q-11 -10 -15 -20l-10 -25
t-11 -23q-4 -8 -16 -19q-37 -37 -46 -72q-9 -34 -15 -38q-24 -16 -35 -44q-2 -2 -3 -10t-11 -24t-20 -38q-11 -22 -21 -35t-33 -11q-23 3 -39 39t-17 42l-2 39q0 4 -2 8q-2 5 -4 9q-12 27 -13 60q-1 34 -19 67q-17 33 -17 53t-2 26l-6 23q-2 4 -8 11t-7 19v15q-2 6 -3 13
t-4 17t-4 14q-1 5 -8 13t-8 22q-1 13 -11 38t-12 43q-1 19 -13 46q-12 28 -14 34t-2 18q1 12 0 16t-9 20t-12 33q-4 18 -7 24q-3 5 -6 11t-11 19q-8 12 -10 31q-3 18 -5 24l-8 25q-2 45 4 50t17 6t26 11t39 4t30 -7t20 2q13 3 19 1l23 -14q4 0 6 6t7 10t19 -4q26 -15 27 -55
q1 -3 13 -33l8 -24v-14q0 -9 2 -13l14 -47v-35l25 -76q2 -2 2 -8v-9q10 -19 12 -29q3 -15 9 -24t6 -22q0 -12 4 -25t6 -22q4 -29 22 -26q10 0 20 11q9 11 9 13q53 50 59 77t23 43q18 15 24 23q27 47 29 51t6 9q7 7 10 20q3 12 16 28q13 17 31 50t30 46q12 12 12 30
q4 3 18 35t17 38t20 11q60 18 72 -86q2 -20 10 -39q7 -19 5 -36q-1 -17 9 -50t20 -47t13 -23l-4 -26l12 -29q2 -4 2 -8z" />
    <glyph glyph-name="x" unicode="x" horiz-adv-x="1116" 
d="M601 668q7 0 15 14q4 10 16 24t17 21q4 6 17 16t17 19q3 8 6 13t13 13q12 8 17 19t20 29q17 18 21 23t9 17q13 30 45 29l40 -2q12 6 29 6l26 -4q5 0 11 2t10 3t12 0t12 1l21 4l20 -2q3 -2 13 -1q20 2 32 -15q10 -20 -14 -49q-6 -12 -11 -20t-7 -11q-5 -5 -19 -10
q-28 -11 -50 -52q-23 -40 -37 -48l-20 -12t-12 -6t-21 -29t-23 -30q-10 -4 -12 -9q-3 -5 -7 -16q-5 -14 -34 -37t-33 -35q-4 -13 -13 -21q-20 -17 -19 -38q1 -22 15 -36q2 -8 6 -27t23 -40q20 -21 33 -44t19 -31l9 -12q18 -22 18 -42q5 -4 9 -10t11 -16q7 -9 13 -29
q5 -20 20 -33q14 -13 19 -21q4 -2 8 -7q4 -6 11 -10t10 -20q4 -16 10 -30q15 -35 -4 -52q-8 -4 -48 -9t-42 -5l-21 6q-12 2 -48 0q-66 -4 -87 51v13q0 14 -11 24q-16 15 -18 32q-2 18 -17 37t-44 77t-38 64q-9 5 -14 5q-10 0 -13 -13t-29 -44q-27 -32 -38 -49t-24 -25
q-14 -21 -21 -33t-23 -33q-17 -22 -24 -32q-44 -62 -71 -70q-29 -8 -69 -5t-52 3l-45 -10q-1 0 -31 9t-35 17t-4 24q1 15 9 24q24 12 28 17t12 19t13 21q24 16 48 42t29 34t9 15t21 20t21 24q5 12 18 24t19 18q5 6 13 20q9 14 15 20t20 14q24 14 30 23q5 9 5 23q9 16 27 25
t34 -1l-4 37q0 4 7 14t3 23q-4 12 -20 34t-20 29q-7 14 -22 27q-15 14 -19 31q-4 18 -9 31q-6 14 -20 30q-20 24 -33 59q-13 36 -51 76q-37 41 -31 60q6 31 60 32l67 2l47 -10q4 0 28 2t34 -4t18 -26q8 -19 14 -28q7 -9 19 -39t15 -35t7 -13t8 -13q5 -5 29 -43
q25 -38 32 -38z" />
    <glyph glyph-name="y" unicode="y" horiz-adv-x="1048" 
d="M270 918q14 2 25 2q12 0 32 -18q19 -18 19 -50q0 -33 6 -45t6 -16l-2 -31q0 -22 8 -31q8 -10 7 -14v-41q0 -6 6 -33l8 -36q2 -9 1 -20q-1 -15 11 -40q6 -23 6 -31l-4 -22q10 -20 8 -43q-1 -23 1 -26t3 -11t2 -12t5 -8q4 -5 5 -9t0 -15t1 -16q18 -22 25 -25t12 8
q10 24 12 29q2 4 7 16t19 29q13 16 19 39t17 38q11 16 13 20t1 11q0 7 5 17q7 14 15 24q7 12 10 22t5 15t11 14t11 13t3 10q1 5 3 9t3 8t9 18t15 41t17 45q11 19 24 50t33 51q11 43 25 52q15 9 39 8t44 -1h27q25 -2 64 5t58 -21q18 -28 -13 -54q-16 -16 -19 -31
q-2 -14 -16 -31q-14 -16 -23 -40t-20 -36q-11 -11 -15 -16t-6 -15q-3 -17 -19 -44q-15 -26 -18 -35q-2 -9 -4 -21q-3 -20 -25 -40q-21 -19 -38 -65q-17 -47 -34 -68q-17 -20 -25 -35t-15 -38q-6 -23 -15 -35t-12 -23q-2 -12 -4 -18l-20 -23q-31 -35 -31 -47t-1 -14t-7 -19
t-15 -30q-14 -20 -14 -39t-20 -27q-20 -9 -18 -22q1 -14 -1 -21l-12 -20q-2 -4 -4 -16t-4 -17q-2 -6 -9 -17q-7 -10 -9 -14t-4 -9q-1 -5 -3 -9t-3 -7t-10 -12t-9 -17v-9q-7 -13 -17 -29t-15 -32t-20 -28q-28 -19 -28 -40t-17 -30t-30 -13q-2 -4 -6 -8q-4 -5 -8 -9t-7 -5
q-4 -1 -14 -3q-16 -3 -32 -17t-32 -11q-16 4 -54 -4t-52 -6q-15 2 -33 12q-18 12 -20 22l6 39l-6 33l10 24q2 6 2 16v13q4 18 20 41q4 14 32 11t44 3t31 24q14 18 22 25q9 9 11 13q7 12 14 39q2 0 12 15q10 14 12 24t0 23t-4 19t0 30q2 29 -8 42q-11 13 -6 27t-5 41
q-9 28 -10 38t1 28t0 26t-7 18t-7 18t-4 24q-2 27 -8 40q-7 13 -8 29q-1 20 -10 47t-6 64q3 36 -20 77l-14 27l6 23l-6 18v31l-14 26q-7 35 -7 60q-16 48 -16 54v10l-8 37q0 39 24 45q14 4 18 5q4 2 49 5q46 2 60 4z" />
    <glyph glyph-name="z" unicode="z" horiz-adv-x="1040" 
d="M518 8q-12 4 -96 4l-27 6h-28q-11 -6 -59 -6h-138q-8 -8 -14 -10t-38 3t-42 34q-8 16 -2 53l10 21q0 55 20 76q20 22 41 36q20 14 49 43t36 42q11 21 46 45q34 23 49 41t27 25t23 34q6 8 18 19q13 12 17 16t10 12q8 11 26 20t24 17q5 8 8 12t5 7t9 9q8 5 26 25t26 26
t22 20q15 13 22 17q26 29 24 37t-22 16t-41 1l-27 -9q-43 4 -47 5l-18 -5l-27 7q-33 -11 -41 -11l-41 2l-37 -10q-4 0 -10 4t-9 5t-9 -3t-9 -4q-39 -11 -59 25q-4 6 -4 15l8 42q2 6 2 16t10 41q-10 45 23 58q34 14 58 11t124 -3t120 -2t26 -1t11 2t9 1q6 -6 23 -6l34 6
l37 -6l29 10q15 4 35 -10q2 0 16 3t70 3l39 4l24 -4q49 -8 56 -43q5 -14 -7 -32t-13 -21q-1 -4 -2 -30t-7 -37t-22 -21q-16 -11 -22 -15q-7 -6 -17 -19t-40 -39q-29 -26 -37 -42q-9 -15 -31 -32q-33 -25 -37 -36q-4 -12 -17 -23t-16 -15t-6 -5q-9 -6 -19 -16t-22 -15
t-32 -34t-50 -48q-29 -20 -49 -45q-19 -26 -27 -32t-25 -15q-17 -8 -23 -20t-16 -24t-10 -13q9 -21 42 -14t52 4q54 -16 90 2h55q13 0 17 4l24 -2l47 2l21 -4q6 -2 18 0t24 2t36 -15q25 -15 16 -42l-10 -19v-61q0 -6 -6 -12t-8 -14t-7 -12q-4 -5 -7 -10t-5 -7q-2 -3 -5 -7
t-8 -6t-11 -6t-30 1t-31 5t-20 -6q-14 -6 -20 -4t-17 9t-18 7l-20 -6l-47 2q-33 -2 -37 -2z" />
    <glyph glyph-name="dieresis" unicode="&#xa8;" horiz-adv-x="780" 
d="M293 1341q25 1 39 -29t9 -50t-10 -35l-7 -21t-3 -19t-4 -18l-6 -26v-29q0 -12 -11 -27q-12 -15 -38 -19t-38 5q-12 8 -17 8q-6 0 -12 -4q-5 -4 -9 -6t-21 -1t-21 1t-17 -3q-33 -7 -47 44l-6 27q0 25 9 49t10 44t3 28t2 28t8 28q8 9 19 11q10 2 14 4l19 8q8 2 23 0t23 -3
t37 2q27 3 52 3zM626 1341q24 0 40 -29q19 -40 -5 -97q-8 -20 -8 -30q0 -11 -2 -16l-6 -26v-29q0 -12 -11 -27q-10 -15 -36 -19t-32 1q-6 4 -13 8q-6 4 -12 4q-7 0 -13 -4l-9 -6t-20 -1t-21 1q-8 0 -20 -3q-30 -7 -44 44l-6 27q0 25 9 49t10 44t3 28t2 21q0 41 22 45
q15 3 19 5l19 8q8 2 23 0t23 -3t36 2t52 3z" />
    <glyph glyph-name="Agrave" unicode="&#xc0;" horiz-adv-x="1603" 
d="M1212 1118l27 -74v-10q17 -35 16 -48q-2 -13 3 -22q8 -12 8 -26v-14q2 -6 16 -30t11 -52q-2 -28 11 -47q13 -17 15 -23t1 -18t1 -13l4 -24q2 -2 3 -6q1 -5 3 -9q4 -9 4 -16q-1 -8 15 -40t16 -51t3 -27t10 -23q7 -17 13 -33t8 -28q5 -19 5 -46q13 -27 27 -65q0 -31 9 -49
q13 -27 12 -34q-1 -8 7 -25t13 -37l14 -43v-9q26 -52 26 -67q-1 -15 3 -33t6 -30q5 -30 -25 -38q-29 -8 -96 -8l-65 -2q-27 0 -56 18l-4 8t-4 9q-2 4 -2 8q-23 35 -25 41t-1 17t-1 16l-14 43l4 22q0 6 -6 16t-6 24t-4 24l-9 20q-6 18 -6 32q0 26 -22 76t-21 71q0 20 -2 25
t-24 26t-72 6q-5 -2 -17 -1t-16 -1l-41 -4q-4 0 -16 3q-11 3 -19 0t-12 -3l-22 4q-25 -6 -50 -4l-34 6q-40 -14 -61 -8t-29 7t-20 -2q-13 -3 -19 -3h-68q-25 0 -30 -3t-10 -25t-22 -28q-36 -47 -45 -90q-4 -8 -14 -18t-23 -40q-14 -30 -17 -35t-9 -12t-18 -32t-14 -33
q-3 -8 -6 -12t-5 -8t-5 -8t-12 -30t-29 -49q-25 -30 -37 -51q-12 -20 -22 -20q-13 0 -26 -8t-29 -8q-30 10 -39 10q-53 -12 -75 -5q-23 7 -43 9t-29 10q-23 25 10 78q10 10 14 20t10 20t16 22q17 21 17 32q11 10 31 46t32 54q11 18 19 28q7 8 11 14t6 12t7 16t8 14t5 7
q2 4 5 11t21 27t20 37q3 18 20 38q18 18 22 26t7 21q4 19 19 32t15 31q23 23 25 29q16 46 26 55q14 12 29 45t22 38t10 9t10 10t10 19q3 18 28 50q24 32 34 54l15 36q6 13 10 24q4 4 14 13t19 42q18 18 25 32q8 17 14 23t7 13t12 17q10 9 13 15t3 14t11 22q11 15 20 31
q8 17 12 21q0 6 5 10t7 8l4 6t4 7t8 15t11 24q4 4 12 11t10 13q4 2 3 13t10 21q14 12 21 29q6 18 20 33q13 15 15 29q1 15 4 19q8 12 13 15q6 4 10 20q4 15 18 24q13 9 17 32q5 28 19 42t14 35q1 0 19 18t30 19q12 2 35 -16t23 -33t1 -17t5 -8q4 -7 4 -37t1 -34t11 -23
q0 -41 17 -58v-14l16 -55q0 -6 -1 -18t2 -26t17 -54q15 -40 17 -46t5 -21t13 -34t10 -27v-10zM842 918v-9q-6 -12 -20 -30q-21 -29 -23 -44t-17 -28q-14 -13 -22 -31t-19 -34t-2 -33q9 -16 60 -2q15 -5 61 -5l14 -6l31 6h92q23 7 37 3t21 -3q22 9 28 14t7 15l-13 57
q0 14 -9 41l-11 33v12q0 11 -9 33q-10 21 -12 29t-1 18q1 14 -9 30t-11 20t-1 24t-10 31q0 36 -14 47q-37 32 -55 -28q-5 -14 -21 -34t-34 -54q-16 -34 -25 -46q-13 -18 -13 -26zM860 1940q0 16 -14 24t-18 15q-3 7 -6 11q-5 5 -12 8q-7 4 -12 15q-6 13 -12 19t-4 21t27 11
h41q4 0 21 -3t49 6t47 -9t24 -22q8 -5 11 -14q5 -13 18 -24t18 -30q6 -10 10 -13t10 -14q5 -12 9 -15t12 -11t13 -10q0 -3 7 -9t18 -22t13 -14q3 -15 15 -27t14 -18l6 -5q3 0 6 -7q1 -7 3 -11t4 -7t8 -10t11 -15t-6 -16q-11 -7 -34 -1h-41l-29 -4l-24 4q-21 -6 -29 -2
t-19 17q-11 12 -17 18l-9 9q-2 3 -3 8t-4 8t-12 10q-8 7 -12 11t-9 12q-5 9 -8 12t-9 7q-12 8 -17 27q-21 28 -33 36t-18 11q0 2 -4 10v3z" />
    <glyph glyph-name="Aacute" unicode="&#xc1;" horiz-adv-x="1603" 
d="M1212 1118l27 -74v-10q17 -35 16 -48q-2 -13 3 -22q8 -12 8 -26v-14q2 -6 16 -30t11 -52q-2 -28 11 -47q13 -17 15 -23t1 -18t1 -13l4 -24q2 -2 3 -6q1 -5 3 -9q4 -9 4 -16q-1 -8 15 -40t16 -51t3 -27t10 -23q7 -17 13 -33t8 -28q5 -19 5 -46q13 -27 27 -65q0 -31 9 -49
q13 -27 12 -34q-1 -8 7 -25t13 -37l14 -43v-9q26 -52 26 -67q-1 -15 3 -33t6 -30q5 -30 -25 -38q-29 -8 -96 -8l-65 -2q-27 0 -56 18l-4 8t-4 9q-2 4 -2 8q-23 35 -25 41t-1 17t-1 16l-14 43l4 22q0 6 -6 16t-6 24t-4 24l-9 20q-6 18 -6 32q0 26 -22 76t-21 71q0 20 -2 25
t-24 26t-72 6q-5 -2 -17 -1t-16 -1l-41 -4q-4 0 -16 3q-11 3 -19 0t-12 -3l-22 4q-25 -6 -50 -4l-34 6q-40 -14 -61 -8t-29 7t-20 -2q-13 -3 -19 -3h-68q-25 0 -30 -3t-10 -25t-22 -28q-36 -47 -45 -90q-4 -8 -14 -18t-23 -40q-14 -30 -17 -35t-9 -12t-18 -32t-14 -33
q-3 -8 -6 -12t-5 -8t-5 -8t-12 -30t-29 -49q-25 -30 -37 -51q-12 -20 -22 -20q-13 0 -26 -8t-29 -8q-30 10 -39 10q-53 -12 -75 -5q-23 7 -43 9t-29 10q-23 25 10 78q10 10 14 20t10 20t16 22q17 21 17 32q11 10 31 46t32 54q11 18 19 28q7 8 11 14t6 12t7 16t8 14t5 7
q2 4 5 11t21 27t20 37q3 18 20 38q18 18 22 26t7 21q4 19 19 32t15 31q23 23 25 29q16 46 26 55q14 12 29 45t22 38t10 9t10 10t10 19q3 18 28 50q24 32 34 54l15 36q6 13 10 24q4 4 14 13t19 42q18 18 25 32q8 17 14 23t7 13t12 17q10 9 13 15t3 14t11 22q11 15 20 31
q8 17 12 21q0 6 5 10t7 8l4 6t4 7t8 15t11 24q4 4 12 11t10 13q4 2 3 13t10 21q14 12 21 29q6 18 20 33q13 15 15 29q1 15 4 19q8 12 13 15q6 4 10 20q4 15 18 24q13 9 17 32q5 28 19 42t14 35q1 0 19 18t30 19q12 2 35 -16t23 -33t1 -17t5 -8q4 -7 4 -37t1 -34t11 -23
q0 -41 17 -58v-14l16 -55q0 -6 -1 -18t2 -26t17 -54q15 -40 17 -46t5 -21t13 -34t10 -27v-10zM842 918v-9q-6 -12 -20 -30q-21 -29 -23 -44t-17 -28q-14 -13 -22 -31t-19 -34t-2 -33q9 -16 60 -2q15 -5 61 -5l14 -6l31 6h92q23 7 37 3t21 -3q22 9 28 14t7 15l-13 57
q0 14 -9 41l-11 33v12q0 11 -9 33q-10 21 -12 29t-1 18q1 14 -9 30t-11 20t-1 24t-10 31q0 36 -14 47q-37 32 -55 -28q-5 -14 -21 -34t-34 -54q-16 -34 -25 -46q-13 -18 -13 -26zM945 1810q3 0 6 6t14 16q10 11 14 28q2 -2 13 14t15 19q3 3 6 7t6 5q3 2 6 5q3 2 8 6t9 11
q4 2 13 16l9 14q1 1 8 17t18 25q12 10 15 18q3 7 5 11t9 9t8 5t9 9q20 24 81 11q4 -4 21 -1t22 3h40q25 4 27 -11t-3 -21t-7 -10l-3 -6q-5 -14 -17 -20q-12 -5 -14 -13q-3 -7 -5 -10t-11 -8q-18 -10 -18 -25v-3q-3 -13 -17 -20t-38 -37q0 -14 -11 -22q-18 -14 -24 -25
t-33 -33q0 -11 -10 -20q-10 -8 -25 -27t-44 -10l-25 -4l-29 4h-41q-23 -6 -36 3t18 40q0 8 4 16t7 8z" />
    <glyph glyph-name="Acircumflex" unicode="&#xc2;" horiz-adv-x="1603" 
d="M1212 1118l27 -74v-10q17 -35 16 -48q-2 -13 3 -22q8 -12 8 -26v-14q2 -6 16 -30t11 -52q-2 -28 11 -47q13 -17 15 -23t1 -18t1 -13l4 -24q2 -2 3 -6q1 -5 3 -9q4 -9 4 -16q-1 -8 15 -40t16 -51t3 -27t10 -23q7 -17 13 -33t8 -28q5 -19 5 -46q13 -27 27 -65q0 -31 9 -49
q13 -27 12 -34q-1 -8 7 -25t13 -37l14 -43v-9q26 -52 26 -67q-1 -15 3 -33t6 -30q5 -30 -25 -38q-29 -8 -96 -8l-65 -2q-27 0 -56 18l-4 8t-4 9q-2 4 -2 8q-23 35 -25 41t-1 17t-1 16l-14 43l4 22q0 6 -6 16t-6 24t-4 24l-9 20q-6 18 -6 32q0 26 -22 76t-21 71q0 20 -2 25
t-24 26t-72 6q-5 -2 -17 -1t-16 -1l-41 -4q-4 0 -16 3q-11 3 -19 0t-12 -3l-22 4q-25 -6 -50 -4l-34 6q-40 -14 -61 -8t-29 7t-20 -2q-13 -3 -19 -3h-68q-25 0 -30 -3t-10 -25t-22 -28q-36 -47 -45 -90q-4 -8 -14 -18t-23 -40q-14 -30 -17 -35t-9 -12t-18 -32t-14 -33
q-3 -8 -6 -12t-5 -8t-5 -8t-12 -30t-29 -49q-25 -30 -37 -51q-12 -20 -22 -20q-13 0 -26 -8t-29 -8q-30 10 -39 10q-53 -12 -75 -5q-23 7 -43 9t-29 10q-23 25 10 78q10 10 14 20t10 20t16 22q17 21 17 32q11 10 31 46t32 54q11 18 19 28q7 8 11 14t6 12t7 16t8 14t5 7
q2 4 5 11t21 27t20 37q3 18 20 38q18 18 22 26t7 21q4 19 19 32t15 31q23 23 25 29q16 46 26 55q14 12 29 45t22 38t10 9t10 10t10 19q3 18 28 50q24 32 34 54l15 36q6 13 10 24q4 4 14 13t19 42q18 18 25 32q8 17 14 23t7 13t12 17q10 9 13 15t3 14t11 22q11 15 20 31
q8 17 12 21q0 6 5 10t7 8l4 6t4 7t8 15t11 24q4 4 12 11t10 13q4 2 3 13t10 21q14 12 21 29q6 18 20 33q13 15 15 29q1 15 4 19q8 12 13 15q6 4 10 20q4 15 18 24q13 9 17 32q5 28 19 42t14 35q1 0 19 18t30 19q12 2 35 -16t23 -33t1 -17t5 -8q4 -7 4 -37t1 -34t11 -23
q0 -41 17 -58v-14l16 -55q0 -6 -1 -18t2 -26t17 -54q15 -40 17 -46t5 -21t13 -34t10 -27v-10zM842 918v-9q-6 -12 -20 -30q-21 -29 -23 -44t-17 -28q-14 -13 -22 -31t-19 -34t-2 -33q9 -16 60 -2q15 -5 61 -5l14 -6l31 6h92q23 7 37 3t21 -3q22 9 28 14t7 15l-13 57
q0 14 -9 41l-11 33v12q0 11 -9 33q-10 21 -12 29t-1 18q1 14 -9 30t-11 20t-1 24t-10 31q0 36 -14 47q-37 32 -55 -28q-5 -14 -21 -34t-34 -54q-16 -34 -25 -46q-13 -18 -13 -26zM1370 1791q0 -7 2 -10t4 -7t5 -8q10 -11 3 -22t-38 -7h-41l-29 -4q-8 0 -16 4h-9
q-22 -4 -26 0q-9 2 -19 16q-10 13 -15 19q-6 6 -8 16t-12 18t-12 12t-5 11q-3 8 -6 11t-9 8t-9 10l-2 11q0 7 -16 31t-34 23q-18 0 -56 -49q-2 -2 -6 -11t-15 -14q-13 -8 -22 -21q-10 -13 -23 -20q-12 -8 -15 -12t-6 -9t-5 -7t-9 -7t-26 -25t-47 -11l-25 -4l-28 4h-41
q-32 -9 -36 4t10 25t19 24t10 14t9 7t16 17t16 19t19 23q14 16 20 19t17 13q11 11 25 19q7 15 12 17q9 6 16 20t15 21t12 11t9 7q5 4 8 7t6 9t5 9t10 14q7 11 25 14l56 -2q4 2 11 -1t17 3q11 6 21 8t24 -2t17 -4l22 6h15l24 -2q6 3 14 -10q5 -10 11 -15t8 -9t3 -9
q1 -8 11 -18q11 -9 15 -25t5 -17t3 -6t4 -7t4 -9q3 -9 19 -25t20 -24l16 -27q5 -16 13 -27q8 -10 10 -16t5 -7t4 -4t1 -10z" />
    <glyph glyph-name="Adieresis" unicode="&#xc4;" horiz-adv-x="1603" 
d="M1212 1118l27 -74v-10q17 -35 16 -48q-2 -13 3 -22q8 -12 8 -26v-14q2 -6 16 -30t11 -52q-2 -28 11 -47q13 -17 15 -23t1 -18t1 -13l4 -24q2 -2 3 -6q1 -5 3 -9q4 -9 4 -16q-1 -8 15 -40t16 -51t3 -27t10 -23q7 -17 13 -33t8 -28q5 -19 5 -46q13 -27 27 -65q0 -31 9 -49
q13 -27 12 -34q-1 -8 7 -25t13 -37l14 -43v-9q26 -52 26 -67q-1 -15 3 -33t6 -30q5 -30 -25 -38q-29 -8 -96 -8l-65 -2q-27 0 -56 18l-4 8t-4 9q-2 4 -2 8q-23 35 -25 41t-1 17t-1 16l-14 43l4 22q0 6 -6 16t-6 24t-4 24l-9 20q-6 18 -6 32q0 26 -22 76t-21 71q0 20 -2 25
t-24 26t-72 6q-5 -2 -17 -1t-16 -1l-41 -4q-4 0 -16 3q-11 3 -19 0t-12 -3l-22 4q-25 -6 -50 -4l-34 6q-40 -14 -61 -8t-29 7t-20 -2q-13 -3 -19 -3h-68q-25 0 -30 -3t-10 -25t-22 -28q-36 -47 -45 -90q-4 -8 -14 -18t-23 -40q-14 -30 -17 -35t-9 -12t-18 -32t-14 -33
q-3 -8 -6 -12t-5 -8t-5 -8t-12 -30t-29 -49q-25 -30 -37 -51q-12 -20 -22 -20q-13 0 -26 -8t-29 -8q-30 10 -39 10q-53 -12 -75 -5q-23 7 -43 9t-29 10q-23 25 10 78q10 10 14 20t10 20t16 22q17 21 17 32q11 10 31 46t32 54q11 18 19 28q7 8 11 14t6 12t7 16t8 14t5 7
q2 4 5 11t21 27t20 37q3 18 20 38q18 18 22 26t7 21q4 19 19 32t15 31q23 23 25 29q16 46 26 55q14 12 29 45t22 38t10 9t10 10t10 19q3 18 28 50q24 32 34 54l15 36q6 13 10 24q4 4 14 13t19 42q18 18 25 32q8 17 14 23t7 13t12 17q10 9 13 15t3 14t11 22q11 15 20 31
q8 17 12 21q0 6 5 10t7 8l4 6t4 7t8 15t11 24q4 4 12 11t10 13q4 2 3 13t10 21q14 12 21 29q6 18 20 33q13 15 15 29q1 15 4 19q8 12 13 15q6 4 10 20q4 15 18 24q13 9 17 32q5 28 19 42t14 35q1 0 19 18t30 19q12 2 35 -16t23 -33t1 -17t5 -8q4 -7 4 -37t1 -34t11 -23
q0 -41 17 -58v-14l16 -55q0 -6 -1 -18t2 -26t17 -54q15 -40 17 -46t5 -21t13 -34t10 -27v-10zM842 918v-9q-6 -12 -20 -30q-21 -29 -23 -44t-17 -28q-14 -13 -22 -31t-19 -34t-2 -33q9 -16 60 -2q15 -5 61 -5l14 -6l31 6h92q23 7 37 3t21 -3q22 9 28 14t7 15l-13 57
q0 14 -9 41l-11 33v12q0 11 -9 33q-10 21 -12 29t-1 18q1 14 -9 30t-11 20t-1 24t-10 31q0 36 -14 47q-37 32 -55 -28q-5 -14 -21 -34t-34 -54q-16 -34 -25 -46q-13 -18 -13 -26zM983 2007q33 0 47 -29t9 -50q-5 -20 -10 -34t-8 -23t-3 -21t-2 -15l-6 -27v-26q0 -40 -66 -49
q-13 0 -22 8q-10 8 -17 8l-20 -10q-3 -2 -21 -1t-22 -1l-21 -2q-30 0 -46 55q-3 10 -3 28t10 44t11 42l4 43q0 42 28 48q12 2 21 7q10 5 25 5l28 -4q13 0 35 3t34 2t15 -1zM1106 1808l20 96l4 43q0 50 41 50q10 10 30 10l32 -4q13 0 35 3t34 2t15 -1q33 0 47 -29t9 -49
t-8 -27q-3 -8 -5 -16t-4 -14t-3 -18t-3 -19l-7 -27v-22q-1 -43 -49 -51q-26 -4 -38 5t-17 9l-22 -10q-1 -2 -19 -1t-22 -1l-21 -2q-30 0 -46 55q-3 10 -3 18z" />
    <glyph glyph-name="Ccedilla" unicode="&#xc7;" horiz-adv-x="1697" 
d="M607 -6q-3 2 -13 2t-22 4t-22 12q-11 8 -20 11l-17 2l-28 4q-10 4 -23 17t-20 17l-16 5q-53 40 -64 45q-16 9 -25 22t-24 21q-24 12 -40 41t-44 53q-27 24 -33 45q-9 30 -19 41t-12 30t-14 31t-14 17l-14 39q-13 13 -11 32q1 20 1 27q-29 72 -27 97q2 26 4 44l6 27
l-16 43l14 47l-4 18q6 24 5 55t1 34l10 22q2 6 3 28t20 67q20 45 25 53q4 8 13 38t20 46q16 23 16 31q0 6 11 24t18 25q6 7 14 15q14 16 29 44q14 28 31 39t20 23t10 19q17 16 24 29q54 41 76 63q22 23 30 29t20 13q10 6 14 9t25 20q29 23 52 28t32 16t15 14t23 6
q16 4 50 20t77 30l19 8q6 2 19 2h19q8 2 41 12q32 10 104 9q72 0 103 -4l25 4l33 -6q5 0 35 2t34 -1t14 -8q23 -12 45 -15q23 -3 36 -9q12 -6 22 -8q30 -6 72 -33t64 -40t37 -27q16 -14 20 -16q4 -3 24 -16t31 -25t20 -28t23 -33t12 -39t-28 -33t-27 -11q-20 -20 -37 -39
t-51 -29q-35 -10 -38 -10t-13 7t-18 8q-7 1 -18 21q-12 19 -19 28t-17 25t-12 17l-43 31q-5 4 -11 4t-15 6t-14 10q-12 10 -24 11l-22 14h-23q-20 10 -22 10h-9q-7 1 -22 11q-13 10 -21 12t-17 -2t-11 -4l-43 6q-12 -6 -29 -6l-35 6l-26 -6q-6 0 -19 1t-38 -8t-45 -8
t-33 -12q-17 -16 -28 -16h-12q-38 -19 -54 -29q-15 -10 -24 -11q-11 -1 -22 -14t-33 -20t-44 -31q-23 -24 -27 -30q-49 -33 -60 -54q-11 -22 -24 -31q-14 -10 -17 -18q-3 -10 -27 -36q-23 -26 -31 -50t-13 -31q-7 -9 -14 -28q-7 -18 -19 -33t-15 -39q-2 -24 -10 -37
q-8 -14 -9 -18q-1 -3 -4 -31t-5 -34t-2 -18v-26l-10 -41q-5 -64 1 -86q5 -22 4 -32q-1 -9 4 -27q7 -24 7 -33v-10l12 -33q0 -4 5 -12t7 -13t4 -11l4 -12q1 -5 3 -10t4 -11t12 -18t19 -29q8 -17 12 -25l39 -39q2 -2 11 -15t22 -19q12 -5 19 -9t13 -6q56 -43 68 -49t28 -10
t31 -13q17 -8 25 -8t10 -2l31 -12q4 -2 14 -2h15l36 -11q28 -2 41 4q26 13 42 3t42 4q10 2 34 3t46 13q62 0 89 33q7 8 34 17t35 15t13 10q5 5 10 11q8 10 22 15q16 5 35 26q19 22 35 32q16 9 22 15q2 4 5 8t9 19q12 14 32 17t33 -2q14 -5 26 -22q11 -17 25 -31t31 -35
t24 -29t15 -19q8 -12 7 -38q-3 -26 -15 -35t-20 -13t-13 -8q-8 -6 -28 -20q-20 -13 -35 -28t-57 -30q-10 -7 -32 -19t-32 -18l-16 -2q-8 -4 -19 -15q-12 -11 -20 -15t-24 -6q-16 -3 -22 -5t-14 -7q-16 -9 -25 -9h-11q-8 -1 -22 -7t-18 -8q-5 -2 -11 -1q-5 1 -11 -1t-22 -10
t-22 -10t-26 -1t-24 1t-9 -1t-27 -5t-27 -18q-6 -15 1 -17t17 -10t11 -11q0 -4 6 -7q9 -5 11 -10t6 -11q5 -7 7 -13l3 -9t12 -11v-6l4 -9v-18l4 -16l-2 -17v-22l-6 -15l2 -18l-7 -14v-7q-9 -9 -10 -18q-2 -11 -6 -15t-9 -15q-4 -11 -10 -14t-8 -10t-10 -7q-15 -15 -16 -15
l-6 -4l-9 -8l-20 -10q-2 1 -16 -7t-28 -8t-13 -6q-4 0 -23 -4l-19 2l-8 -2q-20 0 -26 6q-16 5 -22 7t-18 10q-13 8 -19 8t-11 8q-18 14 -20 17q-3 3 -15 14t-12 22q0 23 19 23l6 2q2 2 3 4t7 5t16 13t27 -12q10 -20 18 -31q3 -3 17 -10q14 -6 16 -7t7 0q6 1 12 0t8 0t4 1
t4 1t15 -1t30 12q18 14 26 18t13 17q5 12 12 20q12 13 12 32v18l3 12v8l-5 16q0 20 -14 41t-24 21q-9 0 -25 8l-12 -2l-23 4q-8 0 -14 5q-6 4 -5 8t-3 11t7 16t11 13l-2 15q2 14 0 17q-5 7 -35 5t-52 11q-21 13 -36 6q-16 -6 -19 -5l-8 2t-6 2t-5 3z" />
    <glyph glyph-name="Egrave" unicode="&#xc8;" horiz-adv-x="1298" 
d="M377 496l-12 -84q0 -26 -5 -47l-10 -42v-12l-4 -15v-13q0 -10 -4 -23t0 -16q10 -18 53 -19h109l22 6l19 -6q12 6 29 6l30 -6l27 2l69 -6l23 4h143l60 8l43 -2l38 7q28 0 43 -19q24 -31 -8 -94q-5 -27 -9 -66t-29 -57q-2 -2 -10 -2h-9l-18 -4l-47 4l-31 -4l-41 14
q-2 0 -16 -8t-58 -4q-45 4 -55 6q-9 2 -19 2t-16 -6h-113l-28 6q-4 0 -19 -6l-32 2l-25 -4q-4 0 -6 -2l-37 8h-22q-28 0 -42 -4h-69q-8 0 -45 2t-45 -2l-25 -10l-35 6q-55 0 -67 22q-2 4 -2 43v41q5 5 16 27v29l10 24q0 4 -1 19t7 31q13 25 13 70t6 61t6 22l-2 25q2 4 4 9
t8 15t6 33q-2 0 -4 11t0 20t7 19q6 9 5 21t1 19l8 45v45q14 27 12 47t0 27l8 27q2 2 2 6v6q11 22 11 24l-5 37l15 45q2 8 1 24t1 21l10 29q0 6 -4 20t-2 21q2 6 5 12q3 5 4 9t1 11t1 11t7 20q7 16 9 26t0 36q-2 25 0 37l10 22q2 6 1 24t4 29q8 17 4 28t7 31q12 20 11 39
t-1 25q9 18 9 31l-2 29q10 19 10 33t-4 18q0 28 7 36l14 18t0 24q-7 16 -7 24t20 31t41 23q22 0 70 -6l25 2l30 -5q18 7 35 6q16 -1 23 1l26 8q5 2 9 0t7 -3t8 -3t7 -2l27 4q4 0 13 -3t15 -1t36 0t42 -2l60 6l45 -4l39 4l26 -6q20 10 31 10l47 -4q18 0 33 6q55 2 57 4l37 -4
l23 2q92 8 92 -60q0 -8 -11 -30v-19q0 -19 -6 -32t-6 -42q0 -30 -10 -36q-29 -31 -78 -15q-8 2 -28 1t-27 -1l-27 7h-196l-18 4l-13 -4h-25q-44 9 -75 0q-15 0 -30 3t-23 0t-12 -3h-85q-29 -1 -36 -7t-11 -17t-2 -22t0 -26l-6 -25l-11 -37q0 -2 4 -10t-7 -31
q-11 -24 -11 -34l4 -23l-6 -22v-27l-14 -53q-4 -14 -2 -38t-11 -42q0 -18 -2 -41t12 -31t72 -8l35 -6l39 2q18 2 60 0t63 -2l20 6q6 0 37 -2t35 2l31 10l74 -2q35 2 40 2t14 -4t26 2q16 6 20 6l25 -4q29 0 40 -15t9 -23q-2 -7 -3 -16t-2 -14t0 -23t-9 -37q-10 -18 -8 -39
q3 -21 -1 -32q-4 -10 -28 -26t-35 -16l-29 10q-4 2 -18 1q-15 -1 -19 0t-16 0t-15 1l-36 8l-19 -4h-82l-18 -4l-39 4h-125q-42 0 -69 -1t-37 5t-20 7q-46 4 -69 -36q-10 -29 -7 -38t7 -19q6 -14 -6 -37v-18q-14 -15 -15 -23t-1 -26zM551 1933l-2 9q-1 15 -13 22
q-12 8 -14 10t-5 8q-5 10 -16 16q-12 6 -19 22t-10 24t3 15q5 7 19 5t22 -2l25 2q4 0 21 -2q16 -2 48 6t48 -9l22 -22q6 -5 10 -9q0 -13 8 -17q2 -4 11 -12t17 -23q7 -16 9 -18t4 -6t5 -7l6 -9t7 -9q3 -4 7 -8t9 -8t7 -6t6 -5t13 -12l20 -28q6 -18 17 -28q10 -9 13 -14
q3 -4 6 -6q6 -3 8 -16q2 -12 11 -19t13 -17t-6 -16q-9 -7 -23 -3t-21 4l-30 -2l-29 -4l-24 4q-34 -9 -51 13t-20 25t-3 5q-2 2 -4 8t-14 15q-11 9 -14 13t-5 7q-2 4 -4 6t-4 6q-3 6 -13 13t-14 18t-16 26t-23 20t-18 15z" />
    <glyph glyph-name="Eacute" unicode="&#xc9;" horiz-adv-x="1298" 
d="M377 496l-12 -84q0 -26 -5 -47l-10 -42v-12l-4 -15v-13q0 -10 -4 -23t0 -16q10 -18 53 -19h109l22 6l19 -6q12 6 29 6l30 -6l27 2l69 -6l23 4h143l60 8l43 -2l38 7q28 0 43 -19q24 -31 -8 -94q-5 -27 -9 -66t-29 -57q-2 -2 -10 -2h-9l-18 -4l-47 4l-31 -4l-41 14
q-2 0 -16 -8t-58 -4q-45 4 -55 6q-9 2 -19 2t-16 -6h-113l-28 6q-4 0 -19 -6l-32 2l-25 -4q-4 0 -6 -2l-37 8h-22q-28 0 -42 -4h-69q-8 0 -45 2t-45 -2l-25 -10l-35 6q-55 0 -67 22q-2 4 -2 43v41q5 5 16 27v29l10 24q0 4 -1 19t7 31q13 25 13 70t6 61t6 22l-2 25q2 4 4 9
t8 15t6 33q-2 0 -4 11t0 20t7 19q6 9 5 21t1 19l8 45v45q14 27 12 47t0 27l8 27q2 2 2 6v6q11 22 11 24l-5 37l15 45q2 8 1 24t1 21l10 29q0 6 -4 20t-2 21q2 6 5 12q3 5 4 9t1 11t1 11t7 20q7 16 9 26t0 36q-2 25 0 37l10 22q2 6 1 24t4 29q8 17 4 28t7 31q12 20 11 39
t-1 25q9 18 9 31l-2 29q10 19 10 33t-4 18q0 28 7 36l14 18t0 24q-7 16 -7 24t20 31t41 23q22 0 70 -6l25 2l30 -5q18 7 35 6q16 -1 23 1l26 8q5 2 9 0t7 -3t8 -3t7 -2l27 4q4 0 13 -3t15 -1t36 0t42 -2l60 6l45 -4l39 4l26 -6q20 10 31 10l47 -4q18 0 33 6q55 2 57 4l37 -4
l23 2q92 8 92 -60q0 -8 -11 -30v-19q0 -19 -6 -32t-6 -42q0 -30 -10 -36q-29 -31 -78 -15q-8 2 -28 1t-27 -1l-27 7h-196l-18 4l-13 -4h-25q-44 9 -75 0q-15 0 -30 3t-23 0t-12 -3h-85q-29 -1 -36 -7t-11 -17t-2 -22t0 -26l-6 -25l-11 -37q0 -2 4 -10t-7 -31
q-11 -24 -11 -34l4 -23l-6 -22v-27l-14 -53q-4 -14 -2 -38t-11 -42q0 -18 -2 -41t12 -31t72 -8l35 -6l39 2q18 2 60 0t63 -2l20 6q6 0 37 -2t35 2l31 10l74 -2q35 2 40 2t14 -4t26 2q16 6 20 6l25 -4q29 0 40 -15t9 -23q-2 -7 -3 -16t-2 -14t0 -23t-9 -37q-10 -18 -8 -39
q3 -21 -1 -32q-4 -10 -28 -26t-35 -16l-29 10q-4 2 -18 1q-15 -1 -19 0t-16 0t-15 1l-36 8l-19 -4h-82l-18 -4l-39 4h-125q-42 0 -69 -1t-37 5t-20 7q-46 4 -69 -36q-10 -29 -7 -38t7 -19q6 -14 -6 -37v-18q-14 -15 -15 -23t-1 -26zM946 1944v-9q-2 0 -3 -4q-2 -9 -21 -17
q-19 -9 -31 -36q-2 -2 -6 -13t-11 -15q-12 -5 -18 -18q-7 -13 -21 -25q-14 -11 -16 -16q-3 -8 -10 -15q-6 -6 -23 -25q-16 -18 -45 -10l-24 -4l-29 4l-30 2q-6 0 -20 -4t-24 3t-6 15q4 7 12 15q11 11 12 24q2 12 9 12q2 2 6 8t14 18q11 11 15 24l20 28q8 8 12 11q5 3 7 7
t11 10q9 7 14 15q6 9 10 13t6 8t4 6t7 13t9 17q4 7 16 18t13 21l17 16q1 1 8 9q21 23 81 10q3 -4 21 -1t22 3l25 -2q8 0 21 2t21 -6t0 -20q-7 -12 -11 -22q-5 -12 -17 -18q-11 -7 -15 -14q-2 -8 -6 -12q-3 -4 -11 -8q-15 -10 -15 -18z" />
    <glyph glyph-name="Ecircumflex" unicode="&#xca;" horiz-adv-x="1298" 
d="M377 496l-12 -84q0 -26 -5 -47l-10 -42v-12l-4 -15v-13q0 -10 -4 -23t0 -16q10 -18 53 -19h109l22 6l19 -6q12 6 29 6l30 -6l27 2l69 -6l23 4h143l60 8l43 -2l38 7q28 0 43 -19q24 -31 -8 -94q-5 -27 -9 -66t-29 -57q-2 -2 -10 -2h-9l-18 -4l-47 4l-31 -4l-41 14
q-2 0 -16 -8t-58 -4q-45 4 -55 6q-9 2 -19 2t-16 -6h-113l-28 6q-4 0 -19 -6l-32 2l-25 -4q-4 0 -6 -2l-37 8h-22q-28 0 -42 -4h-69q-8 0 -45 2t-45 -2l-25 -10l-35 6q-55 0 -67 22q-2 4 -2 43v41q5 5 16 27v29l10 24q0 4 -1 19t7 31q13 25 13 70t6 61t6 22l-2 25q2 4 4 9
t8 15t6 33q-2 0 -4 11t0 20t7 19q6 9 5 21t1 19l8 45v45q14 27 12 47t0 27l8 27q2 2 2 6v6q11 22 11 24l-5 37l15 45q2 8 1 24t1 21l10 29q0 6 -4 20t-2 21q2 6 5 12q3 5 4 9t1 11t1 11t7 20q7 16 9 26t0 36q-2 25 0 37l10 22q2 6 1 24t4 29q8 17 4 28t7 31q12 20 11 39
t-1 25q9 18 9 31l-2 29q10 19 10 33t-4 18q0 28 7 36l14 18t0 24q-7 16 -7 24t20 31t41 23q22 0 70 -6l25 2l30 -5q18 7 35 6q16 -1 23 1l26 8q5 2 9 0t7 -3t8 -3t7 -2l27 4q4 0 13 -3t15 -1t36 0t42 -2l60 6l45 -4l39 4l26 -6q20 10 31 10l47 -4q18 0 33 6q55 2 57 4l37 -4
l23 2q92 8 92 -60q0 -8 -11 -30v-19q0 -19 -6 -32t-6 -42q0 -30 -10 -36q-29 -31 -78 -15q-8 2 -28 1t-27 -1l-27 7h-196l-18 4l-13 -4h-25q-44 9 -75 0q-15 0 -30 3t-23 0t-12 -3h-85q-29 -1 -36 -7t-11 -17t-2 -22t0 -26l-6 -25l-11 -37q0 -2 4 -10t-7 -31
q-11 -24 -11 -34l4 -23l-6 -22v-27l-14 -53q-4 -14 -2 -38t-11 -42q0 -18 -2 -41t12 -31t72 -8l35 -6l39 2q18 2 60 0t63 -2l20 6q6 0 37 -2t35 2l31 10l74 -2q35 2 40 2t14 -4t26 2q16 6 20 6l25 -4q29 0 40 -15t9 -23q-2 -7 -3 -16t-2 -14t0 -23t-9 -37q-10 -18 -8 -39
q3 -21 -1 -32q-4 -10 -28 -26t-35 -16l-29 10q-4 2 -18 1q-15 -1 -19 0t-16 0t-15 1l-36 8l-19 -4h-82l-18 -4l-39 4h-125q-42 0 -69 -1t-37 5t-20 7q-46 4 -69 -36q-10 -29 -7 -38t7 -19q6 -14 -6 -37v-18q-14 -15 -15 -23t-1 -26zM1046 1741h-11l-21 -2l-31 -4l-22 4
q-3 0 -13 -2t-18 1t-18 17q-10 13 -13 19q-4 6 -6 8t-3 7t-3 9t-10 11q-9 7 -11 11l-3 6l-2 6t-3 6t-4 5t-8 7q-12 10 -12 26q-24 49 -41 49q-16 0 -38 -20q-23 -21 -29 -34t-20 -22q-14 -10 -22 -20t-23 -22q-16 -12 -19 -19q-4 -8 -12 -13t-9 -10q-27 -25 -36 -29t-28 3
l-27 -4l-26 4l-30 2q-7 0 -17 -3q-9 -3 -19 -1q-19 4 -8 24q6 7 12 12q10 9 13 20t9 13q5 2 9 7t16 17t21 25l27 29q6 6 10 9t8 7q4 5 17 14t25 24t14 16q1 2 8 13q12 19 25 29q13 9 17 17q5 8 7 10t5 8t9 13q8 4 23 8l55 -2q2 2 10 -1t17 3t19 8t25 -2q14 -4 17 -4l22 6
l39 -2q7 0 12 -8t7 -10t8 -7q7 -6 9 -16t22 -32q10 -28 13 -32q3 -3 3 -11q4 -2 7 -11t14 -20q12 -11 15 -15t5 -6t11 -18t11 -23q2 -8 10 -19q8 -10 11 -16q2 -6 6 -7t4 -11l2 -14q31 -31 8 -41q-12 -6 -24 -3t-17 3z" />
    <glyph glyph-name="Edieresis" unicode="&#xcb;" horiz-adv-x="1298" 
d="M377 496l-12 -84q0 -26 -5 -47l-10 -42v-12l-4 -15v-13q0 -10 -4 -23t0 -16q10 -18 53 -19h109l22 6l19 -6q12 6 29 6l30 -6l27 2l69 -6l23 4h143l60 8l43 -2l38 7q28 0 43 -19q24 -31 -8 -94q-5 -27 -9 -66t-29 -57q-2 -2 -10 -2h-9l-18 -4l-47 4l-31 -4l-41 14
q-2 0 -16 -8t-58 -4q-45 4 -55 6q-9 2 -19 2t-16 -6h-113l-28 6q-4 0 -19 -6l-32 2l-25 -4q-4 0 -6 -2l-37 8h-22q-28 0 -42 -4h-69q-8 0 -45 2t-45 -2l-25 -10l-35 6q-55 0 -67 22q-2 4 -2 43v41q5 5 16 27v29l10 24q0 4 -1 19t7 31q13 25 13 70t6 61t6 22l-2 25q2 4 4 9
t8 15t6 33q-2 0 -4 11t0 20t7 19q6 9 5 21t1 19l8 45v45q14 27 12 47t0 27l8 27q2 2 2 6v6q11 22 11 24l-5 37l15 45q2 8 1 24t1 21l10 29q0 6 -4 20t-2 21q2 6 5 12q3 5 4 9t1 11t1 11t7 20q7 16 9 26t0 36q-2 25 0 37l10 22q2 6 1 24t4 29q8 17 4 28t7 31q12 20 11 39
t-1 25q9 18 9 31l-2 29q10 19 10 33t-4 18q0 28 7 36l14 18t0 24q-7 16 -7 24t20 31t41 23q22 0 70 -6l25 2l30 -5q18 7 35 6q16 -1 23 1l26 8q5 2 9 0t7 -3t8 -3t7 -2l27 4q4 0 13 -3t15 -1t36 0t42 -2l60 6l45 -4l39 4l26 -6q20 10 31 10l47 -4q18 0 33 6q55 2 57 4l37 -4
l23 2q92 8 92 -60q0 -8 -11 -30v-19q0 -19 -6 -32t-6 -42q0 -30 -10 -36q-29 -31 -78 -15q-8 2 -28 1t-27 -1l-27 7h-196l-18 4l-13 -4h-25q-44 9 -75 0q-15 0 -30 3t-23 0t-12 -3h-85q-29 -1 -36 -7t-11 -17t-2 -22t0 -26l-6 -25l-11 -37q0 -2 4 -10t-7 -31
q-11 -24 -11 -34l4 -23l-6 -22v-27l-14 -53q-4 -14 -2 -38t-11 -42q0 -18 -2 -41t12 -31t72 -8l35 -6l39 2q18 2 60 0t63 -2l20 6q6 0 37 -2t35 2l31 10l74 -2q35 2 40 2t14 -4t26 2q16 6 20 6l25 -4q29 0 40 -15t9 -23q-2 -7 -3 -16t-2 -14t0 -23t-9 -37q-10 -18 -8 -39
q3 -21 -1 -32q-4 -10 -28 -26t-35 -16l-29 10q-4 2 -18 1q-15 -1 -19 0t-16 0t-15 1l-36 8l-19 -4h-82l-18 -4l-39 4h-125q-42 0 -69 -1t-37 5t-20 7q-46 4 -69 -36q-10 -29 -7 -38t7 -19q6 -14 -6 -37v-18q-14 -15 -15 -23t-1 -26zM659 1733l-38 16l-21 -10q-4 -2 -21 -1
t-20 1l-29 -4q-22 0 -34 45q-14 34 -3 64t13 36t2 12v16q0 10 2 18q2 6 3 20q3 44 28 49q11 2 19 7q9 5 15 5h12l27 -4q14 0 36 3t34 2t14 -1q33 0 49 -33t3 -66t-15 -55l-8 -45l-2 -26q0 -40 -66 -49zM1032 2011q33 0 47 -29t9 -49t-12 -40t-7 -28l-8 -53l-2 -26
q0 -40 -66 -49l-39 16l-20 -10q-4 -2 -22 -1t-19 1l-23 -4q-11 0 -24 10t-19 34q-6 23 -6 35t10 42q10 29 12 47q1 18 2 44t10 36t19 12t12 3t7 3q4 2 7 4t7 2l41 -4q14 0 36 3t34 2t14 -1z" />
    <glyph glyph-name="Igrave" unicode="&#xcc;" horiz-adv-x="634" 
d="M254 1134q6 18 6 54q0 37 14 86v33q0 4 15 34v17q0 15 5 27t7 20t0 31t-1 27t11 24v11l-4 24l4 13q0 38 18 44q5 2 13 3t24 5t21 6q6 2 15 0t12 -2l22 2l23 -4l26 4q6 3 14 -1q9 -3 13 -3q39 0 49 -24q3 -22 -5 -47q-7 -25 -6 -35q2 -19 -15 -53v-29l-11 -21v-12l-10 -43
q-2 -10 0 -35t-6 -42q-8 -18 -8 -45t-4 -42t-6 -19t-3 -12v-12q0 -10 -6 -16v-53q0 -9 -6 -22t-4 -29t-6 -36q-10 -25 -10 -65v-37l-15 -35q-2 -4 -1 -13t-4 -23q-5 -15 -5 -47t-4 -43t-3 -20t-1 -12t-4 -9l-4 -12q-2 -5 -2 -9v-41q0 -11 -11 -18q-2 -4 -1 -16q1 -13 -5 -25
t-6 -39t-4 -43l-10 -26q0 -5 1 -28t-1 -27q-10 -22 -10 -46q-9 -18 -9 -27l2 -41l-10 -30v-13q-12 -37 -11 -75t1 -48l-14 -35q-2 -6 -6 -32q-6 -37 -48 -28q-14 3 -17 3t-26 -6q-15 7 -34 1q-19 -7 -27 -5l-31 10q-39 0 -49 10t-15 22t0 28q5 18 5 23t2 11t7 22t7 20t1 16
q-2 18 9 39q10 20 8 34q-1 15 2 23t3 18v23q10 20 10 31v30l10 23q2 4 1 14t-1 14l27 115v29q8 43 8 49l-2 22l12 33q2 6 -2 24t7 35q10 16 9 32q-1 15 11 40v35l14 64q4 17 4 61t19 82l-4 25l10 45v16q0 6 6 24zM385 2041q0 -1 7 -6t12 -15q4 -9 11 -16t14 -15q7 -7 12 -19
t7 -14t5 -6q2 -4 5 -7t6 -9q5 -10 24 -26t22 -22l22 -28q6 -14 16 -26t14 -18q3 -4 7 -5t6 -12q3 -13 19 -29q15 -15 2 -24q-14 -9 -35 -3h-41l-28 -4l-25 4q-21 -6 -29 -2t-20 17t-27 28q0 10 -14 21q-13 11 -17 15t-8 13q-4 8 -7 11t-10 7q-8 5 -12 17t-17 27
q-13 14 -25 20q-11 6 -13 9t-3 7t-2 5t-1 10t-13 16q-13 8 -15 10q-9 18 -17 22q-12 5 -24 34q-10 8 -9 23q2 15 20 12t24 -3l26 2q4 0 20 -3t48 6t47 -7q16 -16 16 -17z" />
    <glyph glyph-name="Iacute" unicode="&#xcd;" horiz-adv-x="634" 
d="M254 1134q6 18 6 54q0 37 14 86v33q0 4 15 34v17q0 15 5 27t7 20t0 31t-1 27t11 24v11l-4 24l4 13q0 38 18 44q5 2 13 3t24 5t21 6q6 2 15 0t12 -2l22 2l23 -4l26 4q6 3 14 -1q9 -3 13 -3q39 0 49 -24q3 -22 -5 -47q-7 -25 -6 -35q2 -19 -15 -53v-29l-11 -21v-12l-10 -43
q-2 -10 0 -35t-6 -42q-8 -18 -8 -45t-4 -42t-6 -19t-3 -12v-12q0 -10 -6 -16v-53q0 -9 -6 -22t-4 -29t-6 -36q-10 -25 -10 -65v-37l-15 -35q-2 -4 -1 -13t-4 -23q-5 -15 -5 -47t-4 -43t-3 -20t-1 -12t-4 -9l-4 -12q-2 -5 -2 -9v-41q0 -11 -11 -18q-2 -4 -1 -16q1 -13 -5 -25
t-6 -39t-4 -43l-10 -26q0 -5 1 -28t-1 -27q-10 -22 -10 -46q-9 -18 -9 -27l2 -41l-10 -30v-13q-12 -37 -11 -75t1 -48l-14 -35q-2 -6 -6 -32q-6 -37 -48 -28q-14 3 -17 3t-26 -6q-15 7 -34 1q-19 -7 -27 -5l-31 10q-39 0 -49 10t-15 22t0 28q5 18 5 23t2 11t7 22t7 20t1 16
q-2 18 9 39q10 20 8 34q-1 15 2 23t3 18v23q10 20 10 31v30l10 23q2 4 1 14t-1 14l27 115v29q8 43 8 49l-2 22l12 33q2 6 -2 24t7 35q10 16 9 32q-1 15 11 40v35l14 64q4 17 4 61t19 82l-4 25l10 45v16q0 6 6 24zM696 1942v-9q-2 0 -2 -4q-8 -12 -28 -22t-26 -31
q-7 -21 -19 -29q-11 -8 -17 -19t-19 -23q-14 -11 -16 -16t-4 -8t-7 -8t-22 -24t-44 -10l-25 -4l-29 4l-29 2q-7 0 -21 -4t-27 6t3 24t18 26q2 13 9 13q2 2 5 7q4 5 14 17t16 25l20 29q4 4 10 9t9 9q2 4 11 10q9 7 13 11q4 7 9 14q6 7 8 11t4 6t9 18t17 24q19 15 19 27
q17 16 25 24q22 23 82 11q4 -2 21 0t22 2l24 -2q8 0 21 2t20 -6t1 -21q-7 -12 -12 -23t-17 -17t-15 -14t-17 -19t-14 -18z" />
    <glyph glyph-name="Icircumflex" unicode="&#xce;" horiz-adv-x="634" 
d="M254 1134q6 18 6 54q0 37 14 86v33q0 4 15 34v17q0 15 5 27t7 20t0 31t-1 27t11 24v11l-4 24l4 13q0 38 18 44q5 2 13 3t24 5t21 6q6 2 15 0t12 -2l22 2l23 -4l26 4q6 3 14 -1q9 -3 13 -3q39 0 49 -24q3 -22 -5 -47q-7 -25 -6 -35q2 -19 -15 -53v-29l-11 -21v-12l-10 -43
q-2 -10 0 -35t-6 -42q-8 -18 -8 -45t-4 -42t-6 -19t-3 -12v-12q0 -10 -6 -16v-53q0 -9 -6 -22t-4 -29t-6 -36q-10 -25 -10 -65v-37l-15 -35q-2 -4 -1 -13t-4 -23q-5 -15 -5 -47t-4 -43t-3 -20t-1 -12t-4 -9l-4 -12q-2 -5 -2 -9v-41q0 -11 -11 -18q-2 -4 -1 -16q1 -13 -5 -25
t-6 -39t-4 -43l-10 -26q0 -5 1 -28t-1 -27q-10 -22 -10 -46q-9 -18 -9 -27l2 -41l-10 -30v-13q-12 -37 -11 -75t1 -48l-14 -35q-2 -6 -6 -32q-6 -37 -48 -28q-14 3 -17 3t-26 -6q-15 7 -34 1q-19 -7 -27 -5l-31 10q-39 0 -49 10t-15 22t0 28q5 18 5 23t2 11t7 22t7 20t1 16
q-2 18 9 39q10 20 8 34q-1 15 2 23t3 18v23q10 20 10 31v30l10 23q2 4 1 14t-1 14l27 115v29q8 43 8 49l-2 22l12 33q2 6 -2 24t7 35q10 16 9 32q-1 15 11 40v35l14 64q4 17 4 61t19 82l-4 25l10 45v16q0 6 6 24zM610 2060q10 0 14 -2q5 -3 8 -10t10 -12q10 -8 12 -19
q2 -10 12 -20t14 -26q4 -15 5 -16t3 -5t4 -7t4 -10t13 -17q10 -9 12 -12q2 -2 7 -8t7 -10l17 -28q4 -14 12 -26t10 -18q2 -4 5 -5q5 -2 5 -13q0 -12 8 -20t10 -18q3 -10 -9 -16q-12 -7 -33 -1h-41l-29 -4l-24 4q-23 -6 -30 -2q-6 4 -16 17l-15 18t-6 9t-2 8t-3 8t-10 10
t-10 11t-6 13q-4 11 -13 17t-11 19t-18 34q-16 22 -34 22t-56 -49q-2 -2 -8 -11t-18 -17q-11 -7 -17 -16q-6 -8 -24 -22q-19 -14 -21 -19t-4 -8t-9 -8t-25 -24t-48 -10l-24 -4l-29 4h-41q-32 -9 -36 2t9 24l17 17q2 2 3 6t3 7t4 7t5 4t7 5t16 17t21 28l27 28q4 2 22 18
t24 19q5 4 7 7t5 6q3 2 9 10q5 8 7 10t14 18q12 17 24 26t16 16t5 9q2 2 8 13t19 14q14 2 24 1t19 -2t17 0t14 -2q7 -3 23 8t35 4t21 -7l23 6h30z" />
    <glyph glyph-name="Idieresis" unicode="&#xcf;" horiz-adv-x="634" 
d="M254 1134q6 18 6 54q0 37 14 86v33q0 4 15 34v17q0 15 5 27t7 20t0 31t-1 27t11 24v11l-4 24l4 13q0 38 18 44q5 2 13 3t24 5t21 6q6 2 15 0t12 -2l22 2l23 -4l26 4q6 3 14 -1q9 -3 13 -3q39 0 49 -24q3 -22 -5 -47q-7 -25 -6 -35q2 -19 -15 -53v-29l-11 -21v-12l-10 -43
q-2 -10 0 -35t-6 -42q-8 -18 -8 -45t-4 -42t-6 -19t-3 -12v-12q0 -10 -6 -16v-53q0 -9 -6 -22t-4 -29t-6 -36q-10 -25 -10 -65v-37l-15 -35q-2 -4 -1 -13t-4 -23q-5 -15 -5 -47t-4 -43t-3 -20t-1 -12t-4 -9l-4 -12q-2 -5 -2 -9v-41q0 -11 -11 -18q-2 -4 -1 -16q1 -13 -5 -25
t-6 -39t-4 -43l-10 -26q0 -5 1 -28t-1 -27q-10 -22 -10 -46q-9 -18 -9 -27l2 -41l-10 -30v-13q-12 -37 -11 -75t1 -48l-14 -35q-2 -6 -6 -32q-6 -37 -48 -28q-14 3 -17 3t-26 -6q-15 7 -34 1q-19 -7 -27 -5l-31 10q-39 0 -49 10t-15 22t0 28q5 18 5 23t2 11t7 22t7 20t1 16
q-2 18 9 39q10 20 8 34q-1 15 2 23t3 18v23q10 20 10 31v30l10 23q2 4 1 14t-1 14l27 115v29q8 43 8 49l-2 22l12 33q2 6 -2 24t7 35q10 16 9 32q-1 15 11 40v35l14 64q4 17 4 61t19 82l-4 25l10 45v16q0 6 6 24zM418 2007q33 0 47 -29t9 -49t-11 -37t-8 -39l-9 -45l-2 -26
q0 -40 -65 -49l-39 16l-21 -10q-4 -2 -21 -1t-19 1l-29 -4q-21 1 -32 33t-11 39t2 19t5 19q3 8 8 25t6 34t2 43q0 26 10 36t20 12t20 7t13 5l41 -4q14 0 36 3t33 2q12 -1 15 -1zM752 2007q33 0 47 -29t9 -49t-12 -40t-8 -28l-8 -53l-2 -26q0 -40 -65 -49l-39 16l-21 -10
q-4 -2 -21 -1t-20 1l-28 -4q-23 0 -35 45q-8 20 -8 27t2 19t5 19q3 8 8 25t6 34q1 18 2 44q0 26 10 36t20 11q10 2 14 4l10 5q5 3 9 3l41 -4q14 0 36 3t33 2q12 -1 15 -1z" />
    <glyph glyph-name="Ograve" unicode="&#xd2;" horiz-adv-x="1816" 
d="M1142 16h-12q-35 -14 -77 -26q-23 0 -37 -7t-20 -9t-22 0q-25 2 -50 -11h-107l-18 6l-39 -8l-33 12q-8 2 -30 -3t-76 14q-25 6 -45 11t-24 5q-5 0 -9 1t-8 4t-11 7t-30 11q-23 6 -33 12l-70 51q-10 6 -16 10t-11 7q-6 3 -10 7t-8 5q-4 6 -11 19t-17 19q-9 5 -14 8t-10 7
t-10 10q-6 6 -12 13t-10 14q-8 4 -22 19q-20 21 -22 35t-14 26q-13 12 -24 39q-24 36 -24 38t1 17t-18 45q-20 29 -24 39t-3 23q2 21 -9 37t-9 51t2 44l-10 33q-7 89 6 115v74q0 10 3 20t6 22t7 29q4 16 5 37l10 27q0 11 3 19t4 12q2 8 8 17q6 10 8 26q4 16 6 21t7 11
q5 5 6 9t4 10t6 14t17 27q15 20 22 46q8 25 24 38q16 12 20 19t12 26q4 4 13 11q13 11 17 26q7 23 24 29q16 6 54 49q39 43 44 45q2 2 11 14t19 13q17 2 24 15t29 19q21 7 62 43l49 20q4 2 15 1t24 10q12 12 19 15t16 4q10 0 31 12t40 12q25 0 57 8t48 8t37 10h37
q21 10 35 6t18 -5t8 0t9 1l24 6q13 0 22 -3t14 -4t16 0q27 2 40 -11h39q23 -6 57 -3t72 -28l20 -5q48 -13 65 -26q17 -12 39 -30t27 -22t18 -10q13 -7 23 -15t42 -42q30 -34 50 -53q20 -20 28 -32q10 -12 24 -44q18 -40 32 -56t27 -63q13 -48 21 -58t16 -64v-35l5 -22
q2 -4 1 -14t1 -11l4 -16q2 -3 1 -15t5 -38t-14 -129q0 -6 2 -27t-3 -35q-6 -14 -8 -20l-10 -52v-16l-37 -88q0 -37 -16 -57q-16 -19 -21 -24t-10 -19q-9 -20 -15 -26t-17 -37q-10 -30 -30 -47q-19 -17 -33 -40q-13 -23 -21 -33q-14 -18 -32 -34q-18 -15 -36 -41
q-4 -3 -16 -7t-16 -9q-5 -5 -16 -19q-10 -14 -16 -18t-10 -6q-5 -1 -31 -20t-37 -22q-12 -2 -62 -34q-74 -46 -96 -46zM775 1384h-11l-31 -14l-14 -2q-13 -6 -31 -19t-58 -37t-81 -69q-52 -26 -94 -110q-2 -3 -5 -15q-4 -12 -8 -17t-11 -12l-11 -11t-7 -11q-3 -6 -6 -13
q-4 -9 -16 -24t-12 -27v-16q-25 -37 -28 -57t-5 -27l-8 -29q-2 -4 -1 -16t-2 -20t-3 -18v-27q-16 -47 -15 -56l15 -41l-10 -32l10 -31q2 -7 1 -23t-1 -22l14 -45q6 -19 6 -23v-16q0 -12 2 -14q23 -23 28 -45q5 -21 8 -27t9 -11t23 -22q78 -101 127 -121q71 -47 79 -50t24 -3
t24 -4l49 -14q7 -2 27 0t26 2t25 -9q56 -12 79 -3t31 11t36 2q33 -1 58 13t39 14q13 -1 28 13q14 14 22 17t22 2q22 -2 35 16q12 18 25 20q32 6 53 41q4 2 9 5t17 9t18 22q5 15 9 19q6 5 22 21q20 21 33 30q14 10 22 28q7 16 11 22t12 11t10 10t5 16q2 11 4 15t9 13
q11 13 11 21q-1 9 15 28q22 26 22 40v13q2 6 10 17t6 28q-1 16 1 24t10 34q8 25 10 35t1 29q-1 18 -1 28t6 16q7 58 -2 79q-8 21 -8 26l4 18q0 14 -6 45l-8 23q-2 4 -2 9v7q-2 4 -7 11q-10 14 -9 31q2 17 -25 55t-41 57t-28 44t-23 32q-10 6 -14 9t-8 11q-8 13 -19 16
q-10 3 -27 19t-49 16q-27 13 -52 19q-26 6 -39 17q-12 11 -18 14t-26 0t-25 -3q-18 9 -33 9l-53 -3l-41 -6l-45 6q-9 -3 -35 -16q-6 0 -21 1t-23 -1t-18 -12q-16 -15 -27 -15zM928 1940q0 16 -14 23t-18 15q-3 8 -6 12t-9 6q-12 6 -16 17q-5 13 -11 19t-4 21t18 12t25 -3
l25 2q4 0 21 -3t38 3t39 1t25 -14t9 -9t9 -6q8 -6 11 -15q4 -12 18 -23q14 -12 18 -30q6 -10 10 -14t10 -15q4 -10 8 -13t14 -12q9 -9 17 -16q9 -8 20 -24t13 -14q7 -21 16 -29t13 -16l6 -5q4 0 7 -11q5 -17 22 -34q8 -14 -4 -21t-33 -1h-41l-29 -4l-25 4q-31 -9 -48 13
t-22 25t-6 11t-14 17q-16 12 -23 25t-13 16q-21 12 -21 30q-21 28 -34 36q-13 7 -17 11q0 2 -4 10v3z" />
    <glyph glyph-name="Oacute" unicode="&#xd3;" horiz-adv-x="1816" 
d="M1142 16h-12q-35 -14 -77 -26q-23 0 -37 -7t-20 -9t-22 0q-25 2 -50 -11h-107l-18 6l-39 -8l-33 12q-8 2 -30 -3t-76 14q-25 6 -45 11t-24 5q-5 0 -9 1t-8 4t-11 7t-30 11q-23 6 -33 12l-70 51q-10 6 -16 10t-11 7q-6 3 -10 7t-8 5q-4 6 -11 19t-17 19q-9 5 -14 8t-10 7
t-10 10q-6 6 -12 13t-10 14q-8 4 -22 19q-20 21 -22 35t-14 26q-13 12 -24 39q-24 36 -24 38t1 17t-18 45q-20 29 -24 39t-3 23q2 21 -9 37t-9 51t2 44l-10 33q-7 89 6 115v74q0 10 3 20t6 22t7 29q4 16 5 37l10 27q0 11 3 19t4 12q2 8 8 17q6 10 8 26q4 16 6 21t7 11
q5 5 6 9t4 10t6 14t17 27q15 20 22 46q8 25 24 38q16 12 20 19t12 26q4 4 13 11q13 11 17 26q7 23 24 29q16 6 54 49q39 43 44 45q2 2 11 14t19 13q17 2 24 15t29 19q21 7 62 43l49 20q4 2 15 1t24 10q12 12 19 15t16 4q10 0 31 12t40 12q25 0 57 8t48 8t37 10h37
q21 10 35 6t18 -5t8 0t9 1l24 6q13 0 22 -3t14 -4t16 0q27 2 40 -11h39q23 -6 57 -3t72 -28l20 -5q48 -13 65 -26q17 -12 39 -30t27 -22t18 -10q13 -7 23 -15t42 -42q30 -34 50 -53q20 -20 28 -32q10 -12 24 -44q18 -40 32 -56t27 -63q13 -48 21 -58t16 -64v-35l5 -22
q2 -4 1 -14t1 -11l4 -16q2 -3 1 -15t5 -38t-14 -129q0 -6 2 -27t-3 -35q-6 -14 -8 -20l-10 -52v-16l-37 -88q0 -37 -16 -57q-16 -19 -21 -24t-10 -19q-9 -20 -15 -26t-17 -37q-10 -30 -30 -47q-19 -17 -33 -40q-13 -23 -21 -33q-14 -18 -32 -34q-18 -15 -36 -41
q-4 -3 -16 -7t-16 -9q-5 -5 -16 -19q-10 -14 -16 -18t-10 -6q-5 -1 -31 -20t-37 -22q-12 -2 -62 -34q-74 -46 -96 -46zM775 1384h-11l-31 -14l-14 -2q-13 -6 -31 -19t-58 -37t-81 -69q-52 -26 -94 -110q-2 -3 -5 -15q-4 -12 -8 -17t-11 -12l-11 -11t-7 -11q-3 -6 -6 -13
q-4 -9 -16 -24t-12 -27v-16q-25 -37 -28 -57t-5 -27l-8 -29q-2 -4 -1 -16t-2 -20t-3 -18v-27q-16 -47 -15 -56l15 -41l-10 -32l10 -31q2 -7 1 -23t-1 -22l14 -45q6 -19 6 -23v-16q0 -12 2 -14q23 -23 28 -45q5 -21 8 -27t9 -11t23 -22q78 -101 127 -121q71 -47 79 -50t24 -3
t24 -4l49 -14q7 -2 27 0t26 2t25 -9q56 -12 79 -3t31 11t36 2q33 -1 58 13t39 14q13 -1 28 13q14 14 22 17t22 2q22 -2 35 16q12 18 25 20q32 6 53 41q4 2 9 5t17 9t18 22q5 15 9 19q6 5 22 21q20 21 33 30q14 10 22 28q7 16 11 22t12 11t10 10t5 16q2 11 4 15t9 13
q11 13 11 21q-1 9 15 28q22 26 22 40v13q2 6 10 17t6 28q-1 16 1 24t10 34q8 25 10 35t1 29q-1 18 -1 28t6 16q7 58 -2 79q-8 21 -8 26l4 18q0 14 -6 45l-8 23q-2 4 -2 9v7q-2 4 -7 11q-10 14 -9 31q2 17 -25 55t-41 57t-28 44t-23 32q-10 6 -14 9t-8 11q-8 13 -19 16
q-10 3 -27 19t-49 16q-27 13 -52 19q-26 6 -39 17q-12 11 -18 14t-26 0t-25 -3q-18 9 -33 9l-53 -3l-41 -6l-45 6q-9 -3 -35 -16q-6 0 -21 1t-23 -1t-18 -12q-16 -15 -27 -15zM1002 1810q2 0 6 6t13 16q9 9 15 28q3 -2 14 14t14 19t6 7t6 5q3 2 6 5q2 3 6 5t7 5q9 9 10 12
l12 19q3 5 4 6t6 13q7 17 20 28t16 22q4 11 12 16q9 6 11 6q2 2 5 7q16 27 83 13q4 -4 21 -1t22 3l24 -2q8 0 25 3q16 3 18 -12t-4 -21t-10 -18t-17 -19q-12 -6 -14 -12q-3 -11 -18 -19q-14 -8 -14 -24v-3q-7 -15 -20 -20q-12 -6 -36 -37q0 -14 -11 -22q-11 -9 -14 -12
t-8 -12q-4 -9 -8 -12q-4 -2 -13 -10t-13 -12q0 -12 -10 -20t-26 -27q-15 -19 -44 -10l-25 -4l-28 4h-41q-23 -6 -34 1q-16 10 15 42q0 8 4 16t7 8z" />
    <glyph glyph-name="Ocircumflex" unicode="&#xd4;" horiz-adv-x="1816" 
d="M1142 16h-12q-35 -14 -77 -26q-23 0 -37 -7t-20 -9t-22 0q-25 2 -50 -11h-107l-18 6l-39 -8l-33 12q-8 2 -30 -3t-76 14q-25 6 -45 11t-24 5q-5 0 -9 1t-8 4t-11 7t-30 11q-23 6 -33 12l-70 51q-10 6 -16 10t-11 7q-6 3 -10 7t-8 5q-4 6 -11 19t-17 19q-9 5 -14 8t-10 7
t-10 10q-6 6 -12 13t-10 14q-8 4 -22 19q-20 21 -22 35t-14 26q-13 12 -24 39q-24 36 -24 38t1 17t-18 45q-20 29 -24 39t-3 23q2 21 -9 37t-9 51t2 44l-10 33q-7 89 6 115v74q0 10 3 20t6 22t7 29q4 16 5 37l10 27q0 11 3 19t4 12q2 8 8 17q6 10 8 26q4 16 6 21t7 11
q5 5 6 9t4 10t6 14t17 27q15 20 22 46q8 25 24 38q16 12 20 19t12 26q4 4 13 11q13 11 17 26q7 23 24 29q16 6 54 49q39 43 44 45q2 2 11 14t19 13q17 2 24 15t29 19q21 7 62 43l49 20q4 2 15 1t24 10q12 12 19 15t16 4q10 0 31 12t40 12q25 0 57 8t48 8t37 10h37
q21 10 35 6t18 -5t8 0t9 1l24 6q13 0 22 -3t14 -4t16 0q27 2 40 -11h39q23 -6 57 -3t72 -28l20 -5q48 -13 65 -26q17 -12 39 -30t27 -22t18 -10q13 -7 23 -15t42 -42q30 -34 50 -53q20 -20 28 -32q10 -12 24 -44q18 -40 32 -56t27 -63q13 -48 21 -58t16 -64v-35l5 -22
q2 -4 1 -14t1 -11l4 -16q2 -3 1 -15t5 -38t-14 -129q0 -6 2 -27t-3 -35q-6 -14 -8 -20l-10 -52v-16l-37 -88q0 -37 -16 -57q-16 -19 -21 -24t-10 -19q-9 -20 -15 -26t-17 -37q-10 -30 -30 -47q-19 -17 -33 -40q-13 -23 -21 -33q-14 -18 -32 -34q-18 -15 -36 -41
q-4 -3 -16 -7t-16 -9q-5 -5 -16 -19q-10 -14 -16 -18t-10 -6q-5 -1 -31 -20t-37 -22q-12 -2 -62 -34q-74 -46 -96 -46zM775 1384h-11l-31 -14l-14 -2q-13 -6 -31 -19t-58 -37t-81 -69q-52 -26 -94 -110q-2 -3 -5 -15q-4 -12 -8 -17t-11 -12l-11 -11t-7 -11q-3 -6 -6 -13
q-4 -9 -16 -24t-12 -27v-16q-25 -37 -28 -57t-5 -27l-8 -29q-2 -4 -1 -16t-2 -20t-3 -18v-27q-16 -47 -15 -56l15 -41l-10 -32l10 -31q2 -7 1 -23t-1 -22l14 -45q6 -19 6 -23v-16q0 -12 2 -14q23 -23 28 -45q5 -21 8 -27t9 -11t23 -22q78 -101 127 -121q71 -47 79 -50t24 -3
t24 -4l49 -14q7 -2 27 0t26 2t25 -9q56 -12 79 -3t31 11t36 2q33 -1 58 13t39 14q13 -1 28 13q14 14 22 17t22 2q22 -2 35 16q12 18 25 20q32 6 53 41q4 2 9 5t17 9t18 22q5 15 9 19q6 5 22 21q20 21 33 30q14 10 22 28q7 16 11 22t12 11t10 10t5 16q2 11 4 15t9 13
q11 13 11 21q-1 9 15 28q22 26 22 40v13q2 6 10 17t6 28q-1 16 1 24t10 34q8 25 10 35t1 29q-1 18 -1 28t6 16q7 58 -2 79q-8 21 -8 26l4 18q0 14 -6 45l-8 23q-2 4 -2 9v7q-2 4 -7 11q-10 14 -9 31q2 17 -25 55t-41 57t-28 44t-23 32q-10 6 -14 9t-8 11q-8 13 -19 16
q-10 3 -27 19t-49 16q-27 13 -52 19q-26 6 -39 17q-12 11 -18 14t-26 0t-25 -3q-18 9 -33 9l-53 -3l-41 -6l-45 6q-9 -3 -35 -16q-6 0 -21 1t-23 -1t-18 -12q-16 -15 -27 -15zM1214 2060q11 0 14 -3t5 -8t9 -12q11 -11 11 -21t19 -29q2 -5 4 -17t5 -18t5 -9t3 -9t3 -10
q4 -6 17 -19t16 -19l14 -28q1 -14 9 -26t10 -20l8 -8v-20l12 -21q4 -14 -8 -21t-33 -1h-41l-30 -4l-23 4q-22 -6 -26 -2q-14 6 -37 45q-2 2 -2 8t-10 15t-11 13q-2 4 -5 13q-4 12 -13 19t-9 17t-14 33t-27 23t-36 -20q-25 -21 -33 -34q-9 -13 -19 -19q-10 -5 -12 -9
q-6 -2 -12 -12t-22 -19q-15 -10 -18 -13t-5 -6t-4 -5t-2 -4q-4 -4 -12 -9t-28 -24q-21 -19 -46 -10l-27 -4l-27 4h-41q-33 -8 -35 4t11 23q18 17 23 29q5 11 9 11q5 0 10 5t18 17t22 28l28 28q4 2 11 8t11 8q5 3 15 11t16 11t9 9q4 7 7 9t7 7t6 6q3 1 11 13t12 16l7 7
q3 2 8 7t14 9q6 12 10 16t11 15t22 14q14 2 33 0t25 -1t14 -2t18 4t21 9t25 -3t15 -5l25 6h30z" />
    <glyph glyph-name="Odieresis" unicode="&#xd6;" horiz-adv-x="1816" 
d="M1142 16h-12q-35 -14 -77 -26q-23 0 -37 -7t-20 -9t-22 0q-25 2 -50 -11h-107l-18 6l-39 -8l-33 12q-8 2 -30 -3t-76 14q-25 6 -45 11t-24 5q-5 0 -9 1t-8 4t-11 7t-30 11q-23 6 -33 12l-70 51q-10 6 -16 10t-11 7q-6 3 -10 7t-8 5q-4 6 -11 19t-17 19q-9 5 -14 8t-10 7
t-10 10q-6 6 -12 13t-10 14q-8 4 -22 19q-20 21 -22 35t-14 26q-13 12 -24 39q-24 36 -24 38t1 17t-18 45q-20 29 -24 39t-3 23q2 21 -9 37t-9 51t2 44l-10 33q-7 89 6 115v74q0 10 3 20t6 22t7 29q4 16 5 37l10 27q0 11 3 19t4 12q2 8 8 17q6 10 8 26q4 16 6 21t7 11
q5 5 6 9t4 10t6 14t17 27q15 20 22 46q8 25 24 38q16 12 20 19t12 26q4 4 13 11q13 11 17 26q7 23 24 29q16 6 54 49q39 43 44 45q2 2 11 14t19 13q17 2 24 15t29 19q21 7 62 43l49 20q4 2 15 1t24 10q12 12 19 15t16 4q10 0 31 12t40 12q25 0 57 8t48 8t37 10h37
q21 10 35 6t18 -5t8 0t9 1l24 6q13 0 22 -3t14 -4t16 0q27 2 40 -11h39q23 -6 57 -3t72 -28l20 -5q48 -13 65 -26q17 -12 39 -30t27 -22t18 -10q13 -7 23 -15t42 -42q30 -34 50 -53q20 -20 28 -32q10 -12 24 -44q18 -40 32 -56t27 -63q13 -48 21 -58t16 -64v-35l5 -22
q2 -4 1 -14t1 -11l4 -16q2 -3 1 -15t5 -38t-14 -129q0 -6 2 -27t-3 -35q-6 -14 -8 -20l-10 -52v-16l-37 -88q0 -37 -16 -57q-16 -19 -21 -24t-10 -19q-9 -20 -15 -26t-17 -37q-10 -30 -30 -47q-19 -17 -33 -40q-13 -23 -21 -33q-14 -18 -32 -34q-18 -15 -36 -41
q-4 -3 -16 -7t-16 -9q-5 -5 -16 -19q-10 -14 -16 -18t-10 -6q-5 -1 -31 -20t-37 -22q-12 -2 -62 -34q-74 -46 -96 -46zM775 1384h-11l-31 -14l-14 -2q-13 -6 -31 -19t-58 -37t-81 -69q-52 -26 -94 -110q-2 -3 -5 -15q-4 -12 -8 -17t-11 -12l-11 -11t-7 -11q-3 -6 -6 -13
q-4 -9 -16 -24t-12 -27v-16q-25 -37 -28 -57t-5 -27l-8 -29q-2 -4 -1 -16t-2 -20t-3 -18v-27q-16 -47 -15 -56l15 -41l-10 -32l10 -31q2 -7 1 -23t-1 -22l14 -45q6 -19 6 -23v-16q0 -12 2 -14q23 -23 28 -45q5 -21 8 -27t9 -11t23 -22q78 -101 127 -121q71 -47 79 -50t24 -3
t24 -4l49 -14q7 -2 27 0t26 2t25 -9q56 -12 79 -3t31 11t36 2q33 -1 58 13t39 14q13 -1 28 13q14 14 22 17t22 2q22 -2 35 16q12 18 25 20q32 6 53 41q4 2 9 5t17 9t18 22q5 15 9 19q6 5 22 21q20 21 33 30q14 10 22 28q7 16 11 22t12 11t10 10t5 16q2 11 4 15t9 13
q11 13 11 21q-1 9 15 28q22 26 22 40v13q2 6 10 17t6 28q-1 16 1 24t10 34q8 25 10 35t1 29q-1 18 -1 28t6 16q7 58 -2 79q-8 21 -8 26l4 18q0 14 -6 45l-8 23q-2 4 -2 9v7q-2 4 -7 11q-10 14 -9 31q2 17 -25 55t-41 57t-28 44t-23 32q-10 6 -14 9t-8 11q-8 13 -19 16
q-10 3 -27 19t-49 16q-27 13 -52 19q-26 6 -39 17q-12 11 -18 14t-26 0t-25 -3q-18 9 -33 9l-53 -3l-41 -6l-45 6q-9 -3 -35 -16q-6 0 -21 1t-23 -1t-18 -12q-16 -15 -27 -15zM1047 2009q33 0 47 -30t7 -59q-7 -30 -13 -40q-5 -10 -5 -22t-4 -21q0 -12 -6 -27v-22
q0 -18 -8 -31q-15 -16 -41 -20t-38 5t-17 7l-21 -8q-4 -4 -21 -3t-21 1t-15 -3q-10 -3 -27 5q-14 11 -18 27t-7 24t-3 20q0 13 11 48t12 55q3 64 13 74t29 10l21 10l41 -4q13 -2 35 2t33 3t16 -1zM1380 2009q33 0 49 -34q16 -35 -10 -100q-2 -5 -2 -17t-4 -21q0 -12 -6 -27
v-22q0 -18 -8 -31q-14 -16 -40 -20t-32 0t-12 9t-12 3l-21 -8q-4 -4 -21 -3t-21 1t-16 -3q-11 -3 -26 5q-14 10 -18 28t-8 26q-3 7 -3 21q-1 14 11 45q12 32 13 53q3 65 13 75t29 10l20 10l41 -4q14 -2 36 2t33 3t15 -1z" />
    <glyph glyph-name="Oslash" unicode="&#xd8;" horiz-adv-x="1816" 
d="M779 195q7 1 13 -3q54 -29 119 3q14 2 43 1t54 13t38 14q12 -1 28 13q14 14 22 17t22 2q22 -2 35 16q12 18 25 20q32 6 53 41q4 2 9 5t16 8t17 21q7 15 12 20q5 6 21 22q20 21 33 30q14 10 22 28q7 16 11 22t12 11t10 10t5 16q3 16 13 29q11 13 11 23q1 10 19 27t18 32
v19q2 6 10 17t6 28q-1 16 1 24t10 34q8 25 10 35t1 30q-2 36 5 43q4 34 1 58t6 40q8 16 8 20q0 5 -22 -12t-32 -21q-10 -3 -24 -10t-36 -13q-20 -5 -38 -17q-19 -13 -45 -19t-61 -28q-34 -22 -57 -28q-23 -5 -37 -14q-15 -9 -23 -12t-35 -12q-35 -12 -83 -36
q-48 -25 -66 -29q-26 -6 -45 -21t-47 -22q-29 -8 -34 -12t-11 -7t-9 -7q-25 -8 -29 -10t-17 -2q-13 -1 -18 -4t-11 -6q-5 -3 -17 -15q-6 -2 -16 -5q-9 -3 -33 -17t-36 -20q-12 -5 -26 -9q-16 -4 -20 -6q-4 -1 -11 -4l-21 -9t-26 -15l-18 -12t-21 -8q-22 -6 -34 -13t-29 -11
q-16 -4 -22 -9l-31 -14q-3 -2 -13 -2t-14 -8q0 -4 10 1t15 -4t10 -27q4 -19 18 -33q15 -13 19 -17q78 -101 127 -121q74 -49 80 -49l47 -8l49 -14q7 -2 27 0t27 2zM776 1384h-12q-25 -8 -31 -14l-14 -2q-33 -16 -55 -35q-75 -45 -115 -90q-52 -26 -94 -110q-2 -3 -5 -15
q-4 -12 -8 -17t-11 -12t-11 -13t-11 -17t-9 -15t-11 -16q-10 -12 -10 -25v-16q-25 -38 -27 -51q-2 -12 -3 -20t-3 -13l-8 -29q-2 -4 -1 -16t-2 -20t-3 -18v-27q-16 -47 -15 -56l15 -41l-10 -32q0 -18 20 -4t26 17t19 5q19 3 42 17l20 12q4 2 15 5t35 17q23 15 33 19t29 7
q17 3 27 7t23 15q16 13 61 28q46 15 57 24q32 26 62 33q30 6 51 18q20 13 28 16t33 8q36 7 46 17t35 16t38 15t21 11t31 16t41 18q19 5 27 9t27 15q17 11 25 14t19 5t17 4t17 10q18 10 30 12q23 3 68 28t77 30t28 19q-6 18 -9 31t-24 36q-22 23 -27 31l-14 21t-14 20t-8 11
t-9 7t-16 18q-9 13 -20 17q-10 3 -24 16q-15 14 -36 17t-37 10t-37 12q-22 5 -35 16q-12 11 -18 14t-26 0t-25 -3q-18 9 -49 9l-37 -3l-41 -6q-6 0 -21 4t-23 2t-18 -8q-12 -6 -18 -7t-21 0q-23 2 -40 -13t-27 -15zM940 1634q26 13 53 0l41 8q21 0 37 -8q4 0 15 1
q27 2 40 -11h39q23 -6 57 -3t72 -28q74 -18 112 -52q39 -34 54 -41q16 -7 26 -15t44 -44q32 -36 55 -58q25 -23 40 -59q16 -35 21 -44q5 -8 7 -14q8 -23 18 -23q25 3 57 23t41 24q10 4 39 20t68 15q40 0 53 -31q7 -13 14 -15l14 -2t19 -12q13 -10 19 -14q75 -51 -27 -85
q-28 -10 -42 -16q-14 -7 -32 -10q-17 -2 -26 -11q-8 -9 -14 -12t-16 -6q-11 -3 -16 -5t-42 -16q-65 -25 -61 -33q7 -14 7 -19l5 -22q2 -4 1 -14t1 -11l4 -16q2 -3 1 -15t4 -31q10 -43 -13 -136l4 -48l-13 -34l-10 -52v-16l-37 -88v-18q-11 -44 -35 -60q-6 -10 -12 -24
q-6 -13 -14 -23t-18 -38t-29 -45t-34 -42q-15 -27 -21 -35q-13 -17 -32 -31q-19 -15 -36 -42q-4 -3 -16 -7t-16 -9q-5 -5 -16 -19q-12 -14 -18 -18t-12 -7q-6 -2 -29 -20t-35 -21q-12 -2 -62 -34q-74 -46 -95 -46h-13q-5 -2 -77 -26q-23 0 -37 -7t-20 -9t-22 0
q-25 2 -50 -11h-107l-18 6l-39 -8l-33 12q-8 2 -30 -3t-76 14q-25 6 -45 11t-24 5q-5 0 -9 1t-8 4t-11 7t-30 11q-23 6 -33 12l-70 51q-6 4 -19 11t-26 18q-2 4 -5 8t-5 8t-5 8t-5 8q-36 24 -42 31q-6 6 -12 13t-10 14q-8 4 -22 19q-20 21 -22 35t-12 23t-17 30
q-20 57 -35 57q-16 -1 -39 -15t-27 -16t-62 -16t-73 -11q-43 15 -47 19t-16 15t-13 13q-2 2 -12 9t-15 17q-8 17 -24 17q-26 35 72 73q102 40 119 50t52 13q34 4 42 25t-3 31q-10 9 -10 15t-7 66t-6 70t7 22v74l14 61q7 28 7 47l10 27q0 24 10 41t13 33q4 16 6 21t7 11
q9 11 19 41q4 6 16 23t19 40q7 24 18 33q28 24 34 38q5 14 18 25t17 25q7 23 24 30t55 50q38 42 43 44q2 2 11 14t19 13q17 2 26 16t23 17q23 6 66 44q3 0 11 3t11 4q7 2 16 9t23 5q15 -2 27 10t19 15t16 4q10 1 29 11t40 12q21 1 29 3l68 14h10q17 0 37 10h37z" />
    <glyph glyph-name="Ugrave" unicode="&#xd9;" horiz-adv-x="1597" 
d="M549 203q117 0 182 -13l35 13l20 -4l17 4q33 0 51 9t54 19t61 29q26 20 28 25q35 18 41 33t9 17q22 16 22 40q27 40 27 65q2 8 14 25t12 55q-10 20 -10 35l14 33q2 4 1 20t5 26q7 11 7 15v37q10 20 10 29v37l10 26l-4 19l16 37q0 6 -1 20t11 51q13 37 13 54v20l10 57
q0 10 9 38t6 67q-2 39 0 48t8 18t6 16v20q0 53 8 77q10 29 10 62l11 43q0 8 -1 33t11 37q2 4 1 26t-1 25q8 49 63 56q35 0 60 -7l51 4q6 0 15 -3t13 -4t19 3q16 4 20 -4q20 -18 11 -55l-8 -23q-2 -6 2 -18t-5 -25q-8 -14 -10 -19t-1 -16t0 -19t-7 -20t-7 -20t0 -26t-1 -27
l-10 -29q-2 -12 -3 -32t-4 -31l-10 -27q-2 -8 0 -30t-7 -44t-9 -42v-21q-10 -20 -10 -32v-27q0 -8 -7 -17v-33l-5 -20q-3 -12 -5 -19t-3 -28t-13 -55v-54q0 -4 -4 -12t-11 -33q-6 -26 -6 -30v-33l-16 -74v-29l-10 -30v-43q-13 -38 -14 -66q-1 -27 -4 -32t-5 -9t-3 -7t-7 -26
q-6 -22 -11 -34q-4 -12 -14 -26q-40 -57 -42 -76q-1 -19 -16 -30q-14 -12 -36 -36t-36 -34q-14 -9 -22 -12t-32 -22q-24 -20 -30 -22t-17 -6t-43 -20q-39 -21 -56 -23q-17 -1 -44 -13t-42 -17t-69 -5l-16 -5l-25 3q-4 0 -9 -2t-9 -4q-4 -1 -18 -5t-36 -4l-29 10l-28 -8
q-3 -2 -19 -2t-40 12h-54l-16 5h-16q-25 0 -45 10q-86 0 -120 28q-14 11 -50 27l-17 2q-8 8 -18 23q-6 4 -26 16t-32 30q-12 19 -16 23q-4 5 -12 13t-13 12q-2 4 -5 13t-13 20t-13 19t-7 22q-5 14 -9 25t-9 25t-10 20q-5 8 -5 24v22q-4 49 -4 58l6 16v49l10 28v8l8 26l-2 18
l4 14v29q2 6 6 20t6 18q1 5 0 19q-1 21 10 54t10 47q-2 22 11 47v15q0 16 5 30t6 20l-11 48q2 12 18 38t9 58q-6 31 -6 33l22 63v39l4 19q0 3 -1 30t7 36q8 10 6 29q-1 19 7 57q8 37 13 81q4 44 9 53q4 10 3 24t2 23q4 8 6 32t4 28q8 31 55 43q12 4 41 -5t73 3q44 11 72 -15
q8 -10 11 -30t-6 -36q-9 -17 -11 -27t-8 -33q-8 -32 -8 -64l-10 -51q-1 -26 -7 -36t-8 -16t-2 -57l-10 -39v-24q-10 -10 -10 -19l4 -45l-10 -22q-2 -6 -1 -18q2 -22 -5 -32q-7 -9 -9 -23q-2 -15 1 -25t1 -17l-12 -37l2 -18l-4 -29q0 -39 -2 -44t-13 -19q-10 -14 -12 -20
q-2 -8 -1 -28t1 -26q-6 -6 -6 -20v-29q0 -5 -6 -17q0 -86 -6 -92l-8 -23q-2 -7 0 -29t-2 -28l-9 -22q0 -4 5 -17t-7 -28t-12 -26t12 -50l19 -56q10 -17 34 -35t32 -28q10 -10 16 -14t55 -23l23 -14h53zM721 1935q0 15 -27 33q-2 2 -5 8q-5 10 -14 14t-24 33q-10 7 -8 23
t29 12h41q4 0 20 -3t48 6t47 -7q16 -16 16 -18q2 -2 6 -4t7 -6t4 -5q1 -2 3 -8t4 -10q18 -9 28 -29l11 -22q3 -2 5 -7t6 -9t6 -9q2 -4 11 -13t12 -11l5 -5t8 -7t9 -9l22 -29q6 -17 16 -26q11 -9 14 -15t6 -7q6 -2 8 -14t10 -20t13 -17t-6 -16t-32 -1h-41l-29 -4l-24 4
q-21 -6 -29 -2q-9 4 -21 17t-17 18q-7 7 -11 16t-15 17q-12 9 -15 13t-7 13q-6 12 -17 18t-14 18q-3 11 -16 26q-12 14 -25 20t-14 13q-2 7 -3 8t-1 3z" />
    <glyph glyph-name="Uacute" unicode="&#xda;" horiz-adv-x="1597" 
d="M549 203q117 0 182 -13l35 13l20 -4l17 4q33 0 51 9t54 19t61 29q26 20 28 25q35 18 41 33t9 17q22 16 22 40q27 40 27 65q2 8 14 25t12 55q-10 20 -10 35l14 33q2 4 1 20t5 26q7 11 7 15v37q10 20 10 29v37l10 26l-4 19l16 37q0 6 -1 20t11 51q13 37 13 54v20l10 57
q0 10 9 38t6 67q-2 39 0 48t8 18t6 16v20q0 53 8 77q10 29 10 62l11 43q0 8 -1 33t11 37q2 4 1 26t-1 25q8 49 63 56q35 0 60 -7l51 4q6 0 15 -3t13 -4t19 3q16 4 20 -4q20 -18 11 -55l-8 -23q-2 -6 2 -18t-5 -25q-8 -14 -10 -19t-1 -16t0 -19t-7 -20t-7 -20t0 -26t-1 -27
l-10 -29q-2 -12 -3 -32t-4 -31l-10 -27q-2 -8 0 -30t-7 -44t-9 -42v-21q-10 -20 -10 -32v-27q0 -8 -7 -17v-33l-5 -20q-3 -12 -5 -19t-3 -28t-13 -55v-54q0 -4 -4 -12t-11 -33q-6 -26 -6 -30v-33l-16 -74v-29l-10 -30v-43q-13 -38 -14 -66q-1 -27 -4 -32t-5 -9t-3 -7t-7 -26
q-6 -22 -11 -34q-4 -12 -14 -26q-40 -57 -42 -76q-1 -19 -16 -30q-14 -12 -36 -36t-36 -34q-14 -9 -22 -12t-32 -22q-24 -20 -30 -22t-17 -6t-43 -20q-39 -21 -56 -23q-17 -1 -44 -13t-42 -17t-69 -5l-16 -5l-25 3q-4 0 -9 -2t-9 -4q-4 -1 -18 -5t-36 -4l-29 10l-28 -8
q-3 -2 -19 -2t-40 12h-54l-16 5h-16q-25 0 -45 10q-86 0 -120 28q-14 11 -50 27l-17 2q-8 8 -18 23q-6 4 -26 16t-32 30q-12 19 -16 23q-4 5 -12 13t-13 12q-2 4 -5 13t-13 20t-13 19t-7 22q-5 14 -9 25t-9 25t-10 20q-5 8 -5 24v22q-4 49 -4 58l6 16v49l10 28v8l8 26l-2 18
l4 14v29q2 6 6 20t6 18q1 5 0 19q-1 21 10 54t10 47q-2 22 11 47v15q0 16 5 30t6 20l-11 48q2 12 18 38t9 58q-6 31 -6 33l22 63v39l4 19q0 3 -1 30t7 36q8 10 6 29q-1 19 7 57q8 37 13 81q4 44 9 53q4 10 3 24t2 23q4 8 6 32t4 28q8 31 55 43q12 4 41 -5t73 3q44 11 72 -15
q8 -10 11 -30t-6 -36q-9 -17 -11 -27t-8 -33q-8 -32 -8 -64l-10 -51q-1 -26 -7 -36t-8 -16t-2 -57l-10 -39v-24q-10 -10 -10 -19l4 -45l-10 -22q-2 -6 -1 -18q2 -22 -5 -32q-7 -9 -9 -23q-2 -15 1 -25t1 -17l-12 -37l2 -18l-4 -29q0 -39 -2 -44t-13 -19q-10 -14 -12 -20
q-2 -8 -1 -28t1 -26q-6 -6 -6 -20v-29q0 -5 -6 -17q0 -86 -6 -92l-8 -23q-2 -7 0 -29t-2 -28l-9 -22q0 -4 5 -17t-7 -28t-12 -26t12 -50l19 -56q10 -17 34 -35t32 -28q10 -10 16 -14t55 -23l23 -14h53zM1141 2066h41q18 2 25 -7t0 -20t-11 -21t-7 -12q-3 -3 -10 -7t-9 -6
t-6 -8q-3 -7 -5 -9t-10 -8t-11 -9q-5 -5 -5 -15v-5q-1 0 -3 -4q-3 -9 -25 -19q-21 -10 -28 -31t-17 -28t-16 -18q-10 -17 -22 -24t-15 -16t-20 -29t-28 -26q-11 -5 -31 1l-25 -4l-29 4h-40q-23 -6 -36 3t3 24q15 15 17 27q2 11 6 13q5 3 7 5q4 8 15 19q10 11 16 26l21 28
l18 17q2 4 11 11t14 11q5 11 10 16q4 5 6 9t4 6t7 13q9 20 18 26q9 7 11 11q3 6 6 10t3 10q11 12 15 14t11 10q20 23 81 10q4 -4 21 -1t22 3z" />
    <glyph glyph-name="Ucircumflex" unicode="&#xdb;" horiz-adv-x="1597" 
d="M549 203q117 0 182 -13l35 13l20 -4l17 4q33 0 51 9t54 19t61 29q26 20 28 25q35 18 41 33t9 17q22 16 22 40q27 40 27 65q2 8 14 25t12 55q-10 20 -10 35l14 33q2 4 1 20t5 26q7 11 7 15v37q10 20 10 29v37l10 26l-4 19l16 37q0 6 -1 20t11 51q13 37 13 54v20l10 57
q0 10 9 38t6 67q-2 39 0 48t8 18t6 16v20q0 53 8 77q10 29 10 62l11 43q0 8 -1 33t11 37q2 4 1 26t-1 25q8 49 63 56q35 0 60 -7l51 4q6 0 15 -3t13 -4t19 3q16 4 20 -4q20 -18 11 -55l-8 -23q-2 -6 2 -18t-5 -25q-8 -14 -10 -19t-1 -16t0 -19t-7 -20t-7 -20t0 -26t-1 -27
l-10 -29q-2 -12 -3 -32t-4 -31l-10 -27q-2 -8 0 -30t-7 -44t-9 -42v-21q-10 -20 -10 -32v-27q0 -8 -7 -17v-33l-5 -20q-3 -12 -5 -19t-3 -28t-13 -55v-54q0 -4 -4 -12t-11 -33q-6 -26 -6 -30v-33l-16 -74v-29l-10 -30v-43q-13 -38 -14 -66q-1 -27 -4 -32t-5 -9t-3 -7t-7 -26
q-6 -22 -11 -34q-4 -12 -14 -26q-40 -57 -42 -76q-1 -19 -16 -30q-14 -12 -36 -36t-36 -34q-14 -9 -22 -12t-32 -22q-24 -20 -30 -22t-17 -6t-43 -20q-39 -21 -56 -23q-17 -1 -44 -13t-42 -17t-69 -5l-16 -5l-25 3q-4 0 -9 -2t-9 -4q-4 -1 -18 -5t-36 -4l-29 10l-28 -8
q-3 -2 -19 -2t-40 12h-54l-16 5h-16q-25 0 -45 10q-86 0 -120 28q-14 11 -50 27l-17 2q-8 8 -18 23q-6 4 -26 16t-32 30q-12 19 -16 23q-4 5 -12 13t-13 12q-2 4 -5 13t-13 20t-13 19t-7 22q-5 14 -9 25t-9 25t-10 20q-5 8 -5 24v22q-4 49 -4 58l6 16v49l10 28v8l8 26l-2 18
l4 14v29q2 6 6 20t6 18q1 5 0 19q-1 21 10 54t10 47q-2 22 11 47v15q0 16 5 30t6 20l-11 48q2 12 18 38t9 58q-6 31 -6 33l22 63v39l4 19q0 3 -1 30t7 36q8 10 6 29q-1 19 7 57q8 37 13 81q4 44 9 53q4 10 3 24t2 23q4 8 6 32t4 28q8 31 55 43q12 4 41 -5t73 3q44 11 72 -15
q8 -10 11 -30t-6 -36q-9 -17 -11 -27t-8 -33q-8 -32 -8 -64l-10 -51q-1 -26 -7 -36t-8 -16t-2 -57l-10 -39v-24q-10 -10 -10 -19l4 -45l-10 -22q-2 -6 -1 -18q2 -22 -5 -32q-7 -9 -9 -23q-2 -15 1 -25t1 -17l-12 -37l2 -18l-4 -29q0 -39 -2 -44t-13 -19q-10 -14 -12 -20
q-2 -8 -1 -28t1 -26q-6 -6 -6 -20v-29q0 -5 -6 -17q0 -86 -6 -92l-8 -23q-2 -7 0 -29t-2 -28l-9 -22q0 -4 5 -17t-7 -28t-12 -26t12 -50l19 -56q10 -17 34 -35t32 -28q10 -10 16 -14t55 -23l23 -14h53zM1183 1739h-11l-21 -2l-31 -4q-6 0 -13 3t-20 0t-16 1q-10 2 -18 16
q-7 14 -13 21t-6 14l-2 8q-21 21 -24 33t-11 18t-10 19t-15 35q-12 22 -26 22t-37 -20t-30 -29q-1 -2 -5 -8t-6 -11q-4 -2 -12 -7t-12 -7q-4 -4 -11 -12t-11 -11q-4 -4 -10 -8q-5 -4 -12 -9t-15 -14q-3 -5 -11 -10t-31 -27q-22 -22 -49 -13l-26 -4l-27 4h-41q-33 -10 -36 5
q-2 14 12 23q14 11 17 15t6 11t6 10t6 4t7 6t18 17t18 19q5 7 28 29q23 21 29 22q9 9 21 18t18 15q4 6 7 8l7 7l6 6t11 14t22 23q14 12 18 15t7 9t8 8q7 14 14 21q8 6 22 8l56 -2q4 2 11 -1t17 3t22 8t24 -2q13 -4 16 -4l22 6l39 -2q6 3 11 -6q4 -10 12 -18t8 -16
q2 -11 8 -17q5 -5 9 -14q3 -9 7 -20t5 -13q2 -2 2 -13q4 -2 5 -8t4 -10t9 -11t8 -12q7 0 15 -16l12 -27q2 -16 9 -27q7 -10 9 -16t6 -7t4 -4q1 -3 0 -10q-1 -10 11 -26t-4 -24q-17 -8 -29 -5t-17 3z" />
    <glyph glyph-name="Udieresis" unicode="&#xdc;" horiz-adv-x="1597" 
d="M549 203q117 0 182 -13l35 13l20 -4l17 4q33 0 51 9t54 19t61 29q26 20 28 25q35 18 41 33t9 17q22 16 22 40q27 40 27 65q2 8 14 25t12 55q-10 20 -10 35l14 33q2 4 1 20t5 26q7 11 7 15v37q10 20 10 29v37l10 26l-4 19l16 37q0 6 -1 20t11 51q13 37 13 54v20l10 57
q0 10 9 38t6 67q-2 39 0 48t8 18t6 16v20q0 53 8 77q10 29 10 62l11 43q0 8 -1 33t11 37q2 4 1 26t-1 25q8 49 63 56q35 0 60 -7l51 4q6 0 15 -3t13 -4t19 3q16 4 20 -4q20 -18 11 -55l-8 -23q-2 -6 2 -18t-5 -25q-8 -14 -10 -19t-1 -16t0 -19t-7 -20t-7 -20t0 -26t-1 -27
l-10 -29q-2 -12 -3 -32t-4 -31l-10 -27q-2 -8 0 -30t-7 -44t-9 -42v-21q-10 -20 -10 -32v-27q0 -8 -7 -17v-33l-5 -20q-3 -12 -5 -19t-3 -28t-13 -55v-54q0 -4 -4 -12t-11 -33q-6 -26 -6 -30v-33l-16 -74v-29l-10 -30v-43q-13 -38 -14 -66q-1 -27 -4 -32t-5 -9t-3 -7t-7 -26
q-6 -22 -11 -34q-4 -12 -14 -26q-40 -57 -42 -76q-1 -19 -16 -30q-14 -12 -36 -36t-36 -34q-14 -9 -22 -12t-32 -22q-24 -20 -30 -22t-17 -6t-43 -20q-39 -21 -56 -23q-17 -1 -44 -13t-42 -17t-69 -5l-16 -5l-25 3q-4 0 -9 -2t-9 -4q-4 -1 -18 -5t-36 -4l-29 10l-28 -8
q-3 -2 -19 -2t-40 12h-54l-16 5h-16q-25 0 -45 10q-86 0 -120 28q-14 11 -50 27l-17 2q-8 8 -18 23q-6 4 -26 16t-32 30q-12 19 -16 23q-4 5 -12 13t-13 12q-2 4 -5 13t-13 20t-13 19t-7 22q-5 14 -9 25t-9 25t-10 20q-5 8 -5 24v22q-4 49 -4 58l6 16v49l10 28v8l8 26l-2 18
l4 14v29q2 6 6 20t6 18q1 5 0 19q-1 21 10 54t10 47q-2 22 11 47v15q0 16 5 30t6 20l-11 48q2 12 18 38t9 58q-6 31 -6 33l22 63v39l4 19q0 3 -1 30t7 36q8 10 6 29q-1 19 7 57q8 37 13 81q4 44 9 53q4 10 3 24t2 23q4 8 6 32t4 28q8 31 55 43q12 4 41 -5t73 3q44 11 72 -15
q8 -10 11 -30t-6 -36q-9 -17 -11 -27t-8 -33q-8 -32 -8 -64l-10 -51q-1 -26 -7 -36t-8 -16t-2 -57l-10 -39v-24q-10 -10 -10 -19l4 -45l-10 -22q-2 -6 -1 -18q2 -22 -5 -32q-7 -9 -9 -23q-2 -15 1 -25t1 -17l-12 -37l2 -18l-4 -29q0 -39 -2 -44t-13 -19q-10 -14 -12 -20
q-2 -8 -1 -28t1 -26q-6 -6 -6 -20v-29q0 -5 -6 -17q0 -86 -6 -92l-8 -23q-2 -7 0 -29t-2 -28l-9 -22q0 -4 5 -17t-7 -28t-12 -26t12 -50l19 -56q10 -17 34 -35t32 -28q10 -10 16 -14t55 -23l23 -14h53zM848 2009q33 0 47 -29t6 -63l-14 -43l-4 -37q-6 -5 -6 -19v-21
q0 -19 -11 -38q-14 -18 -57 -24l-39 16l-20 -10q-4 -2 -20 -1t-21 1l-25 -4q-24 -1 -33 23q-8 24 -9 28t-3 10t-2 11t1 13t3 17q2 8 5 15q3 8 5 16t4 14t2 20q1 14 3 23q2 7 3 21q3 44 27 49q10 2 20 7t13 5l41 -4q14 0 36 3t34 2t14 -1zM1182 2009q33 0 47 -29t6 -63
l-14 -43l-4 -37q-7 -7 -7 -20v-20q0 -53 -67 -62l-39 16l-21 -10q-4 -2 -20 -1t-21 1l-24 -4q-27 0 -39 45q-8 20 -8 32t8 37t10 31t2 10v10l2 18q0 5 2 9q0 68 28 68l13 2q10 10 21 10l41 -4q14 0 36 3t33 2q12 -1 15 -1z" />
    <glyph glyph-name="agrave" unicode="&#xe0;" horiz-adv-x="1050" 
d="M907 186l-16 -44v-31q0 -75 -24 -97t-56 -22l-16 4h-58l-29 -2q-8 0 -22 6t-17 12t-8 20t-16 15l-57 -24h-8l-21 -13q-21 -14 -38 -14h-21l-21 -4q-2 0 -14 4t-30 -11t-70 -3q-3 0 -33 10q-8 0 -26 -1t-40 4q-20 5 -61 31t-45 25q-14 0 -25 25q-2 2 -3 8t-3 10
q-16 16 -24 23t-15 45l-10 40v11l-10 41l10 27q2 8 1 22t-1 21l16 26v9q0 14 16 35q23 32 29 49q6 18 23 26q18 9 40 25t32 20q8 4 17 6t11 4l27 15h20q30 10 49 10q20 10 27 10h45q8 2 34 10q38 12 77 6l20 7q5 2 19 1t18 -1l27 6q8 0 37 -2t36 2l27 14q33 18 35 29
q12 76 -33 108q-9 9 -53 9q-10 10 -35 14t-52 -3q-26 -7 -52 -5t-39 -6q-12 -9 -28 -13t-34 -18q-18 -15 -34 -18q-15 -3 -20 -5t-12 -9q-8 -7 -16 -7q-39 0 -72 40l-17 17q-52 57 -50 86q0 9 12 21t38 22t34 16t25 10q17 5 37 10t30 11q11 5 19 7t27 1t28 1l18 10q7 2 21 1
t42 4t32 6q5 1 25 1t29 2t15 0t13 -2l18 4q16 0 22 -6q4 0 18 1t27 -9t17 -12t23 -1q58 3 82 -26q5 -6 9 -11q4 -6 10 -12q5 -6 9 -11t17 -14q14 -9 24 -23t18 -38q8 -26 13 -31q4 -5 6 -13t-5 -28q-7 -18 -7 -26t6 -20t5 -36t-11 -34v-16l-11 -50q-2 -6 -1 -20t0 -20
t-7 -18q-6 -11 -8 -18t-1 -33t1 -36q-9 -54 -16 -57q0 -76 -11 -115v-27zM594 412q-14 -4 -59 -4l-21 -13q-8 0 -31 1t-36 -7t-37 -16q-30 -10 -37 -20q-8 -10 -17 -15q-10 -4 -16 -7t-12 -17q-6 -15 -6 -17q-31 -57 0 -96l18 -15q28 -22 37 -22h12q61 -7 76 -3q16 5 39 3
t28 2l19 8q8 4 22 8t27 11q14 6 20 8t18 7q13 5 25 8t24 24q13 20 20 48q8 29 2 42t10 39t17 31q2 12 -11 15q-54 14 -104 -3h-27zM518 1286q0 8 -13 17q-13 10 -18 18t-16 15q-11 6 -15 17q-5 11 -12 23t-1 21q7 8 26 6h41q4 0 21 -3t48 6t47 -7q15 -16 15 -19q2 0 6 -3
t7 -5t6 -11t8 -11q2 -4 11 -12t16 -24t9 -18t5 -6q2 -4 6 -8t9 -12t14 -16q10 -8 12 -10q2 -3 8 -8t10 -9l20 -29q6 -14 16 -26t14 -16q4 -5 10 -7t6 -13q0 -12 15 -27t3 -25q-12 -9 -35 -3h-41l-28 -4l-25 4q-21 -6 -29 -2q-8 3 -20 17t-19 20t-9 14q-2 7 -9 13
q-6 6 -15 14q-10 9 -14 17q-5 11 -16 18q-11 8 -14 18q-4 11 -16 25q-13 14 -23 19t-19 18q0 4 -1 5t-1 9z" />
    <glyph glyph-name="aacute" unicode="&#xe1;" horiz-adv-x="1050" 
d="M907 186l-16 -44v-31q0 -75 -24 -97t-56 -22l-16 4h-58l-29 -2q-8 0 -22 6t-17 12t-8 20t-16 15l-57 -24h-8l-21 -13q-21 -14 -38 -14h-21l-21 -4q-2 0 -14 4t-30 -11t-70 -3q-3 0 -33 10q-8 0 -26 -1t-40 4q-20 5 -61 31t-45 25q-14 0 -25 25q-2 2 -3 8t-3 10
q-16 16 -24 23t-15 45l-10 40v11l-10 41l10 27q2 8 1 22t-1 21l16 26v9q0 14 16 35q23 32 29 49q6 18 23 26q18 9 40 25t32 20q8 4 17 6t11 4l27 15h20q30 10 49 10q20 10 27 10h45q8 2 34 10q38 12 77 6l20 7q5 2 19 1t18 -1l27 6q8 0 37 -2t36 2l27 14q33 18 35 29
q12 76 -33 108q-9 9 -53 9q-10 10 -35 14t-52 -3q-26 -7 -52 -5t-39 -6q-12 -9 -28 -13t-34 -18q-18 -15 -34 -18q-15 -3 -20 -5t-12 -9q-8 -7 -16 -7q-39 0 -72 40l-17 17q-52 57 -50 86q0 9 12 21t38 22t34 16t25 10q17 5 37 10t30 11q11 5 19 7t27 1t28 1l18 10q7 2 21 1
t42 4t32 6q5 1 25 1t29 2t15 0t13 -2l18 4q16 0 22 -6q4 0 18 1t27 -9t17 -12t23 -1q58 3 82 -26q5 -6 9 -11q4 -6 10 -12q5 -6 9 -11t17 -14q14 -9 24 -23t18 -38q8 -26 13 -31q4 -5 6 -13t-5 -28q-7 -18 -7 -26t6 -20t5 -36t-11 -34v-16l-11 -50q-2 -6 -1 -20t0 -20
t-7 -18q-6 -11 -8 -18t-1 -33t1 -36q-9 -54 -16 -57q0 -76 -11 -115v-27zM594 412q-14 -4 -59 -4l-21 -13q-8 0 -31 1t-36 -7t-37 -16q-30 -10 -37 -20q-8 -10 -17 -15q-10 -4 -16 -7t-12 -17q-6 -15 -6 -17q-31 -57 0 -96l18 -15q28 -22 37 -22h12q61 -7 76 -3q16 5 39 3
t28 2l19 8q8 4 22 8t27 11q14 6 20 8t18 7q13 5 25 8t24 24q13 20 20 48q8 29 2 42t10 39t17 31q2 12 -11 15q-54 14 -104 -3h-27zM862 1399h41q27 4 29 -11q2 -16 -4 -22t-10 -15t-8 -13t-6 -5q-3 -2 -7 -4q-7 -3 -11 -13q-4 -9 -18 -17t-14 -17q0 -8 -1 -9t-3 -7t-21 -18
q-20 -12 -30 -34q-2 -2 -5 -12t-14 -15q-10 -6 -16 -18q-6 -13 -23 -25q-16 -12 -16 -24q-8 -8 -28 -29q-20 -22 -48 -14l-24 -4l-29 4h-41q-20 -6 -32 1q-16 10 14 41q2 3 4 15t6 12q4 1 7 6t13 15t17 27l22 29q4 7 11 13q8 6 18 13q10 8 15 18q5 9 8 12t6 7q2 4 4 6t7 14
q13 30 32 37q2 4 4 12t10 14q10 7 20 19q19 23 78 9q7 -4 23 -1t20 3z" />
    <glyph glyph-name="acircumflex" unicode="&#xe2;" horiz-adv-x="1050" 
d="M907 186l-16 -44v-31q0 -75 -24 -97t-56 -22l-16 4h-58l-29 -2q-8 0 -22 6t-17 12t-8 20t-16 15l-57 -24h-8l-21 -13q-21 -14 -38 -14h-21l-21 -4q-2 0 -14 4t-30 -11t-70 -3q-3 0 -33 10q-8 0 -26 -1t-40 4q-20 5 -61 31t-45 25q-14 0 -25 25q-2 2 -3 8t-3 10
q-16 16 -24 23t-15 45l-10 40v11l-10 41l10 27q2 8 1 22t-1 21l16 26v9q0 14 16 35q23 32 29 49q6 18 23 26q18 9 40 25t32 20q8 4 17 6t11 4l27 15h20q30 10 49 10q20 10 27 10h45q8 2 34 10q38 12 77 6l20 7q5 2 19 1t18 -1l27 6q8 0 37 -2t36 2l27 14q33 18 35 29
q12 76 -33 108q-9 9 -53 9q-10 10 -35 14t-52 -3q-26 -7 -52 -5t-39 -6q-12 -9 -28 -13t-34 -18q-18 -15 -34 -18q-15 -3 -20 -5t-12 -9q-8 -7 -16 -7q-39 0 -72 40l-17 17q-52 57 -50 86q0 9 12 21t38 22t34 16t25 10q17 5 37 10t30 11q11 5 19 7t27 1t28 1l18 10q7 2 21 1
t42 4t32 6q5 1 25 1t29 2t15 0t13 -2l18 4q16 0 22 -6q4 0 18 1t27 -9t17 -12t23 -1q58 3 82 -26q5 -6 9 -11q4 -6 10 -12q5 -6 9 -11t17 -14q14 -9 24 -23t18 -38q8 -26 13 -31q4 -5 6 -13t-5 -28q-7 -18 -7 -26t6 -20t5 -36t-11 -34v-16l-11 -50q-2 -6 -1 -20t0 -20
t-7 -18q-6 -11 -8 -18t-1 -33t1 -36q-9 -54 -16 -57q0 -76 -11 -115v-27zM594 412q-14 -4 -59 -4l-21 -13q-8 0 -31 1t-36 -7t-37 -16q-30 -10 -37 -20q-8 -10 -17 -15q-10 -4 -16 -7t-12 -17q-6 -15 -6 -17q-31 -57 0 -96l18 -15q28 -22 37 -22h12q61 -7 76 -3q16 5 39 3
t28 2l19 8q8 4 22 8t27 11q14 6 20 8t18 7q13 5 25 8t24 24q13 20 20 48q8 29 2 42t10 39t17 31q2 12 -11 15q-54 14 -104 -3h-27zM937 1157q3 -8 7 -8t4 -11q0 -10 1 -14t4 -8t5 -7t5 -5q3 -14 -9 -22t-32 -1h-41l-31 -4l-23 4q-22 -6 -29 -2q-6 3 -16 17t-15 20t-6 13
q-2 11 -13 21q-12 10 -17 24q-4 13 -20 26l-2 17q-24 47 -41 49q-14 0 -42 -25t-30 -32t-5 -10q-5 -5 -17 -12t-18 -15q-5 -9 -9 -13q-25 -13 -31 -24t-8 -13q-4 -2 -10 -7t-11 -7q-27 -27 -36 -30t-19 -1t-15 1t-7 -1l-12 -2l-27 4l-30 2q-7 0 -16 -2t-19 -1t-13 8
q-2 6 3 12t7 9t5 5t11 10q13 24 17 26t8 6q4 5 17 16q13 12 17 20t20 24t19 17q3 2 7 5l8 6t14 10q10 8 14 12t9 10q4 6 8 8q2 2 6 7t5 6q2 1 10 13t13 17q5 6 13 12q17 13 25 28q9 15 18 22q9 6 35 6h39q4 0 11 -3t24 7t57 2l21 2h39q8 0 11 -9t11 -15q9 -8 11 -19t10 -19
t13 -25q5 -16 6 -18t5 -9t5 -13t11 -16t13 -17q2 0 7 -6t7 -8l15 -29q2 -12 9 -22t10 -19z" />
    <glyph glyph-name="adieresis" unicode="&#xe4;" horiz-adv-x="1050" 
d="M907 186l-16 -44v-31q0 -75 -24 -97t-56 -22l-16 4h-58l-29 -2q-8 0 -22 6t-17 12t-8 20t-16 15l-57 -24h-8l-21 -13q-21 -14 -38 -14h-21l-21 -4q-2 0 -14 4t-30 -11t-70 -3q-3 0 -33 10q-8 0 -26 -1t-40 4q-20 5 -61 31t-45 25q-14 0 -25 25q-2 2 -3 8t-3 10
q-16 16 -24 23t-15 45l-10 40v11l-10 41l10 27q2 8 1 22t-1 21l16 26v9q0 14 16 35q23 32 29 49q6 18 23 26q18 9 40 25t32 20q8 4 17 6t11 4l27 15h20q30 10 49 10q20 10 27 10h45q8 2 34 10q38 12 77 6l20 7q5 2 19 1t18 -1l27 6q8 0 37 -2t36 2l27 14q33 18 35 29
q12 76 -33 108q-9 9 -53 9q-10 10 -35 14t-52 -3q-26 -7 -52 -5t-39 -6q-12 -9 -28 -13t-34 -18q-18 -15 -34 -18q-15 -3 -20 -5t-12 -9q-8 -7 -16 -7q-39 0 -72 40l-17 17q-52 57 -50 86q0 9 12 21t38 22t34 16t25 10q17 5 37 10t30 11q11 5 19 7t27 1t28 1l18 10q7 2 21 1
t42 4t32 6q5 1 25 1t29 2t15 0t13 -2l18 4q16 0 22 -6q4 0 18 1t27 -9t17 -12t23 -1q58 3 82 -26q5 -6 9 -11q4 -6 10 -12q5 -6 9 -11t17 -14q14 -9 24 -23t18 -38q8 -26 13 -31q4 -5 6 -13t-5 -28q-7 -18 -7 -26t6 -20t5 -36t-11 -34v-16l-11 -50q-2 -6 -1 -20t0 -20
t-7 -18q-6 -11 -8 -18t-1 -33t1 -36q-9 -54 -16 -57q0 -76 -11 -115v-27zM594 412q-14 -4 -59 -4l-21 -13q-8 0 -31 1t-36 -7t-37 -16q-30 -10 -37 -20q-8 -10 -17 -15q-10 -4 -16 -7t-12 -17q-6 -15 -6 -17q-31 -57 0 -96l18 -15q28 -22 37 -22h12q61 -7 76 -3q16 5 39 3
t28 2l19 8q8 4 22 8t27 11q14 6 20 8t18 7q13 5 25 8t24 24q13 20 20 48q8 29 2 42t10 39t17 31q2 12 -11 15q-54 14 -104 -3h-27zM629 1192q0 -12 -4 -21q0 -17 -7 -26v-27q0 -14 -8 -26q-14 -16 -40 -20t-38 4q-12 9 -18 7l-20 -8q-4 -4 -22 -3t-21 1q-5 0 -11 -1t-10 -2
t-9 1t-15 8t-17 35l-8 27q0 25 8 47t10 31l2 21l2 24q2 6 4 29t12 31q9 9 19 9q9 0 29 10l41 -4q14 -2 41 3t43 1q33 1 47 -29t9 -50t-10 -35q-5 -13 -7 -19t-2 -18zM952 1118q0 -14 -8 -26q-14 -16 -40 -20t-38 4q-12 9 -18 7l-21 -8q-4 -4 -21 -3q-18 1 -22 1t-14 -3
t-27 5q-14 10 -20 39l-8 27q0 25 10 53t10 39l2 31q2 6 4 29t13 30q7 10 17 10t30 10l41 -4q14 -2 40 3t44 1q33 1 47 -29t9 -50t-10 -35l-7 -21t-3 -19t-4 -18q0 -14 -6 -26v-27z" />
    <glyph glyph-name="ccedilla" unicode="&#xe7;" horiz-adv-x="1036" 
d="M371 -389q-47 37 -47 56q0 20 17 20q8 0 10 4q3 4 4 5t6 3t13 11t21 -5q13 -13 15 -21t8 -14t9 -7t12 -7t13 -6h7q4 0 4 2l16 -2q35 0 57 15q28 18 35 31q5 13 13 22q12 14 12 31v20q4 8 4 12l-6 21v20q-9 26 -37 43l-14 2q-7 6 -11 6t-8 -1t-12 3t-16 0q-30 7 -11 45
q2 10 0 25l7 22q-2 8 -19 4l-27 -10q-23 0 -33 7q-9 7 -18 7l-26 -2l-37 23q-2 2 -5 2t-6 1t-7 2t-8 6q-7 7 -25 7t-43 19t-30 30q-5 12 -20 24q-16 11 -22 17q-6 12 -10 25t-8 16l-7 7q-8 10 -14 27q-7 18 -19 30t-14 18l-2 17l-8 20q-2 6 -2 22v23q0 11 -10 41l6 43v58
l14 38q2 5 -2 21q-6 23 12 59l2 9q0 11 8 25q8 15 18 38q9 23 21 40q13 16 19 30t10 22l19 17q2 4 4 14q3 13 14 19t25 19t19 17t13 8q8 5 12 7q6 4 11 13t21 14q16 6 28 15q11 9 18 9q11 0 22 11t41 18q30 8 38 8q13 0 23 6q11 6 41 12q31 6 49 3t21 -4t13 4t34 1t33 -12
t16 -10t25 -8t36 -9q6 -4 14 -9t16 -11t12 -8q4 -1 9 -3q4 -2 15 -5t19 -12q8 -10 25 -22q18 -12 27 -26q10 -14 37 -39t30 -35q3 -9 3 -29q0 -46 -41 -55q-17 -3 -23 -12t-22 -15q-15 -7 -29 -23q-14 -15 -36 -7t-30 20q-14 21 -18 35q-4 13 -35 53q-12 12 -45 25
q-29 16 -35 18q-20 0 -24 -4l-39 4q-6 -6 -14 -6t-30 1t-40 -4q-18 -6 -50 -28q-31 -23 -46 -32q-15 -10 -27 -26q-11 -16 -15 -20t-12 -25q-8 -20 -24 -39t-20 -28t-5 -46v-48q-8 -16 -8 -30l10 -58q2 -8 2 -24v-25q4 -14 35 -61t73 -50q16 -1 28 -10q13 -8 19 -9t15 2
t15 2t24 -6t31 -3l20 8q4 2 29 2t49 22q35 32 54 41q20 8 49 44q28 35 57 33q40 -20 51 -37l16 -24q4 -5 22 -18t26 -36q6 -58 -50 -80q-5 -5 -41 -33q-6 -12 -20 -26q-10 -6 -35 -16t-32 -23q-8 -13 -23 -15t-23 -3t-13 -3t-14 -9q-14 -11 -24 -11h-8q-10 0 -21 -11
q-16 -3 -18 -12q-2 -8 -5 -15t-2 -7l11 -6h4q31 -12 31 -23q2 -2 7 -6q9 -7 11 -13t7 -11q4 -5 6 -9t14 -22v-5l4 -10v-16l4 -17l-2 -16v-23l-6 -16l2 -16l-6 -15q0 -7 -4 -13q-4 -7 -5 -9t-2 -7t-3 -7q-2 -3 -6 -7t-4 -6q-1 -2 -4 -7t-5 -9q-8 -5 -8 -11q0 -5 -2 -5
l-23 -17q-2 -2 -5 -3t-5 -3t-4 -5t-4 -3l-6 -4q-6 0 -15 -9h-6q-2 0 -8 -6q-29 -8 -33 -8t-15 -6t-23 -3q-13 3 -14 3t-10 -3t-20 4q-10 7 -28 10t-25 14q-10 0 -15 5t-5 7z" />
    <glyph glyph-name="egrave" unicode="&#xe8;" 
d="M784 926q51 0 160 -144q14 -14 20 -23t18 -43q11 -34 17 -44q5 -10 7 -15q2 -3 5 -25t8 -36t5 -30v-23l4 -43l-6 -23q0 -4 1 -20t-16 -34q-18 -18 -51 -11l-28 6q-4 0 -21 -2t-31 5t-20 9l-18 -4l-41 2l-31 -8l-31 6q-37 2 -45 0l-20 -6q-4 0 -23 5t-41 -3l-16 4h-66
l-16 -4q-20 10 -37 10l-43 -12l-20 6l-27 -2l-41 2q-33 -4 -42 -18t-9 -31l14 -33q29 -92 92 -123q31 -25 45 -31t58 -10q98 -14 180 23q11 3 25 13q14 11 25 11t38 27q30 10 45 23q15 12 23 12t19 -4t18 -20q7 -17 10 -21q33 -22 43 -40l14 -24q44 -48 1 -67
q-16 -7 -37 -24t-38 -18q-17 -2 -22 -6q-6 -3 -16 -17t-22 -19q-11 -4 -30 -5q-20 -2 -55 -10t-50 -16t-25 -12t-27 -4t-21 -5l-6 -2q-23 -2 -45 0l-19 7q-19 0 -24 -7q-31 -4 -58 5q-26 10 -42 13t-21 3q-4 0 -16 -3t-20 1t-27 17q-19 14 -24 15q-43 9 -91 57t-53 55
t-13 34q-2 2 -9 8t-21 37q-13 31 -19 67t-11 54q-5 16 -5 24l6 25v78q0 3 5 11q11 16 11 54l2 17q0 6 6 16q6 11 8 17t2 18q-1 12 1 18l8 19q14 41 17 47t13 13t17 20q6 12 8 15t9 8q12 9 36 46q24 38 34 44q55 27 60 32q6 6 44 30t43 25q6 1 24 5t26 7t26 13q17 10 26 12
l31 -4l36 4q37 2 64 0l14 -4q5 0 21 3t30 -2t20 -7q5 -2 22 -7q31 -9 42 -9zM803 645v10q-1 4 -21 33q-28 41 -41 41q-23 16 -75 37l-37 14q-17 2 -31 -4t-23 -6l-30 8q-9 0 -23 -8q-21 -12 -40 -15t-39 -18q-22 -18 -51 -33q-29 -14 -33 -37q-1 -5 -4 -9q-54 -64 -17 -78
q5 -5 84 -5q7 7 20 7l42 -7l36 7q12 2 35 -1t27 -3l32 4q22 -6 30 -5q7 1 28 -5t70 0q50 5 65 28q4 6 0 22t-4 23zM477 1282q0 6 -13 18q-13 11 -18 18q-6 10 -16 16q-11 6 -15 17q-5 11 -12 23t-1 21q7 8 26 6h41q4 0 21 -2t38 3t43 -1t30 -22q1 -1 8 -7t10 -14
q4 -8 16 -19t19 -27q8 -16 10 -18t4 -6t4 -6q4 -4 7 -11t15 -16q12 -10 14 -13t9 -8q6 -5 10 -9l21 -29q6 -14 16 -26t13 -16q3 -5 7 -6t7 -11q4 -17 19 -30q16 -13 2 -24q-13 -10 -36 -4h-41l-28 -4l-25 4q-20 -6 -28 -2q-8 3 -21 17q-12 14 -19 20t-10 15q-4 10 -18 22
t-19 20q-4 7 -7 11t-10 9t-9 7q-3 3 -5 12t-15 24t-24 20t-18 16q0 4 -1 5t-1 7z" />
    </font>
</defs>
</svg>
