<?xml version="1.0" standalone="no"?>
<!DOCTYPE svg PUBLIC "-//W3C//DTD SVG 1.1//EN" "http://www.w3.org/Graphics/SVG/1.1/DTD/svg11.dtd" >
<svg xmlns="http://www.w3.org/2000/svg">
<metadata>
Created by FontPrep 20130207 at Tue Apr 11 17:39:57 2017
 By Martin Campillo
Generated with Fons http://osp.kitchen/tools/fons/ from hd scan found in Specimen de caracteres Plantin, MIB G 158 B, KBR Brussels.
Prepared by Paol Darcel et Ludi in April 2016 - zigzaganimal.be
</metadata>
<defs>
<font id="837f316f87e92785dd5a09305704b18f" horiz-adv-x='1024' >
  <font-face 
    font-family="AntiqueNobleLight"
    font-weight="400"
    font-stretch="normal"
    units-per-em="2048"
    panose-1="2 0 5 3 0 0 0 0 0 0"
    ascent="1597"
    descent="-451"
    x-height="887"
    cap-height="1558"
    bbox="71.1111 -444.571 2085 2061.57"
    underline-thickness="51"
    underline-position="-105"
    unicode-range="U+0020-FEFF"
  />
<missing-glyph horiz-adv-x="1024" 
d="M205 102h614v861h-614v-861zM102 0v1065h820v-1065h-820z" />
    <glyph glyph-name=".notdef" horiz-adv-x="1024" 
d="M205 102h614v861h-614v-861zM102 0v1065h820v-1065h-820z" />
    <glyph glyph-name=".null" horiz-adv-x="0" 
 />
    <glyph glyph-name="nonmarkingreturn" horiz-adv-x="681" 
 />
    <glyph glyph-name="space" unicode=" " horiz-adv-x="614" 
 />
    <glyph glyph-name="exclam" unicode="!" horiz-adv-x="391" 
d="M127 1335q8 8 7 17q-1 8 -7 20q-28 55 14 93q11 10 25 16l20 -2q4 0 18 2t18 0q3 -2 5 -4t4 -3t5 -4l17 -2q7 0 11 -6t4 -45l2 -74q0 -25 -6 -43t-6 -22l10 -27q0 -37 -2 -47l-6 -30l6 -27q2 -2 2 -64v-303l-6 -45l4 -26q2 -12 2 -62q-6 -24 -6 -50t6 -38q0 -7 -4 -35
t-2 -45l6 -16q-8 -16 -8 -23l4 -28l-6 -37q0 -7 10 -27q0 -22 -6 -34q-6 -11 -8 -19q-8 -30 -45 -41q-9 -2 -19 1t-16 3l-8 2q-14 9 -24 34q-10 24 -8 28q1 4 4 11t3 13l-2 43q0 6 6 21l-6 20q-6 51 -4 74l6 24l-6 21v74q4 29 4 30l-4 21q-5 43 2 110q-8 32 -8 45l4 29
q2 8 2 45q-12 36 -12 39l6 19v34l4 17l-10 30l16 31l-4 17v7q0 5 -2 7l-8 24q4 16 10 62q0 5 -12 47q0 3 7 25t-2 33t-9 21t8 19zM129 124l6 42q0 16 12 37q6 4 18 5t19 7t13 8t9 1t7 -6q7 -9 18 -9h11q27 -6 26 -35q-2 -28 1 -52t-1 -61t-7 -41q-5 -6 -13 -9t-17 -9
q-10 -6 -13 -8t-9 0t-8 2l-11 -2q-16 2 -33 12t-19 18t-3 42q0 34 -3 40t-3 18z" />
    <glyph glyph-name="quotedbl" unicode="&#x22;" horiz-adv-x="681" 
d="M293 1291q0 -7 -2 -9l-8 -27q-3 -4 -9 -9t-7 -9t-1 -10t-2 -9q-2 -4 -5 -12t-8 -15t-25 -21t-28 -20q-10 -7 -14 -8t-14 -5t-14 -2t-9 3t-10 7l-16 8q-4 4 -4 12q-8 7 -8 23t12 32t20 20q8 5 13 9v17q6 6 6 14v18q0 4 4 8t6 10q2 5 3 22t3 24l8 22q6 18 6 35q7 7 7 17
l-21 37q-6 23 4 45t20 28t15 10q16 16 61 5l21 -11q0 -8 10 -18t10 -19q4 -7 2 -35t0 -34l3 -41q0 -10 -9 -37l4 -29q-3 -10 -12 -20q-8 -11 -10 -15t-2 -11zM539 1291v-13q-11 -22 -13 -28t-12 -17v-10l-4 -11q0 -24 -38 -48q-38 -25 -50 -33t-19 -4q-6 5 -12 9t-8 5l-16 8
q-2 2 -2 6l-3 6l-8 21q2 18 14 34t23 21q10 6 10 16v9l5 13v9q0 6 6 20q6 13 7 30q1 18 3 22t3 8t3 9t3 11t11 48q0 8 -15 28t-3 48t33 40q24 19 67 8q5 -5 19 -12q2 -6 13 -20t10 -46t-1 -38l4 -43q-8 -16 -8 -35l2 -29q0 -8 -12 -21q-12 -14 -12 -21z" />
    <glyph glyph-name="percent" unicode="%" horiz-adv-x="1800" 
d="M350 1346q12 24 12 53t5 59l12 33q0 18 -6 33l4 20q0 4 4 9t5 7t4 10q3 7 5 10t6 10q3 6 7 10t9 8t10 5t11 1t18 -5t15 -17q4 -11 10 -21t10 -30q3 -19 14 -38t17 -47t18 -44t12 -33q1 -17 6 -27l8 -16q7 -15 8 -33q1 -17 15 -41t21 -49t17 -38q10 -12 12 -17t4 -19
q3 -24 14 -38t10 -22q-2 -13 7 -24q8 -11 8 -23v-16q4 -6 13 -18t11 -17q2 -6 2 -14q-1 -7 1 -13t11 -14q13 -11 15 -28q2 -16 14 -28q11 -12 52 -128q9 -35 16 -39q0 -6 4 -12t8 -18t39 -77q2 -4 1 -15t1 -15q14 -31 28 -27q14 5 22 21q6 16 23 48t21 44q4 10 6 14q3 4 4 7
t1 9t2 12t6 12q4 5 7 18t12 30q10 16 12 20t2 12q0 7 3 14t16 31q19 34 17 50q-1 16 13 38q14 21 14 42q17 33 17 39v10l24 39v8q0 6 1 14t14 17q4 8 4 20t13 23q13 10 15 18t3 29t11 44q9 24 11 28t8 10t7 10t1 13q0 15 14 29t13 25v15q0 4 2 6q0 2 9 16t14 37q5 22 16 38
q10 16 10 20l8 47q0 6 9 14t15 27q5 20 12 27q6 6 24 10t32 -10t19 -35v-37q16 -48 16 -67v-27q3 -8 11 -28t8 -32l2 -47q0 -6 9 -18t1 -43q0 -9 10 -19q0 -42 10 -58q10 -15 11 -23q2 -8 3 -25t3 -25t8 -19t7 -19t-1 -25q-3 -24 9 -37t8 -23t-4 -12l4 -28v-11l14 -37
q6 -12 6 -45q2 -6 5 -13q11 -27 11 -41v-28q0 -25 12 -46q12 -22 14 -30q1 -8 -3 -24q-7 -27 18 -82v-19l11 -30q2 -5 8 -13t7 -15t-1 -29t2 -29l14 -21q2 -6 1 -23t9 -34q11 -16 11 -23q4 -6 1 -20t1 -26q4 -11 4 -13v-29l10 -18v-21q2 -2 11 -20v-14q0 -8 6 -35v-21
q6 -12 10 -16q25 -74 2 -105q-8 -8 -39 -14t-40 -3q-41 12 -52 21q-10 9 -10 37q-2 6 -12 16t-13 34l4 46l-10 48l4 33q0 8 -9 21t-10 19t-1 17q0 10 -3 16l-12 37q-2 6 -1 20t-1 21l-8 19q-2 6 -1 21t-1 24l-14 24q0 6 1 22t-7 34q-9 18 -9 24l-2 39l-10 27v65l-8 21
q-2 6 -3 22t-10 29q-8 14 -10 20l6 35l-10 19q-2 6 -1 19t-8 30q-9 18 -12 33l-12 67q-12 12 -12 66v36l-7 21q-5 14 -7 34t-10 30q-7 11 -7 18q0 6 -9 6t-21 -9q-13 -9 -15 -15t-2 -12q0 -7 -11 -18q-15 -15 -15 -25v-9q0 -14 -16 -51t-19 -48q-4 -11 -8 -18l-13 -22
q-2 -5 -1 -17q1 -15 -6 -23q-34 -34 -32 -52q2 -19 1 -23t-7 -13t-7 -13q-3 -14 -11 -42q-3 -6 -15 -19t-12 -22v-14l-14 -27q-2 -4 -1 -15t-11 -28q-12 -18 -14 -23t-1 -13q0 -17 -19 -46t-17 -43q1 -14 -1 -18t-5 -8t-5 -7t-5 -6t-5 -7q-6 -14 -5 -29q1 -14 -12 -29
q-14 -16 -17 -22t-1 -22t-8 -32t-12 -21t-3 -12q0 -7 -2 -15t-2 -11l-20 -33q-19 -38 -29 -40q-10 -3 -24 2t-22 19q-8 15 -17 31q-10 15 -11 18t1 18t-3 19q-6 5 -13 12t-6 26q1 18 -4 23q-5 6 -7 20q-3 24 -16 30q-12 7 -10 27t-11 33q-16 16 -16 37t-14 43t-15 37
q0 14 -2 20t-10 14q-7 9 -15 17t-10 14t-1 16q2 18 -20 48t-21 46q2 17 -13 37l-23 29v16q-2 6 -16 35v17q-2 4 -5 8t-5 8l-4 8t-1 16q2 12 -6 25q-28 43 -24 52t1 14q-2 6 -14 17q-12 12 -15 20t-5 25t-8 31t-8 18q-2 6 -8 14t-12 7q-5 -1 -13 -1q-4 -4 -4 -12v-11
q-1 -5 -9 -13t-8 -21v-15l-10 -41q0 -4 1 -22q1 -19 -1 -23t-8 -13t-8 -15t0 -23q3 -24 -10 -37v-22q-21 -42 -21 -68t-6 -33v-28q-14 -28 -14 -31v-43l-7 -18q0 -3 1 -15t-1 -16t-11 -33t-9 -34v-7q-10 -10 -11 -20t-2 -36q-1 -25 -7 -44q-5 -19 -5 -25l-2 -33
q-10 -23 -9 -34t-10 -57q-11 -47 -11 -67v-22q-5 -10 -13 -18t-8 -22v-17l-10 -41q-2 -6 4 -24t-8 -41q-13 -24 -13 -34t-2 -13t-4 -5t-4 -6q-13 -41 -41 -35q-8 2 -22 -1t-21 -1l-18 12q-3 2 -15 7t-16 14q-2 10 4 26t6 25l-4 49l15 31v53l14 33q0 25 12 37v14q-1 35 7 59
t8 33q0 8 2 12l8 25q2 4 1 12t8 24t8 29q-2 20 10 32q11 11 4 37t-5 34t13 19t9 27q-3 16 -3 22q0 8 8 23t5 29q-3 13 -3 17l12 29q2 2 2 12q-1 10 7 18q8 9 8 13v35l16 59v25q6 18 10 26q0 23 8 31t7 16l6 27v29q13 26 10 37q-4 10 -3 14t3 10t5 12t5 12t1 17q-1 12 -1 19
q11 22 11 24v10q0 13 10 32q10 18 10 60l6 21v25z" />
    <glyph glyph-name="ampersand" unicode="&#x26;" horiz-adv-x="1316" 
d="M1233 29v-19q-9 -16 -27 -28t-40 -6t-31 20l-11 10l-41 17q-2 2 -6 7t-24 13q-8 8 -16 30q-7 23 -13 29t-22 12t-18 9q-3 4 -17 25t-29 20q-8 -4 -23 -10h-9q-9 0 -13 -4t-15 -18q-15 -18 -27 -20t-23 -12t-18 -14q-17 -8 -32 -22q-15 -15 -41 -23t-35 -16
q-14 -13 -25 -13h-11l-22 -11q-18 -9 -32 -9h-22l-17 4q-6 0 -20 -7q-13 -7 -27 -6t-18 1l-41 -8q-8 2 -23 15t-45 5l-22 -4q-2 2 -17 12q-20 0 -27 4t-17 16t-16 13q-5 2 -15 4q-9 2 -13 4t-10 7q-6 6 -15 8t-15 6t-9 13q-8 19 -20 19q-7 6 -13 16t-8 12q-2 3 -5 14t-22 18
q-20 8 -24 12t3 23t-4 32q-14 16 -16 38t-13 42t-11 31l10 29q2 9 1 31t0 28t5 14l6 12t0 21q-1 15 2 23t18 23q14 15 18 21t5 13q1 6 2 11t1 9l10 19l8 22q4 4 14 8t14 6q4 3 8 10q5 7 8 10t11 6q7 2 11 6t9 14t9 16q8 6 29 18t30 28q9 15 24 28q15 12 22 27q8 36 -15 52
t-25 26q-3 10 -4 14t-3 8t-5 7q-4 6 -14 10t-24 19q-15 15 -27 21q-2 2 -5 12t-13 23q-10 14 -13 25q-4 17 -13 28q-9 12 -11 29l-9 18q-2 27 -3 29t5 30l7 27v19q0 18 11 34q15 23 15 34v10q8 31 29 50q22 19 28 25q2 3 8 9t9 11q4 5 7 8t10 6t9 5q3 2 9 8t11 10q5 5 23 5
q4 2 12 10q11 12 26 12h20q11 1 23 7q17 10 31 5q14 -4 28 2q14 5 19 5t41 -5t44 -6t22 -14t36 -11q22 1 28 -2t13 -15q8 -11 11 -15t9 -8t9 -7t5 -7t5 -8t6 -9q2 -2 19 -11t27 -31q11 -21 13 -39t5 -25q3 -6 10 -14q8 -7 10 -13t1 -14t4 -22t0 -38t-4 -37t-8 -30
q-14 -26 -13 -43q2 -16 -16 -30t-24 -26t-10 -22q-8 -19 -19 -22t-25 -20q-15 -17 -22 -23q-26 -13 -30 -21t-34 -32t-43 -46t-13 -25t7 -9q7 -5 9 -7t5 -8q8 -16 22 -16l17 -17q14 -13 22 -16t15 -15q7 -13 14 -21t48 -42q-1 -12 11 -22t19 -25t11 -20q22 -11 29 -22
t15 -19t20 -31l24 -18q16 -11 22 -16t21 -29q16 -24 32 -22q16 3 30 19q18 20 31 29q14 10 20 21l2 11q0 11 31 36t57 2q0 -11 10 -17t22 -17t16 -15q5 -3 7 -11t-9 -26t-19 -26q-7 -8 -15 -17q-12 -17 -25 -21q-12 -4 -16 -16q-4 -13 -15 -14t-14 -3q-3 -1 -12 -19t-4 -26
q4 -8 10 -15t11 -11q4 -4 10 -20t22 -23q15 -8 22 -27q7 -18 13 -23t18 -11t15 -9q4 -4 10 -12q5 -7 9 -11t16 -10t16 -21t8 -17q15 -9 15 -31zM758 391v15q-4 2 -14 4t-16 6q-5 4 -11 23t-18 22q-11 4 -14 8t-7 13q-8 18 -23 18q-12 6 -21 24q-10 18 -18 24q-8 7 -12 11
q0 15 -10 21t-12 8q-2 4 -7 9q-4 5 -7 9q-5 7 -17 11t-19 20q-6 16 -14 23q-8 6 -11 8t-10 10q-16 18 -34 18q-29 10 -38 -8q-23 -45 -46 -45q-4 -4 -10 -13q-5 -10 -9 -12t-10 -6q-10 -7 -16 -17t-13 -16q-8 -5 -18 -17t-29 -44q-18 -33 -23 -40q-7 -10 -7 -22v-11l-11 -21
v-80q5 -10 11 -25v-16q15 -49 38 -68q23 -20 26 -23q4 -2 16 -22q15 -24 33 -30q19 -6 23 -12q5 -5 12 -10t17 -5q11 0 15 -1t8 -4t19 -9l30 2q2 0 35 -2t36 0t8 3t7 2q3 1 11 1h10q8 2 34 15t35 11q10 -1 15 1l18 12q8 6 24 17t26 17q9 6 18 9q9 2 16 6q6 4 16 12
q10 9 26 19t20 24q9 9 -3 27t-15 29q-3 12 -9 18q-5 6 -21 15q-30 17 -30 34zM336 1063q0 -11 26 -37q8 -42 29 -55t51 -57q29 -44 45 -44q27 4 88 56q3 0 7 2l8 4t6 4t4 6t8 10t16 12t14 10q3 3 5 10q3 9 15 18t19 28q9 22 20 35q12 14 11 24q-1 11 5 39t4 39l-10 31v10
q-13 13 -14 16t-3 7l-4 8t-4 6q-5 5 -14 7t-13 13t-8 14q-5 4 -20 8t-21 16q-6 11 -13 15q-7 3 -21 -1t-17 -3t-13 10t-16 9l-45 -18q-6 -2 -20 1q-43 9 -99 -73q-23 -23 -26 -32q-4 -9 -7 -29t-7 -28q-4 -9 -5 -15q9 -9 9 -19l2 -20l8 -27v-10z" />
    <glyph glyph-name="quotesingle" unicode="'" horiz-adv-x="436" 
d="M293 1291q0 -7 -2 -9l-8 -27q-3 -4 -9 -9t-7 -9t-1 -10t-2 -9q-2 -4 -5 -12t-8 -15t-25 -21t-28 -20q-10 -7 -14 -8t-14 -5t-14 -2t-9 3t-10 7l-16 8q-4 4 -4 12q-8 7 -8 23t12 32t20 20q8 5 13 9v17q6 6 6 14v18q0 4 4 8t6 10q2 5 3 22t3 24l8 22q6 18 6 35q7 7 7 17
l-21 37q-6 23 4 45t20 28t15 10q16 16 61 5l21 -11q0 -8 10 -18t10 -19q4 -7 2 -35t0 -34l3 -41q0 -10 -9 -37l4 -29q-3 -10 -12 -20q-8 -11 -10 -15t-2 -11z" />
    <glyph glyph-name="parenleft" unicode="(" horiz-adv-x="696" 
d="M535 1358q-8 0 -14 -10q-7 -10 -14 -12q-7 -3 -11 -5q-8 -8 -19 -35q-4 -4 -8 -12t-9 -16t-8 -14q-2 -6 -14 -19q-12 -14 -12 -23q0 -10 -2 -15t-11 -14t-15 -21t-11 -25q-4 -13 -9 -18t-10 -24t-19 -33q-15 -16 -15 -22t-2 -11t-10 -18q-15 -25 -13 -40t-6 -33t-11 -22
l-6 -8q-3 -3 -3 -5v-29l-11 -28q-2 -6 -2 -18v-19q-6 -17 -11 -26t-4 -19t-2 -18t-3 -9l6 -55q-10 -20 -10 -25l4 -22v-43l-4 -21q-4 -19 10 -61v-33l2 -16q-4 -39 -3 -42t11 -18v-24l15 -39q0 -4 -2 -15q-3 -16 5 -32t9 -37q12 -55 18 -61q8 -9 8 -17v-8q2 -6 15 -16
t11 -27q-3 -17 -1 -23t8 -12t8 -12t5 -14q4 -8 6 -14q2 -5 4 -9t3 -14q1 -9 4 -17t14 -17q14 -11 19 -22q5 -10 23 -37q0 -30 26 -56l15 -15q22 -31 32 -45q9 -14 13 -18t12 -7q27 -15 27 -25v-8q3 -12 19 -29t19 -31q3 -15 -13 -48q-9 -9 -41 -19q-20 -1 -40 17
q-19 18 -34 30t-29 35q-18 29 -34 39t-22 32t-21 31t-29 29q-14 21 -22 37q-8 15 -20 27t-15 18q-2 6 -6 23t-14 26q-14 14 -25 52q-2 3 -16 21t-15 42q0 24 -10 36t-13 30t-20 52q-26 52 -28 82q-1 31 -11 40q-2 8 -7 26t-4 30q1 17 -6 32q-2 18 -2 39l2 84l-4 47l4 28v64
l9 29q2 4 -3 14q-6 10 -6 17t9 23t7 37q-1 21 11 46q0 2 -1 15t15 49q22 48 25 79q3 30 23 70q20 39 28 49t18 34q18 48 45 86t45 73q18 36 28 44q10 7 15 10t9 7t9 22t11 25q4 2 16 5t22 24q9 20 11 24t9 7q6 3 10 8q0 2 2 6t3 8t15 14q13 10 31 29q18 20 31 20t35 -12
q54 -30 20 -84q-21 -21 -31 -44q-10 -24 -14 -30t-16 -13t-12 -15z" />
    <glyph glyph-name="parenright" unicode=")" horiz-adv-x="694" 
d="M444 430v80q17 33 11 61l-4 21v43l4 22q0 10 -11 25l7 55q1 5 -3 11t-3 16t-1 13t-7 15t-7 17q-2 6 -1 18t-1 19l-10 28v29q0 4 -11 13q-20 17 -15 60q2 14 -25 54v9q-1 9 -19 25t-18 46q-2 4 -8 10t-14 28t-21 36t-13 21l-2 18q-4 6 -15 18t-19 30q-8 19 -12 24t-8 13
q-3 8 -7 13q-4 6 -6 10q-4 2 -13 6t-14 12q-6 9 -12 9q0 8 -15 17t-20 22q-6 14 -11 24q-5 11 -8 17t-11 12q-34 29 -15 72q4 10 26 22t34 11t44 -33q39 -26 39 -43q1 -3 9 -7t20 -28q11 -24 23 -28q12 -3 16 -7t10 -23q6 -18 10 -24q29 -15 46 -47q17 -34 49 -80t40 -72
q9 -25 21 -43q45 -67 52 -115t23 -81q15 -34 18 -44t2 -20t0 -13t3 -7t4 -7l3 -9t1 -20q-1 -16 0 -22t8 -19t7 -22l-10 -30l10 -29q2 -8 1 -32t-1 -32l4 -28l-4 -47l2 -84q0 -45 -8 -53q0 -4 1 -18t-5 -34q-6 -21 -11 -28q-6 -8 -7 -39q-2 -30 -20 -65l-22 -44t-6 -19
t-3 -15t-7 -12q-12 -14 -12 -39t-17 -45q-17 -21 -22 -41q-4 -20 -15 -27q-12 -8 -16 -26q-4 -19 -8 -28t-25 -26q-4 -6 -9 -18t-22 -35q-16 -23 -27 -29t-16 -11q-2 -4 -5 -15t-11 -22q-11 -16 -20 -21q-8 -5 -24 -30q-17 -27 -31 -39t-25 -21q-10 -9 -26 -21t-37 -3
t-25 15q-5 6 -11 26t-3 29q3 10 19 30t17 32q-1 12 17 21t22 12q6 4 29 39l16 24q1 2 21 21t20 50q10 10 10 15q6 6 14 20t19 25q12 11 16 27q4 19 10 32q6 12 11 27l14 20q0 6 -1 22t12 29q14 12 14 28l10 20q8 20 17 55v20q14 29 15 33q1 3 -1 15t-2 16l14 39v24
q10 10 10 29z" />
    <glyph glyph-name="plus" unicode="+" horiz-adv-x="919" 
d="M518 772q2 -2 2 -9t3 -12t11 -23t8 -24q1 -6 -2 -34t-3 -52v-30q0 -9 -5 -29q-2 -31 11 -35q4 -4 40 -1t43 3t41 -2t41 -3t32 -3t40 -10q33 -16 33 -74q0 -39 -37 -47q-26 -5 -37 -8l-22 -6q-4 -2 -27 -2h-24q-84 -2 -97 0l-19 8q-1 0 -7 -6t-2 -34t4 -30l2 -76
q0 -8 -10 -38q0 -35 -13 -74q-16 -31 -62 -31t-56 32q-8 27 -9 38q-2 10 -10 26v52q-2 84 0 96l10 24l-4 23q0 2 -30 -5t-60 -5l-37 10q-10 2 -34 -4t-87 12q-20 13 -25 27t-7 39l-7 16q0 16 25 31q6 6 21 6l49 18q3 0 31 -3t51 -2t32 -1l29 -4l28 4l19 -2q16 0 6 20t-11 26
q-1 7 1 36l10 37l-6 48v17q10 49 21 66t59 23l14 6q18 0 33 -25z" />
    <glyph glyph-name="comma" unicode="," horiz-adv-x="428" 
d="M215 262q9 2 17 2t14 -6q35 -4 43 -8t13 -20t8 -20q3 -5 3 -9v-138l-8 -49v-37q-4 -10 -15 -28t-11 -31l-11 -37v-15q0 -6 -1 -12q-1 -4 -2 -10q-2 -11 -16 -22q-13 -10 -14 -18t-10 -20q-9 -11 -12 -25q-2 -13 -15 -17q-13 -3 -16 -8q-28 -11 -73 11q-2 1 -7 3
q-4 2 -5 6t-3 10l10 39v13q4 12 15 34q0 13 11 39q11 27 16 35t7 27q2 25 11 45q10 19 3 32t-7 19l8 47q-14 81 -12 91q1 10 6 17q6 7 8 20t11 18q9 6 12 6z" />
    <glyph glyph-name="hyphen" unicode="-" horiz-adv-x="710" 
d="M312 545h6l26 8l25 -4q4 0 15 4t36 2t26 -2l50 2q23 -11 42 -13t35 -15q17 -13 17 -54t-6 -49q-8 -11 -22 -16t-23 -10q-12 -7 -30 -7h-17q-55 -2 -64 0l-22 15q-21 -7 -35 -6q-15 1 -23 -2t-13 -3t-14 3q-14 5 -30 -2t-37 -5l-25 10q-6 2 -20 -3t-35 2t-22 10
q-20 18 -23 67l-4 17q0 27 25 34q4 2 6 2q20 19 26 19t26 -3t34 -2t20 1l19 -6q28 6 31 6z" />
    <glyph glyph-name="period" unicode="." horiz-adv-x="387" 
d="M135 16q-2 6 -2 19t-9 27t-11 21t4 48l-4 27q0 4 12 22t13 22q1 5 3 9q7 -1 22 13t22 17t17 -3t15 -7l24 -2q31 0 31 -75l4 -74q-4 -12 -7 -38q-3 -25 -17 -33q-14 -7 -28 -8t-16 -2q-3 -1 -14 -7q-18 -10 -27 2q-10 11 -19 14q-9 4 -13 8z" />
    <glyph glyph-name="slash" unicode="/" horiz-adv-x="1302" 
d="M702 559q-6 -10 -6 -27q0 -21 -21 -43t-33 -48q-12 -27 -19 -37q-12 -15 -23 -42q-10 -27 -29 -52q-28 -36 -32 -55q-4 -18 -13 -29q-10 -11 -25 -40q-16 -28 -18 -36t-7 -20t-18 -27q-14 -15 -18 -21t-4 -21q-11 -30 -30 -51q-31 -36 -31 -73q-4 -14 -24 -47t-21 -40
q-2 -8 -3 -10t-2 -7t-20 -35q-18 -30 -24 -42q-43 -130 -152 -198q-16 -6 -34 2q-35 17 -9 82q4 8 6 19q9 50 40 86t37 58t27 48t38 61q22 47 34 63q13 16 31 53t19 43q3 22 32 63q40 58 38 75t21 50q43 62 50 83t21 40t16 28t14 34q13 25 24 39q15 19 25 54q6 10 20 27
q38 50 47 84t33 78q25 44 27 46q10 10 34 68q24 57 37 75q13 19 18 26t9 21t25 55q21 40 27 50t11 16t24 48t36 63q17 20 20 24t31 55q28 52 28 60q1 8 4 17t12 20q8 12 11 27t20 40q16 25 21 37t14 29t18 29q8 12 30 26t43 18q21 3 26 6t12 0t9 -5t5 -9t10 -17t-8 -35
t-16 -34q-2 -16 -19 -38q-18 -22 -44 -76q-26 -53 -46 -84q-21 -31 -26 -50t-25 -52q-19 -32 -24 -49t-23 -39q-24 -28 -32 -59t-31 -61q-23 -28 -27 -36t-6 -21t-16 -40t-36 -59q-26 -37 -36 -66q-9 -30 -19 -43q-11 -13 -15 -19t-8 -22t-10 -28t-26 -42q-20 -31 -26 -41z
" />
    <glyph glyph-name="zero" unicode="0" horiz-adv-x="1275" 
d="M866 1494q2 -1 12 -1t19 -10q10 -9 14 -11q3 -2 7 -4t6 -4q5 -5 7 -12q2 -6 14 -10q12 -5 19 -16t10 -15t19 -23q17 -20 23 -28t23 -26t24 -34l2 -22q0 -10 13 -28q13 -17 16 -28t15 -29q11 -18 11 -30t6 -23t8 -26t10 -38q13 -35 12 -50t6 -29t5 -31q-3 -24 8 -47
q10 -23 -4 -73l9 -29q2 -4 0 -13t-2 -16l2 -28q2 -8 0 -22t-2 -21l2 -49l-9 -29q0 -66 -14 -80q-8 -16 -1 -41t-3 -46q-14 -28 -15 -47q-2 -19 -11 -31q-9 -11 -12 -18t-6 -19q-5 -20 -12 -30t-7 -20q-7 -14 -15 -23q-12 -13 -20 -41q-8 -27 -39 -57q-3 -6 -16 -17t-15 -17
q-7 -27 -31 -33h-8q-9 1 -20 -13q-15 -17 -31 -22q-16 -4 -36 -16q-28 -17 -40 -17h-12q-5 -4 -13 -14t-20 -10l-6 -2q-31 -15 -42 -13t-15 2l-31 -14q-53 -8 -67 1q-13 9 -16 9t-27 -7t-62 22q-8 4 -33 10q-38 9 -50 21t-23 14q-11 3 -15 9q-4 7 -19 11q-14 4 -18 17
q-4 14 -7 17t-11 4t-19 10q-11 8 -15 14t-5 11q-2 5 -4 9l-21 21q-28 28 -29 36q-1 9 -11 27t-12 24q-3 6 -7 12q-4 5 -6 8t-2 6t-1 6q-2 4 -12 14t-12 15t-4 14t-4 13t-10 22t-10 24t-6 15q-5 9 -3 20q2 10 2 14l-18 47v16q-2 2 -6 18t-4 23v50l-4 34v17q2 14 4 24
q6 8 6 13l-19 28l2 92v72q0 9 11 31v39l10 28q0 6 -1 20t6 29q11 24 9 54q-3 29 11 47t16 37q18 37 21 48t5 15l25 41v9q1 12 13 27t19 37t14 30t23 15q28 12 27 30q16 21 62 34q6 4 16 14q13 13 44 23t44 21l19 12q4 2 12 1t12 1l19 8q18 6 41 6q27 14 42 10q15 -3 17 -3
l47 -2q6 0 57 -17q26 0 39 -8q14 -8 20 -10l15 -5q11 -3 19 -7t12 -5q4 -2 7 -5t6 -5t5 -3zM236 821l-11 -45l8 -39q2 -4 1 -12t3 -22q5 -15 5 -21l-2 -18l10 -39v-21q6 -6 6 -11t-1 -24t10 -42t11 -52l5 -18v-8l14 -37q2 -4 6 -18t6 -18q2 -5 7 -10q7 -7 13 -25
q7 -18 15 -27t11 -15t5 -11t19 -16t21 -28q4 -16 17 -18q13 -1 17 -5t12 -14t15 -17q27 -16 43 -16t30 -14q18 0 30 -12q10 -12 16 -14q6 -1 16 4t15 5t29 -1t42 7q24 11 42 10q19 -2 34 11t35 16t49 28q30 25 44 30q30 9 44 45q2 2 2 10t11 26t18 26q8 9 9 13l2 8q1 3 2 5
t9 14q8 11 10 19t1 21q-2 21 9 38t11 30t2 17l8 23q2 6 1 19t1 20l8 20q2 6 4 31l-4 55q-2 4 -2 8l8 37v62q0 4 2 7q18 27 7 46t-10 38t-3 32q-4 14 -5 19t-3 17t-4 18t-6 12q-4 7 -6 13q0 6 4 37t-15 45q-2 2 -2 9v20q-10 30 -10 32v13q-1 16 -17 25t-16 38q-6 20 -18 31
q-12 12 -26 38t-31 37q-16 10 -21 21q-9 17 -35 27q-24 24 -46 33q-23 10 -31 15t-11 6q-4 1 -11 -1t-11 -2l-27 8q-4 2 -19 1t-22 -1l-29 2l-30 -10q-4 -2 -16 -1q-16 1 -26 -6q-11 -7 -21 -7t-24 -12q-13 -13 -17 -15t-12 -2q-7 0 -11 -2t-8 -8q-14 -21 -29 -23t-30 -21
q-9 -13 -13 -17q-14 -7 -20 -9q-19 -7 -25 -41v-9q0 -14 -18 -38q-18 -23 -19 -47q-16 -33 -15 -45t-6 -24q-12 -20 -12 -40v-20l-8 -28v-33q-10 -10 -10 -19l-6 -63l-11 -25z" />
    <glyph glyph-name="one" unicode="1" horiz-adv-x="645" 
d="M518 354l-4 -51l4 -27q2 -8 2 -30t2 -31l-2 -37l8 -16l-2 -35q2 -53 -4 -67t-32 -50q-26 -35 -53 -19q-5 3 -18 5q-19 3 -21 20t-10 17q-23 0 -23 40l4 31q3 10 -1 37q-3 26 -3 37q0 10 3 26t-3 40t0 73l4 21l-4 24q8 16 8 24l-4 48l-4 25q0 8 10 53l-10 66q-2 6 1 13
t3 10v99l-4 31q4 19 4 127l4 23l-4 22v88q0 18 5 26q5 9 4 13t-5 11t-4 14l4 37l-4 24q-1 32 -9 36t-16 7q-8 2 -10 3t-10 8q-8 6 -12 6t-12 -12q-23 -37 -110 -44l-24 -4q-58 10 -66 41q-3 13 -12 24q-8 11 -8 23q18 37 23 41t37 12t48 7l29 -4q14 2 39 17q29 17 44 24
q15 6 30 18q28 39 28 57t12 34t10 26q-1 10 1 14q8 45 43 53l27 -4l34 4q20 -2 33 -33q2 -4 2 -6t7 -11t-9 -44l4 -55l-10 -72l2 -51l-6 -34l4 -30l-4 -28q10 -32 11 -56t-1 -149l2 -35l-4 -41v-8l2 -17q0 -5 -5 -29t5 -69l-4 -35l4 -32q2 -72 0 -95l-4 -22l4 -33v-123
l-4 -16z" />
    <glyph glyph-name="two" unicode="2" horiz-adv-x="1128" 
d="M885 1149l-23 50v11q-2 4 -7 12q-8 12 -12 27q-5 15 -7 19t-29 21t-44 41t-21 28t-16 2q-11 -2 -24 5q-22 11 -28 11h-10q-33 6 -93 6l-24 4q-11 -6 -17 -6t-34 1t-40 -10q-12 -12 -37 -15t-32 -12q-6 -9 -11 -16t-18 -10q-14 -3 -17 -6t-5 -9q-5 -14 -16 -23
q-11 -10 -15 -23q-4 -12 -10 -17t-10 -10q-3 -4 -9 -22t-5 -30t0 -18t-6 -13q-9 -11 -9 -23q-14 -28 -57 -37q-27 -3 -51 13t-28 21q-3 5 -3 13v11q-6 50 0 57q6 8 6 12q0 10 19 39t24 47q6 17 10 23t25 27q35 58 53 74t32 21t18 7q3 2 7 6q17 17 72 31q49 32 61 30
q12 -3 15 -3q48 12 65 12l25 -4l29 2l44 -11t11 3h8q57 3 81 -11t40 -23l24 -12t17 -4q8 0 12 -2t8 -7q3 -5 17 -12t22 -13t14 -8t9 -5q49 -39 86 -112q2 -3 7 -9q6 -6 10 -28q4 -21 13 -25q9 -5 15 -18l-4 -33l12 -53l-2 -29v-65l-10 -19v-16q0 -19 -14 -34
q-14 -16 -23 -54l-6 -45q-1 -6 -19 -33t-34 -56t-32 -42t-20 -15q-9 -5 -13 -21q-3 -16 -7 -20t-11 -8q-17 -9 -23 -21t-19 -18t-16 -12q-3 -5 -10 -27t-12 -30t-29 -19t-37 -29t-24 -29t-14 -24q-2 -12 -14 -19q-11 -7 -13 -11q-4 -5 -6 -8t-4 -9t-6 -10q-26 -13 -33 -25
q-8 -12 -23 -20q-15 -7 -21 -23q-7 -16 -20 -27t-21 -14q-7 -4 -21 -18l-21 -36t-20 -33t-22 -19q-16 -9 -25 -19q-8 -10 -5 -32t14 -21h22l34 4l21 -4l18 6q5 0 14 -3t14 -2t8 1l15 -2h7l41 6h28q6 -6 13 -6l16 6h51q28 6 48 2t30 -2l29 11l20 -7h90l62 7q16 -2 41 -14
t26 -25l-8 -41q-2 -4 -1 -12t-1 -9q-18 -51 -84 -55q-34 0 -82 16l-40 -8l-42 4l-37 -6l-19 6q-22 -6 -40 -6l-16 6h-31l-20 -6l-21 4l-27 -8q-37 -2 -41 0t-15 8t-17 6l-25 -4h-178l-19 4q-6 0 -41 -10h-55q-6 0 -25 -4t-35 11q-14 15 -18 23t-4 26q0 19 19 35q19 15 27 27
q14 20 32 29q2 4 5 15t17 21q13 9 16 13q16 25 46 48q29 23 29 32q8 8 26 33t33 42q14 16 16 23t6 10t7 6q11 9 16 23q4 14 26 26t34 33t55 60q4 4 10 18t10 19q18 9 26 19q9 10 17 15t17 13q4 6 9 16t11 17q6 8 10 15q4 4 14 10t13 10q11 21 24 30t17 12t8 10t8 12
q30 20 33 30t23 36t25 34t7 15t6 10t8 9q5 6 9 8q4 3 16 15q13 23 14 35t15 31t14 35q0 15 11 41v20l6 20l-6 33z" />
    <glyph glyph-name="three" unicode="3" horiz-adv-x="1181" 
d="M684 1384q-42 21 -80 21l-61 -10q-6 0 -23 7t-30 -4q-13 -12 -19 -14t-31 -3q-26 -1 -32 -7t-14 -13t-16 -13t-14 -14t-8 -9q-4 -2 -9 -6t-9 -6q-4 -5 -9 -13q-9 -15 -19 -19q-14 -5 -27 -34q-14 -29 -35 -37q-20 -8 -32 -6t-30 8q-20 6 -22 8t-4 6q-2 3 -3 7t-3 6
q-12 29 6 72q2 2 2 6t3 7t7 8t7 8q3 4 7 8l8 8q3 4 9 14t15 18t13 11q14 7 43 37q29 29 46 32q18 4 23 6q14 4 24 16q10 13 21 14t25 9q15 7 35 6t23 -1q2 0 27 10h23q25 6 47 3q21 -3 36 -3h33l22 4l48 -14q19 0 28 -7q4 0 10 -4q10 -6 20 -5q40 6 72 -27q31 -33 55 -48
t48 -51q8 -8 15 -25t22 -42q14 -25 18 -32t4 -13v-11l13 -41q0 -4 -2 -11q-2 -9 3 -22q7 -18 7 -49q-13 -38 -10 -66q2 -28 -11 -49l-2 -16q-2 -4 -7 -9q-6 -4 -18 -26t-61 -71q-53 -35 -53 -74q6 -37 29 -45q4 -2 16 -1t24 -10q11 -11 17 -14t9 -7t6 -11q5 -12 28 -24
q31 -25 45 -62q14 -39 18 -45t10 -16q10 -14 14 -41t11 -46q8 -20 2 -44v-74q-2 -4 -1 -21t-14 -41t-19 -46t-20 -40q-17 -18 -29 -46q-11 -28 -23 -42q-11 -13 -35 -29t-34 -24q-14 -11 -27 -14q-12 -3 -30 -22q-18 -18 -27 -19q-9 -2 -14 -3q-9 -2 -18 -8t-26 -7
q-18 -1 -26 -3t-28 -12q-18 -10 -26 -12t-18 0t-15 2l-22 -8l-29 12q-12 0 -44 -4t-47 -3q-14 1 -31 9t-26 5t-18 -2t-24 8q-14 7 -44 7t-59 27q-13 13 -46 27t-44 29q-12 16 -18 19t-14 6q-9 3 -13 5q-6 5 -18 21q-17 22 -34 30q-17 7 -17 23q-33 43 -25 73q2 6 16 20
t25 23l15 15q46 37 90 -37q13 -20 36 -43q4 -2 16 -7t27 -23q20 -24 32 -26t16 -7q5 -5 7 -6t8 -2q5 -1 11 -7t18 -9t21 -10t27 -10q18 -4 23 -6t10 -5q4 -3 10 -5t17 -3q75 -7 109 -7l35 10l35 -4l43 14q2 2 11 1t18 6q8 8 12 10t12 2t16 2q15 4 22 15q8 12 24 18t22 18
q9 19 20 28t14 14t5 10t4 9t4 10q3 6 5 12q2 5 11 15q9 11 11 17t-1 13t-3 11t10 33q0 29 -6 35l6 33l-2 30l2 17q-2 6 -11 14t-14 25q-4 17 -8 23q-4 5 -14 11q-10 5 -13 11t-8 20q-4 14 -12 22t-38 24t-42 26q-13 10 -37 19t-29 13t-14 10q-8 7 -14 9t-13 -1t-11 -3t-10 4
t-11 5q-4 1 -13 -2t-11 -3l-31 6l-23 -8q-4 0 -10 2t-10 3t-11 3t-28 2l-48 -4q-27 -1 -36 13q-8 14 -16 34t-1 51t31 37q10 4 24 -3t21 -7l58 10h33q29 0 43 6l30 13q4 2 17 -2t30 9q22 17 29 17h8q4 2 10 6q7 3 13 7q13 7 28 12q36 10 52 51v6q0 10 26 49v19q0 67 13 96
t-15 74q-2 4 -7 9t-9 22q-4 16 -8 22t-20 16t-34 29q-20 19 -32 28t-23 19t-45 10z" />
    <glyph glyph-name="four" unicode="4" horiz-adv-x="1241" 
d="M907 104l-12 -42q0 -10 -1 -20q-8 -71 -106 -32q-2 2 -6 12t-10 21q-6 13 -5 27t1 19l-6 28v41q0 55 2 55l12 39q0 12 -7 40t-4 42q3 16 3 26t-4 14t-15 1q-16 -6 -29 7t-22 15l-18 -4q-4 -2 -22 -1t-23 0q-4 -1 -11 -6q-6 -5 -12 -4t-14 5t-14 6l-86 -6l-64 6
q-20 -10 -28 -10l-21 8q-6 2 -39 2l-33 -10q-6 -3 -15 1q-10 4 -26 5q-16 0 -22 2l-19 -4h-41l-25 -8q-5 0 -15 6t-23 13q-14 7 -25 20l-10 39q0 13 12 29t18 32q7 16 28 33q38 57 53 67q14 9 20 16t8 17q4 20 26 39t32 36q13 23 27 39t20 33q10 30 23 42t20 23q6 11 13 17
q17 14 28 40q7 7 35 43q0 10 20 34t35 52q14 27 25 35q12 10 19 18t19 35q13 27 19 35t40 45t38 54t8 22t10 23t23 40q17 21 20 30l29 50q16 30 19 32t7 4l10 5q8 3 22 13q13 11 23 11q11 0 44 -22q8 -8 12 -39l6 -19l-6 -22v-37l-4 -25l4 -24v-58l-4 -49l4 -26q2 -14 0 -60
q-6 -25 -4 -42t2 -23l-2 -15q-2 -4 0 -28l4 -23v-100l4 -37q0 -17 -8 -33l2 -22l-2 -14v-14l4 -15v-31l6 -24l-10 -23l4 -23l-4 -41q-2 -6 1 -16t3 -14l-4 -39q0 -2 3 -5q3 -4 7 -8l6 -6t12 -16t29 -9q20 5 24 5l47 12h15l23 8l26 -8q6 -2 33 -6t31 -17q4 -12 4 -22t-4 -19
q-4 -10 -3 -22t-2 -20t-35 -14t-36 -5l-39 -8q-10 0 -47 8t-48 -1t-21 -15q-10 -7 -14 -13t1 -21q4 -15 2 -32l-10 -45l10 -37l-10 -26q0 -11 6 -23l-2 -35zM406 510q16 4 100 4q12 6 22 6t21 -6q39 0 69 6q15 0 33 -6l37 6l37 -8q21 0 25 8q24 0 24 63v38l4 28q0 2 -5 18
t-2 32t3 29v22l4 18l-10 25l8 45q-2 14 -4 18l-8 23q8 16 8 22l2 21l4 18q0 16 -6 31l2 35l-6 16q0 6 6 18v23l6 33l-6 28l-2 27v12q-23 14 -41 -12q-1 -3 -17 -25t-17 -26t-3 -7t-3 -5t-5 -5q-4 -2 -14 -22t-21 -30q-12 -11 -18 -28t-20 -30q-15 -15 -18 -19t-6 -12
t-16 -21q-26 -27 -27 -43q-2 -16 -19 -26q-18 -11 -26 -30q-8 -18 -17 -28q-12 -12 -14 -24q-3 -13 -36 -44t-33 -44q-20 -35 -24 -45t-10 -15q-5 -6 -13 -12t-12 -10t-11 -15t-23 -28t-9 -37q0 -10 52 -10h55z" />
    <glyph glyph-name="five" unicode="5" horiz-adv-x="1138" 
d="M279 1130l-11 -41v-16q-6 -19 -5 -37t0 -44t9 -36t21 -9q10 1 21 11q12 9 16 10q5 1 16 13q45 27 103 27l28 10q7 2 25 4t28 4l23 8l70 -10h36q23 -11 44 -13q21 -1 37 -6t46 -23t38 -24q10 -4 14 -8l10 -10t13 -12t10 -10t11 -10t20 -16q11 -11 19 -22q12 -16 21 -23
q9 -6 13 -21q6 -20 19 -30t13 -21t2 -14q1 -3 11 -13q16 -16 16 -36l2 -26q28 -118 26 -144t-6 -43t-4 -26q10 -44 3 -57q-9 -18 -8 -39t-25 -64v-10q0 -8 -8 -17q-10 -11 -9 -26v-12l-7 -14t-7 -21q-4 -16 -16 -24q-13 -9 -26 -30t-20 -27q-8 -5 -12 -9t-9 -8q-5 -5 -8 -9
q-2 -4 -8 -8t-10 -7q-5 -4 -12 -14q-6 -10 -20 -15q-17 -7 -45 -27q-35 -25 -61 -25l-28 -8h-14q-14 0 -37 -12q-21 -12 -33 -14t-18 -2q-6 1 -17 3t-18 3l-45 -5q-6 -2 -18 2t-37 -2q-26 -7 -47 13q-11 0 -21 10t-38 8q-27 -3 -56 19q-4 2 -15 4q-10 2 -18 5t-20 16
q-23 25 -43 27q-19 3 -25 7t-19 22t-14 21q-4 4 -11 7t-9 6l-16 24q-2 4 -11 12q-16 15 6 55q21 40 23 41q23 23 52 11t47 -40t27 -34q8 -6 24 -11q16 -4 35 -24q18 -20 24 -22t21 -2t23 -2t17 -10q10 -7 19 -9t33 -9q23 -7 37 -7q23 0 41 5t28 3l43 -15q22 11 23 11l59 16
q31 0 44 13t25 16q11 2 16 5t16 15t13 14t9 7q6 4 12 10q6 7 12 21q7 14 11 19t15 16t13 17t2 12q0 7 1 10t5 8q4 6 6 10t0 14q-1 10 7 30t8 29l-4 27q0 6 7 12t7 18l10 36q4 24 1 30t-9 27l2 14l-4 20v38q0 4 -4 8q-6 6 -6 18v12q-3 7 -13 17t-18 26v14l-20 40q0 10 -8 26
q-4 4 -16 8q-15 5 -24 19t-18 20q-10 7 -19 16q-8 10 -20 12q-12 3 -16 5t-26 12l-33 15q-4 2 -10 2q-13 0 -38 10q-21 3 -29 -2q-9 -4 -16 -4q-32 16 -34 16l-23 -4q-2 -2 -13 -1t-15 -1t-13 -7q-8 -5 -11 -6t-9 -1q-5 0 -11 -2t-18 -10t-21 -13l-20 -2q-11 -5 -15 -15
q-5 -10 -21 -17q-42 -20 -56 -52t-49 -71q-4 -3 -14 -5t-28 -8t-24 -3t-16 15t-18 16q-18 12 -17 56v49q2 7 10 23t10 24t-2 18q-4 11 -2 17l11 37q0 8 -6 22t-5 21l17 49l-6 27q-2 10 -2 23l2 51l-5 20l9 35q4 20 4 42t6 52l-4 23q6 30 6 71l-8 23q0 30 19 52q19 21 35 29
t77 9h57l16 -4q31 8 58 4l20 -10q39 0 50 2q20 10 40 8l30 -10l28 10h41q12 -6 22 -6l23 2l22 -6q6 0 38 6t45 4q15 -2 81 14q4 0 29 -11t28 -14t5 -10q2 -6 8 -16t4 -37t-14 -38t-42 -19t-46 2q-16 8 -22 10q-5 2 -12 2t-29 -12t-52 -2l-29 8q-10 2 -26 -4t-25 -6l-27 6
h-14q-10 0 -16 2l-25 8l-20 -10q-23 -4 -56 0q-23 8 -33 6q-9 -2 -16 -2q-6 6 -37 9t-41 -7t-13 -11t-23 -1q-36 0 -35 -48l2 -40q0 -19 -9 -37t-2 -94z" />
    <glyph glyph-name="six" unicode="6" horiz-adv-x="1191" 
d="M448 1028l37 16l19 -2q6 0 22 4t28 6q25 2 52 11l12 -4h34q34 0 48 -3t21 -2q6 1 10 0t10 -6q7 -6 13 -10t12 -5t18 0t18 -2q10 -5 19 -15q10 -10 31 -11q21 -2 37 -18t18 -19t4 -5q2 -1 4 -5q3 -4 5 -6t5 -3t6 -3q6 -4 10 -13t25 -27q21 -17 26 -24t20 -40l14 -29
q16 -22 16 -41l12 -18l12 -18q3 -6 4 -19q1 -12 5 -19l12 -20q2 -10 -4 -34t15 -60v-20l-4 -36v-61q-6 -20 -5 -28q1 -7 -2 -11l-4 -12q0 -6 1 -24t-9 -34q-14 -22 -14 -47q1 -24 -17 -54t-20 -37t-5 -12t-13 -9q-10 -3 -14 -7t-5 -12q-2 -10 -21 -24q-20 -14 -22 -32
t-7 -22t-22 -8t-26 -19q-10 -16 -23 -16q-20 -12 -38 -20t-31 -17q-19 -14 -26 -14l-37 -10h-9l-25 -10h-26l-35 -11l-37 11q-16 -2 -45 -8l-25 -7q-7 0 -13 4q-5 4 -7 5l-2 2q-8 4 -13 5t-13 4t-13 5q-6 2 -22 0q-15 -2 -21 0q-7 3 -18 20q-10 17 -23 17q-12 0 -16 2
l-25 12q-2 2 -11 2t-13 2q-6 6 -14 21t-32 32t-30 26t-9 16q-3 8 -7 13t-21 16q-16 11 -23 20q-10 14 -17 42q-7 27 -11 35t-16 18t-13 16q-2 5 -2 10v10l-4 26q0 4 2 8t3 8t0 7q-1 4 -5 11q-6 10 -6 16v7l-21 46l10 30v80l-4 25l4 12v17q2 6 5 18t5 21q3 10 4 30t3 31l8 20
q6 19 7 31t7 24t7 17q4 5 7 23t5 23t5 10t5 10v26q8 20 24 40q17 20 18 23t0 10t1 11t5 11l6 12t6 13q2 7 6 13t4 15q4 6 15 20t18 35q7 20 16 32q10 16 14 32t15 23q10 7 14 11q6 10 15 35t21 33q14 10 16 25q2 14 21 31q19 18 22 24q7 14 8 23q2 10 21 23q18 13 25 36
q6 23 27 38q22 15 31 42q17 49 47 49q58 25 68 23q14 -2 27 -9q14 -7 22 -5q8 1 14 -1q23 -8 -2 -57v-14q0 -20 -17 -24t-34 -25t-20 -29q-8 -21 -13 -25q-5 -5 -17 -8q-12 -4 -16 -9t-10 -25q-6 -21 -32 -49q-27 -27 -32 -40q-6 -18 -16 -26q-10 -9 -14 -24q-5 -18 -14 -24
q-35 -24 -46 -58q-10 -36 -16 -42t-15 -14q-44 -42 -22 -67q11 -12 35 1q23 14 28 14zM520 930q-6 -4 -20 -4t-33 -14q-24 -18 -40 -17q-16 0 -44 -35q-46 -39 -51 -49q-4 -9 -22 -27q-18 -17 -17 -31q0 -13 -2 -17t-13 -22q-10 -18 -14 -24t-3 -12t-11 -42t-12 -108
q2 -72 4 -79l14 -27v-23q4 -20 12 -47l13 -22q2 -2 2 -9v-10q4 -6 15 -18q11 -13 15 -25q6 -17 15 -23q10 -7 14 -16q4 -10 6 -12q4 -2 14 -6t27 -25q23 -28 42 -28h13q8 -4 23 -16t30 -10q14 1 35 -9t31 -12l34 6q5 0 23 -1t24 1q5 2 16 7q20 9 46 7t46 17q19 19 33 22
q18 3 29 17t30 22q22 33 32 39t11 8q1 12 23 48t24 42t1 20t1 21q2 6 6 12q4 7 7 13q7 16 6 29q-1 14 5 28q7 15 2 25t-6 16l5 41l-5 27q0 37 -2 36l-14 19l10 33q0 12 -11 32q-16 28 -12 44q3 15 -15 17q-27 4 -27 23q-9 50 -28 58t-26 21q-7 12 -18 18t-31 13t-24 7
t-21 11t-24 14q-7 2 -23 1t-24 1l-29 14q-8 2 -15 -1q-8 -3 -16 -5t-15 -3t-21 6t-21 4q-6 -3 -12 -4q-7 -1 -9 -2t-8 -5z" />
    <glyph glyph-name="seven" unicode="7" horiz-adv-x="1054" 
d="M592 634l-14 -35q0 -3 -3 -5l-16 -21q-2 -8 -6 -31t-20 -42q-20 -24 -28 -48t-17 -37t-11 -17q-4 -8 -4 -16q0 -7 -9 -19q-9 -11 -13 -22t-7 -19q0 -23 -11 -34q-11 -10 -13 -14t-2 -8t-2 -6l-23 -45q-2 -2 -2 -8v-8q-24 -48 -24 -62t-27 -52q-26 -38 -34 -53t-19 -26
q-11 -8 -33 -7t-41 -2t-33 9t-14 39v31l24 53v14q0 13 12 26t15 19q17 51 27 61q10 11 12 16t2 11t2 12t11 18t13 18t8 21q8 23 30 57q23 35 41 83q17 48 30 67t24 50q12 31 23 51q0 15 9 21l8 14q11 11 17 34l9 30q1 6 11 13t14 11q2 4 3 16t5 19q20 20 22 35t11 26
q10 11 12 17l6 31q4 6 13 16t30 56q20 46 37 67q17 20 19 40q2 19 4 24t15 25t15 24t4 10t5 13q2 7 10 25t8 29q4 1 8 13t8 16q7 7 8 21t21 51q0 12 -16 20h-31l-27 6l-61 -14q-3 0 -39 18q-6 2 -16 -5t-13 -7q-23 -8 -37 29q0 -15 -11 -26t-16 -12t-18 3q-12 4 -18 4
l-29 -4l-34 8q-24 -12 -42 -10t-22 1t-21 -13t-34 2q-18 14 -33 14l-35 -12q-12 0 -20 8l-39 -10q-48 10 -62 41q-2 4 -1 13t-6 24q-7 16 -8 26t10 20t13 11q18 20 58 20t67 -6l29 2q23 -9 43 -3q20 5 25 5l32 -2l23 4l28 -14l33 14l54 -10l30 8l43 -10l35 6l33 -10
q23 0 39 8l99 2q5 0 10 -2t11 -4t10 -4q6 -2 20 2t23 4h13l21 8q6 0 16 -3q9 -3 31 -1t28 -5t7 -16q0 -8 8 -24q0 -8 1 -12t-2 -10t-5 -12t-10 -12q-7 -5 -8 -14q-1 -12 -15 -27q-14 -16 -15 -33t-4 -22q-3 -6 -7 -12t-6 -11q-3 -5 -5 -8t-5 -13t-17 -23t-19 -37t-15 -40
q-9 -15 -11 -20t-5 -12q-2 -8 -4 -12q-4 -10 -12 -20t-7 -18q0 -8 -4 -16t-14 -18t-13 -18t-6 -25t-8 -27t-12 -19q-8 -9 -10 -13t-2 -11t-11 -18q-14 -14 -16 -33t-13 -36q-11 -16 -11 -22q0 -10 -8 -20q-8 -9 -12 -23q-4 -13 -11 -22t-11 -18q-5 -8 -8 -12t-5 -12t-3 -11
t-4 -6q-15 -15 -28 -53z" />
    <glyph glyph-name="eight" unicode="8" horiz-adv-x="1234" 
d="M610 1530h29q4 0 11 -3q8 -3 22 -2q15 1 27 -8q13 -9 29 -5q16 5 28 3t21 -8t25 -11t20 -6t9 -1q6 1 15 -3t31 -21t28 -21t17 -6q10 -2 14 -4q4 -4 9 -12t21 -28t20 -27q5 -7 22 -21q5 -7 10 -22q6 -15 26 -53t19 -71q-2 -33 0 -39l4 -24l-4 -19q-2 -4 -1 -26t-8 -36
q-9 -13 -17 -48q-9 -35 -14 -43t-21 -26t-22 -29q-23 -39 -52 -46q-24 -6 -38 -25q-15 -19 -16 -28q2 -7 21 -11t34 -14t22 -13t23 -17t23 -16q5 -3 9 -6t8 -12t7 -12t30 -26t35 -35t12 -42q5 -30 17 -41q11 -11 12 -33q1 -23 7 -57t7 -64l2 -29q0 -6 -6 -15q-9 -14 -9 -23
v-11l-8 -29q-2 -6 5 -25t-10 -30q-17 -10 -19 -14t-5 -14q-4 -13 -30 -42q-25 -29 -29 -39q-4 -6 -20 -14t-27 -27q-11 -20 -21 -27q-12 -7 -26 -13t-18 -7l-43 -20h-17q-18 1 -30 -11q-17 -15 -30 -16h-9q-31 -6 -44 -3q-29 7 -57 -13t-34 -18q-5 2 -11 8t-13 4t-11 0
l-29 12q-8 2 -34 1t-32 -1l-24 4l-31 -4q-4 2 -13 8q-13 8 -29 7q-17 -1 -26 6q-10 7 -14 9t-15 3q-10 2 -18 7t-10 8t-5 5l-6 4t-11 3t-16 6t-68 55q-4 2 -12 5q-17 7 -27 26q-10 20 -15 24q-20 10 -26 19q-6 10 -13 33t-19 39q-18 21 -20 47q-1 26 -12 50v111q0 6 4 19
q6 21 5 36t6 28q8 14 18 47q9 33 24 47q21 18 24 32t34 29q4 4 13 15q15 18 24 20t18 12q22 22 56 39t24 36l-4 15q-6 8 -24 12t-26 11t-22 27t-17 22q-3 4 -10 9t-11 11t-10 20q-5 13 -8 18t-12 14q-8 10 -12 16t-2 20t0 20t-8 15q-6 10 -6 16l4 47l-8 31q0 7 8 27v18
l10 27q0 34 1 38q1 3 13 15t13 35q0 23 29 41q29 17 42 56q2 6 17 15t25 20q13 14 24 16t22 12t15 12l105 37q8 2 27 1t30 -1l29 10q2 2 11 -1t19 -3zM582 745q-11 0 -31 1q-21 1 -39 -8t-28 -9q-9 0 -19 4q-9 4 -15 2t-10 -3t-10 -5t-33 -16t-36 -22q-9 -9 -16 -15t-22 -14
t-32 -26t-33 -58t-22 -50q-6 -8 -8 -12t0 -15q1 -11 1 -16q-6 -6 -6 -17v-26q0 -2 -3 -11t0 -29t3 -31l31 -60v-6q0 -14 10 -28q10 -15 18 -20t13 -10q4 -5 27 -27t27 -28q13 -24 57 -24q12 0 23 -11t22 -15q13 -5 41 -10t38 -8t16 -3t15 4q10 4 21 -3t43 -7q40 10 51 10
l55 2l33 8h11q16 1 29 15t19 16q5 2 17 1t17 1t9 11t8 13q12 4 54 27q8 7 12 17q7 16 21 29q14 12 17 20t5 10l23 35q8 24 4 47q-4 22 -4 31l6 22q6 50 -5 72t-17 46q-7 30 -19 41q-13 11 -17 33q-6 33 -25 33q-19 1 -24 7q-4 6 -6 10q-3 4 -7 7t-10 4t-12 4q-4 3 -8 7t-8 6
t-16 5q-19 5 -38 21q-19 17 -41 10q-21 -7 -30 -3l-27 14h-120zM309 1208v-22l-2 -15q0 -4 -4 -21t2 -32q0 -66 3 -72q3 -5 13 -18q10 -12 18 -37t21 -33t26 -21t22 -17q8 -4 22 -16t41 -25q27 0 41 -7l23 -6q2 -2 10 0t25 -3t22 -5l26 2q60 2 64 3t49 16q6 0 19 -1t28 9
q14 10 18 12t15 4q10 2 13 4t32 31l33 33q20 31 42 85t9 97l4 37q0 2 -5 14t-7 24q-4 21 -25 42q-2 6 -5 21t-13 20q-11 5 -20 16q-5 8 -9 10q-20 1 -26 13t-10 15t-10 3q-10 0 -22 12t-18 13l-16 -2q-45 2 -67 11q-44 18 -105 5q-6 0 -14 9q-11 12 -24 0q-12 -12 -26 -10
q-14 1 -19 0t-10 -7q-7 -9 -25 -5t-35 -17q-17 -20 -28 -23q-10 -4 -12 -8q-18 -13 -84 -112q-2 -3 -1 -10q1 -8 1 -16z" />
    <glyph glyph-name="nine" unicode="9" horiz-adv-x="1187" 
d="M1049 1264l16 -46v-12q19 -33 27 -65l-2 -31l2 -35q-6 -37 -7 -39l11 -28q0 -16 -2 -21l-9 -20q0 -12 1 -45q1 -34 -1 -44t-5 -19t-6 -15t-5 -16t-4 -17l4 -18q-4 -11 -17 -31q-12 -20 -16 -28t-3 -16q1 -9 -1 -13l-14 -39v-23q-10 -20 -10 -29t-12 -23q-16 -18 -15 -32
v-12q-9 -15 -19 -35t-14 -24t-7 -8q-3 -3 -5 -7t-4 -15t-4 -18q-4 -6 -18 -14t-13 -18v-13q0 -4 -9 -24t-24 -33t-18 -37q-3 -25 -35 -57q-12 -34 -17 -40q-5 -5 -14 -12t-22 -20q-12 -18 -15 -22q-3 -16 -34 -51t-49 -63t-33 -36q-14 -8 -45 -9t-60 14t-26 46t23 53
q19 22 26 34q6 14 11 18q4 5 18 10q14 6 17 11t5 13t20 28t21 29q4 9 6 13q21 10 34 37q20 39 51 81l36 48q45 79 58 99t7 29q-11 17 -29 2t-44 -24q-6 0 -26 2t-22 -2q-15 -22 -22 -24q-6 -6 -30 -4t-30 1t-26 -7t-40 -8t-48 4q-28 8 -46 6q-17 -2 -89 28q-7 4 -15 12
q-12 12 -20 13q-8 0 -23 8q-16 9 -24 17t-8 10q-39 31 -41 34t-5 10t-5 11q-6 4 -24 14t-24 41q-2 2 -2 8t-11 22q-11 17 -18 22q-7 6 -12 12q-10 22 -10 24v10l-12 41v9l-14 39v18q-13 39 -13 61l2 42q-6 12 -6 20t6 55v39q0 2 2 6l4 8t5 7q0 8 -1 30t11 44t13 28t1 15
q0 8 2 14t11 16q14 16 14 21q0 6 4 13t47 62q43 54 50 62t30 22t39 33q16 20 31 23q20 5 27 13q8 8 21 10q13 1 43 13t44 17l26 -4l23 4q27 4 69 -3t52 -4t15 2t14 -7t16 -9h26q32 -16 49 -16h19l20 -18q4 -2 17 -2t23 -16q9 -16 15 -21q6 -3 19 -11q24 -13 34 -29
q10 -15 28 -31q24 -22 30 -36t14 -23q9 -9 11 -15t4 -14q2 -9 13 -27q16 -25 16 -33zM252 1176v-11q0 -2 -10 -37v-41l-15 -47q-2 -10 11 -73q0 -8 -1 -24t6 -37t9 -24q2 -4 3 -16t3 -18t5 -11t7 -11t7 -13q3 -6 13 -21q12 -20 14 -32t27 -26q17 -9 21 -13t6 -13
q2 -10 6 -14t21 -12q15 -8 19 -11t10 -11t13 -11q7 -4 20 -5q14 -1 32 -10t35 -9l43 4q41 -14 65 -12q25 1 28 3t5 6q4 6 22 4t33 9q14 10 29 10t27 17q23 0 64 35q42 35 44 39t11 25q9 22 19 31t17 27q11 27 21 36t10 24v20q4 49 4 116v68l-4 18v20q0 18 -6 29q-6 10 -8 20
t-4 18q-3 8 -16 32q-13 25 -13 28q0 4 2 12t-1 11t-15 12t-20 22q-9 14 -13 18t-12 10t-15 18t-14 17q-8 4 -21 8q-12 4 -18 8t-14 14q-8 11 -15 15t-49 -2q-4 3 -14 13t-28 10q-17 0 -23 2l-23 10l-39 -12q-6 0 -20 5t-22 -4q-9 -9 -13 -9l-41 4q-18 -5 -71 -45
q-4 -3 -12 -3q-17 -1 -29 -24q-33 -16 -42 -44q-3 -9 -17 -33t-25 -43q-9 -20 -17 -32q-12 -20 -12 -34z" />
    <glyph glyph-name="colon" unicode=":" horiz-adv-x="391" 
d="M275 798q-1 -36 -1 -54t-7 -26q-18 -24 -24 -34t-23 -14q-16 -4 -28 0t-23 5q-38 3 -44 42v20l-6 23l6 22q0 8 -4 28t1 39q5 20 28 33q24 13 37 14t59 -11q22 -22 26 -36q4 -15 3 -51zM169 223h10l20 8q18 8 46 -5t24 -44q-1 -9 5 -27l-4 -12q-4 -4 1 -24t3 -43l-16 -47
q-8 -9 -22 -17t-23 -14q-8 -6 -29 8q-10 0 -23 2q-36 6 -31 49q1 8 1 17q-9 9 -8 60q0 52 2 54q13 35 44 35z" />
    <glyph glyph-name="semicolon" unicode=";" horiz-adv-x="432" 
d="M166 855q0 21 2 27t12 19t14 21t9 10t31 2t30 -2q55 -36 50 -68q-1 -6 -3 -16t-2 -14q14 -59 -6 -97q-2 -2 -4 -5t-6 -5t-19 -17t-38 -3l-11 10q-4 0 -21 -1t-18 5q-14 13 -12 38t2 32l-10 20v44zM223 260l22 -4q8 0 15 -5t20 -4t17 -3t7 -16t4 -18q1 -5 3 -9t2 -9
t-4 -45l4 -22l-8 -33q0 -4 8 -12q7 -20 -8 -35q-4 -16 -4 -51t-2 -41q-2 -5 -12 -21q-9 -16 -11 -21t-2 -10t-1 -9t-5 -9q-4 -6 -5 -9t0 -17q1 -19 -13 -32t-23 -30q-8 -16 -15 -20t-11 -11q-5 -6 -11 -10t-10 -8t-10 -7q-28 -14 -48 -1q-19 14 -24 33q-8 19 0 37t12 22
t6 16q4 20 19 31q14 11 9 23t-3 16l19 45q2 4 1 13t1 14l10 49l-6 51l6 57q-13 38 -9 57q7 27 33 41q6 3 8 6q3 3 19 11z" />
    <glyph glyph-name="less" unicode="&#x3c;" horiz-adv-x="1054" 
d="M552 247q15 -4 15 -10q-1 -6 11 -10t24 -10t15 -10t14 -7t17 -11q5 -7 13 -8t30 -14t24 -16q3 -5 17 -10t23 -13t25 -14q16 -5 23 -12l35 -20q0 -2 2 -3t5 -3t17 -9q14 -8 24 -14t21 -11q9 -5 21 -10t12 -7q0 -4 13 -9q12 -5 7 -6q-6 -2 -12 -6t-14 -3t-35 3t-43 10
l-29 17q-18 0 -22 8t-5 9t-6 3t-14 8l-24 15q-14 8 -16 9t-10 4q-9 3 -19 9q-11 6 -17 9t-10 6q0 4 -10 4q-6 4 -22 13t-19 13l-8 4q-2 2 -5 3q-15 5 -30 17t-32 19q-31 14 -42 25q-10 10 -29 17q-20 7 -24 12q-5 5 -23 14q-18 8 -21 11t-5 3l-19 10q-2 0 -4 2t-7 6
q-5 3 -20 10l-20 10t-6 5t-2 4q-20 10 -34 18q-13 7 -15 7q0 4 -14 13t-33 14q-32 21 -47 27q-15 5 -23 14q-2 0 -6 2q-6 3 -25 8t-21 12q-3 8 -15 15t3 13q15 5 15 9q1 3 23 12q22 10 30 17t14 9q7 3 17 7t12 6t4 3t5 3q2 2 12 7q12 5 18 11q5 5 20 11q18 7 25 14t23 14
t19 8t3 5q21 14 27 14l30 15q7 3 15 11t20 9q10 10 27 18t27 15q4 0 4 4t14 9t17 7t9 5t7 6q8 0 19 8q10 8 24 14q15 5 23 11q7 6 25 15t22 12q13 13 30 13l2 6q14 7 29 13q14 6 17 12t19 13t18 11q1 3 4 4t8 4t11 6t43 25q36 22 72 23q40 13 49 -4q2 -4 -5 -9t-9 -13
t-26 -15q-23 -6 -26 -8t-4 -5t-20 -11t-34 -17l-27 -14q-31 -12 -31 -16q0 -3 -2 -5q-2 0 -11 -5t-21 -11t-15 -8q-4 -2 -3 -4t-3 -5q-6 -4 -26 -13t-23 -13q-8 -4 -16 -7t-9 -5l-22 -15q-5 0 -21 -8l-2 -4q-10 -6 -23 -10t-28 -15q1 -9 -29 -22t-38 -19q-20 -17 -33 -21
q-13 -5 -16 -7t-6 -5t-27 -15t-27 -16q-4 -3 -31 -18l-22 -8q0 -2 -20 -12t-22 -13t-10 -7q-9 -4 -11 -6q-1 -3 -6 -8t-13 -7q-47 -12 -47 -22q10 -15 35 -24q24 -9 29 -12t17 -9t18 -12t18 -11q13 -6 18 -10l6 -11l24 -8q10 -6 15 -8q0 -2 4 -6q2 0 7 -2q6 -2 10 -3t10 -6
t15 -9t17 -11q8 -2 14 -7q7 -5 14 -8l14 -6t11 -5t9 -7t17 -10q13 -5 18 -9q4 -4 19 -8z" />
    <glyph glyph-name="equal" unicode="=" horiz-adv-x="950" 
d="M702 145h-24q-84 -2 -96 0l-37 15l-21 -4q-10 -2 -32 -1t-29 1l-25 -4q-8 -2 -22 1t-33 1t-29 -7q-10 -4 -28 -3t-29 8q-27 6 -58 1q-30 -6 -81 11q-20 12 -26 26q-5 14 -7 39l-6 17q0 16 24 30q7 7 21 7l49 18q3 0 31 -3t51 -2t33 -1l28 -4l29 4q4 2 14 1q9 -1 15 0
t12 3t13 3t12 3l38 -4q5 0 23 3t54 1t40 -2l76 2l39 -8q6 -2 31 -4t41 -10q33 -16 32 -74q0 -23 -7 -29q-19 -16 -39 -19q-20 -4 -33 -8q-13 -5 -17 -7t-27 -1zM799 541q31 -14 31 -60t-21 -53q-20 -7 -32 -10q-13 -2 -25 -7q-18 -7 -72 -6t-94 -2q-6 1 -18 9t-17 6l-23 -4
h-61l-25 -4l-45 4l-39 -8q-8 -2 -39 -3l-36 13q-10 0 -32 -4t-64 4t-49 28q-7 19 -9 45l-6 15q0 26 36 35q7 2 9 2l49 18q5 0 33 -3t51 -2t31 1l30 -6q15 0 27 6h29l39 8l37 -4q5 0 38 4q4 4 40 2t40 -2l50 2h24q30 -10 59 -10q28 0 54 -14z" />
    <glyph glyph-name="greater" unicode="&#x3e;" horiz-adv-x="1056" 
d="M334 749q0 3 -3 6t-14 8q-12 5 -21 10t-11 5q-4 4 -4 6q-38 21 -47 24t-21 11q-11 8 -23 12q-12 3 -15 5t-5 5q-4 6 -20 11q-15 5 -35 18q-3 4 -6 9q-11 8 -7 15q10 15 93 -9q19 -7 41 -21t33 -19q17 -8 19 -12t18 -11t19 -13t5 -8l24 -8l15 -9q2 -2 2 -3t2 -3q2 0 7 -2
t10 -3t10 -6q6 -5 24 -14t27 -16q9 -6 25 -12t21 -11t15 -9t19 -10q8 -7 15 -8q17 -2 17 -8q-1 -6 19 -14q20 -9 24 -11t7 -7q3 -4 13 -7t18 -10q7 -7 11 -9l31 -15q2 0 21 -10l4 -4q2 -5 14 -9t21 -10q10 -6 16 -12t20 -11t17 -7l4 -2l4 -4q24 -12 33 -21l16 -8q8 -2 13 -5
t24 -14t30 -16q11 -6 13 -8q3 -4 16 -9q12 -5 -6 -18q-18 -18 -38 -25t-22 -11q-4 -5 -18 -10t-19 -8t-14 -9t-18 -9q-30 -11 -47 -28q-49 -24 -49 -29q1 -4 -21 -13q-25 -11 -31 -16q-5 -5 -14 -9q-8 -3 -12 -5l-4 -4q-4 -2 -12 -7q-7 -5 -15 -7t-14 -8t-27 -15
q-20 -8 -33 -21t-49 -24q-6 -4 -19 -14t-23 -14q-11 -4 -14 -6q-16 -14 -37 -24q-21 -9 -29 -17q-7 -9 -27 -15t-22 -7t-15 -9l-24 -15l-20 -11l-5 -5q-12 -6 -16 -9t-7 -3l-28 -17q-62 -25 -99 -8l-2 2q-9 3 4 8t13 9l69 38q9 -1 27 13q19 14 27 18t10 6l43 21q14 14 30 20
t19 9q2 4 12 10t13 6l30 14q7 2 11 7t9 9t12 6q7 1 10 5t26 12t24 17q2 8 17 12q14 4 18 8t10 6q7 2 12 4q8 3 14 9t21 12t23 10q10 10 17 10q8 7 17 11t17 12t25 8q8 8 18 14l25 8q1 1 5 8t18 13t16 8t3 4t4 4t14 7q11 4 17 8t20 10q59 24 36 35q-18 9 -33 13t-22 11
q-8 9 -13 11q-6 2 -8 3t-4 4t-21 13t-20 12l-24 8l-18 12q-11 7 -13 9q-10 0 -10 4q-58 29 -107 64q-38 13 -49 24q-12 11 -20 17t-20 9q-11 3 -14 5t-5 4l-4 4q-1 2 -9 5t-15 6t-14 9q-7 5 -13 8q-7 3 -15 7q-2 5 -28 16q-25 11 -25 14z" />
    <glyph glyph-name="question" unicode="?" horiz-adv-x="915" 
d="M791 1302q0 -16 10 -26q2 -6 3 -16q1 -15 14 -43q12 -28 9 -43l-10 -80q-2 -4 -1 -16t-1 -15l-8 -19q-6 -18 -10 -34q-3 -16 -9 -24q-6 -9 -7 -12t-1 -8q0 -6 -2 -12t-14 -19t-18 -27t-9 -19v-4q0 -13 -24 -37q-1 -4 -13 -20q-12 -17 -24 -27q-16 -13 -21 -33
q-5 -19 -20 -31q-13 -12 -17 -16t-7 -13q-3 -10 -9 -20t-28 -46t-24 -41t-16 -15q-13 -10 -26 -47q-19 -19 -25 -26t-3 -19t-3 -23l-4 -10q-2 -2 -1 -8t-1 -9l-6 -30l4 -27q-6 -18 -6 -62t-23 -55q-6 -6 -39 -6l-20 6h-13q-40 0 -40 55v35l-4 17q0 30 8 44t5 40q-3 25 17 45
q4 8 4 28t14 33q18 18 24 45q5 27 21 40q15 12 15 25t3 17t11 12q8 7 14 14q5 7 19 34q15 27 21 34t13 12q11 8 17 22t13 18q8 4 11 7t6 5t9 23t30 40q23 19 27 25t6 14q1 8 11 30t13 31q4 9 10 20t6 26l10 29q2 4 1 18t-1 20l4 21q2 7 -1 23t-1 34t-1 22t-10 5
q-20 6 -26 39q-2 2 -2 5v9q-1 6 -23 18q-22 13 -28 18t-13 19q-7 13 -13 21t-17 9q-10 1 -16 6q-14 12 -39 9t-34 4t-16 5l-28 -11h-8q-8 -8 -17 -8l-20 4l-23 -8q-4 0 -12 4t-18 -14q-12 -19 -35 -19q-5 -4 -9 -12q-7 -12 -16 -12q-10 -1 -22 -13t-15 -21q-2 -9 -4 -12
l-41 -34q-24 -21 -55 -2q-31 17 -33 21l-10 41q-6 20 45 71q4 6 12 24t29 27q21 8 37 27q16 20 35 25q18 4 23 6t13 7t12 6t15 3q9 2 31 12q22 9 30 11t14 0q7 -2 9 -2l27 4q59 2 67 6t32 -6q28 -10 43 -12t26 -13q11 -12 24 -12t28 -13t34 -15q20 -1 27 -6t13 -21t10 -21
q3 -4 7 -6t14 -9t21 -28q14 -30 33 -53v-9zM415 4q-5 0 -11 -4q-28 -20 -60 6q-14 10 -17 31q-3 20 -5 26l-9 21l2 18q-4 60 -1 65t5 9q1 4 9 18t14 19q6 4 49 12l44 -10q9 0 16 -4q27 -16 24 -59q0 -4 -2 -14t1 -34t8 -35t-7 -32t-15 -26t-7 -13t-18 -1q-15 7 -20 7z" />
    <glyph glyph-name="A" unicode="A" horiz-adv-x="1421" 
d="M479 1052q0 10 17 25v12q0 15 10 25l7 28q7 28 14 37q22 29 22 48q10 27 10 42t11 31q11 15 14 20q2 5 7 29t16 37t14 19q0 30 14 46t15 32q2 22 5 32q4 9 7 22t14 25q12 15 17 24q22 36 55 -12q11 -17 22 -27t13 -15q1 -6 1 -28t6 -36t14 -27q9 -13 11 -19t1 -11
q-1 -6 1 -8l8 -25q2 -2 1 -7q-2 -8 7 -18t9 -42q2 -7 10 -17t10 -13t3 -13q1 -14 13 -29q11 -15 11 -23v-12l14 -36q-1 -8 9 -27t13 -23q5 -7 5 -15t8 -21t9 -21q1 -9 10 -21q12 -17 24 -72q13 -55 19 -60t10 -14t12 -38t11 -37t11 -17q7 -8 6 -14t1 -10l4 -16v-27
q2 -4 10 -8t10 -8t1 -14t-1 -17q3 -6 13 -18q14 -17 14 -28v-11q10 -11 12 -15t9 -19t9 -29t2 -18q1 -5 4 -9q3 -5 5 -9t5 -8q7 -10 14 -39t13 -38l15 -21q2 -4 3 -14t3 -16t11 -19q14 -19 14 -35t9 -25q13 -15 11 -33q-2 -19 21 -42q0 -2 9 -10q13 -12 13 -26v-11
q2 -5 4 -11t7 -14t6 -24q2 -16 7 -20q5 -5 6 -7q1 -1 3 -9t4 -11t5 -10t11 -23q2 -25 -12 -49q-38 -66 -127 6q-25 18 -28 25q-3 8 -3 24t-2 20l-11 22q-15 28 -14 36q1 11 -5 20q-7 9 -6 21q2 16 -12 34q-13 18 -13 36l-8 38q0 4 2 11q4 13 -10 20q-13 8 -10 18t7 21t-6 12
q-10 2 -20 12t-11 36q-2 27 -4 29t-34 10q-32 7 -36 6q-52 -17 -61 -9l-10 10q-10 2 -27 -2t-26 -4h-21l-16 -4q-12 6 -35 6l-30 -6l-60 16l-33 -12l-22 10q-11 2 -23 -4t-20 -6l-25 10q-10 2 -25 -3t-22 -7l-39 14l-51 -14q-2 0 -14 4t-15 -2q-4 -2 -4 -5v-7l-14 -33
q-2 -2 -1 -11t-1 -13q-5 -12 -13 -20t-10 -21q-4 -21 -18 -50v-16l-10 -25q0 -33 -12 -54q-16 -29 -14 -46q1 -17 -13 -28q-13 -11 -17 -18t-2 -26t-8 -33q-13 -18 -17 -32q-12 -41 -62 -38t-70 25q-21 22 -21 29q0 6 12 37l7 27q0 19 12 33q13 16 15 38q2 23 26 47t21 43
t0 25t18 23t12 39t19 53t22 44t2 15q0 2 14 23q0 18 4 26l7 14l5 15q3 8 13 44t20 47q11 11 13 18t9 27t7 34q0 15 16 40t20 31q3 6 4 18t2 22q0 10 12 20t15 18q11 29 16 60t18 42q16 14 16 42q8 16 8 19zM764 598h29q4 0 16 6h45q25 0 27 -2l28 -8q17 -4 31 3t17 12
q11 18 3 35t-13 45q-5 29 -40 89v10q0 10 -11 24t-10 28q2 14 -9 29t-13 22v29l-10 15q0 3 1 13q2 17 -14 25t-16 26q0 19 -4 25q0 6 -8 14q0 23 -11 37q-12 15 -14 19t-2 9t-2 9t-5 8t-7 8t-4 9q-6 9 -6 22t-17 47v14q0 23 -23 34t-32 -15q-2 -6 -5 -19q-5 -21 -21 -48
t-14 -41q2 -20 -5 -28q-6 -8 -6 -16v-10q-2 -8 -13 -17q-10 -8 -12 -14t-1 -15t-2 -15l-11 -22q-12 -22 -12 -27q0 -4 -2 -6l-15 -35v-6q-12 -12 -13 -39q-2 -28 -15 -41t-13 -21v-10q-4 -32 -18 -41q-9 -19 -14 -34q-4 -15 -13 -27q-12 -18 -12 -29v-10q-12 -46 -9 -56
q4 -10 26 -15t28 -3l33 6q4 0 14 -2q2 -8 41 -4t41 4l68 -4q31 4 49 4z" />
    <glyph glyph-name="B" unicode="B" horiz-adv-x="1204" 
d="M538 2l-40 -10h-11l-16 -4l-35 18l-39 -14q-30 -2 -67 6l-74 -6l-24 6q-15 4 -21 4l-37 -4q-18 0 -24 30q-7 30 -13 49q-6 18 -6 23l4 20l-4 21l6 23l-4 43q-2 2 -1 5t1 6v5l-6 39l10 43l-6 37l4 27l-8 41q6 28 6 38v15l4 16l-10 49q0 17 6 29l-6 39l10 57l-6 30
q0 11 6 26v139l-6 22q0 21 6 33l-10 37q-2 6 0 37l4 25l-4 51l10 30q0 5 -5 15t-6 15t2 14t3 26v18l-4 13l4 28l-4 27l6 33q2 4 -2 12t-6 38t6 67l-4 28l4 33l-10 43l12 23q2 2 3 6t3 6q27 49 75 32q19 -7 28 -8l32 11q10 2 26 -1t26 -3l59 4q4 0 10 -2q6 -3 14 -5t9 -4
l33 11q33 4 83 -10q7 -1 23 2t25 4l26 -11q43 0 103 -24l12 -2q2 0 6 -4q5 -4 17 -8t32 -16q26 -15 33 -16q7 -2 13 -11q4 -9 10 -15q12 -14 27 -19q14 -6 23 -23q9 -16 22 -30q24 -25 24 -43q24 -24 41 -96q2 -4 3 -7t4 -6t3 -10l-4 -18v-39q-13 -38 -10 -69q3 -30 -8 -42
q-11 -10 -13 -16t-3 -19t-6 -19t-16 -19q-17 -19 -24 -35t-25 -33q-18 -18 -30 -23t-18 -8q-6 -2 -8 -18q-3 -16 -1 -23t30 -21t29 -15l23 -8q25 -18 39 -27l27 -14q2 -2 7 -10t7 -9q2 -2 11 -9t11 -13q3 -1 5 -7t4 -11q4 -9 13 -16q32 -23 48 -75q17 -51 19 -59q2 -9 2 -15
q0 -12 10 -32q7 -59 -2 -83q-8 -24 -3 -33t5 -13l-8 -31q-2 -6 -3 -14t-3 -16t-3 -15q-2 -6 -6 -12q-4 -5 -8 -13t-7 -13t-8 -19q-6 -14 -12 -22q-6 -10 -32 -34t-35 -37q-10 -13 -28 -21t-23 -16q-6 -8 -10 -13t-9 -8q-7 -5 -20 -8t-50 -25q-37 -21 -48 -21h-15l-57 -11
q-23 0 -37 -9t-22 -11t-25 2q-16 4 -25 4l-39 -12zM674 141h22l29 11h8q4 2 12 9q9 7 15 10t22 3t20 2t8 5q3 3 5 4t9 4q13 5 17 13q4 9 32 29t38 37q33 42 38 60t4 41q-3 69 10 116l-21 31q0 23 -10 40t-11 29q-2 11 -8 15q-2 6 -13 12q-14 8 -20 22t-12 17q-4 6 -16 12
t-24 15q-13 10 -20 13l-21 9q-19 9 -28 18q-12 12 -29 14q-17 1 -40 7l-28 -4l-15 10h-31q-22 7 -32 5q-14 -3 -40 7t-71 6q-45 -3 -65 -13l-27 6h-19l-11 4h-5q-66 -12 -76 -35v-55l4 -21q-4 -20 -4 -49l-4 -20l10 -48l-6 -32l6 -45l-6 -19q0 -4 7 -16t3 -32q-5 -21 -6 -28
l7 -57v-59l-11 -27l6 -46q0 -3 -2 -15q-4 -25 24 -29q14 -2 46 8h21q6 6 22 6l57 -16h142l30 10h25q13 6 33 6zM571 883h25q6 2 19 10t19 10q74 23 107 55q3 2 9 10t20 20q14 14 14 13q2 5 4 13t6 12q3 4 7 10t8 10t9 14q5 9 4 14q-1 4 3 18t9 43l10 41q0 13 -10 34t-11 27
q-2 6 -1 16q1 11 -2 17t-15 17t-14 15t-5 7q-2 4 -6 13t-18 20q-14 10 -20 12t-10 5q-3 3 -13 15q-18 21 -36 20q-18 -2 -28 14q-9 16 -18 19l-25 -6q-6 -2 -21 -1t-24 1q-6 -6 -16 -6l-29 19l-30 -13q-4 -2 -28 -1t-38 12h-74q-4 0 -16 6t-19 2q-41 -20 -47 -49
q-2 -13 2 -33t4 -32t-6 -40l11 -18l-11 -25l4 -72q-6 -26 -4 -149l-4 -76l4 -16l-2 -25q0 -6 7 -15t25 -12t45 -1q26 2 34 2l18 -7q3 0 43 5q76 -7 98 -1q23 7 33 7z" />
    <glyph glyph-name="C" unicode="C" horiz-adv-x="1517" 
d="M1010 -37q-17 -4 -70 -4q-6 -6 -18 -6h-39q-2 0 -11 -6q-30 -6 -58 -4t-36 6l-20 10h-33l-29 4l-24 -4q-10 3 -39 25h-13q-17 0 -32 12q-18 15 -40 13q-23 -2 -36 18t-33 21q-20 2 -37 22q-18 21 -39 27q-24 8 -34 24q-11 16 -37 39q-26 22 -32 37q-11 23 -30 35
q-18 12 -18 30l-2 17q-4 4 -18 11t-16 20q-3 23 -17 39t-17 34q-2 18 -16 51q-16 37 -29 52t-2 55q-2 4 -9 15t-6 39q2 27 -14 58q-4 18 3 45l-5 23l2 61q-2 46 3 53q6 7 6 11v35q6 5 6 17v28l14 45q2 4 1 10t1 9t7 10q14 20 14 55q4 10 13 27q13 25 13 35v9q11 21 15 27
l2 14q6 8 19 24t18 29q4 13 10 20t19 20q12 12 14 24q3 19 22 27q19 9 28 28q9 20 15 29q6 4 26 17t42 32q30 27 57 37t31 16t9 9t18 6q15 4 30 17q15 12 35 14q19 3 41 14h18q30 10 49 10q4 2 12 7t15 7q6 2 15 0q16 -3 29 2q14 6 30 8q15 2 23 6q10 3 26 0t20 -4t22 1
t21 0q5 -2 13 -6q8 -3 12 -5t14 -1t14 0t12 -5q9 -4 15 -6q95 -9 114 -18q19 -8 27 -12t18 -11q9 -6 33 -14q24 -9 31 -17t11 -11q9 -7 25 -9q16 -3 32 -14q11 -23 16 -26t15 -7t14 -7t8 -10q6 -10 21 -18q35 -17 36 -58q1 -40 -28 -61q-39 -20 -63 -14l-21 8q-21 3 -22 9
l-4 12t-4 8q-3 2 -11 4q-12 3 -18 25q-5 22 -31 22q-4 2 -9 9t-28 15q-22 7 -32 18q-9 11 -15 13t-28 2t-37 18q-14 18 -21 21q-6 2 -14 1t-12 0t-11 6q-8 5 -14 6l-27 -2l-16 16q-2 0 -6 -4l-2 -4q-10 -6 -21 -6l-33 10l-38 -19q-21 0 -33 9l-37 -11q-6 -2 -22 -1t-20 0
q-5 -1 -13 -6q-9 -5 -16 -8t-15 -5t-14 -4t-15 -4q-10 -2 -28 -9q-18 -8 -52 -34q-42 -32 -55 -35t-17 -12q-5 -9 -9 -11t-14 -6q-9 -4 -12 -7t-8 -11q-6 -8 -16 -14q-15 -8 -20 -25q-6 -18 -34 -43q-28 -26 -32 -44t-19 -32q-15 -13 -13 -23q1 -10 -1 -14t-7 -11t-10 -13
q-5 -7 -6 -11t-12 -35t-13 -49q-1 -18 -3 -24l-10 -17l2 -34v-21q0 -14 -2 -22l-10 -27l6 -23v-86l-4 -14l8 -20q2 -10 0 -37t0 -34t10 -18t16 -44t6 -41q-2 -12 10 -25q11 -13 12 -28q1 -16 17 -35q22 -28 26 -48q4 -21 21 -34q20 -16 29 -33q9 -18 29 -34q21 -17 25 -23
q9 -15 43 -24q34 -8 49 -38q4 -4 16 -10t22 -17q13 -14 25 -14h11q28 -14 35 -14h20q6 -1 16 -7q36 -20 52 -19t22 -1l31 -14q2 0 34 2l39 -2l17 4q4 2 14 -1t17 -3l34 14q6 2 20 1t23 1q10 2 88 37q77 35 89 42t18 15t11 10q5 1 13 9t37 32q29 25 35 39t10 17q31 41 80 20
q8 -4 16 -14t14 -18q7 -8 9 -13q20 -17 15 -26l-10 -16q-11 -16 -19 -44q-5 -6 -19 -17q-13 -11 -22 -22q-8 -12 -12 -16q-8 -6 -26 -12t-31 -25q-13 -20 -21 -27q-26 -13 -45 -25t-23 -12t-14 -1t-18 -5t-26 -17q-28 -19 -36 -19h-6q-10 -4 -47 -17l-23 -8z" />
    <glyph glyph-name="D" unicode="D" horiz-adv-x="1366" 
d="M709 1538q10 0 14 -1q7 -2 15 -10q8 -9 12 -11q10 -6 20 -9t14 -5t19 -4q15 -1 45 -21q29 -19 34 -20t17 -13q34 -11 42 -22q9 -11 11 -13t7 -4q6 -2 23 -17t25 -19q9 -5 13 -9t7 -14t7 -14t16 -12q12 -7 19 -11q9 -13 23 -36q20 -34 33 -42t18 -20q5 -15 12 -23t10 -25
t21 -45q18 -27 21 -38t5 -28q2 -16 4 -24t10 -20q9 -15 9 -29q0 -13 7 -21t7 -12l2 -33v-34l4 -18l-4 -25l13 -64l-13 -82q-2 -8 -1 -23t-1 -24l-8 -20q-4 -13 -4 -29t-2 -22t-5 -12q-3 -7 -4 -9t-1 -8q0 -5 -1 -13q-2 -8 -6 -15t-6 -18t-5 -17t-11 -16t-10 -16t-7 -20
t-9 -19t-12 -13q-13 -14 -13 -25q-7 -10 -21 -32t-19 -31t-20 -19q-16 -10 -23 -25q-7 -16 -23 -25q-21 -13 -32 -28t-29 -23q-19 -8 -45 -36q-26 -27 -34 -39t-14 -17q-8 -4 -30 -8t-38 -15t-38 -18q-21 -8 -45 -20q-24 -11 -30 -15q-8 -4 -32 -3t-31 1l-23 -10
q-8 -2 -24 0t-24 0t-17 -4q-10 -2 -19 -3t-23 -2t-31 -1t-29 -6q-39 0 -60 2l-22 4l-17 -2l-33 2q-36 -6 -47 -6l-26 10q-9 2 -23 -1t-18 -3q-33 -2 -62 22q-8 8 -8 21l8 49q0 16 -9 31t-3 35l10 24l-10 29q-4 19 4 55l-4 27l6 26q0 3 -2 7t-4 10t-1 10t11 55l-4 50l4 26
q4 78 -10 121l6 45l-6 37l2 35l-6 24l8 35q0 15 -10 35l6 31v41q-4 4 -4 18l14 33q0 2 -7 13t-7 26l12 47q2 4 -4 15t-4 48l8 28l-8 28q-2 37 0 71l4 21l-10 28l16 52q-10 20 -10 24v31q-6 18 -6 37l16 43q0 13 -7 23q-7 9 -8 13t-1 32t9 37q10 9 24 13t22 9q8 4 18 6t36 0
t46 0t48 -6l43 6l35 -6q14 0 20 6l24 -2h11l59 2l33 -11q4 -1 18 3t25 1t27 -9q16 -7 25 -6t30 -7t31 -8zM274 1086q0 -10 7 -15v-41l-7 -35l7 -22l-7 -19v-34l-4 -25l4 -21q0 -2 -2 -8q-3 -9 5 -22t8 -58l-11 -32v-45q0 -9 9 -27l-7 -33l7 -51l-4 -33l4 -26l-4 -25v-45
l-5 -16l7 -38l-7 -26l5 -51q2 -4 0 -11t-3 -12l9 -26l-2 -26l8 -21q-2 -6 -8 -16t-10 -17q-4 -8 3 -35l9 -14q0 -19 7 -25q8 -6 24 -3t63 3h131q20 10 24 10t19 -9q22 -15 63 16q4 0 16 -1t15 1q4 2 12 7q7 5 11 6t11 1q9 0 23 14t30 13q16 0 22 3t25 19t39 22q22 5 26 8
t8 8t7 6t22 13t32 29t38 31t36 40q11 27 31 49t20 27v9q0 5 12 21q12 18 14 26q1 8 1 35t5 35q4 8 18 22q19 21 17 40q-2 18 7 30q8 12 6 60l-2 48l10 32l-10 28q-2 27 1 42t0 21t-7 11q-7 8 -5 26t-15 67v15q-18 48 -26 54q-32 28 -32 50t-16 36t-17 24q-2 10 -4 12l-26 18
q-4 4 -22 21t-23 28q-4 11 -8 13l-21 16q-4 2 -13 12t-19 14q-11 3 -16 6t-15 13q-10 9 -16 13t-14 5q-9 1 -23 12t-37 20q-23 10 -33 16t-27 6q-20 10 -28 10t-13 2l-43 15h-22l-19 10h-29l-16 4q-26 -6 -63 -8l-27 4l-23 -6q-10 0 -16 6h-20q-33 10 -39 8t-14 -9
q-9 -9 -26 -10q-27 -2 -16 -30q4 -10 4 -15l-6 -30l6 -62v-102l-10 -23l10 -26q2 -7 1 -27t-1 -30z" />
    <glyph glyph-name="E" unicode="E" horiz-adv-x="1054" 
d="M465 1548q6 0 19 2t91 2q26 6 34 3q7 -3 12 -3h65l35 7l25 -7l28 4q2 0 13 -3t25 10q14 12 44 -11q4 -2 26 0t40 -16q34 -43 -9 -88q-14 -14 -18 -16t-17 -1t-24 -8t-28 -1q-17 9 -25 8l-27 -7l-16 2l-23 -2l-28 7l-41 -9l-29 9l-21 -3q-59 4 -81 3l-25 -5q-37 -2 -45 0
l-25 5q-11 0 -22 -11l-45 11h-5l-12 -3q-8 0 -20 3l-19 -11h-12q-21 0 -33 -14q-2 -6 -4 -10q-2 -5 -2 -9v-8l4 -26l-4 -23q0 -14 6 -26q0 -3 -10 -48l8 -43l-6 -41q0 -8 6 -23t4 -26l-12 -47l8 -28l-10 -46l6 -30l-8 -43q0 -11 10 -26t12 -19q9 -24 28 -16q18 9 22 9t74 1
h73l17 -5l36 5q8 0 17 -9q6 0 14 4t15 6t33 0q26 -1 36 -1l49 10l37 -6h13q11 0 16 2l27 10l24 -10q4 -2 16 -4t23 -7q12 -6 15 -7q18 -6 18 -21q8 -59 -23 -86q-6 -6 -30 -16t-29 -9l-29 10h-27q-51 -8 -68 2t-30 15q-36 -16 -49 -17l-19 7h-26q-20 7 -29 3q-8 -3 -26 -3
h-34q-16 0 -36 -5l-37 5l-24 -13q-3 -2 -13 2t-12 4q-35 8 -70 -13t-7 -60q20 -28 5 -69q-4 -11 -4 -17l4 -37v-103l-6 -34q0 -44 6 -68q2 -35 0 -47l-6 -24v-13q2 -6 2 -86q0 -43 27 -43q8 0 10 -2l27 -6l30 6q8 2 28 -1t30 -1l28 10q12 0 31 -8t45 -8l35 6h43l29 10l20 -6
h37l20 -2l19 2l61 -4l29 4q31 -10 37 -10t30 7t44 1q27 -15 33 -25t6 -32q0 -57 -45 -72q-4 -2 -20 -1t-29 -5t-19 -4l-40 14l-42 -10l-29 4l-26 -4q-3 0 -11 4t-11 5t-9 -1t-8 -2l-25 6l-35 -12l-34 14q-17 0 -27 -10q-23 -2 -35 2l-26 6l-34 -12q-6 0 -34 14l-57 -10
q-7 0 -19 5t-17 6t-26 -2t-29 -3t-20 -6q-18 -2 -40 1t-38 3t-24 8q-20 27 -19 62l4 22l-8 37l4 29q0 39 -2 41l-6 22l2 27q-6 25 -3 32t3 11l-2 35q4 12 4 33l-6 32l10 45l-10 29q-2 11 2 29t4 54t-6 66l8 45l-8 35q-2 16 0 45t1 37t-1 28v34q-6 6 -6 18l10 41q-9 27 -4 49
l12 21q2 2 -2 8t-4 12v14l-4 23q-2 6 3 17t5 16l-10 45l10 31l-8 28l4 51l-6 34l8 32l-8 37l4 20v39l6 15q0 2 -10 22l4 29q0 2 -5 12t1 38t9 32q2 4 22 17t22 13l41 -6l51 2q4 0 18 -5q27 -10 52 3q26 13 100 6z" />
    <glyph glyph-name="F" unicode="F" horiz-adv-x="944" 
d="M698 1425l-17 17q-8 0 -13 -8t-25 -12t-47 10q-31 3 -42 -2t-15 -5h-9l-14 5h-6l-51 -13l-29 15l-35 -7l-16 7h-64q-29 0 -41 -14t-10 -29l4 -14l-4 -17q6 -6 6 -31l-6 -22l6 -39v-43q-6 -6 -6 -17l6 -43q-8 -16 -8 -30l8 -39l-6 -23v-27l6 -18l-6 -25v-77q-4 -18 -4 -21
q15 -31 44 -31h15q5 0 17 -6q10 0 50 1l40 1l14 4h35q7 7 14 7l31 -11q4 0 10 4t10 6t11 -2q6 -3 9 -4l20 7l22 -7h47l27 7q57 0 86 -7q47 -6 49 -43l-6 -24v-19q-10 -33 -33 -41q-9 0 -26 -3t-27 -1l-29 13q-9 -4 -18 -9h-15q-14 0 -29 3l-34 -7q-6 0 -15 4q-9 3 -13 5
t-12 -1q-7 -3 -11 -4l-29 5q-8 2 -23 -2t-45 -3q-11 7 -16 7l-51 -7l-39 9q-12 0 -16 -4q-35 -2 -50 -15q-10 -20 -10 -41l10 -24l-4 -41l4 -41v-68l-4 -31l4 -20v-27l-4 -24l4 -19v-69l9 -21q9 -26 3 -36q-5 -11 -7 -16q-3 -5 -5 -11t-3 -19t4 -24q6 -10 4 -43l8 -29
l-2 -29l2 -34q0 -3 -6 -27l-7 -29q-8 -8 -12 -8q-26 -26 -35 -21q-10 5 -12 5q-55 6 -72 39q-2 4 -2 12v12q-2 3 -8 15t-6 18l4 34l-4 38l10 30l-6 27l6 23q-10 10 -10 38l10 31l-16 43l10 35q-6 32 -4 68l8 38l-4 19l6 37v12q4 20 4 23l-8 22q0 6 5 18t3 21l-14 29
q19 57 15 64t-7 14q-4 7 -4 22q0 16 6 25v22q4 8 4 12l-10 25l6 35q3 37 -4 64l4 18l-10 26q-2 9 3 27t5 25l-6 24q-2 4 0 10t2 11l-4 20q0 19 12 55l-12 27q-2 8 2 22t2 39l-4 62q0 2 10 27l-6 30q2 6 4 14t6 20q4 11 -4 22q-8 12 -11 21t6 43t17 40q28 21 148 14
q29 -2 35 -2l39 8l73 -8l37 6h27l16 9l27 -9q10 -2 40 -1t40 1q13 -6 21 -6t53 15l53 -4l32 6q18 0 42 -17t28 -35q4 -17 -8 -44t-16 -31q-27 -18 -68 -11l-37 9z" />
    <glyph glyph-name="G" unicode="G" horiz-adv-x="1740" 
d="M1160 483h-21l-45 2l-33 -6q-6 -2 -15 2q-10 4 -14 4h-7l-17 -2q-16 2 -42 19t-24 34q2 16 0 34q-4 34 25 52q28 17 30 17l25 -10q35 -6 69 1t50 0q17 -6 25 -5q9 2 12 1q4 -1 9 -1h9l18 4l56 -4q4 -2 14 0t14 2l142 -2q6 -2 26 -5t29 1t23 4h20q12 6 33 6q78 0 71 -76
l-8 -23q-2 -4 -2 -12v-12q0 -4 -2 -8t-4 -10t-4 -10q-2 -5 -1 -19q1 -15 0 -21t-7 -13t-8 -17q-6 -25 -29 -58q-22 -33 -39 -67q-13 -17 -26 -32t-16 -33t-17 -31q-13 -13 -20 -17t-36 -33t-43 -34q-20 -7 -26 -15t-16 -16t-26 -18q-18 -10 -28 -12q-10 -1 -14 -3l-56 -31
q-18 -12 -37 -12t-27 -2t-17 -10q-11 -8 -15 -10t-17 -2q-13 1 -16 1l-16 -4q-4 -2 -13 -1q-15 2 -40 -11q-18 0 -27 2l-22 6q-15 0 -33 -9t-31 -9h-16q-17 17 -47 20l-21 -8q-22 -9 -46 4q-23 12 -67 20t-69 22q-26 15 -35 20l-27 4q-32 4 -55 28t-37 27q-14 4 -18 6
t-18 10q-13 7 -19 8t-20 15t-16 17q-3 3 -6 5l-5 5t-11 7t-16 14q-6 9 -12 13t-6 7q-4 2 -6 9t-21 22q-18 14 -23 22t-6 22q0 14 -6 20t-13 10q-7 3 -17 9t-13 28t-26 44q-4 8 -10 22q-8 18 -19 33q-12 15 -13 35q-2 19 -13 42t-12 40t-17 47t-13 52t5 30t2 14l-15 45l4 19
l-4 51q0 8 6 30t4 42q-1 20 -1 28q11 33 15 61q4 36 13 51t11 31q1 15 6 19q2 6 15 22t14 38t17 41q15 20 18 32t12 23q7 8 10 8q4 6 15 25t23 29q17 14 32 39q14 24 34 44q21 21 38 41t45 29q27 8 36 14q6 6 18 20q17 20 31 21q14 0 32 14q17 14 35 17q20 4 28 13q9 9 19 9
h12q3 0 12 5t30 8t42 9q22 7 26 10q7 5 17 5h11q3 3 27 10q14 0 20 -6h29q14 5 25 7q12 3 19 5t21 -3q15 -5 25 -2t16 4l21 -9q2 -2 14 -1q13 1 19 1t22 -8l49 2q20 -10 67 -20t68 -22q27 -16 40 -19t25 -14q11 -11 26 -12q24 -2 29 -15q4 -13 18 -15t18 -4q4 -4 9 -10t8 -6
q23 -27 37 -30t19 -8t13 -26q2 -2 14 -13t14 -25q1 -14 -9 -40t-27 -36l-31 -6q-31 -8 -48 -2t-38 33q-22 28 -30 36q-8 5 -23 11q-15 5 -28 18t-36 23q-24 9 -30 15t-12 13q-12 16 -23 12q-12 -4 -17 -4q-5 -1 -34 9t-35 13t-15 11t-16 8l-43 -4l-22 10q-41 2 -51 -2
q-11 -4 -19 -3t-10 -1l-27 -8q-10 0 -30 3q-26 4 -65 -10q-40 -14 -70 -20q-45 -9 -60 -24q-49 -25 -64 -37q-14 -12 -25 -18t-15 -9l-15 -2q-26 -26 -39 -28q-13 -3 -19 -17q-6 -13 -22 -28q-23 -22 -27 -30t-12 -13q-8 -3 -11 -9t-8 -15t-7 -13t-18 -21t-25 -38
q-8 -20 -9 -26q-1 -7 -5 -11q-24 -30 -23 -57v-27q-2 -6 -12 -14q-11 -8 -13 -10q-2 -3 -1 -15t-1 -17l-10 -20v-39l-8 -39l8 -29q-2 -8 -9 -24t-7 -34t4 -28l12 -33l-4 -34l14 -68q2 -6 3 -26t7 -28q5 -8 6 -12t1 -9q0 -6 9 -17q9 -10 14 -22t18 -33q21 -32 25 -46
q3 -15 14 -29q12 -14 22 -20t14 -10q3 -4 5 -8t4 -12t23 -28q15 -13 18 -15q4 -4 12 -17t33 -26q26 -12 41 -34t28 -22q11 0 15 -2l8 -4t7 -4t7 -3t9 -2l10 -2t12 -8q8 -7 14 -9t10 -4q3 -2 9 -3q5 -2 19 -7q13 -5 22 -13q10 -8 18 -10l14 4h21l35 -13q6 0 21 7t23 -4
q9 -11 27 -12t109 5l16 -4q20 4 52 12q32 9 53 9q22 0 28 6q0 21 24 22t32 3t20 12q14 11 38 18t33 20q8 13 19 19l22 11q18 10 36 34q24 12 28 22q4 9 6 11q22 11 25 20q6 6 8 26t20 39q24 25 22 43t10 31q11 14 2 28t-17 18l-27 -10q-41 -6 -61 -2t-61 -1l-31 7
q-18 -2 -27 -7l-20 -8l-19 8q-4 2 -18 3q-18 -9 -28 -9z" />
    <glyph glyph-name="H" unicode="H" horiz-adv-x="1394" 
d="M956 758q-14 -4 -86 -4l-16 -6l-39 6h-51q-6 -6 -25 -9l-43 9q-45 2 -65 0l-18 -6l-29 6h-72q-31 -15 -49 -6h-24q-13 0 -19 6q-8 2 -39 1t-37 -1l-19 4q-35 -10 -57 -10l-4 -15l10 -35l-6 -49l8 -28q2 -7 0 -15t-2 -12v-111l5 -20l-5 -37l5 -43v-49l6 -17l-6 -20l4 -37
l-4 -51l8 -29q0 -25 -11 -47l3 -76v-32q-10 -29 -39 -43l-19 -9l-39 11q-23 0 -47 26l-10 27q-8 8 -8 12t9 26t1 105l12 41l-8 53q-2 4 -1 12t1 13v10l-2 37l6 23q-13 45 -6 58q6 13 12 24t4 51l-4 35v11q0 7 -2 9l-8 29l4 22v54q6 66 6 76t-6 20t-4 16l14 41l-4 31
q-2 6 1 18t3 19l-6 28q-2 8 0 30t2 34q-6 6 -6 23l10 28v11l-4 30l4 33l-4 16v11q0 9 -2 12l-10 24l6 34l-4 30q-2 43 0 47l4 22l-6 21l2 45q0 6 -4 18q-7 22 6 56l-8 45q-2 16 8 38t33 36t40 13q18 0 42 -12t27 -15t3 -13t3 -15l16 -28q0 -8 -9 -14t-9 -33l-9 -33l4 -57
l-6 -41l11 -37l-11 -37l4 -70l-6 -29l10 -28q2 -6 -5 -21t-5 -32t8 -23l-6 -45l6 -70l-8 -29q0 -15 21 -17q21 -3 30 -6t13 -3t13 8t45 4t46 -3t15 1l30 -8l25 10l22 -6q9 0 15 6l41 -2q8 0 20 3q25 6 41 4l21 -3l43 3l24 -5l39 9l29 -9h106q47 6 60 7q70 -6 100 -7l25 -2
q21 0 34 18q12 18 9 34l-9 18l4 25q0 12 -6 24v43l8 33l-6 31q0 6 6 16t3 16l-15 43l4 23q2 4 -1 14t-3 15l4 41l-4 43l4 36q-7 28 -4 74q2 45 0 56l-4 24q0 8 10 27q10 18 13 23q2 5 26 17q25 12 43 0q19 -12 23 -12t6 -2t4 -6t5 -7t13 -9q21 -13 10 -47q-10 -34 -10 -97
l9 -20q0 -4 -6 -12t-5 -24l2 -28v-12q0 -6 4 -19t1 -26l-5 -29l5 -36q0 -3 -2 -15t-3 -69l5 -21l-11 -41l13 -39q0 -6 -4 -20t-6 -101q-1 -86 -4 -104t4 -32q11 -21 7 -30t-4 -44l5 -17l-7 -33q0 -8 4 -22t-2 -45l5 -19q0 -4 -5 -34v-41q11 -11 11 -21t-5 -17
q-18 -26 -1 -81l-5 -53q7 -26 6 -35q-1 -8 1 -15l6 -34l-4 -31l4 -105q0 -8 -6 -19t-8 -15q-2 -3 -10 -13q-9 -10 -13 -11t-33 -1h-30l-22 16q-22 16 -26 24t-4 28v22l-8 37l8 35v8l6 31l-8 63l6 29q2 8 -1 22t-3 21l4 22v213l6 19q0 4 -5 28t1 58q6 33 4 39q-4 11 -9 15
q-6 4 -11 12q-4 8 -7 12t-31 2t-30 -2l-34 4l-33 -4z" />
    <glyph glyph-name="I" unicode="I" horiz-adv-x="407" 
d="M202 -10h-26q-31 10 -41 39q-2 2 -2 7t-1 9t-2 7t-5 10q-4 8 -6 14t4 22t6 23l-4 26q0 11 6 23l-2 27q0 6 6 18l-6 47l10 43q2 10 -1 29t-3 41l6 41l-6 47l4 33q-6 26 -4 73l4 23l-4 26l2 41q-6 144 -1 166q5 23 9 33t5 16l-11 31q-2 9 2 25t4 24l-10 27q-2 10 0 32t2 29
l-6 31l6 27q2 4 -3 15t2 25q7 13 7 17q2 4 2 35l-10 74l10 37q-10 30 -10 33v96q0 2 -3 22t0 24t3 14v13q3 31 13 38t20 11t48 4t54 -18l2 -22q0 -6 6 -24t5 -30l-11 -26l9 -31l-9 -31l15 -90l-4 -17v-26l-11 -16l4 -33l-8 -37q-2 -10 3 -25l8 -24l-11 -35l4 -33v-51l7 -18
l-7 -25q0 -24 4 -40t0 -28t-4 -16l4 -35l-8 -36q0 -5 3 -29t4 -54t4 -34l4 -31q-11 -55 -11 -63l-4 -14v-5q-3 -112 6 -143q8 -31 7 -41l-13 -39q0 -4 2 -11t4 -19t0 -25q-2 -12 -2 -19l7 -20l-11 -49l13 -68l-13 -32q0 -14 11 -29q1 -30 -21 -52t-26 -23q-6 -1 -30 -1z" />
    <glyph glyph-name="J" unicode="J" horiz-adv-x="774" 
d="M605 1554q34 0 34 -20q0 -11 10 -25q10 -13 2 -49l-12 -30l4 -31q2 -5 1 -17t2 -20t3 -14l-6 -37l6 -39q0 -45 -6 -51l4 -35l-8 -26q0 -3 4 -10t0 -23t-4 -21l10 -27v-26q-8 -16 -8 -25q11 -32 6 -45q-4 -14 -2 -20t2 -11l-4 -39q6 -12 6 -32l-6 -21l6 -22v-27l-6 -16
q6 -18 6 -33l-2 -21l2 -24q-3 -3 -10 -21q6 -22 4 -49l-4 -33l8 -49l-8 -55q0 -20 4 -68t2 -63q-2 -16 -9 -45t-8 -33t-2 -7q0 -2 -2 -10t-9 -15t-8 -12t0 -19t-1 -20t-9 -14q-7 -10 -9 -14t-3 -9t-7 -17q-4 -2 -8 -5t-11 -6q-8 -3 -12 -20q-4 -18 -27 -35q-2 -4 -5 -11
t-8 -14t-18 -12q-16 -8 -31 -32q-15 -23 -38 -23q-2 -2 -12 -1t-14 -1t-6 -6q-3 -4 -11 -12q-9 -8 -23 -8q-21 1 -37 -6q-17 -7 -37 -7t-24 -2t-11 -6t-35 -5t-34 1t-22 10l-23 -4q-23 0 -32 28q-1 5 -6 29t-3 29q18 45 47 55q8 2 53 2l25 -8l18 8q58 0 69 6q10 6 18 11
q10 8 21 8t21 11q10 10 15 14q4 4 15 5q10 1 16 6t9 18q4 17 12 25q27 27 44 64l2 15q2 4 9 14t5 30q-3 20 5 29q8 10 6 20q-2 9 -2 11l6 25l-4 20v76l4 15l-4 24l4 16q0 8 -11 26q-14 22 3 42q4 6 4 20t-11 43q0 16 11 49l-6 31q0 20 2 25l8 22q0 9 -8 23t-7 24l15 21
q2 10 -1 23t-3 18l14 31q0 4 -6 9t-8 8t1 17t3 19l-10 53l7 21q5 14 3 24l-4 35v35q-6 6 -6 19l6 20l-6 28l4 40l-9 42q1 10 7 19q6 10 5 40t-1 34t-10 25q-10 22 -1 50l9 17q8 23 21 31t47 7q34 -2 39 -2z" />
    <glyph glyph-name="K" unicode="K" horiz-adv-x="1169" 
d="M248 0l-66 -6q-35 4 -51 53v14l-12 25q0 12 7 20q7 9 7 46l-2 141l6 33l-6 30q0 9 6 21v33l4 12q-13 13 -10 59l10 31l-10 53l10 31v43l-10 35l10 37v21q0 10 6 24l-6 47l6 16q0 35 -3 39t-1 9t3 7t1 35l-16 56q0 4 3 10t3 29l-4 36q0 6 5 21t3 24l-10 29v55l-10 33
l16 35l-10 49q-2 28 1 48t3 24l-12 26q0 8 7 24t-1 53q-8 36 -5 51q3 14 15 30t28 20t19 10q3 7 11 7q45 8 75 -45q10 -20 13 -25l-7 -31l5 -34l-9 -33l4 -76l-6 -39l11 -26l-15 -33l6 -20q-6 -6 -6 -19q10 -20 10 -24l-4 -27l4 -23q-10 -20 -10 -26q9 -37 6 -59
q-2 -21 -10 -21q-8 -16 0 -35q2 -2 22 -11t29 -5l15 16q20 29 26 35l28 32q5 5 26 23t37 39q15 20 21 26t11 10q6 5 10 7t35 35q2 4 5 12t19 15t34 24q25 29 28 43t17 21q14 6 17 9t8 14q9 22 22 22q8 16 21 22t18 16q4 7 6 8t5 3l6 4q5 4 12 14q7 11 23 24q15 13 23 21
q12 24 18 30t18 15q24 19 36 33q12 15 22 21q11 6 43 4t40 0l37 4q35 0 37 -42q1 -21 -6 -27q-7 -5 -15 -18t-18 -15q-11 -1 -14 -4t-6 -7t-6 -9q-4 -5 -14 -15l-14 -15q0 -16 -17 -21t-21 -8q-4 -4 -6 -16q-1 -12 -4 -15q-5 -5 -18 -5t-23 -21q-9 -21 -21 -29
q-11 -8 -14 -10t-6 -3t-7 -3t-6 -5t-4 -9t-7 -8q-4 -6 -21 -19t-31 -33q-13 -21 -40 -32q-27 -12 -43 -30q-16 -17 -18 -22t-7 -18q-10 -26 -33 -31q-23 -4 -26 -16q-2 -12 -4 -16q-4 -5 -13 -11t-13 -12q-10 0 -16 -10q-7 -10 -17 -21t-20 -20q-10 -7 -32 -23t-32 -24
q-2 -4 -4 -7t-4 -7t-10 -15q-8 -12 -18 -20q-9 -7 -11 -11l6 -41q4 -4 12 -10t18 -18q13 -18 32 -29t27 -24q8 -15 20 -25t15 -19q6 -16 17 -27q12 -10 15 -17q4 -7 9 -12t15 -13q11 -7 21 -17t18 -16q4 -4 13 -18t29 -22q20 -7 25 -25t16 -25q12 -6 15 -18t11 -16t10 -8
q2 -3 5 -7t7 -8q4 -5 6 -9t5 -11q5 -13 30 -25q10 -20 23 -30q12 -9 14 -14q34 -22 38 -30q5 -8 7 -14t6 -10q27 -20 35 -36t14 -19t11 -13t14 -13q8 -2 12 -6t11 -20q7 -17 11 -21t12 -7q12 -5 17 -14t14 -13q13 -7 18 -21t17 -19q12 -4 13 -12q2 -8 3 -11t5 -10t8 -17
t10 -17q7 -25 -17 -41t-46 -14l-20 6q-3 0 -12 -1t-13 1t-10 7q-7 6 -22 9q-16 3 -24 14q-7 11 -9 14q-4 4 -17 14q-12 9 -17 15q-6 7 -20 17t-20 17t-22 36t-47 55q-30 26 -30 45v7q0 2 -2 6q-4 2 -9 6t-14 10t-18 20q-10 15 -14 20t-11 10q-7 4 -15 10q-14 10 -18 20
q-5 10 -9 16q-3 6 -15 16t-15 14q-3 3 -6 10q-3 6 -6 10t-11 10q-21 17 -27 33q-2 2 -12 8t-15 10q-2 4 -5 18t-11 19q-9 5 -19 20q-10 16 -16 24t-22 18q-16 11 -25 20q-25 31 -27 33q0 13 -36 47q-36 35 -48 52t-20 18q-9 1 -19 -8q-10 -8 -10 -16t6 -26l-6 -35v-24
q0 -5 3 -11t1 -32t2 -25q4 -10 4 -46v-38q-2 -4 -9 -13q-7 -8 -6 -16t4 -17t7 -17t4 -15l-6 -49l6 -61v-86l7 -19l-7 -41q0 -12 4 -18t3 -61q0 -55 -33 -64z" />
    <glyph glyph-name="L" unicode="L" horiz-adv-x="1056" 
d="M918 147q2 0 9 -4t19 -11t17 -13q4 -7 3 -23t-1 -29q0 -50 -45 -67q-8 -2 -20 -2l-46 2h-61q-4 4 -21 4q-28 -6 -57 -4l-66 10l-31 -10q-20 -2 -56 0t-48 2l-63 -2l-23 10l-31 -10h-95q-32 0 -43 9t-30 1l-20 -10q-11 0 -23 11t-15 13t-13 4q-10 1 -16 8t-5 22q2 16 0 23
t-1 23t1 25l-6 51l12 53q-10 11 -11 15t0 24t1 23l-4 29l8 53l-2 26l4 34l-8 28q-2 5 2 13t4 14l-6 28l6 49v41l-4 21l4 20l-4 29q-2 12 0 37t0 37l-6 20q0 25 6 43v47q10 22 6 34q-4 10 -3 28t1 22l-8 31q-2 25 -2 31l6 24l-6 23q0 18 6 33l-4 36l8 32l-8 46l8 41l-10 27
l4 33l-10 30l6 25v20q0 12 3 33t2 24t-3 8t-2 11v17q-10 10 -10 24t11 41t36 27q38 23 60 11q21 -13 30 -13q18 -11 22 -41l7 -29q0 -4 -7 -18q0 -9 2 -29t-2 -29l-10 -33l6 -36l-6 -39l10 -23q7 -21 -4 -65l4 -21q2 -16 0 -35l-10 -28l15 -27l-11 -23q0 -6 5 -13
q5 -8 3 -28t-6 -40q-6 -20 -6 -25l10 -33v-10l-2 -18v-10l2 -19q0 -10 -10 -45l8 -23q2 -4 2 -12v-12q7 -7 7 -27q-1 -20 -5 -32q-4 -11 -8 -19t-4 -12l10 -31q2 -8 -2 -24t-2 -23l11 -31l-7 -22q0 -4 2 -18t-2 -17l-10 -25q0 -14 6 -20q8 -82 4 -99l-10 -32q0 -3 15 -48
l-5 -18v-55q0 -6 -2 -12t-7 -26q-5 -22 11 -47t48 -24l14 4l43 -8q9 -2 27 0t28 0l58 4l24 -4l37 4l17 -4l20 4h35q6 6 32 7t52 -5l49 8q31 2 53 -4q25 6 45 4t27 -2l15 2h16z" />
    <glyph glyph-name="M" unicode="M" horiz-adv-x="1615" 
d="M1335 350l4 64l-4 27l4 24v43l-4 24l4 39v144l-2 20l4 58v37l-2 74v83q9 19 9 31t-9 18v29q-6 20 -3 28q3 7 3 9v45l2 39q0 39 -35 26q-14 -5 -18 -24t-24 -35q-21 -16 -21 -29q-6 -12 -15 -22q-8 -10 -14 -20q-8 -15 -18 -22q-9 -8 -23 -33t-27 -30q-13 -6 -16 -8
l-6 -20q-7 -7 -12 -25t-35 -60t-39 -48q-2 -4 -4 -10t-4 -11l-20 -20q-4 -1 -8 -9t-9 -12q-9 0 -18 -18q-8 -18 -14 -25q-5 -6 -7 -9t-4 -8l-5 -10l-5 -10t-11 -11t-11 -16q-3 -9 -5 -13t-10 -12q-12 -10 -12 -21q0 -29 -43 -64q-21 -21 -29 -25q-35 -6 -51 15q-2 4 -7 15
t-19 20q-15 10 -18 16t-6 20t-13 24q-11 10 -21 28q-10 20 -18 31t-10 15t-5 11q-2 6 -4 10q-30 30 -31 36q-2 7 -3 11t-3 8t-6 9q-21 21 -24 33q-4 13 -17 26q-12 12 -24 36q-16 33 -56 58l-4 8q-5 10 -18 30q-13 19 -18 27q-5 9 -11 14t-15 23q-10 19 -24 19q-8 9 -14 33
q-11 44 -34 59q-24 15 -33 37q-9 21 -16 21q-15 0 -15 -17v-6q-15 -30 -15 -34t5 -25q5 -23 2 -75t-1 -64l11 -31q-1 -8 -9 -19q-8 -10 -8 -15l6 -28l-4 -84q8 -16 8 -34l-8 -48l4 -49l-6 -28l6 -50l-6 -36q13 -40 10 -103q-4 -4 -5 -42q-1 -39 2 -53q3 -13 0 -20
q-4 -9 3 -26q7 -16 3 -29q-4 -12 -1 -18t5 -11t0 -38t-2 -39l6 -31l-4 -45q0 -9 3 -29t1 -38q-1 -18 -21 -38q-20 -22 -27 -24t-21 -1t-23 9q-7 8 -11 10t-14 2t-14 4t-13 23l-10 23q-2 6 -1 28t1 31q-18 36 -10 113l4 24v47q0 14 8 62l-2 71l10 35q-2 2 -6 15v69l-6 25
l12 43l-6 18q-2 25 0 56l10 30l-14 64l4 49l-4 35l4 30l-4 86l8 37l-4 33q-2 16 0 49t-1 84t-3 53l4 23l-6 33l2 55l4 53l-12 35l4 24l-4 21l6 27q2 2 -4 24t7 33q13 10 30 10q20 20 33 8q14 -12 24 -27t17 -22q10 -9 15 -20q5 -12 15 -24q10 -11 14 -25t11 -21q8 -8 13 -16
t9 -15q9 -15 25 -33t25 -34q8 -16 13 -22t19 -22q23 -25 32 -52t43 -49q9 -6 8 -20q-1 -13 1 -17q5 -6 17 -14t15 -11q3 -4 4 -8t1 -8t1 -7l2 -8t4 -10t16 -16q12 -10 17 -16t14 -21q16 -26 28 -36q24 -22 40 -55q17 -33 36 -52q2 -4 9 -24t16 -21q8 -1 12 -1q8 -8 11 -19
t5 -14t7 -8q6 -5 20 -27q33 -50 63 -46q13 4 33 45q2 2 13 11t11 20q1 10 15 24t36 55q22 42 38 50t22 21t15 19q8 7 8 11q2 4 8 23t29 28q2 2 2 8v4q14 27 27 38q14 11 17 29t9 27t19 23t48 65t56 77q22 26 47 51t34 37t10 34q1 23 3 30t16 14t31 43q26 55 66 61
q39 6 43 -27v-27q0 -8 12 -32v-19l-8 -33q-2 -6 1 -16t3 -16t-10 -25q-2 -18 0 -24l6 -21q-15 -29 -6 -115l-3 -53l7 -31l-7 -47l15 -49l-12 -37l8 -30l-8 -39l10 -37l-10 -21l12 -30q0 -34 -6 -60q0 -16 6 -22v-39l-6 -96q0 -5 3 -17t2 -17q-1 -6 -1 -10v-10l6 -20l-4 -19
v-11l-8 -60l4 -41l-4 -49l8 -31l-8 -47l4 -125q12 -37 13 -39t-1 -12t-1 -16t4 -20q3 -16 3 -22t-2 -20l-18 -29q-2 -4 -6 -18t-25 -25q-22 -12 -29 -12l-28 10q-43 12 -56 35v31l-6 28l6 25l-6 31l4 27q0 3 -3 23t-1 25q2 4 3 7q1 4 3 8t2 8l-2 29v12l4 35z" />
    <glyph glyph-name="N" unicode="N" horiz-adv-x="1484" 
d="M206 -2l-42 10q-28 0 -26 66q1 27 1 37t-14 32l4 33q2 4 1 14t5 32q-10 35 -10 47t10 32v31l4 33v5l-4 11v27l-4 14l8 33l-4 63l2 55q0 17 -8 33q8 26 6 45l-10 31v25q10 9 12 27t-2 110l-10 39q0 12 10 22q2 6 2 35l-8 39l6 147q0 5 -6 17l6 59l-10 25l10 45q0 6 -4 13
t-6 14t3 29t5 26l-4 16l6 29l-6 28l6 35q0 8 -9 38t-5 46q12 51 51 53q23 2 45 -30q2 -4 4 -10t11 -13q8 -6 14 -18t26 -30t24 -24t7 -11q2 -5 5 -10t5 -10t6 -9q5 -4 7 -8t4 -6q2 -3 4 -10t5 -10t11 -9q8 -5 32 -43t28 -37q6 -7 19 -17q20 -15 30 -39t29 -40q22 -20 28 -33
q6 -12 14 -16q8 -5 12 -10t8 -16q5 -11 9 -18q4 -2 11 -7t10 -7q4 -4 6 -9t10 -10q7 -5 14 -12q6 -8 16 -26t17 -27l15 -20q22 -30 32 -38q10 -9 15 -14q2 -4 8 -17t10 -20q4 -2 14 -5q9 -3 13 -5q6 -3 14 -15q8 -11 17 -15q9 -3 13 -8t11 -21q11 -29 31 -45l15 -30t31 -43
q21 -21 23 -30t21 -24q18 -16 22 -24t11 -24q12 -28 24 -33q13 -5 16 -15q2 -11 18 -29t25 -31q6 -3 10 -12q3 -8 8 -13t21 -23q15 -18 21 -24t9 -14t6 -12t13 -14t24 -29q14 -17 26 -27t16 -10t16 10q14 16 11 60l-6 26q8 16 7 51t-1 41l-6 25l6 28q0 12 -11 19q-9 26 7 47
q0 8 -7 15q-4 49 5 68q8 19 7 29t-7 19q-5 8 -5 18t-1 14q-1 3 -8 11t-7 15q14 19 17 59q4 40 -5 82l9 39l-5 43l5 28l-9 48l4 36l-6 48l15 27q0 4 -15 34l8 31q0 12 -8 20v90l-4 19l4 16q2 4 0 25q-16 32 -2 51q2 2 4 7q8 21 60 34q33 17 59 6t28 -36q1 -25 4 -31t0 -25
q-3 -21 -2 -27t5 -16t4 -14t-1 -9q-1 -4 -3 -7q-6 -10 -6 -32v-47q0 -49 3 -55t3 -14l-10 -49l4 -21q-2 -4 -2 -8l-4 -20v-7l6 -37l-4 -22v-72l-2 -49q0 -13 4 -31t1 -34t0 -33q3 -18 3 -103l-6 -37v-9l4 -27l-4 -45l14 -64l-10 -25q0 -4 1 -15t-2 -29t-3 -25l4 -25l-10 -35
l10 -38l-4 -17v-51l-4 -16q0 -11 4 -11v-21q4 -18 4 -77l6 -12v-27q6 -23 2 -33t-4 -16l6 -23q2 -4 -1 -11t-3 -17t8 -35q0 -19 -12 -37q-25 -39 -72 -4q-2 4 -15 10t-17 16q-5 9 -13 17t-17 28q-9 21 -28 38q-20 18 -27 26q-21 42 -33 54t-14 15q-4 6 -4 11t-16 23t-33 30
t-34 45t-43 66t-34 37t-13 13t-9 13q-17 0 -23 22q-8 28 -23 36q-15 9 -20 22q-15 33 -37 54q-22 22 -30 26q-12 24 -19 31q-18 9 -36 45q-6 6 -18 15t-19 17q-5 8 -21 32t-30 42q-17 22 -35 30q-17 9 -22 34q-5 26 -6 26t-8 2t-15 12t-20 29q-11 20 -19 31q-4 4 -17 7
t-20 31q-12 48 -62 78q-4 3 -8 14t-18 24l-17 12q-2 5 -4 19t-6 18t-15 10t-16 10q-14 23 -14 35q0 11 -16 18t-18 10q-3 3 -7 13t-10 12q-14 2 -17 -14v-57q0 -23 -6 -53q0 -19 6 -31l-4 -39q0 -17 8 -41l-4 -25v-116l15 -43q3 -66 -2 -84q-4 -19 -3 -34t-6 -34v-51
q-6 -31 0 -49q7 -18 9 -24t0 -15q-2 -8 -2 -12l4 -33l-4 -25q9 -26 3 -47q-5 -20 -4 -47t1 -33t-5 -16l7 -25q2 -4 2 -32t-4 -64q6 -24 1 -40t1 -37q7 -21 4 -47q-2 -26 -3 -41q0 -14 -12 -32t-20 -21t-20 0t-26 3z" />
    <glyph glyph-name="O" unicode="O" horiz-adv-x="1732" 
d="M1624 899v-133l-2 -88l2 -47l-10 -25v-45l-15 -24l-2 -13l-22 -55l-8 -43l-29 -39l-41 -70l-18 -45l-21 -20l-8 -19l-25 -20l-45 -47l-26 -14l-27 -29l-37 -19l-30 -32l-33 -11l-33 -30l-25 -2l-53 -23l-20 -4l-25 -12l-51 -2l-35 -15l-45 4l-37 -14l-84 10l-39 -6
l-47 10l-43 5l-94 32l-33 4l-31 21l-61 35l-29 30l-49 29l-28 8l-21 39l-14 10l-21 21l-28 18l-9 21l-26 29l-10 24l-25 33l-6 26v25l-25 23l-12 39l-8 14l-13 43l-18 37l-2 18l-8 33l-2 29l-6 28l6 21l-15 30v52l4 37l-4 18l4 61l3 35l8 21l2 20l14 39v35l25 53l2 31l35 47
l18 49l10 8l49 84l27 29l25 41l30 16l13 17l22 16l12 21l21 8l18 18l17 4l43 31l22 10l15 13l22 2l31 20h16l39 12l33 13l14 2l19 10h22l31 4l27 -6l43 2l28 4h66l22 6l25 -4l16 -2l64 -25l55 -4l39 -22l33 -12l90 -54l14 -6l23 -20l63 -35l31 -49l27 -19l24 -43l39 -37
l14 -26l21 -25l20 -47l23 -31l22 -57l6 -74l15 -28v-43zM1454 523q0 33 16 58q16 24 11 43q-4 19 0 39t4 37t2 25l4 27q0 4 -10 24v49l-6 37l6 29q13 51 -20 88q-10 12 -12 26t-5 19l-10 25q0 2 1 13t-19 41q-21 30 -25 38t-3 19q1 16 -8 23q-10 7 -17 20t-10 17t-13 5
q-14 3 -18 18q-5 15 -32 25q-4 4 -8 16t-15 21q-12 8 -26 23q-14 16 -23 22t-32 14q-29 10 -35 16t-30 15q-23 8 -31 14q-7 6 -11 8l-69 27q-4 2 -14 0t-13 -2l-25 10l-57 -2q-6 6 -16 6h-21q-21 21 -50 0t-46 -6q-18 14 -37 -4q-4 -2 -14 -3q-16 -2 -32 -13t-26 -12t-17 -4
t-30 -16q-23 -12 -31 -16t-11 -4h-6q-9 0 -24 -15l-20 -20q-15 -14 -28 -17q-16 -3 -26 -14q-11 -11 -17 -16q-6 -4 -11 -8q-18 -37 -32 -45q-13 -8 -16 -12t-5 -10t-7 -16t-20 -27q-14 -17 -14 -21q-25 -14 -25 -41q0 -6 -11 -18q-17 -19 -16 -34q2 -15 -9 -46
q-25 -54 -27 -62t-3 -29t-13 -44q0 -8 5 -24t-2 -32t-7 -24l4 -25l-4 -18q0 -4 1 -8l2 -8t2 -9q1 -4 0 -13t4 -18q5 -8 5 -12l2 -45l8 -22q2 -5 1 -17t1 -18l7 -21q7 -20 7 -29t11 -34t13 -40q1 -15 3 -20t13 -11q10 -5 13 -9t4 -10q1 -4 7 -12t11 -18q5 -11 12 -16
q10 -6 15 -26t28 -36q22 -16 24 -25t-2 -31q2 0 9 3t15 1t26 -18q17 -16 40 -32t31 -22q13 -10 22 -10h11q8 -4 22 -13t35 -17q22 -9 51 -24t55 -16q25 -2 31 -3t12 -3q60 -20 113 -2l33 -6q23 11 46 13q23 1 48 14h25q27 13 42 23t50 26q51 24 67 38q17 15 31 23
q13 7 19 11t10 10t6 8q13 0 34 30t25 34q5 6 13 9q11 4 19 23q9 19 14 25t7 22t10 21q9 6 13 10q12 24 12 31q29 29 29 62z" />
    <glyph glyph-name="P" unicode="P" horiz-adv-x="1112" 
d="M129 208q0 24 2 32t5 30t-1 50t-4 36l6 41v64l-4 20l4 21v49l4 12l-4 25v45l4 14q-6 19 -4 37l4 25l-4 16q-2 4 -1 19t1 20l-4 33l4 16v53l4 19l-10 33l6 49l-6 28q0 9 6 15q4 25 -3 49t-7 33l12 47l-4 35v26l-14 39q0 11 7 39t3 62t-4 42l8 31l-8 23v32q0 72 29 95
q12 10 25 10t23 -2t23 -1q12 1 19 1l14 -6l23 4l26 -4q20 10 26 10l25 -6l33 4l31 -8h65l23 -4l74 10q34 -6 49 -17h13q16 0 47 -11q32 -11 40 -10t14 1q7 0 21 -8t22 -20t14 -13q5 -2 9 -3t9 -2q16 -3 26 -18q4 -2 14 -6t14 -8t12 -17q7 -13 11 -20q4 -4 13 -10t14 -10
q6 -7 16 -27t22 -35t16 -23q3 -8 6 -28t7 -29l15 -22v-14q0 -10 2 -17l8 -43q3 -43 -2 -53t2 -21q2 -10 -2 -37t-14 -39t-13 -29q-3 -18 -11 -36q-9 -18 -17 -36t-23 -36q-16 -17 -25 -33q-8 -17 -13 -24t-23 -16q-17 -10 -25 -23t-30 -23q-21 -10 -25 -16q-6 0 -15 -6
q-28 -6 -34 -13t-18 -7h-17q-7 -1 -15 -9q-13 -12 -21 -12h-9l-21 -6q-43 -13 -86 -4l-33 -10l-26 8q-1 0 -15 -4h-47l-14 -4l-33 4h-30l-21 -4q-4 0 -22 2t-21 -2q-20 0 -31 -15q-2 -8 -2 -26q0 -22 6 -33t7 -20q-11 -22 -11 -31l4 -58l-4 -22l4 -31l-4 -26l4 -31
q0 -6 -1 -29t3 -34t5 -27l-9 -37q-2 -6 0 -20t2 -20l-4 -38q0 -9 11 -24l-9 -29l13 -45q1 -14 -7 -30t-8 -19l-4 -7q-4 -4 -30 -16l-21 -8q-8 -2 -18 1q-11 3 -15 3h-9q-13 0 -21 4q-6 6 -14 26t-13 27q-4 6 -4 11l8 26q2 4 -3 14t-3 13l12 39q-6 24 -6 48zM389 1432
q-30 10 -55 10t-29 -2l-24 -10q-8 -8 -9 -25q-2 -18 -4 -23l-4 -24l6 -21l-6 -24q0 -6 6 -15v-47l-6 -18l10 -31l-4 -37v-22l4 -17l-4 -16v-201q-6 -12 -6 -26l6 -45q0 -2 -4 -16t2 -13q12 -16 19 -18l49 10l20 6q6 0 20 -5t23 -3l43 6q26 -13 36 -12q18 3 35 11q33 14 65 5
l28 10q4 2 16 1t18 1q5 2 13 9q14 12 22 11t18 5q11 6 27 11t23 15q6 10 11 15q6 2 19 8t22 10q2 4 8 11t6 10q39 42 41 51q2 10 3 16t3 8l25 50q0 4 -2 13t-1 12t3 8q2 4 3 8t3 8t2 8l-8 16q-2 8 -3 22q-1 16 -14 42q0 6 1 20t-1 22t-26 48q-24 41 -33 51q-9 11 -23 17
q-20 10 -26 21q-6 12 -27 19t-25 9t-7 5t-5 6t-5 5t-7 4t-11 -1t-12 -3l-14 4q-26 0 -43 9q-16 10 -24 12t-19 -1q-12 -3 -17 -3t-20 4t-30 6q-14 2 -20 0l-12 -4q-5 -2 -9 -2l-25 2z" />
    <glyph glyph-name="Q" unicode="Q" horiz-adv-x="1722" 
d="M1081 1571q11 0 17 -2t18 -10q20 -13 38 -12q19 2 27 -11q7 -12 11 -16q8 -4 18 -10t29 -15q19 -8 26 -18q7 -9 21 -13t36 -29t46 -38q55 -55 57 -64q5 -4 15 -10q18 -10 22 -25q5 -15 15 -28q10 -14 13 -20t10 -15t10 -13t3 -10q-1 -6 7 -15q11 -14 19 -39q7 -25 14 -33
q7 -9 9 -14t0 -17q-1 -15 7 -27q9 -12 17 -43q7 -31 9 -35q1 -4 5 -10t4 -16v-13l4 -35l-2 -18l12 -23q3 -9 -1 -22q-3 -14 -3 -20t6 -23q6 -16 -2 -33v-30q0 -32 -6 -48q-8 -21 -8 -33v-14q-11 -22 -11 -24l4 -21l-8 -26q-2 -2 -2 -8v-9q-8 -8 -8 -16l-2 -49q1 -3 -17 -29
q-18 -27 -23 -35t-7 -21t-4 -17t-7 -11q-5 -5 -18 -35q-18 -40 -41 -63q-23 -22 -30 -35q-7 -14 -12 -18t-16 -11q-11 -6 -16 -12q-4 -11 -1 -23t9 -15t13 -3q6 0 8 -2l19 -8h15q22 0 32 -10t22 -9q11 0 21 -13t-16 -48t-38 -41q-43 -23 -48 -25t-15 1t-14 4q-5 1 -15 7
t-31 17q-21 10 -34 24q-12 13 -27 21q-8 0 -20 -6l-23 2l-31 -10q-6 -2 -21 -5t-21 -9q-6 -5 -8 -7q-3 -2 -7 -3t-7 -2t-8 -2t-12 -5l-18 -12q-12 -9 -18 -13t-22 -2t-31 -5t-23 -9t-31 0t-30 0t-11 -4t-6 -2h-27l-16 -4l-51 4l-39 -10l-35 16q-10 0 -40 -2q-35 -2 -48 6
q-14 8 -20 10t-22 6q-29 7 -38 17q-46 11 -57 19q-12 7 -17 10q-19 3 -28 14q-9 12 -19 12q-9 0 -27 16q-17 16 -24 21q-19 -1 -30 17q-14 23 -34 31t-21 17t-4 12t-14 8q-10 5 -12 8l-4 6t-4 5q-2 1 -4 5t-11 9t-14 14q-4 9 -7 15l-5 10t-14 14q-12 9 -23 36q-15 34 -25 44
t-14 33q-5 24 -23 42q-18 17 -19 34t-2 22t-7 19t-7 20t1 22q3 19 -8 39q-10 21 -10 30l4 43l-10 18q-16 36 -5 81q10 45 2 77l7 25q0 2 -6 30t10 43q2 4 3 16q0 12 4 16q12 19 13 43v16q0 11 12 26t10 32q-1 17 5 25q10 14 10 20v7q16 43 26 50q11 7 11 12q4 4 11 24t16 24
q14 6 21 28q8 21 26 31t31 31q13 20 24 27q12 7 18 19t10 15t11 6q11 4 25 25t48 30q35 10 45 20q11 9 23 13q21 6 46 26q25 19 51 19t55 14q30 14 38 11q9 -3 11 -3l22 4q33 0 48 5q23 8 32 5q10 -2 19 -2l37 2q23 -6 33 -3q11 3 18 3l31 -10l45 4l61 -16q4 -2 14 -2z
M1468 939q-12 23 -15 42t-3 31q0 13 -27 51v20q-3 30 -43 78q0 17 -12 25t-15 12t-6 7t-5 15t-6 15q-3 4 -10 9t-16 19t-21 18q-12 5 -21 19q-8 13 -12 16t-8 5q-5 2 -8 5q-4 4 -22 20t-24 24t-10 12q-6 2 -20 4t-18 4q-5 2 -13 10q-9 7 -15 9t-24 3t-26 3t-16 9
q-18 14 -33 15t-22 6q-8 5 -11 6t-16 0q-12 -1 -16 0t-9 3t-21 2h-32q-14 0 -26 7t-20 5l-31 -16q-10 -2 -25 4t-24 6q-32 -16 -49 -16q-8 -4 -17 -10l-26 -2q-18 -9 -22 -9h-10q-10 0 -24 -10t-20 -13t-13 -7t-22 -9t-42 -26t-31 -28t-9 -9l-8 -4t-9 -4q-5 -1 -8 -5
q-3 -3 -8 -11q-4 -7 -8 -8l-8 -2t-8 -1t-9 -5t-5 -13q-14 -24 -27 -32q-12 -9 -16 -15q-11 -34 -20 -42q-13 -11 -20 -23q-7 -13 -14 -19q-8 -7 -11 -22q-3 -16 -10 -28q-9 -15 -9 -49q-3 -4 -11 -11q-12 -10 -12 -20v-8l-8 -32q-2 -7 -1 -17t0 -15t-5 -14t-6 -17t-1 -49
q1 -40 1 -52l-7 -29q0 -22 11 -61l-4 -23l10 -28q2 -4 1 -14t1 -13l14 -68v-10q2 -6 8 -16q6 -9 21 -51t14 -46q5 -6 13 -14q12 -11 36 -59q25 -47 50 -64q24 -18 51 -37t35 -32q12 -19 24 -19h8q6 -3 14 -11t12 -10q5 -3 18 -5q25 -4 42 -21q18 0 36 -13q27 -20 45 -20h20
l24 -14h43l25 -8q2 -2 13 -2h15l18 -4q19 4 73 4l20 8l35 -2l29 14l18 -4h7q6 0 13 14t28 13q33 -3 44 8l19 8q12 10 6 39q-5 10 -21 19q-16 10 -19 14t-13 28q-23 61 12 86q6 4 28 7l21 2q4 -1 13 -9q8 -8 24 -19t20 -17q10 -15 25 -34q15 -20 41 -20q6 2 26 16t23 19
q2 4 2 10v11l18 26q4 6 18 21t24 37t24 40t16 35q3 17 5 22t7 14t6 13t1 11q0 6 2 10l8 27q0 6 2 9t5 8t5 11l4 12t1 20q-1 15 -1 22l11 26l-8 43q0 7 7 24t7 38l-6 22v21l-11 18l5 31q5 27 -7 50z" />
    <glyph glyph-name="R" unicode="R" horiz-adv-x="1118" 
d="M262 543q-2 -19 0 -31t2 -72l6 -20q0 -6 -3 -12t-4 -47q-1 -42 1 -58l6 -14v-27q8 -29 4 -39l-10 -24l17 -37l-7 -29q0 -7 7 -16q10 -87 -40 -113q-29 -15 -39 -9q-12 5 -16 5t-19 2t-20 16q-4 13 -4 27t-2 18q0 5 -8 9q-22 12 4 86q0 6 -8 13t-8 14t11 34t1 80l10 53
l-10 31q-2 30 4 55l-10 57l6 37l-6 48q-2 6 1 13t3 11l2 29l8 41q3 6 -5 16t-5 31l12 24q-20 34 -20 48l8 26q6 39 6 70l-4 31q-2 4 -1 17t-1 17l-6 21l8 29q2 6 0 19t-2 19l6 19l-4 16q-2 4 0 29l8 35q-10 18 -10 37l10 24q6 27 0 41l-10 25l10 55l-12 31l2 22q2 4 -1 12
t-3 11l6 35l-6 69q6 36 31 42q4 1 18 10t25 11q10 2 27 0q18 -3 30 -1t57 2l25 6l20 -6h35l21 -4q6 -2 20 -1t21 1l16 -7l21 5h17q13 0 15 2l29 10l35 -17q6 0 19 2t19 -2q6 -2 12 -5q7 -3 11 -5l20 -2q11 0 19 -4l19 -8q49 -16 57 -22t30 -13q21 -6 35 -25q14 -18 20 -20
q5 -2 8 -3t7 -2t13 -7q2 -4 5 -12q4 -8 32 -36t33 -47t16 -24q11 -6 13 -21q2 -23 14 -33t9 -38q-2 -27 -1 -33q0 -6 8 -12q19 -15 8 -70q-6 -12 -8 -15t-2 -7l4 -41l-13 -41q0 -4 3 -16t-6 -25t-14 -17t-6 -29t-23 -40q-21 -15 -26 -21t-15 -26t-17 -29q-6 -4 -21 -8
t-29 -21q-20 -24 -33 -24h-9q-6 -4 -23 -18t-32 -12q-15 1 -32 -12q-16 -13 -32 -10t-32 -7t-32 -8q-16 3 -35 -1t-38 -4l-19 4l-39 -10q0 -2 -8 -16t-6 -21q1 -5 25 -29l26 -26q2 -2 11 -4q8 -2 12 -6t8 -14q4 -11 6 -15q29 -19 35 -25t13 -22t18 -22q57 -27 70 -66
q7 -21 16 -26t21 -17t31 -24q19 -13 28 -26q10 -14 14 -18t11 -9t10 -9q4 -5 10 -13t8 -12q4 -4 17 -13t17 -21q6 -15 18 -21q12 -7 15 -15q5 -8 7 -12t9 -15t24 -17q24 -7 31 -22q8 -15 30 -24q8 -8 11 -25t-1 -28q-4 -6 -16 -11q-12 -6 -26 -18t-23 -12h-11
q-70 -11 -103 36q-8 11 -21 19q-18 11 -24 27q-5 16 -27 31t-27 31t-15 20q-26 11 -35 36t-14 29q-4 3 -11 5q-10 2 -18 13t-13 17l-15 18t-17 17q-2 4 -4 12q-2 7 -4 11t-5 6l-6 4t-5 4t-4 9t-4 10t-11 5q-8 2 -12 5q-4 6 -7 16t-12 21t-65 63l-23 33q-26 26 -26 37
q-10 20 -32 29q-22 8 -26 16q-2 8 -4 20q-4 18 -29 26q-10 3 -26 23q-16 19 -27 8q-29 -14 -14 -86q2 -10 0 -30zM265 951q-9 -25 -9 -33t4 -11q4 -31 4 -57t2 -29q41 -47 63 -36q10 6 66 8l51 -15l21 8q20 10 33 13l22 -6l27 6q22 0 55 6q44 22 61 22l15 4q6 5 13 13t11 11
t13 2q8 -1 12 2t11 11q11 12 22 15q12 3 19 14t16 18q20 14 20 25q25 25 25 36q0 16 12 25t15 19t3 43q7 7 7 22l-7 33l7 21q0 19 -7 28v33q0 6 -7 14t-21 37l-2 15q-2 4 -11 15t-13 20q-3 10 -5 14q-7 7 -29 16q-2 2 -12 17q-4 2 -14 2t-18 14q-9 14 -25 17q-24 4 -33 15
q-9 10 -28 12q-19 1 -22 2t-9 5q-7 4 -13 6t-22 0t-27 0l-25 11l-47 -7q-39 13 -47 13t-26 -2l-23 -11q-10 0 -46 6t-52 -10q-17 0 -29 -12q-3 -8 3 -16q5 -8 5 -13q-8 -36 -4 -59l10 -26q-2 -5 -4 -11l-4 -12t-4 -11t-4 -11l-4 -12q-2 -5 2 -18t4 -20l-10 -33l8 -69
q0 -6 -2 -20t5 -59t-2 -70z" />
    <glyph glyph-name="S" unicode="S" horiz-adv-x="1044" 
d="M584 1575q10 0 12 -2l20 -8q8 -2 29 -3t36 -11q15 -9 30 -10q23 -2 34 -12t29 -15t24 -8t10 -9q7 -9 23 -18t27 -21q11 -13 23 -21t20 -16l19 -37q14 -29 5 -39t-17 -16l-12 -9q-3 -3 -7 -10t-6 -10q-33 -27 -62 -8q-6 2 -13 10t-13 13l-9 6q-19 11 -27 27t-14 16h-10
q-7 0 -17 10t-22 15q-21 7 -29 17t-24 14q-16 2 -30 14q-14 11 -27 12h-25l-49 4l-27 -8l-30 8q-6 0 -20 -10t-31 -11q-22 -2 -32 -13q-11 -11 -24 -16q-12 -5 -16 -9l-33 -39q-4 -4 -20 -16q-15 -12 -19 -17q-4 -4 -4 -13v-12q0 -6 -8 -22l2 -15q0 -11 -5 -19t-6 -12
q-1 -5 -2 -8q-1 -2 1 -10t2 -10l-4 -33q6 -29 5 -39t1 -16t9 -18q10 -18 12 -35t13 -18q18 -2 16 -19q-2 -18 32 -41q4 -4 11 -17t15 -20q12 -6 27 -6q14 -14 20 -23q38 -31 72 -39q15 -15 26 -17q14 -2 39 -22t43 -20q17 0 21 -4q4 -5 11 -15t20 -10q14 0 38 -19
q23 -19 41 -27q19 -9 25 -14q7 -5 15 -20q8 -16 12 -22q11 -8 47 -31t44 -46q7 -23 11 -28t14 -7t15 -8q4 -5 5 -19q2 -22 9 -28q8 -6 14 -23q7 -17 6 -31t1 -23l12 -30q2 0 2 -48t-2 -51l-8 -20q0 -5 3 -17q6 -27 -24 -75q0 -3 1 -15q1 -15 -10 -24q-12 -8 -14 -17
q-3 -8 -7 -15t-8 -9q-3 -2 -13 -14q-12 -14 -13 -25q-2 -11 -12 -15q-17 -7 -29 -18q-13 -11 -27 -17q-15 -6 -40 -26q-25 -21 -44 -19q-20 1 -29 -4q-9 -6 -13 -6l-24 -8q-9 0 -26 -10t-50 4q-1 0 -21 -8l-49 6l-49 -8q-12 0 -36 12t-53 10q-28 -3 -38 10q-9 13 -26 17
q-23 5 -30 16q-7 10 -22 13q-14 3 -32 19q-27 24 -42 24t-20 11q-4 11 -11 18t-10 11l-7 7q-14 19 13 53q10 14 13 25t8 20q21 16 57 10t43 -11t19 -34q4 -6 14 -10q15 -6 25 -16t15 -12q6 -1 14 -4t15 -5t27 -17t64 -26h24q10 0 13 -2l33 -8q4 -2 10 0t10 3t9 3t10 2h41
l18 10q4 2 13 1t13 0t11 5q6 4 10 6t13 2q10 1 16 4t11 10t15 14q10 6 18 14t25 21q18 13 23 40q8 36 19 61q12 24 8 43t-4 25v62q0 4 -5 10q-4 6 -6 10q-3 37 -14 50q-12 13 -25 37t-19 30q-5 6 -20 14t-27 25q-12 18 -21 20q-11 3 -23 13q-12 11 -34 19q-21 8 -36 20
t-32 17q-17 4 -27 7q-10 4 -18 17t-17 17q-7 4 -23 9q-16 6 -28 12t-17 9q-4 3 -13 8t-23 10q-15 4 -20 7t-12 12t-11 13t-19 11q-14 6 -20 12q-3 4 -5 8q-5 8 -12 23q-4 2 -15 2t-18 2q-4 4 -9 14t-9 14t-12 7q-7 4 -11 8t-7 8t-5 10q-4 10 -12 19q-8 8 -11 15t-12 15
q-16 14 -21 49q-5 34 -14 46q-10 12 -12 16t-4 49q-6 12 -6 17l6 35q-6 41 -6 50q0 10 8 34t10 35q3 17 11 29t11 29t6 22t8 9t14 23q8 19 12 21t13 10q16 13 19 21q4 7 22 23q19 17 38 26t30 18q11 10 15 12t10 2q7 0 25 12t46 10t48 8q19 9 26 11t19 -2t19 -4q20 10 49 6
t39 -4z" />
    <glyph glyph-name="T" unicode="T" horiz-adv-x="1089" 
d="M616 727l5 -55q1 -35 -3 -45q-4 -11 -3 -15t6 -34l-11 -29q0 -1 3 -21t1 -31t-1 -17t4 -13q3 -8 4 -12l-7 -38l15 -36l-8 -32l4 -34l-4 -32q10 -20 10 -31l-10 -37l4 -29q-6 -31 0 -52t6 -25q6 -55 -21 -91q-2 -2 -12 -8t-31 -26l-30 10q-19 6 -29 6t-13 2t-5 15t-11 28
q-8 15 -6 35t0 41t-2 29q6 6 6 16l-2 45l10 29q8 22 -2 46t-10 27l8 28l-8 36l8 39q2 23 -4 45l2 26l-2 25l4 28l-4 29l10 29l-10 49q-2 18 0 51q2 34 2 48t-6 32l4 66l-6 35l6 28l-4 21q6 6 2 23t-4 40l6 31v33l8 24l-12 54l4 16q0 56 5 69t5 17l-10 37v11q0 12 4 22l-4 14
l6 22l-6 25l-2 16v8q0 10 -6 13q-13 19 -34 22q-21 2 -43 1t-41 -1h-21q-12 -6 -25 -6l-33 6l-22 -4l-33 9l-20 -5q-72 -6 -103 29q-2 2 -5 10t-5 12t-4 5q-2 2 -2 6q0 3 11 23t30 33t76 16l11 2h5l29 -7q8 -2 22 0t19 2l45 -2h32q18 3 25 5q26 -7 74 -6q47 1 67 -1l39 -6
l23 6q6 2 13 -1t19 -3t29 6q57 0 72 -2l32 -4l41 13q7 0 32 -6t35 3q11 9 14 11t34 -4l33 2q6 0 21 -15q39 -26 42 -32t3 -11l-2 -18q0 -22 -13 -35q-33 -49 -63 -41l-45 19l-25 -7q-5 -2 -16 3l-29 2h-14q-6 0 -29 -2q-22 -2 -38 2t-61 4t-49 -5t-6 -13t1 -21q3 -12 4 -17
l-7 -51v-21q0 -16 4 -44l-8 -29l11 -29l-5 -35l5 -36q0 -15 -3 -27l7 -29l-4 -14v-66l-5 -22l5 -23v-100l8 -25l-2 -38l4 -21z" />
    <glyph glyph-name="U" unicode="U" horiz-adv-x="1382" 
d="M1255 598q0 -42 7 -70q-4 -12 -13 -30l-4 -25v-24l-14 -33q-4 -8 -6 -35t-9 -34q-8 -7 -13 -17t-5 -16t-2 -11l-12 -18l-6 -21t-6 -19t-8 -8q-6 -4 -15 -24q-8 -18 -41 -35q-2 -2 -3 -9q-2 -12 -19 -21q-17 -8 -20 -15q-3 -6 -5 -9q-16 -24 -26 -26q-13 -3 -26 -18
q-14 -15 -28 -17q-15 -3 -34 -15l-25 -17q-12 -8 -22 -8t-24 -11q-21 -18 -39 -16q-18 3 -42 -7q-25 -9 -37 -12l-21 5q-74 3 -88 -11q-41 -16 -77 14q-9 9 -15 9l-27 -8q-6 2 -17 13t-31 11t-52 18q-33 18 -42 22q-9 3 -15 18q-7 14 -13 19t-22 9t-24 11t-16 29
q-9 22 -19 28q-30 21 -37 38t-18 25q-15 11 -19 25q-3 13 -13 24t-13 18t-6 24q-3 16 -5 22t-8 17q-9 17 -6 41t-14 41t-17 30l4 39v65l-6 21l6 37l-10 26q1 3 5 19q5 16 -2 47q-6 30 -3 45q4 16 4 26t6 35l-2 25l2 25q-10 20 -10 28l12 31l-6 23l4 22q-10 20 -10 25l10 30
l-6 29l2 25l-6 45q-2 39 0 53l4 33q-10 49 -4 106l10 29q0 8 -6 21t-4 32l10 23l-14 39q-6 27 7 53l15 30q8 15 31 15q13 13 38 11q26 -1 32 -5t7 -11q2 -11 14 -18q13 -6 17 -14q2 -8 -4 -24t-6 -19l8 -35l-8 -33q-2 -20 0 -37l6 -18l-6 -29v-77l6 -39q-6 -5 -7 -19t3 -164
l-6 -34l4 -15v-20l-4 -47l8 -43l-4 -21v-135q6 -29 6 -31q-10 -20 -10 -26t10 -25l-10 -57l10 -54v-30l4 -15q0 -8 -1 -29t7 -31q9 -9 9 -13l2 -21q10 -21 13 -34q2 -13 14 -28q15 -19 20 -34q5 -16 22 -30q26 -20 34 -31t20 -12q15 -1 23 -17q8 -17 20 -21t16 -6t14 -11
q9 -9 15 -11t12 -2t9 -1t9 -7q10 -10 34 -17q24 -6 29 -10t19 -3t18 1l19 -8q25 -2 29 -2l16 4q2 0 26 -1t38 4q14 4 56 22q40 18 45 18h9q14 4 24 13q11 10 22 15q11 4 17 14q7 9 10 11t7 4t8 5t7 5q4 5 8 13q6 12 22 21q17 10 24 28q9 22 25 37q16 14 20 21q3 7 4 21t3 21
q2 6 11 15q8 10 12 18t1 22t-3 21l8 20q4 12 5 34t-5 28v67l6 19v30q0 4 -4 16t4 26t10 20l-10 46l10 42q-1 17 -10 51l6 39l-6 41l6 59q-6 5 -6 15v22l-4 25l14 38q0 21 -3 29t2 27q5 18 -2 47t-7 44q0 14 2 18t5 8l6 8t2 7t-5 9t-4 10t2 13q2 10 0 14q-12 12 -14 22t8 34
q0 10 -6 16v29l6 36q-10 20 -6 31l8 25q2 2 3 14t5 16t27 15l37 14q4 2 32 -4t35 -12q3 -7 5 -13q1 -6 3 -16t10 -18q7 -8 7 -15l-6 -26l-2 -20q0 -5 -11 -25l2 -19q-2 -37 -2 -45l5 -20l-11 -30q0 -13 6 -22v-28l-6 -17l2 -24l-2 -35l6 -22l-6 -27q0 -11 11 -29
q-5 -30 -5 -57l-4 -14l6 -29q2 -4 0 -9t-2 -8l5 -18q-11 -33 -11 -39l6 -31q-19 -38 -6 -63q13 -26 13 -98l-7 -29l5 -33q0 -2 -11 -24v-52z" />
    <glyph glyph-name="V" unicode="V" horiz-adv-x="1425" 
d="M557 309q-39 39 -39 73t-3 40q-5 10 -14 19t-15 31q-5 22 -7 26l-4 8t-5 7t-4 6t-4 9t-6 13t-9 14q-7 6 -7 12q-4 6 -6 24t-15 43t-12 39q3 30 -16 48q0 22 -9 28q-9 7 -15 11t-12 24q-5 21 -7 25l-12 29q-3 5 -5 16q-2 10 -11 21q-9 12 -11 17t-1 17q1 13 -1 19t-11 18
t-12 20t-4 24q-1 23 -14 43q-13 21 -25 52t-11 39q1 10 -7 24q-9 14 -13 36t-16 35q-15 15 -18 30t-14 29q-10 13 -10 34t-13 39t-15 37q-1 19 -4 27q-4 9 -20 23t-18 21t-2 25t-2 40q-2 32 26 44q11 5 31 17h35q52 0 67 -28t18 -53t10 -37q7 -11 7 -17l-2 -18q2 -6 18 -28
t18 -34q1 -12 2 -28t10 -27q8 -11 12 -19q8 -17 8 -29v-16l14 -37q2 -4 5 -19t11 -20q12 -7 16 -35t7 -32l12 -23q3 -8 9 -26q6 -19 9 -25t8 -15t9 -27t12 -32q9 -13 9 -30q0 -19 19 -38t15 -38t11 -31q16 -13 16 -38v-27q2 -4 5 -8t7 -10l6 -9q2 -4 2 -12q-2 -17 16 -35
t19 -40q1 -24 9 -34l11 -11q3 -3 2 -15t-1 -15l10 -20q2 -4 3 -15q1 -10 3 -16t9 -14t10 -20q2 -12 10 -22q8 -12 7 -24q0 -12 2 -17t9 -15t7 -15v-8q0 -9 10 -20q14 -15 16 -28t14 -10q18 4 22 20q3 15 11 28q9 12 11 18q2 7 10 21t10 20q0 6 -1 18t6 21q7 10 8 21t11 24
q9 14 12 22t2 25t3 23t11 9q13 6 7 21q-6 16 6 27q13 12 13 20v11q10 39 24 53q4 11 10 29t7 23q2 5 5 8t4 7t1 7q0 8 8 17q8 10 7 25t11 28q13 13 15 19t1 18q-2 17 20 46q2 6 1 22t6 30l9 18t8 20t8 19q2 4 7 9t8 9l10 25v12q0 8 10 26t10 21q13 13 17 21q6 34 6 63
q2 5 9 19q12 22 14 34q2 11 12 21q26 92 33 100q10 11 10 25v12l22 41q2 5 2 19t2 23q3 9 21 25q25 22 52 23q28 0 36 4t18 0t14 -4t21 -16q17 -15 21 -21t0 -26q-13 -25 -15 -45t-22 -39q-20 -20 -25 -40q-6 -20 -5 -26q1 -7 -9 -23t-13 -27q-6 -18 -19 -28q-13 -11 -9 -23
q4 -13 2 -23t-13 -28q-10 -20 -14 -26t-5 -15t-3 -13t-11 -18t-9 -32t-12 -37q-12 -20 -13 -24q-2 -4 -2 -10t-5 -19t-13 -26q-9 -13 -8 -23q1 -12 -20 -54l-20 -40l-2 -15q0 -6 -10 -16q-13 -51 -19 -60q-6 -8 -8 -24t-28 -47v-11q0 -13 -8 -23q-8 -11 -15 -25l-2 -35
q0 -15 -11 -26q-14 -14 -16 -28t-13 -30q-11 -15 -13 -23t-1 -19q2 -18 -12 -35t-14 -24q0 -14 -10 -24q-2 -6 -3 -14t-4 -14t-11 -21q-7 -17 -11 -23t-3 -17q2 -20 -12 -32t-12 -27q1 -16 -2 -22t-12 -14q-16 -15 -15 -31q2 -17 -7 -31q-8 -14 -10 -17q-3 -3 -11 -23
t-7 -27q1 -6 -7 -31t-8 -31q0 -14 -10 -24q-18 -43 -41 -48q-41 7 -49 12q-23 15 -23 58q-2 7 -9 23q-11 24 -11 36v15l-11 29q-4 8 -16 22t-16 45v27q-2 6 -14 21q-12 16 -11 44z" />
    <glyph glyph-name="W" unicode="W" horiz-adv-x="2166" 
d="M614 397l2 -13q0 -5 6 -5t13 5q8 5 13 7t8 4t8 5q7 5 5 20q-1 16 1 20q31 67 35 89t10 32t5 21q-1 12 2 17t11 17t10 16t2 11q1 6 3 9q2 2 7 14t6 18t0 19t2 21t12 22q13 22 13 31v7l11 23v6q8 15 10 21t4 11t1 21t9 27v7q0 5 2 9q0 5 6 13q7 8 9 14t0 21t0 23t12 19
q14 17 14 30v11q5 32 15 45t12 21t8 15t6 24t11 35v16q4 10 18 35q22 41 22 75v21q2 6 13 19t9 25q-1 11 0 17t8 14q7 9 9 13q0 4 -1 14t11 41q13 32 13 46q0 23 16 43t41 20q15 4 27 -8q24 -23 29 -53q5 -31 13 -46q7 -14 8 -20t0 -20t1 -22t13 -16q12 -8 14 -16t-1 -23
q-4 -22 5 -38q10 -16 15 -34t20 -38q2 -8 5 -24t7 -25l12 -25q2 -2 2 -7v-11q2 -4 7 -11q4 -6 8 -14t7 -26q5 -28 18 -56t12 -44q-1 -15 8 -29q13 -18 17 -43q3 -24 16 -42q13 -17 11 -36t10 -32q11 -13 15 -19l6 -27q0 -2 5 -11t8 -23q2 -13 4 -17t9 -12q12 -13 10 -31
t11 -40q13 -21 14 -41t10 -35q13 -22 13 -28v-8q6 -23 17 -47l12 -24q2 -3 1 -15q-1 -16 5 -25t9 -20q9 -27 28 -22q19 4 29 60q2 11 4 17t3 10l2 10q1 6 16 18t7 26v6q-4 13 6 29q11 16 11 20l2 37q0 4 6 12q9 12 11 28q2 17 20 55q18 37 22 46t3 21t-1 16l15 35q2 4 1 15
t5 20q6 10 7 18t3 12t10 16q8 10 10 18t2 21q-1 13 0 19t4 9q3 4 6 7t4 7t1 12t1 13t6 10q5 6 6 18t20 61q18 50 18 56t1 8t5 7q5 7 7 36q2 30 19 55t17 29v15q-5 23 14 37q13 13 13 49t2 40q2 5 13 13t13 16t1 33q-2 25 0 37q17 17 23 28t16 20t32 15t30 6q9 0 21 -6l17 -2
q4 -2 7 -8t6 -8t12 -2t14 -4q6 -10 2 -39l2 -17q-1 -6 -11 -25t-11 -30t-7 -21t-6 -16v-8q-5 -15 -25 -39v-7q0 -5 -2 -7l-12 -23q-4 -4 -4 -14t-4 -14q0 -5 -16 -37l-2 -22q1 -6 -5 -12t-7 -8t-3 -10q-3 -13 -11 -20q-8 -6 -10 -21q-1 -14 -2 -22t-3 -23t-11 -27
q-12 -15 -12 -54l-16 -29q0 -4 1 -18t-10 -27q-12 -13 -16 -19t-10 -26t-6 -31v-12l-11 -31q0 -9 -6 -18q-6 -8 -7 -12t-1 -8q0 -5 -2 -7l-8 -20q-2 -7 -2 -19v-16l-25 -49l-4 -25q0 -4 -2 -8t-4 -9t-5 -9t-5 -8q-2 -5 -5 -9t-4 -14q-1 -11 -3 -17t-12 -24q-15 -29 -16 -58
q-2 -29 -14 -37q-10 -9 -12 -11t1 -13q3 -10 1 -14l-14 -23v-7q0 -4 -10 -36v-25q-3 -14 -13 -30q-14 -23 -14 -36v-15q-4 -12 -14 -23q-10 -12 -10 -32q-1 -20 -7 -33t-11 -31q-7 -27 -18 -39q-10 -12 -9 -29q1 -18 1 -22l-8 -17q-6 -8 -11 -41t-42 -44q-38 -11 -42 14
l-4 24q-4 22 -22 40t-13 43t5 30l-14 26q-2 3 -1 13q2 16 -6 26q-8 9 -20 37q-12 29 -14 57t-5 37t-11 17q-13 13 -13 20v8l-12 24q-14 27 -13 51q2 24 -10 35t-12 25q0 15 -1 21t-9 14q-10 10 -10 22v7q0 4 -4 10q-8 12 -13 40t-20 56q-16 29 -14 46t-6 33t-7 18
q-2 2 -11 10t-12 14t-1 26t1 26q0 6 -16 42t-16 42q0 8 -1 12t-28 47q-2 5 -2 23t-6 24v20q0 9 -14 23q-3 13 -14 31t-17 38q-5 20 -18 25q-23 6 -28 4q-5 -1 -16 -23q-12 -22 -14 -42t-14 -35t-11 -34q2 -18 -7 -30t-9 -38q-13 -28 -16 -38q-2 -11 -7 -23t-11 -26
q-7 -14 -9 -30q-2 -18 -13 -48t-11 -36v-10l-10 -20t-12 -25q-5 -13 -8 -21t-4 -20t-3 -19l-10 -18v-17l-15 -34v-6l-14 -31q-2 -4 -2 -11v-12q-4 -8 -13 -22q-15 -23 -13 -40q1 -17 -6 -33q-7 -15 -14 -33t-6 -30q1 -10 -1 -18q-1 -8 -11 -24t-12 -22t-1 -18q1 -11 -4 -19
t-7 -14q-2 -5 -8 -23t-8 -22q-2 -5 -6 -9q-3 -4 -3 -7l-8 -43q0 -6 -8 -22q-8 -15 -10 -21t-1 -21t0 -21t-16 -35v-19q-12 -43 -34 -46t-48 16q-24 19 -24 38t-11 27v7q0 6 -11 19q-11 12 -10 41t-7 42q-8 14 -10 20t2 15t4 14l-33 55v20q0 19 -10 29q-16 16 -14 38t-13 41
q-19 25 -17 41q2 15 -10 37q-11 22 -13 37q-1 15 -4 21l-12 24q-13 25 -13 43q0 19 -1 24q-2 5 -12 15q-12 11 -12 38q-11 33 -19 50t-10 28q-2 10 -4 16t-10 18t-9 23q-3 32 -16 50t-11 39q1 21 -2 28t-19 30t-18 38q-3 14 -2 22t-1 12t-12 14t-12 16t-4 22q-1 14 -3 22
t-12 22q-12 17 -12 47q-17 34 -17 66q-5 20 -30 45q-4 8 -5 26t-9 29q-7 10 -9 13t-6 6t-14 51l-9 35q-2 2 -2 10v10q-2 4 -11 13t-10 15t3 26t6 42t14 31q4 6 16 2t17 -4t21 5q43 13 65 -31l17 -31q16 -35 17 -39t0 -19t6 -31q9 -21 9 -30t12 -30q15 -26 16 -38
q2 -12 5 -18l19 -35q2 -6 1 -16t1 -16t9 -19q7 -12 11 -25q4 -14 5 -22q2 -21 19 -55q17 -35 17 -44v-10l14 -43v-9q-1 -12 5 -20q7 -10 9 -22q2 -13 5 -19q2 -6 11 -22q13 -21 13 -33v-8q28 -55 26 -69q-1 -13 1 -19l14 -21v-7l21 -58v-23q4 -8 11 -21q10 -19 12 -36t6 -22
q4 -7 7 -11q7 -10 9 -31q2 -22 17 -40q14 -19 16 -21t1 -11t3 -22q4 -12 9 -26q5 -13 6 -25t3 -16z" />
    <glyph glyph-name="X" unicode="X" horiz-adv-x="1470" 
d="M744 733q-8 0 -9 -4q-30 -8 -45 -53q-6 -16 -23 -34q-18 -18 -19 -27t-3 -12q-18 -28 -33 -44q-15 -17 -17 -26q-3 -12 -21 -23q-17 -11 -17 -37q-21 -21 -34 -45t-19 -33t-23 -18q-21 -21 -25 -38t-10 -25t-33 -31q-26 -23 -26 -30v-13q0 -8 -14 -18t-22 -31
q-9 -21 -12 -27t-6 -11t-12 -17q-18 -23 -18 -36q-8 -12 -23 -19q-16 -7 -18 -11t-4 -20t-6 -21t-20 -13t-26 -16q-8 -8 -18 -10t-15 -1t-15 5t-14 4t-22 3q-17 3 -24 9q-6 6 -6 34t8 37t20 33t28 38t23 25t9 15q2 5 10 11t10 16q1 10 3 14l24 29q12 24 26 35q15 12 18 16
t8 6l7 21q7 20 21 34q21 20 23 32t17 23q15 12 15 23t2 16t11 13q8 9 11 13t7 14q8 21 27 36t34 40q16 25 25 32q14 9 19 20t23 35q17 23 21 31t7 9q2 2 5 4t8 8t28 33t35 43l22 32q2 9 2 27q0 29 -35 43q-2 4 -3 9q-2 9 -14 20t-19 27q-6 16 -12 21l-18 15q-14 9 -16 15
t-14 22t-12 24t-22 34t-46 50q-25 24 -39 61q-13 37 -42 51q-11 6 -14 19q-3 12 -9 15q-2 4 -12 10t-15 11q-4 6 -8 24q-4 17 -8 23t-10 9t-24 19t-21 21q-10 5 -14 22t-7 23q-4 6 -17 11t-18 11q-18 31 -6 63t47 42q8 2 46 -2t42 -6q27 -12 49 -52q2 -4 4 -10q3 -9 14 -18
t17 -26t16 -25q11 -9 15 -24q5 -15 20 -35q15 -19 17 -23t4 -7t2 -8q6 -4 13 -11q8 -7 14 -13q13 -12 18 -28q6 -16 12 -19q6 -4 14 -22t19 -31q12 -13 19 -25t15 -17t19 -19q10 -14 12 -22t5 -12q4 -9 13 -15q8 -6 12 -25q4 -18 10 -25q6 -5 10 -11t7 -10t9 -19t24 -24
q18 -8 24 -12q5 -4 7 -4q18 -4 35 43q2 8 15 19t21 33t20 30q2 4 6 14q8 24 45 62q2 4 7 16t26 31t28 48t23 37q16 9 20 15v8q-1 11 11 25t23 36t22 30q10 8 13 14t12 12q20 14 24 41q4 28 46 53q16 10 20 18t8 12t22 2q16 -3 18 -3q86 23 86 -53q0 -35 -41 -68
q-2 -2 -12 -6t-13 -10q-2 -6 -16 -24t-18 -26q-4 -6 -4 -13t-3 -11t-12 -10t-14 -11q-6 -10 -15 -30q-14 -30 -28 -41q-15 -11 -17 -19q-4 -16 -29 -43q-25 -26 -30 -37q-8 -16 -21 -23q-12 -8 -14 -18q-3 -13 -12 -24q-8 -11 -8 -29q-6 -8 -21 -16t-22 -15q-2 -4 -5 -11
t-27 -37t-26 -32q-1 -3 -4 -15t-14 -19q-11 -6 -18 -24q-8 -21 -17 -30q-10 -10 -4 -25q5 -16 8 -29q3 -14 14 -26t18 -16t10 -6q2 -6 6 -21t19 -24q15 -8 20 -16q22 -43 29 -50q7 -6 9 -10l12 -24q9 -20 15 -31q5 -4 17 -9t16 -11t7 -13t7 -11t33 -44q2 -4 2 -11t4 -10
q14 -24 34 -35q19 -11 20 -22q1 -12 9 -22t9 -14q2 -4 4 -11q3 -13 17 -18t18 -11t9 -22q8 -27 24 -41t32 -41q15 -27 27 -38t26 -30q13 -18 16 -27q5 -15 22 -23t23 -25q7 -17 7 -19q12 -12 12 -14q10 -22 -8 -44t-32 -27t-36 -5q-24 0 -26 2q-31 8 -74 59q0 2 -10 7
q-8 10 -24 44t-22 42q-6 6 -17 13q-10 7 -15 13q-2 4 -4 16t-6 16q-4 5 -18 13q-18 10 -27 38q-10 27 -23 36q-12 10 -16 16v11q0 12 -7 16t-12 7t-10 5q-19 25 -22 38t-25 37t-22 40t-2 19q-2 4 -10 6q-12 4 -16 15q-5 12 -20 24q-15 11 -25 32t-31 41q-22 20 -28 35
q-4 14 -8 17l-6 6l-8 8t-11 26t-8 28t-11 9z" />
    <glyph glyph-name="Y" unicode="Y" horiz-adv-x="1363" 
d="M614 584q0 12 4 64t2 60t0 11q1 4 -2 6q0 6 -10 13q-15 10 -19 33q-4 22 -18 25t-18 10t-21 45t-47 64q0 12 -15 23t-19 21q-5 10 -7 17t-5 12t-14 12q-19 12 -19 34t-16 31q-16 8 -21 12q-24 34 -26 47q-1 14 -3 18t-5 6q-3 1 -7 3t-6 2q-4 6 -10 18q-7 17 -31 35
q-24 17 -26 27q-3 10 -4 18q-3 21 -13 27q-11 6 -15 18t-10 15q-9 5 -13 15q-4 9 -12 16t-13 15q-5 7 -16 25q-17 27 -28 33t-19 24q-8 19 -10 22t-5 6t-5 7t-6 9q-4 6 -4 10q-8 33 12 53q3 3 10 5q8 2 12 7q5 5 7 5h67l29 -15q2 -2 27 -12q11 -11 17 -29q5 -17 15 -23
q9 -7 12 -19t13 -25q13 -18 15 -27t16 -23q19 -18 28 -39q9 -20 21 -28q12 -9 16 -24q4 -16 21 -33q28 -55 38 -65q11 -9 13 -13t5 -12t5 -12t8 -10q6 -5 9 -9t7 -13q3 -10 6 -14q7 -9 17 -17t12 -16q1 -9 19 -29t21 -29q2 -9 4 -12t6 -7q6 -6 12 -20t23 -31q18 -17 24 -29
l23 -33q8 -16 15 -16q16 0 22 21t37 62q31 42 38 55t12 19t8 14t6 10q3 3 14 13q10 9 14 15t4 9v8t8 19q8 13 13 17t11 10t9 16q2 9 5 15t15 16q18 15 20 31t18 29q16 14 23 28l10 20t11 12q9 8 29 40t21 34t4 10q3 9 9 14q5 5 9 10q4 4 7 8q4 4 6 13q2 8 25 45q27 44 40 49
t36 22h37q44 1 56 -13t15 -40q4 -36 -13 -55t-22 -31q-6 -16 -27 -31q-20 -14 -29 -41v-6q-12 -17 -23 -25q-15 -30 -32 -44q-17 -15 -22 -27t-8 -15q-3 -4 -11 -11q-8 -8 -12 -14t-11 -24q-12 -27 -26 -36t-16 -16q-3 -8 -15 -17t-11 -21q-13 -31 -23 -42q-9 -11 -16 -23
t-25 -32q-17 -20 -21 -32q-8 -20 -20 -30q-12 -9 -16 -20q-4 -10 -6 -13l-11 -22t-21 -18q0 -20 -41 -61q-4 -12 -15 -25q-12 -14 -13 -19t-3 -7l-6 -6t-7 -8q-3 -3 -5 -7t2 -12t4 -12l-10 -25l4 -27q2 -6 -1 -15t-3 -13l4 -21q2 -43 0 -61l-4 -29q6 -24 5 -52t1 -40l8 -39
q4 -6 0 -13q-4 -6 -4 -16v-26q-6 -18 -4 -25l8 -29q2 -2 2 -70t-2 -69l-4 -18q16 -74 -19 -109q-4 -4 -11 -5t-9 -2q-1 -1 -17 -8t-18 -6t-14 2t-21 11q-14 8 -20 16t-19 56q8 15 11 39l-7 55l4 22l-6 39q-2 5 1 13t1 12l-8 33l8 28q2 7 0 19t-2 16l9 53l-7 86q0 5 4 15
t6 14t0 8q-1 4 -3 6l-3 6t-4 7v39z" />
    <glyph glyph-name="Z" unicode="Z" horiz-adv-x="1308" 
d="M1086 1552q13 0 23 8q9 8 15 7q9 9 19 -3q13 -16 31 -16t24 -14q13 -32 -35 -86q-2 -2 -9 -8t-17 -23q-9 -16 -13 -20q-4 -5 -8 -15t-7 -14t-14 -14q-18 -16 -18 -24v-7q-4 -13 -11 -23t-19 -28t-23 -26q-12 -9 -16 -13l-9 -23q-4 -8 -12 -20t-16 -28t-16 -26
q-9 -10 -12 -14t-4 -10t-4 -15t-13 -14q-10 -6 -13 -8q-12 -16 -19 -37t-20 -28q-16 -10 -16 -20v-7q-10 -32 -24 -40q-13 -9 -15 -15q-12 -14 -12 -26q1 -12 -11 -18q-12 -4 -15 -10t-6 -17t-5 -15t-7 -9t-8 -17t-26 -28q-8 -24 -12 -30q-3 -6 -17 -16q-20 -14 -24 -30
q-3 -17 -14 -29q-11 -11 -15 -17l-2 -15q-22 -49 -36 -59q-13 -10 -25 -16t-22 -35q-9 -29 -9 -30q-1 -1 -13 -8t-22 -22q-5 -16 -10 -23q-6 -8 -10 -14t-6 -10t-2 -10q2 -11 -11 -23t-19 -23q-6 -13 -27 -32t-20 -29t-3 -20q-4 -9 -20 -35t-20 -32t-6 -10q-2 -3 -7 -8
t-7 -8t-5 -10q-4 -9 -22 -27t-16 -34t47 -16l25 -4q4 2 13 10t15 8l21 -8q56 -10 77 -5t29 5l35 -6l33 10l51 -4l17 4q4 0 36 -1t78 1l29 6q14 0 20 -6h39l23 6l72 -2q18 6 36 6l82 -6l49 8q62 2 76 -26q2 -4 2 -7q14 -20 12 -52t-24 -47q-28 -20 -47 -14q-21 7 -33 6t-14 1
l-29 10l-29 -10l-28 12q-26 -2 -44 -8t-22 -5t-9 9t-11 8l-35 -16l-25 10l-16 -6h-12q-10 0 -13 -2l-26 -8q-5 -2 -17 7t-20 9q-20 -10 -25 -10h-53q-18 -6 -30 -6t-23 6h-47l-21 10l-45 -14q-4 0 -10 2h-6q-14 2 -41 2l-33 -6l-31 16l-24 -16q-18 -2 -27 2l-33 14l-26 -10
q-2 0 -24 4t-48 -10q-59 -12 -90 2q-2 2 -8 6t-8 6q-3 2 -11 5t-10 10q-11 11 -3 27q9 16 16 26t10 18q3 9 20 18q16 9 26 34q10 26 26 44q22 27 22 35q0 7 10 20t18 31t17 25q9 8 18 24q8 17 14 25q5 8 14 23t22 24q14 8 18 15t5 16q1 8 5 12t7 8t5 9l6 12t8 17q4 14 16 26
q11 13 14 21q2 8 8 20q4 2 18 16q14 15 18 37q6 30 16 38t17 19q7 12 31 31q14 19 12 25q-5 14 6 21q10 7 19 16q2 4 8 20t22 27q21 16 21 28q0 11 10 24t19 16q12 4 12 21q-1 17 15 27q16 11 20 18t11 26t19 30q18 17 20 32q3 15 5 19l8 8t11 10q7 5 27 40t21 38t2 7t3 6
t6 5t5 6q9 26 23 37t22 31t21 32t24 32q12 20 18 28t21 32q17 26 34 43q18 18 6 26q-7 11 -19 11t-36 4q-2 0 -27 -10l-22 6q-9 2 -29 2h-23l-36 -8l-35 8q-16 0 -33 -13q-25 -4 -94 -4l-32 15q-5 0 -44 -11h-31q-47 -9 -78 -6l-21 6l-19 -4l-33 2l-35 -10q-4 0 -10 2l-12 4
t-12 1q-5 -1 -16 -6t-20 -5l-26 12q-4 0 -24 -2t-21 4q-6 2 -29 43q-5 28 2 35l8 8v5q0 19 28 31q28 13 50 14l43 -13q29 0 47 2l23 4l22 -10l47 14l25 -8q10 -2 59 -2l37 6l49 -4l21 4q10 2 28 -1t32 -3t26 6l37 -6l22 4q2 2 20 1t32 -1t30 -8l31 4l16 -4q4 -2 13 2t14 4
l35 -8q27 2 36 6l25 11l30 -11l17 4h13z" />
    <glyph glyph-name="backslash" unicode="\" horiz-adv-x="1304" 
d="M909 236q4 -10 4 -26q-1 -16 19 -45t33 -53q15 -28 18 -46q4 -26 34 -66t50 -84q20 -43 41 -67q20 -24 24 -43t37 -58t38 -68q5 -30 14 -54q20 -52 -14 -66q-17 -8 -36 -2q-91 65 -117 126q-33 77 -54 110t-25 48t-24 47q-24 40 -27 67t-26 52q-34 38 -34 54t-15 34
t-19 24t-7 14q-11 39 -43 83q0 4 -5 10q-11 13 -12 29q-2 16 -24 45t-27 38t-10 17q-4 8 -7 18t-5 14q-2 5 -6 10q-14 18 -25 42q-11 25 -21 36q-10 12 -30 46q-2 6 -2 17t-26 52q-40 63 -42 79t-17 34t-23 45t-12 33q-78 103 -78 136q0 13 -24 45q-39 51 -42 78
q-3 26 -28 56t-27 38t-3 11q-1 2 -2 8q-1 4 -18 34q-21 37 -23 47q-3 13 -26 50q-24 37 -52 92t-31 60t-8 10l-12 15t-8 20t-11 30q-11 18 -14 26t3 16t9 16q10 22 28 13q4 -2 36 -7t62 -46q8 -8 14 -20q5 -12 13 -28q8 -15 12 -24t31 -53q0 -16 12 -36q12 -19 16 -32
q3 -13 30 -63q27 -51 29 -54q2 -4 7 -10q4 -6 10 -12t14 -20l23 -46t21 -36q0 -7 12 -19q51 -93 57 -113t24 -45t35 -68q17 -44 22 -53q5 -8 7 -12q5 -9 11 -13t32 -56t31 -77t33 -60t35 -56q8 -21 32 -57q18 -33 23 -41l6 -23q4 -8 14 -20q15 -18 19 -35q3 -17 67 -112z
" />
    <glyph glyph-name="asciicircum" unicode="^" horiz-adv-x="718" 
d="M199 1040q-16 -8 -38 -8t-28 10q-6 11 -10 15l-6 6t-4 6l2 12v23q7 16 25 26t21 15q3 6 6 9t5 9t8 14q6 7 8 12q3 9 16 17t20 20q7 13 14 18q6 5 11 14t12 17q7 9 8 13t7 14t9 28q3 21 32 59q4 4 33 2l27 4q27 -4 33 -11q26 -30 28 -54t16 -42q13 -18 19 -28t9 -14t8 -9
q4 -6 8 -10l6 -6q2 -1 5 -5q7 -8 14 -13q7 -4 10 -12q4 -9 5 -11t5 -5t5 -5t3 -7q2 -6 5 -8t5 -8t20 -16q19 -10 27 -27v-23l2 -12q-2 -4 -8 -10t-14 -18t-40 -7q-31 5 -37 10q-7 4 -15 12t-12 10q-16 11 -23 23t-16 16q-9 3 -19 13t-14 22q-6 11 -22 19q-16 9 -18 13
q-4 4 -4 17t-8 11q-8 0 -5 -16t-18 -25t-22 -13q-2 -4 -12 -20t-21 -20q-12 -4 -14 -7t-3 -6t-3 -7t-4 -5q-6 -6 -15 -13t-23 -17q-13 -11 -21 -11z" />
    <glyph glyph-name="grave" unicode="`" horiz-adv-x="534" 
d="M162 1397l29 10l16 2q16 0 29 -23q20 -26 20 -51q14 -43 25 -43q5 -16 18 -29q12 -14 21 -26t17 -16q7 -5 9 -7t4 -8q6 -18 15 -18q5 -15 7 -17t6 -8q3 -6 7 -10q31 -14 39 -33q2 -2 2 -6l-2 -16q0 -2 2 -8t-6 -12t-12 -13q-15 -22 -39 -15q-25 7 -36 9t-25 14
q-13 13 -18 19t-8 8q-4 2 -6 5t-3 6q-2 5 -11 10q-10 5 -12 7l-19 23q-2 0 -6 8t-19 16q-16 9 -20 14t-5 15t-3 16t-10 14q-8 9 -12 14t-2 8q5 7 -14 32t-28 46q-8 20 -5 27q4 7 15 11t22 14t18 11z" />
    <glyph glyph-name="a" unicode="a" horiz-adv-x="954" 
d="M568 794q-13 -1 -21 1t-43 2l-15 4l-25 -8l-22 4q-4 2 -12 1t-12 -1q-12 12 -49 -15q-25 -6 -35 -6t-24 -2t-26 -16q-13 -14 -22 -17l-20 4h-25q-41 2 -47 29q-6 20 -2 29l12 20q0 41 15 57q15 17 77 17q8 8 33 8l43 4q4 0 15 6t26 4q15 -1 23 2t20 3t26 3q13 3 34 0
t34 -3l29 -6q55 0 67 -4t26 -14q15 -9 39 -11q25 -3 38 -21q12 -18 20 -19q24 -4 28 -22q2 -10 14 -23t12 -20v-8l8 -16q2 -2 3 -9q1 -9 12 -28q10 -19 7 -53q-6 -6 -6 -16t11 -17v-29l-11 -43v-53q2 -4 8 -12t7 -17l-4 -26v-21q-7 -17 -4 -26q4 -8 4 -39v-33l-7 -23
q0 -6 3 -15q2 -9 4 -14t1 -27t-1 -28l4 -24l-15 -39q0 -6 8 -17t3 -47l-5 -14q-1 -2 5 -22t-3 -23q-10 -23 -63 -37q-4 0 -16 4t-20 6q-11 3 -27 19q-31 17 -52 -4q-6 -4 -14 -8t-20 -11t-37 -13q-25 -7 -32 -10q-43 -18 -83 -5q-7 0 -21 -8t-20 -6q-6 3 -13 3h-18
q-4 3 -8 7l-10 10t-16 3q-11 -3 -13 -3l-21 4q-25 0 -43 13q-26 19 -59 24q-33 4 -41 33q-4 12 -20 20t-23 31l-10 30q-2 3 -9 13t-9 18l4 29q-6 11 -13 16q-20 30 -9 60t10 50t4 30q6 10 8 16q4 12 7 22q9 32 28 39q32 43 36 47q4 5 6 9t5 7q2 3 4 5t5 3t6 3t6 3t14 9
q10 8 16 10l15 5q18 4 32 17t32 14t46 11q29 9 35 11t14 1t24 6t75 5q58 -2 81 -2q24 8 39 8l31 -10q8 0 21 23t14 43q-1 6 -9 15t-8 22q0 12 -2 15t-11 6q-13 4 -18 17q-5 12 -10 17q-6 4 -23 7q-26 5 -36 17q-11 11 -24 10zM692 443q0 21 -6 31q-11 19 -123 20
q-10 -5 -41 -5q-10 -10 -16 -10h-32l-15 -4h-18q-23 0 -41 -9t-42 -18q-27 -10 -33 -10q-20 0 -53 -49q-4 -6 -9 -12l-27 -37q-3 -3 -3 -18q-10 -10 -10 -18l4 -21q-4 -31 -4 -35l25 -31q0 -2 6 -17t12 -22q4 -2 14 -4q19 -4 29 -22q19 -36 70 -25l24 -10q10 0 76 6h47
q13 0 23 10q65 13 80 27q16 14 22 16t11 4q8 6 16 22t12 21q4 7 3 23t-1 22l10 45l-10 55q0 9 6 15l-6 31v29z" />
    <glyph glyph-name="b" unicode="b" horiz-adv-x="1060" 
d="M440 -2l-44 10q-18 0 -30 12t-36 27q-18 6 -26 18q-9 13 -15 13q-3 4 -19 2t-19 -7t-3 -19t-11 -27q-11 -15 -43 -15q-59 -1 -66 49q-3 23 1 37l8 29q2 7 -4 17q-6 11 -4 38l10 35q2 9 -2 25t-4 22l8 33l-8 29q-2 57 0 96l4 22l-8 41q-2 11 1 31t3 32v32q6 24 3 37t-3 22
l10 66l-10 30l8 56q0 12 -4 26q-4 13 -2 23t1 14t-4 11t-3 9v60q14 20 12 30t-8 29t-4 23q0 4 9 17t4 33q-5 19 -5 26v108l-8 25q-2 14 8 36t10 33l-6 25l2 27l-14 26q-2 17 7 35t-1 29q-10 10 -10 16l4 29l-6 26q4 15 10 19t25 17t39 24q11 3 35 -9t30 -18q2 -4 2 -10
t7 -20t3 -27l-10 -23q-2 -10 -2 -33l-2 -61l4 -25q0 -8 -7 -28t-5 -31l6 -31q2 -6 0 -18t-2 -19l4 -34l-6 -33q0 -5 1 -23t-7 -34t-8 -24t10 -19l-6 -29q10 -40 10 -59t-5 -29t-5 -22t6 -17v-33l4 -16l-4 -31q0 -16 8 -12q4 2 8 3t8 4t8 4t9 4q5 4 13 6q7 2 19 13
q11 11 18 17t15 8t18 12q17 18 33 20t23 9q6 2 17 1t18 -1l24 10l23 -2q2 2 11 2h14q18 6 28 4q9 -2 13 -2t11 2t11 1t10 -5t11 -4l22 2q11 4 33 -10q21 -13 32 -16q10 -3 21 -9q12 -6 16 -7l9 -3t10 -3q9 -2 24 -17q14 -14 27 -23t23 -35q4 -4 15 -10q17 -9 24 -31
q31 -31 55 -125q2 -10 3 -29t4 -40t3 -23l-6 -32q2 -4 8 -12t6 -13l-4 -63l4 -58l-8 -31v-11q0 -13 -9 -23q-9 -11 -15 -36q-7 -26 -8 -31t-8 -14q-10 -12 -13 -26t-14 -24t-13 -14t-8 -14q-6 -11 -10 -18q-4 -4 -17 -9t-53 -40q-40 -34 -51 -34h-14q-23 -5 -46 -20t-47 -15
l-22 -4q-28 14 -35 14l-38 -10q-11 0 -36 10h-45zM718 741h-11q-29 5 -33 37q-2 16 -4 21q-6 -1 -18 -9t-34 -8l-30 15q-4 4 -22 3t-21 -1l-29 4q-10 0 -45 -15q-4 0 -14 5t-29 -13q-18 -17 -29 -20q-12 -2 -19 -5t-18 -17q-12 -15 -16 -19t-17 -9t-18 -10q-4 -6 -9 -20
t-10 -22t-9 -22q-3 -15 -14 -30q-11 -16 -10 -30q1 -16 -2 -24q-4 -9 -5 -20q-2 -10 -3 -14t1 -12t2 -11l-2 -18l4 -23q0 -6 -4 -16t-3 -15t2 -11t3 -12t2 -15v-20q4 -4 6 -12q2 -9 4 -15t4 -32t7 -37t15 -21t15 -18t19 -18q14 -11 18 -14t8 -12t14 -14q9 -4 13 -6t15 -11
q12 -9 16 -11t16 -15h8q6 0 8 -2l31 -12q4 -2 11 -2h12l36 -11l25 11q42 -8 77 12q7 4 11 4h6q4 2 9 6q10 8 23 8q13 -1 28 11q14 12 18 24q6 19 19 19t16 6q8 7 20 27t17 30q6 10 6 16q0 7 2 11t9 16q11 19 11 40v22q7 57 6 66q-3 9 1 23t2 23l-11 31q0 6 1 32t-10 40
t-14 20t0 25t-18 37q-20 18 -24 25t-11 25t-11 22q-6 7 -20 7z" />
    <glyph glyph-name="c" unicode="c" 
d="M102 445l7 44q0 4 8 30t6 39q-2 12 0 18q5 14 10 22q4 7 4 15l10 36v10q0 12 25 37q2 4 4 12t5 11q3 4 10 12q8 8 11 18t19 19l12 10q5 3 9 10t7 11t5 8q4 4 11 7q26 11 34 26t14 19q7 5 23 5t46 14t36 13h53q12 6 19 6h18q18 6 35 6h26q23 4 55 -5t46 -12t26 -8t41 -27
t35 -24q14 -5 49 -36q70 -61 43 -123q-6 -14 -26 -24t-32 -7q-12 2 -18 6t-11 4t-21 10q-16 11 -22 17q-7 6 -11 12q-5 8 -25 16t-28 25l-17 21q-8 4 -28 3t-22 10q-2 12 -7 17q-6 2 -22 -3t-19 -5l-43 4l-47 -6q-4 -2 -15 1q-17 5 -31 -7q-15 -11 -39 -27q-24 -17 -36 -27
t-20 -15t-12 -10t-2 -16q2 -26 -25 -26q-14 -14 -24 -41q-9 -27 -12 -33t-3 -10l8 -37l-18 -39l4 -39v-65l8 -27q2 -4 -1 -14t-3 -16t4 -11q4 -6 14 -30t17 -33l2 -15q4 -4 11 -10t10 -10q3 -3 9 -19t13 -20q6 -8 21 -10t37 -24q21 -21 46 -21t38 -7t25 -5q11 1 17 1
q6 -6 18 -6t17 6h26l13 5h14q14 0 27 9q19 14 37 17t25 13t13 11q13 2 20 18t19 23q21 12 26 27q6 15 34 21q27 6 39 1t14 -9t5 -8t12 -15q9 -10 11 -14t3 -33q0 -42 -31 -60q-15 -8 -21 -19t-11 -14t-17 -9q-23 -12 -34 -32t-56 -26h-25q-2 0 -28 -21t-47 -13t-27 8
l-25 -11q-56 -2 -81 8q-25 11 -32 13t-30 -1t-32 0t-18 13q-10 10 -16 14t-20 3q-24 0 -35 14t-21 14t-14 4q-23 13 -28 23t-9 20t-24 26q-20 17 -23 28q-8 8 -8 30q-4 8 -14 26t-12 26q-1 8 -3 18t-13 24q-11 13 -13 21l4 31q0 5 -11 20l5 45q0 16 -9 50z" />
    <glyph glyph-name="d" unicode="d" horiz-adv-x="1062" 
d="M342 0q-16 0 -25 4q-6 4 -12 15t-11 13t-12 5q-11 3 -21 12t-22 11q-11 4 -17 10t-16 26q-9 20 -11 24q-3 4 -19 20q-16 15 -16 40q-10 10 -10 22v17q-4 7 -14 19t-12 17q-3 5 -4 17t-2 16t-6 16q-5 13 -3 47q3 49 -4 56t-7 17t2 14l9 24q1 14 -1 32t5 49l12 37
q0 4 -1 17t10 28q10 16 16 27q6 12 8 18t4 10q0 4 6 10t12 25q7 20 21 31q15 11 19 15q3 3 9 13t9 14q19 10 27 23t24 15q16 1 31 16q16 14 23 17t23 3t22 2q5 2 14 8q8 6 16 8t19 -2q11 -3 18 -4l26 11q12 2 35 -2t27 -4l47 2l20 -7h15q12 0 12 -2l37 -18q10 -10 24 -14
q15 -4 20 -10t9 -7q4 -2 18 -10q13 -8 19 -11t11 -9q5 -7 11 -9t19 15q6 2 1 18t-2 29q3 12 3 18l-2 13l2 20q-6 24 -6 53l2 30l-6 34l6 24q-6 12 -6 20v44q6 23 4 30t-2 11l4 37q-6 6 -6 15v38l4 35l-8 28q-2 8 0 31l8 43q2 4 1 13q-1 10 6 25q8 14 0 20t-12 12q-5 6 -4 21
t4 19t8 9q5 4 7 8q3 6 6 18t8 19q4 6 42 11t51 -23q24 -49 14 -76l-8 -21l8 -32q2 -6 4 -70l-8 -39q12 -46 4 -63l-8 -25q-2 -6 1 -19t3 -20l-4 -39q10 -20 10 -36t-6 -42l6 -28q-3 -3 -6 -19l2 -57l-6 -27l8 -30q2 -5 2 -25t-6 -29v-26q-6 -22 -6 -60l6 -34v-119l-4 -19
l4 -28l-4 -21l4 -41l-4 -33q0 -4 10 -24l-6 -43q0 -10 6 -19l-6 -30l2 -33q0 -6 -5 -15q-5 -8 -7 -14t0 -14t4 -13t4 -13q6 -24 -2 -66q0 -1 10 -41l-4 -33q0 -4 4 -27t-18 -41q-20 -18 -32 -21t-24 -1t-21 4t-15 3t-16 8q-11 7 -8 20q8 29 -22 35q-12 -3 -23 -19t-29 -25
q-22 -10 -41 -25q-18 -15 -38 -14t-29 -1l-22 -9q-6 -2 -22 -1t-23 1q-19 -10 -27 -11t-24 4t-22 6t-15 -2q-11 -3 -19 -2t-77 30q-9 2 -25 2zM807 492q1 16 -11 39t-12 50t-12 39t-27 22q-15 11 -21 21q-5 9 -9 11q0 6 -6 10q2 7 -21 26t-29 21t-21 1t-35 13t-44 16
q-37 4 -63 13l-29 -16h-31q-32 0 -44 -12q-15 -14 -21 -13q-5 0 -26 -18t-27 -26q-6 -9 -17 -17q-10 -8 -17 -15t-9 -27q-3 -20 -6 -27t-4 -12t-11 -17t-12 -17q-2 -6 -1 -20t0 -19t-8 -15q-6 -9 -5 -36t1 -35t-4 -12l4 -17v-13q0 -13 7 -21q6 -17 5 -31t1 -24t6 -17
q4 -6 5 -22t10 -28q9 -11 19 -19q15 -14 25 -37q11 -23 22 -28q11 -4 21 -18t26 -19q16 -6 20 -13t10 -9t19 -1t19 -1l19 -12q4 -2 9 1t7 3h86q38 10 60 10q4 2 11 10t29 17q22 10 36 27q14 16 17 19t14 9t18 13q14 27 21 45t12 25q10 14 9 31t9 26q10 8 13 24t-8 56t-11 45
z" />
    <glyph glyph-name="e" unicode="e" horiz-adv-x="1028" 
d="M496 98l45 4h80l28 15q13 4 23 2q30 -6 66 29l26 26q12 12 55 31q9 2 25 -2q16 -5 19 -11t6 -19t11 -21q27 -25 -18 -70q-4 -2 -13 -14t-16 -14l-10 -5t-8 -2q-10 -10 -16 -10h-8q-21 -21 -31 -26t-34 -10t-44 -15q-34 0 -53 -8t-39 -8q-20 1 -24 1l-15 -4l-14 4
q-4 0 -27 -2t-51 13l-21 -5l-49 19h-9q-13 0 -26 14t-35 13q-28 9 -35 20q-8 10 -10 12q-2 1 -15 13t-25 18t-20 12q-13 11 -13 23q1 12 -7 19q-10 9 -18 25q-8 15 -14 21t-10 13t-10 37q-7 31 -9 34l-10 19q0 6 1 19q1 14 -11 43q-12 28 -9 35l5 9q0 37 -3 43l3 19
q0 4 -8 18t9 33t13 30t-4 19l20 57v11l21 34q0 28 18 48t22 25q3 5 7 7q-4 18 16 31q20 14 23 16q2 2 8 11t27 20q20 9 32 19t19 14l41 22q21 0 33 7l30 8q4 2 16 1t17 1l20 8q7 2 19 1t20 2t22 3t45 -8q32 -8 47 -9t28 -11q14 -9 17 -11t14 -4q10 -2 13 -4t7 -6t24 -14
q0 -6 9 -15q12 -6 18 -6q33 -23 39 -35t15 -21t13 -12q3 -3 7 -11t20 -25q16 -16 21 -39q6 -32 17 -49q12 -17 13 -27t3 -12l10 -17q6 -17 -1 -39t-7 -31q0 -16 -23 -20q-11 -2 -25 -8t-36 -6l-21 6h-55q-24 0 -32 -5q-9 -5 -13 -3l-30 8h-9q-14 14 -22 14t-15 -6
q-8 -6 -9 -7t-5 -1t-6 -2l-23 -8q-8 -2 -24 8t-35 0l-19 -8q-42 -6 -80 6l-24 -6h-23q-12 12 -21 10q-10 -2 -14 -2t-12 -4l-31 6l-18 -4l-16 4q-3 0 -15 -6t-19 -9t-9 -5l2 -61v-36l14 -47q0 -10 7 -17t12 -25q4 -17 24 -42q12 -6 17 -8t11 -8t12 -22q11 -23 26 -23
q16 0 24 -16t22 -18t35 -13h23zM494 776q-8 2 -27 2t-33 -10q-15 -10 -30 -14t-19 -8q-8 -9 -12 -22t-21 -13q-16 1 -19 -5t-6 -10t-5 -8q-4 -4 -16 -13t-17 -17q-4 -8 -6 -15q-2 -8 -14 -27t-6 -25q5 -5 16 -7q20 -10 24 -9l14 5l27 -7l16 7h27l70 4l28 -6q52 0 82 6l25 -4
l17 4h6l14 -2q29 4 43 3t20 1l31 8q2 0 18 -1q15 -1 19 3t6 9t-2 17t-8 18q-6 10 -6 18t-8 12t-11 7q-2 3 -4 11t-6 11t-11 4q-8 1 -10 3t-5 2q-3 1 -9 7q-26 1 -46 21t-36 20l-45 10q-6 2 -21 1t-22 1z" />
    <glyph glyph-name="f" unicode="f" horiz-adv-x="595" 
d="M346 248l16 -60q0 -10 -7 -25t-6 -29q1 -15 8 -25t0 -33t-5 -35t-18 -33q-60 -49 -92 -2q-31 47 -29 94l8 50l-6 26q-2 4 -2 35l4 22l-2 21l2 37l-2 20l4 25v33l4 12l-8 25q-2 6 1 19t3 18l-6 34q10 20 10 27l-10 78l16 86q0 10 -10 20v37q-12 0 -37 10q-6 0 -17 -1
t-18 1l-30 19q-15 8 -17 11t-2 12l-14 40q0 38 55 43h15l26 6q2 0 9 -2t12 0q18 6 22 41q2 4 -2 10t-6 43l4 21l-4 27l4 16l-6 28l12 33l-6 19v12l2 25l-2 18q0 7 10 37l-10 23l10 30q-6 22 -5 31q1 8 -1 12l-10 39q0 7 5 13q15 18 15 59l-2 16q1 9 11 19q14 14 18 29
q4 16 14 20q11 4 15 6q68 57 114 50t51 -28q1 -5 10 -13q36 -30 34 -47q-5 -37 -41 -46q-16 -4 -30 -9t-15 -5l-33 2q-14 0 -14 -23q-1 -4 -9 -9t-11 -11t-1 -34t2 -36l-4 -17l4 -26q0 -2 -3 -7q-4 -6 1 -14q4 -10 4 -16v-24q0 -26 -4 -36q-4 -8 -3 -14t4 -17t3 -23t-2 -21
q-8 -12 -8 -18q9 -23 9 -44q-1 -20 -1 -69t5 -58t25 -8q21 2 32 0t40 -2q30 0 39 -18q4 -4 3 -11t2 -12l12 -24q6 -39 -29 -51q-2 -2 -8 -2h-9l-32 -13l-13 2h-7q-4 0 -20 -7t-24 -5l-14 -45q-4 0 -1 -32l3 -32l-4 -34q0 -4 2 -10q4 -11 3 -17t5 -27l-6 -71l10 -31l-10 -72
q0 -33 4 -65z" />
    <glyph glyph-name="g" unicode="g" horiz-adv-x="1071" 
d="M172 192q0 6 -2 11q-2 4 -13 17q-16 19 -16 32v10l-8 25q-2 2 -2 8v10q-4 12 -12 14q-23 0 -23 13q0 2 11 24t10 37l-11 37q0 8 5 29t0 33q-4 12 -3 18t6 17t7 15t1 14q-1 9 1 13l12 37q2 6 0 18q-4 24 23 40q2 2 8 14l11 22q5 10 8 17t14 14q3 5 7 19q5 20 18 26
q14 6 19 15q9 15 30 27t51 42l21 7t25 11q9 7 13 9l14 2l37 8q4 2 13 1t13 0t12 5q7 4 11 4q49 10 129 -10l21 -8q4 -2 17 -4t26 -15q4 0 12 1t33 -10t41 -30q17 -20 28 -21q15 -1 15 13v8q0 8 10 23q5 4 13 10t23 6l28 2q25 0 26 -2q31 -16 35 -36v-21q6 -18 5 -23
q-1 -6 -8 -16t-7 -16l6 -27l-6 -24q6 -12 6 -25l-6 -18q-4 -59 0 -117l10 -25v-9l-4 -19v-27l4 -21l-4 -32q8 -30 4 -46t-6 -42l2 -27l-6 -16l20 -33q0 -8 -7 -18t-9 -15q9 -24 5 -39q-5 -14 -4 -24t1 -15q-6 -6 -6 -12l10 -27l-2 -55l2 -43l-10 -20q-2 -28 -2 -42
q0 -18 4 -32t-11 -28q-14 -14 -15 -18q-1 -3 -8 -25t-18 -35q-12 -13 -14 -16t-2 -9q0 -7 -14 -21t-29 -35q-4 -4 -15 -10t-14 -10q-14 -18 -40 -18q-14 -7 -41 -25q-34 -8 -58 -19t-27 -11t-23 4q-20 5 -52 -5h-37l-43 -6l-31 14l-12 -4q-43 -3 -56 10q-12 13 -18 15t-19 1
t-17 2t-6 13q-1 10 -4 12l-6 4q-3 1 -16 8t-42 17q-28 10 -39 33q-24 38 -1 53q8 5 15 21t12 18q3 2 11 2t22 5t20 3q5 -2 12 -9t14 -9t16 -10q16 -20 22 -24t24 -5q18 -2 30 -14t19 -16t31 -7q23 -4 35 -9t21 -5q10 -5 29 8h28q11 0 31 10q6 0 19 -1t23 2t19 10t31 14
t44 29t32 30t15 30q5 23 12 32q8 8 8 17l10 30q2 6 2 16v17l8 28q2 8 -2 26t-2 30l4 22q-2 0 -15 6t-24 -6q-12 -12 -19 -16t-29 -22t-35 -24t-29 -12t-22 -5t-22 -4l-75 -15l-23 4h-45q-17 -17 -32 -8q-15 10 -22 16t-30 12t-37 6h-19q-5 1 -19 15q-14 0 -28 9t-19 22
q-5 14 -8 17t-23 9t-25 24q-5 19 -23 28q-17 10 -22 38q-2 2 -2 8zM799 567l-25 62v12q0 15 -22 25q-6 6 -10 12t-8 8q-9 6 -14 7t-30 31t-40 30t-38 9t-43 9t-30 10h-52q-19 0 -27 -5t-14 -5h-18q-23 -4 -35 -12t-18 -19t-14 -13q-30 -11 -37 -31t-28 -46q-20 -27 -24 -35
t-10 -49l-8 -37q-2 -6 -1 -21q2 -23 -11 -48q-6 -72 22 -158q6 -12 15 -24v-14q0 -16 13 -19q13 -4 16 -8t6 -17t16 -21q14 -8 18 -12t22 -27q29 -38 81 -38q20 -10 30 -10h41l13 -4l36 6l31 2q6 2 24 11t29 9q11 1 21 11l12 12q76 55 90 96q5 15 15 25t14 15t8 28l-10 55
q-2 8 4 19t6 18l-10 57q-2 5 1 19t3 22l-10 23v30z" />
    <glyph glyph-name="h" unicode="h" horiz-adv-x="968" 
d="M850 68q0 -8 -2 -11l-8 -20q-2 -2 -2 -7q0 -8 -10 -15t-21 -17q-27 -6 -55 3t-34 27q-7 18 -6 50q1 34 0 62t2 46t3 21l-6 37l6 32l-6 111v43q4 4 4 20l-4 23q6 12 6 23l-10 45l6 41l-11 56q0 13 -10 28q-18 43 -33 56t-32 21q-42 34 -62 33q-20 -2 -28 -5q-9 -3 -13 -2
t-18 6q-29 10 -72 -11l-6 -6q-57 -20 -60 -24t-26 -25q-45 -53 -57 -93q1 -18 -7 -27t-8 -14v-28l-10 -27l4 -22l-6 -27l6 -29v-36l6 -23l-6 -49l6 -23l-6 -47l4 -24q2 -4 4 -47l-8 -52q4 -8 9 -41q5 -34 -15 -75q-12 -21 -38 -31q-38 -15 -54 13q-4 7 -15 14q-10 6 -17 18
t-7 61l-2 64q0 20 4 36t1 29q-3 12 -3 19l2 80q-2 37 -2 39q10 29 10 43t-10 34l6 31l-6 35q0 6 9 18t9 21l-12 31q-2 4 1 11t3 11v129l4 27l-4 24l2 72l-6 33l4 14v31l4 14l-14 41l10 31q4 70 0 100l-8 27q-2 6 8 21t1 42t-5 36t2 13l-8 48l8 30l-8 43q0 3 10 33l-20 55
q0 18 15 31t15 23q1 25 37 33q76 16 88 -27q2 -4 2 -24t2 -30t0 -14l-8 -47l-6 -31l6 -73q0 -3 -10 -23v-49l-8 -33l8 -26v-58q0 -2 2 -7t3 -8t0 -6t-1 -20v-49l2 -27q-8 -16 -8 -56l2 -81l-4 -35q0 -18 16 -22q14 -10 20 -9t18 15q11 14 24 19q14 4 18 7t7 9t5 7t18 11
t20 16q4 5 10 7t20 1t23 1l26 8q11 2 55 1l44 -1l12 -4h18q16 -8 19 -10l19 4h7l23 -23q4 -2 16 -4t18 -6t13 -15q8 -11 11 -13t8 -6q5 -3 8 -5l26 -33q2 -4 20 -19t22 -44q5 -29 7 -33l9 -24q0 -4 -1 -22t3 -24l5 -10t3 -5t2 -7l-6 -51l6 -27q0 -54 -6 -80l10 -30l-10 -41
q-2 -9 1 -25t3 -23l-4 -40q0 -6 5 -21t7 -61l-2 -45l8 -35l-8 -39v-10z" />
    <glyph glyph-name="i" unicode="i" horiz-adv-x="401" 
d="M279 104l-3 -22q-5 -80 -34 -87q-1 0 -21 -11q-37 -6 -53 10q-20 8 -23 8q-2 2 -13 30t-11 46q16 32 16 40t-3 22t-1 20t4 9t8 15l-12 121v23q6 6 6 16l-6 35l6 24l-6 39v29l4 21l-8 61q6 24 6 63l-6 29q0 4 2 10q2 7 4 13t1 11t-8 13t-7 15l10 41q2 22 -6 46t15 43
t49 24q25 5 39 -3t25 -14t16 -13q5 -8 1 -27q-4 -20 -4 -26t2 -19t5 -24q3 -10 3 -39t-5 -36q-5 -8 -5 -15l10 -27l-6 -26l4 -31l-8 -23l4 -24v-16l-4 -33l4 -35l-8 -39q0 -1 8 -29q-8 -33 -3 -56q5 -24 3 -40t-1 -20t1 -20v-21l4 -21l-6 -30q0 -24 11 -50zM279 1184l-9 -21
l9 -39q0 -4 -9 -26v-21q-12 -33 -47 -45q-41 -14 -63 15q-21 28 -21 38q-8 8 -9 11t-1 49l-6 33q0 2 6 16t10 28t9 24q5 8 30 18q24 10 58 -10t38 -27q10 -23 5 -43z" />
    <glyph glyph-name="j" unicode="j" horiz-adv-x="503" 
d="M246 26l-13 46l9 57l-6 29q6 18 6 28t-3 18q-3 9 -2 14t1 7l-7 23q-2 8 -1 34t1 33l-4 19q-2 4 2 15t4 21t-8 33l8 41q0 23 -8 39l6 45q2 10 0 28t0 28l11 22l-11 27q0 14 5 39l-5 18v90q0 7 -6 23t-4 22q9 33 42 39l38 15q16 5 38 -9q42 -26 34 -92l-6 -28l6 -43l-6 -41
v-17q0 -12 2 -18l4 -31l-8 -33v-6q0 -12 6 -18q8 -51 6 -78l-6 -41l2 -21l-6 -18v-51q14 -28 0 -64l4 -26l-4 -29q10 -30 10 -43l-8 -33l8 -28q2 -61 0 -113l-4 -35l4 -16l-2 -47l2 -37l-4 -23q0 -2 2 -14t0 -68q-3 -56 -11 -71t-21 -25t-15 -11t-12 -13q-15 -19 -30 -19
h-16q-19 -12 -33 -11q-13 1 -17 1t-12 -7q-21 -21 -61 5q-14 14 -28 21q-13 7 -27 17t-14 24q0 15 -3 33t3 28l9 15q17 28 65 9h30q2 0 17 -10q10 -2 30 18t13 66l-6 22q17 50 3 88q-13 38 -3 61t10 27zM367 1153q0 -6 -5 -16l5 -43q0 -19 -17 -27t-36 -22q-18 -15 -43 2
q-25 16 -32 38q-7 21 -15 37t1 52l-8 36q0 7 7 17t9 18q6 24 62 38q4 1 15 -4q12 -5 20 -8q29 -10 37 -38q2 -6 0 -39v-41z" />
    <glyph glyph-name="k" unicode="k" horiz-adv-x="907" 
d="M199 -12l-32 10q-28 0 -28 45v16l-6 17l2 37l-6 26l6 39q0 18 -2 25l-10 22q0 6 12 26t-2 34q0 2 4 41l-2 36l4 19l-6 65l12 48l-12 41v43q9 18 6 79l-6 21v137l-4 23v7l4 21v10q0 7 2 7l8 20l-12 45l2 40l-4 28v19l2 39v20l-16 49q0 4 8 22l4 25q4 2 3 24t-1 23l6 29
l-6 63q0 8 5 39q6 36 -15 57q-6 23 1 49q14 54 71 57q18 1 26 3q10 3 49 -35v-31q0 -6 10 -18t8 -34q-2 -24 -8 -30q-6 -7 -20 -20q-4 -12 6 -61l4 -21q0 -4 -3 -15t-4 -17t1 -18q2 -11 0 -17l-4 -25l10 -25l-6 -39l6 -22l-8 -94l2 -21q2 -120 -4 -151l4 -37v-41l-2 -12
l2 -22l-4 -30l4 -34l-10 -31l6 -19v-34l4 -17q2 -4 -2 -30t11 -29q23 -6 55 29q33 35 42 41q53 37 69 76q7 16 15 22q7 6 33 18t47 35q20 23 24 30t5 9q4 4 15 10t20 25q8 20 26 30q17 11 26 18t24 14t29 7t26 -6q37 0 45 -4q35 -30 7 -58q-11 -11 -25 -30q-21 -27 -37 -33
t-23 -19q-8 -12 -12 -16t-8 -6t-7 -3q-25 -8 -44 -42q-3 -2 -15 -6t-16 -8q-4 -3 -8 -15q-7 -19 -32 -26q-25 -6 -31 -24q-14 -35 -34 -40q-2 -2 -6 -2h-6q-12 -8 -24 -25q-13 -17 -13 -27t19 -23q0 -17 14 -22q13 -5 21 -14t10 -12q9 -13 26 -22q14 -28 25 -32
q12 -5 19 -13t34 -41t36 -43t17 -16q11 -8 25 -24t22 -20q7 -6 11 -8q6 -4 16 -22t33 -29q10 -20 22 -24t17 -19q18 -29 19 -34t-3 -21q-4 -17 -5 -23t-3 -15t-22 -9q-19 0 -23 -2l-25 -8q-10 2 -23 16q-16 17 -29 20t-19 15t-10 15t-15 9q-10 6 -16 11q-4 6 -15 27t-22 26
q-13 7 -28 32q-16 25 -29 30t-18 11t-10 25q-5 20 -20 25q-14 4 -18 7q-8 6 -15 15t-16 15q-10 6 -13 9t-3 8q0 4 -6 10q-5 5 -25 30q0 14 -10 27q-13 6 -23 14t-13 8t-13 -10q-43 -12 -60 -35q-14 -27 -12 -48t-4 -42l8 -33l-8 -33q-2 -10 4 -22t6 -19l-6 -34
q16 -69 -6 -98q-23 -30 -55 -25z" />
    <glyph glyph-name="l" unicode="l" horiz-adv-x="399" 
d="M131 1366l-4 85l-2 38q1 43 53 52q18 3 22 6q5 3 13 0t10 -4t10 -7q7 -6 17 -12t12 -12t1 -21q-1 -17 3 -23t4 -10l-6 -24q-2 -4 -2 -37l2 -60l-6 -45q6 -6 6 -16v-53l4 -23q2 -8 -4 -26t-6 -25q8 -38 8 -55l-6 -41l8 -33v-37q-10 -45 -10 -47l10 -47q0 -8 -6 -23l8 -39
l-6 -69l10 -25v-22q-8 -16 -8 -23l2 -35l-4 -20l4 -37l-10 -53l8 -27q2 -2 -1 -10t-3 -47l6 -31q-10 -30 -10 -31q10 -41 2 -56t-7 -19t3 -10q2 -5 4 -9t4 -9t5 -10t0 -31t5 -50l-4 -56l4 -45v-20q0 -50 -49 -86q-14 -6 -36 1q-44 14 -52 62q0 6 -6 19t-4 57l10 37
q0 4 -5 13t-3 16l10 41l-2 65l4 23q5 40 -4 67v33l4 53l-14 31q10 60 10 74l-6 24l6 31q0 10 -6 16v33l6 31l-6 25l10 40q2 27 -6 54q-8 26 -4 80l6 18q-10 60 -10 78l4 39l-4 30q-2 59 0 74q2 14 0 43t2 33q0 17 8 33v78q-6 6 -6 18z" />
    <glyph glyph-name="m" unicode="m" horiz-adv-x="1470" 
d="M807 250l6 -107v-61q0 -29 -2 -31q-8 -33 -49 -51q-18 -8 -25 -8l-28 14q-24 0 -27 8q-4 8 -4 19l2 39l-6 21l4 22l-8 35q0 14 10 34q0 7 -6 21t-2 20l14 27q0 8 -9 26t-7 37l8 19q6 12 6 28l-14 60l8 24q2 2 -1 10q-3 7 -3 21q10 20 10 33l-4 38q0 5 1 32q1 28 -1 32
q-10 22 -10 50q-2 6 -13 17t-19 30q-12 26 -30 26h-14l-31 21h-16l-27 6q-4 0 -15 -1t-21 9q-11 10 -15 11q-3 1 -19 -10t-34 -18q-31 -12 -43 -38q-5 -4 -15 -7q-10 -2 -12 -4t-18 -28l-23 -35q-2 -4 -2 -9v-7q-4 -15 -14 -25t-10 -15t-3 -7l-12 -29q-4 -6 -2 -33t-1 -39
q-3 -13 0 -26t2 -18t-3 -9t-2 -8l4 -25l-4 -24l10 -41l-10 -45l10 -27q2 -14 -1 -61t4 -65q7 -16 9 -30t-12 -53v-6q0 -18 -32 -36q-32 -17 -37 -17t-9 2t-8 6t-18 11t-17 9q-2 2 -8 19l-12 28l2 23q-4 37 -2 45q2 7 2 27t2 30l8 23q0 13 -8 49v88l-4 32l8 28q2 6 1 24
t-1 27l6 16l-6 57l6 31l-10 29q-2 10 1 26t3 67v52q-2 30 -10 51q-4 45 25 70q28 25 58 21t52 -31q2 -2 3 -20t14 -17t32 15t29 19q11 6 25 16q13 11 31 14q20 3 31 10q11 6 23 5q13 -1 21 5t80 -4l24 4q26 -5 38 -16q13 -13 44 -20t45 -28t22 -28q8 -6 12 -8q3 -1 9 -9
t14 -15t17 -7q10 0 16 3t7 7q2 4 5 9t5 10q5 6 17 15q11 8 20 20q8 12 13 15t14 4q12 1 40 23q27 22 37 20q10 -1 14 0t7 3q4 2 7 4t7 2l41 6q4 0 37 -2h26l25 -8l20 -2q11 0 19 -4l20 -8q25 -8 31 -17q6 -10 20 -16q15 -6 56 -53q13 -6 18 -18q6 -11 8 -16t5 -7
q26 -26 26 -52t1 -29t5 -11t5 -11l-5 -33q0 -6 5 -16l-5 -35l5 -57l-5 -27l5 -20l-5 -33l5 -39q0 -4 -4 -14t-1 -17l9 -30q2 -4 -3 -12q-8 -13 -1 -27q2 -19 -2 -35t0 -30q6 -14 6 -17l-4 -60l8 -36q2 -5 -1 -15t-4 -27q-2 -36 -27 -59q-25 -24 -62 -13q-36 11 -43 28
q-6 20 -7 34l2 31q-10 30 -10 92q13 27 10 37q-10 70 -10 105q6 18 6 30l-4 21l10 31l-2 14l2 31q-8 8 -8 43l4 51l-2 22l6 25q-12 24 -12 49t-5 36t-20 26l-22 22q-2 2 -3 6q-5 21 -36 21l-68 14l-20 -4l-51 10q-8 -2 -16 -14q-12 -18 -28 -20t-28 -9q-4 -6 -14 -33
t-36 -46q-25 -19 -32 -29l-2 -17l-8 -26q-2 -8 -1 -22t-5 -38v-35q-10 -35 0 -75l-4 -29l12 -27l-8 -44v-27l-4 -16z" />
    <glyph glyph-name="n" unicode="n" horiz-adv-x="966" 
d="M258 187q4 -19 4 -78l2 -25v-12l-4 -15v-9q0 -20 -21 -38t-31 -19t-16 5q-9 7 -26 10q-16 3 -20 16q-3 13 -5 15l-10 26q-2 1 -1 7t1 8q-2 2 -4 8t-4 11t-2 9l6 23q2 0 2 53l4 21q2 18 0 56q-3 62 6 71l-6 43l10 39q0 4 -6 17t-6 34l2 76l-4 28l8 51l-4 25q0 8 1 43
q1 36 -3 66t-3 38t8 24q7 18 9 26q7 29 33 33q26 5 48 -15t24 -29l-8 -33q0 -5 7 -6q7 0 13 -4t17 5t28 29q27 33 51 40t35 17q15 14 36 13q21 -2 42 9q35 0 47 2q19 3 34 -5q16 -8 43 -6t44 -10t21 -14t9 -2t13 -8t19 -9q12 -1 15 -3t12 -16t17 -21q7 -6 10 -10
q7 -9 17 -15t13 -15t13 -23t9 -17l8 -27q0 -2 8 -14q11 -32 11 -63l6 -17l-9 -28q0 -7 9 -25q0 -63 -8 -79t-9 -23l17 -29l-6 -72q0 -8 6 -20q0 -20 -2 -76l6 -55l-4 -39l8 -25l-4 -47q14 -72 -37 -82q-9 -2 -23 -9t-22 -7t-20 10t-18 14q-17 10 -17 42l2 36v43q0 3 5 15
t3 18l-8 18l6 27l-6 33q-2 8 0 23t2 24l-2 49q0 4 4 14t2 17l-10 35l8 22l-4 31l8 39q3 9 -1 22q-3 14 -7 56q-5 42 -7 49q-2 6 -5 11t-5 9l-5 25q-5 25 -11 35q-6 6 -20 10t-19 7q-4 3 -13 13q-10 9 -14 13t-12 6q-11 3 -20 12t-15 2h-4q-6 -2 -22 -2l-15 6q-57 6 -67 -1
q-11 -7 -18 -12t-19 -11l-12 -2h-7q-17 -17 -25 -17t-12 -2t-7 -5t-5 -6t-5 -7t-5 -9q-6 -4 -28 -25t-21 -32l-2 -8q-14 -23 -17 -25q-10 -19 -9 -30q1 -10 -6 -64t-3 -117l8 -36q2 -7 -3 -17t-5 -14l6 -53l-6 -41l6 -33z" />
    <glyph glyph-name="o" unicode="o" horiz-adv-x="1144" 
d="M746 -2h-15l-41 -10q-6 -2 -17 -7t-17 -7t-13 -1q-8 0 -12 -2l-25 -8l-37 12l-28 -8l-33 10h-29l-16 7q-31 -2 -38 1t-33 20t-49 27q-24 10 -33 21q-9 10 -16 16t-30 7q-17 9 -23 19l-9 19q-3 7 -5 12t-10 12q-11 10 -13 18q-2 9 -13 16q-12 7 -16 24q-6 23 -15 30
q-8 7 -23 40q-10 34 -10 44q0 11 -2 14l-12 22q-2 6 -1 24t-1 27l-13 31q0 12 4 16q0 4 -1 16t7 29q8 16 6 36q-3 19 -1 25t9 19q10 17 13 40t16 35t14 23q4 37 27 50t30 32q8 19 21 24t17 9q9 18 14 23l41 29q53 38 57 40t18 4q21 2 37 12t36 12q20 1 33 6t14 6q2 1 20 -2
t37 -2q18 1 23 -1l31 4l18 -8h23l38 -10q4 0 18 1t20 -1q4 -1 22 -15t32 -21q27 -14 37 -30q5 -2 11 -4q9 -3 21 -15t21 -15q13 -5 22 -23q8 -18 14 -21t9 -7t14 -14t27 -36t25 -52t11 -31t5 -9q21 -28 29 -151l9 -29l-9 -25v-55l-10 -18q-4 -10 -16 -34t-14 -35
q-3 -11 -6 -16t-5 -9t-5 -8q-3 -6 -9 -24t-15 -28q-11 -20 -20 -25q-15 -9 -22 -21q-6 -12 -19 -22q-4 -2 -7 -4t-9 -5t-15 -17q-10 -14 -14 -20t-18 -9q-17 -5 -39 -25t-29 -22q-8 -2 -20 -2zM734 737q-11 6 -17 6t-25 14q-18 14 -33 12q-15 -1 -33 8t-25 9h-15l-11 -2h-38
q-7 -6 -13 -6t-16 4t-19 -3q-15 -10 -23 -7t-19 -10q-11 -14 -15 -19q-6 -2 -22 -7t-23 -11q-6 -2 -11 -12t-9 -15q-6 -4 -31 -18t-41 -41l-2 -16q-5 -7 -17 -23q-18 -24 -18 -36v-9q-16 -32 -15 -44q1 -11 1 -15q-10 -21 -11 -23l9 -24l-9 -25q1 -4 5 -16t5 -18t0 -18
q-1 -14 1 -18q6 -14 15 -26t9 -26q0 -15 8 -24q8 -10 22 -28t23 -27q9 -10 13 -19t17 -15q18 -9 26 -22q9 -13 33 -22q24 -8 37 -17q19 -13 31 -13t20 -5l12 -6t17 -1t18 1l18 -6h35l14 6h29q22 14 55 26q34 12 43 15q7 5 15 13t12 10t9 4t11 3t10 4t7 10q5 7 29 35t24 42
q25 25 25 37q0 11 5 21q12 22 10 41q-1 18 5 43l-4 41l10 24l-14 39q-2 6 -1 18t-1 18t-9 17q-12 17 -13 35t-11 26q-10 7 -13 9t-7 13t-15 17q-10 5 -21 17t-25 29t-22 18q-10 2 -21 8z" />
    <glyph glyph-name="p" unicode="p" horiz-adv-x="1067" 
d="M633 909l33 -8q15 0 25 -7q13 -10 24 -8t30 -15q23 -20 30 -22t31 -21q22 -19 30 -23t14 -13q6 -8 8 -14t14 -28t15 -26q4 -5 6 -9t5 -9q7 -12 7 -28t31 -47v-29q10 -37 10 -42v-14l8 -32q2 -14 0 -43t-2 -36t3 -44t-1 -47l-12 -39q-2 -4 0 -14q2 -11 1 -17
q-1 -9 -15 -22q-14 -14 -16 -30q-4 -29 -18 -45q-14 -17 -18 -28q-4 -12 -20 -20q0 -6 -12 -16q-12 -9 -25 -23q-12 -15 -18 -25t-16 -12q-16 -4 -21 -12q-6 -8 -35 -18q-2 -3 -6 -7q-8 -8 -14 -8h-11q-4 -2 -14 -10t-16 -8h-43l-23 10q0 -2 -22 -12t-39 -8l-19 8
q-4 2 -16 -2t-24 4l-15 10l-26 2h-11q-8 0 -18 7q-9 7 -33 11q-6 4 -15 12q-8 8 -14 12q-6 3 -14 3t-27 16t-28 11q-23 -20 -27 -29l4 -29q-13 -53 0 -106l-4 -16v-54q0 -11 8 -39l-8 -26l4 -35l10 -35q4 -41 -14 -64q-31 -40 -71 -20q-15 8 -26 8t-16 2q-4 4 -10 19l-8 22
v5l2 14l-2 28l4 25l-2 28l6 25l-8 27q-2 4 -1 31t1 30l4 31q2 12 1 39t-1 37l6 35q2 27 -2 45l-4 32l10 37q2 70 0 78l-10 25l6 24q4 33 4 62l-4 37q-3 6 -1 16t1 16l-6 31l6 47q-11 34 -6 70l10 55q2 33 -7 51q-9 19 -3 78l4 29l-8 22q-4 16 0 34t4 24q0 21 43 29
q43 9 60 0t22 -35q2 -2 1 -11t4 -12q5 -2 13 0t14 3t9 3q4 2 10 11t10 14q5 2 13 5q10 3 22 13q12 9 28 12t42 29q4 2 17 1t18 -1l18 10q14 2 40 0t37 0t66 -4zM258 371q-6 -23 -4 -36q3 -15 14 -31t12 -29t13 -25q14 -29 26 -41q5 -4 19 -10t20 -11q8 -17 15 -21
q6 -5 21 -14q19 -11 31 -27t36 -13q30 5 46 -2t28 -7h16l16 -4q4 0 31 8t41 9q25 4 36 18q11 15 30 25q20 10 28 16t12 8l7 14t4 9q41 51 59 102v15q13 13 11 30q-1 18 3 58t0 70q-4 28 -3 46t-1 24t-6 15t-4 17v20q-10 15 -18 23q-10 10 -16 26t-25 38t-23 29q-7 12 -22 18
t-21 12t-10 8t-14 4t-14 4t-10 6q-10 8 -17 8h-9q-4 0 -8 2l-39 9l-53 -15q-4 -2 -14 -1t-28 -3q-17 -4 -36 4l-20 -6l-17 4q-2 0 -9 -12t-19 -25q-3 -2 -13 -4q-12 -3 -16 -15q-3 -12 -15 -20q-22 -14 -23 -21t-12 -18q-10 -12 -13 -17q-4 -5 -2 -21t0 -21l-15 -37
q-2 -4 -1 -8t1 -7l2 -14q-2 -18 -2 -79t-6 -84z" />
    <glyph glyph-name="q" unicode="q" horiz-adv-x="1064" 
d="M801 -174l10 40q0 14 -10 54q0 8 8 45t0 52q-8 14 -8 18l4 24q-1 13 -21 13t-32 -11t-22 -15q-10 -3 -17 -7q-21 -19 -33 -22t-37 6q-6 -2 -17 -14t-22 -15l-20 2l-54 -19l-24 15l-23 -10q-6 0 -12 4t-16 10l-37 -2q-7 0 -22 10t-45 14q-31 4 -35 10q-4 7 -9 10
q-10 7 -22 6q-13 -2 -37 34q-4 4 -20 15t-23 33q-7 23 -32 45t-24 42t-7 31q-7 12 -8 20t-2 18t-9 22q-8 10 -10 16t-1 22t1 23q-13 26 -13 36l13 56l-4 32l4 23l-4 20l14 33l12 57q1 26 13 37q16 15 16 24v7q1 2 18 33q17 30 21 35q20 10 25 20q11 21 15 27t25 16
q60 53 71 53h17q13 0 45 21h23l20 8l19 -2l31 6q4 2 13 -1t29 -2t44 1h26q20 -10 24 -10h5q4 -2 33 -12q13 -13 30 -17q18 -4 24 -7t7 -6q5 -8 11 -10q4 -3 16 -13t18 -12q14 -6 32 30q18 37 34 37q2 0 8 -3t24 1t34 -7q18 -12 22 -22t4 -59l2 -21l-2 -24l4 -23l-4 -39v-29
l4 -20l-6 -33q-2 -8 0 -27t2 -26l-6 -25l8 -39l-2 -67l-6 -29l6 -18v-111l-2 -13v-5q0 -6 3 -18t4 -17q1 -6 -2 -17q-3 -10 -3 -12v-56l2 -35l-2 -50l8 -25q0 -25 -8 -57l4 -35l-4 -35l6 -26l-6 -35q0 -10 4 -24t5 -19q1 -6 -2 -16t-3 -15l-4 -47q0 -6 4 -28t-3 -32
q-7 -9 -21 -19t-19 -9l-21 4l-16 2h-8q-37 8 -47 45q-4 10 3 30t7 30q-10 20 -10 22l4 44zM240 508v-70l-4 -20l4 -41v-33l24 -52q0 -6 10 -32t28 -46q23 -28 36 -28h7q10 0 15 -13q4 -13 8 -16t14 -11q11 -8 19 -11q9 -2 15 -4t17 -3t20 -9q12 -10 22 -10h7l16 2h55
q12 0 22 10h21q30 10 51 10q6 2 23 19q4 2 16 5t20 16q9 13 26 27q18 14 18 31q24 23 24 33t12 27t14 26q3 8 2 30t-1 26l4 22l-4 31l10 33q2 20 -2 26l-8 19q-2 8 1 40q3 39 -15 57q-19 18 -21 28q-3 13 -10 20t-14 19t-10 16t-11 11t-10 11l-6 12q-7 16 -24 19t-26 16
t-18 17q-8 4 -30 2q-23 -2 -29 -1t-18 11q-19 17 -58 -2l-41 -2q-31 0 -72 -24q-4 0 -8 -6q-6 -8 -24 -14t-35 -32l-15 -14q-2 -4 -4 -12t-5 -11l-7 -7t-11 -12q-7 -7 -11 -24q-4 -21 -14 -31t-14 -29q-3 -18 -2 -32t1 -20z" />
    <glyph glyph-name="r" unicode="r" horiz-adv-x="651" 
d="M394 754q-7 0 -15 -10q-7 -10 -25 -16q-18 -7 -21 -13t-2 -21t-12 -21q-14 -5 -18 -7q0 -11 -15 -40t-13 -51q1 -22 1 -28l-6 -19v-51l-6 -24l6 -27q2 -20 -4 -42q6 -27 4 -48q-2 -22 0 -31l6 -31v-75l-6 -25l6 -33l-2 -24l7 -21q1 -56 -23 -80q-33 -34 -50 -25
q-16 9 -37 9q-34 0 -34 37l2 26l-2 103v59l-10 54l8 26l-6 41q0 4 3 11t5 13t1 11q-1 6 -6 16t-5 17l6 67l-6 49q-2 8 0 48l8 32l-8 23l6 24l-2 70v35l6 22q0 2 -6 14t-6 24q0 40 54 56t77 -30q16 -14 38 -12t30 18q64 37 81 35l17 -2q15 0 31 8l28 -10q34 -5 43 -15
q11 -13 36 -26q26 -13 26 -33q23 -47 -7 -74t-34 -28q-19 -12 -62 12t-71 24q-9 9 -16 9z" />
    <glyph glyph-name="s" unicode="s" horiz-adv-x="831" 
d="M417 789q-13 8 -21 8q-8 -1 -19 -9q-12 -8 -29 -7t-29 -8t-27 -14t-24 -18q-31 -23 -28 -57l8 -25q0 -6 2 -15t3 -15q4 -24 23 -34q19 -11 27 -26t23 -13q19 2 26 -8q8 -10 22 -8q13 1 34 -6t34 -17t32 -8q18 2 48 -20q71 -38 82 -39q10 -1 37 -22q6 -6 12 -19
q10 -23 29 -32q2 -4 4 -11q3 -10 15 -24t12 -35q0 -20 2 -26l12 -35q3 -8 -1 -24q-3 -17 -3 -27v-31l-8 -21q-2 -2 -1 -11t-10 -19q-12 -9 -14 -13q-4 -7 -4 -16q0 -16 -49 -49q-13 -26 -26 -32q-13 -5 -29 -4t-24 -1t-22 -13q-12 -11 -18 -15t-18 -2q-12 1 -19 -1l-18 -10
l-35 8l-39 -2q-21 10 -29 10t-24 -1q-16 0 -27 6t-18 6h-8l-57 16h-11q-6 0 -12 5t-14 11q-7 6 -9 11l-20 10q-35 27 -29 61q2 4 5 12t5 10q2 3 2 9v10q0 15 17 15h8t28 4t32 1q7 -3 26 -15q19 -11 29 -11h12q6 -2 15 -9q13 -10 30 -13q18 -3 28 -9q11 -6 17 -6l33 2
q28 -2 28 0l13 4h15q28 0 38 12t12 13q4 2 12 4t9 4q35 7 39 115l6 20q0 10 -16 26t-26 20q-11 5 -17 13q-7 9 -10 11t-11 2t-16 8t-20 8t-22 6t-14 9q-4 2 -12 2t-11 2t-6 5t-7 6t-9 9q-13 13 -47 13t-45 12q-19 0 -30 13t-15 17q-4 3 -18 9q-15 6 -29 17t-20 12
q-7 1 -17 12q-13 13 -15 27q-3 15 -17 20q-13 4 -17 6q-10 13 -8 37q3 39 -6 51q-10 13 -7 25q2 12 5 38q4 39 16 55t25 30q16 18 28 42q13 23 27 29q73 37 87 37q15 0 19 1q3 1 11 5t15 8t27 1q21 -2 33 5t60 -4h59l41 -20l18 -2q16 1 30 -15t30 -16q17 -6 27 -18
q14 -18 29 -28q14 -10 16 -22l-7 -40q-2 -20 -4 -22t-28 -14q-26 -11 -35 -11q-15 5 -29 12q-15 0 -24 6q-37 13 -39 19q-3 6 -9 12t-9 11q-12 20 -33 15q-21 -6 -27 -5t-19 2q-12 2 -25 10z" />
    <glyph glyph-name="t" unicode="t" horiz-adv-x="616" 
d="M358 354q0 -43 -4 -51v-27q0 -18 6 -24q0 -4 -1 -13t6 -18t5 -22q-3 -27 17 -27q4 -4 17 -20q13 -17 27 -17h18l24 -8q25 -8 29 -10q24 -21 20 -33t-7 -20q-5 -14 -5 -35t-21 -27q-10 -6 -22 -6l-53 2q-2 0 -14 -3t-18 -2q-5 1 -11 8q-9 11 -24 11q-34 0 -66 54
q-4 11 -15 16q-10 4 -13 7t-2 12q1 10 -11 34q-13 24 -13 35l-2 23q-10 10 -10 28l4 31l-8 31q6 26 4 82l-6 34q3 24 7 34q5 9 5 13l-6 27q-2 14 -1 44t1 44l-8 35q0 8 5 24t3 25l-10 21q0 10 11 26t10 24q-2 17 -15 23q-12 6 -15 9l-16 10h-18q-8 0 -14 4q-8 6 -21 6
q-14 0 -26 18q-13 18 -16 34t4 32q13 29 58 29q5 6 11 6t22 -2t21 2q26 11 17 49q-3 12 -3 18l6 31l-6 19v30l-14 45q0 9 8 23t6 24l-10 28q0 10 8 30q0 10 -2 20q-10 52 55 82q6 2 41 -4l21 -4q4 -4 7 -11t6 -11t8 -7q5 -4 14 -13t1 -28q-8 -20 -10 -22l4 -33l-8 -31l4 -24
q-9 -35 -4 -68l4 -37q0 -10 -6 -16l4 -25l-2 -28v-27q10 -20 68 -10l26 -6h19q20 0 46 -20t1 -44q-4 -4 -7 -13t-6 -14t-5 -10q-12 -12 -39 -12q-9 -10 -17 -10t-19 6q-28 15 -55 -37q-4 -6 -4 -15l2 -36l-6 -17v-24q-6 -21 -3 -34t3 -19l-2 -80q10 -30 10 -56l-12 -53z" />
    <glyph glyph-name="u" unicode="u" horiz-adv-x="985" 
d="M252 465l14 -25l-10 -39q-2 -47 2 -62t4 -42t4 -43t20 -47t17 -33q2 -2 16 -9t20 -21q7 -14 21 -12q13 1 17 -1t11 -10t13 -10q141 -20 217 47q6 6 17 23t24 27q13 11 19 25q6 15 21 28t18 42v51l14 39q2 12 -6 35t-8 31l2 15v104l8 30l-6 27q0 18 6 24l-10 37q-2 6 2 18
t4 19l-6 21q-2 6 -1 21q2 23 -5 32q-6 9 4 31l2 12q16 39 45 43q12 0 26 -4t29 -6q15 -1 21 -7t10 -11t5 -12t2 -9t1 -14v-11l2 -28l-4 -66l-2 -39l10 -39l-12 -37q0 -8 6 -26l-8 -37q0 -56 6 -80l-4 -41l6 -39l-6 -59l4 -27q0 -4 -9 -25t5 -51v-114q0 -13 6 -25l-6 -36
q0 -34 -37 -52q-16 -6 -42 3t-34 19t-10 16q-2 7 -5 12t-28 7l-2 2q-4 2 -6 2q-4 -2 -12 -12q-12 -15 -26 -19t-26 -16t-20 -14t-23 -3t-21 -3t-14 -10q-17 -15 -36 -6q-18 10 -37 6q-14 -9 -20 -9l-39 17q-6 2 -22 -8t-36 3q-19 13 -41 13l-32 20q-23 0 -37 18t-19 21
q-2 0 -18 12t-19 25q-5 18 -20 33t-18 20q-2 5 -3 20v17q0 22 -10 37q-10 14 -10 23l6 24l-16 47l6 27v49l10 29l-18 59l6 27q2 2 2 29l-6 48v15l16 35q0 1 -6 21t-4 38l8 23l-8 35q-2 4 -1 13t-2 29t-2 22q20 61 28 66t14 7t12 2t10 2q8 4 24 -3q15 -8 25 -10q9 -2 15 -8
q6 -4 14 -22l10 -21q2 -10 1 -15t-2 -15q-1 -11 -2 -15t-1 -26v-23q-10 -20 -10 -26l4 -45l-4 -48l4 -39l-4 -18l6 -29l-6 -20q-2 -4 -1 -15t1 -14zM862 1260v-9q-4 5 -2 9h2zM328 -397q-12 -8 -14 3t8 16q9 5 10 -9z" />
    <glyph glyph-name="v" unicode="v" horiz-adv-x="1009" 
d="M903 806v-7l-18 -30q-19 -29 -20 -43q-1 -13 -12 -28q-17 -22 -17 -30v-9q-2 -8 -14 -24t-13 -26q0 -16 -10 -28t-17 -23q-6 -11 -7 -21q-1 -9 -3 -15t-7 -9q-20 -12 -20 -38l-14 -33q0 -52 -33 -88q0 -2 -9 -13t-9 -44q-3 -14 -13 -27q-10 -14 -12 -20t-4 -15
q-2 -10 -4 -15t-11 -14q-16 -16 -24 -46q-8 -29 -16 -40q-13 -17 -11 -35q1 -18 -5 -31t-8 -15t-3 -9q-2 -6 -5 -10q-4 -4 -12 -25q-9 -20 -35 -26t-50 23q-2 2 -4 8t-14 25t-15 35q-2 16 -3 22t-4 8t-11 10q-4 12 -4 22t-2 14q-2 5 -7 10q-14 11 -14 29v14q0 15 -10 23
t-14 11q-2 6 -4 11q-1 4 -2 12t-3 13t-11 16q-14 17 -19 46t-35 64v7q0 13 -23 61l-12 18q-2 6 -1 19q2 21 -21 41q-23 21 -22 32t-1 15t-4 6t-4 5t-7 9t-12 33q-17 17 -21 39l-4 28q-1 6 -14 17q-24 14 -24 35q1 21 -11 27q-12 5 -15 10t-3 40t12 47t32 16q20 3 29 7t20 5
q11 0 37 -20t28 -22q4 -8 6 -35t15 -40q14 -13 18 -23t5 -18t3 -12l4 -6q4 -6 4 -15v-11l21 -38q0 -32 13 -44t17 -18q27 -64 29 -81q2 -16 12 -25q2 -6 2 -14v-15q2 -4 10 -14t10 -23q3 -12 23 -36q19 -24 22 -32t4 -17t1 -17t4 -13q21 -31 37 -27q31 8 41 54q2 4 3 17
t3 21t25 30q6 12 6 30q22 33 22 41q0 21 13 30t15 30q1 22 3 28l8 23q2 2 1 11t10 25q12 17 14 22t2 12q0 12 13 24t13 21v16q0 18 17 45t20 47q2 19 4 27t19 26q28 37 59 45l37 -6q2 -2 6 -8t19 -6q14 0 20 -4q18 -14 2 -74q-2 -2 -2 -7z" />
    <glyph glyph-name="w" unicode="w" horiz-adv-x="1474" 
d="M883 545l14 -36q-1 -6 13 -29t14 -35q0 -17 10 -23t16 -41q17 -35 25 -59q2 -21 6 -25q5 -4 21 -3t20 6t6 14q2 8 6 14t7 19q5 20 15 32t17 31q6 20 10 27q3 7 15 42t18 46t6 18l2 35q0 6 9 12q2 4 3 10t4 9q12 12 15 42t16 39q13 10 15 14t1 12q-1 7 0 10t2 7t3 7
q2 4 3 8q1 5 11 19t17 47q6 33 8 38q21 29 71 35h7q27 3 46 -11t21 -19t-1 -23t-3 -23q0 -6 -2 -8l-8 -22q0 -7 -11 -22t-13 -19t-3 -11q0 -6 -3 -12t-5 -8q-2 -3 -3 -7t-3 -7t-1 -14t-11 -25q-13 -13 -15 -17t-1 -13t-6 -27q-7 -19 -9 -21q-18 -22 -22 -45q-5 -23 -15 -43
t-14 -29q-4 -10 -10 -39q-7 -29 -11 -38t-12 -16t-8 -12q-12 -12 -12 -26t-14 -39t-19 -43q-7 -18 -11 -44q-6 -36 -26 -56q-21 -21 -19 -50t-6 -39q-10 -13 -10 -29v-16q-4 -14 -19 -28q-16 -14 -18 -16t-24 -1q-22 0 -24 2q-3 2 -32 39q-6 18 -7 26t-5 17q-4 8 -5 18
q-1 9 -2 15t-11 22q-10 17 -12 22t0 17q1 11 -2 17t-12 16q-15 17 -10 39t-9 34q-15 11 -18 16t-4 23t-10 31t-11 19t-1 19q1 18 -18 50q-20 32 -20 46v16q-3 7 -13 19q-14 18 -14 39q0 22 -18 28q-6 4 -12 1t-10 -3q-5 0 -18 -34q-12 -34 -26 -54q-11 -35 -27 -57
q0 -15 -10 -33t-10 -39l-11 -22q-10 -19 -10 -27t-9 -21q-17 -23 -17 -47l-14 -27q-2 -2 -1 -8q0 -6 -2 -12t-12 -21t-13 -21t-1 -17q5 -27 -15 -41q-4 -6 1 -25t-1 -25l-12 -12q-14 -12 -22 -35q-8 -22 -28 -22t-26 14q-7 17 -18 26q-10 9 -16 32q-5 24 -11 34
q-9 14 -11 46q-3 33 -13 45t-14 32t-15 32q-15 16 -17 32q-2 15 -20 40q-18 26 -18 55t-9 41q-9 11 -11 34t-23 45q-14 10 -16 16q-2 5 -3 23q0 18 -4 26l-14 15q-18 18 -18 45q-1 27 -11 38t-12 13t-18 37q-23 50 -23 69t-16 29q-17 10 -23 20t1 23q7 14 11 29t18 25
q13 11 23 12l17 -4q8 0 14 2q29 10 50 -12q38 -41 38 -83q10 -20 12 -30t4 -14l4 -8q7 -7 6 -18t5 -20q10 -14 10 -22q0 -9 9 -22t12 -21q4 -8 10 -30q9 -32 18 -46t18 -56q10 -42 22 -56q10 -13 14 -18t3 -16t-1 -17t8 -16t7 -20t2 -15t13 -12q16 -11 13 -25q-3 -13 7 -19
q11 -6 15 -6q16 4 25 45q10 20 14 20q9 18 13 39l4 26q1 3 11 16q11 13 14 25t7 15q8 16 12 40q3 24 7 31t7 10t17 40q16 40 26 51q9 11 9 45l31 82q0 6 2 8l14 31q0 4 -2 23t27 38q20 20 30 18q27 -7 47 -63v-13q0 -8 5 -26q2 -2 12 -11t9 -22q-2 -19 7 -34q8 -15 9 -25
t7 -18t17 -50t19 -51q10 -11 10 -19v-7z" />
    <glyph glyph-name="x" unicode="x" horiz-adv-x="976" 
d="M397 516q0 6 -2 10l-8 8l-8 8q-4 3 -9 6t-10 7l-10 20q-15 14 -18 23q-2 10 -4 12l-17 11q-4 4 -7 10t-5 8t-6 5t-7 7t-7 6q-13 22 -13 28q0 7 -2 9q-24 10 -32 18q-7 7 -7 20t-10 28t-25 20t-24 14q-8 9 -8 38q0 28 8 38t20 12l18 3q7 0 10 1t12 6t27 5q18 1 37 -17
t23 -21t6 -5l25 -45q2 -2 4 -5t5 -5t7 -18q3 -15 33 -45q30 -31 34 -47q5 -15 13 -22t18 -25q21 -39 43 -34q23 5 34 31q15 33 26 42q11 10 18 29q7 20 16 27q8 7 11 17q7 20 16 23q9 4 17 16t8 16v6q9 33 15 39t22 12t32 14t21 10q5 3 23 6t24 -1q41 -10 48 -41t-28 -61
q-34 -31 -40 -49t-11 -22q-5 -5 -17 -11q-12 -5 -15 -13q-4 -8 -10 -23q-9 -23 -31 -41q-21 -18 -21 -32q-10 -10 -15 -14t-15 -25t-27 -34q-12 -9 -16 -13q-19 -38 -13 -44q7 -5 12 -8t6 -6t3 -7q2 -5 3 -9q1 -5 11 -13t13 -15q4 -8 6 -11q4 -2 13 -3t12 -15q3 -13 25 -34
q22 -22 24 -33q3 -11 7 -14t9 -7q6 -4 8 -7t5 -7t7 -10t11 -8q8 -3 11 -7t6 -17q5 -20 38 -52t39 -46q7 -15 20 -37q4 -4 14 -10t11 -11q2 -5 2 -35t-15 -40q-68 -42 -135 29q-6 4 -25 14t-22 31q-7 42 -31 58t-27 28t-11 20q-13 14 -13 21v10l-14 19q-2 2 -10 14t-13 18
q-18 9 -21 15t-6 18t-16 14q-12 14 -12 23q0 28 -29 20q-8 -2 -12 -5t-8 -17t-8 -21q-18 -9 -32 -36q-15 -27 -33 -45q-27 -26 -27 -38v-7q-10 -25 -19 -33q-10 -8 -12 -8q-37 -40 -37 -53t-2 -20t-19 -19q-18 -14 -38 -42t-62 -28q-12 0 -24 6l-31 -2q-39 8 -35 39
q4 15 16 33q16 23 21 36q4 12 23 29q20 17 22 25q3 12 14 20q11 9 17 23t8 18q4 4 17 13t32 45q19 35 57 73q8 0 14 14q5 14 5 17q6 6 16 24t21 28t13 17q1 7 3 9t7 8t10 11t-2 20q-7 14 -7 20z" />
    <glyph glyph-name="y" unicode="y" 
d="M76 -310l10 36q0 6 1 9q17 52 72 25q25 -11 46 -22q21 -10 31 -10t26 14t24 18t27 24t22 35t4 21q2 12 28 43q12 23 22 49t21 41q10 35 10 82v31q-5 24 -18 37q-12 13 -15 28q-2 15 -5 21t-11 19q-7 13 -11 19t-5 16q-1 8 -4 14q-8 14 -15 22q-8 8 -13 31t-15 34
q-11 11 -15 23t-8 22t-4 13l-9 39q-10 20 -10 26v11q0 16 -9 27q-9 12 -10 19t-12 12q-10 5 -9 23q2 17 -10 32t-32 63q0 4 1 14q1 9 -2 15t-23 18q-16 -32 -22 -8q-2 9 10 34q13 24 2 35t-15 21q-41 76 4 106q5 4 17 8q21 6 27 12q7 7 26 -11q49 -24 54 -56q3 -21 11 -27
t7 -25t9 -32q9 -12 11 -17t3 -9t2 -9q1 -4 3 -8t4 -7t5 -7t3 -8l9 -41l14 -23q0 -38 18 -63q18 -24 22 -32q3 -8 6 -24t9 -23t7 -11q2 -5 4 -15t4 -14t5 -9t7 -10q7 -9 10 -22t15 -37q13 -24 21 -57q9 -33 27 -40q19 -7 26 9q15 35 21 56t16 40q11 19 13 25q0 6 4 15
q3 9 9 30t9 26t8 11q7 8 7 19v12l8 22q2 2 2 6v6q4 8 14 22q12 18 15 39q3 20 14 39q11 20 11 25v9q27 40 25 55q-1 14 1 18q0 3 6 11q8 9 11 28t13 31q11 13 10 22t1 13q9 24 95 41l20 -8q34 -14 30 -39q-1 -6 -6 -22l-8 -32t-15 -40t-19 -33t-12 -29t-6 -28q-3 -8 -12 -25
q-9 -15 -11 -19t-4 -15t-8 -16q-5 -5 -7 -9t-5 -7q-7 -9 -7 -41t-22 -63t-25 -40q-4 -9 -4 -28q-1 -19 -11 -31t-12 -18t-4 -17q-2 -12 -4 -16l-12 -20q-2 -5 -1 -13t-6 -20t-19 -27q-12 -13 -19 -35q-9 -22 -9 -24t1 -12t-2 -16t-12 -19q-9 -15 -11 -21t-1 -15t-2 -13
t-8 -12t-12 -18q-7 -9 -5 -21q1 -13 0 -18t-8 -15t-7 -17q-10 -10 -10 -34q-19 -38 -24 -52t-17 -33t-19 -44q-8 -33 -18 -43v-11q0 -16 -37 -53q-6 -12 -6 -22q-29 -45 -41 -51q-11 -6 -25 -7q-14 -2 -19 -5t-9 -6t-19 -9l-16 -13q-5 -2 -17 2t-17 3t-17 -6q-27 -11 -48 0
t-34 13q-68 14 -68 66q-12 12 -12 22z" />
    <glyph glyph-name="z" unicode="z" horiz-adv-x="974" 
d="M289 885l45 4l31 -10l59 2q52 -13 67 -7q15 7 19 7t33 -7l35 7l22 -2l16 6l29 -6q10 -2 37 0l37 10l35 -8l60 4q35 0 52 -24q18 -24 -20 -81q-2 -4 -6 -14t-17 -12q-12 -2 -19 -6t-18 -25q-14 -37 -16 -39q-5 -5 -15 -9t-25 -26q-14 -22 -28 -32q-23 -17 -30 -39
q-7 -21 -23 -26t-19 -9t-3 -18q1 -14 -9 -22q-10 -7 -16 -13q-10 -11 -16 -23t-18 -18q-13 -7 -15 -10q-31 -46 -39 -53q-8 -6 -8 -19q-4 -6 -15 -19t-17 -27q-7 -14 -11 -21q-3 -7 -17 -15q-19 -11 -26 -28q-7 -16 -18 -26q-16 -15 -22 -24q-5 -9 -16 -18q-12 -9 -22 -19
t0 -23q8 -23 16 -24l33 4l45 -2q2 0 10 4t13 2l28 -8q13 0 47 6t50 4l28 -10q8 -2 20 4t17 6l25 -6l20 6q6 2 24 1t28 -1t22 6q51 5 74 -22q2 0 9 -7q7 -8 10 -14t-5 -30v-17q-12 -35 -47 -49t-49 -10l-25 10l-41 -4l-35 12l-24 -8q-4 -2 -12 1q-7 3 -11 3h-12q-6 -2 -9 -2
l-20 4l-22 -8q-20 -2 -49 6q-26 -6 -66 -6l-47 12l-20 -4l-25 4q-6 -6 -14 -6l-31 2l-41 -6q-6 -2 -18 -1t-48 0t-50 2q-13 3 -22 4t-14 3q-18 12 -8 55l2 13q9 16 21 20t17 8t10 18t10 19q36 36 44 51t11 20q4 5 19 16q23 17 31 38t25 32t23 17q2 3 2 9v10q2 8 15 22
q2 6 12 12q14 8 18 21q4 14 15 23q12 8 16 12t10 17q10 22 33 41t37 44t20 28q16 8 25 30q4 2 8 5t8 5t8 6q8 10 11 21t6 18q6 6 17 14q17 13 20 22q2 9 22 29t16 29q-4 11 -12 19t-14 8l-20 -4h-70l-33 10q-31 -14 -45 -15t-49 15q-2 0 -13 -6q-10 -6 -22 -8t-38 0t-58 0
t-51 8q-20 10 -25 16q-10 28 -12 31q-12 31 27 59q12 9 34 14q23 5 27 5l20 -6q9 0 15 6z" />
    <glyph glyph-name="dieresis" unicode="&#xa8;" horiz-adv-x="618" 
d="M266 1161l6 -39q0 -2 -4 -15t-3 -21t-1 -9q-10 -35 -47 -47q-53 -18 -79 44q-3 7 -8 12t-5 10q-4 4 -2 23t0 24l-6 35l10 26q2 4 5 17t9 22t32 19q25 10 59 -10t41 -36q7 -17 0 -34t-7 -21zM348 1144q0 6 -4 15q-4 10 -2 19l10 26q2 4 6 18t9 22t30 18t59 -10t38 -27
q10 -23 4 -43l-9 -21l9 -39q0 -2 -9 -26v-19q-12 -35 -50 -48t-72 34q-2 2 -6 10q-3 7 -4 11t-6 9t-4 25t1 26z" />
    <glyph glyph-name="Agrave" unicode="&#xc0;" horiz-adv-x="1421" 
d="M479 1052q0 10 17 25v12q0 15 10 25l7 28q7 28 14 37q22 29 22 48q10 27 10 42t11 31q11 15 14 20q2 5 7 29t16 37t14 19q0 30 14 46t15 32q2 22 5 32q4 9 7 22t14 25q12 15 17 24q22 36 55 -12q11 -17 22 -27t13 -15q1 -6 1 -28t6 -36t14 -27q9 -13 11 -19t1 -11
q-1 -6 1 -8l8 -25q2 -2 1 -7q-2 -8 7 -18t9 -42q2 -7 10 -17t10 -13t3 -13q1 -14 13 -29q11 -15 11 -23v-12l14 -36q-1 -8 9 -27t13 -23q5 -7 5 -15t8 -21t9 -21q1 -9 10 -21q12 -17 24 -72q13 -55 19 -60t10 -14t12 -38t11 -37t11 -17q7 -8 6 -14t1 -10l4 -16v-27
q2 -4 10 -8t10 -8t1 -14t-1 -17q3 -6 13 -18q14 -17 14 -28v-11q10 -11 12 -15t9 -19t9 -29t2 -18q1 -5 4 -9q3 -5 5 -9t5 -8q7 -10 14 -39t13 -38l15 -21q2 -4 3 -14t3 -16t11 -19q14 -19 14 -35t9 -25q13 -15 11 -33q-2 -19 21 -42q0 -2 9 -10q13 -12 13 -26v-11
q2 -5 4 -11t7 -14t6 -24q2 -16 7 -20q5 -5 6 -7q1 -1 3 -9t4 -11t5 -10t11 -23q2 -25 -12 -49q-38 -66 -127 6q-25 18 -28 25q-3 8 -3 24t-2 20l-11 22q-15 28 -14 36q1 11 -5 20q-7 9 -6 21q2 16 -12 34q-13 18 -13 36l-8 38q0 4 2 11q4 13 -10 20q-13 8 -10 18t7 21t-6 12
q-10 2 -20 12t-11 36q-2 27 -4 29t-34 10q-32 7 -36 6q-52 -17 -61 -9l-10 10q-10 2 -27 -2t-26 -4h-21l-16 -4q-12 6 -35 6l-30 -6l-60 16l-33 -12l-22 10q-11 2 -23 -4t-20 -6l-25 10q-10 2 -25 -3t-22 -7l-39 14l-51 -14q-2 0 -14 4t-15 -2q-4 -2 -4 -5v-7l-14 -33
q-2 -2 -1 -11t-1 -13q-5 -12 -13 -20t-10 -21q-4 -21 -18 -50v-16l-10 -25q0 -33 -12 -54q-16 -29 -14 -46q1 -17 -13 -28q-13 -11 -17 -18t-2 -26t-8 -33q-13 -18 -17 -32q-12 -41 -62 -38t-70 25q-21 22 -21 29q0 6 12 37l7 27q0 19 12 33q13 16 15 38q2 23 26 47t21 43
t0 25t18 23t12 39t19 53t22 44t2 15q0 2 14 23q0 18 4 26l7 14l5 15q3 8 13 44t20 47q11 11 13 18t9 27t7 34q0 15 16 40t20 31q3 6 4 18t2 22q0 10 12 20t15 18q11 29 16 60t18 42q16 14 16 42q8 16 8 19zM764 598h29q4 0 16 6h45q25 0 27 -2l28 -8q17 -4 31 3t17 12
q11 18 3 35t-13 45q-5 29 -40 89v10q0 10 -11 24t-10 28q2 14 -9 29t-13 22v29l-10 15q0 3 1 13q2 17 -14 25t-16 26q0 19 -4 25q0 6 -8 14q0 23 -11 37q-12 15 -14 19t-2 9t-2 9t-5 8t-7 8t-4 9q-6 9 -6 22t-17 47v14q0 23 -23 34t-32 -15q-2 -6 -5 -19q-5 -21 -21 -48
t-14 -41q2 -20 -5 -28q-6 -8 -6 -16v-10q-2 -8 -13 -17q-10 -8 -12 -14t-1 -15t-2 -15l-11 -22q-12 -22 -12 -27q0 -4 -2 -6l-15 -35v-6q-12 -12 -13 -39q-2 -28 -15 -41t-13 -21v-10q-4 -32 -18 -41q-9 -19 -14 -34q-4 -15 -13 -27q-12 -18 -12 -29v-10q-12 -46 -9 -56
q4 -10 26 -15t28 -3l33 6q4 0 14 -2q2 -8 41 -4t41 4l68 -4q31 4 49 4zM621 2040l28 10l23 2q7 0 23 -22q15 -22 18 -41q2 -19 7 -28t7 -13t6 -8t6 -8q3 -3 9 -12l16 -24q6 -4 12 -14t18 -16q12 -7 14 -16q3 -9 4 -11t5 -5t5 -4t3 -7t5 -8q2 -1 6 -9t8 -10q31 -14 39 -33
v-22l2 -4v-8q-3 -8 -9 -13q-6 -4 -10 -9t-13 -12t-29 -1q-21 6 -27 7q-7 1 -13 4t-14 10t-12 10t-10 9l-10 10t-6 8t-3 7q-2 2 -10 5t-10 8q-22 20 -25 28q-3 9 -23 20t-21 24t-10 27t-15 19q-5 6 -3 13t-17 31q-18 24 -20 36l-8 17q-6 23 19 30q6 1 16 11t19 12z" />
    <glyph glyph-name="Aacute" unicode="&#xc1;" horiz-adv-x="1421" 
d="M479 1052q0 10 17 25v12q0 15 10 25l7 28q7 28 14 37q22 29 22 48q10 27 10 42t11 31q11 15 14 20q2 5 7 29t16 37t14 19q0 30 14 46t15 32q2 22 5 32q4 9 7 22t14 25q12 15 17 24q22 36 55 -12q11 -17 22 -27t13 -15q1 -6 1 -28t6 -36t14 -27q9 -13 11 -19t1 -11
q-1 -6 1 -8l8 -25q2 -2 1 -7q-2 -8 7 -18t9 -42q2 -7 10 -17t10 -13t3 -13q1 -14 13 -29q11 -15 11 -23v-12l14 -36q-1 -8 9 -27t13 -23q5 -7 5 -15t8 -21t9 -21q1 -9 10 -21q12 -17 24 -72q13 -55 19 -60t10 -14t12 -38t11 -37t11 -17q7 -8 6 -14t1 -10l4 -16v-27
q2 -4 10 -8t10 -8t1 -14t-1 -17q3 -6 13 -18q14 -17 14 -28v-11q10 -11 12 -15t9 -19t9 -29t2 -18q1 -5 4 -9q3 -5 5 -9t5 -8q7 -10 14 -39t13 -38l15 -21q2 -4 3 -14t3 -16t11 -19q14 -19 14 -35t9 -25q13 -15 11 -33q-2 -19 21 -42q0 -2 9 -10q13 -12 13 -26v-11
q2 -5 4 -11t7 -14t6 -24q2 -16 7 -20q5 -5 6 -7q1 -1 3 -9t4 -11t5 -10t11 -23q2 -25 -12 -49q-38 -66 -127 6q-25 18 -28 25q-3 8 -3 24t-2 20l-11 22q-15 28 -14 36q1 11 -5 20q-7 9 -6 21q2 16 -12 34q-13 18 -13 36l-8 38q0 4 2 11q4 13 -10 20q-13 8 -10 18t7 21t-6 12
q-10 2 -20 12t-11 36q-2 27 -4 29t-34 10q-32 7 -36 6q-52 -17 -61 -9l-10 10q-10 2 -27 -2t-26 -4h-21l-16 -4q-12 6 -35 6l-30 -6l-60 16l-33 -12l-22 10q-11 2 -23 -4t-20 -6l-25 10q-10 2 -25 -3t-22 -7l-39 14l-51 -14q-2 0 -14 4t-15 -2q-4 -2 -4 -5v-7l-14 -33
q-2 -2 -1 -11t-1 -13q-5 -12 -13 -20t-10 -21q-4 -21 -18 -50v-16l-10 -25q0 -33 -12 -54q-16 -29 -14 -46q1 -17 -13 -28q-13 -11 -17 -18t-2 -26t-8 -33q-13 -18 -17 -32q-12 -41 -62 -38t-70 25q-21 22 -21 29q0 6 12 37l7 27q0 19 12 33q13 16 15 38q2 23 26 47t21 43
t0 25t18 23t12 39t19 53t22 44t2 15q0 2 14 23q0 18 4 26l7 14l5 15q3 8 13 44t20 47q11 11 13 18t9 27t7 34q0 15 16 40t20 31q3 6 4 18t2 22q0 10 12 20t15 18q11 29 16 60t18 42q16 14 16 42q8 16 8 19zM764 598h29q4 0 16 6h45q25 0 27 -2l28 -8q17 -4 31 3t17 12
q11 18 3 35t-13 45q-5 29 -40 89v10q0 10 -11 24t-10 28q2 14 -9 29t-13 22v29l-10 15q0 3 1 13q2 17 -14 25t-16 26q0 19 -4 25q0 6 -8 14q0 23 -11 37q-12 15 -14 19t-2 9t-2 9t-5 8t-7 8t-4 9q-6 9 -6 22t-17 47v14q0 23 -23 34t-32 -15q-2 -6 -5 -19q-5 -21 -21 -48
t-14 -41q2 -20 -5 -28q-6 -8 -6 -16v-10q-2 -8 -13 -17q-10 -8 -12 -14t-1 -15t-2 -15l-11 -22q-12 -22 -12 -27q0 -4 -2 -6l-15 -35v-6q-12 -12 -13 -39q-2 -28 -15 -41t-13 -21v-10q-4 -32 -18 -41q-9 -19 -14 -34q-4 -15 -13 -27q-12 -18 -12 -29v-10q-12 -46 -9 -56
q4 -10 26 -15t28 -3l33 6q4 0 14 -2q2 -8 41 -4t41 4l68 -4q31 4 49 4zM586 1729l2 12v22q8 18 39 33q4 2 7 9t6 9t5 9q2 6 3 7t5 4q5 4 8 13q1 11 9 15q7 4 16 12q8 8 11 12t6 7t5 7t6 7q3 4 9 13q10 15 14 19q4 5 6 9t8 13q5 9 7 31t33 56q2 4 8 4l22 -2l29 -10
q8 -2 18 -11t17 -12q25 -8 18 -30l-8 -17q-2 -12 -17 -32q-16 -20 -18 -28q-2 -7 -1 -10q1 -2 -3 -8t-11 -16t-10 -14t-5 -14q-2 -17 -19 -27q-18 -9 -22 -15q-3 -6 -7 -12q-15 -23 -29 -29q-13 -6 -15 -10q-2 -7 -23 -28t-34 -24t-21 -5q-41 -11 -51 2t-15 18q-6 4 -8 11z
" />
    <glyph glyph-name="Acircumflex" unicode="&#xc2;" horiz-adv-x="1421" 
d="M479 1052q0 10 17 25v12q0 15 10 25l7 28q7 28 14 37q22 29 22 48q10 27 10 42t11 31q11 15 14 20q2 5 7 29t16 37t14 19q0 30 14 46t15 32q2 22 5 32q4 9 7 22t14 25q12 15 17 24q22 36 55 -12q11 -17 22 -27t13 -15q1 -6 1 -28t6 -36t14 -27q9 -13 11 -19t1 -11
q-1 -6 1 -8l8 -25q2 -2 1 -7q-2 -8 7 -18t9 -42q2 -7 10 -17t10 -13t3 -13q1 -14 13 -29q11 -15 11 -23v-12l14 -36q-1 -8 9 -27t13 -23q5 -7 5 -15t8 -21t9 -21q1 -9 10 -21q12 -17 24 -72q13 -55 19 -60t10 -14t12 -38t11 -37t11 -17q7 -8 6 -14t1 -10l4 -16v-27
q2 -4 10 -8t10 -8t1 -14t-1 -17q3 -6 13 -18q14 -17 14 -28v-11q10 -11 12 -15t9 -19t9 -29t2 -18q1 -5 4 -9q3 -5 5 -9t5 -8q7 -10 14 -39t13 -38l15 -21q2 -4 3 -14t3 -16t11 -19q14 -19 14 -35t9 -25q13 -15 11 -33q-2 -19 21 -42q0 -2 9 -10q13 -12 13 -26v-11
q2 -5 4 -11t7 -14t6 -24q2 -16 7 -20q5 -5 6 -7q1 -1 3 -9t4 -11t5 -10t11 -23q2 -25 -12 -49q-38 -66 -127 6q-25 18 -28 25q-3 8 -3 24t-2 20l-11 22q-15 28 -14 36q1 11 -5 20q-7 9 -6 21q2 16 -12 34q-13 18 -13 36l-8 38q0 4 2 11q4 13 -10 20q-13 8 -10 18t7 21t-6 12
q-10 2 -20 12t-11 36q-2 27 -4 29t-34 10q-32 7 -36 6q-52 -17 -61 -9l-10 10q-10 2 -27 -2t-26 -4h-21l-16 -4q-12 6 -35 6l-30 -6l-60 16l-33 -12l-22 10q-11 2 -23 -4t-20 -6l-25 10q-10 2 -25 -3t-22 -7l-39 14l-51 -14q-2 0 -14 4t-15 -2q-4 -2 -4 -5v-7l-14 -33
q-2 -2 -1 -11t-1 -13q-5 -12 -13 -20t-10 -21q-4 -21 -18 -50v-16l-10 -25q0 -33 -12 -54q-16 -29 -14 -46q1 -17 -13 -28q-13 -11 -17 -18t-2 -26t-8 -33q-13 -18 -17 -32q-12 -41 -62 -38t-70 25q-21 22 -21 29q0 6 12 37l7 27q0 19 12 33q13 16 15 38q2 23 26 47t21 43
t0 25t18 23t12 39t19 53t22 44t2 15q0 2 14 23q0 18 4 26l7 14l5 15q3 8 13 44t20 47q11 11 13 18t9 27t7 34q0 15 16 40t20 31q3 6 4 18t2 22q0 10 12 20t15 18q11 29 16 60t18 42q16 14 16 42q8 16 8 19zM764 598h29q4 0 16 6h45q25 0 27 -2l28 -8q17 -4 31 3t17 12
q11 18 3 35t-13 45q-5 29 -40 89v10q0 10 -11 24t-10 28q2 14 -9 29t-13 22v29l-10 15q0 3 1 13q2 17 -14 25t-16 26q0 19 -4 25q0 6 -8 14q0 23 -11 37q-12 15 -14 19t-2 9t-2 9t-5 8t-7 8t-4 9q-6 9 -6 22t-17 47v14q0 23 -23 34t-32 -15q-2 -6 -5 -19q-5 -21 -21 -48
t-14 -41q2 -20 -5 -28q-6 -8 -6 -16v-10q-2 -8 -13 -17q-10 -8 -12 -14t-1 -15t-2 -15l-11 -22q-12 -22 -12 -27q0 -4 -2 -6l-15 -35v-6q-12 -12 -13 -39q-2 -28 -15 -41t-13 -21v-10q-4 -32 -18 -41q-9 -19 -14 -34q-4 -15 -13 -27q-12 -18 -12 -29v-10q-12 -46 -9 -56
q4 -10 26 -15t28 -3l33 6q4 0 14 -2q2 -8 41 -4t41 4l68 -4q31 4 49 4zM723 1824q-2 3 -8 3q-6 -1 -4 -13t-2 -17q-3 -5 -23 -15t-20 -25l-21 -20q-2 -2 -10 -6q-8 -5 -10 -7t-3 -5q-2 -7 -16 -19t-24 -21t-20 -12q-10 -2 -18 -4q-37 -11 -50 3t-25 28v8q2 2 2 8v19
q8 18 39 32q4 2 7 9q3 8 6 10t5 8t8 10q5 4 6 6t3 10t4 9q2 2 7 5q13 8 22 20l15 20q7 8 15 20t12 16t7 9q2 4 7 13t7 31t33 56q4 4 33 2l26 4q27 -4 33 -11q27 -31 29 -52q2 -20 7 -30t7 -12q2 -3 3 -5t4 -5t10 -15t16 -21q10 -10 13 -16q9 -16 21 -22q12 -7 14 -15
q3 -9 4 -11t5 -5t5 -4t3 -7t5 -8q2 -2 6 -10t8 -9q31 -14 39 -32v-23l2 -12q-18 -21 -21 -24q-2 -3 -11 -10t-29 -1q-21 6 -27 7q-14 2 -36 22q-23 20 -27 28t-14 13q-9 4 -11 7l-7 7t-7 8t-7 6q0 15 -20 25t-24 16t-2 14t-1 12z" />
    <glyph glyph-name="Adieresis" unicode="&#xc4;" horiz-adv-x="1421" 
d="M479 1052q0 10 17 25v12q0 15 10 25l7 28q7 28 14 37q22 29 22 48q10 27 10 42t11 31q11 15 14 20q2 5 7 29t16 37t14 19q0 30 14 46t15 32q2 22 5 32q4 9 7 22t14 25q12 15 17 24q22 36 55 -12q11 -17 22 -27t13 -15q1 -6 1 -28t6 -36t14 -27q9 -13 11 -19t1 -11
q-1 -6 1 -8l8 -25q2 -2 1 -7q-2 -8 7 -18t9 -42q2 -7 10 -17t10 -13t3 -13q1 -14 13 -29q11 -15 11 -23v-12l14 -36q-1 -8 9 -27t13 -23q5 -7 5 -15t8 -21t9 -21q1 -9 10 -21q12 -17 24 -72q13 -55 19 -60t10 -14t12 -38t11 -37t11 -17q7 -8 6 -14t1 -10l4 -16v-27
q2 -4 10 -8t10 -8t1 -14t-1 -17q3 -6 13 -18q14 -17 14 -28v-11q10 -11 12 -15t9 -19t9 -29t2 -18q1 -5 4 -9q3 -5 5 -9t5 -8q7 -10 14 -39t13 -38l15 -21q2 -4 3 -14t3 -16t11 -19q14 -19 14 -35t9 -25q13 -15 11 -33q-2 -19 21 -42q0 -2 9 -10q13 -12 13 -26v-11
q2 -5 4 -11t7 -14t6 -24q2 -16 7 -20q5 -5 6 -7q1 -1 3 -9t4 -11t5 -10t11 -23q2 -25 -12 -49q-38 -66 -127 6q-25 18 -28 25q-3 8 -3 24t-2 20l-11 22q-15 28 -14 36q1 11 -5 20q-7 9 -6 21q2 16 -12 34q-13 18 -13 36l-8 38q0 4 2 11q4 13 -10 20q-13 8 -10 18t7 21t-6 12
q-10 2 -20 12t-11 36q-2 27 -4 29t-34 10q-32 7 -36 6q-52 -17 -61 -9l-10 10q-10 2 -27 -2t-26 -4h-21l-16 -4q-12 6 -35 6l-30 -6l-60 16l-33 -12l-22 10q-11 2 -23 -4t-20 -6l-25 10q-10 2 -25 -3t-22 -7l-39 14l-51 -14q-2 0 -14 4t-15 -2q-4 -2 -4 -5v-7l-14 -33
q-2 -2 -1 -11t-1 -13q-5 -12 -13 -20t-10 -21q-4 -21 -18 -50v-16l-10 -25q0 -33 -12 -54q-16 -29 -14 -46q1 -17 -13 -28q-13 -11 -17 -18t-2 -26t-8 -33q-13 -18 -17 -32q-12 -41 -62 -38t-70 25q-21 22 -21 29q0 6 12 37l7 27q0 19 12 33q13 16 15 38q2 23 26 47t21 43
t0 25t18 23t12 39t19 53t22 44t2 15q0 2 14 23q0 18 4 26l7 14l5 15q3 8 13 44t20 47q11 11 13 18t9 27t7 34q0 15 16 40t20 31q3 6 4 18t2 22q0 10 12 20t15 18q11 29 16 60t18 42q16 14 16 42q8 16 8 19zM764 598h29q4 0 16 6h45q25 0 27 -2l28 -8q17 -4 31 3t17 12
q11 18 3 35t-13 45q-5 29 -40 89v10q0 10 -11 24t-10 28q2 14 -9 29t-13 22v29l-10 15q0 3 1 13q2 17 -14 25t-16 26q0 19 -4 25q0 6 -8 14q0 23 -11 37q-12 15 -14 19t-2 9t-2 9t-5 8t-7 8t-4 9q-6 9 -6 22t-17 47v14q0 23 -23 34t-32 -15q-2 -6 -5 -19q-5 -21 -21 -48
t-14 -41q2 -20 -5 -28q-6 -8 -6 -16v-10q-2 -8 -13 -17q-10 -8 -12 -14t-1 -15t-2 -15l-11 -22q-12 -22 -12 -27q0 -4 -2 -6l-15 -35v-6q-12 -12 -13 -39q-2 -28 -15 -41t-13 -21v-10q-4 -32 -18 -41q-9 -19 -14 -34q-4 -15 -13 -27q-12 -18 -12 -29v-10q-12 -46 -9 -56
q4 -10 26 -15t28 -3l33 6q4 0 14 -2q2 -8 41 -4t41 4l68 -4q31 4 49 4zM680 1798l-6 -36q0 -6 -2 -9q-10 -35 -47 -47q-40 -15 -74 33q-2 2 -5 10t-4 11l-8 8t-4 26t2 25l-8 34l13 27q0 16 12 37q8 10 33 20t58 -9t38 -27q10 -23 4 -43l-8 -21zM899 1837l6 -39q0 -2 -4 -16
t-3 -20t-1 -11q-12 -33 -51 -46t-70 34q-5 5 -6 11q-2 7 -7 12t-5 10q-4 2 -2 22t0 25l-6 34l10 27q2 2 6 16t9 22t31 19q26 10 60 -9t40 -36q7 -17 0 -34t-7 -21z" />
    <glyph glyph-name="Ccedilla" unicode="&#xc7;" horiz-adv-x="1517" 
d="M967 -276q0 -4 -25 -46q0 -16 -27 -34q-4 -9 -16 -17l-12 -2l-10 -10h-11q-10 0 -15 -5t-9 -5l-31 -2q-43 -9 -51 -9l-12 5l-21 -2l-28 14h-13q-15 0 -22 8q-6 8 -8 10t-9 4q-6 1 -9 3t-4 5t-3 5t-5 3t-5 3t-5 2q-8 8 -8 22t8 20q31 25 50 -2q7 -11 16 -11q0 -5 8 -13
l8 -2q8 -8 13 -8l24 -10h13l8 -2h10l8 -2h6l2 2q19 0 25 2t13 3q6 1 14 4t12 6q6 5 15 6t12 10q3 8 5 10t6 4q3 2 5 5t2 5q0 1 7 15t8 15t-1 5t-1 6t3 5t2 5v42q0 4 -8 16l4 14q0 8 -9 22t-15 14q-6 1 -6 9q-1 7 -11 13l-45 28l-16 -2h-6q-10 0 -15 3q-4 3 -2 11t8 10t5 6
q-2 3 -1 8t-1 7q-10 5 -22 4q-11 -2 -11 0h-33l-29 4l-24 -4q-12 2 -39 25h-13q-14 0 -30 11q-23 16 -41 14t-35 18t-36 21t-36 22q-18 21 -39 27q-26 8 -34 22q-11 18 -37 41t-32 37q-11 23 -30 35q-18 12 -18 30l-2 17q-7 7 -17 11q-13 6 -16 25q-4 19 -18 34t-17 34
q-2 18 -16 51q-16 37 -29 52t-2 55q-2 4 -9 14t-6 40q2 31 -4 40q-16 24 -7 63l-5 23l2 61q-2 41 -2 45q11 14 11 19v35q6 6 6 18v27l14 45q2 4 1 10t1 9t7 10q14 20 14 55q26 53 26 61v10q11 21 15 27l2 14q6 8 19 24t18 29q7 20 22 33q16 13 20 28q3 15 5 19q6 6 21 13
t27 31t34 38q23 13 46 34q23 22 33 28t26 11q14 5 20 7t10 8t9 8t17 7q19 6 33 18q14 11 33 13q19 3 41 14h18q30 10 49 10l27 14q6 2 15 0t14 -2l69 19h12l31 -4q6 -2 24 0t21 0q5 -2 13 -6q8 -3 12 -5t14 -1t14 0t12 -5q9 -4 15 -6q85 -8 103 -14t45 -21t49 -23t25 -13
q4 -5 11 -10t27 -11t31 -14q10 -20 16 -24t15 -9q10 -4 14 -7t8 -10q6 -10 21 -18q35 -17 36 -58q1 -40 -28 -61q-39 -20 -63 -14l-21 8q-21 3 -23 14q-3 11 -7 14t-11 5q-12 3 -18 25q-5 22 -31 22q-4 2 -9 9t-28 15q-22 7 -32 18q-9 11 -15 13t-24 2t-27 4t-19 18t-16 17
q-6 2 -14 1t-12 0t-11 6q-8 5 -14 6l-27 -2l-16 16q-2 0 -5 -3t-3 -5q-10 -6 -21 -6l-33 10l-38 -19q-21 0 -33 9l-37 -11q-6 -2 -22 -1q-20 1 -37 -8q-28 -15 -54 -18q-27 -2 -71 -36q-53 -40 -66 -43t-17 -12q-5 -9 -19 -15q-13 -6 -16 -9t-6 -7t-8 -10q-4 -6 -12 -9
q-12 -6 -17 -22q-4 -16 -21 -34l-23 -23q-18 -18 -23 -34q-5 -17 -19 -30t-13 -23t-1 -15t-12 -16t-13 -25t-13 -36q-9 -22 -10 -41q-1 -18 -3 -24l-10 -17q0 -6 1 -11t2 -12t0 -12t-1 -22t-5 -29t-6 -17t2 -13q3 -9 3 -11v-86l-4 -14l8 -20q2 -10 0 -37t0 -34t10 -18
t16 -44t6 -40q-2 -13 9 -25q11 -13 13 -29q1 -16 21 -40q19 -24 22 -44t21 -33q20 -16 29 -33q9 -18 29 -34q21 -17 25 -23t9 -12q5 -5 25 -10q19 -5 27 -9t12 -9q4 -6 10 -12l9 -9q5 -3 17 -11q12 -7 21 -17q13 -14 25 -14h11q28 -14 35 -14h20q8 -4 29 -16t38 -10
q17 1 22 0t15 -7t14 -7t37 1l39 -2l17 4q4 2 14 -1q11 -3 17 -3t19 8t31 7q17 -1 27 1t88 37q77 35 89 42t18 15t13 12q7 3 13 9t30 26t32 28t11 18t7 14q31 41 80 20q6 -2 12 -10t10 -13q5 -5 7 -8q4 -6 17 -19t8 -21l-10 -16q-11 -16 -19 -44q-5 -6 -19 -17
q-13 -11 -22 -22q-8 -12 -12 -16q-8 -6 -26 -12t-31 -25q-13 -20 -18 -24t-11 -7q-6 -2 -12 -5l-24 -16q-20 -12 -24 -12t-14 -1q-12 0 -41 -20t-36 -21h-9q-10 -4 -47 -17l-23 -8l-21 4q-18 -4 -71 -4q-12 -6 -17 -6t-21 2t-21 -4q-6 -6 0 -12q6 -7 10 -8q10 -2 10 -6
q1 -8 11 -13q10 -4 12 -6t5 -7t7 -8q0 -6 8 -13t6 -15q6 -6 6 -15v-2l7 -12v-14q8 -18 8 -22v-9l2 -7l-4 -20l2 -18q0 -2 -6 -8z" />
    <glyph glyph-name="Egrave" unicode="&#xc8;" horiz-adv-x="1052" 
d="M465 1548q6 0 19 2t91 2q26 6 34 3q7 -3 12 -3h65l35 7l25 -7l28 4q2 0 13 -3t25 10q14 12 44 -11q4 -2 26 0t40 -16q34 -43 -9 -88q-14 -14 -18 -16t-17 -1t-24 -8t-28 -1q-17 9 -25 8l-27 -7l-16 2l-23 -2l-28 7l-41 -9l-29 9l-21 -3q-59 4 -81 3l-25 -5q-37 -2 -45 0
l-25 5q-11 0 -22 -11l-45 11h-5l-12 -3q-8 0 -20 3l-19 -11h-12q-21 0 -33 -14q-2 -6 -4 -10q-2 -5 -2 -9v-8l4 -26l-4 -23q0 -14 6 -26q0 -3 -10 -48l8 -43l-6 -41q0 -8 6 -23t4 -26l-12 -47l8 -28l-10 -46l6 -30l-8 -43q0 -11 10 -26t12 -19q9 -24 28 -16q18 9 22 9t74 1
h73l17 -5l36 5q8 0 17 -9q6 0 14 4t15 6t33 0q26 -1 36 -1l49 10l37 -6h13q11 0 16 2l27 10l24 -10q4 -2 16 -4t23 -7q12 -6 15 -7q18 -6 18 -21q8 -59 -23 -86q-6 -6 -30 -16t-29 -9l-29 10h-27q-51 -8 -68 2t-30 15q-36 -16 -49 -17l-19 7h-26q-20 7 -29 3q-8 -3 -26 -3
h-34q-16 0 -36 -5l-37 5l-24 -13q-3 -2 -13 2t-12 4q-35 8 -70 -13t-7 -60q20 -28 5 -69q-4 -11 -4 -17l4 -37v-103l-6 -34q0 -44 6 -68q2 -35 0 -47l-6 -24v-13q2 -6 2 -86q0 -43 27 -43q8 0 10 -2l27 -6l30 6q8 2 28 -1t30 -1l28 10q12 0 31 -8t45 -8l35 6h43l29 10l20 -6
h37l20 -2l19 2l61 -4l29 4q31 -10 37 -10t30 7t44 1q27 -15 33 -25t6 -32q0 -57 -45 -72q-4 -2 -20 -1t-29 -5t-19 -4l-40 14l-42 -10l-29 4l-26 -4q-3 0 -11 4t-11 5t-9 -1t-8 -2l-25 6l-35 -12l-34 14q-17 0 -27 -10q-23 -2 -35 2l-26 6l-34 -12q-6 0 -34 14l-57 -10
q-7 0 -19 5t-17 6t-26 -2t-29 -3t-20 -6q-18 -2 -40 1t-38 3t-24 8q-20 27 -19 62l4 22l-8 37l4 29q0 39 -2 41l-6 22l2 27q-6 25 -3 32t3 11l-2 35q4 12 4 33l-6 32l10 45l-10 29q-2 11 2 29t4 54t-6 66l8 45l-8 35q-2 16 0 45t1 37t-1 28v34q-6 6 -6 18l10 41q-9 27 -4 49
l12 21q2 2 -2 8t-4 12v14l-4 23q-2 6 3 17t5 16l-10 45l10 31l-8 28l4 51l-6 34l8 32l-8 37l4 20v39l6 15q0 2 -10 22l4 29q0 2 -5 12t1 38t9 32q2 4 22 17t22 13l41 -6l51 2q4 0 18 -5q27 -10 52 3q26 13 100 6zM416 2044q4 0 12 2t24 -20t19 -42q2 -20 8 -29t7 -13
q2 -4 6 -8t10 -15q6 -10 20 -30q14 -19 26 -27l15 -10q2 -2 4 -10q3 -11 15 -19q4 -13 7 -15t6 -9t7 -9q31 -14 39 -33v-22l2 -4v-9q-2 -4 -8 -10t-10 -11q-16 -20 -40 -14q-24 7 -35 9t-25 14q-13 12 -19 18t-8 9q-2 2 -5 8q-4 8 -18 15t-26 25t-26 27q-23 14 -25 31
q-2 19 -16 33t-11 21q2 7 -16 31q-19 24 -21 36q-14 27 -10 34t15 11t22 13t18 12l29 10h8z" />
    <glyph glyph-name="Eacute" unicode="&#xc9;" horiz-adv-x="1052" 
d="M465 1548q6 0 19 2t91 2q26 6 34 3q7 -3 12 -3h65l35 7l25 -7l28 4q2 0 13 -3t25 10q14 12 44 -11q4 -2 26 0t40 -16q34 -43 -9 -88q-14 -14 -18 -16t-17 -1t-24 -8t-28 -1q-17 9 -25 8l-27 -7l-16 2l-23 -2l-28 7l-41 -9l-29 9l-21 -3q-59 4 -81 3l-25 -5q-37 -2 -45 0
l-25 5q-11 0 -22 -11l-45 11h-5l-12 -3q-8 0 -20 3l-19 -11h-12q-21 0 -33 -14q-2 -6 -4 -10q-2 -5 -2 -9v-8l4 -26l-4 -23q0 -14 6 -26q0 -3 -10 -48l8 -43l-6 -41q0 -8 6 -23t4 -26l-12 -47l8 -28l-10 -46l6 -30l-8 -43q0 -11 10 -26t12 -19q9 -24 28 -16q18 9 22 9t74 1
h73l17 -5l36 5q8 0 17 -9q6 0 14 4t15 6t33 0q26 -1 36 -1l49 10l37 -6h13q11 0 16 2l27 10l24 -10q4 -2 16 -4t23 -7q12 -6 15 -7q18 -6 18 -21q8 -59 -23 -86q-6 -6 -30 -16t-29 -9l-29 10h-27q-51 -8 -68 2t-30 15q-36 -16 -49 -17l-19 7h-26q-20 7 -29 3q-8 -3 -26 -3
h-34q-16 0 -36 -5l-37 5l-24 -13q-3 -2 -13 2t-12 4q-35 8 -70 -13t-7 -60q20 -28 5 -69q-4 -11 -4 -17l4 -37v-103l-6 -34q0 -44 6 -68q2 -35 0 -47l-6 -24v-13q2 -6 2 -86q0 -43 27 -43q8 0 10 -2l27 -6l30 6q8 2 28 -1t30 -1l28 10q12 0 31 -8t45 -8l35 6h43l29 10l20 -6
h37l20 -2l19 2l61 -4l29 4q31 -10 37 -10t30 7t44 1q27 -15 33 -25t6 -32q0 -57 -45 -72q-4 -2 -20 -1t-29 -5t-19 -4l-40 14l-42 -10l-29 4l-26 -4q-3 0 -11 4t-11 5t-9 -1t-8 -2l-25 6l-35 -12l-34 14q-17 0 -27 -10q-23 -2 -35 2l-26 6l-34 -12q-6 0 -34 14l-57 -10
q-7 0 -19 5t-17 6t-26 -2t-29 -3t-20 -6q-18 -2 -40 1t-38 3t-24 8q-20 27 -19 62l4 22l-8 37l4 29q0 39 -2 41l-6 22l2 27q-6 25 -3 32t3 11l-2 35q4 12 4 33l-6 32l10 45l-10 29q-2 11 2 29t4 54t-6 66l8 45l-8 35q-2 16 0 45t1 37t-1 28v34q-6 6 -6 18l10 41q-9 27 -4 49
l12 21q2 2 -2 8t-4 12v14l-4 23q-2 6 3 17t5 16l-10 45l10 31l-8 28l4 51l-6 34l8 32l-8 37l4 20v39l6 15q0 2 -10 22l4 29q0 2 -5 12t1 38t9 32q2 4 22 17t22 13l41 -6l51 2q4 0 18 -5q27 -10 52 3q26 13 100 6zM391 1751v18q7 15 25 25t21 16q12 24 18 28q5 5 7 8q2 2 4 8
l3 9q2 3 7 6t8 6t9 7q5 4 10 13t11 14q6 6 9 11l18 25q4 5 5 9t7 13t8 28t12 33q11 14 17 21t12 8t12 -1t11 0l28 -10q9 -2 19 -11t21 -13t15 -12q4 -7 -10 -34q-2 -12 -17 -32t-17 -28t-1 -11q1 -2 -13 -19t-16 -35q-2 -17 -19 -24q-29 -13 -29 -29l-21 -20q-2 -4 -10 -8
t-10 -6q-2 -3 -3 -6t-4 -7t-10 -10l-12 -9q-4 -2 -16 -14t-21 -13q-8 -1 -18 -3q-41 -8 -49 3q-8 12 -15 18q-8 6 -7 14t1 14z" />
    <glyph glyph-name="Ecircumflex" unicode="&#xca;" horiz-adv-x="1052" 
d="M465 1548q6 0 19 2t91 2q26 6 34 3q7 -3 12 -3h65l35 7l25 -7l28 4q2 0 13 -3t25 10q14 12 44 -11q4 -2 26 0t40 -16q34 -43 -9 -88q-14 -14 -18 -16t-17 -1t-24 -8t-28 -1q-17 9 -25 8l-27 -7l-16 2l-23 -2l-28 7l-41 -9l-29 9l-21 -3q-59 4 -81 3l-25 -5q-37 -2 -45 0
l-25 5q-11 0 -22 -11l-45 11h-5l-12 -3q-8 0 -20 3l-19 -11h-12q-21 0 -33 -14q-2 -6 -4 -10q-2 -5 -2 -9v-8l4 -26l-4 -23q0 -14 6 -26q0 -3 -10 -48l8 -43l-6 -41q0 -8 6 -23t4 -26l-12 -47l8 -28l-10 -46l6 -30l-8 -43q0 -11 10 -26t12 -19q9 -24 28 -16q18 9 22 9t74 1
h73l17 -5l36 5q8 0 17 -9q6 0 14 4t15 6t33 0q26 -1 36 -1l49 10l37 -6h13q11 0 16 2l27 10l24 -10q4 -2 16 -4t23 -7q12 -6 15 -7q18 -6 18 -21q8 -59 -23 -86q-6 -6 -30 -16t-29 -9l-29 10h-27q-51 -8 -68 2t-30 15q-36 -16 -49 -17l-19 7h-26q-20 7 -29 3q-8 -3 -26 -3
h-34q-16 0 -36 -5l-37 5l-24 -13q-3 -2 -13 2t-12 4q-35 8 -70 -13t-7 -60q20 -28 5 -69q-4 -11 -4 -17l4 -37v-103l-6 -34q0 -44 6 -68q2 -35 0 -47l-6 -24v-13q2 -6 2 -86q0 -43 27 -43q8 0 10 -2l27 -6l30 6q8 2 28 -1t30 -1l28 10q12 0 31 -8t45 -8l35 6h43l29 10l20 -6
h37l20 -2l19 2l61 -4l29 4q31 -10 37 -10t30 7t44 1q27 -15 33 -25t6 -32q0 -57 -45 -72q-4 -2 -20 -1t-29 -5t-19 -4l-40 14l-42 -10l-29 4l-26 -4q-3 0 -11 4t-11 5t-9 -1t-8 -2l-25 6l-35 -12l-34 14q-17 0 -27 -10q-23 -2 -35 2l-26 6l-34 -12q-6 0 -34 14l-57 -10
q-7 0 -19 5t-17 6t-26 -2t-29 -3t-20 -6q-18 -2 -40 1t-38 3t-24 8q-20 27 -19 62l4 22l-8 37l4 29q0 39 -2 41l-6 22l2 27q-6 25 -3 32t3 11l-2 35q4 12 4 33l-6 32l10 45l-10 29q-2 11 2 29t4 54t-6 66l8 45l-8 35q-2 16 0 45t1 37t-1 28v34q-6 6 -6 18l10 41q-9 27 -4 49
l12 21q2 2 -2 8t-4 12v14l-4 23q-2 6 3 17t5 16l-10 45l10 31l-8 28l4 51l-6 34l8 32l-8 37l4 20v39l6 15q0 2 -10 22l4 29q0 2 -5 12t1 38t9 32q2 4 22 17t22 13l41 -6l51 2q4 0 18 -5q27 -10 52 3q26 13 100 6zM516 1812q0 15 -8 15q-8 -1 -6 -13t-2 -17t-20 -13t-23 -25
q-7 -16 -25 -25q-17 -9 -23 -21q-6 -13 -22 -21q-22 -22 -34 -25q-11 -2 -18 -4q-37 -11 -59 11q-2 3 -8 9t-8 11l2 12v23q8 18 39 32q4 2 7 9t5 9t7 9q4 8 8 11t5 5t3 10t4 9q2 2 7 5t8 6t7 8t15 17t18 24q9 11 11 14t6 7t5 9q1 4 7 13t8 28t12 33q11 14 18 22t36 6l26 4
q27 -4 33 -11q27 -31 29 -52q2 -20 7 -30t7 -13q2 -4 6 -8q4 -3 6 -7t8 -13t9 -13q2 -4 8 -10t9 -10t10 -12q7 -7 11 -9l6 -4t5 -4t4 -9q2 -8 3 -10t5 -5t5 -4t3 -7t5 -8t6 -9t8 -10q31 -14 39 -32v-23l2 -12q-4 -6 -10 -12t-9 -10q-4 -5 -13 -12t-29 -1q-21 6 -27 7t-12 4
t-15 10q-16 14 -22 20t-9 8q-2 2 -5 8t-12 11t-34 30q0 14 -13 22q-12 7 -22 12q-10 6 -10 21z" />
    <glyph glyph-name="Edieresis" unicode="&#xcb;" horiz-adv-x="1054" 
d="M465 1548q6 0 19 2t91 2q26 6 34 3q7 -3 12 -3h65l35 7l25 -7l28 4q2 0 13 -3t25 10q14 12 44 -11q4 -2 26 0t40 -16q34 -43 -9 -88q-14 -14 -18 -16t-17 -1t-24 -8t-28 -1q-17 9 -25 8l-27 -7l-16 2l-23 -2l-28 7l-41 -9l-29 9l-21 -3q-59 4 -81 3l-25 -5q-37 -2 -45 0
l-25 5q-11 0 -22 -11l-45 11h-5l-12 -3q-8 0 -20 3l-19 -11h-12q-21 0 -33 -14q-2 -6 -4 -10q-2 -5 -2 -9v-8l4 -26l-4 -23q0 -14 6 -26q0 -3 -10 -48l8 -43l-6 -41q0 -8 6 -23t4 -26l-12 -47l8 -28l-10 -46l6 -30l-8 -43q0 -11 10 -26t12 -19q9 -24 28 -16q18 9 22 9t74 1
h73l17 -5l36 5q8 0 17 -9q6 0 14 4t15 6t33 0q26 -1 36 -1l49 10l37 -6h13q11 0 16 2l27 10l24 -10q4 -2 16 -4t23 -7q12 -6 15 -7q18 -6 18 -21q8 -59 -23 -86q-6 -6 -30 -16t-29 -9l-29 10h-27q-51 -8 -68 2t-30 15q-36 -16 -49 -17l-19 7h-26q-20 7 -29 3q-8 -3 -26 -3
h-34q-16 0 -36 -5l-37 5l-24 -13q-3 -2 -13 2t-12 4q-35 8 -70 -13t-7 -60q20 -28 5 -69q-4 -11 -4 -17l4 -37v-103l-6 -34q0 -44 6 -68q2 -35 0 -47l-6 -24v-13q2 -6 2 -86q0 -43 27 -43q8 0 10 -2l27 -6l30 6q8 2 28 -1t30 -1l28 10q12 0 31 -8t45 -8l35 6h43l29 10l20 -6
h37l20 -2l19 2l61 -4l29 4q31 -10 37 -10t30 7t44 1q27 -15 33 -25t6 -32q0 -57 -45 -72q-4 -2 -20 -1t-29 -5t-19 -4l-40 14l-42 -10l-29 4l-26 -4q-3 0 -11 4t-11 5t-9 -1t-8 -2l-25 6l-35 -12l-34 14q-17 0 -27 -10q-23 -2 -35 2l-26 6l-34 -12q-6 0 -34 14l-57 -10
q-7 0 -19 5t-17 6t-26 -2t-29 -3t-20 -6q-18 -2 -40 1t-38 3t-24 8q-20 27 -19 62l4 22l-8 37l4 29q0 39 -2 41l-6 22l2 27q-6 25 -3 32t3 11l-2 35q4 12 4 33l-6 32l10 45l-10 29q-2 11 2 29t4 54t-6 66l8 45l-8 35q-2 16 0 45t1 37t-1 28v34q-6 6 -6 18l10 41q-9 27 -4 49
l12 21q2 2 -2 8t-4 12v14l-4 23q-2 6 3 17t5 16l-10 45l10 31l-8 28l4 51l-6 34l8 32l-8 37l4 20v39l6 15q0 2 -10 22l4 29q0 2 -5 12t1 38t9 32q2 4 22 17t22 13l41 -6l51 2q4 0 18 -5q27 -10 52 3q26 13 100 6zM481 1798l-6 -39q0 -6 -2 -8q-10 -35 -50 -49t-71 35
q-5 5 -6 11q-2 7 -7 12t-5 9q-4 3 -2 23t2 25q-8 24 -8 34l10 27q2 4 6 17t9 21t31 19q26 10 60 -9t40 -38q7 -19 -2 -36q-9 -18 -4 -34t5 -20zM707 1855l-9 -20l9 -39l-9 -37v-10q-12 -33 -47 -45q-41 -14 -63 15q-21 28 -21 38q-8 9 -9 11t-1 49l-6 34l10 27q2 2 6 16
t9 22t30 19q24 10 58 -9t38 -28q10 -23 5 -43z" />
    <glyph glyph-name="Igrave" unicode="&#xcc;" horiz-adv-x="487" 
d="M342 338l8 -37l-4 -37l6 -20l-10 -49l8 -32q6 -24 4 -36l-12 -32q0 -9 10 -29q2 -30 -20 -52t-26 -23t-30 -1h-26q-31 10 -41 39q-2 2 -2 7t-1 9t-2 7t-5 10q-4 8 -6 14t4 22t6 23l-4 26l6 23l-2 27l6 18l-6 47l10 43q2 10 -1 29t-3 41l6 41l-6 47l4 33q-6 26 -4 73l4 23
l-4 26l2 41q-6 144 -1 166q5 23 9 33t4 16l-10 31q-2 9 2 25t4 24l-10 27q-2 10 1 32t1 29l-6 31l6 27q3 6 -1 16q-3 10 -2 16t5 13q4 8 4 12q2 4 2 35l-10 74l10 37q-10 30 -10 33v96q0 2 -2 22t0 24t2 14v13q4 31 20 45q3 0 13 4t48 4t54 -18l2 -22q0 -6 6 -24t4 -30
l-10 -26l8 -31q0 -4 -4 -14t-2 -17l12 -90l-4 -17q0 -3 1 -13t-1 -12q-2 -3 -5 -9t-5 -8l4 -33l-8 -37q-2 -10 3 -25t7 -24l-10 -35l4 -33v-51l6 -18l-6 -25l6 -45l-6 -39q0 -6 3 -17t2 -17t-3 -12q-2 -7 -4 -13t-2 -12q0 -5 3 -29t4 -54t3 -34l4 -31q-6 -32 -7 -42t-7 -40
q-3 -130 6 -139q8 -35 8 -45zM221 1979q0 -15 2 -19t5 -9t5 -11q3 -6 7 -9q4 -4 12 -16q14 -21 19 -26q10 -10 17 -19t14 -14t9 -7q3 -3 4 -10q2 -7 8 -12q5 -4 8 -11q3 -8 6 -10t6 -9t7 -9q31 -14 39 -33q2 -4 2 -7l-2 -15l2 -13q-2 -4 -8 -10t-15 -18t-24 -9q-14 1 -24 5
t-16 5q-5 1 -11 3t-9 5q-4 3 -10 8t-10 8t-9 9t-8 8t-7 10q-4 7 -21 16q-18 8 -23 24q-5 15 -26 26t-24 31q-3 19 -25 41q-4 6 -2 9q5 7 -15 32q-19 25 -22 39q-14 27 -10 34t15 11t23 13t17 12l29 10l23 2q6 0 24 -25t18 -40z" />
    <glyph glyph-name="Iacute" unicode="&#xcd;" horiz-adv-x="479" 
d="M285 1256q0 -12 -7 -22t-3 -23q3 -13 4 -17q-11 -33 -11 -37l11 -49l-11 -35l6 -33v-51l5 -18l-5 -25q0 -10 2 -24l3 -21l-5 -39l5 -35l-11 -36q0 -6 6 -38t5 -79l6 -31q0 -14 -6 -20l-5 -43q-2 -2 -3 -6l-2 -8q-1 -3 -2 -44q-1 -42 3 -70t8 -46t5 -29l-15 -39
q0 -12 6 -12q0 -6 2 -25l-2 -37l7 -20l-11 -49l13 -68q-1 -6 -7 -16q-11 -17 -3 -31q18 -35 -23 -76q-14 -12 -18 -13t-28 -1h-28q-35 12 -42 46q-3 14 -7 23q-4 11 -6 17t4 22t6 23l-6 26l6 23q2 4 1 13t2 25t0 31t-3 25t10 41l-6 70l8 41l-6 47l4 33l-6 16q-2 18 0 57
l6 23l-6 26l4 41q-6 144 2 185l11 30l-13 31l6 49q0 7 -10 27l4 61l-6 31q-1 4 2 17q4 14 1 27t3 25q6 11 6 15v35l-10 74q0 6 6 17t5 17t-11 37v95q0 2 -2 22t1 24t2 14q-4 39 22 58q2 0 12 4t48 4t54 -18l2 -22l11 -54l-11 -26l9 -31l-9 -31l15 -90l-4 -17v-13zM152 1837
q0 2 5 7t7 11q2 5 4 9t7 7t8 6t8 7t9 11t12 15q7 8 14 20t13 17q5 5 6 9t7 13t8 28t12 33q11 14 17 21t10 8t8 0t8 -1h8l29 -10q8 -2 18 -11t27 -15q19 -8 0 -44q-2 -12 -17 -32q-16 -20 -18 -28t-1 -10t-3 -8t-14 -18t-11 -28q-1 -15 -25 -27q-23 -12 -23 -27l-21 -20
q-2 -2 -11 -7t-13 -12q-4 -8 -6 -10t-13 -11q-10 -8 -16 -14l-9 -9q-4 -3 -10 -5t-11 -3t-15 -4q-34 -10 -47 3l-18 18q-5 4 -7 11l2 12v23q8 16 27 26t21 16q1 7 4 9t5 8t5 6z" />
    <glyph glyph-name="Icircumflex" unicode="&#xce;" horiz-adv-x="641" 
d="M401 1256q0 -9 -6 -22q-6 -12 -3 -24t1 -16l-8 -37l10 -49l-10 -36q0 -17 6 -32v-51l4 -18l-4 -25q-2 -10 1 -24t3 -22t-3 -26t0 -29t3 -17l-10 -37q0 -6 5 -35t5 -82l6 -31q0 -14 -6 -20q0 -14 -10 -62q-2 -98 6 -136t8 -48l-14 -39l8 -37l-2 -37l6 -20l-10 -49l12 -68
q0 -6 -6 -16q-6 -9 -7 -15t4 -16t5 -14q4 -30 -19 -52q-22 -22 -26 -23t-28 -1h-29q-35 12 -42 46q-3 14 -7 23q-4 11 -6 17t4 22t6 23l-6 26l6 23q2 4 0 12t4 33l-4 47q0 13 10 43l-6 70l8 41l-6 47l4 33l-6 16q-2 18 0 57l6 23l-6 26q0 6 2 20t0 64q-4 101 4 142l10 30
l-12 31l6 49l-10 27q-2 10 1 32t3 29l-8 31q0 1 8 27l-4 32q0 5 10 25v35l-10 74q0 6 6 17t5 17t-11 37v95q0 2 -2 22t2 23v28q4 31 22 45q3 0 13 4t47 4t55 -18l2 -22l10 -54q-10 -20 -10 -26l8 -31l-8 -31l15 -90l-5 -17v-13zM348 1786q-14 6 -18 14t-3 17q2 10 -7 10
q-9 1 -7 -11t-4 -20t-33 -20q-2 -2 -3 -6t-12 -20q-11 -17 -22 -19q-10 -1 -12 -5t-5 -9t-5 -8t-8 -8t-8 -9q-6 -2 -19 -14t-21 -12q-7 -1 -17 -3t-27 -5q-16 -3 -22 8q-7 10 -15 18t-7 15t1 13v17q8 18 26 27q18 10 20 16q3 6 6 9t5 10t8 9q7 11 9 16t4 8t7 6t13 11t11 12
t11 13t15 20q6 10 12 18t7 11q2 4 8 13t8 30t32 57q4 4 20 2t28 1q34 10 52 -15t21 -48t8 -29l17 -25q4 -3 6 -7t6 -13t13 -16q8 -7 11 -11q10 -15 21 -22t15 -18q4 -10 8 -13q5 -4 7 -11q3 -8 6 -10t6 -8t7 -9q31 -16 39 -34v-21l2 -14q-14 -16 -22 -27t-42 -6
q-34 6 -44 16t-21 15q-3 6 -11 12q-10 8 -12 16q-2 7 -12 11t-22 17t-18 28q-3 4 -17 10z" />
    <glyph glyph-name="Idieresis" unicode="&#xcf;" horiz-adv-x="526" 
d="M340 1256q0 -9 -6 -22q-6 -12 -3 -24t3 -16q-10 -30 -10 -37l10 -49l-10 -35l6 -33v-51l4 -18l-4 -25l4 -45l-4 -39l4 -35l-10 -36q0 -6 5 -35t5 -82l6 -31q0 -14 -6 -20l-4 -43q-2 -2 -3 -6l-2 -8q-1 -3 -2 -44q-1 -42 3 -70t8 -46t4 -29l-14 -39q0 -12 6 -12
q0 -6 2 -25l-2 -37l6 -20l-10 -49l12 -68q0 -6 -6 -16q-6 -9 -7 -15t4 -16t5 -14q4 -30 -20 -52t-26 -23q-3 -1 -28 -1h-29q-27 9 -42 46q-3 15 -6 21q-3 5 -4 9t-3 10t4 22t6 23l-6 26l6 23q2 4 1 13t2 25t0 31t-3 29t11 37l-7 70l9 41l-6 47l4 33q0 4 -5 12t-2 61l7 23
l-7 26l5 41q-7 151 2 185l10 30l-12 31l6 49q0 12 -11 27l5 61l-7 31q-3 6 2 13t5 15q0 7 -3 19t3 22q6 11 6 15v35l-11 74q0 6 7 17q10 19 -7 54v95q0 2 -2 22t1 24t2 14q-4 39 22 58q2 0 12 4t48 4t55 -18l2 -22l10 -54l-10 -26l8 -31l-8 -31l14 -90l-4 -17v-13zM227 1802
q0 -4 -4 -17t-3 -21t-1 -9q-9 -33 -37 -43t-46 -6t-29 22t-14 24q-3 7 -5 11q-8 0 -8 11q-4 4 -2 23t0 24l-6 34q0 3 6 17t10 28t9 22t31 19t60 -9t35 -27q11 -27 3 -50q-7 -22 -3 -35q4 -14 4 -18zM303 1822q0 6 -4 16q-4 11 -2 17l10 27q2 4 6 18t9 22t30 18q24 10 58 -10
t39 -27q10 -23 4 -43l-9 -21l9 -39q0 -2 -9 -26v-19q-12 -35 -50 -48t-72 34q-2 2 -5 10t-7 14q-4 5 -7 9q-2 4 -1 23t1 25z" />
    <glyph glyph-name="Ograve" unicode="&#xd2;" horiz-adv-x="1734" 
d="M1624 899v-133l-2 -88l2 -47l-10 -25v-45l-15 -24l-2 -13l-22 -55l-8 -43l-29 -39l-41 -70l-18 -45l-19 -20l-10 -19l-25 -20l-45 -47l-26 -14l-27 -29l-37 -19l-28 -32l-35 -11l-33 -30l-25 -2l-53 -23l-20 -4l-23 -12l-53 -2l-35 -15l-45 4l-37 -14l-84 10l-39 -6
l-47 10l-41 5l-96 32l-33 4l-31 21l-61 35l-29 30l-49 29l-28 8l-19 39l-16 10l-21 21l-28 18l-9 21l-26 29l-10 24l-23 33l-8 26v25l-25 23l-12 39l-8 14l-13 43l-18 37l-2 18l-8 33l-2 29l-6 28l6 21l-15 30v52l7 37l-7 18l4 61l3 35l8 21l2 20l14 39v35l25 53l2 31l35 47
l18 49l10 8l49 84l27 29l25 41l30 16l13 17l22 16l12 21l21 8l18 18l17 4l43 31l22 10l15 13l22 2l31 20h18l37 12l33 13l14 2l19 10h22l31 4l27 -6l45 2l26 4h68l20 6l25 -4l16 -2l64 -25l55 -4l39 -22l33 -12l90 -54l14 -6l23 -20l63 -35l31 -49l27 -19l24 -43l39 -37
l14 -26l21 -25l20 -47l25 -31l20 -57l6 -74l15 -28l2 -43zM1454 523q0 33 16 58q16 24 11 43q-4 19 0 39t4 37t2 25l4 27q0 4 -10 24v49l-6 37l6 29q13 51 -20 88q-10 12 -12 26t-5 19l-10 25q0 2 1 13t-19 41q-21 30 -25 38t-3 19q1 16 -8 23q-10 7 -17 20t-10 17t-13 5
q-10 2 -12 5q-3 3 -5 8t-8 17q-4 3 -12 7t-13 6q-4 4 -8 16t-15 21q-12 8 -31 28t-39 28q-20 7 -31 11t-16 9t-29 14q-23 8 -31 14q-7 6 -11 8l-69 27q-4 2 -14 0t-13 -2l-25 10l-57 -2q-6 6 -16 6h-21q-21 21 -46 3t-46 -13q-20 20 -41 0q-4 -2 -14 -3q-16 -2 -32 -13
t-26 -12t-17 -4t-30 -16q-23 -12 -31 -16t-14 -4q-12 0 -27 -15l-20 -20q-16 -16 -28 -18q-13 -2 -16 -5t-10 -9t-9 -8q-2 -3 -8 -7t-11 -8l-10 -20q-9 -17 -22 -25t-16 -12t-5 -10t-7 -16t-20 -27q-14 -17 -12 -21q-14 -9 -20 -23t-7 -18q0 -4 -2 -4l-24 -33q0 -32 -10 -61
q-29 -61 -29 -84t-14 -51q0 -8 5 -24t-2 -32t-7 -24l4 -25l-4 -18l4 -25q2 -4 1 -12q-1 -11 4 -18q5 -8 5 -13l2 -45l8 -22q2 -5 1 -17t1 -18l7 -21q7 -20 7 -29q0 -10 10 -31t14 -39q3 -19 4 -24t12 -11q10 -5 13 -9t4 -10q1 -4 7 -12t10 -17q4 -10 13 -16q10 -8 14 -24
q5 -17 29 -37q24 -21 25 -29q1 -7 -1 -29q14 6 22 4t26 -18q17 -16 40 -32t31 -22q13 -10 22 -10h11q8 -4 22 -13t35 -17q22 -9 51 -24t55 -16q25 -2 31 -3l15 -3t14 -3t21 -4q37 -7 75 5l33 -6q23 11 46 13q23 1 48 14h25q21 11 46 25q25 15 56 30q31 14 47 25t21 16
q6 6 20 14q13 7 19 11t10 10t6 8q12 0 33 29t25 35q6 6 14 9q11 4 19 23q9 19 14 25t7 23t11 22q10 4 17 18t7 21q29 29 29 62zM773 2052q5 0 12 2t13 -7q7 -9 16 -21t12 -22t4 -20q2 -8 8 -22t8 -16t4 -6t10 -10q8 -8 10 -16q4 -8 8 -12q4 -2 6 -6q3 -4 6 -9t8 -9t8 -7
t10 -7t9 -13q3 -8 4 -10t5 -5t7 -10t5 -9q2 -1 6 -9t22 -17t25 -26v-22l2 -12q-5 -15 -14 -15q0 -2 -12 -14t-35 -6q-22 6 -28 7t-11 4q-6 3 -14 10q-9 7 -13 11q-28 22 -28 33q-19 9 -21 13l-20 20q1 13 -19 24t-26 17q-2 4 -3 15t-16 29q-15 17 -13 23q2 7 -16 32
q-18 26 -20 34t-5 13q-16 26 15 38q6 1 16 11t19 12l28 10h8z" />
    <glyph glyph-name="Oacute" unicode="&#xd3;" horiz-adv-x="1734" 
d="M1624 899v-133l-2 -88l2 -47l-10 -25v-45l-15 -24l-2 -13l-22 -55l-8 -43l-29 -39l-41 -70l-18 -45l-19 -20l-10 -19l-25 -20l-45 -47l-26 -14l-27 -29l-37 -19l-28 -32l-35 -11l-33 -30l-25 -2l-53 -23l-20 -4l-23 -12l-53 -2l-35 -15l-45 4l-37 -14l-84 10l-39 -6
l-47 10l-41 5l-96 32l-33 4l-31 21l-61 35l-29 30l-49 29l-28 8l-19 39l-16 10l-21 21l-28 18l-9 21l-26 29l-10 24l-23 33l-8 26v25l-25 23l-12 39l-8 14l-13 43l-18 37l-2 18l-8 33l-2 29l-6 28l6 21l-15 30v52l7 37l-7 18l4 61l3 35l8 21l2 20l14 39v35l25 53l2 31l35 47
l18 49l10 8l49 84l27 29l25 41l30 16l13 17l22 16l12 21l21 8l18 18l17 4l43 31l22 10l15 13l22 2l31 20h18l37 12l33 13l14 2l19 10h22l31 4l27 -6l45 2l26 4h68l20 6l25 -4l16 -2l64 -25l55 -4l39 -22l33 -12l90 -54l14 -6l23 -20l63 -35l31 -49l27 -19l24 -43l39 -37
l14 -26l21 -25l20 -47l25 -31l20 -57l6 -74l15 -28l2 -43zM1454 523q0 33 16 58q16 24 11 43q-4 19 0 39t4 37t2 25l4 27q0 4 -10 24v49l-6 37l6 29q13 51 -20 88q-10 12 -12 26t-5 19l-10 25q0 2 1 13t-19 41q-21 30 -25 38t-3 19q1 16 -8 23q-10 7 -17 20t-10 17t-13 5
q-10 2 -12 5q-3 3 -5 8t-8 17q-4 3 -12 7t-13 6q-4 4 -8 16t-15 21q-12 8 -31 28t-39 28q-20 7 -31 11t-16 9t-29 14q-23 8 -31 14q-7 6 -11 8l-69 27q-4 2 -14 0t-13 -2l-25 10l-57 -2q-6 6 -16 6h-21q-21 21 -46 3t-46 -13q-20 20 -41 0q-4 -2 -14 -3q-16 -2 -32 -13
t-26 -12t-17 -4t-30 -16q-23 -12 -31 -16t-14 -4q-12 0 -27 -15l-20 -20q-16 -16 -28 -18q-13 -2 -16 -5t-10 -9t-9 -8q-2 -3 -8 -7t-11 -8l-10 -20q-9 -17 -22 -25t-16 -12t-5 -10t-7 -16t-20 -27q-14 -17 -12 -21q-14 -9 -20 -23t-7 -18q0 -4 -2 -4l-24 -33q0 -32 -10 -61
q-29 -61 -29 -84t-14 -51q0 -8 5 -24t-2 -32t-7 -24l4 -25l-4 -18l4 -25q2 -4 1 -12q-1 -11 4 -18q5 -8 5 -13l2 -45l8 -22q2 -5 1 -17t1 -18l7 -21q7 -20 7 -29q0 -10 10 -31t14 -39q3 -19 4 -24t12 -11q10 -5 13 -9t4 -10q1 -4 7 -12t10 -17q4 -10 13 -16q10 -8 14 -24
q5 -17 29 -37q24 -21 25 -29q1 -7 -1 -29q14 6 22 4t26 -18q17 -16 40 -32t31 -22q13 -10 22 -10h11q8 -4 22 -13t35 -17q22 -9 51 -24t55 -16q25 -2 31 -3l15 -3t14 -3t21 -4q37 -7 75 5l33 -6q23 11 46 13q23 1 48 14h25q21 11 46 25q25 15 56 30q31 14 47 25t21 16
q6 6 20 14q13 7 19 11t10 10t6 8q12 0 33 29t25 35q6 6 14 9q11 4 19 23q9 19 14 25t7 23t11 22q10 4 17 18t7 21q29 29 29 62zM737 1724q-12 0 -12 16v25q0 21 39 41q6 2 9 8t5 9q2 2 3 5t3 6t3 5t5 6t7 11q2 8 4 11t8 6t8 5q2 4 5 6q8 5 12 14q13 6 22 25t16 25
q17 15 20 40q3 28 34 70q10 5 19 3q9 -3 11 -1l29 -10q8 -2 19 -11q12 -9 27 -15t11 -21t-12 -23q-2 -12 -16 -32q-23 -33 -21 -37t-5 -15q-7 -10 -11 -16t-7 -10t-4 -13q-3 -26 -40 -38q-2 -4 -3 -8t-15 -18q-13 -15 -16 -17t-7 -3t-6 -5t-7 -7q-2 -7 -11 -15t-24 -22
t-24 -15q-8 -1 -32 -5t-35 7t-11 13z" />
    <glyph glyph-name="Ocircumflex" unicode="&#xd4;" horiz-adv-x="1734" 
d="M1624 899v-133l-2 -88l2 -47l-10 -25v-45l-15 -24l-2 -13l-22 -55l-8 -43l-29 -39l-41 -70l-18 -45l-19 -20l-10 -19l-25 -20l-45 -47l-26 -14l-27 -29l-37 -19l-28 -32l-35 -11l-33 -30l-25 -2l-53 -23l-20 -4l-23 -12l-53 -2l-35 -15l-45 4l-37 -14l-84 10l-39 -6
l-47 10l-41 5l-96 32l-33 4l-31 21l-61 35l-29 30l-49 29l-28 8l-19 39l-16 10l-21 21l-28 18l-9 21l-26 29l-10 24l-23 33l-8 26v25l-25 23l-12 39l-8 14l-13 43l-18 37l-2 18l-8 33l-2 29l-6 28l6 21l-15 30v52l7 37l-7 18l4 61l3 35l8 21l2 20l14 39v35l25 53l2 31l35 47
l18 49l10 8l49 84l27 29l25 41l30 16l13 17l22 16l12 21l21 8l18 18l17 4l43 31l22 10l15 13l22 2l31 20h18l37 12l33 13l14 2l19 10h22l31 4l27 -6l45 2l26 4h68l20 6l25 -4l16 -2l64 -25l55 -4l39 -22l33 -12l90 -54l14 -6l23 -20l63 -35l31 -49l27 -19l24 -43l39 -37
l14 -26l21 -25l20 -47l25 -31l20 -57l6 -74l15 -28l2 -43zM1454 523q0 33 16 58q16 24 11 43q-4 19 0 39t4 37t2 25l4 27q0 4 -10 24v49l-6 37l6 29q13 51 -20 88q-10 12 -12 26t-5 19l-10 25q0 2 1 13t-19 41q-21 30 -25 38t-3 19q1 16 -8 23q-10 7 -17 20t-10 17t-13 5
q-10 2 -12 5q-3 3 -5 8t-8 17q-4 3 -12 7t-13 6q-4 4 -8 16t-15 21q-12 8 -31 28t-39 28q-20 7 -31 11t-16 9t-29 14q-23 8 -31 14q-7 6 -11 8l-69 27q-4 2 -14 0t-13 -2l-25 10l-57 -2q-6 6 -16 6h-21q-21 21 -46 3t-46 -13q-20 20 -41 0q-4 -2 -14 -3q-16 -2 -32 -13
t-26 -12t-17 -4t-30 -16q-23 -12 -31 -16t-14 -4q-12 0 -27 -15l-20 -20q-16 -16 -28 -18q-13 -2 -16 -5t-10 -9t-9 -8q-2 -3 -8 -7t-11 -8l-10 -20q-9 -17 -22 -25t-16 -12t-5 -10t-7 -16t-20 -27q-14 -17 -12 -21q-14 -9 -20 -23t-7 -18q0 -4 -2 -4l-24 -33q0 -32 -10 -61
q-29 -61 -29 -84t-14 -51q0 -8 5 -24t-2 -32t-7 -24l4 -25l-4 -18l4 -25q2 -4 1 -12q-1 -11 4 -18q5 -8 5 -13l2 -45l8 -22q2 -5 1 -17t1 -18l7 -21q7 -20 7 -29q0 -10 10 -31t14 -39q3 -19 4 -24t12 -11q10 -5 13 -9t4 -10q1 -4 7 -12t10 -17q4 -10 13 -16q10 -8 14 -24
q5 -17 29 -37q24 -21 25 -29q1 -7 -1 -29q14 6 22 4t26 -18q17 -16 40 -32t31 -22q13 -10 22 -10h11q8 -4 22 -13t35 -17q22 -9 51 -24t55 -16q25 -2 31 -3l15 -3t14 -3t21 -4q37 -7 75 5l33 -6q23 11 46 13q23 1 48 14h25q21 11 46 25q25 15 56 30q31 14 47 25t21 16
q6 6 20 14q13 7 19 11t10 10t6 8q12 0 33 29t25 35q6 6 14 9q11 4 19 23q9 19 14 25t7 23t11 22q10 4 17 18t7 21q29 29 29 62zM1030 1659q-56 0 -84 35l-18 14q-2 4 -5 9t-5 9q-2 2 -10 6t-18 13q-9 10 -16 22t-24 19t-18 25t-9 16q-8 5 -6 -9t0 -18q-6 -6 -22 -15t-18 -13
q-1 -5 -5 -11t-11 -13t-9 -10t-11 -5t-12 -11q-4 -10 -7 -13t-9 -8t-10 -8t-15 -13q-15 -13 -45 -18t-42 4q-11 10 -11 15q-18 0 -15 18t3 32q8 16 25 25q17 8 21 16t6 10q3 2 6 9t8 10t7 14q3 10 10 14q12 7 26 23q13 16 16 20q4 4 10 14t12 18t8 11q2 4 7 12t6 20
q0 11 4 21t13 22t17 25q4 4 20 3t40 3q26 -4 32 -11t18 -23t14 -32q1 -17 6 -27t6 -13q1 -4 6 -9t13 -17q7 -13 10 -16t8 -9t9 -10q15 -19 23 -24q8 -4 11 -13t5 -11t5 -6l6 -4q4 -12 7 -14t6 -9t7 -10q41 -21 41 -41l-2 -14l2 -12q0 -5 -6 -9t-10 -12q-15 -16 -27 -16z" />
    <glyph glyph-name="Odieresis" unicode="&#xd6;" horiz-adv-x="1734" 
d="M1624 899v-133l-2 -88l2 -47l-10 -25v-45l-15 -24l-2 -13l-22 -55l-8 -43l-29 -39l-41 -70l-18 -45l-19 -20l-10 -19l-25 -20l-45 -47l-26 -14l-27 -29l-37 -19l-28 -32l-35 -11l-33 -30l-25 -2l-53 -23l-20 -4l-23 -12l-53 -2l-35 -15l-45 4l-37 -14l-84 10l-39 -6
l-47 10l-41 5l-96 32l-33 4l-31 21l-61 35l-29 30l-49 29l-28 8l-19 39l-16 10l-21 21l-28 18l-9 21l-26 29l-10 24l-23 33l-8 26v25l-25 23l-12 39l-8 14l-13 43l-18 37l-2 18l-8 33l-2 29l-6 28l6 21l-15 30v52l7 37l-7 18l4 61l3 35l8 21l2 20l14 39v35l25 53l2 31l35 47
l18 49l10 8l49 84l27 29l25 41l30 16l13 17l22 16l12 21l21 8l18 18l17 4l43 31l22 10l15 13l22 2l31 20h18l37 12l33 13l14 2l19 10h22l31 4l27 -6l45 2l26 4h68l20 6l25 -4l16 -2l64 -25l55 -4l39 -22l33 -12l90 -54l14 -6l23 -20l63 -35l31 -49l27 -19l24 -43l39 -37
l14 -26l21 -25l20 -47l25 -31l20 -57l6 -74l15 -28l2 -43zM1454 523q0 33 16 58q16 24 11 43q-4 19 0 39t4 37t2 25l4 27q0 4 -10 24v49l-6 37l6 29q13 51 -20 88q-10 12 -12 26t-5 19l-10 25q0 2 1 13t-19 41q-21 30 -25 38t-3 19q1 16 -8 23q-10 7 -17 20t-10 17t-13 5
q-10 2 -12 5q-3 3 -5 8t-8 17q-4 3 -12 7t-13 6q-4 4 -8 16t-15 21q-12 8 -31 28t-39 28q-20 7 -31 11t-16 9t-29 14q-23 8 -31 14q-7 6 -11 8l-69 27q-4 2 -14 0t-13 -2l-25 10l-57 -2q-6 6 -16 6h-21q-21 21 -46 3t-46 -13q-20 20 -41 0q-4 -2 -14 -3q-16 -2 -32 -13
t-26 -12t-17 -4t-30 -16q-23 -12 -31 -16t-14 -4q-12 0 -27 -15l-20 -20q-16 -16 -28 -18q-13 -2 -16 -5t-10 -9t-9 -8q-2 -3 -8 -7t-11 -8l-10 -20q-9 -17 -22 -25t-16 -12t-5 -10t-7 -16t-20 -27q-14 -17 -12 -21q-14 -9 -20 -23t-7 -18q0 -4 -2 -4l-24 -33q0 -32 -10 -61
q-29 -61 -29 -84t-14 -51q0 -8 5 -24t-2 -32t-7 -24l4 -25l-4 -18l4 -25q2 -4 1 -12q-1 -11 4 -18q5 -8 5 -13l2 -45l8 -22q2 -5 1 -17t1 -18l7 -21q7 -20 7 -29q0 -10 10 -31t14 -39q3 -19 4 -24t12 -11q10 -5 13 -9t4 -10q1 -4 7 -12t10 -17q4 -10 13 -16q10 -8 14 -24
q5 -17 29 -37q24 -21 25 -29q1 -7 -1 -29q14 6 22 4t26 -18q17 -16 40 -32t31 -22q13 -10 22 -10h11q8 -4 22 -13t35 -17q22 -9 51 -24t55 -16q25 -2 31 -3l15 -3t14 -3t21 -4q37 -7 75 5l33 -6q23 11 46 13q23 1 48 14h25q21 11 46 25q25 15 56 30q31 14 47 25t21 16
q6 6 20 14q13 7 19 11t10 10t6 8q12 0 33 29t25 35q6 6 14 9q11 4 19 23q9 19 14 25t7 23t11 22q10 4 17 18t7 21q29 29 29 62zM682 1818q0 4 -4 17q-4 12 -2 18l10 27q2 5 5 17q2 12 7 22q39 39 105 2q40 -24 28 -63l-8 -21l8 -39q0 -2 -8 -26v-19q-12 -35 -50 -48t-73 34
q-2 2 -4 9t-7 14q-5 6 -7 10t-1 23t1 23zM1055 1800l-6 -38q0 -6 -2 -9q-10 -35 -50 -49t-71 35q-2 2 -5 10t-9 13t-5 10q-4 2 -2 22t2 25q-8 16 -8 34l10 27q2 4 6 17t9 21t31 19q25 10 59 -9t41 -36t1 -34q-7 -17 -8 -22q-1 -4 3 -18t4 -18z" />
    <glyph glyph-name="Oslash" unicode="&#xd8;" horiz-adv-x="1734" 
d="M1454 523q0 33 16 58q16 24 11 43q-4 19 0 39t4 37t2 25l4 27q0 4 -10 24v49l-6 37l6 29q13 51 -20 88q-10 12 -12 26t-5 19l-10 25q0 2 1 13t-19 41q-21 30 -25 38t-3 19q1 16 -8 23q-10 7 -17 20t-10 17t-13 5q-10 2 -12 5q-3 3 -5 8t-8 17q-19 15 -27 14t-22 -15
t-23 -32q-8 -17 -24 -31q-17 -13 -24 -21t-15 -29q-12 -30 -30 -42q-25 -18 -34 -39q-9 -20 -27 -42t-22 -28t-5 -10l-2 -6t-3 -6t-4 -7t-17 -17t-26 -37q-11 -23 -31 -43q-19 -19 -29 -37q-9 -17 -13 -22q-5 -5 -19 -17l-21 -18q-5 -8 -21 -36t-38 -62q-22 -33 -27 -38
q-4 -5 -12 -22t-20 -26q-11 -9 -26 -27q-15 -17 -21 -23l-8 -8q-3 -2 -5 -3t-4 -4t-36 -47q-35 -44 -55 -78t-31 -56q-11 -23 -22 -35q-4 -8 -20 -18q-17 -11 -21 -15t-6 -10t-2 -8t-9 -12t-8 -16t3 -11q4 -9 19 -17q14 -8 22 -14q13 -10 22 -10h11q8 -4 22 -13t35 -17
q22 -9 51 -24t55 -16q25 -2 31 -3l15 -3t14 -3t21 -4q37 -7 75 5l33 -6q23 11 46 13q23 1 48 14h25q21 11 46 25q25 15 56 30q31 14 47 25t21 16q6 6 20 14q13 7 19 11t10 10t6 8q12 0 33 29t25 35q6 6 14 9q11 4 19 23q9 19 14 25t7 23t11 22q10 4 17 18t7 21q29 29 29 62z
M885 1456h-21q-21 21 -46 3t-46 -13q-20 20 -41 0q-4 -2 -14 -3q-16 -2 -32 -13t-26 -12t-17 -4t-30 -16q-23 -12 -31 -16t-14 -4q-12 0 -27 -15l-20 -20q-16 -16 -28 -18q-13 -2 -16 -5t-10 -9t-9 -8q-2 -3 -8 -7t-11 -8l-10 -20q-9 -17 -22 -25t-16 -12t-5 -10t-7 -16
t-20 -26q-14 -17 -12 -22q-14 -9 -20 -23t-7 -18q0 -4 -2 -4l-24 -33q0 -32 -10 -61q-29 -61 -29 -84t-14 -51q0 -8 5 -24t-2 -32t-7 -24l4 -25l-4 -18l4 -25q2 -4 1 -12q-1 -11 4 -18q5 -8 5 -13l2 -45l8 -22q2 -5 1 -17t1 -18l7 -21q7 -20 7 -29q0 -10 10 -31t14 -39
q3 -19 4 -24t12 -11q10 -5 13 -9t4 -10q1 -4 7 -12t9 -14q3 -7 5 -10t10 -9q8 -5 9 -9q2 -4 6 -17t9 -20q12 -17 41 20q29 36 43 61q13 24 17 30t18 31t30 40q17 15 21 30q5 15 28 45q24 30 33 37t19 26t25 36t53 73q90 131 121 154t38 41q10 28 34 52t29 44t31 49t39 56
t34 38q4 6 12 19q7 13 11 20q4 4 15 11q10 7 14 10t32 40t37 86q0 12 -20 12q-8 4 -27 10t-26 13q-7 6 -11 8l-69 27q-4 2 -14 0t-13 -2l-25 10l-57 -2q-6 6 -16 6zM1624 899v-133l-2 -88l2 -47l-10 -25v-45l-15 -24l-2 -13l-22 -55l-8 -43l-29 -39l-41 -70l-18 -45l-19 -20
l-10 -19l-25 -20l-45 -47l-26 -14l-27 -29l-37 -19l-28 -32l-35 -11l-33 -30l-25 -2l-53 -23l-20 -4l-23 -12l-53 -2l-35 -15l-45 4l-37 -14l-84 10l-39 -6l-47 10l-41 5l-96 32l-33 4l-31 21l-61 35l-29 30l-32 15q-8 -12 -20 -44t-19 -41q-7 -10 -21 -18q-22 -14 -28 -32
q-14 -50 -82 -68q-20 -6 -24 -5t-26 15q-20 14 -22 19q-19 34 12 96q2 4 5 14q3 11 6 19t21 22t26 21q4 6 9 20t20 23q14 10 15 16t13 15t14 20l-28 18l-9 21l-26 29l-10 24l-23 33l-8 26v25l-25 23l-12 39l-8 14l-13 43l-18 37l-2 18l-8 33l-2 29l-6 28l6 21l-15 30v52
l7 37l-7 18l4 61l3 35l8 21l2 20l14 39v35l25 53l2 31l35 47l18 49l10 8l49 84l27 29l25 41l30 16l13 17l22 16l12 21l21 8l18 18l17 4l43 31l22 10l15 13l22 2l31 20h18l37 12l33 13l14 2l19 10h22l31 4l27 -6l45 2l26 4h68l20 6l25 -4l16 -2l64 -25l55 -4l39 -22l33 -12
q30 -45 67 -41q13 1 33 37t26 41t16 25q12 20 20 26q8 8 16 19q33 45 65 50q20 1 53 -25q34 -26 33 -55q0 -7 -8 -16q-8 -10 -11 -14t-13 -28q-15 -36 -32 -44t-22 -20q-4 -13 -8 -22t-24 -28q-20 -20 -25 -26l35 -43l27 -19l24 -43l39 -37l14 -26l21 -25l20 -47l25 -31
l20 -57l6 -74l15 -28l2 -43z" />
    <glyph glyph-name="Ugrave" unicode="&#xd9;" horiz-adv-x="1382" 
d="M1255 598q0 -42 7 -70q-4 -12 -13 -30l-4 -25v-24l-14 -33q-4 -8 -6 -35t-9 -34q-8 -7 -13 -17t-5 -16t-2 -11l-12 -18l-6 -21t-6 -19t-8 -8q-6 -4 -15 -24q-8 -18 -41 -35q-2 -2 -3 -9q-2 -12 -19 -21q-17 -8 -20 -15q-3 -6 -5 -9q-16 -24 -26 -26q-13 -3 -26 -18
q-14 -15 -28 -17q-15 -3 -34 -15l-25 -17q-12 -8 -22 -8t-24 -11q-21 -18 -39 -16q-18 3 -42 -7q-25 -9 -37 -12l-21 5q-74 3 -88 -11q-41 -16 -77 14q-9 9 -15 9l-27 -8q-6 2 -17 13t-31 11t-52 18q-33 18 -42 22q-9 3 -15 18q-7 14 -13 19t-22 9t-24 11t-16 29
q-9 22 -19 28q-30 21 -37 38t-18 25q-15 11 -19 25q-3 13 -13 24t-13 18t-6 24q-3 16 -5 22t-8 17q-9 17 -6 41t-14 41t-17 30l4 39v65l-6 21l6 37l-10 26q1 3 5 19q5 16 -2 47q-6 30 -3 45q4 16 4 26t6 35l-2 25l2 25q-10 20 -10 28l12 31l-6 23l4 22q-10 20 -10 25l10 30
l-6 29l2 25l-6 45q-2 39 0 53l4 33q-10 49 -4 106l10 29q0 8 -6 21t-4 32l10 23l-14 39q-6 27 7 53l15 30q8 15 31 15q13 13 38 11q26 -1 32 -5t7 -11q2 -11 14 -18q13 -6 17 -14q2 -8 -4 -24t-6 -19l8 -35l-8 -33q-2 -20 0 -37l6 -18l-6 -29v-77l6 -39q-6 -5 -7 -19t3 -164
l-6 -34l4 -15v-20l-4 -47l8 -43l-4 -21v-135q6 -29 6 -31q-10 -20 -10 -26t10 -25l-10 -57l10 -54v-30l4 -15q0 -8 -1 -29t7 -31q9 -9 9 -13l2 -21q10 -21 13 -34q2 -13 14 -28q15 -19 20 -34q5 -16 22 -30q26 -20 34 -31t20 -12q15 -1 23 -17q8 -17 20 -21t16 -6t14 -11
q9 -9 15 -11t12 -2t9 -1t9 -7q10 -10 34 -17q24 -6 29 -10t19 -3t18 1l19 -8q25 -2 29 -2l16 4q2 0 26 -1t38 4q14 4 56 22q40 18 45 18h9q14 4 24 13q11 10 22 15q11 4 17 14q7 9 10 11t7 4t8 5t7 5q4 5 8 13q6 12 22 21q17 10 24 28q9 22 25 37q16 14 20 21q3 7 4 21t3 21
q2 6 11 15q8 10 12 18t1 22t-3 21l8 20q4 12 5 34t-5 28v67l6 19v30q0 4 -4 16t4 26t10 20l-10 46l10 42q-1 17 -10 51l6 39l-6 41l6 59q-6 5 -6 15v22l-4 25l14 38q0 21 -3 29t2 27q5 18 -2 47t-7 44q0 14 2 18t5 8l6 8t2 7t-5 9t-4 10t2 13q2 10 0 14q-12 12 -14 22t8 34
q0 10 -6 16v29l6 36q-10 20 -6 31l8 25q2 2 3 14t5 16t27 15l37 14q4 2 32 -4t35 -12q3 -7 5 -13q1 -6 3 -16t10 -18q7 -8 7 -15l-6 -26l-2 -20q0 -5 -11 -25l2 -19q-2 -37 -2 -45l5 -20l-11 -30q0 -13 6 -22v-28l-6 -17l2 -24l-2 -35l6 -22l-6 -27q0 -11 11 -29
q-5 -30 -5 -57l-4 -14l6 -29q2 -4 0 -9t-2 -8l5 -18q-11 -33 -11 -39l6 -31q-19 -38 -6 -63q13 -26 13 -98l-7 -29l5 -33q0 -2 -11 -24v-52zM727 1829q0 -5 5 -12t8 -13t10 -10q38 -17 38 -39v-16q0 -2 2 -8t-7 -13q-9 -8 -11 -11t-12 -12t-32 -3q-21 6 -27 7t-14 5t-18 13
l-14 14t-9 8q-5 4 -8 10q-6 12 -26 20l-18 23q-2 0 -4 7t-19 16q-18 10 -21 15t-4 18t-13 24q-18 19 -15 27q2 7 -16 32q-19 25 -21 33t-5 13t-5 13q-4 16 12 22t27 16q10 10 16 10l29 10l22 2q6 0 22 -21q15 -21 18 -40q4 -19 9 -29t6 -15t8 -11q7 -7 12 -16q4 -9 8 -13
q4 -3 7 -7t6 -6t5 -7t7 -9t8 -8t9 -7t8 -5t3 -6q2 -3 3 -7q3 -14 11 -14z" />
    <glyph glyph-name="Uacute" unicode="&#xda;" horiz-adv-x="1382" 
d="M1255 598q0 -42 7 -70q-4 -12 -13 -30l-4 -25v-24l-14 -33q-4 -8 -6 -35t-9 -34q-8 -7 -13 -17t-5 -16t-2 -11l-12 -18l-6 -21t-6 -19t-8 -8q-6 -4 -15 -24q-8 -18 -41 -35q-2 -2 -3 -9q-2 -12 -19 -21q-17 -8 -20 -15q-3 -6 -5 -9q-16 -24 -26 -26q-13 -3 -26 -18
q-14 -15 -28 -17q-15 -3 -34 -15l-25 -17q-12 -8 -22 -8t-24 -11q-21 -18 -39 -16q-18 3 -42 -7q-25 -9 -37 -12l-21 5q-74 3 -88 -11q-41 -16 -77 14q-9 9 -15 9l-27 -8q-6 2 -17 13t-31 11t-52 18q-33 18 -42 22q-9 3 -15 18q-7 14 -13 19t-22 9t-24 11t-16 29
q-9 22 -19 28q-30 21 -37 38t-18 25q-15 11 -19 25q-3 13 -13 24t-13 18t-6 24q-3 16 -5 22t-8 17q-9 17 -6 41t-14 41t-17 30l4 39v65l-6 21l6 37l-10 26q1 3 5 19q5 16 -2 47q-6 30 -3 45q4 16 4 26t6 35l-2 25l2 25q-10 20 -10 28l12 31l-6 23l4 22q-10 20 -10 25l10 30
l-6 29l2 25l-6 45q-2 39 0 53l4 33q-10 49 -4 106l10 29q0 8 -6 21t-4 32l10 23l-14 39q-6 27 7 53l15 30q8 15 31 15q13 13 38 11q26 -1 32 -5t7 -11q2 -11 14 -18q13 -6 17 -14q2 -8 -4 -24t-6 -19l8 -35l-8 -33q-2 -20 0 -37l6 -18l-6 -29v-77l6 -39q-6 -5 -7 -19t3 -164
l-6 -34l4 -15v-20l-4 -47l8 -43l-4 -21v-135q6 -29 6 -31q-10 -20 -10 -26t10 -25l-10 -57l10 -54v-30l4 -15q0 -8 -1 -29t7 -31q9 -9 9 -13l2 -21q10 -21 13 -34q2 -13 14 -28q15 -19 20 -34q5 -16 22 -30q26 -20 34 -31t20 -12q15 -1 23 -17q8 -17 20 -21t16 -6t14 -11
q9 -9 15 -11t12 -2t9 -1t9 -7q10 -10 34 -17q24 -6 29 -10t19 -3t18 1l19 -8q25 -2 29 -2l16 4q2 0 26 -1t38 4q14 4 56 22q40 18 45 18h9q14 4 24 13q11 10 22 15q11 4 17 14q7 9 10 11t7 4t8 5t7 5q4 5 8 13q6 12 22 21q17 10 24 28q9 22 25 37q16 14 20 21q3 7 4 21t3 21
q2 6 11 15q8 10 12 18t1 22t-3 21l8 20q4 12 5 34t-5 28v67l6 19v30q0 4 -4 16t4 26t10 20l-10 46l10 42q-1 17 -10 51l6 39l-6 41l6 59q-6 5 -6 15v22l-4 25l14 38q0 21 -3 29t2 27q5 18 -2 47t-7 44q0 14 2 18t5 8l6 8t2 7t-5 9t-4 10t2 13q2 10 0 14q-12 12 -14 22t8 34
q0 10 -6 16v29l6 36q-10 20 -6 31l8 25q2 2 3 14t5 16t27 15l37 14q4 2 32 -4t35 -12q3 -7 5 -13q1 -6 3 -16t10 -18q7 -8 7 -15l-6 -26l-2 -20q0 -5 -11 -25l2 -19q-2 -37 -2 -45l5 -20l-11 -30q0 -13 6 -22v-28l-6 -17l2 -24l-2 -35l6 -22l-6 -27q0 -11 11 -29
q-5 -30 -5 -57l-4 -14l6 -29q2 -4 0 -9t-2 -8l5 -18q-11 -33 -11 -39l6 -31q-19 -38 -6 -63q13 -26 13 -98l-7 -29l5 -33q0 -2 -11 -24v-52zM729 1933q0 5 10 15q0 4 6 13t9 31t19 41q15 19 21 19l23 -2l29 -10q6 0 17 -10t23 -15q12 -4 15 -10q4 -6 -10 -35q-1 -12 -17 -32
t-18 -28q-2 -7 -1 -10q1 -4 -13 -22q-15 -18 -16 -30q-1 -11 -5 -16t-17 -12q-12 -6 -16 -10t-7 -10t-5 -8t-5 -6q-10 -13 -23 -20t-16 -14t-23 -27t-32 -22q-13 -3 -23 -6t-24 -5q-13 -2 -24 9q-10 11 -17 18t-7 18l2 4v22q8 18 39 33q4 2 7 9t6 9t6 10q3 7 7 10t5 5t3 9
q3 8 7 12q5 4 7 5q3 1 6 4t7 8t11 12t9 11t6 6q3 3 6 8t6 11t7 8z" />
    <glyph glyph-name="Ucircumflex" unicode="&#xdb;" horiz-adv-x="1382" 
d="M1255 598q0 -42 7 -70q-4 -12 -13 -30l-4 -25v-24l-14 -33q-4 -8 -6 -35t-9 -34q-8 -7 -13 -17t-5 -16t-2 -11l-12 -18l-6 -21t-6 -19t-8 -8q-6 -4 -15 -24q-8 -18 -41 -35q-2 -2 -3 -9q-2 -12 -19 -21q-17 -8 -20 -15q-3 -6 -5 -9q-16 -24 -26 -26q-13 -3 -26 -18
q-14 -15 -28 -17q-15 -3 -34 -15l-25 -17q-12 -8 -22 -8t-24 -11q-21 -18 -39 -16q-18 3 -42 -7q-25 -9 -37 -12l-21 5q-74 3 -88 -11q-41 -16 -77 14q-9 9 -15 9l-27 -8q-6 2 -17 13t-31 11t-52 18q-33 18 -42 22q-9 3 -15 18q-7 14 -13 19t-22 9t-24 11t-16 29
q-9 22 -19 28q-30 21 -37 38t-18 25q-15 11 -19 25q-3 13 -13 24t-13 18t-6 24q-3 16 -5 22t-8 17q-9 17 -6 41t-14 41t-17 30l4 39v65l-6 21l6 37l-10 26q1 3 5 19q5 16 -2 47q-6 30 -3 45q4 16 4 26t6 35l-2 25l2 25q-10 20 -10 28l12 31l-6 23l4 22q-10 20 -10 25l10 30
l-6 29l2 25l-6 45q-2 39 0 53l4 33q-10 49 -4 106l10 29q0 8 -6 21t-4 32l10 23l-14 39q-6 27 7 53l15 30q8 15 31 15q13 13 38 11q26 -1 32 -5t7 -11q2 -11 14 -18q13 -6 17 -14q2 -8 -4 -24t-6 -19l8 -35l-8 -33q-2 -20 0 -37l6 -18l-6 -29v-77l6 -39q-6 -5 -7 -19t3 -164
l-6 -34l4 -15v-20l-4 -47l8 -43l-4 -21v-135q6 -29 6 -31q-10 -20 -10 -26t10 -25l-10 -57l10 -54v-30l4 -15q0 -8 -1 -29t7 -31q9 -9 9 -13l2 -21q10 -21 13 -34q2 -13 14 -28q15 -19 20 -34q5 -16 22 -30q26 -20 34 -31t20 -12q15 -1 23 -17q8 -17 20 -21t16 -6t14 -11
q9 -9 15 -11t12 -2t9 -1t9 -7q10 -10 34 -17q24 -6 29 -10t19 -3t18 1l19 -8q25 -2 29 -2l16 4q2 0 26 -1t38 4q14 4 56 22q40 18 45 18h9q14 4 24 13q11 10 22 15q11 4 17 14q7 9 10 11t7 4t8 5t7 5q4 5 8 13q6 12 22 21q17 10 24 28q9 22 25 37q16 14 20 21q3 7 4 21t3 21
q2 6 11 15q8 10 12 18t1 22t-3 21l8 20q4 12 5 34t-5 28v67l6 19v30q0 4 -4 16t4 26t10 20l-10 46l10 42q-1 17 -10 51l6 39l-6 41l6 59q-6 5 -6 15v22l-4 25l14 38q0 21 -3 29t2 27q5 18 -2 47t-7 44q0 14 2 18t5 8l6 8t2 7t-5 9t-4 10t2 13q2 10 0 14q-12 12 -14 22t8 34
q0 10 -6 16v29l6 36q-10 20 -6 31l8 25q2 2 3 14t5 16t27 15l37 14q4 2 32 -4t35 -12q3 -7 5 -13q1 -6 3 -16t10 -18q7 -8 7 -15l-6 -26l-2 -20q0 -5 -11 -25l2 -19q-2 -37 -2 -45l5 -20l-11 -30q0 -13 6 -22v-28l-6 -17l2 -24l-2 -35l6 -22l-6 -27q0 -11 11 -29
q-5 -30 -5 -57l-4 -14l6 -29q2 -4 0 -9t-2 -8l5 -18q-11 -33 -11 -39l6 -31q-19 -38 -6 -63q13 -26 13 -98l-7 -29l5 -33q0 -2 -11 -24v-52zM717 1807v13q0 8 -8 7q-9 5 -7 -9t0 -18q-6 -6 -26 -16q-20 -11 -19 -25q-18 -18 -20 -21t-11 -5t-12 -12q-4 -9 -7 -12t-9 -8
t-10 -8t-12 -11q-31 -28 -60 -24q-28 3 -31 9q-5 8 -16 17q-10 9 -6 18v29q7 16 25 25q18 8 21 16t6 10t6 9t7 10t10 15q5 11 10 14t13 11t11 12t13 14q9 11 11 15t11 16t11 17q2 4 8 12t6 19q2 26 34 69q4 4 21 3t38 3q27 -4 33 -11q30 -35 30 -64l13 -31q2 -2 4 -5t6 -8
q4 -6 10 -16q7 -10 15 -19t11 -13t11 -13q8 -8 13 -11t7 -6t5 -9q2 -8 14 -19q4 -12 7 -14t7 -10t7 -9q40 -21 40 -41l-2 -14l2 -12q0 -5 -5 -9q-5 -3 -15 -15t-22 -13q-49 0 -85 35q-16 8 -28 32q-2 2 -19 10t-20 20q-4 11 -10 20q-4 4 -20 13q-16 8 -17 18z" />
    <glyph glyph-name="Udieresis" unicode="&#xdc;" horiz-adv-x="1382" 
d="M1255 598q0 -42 7 -70q-4 -12 -13 -30l-4 -25v-24l-14 -33q-4 -8 -6 -35t-9 -34q-8 -7 -13 -17t-5 -16t-2 -11l-12 -18l-6 -21t-6 -19t-8 -8q-6 -4 -15 -24q-8 -18 -41 -35q-2 -2 -3 -9q-2 -12 -19 -21q-17 -8 -20 -15q-3 -6 -5 -9q-16 -24 -26 -26q-13 -3 -26 -18
q-14 -15 -28 -17q-15 -3 -34 -15l-25 -17q-12 -8 -22 -8t-24 -11q-21 -18 -39 -16q-18 3 -42 -7q-25 -9 -37 -12l-21 5q-74 3 -88 -11q-41 -16 -77 14q-9 9 -15 9l-27 -8q-6 2 -17 13t-31 11t-52 18q-33 18 -42 22q-9 3 -15 18q-7 14 -13 19t-22 9t-24 11t-16 29
q-9 22 -19 28q-30 21 -37 38t-18 25q-15 11 -19 25q-3 13 -13 24t-13 18t-6 24q-3 16 -5 22t-8 17q-9 17 -6 41t-14 41t-17 30l4 39v65l-6 21l6 37l-10 26q1 3 5 19q5 16 -2 47q-6 30 -3 45q4 16 4 26t6 35l-2 25l2 25q-10 20 -10 28l12 31l-6 23l4 22q-10 20 -10 25l10 30
l-6 29l2 25l-6 45q-2 39 0 53l4 33q-10 49 -4 106l10 29q0 8 -6 21t-4 32l10 23l-14 39q-6 27 7 53l15 30q8 15 31 15q13 13 38 11q26 -1 32 -5t7 -11q2 -11 14 -18q13 -6 17 -14q2 -8 -4 -24t-6 -19l8 -35l-8 -33q-2 -20 0 -37l6 -18l-6 -29v-77l6 -39q-6 -5 -7 -19t3 -164
l-6 -34l4 -15v-20l-4 -47l8 -43l-4 -21v-135q6 -29 6 -31q-10 -20 -10 -26t10 -25l-10 -57l10 -54v-30l4 -15q0 -8 -1 -29t7 -31q9 -9 9 -13l2 -21q10 -21 13 -34q2 -13 14 -28q15 -19 20 -34q5 -16 22 -30q26 -20 34 -31t20 -12q15 -1 23 -17q8 -17 20 -21t16 -6t14 -11
q9 -9 15 -11t12 -2t9 -1t9 -7q10 -10 34 -17q24 -6 29 -10t19 -3t18 1l19 -8q25 -2 29 -2l16 4q2 0 26 -1t38 4q14 4 56 22q40 18 45 18h9q14 4 24 13q11 10 22 15q11 4 17 14q7 9 10 11t7 4t8 5t7 5q4 5 8 13q6 12 22 21q17 10 24 28q9 22 25 37q16 14 20 21q3 7 4 21t3 21
q2 6 11 15q8 10 12 18t1 22t-3 21l8 20q4 12 5 34t-5 28v67l6 19v30q0 4 -4 16t4 26t10 20l-10 46l10 42q-1 17 -10 51l6 39l-6 41l6 59q-6 5 -6 15v22l-4 25l14 38q0 21 -3 29t2 27q5 18 -2 47t-7 44q0 14 2 18t5 8l6 8t2 7t-5 9t-4 10t2 13q2 10 0 14q-12 12 -14 22t8 34
q0 10 -6 16v29l6 36q-10 20 -6 31l8 25q2 2 3 14t5 16t27 15l37 14q4 2 32 -4t35 -12q3 -7 5 -13q1 -6 3 -16t10 -18q7 -8 7 -15l-6 -26l-2 -20q0 -5 -11 -25l2 -19q-2 -37 -2 -45l5 -20l-11 -30q0 -13 6 -22v-28l-6 -17l2 -24l-2 -35l6 -22l-6 -27q0 -11 11 -29
q-5 -30 -5 -57l-4 -14l6 -29q2 -4 0 -9t-2 -8l5 -18q-11 -33 -11 -39l6 -31q-19 -38 -6 -63q13 -26 13 -98l-7 -29l5 -33q0 -2 -11 -24v-52zM664 1839l6 -39q0 -2 -4 -16t-3 -20t-1 -9q-12 -35 -51 -48t-70 34q-4 2 -6 10q-1 8 -7 13t-6 10q-4 2 -2 22t0 25l-6 34l10 27
q2 4 6 18t9 19q5 10 31 20t60 -9t40 -36q7 -17 1 -34q-7 -17 -7 -21zM745 1820q0 4 -4 17q-4 12 -2 18l11 27q2 4 5 18t9 21q6 8 31 18t58 -9t38 -27q10 -23 4 -43l-8 -21l8 -39q0 -2 -8 -26v-19q-12 -35 -50 -48t-73 34q-2 2 -5 10t-4 11q-1 2 -7 8t-4 26q1 20 1 24z" />
    <glyph glyph-name="agrave" unicode="&#xe0;" horiz-adv-x="954" 
d="M566 794q-13 -1 -21 1t-41 2l-17 4l-25 -8l-22 4q-4 2 -12 1t-11 0t-8 3q-11 4 -42 -19q-23 -6 -33 -6q-39 0 -53 -18q-13 -18 -17 -17q-4 0 -16 2t-43 3q-31 0 -36 24t-3 30t7 13t5 29t15 38t77 17q16 8 33 8l45 4q4 0 11 4q7 3 13 5t17 1q12 -1 19 -1q6 6 18 6t29 3
q16 3 37 0t34 -3l27 -6q57 0 69 -4t24 -14q13 -9 40 -11q27 -3 36 -18t14 -18t10 -4q4 -1 10 -3q10 -4 14 -16q3 -12 15 -25t12 -20t2 -9l8 -16l4 -21q2 -4 13 -23t-1 -61q10 -23 11 -47l-7 -21q-4 -15 -5 -43t0 -32t7 -12q5 -8 7 -16t0 -16q-2 -9 -2 -11l-3 -21l-4 -12
q-1 -14 3 -20t4 -34q0 -30 -3 -32l-6 -23q0 -16 9 -28v-56l2 -24q0 -7 -8 -19t-6 -19q1 -7 12 -26q0 -28 -7 -53q-1 -2 5 -22t-1 -23q-12 -23 -65 -37q-4 0 -16 4t-19 6q-9 2 -26 19q-31 17 -52 -4q-24 -12 -35 -18t-37 -14q-26 -7 -51 -17t-65 2q-14 0 -29 -15q-6 -2 -18 4
h-23l-26 21l-23 -4l-20 4q-24 0 -42 13q-25 19 -52 23t-46 25q0 3 -8 19q-4 4 -12 8t-11 8t-7 9q-3 5 -5 11l-4 12q-2 5 -5 11t-5 11t-11 19t-5 26t3 18t-14 14q-22 40 2 88v23q0 21 8 39t11 28q5 24 27 39q34 44 41 55q8 11 10 13t5 3t9 4t17 11q12 8 18 10l15 5q9 2 15 4
t14 11q9 9 17 13l26 4q5 0 10 2q5 3 14 5t17 5t17 5t15 4t13 1t11 -1q20 10 33 12t63 0t72 -2q24 8 34 8l36 -10q10 0 27 31t4 46q-13 16 -12 27t-1 14t-7 5t-9 3q-8 2 -12 13t-13 19q-6 4 -23 7q-23 4 -35 16t-25 11zM439 475q-22 0 -62 -20q-46 -17 -51 -17q-20 0 -56 -49
q-2 -4 -11 -17t-14 -20t-9 -10q-5 -4 -4 -10t-1 -10l-10 -18q0 -3 3 -10q3 -6 0 -24t1 -28t23 -25q0 -2 5 -17q5 -16 10 -20t17 -6q17 -3 32 -30t48 -21l19 4l22 -10q10 0 78 6h47q4 0 12 4t42 12q35 8 49 21q14 14 21 16t13 6q5 4 13 18t13 20q5 7 3 24q-2 18 0 24l10 45
q-6 13 -6 21v20l-4 14l4 15l-4 31q-2 6 -2 14t2 20t-8 27q-10 16 -64 18q-55 1 -61 -1t-37 -3l-18 -10q-2 -2 -14 -1t-16 1l-15 -4h-20zM580 1188q0 -5 5 -12t8 -13t9 -10q39 -18 39 -39q0 -10 1 -20t-13 -23q-21 -25 -34 -23q-13 3 -25 6t-22 5q-11 2 -25 14q-13 13 -18 19
t-8 8t-7 9t-10 10q-5 3 -8 5t-5 3q-3 1 -13 13q-10 11 -12 18t-19 16q-17 10 -21 15t-4 15q-1 10 -4 16t-11 14q-15 17 -12 24q2 7 -16 32q-19 25 -21 33t-5 13q-16 26 15 38q4 2 15 12t20 11l29 10l21 2q6 0 23 -23t20 -49t13 -35q9 -10 12 -13t10 -15t17 -24
q10 -11 16 -16t7 -9q2 -2 8 -5q9 -4 13 -18q5 -14 12 -14z" />
    <glyph glyph-name="aacute" unicode="&#xe1;" horiz-adv-x="954" 
d="M566 794q-13 -1 -21 1t-41 2l-17 4l-25 -8l-22 4q-4 2 -12 1t-11 0t-8 3q-11 4 -42 -19q-23 -6 -33 -6q-39 0 -53 -18q-13 -18 -17 -17q-4 0 -16 2t-43 3q-31 0 -36 24t-3 30t7 13t5 29t15 38t77 17q16 8 33 8l45 4q4 0 11 4q7 3 13 5t17 1q12 -1 19 -1q6 6 18 6t29 3
q16 3 37 0t34 -3l27 -6q57 0 69 -4t24 -14q13 -9 40 -11q27 -3 36 -18t14 -18t10 -4q4 -1 10 -3q10 -4 14 -16q3 -12 15 -25t12 -20t2 -9l8 -16l4 -21q2 -4 13 -23t-1 -61q10 -23 11 -47l-7 -21q-4 -15 -5 -43t0 -32t7 -12q5 -8 7 -16t0 -16q-2 -9 -2 -11l-3 -21l-4 -12
q-1 -14 3 -20t4 -34q0 -30 -3 -32l-6 -23q0 -16 9 -28v-56l2 -24q0 -7 -8 -19t-6 -19q1 -7 12 -26q0 -28 -7 -53q-1 -2 5 -22t-1 -23q-12 -23 -65 -37q-4 0 -16 4t-19 6q-9 2 -26 19q-31 17 -52 -4q-24 -12 -35 -18t-37 -14q-26 -7 -51 -17t-65 2q-14 0 -29 -15q-6 -2 -18 4
h-23l-26 21l-23 -4l-20 4q-24 0 -42 13q-25 19 -52 23t-46 25q0 3 -8 19q-4 4 -12 8t-11 8t-7 9q-3 5 -5 11l-4 12q-2 5 -5 11t-5 11t-11 19t-5 26t3 18t-14 14q-22 40 2 88v23q0 21 8 39t11 28q5 24 27 39q34 44 41 55q8 11 10 13t5 3t9 4t17 11q12 8 18 10l15 5q9 2 15 4
t14 11q9 9 17 13l26 4q5 0 10 2q5 3 14 5t17 5t17 5t15 4t13 1t11 -1q20 10 33 12t63 0t72 -2q24 8 34 8l36 -10q10 0 27 31t4 46q-13 16 -12 27t-1 14t-7 5t-9 3q-8 2 -12 13t-13 19q-6 4 -23 7q-23 4 -35 16t-25 11zM439 475q-22 0 -62 -20q-46 -17 -51 -17q-20 0 -56 -49
q-2 -4 -11 -17t-14 -20t-9 -10q-5 -4 -4 -10t-1 -10l-10 -18q0 -3 3 -10q3 -6 0 -24t1 -28t23 -25q0 -2 5 -17q5 -16 10 -20t17 -6q17 -3 32 -30t48 -21l19 4l22 -10q10 0 78 6h47q4 0 12 4t42 12q35 8 49 21q14 14 21 16t13 6q5 4 13 18t13 20q5 7 3 24q-2 18 0 24l10 45
q-6 13 -6 21v20l-4 14l4 15l-4 31q-2 6 -2 14t2 20t-8 27q-10 16 -64 18q-55 1 -61 -1t-37 -3l-18 -10q-2 -2 -14 -1t-16 1l-15 -4h-20zM369 1071l2 12v23q8 18 39 33q4 2 7 9t6 9t5 8q2 7 7 11q6 6 8 14q2 9 14 16t21 21t17 20t12 16q5 11 11 17t8 10t8 14t7 28q2 19 12 33
q10 13 16 21t13 9l22 -2q2 0 14 -5l18 -6t15 -11q10 -9 17 -11q25 -8 18 -31l-8 -16q-2 -13 -18 -33t-17 -28q-2 -8 -1 -10q1 -3 -3 -8t-11 -15q-6 -11 -10 -15t-5 -17t-18 -22q-30 -17 -30 -30l-20 -21q-2 -4 -10 -7q-9 -3 -11 -5t-5 -8t-5 -8q-6 -7 -24 -23
q-18 -15 -29 -18q-29 -9 -45 -11q-16 -3 -25 10t-14 17q-6 4 -8 10z" />
    </font>
</defs>
</svg>
