<?xml version="1.0" standalone="no"?>
<!DOCTYPE svg PUBLIC "-//W3C//DTD SVG 1.1//EN" "http://www.w3.org/Graphics/SVG/1.1/DTD/svg11.dtd" >
<svg xmlns="http://www.w3.org/2000/svg" xmlns:xlink="http://www.w3.org/1999/xlink" version="1.1">
<metadata>
Created by FontForge 20170812 at Wed Jun  8 16:50:09 2022
 By www-data
</metadata>
<defs>
<font id="ActiveRegular" horiz-adv-x="0" >
  <font-face 
    font-family="Active"
    font-weight="400"
    font-stretch="normal"
    units-per-em="1000"
    panose-1="0 0 0 0 0 0 0 0 0 0"
    ascent="800"
    descent="-200"
    x-height="302.305"
    cap-height="698.742"
    bbox="-160.999 -369.567 1296.3 895.148"
    underline-thickness="50"
    underline-position="-100"
    unicode-range="U+000A-20AC"
  />
<missing-glyph horiz-adv-x="527" 
d="M50 700h427v-700h-427v700zM78 680l185 -309l186 309h-371zM251 350l-180 300v-601zM264 329l-185 -308h370zM276 350l181 -303v605z" />
    <glyph glyph-name=".notdef" horiz-adv-x="527" 
d="M50 700h427v-700h-427v700zM78 680l185 -309l186 309h-371zM251 350l-180 300v-601zM264 329l-185 -308h370zM276 350l181 -303v605z" />
    <glyph glyph-name=".null" 
 />
    <glyph glyph-name=".null" 
 />
    <glyph glyph-name="LF" unicode="&#xa;" 
 />
    <glyph glyph-name="controlCR" unicode="&#xd;" 
 />
    <glyph glyph-name="space" unicode=" " horiz-adv-x="431" 
 />
    <glyph glyph-name="exclam" unicode="!" horiz-adv-x="199" 
d="M148.724 70.9922c2.85645 -39.8301 -74.873 -67.7744 -84.3779 -22.4893c-16.876 80.4424 -14.6963 164.881 -13.6289 246.676c0.525391 40.2861 1.37695 80.5684 1.89062 120.854c0.268555 21.1533 0.981445 42.2217 1.57227 63.3594
c0.504883 18.1748 4.5752 36.1953 5.5166 53.9512c0.416016 7.83887 6.59277 13.4365 13.9385 15.4531c39.4473 10.8213 44.9805 -52.1465 48.6387 -77.9238c6.09473 -42.9268 7.55762 -86.7783 9.48926 -130.055c4.02148 -90.1553 10.5117 -179.842 16.9609 -269.826z
M90.0488 -49.7393c4.2334 17.4131 37.4297 32.6445 48.165 13.0107c8.66211 -15.8408 9.70117 -35.6621 10.2305 -53.3604c0.49707 -16.6152 -14.9238 -28.251 -29.375 -32.5742c-11.0654 -3.30469 -34.248 -0.204102 -33.4209 15.8359
c0.969727 18.8438 -0.0771484 38.6768 4.40039 57.0879z" />
    <glyph glyph-name="quotedbl" unicode="&#x22;" horiz-adv-x="235" 
d="M87.1426 554.219c8.21777 0.444336 20.2744 -3.67578 20.3438 -13.8203c0.105469 -15.0869 -1.05957 -28.9961 -4.07422 -43.8389c-2.75391 -13.5674 -6.77148 -26.4336 -19.7158 -33.3027c-16.7129 -8.86523 -28.4424 4.88965 -31.918 19.8867
c-4.49414 19.3936 0.0654297 36.4688 7.67578 54.2852c4.19629 9.81934 17.5557 16.2402 27.6885 16.79zM159.946 552.987c14.1494 0.770508 26.9346 -7.97754 24.25 -23.1953c-3.92383 -22.2334 -8.53223 -47.0293 -26.3652 -62.2178
c-12.3779 -10.5439 -29.9502 -0.842773 -33.9873 12.6309c-4.50586 15.0342 -4.52246 30.7852 -0.125977 45.9287c4.46582 15.376 20.6162 26.0059 36.2285 26.8535z" />
    <glyph glyph-name="quotedbl" unicode="&#x201d;" horiz-adv-x="235" 
d="M87.1426 554.219c8.21777 0.444336 20.2744 -3.67578 20.3438 -13.8203c0.105469 -15.0869 -1.05957 -28.9961 -4.07422 -43.8389c-2.75391 -13.5674 -6.77148 -26.4336 -19.7158 -33.3027c-16.7129 -8.86523 -28.4424 4.88965 -31.918 19.8867
c-4.49414 19.3936 0.0654297 36.4688 7.67578 54.2852c4.19629 9.81934 17.5557 16.2402 27.6885 16.79zM159.946 552.987c14.1494 0.770508 26.9346 -7.97754 24.25 -23.1953c-3.92383 -22.2334 -8.53223 -47.0293 -26.3652 -62.2178
c-12.3779 -10.5439 -29.9502 -0.842773 -33.9873 12.6309c-4.50586 15.0342 -4.52246 30.7852 -0.125977 45.9287c4.46582 15.376 20.6162 26.0059 36.2285 26.8535z" />
    <glyph glyph-name="quotedbl" unicode="&#x201c;" horiz-adv-x="235" 
d="M87.1426 554.219c8.21777 0.444336 20.2744 -3.67578 20.3438 -13.8203c0.105469 -15.0869 -1.05957 -28.9961 -4.07422 -43.8389c-2.75391 -13.5674 -6.77148 -26.4336 -19.7158 -33.3027c-16.7129 -8.86523 -28.4424 4.88965 -31.918 19.8867
c-4.49414 19.3936 0.0654297 36.4688 7.67578 54.2852c4.19629 9.81934 17.5557 16.2402 27.6885 16.79zM159.946 552.987c14.1494 0.770508 26.9346 -7.97754 24.25 -23.1953c-3.92383 -22.2334 -8.53223 -47.0293 -26.3652 -62.2178
c-12.3779 -10.5439 -29.9502 -0.842773 -33.9873 12.6309c-4.50586 15.0342 -4.52246 30.7852 -0.125977 45.9287c4.46582 15.376 20.6162 26.0059 36.2285 26.8535z" />
    <glyph glyph-name="numbersign" unicode="#" horiz-adv-x="525" 
d="M466.365 279.158c8.2832 -0.541992 10.5137 -9.00391 7.48242 -15.3721c-3.74023 -7.8877 -13.5879 -11.1104 -21.6465 -10.5566c-28.8213 1.98047 -57.6709 3.47168 -86.5293 4.6123c-0.354492 -20.2529 -0.594727 -40.5098 -0.517578 -60.7754
c0.0771484 -18.9902 0.300781 -37.9883 0.585938 -56.9902c29.1191 -1.71094 58.2139 -4.21289 87.2432 -7.59082c20.9375 -2.43652 1.14453 -28.125 -14.334 -26.2676c-24.1191 2.90039 -48.2793 5.18164 -72.4639 6.87695
c0.480469 -24.7021 1.08789 -49.4004 1.79297 -74.0781c1.54785 -54.2568 5.87109 -109.007 -9.04492 -161.817c-3.19434 -11.3018 -23.3047 -20.6191 -30.7891 -8.31445c-27.7988 45.709 -31.5752 101.645 -36.7861 153.803
c-3.125 31.2539 -5.37012 62.5117 -7.05664 93.8184c-16.7578 0.236328 -33.5156 0.195312 -50.2734 -0.138672c0.44043 -26.291 1.1084 -52.5781 2.0332 -78.8242c0.945312 -26.9639 1.34863 -54.0371 2.99023 -80.9639c1.37695 -22.5918 7.59473 -54 -0.30957 -75.4023
c-4.53418 -12.2715 -21.9922 -24.8242 -35.4248 -17.2783c-21.084 11.8398 -29.5381 40.1602 -35.1689 62.6094c-6.66504 26.5684 -9.82227 54.1719 -12.7764 81.3428c-3.77246 34.7168 -6.52246 69.4336 -8.46582 104.216
c-28.5078 -2.24902 -56.9785 -5.27246 -85.376 -9.15918c-21.1865 -2.90039 -9.5791 23.0771 6.0498 25.2695c25.9453 3.64258 51.9551 6.55957 78.0098 8.83301c-0.558594 12.8828 -1.02344 25.7734 -1.3291 38.6846c-0.647461 27.2324 -1.10352 54.7949 -1.12793 82.4922
c-26.1162 -1.42188 -52.1387 -3.8457 -77.8672 -8.04199c-17.7188 -2.89258 -11.3916 20.3594 1.88672 22.9346c25.1621 4.87695 50.5654 7.86328 76.0781 9.7168c0.770508 80.6787 5.99805 162.103 22.4053 239.835c4.15527 19.6748 25.6719 32.6309 43.9941 35.7432
c14.2969 2.42871 39.582 -2.56641 39.2441 -22.0615c-0.969727 -55.8496 -7.16211 -111.614 -10.21 -167.383c-1.51172 -27.6963 -2.72168 -55.4258 -3.58984 -83.1719c9.94922 0.0527344 19.8906 0.0693359 29.8193 0.0820312
c5.125 0.0078125 10.25 -0.0976562 15.375 -0.118164c0.46875 72.3789 4.39258 144.799 15.3076 216.192c4.50977 29.502 76.1309 51.6865 76.1025 12.5127c-0.0527344 -76.792 -3.65039 -153.502 -5.47559 -230.27c33.4092 -1.13281 66.8018 -2.81152 100.162 -4.99902z
M233.728 142.117c16.415 0.464844 32.8359 0.669922 49.2588 0.59668c-0.517578 12.0391 -0.969727 24.083 -1.32031 36.1426c-0.786133 26.959 -1.32812 53.9961 -1.44238 81.0576c-8.50293 0.0810547 -17.0059 0.231445 -25.5127 0.235352
c-6.75098 0.00390625 -13.5146 0.00390625 -20.2861 0c-0.444336 -18.876 -0.791016 -37.7559 -0.896484 -56.624c-0.114258 -20.4531 -0.0126953 -40.9307 0.199219 -61.4082z" />
    <glyph glyph-name="dollar" unicode="$" horiz-adv-x="432" 
d="M354.314 63.2715c24.7432 -40.2939 38.0684 -86.2314 16.0752 -130.881c-21.4512 -43.5254 -62.8779 -68.46 -107.21 -73.2715c0.619141 -8.32324 1.2793 -16.6514 2 -24.9873c1.64551 -19.0508 -37.2354 -32.5449 -40.377 -10.7598
c-1.78906 12.3984 -3.03613 24.8252 -3.9043 37.2637c-18.3506 3.33301 -36.2891 10.1455 -52.5986 20.6367c-71.0469 45.7012 -80.6299 144.404 -34.1143 211.169c4.16016 5.96875 12.1045 11.7139 19.9473 9.72949c6.2373 -1.58105 11.2197 -7.83496 6.90527 -14.1621
c-29.0986 -42.6777 -34.0166 -99.501 -7.58301 -144.848c14.3945 -24.6943 38.7217 -43.4443 66.0479 -52.5254c-1.02246 40.3145 0.998047 80.751 1.73145 121.139c0.5625 30.96 1.24707 61.916 2.0459 92.8682c-64.1572 68.7773 -153.318 127.324 -170.96 225.949
c-17.21 96.2217 63.8682 185.644 157.503 194.786c8.75586 0.855469 17.6865 0.814453 26.5928 -0.00878906c-0.330078 17.7471 -1.39746 35.3809 -3.75195 52.7451c-1.96387 14.4922 28.1738 24.6416 30.6836 8.17773c0.34668 -2.28613 0.697266 -4.56738 1.04395 -6.85352
c0.0859375 -0.566406 0.0410156 -1.1123 0.0283203 -1.66602c2.28613 -19.3564 3.13379 -39.0146 3.19531 -58.7832c20.1064 -6.49414 38.7256 -17.4131 53.1611 -32.5977c29.1191 -30.6221 39.6631 -73.7725 46.1855 -114.271
c2.5752 -15.9951 -30.8545 -27.2891 -34.0283 -9.06934c-7.76562 44.5967 -23.623 96.4863 -65.9785 117.534c-0.834961 -25.7041 -2.2002 -51.3682 -2.5957 -76.543c-1.00586 -63.8398 -3.35254 -127.639 -5.22656 -191.458
c-0.273438 -9.2041 -0.522461 -18.3994 -0.762695 -27.5869c35.7598 -37.2227 68.8994 -77.6797 95.9443 -121.727zM232.618 395.584c0.660156 30.8174 2.77344 62.3535 3.59277 93.8193c-45.2002 4.7832 -88.9492 -23.9404 -106.15 -66.3701
c-32.8789 -81.1025 38.9385 -151.29 96.6748 -206.851c2.15137 59.7979 4.59961 119.579 5.88281 179.401zM325.18 -77.1309c4.68945 18.9775 -3.46777 43.1123 -11.1475 60.2568c-13.9502 31.1396 -34.9736 58.7344 -57.5166 84.7119
c-0.183594 -61.0361 1.0957 -121.958 4.91309 -183.092c2.65625 0.130859 5.30859 0.342773 7.95312 0.680664c21.8262 2.77832 50.0244 14.0645 55.7979 37.4424z" />
    <glyph glyph-name="percent" unicode="%" horiz-adv-x="514" 
d="M445.207 522.839c16.9287 -5.06055 23.6299 -22.5312 14.7402 -37.9766c-61.7412 -107.169 -124.737 -212.334 -178.518 -323.952c-26.6904 -55.3975 -52.5781 -111.231 -78.1074 -167.171c-26.3193 -57.6748 -51.8164 -116.812 -90.6807 -166.804
c-5.96094 -7.66406 -35.7637 -16.0117 -34.4316 1.58105c1.19824 15.8525 1.47559 29.0693 6.07129 44.8486c4.05762 13.9219 8.82031 27.6436 13.7422 41.2803c10.5684 29.2773 21.1367 58.5146 32.8457 87.3604c23.4434 57.7568 47.8154 115.008 74.123 171.521
c53.21 114.312 110.38 230.632 186.238 331.845c11.3428 15.1357 36.1309 22.8037 53.9766 17.4668zM152.996 280.543c-62.0146 -19.9678 -103.821 34.4717 -102.986 91.8906c0.110352 7.65527 3.34961 14.8096 8.38574 20.8682
c0.692383 34.79 23.7568 70.9697 55.0146 83.5186c48.5654 19.499 83.9258 -20.498 97.8643 -62.9844c16.6553 -50.7607 -3.6875 -115.721 -58.2783 -133.293zM92.3906 411.407c13.2412 1.20215 25.5039 -4.22949 29.7246 -19.7402
c3.81738 -14.0273 4.73047 -29.7744 11.71 -42.7715c2.59082 -4.82422 5.39355 -8.84961 9.74902 -12.3535c3.08008 -2.47754 8.02246 -3.41016 6.31152 -4.27344c15.4619 5.7002 23.6924 51.2461 23.293 67.3193c-0.583008 23.3984 -20.0537 61.9531 -49.6123 54.4932
c-17.8574 -4.50586 -28.1611 -23.0889 -31.1758 -42.6738zM344.692 94.5469c41.3867 24.1934 89.8271 12.5615 103.297 -36.167c13.9336 -50.3779 -3.60156 -99.7988 -53.0342 -121.869c-46.332 -20.6895 -110.688 -4.71387 -117.916 51.833
c-1.09961 8.60449 4.13184 17.1934 12.0723 23.9727c1.75586 32.2031 32.3496 68.6514 55.5811 82.2305zM380.856 -22.6895c24.4736 2.88086 36.8623 38.2324 35.0781 58.8887c-2.49707 28.9844 -25.1416 54.0693 -55.0625 39.1455
c-12.6016 -6.28223 -33.2617 -29.082 -39.0107 -49.6289c9.43164 0.179688 17.4375 -3.52832 20.4199 -12.9639c4.99902 -15.8281 19.0186 -37.7393 38.5752 -35.4414z" />
    <glyph glyph-name="ampersand" unicode="&#x26;" horiz-adv-x="520" 
d="M432.112 133.015c76.123 -55.1572 22.7119 -160.609 -25.6006 -214.121c-28.7275 -31.8076 -66.8789 -57.2598 -108.457 -72.0859c1.38965 -10.9229 2.88086 -21.8457 4.60059 -32.7607c2.42383 -15.4297 -30.0361 -26.3037 -32.7617 -8.73535
c-1.66602 10.752 -3.1123 21.5039 -4.46094 32.2559c-34.0938 -7.19141 -69.3809 -7 -102.888 2.81445c-40.1191 11.75 -76.9092 37.4463 -96.5801 75.084c-20.917 40.0293 -19.8457 89.377 -5.03613 131.207c19.5156 55.125 57.7158 106.583 103.363 147.876
c-32.6963 5.86328 -61.835 22.3115 -78.499 55.667c-28.8496 57.7529 -3.4668 130.047 34.2158 177.235c35.9639 45.0332 99.1797 78.7803 158.521 75.957c0.371094 20.2285 0.49707 40.457 0.249023 60.6777c-0.183594 14.8545 30.8252 24.7227 31.0654 8.2793
c0.358398 -24.71 0.1875 -49.4287 -0.354492 -74.1514c22.8564 -7.00781 43.3662 -21.1699 56.4121 -41.5449c17.8086 -27.8105 18.126 -62.25 13.2861 -93.8213c-2.36328 -15.4004 -35.3896 -21.5488 -32.6152 -1.97168c5.76465 40.6729 -5.41504 82.9473 -38.1309 101.562
c-3.81738 -107.267 -13.5752 -214.599 -18.3545 -321.821c5.72461 2.14355 11.2412 3.95215 16.2725 5.41113c40.3965 11.709 90.2568 12.707 125.752 -13.0137zM220.163 63.917c-4.2168 26.7842 14.4072 47.0322 37.5732 61.207
c1.12012 25.1338 2.52148 50.2676 4.08203 75.4102c-28.915 -17.1689 -53.6172 -40.3594 -76.0293 -65.3184c-23.2881 -25.9365 -45.6846 -54.4238 -57.6016 -87.6084c-21.6221 -60.2051 -1.4707 -125.03 58.625 -152.373
c23.374 -10.6377 48.6504 -14.0195 73.7441 -11.9209c-6.0625 69.4375 -6.46582 138.965 -4.13574 208.545c-3.68359 -5.67578 -5.45605 -12.1211 -4.34375 -19.4385c2.28125 -15.0381 -29.2168 -25.6152 -31.9141 -8.50293zM265.567 257.985
c4.82422 71.2549 9.94727 142.532 12.1758 213.783c-2.46484 0.236328 -4.97852 0.416016 -7.58594 0.460938c-44.9473 0.782227 -83.6895 -33.5273 -105.511 -70.1553c-20.4727 -34.3701 -30.0186 -78.6816 -12.5273 -116.389
c19.2188 -41.4268 64.8955 -39.748 102.852 -29.2119c3.31641 0.920898 6.94238 1.44629 10.5967 1.51172zM365.816 -75.5918c48.3164 35.959 97.4375 113.75 55.3623 171.759c-19.7236 27.1953 -55.3125 33.4658 -86.8477 29.9824
c-11.1631 -1.23438 -29.0244 -4.7998 -45.2852 -11.3105c-2.74219 -75.3164 -2.55859 -150.576 4.34277 -225.714c26.2461 7.06055 51.2412 19.5156 72.4277 35.2832z" />
    <glyph glyph-name="quotesingle" unicode="'" horiz-adv-x="169" 
d="M98.6201 547.863c10.8701 -0.500977 23.5615 -9.08008 19.3809 -21.751c-6.62891 -20.0986 -12.7891 -40.3398 -21.7773 -59.5625c-5.74902 -12.2959 -35.7275 -24.6494 -42.7676 -7.24023c-8.95117 22.1357 1.34863 48.6914 9.77051 69.4004
c5.11328 12.5771 22.8408 19.7314 35.3936 19.1533z" />
    <glyph glyph-name="quotesingle" unicode="&#x2019;" horiz-adv-x="169" 
d="M98.6201 547.863c10.8701 -0.500977 23.5615 -9.08008 19.3809 -21.751c-6.62891 -20.0986 -12.7891 -40.3398 -21.7773 -59.5625c-5.74902 -12.2959 -35.7275 -24.6494 -42.7676 -7.24023c-8.95117 22.1357 1.34863 48.6914 9.77051 69.4004
c5.11328 12.5771 22.8408 19.7314 35.3936 19.1533z" />
    <glyph glyph-name="quotesingle" unicode="&#x2018;" horiz-adv-x="169" 
d="M98.6201 547.863c10.8701 -0.500977 23.5615 -9.08008 19.3809 -21.751c-6.62891 -20.0986 -12.7891 -40.3398 -21.7773 -59.5625c-5.74902 -12.2959 -35.7275 -24.6494 -42.7676 -7.24023c-8.95117 22.1357 1.34863 48.6914 9.77051 69.4004
c5.11328 12.5771 22.8408 19.7314 35.3936 19.1533z" />
    <glyph glyph-name="parenleft" unicode="(" horiz-adv-x="365" 
d="M313.808 606.365c7.76562 -13.0498 -20.2344 -26.3564 -28.6074 -13.958c-11.3389 16.8018 -34.9902 18.8838 -49.4453 5.24707c-11.1758 -10.54 -19.8418 -26.4414 -27.4121 -39.6377c-17.4014 -30.333 -30.7119 -62.1367 -40.7627 -95.6309
c-21.2676 -70.8633 -32.8877 -146.844 -35.3359 -220.71c-2.58691 -77.9043 4.71777 -155.181 24.8936 -230.583c15.1436 -56.6113 48.5322 -156.553 120.467 -159.079c30.9072 -1.08789 12.9189 -32.4561 -8.43848 -35.251
c-39.0967 -5.11719 -81.8682 7.09375 -112.845 31.5762c-29.4531 23.2803 -48.6836 58.5674 -62.4795 92.7305c-57.2676 141.825 -53.584 305.076 -16.8018 451.696c17.0752 68.0479 43.5664 138.035 92.584 189.737c32.541 34.3213 109.463 82.21 144.184 23.8623z" />
    <glyph glyph-name="parenright" unicode=")" horiz-adv-x="365" 
d="M296.59 370.327c15.2129 -75.2109 21.8438 -151.946 15.834 -228.542c-5.99707 -76.3799 -22.2451 -153.314 -57.8584 -221.782c-32.7246 -62.9229 -98.2549 -113.228 -172.187 -102.989c-26.7354 3.70312 -3.43066 34.4189 13.7012 34.9971
c72.6973 2.45312 100.016 95.3096 114.544 153.115c18.7256 74.5186 25.4727 149.497 21.9482 226.24c-3.34863 72.9736 -13.8926 148.897 -35.5713 218.86c-10.6377 34.3418 -24.2217 67.1963 -41.4072 98.7676c-7.93652 14.582 -16.7207 30.3408 -27.3955 43.1338
c-11.082 13.2822 -36.7461 23.1504 -48.834 5.01172c-7.65137 -11.4727 -37.5039 -12.54 -27.2363 4.49805c41.7324 69.2666 130.905 10.9805 165.043 -33.9785c43.627 -57.4629 65.2734 -127.397 79.4189 -197.332z" />
    <glyph glyph-name="asterisk" unicode="*" horiz-adv-x="253" 
d="M191.043 471.731c22.2744 0.0283203 10.6729 -26.3301 -6.29199 -26.2979c-8.69434 0.0126953 -17.3809 -0.0849609 -26.0674 -0.219727c8.52344 -7.48828 17.0635 -14.9482 25.623 -22.3877c12.8623 -11.1836 -14.9199 -30.0762 -26.3525 -19.9111
c-6.73926 5.98926 -13.458 12.0068 -20.1729 18.0244c-0.146484 -7.86328 -0.251953 -15.7227 -0.255859 -23.582c-0.00390625 -13.9385 -28.707 -24.6533 -30.2188 -8.05469c-0.953125 10.4668 -1.78809 21.0439 -2.44434 31.6738
c-4.9668 -5.00293 -9.94531 -9.99805 -14.8789 -15.0342c-5.1582 -5.26367 -14.8916 -10.0547 -22.2461 -6.15137c-6.73438 3.57324 -6.81543 11.8525 -1.71484 17.0879c8.4541 8.67383 16.9648 17.2832 25.5166 25.8555
c-9.83887 -0.583008 -19.6738 -1.25098 -29.5088 -2.02148c-21.9561 -1.72363 -10.2061 24.625 6.21289 25.957c6.6084 0.538086 13.2207 0.961914 19.8291 1.41406c-9.12207 10.3115 -17.625 20.998 -27.1787 31.2041c-10.5479 11.2695 12.9482 25.3057 22.8564 17.2715
c7.28906 -5.91211 13.959 -12.6309 20.498 -19.5283c0.350586 6.16797 0.77832 12.3203 1.37695 18.4316c1.34082 13.71 34.0732 22.8809 34.1543 5.61426c0.0488281 -10.418 -0.0732422 -20.8438 -0.277344 -31.2734c6.00586 5.76953 12.0156 11.5391 18.0703 17.2637
c5.45996 5.16602 14.8916 10.291 22.543 6.2334c6.625 -3.51172 7.1709 -12.2061 1.74023 -17.3154c-8.70703 -8.19336 -17.3564 -16.4482 -25.9697 -24.7393c11.7139 0.285156 23.4316 0.46875 35.1572 0.485352z" />
    <glyph glyph-name="plus" unicode="+" horiz-adv-x="302" 
d="M238.848 189.063c7.65918 1.10449 13.6318 -4.5791 12.5762 -12.0312c-1.19824 -8.46582 -11.498 -12.874 -18.791 -13.9248c-14.2148 -2.0498 -28.4746 -3.64648 -42.7676 -4.87695c0.297852 -24.7637 0.753906 -49.751 -0.395508 -74.4121
c-1.15332 -24.792 0.375 -52.8799 -9.06543 -76.0254c-3.99707 -9.80273 -21.1943 -16.6602 -30.6953 -11.6445c-23.2637 12.2803 -27.835 40.5967 -32.0068 64.5205c-4.90918 28.1367 -6.5752 57.5117 -7.8623 86.04
c-0.134766 2.96582 -0.240234 5.93164 -0.366211 8.89746c-14.9365 -0.0488281 -29.8037 -0.883789 -43.8193 -5.06445c-21.2715 -6.34375 -19.7881 19.3115 -2.05664 24.5996c14.7402 4.40039 29.79 5.53711 44.9424 5.82227
c-1.51562 48.2959 -1.24707 96.5352 4.4043 144.628c3.50391 29.8076 72.9785 50.9941 75.2646 12.374c3.03516 -51.3564 1.42969 -102.822 1.48633 -154.26c16.4277 1.2832 32.8184 2.99805 49.1523 5.35742z" />
    <glyph glyph-name="comma" unicode="," horiz-adv-x="206" 
d="M84.4102 28.6602c13.502 34.3662 87.6006 34.1387 68.4189 -11.2979c-13.7998 -32.6631 -34.2979 -70.4883 -64.7529 -90.3623c-9.35449 -6.10352 -37.7275 -13.6406 -38.0693 6.28613c-0.28125 16.2158 7.41504 31.0742 13.6572 45.6768
c7.06836 16.5293 14.166 32.9521 20.7461 49.6973z" />
    <glyph glyph-name="hyphen" unicode="-" horiz-adv-x="381" 
d="M318.013 187.829c22.8398 -0.623047 10.9736 -27.1836 -6.46777 -26.9922c-83.0947 0.908203 -166.177 3.23828 -249.255 5.10059c-22.249 0.500977 -10.6982 26.5723 6.2998 26.3037c83.1396 -1.30762 166.304 -2.14648 249.423 -4.41211z" />
    <glyph glyph-name="period" unicode="." horiz-adv-x="162" 
d="M93.3428 38.9111c11.1182 -0.513672 20.5469 -8.24219 17.9717 -20.168c-3.37305 -15.6328 -7.98535 -34.8018 -18.5908 -47.1016c-7.49219 -8.69434 -24.6406 -14.7568 -34.3906 -5.99707c-15.0752 13.5391 -6.80859 41.04 2.19531 55.5078
c6.95898 11.1836 19.5488 18.3701 32.8145 17.7588z" />
    <glyph glyph-name="slash" unicode="/" horiz-adv-x="517" 
d="M443.097 580.2c20.7344 -3.60938 29.083 -22.5635 19.9521 -40.9062c-59.1826 -118.887 -127.235 -233.219 -186.41 -352.224c-29.7217 -59.7656 -58.9092 -119.841 -87.0908 -180.348c-27.9043 -59.9033 -52.8877 -128.118 -95.8018 -178.651
c-8.42188 -9.9209 -43.5537 -20.5625 -43.7412 2.00488c-0.264648 32.1943 11.0859 62.5967 22.5957 92.8027c11.9209 31.2939 24.0176 62.4785 37.2754 93.2354c26.2793 60.9717 53.6621 121.396 82.6826 181.113c58.5801 120.537 118.305 243.331 192.925 354.872
c12.373 18.4932 34.4795 32.1299 57.6133 28.1006z" />
    <glyph glyph-name="zero" unicode="0" horiz-adv-x="402" 
d="M132.668 -88.959c-46.1162 24.0908 -64.3291 74.7402 -73.7363 122.833c-10.3408 52.8633 -9.96191 108.396 -7.44043 161.996c2.68945 57.125 9.08203 113.916 22.6904 169.501c0.941406 3.83789 2.77051 7.42773 5.20703 10.7324
c-0.49707 40.9336 22.1113 86.8467 50.7129 112.991c33.8896 30.9727 82.0635 32.5127 118.915 5.43945c36.2979 -26.666 60.1279 -77.3086 75.2432 -118.356c18.6768 -50.7119 24.3564 -103.808 26.6709 -157.457c2.28613 -52.957 -0.0078125 -106.477 -10.8906 -158.488
c-10.3857 -49.6328 -28.4922 -102.02 -70.416 -133.884c-38.2324 -29.0576 -93.3652 -38.0742 -136.956 -15.3076zM146.698 471.628c-18.4355 -18.9697 -32.8506 -47.9287 -36.5586 -76.1387c20.9014 5.44727 42.1523 -0.59082 37.8252 -25.6514
c-16.5615 -95.8838 -30.585 -195.833 -17.5801 -293.077c4.56738 -34.1504 12.7773 -79.167 41.1748 -102.37c20.1387 -16.4521 46.1973 -16.957 61.5938 4.69727c20.6689 29.0693 28.8867 68.1943 35.2627 102.568c7.67969 41.3984 10.3359 83.7295 11.4648 125.764
c1.14453 42.5967 0.517578 85.4375 -2.89648 127.92c-3.16113 39.292 -8.32715 84.6709 -32.7441 117.041c-23.2314 30.8018 -66.333 51.3564 -97.542 19.2471z" />
    <glyph glyph-name="one" unicode="1" horiz-adv-x="337" 
d="M61.376 385.981c-18.3867 -2.99023 -12.0908 21.4922 1.96582 23.9365c9.48535 1.6543 18.7871 16.8721 24.6943 23.582c5.19434 5.90332 10.3887 11.8027 15.583 17.7021c12.1211 13.7666 24.1689 27.6064 36.3633 41.3037
c15.4453 17.3564 37.1572 39.4551 63.0039 31.2334c23.1904 -7.37402 32.7891 -41.5977 39.4258 -62.2256c10.0312 -31.168 13.1396 -64.0879 15.3076 -96.6084c4.78711 -71.7803 2.17969 -144.27 0.390625 -216.115c-0.863281 -34.709 -2.66797 -69.3809 -4.52539 -104.049
c-1.97559 -36.8643 -0.964844 -76.332 -8.95898 -112.471c9.88867 1.17383 19.7725 2.34766 29.6523 3.58594c23.3574 2.92969 11.0127 -26.0664 -6.70996 -28.0225c-16.207 -1.78906 -32.4229 -3.45117 -48.6426 -5.05664
c-16.916 -9.57422 -37.9795 -13.3594 -50.125 -4.65234c-18.876 -1.64648 -37.7646 -3.21094 -56.665 -4.6084c-21.7646 -1.60938 -9.95312 24.1807 6.13184 25.6152c13.502 1.20215 27 2.47363 40.4902 3.80176c-1.88672 32.1826 3.74023 66.1377 5.91211 98.1084
c2.1875 32.1865 3.93164 64.4014 6.24609 96.5762c4.62793 64.3408 8.60449 128.73 13.0703 193.079c2.17969 31.4082 3.96875 62.8779 6.4502 94.2617c1.41797 17.9307 17.9268 84.1416 -4.63672 91.7197c-10.0713 3.38184 -28.0791 -22.6523 -34.6514 -29.9492
c-10.5605 -11.7256 -21.1211 -23.4473 -31.6816 -35.1689c-17.1279 -19.0146 -31.502 -41.252 -58.0908 -45.5791z" />
    <glyph glyph-name="two" unicode="2" horiz-adv-x="444" 
d="M104.579 -90.5029c-20.8438 1.06738 -44.9648 8.84668 -52.4531 30.4932c-6.15625 17.8047 1.77637 37.4346 14.4883 50.1621c34.6396 34.6758 81.7217 17.4502 120.896 1.54004c15.8525 15.3154 29.9414 32.623 42.2617 50.5664
c46.7842 68.1416 69.7871 150.145 80.0547 231.422c5.46387 43.248 6.97559 87.5518 -0.118164 130.755c-5.26367 32.0439 -13.7178 73.0352 -48.5 84.6221c-39.1572 13.0459 -80.9961 -15.0869 -104.427 -44.418c-22.8936 -28.6621 -39.4678 -72.5459 -28.8174 -109.133
c4.31445 -14.8223 -24.7061 -28.3975 -29.0088 -14.1494c-28.4463 94.1719 74.249 218.534 174.187 195.188c40.791 -9.5293 75.667 -47.8477 90.0527 -85.9014c20.1924 -53.4053 24.5928 -111.459 18.791 -167.903c-10.9844 -106.893 -48.4189 -222.992 -132.772 -294.63
c41.4639 -13.873 84.6309 -22.6367 128.173 -14.8301c21.9033 3.92773 20.877 -21.5361 2.08203 -24.9258c-45.8643 -8.27051 -90.4609 -2.81543 -134.85 10.5156c-7.98535 2.39551 -15.8809 5.04395 -23.7441 7.78223
c-34.5166 -23.1416 -74.5176 -39.2998 -116.295 -37.1562zM109.678 -16.0244c-31.3594 -1.43457 -31.8877 -40.2451 -0.00292969 -39.2061c17.4541 0.566406 32.3818 11.6035 46.3115 21.084c1.91895 1.30762 3.76465 2.7334 5.64648 4.10254
c-16.6924 7.38672 -34.415 14.8223 -51.9551 14.0195z" />
    <glyph glyph-name="three" unicode="3" horiz-adv-x="441" 
d="M89.0361 362.729c9.11816 -12.5 -20.6553 -27.5898 -30.2139 -14.7314c-31.4043 42.2295 28.6465 109.324 60.6787 132.556c41.9033 30.3896 103.318 48.0674 149.183 15.7217c49.6973 -35.0469 51.1074 -92.4004 32.6309 -145.932
c-10.5723 -30.6348 -25.4473 -59.126 -44.4863 -84.4756c39.0312 -4.4082 75.0479 -21.3574 100.479 -56.9297c74.6729 -104.452 15.2334 -253.248 -93.9443 -304.747c-50.4922 -23.8145 -126.257 -32.4844 -165.675 16.1953
c-37.8984 46.8008 -41.1865 109.817 -34.3379 167.143c1.69531 14.1826 36.1025 23.0234 34.9941 5.75293c-3.85449 -59.9971 5.68359 -117.994 63.4404 -147.724c43.6064 -22.4453 95.9121 8.61719 120.993 45.2402c31.001 45.2734 36.5342 108.314 12.6553 157.841
c-24.4941 50.8018 -71.707 60.3887 -122.578 45.8799c-13.8115 -3.94434 -34.0684 -1.95215 -41.1572 12.5811c-6.8125 13.9668 3.38086 32.6436 15.4248 40.1846c34.04 21.3125 60.6084 50.6797 79.9492 85.8369c17.7227 32.2109 36.8555 75.4141 29.9336 113.085
c-10.0068 54.4688 -79.4443 42.5107 -113.538 20.4648c-25.7979 -16.6836 -78.8037 -70.5293 -54.4316 -103.942z" />
    <glyph glyph-name="four" unicode="4" horiz-adv-x="458" 
d="M98.8154 70.9805c-14.957 -5.26758 -43.0322 -9.15137 -48.1621 11.7412c-4.74219 19.3613 17.4053 40.7227 31.3838 50.6719c21.1699 15.0625 46.7402 23.1699 71.6826 29.4727c1.85742 0.472656 3.72363 0.883789 5.58594 1.32812
c22.3555 45.6523 32.6475 100.483 40.7881 148.612c10.5078 62.1162 13.1768 125.426 8.22656 188.218c-1.16504 14.7568 29.4492 24.9746 31.0664 8.27832c7.29297 -75.2637 2.63184 -150.796 -12.9521 -224.776c-7.81055 -37.0801 -17.0059 -77.2275 -32.7158 -113.55
c38.8027 6.14844 78.2256 7.69629 117.57 7.29297c-0.0078125 0.725586 -0.0283203 1.45117 -0.0361328 2.17676c-1.24219 104.843 -1.38086 211.76 26.5029 313.445c6.44922 23.5205 63.8389 47.6562 66.874 10.9961c8.38867 -101.245 -3.52441 -203.069 -3.82227 -304.571
c-0.150391 -52.3867 0.00488281 -104.766 0.363281 -157.148c0.174805 -25.8311 0.448242 -51.5312 -0.326172 -77.3535c-0.741211 -24.6943 -1.51562 -46.4512 -17.2256 -66.4521c-4.43262 -5.64258 -15.6943 -10.0098 -22.543 -6.22852
c-21.8018 12.0391 -24.8984 35.5234 -29.5762 58.2744c-5.3291 25.916 -8.51074 51.9707 -11.4111 78.2578c-4.49023 40.6611 -7.10156 81.6279 -8.25098 122.562c-44.124 0.725586 -88.5176 -0.660156 -131.855 -8.83691
c-5.5332 -9.60254 -11.6895 -18.7529 -18.6152 -27.2803c-16.3701 -20.1553 -37.9844 -36.4766 -62.5518 -45.1299zM87.0742 103.333c-7.25195 -19.9717 23.2109 -0.425781 28.6211 3.58301c10.332 7.65527 18.9736 17.2334 26.3359 27.7246
c-20.583 -5.31738 -48.7686 -14.2607 -54.957 -31.3076z" />
    <glyph glyph-name="five" unicode="5" horiz-adv-x="422" 
d="M84.8916 233.84c-16.5371 -0.472656 -41.0312 10.916 -33.4902 32.0332c25.4316 71.0996 58.9102 145.146 103.059 207.303c-15.8896 -0.868164 -31.8359 -0.652344 -47.624 1.35645c-13.5957 1.73145 -40.335 3.45508 -47.1514 17.6943
c-2.02539 4.22949 0 8.75977 2.77051 12.0596c0.386719 0.464844 0.77832 0.924805 1.16504 1.38965c7.82227 9.31738 25.2314 7.39453 26.1846 -1.47559c8.05469 -5.10938 37.1289 -6.09961 43.375 -6.39258c13.1924 -0.619141 26.373 0.0449219 39.5088 1.2959
c24.9307 2.37109 49.5469 7.11328 74.3105 10.7314c35.585 5.19434 95.9531 15.9053 111.46 -28.5127c5.49219 -15.7393 -25.9248 -30.2275 -31.0137 -15.1279c-9.99805 29.665 -47.2852 22.6367 -71.7715 19.8213c-17.3037 -1.98828 -34.4844 -4.83203 -51.71 -7.38281
c-0.0166016 -0.0771484 -0.0205078 -0.154297 -0.0371094 -0.235352c-7.12598 -34.6719 -20.1592 -69.1523 -31.9092 -102.479c-7.67969 -21.7812 -15.0586 -43.7451 -22.7266 -65.5869c2.84375 0.435547 5.69141 0.912109 8.53125 1.2627
c16.3174 2.02539 33.3115 1.49609 49.5635 -0.916016c32.5537 -4.83203 63.127 -18.4561 89.3818 -38.1025c97.8145 -73.1855 97.7002 -238.352 12.5645 -321.263c-42.0381 -40.9385 -105.507 -67.8164 -163.797 -49.0137c-52.04 16.79 -84.8457 66.0645 -91.8008 118.744
c-2.06934 15.6738 30.4434 26.6543 33.1816 8.8457c9.25293 -60.1934 61.2158 -116.691 126.388 -98.9033c56.0166 15.2861 84.1172 88.248 87.5234 140.879c3.68359 56.9336 -16.4062 117.555 -63.2559 152.438c-20.3633 15.1641 -46.4551 25.5088 -71.9766 26.6699
c-28.9766 1.31152 -52.0977 -16.3223 -80.7031 -17.1328z" />
    <glyph glyph-name="six" unicode="6" horiz-adv-x="420" 
d="M238.29 -84.4854c-106.782 -19.2998 -173.09 82.7393 -185.138 175.514c-7.36621 56.7383 -1.08398 115.938 11.2041 171.539c11.4971 52.0244 28.0879 104.586 55.2471 150.719c26.0098 44.1729 65.4277 87.7637 116.89 101.054
c37.5732 9.70508 88.6641 -1.19727 104.37 -40.3506c5.63086 -14.04 -22.001 -27.6318 -28.6094 -13.9541c-8.18555 16.957 -28.6465 31.4736 -48.0566 25.2197c-16.627 -5.35742 -31.4609 -20.0127 -42.8525 -32.7041c-26.3242 -29.3223 -44.002 -65.0898 -56.2939 -102.26
c-21.9561 -66.3945 -36.0127 -134.549 -33.4336 -204.003c28.6338 20.3262 61.2686 34.623 96.8613 37.3369c46.084 3.50781 95.4189 -14.834 121.89 -53.9551c57.834 -85.4658 -22.0537 -197.887 -112.078 -214.155zM309.782 124.882
c-51.2178 53.251 -125.821 31.3379 -175.784 -10.4521c0.211914 -1.86621 0.367188 -3.72852 0.603516 -5.59473c4.21289 -33.2783 12.7363 -65.5059 28.6875 -95.2354c13.6895 -25.5127 40.335 -56.8115 70.5498 -61.9902
c39.3857 -6.74707 76.1562 30.1611 91.2715 62.7588c16.5615 35.7148 12.5645 81.5215 -15.3281 110.514z" />
    <glyph glyph-name="seven" unicode="7" horiz-adv-x="376" 
d="M61.6377 486.269c-21.0273 0.9375 -10.1855 25.4971 5.96094 24.9268c37.0918 -1.31152 71.4824 10.1289 107.051 18.8232c28.3486 6.92578 61.0488 14.5811 89.9316 6.46094c59.46 -16.7168 58.0137 -109.438 52.2979 -156.826
c-6.53125 -54.167 -17.3604 -107.91 -30.5449 -160.949c9.02832 1.02246 18.0732 1.95508 27.1426 2.68848c22.7344 1.83789 10.7441 -25.7568 -6.46191 -26.9912c-9.21582 -0.660156 -18.3955 -1.52832 -27.5547 -2.50977
c-2.16797 -8.23047 -4.37988 -16.4443 -6.64551 -24.6377c-19.7725 -71.5518 -39.2598 -143.193 -58.9912 -214.745c-5.90723 -21.4268 -28.9434 -36.208 -50.4268 -37.377c-18.9863 -1.03125 -38.4658 11.1426 -33.752 32.2881
c17.4375 78.2217 42.4375 154.699 67.2822 231.177c-9.75 -2.11035 -19.4756 -4.36719 -29.1719 -6.85254c-21.2021 -5.43457 -19.7676 19.5566 -2.02832 24.2744c13.2451 3.52051 26.5635 6.68262 39.9355 9.54297c13.3633 41.3945 26.4258 82.8496 37.9434 124.635
c8.73926 31.6973 17.1729 63.9814 22.6816 96.4121c4.70215 27.7012 15.6777 76.2871 -22.3145 85.1895c-30.2559 7.08496 -65.7666 -5.96094 -94.9014 -13.3271c-28.7686 -7.27637 -57.5938 -13.5303 -87.4336 -12.2021z" />
    <glyph glyph-name="eight" unicode="8" horiz-adv-x="390" 
d="M60.7373 -12.5215c-19.0146 50.9033 -10.1172 106.473 6.10254 156.835c10.8906 33.8164 24.3809 66.6748 45.335 94.6406c-34.5576 39.6748 -59.5088 84.6709 -56.2617 144.396c2.72559 50.1055 25.4277 97.5498 70.7256 122.166
c34.7734 18.9043 82.8984 24.3311 114.47 -3.57715c34.0205 -30.0762 34.8555 -81.2529 34.5049 -123.083c-0.472656 -55.7598 -10.002 -110.868 -20.041 -165.573c1.14453 -1.11621 2.30176 -2.2207 3.43457 -3.34473c37.2305 -36.9131 69.7959 -78.6338 79.3584 -131.428
c9.19922 -50.79 -12.4062 -100.573 -49.1279 -135.331c-34.2764 -32.4434 -85.7178 -55.5195 -133.558 -44.873c-44.2588 9.85156 -79.4561 47.7178 -94.9424 89.1729zM149.502 471.195c-26.9512 -39.9688 -15.5342 -100.578 3.37012 -141.133
c17.0586 -36.5986 45.7783 -63.876 74.9053 -90.7334c10.3525 56.8281 18.998 114.902 12.8174 172.309c-2.72168 25.2559 -9.32227 56.6113 -33.1318 70.4639c-18.9863 11.0498 -45.3428 7.80664 -57.9609 -10.9062zM85.5166 88.7764
c-8.03027 -59.3457 11.9619 -130.394 71.3359 -156.538c48.541 -21.374 99.1963 17.0303 112.947 63.9414c14.5859 49.751 -13.9297 98.626 -46.96 133.864c-28.8906 30.8174 -63.2285 59.1904 -93.2559 90.041c-25.1221 -38.5869 -38.3389 -88.9648 -44.0674 -131.309z" />
    <glyph glyph-name="nine" unicode="9" horiz-adv-x="443" 
d="M305.835 49.6553c5.74023 46.0674 7.79883 92.5205 8.98438 138.91c1.23047 48.7041 0.941406 97.4326 -0.806641 146.12c-0.382812 10.6465 -0.863281 21.2881 -1.38867 31.9297c-12.6592 -32.0029 -26.3691 -63.6191 -44.915 -92.7217
c-30.8018 -48.3291 -81.4854 -111.199 -146.262 -102.651c-68.2148 9 -80.6943 88.9658 -65.9004 143.813c15.3516 56.9092 47.9375 111.011 96.4785 145.435c38.9746 27.6396 95.7783 42.3721 136.183 13.5225c6.66504 14.5693 15.8564 27.3301 31.3789 35.1406
c14.5205 7.30469 34.0195 7.43066 43.5859 -7.19629c13.0781 -20.001 14.6709 -44.3076 17.0791 -67.4824c2.77441 -26.7227 5.10449 -53.4863 6.97461 -80.2822c3.64648 -52.1992 5.60254 -104.529 5.87598 -156.859
c0.268555 -51.5674 -1.04785 -103.164 -6.36914 -154.491c-5.10547 -49.2295 -14.9648 -97.3135 -46.8496 -136.516c-11.5625 -14.2188 -34.1543 -22.0166 -51.7676 -16.7529c-16.1094 4.81543 -22.832 21.6748 -14.1338 36.4238
c21.9561 37.2266 26.6006 81.5342 31.8525 123.658zM241.487 342.413c11.7012 28.7559 21.2363 58.3662 31.3242 87.709c1.2832 3.73242 2.50586 7.53809 3.71973 11.3643c-0.0126953 0.0166016 -0.0332031 0.0244141 -0.0498047 0.0410156
c-52.6309 56.9414 -127.748 -7.27734 -156.798 -56.3271c-24.6084 -41.5449 -49.5596 -146.75 12.3525 -170.458c29.4121 -11.2656 54.3135 25.0771 68.04 45.7783c16.8516 25.415 29.9424 53.707 41.4111 81.8926z" />
    <glyph glyph-name="colon" unicode=":" horiz-adv-x="174" 
d="M87.4668 245.766c-6.68945 -6.53125 -18.6348 -11.6807 -26.999 -4.70508c-17.4707 14.5859 -9.33008 51.5312 -2.34277 69.5596c5.52051 14.248 18.2529 24.3359 33.9873 25.1914c12.9883 0.705078 25.6592 -7.49609 22.7461 -21.7598
c-2.41992 -11.8564 -6.13184 -23.0244 -10.0186 -34.4775c-4.07031 -11.9863 -8.11621 -24.7715 -17.373 -33.8086zM102.949 137.639c10.7686 0.586914 24.5635 -6.90234 20.5791 -19.6836c-3.62207 -11.6279 -6.73926 -23.4639 -9.96191 -35.21
c-2.50195 -9.12207 -9.56641 -24.6895 -8.08301 -34.4268c2.26562 -14.8711 -22.958 -22.584 -31.0615 -11.624c-16.1465 21.834 -8.99609 53.5762 -2.2207 78.1523c3.60156 13.0664 17.6494 22.0791 30.748 22.792z" />
    <glyph glyph-name="semicolon" unicode=";" horiz-adv-x="190" 
d="M109.514 253.152c-6.89746 -1.16895 -20.4561 1.29199 -19.8652 11.1641c1.01074 16.7695 5.14648 33.8936 4.25391 50.6387c-0.823242 15.4824 28.6865 26.2754 32.7607 8.73145c1.97168 -8.47852 4.75 -16.8516 6.17969 -25.4482
c1.53613 -9.2041 0.489258 -17.8535 -1.06348 -26.9961c-1.69043 -9.9375 -13.2939 -16.5664 -22.2656 -18.0898zM111.014 81.0391c15.0908 0.819336 32.6475 -9.28125 27.9131 -26.7109c-8.83301 -32.5 -19.4502 -67.2578 -38.3506 -95.4961
c-6.53516 -9.77051 -17.0303 -17.1572 -29.1426 -17.6748c-8.14844 -0.34668 -21.9932 3.80078 -21.415 14.5449c1.71484 31.9053 11.7822 63.5098 19.2871 94.4209c4.31055 17.7598 24.4043 29.9746 41.708 30.916z" />
    <glyph glyph-name="less" unicode="&#x3c;" horiz-adv-x="316" 
d="M244.134 186.529c18.375 -3.80566 27.2275 -19.9648 18.085 -37.0811c-10.0713 -18.8555 -32.0479 -26.7227 -52.2314 -25.4756c-32.3984 2 -65.2822 9.21973 -96.9922 15.9707c-25.6846 5.46777 -72.7988 15.4697 -61.1875 51.4902
c10.7764 33.4297 60.7148 45.5957 89.7031 58.2256c14.9766 6.52734 29.9336 12.9482 45.208 18.7539c17.7842 6.75879 38.0537 9.38672 55.2754 16.6797c18.2041 7.7041 26.1533 -10.084 9.77051 -20.0293c-12.7607 -7.74512 -23.3574 -20.5098 -36.0322 -28.8867
c-11.3301 -7.48828 -22.7256 -14.7812 -34.3906 -21.748c-8.0957 -4.83984 -16.668 -9.43945 -25.2852 -14.0879c7.85938 -1.08789 15.4336 -1.82129 21.166 -2.86816c22.209 -4.07031 44.8291 -6.36426 66.9111 -10.9434z" />
    <glyph glyph-name="equal" unicode="=" horiz-adv-x="356" 
d="M150.747 173.419c-25.7129 -1.39355 -76.8467 -8.58789 -95.5107 14.5947c-6.54688 8.13184 0.371094 16.5 7.94531 20.6807c30.6016 16.8799 74.4082 16.1992 108.518 20.6562c34.916 4.55957 76.3184 11.8525 110.24 -0.578125
c27.501 -10.0752 -1.43848 -43.1943 -18.2002 -46.7354c-36.1758 -7.63965 -76.0547 -6.61328 -112.992 -8.61816zM275.364 169.811c17.3809 1.47852 34.4688 -10.2012 30.415 -29.0938c-4.31445 -20.1309 -26.7676 -31.5752 -45.4443 -33.6855
c-38.5059 -4.35547 -77.1992 -6.58008 -115.884 -8.60547c-18.6924 -0.977539 -86.374 -10.8818 -93.6465 14.9287c-9.75781 34.6309 72.3994 39.4551 91.5117 41.9482c44.1729 5.76465 88.6592 10.7314 133.048 14.5078z" />
    <glyph glyph-name="greater" unicode="&#x3e;" horiz-adv-x="322" 
d="M268.621 212.621c17.4053 -32.8916 -32.3848 -54.6797 -55.1436 -61.459c-33.4131 -9.94922 -68.1709 -15.4941 -101.832 -24.5801c-14.8467 -4.00879 -37.2227 -0.358398 -39.0518 18.501c-1.75195 18.0283 18.0811 34.8389 34.3213 38.0615
c17.0264 3.37793 33.918 7.47656 50.8135 11.4609c-10.5928 4.30664 -21.1455 8.66211 -31.5596 13.4131c-25.1953 11.4893 -54.7617 21.8252 -73.0674 43.5859c-10.1084 12.0146 6.73047 26.3682 18.8721 26.584c37.6299 0.667969 73.9922 -13.1074 109.186 -25.1465
c16.7168 -5.71582 33.2139 -12.1611 49.792 -18.2607c13.0537 -4.7998 30.5156 -8.6377 37.6699 -22.1602z" />
    <glyph glyph-name="question" unicode="?" horiz-adv-x="419" 
d="M358.238 493.529c14.7158 -31.8398 12.0039 -66.2949 6.2959 -99.9561c-12.2715 -72.2568 -36.8389 -141.874 -58.5957 -211.662c-11.1064 -35.6211 -21.9277 -71.3115 -30.125 -107.735c-7.95703 -35.3604 -11.5791 -71.0547 -16.9531 -106.818
c-4.94238 -32.9033 -83.8242 -57.8867 -84.9121 -13.958c-1.89453 76.457 24.7676 155.485 49.4453 226.907c25.0771 72.5869 54.7334 144.547 72.3262 219.473c7.64746 32.5781 12.0596 72.9258 -11.209 100.509c-25.085 29.7383 -71.9023 37.4912 -107.561 26.0059
c-32.2275 -10.3809 -56.8643 -36.8965 -73.2383 -65.6406c-17.9883 -31.5713 -34.4404 -77.2598 -3.48438 -106.24c12.585 -11.7832 -15.1729 -30.1787 -26.3525 -19.9111c-53.8613 49.4658 -5.58105 138.672 36.7705 179.276
c48.4268 46.4307 115.032 54.5137 178.159 36.1465c30.2998 -8.81641 55.9639 -27.248 69.4336 -56.3955zM258.922 -118.98c-0.863281 -19.5361 3.53223 -42.4756 -2.71777 -61.2129c-4.83594 -14.5088 -27.6514 -30.9971 -43.2275 -21.084
c-24.1846 15.3926 -26.6416 44.874 -22.1885 71.0957c2.72949 16.0771 21.5039 26.7969 36.0127 29.2617c11.3633 1.93164 32.8262 -2.08984 32.1211 -18.0605z" />
    <glyph glyph-name="at" unicode="@" horiz-adv-x="670" 
d="M590.614 389.105c29.2529 -61.6885 33.9824 -133.71 24.7217 -200.561c-8.78027 -63.4238 -37.0146 -151.794 -100.39 -181.12c-67.9668 -31.4492 -136.129 37.4502 -149.888 99.3623c-4.13574 18.6152 -5.9248 37.6055 -6.02637 56.7705
c-17.6826 -42.458 -43.1465 -92.791 -92.2207 -98.3691c-25.7861 -2.92969 -53.0752 8.11523 -66.333 30.9062c-14.5576 25.0283 -12.9971 57.0889 -8.87402 84.6719c8.46582 56.6729 34.0518 122.28 76.5381 162.167c33.9551 31.877 87.3975 41.1787 122.819 11.4443
c1.12891 3.21094 2.2168 6.43359 3.39062 9.62793c0.814453 2.20801 2.37891 4.17188 4.32617 5.88672c14.4473 16.4316 50.2031 25.8516 52.8877 -0.448242c7.84277 -76.8408 -13.3838 -152.712 -1.92676 -229.895c2.39551 -16.1465 5.79297 -32.4434 9.45996 -48.3447
c3.56934 -15.4785 4.7793 -33.4131 15.0996 -46.0674c28.833 -35.3486 60.0049 7.99707 74.8027 34.2764c55.1289 97.8838 58.4697 257.554 -21.2676 344.201c-87.7393 95.333 -242.622 67.375 -333.099 -7.80273c-97.709 -81.1875 -133.437 -223.493 -97.3594 -343.766
c17.3643 -57.8867 52.4766 -108.823 107.564 -135.99c49.1807 -24.2539 108.229 -29.2363 159.523 -8.50293c20.9014 8.4502 32.668 -14.8994 11.4326 -23.4395c-66.6104 -26.7881 -143.63 -23.1621 -206.121 13.3516c-70.1953 41.0195 -106.371 116.32 -116.634 194.908
c-18.8027 144 50.6631 288.889 179.006 358.493c120.447 65.3223 293.831 54.75 358.566 -81.7617zM347.678 215.329c11.9336 35.4863 21.6162 71.665 32.792 107.376c-1.68262 0.521484 -3.21094 1.41797 -4.46191 2.79492
c-10.0596 11.0576 -22.2783 22.123 -38.4004 21.2188c-12.6836 -0.708984 -18.3057 -10.7598 -24.918 -20.4316c-13.9258 -20.375 -24.2666 -43.3008 -31.9834 -66.7197c-16 -48.5488 -24.1162 -94.5146 -8.41406 -144.041
c0.875977 -2.7627 2.375 -11.9014 5.54102 -14.0283c6.4248 -4.32715 14.8994 5.3291 18.4072 9.08984c7.74512 8.30762 13.5059 19.3613 19.0635 29.1963c13.543 23.9609 23.6143 49.498 32.374 75.5449z" />
    <glyph glyph-name="A" unicode="A" horiz-adv-x="892" 
d="M920.145 239.327c7.19141 0.53418 13.3252 -5.18066 13.3252 -12.3926c0 -6.59668 -5.16602 -12.0195 -11.7578 -12.3574c-12.1084 -0.623047 -24.1807 -1.98828 -36.126 -3.98047c-29.0947 -4.85254 -57.3945 -13.1807 -85.0791 -23.2852
c21.3984 -127.194 41.916 -256.324 45.9492 -385.07c1.16113 -37.0801 -72.4521 -64.8096 -79.7207 -21.252c-20.5586 123.229 -31.9463 248.064 -48.1621 372.057c-52.5986 -23.8877 -104.309 -49.7715 -156.74 -74.0215
c0.602539 -18.5703 0.329102 -37.1895 -0.750977 -55.8047c12.2227 4.94629 25.0811 8.15234 39.0352 8.29492c8.70703 0.0898438 16.957 -4.54688 15.0791 -14.4229c-1.93945 -10.2061 -13.4365 -15.3232 -22.5264 -16.6963
c-31.2412 -4.71777 -58.9873 -21.2471 -85.9551 -36.5254c-14.6514 -8.29883 -29.4043 8.79297 -13.9141 18.6035c11.7871 7.46387 23.3779 15.6445 35.2422 23.1611c-0.0654297 0.619141 -0.15918 1.21777 -0.110352 1.93457
c1.30371 18.8838 1.69043 37.7969 1.2666 56.6689c-19.1201 -8.47461 -38.3711 -16.6514 -57.8496 -24.3154c-51.8652 -20.4082 -105.377 -37.6748 -160.172 -48.085c-4.91309 -66.6797 -6.33105 -133.62 -4.27344 -200.536
c0.452148 -14.6514 -30.084 -24.4619 -30.6426 -8.16895c-2.31445 67.873 -1.07227 135.844 3.71484 203.558c-15.5312 -2.15918 -31.1562 -3.72754 -46.875 -4.60352c-72.8359 -4.0625 -151.913 6.28223 -204.691 61.6143c-94.6123 99.1875 -73.6426 262.17 9.3418 360.999
c82.1895 97.8877 230.464 130.466 340.795 65.873c16.7246 43.0205 36.8271 84.3906 61.8271 122.505c28.748 43.8271 68.1709 94.3398 124.367 100.414c56.3838 6.09473 96.54 -38.4775 122.118 -82.6709c32.8584 -56.7744 50.1455 -121.539 65.9941 -184.694
c17.8203 -71.0146 31.583 -142.709 43.6104 -214.93c0.00390625 -0.00390625 0.0078125 -0.00390625 0.0117188 -0.0078125c21.9883 7.78223 44.2949 14.501 67.0127 19.5488c18.6523 4.14355 37.6055 7.1748 56.6562 8.58887zM281.865 11.4473
c6.32324 75.5693 17.1055 150.764 32.417 225.086c13.832 67.1602 29.8359 136.744 52.957 203.31c-8.41699 5.72461 -17.2705 10.8945 -26.5967 15.4004c-62.124 30.0273 -138.149 29.7832 -200.159 -0.49707c-60.3359 -29.4609 -105.201 -85.9297 -126.701 -148.922
c-20.6523 -60.5146 -20.3672 -128.213 6.0752 -186.947c29.8604 -66.333 88.0283 -102.573 159.597 -109.495c34.4316 -3.33301 68.5947 -2.26562 102.411 2.06543zM313.146 16.373c73.7607 13.7754 145.708 41.9004 214.995 73.248
c-3.93945 61.5127 -17.1729 122.26 -40.0781 179.829c-21.6221 54.334 -51.543 110.42 -95.5488 150.389c-27.7705 -82.4629 -45.999 -169.163 -60.2959 -253.695c-8.40137 -49.6816 -14.7207 -99.6445 -19.0723 -149.771zM641.648 143.205
c24.3066 11.5752 48.8047 23.4082 73.6006 34.6816c-1.51562 11.0938 -3.06348 22.1836 -4.68066 33.2617c-9.14258 62.5928 -18.7207 125.267 -30.4873 187.424c-11.1797 59.0605 -22.042 119.49 -42.2871 176.232c-8.71484 24.4297 -19.3408 50.9326 -35.9023 71.2832
c-20.4531 25.1299 -48.6348 24.4863 -74.1602 6.64941c-45.4805 -31.7871 -75.3574 -89.5967 -98.0352 -138.655c-9.20801 -19.9072 -17.6299 -40.2666 -25.3916 -60.9473c1.17383 -0.908203 2.37598 -1.75586 3.53711 -2.69336
c58.7266 -47.3594 95.8594 -119.796 120.244 -189.8c17.6133 -50.5576 28.4062 -103.042 32.3506 -156.142c27.542 12.9072 54.6318 26.0508 81.2119 38.7051z" />
    <glyph glyph-name="A" unicode="&#xc5;" horiz-adv-x="892" 
d="M920.145 239.327c7.19141 0.53418 13.3252 -5.18066 13.3252 -12.3926c0 -6.59668 -5.16602 -12.0195 -11.7578 -12.3574c-12.1084 -0.623047 -24.1807 -1.98828 -36.126 -3.98047c-29.0947 -4.85254 -57.3945 -13.1807 -85.0791 -23.2852
c21.3984 -127.194 41.916 -256.324 45.9492 -385.07c1.16113 -37.0801 -72.4521 -64.8096 -79.7207 -21.252c-20.5586 123.229 -31.9463 248.064 -48.1621 372.057c-52.5986 -23.8877 -104.309 -49.7715 -156.74 -74.0215
c0.602539 -18.5703 0.329102 -37.1895 -0.750977 -55.8047c12.2227 4.94629 25.0811 8.15234 39.0352 8.29492c8.70703 0.0898438 16.957 -4.54688 15.0791 -14.4229c-1.93945 -10.2061 -13.4365 -15.3232 -22.5264 -16.6963
c-31.2412 -4.71777 -58.9873 -21.2471 -85.9551 -36.5254c-14.6514 -8.29883 -29.4043 8.79297 -13.9141 18.6035c11.7871 7.46387 23.3779 15.6445 35.2422 23.1611c-0.0654297 0.619141 -0.15918 1.21777 -0.110352 1.93457
c1.30371 18.8838 1.69043 37.7969 1.2666 56.6689c-19.1201 -8.47461 -38.3711 -16.6514 -57.8496 -24.3154c-51.8652 -20.4082 -105.377 -37.6748 -160.172 -48.085c-4.91309 -66.6797 -6.33105 -133.62 -4.27344 -200.536
c0.452148 -14.6514 -30.084 -24.4619 -30.6426 -8.16895c-2.31445 67.873 -1.07227 135.844 3.71484 203.558c-15.5312 -2.15918 -31.1562 -3.72754 -46.875 -4.60352c-72.8359 -4.0625 -151.913 6.28223 -204.691 61.6143c-94.6123 99.1875 -73.6426 262.17 9.3418 360.999
c82.1895 97.8877 230.464 130.466 340.795 65.873c16.7246 43.0205 36.8271 84.3906 61.8271 122.505c28.748 43.8271 68.1709 94.3398 124.367 100.414c56.3838 6.09473 96.54 -38.4775 122.118 -82.6709c32.8584 -56.7744 50.1455 -121.539 65.9941 -184.694
c17.8203 -71.0146 31.583 -142.709 43.6104 -214.93c0.00390625 -0.00390625 0.0078125 -0.00390625 0.0117188 -0.0078125c21.9883 7.78223 44.2949 14.501 67.0127 19.5488c18.6523 4.14355 37.6055 7.1748 56.6562 8.58887zM281.865 11.4473
c6.32324 75.5693 17.1055 150.764 32.417 225.086c13.832 67.1602 29.8359 136.744 52.957 203.31c-8.41699 5.72461 -17.2705 10.8945 -26.5967 15.4004c-62.124 30.0273 -138.149 29.7832 -200.159 -0.49707c-60.3359 -29.4609 -105.201 -85.9297 -126.701 -148.922
c-20.6523 -60.5146 -20.3672 -128.213 6.0752 -186.947c29.8604 -66.333 88.0283 -102.573 159.597 -109.495c34.4316 -3.33301 68.5947 -2.26562 102.411 2.06543zM313.146 16.373c73.7607 13.7754 145.708 41.9004 214.995 73.248
c-3.93945 61.5127 -17.1729 122.26 -40.0781 179.829c-21.6221 54.334 -51.543 110.42 -95.5488 150.389c-27.7705 -82.4629 -45.999 -169.163 -60.2959 -253.695c-8.40137 -49.6816 -14.7207 -99.6445 -19.0723 -149.771zM641.648 143.205
c24.3066 11.5752 48.8047 23.4082 73.6006 34.6816c-1.51562 11.0938 -3.06348 22.1836 -4.68066 33.2617c-9.14258 62.5928 -18.7207 125.267 -30.4873 187.424c-11.1797 59.0605 -22.042 119.49 -42.2871 176.232c-8.71484 24.4297 -19.3408 50.9326 -35.9023 71.2832
c-20.4531 25.1299 -48.6348 24.4863 -74.1602 6.64941c-45.4805 -31.7871 -75.3574 -89.5967 -98.0352 -138.655c-9.20801 -19.9072 -17.6299 -40.2666 -25.3916 -60.9473c1.17383 -0.908203 2.37598 -1.75586 3.53711 -2.69336
c58.7266 -47.3594 95.8594 -119.796 120.244 -189.8c17.6133 -50.5576 28.4062 -103.042 32.3506 -156.142c27.542 12.9072 54.6318 26.0508 81.2119 38.7051z" />
    <glyph glyph-name="A" unicode="&#xc4;" horiz-adv-x="892" 
d="M920.145 239.327c7.19141 0.53418 13.3252 -5.18066 13.3252 -12.3926c0 -6.59668 -5.16602 -12.0195 -11.7578 -12.3574c-12.1084 -0.623047 -24.1807 -1.98828 -36.126 -3.98047c-29.0947 -4.85254 -57.3945 -13.1807 -85.0791 -23.2852
c21.3984 -127.194 41.916 -256.324 45.9492 -385.07c1.16113 -37.0801 -72.4521 -64.8096 -79.7207 -21.252c-20.5586 123.229 -31.9463 248.064 -48.1621 372.057c-52.5986 -23.8877 -104.309 -49.7715 -156.74 -74.0215
c0.602539 -18.5703 0.329102 -37.1895 -0.750977 -55.8047c12.2227 4.94629 25.0811 8.15234 39.0352 8.29492c8.70703 0.0898438 16.957 -4.54688 15.0791 -14.4229c-1.93945 -10.2061 -13.4365 -15.3232 -22.5264 -16.6963
c-31.2412 -4.71777 -58.9873 -21.2471 -85.9551 -36.5254c-14.6514 -8.29883 -29.4043 8.79297 -13.9141 18.6035c11.7871 7.46387 23.3779 15.6445 35.2422 23.1611c-0.0654297 0.619141 -0.15918 1.21777 -0.110352 1.93457
c1.30371 18.8838 1.69043 37.7969 1.2666 56.6689c-19.1201 -8.47461 -38.3711 -16.6514 -57.8496 -24.3154c-51.8652 -20.4082 -105.377 -37.6748 -160.172 -48.085c-4.91309 -66.6797 -6.33105 -133.62 -4.27344 -200.536
c0.452148 -14.6514 -30.084 -24.4619 -30.6426 -8.16895c-2.31445 67.873 -1.07227 135.844 3.71484 203.558c-15.5312 -2.15918 -31.1562 -3.72754 -46.875 -4.60352c-72.8359 -4.0625 -151.913 6.28223 -204.691 61.6143c-94.6123 99.1875 -73.6426 262.17 9.3418 360.999
c82.1895 97.8877 230.464 130.466 340.795 65.873c16.7246 43.0205 36.8271 84.3906 61.8271 122.505c28.748 43.8271 68.1709 94.3398 124.367 100.414c56.3838 6.09473 96.54 -38.4775 122.118 -82.6709c32.8584 -56.7744 50.1455 -121.539 65.9941 -184.694
c17.8203 -71.0146 31.583 -142.709 43.6104 -214.93c0.00390625 -0.00390625 0.0078125 -0.00390625 0.0117188 -0.0078125c21.9883 7.78223 44.2949 14.501 67.0127 19.5488c18.6523 4.14355 37.6055 7.1748 56.6562 8.58887zM281.865 11.4473
c6.32324 75.5693 17.1055 150.764 32.417 225.086c13.832 67.1602 29.8359 136.744 52.957 203.31c-8.41699 5.72461 -17.2705 10.8945 -26.5967 15.4004c-62.124 30.0273 -138.149 29.7832 -200.159 -0.49707c-60.3359 -29.4609 -105.201 -85.9297 -126.701 -148.922
c-20.6523 -60.5146 -20.3672 -128.213 6.0752 -186.947c29.8604 -66.333 88.0283 -102.573 159.597 -109.495c34.4316 -3.33301 68.5947 -2.26562 102.411 2.06543zM313.146 16.373c73.7607 13.7754 145.708 41.9004 214.995 73.248
c-3.93945 61.5127 -17.1729 122.26 -40.0781 179.829c-21.6221 54.334 -51.543 110.42 -95.5488 150.389c-27.7705 -82.4629 -45.999 -169.163 -60.2959 -253.695c-8.40137 -49.6816 -14.7207 -99.6445 -19.0723 -149.771zM641.648 143.205
c24.3066 11.5752 48.8047 23.4082 73.6006 34.6816c-1.51562 11.0938 -3.06348 22.1836 -4.68066 33.2617c-9.14258 62.5928 -18.7207 125.267 -30.4873 187.424c-11.1797 59.0605 -22.042 119.49 -42.2871 176.232c-8.71484 24.4297 -19.3408 50.9326 -35.9023 71.2832
c-20.4531 25.1299 -48.6348 24.4863 -74.1602 6.64941c-45.4805 -31.7871 -75.3574 -89.5967 -98.0352 -138.655c-9.20801 -19.9072 -17.6299 -40.2666 -25.3916 -60.9473c1.17383 -0.908203 2.37598 -1.75586 3.53711 -2.69336
c58.7266 -47.3594 95.8594 -119.796 120.244 -189.8c17.6133 -50.5576 28.4062 -103.042 32.3506 -156.142c27.542 12.9072 54.6318 26.0508 81.2119 38.7051z" />
    <glyph glyph-name="A" unicode="&#xc3;" horiz-adv-x="892" 
d="M920.145 239.327c7.19141 0.53418 13.3252 -5.18066 13.3252 -12.3926c0 -6.59668 -5.16602 -12.0195 -11.7578 -12.3574c-12.1084 -0.623047 -24.1807 -1.98828 -36.126 -3.98047c-29.0947 -4.85254 -57.3945 -13.1807 -85.0791 -23.2852
c21.3984 -127.194 41.916 -256.324 45.9492 -385.07c1.16113 -37.0801 -72.4521 -64.8096 -79.7207 -21.252c-20.5586 123.229 -31.9463 248.064 -48.1621 372.057c-52.5986 -23.8877 -104.309 -49.7715 -156.74 -74.0215
c0.602539 -18.5703 0.329102 -37.1895 -0.750977 -55.8047c12.2227 4.94629 25.0811 8.15234 39.0352 8.29492c8.70703 0.0898438 16.957 -4.54688 15.0791 -14.4229c-1.93945 -10.2061 -13.4365 -15.3232 -22.5264 -16.6963
c-31.2412 -4.71777 -58.9873 -21.2471 -85.9551 -36.5254c-14.6514 -8.29883 -29.4043 8.79297 -13.9141 18.6035c11.7871 7.46387 23.3779 15.6445 35.2422 23.1611c-0.0654297 0.619141 -0.15918 1.21777 -0.110352 1.93457
c1.30371 18.8838 1.69043 37.7969 1.2666 56.6689c-19.1201 -8.47461 -38.3711 -16.6514 -57.8496 -24.3154c-51.8652 -20.4082 -105.377 -37.6748 -160.172 -48.085c-4.91309 -66.6797 -6.33105 -133.62 -4.27344 -200.536
c0.452148 -14.6514 -30.084 -24.4619 -30.6426 -8.16895c-2.31445 67.873 -1.07227 135.844 3.71484 203.558c-15.5312 -2.15918 -31.1562 -3.72754 -46.875 -4.60352c-72.8359 -4.0625 -151.913 6.28223 -204.691 61.6143c-94.6123 99.1875 -73.6426 262.17 9.3418 360.999
c82.1895 97.8877 230.464 130.466 340.795 65.873c16.7246 43.0205 36.8271 84.3906 61.8271 122.505c28.748 43.8271 68.1709 94.3398 124.367 100.414c56.3838 6.09473 96.54 -38.4775 122.118 -82.6709c32.8584 -56.7744 50.1455 -121.539 65.9941 -184.694
c17.8203 -71.0146 31.583 -142.709 43.6104 -214.93c0.00390625 -0.00390625 0.0078125 -0.00390625 0.0117188 -0.0078125c21.9883 7.78223 44.2949 14.501 67.0127 19.5488c18.6523 4.14355 37.6055 7.1748 56.6562 8.58887zM281.865 11.4473
c6.32324 75.5693 17.1055 150.764 32.417 225.086c13.832 67.1602 29.8359 136.744 52.957 203.31c-8.41699 5.72461 -17.2705 10.8945 -26.5967 15.4004c-62.124 30.0273 -138.149 29.7832 -200.159 -0.49707c-60.3359 -29.4609 -105.201 -85.9297 -126.701 -148.922
c-20.6523 -60.5146 -20.3672 -128.213 6.0752 -186.947c29.8604 -66.333 88.0283 -102.573 159.597 -109.495c34.4316 -3.33301 68.5947 -2.26562 102.411 2.06543zM313.146 16.373c73.7607 13.7754 145.708 41.9004 214.995 73.248
c-3.93945 61.5127 -17.1729 122.26 -40.0781 179.829c-21.6221 54.334 -51.543 110.42 -95.5488 150.389c-27.7705 -82.4629 -45.999 -169.163 -60.2959 -253.695c-8.40137 -49.6816 -14.7207 -99.6445 -19.0723 -149.771zM641.648 143.205
c24.3066 11.5752 48.8047 23.4082 73.6006 34.6816c-1.51562 11.0938 -3.06348 22.1836 -4.68066 33.2617c-9.14258 62.5928 -18.7207 125.267 -30.4873 187.424c-11.1797 59.0605 -22.042 119.49 -42.2871 176.232c-8.71484 24.4297 -19.3408 50.9326 -35.9023 71.2832
c-20.4531 25.1299 -48.6348 24.4863 -74.1602 6.64941c-45.4805 -31.7871 -75.3574 -89.5967 -98.0352 -138.655c-9.20801 -19.9072 -17.6299 -40.2666 -25.3916 -60.9473c1.17383 -0.908203 2.37598 -1.75586 3.53711 -2.69336
c58.7266 -47.3594 95.8594 -119.796 120.244 -189.8c17.6133 -50.5576 28.4062 -103.042 32.3506 -156.142c27.542 12.9072 54.6318 26.0508 81.2119 38.7051z" />
    <glyph glyph-name="A" unicode="&#xc2;" horiz-adv-x="892" 
d="M920.145 239.327c7.19141 0.53418 13.3252 -5.18066 13.3252 -12.3926c0 -6.59668 -5.16602 -12.0195 -11.7578 -12.3574c-12.1084 -0.623047 -24.1807 -1.98828 -36.126 -3.98047c-29.0947 -4.85254 -57.3945 -13.1807 -85.0791 -23.2852
c21.3984 -127.194 41.916 -256.324 45.9492 -385.07c1.16113 -37.0801 -72.4521 -64.8096 -79.7207 -21.252c-20.5586 123.229 -31.9463 248.064 -48.1621 372.057c-52.5986 -23.8877 -104.309 -49.7715 -156.74 -74.0215
c0.602539 -18.5703 0.329102 -37.1895 -0.750977 -55.8047c12.2227 4.94629 25.0811 8.15234 39.0352 8.29492c8.70703 0.0898438 16.957 -4.54688 15.0791 -14.4229c-1.93945 -10.2061 -13.4365 -15.3232 -22.5264 -16.6963
c-31.2412 -4.71777 -58.9873 -21.2471 -85.9551 -36.5254c-14.6514 -8.29883 -29.4043 8.79297 -13.9141 18.6035c11.7871 7.46387 23.3779 15.6445 35.2422 23.1611c-0.0654297 0.619141 -0.15918 1.21777 -0.110352 1.93457
c1.30371 18.8838 1.69043 37.7969 1.2666 56.6689c-19.1201 -8.47461 -38.3711 -16.6514 -57.8496 -24.3154c-51.8652 -20.4082 -105.377 -37.6748 -160.172 -48.085c-4.91309 -66.6797 -6.33105 -133.62 -4.27344 -200.536
c0.452148 -14.6514 -30.084 -24.4619 -30.6426 -8.16895c-2.31445 67.873 -1.07227 135.844 3.71484 203.558c-15.5312 -2.15918 -31.1562 -3.72754 -46.875 -4.60352c-72.8359 -4.0625 -151.913 6.28223 -204.691 61.6143c-94.6123 99.1875 -73.6426 262.17 9.3418 360.999
c82.1895 97.8877 230.464 130.466 340.795 65.873c16.7246 43.0205 36.8271 84.3906 61.8271 122.505c28.748 43.8271 68.1709 94.3398 124.367 100.414c56.3838 6.09473 96.54 -38.4775 122.118 -82.6709c32.8584 -56.7744 50.1455 -121.539 65.9941 -184.694
c17.8203 -71.0146 31.583 -142.709 43.6104 -214.93c0.00390625 -0.00390625 0.0078125 -0.00390625 0.0117188 -0.0078125c21.9883 7.78223 44.2949 14.501 67.0127 19.5488c18.6523 4.14355 37.6055 7.1748 56.6562 8.58887zM281.865 11.4473
c6.32324 75.5693 17.1055 150.764 32.417 225.086c13.832 67.1602 29.8359 136.744 52.957 203.31c-8.41699 5.72461 -17.2705 10.8945 -26.5967 15.4004c-62.124 30.0273 -138.149 29.7832 -200.159 -0.49707c-60.3359 -29.4609 -105.201 -85.9297 -126.701 -148.922
c-20.6523 -60.5146 -20.3672 -128.213 6.0752 -186.947c29.8604 -66.333 88.0283 -102.573 159.597 -109.495c34.4316 -3.33301 68.5947 -2.26562 102.411 2.06543zM313.146 16.373c73.7607 13.7754 145.708 41.9004 214.995 73.248
c-3.93945 61.5127 -17.1729 122.26 -40.0781 179.829c-21.6221 54.334 -51.543 110.42 -95.5488 150.389c-27.7705 -82.4629 -45.999 -169.163 -60.2959 -253.695c-8.40137 -49.6816 -14.7207 -99.6445 -19.0723 -149.771zM641.648 143.205
c24.3066 11.5752 48.8047 23.4082 73.6006 34.6816c-1.51562 11.0938 -3.06348 22.1836 -4.68066 33.2617c-9.14258 62.5928 -18.7207 125.267 -30.4873 187.424c-11.1797 59.0605 -22.042 119.49 -42.2871 176.232c-8.71484 24.4297 -19.3408 50.9326 -35.9023 71.2832
c-20.4531 25.1299 -48.6348 24.4863 -74.1602 6.64941c-45.4805 -31.7871 -75.3574 -89.5967 -98.0352 -138.655c-9.20801 -19.9072 -17.6299 -40.2666 -25.3916 -60.9473c1.17383 -0.908203 2.37598 -1.75586 3.53711 -2.69336
c58.7266 -47.3594 95.8594 -119.796 120.244 -189.8c17.6133 -50.5576 28.4062 -103.042 32.3506 -156.142c27.542 12.9072 54.6318 26.0508 81.2119 38.7051z" />
    <glyph glyph-name="A" unicode="&#xc1;" horiz-adv-x="892" 
d="M920.145 239.327c7.19141 0.53418 13.3252 -5.18066 13.3252 -12.3926c0 -6.59668 -5.16602 -12.0195 -11.7578 -12.3574c-12.1084 -0.623047 -24.1807 -1.98828 -36.126 -3.98047c-29.0947 -4.85254 -57.3945 -13.1807 -85.0791 -23.2852
c21.3984 -127.194 41.916 -256.324 45.9492 -385.07c1.16113 -37.0801 -72.4521 -64.8096 -79.7207 -21.252c-20.5586 123.229 -31.9463 248.064 -48.1621 372.057c-52.5986 -23.8877 -104.309 -49.7715 -156.74 -74.0215
c0.602539 -18.5703 0.329102 -37.1895 -0.750977 -55.8047c12.2227 4.94629 25.0811 8.15234 39.0352 8.29492c8.70703 0.0898438 16.957 -4.54688 15.0791 -14.4229c-1.93945 -10.2061 -13.4365 -15.3232 -22.5264 -16.6963
c-31.2412 -4.71777 -58.9873 -21.2471 -85.9551 -36.5254c-14.6514 -8.29883 -29.4043 8.79297 -13.9141 18.6035c11.7871 7.46387 23.3779 15.6445 35.2422 23.1611c-0.0654297 0.619141 -0.15918 1.21777 -0.110352 1.93457
c1.30371 18.8838 1.69043 37.7969 1.2666 56.6689c-19.1201 -8.47461 -38.3711 -16.6514 -57.8496 -24.3154c-51.8652 -20.4082 -105.377 -37.6748 -160.172 -48.085c-4.91309 -66.6797 -6.33105 -133.62 -4.27344 -200.536
c0.452148 -14.6514 -30.084 -24.4619 -30.6426 -8.16895c-2.31445 67.873 -1.07227 135.844 3.71484 203.558c-15.5312 -2.15918 -31.1562 -3.72754 -46.875 -4.60352c-72.8359 -4.0625 -151.913 6.28223 -204.691 61.6143c-94.6123 99.1875 -73.6426 262.17 9.3418 360.999
c82.1895 97.8877 230.464 130.466 340.795 65.873c16.7246 43.0205 36.8271 84.3906 61.8271 122.505c28.748 43.8271 68.1709 94.3398 124.367 100.414c56.3838 6.09473 96.54 -38.4775 122.118 -82.6709c32.8584 -56.7744 50.1455 -121.539 65.9941 -184.694
c17.8203 -71.0146 31.583 -142.709 43.6104 -214.93c0.00390625 -0.00390625 0.0078125 -0.00390625 0.0117188 -0.0078125c21.9883 7.78223 44.2949 14.501 67.0127 19.5488c18.6523 4.14355 37.6055 7.1748 56.6562 8.58887zM281.865 11.4473
c6.32324 75.5693 17.1055 150.764 32.417 225.086c13.832 67.1602 29.8359 136.744 52.957 203.31c-8.41699 5.72461 -17.2705 10.8945 -26.5967 15.4004c-62.124 30.0273 -138.149 29.7832 -200.159 -0.49707c-60.3359 -29.4609 -105.201 -85.9297 -126.701 -148.922
c-20.6523 -60.5146 -20.3672 -128.213 6.0752 -186.947c29.8604 -66.333 88.0283 -102.573 159.597 -109.495c34.4316 -3.33301 68.5947 -2.26562 102.411 2.06543zM313.146 16.373c73.7607 13.7754 145.708 41.9004 214.995 73.248
c-3.93945 61.5127 -17.1729 122.26 -40.0781 179.829c-21.6221 54.334 -51.543 110.42 -95.5488 150.389c-27.7705 -82.4629 -45.999 -169.163 -60.2959 -253.695c-8.40137 -49.6816 -14.7207 -99.6445 -19.0723 -149.771zM641.648 143.205
c24.3066 11.5752 48.8047 23.4082 73.6006 34.6816c-1.51562 11.0938 -3.06348 22.1836 -4.68066 33.2617c-9.14258 62.5928 -18.7207 125.267 -30.4873 187.424c-11.1797 59.0605 -22.042 119.49 -42.2871 176.232c-8.71484 24.4297 -19.3408 50.9326 -35.9023 71.2832
c-20.4531 25.1299 -48.6348 24.4863 -74.1602 6.64941c-45.4805 -31.7871 -75.3574 -89.5967 -98.0352 -138.655c-9.20801 -19.9072 -17.6299 -40.2666 -25.3916 -60.9473c1.17383 -0.908203 2.37598 -1.75586 3.53711 -2.69336
c58.7266 -47.3594 95.8594 -119.796 120.244 -189.8c17.6133 -50.5576 28.4062 -103.042 32.3506 -156.142c27.542 12.9072 54.6318 26.0508 81.2119 38.7051z" />
    <glyph glyph-name="B" unicode="B" horiz-adv-x="905" 
d="M491.896 -77.3135c36.2363 40.7422 80.8799 74.7979 126.976 103.574c29.4082 18.3467 59.9365 34.5293 91.2793 48.9355c0.114258 39.2754 -2.81152 78.9834 -12.1416 116.976c-10.1982 41.5244 -29.8154 81.3906 -61.4639 110.632
c-26.1279 24.1396 -65.3389 46.0918 -102.357 39.9521c-14.4795 -2.4043 -33.9258 -2.97461 -41.5771 12.7109c-7.08887 14.5332 3.73633 32.3496 15.5801 40.5918c69.7227 48.5078 122.305 110.127 160.122 186.401c13.6201 27.4648 48.0557 90.3555 9.13477 112.128
c-33.5146 18.75 -81.542 -50.5488 -97.167 -73.2754c-48.3984 -70.3906 -80.6826 -153.562 -108.2 -233.911c-28.5234 -83.2822 -50.8711 -168.605 -71.2012 -254.21c-21.2842 -89.6172 -38.9014 -180.363 -42.2012 -272.629
c-0.134766 -3.74414 -2.2002 -7.16699 -5.21094 -9.9375c-0.382812 -6.0625 -0.782227 -12.1211 -1.2793 -18.1758c-1.69043 -20.5996 -16.7158 -35.418 -36.6963 -40.6943c-17.5762 -4.64453 -37.6504 0.224609 -41.7529 19.7812
c-23.252 110.856 -19.9229 227.881 -20.9336 340.722c-0.883789 98.7764 0.860352 197.483 -7.96484 295.979c-4.00098 44.6865 -9.00781 91.9639 -22.7949 134.87c-11.2168 34.9043 -30.0156 71.2754 -66.5332 84.6631
c-38.1875 13.999 -84.7559 -3.51172 -112.163 -31.1553c-29.1719 -29.4238 -44.6582 -71.6699 -46.9883 -112.608c-2.43262 -42.7061 8.21387 -90.0859 47.5264 -113.411c38.4404 -22.8076 84.4473 -18.6846 127.187 -13.5469
c0.928711 11.3877 1.93066 22.7666 3.06738 34.1416c1.51172 15.1113 33.5596 21.125 31.7832 1.92285c-3.34863 -36.1758 -5.47949 -72.4121 -6.53906 -108.726c-0.464844 -15.9219 -33.8125 -26.0664 -33.1807 -8.84473c0.688477 18.8193 1.68652 37.6182 2.96582 56.3926
c-52.0449 -6.46582 -108.991 -10.9355 -154.61 19.9307c-43.3379 29.3184 -54.9863 83.5508 -50.7451 132.91c7.59863 88.4277 70.9248 168.842 163.32 175.161c43.7451 2.99414 90.0371 -8.96777 122.35 -39.5371c34.8672 -32.9893 49.376 -81.0576 60.8936 -126.18
c28.4551 -111.468 30.9932 -226.977 34.7256 -341.324c1.52832 -46.8535 4.44141 -93.9922 6.84473 -141.185c9.96191 50.2881 22.0215 100.214 34.5986 149.871c24.8691 98.1729 53.7959 195.539 93.4141 288.872c18.9863 44.7354 39.8184 89.418 66.6104 130.083
c23.333 35.4131 52.9932 73.9229 91.2988 94.0615c34.3867 18.0771 75.9111 10.959 88.2764 -29.5557c12.0723 -39.5488 -1.14453 -87.4258 -13.7783 -125.386c-19.0713 -57.3086 -54 -111.716 -97.5254 -156.044c34.1016 -9.15039 65.9092 -27.501 91.4795 -51.9258
c47.2373 -45.1182 70.3096 -108.424 79.4521 -171.905c3.33691 -23.1748 5.5332 -47.1357 6.33984 -71.3779c45.5947 16.2646 92.2979 29.6201 139.303 41.0117c21.7852 5.28027 20.502 -20.4814 2.08594 -24.9268c-47.5303 -11.4688 -94.9014 -24.9102 -141.062 -41.5088
c-0.765625 -86.501 -20.6113 -174.492 -72.8184 -242.137c-32.8184 -42.5234 -81.9746 -75.7168 -135.038 -86.2002c-44.4707 -8.78418 -105.291 -8.73145 -126.596 39.9971c-19.9756 45.6973 3.3418 93.6758 33.9072 128.046zM709.65 48.8037
c-24.5352 -11.6279 -48.5 -24.4648 -71.6992 -38.7578c-39.7725 -24.5186 -77.4551 -53.5479 -109.976 -87.1689c-28.8457 -29.8232 -60.4619 -75.9844 -32.5371 -116.943c27.1426 -39.8057 85.3105 -16.4111 115.749 6.29883
c31.6162 23.5898 56.3145 57.333 71.0713 93.7852c17.9189 44.2588 25.5869 92.7461 27.3105 140.235c0.0322266 0.847656 0.0527344 1.70312 0.0810547 2.55078z" />
    <glyph glyph-name="C" unicode="C" horiz-adv-x="426" 
d="M234.061 -231.549c-66.5566 -28.3975 -125.914 9.62891 -165.992 62.4844c-42.0752 55.4951 -66.6963 120.101 -79.4531 188.263c-27.3379 146.082 -19.707 308.209 30.2559 448.592c24.1445 67.8359 63.8398 144.913 127.753 183.228
c54.2607 32.5244 121.099 32.5654 156.879 -25.3213c34.5947 -55.9717 33.5596 -131.614 17.3975 -193.368c-14.6104 -55.8213 -52.2646 -114.56 -113.464 -119.812c-1.53613 -6.31543 -3.03906 -12.6426 -4.48535 -18.9863
c-3.28809 -14.4062 -35.0879 -19.9795 -30.9521 -1.86914c2.26074 9.9082 4.66895 19.7803 7.1416 29.6318c-0.163086 2.22461 0.500977 4.65723 1.77637 7.04883c3.96387 15.4658 8.16406 30.8701 12.6582 46.2061c4.13086 14.0967 36.1182 19.499 30.9521 1.87012
c-3.32031 -11.335 -6.45703 -22.71 -9.49219 -34.1182c65.2939 5.91602 83.2773 112.315 81.9453 162.836c-0.802734 30.4512 -5.66309 61.7451 -19.7031 89.083c-11.7578 22.8936 -37.2061 49.6006 -65.9053 40.6982
c-22.4414 -6.95898 -41.3545 -34.8721 -53.4795 -53.5566c-14.0811 -21.6992 -26.0674 -45.3828 -35.4629 -69.4697c-22.3271 -57.251 -37.0146 -117.477 -46.2959 -178.158c-17.7148 -115.818 -14.9609 -239.187 10.54 -353.669
c11.665 -52.3623 32.542 -104.081 61.8477 -149.105c16.415 -25.2158 41.4795 -50.7568 73.7881 -38.4121c24.8613 9.49707 45.2695 28.7402 62.2432 48.6631c76.959 90.3428 124.958 211.344 150.435 325.973c3.15332 14.1826 34.3535 19.8584 30.5361 1.8457
c-17.21 -81.2119 -45.6279 -159.972 -84.9893 -233.104c-34.0889 -63.3379 -77.1172 -137.876 -146.474 -167.472z" />
    <glyph glyph-name="D" unicode="D" horiz-adv-x="853" 
d="M273.743 -188.463c-23.248 110.853 -19.9219 227.88 -20.9365 340.717c-0.883789 98.7764 0.860352 197.483 -7.96484 295.979c-4.00098 44.6865 -9.00781 91.9639 -22.7949 134.87c-11.2168 34.9043 -30.0156 71.2754 -66.5332 84.6631
c-38.1885 13.999 -84.7568 -3.51172 -112.164 -31.1553c-29.1719 -29.4238 -44.6582 -71.6699 -46.9883 -112.608c-2.43262 -42.7061 8.21387 -90.0859 47.5264 -113.411c38.4443 -22.8076 84.4463 -18.6846 127.186 -13.5469
c0.928711 11.3877 1.93066 22.7666 3.06738 34.1416c1.51172 15.1113 33.5596 21.125 31.7832 1.92285c-3.34863 -36.1758 -5.47949 -72.4121 -6.53906 -108.726c-0.464844 -15.9219 -33.8125 -26.0664 -33.1807 -8.84473c0.688477 18.8193 1.68652 37.6182 2.96582 56.3926
c-52.0449 -6.46582 -108.991 -10.9355 -154.61 19.9307c-43.3379 29.3184 -54.9863 83.5508 -50.7451 132.91c7.59863 88.4277 70.9248 168.842 163.32 175.161c43.7451 2.99414 90.0371 -8.96777 122.35 -39.5371c34.8672 -32.9893 49.376 -81.0576 60.8936 -126.18
c28.4551 -111.468 30.9932 -226.977 34.7256 -341.324c0.509766 -15.6006 1.17773 -31.2334 1.92285 -46.8867c1.25879 9.63965 2.51367 19.2754 3.8252 28.9111c14.46 106.057 29.6201 213.535 63.2773 315.521c20.9053 63.3379 62.3604 165.027 143.182 165.084
c36.1709 0.0283203 64.8369 -26.9395 87.3877 -52.3428c28.3203 -31.9014 49.0742 -69.1152 63.8271 -109.067c31.7666 -86.0322 46.8086 -179.761 50.9033 -271.077c2.0127 -44.8535 1.125 -91.4834 -4.63184 -137.352c42.2744 11.7539 82.3369 28.8701 116.092 59.293
c14.2314 12.8301 34.8271 -2.11816 18.3594 -16.9893c-39.7119 -35.8496 -87.959 -55.3691 -138.398 -68.7246c-6.25391 -36.9004 -15.9102 -72.9863 -30.1416 -106.868c-31.498 -74.9863 -105.229 -148.021 -191.184 -149.822
c-33.5312 -0.701172 -73.0596 7.05176 -96.6084 32.9229c-24.3604 26.7637 -21.0605 65.877 -7.74609 97.0615c32.79 76.7959 118.496 108.38 194.094 124.746c16.5254 3.58105 33.3643 6.71387 50.2764 9.87109c11.6279 77.5166 11.2324 157.319 3.68652 235.158
c-7.48828 77.2148 -16.8467 157.519 -44.3232 230.541c-11.8604 31.5146 -23.7246 68.7207 -53.9111 87.3887c-38.7666 23.9727 -70.9492 -11.4199 -90.4326 -42.5186c-41.7734 -66.667 -59.207 -148.935 -74.2861 -225.185
c-25.582 -129.386 -41.8867 -261.29 -54.8506 -392.921c0.823242 -42.5312 0.236328 -84.9893 -3.23047 -127.187c-1.69043 -20.5996 -16.7158 -35.418 -36.6963 -40.6943c-17.5762 -4.64453 -37.6504 0.224609 -41.7529 19.7812zM583.368 -120.493
c48.6875 38.3506 70.3535 101.808 81.7207 161.332c-0.810547 -0.155273 -1.62109 -0.305664 -2.42773 -0.460938c-76.4209 -14.4307 -183.663 -33.5957 -208.956 -120.988c-10.8457 -37.4668 7.98926 -69.9307 48.1367 -72.4775
c28.4834 -1.80859 59.8184 15.4951 81.5264 32.5947z" />
    <glyph glyph-name="E" unicode="E" horiz-adv-x="485" 
d="M51.7627 240.776c-69.7227 46.5889 -93.0283 134.761 -82.2559 214.314c11.6934 86.2969 63.0654 154.211 137.417 196.767c61.2402 35.0547 147.732 47.9941 208.671 4.97852c57.7236 -40.7383 62.3232 -119.322 43.1172 -181.947
c8.10742 -0.977539 16.3291 -1.49512 24.7344 -1.51562c22.1191 -0.0488281 10.3486 -25.3701 -6.21289 -25.957c-30.0596 -1.06738 -59.5332 5.5166 -86.8311 17.9883c-16.3789 7.48047 6.92578 27.7217 19.7031 22.2988
c6.05859 -2.57129 12.1494 -4.75098 18.2812 -6.58887c15.4248 59.3818 7.12988 131.843 -54.8477 160.272c-53.8291 24.6904 -126.852 4.17676 -165.952 -38.835c-43.0117 -47.3145 -66.4229 -108.6 -60.792 -172.822c5.1377 -58.624 31.8564 -116.653 87.6699 -142.395
c45.2568 -20.8721 103.571 -18.6475 149.578 -0.504883c15.1689 5.98145 41.2686 10.9443 50.252 -8.29395c8.24219 -17.6494 -8.60938 -38.2002 -24.4014 -44.707c-71.1279 -29.3018 -132.458 -78.4209 -175.882 -142.134
c-40.502 -59.4268 -72.0205 -135.701 -66.4268 -208.72c2.88477 -37.6133 18.3262 -73.6865 51.3076 -94.416c34.4316 -21.6426 75.9365 -13.7266 111.244 1.37695c73.1006 31.2695 132.561 94.4941 175.1 160.289c42.124 65.1592 70.4727 137.803 89.1611 212.879
c3.50781 14.0889 34.8711 19.6377 30.5361 1.8457c-23.4551 -96.3115 -62.9346 -189.318 -124.659 -267.503c-53.6006 -67.8975 -128.913 -133.024 -216.746 -147.83c-40.4492 -6.81641 -87.1846 -6.40918 -121.596 18.8271
c-33.9629 24.9062 -53.9062 67.417 -57.1904 108.823c-6.9502 87.6377 32.8311 179.557 82.7324 249.45c20.5713 28.8086 44.4053 55.2217 70.7734 78.7871c-37.3486 2.62012 -73.7852 13.4209 -106.485 35.2715z" />
    <glyph glyph-name="E" unicode="&#xcb;" horiz-adv-x="485" 
d="M51.7627 240.776c-69.7227 46.5889 -93.0283 134.761 -82.2559 214.314c11.6934 86.2969 63.0654 154.211 137.417 196.767c61.2402 35.0547 147.732 47.9941 208.671 4.97852c57.7236 -40.7383 62.3232 -119.322 43.1172 -181.947
c8.10742 -0.977539 16.3291 -1.49512 24.7344 -1.51562c22.1191 -0.0488281 10.3486 -25.3701 -6.21289 -25.957c-30.0596 -1.06738 -59.5332 5.5166 -86.8311 17.9883c-16.3789 7.48047 6.92578 27.7217 19.7031 22.2988
c6.05859 -2.57129 12.1494 -4.75098 18.2812 -6.58887c15.4248 59.3818 7.12988 131.843 -54.8477 160.272c-53.8291 24.6904 -126.852 4.17676 -165.952 -38.835c-43.0117 -47.3145 -66.4229 -108.6 -60.792 -172.822c5.1377 -58.624 31.8564 -116.653 87.6699 -142.395
c45.2568 -20.8721 103.571 -18.6475 149.578 -0.504883c15.1689 5.98145 41.2686 10.9443 50.252 -8.29395c8.24219 -17.6494 -8.60938 -38.2002 -24.4014 -44.707c-71.1279 -29.3018 -132.458 -78.4209 -175.882 -142.134
c-40.502 -59.4268 -72.0205 -135.701 -66.4268 -208.72c2.88477 -37.6133 18.3262 -73.6865 51.3076 -94.416c34.4316 -21.6426 75.9365 -13.7266 111.244 1.37695c73.1006 31.2695 132.561 94.4941 175.1 160.289c42.124 65.1592 70.4727 137.803 89.1611 212.879
c3.50781 14.0889 34.8711 19.6377 30.5361 1.8457c-23.4551 -96.3115 -62.9346 -189.318 -124.659 -267.503c-53.6006 -67.8975 -128.913 -133.024 -216.746 -147.83c-40.4492 -6.81641 -87.1846 -6.40918 -121.596 18.8271
c-33.9629 24.9062 -53.9062 67.417 -57.1904 108.823c-6.9502 87.6377 32.8311 179.557 82.7324 249.45c20.5713 28.8086 44.4053 55.2217 70.7734 78.7871c-37.3486 2.62012 -73.7852 13.4209 -106.485 35.2715z" />
    <glyph glyph-name="E" unicode="&#xca;" horiz-adv-x="485" 
d="M51.7627 240.776c-69.7227 46.5889 -93.0283 134.761 -82.2559 214.314c11.6934 86.2969 63.0654 154.211 137.417 196.767c61.2402 35.0547 147.732 47.9941 208.671 4.97852c57.7236 -40.7383 62.3232 -119.322 43.1172 -181.947
c8.10742 -0.977539 16.3291 -1.49512 24.7344 -1.51562c22.1191 -0.0488281 10.3486 -25.3701 -6.21289 -25.957c-30.0596 -1.06738 -59.5332 5.5166 -86.8311 17.9883c-16.3789 7.48047 6.92578 27.7217 19.7031 22.2988
c6.05859 -2.57129 12.1494 -4.75098 18.2812 -6.58887c15.4248 59.3818 7.12988 131.843 -54.8477 160.272c-53.8291 24.6904 -126.852 4.17676 -165.952 -38.835c-43.0117 -47.3145 -66.4229 -108.6 -60.792 -172.822c5.1377 -58.624 31.8564 -116.653 87.6699 -142.395
c45.2568 -20.8721 103.571 -18.6475 149.578 -0.504883c15.1689 5.98145 41.2686 10.9443 50.252 -8.29395c8.24219 -17.6494 -8.60938 -38.2002 -24.4014 -44.707c-71.1279 -29.3018 -132.458 -78.4209 -175.882 -142.134
c-40.502 -59.4268 -72.0205 -135.701 -66.4268 -208.72c2.88477 -37.6133 18.3262 -73.6865 51.3076 -94.416c34.4316 -21.6426 75.9365 -13.7266 111.244 1.37695c73.1006 31.2695 132.561 94.4941 175.1 160.289c42.124 65.1592 70.4727 137.803 89.1611 212.879
c3.50781 14.0889 34.8711 19.6377 30.5361 1.8457c-23.4551 -96.3115 -62.9346 -189.318 -124.659 -267.503c-53.6006 -67.8975 -128.913 -133.024 -216.746 -147.83c-40.4492 -6.81641 -87.1846 -6.40918 -121.596 18.8271
c-33.9629 24.9062 -53.9062 67.417 -57.1904 108.823c-6.9502 87.6377 32.8311 179.557 82.7324 249.45c20.5713 28.8086 44.4053 55.2217 70.7734 78.7871c-37.3486 2.62012 -73.7852 13.4209 -106.485 35.2715z" />
    <glyph glyph-name="E" unicode="&#xc9;" horiz-adv-x="485" 
d="M51.7627 240.776c-69.7227 46.5889 -93.0283 134.761 -82.2559 214.314c11.6934 86.2969 63.0654 154.211 137.417 196.767c61.2402 35.0547 147.732 47.9941 208.671 4.97852c57.7236 -40.7383 62.3232 -119.322 43.1172 -181.947
c8.10742 -0.977539 16.3291 -1.49512 24.7344 -1.51562c22.1191 -0.0488281 10.3486 -25.3701 -6.21289 -25.957c-30.0596 -1.06738 -59.5332 5.5166 -86.8311 17.9883c-16.3789 7.48047 6.92578 27.7217 19.7031 22.2988
c6.05859 -2.57129 12.1494 -4.75098 18.2812 -6.58887c15.4248 59.3818 7.12988 131.843 -54.8477 160.272c-53.8291 24.6904 -126.852 4.17676 -165.952 -38.835c-43.0117 -47.3145 -66.4229 -108.6 -60.792 -172.822c5.1377 -58.624 31.8564 -116.653 87.6699 -142.395
c45.2568 -20.8721 103.571 -18.6475 149.578 -0.504883c15.1689 5.98145 41.2686 10.9443 50.252 -8.29395c8.24219 -17.6494 -8.60938 -38.2002 -24.4014 -44.707c-71.1279 -29.3018 -132.458 -78.4209 -175.882 -142.134
c-40.502 -59.4268 -72.0205 -135.701 -66.4268 -208.72c2.88477 -37.6133 18.3262 -73.6865 51.3076 -94.416c34.4316 -21.6426 75.9365 -13.7266 111.244 1.37695c73.1006 31.2695 132.561 94.4941 175.1 160.289c42.124 65.1592 70.4727 137.803 89.1611 212.879
c3.50781 14.0889 34.8711 19.6377 30.5361 1.8457c-23.4551 -96.3115 -62.9346 -189.318 -124.659 -267.503c-53.6006 -67.8975 -128.913 -133.024 -216.746 -147.83c-40.4492 -6.81641 -87.1846 -6.40918 -121.596 18.8271
c-33.9629 24.9062 -53.9062 67.417 -57.1904 108.823c-6.9502 87.6377 32.8311 179.557 82.7324 249.45c20.5713 28.8086 44.4053 55.2217 70.7734 78.7871c-37.3486 2.62012 -73.7852 13.4209 -106.485 35.2715z" />
    <glyph glyph-name="F" unicode="F" horiz-adv-x="476" 
d="M505.832 157.335c-67.2129 -70.3662 -147.367 -125.169 -229.276 -176.83c34.6514 -0.386719 68.7119 -5.61816 98.8574 -25.2236c35.9023 -23.3418 61.8184 -61.3379 67.7549 -104.077c6.49805 -46.7891 -14.8672 -88.8799 -55.5898 -112.079
c-18.0811 -10.2998 -45.7207 -18.7412 -66.6953 -15.6367c-22.9629 3.39746 -46.3691 17.0059 -63.7051 31.9336c-35.9473 30.9521 -54.2207 77.0479 -69.8818 120.431c-17.25 47.7949 -30.418 97.1504 -40.7627 146.885c-18.1426 87.2295 -26.792 176.696 -24.4736 265.816
c-50.0234 11.3994 -95.2764 42.8076 -113.166 92.2441c-8.21777 -8.97559 -15.71 -18.6602 -22.3223 -29.0371c-4.19629 -6.58789 -12.6875 -11.8027 -20.7949 -10.1445c-6.88184 1.41016 -11.2783 8.23828 -7.2041 14.7656
c23.0156 36.8682 54.0732 66.0557 91.9473 87.3066c18.5293 10.3975 28.9346 -11.6406 10.6006 -21.7324c-8.55176 -4.70605 -16.6553 -10.0479 -24.3682 -15.8623c0.386719 -0.65625 0.741211 -1.35254 0.981445 -2.17969
c12.8174 -44.0635 46.0225 -72.0127 85.5752 -84.6514c0.0810547 1.52344 0.137695 3.04688 0.227539 4.57031c5.71582 96.8779 19.1729 196.343 61.8184 284.656c37.2871 77.2109 101.24 158.342 193.262 166.653c36.0977 3.26367 74.1182 -5.52832 98.959 -33.5547
c27.2568 -30.7529 30.1777 -74.4209 26.9307 -113.489c-6.73438 -81.0205 -45.1221 -156.72 -99.1504 -216.546c-50.3457 -55.748 -117.877 -105.356 -192.611 -122.098c-0.9375 -80.373 5.68359 -160.64 20.6846 -239.644
c3.74805 -19.752 7.77734 -39.9316 12.3115 -60.1807c84.2598 52.3301 168.075 106.403 237.419 178.053c10.6299 10.9844 36.876 4.52246 22.6729 -10.3486zM326.946 713.104c-46.2959 -51.4209 -71.8027 -121.256 -87.2363 -187.589
c-16.0156 -68.8262 -24.1191 -139.38 -26.376 -209.958c3.54492 0.774414 7.07324 1.62598 10.5566 2.61621c77.5654 22.0908 146.901 82.6465 191.327 148.666c38.1719 56.7256 63.7822 127.32 56.1025 196.514c-4.02539 36.2402 -21.6787 68.9365 -59.084 78.2383
c-32.4307 8.0625 -63.4199 -4.19238 -85.29 -28.4873zM405.264 -135.562c-10.915 31.7754 -34.4717 59.0908 -64.2344 74.6387c-26.9395 14.0684 -56.9297 15.9551 -86.7373 15.083c11.5713 -44.6787 26.418 -88.6973 47.4082 -128.205
c8.49121 -15.9795 19.1943 -30.9521 33.4219 -42.3564c8.71094 -6.9873 25.4639 -18.6602 36.582 -19.5566c20.0088 -1.61719 33.1484 24.5312 37.2637 40.4082c5.05176 19.4951 2.78223 41.1045 -3.7041 59.9883z" />
    <glyph glyph-name="G" unicode="G" horiz-adv-x="532" 
d="M426.262 -28.1289c-9.83887 -100.728 -52.0127 -201.682 -148.67 -246.833c-40.7471 -19.0312 -92.2656 -27.6201 -134.242 -7.7334c-35.002 16.582 -65.8525 53.25 -67.002 93.4795c-2.83594 99.3467 125.043 146.2 199.166 176.521
c23.5488 9.63184 47.2852 18.8027 70.9521 28.1445c0.244141 6.625 0.431641 13.1602 0.574219 19.5605c1.05566 47.4893 -1.25 95.2432 -4.43652 142.618c-1.66602 24.7881 -5.02344 50.9492 -6.06641 76.9229c-17.9434 -40.5107 -34.7295 -81.5674 -55.3408 -120.823
c-27.8271 -52.998 -66.6055 -114.617 -124.37 -138.436c-54.3828 -22.4248 -116.923 -6.80859 -149.933 42.6572c-37.4951 56.1836 -41.5322 133.301 -35.751 198.452c11.5664 130.409 66.5889 266.408 157.095 362.165c40.042 42.3682 101.001 90.9043 162.416 91.7676
c25.6475 0.362305 54.7578 -3.23535 75.1865 -20.127c19.6055 -16.2119 29.4199 -40.9629 30.5566 -65.9951c2.59082 -57.084 -39.248 -113.312 -78.8418 -150.393c-32.2314 -30.1816 -83.7383 -57.8418 -124.709 -32.8545
c-8.80469 -11.9414 -16.8311 -24.4863 -23.9736 -37.752c-6.83691 -12.6953 -36.2812 -12.9971 -27.2363 4.49805c17.3682 33.5918 39.9355 63.8721 67.3105 89.9717c5.50879 5.25195 15.1162 10.4141 22.8447 6.31543c6.66992 -3.54102 7.31348 -12.4111 1.76074 -17.5488
c-6.95898 -6.44531 -13.5713 -13.1436 -19.8818 -20.0693c46.0762 -33.7305 104.293 39.9316 125.3 75.1084c13.9824 23.4062 26.2705 51.1885 22.2168 79.1172c-3.78125 26.0342 -24.7266 49.6768 -52.7041 47.2773c-19.5283 -1.6748 -42.5479 -15.0996 -58.9062 -25.3174
c-16.8145 -10.5039 -31.7871 -24.0713 -45.4199 -38.3799c-31.7754 -33.3604 -56.9336 -73.2021 -78.3643 -113.802c-48.96 -92.75 -79.7451 -199.071 -72.6191 -304.7c3.21094 -47.5752 11.3672 -98.4746 47.0986 -132.751
c8.66211 -8.31152 17.748 -17.5928 30.7695 -18.0938c10.8252 -0.416016 23.7451 6.49023 32.5215 12.0684c18.5293 11.7744 33.4697 28.8457 46.9883 45.9004c59.7363 75.3574 86.6221 170.943 132.278 254.466c0.366211 0.667969 0.822266 1.28711 1.31152 1.88574
c4.30273 10.6904 25.4404 24.0908 34.5586 12.1533c19.4785 -25.5049 25.0723 -53.874 31.6152 -84.8096c6.7959 -32.1338 11.5059 -64.4795 15.2139 -97.1143c4.07812 -35.9062 5.64258 -72.2812 5.11719 -108.6c43.4238 19.9023 86.1338 42.7871 115.713 81.4277
c10.3408 13.5059 38.1309 6.4375 24.6045 -11.2324c-35.0137 -45.7412 -86.793 -75.2266 -141.136 -98.7959c-0.761719 -16.8311 -1.93555 -33.625 -3.56543 -50.3174zM188.251 -234.952c34.1094 -1.80469 65.3623 10.1377 89.7588 34.1836
c48.3691 47.6562 62.5391 121.376 67.0986 189.6c-8.12012 -3.08398 -16.1299 -6.15625 -23.9766 -9.25293c-43.0205 -16.9697 -86.0361 -34.375 -126.938 -56.0781c-35.6289 -18.9043 -83.9619 -50.5205 -80.8125 -97.1182
c2.55469 -37.7803 40.4414 -59.5127 74.8691 -61.334z" />
    <glyph glyph-name="H" unicode="H" horiz-adv-x="700" 
d="M740.583 125.499c-9.87988 -53.6133 -24.8086 -105.826 -44.2471 -156.75c-16.9775 -44.4746 -36.334 -89.8496 -64.3564 -128.608c-26.2139 -36.2568 -70.7861 -65.5381 -116.45 -68.0684c-45.7988 -2.53418 -85.8652 33.584 -106.371 71.5439
c-21.6504 40.0781 -31.123 87.3398 -37.3242 132.002c-6.66504 48.0273 -10.1484 96.5762 -11.1016 145.044c-0.146484 7.61914 -0.203125 15.2383 -0.21582 22.8535c-54.8682 -19.2832 -113.94 -22.4453 -172.397 -8.23047
c-1.37305 0.333984 -2.7627 0.696289 -4.14355 1.04688c2.7666 -49.3027 6.95508 -98.459 10.915 -147.725c2.66504 -33.1357 6.95898 -66.1572 9.40723 -99.2969c2.25684 -30.5732 7.1582 -62.6992 0.49707 -92.8896c-3.41406 -15.4619 -34.0684 -32.8018 -46.458 -17.5518
c-19.5078 24.0059 -24.7754 56.0498 -31.958 85.5918c-7.75781 31.9092 -12.46 64.7236 -17.5 97.1592c-10.1123 65.0615 -15.3193 131.142 -19.2227 196.839c-0.30957 5.18652 -0.578125 10.3896 -0.859375 15.584c-33.9551 19.1367 -64.459 44.0996 -84.627 75.0723
c-6.07422 -10.793 -11.1182 -22.2461 -15.0127 -34.2979c-4.41211 -13.6406 -35.9512 -19.1494 -30.5361 -1.8457c13.6523 43.6152 39.4258 80.5566 75.4219 108.706c14.957 11.6973 36.0859 -3.35254 18.3584 -16.9893
c-10.8086 -8.31543 -20.5137 -17.6533 -29.0732 -27.8633c14.374 -26.7676 37.043 -49.1514 63.7461 -67.2246c-4.84863 116.805 -2.26562 235.113 13.1514 350.696c2.83594 21.251 29.0986 35.6328 47.7627 38.8066c14.9326 2.53809 43.7129 -2.7666 42.6045 -23.9531
c-6.85742 -130.901 -13.2617 -260.98 -8.76367 -392.123c0.195312 -5.7002 0.448242 -11.3965 0.692383 -17.0879c15.6328 -4.54297 31.0986 -7.97754 45.7988 -10.2832c46.6221 -7.31348 91.2314 -1.78027 132.438 14.0967
c1.60156 82.1045 11.2539 163.761 28.9316 244.101c18.8066 85.4658 44.0625 187.29 107.115 251.892c25.334 25.957 65.9336 45.876 99.3633 20.7461c27.6846 -20.8115 29.8965 -65.1758 31.9053 -96.6006c9.68457 -151.57 -59.4307 -311.277 -183.251 -401.392
c-0.285156 -34.4316 0.664062 -68.8633 3.10059 -103.188c5.28809 -74.4248 13.7461 -151.652 47.1914 -219.379c11.1797 -22.6445 33.7266 -49.7266 62.2422 -46.043c35.8945 4.63672 58.9551 51.2383 73.5859 79.4814c36.5869 70.6396 61.5664 145.977 76.1934 224.104
c2.94141 15.7148 37.1045 21.8828 33.4463 2.02441zM452.838 327.08c-3.80566 -35.3887 -6.23828 -70.9531 -7.36719 -106.562c2.63574 2.21191 5.25098 4.45703 7.83789 6.7627c102.973 91.8867 155.087 236.34 140.024 372.844
c-2.75781 24.9668 -16.3008 92.4287 -50.4102 51.584c-21.3652 -25.5781 -33.9707 -63.1514 -44.2012 -94.4209c-24.209 -73.9883 -37.585 -152.951 -45.8838 -230.207z" />
    <glyph glyph-name="I" unicode="I" horiz-adv-x="462" 
d="M47.5635 243.836c-25.7207 -4.67285 -50.9648 -6.19824 -77.0527 -4.59277c-7.78223 0.476562 -10.3369 8.71484 -7.2041 14.7646c3.93164 7.59082 12.8135 10.5527 20.7949 10.1455c3.83008 -0.199219 7.66406 -0.276367 11.498 -0.296875
c-10.0225 133.46 21.6836 283.438 103.482 391.54c30.8828 40.8154 88.8916 73.7236 138.112 43.3457c24.1152 -14.8828 36.4443 -39.9072 47.0127 -65.2041c12.2021 -29.208 18.7939 -61.3867 23.3203 -92.5791c19.21 -132.401 -10.3975 -269.292 -31.2412 -399.713
c-10.5889 -66.252 -20.2734 -133.123 -22.8242 -200.238c-1.25879 -33.1445 -3.28418 -66.9082 3.00684 -99.7021c2.47754 -12.9238 5.55762 -28.3779 10.7686 -40.5273c6.41309 -14.9482 22.5674 -13.9258 34.9326 -6.24609
c26.0225 16.1621 45.9053 47.5986 61.8604 72.9404c16.5498 26.2871 30.8174 53.9639 43.4355 82.333c25.9531 58.3438 44.8252 119.502 63.6074 180.433c4.48145 14.541 37.7559 20.2207 32.1982 1.94727c-20.2568 -66.6016 -40.8564 -133.403 -69.8203 -196.844
c-14.3174 -31.3633 -30.8389 -61.5947 -50.1104 -90.1963c-18.2363 -27.0615 -37.7969 -55.4834 -65.543 -73.6338c-21.96 -14.3662 -47.0615 -23.7939 -73.3604 -16.8232c-26.4619 7.01562 -50.5771 21.7725 -62.4092 47.2041
c-28.2061 60.625 -17.6621 135.481 -10.9033 199.646c14.2803 135.566 50.0518 268.008 68.4756 403.008c8.93066 65.4531 14.5732 134.744 10.0674 200.788c-2.15527 31.5791 -16.374 67.0742 -49.9541 76.4814c-34.7783 9.74121 -63.7383 -19.2793 -81.5303 -45.4805
c-72.3994 -106.615 -101.502 -243.07 -91.0596 -370.346c0.0078125 -0.125977 -0.0244141 -0.244141 -0.0205078 -0.370117c6.16406 0.725586 12.3076 1.65039 18.4023 2.81543c21.6182 4.13965 20.5674 -21.2344 2.05762 -24.5996z" />
    <glyph glyph-name="I" unicode="&#xcf;" horiz-adv-x="462" 
d="M47.5635 243.836c-25.7207 -4.67285 -50.9648 -6.19824 -77.0527 -4.59277c-7.78223 0.476562 -10.3369 8.71484 -7.2041 14.7646c3.93164 7.59082 12.8135 10.5527 20.7949 10.1455c3.83008 -0.199219 7.66406 -0.276367 11.498 -0.296875
c-10.0225 133.46 21.6836 283.438 103.482 391.54c30.8828 40.8154 88.8916 73.7236 138.112 43.3457c24.1152 -14.8828 36.4443 -39.9072 47.0127 -65.2041c12.2021 -29.208 18.7939 -61.3867 23.3203 -92.5791c19.21 -132.401 -10.3975 -269.292 -31.2412 -399.713
c-10.5889 -66.252 -20.2734 -133.123 -22.8242 -200.238c-1.25879 -33.1445 -3.28418 -66.9082 3.00684 -99.7021c2.47754 -12.9238 5.55762 -28.3779 10.7686 -40.5273c6.41309 -14.9482 22.5674 -13.9258 34.9326 -6.24609
c26.0225 16.1621 45.9053 47.5986 61.8604 72.9404c16.5498 26.2871 30.8174 53.9639 43.4355 82.333c25.9531 58.3438 44.8252 119.502 63.6074 180.433c4.48145 14.541 37.7559 20.2207 32.1982 1.94727c-20.2568 -66.6016 -40.8564 -133.403 -69.8203 -196.844
c-14.3174 -31.3633 -30.8389 -61.5947 -50.1104 -90.1963c-18.2363 -27.0615 -37.7969 -55.4834 -65.543 -73.6338c-21.96 -14.3662 -47.0615 -23.7939 -73.3604 -16.8232c-26.4619 7.01562 -50.5771 21.7725 -62.4092 47.2041
c-28.2061 60.625 -17.6621 135.481 -10.9033 199.646c14.2803 135.566 50.0518 268.008 68.4756 403.008c8.93066 65.4531 14.5732 134.744 10.0674 200.788c-2.15527 31.5791 -16.374 67.0742 -49.9541 76.4814c-34.7783 9.74121 -63.7383 -19.2793 -81.5303 -45.4805
c-72.3994 -106.615 -101.502 -243.07 -91.0596 -370.346c0.0078125 -0.125977 -0.0244141 -0.244141 -0.0205078 -0.370117c6.16406 0.725586 12.3076 1.65039 18.4023 2.81543c21.6182 4.13965 20.5674 -21.2344 2.05762 -24.5996z" />
    <glyph glyph-name="I" unicode="&#xce;" horiz-adv-x="462" 
d="M47.5635 243.836c-25.7207 -4.67285 -50.9648 -6.19824 -77.0527 -4.59277c-7.78223 0.476562 -10.3369 8.71484 -7.2041 14.7646c3.93164 7.59082 12.8135 10.5527 20.7949 10.1455c3.83008 -0.199219 7.66406 -0.276367 11.498 -0.296875
c-10.0225 133.46 21.6836 283.438 103.482 391.54c30.8828 40.8154 88.8916 73.7236 138.112 43.3457c24.1152 -14.8828 36.4443 -39.9072 47.0127 -65.2041c12.2021 -29.208 18.7939 -61.3867 23.3203 -92.5791c19.21 -132.401 -10.3975 -269.292 -31.2412 -399.713
c-10.5889 -66.252 -20.2734 -133.123 -22.8242 -200.238c-1.25879 -33.1445 -3.28418 -66.9082 3.00684 -99.7021c2.47754 -12.9238 5.55762 -28.3779 10.7686 -40.5273c6.41309 -14.9482 22.5674 -13.9258 34.9326 -6.24609
c26.0225 16.1621 45.9053 47.5986 61.8604 72.9404c16.5498 26.2871 30.8174 53.9639 43.4355 82.333c25.9531 58.3438 44.8252 119.502 63.6074 180.433c4.48145 14.541 37.7559 20.2207 32.1982 1.94727c-20.2568 -66.6016 -40.8564 -133.403 -69.8203 -196.844
c-14.3174 -31.3633 -30.8389 -61.5947 -50.1104 -90.1963c-18.2363 -27.0615 -37.7969 -55.4834 -65.543 -73.6338c-21.96 -14.3662 -47.0615 -23.7939 -73.3604 -16.8232c-26.4619 7.01562 -50.5771 21.7725 -62.4092 47.2041
c-28.2061 60.625 -17.6621 135.481 -10.9033 199.646c14.2803 135.566 50.0518 268.008 68.4756 403.008c8.93066 65.4531 14.5732 134.744 10.0674 200.788c-2.15527 31.5791 -16.374 67.0742 -49.9541 76.4814c-34.7783 9.74121 -63.7383 -19.2793 -81.5303 -45.4805
c-72.3994 -106.615 -101.502 -243.07 -91.0596 -370.346c0.0078125 -0.125977 -0.0244141 -0.244141 -0.0205078 -0.370117c6.16406 0.725586 12.3076 1.65039 18.4023 2.81543c21.6182 4.13965 20.5674 -21.2344 2.05762 -24.5996z" />
    <glyph glyph-name="I" unicode="&#xcd;" horiz-adv-x="462" 
d="M47.5635 243.836c-25.7207 -4.67285 -50.9648 -6.19824 -77.0527 -4.59277c-7.78223 0.476562 -10.3369 8.71484 -7.2041 14.7646c3.93164 7.59082 12.8135 10.5527 20.7949 10.1455c3.83008 -0.199219 7.66406 -0.276367 11.498 -0.296875
c-10.0225 133.46 21.6836 283.438 103.482 391.54c30.8828 40.8154 88.8916 73.7236 138.112 43.3457c24.1152 -14.8828 36.4443 -39.9072 47.0127 -65.2041c12.2021 -29.208 18.7939 -61.3867 23.3203 -92.5791c19.21 -132.401 -10.3975 -269.292 -31.2412 -399.713
c-10.5889 -66.252 -20.2734 -133.123 -22.8242 -200.238c-1.25879 -33.1445 -3.28418 -66.9082 3.00684 -99.7021c2.47754 -12.9238 5.55762 -28.3779 10.7686 -40.5273c6.41309 -14.9482 22.5674 -13.9258 34.9326 -6.24609
c26.0225 16.1621 45.9053 47.5986 61.8604 72.9404c16.5498 26.2871 30.8174 53.9639 43.4355 82.333c25.9531 58.3438 44.8252 119.502 63.6074 180.433c4.48145 14.541 37.7559 20.2207 32.1982 1.94727c-20.2568 -66.6016 -40.8564 -133.403 -69.8203 -196.844
c-14.3174 -31.3633 -30.8389 -61.5947 -50.1104 -90.1963c-18.2363 -27.0615 -37.7969 -55.4834 -65.543 -73.6338c-21.96 -14.3662 -47.0615 -23.7939 -73.3604 -16.8232c-26.4619 7.01562 -50.5771 21.7725 -62.4092 47.2041
c-28.2061 60.625 -17.6621 135.481 -10.9033 199.646c14.2803 135.566 50.0518 268.008 68.4756 403.008c8.93066 65.4531 14.5732 134.744 10.0674 200.788c-2.15527 31.5791 -16.374 67.0742 -49.9541 76.4814c-34.7783 9.74121 -63.7383 -19.2793 -81.5303 -45.4805
c-72.3994 -106.615 -101.502 -243.07 -91.0596 -370.346c0.0078125 -0.125977 -0.0244141 -0.244141 -0.0205078 -0.370117c6.16406 0.725586 12.3076 1.65039 18.4023 2.81543c21.6182 4.13965 20.5674 -21.2344 2.05762 -24.5996z" />
    <glyph glyph-name="J" unicode="J" horiz-adv-x="581" 
d="M599.542 148.775c14.2188 12.8457 34.8047 -2.10547 18.3525 -16.9766c-48.6182 -43.9814 -106.371 -71.0059 -166.854 -92.1875c-9.80664 -74.416 -30.8945 -147.419 -70.8018 -209.066c-34.248 -52.9004 -87.8857 -96.5801 -152.275 -104.154
c-47.2324 -5.55273 -99.4932 14.6719 -125.694 55.5205c-27.8105 43.3545 -15.0215 98.8945 15.1445 137.314c34.3828 43.79 87.8047 66.6787 138.737 85.0498c32.3945 11.6846 65.8975 21.373 99.4365 31.1104c8.08789 70.4111 6.03418 142.073 1.59766 212.814
c-3.54883 56.5918 -9.38281 112.951 -13.7217 169.478c-2.44434 31.8242 -5.68359 63.6562 -7.01953 95.5459c-1.03516 24.6699 -2.15527 50.4434 -6.80762 74.6689c-0.990234 5.1416 0.411133 9.79004 3.27539 13.7256
c-63.7822 -14.0029 -129.17 -23.6064 -189.855 -48.3047c-61.1094 -24.873 -120.442 -68.7734 -141.575 -134.019c-10.4746 -32.3457 -12.4219 -73.3857 13.7021 -99.1143c13.8486 -13.6367 31.5107 -17.377 50.3584 -13.6045
c14.8018 2.96191 39.374 9.88379 46.2842 25.3418c-6.74316 1.91113 -13.8564 2.83984 -21.2793 2.62012c-21.4551 -0.635742 -10.1045 24.6445 6.0498 25.2676c29.5752 1.13672 57.9121 -9.45996 78.002 -31.5098c11.7256 -12.8701 -16.3008 -31.1963 -26.3516 -19.9102
c-4.36328 4.90137 -9.1543 9.19922 -14.2998 12.8457c-12.5527 -19.9512 -37.3447 -30.748 -59.6104 -37.0146c-29.5508 -8.31934 -62.3896 -6.19238 -85.3076 16.2002c-42.9756 41.9854 -28.1816 112.67 -0.667969 158.884c30.459 51.1562 79.9043 88.3906 133.855 112.009
c64.0068 28.0225 133.049 39.1904 200.89 53.8008c34.7578 7.48828 69.6045 15.8242 102.879 28.5156c31.5547 12.0352 65.2695 26.8369 85.8525 54.6963c10.1328 13.71 37.7852 6.66113 24.6045 -11.2334c-35.7354 -48.5166 -104.122 -70.7744 -162.181 -85.6289
c0.521484 -0.333984 1.02637 -0.688477 1.50293 -1.08008c28.5078 -23.333 36.123 -55.5361 42.6338 -90.5215c6.7998 -36.5586 12.6953 -73.5117 17.7959 -110.343c9.98145 -72.0488 19.2744 -144.18 21.5068 -216.954
c1.25488 -40.8936 0.509766 -83.5635 -3.60547 -126.168c52.6514 19.1494 102.646 43.709 145.446 82.3818zM333.839 -72.4844c8.10352 26.7559 13.9951 53.8818 18.2119 81.2402c-18.1426 -5.3291 -36.2285 -10.6709 -54.0898 -16.3057
c-50.8672 -16.0439 -110.099 -34.2354 -147.288 -74.8516c-33.1445 -36.2002 -42.874 -96.1729 -0.672852 -129.402c35.9512 -28.3115 83.8438 -17.5312 115.517 11.7627c35.373 32.7158 54.6895 82.5439 68.3223 127.557z" />
    <glyph glyph-name="K" unicode="K" horiz-adv-x="630" 
d="M214.055 162.726c-12.4424 31.2539 -30.9512 69.1367 -66.6172 77.9326c-24.0303 5.92383 -49.1641 2.24023 -73.2266 -5.33008c0.322266 -5.40234 0.620117 -10.8008 0.978516 -16.1992c4.92969 -74.2451 12.5039 -148.535 22.7305 -222.238
c5.03613 -36.2852 10.1494 -72.5947 15.7764 -108.79c2.96973 -19.1201 5.36133 -38.2246 7.78125 -57.418c2.23633 -17.752 5.78125 -36.1025 1.73926 -53.7402c-3.58984 -15.665 -28.6426 -26.8975 -41.4844 -15.6729c-24.9062 21.7686 -33.0186 68.3291 -40.9551 99.3096
c-9.375 36.6113 -17.792 73.3164 -24.5674 110.502c-13.5596 74.3955 -23.3135 149.15 -29.209 224.54c-5.98535 76.5264 -9.17969 153.587 -7.59863 230.354c1.56445 76.1357 3.77246 154.194 21.5928 228.505c6.37598 26.5967 72.2197 52.1094 74.0039 12.165
c3.33691 -74.6074 -4.12305 -149.672 -5.07617 -224.337c-0.619141 -48.207 -0.277344 -96.373 1.36035 -144.511c54.5908 48.2227 115.981 88.8184 173.746 133.305c41.5 31.9629 81.3789 66.4756 114.002 107.695c29.1064 36.7744 63.7822 102.985 28.7393 145.256
c-6.46582 -7.13379 -12.2021 -14.9404 -16.8467 -23.6924c-6.32324 -11.9209 -33.1973 -13.0166 -25.709 4.24609c14.7246 33.9551 44.8252 56.1885 74.2207 76.9023c5.81348 4.09863 16.5371 7.55371 22.5303 1.59277c5.70801 -5.67969 1.59277 -14.6309 -4.17188 -18.583
c-9.57812 -6.55957 -19.2256 -13.2295 -28.3359 -20.4736c36.4404 -36.1631 23.6191 -95.668 0.501953 -136.573c-27.5947 -48.8301 -69.7266 -89.3848 -112.278 -125.197c-73.0312 -61.46 -156.357 -111.153 -225.05 -177.368
c0.0898438 -1.8291 0.179688 -3.66211 0.269531 -5.49121c56.3555 15.9014 115.913 15.2295 165.961 -22.6328c60.0342 -45.4199 75.5566 -130.246 89.2217 -199.41c14.2393 -72.0781 23.4229 -159.919 72.3994 -218.584c11.0742 -13.2656 27.2002 -27.2285 44.915 -29.0127
c18.7334 -1.88672 36.75 5.52441 51.7148 16.2314c31.6406 22.6406 50.1416 59.085 66.5771 93.3164c35.8779 74.7344 60.7266 154.121 75.6055 235.618c2.69727 14.7568 34.7295 20.542 31.3682 1.89844c-16.6475 -92.3184 -45.9287 -184.021 -89.625 -267.242
c-34.6846 -66.0518 -88.9941 -114.906 -167.114 -109.634c-89.084 6.01367 -128.025 84.7285 -146.693 161.699c-19.3486 79.7734 -22.5918 164.245 -53.1768 241.062z" />
    <glyph glyph-name="L" unicode="L" horiz-adv-x="464" 
d="M-62.1953 -125.32c17.9102 28.3896 49.0986 44.6279 78.9014 57.7881c46.7686 20.6406 94.8203 37.9805 142.917 55.2148c-8.83691 94.6777 -23.5244 188.813 -33.5752 283.377c-3.18652 29.958 -5.98926 60.4502 -7.82715 91.1338
c-50.1416 1.0957 -97.7939 26.2949 -117.293 74.8516c-5.86328 -7.28906 -11.2002 -15.0664 -15.8369 -23.4023c-6.64551 -11.9453 -34.668 -12.6465 -26.0918 4.30664c18.8516 37.2549 49.1963 66.0596 86.6758 84.251c18.7705 9.11035 29.2783 -12.5439 10.4639 -21.4502
c-10.1367 -4.7998 -19.5117 -10.6631 -28.21 -17.3242c0.611328 -0.981445 1.13281 -2.06543 1.4707 -3.34863c10.5283 -40.0537 47.6777 -66.6543 87.5117 -71.0957c-2.32227 58.376 -0.5625 117.058 9.39941 173.665c7.97363 45.3184 22.0381 92.1025 49.6328 129.586
c25.5127 34.6475 62.6738 63.2285 107.833 55.8213c37.1943 -6.09473 56.7871 -42.624 64.3369 -76.082c9.45996 -41.9199 0.0976562 -85.3926 -15.0957 -124.758c-24.1445 -62.5518 -64.541 -124.965 -123.137 -159.502c2.68457 -59.7568 8.4541 -119.449 13.8975 -178.909
c5.875 -64.2227 10.9844 -128.975 11.2822 -193.653c11.5342 4.34766 23.0312 8.77246 34.4717 13.3438c75.1006 30.0029 163.85 65.2578 207.338 137.963c7.3457 12.2803 37.1123 12.415 27.2363 -4.49707c-47.9785 -82.1533 -143.189 -122.464 -227.734 -156.023
c-13.7588 -5.45996 -27.5947 -10.7119 -41.4639 -15.8818c-0.34668 -21.9199 -1.2793 -43.8232 -3.01074 -65.6855c-5.5166 -69.584 -31.8652 -155.607 -101.563 -185.443c-59.5371 -25.4844 -143.626 -13.3184 -184.898 39.7979
c-21.5039 27.6719 -26.7676 65.624 -7.63086 95.957zM208.959 490.815c-0.834961 -24.8037 -0.77832 -49.6123 -0.110352 -74.4209c16.7656 12.1211 31.6123 27.2285 44.1816 43.46c28.6865 37.0557 51.9053 82.7285 61.1289 128.812
c4.9873 24.918 5.60645 50.9766 -1.34375 75.585c-4.4043 15.6045 -19.9473 50.8467 -41.374 48.4307c-15.209 -1.71484 -23.8301 -28.2666 -28.8945 -40.3389c-7.24414 -17.2666 -13.0498 -34.749 -17.8203 -52.875c-11.0127 -41.8594 -14.3174 -85.5273 -15.7676 -128.653
zM161.845 -36.499c-11.3994 -4.09473 -22.7998 -8.19238 -34.1787 -12.3564c-46.3936 -16.9443 -100.569 -32.2959 -141.186 -61.3252c-40.9951 -29.2979 -35.9756 -80.0098 2.37988 -109.936c31.1641 -24.3154 75.8135 -33.6133 114.181 -24.5811
c41.9365 9.87598 67.9219 42.0215 66.9033 85.1924c-0.961914 40.8242 -4.50195 82.1816 -8.09961 123.006z" />
    <glyph glyph-name="M" unicode="M" horiz-adv-x="1114" 
d="M891.192 -172.569c-35.083 46.0557 -30.2998 115.8 -28.3154 170.497c4.4082 121.967 19.5273 243.538 14.2881 365.749c-1.26758 29.5586 -2.54688 60.0947 -7.81055 89.2627c-5.14551 28.5234 -24.2051 63.7734 -55.3652 36.0518
c-41.1338 -36.5908 -62.54 -95.3135 -80.8174 -145.708c-38.7217 -106.778 -61.0117 -218.47 -81.3828 -329.958c-0.0410156 -7.15039 -0.0859375 -14.2881 -0.130859 -21.4014c-0.248047 -39.1816 -80.9795 -69.6201 -85.2207 -22.7129
c-6.48242 71.7109 1.6543 144.069 0.485352 215.984c-0.525391 32.2188 -3.07227 63.8311 -6.05859 95.8955c-2.33887 25.1094 -2.27344 62.7109 -18.5498 83.4893c-43.4189 55.4385 -101.123 -104.093 -110.029 -130.245
c-21.0479 -61.8066 -36.6934 -125.373 -52.1963 -188.748c-13.6729 -55.8945 -26.0264 -112.099 -35.5928 -168.833c-0.87207 -18.3711 -2.09863 -36.7178 -3.8877 -55.0195c-3.17773 -32.4795 -70.3623 -51.209 -77.7812 -12.7891
c-21.459 111.146 -16.2725 228.126 -15.502 340.897c0.68457 100.116 4.16016 200.164 -3.59277 300.105c-3.44727 44.4131 -7.68457 91.7559 -21.2148 134.438c-11.0986 35.0137 -30.5732 72.2812 -67.9219 84.4385c-37.3164 12.1455 -82.0557 -4.08594 -109.125 -30.4297
c-29.127 -28.3447 -44.9883 -69.0381 -48.6914 -109.047c-4.01758 -43.4395 5.86621 -92.3838 45.3662 -116.988c37.96 -23.6465 84.3857 -20.1221 127.198 -15.6523c1.0957 11.2617 2.26465 22.5186 3.56836 33.7637c1.75195 15.0908 33.8652 21.0918 31.7832 1.92285
c-3.92383 -36.1182 -6.68164 -72.3018 -8.31543 -108.595c-0.712891 -15.8975 -34.0771 -25.9609 -33.1807 -8.84473c0.990234 18.8721 2.27734 37.7109 3.8457 56.5303c-54.1309 -5.84668 -113.725 -9.22852 -159.308 25.9365
c-41.0322 31.6533 -48.9238 87.7842 -42.9756 136.121c10.5605 85.8203 75.7363 162.172 165.37 166.739c43.6152 2.2207 89.7275 -10.2305 121.462 -41.207c34.2891 -33.4697 48.2109 -81.6396 59.0039 -126.904c27.2891 -114.462 27.3457 -232.656 29.4072 -349.632
c0.896484 -51.0059 3.24707 -102.26 4.75879 -153.522c6.07422 26.2256 12.4424 52.3867 19.0586 78.4658c17.7148 69.8291 36.3867 141.65 68.5449 206.476c21.9482 44.2422 76.124 121.674 133.204 76.3887c51.8369 -41.126 68.8223 -115.225 77.3086 -177.435
c2.72559 -19.9961 4.63281 -40.1963 5.98145 -60.4941c17.0303 77.4189 37.9395 153.881 67.5312 227.646c18.0205 44.9268 40.3438 92.1348 77.3789 124.688c16.8467 14.8096 39.6953 26.7148 62.6904 21.1982c19.4502 -4.66504 30.1123 -20.9414 39.0635 -37.3936
c14.3496 -26.3809 29.9014 -50.7979 38.3271 -79.9697c7.66406 -26.5312 13.9258 -53.3027 17.6865 -80.6777c8.0625 -58.7266 8.2373 -117.909 6.68457 -177.075c-1.60547 -61.0977 -3.27637 -122.061 -4.14844 -183.17
c-0.448242 -31.1885 -0.553711 -62.54 1.6582 -93.6592c1.36035 -19.1367 5.41406 -51.002 25.5576 -60.0674c27.8965 -12.5527 47.1348 25.5332 57.21 44.4463c13.3838 25.1221 24.7959 51.2949 34.6885 77.9775c20.7383 55.9355 35.3359 113.904 49.9092 171.673
c3.75684 14.8789 36.9092 20.6152 32.1992 1.94727c-16.085 -63.7705 -32.3613 -127.671 -56.5215 -188.964c-18.1348 -46.0107 -40.9102 -111.158 -90.6201 -132.141c-39.6348 -16.7285 -92.1885 6.03027 -116.964 38.5547z" />
    <glyph glyph-name="N" unicode="N" horiz-adv-x="790" 
d="M647.051 179.161c-0.464844 -64.2793 -4.03223 -128.521 -4.43164 -192.829c-0.191406 -30.1377 -0.415039 -60.6338 1.73242 -90.71c1.47461 -20.6729 4.0293 -55.2188 19.3848 -71.0225c35.5352 -36.5703 82.1689 106.229 88.5488 125.459
c19.3857 58.4209 32.8516 118.577 46.2686 178.587c3.35352 14.9971 36.3955 20.8359 32.1992 1.94727c-15.1846 -68.3496 -30.4512 -136.973 -54.4404 -202.886c-17.5234 -48.1328 -38.6768 -117.514 -91.418 -137.849
c-22.2695 -8.58398 -48.8174 -4.75781 -70.3379 4.4541c-25.9609 11.1104 -41.5088 31.8691 -49.8125 58.3115c-18.1221 57.7041 -12.0596 123.992 -9.35449 183.513c3.00293 66.0479 8.22656 132.01 10.6348 198.074c2.375 65.168 -0.72168 129.028 -3.57812 194.029
c-0.892578 20.2207 -3.88281 60.6328 -33.3154 58.123c-25.8555 -2.20801 -43.501 -46.6582 -53.1729 -66.5449c-27.6279 -56.8115 -44.6377 -118.842 -60.6494 -179.739c-32.8018 -124.758 -54.1465 -252.144 -71.7061 -379.839
c-0.790039 -12.8545 -1.74316 -25.6963 -2.99805 -38.5137c-3.17773 -32.4795 -70.3623 -51.209 -77.7812 -12.7891c-21.459 111.146 -16.2725 228.126 -15.502 340.897c0.68457 100.116 4.16016 200.164 -3.59277 300.105
c-3.44727 44.4131 -7.68457 91.7559 -21.2148 134.438c-11.0986 35.0137 -30.5732 72.2812 -67.9219 84.4385c-37.3164 12.1455 -82.0557 -4.08594 -109.125 -30.4297c-29.127 -28.3447 -44.9883 -69.0381 -48.6914 -109.047
c-4.01758 -43.4395 5.86621 -92.3838 45.3662 -116.988c37.96 -23.6465 84.3857 -20.1221 127.198 -15.6523c1.0957 11.2617 2.26465 22.5186 3.56836 33.7637c1.75195 15.0908 33.8652 21.0918 31.7832 1.92285c-3.92383 -36.1182 -6.68164 -72.3018 -8.31543 -108.595
c-0.712891 -15.8975 -34.0771 -25.9609 -33.1807 -8.84473c0.990234 18.8721 2.27734 37.7119 3.8457 56.5312c-54.1309 -5.84668 -113.725 -9.22852 -159.308 25.9365c-41.0322 31.6533 -48.9238 87.7842 -42.9756 136.121
c10.5605 85.8203 75.7324 162.172 165.366 166.739c43.6191 2.2207 89.7314 -10.2305 121.466 -41.207c34.2891 -33.4697 48.2109 -81.6396 59.0039 -126.904c27.2891 -114.462 27.3457 -232.656 29.4072 -349.632c0.75 -42.6006 2.51367 -85.3721 3.95605 -128.181
c14.3008 78.4902 31.5312 156.414 53.5449 233.165c16.3174 56.8926 34.5947 114.267 64.4023 165.732c19.8984 34.3584 60.8076 79.5176 104.325 52.5947c16.709 -10.3359 28.8135 -31.624 37.54 -48.6953c14.2969 -27.958 21.8184 -58.5391 28.3984 -89.1162
c13.2734 -61.6963 15.3389 -125.968 14.8828 -188.87z" />
    <glyph glyph-name="O" unicode="O" horiz-adv-x="481" 
d="M-25.3662 3.23438c3.45898 49.0459 12.9814 97.6016 30.0811 143.771c6.42871 17.3564 14.4961 36.4199 24.2861 55.2432c-14.8018 19.8906 -26.9883 42.3193 -36.0166 67.2256c-27.5742 76.0537 -27.5986 174.247 21.9277 241.692
c24.124 32.8545 61.9941 57.1123 103.434 58.7988c45.5947 1.85352 87.4619 -23.1221 122.826 -49.4658c78.2578 -58.2949 120.247 -151.2 143.662 -243.588c12.1377 -47.8965 16.9902 -98.165 15.1445 -148.213c36.668 9.12598 71.4541 22.29 101.913 38.4326
c13.1152 6.95508 26.251 -7.64258 12.3945 -16.5732c-35.1484 -22.6533 -74.665 -38.5303 -115.962 -48.3291c-3.36914 -40.0215 -10.9229 -79.6113 -22.5303 -117.421c-28.0469 -91.3447 -79.2891 -189.09 -172.899 -226.65
c-43.6885 -17.5312 -93.541 -22.8604 -137.543 -2.98633c-39.4268 17.8047 -62.5771 58.7637 -76.4131 97.8809c-16.7939 47.4775 -17.8086 100.459 -14.3047 150.182zM9.44141 415.409c-8.93457 -62.1572 4.92188 -128.144 37.9033 -181.736
c29.5547 44.8701 70.4521 81.1758 124.514 78.2998c2.61133 12.8945 5.61035 25.7119 9.11426 38.4238c4.12305 14.9521 37.7764 20.6924 32.6143 1.9707c-8.57617 -31.1074 -15.6943 -62.3408 -20.4609 -94.2666c-2.11816 -14.2148 -32.2803 -19.9844 -30.1172 -1.82129
c1.16113 9.77832 2.53027 19.5156 4.07812 29.2246c-1.32422 -0.219727 -2.64453 -0.296875 -3.93164 -0.166016c-45.6846 4.6123 -77.9033 -41.6553 -98.0264 -76.918c59.8389 -74.2939 156.586 -99.0859 252.425 -92.7256
c4.62793 69.7432 -3.90332 142.778 -23.2646 209.173c-10.9473 37.5439 -25.7773 74.4648 -45.9248 108.057c-20.3145 33.8691 -39.9072 72.2041 -75.2432 92.9424c-35.5234 20.8477 -77.835 24.999 -111.293 -2.05762
c-32.4678 -26.2549 -46.6299 -68.3496 -52.3867 -108.399zM17.6963 78.3867c-15.7549 -81.6152 -26.5225 -209.261 54.7383 -260.511c61.7979 -38.9707 127.572 -5.7041 165.74 48.2227c46.0557 65.0781 67.9551 145.211 77.0361 223.481
c0.0410156 0.34668 0.0654297 0.693359 0.106445 1.04004c-38.1758 -1.8457 -76.4287 0.868164 -112.897 7.71289c-60.1445 11.29 -113.191 38.3389 -152.928 79.6807c-14.6592 -31.7217 -25.1631 -65.2568 -31.7959 -99.627z" />
    <glyph glyph-name="O" unicode="&#xd6;" horiz-adv-x="481" 
d="M-25.3662 3.23438c3.45898 49.0459 12.9814 97.6016 30.0811 143.771c6.42871 17.3564 14.4961 36.4199 24.2861 55.2432c-14.8018 19.8906 -26.9883 42.3193 -36.0166 67.2256c-27.5742 76.0537 -27.5986 174.247 21.9277 241.692
c24.124 32.8545 61.9941 57.1123 103.434 58.7988c45.5947 1.85352 87.4619 -23.1221 122.826 -49.4658c78.2578 -58.2949 120.247 -151.2 143.662 -243.588c12.1377 -47.8965 16.9902 -98.165 15.1445 -148.213c36.668 9.12598 71.4541 22.29 101.913 38.4326
c13.1152 6.95508 26.251 -7.64258 12.3945 -16.5732c-35.1484 -22.6533 -74.665 -38.5303 -115.962 -48.3291c-3.36914 -40.0215 -10.9229 -79.6113 -22.5303 -117.421c-28.0469 -91.3447 -79.2891 -189.09 -172.899 -226.65
c-43.6885 -17.5312 -93.541 -22.8604 -137.543 -2.98633c-39.4268 17.8047 -62.5771 58.7637 -76.4131 97.8809c-16.7939 47.4775 -17.8086 100.459 -14.3047 150.182zM9.44141 415.409c-8.93457 -62.1572 4.92188 -128.144 37.9033 -181.736
c29.5547 44.8701 70.4521 81.1758 124.514 78.2998c2.61133 12.8945 5.61035 25.7119 9.11426 38.4238c4.12305 14.9521 37.7764 20.6924 32.6143 1.9707c-8.57617 -31.1074 -15.6943 -62.3408 -20.4609 -94.2666c-2.11816 -14.2148 -32.2803 -19.9844 -30.1172 -1.82129
c1.16113 9.77832 2.53027 19.5156 4.07812 29.2246c-1.32422 -0.219727 -2.64453 -0.296875 -3.93164 -0.166016c-45.6846 4.6123 -77.9033 -41.6553 -98.0264 -76.918c59.8389 -74.2939 156.586 -99.0859 252.425 -92.7256
c4.62793 69.7432 -3.90332 142.778 -23.2646 209.173c-10.9473 37.5439 -25.7773 74.4648 -45.9248 108.057c-20.3145 33.8691 -39.9072 72.2041 -75.2432 92.9424c-35.5234 20.8477 -77.835 24.999 -111.293 -2.05762
c-32.4678 -26.2549 -46.6299 -68.3496 -52.3867 -108.399zM17.6963 78.3867c-15.7549 -81.6152 -26.5225 -209.261 54.7383 -260.511c61.7979 -38.9707 127.572 -5.7041 165.74 48.2227c46.0557 65.0781 67.9551 145.211 77.0361 223.481
c0.0410156 0.34668 0.0654297 0.693359 0.106445 1.04004c-38.1758 -1.8457 -76.4287 0.868164 -112.897 7.71289c-60.1445 11.29 -113.191 38.3389 -152.928 79.6807c-14.6592 -31.7217 -25.1631 -65.2568 -31.7959 -99.627z" />
    <glyph glyph-name="O" unicode="&#xd5;" horiz-adv-x="481" 
d="M-25.3662 3.23438c3.45898 49.0459 12.9814 97.6016 30.0811 143.771c6.42871 17.3564 14.4961 36.4199 24.2861 55.2432c-14.8018 19.8906 -26.9883 42.3193 -36.0166 67.2256c-27.5742 76.0537 -27.5986 174.247 21.9277 241.692
c24.124 32.8545 61.9941 57.1123 103.434 58.7988c45.5947 1.85352 87.4619 -23.1221 122.826 -49.4658c78.2578 -58.2949 120.247 -151.2 143.662 -243.588c12.1377 -47.8965 16.9902 -98.165 15.1445 -148.213c36.668 9.12598 71.4541 22.29 101.913 38.4326
c13.1152 6.95508 26.251 -7.64258 12.3945 -16.5732c-35.1484 -22.6533 -74.665 -38.5303 -115.962 -48.3291c-3.36914 -40.0215 -10.9229 -79.6113 -22.5303 -117.421c-28.0469 -91.3447 -79.2891 -189.09 -172.899 -226.65
c-43.6885 -17.5312 -93.541 -22.8604 -137.543 -2.98633c-39.4268 17.8047 -62.5771 58.7637 -76.4131 97.8809c-16.7939 47.4775 -17.8086 100.459 -14.3047 150.182zM9.44141 415.409c-8.93457 -62.1572 4.92188 -128.144 37.9033 -181.736
c29.5547 44.8701 70.4521 81.1758 124.514 78.2998c2.61133 12.8945 5.61035 25.7119 9.11426 38.4238c4.12305 14.9521 37.7764 20.6924 32.6143 1.9707c-8.57617 -31.1074 -15.6943 -62.3408 -20.4609 -94.2666c-2.11816 -14.2148 -32.2803 -19.9844 -30.1172 -1.82129
c1.16113 9.77832 2.53027 19.5156 4.07812 29.2246c-1.32422 -0.219727 -2.64453 -0.296875 -3.93164 -0.166016c-45.6846 4.6123 -77.9033 -41.6553 -98.0264 -76.918c59.8389 -74.2939 156.586 -99.0859 252.425 -92.7256
c4.62793 69.7432 -3.90332 142.778 -23.2646 209.173c-10.9473 37.5439 -25.7773 74.4648 -45.9248 108.057c-20.3145 33.8691 -39.9072 72.2041 -75.2432 92.9424c-35.5234 20.8477 -77.835 24.999 -111.293 -2.05762
c-32.4678 -26.2549 -46.6299 -68.3496 -52.3867 -108.399zM17.6963 78.3867c-15.7549 -81.6152 -26.5225 -209.261 54.7383 -260.511c61.7979 -38.9707 127.572 -5.7041 165.74 48.2227c46.0557 65.0781 67.9551 145.211 77.0361 223.481
c0.0410156 0.34668 0.0654297 0.693359 0.106445 1.04004c-38.1758 -1.8457 -76.4287 0.868164 -112.897 7.71289c-60.1445 11.29 -113.191 38.3389 -152.928 79.6807c-14.6592 -31.7217 -25.1631 -65.2568 -31.7959 -99.627z" />
    <glyph glyph-name="O" unicode="&#xd4;" horiz-adv-x="481" 
d="M-25.3662 3.23438c3.45898 49.0459 12.9814 97.6016 30.0811 143.771c6.42871 17.3564 14.4961 36.4199 24.2861 55.2432c-14.8018 19.8906 -26.9883 42.3193 -36.0166 67.2256c-27.5742 76.0537 -27.5986 174.247 21.9277 241.692
c24.124 32.8545 61.9941 57.1123 103.434 58.7988c45.5947 1.85352 87.4619 -23.1221 122.826 -49.4658c78.2578 -58.2949 120.247 -151.2 143.662 -243.588c12.1377 -47.8965 16.9902 -98.165 15.1445 -148.213c36.668 9.12598 71.4541 22.29 101.913 38.4326
c13.1152 6.95508 26.251 -7.64258 12.3945 -16.5732c-35.1484 -22.6533 -74.665 -38.5303 -115.962 -48.3291c-3.36914 -40.0215 -10.9229 -79.6113 -22.5303 -117.421c-28.0469 -91.3447 -79.2891 -189.09 -172.899 -226.65
c-43.6885 -17.5312 -93.541 -22.8604 -137.543 -2.98633c-39.4268 17.8047 -62.5771 58.7637 -76.4131 97.8809c-16.7939 47.4775 -17.8086 100.459 -14.3047 150.182zM9.44141 415.409c-8.93457 -62.1572 4.92188 -128.144 37.9033 -181.736
c29.5547 44.8701 70.4521 81.1758 124.514 78.2998c2.61133 12.8945 5.61035 25.7119 9.11426 38.4238c4.12305 14.9521 37.7764 20.6924 32.6143 1.9707c-8.57617 -31.1074 -15.6943 -62.3408 -20.4609 -94.2666c-2.11816 -14.2148 -32.2803 -19.9844 -30.1172 -1.82129
c1.16113 9.77832 2.53027 19.5156 4.07812 29.2246c-1.32422 -0.219727 -2.64453 -0.296875 -3.93164 -0.166016c-45.6846 4.6123 -77.9033 -41.6553 -98.0264 -76.918c59.8389 -74.2939 156.586 -99.0859 252.425 -92.7256
c4.62793 69.7432 -3.90332 142.778 -23.2646 209.173c-10.9473 37.5439 -25.7773 74.4648 -45.9248 108.057c-20.3145 33.8691 -39.9072 72.2041 -75.2432 92.9424c-35.5234 20.8477 -77.835 24.999 -111.293 -2.05762
c-32.4678 -26.2549 -46.6299 -68.3496 -52.3867 -108.399zM17.6963 78.3867c-15.7549 -81.6152 -26.5225 -209.261 54.7383 -260.511c61.7979 -38.9707 127.572 -5.7041 165.74 48.2227c46.0557 65.0781 67.9551 145.211 77.0361 223.481
c0.0410156 0.34668 0.0654297 0.693359 0.106445 1.04004c-38.1758 -1.8457 -76.4287 0.868164 -112.897 7.71289c-60.1445 11.29 -113.191 38.3389 -152.928 79.6807c-14.6592 -31.7217 -25.1631 -65.2568 -31.7959 -99.627z" />
    <glyph glyph-name="O" unicode="&#xd3;" horiz-adv-x="481" 
d="M-25.3662 3.23438c3.45898 49.0459 12.9814 97.6016 30.0811 143.771c6.42871 17.3564 14.4961 36.4199 24.2861 55.2432c-14.8018 19.8906 -26.9883 42.3193 -36.0166 67.2256c-27.5742 76.0537 -27.5986 174.247 21.9277 241.692
c24.124 32.8545 61.9941 57.1123 103.434 58.7988c45.5947 1.85352 87.4619 -23.1221 122.826 -49.4658c78.2578 -58.2949 120.247 -151.2 143.662 -243.588c12.1377 -47.8965 16.9902 -98.165 15.1445 -148.213c36.668 9.12598 71.4541 22.29 101.913 38.4326
c13.1152 6.95508 26.251 -7.64258 12.3945 -16.5732c-35.1484 -22.6533 -74.665 -38.5303 -115.962 -48.3291c-3.36914 -40.0215 -10.9229 -79.6113 -22.5303 -117.421c-28.0469 -91.3447 -79.2891 -189.09 -172.899 -226.65
c-43.6885 -17.5312 -93.541 -22.8604 -137.543 -2.98633c-39.4268 17.8047 -62.5771 58.7637 -76.4131 97.8809c-16.7939 47.4775 -17.8086 100.459 -14.3047 150.182zM9.44141 415.409c-8.93457 -62.1572 4.92188 -128.144 37.9033 -181.736
c29.5547 44.8701 70.4521 81.1758 124.514 78.2998c2.61133 12.8945 5.61035 25.7119 9.11426 38.4238c4.12305 14.9521 37.7764 20.6924 32.6143 1.9707c-8.57617 -31.1074 -15.6943 -62.3408 -20.4609 -94.2666c-2.11816 -14.2148 -32.2803 -19.9844 -30.1172 -1.82129
c1.16113 9.77832 2.53027 19.5156 4.07812 29.2246c-1.32422 -0.219727 -2.64453 -0.296875 -3.93164 -0.166016c-45.6846 4.6123 -77.9033 -41.6553 -98.0264 -76.918c59.8389 -74.2939 156.586 -99.0859 252.425 -92.7256
c4.62793 69.7432 -3.90332 142.778 -23.2646 209.173c-10.9473 37.5439 -25.7773 74.4648 -45.9248 108.057c-20.3145 33.8691 -39.9072 72.2041 -75.2432 92.9424c-35.5234 20.8477 -77.835 24.999 -111.293 -2.05762
c-32.4678 -26.2549 -46.6299 -68.3496 -52.3867 -108.399zM17.6963 78.3867c-15.7549 -81.6152 -26.5225 -209.261 54.7383 -260.511c61.7979 -38.9707 127.572 -5.7041 165.74 48.2227c46.0557 65.0781 67.9551 145.211 77.0361 223.481
c0.0410156 0.34668 0.0654297 0.693359 0.106445 1.04004c-38.1758 -1.8457 -76.4287 0.868164 -112.897 7.71289c-60.1445 11.29 -113.191 38.3389 -152.928 79.6807c-14.6592 -31.7217 -25.1631 -65.2568 -31.7959 -99.627z" />
    <glyph glyph-name="P" unicode="P" horiz-adv-x="749" 
d="M513.573 43.2109c-55.1572 -6.0791 -127.865 33.9023 -107.225 98.3857c20.3389 63.5742 94.0996 73.9268 150.332 59.459c19.2793 -4.95801 39.2354 -12.7891 59.5654 -20.6934c12.3369 22.3311 20.8643 46.9277 26.0674 71.667
c11.665 55.4873 10.6055 114.874 -1.71875 170.174c-10.3809 46.5684 -33.6084 127.992 -94.5107 126.302c-58.6328 -1.62988 -87.2871 -85.5225 -103.177 -130.49c-21.0273 -59.5205 -34.3623 -121.759 -46.4102 -183.622
c-19.9355 -102.374 -32.9404 -205.925 -50.5498 -308.674c-0.448242 -34.7578 -1.96387 -69.4463 -5.3418 -103.988c-3.17773 -32.4795 -70.3623 -51.209 -77.7812 -12.7891c-21.459 111.146 -16.2725 228.126 -15.502 340.897
c0.68457 100.116 4.16016 200.164 -3.59277 300.105c-3.44727 44.4131 -7.68457 91.7559 -21.2148 134.438c-11.0986 35.0137 -30.5732 72.2812 -67.9219 84.4385c-37.3164 12.1455 -82.0557 -4.08594 -109.125 -30.4297
c-29.127 -28.3447 -44.9883 -69.0381 -48.6914 -109.047c-4.01758 -43.4395 5.86621 -92.3838 45.3662 -116.988c37.96 -23.6465 84.3857 -20.1221 127.198 -15.6523c1.0957 11.2617 2.26465 22.5186 3.56836 33.7637c1.75195 15.0908 33.8652 21.0918 31.7832 1.92285
c-3.92383 -36.1182 -6.68164 -72.3018 -8.31543 -108.595c-0.712891 -15.8975 -34.0771 -25.9609 -33.1807 -8.84473c0.990234 18.8721 2.27734 37.7109 3.8457 56.5303c-54.1309 -5.84668 -113.725 -9.22852 -159.308 25.9365
c-41.0322 31.6533 -48.9238 87.7842 -42.9756 136.121c10.5605 85.8203 75.7324 162.172 165.366 166.739c43.6191 2.2207 89.7314 -10.2305 121.466 -41.207c34.2891 -33.4697 48.2109 -81.6396 59.0039 -126.904c27.2891 -114.462 27.3457 -232.656 29.4072 -349.632
c0.435547 -24.7021 1.21777 -49.4658 2.07324 -74.2578c13.7549 88.4238 30.0723 176.351 54.2773 262.053c17.1162 60.6045 39.333 134.08 88.6357 176.717c22.1396 19.1445 51.4619 31.1758 81.0088 28.1523c29.0088 -2.96973 51.8242 -21.2627 72.3135 -40.5791
c95.6104 -90.1426 105.229 -265.055 39.8457 -375.414c30.6016 -7.74512 61.3291 -9.60254 91.1973 3.42285c19.0068 8.28711 29.6328 -13.1191 10.4639 -21.4512c-39.1289 -17.0098 -78.5918 -15.1279 -117.424 -5.59863
c-35.6738 -47.4814 -89.2217 -85.7998 -148.82 -92.3672zM438.909 125.17c13.0869 -64.1367 99.6279 -25.6191 131.012 -0.705078c11.5508 9.1709 21.6348 19.7969 30.4307 31.4082c-32.7324 12.5732 -67.6816 27.709 -103.336 25.8555
c-29.1143 -1.51562 -65.1348 -22.1025 -58.1064 -56.5586z" />
    <glyph glyph-name="Q" unicode="Q" horiz-adv-x="481" 
d="M501.892 167.13c13.1152 6.95508 26.2539 -7.63965 12.3896 -16.5703c-35.1484 -22.6533 -74.665 -38.5303 -115.962 -48.3291c-3.36914 -40.0215 -10.9229 -79.6113 -22.5303 -117.421c-28.0469 -91.3447 -79.2891 -189.09 -172.899 -226.65
c-17.5312 -7.03223 -36.0566 -12.0518 -54.7939 -14.3174c20.3555 -9.26855 40.8125 -17.1035 63.9785 -19.2266c32.5049 -2.97461 64.4307 4.08203 93.2598 19.0469c18.5869 9.64746 28.8545 -11.9053 10.4629 -21.4512
c-46.3652 -24.0703 -100.483 -30.9766 -150.983 -16.5332c-38.9375 11.1348 -109.312 68.8506 -147.317 30.0596c-10.9961 -11.2246 -38.0371 -4.50195 -23.3164 10.6416c13.7754 14.1699 29.6973 21.7031 46.4912 24.5059
c-24.8652 20.8926 -41.0771 52.0566 -51.7314 82.1699c-16.7939 47.4775 -17.8086 100.459 -14.3047 150.182c3.45898 49.0459 12.9805 97.6025 30.0801 143.768c6.42871 17.3564 14.4961 36.4199 24.2861 55.2432c-14.8018 19.8906 -26.9883 42.3193 -36.0166 67.2256
c-27.5742 76.0537 -27.5986 174.247 21.9277 241.692c24.124 32.8545 61.9941 57.1123 103.434 58.7988c45.5947 1.85352 87.4619 -23.1221 122.826 -49.4658c78.2578 -58.2949 120.247 -151.2 143.662 -243.588c12.1377 -47.8965 16.9902 -98.165 15.1445 -148.213
c36.668 9.12598 71.4541 22.29 101.913 38.4326zM9.43555 415.414c-8.93457 -62.1572 4.92383 -128.143 37.9053 -181.735c29.5508 44.8701 70.4482 81.1758 124.514 78.2998c2.61133 12.8945 5.61035 25.7119 9.11426 38.4238
c4.12305 14.9521 37.7764 20.6924 32.6143 1.9707c-8.57617 -31.1074 -15.6943 -62.3408 -20.4609 -94.2666c-2.11816 -14.2148 -32.2803 -19.9844 -30.1172 -1.82129c1.16113 9.77832 2.53027 19.5156 4.07812 29.2246
c-1.32422 -0.219727 -2.64453 -0.296875 -3.93164 -0.166016c-45.6807 4.6123 -77.9043 -41.6553 -98.0273 -76.918c59.8389 -74.2939 156.586 -99.0859 252.425 -92.7256c4.62793 69.7432 -3.90332 142.778 -23.2646 209.173
c-10.9473 37.5439 -25.7773 74.4648 -45.9248 108.057c-20.3105 33.8691 -39.9082 72.2041 -75.2441 92.9424c-35.5234 20.8477 -77.835 24.999 -111.293 -2.05859c-32.4678 -26.2549 -46.6299 -68.3496 -52.3867 -108.399zM315.21 89.5889
c0.0410156 0.341797 0.0654297 0.69043 0.106445 1.03711c-38.1758 -1.8457 -76.4287 0.868164 -112.897 7.71289c-60.1445 11.29 -113.191 38.3389 -152.928 79.6807c-14.6592 -31.7217 -25.1582 -65.2568 -31.7949 -99.627
c-15.7549 -81.6152 -26.5234 -209.258 54.7412 -260.508c61.7939 -38.9707 127.568 -5.7041 165.736 48.2227c46.0557 65.0781 67.9551 145.211 77.0361 223.481z" />
    <glyph glyph-name="R" unicode="R" horiz-adv-x="881" 
d="M666.57 -168.096c-74.1885 -0.652344 -123.455 54 -145.7 120.325c-12.0967 36.0615 -16.1592 71.7559 -22.7393 108.934c-2.70898 15.3115 -5.74023 30.1699 -11.6807 44.3193c-25.8271 -0.289062 -51.3398 5.48828 -67.4336 23.2402
c-25.3301 27.9453 8.05859 64.4746 39.9316 59.7812c12.9111 -1.89844 21.915 -10.7441 29.6396 -20.6367c0.382812 -0.0166016 0.769531 -0.0537109 1.14844 -0.0615234c12.5732 -0.301758 24.8779 1.42969 36.9785 4.73828c22.999 6.28223 43.4766 19.5889 61.583 34.7656
c37.5156 31.4453 66.8662 74.4121 88.0234 118.215c20.0371 41.4805 33.9756 86.334 40.792 131.876c7.08105 47.29 11.3633 106.045 -17.7227 147.171c-13.6162 19.251 -34.2852 35.251 -57.6387 40.124c-26.1367 5.44727 -50.5459 -6.16406 -70.6562 -22.001
c-38.7012 -30.4795 -64.9805 -75.1865 -85.3926 -119.25c-44.9229 -96.9668 -68.4883 -203.138 -88.9365 -307.504c-20.4932 -104.578 -36.375 -209.975 -52.0898 -315.355c-0.87207 -19.6543 -2.15137 -39.2803 -4.06641 -58.8525
c-3.17773 -32.4795 -70.3623 -51.209 -77.7812 -12.7891c-21.459 111.146 -16.2725 228.126 -15.502 340.897c0.68457 100.116 4.16016 200.164 -3.59277 300.105c-3.44727 44.4131 -7.68457 91.7559 -21.2148 134.438c-11.0986 35.0137 -30.5732 72.2812 -67.9219 84.4385
c-37.3164 12.1455 -82.0557 -4.08594 -109.125 -30.4297c-29.127 -28.3447 -44.9883 -69.0381 -48.6914 -109.047c-4.01758 -43.4395 5.86621 -92.3838 45.3662 -116.988c37.96 -23.6465 84.3857 -20.1221 127.198 -15.6523c1.0957 11.2617 2.26465 22.5186 3.56836 33.7637
c1.75195 15.0908 33.8652 21.0918 31.7832 1.92285c-3.92383 -36.1182 -6.68164 -72.3018 -8.31543 -108.595c-0.712891 -15.8975 -34.0771 -25.9609 -33.1807 -8.84473c0.990234 18.8721 2.27734 37.7109 3.8457 56.5303
c-54.1309 -5.84668 -113.725 -9.22852 -159.308 25.9365c-41.0322 31.6533 -48.9238 87.7842 -42.9756 136.121c10.5605 85.8203 75.7324 162.172 165.366 166.739c43.6191 2.2207 89.7314 -10.2305 121.466 -41.207c34.2891 -33.4697 48.2109 -81.6396 59.0039 -126.904
c27.2891 -114.462 27.3457 -232.656 29.4072 -349.632c0.660156 -37.585 2.11426 -75.3008 3.43848 -113.057c7.30469 44.2178 15.0947 88.3545 23.7402 132.336c20.0654 102.117 43.9531 204.85 86.6758 300.195c30.9443 69.0508 84.2881 155.89 165.944 169.184
c83.7744 13.6406 131.896 -69.499 146.009 -139.869c16.1582 -80.5566 2.9043 -164.014 -33.0303 -237.399c-37.6748 -76.9463 -103.621 -152.373 -187.457 -178.733c-5.94043 -1.87012 -12.541 -3.59766 -19.4756 -5.08496
c1.08789 -1.8418 2.18359 -3.67969 3.2998 -5.50879c22.2656 -36.4482 37.165 -75.3408 53.0547 -114.665c15.9463 -39.4629 36.0977 -72.3994 68.9365 -99.8555c14.3252 -11.9785 31.7998 -23.501 51.4658 -22.1201c20.416 1.43457 40.1191 14.9531 54.3623 28.667
c32.4922 31.2822 54.4482 74.4404 75.1045 113.989c22.4287 42.9385 41.6221 87.3682 57.8047 133.021c4.97852 14.0518 37.9512 19.5439 31.7832 1.92285c-25.4639 -72.7217 -57.5605 -144.127 -98.7754 -209.368c-34.8467 -55.1533 -87.1279 -103.678 -156.317 -104.285z
" />
    <glyph glyph-name="S" unicode="S" horiz-adv-x="456" 
d="M317.938 507.566c16.7578 -53.0879 5.24805 -119.383 -47.4199 -144.362c3.6748 -4.53906 7.72852 -8.80078 12.2021 -12.667c12.6338 -10.9316 -14.9004 -30.0928 -26.0029 -19.6465c-16.8105 15.8164 -27.5059 35.6338 -32.248 58.1484
c-2.84375 13.498 25.0693 22.9092 28.9521 7.71582c1.16113 -4.54688 2.68457 -8.93457 4.53809 -13.1553c37.4502 13.5791 40.0537 68.5283 31.9219 100.939c-9.61523 38.3262 -35.4824 73.7236 -69.7881 93.541c-73.9844 42.7344 -181.769 7.04785 -188.178 -85.5352
c-5.14941 -74.3955 47.5469 -136.765 95.2764 -187.815c47.0293 -50.3047 98.5889 -96.8975 140.985 -151.354c14.4961 -18.623 27.6641 -38.3633 38.9053 -59.0479c57.9971 23.3857 116.825 45.542 167.293 78.7305c13.2578 8.71875 31.6982 -3.65039 15.7188 -14.5449
c-53.6787 -36.5947 -113.615 -59.5859 -172.953 -84.2188c18.5869 -39.7236 29.832 -82.5479 29.6729 -127.43c-0.129883 -37.5439 -8.95898 -75.292 -25.5859 -108.949c-16.3545 -33.1035 -39.6797 -55.1367 -70.3828 -74.7383
c-48.0596 -30.6787 -116.422 -39.9229 -162.571 0.216797c-50.708 44.1035 -38.8271 122.944 -6.71387 174.207c37.0312 59.1133 91.0156 95.4561 150.565 124.225c-58.5352 94.9385 -162.71 161.671 -224.104 254.405c-21.5449 32.5449 -40.7881 70.167 -42.8086 109.834
c-1.94727 38.2568 9.53809 72.9209 29.4326 105.181c37.7441 61.1992 102.749 97.79 175.295 92.9863c68.1016 -4.50977 127.451 -51.5596 147.998 -116.666zM266.758 -17.8691c-5.46387 21.1455 -13.3633 40.7861 -23.0352 59.3359
c-1.26758 -0.62793 -2.54688 -1.22656 -3.80957 -1.86621c-71.1367 -35.915 -153.767 -97.249 -154.06 -185.664c-0.118164 -35.5312 16.6758 -68.8828 50.2725 -83.3096c28.6953 -12.3242 67.9268 -10.3076 93.6064 8.55664
c24.3965 17.9229 37.3115 58.8369 42.5918 87.1816c6.9873 37.5234 3.94336 78.9502 -5.56641 115.766z" />
    <glyph glyph-name="T" unicode="T" horiz-adv-x="586" 
d="M542.496 -140.236c-17.9551 -30.8213 -45.7578 -57.2578 -82.4014 -61.9346c-38.0576 -4.86035 -74.3877 9.70898 -98.4629 39.6914c-26.2705 32.7158 -37.0547 76.543 -45.7285 116.895c-10.1572 47.2568 -14.834 95.0518 -17.6416 143.238
c-5.72461 98.2217 -7.15918 196.591 -7.5752 294.955c-0.423828 99.6357 -1.17773 199.255 4.375 298.761c0.341797 6.09082 1.97168 11.6885 4.55078 16.7324c-35.5479 -1.17383 -70.9814 -3.29199 -106.053 -8.18066
c-60.4297 -8.42188 -126.926 -26.9639 -168.011 -75.2197c-22.6123 -26.5557 -34.1875 -61.2842 -32.501 -96.1025c1.38965 -28.6826 12.2764 -69.2871 43.9131 -77.0361c5.19922 9.49316 11.0537 18.6885 17.6299 27.5586
c9.75781 13.1602 36.2158 6.46191 23.6387 -10.7881c-16.0645 -22.0293 -26.3643 -46.8174 -31.8486 -73.4385c-3.03516 -14.7363 -35.332 -20.2939 -31.3682 -1.89844c2.53027 11.7256 5.98535 23.0156 10.2998 33.9102c-71.585 12.333 -71.5527 116.508 -49.002 167.925
c55.3809 126.281 227.946 136.397 345.183 139.457c5.77344 0.150391 11.5586 0.276367 17.3438 0.398438c3.6582 0.476562 7.55273 0.586914 11.415 0.224609c69.0508 1.2998 138.614 1.81348 206.365 16.1797c48.6143 10.3076 188.491 47.9297 151.656 123.193
c-7.1377 14.5859 23.374 29.4287 30.6104 14.9326c35.7637 -71.666 -55.0967 -121.935 -108.824 -142.518c-81.7334 -31.3105 -167.383 -35.0918 -253.415 -36.8604c5.95215 -97.6846 3.65039 -195.516 3.66309 -293.339
c0.0126953 -88.46 0.46875 -176.985 2.69336 -265.421c2.0498 -81.5459 5.46387 -165.532 25.3545 -245.021c6.60449 -26.3926 20.0371 -79.3828 55.418 -80.6377c38.1719 -1.35645 60.3682 59.957 70.3135 87.5107c28.7598 79.6719 49.1553 162.371 62.5674 245.959
c2.2168 13.8115 31.9014 19.3281 29.2861 1.77246c-7.94434 -53.3076 -18.7451 -106.122 -32.8018 -158.158c-12.8701 -47.6523 -25.6025 -99.7578 -50.6426 -142.741z" />
    <glyph glyph-name="U" unicode="U" horiz-adv-x="825" 
d="M714.469 -168.666c-33.7021 -9.63184 -64.2764 3.32227 -89.9111 25.0664c-31.0869 26.373 -45.9053 66.0234 -56.7383 104.195c-12.0146 42.3516 -21.1982 85.4736 -26.1562 129.231c-10.3809 91.5889 -11.4688 183.891 -11.1221 275.965
c0.146484 38.7256 0.712891 77.3818 1.74805 116.014c-15.9463 -87.165 -30.3857 -174.635 -50.627 -260.939c-14.4473 -61.6025 -29.8926 -126.049 -56.1875 -183.847c-21.1865 -46.5605 -74.1074 -77.2314 -123.092 -49.751
c-54.4404 30.5361 -65.6572 104.965 -74.0547 161.279c-10.0918 67.6934 -13.0908 135.9 -15.002 204.226c-1.88184 67.3477 -2.22852 135.388 -15.2617 201.753c-5.25195 26.7393 -10.2021 54.5254 -21.9072 79.3213c-5.28027 11.1875 -12.9033 20.6152 -18.7617 31.3594
c-7.03223 12.8955 -15.7676 18.4932 -30.6709 21.7646c-54.9697 12.0762 -110.266 -35.3604 -126.941 -84.8018c-8.74316 -25.9248 -9.9209 -56.6729 2.75 -81.5498c11.7666 -23.1055 43.4199 -44.2305 67.7559 -25.4688c1.62988 1.25488 3.33301 2.14355 5.04395 2.7998
c-0.859375 4.4043 -1.73145 8.80859 -2.7373 13.2002c-3.27148 14.3047 27.1836 24.7637 31.0664 8.2793c5.20312 -22.0908 8.55664 -44.3809 10.0762 -67.0254c1.01465 -15.0908 -30.4717 -25.1709 -31.4902 -8.39355c-0.583008 9.61523 -1.56934 19.165 -2.81641 28.6699
c-48.0273 -28.3857 -104.847 5.8457 -115.892 59.3525c-11.8564 57.4473 19.1445 116.703 63.9082 151.412c43.4355 33.6777 105.051 47.3955 156.961 27.1592c14.5898 -5.6875 28.1895 -9.27734 39.7725 -20.5059c9.40332 -9.11816 17.4463 -19.7148 24.7637 -30.5566
c17.8125 -26.3887 27.5215 -55.332 34.2852 -86.2432c15.3154 -70.0205 13.3926 -142.518 15.1279 -213.776c1.79297 -73.6338 4.26562 -147.602 10.8174 -220.983c3.02734 -33.9463 8.57227 -66.8945 21.2188 -98.6006c4.96289 -12.4424 11.5508 -31.6279 26.6377 -32.9688
c17.8047 -1.58105 29.5713 18.3584 36.3428 32.1982c30.3691 62.0713 46.0547 134.898 61.5576 201.871c31.6328 136.634 50.9609 275.851 85.9795 411.735c0.273438 1.2998 0.595703 2.5752 0.970703 3.82617c0.0654297 0.248047 0.12207 0.492188 0.1875 0.741211
c0.0322266 0.12207 0.101562 0.232422 0.138672 0.354492c5.47559 16.7129 20.1631 28.6709 38.0527 33.3975c16.0938 4.24902 45.6934 0.570312 45.8076 -21.7041c0.480469 -93.1377 -2.9502 -186.1 -4.0625 -279.217
c-0.945312 -79.4072 -1.17773 -159.177 2.40723 -238.522c1.8252 -40.4121 4.83984 -81.0283 9.93262 -121.164c4.5918 -36.1953 9.83105 -74.4971 22.9873 -108.721c9.62793 -25.0488 24.7314 -71.3486 60.6748 -61.6641c35.3359 9.52539 51.9756 62.4902 63.375 92.3789
c27.2402 71.4053 42.6084 146.661 53.1074 222.165c1.95117 14.0605 31.999 19.6631 29.7012 1.79785c-12.084 -93.9199 -30.5039 -192.974 -74.2979 -277.95c-16.1055 -31.2539 -40.791 -57.2637 -75.4258 -67.1602z" />
    <glyph glyph-name="U" unicode="&#xdc;" horiz-adv-x="825" 
d="M714.469 -168.666c-33.7021 -9.63184 -64.2764 3.32227 -89.9111 25.0664c-31.0869 26.373 -45.9053 66.0234 -56.7383 104.195c-12.0146 42.3516 -21.1982 85.4736 -26.1562 129.231c-10.3809 91.5889 -11.4688 183.891 -11.1221 275.965
c0.146484 38.7256 0.712891 77.3818 1.74805 116.014c-15.9463 -87.165 -30.3857 -174.635 -50.627 -260.939c-14.4473 -61.6025 -29.8926 -126.049 -56.1875 -183.847c-21.1865 -46.5605 -74.1074 -77.2314 -123.092 -49.751
c-54.4404 30.5361 -65.6572 104.965 -74.0547 161.279c-10.0918 67.6934 -13.0908 135.9 -15.002 204.226c-1.88184 67.3477 -2.22852 135.388 -15.2617 201.753c-5.25195 26.7393 -10.2021 54.5254 -21.9072 79.3213c-5.28027 11.1875 -12.9033 20.6152 -18.7617 31.3594
c-7.03223 12.8955 -15.7676 18.4932 -30.6709 21.7646c-54.9697 12.0762 -110.266 -35.3604 -126.941 -84.8018c-8.74316 -25.9248 -9.9209 -56.6729 2.75 -81.5498c11.7666 -23.1055 43.4199 -44.2305 67.7559 -25.4688c1.62988 1.25488 3.33301 2.14355 5.04395 2.7998
c-0.859375 4.4043 -1.73145 8.80859 -2.7373 13.2002c-3.27148 14.3047 27.1836 24.7637 31.0664 8.2793c5.20312 -22.0908 8.55664 -44.3809 10.0762 -67.0254c1.01465 -15.0908 -30.4717 -25.1709 -31.4902 -8.39355c-0.583008 9.61523 -1.56934 19.165 -2.81641 28.6699
c-48.0273 -28.3857 -104.847 5.8457 -115.892 59.3525c-11.8564 57.4473 19.1445 116.703 63.9082 151.412c43.4355 33.6777 105.051 47.3955 156.961 27.1592c14.5898 -5.6875 28.1895 -9.27734 39.7725 -20.5059c9.40332 -9.11816 17.4463 -19.7148 24.7637 -30.5566
c17.8125 -26.3887 27.5215 -55.332 34.2852 -86.2432c15.3154 -70.0205 13.3926 -142.518 15.1279 -213.776c1.79297 -73.6338 4.26562 -147.602 10.8174 -220.983c3.02734 -33.9463 8.57227 -66.8945 21.2188 -98.6006c4.96289 -12.4424 11.5508 -31.6279 26.6377 -32.9688
c17.8047 -1.58105 29.5713 18.3584 36.3428 32.1982c30.3691 62.0713 46.0547 134.898 61.5576 201.871c31.6328 136.634 50.9609 275.851 85.9795 411.735c0.273438 1.2998 0.595703 2.5752 0.970703 3.82617c0.0654297 0.248047 0.12207 0.492188 0.1875 0.741211
c0.0322266 0.12207 0.101562 0.232422 0.138672 0.354492c5.47559 16.7129 20.1631 28.6709 38.0527 33.3975c16.0938 4.24902 45.6934 0.570312 45.8076 -21.7041c0.480469 -93.1377 -2.9502 -186.1 -4.0625 -279.217
c-0.945312 -79.4072 -1.17773 -159.177 2.40723 -238.522c1.8252 -40.4121 4.83984 -81.0283 9.93262 -121.164c4.5918 -36.1953 9.83105 -74.4971 22.9873 -108.721c9.62793 -25.0488 24.7314 -71.3486 60.6748 -61.6641c35.3359 9.52539 51.9756 62.4902 63.375 92.3789
c27.2402 71.4053 42.6084 146.661 53.1074 222.165c1.95117 14.0605 31.999 19.6631 29.7012 1.79785c-12.084 -93.9199 -30.5039 -192.974 -74.2979 -277.95c-16.1055 -31.2539 -40.791 -57.2637 -75.4258 -67.1602z" />
    <glyph glyph-name="U" unicode="&#xdb;" horiz-adv-x="825" 
d="M714.469 -168.666c-33.7021 -9.63184 -64.2764 3.32227 -89.9111 25.0664c-31.0869 26.373 -45.9053 66.0234 -56.7383 104.195c-12.0146 42.3516 -21.1982 85.4736 -26.1562 129.231c-10.3809 91.5889 -11.4688 183.891 -11.1221 275.965
c0.146484 38.7256 0.712891 77.3818 1.74805 116.014c-15.9463 -87.165 -30.3857 -174.635 -50.627 -260.939c-14.4473 -61.6025 -29.8926 -126.049 -56.1875 -183.847c-21.1865 -46.5605 -74.1074 -77.2314 -123.092 -49.751
c-54.4404 30.5361 -65.6572 104.965 -74.0547 161.279c-10.0918 67.6934 -13.0908 135.9 -15.002 204.226c-1.88184 67.3477 -2.22852 135.388 -15.2617 201.753c-5.25195 26.7393 -10.2021 54.5254 -21.9072 79.3213c-5.28027 11.1875 -12.9033 20.6152 -18.7617 31.3594
c-7.03223 12.8955 -15.7676 18.4932 -30.6709 21.7646c-54.9697 12.0762 -110.266 -35.3604 -126.941 -84.8018c-8.74316 -25.9248 -9.9209 -56.6729 2.75 -81.5498c11.7666 -23.1055 43.4199 -44.2305 67.7559 -25.4688c1.62988 1.25488 3.33301 2.14355 5.04395 2.7998
c-0.859375 4.4043 -1.73145 8.80859 -2.7373 13.2002c-3.27148 14.3047 27.1836 24.7637 31.0664 8.2793c5.20312 -22.0908 8.55664 -44.3809 10.0762 -67.0254c1.01465 -15.0908 -30.4717 -25.1709 -31.4902 -8.39355c-0.583008 9.61523 -1.56934 19.165 -2.81641 28.6699
c-48.0273 -28.3857 -104.847 5.8457 -115.892 59.3525c-11.8564 57.4473 19.1445 116.703 63.9082 151.412c43.4355 33.6777 105.051 47.3955 156.961 27.1592c14.5898 -5.6875 28.1895 -9.27734 39.7725 -20.5059c9.40332 -9.11816 17.4463 -19.7148 24.7637 -30.5566
c17.8125 -26.3887 27.5215 -55.332 34.2852 -86.2432c15.3154 -70.0205 13.3926 -142.518 15.1279 -213.776c1.79297 -73.6338 4.26562 -147.602 10.8174 -220.983c3.02734 -33.9463 8.57227 -66.8945 21.2188 -98.6006c4.96289 -12.4424 11.5508 -31.6279 26.6377 -32.9688
c17.8047 -1.58105 29.5713 18.3584 36.3428 32.1982c30.3691 62.0713 46.0547 134.898 61.5576 201.871c31.6328 136.634 50.9609 275.851 85.9795 411.735c0.273438 1.2998 0.595703 2.5752 0.970703 3.82617c0.0654297 0.248047 0.12207 0.492188 0.1875 0.741211
c0.0322266 0.12207 0.101562 0.232422 0.138672 0.354492c5.47559 16.7129 20.1631 28.6709 38.0527 33.3975c16.0938 4.24902 45.6934 0.570312 45.8076 -21.7041c0.480469 -93.1377 -2.9502 -186.1 -4.0625 -279.217
c-0.945312 -79.4072 -1.17773 -159.177 2.40723 -238.522c1.8252 -40.4121 4.83984 -81.0283 9.93262 -121.164c4.5918 -36.1953 9.83105 -74.4971 22.9873 -108.721c9.62793 -25.0488 24.7314 -71.3486 60.6748 -61.6641c35.3359 9.52539 51.9756 62.4902 63.375 92.3789
c27.2402 71.4053 42.6084 146.661 53.1074 222.165c1.95117 14.0605 31.999 19.6631 29.7012 1.79785c-12.084 -93.9199 -30.5039 -192.974 -74.2979 -277.95c-16.1055 -31.2539 -40.791 -57.2637 -75.4258 -67.1602z" />
    <glyph glyph-name="U" unicode="&#xda;" horiz-adv-x="825" 
d="M714.469 -168.666c-33.7021 -9.63184 -64.2764 3.32227 -89.9111 25.0664c-31.0869 26.373 -45.9053 66.0234 -56.7383 104.195c-12.0146 42.3516 -21.1982 85.4736 -26.1562 129.231c-10.3809 91.5889 -11.4688 183.891 -11.1221 275.965
c0.146484 38.7256 0.712891 77.3818 1.74805 116.014c-15.9463 -87.165 -30.3857 -174.635 -50.627 -260.939c-14.4473 -61.6025 -29.8926 -126.049 -56.1875 -183.847c-21.1865 -46.5605 -74.1074 -77.2314 -123.092 -49.751
c-54.4404 30.5361 -65.6572 104.965 -74.0547 161.279c-10.0918 67.6934 -13.0908 135.9 -15.002 204.226c-1.88184 67.3477 -2.22852 135.388 -15.2617 201.753c-5.25195 26.7393 -10.2021 54.5254 -21.9072 79.3213c-5.28027 11.1875 -12.9033 20.6152 -18.7617 31.3594
c-7.03223 12.8955 -15.7676 18.4932 -30.6709 21.7646c-54.9697 12.0762 -110.266 -35.3604 -126.941 -84.8018c-8.74316 -25.9248 -9.9209 -56.6729 2.75 -81.5498c11.7666 -23.1055 43.4199 -44.2305 67.7559 -25.4688c1.62988 1.25488 3.33301 2.14355 5.04395 2.7998
c-0.859375 4.4043 -1.73145 8.80859 -2.7373 13.2002c-3.27148 14.3047 27.1836 24.7637 31.0664 8.2793c5.20312 -22.0908 8.55664 -44.3809 10.0762 -67.0254c1.01465 -15.0908 -30.4717 -25.1709 -31.4902 -8.39355c-0.583008 9.61523 -1.56934 19.165 -2.81641 28.6699
c-48.0273 -28.3857 -104.847 5.8457 -115.892 59.3525c-11.8564 57.4473 19.1445 116.703 63.9082 151.412c43.4355 33.6777 105.051 47.3955 156.961 27.1592c14.5898 -5.6875 28.1895 -9.27734 39.7725 -20.5059c9.40332 -9.11816 17.4463 -19.7148 24.7637 -30.5566
c17.8125 -26.3887 27.5215 -55.332 34.2852 -86.2432c15.3154 -70.0205 13.3926 -142.518 15.1279 -213.776c1.79297 -73.6338 4.26562 -147.602 10.8174 -220.983c3.02734 -33.9463 8.57227 -66.8945 21.2188 -98.6006c4.96289 -12.4424 11.5508 -31.6279 26.6377 -32.9688
c17.8047 -1.58105 29.5713 18.3584 36.3428 32.1982c30.3691 62.0713 46.0547 134.898 61.5576 201.871c31.6328 136.634 50.9609 275.851 85.9795 411.735c0.273438 1.2998 0.595703 2.5752 0.970703 3.82617c0.0654297 0.248047 0.12207 0.492188 0.1875 0.741211
c0.0322266 0.12207 0.101562 0.232422 0.138672 0.354492c5.47559 16.7129 20.1631 28.6709 38.0527 33.3975c16.0938 4.24902 45.6934 0.570312 45.8076 -21.7041c0.480469 -93.1377 -2.9502 -186.1 -4.0625 -279.217
c-0.945312 -79.4072 -1.17773 -159.177 2.40723 -238.522c1.8252 -40.4121 4.83984 -81.0283 9.93262 -121.164c4.5918 -36.1953 9.83105 -74.4971 22.9873 -108.721c9.62793 -25.0488 24.7314 -71.3486 60.6748 -61.6641c35.3359 9.52539 51.9756 62.4902 63.375 92.3789
c27.2402 71.4053 42.6084 146.661 53.1074 222.165c1.95117 14.0605 31.999 19.6631 29.7012 1.79785c-12.084 -93.9199 -30.5039 -192.974 -74.2979 -277.95c-16.1055 -31.2539 -40.791 -57.2637 -75.4258 -67.1602z" />
    <glyph glyph-name="V" unicode="V" horiz-adv-x="878" 
d="M904.847 168.576c21.2959 4.51855 20.1396 -20.3916 2.0293 -24.2744c-25.6025 -5.49219 -51.291 -7.37891 -77.4033 -5.11328c-38.7539 3.35742 -73.6338 14.2402 -104.484 30.8633c-21.4385 -76.7305 -47.3057 -152.243 -80.7393 -224.39
c-21.5527 -46.5078 -49.3145 -104.383 -96.873 -129.533c-21.3447 -11.29 -48.2754 -11.8848 -71.042 -4.54688c-27.2646 8.78418 -46.251 34.0361 -61.2686 57.2021c-32.8838 50.7285 -45.0703 112.445 -53.9932 171.311
c-9.85547 65.0254 -13.5342 130.527 -17.376 196.123c-3.76465 64.2676 -8.23438 128.526 -16.2773 192.423c-7 55.5977 -15.9229 114.137 -37.5371 166.226c-18.4443 44.4502 -47.4209 83.8809 -94.4668 100.031c-47.8721 16.4355 -99.415 1.6416 -138.312 -28.748
c-42.3555 -33.0908 -74.7422 -89.3809 -58.1514 -144.054c7.62305 -25.1182 25.4883 -49.0947 51.5713 -56.6973c22.1064 -6.44531 47.0332 -0.647461 60.5107 18.3096c-6.46191 10.4424 -13.2168 20.7051 -20.4688 30.6865
c-7.92871 10.915 19.0713 26.6943 26.7803 16.4023c18.5293 -24.7344 34.875 -50.667 48.7197 -78.3145c7.07715 -14.1377 -22.9619 -28.748 -29.8105 -14.541c-3.75684 7.79004 -7.76172 15.4297 -11.9014 22.9873c-27.4111 -24.417 -68.9199 -32.125 -103.335 -16.8135
c-46.5439 20.709 -66.0635 75.96 -58.3955 123.633c17.5684 109.234 142.811 183.569 247.312 174.911c104.835 -8.68652 165.109 -111.643 188.854 -203.533c31.7793 -122.978 30.8018 -250.127 39.0029 -376.005c3.99707 -61.3135 9.65234 -122.057 19.0029 -182.8
c4.58789 -29.7949 11.1475 -59.8096 23.5088 -87.4375c7.10938 -15.8857 29.4033 -60.8496 51.7217 -55.0967c15.0137 3.87012 28.0391 22.6201 36.9209 34.2354c9.00391 11.7705 16.6836 24.5146 23.8174 37.4873c12.8174 23.3047 23.8711 47.6562 34.3301 72.0898
c25.1133 58.6738 45.0811 119.441 62.4902 180.8c2.3877 8.42578 4.73047 16.8672 7.04492 25.3174c-137.396 98.0352 -177.255 319.932 -96.0098 469.005c23.4473 43.0156 61.9248 86.9521 110.885 100.597c46.3281 12.9111 77.9971 -21.1533 89.2295 -62.9062
c16.0156 -59.5127 4.48145 -126.453 -4.38379 -186.247c-9.91309 -66.8711 -22.2051 -133.392 -36.917 -199.374c-7.86328 -35.2744 -16.2891 -70.5576 -25.5088 -105.657c49.7793 -32.3086 109.178 -47.6602 170.923 -34.5576zM630.345 318.989
c18.6475 -36.1875 44.7148 -69.124 75.8545 -95.2725c27.0859 104.509 48.125 210.899 62.0059 317.828c6.66992 51.3682 17.6621 123.955 -12.9033 170.349c-37.9883 57.6592 -103.152 -21.7275 -123.141 -57.3281c-56.8115 -101.18 -54.4521 -233.418 -1.81641 -335.576z
" />
    <glyph glyph-name="W" unicode="W" horiz-adv-x="985" 
d="M1016.43 166.286c19.6338 -2.63965 1.03223 -26.4814 -13.4111 -24.583c-35.6289 4.72168 -68.916 15.3438 -99.2734 30.7158c-0.317383 -1.4668 -0.594727 -2.94531 -0.916992 -4.41602c-8.77148 -40.1514 -19.418 -79.998 -32.6836 -118.911
c-12.0723 -35.4131 -24.8936 -72.9775 -46.4707 -103.868c-39.2471 -56.1836 -121.999 -70.2598 -179.124 -33.4365c-65.4248 42.1768 -97.5703 125.255 -117.09 197.247c-6.34766 23.4189 -11.5957 47.0166 -15.9629 70.7529
c-0.566406 -4.11133 -1.08789 -8.22656 -1.70703 -12.3291c-8.76758 -57.8545 -20.0127 -124.448 -51.7754 -174.736c-24.2705 -38.4287 -66.2109 -62.5322 -111.781 -50.1787c-24.3643 6.6084 -47.6318 15.877 -64.4219 35.6572
c-16.0322 18.8838 -24.0508 40.5186 -30.1621 64.1455c-29.6689 114.727 -11.3838 237.361 -11.3877 354.317c-0.00390625 54.8232 -1.33984 112.592 -15.6445 165.854c-6.55176 24.3965 -11.2783 44.6133 -29.3232 63.416
c-17.9551 18.7012 -44.1729 27.5996 -69.8613 25.8965c-55.2344 -3.66309 -95.1416 -47.7217 -115.501 -95.9443c-18.7988 -44.5195 -25.4072 -123.707 31.6973 -140.692c3.125 6.74707 6.62891 13.3477 10.5439 19.7607c4.05371 6.63672 12.8057 11.7744 20.7949 10.1406
c6.9834 -1.42969 11.1436 -8.18457 7.2041 -14.7646c-13.4736 -22.5107 -21.1289 -46.4189 -23.6553 -72.5107c-1.44629 -14.916 -33.3965 -20.8281 -31.3672 -1.89941c1.16113 10.8623 3.27148 21.4922 6.24121 31.8486
c-55.5732 12.1982 -75.2275 71.7842 -66.3379 123.706c9.14258 53.4092 39.5811 106.989 84.2266 138.386c39.7236 27.9375 92.9541 39.415 139.808 24.0918c44.4824 -14.5449 85.2617 -55.6787 103.995 -97.9365c48.1172 -108.542 27.7178 -234.416 24.2705 -349.103
c-1.8291 -60.8447 -5.96484 -125.589 7.23535 -185.505c5.01953 -22.7754 12.9727 -52.0693 31.7344 -67.5029c25.8555 -21.2637 57.3906 0.444336 72.6123 23.6191c30.9443 47.1025 41.5088 113.379 50.0811 168.08c9.0127 57.5117 12.5576 115.639 15.0225 173.746
c-0.219727 4.56738 -0.423828 9.13867 -0.603516 13.7139c-1.52344 38.7295 78.4424 66.4385 82.2598 21.9268c6.58008 -76.7715 12.3408 -154.284 29.8643 -229.499c8.78418 -37.6953 19.7764 -74.9053 35.0547 -110.515c13.3838 -31.1885 28.0352 -63 54.5996 -85.2988
c23.248 -19.5117 54.6318 -35.7598 82.084 -15.3115c25.1953 18.7705 37.6377 53.0918 48.9922 81.1875c22.5059 55.6914 38.0039 113.917 49.8027 172.762c-92.3027 59.207 -151.726 164.767 -157.633 278.349c-3.64648 70.1221 9.23633 146.697 52.3945 203.822
c18.6152 24.6367 46.0674 46.8457 78.3721 47.1875c31.873 0.337891 55.1006 -24.5146 67.5967 -51.5352c15.8691 -34.3096 19.0352 -73.2266 20.7666 -110.461c2.04102 -43.9121 1.77246 -87.9268 -0.525391 -131.818
c-3.87891 -74.082 -12.8955 -148.123 -27.0742 -221.003c32.2559 -18.6562 68.1299 -31.417 106.44 -36.5713zM760.97 402.13c18.5098 -73.043 62.1123 -137.652 121.312 -181.129c13.1113 73.4307 21.6387 147.737 24.0508 222.312
c1.20215 37.1123 0.973633 74.3018 -1.02246 111.386c-1.81348 33.6699 -5.02441 68.6152 -19.9727 99.3633c-16.2607 33.4453 -47.2744 49.583 -76.9512 20.7246c-23.6143 -22.9541 -37.7637 -55.3447 -46.4014 -86.6143
c-16.6436 -60.2627 -16.3457 -125.54 -1.01465 -186.043z" />
    <glyph glyph-name="X" unicode="X" horiz-adv-x="626" 
d="M93.9062 317.763c-54.1426 -4.91309 -97.8857 37.8975 -115.972 85.9326c-20.4443 54.3057 -16.668 118.382 11.4609 169.354c21.333 38.6602 59.3584 68.4873 105.308 65.0771c53.5361 -3.97266 95.8877 -49.376 126.701 -89.3115
c33.7471 -43.7334 56.5752 -94.1973 74.2373 -146.783c1.99219 3.96387 3.94824 7.94043 5.99316 11.8848c27.3623 52.7373 59.5859 104.175 99.0537 148.775c35.1934 39.7725 80.1855 73.8213 135.139 76.0049c22.5791 0.900391 10.6738 -25.9531 -6.38086 -26.6455
c-67.6816 -2.74609 -115.456 -69.9268 -149.802 -121.091c-27.6279 -41.1543 -50.8145 -84.7363 -71.3691 -129.618c10.3936 -36.0693 19.0918 -72.5703 27.8477 -108.09c13.3594 -54.1914 25.998 -108.579 42.7266 -161.858
c8.04297 -25.6152 16.0166 -51.2012 25.9004 -76.1885c9.07324 -22.9385 17.5762 -47.8486 31.8037 -68.2197c16.5986 -23.7656 40.042 -40.1689 69.4219 -27.9053c24.4785 10.2139 42.9883 34.46 57.501 55.7441c33.8896 49.71 57.1045 105.735 70.2764 164.315
c3.27148 14.5693 35.3564 20.3672 31.3633 1.89844c-12.6504 -58.5391 -35.1689 -114.861 -67.5801 -165.309c-30.2881 -47.1436 -69.0996 -91.708 -128.519 -97.4775c-109.26 -10.6094 -151.082 134.784 -173.698 216.604
c-13.584 49.1562 -24.2344 99.041 -35.1006 148.869c-10.793 -29.0654 -21.1045 -58.29 -31.3594 -87.4092c-20.8477 -59.207 -41.6797 -118.476 -66.0518 -176.351c-18.2686 -43.3906 -36.9082 -105.434 -84.8906 -124.554
c-17.0264 -6.78809 -26.4619 11.1914 -9.34961 19.1729c29.2617 13.6445 41.8555 54.3262 53.9883 81.7871c15.5674 35.2383 29.4932 71.165 42.6816 107.353c28.1201 77.166 53.1602 155.738 83.3711 232.163c-7.74121 33.7432 -16.0732 67.335 -26.0107 100.523
c-14.6064 48.7686 -32.7568 97.0977 -54.4648 143.161c-12.6387 26.8213 -27.3262 50.4805 -54.9092 63.7422c-23.7041 11.3955 -50.3135 12.1045 -71.1045 -5.19434c-40.9014 -34.0322 -50.667 -99.9004 -42.168 -149.26
c8.23828 -47.8438 42.4619 -109.593 98.2344 -106.582c1.70703 9.79004 3.41797 19.5801 5.125 29.3701c2.54688 14.5693 34.0859 20.3223 30.9531 1.87012c-4.75879 -28.0508 -9.51758 -56.0977 -14.2725 -84.1484c-2.51367 -14.8184 -34.623 -20.5508 -31.3682 -1.89844
c1.75977 10.0957 3.52344 20.1914 5.2832 30.291z" />
    <glyph glyph-name="Y" unicode="Y" horiz-adv-x="709" 
d="M725.26 174.532c9.38281 11.6895 33.0557 6.13281 21.7207 -9.8916c-30.9199 -43.7285 -90.6973 -61.623 -137.759 -82.0107c-3.98828 -1.72754 -7.97656 -3.45508 -11.9648 -5.17871c-2.60742 -33.5918 -6.6084 -67.0615 -12.4141 -100.356
c-9.79004 -56.1309 -24.1885 -115.012 -53.2578 -164.575c-26.4219 -45.0488 -71.1201 -83.3838 -123.209 -94.5312c-49.0742 -10.499 -101.331 10.1416 -126.881 54.0742c-60.8691 104.668 62.6299 199.488 140.615 246.46c31.376 18.9004 64.1533 35.1934 97.4355 50.415
c3.14941 103.38 -4.86914 206.919 -11.4004 310.52c-7.9043 -47.2207 -17.9844 -94.0703 -30.4072 -140.309c-18.3018 -68.126 -55.9678 -201.134 -150.055 -190.618c-111.023 12.4102 -118.594 153.99 -124.009 240.083
c-3.45508 54.9043 -7.16699 109.936 -18.7949 163.851c-8.18555 37.9521 -25.2324 106.986 -75.4766 105.291c-85.8359 -2.89648 -159.894 -141.686 -75.6299 -193.196c6.60449 9.24902 14.2314 17.793 23.7695 25.0537c13.8643 10.5566 33.1963 -2.92871 16.916 -15.6562
c-24.4297 -19.1006 -33.25 -51.8857 -48.7725 -77.6143c-7.81445 -12.9561 -39.0107 -12.3857 -28.377 4.68555c7.67188 12.3125 14.085 25.3252 20.9219 37.9678c-37.3691 19.9316 -56.4287 61.8516 -52.79 103.625c4.16016 47.7666 37.8008 88.9287 76.3516 114.938
c40.5674 27.3672 83.7832 42.3281 132.255 28.9893c51.4658 -14.1621 80.833 -59.1211 94.001 -108.204c29.1719 -108.733 11.1553 -224.019 31.6035 -334.276c4.10645 -22.1357 9.40332 -48.333 29.3301 -62.1533c23.0566 -15.9912 46.4629 4.0293 60.4297 22.1797
c32.7852 42.6123 47.8027 100.063 61.1211 151.224c29.1875 112.107 45.5088 227.254 49.2412 343.016c0.105469 3.2793 1.82031 6.28223 4.33008 8.7998c6.13184 14.292 20.502 24.6367 35.748 28.6621c15.7959 4.16797 43.7539 0.517578 44.2305 -20.958
c3.25977 -147.333 18.1426 -294.353 17.0791 -441.788c-0.166992 -23.1338 -0.875977 -46.2305 -2.17188 -69.2822c18.6846 8.04688 37.3525 16.1221 55.8779 24.5273c25.8516 11.7295 52.2246 23.6016 70.3916 46.2383zM503.255 -95.0771
c8.24609 45.7705 12.916 91.5791 15.21 137.419c-20.1924 -9.48047 -40.1729 -19.4092 -59.7207 -30.1855c-45.623 -25.1504 -91.5195 -55.6172 -125.711 -95.4473c-34.6641 -40.3799 -49.2295 -98.4873 -11.3672 -142.444
c36.5381 -42.4209 101.934 -42.5879 136.092 2.38379c27.501 36.2119 37.6055 84.4922 45.4971 128.274z" />
    <glyph glyph-name="Y" unicode="&#x178;" horiz-adv-x="709" 
d="M725.26 174.532c9.38281 11.6895 33.0557 6.13281 21.7207 -9.8916c-30.9199 -43.7285 -90.6973 -61.623 -137.759 -82.0107c-3.98828 -1.72754 -7.97656 -3.45508 -11.9648 -5.17871c-2.60742 -33.5918 -6.6084 -67.0615 -12.4141 -100.356
c-9.79004 -56.1309 -24.1885 -115.012 -53.2578 -164.575c-26.4219 -45.0488 -71.1201 -83.3838 -123.209 -94.5312c-49.0742 -10.499 -101.331 10.1416 -126.881 54.0742c-60.8691 104.668 62.6299 199.488 140.615 246.46c31.376 18.9004 64.1533 35.1934 97.4355 50.415
c3.14941 103.38 -4.86914 206.919 -11.4004 310.52c-7.9043 -47.2207 -17.9844 -94.0703 -30.4072 -140.309c-18.3018 -68.126 -55.9678 -201.134 -150.055 -190.618c-111.023 12.4102 -118.594 153.99 -124.009 240.083
c-3.45508 54.9043 -7.16699 109.936 -18.7949 163.851c-8.18555 37.9521 -25.2324 106.986 -75.4766 105.291c-85.8359 -2.89648 -159.894 -141.686 -75.6299 -193.196c6.60449 9.24902 14.2314 17.793 23.7695 25.0537c13.8643 10.5566 33.1963 -2.92871 16.916 -15.6562
c-24.4297 -19.1006 -33.25 -51.8857 -48.7725 -77.6143c-7.81445 -12.9561 -39.0107 -12.3857 -28.377 4.68555c7.67188 12.3125 14.085 25.3252 20.9219 37.9678c-37.3691 19.9316 -56.4287 61.8516 -52.79 103.625c4.16016 47.7666 37.8008 88.9287 76.3516 114.938
c40.5674 27.3672 83.7832 42.3281 132.255 28.9893c51.4658 -14.1621 80.833 -59.1211 94.001 -108.204c29.1719 -108.733 11.1553 -224.019 31.6035 -334.276c4.10645 -22.1357 9.40332 -48.333 29.3301 -62.1533c23.0566 -15.9912 46.4629 4.0293 60.4297 22.1797
c32.7852 42.6123 47.8027 100.063 61.1211 151.224c29.1875 112.107 45.5088 227.254 49.2412 343.016c0.105469 3.2793 1.82031 6.28223 4.33008 8.7998c6.13184 14.292 20.502 24.6367 35.748 28.6621c15.7959 4.16797 43.7539 0.517578 44.2305 -20.958
c3.25977 -147.333 18.1426 -294.353 17.0791 -441.788c-0.166992 -23.1338 -0.875977 -46.2305 -2.17188 -69.2822c18.6846 8.04688 37.3525 16.1221 55.8779 24.5273c25.8516 11.7295 52.2246 23.6016 70.3916 46.2383zM503.255 -95.0771
c8.24609 45.7705 12.916 91.5791 15.21 137.419c-20.1924 -9.48047 -40.1729 -19.4092 -59.7207 -30.1855c-45.623 -25.1504 -91.5195 -55.6172 -125.711 -95.4473c-34.6641 -40.3799 -49.2295 -98.4873 -11.3672 -142.444
c36.5381 -42.4209 101.934 -42.5879 136.092 2.38379c27.501 36.2119 37.6055 84.4922 45.4971 128.274z" />
    <glyph glyph-name="Y" unicode="&#xdd;" horiz-adv-x="709" 
d="M725.26 174.532c9.38281 11.6895 33.0557 6.13281 21.7207 -9.8916c-30.9199 -43.7285 -90.6973 -61.623 -137.759 -82.0107c-3.98828 -1.72754 -7.97656 -3.45508 -11.9648 -5.17871c-2.60742 -33.5918 -6.6084 -67.0615 -12.4141 -100.356
c-9.79004 -56.1309 -24.1885 -115.012 -53.2578 -164.575c-26.4219 -45.0488 -71.1201 -83.3838 -123.209 -94.5312c-49.0742 -10.499 -101.331 10.1416 -126.881 54.0742c-60.8691 104.668 62.6299 199.488 140.615 246.46c31.376 18.9004 64.1533 35.1934 97.4355 50.415
c3.14941 103.38 -4.86914 206.919 -11.4004 310.52c-7.9043 -47.2207 -17.9844 -94.0703 -30.4072 -140.309c-18.3018 -68.126 -55.9678 -201.134 -150.055 -190.618c-111.023 12.4102 -118.594 153.99 -124.009 240.083
c-3.45508 54.9043 -7.16699 109.936 -18.7949 163.851c-8.18555 37.9521 -25.2324 106.986 -75.4766 105.291c-85.8359 -2.89648 -159.894 -141.686 -75.6299 -193.196c6.60449 9.24902 14.2314 17.793 23.7695 25.0537c13.8643 10.5566 33.1963 -2.92871 16.916 -15.6562
c-24.4297 -19.1006 -33.25 -51.8857 -48.7725 -77.6143c-7.81445 -12.9561 -39.0107 -12.3857 -28.377 4.68555c7.67188 12.3125 14.085 25.3252 20.9219 37.9678c-37.3691 19.9316 -56.4287 61.8516 -52.79 103.625c4.16016 47.7666 37.8008 88.9287 76.3516 114.938
c40.5674 27.3672 83.7832 42.3281 132.255 28.9893c51.4658 -14.1621 80.833 -59.1211 94.001 -108.204c29.1719 -108.733 11.1553 -224.019 31.6035 -334.276c4.10645 -22.1357 9.40332 -48.333 29.3301 -62.1533c23.0566 -15.9912 46.4629 4.0293 60.4297 22.1797
c32.7852 42.6123 47.8027 100.063 61.1211 151.224c29.1875 112.107 45.5088 227.254 49.2412 343.016c0.105469 3.2793 1.82031 6.28223 4.33008 8.7998c6.13184 14.292 20.502 24.6367 35.748 28.6621c15.7959 4.16797 43.7539 0.517578 44.2305 -20.958
c3.25977 -147.333 18.1426 -294.353 17.0791 -441.788c-0.166992 -23.1338 -0.875977 -46.2305 -2.17188 -69.2822c18.6846 8.04688 37.3525 16.1221 55.8779 24.5273c25.8516 11.7295 52.2246 23.6016 70.3916 46.2383zM503.255 -95.0771
c8.24609 45.7705 12.916 91.5791 15.21 137.419c-20.1924 -9.48047 -40.1729 -19.4092 -59.7207 -30.1855c-45.623 -25.1504 -91.5195 -55.6172 -125.711 -95.4473c-34.6641 -40.3799 -49.2295 -98.4873 -11.3672 -142.444
c36.5381 -42.4209 101.934 -42.5879 136.092 2.38379c27.501 36.2119 37.6055 84.4922 45.4971 128.274z" />
    <glyph glyph-name="Z" unicode="Z" horiz-adv-x="566" 
d="M-35.6963 -199.125c-31.9092 7.96094 -55.9463 37.0918 -30.873 66.2354c22.4941 26.1445 57.0439 33.6816 89.5361 39.0674c29.1924 4.83984 58.5762 7.94043 88.0205 10.499c36.8154 33.6455 66.5088 75.5205 90.832 118.472
c26.1367 46.1533 49.5029 94.3887 68.5742 144.095c-18.2158 -3.82617 -35.6533 -10.9639 -51.5791 -21.2754c-14.0928 -9.12207 -33.7148 3.94434 -16.6807 15.4336c23.8223 16.0693 49.8691 27.1758 77.9082 32.1953c3.45117 9.9082 6.77539 19.8613 9.85547 29.876
c21.3652 69.4785 34.5459 142.31 29.0986 215.17c-4.55469 60.9307 -18.4805 137.311 -76.2129 170.353c-67.5107 38.6406 -143.585 -0.276367 -188.153 -54.6475c-42.2627 -51.5635 -85.2139 -136.219 -38.1768 -197.939
c0.204102 -0.260742 0.301758 -0.538086 0.472656 -0.802734c6.09082 6.07031 12.4346 11.9531 19.0752 17.6406c10.5322 9.0166 32.6064 -0.386719 19.5156 -12.8174c-20.0293 -19.0186 -37.8096 -40.5059 -52.6523 -63.8066
c-4.4209 -6.94238 -13.3799 -12.4463 -21.9277 -10.6943c-7.19922 1.47461 -11.9619 8.71094 -7.59473 15.5684c7.28027 11.4287 15.1924 22.1602 23.6914 32.3535c-2.29395 0.427734 -4.35938 1.4873 -5.88281 3.43848c-55.8535 71.6826 -11.6846 166.824 38.4326 228.492
c51.7881 63.7168 140.786 108.835 222.178 74.9658c65.2041 -27.1348 107.857 -99.2979 124.94 -164.575c21.6748 -82.8252 13.0088 -169.888 -9.90918 -251.503c-3.16602 -11.2773 -6.55176 -22.5674 -10.1211 -33.8447
c15.9795 -2.50195 31.9746 -4.70996 48.2676 -3.67871c21.9688 1.39355 10.3125 -24.9102 -6.21289 -25.957c-17.1895 -1.08789 -33.8164 1.4873 -50.4561 4.20508c-21.6387 -62.8008 -49.5674 -124.505 -83.9785 -180.273
c-15.458 -25.0449 -32.835 -49.2256 -52.127 -71.7236c67.417 7.21191 133.652 19.7852 194.925 51.3486c69.1602 35.625 127.789 89.9434 169.212 155.71c8.16504 12.9639 40.2051 12.7725 29.1396 -4.81152c-79.2646 -125.988 -207.701 -201.732 -353.522 -223.354
c-22.0049 -3.26367 -44.124 -5.55762 -66.2803 -7.49707c-30.0029 -29.6807 -64.0674 -55.0508 -102.442 -73.4707c-34.2646 -16.4482 -80.626 -31.9951 -118.892 -22.4453zM-27.9824 -134.805c-20.7871 -15.7148 2.02832 -15.1348 15.7178 -14.1611
c29.2412 2.08984 57.5615 18 81.9463 33.6572c1.32031 0.847656 2.5918 1.76074 3.89551 2.62891c-17.6338 -1.87402 -35.2266 -4.11523 -52.7373 -7.06934c-15.9629 -2.68945 -35.5234 -5 -48.8223 -15.0557z" />
    <glyph glyph-name="bracketleft" unicode="[" horiz-adv-x="302" 
d="M205.044 -146.573c16.4678 14.3291 59.0645 8.63379 43.6396 -20.0283c-16.7773 -31.168 -55.4707 -47.4287 -90.0283 -41.7695c-36.4971 5.98145 -52.7168 37.96 -63.4033 69.8447c-46.834 139.727 -47.1396 294.312 -44.2432 440.088
c1.49121 74.9053 2.81152 154.712 25.7861 226.667c9.33008 29.2246 20.6523 51.6123 50.6592 63.208c28.2021 10.8984 56.2412 11.4932 84.7852 1.31543c14.8262 -5.28809 -4.62793 -24.9502 -15.5391 -21.9639c-13.7383 3.76465 -43.7979 10.0957 -55.7354 -1.74414
c-8.19727 -8.13184 -8.02246 -27.6436 -8.95996 -38.2812c-3.21484 -36.3994 -3.22266 -72.6113 -3.80957 -109.101c-1.19336 -74.6523 -1.63379 -149.284 1.6416 -223.892c3.16992 -72.3545 7.13867 -145.32 20.209 -216.669
c6.27832 -34.2812 15.1035 -67.7227 26.5811 -100.631c3.55664 -10.1934 13.7256 -39.8291 28.417 -27.0439z" />
    <glyph glyph-name="backslash" unicode="\" horiz-adv-x="401" 
d="M349.536 -93.7383c12.9033 -39.7197 -53.3369 -70.8008 -77.0771 -37.5918c-34.3057 47.999 -52.3262 107.479 -70.3711 163.105c-18.4072 56.7461 -34.0479 114.287 -50.6826 171.562c-17.6582 60.7998 -37.2754 121.025 -56.3633 181.382
c-9.66016 30.5527 -20.0654 60.8613 -28.5234 91.7686c-7.59863 27.7656 -20.8525 60.7139 -15.1201 89.5879c3.05957 15.417 25.957 23.2969 38.041 14.374c22.8359 -16.8594 35.2422 -53.5645 46.96 -78.6904c13.3916 -28.7236 24.584 -58.5312 36.2363 -87.9961
c22.6572 -57.3047 42.6455 -115.534 61.2852 -174.269c17.6094 -55.4873 33.9551 -111.402 52.5049 -166.588c18.9453 -56.3633 44.7725 -110.185 63.1104 -166.646z" />
    <glyph glyph-name="bracketright" unicode="]" horiz-adv-x="302" 
d="M236.67 495.541c13.7461 -74.2695 15.0127 -150.405 15.0938 -225.726c0.0810547 -73.0557 -2.22461 -146.229 -9.66406 -218.935c-6.99512 -68.3945 -17.5674 -142.758 -47.9531 -205.236c-14.415 -29.6445 -43.1992 -52.3994 -76.751 -54.7988
c-26.7393 -1.91113 -53.1445 8.38086 -65.1963 33.2539c-12.8623 26.5439 34.0811 46.793 52.6514 32.252c2.88477 -2.26074 10.54 -5.17773 14.3164 -6.36328c0.827148 0.802734 2.11426 2.19238 3.12891 4.48633c2.73828 6.20508 4.46973 13.0332 6.59277 19.4824
c10.9395 33.2295 19.2881 67.0625 25.2979 101.526c12.2637 70.3418 15.9141 142.179 18.7168 213.425c2.95801 75.1904 1.41797 150.242 0.924805 225.449c-0.244141 37.4102 -0.679688 74.7754 -4.48535 112.038c-1.38086 13.5547 -1.8457 33.2168 -14.0684 41.8213
c-14.834 10.4463 -38.998 7.5127 -55.0586 3.01855c-19.4912 -5.45508 -17.0225 16.6924 -1.83789 21.9893c31.417 10.96 69.0098 9.87207 98.124 -7.58984c28.0352 -16.8145 34.7002 -60.543 40.168 -90.0938z" />
    <glyph glyph-name="asciicircum" unicode="^" horiz-adv-x="284" 
d="M232.959 441.248c4.37988 -17.4668 -18.1299 -33.4648 -31.3672 -38.5537c-15.2666 -5.87109 -35.3691 -5.47168 -44.585 10.1328c-10.332 17.5029 -18.7207 37.2383 -28.7393 55.8252c-7.28906 -18.8594 -15.5518 -37.0264 -29.2617 -51.2578
c-10.5723 -10.9756 -31.9258 -17.9912 -42.0547 -2.81445c-15.6611 23.4678 -1.13281 63.542 7.26855 87.6416c11.3594 32.5693 27.1182 67.7305 66.3652 71.1777c33.6006 2.9502 49.4082 -29.3545 65.1514 -53.9707c15.5391 -24.3027 30.1738 -50.0684 37.2227 -78.1807z
" />
    <glyph glyph-name="underscore" unicode="_" horiz-adv-x="436" 
d="M369.463 -89.041c13.1758 -2.15137 19.6602 -13.3271 15.1992 -25.4971c-4.86035 -13.2451 -20.4482 -22.5918 -34.252 -23.1621c-52.3623 -2.15137 -104.647 -4.18457 -156.973 -7.30176c-42.5391 -2.53418 -102.438 -9.9209 -139.824 14.7041
c-10.9395 7.20312 5.85059 20.4033 12.1455 22.2529c24.6943 7.25586 51.4785 7.62207 77.0117 9.39844c25.0244 1.73926 49.9756 4.60742 74.9512 6.90918c50.4355 4.64844 101.363 10.9268 151.741 2.69629z" />
    <glyph glyph-name="grave" unicode="`" horiz-adv-x="170" 
d="M120.014 572.309c-0.671875 -43.293 -7.73438 -88.7852 -2.54004 -131.903c0.969727 -8.02637 -8.46191 -16.2031 -15.7178 -17.4297c-61.8877 -10.4629 -53.0137 102.104 -48.6172 138.337c3.22656 26.5928 67.4004 44.833 66.875 10.9961z" />
    <glyph glyph-name="a" unicode="a" horiz-adv-x="305" 
d="M307.108 161.652c5.8584 12.6875 33.6973 12.959 26.0869 -4.30762c-19.626 -44.54 -39.374 -89.7109 -67.8447 -129.472c-21.6914 -30.2998 -64.165 -48.834 -94.791 -18.3545c-28.3164 28.1777 -35.1201 77.6104 -37.5928 119.033
c-3.60547 -15.2666 -7.8916 -30.3291 -13.5264 -44.833c-9.96191 -25.6436 -26.5527 -49.7793 -56.6738 -50.5049c-28.6504 -0.692383 -57.085 15.2705 -70.3955 40.2744c-31.9746 60.0664 -10.5029 154.557 31.7148 204.747
c20.6934 24.6006 51.0586 43.3545 83.9219 42.833c12.1123 -0.191406 22.3467 -3.28809 31.0898 -8.49902c0.358398 0.297852 0.688477 0.611328 1.07129 0.884766c0.0732422 0.366211 0.138672 0.732422 0.211914 1.09863c8.2627 39.9844 90.7666 57.8213 86.2568 5.21875
c-6.90137 -80.5312 -19.6904 -161.377 -15.543 -242.512c0.484375 -9.46484 1.47852 -18.6484 3.20215 -27.9707c0.823242 -4.43652 2.73438 -23.4717 6.75977 -25.7451c11.1348 -6.29492 30.0146 29.9941 33.7793 36.0566c20.1963 32.5166 36.2529 67.3594 52.2725 102.052
zM109.657 164.874c6.87695 34.0889 12.8418 68.3857 18.4844 102.72c-10.8701 10.6787 -24.3066 16.4678 -38.0244 2.57031c-12.418 -12.585 -19.2256 -32.7041 -24.9785 -48.9766c-14.582 -41.2354 -20.9424 -88.835 -12.4473 -132.075
c1.53223 -7.79785 4.2168 -26.9307 14.834 -28.7314c14.4355 -2.44824 22.7959 28.2676 25.6475 36.9785c7.19922 21.9688 11.917 44.8779 16.4844 67.5146z" />
    <glyph glyph-name="a" unicode="&#xe5;" horiz-adv-x="305" 
d="M307.108 161.652c5.8584 12.6875 33.6973 12.959 26.0869 -4.30762c-19.626 -44.54 -39.374 -89.7109 -67.8447 -129.472c-21.6914 -30.2998 -64.165 -48.834 -94.791 -18.3545c-28.3164 28.1777 -35.1201 77.6104 -37.5928 119.033
c-3.60547 -15.2666 -7.8916 -30.3291 -13.5264 -44.833c-9.96191 -25.6436 -26.5527 -49.7793 -56.6738 -50.5049c-28.6504 -0.692383 -57.085 15.2705 -70.3955 40.2744c-31.9746 60.0664 -10.5029 154.557 31.7148 204.747
c20.6934 24.6006 51.0586 43.3545 83.9219 42.833c12.1123 -0.191406 22.3467 -3.28809 31.0898 -8.49902c0.358398 0.297852 0.688477 0.611328 1.07129 0.884766c0.0732422 0.366211 0.138672 0.732422 0.211914 1.09863c8.2627 39.9844 90.7666 57.8213 86.2568 5.21875
c-6.90137 -80.5312 -19.6904 -161.377 -15.543 -242.512c0.484375 -9.46484 1.47852 -18.6484 3.20215 -27.9707c0.823242 -4.43652 2.73438 -23.4717 6.75977 -25.7451c11.1348 -6.29492 30.0146 29.9941 33.7793 36.0566c20.1963 32.5166 36.2529 67.3594 52.2725 102.052
zM109.657 164.874c6.87695 34.0889 12.8418 68.3857 18.4844 102.72c-10.8701 10.6787 -24.3066 16.4678 -38.0244 2.57031c-12.418 -12.585 -19.2256 -32.7041 -24.9785 -48.9766c-14.582 -41.2354 -20.9424 -88.835 -12.4473 -132.075
c1.53223 -7.79785 4.2168 -26.9307 14.834 -28.7314c14.4355 -2.44824 22.7959 28.2676 25.6475 36.9785c7.19922 21.9688 11.917 44.8779 16.4844 67.5146z" />
    <glyph glyph-name="a" unicode="&#xe4;" horiz-adv-x="305" 
d="M307.108 161.652c5.8584 12.6875 33.6973 12.959 26.0869 -4.30762c-19.626 -44.54 -39.374 -89.7109 -67.8447 -129.472c-21.6914 -30.2998 -64.165 -48.834 -94.791 -18.3545c-28.3164 28.1777 -35.1201 77.6104 -37.5928 119.033
c-3.60547 -15.2666 -7.8916 -30.3291 -13.5264 -44.833c-9.96191 -25.6436 -26.5527 -49.7793 -56.6738 -50.5049c-28.6504 -0.692383 -57.085 15.2705 -70.3955 40.2744c-31.9746 60.0664 -10.5029 154.557 31.7148 204.747
c20.6934 24.6006 51.0586 43.3545 83.9219 42.833c12.1123 -0.191406 22.3467 -3.28809 31.0898 -8.49902c0.358398 0.297852 0.688477 0.611328 1.07129 0.884766c0.0732422 0.366211 0.138672 0.732422 0.211914 1.09863c8.2627 39.9844 90.7666 57.8213 86.2568 5.21875
c-6.90137 -80.5312 -19.6904 -161.377 -15.543 -242.512c0.484375 -9.46484 1.47852 -18.6484 3.20215 -27.9707c0.823242 -4.43652 2.73438 -23.4717 6.75977 -25.7451c11.1348 -6.29492 30.0146 29.9941 33.7793 36.0566c20.1963 32.5166 36.2529 67.3594 52.2725 102.052
zM109.657 164.874c6.87695 34.0889 12.8418 68.3857 18.4844 102.72c-10.8701 10.6787 -24.3066 16.4678 -38.0244 2.57031c-12.418 -12.585 -19.2256 -32.7041 -24.9785 -48.9766c-14.582 -41.2354 -20.9424 -88.835 -12.4473 -132.075
c1.53223 -7.79785 4.2168 -26.9307 14.834 -28.7314c14.4355 -2.44824 22.7959 28.2676 25.6475 36.9785c7.19922 21.9688 11.917 44.8779 16.4844 67.5146z" />
    <glyph glyph-name="a" unicode="&#xe3;" horiz-adv-x="305" 
d="M307.108 161.652c5.8584 12.6875 33.6973 12.959 26.0869 -4.30762c-19.626 -44.54 -39.374 -89.7109 -67.8447 -129.472c-21.6914 -30.2998 -64.165 -48.834 -94.791 -18.3545c-28.3164 28.1777 -35.1201 77.6104 -37.5928 119.033
c-3.60547 -15.2666 -7.8916 -30.3291 -13.5264 -44.833c-9.96191 -25.6436 -26.5527 -49.7793 -56.6738 -50.5049c-28.6504 -0.692383 -57.085 15.2705 -70.3955 40.2744c-31.9746 60.0664 -10.5029 154.557 31.7148 204.747
c20.6934 24.6006 51.0586 43.3545 83.9219 42.833c12.1123 -0.191406 22.3467 -3.28809 31.0898 -8.49902c0.358398 0.297852 0.688477 0.611328 1.07129 0.884766c0.0732422 0.366211 0.138672 0.732422 0.211914 1.09863c8.2627 39.9844 90.7666 57.8213 86.2568 5.21875
c-6.90137 -80.5312 -19.6904 -161.377 -15.543 -242.512c0.484375 -9.46484 1.47852 -18.6484 3.20215 -27.9707c0.823242 -4.43652 2.73438 -23.4717 6.75977 -25.7451c11.1348 -6.29492 30.0146 29.9941 33.7793 36.0566c20.1963 32.5166 36.2529 67.3594 52.2725 102.052
zM109.657 164.874c6.87695 34.0889 12.8418 68.3857 18.4844 102.72c-10.8701 10.6787 -24.3066 16.4678 -38.0244 2.57031c-12.418 -12.585 -19.2256 -32.7041 -24.9785 -48.9766c-14.582 -41.2354 -20.9424 -88.835 -12.4473 -132.075
c1.53223 -7.79785 4.2168 -26.9307 14.834 -28.7314c14.4355 -2.44824 22.7959 28.2676 25.6475 36.9785c7.19922 21.9688 11.917 44.8779 16.4844 67.5146z" />
    <glyph glyph-name="a" unicode="&#xe2;" horiz-adv-x="305" 
d="M307.108 161.652c5.8584 12.6875 33.6973 12.959 26.0869 -4.30762c-19.626 -44.54 -39.374 -89.7109 -67.8447 -129.472c-21.6914 -30.2998 -64.165 -48.834 -94.791 -18.3545c-28.3164 28.1777 -35.1201 77.6104 -37.5928 119.033
c-3.60547 -15.2666 -7.8916 -30.3291 -13.5264 -44.833c-9.96191 -25.6436 -26.5527 -49.7793 -56.6738 -50.5049c-28.6504 -0.692383 -57.085 15.2705 -70.3955 40.2744c-31.9746 60.0664 -10.5029 154.557 31.7148 204.747
c20.6934 24.6006 51.0586 43.3545 83.9219 42.833c12.1123 -0.191406 22.3467 -3.28809 31.0898 -8.49902c0.358398 0.297852 0.688477 0.611328 1.07129 0.884766c0.0732422 0.366211 0.138672 0.732422 0.211914 1.09863c8.2627 39.9844 90.7666 57.8213 86.2568 5.21875
c-6.90137 -80.5312 -19.6904 -161.377 -15.543 -242.512c0.484375 -9.46484 1.47852 -18.6484 3.20215 -27.9707c0.823242 -4.43652 2.73438 -23.4717 6.75977 -25.7451c11.1348 -6.29492 30.0146 29.9941 33.7793 36.0566c20.1963 32.5166 36.2529 67.3594 52.2725 102.052
zM109.657 164.874c6.87695 34.0889 12.8418 68.3857 18.4844 102.72c-10.8701 10.6787 -24.3066 16.4678 -38.0244 2.57031c-12.418 -12.585 -19.2256 -32.7041 -24.9785 -48.9766c-14.582 -41.2354 -20.9424 -88.835 -12.4473 -132.075
c1.53223 -7.79785 4.2168 -26.9307 14.834 -28.7314c14.4355 -2.44824 22.7959 28.2676 25.6475 36.9785c7.19922 21.9688 11.917 44.8779 16.4844 67.5146z" />
    <glyph glyph-name="a" unicode="&#xe1;" horiz-adv-x="305" 
d="M307.108 161.652c5.8584 12.6875 33.6973 12.959 26.0869 -4.30762c-19.626 -44.54 -39.374 -89.7109 -67.8447 -129.472c-21.6914 -30.2998 -64.165 -48.834 -94.791 -18.3545c-28.3164 28.1777 -35.1201 77.6104 -37.5928 119.033
c-3.60547 -15.2666 -7.8916 -30.3291 -13.5264 -44.833c-9.96191 -25.6436 -26.5527 -49.7793 -56.6738 -50.5049c-28.6504 -0.692383 -57.085 15.2705 -70.3955 40.2744c-31.9746 60.0664 -10.5029 154.557 31.7148 204.747
c20.6934 24.6006 51.0586 43.3545 83.9219 42.833c12.1123 -0.191406 22.3467 -3.28809 31.0898 -8.49902c0.358398 0.297852 0.688477 0.611328 1.07129 0.884766c0.0732422 0.366211 0.138672 0.732422 0.211914 1.09863c8.2627 39.9844 90.7666 57.8213 86.2568 5.21875
c-6.90137 -80.5312 -19.6904 -161.377 -15.543 -242.512c0.484375 -9.46484 1.47852 -18.6484 3.20215 -27.9707c0.823242 -4.43652 2.73438 -23.4717 6.75977 -25.7451c11.1348 -6.29492 30.0146 29.9941 33.7793 36.0566c20.1963 32.5166 36.2529 67.3594 52.2725 102.052
zM109.657 164.874c6.87695 34.0889 12.8418 68.3857 18.4844 102.72c-10.8701 10.6787 -24.3066 16.4678 -38.0244 2.57031c-12.418 -12.585 -19.2256 -32.7041 -24.9785 -48.9766c-14.582 -41.2354 -20.9424 -88.835 -12.4473 -132.075
c1.53223 -7.79785 4.2168 -26.9307 14.834 -28.7314c14.4355 -2.44824 22.7959 28.2676 25.6475 36.9785c7.19922 21.9688 11.917 44.8779 16.4844 67.5146z" />
    <glyph glyph-name="b" unicode="b" horiz-adv-x="366" 
d="M369.581 134.738c10.9023 11.4326 37.8721 4.62012 23.3105 -10.6465c-24.042 -25.2197 -61.2109 -30.3652 -93.793 -37.5156c-5.62207 -1.23438 -11.2686 -2.44824 -16.9199 -3.66602c-9.17969 -53.1523 -34.0732 -102.21 -82.5654 -127.768
c-27.6768 -14.5898 -77.4883 -21.5605 -102.646 2.6123c-27.8555 26.7676 2.37598 63.1592 23.7617 82.0879c22.6533 20.0449 49.6816 34.1699 77.9932 44.6123c6.15625 40.1074 3.97656 82.1904 0.456055 121.279c-1.43457 15.9668 -2.56738 32.6016 -7.27734 48.0352
c-3.62988 11.8887 -7.87109 29.2285 -18.5176 36.415c-32.9033 22.2168 -57.7275 -50.6025 -65 -71.8945c-17.2012 -50.3623 -25.9893 -102.888 -32.915 -155.556c0.260742 -19.3896 -0.896484 -38.2246 -8.22559 -56.9619
c-4.50195 -11.5176 -24.4248 -25.3574 -35.7432 -13.5059c-17.6094 18.4443 -22.8613 40.9912 -28.0439 65.2822c-5.41895 25.3867 -9.51367 51.4619 -12.207 77.2725c-5.16602 49.502 -8.14844 99.2119 -8.24219 148.983
c-0.0976562 51.1934 1.91113 102.387 5.94824 153.421c4.09082 51.7393 7.85156 104.839 24.9346 154.19c5.99707 17.3242 21.0186 28.5654 38.8926 31.6045c13.3594 2.26953 34.0928 -2.33008 34.6914 -19.5068c1.75977 -50.6631 -7.63184 -101.665 -11.9873 -152.063
c-4.15527 -48.1084 -6.16797 -96.4375 -6.47754 -144.722c-0.232422 -36.1875 0.15918 -72.375 1.29199 -108.542c10.2178 37.1006 24.4287 76.6904 52.0234 102.721c29.7666 28.084 63.9209 23.3086 96.7959 3.38184c34.7861 -21.0879 51.2666 -60.7959 59.6553 -98.9551
c6.56348 -29.8477 9.36621 -63.9941 6.52637 -97.7129c6.49414 1.40527 12.9844 2.81055 19.4629 4.26074c20.1758 4.52246 49.8242 7.12988 64.8174 22.8564zM176.581 14.4531c7.24414 13.7021 12.5928 28.1533 16.5371 43.0488
c-2.08594 -0.883789 -4.19238 -1.69434 -6.25391 -2.63184c-14.6758 -6.67773 -28.6748 -14.6836 -41.248 -24.8164c-10.125 -8.16504 -30.2148 -24.3604 -27.3428 -39.6758c3.47949 -18.5625 26.5234 -13.8604 36.2002 -5.19824
c9.1709 8.20996 16.3828 18.4482 22.1074 29.2734z" />
    <glyph glyph-name="c" unicode="c" horiz-adv-x="233" 
d="M234.559 164.24c5.88281 12.915 34.0234 13.2246 26.4736 -4.37598c-25.1875 -58.7021 -55.3984 -124.795 -109.729 -162.421c-22.249 -15.4092 -49.7139 -22.8564 -76.71 -23.125c-30.0068 -0.292969 -53.165 16.1182 -69.0869 40.5479
c-34.1914 52.4639 -29.7461 128.958 -17.417 187.399c12.7969 60.6455 43.7979 119.368 104.003 143.361c23.708 9.44824 48.7568 7.63965 65.4531 -13.1309c16.3828 -20.375 13.8359 -46.1689 10.5068 -70.4922c-1.67871 -12.2676 -31.5996 -19.9189 -30.3818 -4.99512
c1.09961 13.4854 3.01074 28.8945 -1.64648 41.9443c-4.2207 11.8154 -15.3887 24.8447 -24.7109 11.2568c-12.0928 -17.6338 -22.1523 -37.374 -29.1475 -57.6113c-17.8291 -51.5879 -26.3809 -105.531 -20.498 -160.041c2.65625 -24.5879 6.9873 -50.667 21.7441 -71.2012
c8.74707 -12.1699 17.3721 -19.3281 32.9033 -14.9893c12.5732 3.51172 23.8301 12.5605 33.1807 21.4102c39.2354 37.1367 63.0049 88.0449 85.0625 136.463z" />
    <glyph glyph-name="d" unicode="d" horiz-adv-x="354" 
d="M353.458 169.997c4.64062 12.8867 35.3076 18.583 29.7051 1.79688c-22.0869 -66.1377 -61.7168 -203.493 -155.963 -187.534c-36.5293 6.18848 -55.2871 40.7422 -66.2266 75.9395c-11.3145 36.4033 -16.9814 74.2412 -20.1426 112.271
c-5.37793 -30.0391 -11.3916 -60.4287 -22.3916 -88.749c-9.96191 -25.6436 -26.5527 -49.7793 -56.6738 -50.5049c-28.6504 -0.692383 -57.085 15.2705 -70.3955 40.2744c-31.9746 60.0664 -10.5029 154.557 31.7148 204.747
c20.6934 24.6006 51.0547 43.3545 83.9219 42.833c11.1836 -0.174805 20.7422 -2.85547 29.0293 -7.35352c0 97.6152 6.14844 195.968 17.4785 292.287c2.3916 20.3262 28.1201 34.1865 45.7656 37.1855c14.6758 2.49707 41.4229 -2.66113 40.8242 -22.9512
c-1.70312 -57.5283 -5.76953 -114.955 -9.17969 -172.414c-6.57617 -110.767 -9.53418 -222.01 -1.14941 -332.74c2.45703 -32.4844 5.59863 -69.043 19.6748 -92.71c2.03711 -3.42676 7.00391 -9.83105 17.6377 -6.14746c15.1562 5.24805 29.001 29.7832 36.8926 42.3438
c21.7158 34.5703 35.7109 73.2061 49.4775 111.427zM108.645 164.872c6.87695 34.0889 12.8447 68.3857 18.4834 102.72c-10.8701 10.6787 -24.3066 16.4678 -38.0244 2.57031c-12.418 -12.585 -19.2256 -32.7041 -24.9785 -48.9766
c-14.582 -41.2354 -20.9375 -88.835 -12.4463 -132.075c1.53223 -7.79785 4.2168 -26.9307 14.834 -28.7314c14.4355 -2.44824 22.7959 28.2676 25.6475 36.9785c7.19922 21.9688 11.917 44.8779 16.4844 67.5146z" />
    <glyph glyph-name="e" unicode="e" horiz-adv-x="214" 
d="M215.56 166.868c4.44531 10.7559 32.5547 13.5293 27.2783 -1.29297c-22.2002 -62.2998 -50.4023 -145.146 -118.198 -171.041c-24.4697 -9.35059 -57.6338 -10.8828 -82.0752 -0.611328c-25.5703 10.7441 -41.6719 36.4971 -49.9141 61.8711
c-21.3574 65.7295 -17.251 145.748 9.5127 209.318c14.333 34.0527 33.9346 60.6045 69.002 74.9297c22.3838 9.14648 51.8896 13.0293 70.7373 -5.67188c18.6602 -18.5137 8.36426 -46.2715 -7.21582 -62.8213c-16.0977 -17.1035 -36.9619 -27.6396 -59.2314 -33.498
c-9.1748 -43.5049 -14.3086 -86.5938 -11.8887 -131.806c1.12402 -21.0107 0.919922 -44.2295 9.17871 -63.9697c3.87012 -9.24414 10.7803 -21.793 20.709 -25.7617c13.5957 -5.43555 30.9033 3.6416 41.5615 11.5859c42.1768 31.4365 61.2686 92.1143 80.5439 138.769z
M111.639 313.585c-20.4287 11.2939 -27.2451 -36.9453 -30.0439 -48.5771c7.19531 2.57129 14.0527 6.01367 20.4043 10.7803c9.63965 7.23145 27.9453 27.6719 9.63965 37.7969z" />
    <glyph glyph-name="e" unicode="&#xeb;" horiz-adv-x="214" 
d="M215.56 166.868c4.44531 10.7559 32.5547 13.5293 27.2783 -1.29297c-22.2002 -62.2998 -50.4023 -145.146 -118.198 -171.041c-24.4697 -9.35059 -57.6338 -10.8828 -82.0752 -0.611328c-25.5703 10.7441 -41.6719 36.4971 -49.9141 61.8711
c-21.3574 65.7295 -17.251 145.748 9.5127 209.318c14.333 34.0527 33.9346 60.6045 69.002 74.9297c22.3838 9.14648 51.8896 13.0293 70.7373 -5.67188c18.6602 -18.5137 8.36426 -46.2715 -7.21582 -62.8213c-16.0977 -17.1035 -36.9619 -27.6396 -59.2314 -33.498
c-9.1748 -43.5049 -14.3086 -86.5938 -11.8887 -131.806c1.12402 -21.0107 0.919922 -44.2295 9.17871 -63.9697c3.87012 -9.24414 10.7803 -21.793 20.709 -25.7617c13.5957 -5.43555 30.9033 3.6416 41.5615 11.5859c42.1768 31.4365 61.2686 92.1143 80.5439 138.769z
M111.639 313.585c-20.4287 11.2939 -27.2451 -36.9453 -30.0439 -48.5771c7.19531 2.57129 14.0527 6.01367 20.4043 10.7803c9.63965 7.23145 27.9453 27.6719 9.63965 37.7969z" />
    <glyph glyph-name="e" unicode="&#xea;" horiz-adv-x="214" 
d="M215.56 166.868c4.44531 10.7559 32.5547 13.5293 27.2783 -1.29297c-22.2002 -62.2998 -50.4023 -145.146 -118.198 -171.041c-24.4697 -9.35059 -57.6338 -10.8828 -82.0752 -0.611328c-25.5703 10.7441 -41.6719 36.4971 -49.9141 61.8711
c-21.3574 65.7295 -17.251 145.748 9.5127 209.318c14.333 34.0527 33.9346 60.6045 69.002 74.9297c22.3838 9.14648 51.8896 13.0293 70.7373 -5.67188c18.6602 -18.5137 8.36426 -46.2715 -7.21582 -62.8213c-16.0977 -17.1035 -36.9619 -27.6396 -59.2314 -33.498
c-9.1748 -43.5049 -14.3086 -86.5938 -11.8887 -131.806c1.12402 -21.0107 0.919922 -44.2295 9.17871 -63.9697c3.87012 -9.24414 10.7803 -21.793 20.709 -25.7617c13.5957 -5.43555 30.9033 3.6416 41.5615 11.5859c42.1768 31.4365 61.2686 92.1143 80.5439 138.769z
M111.639 313.585c-20.4287 11.2939 -27.2451 -36.9453 -30.0439 -48.5771c7.19531 2.57129 14.0527 6.01367 20.4043 10.7803c9.63965 7.23145 27.9453 27.6719 9.63965 37.7969z" />
    <glyph glyph-name="e" unicode="&#xe9;" horiz-adv-x="214" 
d="M215.56 166.868c4.44531 10.7559 32.5547 13.5293 27.2783 -1.29297c-22.2002 -62.2998 -50.4023 -145.146 -118.198 -171.041c-24.4697 -9.35059 -57.6338 -10.8828 -82.0752 -0.611328c-25.5703 10.7441 -41.6719 36.4971 -49.9141 61.8711
c-21.3574 65.7295 -17.251 145.748 9.5127 209.318c14.333 34.0527 33.9346 60.6045 69.002 74.9297c22.3838 9.14648 51.8896 13.0293 70.7373 -5.67188c18.6602 -18.5137 8.36426 -46.2715 -7.21582 -62.8213c-16.0977 -17.1035 -36.9619 -27.6396 -59.2314 -33.498
c-9.1748 -43.5049 -14.3086 -86.5938 -11.8887 -131.806c1.12402 -21.0107 0.919922 -44.2295 9.17871 -63.9697c3.87012 -9.24414 10.7803 -21.793 20.709 -25.7617c13.5957 -5.43555 30.9033 3.6416 41.5615 11.5859c42.1768 31.4365 61.2686 92.1143 80.5439 138.769z
M111.639 313.585c-20.4287 11.2939 -27.2451 -36.9453 -30.0439 -48.5771c7.19531 2.57129 14.0527 6.01367 20.4043 10.7803c9.63965 7.23145 27.9453 27.6719 9.63965 37.7969z" />
    <glyph glyph-name="f" unicode="f" horiz-adv-x="264" 
d="M270.919 157.664c9.20801 11.8232 33.582 5.74805 21.7178 -9.91309c-45.4072 -59.8789 -109.923 -100.512 -169.162 -145.736c39.7031 -10.4834 68.5859 -44.3203 76.7666 -86.6475c9.77832 -50.5898 -8.58887 -111.748 -65.5596 -120.446
c-52.9775 -8.08691 -88.4316 36.917 -108.904 80.5361c-25.248 53.792 -35.3975 114.547 -40.0586 173.383c-4.99121 62.9639 -3.10059 125.911 5.63477 188.455c8.02246 57.4346 21.5166 120.684 51.9678 170.797c22.5635 37.1328 62.8252 85.2578 110.95 83.2617
c56.1553 -2.32617 65.4971 -66.1533 61.7002 -110.135c-8.73145 -101.188 -76.0137 -180.262 -145.468 -249.564c0.0976562 -12.1416 0.362305 -24.2344 0.810547 -36.2285c1.18164 -31.6289 3.2998 -64.6709 7.64258 -97.5791
c0.810547 1.00195 1.73926 1.96777 2.82715 2.85156c63.4648 51.5479 138.17 91.541 189.135 156.966zM93.752 357.998c-14.6914 -61.3252 -21.5537 -126.253 -22.9922 -190.378c51.5674 53.54 97.6191 113.325 111.472 187.754
c4.00098 21.5078 5.64746 44.7559 1.42285 66.3818c-3.47559 17.792 -20.5508 48.9395 -43.2725 37.9756c-15.2783 -7.37012 -23.6592 -27.6436 -28.96 -42.6367c-6.83203 -19.3242 -12.8945 -39.1699 -17.6699 -59.0967zM168.432 -99.7363
c-5.52441 40.8486 -36.5244 79.834 -80.6123 78.7627c-2.47754 -0.0566406 -4.54297 0.326172 -6.2666 1.00293c7.40723 -46.7686 19.8301 -92.6973 41.1992 -133.293c3.39746 -6.4541 9.88379 -18.542 17.1846 -21.3984c12.3613 -4.83984 20.4443 11.1924 23.8135 20.1924
c6.36816 17.0137 7.09766 36.8721 4.68164 54.7334z" />
    <glyph glyph-name="g" unicode="g" horiz-adv-x="288" 
d="M296.167 169.275c13.6934 11.876 33.2715 -2.23145 17.3984 -16.0918c-29.7832 -26.0186 -61.2246 -49.9834 -94.3809 -71.5078c-2.08594 -53.915 -2.33887 -111.146 -21.1416 -162.274c-22.1562 -60.2422 -105.744 -144.352 -172.949 -89.8301
c-25.5088 20.6973 -34.2803 57.4434 -27.8145 88.6641c7.9082 38.1797 35.7803 69.3115 65.209 93.1338c24.4902 19.8213 51.7021 35.7109 79.0732 51.2666c-0.855469 30.9521 -1.89844 61.9043 -2.87598 92.8564c-4.68945 -24.4248 -10.3164 -48.7803 -19.2471 -71.7715
c-9.96191 -25.6436 -26.5527 -49.7793 -56.6738 -50.5049c-28.6504 -0.692383 -57.085 15.2705 -70.3955 40.2744c-31.9746 60.0664 -10.5029 154.557 31.7148 204.747c20.6934 24.6006 51.0586 43.3545 83.9219 42.833
c10.9844 -0.174805 20.4082 -2.75781 28.5938 -7.11328c5.56543 31.2451 64.8984 53.417 72.4932 14.9883c13.9336 -70.4883 13.7139 -146.017 11.1875 -218.404c26.4014 18.0811 51.6982 37.752 75.8867 58.7344zM109.648 164.873
c6.87695 34.0889 12.8457 68.3857 18.4844 102.72c-10.8701 10.6787 -24.3066 16.4678 -38.0244 2.57031c-12.418 -12.585 -19.2256 -32.7041 -24.9785 -48.9766c-14.582 -41.2354 -20.9424 -88.835 -12.4473 -132.075c1.53223 -7.79785 4.2168 -26.9307 14.834 -28.7314
c14.4355 -2.44824 22.7959 28.2676 25.6475 36.9785c7.19922 21.9688 11.917 44.8779 16.4844 67.5146zM76.2031 -159.617c65.5713 -6.94629 67.0811 84.7617 66.9463 129.953c-0.0654297 21.8711 -0.452148 43.7422 -0.949219 65.6123
c-16.0889 -9.45996 -31.9541 -19.2705 -47.0576 -30.251c-30.3242 -22.042 -61.8301 -51.7109 -66.9551 -90.9463c-4.09863 -31.4004 13.2051 -70.6807 48.0156 -74.3682z" />
    <glyph glyph-name="h" unicode="h" horiz-adv-x="334" 
d="M331.312 156.038c4.9541 13.5713 37.0625 18.998 30.9551 1.87012c-13.8203 -38.7461 -26.8135 -77.9199 -41.6152 -116.304c-10.377 -26.9141 -26.1807 -51.0381 -53.9873 -62.0469c-26.8701 -10.6377 -60.2061 -8.25 -79.7295 14.1787
c-24.3555 27.9775 -22.6113 69.9053 -24.5918 105.001c-2.26562 40.1436 -0.933594 79.8311 1.8125 119.877c1.17383 17.165 5.48047 37.2793 3.21094 54.3545c-3.51172 26.4053 -24.1641 -9.59082 -28.3447 -17.4463
c-36.5947 -68.7773 -57.2793 -145.471 -63.8311 -222.897c-0.146484 -1.68652 -0.847656 -3.25879 -1.89844 -4.70508c-1.2627 -7.41895 -3.17773 -14.793 -6.05371 -22.1514c-4.50195 -11.5176 -24.4248 -25.3574 -35.7432 -13.5059
c-17.6094 18.4443 -22.8613 40.9912 -28.0439 65.2822c-5.41895 25.3867 -9.51367 51.4619 -12.207 77.2725c-5.16602 49.502 -8.14844 99.2119 -8.24219 148.983c-0.0976562 51.1934 1.91113 102.387 5.94824 153.421c4.09082 51.7393 7.85156 104.839 24.9346 154.19
c5.99707 17.3242 21.0225 28.5654 38.8926 31.6045c13.3594 2.26953 34.0977 -2.33008 34.6924 -19.5068c1.75977 -50.6631 -7.63184 -101.665 -11.9873 -152.063c-4.15527 -48.1084 -6.16797 -96.4375 -6.47754 -144.722
c-0.301758 -47.0254 0.456055 -94.0586 2.5498 -141.039c7.95703 25.4316 17.6133 50.3701 29.0703 74.6689c12.0312 25.5166 25.7939 55.1123 53.0674 67.4775c27.8555 12.6299 49.6611 -9.71289 62.6055 -33.1357c17.0586 -30.8711 19.1689 -73.3125 23.2314 -107.573
c4.53418 -38.2529 9.53711 -76.6523 12.9189 -114.999c0.725586 -8.20996 -0.251953 -17.7803 1.41016 -25.7451c0.680664 -3.26367 3.75293 -15.4414 6.02246 -18.2979c1.2793 0.09375 3.09277 0.208008 5.57812 0.338867c1.97168 1.18164 3.94727 2.36719 5.91895 3.54883
c7.99805 5.25977 12.4883 16.5781 16.1719 25.0156c16.8223 38.5586 29.3467 79.5332 43.7617 119.054z" />
    <glyph glyph-name="i" unicode="i" horiz-adv-x="157" 
d="M159.553 161.652c5.86328 12.6875 33.6973 12.958 26.0869 -4.30859c-19.626 -44.54 -39.374 -89.7109 -67.8447 -129.472c-21.6914 -30.2998 -64.165 -48.834 -94.791 -18.3545c-33.5518 33.3887 -36.9248 96.6699 -38.6445 141.043
c-2.08984 53.9551 -2.50977 110.885 8.46582 163.992c8.2627 39.9844 90.7666 57.8213 86.2568 5.21875c-6.90137 -80.5312 -19.6904 -161.377 -15.543 -242.512c0.484375 -9.46484 1.47852 -18.6484 3.20215 -27.9707c0.823242 -4.43652 2.73438 -23.4717 6.75977 -25.7451
c11.1348 -6.29492 30.0146 29.9941 33.7793 36.0566c20.1963 32.5166 36.2529 67.3594 52.2725 102.052zM27.835 397.529c-3.25488 -0.00390625 -6.27539 0.981445 -8.41406 3.44238c-18.167 20.9014 -30.7402 44.8662 -36.4561 72.0576
c-4.10645 19.54 -8.34375 52.9365 5.74121 69.7549c16.1709 19.3076 39.5732 10.1279 50.2354 -8.87012c4.80371 -8.55957 7.9082 -17.7998 10.2139 -27.3379c5.90723 11.1025 12.8457 21.6553 20.9043 31.3643c13.0986 15.7793 43.5498 42.1279 65.2129 25.5049
c23.085 -17.7148 -4.34277 -58.0215 -15.5225 -74.3555c-20.7744 -30.3447 -45.293 -57.9482 -71.2256 -83.9541c-4.69727 -4.70996 -13.4736 -9.56641 -20.6895 -7.60645z" />
    <glyph glyph-name="i" unicode="&#xef;" horiz-adv-x="157" 
d="M159.553 161.652c5.86328 12.6875 33.6973 12.958 26.0869 -4.30859c-19.626 -44.54 -39.374 -89.7109 -67.8447 -129.472c-21.6914 -30.2998 -64.165 -48.834 -94.791 -18.3545c-33.5518 33.3887 -36.9248 96.6699 -38.6445 141.043
c-2.08984 53.9551 -2.50977 110.885 8.46582 163.992c8.2627 39.9844 90.7666 57.8213 86.2568 5.21875c-6.90137 -80.5312 -19.6904 -161.377 -15.543 -242.512c0.484375 -9.46484 1.47852 -18.6484 3.20215 -27.9707c0.823242 -4.43652 2.73438 -23.4717 6.75977 -25.7451
c11.1348 -6.29492 30.0146 29.9941 33.7793 36.0566c20.1963 32.5166 36.2529 67.3594 52.2725 102.052zM27.835 397.529c-3.25488 -0.00390625 -6.27539 0.981445 -8.41406 3.44238c-18.167 20.9014 -30.7402 44.8662 -36.4561 72.0576
c-4.10645 19.54 -8.34375 52.9365 5.74121 69.7549c16.1709 19.3076 39.5732 10.1279 50.2354 -8.87012c4.80371 -8.55957 7.9082 -17.7998 10.2139 -27.3379c5.90723 11.1025 12.8457 21.6553 20.9043 31.3643c13.0986 15.7793 43.5498 42.1279 65.2129 25.5049
c23.085 -17.7148 -4.34277 -58.0215 -15.5225 -74.3555c-20.7744 -30.3447 -45.293 -57.9482 -71.2256 -83.9541c-4.69727 -4.70996 -13.4736 -9.56641 -20.6895 -7.60645z" />
    <glyph glyph-name="i" unicode="&#xee;" horiz-adv-x="157" 
d="M159.553 161.652c5.86328 12.6875 33.6973 12.958 26.0869 -4.30859c-19.626 -44.54 -39.374 -89.7109 -67.8447 -129.472c-21.6914 -30.2998 -64.165 -48.834 -94.791 -18.3545c-33.5518 33.3887 -36.9248 96.6699 -38.6445 141.043
c-2.08984 53.9551 -2.50977 110.885 8.46582 163.992c8.2627 39.9844 90.7666 57.8213 86.2568 5.21875c-6.90137 -80.5312 -19.6904 -161.377 -15.543 -242.512c0.484375 -9.46484 1.47852 -18.6484 3.20215 -27.9707c0.823242 -4.43652 2.73438 -23.4717 6.75977 -25.7451
c11.1348 -6.29492 30.0146 29.9941 33.7793 36.0566c20.1963 32.5166 36.2529 67.3594 52.2725 102.052zM27.835 397.529c-3.25488 -0.00390625 -6.27539 0.981445 -8.41406 3.44238c-18.167 20.9014 -30.7402 44.8662 -36.4561 72.0576
c-4.10645 19.54 -8.34375 52.9365 5.74121 69.7549c16.1709 19.3076 39.5732 10.1279 50.2354 -8.87012c4.80371 -8.55957 7.9082 -17.7998 10.2139 -27.3379c5.90723 11.1025 12.8457 21.6553 20.9043 31.3643c13.0986 15.7793 43.5498 42.1279 65.2129 25.5049
c23.085 -17.7148 -4.34277 -58.0215 -15.5225 -74.3555c-20.7744 -30.3447 -45.293 -57.9482 -71.2256 -83.9541c-4.69727 -4.70996 -13.4736 -9.56641 -20.6895 -7.60645z" />
    <glyph glyph-name="i" unicode="&#xed;" horiz-adv-x="157" 
d="M159.553 161.652c5.86328 12.6875 33.6973 12.958 26.0869 -4.30859c-19.626 -44.54 -39.374 -89.7109 -67.8447 -129.472c-21.6914 -30.2998 -64.165 -48.834 -94.791 -18.3545c-33.5518 33.3887 -36.9248 96.6699 -38.6445 141.043
c-2.08984 53.9551 -2.50977 110.885 8.46582 163.992c8.2627 39.9844 90.7666 57.8213 86.2568 5.21875c-6.90137 -80.5312 -19.6904 -161.377 -15.543 -242.512c0.484375 -9.46484 1.47852 -18.6484 3.20215 -27.9707c0.823242 -4.43652 2.73438 -23.4717 6.75977 -25.7451
c11.1348 -6.29492 30.0146 29.9941 33.7793 36.0566c20.1963 32.5166 36.2529 67.3594 52.2725 102.052zM27.835 397.529c-3.25488 -0.00390625 -6.27539 0.981445 -8.41406 3.44238c-18.167 20.9014 -30.7402 44.8662 -36.4561 72.0576
c-4.10645 19.54 -8.34375 52.9365 5.74121 69.7549c16.1709 19.3076 39.5732 10.1279 50.2354 -8.87012c4.80371 -8.55957 7.9082 -17.7998 10.2139 -27.3379c5.90723 11.1025 12.8457 21.6553 20.9043 31.3643c13.0986 15.7793 43.5498 42.1279 65.2129 25.5049
c23.085 -17.7148 -4.34277 -58.0215 -15.5225 -74.3555c-20.7744 -30.3447 -45.293 -57.9482 -71.2256 -83.9541c-4.69727 -4.70996 -13.4736 -9.56641 -20.6895 -7.60645z" />
    <glyph glyph-name="j" unicode="j" horiz-adv-x="153" 
d="M160.928 169.275c13.6934 11.876 33.2715 -2.23145 17.4023 -16.1006c-29.7832 -26.0186 -61.2246 -49.9834 -94.3809 -71.5078c-2.08594 -53.915 -2.33887 -111.146 -21.1416 -162.274c-22.1562 -60.2422 -105.744 -144.352 -172.949 -89.8301
c-25.5088 20.6973 -34.2803 57.4434 -27.8145 88.6641c7.9082 38.1797 35.7803 69.3115 65.209 93.1338c24.4863 19.8213 51.6982 35.7109 79.0693 51.2666c-2.27734 82.3125 -6.10742 164.625 -5.42285 246.872c0.28125 33.4902 65.001 59.6797 72.9541 19.4463
c13.9336 -70.4883 13.7139 -146.017 11.1875 -218.404c26.4014 18.0811 51.6982 37.752 75.8867 58.7344zM-59.0361 -159.617c65.5713 -6.94629 67.0811 84.7617 66.9463 129.953c-0.0654297 21.8711 -0.452148 43.7422 -0.949219 65.6123
c-16.0889 -9.45996 -31.9541 -19.2705 -47.0576 -30.251c-30.3242 -22.042 -61.8301 -51.7109 -66.9551 -90.9463c-4.09863 -31.4004 13.2051 -70.6807 48.0156 -74.3682zM23.5879 392.763c-22.3027 15.4863 -40.3018 36.2998 -51.9258 60.916
c-8.64941 18.3174 -21.3574 50.6299 -8.8125 69.3711c14.5576 21.7441 40.2051 11.9092 53.8457 -4.51855c4.54297 -5.47168 8.37305 -11.3711 11.7949 -17.5146c2.94141 11.6807 6.90527 23.1133 12.1328 34.0645c9.37891 19.6416 32.5 49.9053 58.3672 39.5566
c27.623 -11.0498 11.2529 -56.2012 4.29004 -75.0117c-12.7275 -34.3906 -29.7012 -67.0537 -48.4268 -98.5234c-3.25977 -5.47949 -10.5449 -8.72656 -17.3486 -9.44727c-4.9707 -1.50781 -10.165 -1.5 -13.917 1.10742z" />
    <glyph glyph-name="k" unicode="k" horiz-adv-x="357" 
d="M355.888 142.687c3.66699 14.0117 35.041 19.585 30.5312 1.85742c-18.0039 -70.9082 -62.5439 -195.992 -155.845 -183.313c-21.7686 2.95801 -46.3604 10.6094 -62.1973 26.2832c-17.3398 17.165 -25.5947 39.7529 -32.3701 62.6338
c-7.3623 24.8652 -11.6807 50.7656 -16.6475 76.2051c-2.5957 13.2939 -5.97754 26.6416 -6.66992 40.1113c-0.125977 2.48926 0.712891 10.2627 0.615234 16.0762c-15.7998 -38.8926 -27.6963 -79.9082 -37.8408 -119.746
c0.268555 -19.4102 -0.888672 -38.2617 -8.22266 -57.0156c-4.50195 -11.5176 -24.4248 -25.3574 -35.7432 -13.5059c-17.6094 18.4443 -22.8613 40.9912 -28.0439 65.2822c-5.41895 25.3867 -9.51367 51.4619 -12.207 77.2725
c-5.16602 49.502 -8.14844 99.2119 -8.24219 148.983c-0.0976562 51.1934 1.91113 102.387 5.94824 153.421c4.09082 51.7393 7.85156 104.839 24.9346 154.19c5.99707 17.3242 21.0186 28.5654 38.8926 31.6045c13.3594 2.26953 34.0977 -2.33008 34.6924 -19.5068
c1.75977 -50.6631 -7.63184 -101.665 -11.9873 -152.063c-4.15527 -48.1084 -6.16797 -96.4375 -6.47754 -144.722c-0.322266 -50.1504 0.49707 -100.309 2.92969 -150.397c0.110352 -2.2168 0.1875 -4.44141 0.289062 -6.6582
c8.47461 23.4795 18.0654 46.5645 28.5977 69.1846c21.4385 46.043 54.5137 106.99 106.167 124.306c19.9512 6.68945 46.7969 4.48145 56.4121 -17.2959c9.06152 -20.5264 -2.46484 -45.1025 -13.751 -62.1572c-20.2656 -30.6387 -50.4072 -51.7109 -84.0811 -64.166
c1.76367 -1.41797 3.49512 -2.9541 5.14941 -4.79199c13.6328 -15.1484 19.166 -36.502 24.4053 -55.7695c10.4102 -38.2939 18.9902 -77.3662 34.252 -114.12c6.51465 -15.6904 10.5684 -35.332 31.6562 -34.7783c21.9561 0.578125 36.9326 23.4551 47.3184 40.2002
c21.6143 34.8467 37.166 72.7861 47.5352 112.396zM128.33 216.17c37.9434 5.22363 75.2285 24.0801 95.8643 57.3428c9.1748 14.7852 19.874 58.3223 -14.6064 45.374c-17.7275 -6.65723 -32.4971 -25.9004 -43.5869 -40.5518
c-14.4961 -19.1533 -26.8574 -40.1318 -37.6709 -62.165z" />
    <glyph glyph-name="l" unicode="l" horiz-adv-x="201" 
d="M200.455 169.997c4.64453 12.8867 35.3125 18.584 29.71 1.79395c-22.0908 -66.1377 -61.7207 -203.493 -155.967 -187.534c-36.5293 6.18848 -55.2871 40.7422 -66.2266 75.9395c-16.9199 54.4482 -21.2383 112.107 -23.3857 168.817
c-4.73438 125.075 1.30762 252.729 15.9258 376.99c2.3916 20.3262 28.1201 34.1865 45.7656 37.1855c14.6758 2.49707 41.4229 -2.66113 40.8242 -22.9512c-1.70312 -57.5283 -5.76953 -114.955 -9.17969 -172.414c-6.57617 -110.767 -9.53418 -222.01 -1.14941 -332.74
c2.45703 -32.4844 5.59863 -69.043 19.6748 -92.71c2.03711 -3.42676 7.00391 -9.83105 17.6377 -6.14746c15.1562 5.24805 29.001 29.7832 36.8926 42.3438c21.7158 34.5703 35.707 73.2061 49.4775 111.427z" />
    <glyph glyph-name="m" unicode="m" horiz-adv-x="465" 
d="M464.937 149.936c5.7002 13.9707 35.5781 14.0977 28.0039 -4.61914c-13.0703 -32.2725 -27.6152 -63.8965 -43.9648 -94.6445c-12.3447 -23.2148 -24.584 -52.3457 -47.1963 -67.4404c-22.2168 -14.8301 -51.5596 -14.3896 -74.4043 -0.59375
c-28.4463 17.1768 -31.1797 56.0781 -29.8594 85.6982c1.60938 36.1553 5.52051 72.0742 8.00586 108.151c0.631836 9.15918 10.2549 104.154 8.0791 104.814c-6.11133 1.85352 -20.5713 -22.9258 -23.3662 -27.2568c-8.36426 -12.9688 -15.3193 -26.8418 -21.3984 -41.0078
c-9.82324 -22.8896 -16.9854 -46.8379 -23.5898 -70.8682c0.493164 -4.86914 1.01074 -9.7334 1.38184 -14.6025c3.07617 -40.5146 -78.7598 -69.4619 -86.0693 -22.9424c-6.88965 43.8555 -9.16699 89.0713 -8.74707 133.448
c0.183594 19.0713 0.717773 38.2285 -3.07129 57.0186c-0.292969 1.4502 -0.716797 10.0469 -2.75391 10.5117c-1.53613 0.34668 -8.29492 -9.45215 -9.32617 -10.8379c-6.00977 -8.08301 -10.8906 -17.1895 -15.2822 -26.2305
c-18.3057 -37.6748 -28.8008 -79.6357 -38.3955 -120.228c-7.68359 -32.4961 -15.2617 -65.2617 -19.9385 -98.3809c-0.753906 -18.2363 -3.41016 -36.4648 -13.1963 -51.8008c-6.31934 -9.9043 -20.1436 -15.7549 -30.4795 -8.38477
c-21.3486 15.2217 -24.8203 48.6387 -28.0352 72.8477c-3.4834 26.2383 -5.38184 52.3418 -6.2334 78.7959c-1.78027 55.21 -2.75391 112.942 8.20215 167.289c5.83008 28.9189 77.7568 53.7188 77.7812 12.7891c0.0244141 -40.9053 -3.97656 -81.7988 -6.20117 -122.741
c11.0088 40.5752 25.0732 84.1328 52.8633 115.105c32.1455 35.8291 78.29 15.9424 96.3145 -23.3984c10.915 -23.8262 15.9219 -52.0693 20.7129 -77.6396c0.301758 -1.61328 0.566406 -3.23926 0.864258 -4.85645c10.5117 27.249 23.8838 53.1777 42.6299 75.7734
c15.7471 18.9863 35.833 29.8037 60.8281 24.3193c29.5996 -6.49414 40.3926 -35.7471 45.7832 -62.584c13.6973 -68.2354 -1.11719 -139.641 -2.36816 -208.386c-0.134766 -7.3252 -1.40234 -19.5801 0.777344 -26.4863
c2.88086 -9.11035 4.58398 -6.88574 11.5996 0.459961c10.9844 11.502 18.3389 30.2969 25.8311 44.3037c16.4316 30.7275 31.0625 62.3398 44.2188 94.6035z" />
    <glyph glyph-name="n" unicode="n" horiz-adv-x="338" 
d="M337.425 160.101c4.84473 10.2754 33.1885 14.665 28.0713 -1.34277c-11.7012 -36.5791 -27.0615 -72.4199 -43.5742 -107.08c-14.1826 -29.7705 -29.1152 -60.6611 -61.6973 -73.377c-34.248 -13.3633 -67.3672 -9.32617 -88.6426 22.873
c-20.498 31.0215 -18.7871 77.3213 -16.2773 112.877c2.82715 40.1074 12.0957 79.2363 15.9053 119.213c0.969727 10.1533 1.78906 20.2979 2.65723 30.4629c0.326172 3.80566 5.33789 24.3682 3.47168 27.0488c-2.96191 4.25781 -13.2539 -10.792 -16.2197 -14.8291
c-6.31055 -8.59668 -11.7129 -17.9883 -17.0381 -27.2119c-39.2637 -67.999 -62.1279 -142.537 -81.627 -218.151c-0.34668 -1.34473 -1.01465 -2.58691 -1.83789 -3.76855c-1.91113 -10.1533 -5.1543 -19.9033 -10.7686 -28.6992
c-6.31934 -9.9043 -20.1436 -15.7549 -30.4795 -8.38477c-21.3486 15.2217 -24.8203 48.6387 -28.0352 72.8477c-3.4834 26.2383 -5.38184 52.3418 -6.2334 78.7959c-1.78027 55.21 -2.75391 112.942 8.20215 167.289c5.83008 28.9189 77.7568 53.7188 77.7812 12.7891
c0.0371094 -54.3672 -7.05664 -108.718 -7.61035 -163.187c-0.0615234 -5.95215 -0.0820312 -11.9092 -0.0986328 -17.8613c12.1455 34.6885 26.7881 68.4844 44.1807 100.691c14.8096 27.4238 33.335 65.4814 64.666 77.0283
c27.0039 9.94922 54.1875 -10.2266 66.7529 -33.1973c18.1064 -33.0947 16.2402 -74.5215 16.1055 -110.962c-0.150391 -40.6084 0.318359 -81.0127 1.23535 -121.617c0.114258 -5.17383 -4.82422 -43.4883 2.3916 -46.124
c8.49902 -3.10449 27.1182 37.9316 29.9746 43.6602c17.9551 36.0205 31.6035 73.8623 48.7441 110.217z" />
    <glyph glyph-name="o" unicode="o" horiz-adv-x="261" 
d="M268.986 168.575c13.8281 10.6416 33.0908 -2.80273 16.9238 -15.6611c-22.832 -18.1504 -54.3467 -29.208 -86.04 -34.1133c-11.2324 -70.293 -42.1113 -144.176 -119.302 -143.21c-125.426 1.56836 -106.208 151.407 -89.1455 235.524
c1.92676 9.49707 8.69043 17.5596 17.499 23.5c-8.35254 57.9561 16.7568 122.928 78.8076 136.137c96.7754 20.5996 119.11 -120.907 117.794 -186.649c-0.249023 -12.2754 -0.961914 -25.8018 -2.37207 -39.8867c23.8994 3.62598 48.7275 11.1914 65.835 24.3594z
M161.968 93.5654c1.8418 7.37012 3.37402 14.8213 4.73047 22.3057c-9.15527 -0.191406 -18.0693 0.118164 -26.5029 0.949219c-29.2129 2.87207 -57.4805 13.1758 -80.4473 30.5889c-2.51758 -20.5342 -3.89453 -41.1699 -2.76562 -62.1152
c1.77246 -32.8789 11.1514 -71.4375 52.3457 -68.9111c34.4111 2.11035 45.8926 50.1748 52.6396 77.1826zM170.405 141.543c2.27734 20.9053 2.87207 42.0049 1.84082 62.9502c-1.70312 34.4678 -8.14062 69.7266 -24.7998 100.32
c-15.0996 27.7295 -46.0635 55.4141 -77.6309 32.1787c-28.2754 -20.8154 -35.6621 -57.0967 -29.6855 -91.5693c18.4727 1.25488 34.2363 -7.11328 30.4844 -29.5176c-1.6416 -9.79004 -3.34863 -19.5479 -4.99512 -29.3018
c2.7627 -3.51172 5.67578 -6.81152 8.75195 -9.78613c25.3662 -24.5225 61.2275 -35.6123 96.0342 -35.2744z" />
    <glyph glyph-name="o" unicode="&#xf6;" horiz-adv-x="261" 
d="M268.986 168.575c13.8281 10.6416 33.0908 -2.80273 16.9238 -15.6611c-22.832 -18.1504 -54.3467 -29.208 -86.04 -34.1133c-11.2324 -70.293 -42.1113 -144.176 -119.302 -143.21c-125.426 1.56836 -106.208 151.407 -89.1455 235.524
c1.92676 9.49707 8.69043 17.5596 17.499 23.5c-8.35254 57.9561 16.7568 122.928 78.8076 136.137c96.7754 20.5996 119.11 -120.907 117.794 -186.649c-0.249023 -12.2754 -0.961914 -25.8018 -2.37207 -39.8867c23.8994 3.62598 48.7275 11.1914 65.835 24.3594z
M161.968 93.5654c1.8418 7.37012 3.37402 14.8213 4.73047 22.3057c-9.15527 -0.191406 -18.0693 0.118164 -26.5029 0.949219c-29.2129 2.87207 -57.4805 13.1758 -80.4473 30.5889c-2.51758 -20.5342 -3.89453 -41.1699 -2.76562 -62.1152
c1.77246 -32.8789 11.1514 -71.4375 52.3457 -68.9111c34.4111 2.11035 45.8926 50.1748 52.6396 77.1826zM170.405 141.543c2.27734 20.9053 2.87207 42.0049 1.84082 62.9502c-1.70312 34.4678 -8.14062 69.7266 -24.7998 100.32
c-15.0996 27.7295 -46.0635 55.4141 -77.6309 32.1787c-28.2754 -20.8154 -35.6621 -57.0967 -29.6855 -91.5693c18.4727 1.25488 34.2363 -7.11328 30.4844 -29.5176c-1.6416 -9.79004 -3.34863 -19.5479 -4.99512 -29.3018
c2.7627 -3.51172 5.67578 -6.81152 8.75195 -9.78613c25.3662 -24.5225 61.2275 -35.6123 96.0342 -35.2744z" />
    <glyph glyph-name="o" unicode="&#xf5;" horiz-adv-x="261" 
d="M268.986 168.575c13.8281 10.6416 33.0908 -2.80273 16.9238 -15.6611c-22.832 -18.1504 -54.3467 -29.208 -86.04 -34.1133c-11.2324 -70.293 -42.1113 -144.176 -119.302 -143.21c-125.426 1.56836 -106.208 151.407 -89.1455 235.524
c1.92676 9.49707 8.69043 17.5596 17.499 23.5c-8.35254 57.9561 16.7568 122.928 78.8076 136.137c96.7754 20.5996 119.11 -120.907 117.794 -186.649c-0.249023 -12.2754 -0.961914 -25.8018 -2.37207 -39.8867c23.8994 3.62598 48.7275 11.1914 65.835 24.3594z
M161.968 93.5654c1.8418 7.37012 3.37402 14.8213 4.73047 22.3057c-9.15527 -0.191406 -18.0693 0.118164 -26.5029 0.949219c-29.2129 2.87207 -57.4805 13.1758 -80.4473 30.5889c-2.51758 -20.5342 -3.89453 -41.1699 -2.76562 -62.1152
c1.77246 -32.8789 11.1514 -71.4375 52.3457 -68.9111c34.4111 2.11035 45.8926 50.1748 52.6396 77.1826zM170.405 141.543c2.27734 20.9053 2.87207 42.0049 1.84082 62.9502c-1.70312 34.4678 -8.14062 69.7266 -24.7998 100.32
c-15.0996 27.7295 -46.0635 55.4141 -77.6309 32.1787c-28.2754 -20.8154 -35.6621 -57.0967 -29.6855 -91.5693c18.4727 1.25488 34.2363 -7.11328 30.4844 -29.5176c-1.6416 -9.79004 -3.34863 -19.5479 -4.99512 -29.3018
c2.7627 -3.51172 5.67578 -6.81152 8.75195 -9.78613c25.3662 -24.5225 61.2275 -35.6123 96.0342 -35.2744z" />
    <glyph glyph-name="o" unicode="&#xf4;" horiz-adv-x="261" 
d="M268.986 168.575c13.8281 10.6416 33.0908 -2.80273 16.9238 -15.6611c-22.832 -18.1504 -54.3467 -29.208 -86.04 -34.1133c-11.2324 -70.293 -42.1113 -144.176 -119.302 -143.21c-125.426 1.56836 -106.208 151.407 -89.1455 235.524
c1.92676 9.49707 8.69043 17.5596 17.499 23.5c-8.35254 57.9561 16.7568 122.928 78.8076 136.137c96.7754 20.5996 119.11 -120.907 117.794 -186.649c-0.249023 -12.2754 -0.961914 -25.8018 -2.37207 -39.8867c23.8994 3.62598 48.7275 11.1914 65.835 24.3594z
M161.968 93.5654c1.8418 7.37012 3.37402 14.8213 4.73047 22.3057c-9.15527 -0.191406 -18.0693 0.118164 -26.5029 0.949219c-29.2129 2.87207 -57.4805 13.1758 -80.4473 30.5889c-2.51758 -20.5342 -3.89453 -41.1699 -2.76562 -62.1152
c1.77246 -32.8789 11.1514 -71.4375 52.3457 -68.9111c34.4111 2.11035 45.8926 50.1748 52.6396 77.1826zM170.405 141.543c2.27734 20.9053 2.87207 42.0049 1.84082 62.9502c-1.70312 34.4678 -8.14062 69.7266 -24.7998 100.32
c-15.0996 27.7295 -46.0635 55.4141 -77.6309 32.1787c-28.2754 -20.8154 -35.6621 -57.0967 -29.6855 -91.5693c18.4727 1.25488 34.2363 -7.11328 30.4844 -29.5176c-1.6416 -9.79004 -3.34863 -19.5479 -4.99512 -29.3018
c2.7627 -3.51172 5.67578 -6.81152 8.75195 -9.78613c25.3662 -24.5225 61.2275 -35.6123 96.0342 -35.2744z" />
    <glyph glyph-name="o" unicode="&#xf3;" horiz-adv-x="261" 
d="M268.986 168.575c13.8281 10.6416 33.0908 -2.80273 16.9238 -15.6611c-22.832 -18.1504 -54.3467 -29.208 -86.04 -34.1133c-11.2324 -70.293 -42.1113 -144.176 -119.302 -143.21c-125.426 1.56836 -106.208 151.407 -89.1455 235.524
c1.92676 9.49707 8.69043 17.5596 17.499 23.5c-8.35254 57.9561 16.7568 122.928 78.8076 136.137c96.7754 20.5996 119.11 -120.907 117.794 -186.649c-0.249023 -12.2754 -0.961914 -25.8018 -2.37207 -39.8867c23.8994 3.62598 48.7275 11.1914 65.835 24.3594z
M161.968 93.5654c1.8418 7.37012 3.37402 14.8213 4.73047 22.3057c-9.15527 -0.191406 -18.0693 0.118164 -26.5029 0.949219c-29.2129 2.87207 -57.4805 13.1758 -80.4473 30.5889c-2.51758 -20.5342 -3.89453 -41.1699 -2.76562 -62.1152
c1.77246 -32.8789 11.1514 -71.4375 52.3457 -68.9111c34.4111 2.11035 45.8926 50.1748 52.6396 77.1826zM170.405 141.543c2.27734 20.9053 2.87207 42.0049 1.84082 62.9502c-1.70312 34.4678 -8.14062 69.7266 -24.7998 100.32
c-15.0996 27.7295 -46.0635 55.4141 -77.6309 32.1787c-28.2754 -20.8154 -35.6621 -57.0967 -29.6855 -91.5693c18.4727 1.25488 34.2363 -7.11328 30.4844 -29.5176c-1.6416 -9.79004 -3.34863 -19.5479 -4.99512 -29.3018
c2.7627 -3.51172 5.67578 -6.81152 8.75195 -9.78613c25.3662 -24.5225 61.2275 -35.6123 96.0342 -35.2744z" />
    <glyph glyph-name="p" unicode="p" horiz-adv-x="324" 
d="M336.107 155.59c18.0283 8.74316 28.0244 -11.8838 10.0527 -20.5908c-24.7148 -11.9863 -50.7783 -16.4023 -77.5459 -18.1055c-3.89062 -21.0312 -11.1631 -40.9824 -21.8945 -58.2617c-23.0322 -37.0762 -68.1504 -68.6758 -113.595 -56.4648
c-21.9033 5.88281 -34.3418 21.6299 -37.6582 39.9639c-0.134766 -1.46289 -0.265625 -2.94629 -0.400391 -4.39648c-4.75879 -51.291 -9.30957 -102.627 -12.9639 -154.02c2.16309 -34.207 3.70312 -70.3574 -5.06055 -101.469
c-4.4082 -15.6455 -30.4912 -26.7842 -40.9951 -11.0742c-12.3574 18.4727 -16.7617 43.1504 -21.2109 64.707c-4.56738 22.1396 -8.4541 44.3447 -11.4775 66.7412c-6.07031 44.9268 -10.8652 89.833 -13.6846 135.082c-2.90918 46.6709 -4.77148 93.3418 -4.66992 140.106
c0.0976562 46.3975 1.16504 93.3252 12.9766 138.436c7.08105 27.041 64.3896 49.5762 71.4873 11.7549c8.53516 -45.4893 5.72754 -92.1885 5.57715 -138.24c-0.0615234 -19.2627 -0.106445 -38.5254 -0.0654297 -57.7881
c0.819336 5.07227 1.63379 10.1445 2.54688 15.2051c7.7373 42.7842 17.793 88.1387 43.3184 124.229c22.0176 31.1318 57.7363 49.5596 91.2754 22.498c42.7881 -34.5176 62.9844 -95.3213 59.4561 -152.728c22.7422 1.46289 44.8203 4.85645 64.5312 14.415z
M172.096 58.1758c14.4551 14.9688 22.1611 36.0459 26.5 56.8242c-22.498 -1.81348 -44.4014 -7.27344 -57.9854 -23.7256c-10.7197 -12.9805 -17.2178 -37.8779 3.87012 -44.0137c10.9883 -3.19824 20.4326 3.47949 27.6152 10.915zM202.202 138.305
c3.47168 31.4492 1.20898 64.1416 -4.17676 95.1797c-2.69727 15.5518 -4.7666 36.5264 -20.5342 44.5645c-18.3955 9.375 -33.1523 -19.5156 -39.7646 -32.4229c-26.2422 -51.2139 -33.9346 -113.444 -39.3896 -171.959c1.66211 4.69336 3.81738 9.30957 6.5752 13.7217
c23.6758 37.874 58.9512 47.7744 97.29 50.916z" />
    <glyph glyph-name="q" unicode="q" horiz-adv-x="340" 
d="M352.037 162.867c17.6582 9.06543 27.2783 -11.2109 9.91016 -20.292c-30.2715 -15.8652 -61 -30.9033 -90.5908 -48.04c-13.5674 -7.85547 -27.0615 -16.1836 -39.333 -25.9785c-9.33789 -7.45605 -8.75098 -7.30566 1.05957 -13.0703
c7.05664 -4.14746 14.0723 -7.92383 20.7256 -12.748c48.7236 -35.3154 79.8711 -107.214 71.6611 -166.82c-4.34277 -31.5391 -19.2305 -63.4238 -51.543 -73.585c-33.6494 -10.5811 -69.8086 3.51562 -89.8623 31.7012
c-21.2676 29.8926 -29.1797 67.2334 -35.3643 102.785c-6.95898 40.0088 -10.418 80.5391 -13.0215 121.041c-1.47461 22.9141 -2.51758 45.832 -3.16992 68.7656c-3.51172 -14.6064 -7.67188 -29.0088 -13.0703 -42.9023
c-9.96191 -25.6436 -26.5527 -49.7793 -56.6738 -50.5049c-28.6504 -0.692383 -57.085 15.2705 -70.3955 40.2744c-31.9746 60.0664 -10.5029 154.557 31.7148 204.747c20.6895 24.6006 51.0547 43.3545 83.9219 42.833
c12.1123 -0.191406 22.3467 -3.28809 31.0898 -8.49902c0.423828 0.350586 0.839844 0.705078 1.2998 1.02246c12.8096 29.7461 79.4277 51.1807 83.6162 8.66211c4.18066 -42.4453 -0.900391 -86.4268 -0.998047 -129.06
c-0.0771484 -33.4785 0.0410156 -66.9727 0.913086 -100.442c39.5527 28.1494 85.1475 48.0479 128.11 70.1104zM109.652 164.873c6.87695 34.0889 12.8447 68.3857 18.4834 102.72c-10.8701 10.6787 -24.3066 16.4678 -38.0244 2.57031
c-12.418 -12.585 -19.2256 -32.7041 -24.9785 -48.9766c-14.5781 -41.2354 -20.9385 -88.835 -12.4473 -132.075c1.52832 -7.79785 4.21777 -26.9307 14.835 -28.7314c14.4355 -2.44824 22.7959 28.2676 25.6475 36.9785c7.19922 21.9688 11.917 44.8779 16.4844 67.5146z
M229.251 20.5869c-0.705078 0.541992 -1.4873 1.02637 -2.24121 1.52734c1.27539 -21.084 2.83594 -42.1602 4.75098 -63.1709c2.87207 -31.4941 6.19238 -66.4307 20.9248 -94.9219c5.38574 -10.4141 16.4473 -27.5947 28.8701 -17.0996
c13.5186 11.4238 11.9502 39.9561 10.2266 55.3447c-3.39355 30.3047 -14.8828 60.6211 -32.0518 85.8281c-8.34766 12.2637 -18.6885 23.4639 -30.4795 32.4922z" />
    <glyph glyph-name="r" unicode="r" horiz-adv-x="283" 
d="M280.47 159.595c3.31641 14.3613 35.0371 20.0322 30.9551 1.87305c-10.373 -46.0674 -24.0137 -92.0938 -47.6279 -133.293c-19.0312 -33.2051 -44.9434 -65.9707 -85.1973 -72.2285c-49.4326 -7.68359 -66.9072 45.5137 -69.543 84.9766
c-2.81152 42.0703 -0.155273 85.832 5.05566 128.229c-29.9209 -27.4893 -66.1367 -49.0137 -102.626 -23.749c-46.8662 32.4473 -43.0645 114.441 -19.4541 159.087c21.3818 40.4365 96.2744 83.6807 117.566 19.1123c8.79199 -26.6582 2.51367 -57.4268 -4.51074 -83.7754
c-6.0791 -22.8076 -14.9854 -44.6826 -26.1484 -65.3877c4.20508 0.264648 8.6709 1.99219 13.3359 5.41895c10.8008 7.94043 19.8457 18.1543 29.0371 28.0869c16.541 31.7998 84.2832 41.0928 80.0586 -4.84863c-3.50391 -38.0615 -8.72266 -75.9727 -11.3711 -114.111
c-1.18555 -17.0625 -2.78711 -34.3418 -3.03125 -51.4414c-0.183594 -12.8545 -1.37695 -31.2988 5.74121 -42.8086c4.62012 -7.47656 5.03613 -7.05273 12.7119 -0.860352c7.9043 6.37207 14.3174 15.7061 19.915 24.0381c9.21582 13.7178 17.0674 28.3691 23.916 43.3994
c14.3008 31.3799 23.4717 64.7764 31.2168 98.2832zM49.9355 289.563c-8.84961 -30.7119 -8.94727 -67.9219 6.00977 -97.085c11.502 24.3555 19.6582 50.2266 23.1982 77.0918c1.42578 10.8174 2.32617 22.0664 0.223633 32.875
c-1.09961 5.65918 -6.35547 23.4883 -14.7891 22.8857c-5.83008 -0.416016 -12.8457 -29.5303 -14.6426 -35.7676z" />
    <glyph glyph-name="s" unicode="s" horiz-adv-x="213" 
d="M244.137 171.479c1.22656 -8.05078 -7.95117 -13.3857 -14.1396 -15.6758c-29.7383 -11.0205 -61.2773 -26.7715 -89.5771 -46.7188c17.707 -26.499 28.0596 -55.7158 18.2891 -91.8955c-7.24805 -26.8369 -18.8105 -50.8828 -42.417 -67.0332
c-19.793 -13.543 -47.1924 -19.5928 -68.6963 -6.2334c-22.5303 13.9951 -24.6445 44.6787 -18.46 68.1055c6.66504 25.2441 22.9131 46.5527 40.7627 65.1885c-11.1797 9.34668 -22.8193 18.1963 -33.3965 27.3555c-22.0664 19.1084 -42.707 42.8086 -53.4385 70.2773
c-21.0195 53.8125 0.333984 116.531 49.2246 147.789c40.0537 25.6064 91.8662 18.6113 116.731 -23.8711c8.09961 -13.8359 -22.3721 -29.0049 -30.6104 -14.9287c-18.2607 31.2002 -74.3145 37.585 -77.8301 -7.70898c-2.53027 -32.582 20.3096 -70.1426 39.6787 -94.4004
c14.7812 -18.5137 32.2031 -36.3018 47.1963 -55.043c30.8867 21.8262 64.6992 39.2637 100.598 52.4111c6.33105 2.31836 14.9805 -0.386719 16.085 -7.61816zM93.4609 -35.4863c14.1865 5.73633 27.7178 23.6289 28.3252 38.9688
c0.525391 13.3428 -9.83984 27.1875 -17.2139 37.8584c-4.92188 7.11816 -10.6992 13.6777 -16.9492 19.8906c-6.37207 -7.64746 -12.2188 -15.5918 -17.2461 -23.9111c-8.18945 -13.543 -13.9873 -29.6934 -12.4189 -45.7578
c1.78418 -18.2891 15.5352 -35.124 35.5029 -27.0488z" />
    <glyph glyph-name="t" unicode="t" horiz-adv-x="201" 
d="M200.362 169.997c4.64062 12.8867 35.3047 18.5811 29.6982 1.79492c-22.0869 -66.1377 -61.7168 -203.493 -155.963 -187.534c-36.5293 6.18848 -55.2871 40.7422 -66.2266 75.9395c-16.9248 54.4482 -21.2393 112.107 -23.3867 168.817
c-2.80273 74.0947 -1.80078 149.09 2.50195 223.751c-14.248 -0.635742 -28.5 -1.42578 -42.7432 -2.46875c-20.5664 -1.50293 -9.47266 22.959 5.80176 24.2383c12.8174 1.0752 25.6436 1.94336 38.4697 2.70117c2.90918 43.1582 6.88574 86.1621 11.8975 128.767
c2.3916 20.3262 28.1201 34.1865 45.7656 37.1855c14.6758 2.49707 41.4229 -2.66113 40.8242 -22.9512c-1.38477 -46.8291 -4.33008 -93.5889 -7.21875 -140.354c23.8633 -0.0527344 47.7383 -0.667969 71.6133 -1.94336
c18.4805 -0.986328 3.55273 -26.0312 -9.95703 -25.4326c-21.0801 0.941406 -42.1523 1.5 -63.2246 1.72852c-0.125977 -2.13867 -0.264648 -4.27344 -0.390625 -6.41211c-6.57129 -110.767 -9.5293 -222.01 -1.14453 -332.74
c2.45703 -32.4844 5.59863 -69.043 19.6748 -92.71c2.03711 -3.42676 7.00391 -9.83105 17.6377 -6.14746c15.1562 5.24805 29.001 29.7832 36.8926 42.3438c21.7158 34.5703 35.707 73.2061 49.4775 111.427z" />
    <glyph glyph-name="u" unicode="u" horiz-adv-x="353" 
d="M354.951 161.652c5.86328 12.6875 33.7041 12.9561 26.085 -4.31445c-19.626 -44.54 -39.374 -89.7109 -67.8447 -129.472c-21.6914 -30.2998 -64.165 -48.834 -94.791 -18.3545c-33.5518 33.3887 -36.9248 96.6699 -38.6445 141.043
c-0.223633 5.77344 -0.418945 11.5879 -0.59375 17.4219c-2.84766 -10.1289 -5.76074 -20.2373 -8.84863 -30.2803c-12.4062 -40.376 -31.042 -101.38 -81.4365 -106.024c-59.627 -5.49609 -83.5547 49.2578 -95.5293 98.459
c-14.2725 58.6445 -16.0244 123.902 -10.2881 183.814c3.1084 32.4307 70.5127 51.2617 77.7812 12.7881c8.75977 -46.3564 3.12109 -96.1279 5.13379 -143.214c0.945312 -22.1846 3.57715 -44.3281 7.56543 -66.1699c1.95996 -10.7275 4.99902 -21.0635 7.63477 -31.6279
c1.59668 -6.39648 2.5459 -20.0205 8.80371 -24.2539c26.4824 -17.9023 57.0674 100.422 61.1299 115.786c12.3125 46.5732 24.4336 93.1904 36.9131 139.719c0.456055 1.70312 1.34863 3.27148 2.53809 4.68945c15.751 34.8027 88.1582 47.4775 83.9248 -1.89062
c-6.90137 -80.5312 -19.6904 -161.377 -15.543 -242.512c0.480469 -9.46484 1.47461 -18.6484 3.19824 -27.9707c0.823242 -4.43652 2.73828 -23.4717 6.75977 -25.7451c11.1348 -6.29492 30.0146 29.9941 33.7793 36.0566c20.1963 32.5166 36.2529 67.3594 52.2725 102.052
z" />
    </font>
</defs>
</svg>
