<?xml version="1.0" standalone="no"?>
<!DOCTYPE svg PUBLIC "-//W3C//DTD SVG 1.1//EN" "http://www.w3.org/Graphics/SVG/1.1/DTD/svg11.dtd" >
<svg xmlns="http://www.w3.org/2000/svg" xmlns:xlink="http://www.w3.org/1999/xlink" version="1.1">
<metadata></metadata>
<defs>
<font id="fabfeltscriptbold" horiz-adv-x="631" >
<font-face units-per-em="1000" ascent="800" descent="-200" />
<missing-glyph horiz-adv-x="259" />
<glyph unicode="&#xd;" horiz-adv-x="332" />
<glyph unicode=" "  horiz-adv-x="259" />
<glyph unicode="&#x09;" horiz-adv-x="259" />
<glyph unicode="&#xa0;" horiz-adv-x="259" />
<glyph unicode="!" horiz-adv-x="295" d="M107 110h5q14 2 23 13.5t8 26.5q-4 34 4.5 88.5t18.5 92.5t31 113q21 74 30 108.5t17.5 86t5.5 85.5q-1 15 -12.5 24.5t-25.5 8.5q-15 -1 -24.5 -12.5t-8.5 -25.5q5 -60 -50 -256q-22 -77 -33 -119.5t-20 -102.5t-4 -100q1 -13 11.5 -22t23.5 -9zM158 41q4 -19 -10 -37 t-38 -23q-25 -5 -44.5 4.5t-24.5 29.5q-4 19 10 36.5t38 23.5q24 5 44 -5t25 -29z" />
<glyph unicode="&#x22;" horiz-adv-x="270" d="M151 620q0 -31 28 -44q22 47 34 67.5t32 39.5q0 18 -9 28.5t-22 10.5q-23 0 -43 -34.5t-20 -67.5zM266 617q0 -27 27 -41q1 3 10 22l11 21l9 17q5 10 11 18q17 22 25 29q0 39 -31 39q-23 0 -42.5 -35t-19.5 -70z" />
<glyph unicode="#" horiz-adv-x="720" d="M674 163q14 -1 24.5 -12t9.5 -25q-1 -15 -12 -25t-26 -9q-111 6 -187 7l-12 -50q-44 -180 -104 -239q-10 -10 -25 -10q-14 0 -25 11q-10 11 -10 25.5t11 24.5q45 44 84 205q6 22 8 34q-82 0 -158 -3q-3 -16 -11 -48q-44 -182 -104 -239q-10 -10 -25 -10q-14 0 -25 11 q-10 11 -10 25.5t11 24.5q45 44 84 205q4 11 7 26q-74 -6 -125 -19q-2 0 -5 -0.5t-4 -0.5q-27 0 -34 28q-4 14 4 26.5t22 15.5q71 16 157 22q20 106 31 175q-77 -9 -132 -31q-8 -3 -14 -3q-24 0 -33 22q-5 14 0.5 27.5t19.5 18.5q69 29 171 39q21 127 34.5 187.5t29.5 88.5 q7 13 21.5 16.5t27.5 -4.5q13 -7 16.5 -21t-4.5 -27q-20 -35 -52 -236q61 2 158 -1q37 228 63 273q7 13 21.5 16.5t27.5 -4.5q13 -7 16.5 -21t-4.5 -27q-18 -32 -53 -240q54 -2 81 -4q36 -2 54 -2q14 -1 24.5 -12t9.5 -26q-1 -14 -12 -24t-26 -9q-17 0 -53 2q-15 1 -45 2.5 t-45 2.5q-16 -99 -30 -172q127 -5 177 -7zM267 169q96 2 158 2q19 99 31 173q-97 3 -158 1q-16 -105 -31 -176z" />
<glyph unicode="$" horiz-adv-x="565" d="M416 382q0 38 37 110q10 20 15.5 31.5t9.5 24t3.5 21t-5.5 13.5q-20 20 -63 29q-13 -68 -23 -123q-21 -113 -38 -197q69 -44 108 -82q65 -62 56 -149q-8 -84 -86 -132q-57 -35 -158 -37h-9q-15 0 -22 1q-25 -56 -52 -82q-10 -10 -25 -10t-26 11q-10 10 -9.5 25t10.5 25 q15 15 29 43q-48 13 -80 44q-34 34 -48 74q-16 43 -10 88q11 86 96 132q13 7 27 3t21 -17t2.5 -27t-17.5 -21q-51 -29 -59 -79q-8 -59 37 -101q20 -20 59 -30q20 50 44 145q17 68 32 140q-7 5 -31 19.5t-38 23.5q-35 24 -55 55q-24 33 -30 74q-15 86 50 171q32 43 84 65 q41 20 98 23h6q6 25 12 46q4 14 17 21t27 3q14 -5 21 -18t3 -27q-1 -2 -8 -31q63 -12 100 -49q34 -37 21 -93q-7 -32 -33 -78q-29 -58 -29 -78q0 -14 -10.5 -24.5t-25.5 -10.5q-14 0 -24.5 10.5t-10.5 24.5zM243 357q14 -10 44 -28q10 48 33 172l21 113q-77 -7 -117 -59 q-45 -59 -36 -117q8 -49 55 -81zM411 158q-33 32 -74 58q-20 -87 -28 -119q-17 -67 -40 -135h1q84 2 123 27q47 27 53 79q5 52 -35 90z" />
<glyph unicode="%" horiz-adv-x="740" d="M118 -100q12 0 20 7q70 49 191 246q121 198 273 515q6 14 1 27.5t-18 20.5q-14 6 -27.5 1t-20.5 -18q-147 -310 -269 -509q-111 -183 -171 -226q-12 -8 -14.5 -22.5t6.5 -26.5q11 -15 29 -15zM206 332q41 0 81 37q39 33 60 91q25 70 22 119q-2 36 -16 61q-16 31 -52 45 q-15 6 -31 6q-56 0 -104 -66q-34 -44 -51 -100q-28 -99 5 -150q23 -35 77 -43h9zM179 414q-15 22 5 92q12 42 39 77q27 37 47 37q2 0 6 -2q21 -7 22 -41q2 -38 -18 -94q-13 -37 -37 -58.5t-37 -21.5zM548 -10q41 0 81 37q39 33 60 91q25 70 22 119q-2 36 -16 61 q-16 31 -52 45q-15 6 -31 6q-56 0 -104 -66q-34 -44 -51 -100q-28 -99 5 -150q23 -35 77 -43h9zM548 61q-22 3 -27 11q-15 22 5 92q12 42 39 77q27 37 47 37q2 0 6 -2q21 -7 22 -41q2 -38 -18 -94q-13 -37 -37 -58.5t-37 -21.5z" />
<glyph unicode="&#x26;" horiz-adv-x="675" d="M701 286q1 -14 -8.5 -25.5t-24.5 -12.5q-27 -2 -66 0q-1 0 -5 0.5t-6 0.5q-20 -87 -69 -170q-107 -179 -277 -179q-78 0 -133 44q-53 44 -67 112q-20 92 36 184q51 85 156 140q-33 73 -38 135q-6 70 26 125q33 53 93 80q49 23 103 23q71 0 101 -52q22 -42 6 -105 q-15 -56 -57 -118q-8 -13 -22.5 -15.5t-26.5 5.5q-13 8 -15.5 22.5t5.5 26.5q35 52 46 92t1 58q-7 15 -38 15q-39 0 -77 -17.5t-58 -51.5q-47 -78 31 -223q7 -14 2 -28q-5 -15 -19 -21q-107 -48 -153.5 -120.5t-32.5 -139.5q10 -46 45 -73t86 -27q129 0 215 143 q35 59 58 135q-54 -2 -92 -12q-3 -1 -9 -1q-27 0 -34 27q-4 14 4 26.5t22 16.5q69 18 196 13q35 -2 58 0q14 1 25.5 -8.5t12.5 -24.5z" />
<glyph unicode="'" horiz-adv-x="156" d="M151 620q0 -31 28 -44l10 22q26 56 56 85l1 6q0 13 -10 23t-22 10q-23 0 -43 -34.5t-20 -67.5z" />
<glyph unicode="(" horiz-adv-x="295" d="M183 -110q9 0 19 5q12 8 15.5 22t-4.5 27q-103 171 -56.5 372.5t231.5 378.5q11 10 11.5 25t-9.5 25q-11 11 -25.5 11t-25.5 -10q-193 -184 -250 -401q-29 -113 -14 -221q15 -115 78 -217q11 -17 30 -17z" />
<glyph unicode=")" horiz-adv-x="315" d="M162 751q-7 0 -19 -6q-12 -8 -15 -22.5t6 -27.5q110 -166 70.5 -369.5t-217.5 -387.5q-10 -10 -10 -24.5t10 -25.5q12 -10 26.5 -10t24.5 11q185 191 235 410q24 114 5 222q-18 113 -85 214q-12 16 -31 16z" />
<glyph unicode="*" horiz-adv-x="416" d="M465 591q14 -5 20 -19t1 -27q-8 -23 -33 -23q-5 0 -13 2q-27 11 -83 11q34 -44 51 -89q5 -14 -1 -27.5t-20 -18.5q-8 -2 -12 -2q-24 0 -34 23q-14 40 -52 85q-37 -68 -69 -107q-10 -13 -27 -13q-12 0 -23 8q-11 10 -12.5 24.5t7.5 25.5q28 33 57 87q-40 -1 -76 6 q-15 3 -23 15t-5 27q3 14 15 22t27 5q21 -4 53 -4q-24 36 -34 69q-5 14 2 27t21 17q14 5 27 -2t17 -21q9 -28 31 -58q42 73 71 101q11 10 25.5 10t24.5 -11t10 -25t-11 -25q-23 -23 -54 -78q76 2 122 -15z" />
<glyph unicode="+" horiz-adv-x="441" d="M405 192q5 -14 -2 -28t-22 -19q-49 -17 -141 -15q2 -82 -7 -132q-2 -12 -11.5 -20t-22.5 -8q-4 0 -6 1q-14 2 -22 14t-5 25q6 36 6 123q-87 4 -128 -3q-2 -1 -7 -1q-13 0 -23.5 9t-12.5 22q-3 15 5.5 27.5t24.5 15.5q46 9 139 5q-2 89 11 136q4 13 16.5 20t26.5 3 q14 -5 20.5 -17.5t2.5 -25.5q-10 -34 -8 -119q82 -2 118 11q15 5 29 -2t19 -22z" />
<glyph unicode="," horiz-adv-x="216" d="M-30 -193q11 0 20 6q81 57 118 115t46 141q2 14 -7 26t-24 14q-14 2 -25.5 -7t-14.5 -24q-4 -24 -9 -43.5t-12.5 -36.5t-11 -28t-14.5 -24t-14 -18.5t-17 -16t-16.5 -12.5t-20 -14t-19.5 -13q-12 -8 -14.5 -22.5t5.5 -26.5q11 -16 30 -16z" />
<glyph unicode="-" horiz-adv-x="507" d="M87 130q5 0 7 1q48 8 153 2q47 -4 92 -2t82 15q15 5 22 19t2 28q-5 15 -19 22t-29 2q-28 -10 -66 -11t-80 2q-125 5 -170 -4q-16 -3 -24.5 -15.5t-5.5 -27.5q2 -13 12.5 -22t23.5 -9z" />
<glyph unicode="." horiz-adv-x="211" d="M28 28q0 -16 11.5 -27t32.5 -11t36.5 21t15.5 39q0 31 -33 31q-20 0 -41.5 -18t-21.5 -35z" />
<glyph unicode="/" horiz-adv-x="355" d="M-6 -157q13 2 19 9q65 55 167 263q103 211 223 538q4 14 -1.5 27.5t-19.5 19.5q-14 4 -27.5 -2t-18.5 -20q-118 -324 -220 -532q-94 -192 -149 -241q-11 -10 -12 -24.5t9 -25.5q12 -13 30 -12z" />
<glyph unicode="0" horiz-adv-x="660" d="M281 -104q79 0 153 55.5t121.5 133t68.5 159.5q24 94 18 198q-9 113 -54 176q-33 48 -83 62q6 8 7 15q4 14 -4 26.5t-22 16.5q-100 23 -186 -31q-77 -48 -129.5 -141.5t-74.5 -193.5q-35 -161 -21 -270q13 -94 56.5 -140.5t99.5 -59.5q25 -6 50 -6zM428 674q4 0 11 -0.5 t10 -0.5q-7 -9 -9 -20q-1 -15 8.5 -26.5t24.5 -12.5q33 -3 57 -37q35 -49 41 -141t-16 -174q-14 -57 -46.5 -115.5t-73.5 -100.5q-93 -97 -188 -75q-86 21 -101 141q-13 94 19 244q19 85 64.5 168t108.5 123q44 27 90 27z" />
<glyph unicode="1" horiz-adv-x="392" d="M291 331q-40 -167 -64 -245q-15 -54 -30 -92q75 7 108 -9q13 -6 18 -20t-1 -27q-7 -13 -21 -18t-27 1q-8 5 -39 4q-20 0 -74 -6q-82 -7 -102 -7q-41 0 -74 9q-14 4 -21 17.5t-2 27.5q4 14 17 21t27 2q34 -10 110 -3q14 23 45 124q28 98 62 241q33 140 52 229 q-62 -48 -127 -80q-14 -7 -27.5 -2.5t-20.5 17.5t-2.5 27t18.5 21q49 25 96.5 59.5t70.5 55t23 22.5q19 19 42 7q24 -14 19 -39l-10 -47q-10 -47 -29 -131t-37 -159z" />
<glyph unicode="2" horiz-adv-x="599" d="M416 -78q83 0 135 40q12 9 14 23.5t-7 26.5q-9 11 -23.5 13t-26.5 -7q-48 -36 -146 -21q-36 6 -96 23q44 42 74 77q66 74 118 155.5t75 147.5q28 76 20 144q-6 62 -40 112q-27 38 -67.5 60t-83.5 22q-50 0 -100 -28q-48 -27 -79 -75q-63 -99 -9 -216q6 -13 19.5 -18 t27.5 1q13 6 18 19.5t-1 27.5q-37 81 5 148q20 32 52.5 51t66.5 19q57 0 93 -52q53 -74 11 -191q-21 -59 -69.5 -135t-109.5 -145q-55 -63 -100 -97h-2q-64 23 -86 26q-27 5 -53.5 -5.5t-42.5 -31.5q-24 -34 -8 -68q22 -42 94 -43h2q46 0 109 42q133 -45 216 -45zM66 -1 q11 6 22 4q17 -3 19 -4q-9 -3 -17 -3q-15 0 -24 3z" />
<glyph unicode="3" horiz-adv-x="542" d="M215 -112q94 0 165 62q63 55 85 143q23 86 -9 169q-23 63 -78 108q49 45 77 106q38 86 18 161q-15 49 -53 76q-40 30 -100 30q-20 0 -58 -14q-61 -21 -92 -63q-45 -58 -22 -142q4 -14 16.5 -21.5t26.5 -3.5t21.5 16.5t3.5 26.5q-12 48 7 77q27 39 99 53q67 -1 82 -55 q14 -49 -14 -112q-31 -69 -92 -107q-17 -11 -17 -31q2 -20 19 -30q69 -37 90.5 -101t6.5 -126q-16 -60 -62.5 -105.5t-119.5 -45.5q-32 0 -56 22.5t-35 53.5q-22 65 25 101q12 8 14 23t-7 26q-8 12 -23 14t-26 -7q-44 -32 -56 -85q-11 -46 6 -95q18 -53 57 -86 q47 -38 101 -38z" />
<glyph unicode="4" horiz-adv-x="508" d="M303 -89q14 0 24 9.5t11 23.5q12 117 39 265q76 -2 118 18q14 6 19 19.5t-2 27.5q-6 13 -19.5 18t-27.5 -1q-26 -11 -74 -11q10 52 20 96q50 217 80 275q6 12 2.5 25.5t-14.5 20.5q-26 17 -47 -7q-99 -117 -316 -334q-91 -93 -97 -100q-19 -20 -4 -43q6 -10 17.5 -14.5 t22.5 -0.5q92 26 250 14q-28 -156 -37 -262q-2 -14 7.5 -25.5t24.5 -12.5h1q1 -1 2 -1zM203 288q-18 0 -56 -2q13 13 20 19q151 154 206 213q-22 -87 -31 -127q-11 -45 -23 -108h-9q-57 5 -107 5z" />
<glyph unicode="5" horiz-adv-x="513" d="M178 -83q18 0 28 1q96 9 184 72q64 46 84 115q18 66 -6 131q-33 83 -116 129q-67 37 -155 39l76 226q125 -16 213 16q14 4 20.5 17.5t1.5 27.5t-18.5 20t-27.5 1q-83 -30 -204 -7h-1q-13 3 -25 -4t-16 -20l-102 -303q-7 -18 5 -33q13 -16 32 -13q100 10 164.5 -27.5 t85.5 -93.5q18 -46 4 -89t-57 -74q-71 -53 -149 -59q-66 -8 -102 23q-19 17 -20 42q-2 34 23 80q7 13 3 27t-17 21t-27 3t-21 -17q-35 -65 -32 -119t44 -90q46 -42 128 -42z" />
<glyph unicode="6" horiz-adv-x="592" d="M274 -98q9 0 27 2q80 9 144 64q69 59 88 142q15 67 -6 130q-22 66 -74 103q-55 40 -128 37q-79 -3 -166 -54q-6 -4 -8 -7q28 88 82 166t105 122q42 35 80 46.5t59 1.5q22 -11 22 -45q0 -15 10.5 -25t24.5 -10q15 0 25.5 10t10.5 25q0 79 -63 109q-44 21 -103 4 q-56 -15 -112 -62q-50 -42 -97 -106q-56 -74 -91 -155q-91 -215 -4 -391q25 -51 71 -79t103 -28zM142 288q1 -6 5 -11q8 -13 21.5 -16.5t26.5 3.5q137 81 217 22q34 -25 48 -69t4 -91q-14 -63 -64.5 -104t-106.5 -47q-91 -11 -129 66q-54 110 -22 247z" />
<glyph unicode="7" horiz-adv-x="439" d="M512 719q20 -22 3 -45q-110 -151 -195 -309h30q52 0 66 2q14 3 26.5 -5t15.5 -22t-5 -26.5t-22 -15.5q-9 -3 -81 -4q-43 0 -68 -1q-18 -36 -26 -54q-49 -104 -69 -181q-18 -72 -6 -102q6 -13 0.5 -27t-18.5 -20q-8 -3 -14 -3q-23 0 -33 21q-22 51 2 148q23 88 73 194 q1 3 5 10t5 11q-71 -3 -108 -14q-8 -2 -11 -2q-26 0 -34 26q-4 14 3 27t21 17q51 15 166 19q69 131 159 266q-36 -6 -55 -7q-112 -9 -199 25q-14 6 -19.5 19.5t-0.5 26.5q5 14 19 20t27 0q59 -19 131.5 -13.5t140 14.5t71.5 5z" />
<glyph unicode="8" horiz-adv-x="561" d="M234 -96q98 0 166 37q67 38 88 104q27 77 -16 168q-31 67 -100 130q56 47 92 116q51 95 29 173q-16 51 -57 77q-40 27 -109 29h-2q-57 0 -105.5 -37.5t-67.5 -95.5q-22 -71 8 -140q26 -61 87 -114q-98 -42 -152 -133q-55 -91 -38 -179q11 -61 56 -97q47 -38 121 -38z M326 667q83 -2 98 -54q14 -51 -23 -121q-31 -61 -86 -104q-61 45 -86 96t-9 99q11 36 41.5 60t64.5 24zM311 301q66 -54 97 -119q30 -63 13 -115q-13 -40 -55 -64q-53 -28 -132 -28q-93 0 -108 77q-12 62 32 133.5t124 102.5q20 8 29 13z" />
<glyph unicode="9" horiz-adv-x="598" d="M224 -111q6 0 20 2q59 6 124 50q109 75 158 224q41 120 41 273q0 134 -63 217q-63 80 -156 80q-44 0 -84 -15q-45 -16 -78 -48q-77 -73 -77 -201q0 -67 20 -118q23 -53 65 -80q52 -35 130 -31q68 3 158 40q-35 -201 -154 -282q-47 -33 -88.5 -38.5t-56.5 9.5 q-25 17 -19 49q3 14 -5 26.5t-22 15.5t-26.5 -5t-15.5 -22q-9 -35 5 -69q13 -32 43 -54q35 -23 81 -23zM348 664q59 0 100 -53q48 -63 48 -173q0 -47 -5 -93q-16 11 -33 3q-79 -32 -138 -35q-55 -3 -87 19q-53 36 -53 139q0 98 50.5 145.5t117.5 47.5z" />
<glyph unicode=":" horiz-adv-x="251" d="M88 261q0 -15 11.5 -24t28.5 -9q21 0 39.5 16t18.5 33q0 31 -33 31q-24 0 -44.5 -14.5t-20.5 -32.5zM32 23q0 -15 11.5 -24t28.5 -9q21 0 39.5 16t18.5 33q0 31 -33 31q-24 0 -44.5 -14.5t-20.5 -32.5z" />
<glyph unicode=";" horiz-adv-x="250" d="M88 263q0 -34 40 -34q21 0 40 16t19 34q0 31 -35 31q-24 0 -44 -14.5t-20 -32.5zM-19 -193q11 0 20 6q81 57 118 115t46 141q2 14 -7 26t-24 14q-14 2 -25.5 -7t-14.5 -24q-4 -24 -9 -43.5t-12.5 -36.5t-11 -28t-14.5 -24t-14 -18.5t-17 -16t-16.5 -12.5t-20 -14 t-19.5 -13q-12 -8 -14.5 -22.5t5.5 -26.5q11 -16 30 -16z" />
<glyph unicode="&#x3c;" horiz-adv-x="328" d="M229 20q12 0 22 8t12 20q4 14 -4 26.5t-22 15.5q-62 15 -120 56q12 8 32 23q58 48 100 90q11 10 11 24.5t-11 25.5q-10 11 -24.5 11t-25.5 -11q-55 -54 -93 -83q-12 -10 -22 -17t-16.5 -11t-11 -6t-6.5 -3l-2 -1q-24 -2 -30 -24q-8 -20 9 -37q91 -84 194 -106q3 -1 8 -1z " />
<glyph unicode="=" horiz-adv-x="517" d="M80 175q7 0 11 2q35 12 162 14q128 2 168 16q14 5 20.5 17.5t1.5 26.5q-4 14 -17.5 21t-27.5 2q-29 -10 -146 -12q-135 -2 -184 -18q-14 -5 -20 -18.5t-2 -26.5q8 -24 34 -24zM80 76q7 0 11 2q35 12 162 14q128 2 168 16q14 4 20.5 17t1.5 27q-4 14 -17.5 21t-27.5 2 q-29 -10 -146 -12q-135 -2 -184 -18q-14 -5 -20 -18.5t-2 -26.5q8 -24 34 -24z" />
<glyph unicode="&#x3e;" horiz-adv-x="337" d="M299 161q5 -21 -11 -35q-88 -76 -182 -102q-6 -3 -15 -3q-15 0 -25.5 10.5t-10.5 25.5q0 13 9 23t23 12q52 14 111 55q-60 38 -143 114q-11 11 -11.5 25t9.5 25t24.5 11.5t25.5 -9.5q118 -109 172 -126q21 -7 24 -26z" />
<glyph unicode="?" horiz-adv-x="462" d="M245 112q14 0 24.5 10.5t10.5 25.5q0 62 11 85.5t78 103.5q8 10 25.5 31.5t27.5 33.5q49 61 63 125q12 64 -12 114q-21 43 -62 67.5t-94 24.5q-51 0 -95 -23q-43 -24 -71 -66q-29 -47 -31 -101q-2 -59 27 -121q6 -13 20 -18.5t27 0.5q13 7 18 20.5t-1 27.5q-42 89 0 153 q36 57 106 57q67 0 92 -51q33 -71 -42 -164q-10 -12 -27.5 -33.5t-25.5 -31.5q-71 -84 -87 -119q-18 -39 -18 -115q0 -15 10.5 -25.5t25.5 -10.5zM291 42q4 -19 -10 -37t-38 -23t-44.5 5t-24.5 29t10 36.5t38 23.5q25 5 45 -5t24 -29z" />
<glyph unicode="@" horiz-adv-x="613" d="M231 -150q130 0 251 70l2 1q13 8 16 22.5t-5 26.5q-7 13 -21.5 16.5t-27.5 -4.5q-3 -3 -28.5 -16t-79.5 -29t-107 -16q-71 0 -116 48q-51 54 -43 136q8 101 88 169t191 68q46 0 79 -14t49 -39t22.5 -50.5t6.5 -55.5q0 -43 -28 -78.5t-69 -46.5q-5 -2 -12 -2q0 32 30 97 q12 27 -13 44q22 6 25 31q3 53 -42 81q-54 32 -126 -12q-54 -33 -106 -105q-55 -82 -56 -136q0 -48 35 -71q33 -22 74 -11q29 7 64 33q15 11 45 39q3 -25 16 -39q26 -33 84 -18q65 17 107.5 72t42.5 122q0 87 -42 146q-26 37 -72 61q-49 23 -114 23q-143 0 -241 -89 q-98 -86 -109 -214q-9 -112 61 -189q33 -34 74 -52q42 -19 95 -19zM351 251q5 0 11 -2q8 -5 8 -16q-2 -20 15 -32q-8 -3 -14 -9l-29 -30q-66 -72 -100 -98q-43 -30 -57 -20q-3 3 -3 11q2 36 43 96q46 61 85 85q24 15 41 15z" />
<glyph unicode="A" d="M632 195q14 -4 22 -16.5t4 -26.5l-2 -6q-2 -6 -5 -15.5t-7.5 -21t-11.5 -26.5t-15 -28q-63 -104 -155 -104q-52 0 -79 44q-30 48 -24 148q3 42 10 82q-45 8 -148 23q-133 -212 -163 -316q-8 -26 -34 -26q-7 0 -10 1q-14 4 -21.5 17t-3.5 27q31 104 155 307q-16 2 -27 4 t-17.5 3t-17.5 1q-15 0 -25.5 10.5t-10.5 25.5q0 14 10.5 24.5t25.5 10.5q10 0 104 -12q9 13 27 41q84 126 168 222q94 107 162 146q24 13 42 -5q19 -17 7 -41q-80 -164 -131 -368q-27 -112 -31 -182q-5 -80 13 -105q7 -11 19 -11q52 0 94 70q10 17 18.5 36t11.5 30l3 11 q4 14 16.5 22t26.5 4zM264 314q31 -5 118 -20q1 6 4.5 20.5t5.5 22.5q32 124 77 243q-24 -26 -35 -39q-75 -85 -162 -215q-6 -8 -8 -12z" />
<glyph unicode="B" horiz-adv-x="650" d="M614 231q4 -38 -11 -84q-24 -73 -88 -125q-54 -45 -137 -69q-91 -28 -214 -28q-53 0 -107 6q-15 2 -24 13t-8 26q1 14 13 23.5t26 7.5q72 -10 148.5 -4t141 22.5t114 55t68.5 94.5q18 56 -7 87q-32 42 -133 57q-74 11 -186 5q-60 -185 -75 -280q-2 -13 -12 -21.5 t-23 -8.5q-1 0 -3 0.5t-3 0.5q-15 2 -23.5 14t-6.5 27q29 173 178 581q-49 -10 -109 -27q-14 -4 -26.5 3t-17.5 21q-4 14 3.5 27t21.5 17q161 45 266 50q118 4 175 -42q30 -25 41 -59q12 -33 9 -76q-6 -77 -78 -131q-28 -21 -72 -40q92 -24 131 -74q24 -33 28 -69zM370 419 q158 46 164 132q5 51 -24 74q-35 29 -127 26q-27 -1 -60 -6q-49 -132 -89 -253q81 10 136 27z" />
<glyph unicode="C" horiz-adv-x="570" d="M250 -111q20 0 39 3q81 13 158 77q75 61 135 159q8 13 5 27t-16 22t-27.5 4.5t-21.5 -16.5q-53 -86 -117 -139t-127 -64q-74 -12 -135 38q-54 45 -52 153q3 121 69 250.5t158 197.5q72 54 121 62q32 8 45 -6q19 -19 4 -69q-17 -66 -80 -143q-10 -11 -8.5 -25.5 t13.5 -24.5q11 -9 25.5 -7.5t24.5 12.5q73 90 94 170q24 90 -21 136q-19 20 -50 28q-25 5 -62 -1q-66 -14 -148 -75q-109 -81 -181 -227q-72 -144 -75 -276q-3 -143 78 -210q68 -56 152 -56z" />
<glyph unicode="D" horiz-adv-x="687" d="M201 -108q13 0 19 1q69 5 135 37q113 52 197 157q46 56 77 122q34 72 49 148q21 103 5 179q-15 71 -60 119q-55 58 -149 75q-66 12 -130 2t-128 -49q-77 -46 -106 -104q-32 -64 1 -126q7 -13 21 -17.5t27 2.5t17.5 20.5t-2.5 27.5q-16 30 0 61q19 41 78 75q54 32 103 40 q52 8 114.5 -3.5t101.5 -52.5q71 -74 38 -235q-28 -139 -109 -236t-175 -141q-95 -45 -166 -26l197 632q5 14 -2 27t-21 17t-27 -2.5t-17 -20.5l-207 -663q-8 -28 17 -42q43 -24 102 -24z" />
<glyph unicode="E" horiz-adv-x="533" d="M210 -110q80 0 150 39q58 31 103 82q46 51 80 119q6 14 0.5 27.5t-19.5 19.5q-13 6 -26.5 0.5t-19.5 -18.5q-5 -11 -12.5 -25t-33 -48t-53.5 -59t-74 -45.5t-95 -20.5q-70 0 -106.5 35.5t-40.5 85.5q-6 75 48 137q65 74 183 95q21 3 27 22q8 18 -5 34q-98 129 -54 217 q19 39 57.5 59.5t76.5 20.5q44 0 56 -26q10 -22 -1 -57q-12 -39 -48 -80q-10 -11 -9.5 -25.5t11.5 -24.5t25.5 -9t24.5 12q48 52 65 110t-3 103q-13 32 -46 51q-32 17 -75 17q-57 0 -112 -30q-59 -34 -86 -90q-30 -59 -16 -132q10 -54 47 -115q-107 -30 -172 -106 q-36 -41 -53 -91q-16 -49 -12 -98q6 -79 63 -131q60 -55 155 -55z" />
<glyph unicode="F" horiz-adv-x="522" d="M687 708q4 -14 -3 -27t-21 -17q-68 -21 -140 -24.5t-128 4.5q-81 -207 -105 -273q113 6 150 16q14 4 26.5 -4t16.5 -22t-4 -26.5t-22 -16.5q-49 -13 -192 -19q-25 -73 -31 -92q-62 -197 -45 -263q4 -14 -4 -26.5t-22 -16.5q-3 -1 -9 -1q-27 0 -34 27q-20 84 46 301 q14 44 22 67q-61 -3 -93 -13q-3 -1 -10 -1q-26 0 -34 26q-4 14 3.5 26.5t21.5 17.5q41 12 138 17q43 122 107 281q-3 0 -10 0.5t-11 0.5q-98 5 -133 -44q-31 -43 0 -124q5 -14 -1 -27.5t-20 -18.5q-8 -2 -12 -2q-24 0 -34 23q-44 115 9 190q32 43 85 60q49 17 109 14 q28 -1 80 -5q59 -8 127.5 -5.5t131.5 21.5q14 4 27.5 -3t17.5 -21z" />
<glyph unicode="G" horiz-adv-x="585" d="M442 428q-11 11 -11.5 25.5t9.5 25.5q46 49 61 88.5t5 61.5q-11 26 -58 26q-68 0 -156 -87.5t-142 -208.5q-36 -81 -39 -184t35 -162q31 -49 89 -49q93 0 172 141q25 43 45 96q1 4 4 12t4 12q-101 33 -146 7q-13 -7 -27 -3t-21 17t-3.5 26.5t16.5 21.5q58 34 157 11 q13 -3 26 -6.5t23 -7t17.5 -6.5t11.5 -5l5 -1q13 -5 18.5 -17t1.5 -25v-3q-1 -1 -1 -3.5t-1 -3.5l-1 -2q-3 -12 -17 -48q-25 -80 -27 -158q-1 -71 10 -99q6 -13 0.5 -27t-18.5 -20q-8 -3 -15 -3q-22 0 -32 21q-15 36 -16 107q-23 -27 -44 -46q-67 -59 -142 -59 q-96 0 -148 81q-49 85 -46.5 201.5t45.5 212.5q57 130 156 229q109 109 206 109q93 0 123 -69q20 -47 -1 -108q-21 -58 -78 -119q-10 -11 -24.5 -11.5t-25.5 9.5z" />
<glyph unicode="H" horiz-adv-x="663" d="M665 735q13 -7 18 -20.5t-1 -27.5q-51 -106 -110 -312q46 3 61 6q14 3 26 -5t15 -23q3 -14 -5 -26t-23 -15q-17 -4 -94 -9q-1 -4 -3.5 -13t-3.5 -14q-33 -132 -45 -216q-12 -89 -1 -111q7 -13 2.5 -27t-17.5 -21q-7 -4 -16 -4q-21 0 -32 19q-22 41 -6 154q12 92 46 224 l2 5q-7 -1 -19.5 -1.5t-19.5 -0.5q-134 -6 -186 -10q-72 -224 -75 -233q-42 -129 -55 -144q-10 -13 -28 -13q-12 0 -22 8q-11 10 -12.5 24t6.5 25q8 13 46 130q25 74 63 196q-30 -4 -46 -9q-7 -4 -16 -4q-21 0 -32 19q-7 13 -2.5 27t17.5 21q21 12 102 19q70 223 91 280 q4 12 4 24q-6 2 -21 -1t-29 -13q-33 -23 -60 -56.5t-31 -62.5q-2 -23 13 -39q9 -11 8 -25.5t-12 -24.5t-25.5 -8.5t-24.5 12.5q-35 41 -29 94q6 50 48 101q31 39 73 68q32 21 67.5 25.5t65.5 -14.5q45 -31 20 -103q-19 -52 -81 -251q5 0 160 9l61 3q66 230 120 347 q7 13 20.5 18t27.5 -1z" />
<glyph unicode="I" horiz-adv-x="503" d="M598 684q4 -14 -4 -26.5t-22 -16.5q-44 -10 -191 -8h-2q-18 -79 -33 -159q-43 -211 -71 -309q-31 -109 -67 -176h28q127 -2 159 5q14 3 26.5 -5t15.5 -22t-5 -26.5t-22 -15.5q-39 -9 -175 -7q-185 2 -232 -16q-8 -2 -12 -2q-24 0 -34 23q-5 13 1 27t20 19q42 16 145 20 q32 41 62 128.5t46.5 159.5t44.5 211l30 146q-147 -2 -185 -19q-7 -4 -15 -4q-22 0 -32 20q-6 13 -1 27t18 21q27 13 75.5 19t101.5 6h114q137 -2 173 6q14 4 26.5 -4t16.5 -22z" />
<glyph unicode="J" horiz-adv-x="440" d="M537 727q14 0 24.5 -11t9.5 -25q0 -15 -10.5 -25t-25.5 -10h-109q-93 -447 -134 -568q-36 -101 -74 -143q-40 -46 -94 -46q-13 0 -19 1q-85 12 -111 94q-18 56 0 126t61 111q11 10 25.5 10t24.5 -11q11 -10 10.5 -25t-11.5 -25q-29 -28 -41.5 -77.5t-0.5 -86.5 q12 -39 53 -45q27 -4 50 21q31 36 59 119q42 120 129 543q-121 -6 -191 -21q-2 -1 -7 -1q-28 0 -35 28q-3 14 5 26.5t22 15.5q114 25 390 25z" />
<glyph unicode="K" horiz-adv-x="637" d="M662 658q-81 -129 -377 -338q50 -89 91 -148q53 -78 104 -128q58 -60 107 -75q14 -4 20.5 -17t2.5 -27q-8 -25 -34 -25q-3 0 -11 2q-114 35 -248 231q-35 49 -76 121q-37 -119 -63 -196q-42 -129 -55 -144q-10 -13 -28 -13q-12 0 -22 8q-11 10 -12.5 24t6.5 25 q8 13 46 130q8 23 80 250q75 237 97 299q4 12 4 24q-6 2 -21 -1t-29 -13q-33 -23 -60 -56.5t-31 -61.5q-2 -24 13 -40q9 -11 8 -25.5t-12 -24.5t-25.5 -8.5t-24.5 12.5q-35 41 -29 94q6 50 48 101q31 39 73 68q31 22 67.5 26t65.5 -15q45 -31 20 -103q-16 -44 -66 -202 q246 181 311 284q8 12 22.5 15t26.5 -4q13 -8 16 -22.5t-5 -26.5z" />
<glyph unicode="L" horiz-adv-x="610" d="M427 -70q12 0 19 1q58 3 108 31q12 8 15.5 22t-3.5 27t-21.5 16.5t-26.5 -4.5q-64 -36 -166 -13q-63 15 -146 52q20 33 42 80q39 85 88 225q65 3 125 33q69 33 109 85q62 79 42 165q-9 39 -34.5 62.5t-61.5 27.5q-46 5 -93 -25q-44 -29 -69 -80q-9 -20 -48 -134 q-2 -6 -5.5 -17.5t-7 -21t-6.5 -18.5q-52 18 -63 63q-9 35 27 54q13 7 17 21t-3 27t-20.5 17t-27.5 -3q-41 -22 -57 -59q-15 -34 -5 -74q13 -52 59 -86q22 -18 50 -27q-45 -129 -81 -205q-14 -30 -42 -82l-9 4q-65 22 -116 19q-51 -2 -77 -31q-31 -34 -12 -78q13 -31 49 -50 q35 -18 81 -18q30 0 61 20q25 17 48 46q100 -46 171 -61q50 -11 90 -11zM504 670q3 0 5 -1q26 -2 34 -35q12 -52 -28 -105q-58 -72 -154 -88q3 7 7.5 20t5.5 17q30 96 45 127q14 31 38 48t47 17zM-9 34q2 3 11.5 6t35 1.5t58.5 -11.5q-23 -23 -39 -23q-37 0 -61 19 q-5 5 -5 8z" />
<glyph unicode="M" horiz-adv-x="806" d="M793 697q-97 -342 -121 -505q-24 -162 7 -216q7 -13 3.5 -27t-16.5 -21q-10 -5 -18 -5q-20 0 -30 18q-36 61 -23.5 198.5t80.5 396.5q-50 -84 -101 -183q-112 -221 -144 -327q-7 -23 -31 -25q-25 -2 -35 20q-15 32 -15.5 104.5t8.5 177.5q11 172 9 232q0 17 -2 41 l-14 -30q-12 -27 -13 -29q-30 -70 -50 -118q-82 -199 -132 -304q-36 -75 -67 -127q-37 -60 -68 -75q-6 -3 -14 -3q-23 0 -33 21q-6 13 -0.5 26.5t18.5 20.5q8 0 39 51q35 62 63 120q41 88 129 297q28 70 51 120q8 20 13 29q14 31 32 74l7 26q-5 1 -26 1q-38 -3 -75 -34 q-40 -32 -49 -67q-10 -37 25 -62q12 -9 14.5 -23.5t-5.5 -26.5q-9 -12 -23.5 -14.5t-26.5 6.5q-77 54 -52 139q15 57 73 104q56 45 115 48q10 1 30 1h3q38 -2 63 -30q43 -48 46 -181q2 -62 -9 -238q-2 -26 -7 -100q51 112 90 188q135 263 224 346q19 19 43 5 q10 -6 14.5 -17.5t0.5 -22.5z" />
<glyph unicode="N" horiz-adv-x="674" d="M714 725q9 -11 6.5 -25.5t-13.5 -23.5q-58 -45 -120 -291q-41 -168 -84 -444q-5 -25 -28 -30l-7 -1q-19 0 -30 17q-17 25 -30 81.5t-19.5 105.5t-16.5 146q-21 187 -35 259q-8 41 -18 71q-36 -126 -81 -270q-50 -160 -81 -251q-43 -126 -62 -153q-10 -16 -30 -16 q-10 0 -19 6q-13 8 -15.5 22.5t5.5 26.5q28 42 134 386q60 196 96 319q-43 -10 -76.5 -47t-40.5 -75q-7 -36 15 -51q13 -8 16 -22.5t-5 -26.5q-8 -13 -22.5 -16t-26.5 5q-63 41 -47 125q13 62 61 112q53 55 118 67q37 6 67 -16q52 -39 81 -182q19 -95 36 -266q0 -4 7 -62 t11 -86q29 164 58 283q33 126 63 201q39 96 83 129q12 9 26.5 7t23.5 -14z" />
<glyph unicode="O" horiz-adv-x="655" d="M250 -110q74 0 137 36q60 32 107 91q83 99 137 268q36 111 23 216q-9 93 -48 146q-23 31 -50 35q2 14 -5.5 25t-20.5 15q-82 21 -166 -10q-74 -28 -140 -91q-123 -118 -178 -283q-29 -86 -23 -185q9 -106 58 -176q63 -87 169 -87zM463 660h7q-36 -22 -68 -63 q-67 -91 -43 -176q5 -14 18 -21t26 -3q14 4 21.5 17t3.5 27q-16 51 31 113q41 54 84 57q24 -21 37 -92q19 -103 -17 -213q-48 -152 -123 -244q-84 -101 -190 -101q-70 0 -111 57q-37 52 -44.5 137t18.5 160q20 58 54.5 117t79.5 111t102.5 84.5t113.5 32.5z" />
<glyph unicode="P" horiz-adv-x="559" d="M623 592q12 -39 3 -85q-31 -139 -201 -203q-103 -40 -219 -42q-53 -168 -96 -335q-3 -11 -13 -18.5t-21 -7.5q-6 0 -10 1q-14 4 -21.5 17t-3.5 27q58 217 105 362q0 2 1 3q32 102 70 207q28 75 48 121q-59 -9 -115 -29q-14 -5 -27.5 1.5t-18.5 20.5t1.5 27t20.5 18 q123 44 249 42q137 -2 205 -62q31 -26 43 -65zM556 522q12 52 -23 82q-49 42 -160 44h-27q-24 -51 -63 -156q-21 -57 -54 -158q48 3 96.5 14t98.5 32t86 57.5t46 84.5z" />
<glyph unicode="Q" horiz-adv-x="728" d="M574 -120q42 0 84 20q13 7 18 21t-1 27q-7 13 -21 17.5t-27 -1.5q-24 -15 -54 -13t-56 12t-62 32q63 51 113 131q73 117 98 252q26 138 -11 216q-25 51 -62 85q-35 32 -81 46q-114 33 -247 -48q-51 -30 -101 -99t-82 -155q-35 -91 -41 -179q-6 -101 28 -178 q6 -13 19.5 -18.5t27.5 0.5q13 6 18.5 20t-0.5 27q-37 94 -15 201t75 198t107 123q110 64 191 40q64 -20 99 -94q15 -41 14 -102.5t-27 -144t-70 -152.5q-52 -83 -119 -129q-67 41 -118 60q-74 28 -113 -14q-39 -40 -14 -101q13 -30 39.5 -47.5t59.5 -17.5q77 0 146 36 q79 -47 119 -60q36 -11 66 -11zM219 35q9 0 27 -6q33 -13 68 -32q-35 -11 -71 -11q-27 0 -33 22q-7 18 -1 24q3 3 10 3z" />
<glyph unicode="R" horiz-adv-x="616" d="M607 605q18 -43 13 -101q-3 -45 -27 -85q-20 -34 -57 -61q-57 -40 -149 -60q-65 -13 -137 -15q119 -192 222 -289q26 -24 49 -40t33 -20l10 -4h-1q12 -2 19.5 -12t7.5 -22q0 -15 -10 -25.5t-25 -10.5q-6 0 -12 2q-17 5 -42 20.5t-69.5 52.5t-107.5 116t-130 188 q-62 -189 -84 -308q-2 -13 -12 -21.5t-22 -8.5q-5 0 -7 1q-14 2 -22.5 14.5t-5.5 26.5q30 174 142 482q47 129 82 215q-65 -13 -129 -36q-13 -5 -26.5 1t-18.5 20t1 27.5t20 18.5q130 46 240 52q129 7 201 -46q37 -29 54 -72zM549 509q6 77 -39 111q-49 38 -154 32h-10 q-66 -166 -113 -298q74 0 141 14q167 35 175 141z" />
<glyph unicode="S" horiz-adv-x="567" d="M220 -100q15 0 39 2q101 10 161 46q77 47 86 132q9 87 -56 149q-50 48 -150 106q-38 23 -68 42q-46 32 -54 81q-9 58 36 117q31 40 79 61t93 24q55 3 77 -19q16 -17 -31 -115q-39 -82 -39 -119q0 -14 10.5 -24.5t25.5 -10.5q14 0 24.5 10.5t10.5 24.5q0 23 33 89 q30 67 37 93q15 64 -19 101q-44 46 -133 41q-61 -3 -120 -31q-65 -30 -104 -82q-65 -85 -50 -171q6 -41 30 -74q20 -31 55 -55q13 -9 71 -44q91 -53 137 -96q40 -38 35 -90q-6 -52 -53 -79q-44 -28 -130 -36q-96 -9 -136 28q-45 43 -37 101q6 51 59 79q13 7 17.5 21t-2.5 27 t-21 17.5t-27 -2.5q-85 -45 -96 -132q-6 -46 10 -88q15 -43 48 -74q53 -50 152 -50z" />
<glyph unicode="T" horiz-adv-x="540" d="M690 701q4 -14 -3.5 -27t-21.5 -17q-59 -15 -217 -15q-11 1 -32 1q-33 -96 -84 -232q-76 -204 -95 -280q-32 -122 -13 -197q4 -14 -4 -26.5t-22 -16.5q-3 -1 -9 -1q-27 0 -34 27q-24 93 13 232q22 87 97 287q50 134 75 206q-139 -4 -246 -30q-3 -1 -9 -1q-27 0 -34 27 q-4 14 4 26.5t22 16.5q138 34 371 32q149 0 199 13q14 4 26.5 -3.5t16.5 -21.5z" />
<glyph unicode="U" horiz-adv-x="750" d="M611 -111q25 0 50 7q14 5 21 17.5t3 26.5t-16.5 21.5t-26.5 3.5q-41 -12 -58 5q-19 19 -18 85q1 65 26 172q1 4 2.5 11t2.5 10l9 28q13 43 64 205q43 136 62 190q5 13 -1 26.5t-20 18.5t-27.5 -1.5t-18.5 -20.5q-97 -270 -136 -426q-57 -174 -108 -236q-25 -31 -55 -43.5 t-75 -11.5q-34 1 -46 20q-22 33 -8 120q16 92 69 232q44 117 49 203q3 81 -30 128q-39 53 -108 50q-45 -2 -91 -33q-46 -32 -69 -80q-43 -89 19 -175q9 -11 23.5 -13.5t26.5 6.5q11 9 13.5 23.5t-6.5 26.5q-37 51 -12 101q15 31 44.5 51.5t54.5 21.5q31 1 47 -21 q47 -67 -28 -264q-55 -145 -72 -246q-19 -113 19 -171q34 -50 104 -51q117 -3 186 81q10 12 20 28q6 -61 36 -94q22 -24 58 -30q12 -2 21 -2z" />
<glyph unicode="V" horiz-adv-x="669" d="M241 -110h2q64 0 152 67q58 44 107 108q59 77 104 178q121 278 65 401q-22 48 -67 63q-14 4 -27 -2.5t-17 -20.5q-5 -14 2 -27.5t21 -17.5q14 -5 23 -25t12 -51t-14.5 -110t-62.5 -181q-74 -169 -186 -256q-27 -20 -53 -33.5t-39 -17.5t-19 -4q-12 1 -16 5q-17 23 18 123 q3 10 11 32q18 51 28 81t25.5 78.5t23 83t14 76t6.5 76.5t-7 66q-21 102 -85 132q-57 28 -130 -9q-41 -21 -72 -72q-32 -54 -30 -105q2 -78 73 -112q13 -6 27 -0.5t20 18.5t1 27t-18 20q-32 15 -32 48q-1 32 19.5 66.5t43.5 45.5q41 21 68 9q31 -15 46 -83q11 -50 -3 -130.5 t-31.5 -135.5t-53.5 -157q-9 -25 -11 -32q-47 -132 -10 -186q23 -33 72 -36z" />
<glyph unicode="W" horiz-adv-x="953" d="M241 -100h2q64 0 152 67q29 22 62 55q-9 -51 10 -82q16 -29 55 -34q2 0 7 -0.5t8 -0.5q85 0 187 100q95 92 168 236q66 133 77 245q7 62 -5 115q-13 56 -50 96q-10 11 -25 11.5t-25 -9.5q-11 -10 -11.5 -24.5t9.5 -25.5q47 -52 37 -156q-11 -102 -70 -220 q-66 -131 -155 -218q-86 -84 -144 -78h-3q-7 20 9 77q15 53 59 165q31 80 42 111q0 1 0.5 2.5t1.5 2.5q5 15 -2 27.5t-19 17.5q-14 5 -26.5 -0.5t-18.5 -18.5q-1 -1 -1 -2l-2 -4l-5 -14q-17 -44 -24 -59q-74 -169 -186 -256q-27 -20 -53 -33.5t-39 -17.5t-19 -4q-12 1 -16 5 q-17 23 18 123q3 10 11 32q18 51 28 81t25.5 78.5t23 83t14 76t6.5 76.5t-7 66q-21 102 -85 132q-57 28 -130 -9q-41 -21 -72 -72q-32 -54 -30 -105q2 -78 73 -112q13 -6 27 -0.5t20 18.5t1 27t-18 20q-32 15 -32 48q-1 32 19.5 66.5t43.5 45.5q41 21 68 9q31 -15 46 -83 q11 -50 -3 -130.5t-31.5 -135.5t-53.5 -157q-9 -25 -11 -32q-47 -132 -10 -186q23 -33 72 -36z" />
<glyph unicode="X" horiz-adv-x="706" d="M706 188q14 -6 19.5 -19.5t-0.5 -27.5q-1 -4 -9 -20.5t-25.5 -48.5t-36.5 -60q-39 -58 -74 -87q-40 -33 -81 -33q-13 0 -25 3q-62 18 -98 97q-27 60 -39 157q-2 10 -2 16q-116 -140 -255 -275q-10 -10 -24 -10q-15 0 -26 11q-10 11 -10 25t11 25q160 155 296 327 q-2 38 -2 203q1 31 1 68q-4 40 -15.5 65.5t-28.5 34.5t-26.5 11.5t-22.5 2.5q-18 0 -42 -13.5t-37 -37.5q-27 -48 16 -118q8 -13 4.5 -27.5t-16.5 -21.5q-12 -8 -26.5 -4.5t-22.5 16.5q-33 52 -36 103q-3 46 19 87q23 40 63.5 63.5t77.5 23.5q66 0 107 -41q48 -47 56 -138 q2 -12 0 -76v-31.5v-41v-37.5q115 159 212 326q7 13 21.5 16.5t27.5 -3.5t16.5 -21.5t-3.5 -27.5q-133 -225 -271 -403q4 -58 8 -88q23 -176 86 -195q15 -3 42 17q29 24 60 72q17 25 33 54t24 46l8 17q6 14 19.5 19.5t26.5 -0.5z" />
<glyph unicode="Y" horiz-adv-x="706" d="M322 -200q70 0 126 50q46 41 81 119q43 92 100 336q21 89 34.5 141t36.5 120.5t48 112.5q13 24 -6 43q-21 19 -43 5q-23 -14 -41.5 -48.5t-52.5 -120.5q-64 -164 -110 -233q-72 -109 -155 -109q-26 0 -37 17q-11 16 -14.5 46t5 83t31.5 117q53 147 7 213q-34 48 -111 48 q-45 0 -89 -29q-46 -29 -69 -75q-46 -91 22 -187q8 -11 23 -13.5t27 6.5q11 8 13.5 22.5t-6.5 26.5q-43 61 -16 113q16 30 44 47q29 18 51 18q35 0 53 -18q24 -35 -16 -148q-35 -102 -41 -178q-6 -85 28 -133q33 -47 95 -47q67 0 125 42q45 33 85 92q-47 -198 -85 -281 q-59 -127 -143 -127q-38 0 -62 18t-32 43q-9 28 1 34q12 9 14.5 23.5t-6.5 26.5q-8 12 -22.5 14t-26.5 -6q-24 -17 -31.5 -48t3.5 -66q16 -47 55 -76q45 -34 107 -34z" />
<glyph unicode="Z" horiz-adv-x="680" d="M749 667q5 -13 -1 -26.5t-20 -18.5q-40 -16 -84 -19q-64 -128 -120 -223q28 0 55 -1.5t43 -2.5l15 -1q15 -1 24.5 -12.5t8.5 -25.5q-1 -15 -12.5 -24.5t-26.5 -8.5h-4q-4 1 -11.5 1.5t-17.5 1t-23.5 1t-27.5 0.5h-31.5h-34.5q-42 -68 -90 -135q-52 -73 -108 -134l53 -15 q159 -42 239 -14q14 5 27.5 -1.5t17.5 -20.5q5 -14 -1.5 -27t-20.5 -18q-58 -20 -136 -14q-62 4 -144 26q-38 11 -93 29q-71 -61 -132 -64h-8q-37 0 -64 15q-29 15 -43 45q-12 27 -6.5 56.5t25.5 50.5q45 46 111 18l9 -3q39 -17 92 -37q55 54 125 150q27 38 59 88 q-87 -9 -140 -27q-8 -2 -12 -2q-25 0 -33 24q-5 14 1.5 27t20.5 18q79 27 210 35q61 101 126 228q-56 7 -161 39q-41 13 -71 20q-44 12 -81 6.5t-57 -26.5q-30 -33 -11 -97q5 -14 -2 -27t-21 -17q-8 -2 -11 -2q-26 0 -34 25q-32 106 28 167q34 35 89 46t118 -6q11 -3 74 -21 q50 -15 75.5 -21.5t66 -13.5t73 -4t62.5 14q14 5 27.5 -1t18.5 -20zM90 -9q26 2 56 22l-56 23q-2 0 -5 2t-4 2q-10 4 -18 4q-9 0 -15 -6q-12 -12 -5 -29q10 -20 47 -18z" />
<glyph unicode="[" horiz-adv-x="438" d="M165 -90q33 0 73 3q27 3 55.5 7t44.5 6l16 3q14 3 22.5 15t5.5 26q-2 15 -14 23t-27 6l-6 -1q-6 -1 -16.5 -3t-23.5 -3.5t-30 -4t-33 -3.5q-81 -7 -124 1q5 21 42 203q44 219 56 273q21 101 36 149q10 3 55 7q91 7 159 20q15 3 23 15t5 27q-2 14 -14.5 22t-26.5 6 q-62 -13 -151 -20q-42 -3 -63.5 -7.5t-36.5 -16.5q-13 -13 -27 -66q-6 -21 -26 -108q-22 -103 -59 -287q-38 -198 -47 -228q-5 -13 -0.5 -26t17.5 -19q38 -19 115 -19z" />
<glyph unicode="\" horiz-adv-x="604" d="M437 -140q11 0 20 6q12 8 14.5 23t-5.5 27q-17 21 -60 174q-25 89 -80 305q-73 286 -89 317q-7 13 -20.5 18t-26.5 -2q-13 -6 -18 -20t2 -27q15 -31 83 -303q62 -242 95 -356.5t55 -146.5q11 -15 30 -15z" />
<glyph unicode="]" horiz-adv-x="457" d="M51 -80q7 0 14 3q55 25 212 18q13 -1 23.5 7t12.5 21l141 694q3 14 -5 27q-9 12 -25 15q-20 3 -55.5 6.5t-113.5 3.5t-133 -11q-15 -2 -23 -14.5t-5 -26.5q3 -15 15 -23t26 -5q89 18 242 4l-127 -626h-62q-103 -3 -152 -25q-13 -6 -18.5 -20t0.5 -27q10 -21 33 -21z" />
<glyph unicode="^" horiz-adv-x="210" d="M1 464q0 -17 13 -24q45 30 100 48q50 -45 71 -82q25 12 25 38q0 30 -35 68t-60 38q-27 0 -70.5 -30.5t-43.5 -55.5z" />
<glyph unicode="_" horiz-adv-x="887" d="M35 -70q3 0 11 2q76 23 352 17q90 -3 183.5 -0.5t141.5 15.5q14 4 21.5 17t3.5 27t-17 21.5t-27 3.5q-63 -17 -305 -13q-98 5 -207 1t-167 -22q-14 -4 -21 -17t-2 -27q7 -25 33 -25z" />
<glyph unicode="`" horiz-adv-x="138" d="M-4 519q70 -54 117 -110q25 12 25 36q0 23 -42 68t-68 45q-13 0 -22 -10.5t-10 -28.5z" />
<glyph unicode="a" horiz-adv-x="434" d="M73 -62h5q58 3 132 62q3 -9 8 -20q21 -32 71 -32q63 0 114 47q52 46 99 135q7 13 2.5 27t-17.5 21t-27 2.5t-21 -17.5q-76 -144 -150 -144q-10 0 -11 1q-2 6 4 31q2 6 6.5 17.5t5.5 14.5q16 18 21 25q45 58 31 89q-7 12 -20 18q13 -1 23.5 7t12.5 21q12 61 -35 91 q-35 22 -85.5 14.5t-96.5 -40.5q-55 -40 -108 -109q-60 -82 -66 -144q-6 -49 26 -84q30 -33 76 -33zM266 279q14 0 22 -5q7 -2 4 -17q-5 -29 22 -40h-3q-22 0 -41 -25q-11 -14 -23 -41l-6 -13q-1 -3 -3.5 -8.5t-4.5 -8.5q-98 -109 -158 -112q-16 -1 -26 10q-9 11 -8 30 q4 44 51.5 105.5t94.5 95.5q40 29 79 29z" />
<glyph unicode="b" horiz-adv-x="399" d="M108 -80q91 0 179 110q9 0 27 2q46 6 90 33.5t70 67.5q8 12 5 26.5t-15 22.5q-13 8 -27.5 5.5t-21.5 -15.5q-33 -46 -82 -62q31 75 -2 122q-36 49 -90 38q-29 -5 -53 -30t-33 -60q-18 -73 40 -123l14 -9q-13 -13 -20 -19q-38 -32 -75 -37.5t-57 21.5q-34 48 10 177l15 40 q110 29 183 121q53 67 87 166q22 67 19 114q-2 59 -40 79q-32 16 -67 -6q-29 -18 -53 -53q-52 -74 -110 -197t-100 -239q-59 -163 -2 -243q37 -52 109 -52zM298 642q3 -9 2 -24q0 -32 -16 -78q-54 -164 -166 -221q82 192 151 291q16 23 29 32zM255 201h2q8 0 17 -12 q12 -17 -14 -70q-7 -12 -8 -13q-6 1 -11 6q-24 20 -17 51q4 15 13 25.5t18 12.5z" />
<glyph unicode="c" horiz-adv-x="303" d="M118 -76q84 0 154 56q68 54 110 152q5 14 -0.5 27.5t-18.5 18.5q-13 6 -27 0.5t-20 -18.5q-33 -79 -85 -122t-113 -43q-35 0 -54 39q-18 36 -2.5 88.5t60.5 112.5q52 68 89 58q18 -4 20 -25q3 -21 -22 -34q-13 -7 -17.5 -21t2.5 -27q8 -13 21.5 -17.5t26.5 2.5 q33 17 48 46q15 27 12 59q-5 30 -22 53q-19 24 -50 32q-39 12 -83 -10q-41 -20 -81 -73q-49 -65 -68 -124.5t-15 -92t18 -59.5q19 -37 51 -58q31 -20 66 -20z" />
<glyph unicode="d" horiz-adv-x="471" d="M86 -45q12 0 24 3q59 13 127 93q9 10 27 34q-3 -58 16 -89q22 -35 66 -35q60 0 107 39q43 36 93 128q7 14 2.5 27.5t-17.5 20.5t-27 2.5t-21 -17.5q-43 -81 -73.5 -105t-63.5 -24q-4 0 -6 2q-5 7 -6.5 23.5t11 77.5t45.5 151q57 105 132 272q6 13 14.5 31t10.5 22 q12 22 19 44q10 29 -2 48q-14 19 -35 16q-22 -1 -38 -27q-11 -15 -21 -39l-13 -28q-76 -164 -117 -269q-1 0 -3 2q-34 22 -88 13t-102 -44q-56 -40 -108.5 -117.5t-54.5 -141.5q-2 -56 34 -86q30 -27 68 -27zM277 302q14 0 22 -4q4 -4 2 -12t0 -14l-11 -18 q-123 -211 -195 -227q-18 -3 -31 9q-10 10 -9 29q2 42 46 109q42 63 87 95q34 25 69 31q8 2 20 2z" />
<glyph unicode="e" horiz-adv-x="311" d="M127 -56q72 0 141 44q83 51 123 145q5 14 -0.5 27.5t-18.5 18.5q-14 6 -27.5 0.5t-19.5 -19.5q-31 -72 -89.5 -108.5t-108.5 -36.5q-22 0 -44 9.5t-31 27.5q-8 14 -6 32q142 27 202.5 75t70.5 98q6 32 -4 57q-9 28 -32 43q-41 27 -99 10q-72 -23 -138 -114 q-52 -71 -66 -132q-14 -59 9 -102q19 -38 58.5 -56.5t79.5 -18.5zM225 302q13 0 19 -4q9 -6 5 -26q-6 -30 -50 -60t-127 -50q14 26 32 50q51 71 100 87q12 3 21 3z" />
<glyph unicode="f" horiz-adv-x="310" d="M3 -295q49 0 95 72q54 82 70 195q5 40 5 72q26 -26 57 -29q69 -6 150 103q9 12 6.5 26.5t-13.5 23.5q-12 8 -26.5 6t-23.5 -14q-33 -45 -60 -63q-16 -13 -26 -11q-9 1 -24 20q-10 13 -31 58q-12 28 -26 50q-9 15 -21 24q36 15 73 40q45 32 86 84q63 78 97 180 q22 65 20 113q-4 59 -41 79q-32 16 -67 -6q-26 -15 -53 -53q-59 -84 -128 -223t-102 -241q-50 -154 -70 -283q-24 -154 8 -200q17 -23 45 -23zM338 666q2 -10 2 -23q-2 -37 -16 -79q-25 -74 -73.5 -142t-112.5 -104q86 197 170 316q17 24 30 32zM81 169q17 -50 20 -101.5 t-5 -93.5t-16 -67.5t-17 -46.5q-19 -40 -38 -63q-5 -6 -13 -14q-7 40 8 137q22 129 61 249z" />
<glyph unicode="g" horiz-adv-x="432" d="M47 -292q14 0 25 4q36 10 74 55q33 39 64 98q20 38 36 76q74 35 108 61q61 46 106 129q7 13 3 27t-17 21q-14 7 -27.5 3t-21.5 -17q-46 -84 -115 -126q8 24 22 74l8 11q46 58 27 91q-7 12 -17 16q13 -1 24 6.5t14 21.5q11 62 -36 91q-34 22 -84.5 14.5t-96.5 -40.5 q-55 -40 -108 -109q-61 -81 -67 -144q-5 -51 27 -84q33 -36 81 -33q54 3 120 53q-1 -2 -2.5 -6.5t-2.5 -6.5l-48 -22q-74 -38 -116 -80q-51 -49 -57 -94q-6 -41 23 -69q24 -21 54 -21zM263 295q15 0 23 -5q7 -2 4 -17q-5 -26 19 -38q-7 0 -10 -1q-41 -5 -57 -73l-3 -15 q-43 -50 -89 -85t-77 -36q-16 -1 -26 10q-10 12 -8 30q4 44 51.5 105.5t94.5 95.5q39 29 78 29zM144 -108q-54 -100 -93 -112q-6 -2 -10 2q-2 2 -1 6q3 18 30 47t74 57z" />
<glyph unicode="h" horiz-adv-x="464" d="M47 -49q24 0 46 36q1 2 26 49q54 103 79 137q45 62 76 62q16 0 19 -3q0 -21 -1 -26q-4 -19 -20 -63q-19 -60 -22 -73q-9 -49 10 -77q23 -32 73 -32q66 0 149 95q17 19 33 40t25 34l8 13q7 12 4 26.5t-15 22.5q-13 7 -27 4t-22 -15l-8 -11q-7 -11 -21.5 -30.5t-29.5 -36.5 q-62 -71 -96 -71q-5 0 -10 1l-5 1q0 14 3 26q2 11 18 59q13 37 19 58t6 49t-13 47q-24 33 -77 33q-67 0 -134 -92q-35 -47 -76 -130q4 47 17 114q6 26 10 39q102 30 172 118q56 70 87 167q22 62 20 114q-4 60 -41 79q-33 15 -67 -6q-27 -17 -52 -53q-60 -85 -115 -205 q-59 -126 -83 -238q-18 -85 -20 -147q-3 -71 18 -97q14 -18 37 -18zM297 647q2 -10 2 -24q0 -28 -16 -79q-54 -160 -164 -219q63 169 149 290q12 18 29 32z" />
<glyph unicode="i" horiz-adv-x="244" d="M203 434q20 0 30 15l1 2l4 6q8 12 5.5 26.5t-14.5 22.5t-26.5 5.5t-23.5 -14.5l-3 -5l-2 -2q-6 -10 -6 -21q0 -19 15 -29q9 -6 20 -6zM101 -38q58 0 109 43q53 47 92 138q5 14 -0.5 27.5t-18.5 18.5q-13 6 -27 0.5t-20 -18.5q-57 -138 -135 -138q-29 0 -38 17 q-3 6 -4 14.5t2 29t13.5 47t34.5 69t60 93.5q8 12 6 26.5t-14 22.5q-12 9 -27 6.5t-23 -14.5q-162 -229 -111 -326q16 -30 49 -46q25 -10 52 -10z" />
<glyph unicode="j" horiz-adv-x="227" d="M130 439q-16 11 -16 29q0 10 7 20l1 2l4 6q8 12 22.5 14.5t26.5 -6.5q12 -8 14.5 -22.5t-5.5 -26.5l-3 -5l-2 -2q-11 -16 -29 -16q-12 0 -20 7zM261 171q13 -8 17 -21.5t-3 -26.5q-45 -82 -106 -130q-36 -28 -100 -57q-29 -79 -63 -130q-39 -62 -84 -88q-27 -15 -56 -15 q-25 0 -49 12q-37 19 -37 59q1 47 56 102q49 51 123 87q28 15 53 25q26 77 40 147q-12 -9 -26.5 -7.5t-23.5 12.5q-10 11 -8.5 25.5t12.5 24.5q43 35 65 65q0 2 0.5 7t1.5 7q7 77 46 89q24 8 41 -12q16 -19 8 -50q-7 -28 -20 -53l-8 -14q-12 -97 -40 -197q68 42 113 125 q7 13 21 17t27 -3zM-112 -219q43 24 84 109q-52 -28 -87 -65q-28 -30 -33 -48q18 -7 36 4z" />
<glyph unicode="k" horiz-adv-x="462" d="M47 -50q21 0 36 20q6 8 12 21q7 13 28 59q52 113 84 164q49 76 78 76q49 0 49 -40q0 -27 -25 -49q-30 -28 -87 -28q-17 0 -27 -13q-11 -14 -8 -30q20 -97 51 -132q32 -38 96 -38q69 0 135 98q19 28 49 89q6 14 0.5 27t-19.5 19q-13 6 -27 0.5t-19 -18.5l-5 -11 q-6 -11 -16.5 -30t-21.5 -36q-45 -67 -76 -67q-30 0 -43 13q-13 16 -25 61q54 10 90 42q49 44 49 103q0 48 -32 78q-33 33 -88 33q-41 0 -80 -36q-28 -27 -58 -73q-38 -61 -81 -157q5 52 16 102q14 65 39 129q63 19 117 72q65 62 92 142q21 61 24 104q1 24 -3 40 q-7 25 -27 36q-31 15 -66 -12q-21 -16 -48 -54q-59 -84 -114 -204q-61 -131 -83 -238q-18 -83 -21 -148q-2 -70 19 -96q13 -18 36 -18zM268 613l13 17q-6 -32 -18 -68q-20 -60 -74 -113q-8 -8 -26 -22q50 108 105 186z" />
<glyph unicode="l" horiz-adv-x="245" d="M100 -39h1q39 0 75.5 19t63 50t41.5 54t26 45q7 13 2 27t-18 21t-27 2t-20 -18q-2 -4 -10.5 -21.5t-12 -24t-11.5 -19t-17 -21.5t-20 -17q-35 -26 -72 -26h-1q-31 0 -40 13q-23 33 11 140q3 0 7 2q105 44 190 161q66 92 94 185q22 61 20 114q-2 61 -41 78q-30 16 -67 -5 q-27 -18 -52 -54q-57 -80 -119 -213q-60 -125 -98 -240q-48 -147 -3 -210q31 -42 98 -42zM309 657q2 -8 2 -23q0 -32 -16 -79q-25 -76 -74.5 -151.5t-114.5 -120.5q87 220 174 343q16 22 29 31z" />
<glyph unicode="m" horiz-adv-x="660" d="M506 -40q16 0 32 4q65 14 119 81q33 41 49 81q5 14 -1 27.5t-20 18.5t-27.5 -1t-18.5 -20q-10 -26 -42 -67t-74 -51q-14 -2 -15 -2q0 5 3 20q5 21 17 53q18 55 22 71q8 52 -13 77q-26 31 -80 22q-57 -10 -111 -67q14 75 -8 107q-18 28 -50 26q-61 -1 -137 -79 q-29 -28 -65 -73q6 28 10 61q1 15 -8.5 26t-23.5 13q-15 1 -26 -8.5t-13 -23.5q-3 -36 -19.5 -98.5t-30.5 -104t-16 -45.5q-10 -29 18 -43q12 -6 25 -2.5t20 14.5q107 162 179 234q48 48 79 56q2 -28 -11 -80q-20 -78 -62 -163q-7 -12 -3 -25t16 -21q12 -7 26 -4t21 14 q105 146 139 179q33 32 62 37q7 1 14 1q0 -7 -4 -23q-7 -28 -17 -55q-17 -50 -21 -70q-12 -48 13 -76q17 -17 40 -20q4 -1 13 -1z" />
<glyph unicode="n" horiz-adv-x="473" d="M2 -24q19 0 30 16q164 251 239 251q26 0 31 -7v-1q1 -1 1.5 -3t0.5 -5.5t-0.5 -8.5t-1.5 -11q-6 -28 -21 -65q-17 -51 -20 -67q-12 -45 13 -72q30 -33 104 -15q66 17 120 100q11 17 21 35.5t14 28.5t4 11q5 14 -1 27.5t-19 18.5q-14 5 -27.5 -1t-18.5 -20 q-12 -31 -33 -63q-39 -59 -77 -68q-21 -5 -32 -5q0 5 3 17q4 14 16 48q20 57 23 77q10 51 -11 83q-25 37 -89 37q-56 0 -119 -56q-27 -24 -57 -60q8 39 11 66q1 15 -8.5 26t-23.5 13q-15 1 -26 -8.5t-13 -23.5q-3 -36 -19.5 -98.5t-30.5 -104t-16 -45.5q-10 -29 18 -43 q7 -4 15 -4z" />
<glyph unicode="o" horiz-adv-x="393" d="M68 -51q6 0 24 2q50 11 111 60q27 23 45 43q44 -5 82 10q52 20 89 68q10 12 8 26.5t-13 23.5q-12 9 -26.5 7.5t-23.5 -12.5q-28 -37 -65 -48q3 5 7 15q30 69 19 129q-13 69 -67 88q-58 18 -119 -37q-27 -23 -40 -56q-15 1 -26 -10q-67 -64 -89 -146q-24 -89 18 -135 q25 -28 66 -28zM229 295q4 0 6 -1q15 -5 20 -33q10 -58 -34 -126q-47 24 -58 66q-12 39 23 71q26 23 43 23zM95 178q18 -61 79 -98q-2 -2 -7.5 -7t-8.5 -7q-48 -38 -80 -45q-13 -2 -23 3q-16 20 -3 70q13 45 43 84z" />
<glyph unicode="p" horiz-adv-x="413" d="M385 238q9 -62 -21 -122q-33 -68 -110 -116q-79 -50 -145 -44q-36 2 -60 20l-4 4q-3 -9 -20 -58q-1 -3 -2 -8.5t-2 -8.5q-19 -70 -52 -168q-10 -23 -33 -23q-4 0 -12 2q-14 5 -20.5 17.5t-2.5 26.5q40 133 56 181q52 199 82 413q1 15 12.5 24t26.5 7t24 -14t7 -26 q-2 -18 -6.5 -49t-6.5 -43q38 54 81 78q54 29 117 14q36 -8 61 -39q22 -26 30 -68zM216 60q59 37 82 82t17 84q-8 44 -37 50q-35 8 -67.5 -7.5t-70.5 -75.5q-35 -57 -73 -153q12 1 24 -7h1q12 -6 28 -7q41 0 96 34z" />
<glyph unicode="q" horiz-adv-x="417" d="M475 166q12 -9 14 -23.5t-6 -26.5q-6 -9 -16 -12l-7 -3q-6 -3 -17 -9t-24.5 -14.5t-31 -22t-33.5 -28.5q-115 -110 -136 -286q-1 -13 -11.5 -22.5t-24.5 -9.5h-1q-14 1 -23.5 10.5t-10.5 23.5q0 107 46 260q-59 -42 -106 -43q-48 -3 -81 32q-32 33 -27 85q6 64 67 144 q51 67 108 108q46 34 96.5 41.5t84.5 -14.5q47 -29 36 -91q-3 -13 -13.5 -21t-23.5 -7q14 -6 20 -18q15 -31 -31 -90q-9 -12 -18 -22l-18 -46q7 6 21 20q60 57 129 87q21 10 38 -2zM255 173q29 65 64 66h4q-27 10 -22 40q3 12 -4 17q-8 5 -23 5q-39 0 -78 -29 q-47 -34 -94.5 -95.5t-51.5 -105.5q-2 -20 8 -30q10 -11 26 -10q30 1 74 33.5t86 80.5q1 3 11 28z" />
<glyph unicode="r" horiz-adv-x="363" d="M190 -45h9h1q63 5 127 57q61 48 100 114q8 12 4.5 26.5t-16.5 21.5q-13 8 -27.5 4.5t-21.5 -16.5q-34 -56 -82.5 -95t-87.5 -41h-2q-11 -1 -13 1q-7 22 24 86q39 81 31 125q-10 56 -86 102q4 18 4 25q2 39 -27 52q-17 8 -36 0.5t-29 -26.5q-15 -27 -4 -56q3 -8 8 -16 q-58 -131 -82 -178q-6 -13 -1 -27t18 -20t27 -1t21 18q1 2 13.5 29t30.5 67t30 66q38 -25 43 -48q4 -22 -25 -81q-26 -53 -31 -91q-6 -41 12 -66q21 -32 68 -32z" />
<glyph unicode="s" horiz-adv-x="307" d="M130 -66q80 0 115 53q62 92 -27 316q-7 20 -7 22q13 49 -10 68q-21 20 -46 2q-21 -14 -19 -52q0 -2 0.5 -6t0.5 -6q-3 -10 -9 -20q-42 -86 -151 -186q-11 -10 -11.5 -24.5t9.5 -25.5t24.5 -11.5t25.5 9.5q65 59 108 113q20 26 34 50q19 -54 27 -98q14 -80 -8 -111 q-13 -22 -56 -22q-24 0 -39 5.5t-19 10.5t-9 14q-7 13 -21 17.5t-27 -2.5t-17.5 -20.5t2.5 -27.5q36 -68 130 -68z" />
<glyph unicode="t" horiz-adv-x="293" d="M326 180q13 -6 18.5 -20t-0.5 -27q-31 -74 -100 -130q-72 -59 -138 -64h-11q-64 0 -97 53q-28 46 -12 138q10 60 39 138q-7 0 -10 1q-29 3 -26 33q2 11 6 18.5t12 10.5t13 4t16.5 1.5t15.5 0.5q66 158 115 222q20 25 48 39.5t50 -1.5q25 -16 16 -49q-5 -18 -17 -36 q-23 -36 -107 -176l108 3q15 1 26 -8.5t13 -23.5q1 -15 -8.5 -26t-23.5 -13l-20 -1q-19 -1 -56 -2t-79 -1h-18q-33 -88 -43 -147q-12 -66 2 -87q13 -22 43 -20q46 4 100 50t78 101q6 13 19.5 18.5t27.5 0.5z" />
<glyph unicode="u" horiz-adv-x="441" d="M78 -43h7q61 4 137 94q6 -56 43 -76q48 -26 116 24q56 41 122 137q8 12 5.5 26.5t-14.5 22.5q-13 8 -27.5 5.5t-22.5 -14.5q-55 -83 -101 -116q-32 -26 -44 -22q-10 10 -5 48q4 55 43 147q6 14 1 27t-19 19q-13 6 -27 0.5t-20 -18.5q-33 -77 -95 -154q-63 -77 -98 -79 q-6 0 -12 8q-26 51 60 228q7 14 2 27.5t-18 20.5q-13 6 -27 1t-21 -18q-44 -92 -62 -159q-22 -91 6 -137q26 -42 71 -42z" />
<glyph unicode="v" horiz-adv-x="410" d="M78 -52q12 0 24 4q30 8 66 36q48 37 89 99q6 -8 9 -11q29 -33 68 -38q36 -5 71 19q32 24 52 66q7 13 2 27t-18 21t-27 2t-20 -18q-24 -49 -52 -47q-12 2 -24 15.5t-18 37.5q16 32 38 82q28 57 -2 84q-25 20 -54 3q-32 -20 -47 -66q-16 -43 -10 -92q-48 -88 -100 -128 q-15 -11 -27 -17t-16.5 -7t-5.5 0q-2 1 -5 5.5t-7 29t-2 61.5q1 14 2 29t2.5 26.5t3 21t2.5 15.5l1 5q3 14 -5.5 26.5t-22.5 15.5q-14 2 -26.5 -6t-15.5 -22l-1 -7q-1 -6 -2.5 -16t-3.5 -23t-3 -29.5t-2 -31.5q-3 -53 4 -86q11 -54 43 -75q20 -11 40 -11z" />
<glyph unicode="w" horiz-adv-x="611" d="M290 -45q96 0 180 131q12 21 13 23q18 -45 46 -59q32 -19 76 2q42 22 82 85q7 12 4 26.5t-15 22.5t-26.5 5t-22.5 -16q-30 -47 -54 -59q-7 -4 -11 -4q-19 19 -29 98q4 9 8.5 21.5t5.5 14.5q21 62 -11 90q-21 20 -46 5q-24 -12 -30 -52q-3 -28 0 -69q-26 -58 -50 -96 q-58 -91 -112 -98q-9 25 -3 87q4 52 19 104q5 12 13 38q4 14 -3 27t-20 17t-26.5 -2t-18.5 -20l-12 -38q-34 -94 -89 -153q-25 -29 -51 -46l-26 -13q-11 4 -14 10q-14 23 -4 75q12 62 58 134q8 12 5 26.5t-15 22.5q-13 8 -27.5 5t-21.5 -16q-54 -83 -69 -159 q-14 -77 11 -121q26 -48 77 -48q58 2 129 81q4 4 12 14q3 -45 20 -70q17 -26 48 -26z" />
<glyph unicode="x" horiz-adv-x="430" d="M470 193q14 -5 20 -18.5t1 -27.5q-3 -7 -7 -16t-18 -34t-30 -46t-42 -43.5t-54 -35.5q-26 -13 -50 -13q-21 0 -37 10q-33 17 -50 74q-6 22 -8 34q-26 -31 -53.5 -64.5t-41.5 -50.5l-15 -18q-11 -14 -28 -14q-11 0 -22 8q-11 9 -12.5 24t7.5 26q0 1 19 24.5t54.5 66 t68.5 80.5l9 10q0 3 -1 4q-8 59 -26 77q-40 -13 -100 -119q-7 -13 -21 -17.5t-27 3.5t-16.5 21.5t3.5 26.5q43 77 75 109.5t67 43.5q29 9 56 -8q31 -20 48 -75q16 17 44 45q62 63 92 71q14 3 26.5 -5t16.5 -22q4 -13 -3.5 -25.5t-21.5 -16.5q-14 -5 -65 -57q-32 -31 -72 -78 q11 -69 15 -85q8 -27 16 -31q5 -3 24 5q32 15 60.5 50t40.5 59.5t12 27.5q5 13 18.5 19t27.5 1z" />
<glyph unicode="y" horiz-adv-x="400" d="M38 -290q11 0 16 2q25 5 50.5 22.5t46.5 42t34.5 44t25.5 39.5q21 35 38 76q161 79 216 203q6 13 0.5 27t-18.5 20t-27 0.5t-20 -18.5q-34 -77 -115 -129q18 59 31 126l2 2q22 33 30 63q8 35 -6 56q-16 23 -43 16q-37 -9 -46 -78q-2 -20 -4 -31q-86 -118 -173 -120 q-9 16 0 62q14 67 62 126q10 12 8 26.5t-13 23.5q-11 10 -26 8t-24 -13q-53 -67 -73 -143q-20 -74 2 -121q19 -40 61 -40q67 0 126 40l17 12q-14 -44 -23 -66q-9 -5 -26.5 -12.5t-21.5 -9.5q-10 -4 -26 -11t-20 -9q-52 -26 -89.5 -70.5t-41.5 -84.5q-5 -42 25 -65 q19 -16 45 -16zM41 -219h-3q0 16 19 41q31 39 73 60l16 7q-30 -48 -58.5 -76.5t-46.5 -31.5z" />
<glyph unicode="z" horiz-adv-x="331" d="M14 -296q56 0 121 43q131 85 131 202q0 14 -4 40q77 60 118 140q7 13 2.5 27t-18.5 21q-13 7 -27 2t-21 -18q-30 -60 -82 -103v1l-1 1q-18 27 -34 43q21 13 43 35q36 41 43 85q16 79 -41 128q-33 30 -81 19q-51 -13 -104 -77q-47 -56 -77 -132q-5 -14 1 -27.5t19 -18.5 q14 -5 27.5 0.5t18.5 19.5q26 65 65 112t67 54q11 3 18 -4q25 -20 18 -60q-13 -64 -94 -93q-20 -7 -23 -29q-3 -23 16 -34q38 -25 61 -64q-50 -31 -165 -79q-44 -19 -71 -52.5t-30 -73.5q-3 -65 48 -94q24 -14 56 -14zM194 -55q-3 -77 -98 -139q-70 -46 -103 -27 q-12 8 -12 28q2 42 57 65q108 46 156 73z" />
<glyph unicode="{" horiz-adv-x="304" d="M149 -97q9 0 14 1q14 1 23.5 12t8.5 26q-1 14 -12 23.5t-26 8.5q-23 -1 -26 4q-6 7 1 40q5 22 30 93q14 38 21 59t14.5 51t6 52.5t-10.5 41.5q-1 1 -1 3t-1 3q19 20 29 54q12 39 18 119q4 43 6 63.5t10.5 48t21.5 36.5q16 12 52 4q14 -4 26.5 4t15.5 22q4 14 -4 26.5 t-22 16.5q-67 15 -110 -16q-25 -18 -40 -54.5t-18.5 -63t-8.5 -81.5q-6 -77 -15 -104q-9 -32 -27 -35q-27 -5 -29 -32q-3 -27 23 -36q8 -2 10 -8q8 -13 -2 -54q-8 -35 -31 -95q-25 -69 -33 -103q-14 -65 11 -98q24 -32 75 -32z" />
<glyph unicode="|" horiz-adv-x="294" d="M112 -135q15 0 26 11q58 64 76 256q10 105 10 322q0 160 6 186q4 14 -4 26.5t-22 16.5q-14 3 -26.5 -4.5t-16.5 -21.5q-8 -35 -8 -203q0 -213 -10 -315q-15 -168 -57 -215q-10 -11 -9.5 -25.5t11.5 -24.5q10 -9 24 -9z" />
<glyph unicode="}" horiz-adv-x="301" d="M66 -92q40 0 68 21q26 19 41.5 58t19.5 69t9 87q8 86 16 112q10 34 27 37q27 5 29 32q3 27 -23 36q-5 2 -11 8q-6 17 3 50q5 21 30 88q14 35 21 55t13 47.5t3 48t-15 36.5q-28 37 -90 31q-14 -1 -23.5 -12t-8.5 -26q1 -14 12 -23.5t26 -8.5l27 -3q5 -7 -2 -35 q-6 -27 -29 -85q-26 -70 -33 -96q-14 -59 2 -96l3 -7q-19 -22 -29 -57q-11 -37 -19 -127q-3 -44 -6 -68.5t-12 -54t-23 -39.5q-20 -10 -50 -4q-14 4 -26.5 -4t-15.5 -22q-4 -14 4 -26.5t22 -16.5q23 -5 40 -5z" />
<glyph unicode="~" horiz-adv-x="477" d="M82 130q5 0 7 1q41 8 131 2q124 -6 178 12q13 5 19.5 17.5t2.5 25.5q-5 14 -17.5 20.5t-26.5 1.5q-39 -14 -153 -8q-106 4 -146 -4q-15 -2 -22.5 -13.5t-5.5 -25.5q2 -13 12 -21t21 -8z" />
<glyph unicode="&#xa1;" horiz-adv-x="297" d="M136 428q-4 19 10 37t38 23q25 5 44.5 -4.5t24.5 -29.5q4 -19 -10 -36.5t-38 -23.5q-24 -5 -44 5t-25 29zM187 359h-5q-14 -2 -23 -13.5t-8 -26.5q4 -34 -4.5 -88.5t-18.5 -92.5t-31 -113q-21 -74 -30 -108.5t-17.5 -86t-5.5 -85.5q1 -15 12.5 -24.5t25.5 -8.5 q15 1 24.5 12.5t8.5 25.5q-5 60 50 256q22 77 33 119.5t20 102.5t4 100q-1 13 -11.5 22t-23.5 9z" />
<glyph unicode="&#xa2;" horiz-adv-x="426" d="M398 231q11 -10 12.5 -24.5t-8.5 -25.5q-77 -77 -151 -93l-3 -9q-37 -165 -86 -225q-10 -13 -27 -13q-14 0 -23 8q-11 9 -12.5 24t7.5 26q38 45 71 189q-43 9 -77 38q-54 47 -54 130q0 68 26 125q22 49 63 85q49 43 118 63q23 125 41 162q6 14 19.5 19t27.5 -2 q13 -6 18 -20t-1 -27q-13 -26 -32 -125q8 -2 11 -2q34 -9 53 -34q38 -49 0 -131q-6 -13 -19.5 -18t-27.5 1t-19 19.5t2 27.5q20 44 7 58q-4 7 -19 9q-9 -62 -13 -86q-30 -187 -35 -213q13 6 26 14.5t22.5 16t17 14.5t11.5 11l4 4q10 11 24.5 12.5t25.5 -8.5zM118 256 q0 -83 75 -98q13 71 39 233l9 58q-123 -53 -123 -193z" />
<glyph unicode="&#xa3;" horiz-adv-x="691" d="M650 696q24 -35 22 -90q0 -43 -18 -87q-26 -65 -95 -107q-72 -43 -162 -43h-13q-1 -3 -2.5 -8t-2.5 -7q-1 -4 -3.5 -11t-4.5 -10q78 2 110 11q13 5 26 -1.5t18 -20.5t-1.5 -27t-20.5 -18q-38 -13 -159 -15q0 -2 -2 -6q-7 -19 -8 -22q117 2 147 11q13 5 26 -1.5t18 -20.5 t-1.5 -27t-20.5 -18q-40 -13 -168 -15q-9 -1 -29 -1q-26 -65 -46 -105q26 -8 40 -13l3 -1q105 -36 143.5 -45.5t64.5 -5.5t56 28q11 9 25.5 7.5t24.5 -13.5q9 -11 7 -25.5t-13 -23.5q-56 -46 -115 -46q-11 0 -17 1q-44 4 -199 56l-3 1l-55 18q-14 -20 -37 -38 q-33 -24 -76 -24q-50 0 -83 20.5t-47 48.5q-19 42 7 73q28 34 106 25q41 -6 99 -22q17 32 36 80q-35 -3 -54 -10q-6 -2 -11 -2q-25 0 -34 24q-4 14 2 27t20 18q35 12 107 16q2 6 11 29q-69 -4 -95 -13q-6 -2 -11 -2q-25 0 -34 24q-4 14 2 27t20 18q40 14 145 18 q3 8 8.5 23.5t8.5 22.5q2 4 2 6q-3 2 -9 4q-43 22 -63 57q-20 31 -20 75q2 40 24 81q7 13 21 17t27 -3t17 -21t-3 -27q-26 -50 -5 -85q10 -20 36 -31q41 107 73 169q66 124 141 124q64 0 97 -48zM588 546q13 30 13.5 62t-10.5 48q-12 17 -38 17q-33 0 -78 -86 q-27 -51 -64 -147q60 3 111 33q49 30 66 73zM109 4q20 0 37 13q-42 9 -50 10q-33 6 -51 3q6 -10 23.5 -18t40.5 -8z" />
<glyph unicode="&#xa4;" horiz-adv-x="735" d="M760 602q1 -14 -7 -25t-22 -13q-19 -7 -85 -75q-9 -10 -52 -56q3 -24 1 -58q-5 -56 -21 -101q-9 -28 -22 -51l38 -39q34 -35 51.5 -54.5t34 -51t14.5 -58.5q-1 -13 -11 -23t-24 -10q-1 0 -3 1q-15 1 -24.5 12t-8.5 26q3 13 -20 42q-15 21 -60 66l-27 29q-58 -66 -136 -66 h-8q-42 1 -71 29q-36 -38 -99 -75q-62 -37 -97 -42l-4 -1q-13 0 -23.5 9t-12.5 23t7.5 26t23.5 13q25 7 73 35q62 37 85 67q5 6 10 9q-22 75 0 166q12 42 27 74q-38 26 -92 95q-33 44 -45 50q-13 6 -18 20t2 27t20.5 18t26.5 -2q29 -14 70 -70q47 -59 74 -77q57 69 132 69 q8 0 26 -2q54 -9 84 -50q20 22 34 36q86 88 121 90q15 1 26 -8.5t12 -23.5zM371 168h5q28 0 52.5 15t40.5 39t24.5 41.5t13.5 33.5q24 71 17 126q-7 9 -5 23q-4 12 -7 17q-13 20 -40 24q-10 2 -15 2q-24 0 -45.5 -15t-34 -30.5t-25.5 -44.5t-15 -35t-7 -24l-1 -2 q-10 -29 -8 -80t19 -74q11 -15 31 -16z" />
<glyph unicode="&#xa5;" horiz-adv-x="868" d="M827 677q-48 -106 -121 -376q-27 -105 -46 -169q46 2 90 12q14 4 26.5 -4t16.5 -22t-3.5 -26.5t-21.5 -16.5q-52 -13 -132 -15q-5 -17 -10 -28q73 0 124 13q14 4 26.5 -4t16.5 -22t-3.5 -26.5t-21.5 -16.5q-68 -17 -173 -15q-37 -74 -79 -109q-54 -48 -123 -48 q-66 0 -105 27q-37 23 -49 67q-10 37 1 75q11 41 33 53q13 7 27 3.5t22 -16.5q14 -27 -9 -45q-5 -8 -7 -24.5t5 -36.5q17 -32 82 -32q69 0 122 86q-60 0 -95 -9q-3 -1 -9 -1q-27 0 -34 27q-4 14 3.5 26.5t21.5 16.5q51 13 148 11l6 15t5 13q-100 2 -141 -9q-3 -1 -9 -1 q-27 0 -34 27q-4 14 3.5 26.5t21.5 16.5q53 13 164 11h19q21 65 50 180q-8 -15 -26 -41q-41 -61 -79 -92q-50 -41 -101 -41q-71 0 -106 46q-38 53 -23 155q9 62 39 159q1 2 3.5 12t4.5 15q25 90 -6 130q-16 23 -50 23q-19 0 -39 -14t-33 -36q-38 -65 7 -143q7 -13 3 -27 t-17 -21t-26.5 -3.5t-21.5 16.5q-64 113 -6 214q22 39 58.5 62t74.5 23q68 0 107 -51q25 -33 30 -84q4 -46 -13 -108q-1 -5 -8 -28q-30 -100 -37 -150q-10 -75 10 -101q18 -18 49 -18q53 0 122 101q41 62 122 230q66 139 94 174q19 25 46 9q12 -7 16 -20t-2 -25z" />
<glyph unicode="&#xa6;" horiz-adv-x="295" d="M165 300q27 0 34 25q17 62 25 172q10 120 -3 193q-3 14 -15 22.5t-26 5.5q-15 -2 -23.5 -14t-5.5 -27q10 -72 2 -177.5t-22 -154.5q-4 -14 3 -26.5t21 -17.5q3 -1 10 -1zM121 -134q19 0 30 15q15 22 24.5 57t12.5 61t7 75q6 77 15 120q3 14 -5 26.5t-22 15.5 q-14 4 -26.5 -4.5t-15.5 -22.5q-9 -40 -17 -129q-10 -126 -32 -159q-8 -12 -5.5 -26.5t14.5 -22.5q9 -6 20 -6z" />
<glyph unicode="&#xa7;" horiz-adv-x="443" d="M328 544q32 86 35 98q7 22 7 30q-25 3 -52 -6q-45 -10 -67 -42q-37 -57 -31 -84q6 -24 47 -48q76 -44 106 -85q33 -42 33 -102q0 -54 -27 -96q-24 -37 -66 -59l-21 -9q16 -14 23 -22q41 -45 41 -96q0 -47 -32 -82q-26 -28 -72 -46q-41 -15 -84 -15q-17 0 -25 1 q-65 8 -96 45q-45 53 -36 118q10 68 61 103q12 8 26.5 5.5t22.5 -14.5t5.5 -26.5t-14.5 -22.5q-26 -18 -30 -54q-5 -35 20 -63q13 -17 49.5 -20.5t76.5 10.5q57 20 57 61q0 17 -15.5 37t-30 32.5t-44.5 35.5q-57 45 -77 66q-42 47 -42 96q0 62 27 107q25 41 66 62q5 3 15 7 q-26 27 -33 57q-14 57 41 140q42 64 132 77q62 13 93 -12q35 -26 20 -85q-8 -34 -43 -124q-5 -14 -18.5 -20t-27.5 -1t-19.5 18.5t-0.5 27.5zM281 214q54 27 54 91q0 28 -11.5 49.5t-44.5 45.5l-7 3q-5 6 -27 5t-43 -11q-55 -31 -55 -107q0 -31 55 -77l2 -2q31 -21 77 3z " />
<glyph unicode="&#xa8;" horiz-adv-x="230" d="M-4 469q0 -34 43 -34q22 0 41 16t19 34q0 32 -36 32q-24 0 -45.5 -15t-21.5 -33zM141 449q0 -15 12 -24.5t30 -9.5q23 0 42.5 15.5t19.5 33.5q0 33 -37 33q-24 0 -45.5 -15t-21.5 -33z" />
<glyph unicode="&#xa9;" horiz-adv-x="620" d="M350 86q122 0 208 84q81 81 81 184q0 47 -19 99q-20 48 -54 89q-80 92 -201 92q-112 0 -194 -76q-40 -36 -63 -83q-25 -52 -25 -103q0 -52 17 -103q18 -52 50 -91q36 -43 85 -67q50 -25 115 -25zM365 563q86 0 144.5 -65.5t58.5 -143.5q0 -73 -60 -133q-64 -64 -158 -64 q-92 0 -144 64t-52 151q0 75 64 133t147 58zM362 188q37 0 64 18q40 27 40 79q0 15 -10.5 25.5t-25.5 10.5q-14 0 -24.5 -10.5t-10.5 -25.5q0 -26 -33 -26q-39 0 -39 21v158q0 9 1 14.5t9.5 11t25.5 5.5q34 0 38 -30q2 -14 13.5 -23t26.5 -7q14 2 23 13.5t7 26.5 q-6 45 -42 70q-31 21 -66 21q-41 0 -67 -19q-40 -27 -40 -83v-158q0 -54 46 -77q28 -15 64 -15z" />
<glyph unicode="&#xaa;" horiz-adv-x="410" d="M181 418q29 0 59 21q29 21 46 36q3 -12 10 -21q18 -26 51 -26q39 0 73 32t72 104q7 13 2.5 27t-17.5 21t-27 2.5t-21 -17.5q-44 -86 -76 -97q0 30 18 77q4 10 1 23q13 7 18 21q13 46 -24 81q-45 40 -106 16q-50 -19 -99 -83q-55 -68 -55 -133q0 -54 42 -77q16 -7 33 -7z M180 489q-3 3 -3 13q0 40 39 90q37 47 70 60q19 8 32 -3l1 -1q1 -2 1.5 -3.5t0.5 -3.5q-2 -8 1 -20q-13 -6 -17 -18q-7 -17 -37 -47.5t-70 -58.5q-11 -8 -18 -8z" />
<glyph unicode="&#xab;" horiz-adv-x="479" d="M361 97q14 -1 24.5 -11.5t9.5 -25.5q-1 -14 -11 -24t-24 -10h-2q-59 2 -115 43l-7 4q5 -7 5 -19q-1 -14 -11 -24t-24 -10h-2q-50 2 -107 37q-52 33 -89 81q-13 14 -6 34q7 19 26 22q50 10 147 121q9 11 24 12t26 -9q11 -9 12 -24t-9 -26q-75 -88 -131 -122 q58 -53 110 -55q1 0 3.5 -0.5t4.5 -0.5q-37 31 -52 62q-6 14 0 30q6 14 22 19q47 16 148 112q11 10 25.5 10t24.5 -11t10 -25t-11 -25q-79 -76 -133 -108q57 -55 112 -57z" />
<glyph unicode="&#xac;" horiz-adv-x="676" d="M647 234q4 -14 -4 -26.5t-22 -16.5q-15 -4 -54 -7v-22q0 -88 -26 -134q-9 -18 -30 -18q-10 0 -18 5q-13 7 -16.5 21t3.5 27q16 28 16 99v18q-30 -2 -66 -3q-283 -11 -357 -31q-4 -1 -10 -1q-27 0 -34 27q-4 14 4 26.5t22 16.5q83 22 372 33l74 3q1 9 5 27q3 14 15.5 22 t26.5 5q15 -3 23 -15.5t4 -26.5q0 -2 -0.5 -4t-0.5 -3q10 1 30 4q14 4 27 -4t16 -22z" />
<glyph unicode="&#xad;" horiz-adv-x="484" d="M82 130q5 0 7 1q41 8 131 2q124 -6 178 12q13 5 19.5 17.5t2.5 25.5q-5 14 -17.5 20.5t-26.5 1.5q-39 -14 -153 -8q-106 4 -146 -4q-15 -2 -22.5 -13.5t-5.5 -25.5q2 -13 12 -21t21 -8z" />
<glyph unicode="&#xae;" horiz-adv-x="619" d="M338 86q123 0 209 84q81 81 81 184q0 47 -19 99q-20 48 -54 89q-81 92 -201 92q-112 0 -194 -76q-40 -36 -63 -83q-25 -49 -25 -103q0 -52 17 -103q19 -55 50 -91q35 -43 84 -67q51 -25 115 -25zM354 563q86 0 144.5 -65.5t58.5 -143.5q0 -73 -60 -133q-64 -64 -159 -64 q-91 0 -143 64t-52 151q0 75 64 133t147 58zM290 193q15 0 25 10t10 25v104h1q1 0 3 -0.5t4 -0.5h7l62 -112q7 -13 20.5 -17t27.5 3q13 7 17 21t-3 27l-50 92q11 4 20 14q25 25 25 65q0 69 -46 95q-37 19 -123 19q-15 0 -25.5 -10.5t-10.5 -25.5v-274q0 -15 10.5 -25 t25.5 -10zM325 403v63q39 -2 53 -10q10 -5 10 -32q0 -11 -3 -14q-8 -7 -29 -7h-31z" />
<glyph unicode="&#xb0;" horiz-adv-x="293" d="M246 386q32 15 47 38l2 3q44 67 36 105q-5 27 -30 43q-20 14 -47 14q-44 0 -96 -31l-3 -2q-50 -38 -55 -91q-3 -43 27 -73q22 -22 57 -22zM177 442q-6 8 -6 18q1 19 25 38q34 20 58 20q5 0 7 -2q0 -4 -5 -17q-4 -7 -11.5 -19t-8.5 -14l-2 -3q-4 -6 -20 -14t-30 -8 q-2 0 -4 1h-3z" />
<glyph unicode="&#xb1;" horiz-adv-x="485" d="M422 327q3 -14 -5 -26.5t-22 -15.5q-40 -9 -122 -7q0 -72 -19 -108q-11 -18 -32 -18q-9 0 -17 4q-13 8 -17 22t3 27q11 20 11 74q-73 2 -110 -13q-6 -3 -13 -3q-25 0 -33 22q-6 14 -0.5 27.5t19.5 18.5q46 19 135 19q0 75 14 107q6 14 19.5 19t27.5 -1t19 -19t-1 -27 q-8 -21 -8 -80q76 -2 109 5q15 3 27 -5t15 -22zM75 50h6q42 7 126 10q145 9 193 18q14 2 22.5 14t6.5 27q-3 14 -15 22.5t-26 5.5q-63 -10 -185 -16q-88 -3 -133 -10q-14 -3 -23 -15t-7 -26q2 -13 12 -21.5t23 -8.5z" />
<glyph unicode="&#xb2;" horiz-adv-x="397" d="M300 290q50 0 88 25q13 8 15.5 22.5t-5.5 26.5t-22.5 15t-26.5 -5q-28 -19 -81 -10q-10 1 -23 5q18 16 26 25q57 59 87 129q18 46 19 81q2 45 -20 79q-29 42 -75 49q-39 6 -78 -17q-41 -27 -57 -73q-17 -52 11 -102q8 -13 22 -16.5t27 3.5q13 8 16.5 22t-3.5 27 q-12 28 -4 47.5t26 30.5q34 21 56 -11q19 -30 -6 -93q-24 -57 -71 -106q-29 -30 -59 -46q-20 6 -23 7q-19 5 -46 -3q-25 -8 -35 -24q-17 -25 -1 -45q13 -20 45 -20q19 0 49 6l11 3q82 -32 138 -32z" />
<glyph unicode="&#xb3;" horiz-adv-x="334" d="M308 519q36 -36 44 -74q9 -43 -17 -81q-20 -29 -60.5 -51.5t-79.5 -22.5h-5q-54 3 -80 49q-23 41 5 91q15 24 28 34q10 10 25 10q14 0 24.5 -10.5t10.5 -25.5q0 -19 -15 -29q-22 -25 -16 -36q7 -11 21 -12q20 -1 46 13t37 30q10 15 6 27q-5 28 -50 57q-16 11 -16 30 q0 20 15 30q16 8 71 63q12 12 7 25q-5 12 -16.5 20.5t-17.5 8.5q-22 0 -30 -18q-7 -13 6 -36q8 -13 5 -27t-16 -22q-13 -7 -27 -4t-22 15q-36 60 -8 109q13 24 41 40q25 14 51 14q30 0 58 -22q30 -20 42 -51q23 -56 -23 -102q-32 -32 -44 -42z" />
<glyph unicode="&#xb4;" horiz-adv-x="141" d="M95 370q23 0 33 21q0 2 10 19t37.5 51t64.5 65q11 10 12.5 24.5t-7.5 25.5q-10 11 -24.5 12.5t-25.5 -7.5q-15 -13 -29.5 -26.5t-25.5 -26t-21 -24.5t-17.5 -22.5t-14 -19.5t-11 -16.5t-7 -13t-4.5 -8.5l-2 -4q-6 -13 -0.5 -27t18.5 -20q7 -3 14 -3z" />
<glyph unicode="&#xb5;" horiz-adv-x="615" d="M5 -270q23 0 33 21q33 73 76 241l3 -4q16 -22 45 -24q52 -2 122 72q10 10 21 24q0 -19 3 -34q8 -45 37 -61q25 -14 55 -4q24 7 53 30q55 43 135 149q9 12 7 26.5t-14 23.5t-26.5 7t-23.5 -14q-62 -83 -109 -125q-24 -22 -42 -29q-8 24 -1 74q12 71 39 141q6 14 0.5 27 t-18.5 19q-14 6 -27 1t-20 -18q-57 -119 -119 -186q-37 -41 -63 -51q-26 59 17 290l2 12l1.5 9t0.5 4q3 14 -5.5 26.5t-22.5 14.5q-14 3 -26.5 -5.5t-14.5 -22.5q-2 -7 -4 -21q-81 -417 -146 -563q-6 -13 -0.5 -27t18.5 -20q7 -3 14 -3z" />
<glyph unicode="&#xb6;" horiz-adv-x="686" d="M628 563q14 -3 22 -15.5t5 -26.5t-15.5 -22t-26.5 -5l-31 6q4 -83 6 -172q2 -274 -30 -363q-8 -24 -33 -24q-4 0 -12 2q-14 5 -20.5 18t-1.5 27q17 49 23 169q-5 -1 -18 -3.5t-20 -3.5q-1 -10 -2.5 -33t-2.5 -34q-6 -50 -14 -88q-12 -44 -29 -63q-10 -12 -26 -12 q-15 0 -24 9q-11 10 -12 25t9 25q16 16 25 111q2 18 4 54q-12 -1 -36 -1h-35q-138 9 -208 62q-65 48 -65 129q0 105 85 173q75 60 202 75q13 2 43 4q-8 64 -15 82q-6 14 -0.5 27.5t19.5 19.5q14 5 27.5 -0.5t18.5 -19.5q12 -28 22 -109q22 0 44 -3q-4 65 -11 106q-2 14 7 26 t24 14q14 2 26 -7t14 -23q9 -73 12 -126q30 -5 50 -10zM337 214q38 -2 70 1q2 46 0 96q-2 118 -9 204q-136 -6 -209 -64q-58 -47 -58 -117q0 -45 37 -73q55 -41 169 -47zM517 327q-2 100 -6 184q-14 2 -42 4q7 -96 9 -203q2 -47 0 -89q14 2 38 8q1 30 1 96z" />
<glyph unicode="&#xb7;" horiz-adv-x="241" d="M58 152q0 -37 41 -37q22 0 39 20t17 37q0 29 -33 29q-21 0 -42.5 -16.5t-21.5 -32.5z" />
<glyph unicode="&#xb8;" horiz-adv-x="232" d="M52 -220q36 0 106 37q47 26 70 57q29 38 8 73q-21 38 -80 41h-4q7 7 27 25q11 10 12.5 24.5t-7.5 25.5q-10 11 -24.5 12.5t-25.5 -8.5q-37 -31 -60.5 -61.5t-29 -44.5t-6.5 -22q-5 -22 14 -36q18 -13 37 -2q27 14 58 16q15 0 23 -3q-11 -15 -47 -35q-44 -25 -68 -28 l-60 21q-18 -51 16 -78q15 -14 41 -14z" />
<glyph unicode="&#xb9;" horiz-adv-x="307" d="M298 617q-14 -70 -26 -116q-7 -31 -30 -124q22 -2 38 -9q13 -6 18.5 -20t-0.5 -27q-10 -21 -33 -21q-7 0 -14 3q-14 6 -74 4q-59 -2 -78 2q-14 2 -22.5 14.5t-5.5 26.5q2 14 14.5 22.5t26.5 5.5q7 -1 57 -1q16 62 30 124q12 47 23 101l-19 -11q-13 -7 -27 -3.5t-21 16.5 t-3.5 27t16.5 21q61 39 72 51q22 20 46 6q21 -11 18 -51q-1 -13 -6 -41z" />
<glyph unicode="&#xba;" horiz-adv-x="310" d="M416 567q0 -25 -24 -34q-33 -8 -63 7q-12 -20 -27 -36q-50 -59 -106 -64h-6q-51 0 -71 47q-13 28 -7 68q6 34 25 67q23 44 66 80q46 38 94 44q19 3 31 -12q17 1 33 -10q33 -23 21 -65q-12 -38 -20 -56q1 -1 2 -1q2 -1 7 -1q6 2 10 2q15 0 25 -10.5t10 -25.5zM248 551 q21 23 36 53q-8 40 -7 62q-10 -4 -29 -19q-32 -27 -49 -60q-26 -46 -15 -71q2 -5 7 -5q24 2 57 40z" />
<glyph unicode="&#xbb;" horiz-adv-x="491" d="M464 169q5 -20 -10 -33q-36 -34 -87 -62.5t-79 -39t-36 -12.5q-4 -2 -11 -2q-26 0 -33 25q-6 19 7 34q-67 -39 -121 -48q-2 -1 -7 -1q-12 0 -22 8t-12 21q-3 15 5.5 27t22.5 14q52 10 118 53q-18 10 -28 17q-68 45 -114 109q-9 11 -6.5 26t14.5 23q11 9 26 6.5t23 -13.5 q39 -54 97 -92q39 -26 70 -36q19 -6 24 -28q3 -21 -14 -34q-45 -32 -59 -41q69 21 132 64q-87 49 -148 123q-9 11 -7.5 26t12.5 24t26 7.5t24 -12.5q33 -40 76.5 -72t67.5 -43.5t27 -11.5q19 -7 22 -26z" />
<glyph unicode="&#xbc;" horiz-adv-x="686" d="M50 308q-13 7 -18 20.5t2 26.5t20.5 18t26.5 -2l1 -1h3t5 -0.5t7.5 -1t9.5 -0.5h28l57 238q-16 -11 -20 -13q-13 -8 -27.5 -4.5t-21.5 16.5q-8 13 -4.5 27.5t16.5 21.5q23 14 45.5 30.5t33.5 25.5l12 10q19 17 42 4q23 -14 16 -39l-75 -314q38 0 56 -17q11 -10 12 -25 t-9 -25q-10 -12 -27 -12q-11 0 -21 7q-9 3 -59 0q-82 -6 -111 9zM546 715q13 -7 17.5 -21t-2.5 -27q-356 -681 -471 -761q-9 -6 -20 -6q-20 0 -30 15q-8 12 -5.5 26.5t14.5 23.5q60 42 206 291q99 168 243 444q7 13 21 17.5t27 -2.5zM663 162q4 -14 -2.5 -26.5t-20.5 -17.5 q-28 -9 -59 -12q-15 -79 -7 -117q3 -14 -5 -26.5t-22 -15.5q-2 -1 -8 -1q-27 0 -34 28q-11 46 4 131h-9q-64 2 -91 -6q-26 -7 -40 17q-15 25 7 44q6 5 71 62q114 95 128 128q6 13 19 18.5t27 -0.5q14 -5 19.5 -18.5t0.5 -26.5q-27 -73 -44 -143q9 1 22 5q14 4 26.5 -2.5 t17.5 -20.5zM523 176q1 7 5 21l-25 -21h20z" />
<glyph unicode="&#xbd;" horiz-adv-x="743" d="M70 318q-13 7 -18 20.5t2 26.5t20.5 18t26.5 -2l1 -1h3t5 -0.5t7.5 -1t9.5 -0.5h28l57 238q-17 -11 -20 -13q-13 -8 -27.5 -4.5t-21.5 16.5q-8 13 -4.5 27.5t16.5 21.5q23 14 45.5 30.5t33.5 25.5l12 10q19 17 42 4q23 -14 16 -39l-75 -314q38 0 56 -17q11 -10 12 -25 t-9 -25q-10 -12 -27 -12q-11 0 -21 7q-9 3 -59 0q-82 -6 -111 9zM566 725q13 -7 17.5 -21t-2.5 -27q-356 -681 -471 -761q-9 -6 -20 -6q-20 0 -30 15q-8 12 -5.5 26.5t14.5 23.5q60 42 206 291q99 168 243 444q7 13 21 17.5t27 -2.5zM699 49q8 -12 5.5 -26.5t-15.5 -22.5 q0 -1 -2 -1q-14 -12 -44 -25q-31 -11 -57 -11q-30 0 -55 13q-24 13 -56 22q-48 -32 -83 -24q-35 6 -45 43q-8 32 17 51q29 21 96 7q47 41 97 108q34 44 41 77q5 26 -3 40q-7 16 -23.5 25.5t-26.5 10.5q-6 0 -18 -7t-18 -19q-13 -26 12 -63q8 -12 5.5 -26.5t-15.5 -22.5 q-12 -8 -26.5 -5.5t-22.5 15.5q-51 77 -14 138q16 29 46 46t56 15q27 -2 55 -19q38 -21 55 -58q18 -38 7 -85q-10 -49 -53 -105q-32 -43 -76 -89l26 -12q7 -4 15.5 -5t16 0.5t15.5 4t14.5 5.5t11.5 6t8 5l3 2l2 2q12 8 26.5 5t22.5 -15z" />
<glyph unicode="&#xbe;" horiz-adv-x="733" d="M298 535q36 -36 44 -74q9 -43 -17 -81q-20 -29 -60.5 -51.5t-79.5 -22.5h-5q-54 3 -80 49q-23 41 5 91q18 28 29 34q11 10 24.5 9.5t23.5 -10.5q10 -11 10 -25.5t-10 -24.5l-1 -1q-8 -7 -15 -19.5t-4 -19.5q7 -11 21 -12q20 -1 46 13t37 30q10 15 6 27q-5 28 -50 57 q-16 11 -16 30q0 20 15 30q16 8 71 63q12 12 7 25q-5 11 -16 19.5t-18 9.5q-22 0 -30 -18q-7 -13 6 -36q8 -13 5 -27t-16 -22q-13 -7 -27 -4t-22 15q-36 60 -8 109q13 24 41 40q25 14 51 14q30 0 58 -22q30 -20 42 -51q23 -56 -23 -102q-32 -32 -44 -42zM139 -90q11 0 20 6 q117 82 471 761q7 13 3 27t-18 21q-13 7 -26.5 2.5t-20.5 -17.5q-158 -298 -243 -444q-146 -249 -206 -291q-12 -9 -14.5 -23.5t5.5 -26.5q10 -15 29 -15zM598 -27q5 0 7 1q15 3 23 15.5t4 26.5q-7 37 7 117q36 4 59 12q14 4 21 17t3 27t-17.5 21t-27.5 2q-14 -4 -22 -5 q18 72 44 143q5 13 -0.5 26.5t-19.5 18.5q-14 6 -27 0.5t-19 -18.5q-7 -15 -29.5 -39t-40.5 -40t-57 -49q-47 -39 -72 -62q-20 -19 -7 -44q14 -24 41 -17q26 8 90 6h9q-14 -88 -4 -131q7 -28 35 -28zM561 203q9 7 25 21q-1 -4 -2.5 -11.5t-2.5 -10.5q-7 1 -20 1z" />
<glyph unicode="&#xbf;" horiz-adv-x="437" d="M165 379q-4 19 10 37t38 23t44.5 -5t24.5 -29t-10 -36.5t-38 -23.5q-25 -5 -45 5t-24 29zM211 309q-14 0 -24.5 -10.5t-10.5 -25.5q0 -61 -11 -85t-78 -104q-8 -10 -25.5 -31.5t-27.5 -33.5q-49 -61 -63 -125q-12 -64 12 -114q21 -43 62 -67.5t94 -24.5q51 0 95 23 q43 24 71 66q29 47 31 101q2 59 -27 121q-6 13 -20 18.5t-27 -0.5q-13 -7 -18 -20.5t1 -27.5q42 -89 0 -153q-36 -57 -106 -57q-67 0 -92 51q-33 71 42 164q10 12 27.5 33.5t25.5 31.5q71 84 87 119q18 39 18 115q0 15 -10.5 25.5t-25.5 10.5z" />
<glyph unicode="&#xc0;" d="M420 907q70 -54 117 -110q25 12 25 36q0 23 -42 68t-68 45q-13 0 -22 -10.5t-10 -28.5zM632 195q14 -4 22 -16.5t4 -26.5l-2 -6q-2 -6 -5 -15.5t-7.5 -21t-11.5 -26.5t-15 -28q-63 -104 -155 -104q-52 0 -79 44q-30 48 -24 148q3 42 10 82q-45 8 -148 23 q-133 -212 -163 -316q-8 -26 -34 -26q-7 0 -10 1q-14 4 -21.5 17t-3.5 27q31 104 155 307q-16 2 -27 4t-17.5 3t-17.5 1q-15 0 -25.5 10.5t-10.5 25.5q0 14 10.5 24.5t25.5 10.5q10 0 104 -12q9 13 27 41q84 126 168 222q94 107 162 146q24 13 42 -5q19 -17 7 -41 q-80 -164 -131 -368q-27 -112 -31 -182q-5 -80 13 -105q7 -11 19 -11q52 0 94 70q10 17 18.5 36t11.5 30l3 11q4 14 16.5 22t26.5 4zM264 314q31 -5 118 -20q1 6 4.5 20.5t5.5 22.5q32 124 77 243q-24 -26 -35 -39q-75 -85 -162 -215q-6 -8 -8 -12z" />
<glyph unicode="&#xc1;" d="M555 831q0 -8 7 -18t17 -15q23 30 109 113q-5 35 -30 35q-26 0 -64.5 -46.5t-38.5 -68.5zM632 195q14 -4 22 -16.5t4 -26.5l-2 -6q-2 -6 -5 -15.5t-7.5 -21t-11.5 -26.5t-15 -28q-63 -104 -155 -104q-52 0 -79 44q-30 48 -24 148q3 42 10 82q-45 8 -148 23 q-133 -212 -163 -316q-8 -26 -34 -26q-7 0 -10 1q-14 4 -21.5 17t-3.5 27q31 104 155 307q-16 2 -27 4t-17.5 3t-17.5 1q-15 0 -25.5 10.5t-10.5 25.5q0 14 10.5 24.5t25.5 10.5q10 0 104 -12q9 13 27 41q84 126 168 222q94 107 162 146q24 13 42 -5q19 -17 7 -41 q-80 -164 -131 -368q-27 -112 -31 -182q-5 -80 13 -105q7 -11 19 -11q52 0 94 70q10 17 18.5 36t11.5 30l3 11q4 14 16.5 22t26.5 4zM264 314q31 -5 118 -20q1 6 4.5 20.5t5.5 22.5q32 124 77 243q-24 -26 -35 -39q-75 -85 -162 -215q-6 -8 -8 -12z" />
<glyph unicode="&#xc2;" d="M465 852q0 -21 13 -28q54 37 102 52q49 -43 72 -83q25 13 25 39q0 29 -35.5 67.5t-60.5 38.5q-28 0 -72 -30t-44 -56zM632 195q14 -4 22 -16.5t4 -26.5l-2 -6q-2 -6 -5 -15.5t-7.5 -21t-11.5 -26.5t-15 -28q-63 -104 -155 -104q-52 0 -79 44q-30 48 -24 148q3 42 10 82 q-45 8 -148 23q-133 -212 -163 -316q-8 -26 -34 -26q-7 0 -10 1q-14 4 -21.5 17t-3.5 27q31 104 155 307q-16 2 -27 4t-17.5 3t-17.5 1q-15 0 -25.5 10.5t-10.5 25.5q0 14 10.5 24.5t25.5 10.5q10 0 104 -12q9 13 27 41q84 126 168 222q94 107 162 146q24 13 42 -5 q19 -17 7 -41q-80 -164 -131 -368q-27 -112 -31 -182q-5 -80 13 -105q7 -11 19 -11q52 0 94 70q10 17 18.5 36t11.5 30l3 11q4 14 16.5 22t26.5 4zM264 314q31 -5 118 -20q1 6 4.5 20.5t5.5 22.5q32 124 77 243q-24 -26 -35 -39q-75 -85 -162 -215q-6 -8 -8 -12z" />
<glyph unicode="&#xc3;" d="M601 770q43 0 86 17q14 4 20 17.5t1 27.5q-4 14 -17.5 20t-27.5 1q-29 -10 -53.5 -11t-38.5 2.5t-37 12.5q-27 10 -43 14t-46 4t-61 -10q-14 -5 -20 -18.5t-2 -26.5q4 -14 17.5 -21t27.5 -2q38 9 54.5 7t47.5 -14q56 -20 92 -20zM632 195q14 -4 22 -16.5t4 -26.5l-2 -6 q-2 -6 -5 -15.5t-7.5 -21t-11.5 -26.5t-15 -28q-63 -104 -155 -104q-52 0 -79 44q-30 48 -24 148q3 42 10 82q-45 8 -148 23q-133 -212 -163 -316q-8 -26 -34 -26q-7 0 -10 1q-14 4 -21.5 17t-3.5 27q31 104 155 307q-16 2 -27 4t-17.5 3t-17.5 1q-15 0 -25.5 10.5 t-10.5 25.5q0 14 10.5 24.5t25.5 10.5q10 0 104 -12q9 13 27 41q84 126 168 222q94 107 162 146q24 13 42 -5q19 -17 7 -41q-80 -164 -131 -368q-27 -112 -31 -182q-5 -80 13 -105q7 -11 19 -11q52 0 94 70q10 17 18.5 36t11.5 30l3 11q4 14 16.5 22t26.5 4zM264 314 q31 -5 118 -20q1 6 4.5 20.5t5.5 22.5q32 124 77 243q-24 -26 -35 -39q-75 -85 -162 -215q-6 -8 -8 -12z" />
<glyph unicode="&#xc4;" d="M436 857q0 -34 43 -34q22 0 41 16t19 34q0 32 -36 32q-24 0 -45.5 -15t-21.5 -33zM581 837q0 -15 12 -24.5t30 -9.5q23 0 42.5 15.5t19.5 33.5q0 33 -37 33q-24 0 -45.5 -15t-21.5 -33zM632 195q14 -4 22 -16.5t4 -26.5l-2 -6q-2 -6 -5 -15.5t-7.5 -21t-11.5 -26.5 t-15 -28q-63 -104 -155 -104q-52 0 -79 44q-30 48 -24 148q3 42 10 82q-45 8 -148 23q-133 -212 -163 -316q-8 -26 -34 -26q-7 0 -10 1q-14 4 -21.5 17t-3.5 27q31 104 155 307q-16 2 -27 4t-17.5 3t-17.5 1q-15 0 -25.5 10.5t-10.5 25.5q0 14 10.5 24.5t25.5 10.5 q10 0 104 -12q9 13 27 41q84 126 168 222q94 107 162 146q24 13 42 -5q19 -17 7 -41q-80 -164 -131 -368q-27 -112 -31 -182q-5 -80 13 -105q7 -11 19 -11q52 0 94 70q10 17 18.5 36t11.5 30l3 11q4 14 16.5 22t26.5 4zM264 314q31 -5 118 -20q1 6 4.5 20.5t5.5 22.5 q32 124 77 243q-24 -26 -35 -39q-75 -85 -162 -215q-6 -8 -8 -12z" />
<glyph unicode="&#xc5;" d="M635 780q32 15 47 38l2 3q44 67 36 105q-5 27 -30 43q-20 14 -47 14q-44 0 -96 -31l-3 -2q-50 -38 -55 -91q-3 -43 27 -73q22 -22 57 -22zM566 836q-6 8 -6 18q1 19 25 38q34 20 58 20q5 0 7 -2q0 -4 -5 -17q-4 -7 -11.5 -19t-8.5 -14l-2 -3q-4 -6 -20 -14t-30 -8 q-2 0 -5 1h-2zM632 195q14 -4 22 -16.5t4 -26.5l-2 -6q-2 -6 -5 -15.5t-7.5 -21t-11.5 -26.5t-15 -28q-63 -104 -155 -104q-52 0 -79 44q-30 48 -24 148q3 42 10 82q-45 8 -148 23q-133 -212 -163 -316q-8 -26 -34 -26q-7 0 -10 1q-14 4 -21.5 17t-3.5 27q31 104 155 307 q-16 2 -27 4t-17.5 3t-17.5 1q-15 0 -25.5 10.5t-10.5 25.5q0 14 10.5 24.5t25.5 10.5q10 0 104 -12q9 13 27 41q84 126 168 222q94 107 162 146q24 13 42 -5q19 -17 7 -41q-80 -164 -131 -368q-27 -112 -31 -182q-5 -80 13 -105q7 -11 19 -11q52 0 94 70q10 17 18.5 36 t11.5 30l3 11q4 14 16.5 22t26.5 4zM264 314q31 -5 118 -20q1 6 4.5 20.5t5.5 22.5q32 124 77 243q-24 -26 -35 -39q-75 -85 -162 -215q-6 -8 -8 -12z" />
<glyph unicode="&#xc6;" horiz-adv-x="790" d="M874 687q4 -14 -3 -27t-21 -17q-30 -8 -98 -10q-57 0 -120 4l-83 6q-41 -76 -73 -231q87 -7 127 -7q58 -1 78 9q13 8 27 4.5t22 -16.5t4.5 -27t-16.5 -21q-35 -21 -109 -21q-42 0 -146 9l-3 -17q-29 -177 -25 -273q81 -31 257 5q15 3 27 -5.5t15 -22.5t-5 -26.5 t-22 -15.5q-95 -19 -177 -19q-100 0 -148 32q-13 8 -16 25q-8 58 8 196q-83 20 -170 31q-95 -174 -146 -328q-8 -24 -34 -24q-3 0 -11 2q-14 5 -20.5 18t-1.5 27q49 147 136 311q-70 2 -118 -8q-15 -3 -27 5t-15 22q-3 15 5 27t22 15q71 15 171 8q138 233 296 383 q12 12 28 10q274 -29 341 -9q13 4 26 -3t18 -21zM243 318q76 -10 140 -27q3 15 7 45q26 162 64 267q-115 -125 -211 -285z" />
<glyph unicode="&#xc7;" horiz-adv-x="569" d="M591 195q13 -7 16 -21.5t-5 -26.5q-60 -98 -135 -159q-77 -64 -158 -77q-19 -3 -39 -3h-4q-2 -7 -10 -15q-17 -14 -28 -25h4q59 -3 81 -41q19 -35 -9 -73q-21 -30 -70 -57q-68 -37 -106 -37q-24 0 -41 14q-34 27 -16 78l60 -21q24 3 68 28q36 20 47 35q-8 3 -23 3 q-31 -2 -57 -16q-20 -11 -38 2q-19 14 -14 36q1 7 5 18t21 36t44 51q-32 13 -66 40q-81 66 -78 210q3 131 75 276q73 147 181 227q83 60 148 74q34 7 62 1q29 -6 50 -28q44 -46 21 -135q-21 -82 -94 -170q-10 -11 -24.5 -13t-25.5 8q-12 9 -13.5 24t8.5 26q63 77 80 143 q14 49 -4 69q-11 12 -45 6q-51 -11 -121 -62q-92 -68 -158 -197.5t-69 -250.5q-2 -110 52 -153q61 -50 135 -38q63 11 127 64t117 139q8 13 22 16t27 -5z" />
<glyph unicode="&#xc8;" horiz-adv-x="533" d="M407 907q70 -54 117 -110q25 12 25 36q0 23 -42 68t-68 45q-13 0 -22 -10.5t-10 -28.5zM210 -110q80 0 150 39q58 31 103 82q46 51 80 119q6 14 0.5 27.5t-19.5 19.5q-13 6 -26.5 0.5t-19.5 -18.5q-5 -11 -12.5 -25t-33 -48t-53.5 -59t-74 -45.5t-95 -20.5 q-70 0 -106.5 35.5t-40.5 85.5q-6 75 48 137q65 74 183 95q21 3 27 22q8 18 -5 34q-98 129 -54 217q19 39 57.5 59.5t76.5 20.5q44 0 56 -26q10 -22 -1 -57q-12 -39 -48 -80q-10 -11 -9.5 -25.5t11.5 -24.5t25.5 -9t24.5 12q48 52 65 110t-3 103q-13 32 -46 51 q-32 17 -75 17q-57 0 -112 -30q-59 -34 -86 -90q-30 -59 -16 -132q10 -54 47 -115q-107 -30 -172 -106q-36 -41 -53 -91q-16 -49 -12 -98q6 -79 63 -131q60 -55 155 -55z" />
<glyph unicode="&#xc9;" horiz-adv-x="533" d="M466 831q0 -8 7 -18t17 -15q23 30 109 113q-5 35 -30 35q-26 0 -64.5 -46.5t-38.5 -68.5zM210 -110q80 0 150 39q58 31 103 82q46 51 80 119q6 14 0.5 27.5t-19.5 19.5q-13 6 -26.5 0.5t-19.5 -18.5q-5 -11 -12.5 -25t-33 -48t-53.5 -59t-74 -45.5t-95 -20.5 q-70 0 -106.5 35.5t-40.5 85.5q-6 75 48 137q65 74 183 95q21 3 27 22q8 18 -5 34q-98 129 -54 217q19 39 57.5 59.5t76.5 20.5q44 0 56 -26q10 -22 -1 -57q-12 -39 -48 -80q-10 -11 -9.5 -25.5t11.5 -24.5t25.5 -9t24.5 12q48 52 65 110t-3 103q-13 32 -46 51 q-32 17 -75 17q-57 0 -112 -30q-59 -34 -86 -90q-30 -59 -16 -132q10 -54 47 -115q-107 -30 -172 -106q-36 -41 -53 -91q-16 -49 -12 -98q6 -79 63 -131q60 -55 155 -55z" />
<glyph unicode="&#xca;" horiz-adv-x="533" d="M382 852q0 -21 13 -28q54 37 102 52q49 -43 72 -83q25 13 25 39q0 29 -35.5 67.5t-60.5 38.5q-28 0 -72 -30t-44 -56zM210 -110q80 0 150 39q58 31 103 82q46 51 80 119q6 14 0.5 27.5t-19.5 19.5q-13 6 -26.5 0.5t-19.5 -18.5q-5 -11 -12.5 -25t-33 -48t-53.5 -59 t-74 -45.5t-95 -20.5q-70 0 -106.5 35.5t-40.5 85.5q-6 75 48 137q65 74 183 95q21 3 27 22q8 18 -5 34q-98 129 -54 217q19 39 57.5 59.5t76.5 20.5q44 0 56 -26q10 -22 -1 -57q-12 -39 -48 -80q-10 -11 -9.5 -25.5t11.5 -24.5t25.5 -9t24.5 12q48 52 65 110t-3 103 q-13 32 -46 51q-32 17 -75 17q-57 0 -112 -30q-59 -34 -86 -90q-30 -59 -16 -132q10 -54 47 -115q-107 -30 -172 -106q-36 -41 -53 -91q-16 -49 -12 -98q6 -79 63 -131q60 -55 155 -55z" />
<glyph unicode="&#xcb;" horiz-adv-x="533" d="M357 857q0 -34 43 -34q22 0 41 16t19 34q0 32 -36 32q-24 0 -45.5 -15t-21.5 -33zM502 837q0 -15 12 -24.5t30 -9.5q23 0 42.5 15.5t19.5 33.5q0 33 -37 33q-24 0 -45.5 -15t-21.5 -33zM210 -110q80 0 150 39q58 31 103 82q46 51 80 119q6 14 0.5 27.5t-19.5 19.5 q-13 6 -26.5 0.5t-19.5 -18.5q-5 -11 -12.5 -25t-33 -48t-53.5 -59t-74 -45.5t-95 -20.5q-70 0 -106.5 35.5t-40.5 85.5q-6 75 48 137q65 74 183 95q21 3 27 22q8 18 -5 34q-98 129 -54 217q19 39 57.5 59.5t76.5 20.5q44 0 56 -26q10 -22 -1 -57q-12 -39 -48 -80 q-10 -11 -9.5 -25.5t11.5 -24.5t25.5 -9t24.5 12q48 52 65 110t-3 103q-13 32 -46 51q-32 17 -75 17q-57 0 -112 -30q-59 -34 -86 -90q-30 -59 -16 -132q10 -54 47 -115q-107 -30 -172 -106q-36 -41 -53 -91q-16 -49 -12 -98q6 -79 63 -131q60 -55 155 -55z" />
<glyph unicode="&#xcc;" horiz-adv-x="503" d="M287 907q70 -54 117 -110q25 12 25 36q0 23 -42 68t-68 45q-13 0 -22 -10.5t-10 -28.5zM598 684q4 -14 -4 -26.5t-22 -16.5q-44 -10 -191 -8h-2q-18 -79 -33 -159q-43 -211 -71 -309q-31 -109 -67 -176h28q127 -2 159 5q14 3 26.5 -5t15.5 -22t-5 -26.5t-22 -15.5 q-39 -9 -175 -7q-185 2 -232 -16q-8 -2 -12 -2q-24 0 -34 23q-5 13 1 27t20 19q42 16 145 20q32 41 62 128.5t46.5 159.5t44.5 211l30 146q-147 -2 -185 -19q-7 -4 -15 -4q-22 0 -32 20q-6 13 -1 27t18 21q27 13 75.5 19t101.5 6h114q137 -2 173 6q14 4 26.5 -4t16.5 -22z " />
<glyph unicode="&#xcd;" horiz-adv-x="503" d="M371 831q0 -8 7 -18t17 -15q23 30 109 113q-5 35 -30 35q-26 0 -64.5 -46.5t-38.5 -68.5zM598 684q4 -14 -4 -26.5t-22 -16.5q-44 -10 -191 -8h-2q-18 -79 -33 -159q-43 -211 -71 -309q-31 -109 -67 -176h28q127 -2 159 5q14 3 26.5 -5t15.5 -22t-5 -26.5t-22 -15.5 q-39 -9 -175 -7q-185 2 -232 -16q-8 -2 -12 -2q-24 0 -34 23q-5 13 1 27t20 19q42 16 145 20q32 41 62 128.5t46.5 159.5t44.5 211l30 146q-147 -2 -185 -19q-7 -4 -15 -4q-22 0 -32 20q-6 13 -1 27t18 21q27 13 75.5 19t101.5 6h114q137 -2 173 6q14 4 26.5 -4t16.5 -22z " />
<glyph unicode="&#xce;" horiz-adv-x="503" d="M294 852q0 -21 13 -28q54 37 102 52q49 -43 72 -83q25 13 25 39q0 29 -35.5 67.5t-60.5 38.5q-28 0 -72 -30t-44 -56zM598 684q4 -14 -4 -26.5t-22 -16.5q-44 -10 -191 -8h-2q-18 -79 -33 -159q-43 -211 -71 -309q-31 -109 -67 -176h28q127 -2 159 5q14 3 26.5 -5 t15.5 -22t-5 -26.5t-22 -15.5q-39 -9 -175 -7q-185 2 -232 -16q-8 -2 -12 -2q-24 0 -34 23q-5 13 1 27t20 19q42 16 145 20q32 41 62 128.5t46.5 159.5t44.5 211l30 146q-147 -2 -185 -19q-7 -4 -15 -4q-22 0 -32 20q-6 13 -1 27t18 21q27 13 75.5 19t101.5 6h114 q137 -2 173 6q14 4 26.5 -4t16.5 -22z" />
<glyph unicode="&#xcf;" horiz-adv-x="503" d="M293 857q0 -34 43 -34q22 0 41 16t19 34q0 32 -36 32q-24 0 -45.5 -15t-21.5 -33zM438 837q0 -15 12 -24.5t30 -9.5q23 0 42.5 15.5t19.5 33.5q0 33 -37 33q-24 0 -45.5 -15t-21.5 -33zM598 684q4 -14 -4 -26.5t-22 -16.5q-44 -10 -191 -8h-2q-18 -79 -33 -159 q-43 -211 -71 -309q-31 -109 -67 -176h28q127 -2 159 5q14 3 26.5 -5t15.5 -22t-5 -26.5t-22 -15.5q-39 -9 -175 -7q-185 2 -232 -16q-8 -2 -12 -2q-24 0 -34 23q-5 13 1 27t20 19q42 16 145 20q32 41 62 128.5t46.5 159.5t44.5 211l30 146q-147 -2 -185 -19q-7 -4 -15 -4 q-22 0 -32 20q-6 13 -1 27t18 21q27 13 75.5 19t101.5 6h114q137 -2 173 6q14 4 26.5 -4t16.5 -22z" />
<glyph unicode="&#xd0;" horiz-adv-x="688" d="M674 534q16 -79 -5 -179q-18 -83 -50 -148q-29 -64 -76 -122q-84 -105 -197 -157q-67 -32 -136 -37q-6 -1 -18 -1q-60 0 -103 24q-25 14 -17 42l92 294q-67 -7 -92 -20q-7 -4 -16 -4q-22 0 -32 19q-7 13 -2.5 27t17.5 21q43 23 148 30l92 296q5 14 18 20.5t27 2.5 q14 -5 20.5 -18t2.5 -26l-85 -272q6 0 16 0.5t15 0.5q90 2 113 7q14 4 27 -3.5t17 -21.5t-4 -26.5t-22 -16.5q-24 -6 -129 -10q-17 0 -55 -2l-90 -288q70 -19 166 26q94 44 174.5 141t108.5 236q33 162 -37 235q-40 41 -102 52.5t-114 3.5q-51 -9 -103 -40q-58 -34 -79 -75 q-16 -30 0 -61q7 -14 3 -27.5t-17 -20.5t-27 -2.5t-21 17.5q-34 61 -1 126q29 58 106 104q65 39 127 49q64 10 130 -2q94 -17 149 -75q46 -49 61 -119z" />
<glyph unicode="&#xd1;" horiz-adv-x="674" d="M601 770q43 0 86 17q14 4 20 17.5t1 27.5q-4 14 -17.5 20t-27.5 1q-29 -10 -53.5 -11t-38.5 2.5t-37 12.5q-27 10 -43 14t-46 4t-61 -10q-14 -5 -20 -18.5t-2 -26.5q4 -14 17.5 -21t27.5 -2q38 9 54.5 7t47.5 -14q56 -20 92 -20zM714 725q9 -11 6.5 -25.5t-13.5 -23.5 q-58 -45 -120 -291q-41 -168 -84 -444q-5 -25 -28 -30l-7 -1q-19 0 -30 17q-17 25 -30 81.5t-19.5 105.5t-16.5 146q-21 187 -35 259q-8 41 -18 71q-36 -126 -81 -270q-50 -160 -81 -251q-43 -126 -62 -153q-10 -16 -30 -16q-10 0 -19 6q-13 8 -15.5 22.5t5.5 26.5 q28 42 134 386q60 196 96 319q-43 -10 -76.5 -47t-40.5 -75q-7 -36 15 -51q13 -8 16 -22.5t-5 -26.5q-8 -13 -22.5 -16t-26.5 5q-63 41 -47 125q13 62 61 112q53 55 118 67q37 6 67 -16q52 -39 81 -182q19 -95 36 -266q0 -4 7 -62t11 -86q29 164 58 283q33 126 63 201 q39 96 83 129q12 9 26.5 7t23.5 -14z" />
<glyph unicode="&#xd2;" horiz-adv-x="655" d="M437 907q70 -54 117 -110q25 12 25 36q0 23 -42 68t-68 45q-13 0 -22 -10.5t-10 -28.5zM250 -110q74 0 137 36q60 32 107 91q83 99 137 268q36 111 23 216q-9 93 -48 146q-23 31 -50 35q2 14 -5.5 25t-20.5 15q-82 21 -166 -10q-74 -28 -140 -91q-123 -118 -178 -283 q-29 -86 -23 -185q9 -106 58 -176q63 -87 169 -87zM463 660h7q-36 -22 -68 -63q-67 -91 -43 -176q5 -14 18 -21t26 -3q14 4 21.5 17t3.5 27q-16 51 31 113q41 54 84 57q24 -21 37 -92q19 -103 -17 -213q-48 -152 -123 -244q-84 -101 -190 -101q-70 0 -111 57 q-37 52 -44.5 137t18.5 160q20 58 54.5 117t79.5 111t102.5 84.5t113.5 32.5z" />
<glyph unicode="&#xd3;" horiz-adv-x="655" d="M482 831q0 -8 7 -18t17 -15q23 30 109 113q-5 35 -30 35q-26 0 -64.5 -46.5t-38.5 -68.5zM250 -110q74 0 137 36q60 32 107 91q83 99 137 268q36 111 23 216q-9 93 -48 146q-23 31 -50 35q2 14 -5.5 25t-20.5 15q-82 21 -166 -10q-74 -28 -140 -91q-123 -118 -178 -283 q-29 -86 -23 -185q9 -106 58 -176q63 -87 169 -87zM463 660h7q-36 -22 -68 -63q-67 -91 -43 -176q5 -14 18 -21t26 -3q14 4 21.5 17t3.5 27q-16 51 31 113q41 54 84 57q24 -21 37 -92q19 -103 -17 -213q-48 -152 -123 -244q-84 -101 -190 -101q-70 0 -111 57 q-37 52 -44.5 137t18.5 160q20 58 54.5 117t79.5 111t102.5 84.5t113.5 32.5z" />
<glyph unicode="&#xd4;" horiz-adv-x="655" d="M422 852q0 -21 13 -28q54 37 102 52q49 -43 72 -83q25 13 25 39q0 29 -35.5 67.5t-60.5 38.5q-28 0 -72 -30t-44 -56zM250 -110q74 0 137 36q60 32 107 91q83 99 137 268q36 111 23 216q-9 93 -48 146q-23 31 -50 35q2 14 -5.5 25t-20.5 15q-82 21 -166 -10 q-74 -28 -140 -91q-123 -118 -178 -283q-29 -86 -23 -185q9 -106 58 -176q63 -87 169 -87zM463 660h7q-36 -22 -68 -63q-67 -91 -43 -176q5 -14 18 -21t26 -3q14 4 21.5 17t3.5 27q-16 51 31 113q41 54 84 57q24 -21 37 -92q19 -103 -17 -213q-48 -152 -123 -244 q-84 -101 -190 -101q-70 0 -111 57q-37 52 -44.5 137t18.5 160q20 58 54.5 117t79.5 111t102.5 84.5t113.5 32.5z" />
<glyph unicode="&#xd5;" horiz-adv-x="655" d="M601 770q43 0 86 17q14 4 20 17.5t1 27.5q-4 14 -17.5 20t-27.5 1q-29 -10 -53.5 -11t-38.5 2.5t-37 12.5q-27 10 -43 14t-46 4t-61 -10q-14 -5 -20 -18.5t-2 -26.5q4 -14 17.5 -21t27.5 -2q38 9 54.5 7t47.5 -14q56 -20 92 -20zM250 -110q74 0 137 36q60 32 107 91 q83 99 137 268q36 111 23 216q-9 93 -48 146q-23 31 -50 35q2 14 -5.5 25t-20.5 15q-82 21 -166 -10q-74 -28 -140 -91q-123 -118 -178 -283q-29 -86 -23 -185q9 -106 58 -176q63 -87 169 -87zM463 660h7q-36 -22 -68 -63q-67 -91 -43 -176q5 -14 18 -21t26 -3q14 4 21.5 17 t3.5 27q-16 51 31 113q41 54 84 57q24 -21 37 -92q19 -103 -17 -213q-48 -152 -123 -244q-84 -101 -190 -101q-70 0 -111 57q-37 52 -44.5 137t18.5 160q20 58 54.5 117t79.5 111t102.5 84.5t113.5 32.5z" />
<glyph unicode="&#xd6;" horiz-adv-x="655" d="M404 857q0 -34 43 -34q22 0 41 16t19 34q0 32 -36 32q-24 0 -45.5 -15t-21.5 -33zM549 837q0 -15 12 -24.5t30 -9.5q23 0 42.5 15.5t19.5 33.5q0 33 -37 33q-24 0 -45.5 -15t-21.5 -33zM250 -110q74 0 137 36q60 32 107 91q83 99 137 268q36 111 23 216q-9 93 -48 146 q-23 31 -50 35q2 14 -5.5 25t-20.5 15q-82 21 -166 -10q-74 -28 -140 -91q-123 -118 -178 -283q-29 -86 -23 -185q9 -106 58 -176q63 -87 169 -87zM463 660h7q-36 -22 -68 -63q-67 -91 -43 -176q5 -14 18 -21t26 -3q14 4 21.5 17t3.5 27q-16 51 31 113q41 54 84 57 q24 -21 37 -92q19 -103 -17 -213q-48 -152 -123 -244q-84 -101 -190 -101q-70 0 -111 57q-37 52 -44.5 137t18.5 160q20 58 54.5 117t79.5 111t102.5 84.5t113.5 32.5z" />
<glyph unicode="&#xd7;" horiz-adv-x="405" d="M334 66q9 -12 6.5 -26.5t-14.5 -22.5q-8 -7 -21 -7q-19 0 -29 15q-33 47 -97 106q-58 -56 -83 -98q-11 -17 -31 -17q-8 0 -18 5q-13 7 -16.5 21.5t4.5 27.5q23 38 90 109q-50 47 -76 79q-9 11 -7 26t14 24q11 9 26 7t24 -14q23 -31 70 -72q2 1 6 5q77 75 86 93 q8 13 22 16.5t27 -3.5t16.5 -21t-3.5 -27q-17 -30 -99 -109l-2 -2q66 -58 105 -115z" />
<glyph unicode="&#xd8;" horiz-adv-x="654" d="M706 640q4 -14 -3 -27t-21 -18q-10 -3 -34 -27q-5 -5 -19 -21q0 -3 1.5 -11t2.5 -12q15 -99 -2 -228q-11 -70 -35 -137q-28 -75 -71 -134q-48 -66 -116 -106q-73 -43 -164 -46h-8q-61 0 -105 29q-27 -25 -49 -38q-8 -4 -17 -4q-21 0 -32 19q-7 13 -2.5 27t17.5 21 q16 9 34 27q-49 76 -42 214q6 115 35 186q16 42 36 81.5t55 88t75 85.5t98 67t123 40q14 2 26 -7t14 -23q2 -15 -6.5 -27t-23.5 -14q-55 -8 -104 -34t-83.5 -58.5t-64.5 -75t-47.5 -77t-31.5 -71.5q-26 -69 -30 -164q-5 -101 22 -157q26 29 46 56q62 78 180 245l69 96 q-9 -11 -21 -12q-15 -2 -27 6.5t-14 22.5q-8 49 10 98.5t58 87.5q62 60 117 49q28 -6 49 -36q34 34 61 42q14 4 26.5 -2.5t17.5 -20.5zM437 434q2 -14 -5 -25q53 73 97 129q14 18 21 26q-7 19 -13 23q-22 0 -53 -30q-11 -10 -21.5 -24t-20.5 -42.5t-5 -56.5zM560 306 q13 86 7 166q-2 -3 -149 -204q-164 -232 -236 -313q22 -11 55 -11h6q57 2 106.5 24.5t84.5 58.5t62 83t42 96t22 100z" />
<glyph unicode="&#xd9;" horiz-adv-x="750" d="M422 907q70 -54 117 -110q25 12 25 36q0 23 -42 68t-68 45q-13 0 -22 -10.5t-10 -28.5zM611 -111q25 0 50 7q14 5 21 17.5t3 26.5t-16.5 21.5t-26.5 3.5q-41 -12 -58 5q-19 19 -18 85q1 65 26 172q1 4 2.5 11t2.5 10l9 28q13 43 64 205q43 136 62 190q5 13 -1 26.5 t-20 18.5t-27.5 -1.5t-18.5 -20.5q-97 -270 -136 -426q-57 -174 -108 -236q-25 -31 -55 -43.5t-75 -11.5q-34 1 -46 20q-22 33 -8 120q16 92 69 232q44 117 49 203q3 81 -30 128q-39 53 -108 50q-45 -2 -91 -33q-46 -32 -69 -80q-43 -89 19 -175q9 -11 23.5 -13.5t26.5 6.5 q11 9 13.5 23.5t-6.5 26.5q-37 51 -12 101q15 31 44.5 51.5t54.5 21.5q31 1 47 -21q47 -67 -28 -264q-55 -145 -72 -246q-19 -113 19 -171q34 -50 104 -51q117 -3 186 81q10 12 20 28q6 -61 36 -94q22 -24 58 -30q12 -2 21 -2z" />
<glyph unicode="&#xda;" horiz-adv-x="750" d="M527 831q0 -8 7 -18t17 -15q23 30 109 113q-5 35 -30 35q-26 0 -64.5 -46.5t-38.5 -68.5zM611 -111q25 0 50 7q14 5 21 17.5t3 26.5t-16.5 21.5t-26.5 3.5q-41 -12 -58 5q-19 19 -18 85q1 65 26 172q1 4 2.5 11t2.5 10l9 28q13 43 64 205q43 136 62 190q5 13 -1 26.5 t-20 18.5t-27.5 -1.5t-18.5 -20.5q-97 -270 -136 -426q-57 -174 -108 -236q-25 -31 -55 -43.5t-75 -11.5q-34 1 -46 20q-22 33 -8 120q16 92 69 232q44 117 49 203q3 81 -30 128q-39 53 -108 50q-45 -2 -91 -33q-46 -32 -69 -80q-43 -89 19 -175q9 -11 23.5 -13.5t26.5 6.5 q11 9 13.5 23.5t-6.5 26.5q-37 51 -12 101q15 31 44.5 51.5t54.5 21.5q31 1 47 -21q47 -67 -28 -264q-55 -145 -72 -246q-19 -113 19 -171q34 -50 104 -51q117 -3 186 81q10 12 20 28q6 -61 36 -94q22 -24 58 -30q12 -2 21 -2z" />
<glyph unicode="&#xdb;" horiz-adv-x="750" d="M447 852q0 -21 13 -28q54 37 102 52q49 -43 72 -83q25 13 25 39q0 29 -35.5 67.5t-60.5 38.5q-28 0 -72 -30t-44 -56zM611 -111q25 0 50 7q14 5 21 17.5t3 26.5t-16.5 21.5t-26.5 3.5q-41 -12 -58 5q-19 19 -18 85q1 65 26 172q1 4 2.5 11t2.5 10l9 28q13 43 64 205 q43 136 62 190q5 13 -1 26.5t-20 18.5t-27.5 -1.5t-18.5 -20.5q-97 -270 -136 -426q-57 -174 -108 -236q-25 -31 -55 -43.5t-75 -11.5q-34 1 -46 20q-22 33 -8 120q16 92 69 232q44 117 49 203q3 81 -30 128q-39 53 -108 50q-45 -2 -91 -33q-46 -32 -69 -80q-43 -89 19 -175 q9 -11 23.5 -13.5t26.5 6.5q11 9 13.5 23.5t-6.5 26.5q-37 51 -12 101q15 31 44.5 51.5t54.5 21.5q31 1 47 -21q47 -67 -28 -264q-55 -145 -72 -246q-19 -113 19 -171q34 -50 104 -51q117 -3 186 81q10 12 20 28q6 -61 36 -94q22 -24 58 -30q12 -2 21 -2z" />
<glyph unicode="&#xdc;" horiz-adv-x="750" d="M428 857q0 -34 43 -34q22 0 41 16t19 34q0 32 -36 32q-24 0 -45.5 -15t-21.5 -33zM573 837q0 -15 12 -24.5t30 -9.5q23 0 42.5 15.5t19.5 33.5q0 33 -37 33q-24 0 -45.5 -15t-21.5 -33zM611 -111q25 0 50 7q14 5 21 17.5t3 26.5t-16.5 21.5t-26.5 3.5q-41 -12 -58 5 q-19 19 -18 85q1 65 26 172q1 4 2.5 11t2.5 10l9 28q13 43 64 205q43 136 62 190q5 13 -1 26.5t-20 18.5t-27.5 -1.5t-18.5 -20.5q-97 -270 -136 -426q-57 -174 -108 -236q-25 -31 -55 -43.5t-75 -11.5q-34 1 -46 20q-22 33 -8 120q16 92 69 232q44 117 49 203q3 81 -30 128 q-39 53 -108 50q-45 -2 -91 -33q-46 -32 -69 -80q-43 -89 19 -175q9 -11 23.5 -13.5t26.5 6.5q11 9 13.5 23.5t-6.5 26.5q-37 51 -12 101q15 31 44.5 51.5t54.5 21.5q31 1 47 -21q47 -67 -28 -264q-55 -145 -72 -246q-19 -113 19 -171q34 -50 104 -51q117 -3 186 81 q10 12 20 28q6 -61 36 -94q22 -24 58 -30q12 -2 21 -2z" />
<glyph unicode="&#xdd;" horiz-adv-x="706" d="M508 831q0 -8 7 -18t17 -15q23 30 109 113q-5 35 -30 35q-26 0 -64.5 -46.5t-38.5 -68.5zM322 -200q70 0 126 50q46 41 81 119q43 92 100 336q21 89 34.5 141t36.5 120.5t48 112.5q13 24 -6 43q-21 19 -43 5q-23 -14 -41.5 -48.5t-52.5 -120.5q-64 -164 -110 -233 q-72 -109 -155 -109q-26 0 -37 17q-11 16 -14.5 46t5 83t31.5 117q53 147 7 213q-34 48 -111 48q-45 0 -89 -29q-46 -29 -69 -75q-46 -91 22 -187q8 -11 23 -13.5t27 6.5q11 8 13.5 22.5t-6.5 26.5q-43 61 -16 113q16 30 44 47q29 18 51 18q35 0 53 -18q24 -35 -16 -148 q-35 -102 -41 -178q-6 -85 28 -133q33 -47 95 -47q67 0 125 42q45 33 85 92q-47 -198 -85 -281q-59 -127 -143 -127q-38 0 -62 18t-32 43q-9 28 1 34q12 9 14.5 23.5t-6.5 26.5q-8 12 -22.5 14t-26.5 -6q-24 -17 -31.5 -48t3.5 -66q16 -47 55 -76q45 -34 107 -34z" />
<glyph unicode="&#xde;" horiz-adv-x="543" d="M537 496q57 -73 -2 -187q-27 -52 -80 -90.5t-112 -56t-97.5 -24.5t-67.5 -9l-9 -31q-33 -127 -53 -176q-8 -22 -33 -22q-7 0 -13 3q-14 5 -19.5 18.5t-0.5 27.5q11 27 51 168q65 238 119 381q-58 -8 -123 -21q-14 -4 -26.5 4t-15.5 23q-4 14 4 26.5t22 15.5q94 20 169 26 q28 68 59 129q7 13 21 18t27 -2t18 -21t-2 -27q-23 -44 -45 -95q5 -1 14 -1.5t14 -0.5q132 -11 181 -76zM472 342q38 74 9 111q-31 40 -131 48q-16 2 -52 2q-49 -126 -100 -301q216 29 274 140z" />
<glyph unicode="&#xdf;" horiz-adv-x="471" d="M-35 -140q20 0 31 17q48 80 101 295q45 176 71 323q20 101 62 150q31 37 65 37q12 0 27 -9.5t21 -25.5q11 -30 -9 -73q-29 -64 -116 -142q-11 -10 -12 -24.5t8 -24.5q52 -62 78.5 -130.5t24.5 -121t-19 -96.5q-27 -56 -69 -56q-35 0 -44 30q-8 28 3 65q10 33 25 44 q12 8 15 22.5t-5 26.5t-22.5 15t-26.5 -5q-37 -24 -54 -83q-17 -57 -3 -106q12 -38 41.5 -59t70.5 -21q43 0 80 28q32 25 54 69q39 85 19 193q-20 105 -92 204q76 73 109 142q32 70 10 128q-14 38 -47 59.5t-67 21.5q-66 0 -119 -62q-54 -65 -77 -183q-94 -481 -164 -594 q-8 -13 -4.5 -27.5t16.5 -21.5q10 -5 18 -5z" />
<glyph unicode="&#xe0;" horiz-adv-x="444" d="M179 519q70 -54 117 -110q25 12 25 36q0 23 -42 68t-68 45q-13 0 -22 -10.5t-10 -28.5zM73 -62h5q58 3 132 62q3 -9 8 -20q21 -32 71 -32q63 0 114 47q52 46 99 135q7 13 2.5 27t-17.5 21t-27 2.5t-21 -17.5q-76 -144 -150 -144q-10 0 -11 1q-2 6 4 31q2 6 6.5 17.5 t5.5 14.5q16 18 21 25q45 58 31 89q-7 12 -20 18q13 -1 23.5 7t12.5 21q12 61 -35 91q-35 22 -85.5 14.5t-96.5 -40.5q-55 -40 -108 -109q-60 -82 -66 -144q-6 -49 26 -84q30 -33 76 -33zM266 279q14 0 22 -5q7 -2 4 -17q-5 -29 22 -40h-3q-22 0 -41 -25q-11 -14 -23 -41 l-6 -13q-1 -3 -3.5 -8.5t-4.5 -8.5q-98 -109 -158 -112q-16 -1 -26 10q-9 11 -8 30q4 44 51.5 105.5t94.5 95.5q40 29 79 29z" />
<glyph unicode="&#xe1;" horiz-adv-x="444" d="M274 443q0 -8 7 -18t17 -15q23 30 109 113q-5 35 -30 35q-26 0 -64.5 -46.5t-38.5 -68.5zM73 -62h5q58 3 132 62q3 -9 8 -20q21 -32 71 -32q63 0 114 47q52 46 99 135q7 13 2.5 27t-17.5 21t-27 2.5t-21 -17.5q-76 -144 -150 -144q-10 0 -11 1q-2 6 4 31q2 6 6.5 17.5 t5.5 14.5q16 18 21 25q45 58 31 89q-7 12 -20 18q13 -1 23.5 7t12.5 21q12 61 -35 91q-35 22 -85.5 14.5t-96.5 -40.5q-55 -40 -108 -109q-60 -82 -66 -144q-6 -49 26 -84q30 -33 76 -33zM266 279q14 0 22 -5q7 -2 4 -17q-5 -29 22 -40h-3q-22 0 -41 -25q-11 -14 -23 -41 l-6 -13q-1 -3 -3.5 -8.5t-4.5 -8.5q-98 -109 -158 -112q-16 -1 -26 10q-9 11 -8 30q4 44 51.5 105.5t94.5 95.5q40 29 79 29z" />
<glyph unicode="&#xe2;" horiz-adv-x="444" d="M234 464q0 -21 13 -28q54 37 102 52q49 -43 72 -83q25 13 25 39q0 29 -35.5 67.5t-60.5 38.5q-28 0 -72 -30t-44 -56zM73 -62h5q58 3 132 62q3 -9 8 -20q21 -32 71 -32q63 0 114 47q52 46 99 135q7 13 2.5 27t-17.5 21t-27 2.5t-21 -17.5q-76 -144 -150 -144q-10 0 -11 1 q-2 6 4 31q2 6 6.5 17.5t5.5 14.5q16 18 21 25q45 58 31 89q-7 12 -20 18q13 -1 23.5 7t12.5 21q12 61 -35 91q-35 22 -85.5 14.5t-96.5 -40.5q-55 -40 -108 -109q-60 -82 -66 -144q-6 -49 26 -84q30 -33 76 -33zM266 279q14 0 22 -5q7 -2 4 -17q-5 -29 22 -40h-3 q-22 0 -41 -25q-11 -14 -23 -41l-6 -13q-1 -3 -3.5 -8.5t-4.5 -8.5q-98 -109 -158 -112q-16 -1 -26 10q-9 11 -8 30q4 44 51.5 105.5t94.5 95.5q40 29 79 29z" />
<glyph unicode="&#xe3;" horiz-adv-x="444" d="M381 380q43 0 86 17q14 4 20 17.5t1 27.5q-4 14 -17.5 20t-27.5 1q-29 -10 -53.5 -11t-38.5 2.5t-37 12.5q-27 10 -43 14t-46 4t-61 -10q-14 -5 -20 -18.5t-2 -26.5q4 -14 17.5 -21t27.5 -2q38 9 54.5 7t47.5 -14q56 -20 92 -20zM73 -62h5q58 3 132 62q3 -9 8 -20 q21 -32 71 -32q63 0 114 47q52 46 99 135q7 13 2.5 27t-17.5 21t-27 2.5t-21 -17.5q-76 -144 -150 -144q-10 0 -11 1q-2 6 4 31q2 6 6.5 17.5t5.5 14.5q16 18 21 25q45 58 31 89q-7 12 -20 18q13 -1 23.5 7t12.5 21q12 61 -35 91q-35 22 -85.5 14.5t-96.5 -40.5 q-55 -40 -108 -109q-60 -82 -66 -144q-6 -49 26 -84q30 -33 76 -33zM266 279q14 0 22 -5q7 -2 4 -17q-5 -29 22 -40h-3q-22 0 -41 -25q-11 -14 -23 -41l-6 -13q-1 -3 -3.5 -8.5t-4.5 -8.5q-98 -109 -158 -112q-16 -1 -26 10q-9 11 -8 30q4 44 51.5 105.5t94.5 95.5 q40 29 79 29z" />
<glyph unicode="&#xe4;" horiz-adv-x="444" d="M216 469q0 -34 43 -34q22 0 41 16t19 34q0 32 -36 32q-24 0 -45.5 -15t-21.5 -33zM361 449q0 -15 12 -24.5t30 -9.5q23 0 42.5 15.5t19.5 33.5q0 33 -37 33q-24 0 -45.5 -15t-21.5 -33zM73 -62h5q58 3 132 62q3 -9 8 -20q21 -32 71 -32q63 0 114 47q52 46 99 135 q7 13 2.5 27t-17.5 21t-27 2.5t-21 -17.5q-76 -144 -150 -144q-10 0 -11 1q-2 6 4 31q2 6 6.5 17.5t5.5 14.5q16 18 21 25q45 58 31 89q-7 12 -20 18q13 -1 23.5 7t12.5 21q12 61 -35 91q-35 22 -85.5 14.5t-96.5 -40.5q-55 -40 -108 -109q-60 -82 -66 -144q-6 -49 26 -84 q30 -33 76 -33zM266 279q14 0 22 -5q7 -2 4 -17q-5 -29 22 -40h-3q-22 0 -41 -25q-11 -14 -23 -41l-6 -13q-1 -3 -3.5 -8.5t-4.5 -8.5q-98 -109 -158 -112q-16 -1 -26 10q-9 11 -8 30q4 44 51.5 105.5t94.5 95.5q40 29 79 29z" />
<glyph unicode="&#xe5;" horiz-adv-x="444" d="M375 415q32 15 47 38l2 3q44 67 36 105q-5 27 -30 43q-20 14 -47 14q-44 0 -96 -31l-3 -2q-50 -38 -55 -91q-3 -43 27 -73q22 -22 57 -22zM306 471q-6 7 -6 18q1 19 25 38q34 20 58 20q5 0 7 -2q0 -5 -5 -17q-4 -7 -11.5 -19t-8.5 -14l-2 -3q-4 -6 -20 -14t-30 -8h-5z M73 -62h5q58 3 132 62q3 -9 8 -20q21 -32 71 -32q63 0 114 47q52 46 99 135q7 13 2.5 27t-17.5 21t-27 2.5t-21 -17.5q-76 -144 -150 -144q-10 0 -11 1q-2 6 4 31q2 6 6.5 17.5t5.5 14.5q16 18 21 25q45 58 31 89q-7 12 -20 18q13 -1 23.5 7t12.5 21q12 61 -35 91 q-35 22 -85.5 14.5t-96.5 -40.5q-55 -40 -108 -109q-60 -82 -66 -144q-6 -49 26 -84q30 -33 76 -33zM266 279q14 0 22 -5q7 -2 4 -17q-5 -29 22 -40h-3q-22 0 -41 -25q-11 -14 -23 -41l-6 -13q-1 -3 -3.5 -8.5t-4.5 -8.5q-98 -109 -158 -112q-16 -1 -26 10q-9 11 -8 30 q4 44 51.5 105.5t94.5 95.5q40 29 79 29z" />
<glyph unicode="&#xe6;" horiz-adv-x="556" d="M577 175q13 -8 16.5 -22t-3.5 -27q-60 -102 -137 -147q-51 -30 -102 -30q-23 0 -42 6q-49 13 -79 59q-9 15 -14 29q-55 -61 -99 -85q-33 -18 -60 -18q-20 0 -38 9q-26 15 -38 47.5t-11.5 65.5t9.5 63q16 50 63 109q58 69 121 97q85 39 165 1q6 -3 7 -4q31 21 65 30 q38 11 65 7q38 -5 57 -33q25 -35 7 -76q-22 -47 -102 -87q-69 -34 -146 -42h-5v-11q-1 -36 13 -60.5t40 -32.5q42 -12 97 22.5t102 116.5q8 13 22 16.5t27 -3.5zM420 290q-30 -9 -62 -32t-54 -56q52 12 92 31q55 28 68 53q2 3 0 6q-3 3 -15 3q-14 0 -29 -5zM205 120 q3 87 67 157q-40 8 -80 -11q-49 -21 -91 -71.5t-54 -90.5q-8 -30 -5 -61q3 -26 12 -31q5 -5 28 8q39 22 96 87q11 13 27 13z" />
<glyph unicode="&#xe7;" horiz-adv-x="333" d="M396 185q12 -9 14.5 -23.5t-6.5 -26.5q-77 -106 -147 -156q-6 -5 -18 -13q-2 -15 -13 -25q-20 -18 -27 -25h4q59 -3 80 -41q19 -35 -8 -73q-21 -30 -70 -57q-70 -37 -106 -37q-25 0 -42 14t-19.5 38t4.5 40l60 -21q23 3 68 28q35 19 46 35q-12 3 -22 3q-31 -2 -58 -16 q-19 -11 -37 2t-15 35q9 33 34 65q-51 6 -86 46q-39 47 -31 133q6 57 33 106q28 56 80 96q42 32 78 40.5t52.5 2.5t28.5 -17q30 -27 27 -73q-1 -39 -26 -80q-8 -12 -22.5 -15t-26.5 4q-13 7 -16.5 21.5t4.5 27.5q10 15 13.5 29.5t2.5 22.5t-3 10q-4 1 -10.5 1.5t-23 -7.5 t-35.5 -23q-75 -59 -85 -153q-6 -57 15 -80q18 -22 48 -22q84 3 212 176q8 12 23 14t26 -6z" />
<glyph unicode="&#xe8;" horiz-adv-x="341" d="M178 519q70 -54 117 -110q25 12 25 36q0 23 -42 68t-68 45q-13 0 -22 -10.5t-10 -28.5zM127 -56q72 0 141 44q83 51 123 145q5 14 -0.5 27.5t-18.5 18.5q-14 6 -27.5 0.5t-19.5 -19.5q-31 -72 -89.5 -108.5t-108.5 -36.5q-22 0 -44 9.5t-31 27.5q-8 14 -6 32 q142 27 202.5 75t70.5 98q6 32 -4 57q-9 28 -32 43q-41 27 -99 10q-72 -23 -138 -114q-52 -71 -66 -132q-14 -59 9 -102q19 -38 58.5 -56.5t79.5 -18.5zM225 302q13 0 19 -4q9 -6 5 -26q-6 -30 -50 -60t-127 -50q14 26 32 50q51 71 100 87q12 3 21 3z" />
<glyph unicode="&#xe9;" horiz-adv-x="341" d="M273 443q0 -8 7 -18t17 -15q23 30 109 113q-5 35 -30 35q-26 0 -64.5 -46.5t-38.5 -68.5zM127 -56q72 0 141 44q83 51 123 145q5 14 -0.5 27.5t-18.5 18.5q-14 6 -27.5 0.5t-19.5 -19.5q-31 -72 -89.5 -108.5t-108.5 -36.5q-22 0 -44 9.5t-31 27.5q-8 14 -6 32 q142 27 202.5 75t70.5 98q6 32 -4 57q-9 28 -32 43q-41 27 -99 10q-72 -23 -138 -114q-52 -71 -66 -132q-14 -59 9 -102q19 -38 58.5 -56.5t79.5 -18.5zM225 302q13 0 19 -4q9 -6 5 -26q-6 -30 -50 -60t-127 -50q14 26 32 50q51 71 100 87q12 3 21 3z" />
<glyph unicode="&#xea;" horiz-adv-x="341" d="M193 464q0 -21 13 -28q54 37 102 52q49 -43 72 -83q25 13 25 39q0 29 -35.5 67.5t-60.5 38.5q-28 0 -72 -30t-44 -56zM127 -56q72 0 141 44q83 51 123 145q5 14 -0.5 27.5t-18.5 18.5q-14 6 -27.5 0.5t-19.5 -19.5q-31 -72 -89.5 -108.5t-108.5 -36.5q-22 0 -44 9.5 t-31 27.5q-8 14 -6 32q142 27 202.5 75t70.5 98q6 32 -4 57q-9 28 -32 43q-41 27 -99 10q-72 -23 -138 -114q-52 -71 -66 -132q-14 -59 9 -102q19 -38 58.5 -56.5t79.5 -18.5zM225 302q13 0 19 -4q9 -6 5 -26q-6 -30 -50 -60t-127 -50q14 26 32 50q51 71 100 87q12 3 21 3z " />
<glyph unicode="&#xeb;" horiz-adv-x="341" d="M174 479q0 -34 43 -34q22 0 41 16t19 34q0 32 -36 32q-24 0 -45.5 -15t-21.5 -33zM319 459q0 -15 12 -24.5t30 -9.5q23 0 42.5 15.5t19.5 33.5q0 33 -37 33q-24 0 -45.5 -15t-21.5 -33zM127 -56q72 0 141 44q83 51 123 145q5 14 -0.5 27.5t-18.5 18.5q-14 6 -27.5 0.5 t-19.5 -19.5q-31 -72 -89.5 -108.5t-108.5 -36.5q-22 0 -44 9.5t-31 27.5q-8 14 -6 32q142 27 202.5 75t70.5 98q6 32 -4 57q-9 28 -32 43q-41 27 -99 10q-72 -23 -138 -114q-52 -71 -66 -132q-14 -59 9 -102q19 -38 58.5 -56.5t79.5 -18.5zM225 302q13 0 19 -4q9 -6 5 -26 q-6 -30 -50 -60t-127 -50q14 26 32 50q51 71 100 87q12 3 21 3z" />
<glyph unicode="&#xec;" horiz-adv-x="244" d="M50 509q70 -54 117 -110q25 12 25 36q0 23 -42 68t-68 45q-13 0 -22 -10.5t-10 -28.5zM101 -38q58 0 109 43q53 47 92 138q5 14 -0.5 27.5t-18.5 18.5q-13 6 -27 0.5t-20 -18.5q-57 -138 -135 -138q-29 0 -38 17q-3 6 -4 14.5t2 29t13.5 47t34.5 69t60 93.5q8 12 6 26.5 t-14 22.5q-12 9 -27 6.5t-23 -14.5q-162 -229 -111 -326q16 -30 49 -46q25 -10 52 -10z" />
<glyph unicode="&#xed;" horiz-adv-x="244" d="M184 433q0 -8 7 -18t17 -15q23 30 109 113q-5 35 -30 35q-26 0 -64.5 -46.5t-38.5 -68.5zM101 -38q58 0 109 43q53 47 92 138q5 14 -0.5 27.5t-18.5 18.5q-13 6 -27 0.5t-20 -18.5q-57 -138 -135 -138q-29 0 -38 17q-3 6 -4 14.5t2 29t13.5 47t34.5 69t60 93.5 q8 12 6 26.5t-14 22.5q-12 9 -27 6.5t-23 -14.5q-162 -229 -111 -326q16 -30 49 -46q25 -10 52 -10z" />
<glyph unicode="&#xee;" horiz-adv-x="244" d="M73 454q0 -21 13 -28q54 37 102 52q49 -43 72 -83q25 13 25 39q0 29 -35.5 67.5t-60.5 38.5q-28 0 -72 -30t-44 -56zM101 -38q58 0 109 43q53 47 92 138q5 14 -0.5 27.5t-18.5 18.5q-13 6 -27 0.5t-20 -18.5q-57 -138 -135 -138q-29 0 -38 17q-3 6 -4 14.5t2 29t13.5 47 t34.5 69t60 93.5q8 12 6 26.5t-14 22.5q-12 9 -27 6.5t-23 -14.5q-162 -229 -111 -326q16 -30 49 -46q25 -10 52 -10z" />
<glyph unicode="&#xef;" horiz-adv-x="244" d="M75 450q0 -34 43 -34q22 0 41 16t19 34q0 32 -36 32q-24 0 -45.5 -15t-21.5 -33zM220 430q0 -15 12 -24.5t30 -9.5q23 0 42.5 16t19.5 33q0 33 -37 33q-24 0 -45.5 -15t-21.5 -33zM101 -38q58 0 109 43q53 47 92 138q5 14 -0.5 27.5t-18.5 18.5q-13 6 -27 0.5t-20 -18.5 q-57 -138 -135 -138q-29 0 -38 17q-3 6 -4 14.5t2 29t13.5 47t34.5 69t60 93.5q8 12 6 26.5t-14 22.5q-12 9 -27 6.5t-23 -14.5q-162 -229 -111 -326q16 -30 49 -46q25 -10 52 -10z" />
<glyph unicode="&#xf0;" horiz-adv-x="488" d="M527 602q11 -10 11 -25t-11 -25q-30 -30 -128 -46q1 -10 1 -29q1 -115 -83 -402q-13 -45 -5 -53q10 -5 40 8q39 19 67 51q32 35 36 66q1 15 13 23.5t27 6.5q14 -2 23 -14t7 -26q-8 -57 -61 -112q-47 -48 -101 -67q-23 -8 -45 -8q-34 0 -55 21q-38 36 -17 116 q-25 -32 -47 -58q-43 -51 -93 -68q-18 -7 -39 -7q-31 0 -53 15q-42 30 -44 92q-2 58 35 128q44 82 98 130q60 54 120 54q42 0 77 -26q8 -5 13 -10q17 85 16 139v18q-31 -6 -47 -10q-32 -8 -45 -17q-11 -9 -23 -9q-16 0 -27 12q-10 11 -9 25.5t12 24.5q32 27 124 43 q-18 45 -66 98q-10 11 -9.5 25.5t11.5 24.5q10 10 25 9.5t25 -11.5q52 -56 74 -105q7 -16 11 -29q26 4 51 11q33 8 41 16q11 10 25 10t25 -10zM145 75q78 91 139 188q-27 39 -61 39q-32 0 -73 -36q-43 -39 -82 -110q-27 -52 -27 -93q0 -27 13 -35q12 -8 37.5 4t53.5 43z" />
<glyph unicode="&#xf1;" horiz-adv-x="473" d="M351 340q43 0 86 17q14 4 20 17.5t1 27.5q-4 14 -17.5 20t-27.5 1q-29 -10 -53.5 -11t-38.5 2.5t-37 12.5q-27 10 -43 14t-46 4t-61 -10q-14 -5 -20 -18.5t-2 -26.5q4 -14 17.5 -21t27.5 -2q38 9 54.5 7t47.5 -14q56 -20 92 -20zM2 -24q19 0 30 16q164 251 239 251 q26 0 31 -7v-1q1 -1 1.5 -3t0.5 -5.5t-0.5 -8.5t-1.5 -11q-6 -28 -21 -65q-17 -51 -20 -67q-12 -45 13 -72q30 -33 104 -15q66 17 120 100q11 17 21 35.5t14 28.5t4 11q5 14 -1 27.5t-19 18.5q-14 5 -27.5 -1t-18.5 -20q-12 -31 -33 -63q-39 -59 -77 -68q-21 -5 -32 -5 q0 5 3 17q4 14 16 48q20 57 23 77q10 51 -11 83q-25 37 -89 37q-56 0 -119 -56q-27 -24 -57 -60q8 39 11 66q1 15 -8.5 26t-23.5 13q-15 1 -26 -8.5t-13 -23.5q-3 -36 -19.5 -98.5t-30.5 -104t-16 -45.5q-10 -29 18 -43q7 -4 15 -4z" />
<glyph unicode="&#xf2;" horiz-adv-x="372" d="M227 515q70 -54 117 -110q25 12 25 36q0 23 -42 68t-68 45q-13 0 -22 -10.5t-10 -28.5zM68 -51q6 0 24 2q50 11 111 60q27 23 45 43q44 -5 82 10q52 20 89 68q10 12 8 26.5t-13 23.5q-12 9 -26.5 7.5t-23.5 -12.5q-28 -37 -65 -48q3 5 7 15q30 69 19 129q-13 69 -67 88 q-58 18 -119 -37q-27 -23 -40 -56q-15 1 -26 -10q-67 -64 -89 -146q-24 -89 18 -135q25 -28 66 -28zM229 295q4 0 6 -1q15 -5 20 -33q10 -58 -34 -126q-47 24 -58 66q-12 39 23 71q26 23 43 23zM95 178q18 -61 79 -98q-2 -2 -7.5 -7t-8.5 -7q-48 -38 -80 -45q-13 -2 -23 3 q-16 20 -3 70q13 45 43 84z" />
<glyph unicode="&#xf3;" horiz-adv-x="372" d="M331 443q0 -8 7 -18t17 -15q23 30 109 113q-5 35 -30 35q-26 0 -64.5 -46.5t-38.5 -68.5zM68 -51q6 0 24 2q50 11 111 60q27 23 45 43q44 -5 82 10q52 20 89 68q10 12 8 26.5t-13 23.5q-12 9 -26.5 7.5t-23.5 -12.5q-28 -37 -65 -48q3 5 7 15q30 69 19 129q-13 69 -67 88 q-58 18 -119 -37q-27 -23 -40 -56q-15 1 -26 -10q-67 -64 -89 -146q-24 -89 18 -135q25 -28 66 -28zM229 295q4 0 6 -1q15 -5 20 -33q10 -58 -34 -126q-47 24 -58 66q-12 39 23 71q26 23 43 23zM95 178q18 -61 79 -98q-2 -2 -7.5 -7t-8.5 -7q-48 -38 -80 -45q-13 -2 -23 3 q-16 20 -3 70q13 45 43 84z" />
<glyph unicode="&#xf4;" horiz-adv-x="372" d="M197 464q0 -21 13 -28q54 37 102 52q49 -43 72 -83q25 13 25 39q0 29 -35.5 67.5t-60.5 38.5q-28 0 -72 -30t-44 -56zM68 -51q6 0 24 2q50 11 111 60q27 23 45 43q44 -5 82 10q52 20 89 68q10 12 8 26.5t-13 23.5q-12 9 -26.5 7.5t-23.5 -12.5q-28 -37 -65 -48q3 5 7 15 q30 69 19 129q-13 69 -67 88q-58 18 -119 -37q-27 -23 -40 -56q-15 1 -26 -10q-67 -64 -89 -146q-24 -89 18 -135q25 -28 66 -28zM229 295q4 0 6 -1q15 -5 20 -33q10 -58 -34 -126q-47 24 -58 66q-12 39 23 71q26 23 43 23zM95 178q18 -61 79 -98q-2 -2 -7.5 -7t-8.5 -7 q-48 -38 -80 -45q-13 -2 -23 3q-16 20 -3 70q13 45 43 84z" />
<glyph unicode="&#xf5;" horiz-adv-x="372" d="M371 373q43 0 86 17q14 4 20 17.5t1 27.5q-4 14 -17.5 20t-27.5 1q-29 -10 -53.5 -11t-38.5 2.5t-37 12.5q-27 10 -43 14t-46 4t-61 -10q-14 -5 -20 -18.5t-2 -26.5q4 -14 17.5 -21t27.5 -2q38 9 54.5 7t47.5 -14q56 -20 92 -20zM68 -51q6 0 24 2q50 11 111 60 q27 23 45 43q44 -5 82 10q52 20 89 68q10 12 8 26.5t-13 23.5q-12 9 -26.5 7.5t-23.5 -12.5q-28 -37 -65 -48q3 5 7 15q30 69 19 129q-13 69 -67 88q-58 18 -119 -37q-27 -23 -40 -56q-15 1 -26 -10q-67 -64 -89 -146q-24 -89 18 -135q25 -28 66 -28zM229 295q4 0 6 -1 q15 -5 20 -33q10 -58 -34 -126q-47 24 -58 66q-12 39 23 71q26 23 43 23zM95 178q18 -61 79 -98q-2 -2 -7.5 -7t-8.5 -7q-48 -38 -80 -45q-13 -2 -23 3q-16 20 -3 70q13 45 43 84z" />
<glyph unicode="&#xf6;" horiz-adv-x="372" d="M189 469q0 -34 43 -34q22 0 41 16t19 34q0 32 -36 32q-24 0 -45.5 -15t-21.5 -33zM334 449q0 -15 12 -24.5t30 -9.5q23 0 42.5 15.5t19.5 33.5q0 33 -37 33q-24 0 -45.5 -15t-21.5 -33zM68 -51q6 0 24 2q50 11 111 60q27 23 45 43q44 -5 82 10q52 20 89 68q10 12 8 26.5 t-13 23.5q-12 9 -26.5 7.5t-23.5 -12.5q-28 -37 -65 -48q3 5 7 15q30 69 19 129q-13 69 -67 88q-58 18 -119 -37q-27 -23 -40 -56q-15 1 -26 -10q-67 -64 -89 -146q-24 -89 18 -135q25 -28 66 -28zM229 295q4 0 6 -1q15 -5 20 -33q10 -58 -34 -126q-47 24 -58 66 q-12 39 23 71q26 23 43 23zM95 178q18 -61 79 -98q-2 -2 -7.5 -7t-8.5 -7q-48 -38 -80 -45q-13 -2 -23 3q-16 20 -3 70q13 45 43 84z" />
<glyph unicode="&#xf7;" horiz-adv-x="491" d="M256 217q12 0 26 6q23 9 33 37q10 27 -14 43q-4 14 -16.5 22t-26.5 4q-24 -6 -43 -22.5t-20 -38.5q-2 -33 29 -44q18 -7 32 -7zM36 88q9 0 16 4q40 21 223 26q96 2 129 9q14 4 22 17t4 27t-17 21.5t-27 3.5q-18 -5 -113 -7q-200 -6 -254 -35q-13 -7 -17.5 -20.5 t2.5 -26.5q9 -19 32 -19zM195 -20q12 0 25 8q21 14 24 37q8 22 -8 38q-17 17 -40 7h-2q-35 -11 -40 -41q-5 -28 19 -42q10 -7 22 -7z" />
<glyph unicode="&#xf8;" horiz-adv-x="372" d="M408 171q10 -10 10.5 -25t-9.5 -25q-93 -97 -170 -83q-2 0 -5 0.5t-5 1.5q-67 -63 -119 -79q-18 -7 -36 -7q-16 0 -29 5q-36 -33 -65 -46q-8 -3 -14 -3q-23 0 -33 21q-6 13 -0.5 27t18.5 20q17 8 43 31q-18 40 -9 97q13 79 59 127q10 10 25 10.5t25 -9.5q11 -11 11 -25.5 t-10 -25.5q-30 -30 -40 -87q-2 -18 -2 -25l12 13q30 36 60 75q-20 67 2 123q23 59 70 79q31 13 60 4q10 -3 19 -9q21 27 36 40q11 10 26 8.5t25 -12.5q9 -10 8 -25t-12 -25t-41 -48q13 -45 1 -98q-7 -40 -30 -80q33 16 69 54q10 11 24.5 11t25.5 -10zM193 256q-2 -4 -4 -14 l16 21q5 7 14 19l12 16q-1 0 -5 -2q-21 -8 -33 -40zM216 133q22 32 32 69l-41 -54zM127 48q20 13 40 32q-4 6 -7 9q-22 -28 -33 -41z" />
<glyph unicode="&#xf9;" horiz-adv-x="441" d="M118 484q70 -54 117 -110q25 12 25 36q0 23 -42 68t-68 45q-13 0 -22 -10.5t-10 -28.5zM78 -43h7q61 4 137 94q6 -56 43 -76q48 -26 116 24q56 41 122 137q8 12 5.5 26.5t-14.5 22.5q-13 8 -27.5 5.5t-22.5 -14.5q-55 -83 -101 -116q-32 -26 -44 -22q-10 10 -5 48 q4 55 43 147q6 14 1 27t-19 19q-13 6 -27 0.5t-20 -18.5q-33 -77 -95 -154q-63 -77 -98 -79q-6 0 -12 8q-26 51 60 228q7 14 2 27.5t-18 20.5q-13 6 -27 1t-21 -18q-44 -92 -62 -159q-22 -91 6 -137q26 -42 71 -42z" />
<glyph unicode="&#xfa;" horiz-adv-x="441" d="M216 377q0 -8 7 -18t17 -15q23 30 109 113q-5 35 -30 35q-26 0 -64.5 -46.5t-38.5 -68.5zM78 -43h7q61 4 137 94q6 -56 43 -76q48 -26 116 24q56 41 122 137q8 12 5.5 26.5t-14.5 22.5q-13 8 -27.5 5.5t-22.5 -14.5q-55 -83 -101 -116q-32 -26 -44 -22q-10 10 -5 48 q4 55 43 147q6 14 1 27t-19 19q-13 6 -27 0.5t-20 -18.5q-33 -77 -95 -154q-63 -77 -98 -79q-6 0 -12 8q-26 51 60 228q7 14 2 27.5t-18 20.5q-13 6 -27 1t-21 -18q-44 -92 -62 -159q-22 -91 6 -137q26 -42 71 -42z" />
<glyph unicode="&#xfb;" horiz-adv-x="441" d="M145 414q0 -21 13 -28q55 36 102 52q49 -43 72 -83q25 13 25 39q0 29 -35.5 67.5t-60.5 38.5q-28 0 -72 -30t-44 -56zM78 -43h7q61 4 137 94q6 -56 43 -76q48 -26 116 24q56 41 122 137q8 12 5.5 26.5t-14.5 22.5q-13 8 -27.5 5.5t-22.5 -14.5q-55 -83 -101 -116 q-32 -26 -44 -22q-10 10 -5 48q4 55 43 147q6 14 1 27t-19 19q-13 6 -27 0.5t-20 -18.5q-33 -77 -95 -154q-63 -77 -98 -79q-6 0 -12 8q-26 51 60 228q7 14 2 27.5t-18 20.5q-13 6 -27 1t-21 -18q-44 -92 -62 -159q-22 -91 6 -137q26 -42 71 -42z" />
<glyph unicode="&#xfc;" horiz-adv-x="441" d="M134 420q0 -34 43 -34q22 0 41 16t19 34q0 32 -36 32q-24 0 -45.5 -15t-21.5 -33zM279 400q0 -15 12 -24.5t30 -9.5q23 0 42.5 16t19.5 33q0 33 -37 33q-24 0 -45.5 -15t-21.5 -33zM78 -43h7q61 4 137 94q6 -56 43 -76q48 -26 116 24q56 41 122 137q8 12 5.5 26.5 t-14.5 22.5q-13 8 -27.5 5.5t-22.5 -14.5q-55 -83 -101 -116q-32 -26 -44 -22q-10 10 -5 48q4 55 43 147q6 14 1 27t-19 19q-13 6 -27 0.5t-20 -18.5q-33 -77 -95 -154q-63 -77 -98 -79q-6 0 -12 8q-26 51 60 228q7 14 2 27.5t-18 20.5q-13 6 -27 1t-21 -18 q-44 -92 -62 -159q-22 -91 6 -137q26 -42 71 -42z" />
<glyph unicode="&#xfd;" horiz-adv-x="400" d="M237 398q0 -8 7 -18t17 -15q23 30 109 113q-5 35 -30 35q-26 0 -64.5 -46.5t-38.5 -68.5zM38 -290q11 0 16 2q25 5 50.5 22.5t46.5 42t34.5 44t25.5 39.5q21 35 38 76q161 79 216 203q6 13 0.5 27t-18.5 20t-27 0.5t-20 -18.5q-34 -77 -115 -129q18 59 31 126l2 2 q22 33 30 63q8 35 -6 56q-16 23 -43 16q-37 -9 -46 -78q-2 -20 -4 -31q-86 -118 -173 -120q-9 16 0 62q14 67 62 126q10 12 8 26.5t-13 23.5q-11 10 -26 8t-24 -13q-53 -67 -73 -143q-20 -74 2 -121q19 -40 61 -40q67 0 126 40l17 12q-14 -44 -23 -66q-9 -5 -26.5 -12.5 t-21.5 -9.5q-10 -4 -26 -11t-20 -9q-52 -26 -89.5 -70.5t-41.5 -84.5q-5 -42 25 -65q19 -16 45 -16zM41 -219h-3q0 16 19 41q31 39 73 60l16 7q-30 -48 -58.5 -76.5t-46.5 -31.5z" />
<glyph unicode="&#xfe;" horiz-adv-x="415" d="M392 313q56 -74 -3 -187q-22 -43 -63.5 -76.5t-81.5 -52t-88.5 -31t-74.5 -16t-49 -5.5l-9 -31q-34 -127 -53 -175q-8 -22 -33 -22q-9 0 -13 2q-13 5 -19 18.5t-1 27.5q16 40 51 168q69 248 119 381q-58 -6 -123 -21q-14 -3 -26.5 5t-15.5 22q-4 14 4 26.5t23 16.5 q94 21 168 25q26 64 60 130q7 13 20.5 18t26.5 -2t18 -21t-2 -27q-24 -48 -45 -96q19 0 28 -1q130 -10 182 -76zM326 158q38 74 9 112q-31 40 -131 48q-32 2 -52 2q-50 -129 -99 -301q216 29 273 139z" />
<glyph unicode="&#xff;" horiz-adv-x="400" d="M138 433q0 -34 43 -34q22 0 41 16t19 34q0 32 -36 32q-24 0 -45.5 -15t-21.5 -33zM283 413q0 -15 12 -24.5t30 -9.5q23 0 42.5 15.5t19.5 33.5q0 33 -37 33q-24 0 -45.5 -15t-21.5 -33zM38 -290q11 0 16 2q25 5 50.5 22.5t46.5 42t34.5 44t25.5 39.5q21 35 38 76 q161 79 216 203q6 13 0.5 27t-18.5 20t-27 0.5t-20 -18.5q-34 -77 -115 -129q18 59 31 126l2 2q22 33 30 63q8 35 -6 56q-16 23 -43 16q-37 -9 -46 -78q-2 -20 -4 -31q-86 -118 -173 -120q-9 16 0 62q14 67 62 126q10 12 8 26.5t-13 23.5q-11 10 -26 8t-24 -13 q-53 -67 -73 -143q-20 -74 2 -121q19 -40 61 -40q67 0 126 40l17 12q-14 -44 -23 -66q-9 -5 -26.5 -12.5t-21.5 -9.5q-10 -4 -26 -11t-20 -9q-52 -26 -89.5 -70.5t-41.5 -84.5q-5 -42 25 -65q19 -16 45 -16zM41 -219h-3q0 16 19 41q31 39 73 60l16 7q-30 -48 -58.5 -76.5 t-46.5 -31.5z" />
<glyph unicode="&#x131;" horiz-adv-x="244" d="M101 -38q58 0 109 43q53 47 92 138q5 14 -0.5 27.5t-18.5 18.5q-13 6 -27 0.5t-20 -18.5q-57 -138 -135 -138q-29 0 -38 17q-3 6 -4 14.5t2 29t13.5 47t34.5 69t60 93.5q8 12 6 26.5t-14 22.5q-12 9 -27 6.5t-23 -14.5q-162 -229 -111 -326q16 -30 49 -46q25 -10 52 -10z " />
<glyph unicode="&#x152;" horiz-adv-x="848" d="M867 667q6 -13 1 -27t-18 -20q-28 -14 -83 -14q-35 0 -107 8q-36 4 -52 5q2 -4 2 -5q36 -79 19 -223q-2 -10 -2 -16q37 0 52 -1q67 -2 112 9q14 3 26.5 -5t16.5 -22q3 -14 -5 -26.5t-22 -16.5q-50 -10 -94 -10h-36q-32 2 -58 2h-5q-24 -104 -71 -204q-33 -70 -99 -124 q0 -1 -2 -1t-2 -1q158 -9 275 20q14 3 26.5 -5t16.5 -22q3 -14 -5 -26.5t-22 -16.5q-84 -20 -191 -23h-28q-90 0 -193 11q-31 -9 -65 -12q-5 -1 -15 -1q-67 0 -114 52q-52 57 -69 163q-14 99 4 203q26 150 149 274t276 151q14 2 26.5 -6.5t14.5 -22.5q3 -15 -7 -27 q12 -2 17 -4q10 8 21 8q36 2 110 -7q123 -13 153 0q13 6 27 1t20 -18zM558 399q16 121 -12 186q-12 25 -25 29q-21 7 -39 -4q-25 -15 -42 -55t-22 -69q-2 -15 -14 -23t-27 -6t-23 14t-6 27q0 16 19 67q22 56 52 85q-106 -44 -188 -140.5t-101 -203.5q-17 -94 -3.5 -180 t50.5 -126q29 -32 71 -29q85 7 145 57t86 103q62 133 79 268z" />
<glyph unicode="&#x153;" horiz-adv-x="553" d="M580 179q13 -8 16.5 -22t-3.5 -27q-60 -102 -137 -147q-51 -30 -102 -30q-22 0 -42 6q-49 13 -79 59q-10 18 -14 29q-55 -61 -99 -85q-33 -18 -60 -18q-21 0 -37 9q-26 15 -38.5 47.5t-12 65.5t9.5 63q16 50 63 109q58 69 121 97q84 38 165 1q5 -2 7 -4q35 22 65 30 q35 10 65 7q40 -5 57 -33q26 -35 7 -76q-22 -47 -102 -87q-69 -34 -146 -42h-5v-11q-1 -36 13 -60.5t40 -32.5q42 -12 97 22.5t103 116.5q7 13 21 16.5t27 -3.5zM423 294q-30 -9 -62 -32t-54 -56q55 12 92 31q58 29 68 53q2 3 0 6q-3 3 -15 3q-13 0 -29 -5zM208 124 q3 85 67 157q-40 8 -80 -11q-49 -21 -90.5 -71.5t-54.5 -90.5q-8 -30 -5 -61q3 -29 12 -31q5 -5 28 8q39 22 96 87q10 11 27 13z" />
<glyph unicode="&#x160;" horiz-adv-x="567" d="M358 906q0 -32 38 -74t66 -42q29 0 76 33t47 61q0 16 -21 24q-36 -32 -102 -54q-54 48 -77 92q-27 -14 -27 -40zM220 -100q15 0 39 2q101 10 161 46q77 47 86 132q9 87 -56 149q-50 48 -150 106q-38 23 -68 42q-46 32 -54 81q-9 58 36 117q31 40 79 61t93 24q55 3 77 -19 q16 -17 -31 -115q-39 -82 -39 -119q0 -14 10.5 -24.5t25.5 -10.5q14 0 24.5 10.5t10.5 24.5q0 23 33 89q30 67 37 93q15 64 -19 101q-44 46 -133 41q-61 -3 -120 -31q-65 -30 -104 -82q-65 -85 -50 -171q6 -41 30 -74q20 -31 55 -55q13 -9 71 -44q91 -53 137 -96 q40 -38 35 -90q-6 -52 -53 -79q-44 -28 -130 -36q-96 -9 -136 28q-45 43 -37 101q6 51 59 79q13 7 17.5 21t-2.5 27t-21 17.5t-27 -2.5q-85 -45 -96 -132q-6 -46 10 -88q15 -43 48 -74q53 -50 152 -50z" />
<glyph unicode="&#x161;" horiz-adv-x="351" d="M121 538q0 -32 38 -74t66 -42q29 0 76 33t47 61q0 16 -21 24q-36 -32 -102 -54q-54 48 -77 92q-27 -14 -27 -40zM130 -66q80 0 115 53q62 92 -27 316q-7 20 -7 22q13 49 -10 68q-21 20 -46 2q-21 -14 -19 -52q0 -2 0.5 -6t0.5 -6q-3 -10 -9 -20q-42 -86 -151 -186 q-11 -10 -11.5 -24.5t9.5 -25.5t24.5 -11.5t25.5 9.5q65 59 108 113q20 26 34 50q19 -54 27 -98q14 -80 -8 -111q-13 -22 -56 -22q-24 0 -39 5.5t-19 10.5t-9 14q-7 13 -21 17.5t-27 -2.5t-17.5 -20.5t2.5 -27.5q36 -68 130 -68z" />
<glyph unicode="&#x178;" horiz-adv-x="706" d="M399 857q0 -34 43 -34q22 0 41 16t19 34q0 32 -36 32q-24 0 -45.5 -15t-21.5 -33zM544 837q0 -15 12 -24.5t30 -9.5q23 0 42.5 15.5t19.5 33.5q0 33 -37 33q-24 0 -45.5 -15t-21.5 -33zM322 -200q70 0 126 50q46 41 81 119q43 92 100 336q21 89 34.5 141t36.5 120.5 t48 112.5q13 24 -6 43q-21 19 -43 5q-23 -14 -41.5 -48.5t-52.5 -120.5q-64 -164 -110 -233q-72 -109 -155 -109q-26 0 -37 17q-11 16 -14.5 46t5 83t31.5 117q53 147 7 213q-34 48 -111 48q-45 0 -89 -29q-46 -29 -69 -75q-46 -91 22 -187q8 -11 23 -13.5t27 6.5 q11 8 13.5 22.5t-6.5 26.5q-43 61 -16 113q16 30 44 47q29 18 51 18q35 0 53 -18q24 -35 -16 -148q-35 -102 -41 -178q-6 -85 28 -133q33 -47 95 -47q67 0 125 42q45 33 85 92q-47 -198 -85 -281q-59 -127 -143 -127q-38 0 -62 18t-32 43q-9 28 1 34q12 9 14.5 23.5 t-6.5 26.5q-8 12 -22.5 14t-26.5 -6q-24 -17 -31.5 -48t3.5 -66q16 -47 55 -76q45 -34 107 -34z" />
<glyph unicode="&#x17d;" horiz-adv-x="680" d="M445 906q0 -32 38 -74t66 -42q29 0 76 33t47 61q0 16 -21 24q-36 -32 -102 -54q-54 48 -77 92q-27 -14 -27 -40zM749 667q5 -13 -1 -26.5t-20 -18.5q-40 -16 -84 -19q-64 -128 -120 -223q28 0 55 -1.5t43 -2.5l15 -1q15 -1 24.5 -12.5t8.5 -25.5q-1 -15 -12.5 -24.5 t-26.5 -8.5h-4q-4 1 -11.5 1.5t-17.5 1t-23.5 1t-27.5 0.5h-31.5h-34.5q-42 -68 -90 -135q-52 -73 -108 -134l53 -15q159 -42 239 -14q14 5 27.5 -1.5t17.5 -20.5q5 -14 -1.5 -27t-20.5 -18q-58 -20 -136 -14q-62 4 -144 26q-38 11 -93 29q-71 -61 -132 -64h-8q-37 0 -64 15 q-29 15 -43 45q-12 27 -6.5 56.5t25.5 50.5q45 46 111 18l9 -3q39 -17 92 -37q55 54 125 150q27 38 59 88q-87 -9 -140 -27q-8 -2 -12 -2q-25 0 -33 24q-5 14 1.5 27t20.5 18q79 27 210 35q61 101 126 228q-56 7 -161 39q-41 13 -71 20q-44 12 -81 6.5t-57 -26.5 q-30 -33 -11 -97q5 -14 -2 -27t-21 -17q-8 -2 -11 -2q-26 0 -34 25q-32 106 28 167q34 35 89 46t118 -6q11 -3 74 -21q50 -15 75.5 -21.5t66 -13.5t73 -4t62.5 14q14 5 27.5 -1t18.5 -20zM90 -9q26 2 56 22l-56 23q-2 0 -5 2t-4 2q-10 4 -18 4q-9 0 -15 -6q-12 -12 -5 -29 q10 -20 47 -18z" />
<glyph unicode="&#x17e;" horiz-adv-x="331" d="M128 518q0 -32 38 -74t66 -42q29 0 76 33t47 61q0 16 -21 24q-36 -32 -102 -54q-54 48 -77 92q-27 -14 -27 -40zM14 -296q56 0 121 43q131 85 131 202q0 14 -4 40q77 60 118 140q7 13 2.5 27t-18.5 21q-13 7 -27 2t-21 -18q-30 -60 -82 -103v1l-1 1q-18 27 -34 43 q21 13 43 35q36 41 43 85q16 79 -41 128q-33 30 -81 19q-51 -13 -104 -77q-47 -56 -77 -132q-5 -14 1 -27.5t19 -18.5q14 -5 27.5 0.5t18.5 19.5q26 65 65 112t67 54q11 3 18 -4q25 -20 18 -60q-13 -64 -94 -93q-20 -7 -23 -29q-3 -23 16 -34q38 -25 61 -64 q-50 -31 -165 -79q-44 -19 -71 -52.5t-30 -73.5q-3 -65 48 -94q24 -14 56 -14zM194 -55q-3 -77 -98 -139q-70 -46 -103 -27q-12 8 -12 28q2 42 57 65q108 46 156 73z" />
<glyph unicode="&#x192;" horiz-adv-x="537" d="M566 622q-4 -57 -64 -139t-158 -164q81 -6 111 10q13 7 26.5 2t20.5 -18t2.5 -27t-18.5 -21q-49 -24 -162 -16q-14 0 -20 1q-66 -257 -84 -313q-22 -78 -58 -124q-45 -60 -103 -60l-7 1q-81 5 -117 54t-19 125q3 14 15.5 22t26.5 5t22 -15.5t5 -27.5q-9 -45 7 -67 q18 -23 65 -25q25 -2 50.5 33.5t45.5 98.5q21 74 77 291q-15 -3 -22 -9q-10 -7 -21 -7q-18 0 -29 14q-9 12 -6.5 26.5t13.5 23.5q30 22 79 25q4 10 8 14q52 204 56 218q17 58 58 99q39 40 84 51q58 16 96 -21q22 -22 20 -60zM345 415q65 60 104 116q50 71 46 102q-5 3 -14 3 q-8 0 -13 -1q-27 -7 -53.5 -34t-37.5 -68q-9 -28 -32 -118z" />
<glyph unicode="&#x2c6;" horiz-adv-x="210" d="M-1 464q0 -21 13 -28q55 36 102 52q49 -43 72 -83q25 13 25 39q0 29 -35.5 67.5t-60.5 38.5q-28 0 -72 -30t-44 -56z" />
<glyph unicode="&#x2c7;" horiz-adv-x="210" d="M-13 518q0 -32 38 -74t66 -42q29 0 76 33t47 61q0 16 -21 24q-36 -32 -102 -54q-54 48 -77 92q-27 -14 -27 -40z" />
<glyph unicode="&#x2da;" horiz-adv-x="445" d="M265 385q32 15 47 38l2 3q44 67 36 105q-5 27 -30 43q-20 14 -47 14q-44 0 -96 -31l-3 -2q-50 -38 -55 -91q-3 -43 27 -73q22 -22 57 -22zM196 441q-6 7 -6 18q1 19 25 38q34 20 58 20q5 0 7 -2q0 -5 -5 -17q-3 -5 -6.5 -10.5t-7.5 -12t-6 -10.5l-2 -3q-4 -6 -20 -14 t-30 -8h-5z" />
<glyph unicode="&#x2dc;" horiz-adv-x="284" d="M211 370q43 0 86 17q14 4 20 17.5t1 27.5q-4 14 -17.5 20t-27.5 1q-29 -10 -53.5 -11t-38.5 2.5t-37 12.5q-27 10 -43 14t-46 4t-61 -10q-14 -5 -20 -18.5t-2 -26.5q4 -14 17.5 -21t27.5 -2q38 9 54.5 7t47.5 -14q56 -20 92 -20z" />
<glyph unicode="&#x2013;" horiz-adv-x="755" d="M106 110q9 0 17 4q21 13 109 14q45 1 177 -6q162 -8 192 2q14 5 20 18t2 27q-5 14 -18 20t-27 2q-6 -3 -56 -3l-110 5q-132 7 -181 6q-103 -1 -143 -22q-13 -7 -17 -21t3 -28q11 -18 32 -18z" />
<glyph unicode="&#x2014;" horiz-adv-x="917" d="M125 110q7 0 10 1q65 19 294 13q250 -6 341 15q14 3 22 15.5t4 27.5q-3 14 -15.5 22t-27.5 4q-82 -19 -322 -13q-241 6 -315 -15q-14 -5 -21.5 -17.5t-3.5 -26.5q8 -26 34 -26z" />
<glyph unicode="&#x2018;" horiz-adv-x="183" d="M159 657q12 -20 34 -46q11 -14 28 -38q34 19 34 41q0 17 -32 55q-33 38 -38 55q-14 0 -26 -11t-12 -24t12 -32z" />
<glyph unicode="&#x2019;" horiz-adv-x="164" d="M143 612q0 -22 34 -41q16 22 29 38q45 58 45 78q0 13 -12 24t-26 11q-4 -16 -37 -55q-33 -37 -33 -55z" />
<glyph unicode="&#x201a;" horiz-adv-x="216" d="M5 -44q0 -28 27 -44q9 11 22 45q8 15 20 35q11 18 26 34q0 13 -9.5 23t-22.5 10q-23 0 -43 -34.5t-20 -68.5z" />
<glyph unicode="&#x201c;" horiz-adv-x="307" d="M159 657q12 -20 34 -46q11 -14 28 -38q34 19 34 41q0 17 -32 55q-33 38 -38 55q-14 0 -26 -11t-12 -24t12 -32zM283 657q12 -20 34 -46q10 -14 28 -38q34 19 34 41q0 17 -32 55q-33 38 -38 55q-14 0 -26 -11t-12 -24t12 -32z" />
<glyph unicode="&#x201d;" horiz-adv-x="290" d="M144 614q0 -22 34 -41q16 22 29 38q45 58 45 78q0 13 -12 24t-26 11q-4 -16 -37 -55q-33 -37 -33 -55zM268 614q0 -22 34 -41q16 22 29 38q45 58 45 78q0 13 -12 24t-26 11q-4 -16 -37 -55q-33 -37 -33 -55z" />
<glyph unicode="&#x201e;" horiz-adv-x="326" d="M5 -44q0 -28 27 -44q9 11 22 45q8 15 20 35q11 18 26 34q0 13 -9.5 23t-22.5 10q-23 0 -43 -34.5t-20 -68.5zM115 -44q0 -28 27 -44q9 11 22 45q7 15 20 35q11 18 26 34q0 13 -9.5 23t-22.5 10q-23 0 -43 -34.5t-20 -68.5z" />
<glyph unicode="&#x2020;" horiz-adv-x="405" d="M411 340q1 -15 -9 -26t-24 -12q-30 -1 -77 2q-15 0 -43 2q-120 -285 -130 -314q-8 -22 -33 -22q-5 0 -13 3q-14 5 -19.5 18.5t0.5 27.5l16 39q16 40 45 111t56 135q-40 -6 -63 -15q-6 -3 -13 -3q-25 0 -33 22q-6 14 -0.5 27.5t19.5 18.5q51 21 121 23q50 118 80 183 q7 13 20.5 18.5t26.5 -0.5q13 -7 18.5 -20.5t-0.5 -26.5q-33 -73 -69 -156h18q43 -3 68 -2q15 1 26 -9t12 -24z" />
<glyph unicode="&#x2021;" horiz-adv-x="449" d="M307 341h-12q-1 -2 -7 -16t-9 -22q80 -2 126 7q14 3 26.5 -5.5t14.5 -22.5q3 -15 -5.5 -27t-22.5 -15q-57 -10 -167 -8q-2 -4 -5.5 -13.5t-5.5 -12.5l-87 -215q-10 -21 -33 -21q-8 0 -14 3q-13 6 -18.5 20t0.5 27q16 37 86 212q-57 -2 -83 -14q-7 -4 -15 -4q-22 0 -32 20 q-7 14 -2.5 27.5t18.5 20.5q43 21 143 21l15 37q-76 -2 -107 -18q-7 -4 -16 -4q-21 0 -32 19q-7 13 -2.5 27t17.5 21q48 25 169 27q50 122 73 172q7 13 21 18t27 -1q13 -7 18 -20.5t-2 -27.5q-15 -30 -60 -141q79 0 103 5q15 3 27 -5.5t15 -22.5t-5.5 -26.5t-22.5 -15.5 q-34 -6 -134 -6z" />
<glyph unicode="&#x2022;" horiz-adv-x="272" d="M61 158q0 -20 13.5 -32.5t34.5 -12.5q27 0 52.5 21.5t25.5 42.5q0 22 -16.5 37.5t-41.5 15.5t-46.5 -23.5t-21.5 -48.5z" />
<glyph unicode="&#x2026;" horiz-adv-x="549" d="M28 28q0 -16 11.5 -27t32.5 -11t36.5 21t15.5 39q0 31 -33 31q-20 0 -41.5 -18t-21.5 -35zM177 28q0 -16 11.5 -27t32.5 -11t36.5 21t15.5 39q0 31 -33 31q-20 0 -41.5 -18t-21.5 -35zM335 28q0 -16 11.5 -27t32.5 -11t36.5 21t15.5 39q0 31 -33 31q-20 0 -41.5 -18 t-21.5 -35z" />
<glyph unicode="&#x2030;" horiz-adv-x="1029" d="M118 -100q12 0 20 7q70 49 191 246q121 198 273 515q6 14 1 27.5t-18 20.5q-14 6 -27.5 1t-20.5 -18q-147 -310 -269 -509q-111 -183 -171 -226q-12 -8 -14.5 -22.5t6.5 -26.5q11 -15 29 -15zM206 332q41 0 81 37q39 33 60 91q25 70 22 119q-2 36 -16 61q-16 31 -52 45 q-15 6 -31 6q-56 0 -104 -66q-34 -44 -51 -100q-28 -99 5 -150q23 -35 77 -43h9zM179 414q-15 22 5 92q12 42 39 77q27 37 47 37q2 0 6 -2q21 -7 22 -41q2 -38 -18 -94q-13 -37 -37 -58.5t-37 -21.5zM548 -10q41 0 81 37q39 33 60 91q25 70 22 119q-2 36 -16 61 q-16 31 -52 45q-15 6 -31 6q-56 0 -104 -66q-34 -44 -51 -100q-28 -99 5 -150q23 -35 77 -43h9zM838 -10q41 0 81 37q39 33 60 91q25 70 22 119q-2 36 -16 61q-16 31 -52 45q-15 6 -31 6q-56 0 -104 -66q-34 -44 -51 -100q-28 -99 5 -150q23 -35 77 -43h9zM521 72 q-15 22 5 92q12 42 39 77q27 37 47 37q2 0 6 -2q21 -7 22 -41q2 -38 -18 -94q-13 -37 -37 -58.5t-37 -21.5zM838 61q-22 3 -27 11q-15 22 5 92q12 42 39 77q27 37 47 37q2 0 6 -2q21 -7 22 -41q2 -38 -18 -94q-13 -37 -37 -58.5t-37 -21.5z" />
<glyph unicode="&#x2039;" horiz-adv-x="324" d="M226 14q12 0 22 8t12 20q4 14 -4 26.5t-22 16.5q-58 11 -120 55q16 11 32 24q44 35 100 89q10 11 10 25t-10 25t-24.5 11t-25.5 -10q-55 -54 -93 -83q-47 -38 -58 -38q-23 -2 -30 -24q-8 -21 9 -37q87 -80 194 -107q2 0 4.5 -0.5t3.5 -0.5z" />
<glyph unicode="&#x203a;" horiz-adv-x="338" d="M303 155q5 -21 -11 -34q-88 -76 -182 -102q-5 -4 -15 -4q-15 0 -25.5 10.5t-10.5 25.5q0 14 9 24t23 12q52 14 111 54q-61 39 -143 115q-11 10 -11.5 24.5t9.5 25.5t24.5 11.5t25.5 -9.5q119 -111 172 -126q21 -7 24 -27z" />
<glyph unicode="&#x2074;" horiz-adv-x="318" d="M245 294h8q14 4 22 16.5t5 26.5q-8 36 7 117q35 4 59 11q14 4 21 17.5t2 27.5t-17.5 20.5t-26.5 2.5q-13 -4 -22 -5q18 72 44 143q5 14 -1 27t-19 18q-14 5 -27 -0.5t-19 -18.5q-14 -32 -128 -127q-9 -8 -33.5 -29.5t-37.5 -33.5q-22 -19 -7 -43q14 -26 40 -17q24 7 91 5 h9q-15 -84 -4 -131q7 -27 34 -27zM229 523h-20q1 1 25 22q-4 -13 -5 -22z" />
<glyph unicode="&#x20ac;" horiz-adv-x="729" d="M688 190q12 -8 15 -22t-5 -27q-7 -11 -13.5 -20t-32 -41.5t-49.5 -57.5t-60.5 -54.5t-71.5 -46.5q-58 -28 -125 -28q-81 0 -137 45q-54 43 -69 123q-8 44 -5 91q-38 -2 -61 -8q-3 -1 -9 -1q-12 0 -21.5 7.5t-12.5 19.5q-4 14 4 26.5t22 16.5q36 9 88 11l6 28 q-49 -2 -77 -9q-3 -1 -9 -1q-27 0 -34 27q-4 14 4 26.5t22 16.5q42 11 114 11q29 92 72 163q49 82 116 141q104 90 209 103q61 6 84 -35q26 -39 -1 -119q-26 -75 -91 -174q-8 -12 -22 -15t-27 5q-12 8 -15 22t5 27q66 104 84 163q3 8 5 15.5t2.5 13t1 9.5t0 7t-0.5 5t-1 3v1 q-2 2 -16 1q-12 -1 -32 -6t-60.5 -26t-77.5 -53q-106 -94 -161 -252q106 0 160 14q14 4 26.5 -4t16.5 -22t-4 -26.5t-22 -16.5q-65 -17 -198 -15v-2l-1 -2l-6 -24h4q127 -2 184 13q14 4 26.5 -4t16.5 -22t-4 -26.5t-22 -16.5q-66 -17 -202 -15h-14q-3 -45 4 -78 q9 -55 44 -82q35 -29 91 -29.5t95 21.5q47 23 97.5 73t74 82t27.5 40q8 12 22 15t27 -5z" />
<glyph unicode="&#x2122;" horiz-adv-x="581" d="M634 675q-28 -111 -34 -166q-8 -62 6 -81q9 -12 7 -26.5t-14 -23.5q-8 -7 -21 -7q-18 0 -29 14q-25 36 -22 98q-21 -43 -24 -52q-5 -12 -16.5 -18t-24.5 -3t-20.5 13.5t-6.5 23.5v3q0 3 0.5 8.5t0.5 13t0.5 16.5t0.5 19v21.5v22.5v1q-46 -117 -83 -164q-11 -14 -28 -14 q-12 0 -22 8q-12 9 -13.5 23.5t7.5 26.5q49 61 105 235q-50 0 -88 -2q-26 -57 -42 -105q-17 -49 -22 -83t-3.5 -42.5t3.5 -10.5q8 -13 5 -27t-16 -22q-8 -5 -19 -5q-20 0 -30 16q-21 33 -11 96q6 42 26 102q6 16 16 42t12 31q-40 -5 -57 -11q-14 -4 -27 2.5t-18 20.5t2 27.5 t21 17.5q40 13 158 22q117 5 147 -5q32 -11 42 -73q4 -28 5 -55q41 77 67 105q19 19 43 6q24 -12 17 -39z" />
<glyph unicode="&#x25fc;" horiz-adv-x="350" d="M0 350h350v-350h-350v350z" />
<glyph unicode="&#xe000;" horiz-adv-x="330" d="M335 272q14 -18 14 -42v-111q0 -24 -14 -42q-15 -21 -35 -27l-90 -32q-21 -7 -42 -7q-23 0 -42 7l-91 32q-21 6 -35 27q-14 20 -14 42v111q0 22 14 42q16 21 35 27l91 30q22 6 42 6q18 0 42 -6l90 -30q21 -6 35 -27zM328 119v111q0 15 -10.5 29.5t-24.5 18.5l-91 31 q-15 5 -34 5q-20 0 -35 -5l-91 -31q-14 -4 -24.5 -18.5t-10.5 -29.5v-111q0 -15 10.5 -30t24.5 -19l91 -32q11 -5 35 -5q23 0 34 5l91 32q14 4 24.5 19t10.5 30zM75 90v114q0 23 16.5 40t39.5 17h30v-26h-30q-13 0 -22 -9t-9 -22v-19h32v-25h-32v-70h-25zM176 261h39 q24 0 40.5 -17t16.5 -40v-57q0 -24 -16.5 -40t-40.5 -16h-39v57h26v-33h13q13 0 22.5 9.5t9.5 22.5v57q0 13 -9.5 22t-22.5 9h-13v-32h-26v58z" />
<glyph unicode="&#xfb01;" horiz-adv-x="574" d="M25 -275q31 0 61 27q30 25 51 67q24 46 36 106q14 66 12 145q-2 38 -6 77q36 -26 79 -26h4q33 1 72 20q-23 -88 20 -141q29 -35 78 -37q43 -1 91 28q37 23 87 97q10 15 19.5 31.5t14.5 25.5l5 9q7 13 2.5 27t-17.5 21t-27 2.5t-21 -17.5q-20 -38 -50 -80t-51 -56 q-53 -33 -76 -5q-21 23 -5 83q20 64 77 134l35 41q9 11 8 25.5t-12 23.5q-11 10 -25 9.5t-24 -11.5q-25 -27 -35 -41q-59 -62 -94 -86q-43 -31 -74 -32q-21 -1 -38 11t-44 40q-18 21 -29 30q-10 7 -20 8l1 4q4 1 6 3q101 67 188 173q89 104 103 181q7 40 -11 68 q-22 30 -58 24q-36 -4 -79 -49q-35 -35 -79 -100q-91 -137 -147 -307q-69 -209 -90 -349q-11 -69 -8 -119q6 -65 47 -80q12 -5 23 -5zM358 659q-1 -10 -9 -31q-18 -42 -56 -92q-48 -64 -106 -116q31 62 72 126q35 52 70 89q17 17 29 24zM537 423h2q21 1 42 15q28 16 34 38 q8 29 -18 47q-19 11 -37 1q-17 17 -39 7q-19 -8 -28.5 -26.5t-4.5 -40.5q5 -18 18.5 -29.5t30.5 -11.5zM100 193q23 -123 9 -224q-13 -92 -51 -144q-15 -20 -29 -27q-10 41 8 142q17 101 63 253z" />
<glyph unicode="&#xfb02;" horiz-adv-x="573" d="M9 -285q30 0 60 31q62 62 92 188q20 86 15 169l7 -3.5t8 -3.5q57 -24 140 6q0 -7 2 -19q11 -87 69 -112q28 -13 60 -5q27 7 59 31q58 46 117 155q7 13 3 27t-17 21t-27 3t-21 -17q-32 -59 -63.5 -96.5t-51 -48t-31.5 -5.5q-13 6 -21.5 33t-6.5 67q96 57 182 182 q92 132 118 252q20 91 -18 132q-26 29 -63 23q-40 -9 -83 -68q-29 -40 -69 -120q-61 -123 -115 -282q-14 -45 -18 -74q-80 -35 -117 -20q-21 8 -42 47q-20 35 -39 46q-6 3 -10 3l3 8q114 66 203 182q81 106 94 188q7 48 -17 74q-26 26 -62 20q-58 -10 -131 -124 q-72 -113 -151 -309q-81 -199 -112 -347q-13 -66 -15 -115q-2 -52 13 -80q14 -28 41 -37q10 -2 15 -2zM358 658q2 -12 -8 -42q-16 -45 -50 -95q-46 -69 -115 -130q53 115 96 180q45 69 77 87zM632 654q11 -16 1 -69q-18 -82 -77 -180.5t-132 -163.5q53 153 108 264 q60 122 100 149zM96 174q26 -132 -13 -258q-18 -58 -44 -96q-12 -18 -25 -29q-3 18 -3 29q-1 38 11 101q18 99 74 253z" />
<glyph horiz-adv-x="493" d="M621 697q4 -14 -3.5 -26.5t-21.5 -17.5q-30 -8 -115 3q-83 9 -124 9q-21 -98 -94 -282q102 4 146 20q14 5 27.5 -1t18.5 -20t-1 -27.5t-20 -18.5q-56 -21 -200 -25q-53 -136 -70 -200q-27 -104 -6 -140q8 -13 4.5 -27.5t-16.5 -21.5q-10 -5 -18 -5q-20 0 -31 18 q-17 28 -19.5 67t9.5 90.5t27.5 99t42.5 116.5q-49 -3 -76 -11q-8 -2 -10 -2q-27 0 -34 26q-4 14 3 26.5t21 17.5q48 13 125 15q77 201 97 281q-64 -8 -118 -35q-7 -4 -16 -4q-23 0 -32 20q-7 13 -2 27t18 20q82 42 192 47q70 2 164 -10q74 -8 89 -4q14 4 26.5 -3.5 t16.5 -21.5z" />
<glyph horiz-adv-x="995" d="M976 192q13 -7 18 -21t-1 -27q-28 -56 -59 -102q-75 -111 -147 -132q-18 -5 -32 -5q-32 0 -59 18q-52 32 -67 103q-11 51 0 120q11 66 41 147q35 94 90 191l-5 -5q-131 -148 -275 -463q-12 -27 -41 -20q-29 9 -26 38q22 237 7 393q-15 -53 -31 -96q-39 -105 -88 -188 q-58 -101 -122 -159q-85 -78 -175 -78q-49 0 -97 24q-13 7 -18 20.5t2 27.5q7 13 20.5 17.5t27.5 -2.5q32 -16 65 -16q62 0 127 60q112 101 191 319q35 94 46 162q2 13 4 25t2.5 20.5t0.5 15t-0.5 11t-0.5 7.5v5l-1 1l-3 10q-8 15 -18 25q-24 24 -52 23q-15 -1 -35 -15.5 t-28 -36.5q-17 -41 21 -80q10 -11 9.5 -25.5t-11.5 -24.5t-25.5 -10t-24.5 11q-34 37 -43 79q-7 39 8 76q16 40 52 68t73 29q60 4 107 -45q60 -61 81 -203q18 -112 12 -274q106 201 206 316q78 89 164 132q2 0 9 4q25 13 43 -8q19 -20 3 -43q-121 -179 -180.5 -332 t-41.5 -239q9 -41 35 -57q14 -10 33 -5q47 14 108 103q14 22 27.5 45t20 35.5t6.5 13.5q6 13 20 18t27 -1z" />
<glyph horiz-adv-x="779" d="M611 -111q25 0 50 7q14 5 21 17.5t3 26.5t-16.5 21.5t-26.5 3.5q-41 -12 -58 5q-19 19 -18 85q1 65 26 172q1 4 2.5 11t2.5 10l9 28q13 43 64 205q43 136 62 190q5 13 -1 26.5t-20 18.5t-27.5 -1.5t-18.5 -20.5q-97 -270 -136 -426q-57 -174 -108 -236q-25 -31 -55 -43.5 t-75 -11.5q-34 1 -46 20q-22 33 -8 120q16 92 69 232q44 117 49 203q3 81 -30 128q-39 53 -108 50q-45 -2 -91 -33q-46 -32 -69 -80q-43 -89 19 -175q9 -11 23.5 -13.5t26.5 6.5q11 9 13.5 23.5t-6.5 26.5q-37 51 -12 101q15 31 44.5 51.5t54.5 21.5q31 1 47 -21 q47 -67 -28 -264q-55 -145 -72 -246q-19 -113 19 -171q34 -50 104 -51q117 -3 186 81q10 12 20 28q6 -61 36 -94q22 -24 58 -30q12 -2 21 -2z" />
<glyph horiz-adv-x="369" d="M214 -36q7 0 27 2q74 14 142 98q30 38 50 79q7 13 2 26.5t-18 20.5t-27 2t-20 -18l-5 -9q-5 -9 -15.5 -25t-22.5 -31q-51 -65 -99 -73q-23 -4 -29 3q-12 19 16 65q50 75 38 130q-10 49 -83 114q3 15 3 29q-2 35 -28 51q-16 9 -34 5t-29 -19q-17 -27 -5 -61q3 -7 11 -21 q-8 -20 -24 -62q-64 -171 -117 -244q-9 -12 -6.5 -26.5t14.5 -23.5q12 -8 26.5 -5.5t22.5 13.5q60 83 126 261q7 16 12 32q37 -34 41 -57q6 -25 -27 -78q-25 -39 -29.5 -77.5t13.5 -65.5q25 -35 74 -35z" />
<glyph horiz-adv-x="311" d="M101 -70q8 0 26 2q50 9 92 47q30 27 42 70q9 36 5 79q-4 51 -33 149q-7 19 -12 40l1 1q10 21 7.5 40t-14.5 31q-22 22 -49 8q-22 -13 -22 -45q0 -13 1 -21q-40 -59 -136 -163q-8 -9 -9 -19q-8 -12 -12 -20q-15 -32 -17 -74q-1 -35 17.5 -65t52.5 -47q31 -13 60 -13z M65 115q7 0 23 -20q9 -11 24 -13t26 7t13 24t-7 26q-18 23 -36 33q36 40 60 72q24 -79 27 -122q6 -64 -23 -90q-54 -47 -100 -25q-31 16 -31 45q2 29 12 48q4 7 12 15z" />
<glyph horiz-adv-x="771" d="M115 -90q15 0 28 3q41 11 78 46q23 20 41 47q32 -4 63 11q137 68 205 254q47 -35 51 -53q2 -12 -19 -52q-7 -14 -9 -17q-23 -49 -31 -83q-12 -56 13 -86q15 -19 44 -23q22 -3 52 6q70 19 136 102q9 11 17 22.5t13.5 20.5t10 16.5t6.5 11.5l3 4q7 14 2.5 27.5t-17.5 20.5 q-14 7 -27.5 2.5t-20.5 -17.5q-20 -38 -59.5 -84t-83.5 -58q-12 -4 -22 -4q-3 28 28 90l8 16q33 64 25 100q-10 49 -93 105q-8 6 -10 8l-2 17q-8 33 -34 44q-16 7 -31.5 1.5t-23.5 -20.5q-14 -28 8 -59q6 -9 7 -10q-54 -172 -171 -235q2 5 4.5 14.5t3.5 13.5q22 93 -12 148 q-39 58 -108 30q-59 -25 -65 -88q-5 -43 15.5 -90t57.5 -76q-12 -15 -23 -25q-46 -42 -74 -26q-27 16 -35 72.5t12 155.5q8 33 18 65q5 2 10 5q92 58 165 154q70 92 83 166q9 50 -15 80q-22 27 -57 19q-33 -7 -77 -57q-33 -39 -74 -109q-85 -149 -122 -307 q-26 -108 -12 -191t68 -114q25 -14 52 -14zM283 625q0 -6 -1 -10q-8 -43 -47 -103.5t-95 -111.5q18 40 49 99q36 61 67 98q13 16 27 28zM227 227q4 0 9 -5q18 -28 3 -94l-9 -27q-42 44 -37 93q2 21 22 30q7 3 12 3z" />
<glyph horiz-adv-x="682" d="M442 -66h3q36 0 80 16q42 15 78.5 40t57 47t38 49t21.5 36t7 17q5 14 -1 27.5t-20 18.5t-27.5 -1t-18.5 -20q-10 -26 -33 -57q-49 -63 -125 -90q-62 -22 -87 -4q-23 15 -30 68q212 63 247 149q20 46 -8 95q-17 31 -51 39q-28 8 -61 -3q-69 -19 -134 -89q-69 -74 -69 -143 l-9 -7q-8 -8 -23 -20t-33.5 -25t-42 -26.5t-44.5 -21.5q-45 -18 -76 -16q-22 2 -28 12q-16 19 -11 67q1 2 1.5 5t0.5 5q71 9 145 52q85 50 108 104q22 45 -7 83q-30 41 -83 36q-52 -4 -111 -52q-54 -46 -86 -105q-19 -35 -30.5 -77t-8.5 -89t29 -76q27 -31 76 -36 q43 -3 106 20q69 27 137 83q15 -64 56 -91q27 -18 67 -20zM213 306h3q12 0 17 -8q3 -3 -1 -12q-11 -27 -60 -59t-103 -48q1 4 4 8q26 48 68.5 82.5t71.5 36.5zM549 296q5 0 7 -1q5 -2 7 -5q10 -18 4 -33q-13 -29 -75 -60q-44 -22 -107 -41q13 34 45 68q51 54 102 69 q10 3 17 3z" />
<glyph horiz-adv-x="490" d="M91 -37h7q65 6 144 100q6 -28 19 -48q28 -41 82 -49h13q43 0 80 31q31 25 60 71q8 14 16 29.5t14 27.5t10 22t6 17l3 6q5 13 -1.5 26.5t-20.5 18.5q-13 5 -26.5 -1.5t-18.5 -20.5q-16 -44 -43 -87q-45 -74 -83 -69q-21 2 -32 17q-17 25 -7 98q2 6 2 11q2 3 5 7t4.5 7 l2.5 5q26 16 57 39.5t77 75t69 105.5q91 211 20 269q-19 15 -42 7q-26 -7 -63 -56q-25 -33 -63 -94q-74 -127 -97 -200l-6 -23q-25 -86 -31 -115q-25 -38 -45 -62q-70 -90 -110 -94q-9 0 -16 8q-35 42 -6 149q0 2 1 3q139 108 227 253q41 67 58 125q19 64 7 108 q-13 43 -51 46q-51 3 -121 -106q-50 -76 -87 -160l-21 -45q-63 -136 -82 -206q-16 -63 -15 -111q3 -63 35 -101q28 -34 69 -34zM298 642q0 -61 -60 -158q-43 -73 -110 -143q14 30 20 44l22 46q29 65 74 140q36 54 54 71zM510 589q0 -4 -2 -20q-6 -54 -43 -139 q-33 -76 -119 -147l1 1q3 13 7 24q19 64 85 176q28 48 57 87q3 5 14 18z" />
<glyph horiz-adv-x="746" d="M76 -43q2 0 6.5 0.5t7.5 0.5q55 6 111 54q26 20 50 49q35 -12 72 -4q54 11 99 62q34 38 58 90q5 10 23 48q21 -13 28 -25q11 -21 -10 -72q-21 -50 -23 -94q-1 -50 28 -75q23 -21 60 -16q30 3 64 24q43 26 80.5 65t50 58t17.5 29q7 13 2.5 27t-17.5 21t-27 2.5t-21 -17.5 q-5 -9 -14 -22.5t-40.5 -47t-67.5 -54.5q-30 -19 -41 -15q-13 21 14 88q34 85 7 133q-15 29 -66 59q1 2 1 5q6 21 4 38q-4 29 -24 39q-19 10 -39 1.5t-32 -31.5q-13 -22 -10 -47q3 -19 15 -34q-9 -23 -25 -56q-52 -103 -108 -114q-4 -1 -13 -1q61 109 26 194q-23 62 -82 62 q-39 -2 -70 -30q-30 -27 -44 -66q-2 -4 -4 -12q-23 14 -43 -4q-53 -52 -80 -129q-26 -81 -2 -133q23 -50 79 -50zM257 292q22 -56 -27 -139q-6 4 -10 8q-47 42 -28 99q8 22 23.5 36t25.5 14zM117 206q10 -58 56 -98l14 -12q-57 -62 -106 -67q-14 -2 -20 8q-11 27 6 81 q17 50 50 88z" />
<glyph horiz-adv-x="791" d="M840 198q13 -8 15.5 -22.5t-5.5 -26.5q-10 -16 -31 -44t-60 -70.5t-68 -59.5q-73 -40 -115 -2q-28 25 -25 76q3 46 29 112q26 62 3 79q-20 14 -51 -14q-21 -19 -73 -106q-60 -99 -95 -152q-12 -15 -30 -15q-5 0 -8 1q-24 7 -27 30q0 1 -0.5 5.5t-1 11t-1 16.5t-0.5 22v26 q-32 -28 -45 -38q-57 -45 -103 -63q-29 -11 -55 -11q-34 0 -60 20q-45 35 -40 112q1 57 33 146q19 52 23 61q-8 2 -22 5t-22 5q-14 3 -22 15.5t-4 27.5q3 14 15.5 22t26.5 4l57 -12q45 101 111 225q7 13 21 17.5t27 -2.5t17.5 -21t-2.5 -27q-57 -108 -103 -206 q100 -17 167 -9q1 0 13 2t18 4q42 126 108 236q33 53 63 90q33 39 54 43q35 5 60 -31q23 -34 11 -95q-14 -67 -72 -156q-48 -76 -111 -116q-23 -15 -57 -29q-6 -18 -13 -46q-7 -23 -15 -72q3 -11 -3 -22l-3 -37q6 10 15.5 27t13.5 23q58 97 87 122q31 28 67 34q41 6 71 -15 q33 -22 39 -68q6 -43 -16 -96q-33 -82 -23 -107q9 -2 33 11q26 14 66 60.5t69 89.5q8 13 22.5 15.5t26.5 -5.5zM508 528q-37 -62 -70 -144q39 29 73 83q58 89 64 143q1 7 1 17q-33 -40 -68 -99zM207 83q57 45 97 90q5 35 17 83l3 10q-82 -10 -204 12q-14 -33 -27 -71 q-27 -76 -30 -125q0 -42 14 -54q14 -10 46 3q35 14 84 52z" />
<glyph horiz-adv-x="786" d="M391 -51q54 0 120 48q17 12 33 27q6 -22 19 -36q24 -31 70 -29q40 3 83 29q57 34 116 152q6 13 1 27t-18 20t-27 1t-21 -18q-15 -33 -41 -71t-46 -50q-24 -14 -43 -17.5t-21 2.5q-8 11 0 40q5 21 23 52l36 51q14 22 -3 43q19 10 19 31q0 61 -49 89q-33 19 -78 15t-89 -29 q-69 -40 -112 -100q-54 -73 -60 -167q-4 -83 58 -106q13 -4 30 -4zM71 -47h5q63 0 122 77q33 43 86 144q36 71 61 106q8 12 6 26.5t-14 22.5q-12 9 -26.5 6.5t-23.5 -14.5q-18 -25 -66 -113q-48 -93 -80 -135q-37 -48 -63 -49q-3 7 -6 35q-1 9 -5 110q0 7 -0.5 25t-0.5 29 q-1 14 -11.5 24.5t-25.5 9.5q-14 -1 -24.5 -11.5t-9.5 -25.5q1 -19 1 -53q3 -116 9 -144q6 -29 19 -47q17 -22 47 -23zM578 285q17 0 29 -7q13 -6 13 -27q0 -10 9 -23q-7 -3 -11 -9q-16 -18 -38 -52q-55 -73 -111 -112q-58 -43 -85 -34q-10 3 -10 34q5 78 46 129.5t91 79.5 q35 21 67 21z" />
<glyph horiz-adv-x="776" d="M825 146q0 -11 -6 -20q-10 -20 -25.5 -44t-53.5 -61.5t-83 -58.5q-31 -15 -56 -14q-33 0 -52 21q-27 27 -22 76q5 41 30 92q16 32 16 52t-10 33t-39 36q-35 -108 -83 -151q-33 -30 -64 -41q-35 -12 -66 1q-34 14 -52 57q-8 -11 -39 -53q-41 -53 -72 -86q-42 -46 -67 -49 h-8q-22 0 -36 13q-26 22 -33 97q-5 55 -5 171q0 14 10.5 24.5t25.5 10.5q14 0 24.5 -10.5t10.5 -24.5q0 -112 4 -156q3 -30 6 -45q43 43 91 107q47 63 69 100v7q-3 97 46 119q26 12 46 -8q28 -28 5 -88q-13 -29 -25 -48q7 -64 27 -73q17 -6 55 28q35 32 73 156q0 1 1 2 q-3 6 -5 16q-5 29 9 50q22 34 55 19q24 -14 24 -43q0 -11 -5 -29l15 -12q60 -46 74 -80q25 -55 -15 -134q-31 -62 -21 -86q7 -2 27 7q77 37 129 130q7 26 34 26q15 0 25.5 -10.5t10.5 -25.5z" />
<glyph horiz-adv-x="996" d="M305 -55q6 0 9 1q32 3 70 40q30 28 64 75q28 40 40 60q29 -44 90 -44q44 0 81 32q29 24 51 66q17 31 34 81q26 -20 35 -39q15 -31 -8 -76q-25 -52 -28 -84q-5 -43 18 -68q39 -45 129 -11q59 22 111 96q23 33 41 69q6 13 1 27t-18 20t-27 1t-20 -18q-16 -34 -48 -75.5 t-65 -53.5q-40 -15 -51 -7q-7 15 20 72q39 75 10 138q-22 45 -79 81q5 18 6 30q0 13 -1 18q-5 23 -24 30q-23 8 -42 -10q-5 -5 -10 -15q-11 -23 -9 -51l3 -15q-50 -167 -110 -167q-22 0 -31.5 12t-12.5 51q9 21 12 33q18 61 -8 83q-19 16 -42 6q-35 -16 -35 -86 q0 -4 0.5 -12t0.5 -12q-22 -50 -68 -116q-22 -31 -42.5 -53t-30 -29.5t-14.5 -8.5q-5 0 -7 2q-13 13 -9 76q3 61 25 156q3 13 -4 25t-20 16t-25.5 -1.5t-17.5 -17.5q-48 -111 -90 -173q-52 -76 -94 -76q-13 13 -11 57q4 72 54 170q7 13 2.5 27t-17.5 21q-13 6 -27 1.5 t-21 -17.5q-48 -93 -59 -174q-11 -77 16 -119q23 -37 62 -37q44 0 88 33q32 26 65 74l2 2q1 -60 28 -90q22 -26 58 -26z" />
<glyph horiz-adv-x="0" />
</font>
</defs>
</svg>
