<?xml version="1.0" standalone="no"?>
<!DOCTYPE svg PUBLIC "-//W3C//DTD SVG 1.1//EN" "http://www.w3.org/Graphics/SVG/1.1/DTD/svg11.dtd" >
<svg xmlns="http://www.w3.org/2000/svg" xmlns:xlink="http://www.w3.org/1999/xlink" version="1.1">
<metadata>
Created by FontForge 20170812 at Fri Aug 12 04:17:36 2022
 By www-data
</metadata>
<defs>
<font id="ProcreateRegular" horiz-adv-x="0" >
  <font-face 
    font-family="Procreate"
    font-weight="400"
    font-stretch="normal"
    units-per-em="1000"
    panose-1="0 0 0 0 0 0 0 0 0 0"
    ascent="800"
    descent="-200"
    x-height="354.376"
    cap-height="674.549"
    bbox="-329 -559.317 996.452 962.091"
    underline-thickness="50"
    underline-position="-100"
    unicode-range="U+000A-20AC"
  />
<missing-glyph horiz-adv-x="527" 
d="M50 700h427v-700h-427v700zM78 680l185 -309l186 309h-371zM251 350l-180 300v-601zM264 329l-185 -308h370zM276 350l181 -303v605z" />
    <glyph glyph-name=".notdef" horiz-adv-x="527" 
d="M50 700h427v-700h-427v700zM78 680l185 -309l186 309h-371zM251 350l-180 300v-601zM264 329l-185 -308h370zM276 350l181 -303v605z" />
    <glyph glyph-name=".null" 
 />
    <glyph glyph-name=".null" 
 />
    <glyph glyph-name="LF" unicode="&#xa;" 
 />
    <glyph glyph-name="controlCR" unicode="&#xd;" 
 />
    <glyph glyph-name="space" unicode=" " horiz-adv-x="366" 
 />
    <glyph glyph-name="exclam" unicode="!" horiz-adv-x="192" 
d="M127.602 94.3604c0.743164 -40.8789 -73.3271 -40.5684 -75.3975 -0.00683594c-8.57227 167.797 10.1025 334.73 17.5439 502.146c0.946289 21.3223 38.7715 25.6523 44.0928 4.89551c20.9033 -81.5615 12.6484 -167.168 11.5752 -250.476
c-1.10449 -85.5752 0.635742 -171.004 2.18555 -256.56zM106.405 34.71c15.6396 0.578125 36.1787 -11.3223 35.3467 -28.9805c-0.850586 -17.9756 -0.792969 -35.9512 -0.748047 -53.9395c0.0957031 -38.2822 -68.2588 -37.8311 -70.4434 0
c-1.04102 18.001 -0.571289 35.9512 0.501953 53.9395c1.10449 18.6172 18.2109 28.3516 35.3428 28.9805z" />
    <glyph glyph-name="quotedbl" unicode="&#x22;" horiz-adv-x="252" 
d="M59.0527 570.848c6.59082 26.999 63.2041 22.6953 59.6865 -6.62109c-4.3623 -36.3262 -7.53125 -71.332 -5.15039 -107.995c2.17188 -33.5205 -59.6992 -33.4697 -62.2578 -0.000976562c-2.9082 38.0469 -1.3584 77.4209 7.72168 114.617zM202.326 565.324
c-4.49512 -38.46 -3.41016 -76.5332 -0.501953 -115.057c2.05762 -27.2207 -51.127 -31.8496 -55.54 -6.16504c-7.39062 43.0508 -5.40332 84.3115 2.45117 127.172c4.5332 24.7451 56.6387 20.1348 53.5908 -5.9502z" />
    <glyph glyph-name="quotedbl" unicode="&#x201d;" horiz-adv-x="252" 
d="M59.0527 570.848c6.59082 26.999 63.2041 22.6953 59.6865 -6.62109c-4.3623 -36.3262 -7.53125 -71.332 -5.15039 -107.995c2.17188 -33.5205 -59.6992 -33.4697 -62.2578 -0.000976562c-2.9082 38.0469 -1.3584 77.4209 7.72168 114.617zM202.326 565.324
c-4.49512 -38.46 -3.41016 -76.5332 -0.501953 -115.057c2.05762 -27.2207 -51.127 -31.8496 -55.54 -6.16504c-7.39062 43.0508 -5.40332 84.3115 2.45117 127.172c4.5332 24.7451 56.6387 20.1348 53.5908 -5.9502z" />
    <glyph glyph-name="quotedbl" unicode="&#x201c;" horiz-adv-x="252" 
d="M59.0527 570.848c6.59082 26.999 63.2041 22.6953 59.6865 -6.62109c-4.3623 -36.3262 -7.53125 -71.332 -5.15039 -107.995c2.17188 -33.5205 -59.6992 -33.4697 -62.2578 -0.000976562c-2.9082 38.0469 -1.3584 77.4209 7.72168 114.617zM202.326 565.324
c-4.49512 -38.46 -3.41016 -76.5332 -0.501953 -115.057c2.05762 -27.2207 -51.127 -31.8496 -55.54 -6.16504c-7.39062 43.0508 -5.40332 84.3115 2.45117 127.172c4.5332 24.7451 56.6387 20.1348 53.5908 -5.9502z" />
    <glyph glyph-name="numbersign" unicode="#" horiz-adv-x="608" 
d="M500.265 638.986c13.0928 24.3574 69.4912 8.55859 55.7568 -19.291c-46.4414 -94.1787 -87.1875 -190.923 -122.295 -289.642c39.5391 -7.21973 74.4941 -23.1953 85.5938 -58.6777c7.72168 -24.6875 -33.7295 -34.7705 -45.3369 -15.6709
c-10.2803 16.9092 -34.4473 22.9541 -57.0137 25.8301c-5.27051 -15.7471 -10.4014 -31.5391 -15.3799 -47.3818c6.91504 -0.844727 13.792 -1.80957 20.6055 -2.91406c33.3037 -5.39062 22.6104 -47.9209 -7.7793 -47.1396
c-9.30273 0.235352 -18.5801 0.489258 -27.8379 0.730469c-27.2275 -92.75 -49.5654 -186.979 -66.8301 -282.301c-7.30176 -40.2891 -84.7871 -27.0244 -76.2979 17.252c17.2715 90.0703 39.6162 178.833 66.6338 266.065
c-14.4775 -0.126953 -28.9805 -0.545898 -43.5273 -1.32715c-24.0527 -99.6582 -38.0156 -199.755 -50.8164 -302.188c-4.87012 -38.9619 -75.8535 -40.6826 -74.1641 0c4.07617 98.249 22.8652 198.732 48.6826 295.102
c-35.5586 -4.24121 -71.0537 -9.11133 -106.745 -11.9688c-30.04 -2.40039 -37.5195 38.5742 -7.38379 44.7461c41.3877 8.4834 85.0928 16.1162 129.445 21.374c2.40039 8.03906 4.83203 16.0527 7.30859 24.0088c3.34668 10.75 6.92188 21.4111 10.4717 32.085
c-44.9307 -1.07324 -90.668 -5.16211 -131.001 -20.7568c-28.2246 -10.9092 -62.0371 25.417 -28.168 39.5137c54.3154 22.6045 115.78 28.8213 176.21 30.0527c33.8311 92.2354 75.46 181.315 124.956 266.445c12.5791 21.6396 63.7637 7.9502 51.001 -17.6328
c-40.2314 -80.6152 -75.6816 -163.758 -105.036 -248.983c2.61621 -0.0439453 5.24512 -0.0820312 7.8418 -0.126953c12.0576 -0.197266 26.7383 -0.0322266 42.5996 -0.267578c39.457 103.723 85.7461 204.911 138.506 303.064zM327.083 238.758
c5.40332 16.1602 10.9395 32.2686 16.6602 48.3145c-16.1152 0.647461 -32.2432 0.933594 -48.3525 0.952148c-4.41309 -14.0645 -8.67383 -28.1797 -12.7441 -42.3525c-0.749023 -2.60938 -1.44727 -5.21875 -2.17773 -7.83496
c15.6016 0.730469 31.1523 1.05469 46.6143 0.920898z" />
    <glyph glyph-name="dollar" unicode="$" horiz-adv-x="533" 
d="M435.986 186.418c29.6084 -30.5107 56.2305 -71.9756 43.5439 -116.366c-12.5537 -43.9268 -53.7764 -70.4492 -95.7988 -81.4912c-26.7637 -7.03516 -55.0449 -9.21973 -83.3965 -7.39746c5.49219 -46.8164 11.9561 -93.6328 18.8262 -140.785
c3.87305 -26.542 -48.582 -30.6436 -54.3223 -6.03223c-11.9053 51.0195 -19.0166 103.487 -23.1123 156.393c-49.9531 13.1943 -96.9092 38.5234 -132.385 72.9961c-33.4824 32.5293 -56.6973 74.1133 -59.2373 121.47c-1.74023 32.4092 18.6738 67.6885 53.5273 44.1943
c10.1025 -6.80664 7.11816 -17.6201 -0.22168 -24.2559c-0.958984 -73.5869 64.0488 -127.547 134.759 -151.364c-2 55.4453 -1.38379 110.948 0 165.378c0.0507812 2.04492 0.126953 4.0957 0.18457 6.14648c-65.3447 26.5166 -137.775 55.6494 -159.32 125.007
c-25.5576 82.292 37.5586 155.542 116.447 169.918c19.2266 3.50488 38.8789 4.29199 58.2578 2.51367c2.16504 30.1484 4.45117 60.29 6.84473 90.4512c1.89258 23.8242 45.9785 23.6211 44.1494 0c-2.55273 -32.9297 -5.20703 -65.9102 -7.74707 -98.9219
c40.7715 -12.3818 77.5869 -36.8281 102.82 -72.2656c20.0078 -28.0977 -29.3232 -42.1113 -47.3311 -22.6875c-16.4453 17.7412 -36.9551 32.7266 -59.3818 42.2578c-4.20996 -59.4648 -7.55664 -119 -8.76953 -178.516c9.22656 -3.75879 18.2939 -7.5498 26.9609 -11.5625
c45.7559 -21.1885 89.4482 -48.7461 124.702 -85.0791zM240.966 301.2c2.34277 57.0713 5.5127 114.061 9.29102 171.043c-15.7852 1.20605 -31.8311 -0.578125 -47.5596 -6.31152c-54.3027 -19.8115 -62.4941 -86.96 -23.1963 -125.534
c17.1826 -16.8652 38.7842 -28.9043 61.4648 -39.1973zM331.189 40.8379c46.1494 3.86719 97.8408 33.3232 62.0225 83.8545c-24.7637 34.9355 -66.6904 60.5186 -104.49 78.9072c-1.47949 0.717773 -3.00293 1.42871 -4.51367 2.13965
c0.958984 -55.2871 4.44531 -109.913 9.70898 -164.33c12.8965 -1.3457 25.4561 -1.56152 37.2725 -0.571289z" />
    <glyph glyph-name="percent" unicode="%" horiz-adv-x="743" 
d="M624.979 578.804c32.8027 25.3291 94.9531 -14.7676 55.7754 -45.7354c-113.38 -89.6133 -212.188 -194.396 -303.318 -306.227c-91.0352 -111.717 -171.536 -234.349 -268.388 -341.018c-20.5859 -22.668 -75.5869 -7.22559 -54.1885 25.9707
c40.2314 62.4111 86.7686 121.521 130.784 181.315c43.21 58.709 86.7432 117.184 132.499 173.943c91.626 113.659 190.992 222.296 306.836 311.75zM158.358 388.512c-10.9346 -12.8203 -38.6885 -15.1553 -47.2158 0.90332
c-29.6465 55.915 49.8965 110.129 96.4268 122.085c60.4043 15.5186 129.972 -10.21 144.011 -75.79c13.6074 -63.5479 -35.2285 -124.867 -100.478 -125.235c-53.8076 -0.298828 -83.3906 34.3066 -92.7441 78.0371zM289.341 429.552
c-6.4834 35.8691 -42.0273 42.9482 -72.3662 32.8965c7.9502 -4.89551 13.3281 -12.9531 13.1182 -24.2744c-0.362305 -19.4932 -5.77246 -65.7441 22.3818 -68.8936c28.6436 -3.2002 40.7393 38.8154 36.8662 60.2715zM517.531 184.389
c60.0938 -3.58105 98.541 -59.0254 91.2012 -116.82c-7.84863 -61.7695 -62.0625 -105.938 -124.479 -98.1523c-61.4336 7.65723 -95.7598 65.0967 -92.6611 123.704c0.799805 15.1816 10.8193 24.2803 23.1504 27.6328c1.88574 12.1084 11.5693 24.4971 20.751 33.3672
c21.9189 21.1826 51.6484 32.085 82.0381 30.2686zM534.11 52.7793c10.8516 19.2588 14.292 48.8154 0.430664 67.7949c-16.3945 22.4463 -53.4834 14.9287 -68.1514 -7.0918c0.946289 -5.5625 -0.875977 -10.2617 -4.3877 -13.8174
c0.717773 -2.05078 1.23828 -4.22852 1.52441 -6.55273c2.375 -19.125 4.90234 -47.4385 22.3516 -59.7568c18.4336 -13.0107 38.9873 3.02246 48.2324 19.4238z" />
    <glyph glyph-name="ampersand" unicode="&#x26;" horiz-adv-x="601" 
d="M549.223 83.1084c11.7344 -32.5742 -48.0322 -43.2861 -58.8398 -13.29c-2.35547 6.53418 -4.6416 13.0938 -6.85742 19.6787c-45.165 -45.4893 -104.675 -77.2822 -163.562 -100.738c-40.2764 -16.0459 -82.2734 -29.9453 -125.521 -34.6885
c-37.9141 -4.15234 -90.0898 -3.75879 -115.666 29.9834c-49.5342 65.3633 40.8789 149.236 88.5586 184.064c8.56543 6.25488 17.2832 12.2617 26.1094 18.0908c-24.8018 -1.06055 -49.5342 0.634766 -73.0469 7.35254c-42.1553 12.0449 -75.3574 42.9873 -69.7822 89.7402
c5.51172 46.207 33.6787 93.4365 61.1416 129.967c56.792 75.542 139.617 140.271 235.357 153.802c44.3018 6.26074 92.4004 2.20996 124.911 -31.8564c31.9385 -33.4756 34.4531 -79.4854 33.7676 -123.292c-0.603516 -38.5234 -70.9453 -38.46 -71.1865 0
c-0.177734 28.7383 2.18457 76.8623 -28.6875 92.5527c-24.8271 12.6172 -63.9541 -0.348633 -87.6514 -9.95605c-58.9248 -23.8936 -107.812 -71.0527 -143.319 -122.904c-16.9473 -24.7451 -41.0889 -61.7002 -42.4727 -92.8203
c-1.45996 -32.7705 52.4619 -25.3164 73.4854 -23.4873c75.4404 6.56543 149.744 31.209 223.337 47.8896c36.7461 8.33105 73.041 -40.5176 30.1934 -58.7285c-65.6748 -27.9131 -131.687 -55.9023 -193.151 -92.4258
c-28.0469 -16.668 -55.4902 -35.2852 -79.4346 -57.5469c-14.5596 -13.5312 -48.3848 -45.8516 -44.1875 -68.666c7.1875 -39.082 157.421 20.167 181.188 30.6885c49.6416 21.9697 103.094 49.0195 144.703 85.7588
c-0.0830078 0.380859 -0.191406 0.761719 -0.274414 1.14258c-4.08301 19.2461 -10.5342 44.1494 0.0693359 61.9287c11.4678 19.2334 42.9561 9.62598 46.0488 -10.2236c5.9873 -38.416 21.6709 -75.6572 34.7705 -112.016z" />
    <glyph glyph-name="quotesingle" unicode="'" horiz-adv-x="174" 
d="M124.046 439.479c4.19043 -28.9805 -54.5889 -34.1113 -59.6875 -6.62305c-8.33691 44.9814 -12.7881 90.248 -14.3438 135.96c-1.12402 33.2021 60.3096 33.2275 61.5156 0c1.58105 -43.4189 6.29883 -86.3555 12.5156 -129.337z" />
    <glyph glyph-name="quotesingle" unicode="&#x2019;" horiz-adv-x="174" 
d="M124.046 439.479c4.19043 -28.9805 -54.5889 -34.1113 -59.6875 -6.62305c-8.33691 44.9814 -12.7881 90.248 -14.3438 135.96c-1.12402 33.2021 60.3096 33.2275 61.5156 0c1.58105 -43.4189 6.29883 -86.3555 12.5156 -129.337z" />
    <glyph glyph-name="quotesingle" unicode="&#x2018;" horiz-adv-x="174" 
d="M124.046 439.479c4.19043 -28.9805 -54.5889 -34.1113 -59.6875 -6.62305c-8.33691 44.9814 -12.7881 90.248 -14.3438 135.96c-1.12402 33.2021 60.3096 33.2275 61.5156 0c1.58105 -43.4189 6.29883 -86.3555 12.5156 -129.337z" />
    <glyph glyph-name="parenleft" unicode="(" horiz-adv-x="386" 
d="M297.886 -48.5459c36.4346 5.72754 56.5576 -37.875 16.7451 -49.8125c-86.0703 -25.8115 -178.547 1.65723 -223.039 82.5586c-45.1592 82.1143 -45.8574 189.202 -37.4062 280.016c9.37891 100.764 34.752 205.451 77.9873 297.211
c30.1543 64.0049 86.2471 183.62 174.267 152.208c24.3955 -8.71191 3.31445 -37.2344 -16.7256 -32.5293c-26.1865 6.15332 -59.376 -71.8594 -67.9229 -89.9688c-15.6904 -33.2275 -28.2568 -68.2207 -39.083 -103.31
c-22.4336 -72.7295 -38.2061 -147.758 -44.791 -223.611c-6.24805 -71.9482 -6.27344 -150.266 15.208 -219.884c8.74316 -28.3262 21.4111 -57.5986 45.4893 -76.3115c28.4404 -22.0967 65.3135 -21.9062 99.2715 -16.5664z" />
    <glyph glyph-name="parenright" unicode=")" horiz-adv-x="427" 
d="M364.813 349.644c16.6992 -100.675 20.1855 -207.442 -16.5098 -304.428c-28.2246 -74.5898 -88.6797 -173.804 -176.172 -184.941c-30.1543 -3.8418 -62.7725 31.6592 -25.6074 49.8125c140.303 68.5518 157.682 259.874 142.43 396.614
c-8.73047 78.292 -24.2812 157.739 -50.6895 232.101c-18.3955 51.8008 -71.708 183.145 -147.491 146.646c-27.5645 -13.2705 -59.0205 21.1064 -27.793 38.9873c84.9082 48.6318 168.457 -23.8564 210.568 -93.8682c51.0771 -84.9209 75.1934 -184.015 91.2646 -280.924z
" />
    <glyph glyph-name="asterisk" unicode="*" horiz-adv-x="381" 
d="M312.342 393.577c28.0469 -9.53711 23.1445 -43.9951 -7.21973 -43.7412c-21.0742 0.171875 -41.9395 2.60352 -62.8936 4.4834c17.5635 -14.9912 34.9746 -30.1475 50.7725 -46.8789c23.1191 -24.4912 -16.0205 -49.3379 -37.7109 -30.9238
c-14.4648 12.2803 -27.9199 25.71 -41.1143 39.4258c0.692383 -15.5566 1.25781 -31.1133 1.16211 -46.6572c-0.18457 -30.4912 -51.4453 -28.8398 -55.0645 0c-2.34961 18.7441 -3.49219 37.6787 -4.08301 56.6455c-16.3438 -18.6807 -32.1924 -37.793 -47.6797 -57.1914
c-14.0586 -17.6143 -54.0615 -3.1748 -38.124 18.2686c15.9121 21.418 32.8086 41.9785 50.3721 61.9736c-12.8711 -1.91113 -25.7549 -3.94336 -38.7402 -5.82324c-30.7646 -4.45117 -46.5879 30.3135 -13.9756 41.5781c20.2559 7.00391 41.54 11.5762 63.0723 14.5986
c-14.7881 14.1221 -29.627 28.1934 -44.3711 42.3467c-20.3574 19.5439 14.2227 42.1104 31.5703 25.8867c12.2236 -11.4355 24.3828 -22.9473 36.5684 -34.4336c0.209961 19.3477 1.4668 38.6377 5.89258 57.0332c4.47656 18.624 42.124 19.5195 45.9209 0.000976562
c3.18164 -16.3691 4.14648 -33.2217 4.40039 -50.1562c15.4551 12.6484 31.9512 23.8936 50.4102 32.3516c23.0049 10.54 50.0732 -19.958 23.0361 -32.3145c-19.2334 -8.79395 -36.1426 -21.2461 -51.9092 -35.1836c27.3545 -0.418945 55.2803 -2.97754 79.708 -11.2891z
" />
    <glyph glyph-name="plus" unicode="+" horiz-adv-x="307" 
d="M232.944 313.824c31.4434 -2.31152 31.5332 -39.0332 -0.00585938 -41.0908c-17.9316 -1.16797 -35.6348 -2.4502 -53.2236 -4.15234c-0.00585938 -40.5557 1.73438 -81.1299 5.85547 -121.742c3.56836 -35.1455 -59.0654 -33.418 -64.4883 0
c-6.01953 37.0947 -10.0518 74.374 -11.8555 111.697c-8.17871 -1.61914 -16.3633 -3.36523 -24.5605 -5.40332c-32.6758 -8.13379 -50.8926 36.7266 -15.0361 44.7148c12.6992 2.8252 25.5703 5.42871 38.5303 7.7207c0.177734 39.8193 3.06641 79.6445 9.11133 119.33
c5.63184 36.9551 74.5645 38.2822 70.6914 0c-3.7334 -36.9424 -6.30469 -73.8721 -7.52344 -110.802c17.5566 0.933594 35.1006 1.00977 52.5049 -0.272461z" />
    <glyph glyph-name="comma" unicode="," horiz-adv-x="223" 
d="M155.376 56.7002c16.4268 -7.96289 21.9688 -25.1055 13.041 -40.7637c-16.5977 -29.082 -36.7959 -54.8613 -61.1279 -77.8789c-21.2461 -20.0967 -74.3867 3.95605 -51.8135 32.7832c18.6113 23.7666 35.8066 48.6006 50.1826 75.1738
c8.71777 16.1025 35.374 17.6387 49.7178 10.6855z" />
    <glyph glyph-name="hyphen" unicode="-" horiz-adv-x="282" 
d="M198.115 237.272c37.6914 3.53711 48.2646 -51.4766 9.36621 -56.7344c-41.2607 -5.56836 -82.7305 -8.41895 -124.359 -8.57129c-44.416 -0.15918 -43.9082 56.0674 0 57.5596c38.4473 1.30762 76.6982 4.15234 114.993 7.74609z" />
    <glyph glyph-name="period" unicode="." horiz-adv-x="163" 
d="M113.132 2.125c1.89844 -16.3125 -18.4717 -25.1572 -31.2471 -25.627c-15.2393 -0.558594 -30.0654 10.0576 -31.2529 25.627c-1.09863 14.4707 -1.08594 28.5801 2.68555 42.7275c3.07324 11.5186 16.8076 16.751 27.4629 17.1445
c9.81641 0.362305 25.3604 -6.19727 27.4619 -17.1445c2.72363 -14.1729 3.22559 -28.4277 4.88965 -42.7275z" />
    <glyph glyph-name="slash" unicode="/" horiz-adv-x="662" 
d="M547.23 591.052c31.5449 24.8721 89.3018 -10.2021 54.1943 -44.4395c-101.341 -98.833 -193.291 -200.225 -273.094 -317.644c-79.2061 -116.549 -144.652 -240.438 -217.286 -360.879c-14.7568 -24.459 -72.7422 -10.1914 -58.9375 20.376
c58.9756 130.606 132.309 258.355 212.403 377.069c79.2188 117.406 170.781 237.263 282.72 325.517z" />
    <glyph glyph-name="zero" unicode="0" horiz-adv-x="403" 
d="M244.404 471.916c175.702 -62.3408 168.465 -320.036 48.6719 -430.388c-74.666 -68.7734 -182.008 -58.4873 -224.735 38.4785c-34.0791 77.3389 -32.8662 171.454 -24.834 257.131c-11.7344 -0.177734 -22.8525 5.96875 -21.373 18.4844
c12.0576 102.198 134.144 147.566 222.271 116.294zM223.229 74.833c29.3232 20.4395 51.5762 51.4072 65.1455 84.1904c28.1865 68.1445 30.3896 155.865 -10.2734 219.807c-23.665 37.209 -63.0898 61.4014 -108.293 57.9346
c-20.4209 -1.56836 -42.9619 -9.72754 -61.6621 -22.7314c11.7656 -4.43164 20.1982 -13.9121 18.9033 -28.5293c-7.91797 -89.3721 -17.2393 -188.091 12.8965 -274.522c14.7441 -42.2764 42.9814 -64.2461 83.2832 -36.1484z" />
    <glyph glyph-name="one" unicode="1" horiz-adv-x="140" 
d="M36.1973 -7.46094c-18.751 164.464 7.77344 330.134 -5.05957 494.375c-2.89551 2.75586 -4.58496 6.50195 -4.03223 11.3213c0.964844 8.375 3.0918 12.3242 9.12402 18.3691c8.45801 8.4834 28.1357 6.69238 34.4922 -3.64453
c20.5352 -33.374 23.0303 -71.6309 25.7354 -109.92c3.21973 -45.5781 4.42578 -91.3467 5.41016 -137.014c1.96875 -91.3467 5.00977 -182.458 13.207 -273.487c3.82227 -42.4473 -74.0889 -41.9775 -78.877 0z" />
    <glyph glyph-name="two" unicode="2" horiz-adv-x="551" 
d="M149.006 -32.7451c-49.3945 -5.53027 -121.312 15.2666 -131.872 71.9248c-9.89941 53.0703 46.9746 92.5781 92 103.131c46.708 10.9531 93.4355 -0.431641 136.087 -20.1152c52.7656 76.165 95.3018 186.618 56.3721 273.209
c-19.4805 43.3242 -66.6016 79.6377 -115.316 60.3477c-36.7207 -14.541 -108.485 -100.173 -60.8242 -135.026c23.1641 -16.9346 -10.0957 -39.2852 -28.8525 -30.6689c-66.0303 30.3447 -39.2598 110.738 -4.43848 155.936c37.1201 48.1816 94.4834 73.79 154.983 61.5664
c128.156 -25.8877 159.46 -169.645 130.76 -279.476c-12.1025 -46.3086 -33.8438 -98.9541 -64.5322 -144.844c46.0547 -29.9707 92.9092 -62.373 149.154 -62.6973c50.1875 -0.286133 50.0479 -64.9004 0 -65.2881c-56.1562 -0.438477 -104.509 22.1602 -149.706 53.667
c-12.3057 8.57812 -24.3506 18.0459 -36.4912 27.5137c-34.9229 -36.9043 -77.5479 -63.6113 -127.323 -69.1797zM102.328 83.9131c-28.2051 -19.2969 -23.1816 -48.873 11.7285 -53.083c38.251 -4.61621 72.1582 21.2715 97.9189 49.3115
c-11.0674 5.64453 -22.5918 10.3115 -34.8154 13.4355c-24.8721 6.34961 -53.084 5.21289 -74.832 -9.66406z" />
    <glyph glyph-name="three" unicode="3" horiz-adv-x="434" 
d="M114.933 132.894c-42.9434 3.79102 -138.828 52.8652 -78.6074 101.872c52.3408 42.5938 134.017 50.4482 198.701 46.5557c3.77832 -0.228516 7.58203 -0.514648 11.4043 -0.844727c28.1416 35.7363 55.915 83.3398 49.0576 128.385
c-7.96875 52.3467 -61.2617 59.9404 -104.015 46.0469c-21.7031 -7.05469 -41.9971 -19.1631 -59.0146 -34.2686c-5.67676 -5.03516 -28.4531 -26.2744 -35.3047 -39.0566c5.93652 -4.84473 8.33008 -12.1279 2.06934 -20.9668
c-13.9883 -19.7412 -49.21 -18.2236 -59.1025 5.50488c-11.0234 26.4531 19.8867 59.7256 36.085 76.7236c44.6318 46.835 110.726 76.3418 175.987 68.665c60.9258 -7.16895 108.143 -49.9473 112.746 -112.695c3.39062 -46.1816 -14.9473 -93.8867 -41.0957 -134.709
c32.3965 -12.1846 60.9385 -32.0273 78.4316 -64.0557c33.5332 -61.4141 -5.05371 -124.46 -55.0508 -162.12c-56.3604 -42.4541 -123.654 -67.123 -193.876 -72.0312c-44.791 -3.13086 -57.5098 60.4229 -11.1445 67.5156c55.9219 8.55957 259.519 70.1641 184.465 160.818
c-9.49902 11.4736 -22.2432 19.5693 -36.6064 25.2715c-2.10156 -2.375 -4.20312 -4.75 -6.32422 -7.0166c-43.4443 -46.5684 -102.433 -85.4541 -168.806 -79.5938zM178.952 229.444c-27.5068 -2.76855 -50.8936 -13.3965 -77.124 -19.7207
c-2.96484 -1.5625 -5.93652 -3.13086 -8.90137 -4.69336c0.832031 -0.413086 1.69531 -0.838867 2.71094 -1.34668c9.95605 -2.67285 18.9277 -4.76855 29.2969 -4.56543c27.1064 0.527344 52.3467 14.0898 74.0947 31.8184
c-7.02246 -0.342773 -13.7783 -0.857422 -20.0771 -1.49219z" />
    <glyph glyph-name="four" unicode="4" horiz-adv-x="357" 
d="M142.721 94.9219c-48.8359 -3.7334 -83.3838 33.2393 -100.414 75.4961c-19.1377 47.5342 -21.0234 105.443 -18.3252 155.892c2.79395 52.1055 8.88379 113.12 37.1846 158.14c10.9785 17.4678 46.251 11.6455 46.9111 -10.4199
c1.58105 -52.7852 -12.9346 -105.805 -11.6777 -159.257c1.05371 -44.9111 2.39355 -97.1631 24.9414 -137.414c10.5215 -18.7764 19.6523 -30.25 41.3809 -19.6846c16.9854 8.26074 30.3389 22.9795 41.4639 38.6123
c-0.0195312 5.13086 -0.0703125 10.2617 -0.0322266 15.3926c0.463867 67.1865 1.79102 135.325 11.2207 201.939c5.41602 38.2637 12.0771 104.814 53.9658 122.663c40.8223 17.3984 60.3984 -20.8779 63.3447 -54.6709
c6.88965 -79.0664 -14.8516 -168.698 -50.7783 -244.691c2.64746 -68.5391 8.40625 -136.906 22.4961 -204.067c9.89258 -47.1396 -71.9229 -61.6738 -81.7969 -18.4893c-8.375 36.6377 -13.2393 73.7773 -15.874 111.12
c-18.1914 -16.458 -39.5264 -28.6875 -64.0107 -30.5605zM284.968 464.027c-2.38086 -12.7373 -3.30273 -25.6533 -4.06445 -38.5684c-0.977539 -16.5283 -1.39648 -33.0947 -1.48535 -49.6543c4.40625 19.5762 7.46094 39.4189 8.66113 59.5283
c0.692383 11.5439 0.895508 23.1514 0.355469 34.7012c-0.0507812 1.36523 -0.19043 2.72363 -0.260742 4.08887c-1.47266 -3.89844 -2.71094 -7.46094 -3.20605 -10.0957z" />
    <glyph glyph-name="five" unicode="5" horiz-adv-x="447" 
d="M98.8691 216.214c-15.4424 -28.4658 -68.2246 -20.0518 -78.1621 8.36328c-13.8867 39.7812 14.6357 97.0176 29.0244 134.214c13.9629 36.0791 29.8496 77.5107 58.2773 104.929c31.4248 30.3066 74.4502 31.3672 115.469 35.2471
c46.3975 4.3877 95.2461 13.1689 141.662 7.12402c18.8525 -2.45117 25.3418 -30.2188 5.9248 -37.1719c-34.5107 -12.3633 -72.1006 -14.4463 -108.351 -18.7764c-27.3604 -3.26367 -73.5547 0.59082 -95.7471 -17.7539
c-22.1797 -18.3379 -29.6719 -59.5732 -38.1807 -85.3398c-1.23145 -3.7334 -2.34277 -7.51172 -3.52344 -11.2646c8.13379 4.59082 16.623 8.72461 25.5762 12.293c44.334 17.6777 94.4707 24.0273 141.103 11.6387c77.8662 -20.6875 136.722 -86.5527 134.537 -169.359
c-2.25391 -85.3652 -65.833 -171.854 -146.366 -199.818c-71.3193 -24.7637 -170.127 1.49219 -186.312 84.7051c-14.1729 72.8945 42.6826 157.98 113.59 175.816c25.71 6.46387 50.9883 -29.6846 21.0244 -40.8916c-54.042 -20.2178 -121.945 -130.144 -44.7012 -165.137
c65.4785 -29.6592 133.56 48.6455 153.415 102.764c22.9102 62.4434 -0.183594 135.891 -69.8711 152.47c-65.6436 15.6143 -137.579 -27.2334 -168.388 -84.0508z" />
    <glyph glyph-name="six" unicode="6" horiz-adv-x="368" 
d="M315.14 239.492c146.773 -103.888 -162.115 -410.395 -272.175 -200.562c-45.5332 86.8252 -11.9873 213.381 25.7363 297.312c20.8779 46.4482 47.0771 91.0234 78.5459 131.097c28.0908 35.7744 57.1982 65.0527 104.979 66.6084
c24.5225 0.799805 41.5713 -32.5039 14.458 -43.7744c-35.4062 -14.7188 -58.748 -58.3535 -77.8037 -89.4736c-21.6523 -35.3682 -38.9297 -72.9199 -52.5557 -112.078c-7.26367 -20.8838 -13.1621 -42.041 -17.6387 -63.4902
c60.6201 37.8057 138.004 55.7373 196.453 14.3623zM199.694 211.533c-35.9902 -12.5342 -66.583 -35.1465 -90.8447 -64.1455c-2.03809 -35.1016 -1.32715 -74.5898 19.2012 -103.303c57.2109 -80.0381 175.245 54.6455 177.684 118.104
c2.40625 62.7666 -61.2051 64.9639 -106.04 49.3438z" />
    <glyph glyph-name="seven" unicode="7" horiz-adv-x="609" 
d="M57.9893 362.402c-13.0293 11.6328 -9.43848 29.2051 5.79395 36.8242c33.3291 16.6934 68.4941 17.3408 105.005 14.4453c43.1084 -3.41016 86.1025 -7.22656 129.401 -5.87402c13.2578 0.413086 26.6299 1.31445 39.9707 2.74316
c33.793 72.1963 89.5938 143.878 172.47 123.025c40.3906 -10.1592 63.9102 -48.1934 37.1719 -84.0693c-27.9131 -37.457 -73.0908 -60.0938 -116.624 -73.6816c-11.7852 -3.67676 -23.7988 -6.62305 -35.9141 -9.1377c-11.9502 -36.79 -20.167 -74.9961 -27.0439 -112.999
c-0.914062 -5.0293 -1.6377 -10.0898 -2.46289 -15.1318c24.3701 4.40039 48.7217 8.97852 73.0283 13.8486c38.6572 7.74023 60.3926 -44.2129 17.7354 -52.7598c-32.5742 -6.52148 -65.3643 -11.7539 -98.2744 -16.0146
c-6.9209 -64.5889 -7.88574 -129.781 -5.06055 -194.669c2 -46.0986 -82.5781 -45.9268 -85.3271 0.000976562c-3.68945 61.6934 -1.2832 124.175 6.85742 185.888c-10.9219 -0.895508 -21.8438 -1.7334 -32.7783 -2.45703
c-30.2754 -2.0127 -39.1143 41.7998 -7.5498 45.7432c16.1025 2.0127 32.167 4.25391 48.2002 6.62891c7.15625 38.8984 16.5664 77.3203 28.2754 114.847c1.76562 5.65723 3.71484 11.6006 5.8291 17.709c-18.1475 -0.787109 -36.3008 -0.857422 -54.2637 -0.260742
c-47.1846 1.56836 -105.195 18.0391 -152.862 6.95215c-4.32422 -9.13086 -18.1982 -14.541 -28.6875 -12.668c-9.60059 1.7207 -15.6133 4.57812 -22.8896 11.0674zM467.58 479.322c-20.4395 -9.15039 -35.5273 -28.4219 -47.0771 -49.998
c1.39062 0.533203 2.8125 0.984375 4.19629 1.54297c15.5312 6.26758 30.8027 14.1348 44.1816 24.25c3.86719 2.92676 22.4023 16.4326 22.7646 21.2969c1.06055 14.2236 -17.7725 5.72754 -24.0654 2.9082z" />
    <glyph glyph-name="eight" unicode="8" horiz-adv-x="384" 
d="M123.296 224.38c-43.0381 27.6084 -82.5137 62.8789 -98.6797 113.048c-36.2949 112.593 83.8535 206.841 187.214 207.057c107.17 0.222656 177.506 -100.852 132.893 -200.091c-18.3633 -40.8535 -55.8457 -86.4375 -102.967 -92.7178
c-9.48047 -1.26367 -17.9385 -0.774414 -25.5137 1.0293c73.6504 -43.6348 171.867 -108.122 135.337 -204.656c-31.8945 -84.292 -152.799 -110.878 -223.407 -60.2393c-73.1611 52.4736 -48.4033 165.848 -4.87598 236.57zM283.594 110.744
c-25.6084 44.4287 -77.3516 67.6953 -122.485 91.665c-29.374 -55.4775 -46.9307 -142.773 5.55566 -178.599c57.166 -39.0254 158.184 15.3467 116.93 86.9336zM188.748 498.515c-45.127 -13.5879 -95.166 -63.2422 -93.458 -113.208
c1.86035 -54.1123 49.9463 -90.0771 92.5723 -115.838c-15.1377 16.4707 -22.1924 41.7422 -22.6055 66.8936c-0.527344 32.0537 58.7529 32.0342 59.2803 0c0.266602 -16.3506 -3.22559 -33.6152 14.5088 -36.3262c16.7119 -2.55273 34.4971 15.1631 44.917 27.3037
c18.2549 21.2773 29.335 50.2002 30.0459 78.209c1.69531 66.9766 -62.0176 112.015 -125.261 92.9658z" />
    <glyph glyph-name="nine" unicode="9" horiz-adv-x="407" 
d="M81.5762 127.737c-54.1123 28.5293 -69.1279 91.1182 -60.1436 147.44c9.58203 60.0615 38.0537 116.332 80.3486 159.986c37.3486 38.5557 99.2646 77.2441 152.437 46.9502c6.94629 15.4932 18.915 27.2275 38.6113 31.4756
c48.0225 10.3691 77.3516 -44.6953 84.666 -83.5684c9.37891 -49.8193 -0.767578 -103.354 -23.2451 -151.853c21.0303 -79.4922 38.6699 -166.261 10.0586 -243.061c-32.0156 -85.918 -135.001 -137.173 -214.105 -76.6035
c-33.2656 25.4619 15.3984 64.9443 44.1816 46.9561c75.7773 -47.3496 98.2803 83.0098 97.1377 130.689c-0.375 15.8232 -1.75879 31.4883 -3.75879 47.0576c-12.2744 -12.1279 -25.3291 -22.999 -38.9297 -32.2441c-49.0137 -33.3164 -111.432 -52.6641 -167.258 -23.2266
zM318.363 459.56c-13.6836 15.3662 -9.08691 -1.98633 -6.88965 -14.3877c2.35547 -13.2959 5.68945 -26.3193 8.88965 -39.4189c3.75293 -15.3604 7.75977 -30.6445 11.8232 -45.9219c7.2832 34.8916 8.15918 75.0469 -13.8232 99.7285zM128.563 342.447
c-21.0869 -42.3525 -43.0117 -110.808 -12.9717 -153.764c31.5957 -45.1719 95.5752 -1.93066 126.447 22.0898c12.877 10.0137 24.5537 21.4619 35.0498 33.9141c-8.20996 39.5645 -18.0078 78.8945 -24.1484 118.847c-3.28906 21.4053 -8.78125 53.3311 -6.7998 82.3936
c-55.8135 -12.3945 -92.3623 -52.8418 -117.577 -103.48z" />
    <glyph glyph-name="colon" unicode=":" horiz-adv-x="177" 
d="M103.703 320.32c-2.87598 -32.4854 -60.1494 -27.0557 -53.1016 5.89258c2.63477 12.3252 2.50781 25.4434 6.20312 37.4824c5.86035 19.125 37.6592 17.5059 44.2441 0c5.04785 -13.417 3.89844 -29.3486 2.6543 -43.375zM126.277 121.696
c0.768555 -4.69238 1.39355 -8.75488 0.987305 -13.4473c-0.19043 -2.25391 -0.324219 -4.52051 -0.394531 -6.78125c-0.15918 -5.2832 -0.171875 -10.6104 0.0380859 -15.8936c0.660156 -16.8906 -17.9258 -25.8184 -32.124 -26.3389
c-15.5186 -0.571289 -31.1006 10.3184 -32.123 26.3389c-0.368164 5.74023 -0.355469 11.3213 0.349609 17.0293c0.520508 4.19727 1.21289 8.41309 1.96191 12.5654c0.850586 4.67383 2.77441 8.34375 5.0918 12.5469c5.47949 9.94336 20.4961 13.1562 30.6426 12.0391
c6.36914 -0.698242 12.6426 -2.76855 17.6592 -6.93359c2.92676 -2.42578 7.26953 -7.19434 7.91113 -11.125z" />
    <glyph glyph-name="semicolon" unicode=";" horiz-adv-x="234" 
d="M131.937 310.694c-13.0615 -0.482422 -30.4141 9.49316 -29.6396 24.3066c0.533203 10.1914 1.42188 20.1094 2.87598 30.2119c2.17188 15.1055 13.8105 23.0742 28.8145 23.627c13.334 0.489258 28.7002 -9.21973 28.8145 -23.627
c0.0830078 -10.1719 -0.380859 -20.0771 -1.22559 -30.2109c-1.30176 -15.6016 -14.9658 -23.7676 -29.6396 -24.3076zM128.966 136.236c13.7666 23.9893 62.2334 10.4326 54.3975 -18.8076c-14.7695 -55.1279 -43.7109 -113.869 -73.916 -162.196
c-14.6934 -23.5068 -70.2725 -10.6426 -57.5732 19.8994c22.376 53.8008 48.0986 110.58 77.0918 161.104z" />
    <glyph glyph-name="less" unicode="&#x3c;" horiz-adv-x="325" 
d="M239.732 206.661c47.1592 -1.21289 47.1152 -60.4375 0.000976562 -61.4346c-54.2266 -1.12988 -179.049 0.108398 -189.221 74.1455c-4.94043 35.9395 26.9668 68.0752 49.5146 91.8418c28.9297 30.498 60.2461 60.4307 95.2334 83.8613
c17.3662 11.6328 62.6709 -1.4541 42.2627 -26.7451c-31.793 -39.3994 -70.9453 -72.9258 -99.792 -114.745c-7.40332 -10.7373 -17.0166 -19.6455 -7.54297 -30.1924c5.42871 -6.03809 24.5098 -9.40332 31.9258 -11.0674
c25.2783 -5.66406 51.877 -5.00391 77.6182 -5.66406z" />
    <glyph glyph-name="equal" unicode="=" horiz-adv-x="415" 
d="M333.06 291.232c-84.9775 -5.19434 -169.695 -9.2627 -254.654 -16.374c-31.5645 -2.6416 -40.4854 43.0186 -7.84766 47.5391c87.4102 12.1152 182.935 34.8467 271.176 21.373c38.7207 -5.91797 23.5195 -50.5693 -8.67383 -52.5381zM325.872 241.008
c16.6104 -1.79688 36.46 -9.75391 36.4541 -29.9014c0 -17.6904 -19.7344 -31.2783 -36.459 -29.8945c-76.1904 6.29883 -142.253 -6.05762 -214.861 -27.875c-32.1553 -9.66406 -59.7578 32.8789 -25.6094 49.8135c71.79 35.6094 161.429 46.417 240.476 37.8574z" />
    <glyph glyph-name="greater" unicode="&#x3e;" horiz-adv-x="323" 
d="M271.989 288.718c7.62598 -34.1299 -26.2051 -61.1045 -50.3594 -78.7627c-33.1006 -24.1855 -69.3574 -44.8857 -106.173 -62.8486c-38.1426 -18.6113 -82.1523 29.7607 -38.5615 54.0928c23.4111 13.0615 47.457 24.8975 70.6777 38.3203
c8.85742 5.12402 54.2764 25.748 54.4736 39.6162c0.152344 10.6934 -55.0264 30.5361 -63.0654 33.9775c-24.4717 10.4893 -49.3818 19.792 -74.0254 29.8438c-33.0752 13.4805 -4.96484 53.2041 23.3164 45.3496c38.1621 -10.5977 76.4258 -24.8467 112.739 -40.6514
c25.2783 -11.0039 64.2275 -28.7383 70.9775 -58.9375z" />
    <glyph glyph-name="question" unicode="?" horiz-adv-x="366" 
d="M241.636 527.34c94.4902 -30.1035 77.6895 -126.242 64.4697 -203.791c-16.5215 -96.8389 -39.5967 -190.129 -36.2822 -289.14c1.47266 -44.2197 -77.9111 -43.4893 -81.3594 0c-9.29004 117.139 31.9258 231.738 53.6611 345.283
c4.82617 25.2207 15.4424 61.8018 -3.56836 83.6445c-17.4551 20.0654 -45.4893 18.3447 -67.0215 7.00391c-21.2266 -11.1758 -38.5107 -31.0381 -48.3975 -52.71c-3.47949 -7.63281 -19.7539 -86.1025 5.2002 -80.8008c16.3252 3.47363 41.4824 -16.5791 21.7227 -30.5928
c-31.2725 -22.1729 -68.7676 -10.6611 -87.4355 21.9766c-17.792 31.1074 -15.2393 71.3516 -1.89844 103.525c28.5479 68.8496 106.256 119.387 180.909 95.6006zM279.531 -48.0098c7.72168 -8.08984 8.93359 -21.1699 2.45703 -30.1543
c0.00585938 -0.203125 0.00585938 -0.40625 0.0117188 -0.609375c0.0507812 -3.84766 0 -7.69531 0.0195312 -11.543c0.0322266 -8.34375 0.292969 -16.6748 0.693359 -25.0059c0.844727 -17.6582 -18.877 -27.0176 -33.6084 -27.5576
c-16.1221 -0.59668 -32.6885 10.7881 -33.6094 27.5576c-0.692383 12.6611 -1.77832 25.8174 -0.673828 38.4785c1.42871 16.3252 7.91797 27.666 22.4717 35.749c13.2012 7.32715 32.1045 3.71387 42.2383 -6.91504z" />
    <glyph glyph-name="at" unicode="@" horiz-adv-x="621" 
d="M451.051 568.739c133.629 -35.9014 142.397 -190.937 90.8447 -297.472c-24.7324 -51.0771 -67.1104 -112.892 -130.442 -113.793c-37.8887 -0.545898 -62.6143 20.1094 -78.8633 48.2705c-16.8457 -26.3574 -36.6182 -50.2578 -61.1025 -61.833
c-50.8164 -24.0205 -89.1494 20.7256 -86.0254 69.1416c3.2002 49.6611 29.8369 95.1758 70.8877 123.146c32.3457 22.04 84.4893 35.3105 111.431 -1.4541c6.53418 -8.91504 4.19727 -15.7793 -1.75195 -20.1543c6.57812 -5.33984 11.4551 -12.4707 12.8203 -20.8076
c2.67285 -16.3379 9.9873 -67.04 28.9795 -74.5322c18.1279 -7.15625 43.0693 34.2881 51.2607 47.0195c27.4375 42.6387 42.9756 95.0869 39.7812 145.91c-2.43848 38.8027 -18.6426 78.9326 -56.5371 94.9785c-41.4385 17.5439 -92.8076 7.91113 -132.696 -9.30957
c-78.2344 -33.7676 -138.036 -103.246 -166.794 -182.7c-27.9326 -77.1807 -28.9297 -170.477 16.7246 -241.44c21.9951 -34.1865 54.0869 -61.6934 95.6016 -67.1035c47.0635 -6.13379 94.3877 13.1816 135.527 33.8945c35.6279 17.9443 77.4854 -28.8467 36.1807 -50.7529
c-67.3574 -35.7109 -146.729 -58.2393 -221.643 -33.2344c-62.4111 20.833 -107.297 72.1387 -132.264 131.68c-46.3525 110.542 -18.8711 243.333 49.6035 338.433c71.1611 98.8203 204.048 175.544 328.477 142.113zM270.682 243.514
c12.8584 19.4043 24.5869 39.5205 36.2451 59.6621c-12.249 -9.93066 -24.1543 -23.7031 -27.5068 -28.4082c-9.64551 -13.5439 -16.6172 -28.9678 -19.7988 -45.2168c4.13965 4.93359 8.24121 9.70898 11.0605 13.9629z" />
    <glyph glyph-name="A" unicode="A" horiz-adv-x="518" 
d="M20.3398 69.1465c-34.5674 -2.6416 -42.5527 43.3994 -8.44824 51.1396c29.2598 6.63574 58.9062 12.001 88.7051 16.7695c8.15918 46.5811 18.1982 92.7051 28.5352 137.718c22.6367 98.5537 49.6035 208.099 111.723 290.244
c25.3545 33.5205 62.7354 67.0918 108.25 54.7227c43.7305 -11.8799 64.418 -58.0742 77.6953 -97.2646c35.165 -103.786 45.6992 -218.398 55.1855 -326.953c0.0634766 -0.755859 0.133789 -1.51758 0.197266 -2.27344c36.2061 1.5752 44.6133 -49.5273 7.11816 -56.9629
c-0.698242 -0.139648 -1.40918 -0.260742 -2.11426 -0.394531c7.96289 -91.8291 15.417 -184.262 18.2236 -276.065c1.2002 -39.2217 -73.6631 -46.4287 -80.3877 -8.9209c-15.9248 88.8574 -18.5537 180.064 -22.1348 270.681
c-49.8262 -7.39062 -99.9443 -13.4668 -149.605 -20.6924c-28.9355 -4.20996 -57.9346 -8.88379 -86.9844 -13.3916c-9.94336 -63.4141 -18.9404 -126.968 -31.208 -190.09c-4.9209 -25.335 -51.0576 -18.8896 -52.3721 5.81055
c-3.04785 57.3057 0.832031 115.52 8.56641 173.454c-23.627 -3.06055 -47.2793 -5.7207 -70.9443 -7.53027zM197.429 253.146c-8.24805 -34.7959 -15.0439 -69.79 -21.1455 -104.892c23.627 3.34668 47.2158 6.68066 70.6523 10.3125
c50.9883 7.90527 102.021 16.8838 153.187 24.4209c-0.545898 10.293 -1.11719 20.5664 -1.79004 30.8145c-3.97461 60.7471 -9.44141 121.507 -18.915 181.677c-5.0293 31.9326 -10.8389 64.0752 -19.2588 95.3096c-3.04785 11.3086 -17.2461 69.4531 -31.1709 69.5547
c-15.2393 0.121094 -38.085 -44.0732 -44.7207 -55.4326c-14.8711 -25.4688 -26.5859 -52.791 -37.0439 -80.3232c-21.1377 -55.6484 -36.0781 -113.596 -49.7939 -171.441z" />
    <glyph glyph-name="A" unicode="&#xc5;" horiz-adv-x="518" 
d="M20.3398 69.1465c-34.5674 -2.6416 -42.5527 43.3994 -8.44824 51.1396c29.2598 6.63574 58.9062 12.001 88.7051 16.7695c8.15918 46.5811 18.1982 92.7051 28.5352 137.718c22.6367 98.5537 49.6035 208.099 111.723 290.244
c25.3545 33.5205 62.7354 67.0918 108.25 54.7227c43.7305 -11.8799 64.418 -58.0742 77.6953 -97.2646c35.165 -103.786 45.6992 -218.398 55.1855 -326.953c0.0634766 -0.755859 0.133789 -1.51758 0.197266 -2.27344c36.2061 1.5752 44.6133 -49.5273 7.11816 -56.9629
c-0.698242 -0.139648 -1.40918 -0.260742 -2.11426 -0.394531c7.96289 -91.8291 15.417 -184.262 18.2236 -276.065c1.2002 -39.2217 -73.6631 -46.4287 -80.3877 -8.9209c-15.9248 88.8574 -18.5537 180.064 -22.1348 270.681
c-49.8262 -7.39062 -99.9443 -13.4668 -149.605 -20.6924c-28.9355 -4.20996 -57.9346 -8.88379 -86.9844 -13.3916c-9.94336 -63.4141 -18.9404 -126.968 -31.208 -190.09c-4.9209 -25.335 -51.0576 -18.8896 -52.3721 5.81055
c-3.04785 57.3057 0.832031 115.52 8.56641 173.454c-23.627 -3.06055 -47.2793 -5.7207 -70.9443 -7.53027zM197.429 253.146c-8.24805 -34.7959 -15.0439 -69.79 -21.1455 -104.892c23.627 3.34668 47.2158 6.68066 70.6523 10.3125
c50.9883 7.90527 102.021 16.8838 153.187 24.4209c-0.545898 10.293 -1.11719 20.5664 -1.79004 30.8145c-3.97461 60.7471 -9.44141 121.507 -18.915 181.677c-5.0293 31.9326 -10.8389 64.0752 -19.2588 95.3096c-3.04785 11.3086 -17.2461 69.4531 -31.1709 69.5547
c-15.2393 0.121094 -38.085 -44.0732 -44.7207 -55.4326c-14.8711 -25.4688 -26.5859 -52.791 -37.0439 -80.3232c-21.1377 -55.6484 -36.0781 -113.596 -49.7939 -171.441z" />
    <glyph glyph-name="A" unicode="&#xc4;" horiz-adv-x="518" 
d="M20.3398 69.1465c-34.5674 -2.6416 -42.5527 43.3994 -8.44824 51.1396c29.2598 6.63574 58.9062 12.001 88.7051 16.7695c8.15918 46.5811 18.1982 92.7051 28.5352 137.718c22.6367 98.5537 49.6035 208.099 111.723 290.244
c25.3545 33.5205 62.7354 67.0918 108.25 54.7227c43.7305 -11.8799 64.418 -58.0742 77.6953 -97.2646c35.165 -103.786 45.6992 -218.398 55.1855 -326.953c0.0634766 -0.755859 0.133789 -1.51758 0.197266 -2.27344c36.2061 1.5752 44.6133 -49.5273 7.11816 -56.9629
c-0.698242 -0.139648 -1.40918 -0.260742 -2.11426 -0.394531c7.96289 -91.8291 15.417 -184.262 18.2236 -276.065c1.2002 -39.2217 -73.6631 -46.4287 -80.3877 -8.9209c-15.9248 88.8574 -18.5537 180.064 -22.1348 270.681
c-49.8262 -7.39062 -99.9443 -13.4668 -149.605 -20.6924c-28.9355 -4.20996 -57.9346 -8.88379 -86.9844 -13.3916c-9.94336 -63.4141 -18.9404 -126.968 -31.208 -190.09c-4.9209 -25.335 -51.0576 -18.8896 -52.3721 5.81055
c-3.04785 57.3057 0.832031 115.52 8.56641 173.454c-23.627 -3.06055 -47.2793 -5.7207 -70.9443 -7.53027zM197.429 253.146c-8.24805 -34.7959 -15.0439 -69.79 -21.1455 -104.892c23.627 3.34668 47.2158 6.68066 70.6523 10.3125
c50.9883 7.90527 102.021 16.8838 153.187 24.4209c-0.545898 10.293 -1.11719 20.5664 -1.79004 30.8145c-3.97461 60.7471 -9.44141 121.507 -18.915 181.677c-5.0293 31.9326 -10.8389 64.0752 -19.2588 95.3096c-3.04785 11.3086 -17.2461 69.4531 -31.1709 69.5547
c-15.2393 0.121094 -38.085 -44.0732 -44.7207 -55.4326c-14.8711 -25.4688 -26.5859 -52.791 -37.0439 -80.3232c-21.1377 -55.6484 -36.0781 -113.596 -49.7939 -171.441z" />
    <glyph glyph-name="A" unicode="&#xc3;" horiz-adv-x="518" 
d="M20.3398 69.1465c-34.5674 -2.6416 -42.5527 43.3994 -8.44824 51.1396c29.2598 6.63574 58.9062 12.001 88.7051 16.7695c8.15918 46.5811 18.1982 92.7051 28.5352 137.718c22.6367 98.5537 49.6035 208.099 111.723 290.244
c25.3545 33.5205 62.7354 67.0918 108.25 54.7227c43.7305 -11.8799 64.418 -58.0742 77.6953 -97.2646c35.165 -103.786 45.6992 -218.398 55.1855 -326.953c0.0634766 -0.755859 0.133789 -1.51758 0.197266 -2.27344c36.2061 1.5752 44.6133 -49.5273 7.11816 -56.9629
c-0.698242 -0.139648 -1.40918 -0.260742 -2.11426 -0.394531c7.96289 -91.8291 15.417 -184.262 18.2236 -276.065c1.2002 -39.2217 -73.6631 -46.4287 -80.3877 -8.9209c-15.9248 88.8574 -18.5537 180.064 -22.1348 270.681
c-49.8262 -7.39062 -99.9443 -13.4668 -149.605 -20.6924c-28.9355 -4.20996 -57.9346 -8.88379 -86.9844 -13.3916c-9.94336 -63.4141 -18.9404 -126.968 -31.208 -190.09c-4.9209 -25.335 -51.0576 -18.8896 -52.3721 5.81055
c-3.04785 57.3057 0.832031 115.52 8.56641 173.454c-23.627 -3.06055 -47.2793 -5.7207 -70.9443 -7.53027zM197.429 253.146c-8.24805 -34.7959 -15.0439 -69.79 -21.1455 -104.892c23.627 3.34668 47.2158 6.68066 70.6523 10.3125
c50.9883 7.90527 102.021 16.8838 153.187 24.4209c-0.545898 10.293 -1.11719 20.5664 -1.79004 30.8145c-3.97461 60.7471 -9.44141 121.507 -18.915 181.677c-5.0293 31.9326 -10.8389 64.0752 -19.2588 95.3096c-3.04785 11.3086 -17.2461 69.4531 -31.1709 69.5547
c-15.2393 0.121094 -38.085 -44.0732 -44.7207 -55.4326c-14.8711 -25.4688 -26.5859 -52.791 -37.0439 -80.3232c-21.1377 -55.6484 -36.0781 -113.596 -49.7939 -171.441z" />
    <glyph glyph-name="A" unicode="&#xc2;" horiz-adv-x="518" 
d="M20.3398 69.1465c-34.5674 -2.6416 -42.5527 43.3994 -8.44824 51.1396c29.2598 6.63574 58.9062 12.001 88.7051 16.7695c8.15918 46.5811 18.1982 92.7051 28.5352 137.718c22.6367 98.5537 49.6035 208.099 111.723 290.244
c25.3545 33.5205 62.7354 67.0918 108.25 54.7227c43.7305 -11.8799 64.418 -58.0742 77.6953 -97.2646c35.165 -103.786 45.6992 -218.398 55.1855 -326.953c0.0634766 -0.755859 0.133789 -1.51758 0.197266 -2.27344c36.2061 1.5752 44.6133 -49.5273 7.11816 -56.9629
c-0.698242 -0.139648 -1.40918 -0.260742 -2.11426 -0.394531c7.96289 -91.8291 15.417 -184.262 18.2236 -276.065c1.2002 -39.2217 -73.6631 -46.4287 -80.3877 -8.9209c-15.9248 88.8574 -18.5537 180.064 -22.1348 270.681
c-49.8262 -7.39062 -99.9443 -13.4668 -149.605 -20.6924c-28.9355 -4.20996 -57.9346 -8.88379 -86.9844 -13.3916c-9.94336 -63.4141 -18.9404 -126.968 -31.208 -190.09c-4.9209 -25.335 -51.0576 -18.8896 -52.3721 5.81055
c-3.04785 57.3057 0.832031 115.52 8.56641 173.454c-23.627 -3.06055 -47.2793 -5.7207 -70.9443 -7.53027zM197.429 253.146c-8.24805 -34.7959 -15.0439 -69.79 -21.1455 -104.892c23.627 3.34668 47.2158 6.68066 70.6523 10.3125
c50.9883 7.90527 102.021 16.8838 153.187 24.4209c-0.545898 10.293 -1.11719 20.5664 -1.79004 30.8145c-3.97461 60.7471 -9.44141 121.507 -18.915 181.677c-5.0293 31.9326 -10.8389 64.0752 -19.2588 95.3096c-3.04785 11.3086 -17.2461 69.4531 -31.1709 69.5547
c-15.2393 0.121094 -38.085 -44.0732 -44.7207 -55.4326c-14.8711 -25.4688 -26.5859 -52.791 -37.0439 -80.3232c-21.1377 -55.6484 -36.0781 -113.596 -49.7939 -171.441z" />
    <glyph glyph-name="A" unicode="&#xc1;" horiz-adv-x="518" 
d="M20.3398 69.1465c-34.5674 -2.6416 -42.5527 43.3994 -8.44824 51.1396c29.2598 6.63574 58.9062 12.001 88.7051 16.7695c8.15918 46.5811 18.1982 92.7051 28.5352 137.718c22.6367 98.5537 49.6035 208.099 111.723 290.244
c25.3545 33.5205 62.7354 67.0918 108.25 54.7227c43.7305 -11.8799 64.418 -58.0742 77.6953 -97.2646c35.165 -103.786 45.6992 -218.398 55.1855 -326.953c0.0634766 -0.755859 0.133789 -1.51758 0.197266 -2.27344c36.2061 1.5752 44.6133 -49.5273 7.11816 -56.9629
c-0.698242 -0.139648 -1.40918 -0.260742 -2.11426 -0.394531c7.96289 -91.8291 15.417 -184.262 18.2236 -276.065c1.2002 -39.2217 -73.6631 -46.4287 -80.3877 -8.9209c-15.9248 88.8574 -18.5537 180.064 -22.1348 270.681
c-49.8262 -7.39062 -99.9443 -13.4668 -149.605 -20.6924c-28.9355 -4.20996 -57.9346 -8.88379 -86.9844 -13.3916c-9.94336 -63.4141 -18.9404 -126.968 -31.208 -190.09c-4.9209 -25.335 -51.0576 -18.8896 -52.3721 5.81055
c-3.04785 57.3057 0.832031 115.52 8.56641 173.454c-23.627 -3.06055 -47.2793 -5.7207 -70.9443 -7.53027zM197.429 253.146c-8.24805 -34.7959 -15.0439 -69.79 -21.1455 -104.892c23.627 3.34668 47.2158 6.68066 70.6523 10.3125
c50.9883 7.90527 102.021 16.8838 153.187 24.4209c-0.545898 10.293 -1.11719 20.5664 -1.79004 30.8145c-3.97461 60.7471 -9.44141 121.507 -18.915 181.677c-5.0293 31.9326 -10.8389 64.0752 -19.2588 95.3096c-3.04785 11.3086 -17.2461 69.4531 -31.1709 69.5547
c-15.2393 0.121094 -38.085 -44.0732 -44.7207 -55.4326c-14.8711 -25.4688 -26.5859 -52.791 -37.0439 -80.3232c-21.1377 -55.6484 -36.0781 -113.596 -49.7939 -171.441z" />
    <glyph glyph-name="B" unicode="B" horiz-adv-x="659" 
d="M-4.43848 382.44c-6.93359 21.7666 10.7725 46.1094 22.7988 62.4531c30.1035 40.9619 70.6904 74.3418 112.922 102.09c88.6865 58.2773 197.209 91.1816 303.001 67.2627c43.7998 -9.90527 91.1182 -30.4717 116.796 -69.3066
c27.7227 -41.9395 18.0264 -92.0957 -4.44531 -133.756c-24.5674 -45.5586 -59.7578 -86.3486 -99.9385 -121.964c59.8203 1.7207 117.729 -12.96 164.095 -58.9189c78.6787 -78 46.9111 -196.803 -6.49023 -279.914c-51.2295 -79.7266 -145.802 -157.656 -245.803 -153.269
c-42.3965 1.86719 -85.9805 21.208 -103.347 61.4014c-15.3535 -5.96191 -37.2344 -0.742188 -43.2217 15.3164c-17.6074 47.21 -20.084 102.16 -26.0586 151.891c-6.48926 54.0234 -11.5947 108.37 -14.833 162.686c-6.38184 106.986 -8.26758 214.772 3.18066 321.467
c-20.4395 -12.9727 -39.9141 -27.4941 -58.4043 -43.1143c-14.0459 -11.8672 -27.4561 -24.5029 -39.2539 -38.6309c-4.17188 -4.99121 -22.3887 -38.124 -30.2559 -35.0576c22.668 -8.83887 7.38379 -35.1836 -11.6465 -35.2471
c-16.4648 -0.0507812 -33.6475 7.49902 -39.0957 24.6113zM573.456 159.824c-9.44238 20.8838 -22.7705 35.8076 -38.6133 46.208c-1.80371 -3.18164 -4.41309 -6.36914 -8.07031 -9.5c-74.6475 -63.8779 -146.101 -134.524 -187.196 -225.427
c-14.2236 -31.4561 -41.3174 -96.4893 7.48047 -111.487c42.3398 -13.0107 92.623 20.4326 123.464 45.7109c64.6973 53.0322 142.36 167.257 102.936 254.495zM439.891 556.676c-63.5156 22.834 -133.526 13.8301 -195.468 -10.7246
c8.03223 -5.41602 13.1943 -13.9941 12.4199 -25.8613c-7.10547 -108.453 -9.41699 -216.798 -4.42578 -325.403c3.24512 -70.6592 10.7373 -141.719 15.1182 -212.657c2.83789 6.4834 5.79688 12.8203 8.77441 18.9219c42.918 87.8418 108.72 163.104 183.767 225.312
c-50.9756 0.933594 -106.961 -15.8809 -147.631 -30.1611c-17.5186 -6.14648 -40.9111 -6.28613 -52.626 11.3154c-10.9277 16.4141 -2.35547 34.5488 13.7979 43.1523c72.5391 38.6504 344.071 242.184 166.273 306.105z" />
    <glyph glyph-name="C" unicode="C" horiz-adv-x="489" 
d="M50.1475 395.185c29.7168 94.1084 90.9756 254.215 213.004 251.974c132.722 -2.43164 108.745 -208.949 102.999 -294.206c-2.45117 -36.333 -69.6436 -36.0215 -67.2178 0c4.29883 63.7822 11.7783 133.444 -6.49023 195.754
c-7.30859 24.916 -17.9443 46.3652 -45.7881 30.2686c-23.4814 -13.5752 -40.7402 -40.3076 -54.5957 -62.8428c-62.7607 -102.097 -94.1602 -234.608 -98.7764 -353.36c-3.44141 -88.6484 4.50879 -277.603 124.829 -290.137
c130.842 -13.6328 186.021 143.256 235.7 232.933c10.585 19.1191 48.4414 8.03906 42.6123 -14.7305c-30.9932 -121.006 -111.12 -259.722 -247.893 -274.154c-127.146 -13.4102 -198.631 87.5498 -224.074 199.355c-28.3516 124.574 -12.4775 258.286 25.6904 379.146z
" />
    <glyph glyph-name="D" unicode="D" horiz-adv-x="653" 
d="M65.6465 567.744c43.5781 25.126 90.4756 44.8047 139.4 56.7227c87.3398 21.2715 182.763 15.7344 263.296 -26.3574c72.9199 -38.1113 119.622 -100.154 145.142 -171.709c26.7832 -3.39062 46.0859 -34.3457 14.6299 -52.2012
c12.8389 -61.3574 12.3818 -126.784 1.19336 -188.522c-27.1826 -149.992 -127.399 -314.741 -278.09 -366.104c-65.0654 -22.1797 -162.749 -18.7383 -194.948 54.4229c-25.0049 56.8232 -0.399414 121.907 30.9873 176.261
c-9.00391 45.8955 -14.8076 92.3564 -18.084 139.026c-8.32422 118.504 -3.93652 239.243 8.13379 357.354c0.609375 5.95605 2.69238 11.0742 5.75293 15.3916c-19.3027 -6.52734 -38.1934 -14.2676 -56.6904 -22.9727
c-20.0967 -9.45508 -77.0215 -29.4375 -77.2119 -56.3027c-0.21582 -31.0312 -55.2109 -30.625 -57.0459 0c-2.60352 43.4258 41.082 66.2783 73.5352 84.9912zM554.355 223.757c5.05469 35.0762 6.66797 72.0996 3.60059 108.515
c-100.611 -64.2529 -190.034 -141.104 -262.757 -238.539c-8.81934 -11.8232 -19.0234 -25.3291 -29.1133 -39.9336c3.2832 -18.3193 7.21973 -36.5107 11.3535 -54.6709c4.22266 -18.541 7.00977 -47.0889 21.7539 -61.1279
c27.1953 -25.9004 -12.6621 -58.1377 -39.9785 -42.4854c-20.1289 11.5312 -33.1328 28.3896 -42.4033 47.6738c-1.1875 -12.0195 -0.520508 -23.9121 2.62305 -35.4561c19.1123 -70.1895 118.384 -22.3887 154.311 4.01953c98.9404 72.7354 163.225 191.437 180.61 312.005
zM421.374 557.044c-58.0557 27.2461 -123.539 31.6035 -185.95 19.1455c12.4707 -4.31738 21.8809 -14.0957 21.5 -29.5576c-2.60352 -105.393 -11.5693 -210.327 -8.15918 -315.859c0.901367 -27.8311 2.62891 -55.6299 5.1748 -83.3525
c79.0596 101.271 179.658 190.688 292.302 252.178c-18.2617 66.8936 -56.8682 125.533 -124.867 157.446z" />
    <glyph glyph-name="E" unicode="E" horiz-adv-x="584" 
d="M24.166 495.592c-17.2266 -5.13086 -41.2734 17.3975 -22.0908 31.1064c42.2891 30.1992 91.8926 53.9854 142.982 73.5361c10.1406 19.7598 38.3779 26.8398 58.373 20.5029c22.7383 7.35938 45.3496 14.0459 67.3193 20.2305
c98.0586 27.5957 198.777 39.2852 300.093 26.3193c16.4648 -2.1084 29.9961 -19.71 24.8594 -35.9014c-5.8418 -18.4014 -27.1895 -22.5029 -43.7812 -20.3818c-92.4766 11.8359 -185.506 -1.76465 -274.757 -26.541
c-18.6748 -5.18164 -37.0449 -11.1689 -55.2939 -17.4873c-13.2646 -112.948 -28.9932 -227.713 -25.748 -341.569c15.6904 5.47363 31.3555 10.8203 46.8232 16.1475c68.5645 23.6143 137.668 45.6924 207.533 65.1289c40.7588 11.334 63.1797 -43.7686 18.8584 -56.0938
c-67.9541 -18.9033 -135.737 -38.3711 -202.904 -59.9287c-22.3193 -7.16211 -44.6318 -14.8516 -66.9824 -22.5225c2.95898 -32.8027 7.80371 -65.4912 15.0615 -98.002c15.1562 -67.8467 45.4824 -161.784 126.13 -173.042
c40.2949 -5.63184 82.374 10.6426 118.821 26.2314c35.3867 15.1377 69.4717 33.4883 94.7939 63.1416c19.8809 23.2783 75.0283 3.63281 52.2588 -25.0488c-53.915 -67.9229 -151.484 -111.945 -236.977 -119.209c-92.2803 -7.83594 -165.295 48.2695 -203.78 129
c-24.999 52.4297 -38.8223 111.222 -46.1943 170.565c-18.1406 -5.5498 -36.3574 -10.7188 -54.6895 -15.1631c-23.2969 -5.64453 -42.1494 22.2119 -18.2559 35.502c21.7734 12.1084 44.6201 22.7441 67.9551 32.5098c-1.5498 23.4492 -2.32422 46.7207 -2.54688 69.4463
c-0.882812 90.375 8.23535 180.516 21.1699 269.932c-36.0029 -13.8105 -72.0566 -27.4053 -109.031 -38.4092z" />
    <glyph glyph-name="E" unicode="&#xcb;" horiz-adv-x="584" 
d="M24.166 495.592c-17.2266 -5.13086 -41.2734 17.3975 -22.0908 31.1064c42.2891 30.1992 91.8926 53.9854 142.982 73.5361c10.1406 19.7598 38.3779 26.8398 58.373 20.5029c22.7383 7.35938 45.3496 14.0459 67.3193 20.2305
c98.0586 27.5957 198.777 39.2852 300.093 26.3193c16.4648 -2.1084 29.9961 -19.71 24.8594 -35.9014c-5.8418 -18.4014 -27.1895 -22.5029 -43.7812 -20.3818c-92.4766 11.8359 -185.506 -1.76465 -274.757 -26.541
c-18.6748 -5.18164 -37.0449 -11.1689 -55.2939 -17.4873c-13.2646 -112.948 -28.9932 -227.713 -25.748 -341.569c15.6904 5.47363 31.3555 10.8203 46.8232 16.1475c68.5645 23.6143 137.668 45.6924 207.533 65.1289c40.7588 11.334 63.1797 -43.7686 18.8584 -56.0938
c-67.9541 -18.9033 -135.737 -38.3711 -202.904 -59.9287c-22.3193 -7.16211 -44.6318 -14.8516 -66.9824 -22.5225c2.95898 -32.8027 7.80371 -65.4912 15.0615 -98.002c15.1562 -67.8467 45.4824 -161.784 126.13 -173.042
c40.2949 -5.63184 82.374 10.6426 118.821 26.2314c35.3867 15.1377 69.4717 33.4883 94.7939 63.1416c19.8809 23.2783 75.0283 3.63281 52.2588 -25.0488c-53.915 -67.9229 -151.484 -111.945 -236.977 -119.209c-92.2803 -7.83594 -165.295 48.2695 -203.78 129
c-24.999 52.4297 -38.8223 111.222 -46.1943 170.565c-18.1406 -5.5498 -36.3574 -10.7188 -54.6895 -15.1631c-23.2969 -5.64453 -42.1494 22.2119 -18.2559 35.502c21.7734 12.1084 44.6201 22.7441 67.9551 32.5098c-1.5498 23.4492 -2.32422 46.7207 -2.54688 69.4463
c-0.882812 90.375 8.23535 180.516 21.1699 269.932c-36.0029 -13.8105 -72.0566 -27.4053 -109.031 -38.4092z" />
    <glyph glyph-name="E" unicode="&#xca;" horiz-adv-x="584" 
d="M24.166 495.592c-17.2266 -5.13086 -41.2734 17.3975 -22.0908 31.1064c42.2891 30.1992 91.8926 53.9854 142.982 73.5361c10.1406 19.7598 38.3779 26.8398 58.373 20.5029c22.7383 7.35938 45.3496 14.0459 67.3193 20.2305
c98.0586 27.5957 198.777 39.2852 300.093 26.3193c16.4648 -2.1084 29.9961 -19.71 24.8594 -35.9014c-5.8418 -18.4014 -27.1895 -22.5029 -43.7812 -20.3818c-92.4766 11.8359 -185.506 -1.76465 -274.757 -26.541
c-18.6748 -5.18164 -37.0449 -11.1689 -55.2939 -17.4873c-13.2646 -112.948 -28.9932 -227.713 -25.748 -341.569c15.6904 5.47363 31.3555 10.8203 46.8232 16.1475c68.5645 23.6143 137.668 45.6924 207.533 65.1289c40.7588 11.334 63.1797 -43.7686 18.8584 -56.0938
c-67.9541 -18.9033 -135.737 -38.3711 -202.904 -59.9287c-22.3193 -7.16211 -44.6318 -14.8516 -66.9824 -22.5225c2.95898 -32.8027 7.80371 -65.4912 15.0615 -98.002c15.1562 -67.8467 45.4824 -161.784 126.13 -173.042
c40.2949 -5.63184 82.374 10.6426 118.821 26.2314c35.3867 15.1377 69.4717 33.4883 94.7939 63.1416c19.8809 23.2783 75.0283 3.63281 52.2588 -25.0488c-53.915 -67.9229 -151.484 -111.945 -236.977 -119.209c-92.2803 -7.83594 -165.295 48.2695 -203.78 129
c-24.999 52.4297 -38.8223 111.222 -46.1943 170.565c-18.1406 -5.5498 -36.3574 -10.7188 -54.6895 -15.1631c-23.2969 -5.64453 -42.1494 22.2119 -18.2559 35.502c21.7734 12.1084 44.6201 22.7441 67.9551 32.5098c-1.5498 23.4492 -2.32422 46.7207 -2.54688 69.4463
c-0.882812 90.375 8.23535 180.516 21.1699 269.932c-36.0029 -13.8105 -72.0566 -27.4053 -109.031 -38.4092z" />
    <glyph glyph-name="E" unicode="&#xc9;" horiz-adv-x="584" 
d="M24.166 495.592c-17.2266 -5.13086 -41.2734 17.3975 -22.0908 31.1064c42.2891 30.1992 91.8926 53.9854 142.982 73.5361c10.1406 19.7598 38.3779 26.8398 58.373 20.5029c22.7383 7.35938 45.3496 14.0459 67.3193 20.2305
c98.0586 27.5957 198.777 39.2852 300.093 26.3193c16.4648 -2.1084 29.9961 -19.71 24.8594 -35.9014c-5.8418 -18.4014 -27.1895 -22.5029 -43.7812 -20.3818c-92.4766 11.8359 -185.506 -1.76465 -274.757 -26.541
c-18.6748 -5.18164 -37.0449 -11.1689 -55.2939 -17.4873c-13.2646 -112.948 -28.9932 -227.713 -25.748 -341.569c15.6904 5.47363 31.3555 10.8203 46.8232 16.1475c68.5645 23.6143 137.668 45.6924 207.533 65.1289c40.7588 11.334 63.1797 -43.7686 18.8584 -56.0938
c-67.9541 -18.9033 -135.737 -38.3711 -202.904 -59.9287c-22.3193 -7.16211 -44.6318 -14.8516 -66.9824 -22.5225c2.95898 -32.8027 7.80371 -65.4912 15.0615 -98.002c15.1562 -67.8467 45.4824 -161.784 126.13 -173.042
c40.2949 -5.63184 82.374 10.6426 118.821 26.2314c35.3867 15.1377 69.4717 33.4883 94.7939 63.1416c19.8809 23.2783 75.0283 3.63281 52.2588 -25.0488c-53.915 -67.9229 -151.484 -111.945 -236.977 -119.209c-92.2803 -7.83594 -165.295 48.2695 -203.78 129
c-24.999 52.4297 -38.8223 111.222 -46.1943 170.565c-18.1406 -5.5498 -36.3574 -10.7188 -54.6895 -15.1631c-23.2969 -5.64453 -42.1494 22.2119 -18.2559 35.502c21.7734 12.1084 44.6201 22.7441 67.9551 32.5098c-1.5498 23.4492 -2.32422 46.7207 -2.54688 69.4463
c-0.882812 90.375 8.23535 180.516 21.1699 269.932c-36.0029 -13.8105 -72.0566 -27.4053 -109.031 -38.4092z" />
    <glyph glyph-name="F" unicode="F" horiz-adv-x="436" 
d="M261.993 596.019c9.71484 25.1191 48.6611 30.6631 67.9385 15.9131c113.316 24.3955 231.135 38.3271 346.654 24.0088c38.9619 -4.83203 26.9424 -58.1504 -9.16211 -55.5342c-110.796 8.03223 -217.75 -2.03809 -326.387 -24.5859
c-0.717773 -0.152344 -1.44141 -0.311523 -2.15918 -0.458008c-4.43848 -75.46 -8.31152 -150.9 -11.0039 -226.411c28.6494 9.6709 57.4258 18.9609 86.3105 27.8506c37.9072 11.6641 58.9121 -40.2578 17.6709 -52.5635
c-35.4883 -10.5908 -70.7295 -21.8613 -105.806 -33.6016c-0.571289 -21.5703 -1.0791 -43.1465 -1.41602 -64.7354c-0.920898 -59.2549 -1.72754 -118.676 2.16504 -177.849c3.70215 -56.2832 6.33691 -123.914 29.2344 -176.141
c11.9756 -27.3223 -35.7803 -41.3682 -52.0293 -24.834c-40.1172 40.8096 -45.7812 111.393 -52.4424 165.65c-7.70898 62.8047 -9.41699 126.244 -9.06152 189.468c0.108398 19.8936 0.292969 39.7998 0.52832 59.7188
c-23.4307 -8.34961 -46.8232 -16.8584 -70.1777 -25.4941c-29.8564 -11.042 -66.373 26.4971 -30.0469 42.1494c33.3672 14.376 67.1094 27.8623 101.144 40.6064c1.60059 79.4287 4.7627 158.889 11.3281 238.006c-75.1357 -17.2012 -150.253 -37.4062 -221.351 -64.8369
c-21.7988 -8.41309 -62.5703 15.7979 -34.2637 36.415c42.2129 30.7451 96.6357 42.498 146.233 56.3408c38.5684 10.7695 77.2383 21.2402 116.099 30.917z" />
    <glyph glyph-name="G" unicode="G" horiz-adv-x="583" 
d="M216.932 463.603c-67.6943 -69.3701 -121.462 -163.606 -133.914 -260.839c-1.70801 -13.3408 -8.52148 -59.5283 3.50488 -69.123c8.25488 -6.58496 34.2891 13.6006 44.1816 20.7441c35.8379 25.8623 66.7607 57.3633 95.334 90.915
c28.2812 33.209 54.6836 67.9609 82.3242 101.697c24.3066 29.666 49.8955 65.167 83.4727 84.876c71.3701 41.9014 126.632 -14.6172 152.195 -77.7715c27.0498 3.00293 50.7021 -30.4092 19.8555 -48.1816c-1.90527 -1.09863 -3.77246 -2.24805 -5.66504 -3.35938
c13.9062 -82.4443 -0.894531 -170.197 -26.8145 -248.769c-24.834 -75.2754 -70.5205 -154.958 -141.637 -195.019c-76.2793 -42.9688 -158.876 -5.59473 -163.13 83.8408c-4.29883 90.4453 50.7344 176.693 106.187 243.391
c43.6543 52.5059 94.7822 98.2559 151.707 135.624c-5.52441 32.123 -16.7764 67.2754 -39.4004 73.8535c-23.9316 6.95312 -49.6855 -31.2529 -62.5947 -46.251c-13.1182 -15.2393 -25.7666 -30.8789 -38.3203 -46.5879
c-23.0117 -28.8018 -45.5088 -58.0293 -69.4854 -86.0439c-27.1572 -31.7295 -55.9717 -62.7666 -88.4629 -89.1182c-27.8369 -22.5791 -60.8682 -48.8291 -98.0264 -51.3945c-93.334 -6.44531 -91.8926 117.799 -78.8252 179.771
c17.0938 81.0664 59.7764 158.044 114.079 220.125c51.1084 58.4297 117.837 119.831 194.18 141.204c71.0908 19.9062 147.916 -10.0518 162.127 -87.416c4.41895 -24.0781 -36.8799 -31.7041 -41.8584 -9.46094c-10.6611 47.6357 -72.9072 46.0928 -108.484 29.5713
c-42.2637 -19.627 -80.2285 -53.1787 -112.529 -86.2793zM474.483 142.301c8.7373 37.3994 14.9336 75.9863 15.2451 114.522c-55.5977 -42.0664 -104.484 -92.3945 -143.49 -150.977c-29.0059 -43.5586 -54.6836 -94.3438 -54.6641 -147.878
c0.00585938 -15.874 0.8125 -46.7656 17.8486 -55.0967c18.4844 -9.03516 42.3525 13.2461 54.9502 24.3965c61.4902 54.4102 91.9121 137.121 110.11 215.032z" />
    <glyph glyph-name="H" unicode="H" horiz-adv-x="584" 
d="M459.512 653.89c5.93066 41.4062 83.2979 41.5879 78.1484 0.00390625c-17.627 -141.846 -27.5137 -284.605 -26.5742 -427.581c9.93066 1.11719 19.8682 2.25391 29.7988 3.36523c48.6191 5.44141 59.2861 -51.1279 9.32715 -56.5312
c-12.7373 -1.38379 -25.4814 -2.72949 -38.2188 -4.10059c1.42188 -54.7344 4.29785 -109.437 8.34277 -164.024c2.74316 -37.0312 6.43848 -73.9424 10.2861 -110.866c2.7998 -26.9033 -0.94043 -73.0215 16.8828 -94.3311
c22.4971 -26.9033 -27.8369 -45.5781 -47.5273 -30.0723c-27.1953 21.4307 -29.71 53.9414 -35.0312 86.0586c-5.83496 35.2344 -10.6611 70.5645 -14.7373 106.047c-7.60059 66.1387 -12.4902 132.461 -15.0811 198.955
c-76.6475 -8.17871 -153.295 -16.376 -229.923 -24.7764c0.679688 -12.4521 1.41602 -24.8975 2.24805 -37.3301c1.64453 -24.4658 3.77148 -48.8867 6.15918 -73.2949c1.77832 -18.1094 -1.28906 -64.8496 12.4453 -78.8701
c23.71 -24.1924 -10.2861 -44.6445 -33.8115 -35.9326c-44.8037 16.585 -43 87.1299 -48.3721 127c-4.05762 30.1104 -7.43555 60.2773 -10.1211 90.502c-34.4473 -3.86035 -68.9004 -7.7334 -103.328 -11.7656c-47.9463 -5.61328 -58.4609 50.6514 -9.2002 55.7314
c36.1611 3.72754 72.3096 7.61328 108.458 11.5244c-0.755859 12.5596 -1.4668 25.1191 -1.97461 37.6982c-4.93359 122.733 0.393555 246.063 19.1191 367.514c6.07617 39.4316 79.8662 40.3711 75.1543 0c-12.5723 -107.824 -20.7002 -215.928 -20.5537 -324.533
c0.0322266 -24.2236 0.546875 -48.4473 1.35938 -72.665c76.9141 8.51465 153.815 17.2139 230.704 25.9316c-2.74316 145.896 5.31445 291.856 26.0205 436.344z" />
    <glyph glyph-name="I" unicode="I" horiz-adv-x="239" 
d="M18.2871 660.202c30.3701 5.39062 61.2148 9.65527 92.1631 12.1318c16.1094 16.7119 49.1846 17.6006 64.3027 2.21484c11.8164 -0.152344 23.6201 -0.520508 35.3857 -1.39062c41.6094 -3.06641 42.5684 -53.8516 0 -54.9121
c-9.91211 -0.248047 -19.7793 -0.53418 -29.6338 -0.858398c-7.67676 -129.763 -17.709 -259.31 -18.7568 -389.402c-0.578125 -71.6689 0.825195 -143.478 5.32715 -215.014c2.18457 -34.6562 4.82617 -69.332 8.07715 -103.899
c1.20605 -12.8643 2.49512 -25.7227 3.73926 -38.5811c21.7666 4.32422 43.4062 9.44238 64.9004 15.4424c40.416 11.2832 62.9893 -44.1309 18.7256 -55.7002c-24.8525 -6.49609 -49.8828 -11.7666 -75.0596 -15.9258c7.37207 -14.5596 -9.68359 -33.3164 -26.542 -32.1611
c-20.4844 1.40918 -31.0947 10.4258 -37.8193 24.1162c-23.3799 -2.03809 -46.8672 -3.20605 -70.4756 -3.3457c-40.5303 -0.241211 -39.9775 50.8994 0 52.4746c18.8271 0.736328 37.5332 2.22852 56.1504 4.2793c-5.51172 28.4785 -9.49316 57.3252 -13.2393 86.0195
c-10.0703 77.123 -13.9502 155.339 -15.0742 233.06c-2.0957 144.627 4.31152 289.927 17.3027 434.077c-20.3633 -1.7334 -40.7207 -4.0127 -61.1416 -7.14355c-39.6924 -6.08887 -62.9512 46.6006 -18.332 54.5186z" />
    <glyph glyph-name="I" unicode="&#xcf;" horiz-adv-x="239" 
d="M18.2871 660.202c30.3701 5.39062 61.2148 9.65527 92.1631 12.1318c16.1094 16.7119 49.1846 17.6006 64.3027 2.21484c11.8164 -0.152344 23.6201 -0.520508 35.3857 -1.39062c41.6094 -3.06641 42.5684 -53.8516 0 -54.9121
c-9.91211 -0.248047 -19.7793 -0.53418 -29.6338 -0.858398c-7.67676 -129.763 -17.709 -259.31 -18.7568 -389.402c-0.578125 -71.6689 0.825195 -143.478 5.32715 -215.014c2.18457 -34.6562 4.82617 -69.332 8.07715 -103.899
c1.20605 -12.8643 2.49512 -25.7227 3.73926 -38.5811c21.7666 4.32422 43.4062 9.44238 64.9004 15.4424c40.416 11.2832 62.9893 -44.1309 18.7256 -55.7002c-24.8525 -6.49609 -49.8828 -11.7666 -75.0596 -15.9258c7.37207 -14.5596 -9.68359 -33.3164 -26.542 -32.1611
c-20.4844 1.40918 -31.0947 10.4258 -37.8193 24.1162c-23.3799 -2.03809 -46.8672 -3.20605 -70.4756 -3.3457c-40.5303 -0.241211 -39.9775 50.8994 0 52.4746c18.8271 0.736328 37.5332 2.22852 56.1504 4.2793c-5.51172 28.4785 -9.49316 57.3252 -13.2393 86.0195
c-10.0703 77.123 -13.9502 155.339 -15.0742 233.06c-2.0957 144.627 4.31152 289.927 17.3027 434.077c-20.3633 -1.7334 -40.7207 -4.0127 -61.1416 -7.14355c-39.6924 -6.08887 -62.9512 46.6006 -18.332 54.5186z" />
    <glyph glyph-name="I" unicode="&#xce;" horiz-adv-x="239" 
d="M18.2871 660.202c30.3701 5.39062 61.2148 9.65527 92.1631 12.1318c16.1094 16.7119 49.1846 17.6006 64.3027 2.21484c11.8164 -0.152344 23.6201 -0.520508 35.3857 -1.39062c41.6094 -3.06641 42.5684 -53.8516 0 -54.9121
c-9.91211 -0.248047 -19.7793 -0.53418 -29.6338 -0.858398c-7.67676 -129.763 -17.709 -259.31 -18.7568 -389.402c-0.578125 -71.6689 0.825195 -143.478 5.32715 -215.014c2.18457 -34.6562 4.82617 -69.332 8.07715 -103.899
c1.20605 -12.8643 2.49512 -25.7227 3.73926 -38.5811c21.7666 4.32422 43.4062 9.44238 64.9004 15.4424c40.416 11.2832 62.9893 -44.1309 18.7256 -55.7002c-24.8525 -6.49609 -49.8828 -11.7666 -75.0596 -15.9258c7.37207 -14.5596 -9.68359 -33.3164 -26.542 -32.1611
c-20.4844 1.40918 -31.0947 10.4258 -37.8193 24.1162c-23.3799 -2.03809 -46.8672 -3.20605 -70.4756 -3.3457c-40.5303 -0.241211 -39.9775 50.8994 0 52.4746c18.8271 0.736328 37.5332 2.22852 56.1504 4.2793c-5.51172 28.4785 -9.49316 57.3252 -13.2393 86.0195
c-10.0703 77.123 -13.9502 155.339 -15.0742 233.06c-2.0957 144.627 4.31152 289.927 17.3027 434.077c-20.3633 -1.7334 -40.7207 -4.0127 -61.1416 -7.14355c-39.6924 -6.08887 -62.9512 46.6006 -18.332 54.5186z" />
    <glyph glyph-name="I" unicode="&#xcd;" horiz-adv-x="239" 
d="M18.2871 660.202c30.3701 5.39062 61.2148 9.65527 92.1631 12.1318c16.1094 16.7119 49.1846 17.6006 64.3027 2.21484c11.8164 -0.152344 23.6201 -0.520508 35.3857 -1.39062c41.6094 -3.06641 42.5684 -53.8516 0 -54.9121
c-9.91211 -0.248047 -19.7793 -0.53418 -29.6338 -0.858398c-7.67676 -129.763 -17.709 -259.31 -18.7568 -389.402c-0.578125 -71.6689 0.825195 -143.478 5.32715 -215.014c2.18457 -34.6562 4.82617 -69.332 8.07715 -103.899
c1.20605 -12.8643 2.49512 -25.7227 3.73926 -38.5811c21.7666 4.32422 43.4062 9.44238 64.9004 15.4424c40.416 11.2832 62.9893 -44.1309 18.7256 -55.7002c-24.8525 -6.49609 -49.8828 -11.7666 -75.0596 -15.9258c7.37207 -14.5596 -9.68359 -33.3164 -26.542 -32.1611
c-20.4844 1.40918 -31.0947 10.4258 -37.8193 24.1162c-23.3799 -2.03809 -46.8672 -3.20605 -70.4756 -3.3457c-40.5303 -0.241211 -39.9775 50.8994 0 52.4746c18.8271 0.736328 37.5332 2.22852 56.1504 4.2793c-5.51172 28.4785 -9.49316 57.3252 -13.2393 86.0195
c-10.0703 77.123 -13.9502 155.339 -15.0742 233.06c-2.0957 144.627 4.31152 289.927 17.3027 434.077c-20.3633 -1.7334 -40.7207 -4.0127 -61.1416 -7.14355c-39.6924 -6.08887 -62.9512 46.6006 -18.332 54.5186z" />
    <glyph glyph-name="J" unicode="J" horiz-adv-x="489" 
d="M8.52441 545.387c-26.1162 3.23242 -25.9541 40.7344 0.00390625 44.0684c79.917 10.2988 159.955 15.4424 239.783 27.7803c26.2812 4.06348 52.5498 8.15234 78.8564 11.9492c9.17578 6.03809 22.4912 7.8418 33.8955 4.66699
c41.6162 5.43555 83.3594 9.6582 125.413 11.0674c47.3564 1.58789 46.8359 -59.6865 0.000976562 -61.4199c-30.8281 -1.13672 -61.5039 -3.56836 -92.1035 -6.67969c0.324219 -1.16211 0.623047 -2.33691 0.94043 -3.50488
c12.7568 -8.1084 19.8555 -22.3828 10.1025 -39.1338c-0.197266 -0.342773 -0.381836 -0.685547 -0.579102 -1.02246c8.62305 -42.1113 13.6143 -85.042 18.3066 -127.826c7.88672 -71.9297 11.8174 -144.481 10.7637 -216.855
c-1.78418 -122.447 -15.1689 -255.124 -73.8398 -364.745c-24.1602 -45.1338 -69.999 -80.9268 -123.508 -62.9258c-48.9883 16.4775 -72.3555 73.333 -81.6963 119.914c-23.9004 119.184 5.39062 241.6 40.543 355.583c33.418 108.37 79.9424 212.568 135.864 311.173
c-1.52344 7.20703 -3.18066 14.3691 -4.93945 21.4932c-25.7734 -3.23828 -51.5342 -6.6543 -77.333 -9.9502c-51.2607 -6.54004 -104.483 -13.8545 -157.218 -15.8867c-2.35547 -5.7207 -8.42578 -9.93652 -18.3691 -9.14258
c-22.2812 1.77832 -42.8672 8.67383 -64.8877 11.3975zM354.326 287.666c-1.42188 45.292 -2.78223 92.0059 -6.43359 138.568c-31.5195 -64.792 -58.7783 -131.546 -81.7197 -200.116c-32.5293 -97.2393 -62.2715 -201.361 -52.3535 -304.887
c2.33691 -24.4082 26.2939 -137.808 62.5381 -89.0098c27.875 37.5264 41.667 92.3311 52.4111 136.97c24.8975 103.43 28.8721 212.53 25.5576 318.475z" />
    <glyph glyph-name="K" unicode="K" horiz-adv-x="497" 
d="M338.299 472.841c29.7734 35.1836 59.0664 73.2432 93.6465 103.83c16.7314 14.8076 50.252 -0.984375 37.5908 -23.7861c-20.9541 -37.7295 -50.6514 -71.9541 -77.0918 -105.995c-25.6973 -33.0752 -51.4639 -66.0938 -77.1924 -99.1377
c-50.7148 -65.1348 -104.167 -128.606 -152.583 -195.462c-2.32422 -3.16895 -4.56543 -6.40137 -6.82617 -9.62109c6.72461 -6.0957 17.1826 -10.1152 25.3418 -13.7158c16.1787 -7.14941 32.8779 -13.2773 49.4883 -19.3418
c34.3643 -12.5469 69.2432 -23.6396 103.849 -35.4883c68.2656 -23.3799 134.468 -49.4902 195.311 -88.7441c39.4697 -25.4619 -16.9727 -72.583 -49.8955 -53.0264c-71.8916 42.708 -149.694 70.6084 -228.113 98.6553
c-39.7305 14.2041 -81.1875 27.3672 -118.835 46.6064c-9.84863 5.0293 -21.1826 11.4492 -31.1641 19.3164c0.431641 -101.506 5.49902 -202.936 24.1289 -302.873c6.52734 -35.0312 -48.8418 -44.6768 -60.5127 -13.6777c-47.3691 125.774 -42.0547 273.1 -42.417 405.478
c-0.393555 144.36 8.59766 287.959 25.5322 431.284c4.97852 42.1299 83.2256 42.1299 78.876 0c-14.3506 -139.026 -22.5166 -279.018 -24.8213 -418.755c-0.0380859 -2.39355 -0.0703125 -4.78711 -0.108398 -7.18066c1.92383 2.28613 3.80957 4.54004 5.5625 6.74316
c13.8994 17.4805 28.3389 34.5361 42.6387 51.6934c31.0947 37.3047 62.1572 74.6348 93.4932 111.742c31.3672 37.1523 62.6904 74.3359 94.1025 111.456z" />
    <glyph glyph-name="L" unicode="L" horiz-adv-x="156" 
d="M376.494 -48.6465c41.5713 -6.14648 28.9658 -62.6016 -9.82422 -59.5342c-81.543 6.4707 -162.146 9.54395 -243.732 1.53027c-81.7461 -8.03223 -162.285 -27.1699 -240.844 -50.6953c-28.8018 -8.62305 -55.7432 32.2305 -23.3154 45.3555
c55.1533 22.332 113.146 39.6543 172.433 51.9287c-0.0185547 0.380859 -0.0761719 0.736328 -0.0820312 1.12988c-1.64453 117.825 -0.78125 235.714 -0.286133 353.545c0.248047 58.709 0.686523 117.476 -0.4375 176.179
c-1.06055 55.7695 -8.78809 113.456 -5.25098 169.048c1.37793 21.5762 36.123 24.1416 43.1201 4.78125c19.4365 -53.7881 22.2812 -117.184 26.3135 -173.829c4.02539 -56.6016 5.55566 -113.267 6.97754 -169.976c2.9082 -115.92 6.1084 -231.885 7.06055 -347.843
c89.3779 11.499 180.28 11.3398 267.868 -1.62012z" />
    <glyph glyph-name="M" unicode="M" horiz-adv-x="667" 
d="M638.162 212.199c10.1846 -136.976 20.6299 -273.947 28.6113 -411.075c2.61621 -44.9619 -79.9678 -44.7646 -83.3398 0.000976562c-11.5693 153.764 -20.1543 307.75 -29.2666 461.673c-3.98145 67.3193 -7.96289 134.639 -11.4424 201.983
c-1.74023 33.5898 -3.53711 67.2051 -7.16895 100.655c-1.23145 11.3408 -4.87598 24.3193 -6.32324 36.4023l-2.49609 -3.33398c-67.9922 -90.8008 -102.026 -200.085 -145.731 -303.375c-18.3252 -43.3174 -38.4219 -112.065 -85.2891 -132.937
c-56.5889 -25.208 -89.8994 25.3799 -111.075 68.7676c-31.2275 63.9795 -51.0449 132.334 -73.1797 199.863c-6.83203 -78.6475 -12.7939 -157.364 -13.835 -236.322c-0.793945 -59.96 0.990234 -120.161 6.55859 -179.88
c2.59082 -27.8115 6.18457 -55.5088 10.4131 -83.1172c4.18457 -27.2969 6.00098 -60.6133 24.333 -82.5957c10.9912 -13.1758 1.1748 -31.2979 -12.0576 -37.7051c-16.2549 -7.87402 -34.2246 -2.83887 -45.9844 9.88574c-35.8506 38.79 -39.9971 107.97 -47.4707 157.827
c-9.50586 63.4395 -13.792 127.374 -14.3447 191.493c-1.11133 128.994 10.5908 257.702 25.7471 385.668c3.02246 25.5322 33.3926 35.4756 55.2676 29.4307c7.86133 -1.23828 14.96 -4.63574 19.0234 -10.5156c39.0693 -56.5312 62.6143 -120.739 86.1396 -184.846
c11.3027 -30.8027 22.3516 -61.7578 35.0508 -92.0205c6.44531 -15.3604 13.3154 -30.542 20.9287 -45.3555c2.06348 -4.00684 6.03809 -9.62012 9.16211 -14.9668c6.50879 11.1689 14.4648 24.7637 15.1191 26.0908c6.2041 12.6104 12.1348 25.3477 17.9189 38.1611
c10.8711 24.0781 21.126 48.416 31.3428 72.7734c22.2178 52.9883 44.4922 105.855 70.9639 156.9c22.8975 44.1426 50.4873 101.156 92.0586 130.53c20.8203 14.7119 49.1592 18.458 71.459 4.66602c21.1123 -13.0547 27.875 -35.1836 32.3008 -58.4111
c24.6943 -129.629 26.8408 -264.947 36.6064 -396.316z" />
    <glyph glyph-name="N" unicode="N" horiz-adv-x="651" 
d="M45.5713 579.923c6.08301 39.1455 77.9072 41.625 76.4277 1.68555c53.0957 -113.641 80.4883 -238.012 113.062 -358.58c14.6934 -54.4102 30.4727 -108.586 49.5537 -161.638c17.8105 -49.5273 36.0537 -103.607 66.4053 -147.033
c84.0449 -120.257 164.934 66.2842 183.944 137.909c27.3926 103.201 26.9287 213.54 23.1572 319.542c-1.87988 52.8232 -6.06445 105.957 -18.1729 157.529c-12.0957 51.4961 -33.3857 96.8643 -58.5811 143.039c-19.9443 36.5488 35.8887 53.2168 57.8271 27.7168
c87.1689 -101.303 91.0488 -259.213 91.6074 -385.712c0.540039 -122.295 -6.12695 -250.299 -58.4043 -362.993c-23.8555 -51.4385 -57.1406 -105.068 -110.573 -129.801c-50.6387 -23.4365 -109.919 -10.6797 -151.065 25.5645
c-45.667 40.2256 -69.9922 104.053 -91.3086 159.518c-23.5576 61.3066 -41.7559 124.562 -58.3535 188.06c-18.249 69.8086 -35.0566 139.865 -52.6963 209.712c-4.84473 -76.4629 -7.82227 -152.989 -6.75586 -229.909c0.946289 -67.6748 3.9873 -135.375 9.2832 -202.847
c2.73047 -34.7578 6.07031 -69.459 10.0391 -104.097c3.24512 -28.3066 3.82324 -59.2871 18.6494 -84.3555c22.6494 -38.2891 -37.6221 -54.6396 -60.8242 -29.1523c-19.4297 21.3477 -24.4775 49.2041 -28.5352 76.8701
c-5.36523 36.5547 -9.63184 73.3193 -13.3906 110.078c-7.10547 69.4404 -11.8047 139.103 -13.6338 208.879c-3.75293 143.116 0.335938 288.378 22.3379 430.015z" />
    <glyph glyph-name="O" unicode="O" horiz-adv-x="559" 
d="M128.264 688.87c68.9072 48.0859 155.713 51.2666 227.191 6.88867c74.3545 -46.1562 121.641 -126.575 150.862 -207.089c62.9766 -173.518 51.9092 -379.863 -34.0342 -543.818c-38.2695 -73.002 -100.56 -148.328 -183.918 -169.473
c-84.1396 -21.3477 -152.888 30.2119 -185.792 104.414c-38.3652 86.5078 -33.9844 192.097 -24.377 283.971c2.35547 22.4902 5.41602 44.8857 9.0293 67.1855c-59.624 42.5303 -79.8291 127.527 -79.2129 198.219c0.832031 95.8105 39.0762 203.057 120.251 259.702z
M336.646 639.189c-58.7979 47.8389 -131.076 45.8506 -186.833 -6.17871c-54.1182 -50.5117 -78.5713 -131.687 -79.5811 -203.838c-0.545898 -39.0186 4.73047 -95.9629 29.209 -134.506c12.1025 54.9062 28.167 108.904 48.8418 161.321
c15.0234 38.0859 91.3027 25.0752 76.0576 -17.1943c-31.418 -87.124 -55.2607 -176.946 -65.8584 -269.087c-9.45508 -82.165 -15.1191 -172.293 11.9365 -251.861c9.06055 -26.6562 23.1758 -56.1191 47.1777 -72.4951c28.7764 -19.627 61.7314 -6.86426 88.0068 11.0605
c56.0801 38.251 94.4004 101.868 119.266 163.645c54.5752 135.566 64.3789 291.953 22.5029 432.275c-20.7061 69.3828 -53.4072 140.22 -110.726 186.858z" />
    <glyph glyph-name="O" unicode="&#xd6;" horiz-adv-x="559" 
d="M128.264 688.87c68.9072 48.0859 155.713 51.2666 227.191 6.88867c74.3545 -46.1562 121.641 -126.575 150.862 -207.089c62.9766 -173.518 51.9092 -379.863 -34.0342 -543.818c-38.2695 -73.002 -100.56 -148.328 -183.918 -169.473
c-84.1396 -21.3477 -152.888 30.2119 -185.792 104.414c-38.3652 86.5078 -33.9844 192.097 -24.377 283.971c2.35547 22.4902 5.41602 44.8857 9.0293 67.1855c-59.624 42.5303 -79.8291 127.527 -79.2129 198.219c0.832031 95.8105 39.0762 203.057 120.251 259.702z
M336.646 639.189c-58.7979 47.8389 -131.076 45.8506 -186.833 -6.17871c-54.1182 -50.5117 -78.5713 -131.687 -79.5811 -203.838c-0.545898 -39.0186 4.73047 -95.9629 29.209 -134.506c12.1025 54.9062 28.167 108.904 48.8418 161.321
c15.0234 38.0859 91.3027 25.0752 76.0576 -17.1943c-31.418 -87.124 -55.2607 -176.946 -65.8584 -269.087c-9.45508 -82.165 -15.1191 -172.293 11.9365 -251.861c9.06055 -26.6562 23.1758 -56.1191 47.1777 -72.4951c28.7764 -19.627 61.7314 -6.86426 88.0068 11.0605
c56.0801 38.251 94.4004 101.868 119.266 163.645c54.5752 135.566 64.3789 291.953 22.5029 432.275c-20.7061 69.3828 -53.4072 140.22 -110.726 186.858z" />
    <glyph glyph-name="O" unicode="&#xd5;" horiz-adv-x="559" 
d="M128.264 688.87c68.9072 48.0859 155.713 51.2666 227.191 6.88867c74.3545 -46.1562 121.641 -126.575 150.862 -207.089c62.9766 -173.518 51.9092 -379.863 -34.0342 -543.818c-38.2695 -73.002 -100.56 -148.328 -183.918 -169.473
c-84.1396 -21.3477 -152.888 30.2119 -185.792 104.414c-38.3652 86.5078 -33.9844 192.097 -24.377 283.971c2.35547 22.4902 5.41602 44.8857 9.0293 67.1855c-59.624 42.5303 -79.8291 127.527 -79.2129 198.219c0.832031 95.8105 39.0762 203.057 120.251 259.702z
M336.646 639.189c-58.7979 47.8389 -131.076 45.8506 -186.833 -6.17871c-54.1182 -50.5117 -78.5713 -131.687 -79.5811 -203.838c-0.545898 -39.0186 4.73047 -95.9629 29.209 -134.506c12.1025 54.9062 28.167 108.904 48.8418 161.321
c15.0234 38.0859 91.3027 25.0752 76.0576 -17.1943c-31.418 -87.124 -55.2607 -176.946 -65.8584 -269.087c-9.45508 -82.165 -15.1191 -172.293 11.9365 -251.861c9.06055 -26.6562 23.1758 -56.1191 47.1777 -72.4951c28.7764 -19.627 61.7314 -6.86426 88.0068 11.0605
c56.0801 38.251 94.4004 101.868 119.266 163.645c54.5752 135.566 64.3789 291.953 22.5029 432.275c-20.7061 69.3828 -53.4072 140.22 -110.726 186.858z" />
    <glyph glyph-name="O" unicode="&#xd4;" horiz-adv-x="559" 
d="M128.264 688.87c68.9072 48.0859 155.713 51.2666 227.191 6.88867c74.3545 -46.1562 121.641 -126.575 150.862 -207.089c62.9766 -173.518 51.9092 -379.863 -34.0342 -543.818c-38.2695 -73.002 -100.56 -148.328 -183.918 -169.473
c-84.1396 -21.3477 -152.888 30.2119 -185.792 104.414c-38.3652 86.5078 -33.9844 192.097 -24.377 283.971c2.35547 22.4902 5.41602 44.8857 9.0293 67.1855c-59.624 42.5303 -79.8291 127.527 -79.2129 198.219c0.832031 95.8105 39.0762 203.057 120.251 259.702z
M336.646 639.189c-58.7979 47.8389 -131.076 45.8506 -186.833 -6.17871c-54.1182 -50.5117 -78.5713 -131.687 -79.5811 -203.838c-0.545898 -39.0186 4.73047 -95.9629 29.209 -134.506c12.1025 54.9062 28.167 108.904 48.8418 161.321
c15.0234 38.0859 91.3027 25.0752 76.0576 -17.1943c-31.418 -87.124 -55.2607 -176.946 -65.8584 -269.087c-9.45508 -82.165 -15.1191 -172.293 11.9365 -251.861c9.06055 -26.6562 23.1758 -56.1191 47.1777 -72.4951c28.7764 -19.627 61.7314 -6.86426 88.0068 11.0605
c56.0801 38.251 94.4004 101.868 119.266 163.645c54.5752 135.566 64.3789 291.953 22.5029 432.275c-20.7061 69.3828 -53.4072 140.22 -110.726 186.858z" />
    <glyph glyph-name="O" unicode="&#xd3;" horiz-adv-x="559" 
d="M128.264 688.87c68.9072 48.0859 155.713 51.2666 227.191 6.88867c74.3545 -46.1562 121.641 -126.575 150.862 -207.089c62.9766 -173.518 51.9092 -379.863 -34.0342 -543.818c-38.2695 -73.002 -100.56 -148.328 -183.918 -169.473
c-84.1396 -21.3477 -152.888 30.2119 -185.792 104.414c-38.3652 86.5078 -33.9844 192.097 -24.377 283.971c2.35547 22.4902 5.41602 44.8857 9.0293 67.1855c-59.624 42.5303 -79.8291 127.527 -79.2129 198.219c0.832031 95.8105 39.0762 203.057 120.251 259.702z
M336.646 639.189c-58.7979 47.8389 -131.076 45.8506 -186.833 -6.17871c-54.1182 -50.5117 -78.5713 -131.687 -79.5811 -203.838c-0.545898 -39.0186 4.73047 -95.9629 29.209 -134.506c12.1025 54.9062 28.167 108.904 48.8418 161.321
c15.0234 38.0859 91.3027 25.0752 76.0576 -17.1943c-31.418 -87.124 -55.2607 -176.946 -65.8584 -269.087c-9.45508 -82.165 -15.1191 -172.293 11.9365 -251.861c9.06055 -26.6562 23.1758 -56.1191 47.1777 -72.4951c28.7764 -19.627 61.7314 -6.86426 88.0068 11.0605
c56.0801 38.251 94.4004 101.868 119.266 163.645c54.5752 135.566 64.3789 291.953 22.5029 432.275c-20.7061 69.3828 -53.4072 140.22 -110.726 186.858z" />
    <glyph glyph-name="P" unicode="P" horiz-adv-x="733" 
d="M728.633 469.361c-11.7471 -172.229 -146.989 -331.919 -287.33 -421.05c-44.5879 -28.3262 -106.256 -59.8271 -164.647 -61.5674c0.19043 -1.5625 0.336914 -3.125 0.527344 -4.6875c4.375 -36.3965 9.71484 -72.6279 15.1816 -108.872
c4.08301 -27.0625 5.53711 -63.084 26.1611 -83.6758c31.4941 -31.4307 -22.1035 -66.1377 -49.8076 -40.8408c-49.6924 45.3809 -52.7529 122.46 -62.6201 184.922c-4.02539 25.4873 -7.53027 51.0381 -10.8008 76.6084
c-29.6338 23.6465 -26.2236 58.4043 -10.2607 93.1494c-2.04492 22.4463 -3.87988 44.9111 -5.33984 67.4209c-10.2295 157.605 -6.85156 315.401 13.334 472.042c-6.24219 -3.47949 -12.4336 -7.04199 -18.5039 -10.8076
c-57.3379 -35.5771 -121.26 -85.4854 -140.544 -152.837c-6.33105 -22.1094 -48.6963 -14.5596 -42.334 9.56934c22.4209 85.041 99.3916 150.239 172.699 192.465c80.3301 46.2705 174.445 70.666 267.176 68.4053c75.9043 -1.84766 157.358 -21.6523 216.062 -72.2656
c59.5479 -51.3438 86.3311 -130.544 81.0479 -207.979zM258.044 207.416c0.0185547 -0.545898 0.0625 -1.08984 0.0947266 -1.64258c0.0253906 0.0322266 0.0507812 0.0644531 0.0761719 0.0898438c110.517 125.553 247.264 231.758 399.688 301.757
c-0.139648 4.08887 -0.362305 8.17773 -0.699219 12.2666c-12.5469 152.005 -169.601 195.405 -299.071 177.943c-32.123 -4.33008 -63.7949 -12.0645 -94.3496 -22.9414c5.62598 -5.11816 8.88965 -12.3887 7.9248 -21.8945
c-14.998 -147.872 -20.541 -297.071 -13.6641 -445.578zM466.281 156.982c79.4219 68.5322 161.175 171.354 184.897 280.384c-119.571 -63.1924 -228.672 -143.053 -320.216 -243.975c-23.8936 -26.3447 -48.2383 -53.7432 -66.5195 -84.4062
c1.54297 -19.0361 3.25781 -38.0596 5.15039 -57.0645c5.81641 0.799805 11.2012 1.98047 14.3125 2.52637c68.1191 12.0322 131.089 58.2773 182.375 102.535z" />
    <glyph glyph-name="Q" unicode="Q" horiz-adv-x="563" 
d="M11.4512 485.141c24.2617 149.345 136.493 350.019 314.024 330.62c181.259 -19.8047 229.078 -222.36 224.621 -373.648c-4.94043 -167.67 -63.3193 -355.938 -180.179 -480.221c-0.387695 -0.413086 -0.806641 -0.832031 -1.20703 -1.24512
c45.3428 4.41895 91.1494 2.62793 135.788 -7.75977c45.3877 -10.5654 22.1475 -64.7979 -18.9219 -56.2891c-62.9893 13.0488 -125.292 10.1787 -187.748 -4.6543c-49.0195 -11.6387 -100.547 -26.1221 -144.537 -51.8887
c1.5625 -7.51172 -2.49512 -15.4297 -15.1182 -18.6553c-11.5371 -2.94629 -18.623 -2.68555 -30.332 -0.761719c-14.2871 2.34961 -21.4434 16.7256 -14.3633 28.9551c16.2744 28.1289 49.1533 43.082 77.7207 55.75c7.14941 3.16895 14.3623 6.20996 21.6006 9.19434
c-7.14355 6.19141 -13.8047 14.0146 -19.7793 23.8252c-36.9746 60.6963 -32.2061 138.95 -20.167 209.533c-34.2441 14.7695 -64.8623 40.0664 -87.6133 71.5801c-54.5186 75.5107 -68.4502 175.385 -53.7891 265.665zM291.055 761.217
c-129.305 -13.9375 -203.835 -188.598 -216.414 -300.346c-7.25098 -64.418 1.52441 -131.953 32.2002 -189.697c13.3721 -25.1768 33.3105 -50.3408 57.3564 -67.3076c12.7949 32.3389 77.0918 18.998 71.6055 -20.0908c8.24219 1.10449 16.6299 3.39062 25.126 7.09863
c28.7383 12.5469 62.7031 -23.7354 28.916 -40.5684c-20.3828 -10.1592 -41.2539 -15.3848 -61.9033 -16.4707c-3.27637 -24.6182 -5.37207 -49.3945 -4.97168 -74.1836c0.291992 -17.9248 1.74609 -35.7803 5.70801 -53.2861
c2.04492 -9.05469 8.44531 -43.0762 20.1543 -46.8857c23.6523 -7.69629 66.9004 45.9336 78.8184 60.665c22.4902 27.8184 41.8311 58.3096 59.2734 89.499c63.7568 113.996 96.3115 246.165 94.3877 376.613c-0.984375 66.8623 -10.541 138.271 -48.1377 195.31
c-30.9043 46.8799 -83.4102 85.9814 -142.119 79.6504z" />
    <glyph glyph-name="R" unicode="R" horiz-adv-x="710" 
d="M172.306 603.645c16.1094 15.1123 32.9814 29.5391 50.5508 43.0508c1.28906 9.08008 2.62891 18.1475 4.04492 27.2021c4.79395 30.6689 50.7344 38.0342 68.3164 20.4834c58.125 32.2119 121.851 53.3115 189.487 56.8867
c105.177 5.5498 217.643 -40.7588 226.081 -158.647c8.02637 -112.136 -87.0156 -207.032 -163.511 -275.907c-72.0566 -64.8809 -152.838 -118.904 -234.482 -171.048c132.378 -37.7803 255.822 -110.129 383.902 -158.189
c44.4541 -16.6807 6.74316 -72.082 -31.2471 -60.7793c-133.026 39.584 -250.21 117.476 -382.303 158.215c1.83496 -27.5957 3.91797 -55.1787 6.54004 -82.6982c3.42871 -36.0156 7.14355 -72.2148 13.2139 -107.894c5.12402 -30.123 10.1719 -63.3955 27.8115 -89.042
c22.668 -32.9678 -35.9902 -53.1602 -56.5439 -27.1006c-40.8857 51.8262 -46.6768 131.077 -54.4619 194.364c-5.42871 44.1436 -9.63184 88.458 -12.8262 132.836c-19.5947 10.5781 -20.6865 35.5898 -3.15527 50.2578
c-0.787109 15.2012 -1.54883 30.3955 -2.06348 45.6025c-4.0957 121.107 -1.32129 243.181 11.2129 363.978c-1.69531 -1.59375 -3.41602 -3.16211 -5.09277 -4.76855c-36.2627 -34.7832 -70.6719 -72.7031 -100.636 -113.087
c-20.5986 -27.7607 -73.9932 -94.6104 -53.8076 -130.987c15.7539 -28.3896 -31.9639 -46.416 -46.6885 -22.376c-31.4375 51.3057 7.5752 116.466 36.6123 160.38c36.085 54.5752 81.4092 104.566 129.045 149.269zM594.13 680.495
c-39.6289 21.9189 -89.9756 23.4033 -133.77 17.2695c-59.3691 -8.31836 -113.754 -32.3516 -163.015 -64.9004c-14.3633 -135.21 -23.2588 -270.521 -20.4395 -406.69c0.177734 -8.375 0.501953 -16.7441 0.743164 -25.1191c70.4434 43.4951 139.389 89.3848 202.765 142.9
c65.4395 55.2549 151.021 130.073 164.405 219.813c6.90234 46.2451 -8.35645 93.3086 -50.6895 116.727z" />
    <glyph glyph-name="S" unicode="S" horiz-adv-x="579" 
d="M4.54883 377.913c-30.9482 174.128 146.659 319.744 292.981 371.266c67.4658 23.748 151.809 37.959 213.261 -8.99707c72.2402 -55.1982 60.9951 -150.71 46.8799 -229.351c-5.87305 -32.7197 -68.7539 -21.9502 -61.9473 14.002
c9.42285 49.7939 21.0107 111.17 -9.58203 156.418c-27.2021 40.2383 -77.4404 39.9902 -120.065 29.9131c-93.0039 -21.9893 -180.884 -86.8135 -235.707 -164.165c-50.2266 -70.8691 -69.542 -173.709 6.41895 -234.698c39.0762 -31.3799 87.2637 -49.1777 136.15 -64.417
c24.0967 33.2217 51.0508 64.3291 81.2686 92.3506c15.874 14.7188 56.1182 -3.5752 38.5674 -24.4023c-23.1133 -27.4238 -44.9883 -55.4961 -65.1807 -84.5654c14.4707 -4.45703 28.7383 -9.04785 42.543 -14.0771c72.4883 -26.4082 149.745 -66.6904 186.453 -138.156
c40.6699 -79.1875 10.5156 -171.036 -42.0215 -236.635c-51.4004 -64.1768 -125.45 -116.454 -211.247 -110.46c-79.4287 5.5498 -138.881 66.4434 -154.419 142.703c-18.0586 88.6357 17.6777 182.357 56.4932 260.795c8.4834 17.1318 17.6074 33.9463 27.2402 50.4619
c-105.525 33.3799 -207.571 76.5771 -228.087 192.015zM403.303 126.185c-33.4629 17.0684 -73.541 29.9707 -115.239 42.7021c-18.9854 -33.1709 -35.5703 -67.8145 -49.0508 -104.452c-29.4629 -80.0693 -60.9639 -214.238 31.1572 -268.433
c85.4668 -50.2773 185.322 50.0664 218.816 121.202c20.6934 43.9463 25.4365 97.0674 -1.04199 139.629c-19.627 31.5518 -52.1816 52.7979 -84.6416 69.3516z" />
    <glyph glyph-name="T" unicode="T" horiz-adv-x="584" 
d="M75.2793 427.721c38.1621 28.1924 78.0586 53.8789 118.754 78.2549c80.832 48.416 165.017 91.6514 252.871 125.876c88.2607 34.3838 180.356 60.1377 274.427 72.1318c86.7236 11.0488 178.781 14.7637 257.866 -28.5098
c41.7871 -22.8652 -0.96582 -71.1738 -36.9307 -51.8076c-72.0186 38.7773 -157.327 31.5264 -235.562 19.6084c-64.3291 -9.80371 -127.56 -25.8301 -189.209 -46.5557c-12.7061 -134.397 -24.8467 -268.909 -24.2812 -404.037
c0.279297 -67.5801 2.68555 -135.128 9.39746 -202.391c3.41602 -34.25 7.82227 -68.4434 13.2256 -102.439c2.92676 -18.4268 6.34961 -36.7588 9.96289 -55.0654c1.54297 -7.80371 3.34668 -15.5762 4.60352 -23.4375
c0.495117 -3.11816 5.51758 -13.2207 0.647461 -9.7793c29.1455 -20.5791 -12.6865 -47.4893 -35.4688 -37.6914c-27.2148 11.709 -29.5391 48.8232 -35.3994 74.4189c-8.08984 35.3232 -14.8711 70.9326 -20.3125 106.758c-10.75 70.748 -16.9541 142.265 -19.3037 213.774
c-4.50781 137.039 4.28613 274.859 19.4873 411.143c-68.71 -27.8818 -135.299 -60.8623 -199.869 -97.2773c-38.8604 -21.9189 -77.2061 -44.9307 -114.206 -69.8721c-28.1797 -18.998 -62.3408 -38.4785 -84.5264 -65.6865
c10.3311 -12.3818 -6.2793 -33.0566 -23.7539 -27.1328c-3.91113 1.32715 -7.8291 2.6543 -11.7402 3.97461c-10.8896 3.68945 -17.7471 10.5283 -15.5498 22.459c7.74707 42.0352 52.8232 69.6123 84.8701 93.2842z" />
    <glyph glyph-name="U" unicode="U" horiz-adv-x="635" 
d="M37.1748 599.873c14.4648 24.8779 73.2666 9.28809 58.7002 -20.2949c-17.2207 -35 -8.25488 -86.8584 -7.42969 -124.912c1.02246 -47.0703 3.35254 -94.1533 7.25781 -141.077c7.19434 -86.502 19.1826 -174.058 48.2266 -256.223
c20.1543 -57.0137 61.3389 -154.284 132.005 -161.542c39.3105 -4.03223 69.6299 32.085 92.1582 59.3438c20.8145 25.1826 39.9902 51.877 57.8457 79.2246c6.33105 9.70215 12.4395 19.6143 18.4268 29.6279c-3.25781 30.9609 -6.05762 61.9346 -8.39453 92.8516
c-8.40723 111.291 -14.541 225.865 1.19336 336.788c7.86719 55.4521 26.8018 196.479 115.748 169.854c78.4316 -23.4746 74 -155.745 70.082 -218.111c-7.63281 -121.559 -43.5723 -241.809 -99.373 -351.188c10.6416 -85.4922 24.1279 -170.616 39.3926 -255.905
c8.27344 -46.2324 -71.0088 -60.9189 -80.3623 -18.166c-11.4551 52.3721 -20.5605 105.437 -27.9453 158.762c-7.25098 -10.4766 -14.6357 -20.8389 -22.249 -30.9922c-50.4229 -67.2373 -109.907 -127.997 -201.426 -102.23
c-86.3428 24.3066 -135.115 115.914 -162.438 194.656c-31.4883 90.75 -41.8125 190.129 -47.5459 285.495c-3.19434 53.1084 -3.55664 106.363 -2.54688 159.542c0.749023 39.2725 -1.63867 79.5615 18.6738 114.497zM502.776 327.509
c2.10156 -41.9395 5.1709 -83.6699 9.02539 -125.261c33.2402 85.9814 53.4258 177.341 55.8828 267.748c1.02832 37.8564 0.792969 78.1641 -12.5605 114.122c-5.80957 15.6328 -12.5723 39.7363 -28.1416 20.7129c-8.67969 -10.6035 -10.9658 -30.2744 -13.6074 -43.1836
c-15.627 -76.457 -14.4844 -156.59 -10.5986 -234.139z" />
    <glyph glyph-name="U" unicode="&#xdc;" horiz-adv-x="635" 
d="M37.1748 599.873c14.4648 24.8779 73.2666 9.28809 58.7002 -20.2949c-17.2207 -35 -8.25488 -86.8584 -7.42969 -124.912c1.02246 -47.0703 3.35254 -94.1533 7.25781 -141.077c7.19434 -86.502 19.1826 -174.058 48.2266 -256.223
c20.1543 -57.0137 61.3389 -154.284 132.005 -161.542c39.3105 -4.03223 69.6299 32.085 92.1582 59.3438c20.8145 25.1826 39.9902 51.877 57.8457 79.2246c6.33105 9.70215 12.4395 19.6143 18.4268 29.6279c-3.25781 30.9609 -6.05762 61.9346 -8.39453 92.8516
c-8.40723 111.291 -14.541 225.865 1.19336 336.788c7.86719 55.4521 26.8018 196.479 115.748 169.854c78.4316 -23.4746 74 -155.745 70.082 -218.111c-7.63281 -121.559 -43.5723 -241.809 -99.373 -351.188c10.6416 -85.4922 24.1279 -170.616 39.3926 -255.905
c8.27344 -46.2324 -71.0088 -60.9189 -80.3623 -18.166c-11.4551 52.3721 -20.5605 105.437 -27.9453 158.762c-7.25098 -10.4766 -14.6357 -20.8389 -22.249 -30.9922c-50.4229 -67.2373 -109.907 -127.997 -201.426 -102.23
c-86.3428 24.3066 -135.115 115.914 -162.438 194.656c-31.4883 90.75 -41.8125 190.129 -47.5459 285.495c-3.19434 53.1084 -3.55664 106.363 -2.54688 159.542c0.749023 39.2725 -1.63867 79.5615 18.6738 114.497zM502.776 327.509
c2.10156 -41.9395 5.1709 -83.6699 9.02539 -125.261c33.2402 85.9814 53.4258 177.341 55.8828 267.748c1.02832 37.8564 0.792969 78.1641 -12.5605 114.122c-5.80957 15.6328 -12.5723 39.7363 -28.1416 20.7129c-8.67969 -10.6035 -10.9658 -30.2744 -13.6074 -43.1836
c-15.627 -76.457 -14.4844 -156.59 -10.5986 -234.139z" />
    <glyph glyph-name="U" unicode="&#xdb;" horiz-adv-x="635" 
d="M37.1748 599.873c14.4648 24.8779 73.2666 9.28809 58.7002 -20.2949c-17.2207 -35 -8.25488 -86.8584 -7.42969 -124.912c1.02246 -47.0703 3.35254 -94.1533 7.25781 -141.077c7.19434 -86.502 19.1826 -174.058 48.2266 -256.223
c20.1543 -57.0137 61.3389 -154.284 132.005 -161.542c39.3105 -4.03223 69.6299 32.085 92.1582 59.3438c20.8145 25.1826 39.9902 51.877 57.8457 79.2246c6.33105 9.70215 12.4395 19.6143 18.4268 29.6279c-3.25781 30.9609 -6.05762 61.9346 -8.39453 92.8516
c-8.40723 111.291 -14.541 225.865 1.19336 336.788c7.86719 55.4521 26.8018 196.479 115.748 169.854c78.4316 -23.4746 74 -155.745 70.082 -218.111c-7.63281 -121.559 -43.5723 -241.809 -99.373 -351.188c10.6416 -85.4922 24.1279 -170.616 39.3926 -255.905
c8.27344 -46.2324 -71.0088 -60.9189 -80.3623 -18.166c-11.4551 52.3721 -20.5605 105.437 -27.9453 158.762c-7.25098 -10.4766 -14.6357 -20.8389 -22.249 -30.9922c-50.4229 -67.2373 -109.907 -127.997 -201.426 -102.23
c-86.3428 24.3066 -135.115 115.914 -162.438 194.656c-31.4883 90.75 -41.8125 190.129 -47.5459 285.495c-3.19434 53.1084 -3.55664 106.363 -2.54688 159.542c0.749023 39.2725 -1.63867 79.5615 18.6738 114.497zM502.776 327.509
c2.10156 -41.9395 5.1709 -83.6699 9.02539 -125.261c33.2402 85.9814 53.4258 177.341 55.8828 267.748c1.02832 37.8564 0.792969 78.1641 -12.5605 114.122c-5.80957 15.6328 -12.5723 39.7363 -28.1416 20.7129c-8.67969 -10.6035 -10.9658 -30.2744 -13.6074 -43.1836
c-15.627 -76.457 -14.4844 -156.59 -10.5986 -234.139z" />
    <glyph glyph-name="U" unicode="&#xda;" horiz-adv-x="635" 
d="M37.1748 599.873c14.4648 24.8779 73.2666 9.28809 58.7002 -20.2949c-17.2207 -35 -8.25488 -86.8584 -7.42969 -124.912c1.02246 -47.0703 3.35254 -94.1533 7.25781 -141.077c7.19434 -86.502 19.1826 -174.058 48.2266 -256.223
c20.1543 -57.0137 61.3389 -154.284 132.005 -161.542c39.3105 -4.03223 69.6299 32.085 92.1582 59.3438c20.8145 25.1826 39.9902 51.877 57.8457 79.2246c6.33105 9.70215 12.4395 19.6143 18.4268 29.6279c-3.25781 30.9609 -6.05762 61.9346 -8.39453 92.8516
c-8.40723 111.291 -14.541 225.865 1.19336 336.788c7.86719 55.4521 26.8018 196.479 115.748 169.854c78.4316 -23.4746 74 -155.745 70.082 -218.111c-7.63281 -121.559 -43.5723 -241.809 -99.373 -351.188c10.6416 -85.4922 24.1279 -170.616 39.3926 -255.905
c8.27344 -46.2324 -71.0088 -60.9189 -80.3623 -18.166c-11.4551 52.3721 -20.5605 105.437 -27.9453 158.762c-7.25098 -10.4766 -14.6357 -20.8389 -22.249 -30.9922c-50.4229 -67.2373 -109.907 -127.997 -201.426 -102.23
c-86.3428 24.3066 -135.115 115.914 -162.438 194.656c-31.4883 90.75 -41.8125 190.129 -47.5459 285.495c-3.19434 53.1084 -3.55664 106.363 -2.54688 159.542c0.749023 39.2725 -1.63867 79.5615 18.6738 114.497zM502.776 327.509
c2.10156 -41.9395 5.1709 -83.6699 9.02539 -125.261c33.2402 85.9814 53.4258 177.341 55.8828 267.748c1.02832 37.8564 0.792969 78.1641 -12.5605 114.122c-5.80957 15.6328 -12.5723 39.7363 -28.1416 20.7129c-8.67969 -10.6035 -10.9658 -30.2744 -13.6074 -43.1836
c-15.627 -76.457 -14.4844 -156.59 -10.5986 -234.139z" />
    <glyph glyph-name="V" unicode="V" horiz-adv-x="702" 
d="M304.743 -133.669c74.3359 -55.4961 150.811 40.0723 187.849 97.6133c8.19727 12.7373 15.8936 25.8242 23.3477 39.0635c-32.2568 105.151 -45.585 216.373 -51.2871 325.753c-6.1084 117.139 -11.0869 243.015 17.6836 357.69
c8.77539 34.9678 24.4717 79.3711 61.6621 92.4707c41.1201 14.4834 73.1484 -17.125 90.7305 -50.8037c44.4229 -85.0859 51.5723 -192.11 51.2422 -286.447c-0.349609 -100.465 -16.2109 -201.78 -45.4512 -297.87c-12.9473 -42.5361 -28.5293 -86.2666 -47.7178 -128.314
c3.11133 -10.1973 6.32422 -20.3633 9.70898 -30.4844c9.34082 -27.9326 -20.833 -43.0957 -46.1426 -38.9688c-13.9443 -23.0625 -29.3105 -45.001 -46.4297 -65.1426c-58.5439 -68.9072 -148.761 -122.327 -237.796 -74.8691
c-82.5908 44.0156 -124.309 145.395 -152.933 229.16c-71.1035 208.073 -91.1748 431.868 -115.043 649.098c-3.89258 35.4443 61.1406 34.8223 65.9795 0.000976562c28.6113 -205.934 54.7979 -417.715 120.479 -615.807
c22.8652 -68.958 53.3887 -156.806 114.117 -202.143zM528.461 524.107c-0.324219 -137.839 9.17773 -276.937 38.9639 -411.582c41.7178 108.415 62.3096 225.992 62.2646 340.312c-0.0322266 82.21 -6.52832 172.16 -41.1025 247.905
c-2.13965 4.69922 -14.9785 35.2031 -23.3857 35.1709c-5.74609 -0.0253906 -13.5566 -23.2148 -15.1699 -27.4375c-6.6543 -17.3857 -10.4326 -35.9014 -13.1885 -54.252c-6.45117 -42.9619 -8.28027 -86.7236 -8.38184 -130.117z" />
    <glyph glyph-name="W" unicode="W" horiz-adv-x="957" 
d="M236.595 -71.0859c24.8652 12.9658 38.6572 63.5205 48.4609 87.7061c49.3057 121.622 70.1201 252.299 110.11 376.911c13.0488 40.6699 29.0693 130.131 84.0195 131.864c59.8779 1.88574 61.6943 -86.9082 68.9141 -127.769
c22.7188 -128.556 32.3574 -259.816 65.6104 -386.359c8.59082 -32.6943 18.7627 -65.0459 30.8965 -96.6035c4.84473 -12.5977 21.8809 -68.4111 41.082 -69.2617c12.0322 -0.533203 40.168 51.1787 46.6133 62.6777c14.4775 25.8115 25.8242 53.4141 36.2314 81.0801
c0.723633 1.91797 1.37793 3.84863 2.08301 5.7666c-31.8438 82.7871 -36.6318 177.182 -40.3398 264.122c-4.95312 116.047 2.05664 232.621 20.541 347.284c7.90527 49.0576 15.5254 98.9785 30.0596 146.602c10.6289 34.8281 25.1445 82.5654 69.1348 83.3975
c43.292 0.825195 61.166 -40.3145 70.0303 -75.5488c12.083 -48.0225 18.2549 -97.7783 20.6865 -147.191c4.99121 -101.348 -6.66699 -203.883 -18.9287 -304.354c-11.874 -97.3027 -28.0654 -194.726 -57.5029 -288.409
c-3.66406 -11.6582 -7.53125 -23.2715 -11.6074 -34.8027c2.31738 -4.69238 4.72363 -9.34668 7.32031 -13.9248c14.084 -24.8213 -8.17188 -43.9971 -31.0752 -45.8066c-5.7334 -12.8584 -11.7969 -25.5645 -18.3438 -38.042
c-19.0684 -36.333 -43.2227 -78.584 -81.0732 -98.1787c-91.7344 -47.4893 -143.611 52.5059 -168.204 122.987c-31.3359 89.8232 -45.21 185.101 -56.7598 279.178c-6.01953 49.0195 -10.8838 98.1729 -16.9609 147.187
c-3.42871 27.6152 -7.11816 55.2305 -11.6904 82.6865c-0.222656 1.3457 -0.463867 2.69141 -0.692383 4.03711c-3.77148 -10.3115 -7.42871 -20.6611 -10.8828 -31.0869c-9.42285 -28.4023 -17.7666 -57.1533 -25.583 -86.0381
c-15.1885 -56.0996 -28.3447 -112.727 -43.5078 -168.832c-13.6006 -50.334 -28.8018 -100.439 -48.1113 -148.906c-16.0771 -40.3584 -34.0723 -90.6162 -72.8564 -114.707c-103.589 -64.3545 -150.882 85.708 -169.43 157.288
c-56.792 219.217 -85.6953 446.384 -98.7949 672.198c-1.82227 31.3867 53.4199 30.0469 57.293 0c20.6553 -160.26 39.7676 -320.469 72.0049 -478.944c15.5 -76.1709 33.1396 -152.399 56.1064 -226.703c4.85156 -15.6963 10.0713 -31.4248 17.5254 -46.1055
c3.80371 -7.50488 9.73438 -22.9092 18.0908 -26.4521c9.00391 -3.82227 1.14258 -3.32031 9.53027 1.05469zM809.915 162.613c0.837891 -7.47363 1.7168 -14.9746 2.65625 -22.4795c18.1729 82.3623 28.7637 166.527 37.3799 250.356
c6.81934 66.3418 12.0391 132.925 11.1816 199.666c-0.444336 35.0508 -2.07031 70.1016 -6.49609 104.892c-1.71484 13.4678 -3.87988 26.8779 -6.3623 40.2314c-0.317383 -1.01562 -0.660156 -2.03125 -0.97168 -3.04688
c-4.89551 -15.9951 -8.7627 -32.2881 -12.3945 -48.6006c-7.73438 -34.7393 -14.2432 -69.7324 -19.2148 -104.979c-9.56934 -67.8213 -15.0684 -136.277 -16.04 -204.765c-0.99707 -70.5518 2.40039 -141.154 10.2617 -211.274z" />
    <glyph glyph-name="X" unicode="X" horiz-adv-x="500" 
d="M548.933 726.842c-108.992 -122.815 -204.495 -255.136 -287.371 -394.911c87.2324 -155.688 178.738 -308.386 299.16 -441.646c28.8594 -31.9326 -37.2031 -64.8877 -62.1318 -39.3115c-114.009 116.98 -197.869 259.112 -273.964 402.641
c-1.25684 2.375 -2.52637 4.74316 -3.7832 7.12402c-76.5967 -138.544 -141.363 -283.812 -194.986 -433.964c-13.6709 -38.3018 -89.2637 -24.9736 -75.0977 16.9785c57.7119 170.877 136.981 333.969 233.142 486.514c-68.043 127.959 -136.454 255.556 -206.192 382.677
c-16.2109 29.5576 32.2305 47.54 48.4033 23.2021c72.8564 -109.628 136.283 -225.479 200.23 -340.909c85.2637 126.264 182.071 244.736 287.724 353.665c14.0332 14.4707 50.8174 -4.08301 34.8672 -22.0586z" />
    <glyph glyph-name="Y" unicode="Y" horiz-adv-x="639" 
d="M69.0205 731.864c4.63574 -131.242 6.60449 -269.062 41.1025 -396.589c8.07031 -29.8184 18.4268 -60.0869 34.1426 -86.8252c5.51172 -9.38477 14.9033 -28.2432 25.4502 -32.5928c12.2041 -5.03516 18.8779 4.95898 27.666 14.4834
c37.6279 40.7715 63.8711 93.1562 85.8154 143.554c40.0859 92.0391 68.2471 188.624 106.555 281.367c12.7568 30.8848 28.2119 89.8857 65.9355 98.2041c48.6064 10.7119 68.71 -50.3594 79.1299 -85.6191c21.3984 -72.4121 33.3291 -147.542 39.5137 -223.033
c24.2305 26.1611 86.9277 0.813477 59.7578 -29.6084c-18.9346 -21.2012 -37.1777 -43.0254 -54.7344 -65.376c0.203125 -7.72754 0.368164 -15.4551 0.482422 -23.1699c1.61914 -108.415 -2.8252 -217.528 -26.2178 -323.746
c-20.7314 -94.1406 -57.877 -208.956 -140.575 -267.157c-35.4951 -24.9795 -89.5947 -36.5488 -118.683 4.83203c-25.6777 36.543 -16.0703 92.8711 -9.20605 133.63c18.001 106.923 61.6104 211.692 110.903 307.719c31.3418 61.0586 67.3828 119.311 107.741 174.534
c-0.0634766 5.87305 -0.133789 11.7461 -0.222656 17.6006c-0.926758 59.1152 -3.83496 118.225 -11.0479 176.934c-4.02539 32.7773 -9.2959 65.2686 -15.957 97.6074c-2.66016 12.9092 -5.01562 25.9766 -8.71777 38.6377
c-1.4668 5.0166 -2.88867 10.2363 -5.04785 15.0176c-0.235352 0.527344 -0.451172 0.99707 -0.679688 1.49902c-11.4424 -17.5186 -18.1162 -42.873 -24.4219 -59.3506c-9.68945 -25.3037 -17.9316 -51.0957 -25.8369 -77.0029
c-15.8232 -51.8516 -29.7549 -104.274 -46.5117 -155.834c-15.2266 -46.8477 -33.6982 -92.3623 -57.0781 -135.75c-22.1289 -41.0693 -51.3506 -94.9971 -95.1826 -116.269c-114.187 -55.4199 -169.556 117.14 -183.982 196.225
c-22.4775 123.247 -27.7734 251.81 -12.1787 376.079c3.44141 27.418 51.0703 28.7637 52.0859 0zM477.585 31.5322c14.915 68.3223 21.9521 138.754 24.7715 209.229c-27.291 -43.2861 -51.9854 -88.21 -73.6377 -134.658
c-23.0303 -49.4199 -42.5488 -100.643 -58.5566 -152.761c-9.86719 -32.1172 -18.1221 -64.6846 -21.5635 -98.1729c-1.42188 -13.8555 -2.06348 -27.7549 -1.7207 -41.6738c0.260742 -10.4512 5.03613 -23.7598 4.12207 -33.5322
c0.19043 -0.387695 0.375 -0.78125 0.56543 -1.1748c2.90137 2.17188 7.7207 4.85742 9.16797 6.02539c10.3242 8.33691 19.0801 18.2744 27.2139 28.707c14.4326 18.5156 26.167 38.7715 36.3516 59.8711c24.249 50.2393 41.3994 103.704 53.2861 158.14zM457.891 712.811
c-9.3916 19.3027 -4.00684 1.7334 0 0z" />
    <glyph glyph-name="Y" unicode="&#x178;" horiz-adv-x="639" 
d="M69.0205 731.864c4.63574 -131.242 6.60449 -269.062 41.1025 -396.589c8.07031 -29.8184 18.4268 -60.0869 34.1426 -86.8252c5.51172 -9.38477 14.9033 -28.2432 25.4502 -32.5928c12.2041 -5.03516 18.8779 4.95898 27.666 14.4834
c37.6279 40.7715 63.8711 93.1562 85.8154 143.554c40.0859 92.0391 68.2471 188.624 106.555 281.367c12.7568 30.8848 28.2119 89.8857 65.9355 98.2041c48.6064 10.7119 68.71 -50.3594 79.1299 -85.6191c21.3984 -72.4121 33.3291 -147.542 39.5137 -223.033
c24.2305 26.1611 86.9277 0.813477 59.7578 -29.6084c-18.9346 -21.2012 -37.1777 -43.0254 -54.7344 -65.376c0.203125 -7.72754 0.368164 -15.4551 0.482422 -23.1699c1.61914 -108.415 -2.8252 -217.528 -26.2178 -323.746
c-20.7314 -94.1406 -57.877 -208.956 -140.575 -267.157c-35.4951 -24.9795 -89.5947 -36.5488 -118.683 4.83203c-25.6777 36.543 -16.0703 92.8711 -9.20605 133.63c18.001 106.923 61.6104 211.692 110.903 307.719c31.3418 61.0586 67.3828 119.311 107.741 174.534
c-0.0634766 5.87305 -0.133789 11.7461 -0.222656 17.6006c-0.926758 59.1152 -3.83496 118.225 -11.0479 176.934c-4.02539 32.7773 -9.2959 65.2686 -15.957 97.6074c-2.66016 12.9092 -5.01562 25.9766 -8.71777 38.6377
c-1.4668 5.0166 -2.88867 10.2363 -5.04785 15.0176c-0.235352 0.527344 -0.451172 0.99707 -0.679688 1.49902c-11.4424 -17.5186 -18.1162 -42.873 -24.4219 -59.3506c-9.68945 -25.3037 -17.9316 -51.0957 -25.8369 -77.0029
c-15.8232 -51.8516 -29.7549 -104.274 -46.5117 -155.834c-15.2266 -46.8477 -33.6982 -92.3623 -57.0781 -135.75c-22.1289 -41.0693 -51.3506 -94.9971 -95.1826 -116.269c-114.187 -55.4199 -169.556 117.14 -183.982 196.225
c-22.4775 123.247 -27.7734 251.81 -12.1787 376.079c3.44141 27.418 51.0703 28.7637 52.0859 0zM477.585 31.5322c14.915 68.3223 21.9521 138.754 24.7715 209.229c-27.291 -43.2861 -51.9854 -88.21 -73.6377 -134.658
c-23.0303 -49.4199 -42.5488 -100.643 -58.5566 -152.761c-9.86719 -32.1172 -18.1221 -64.6846 -21.5635 -98.1729c-1.42188 -13.8555 -2.06348 -27.7549 -1.7207 -41.6738c0.260742 -10.4512 5.03613 -23.7598 4.12207 -33.5322
c0.19043 -0.387695 0.375 -0.78125 0.56543 -1.1748c2.90137 2.17188 7.7207 4.85742 9.16797 6.02539c10.3242 8.33691 19.0801 18.2744 27.2139 28.707c14.4326 18.5156 26.167 38.7715 36.3516 59.8711c24.249 50.2393 41.3994 103.704 53.2861 158.14zM457.891 712.811
c-9.3916 19.3027 -4.00684 1.7334 0 0z" />
    <glyph glyph-name="Y" unicode="&#xdd;" horiz-adv-x="639" 
d="M69.0205 731.864c4.63574 -131.242 6.60449 -269.062 41.1025 -396.589c8.07031 -29.8184 18.4268 -60.0869 34.1426 -86.8252c5.51172 -9.38477 14.9033 -28.2432 25.4502 -32.5928c12.2041 -5.03516 18.8779 4.95898 27.666 14.4834
c37.6279 40.7715 63.8711 93.1562 85.8154 143.554c40.0859 92.0391 68.2471 188.624 106.555 281.367c12.7568 30.8848 28.2119 89.8857 65.9355 98.2041c48.6064 10.7119 68.71 -50.3594 79.1299 -85.6191c21.3984 -72.4121 33.3291 -147.542 39.5137 -223.033
c24.2305 26.1611 86.9277 0.813477 59.7578 -29.6084c-18.9346 -21.2012 -37.1777 -43.0254 -54.7344 -65.376c0.203125 -7.72754 0.368164 -15.4551 0.482422 -23.1699c1.61914 -108.415 -2.8252 -217.528 -26.2178 -323.746
c-20.7314 -94.1406 -57.877 -208.956 -140.575 -267.157c-35.4951 -24.9795 -89.5947 -36.5488 -118.683 4.83203c-25.6777 36.543 -16.0703 92.8711 -9.20605 133.63c18.001 106.923 61.6104 211.692 110.903 307.719c31.3418 61.0586 67.3828 119.311 107.741 174.534
c-0.0634766 5.87305 -0.133789 11.7461 -0.222656 17.6006c-0.926758 59.1152 -3.83496 118.225 -11.0479 176.934c-4.02539 32.7773 -9.2959 65.2686 -15.957 97.6074c-2.66016 12.9092 -5.01562 25.9766 -8.71777 38.6377
c-1.4668 5.0166 -2.88867 10.2363 -5.04785 15.0176c-0.235352 0.527344 -0.451172 0.99707 -0.679688 1.49902c-11.4424 -17.5186 -18.1162 -42.873 -24.4219 -59.3506c-9.68945 -25.3037 -17.9316 -51.0957 -25.8369 -77.0029
c-15.8232 -51.8516 -29.7549 -104.274 -46.5117 -155.834c-15.2266 -46.8477 -33.6982 -92.3623 -57.0781 -135.75c-22.1289 -41.0693 -51.3506 -94.9971 -95.1826 -116.269c-114.187 -55.4199 -169.556 117.14 -183.982 196.225
c-22.4775 123.247 -27.7734 251.81 -12.1787 376.079c3.44141 27.418 51.0703 28.7637 52.0859 0zM477.585 31.5322c14.915 68.3223 21.9521 138.754 24.7715 209.229c-27.291 -43.2861 -51.9854 -88.21 -73.6377 -134.658
c-23.0303 -49.4199 -42.5488 -100.643 -58.5566 -152.761c-9.86719 -32.1172 -18.1221 -64.6846 -21.5635 -98.1729c-1.42188 -13.8555 -2.06348 -27.7549 -1.7207 -41.6738c0.260742 -10.4512 5.03613 -23.7598 4.12207 -33.5322
c0.19043 -0.387695 0.375 -0.78125 0.56543 -1.1748c2.90137 2.17188 7.7207 4.85742 9.16797 6.02539c10.3242 8.33691 19.0801 18.2744 27.2139 28.707c14.4326 18.5156 26.167 38.7715 36.3516 59.8711c24.249 50.2393 41.3994 103.704 53.2861 158.14zM457.891 712.811
c-9.3916 19.3027 -4.00684 1.7334 0 0z" />
    <glyph glyph-name="Z" unicode="Z" horiz-adv-x="397" 
d="M-107.062 -192.537c-44.7275 -33.0244 -178.604 -122.826 -217.763 -36.5146c-17.5566 38.6826 24.0723 75.2695 54.0107 92.1279c41.2988 23.2529 91.5947 34.2441 137.637 43.1338c11.0039 2.12109 22.0586 4.05762 33.126 5.94336
c22.8906 21.2334 44.7588 43.5459 65.96 65.7441c92.7939 97.1377 173.188 207.901 234.126 327.892c-25.792 -2.05762 -51.5459 -4.7373 -77.2363 -8.24902c-37.457 -5.11816 -59.3887 45.1719 -17.2773 51.3818c40.416 5.96191 80.9521 10.3623 121.584 13.207
c54.1689 118.39 123.419 307.833 -17.4492 383.134c-61.4717 32.8594 -137.401 31.6025 -204.651 22.4717c-77.5801 -10.5342 -153.649 -35.0127 -221.674 -73.7715c-21.3857 -12.1846 -46.7207 16.6807 -22.1602 31.082c91.5244 53.6865 190.059 87.1426 296.308 94.0576
c88.5469 5.75879 188.979 -10.6738 249.987 -81.1426c61.0273 -70.4941 61.7832 -169.518 40.6709 -255.581c-9.70898 -39.5908 -22.7832 -78.5781 -38.1055 -116.759c18.9092 0.260742 37.8311 0.229492 56.7725 -0.259766c42.5361 -1.10449 42.6572 -56.7725 0 -55.5283
c-26.9609 0.787109 -53.9023 0.844727 -80.8125 0.273438c-13.3535 -28.8652 -27.71 -57.1914 -42.6064 -84.8506c-56.125 -104.192 -128.784 -207.248 -213.419 -295.947c50.499 4.95898 101.163 8.25488 151.497 10.5537
c100.084 4.57812 209.134 13.4355 304.944 -20.9229c17.6836 -6.34375 24.5986 -29.1328 14.1025 -44.1055c-12.2363 -17.4551 -35.6162 -18.2617 -53.7891 -11.5625c-44.9492 16.5596 -94.1025 15.8291 -141.331 16.2861
c-49.5781 0.482422 -99.1689 -0.431641 -148.696 -2.73047c-65.6875 -3.04785 -132.334 -7.25098 -198.016 -16.0645c-21.3545 -18.7822 -43.2422 -36.6885 -65.7393 -53.2988z" />
    <glyph glyph-name="bracketleft" unicode="[" horiz-adv-x="321" 
d="M238.129 -99.8516c30.9229 1.58105 47.541 -37.2354 17.2783 -52.2969c-36.5742 -18.2041 -85.1367 -21.1885 -122.175 -2.50781c-38.9551 19.6455 -53.9531 60.8105 -62.7158 100.763c-21.9766 100.211 -22.5352 203.394 -18.7002 305.408
c3.77148 100.356 12.3184 202.638 43.8066 298.639c19.4424 59.2744 81.7578 169.568 155.015 102.592c21.1191 -19.3096 -13.0615 -39.5713 -31.3936 -25.7412c-31.5957 23.8301 -71.415 -164.946 -73.6562 -180.706c-10.001 -70.3418 -12.9404 -141.617 -13.8164 -212.581
c-0.908203 -73.3135 0.139648 -147.269 10.5908 -219.96c4.33691 -30.2051 7.50586 -68.9766 22.4277 -96.3057c15.6201 -28.6113 46.3271 -18.6807 73.3389 -17.3027z" />
    <glyph glyph-name="backslash" unicode="\" horiz-adv-x="345" 
d="M293.56 -88.1299c12.3438 -46.5811 -69.5996 -60.9756 -81.5625 -18.4326c-32.5674 115.812 -52.3535 234.641 -73.6123 352.91c-10.6299 59.1406 -21.7041 118.225 -34.9238 176.845c-12.1729 53.9727 -20.3193 117.812 -49.0195 165.746
c-20.7568 34.6689 36.8223 54.4668 57.1855 27.4043c34.9873 -46.4922 47.4014 -109.729 61.6758 -165.06c15.0107 -58.1631 27.7861 -116.879 40.0098 -175.684c25.2783 -121.622 48.4102 -243.581 80.2471 -363.729z" />
    <glyph glyph-name="bracketright" unicode="]" horiz-adv-x="336" 
d="M284.83 290.623c5.2959 -93.6709 -2.00781 -190.414 -23.2539 -281.875c-17.2715 -74.3613 -47.5654 -161.904 -127.477 -187.252c-29.5195 -9.36621 -67.6748 28.4336 -36.9229 52.0098c52.499 40.251 71.0977 96.084 85.9746 159.016
c15.8809 67.1611 22.2881 137.033 23.1709 205.959c0.895508 70.2148 -4.58398 140.912 -21.8936 209.107c-6.85742 27.0244 -49.5596 188.325 -95.6777 162.26c-20.459 -11.5693 -54.2012 15.1123 -30.8086 32.7393c69.4971 52.3662 135.318 -32.7197 163.219 -89.334
c39.9775 -81.1299 58.5889 -172.718 63.6689 -262.63z" />
    <glyph glyph-name="asciicircum" unicode="^" horiz-adv-x="308" 
d="M257.114 446.184c8.67383 -40.2256 -60.208 -52.7168 -70.082 -15.8438c-4.51465 16.8652 -9.39746 33.2598 -17.8105 48.6455c-3.12402 5.71484 -8.23535 11.499 -11.4736 17.3154c-8.50195 -11.1377 -21.1826 -27.1133 -22.4141 -28.999
c-9.25195 -14.1914 -17.208 -29.0879 -25.8057 -43.6602c-14.3057 -24.2686 -69.9736 -10.623 -57.8008 19.9824c17.4238 43.8193 51.6104 119.838 107.266 120.104c54.8232 0.260742 88.3174 -72.0811 98.1211 -117.545z" />
    <glyph glyph-name="underscore" unicode="_" horiz-adv-x="354" 
d="M278.555 8.75391c15.9697 -2.9209 29.6855 -18.708 24.4277 -35.2803c-5.68945 -17.9316 -26.7578 -22.3379 -43.0195 -20.0264c-55.3506 7.86133 -110.809 7.71484 -165.88 -2.03223c-41.3809 -7.32715 -64.8936 48.2266 -18.9912 56.4814
c67.8145 12.2041 135.61 13.2773 203.463 0.857422z" />
    <glyph glyph-name="grave" unicode="`" horiz-adv-x="182" 
d="M131.846 444.825c5.87988 -30.707 -45.3301 -40.3584 -53.5781 -12.1152c-11.8926 40.752 -23.2461 83.5488 -28.123 125.8c-3.04785 26.4463 43.2793 26.834 51.1592 5.67676c14.1787 -38.0596 22.916 -79.5293 30.542 -119.361z" />
    <glyph glyph-name="a" unicode="a" horiz-adv-x="289" 
d="M251.444 212.759c12.8711 -72.2217 29.5889 -150.458 26.5605 -223.987c-1.49805 -36.3643 -64.9062 -42.9746 -74.5449 -8.27344c-3.38477 12.1846 -6.07031 24.6113 -8.42578 37.1455c-41.667 -4.07617 -84.2666 -5.42188 -125.914 -2.72949
c-2.33691 -6.17871 -4.70508 -12.3506 -7.16211 -18.4785c-9.63281 -24.0654 -64.2969 -24.2812 -59.6807 6.62305c11.1631 74.7295 38.4854 147.859 63.4902 218.932c12.1592 34.5547 25.709 68.8369 42.8535 101.259c11.6836 22.0967 27.7354 43.54 54.4609 46.0928
c68.5322 6.55273 80.1582 -110.561 88.3623 -156.583zM88.0781 68.0723c32.9424 1.54883 65.791 3.32031 98.708 5.53613c-3.23242 27.7988 -5.72754 55.7119 -9.25781 82.958c-3.65137 28.1416 -6.80762 56.3662 -11.875 84.3047
c-1.70801 9.4043 -3.58789 18.7959 -5.60059 28.1621c-3.40332 -7.76562 -6.63574 -15.6074 -9.80469 -23.4307c-10.54 -26.0146 -19.8301 -52.5371 -29.082 -79.0283c-11.3975 -32.6436 -21.9443 -65.6934 -33.0879 -98.502z" />
    <glyph glyph-name="a" unicode="&#xe5;" horiz-adv-x="289" 
d="M251.444 212.759c12.8711 -72.2217 29.5889 -150.458 26.5605 -223.987c-1.49805 -36.3643 -64.9062 -42.9746 -74.5449 -8.27344c-3.38477 12.1846 -6.07031 24.6113 -8.42578 37.1455c-41.667 -4.07617 -84.2666 -5.42188 -125.914 -2.72949
c-2.33691 -6.17871 -4.70508 -12.3506 -7.16211 -18.4785c-9.63281 -24.0654 -64.2969 -24.2812 -59.6807 6.62305c11.1631 74.7295 38.4854 147.859 63.4902 218.932c12.1592 34.5547 25.709 68.8369 42.8535 101.259c11.6836 22.0967 27.7354 43.54 54.4609 46.0928
c68.5322 6.55273 80.1582 -110.561 88.3623 -156.583zM88.0781 68.0723c32.9424 1.54883 65.791 3.32031 98.708 5.53613c-3.23242 27.7988 -5.72754 55.7119 -9.25781 82.958c-3.65137 28.1416 -6.80762 56.3662 -11.875 84.3047
c-1.70801 9.4043 -3.58789 18.7959 -5.60059 28.1621c-3.40332 -7.76562 -6.63574 -15.6074 -9.80469 -23.4307c-10.54 -26.0146 -19.8301 -52.5371 -29.082 -79.0283c-11.3975 -32.6436 -21.9443 -65.6934 -33.0879 -98.502z" />
    <glyph glyph-name="a" unicode="&#xe4;" horiz-adv-x="289" 
d="M251.444 212.759c12.8711 -72.2217 29.5889 -150.458 26.5605 -223.987c-1.49805 -36.3643 -64.9062 -42.9746 -74.5449 -8.27344c-3.38477 12.1846 -6.07031 24.6113 -8.42578 37.1455c-41.667 -4.07617 -84.2666 -5.42188 -125.914 -2.72949
c-2.33691 -6.17871 -4.70508 -12.3506 -7.16211 -18.4785c-9.63281 -24.0654 -64.2969 -24.2812 -59.6807 6.62305c11.1631 74.7295 38.4854 147.859 63.4902 218.932c12.1592 34.5547 25.709 68.8369 42.8535 101.259c11.6836 22.0967 27.7354 43.54 54.4609 46.0928
c68.5322 6.55273 80.1582 -110.561 88.3623 -156.583zM88.0781 68.0723c32.9424 1.54883 65.791 3.32031 98.708 5.53613c-3.23242 27.7988 -5.72754 55.7119 -9.25781 82.958c-3.65137 28.1416 -6.80762 56.3662 -11.875 84.3047
c-1.70801 9.4043 -3.58789 18.7959 -5.60059 28.1621c-3.40332 -7.76562 -6.63574 -15.6074 -9.80469 -23.4307c-10.54 -26.0146 -19.8301 -52.5371 -29.082 -79.0283c-11.3975 -32.6436 -21.9443 -65.6934 -33.0879 -98.502z" />
    <glyph glyph-name="a" unicode="&#xe3;" horiz-adv-x="289" 
d="M251.444 212.759c12.8711 -72.2217 29.5889 -150.458 26.5605 -223.987c-1.49805 -36.3643 -64.9062 -42.9746 -74.5449 -8.27344c-3.38477 12.1846 -6.07031 24.6113 -8.42578 37.1455c-41.667 -4.07617 -84.2666 -5.42188 -125.914 -2.72949
c-2.33691 -6.17871 -4.70508 -12.3506 -7.16211 -18.4785c-9.63281 -24.0654 -64.2969 -24.2812 -59.6807 6.62305c11.1631 74.7295 38.4854 147.859 63.4902 218.932c12.1592 34.5547 25.709 68.8369 42.8535 101.259c11.6836 22.0967 27.7354 43.54 54.4609 46.0928
c68.5322 6.55273 80.1582 -110.561 88.3623 -156.583zM88.0781 68.0723c32.9424 1.54883 65.791 3.32031 98.708 5.53613c-3.23242 27.7988 -5.72754 55.7119 -9.25781 82.958c-3.65137 28.1416 -6.80762 56.3662 -11.875 84.3047
c-1.70801 9.4043 -3.58789 18.7959 -5.60059 28.1621c-3.40332 -7.76562 -6.63574 -15.6074 -9.80469 -23.4307c-10.54 -26.0146 -19.8301 -52.5371 -29.082 -79.0283c-11.3975 -32.6436 -21.9443 -65.6934 -33.0879 -98.502z" />
    <glyph glyph-name="a" unicode="&#xe2;" horiz-adv-x="289" 
d="M251.444 212.759c12.8711 -72.2217 29.5889 -150.458 26.5605 -223.987c-1.49805 -36.3643 -64.9062 -42.9746 -74.5449 -8.27344c-3.38477 12.1846 -6.07031 24.6113 -8.42578 37.1455c-41.667 -4.07617 -84.2666 -5.42188 -125.914 -2.72949
c-2.33691 -6.17871 -4.70508 -12.3506 -7.16211 -18.4785c-9.63281 -24.0654 -64.2969 -24.2812 -59.6807 6.62305c11.1631 74.7295 38.4854 147.859 63.4902 218.932c12.1592 34.5547 25.709 68.8369 42.8535 101.259c11.6836 22.0967 27.7354 43.54 54.4609 46.0928
c68.5322 6.55273 80.1582 -110.561 88.3623 -156.583zM88.0781 68.0723c32.9424 1.54883 65.791 3.32031 98.708 5.53613c-3.23242 27.7988 -5.72754 55.7119 -9.25781 82.958c-3.65137 28.1416 -6.80762 56.3662 -11.875 84.3047
c-1.70801 9.4043 -3.58789 18.7959 -5.60059 28.1621c-3.40332 -7.76562 -6.63574 -15.6074 -9.80469 -23.4307c-10.54 -26.0146 -19.8301 -52.5371 -29.082 -79.0283c-11.3975 -32.6436 -21.9443 -65.6934 -33.0879 -98.502z" />
    <glyph glyph-name="a" unicode="&#xe1;" horiz-adv-x="289" 
d="M251.444 212.759c12.8711 -72.2217 29.5889 -150.458 26.5605 -223.987c-1.49805 -36.3643 -64.9062 -42.9746 -74.5449 -8.27344c-3.38477 12.1846 -6.07031 24.6113 -8.42578 37.1455c-41.667 -4.07617 -84.2666 -5.42188 -125.914 -2.72949
c-2.33691 -6.17871 -4.70508 -12.3506 -7.16211 -18.4785c-9.63281 -24.0654 -64.2969 -24.2812 -59.6807 6.62305c11.1631 74.7295 38.4854 147.859 63.4902 218.932c12.1592 34.5547 25.709 68.8369 42.8535 101.259c11.6836 22.0967 27.7354 43.54 54.4609 46.0928
c68.5322 6.55273 80.1582 -110.561 88.3623 -156.583zM88.0781 68.0723c32.9424 1.54883 65.791 3.32031 98.708 5.53613c-3.23242 27.7988 -5.72754 55.7119 -9.25781 82.958c-3.65137 28.1416 -6.80762 56.3662 -11.875 84.3047
c-1.70801 9.4043 -3.58789 18.7959 -5.60059 28.1621c-3.40332 -7.76562 -6.63574 -15.6074 -9.80469 -23.4307c-10.54 -26.0146 -19.8301 -52.5371 -29.082 -79.0283c-11.3975 -32.6436 -21.9443 -65.6934 -33.0879 -98.502z" />
    <glyph glyph-name="b" unicode="b" horiz-adv-x="355" 
d="M338.265 170.604c26.7832 -68.0303 -6.53125 -157.037 -62.5039 -201.065c-48.6572 -38.2822 -150.85 -46.9307 -146.697 39.4248c3.21973 67.0205 48.8672 129.997 95.1631 177.899c-15.9316 3.5752 -34.0537 2.02637 -51.5215 -2.5459
c-7.38477 -1.93066 -15.7285 -0.826172 -23.4502 2.24121c-8.38184 -37.0566 -13.7344 -74.748 -19.7344 -112.269c-4.90234 -30.6689 -3.0166 -77.6562 -36.2002 -92.1016c-15.5381 -6.7627 -45.2549 -4.15918 -50.0684 16.7061
c-24.9541 108.187 -30.1543 224.805 -17.8799 334.972c2.45703 22.0459 40.2881 27.7734 46.7715 5.19434c10.21 -35.5586 15.4355 -71.9932 19.3154 -108.638c13.499 48.874 34.2119 100.751 75.4531 131.516c40.1113 29.9199 108.307 22.7451 111.45 -37.1133
c1.47949 -28.1543 -11.3086 -55.1465 -29.6973 -78.5391c39.1582 -9.84863 73.1289 -33.8438 89.5996 -75.6816zM201.101 303.64c2.93359 4.59082 4.97168 9.57031 6.12109 14.9297c-0.209961 1.68945 -0.369141 3.12402 -0.50293 4.42578
c-3.68262 -5.05469 -11.6709 -15.335 -13.665 -18.2686c-5.63184 -8.28613 -9.87305 -17.0742 -13.9561 -26.2051c-1.19336 -2.66699 -2.2793 -5.37207 -3.41602 -8.05762c2.54004 2.64746 5.10547 5.26953 7.51855 8.06934
c6.69922 7.79102 13.1572 15.9629 17.9004 25.1064zM233.192 21.9619c26.9482 30.3262 46.0801 78.1895 36.041 118.891c-23.665 -26.4531 -44.1934 -56.043 -57.2607 -89.0293c-4.66113 -11.7529 -17.0049 -38.5674 -12.9033 -52.7842
c0.62207 0.0634766 1.25684 0.121094 2.01855 0.178711c4.13965 1.32715 8.04492 3.16211 11.6963 5.48633c7.82324 4.55859 14.4141 10.5146 20.4082 17.2578z" />
    <glyph glyph-name="c" unicode="c" horiz-adv-x="290" 
d="M235.738 100.395c7.98828 21.6465 50.4805 14.4971 42.8037 -9.68262c-20.9854 -66.1514 -88.7939 -118.276 -160.945 -104.199c-77.8604 15.1943 -112.333 99.2139 -107.075 171.296c5.2832 72.4502 43.5342 159.777 109.711 196.517
c33.4375 18.5664 76.6602 20.2305 108.154 -3.70801c33.4248 -25.3926 41.9336 -65.6309 44.873 -105.228c2.63477 -35.4756 -66.2852 -41.4443 -72.3496 -8.03223c-2.83203 15.6143 -5.68262 56.5947 -23.3857 64.5254
c-15.7344 7.04785 -36.8027 -24.0469 -45.0635 -35.292c-24.3125 -33.0752 -40.0537 -73.2432 -43.7363 -114.243c-3.34668 -37.2725 3.40332 -98.877 45.6602 -114.18c39.8379 -14.4268 88.667 27.8555 101.354 62.2266z" />
    <glyph glyph-name="d" unicode="d" horiz-adv-x="357" 
d="M336.436 246.14c21.2266 -81.2568 1.57324 -182.594 -54.8184 -246.142c-27.3994 -30.8848 -67.7832 -53.5908 -110.167 -49.6416c-34.5801 3.21973 -61.3818 26.0469 -64.6523 58.9258c-1.89844 -4.25391 -3.95605 -8.42578 -6.23535 -12.4893
c-12.96 -23.126 -58.7031 -18.0078 -66.1953 7.09277c-26.707 89.4414 -19.7285 185.48 -7.62598 276.561c3.5498 26.7197 46.7979 27.1133 49.8584 0c3.33398 -29.5322 6.4707 -59.0645 9.56934 -88.5967c0.40625 1.41602 0.774414 2.83789 1.1875 4.25391
c14.3311 49.0264 33.2783 104.065 71.3896 140.1c74.2783 70.2471 158.24 -15.6006 177.689 -90.0635zM132.444 107.886c-0.799805 -3.61914 -1.55566 -7.29688 -2.31152 -10.9736c29.1074 56.5566 79.7715 107.735 124.981 141.82
c3.37793 2.55273 7.13086 4.28027 11.0488 5.33398c-4.69922 18.5283 -12.1914 36.1299 -23.5322 50.3662c-35.0127 43.959 -66.1133 -35.1709 -76.3555 -62.4805c-15.0801 -40.2129 -24.5664 -82.2285 -33.8311 -124.066zM246.618 73.6914
c15.3096 31.1328 23.9824 66.4502 25.7354 101.132c-19.4932 -18.0264 -37.4121 -37.4629 -53.1719 -59.3379c-8.71191 -12.0898 -64.4492 -93.3789 -45.0195 -106.771c23.7285 -16.3564 65.2305 50.29 72.4561 64.9766z" />
    <glyph glyph-name="e" unicode="e" horiz-adv-x="271" 
d="M233.812 47.1084c13.709 5.86035 45.3682 -6.3457 30.0332 -24.6328c-52.7725 -62.9316 -154.933 -47.667 -191.005 25.0371c-10.7188 21.6016 -17.5449 45.1592 -21.4561 69.7451c-28.7129 1.42871 -41.0127 40.543 -6.15332 49.7627
c0.654297 0.177734 1.31445 0.349609 1.96875 0.521484c-0.698242 40.9619 4.45117 82.959 11.5312 122.2c-5.89258 -1.42871 -11.7783 -2.90137 -17.6514 -4.62207c-34.7451 -10.1787 -52.3398 35.0947 -15.9561 47.4639c14.9912 5.09863 30.2109 9.33984 45.584 12.915
c8.9209 20.7891 39.5137 22.5098 58.0547 10.3633c29.0439 3.86035 58.3477 6.06348 87.5498 7.3457c42.4795 1.86719 41.2158 -51.667 0 -54.708c-26.1543 -1.93066 -52.0801 -3.48633 -77.834 -5.99414c-7.20703 -38.3076 -12.0137 -76.9141 -12.9346 -115.736
c19.4111 4.26074 38.9111 8.07031 58.5439 11.1113c38.2314 5.93066 60.3916 -45.2031 17.6074 -52.3652c-24.999 -4.18457 -49.915 -8.42578 -74.7363 -13.1758c0.0761719 -0.926758 0.0888672 -1.85352 0.171875 -2.78027
c2.24805 -26.0654 3.94336 -68.3037 25.8691 -86.877c23.4434 -19.8555 56.5762 -5.94336 80.8125 4.42578z" />
    <glyph glyph-name="e" unicode="&#xeb;" horiz-adv-x="271" 
d="M233.812 47.1084c13.709 5.86035 45.3682 -6.3457 30.0332 -24.6328c-52.7725 -62.9316 -154.933 -47.667 -191.005 25.0371c-10.7188 21.6016 -17.5449 45.1592 -21.4561 69.7451c-28.7129 1.42871 -41.0127 40.543 -6.15332 49.7627
c0.654297 0.177734 1.31445 0.349609 1.96875 0.521484c-0.698242 40.9619 4.45117 82.959 11.5312 122.2c-5.89258 -1.42871 -11.7783 -2.90137 -17.6514 -4.62207c-34.7451 -10.1787 -52.3398 35.0947 -15.9561 47.4639c14.9912 5.09863 30.2109 9.33984 45.584 12.915
c8.9209 20.7891 39.5137 22.5098 58.0547 10.3633c29.0439 3.86035 58.3477 6.06348 87.5498 7.3457c42.4795 1.86719 41.2158 -51.667 0 -54.708c-26.1543 -1.93066 -52.0801 -3.48633 -77.834 -5.99414c-7.20703 -38.3076 -12.0137 -76.9141 -12.9346 -115.736
c19.4111 4.26074 38.9111 8.07031 58.5439 11.1113c38.2314 5.93066 60.3916 -45.2031 17.6074 -52.3652c-24.999 -4.18457 -49.915 -8.42578 -74.7363 -13.1758c0.0761719 -0.926758 0.0888672 -1.85352 0.171875 -2.78027
c2.24805 -26.0654 3.94336 -68.3037 25.8691 -86.877c23.4434 -19.8555 56.5762 -5.94336 80.8125 4.42578z" />
    <glyph glyph-name="e" unicode="&#xea;" horiz-adv-x="271" 
d="M233.812 47.1084c13.709 5.86035 45.3682 -6.3457 30.0332 -24.6328c-52.7725 -62.9316 -154.933 -47.667 -191.005 25.0371c-10.7188 21.6016 -17.5449 45.1592 -21.4561 69.7451c-28.7129 1.42871 -41.0127 40.543 -6.15332 49.7627
c0.654297 0.177734 1.31445 0.349609 1.96875 0.521484c-0.698242 40.9619 4.45117 82.959 11.5312 122.2c-5.89258 -1.42871 -11.7783 -2.90137 -17.6514 -4.62207c-34.7451 -10.1787 -52.3398 35.0947 -15.9561 47.4639c14.9912 5.09863 30.2109 9.33984 45.584 12.915
c8.9209 20.7891 39.5137 22.5098 58.0547 10.3633c29.0439 3.86035 58.3477 6.06348 87.5498 7.3457c42.4795 1.86719 41.2158 -51.667 0 -54.708c-26.1543 -1.93066 -52.0801 -3.48633 -77.834 -5.99414c-7.20703 -38.3076 -12.0137 -76.9141 -12.9346 -115.736
c19.4111 4.26074 38.9111 8.07031 58.5439 11.1113c38.2314 5.93066 60.3916 -45.2031 17.6074 -52.3652c-24.999 -4.18457 -49.915 -8.42578 -74.7363 -13.1758c0.0761719 -0.926758 0.0888672 -1.85352 0.171875 -2.78027
c2.24805 -26.0654 3.94336 -68.3037 25.8691 -86.877c23.4434 -19.8555 56.5762 -5.94336 80.8125 4.42578z" />
    <glyph glyph-name="e" unicode="&#xe9;" horiz-adv-x="271" 
d="M233.812 47.1084c13.709 5.86035 45.3682 -6.3457 30.0332 -24.6328c-52.7725 -62.9316 -154.933 -47.667 -191.005 25.0371c-10.7188 21.6016 -17.5449 45.1592 -21.4561 69.7451c-28.7129 1.42871 -41.0127 40.543 -6.15332 49.7627
c0.654297 0.177734 1.31445 0.349609 1.96875 0.521484c-0.698242 40.9619 4.45117 82.959 11.5312 122.2c-5.89258 -1.42871 -11.7783 -2.90137 -17.6514 -4.62207c-34.7451 -10.1787 -52.3398 35.0947 -15.9561 47.4639c14.9912 5.09863 30.2109 9.33984 45.584 12.915
c8.9209 20.7891 39.5137 22.5098 58.0547 10.3633c29.0439 3.86035 58.3477 6.06348 87.5498 7.3457c42.4795 1.86719 41.2158 -51.667 0 -54.708c-26.1543 -1.93066 -52.0801 -3.48633 -77.834 -5.99414c-7.20703 -38.3076 -12.0137 -76.9141 -12.9346 -115.736
c19.4111 4.26074 38.9111 8.07031 58.5439 11.1113c38.2314 5.93066 60.3916 -45.2031 17.6074 -52.3652c-24.999 -4.18457 -49.915 -8.42578 -74.7363 -13.1758c0.0761719 -0.926758 0.0888672 -1.85352 0.171875 -2.78027
c2.24805 -26.0654 3.94336 -68.3037 25.8691 -86.877c23.4434 -19.8555 56.5762 -5.94336 80.8125 4.42578z" />
    <glyph glyph-name="f" unicode="f" horiz-adv-x="295" 
d="M273.936 362.859c38.3711 -4.57812 26.751 -58.6777 -9.07422 -54.9375c-39.7617 4.15234 -77.6562 3.57422 -115.271 -0.616211c-3.74609 -36.8789 -7.50488 -73.5928 -9.7207 -110.561c18.2168 2.78125 36.5293 4.46387 54.4482 5.38477
c40.8604 2.0957 40.4668 -51.3115 0 -53.083c-19.5059 -0.857422 -38.2695 -3.42871 -56.7793 -6.95312c-1.70215 -43.9775 -3.5752 -92.7559 7.34668 -133.705c8.80078 -32.999 -44.9941 -40.5488 -56.6836 -12.8135c-16.3633 38.8223 -19.5762 85.8037 -20.9541 129.705
c-4.07617 -1.08594 -8.13965 -2.17188 -12.248 -3.25781c-26.8848 -7.12402 -47.9336 25.501 -20.9287 40.708c10.2422 5.76562 20.9609 10.6992 31.9775 14.9785c-0.248047 38.8408 2 77.9736 7.30859 116.504c-9.62012 -2.18457 -19.291 -4.54004 -29.0439 -7.08008
c-30.123 -7.84863 -59.2363 33.9707 -24.5605 47.7686c80.0186 31.8496 169.295 38.0791 254.184 27.958z" />
    <glyph glyph-name="g" unicode="g" horiz-adv-x="339" 
d="M316.894 212.778c21.9004 -80.666 11.3467 -188.997 -58.9131 -244.119c-62.9189 -49.3691 -171.086 -38.4414 -161.974 59.9785c5.60645 60.5762 37.7168 120.898 78.3232 169.722c-9.30859 -6.87695 -18.6367 -13.7217 -28.2754 -20.1348
c-33.4824 -22.2998 -80.1016 -49.2354 -118.282 -20.9795c-39.165 28.9805 -22.9102 83.3652 -1.27637 117.691c39.4883 62.665 165.962 138.906 229.205 69.1553c14.3438 -15.8232 -12.3057 -31.4121 -26.1924 -27.9326
c-47.1338 11.8291 -103.201 -22.2119 -131.527 -59.3008c-7.32715 -9.58789 -13.4102 -20.1025 -17.1816 -31.6143c-2.02539 -6.17871 -2.07031 -13.0684 -3.88672 -19.1445c20.96 11.2959 41.292 22.1416 61.2939 35.4883c30.9678 20.6621 68.1641 49.4258 107.386 47.8633
c43.375 -1.72754 61.2617 -39.6982 71.3008 -76.6729zM220.225 36.252c28.6436 40.3018 33.8184 97.4922 28.9863 146.785c-30.085 -32.8154 -56.2969 -69.0469 -72.2598 -111.113c-3.74609 -9.87402 -22.459 -64.3799 -7.18164 -72.3105
c14.4199 -7.47949 43.3115 26.5869 50.4551 36.6387z" />
    <glyph glyph-name="h" unicode="h" horiz-adv-x="314" 
d="M293.639 16.2803c0.114258 -4.14648 1.48145 -34.9424 -2.47461 -20.7129c3.98145 -14.293 -9.76562 -25.627 -23.3223 -25.0996c-57.0771 2.20312 -55.0957 99.29 -57.2676 139.427c-0.660156 12.1914 -1.23145 24.4023 -1.75879 36.6191
c-16.8584 -1.97461 -33.7041 -4.03223 -50.5312 -6.29297c-19.0996 -2.57129 -38.6055 -6.19727 -58.0928 -8.34961c1.42188 -44.9434 4.73633 -89.8867 10.6348 -135.008c3.60645 -27.6211 -47.7939 -34.6885 -58.9316 -13.0869
c-26.9541 52.2773 -28.4209 114.58 -30.7197 172.324c-2.46973 62.0869 -1.26367 124.632 5.97461 186.376c4.83887 41.2354 80.6797 42.2891 77.8857 0c-3.44141 -52.1055 -5.64453 -103.874 -5.68262 -155.554c34.9229 7.99414 71.8906 11.7598 107.62 15.0869
c-1.03516 46.1113 -0.78125 92.2734 1.52344 138.188c2.12109 42.2695 77.5303 42.4727 78.3809 0c1.28906 -64.4492 0.863281 -128.962 1.67578 -193.431c0.368164 -29.291 0.501953 -58.6396 1.86035 -87.8994c0.654297 -14.1982 2.83203 -28.4023 3.22559 -42.5879z" />
    <glyph glyph-name="i" unicode="i" horiz-adv-x="129" 
d="M98.8877 325.168c4.45117 -57.084 2.66113 -114.819 5.04883 -172.049c2.11426 -50.582 15.6582 -116.188 -2.67969 -164.242c-5.95605 -15.6016 -32.3076 -19.0049 -41.4834 -4.44531c-27.6973 43.9717 -27.0303 112.047 -30.6562 162.546
c-4.22266 58.8105 -9.30859 119.278 -4.88965 178.19c3.03516 40.4219 71.5166 40.2822 74.6602 0zM64.7529 381.333c-20.1729 -23.3926 -75.873 -5.44043 -53.9414 25.4824c-28.1543 9.16895 -50.124 27.9893 -50.7969 64.3096
c-0.806641 43.584 34.2822 89.0664 75.0791 102.674c36.873 12.293 87.5625 -3.18164 94.3438 -46.042c8.01367 -50.6641 -33.7041 -110.497 -64.6846 -146.424zM23.498 482.835c-4.56543 -17.5381 0.412109 -32.5283 12.7559 -40.8145
c22.9482 33.501 49.4395 79.0469 27.4248 86.3105c-16.376 5.40332 -37.1396 -33.8125 -40.1807 -45.4961z" />
    <glyph glyph-name="i" unicode="&#xef;" horiz-adv-x="129" 
d="M98.8877 325.168c4.45117 -57.084 2.66113 -114.819 5.04883 -172.049c2.11426 -50.582 15.6582 -116.188 -2.67969 -164.242c-5.95605 -15.6016 -32.3076 -19.0049 -41.4834 -4.44531c-27.6973 43.9717 -27.0303 112.047 -30.6562 162.546
c-4.22266 58.8105 -9.30859 119.278 -4.88965 178.19c3.03516 40.4219 71.5166 40.2822 74.6602 0zM64.7529 381.333c-20.1729 -23.3926 -75.873 -5.44043 -53.9414 25.4824c-28.1543 9.16895 -50.124 27.9893 -50.7969 64.3096
c-0.806641 43.584 34.2822 89.0664 75.0791 102.674c36.873 12.293 87.5625 -3.18164 94.3438 -46.042c8.01367 -50.6641 -33.7041 -110.497 -64.6846 -146.424zM23.498 482.835c-4.56543 -17.5381 0.412109 -32.5283 12.7559 -40.8145
c22.9482 33.501 49.4395 79.0469 27.4248 86.3105c-16.376 5.40332 -37.1396 -33.8125 -40.1807 -45.4961z" />
    <glyph glyph-name="i" unicode="&#xee;" horiz-adv-x="129" 
d="M98.8877 325.168c4.45117 -57.084 2.66113 -114.819 5.04883 -172.049c2.11426 -50.582 15.6582 -116.188 -2.67969 -164.242c-5.95605 -15.6016 -32.3076 -19.0049 -41.4834 -4.44531c-27.6973 43.9717 -27.0303 112.047 -30.6562 162.546
c-4.22266 58.8105 -9.30859 119.278 -4.88965 178.19c3.03516 40.4219 71.5166 40.2822 74.6602 0zM64.7529 381.333c-20.1729 -23.3926 -75.873 -5.44043 -53.9414 25.4824c-28.1543 9.16895 -50.124 27.9893 -50.7969 64.3096
c-0.806641 43.584 34.2822 89.0664 75.0791 102.674c36.873 12.293 87.5625 -3.18164 94.3438 -46.042c8.01367 -50.6641 -33.7041 -110.497 -64.6846 -146.424zM23.498 482.835c-4.56543 -17.5381 0.412109 -32.5283 12.7559 -40.8145
c22.9482 33.501 49.4395 79.0469 27.4248 86.3105c-16.376 5.40332 -37.1396 -33.8125 -40.1807 -45.4961z" />
    <glyph glyph-name="i" unicode="&#xed;" horiz-adv-x="129" 
d="M98.8877 325.168c4.45117 -57.084 2.66113 -114.819 5.04883 -172.049c2.11426 -50.582 15.6582 -116.188 -2.67969 -164.242c-5.95605 -15.6016 -32.3076 -19.0049 -41.4834 -4.44531c-27.6973 43.9717 -27.0303 112.047 -30.6562 162.546
c-4.22266 58.8105 -9.30859 119.278 -4.88965 178.19c3.03516 40.4219 71.5166 40.2822 74.6602 0zM64.7529 381.333c-20.1729 -23.3926 -75.873 -5.44043 -53.9414 25.4824c-28.1543 9.16895 -50.124 27.9893 -50.7969 64.3096
c-0.806641 43.584 34.2822 89.0664 75.0791 102.674c36.873 12.293 87.5625 -3.18164 94.3438 -46.042c8.01367 -50.6641 -33.7041 -110.497 -64.6846 -146.424zM23.498 482.835c-4.56543 -17.5381 0.412109 -32.5283 12.7559 -40.8145
c22.9482 33.501 49.4395 79.0469 27.4248 86.3105c-16.376 5.40332 -37.1396 -33.8125 -40.1807 -45.4961z" />
    <glyph glyph-name="j" unicode="j" horiz-adv-x="255" 
d="M189.698 336.355c29.5137 21.5889 84.875 -14.0381 49.4502 -40.5547c-14.9531 -11.2012 -29.2715 -23.0811 -42.9609 -35.5586c11.4355 -72.4375 18.5283 -146.824 14.3818 -217.935c-2.48926 -42.7529 -8.40723 -90.2236 -36.7266 -124.328
c-25.8174 -31.0947 -68.4941 -47.5273 -106.941 -30.6113c-84.3428 37.0947 -69.4658 169.162 -43.8447 238.399c20.998 56.7598 56.4805 108.439 99.3223 152.252c-0.793945 24.7578 -1.09277 49.5469 -0.381836 74.4502c0.774414 27.0117 50.8857 32.9932 56.2705 6.24219
c1.79688 -8.9209 3.5625 -17.9375 5.30273 -26.9854c2.04492 1.54297 4.07031 3.12402 6.12793 4.62891zM128.523 6.24902c5.70215 39.7363 4.42969 80.6992 2.17578 120.658c-1.04102 18.4141 -2.22168 36.7773 -3.37695 55.1279
c-7.53027 -10.9092 -14.7119 -22.0977 -21.2012 -33.8506c-17.5127 -31.7041 -31.8184 -67.3574 -36.873 -103.404c-4.15918 -29.6787 -5.44141 -81.8545 19.0371 -104.04c15.1689 -13.7471 23.2842 7.60059 29.0811 21.8428c5.70215 14.001 9.01074 28.7256 11.1572 43.666
zM104.919 424.745c-39.0186 14.1914 -72.1973 45.9521 -62.5459 91.4092c9.43555 44.4355 52.4932 87.5879 96.8203 97.1064c42.9434 9.21973 99.2969 -14.0586 100.472 -64.1641c0.578125 -24.542 -15.7979 -46.6514 -28.7002 -66.1895
c-15.6904 -23.7539 -33.1836 -45.6855 -53.0967 -66.0234c-13.8613 -14.1533 -42.7266 -6.73047 -52.9492 7.86133zM108.231 514.752c-7.72168 -20.2812 1.08691 -35.1514 16.1543 -45.1201c12.1406 14.1787 24.1221 28.4785 35.1074 43.6094
c10.4766 14.4326 36.3896 54.9941 -3.60742 50.3779c-20.084 -2.31152 -40.873 -31.0498 -47.6543 -48.8672z" />
    <glyph glyph-name="k" unicode="k" horiz-adv-x="337" 
d="M322.185 21.4111c39.4062 -22.4209 -0.873047 -67.7607 -35.1934 -49.334c-36.7842 19.7471 -72.5137 41.2979 -110.015 59.7441c-13.2451 6.50879 -26.6367 12.8838 -40.25 18.6748c0.0185547 -0.666992 0.0566406 -1.32715 0.0751953 -1.99414
c1.02246 -32.7324 5.56934 -68.2529 -4.31055 -99.8232c-8.56543 -27.3672 -58.1123 -27.7734 -66.4873 0c-10.1025 33.4883 -5.1748 71.3389 -5.32129 105.977c-0.0126953 3.46094 -0.0185547 6.91504 -0.03125 10.3691
c-5.51758 -1.95605 -11.1055 -3.74707 -16.8711 -5.15039c-24.1221 -5.87305 -59.4834 24.2051 -31.4746 44.3398c12.2109 8.77539 25.3359 13.5947 38.8926 15.7598c3.08594 1.48535 6.13379 3.07324 9.15625 4.79395
c-0.0703125 9.42969 -0.0957031 18.8652 -0.248047 28.2949c-1.0918 68.6592 -10.1338 140.315 -4.42578 208.65c1.93066 23.1191 41.6611 28.2432 48.2334 5.35254c16.6992 -58.1318 20.5215 -122.987 24.7754 -184.218c11.3535 12.2549 21.9824 24.5605 31.8184 35.6348
c38.9619 43.876 79.3203 93.3213 95.0996 150.741c6.26758 22.7949 53.8203 19.7217 51.1602 -5.68359c-7.18164 -68.6152 -61.0908 -133.033 -104.522 -183.443c-20.8457 -24.1855 -43.2539 -49.4385 -68.3672 -70.8818
c0.0126953 -0.15918 0.0185547 -0.311523 0.03125 -0.463867c8.03223 -2.67285 15.9248 -5.53027 23.5449 -8.39355c56.8428 -21.3477 111.99 -48.9375 164.73 -78.9463z" />
    <glyph glyph-name="l" unicode="l" horiz-adv-x="253" 
d="M228.484 20.1914c20.0586 0.248047 32.0791 -24.5449 11.4619 -34.6729c-23.6592 -11.6328 -50.3467 -18.1221 -75.9355 -24.1602c-23.3096 -5.49902 -51.375 -14.5596 -75.5039 -11.0605c-47.0703 6.82617 -56.6143 64.7734 -63.4531 102.974
c-17.335 96.8203 -11.9062 210.359 35.0752 298.836c20.2617 38.1621 57.668 78.8701 105.24 60.0557c42.3018 -16.7314 49.8389 -70.0498 50.8799 -109.475c2.57129 -97.252 -25.9961 -198.745 -61.4785 -290.041c24.5225 3.58105 49.2041 7.24512 73.7139 7.54395z
M140.866 224.305c5.77148 36.6885 12.0771 80.6709 1.36523 116.966c-0.501953 1.68945 -1.56836 6.37598 -3.02246 10.5732c-1.36523 -4.36816 -6.50195 -9.20703 -8.39453 -12.1465c-8.97168 -13.9443 -15.042 -29.3682 -20.3252 -45.0205
c-23.373 -69.2754 -29.2656 -144.538 -19.0049 -216.842c0.832031 -5.84766 1.79688 -11.7588 2.84473 -17.6768c18.7891 53.7568 37.5967 107.278 46.5371 164.146z" />
    <glyph glyph-name="m" unicode="m" horiz-adv-x="508" 
d="M495.268 46.708c3.03516 -43.4062 -76.1621 -42.8887 -80.3594 0.00390625c-3.60059 36.7334 5.04785 292.938 -62.3799 267.812c-15.0488 -5.61328 -27.6152 -17.8369 -38.0156 -32.8027c6.66699 -14.001 11.9248 -28.2939 15.9248 -41.1396
c19.4043 -62.3477 30.4658 -140.582 5.08594 -203.019c-25.9258 -63.7822 -103.773 -59.0264 -119.185 9.22656c-14.2422 63.0654 4.59082 137.001 27.3477 195.735c3.4668 8.93359 7.47949 18.3506 12.0645 27.8184c-4.12695 10.0264 -9.16895 19.4814 -15.3857 27.9775
c-20.3633 27.8311 -33.374 -15.207 -39.5967 -32.1416c-8.17871 -22.2744 -14.5029 -45.0947 -20.2236 -68.1064c-11.4736 -46.1621 -18.8135 -93.1621 -30.6367 -139.217c-8.50195 -33.1201 -19.1758 -81.8857 -62.6201 -81.79
c-41.7305 0.0957031 -53.3184 40.1875 -57.4902 74.0566c-11.4229 92.6992 -16.4902 195.412 -1.4541 287.863c4.375 26.9033 46.9814 27.6777 50.6006 -0.000976562c10.8008 -82.54 12.0391 -166.464 20.4268 -249.429c12.6104 41.4385 23.373 83.3525 35.6025 124.893
c13.0488 44.3398 34.123 142.665 96.7881 138.716c23.4307 -1.47266 42.1436 -13.8232 57.0527 -30.9551c17.6328 20.4902 39.4443 36.1299 66.2207 39.8633c61.8965 8.62305 95.0098 -51.9658 111.487 -101.589c22.624 -68.1387 23.7793 -142.779 28.7451 -213.775z
M273.525 108.145c2.79395 22.8271 2.41797 45.8564 0.709961 68.7598c-0.114258 1.51758 -0.241211 3.06641 -0.368164 4.60352c-4.43164 -18.3887 -7.45996 -37.0508 -7.91699 -56.0742c-0.241211 -9.97559 0.355469 -25.6084 3.5625 -40.3457
c1.70801 7.60742 3.06055 15.2842 4.0127 23.0566z" />
    <glyph glyph-name="n" unicode="n" horiz-adv-x="362" 
d="M259.855 409.123c102.7 44.4287 85.7842 -202.388 81.0029 -246.95c-5.35254 -49.8008 -12.0137 -107.608 -43.7998 -148.487c-29.3613 -37.7617 -78.6035 -46.0098 -111.952 -7.68945c-32.1172 36.9043 -46.2646 90.3369 -56.0557 137.179
c-5.67676 27.1514 -10.2422 54.5244 -16.4014 81.5742c-3.4668 15.207 -7.59375 46.4854 -18.7627 65.0264c-6.83203 -16.4775 -9.88574 -46.3594 -10.7617 -53.9854c-2.69824 -23.4873 -3.61914 -47.248 -4.05762 -70.8691
c-0.977539 -52.4736 4.61621 -104.954 3.25098 -157.352c-0.628906 -24.2686 -44.7461 -29.209 -50.1816 -5.56934c-11.7275 51.0195 -14.3057 104.668 -14.1279 156.862c0.15918 45.6416 0.114258 95.9756 15.8428 139.458c12.376 34.2188 41.6992 64.5195 80.6543 47.9023
c37.3232 -15.9248 50.7842 -66.5576 61.3945 -101.862c13.417 -44.6572 22.4336 -90.6289 37.6797 -134.753c6.88281 -19.9189 15.2393 -39.0693 26.123 -57.1338c0.710938 -1.27637 1.51074 -2.49512 2.25977 -3.74609c6.11426 10.3115 15.3086 27.0625 16.0518 29.1133
c4.62305 12.7949 8.19141 26.1357 11.0615 39.749c-12.5596 -2.9082 -27.126 0.101562 -33.9902 10.8711c-28.9355 45.3877 -36.9678 104.604 -31.2275 157.459c4.24121 39.0762 14.7305 105.348 55.9971 123.203zM279.609 227.95
c0.457031 23.9512 -0.297852 47.9717 -2.21582 71.8525c-0.908203 11.3408 -2.0127 22.7002 -3.90527 33.9268c-7.62598 -24.7764 -8.33105 -54.9941 -7.95605 -74.4053c0.489258 -25.3672 5.81641 -48.709 12.4707 -72.0312
c0.863281 13.7285 1.35254 27.3613 1.60645 40.6572z" />
    <glyph glyph-name="o" unicode="o" horiz-adv-x="325" 
d="M245.393 315.668c51.8711 1.32715 76.4053 -45.4502 71.459 -91.8477c-9.51855 -89.2451 -78.4824 -217.782 -179.589 -223.281c-47.5977 -2.58398 -97.0107 23.1006 -116.377 67.8408c-21.875 50.5371 -6.92188 117.133 11.0352 166.8
c16.2744 45.0195 42.6133 93.7725 84.7754 119.196c33.6533 20.2939 90.1406 26.79 109.215 -15.9688c8.55273 -19.1699 -20.7637 -25.1064 -32.79 -20.6748c-47.877 17.6523 -84.2607 -91.4863 -92.4072 -120.714c-10.0576 -36.0723 -30.2559 -131.87 31.9902 -134.88
c47.9209 -2.31152 85.8789 74.9131 100.839 111.138c5.70801 13.8174 32.8721 77.5176 13.2012 88.1787c-15.4678 8.38184 -45.9531 -39.0947 -52.7598 -48.4863c-15.5439 -21.4307 -66.6016 -11.9629 -55.9912 19.3535c14.4902 42.7402 61.0654 82.165 107.399 83.3457z
" />
    <glyph glyph-name="o" unicode="&#xf6;" horiz-adv-x="325" 
d="M245.393 315.668c51.8711 1.32715 76.4053 -45.4502 71.459 -91.8477c-9.51855 -89.2451 -78.4824 -217.782 -179.589 -223.281c-47.5977 -2.58398 -97.0107 23.1006 -116.377 67.8408c-21.875 50.5371 -6.92188 117.133 11.0352 166.8
c16.2744 45.0195 42.6133 93.7725 84.7754 119.196c33.6533 20.2939 90.1406 26.79 109.215 -15.9688c8.55273 -19.1699 -20.7637 -25.1064 -32.79 -20.6748c-47.877 17.6523 -84.2607 -91.4863 -92.4072 -120.714c-10.0576 -36.0723 -30.2559 -131.87 31.9902 -134.88
c47.9209 -2.31152 85.8789 74.9131 100.839 111.138c5.70801 13.8174 32.8721 77.5176 13.2012 88.1787c-15.4678 8.38184 -45.9531 -39.0947 -52.7598 -48.4863c-15.5439 -21.4307 -66.6016 -11.9629 -55.9912 19.3535c14.4902 42.7402 61.0654 82.165 107.399 83.3457z
" />
    <glyph glyph-name="o" unicode="&#xf5;" horiz-adv-x="325" 
d="M245.393 315.668c51.8711 1.32715 76.4053 -45.4502 71.459 -91.8477c-9.51855 -89.2451 -78.4824 -217.782 -179.589 -223.281c-47.5977 -2.58398 -97.0107 23.1006 -116.377 67.8408c-21.875 50.5371 -6.92188 117.133 11.0352 166.8
c16.2744 45.0195 42.6133 93.7725 84.7754 119.196c33.6533 20.2939 90.1406 26.79 109.215 -15.9688c8.55273 -19.1699 -20.7637 -25.1064 -32.79 -20.6748c-47.877 17.6523 -84.2607 -91.4863 -92.4072 -120.714c-10.0576 -36.0723 -30.2559 -131.87 31.9902 -134.88
c47.9209 -2.31152 85.8789 74.9131 100.839 111.138c5.70801 13.8174 32.8721 77.5176 13.2012 88.1787c-15.4678 8.38184 -45.9531 -39.0947 -52.7598 -48.4863c-15.5439 -21.4307 -66.6016 -11.9629 -55.9912 19.3535c14.4902 42.7402 61.0654 82.165 107.399 83.3457z
" />
    <glyph glyph-name="o" unicode="&#xf4;" horiz-adv-x="325" 
d="M245.393 315.668c51.8711 1.32715 76.4053 -45.4502 71.459 -91.8477c-9.51855 -89.2451 -78.4824 -217.782 -179.589 -223.281c-47.5977 -2.58398 -97.0107 23.1006 -116.377 67.8408c-21.875 50.5371 -6.92188 117.133 11.0352 166.8
c16.2744 45.0195 42.6133 93.7725 84.7754 119.196c33.6533 20.2939 90.1406 26.79 109.215 -15.9688c8.55273 -19.1699 -20.7637 -25.1064 -32.79 -20.6748c-47.877 17.6523 -84.2607 -91.4863 -92.4072 -120.714c-10.0576 -36.0723 -30.2559 -131.87 31.9902 -134.88
c47.9209 -2.31152 85.8789 74.9131 100.839 111.138c5.70801 13.8174 32.8721 77.5176 13.2012 88.1787c-15.4678 8.38184 -45.9531 -39.0947 -52.7598 -48.4863c-15.5439 -21.4307 -66.6016 -11.9629 -55.9912 19.3535c14.4902 42.7402 61.0654 82.165 107.399 83.3457z
" />
    <glyph glyph-name="o" unicode="&#xf3;" horiz-adv-x="325" 
d="M245.393 315.668c51.8711 1.32715 76.4053 -45.4502 71.459 -91.8477c-9.51855 -89.2451 -78.4824 -217.782 -179.589 -223.281c-47.5977 -2.58398 -97.0107 23.1006 -116.377 67.8408c-21.875 50.5371 -6.92188 117.133 11.0352 166.8
c16.2744 45.0195 42.6133 93.7725 84.7754 119.196c33.6533 20.2939 90.1406 26.79 109.215 -15.9688c8.55273 -19.1699 -20.7637 -25.1064 -32.79 -20.6748c-47.877 17.6523 -84.2607 -91.4863 -92.4072 -120.714c-10.0576 -36.0723 -30.2559 -131.87 31.9902 -134.88
c47.9209 -2.31152 85.8789 74.9131 100.839 111.138c5.70801 13.8174 32.8721 77.5176 13.2012 88.1787c-15.4678 8.38184 -45.9531 -39.0947 -52.7598 -48.4863c-15.5439 -21.4307 -66.6016 -11.9629 -55.9912 19.3535c14.4902 42.7402 61.0654 82.165 107.399 83.3457z
" />
    <glyph glyph-name="p" unicode="p" horiz-adv-x="342" 
d="M263.011 355.469c87.708 -55.1406 71.3574 -204.111 40.6436 -285.965c-15.7471 -41.9648 -43.1396 -91.3213 -91.5176 -100.16c-41.749 -7.63281 -68.6904 16.4766 -80.1895 50.2695c-4.35547 -71.1035 -5.81543 -142.671 -5.66309 -213.489
c0.0761719 -34.0283 -52.3213 -38.9746 -69.0977 -15.3477c-24.4082 34.3896 -20.9287 88.8828 -24.3193 129.394c-3.81641 45.5527 -6.1084 91.2705 -8.12793 136.938c-2.11426 47.7754 -3.30762 95.6143 -3.7207 143.434
c-0.40625 47.8516 6.54688 96.0459 5.58789 143.529c-0.489258 24.1855 43.5205 24.0459 44.6445 0c2.12695 -45.4189 11.918 -91.6445 15.499 -137.286c0.457031 -5.79102 0.837891 -11.5879 1.27637 -17.3789c0.837891 4.40039 1.6123 8.81348 2.5332 13.207
c16.001 76.4121 67.7002 218.709 172.451 152.856zM144.703 155.782c21.7285 51.623 60.2383 97.3721 107.842 120.263c-2.03223 6.41992 -4.43848 12.6621 -7.36523 18.6309c-34.1992 69.7832 -71.8848 -13.9756 -82.0439 -49.5527
c-8.34961 -29.2471 -14.1279 -59.1924 -18.4326 -89.3408zM252.914 150.429c4.95898 22.1855 8.2168 47.0078 7.79785 71.5938c-26.3701 -20.6494 -45.54 -50.4863 -58.0303 -81.5361c-8.13379 -20.2178 -13.1816 -41.1084 -13.2773 -62.9834
c-0.0576172 -11.9375 2.13965 -21.3926 3.77148 -33.165c1.59375 -11.4932 -4.51465 -18.9541 7.15625 -9.6582c31.1201 24.7959 44.3779 79.0098 52.582 115.749z" />
    <glyph glyph-name="q" unicode="q" horiz-adv-x="351" 
d="M257.258 -8.02637c44.9619 0.710938 43.1465 -53.9795 -0.0126953 -57.5605c-64.5703 -5.36523 -127.68 -13.1055 -191.462 -24.5225c-36.4404 -6.52148 -56.0732 37.8125 -16.6797 49.6162c20.2871 6.08301 41.0566 11.2578 62.0488 15.6963
c-34.9551 7.09863 -64.3604 31.5898 -81.3076 63.3633c-41.5078 77.8154 -12.7373 185.233 38.7588 251.791c25.8369 33.3926 61.916 61.4902 102.579 74.0439c30.5547 9.42969 75.25 10.2549 93.2256 -21.4297c9.89258 -17.4365 -9.125 -30.5234 -25.6279 -27.3418
c-37.6025 7.25781 -70.9512 -15.3975 -95.6836 -45.6406c57.2549 48.7852 165.739 66.4814 194.771 -19.7666c25.7607 -76.5332 -41.7305 -168.007 -92.1348 -219.128c-16.6426 -16.8779 -35.7549 -32.6699 -57.0322 -43.5215
c22.8975 2.48242 45.8262 4.03809 68.5576 4.40039zM90.7314 101.994c3.21973 -24.1729 18.9971 -69.502 50.1357 -65.21c29.4941 4.06348 59.6299 37.4561 78.292 58.5049c21.9258 24.7197 40.9053 53.541 53.3066 84.2227c10.3564 25.627 19.6523 75.9805 -20.624 79.3906
c-30.0469 2.5459 -57.7891 -19.9131 -77.0352 -40.2637c-16.0205 -16.9414 -52.3975 -4.1084 -55.293 15.9629c-5.31445 -9.80371 -9.7207 -19.5508 -13.0859 -28.6436c-12.0068 -32.4727 -20.3252 -69.25 -15.6963 -103.964z" />
    <glyph glyph-name="r" unicode="r" horiz-adv-x="340" 
d="M317.599 59.9346c39.749 -23.6338 -2.04004 -71.2422 -35.9287 -50.4092c-43.5586 26.7891 -89.0918 46.6514 -137.324 61.5918c-2.31738 -30.1289 -3.54883 -60.3027 -5.38379 -90.457c-1.37109 -22.4902 4.02637 -57.4385 -12.2285 -75.1602
c-15.0547 -16.4141 -48.791 -22.7129 -62.6084 0c-17.1572 28.1865 -16.0078 63.6309 -19.0488 95.6777c-3.7207 39.2285 -7.11816 78.4883 -10.6357 117.735c-7.21289 80.5137 -13.3594 161.091 -19.3662 241.7c-2.375 31.8945 54.5186 30.7578 58.5381 0
c8.44531 -64.5703 16.8711 -129.128 24.7002 -193.774c2.05762 9.71484 4.38184 19.3662 7.02344 28.9287c17.5508 63.4902 53.915 147.757 126.231 162.202c29.3164 5.85449 62.1318 -3.06055 78.2285 -29.5576c16.3818 -26.9609 8.59668 -57.6748 -4.85156 -83.8926
c-26.8145 -52.2832 -72.0244 -89.543 -117.438 -125.584c45.4385 -14.5342 89.0859 -34.625 130.092 -59.001zM192.025 262.352c-16.6992 -29.0059 -27.3496 -60.7158 -34.499 -93.3535c26.4023 19.8809 51.8896 40.9238 73.4023 65.7959
c8.78125 10.1533 16.8457 20.8271 23.8682 32.2695c9.37891 15.2773 19.373 29.4814 4.34375 42.9238c-11.334 10.1465 -13.7852 8.48926 -25.9189 1.04102c-6.48926 -3.98145 -11.6006 -8.95996 -16.7627 -14.4844c-9.58203 -10.248 -17.4492 -22.0518 -24.4336 -34.1924z
" />
    <glyph glyph-name="s" unicode="s" horiz-adv-x="384" 
d="M356.089 107.049c34.1357 -35.1904 26.8467 -82.2842 -5.59375 -116.173c-32.9805 -34.4473 -82.2861 -51.249 -129.312 -52.0303c-47.4707 -0.787109 -95.3027 16.5537 -129.845 49.375c-22.4844 21.3604 -59.6875 67.8652 -28.5547 95.7725
c12.9473 11.6074 45.2041 4.18457 42.9629 -15.3213c0.882812 -0.431641 2.20312 -2.07617 4.01953 -5.09863c4.23535 -5.06738 8.61621 -9.99512 13.1631 -14.7832c8.36914 -8.69922 17.2334 -16.96 27.3232 -23.6523c20.8145 -13.8047 45.8447 -21.9453 70.9385 -20.7705
c45.6094 2.13379 123.26 45.9082 59.7627 86.1777c-48.8037 30.9551 -108.688 43.915 -162.089 64.6719c-38.46 14.9473 -94.4707 34.5107 -110.675 76.6787c-17.9824 46.8096 25.4434 82.9961 62.126 103.144c46.5938 25.5957 104.675 35.9141 157.409 31.1895
c40.6064 -3.63184 90.9219 -20.293 108.536 -61.1406c21.6465 -50.2129 -17.8037 -96.1973 -61.5654 -115.786c-33.3164 -14.9092 -72.4365 27.0371 -33.5508 47.0703c27.3672 14.0967 54.0361 44.874 18.002 66.958c-20.4717 12.541 -48.626 12.5029 -71.6943 10.7441
c-29.2402 -2.23535 -163.085 -37.6475 -104.3 -82.1396c79.1807 -59.9219 202.079 -51.8447 272.936 -124.886z" />
    <glyph glyph-name="t" unicode="t" horiz-adv-x="217" 
d="M174.361 536.581c43.21 -16.5088 46.3887 -77.6504 42.4707 -116.358c-8.43262 -83.2383 -30.5166 -171.207 -68.3477 -248.203c14.4014 -0.177734 29.9648 -5.78418 34.5625 -20.8203c4.96582 -16.2295 -8.29199 -33.3613 -24.6865 -35.6533
c-11.5371 -1.61328 -23.0615 -3.30273 -34.5801 -5.03027c0.654297 -11.8672 1.47949 -23.7158 2.56543 -35.5195c2.60938 -28.4531 2.10156 -100.408 40.2764 -105.298c19.29 -2.46973 19.8936 -24.8711 5.33398 -33.4561
c-37.3867 -22.0459 -78.4121 6.29297 -97.0234 39.2988c-19.9258 35.3301 -26.0791 79.6826 -29.1846 121.812c-0.0126953 -0.00585938 -0.0253906 -0.00585938 -0.0380859 -0.00585938c-38.2383 -7.34668 -59.8779 42.4346 -17.6084 52.3652
c4.80664 1.13672 9.63281 2.18457 14.4463 3.27637c-2.48926 54.4102 -2.01953 109.393 2.50781 163.581c4.29883 51.4707 10.2041 107.189 32.8789 154.177c17.1885 35.6152 50.499 83.3779 96.4268 65.834zM152.871 405.212
c2.01953 14.833 3.71973 30.2568 2.57715 45.2227c-0.0761719 0.97168 -0.342773 3.46094 -0.743164 6.65527c-3.32129 -9.22656 -5.8418 -18.1289 -7.3916 -22.9609c-6.7627 -21.0684 -11.1816 -42.4922 -14.585 -64.335
c-4.15234 -26.6816 -6.8125 -53.5537 -8.47656 -80.4893c2.31152 6.75586 4.54688 13.5498 6.62305 20.4326c9.4043 31.1582 17.5957 63.1992 21.9961 95.4746z" />
    <glyph glyph-name="u" unicode="u" horiz-adv-x="359" 
d="M347.162 13.5498c9.0166 -43.2607 -60.9932 -55.2842 -74.8613 -16.9258c-3.63867 10.0703 -6.85156 20.3691 -9.76562 30.8145c-16.9473 -22.6367 -38.1484 -41.0762 -64.3096 -51.3115c-77.8223 -30.4531 -146.183 32.1807 -165.975 103.551
c-23.5957 85.0732 -24.1611 181.442 5.6377 264.401c8.46387 23.5576 51.2734 20.5225 52.6191 -5.8418c2.33008 -45.6162 -8.11523 -341.303 86.2861 -310.354c34.4531 11.3027 55.001 50.6133 68.5127 88.9785c-3.91797 32.4277 -5.78516 65.0459 -6.61719 96.54
c-1.01562 38.3652 0.527344 76.7617 5.22656 114.866c2.7998 22.6621 5.11133 49.6924 28.2939 60.2012c10.9219 4.94629 25.6084 4.32422 35.0186 -3.70801c23.3857 -19.9512 19.2139 -71.0156 19.5508 -98.4971c0.501953 -41.1465 -3.77148 -82.8008 -10.877 -123.382
c7.6582 -50.4932 20.8086 -99.1631 31.2598 -149.332z" />
    <glyph glyph-name="u" unicode="&#xfc;" horiz-adv-x="359" 
d="M347.162 13.5498c9.0166 -43.2607 -60.9932 -55.2842 -74.8613 -16.9258c-3.63867 10.0703 -6.85156 20.3691 -9.76562 30.8145c-16.9473 -22.6367 -38.1484 -41.0762 -64.3096 -51.3115c-77.8223 -30.4531 -146.183 32.1807 -165.975 103.551
c-23.5957 85.0732 -24.1611 181.442 5.6377 264.401c8.46387 23.5576 51.2734 20.5225 52.6191 -5.8418c2.33008 -45.6162 -8.11523 -341.303 86.2861 -310.354c34.4531 11.3027 55.001 50.6133 68.5127 88.9785c-3.91797 32.4277 -5.78516 65.0459 -6.61719 96.54
c-1.01562 38.3652 0.527344 76.7617 5.22656 114.866c2.7998 22.6621 5.11133 49.6924 28.2939 60.2012c10.9219 4.94629 25.6084 4.32422 35.0186 -3.70801c23.3857 -19.9512 19.2139 -71.0156 19.5508 -98.4971c0.501953 -41.1465 -3.77148 -82.8008 -10.877 -123.382
c7.6582 -50.4932 20.8086 -99.1631 31.2598 -149.332z" />
    <glyph glyph-name="u" unicode="&#xfb;" horiz-adv-x="359" 
d="M347.162 13.5498c9.0166 -43.2607 -60.9932 -55.2842 -74.8613 -16.9258c-3.63867 10.0703 -6.85156 20.3691 -9.76562 30.8145c-16.9473 -22.6367 -38.1484 -41.0762 -64.3096 -51.3115c-77.8223 -30.4531 -146.183 32.1807 -165.975 103.551
c-23.5957 85.0732 -24.1611 181.442 5.6377 264.401c8.46387 23.5576 51.2734 20.5225 52.6191 -5.8418c2.33008 -45.6162 -8.11523 -341.303 86.2861 -310.354c34.4531 11.3027 55.001 50.6133 68.5127 88.9785c-3.91797 32.4277 -5.78516 65.0459 -6.61719 96.54
c-1.01562 38.3652 0.527344 76.7617 5.22656 114.866c2.7998 22.6621 5.11133 49.6924 28.2939 60.2012c10.9219 4.94629 25.6084 4.32422 35.0186 -3.70801c23.3857 -19.9512 19.2139 -71.0156 19.5508 -98.4971c0.501953 -41.1465 -3.77148 -82.8008 -10.877 -123.382
c7.6582 -50.4932 20.8086 -99.1631 31.2598 -149.332z" />
    <glyph glyph-name="u" unicode="&#xfa;" horiz-adv-x="359" 
d="M347.162 13.5498c9.0166 -43.2607 -60.9932 -55.2842 -74.8613 -16.9258c-3.63867 10.0703 -6.85156 20.3691 -9.76562 30.8145c-16.9473 -22.6367 -38.1484 -41.0762 -64.3096 -51.3115c-77.8223 -30.4531 -146.183 32.1807 -165.975 103.551
c-23.5957 85.0732 -24.1611 181.442 5.6377 264.401c8.46387 23.5576 51.2734 20.5225 52.6191 -5.8418c2.33008 -45.6162 -8.11523 -341.303 86.2861 -310.354c34.4531 11.3027 55.001 50.6133 68.5127 88.9785c-3.91797 32.4277 -5.78516 65.0459 -6.61719 96.54
c-1.01562 38.3652 0.527344 76.7617 5.22656 114.866c2.7998 22.6621 5.11133 49.6924 28.2939 60.2012c10.9219 4.94629 25.6084 4.32422 35.0186 -3.70801c23.3857 -19.9512 19.2139 -71.0156 19.5508 -98.4971c0.501953 -41.1465 -3.77148 -82.8008 -10.877 -123.382
c7.6582 -50.4932 20.8086 -99.1631 31.2598 -149.332z" />
    <glyph glyph-name="v" unicode="v" horiz-adv-x="361" 
d="M319.145 433.925c33.0498 -29.6338 29.0859 -94.2988 27.9873 -134.2c-2.50781 -91.499 -16.8643 -210.512 -77.0527 -283.921c-26.377 -32.1738 -65.5352 -50.7275 -107.278 -39.1016c-45.5586 12.6934 -72.583 55.0771 -88.9014 96.5723
c-35.3555 89.9121 -43.1152 191.024 -69.0156 283.959c-7.53027 27.0176 35.0762 36.4219 48.5059 16.7695c36.8281 -53.9023 51.7559 -113.666 67.1094 -176.382c7.47949 -30.5361 15.0293 -61.2559 25.4746 -90.9404c5.47363 -15.5508 24.2686 -71.7578 46.1436 -72.1514
c18.4463 -0.330078 35.7559 39.7363 43.9473 60.8047c-0.832031 1.21875 -1.60645 2.49512 -2.24121 3.88574c-23.2148 50.7275 -35.209 106.053 -35.5205 161.879c-0.266602 47.5469 5.04199 105.977 30.3643 147.479c19.1826 31.4434 58.3604 54.1436 90.4775 25.3477z
M276.085 305.718c0.21582 9.21973 2.83984 42.8857 0.629883 66.7793c-6.67969 -18.1094 -10.0898 -42.1426 -11.3916 -50.9492c-3.21973 -21.7861 -4.17871 -43.9658 -3.45508 -65.9678c0.520508 -15.792 2.29199 -31.3486 4.94629 -46.709
c5.5498 31.9648 8.50879 64.4375 9.27051 96.8467z" />
    <glyph glyph-name="w" unicode="w" horiz-adv-x="443" 
d="M378.253 349.76c40.8789 -59.541 59.043 -133.198 49.0234 -204.95c-8.94043 -63.9922 -37.3994 -136.506 -88.9971 -178.287c-48.9375 -39.6289 -116.777 -32.752 -156.419 16.3252c-0.418945 0.520508 -0.774414 1.06641 -1.1875 1.59375
c-46.7461 -30.3447 -108.192 -22.7695 -141.744 23.9326c-38.2002 53.166 -30.6055 124.467 -16.001 184.332c14.2744 58.5059 35.0508 139.636 88.4268 174.87c18.8906 12.4707 65.3447 -0.413086 44.9941 -28.4658c-28.7451 -39.6348 -40.8408 -99.3984 -51.8447 -146.393
c-11.0234 -47.0889 -20.7832 -100.655 -0.394531 -146.659c14.6992 -33.1641 34.3955 -33.1895 53.21 -19.6582c-16.0264 42.4795 -15.9941 91.5566 -8.74316 135.351c7.51172 45.3877 32.8535 120.314 91.6963 113.856c58.8682 -6.45801 45.3057 -86.8896 36.3271 -126.149
c-7.52441 -32.917 -20.6367 -70.2783 -39.8125 -102.738c6.75 -16.6299 17.5889 -36.4023 31.8945 -38.4277c17.3477 -2.45703 34.5049 24.3896 42.6514 36.1426c57.4521 82.8447 55.4014 190.225 3.74023 275.044c-23.0244 37.793 41.7744 61.458 63.1797 30.2812z
M220.112 122.376c6.93359 18.9727 12.2617 38.7725 15.1191 58.5322c1.47949 10.1973 2.20312 20.5088 2.16504 30.8203c-0.0830078 21.8682 -3.43555 8.96582 -7.77246 -3.07324c-9.00391 -25.0049 -11.6006 -56.1816 -9.51172 -86.2793z" />
    <glyph glyph-name="x" unicode="x" horiz-adv-x="390" 
d="M291.455 180.706c22.4717 -46.2637 46.6064 -91.4141 82.8506 -130.191c28.0596 -30.0273 -35.2275 -61.6172 -59.4072 -37.5898c-25.8047 25.6465 -45.082 54.7979 -61.3311 85.6699c-11.2324 -23.2148 -23.4561 -45.8574 -38.3018 -66.627
c-56.8105 -79.5049 -160.774 -64.2598 -188.256 30.2939c-24.8467 85.4863 -13.5762 191.456 29.3037 269.659c18.0137 32.8467 45.5781 60.3223 86.1846 49.8711c37.8818 -9.75293 66.6201 -48.2637 86.2725 -79.707c9.72754 -15.5693 18.5283 -31.5703 26.8525 -47.7812
c2.08301 3.5752 4.08301 7.20117 6.20996 10.751c21.9131 36.6191 43.5146 71.6318 80.1846 94.6494c22.5986 14.1914 56.4111 -14.6934 33.5137 -35.6152c-20.0332 -18.3066 -33.7363 -48.2139 -47.001 -71.498c-13.3535 -23.4434 -25.4746 -47.5342 -37.0752 -71.8848z
M197.441 143.829c6.0957 12.5537 12.3203 25.0518 18.6318 37.5098c-9.8418 23.6973 -19.6328 47.5146 -30.6943 70.7861c-9.46777 19.9131 -19.9316 40.0859 -33.7617 57.4141c-3.47363 4.35547 -17.8496 23.7852 -24.2246 23.6328
c-2.22266 -0.0576172 -11.8613 -19.1191 -13.0488 -21.4688c-19.9893 -40.8984 -27.0186 -89.3467 -29.2031 -134.354c-1.16797 -24.1289 -0.348633 -48.7783 4.02637 -72.5771c2.98438 -16.249 7.77832 -46.6895 21.1631 -58.2012
c34.0977 -29.3291 75.7266 73.7959 87.1113 97.2578z" />
    <glyph glyph-name="y" unicode="y" horiz-adv-x="337" 
d="M309.803 391.954c25.5195 -34.9932 14.1338 -101.97 8.29199 -141.166c-7.31445 -49.0898 -21.1826 -97.0615 -41.7559 -142.214c11.3975 -105.354 30.7764 -211.509 30.6367 -317.237c-0.0576172 -44.2832 -73.9111 -41.4199 -79.6191 -0.000976562
c-9.59473 69.6055 -17.3857 140.722 -22.377 212.022c-5.12402 -3.76562 -10.5469 -7.17578 -16.3887 -10.0586c-45.1719 -22.2871 -97.7217 -5.96191 -128.931 31.6914c-32.4658 39.1709 -38.9492 93.3398 -42.1748 142.321
c-3.74609 56.9502 -1.73926 118.854 22.0273 171.606c9.06055 20.1094 56.124 22.1289 52.3779 -5.80957c-7.00391 -52.2266 -6.29297 -107.532 -1.41602 -159.917c3.23242 -34.6816 10.7627 -121.316 55.3818 -132.676c19.2139 -4.89551 38.6631 13.8613 54.9941 37.5459
c-2.03223 50.124 -2.52734 100.121 -1.04199 149.528c1.47266 48.9375 0.564453 109.488 26.8584 152.876c17.5947 29.0312 59.9912 43.2295 83.1357 11.4873zM276.054 298.709c0.825195 12.0449 1.33301 24.1523 0.932617 36.2295
c-0.177734 5.21973 -1.79688 11.3281 -3.42871 17.3984c-0.342773 -1.33984 -0.723633 -2.66699 -1.01562 -4.0127c-3.26367 -13.042 -4.87012 -26.1475 -5.67676 -39.5322c-1.51074 -25.0117 -1.36426 -50.2578 -0.348633 -75.5166
c4.76855 21.5127 8.01953 43.3682 9.53711 65.4336z" />
    <glyph glyph-name="y" unicode="&#xff;" horiz-adv-x="337" 
d="M309.803 391.954c25.5195 -34.9932 14.1338 -101.97 8.29199 -141.166c-7.31445 -49.0898 -21.1826 -97.0615 -41.7559 -142.214c11.3975 -105.354 30.7764 -211.509 30.6367 -317.237c-0.0576172 -44.2832 -73.9111 -41.4199 -79.6191 -0.000976562
c-9.59473 69.6055 -17.3857 140.722 -22.377 212.022c-5.12402 -3.76562 -10.5469 -7.17578 -16.3887 -10.0586c-45.1719 -22.2871 -97.7217 -5.96191 -128.931 31.6914c-32.4658 39.1709 -38.9492 93.3398 -42.1748 142.321
c-3.74609 56.9502 -1.73926 118.854 22.0273 171.606c9.06055 20.1094 56.124 22.1289 52.3779 -5.80957c-7.00391 -52.2266 -6.29297 -107.532 -1.41602 -159.917c3.23242 -34.6816 10.7627 -121.316 55.3818 -132.676c19.2139 -4.89551 38.6631 13.8613 54.9941 37.5459
c-2.03223 50.124 -2.52734 100.121 -1.04199 149.528c1.47266 48.9375 0.564453 109.488 26.8584 152.876c17.5947 29.0312 59.9912 43.2295 83.1357 11.4873zM276.054 298.709c0.825195 12.0449 1.33301 24.1523 0.932617 36.2295
c-0.177734 5.21973 -1.79688 11.3281 -3.42871 17.3984c-0.342773 -1.33984 -0.723633 -2.66699 -1.01562 -4.0127c-3.26367 -13.042 -4.87012 -26.1475 -5.67676 -39.5322c-1.51074 -25.0117 -1.36426 -50.2578 -0.348633 -75.5166
c4.76855 21.5127 8.01953 43.3682 9.53711 65.4336z" />
    <glyph glyph-name="y" unicode="&#xfd;" horiz-adv-x="337" 
d="M309.803 391.954c25.5195 -34.9932 14.1338 -101.97 8.29199 -141.166c-7.31445 -49.0898 -21.1826 -97.0615 -41.7559 -142.214c11.3975 -105.354 30.7764 -211.509 30.6367 -317.237c-0.0576172 -44.2832 -73.9111 -41.4199 -79.6191 -0.000976562
c-9.59473 69.6055 -17.3857 140.722 -22.377 212.022c-5.12402 -3.76562 -10.5469 -7.17578 -16.3887 -10.0586c-45.1719 -22.2871 -97.7217 -5.96191 -128.931 31.6914c-32.4658 39.1709 -38.9492 93.3398 -42.1748 142.321
c-3.74609 56.9502 -1.73926 118.854 22.0273 171.606c9.06055 20.1094 56.124 22.1289 52.3779 -5.80957c-7.00391 -52.2266 -6.29297 -107.532 -1.41602 -159.917c3.23242 -34.6816 10.7627 -121.316 55.3818 -132.676c19.2139 -4.89551 38.6631 13.8613 54.9941 37.5459
c-2.03223 50.124 -2.52734 100.121 -1.04199 149.528c1.47266 48.9375 0.564453 109.488 26.8584 152.876c17.5947 29.0312 59.9912 43.2295 83.1357 11.4873zM276.054 298.709c0.825195 12.0449 1.33301 24.1523 0.932617 36.2295
c-0.177734 5.21973 -1.79688 11.3281 -3.42871 17.3984c-0.342773 -1.33984 -0.723633 -2.66699 -1.01562 -4.0127c-3.26367 -13.042 -4.87012 -26.1475 -5.67676 -39.5322c-1.51074 -25.0117 -1.36426 -50.2578 -0.348633 -75.5166
c4.76855 21.5127 8.01953 43.3682 9.53711 65.4336z" />
    <glyph glyph-name="z" unicode="z" horiz-adv-x="320" 
d="M265.828 61.5537c38.041 18.5479 81.7266 -29.417 38.4346 -53.9141c-60.5312 -34.25 -133.877 -64.0869 -204.866 -60.9629c-28.4912 1.25098 -58.5439 12.2744 -70.3984 40.2637c-12.3633 29.1963 -0.438477 63.6494 11.3525 91.0352
c27.9961 65.0332 71.0088 121.546 110.04 180.084c9.45508 14.1787 20.8975 29.1572 27.6914 44.8789c9.51855 22.0332 -6.01953 24.6172 -24.916 24.7256c-36.7842 0.203125 -70.5713 -9.75977 -104.783 -21.5703c-4.17773 -3.23828 -9.39062 -5.36523 -14.4131 -5.41016
c-1.94922 -0.0185547 -3.90527 -0.03125 -5.85449 -0.0498047c-16.5918 -0.146484 -36.2441 21.8936 -17.4551 34.5547c50.5312 34.0596 127.877 52.7148 188.174 37.9072c26.2119 -6.43848 47.0449 -27.1895 48.5557 -55.0078
c1.58789 -29.2979 -16.3623 -55.6807 -30.7314 -79.6953c-36.7461 -61.4141 -82.4199 -119.292 -107.019 -187.157c-2.95898 -8.16602 -11.8291 -29.1709 -8.41309 -37.7363c1.26953 -3.2002 -0.146484 -0.616211 7.15527 -2.14062
c15.4238 -3.21289 39.6094 4.91504 54.29 8.73145c35.9707 9.34082 69.8652 25.2344 103.156 41.4639z" />
    <glyph glyph-name="braceleft" unicode="{" horiz-adv-x="353" 
d="M254.793 -112.011c45.3496 8.3877 71.1543 -50.2793 20.8896 -62.166c-94.4072 -22.3447 -143.37 81.9492 -160.406 157.295c-10.375 45.8896 -13.2637 92.9727 -13.1807 139.903c0.0449219 23.7539 0.788086 47.4951 1.34668 71.2432
c0.266602 11.2324 -2.85156 27.8174 0.386719 38.3828c-0.304688 2.6416 -0.603516 5.2832 -0.902344 7.9248c-0.578125 -0.0888672 -1.07324 -0.165039 -1.72754 -0.260742c-26.8018 -5.12402 -66.1377 18.084 -45.3613 48.3848
c53.6611 78.2793 61.7568 174.598 86.9082 263.76c10.8457 38.4346 24.8975 87.8799 53.833 117.013c22.2363 22.3887 61.3691 23.8613 80.6914 -3.15039c15.6963 -21.9385 -24.7637 -36.7969 -38.5488 -18.4775c4.77539 -6.34961 -13.2256 -38.7715 -16.0957 -47.4326
c-5.70801 -17.2139 -10.4199 -34.8281 -14.5283 -52.4932c-7.58789 -32.6309 -12.4902 -65.7891 -18.1416 -98.7881c-8.95898 -52.3535 -19.8232 -103.786 -41.6602 -151.453c13.3662 -6.78809 24.2559 -17.9004 30.1865 -35.0322
c13.3467 -38.5303 3.96777 -87.7148 3.7959 -127.75c-0.203125 -48.5371 1.35254 -97.709 13.7158 -144.906c4.91504 -18.7637 29.3994 -107.438 58.7988 -101.996z" />
    <glyph glyph-name="verticalbar" unicode="|" horiz-adv-x="196" 
d="M146.261 -123.701c2.99023 -42.2891 -74.418 -41.8945 -78.3799 0.00683594c-12.2744 129.743 -12.1855 260.445 -11.9951 390.665c0.0957031 64.1318 0.18457 128.276 -0.393555 192.408c-0.298828 33.0566 -1.03516 66.1133 -1.4668 99.1699
c-0.21582 16.5029 -0.882812 33.0186 -0.710938 49.5273c0.0703125 6.39453 1.35938 29.9453 1.86133 34.3135c-8.33691 9.30273 -7.76562 23.583 10.4072 26.9229c20.2236 3.7207 30.8398 -6.95312 36.7705 -25.0176c10.6797 -32.542 11.5879 -70.4688 14.6416 -104.332
c6.50879 -72.1328 8.97852 -144.741 11.1377 -217.115c4.44434 -148.977 7.61328 -297.839 18.1279 -446.549z" />
    <glyph glyph-name="braceright" unicode="}" horiz-adv-x="353" 
d="M297.316 288.692c20.7061 -30.2119 -18.501 -53.5205 -45.373 -48.3838c-0.660156 0.0957031 -1.15527 0.171875 -1.73926 0.260742c-0.679688 -4.07031 -1.02246 -8.15918 -0.958984 -12.2734c-0.578125 -13.2705 0.285156 -26.7002 0.602539 -39.9707
c0.571289 -23.748 1.30762 -47.4893 1.21875 -71.2432c-0.171875 -44.9941 -3.37891 -89.9688 -13.2021 -133.972c-16.833 -75.4023 -66.1768 -179.595 -160.406 -157.295c-50.3467 11.918 -24.3447 70.5449 20.9033 62.1758
c30.4854 -5.64453 55.3193 87.8486 60.1201 107.38c11.1943 45.5527 12.5908 92.8203 12.3936 139.516c-0.165039 40.4922 -10.6484 93.1562 5.2002 131.692c6.2168 15.1182 16.4014 25.1064 28.6689 31.3291c-21.7666 47.6035 -32.6123 98.9473 -41.5459 151.218
c-5.92383 34.6377 -11.0986 69.4336 -19.3027 103.633c-4.21582 17.6074 -8.98438 35.2021 -14.915 52.3213c-3.10547 8.95898 -19.9199 35.6152 -14.5479 42.7588c-13.8174 -18.3633 -54.2207 -3.42285 -38.5498 18.4775c19.3408 27.043 58.4736 25.5186 80.6914 3.14844
c28.8975 -29.0947 43.0068 -78.6475 53.833 -117.013c25.1514 -89.1562 33.2539 -185.487 86.9092 -263.76z" />
    <glyph glyph-name="nonbreakingspace" unicode="&#xa0;" horiz-adv-x="366" 
 />
    <glyph glyph-name="exclamdown" unicode="&#xa1;" horiz-adv-x="200" 
d="M64.8096 332.677c4.78125 39.749 77.9551 40.8096 75.1484 0c-5.52441 -80.3936 -11.7158 -160.679 -13.8623 -241.256c-2.13965 -80.3682 3.27051 -161.416 -0.945312 -241.612c-1.89844 -36.1738 -59.0713 -33.3164 -64.4873 0
c-12.8135 78.7998 -10.9463 161.987 -9.94336 241.612c1.01562 80.5391 4.46387 161.25 14.0898 241.256zM91.2939 507.103c8.64844 30.8281 65.0752 20.2188 58.3574 -13.1934c-3.92383 -19.5127 -3.26367 -38.3779 -2.92676 -58.1191
c0.489258 -28.4658 -49.5586 -31.9902 -57 -6.3252c-7.31445 25.2021 -5.44727 52.6328 1.56934 77.6377z" />
    <glyph glyph-name="cent" unicode="&#xa2;" horiz-adv-x="472" 
d="M371.333 128.414c12.4834 20.2178 61.1279 8.32227 49.1846 -17.0195c-28.4336 -60.3154 -73.7129 -117.964 -133.413 -145.56c5.49902 -51.585 13.0166 -102.903 17.4482 -154.57c2.39355 -27.8496 -50.1123 -31.7041 -56.2715 -6.24219
c-11.3408 46.9111 -18.4717 95.3975 -22.9414 144.455c-9.69629 -0.774414 -19.6523 -0.799805 -29.8877 0.0507812c-106.561 8.83203 -151.428 104.338 -144.817 201.062c7.04199 103.062 46.3779 203.209 116.841 279.387c18.624 20.1348 40.2002 38.168 64.6787 49.4199
c3.39062 47.4512 6.92773 94.8965 9.96875 142.373c1.54297 24.1162 46.0479 23.9824 44.6445 0c-2.5459 -43.4443 -4.62207 -86.9336 -6.31152 -130.448c2.64746 0.101562 5.30762 0.152344 8.00586 0.0761719c43.248 -1.20605 76.5645 -27.7158 92.2354 -67.0713
c9.2959 -23.3604 -32.4023 -29.1768 -41.8574 -9.46094c-15.8613 33.082 -37.8057 35.5645 -60.2266 23.6592c-2.28613 -74.3799 -3.33984 -148.805 -3.01562 -223.191c0.279297 -63.8398 2.13379 -127.66 6.49609 -191.36c38.0918 24.7832 67.1611 68.6914 89.2393 104.44z
M218.857 209.18c0.647461 60.3096 3.54102 120.491 7.27441 180.636c-16.7695 -21.1318 -30.5547 -43.1777 -37.7549 -55.8711c-32.1992 -56.7344 -50.8164 -123.539 -53.8584 -188.61c-2.69824 -57.7568 8.09668 -137.115 80.8896 -140.684
c2.00684 -0.101562 3.98828 -0.114258 5.95703 -0.101562c-3.69531 68.71 -3.21875 137.813 -2.50781 204.631z" />
    <glyph glyph-name="sterling" unicode="&#xa3;" horiz-adv-x="555" 
d="M448.533 26.4375c38.0537 15.4805 81.2168 -27.9824 38.0576 -53.3877c-74.8184 -44.041 -180.985 16.9863 -255.568 47.376c-24.2871 -32.7266 -57.5342 -54.6328 -103.671 -52.6582c-35.5078 1.51758 -77.1299 26.5674 -77.3457 66.1768
c-0.253906 46.4541 56.6074 54.0352 91.5176 53.5586c11.5625 -0.152344 23.0869 -1.0791 34.5732 -2.46289c7.88672 19.7793 13.417 40.3398 17.9883 55.9668c6.77539 23.1514 11.7031 46.6709 15.7354 70.3682c-11.5371 -0.489258 -23.0361 -0.889648 -34.3896 -1.1377
c-26.1484 -0.571289 -34.0791 34.8027 -6.55957 39.7559c15.7598 2.83789 31.7734 5.53613 47.9082 8.04395c8.73047 66.5576 14.2422 133.699 34.5166 197.653c12.2998 38.79 32.7393 80.1016 72.457 96.6553c35.1836 14.6611 68.3096 2.60352 90.5205 -26.4531
c16.2803 -21.3096 -23.8691 -35.4697 -38.124 -18.2744c-17.7852 21.4434 -42.5488 -26.6621 -46.3779 -36.8848c-10.96 -29.2598 -16.167 -60.5381 -19.418 -91.4678c-3.87305 -36.8477 -5.95605 -73.7461 -9.23926 -110.562
c15.6201 1.4541 31.1836 2.59082 46.5752 3.2832c30.3193 1.36523 38.9551 -40.1045 7.5498 -45.7432c-19.5566 -3.51172 -39.5967 -6.26758 -59.8076 -8.50293c-0.56543 -4.13965 -1.09277 -8.2793 -1.73438 -12.4062
c-6.17188 -39.9082 -16.2744 -92.249 -35.9961 -137.662c11.6768 -3.34668 23.2646 -6.90234 34.7256 -10.5537c27.043 -8.61035 53.8574 -17.8496 81.4404 -24.6689c22.6299 -5.59375 51.877 -15.2773 74.666 -6.0127zM126.741 23.0859
c10.2354 4.13965 18.9014 11.3672 26.3115 20.4277c-2.71094 0.438477 -5.43457 0.857422 -8.1582 1.2002c-7.35254 0.933594 -26.8271 5.08594 -34.5742 1.24414c-28.5352 -14.1729 0.483398 -29.3232 16.4209 -22.8721z" />
    <glyph glyph-name="currency" unicode="&#xa4;" horiz-adv-x="476" 
d="M359.729 132.16c19.3281 -18.4521 38.415 -37.1123 56.7852 -56.3965c23.8936 -25.0938 -16.1221 -49.8643 -38.5869 -31.6406c-19.6963 15.9824 -38.4854 33.3682 -56.7402 51.4453c-38.3271 -28.4404 -85.7598 -43.9336 -134.252 -37.7168
c-7.74023 0.990234 -15.2197 2.64746 -22.4014 4.91406c-23.7354 -37.3936 -46.9629 -75.1299 -70.7109 -112.44c-13.252 -20.8271 -55.1602 -5.05469 -40.9053 19.6074c22.5918 39.0693 46.0352 77.5293 70.6787 115.195
c-13.1504 10.9912 -24.0527 24.8906 -32.0029 41.2793c-22.4014 46.1875 -14.6416 96.7568 -5.24414 145.192c1.30176 6.71191 5.05469 11.9062 10.2363 15.6719c5.13086 11.1562 12.9854 21.4619 22.3701 30.6943c-20.8652 23.373 -41.8066 46.6768 -62.6143 70.1006
c-17.252 19.417 22.8398 34.5674 37.6914 18.0645c19.0234 -21.1318 38.0537 -42.2441 57.1602 -63.2871c8.77539 5.41016 17.6396 10.0264 25.9453 13.7158c35.3809 15.6963 75.5869 19.7666 113.151 9.85449c14.6104 -3.85449 28.2686 -9.6582 40.6953 -16.9854
c18.4902 20.7822 37.0635 41.4883 55.541 62.2578c14.0771 15.8232 52.2578 1.59375 35.9834 -17.2461c-19.9766 -23.1318 -40.251 -46.0986 -60.4238 -69.167c37.209 -37.6533 52.0166 -93.124 26.5352 -147.592c-7.60059 -16.249 -17.3857 -31.5771 -28.8916 -45.5215z
M276.351 319.535c-27.5264 11.7471 -67.4326 9.17578 -98.248 -6.15234c20.9346 -22.7314 42.1553 -45.1904 63.7383 -67.3193c17.5059 21.2646 35.3672 42.2314 53.4893 62.9883c-5.61328 3.95605 -11.9375 7.47363 -18.9795 10.4834zM166.661 148.246
c12.877 18.0645 26.0771 35.9258 39.6973 53.5273c2.52734 3.27051 5.13086 6.47754 7.68359 9.72852c-16.998 18.9541 -33.9072 37.9971 -50.8867 56.9697c0.146484 -1.72754 0.15918 -3.51172 -0.0761719 -5.39746c-3.56836 -28.3896 -12.6416 -82.3301 3.58203 -114.828z
M203.158 122.206c24.1729 -3.42871 48.8477 7.64551 69.5791 23.9258c-10.0703 11.0039 -20.001 22.0713 -29.8809 33.1328c-13.6328 -18.7383 -26.8213 -37.7939 -39.6982 -57.0586zM311.84 188.973c19.0361 29.8438 22.6309 62.7666 9.81055 89.4414
c-17.2588 -20.3125 -34.2061 -40.873 -50.6006 -61.8398c11.8799 -11.6514 23.9189 -23.1572 36.0215 -34.6055c1.69531 2.3623 3.30176 4.69922 4.76855 7.00391z" />
    <glyph glyph-name="yen" unicode="&#xa5;" horiz-adv-x="448" 
d="M369.444 95.3252c38.3398 1.32715 38.1045 -48.8857 0 -49.832c-10.7754 -0.266602 -21.5381 -0.330078 -32.3008 -0.400391c0.438477 -40.3203 0.291992 -80.6348 -0.850586 -120.86c-1.32031 -46.416 -83.3965 -46.1113 -85.5742 0
c-1.91113 40.3906 -2.99707 80.9463 -3.5625 121.559c-16.7637 0.286133 -33.5264 0.572266 -50.3086 0.782227c-29.1133 0.355469 -28.25 35.3994 0 37.4248c16.6611 1.19336 33.291 2.46289 49.9141 3.73242c-0.0322266 7.09277 -0.0449219 14.1787 -0.0390625 21.2646
c-18.2617 0.349609 -36.5107 0.895508 -54.6768 1.38477c-28.1865 0.768555 -28.3076 37.1143 -0.000976562 36.8154c18.3633 -0.19043 36.6318 0.400391 54.8613 1.32715c0.209961 24.751 0.540039 49.502 1.07324 74.2217
c-41.8252 -27.5771 -90.7119 -37.6797 -135.648 -2.61621c-78.4824 61.2363 -68.9961 198.161 -45.9277 282.897c8.97168 32.9609 70.8115 21.7217 62.665 -14.167c-11.8418 -52.1689 -12.4385 -106.929 -0.113281 -159.136
c8.95312 -37.9453 32.2246 -95.8672 81.6445 -77.0215c13.6582 5.20703 26.6309 13.1123 38.7266 22.9668c0.469727 16.0967 0.984375 32.1738 1.5498 48.2324c1.87305 53.4072 4.50781 107.799 18.6045 159.632c9.21973 33.8945 43.7744 70.9893 81.5996 47.2734
c32.0596 -20.1035 32.5107 -73.3516 27.0117 -105.773c-7.0166 -41.3623 -26.8213 -81.5879 -49.1914 -117.013c1.15527 -27.3096 2.50781 -54.626 3.47266 -81.917c0.844727 -23.8682 1.66406 -47.7744 2.39453 -71.6934c11.1055 0.755859 22.2236 1.4541 33.3672 1.98145
c28.0215 1.32031 36.5361 -38.8291 7.02246 -42.5498c-13.0107 -1.63867 -26.0781 -2.73047 -39.1709 -3.54297c0.133789 -5.51172 0.235352 -11.0234 0.356445 -16.5283c11.0234 0.583984 22.0469 1.1748 33.1016 1.55566zM326.787 397.266
c7.80371 25.8809 11.29 51.7178 9.31543 74.4619c-0.533203 6.17871 0.806641 29.8252 -2.46387 11.957c-2.19043 -11.9756 -3.40918 -24.0273 -4.46973 -36.1357c-1.4668 -16.7441 -2.18457 -33.501 -2.38184 -50.2832z" />
    <glyph glyph-name="section" unicode="&#xa7;" horiz-adv-x="439" 
d="M378.486 157.152c-6.42578 -16.3887 -16.5654 -35.5547 -30.9795 -48c12.5283 -36.46 11.4873 -75.752 -13.4736 -111.425c-42.1934 -60.3096 -124.841 -74.6348 -188.858 -42.3398c-65.1855 32.8848 -103.322 107.723 -93.6963 179.76
c4.10156 30.6631 57.585 32.4414 58.5371 0.000976562c1.0918 -37.0889 7.04785 -73.8477 32.415 -102.72c22.2236 -25.2969 59.3818 -40.4277 92.0381 -27.335c75.9043 30.4277 38.0605 115.52 -4.56445 156.525c-40.9492 39.3936 -120.797 83.7715 -104.357 151.834
c8.80664 36.4658 44.9297 66.957 83.8848 78.9961c-35.8184 29.291 -72.6846 59.3564 -84.1016 102.052c-36.0088 134.613 183.316 213.089 230.311 74.5635c9.53125 -28.0908 -38.5039 -39.374 -51.6797 -17.8672c-18.4141 30.0654 -40.6953 54.5312 -75.7588 29.6406
c-27.9131 -19.8115 -38.6885 -57.8018 -19.3477 -86.8076c17.4932 -26.2373 47.1904 -43.623 70.0176 -64.8184c25.291 -23.4873 49.7373 -49.502 68.126 -78.8252c34.8408 -55.5537 56.5127 -129.407 31.4883 -193.234zM324.801 163.118
c1.01562 8.7373 1.24902 17.2979 1.19141 26.0732c-0.126953 20.9541 -2.97754 40.9307 -9.31445 60.9258c-11.1885 35.3232 -30.8086 66.0811 -54.709 94.166c-5.1875 6.0957 -10.9336 11.9883 -17.0479 17.7598c-20.6045 -1.25098 -40.9746 -18.8457 -50.7783 -35.6094
c-13.5947 -23.2588 -4.20312 -44.6191 13.0107 -62.2842c27.1387 -27.8438 61.3252 -48.1885 88.9277 -75.7021c10.0449 -10.0195 19.3789 -21.1064 27.5508 -32.917c0.393555 2.52734 0.78125 5.06055 1.16895 7.58789z" />
    <glyph glyph-name="copyright" unicode="&#xa9;" horiz-adv-x="692" 
d="M621.119 447.619c44.9873 -130.797 14.6885 -305.598 -67.7119 -415.942c-85.7588 -114.847 -246.939 -143.891 -350.503 -35.2852c-90.915 95.3408 -106.065 229.218 -101.462 356.307c-4.0957 -17.2207 -5.86133 -34.9111 -4.69922 -52.8428
c1.60059 -24.7451 -43.1201 -24.2686 -45.6406 0c-15.2588 146.741 130.917 267.348 262.045 294.874c127.444 26.751 262.769 -15.6777 307.972 -147.11zM516.764 112.229c49.9912 97.5762 75.0742 234.005 37.1348 339.715
c-40.0859 111.717 -172.217 131.527 -271.989 92.7305c-46.0801 -17.9248 -92.8711 -50.8604 -127.953 -92.4258c16.5977 -2.29199 30.9922 -12.7373 30.7002 -31.5322c-1.97461 -128.562 -13.5625 -283.229 82.7051 -384.569
c88.7051 -93.3789 201.278 -17.8555 249.402 76.082zM412.529 179.395c17.8232 20.2812 66.9775 4.69238 47.1094 -22.5791c-37.2412 -51.1279 -93.6455 -86.4961 -155.93 -52.6963c-60.9512 33.0752 -74.6094 110.071 -69.8535 173.231
c5.06738 67.3262 26.5166 135.592 75.0537 184.44c36.4023 36.6377 105.328 48.3848 131.521 -5.78418c9.53711 -19.7217 -29.7607 -30.2686 -38.9873 -13.4795c-24.0908 43.8447 -68.7861 -50.7021 -75.2568 -67.7959
c-12.4199 -32.8027 -18.5352 -67.7959 -19.7285 -102.783c-1.25684 -36.9551 2.3877 -79.3076 26.9932 -109.062c28.1543 -34.0469 55.9404 -9.81055 79.0791 16.5088z" />
    <glyph glyph-name="softhyphen" unicode="&#xad;" 
 />
    <glyph glyph-name="registered" unicode="&#xae;" horiz-adv-x="766" 
d="M710.037 413.565c23.6592 -142.277 -27.5527 -312.012 -137.923 -407.498c-111.03 -96.0586 -279.799 -116.949 -393.725 -14.8145c-113.57 101.817 -128.391 262.617 -121.361 407.396c-5.21289 4.08887 -8.28613 10.2549 -6.5332 18.1035
c36.7334 164.68 202.695 246.629 360.313 244.216c71.4912 -1.0918 145.338 -19.1377 200.936 -66.1318c54.1758 -45.8008 86.7812 -112.016 98.293 -181.271zM546.949 86.5615c74.5137 90.7627 109.94 234.379 81.957 348.852
c-13.3154 54.4609 -42.6064 106.294 -90.4385 137.401c-49.6992 32.3203 -112.364 39.4766 -170.362 36.4863c-102.008 -5.25781 -203.457 -54.3662 -251.334 -143.097c12.6738 -4.35547 22.376 -14.1787 22.1787 -29.6152
c-1.7207 -137.325 -15.5566 -308.106 102.021 -406.571c97.3594 -81.5361 231.935 -33.6406 305.979 56.5439zM516.523 197.445c35.3105 5.02246 55.624 -42.6455 16.2178 -48.2266c-53.5088 -7.60742 -97.874 10.6797 -145.104 26.1416
c-13.0361 -11.7217 -27.0059 -22.2998 -41.667 -31.1953c3.8418 -17.2393 9.5752 -33.9004 21.2139 -47.0312c26.8018 -30.2627 -35.4189 -53.4072 -58.4688 -28.0273c-12.8135 14.1025 -20.1533 30.9736 -25.3096 48.7402
c-32.4531 -7.2002 -79.2188 -4.93945 -93.2012 30.333c-14.5596 36.7139 30.2441 64.5127 59.2178 74.2402c4.36816 1.4668 8.71777 2.6416 13.0605 3.67676c-1.33301 9.31543 -2.58984 18.6367 -3.70117 27.9707c-4.38086 36.8223 -6.99023 73.8281 -7.86035 110.872
c-21.9385 -14.2168 -44.0986 -31.2979 -39.5967 -39.1904c13.0293 -22.8271 -25.3867 -37.1523 -37.6924 -18.0713c-22.8525 35.4375 25.4688 71.999 51.166 90.6797c8.28027 6.01953 16.9854 11.7275 26.002 17.0107c0.362305 18.3633 1.14355 36.7266 2.375 55.0645
c2.5459 38.0156 72.0498 38.2256 70.6914 0c-0.317383 -8.96582 -0.583984 -17.9248 -0.819336 -26.8906c12.083 2.25391 24.376 3.26367 36.7451 2.71094c86.3496 -3.87988 131.502 -78.9209 104.459 -158.616c-9.52441 -28.0723 -25.5762 -55.7002 -45.9521 -80.4004
c32.3135 -8.28613 64.8242 -14.541 98.2236 -9.79102zM251.228 174.693c5.94922 -1.47949 12.6162 -0.788086 19.5371 1.23145c-0.647461 3.46094 -1.28223 6.92188 -1.89844 10.3828c-4.46387 -1.81641 -8.75586 -4.05176 -12.8135 -6.83887
c-7.30859 -5.0293 -9.94336 -3.49902 -4.8252 -4.77539zM344.479 225.737c40.873 38.1621 100.966 115.537 52.2451 161.287c-20.1221 18.8838 -48.3398 18.9668 -74.3926 12.3379c-0.209961 -40.4922 0.907227 -80.9648 4.32324 -121.374
c1.41602 -16.7373 3.16895 -33.4561 5.32812 -50.1172c4.17188 -0.62207 8.33691 -1.33984 12.4961 -2.13379z" />
    <glyph glyph-name="mu" unicode="&#xb5;" horiz-adv-x="426" 
d="M375.42 301.145c4.91504 -36.4023 -63.457 -36.4746 -68.708 -0.00878906c-5.14941 35.7803 -10.5215 71.8975 -14.998 108.116c-7.16211 -16.7949 -14.6611 -33.4121 -22.9414 -49.6162c-16.4326 -32.168 -40.2314 -71.5869 -82.1523 -64.5645
c-30.5234 5.11816 -46.3975 30.3389 -55.5732 57.8525c-1.30762 -40.8535 -1.61914 -81.7324 -0.672852 -122.611c1.31445 -56.5439 4.00684 -113.031 7.32129 -169.486c1.66406 -28.3828 3.1875 -56.7402 5.87988 -85.0469
c1.14258 -12.0518 2.32324 -24.1162 3.56152 -36.1553c1.00977 -7.95605 1.88574 -15.9248 2.62207 -23.9131c0.222656 -1.87305 0.400391 -3.47949 0.540039 -4.9209c0.558594 -0.946289 1.12988 -1.88574 1.57422 -2.93945
c0.311523 -0.743164 0.628906 -1.48633 0.94043 -2.22949c3.10547 -7.33398 -0.863281 -16.4961 -6.79395 -21.0811c-0.705078 -0.540039 -1.40332 -1.08594 -2.1084 -1.62598c-8.76855 -6.77539 -22.9541 -9.08691 -32.9424 -3.48633
c-20.8965 11.7148 -25.3223 37.0879 -30.459 58.8867c-7.13086 30.2305 -10.9727 61.2617 -14.5225 92.0957c-7.62598 66.2783 -12.4834 133.229 -14.6104 199.901c-2.16504 67.8467 -2.80664 136.569 6.01953 204.01c6.48926 49.5781 13.6641 109.012 59.6045 138.277
c14.9092 9.49902 38.416 6.60352 41.0449 -13.9375c4.62891 -36.2061 0.837891 -72.4561 2.9082 -108.814c1.18066 -20.8203 3.84082 -41.3936 9.53613 -61.4902c3.53027 -12.4521 8.28613 -38.0664 19.709 -45.4131c19.3027 -12.4072 42.4473 58.4238 48.6768 74.4062
c14.8135 37.9834 29.8369 75.916 44.0098 114.142c7.62598 20.5732 47.8955 23.958 53.8262 0.000976562c18.6113 -75.1934 28.3516 -153.644 38.708 -230.348z" />
    <glyph glyph-name="paragraph" unicode="&#xb6;" horiz-adv-x="522" 
d="M423.56 593.434c-8.35645 -230.824 26.4834 -456.511 48.5615 -685.468c3.03516 -31.4375 -55.001 -34.8027 -62.8496 -6.97852c-30.8594 109.424 -38.8535 228.881 -50.5049 341.664c-5.21289 50.499 -9.4541 101.252 -11.8096 152.062
c-9.13672 -9.09277 -18.3564 -18.2109 -27.7354 -27.1895c3.03516 -48.042 6.33105 -96.0713 10.5156 -144.05c4.87695 -55.9727 9.97559 -111.913 15.9883 -167.777c5.75879 -53.5283 15.1631 -107.304 17.5635 -161.086c1.4668 -32.8789 -59.1475 -37.7305 -66.5 -7.37891
c-25.8115 106.566 -33.6982 221.052 -44.3145 330.019c-2.86328 29.4688 -5.625 58.9697 -8.17773 88.502c-14.2998 -9.41016 -29.1455 -17.665 -44.7402 -24.1865c-60.1191 -25.1318 -157.187 -14.4004 -149.071 71.9746c6.71777 71.5742 89.4795 133.344 151.008 157.225
c9.65137 3.74609 19.6777 6.94043 29.875 9.49902c-0.298828 11.207 -0.578125 22.4141 -0.724609 33.6211c-0.540039 41.8379 74.0439 41.1777 76.8887 0c0.672852 -9.66406 1.29492 -19.335 1.92969 -29.0059c12.5596 -2.06348 24.6553 -5.70801 35.9004 -11.2256
c0.59668 26.6182 1.87305 53.2236 4.03223 79.7783c3.23242 39.7051 75.6191 40.2197 74.165 0.000976562zM166.091 311.921c27.5576 8.54688 51.9961 25.8174 74.0996 44.2061c-2.85742 37.3047 -5.28906 74.6475 -6.99121 112.009
c-6.51465 -2.31152 -12.9023 -4.94043 -19.0869 -7.87988c-40.4854 -19.2588 -96.4131 -61.7568 -107.83 -108.046c-10.5146 -42.6514 27.6348 -50.2705 59.8086 -40.2891zM315.415 429.237c7.73438 7.9248 15.582 15.7109 23.6084 23.3047
c-8.57227 7.40332 -16.6875 14.0068 -26.1553 18.5664c0.857422 -13.957 1.70215 -27.9141 2.54688 -41.8711z" />
    <glyph glyph-name="questiondown" unicode="&#xbf;" horiz-adv-x="441" 
d="M346.564 83.667c4.36816 23.208 48.3867 15.417 43.7764 -9.89941c-13.2959 -72.9385 -53.4326 -136.226 -118.682 -172.927c-61.1475 -34.4023 -150.469 -42.46 -197.107 19.792c-53.833 71.8594 -7.33398 161.625 27.2715 230.164
c41.0508 81.3076 85.168 161.092 113.373 248.07c12.4521 38.3906 88.0957 24.5039 74.1455 -16.7627c-22.2363 -65.7832 -53.4453 -127.534 -85.6768 -188.879c-29.8438 -56.792 -78.0127 -123.705 -81.251 -189.577c-1.44141 -29.3418 8.78809 -62.875 39.9902 -71.752
c26.916 -7.6582 57.8008 3.16211 81.542 15.709c52.3916 27.6914 91.6709 77.8604 102.618 136.062zM269.241 435.58c-13.792 1.51758 -28.7334 11.2314 -28.708 26.668c0.0195312 17.9502 4.36914 35.9766 9.78516 53.0254c5.55566 17.5 26.9736 23.0625 43.0195 20.0273
c14.7246 -2.78711 31.2969 -19.1943 24.4268 -35.2783c-6.20996 -14.5342 -9.27637 -29.5254 -12.1904 -44.9932c-2.84473 -15.1055 -23.6465 -20.8457 -36.333 -19.4492z" />
    <glyph glyph-name="Agrave" unicode="&#xc0;" horiz-adv-x="517" 
d="M482.193 193.249c36.2119 1.5752 44.6162 -49.5254 7.10254 -56.9541c-0.698242 -0.146484 -1.40918 -0.267578 -2.11426 -0.401367c7.96289 -91.8291 15.417 -184.262 18.2236 -276.065c1.2002 -39.2217 -73.6631 -46.4287 -80.3877 -8.9209
c-15.9316 88.8574 -18.5537 180.064 -22.1348 270.681c-49.8262 -7.39062 -99.9443 -13.4678 -149.605 -20.6934c-28.9355 -4.20996 -57.9346 -8.87695 -86.9844 -13.3916c-9.94336 -63.4209 -18.9404 -126.975 -31.208 -190.091
c-4.9209 -25.335 -51.0576 -18.8896 -52.3721 5.81055c-3.04785 57.2998 0.832031 115.521 8.56641 173.455c-23.627 -3.06738 -47.2793 -5.72754 -70.9443 -7.53711c-34.5674 -2.6416 -42.543 43.4062 -8.43848 51.1406c29.2656 6.63574 58.9121 12.001 88.7109 16.7695
c8.15918 46.5811 18.1982 92.7051 28.5352 137.718c22.6367 98.5537 49.6035 208.099 111.723 290.244c25.3545 33.5264 62.7354 67.0908 108.25 54.7275c43.7305 -11.8867 64.418 -58.0684 77.6953 -97.2646c35.165 -103.786 45.6992 -218.398 55.1855 -326.953
c0.0634766 -0.755859 0.133789 -1.51758 0.197266 -2.27344zM246.947 158.582c50.9883 7.90527 102.021 16.877 153.187 24.4141c-0.545898 10.2861 -1.11719 20.5596 -1.79004 30.8076c-3.97461 60.7471 -9.44141 121.514 -18.915 181.677
c-5.0293 31.9395 -10.8389 64.0752 -19.2588 95.3096c-3.04785 11.3154 -17.2461 69.46 -31.1709 69.5615c-15.2393 0.121094 -38.0859 -44.0732 -44.7217 -55.4326c-14.8711 -25.4688 -26.5859 -52.791 -37.0439 -80.3232
c-21.1377 -55.6484 -36.0781 -113.596 -49.7939 -171.441c-8.25488 -34.8027 -15.043 -69.7959 -21.1445 -104.885c23.627 3.34668 47.2158 6.68066 70.6523 10.3125zM249.513 669.364c-18.8271 -12.166 -54.7783 8.63574 -31.5703 25.8877
c68.418 50.8291 141.331 93.8799 222.207 121.901c27.1641 9.41016 60.9316 -24.7129 27.418 -38.46c-75.2314 -30.8594 -149.593 -65.084 -218.055 -109.329z" />
    <glyph glyph-name="AE" unicode="&#xc6;" horiz-adv-x="938" 
d="M907.918 -13.5342c19.875 23.2783 75.0244 3.62598 52.2354 -25.0557c-53.915 -67.9229 -151.484 -111.938 -236.977 -119.202c-92.2803 -7.83594 -165.295 48.2637 -203.78 128.994c-10.0898 21.1699 -18.3252 43.3877 -25.0938 66.2471
c4.5459 -59.249 8.29883 -118.567 10.1025 -177.619c1.2002 -39.2217 -73.6631 -46.4287 -80.3877 -8.9209c-15.9316 88.8574 -18.5537 180.064 -22.1348 270.681c-49.8262 -7.39062 -99.9443 -13.4668 -149.605 -20.6924
c-28.9355 -4.20996 -57.9346 -8.87695 -86.9844 -13.3916c-9.94336 -63.4209 -18.9404 -126.975 -31.208 -190.091c-4.9209 -25.335 -51.0576 -18.8896 -52.3721 5.81055c-3.04785 57.2998 0.832031 115.521 8.56641 173.455
c-23.627 -3.06738 -47.2793 -5.72754 -70.9443 -7.53711c-34.5674 -2.6416 -42.543 43.4062 -8.43848 51.1406c29.2656 6.63574 58.9121 12.001 88.7109 16.7764c8.15918 46.5752 18.1982 92.6992 28.5352 137.712c22.6367 98.5537 49.6035 208.099 111.723 290.244
c25.3545 33.5264 62.7354 67.0908 108.25 54.7275c29.9199 -8.13379 49.0449 -32.3262 62.3984 -59.3438c28.0723 15.0615 57.8525 28.2051 88.2041 39.8184c10.1406 19.7607 38.3779 26.8408 58.373 20.5039c22.7383 7.35938 45.3496 14.0459 67.3193 20.2305
c98.0586 27.5957 198.777 39.2852 300.093 26.3193c16.4648 -2.1084 29.9961 -19.71 24.8594 -35.9014c-5.8418 -18.4014 -27.1895 -22.5029 -43.7812 -20.3818c-92.4766 11.8359 -185.506 -1.76465 -274.757 -26.541c-18.6748 -5.1748 -37.0449 -11.1689 -55.2939 -17.4805
c-13.2646 -112.955 -28.9932 -227.713 -25.748 -341.569c15.6904 5.47363 31.3555 10.8203 46.8232 16.1475c68.5645 23.6211 137.662 45.6992 207.534 65.1289c40.7588 11.3408 63.1797 -43.7617 18.8584 -56.0869c-67.9541 -18.9033 -135.737 -38.3652 -202.904 -59.9287
c-22.3193 -7.16211 -44.6318 -14.8516 -66.9824 -22.5225c2.95898 -32.8027 7.80371 -65.4912 15.0615 -98.002c15.1562 -67.8525 45.4824 -161.79 126.13 -173.048c40.2949 -5.62598 82.374 10.6484 118.821 26.2373c35.3867 15.1377 69.4717 33.4883 94.7939 63.1416z
M245.946 158.574c50.9941 7.90527 102.021 16.877 153.181 24.4141c-0.545898 10.2861 -1.11719 20.5596 -1.79004 30.8076c-3.97461 60.7471 -9.44141 121.514 -18.915 181.677c-5.0293 31.9395 -10.8389 64.0752 -19.2588 95.3096
c-0.545898 2.04492 -1.47266 5.64551 -2.67871 10.1152c-6.58496 5.32129 -10.2363 13.2842 -5.96973 20.3574c-6.05078 18.8838 -14.3242 39.0312 -22.5156 39.0889c-15.2393 0.121094 -38.0859 -44.0732 -44.7217 -55.4326
c-14.8711 -25.4688 -26.5859 -52.791 -37.0439 -80.3232c-21.1377 -55.6484 -36.0781 -113.596 -49.7939 -171.441c-8.25488 -34.8027 -15.043 -69.7959 -21.1455 -104.885c23.627 3.34668 47.2158 6.68066 70.6523 10.3125zM466.948 332.448
c2.7998 67.4531 10.2412 134.709 19.9053 201.546c-19.208 -7.36523 -38.46 -14.5977 -57.833 -21.4746c18.6113 -57.833 29.9521 -118.797 37.9277 -180.071z" />
    <glyph glyph-name="Ccedilla" unicode="&#xc7;" horiz-adv-x="489" 
d="M453.81 105.573c10.5908 19.1123 48.4492 8.04199 42.6016 -14.7402c-26.9863 -105.373 -91.252 -224.138 -197.717 -262.604c1.33984 -35.3867 2.40625 -70.7607 4.19043 -105.888c1.35254 -26.5166 -47.2988 -26.4023 -49.1084 0
c-2.13379 31.209 -4.59082 62.6777 -6.61621 94.2295c-126.276 -12.5342 -197.354 88.0645 -222.702 199.464c-28.3516 124.574 -12.4775 258.279 25.6904 379.146c29.7227 94.1084 90.9785 254.216 213.001 251.98c132.722 -2.43164 108.745 -208.949 102.999 -294.207
c-2.45117 -36.333 -69.6436 -36.0215 -67.2178 0c4.29883 63.7822 11.7783 133.444 -6.48926 195.754c-7.30859 24.916 -17.9443 46.3652 -45.7881 30.2754c-23.4814 -13.5693 -40.7402 -40.3076 -54.5957 -62.8428c-62.7607 -102.097 -94.1602 -234.608 -98.7764 -353.36
c-3.44141 -88.6484 4.50879 -277.603 124.829 -290.137c9.08008 -0.946289 17.7666 -0.99707 26.1416 -0.375c-1.42188 35.8506 -1.77148 71.6562 0.19043 107.164c1.33301 24.084 40.8027 23.0488 43.6533 -0.000976562
c3.79688 -30.6504 6.18457 -61.5674 7.93066 -92.5732c77.5615 39.7109 119.336 149.313 157.783 218.716z" />
    <glyph glyph-name="Egrave" unicode="&#xc8;" horiz-adv-x="585" 
d="M554.264 -13.5342c19.8809 23.2783 75.0264 3.63184 52.25 -25.0625c-53.915 -67.9229 -151.484 -111.938 -236.977 -119.202c-92.2803 -7.83594 -165.295 48.2637 -203.78 128.994c-24.999 52.4355 -38.8223 111.221 -46.1943 170.564
c-18.1406 -5.5498 -36.3574 -10.7188 -54.6895 -15.1631c-23.2969 -5.63867 -42.1494 22.2178 -18.2559 35.501c21.7734 12.1084 44.6201 22.75 67.9551 32.5098c-1.5498 23.4492 -2.32422 46.7275 -2.54688 69.4463c-0.882812 90.3818 8.23535 180.528 21.1699 269.938
c-36.0029 -13.8174 -72.0566 -27.4121 -109.031 -38.416c-17.2266 -5.13086 -41.2793 17.3975 -22.084 31.1064c42.2891 30.1992 91.8926 53.9854 142.982 73.5361c10.1406 19.7607 38.3779 26.8408 58.373 20.5039c22.7383 7.35938 45.3496 14.0459 67.3193 20.2305
c98.0586 27.5957 198.777 39.2852 300.093 26.3193c16.4648 -2.1084 29.9961 -19.71 24.8594 -35.9014c-5.8418 -18.4014 -27.1895 -22.5029 -43.7812 -20.3818c-92.4766 11.8359 -185.506 -1.76465 -274.757 -26.541c-18.6748 -5.1748 -37.0449 -11.1689 -55.2939 -17.4805
c-13.2646 -112.955 -28.9932 -227.713 -25.748 -341.569c15.6904 5.47363 31.3555 10.8203 46.8232 16.1475c68.5645 23.6211 137.662 45.6992 207.534 65.1289c40.7588 11.3408 63.1797 -43.7617 18.8584 -56.0869c-67.9541 -18.9033 -135.737 -38.3652 -202.904 -59.9287
c-22.3193 -7.16211 -44.6318 -14.8516 -66.9824 -22.5225c2.95898 -32.8027 7.80371 -65.4912 15.0615 -98.002c15.1562 -67.8525 45.4824 -161.79 126.13 -173.048c40.2949 -5.62598 82.374 10.6484 118.821 26.2373c35.3867 15.1377 69.4785 33.4883 94.7949 63.1416z
M189.802 725.651c-21.8428 -10.5596 -46.8086 16.7559 -22.0322 30.9033c63.5986 36.3135 127.292 61.2109 199.755 73.3447c28.8018 4.82617 45.5527 -32.3008 13.3213 -39.6152c-65.0781 -14.7627 -130.899 -35.5576 -191.044 -64.6328z" />
    <glyph glyph-name="Igrave" unicode="&#xcc;" horiz-adv-x="239" 
d="M243.797 -114.063c40.4219 11.2832 62.9932 -44.127 18.7168 -55.6963c-24.8525 -6.50195 -49.8828 -11.7783 -75.0596 -15.9307c7.37793 -14.5596 -9.67773 -33.3164 -26.5361 -32.1611c-20.4844 1.40332 -31.0947 10.4258 -37.8193 24.1152
c-23.3799 -2.03809 -46.8672 -3.20605 -70.4756 -3.3457c-40.5303 -0.241211 -39.9775 50.8994 0 52.4746c18.8203 0.736328 37.5332 2.22852 56.1504 4.2793c-5.51172 28.4785 -9.49316 57.3252 -13.2393 86.0195c-10.0703 77.1172 -13.9502 155.339 -15.0742 233.053
c-2.0957 144.627 4.31152 289.927 17.3027 434.077c-20.3633 -1.7334 -40.7207 -4.0127 -61.1416 -7.14355c-39.6924 -6.08887 -62.9512 46.6006 -18.332 54.5254c30.3701 5.38477 61.2109 9.64551 92.166 12.1279c16.1094 16.7061 49.1846 17.6016 64.3027 2.21582
c11.8164 -0.152344 23.6201 -0.520508 35.3857 -1.39062c41.6094 -3.06738 42.5684 -53.8525 0 -54.9131c-9.91211 -0.248047 -19.7793 -0.53418 -29.6338 -0.858398c-7.67676 -129.763 -17.709 -259.31 -18.7568 -389.402
c-0.578125 -71.6631 0.825195 -143.472 5.32715 -215.014c2.18457 -34.6504 4.82617 -69.3262 8.07715 -103.894c1.20605 -12.8643 2.49512 -25.7227 3.73926 -38.5811c21.7666 4.32422 43.4062 9.44238 64.9004 15.4424zM93.0918 772.827
c-22.6807 -8.63574 -49.9658 20.458 -22.6621 31.7861c45.1465 18.7314 90.2422 37.374 135.782 55.1279c24.0654 9.37891 52.6328 -21.8936 23.9131 -33.5449c-45.4512 -18.4395 -91.1943 -35.9072 -137.033 -53.3691z" />
    <glyph glyph-name="Ntilde" unicode="&#xd1;" horiz-adv-x="651" 
d="M630.816 314.376c0.540039 -122.289 -6.12988 -250.294 -58.4199 -362.988c-23.8555 -51.4326 -57.1406 -105.062 -110.573 -129.801c-50.6387 -23.4365 -109.913 -10.6797 -151.065 25.5645c-45.667 40.2256 -69.9922 104.053 -91.3086 159.518
c-23.5576 61.3066 -41.7559 124.562 -58.3535 188.06c-18.249 69.8086 -35.0566 139.865 -52.6963 209.712c-4.84473 -76.4629 -7.82227 -152.989 -6.75586 -229.909c0.946289 -67.6748 3.98828 -135.375 9.28418 -202.847
c2.73047 -34.752 6.07031 -69.4531 10.0391 -104.091c3.24512 -28.3135 3.82324 -59.2871 18.6494 -84.3555c22.6494 -38.2891 -37.6221 -54.6396 -60.8242 -29.1523c-19.4297 21.3477 -24.4775 49.21 -28.5352 76.8691c-5.36523 36.5547 -9.63184 73.3262 -13.3906 110.078
c-7.10547 69.4336 -11.8047 139.103 -13.6338 208.879c-3.75293 143.109 0.335938 288.371 22.3379 430.008c6.07617 39.1455 77.9102 41.6348 76.4434 1.68848c53.0957 -113.641 80.4883 -238.012 113.062 -358.58c14.6934 -54.4102 30.4727 -108.586 49.5537 -161.638
c17.8105 -49.5273 36.0596 -103.607 66.4043 -147.033c84.0449 -120.257 164.934 66.2842 183.944 137.902c27.3926 103.201 26.9287 213.54 23.1572 319.542c-1.87988 52.8232 -6.05762 105.957 -18.1729 157.529c-12.0957 51.4961 -33.3857 96.8711 -58.5811 143.04
c-19.9443 36.5488 35.8887 53.2168 57.8271 27.7168c87.1689 -101.303 91.0488 -259.213 91.6074 -385.712zM161.044 772.08c-7.81055 -21.8682 -51.1133 -14.0957 -42.8145 9.67773c15.2715 43.7432 49.9219 88.75 101.481 80.7432
c30.4463 -4.73047 48.5303 -26.2881 74.4814 -39.9648c37.1582 -19.582 63.998 12.3438 86.9521 38.6504c18.7383 21.4746 69.1484 1.28906 47.5469 -22.7891c-31.6279 -35.2598 -70.875 -70.71 -122.231 -61.8779c-26.6309 4.58496 -45.9404 20.8086 -67.4473 35.7363
c-19.5889 13.6006 -37.2412 18.1533 -55.7695 -0.197266c-10.7441 -10.6357 -17.2275 -26.0596 -22.1992 -39.9785z" />
    <glyph glyph-name="Ograve" unicode="&#xd2;" horiz-adv-x="559" 
d="M506.309 488.675c62.9766 -173.519 51.9072 -379.861 -34.0293 -543.811c-38.2695 -73.0088 -100.56 -148.335 -183.918 -169.479c-84.1396 -21.3418 -152.888 30.2109 -185.792 104.413c-38.3652 86.5078 -33.9844 192.097 -24.377 283.971
c2.35547 22.4844 5.41602 44.8857 9.0293 67.1855c-59.6172 42.5234 -79.8223 127.526 -79.2061 198.211c0.832031 95.8105 39.0762 203.057 120.251 259.702c68.9004 48.0801 155.707 51.2617 227.186 6.88965c74.3545 -46.1494 121.635 -126.568 150.856 -207.082z
M424.865 20.0576c54.5693 135.566 64.373 291.954 22.5029 432.282c-20.7061 69.3828 -53.4072 140.22 -110.726 186.858c-58.7979 47.8389 -131.076 45.8574 -186.833 -6.17871c-54.1182 -50.5059 -78.5713 -131.687 -79.5811 -203.838
c-0.545898 -39.0186 4.73047 -95.9629 29.209 -134.506c12.1025 54.9062 28.167 108.91 48.8418 161.32c15.0234 38.0859 91.3027 25.0752 76.0576 -17.1943c-31.418 -87.124 -55.2607 -176.947 -65.8584 -269.088c-9.45508 -82.165 -15.1191 -172.293 11.9365 -251.861
c9.06055 -26.6562 23.1758 -56.1191 47.1777 -72.4951c28.7764 -19.6328 61.7314 -6.86328 88.0068 11.0615c56.0801 38.251 94.4004 101.862 119.266 163.639zM170.572 792.251c-22.4014 -8.07031 -49.3232 20.8838 -22.2803 31.2656
c64.9951 24.9482 128.143 53.8838 194.142 76.3936c25.6143 8.7373 49.3047 -28.7959 20.7373 -40.333c-63.2178 -25.5508 -128.556 -44.2383 -192.599 -67.3262z" />
    <glyph glyph-name="Oslash" unicode="&#xd8;" horiz-adv-x="560" 
d="M546.562 798.578c-19.5254 -54.2266 -39.5684 -108.264 -59.7285 -162.242c-7.26367 -19.4297 -14.5469 -38.8789 -21.8359 -58.3408c16.668 -28.5352 30.2812 -58.9121 41.3174 -89.3076c62.9766 -173.518 51.9092 -379.863 -34.0342 -543.818
c-38.2695 -73.0088 -100.56 -148.335 -183.918 -169.479c-26.834 -6.80664 -52.0928 -6.17188 -75.1357 0.222656c-20.6426 -104.084 -34.9355 -209.489 -40.2695 -316.57c-1.21875 -24.5674 -46.625 -24.3896 -45.3867 0c5.75879 113.171 21.3789 225.142 43.9395 335.791
c-29.5957 19.6396 -53.3057 49.7432 -68.9326 84.9717c-38.3652 86.5078 -33.9844 192.097 -24.377 283.971c2.35547 22.4844 5.41602 44.8857 9.0293 67.1855c-59.624 42.5234 -79.8291 127.526 -79.2129 198.211c0.832031 95.8105 39.0762 203.057 120.251 259.702
c68.9072 48.0801 155.708 51.2617 227.187 6.88965c31.1895 -19.3604 57.5537 -44.791 79.8789 -73.6816c15.29 40.7139 30.5488 81.4473 45.585 122.257c11.3848 30.9102 22.5859 61.8838 33.7676 92.8643c11.2139 31.0693 32.542 69.4219 23.4941 102.961
c-6.29883 23.335 34.873 30.5605 40.8984 9.24512c14.0586 -49.75 -15.9121 -104.707 -32.5166 -150.831zM189.326 -123.671c25.1191 106.948 56.208 212.607 90.7119 316.869c39.6797 119.907 83.7148 238.316 128.118 356.548
c-18.3193 33.9834 -41.5215 65.04 -71.5176 89.4424c-58.7979 47.8389 -131.076 45.8574 -186.833 -6.17871c-54.1182 -50.5059 -78.5713 -131.687 -79.5811 -203.838c-0.545898 -39.0186 4.73047 -95.9629 29.209 -134.506c12.1025 54.9062 28.167 108.91 48.8418 161.32
c15.0234 38.0859 91.3027 25.0752 76.0566 -17.1943c-31.418 -87.124 -55.2607 -176.946 -65.8584 -269.087c-9.45508 -82.165 -15.1191 -172.293 11.9365 -251.861c4.70508 -13.8359 10.8135 -28.3896 18.916 -41.5146zM424.862 20.0547
c54.5693 135.566 64.375 291.952 22.5049 432.274c-4.12109 13.792 -8.73145 27.6279 -13.8936 41.3301c-79.7461 -214.245 -156.8 -430.929 -206.639 -653.391c26.4209 -11.7217 55.2549 0.114258 78.7617 16.1475c56.0801 38.251 94.4004 101.862 119.266 163.639z" />
    <glyph glyph-name="Ugrave" unicode="&#xd9;" horiz-adv-x="635" 
d="M552.929 663.508c78.4316 -23.4746 74.0039 -155.745 70.0674 -218.118c-7.63281 -121.559 -43.5723 -241.809 -99.373 -351.188c10.6416 -85.4922 24.1279 -170.616 39.3926 -255.905c8.27344 -46.2324 -71.0088 -60.9189 -80.3623 -18.166
c-11.4551 52.3721 -20.5605 105.442 -27.9453 158.761c-7.25098 -10.4766 -14.6357 -20.8389 -22.249 -30.9922c-50.4229 -67.2373 -109.907 -127.997 -201.426 -102.23c-86.3428 24.3066 -135.115 115.914 -162.438 194.656
c-31.4883 90.75 -41.8125 190.136 -47.5459 285.495c-3.19434 53.1084 -3.55664 106.363 -2.54688 159.542c0.749023 39.2725 -1.63867 79.5615 18.6738 114.497c14.4648 24.8779 73.2627 9.28906 58.709 -20.2939c-17.2207 -34.999 -8.25488 -86.8574 -7.42969 -124.911
c1.02246 -47.0703 3.35254 -94.1533 7.25781 -141.077c7.19434 -86.502 19.1826 -174.058 48.2266 -256.223c20.1543 -57.0137 61.3389 -154.278 132.005 -161.536c39.3105 -4.03223 69.6299 32.085 92.1582 59.3438c20.8145 25.1826 39.9902 51.877 57.8457 79.2246
c6.33691 9.70215 12.4453 19.6143 18.4326 29.6279c-3.25781 30.9609 -6.05762 61.9346 -8.39453 92.8516c-8.40723 111.291 -14.541 225.865 1.19336 336.788c7.86719 55.4521 26.8018 196.479 115.748 169.854zM567.689 469.994
c1.02832 37.8564 0.793945 78.1699 -12.5596 114.122c-5.80957 15.6396 -12.5723 39.7432 -28.1416 20.7197c-8.67969 -10.6104 -10.9658 -30.2812 -13.6074 -43.1836c-15.6328 -76.4502 -14.4834 -156.59 -10.5977 -234.139
c2.10156 -41.9463 5.16895 -83.6768 9.02344 -125.268c33.2402 85.9746 53.4258 177.341 55.8828 267.748zM172.803 722.845c-22.1416 -7.8418 -49.6719 19.6396 -22.4004 31.4375c77.123 33.3613 154.913 64.5762 233.63 93.9629
c24.9033 9.2959 55.0195 -22.5352 24.9092 -34.9492c-78.0059 -32.1553 -156.603 -62.2715 -236.139 -90.4512z" />
    <glyph glyph-name="germandbls" unicode="&#xdf;" horiz-adv-x="663" 
d="M607.785 230.307c78.6855 -77.9932 46.9189 -196.795 -6.48828 -279.919c-51.2295 -79.7334 -145.802 -157.663 -245.803 -153.275c-42.3906 1.86719 -85.9814 21.208 -103.348 61.4014c-15.3535 -5.96875 -37.2344 -0.749023 -43.2217 15.3154
c-17.6074 47.21 -20.084 102.16 -26.0586 151.891c-6.48926 54.0234 -11.5947 108.37 -14.833 162.686c-6.38184 106.986 -8.26758 214.766 3.18066 321.466c-20.4395 -12.9727 -39.9141 -27.4941 -58.4043 -43.1143c-14.0459 -11.8672 -27.4561 -24.5029 -39.2539 -38.6309
c-4.17188 -4.99121 -22.3887 -38.124 -30.2559 -35.0566c22.6748 -8.83887 7.38477 -35.1836 -11.6387 -35.2471c-16.4648 -0.0576172 -33.6475 7.49805 -39.0957 24.6104c-6.93359 21.7666 10.7627 46.1113 22.7822 62.4619
c30.1035 40.9619 70.6904 74.3418 112.922 102.09c88.6865 58.2773 197.209 91.1816 303.001 67.2627c43.7998 -9.89941 91.124 -30.4727 116.796 -69.3076c27.7295 -41.9336 18.0273 -92.0898 -4.4375 -133.75c-24.5674 -45.5586 -59.7578 -86.3486 -99.9385 -121.964
c59.8203 1.7207 117.729 -12.96 164.095 -58.9189zM264.528 -17.9785c2.84473 6.48926 5.7959 12.8271 8.78027 18.9229c42.918 87.835 108.72 163.098 183.767 225.306c-50.9756 0.939453 -106.961 -15.875 -147.631 -30.1553
c-17.5186 -6.14648 -40.9111 -6.28613 -52.626 11.3154c-10.9277 16.4141 -2.35547 34.5488 13.7979 43.1523c72.5391 38.6504 344.064 242.184 166.273 306.106c-63.5156 22.8398 -133.527 13.8359 -195.475 -10.7246c8.03223 -5.41602 13.2012 -14.001 12.4199 -25.8623
c-7.11133 -108.459 -9.41602 -216.798 -4.4248 -325.403c3.24512 -70.6592 10.7373 -141.719 15.1182 -212.657zM467.521 -94.6689c64.6973 53.0322 142.359 167.258 102.935 254.496c-9.44238 20.8906 -22.7764 35.8057 -38.6123 46.2061
c-1.80371 -3.1748 -4.41309 -6.36914 -8.07031 -9.49316c-74.6533 -63.8838 -146.106 -134.53 -187.195 -225.426c-14.2236 -31.4629 -41.3242 -96.4961 7.47949 -111.494c42.3398 -13.0107 92.623 20.4326 123.464 45.7109z" />
    <glyph glyph-name="agrave" unicode="&#xe0;" horiz-adv-x="289" 
d="M251.453 212.756c12.8643 -72.2217 29.5811 -150.457 26.5527 -223.986c-1.49805 -36.3643 -64.9062 -42.9678 -74.5449 -8.27344c-3.38477 12.1846 -6.07031 24.6113 -8.42578 37.1455c-41.667 -4.07617 -84.2666 -5.42188 -125.914 -2.72949
c-2.33691 -6.17871 -4.71191 -12.3447 -7.16309 -18.4785c-9.63281 -24.0654 -64.2969 -24.2881 -59.6807 6.62207c11.1631 74.7295 38.4854 147.859 63.4902 218.932c12.1602 34.5547 25.71 68.8369 42.8545 101.259c11.6836 22.0967 27.7422 43.54 54.4619 46.0928
c68.5391 6.54688 80.165 -110.561 88.3691 -156.583zM88.0801 68.0703c32.9424 1.5498 65.791 3.32617 98.708 5.53613c-3.23828 27.793 -5.72754 55.7061 -9.25781 82.9521c-3.65137 28.1484 -6.80762 56.373 -11.875 84.3115
c-1.70215 9.4043 -3.58789 18.7959 -5.60059 28.1621c-3.40332 -7.76562 -6.63574 -15.6074 -9.80469 -23.4307c-10.54 -26.0088 -19.8301 -52.5381 -29.082 -79.0225c-11.3975 -32.6504 -21.9443 -65.7002 -33.0879 -98.5088zM96.0957 411.104
c-22.459 -7.82324 -49.4072 21.3291 -22.2812 31.2598c50.1875 18.3701 99.4482 39.0635 150.132 56.0742c23.7539 7.97559 45.8701 -27.2588 19.208 -37.3613c-48.4482 -18.3574 -98.1533 -32.9424 -147.059 -49.9727z" />
    <glyph glyph-name="ae" unicode="&#xe6;" horiz-adv-x="440" 
d="M402.25 47.1045c13.709 5.86035 45.3584 -6.3457 30.0234 -24.627c-39.7432 -47.4004 -107.501 -50.4229 -153.942 -17.9697c-0.0253906 -5.26367 -0.114258 -10.5146 -0.330078 -15.7402c-1.49805 -36.3643 -64.9062 -42.9678 -74.5449 -8.27344
c-3.38477 12.1855 -6.07031 24.6123 -8.42578 37.1465c-41.667 -4.07617 -84.2666 -5.42188 -125.914 -2.72949c-2.33691 -6.17871 -4.70508 -12.3447 -7.16211 -18.4785c-9.63281 -24.0654 -64.2969 -24.2881 -59.6807 6.62207
c11.1631 74.7295 38.4854 147.859 63.4902 218.932c12.1602 34.5547 25.7168 68.8369 42.8545 101.259c11.6836 22.0967 27.7354 43.54 54.4609 46.0928c23.7988 2.27344 40.7275 -10.375 53.04 -29.7666c7.63281 2.16504 15.3096 4.12695 23.0312 5.92383
c8.91504 20.7891 39.5146 22.5098 58.0557 10.3633c29.0439 3.86719 58.3477 6.07031 87.5498 7.35254c42.4795 1.86035 41.2158 -51.6738 0 -54.7148c-26.1543 -1.93066 -52.0801 -3.48633 -77.834 -5.99414c-7.20703 -38.3076 -12.0137 -76.9141 -12.9346 -115.736
c19.4111 4.26074 38.9111 8.07031 58.5439 11.1113c38.2314 5.93066 60.3857 -45.2031 17.6016 -52.3652c-24.999 -4.18457 -49.915 -8.42578 -74.7363 -13.1758c0.0761719 -0.926758 0.0957031 -1.84766 0.171875 -2.77441
c2.24805 -26.0654 3.9502 -68.3096 25.8691 -86.8828c23.4434 -19.8555 56.5762 -5.94336 80.8125 4.42578zM88.0762 68.0693c32.9355 1.54883 65.791 3.32617 98.708 5.53613c-3.23828 27.793 -5.72754 55.7061 -9.25781 82.9521
c-3.65137 28.1484 -6.80762 56.373 -11.875 84.3115c-1.70801 9.4043 -3.58789 18.7959 -5.60059 28.1621c-3.39746 -7.76562 -6.63574 -15.6074 -9.80469 -23.4307c-10.54 -26.0088 -19.8301 -52.5381 -29.082 -79.0225
c-11.3975 -32.6504 -21.9443 -65.7002 -33.0879 -98.5088z" />
    <glyph glyph-name="ccedilla" unicode="&#xe7;" horiz-adv-x="290" 
d="M235.737 100.392c7.99414 21.6465 50.4863 14.498 42.8027 -9.6748c-16.4072 -51.7051 -61.4268 -94.8447 -114.758 -104.49c1.91113 -29.8369 5.20703 -59.5791 10.2236 -89.334c5.30176 -31.4756 -48.9121 -41.3301 -54.5312 -12.3311
c-6.71191 34.6689 -10.1914 69.3066 -10.4326 103.982c-71.8154 19.4805 -103.583 99.8926 -98.5225 169.27c5.2832 72.4561 43.5342 159.783 109.711 196.522c33.4375 18.5605 76.6602 20.2246 108.154 -3.71387c33.4248 -25.3984 41.9336 -65.6299 44.873 -105.227
c2.63477 -35.4756 -66.291 -41.4443 -72.3486 -8.03223c-2.83203 15.6143 -5.68262 56.6016 -23.3857 64.5264c-15.7344 7.04785 -36.8027 -24.0469 -45.0635 -35.292c-24.3125 -33.082 -40.0537 -73.2441 -43.7363 -114.244
c-2.6543 -29.5322 1.11133 -74.2598 23.7734 -99.208c1.12988 9.96875 2.45703 19.9443 4.16504 29.9326c3.64453 21.3096 45.7686 16.9219 45.3115 -5.0293c-0.291992 -13.9316 -0.311523 -27.8125 -0.108398 -41.668c32.333 5.93652 64.0176 37.3037 73.8721 64.0107z" />
    <glyph glyph-name="egrave" unicode="&#xe8;" horiz-adv-x="271" 
d="M233.809 47.1045c13.709 5.86035 45.3594 -6.3457 30.0371 -24.6201c-52.7725 -62.9316 -154.933 -47.667 -191.005 25.0371c-10.7188 21.5957 -17.5508 45.1533 -21.4561 69.7393c-28.7129 1.43457 -41.0127 40.5488 -6.15332 49.7686
c0.654297 0.171875 1.31445 0.34375 1.96875 0.515625c-0.698242 40.9619 4.45117 82.9521 11.5312 122.199c-5.88574 -1.43457 -11.7783 -2.90723 -17.6514 -4.62793c-34.7451 -10.1719 -52.3398 35.0947 -15.9561 47.4639c14.9912 5.09863 30.2119 9.33984 45.585 12.915
c8.91504 20.7891 39.5146 22.5098 58.0557 10.3633c29.0439 3.86719 58.3477 6.07031 87.5498 7.35254c42.4795 1.86035 41.2158 -51.6738 0 -54.7148c-26.1543 -1.93066 -52.0801 -3.48633 -77.834 -5.99414c-7.20703 -38.3076 -12.0137 -76.9141 -12.9346 -115.736
c19.4111 4.26074 38.9111 8.07031 58.5439 11.1113c38.2314 5.93066 60.3857 -45.2031 17.6016 -52.3652c-24.999 -4.18457 -49.915 -8.42578 -74.7363 -13.1758c0.0761719 -0.926758 0.0957031 -1.84766 0.171875 -2.77441
c2.24805 -26.0654 3.9502 -68.3096 25.8691 -86.8828c23.4434 -19.8555 56.5762 -5.94336 80.8125 4.42578zM60.9863 404.222c-25.792 -6.57812 -39.7607 27.5137 -11.8662 35.2988c32.542 9.09863 64.4111 21.6582 95.4736 34.9102
c24.0078 10.248 52.4736 -20.7891 24.0332 -33.7168c-34.9873 -15.8994 -70.4502 -26.999 -107.641 -36.4922z" />
    <glyph glyph-name="igrave" unicode="&#xec;" horiz-adv-x="125" 
d="M93.999 325.164c4.45117 -57.084 2.66113 -114.819 5.04883 -172.056c2.11426 -50.582 15.6582 -116.188 -2.67969 -164.235c-5.95605 -15.6074 -32.3076 -19.0049 -41.4834 -4.44531c-27.6973 43.9648 -27.0303 112.046 -30.6562 162.545
c-4.22266 58.8047 -9.30859 119.279 -4.88965 178.191c3.03516 40.4219 71.5166 40.2822 74.6602 0zM97.3652 482.816c26.1484 5.42285 40.8096 -29.7158 12.001 -35.6973c-41.248 -8.55957 -79.2441 -23.2656 -115.463 -44.7783
c-21.0811 -12.5215 -46.1494 16.2041 -22.0332 30.9102c38.8027 23.665 80.9902 40.3262 125.495 49.5654z" />
    <glyph glyph-name="ntilde" unicode="&#xf1;" horiz-adv-x="362" 
d="M259.868 409.12c102.706 44.4355 85.79 -202.391 80.9961 -246.959c-5.35254 -49.8008 -12.0137 -107.608 -43.7998 -148.487c-29.3613 -37.7617 -78.6035 -46.0098 -111.952 -7.68945c-32.123 36.9043 -46.2705 90.3369 -56.0615 137.179
c-5.66992 27.1514 -10.2422 54.5254 -16.4014 81.5752c-3.4668 15.207 -7.59375 46.4854 -18.7627 65.0264c-6.83203 -16.4834 -9.88672 -46.3584 -10.7627 -53.9912c-2.69824 -23.4814 -3.61914 -47.2422 -4.05762 -70.8633
c-0.977539 -52.4736 4.61621 -104.954 3.25098 -157.352c-0.634766 -24.2744 -44.752 -29.208 -50.1807 -5.56836c-11.7275 51.0195 -14.3057 104.668 -14.1279 156.869c0.15918 45.6289 0.114258 95.9697 15.8428 139.452c12.376 34.2188 41.6992 64.5195 80.6543 47.9023
c37.3232 -15.9248 50.7842 -66.5576 61.3945 -101.862c13.417 -44.6572 22.4336 -90.6289 37.6797 -134.753c6.88281 -19.9189 15.2451 -39.0693 26.1289 -57.1338c0.710938 -1.26953 1.51074 -2.49512 2.25977 -3.74609c6.12109 10.3115 15.3154 27.0684 16.0586 29.1191
c4.62305 12.7949 8.19141 26.1357 11.0615 39.749c-12.5596 -2.9082 -27.126 0.101562 -33.9902 10.8711c-28.9355 45.3877 -36.9678 104.604 -31.2275 157.459c4.24121 39.0762 14.7305 105.348 55.9971 123.203zM279.628 227.949
c0.457031 23.9512 -0.297852 47.9658 -2.20898 71.8535c-0.908203 11.334 -2.0127 22.7002 -3.90527 33.9268c-7.63281 -24.7764 -8.33789 -54.9941 -7.96289 -74.4053c0.489258 -25.3672 5.81641 -48.709 12.4707 -72.0312
c0.863281 13.7275 1.35254 27.3535 1.60645 40.6562zM77.0732 432.403c-1.00293 -23.3291 -42.417 -23.3428 -43.1533 -0.000976562c-1.11133 34.8789 22.0146 64.1514 57.5605 67.377c22.2363 2.01953 40.6504 -10.9531 62.2139 -11.0039
c22.9414 -0.0507812 39.5967 14.3125 53.4521 31.0439c18.2998 22.0908 64.2783 7.32812 48.4043 -23.2012c-14.1729 -27.2461 -42.9492 -44.4092 -72.4502 -50.7402c-14.8457 -3.18164 -30.4346 -3.34668 -45.375 -0.908203
c-21.373 3.47949 -59.0459 24.8398 -60.6523 -12.5664z" />
    </font>
</defs>
</svg>
