<?xml version="1.0" standalone="no"?>
<!DOCTYPE svg PUBLIC "-//W3C//DTD SVG 1.1//EN" "http://www.w3.org/Graphics/SVG/1.1/DTD/svg11.dtd" >
<svg xmlns="http://www.w3.org/2000/svg" xmlns:xlink="http://www.w3.org/1999/xlink" version="1.1">
<metadata>
Created by FontForge 20170812 at Tue Sep 20 15:28:05 2022
 By www-data
</metadata>
<defs>
<font id="OnegreenRegular" horiz-adv-x="0" >
  <font-face 
    font-family="Onegreen"
    font-weight="400"
    font-stretch="normal"
    units-per-em="1000"
    panose-1="0 0 0 0 0 0 0 0 0 0"
    ascent="800"
    descent="-200"
    x-height="352.091"
    cap-height="690.025"
    bbox="-176 -373.647 980.167 838.869"
    underline-thickness="50"
    underline-position="-100"
    unicode-range="U+000A-20AC"
  />
<missing-glyph horiz-adv-x="527" 
d="M50 700h427v-700h-427v700zM78 680l185 -309l186 309h-371zM251 350l-180 300v-601zM264 329l-185 -308h370zM276 350l181 -303v605z" />
    <glyph glyph-name=".notdef" horiz-adv-x="527" 
d="M50 700h427v-700h-427v700zM78 680l185 -309l186 309h-371zM251 350l-180 300v-601zM264 329l-185 -308h370zM276 350l181 -303v605z" />
    <glyph glyph-name=".null" 
 />
    <glyph glyph-name=".null" 
 />
    <glyph glyph-name="LF" unicode="&#xa;" 
 />
    <glyph glyph-name="controlCR" unicode="&#xd;" 
 />
    <glyph glyph-name="space" unicode=" " horiz-adv-x="335" 
 />
    <glyph glyph-name="exclam" unicode="!" horiz-adv-x="193" 
d="M134.393 -4.88086c-2.43066 -32.7002 -82.3984 -32.6689 -83.335 0c-2.88477 100.943 0.84668 202.005 2.79883 302.955c0.974609 50.5098 1.82812 100.988 3.33301 151.484c1.44238 48.377 -0.256836 101.304 15.5693 147.493c3.9707 11.582 32.8213 10.9297 37.2012 0
c18.2256 -45.4854 18.8701 -99.0498 21.8076 -147.493c3.06152 -50.4854 4.82324 -100.926 6.06152 -151.484c2.46875 -100.923 4.0498 -202.227 -3.43652 -302.955zM142.847 -124.248c1.82422 -14.54 -23.8135 -18.5449 -32.9434 -18.7773
c-10.0254 -0.256836 -34.0732 4.49023 -32.9424 18.7773c1.3623 17.2656 -0.5 36.0156 4.99316 52.6328s47.6426 15.8613 53.6592 0c6.19629 -16.333 5.08301 -35.4678 7.2334 -52.6328z" />
    <glyph glyph-name="quotedbl" unicode="&#x22;" horiz-adv-x="245" 
d="M56.958 491.052c8.13477 16.9502 57.0029 18.3379 58.0049 -4.47266c0.554688 -12.626 -2.66309 -24.5684 -5.15332 -36.9062c-2.43457 -12.0674 -5.29199 -22.9316 -12.8203 -32.7695c-6.23828 -8.15625 -26.1357 -7.05664 -32.6553 0
c-17.2061 18.6279 -17.959 52.0869 -7.37598 74.1484zM131.459 502.604c7.51074 18.8711 66.4834 19.3467 63.9629 -4.93066c-1.56055 -14.9902 -6.02344 -29.7832 -9.68164 -44.3818c-3.8418 -15.334 -6.54297 -29.8184 -19.1514 -40.4297
c-7.85742 -6.60938 -22.9414 -7.28516 -30.6914 0c-21.8809 20.5664 -14.4639 64.5566 -4.43848 89.7422z" />
    <glyph glyph-name="quotedbl" unicode="&#x201d;" horiz-adv-x="245" 
d="M56.958 491.052c8.13477 16.9502 57.0029 18.3379 58.0049 -4.47266c0.554688 -12.626 -2.66309 -24.5684 -5.15332 -36.9062c-2.43457 -12.0674 -5.29199 -22.9316 -12.8203 -32.7695c-6.23828 -8.15625 -26.1357 -7.05664 -32.6553 0
c-17.2061 18.6279 -17.959 52.0869 -7.37598 74.1484zM131.459 502.604c7.51074 18.8711 66.4834 19.3467 63.9629 -4.93066c-1.56055 -14.9902 -6.02344 -29.7832 -9.68164 -44.3818c-3.8418 -15.334 -6.54297 -29.8184 -19.1514 -40.4297
c-7.85742 -6.60938 -22.9414 -7.28516 -30.6914 0c-21.8809 20.5664 -14.4639 64.5566 -4.43848 89.7422z" />
    <glyph glyph-name="quotedbl" unicode="&#x201c;" horiz-adv-x="245" 
d="M56.958 491.052c8.13477 16.9502 57.0029 18.3379 58.0049 -4.47266c0.554688 -12.626 -2.66309 -24.5684 -5.15332 -36.9062c-2.43457 -12.0674 -5.29199 -22.9316 -12.8203 -32.7695c-6.23828 -8.15625 -26.1357 -7.05664 -32.6553 0
c-17.2061 18.6279 -17.959 52.0869 -7.37598 74.1484zM131.459 502.604c7.51074 18.8711 66.4834 19.3467 63.9629 -4.93066c-1.56055 -14.9902 -6.02344 -29.7832 -9.68164 -44.3818c-3.8418 -15.334 -6.54297 -29.8184 -19.1514 -40.4297
c-7.85742 -6.60938 -22.9414 -7.28516 -30.6914 0c-21.8809 20.5664 -14.4639 64.5566 -4.43848 89.7422z" />
    <glyph glyph-name="numbersign" unicode="#" horiz-adv-x="455" 
d="M385.907 160.865c5.92578 0.357422 18.7178 -2.6543 18.7178 -10.6719c0 -8.53027 -12.542 -10.3096 -18.7178 -10.6699c-13.7109 -0.797852 -27.415 -1.7793 -41.1016 -2.92383c-2.69043 -82.7412 -3.95312 -166.339 -16.9707 -247.658
c-3.87012 -24.1865 -56.0029 -23.4131 -60.5771 0c-15.0908 77.2314 -16.0059 157.972 -13.9492 237.433c-16.8115 -2.36133 -33.585 -5.00391 -50.3125 -7.88574c-1.20996 -29.874 -2.24023 -59.7549 -3.07227 -89.6631
c-0.724609 -25.959 -1.5498 -52.0283 -2.88184 -77.9629c-1.31055 -25.5293 -2.99609 -49.7822 -13.5547 -73.251c-7.54883 -16.7734 -39.5791 -12.2832 -48.5361 -0.000976562c-29.8672 40.9463 -26.6318 102.473 -28.126 151.214
c-0.710938 23.2334 -1.14453 46.5156 -1.36328 69.8008c-7.43457 -1.75098 -14.8623 -3.54004 -22.2725 -5.39551c-7.08789 -1.77539 -19.4258 -2.91602 -24.835 3.71094c-4.89258 5.99219 -0.367188 12.418 6.5127 14.1553c13.458 3.40527 26.9502 6.63672 40.4707 9.71289
c-0.0556641 22.0264 0.0654297 44.042 0.481445 66.0234c0.0800781 4.13672 0.239258 8.27734 0.339844 12.4141c-11.3564 -2.17773 -22.6924 -4.47363 -34.0039 -6.92871c-18.4199 -3.99512 -33.8818 15.1182 -9.85059 20.3721
c14.7793 3.22852 29.6074 6.19727 44.4697 8.95801c1.37305 41.0322 3.66504 82.0645 6.24805 123.011c3.33594 52.8398 6.21777 106.145 19.3945 157.594c4.49023 17.5225 36.9404 19.749 50.502 18.792c14.5225 -1.02637 38.9141 -7.41406 39.9092 -25.7686
c2.84375 -52.3516 -4.54883 -105.289 -8.29688 -157.478c-2.41699 -33.6465 -4.19922 -67.3105 -5.8916 -100.981c16.2422 1.83105 32.5156 3.41211 48.8135 4.69824c3.96387 87.2705 10.8057 174.219 27.7939 260.109c5.75293 29.083 77.998 31.2676 77.6445 0
c-0.970703 -85.4424 -7.71484 -170.542 -12.9023 -255.78c9.58105 0.149414 19.166 0.236328 28.7539 0.198242c5.99512 -0.0244141 18.9082 -2.39648 18.9082 -10.7773c0 -8.34668 -12.6641 -10.8125 -18.9092 -10.7773
c-10.0107 0.0556641 -20.0146 -0.03125 -30.0156 -0.19043c-0.543945 -9.53223 -1.0918 -19.0645 -1.57031 -28.6035c-0.630859 -12.542 -1.15137 -25.123 -1.61621 -37.7275c13.4336 1.12012 26.8916 2.08789 40.3672 2.89941zM255.586 195.688
c0.291016 8.03418 0.608398 16.0664 0.930664 24.0938c-16.3564 -1.3418 -32.6895 -2.95801 -48.9873 -4.87207c-0.520508 -10.5039 -1.04102 -21.0078 -1.58203 -31.5146c-0.742188 -14.3877 -1.41113 -28.7715 -2.0459 -43.1514
c16.6377 2.78125 33.3135 5.28809 50.0244 7.58398c0.505859 16.0342 1.08496 32.0059 1.66016 47.8604z" />
    <glyph glyph-name="dollar" unicode="$" horiz-adv-x="405" 
d="M348.451 60.1758c27.0654 -72.7617 -38.2734 -126.991 -105.577 -128.489c1.31738 -22.1553 2.69043 -44.3105 4.15332 -66.4658c0.950195 -14.3838 -36.126 -14.7861 -37.4404 0c-2.12207 23.8574 -3.99121 47.7422 -5.71484 71.6416
c-23.4756 6.82129 -45.8486 20.2754 -59.3408 40.3564c-17.8857 26.6211 -26.3467 61.6338 -24.7373 93.377c0.728516 14.3281 36.5146 14.0957 36.3027 0c-0.568359 -37.6309 13.0488 -74.6172 45.1592 -95.042c-2.79492 44.1084 -4.94531 88.2725 -6.49512 132.471
c-24.5479 17.5146 -49.5635 34.3223 -71.7734 54.958c-56.165 52.1816 -85.2588 126.004 -68.0664 202.112c14.9248 66.0723 69.4775 123.729 139.673 117.927c0.78418 25.3486 1.68945 50.6836 2.75391 75.9971c0.579102 13.7871 35.249 13.4268 34.7842 0
c-0.970703 -28.0742 -1.70215 -56.1416 -2.22949 -84.2021c55.2539 -21.8701 81.7021 -80.876 72.7559 -141.05c-2.1709 -14.6094 -38.4873 -13.5693 -36.6807 0c5.23926 39.3477 -2.86426 84.4893 -36.5527 109.151c-1.1377 -87.5586 -0.243164 -175.051 2.28125 -262.512
c15.3584 -13.0664 31.3828 -25.3076 47.7393 -37.6631c28.4658 -21.499 56.3037 -48.418 69.0059 -82.5674zM192.066 218.655c-1.05762 78.3721 -0.384766 156.772 1.69238 235.062c-17.9658 -3.03027 -32.1904 -19.4014 -40.9463 -39.8779
c-28.7227 -67.1787 -6.96973 -142.371 39.2539 -195.184zM240.936 -34.8262c18.4893 2.54492 33.7031 15.8545 33.998 39.1982c0.353516 28.1436 -18.6045 52.7773 -39.501 71.9219c1.58105 -37.041 3.43262 -74.0791 5.50293 -111.12z" />
    <glyph glyph-name="percent" unicode="%" horiz-adv-x="538" 
d="M451.646 546.219c13.0312 -2.08398 45.0303 -14.7256 33.6006 -33.7354c-67.1748 -111.763 -133.871 -224.024 -194.413 -339.553c-29.9883 -57.2266 -59.1582 -114.793 -87.6035 -172.804c-29.6104 -60.3857 -57.3135 -123.598 -92.8291 -180.782
c-6.88672 -11.0898 -21.6309 -13.3711 -33.6465 -12.5215c-7.1748 0.505859 -28.8506 5.37793 -26.5898 17.168c12.1055 63.1113 37.8945 124.967 62.4385 184.111c24.8564 59.8936 52.501 119.021 81.6846 176.913c59.4111 117.845 123.906 232.888 198.173 342.049
c12.6289 18.5654 38.2275 22.5078 59.1855 19.1543zM140.956 264.876c-25.6191 -0.579102 -50.6504 9.50879 -65.7002 30.6025c-16.208 22.7236 -15.1328 50.167 -10.7881 76.4834c0.876953 5.30176 4.15039 9.55273 8.8252 12.7881
c8.2041 32.0166 32.5889 58.6895 67.3975 64.8623c53.1143 9.42188 93.5576 -31.1777 94.5498 -83.1855c1.00586 -52.6289 -41.1152 -100.348 -94.2842 -101.551zM136.813 303.548c0.0273438 -0.118164 0.232422 -0.0761719 0.56543 0.0898438
c-0.1875 -0.0380859 -0.37793 -0.0449219 -0.56543 -0.0898438zM141.72 415.702c-10.7637 -6.41895 -19.1963 -14.9854 -25.0879 -24.9375c11.2451 -2.78809 19.5811 -9.06445 18.6484 -18.8047c-1.49414 -15.6494 -4.66699 -33.8721 -0.588867 -49.334
c1.50488 -5.71094 4.52539 -10.2988 7.30273 -15.3652c0.0625 -0.0800781 0.138672 -0.142578 0.201172 -0.21875c2.98535 2.3125 6.1582 4.95508 6.4668 5.25293c5.01758 4.87207 8.92578 10.4619 12.2686 16.5791c6.45996 11.832 9.84082 24.1904 11.0928 37.5518
c1.20703 12.8438 0.84668 25.9346 -4.1748 38.0088c-5.99219 14.4189 -12.1504 19.6035 -26.1289 11.2676zM399.027 92.0176c43.2246 -12.4521 67.5703 -56.126 52.9199 -99.1348c-15.9717 -46.9033 -71.5723 -74.5371 -118.726 -60.5488
c-20.5566 6.0957 -37.9854 20.7773 -46.5469 40.5947c-11.2285 25.9902 -5.08398 51.9941 0.138672 78.4727c1.73047 8.77344 9.2002 14.5293 18.6045 17.5322c18.8604 28.126 61.3672 32.374 93.6094 23.084zM394.827 -3.38672
c9.42188 20.209 7.59082 49.4736 -11.6025 63.9541c-9.51172 7.17773 -23.2578 7.86426 -33.7646 2.85352c5.07324 -4.19238 7.57031 -9.97656 5.41992 -17.2686c-7.70117 -26.1084 -12.1885 -54.1406 3.51953 -77.7549c4.49414 -6.75879 6.77246 -3.32227 13.9639 1.5293
c9.73047 6.56055 17.5361 16.1172 22.4639 26.6865z" />
    <glyph glyph-name="ampersand" unicode="&#x26;" horiz-adv-x="470" 
d="M385.663 133.687c31.5664 -17.5049 39.1221 -54.4814 31.7744 -87.5869c-14.7754 -66.5508 -78.5068 -112.316 -135.196 -142.27c-6.93555 -3.66895 -14.2041 -7.04688 -21.708 -10.1016c2.11914 -12.8896 4.4043 -25.7549 6.91504 -38.5889
c2.58008 -13.1914 -34.2148 -14.79 -37.0615 -0.000976562c-1.74805 9.08887 -3.35742 18.1914 -4.90723 27.3047c-46.9102 -11.2979 -98.0615 -8.62109 -137.846 18.6689c-67.6123 46.3799 -30.2246 129.843 4.56641 184.84
c27.9355 44.1602 63.6904 83.4453 102.417 118.896c-34.4824 9.5498 -67.1133 24.7559 -94.5283 48.5615c-39.7354 34.5029 -54.4834 90.3428 -23.2715 135.52c15.2373 22.0547 35.3496 37.6172 58.3682 50.8916c20.8506 12.0254 40.8828 23.0146 64.3965 29.1523
c4.53906 1.18262 9.2207 2.24707 13.9961 3.17285c1.32422 25.043 2.64844 50.0273 3.87207 74.9287c0.679688 13.8184 35.3975 13.3672 34.7842 -0.000976562c-1.08887 -23.6699 -2.26074 -47.4131 -3.44336 -71.2119c30.6611 0.322266 61.1484 -7.70508 81.5762 -31.5938
c31.2363 -36.5283 11.3945 -78.2168 -23.5283 -102.691c-11.2627 -7.89258 -44.417 2.44824 -26.4756 15.0908c18.1914 12.8232 33.668 34.4717 27.3848 57.7852c-6.06152 22.4844 -27.1104 36.1572 -49.5117 37.7588
c-3.54004 0.25293 -7.08398 0.208008 -10.6211 0.0341797c-3.12402 -63.1875 -6.11621 -126.719 -7.53125 -190.271c17.3311 -5.09375 31.7529 -7.43066 50.582 -11.5498c13.1113 -2.86816 30.5566 -7.22363 36.791 -20.9727
c5.56934 -12.2861 -3.05469 -23.4277 -13.5479 -29.2119c-26.6455 -14.6924 -51.4014 -31.2578 -74.375 -49.9902c1.14062 -76.6211 5.83887 -152.982 16.668 -228.497c46.5986 18.8506 93.7412 57.6055 115.341 102.751c10.7432 22.4531 16.2285 51.7754 4.84082 75.1191
c-14.7236 30.1787 -45.5752 24.832 -69.9219 10.5176c-10.9473 -6.43945 -43.2451 2.90234 -25.4004 14.4775c30.5986 19.8525 71.3223 27.5195 104.602 9.06836zM184.15 287.746c7.01855 -5.02441 13.7539 -8.99316 20.585 -12.3945
c1.63281 56.3594 4.41699 112.678 7.36133 168.739c-5.0625 -2.06348 -9.9834 -4.43848 -14.6924 -7.08105c-18.209 -10.2119 -28.9414 -23.583 -38.332 -42.041c-9.22363 -18.1328 -16.8594 -39.8057 -11.4395 -60.3477c5.19434 -19.7031 20.3965 -35.335 36.5176 -46.875z
M120.689 -62.6924c17.5605 -35.873 63.2285 -35.1455 100.294 -26.6152c-10.1709 68.5762 -15.1924 137.856 -16.9541 207.414c-10.4346 -10.4824 -20.4521 -21.5303 -30.0469 -33.2021c-29.3047 -35.6543 -77.0537 -99.0498 -53.293 -147.597z" />
    <glyph glyph-name="quotesingle" unicode="'" horiz-adv-x="163" 
d="M87.6904 500.147c8.77637 -0.621094 24.9121 -4.69043 25.1094 -16.21c0.180664 -10.3027 -2.66309 -20.168 -5.20117 -30.1553c-2.58301 -10.1738 -5.3125 -19.5049 -11.8525 -27.8135c-6.48438 -8.23926 -27.6816 -7.77148 -34.291 -0.000976562
c-13.7314 16.1387 -14.5225 43.8037 -5.53809 62.3555c5.22559 10.791 21.4121 12.5557 31.7734 11.8242z" />
    <glyph glyph-name="quotesingle" unicode="&#x2019;" horiz-adv-x="163" 
d="M87.6904 500.147c8.77637 -0.621094 24.9121 -4.69043 25.1094 -16.21c0.180664 -10.3027 -2.66309 -20.168 -5.20117 -30.1553c-2.58301 -10.1738 -5.3125 -19.5049 -11.8525 -27.8135c-6.48438 -8.23926 -27.6816 -7.77148 -34.291 -0.000976562
c-13.7314 16.1387 -14.5225 43.8037 -5.53809 62.3555c5.22559 10.791 21.4121 12.5557 31.7734 11.8242z" />
    <glyph glyph-name="quotesingle" unicode="&#x2018;" horiz-adv-x="163" 
d="M87.6904 500.147c8.77637 -0.621094 24.9121 -4.69043 25.1094 -16.21c0.180664 -10.3027 -2.66309 -20.168 -5.20117 -30.1553c-2.58301 -10.1738 -5.3125 -19.5049 -11.8525 -27.8135c-6.48438 -8.23926 -27.6816 -7.77148 -34.291 -0.000976562
c-13.7314 16.1387 -14.5225 43.8037 -5.53809 62.3555c5.22559 10.791 21.4121 12.5557 31.7734 11.8242z" />
    <glyph glyph-name="parenleft" unicode="(" horiz-adv-x="416" 
d="M353.501 -148.05c8.09375 -2.97168 16.9941 -11.126 8.89746 -19.3301c-59.4561 -60.2188 -159.282 -49.1045 -222.414 -1.1748c-61.3564 46.5811 -84.5166 121.829 -88.7676 196.009c-4.72949 82.4883 4.74414 166.658 21.6348 247.347
c8.48145 40.5303 19.585 80.2383 33.3965 119.28c13.291 37.5752 28.8887 77.0615 51.3867 110.212c21.3467 31.4551 51.4561 59.6611 88.4248 70.9619c24.96 7.62891 60.6875 20.0713 81.0771 -3.94238c11.2451 -13.2461 -21.2988 -18.0938 -29.3818 -9.78906
c-17.6328 18.1182 -53.9668 -40.2871 -60.4375 -52.5137c-16.3359 -30.8652 -27.2383 -64.0889 -37.2422 -97.4238c-37 -123.251 -60.3516 -254.959 -53.4717 -384.132c2.98242 -56.0059 16.3779 -115.719 54.7158 -158.759
c29.9326 -33.6084 78.7607 -51.6123 118.265 -21.8115c9.4043 7.0918 22.6787 9.18945 33.917 5.06641z" />
    <glyph glyph-name="parenright" unicode=")" horiz-adv-x="416" 
d="M348.396 246.177c14.5781 -80.3936 23.5283 -165.992 13.4961 -247.481c-9.0957 -73.8398 -41.9482 -144.157 -108.544 -182.402c-61.2695 -35.1797 -148.207 -36.2266 -200.087 16.3223c-8.19434 8.29785 0.679688 16.4189 8.89062 19.332
c11.2842 4.00488 24.458 2.06641 33.9141 -5.06641c45.6963 -34.4756 100.897 -5.39941 129.336 36.0215c34.5205 50.2842 43.876 110.379 44.4062 170.258c0.568359 64.3594 -4.97949 129.503 -15.2334 193.017c-10.4062 64.46 -26.4961 127.779 -46.5215 189.892
c-9.39062 29.1318 -20.3311 58.999 -36.6875 85.0342c-6.85547 10.9092 -38.0508 56.2588 -53.4678 40.4219c-8.16992 -8.39551 -40.5684 -3.38867 -29.3818 9.78809c22.6572 26.6875 71.2529 10.209 97.3818 -1.96973c38.5361 -17.9629 67.0332 -52.7334 86.4277 -89.5566
c38.2549 -72.6338 61.4746 -153.125 76.0703 -233.609z" />
    <glyph glyph-name="asterisk" unicode="*" horiz-adv-x="245" 
d="M194.721 364.306c0 -7.77441 -12.043 -10.4932 -17.959 -10.2363c-10.2783 0.447266 -20.5664 0.849609 -30.8545 1.11328c10.9268 -9.67773 21.8047 -19.3906 31.8154 -30.0879c11.9668 -12.792 -22.1172 -19.623 -30.6924 -10.2256
c-3.40137 3.72754 -6.91016 7.33008 -10.4814 10.8633c0.34375 -6.74414 0.69043 -13.499 1.00586 -20.2852c0.652344 -13.9639 -33.4766 -13.6729 -35.543 0c-0.575195 3.79004 -1.01953 7.61523 -1.46387 11.4404c-4.95508 -5.61426 -9.90332 -11.2461 -14.8408 -16.9053
c-8.29785 -9.50781 -42.1387 -3.4082 -30.6924 10.2266c12.6777 15.1016 25.917 29.8945 39.5244 44.3828c-8.48145 -0.516602 -16.9492 -1.26562 -25.4033 -2.36523c-15.5693 -2.02539 -29.4883 13.4922 -8.43945 17.4521c8.85254 1.66406 17.7197 2.85352 26.6035 3.74121
c-8.4541 9.64746 -16.8662 19.499 -26.9463 26.667c-16.1279 11.4678 13.7217 20.5527 23.792 13.5615c5.27051 -3.6582 10.0381 -7.85449 14.6055 -12.2754c0.413086 8.53027 0.918945 17.0293 1.50879 25.4346c0.970703 13.8252 35.543 13.3193 34.7832 0
c-0.610352 -10.6631 -0.845703 -21.2637 -0.845703 -31.8262c8.08008 7.89551 16.2256 15.6943 24.4229 23.3574c8.12793 7.59766 38.9863 2.0459 27.7441 -9.24512c-11.1143 -11.1621 -21.9922 -22.46 -32.7354 -33.8613
c7.70117 -0.180664 15.4102 -0.416016 23.1289 -0.69043c5.69434 -0.201172 17.9629 -2.14648 17.9629 -10.2363z" />
    <glyph glyph-name="plus" unicode="+" horiz-adv-x="318" 
d="M249.232 210.894c5.87793 -0.12793 18.5322 -2.27148 18.5283 -10.5557c0 -8.11426 -12.4141 -10.6904 -18.5312 -10.5625c-19.332 0.405273 -38.6328 0.280273 -57.9131 -0.285156c-0.40918 -7.44824 -0.793945 -14.8965 -1.10645 -22.3418
c-1.09961 -26.1533 -2.08398 -52.4072 -4.2373 -78.498c-2.09473 -25.3867 -4.05078 -49.5879 -15.8027 -72.5684c-8.58594 -16.7939 -45.9326 -16.2354 -54.7539 0c-12.8721 23.6875 -15.0498 49.4248 -16.8184 75.9805c-1.66113 24.9531 -1.83105 50.0869 -1.51172 75.082
c0.0693359 5.23242 0.131836 10.4688 0.197266 15.708c-7.94434 -0.898438 -15.8848 -1.86621 -23.8184 -2.93457c-6.08887 -0.822266 -20.5215 -0.395508 -23.0283 7.45215c-2.52051 7.90234 6.48535 12.2441 13.0771 13.125
c11.3496 1.51562 22.7197 2.81934 34.0967 4.01562c0.704102 38.8242 2.30566 77.7344 8.44336 116.031c5.54492 34.5928 89.9229 36.167 90.5361 -0.000976562c0.621094 -36.6152 -1.81348 -73.2266 -4.03613 -109.811c18.8809 0.485352 37.7764 0.579102 56.6787 0.163086
z" />
    <glyph glyph-name="comma" unicode="," horiz-adv-x="201" 
d="M77.2012 53.584c9.70898 26.2812 84.5391 18.6738 72.6758 -11.418c-13.125 -33.2959 -28.334 -76.791 -60.3125 -96.3311c-8.88086 -5.42676 -32.1074 -6.5293 -36.9932 5.56543c-6.44336 15.9404 0.644531 33.4521 5.75195 49.0186
c5.87793 17.9238 12.3418 35.4697 18.8779 53.165z" />
    <glyph glyph-name="hyphen" unicode="-" horiz-adv-x="308" 
d="M256.525 187.736c5.33984 -13.7314 -12.002 -20.8789 -22.6094 -22.6963c-51.1514 -8.78027 -103.277 -12.9795 -155.042 -16.0586c-9.12012 -0.543945 -26.4102 3.46484 -28.6299 14.4053c-2.28516 11.2559 11.9805 16.9258 20.8789 18.2295
c48.3672 7.10156 96.9072 14.3486 145.579 19.0088c11.4053 1.09277 34.4688 0.884766 39.8232 -12.8887z" />
    <glyph glyph-name="period" unicode="." horiz-adv-x="172" 
d="M117.926 19.3926c3.2002 -3.25586 6.08594 -9.4502 3.2041 -13.9648c-3.67578 -5.77344 -6.7207 -11.8174 -9.97656 -17.8232c-3.59961 -6.64355 -7.07031 -14.543 -13.2256 -19.1484c-12.3584 -9.24805 -34.9258 -10.5244 -44.6143 3.32227
c-8.31543 11.8838 0.984375 31.9443 6.48047 43.2871c6.35645 13.1074 26.9512 14.2832 39.126 12.6602c6.24219 -0.832031 14.4395 -3.67578 19.0059 -8.33301z" />
    <glyph glyph-name="slash" unicode="/" horiz-adv-x="553" 
d="M472.44 591.052c12.7646 -2.04199 37.6201 -12.1631 29.3672 -29.4805c-60.0146 -125.955 -129.038 -247.167 -191.931 -371.69c-31.4238 -62.2168 -62.248 -124.77 -92.3057 -187.659c-30.8242 -64.4912 -60.1016 -130.547 -97.0498 -191.81
c-12.8613 -21.3291 -78.3447 -21.3643 -69.748 10.9609c17.8896 67.2617 47.3682 131.819 75.9209 195.132c28.5283 63.25 58.0762 125.993 88.7998 188.206c62.501 126.559 126.441 252.281 205.227 369.603c10.9229 16.2666 33.5039 19.6543 51.7197 16.7383z" />
    <glyph glyph-name="zero" unicode="0" horiz-adv-x="376" 
d="M298.474 398.359c18.0215 -39.7119 22.2129 -85.5361 25.1533 -128.528c3.17285 -46.252 2.79102 -92.9961 -0.974609 -139.213c-3.19727 -39.2295 -9.61914 -85.9287 -32.623 -119.024c-28.6494 -41.2236 -82.1309 -58.9775 -130.477 -44.2363
c-85.5742 26.0938 -103.855 133.542 -108.312 209.879c-2.71484 46.5078 -0.818359 93.2305 4.1748 139.527c2.64941 24.5547 6.42578 48.6162 12.0117 72.6748c5.08691 21.8984 10.1016 45.0137 21.7178 64.4531c9.53906 15.9648 48.252 22.0537 65.7773 9.30273
c15.8301 9.36621 35.5225 12.9658 53.7695 9.89648c43.2764 -7.27539 72.1201 -35.8105 89.7812 -74.7314zM224.896 146.234c6.93848 68.9961 12.3174 141.985 6.33203 211.224c-2.45898 28.4766 -6.80762 59.3701 -22.6133 83.8652
c-7.28516 11.2939 -13.3291 15.0283 -26.6797 9.06445c-7.67383 -3.42578 -13.6768 -8.98828 -18.1436 -15.7012c-0.530273 -16.2148 -3.83105 -32.6064 -5.97754 -48.5225c-2.81543 -20.8887 -5.68359 -41.8086 -8.08691 -62.75
c-4.58105 -39.8672 -6.23828 -79.8701 -6.36621 -119.98c-0.114258 -35.7129 1.46387 -71.6963 8.74609 -106.751c5.52734 -26.6104 15.0703 -57.5596 35.751 -76.417c0.0244141 -0.0244141 0.0517578 -0.0449219 0.0791016 -0.0693359
c6.55371 8.58594 11.5439 17.4111 15.8926 27.9004c12.8896 31.0801 17.7197 64.8721 21.0664 98.1377z" />
    <glyph glyph-name="one" unicode="1" horiz-adv-x="286" 
d="M165.014 -57.6016c-8.47461 0 -23.5068 1.85352 -34.4541 7.39844c-9.12305 -0.62793 -18.2432 -1.2832 -27.3633 -1.97363c-17.9346 -1.35547 -25.2822 18.875 -4.875 20.5361c5.92578 0.482422 11.8516 0.929688 17.7773 1.3877
c-5.39941 22.377 -5.27441 45.6514 -5.69727 68.625c-0.419922 22.7061 -0.835938 45.416 -1.25586 68.126c-0.860352 46.5674 -1.24902 93.0859 -1.19043 139.66c0.0585938 46.2412 1.16504 92.583 3.28418 138.779c0.891602 19.5059 2.76074 38.8135 2.22656 58.2773
c-0.0136719 0.149414 -0.0693359 0.288086 -0.0898438 0.433594c-3.28418 -3.13086 -7.22656 -6.08496 -10.2607 -9.32031c-6.74805 -7.19141 -13.2217 -14.6572 -19.8174 -21.9883c-8.36719 -9.30371 -42.3193 -4.01562 -31.0186 10.333
c13.8359 17.5635 26.6797 38.2168 49.3896 44.8711c20.2168 5.92285 42.9336 0.56543 58.7803 -13.0625c39.3125 -33.8096 41.667 -99.5703 46.1406 -147.327c5.38574 -57.542 6.61719 -115.646 7.96582 -173.406c0.637695 -27.249 1.27246 -54.501 1.91016 -81.75
c0.589844 -25.2656 2.37207 -50.8535 -1.60547 -75.7891c0.655273 0.0351562 1.31055 0.0771484 1.96582 0.112305c5.98535 0.3125 18.9092 -2.6416 18.9092 -10.7764c0 -8.56836 -12.667 -10.4893 -18.9092 -10.7773
c-3.4082 -0.15625 -6.81348 -0.34375 -10.2227 -0.509766c-10.2432 -9.17871 -31.0312 -11.8594 -41.5898 -11.8594z" />
    <glyph glyph-name="two" unicode="2" horiz-adv-x="304" 
d="M148.879 264.048c15.3545 49.4902 24.4727 102.491 27.8291 154.17c0.637695 9.85156 1.98633 25.5703 -8.02148 30.7402c-11.2246 5.80176 -24.7314 -5.84961 -32.0449 -13.7285c-14.3906 -15.4932 -35.7305 -48.3008 -27.041 -69.9492
c5.28516 -13.167 -26.3604 -15.5771 -31.3467 -4.9248c-11.9805 25.5986 5.93652 55.6631 21.1279 76.1914c14.5957 19.7275 35.7695 32.9082 60.6152 34.25c51.5293 2.78125 81.6045 -43.834 89.667 -89.042c10.5586 -59.2139 1.59863 -119.645 -16.1797 -176.607
c-17.376 -55.666 -42.2422 -107.837 -68.1973 -159.896c-7.00098 -14.04 -12.9199 -28.2334 -18.0869 -43.0439c-3.04785 -8.73145 -8.20801 -25.0674 -4.18164 -34.0518c1.60547 -0.169922 4.78516 -0.142578 5.50977 -0.0556641
c7.45508 0.898438 14.8828 1.7168 22.2656 3.13867c13.9297 2.68066 27.3906 7.05664 40.6895 11.9463c14.9629 5.5 43.46 -9.59473 19.6611 -19.1719c-27.252 -10.9678 -55.3711 -16.6377 -83.7295 -23.7295c-29.2354 -7.30957 -62.2754 -2.49316 -81.8643 22.3701
c-36.6426 46.5186 0.211914 103.184 21.2568 147.531c23.8262 50.2119 45.5859 100.718 62.0713 153.863z" />
    <glyph glyph-name="three" unicode="3" horiz-adv-x="335" 
d="M82.4463 399.557c-4.19922 -11.374 -36.209 -8.97559 -32.0752 5.04102c9.91016 33.6221 36.6562 58.2842 72.123 61.6338c33.1123 3.12793 71.0586 -13.7217 87.8418 -43.1582c17.2139 -30.1855 11.2842 -67.8789 -0.141602 -98.748
c-5.81152 -15.6982 -13.3223 -30.4463 -22.5986 -44.3721c-5.56934 -8.35742 -11.5791 -16.5098 -17.7656 -24.4199c-1.23438 -1.57812 -6.00586 -8.84277 -9.87891 -13.3955c0.166016 -0.104492 0.339844 -0.205078 0.505859 -0.30957
c3.09277 -1.9248 6.16504 -3.8877 9.19922 -5.90234c7.37207 -4.88965 14.5254 -10.0947 21.6582 -15.3203c13.1289 -9.61621 25.8135 -19.7383 37.2881 -31.3135c25.0537 -25.2793 43.9561 -54.8271 52.3232 -89.5762c8.25977 -34.3154 5.78027 -70.1123 -13.8916 -100.347
c-20.6113 -31.6738 -52.1807 -54.0332 -89.7529 -60.3896c-35.041 -5.92578 -72.2979 0.169922 -97.5146 26.6729c-20.5527 21.6035 -30.1064 51.665 -24.9912 81.0391c2.45117 14.0889 37.6719 13.4336 35.9209 0c-3.69629 -28.3965 9.03027 -62.123 39.0566 -70.4316
c24.0068 -6.64062 38.6338 8.10059 47.9131 29.4473c19.3428 44.4834 6.41504 97.7842 -18.6807 136.889c-12.0635 18.7979 -29.2803 35.626 -46.9727 49.1465c-17.5293 13.3994 -56.9082 26.542 -49.0059 54.7793c3.90137 13.9404 17.9004 24.7598 26.9512 35.624
c7.46191 8.95703 14.0508 18.4102 20.334 28.2236c14.332 22.3838 25.3691 46.5947 33.8818 71.7734c5.52051 16.3262 16.7109 55.6387 -7.16016 62.4424c-26.2295 7.47949 -47.1221 -24.8359 -54.5674 -45.0283z" />
    <glyph glyph-name="four" unicode="4" horiz-adv-x="310" 
d="M91.5449 128.394c-38.0508 11.2666 -44.6436 48.5078 -40.4336 83.3613c5.56543 46.1123 23.7363 90.502 43.1826 132.305c20.0811 43.1582 42.707 85.9072 70.3545 124.721c1.44629 2.03516 4.14746 3.54395 7.40723 4.53223
c18.2021 24.6582 83.3867 22.7549 86.1924 -9.84473c3.72461 -43.2627 0.239258 -87.0488 -0.395508 -130.391c-0.621094 -42.3398 -0.936523 -84.6836 -0.516602 -127.023c0.429688 -43.4736 1.57031 -86.9297 2.09375 -130.4
c0.246094 -20.6221 0.339844 -41.0986 -0.50293 -61.7139c-0.908203 -22.1787 -1.02637 -41.9648 -16.7871 -59.0635c-10.5107 -11.4053 -35.2559 -9.7373 -46.082 0c-18.3164 16.4717 -20.4629 39.3164 -24.0557 62.4902
c-3.17969 20.5254 -5.09766 41.0156 -6.68945 61.7178c-1.2793 16.6416 -2.1875 33.2861 -2.94727 49.9375c-23.5732 -5.99902 -48.4189 -7.26172 -70.8203 -0.62793zM102.884 264.359c-9.56738 -29.2461 -22.4727 -71.498 -8.43555 -101.41
c11.0996 -23.6533 42.3467 -18.4932 66.918 -9.07129c-0.589844 17.3799 -1.03418 34.7666 -1.34668 52.1738c-0.773438 43.4805 -0.963867 86.9756 -0.145508 130.456c0.384766 20.376 0.496094 40.9111 1.33203 61.3945
c-22.5645 -43.0684 -43.1309 -87.0938 -58.3223 -133.543z" />
    <glyph glyph-name="five" unicode="5" horiz-adv-x="363" 
d="M153.022 241.72c-16.1943 -28.5078 -31.2832 -55.9131 -37.3516 -88.5889c-5.63477 -30.3525 -6.56738 -63.5244 0.793945 -93.6963c5.45801 -22.373 17.5674 -49.2197 40.9668 -57.7324c15.6699 -5.70117 27.4424 8.76562 35.3174 20.958
c15.1777 23.5 19.8555 52.2637 21.5479 79.6611c1.68164 27.2354 1.35547 55.5283 -4.71973 82.25c-5.53125 24.332 -16.3291 49.8711 -32.4854 69.0713c-18.5029 21.9922 -42.0654 36.8994 -64.2793 54.5742c-23.4346 18.6416 -33.7852 42.457 -24.0371 71.7832
c6.79688 20.4482 18.1221 42.957 32.2393 61.5713c-9.50098 1.37988 -18.8945 3.15527 -28.1045 5.55469c-16.541 4.31055 -16.8428 22.4668 0 26.6416c56.7168 14.0547 119.325 6.69336 177.263 7.5498c11.7275 0.173828 38.4629 -5.01758 38.0645 -21.6973
c-0.398438 -16.6514 -25.2021 -22.0127 -38.0635 -21.6934c-30.4941 0.759766 -62.4141 -0.793945 -94.0566 -0.294922c-2.86035 -12.9795 -6.69922 -25.8408 -9.87891 -38.6299c-4.3418 -17.4629 -11.9814 -38.6641 0.584961 -54.3135
c9.9834 -12.4316 27.4434 -19.6094 40.4189 -28.3447c16.4336 -11.0547 32.6621 -23.0186 46.6436 -37.1113c89.7188 -90.4395 86.4873 -319.082 -75.3408 -323.348c-33.7197 -0.887695 -70.7197 9.88281 -93.5928 35.9111
c-18.9512 21.5654 -28.6123 50.1494 -32.5205 78.1855c-8.56836 61.4395 4.93848 138.175 49.3906 184.041c10.1953 10.5176 63.292 8.98145 51.2002 -12.3027z" />
    <glyph glyph-name="six" unicode="6" horiz-adv-x="312" 
d="M162.062 -51.1621c-78.6709 1.17871 -113.638 77.375 -112.008 147.009c1.59473 67.959 22.3828 137.381 45.7686 200.687c11.415 30.9033 25.9551 61.3701 42.0244 90.1338c9.24805 16.5547 19.3906 32.96 30.5146 48.3115
c10.8955 15.0361 23.1396 26.0566 36.6494 38.6338c7.36133 6.85547 19.4805 8.34277 29.0654 6.74121c5.28809 -0.887695 20.8438 -5.69434 18.8945 -14.1484c-3.4541 -14.9902 -4.84766 -28.3516 -10.5898 -42.8604
c-5.87109 -14.8311 -12.2168 -29.4785 -18.1289 -44.3027c-12.043 -30.2002 -23.1426 -60.4521 -33.2783 -91.3457c-19.5293 -59.5156 -37.0098 -122.755 -40.5742 -185.554c-0.0449219 -0.78418 -0.0830078 -1.57812 -0.125 -2.36523
c46.7686 13.6934 105.708 -9.14453 110.844 -62.8203c5.45508 -57.0254 -48.1758 -88.8857 -99.0566 -88.1191zM159.126 77.4336c-2.6875 -1.47363 -6.10059 -2.52734 -9.68945 -3.00977c-0.104492 -23.0732 2.06641 -46.2617 10.5693 -67.7197
c6.3877 -16.1143 20.1543 -35.1035 39.334 -23.9863c48.9912 28.3936 14.8867 124.926 -40.2139 94.7158z" />
    <glyph glyph-name="seven" unicode="7" horiz-adv-x="318" 
d="M82.1289 424.971c-8.73145 -7.24414 -41.7676 -1.81836 -29.3848 9.79102c32.3389 30.3008 87.3223 52.5078 131.25 36.9971c53.5928 -18.9268 52.9023 -94.9727 51.5635 -141.525c-0.992188 -34.4932 -4.43555 -68.8057 -8.96387 -102.993
c7.41406 0.0830078 14.8174 0.15625 22.1934 0.236328c5.93359 0.0654297 18.7188 -2.43848 18.7188 -10.6709c0 -8.33301 -12.5352 -10.6006 -18.7178 -10.6699c-8.39844 -0.0898438 -16.7969 -0.304688 -25.1953 -0.564453
c-2.56934 -17.7158 -5.33984 -35.4043 -8.19043 -53.0654c-9.37305 -58.0518 -16.4297 -118.163 -32.8145 -174.717c-9.11328 -31.4551 -101.991 -29.291 -99.7236 7.69141c2.9541 48.1621 14.6191 96.1992 23.042 143.637c4.2998 24.2041 8.93652 48.3457 13.4238 72.5156
c-4.82324 -0.0966797 -9.64648 -0.193359 -14.4736 -0.228516c-16.2559 -0.121094 -23.7705 16.5205 -4.52148 19.0488c7.59766 0.995117 15.2373 1.7959 22.8936 2.51367c2.58984 14.4111 5.08691 28.8398 7.35449 43.3105
c7.18457 45.8418 14.8271 91.5801 16.3213 138.029c0.350586 10.8848 6.72754 40.4775 -7.32031 44.8506c-17.7471 5.52734 -45.0684 -13.9121 -57.4551 -24.1865z" />
    <glyph glyph-name="eight" unicode="8" horiz-adv-x="326" 
d="M114.217 158.253c-11.5508 15.4971 -22.8809 31.1377 -32.8398 47.6816c-20.8574 34.6631 -35.9697 73.5459 -30.1025 114.634c5.51367 38.6084 23.6914 74.6133 51.5674 101.938c26.042 25.5293 69.0029 43.1104 105.69 38.0508
c36.9688 -5.09766 60.5137 -35.9805 66.0273 -71.2744c6.29688 -40.3076 -4.82031 -84.6689 -14.0928 -123.76c-9.1377 -38.5322 -24.2256 -74.3564 -38.1582 -111.138c3.16895 -5.04199 6.27637 -10.126 9.26562 -15.2715
c18.2676 -31.4619 38.5537 -76.3613 30.665 -113.607c-6.54688 -30.9072 -27.71 -62.7607 -57.3516 -75.7715c-32.6025 -14.3145 -73.9785 -5.26758 -97.4688 21.5029c-27.3281 31.1465 -28.2607 74.4092 -20.126 113.021c4.35156 20.6533 10.4893 41.1787 19.4639 60.3203
c2.42773 5.18066 4.74805 9.80273 7.45996 13.6729zM162.756 -34.0713c24.8975 -7.00098 35.2852 13.5986 33.6904 34.7725c-2.76367 36.6289 -23.625 73.7295 -43.3555 103.773c-5.10449 7.77441 -10.4795 15.3721 -15.9512 22.9004
c-0.28418 -0.814453 -0.56543 -1.60547 -0.84668 -2.34082c-4.69141 -12.2998 -8.5957 -24.957 -11.4424 -37.8115c-5.36133 -24.1973 -8.22559 -50.832 -1.02637 -74.9492c5.64551 -18.9121 18.6318 -40.6367 38.9316 -46.3447zM144.612 363.253
c-8.98828 -39.1396 3.05859 -77.7266 19.4014 -113.079c7.94043 -17.1826 17.6396 -33.3389 27.8555 -49.1963c13.7002 29.9746 26.0732 60.8262 35.3525 91.7441c10.9268 36.4033 27.2734 121.468 -18.9258 141.931c-32.3535 14.3281 -58.4229 -48.4814 -63.6836 -71.3994z
" />
    <glyph glyph-name="nine" unicode="9" horiz-adv-x="396" 
d="M129.157 266.256c-27.0508 -0.520508 -60.0312 10.1514 -72.7852 35.9297c-23.625 47.7773 23.4238 108.229 59.8721 135.699c40.249 30.335 99.1436 38.8789 141.396 8.6377c13.0693 1.30078 27.8486 -3.36621 37.3115 -11.9141
c16.1035 -14.543 28.3477 -40.332 35.0469 -60.5801c6.58203 -19.8975 10.5244 -39.9268 12.9521 -60.7148c5.21582 -44.6562 1.73438 -90.3115 -3.0127 -134.847c-4.87598 -45.7344 -7.96875 -92.2285 -16.2041 -137.499
c-6.95312 -38.2275 -21.916 -85.0996 -57.5361 -106.124c-37.5234 -22.1475 -80.5811 -9.39355 -103.929 25.6191c-19.96 29.9365 -25.0889 66.375 -25.5469 101.582c-0.183594 14.1895 35.9873 14.2412 36.3027 0c0.62793 -28.334 4.07812 -85.1309 35.3252 -99.8193
c19.5781 16.6104 15.8955 64.0723 17.3828 85.0996c3.11035 43.9043 7.94727 87.3994 12.8438 131.147c5.02832 44.8955 9.09277 89.6494 9.6543 134.847c0.274414 22.3252 -1.25781 44.6357 -1.42773 66.9395c-0.0136719 1.91113 0.0214844 3.8252 0.0488281 5.73926
c-4.71289 -9.85156 -9.25195 -19.7793 -13.9648 -29.627c-10.5938 -22.1309 -22.9941 -44.4561 -40.7588 -61.7393c-16.457 -16.0137 -39.6797 -27.9316 -62.9717 -28.376zM156.368 373.682c-10.9609 -18.042 -19.8389 -36.2441 -16.6074 -57.9512
c0.835938 -5.60742 2.54883 -11.5264 4.49805 -17.0674c0.863281 0.232422 1.97656 0.429688 3.37402 0.588867c3.39453 2.44141 6.74805 4.10254 10.0977 6.83887c30.293 24.7207 43.3975 67.7783 60.5137 101.508c4.19629 8.27051 8.5 17.5498 14.5195 24.9844
c-31.8154 14.2139 -62.3447 -35.7725 -76.3955 -58.9014z" />
    <glyph glyph-name="colon" unicode=":" horiz-adv-x="172" 
d="M119.082 289.328c4.6084 -16.7002 2.2998 -33.8311 -3.16211 -49.9941c-3.27344 -9.69922 -19.9082 -11.0068 -28.0293 -10.4316c-6.7207 0.474609 -23.1709 4.28906 -22.1514 14.2998c1.5498 15.2402 2.97168 31.3887 7.28223 46.126
c1.72656 5.90918 11.5918 8.8252 16.6787 9.50879c0.530273 0.0732422 1.06055 0.142578 1.58789 0.21582c3.78711 0.505859 7.3623 0.266602 11.1143 -0.21582c4.99707 -0.641602 15.0605 -3.63086 16.6797 -9.50879zM93.5508 91.2627
c8.29785 -1.88965 16.4209 -4.61523 18.4014 -13.7803c3.21484 -14.8896 1.55371 -30.7715 -0.481445 -45.7617c-3.70703 -27.2803 -69.6963 -21.4961 -60.6113 4.67773c5.12207 14.7549 7.51855 29.957 11.8604 44.8848c1.88672 6.48438 12.1201 8.84961 17.5088 9.98047
c0.583008 0.121094 1.16895 0.242188 1.75488 0.367188c3.60645 0.755859 7.96484 0.454102 11.5674 -0.368164z" />
    <glyph glyph-name="semicolon" unicode=";" horiz-adv-x="225" 
d="M174.874 307.059c0.974609 -6.30371 -0.797852 -13.1035 -1.57129 -19.4072c-0.804688 -6.55078 -1.74414 -13.0703 -2.40625 -19.6377c-1.56055 -15.459 -21.8564 -19.2178 -34.2705 -19.5332c-7.75 -0.197266 -17.4521 1.73047 -24.2314 5.72168
c-4.13379 2.43457 -10.75 8.04199 -10.0391 13.8125c0.967773 7.85059 2.15039 15.5908 3.98438 23.2852c1.66113 6.95996 2.83984 14.4883 6.80664 20.5254c7.36523 11.207 21.9297 13.79 34.4795 12.8291c10.9785 -0.842773 25.3066 -5.01465 27.248 -17.5957z
M123.434 83.3359c8 6.44629 28.4697 8.82031 33.8691 -2.52539c12.0742 -25.3691 -1.43262 -60.5176 -8.17676 -86.1953c-8.06934 -30.7197 -17.0957 -61.0371 -26.6836 -91.3135c-8.16992 -25.792 -81.1533 -19.8662 -71.5791 11.249
c9.05762 29.4336 18.7461 58.5029 29.0137 87.5371c9.83105 27.7969 19.8418 62.1201 43.5566 81.248z" />
    <glyph glyph-name="less" unicode="&#x3c;" horiz-adv-x="340" 
d="M257.64 175.818c13.5205 -1.67871 38.4951 -12.6406 30.5615 -30.6826c-8.06543 -18.3232 -37.2695 -19.4502 -53.8203 -17.418c-37.9883 4.66699 -76.0283 9.4043 -113.375 17.9795c-27.8555 6.40137 -83.8096 23.0459 -68.3506 63.5449
c11.4463 29.9883 57.0391 47.7734 83.9307 60.0938c34.6631 15.8779 69.6758 29.8457 107.061 37.7969c9.43164 2.00781 45.96 -6.60938 29.2773 -21.707c-37.4541 -33.9033 -88.3555 -46.29 -127.381 -77.71c-1.81055 -1.45605 -7.21289 -5.11816 -7.98633 -7.46191
c-0.118164 -0.34668 0.890625 -4.3584 0.238281 -4.66309c2.98926 -1.58496 10.833 -2.61133 13.125 -3.13867c7.66699 -1.76465 15.417 -3.22461 23.1572 -4.63965c27.6924 -5.0625 55.6377 -8.52637 83.5625 -11.9941z" />
    <glyph glyph-name="equal" unicode="=" horiz-adv-x="294" 
d="M90.2021 214.021c-10.6455 -0.863281 -32.0039 -0.928711 -37.0215 11.9844c-5.05957 13.0068 11.2764 19.0479 21.0205 21.1006c42.1387 8.8877 89.4443 14.1416 131.604 3.27734c7.89551 -2.03223 17.0605 -9.14453 15.1846 -18.0635
c-1.93457 -9.18945 -14.4004 -14.124 -22.7812 -15.0703c-35.6992 -4.0332 -72.0986 -0.31543 -108.006 -3.22852zM208.247 193.389c11.0234 -0.166016 36.1689 -4.48145 35.791 -20.4053c-0.388672 -16.3086 -23.6846 -19.7451 -35.7871 -20.3975
c-24.6172 -1.32422 -49.2412 -2.42383 -73.875 -3.36328c-24.4404 -0.932617 -48.749 -2.80469 -72.6826 3.21875c-11.8213 2.97852 -16.7002 15.2812 -4.97949 22.0225c21.0352 12.1025 47.6738 13.3721 71.3408 15.6191c26.6797 2.53516 53.3945 3.71094 80.1924 3.30566z
" />
    <glyph glyph-name="greater" unicode="&#x3e;" horiz-adv-x="342" 
d="M289.309 198.174c15.5283 -34.4961 -42.0293 -47.6162 -63.8682 -54.1768c-35.5889 -10.7051 -71.3789 -18.0146 -107.709 -25.4385c-13.4824 -2.75293 -42.5449 -0.0478516 -48.6895 15.7578c-6.62988 17.0576 14.8037 25.1299 27.6445 27.751
c25.1094 5.12891 50.1211 12.2686 74.9424 18.7256c12.6914 3.29785 25.2891 6.93555 37.9629 10.2891c0.742188 0.1875 1.48438 0.388672 2.22656 0.579102c-0.0585938 0.0800781 -0.121094 0.135742 -0.179688 0.222656
c-2.20508 1.4043 -4.47949 2.67383 -6.82715 3.81445c-46.9033 24.2217 -98.5752 40.0303 -146.588 62.0811c-10.6455 4.88965 -10.4512 15.7949 -2.32324 22.2412c10.4932 8.32227 26.1562 7.61523 38.3379 4.3623c38.0195 -10.1533 74.9326 -23.4033 111.624 -37.6133
c25.8408 -10.0078 70.7646 -20.4248 83.4463 -48.5957z" />
    <glyph glyph-name="question" unicode="?" horiz-adv-x="376" 
d="M294.539 496.697c27.7373 -21.5303 32.7354 -53.3174 30.8076 -86.5127c-4.28223 -73.9336 -33.6846 -144.157 -51.7334 -215.3c-19.3496 -76.2812 -23.8818 -154.515 -37.6865 -231.704c-3.94922 -22.085 -30.3516 -28.3965 -49.8193 -28.3965
c-15.7051 0 -50.8184 6.43262 -49.8193 28.3965c3.29102 72.3906 16.0312 145.045 35.2979 214.88c16.3398 59.2383 41.7227 115.712 62.8613 173.31c10.5137 28.6562 21.8047 58.7344 27.5293 88.7715c5.09082 26.7041 -2.82617 54.584 -32.7275 59.9619
c-51.8135 9.32422 -101.123 -36.5254 -123.937 -78.2207c-13.1807 -24.0859 -21.9326 -51.7227 -18.3301 -79.4121c3.15527 -24.2705 19.2588 -51.9668 44.9717 -57.2617c23.2227 -4.78516 8.13184 -23.084 -9.44922 -19.5361
c-30.6299 6.18262 -56.2939 26.2842 -66.8945 56.2754c-12.0879 34.2012 -3.21777 72.002 13.0283 103.26c26.9922 51.9209 78.1816 91.8408 137.479 96.8164c31.5283 2.64551 63.2568 -5.79785 88.4219 -25.3271zM214.473 -105.227
c3.60938 -2.12891 9.12402 -6.84961 8.59375 -11.8252c-1.39062 -13.0938 -2.21973 -26.1387 -4.55371 -39.1074c-2.42383 -13.4473 -18.1807 -16.748 -29.9082 -17.0459c-9.62305 -0.246094 -30.2412 4.00195 -29.9082 17.0469
c0.339844 13.3262 2.92676 26.0938 5.69043 39.1074c2.79492 13.1562 17.4834 16.4229 29.3389 16.7246c6.63672 0.166016 14.9453 -1.48145 20.7471 -4.90039z" />
    <glyph glyph-name="at" unicode="@" horiz-adv-x="641" 
d="M534.096 457.516c44.5176 -49.4629 57.6504 -116.422 56.3955 -181.253c-1.38379 -71.5967 -19.8486 -149.019 -57.3584 -210.507c-17.2061 -28.2021 -39.4229 -52.0283 -74.2939 -54.4004c-34.6934 -2.3584 -77.4775 12.4932 -97.6387 41.7012
c-15.6465 22.668 -18.6182 50.9883 -17.8418 78.8232c-5.48926 -9.23047 -11.5332 -18.1875 -18.4375 -26.7285c-14.8281 -18.3438 -32.9297 -37.9189 -56.1494 -44.7432c-35.4219 -10.4102 -74.8594 3.72754 -94.1016 35.2764
c-30.5225 50.0518 -3.16992 114.453 18.7461 162.137c23.0039 50.0488 62.8018 99.9688 121.082 106.925c22.7617 2.71875 48.9697 -5.35352 64.29 -23.0459c7.41016 -8.55859 11.6201 -18.4453 13.9434 -28.9033c19.8076 3.07227 44.9658 -3.93555 46.4082 -20.2021
c3.59277 -40.5303 0.28418 -81.4453 -0.513672 -122.079c-0.697266 -35.5361 -2.51465 -72.085 8.72363 -106.252c2.12207 -6.45703 5.80469 -24.6064 12.9795 -26.8467c12.4561 -3.8877 30.8584 26.4893 35.5361 34.1904c18.1328 29.8389 32.1768 63.6484 39.168 97.9092
c11.54 56.5469 12.9414 118.916 1.2832 175.55c-11.041 53.6309 -34.6455 107.896 -84.9199 134.726c-104.282 55.6484 -231.975 -4.32422 -295.048 -93.7617c-70.3555 -99.7676 -91.4912 -250.465 -35.3184 -361.332c26.3779 -52.0635 71.2246 -94.1152 128.746 -108.356
c57.3408 -14.2002 115.375 1.4873 167.063 26.9746c9.57422 4.71973 23.7607 6.0752 33.1787 0c8.01074 -5.16699 8.89453 -13.9336 0 -18.9131c-67.5459 -37.8184 -154.039 -47.7354 -228.292 -25.3379c-72.4043 21.8359 -126.739 80.4355 -151.641 150.846
c-48.6299 137.506 -6.90039 308.173 102.893 404.691c50.6172 44.4971 115.792 74.3779 183.557 76.8291c68.6074 2.48242 131.646 -22.9004 177.561 -73.916zM305.922 142.127c25.668 39.2227 37.1113 86.0918 54.4492 129.434
c-0.0869141 15.0283 0.152344 30.9346 -5.53418 45.1279c-2.02539 5.05273 -4.64648 10.2129 -8.33594 14.2529c-1.67188 2.08789 -3.65234 3.81152 -5.93066 5.17773c-0.291016 0.180664 -0.526367 0.326172 -0.769531 0.478516
c-16.4434 -4.44922 -28.9717 -29.5342 -36.417 -42.7324c-11.1416 -19.7549 -18.6836 -41.5596 -25.8994 -62.9932c-7.93066 -23.5596 -14.9072 -47.3994 -16.2393 -72.377c-0.668945 -12.5635 0.558594 -24.5996 3.23535 -36.8438
c1.08203 -4.93457 4.24414 -10.9512 6.33887 -16.5518c4.25488 2.82227 8.74512 5.7627 9.78906 6.69922c9.76855 8.75977 18.1494 19.3809 25.3135 30.3281z" />
    <glyph glyph-name="A" unicode="A" horiz-adv-x="724" 
d="M58.1777 318.092c28.2266 1.96973 56.3809 5.30273 84.4482 8.84668c55.4131 7.00488 110.58 15.7539 165.893 23.4941c17.9414 50.3125 36.6143 100.382 57.3301 149.626c21.4717 51.0439 43.457 104.044 76.3301 148.971
c12.1748 16.6377 25.0674 32.1143 47.957 26.6455c10.3232 -2.46582 13.0762 -8.46094 19.543 -15.4346c3.2666 -3.51953 7.80273 -5.93262 11.3018 -9.27539c5.96777 -5.70117 9.07812 -12.3555 11.96 -20.0566c10.0176 -26.7842 14.8516 -59.5742 17.3311 -87.998
c2.6875 -30.8135 4.93457 -61.7344 6.16602 -92.6348c1.09277 -27.3633 2.40332 -54.7471 4.12012 -82.1035c21.1182 -0.835938 42.4131 -2.60742 60.5 -14.6094c17.3242 -11.4951 -14.332 -21.5205 -25.1338 -14.3252c-9.50098 6.32812 -21.5303 8.89062 -34.0869 9.7959
c1.70605 -24.2627 3.75879 -48.498 6.35254 -72.6641c5.94336 -55.3926 9.17871 -110.057 23.3164 -164.287c6.21387 -23.833 13.5234 -47.7773 26.7529 -68.7773c9.43555 -14.9766 29.1113 -36.2295 49.2549 -31.1768c22.668 5.68652 35.5889 41.1504 42.9053 60.5137
c10.666 28.2305 16.7236 57.5391 19.0537 87.5898c1.06152 13.6797 35.2314 13.1455 34.4062 0c-2.33398 -37.2109 -10.6836 -73.3057 -24.6162 -107.882c-10.916 -27.0859 -27.6475 -54.21 -56.3037 -65.1016c-61.7656 -23.4727 -116.676 21.6484 -145.783 72.04
c-33.8369 58.582 -56.8623 120.153 -72.2617 185.97c-7.71582 32.9707 -11.4678 66.8047 -13.3955 100.826c-6.62012 -0.454102 -13.2402 -0.953125 -19.8496 -1.51855c-30.9766 -2.64258 -61.8486 -6.29395 -92.6621 -10.3818
c-0.936523 -2.60742 -1.87598 -5.21484 -2.80859 -7.82227c-42.2119 -118.236 -81.043 -238.075 -134.607 -351.835c-5.08691 -10.8018 -36.8574 -8.70703 -31.9404 5.02148c1.18262 3.30078 2.36816 6.60547 3.55078 9.90625
c0.426758 1.18945 1.17578 2.21582 2.14648 3.09961c47.9541 109.813 85.6855 223.473 125.543 336.383c-11.9355 -1.69922 -23.8682 -3.42285 -35.7969 -5.16016c-56.5986 -8.23926 -113.197 -16.6309 -170.174 -21.8223
c-44.417 -4.04688 -93.3145 -10.0254 -133.137 14.6465c-16.1592 10.0107 12.9795 19.2002 22.9873 13.1045c22.502 -13.708 47.9199 -13.3926 73.4072 -11.6133zM403.338 500.487c-20.4414 -47.6797 -38.917 -96.1719 -56.6191 -144.934
c34.5273 4.40723 69.1484 8.11426 103.87 10.4961c-1.06836 28.1709 -1.18652 56.373 -1.51953 84.2256c-0.419922 35.1719 -0.81543 71.2598 1.72656 106.349c1.29004 17.7822 3.35352 35.6133 5.17383 53.3574c-4.88965 -8.46484 -9.51855 -17.082 -13.957 -25.7891
c-13.9541 -27.377 -26.5693 -55.4717 -38.6748 -83.7051z" />
    <glyph glyph-name="A" unicode="&#xc5;" horiz-adv-x="724" 
d="M58.1777 318.092c28.2266 1.96973 56.3809 5.30273 84.4482 8.84668c55.4131 7.00488 110.58 15.7539 165.893 23.4941c17.9414 50.3125 36.6143 100.382 57.3301 149.626c21.4717 51.0439 43.457 104.044 76.3301 148.971
c12.1748 16.6377 25.0674 32.1143 47.957 26.6455c10.3232 -2.46582 13.0762 -8.46094 19.543 -15.4346c3.2666 -3.51953 7.80273 -5.93262 11.3018 -9.27539c5.96777 -5.70117 9.07812 -12.3555 11.96 -20.0566c10.0176 -26.7842 14.8516 -59.5742 17.3311 -87.998
c2.6875 -30.8135 4.93457 -61.7344 6.16602 -92.6348c1.09277 -27.3633 2.40332 -54.7471 4.12012 -82.1035c21.1182 -0.835938 42.4131 -2.60742 60.5 -14.6094c17.3242 -11.4951 -14.332 -21.5205 -25.1338 -14.3252c-9.50098 6.32812 -21.5303 8.89062 -34.0869 9.7959
c1.70605 -24.2627 3.75879 -48.498 6.35254 -72.6641c5.94336 -55.3926 9.17871 -110.057 23.3164 -164.287c6.21387 -23.833 13.5234 -47.7773 26.7529 -68.7773c9.43555 -14.9766 29.1113 -36.2295 49.2549 -31.1768c22.668 5.68652 35.5889 41.1504 42.9053 60.5137
c10.666 28.2305 16.7236 57.5391 19.0537 87.5898c1.06152 13.6797 35.2314 13.1455 34.4062 0c-2.33398 -37.2109 -10.6836 -73.3057 -24.6162 -107.882c-10.916 -27.0859 -27.6475 -54.21 -56.3037 -65.1016c-61.7656 -23.4727 -116.676 21.6484 -145.783 72.04
c-33.8369 58.582 -56.8623 120.153 -72.2617 185.97c-7.71582 32.9707 -11.4678 66.8047 -13.3955 100.826c-6.62012 -0.454102 -13.2402 -0.953125 -19.8496 -1.51855c-30.9766 -2.64258 -61.8486 -6.29395 -92.6621 -10.3818
c-0.936523 -2.60742 -1.87598 -5.21484 -2.80859 -7.82227c-42.2119 -118.236 -81.043 -238.075 -134.607 -351.835c-5.08691 -10.8018 -36.8574 -8.70703 -31.9404 5.02148c1.18262 3.30078 2.36816 6.60547 3.55078 9.90625
c0.426758 1.18945 1.17578 2.21582 2.14648 3.09961c47.9541 109.813 85.6855 223.473 125.543 336.383c-11.9355 -1.69922 -23.8682 -3.42285 -35.7969 -5.16016c-56.5986 -8.23926 -113.197 -16.6309 -170.174 -21.8223
c-44.417 -4.04688 -93.3145 -10.0254 -133.137 14.6465c-16.1592 10.0107 12.9795 19.2002 22.9873 13.1045c22.502 -13.708 47.9199 -13.3926 73.4072 -11.6133zM403.338 500.487c-20.4414 -47.6797 -38.917 -96.1719 -56.6191 -144.934
c34.5273 4.40723 69.1484 8.11426 103.87 10.4961c-1.06836 28.1709 -1.18652 56.373 -1.51953 84.2256c-0.419922 35.1719 -0.81543 71.2598 1.72656 106.349c1.29004 17.7822 3.35352 35.6133 5.17383 53.3574c-4.88965 -8.46484 -9.51855 -17.082 -13.957 -25.7891
c-13.9541 -27.377 -26.5693 -55.4717 -38.6748 -83.7051z" />
    <glyph glyph-name="A" unicode="&#xc4;" horiz-adv-x="724" 
d="M58.1777 318.092c28.2266 1.96973 56.3809 5.30273 84.4482 8.84668c55.4131 7.00488 110.58 15.7539 165.893 23.4941c17.9414 50.3125 36.6143 100.382 57.3301 149.626c21.4717 51.0439 43.457 104.044 76.3301 148.971
c12.1748 16.6377 25.0674 32.1143 47.957 26.6455c10.3232 -2.46582 13.0762 -8.46094 19.543 -15.4346c3.2666 -3.51953 7.80273 -5.93262 11.3018 -9.27539c5.96777 -5.70117 9.07812 -12.3555 11.96 -20.0566c10.0176 -26.7842 14.8516 -59.5742 17.3311 -87.998
c2.6875 -30.8135 4.93457 -61.7344 6.16602 -92.6348c1.09277 -27.3633 2.40332 -54.7471 4.12012 -82.1035c21.1182 -0.835938 42.4131 -2.60742 60.5 -14.6094c17.3242 -11.4951 -14.332 -21.5205 -25.1338 -14.3252c-9.50098 6.32812 -21.5303 8.89062 -34.0869 9.7959
c1.70605 -24.2627 3.75879 -48.498 6.35254 -72.6641c5.94336 -55.3926 9.17871 -110.057 23.3164 -164.287c6.21387 -23.833 13.5234 -47.7773 26.7529 -68.7773c9.43555 -14.9766 29.1113 -36.2295 49.2549 -31.1768c22.668 5.68652 35.5889 41.1504 42.9053 60.5137
c10.666 28.2305 16.7236 57.5391 19.0537 87.5898c1.06152 13.6797 35.2314 13.1455 34.4062 0c-2.33398 -37.2109 -10.6836 -73.3057 -24.6162 -107.882c-10.916 -27.0859 -27.6475 -54.21 -56.3037 -65.1016c-61.7656 -23.4727 -116.676 21.6484 -145.783 72.04
c-33.8369 58.582 -56.8623 120.153 -72.2617 185.97c-7.71582 32.9707 -11.4678 66.8047 -13.3955 100.826c-6.62012 -0.454102 -13.2402 -0.953125 -19.8496 -1.51855c-30.9766 -2.64258 -61.8486 -6.29395 -92.6621 -10.3818
c-0.936523 -2.60742 -1.87598 -5.21484 -2.80859 -7.82227c-42.2119 -118.236 -81.043 -238.075 -134.607 -351.835c-5.08691 -10.8018 -36.8574 -8.70703 -31.9404 5.02148c1.18262 3.30078 2.36816 6.60547 3.55078 9.90625
c0.426758 1.18945 1.17578 2.21582 2.14648 3.09961c47.9541 109.813 85.6855 223.473 125.543 336.383c-11.9355 -1.69922 -23.8682 -3.42285 -35.7969 -5.16016c-56.5986 -8.23926 -113.197 -16.6309 -170.174 -21.8223
c-44.417 -4.04688 -93.3145 -10.0254 -133.137 14.6465c-16.1592 10.0107 12.9795 19.2002 22.9873 13.1045c22.502 -13.708 47.9199 -13.3926 73.4072 -11.6133zM403.338 500.487c-20.4414 -47.6797 -38.917 -96.1719 -56.6191 -144.934
c34.5273 4.40723 69.1484 8.11426 103.87 10.4961c-1.06836 28.1709 -1.18652 56.373 -1.51953 84.2256c-0.419922 35.1719 -0.81543 71.2598 1.72656 106.349c1.29004 17.7822 3.35352 35.6133 5.17383 53.3574c-4.88965 -8.46484 -9.51855 -17.082 -13.957 -25.7891
c-13.9541 -27.377 -26.5693 -55.4717 -38.6748 -83.7051z" />
    <glyph glyph-name="A" unicode="&#xc3;" horiz-adv-x="724" 
d="M58.1777 318.092c28.2266 1.96973 56.3809 5.30273 84.4482 8.84668c55.4131 7.00488 110.58 15.7539 165.893 23.4941c17.9414 50.3125 36.6143 100.382 57.3301 149.626c21.4717 51.0439 43.457 104.044 76.3301 148.971
c12.1748 16.6377 25.0674 32.1143 47.957 26.6455c10.3232 -2.46582 13.0762 -8.46094 19.543 -15.4346c3.2666 -3.51953 7.80273 -5.93262 11.3018 -9.27539c5.96777 -5.70117 9.07812 -12.3555 11.96 -20.0566c10.0176 -26.7842 14.8516 -59.5742 17.3311 -87.998
c2.6875 -30.8135 4.93457 -61.7344 6.16602 -92.6348c1.09277 -27.3633 2.40332 -54.7471 4.12012 -82.1035c21.1182 -0.835938 42.4131 -2.60742 60.5 -14.6094c17.3242 -11.4951 -14.332 -21.5205 -25.1338 -14.3252c-9.50098 6.32812 -21.5303 8.89062 -34.0869 9.7959
c1.70605 -24.2627 3.75879 -48.498 6.35254 -72.6641c5.94336 -55.3926 9.17871 -110.057 23.3164 -164.287c6.21387 -23.833 13.5234 -47.7773 26.7529 -68.7773c9.43555 -14.9766 29.1113 -36.2295 49.2549 -31.1768c22.668 5.68652 35.5889 41.1504 42.9053 60.5137
c10.666 28.2305 16.7236 57.5391 19.0537 87.5898c1.06152 13.6797 35.2314 13.1455 34.4062 0c-2.33398 -37.2109 -10.6836 -73.3057 -24.6162 -107.882c-10.916 -27.0859 -27.6475 -54.21 -56.3037 -65.1016c-61.7656 -23.4727 -116.676 21.6484 -145.783 72.04
c-33.8369 58.582 -56.8623 120.153 -72.2617 185.97c-7.71582 32.9707 -11.4678 66.8047 -13.3955 100.826c-6.62012 -0.454102 -13.2402 -0.953125 -19.8496 -1.51855c-30.9766 -2.64258 -61.8486 -6.29395 -92.6621 -10.3818
c-0.936523 -2.60742 -1.87598 -5.21484 -2.80859 -7.82227c-42.2119 -118.236 -81.043 -238.075 -134.607 -351.835c-5.08691 -10.8018 -36.8574 -8.70703 -31.9404 5.02148c1.18262 3.30078 2.36816 6.60547 3.55078 9.90625
c0.426758 1.18945 1.17578 2.21582 2.14648 3.09961c47.9541 109.813 85.6855 223.473 125.543 336.383c-11.9355 -1.69922 -23.8682 -3.42285 -35.7969 -5.16016c-56.5986 -8.23926 -113.197 -16.6309 -170.174 -21.8223
c-44.417 -4.04688 -93.3145 -10.0254 -133.137 14.6465c-16.1592 10.0107 12.9795 19.2002 22.9873 13.1045c22.502 -13.708 47.9199 -13.3926 73.4072 -11.6133zM403.338 500.487c-20.4414 -47.6797 -38.917 -96.1719 -56.6191 -144.934
c34.5273 4.40723 69.1484 8.11426 103.87 10.4961c-1.06836 28.1709 -1.18652 56.373 -1.51953 84.2256c-0.419922 35.1719 -0.81543 71.2598 1.72656 106.349c1.29004 17.7822 3.35352 35.6133 5.17383 53.3574c-4.88965 -8.46484 -9.51855 -17.082 -13.957 -25.7891
c-13.9541 -27.377 -26.5693 -55.4717 -38.6748 -83.7051z" />
    <glyph glyph-name="A" unicode="&#xc2;" horiz-adv-x="724" 
d="M58.1777 318.092c28.2266 1.96973 56.3809 5.30273 84.4482 8.84668c55.4131 7.00488 110.58 15.7539 165.893 23.4941c17.9414 50.3125 36.6143 100.382 57.3301 149.626c21.4717 51.0439 43.457 104.044 76.3301 148.971
c12.1748 16.6377 25.0674 32.1143 47.957 26.6455c10.3232 -2.46582 13.0762 -8.46094 19.543 -15.4346c3.2666 -3.51953 7.80273 -5.93262 11.3018 -9.27539c5.96777 -5.70117 9.07812 -12.3555 11.96 -20.0566c10.0176 -26.7842 14.8516 -59.5742 17.3311 -87.998
c2.6875 -30.8135 4.93457 -61.7344 6.16602 -92.6348c1.09277 -27.3633 2.40332 -54.7471 4.12012 -82.1035c21.1182 -0.835938 42.4131 -2.60742 60.5 -14.6094c17.3242 -11.4951 -14.332 -21.5205 -25.1338 -14.3252c-9.50098 6.32812 -21.5303 8.89062 -34.0869 9.7959
c1.70605 -24.2627 3.75879 -48.498 6.35254 -72.6641c5.94336 -55.3926 9.17871 -110.057 23.3164 -164.287c6.21387 -23.833 13.5234 -47.7773 26.7529 -68.7773c9.43555 -14.9766 29.1113 -36.2295 49.2549 -31.1768c22.668 5.68652 35.5889 41.1504 42.9053 60.5137
c10.666 28.2305 16.7236 57.5391 19.0537 87.5898c1.06152 13.6797 35.2314 13.1455 34.4062 0c-2.33398 -37.2109 -10.6836 -73.3057 -24.6162 -107.882c-10.916 -27.0859 -27.6475 -54.21 -56.3037 -65.1016c-61.7656 -23.4727 -116.676 21.6484 -145.783 72.04
c-33.8369 58.582 -56.8623 120.153 -72.2617 185.97c-7.71582 32.9707 -11.4678 66.8047 -13.3955 100.826c-6.62012 -0.454102 -13.2402 -0.953125 -19.8496 -1.51855c-30.9766 -2.64258 -61.8486 -6.29395 -92.6621 -10.3818
c-0.936523 -2.60742 -1.87598 -5.21484 -2.80859 -7.82227c-42.2119 -118.236 -81.043 -238.075 -134.607 -351.835c-5.08691 -10.8018 -36.8574 -8.70703 -31.9404 5.02148c1.18262 3.30078 2.36816 6.60547 3.55078 9.90625
c0.426758 1.18945 1.17578 2.21582 2.14648 3.09961c47.9541 109.813 85.6855 223.473 125.543 336.383c-11.9355 -1.69922 -23.8682 -3.42285 -35.7969 -5.16016c-56.5986 -8.23926 -113.197 -16.6309 -170.174 -21.8223
c-44.417 -4.04688 -93.3145 -10.0254 -133.137 14.6465c-16.1592 10.0107 12.9795 19.2002 22.9873 13.1045c22.502 -13.708 47.9199 -13.3926 73.4072 -11.6133zM403.338 500.487c-20.4414 -47.6797 -38.917 -96.1719 -56.6191 -144.934
c34.5273 4.40723 69.1484 8.11426 103.87 10.4961c-1.06836 28.1709 -1.18652 56.373 -1.51953 84.2256c-0.419922 35.1719 -0.81543 71.2598 1.72656 106.349c1.29004 17.7822 3.35352 35.6133 5.17383 53.3574c-4.88965 -8.46484 -9.51855 -17.082 -13.957 -25.7891
c-13.9541 -27.377 -26.5693 -55.4717 -38.6748 -83.7051z" />
    <glyph glyph-name="A" unicode="&#xc1;" horiz-adv-x="724" 
d="M58.1777 318.092c28.2266 1.96973 56.3809 5.30273 84.4482 8.84668c55.4131 7.00488 110.58 15.7539 165.893 23.4941c17.9414 50.3125 36.6143 100.382 57.3301 149.626c21.4717 51.0439 43.457 104.044 76.3301 148.971
c12.1748 16.6377 25.0674 32.1143 47.957 26.6455c10.3232 -2.46582 13.0762 -8.46094 19.543 -15.4346c3.2666 -3.51953 7.80273 -5.93262 11.3018 -9.27539c5.96777 -5.70117 9.07812 -12.3555 11.96 -20.0566c10.0176 -26.7842 14.8516 -59.5742 17.3311 -87.998
c2.6875 -30.8135 4.93457 -61.7344 6.16602 -92.6348c1.09277 -27.3633 2.40332 -54.7471 4.12012 -82.1035c21.1182 -0.835938 42.4131 -2.60742 60.5 -14.6094c17.3242 -11.4951 -14.332 -21.5205 -25.1338 -14.3252c-9.50098 6.32812 -21.5303 8.89062 -34.0869 9.7959
c1.70605 -24.2627 3.75879 -48.498 6.35254 -72.6641c5.94336 -55.3926 9.17871 -110.057 23.3164 -164.287c6.21387 -23.833 13.5234 -47.7773 26.7529 -68.7773c9.43555 -14.9766 29.1113 -36.2295 49.2549 -31.1768c22.668 5.68652 35.5889 41.1504 42.9053 60.5137
c10.666 28.2305 16.7236 57.5391 19.0537 87.5898c1.06152 13.6797 35.2314 13.1455 34.4062 0c-2.33398 -37.2109 -10.6836 -73.3057 -24.6162 -107.882c-10.916 -27.0859 -27.6475 -54.21 -56.3037 -65.1016c-61.7656 -23.4727 -116.676 21.6484 -145.783 72.04
c-33.8369 58.582 -56.8623 120.153 -72.2617 185.97c-7.71582 32.9707 -11.4678 66.8047 -13.3955 100.826c-6.62012 -0.454102 -13.2402 -0.953125 -19.8496 -1.51855c-30.9766 -2.64258 -61.8486 -6.29395 -92.6621 -10.3818
c-0.936523 -2.60742 -1.87598 -5.21484 -2.80859 -7.82227c-42.2119 -118.236 -81.043 -238.075 -134.607 -351.835c-5.08691 -10.8018 -36.8574 -8.70703 -31.9404 5.02148c1.18262 3.30078 2.36816 6.60547 3.55078 9.90625
c0.426758 1.18945 1.17578 2.21582 2.14648 3.09961c47.9541 109.813 85.6855 223.473 125.543 336.383c-11.9355 -1.69922 -23.8682 -3.42285 -35.7969 -5.16016c-56.5986 -8.23926 -113.197 -16.6309 -170.174 -21.8223
c-44.417 -4.04688 -93.3145 -10.0254 -133.137 14.6465c-16.1592 10.0107 12.9795 19.2002 22.9873 13.1045c22.502 -13.708 47.9199 -13.3926 73.4072 -11.6133zM403.338 500.487c-20.4414 -47.6797 -38.917 -96.1719 -56.6191 -144.934
c34.5273 4.40723 69.1484 8.11426 103.87 10.4961c-1.06836 28.1709 -1.18652 56.373 -1.51953 84.2256c-0.419922 35.1719 -0.81543 71.2598 1.72656 106.349c1.29004 17.7822 3.35352 35.6133 5.17383 53.3574c-4.88965 -8.46484 -9.51855 -17.082 -13.957 -25.7891
c-13.9541 -27.377 -26.5693 -55.4717 -38.6748 -83.7051z" />
    <glyph glyph-name="B" unicode="B" horiz-adv-x="446" 
d="M92.7686 639.172c-9.4873 -88.4248 -17.3877 -177.28 -18.3203 -266.257c-0.0732422 -6.87305 -0.09375 -13.7529 -0.131836 -20.6289c8.71777 29.4785 18.6904 58.6064 29.9434 87.3008c27.9004 71.1592 64.7373 145.329 127.897 191.691
c28.7812 21.1279 67.8789 33.9131 101.854 16.8379c30.8516 -15.5039 49.6602 -45.9951 51.2451 -80.29c1.83789 -39.7637 -17.5674 -77.4463 -37.1973 -110.784c-19.5195 -33.1504 -43.7031 -64.207 -69.4541 -92.7285
c-24.9014 -27.582 -52.7773 -52.6943 -82.4326 -75.6055c10.3125 -0.867188 20.5869 -2.2334 30.7891 -4.32129c50.4678 -10.3271 101.147 -35.2773 128.761 -80.5996c9.68555 -15.8926 15.0947 -32.9121 17.1162 -50.4131c29.9502 6.05469 60.1602 10.8779 90.5508 14.3867
c6.05469 0.700195 20.2861 0.474609 22.793 -7.37598c2.47559 -7.74707 -6.3916 -12.2373 -12.9424 -12.9932c-33.4561 -3.86621 -66.707 -9.30664 -99.6113 -16.3184c-2.6875 -67.0439 -49.0322 -137.243 -95.6934 -176.864
c-35.8174 -30.415 -79.7002 -50.0801 -125.928 -58.0449c-41.3867 -7.12988 -99.4834 -9.35645 -134.087 19.0332c-35.3145 28.9727 -9.30664 76.3926 17.46 100.521c37.1562 33.4902 85.2002 54.5596 130.762 73.8291c36.417 15.4033 73.6494 28.75 111.485 40.0479
c-1.99414 23.0635 -8.24609 45.624 -22.6885 63.9268c-9.31738 11.8076 -21.3262 20.8096 -34.6729 27.5264c-10.7812 5.42383 -19.4678 7.68457 -30.1484 9.35254c-34.3086 5.35449 -72.3213 -5.27734 -107.719 -14.3906
c-1.03711 -0.266602 -2.09082 -0.512695 -3.14844 -0.758789c-0.946289 -5.5 -1.83398 -11.0098 -2.70117 -16.5234c0.0869141 -8.33984 0.173828 -16.6797 0.128906 -24.999c-0.0898438 -16.3916 4.0918 -39.0078 -3.40527 -53.9814
c-7.63574 -15.251 -32.5234 -12.3555 -44.917 -6.75879c-21.3398 9.63672 -26.2324 29.707 -31.0596 50.6514c-5.11133 22.165 -8.9082 44.7812 -11.7139 67.3555c-5.55859 44.7188 -7.97949 90.1172 -8.46484 135.151c-0.988281 91.5215 4.06445 182.797 19.8037 273.025
c3.70703 21.2568 29.2744 27.3184 47.9238 27.3184c14.1377 0 50.1699 -6.37695 47.9229 -27.3184zM277.61 90.3857c0.367188 5.10742 0.610352 10.3057 0.717773 15.5352c-25.6084 -8.11426 -50.9121 -17.2305 -75.8066 -27.4463
c-38.8447 -15.9375 -78.1436 -33.5879 -112.682 -57.7266c-25.3662 -17.7266 -71.5791 -63.1807 -27.79 -88.2275c26.4512 -15.1289 67.1338 -7.29883 94.2402 1.82422c33.4316 11.2529 64.4014 32.2012 86.251 60.0879c21.3262 27.2178 32.6104 61.7695 35.0693 95.9531z
M120.495 379.688c-7.43164 -22.248 -14.0566 -44.7441 -20.0557 -67.4014c35.8174 24.832 69.6719 52.3232 101.411 82.8633c24.3564 23.4375 46.6113 48.7441 67.1084 75.6084c20.8477 27.3184 43.373 57.5254 55.0518 90.125
c8.14941 22.748 7.7959 76.1045 -28.4375 73.3926c-31.8398 -2.38184 -63.0352 -40.0996 -81.4863 -63.0869c-44.4277 -55.3438 -71.3262 -124.846 -93.5918 -191.501z" />
    <glyph glyph-name="C" unicode="C" horiz-adv-x="368" 
d="M155.659 341.609c32.6094 43.585 62.8066 89.7734 82.624 140.717c16.1943 41.6328 38.5781 117.9 -4.05664 151.817c-10.4688 8.3291 -17.7959 -0.492188 -25.5215 -8.81445c-6.85547 -7.38574 -12.9893 -15.7217 -18.4746 -24.165
c-11.5234 -17.7305 -21.7354 -36.2334 -30.7646 -55.3467c-20.8818 -44.1982 -36.7285 -90.1309 -49.3477 -137.322c-26.8398 -100.371 -41.7754 -202.871 -40.4053 -306.914c0.558594 -42.3467 2.96484 -92.9951 28.0186 -129.072
c27.0029 -38.8896 73.0674 -34.9922 109.828 -12.5742c41.0947 25.0605 73.2119 66.7695 100.023 105.954c27.502 40.1934 49.75 83.5977 65.1182 129.846c3.96387 11.9287 37.7246 9.14746 33.1787 -5.21191c-19.5918 -61.9043 -51.7373 -118.361 -91.4971 -169.492
c-38.2344 -49.1709 -82.2393 -88.1338 -144.48 -101.543c-54.4834 -11.7344 -109.529 8.19434 -146.29 49.4902c-39.7666 44.6699 -48.4531 105.027 -50.9355 162.791c-2.73926 63.749 2.99609 127.619 14.7441 190.255c11.1621 59.5049 25.8301 119.065 50.5713 174.53
c23.0459 51.6611 56.3906 108.892 103.585 142.008c41.0986 28.8408 108.298 44.4004 139.271 -6.62598c28.6465 -47.1914 10.916 -110.524 -7.6875 -158.007c-20.3721 -51.9873 -51.4355 -98.6582 -84.5166 -143.308c-8.13184 -10.9756 -44.5078 -4.4082 -32.9844 10.9883z
" />
    <glyph glyph-name="D" unicode="D" horiz-adv-x="516" 
d="M275.409 122.309c38.1367 77.8457 57.2061 165.331 66.4512 251.544c7.07715 66.0312 16.9424 141.536 -6.44336 205.431c-9.07812 24.8008 -20.1465 62.0811 -54.2471 53.1904c-32.2627 -8.41211 -56.9805 -40.373 -75.2441 -66.3213
c-40.8281 -58.0068 -67.8164 -126.205 -88.2412 -193.762c-20.4414 -67.623 -31.8184 -137.281 -37.668 -207.577c1.4043 -9.63672 3.05859 -19.2246 3.8252 -28.8857c0.908203 -11.4463 -15.9971 -17.043 -24.6035 -18.4199
c-12.4424 -1.99414 -28.2236 -0.0761719 -37.8467 8.77637c-28.0918 25.8477 -31.0498 71.8115 -36.335 107.275c-5.80176 38.9414 -7.55957 78.5381 -8.35742 117.872c-1.64062 81.0566 4.27148 162.64 15.4648 242.874c2.96094 21.2188 29.7793 27.207 47.7344 27.207
c14.6338 0 49.2441 -6.23145 47.7354 -27.207c-5.66602 -78.7227 -13.0625 -157.171 -15.0635 -236.122c-0.12793 -4.94824 -0.210938 -9.89355 -0.266602 -14.835c7.82617 30.1543 17.168 59.8965 27.9141 89.0039c15.5625 42.1523 33.8262 83.6807 57.7256 121.828
c21.1426 33.751 46.8828 68.9717 82.7588 88.165c70.209 37.5615 140.99 -12.9375 169.688 -77.8555c33.0605 -74.79 30.8486 -158.107 23.6396 -237.836c-5.37793 -59.4736 -15.5244 -119.752 -35.6367 -176.295c43.46 9.64746 86.8467 19.499 129.686 31.0391
c7.46191 2.01074 20.7119 3.0166 26.3916 -3.94336c5.25 -6.43555 0.333008 -13.0869 -6.9209 -15.043c-52.3057 -14.1172 -105.617 -25.5742 -158.922 -37.2432c-5.14941 -12.251 -10.7705 -24.3076 -17.0361 -36.0732
c-34.5381 -64.8418 -87.5205 -120.109 -151.994 -155.573c-65.4209 -35.9873 -154.338 -57.2402 -224.35 -21.4434c-13.0312 6.66113 -29.5264 17.5459 -36.0107 31.2607c-7.44824 15.7568 -0.974609 31.3232 8.62402 44.3857
c20.9375 28.4941 57.3682 46.165 88.5107 60.9375c70.2334 33.3135 144.073 55.2773 219.037 73.6455zM199.201 10.2861c24.3047 26.0732 44.7139 54.6406 61.9033 84.9512c-59.6885 -15.6982 -118.319 -34.6074 -174.408 -60.9375
c-27.8418 -13.0693 -65.8262 -29.3711 -82.1445 -57.2441c-18.8262 -32.1523 36.5352 -42.1875 58.2324 -41.6328c53.1973 1.35938 101.536 37.4473 136.417 74.8633z" />
    <glyph glyph-name="E" unicode="E" horiz-adv-x="420" 
d="M79.9561 255.311c19.0439 20.3965 38.8438 39.4336 59.6943 56.9385c-27.7412 1.75098 -55.3711 7.00781 -80.5078 17.959c-30.252 13.1807 -58.083 34.6279 -69.207 66.835c-10.2715 29.7354 -7.93457 59.7441 1.26465 89.4033
c18.6631 60.1777 69.8105 110.095 120.386 145.045c52.6357 36.376 127.454 71.1562 192.209 48.0127c67.8652 -24.2559 39.7979 -121.287 13.4092 -167.56c-8.12793 -14.252 -51.0986 -9.07129 -42.3184 6.65137c15.9932 28.6357 28.7295 61.6377 30.8828 94.6152
c0.901367 13.7979 0.804688 29.6758 -9.9209 39.9023c-10.1357 9.66406 -25.9824 10.7354 -39.2705 10.0449c-51.4043 -2.66309 -103.392 -38.1338 -138.044 -74.3496c-32.7168 -34.1943 -53.7168 -77.3838 -51.3203 -125.515
c1.01953 -20.5391 6.47461 -42.7559 19.2041 -59.3623c6.26562 -8.17676 14.1787 -15.2715 23.1006 -20.2891c4.70215 -2.64258 18.3477 -7.18848 21.9121 -7.98242c-0.121094 0.0273438 12.1025 -1.7998 16.5029 -2.31348
c2.27832 -0.100586 4.55664 -0.183594 6.83789 -0.235352c12.5254 -0.277344 24.749 0.1875 33.0127 1.05762c28.584 3.00977 54.5117 9.83789 81.917 18.6113c0.149414 -0.145508 0.301758 -0.294922 0.451172 -0.44043c19.6719 6.2627 42.1738 6.64453 60.3789 -4.03223
c17.0195 -9.97949 19.4053 -31.084 0 -40.4639c-14.7129 -7.11523 -29.8457 -13.0518 -45.2832 -17.9443c-52.9229 -24.8945 -98.8584 -67.3389 -139.322 -107.57c-44.6074 -44.3516 -96.4834 -97.1953 -111.252 -160.691
c-6.90039 -29.666 3.68945 -57.8506 28.7363 -75.3896c27.5781 -19.3145 62.7783 -17.0537 94.167 -10.833c116.114 23.0146 213.011 108.579 267.602 211.197c6.04102 11.3564 40.0938 7.79883 33.543 -5.27051c-33.5596 -66.9746 -83.7646 -124.378 -145.7 -166.548
c-57.5703 -39.2021 -124.825 -63.1465 -194.365 -67.7754c-68.4551 -4.55957 -157.49 32.416 -150.239 114.225c6.71289 75.7197 61.8867 140.877 111.54 194.067z" />
    <glyph glyph-name="E" unicode="&#xcb;" horiz-adv-x="420" 
d="M79.9561 255.311c19.0439 20.3965 38.8438 39.4336 59.6943 56.9385c-27.7412 1.75098 -55.3711 7.00781 -80.5078 17.959c-30.252 13.1807 -58.083 34.6279 -69.207 66.835c-10.2715 29.7354 -7.93457 59.7441 1.26465 89.4033
c18.6631 60.1777 69.8105 110.095 120.386 145.045c52.6357 36.376 127.454 71.1562 192.209 48.0127c67.8652 -24.2559 39.7979 -121.287 13.4092 -167.56c-8.12793 -14.252 -51.0986 -9.07129 -42.3184 6.65137c15.9932 28.6357 28.7295 61.6377 30.8828 94.6152
c0.901367 13.7979 0.804688 29.6758 -9.9209 39.9023c-10.1357 9.66406 -25.9824 10.7354 -39.2705 10.0449c-51.4043 -2.66309 -103.392 -38.1338 -138.044 -74.3496c-32.7168 -34.1943 -53.7168 -77.3838 -51.3203 -125.515
c1.01953 -20.5391 6.47461 -42.7559 19.2041 -59.3623c6.26562 -8.17676 14.1787 -15.2715 23.1006 -20.2891c4.70215 -2.64258 18.3477 -7.18848 21.9121 -7.98242c-0.121094 0.0273438 12.1025 -1.7998 16.5029 -2.31348
c2.27832 -0.100586 4.55664 -0.183594 6.83789 -0.235352c12.5254 -0.277344 24.749 0.1875 33.0127 1.05762c28.584 3.00977 54.5117 9.83789 81.917 18.6113c0.149414 -0.145508 0.301758 -0.294922 0.451172 -0.44043c19.6719 6.2627 42.1738 6.64453 60.3789 -4.03223
c17.0195 -9.97949 19.4053 -31.084 0 -40.4639c-14.7129 -7.11523 -29.8457 -13.0518 -45.2832 -17.9443c-52.9229 -24.8945 -98.8584 -67.3389 -139.322 -107.57c-44.6074 -44.3516 -96.4834 -97.1953 -111.252 -160.691
c-6.90039 -29.666 3.68945 -57.8506 28.7363 -75.3896c27.5781 -19.3145 62.7783 -17.0537 94.167 -10.833c116.114 23.0146 213.011 108.579 267.602 211.197c6.04102 11.3564 40.0938 7.79883 33.543 -5.27051c-33.5596 -66.9746 -83.7646 -124.378 -145.7 -166.548
c-57.5703 -39.2021 -124.825 -63.1465 -194.365 -67.7754c-68.4551 -4.55957 -157.49 32.416 -150.239 114.225c6.71289 75.7197 61.8867 140.877 111.54 194.067z" />
    <glyph glyph-name="E" unicode="&#xca;" horiz-adv-x="420" 
d="M79.9561 255.311c19.0439 20.3965 38.8438 39.4336 59.6943 56.9385c-27.7412 1.75098 -55.3711 7.00781 -80.5078 17.959c-30.252 13.1807 -58.083 34.6279 -69.207 66.835c-10.2715 29.7354 -7.93457 59.7441 1.26465 89.4033
c18.6631 60.1777 69.8105 110.095 120.386 145.045c52.6357 36.376 127.454 71.1562 192.209 48.0127c67.8652 -24.2559 39.7979 -121.287 13.4092 -167.56c-8.12793 -14.252 -51.0986 -9.07129 -42.3184 6.65137c15.9932 28.6357 28.7295 61.6377 30.8828 94.6152
c0.901367 13.7979 0.804688 29.6758 -9.9209 39.9023c-10.1357 9.66406 -25.9824 10.7354 -39.2705 10.0449c-51.4043 -2.66309 -103.392 -38.1338 -138.044 -74.3496c-32.7168 -34.1943 -53.7168 -77.3838 -51.3203 -125.515
c1.01953 -20.5391 6.47461 -42.7559 19.2041 -59.3623c6.26562 -8.17676 14.1787 -15.2715 23.1006 -20.2891c4.70215 -2.64258 18.3477 -7.18848 21.9121 -7.98242c-0.121094 0.0273438 12.1025 -1.7998 16.5029 -2.31348
c2.27832 -0.100586 4.55664 -0.183594 6.83789 -0.235352c12.5254 -0.277344 24.749 0.1875 33.0127 1.05762c28.584 3.00977 54.5117 9.83789 81.917 18.6113c0.149414 -0.145508 0.301758 -0.294922 0.451172 -0.44043c19.6719 6.2627 42.1738 6.64453 60.3789 -4.03223
c17.0195 -9.97949 19.4053 -31.084 0 -40.4639c-14.7129 -7.11523 -29.8457 -13.0518 -45.2832 -17.9443c-52.9229 -24.8945 -98.8584 -67.3389 -139.322 -107.57c-44.6074 -44.3516 -96.4834 -97.1953 -111.252 -160.691
c-6.90039 -29.666 3.68945 -57.8506 28.7363 -75.3896c27.5781 -19.3145 62.7783 -17.0537 94.167 -10.833c116.114 23.0146 213.011 108.579 267.602 211.197c6.04102 11.3564 40.0938 7.79883 33.543 -5.27051c-33.5596 -66.9746 -83.7646 -124.378 -145.7 -166.548
c-57.5703 -39.2021 -124.825 -63.1465 -194.365 -67.7754c-68.4551 -4.55957 -157.49 32.416 -150.239 114.225c6.71289 75.7197 61.8867 140.877 111.54 194.067z" />
    <glyph glyph-name="E" unicode="&#xc9;" horiz-adv-x="420" 
d="M79.9561 255.311c19.0439 20.3965 38.8438 39.4336 59.6943 56.9385c-27.7412 1.75098 -55.3711 7.00781 -80.5078 17.959c-30.252 13.1807 -58.083 34.6279 -69.207 66.835c-10.2715 29.7354 -7.93457 59.7441 1.26465 89.4033
c18.6631 60.1777 69.8105 110.095 120.386 145.045c52.6357 36.376 127.454 71.1562 192.209 48.0127c67.8652 -24.2559 39.7979 -121.287 13.4092 -167.56c-8.12793 -14.252 -51.0986 -9.07129 -42.3184 6.65137c15.9932 28.6357 28.7295 61.6377 30.8828 94.6152
c0.901367 13.7979 0.804688 29.6758 -9.9209 39.9023c-10.1357 9.66406 -25.9824 10.7354 -39.2705 10.0449c-51.4043 -2.66309 -103.392 -38.1338 -138.044 -74.3496c-32.7168 -34.1943 -53.7168 -77.3838 -51.3203 -125.515
c1.01953 -20.5391 6.47461 -42.7559 19.2041 -59.3623c6.26562 -8.17676 14.1787 -15.2715 23.1006 -20.2891c4.70215 -2.64258 18.3477 -7.18848 21.9121 -7.98242c-0.121094 0.0273438 12.1025 -1.7998 16.5029 -2.31348
c2.27832 -0.100586 4.55664 -0.183594 6.83789 -0.235352c12.5254 -0.277344 24.749 0.1875 33.0127 1.05762c28.584 3.00977 54.5117 9.83789 81.917 18.6113c0.149414 -0.145508 0.301758 -0.294922 0.451172 -0.44043c19.6719 6.2627 42.1738 6.64453 60.3789 -4.03223
c17.0195 -9.97949 19.4053 -31.084 0 -40.4639c-14.7129 -7.11523 -29.8457 -13.0518 -45.2832 -17.9443c-52.9229 -24.8945 -98.8584 -67.3389 -139.322 -107.57c-44.6074 -44.3516 -96.4834 -97.1953 -111.252 -160.691
c-6.90039 -29.666 3.68945 -57.8506 28.7363 -75.3896c27.5781 -19.3145 62.7783 -17.0537 94.167 -10.833c116.114 23.0146 213.011 108.579 267.602 211.197c6.04102 11.3564 40.0938 7.79883 33.543 -5.27051c-33.5596 -66.9746 -83.7646 -124.378 -145.7 -166.548
c-57.5703 -39.2021 -124.825 -63.1465 -194.365 -67.7754c-68.4551 -4.55957 -157.49 32.416 -150.239 114.225c6.71289 75.7197 61.8867 140.877 111.54 194.067z" />
    <glyph glyph-name="F" unicode="F" horiz-adv-x="538" 
d="M-8.7168 552.071c-1.62598 -13.0215 -33.9717 -12.8613 -33.2715 -0.00683594c2.60449 47.6455 52.1748 64.4639 92.1113 71.1318c53.2285 8.8877 107.736 6.25586 161.461 6.24902c0.960938 0 1.9248 0.00683594 2.88867 0.00683594
c7.70508 2.05957 15.7744 2.89844 22.7031 2.89844c5.31934 0 13.1523 -0.776367 21.1279 -2.66992c41.8584 0.444336 83.7197 1.62695 125.484 4.39062c27.3701 1.81055 54.709 4.51855 81.7842 8.96777c8.52344 1.40137 84.1045 14.1553 73.9268 32.2148
c-7.69141 13.6523 28.6357 16.7666 35.7373 5.61816c12.0879 -18.9746 -18.4482 -35.0195 -32.166 -41.1016c-23.2129 -10.2881 -49.3037 -14.4072 -74.2432 -18.2041c-55.292 -8.41992 -111.604 -10.6943 -167.45 -12.0469
c-4.31348 -0.104492 -8.63086 -0.163086 -12.9482 -0.236328c0.585938 -2.01172 0.838867 -4.17188 0.655273 -6.5127c-6.82422 -86.3379 -16.6797 -172.439 -22.582 -258.843c-3.7207 -54.4805 -5.48535 -108.847 -5.9082 -163.316
c86.1992 5.24609 171.493 21.2012 253.878 47.0703c6.35938 1.99707 18.2012 2.46191 23.0176 -3.44043c4.7334 -5.80176 0.114258 -11.1035 -6.03711 -13.1182c-52.5 -17.1826 -105.981 -30.207 -160.191 -39.2334c8.26367 -2.40332 16.3818 -5.34766 24.2949 -8.97461
c36.9336 -16.9287 68.6484 -48.7129 76.0654 -89.6553c14.4668 -79.877 -56.6514 -139.642 -129.447 -150.062c-40.8174 -5.84277 -85.21 1.26953 -118.514 26.6523c-32.748 24.96 -49.3369 63.2012 -56.5049 102.847c-16.208 89.6455 -15.0391 183.542 -10.1328 274.173
c5.00684 92.4717 14.8896 184.288 28.251 275.899c0.329102 2.27832 0.973633 4.34863 1.77148 6.31445c-19.46 0.0488281 -38.9199 0.0244141 -58.3799 -0.301758c-42.7773 -0.72168 -130.148 1.28223 -137.382 -56.7109zM405.12 76.1514
c-14.7754 65.8887 -85.708 84.1289 -144.613 82.7275c-0.0175781 -13.3574 0.0136719 -26.7217 0.141602 -40.0996c0.326172 -34.2188 -1.18945 -72.0166 7.48633 -105.372c6.00586 -23.0908 19.5781 -52.7354 46.4658 -55.6172
c59.3975 -6.36328 102.115 66.6553 90.5195 118.361z" />
    <glyph glyph-name="G" unicode="G" horiz-adv-x="507" 
d="M237.731 467.904c40.998 17.9033 76.79 46.7588 104.216 81.9971c24.3398 31.2812 65.3105 95.1309 33.627 132.637c-29.7314 35.1963 -83.2617 3.0127 -111.079 -17.71c-34.6631 -25.8164 -64.0371 -59.8828 -88.5781 -95.1904
c-47.958 -68.9922 -93.7969 -149.872 -105.591 -234.14c-2.66016 -19.0166 -2.6709 -37.5273 0.543945 -56.4258c2.52051 -14.8174 4.66309 -29.1182 15.8809 -40.3184c26.4336 -26.3887 70.2402 -6.12012 95.582 11.9326c35.2207 25.0889 62.0469 60.1191 92.6631 90.2148
c25.9658 25.5254 61.1689 59.7861 100.929 50.7568c19.6582 -4.4668 30.7168 -17.8486 40.5479 -34.4209c12.4834 -21.0449 22.0264 -42.3193 28.8477 -65.833c12.2725 -42.3018 17.1484 -85.335 14.6729 -129.114c21.8945 4.25488 43.9629 7.69824 66.1631 10.2715
c6.17969 0.713867 20.7021 0.481445 23.2617 -7.5293c2.52832 -7.91309 -6.5293 -12.4697 -13.208 -13.2568c-26.2363 -3.08594 -52.3652 -7.38965 -78.248 -12.9062c-9.6709 -83.5215 -46.0361 -167.369 -117.154 -215.569
c-38.29 -25.9521 -84.7285 -40.8457 -130.941 -41.8857c-42.1982 -0.946289 -85.3564 10.4209 -105.646 50.3789c-18.8291 37.0791 8.87695 71.7588 36.5938 94.3574c35.0264 28.5596 75.0254 50.7695 115.822 69.9004c31.9717 14.9941 64.7861 27.9912 98.252 38.9561
c1.51562 7.0293 2.88574 13.9922 4.10254 20.8369c8.24609 46.376 10.6143 95.0439 7.98242 142.062c-1.16895 20.8408 1.27246 43.5059 -3.33594 63.9619c-0.402344 1.7998 -1.80371 8.43359 -3.99902 11.0518c0.44043 -2.33398 -9.04395 -7.04297 -9.33887 -7.2373
c-8.73535 -5.78711 -16.8154 -12.6807 -24.5898 -19.6816c-60.0146 -54.0576 -105.261 -131.893 -191.047 -147.345c-43.3662 -7.8125 -91.3379 0.205078 -126.493 27.5264c-32.5996 25.335 -45.5205 61.3643 -45.1631 101.821
c0.381836 43.0088 16.8701 86.7773 34.6523 125.372c18.3887 39.9131 41.8887 77.79 67.2998 113.597c50.6865 71.4229 116.814 134.655 203.537 158.076c39.5342 10.6768 89.6387 13.291 122.588 -15.667c30.751 -27.0234 36.2295 -60.7256 21.8701 -98.4883
c-27.6475 -72.7061 -88.0156 -129.076 -158.814 -158.988c-12.4727 -5.27051 -35.9033 7.4873 -16.4082 16zM247.551 -57.4746c52.6318 37.1074 83.3467 101.589 100.574 164.783c-39.4756 -14.4258 -77.7998 -31.9512 -114.342 -52.75
c-32.1553 -18.2988 -106.744 -59.5918 -89.0312 -106.6c16.3398 -43.3701 75.4629 -24.707 102.799 -5.43359z" />
    <glyph glyph-name="H" unicode="H" horiz-adv-x="522" 
d="M219.114 247.064c-44.5527 -20.1084 -93.5391 -29.3398 -143.494 -23.8926c0.131836 -26.7637 0.728516 -53.5303 1.5293 -80.2939c1.53613 -51.252 9.49414 -105.333 -0.634766 -155.981c-3.97363 -19.8799 -43.1719 -20.1016 -52.042 -4.01465
c-25.9033 46.9697 -32.7207 104.127 -39.1641 156.662c-6.39062 52.0908 -8.83203 104.598 -9.26562 157.06c-0.870117 105.594 10.5039 212.422 33.3936 315.463c4.97949 22.4043 30.1299 28.9375 50.7695 28.9375c11.7314 0 25.6055 -2.41016 35.8975 -8.47461
c5.70801 -3.36328 16.3574 -12.1465 14.8701 -20.4619c-18.5244 -103.447 -30.1064 -207.105 -34.1777 -312.116c-0.731445 -18.8291 -1.08203 -37.665 -1.17188 -56.498c51.3594 -6.5957 100.139 5.77734 143.127 30.2725c-0.134766 42.7041 1.8418 85.377 6.48828 128.036
c8.17676 75.0957 24.8418 149.394 50.2422 220.536c11.4189 31.9824 24.8877 64.6924 48.1904 90.0303c19.8145 21.5449 54.3799 36.6982 81.8682 19.8281c26.4756 -16.2461 32.0303 -54.0264 34.1875 -82.4023c2.66309 -35.041 -3.00684 -69.9736 -9.9834 -104.21
c-12.8682 -63.1494 -34.5234 -124.915 -70.6602 -178.667c-9.92773 -14.7656 -21 -28.7197 -32.9941 -41.7578c0.413086 -56.0928 3.62793 -111.804 8.7041 -167.744c2.84375 -31.3301 6.64453 -62.542 9.70312 -93.8447c2.36816 -24.2559 3.93945 -49.708 11.3291 -73.0732
c6.17578 -19.5264 20.4316 -41.5566 43.5889 -37.042c25.373 4.94531 45.499 29.9678 58.9463 50.375c32.7764 49.7334 55.6455 106.741 68.6943 164.728c3.28027 14.5713 39.4863 12.8096 36.6807 0c-8.52344 -38.9453 -20.6914 -76.8467 -37.541 -113.018
c-14.8447 -31.8711 -32.4326 -65.1602 -56.7305 -90.959c-50.8047 -53.9424 -144.754 -49.3926 -192.153 7.05078c-21.7041 25.8447 -30.0371 56.4951 -37.3955 88.7236c-8.48535 37.1729 -14.1406 75.293 -17.0986 113.322
c-1.90332 24.4883 -3.11035 48.9629 -3.70312 73.4268zM339.322 533.939c-7.29199 -52.2852 -11.4385 -105.354 -12.7773 -158.232c8.22168 12.0947 15.7051 24.6201 22.332 37.4258c25.1055 48.5088 43.3838 102.229 51.9248 156.228
c4.82031 30.4736 6.82129 61.998 1.93848 92.5967c-2.25781 14.1445 -5.59375 29.416 -12.5635 42.0977c-1.02344 1.8623 -2.76758 3.81152 -4.29297 5.75684c-2.4375 -3.6377 -5.75977 -6.81055 -8.15625 -10.4727c-14.3184 -21.8809 -18.6982 -48.3906 -23.5742 -73.5518
c-5.90234 -30.46 -10.5488 -61.1279 -14.8311 -91.8477z" />
    <glyph glyph-name="I" unicode="I" horiz-adv-x="307" 
d="M29.1543 690.025c34.8184 28.9033 85.3936 29.7754 116.73 -5.19238c37.4092 -41.7539 49.7578 -97.7148 56.3916 -151.918c7.19531 -58.7764 6.24902 -117.955 2.83301 -176.981c-6.85547 -118.448 -22.373 -237.121 -18.7012 -355.988
c0.426758 -13.7939 3.2666 -25.6738 6.25586 -38.9102c1.37305 -6.0791 3.41504 -15.2959 11.0332 -17.0332c10.2988 -2.34766 24.4395 14.6816 30.2578 21.4092c9.46289 10.9404 17.4971 23.2822 24.4736 35.9326c26.1318 47.3857 40.0479 100.285 53.7559 152.266
c3.36719 12.7646 39.3721 10.167 35.3701 -5.55859c-14.0234 -55.0869 -28.6328 -110.375 -56.707 -160.254c-24.9502 -44.3271 -62.2861 -85.2666 -118.254 -70.9414c-21.7979 5.5791 -48.0791 20.7637 -61.0518 39.3711
c-15.2441 21.8672 -21.3193 48.7168 -24.7832 74.7793c-7.25391 54.5771 -6.82031 109.241 -2.22949 164.037c6.45312 77.0752 17.4834 153.638 26.3643 230.433c-30.1094 -12.0566 -64.1201 -13.8213 -93.6748 1.42578c-48.2139 24.873 -57.6836 86.7705 -51.5596 135.574
c5.81836 46.3936 26.7627 97.0625 63.4951 127.55zM12.6201 472.72c22.0889 -43.2031 66.4531 -41.3271 101.448 -18.7178c2.58301 24.083 4.88867 48.2002 6.67773 72.373c2.00391 27.0723 3.45996 54.2549 4.60449 81.375
c0.995117 23.6074 4.31055 52.0527 -12.9482 70.8301c-42.0869 45.7969 -86.7188 -32.0312 -99.917 -66.6279c-16.2393 -42.5723 -21.2295 -97.4404 0.134766 -139.232z" />
    <glyph glyph-name="I" unicode="&#xcf;" horiz-adv-x="307" 
d="M29.1543 690.025c34.8184 28.9033 85.3936 29.7754 116.73 -5.19238c37.4092 -41.7539 49.7578 -97.7148 56.3916 -151.918c7.19531 -58.7764 6.24902 -117.955 2.83301 -176.981c-6.85547 -118.448 -22.373 -237.121 -18.7012 -355.988
c0.426758 -13.7939 3.2666 -25.6738 6.25586 -38.9102c1.37305 -6.0791 3.41504 -15.2959 11.0332 -17.0332c10.2988 -2.34766 24.4395 14.6816 30.2578 21.4092c9.46289 10.9404 17.4971 23.2822 24.4736 35.9326c26.1318 47.3857 40.0479 100.285 53.7559 152.266
c3.36719 12.7646 39.3721 10.167 35.3701 -5.55859c-14.0234 -55.0869 -28.6328 -110.375 -56.707 -160.254c-24.9502 -44.3271 -62.2861 -85.2666 -118.254 -70.9414c-21.7979 5.5791 -48.0791 20.7637 -61.0518 39.3711
c-15.2441 21.8672 -21.3193 48.7168 -24.7832 74.7793c-7.25391 54.5771 -6.82031 109.241 -2.22949 164.037c6.45312 77.0752 17.4834 153.638 26.3643 230.433c-30.1094 -12.0566 -64.1201 -13.8213 -93.6748 1.42578c-48.2139 24.873 -57.6836 86.7705 -51.5596 135.574
c5.81836 46.3936 26.7627 97.0625 63.4951 127.55zM12.6201 472.72c22.0889 -43.2031 66.4531 -41.3271 101.448 -18.7178c2.58301 24.083 4.88867 48.2002 6.67773 72.373c2.00391 27.0723 3.45996 54.2549 4.60449 81.375
c0.995117 23.6074 4.31055 52.0527 -12.9482 70.8301c-42.0869 45.7969 -86.7188 -32.0312 -99.917 -66.6279c-16.2393 -42.5723 -21.2295 -97.4404 0.134766 -139.232z" />
    <glyph glyph-name="I" unicode="&#xce;" horiz-adv-x="307" 
d="M29.1543 690.025c34.8184 28.9033 85.3936 29.7754 116.73 -5.19238c37.4092 -41.7539 49.7578 -97.7148 56.3916 -151.918c7.19531 -58.7764 6.24902 -117.955 2.83301 -176.981c-6.85547 -118.448 -22.373 -237.121 -18.7012 -355.988
c0.426758 -13.7939 3.2666 -25.6738 6.25586 -38.9102c1.37305 -6.0791 3.41504 -15.2959 11.0332 -17.0332c10.2988 -2.34766 24.4395 14.6816 30.2578 21.4092c9.46289 10.9404 17.4971 23.2822 24.4736 35.9326c26.1318 47.3857 40.0479 100.285 53.7559 152.266
c3.36719 12.7646 39.3721 10.167 35.3701 -5.55859c-14.0234 -55.0869 -28.6328 -110.375 -56.707 -160.254c-24.9502 -44.3271 -62.2861 -85.2666 -118.254 -70.9414c-21.7979 5.5791 -48.0791 20.7637 -61.0518 39.3711
c-15.2441 21.8672 -21.3193 48.7168 -24.7832 74.7793c-7.25391 54.5771 -6.82031 109.241 -2.22949 164.037c6.45312 77.0752 17.4834 153.638 26.3643 230.433c-30.1094 -12.0566 -64.1201 -13.8213 -93.6748 1.42578c-48.2139 24.873 -57.6836 86.7705 -51.5596 135.574
c5.81836 46.3936 26.7627 97.0625 63.4951 127.55zM12.6201 472.72c22.0889 -43.2031 66.4531 -41.3271 101.448 -18.7178c2.58301 24.083 4.88867 48.2002 6.67773 72.373c2.00391 27.0723 3.45996 54.2549 4.60449 81.375
c0.995117 23.6074 4.31055 52.0527 -12.9482 70.8301c-42.0869 45.7969 -86.7188 -32.0312 -99.917 -66.6279c-16.2393 -42.5723 -21.2295 -97.4404 0.134766 -139.232z" />
    <glyph glyph-name="I" unicode="&#xcd;" horiz-adv-x="307" 
d="M29.1543 690.025c34.8184 28.9033 85.3936 29.7754 116.73 -5.19238c37.4092 -41.7539 49.7578 -97.7148 56.3916 -151.918c7.19531 -58.7764 6.24902 -117.955 2.83301 -176.981c-6.85547 -118.448 -22.373 -237.121 -18.7012 -355.988
c0.426758 -13.7939 3.2666 -25.6738 6.25586 -38.9102c1.37305 -6.0791 3.41504 -15.2959 11.0332 -17.0332c10.2988 -2.34766 24.4395 14.6816 30.2578 21.4092c9.46289 10.9404 17.4971 23.2822 24.4736 35.9326c26.1318 47.3857 40.0479 100.285 53.7559 152.266
c3.36719 12.7646 39.3721 10.167 35.3701 -5.55859c-14.0234 -55.0869 -28.6328 -110.375 -56.707 -160.254c-24.9502 -44.3271 -62.2861 -85.2666 -118.254 -70.9414c-21.7979 5.5791 -48.0791 20.7637 -61.0518 39.3711
c-15.2441 21.8672 -21.3193 48.7168 -24.7832 74.7793c-7.25391 54.5771 -6.82031 109.241 -2.22949 164.037c6.45312 77.0752 17.4834 153.638 26.3643 230.433c-30.1094 -12.0566 -64.1201 -13.8213 -93.6748 1.42578c-48.2139 24.873 -57.6836 86.7705 -51.5596 135.574
c5.81836 46.3936 26.7627 97.0625 63.4951 127.55zM12.6201 472.72c22.0889 -43.2031 66.4531 -41.3271 101.448 -18.7178c2.58301 24.083 4.88867 48.2002 6.67773 72.373c2.00391 27.0723 3.45996 54.2549 4.60449 81.375
c0.995117 23.6074 4.31055 52.0527 -12.9482 70.8301c-42.0869 45.7969 -86.7188 -32.0312 -99.917 -66.6279c-16.2393 -42.5723 -21.2295 -97.4404 0.134766 -139.232z" />
    <glyph glyph-name="J" unicode="J" horiz-adv-x="461" 
d="M406.127 468.255c5.74609 -68.6006 5.55762 -138.423 -1.02051 -206.972c-1.00586 -10.4863 -2.17773 -20.9824 -3.42969 -31.4756c31.1084 -17.9414 62.168 -35.9697 93.3008 -53.8633c18.4414 -10.5967 -14.4697 -21.4023 -25.9375 -14.7822
c-23.6768 13.666 -47.3223 27.3877 -70.9824 41.085c-5.87402 -41.0674 -13.9678 -81.8994 -25.4736 -121.618c-15.7852 -54.4834 -43.0928 -103.634 -95.3848 -130.362c-45.4053 -23.2051 -103.884 -23.3018 -148.151 2.57031
c-43.4951 25.4209 -67.627 71.6064 -76.5215 119.89c-17.4766 94.8955 17.3252 215.16 124.136 236.348c42.0801 8.34668 82.9111 -3.51953 120.768 -21.3643c1.64355 21.7979 2.92285 43.6201 3.81055 65.4248c2.13574 52.4619 2.17383 105.312 0.0898438 157.778
c-1.60547 40.4814 -4.43164 81.4521 -2.78418 121.992c-6.56445 -2.03223 -13.2363 -3.6377 -19.4922 -5.04883c-34.624 -7.80566 -70.5312 -8.97461 -105.897 -8.61719c-37.5166 0.37793 -75.1094 2.76367 -112.612 0.561523
c-16.9395 -0.995117 -39.0801 -0.967773 -53.0684 -11.7803c-13.7559 -10.6357 -16.96 -32.042 0.399414 -40.8086c7.2373 -3.65527 5.62793 -10.2578 0 -14.1729c-6.86621 -4.77148 -17.8242 -3.48145 -24.8672 0c-28.5215 14.0928 -28.4453 47.3789 -4.84082 66.3955
c25.9658 20.9199 66.8672 20.1816 98.4092 20.917c40.7451 0.953125 81.4619 -2.1123 122.207 -1.30762c19.6787 0.388672 39.2783 1.78613 58.6768 5.21582c12.3516 2.18457 31.9434 4.53223 42.7178 13.6865c0.274414 2.9541 0.572266 5.90527 0.908203 8.85254
c0.589844 5.14941 3.4502 9.15137 7.64258 12.0713c2.79102 5.04883 12.0742 7.00098 20.0078 5.94336c13.8115 0.672852 28.4932 -3.9707 32.96 -13.3369c29.8145 -62.543 38.6885 -134.663 44.4307 -203.222zM264.688 54.4551
c14.7549 47.4648 18.25 99.0938 24.3223 148.182c2.40332 19.4219 4.46973 38.9102 6.22754 58.4297c-41.4971 22.5605 -89.1221 42.4229 -133.813 18.0039c-82.8037 -45.2393 -92.8877 -171.368 -57.5176 -249.682c9.5918 -21.2363 23.4453 -39.9717 42.8506 -53.2217
c13.6309 -9.30762 33.8643 -19.3672 50.9844 -15.1162c16.7383 4.15723 33.3066 22.8896 41.9756 36.8711c10.6455 17.165 18.9922 37.3047 24.9707 56.5332z" />
    <glyph glyph-name="K" unicode="K" horiz-adv-x="458" 
d="M88.2148 664.198c-1.44629 -90.5508 -5.10059 -180.782 -4.89258 -271.235c3.15234 9.26562 6.31152 18.5068 9.4082 27.7344c19.0508 56.748 39.5518 113.288 66.5303 166.821c19.9873 39.6631 50.8008 97.9434 99.7256 105.257
c22.3145 3.33203 42.8916 -3.93652 56.0518 -22.332c16.4189 -22.9521 32.3838 -47.167 41.417 -74.0449c6.6582 -19.8076 -38.0879 -22.2285 -45.2451 -7.10938c-10.0078 21.1426 -17.3389 43.3975 -27.0068 64.6992c-4.48047 9.87207 -9.45996 20.2988 -21.7324 16.0127
c-9.80273 -3.42578 -18.6318 -14.6953 -25.2617 -22.251c-29.8906 -34.0664 -49.2988 -77.2041 -67.0078 -118.486c-19.4814 -45.416 -35.6963 -92.1387 -51.4043 -138.966c-0.728516 -2.17383 -1.46387 -4.35156 -2.19922 -6.5293
c32.3672 -10.8223 53.707 -29.2217 72.6025 -57.4932c17.6816 -26.4551 28.5771 -57.9619 39.2676 -87.7529c11.2529 -31.3652 20.4941 -63.2021 28.4492 -95.5586c7.32324 -29.7832 11.2656 -60.1982 18.2949 -90.0303c5.83594 -24.7764 15.5762 -49.0879 33.8164 -67.2617
c19.6377 -19.5645 45.0273 -10.4756 65.1084 4.71289c48.8213 36.9307 62.6084 101.37 90.6719 152.646c6.34961 11.5996 40.832 7.32422 33.9072 -5.3291c-27.9736 -51.1133 -42.1455 -112.706 -87.1523 -152.705c-36.0811 -32.0615 -80.8418 -42.0068 -127.381 -30.168
c-51.2549 13.0381 -88.9619 56.2275 -107.625 104.244c-10.1602 26.1465 -16.0479 53.9609 -23.125 81.0225c-7.54199 28.8477 -15.833 57.5879 -24.585 86.0918c-8.29492 27.0195 -18.3613 53.7764 -25.2344 81.1885c-1.6748 6.68945 -3.56445 13.3164 -5.53418 19.9189
c-4.60547 -15.1221 -8.77734 -30.3594 -12.1514 -45.7832c4.59473 -103.745 14.5195 -207.195 22.502 -310.712c2.15039 -27.8906 -70.0352 -30.3564 -76.2559 -5.88184c-29.0205 114.18 -43.0127 230.817 -49.6357 348.291
c-6.55078 116.242 -7.74707 235.464 8.31152 350.988c5.22949 37.6279 97.9785 38.3496 97.3652 0.000976562z" />
    <glyph glyph-name="L" unicode="L" horiz-adv-x="168" 
d="M-35.2373 -57.1562c13.8877 35.5195 18.8037 73.7812 21.9971 111.676c8.37109 99.2959 0.25293 198.263 -2.71582 297.597c-1.51172 50.6309 -2.5 101.525 -1.35547 152.167c0.59668 26.5205 0.894531 53.083 2.35449 79.5723
c1.45605 26.4307 6.6543 50.3086 12.3965 76.1182c2.85352 12.8271 15.7285 16.7666 27.5771 17.8066c9.12012 0.800781 31.6631 -1.02637 34.8945 -12.9863c8.62012 -31.8887 15.6631 -61.7451 18.5586 -94.7783c2.82617 -32.2285 5.52734 -64.5674 7.43457 -96.8652
c3.78711 -64.1309 7.87207 -128.24 11.9014 -192.357c6.55371 -104.275 14.9248 -218.087 -22.6953 -318.038c-6.95996 -18.4932 -16.3154 -35.54 -27.8594 -50.7285c28.5352 -10.5068 57.2959 -20.3545 86.7744 -27.8164
c44.8086 -11.3428 121.378 -30.2139 148.571 20.6982c6.49512 12.1611 42.4893 7.77441 35.3701 -5.55859c-22.9629 -42.9951 -74.6895 -50.5684 -118.916 -47.2461c-51.1201 3.8418 -100.697 18.2461 -148.717 35.5908c-6.05078 2.18457 -12.0986 4.50098 -18.1426 6.88672
c-15.3477 -15.6602 -33.5498 -28.5771 -54.4355 -37.9707c-39.1113 -17.5918 -94.0352 -20.709 -131.111 4.19531c-34.0244 22.8555 -27.7969 64.8838 5.93945 84.6875c34.7705 20.4141 75.8027 10.1533 112.179 -2.64941zM-111.555 -129.276
c31.3857 -5.45508 55.3711 28.3516 68.1738 53.7383c-12.0088 4.18164 -24.1143 7.88477 -36.376 10.6973c-22.498 5.16309 -51.2031 3.36719 -60.0938 -22.3555c-6.91797 -20.0049 8.76953 -38.6855 28.2959 -42.0801z" />
    <glyph glyph-name="M" unicode="M" horiz-adv-x="686" 
d="M691.132 157.876c4.9375 12.3242 40.2666 8.97852 34.6416 -5.44727c-29.1074 -74.6201 -72.9902 -187.155 -173.583 -158.755c-98.2832 27.748 -94.958 140.516 -89.8115 222.751c6.05078 96.709 26.7695 191.785 39.0342 287.756
c2.82617 22.1338 6.83789 43.8447 6.17188 66.2734c-0.433594 14.5986 2.24023 41.6494 -7.53809 53.7344c-5.69043 7.0293 -7.73242 2.94141 -14.5156 -1.98633c-4.00879 -2.91309 -7.69531 -6.11719 -11.2324 -9.58789
c-7.20898 -7.07422 -13.4336 -15.0049 -18.999 -23.4141c-10.6699 -16.1172 -18.958 -33.7471 -26.9375 -51.3037c-34.4375 -75.7607 -56.4922 -155.606 -80.7031 -234.897c-0.15918 -15.6006 -0.457031 -31.167 -1.00098 -46.6328
c-1.37988 -39.2432 -96.9375 -38.9453 -99.6387 0c-5.53418 79.7803 -1.10938 160.542 -0.977539 240.472c0.0517578 32.3154 1.26855 64.9912 -0.430664 97.2578c-0.769531 14.6299 -1.26855 30.2686 -6.43164 44.1533
c-0.606445 1.63672 -2.21191 6.56055 -3.74805 8.09277c-1.9834 1.98047 -2.95801 3.10742 -3.3916 3.66211c0.391602 -0.759766 0.821289 -2.32031 -1.17578 -3.25c-5.73535 -2.67676 -9.92773 -12.6494 -13.0693 -18.1113
c-15.7988 -27.4502 -23.2266 -59.2451 -31.2061 -89.6152c-9.04004 -34.4092 -16.998 -69.0889 -24.1797 -103.932c-27.5645 -133.768 -42.7734 -269.536 -64.6162 -404.261c-0.301758 -1.86914 -1.22754 -3.4541 -2.56641 -4.77832
c-0.176758 -6.06445 -0.537109 -12.1084 -1.23047 -18.1006c-2.87793 -24.8008 -55.2949 -24.9014 -64.71 -4.99316c-12.4766 26.3857 -18.4893 55.9922 -24.4326 84.4473c-5.53125 26.4824 -10.0117 53.0381 -13.459 79.8711
c-7.13965 55.5898 -11.2803 111.187 -12.7197 167.213c-2.87109 111.794 3.18359 223.788 22.457 334.011c3.89453 22.2656 30.6611 28.6152 50.2012 28.6152c14.748 0 52.6426 -6.69238 50.2012 -28.6152c-12.2236 -109.786 -20.6738 -220.127 -20.0674 -330.658
c0.256836 -46.5391 1.84863 -93.1855 4.35547 -139.697c4.49707 32.124 9.20312 64.2168 14.2275 96.2686c11.8174 75.3594 25.6533 150.434 43.8408 224.537c11.6621 47.5068 28.7295 165.206 100.375 151.918c73.916 -13.708 85.0684 -110.806 92.7979 -170.602
c3.52637 -27.2734 6.02344 -54.8936 7.76465 -82.6348c15.9473 50.7002 34.7383 100.472 57.9961 147.735c15.6846 31.8779 37.8877 67.6465 72.6475 81.2051c37.8633 14.7686 67.3525 -13.1426 85.5928 -43.5195c22.6816 -37.7734 26.5449 -89.3613 27.2285 -132.354
c0.742188 -46.8232 -3.25293 -93.5742 -7.75391 -140.135c-4.53613 -46.9453 -7.65332 -94.0322 -9.81055 -141.147c-2.00781 -43.8691 -9.31738 -89.3193 -4.99707 -133.168c1.24512 -12.6357 7.07422 -35.8555 20.0918 -42.1182
c16.2354 -7.8125 37.6309 17.6396 45.998 28.0908c27.1729 33.9414 43.3008 75.6914 59.3105 115.649z" />
    <glyph glyph-name="N" unicode="N" horiz-adv-x="476" 
d="M98.9062 630.09c-4.0918 -105.648 -12.248 -211.103 -16.2744 -316.793c-1.06836 -28.1846 -2.00488 -56.3975 -2.69141 -84.6172c12.5879 55.8643 27.3467 111.222 44.9697 165.792c15.8545 49.0947 33.8789 97.5273 54.5215 144.815
c15.2441 34.9189 36.0469 92.5273 80.4121 97.0732c45.6797 4.68164 80.3184 -33.5977 94.2725 -72.668c18.1084 -50.7109 17.207 -102.334 15.7822 -155.444c-2.99219 -111.471 -6.21387 -222.47 -5.32227 -333.996c0.163086 -20.6221 -1.4873 -47.3955 11.9736 -64.7402
c1.34863 -1.7334 6.83105 -5.58203 5 -5.87988c8.22559 -0.499023 18.5352 7.10156 23.9238 11.3945c38.1064 30.3486 60.5488 84.7246 72.9287 130.418c3.60254 13.3018 40.8516 10.6035 36.833 -5.78809c-12.5078 -50.9922 -36.5664 -103.877 -74.0137 -141.588
c-16.8633 -16.9814 -33.1992 -29.3994 -57.7256 -32.5762c-30.0576 -3.89062 -61.0791 5.64551 -83.8828 25.5322c-38.8135 33.8584 -42.0693 88.9453 -44.6494 136.841c-2.94043 54.6084 -0.905273 109.678 3.31152 164.168
c4.19922 54.2031 10.708 108.087 16.0342 162.175c2.56641 26.0557 3.67578 52.0596 5.48242 78.1396c1.50195 21.6377 2.89941 46.2061 -1.77148 67.6152c-1.60547 7.3584 -4.43848 17.7402 -15.0322 15.2402c-3.86328 -0.912109 -8.90527 -8.04492 -11.2803 -11.0098
c-7.86133 -9.81738 -14.2695 -21.042 -20.1816 -32.1104c-10.6836 -19.998 -19.5713 -40.9668 -28.3066 -61.8701c-19.9043 -47.6318 -37.3086 -96.2969 -52.5801 -145.606c-30.7129 -99.1709 -53.0518 -200.78 -70.3867 -303.09
c0.634766 -19.4775 0.00683594 -38.5908 -12.7158 -54.5215c-10.2744 -12.8652 -36.3408 -8.83203 -47.3926 0c-21.8008 17.4287 -25.2822 48.9258 -29.6377 75.0723c-4.11621 24.7314 -6.5127 49.4346 -8.06934 74.4463c-3.24902 52.2334 -2.60449 104.501 -1.72363 156.8
c1.7793 105.597 5.42773 211.915 18.5527 316.776c2.77441 22.1621 31.3447 28.3965 49.8203 28.3965c15.8125 0 50.6729 -6.41504 49.8193 -28.3965z" />
    <glyph glyph-name="O" unicode="O" horiz-adv-x="456" 
d="M360.517 446.412c9.30371 -89.4551 5.58691 -180.436 -8.10645 -269.291c-0.908203 -5.8916 -1.84766 -11.832 -2.8252 -17.7891c42.3643 12.334 83.5215 29.9395 123.979 46.4521c13.3535 5.45117 38.4385 -7.93359 17.5566 -17.1191
c-47.1357 -20.7334 -95.7178 -40.6797 -145.742 -53.1768c-12.1748 -63.8184 -32.9424 -127.106 -89.0938 -165.591c-64.8174 -44.4238 -153.627 -30.4316 -205.673 27.0547c-59.8623 66.125 -47.5898 163.202 -46.6396 245.167
c0.0585938 4.99316 1.82324 9.29004 4.77051 12.9385c-38.0371 66.541 -45.2676 148.88 -30.8418 223.167c14.1406 72.8174 49.2891 150.919 108.215 198.495c55.2363 44.5977 143.01 57.5908 195.729 1.51855c26.5898 -28.2852 39.8223 -65.5693 50.9463 -101.977
c13.0518 -42.7148 23.0977 -85.3457 27.7266 -129.85zM261.041 54.2139c9.18555 22.3486 14.9795 46.0635 19.6465 69.8936c-21.8115 -2.09766 -43.8828 -2.35449 -66.2178 -0.204102c-41.9375 4.03613 -82.3906 18.0381 -117.719 40.165
c-2.38184 -53.79 -2.49316 -108.069 26.7949 -154.4c15.5 -24.5195 40.8623 -42.7979 70.0254 -31.3545c32.8662 12.8965 54.5459 44.4521 67.4697 75.9004zM257.358 143.363c9.16895 0.319336 18.2598 1.07617 27.2969 2.18262
c0.499023 2.84668 1.00195 5.69043 1.49121 8.52734c6.43555 37.3154 12.084 74.8115 15.9502 112.487c7.92383 77.2588 7.87891 154.566 3.50586 232.017c-2.09766 37.166 -6.81055 73.2783 -20.0322 108.271c-11.4951 30.4219 -27.623 63.3232 -57.4795 79.3955
c-67.4697 36.3203 -134.517 -33.6396 -166.284 -85.8311c-58.1592 -95.5576 -75.8994 -230.144 -22.4766 -331.243c26.5654 3.60645 58.5234 -5.40918 59.3486 -27.0508c0.56543 -14.9004 0.194336 -30.1963 -0.443359 -45.6758
c44.5732 -36.8193 100.541 -55.1211 159.123 -53.0791z" />
    <glyph glyph-name="O" unicode="&#xd6;" horiz-adv-x="456" 
d="M360.517 446.412c9.30371 -89.4551 5.58691 -180.436 -8.10645 -269.291c-0.908203 -5.8916 -1.84766 -11.832 -2.8252 -17.7891c42.3643 12.334 83.5215 29.9395 123.979 46.4521c13.3535 5.45117 38.4385 -7.93359 17.5566 -17.1191
c-47.1357 -20.7334 -95.7178 -40.6797 -145.742 -53.1768c-12.1748 -63.8184 -32.9424 -127.106 -89.0938 -165.591c-64.8174 -44.4238 -153.627 -30.4316 -205.673 27.0547c-59.8623 66.125 -47.5898 163.202 -46.6396 245.167
c0.0585938 4.99316 1.82324 9.29004 4.77051 12.9385c-38.0371 66.541 -45.2676 148.88 -30.8418 223.167c14.1406 72.8174 49.2891 150.919 108.215 198.495c55.2363 44.5977 143.01 57.5908 195.729 1.51855c26.5898 -28.2852 39.8223 -65.5693 50.9463 -101.977
c13.0518 -42.7148 23.0977 -85.3457 27.7266 -129.85zM261.041 54.2139c9.18555 22.3486 14.9795 46.0635 19.6465 69.8936c-21.8115 -2.09766 -43.8828 -2.35449 -66.2178 -0.204102c-41.9375 4.03613 -82.3906 18.0381 -117.719 40.165
c-2.38184 -53.79 -2.49316 -108.069 26.7949 -154.4c15.5 -24.5195 40.8623 -42.7979 70.0254 -31.3545c32.8662 12.8965 54.5459 44.4521 67.4697 75.9004zM257.358 143.363c9.16895 0.319336 18.2598 1.07617 27.2969 2.18262
c0.499023 2.84668 1.00195 5.69043 1.49121 8.52734c6.43555 37.3154 12.084 74.8115 15.9502 112.487c7.92383 77.2588 7.87891 154.566 3.50586 232.017c-2.09766 37.166 -6.81055 73.2783 -20.0322 108.271c-11.4951 30.4219 -27.623 63.3232 -57.4795 79.3955
c-67.4697 36.3203 -134.517 -33.6396 -166.284 -85.8311c-58.1592 -95.5576 -75.8994 -230.144 -22.4766 -331.243c26.5654 3.60645 58.5234 -5.40918 59.3486 -27.0508c0.56543 -14.9004 0.194336 -30.1963 -0.443359 -45.6758
c44.5732 -36.8193 100.541 -55.1211 159.123 -53.0791z" />
    <glyph glyph-name="O" unicode="&#xd5;" horiz-adv-x="456" 
d="M360.517 446.412c9.30371 -89.4551 5.58691 -180.436 -8.10645 -269.291c-0.908203 -5.8916 -1.84766 -11.832 -2.8252 -17.7891c42.3643 12.334 83.5215 29.9395 123.979 46.4521c13.3535 5.45117 38.4385 -7.93359 17.5566 -17.1191
c-47.1357 -20.7334 -95.7178 -40.6797 -145.742 -53.1768c-12.1748 -63.8184 -32.9424 -127.106 -89.0938 -165.591c-64.8174 -44.4238 -153.627 -30.4316 -205.673 27.0547c-59.8623 66.125 -47.5898 163.202 -46.6396 245.167
c0.0585938 4.99316 1.82324 9.29004 4.77051 12.9385c-38.0371 66.541 -45.2676 148.88 -30.8418 223.167c14.1406 72.8174 49.2891 150.919 108.215 198.495c55.2363 44.5977 143.01 57.5908 195.729 1.51855c26.5898 -28.2852 39.8223 -65.5693 50.9463 -101.977
c13.0518 -42.7148 23.0977 -85.3457 27.7266 -129.85zM261.041 54.2139c9.18555 22.3486 14.9795 46.0635 19.6465 69.8936c-21.8115 -2.09766 -43.8828 -2.35449 -66.2178 -0.204102c-41.9375 4.03613 -82.3906 18.0381 -117.719 40.165
c-2.38184 -53.79 -2.49316 -108.069 26.7949 -154.4c15.5 -24.5195 40.8623 -42.7979 70.0254 -31.3545c32.8662 12.8965 54.5459 44.4521 67.4697 75.9004zM257.358 143.363c9.16895 0.319336 18.2598 1.07617 27.2969 2.18262
c0.499023 2.84668 1.00195 5.69043 1.49121 8.52734c6.43555 37.3154 12.084 74.8115 15.9502 112.487c7.92383 77.2588 7.87891 154.566 3.50586 232.017c-2.09766 37.166 -6.81055 73.2783 -20.0322 108.271c-11.4951 30.4219 -27.623 63.3232 -57.4795 79.3955
c-67.4697 36.3203 -134.517 -33.6396 -166.284 -85.8311c-58.1592 -95.5576 -75.8994 -230.144 -22.4766 -331.243c26.5654 3.60645 58.5234 -5.40918 59.3486 -27.0508c0.56543 -14.9004 0.194336 -30.1963 -0.443359 -45.6758
c44.5732 -36.8193 100.541 -55.1211 159.123 -53.0791z" />
    <glyph glyph-name="O" unicode="&#xd4;" horiz-adv-x="456" 
d="M360.517 446.412c9.30371 -89.4551 5.58691 -180.436 -8.10645 -269.291c-0.908203 -5.8916 -1.84766 -11.832 -2.8252 -17.7891c42.3643 12.334 83.5215 29.9395 123.979 46.4521c13.3535 5.45117 38.4385 -7.93359 17.5566 -17.1191
c-47.1357 -20.7334 -95.7178 -40.6797 -145.742 -53.1768c-12.1748 -63.8184 -32.9424 -127.106 -89.0938 -165.591c-64.8174 -44.4238 -153.627 -30.4316 -205.673 27.0547c-59.8623 66.125 -47.5898 163.202 -46.6396 245.167
c0.0585938 4.99316 1.82324 9.29004 4.77051 12.9385c-38.0371 66.541 -45.2676 148.88 -30.8418 223.167c14.1406 72.8174 49.2891 150.919 108.215 198.495c55.2363 44.5977 143.01 57.5908 195.729 1.51855c26.5898 -28.2852 39.8223 -65.5693 50.9463 -101.977
c13.0518 -42.7148 23.0977 -85.3457 27.7266 -129.85zM261.041 54.2139c9.18555 22.3486 14.9795 46.0635 19.6465 69.8936c-21.8115 -2.09766 -43.8828 -2.35449 -66.2178 -0.204102c-41.9375 4.03613 -82.3906 18.0381 -117.719 40.165
c-2.38184 -53.79 -2.49316 -108.069 26.7949 -154.4c15.5 -24.5195 40.8623 -42.7979 70.0254 -31.3545c32.8662 12.8965 54.5459 44.4521 67.4697 75.9004zM257.358 143.363c9.16895 0.319336 18.2598 1.07617 27.2969 2.18262
c0.499023 2.84668 1.00195 5.69043 1.49121 8.52734c6.43555 37.3154 12.084 74.8115 15.9502 112.487c7.92383 77.2588 7.87891 154.566 3.50586 232.017c-2.09766 37.166 -6.81055 73.2783 -20.0322 108.271c-11.4951 30.4219 -27.623 63.3232 -57.4795 79.3955
c-67.4697 36.3203 -134.517 -33.6396 -166.284 -85.8311c-58.1592 -95.5576 -75.8994 -230.144 -22.4766 -331.243c26.5654 3.60645 58.5234 -5.40918 59.3486 -27.0508c0.56543 -14.9004 0.194336 -30.1963 -0.443359 -45.6758
c44.5732 -36.8193 100.541 -55.1211 159.123 -53.0791z" />
    <glyph glyph-name="O" unicode="&#xd3;" horiz-adv-x="456" 
d="M360.517 446.412c9.30371 -89.4551 5.58691 -180.436 -8.10645 -269.291c-0.908203 -5.8916 -1.84766 -11.832 -2.8252 -17.7891c42.3643 12.334 83.5215 29.9395 123.979 46.4521c13.3535 5.45117 38.4385 -7.93359 17.5566 -17.1191
c-47.1357 -20.7334 -95.7178 -40.6797 -145.742 -53.1768c-12.1748 -63.8184 -32.9424 -127.106 -89.0938 -165.591c-64.8174 -44.4238 -153.627 -30.4316 -205.673 27.0547c-59.8623 66.125 -47.5898 163.202 -46.6396 245.167
c0.0585938 4.99316 1.82324 9.29004 4.77051 12.9385c-38.0371 66.541 -45.2676 148.88 -30.8418 223.167c14.1406 72.8174 49.2891 150.919 108.215 198.495c55.2363 44.5977 143.01 57.5908 195.729 1.51855c26.5898 -28.2852 39.8223 -65.5693 50.9463 -101.977
c13.0518 -42.7148 23.0977 -85.3457 27.7266 -129.85zM261.041 54.2139c9.18555 22.3486 14.9795 46.0635 19.6465 69.8936c-21.8115 -2.09766 -43.8828 -2.35449 -66.2178 -0.204102c-41.9375 4.03613 -82.3906 18.0381 -117.719 40.165
c-2.38184 -53.79 -2.49316 -108.069 26.7949 -154.4c15.5 -24.5195 40.8623 -42.7979 70.0254 -31.3545c32.8662 12.8965 54.5459 44.4521 67.4697 75.9004zM257.358 143.363c9.16895 0.319336 18.2598 1.07617 27.2969 2.18262
c0.499023 2.84668 1.00195 5.69043 1.49121 8.52734c6.43555 37.3154 12.084 74.8115 15.9502 112.487c7.92383 77.2588 7.87891 154.566 3.50586 232.017c-2.09766 37.166 -6.81055 73.2783 -20.0322 108.271c-11.4951 30.4219 -27.623 63.3232 -57.4795 79.3955
c-67.4697 36.3203 -134.517 -33.6396 -166.284 -85.8311c-58.1592 -95.5576 -75.8994 -230.144 -22.4766 -331.243c26.5654 3.60645 58.5234 -5.40918 59.3486 -27.0508c0.56543 -14.9004 0.194336 -30.1963 -0.443359 -45.6758
c44.5732 -36.8193 100.541 -55.1211 159.123 -53.0791z" />
    <glyph glyph-name="P" unicode="P" horiz-adv-x="444" 
d="M423.193 411.323c-0.0175781 -70.5078 -3.98047 -142.464 -23.8428 -210.481c-3.40137 -11.6445 -7.40625 -23.3613 -12.0283 -34.9395c25.3555 2.69043 50.6455 5.89844 75.6924 10.9229c16.5371 3.31836 30.543 -13.9785 8.84277 -18.2852
c-30.8174 -6.11328 -61.9814 -9.49805 -93.1865 -12.5459c-21.8496 -46.2275 -54.4971 -88.0371 -100.488 -110.806c-32.1377 -15.9092 -70.4141 -26.1768 -105.968 -17.0635c-26.3643 6.75488 -55.8389 19.29 -54.6943 51.3691
c0.957031 26.8848 26.1533 42.3926 48.083 52.501c29.5205 13.6074 60.8994 22.3213 92.7881 28.2822c5.15625 0.963867 10.3232 1.83398 15.4932 2.66602c22.4326 51.959 36.5391 106.456 44.6289 162.428c8.74512 60.4961 16.7832 122.002 18.4473 183.157
c0.755859 27.8066 9.27539 169.158 -51.6514 135.449c-48.415 -26.7871 -75.5732 -90.8516 -95.6963 -139.409c-22.4668 -54.2061 -37.8877 -111.065 -49.0254 -168.604c-20.9551 -108.25 -29.9951 -219.021 -37.4922 -329.084
c1.99414 -23.1709 3.63477 -46.3691 4.4707 -69.6338c0.516602 -14.4189 -20.6465 -19.2109 -31.1953 -20.1406c-14.5781 -1.2832 -30.7578 2.11816 -39.4756 14.6885c-17.5605 25.3242 -22.9004 64.1689 -28.6562 93.9453
c-5.96777 30.8652 -11.0586 61.7725 -14.9355 92.9678c-7.86133 63.2676 -12.5596 126.667 -13.8457 190.406c-2.59375 128.602 5.55859 257.126 30.4775 383.411c4.34863 22.0469 30.0166 28.3965 49.8203 28.3965c14.3105 0 52.6699 -6.72363 49.8193 -28.3965
c-16.5654 -125.928 -27.7383 -252.969 -26.4062 -380.062c0.339844 -32.3389 1.29004 -64.7236 2.84375 -97.0771c0.405273 3.43262 0.779297 6.86523 1.19531 10.2979c9.17578 75.5527 22.0342 151.085 44.9033 223.819c19.4746 61.9326 45.4746 128.935 89.3096 178.02
c19.9941 22.3867 46.0225 41.8574 77.1172 43.0889c29.707 1.17578 58.832 -15.8604 76.9092 -38.7188c21.9746 -27.7861 29.9639 -62.6357 36.8467 -96.6533c7.50098 -37.0693 10.9102 -76.1182 10.8994 -113.916zM174.377 49.9434
c21.2705 1.19629 41.5752 18.1504 55.6191 32.4473c14.082 14.332 24.9912 31.4863 34.083 49.4561c-27.8975 -5.26758 -55.8086 -12.8135 -81.2061 -25.377c-11.0654 -5.47168 -23.168 -12.8506 -28.5146 -24.5088c-6.31836 -13.7705 4.28906 -32.9014 20.0186 -32.0176z
" />
    <glyph glyph-name="Q" unicode="Q" horiz-adv-x="456" 
d="M-22.0996 478.221c14.1406 72.8203 49.2871 150.92 108.216 198.496c55.2363 44.5977 143.01 57.5908 195.729 1.51855c26.5898 -28.2852 39.8223 -65.5693 50.9463 -101.977c13.0518 -42.7148 23.0977 -85.3457 27.7266 -129.85
c9.30762 -89.458 5.58984 -180.436 -8.10742 -269.287c-0.908203 -5.8916 -1.84766 -11.832 -2.8252 -17.7891c42.3643 12.334 83.5215 29.9424 123.979 46.4521c13.3535 5.45117 38.4385 -7.93359 17.5566 -17.1191c-47.1357 -20.7334 -95.7178 -40.6797 -145.742 -53.1768
c-12.1748 -63.8184 -32.9424 -127.106 -89.0938 -165.591c-14.2764 -9.78613 -29.7139 -16.7285 -45.665 -21.0039c7.58008 -32.7275 16.4746 -65.1465 26.7803 -97.2051c5.0459 -15.6914 -32.0791 -18.6211 -36.1016 -5.67285
c-10.0146 32.2383 -18.666 64.8447 -26.0176 97.7422c-46.0332 -1.33887 -92.4131 17.5596 -124.669 53.1895c-59.8623 66.125 -47.5898 163.202 -46.6396 245.167c0.0585938 4.99316 1.82324 9.29004 4.77051 12.9385c-38.0371 66.541 -45.2676 148.88 -30.8418 223.167z
M261.046 54.2148c9.18262 22.3486 14.9766 46.0645 19.6475 69.8945c-21.8115 -2.09766 -43.8828 -2.35449 -66.2178 -0.204102c-41.9375 4.03613 -82.3945 18.0381 -117.72 40.165c-2.38184 -53.79 -2.49316 -108.069 26.7949 -154.4
c10.875 -17.1992 26.6074 -31.2812 45.0938 -34.2354c-3.57129 18.2188 -6.78906 36.5107 -9.5459 54.8965c-1.96289 13.0869 33.2822 14.1104 35.543 0c2.54492 -15.8955 5.42285 -31.7148 8.5957 -47.4688c27.498 14.8203 46.1992 43.1055 57.8086 71.3525z
M228.093 686.243c-67.4697 36.3232 -134.518 -33.6377 -166.285 -85.833c-58.1592 -95.5576 -75.8994 -230.144 -22.4766 -331.243c26.5693 3.60645 58.5234 -5.40918 59.3486 -27.0508c0.56543 -14.9004 0.194336 -30.1963 -0.443359 -45.6758
c44.5732 -36.8193 100.541 -55.1221 159.123 -53.0801c9.16895 0.319336 18.2646 1.0791 27.2979 2.18555c0.499023 2.84668 1.00195 5.69043 1.49121 8.52734c6.43945 37.3154 12.085 74.8115 15.9512 112.487c7.92383 77.2588 7.87891 154.566 3.50586 232.017
c-2.09473 37.166 -6.81055 73.2783 -20.0322 108.271c-11.4922 30.4219 -27.624 63.3232 -57.4805 79.3955z" />
    <glyph glyph-name="R" unicode="R" horiz-adv-x="447" 
d="M9.93652 682.521c4.34863 22.0508 30.0156 28.3955 49.8154 28.3818c14.3105 0 52.6699 -6.72363 49.8193 -28.3965c-16.5654 -125.928 -27.7383 -252.969 -26.4062 -380.062c0.655273 -62.3828 3.5332 -124.929 8.7627 -187.093
c0.111328 -1.32129 0.239258 -2.64258 0.353516 -3.96387c2.94727 20.6953 6.03711 41.373 9.30371 62.0225c-5.77734 6.73047 -7.77832 15.4688 0.803711 23.1738c1.13086 1.01562 2.28906 1.98633 3.42676 2.99219c6.81738 41.4414 14.1758 82.8037 22.1025 124.068
c10.126 52.7148 20.8135 105.43 35.4434 157.108c13.3398 47.1221 29.0654 95.3643 54.917 137.274c23.0117 37.3086 56.2939 73.459 103.461 73.4697c47.8047 0.0107422 73.0527 -39.6865 81.0215 -82.5332c15.6465 -84.1182 -8.54395 -175.313 -47.0107 -250.007
c-20.2061 -39.2334 -47.666 -75.71 -77.4951 -108.122c-27.752 -30.1543 -60.3896 -59.6748 -97.0117 -79.0967c32.2461 -16.5996 57.0918 -42.6592 73.9062 -77.3877c11.7314 -24.2217 19.3633 -50.5967 25.6504 -76.7051
c3.85254 -15.9932 2.90918 -42.5938 17.8652 -53.2529c15.1709 -10.8125 35.2969 0.183594 48.335 9.93066c18.2227 13.624 32.2246 32.8242 43.1514 52.5342c24.3633 43.9453 35.9316 93.6162 60.7461 137.396c6.42578 11.3359 40.4951 7.1748 33.543 -5.27051
c-27.4951 -49.2197 -38.6885 -105.923 -69.249 -153.572c-25.7783 -40.1934 -63.7178 -69.3184 -111.922 -74.9355c-26.4404 -3.0791 -53.4258 0.4375 -76.1387 15.4355c-28.0879 18.5488 -39.7324 48.9639 -49.2578 79.9023
c-8.19434 26.6172 -13.2324 53.6338 -17.3379 81.1084c-1.60156 10.7119 -3.72363 21.0146 -7.44141 31.1953c-3.25293 8.91211 -5.97461 15.9062 -11.0273 21.2295c-2.19531 -0.09375 -4.39355 -0.0800781 -6.58496 0.0380859
c-10.8506 -68.1846 -20.4385 -136.587 -29.2568 -205.038c0.541016 -9.02637 1.0127 -18.0596 1.33887 -27.1035c0.520508 -14.4189 -20.6465 -19.2109 -31.1953 -20.1406c-14.5742 -1.2832 -30.7539 2.11816 -39.4717 14.6885
c-17.5605 25.3242 -22.9004 64.1689 -28.6562 93.9453c-5.96777 30.8652 -11.0586 61.7725 -14.9355 92.9678c-7.86133 63.2676 -12.5596 126.667 -13.8457 190.406c-2.59375 128.602 5.55859 257.126 30.4775 383.411zM149.64 244.015
c-0.53418 -3.03809 -1.04297 -6.08008 -1.57324 -9.11426c18.1016 14.8174 36.0117 29.8496 52.4551 46.8965c29.7627 30.8584 54.9863 65.251 77.0332 101.97c39.75 66.2012 66.5859 142.271 75.8721 219.023c2.69043 22.2246 3.4668 50.9502 -19.2188 63.7598
c-19.6855 11.1172 -40.9316 -6.27344 -54.1777 -20.0049c-30.5879 -31.708 -48.4883 -74.2246 -63.1807 -115.087c-33.2754 -92.5615 -50.1523 -190.859 -67.21 -287.443z" />
    <glyph glyph-name="S" unicode="S" horiz-adv-x="440" 
d="M-35.9424 507.415c-3.78711 147.732 180.592 222.142 302.982 172.686c53.0547 -21.4404 99.1289 -66.5957 109.83 -124.294c12.0674 -65.0566 -30.9873 -122.997 -75.7793 -164.907c-9.53223 -8.92188 -44.6045 -1.60547 -31.6738 10.5518
c55.9473 52.6006 98.1836 127.526 50.9717 200.246c-42.9082 66.0898 -131.08 87.2773 -202.091 57.3271c-31.6182 -13.3369 -59.4355 -35.6621 -72.2246 -68.2754c-13.0869 -33.373 -9.44629 -71.9922 3.7207 -104.717c28.1611 -69.998 91.7891 -124.187 147.598 -172.199
c46.2061 -39.7529 92.4922 -78.6357 132.564 -124.152c45.3877 17.248 94.7041 21.9365 141.732 3.7627c22.0303 -8.5127 -4.32715 -22.7129 -18.1318 -17.6816c-35.5918 12.9756 -72.7715 8.68945 -107.674 -5.01074c3.87695 -4.80664 7.70508 -9.66504 11.4297 -14.6338
c40.5127 -54.0713 81.0322 -131.934 52.6289 -199.841c-11.7031 -27.9873 -32.9873 -55.1875 -60.791 -68.1699c-29.5586 -13.8008 -65.0293 -16.124 -96.9111 -10.5166c-64.8691 11.4121 -107.171 63.9639 -98.3945 130.438
c8.12109 61.5234 55.4023 107.83 104.054 142.281c-8.79395 9.14062 -17.7852 18.0771 -26.9639 26.7461c-54.21 51.207 -115.327 94.3721 -169.415 145.655c-51.498 48.8242 -95.5752 111.162 -97.4619 184.704zM306.312 94.6406
c-9.48047 12.1611 -19.4463 24.0107 -29.7695 35.5576c-14.7412 -11.502 -28.2578 -23.9678 -40.0518 -36.4619c-25.3135 -26.8184 -44.6592 -60.3193 -46.1504 -97.8809c-1.39062 -35.1064 12.251 -71.5967 44.7529 -88.6055
c28.8994 -15.1221 72.0264 -16.1348 99.542 2.63574c29.3711 20.0361 29.9502 53.6582 23.9893 85.5498c-6.91406 37.0029 -29.582 70.0527 -52.3125 99.2051z" />
    <glyph glyph-name="T" unicode="T" horiz-adv-x="486" 
d="M-16.6709 599.807c-24.0234 4.96582 -33.3271 25.7207 -20.6699 47.2549c12.9521 22.0127 34.8711 37.3643 57.7852 47.5352c54.376 24.1387 118.888 24.6172 177.238 22.3906c68.9473 -2.62891 135.987 -16.2461 204.324 -23.9199
c33.3965 -3.75195 68.4297 -4.65332 100.509 6.87012c13.624 4.89258 28.8779 12.0391 36.2988 25.2578c3.15918 5.625 4.74707 11.8213 3.50879 18.2402c-0.547852 2.83984 -4.31738 14.1826 -8.50977 14.127c-5.69434 -0.0732422 -17.9629 2.34766 -17.9629 10.2363
c0 8.125 12.0332 9.9834 17.9629 10.2363c19.6543 0.845703 38.0361 -9.58105 43.5186 -29.1904c5.87793 -21.0312 -7.94727 -39.5312 -24.5293 -51.0303c-38.7402 -26.8643 -91.6006 -29.9121 -137.041 -26.6348c-40.9844 2.9541 -81.4795 10.4717 -122.155 16.3975
c0.350586 -1.49805 0.607422 -3.04102 0.638672 -4.68848c1.67188 -85.5361 -0.883789 -170.906 -2.06934 -256.442c-1.05078 -75.6709 -2.66699 -151.432 -1.75879 -227.106c0.863281 -71.7979 -2.69824 -147.025 13.0137 -217.571
c5.20801 -23.3857 17.04 -74.4854 51.3242 -57.8926c27.6094 13.3643 41.6465 51.9414 53.8496 77.8027c29.7002 62.9443 52.542 128.871 68.8086 196.521c2.66699 11.0996 36.0605 8.70996 33.418 -2.57715c-19.4531 -83.0918 -46.8789 -169.609 -90.4775 -243.512
c-15.1709 -25.7129 -36.3447 -47.2266 -67.1895 -51.3223c-32.1172 -4.26562 -72.4043 13.0869 -94.9092 35.5957c-28.0391 28.043 -42.3711 69.0859 -51.3594 106.783c-9.80957 41.1328 -14.1064 83.0459 -17.3838 125.146
c-6.57812 84.5625 -6.1377 169.95 -5.74219 254.71c0.40918 87.083 2.28516 173.691 15.7676 259.866c0.829102 5.29883 3.45801 9.83105 7.28613 13.6318c-39.1602 2.29199 -78.7881 1.87598 -117.161 -4.3418c-22.4912 -3.64453 -44.8994 -9.97266 -64.3184 -22.21
c-9.57812 -6.03711 -18.376 -13.5273 -25.5713 -22.2969c-3.49512 -4.26172 -7.19141 -9.32422 -8.87305 -14.668c-0.53418 -1.70605 -2.08398 -14.6123 1.07129 -15.3301c21.1143 -4.80664 7.46191 -21.1982 -8.6416 -17.8691z" />
    <glyph glyph-name="U" unicode="U" horiz-adv-x="586" 
d="M462.729 438.437c-5.66309 -66.9395 -9.41309 -133.836 -12.0312 -200.963c-2.50684 -64.1133 -5.78027 -129.475 0.149414 -193.494c2.12598 -22.9658 7.53223 -50.6582 25.1475 -67.0947c23.0078 -21.4609 47.3477 6.5752 58.8047 26.6455
c30.4355 53.3154 46.5879 119.101 57.0225 179.053c2.28516 13.1318 35.0371 12.2959 33.2686 0c-6.0166 -41.7783 -15.2998 -83.1475 -28.9521 -123.115c-10.5273 -30.8203 -21.9502 -66.6797 -46.3691 -89.7148c-44.6045 -42.0732 -120.105 -19.2803 -154.237 25.0254
c-21.375 27.7451 -29.3193 61.915 -34.6699 95.9014c-5.91895 37.6064 -8.17676 75.2617 -9.14062 113.284c-1.29688 51.2412 -0.329102 102.715 2.22656 154.047c-4.90332 -17.5566 -9.84863 -35.1025 -14.8838 -52.625
c-13.2607 -46.1543 -26.5488 -92.3984 -42.6211 -137.669c-15.875 -44.7119 -33.9277 -91.3828 -61.9531 -130.058c-23.5664 -32.5234 -56.7031 -52.0049 -97.3125 -52.376c-44.3965 -0.405273 -81.9785 27.9424 -105.545 63.7012
c-24.5264 37.2109 -34.9326 81.3398 -43.2549 124.522c-9.70605 50.3604 -13.2324 102.132 -12.209 153.38c2.01465 101.116 13.5098 202.33 26.5723 302.535c2.88867 22.1582 31.251 28.3965 49.8203 28.3965c15.875 0 50.5898 -6.4082 49.8203 -28.3965
c-3.62695 -103.439 -22.1475 -205.791 -26.4092 -309.238c-1.83398 -44.5449 -2.30176 -88.8896 0.40625 -133.421c2.34375 -38.5537 5.47461 -80.6162 18.5439 -117.279c5.72852 -16.0693 13.2012 -32.5166 25.1299 -44.959
c13.7705 -14.3594 26.1738 -20.4727 44.7744 -10.4688c35.4814 19.082 53.8877 65.2568 69.5264 100.089c36.292 80.8271 58.9531 167.872 83.0146 252.909c20.2441 71.5479 41.3555 142.704 57.0322 215.227c4.44238 30.3213 9.9248 60.4795 16.9951 90.3535
c4.35547 18.3887 39.0391 20.7051 53 19.7207c13.1562 -0.929688 43.2871 -8.02441 41.8828 -27.041c-5.59375 -75.8232 -17.1406 -151.099 -23.5488 -226.877z" />
    <glyph glyph-name="U" unicode="&#xdc;" horiz-adv-x="586" 
d="M462.729 438.437c-5.66309 -66.9395 -9.41309 -133.836 -12.0312 -200.963c-2.50684 -64.1133 -5.78027 -129.475 0.149414 -193.494c2.12598 -22.9658 7.53223 -50.6582 25.1475 -67.0947c23.0078 -21.4609 47.3477 6.5752 58.8047 26.6455
c30.4355 53.3154 46.5879 119.101 57.0225 179.053c2.28516 13.1318 35.0371 12.2959 33.2686 0c-6.0166 -41.7783 -15.2998 -83.1475 -28.9521 -123.115c-10.5273 -30.8203 -21.9502 -66.6797 -46.3691 -89.7148c-44.6045 -42.0732 -120.105 -19.2803 -154.237 25.0254
c-21.375 27.7451 -29.3193 61.915 -34.6699 95.9014c-5.91895 37.6064 -8.17676 75.2617 -9.14062 113.284c-1.29688 51.2412 -0.329102 102.715 2.22656 154.047c-4.90332 -17.5566 -9.84863 -35.1025 -14.8838 -52.625
c-13.2607 -46.1543 -26.5488 -92.3984 -42.6211 -137.669c-15.875 -44.7119 -33.9277 -91.3828 -61.9531 -130.058c-23.5664 -32.5234 -56.7031 -52.0049 -97.3125 -52.376c-44.3965 -0.405273 -81.9785 27.9424 -105.545 63.7012
c-24.5264 37.2109 -34.9326 81.3398 -43.2549 124.522c-9.70605 50.3604 -13.2324 102.132 -12.209 153.38c2.01465 101.116 13.5098 202.33 26.5723 302.535c2.88867 22.1582 31.251 28.3965 49.8203 28.3965c15.875 0 50.5898 -6.4082 49.8203 -28.3965
c-3.62695 -103.439 -22.1475 -205.791 -26.4092 -309.238c-1.83398 -44.5449 -2.30176 -88.8896 0.40625 -133.421c2.34375 -38.5537 5.47461 -80.6162 18.5439 -117.279c5.72852 -16.0693 13.2012 -32.5166 25.1299 -44.959
c13.7705 -14.3594 26.1738 -20.4727 44.7744 -10.4688c35.4814 19.082 53.8877 65.2568 69.5264 100.089c36.292 80.8271 58.9531 167.872 83.0146 252.909c20.2441 71.5479 41.3555 142.704 57.0322 215.227c4.44238 30.3213 9.9248 60.4795 16.9951 90.3535
c4.35547 18.3887 39.0391 20.7051 53 19.7207c13.1562 -0.929688 43.2871 -8.02441 41.8828 -27.041c-5.59375 -75.8232 -17.1406 -151.099 -23.5488 -226.877z" />
    <glyph glyph-name="U" unicode="&#xdb;" horiz-adv-x="586" 
d="M462.729 438.437c-5.66309 -66.9395 -9.41309 -133.836 -12.0312 -200.963c-2.50684 -64.1133 -5.78027 -129.475 0.149414 -193.494c2.12598 -22.9658 7.53223 -50.6582 25.1475 -67.0947c23.0078 -21.4609 47.3477 6.5752 58.8047 26.6455
c30.4355 53.3154 46.5879 119.101 57.0225 179.053c2.28516 13.1318 35.0371 12.2959 33.2686 0c-6.0166 -41.7783 -15.2998 -83.1475 -28.9521 -123.115c-10.5273 -30.8203 -21.9502 -66.6797 -46.3691 -89.7148c-44.6045 -42.0732 -120.105 -19.2803 -154.237 25.0254
c-21.375 27.7451 -29.3193 61.915 -34.6699 95.9014c-5.91895 37.6064 -8.17676 75.2617 -9.14062 113.284c-1.29688 51.2412 -0.329102 102.715 2.22656 154.047c-4.90332 -17.5566 -9.84863 -35.1025 -14.8838 -52.625
c-13.2607 -46.1543 -26.5488 -92.3984 -42.6211 -137.669c-15.875 -44.7119 -33.9277 -91.3828 -61.9531 -130.058c-23.5664 -32.5234 -56.7031 -52.0049 -97.3125 -52.376c-44.3965 -0.405273 -81.9785 27.9424 -105.545 63.7012
c-24.5264 37.2109 -34.9326 81.3398 -43.2549 124.522c-9.70605 50.3604 -13.2324 102.132 -12.209 153.38c2.01465 101.116 13.5098 202.33 26.5723 302.535c2.88867 22.1582 31.251 28.3965 49.8203 28.3965c15.875 0 50.5898 -6.4082 49.8203 -28.3965
c-3.62695 -103.439 -22.1475 -205.791 -26.4092 -309.238c-1.83398 -44.5449 -2.30176 -88.8896 0.40625 -133.421c2.34375 -38.5537 5.47461 -80.6162 18.5439 -117.279c5.72852 -16.0693 13.2012 -32.5166 25.1299 -44.959
c13.7705 -14.3594 26.1738 -20.4727 44.7744 -10.4688c35.4814 19.082 53.8877 65.2568 69.5264 100.089c36.292 80.8271 58.9531 167.872 83.0146 252.909c20.2441 71.5479 41.3555 142.704 57.0322 215.227c4.44238 30.3213 9.9248 60.4795 16.9951 90.3535
c4.35547 18.3887 39.0391 20.7051 53 19.7207c13.1562 -0.929688 43.2871 -8.02441 41.8828 -27.041c-5.59375 -75.8232 -17.1406 -151.099 -23.5488 -226.877z" />
    <glyph glyph-name="U" unicode="&#xda;" horiz-adv-x="586" 
d="M462.729 438.437c-5.66309 -66.9395 -9.41309 -133.836 -12.0312 -200.963c-2.50684 -64.1133 -5.78027 -129.475 0.149414 -193.494c2.12598 -22.9658 7.53223 -50.6582 25.1475 -67.0947c23.0078 -21.4609 47.3477 6.5752 58.8047 26.6455
c30.4355 53.3154 46.5879 119.101 57.0225 179.053c2.28516 13.1318 35.0371 12.2959 33.2686 0c-6.0166 -41.7783 -15.2998 -83.1475 -28.9521 -123.115c-10.5273 -30.8203 -21.9502 -66.6797 -46.3691 -89.7148c-44.6045 -42.0732 -120.105 -19.2803 -154.237 25.0254
c-21.375 27.7451 -29.3193 61.915 -34.6699 95.9014c-5.91895 37.6064 -8.17676 75.2617 -9.14062 113.284c-1.29688 51.2412 -0.329102 102.715 2.22656 154.047c-4.90332 -17.5566 -9.84863 -35.1025 -14.8838 -52.625
c-13.2607 -46.1543 -26.5488 -92.3984 -42.6211 -137.669c-15.875 -44.7119 -33.9277 -91.3828 -61.9531 -130.058c-23.5664 -32.5234 -56.7031 -52.0049 -97.3125 -52.376c-44.3965 -0.405273 -81.9785 27.9424 -105.545 63.7012
c-24.5264 37.2109 -34.9326 81.3398 -43.2549 124.522c-9.70605 50.3604 -13.2324 102.132 -12.209 153.38c2.01465 101.116 13.5098 202.33 26.5723 302.535c2.88867 22.1582 31.251 28.3965 49.8203 28.3965c15.875 0 50.5898 -6.4082 49.8203 -28.3965
c-3.62695 -103.439 -22.1475 -205.791 -26.4092 -309.238c-1.83398 -44.5449 -2.30176 -88.8896 0.40625 -133.421c2.34375 -38.5537 5.47461 -80.6162 18.5439 -117.279c5.72852 -16.0693 13.2012 -32.5166 25.1299 -44.959
c13.7705 -14.3594 26.1738 -20.4727 44.7744 -10.4688c35.4814 19.082 53.8877 65.2568 69.5264 100.089c36.292 80.8271 58.9531 167.872 83.0146 252.909c20.2441 71.5479 41.3555 142.704 57.0322 215.227c4.44238 30.3213 9.9248 60.4795 16.9951 90.3535
c4.35547 18.3887 39.0391 20.7051 53 19.7207c13.1562 -0.929688 43.2871 -8.02441 41.8828 -27.041c-5.59375 -75.8232 -17.1406 -151.099 -23.5488 -226.877z" />
    <glyph glyph-name="V" unicode="V" horiz-adv-x="440" 
d="M278.681 42.1475c18.2568 35.5605 33.041 72.7949 46.1865 110.522c0.652344 1.87598 1.2832 3.7627 1.93164 5.64258c-21.6064 13.9609 -39.2188 34.0625 -53.0996 56.2559c-51.6299 82.5371 -65.3203 187.101 -61.9736 282.604
c1.5498 44.1328 6.44922 88.4424 14.8789 131.795c8.13867 41.8408 20.2686 85.0996 44.6914 120.611c20.3311 29.5586 56.3076 46.7686 90.6338 28.6846c34.3438 -18.0908 49.1406 -61.6621 57.4941 -96.9424c21.0488 -88.8936 15.8506 -186.948 3.95996 -276.771
c-10.7051 -80.8828 -29.9746 -160.954 -55.5557 -238.56c25.6191 -10.7773 53.9219 -5.97461 72.1162 16.8457c8.51953 10.6875 44.9023 3.99512 32.9805 -10.9883c-24.374 -30.6367 -67.8857 -38.4561 -104.653 -30.793
c-2.77734 0.579102 -5.50293 1.26953 -8.18652 2.03223c-2.32031 -6.66504 -4.6709 -13.3193 -7.07715 -19.9424c-15.7471 -43.332 -34.2471 -85.8975 -58.2393 -125.355c-19.1729 -31.5312 -42.8291 -63.5029 -77.502 -78.8506
c-87.0723 -38.5459 -173.673 31.4971 -203.176 110.483c-16.4365 44.001 -20.9648 92.1943 -24.8213 138.644c-4.12988 49.7881 -7.64941 99.6875 -9.77832 149.607c-2.12598 49.7959 -3.41602 100.056 -1.69238 149.872c1.83398 53.1143 7.38867 104.317 15.5547 156.769
c4.55664 29.2734 71.916 29.9395 75.3662 0c5.77344 -50.0762 11.0371 -99.6045 14.2686 -149.955c3.05859 -47.6631 4.7334 -95.4023 7.83008 -143.072c3.09668 -47.6348 5.72852 -95.2695 9.7168 -142.846c3.79395 -45.2842 6.5752 -91.3486 15.7891 -135.911
c6.4082 -31.001 14.7236 -67.0469 34 -92.9639c6.76172 -9.08887 15.7051 -17.2383 26.3955 -21.3232c1.04688 -0.125 3.98438 -0.599609 5.71484 -0.217773c4.0332 0.891602 7.82031 1.7373 11.7041 3.27734c6.9043 2.73926 13.3232 6.75098 19.2256 11.2275
c29.7627 22.5674 48.5742 57.0186 65.3164 89.6182zM295.538 248.333c10.417 -21.6279 23.4268 -43.7539 40.9658 -60.8115c46.7539 145.696 72.2861 303.831 51.9033 455.863c-4.78223 35.6855 -13.4961 78.1846 -37.6416 106.436
c-4.73633 5.54102 -12.2988 14.3174 -20.2539 13.8633c-7.38281 -0.422852 -15.5869 -10.9541 -19.9111 -16.4258c-10.8711 -13.7559 -18.6143 -30.6572 -25.1992 -46.792c-28.5869 -70.0566 -35.6016 -152.479 -35.7129 -227.547
c-0.111328 -76.9473 12.2373 -154.807 45.8496 -224.586z" />
    <glyph glyph-name="W" unicode="W" horiz-adv-x="743" 
d="M15.6221 651.687c5.06934 18.7705 48.8047 13.5996 52.4111 -4.04395c25.7715 -125.955 17.1963 -257.119 19.9873 -385.158c1.41504 -64.8203 6.0127 -129.468 9.07422 -194.212c1.33496 -28.1436 -0.329102 -56.3975 7.04688 -83.9307
c5.35059 -19.9697 15.1602 -39.1631 26.791 -56.2656c16.8838 -9.24805 29.9014 -6.18652 44.9404 9.77832c21.2881 22.5986 37.1631 50.8916 50.3574 80.2588c-2.32031 19.1758 -3.65918 38.3486 -4.79688 56.8135c-4.94141 80.1611 -15.8506 159.944 -13.7041 240.411
c1.08887 40.7588 10.7432 81.5176 23.4697 120.192c9.23438 28.0635 21.666 68.8643 48.2627 85.9805c12.2129 7.85742 28.7227 8.80078 41.8828 2.89844c13.9707 -6.26953 20.5762 -19.5303 25.5596 -33.3281c11.9082 -32.9775 12.0332 -68.6143 9.7373 -103.159
c-4.64355 -69.8486 -16.3711 -139.351 -34.1221 -207.102c2.75293 -21.2324 5.3125 -42.4922 7.39648 -63.8145c5.13867 -52.6494 4.68457 -107.993 22.8721 -158.291c12.3447 -34.1387 34.5762 -79.5439 71.3887 -89.8984
c4.62207 -1.30078 8.58203 -1.9668 15.75 -0.631836c9.72363 1.81055 19.1621 7.58789 27.4355 12.793c22.5186 14.1582 37.8838 36.0947 51.29 58.6865c27.4434 46.248 47.9336 96.6396 65.126 147.493c5.78711 17.1201 11.3008 34.3438 16.5859 51.6406
c-13.9814 1.64062 -27.668 4.30762 -40.7305 8.19141c-63.7246 18.9365 -109.823 74.9629 -131.271 135.907c-25.2822 71.8467 -29.0859 155.352 -16.6367 230.076c11.7236 70.3828 42.3291 134.711 90.8867 187.291c22.3662 24.2178 50.3018 47.3916 83.4971 53.8828
c32.1279 6.2832 65.2822 -4.02637 86.8369 -29.0146c21.9297 -25.4248 28.3037 -58.8877 31.7676 -91.3242c4.54297 -42.5303 5.0459 -85.4697 2.8125 -128.16c-5.89453 -112.667 -27.0088 -226.236 -58.2666 -335.984c15.9932 0.572266 32.166 2.31641 47.7432 5.98145
c12.4346 2.92676 28.8604 6.3252 38.4766 15.376c8.30469 7.81934 23.666 8.82812 33.9131 5.06934c7.78809 -2.85742 17.3652 -11.3564 8.89062 -19.332c-16.1836 -15.2334 -35.6514 -24.1865 -57.1582 -29.4609c-25.6572 -6.29395 -53.6338 -10.1357 -81.5723 -10.4795
c-10.8848 -35.6543 -22.751 -70.8682 -35.5361 -105.431c-13.1768 -35.6299 -28.4238 -70.6113 -47.5586 -103.478c-8.80078 -15.1152 -18.3926 -29.5371 -27.6133 -44.3408c-8.31543 -13.3506 -15.6387 -25.6846 -28.0771 -35.6855
c-60.1846 -48.377 -156.048 -27.4912 -209.838 20.5078c-27.9844 24.9736 -44.1094 57.3857 -53.8223 92.3779c-4.53613 -7.25391 -9.25195 -14.3623 -14.2383 -21.2383c-18.8916 -26.0596 -43.7441 -47.042 -77.1025 -48.9912
c-34.9326 -2.03906 -70.4551 11.7861 -98.1406 32.6338c-30.7061 23.1191 -39.666 63.0625 -47.6064 98.627c-9.20996 41.248 -15.2158 82.5098 -18.2637 124.708c-6.14453 85.0723 -3.80762 171.008 0.288086 256.101c4.0498 84.2607 11.5508 167.512 33.5771 249.078z
M551.171 192.646c18.6113 -13.2432 37.9863 -19.3662 58.6914 -21.8252c24.0723 84.2842 42.0352 170.424 52.8438 257.326c7.22656 58.0967 10.7012 116.866 7.07031 175.362c-1.71289 27.5781 -3.51562 56.7861 -13.4814 82.832
c-8.02734 20.9688 -25.7783 47.9609 -51.1162 48.0996c-25.5361 0.138672 -49.6602 -23.8682 -66.1484 -41.043c-17.0645 -17.7783 -31.1152 -37.8799 -41.8477 -60.0518c-23.4307 -48.4082 -35.248 -102.701 -37.8213 -156.231
c-4.63672 -96.5146 5.52734 -223.07 91.8096 -284.469zM302.092 505.369c-2.97168 6.43555 -2.09766 1.59863 0 0zM295.053 455.806c-1.74121 -27.4053 0.166992 -55.2773 3.25 -82.4668c3.04102 -26.791 6.13379 -53.6094 9.39648 -80.3936
c6.60254 39.3857 11.2314 79.3057 12.1885 118.986c0.641602 26.6279 -1.14746 54.0713 -11.2871 79c-1.37695 3.38086 -3.20801 6.57422 -4.57812 9.94141c-0.357422 0.883789 -0.683594 1.65723 -0.985352 2.36426c-2.53809 -3.62402 -4.10156 -6.82129 -5.12793 -11.8877
c-2.33691 -11.499 -2.11816 -23.8818 -2.85645 -35.5439z" />
    <glyph glyph-name="X" unicode="X" horiz-adv-x="460" 
d="M278.174 547.109c-17.9902 -27.5752 -34.167 -56.376 -49.5215 -85.4873c-31.8291 -60.3682 -59.373 -122.758 -86.8057 -185.203c2.37891 -19.5225 4.96191 -39.0215 7.97559 -58.4678c6.30078 -40.6582 15.8438 -80.2588 24.6416 -120.387
c7.63574 -34.8291 15.7158 -69.6514 29 -102.844c12.7227 -31.7949 31.7598 -59.9102 64.085 -74.0859c31.2471 -13.7041 64.8975 14.2969 85.96 34.9258c54.373 53.2598 91.4941 125.602 113.344 197.847c3.6582 12.1025 37.8838 9.39062 33.542 -5.27051
c-13.3682 -45.1318 -32.4717 -88.3037 -57.5146 -128.192c-22.5781 -35.9629 -49.1611 -72.7266 -83.3799 -98.4561c-29.458 -22.1514 -63.7881 -35.1758 -101.055 -33.3799c-44.0566 2.12598 -82.4922 25.1406 -112.723 56.2383
c-42.1875 43.3975 -67.5469 99.2305 -84.3096 157.217c-19.2832 -38.6328 -40.2314 -76.7666 -66.4092 -110.898c-28.4004 -37.0273 -74.1494 -84.3369 -125.661 -65.8477c-21.6592 7.77441 4.14355 22.1719 17.7471 17.3066
c16.4121 -5.87109 35.7646 14.0264 46.6631 24.2979c12.5703 11.8486 23.9268 25.0254 34.1006 38.9795c18.5693 25.4668 33.8301 53.2705 48.4639 81.1299c11.3389 21.5898 22.1133 43.4395 32.5439 65.4521c-1.82422 8.52344 -3.51953 17.0293 -5.10059 25.4834
c-16.3535 87.4053 -21.3262 176.438 -24.7041 265.13c-1.68848 44.3682 -1.1543 88.8203 -2.41309 133.203c-0.551758 19.4258 -0.339844 38.8164 -0.704102 58.2422c-0.308594 16.5371 0.668945 34.0039 -13.0869 45.3359c-12.834 10.5693 19.3037 17.7646 27.6123 12.1436
c33.6396 -22.7686 52.0459 -51.8828 62.4004 -90.8867c12.0811 -45.5127 19.665 -92.4512 26.7461 -138.952c5.98828 -39.3438 10.3262 -78.8926 14.6465 -118.448c11.415 25.5078 23.0664 50.9014 35.2695 76.042c25.8545 53.2666 53.4531 106.994 88.3271 155.014
c14.8281 20.4209 32.1113 43.2861 53.3887 57.4619c13.8809 9.24805 45.624 11.1797 47.1016 -11.3223c0.652344 -9.90039 -17.3135 -13.0596 -28.3408 -8.99902c-2.65625 -2.89551 -5.23242 -5.96777 -6.82031 -7.5459
c-5.49316 -5.45508 -10.7295 -11.1592 -15.751 -17.0508c-10.6904 -12.542 -20.2607 -25.9307 -29.2588 -39.7246z" />
    <glyph glyph-name="Y" unicode="Y" horiz-adv-x="521" 
d="M101.237 625.888c-6.29688 -86.4619 -22.376 -171.773 -30.0186 -258.094c-3.34277 -37.7002 -5.80469 -75.8027 -5.19824 -113.666c0.568359 -35.4639 0.641602 -72.4082 12.0049 -106.439c9.41797 -28.1992 29.7109 -56.5684 61.96 -40.3154
c28.9512 14.5918 48.6816 45.9951 64.3936 73.0527c35.9355 61.8838 56.7832 132.003 74.1836 200.995c18.8848 74.8877 32.6445 151.135 46.7617 227.034c0.25 1.33887 0.829102 2.52441 1.64062 3.5752c3.69336 37.749 97.833 37.1768 98.0098 -0.832031
c0.72168 -155.226 12.4004 -311.321 1.59863 -466.356c38.1162 9.83398 75.1885 23.5273 101.311 54.667c8.23926 9.82031 42.4473 3.55078 31.0176 -10.334c-33.376 -40.5371 -84.9609 -55.9131 -134.139 -67.8662c-9.29004 -106.651 -33.3486 -222.862 -105.836 -304.355
c-36.6914 -41.251 -89.667 -74.3984 -146.189 -75.6953c-51.1445 -1.17188 -99.5566 29.2529 -122.457 74.7207c-25.123 49.8857 -11.1445 111.571 18.6182 156.12c32.8457 49.1641 82.79 81.7148 135.838 105.731c42.333 19.166 86.4834 33.2061 131.296 45.0205
c0.707031 36.667 0.291016 73.3857 -0.849609 109.928c-2.03516 65.2227 -6.23438 130.706 -8.7627 196.179c-7.54199 -35.1826 -16.0791 -70.1543 -26.1523 -104.803c-20.7959 -71.541 -47.5 -150.398 -99.9209 -205.552
c-22.6436 -23.8193 -52.7529 -40.1348 -86.3193 -38.3242c-33.4805 1.80664 -68.2578 17.2168 -90.0732 42.9121c-27.29 32.1416 -36.4893 73.5381 -43.0537 114.255c-6.75879 41.9131 -7.92773 84.6621 -6.16602 126.999c3.64453 87.6309 17.3066 174.322 26.4824 261.443
c4.17188 39.6143 102.802 38.165 100.021 0zM306.221 -99.1699c15.9688 45.4678 22.7734 94.0352 26.2617 141.927c1.2627 17.3242 2.1543 34.6973 2.78516 52.0947c-30.2832 -10.7705 -59.9424 -23.2578 -89.4072 -37.7559
c-47.4238 -23.334 -96.0127 -53.1865 -125.422 -98.4189c-27.9805 -43.0332 -38.2373 -96.0635 -14.4736 -143.272c9.63281 -19.1377 25.0469 -37.4014 45.2871 -45.665c25.1895 -10.2852 52.2715 -0.777344 73.5078 13.8877
c40.0059 27.627 65.6592 72.2031 81.4609 117.203z" />
    <glyph glyph-name="Y" unicode="&#x178;" horiz-adv-x="521" 
d="M101.237 625.888c-6.29688 -86.4619 -22.376 -171.773 -30.0186 -258.094c-3.34277 -37.7002 -5.80469 -75.8027 -5.19824 -113.666c0.568359 -35.4639 0.641602 -72.4082 12.0049 -106.439c9.41797 -28.1992 29.7109 -56.5684 61.96 -40.3154
c28.9512 14.5918 48.6816 45.9951 64.3936 73.0527c35.9355 61.8838 56.7832 132.003 74.1836 200.995c18.8848 74.8877 32.6445 151.135 46.7617 227.034c0.25 1.33887 0.829102 2.52441 1.64062 3.5752c3.69336 37.749 97.833 37.1768 98.0098 -0.832031
c0.72168 -155.226 12.4004 -311.321 1.59863 -466.356c38.1162 9.83398 75.1885 23.5273 101.311 54.667c8.23926 9.82031 42.4473 3.55078 31.0176 -10.334c-33.376 -40.5371 -84.9609 -55.9131 -134.139 -67.8662c-9.29004 -106.651 -33.3486 -222.862 -105.836 -304.355
c-36.6914 -41.251 -89.667 -74.3984 -146.189 -75.6953c-51.1445 -1.17188 -99.5566 29.2529 -122.457 74.7207c-25.123 49.8857 -11.1445 111.571 18.6182 156.12c32.8457 49.1641 82.79 81.7148 135.838 105.731c42.333 19.166 86.4834 33.2061 131.296 45.0205
c0.707031 36.667 0.291016 73.3857 -0.849609 109.928c-2.03516 65.2227 -6.23438 130.706 -8.7627 196.179c-7.54199 -35.1826 -16.0791 -70.1543 -26.1523 -104.803c-20.7959 -71.541 -47.5 -150.398 -99.9209 -205.552
c-22.6436 -23.8193 -52.7529 -40.1348 -86.3193 -38.3242c-33.4805 1.80664 -68.2578 17.2168 -90.0732 42.9121c-27.29 32.1416 -36.4893 73.5381 -43.0537 114.255c-6.75879 41.9131 -7.92773 84.6621 -6.16602 126.999c3.64453 87.6309 17.3066 174.322 26.4824 261.443
c4.17188 39.6143 102.802 38.165 100.021 0zM306.221 -99.1699c15.9688 45.4678 22.7734 94.0352 26.2617 141.927c1.2627 17.3242 2.1543 34.6973 2.78516 52.0947c-30.2832 -10.7705 -59.9424 -23.2578 -89.4072 -37.7559
c-47.4238 -23.334 -96.0127 -53.1865 -125.422 -98.4189c-27.9805 -43.0332 -38.2373 -96.0635 -14.4736 -143.272c9.63281 -19.1377 25.0469 -37.4014 45.2871 -45.665c25.1895 -10.2852 52.2715 -0.777344 73.5078 13.8877
c40.0059 27.627 65.6592 72.2031 81.4609 117.203z" />
    <glyph glyph-name="Y" unicode="&#xdd;" horiz-adv-x="521" 
d="M101.237 625.888c-6.29688 -86.4619 -22.376 -171.773 -30.0186 -258.094c-3.34277 -37.7002 -5.80469 -75.8027 -5.19824 -113.666c0.568359 -35.4639 0.641602 -72.4082 12.0049 -106.439c9.41797 -28.1992 29.7109 -56.5684 61.96 -40.3154
c28.9512 14.5918 48.6816 45.9951 64.3936 73.0527c35.9355 61.8838 56.7832 132.003 74.1836 200.995c18.8848 74.8877 32.6445 151.135 46.7617 227.034c0.25 1.33887 0.829102 2.52441 1.64062 3.5752c3.69336 37.749 97.833 37.1768 98.0098 -0.832031
c0.72168 -155.226 12.4004 -311.321 1.59863 -466.356c38.1162 9.83398 75.1885 23.5273 101.311 54.667c8.23926 9.82031 42.4473 3.55078 31.0176 -10.334c-33.376 -40.5371 -84.9609 -55.9131 -134.139 -67.8662c-9.29004 -106.651 -33.3486 -222.862 -105.836 -304.355
c-36.6914 -41.251 -89.667 -74.3984 -146.189 -75.6953c-51.1445 -1.17188 -99.5566 29.2529 -122.457 74.7207c-25.123 49.8857 -11.1445 111.571 18.6182 156.12c32.8457 49.1641 82.79 81.7148 135.838 105.731c42.333 19.166 86.4834 33.2061 131.296 45.0205
c0.707031 36.667 0.291016 73.3857 -0.849609 109.928c-2.03516 65.2227 -6.23438 130.706 -8.7627 196.179c-7.54199 -35.1826 -16.0791 -70.1543 -26.1523 -104.803c-20.7959 -71.541 -47.5 -150.398 -99.9209 -205.552
c-22.6436 -23.8193 -52.7529 -40.1348 -86.3193 -38.3242c-33.4805 1.80664 -68.2578 17.2168 -90.0732 42.9121c-27.29 32.1416 -36.4893 73.5381 -43.0537 114.255c-6.75879 41.9131 -7.92773 84.6621 -6.16602 126.999c3.64453 87.6309 17.3066 174.322 26.4824 261.443
c4.17188 39.6143 102.802 38.165 100.021 0zM306.221 -99.1699c15.9688 45.4678 22.7734 94.0352 26.2617 141.927c1.2627 17.3242 2.1543 34.6973 2.78516 52.0947c-30.2832 -10.7705 -59.9424 -23.2578 -89.4072 -37.7559
c-47.4238 -23.334 -96.0127 -53.1865 -125.422 -98.4189c-27.9805 -43.0332 -38.2373 -96.0635 -14.4736 -143.272c9.63281 -19.1377 25.0469 -37.4014 45.2871 -45.665c25.1895 -10.2852 52.2715 -0.777344 73.5078 13.8877
c40.0059 27.627 65.6592 72.2031 81.4609 117.203z" />
    <glyph glyph-name="Z" unicode="Z" horiz-adv-x="490" 
d="M281.992 188.242c7.24707 16.6133 13.8555 33.3896 19.8789 50.0693c17.4248 48.2041 29.957 97.7217 37.3359 148.207c-7.89258 -0.419922 -15.7783 -0.867188 -23.6777 -1.21387c-20.4482 -0.894531 -19.8379 17.8164 0.000976562 18.9609
c8.7666 0.50293 17.5264 1.08887 26.2861 1.67871c1.57422 13.2148 2.79492 26.4961 3.6582 39.833c4.3584 67.5605 4.55566 139.816 -25.7686 201.756c-12.6846 25.9141 -34.1045 50.3154 -63.5791 56.3945c-32.8525 6.77539 -67.7578 -4.21387 -96.0742 -20.5566
c-57.7539 -33.3379 -103.094 -92.6973 -124.954 -155.212c-11.377 -32.54 -16.2109 -70.5039 -3.02734 -103.301c10.4932 -26.1006 34.9922 -53.2354 64.8691 -54.7129c19.8076 -0.977539 20.085 -18.8604 0 -18.7461c-38.418 0.225586 -71.8701 19.5996 -91.9404 52.3311
c-22.377 36.4932 -19.8037 81.8428 -7.69434 121.354c24.8662 81.1328 90.9697 158.895 171.332 188.848c72.1406 26.8877 156.727 9.00195 209.483 -47.333c27.7031 -29.5791 41.9375 -69.1211 50.8359 -107.952c9.91406 -43.2656 14.3213 -87.3809 14.2588 -131.742
c-0.00390625 -4.1123 -0.0839844 -8.24609 -0.170898 -12.3828c3.57129 0.364258 7.15332 0.69043 10.7246 1.06836c5.75977 0.603516 19.2354 0.489258 21.6279 -7.00098c2.33008 -7.30957 -6.05469 -11.6719 -12.2822 -12.3271
c-6.93848 -0.728516 -13.8809 -1.35938 -20.8232 -2.02832c-3.5752 -66.5342 -17.8135 -135.197 -43.5889 -198.53c39.9512 0.243164 79.9229 -1.83008 119.718 -6.22656c5.89844 -0.652344 14.0127 -4.75098 11.752 -11.7969
c-2.30566 -7.18848 -14.9072 -7.36523 -20.6943 -6.69922c-39.4443 4.53223 -79.1143 6.56445 -118.746 6.10645c-35.0059 -77.5957 -88.0957 -145.735 -161.03 -189.875c-61.374 -37.1387 -156.464 -69.3115 -225.491 -33.8828
c-29.8223 15.3066 -45.0244 46.2451 -38.8516 79.1396c6.43262 34.2773 24.96 60.0312 53.4814 79.7617c32.3076 22.3525 71.8838 33.8789 109.233 44.625c41.6602 11.9873 84.1318 21.3086 127.002 27.748c8.95996 1.3457 17.9346 2.53906 26.916 3.63867zM206.758 63.1885
c26.6211 31.1328 48.2402 67.3145 66.1436 105.028c-5.21582 -0.735352 -10.4277 -1.51562 -15.6328 -2.34082c-41.2617 -6.54004 -82.0381 -15.7812 -122.048 -27.7998c-35.5918 -10.6904 -75.6055 -21.7871 -103.604 -47.5273
c-21.8184 -20.0605 -35.3975 -51.6787 -23.7666 -80.5957c9.5293 -23.6914 33.6123 -35.6475 58.3887 -33.6953c55.3467 4.35547 106.002 46.5635 140.519 86.9307z" />
    <glyph glyph-name="bracketleft" unicode="[" horiz-adv-x="264" 
d="M204.146 -134.46c10.1357 -5.94336 13.6123 -15.583 5.65039 -24.9912c-26.0107 -30.7266 -85.8867 -20.6914 -114.02 1.17578c-28.6943 22.3076 -32.0234 58.0381 -33.8438 91.9209c-7.68457 143.106 -12.7607 286.649 -11.8174 429.964
c0.47168 71.8945 2.25781 145.499 12.8828 216.689c3.99805 26.7949 5.30566 70.7852 28.0117 89.3262c17.498 14.2871 46.834 22.623 66.6172 8.37402c16.7832 -12.0918 -13.957 -18.6113 -23.791 -13.5625c4.80273 -2.46582 0.201172 -12.7197 -0.152344 -17.0059
c-0.617188 -7.49316 0.592773 -15.0078 1.35254 -22.4395c1.86523 -18.3057 3.91113 -36.6494 5.01758 -55.0107c2.21191 -36.6777 3.18652 -73.334 4.27539 -110.053c2.11133 -71.1045 4.58008 -142.205 7.11816 -213.295
c2.53809 -71.1006 4.86523 -142.194 8.08301 -213.274c1.66113 -36.667 3.91211 -73.3408 4.99707 -110.025c0.405273 -13.7314 0.22168 -27.7197 4.875 -40.8203c1.35547 -3.81445 4.0459 -7.25781 5.98047 -10.6318
c-3.46387 -0.131836 -8.32227 -1.00195 -15.0664 -3.12109c4.76758 1.49805 9.97949 2.42383 15.2744 2.73926c0.509766 -0.918945 0.970703 -1.82715 1.31445 -2.73926c2.74316 -7.30273 10.3994 1.05469 2.62793 2.82715
c8.68945 -0.0273438 17.3965 -1.81641 24.6123 -6.04688z" />
    <glyph glyph-name="backslash" unicode="\" horiz-adv-x="415" 
d="M364.385 -170.101c3.73828 -18.1494 -29.333 -25.293 -40.7314 -26.2988c-15.8711 -1.39746 -43.8936 1.79297 -51.543 19.1797c-26.4893 60.2266 -43.8486 125.245 -63.6562 187.909c-19.5127 61.7344 -39.2158 123.403 -59.1064 185.017
c-19.8418 61.4463 -39.1182 123.122 -57.2021 185.109c-17.5391 60.1221 -41.334 123.889 -42.1455 187.08c-0.22168 17.3418 33.5293 12.418 40.125 3.09668c38.959 -55.0488 61.3457 -121.465 85.793 -183.816c23.7812 -60.6455 45.8701 -121.999 67.1963 -183.55
c21.2705 -61.3916 42.3535 -122.849 63.2461 -184.372c21.1074 -62.1572 44.7637 -124.967 58.0244 -189.354z" />
    <glyph glyph-name="bracketright" unicode="]" horiz-adv-x="265" 
d="M204.313 552.797c15.0977 -142.485 10.8779 -287.063 5.70117 -430c-2.55957 -70.6982 -2.01562 -142.856 -9.68262 -213.201c-3.44336 -31.6045 -14.3701 -59.9873 -43.8066 -75.6572c-28.1465 -14.9834 -79.2148 -20.5391 -102.205 6.62305
c-7.88867 9.32422 -4.36914 19.0996 5.65625 24.9844c7.13672 4.18848 15.8262 5.96777 24.4922 6.01953c-7.57031 -1.83105 0.0205078 -10.0664 2.75 -2.79785c0.335938 0.905273 0.793945 1.80664 1.2998 2.71484c5.32324 -0.308594 10.5527 -1.22754 15.2861 -2.71484
c-6.74121 2.11523 -11.5996 2.98926 -15.0635 3.12109c1.93457 3.37012 4.625 6.81348 5.98047 10.6318c4.65332 13.0977 4.46973 27.0859 4.875 40.8213c1.08203 36.6846 3.33301 73.3584 4.99414 110.025c3.22168 71.0762 5.54883 142.17 8.08691 213.274
c2.53809 71.0898 5.00684 142.19 7.11816 213.295c1.09277 36.7188 2.06348 73.3721 4.27539 110.053c1.10938 18.3613 3.14844 36.7051 5.01758 55.0107c0.759766 7.42773 1.96973 14.9424 1.35254 22.4395c-0.350586 4.28613 -4.95605 14.54 -0.15332 17.0059
c-9.91699 -5.09082 -40.5264 1.50488 -23.791 13.5615c21.7598 15.6738 59.1309 4.46289 74.1426 -16.1006c10.0391 -13.7461 12.2754 -34.375 15.1504 -50.6592c3.43652 -19.46 6.43945 -38.792 8.52344 -58.4502z" />
    <glyph glyph-name="asciicircum" unicode="^" horiz-adv-x="278" 
d="M227.542 375.624c3.81445 -16.8877 -29.9746 -22.5615 -39.583 -22.5684c-15.5459 0 -36.2891 5.11133 -39.5801 22.5605c-3.55078 18.8154 -7.80566 37.8809 -13.8779 56.0547c-1.04688 3.12793 -2.16699 6.24902 -3.33594 9.35645
c-4.53906 -8.82129 -8.95312 -17.6982 -13.1494 -26.6865c-7.83301 -16.7764 -14.8857 -34.3682 -30.7363 -44.7363c-6.9248 -4.52832 -21.3291 -4.26172 -27.3145 2.00781c-19.377 20.2998 -6.08594 59.5117 2.94727 82.5645
c11.5264 29.4092 30.9072 50.8984 64.1416 53.4678c74.8418 5.78711 87.9424 -76.4727 100.488 -132.021z" />
    <glyph glyph-name="underscore" unicode="_" horiz-adv-x="372" 
d="M284.338 -51.9297c11.5469 0.256836 37.8857 -5.00195 37.4971 -21.373c-0.402344 -16.8457 -24.8115 -21.042 -37.4961 -21.3711c-64.585 -1.67871 -128.452 -9.74121 -191.913 -21.6631c-12.1025 -2.27148 -32.3193 -0.229492 -39.9824 11.1855
c-7.28223 10.8467 3.01367 21.3506 13.8672 24.125c71.4678 18.2637 144.295 27.4531 218.027 29.0967z" />
    <glyph glyph-name="grave" unicode="`" horiz-adv-x="180" 
d="M123.272 460.807c3.12402 -20.0674 5.56934 -40.2246 7.13281 -60.4688c1.93848 -24.9912 -62.0947 -25.5879 -65.125 0c-2.11914 17.9033 -3.85645 35.835 -5.78418 53.7588c-1.74414 16.2285 -0.905273 34.3682 -8.04199 49.3066
c-11.3184 23.6943 46.9141 26.9785 57.6807 9.06445c9.16504 -15.2441 11.4365 -34.3125 14.1377 -51.6611z" />
    <glyph glyph-name="a" unicode="a" horiz-adv-x="355" 
d="M351.745 165.91c3.4502 11.5615 35.9639 9.08496 32.0732 -5.03906c-7.24023 -26.3086 -15.5762 -52.2705 -25.2646 -77.7822c-8.47168 -22.3008 -17.3525 -46.918 -34.3652 -64.3428c-31.6562 -32.4297 -85.9912 -24.9531 -116.964 4.86914
c-27.7725 26.7393 -37.6689 66.5439 -41.4033 105.708c-2.0498 -7.75391 -4.10254 -15.5078 -6.23828 -23.2334c-8.01367 -28.9863 -17.248 -63.3096 -37.7002 -86.3311c-19.8555 -22.3486 -45.998 -23.1494 -73.4346 -18.4121
c-72.5918 12.5352 -74.4121 114.051 -68.1602 170.546c7.0918 64.0928 29.5557 126.319 78.2793 170.733c22.5947 20.6016 55.96 36.5039 86.9473 36.7188c20.2891 0.142578 35.7656 -5.8252 48.5889 -16.9668c27.54 16.1865 90.9805 9.07129 88.9971 -21.5586
c-5.65527 -87.3779 -19.3633 -174.354 -15.5938 -262.237c0.749023 -17.5049 -1.1543 -37.3574 3.28809 -54.4707c1.62305 -6.25586 0.50293 -6.92871 6.03418 -6.70996c4.53223 0.180664 8.94629 5.28516 12.1367 8.24316c7.42773 6.89062 13.1914 15.2402 18.1367 24.0273
c20.123 35.7549 32.96 77.0889 44.6426 116.238zM171.32 298.127c2.02539 12.3584 4.49414 24.6426 7.44141 36.8174c-8.81445 12.5732 -22.9316 25.3965 -37.1523 12.8398c-9.0752 -8.01367 -15.8652 -22.5742 -21.8848 -32.9463
c-14.3564 -24.7344 -24.5029 -52.1807 -31.8887 -79.7412c-16.2734 -60.7188 -22.2168 -123.452 -16.4814 -186.064c0.652344 -7.11523 1.62305 -20.833 5.13184 -28.9541c0.769531 0.668945 2.42383 1.19629 5.08008 1.56348
c3.52344 2.36523 6.64746 5.17383 9.36621 8.42676c5.80469 6.69238 9.77539 14.876 13.5 22.834c14.0996 30.1133 22.2002 62.6709 30.0684 94.833c12.2646 50.1318 24.5439 100.264 36.8193 150.392z" />
    <glyph glyph-name="a" unicode="&#xe5;" horiz-adv-x="355" 
d="M351.745 165.91c3.4502 11.5615 35.9639 9.08496 32.0732 -5.03906c-7.24023 -26.3086 -15.5762 -52.2705 -25.2646 -77.7822c-8.47168 -22.3008 -17.3525 -46.918 -34.3652 -64.3428c-31.6562 -32.4297 -85.9912 -24.9531 -116.964 4.86914
c-27.7725 26.7393 -37.6689 66.5439 -41.4033 105.708c-2.0498 -7.75391 -4.10254 -15.5078 -6.23828 -23.2334c-8.01367 -28.9863 -17.248 -63.3096 -37.7002 -86.3311c-19.8555 -22.3486 -45.998 -23.1494 -73.4346 -18.4121
c-72.5918 12.5352 -74.4121 114.051 -68.1602 170.546c7.0918 64.0928 29.5557 126.319 78.2793 170.733c22.5947 20.6016 55.96 36.5039 86.9473 36.7188c20.2891 0.142578 35.7656 -5.8252 48.5889 -16.9668c27.54 16.1865 90.9805 9.07129 88.9971 -21.5586
c-5.65527 -87.3779 -19.3633 -174.354 -15.5938 -262.237c0.749023 -17.5049 -1.1543 -37.3574 3.28809 -54.4707c1.62305 -6.25586 0.50293 -6.92871 6.03418 -6.70996c4.53223 0.180664 8.94629 5.28516 12.1367 8.24316c7.42773 6.89062 13.1914 15.2402 18.1367 24.0273
c20.123 35.7549 32.96 77.0889 44.6426 116.238zM171.32 298.127c2.02539 12.3584 4.49414 24.6426 7.44141 36.8174c-8.81445 12.5732 -22.9316 25.3965 -37.1523 12.8398c-9.0752 -8.01367 -15.8652 -22.5742 -21.8848 -32.9463
c-14.3564 -24.7344 -24.5029 -52.1807 -31.8887 -79.7412c-16.2734 -60.7188 -22.2168 -123.452 -16.4814 -186.064c0.652344 -7.11523 1.62305 -20.833 5.13184 -28.9541c0.769531 0.668945 2.42383 1.19629 5.08008 1.56348
c3.52344 2.36523 6.64746 5.17383 9.36621 8.42676c5.80469 6.69238 9.77539 14.876 13.5 22.834c14.0996 30.1133 22.2002 62.6709 30.0684 94.833c12.2646 50.1318 24.5439 100.264 36.8193 150.392z" />
    <glyph glyph-name="a" unicode="&#xe4;" horiz-adv-x="355" 
d="M351.745 165.91c3.4502 11.5615 35.9639 9.08496 32.0732 -5.03906c-7.24023 -26.3086 -15.5762 -52.2705 -25.2646 -77.7822c-8.47168 -22.3008 -17.3525 -46.918 -34.3652 -64.3428c-31.6562 -32.4297 -85.9912 -24.9531 -116.964 4.86914
c-27.7725 26.7393 -37.6689 66.5439 -41.4033 105.708c-2.0498 -7.75391 -4.10254 -15.5078 -6.23828 -23.2334c-8.01367 -28.9863 -17.248 -63.3096 -37.7002 -86.3311c-19.8555 -22.3486 -45.998 -23.1494 -73.4346 -18.4121
c-72.5918 12.5352 -74.4121 114.051 -68.1602 170.546c7.0918 64.0928 29.5557 126.319 78.2793 170.733c22.5947 20.6016 55.96 36.5039 86.9473 36.7188c20.2891 0.142578 35.7656 -5.8252 48.5889 -16.9668c27.54 16.1865 90.9805 9.07129 88.9971 -21.5586
c-5.65527 -87.3779 -19.3633 -174.354 -15.5938 -262.237c0.749023 -17.5049 -1.1543 -37.3574 3.28809 -54.4707c1.62305 -6.25586 0.50293 -6.92871 6.03418 -6.70996c4.53223 0.180664 8.94629 5.28516 12.1367 8.24316c7.42773 6.89062 13.1914 15.2402 18.1367 24.0273
c20.123 35.7549 32.96 77.0889 44.6426 116.238zM171.32 298.127c2.02539 12.3584 4.49414 24.6426 7.44141 36.8174c-8.81445 12.5732 -22.9316 25.3965 -37.1523 12.8398c-9.0752 -8.01367 -15.8652 -22.5742 -21.8848 -32.9463
c-14.3564 -24.7344 -24.5029 -52.1807 -31.8887 -79.7412c-16.2734 -60.7188 -22.2168 -123.452 -16.4814 -186.064c0.652344 -7.11523 1.62305 -20.833 5.13184 -28.9541c0.769531 0.668945 2.42383 1.19629 5.08008 1.56348
c3.52344 2.36523 6.64746 5.17383 9.36621 8.42676c5.80469 6.69238 9.77539 14.876 13.5 22.834c14.0996 30.1133 22.2002 62.6709 30.0684 94.833c12.2646 50.1318 24.5439 100.264 36.8193 150.392z" />
    <glyph glyph-name="a" unicode="&#xe3;" horiz-adv-x="355" 
d="M351.745 165.91c3.4502 11.5615 35.9639 9.08496 32.0732 -5.03906c-7.24023 -26.3086 -15.5762 -52.2705 -25.2646 -77.7822c-8.47168 -22.3008 -17.3525 -46.918 -34.3652 -64.3428c-31.6562 -32.4297 -85.9912 -24.9531 -116.964 4.86914
c-27.7725 26.7393 -37.6689 66.5439 -41.4033 105.708c-2.0498 -7.75391 -4.10254 -15.5078 -6.23828 -23.2334c-8.01367 -28.9863 -17.248 -63.3096 -37.7002 -86.3311c-19.8555 -22.3486 -45.998 -23.1494 -73.4346 -18.4121
c-72.5918 12.5352 -74.4121 114.051 -68.1602 170.546c7.0918 64.0928 29.5557 126.319 78.2793 170.733c22.5947 20.6016 55.96 36.5039 86.9473 36.7188c20.2891 0.142578 35.7656 -5.8252 48.5889 -16.9668c27.54 16.1865 90.9805 9.07129 88.9971 -21.5586
c-5.65527 -87.3779 -19.3633 -174.354 -15.5938 -262.237c0.749023 -17.5049 -1.1543 -37.3574 3.28809 -54.4707c1.62305 -6.25586 0.50293 -6.92871 6.03418 -6.70996c4.53223 0.180664 8.94629 5.28516 12.1367 8.24316c7.42773 6.89062 13.1914 15.2402 18.1367 24.0273
c20.123 35.7549 32.96 77.0889 44.6426 116.238zM171.32 298.127c2.02539 12.3584 4.49414 24.6426 7.44141 36.8174c-8.81445 12.5732 -22.9316 25.3965 -37.1523 12.8398c-9.0752 -8.01367 -15.8652 -22.5742 -21.8848 -32.9463
c-14.3564 -24.7344 -24.5029 -52.1807 -31.8887 -79.7412c-16.2734 -60.7188 -22.2168 -123.452 -16.4814 -186.064c0.652344 -7.11523 1.62305 -20.833 5.13184 -28.9541c0.769531 0.668945 2.42383 1.19629 5.08008 1.56348
c3.52344 2.36523 6.64746 5.17383 9.36621 8.42676c5.80469 6.69238 9.77539 14.876 13.5 22.834c14.0996 30.1133 22.2002 62.6709 30.0684 94.833c12.2646 50.1318 24.5439 100.264 36.8193 150.392z" />
    <glyph glyph-name="a" unicode="&#xe2;" horiz-adv-x="355" 
d="M351.745 165.91c3.4502 11.5615 35.9639 9.08496 32.0732 -5.03906c-7.24023 -26.3086 -15.5762 -52.2705 -25.2646 -77.7822c-8.47168 -22.3008 -17.3525 -46.918 -34.3652 -64.3428c-31.6562 -32.4297 -85.9912 -24.9531 -116.964 4.86914
c-27.7725 26.7393 -37.6689 66.5439 -41.4033 105.708c-2.0498 -7.75391 -4.10254 -15.5078 -6.23828 -23.2334c-8.01367 -28.9863 -17.248 -63.3096 -37.7002 -86.3311c-19.8555 -22.3486 -45.998 -23.1494 -73.4346 -18.4121
c-72.5918 12.5352 -74.4121 114.051 -68.1602 170.546c7.0918 64.0928 29.5557 126.319 78.2793 170.733c22.5947 20.6016 55.96 36.5039 86.9473 36.7188c20.2891 0.142578 35.7656 -5.8252 48.5889 -16.9668c27.54 16.1865 90.9805 9.07129 88.9971 -21.5586
c-5.65527 -87.3779 -19.3633 -174.354 -15.5938 -262.237c0.749023 -17.5049 -1.1543 -37.3574 3.28809 -54.4707c1.62305 -6.25586 0.50293 -6.92871 6.03418 -6.70996c4.53223 0.180664 8.94629 5.28516 12.1367 8.24316c7.42773 6.89062 13.1914 15.2402 18.1367 24.0273
c20.123 35.7549 32.96 77.0889 44.6426 116.238zM171.32 298.127c2.02539 12.3584 4.49414 24.6426 7.44141 36.8174c-8.81445 12.5732 -22.9316 25.3965 -37.1523 12.8398c-9.0752 -8.01367 -15.8652 -22.5742 -21.8848 -32.9463
c-14.3564 -24.7344 -24.5029 -52.1807 -31.8887 -79.7412c-16.2734 -60.7188 -22.2168 -123.452 -16.4814 -186.064c0.652344 -7.11523 1.62305 -20.833 5.13184 -28.9541c0.769531 0.668945 2.42383 1.19629 5.08008 1.56348
c3.52344 2.36523 6.64746 5.17383 9.36621 8.42676c5.80469 6.69238 9.77539 14.876 13.5 22.834c14.0996 30.1133 22.2002 62.6709 30.0684 94.833c12.2646 50.1318 24.5439 100.264 36.8193 150.392z" />
    <glyph glyph-name="a" unicode="&#xe1;" horiz-adv-x="355" 
d="M351.745 165.91c3.4502 11.5615 35.9639 9.08496 32.0732 -5.03906c-7.24023 -26.3086 -15.5762 -52.2705 -25.2646 -77.7822c-8.47168 -22.3008 -17.3525 -46.918 -34.3652 -64.3428c-31.6562 -32.4297 -85.9912 -24.9531 -116.964 4.86914
c-27.7725 26.7393 -37.6689 66.5439 -41.4033 105.708c-2.0498 -7.75391 -4.10254 -15.5078 -6.23828 -23.2334c-8.01367 -28.9863 -17.248 -63.3096 -37.7002 -86.3311c-19.8555 -22.3486 -45.998 -23.1494 -73.4346 -18.4121
c-72.5918 12.5352 -74.4121 114.051 -68.1602 170.546c7.0918 64.0928 29.5557 126.319 78.2793 170.733c22.5947 20.6016 55.96 36.5039 86.9473 36.7188c20.2891 0.142578 35.7656 -5.8252 48.5889 -16.9668c27.54 16.1865 90.9805 9.07129 88.9971 -21.5586
c-5.65527 -87.3779 -19.3633 -174.354 -15.5938 -262.237c0.749023 -17.5049 -1.1543 -37.3574 3.28809 -54.4707c1.62305 -6.25586 0.50293 -6.92871 6.03418 -6.70996c4.53223 0.180664 8.94629 5.28516 12.1367 8.24316c7.42773 6.89062 13.1914 15.2402 18.1367 24.0273
c20.123 35.7549 32.96 77.0889 44.6426 116.238zM171.32 298.127c2.02539 12.3584 4.49414 24.6426 7.44141 36.8174c-8.81445 12.5732 -22.9316 25.3965 -37.1523 12.8398c-9.0752 -8.01367 -15.8652 -22.5742 -21.8848 -32.9463
c-14.3564 -24.7344 -24.5029 -52.1807 -31.8887 -79.7412c-16.2734 -60.7188 -22.2168 -123.452 -16.4814 -186.064c0.652344 -7.11523 1.62305 -20.833 5.13184 -28.9541c0.769531 0.668945 2.42383 1.19629 5.08008 1.56348
c3.52344 2.36523 6.64746 5.17383 9.36621 8.42676c5.80469 6.69238 9.77539 14.876 13.5 22.834c14.0996 30.1133 22.2002 62.6709 30.0684 94.833c12.2646 50.1318 24.5439 100.264 36.8193 150.392z" />
    <glyph glyph-name="b" unicode="b" horiz-adv-x="390" 
d="M402.11 169.351c17.2754 4.00195 31.7051 -13.9336 9.24512 -19.1182c-22.5498 -5.20801 -45.1064 -10.4307 -67.5557 -16.0654c-6.43555 -61.207 -30.3379 -119.89 -84.6963 -151.459c-38.9521 -22.623 -89.7285 -34.8984 -129.877 -8.42285
c-35.5576 23.4521 -33.1299 67.9668 -4.50781 96.1553c29.541 29.0938 76.5244 43.793 116.253 56.3877c9.95898 47.1631 13.2188 96.3066 12.667 143.561c-0.214844 18.4443 2.48633 39.4863 -2.41309 57.3691c-1.12305 4.10547 -4.26172 16.7871 -9.37988 18.5518
c-5.21875 1.7959 -12.9971 -4.05371 -17.248 -6.93164c-31.4863 -21.3262 -49.7578 -62.8545 -65.5391 -96.0713c-32.3359 -68.0625 -52.4619 -140.147 -69.3281 -213.291c-0.592773 -7.00488 -1.45605 -14.0059 -2.70801 -21.0039
c-4.45215 -24.8906 -51.2061 -22.8486 -62.4727 -4.82031c-27.873 44.6006 -32.877 98.498 -37.2041 149.878c-4.26855 50.6621 -3.46777 101.852 -2.84668 152.649c1.08496 88.7891 10.1113 177.596 43.6992 260.604c15.1367 37.416 39.3721 72.876 72.5156 96.4141
c28.4551 20.209 70.5244 32.6514 100.551 8.34668c28.9102 -23.4033 24.707 -67.3076 20.293 -100.091c-5.52051 -40.9775 -17.9795 -81.2402 -35.5947 -118.601c-24.4883 -51.9385 -58.8838 -98.1934 -98.4424 -139.552
c-0.541016 -23.2959 -0.856445 -46.5742 -1.07812 -69.7725c-0.274414 -28.8369 -0.208984 -57.75 0.457031 -86.6182c2.45117 7.39258 4.97168 14.7617 7.61426 22.0928c18.0107 49.9893 39.8398 102.843 72.9316 144.947c25.2305 32.0996 65.3682 55.3574 105.693 35.5811
c43.8135 -21.4854 59.3242 -77.7861 66.7832 -121.752c4.36914 -25.7539 6.5918 -53.998 5.45117 -82.3184c18.8809 4.59082 37.8174 8.9668 56.7373 13.3496zM97.2285 470.463c-4.20605 -36.2852 -6.67773 -72.8682 -8.21387 -109.511
c25.8301 31.5977 48.2168 65.8818 65.3916 103.329c15.2578 33.2725 26.1562 68.3926 31.0527 104.709c2.51758 18.6699 4.72656 38.7959 2.0498 57.5693c-1.41504 9.9248 -10.0635 36.6846 -23.7539 32.0381c-12.7334 -4.32422 -22.6992 -24.6797 -28.3584 -35.71
c-7.58691 -14.7861 -12.9268 -30.332 -17.3066 -46.3281c-9.56738 -34.9404 -16.6865 -70.0781 -20.8613 -106.097zM220.782 58.4033c5.50293 13.9883 10.1377 28.3887 14.0947 43.043c-7.34766 -2.70117 -14.6709 -5.47852 -21.9287 -8.42578
c-19.4531 -7.90234 -40.835 -16.1973 -56.5576 -30.5879c-13.8877 -12.709 -23.7637 -33.4209 -15.7568 -52.0352c4.51855 -10.5068 16.8984 -21.0176 28.9102 -19.6094c14.6787 1.71973 22.668 15.4346 29.5166 26.7148c8.13867 13.4062 15.9443 26.2188 21.7217 40.9004z
" />
    <glyph glyph-name="c" unicode="c" horiz-adv-x="250" 
d="M247.099 172.385c3.70703 11.8008 36.7441 9.29102 32.8115 -5.15137c-17.0674 -62.6328 -54.8262 -127.831 -109.112 -165.473c-23.7256 -16.4502 -54.5566 -23.8672 -83.2754 -21.3535c-33.1611 2.90234 -59.0264 22.8691 -77.8867 49.251
c-38.3457 53.627 -34.3271 131.905 -22.0547 193.414c11.96 59.9316 38.917 125.002 97.9814 152.587c26.6768 12.459 60.9961 14.4248 84.7012 -5.63574c22.1025 -18.7041 24.7383 -47.1113 25.1055 -74.2002c0.180664 -13.4961 -33.1055 -13.4199 -34.4062 0
c-1.52246 15.7012 -2.91602 32.2559 -10.9883 46.2129c-1.94531 3.66895 -4.46973 6.8623 -7.58008 9.58105c-1.29297 0.520508 -2.27441 1.00293 -3.10645 1.46387c-1.16504 -1.6543 -2.21875 -3.34668 -3.11328 -4.58105
c-14.7031 -20.3311 -23.5176 -44.8574 -30.0508 -68.9434c-14.8975 -54.9346 -25.9492 -113.874 -24.2881 -170.966c0.766602 -26.2607 3.23926 -55.8291 12.1377 -80.7617c3.72461 -10.4375 10.3789 -24.5439 23.0498 -24.3223
c13.3818 0.235352 28.9062 13.3984 38.1787 21.4678c44.126 38.3936 74.5127 92.0869 91.8965 147.41z" />
    <glyph glyph-name="d" unicode="d" horiz-adv-x="440" 
d="M435.437 178.47c2.75684 10.6807 35.0752 8.72656 32.6787 -2.52246c-12.2197 -57.2266 -29.3711 -114.172 -64.5918 -161.835c-30.0127 -40.6094 -80.2031 -64.9033 -129.988 -43.7441c-55.4131 23.5527 -71.8672 79.0312 -82.4229 133.369
c-5.50684 28.3379 -8.54785 57.0879 -10.0801 85.9453c-6.75488 -27.9912 -13.7871 -55.8955 -21.4473 -83.5947c-8.01367 -28.9863 -17.2441 -63.3096 -37.7002 -86.3311c-19.8555 -22.3486 -45.998 -23.1494 -73.4336 -18.4131
c-72.5918 12.5352 -74.4121 114.051 -68.1602 170.546c7.0918 64.0957 29.5557 126.319 78.2725 170.736c22.5947 20.6016 55.96 36.5039 86.9473 36.7188c15.0215 0.104492 27.3975 -3.15137 38.0225 -9.35449c5.30176 81.2432 18.4512 161.783 54.6504 235.737
c22.498 45.9639 59.5498 96.0293 115.629 98.3838c21.2666 0.894531 40.5781 -5.87402 50.96 -25.2793c11.7656 -21.9883 11.7764 -49.8857 9.48047 -73.9893c-9.79297 -102.771 -67.1963 -192.988 -125.592 -275.258
c-1.30371 -26.3857 -2.16016 -52.7715 -2.75684 -79.0703c-1.06445 -46.8789 -1.82715 -93.4912 1.58887 -140.314c1.77539 -24.3564 4.04688 -49.8682 8.97461 -73.8086c3.31152 -16.0938 6.90723 -33.1094 18.8672 -45.1035
c2.20898 -1.83105 4.35547 -3.73438 6.43945 -5.7041c0.0517578 -0.0419922 0.0869141 -0.0732422 0.135742 -0.115234c2.62109 0.776367 7.83984 1.49023 8.07227 1.57324c8.67285 3.03418 16.2285 9.23828 22.8408 15.4385
c15.5459 14.5742 27.4502 32.8037 37.666 51.3691c21.3818 38.8623 33.917 81.8818 44.9473 124.62zM310.879 528.825c-8.58203 -44.3096 -14.2012 -89.2197 -17.9668 -134.316c40.6309 61.8594 77.3086 127.359 85.9189 201.519
c2.62109 22.5781 4.74023 51.5156 -5.87109 72.46c-1.80664 3.56836 -4.10938 9.74805 -8.02734 11.6035c1.6748 -1.24512 -3.64844 -3.83203 -5.23633 -5.76367c-5.05566 -6.15137 -8.03809 -14.2617 -11.6025 -21.2871
c-19.7207 -38.8584 -28.9727 -81.6562 -37.2148 -124.215zM134.498 147.736c15.1533 61.9326 30.3135 123.86 45.4844 185.785c-0.416016 0.402344 -0.800781 0.822266 -1.12012 1.27637c-8.80762 12.6191 -22.9795 25.5918 -37.2559 12.9873
c-9.0752 -8.01367 -15.8652 -22.5742 -21.8848 -32.9463c-14.3564 -24.7344 -24.5029 -52.1807 -31.8887 -79.7412c-16.2734 -60.7188 -22.2168 -123.452 -16.4814 -186.064c0.652344 -7.11523 1.62305 -20.833 5.13184 -28.9541
c0.769531 0.668945 2.42383 1.19629 5.08008 1.56348c3.52344 2.36523 6.64746 5.17383 9.36621 8.42676c5.80469 6.69238 9.77539 14.876 13.5 22.834c14.0996 30.1133 22.2002 62.6709 30.0684 94.833z" />
    <glyph glyph-name="e" unicode="e" horiz-adv-x="258" 
d="M255.058 177.548c4.82715 11.6543 38.3584 8.80957 33.1777 -5.21387c-13.9951 -37.8633 -33.9033 -72.5186 -59.4873 -103.755c-22.7334 -27.752 -51.792 -59.0615 -86.4443 -71.3994c-33.1572 -11.8076 -70.5244 -6.61621 -99.2158 13.5166
c-32.1143 22.5361 -50.8955 57.2373 -58.8467 95.0137c-15.5732 74 -2.82617 162.89 47.5938 221.44c23.2158 26.9648 57.0986 49.2861 93.1035 52.2891c31.0459 2.58984 60.2471 -12.9697 65.3447 -45.666c5.14258 -32.9844 -16.7588 -67.0195 -37.5195 -90.7246
c-20.709 -23.6426 -42.6836 -41.9658 -70.2617 -55.8574c-3.87695 -32.9326 -4.83398 -65.9307 -0.478516 -100.073c2.86426 -22.4561 4.78906 -50.332 23.0322 -66.2627c19.3525 -16.8975 48.3418 14.6025 62.4551 27.9219
c38.1924 36.0527 67.4834 80.3311 87.5469 128.771zM94.7158 259.521c-2.30273 -11.1553 -4.46484 -22.2275 -6.41016 -33.2617c10.1807 7.23047 19.7793 15.0879 27.9141 23.8711c18.7773 20.2754 39.9443 52.2988 35.5088 81.292
c-1.62988 10.6387 -9.33105 27.793 -21.6553 21.7803c-9.14453 -4.46289 -15.0566 -15.7012 -18.7324 -24.6338c-9.0752 -22.0713 -11.8359 -45.8662 -16.625 -69.0479z" />
    <glyph glyph-name="e" unicode="&#xeb;" horiz-adv-x="258" 
d="M255.058 177.548c4.82715 11.6543 38.3584 8.80957 33.1777 -5.21387c-13.9951 -37.8633 -33.9033 -72.5186 -59.4873 -103.755c-22.7334 -27.752 -51.792 -59.0615 -86.4443 -71.3994c-33.1572 -11.8076 -70.5244 -6.61621 -99.2158 13.5166
c-32.1143 22.5361 -50.8955 57.2373 -58.8467 95.0137c-15.5732 74 -2.82617 162.89 47.5938 221.44c23.2158 26.9648 57.0986 49.2861 93.1035 52.2891c31.0459 2.58984 60.2471 -12.9697 65.3447 -45.666c5.14258 -32.9844 -16.7588 -67.0195 -37.5195 -90.7246
c-20.709 -23.6426 -42.6836 -41.9658 -70.2617 -55.8574c-3.87695 -32.9326 -4.83398 -65.9307 -0.478516 -100.073c2.86426 -22.4561 4.78906 -50.332 23.0322 -66.2627c19.3525 -16.8975 48.3418 14.6025 62.4551 27.9219
c38.1924 36.0527 67.4834 80.3311 87.5469 128.771zM94.7158 259.521c-2.30273 -11.1553 -4.46484 -22.2275 -6.41016 -33.2617c10.1807 7.23047 19.7793 15.0879 27.9141 23.8711c18.7773 20.2754 39.9443 52.2988 35.5088 81.292
c-1.62988 10.6387 -9.33105 27.793 -21.6553 21.7803c-9.14453 -4.46289 -15.0566 -15.7012 -18.7324 -24.6338c-9.0752 -22.0713 -11.8359 -45.8662 -16.625 -69.0479z" />
    <glyph glyph-name="e" unicode="&#xea;" horiz-adv-x="258" 
d="M255.058 177.548c4.82715 11.6543 38.3584 8.80957 33.1777 -5.21387c-13.9951 -37.8633 -33.9033 -72.5186 -59.4873 -103.755c-22.7334 -27.752 -51.792 -59.0615 -86.4443 -71.3994c-33.1572 -11.8076 -70.5244 -6.61621 -99.2158 13.5166
c-32.1143 22.5361 -50.8955 57.2373 -58.8467 95.0137c-15.5732 74 -2.82617 162.89 47.5938 221.44c23.2158 26.9648 57.0986 49.2861 93.1035 52.2891c31.0459 2.58984 60.2471 -12.9697 65.3447 -45.666c5.14258 -32.9844 -16.7588 -67.0195 -37.5195 -90.7246
c-20.709 -23.6426 -42.6836 -41.9658 -70.2617 -55.8574c-3.87695 -32.9326 -4.83398 -65.9307 -0.478516 -100.073c2.86426 -22.4561 4.78906 -50.332 23.0322 -66.2627c19.3525 -16.8975 48.3418 14.6025 62.4551 27.9219
c38.1924 36.0527 67.4834 80.3311 87.5469 128.771zM94.7158 259.521c-2.30273 -11.1553 -4.46484 -22.2275 -6.41016 -33.2617c10.1807 7.23047 19.7793 15.0879 27.9141 23.8711c18.7773 20.2754 39.9443 52.2988 35.5088 81.292
c-1.62988 10.6387 -9.33105 27.793 -21.6553 21.7803c-9.14453 -4.46289 -15.0566 -15.7012 -18.7324 -24.6338c-9.0752 -22.0713 -11.8359 -45.8662 -16.625 -69.0479z" />
    <glyph glyph-name="e" unicode="&#xe9;" horiz-adv-x="258" 
d="M255.058 177.548c4.82715 11.6543 38.3584 8.80957 33.1777 -5.21387c-13.9951 -37.8633 -33.9033 -72.5186 -59.4873 -103.755c-22.7334 -27.752 -51.792 -59.0615 -86.4443 -71.3994c-33.1572 -11.8076 -70.5244 -6.61621 -99.2158 13.5166
c-32.1143 22.5361 -50.8955 57.2373 -58.8467 95.0137c-15.5732 74 -2.82617 162.89 47.5938 221.44c23.2158 26.9648 57.0986 49.2861 93.1035 52.2891c31.0459 2.58984 60.2471 -12.9697 65.3447 -45.666c5.14258 -32.9844 -16.7588 -67.0195 -37.5195 -90.7246
c-20.709 -23.6426 -42.6836 -41.9658 -70.2617 -55.8574c-3.87695 -32.9326 -4.83398 -65.9307 -0.478516 -100.073c2.86426 -22.4561 4.78906 -50.332 23.0322 -66.2627c19.3525 -16.8975 48.3418 14.6025 62.4551 27.9219
c38.1924 36.0527 67.4834 80.3311 87.5469 128.771zM94.7158 259.521c-2.30273 -11.1553 -4.46484 -22.2275 -6.41016 -33.2617c10.1807 7.23047 19.7793 15.0879 27.9141 23.8711c18.7773 20.2754 39.9443 52.2988 35.5088 81.292
c-1.62988 10.6387 -9.33105 27.793 -21.6553 21.7803c-9.14453 -4.46289 -15.0566 -15.7012 -18.7324 -24.6338c-9.0752 -22.0713 -11.8359 -45.8662 -16.625 -69.0479z" />
    <glyph glyph-name="f" unicode="f" horiz-adv-x="312" 
d="M243.018 49.7197c-18.8916 -20.418 -38.5098 -40.1318 -57.6475 -60.3066c-11.4297 -12.0498 -22.6855 -24.8037 -34.5625 -36.7676c54.4521 -7.25391 103.187 -42.2354 110 -102.239c7.57324 -66.707 -44.3682 -128.182 -113.683 -114.363
c-79.8291 15.9131 -118.448 86.4033 -137.836 159.422c-22.3662 84.2256 -24.2246 173.958 -23.001 260.562c1.26562 89.5869 9.96582 179.087 21.4717 267.869c2.92676 22.5811 31.8604 28.9375 50.7695 28.9375c15.6699 0 52.2295 -6.60938 50.7695 -28.9375
c-5.32324 -81.3164 -13.542 -162.421 -17.8457 -243.803c-3.74805 -70.8408 -5.125 -141.744 -2.00391 -212.65c0.294922 -6.73047 0.641602 -13.4893 1.04395 -20.2578c17.7822 19.627 39.7051 36.2959 59.2803 54.0889c19.3604 17.5986 37.8564 36.0635 55.999 54.9141
c37.5576 39.0176 72.8135 80.2822 104.591 124.165c6.92188 9.55664 39.4795 6.49121 32.0791 -5.04199c-28.9375 -45.1006 -63.0732 -86.2998 -99.4248 -125.592zM223.878 -159.64c-1.56055 49.3135 -49.4834 105.937 -103.086 87.5996
c-5.53418 -1.89355 -20.7988 -1.13086 -29.2217 3.29004c3.74121 -48.9248 11.8623 -97.9053 33.667 -142.114c12.9102 -26.1777 40.1523 -46.7861 67.4424 -24.7939c22.1377 17.8379 32.0723 48.3848 31.1982 76.0186z" />
    <glyph glyph-name="g" unicode="g" horiz-adv-x="357" 
d="M357.563 174.919c8.14551 9.20312 41.2383 3.40137 30.0342 -10.0117c-32.0303 -38.3457 -66.0166 -75.3662 -98.1826 -113.773c-0.301758 -16.5508 -0.589844 -33.0947 -0.835938 -49.6289c-0.766602 -51.7373 -1.22461 -104.237 -6.81445 -155.718
c-5.17383 -47.6631 -9.1582 -99.8516 -26.5557 -144.962c-13.042 -33.8203 -41.8027 -74.1348 -81.5 -74.4639c-42.8184 -0.353516 -69.6338 31.8887 -75.4453 71.9541c-6.52637 45.0068 4.72266 92.8154 19.6992 135.079c15.625 44.1016 36.5938 87.3047 61.8799 126.677
c4.7334 7.37207 9.64355 14.6123 14.6338 21.79c-3.08301 77.7236 -6.33203 155.451 -7.39355 233.206c-8.59277 -36.5 -17.5215 -72.9102 -27.4941 -108.978c-8.01758 -28.9863 -17.248 -63.3096 -37.7041 -86.3311c-19.8555 -22.3486 -45.998 -23.1494 -73.4346 -18.4131
c-72.5918 12.5352 -74.4121 114.051 -68.1602 170.546c7.0918 64.0957 29.5557 126.319 78.2725 170.736c22.5947 20.6016 55.96 36.5039 86.9473 36.7188c17.5527 0.125 31.5137 -4.30273 43.2617 -12.708c7.40723 36.001 99.6123 34.5449 101.065 -3.85938
c3.30469 -87.3887 2.08105 -175.071 0.482422 -262.64c22.3594 25.0264 45.0791 49.7363 67.2441 74.7793zM134.505 147.736c15.1533 61.9326 30.3135 123.86 45.4844 185.785c-0.416016 0.402344 -0.800781 0.822266 -1.12012 1.27637
c-8.80762 12.6191 -22.9795 25.5918 -37.2559 12.9873c-9.0752 -8.01367 -15.8652 -22.5742 -21.8848 -32.9463c-14.3564 -24.7344 -24.5029 -52.1807 -31.8887 -79.7412c-16.2734 -60.7188 -22.2168 -123.452 -16.4814 -186.064
c0.652344 -7.11523 1.62305 -20.833 5.13184 -28.9541c0.769531 0.668945 2.42383 1.19629 5.08008 1.56348c3.52344 2.36523 6.64746 5.17383 9.36621 8.42676c5.80469 6.69238 9.77539 14.876 13.5 22.834c14.0996 30.1133 22.2002 62.6709 30.0684 94.833z
M195.061 -321.726c8.58594 39.7666 5.83496 83.249 5.12109 123.616c-0.693359 39.3506 -1.9209 78.6943 -3.3457 118.035c-36.5244 -64.5156 -67.7715 -139.393 -63.25 -213.115c1.23828 -20.1748 6.80078 -44.1221 25.0059 -55.916
c21.4199 -13.8779 32.5576 9.26172 36.4688 27.3799z" />
    <glyph glyph-name="h" unicode="h" horiz-adv-x="375" 
d="M372.056 147.417c3.49512 11.707 36.5713 9.11914 32.4443 -5.10156c-7.95801 -27.3945 -18.0244 -54.0781 -30.7061 -79.6523c-10.5518 -21.2842 -22.1406 -44.4131 -40.8105 -59.8164c-36.3027 -29.9531 -97.0312 -16.9014 -124.301 19.2695
c-34.8564 46.2344 -26.5059 112.23 -19.9521 166.045c3.58887 29.458 6.5957 59.0371 11.9355 88.2451c2.80176 15.3203 6.9834 30.4844 9.17871 45.915c0.797852 5.60059 0.87793 11.0859 1.19727 16.6865c0.0107422 0.208008 0.0283203 0.509766 0.0458984 0.856445
c-9.91699 -8.0625 -21.4229 -26.3164 -24.4463 -30.7617c-7.58398 -11.1523 -14.2666 -22.918 -20.3037 -34.9678c-12.2031 -24.3564 -21.6211 -50 -30.1133 -75.8477c-17.8691 -54.4004 -33.4736 -109.692 -46.2793 -165.528
c-0.585938 -7.91992 -1.50879 -15.8398 -2.92383 -23.75c-4.45215 -24.8906 -51.2061 -22.8486 -62.4727 -4.82031c-27.873 44.6006 -32.877 98.498 -37.2041 149.878c-4.26855 50.6621 -3.46777 101.852 -2.84668 152.649c1.08887 88.7891 10.1113 177.596 43.6992 260.604
c15.1367 37.416 39.3721 72.876 72.5156 96.4141c28.4551 20.209 70.5244 32.6514 100.551 8.34668c28.9102 -23.4033 24.707 -67.3076 20.293 -100.091c-5.52051 -40.9775 -17.9795 -81.2402 -35.5947 -118.601c-24.4883 -51.9385 -58.8838 -98.1934 -98.4424 -139.552
c-0.541016 -23.2959 -0.856445 -46.5742 -1.07812 -69.7725c-0.270508 -28.5635 -0.201172 -57.1992 0.443359 -85.79c7.41016 24.6338 15.4062 49.0596 24.207 73.0938c10.625 29.0068 23.3301 57.5391 40.6787 83.207c14.6582 21.6836 32.4268 46.6191 60.4141 50.1182
c13.4092 1.67871 27.4951 -1.88574 40.0205 -6.39355c14.0859 -5.06641 21.9883 -17.2617 27.8447 -30.5674c14.0996 -32.0273 15.5527 -71.2256 14.5088 -105.652c-1.09961 -36.1885 -2.34082 -72.5576 -5.94727 -108.587
c-2.98242 -29.7695 -11.5723 -60.6836 -5.52441 -90.335c1.06152 -5.20801 0.0664062 -12.6084 6.55469 -14.4287c5.23926 -1.4707 13.2734 4.66406 17.2373 7.94824c12.6016 10.4346 20.5459 26.1465 28.1777 40.333c15.4863 28.7812 27.6504 59.1094 36.999 90.4053z
M97.2256 470.462c-4.20605 -36.2852 -6.67773 -72.8682 -8.21387 -109.511c25.8301 31.5977 48.2168 65.8818 65.3916 103.329c15.2578 33.2725 26.1562 68.3926 31.0527 104.709c2.51758 18.6699 4.72656 38.7959 2.0498 57.5693
c-1.41504 9.9248 -10.0635 36.6846 -23.7539 32.0381c-12.7334 -4.32422 -22.6992 -24.6797 -28.3584 -35.71c-7.58691 -14.7861 -12.9268 -30.332 -17.3066 -46.3281c-9.56738 -34.9404 -16.6865 -70.0781 -20.8613 -106.097z" />
    <glyph glyph-name="i" unicode="i" horiz-adv-x="173" 
d="M170.373 165.91c3.4502 11.5615 35.9678 9.08691 32.0801 -5.03711c-7.24023 -26.3086 -15.5732 -52.2705 -25.2656 -77.7822c-8.47168 -22.3008 -17.3525 -46.918 -34.3652 -64.3428c-31.6562 -32.4297 -85.9912 -24.9531 -116.964 4.86816
c-39.9824 38.4941 -42.9336 104.071 -43.752 155.826c-0.898438 56.8447 3.70312 114.221 18.7803 169.155c8.77637 31.9785 103.252 29.4883 100.842 -7.77832c-5.65527 -87.3779 -19.3633 -174.354 -15.5938 -262.237
c0.749023 -17.5049 -1.1543 -37.3574 3.28809 -54.4707c1.62305 -6.25586 0.50293 -6.92871 6.03418 -6.70996c4.53223 0.180664 8.94629 5.28516 12.1367 8.24316c7.42773 6.89062 13.1914 15.2402 18.1367 24.0273c20.123 35.7549 32.96 77.0889 44.6426 116.238z
M33.5957 420.2c-16.832 22.5605 -29.582 46.8643 -36.6768 74.2168c-4.72656 18.2188 -14.1514 46.4385 9.31445 54.7363c19.2178 6.7998 39.4688 -3.01367 49.3721 -19.582c12.6016 24.5928 32.4014 42.6768 60.7803 39.2822
c30.4287 -3.6377 14.5986 -36.9131 6.00586 -54.1367c-15.584 -31.2363 -33.9658 -61.207 -53.3086 -90.2344c-0.742188 -1.11621 -1.74805 -2.06934 -2.94434 -2.88086c-5.77344 -6.36328 -27.1025 -8.69336 -32.543 -1.40137z" />
    <glyph glyph-name="i" unicode="&#xef;" horiz-adv-x="173" 
d="M170.373 165.91c3.4502 11.5615 35.9678 9.08691 32.0801 -5.03711c-7.24023 -26.3086 -15.5732 -52.2705 -25.2656 -77.7822c-8.47168 -22.3008 -17.3525 -46.918 -34.3652 -64.3428c-31.6562 -32.4297 -85.9912 -24.9531 -116.964 4.86816
c-39.9824 38.4941 -42.9336 104.071 -43.752 155.826c-0.898438 56.8447 3.70312 114.221 18.7803 169.155c8.77637 31.9785 103.252 29.4883 100.842 -7.77832c-5.65527 -87.3779 -19.3633 -174.354 -15.5938 -262.237
c0.749023 -17.5049 -1.1543 -37.3574 3.28809 -54.4707c1.62305 -6.25586 0.50293 -6.92871 6.03418 -6.70996c4.53223 0.180664 8.94629 5.28516 12.1367 8.24316c7.42773 6.89062 13.1914 15.2402 18.1367 24.0273c20.123 35.7549 32.96 77.0889 44.6426 116.238z
M33.5957 420.2c-16.832 22.5605 -29.582 46.8643 -36.6768 74.2168c-4.72656 18.2188 -14.1514 46.4385 9.31445 54.7363c19.2178 6.7998 39.4688 -3.01367 49.3721 -19.582c12.6016 24.5928 32.4014 42.6768 60.7803 39.2822
c30.4287 -3.6377 14.5986 -36.9131 6.00586 -54.1367c-15.584 -31.2363 -33.9658 -61.207 -53.3086 -90.2344c-0.742188 -1.11621 -1.74805 -2.06934 -2.94434 -2.88086c-5.77344 -6.36328 -27.1025 -8.69336 -32.543 -1.40137z" />
    <glyph glyph-name="i" unicode="&#xee;" horiz-adv-x="173" 
d="M170.373 165.91c3.4502 11.5615 35.9678 9.08691 32.0801 -5.03711c-7.24023 -26.3086 -15.5732 -52.2705 -25.2656 -77.7822c-8.47168 -22.3008 -17.3525 -46.918 -34.3652 -64.3428c-31.6562 -32.4297 -85.9912 -24.9531 -116.964 4.86816
c-39.9824 38.4941 -42.9336 104.071 -43.752 155.826c-0.898438 56.8447 3.70312 114.221 18.7803 169.155c8.77637 31.9785 103.252 29.4883 100.842 -7.77832c-5.65527 -87.3779 -19.3633 -174.354 -15.5938 -262.237
c0.749023 -17.5049 -1.1543 -37.3574 3.28809 -54.4707c1.62305 -6.25586 0.50293 -6.92871 6.03418 -6.70996c4.53223 0.180664 8.94629 5.28516 12.1367 8.24316c7.42773 6.89062 13.1914 15.2402 18.1367 24.0273c20.123 35.7549 32.96 77.0889 44.6426 116.238z
M33.5957 420.2c-16.832 22.5605 -29.582 46.8643 -36.6768 74.2168c-4.72656 18.2188 -14.1514 46.4385 9.31445 54.7363c19.2178 6.7998 39.4688 -3.01367 49.3721 -19.582c12.6016 24.5928 32.4014 42.6768 60.7803 39.2822
c30.4287 -3.6377 14.5986 -36.9131 6.00586 -54.1367c-15.584 -31.2363 -33.9658 -61.207 -53.3086 -90.2344c-0.742188 -1.11621 -1.74805 -2.06934 -2.94434 -2.88086c-5.77344 -6.36328 -27.1025 -8.69336 -32.543 -1.40137z" />
    <glyph glyph-name="i" unicode="&#xed;" horiz-adv-x="173" 
d="M170.373 165.91c3.4502 11.5615 35.9678 9.08691 32.0801 -5.03711c-7.24023 -26.3086 -15.5732 -52.2705 -25.2656 -77.7822c-8.47168 -22.3008 -17.3525 -46.918 -34.3652 -64.3428c-31.6562 -32.4297 -85.9912 -24.9531 -116.964 4.86816
c-39.9824 38.4941 -42.9336 104.071 -43.752 155.826c-0.898438 56.8447 3.70312 114.221 18.7803 169.155c8.77637 31.9785 103.252 29.4883 100.842 -7.77832c-5.65527 -87.3779 -19.3633 -174.354 -15.5938 -262.237
c0.749023 -17.5049 -1.1543 -37.3574 3.28809 -54.4707c1.62305 -6.25586 0.50293 -6.92871 6.03418 -6.70996c4.53223 0.180664 8.94629 5.28516 12.1367 8.24316c7.42773 6.89062 13.1914 15.2402 18.1367 24.0273c20.123 35.7549 32.96 77.0889 44.6426 116.238z
M33.5957 420.2c-16.832 22.5605 -29.582 46.8643 -36.6768 74.2168c-4.72656 18.2188 -14.1514 46.4385 9.31445 54.7363c19.2178 6.7998 39.4688 -3.01367 49.3721 -19.582c12.6016 24.5928 32.4014 42.6768 60.7803 39.2822
c30.4287 -3.6377 14.5986 -36.9131 6.00586 -54.1367c-15.584 -31.2363 -33.9658 -61.207 -53.3086 -90.2344c-0.742188 -1.11621 -1.74805 -2.06934 -2.94434 -2.88086c-5.77344 -6.36328 -27.1025 -8.69336 -32.543 -1.40137z" />
    <glyph glyph-name="j" unicode="j" horiz-adv-x="158" 
d="M158.199 174.919c8.14551 9.20312 41.2383 3.40039 30.0342 -10.0127c-32.0303 -38.3457 -66.0166 -75.3662 -98.1826 -113.773c-0.301758 -16.5508 -0.589844 -33.0947 -0.835938 -49.6289c-0.766602 -51.7373 -1.22461 -104.237 -6.81445 -155.718
c-5.17383 -47.6631 -9.1582 -99.8516 -26.5557 -144.962c-13.042 -33.8203 -41.8027 -74.1348 -81.5 -74.4639c-42.8223 -0.353516 -69.6377 31.8887 -75.4492 71.9541c-6.52637 45.0068 4.72266 92.8154 19.6992 135.079c15.625 44.1016 36.5938 87.3047 61.8799 126.677
c4.7334 7.37207 9.64355 14.6123 14.6338 21.79c-5.03809 126.927 -10.5723 253.854 -6.17188 380.919c1.37988 39.9229 100.034 39.7324 101.536 0c3.30469 -87.3887 2.08105 -175.071 0.482422 -262.64c22.3594 25.0264 45.0791 49.7363 67.2441 74.7793z
M-4.30371 -321.726c8.58594 39.7666 5.83496 83.249 5.12109 123.616c-0.693359 39.3506 -1.9209 78.6943 -3.3457 118.035c-36.5283 -64.5156 -67.7754 -139.393 -63.25 -213.115c1.23828 -20.1748 6.80078 -44.1221 25.0059 -55.916
c21.4199 -13.8779 32.5576 9.26172 36.4688 27.3799zM15.4609 420.2c-16.832 22.5605 -29.585 46.8643 -36.6768 74.2168c-4.72656 18.2188 -14.1514 46.4385 9.31445 54.7363c19.2178 6.7998 39.4688 -3.01367 49.3721 -19.582
c12.6016 24.5928 32.4014 42.6768 60.7803 39.2822c30.4287 -3.6377 14.5986 -36.9131 6.00586 -54.1367c-15.584 -31.2363 -33.9658 -61.207 -53.3086 -90.2344c-0.742188 -1.11621 -1.74805 -2.06934 -2.94434 -2.88086
c-5.77344 -6.36328 -27.1025 -8.69336 -32.543 -1.40137z" />
    <glyph glyph-name="k" unicode="k" horiz-adv-x="334" 
d="M327.771 171.996c4.52148 12.667 40.5068 9.58594 35.3818 -5.54688c-14.7373 -43.4111 -28.7705 -89.0039 -51.3418 -129.135c-18.6768 -33.21 -49.7812 -53.6172 -88.7363 -49.5527c-46.9453 4.89941 -81.4209 32.3184 -102.262 73.6562
c-9.14062 18.1289 -17.1123 36.6738 -26.5928 54.6641c-1.9834 3.7627 -4.1123 8.61426 -6.47363 13.7051c0.0273438 -0.762695 0.0380859 -1.5293 0.0693359 -2.2959c1.5293 -39.6592 6.24219 -79.1348 -0.793945 -118.472
c-4.45215 -24.8906 -51.2061 -22.8486 -62.4727 -4.82031c-27.873 44.6006 -32.877 98.498 -37.2041 149.878c-4.26855 50.6621 -3.46777 101.852 -2.84668 152.649c1.08887 88.7891 10.1113 177.596 43.6992 260.604c15.1367 37.416 39.3721 72.876 72.5156 96.4141
c28.4551 20.209 70.5244 32.6514 100.551 8.34668c28.9102 -23.4033 24.707 -67.3076 20.293 -100.091c-5.52051 -40.9775 -17.9795 -81.2402 -35.5947 -118.601c-24.4883 -51.9385 -58.8838 -98.1934 -98.4424 -139.552
c-0.541016 -23.2959 -0.856445 -46.5742 -1.07812 -69.7725v-0.0078125c10.1738 19.8486 21.8213 38.8994 35.1787 56.7227c27.6611 36.9062 77.3799 83.3555 128.285 64.6787c58.499 -21.4648 -18.5518 -89.4932 -40.8174 -108.107
c-22.0264 -18.4131 -45.0898 -35.5674 -67.7998 -53.1172c-10.9785 -8.48535 -22.04 -16.9434 -33.4834 -24.7871c29.8252 -6.82129 54.3135 -25.7686 73.4199 -50.9229c21.1768 -27.8799 31.9893 -60.6113 48.627 -90.9844
c5.02441 -9.17188 10.3613 -21.8008 21.624 -15.916c15.9551 8.33984 25.3213 26.958 33.123 42.3857c17.4766 34.5693 30.168 71.5654 43.1719 107.976zM136.47 263.392c-7.57324 -12.8203 -14.5361 -26.0195 -21.0137 -39.46
c12.9795 7.64941 25.7305 15.6699 37.7939 24.7549c11.9844 9.02246 107.063 81.4932 78.6875 98.6133c-15.6045 9.41504 -46.5186 -21.4502 -55.625 -30.6982c-15.6318 -15.8779 -28.5283 -34.0654 -39.8428 -53.21zM97.2227 470.465
c-4.20605 -36.2852 -6.67773 -72.8682 -8.21387 -109.511c25.8301 31.5977 48.2168 65.8818 65.3916 103.329c15.2578 33.2725 26.1562 68.3926 31.0527 104.709c2.51758 18.6699 4.72656 38.7959 2.0498 57.5693c-1.41504 9.9248 -10.0635 36.6846 -23.7539 32.0381
c-12.7334 -4.32422 -22.6992 -24.6797 -28.3584 -35.71c-7.58691 -14.7861 -12.9268 -30.332 -17.3066 -46.3281c-9.56738 -34.9404 -16.6865 -70.0781 -20.8613 -106.097z" />
    <glyph glyph-name="l" unicode="l" horiz-adv-x="244" 
d="M239.744 178.47c2.75684 10.6807 35.0732 8.72754 32.6699 -2.52148c-12.2197 -57.2266 -29.3711 -114.172 -64.5918 -161.835c-30.0127 -40.6094 -80.2031 -64.9033 -129.988 -43.7441c-55.4131 23.5527 -71.8672 79.0312 -82.4229 133.369
c-10.8262 55.7285 -12.1543 113.062 -11.1309 169.672c2.0459 112.938 7.65625 229.048 58.2041 332.317c22.498 45.9639 59.5498 96.0293 115.629 98.3838c21.2676 0.894531 40.5791 -5.87402 50.9609 -25.2793c11.7695 -21.9883 11.7803 -49.8857 9.48438 -73.9893
c-9.79297 -102.771 -67.1963 -192.988 -125.592 -275.258c-1.30371 -26.3857 -2.16016 -52.7715 -2.75684 -79.0703c-1.06445 -46.8789 -1.82715 -93.4912 1.58887 -140.314c1.77539 -24.3564 4.04688 -49.8682 8.97461 -73.8086
c3.31152 -16.0938 6.9043 -33.1094 18.8682 -45.1035c2.20898 -1.83105 4.35547 -3.73438 6.43945 -5.7041c0.0517578 -0.0419922 0.0869141 -0.0732422 0.135742 -0.115234c2.62109 0.776367 7.83984 1.49023 8.07227 1.57324
c8.67285 3.03418 16.2285 9.23828 22.8418 15.4385c15.5459 14.5742 27.4502 32.8037 37.666 51.3691c21.3818 38.8623 33.917 81.8818 44.9473 124.62zM115.185 528.826c-8.58203 -44.3096 -14.2012 -89.2197 -17.9668 -134.316
c40.6309 61.8594 77.3086 127.359 85.9189 201.519c2.62109 22.5781 4.74023 51.5156 -5.87109 72.46c-1.80664 3.56836 -4.10938 9.74805 -8.02734 11.6035c1.6748 -1.24512 -3.64844 -3.83203 -5.23633 -5.76367c-5.05566 -6.15137 -8.03809 -14.2617 -11.6025 -21.2871
c-19.7207 -38.8584 -28.9727 -81.6562 -37.2148 -124.215z" />
    <glyph glyph-name="m" unicode="m" horiz-adv-x="545" 
d="M538.999 154.426c4.32031 12.4033 39.4727 9.50098 34.6357 -5.43457c-11.5264 -35.6055 -24.2734 -70.8711 -40.5889 -104.598c-13.4473 -27.8037 -28.0566 -57.4561 -53.1309 -76.5908c-25.6846 -19.6025 -64.1758 -24.0205 -92.6172 -6.7793
c-29.7559 18.0391 -32.2734 54.5156 -33.4766 85.7695c-2.69434 69.9873 10.7188 140.942 18.1289 210.319c1.9248 18.0176 5.48926 36.0635 6.50488 54.1367c0.391602 7.01172 -0.288086 13.9258 -0.229492 20.917c0.0107422 1.43555 2.84375 15.9199 1.46387 17.0918
c-7.84082 6.6543 -43.4639 -74.8906 -46.4463 -82.8389c-25.127 -66.9883 -38.8799 -135.509 -51.623 -205.639c-0.294922 -1.62988 -1.10254 -3.04492 -2.25 -4.26172c-0.0449219 -0.918945 -0.0898438 -1.8418 -0.134766 -2.76074
c-1.93164 -38.2832 -95.8457 -38.1172 -97.3643 -0.000976562c-2.32324 58.3018 5.08398 116.541 8.35352 174.687c1.49121 26.5449 4.83008 53.0859 5.31934 79.6865c0.194336 10.5898 -0.870117 25.9893 1.78223 36.5654
c-2.51367 -5.29883 -9.05762 -11.0273 -12.3828 -16.0029c-29.749 -44.5312 -46.0156 -100.457 -61.8701 -151.105c-15.7188 -50.208 -28.7539 -101.221 -42.4443 -152.012c-1.43555 -10.666 -3.3291 -21.2422 -5.84277 -31.6797
c-5.22266 -21.6904 -59.3457 -18.5977 -66.8252 -0.000976562c-21.6279 53.7656 -22.373 116.683 -22.8379 173.996c-0.474609 58.4678 -0.0478516 117.605 9.34277 175.442c3.48145 21.4443 29.7246 27.5332 48.3047 27.5332c15.8301 0 48.4678 -6.16211 48.3047 -27.5332
c-0.436523 -56.8828 -5.18066 -113.645 -6.14844 -170.531c3.91504 12.9307 7.95117 25.8271 12.2197 38.6543c10.209 30.6748 21.1699 61.4082 34.8086 90.7441c10.6738 22.9492 25.373 53.083 49.3037 64.8037c23.8057 11.6543 48.0928 0.870117 63.1738 -18.7568
c19.6162 -25.5322 26.4648 -54.9346 31.0283 -86.2227c2.01172 -13.7842 3.48242 -27.7383 4.55371 -41.7861c6.68945 21.5586 14.1279 42.7529 22.0996 63.3477c10.3477 26.7324 23.4766 61.083 46.5049 79.6943c24.0791 19.46 51.1025 7.20898 72.5703 -8.74902
c24.5996 -18.2852 34.1914 -54.8096 38.5264 -84.0596c5.20801 -35.1445 6.16895 -71.4053 4.52832 -106.852c-1.59863 -34.4893 -3.25293 -68.9785 -4.68164 -103.475c-0.742188 -17.9385 -1.41504 -36.0293 -3.0791 -53.8945
c-0.381836 -4.08496 -0.194336 -7.85742 -0.0107422 -11.6963c3.8418 2.91602 8.06543 5.92285 9.43848 7.47266c5.08008 5.73926 9.52246 11.9775 13.5654 18.4824c8.16602 13.1318 15.2715 27.0264 22.002 40.9385c14.5713 30.123 26.5176 61.4014 37.5205 92.9775z" />
    <glyph glyph-name="n" unicode="n" horiz-adv-x="361" 
d="M352.682 146.737c3.49219 14.835 40.4053 12.9971 37.4473 0c-8.94336 -39.1875 -21.5557 -77.2314 -39.0293 -113.476c-14.0332 -29.1143 -31.4238 -56.3975 -65.2227 -63.25c-78.0635 -15.8262 -109.602 73.1846 -108.014 135.699
c0.874023 34.3467 7.10547 68.3262 11.1904 102.354c4.02637 33.5254 5.8291 66.9434 8.89844 100.493c0.762695 8.33594 1.97266 16.79 2.16992 25.1611c0.0488281 1.99707 -0.145508 4.0293 -0.25 6.03711c-0.579102 -0.614258 -1.16211 -1.23145 -1.74121 -1.8457
c-3.27344 -3.39844 -6.28711 -7.07422 -9.14746 -10.8193c-5.22949 -6.8418 -9.8623 -14.1553 -14.1865 -21.5967c-17.4629 -30.0537 -29.915 -63.2842 -41.2129 -96.0469c-22.3252 -64.7305 -38.0957 -131.715 -54.8379 -198.096
c-0.668945 -5.52734 -1.4043 -11.0479 -2.28809 -16.5479c-3.86328 -24.0449 -59.9004 -28.3135 -67.6885 -5.22266c-20.6328 61.1904 -22.4844 127.184 -23.5459 191.245c-1.06836 64.5742 1.2207 129.801 16.7764 192.704c4.26172 17.2344 36.4453 19.415 49.667 18.4824
c13.9785 -0.988281 38.627 -7.30957 39.251 -25.3418c2.13574 -61.877 -4.43555 -124.014 -6.67578 -185.846c-0.121094 -3.34961 -0.214844 -6.70312 -0.301758 -10.0566c6.16504 21.0205 12.8818 41.8818 20.4277 62.5078
c11.6689 31.8955 24.5371 64.3906 43.7275 92.6172c15.2266 22.4014 34.8848 44.958 64.7617 40.5889c29.541 -4.31738 50.8779 -31.6387 61.999 -57.7188c13.0488 -30.6055 15.5312 -67.8447 14.6992 -100.697c-1.66797 -65.8506 -5.80469 -132.631 -10.8848 -198.104
c-0.37793 -4.85156 0.239258 -10.2646 2.17773 -15.0322c0.169922 0.134766 0.34668 0.280273 0.547852 0.463867c2.80566 2.57324 6.73828 4.15137 9.61328 6.87012c11.207 10.5967 17.9863 25.9648 24.5781 39.6484c16.1279 33.4697 28.5771 68.6631 37.0938 104.823z
M280.28 -5.46387c-1.26562 0.818359 -1.61621 -0.963867 0 0z" />
    <glyph glyph-name="o" unicode="o" horiz-adv-x="259" 
d="M286.248 189.271c5.50293 -3.8252 7.45117 -11.0957 0.00292969 -14.4736c-21.7461 -9.8623 -47.708 -17.6094 -74.9355 -21.9062c-3.12402 -38.1514 -11.124 -76.9199 -24.8418 -111.93c-17.0049 -43.4082 -52.4199 -73.168 -100.821 -70.6191
c-119.734 6.30078 -114.01 160.258 -98.3496 243.786c2.52832 13.4893 13.7188 20.7432 26.3271 24.207c-24.3604 73.6807 20.3066 197.905 114.162 175.054c39.8359 -9.69922 60.5098 -48.2979 69.46 -85.3047c11.1172 -45.96 16.166 -96.4248 15.5732 -143.713
c-0.0449219 -3.34668 -0.131836 -6.70996 -0.25 -10.084c17.3555 3.3877 33.8818 8.58887 48.2725 14.9834c7.34766 3.2666 18.2295 4.98633 25.4004 0zM148.141 89.7656c5.86035 19.5332 9.96484 39.416 13.0127 59.4795
c-30.9727 0.492188 -61.3281 6.37012 -86.9678 19.6826c-4.16504 -28.7119 -6.85547 -57.6006 -5.62109 -86.6807c0.787109 -18.4961 2.88477 -38.3242 10.167 -55.5234c2.80566 -6.63379 6.17969 -12.6709 11.5264 -17.5703
c2.08789 -1.91113 4.49121 -4.41113 7.28613 -5.24316c0.256836 0.0830078 0.558594 0.176758 0.918945 0.277344c29.7041 8.25977 42.2158 60.6973 49.6777 85.5781zM166.653 196.897c3.13086 37.249 2.6123 74.4609 -3.16113 111.419
c-4.38965 28.1016 -14.2549 71.458 -44.1943 83.8408c-36.8438 15.2402 -62.6396 -43.377 -69.8701 -70.0674c-7.47949 -27.6133 -6.73047 -57.1748 3.77344 -83.5361c14.7754 -3.4502 30.8271 -10.8779 28.4277 -24.4258
c-0.825195 -4.66016 -1.63965 -9.32422 -2.44434 -13.9951c22.3076 -20.3555 53.0137 -29.0762 84.8018 -30.0088c1.04004 8.90137 1.91406 17.8301 2.66699 26.7734z" />
    <glyph glyph-name="o" unicode="&#xf6;" horiz-adv-x="259" 
d="M286.248 189.271c5.50293 -3.8252 7.45117 -11.0957 0.00292969 -14.4736c-21.7461 -9.8623 -47.708 -17.6094 -74.9355 -21.9062c-3.12402 -38.1514 -11.124 -76.9199 -24.8418 -111.93c-17.0049 -43.4082 -52.4199 -73.168 -100.821 -70.6191
c-119.734 6.30078 -114.01 160.258 -98.3496 243.786c2.52832 13.4893 13.7188 20.7432 26.3271 24.207c-24.3604 73.6807 20.3066 197.905 114.162 175.054c39.8359 -9.69922 60.5098 -48.2979 69.46 -85.3047c11.1172 -45.96 16.166 -96.4248 15.5732 -143.713
c-0.0449219 -3.34668 -0.131836 -6.70996 -0.25 -10.084c17.3555 3.3877 33.8818 8.58887 48.2725 14.9834c7.34766 3.2666 18.2295 4.98633 25.4004 0zM148.141 89.7656c5.86035 19.5332 9.96484 39.416 13.0127 59.4795
c-30.9727 0.492188 -61.3281 6.37012 -86.9678 19.6826c-4.16504 -28.7119 -6.85547 -57.6006 -5.62109 -86.6807c0.787109 -18.4961 2.88477 -38.3242 10.167 -55.5234c2.80566 -6.63379 6.17969 -12.6709 11.5264 -17.5703
c2.08789 -1.91113 4.49121 -4.41113 7.28613 -5.24316c0.256836 0.0830078 0.558594 0.176758 0.918945 0.277344c29.7041 8.25977 42.2158 60.6973 49.6777 85.5781zM166.653 196.897c3.13086 37.249 2.6123 74.4609 -3.16113 111.419
c-4.38965 28.1016 -14.2549 71.458 -44.1943 83.8408c-36.8438 15.2402 -62.6396 -43.377 -69.8701 -70.0674c-7.47949 -27.6133 -6.73047 -57.1748 3.77344 -83.5361c14.7754 -3.4502 30.8271 -10.8779 28.4277 -24.4258
c-0.825195 -4.66016 -1.63965 -9.32422 -2.44434 -13.9951c22.3076 -20.3555 53.0137 -29.0762 84.8018 -30.0088c1.04004 8.90137 1.91406 17.8301 2.66699 26.7734z" />
    <glyph glyph-name="o" unicode="&#xf5;" horiz-adv-x="259" 
d="M286.248 189.271c5.50293 -3.8252 7.45117 -11.0957 0.00292969 -14.4736c-21.7461 -9.8623 -47.708 -17.6094 -74.9355 -21.9062c-3.12402 -38.1514 -11.124 -76.9199 -24.8418 -111.93c-17.0049 -43.4082 -52.4199 -73.168 -100.821 -70.6191
c-119.734 6.30078 -114.01 160.258 -98.3496 243.786c2.52832 13.4893 13.7188 20.7432 26.3271 24.207c-24.3604 73.6807 20.3066 197.905 114.162 175.054c39.8359 -9.69922 60.5098 -48.2979 69.46 -85.3047c11.1172 -45.96 16.166 -96.4248 15.5732 -143.713
c-0.0449219 -3.34668 -0.131836 -6.70996 -0.25 -10.084c17.3555 3.3877 33.8818 8.58887 48.2725 14.9834c7.34766 3.2666 18.2295 4.98633 25.4004 0zM148.141 89.7656c5.86035 19.5332 9.96484 39.416 13.0127 59.4795
c-30.9727 0.492188 -61.3281 6.37012 -86.9678 19.6826c-4.16504 -28.7119 -6.85547 -57.6006 -5.62109 -86.6807c0.787109 -18.4961 2.88477 -38.3242 10.167 -55.5234c2.80566 -6.63379 6.17969 -12.6709 11.5264 -17.5703
c2.08789 -1.91113 4.49121 -4.41113 7.28613 -5.24316c0.256836 0.0830078 0.558594 0.176758 0.918945 0.277344c29.7041 8.25977 42.2158 60.6973 49.6777 85.5781zM166.653 196.897c3.13086 37.249 2.6123 74.4609 -3.16113 111.419
c-4.38965 28.1016 -14.2549 71.458 -44.1943 83.8408c-36.8438 15.2402 -62.6396 -43.377 -69.8701 -70.0674c-7.47949 -27.6133 -6.73047 -57.1748 3.77344 -83.5361c14.7754 -3.4502 30.8271 -10.8779 28.4277 -24.4258
c-0.825195 -4.66016 -1.63965 -9.32422 -2.44434 -13.9951c22.3076 -20.3555 53.0137 -29.0762 84.8018 -30.0088c1.04004 8.90137 1.91406 17.8301 2.66699 26.7734z" />
    <glyph glyph-name="o" unicode="&#xf4;" horiz-adv-x="259" 
d="M286.248 189.271c5.50293 -3.8252 7.45117 -11.0957 0.00292969 -14.4736c-21.7461 -9.8623 -47.708 -17.6094 -74.9355 -21.9062c-3.12402 -38.1514 -11.124 -76.9199 -24.8418 -111.93c-17.0049 -43.4082 -52.4199 -73.168 -100.821 -70.6191
c-119.734 6.30078 -114.01 160.258 -98.3496 243.786c2.52832 13.4893 13.7188 20.7432 26.3271 24.207c-24.3604 73.6807 20.3066 197.905 114.162 175.054c39.8359 -9.69922 60.5098 -48.2979 69.46 -85.3047c11.1172 -45.96 16.166 -96.4248 15.5732 -143.713
c-0.0449219 -3.34668 -0.131836 -6.70996 -0.25 -10.084c17.3555 3.3877 33.8818 8.58887 48.2725 14.9834c7.34766 3.2666 18.2295 4.98633 25.4004 0zM148.141 89.7656c5.86035 19.5332 9.96484 39.416 13.0127 59.4795
c-30.9727 0.492188 -61.3281 6.37012 -86.9678 19.6826c-4.16504 -28.7119 -6.85547 -57.6006 -5.62109 -86.6807c0.787109 -18.4961 2.88477 -38.3242 10.167 -55.5234c2.80566 -6.63379 6.17969 -12.6709 11.5264 -17.5703
c2.08789 -1.91113 4.49121 -4.41113 7.28613 -5.24316c0.256836 0.0830078 0.558594 0.176758 0.918945 0.277344c29.7041 8.25977 42.2158 60.6973 49.6777 85.5781zM166.653 196.897c3.13086 37.249 2.6123 74.4609 -3.16113 111.419
c-4.38965 28.1016 -14.2549 71.458 -44.1943 83.8408c-36.8438 15.2402 -62.6396 -43.377 -69.8701 -70.0674c-7.47949 -27.6133 -6.73047 -57.1748 3.77344 -83.5361c14.7754 -3.4502 30.8271 -10.8779 28.4277 -24.4258
c-0.825195 -4.66016 -1.63965 -9.32422 -2.44434 -13.9951c22.3076 -20.3555 53.0137 -29.0762 84.8018 -30.0088c1.04004 8.90137 1.91406 17.8301 2.66699 26.7734z" />
    <glyph glyph-name="o" unicode="&#xf3;" horiz-adv-x="259" 
d="M286.248 189.271c5.50293 -3.8252 7.45117 -11.0957 0.00292969 -14.4736c-21.7461 -9.8623 -47.708 -17.6094 -74.9355 -21.9062c-3.12402 -38.1514 -11.124 -76.9199 -24.8418 -111.93c-17.0049 -43.4082 -52.4199 -73.168 -100.821 -70.6191
c-119.734 6.30078 -114.01 160.258 -98.3496 243.786c2.52832 13.4893 13.7188 20.7432 26.3271 24.207c-24.3604 73.6807 20.3066 197.905 114.162 175.054c39.8359 -9.69922 60.5098 -48.2979 69.46 -85.3047c11.1172 -45.96 16.166 -96.4248 15.5732 -143.713
c-0.0449219 -3.34668 -0.131836 -6.70996 -0.25 -10.084c17.3555 3.3877 33.8818 8.58887 48.2725 14.9834c7.34766 3.2666 18.2295 4.98633 25.4004 0zM148.141 89.7656c5.86035 19.5332 9.96484 39.416 13.0127 59.4795
c-30.9727 0.492188 -61.3281 6.37012 -86.9678 19.6826c-4.16504 -28.7119 -6.85547 -57.6006 -5.62109 -86.6807c0.787109 -18.4961 2.88477 -38.3242 10.167 -55.5234c2.80566 -6.63379 6.17969 -12.6709 11.5264 -17.5703
c2.08789 -1.91113 4.49121 -4.41113 7.28613 -5.24316c0.256836 0.0830078 0.558594 0.176758 0.918945 0.277344c29.7041 8.25977 42.2158 60.6973 49.6777 85.5781zM166.653 196.897c3.13086 37.249 2.6123 74.4609 -3.16113 111.419
c-4.38965 28.1016 -14.2549 71.458 -44.1943 83.8408c-36.8438 15.2402 -62.6396 -43.377 -69.8701 -70.0674c-7.47949 -27.6133 -6.73047 -57.1748 3.77344 -83.5361c14.7754 -3.4502 30.8271 -10.8779 28.4277 -24.4258
c-0.825195 -4.66016 -1.63965 -9.32422 -2.44434 -13.9951c22.3076 -20.3555 53.0137 -29.0762 84.8018 -30.0088c1.04004 8.90137 1.91406 17.8301 2.66699 26.7734z" />
    <glyph glyph-name="p" unicode="p" horiz-adv-x="400" 
d="M428.081 166.548c5.34668 -3.7207 7.33301 -10.915 -0.0146484 -14.1816c-25.5635 -11.3496 -51.7236 -21.2285 -77.8486 -31.1768c-2.49707 -27.5957 -6.97363 -54.9551 -14.0439 -81.2402c-14.9736 -55.6523 -59.3633 -104.778 -118.133 -113.014
c-25.7754 -3.60938 -54.3174 0.717773 -72.6504 20.3135c-15.6006 16.6729 -21.499 37.5137 -15.3301 59.7969c13.3643 48.2764 75.2998 77.2969 116.787 96.4629c0.485352 0.22168 0.977539 0.425781 1.46289 0.647461c1.05762 5.87109 2.05273 11.7451 2.99219 17.6123
c7.69141 47.9609 15.2305 96.9971 15.8301 145.642c0.15625 12.3965 -1.7373 24.8311 -1.31445 37.1826c0.422852 12.4033 2.11523 22.9209 -2.29199 35.0684c-5.34668 14.7373 -13.4092 17.04 -25.0332 6.70605c-7.89941 -7.02246 -14.8379 -15.4453 -20.9512 -24.0244
c-27.9072 -39.1641 -44.9336 -87.2012 -59.2344 -132.68c-15.7949 -50.2256 -28.3027 -101.596 -38.917 -153.149c-15.1777 -73.7256 -25.4697 -148.37 -32.0752 -223.344c0.374023 -35.3496 0.911133 -70.7266 3.67871 -105.916
c2.11133 -26.8848 -61.7559 -26.0977 -70.2969 -5.42383c-20.7051 50.1045 -24.5088 106.2 -28.9609 159.758c-4.51855 54.3623 -6.55371 109.207 -6.70996 163.743c-0.31543 110.191 1.94531 221.614 20.0947 330.474c3.4502 20.6777 28.6006 26.5586 46.5977 26.5586
c14.8828 0 47.2705 -5.98828 46.5977 -26.5586c-3.3252 -101.547 -11.4326 -202.747 -12.8613 -304.359c6.75488 31.8223 14.3037 63.4717 22.6709 94.8818c15.2266 57.1572 32.9883 115.757 63.3408 166.946c24.749 41.7402 65.7266 83.0537 115.796 51.8242
c51.751 -32.2803 62.3867 -98.4844 64.79 -154.521c0.915039 -21.3604 0.970703 -43.1406 -0.104492 -64.9248c17.2275 6.62305 34.3857 13.4199 51.2695 20.8965c7.19922 3.19043 17.8379 4.88574 24.8633 0zM213.229 -4.29199
c13.7393 24.6484 22.5752 51.3428 28.9795 78.6543c-10.0215 -5.46191 -19.8311 -11.2949 -29.3252 -17.627c-20.5186 -13.6904 -43.3076 -31.7295 -47.0459 -57.792c-2.19824 -15.3301 4.22363 -20.251 10.7598 -31.9053
c2.19141 -0.749023 3.46094 -1.27246 3.88379 -1.58105c0.0732422 -0.00390625 0.142578 -0.0078125 0.21582 -0.0078125c2.53809 0.34668 6.14062 -0.163086 8.5752 0.946289c8.2666 3.76562 18.9502 20.3311 23.957 29.3125z" />
    <glyph glyph-name="q" unicode="q" horiz-adv-x="350" 
d="M349.408 -39.7734c78.5391 -38.5156 127.083 -129.062 104.592 -215.614c-11.1348 -42.8564 -41.7852 -79.6963 -85.9043 -90.377c-46.9727 -11.374 -95.6689 13.5098 -124.152 50.7422c-66.1943 86.5283 -84.4619 203.964 -85.6719 309.942
c-0.353516 31.292 0.402344 62.6641 2.08789 94.0293c-0.263672 -0.957031 -0.506836 -1.91797 -0.770508 -2.87109c-8.01758 -28.9863 -17.248 -63.3096 -37.7041 -86.3311c-19.8555 -22.3486 -45.998 -23.1494 -73.4336 -18.4121
c-72.5918 12.5352 -74.4121 114.051 -68.1602 170.546c7.09473 64.0957 29.5586 126.319 78.2754 170.736c22.5947 20.6016 55.96 36.5039 86.9473 36.7188c19.9395 0.142578 35.2314 -5.61328 47.9229 -16.3799c6.24902 17.5293 28.4805 22.7373 45.8535 22.7373
c14.1895 0 48.7373 -6.17578 46.9756 -26.7773c-7.2959 -85.335 -20.1328 -170.157 -27.1338 -255.472c28.2754 32.5127 58.6729 63.0215 90.9775 91.5947c8.94629 7.91699 42.0176 1.55078 29.707 -9.89551c-44.1123 -41.0186 -85.4814 -85.5947 -121.486 -133.944
c-0.863281 -1.1582 -1.82422 -2.43066 -2.84375 -3.78613c-0.731445 -16.1006 -1.18945 -32.2217 -1.25195 -48.3809v-0.09375c5.77051 -2.74609 11.8428 -4.89258 15.7158 -6.59863c26.1699 -11.5156 53.7207 -19.4912 79.458 -32.1133zM134.508 147.73
c15.1533 61.9326 30.3135 123.86 45.4883 185.785c-0.416016 0.402344 -0.800781 0.822266 -1.12012 1.27637c-8.80762 12.6191 -22.9795 25.5918 -37.2559 12.9873c-9.0752 -8.01367 -15.8652 -22.5742 -21.8848 -32.9463
c-14.3564 -24.7344 -24.5029 -52.1807 -31.8887 -79.7412c-16.2734 -60.7188 -22.2207 -123.452 -16.4814 -186.064c0.648438 -7.11523 1.61914 -20.833 5.12793 -28.9541c0.769531 0.668945 2.42383 1.19629 5.08008 1.56348
c3.52344 2.36523 6.64746 5.17383 9.36621 8.42676c5.80859 6.69238 9.7793 14.876 13.5039 22.834c14.0957 30.1133 22.1963 62.6709 30.0645 94.833zM403.174 -285.022c21.3223 36.7256 23.4453 82.9775 10.833 123.008c-12.1055 38.4248 -36.5596 73.417 -70.7158 95.291
c-27.3457 17.5078 -58.416 27.124 -88.793 38.2695c0.78418 -39.2812 3.54102 -78.3896 8.25684 -117.467c5.75293 -47.6699 13.5 -98.4053 34.0664 -142.205c10.9023 -23.2227 27.9697 -44.4238 56.6504 -37.7139c21.5449 5.04199 38.8828 22.1826 49.7021 40.8174z" />
    <glyph glyph-name="r" unicode="r" horiz-adv-x="311" 
d="M304.278 179.909c6.37305 12.8027 44.4141 9.28418 37.5518 -5.89746c-30.9248 -68.5625 -127.672 -83.3623 -174.072 -22.2207c-24.4951 32.2803 -22.9453 75.043 -16.0029 113.056c3.02051 16.5195 7.13281 32.7061 11.9805 48.7227
c-0.270508 -0.693359 -0.551758 -1.38379 -0.818359 -2.07715c-12.2549 -31.7256 -23.0605 -64.0127 -33.002 -96.5322c-17.0127 -55.6455 -31.4863 -112.058 -45.6758 -168.497c0.943359 -15.8125 1.14453 -31.5664 -2.04883 -46.0508
c-6.29004 -28.5391 -55.9297 -24.7451 -70.0186 -5.40234c-19.1035 26.2295 -22.5361 65.2471 -25.7852 96.6465c-3.19727 30.918 -2.52441 62.2725 -1.72656 93.3076c1.69531 65.9717 8.0166 131.927 19.748 196.869c3.87012 21.4131 29.3994 27.5332 48.3047 27.5332
c14.8975 0 49.7129 -6.29395 48.3047 -27.5332c-4.28223 -64.585 -12.0391 -128.861 -16.2275 -193.464c-0.176758 -2.71484 -0.288086 -5.43359 -0.444336 -8.14844c2.54199 9.17188 5.125 18.333 7.80176 27.4707c14.9316 50.9883 29.1523 107.493 56.4355 153.54
c10.1875 17.1895 25.1191 39.1221 46.9199 40.7861c20.5078 1.56348 33.1611 -14.8457 39.5 -32.4473c19.3008 -53.6094 4.12598 -111.071 10.042 -166.294c1.31445 -12.2549 3.25977 -24.3955 4.64355 -36.6289c0.829102 -7.34082 0.458008 -21.3291 6.82812 -26.7734
c0.413086 -0.353516 0.274414 -0.644531 0.0458984 -0.838867c0.592773 0.232422 1.82031 0.641602 4.24121 1.29395c2.60449 0.700195 5.18066 1.66406 7.64648 2.74219c5.24316 2.2959 9.99414 5.38867 14.415 9.02637c9.2832 7.63965 16.0869 17.1172 21.4131 27.8115z
" />
    <glyph glyph-name="s" unicode="s" horiz-adv-x="217" 
d="M247.729 202.04c5.0625 -6.2041 0.114258 -11.8418 -6.44336 -14.002c-33.8477 -11.1729 -68.8984 -27.9424 -100.19 -49.834c25.335 -52.3857 42.1084 -107.75 27.3916 -167.311c-7.50391 -30.377 -22.0781 -67.9424 -53.6963 -80.0684
c-29.2773 -11.2314 -61.8975 0.995117 -82.1553 23.5977c-45.4053 50.6592 -26.8564 121.639 10.8926 170.304c5.29883 6.82422 10.9199 13.3984 16.7939 19.7549c-7.49023 13.5029 -15.2617 26.8535 -23.1406 40.0996c-33.7227 56.6963 -87.877 127.933 -48.2734 195.469
c33.123 56.4883 118.867 65.9795 158.479 11.6133c8.60352 -11.8105 -27.3037 -17.3936 -34.9082 -8.3877c-11.4258 13.5303 -27.3906 23.6318 -42.998 9.78906c-12.7578 -11.3145 -14.252 -31.5625 -12.5664 -47.2783c4.39648 -40.998 35.2969 -78.0605 54.9688 -112.816
c5.88086 -10.3887 11.7373 -20.8926 17.3828 -31.5107c29.4268 18.7354 61.3945 33.5801 93.8896 44.2539c6.7373 2.21191 19.4805 2.57227 24.5742 -3.67285zM118.092 -64.6279c5.90918 33.8545 -13.3125 76.2432 -26.4551 106.46
c-4.98633 11.4707 -10.3926 22.7549 -16.0518 33.9141c-7.97168 -10.8086 -14.9521 -22.2236 -20.6494 -34.2598c-13.5898 -28.7021 -17.7441 -62.7129 -6.30469 -92.9092c5.39258 -14.2314 14.4639 -28.5215 27.4854 -36.9414
c19.041 -12.3135 38.373 3.08301 41.9756 23.7363z" />
    <glyph glyph-name="t" unicode="t" horiz-adv-x="244" 
d="M388.547 530.173c5.83301 -13.5342 -28.1436 -16.8877 -33.1719 -5.21875c-2.76074 6.4043 -23.3896 3.49512 -29.624 3.60645c-11.2803 0.204102 -22.5605 0.228516 -33.8408 0.107422c-21.4365 -0.228516 -42.8662 -0.977539 -64.2754 -2.03125
c-8.90527 -0.436523 -17.8066 -0.963867 -26.708 -1.50098c-23.3789 -70.6602 -65.625 -135.245 -108.43 -195.551c-1.30371 -26.3857 -2.16016 -52.7715 -2.75684 -79.0703c-1.06445 -46.8789 -1.82715 -93.4912 1.58887 -140.314
c1.77539 -24.3564 4.04688 -49.8682 8.97461 -73.8086c3.31152 -16.0938 6.90723 -33.1094 18.8672 -45.1035c2.20898 -1.83105 4.35547 -3.73438 6.43945 -5.7041c0.0517578 -0.0419922 0.0869141 -0.0732422 0.135742 -0.115234
c2.62109 0.776367 7.83984 1.49023 8.07227 1.57324c8.67285 3.03418 16.2285 9.2373 22.8408 15.4375c15.5459 14.5742 27.4502 32.8037 37.666 51.3691c21.3818 38.8623 33.917 81.8818 44.9473 124.62c2.75684 10.6807 35.0752 8.72461 32.6719 -2.52051
c-12.2197 -57.2266 -29.3711 -114.172 -64.5918 -161.835c-30.0127 -40.6094 -80.2031 -64.9033 -129.988 -43.7441c-55.4131 23.5527 -71.8672 79.0312 -82.4229 133.369c-10.8262 55.7285 -12.1504 113.062 -11.127 169.672
c1.44629 79.915 4.69922 161.415 24.3779 238.837c-13.6934 -0.62793 -27.3867 -1.16211 -41.0908 -1.4502c-30.293 -0.637695 -72.3975 -6.70215 -95.7451 17.4707c-11.0205 11.4121 19.8203 17.3691 27.7441 9.24414c13.7393 -14.0889 43.2803 -8.61035 61.2285 -8.25977
c17.6953 0.34668 35.3799 1.04395 53.0508 1.96289c7.44141 25.4043 16.7939 50.3154 28.6396 74.5127c22.4941 45.9639 59.5459 96.0293 115.625 98.3838c21.2666 0.894531 40.5742 -5.87402 50.96 -25.2793c11.7656 -21.9883 11.7764 -49.8857 9.48047 -73.9893
c-1.94922 -20.4561 -5.80859 -40.4053 -11.1631 -59.9004c28.2998 1.75098 56.6309 3.03711 84.9854 3.33887c21.6689 0.232422 43.9004 0.856445 65.4902 -1.29395c12.2617 -1.2168 25.8408 -4.49707 31.1494 -16.8145zM96.7432 394.511
c26.7354 40.7031 51.7402 82.9873 68.1836 128.271c-17.3525 -1.22363 -34.6973 -2.52734 -52.042 -3.82422c-7.5459 -41.1055 -12.6533 -82.6934 -16.1416 -124.447zM182.661 596.029c2.62109 22.5781 4.74219 51.5146 -5.86914 72.4561
c-1.80664 3.56836 -4.10938 9.74805 -8.02734 11.6035c1.6748 -1.24512 -3.64844 -3.83203 -5.23633 -5.76367c-5.05566 -6.15137 -8.03809 -14.2617 -11.6025 -21.2871c-18.25 -35.96 -27.5293 -75.2939 -35.3457 -114.689
c14.4668 1.13086 28.9336 2.26465 43.4043 3.34961c3.83496 0.288086 7.66992 0.56543 11.5049 0.842773c5.19434 17.3525 9.04297 35.1553 11.1719 53.4883z" />
    <glyph glyph-name="u" unicode="u" horiz-adv-x="384" 
d="M379.644 165.91c3.4502 11.5615 35.9707 9.08984 32.083 -5.04102c-7.24023 -26.3086 -15.5732 -52.2705 -25.2656 -77.7822c-8.47168 -22.3008 -17.3525 -46.918 -34.3652 -64.3428c-31.6562 -32.4297 -85.9941 -24.9531 -116.964 4.86816
c-30.3174 29.1943 -39.3369 73.9551 -42.2842 116.454c-0.922852 -3.40918 -1.80371 -6.83496 -2.7334 -10.2441c-12.1787 -44.667 -27.4053 -123.233 -85.1064 -128.251c-63.125 -5.48926 -101.04 68.6729 -114.602 119.321
c-17.9004 66.8457 -9.2627 137.551 0.322266 204.962c2.90625 20.459 28.667 26.2363 46.0264 26.2363c13.1982 0 48.6895 -6.2207 46.0264 -26.2363c-7.69141 -57.7676 -16.4268 -115.608 -14.96 -174.073c0.662109 -26.4199 2.71484 -53.0898 7.61133 -79.0869
c2.63867 -14.0166 9.76074 -64.3984 32.9736 -45.2471c17.1719 14.1689 24.9707 40.9531 32.0205 61.041c9.39062 26.7637 16.5273 54.2412 23.6807 81.6631c12.6396 48.4502 25.1992 96.918 38.248 145.257c2.21582 11.1455 4.79199 22.2178 7.80176 33.1895
c8.77637 31.9785 103.252 29.4883 100.842 -7.77832c-5.65527 -87.3779 -19.3633 -174.354 -15.5938 -262.237c0.75293 -17.5049 -1.1543 -37.3574 3.28809 -54.4707c1.62305 -6.25586 0.50293 -6.92871 6.03418 -6.70996c4.53223 0.180664 8.94629 5.28516 12.1367 8.24316
c7.42773 6.89062 13.1914 15.2402 18.1367 24.0273c20.123 35.7549 32.96 77.0889 44.6426 116.238z" />
    <glyph glyph-name="u" unicode="&#xfc;" horiz-adv-x="384" 
d="M379.644 165.91c3.4502 11.5615 35.9707 9.08984 32.083 -5.04102c-7.24023 -26.3086 -15.5732 -52.2705 -25.2656 -77.7822c-8.47168 -22.3008 -17.3525 -46.918 -34.3652 -64.3428c-31.6562 -32.4297 -85.9941 -24.9531 -116.964 4.86816
c-30.3174 29.1943 -39.3369 73.9551 -42.2842 116.454c-0.922852 -3.40918 -1.80371 -6.83496 -2.7334 -10.2441c-12.1787 -44.667 -27.4053 -123.233 -85.1064 -128.251c-63.125 -5.48926 -101.04 68.6729 -114.602 119.321
c-17.9004 66.8457 -9.2627 137.551 0.322266 204.962c2.90625 20.459 28.667 26.2363 46.0264 26.2363c13.1982 0 48.6895 -6.2207 46.0264 -26.2363c-7.69141 -57.7676 -16.4268 -115.608 -14.96 -174.073c0.662109 -26.4199 2.71484 -53.0898 7.61133 -79.0869
c2.63867 -14.0166 9.76074 -64.3984 32.9736 -45.2471c17.1719 14.1689 24.9707 40.9531 32.0205 61.041c9.39062 26.7637 16.5273 54.2412 23.6807 81.6631c12.6396 48.4502 25.1992 96.918 38.248 145.257c2.21582 11.1455 4.79199 22.2178 7.80176 33.1895
c8.77637 31.9785 103.252 29.4883 100.842 -7.77832c-5.65527 -87.3779 -19.3633 -174.354 -15.5938 -262.237c0.75293 -17.5049 -1.1543 -37.3574 3.28809 -54.4707c1.62305 -6.25586 0.50293 -6.92871 6.03418 -6.70996c4.53223 0.180664 8.94629 5.28516 12.1367 8.24316
c7.42773 6.89062 13.1914 15.2402 18.1367 24.0273c20.123 35.7549 32.96 77.0889 44.6426 116.238z" />
    <glyph glyph-name="u" unicode="&#xfb;" horiz-adv-x="384" 
d="M379.644 165.91c3.4502 11.5615 35.9707 9.08984 32.083 -5.04102c-7.24023 -26.3086 -15.5732 -52.2705 -25.2656 -77.7822c-8.47168 -22.3008 -17.3525 -46.918 -34.3652 -64.3428c-31.6562 -32.4297 -85.9941 -24.9531 -116.964 4.86816
c-30.3174 29.1943 -39.3369 73.9551 -42.2842 116.454c-0.922852 -3.40918 -1.80371 -6.83496 -2.7334 -10.2441c-12.1787 -44.667 -27.4053 -123.233 -85.1064 -128.251c-63.125 -5.48926 -101.04 68.6729 -114.602 119.321
c-17.9004 66.8457 -9.2627 137.551 0.322266 204.962c2.90625 20.459 28.667 26.2363 46.0264 26.2363c13.1982 0 48.6895 -6.2207 46.0264 -26.2363c-7.69141 -57.7676 -16.4268 -115.608 -14.96 -174.073c0.662109 -26.4199 2.71484 -53.0898 7.61133 -79.0869
c2.63867 -14.0166 9.76074 -64.3984 32.9736 -45.2471c17.1719 14.1689 24.9707 40.9531 32.0205 61.041c9.39062 26.7637 16.5273 54.2412 23.6807 81.6631c12.6396 48.4502 25.1992 96.918 38.248 145.257c2.21582 11.1455 4.79199 22.2178 7.80176 33.1895
c8.77637 31.9785 103.252 29.4883 100.842 -7.77832c-5.65527 -87.3779 -19.3633 -174.354 -15.5938 -262.237c0.75293 -17.5049 -1.1543 -37.3574 3.28809 -54.4707c1.62305 -6.25586 0.50293 -6.92871 6.03418 -6.70996c4.53223 0.180664 8.94629 5.28516 12.1367 8.24316
c7.42773 6.89062 13.1914 15.2402 18.1367 24.0273c20.123 35.7549 32.96 77.0889 44.6426 116.238z" />
    <glyph glyph-name="u" unicode="&#xfa;" horiz-adv-x="384" 
d="M379.644 165.91c3.4502 11.5615 35.9707 9.08984 32.083 -5.04102c-7.24023 -26.3086 -15.5732 -52.2705 -25.2656 -77.7822c-8.47168 -22.3008 -17.3525 -46.918 -34.3652 -64.3428c-31.6562 -32.4297 -85.9941 -24.9531 -116.964 4.86816
c-30.3174 29.1943 -39.3369 73.9551 -42.2842 116.454c-0.922852 -3.40918 -1.80371 -6.83496 -2.7334 -10.2441c-12.1787 -44.667 -27.4053 -123.233 -85.1064 -128.251c-63.125 -5.48926 -101.04 68.6729 -114.602 119.321
c-17.9004 66.8457 -9.2627 137.551 0.322266 204.962c2.90625 20.459 28.667 26.2363 46.0264 26.2363c13.1982 0 48.6895 -6.2207 46.0264 -26.2363c-7.69141 -57.7676 -16.4268 -115.608 -14.96 -174.073c0.662109 -26.4199 2.71484 -53.0898 7.61133 -79.0869
c2.63867 -14.0166 9.76074 -64.3984 32.9736 -45.2471c17.1719 14.1689 24.9707 40.9531 32.0205 61.041c9.39062 26.7637 16.5273 54.2412 23.6807 81.6631c12.6396 48.4502 25.1992 96.918 38.248 145.257c2.21582 11.1455 4.79199 22.2178 7.80176 33.1895
c8.77637 31.9785 103.252 29.4883 100.842 -7.77832c-5.65527 -87.3779 -19.3633 -174.354 -15.5938 -262.237c0.75293 -17.5049 -1.1543 -37.3574 3.28809 -54.4707c1.62305 -6.25586 0.50293 -6.92871 6.03418 -6.70996c4.53223 0.180664 8.94629 5.28516 12.1367 8.24316
c7.42773 6.89062 13.1914 15.2402 18.1367 24.0273c20.123 35.7549 32.96 77.0889 44.6426 116.238z" />
    <glyph glyph-name="v" unicode="v" horiz-adv-x="400" 
d="M416.87 188.953c21.4756 0.662109 20.6504 -18.4668 -0.00292969 -19.8301c-43.0889 -2.83984 -88.8232 0.371094 -129.023 17.0537c-5.42676 -18.4023 -11.2383 -36.6592 -17.667 -54.6387c-17.2998 -48.3877 -40.2002 -98.6445 -81.8779 -130.897
c-44.8779 -34.7324 -103.189 -22.1826 -137.536 21.3438c-35.4326 44.9023 -51.9629 108.356 -61.2666 163.839c-9.7998 58.4541 -11.4746 117.852 -7.4873 176.912c2.47949 36.6846 93.415 36.3105 93.1934 0.000976562
c-0.644531 -106.37 -2.05273 -210.875 28.9619 -313.697c4.27539 -14.1758 12.043 -48.3457 32.0371 -48.1406c18.3262 0.19043 39.9434 27.2627 50.4326 40.5889c28.0537 35.6367 44.2061 80.5186 57.9375 123.209c4.08496 12.7051 7.98926 25.5039 11.7305 38.3652
c-2.52832 1.70215 -5.04199 3.43262 -7.49316 5.28418c-45.7383 34.5859 -69.0791 91.3896 -69.96 147.791c-0.807617 51.6475 13.542 113.375 50.3027 151.654c32.7344 34.0869 89.1602 34.8984 100.673 -17.5947c12.9521 -59.0508 1.4707 -124.118 -11.332 -182.163
c-7.19531 -32.624 -14.9385 -65.4033 -23.8154 -97.833c37.0869 -20.3555 80.6826 -22.5264 122.193 -21.2471zM284.562 314.577c10.6836 48.6377 18.0127 98.543 14.3057 148.442c-0.925781 12.4766 -3.75195 58.5479 -25.0674 46.1992
c-18.2881 -10.5938 -29.8975 -32.4785 -37.8457 -51.29c-18.6035 -44.0283 -25.9893 -95.2871 -15.7109 -142.312c6.7207 -30.7549 21.8574 -60.6113 44.3379 -82.9219c7.32715 27.166 13.9707 54.5322 19.9805 81.8818z" />
    </font>
</defs>
</svg>
