<?xml version="1.0" standalone="no"?>
<!DOCTYPE svg PUBLIC "-//W3C//DTD SVG 1.1//EN" "http://www.w3.org/Graphics/SVG/1.1/DTD/svg11.dtd" >
<svg xmlns="http://www.w3.org/2000/svg" xmlns:xlink="http://www.w3.org/1999/xlink" version="1.1">
<metadata>
Created by FontForge 20170812 at Fri Aug 12 04:42:50 2022
 By www-data
</metadata>
<defs>
<font id="ChillinRegular" horiz-adv-x="0" >
  <font-face 
    font-family="Chillin"
    font-weight="400"
    font-stretch="normal"
    units-per-em="1000"
    panose-1="0 0 0 0 0 0 0 0 0 0"
    ascent="800"
    descent="-200"
    x-height="341.328"
    cap-height="855.823"
    bbox="-382.003 -796.308 1972.08 1097.16"
    underline-thickness="50"
    underline-position="-100"
    unicode-range="U+000A-F000"
  />
<missing-glyph horiz-adv-x="527" 
d="M50 700h427v-700h-427v700zM78 680l185 -309l186 309h-371zM251 350l-180 300v-601zM264 329l-185 -308h370zM276 350l181 -303v605z" />
    <glyph glyph-name="tt.liga" unicode="tt" horiz-adv-x="723" 
d="M1601.47 726.868c16.9912 17.2842 58.6611 -1.27637 39.3086 -21.0596c-95.6465 -97.6338 -232.067 -114.652 -362.511 -119.522c-184.94 -6.91211 -370.21 0.823242 -554.876 11.0859c-17.7598 0.988281 -35.5283 2.02246 -53.2881 3.05664
c-0.137695 -0.750977 -0.28418 -1.51953 -0.421875 -2.27051c-30.3203 -161.743 -96.8652 -313.755 -174.267 -458.104c0.65918 -33.1943 2.19727 -66.3154 4.71484 -99.2715c3.00293 -39.3369 4.43066 -85.0547 21.4678 -121.344
c20.8818 -44.4727 64.5762 12.4414 81.8965 36.8379c48.6016 68.4766 84.7988 145.595 111.658 224.928c6.38086 18.8496 41.5986 10.9678 35.4102 -9.51074c-26.2373 -86.8037 -64.7227 -172.93 -119.348 -245.91c-38.8701 -51.9248 -113.873 -89.6689 -172.838 -44.2441
c-62.7549 48.3457 -90.127 126.772 -100.097 202.371c0 0.0273438 -0.00878906 0.0546875 -0.00878906 0.0820312c-23.1152 -56.0625 -52.0166 -110.02 -88.0859 -158.209c-38.8701 -51.9248 -113.873 -89.6689 -172.838 -44.2441
c-62.7549 48.3457 -90.127 126.772 -100.097 202.371c-12.1758 92.2412 -14.1533 184.785 -8.27637 277.612c5.30078 83.5811 15.5352 179.786 43.5664 267.569c-44.1709 0.265625 -88.3418 -0.0361328 -132.494 -1.09766
c-80.8623 -1.94043 -177.764 -0.741211 -237.296 -64.7129c-16.7441 -17.9883 -58.9834 0.256836 -39.9141 21.3584c96.8369 107.163 273.401 86.8672 403.973 86.0527c6.875 -0.0361328 13.75 -0.191406 20.6162 -0.264648c24.7354 61.4365 59.916 116.666 110.541 157.578
c45.791 37.0029 115.896 50.9541 145.026 -11.9648c22.6758 -48.9766 22.749 -102.027 16.085 -154.4c28.0684 -1.40039 56.1367 -2.91992 84.2051 -4.5127c24.9277 66.7549 61.4541 127.038 115.713 170.879c45.791 37.0029 115.896 50.9541 145.026 -11.9648
c25.7148 -55.541 22.4014 -116.327 13.1006 -175.42c152.964 -9.12695 306.047 -16.8721 459.312 -17.0273c151.426 -0.155273 349.494 -14.2354 465.034 103.272zM594.801 758.411c-18.373 -33.1943 -31.292 -71.2764 -41.417 -110.238
c9.41992 -0.577148 18.8311 -1.1543 28.251 -1.74023c15.3066 -0.952148 30.6133 -1.88574 45.9199 -2.81934c3.51562 23.4814 5.95996 47.2559 5.20898 70.7002c-0.255859 7.87305 -4.80566 71.6436 -14.2988 73.584c-7.28711 1.4834 -20.2773 -23.3711 -23.6641 -29.4863z
M233.771 758.412c-15.4072 -27.8486 -26.8594 -59.1836 -36.1699 -91.5361c23.875 -0.851562 47.7588 -1.8125 71.6338 -2.88379c1.93164 16.7891 3.03027 33.6426 2.49902 50.3223c-0.255859 7.87305 -4.79688 71.6436 -14.2988 73.584
c-7.28711 1.4834 -20.2773 -23.3711 -23.6641 -29.4863zM168.48 536.113c-18.4277 -95.876 -29.6709 -194.059 -33.2324 -292.36c55.3574 116.382 102.705 236.838 125.326 364.132c0.897461 5.0166 1.77637 10.0791 2.64648 15.1504
c-25.4316 1.08984 -50.8721 2.06055 -76.3125 2.89355c-7.12207 -30.4941 -12.8984 -61.0518 -18.4277 -89.8154zM242.457 -43.7002c46.2031 65.0801 81.0918 138.006 107.493 213.201c-4.2207 63.8711 -4.01953 127.88 0.0449219 192.035
c5.05371 79.7178 14.6201 170.915 39.8135 255.348c-25.6689 1.3916 -51.3564 2.71875 -77.0352 3.95508c-1.33691 -7.59863 -2.72852 -15.1602 -4.12891 -22.6582c-30.3203 -161.743 -96.8652 -313.755 -174.267 -458.104
c0.667969 -33.1943 2.19727 -66.3154 4.71484 -99.2715c3.00293 -39.3369 4.43066 -85.0547 21.4678 -121.344c20.8818 -44.4727 64.5762 12.4414 81.8965 36.8379zM496.277 243.763c54.6982 114.99 101.524 233.983 124.447 359.593
c-25.6143 1.52832 -51.2197 3.06641 -76.8252 4.60449c-5.31836 -24.4521 -9.95996 -48.7393 -14.4004 -71.8457c-18.4277 -95.876 -29.6602 -194.059 -33.2217 -292.352z" />
    <glyph glyph-name=".notdef" horiz-adv-x="527" 
d="M50 700h427v-700h-427v700zM78 680l185 -309l186 309h-371zM251 350l-180 300v-601zM264 329l-185 -308h370zM276 350l181 -303v605z" />
    <glyph glyph-name=".null" 
 />
    <glyph glyph-name=".null" 
 />
    <glyph glyph-name="LF" unicode="&#xa;" 
 />
    <glyph glyph-name="controlCR" unicode="&#xd;" 
 />
    <glyph glyph-name="space" unicode=" " horiz-adv-x="318" 
 />
    <glyph glyph-name="exclam" unicode="!" horiz-adv-x="270" 
d="M74.499 674.845c11.4893 77.8867 150.985 75.8193 144.943 -5.06152c-8.39453 -112.61 -18.6748 -224.717 -23.5908 -337.593c-4.75098 -109.324 5.38281 -224.241 -16.2861 -331.808c-9.64844 -47.9424 -90.8311 -35.7393 -103.244 3.60742
c-32.7461 103.812 -26.0635 225.596 -25.1484 333.253c0.960938 112.354 6.9209 226.401 23.3262 337.602zM117.195 -102.119c17.8975 -0.631836 45.334 -15.709 41.5527 -37.46c-4.42188 -25.4678 -7.25977 -50.9629 -13.3477 -76.1104
c-6.88379 -28.4619 -59.3301 -24.8643 -65.5186 2.28809c-5.78613 25.3857 -6.49121 50.8535 -6.75684 76.8154c-0.228516 22.209 24.7998 35.1348 44.0703 34.4668z" />
    <glyph glyph-name="quotedbl" unicode="&#x22;" horiz-adv-x="245" 
d="M83.1514 701.723c14.7842 1.61133 35.1914 -10.3906 26.2568 -26.5762c-0.210938 -1.87695 -0.750977 -5.2002 -1.62109 -10.0518c-0.860352 -7.64453 -1.62891 -15.2979 -2.28809 -22.96c-0.988281 -11.498 -1.74805 -23.0234 -2.2793 -34.5488
c-1.24512 -26.9238 -0.814453 -53.8564 -0.439453 -80.7979c0.402344 -28.8916 -50.6436 -26.667 -52.0352 1.8125c-1.87695 38.458 -0.0830078 77.0264 4.05469 115.302c2.2793 21.1104 0.50293 54.7812 28.3516 57.8203zM147.482 670.423
c4.14746 25.4316 50.7451 23.9482 47.0371 -1.63867c-5.88672 -40.5547 -8.43164 -81.1826 -7.66309 -122.149c0.503906 -27.0518 -49.1416 -25.5137 -49.1787 1.7207c-0.0546875 40.9941 3.21387 81.5947 9.80469 122.067z" />
    <glyph glyph-name="quotedbl" unicode="&#x201d;" horiz-adv-x="245" 
d="M83.1514 701.723c14.7842 1.61133 35.1914 -10.3906 26.2568 -26.5762c-0.210938 -1.87695 -0.750977 -5.2002 -1.62109 -10.0518c-0.860352 -7.64453 -1.62891 -15.2979 -2.28809 -22.96c-0.988281 -11.498 -1.74805 -23.0234 -2.2793 -34.5488
c-1.24512 -26.9238 -0.814453 -53.8564 -0.439453 -80.7979c0.402344 -28.8916 -50.6436 -26.667 -52.0352 1.8125c-1.87695 38.458 -0.0830078 77.0264 4.05469 115.302c2.2793 21.1104 0.50293 54.7812 28.3516 57.8203zM147.482 670.423
c4.14746 25.4316 50.7451 23.9482 47.0371 -1.63867c-5.88672 -40.5547 -8.43164 -81.1826 -7.66309 -122.149c0.503906 -27.0518 -49.1416 -25.5137 -49.1787 1.7207c-0.0546875 40.9941 3.21387 81.5947 9.80469 122.067z" />
    <glyph glyph-name="quotedbl" unicode="&#x201c;" horiz-adv-x="245" 
d="M83.1514 701.723c14.7842 1.61133 35.1914 -10.3906 26.2568 -26.5762c-0.210938 -1.87695 -0.750977 -5.2002 -1.62109 -10.0518c-0.860352 -7.64453 -1.62891 -15.2979 -2.28809 -22.96c-0.988281 -11.498 -1.74805 -23.0234 -2.2793 -34.5488
c-1.24512 -26.9238 -0.814453 -53.8564 -0.439453 -80.7979c0.402344 -28.8916 -50.6436 -26.667 -52.0352 1.8125c-1.87695 38.458 -0.0830078 77.0264 4.05469 115.302c2.2793 21.1104 0.50293 54.7812 28.3516 57.8203zM147.482 670.423
c4.14746 25.4316 50.7451 23.9482 47.0371 -1.63867c-5.88672 -40.5547 -8.43164 -81.1826 -7.66309 -122.149c0.503906 -27.0518 -49.1416 -25.5137 -49.1787 1.7207c-0.0546875 40.9941 3.21387 81.5947 9.80469 122.067z" />
    <glyph glyph-name="numbersign" unicode="#" horiz-adv-x="760" 
d="M687.74 392.052c30.3018 -0.0361328 28.5605 -39.9688 -1.40234 -40.1152c-15.9746 -0.0732422 -31.9307 -0.420898 -47.8965 -0.705078c-3.72559 -27.6562 -7.16797 -55.2754 -10.0146 -82.8398c6.57324 -0.201172 13.1367 -0.375 19.71 -0.640625
c30.6035 -1.25391 29.1475 -41.9551 -1.41992 -40.71c-7.32324 0.301758 -14.6377 0.50293 -21.9609 0.731445c-6.13379 -73.2734 -9.88672 -146.702 -12.5049 -220.177c-2.57227 -71.9365 -9.41113 -149.521 7.56152 -220.002
c14.9131 -61.8936 -83.416 -72.0547 -104.078 -20.3037c-28.8555 72.2842 -32.2607 149.878 -34.4854 226.804c-2.25195 77.9785 0.897461 155.865 6.14258 233.661c-35.2998 -1.11719 -70.5361 -3.05762 -105.708 -5.89551
c-1.47363 -69.5654 -1.45508 -139.223 0.210938 -208.761c1.98633 -83.1963 11.8096 -166.448 12.5693 -249.525c0.53125 -58.5986 -106.073 -64.1924 -116.857 -9.16406c-28.5898 145.924 -31.3916 302.888 -30.0371 452.382
c-43.8779 -6.33496 -87.6006 -14.0527 -131.158 -23.1523c-25.9805 -5.42871 -38.5312 30.0547 -10.4912 36.1885c47.1465 10.3174 94.54 18.9961 142.116 26.1279c0.338867 24.873 0.952148 49.7461 1.7207 74.6279
c-0.439453 -0.0732422 -0.878906 -0.12793 -1.31836 -0.192383c-45.8281 -6.875 -106.779 -7.86328 -147.16 -31.9219c-51.9336 -30.9424 -75.8174 66.3887 -16.377 57.5908c51.7969 -7.67188 114.295 11.6992 166.366 18.4922
c5.18164 122.781 16.2861 245.397 36.2344 366.576c11.9189 72.4219 144.083 69.6387 134.946 -4.71484c-14.1982 -115.54 -26.6299 -231.116 -34.082 -347.141c2.53613 0.219727 5.05371 0.521484 7.58984 0.732422c34.293 2.92969 68.623 5.1084 102.962 6.95801
c9.53906 115.476 23.5732 232.196 53.9756 341.383c16.5605 59.4492 123.998 42.5771 123.623 -18.4473c-0.640625 -105.763 -17.4756 -212.193 -32.4893 -318.24c14.5742 0.165039 29.1387 0.412109 43.7129 0.393555zM490.146 268.2
c1.77637 25.6328 3.58008 51.4932 5.53906 77.4551c-35.2451 -2.14258 -70.4814 -4.66895 -105.653 -8.07422c-1.36426 -0.12793 -2.71875 -0.274414 -4.08301 -0.412109c-1.33691 -25.1016 -2.43555 -50.2217 -3.22266 -75.3779
c35.7305 3.04883 71.5527 5.17285 107.42 6.40918z" />
    <glyph glyph-name="dollar" unicode="$" horiz-adv-x="576" 
d="M494.017 117.195c37.8359 -59.834 46.1504 -130.073 0.368164 -188.818c-37.9453 -48.6836 -108.444 -85.9697 -170.384 -85.6768c-1.86719 0.00878906 -3.70703 0.164062 -5.56543 0.246094c1.12598 -35.4561 2.58203 -70.9482 4.71484 -106.522
c1.53809 -25.6416 -43.9785 -23.4717 -46.3125 1.62109c-3.58887 38.541 -6.20703 77.2188 -8.23047 115.961c-92.7627 38.3945 -146.701 166.32 -83.8369 253.49c14.4551 20.0391 55.6318 1.89453 39.3096 -21.0381c-41.4521 -58.25 -13.8145 -145.236 42.3857 -183.2
c-2.97559 82.0615 -2.89355 164.425 -0.321289 246.88c-22.374 13.0723 -45.0957 25.8701 -67.9551 39.3818c-62.5625 36.9844 -122.534 88.2314 -142.098 161.175c-36.6914 136.843 99.3086 274.381 223.279 306.824c8.55078 2.2334 17.4854 4.02734 26.6221 5.42773
c5.52051 49.6455 11.2881 99.1348 17.1924 148.377c2.7002 22.502 43.2002 21.376 41.3145 -1.44629c-3.97266 -48.0703 -8.00098 -96.0312 -11.9648 -143.938c39.7402 -1.04395 79.4346 -11.6357 109.086 -36.3252c48.3906 -40.2988 49.9648 -105.406 47.7773 -163.446
c-0.979492 -25.999 -47.7412 -24.3145 -47.0273 1.63867c1.06152 38.6318 3.76172 85.5762 -21.5596 117.883c-22.0352 28.0957 -57.1699 37.1494 -91.9844 35.0439c-9.68555 -118.872 -18.6025 -237.396 -24.6631 -356.012
c64.3379 -38.8066 128.969 -82.877 169.853 -147.526zM273.036 295.933c6.51758 105.25 16.085 210.373 27.2256 314.809c-4.62305 -1.62988 -9.14551 -3.36914 -13.4297 -5.30078c-66.7002 -30.082 -118.295 -114.881 -109.323 -189.061
c6.53613 -54.1035 50.2031 -91.0518 95.5273 -120.447zM440.529 -27.6436c4.89746 41.626 -27.3262 70.9209 -55.7969 95.8857c-21.2754 18.6572 -43.5117 34.8701 -66.3799 49.8564c-2.16016 -77.5938 -2.71875 -155.316 -1.06152 -233.286
c6.77441 -0.577148 13.7041 -0.558594 20.7803 0.301758c47.9609 5.83105 96.3701 35.5283 102.458 87.2422z" />
    <glyph glyph-name="percent" unicode="%" horiz-adv-x="817" 
d="M759.611 671.33c-90.2734 -167.382 -195.095 -326.864 -287.857 -493.011c-47.2188 -84.5605 -94.9326 -168.81 -140.586 -254.24c-44.125 -82.5469 -87.4902 -168.993 -141.521 -245.553c-23.71 -33.5977 -89.8789 -12.7344 -77.9326 30.6953
c25.5957 93.0928 70.5176 183.503 112.885 269.903c40.6826 82.959 82.0342 165.688 126.224 246.835c90.6299 166.402 180.684 337.812 292.149 491.316c33.7256 46.4502 149.394 14.7939 116.639 -45.9463zM212.021 336.116
c-104.884 6.42676 -154.155 98.915 -161.845 193.619c-3.41504 41.9004 45.1777 54.1309 81.1006 41.4336c26.4932 36.1787 71.1953 56.502 120.337 49.4258c74.4727 -10.7197 130.736 -84.9727 127.423 -159.665c-3.74414 -84.3135 -90.8496 -129.482 -167.016 -124.813z
M271.597 572.881c-41.2598 22.1719 -85.4766 5.96973 -107.539 -28.5615c0.860352 -1.7666 1.63867 -3.5791 2.25195 -5.4834c10.6465 -33.1943 14.6748 -82.6289 45.1777 -104.756c26.6582 -19.3438 67.918 -9.73145 88.25 14.4736
c33.3135 39.6572 15.627 100.81 -28.1406 124.327zM720.921 103.655c54.3877 -60.5303 60.0811 -144.918 19.2607 -214.694c-44.0879 -75.3691 -143.323 -113.928 -217.915 -55.5215c-88.1494 69.0166 -52.6934 181.169 -28.626 271.955
c7.90918 29.835 43.8682 40.2256 75.2314 34.916c51.7051 21.5039 112.647 7.19531 152.049 -36.6553zM662.404 -75.0889c30.3291 33.4873 47.7412 83.8555 34.2383 128.146c-11.8555 38.8975 -46.5693 60.4844 -82.2725 59.5596
c3.93652 -7.33301 5.47461 -15.9473 3.58887 -25.7705c-9.28223 -48.2354 -33.752 -99.8945 -27.7012 -149.677c6.12402 -50.3682 43.209 -44.207 72.1465 -12.2578z" />
    <glyph glyph-name="ampersand" unicode="&#x26;" horiz-adv-x="792" 
d="M686.293 112.562c-19.3164 5.88672 -37.8545 13.8145 -56.7588 20.9277c-28.5166 -55.8428 -64.2471 -107.694 -107.887 -152.332c45.3154 -13.1367 93.5967 -16.3955 143.489 -6.60059c50.9082 9.9873 75.1035 -57.6924 20.5146 -70.7373
c-79.7451 -19.0508 -158.19 -9.26465 -230.026 19.9111c-77.3008 -56.6396 -180.875 -106.505 -278.233 -87.5186c-73.3555 14.3086 -143.946 73.9326 -123.953 155.344c17 69.2178 75.8916 131.697 129.345 186.158c-5.65723 10.5645 -11.0039 21.2207 -15.9111 31.9678
c-76.0654 166.806 -92.708 425.999 73.5293 547.215c75.8916 55.3389 180.922 71.5977 263.854 21.0283c92.0859 -56.1631 111.43 -171.812 77.8779 -268.32c-51.623 -148.469 -175.173 -247.375 -287.591 -353.284c47.0449 -68.5312 110.733 -126.81 184.354 -159.437
c45.9189 42.6973 84.3135 93.5967 114.478 148.552c-17.458 5.0625 -35.0068 9.75 -51.8516 16.6162c-14.1436 5.76758 -21.8887 24.1221 -16.8809 38.2021c5.72168 16.1025 23.3809 22.7393 39.0352 23.0869c54.6348 1.21777 120.768 -23.1338 164.911 -54.085
c36.0869 -25.2939 -11.6084 -66.0498 -42.2949 -56.6943zM217.598 562.848c-26.3564 -91.8203 -16.625 -194.143 14.3721 -283.481c4.1748 -12.0195 8.91699 -24.0029 14.1172 -35.8945c60.4932 64.1182 120.812 128.96 167.849 203.845
c43.5479 69.3184 97.166 208.989 -7.66309 254.204c-92.8916 40.0605 -166.649 -61.9307 -188.675 -138.673zM387.259 -70.7598c8.33984 4.72363 16.459 9.79688 24.4688 15.0146c-68.4668 36.6729 -129.18 90.7676 -176.976 153.129
c-25.2939 -26.4385 -49.1045 -53.8379 -70.2422 -83.0322c-19.9482 -27.5645 -38.6602 -62.041 -11.627 -92.1045c15.6455 -17.4023 39.6582 -25.623 61.9492 -29.624c59.6973 -10.7021 120.74 7.30469 172.427 36.6172z" />
    <glyph glyph-name="quotesingle" unicode="'" horiz-adv-x="179" 
d="M124.053 698.116c9.44727 -49.1328 1.25586 -103.466 3.04102 -153.495c1.50098 -42.2119 -79.0869 -40.1797 -77.0547 2.69141c2.41699 51.1006 6.24316 111.713 32.498 156.836c8.2666 14.208 38.3115 10.6289 41.5156 -6.03223z" />
    <glyph glyph-name="quotesingle" unicode="&#x2019;" horiz-adv-x="179" 
d="M124.053 698.116c9.44727 -49.1328 1.25586 -103.466 3.04102 -153.495c1.50098 -42.2119 -79.0869 -40.1797 -77.0547 2.69141c2.41699 51.1006 6.24316 111.713 32.498 156.836c8.2666 14.208 38.3115 10.6289 41.5156 -6.03223z" />
    <glyph glyph-name="quotesingle" unicode="&#x2018;" horiz-adv-x="179" 
d="M124.053 698.116c9.44727 -49.1328 1.25586 -103.466 3.04102 -153.495c1.50098 -42.2119 -79.0869 -40.1797 -77.0547 2.69141c2.41699 51.1006 6.24316 111.713 32.498 156.836c8.2666 14.208 38.3115 10.6289 41.5156 -6.03223z" />
    <glyph glyph-name="parenleft" unicode="(" horiz-adv-x="505" 
d="M393.281 -174.57c45.2422 4.21094 92.9004 -53.7275 35.5654 -77.4834c-123.971 -51.3848 -258.689 29.1475 -316.793 140.412c-62.3975 119.494 -69.0166 274.334 -57.2715 405.849c12.835 143.718 55.083 279.818 126.544 405.163
c31.1807 54.6895 70.7559 101.68 123.449 136.448c33.7715 22.2822 70.8838 40.2891 101.726 4.29297c14.5469 -16.9814 -18.7207 -30.1826 -31.4551 -18.8672c-37.5889 33.4141 -128.43 -224.195 -135.47 -247.905c-28.9834 -97.6787 -48.8857 -198.159 -53.2344 -300.141
c-5.55664 -130.389 4.04688 -466.663 206.939 -447.769z" />
    <glyph glyph-name="parenright" unicode=")" horiz-adv-x="495" 
d="M438.951 296.643c12.8252 -139.616 8.49512 -299.676 -53.0781 -428.7c-53.9023 -112.931 -179.622 -193.985 -302.165 -134.233c-39.8408 19.4258 -14.1348 71.1309 24.5527 67.918c99.2627 -8.22949 146.024 91.2529 167.986 171.858
c27.418 100.654 34.5215 206.976 29.3125 310.834c-5.27344 105.131 -18.6113 211.26 -45.0586 313.306c-22.0078 84.9268 -56.2549 269.62 -181.114 218.492c-20.6523 -8.45898 -42.8975 18.6113 -19.1143 29.6338c116.94 54.1768 210.436 -52.5566 264.558 -144.624
c70.4355 -119.814 101.533 -267.432 114.121 -404.484z" />
    <glyph glyph-name="asterisk" unicode="*" horiz-adv-x="304" 
d="M234.365 592.683c27.2627 -2.05078 26.1631 -38.4844 -1.28223 -36.5166c-12.4229 0.897461 -24.7998 1.21777 -37.1406 1.15332c10.3809 -9.75879 20.835 -19.4258 31.4355 -28.9561c19.499 -17.5215 -13.4121 -38.4941 -30.0732 -23.5176
c-9.35547 8.4043 -18.5742 16.9453 -27.7559 25.5322c-0.640625 -17.833 -0.979492 -35.6846 -0.667969 -53.582c0.412109 -23.3896 -40.6006 -21.4307 -42.0283 1.46484c-0.851562 13.6953 -0.870117 27.3633 -0.430664 41.0127
c-6.75586 -8.78809 -13.3467 -17.7412 -19.6172 -26.9961c-11.3154 -16.6982 -44.4736 -2.12402 -32.0322 17.1367c9.20996 14.2715 19.0693 28.0029 29.4414 41.2949c-9.19141 -1.08984 -18.3828 -2.24316 -27.5928 -3.44238
c-26.0449 -3.40527 -39.0166 32.5723 -10.4912 36.1885c15.2061 1.93164 30.4023 3.78125 45.5986 5.40137c-12.542 14.4551 -25.3125 29.1846 -39.9688 39.5654c-18.0615 12.7979 8.78906 34.082 24.1875 24.5518c14.5742 -9.01758 27.0977 -21.4863 39.1172 -34.3574
c1.30957 12.3125 2.56348 24.6348 3.52441 36.9658c1.58398 20.3691 37.708 19.1885 37.0215 -1.29004c-0.320312 -9.59375 -0.759766 -19.1787 -1.23535 -28.7539c8.38574 7.49805 16.918 14.8398 25.7617 21.8799c17.9707 14.3086 49.9746 -9.97852 28.8457 -25.999
c-11.5254 -8.74219 -22.6113 -17.8965 -33.3037 -27.4268c12.8711 0.0185547 25.7607 -0.338867 38.6865 -1.30957z" />
    <glyph glyph-name="plus" unicode="+" horiz-adv-x="384" 
d="M311.866 223.9c25.752 1.26367 31.5303 -37.4609 4.96387 -39.6123c-23.6279 -1.91309 -47.292 -3.42383 -70.9658 -4.76074c-0.604492 -58.2139 8.53223 -118.863 -0.878906 -176.354c-5.07129 -30.9697 -55.6689 -44.8203 -71.6895 -13.6943
c-27.9951 54.3965 -39.1729 118.981 -41.4521 184.684c-20.1221 -0.833008 -40.2344 -1.66602 -60.3379 -2.57227c-29.8984 -1.35449 -27.8574 38.0283 1.38184 39.502c19.5635 0.979492 39.1172 2.09668 58.6709 3.1582c0.824219 53.3711 6.39062 106.294 12.6523 153.907
c8.29395 63.0654 123.458 58.2139 114.936 -4.00977c-6.52734 -47.6953 -10.3086 -95.6377 -12.1582 -143.708c21.623 1.17188 43.2461 2.39844 64.8779 3.45996z" />
    <glyph glyph-name="comma" unicode="," horiz-adv-x="222" 
d="M92.7988 29.4482c20.8994 36.3799 89.708 11.3154 77.9258 -30.6953c-10.5557 -37.6621 -27.8398 -73.8223 -48.4922 -107.081c-14.6934 -23.6641 -65.0986 -18.6016 -70.793 10.2812c-8.28516 42.0283 21.1465 92.3145 41.3594 127.495z" />
    <glyph glyph-name="hyphen" unicode="-" horiz-adv-x="463" 
d="M371.867 254.037c56.9229 -4.42188 54.3682 -81.3193 -2.66504 -76.1377c-93.999 8.55078 -188.812 12.0107 -283.187 10.0146c-41.2959 -0.870117 -51.1367 60.2002 -8.01855 63.9258c98.3018 8.48633 195.459 9.83203 293.87 2.19727z" />
    <glyph glyph-name="period" unicode="." horiz-adv-x="201" 
d="M150.496 -39.0547c2.04102 -22.7305 -24.8066 -37.1113 -43.4727 -38.5674c-10.8574 -0.851562 -21.0098 1.11621 -30.7773 5.91309c-8.21191 4.02832 -20.1221 15.3711 -21.459 25.1484c-3.22266 23.5908 -9.31055 52.748 0.777344 75.5703
c6.9209 15.6631 21.5586 24.415 38.2744 25.7148c14.2998 1.10742 37.1494 -4.56836 44.1064 -19.5723c6.38086 -13.7412 9.06348 -27.1895 10.3906 -42.2852c0.933594 -10.6191 1.20801 -21.293 2.16016 -31.9219z" />
    <glyph glyph-name="slash" unicode="/" horiz-adv-x="721" 
d="M540.719 712.534c40.8203 63.6152 165.835 8.37695 119.979 -64.2002c-191.156 -302.595 -343.625 -626.804 -515.575 -940.229c-22.8682 -41.6992 -112.528 -12.6514 -92.123 36.2891c139.085 333.537 292.149 663.385 487.719 968.14z" />
    <glyph glyph-name="zero" unicode="0" horiz-adv-x="582" 
d="M84.3271 315.91c-83.2334 110.99 -6.18848 349.749 135.332 377.753c157.321 31.1348 251.448 -152.158 282.619 -275.25c39.4561 -155.856 47.75 -353.76 -31.0986 -498.832c-38.0371 -69.9775 -105.277 -121.298 -187.843 -119.448
c-83.0137 1.8584 -143.406 61.207 -173.104 134.462c-46.8711 115.613 -41.5068 249.443 -21.1377 376.884c-1.7666 1.21777 -3.41406 2.62793 -4.76855 4.43164zM125.972 554.752c-23.8105 -49.7363 -39.1895 -116.875 -24.2402 -173.203
c6.34375 31.9678 13.2188 63.2217 20.002 93.3223c13.8779 61.5273 140.669 45.2686 130.617 -19.4912c-12.6426 -81.457 -27.0977 -163.198 -32.3525 -245.553c-4.86133 -76.2393 -6.65527 -161.532 23.042 -233.478c7.30566 -17.7051 21.9258 -53.3438 44.5928 -53.0146
c21.2568 0.301758 42.4219 33.2949 51.4941 48.3545c37.0391 61.4541 48.1709 138.27 54.4326 208.521c6.84766 76.8525 7.8916 156.598 -3.37793 233.084c-9.62109 65.2998 -24.6533 140.001 -62.8184 195.312c-26.3926 38.2568 -72.2383 61.9492 -117.782 41.9463
c-38.2295 -16.7891 -66.1514 -59.3486 -83.6094 -95.8018z" />
    <glyph glyph-name="one" unicode="1" horiz-adv-x="454" 
d="M346.675 217.178c-7.88184 -115.879 -12.4424 -231.035 -6.70215 -347.061c8.90723 -0.265625 17.7783 -0.677734 26.6035 -1.29102c50.6152 -3.5332 48.6475 -70.1875 -2.36133 -67.7246c-73.502 3.54297 -145.878 3.3877 -219.426 0.970703
c-29.999 -0.979492 -31.6924 35.3916 -5.41895 43.1729c17.7598 5.25488 35.9043 9.63965 54.2871 13.2285c-0.952148 3.66211 -1.69336 7.46094 -1.98633 11.4893c-12.7979 174.12 29.5234 347.672 56.3916 518.578c6.76562 43.0264 13.0459 86.3369 18.1729 129.592
c3.21289 27.0977 15.9648 88.6533 0.0361328 111.476c-57.8203 82.8672 -156.333 -150.244 -169.644 -180.994c-10.0332 -23.1699 -55.7969 -12.6055 -44.9854 12.084c33.2676 75.9375 73.4102 188.1 157 222.228c81.8506 33.4229 126.863 -62.1328 138.105 -128.201
c18.8125 -110.578 7.47949 -226.429 -0.0732422 -337.547z" />
    <glyph glyph-name="two" unicode="2" horiz-adv-x="534" 
d="M88.5918 393.412c-73.3926 193.646 264.258 424.123 357.589 197.603c48.4824 -117.682 -8.01953 -270.114 -55.8242 -379.182c-26.3467 -60.0908 -58.7266 -117.737 -91.4541 -174.541c-17.7969 -30.8965 -36.3076 -61.2529 -55.3213 -91.4082
c-1.58398 -2.51758 -3.63477 -5.49316 -5.91406 -8.74316c15.123 3.31348 30.1729 7.04883 45.2598 10.4639c47.6133 10.7842 94.9238 19.3438 143.946 16.6523c63.3125 -3.48828 82.958 -93.3398 12.7061 -101.286c-69.7207 -7.88184 -134.178 -31.7207 -201.747 -48.9219
c-56.3555 -14.3359 -143.232 -30.5303 -178.542 32.041c-32.7275 58.0127 29.1572 128.759 60.0811 174.715c38.7051 57.5273 78.6094 114.185 114.742 173.405c36.6182 60.0078 69.959 121.315 100.004 184.866c28.8281 60.9971 66.9473 137.758 54.2686 207.231
c-17.5312 96.0498 -134.398 54.5068 -184.245 12.4961c-56.2002 -47.3564 -98.0918 -123.238 -70.5273 -196.612c9.35645 -24.9004 -36.2695 -31.8672 -45.0215 -8.7793z" />
    <glyph glyph-name="three" unicode="3" horiz-adv-x="631" 
d="M88.2461 561.765c53.0508 59.001 135.417 90.9482 214.375 84.4941c84.8262 -6.91211 149.21 -63.4414 132.842 -154.017c-10.29 -56.9414 -40.4814 -109.04 -75.6533 -157.614c72.3848 -5.92285 139.707 -34.3477 182.66 -102.329
c60.6035 -95.9121 45.4805 -219.517 -11.6621 -312.848c-61.876 -101.066 -180.739 -163.18 -298.824 -135.927c-111.604 25.7607 -185.48 135.021 -155.133 247.786c9.6582 35.8955 79.3242 34.083 86.0166 -3.00195c11.7363 -65.0156 27.3633 -140.037 108.939 -139.799
c63.5234 0.192383 119.274 52.9229 146.052 106.587c27.3994 54.9277 35.5742 127.862 1.48242 181.993c-39.4746 62.6816 -119.998 41.0215 -180.985 30.6953c-58.3965 -9.88672 -114.44 50.3232 -63.001 98.0547c42.3213 39.2637 84.8809 78.6279 123.238 121.838
c35.6572 40.1699 119.925 127.752 45.7451 168.142c-46.1025 25.1016 -116.968 8.38574 -160.178 -14.6934c-25.8984 -13.833 -49.5449 -33.3779 -66.9297 -57.0879c-18.0898 -24.6719 -40.5547 -80.3496 6.05078 -92.3877
c28.9102 -7.46973 12.9717 -42.7061 -13.4121 -36.5176c-85.458 20.0488 -66.9658 116.199 -21.623 166.632z" />
    <glyph glyph-name="four" unicode="4" horiz-adv-x="664" 
d="M165.896 276.335c26.2832 9.75 53.0146 18.5273 79.9658 26.7207c11.9287 39.2178 18.584 80.2393 24.0215 110.834c14.5742 82.0068 21.248 166.092 26.2002 249.151c1.4834 24.8457 42.3955 22.3926 44.1719 -1.53711
c5.75781 -77.5576 15.5811 -217.942 -7.85449 -334.581c42.3857 10.6006 85.1191 19.9111 127.88 28.3154c1.05273 101.872 6.75586 206.179 33.5693 300.81c13.0361 46.0107 107.95 46.7344 114.276 -3.99121c17.0547 -136.741 -5.86816 -280.55 -10.958 -417.987
c-2.54492 -68.8516 -2.14258 -137.676 -3.15918 -206.546c-0.952148 -64.5215 4.82422 -132.75 -8.63281 -196.072c-6.98535 -32.8467 -60.4756 -28.0312 -75.2783 -5.61133c-34.5039 52.2451 -35.6846 127.432 -41.8271 188.145
c-7.25 71.6807 -8.06445 143.873 -8.06445 215.874c0 27.6465 -0.165039 55.9062 -0.137695 84.4775c-46.5967 -9.80469 -92.9463 -20.7354 -138.994 -32.9111c-29.6973 -97.6514 -90.2734 -166.759 -208.88 -144.468c-33.2129 6.24316 -74.6279 24.4238 -58.6621 65.0059
c16.3955 41.6719 74.8018 60.4385 112.363 74.3721zM171.215 190.061c24.6074 13.1826 42.6133 36.957 56.2354 65.043c-24.0762 -7.62598 -47.8047 -16.2861 -70.5811 -27.0791c-8.96191 -4.23828 -37.332 -14.6748 -42.5039 -24.6445
c-20.5244 -39.5381 43.7773 -20.3223 56.8496 -13.3193z" />
    <glyph glyph-name="five" unicode="5" horiz-adv-x="630" 
d="M62.8047 598.759c67.0479 38.7881 152.589 50.1553 228.517 58.3486c78.9951 8.55078 162.86 15.3799 241.8 6.0791c34.3301 -4.0459 48.373 -52.2539 7.20508 -57.3984c-74.2803 -9.2832 -149.998 -4.60547 -224.764 -9.5127
c-10.125 -0.667969 -20.1768 -1.58301 -30.1738 -2.68164c-22.6572 -66.0137 -40.1973 -137.199 -52.6387 -204.641c-4.56836 -24.7812 -12.5059 -29.3857 14.2441 -29.5049c21.9248 -0.0917969 43.9961 -0.585938 65.9121 -1.50098
c35.208 -1.47363 71.2129 -4.5127 105.231 -14.1436c63.4414 -17.9609 122.141 -56.9775 147.261 -120.144c24.498 -61.6104 15.2607 -134.893 -8.44043 -195.239c-45.6719 -116.309 -180.51 -257.646 -319.22 -225.852c-160.9 36.875 -152.066 252.327 -131.35 376.325
c9.82324 58.8359 117.087 56.9316 109.928 -3.83594c-7.70801 -65.4277 -14.0791 -133.538 5.2373 -197.593c6.20703 -20.5703 18.126 -56.9043 39.9326 -67.2402c21.1016 -10.0059 45.8281 3.96387 64.5488 14.4736c85.1279 47.7871 197.454 185.691 135.478 287.729
c-34.1104 56.1543 -109.745 59.4404 -168.032 61.2617c-49.123 1.53809 -121.591 -7.02148 -152.313 42.3945c-28.0586 45.123 4.7334 121.729 21.7148 165.652c14.5098 37.5244 32.3066 70.0049 52.7949 101.387c-44.5918 -8.07422 -88.7441 -17.9707 -133.959 -25.5693
c-27.0791 -4.5498 -45.1963 25.999 -18.9131 41.2051z" />
    <glyph glyph-name="six" unicode="6" horiz-adv-x="539" 
d="M210.947 -151.32c-138.398 60.9785 -165.141 247.73 -160.453 380.957c4.77832 135.469 40.8379 279.067 133.07 382.276c43.0264 48.1436 104.023 91.4629 172.362 72.833c46.2217 -12.6055 74.3906 -64.3105 59.1943 -109.159
c-5.47461 -16.1582 -38.8154 -13.1094 -36.2158 5.40137c8.83398 63.0107 -53.9209 27.4365 -72.6787 6.38086c-16.2588 -18.2451 -30.6035 -39.0166 -42.5596 -60.3008c-24.1953 -43.0723 -41.9365 -89.6875 -53.8008 -137.594
c-15.334 -61.9395 -22.584 -128.383 -20.7715 -193.92c121.856 19.3438 310.267 -15.0684 299.336 -168.901c-9.36523 -131.789 -153.586 -232.571 -277.483 -177.974zM346.937 121.256c-49.1602 15.0869 -102.136 12.375 -151.918 1.55469
c2.01367 -14.8486 4.47656 -29.5508 7.51562 -44.0146c10.0146 -47.7041 25.4492 -109.653 66.3789 -140.962c45.7266 -34.9795 103.767 7.35156 130.067 48.0439c37.0029 57.2529 10.3174 116.235 -52.0439 135.378z" />
    <glyph glyph-name="seven" unicode="7" horiz-adv-x="472" 
d="M354.351 665.623c85.6406 -22.5938 73.2852 -114.904 52.9531 -180.661c-24.0127 -77.5576 -55.8154 -152.826 -84.6885 -228.983c23.8105 -4.37598 47.667 -8.52344 71.6338 -12.1855c28.7725 -4.39453 12.9902 -40.2715 -13.2012 -35.9414
c-23.9209 3.95508 -47.7139 8.38574 -71.4609 13.0635c-4.53125 -12.5049 -8.93457 -25.0469 -13.1729 -37.6436c-34.8516 -103.63 -55.3213 -208.532 -83.1973 -313.81c-17.0186 -64.2832 -140.688 -47.7871 -136.211 20.3232
c8.05566 122.552 54.2773 244.463 108.344 359.105c-13.9424 3.5332 -27.8848 7.03027 -41.7812 10.8203c-26.0176 7.09473 -11.7461 39.2822 12.1475 33.085c15.0869 -3.90918 30.2197 -7.52539 45.3613 -11.1416c18.3457 37.5615 37.2227 74.29 55.5596 109.855
c20.3047 39.3916 41.9551 77.9688 62.791 117.059c14.2715 26.7861 65.9307 100.819 21.3574 120.117c-37.543 16.249 -102.596 3.79004 -140.486 -3.79004c-41.8545 -8.36719 -80.6699 -28.6357 -123.221 -32.6914c-26.3105 -2.50879 -39.8047 33.8896 -10.666 36.7734
c52.3369 5.18164 101.763 31.4824 154.667 38.4492c42.7148 5.62109 91.1699 9.30078 133.271 -1.80371z" />
    <glyph glyph-name="eight" unicode="8" horiz-adv-x="470" 
d="M385.923 581.483c24.0215 -54.9092 5.45508 -119.236 -10.4648 -173.788c-17.1553 -58.7266 -39.9775 -115.402 -63.8525 -171.648c15.2969 -16.5791 29.9346 -32.4805 42.4492 -47.6133c39.6299 -47.9238 74.0781 -107.795 64.7959 -172.197
c-7.4248 -51.5859 -35.3281 -107.475 -78.7754 -137.611c-93.5967 -64.9336 -223.527 -17.7881 -262.352 86.3721c-34.2285 91.8291 -10.335 199.725 38.0928 286.721c-71.5791 94.0078 -99.8115 215.69 -6.84668 311.539c64.4111 66.416 225.028 136.934 276.953 18.2266z
M356.06 -15.9141c0.540039 36.5635 -23.7637 68.1104 -48.2617 92.4434c-49.7646 49.4258 -110.222 86.4375 -159.171 137.053c-0.594727 0.613281 -1.17188 1.25391 -1.75781 1.86719c-20.4697 -43.0908 -33.0117 -89.6963 -35.8223 -138.436
c-5.32812 -92.4248 43.0908 -210.692 156.836 -186.058c41.9551 9.09082 87.4902 47.2383 88.1768 93.1299zM340.719 459.345c10.2529 45.9746 21.6953 130.059 -44.7939 135.35c-39.1631 3.10352 -73.4287 -35.7207 -91.0693 -67.4229
c-52.0713 -93.5869 6.70117 -179.081 71.9277 -252.931c25.752 60.1084 49.7373 121.307 63.9355 185.004z" />
    <glyph glyph-name="nine" unicode="9" horiz-adv-x="628" 
d="M468.307 354.808c4.33008 37.5342 8.0752 75.1318 7.57129 112.949c-0.228516 16.8447 4.53223 88.4883 -10.124 97.3594c-28.1777 17.0645 -88.4424 -125.747 -97.4775 -146.062c-39.4375 -88.6709 -103.812 -255.211 -227.28 -230.42
c-162.75 32.6816 -71.2773 232.142 -1.46484 308.106c70.9297 77.1816 182.624 175.025 294.044 127.889c7.31445 -3.10352 10.4365 -8.08398 10.7295 -13.3477c59.0742 17.2012 87.7188 -43.3291 105.652 -90.2373c28.3516 -74.1523 30.2285 -156.681 27.0059 -235.007
c-3.61621 -87.7188 -15.6914 -174.037 -33.0391 -260.054c-15.1143 -74.9121 -35.6201 -147.59 -81.7686 -209.776c-45.8457 -61.7842 -165.542 -10.207 -121.802 65.1807c79.9561 137.804 109.928 317.188 127.953 473.419zM333.049 476.179
c18.9502 35.7031 41.7002 86.5938 76.0391 115.678c-69.2637 16.2861 -138.875 -103.867 -167.557 -149.677c-20.3691 -32.5264 -39.4746 -66.4443 -46.2305 -104.774c-2.37109 -13.4209 -5.55664 -31.584 0.338867 -44.8213
c8.44922 1.60254 15.8643 5.07227 22.1631 10.5742c57.6553 37.4785 84.4688 115.045 115.246 173.021z" />
    <glyph glyph-name="colon" unicode=":" horiz-adv-x="185" 
d="M132.132 299.371c-0.613281 -45.4434 -85.0732 -42.2754 -82.0518 2.86621c1.60156 24.0215 0.722656 49.2969 8.06445 72.4307c7.39648 23.3076 49.1875 26.0078 60.1914 4.48535c12.6152 -24.6719 14.1621 -52.4375 13.7959 -79.7822zM134.118 49.7725
c6.28027 -22.3281 -16.4688 -38.1543 -36.4258 -37.459c-21.1748 0.741211 -39.8779 17.8057 -33.7354 39.9141c1.87695 6.77441 2.56348 12.9629 3.35059 19.9482c0.878906 7.79004 5.05371 16.166 4.51367 23.7822c-0.768555 10.8027 11.5166 17.293 20.4238 18.1172
c9.59375 0.887695 21.998 -4.23926 24.5342 -14.5928c2.10547 -8.57812 8.55957 -15.6914 10.7656 -24.5713c2.09668 -8.44043 4.2207 -16.7715 6.57324 -25.1387z" />
    <glyph glyph-name="semicolon" unicode=";" horiz-adv-x="227" 
d="M174.958 329.251c-3.28613 -46.3955 -85.8887 -43.583 -84.2041 2.94043c0.347656 9.72168 0.146484 19.416 0.585938 29.1377c0.201172 4.50391 0.0546875 9.03516 0.265625 13.5303c0.448242 9.31934 2.77344 15.3887 7.66211 23.3252
c11.251 18.2637 44.9766 18.9043 59.0469 4.31152c10.8574 -11.2598 13.3477 -21.8887 15.4531 -36.6279c1.78516 -12.5049 2.07812 -24.085 1.19043 -36.6172zM133.048 109.992c12.6611 16.4229 52.0889 7.16895 42.4492 -16.7246
c-10.1436 -25.1562 -6.4541 -61.9395 -11.2783 -89.0557c-5.49316 -30.8418 -13.1465 -61.0791 -20.5527 -91.5088c-12.0381 -49.4258 -109.396 -28.2334 -91.4717 24.5791c20.9277 61.6924 40.8848 120.85 80.8535 172.71z" />
    <glyph glyph-name="less" unicode="&#x3c;" horiz-adv-x="412" 
d="M357.734 311.839c-18.7207 -26.5752 -49.0879 -40.416 -76.5244 -56.5186c-30.8047 -18.0713 -61.7842 -35.959 -92.1494 -54.7627c4.56836 -1.58398 8.00098 -2.7832 8.98926 -3.04883c38.4678 -10.2715 77.4482 -16.0576 116.565 -23.1162
c62.1777 -11.2139 39.6846 -94.3193 -17.7783 -90.1816c-59.5508 4.29395 -289.504 26.9336 -239.877 133.245c19.4072 41.5801 81.0723 61.8848 119.22 80.7158c47.4297 23.417 102.897 54.0938 157.02 52.4277c19.5088 -0.604492 37.6074 -20.2041 24.5352 -38.7607z" />
    <glyph glyph-name="equal" unicode="=" horiz-adv-x="476" 
d="M376.272 194.881c-95.9219 -0.192383 -190.131 7.46191 -286.29 1.31934c-36.4258 -2.31641 -58.6895 53.3252 -18.7852 66.0771c102.348 32.7188 215.672 29.2764 321.004 13.4023c57.6924 -8.69727 33.6797 -80.6982 -15.9287 -80.7988zM375.871 161.669
c55.8516 -6.12402 54.7441 -76.2012 -2.63672 -75.5234c-44.6377 0.521484 -89.1201 3.58789 -133.812 3.05664c-44.4092 -0.53125 -89.1475 -6.33496 -133.455 -3.86328c-43.8594 2.44434 -51.54 55.0918 -8.32129 66.2969
c85.3574 22.1357 191.083 19.5908 278.226 10.0332z" />
    <glyph glyph-name="greater" unicode="&#x3e;" horiz-adv-x="422" 
d="M281.637 294.922c37.9092 -10.7754 89.9629 -24.9014 90.8232 -73.6035c0.841797 -46.8164 -56.7949 -70.1055 -90.6025 -90.4199c-47.5947 -28.5898 -96.3057 -55.9707 -147.626 -77.3193c-58.5068 -24.3418 -121.536 53.7471 -54.0674 83.792
c36.7559 16.3594 73.9873 31.4922 110.267 48.9316c5.81348 2.80176 33.6064 20.0762 56.7305 32.9658c-0.705078 0.219727 -1.41895 0.430664 -2.12402 0.650391c-18.9775 5.74023 -37.9912 11.3242 -57.0605 16.7617c-35.4004 10.1064 -70.957 19.627 -106.614 28.7812
c-58.7998 15.0957 -26.4014 86.9961 27.29 74.29c57.9756 -13.7227 115.677 -28.5439 172.984 -44.8301z" />
    <glyph glyph-name="question" unicode="?" horiz-adv-x="576" 
d="M390.054 743.037c143.067 -30.833 147.927 -203.505 127.777 -318.77c-13.6582 -78.0889 -36.5908 -154.117 -55.998 -230.842c-21.2754 -84.085 -30.6953 -173.306 -58.7266 -255.212c-21.0557 -61.5 -123.33 -43.2549 -127.12 18.9688
c-6.81055 111.924 41.4893 233.615 78.9316 337.409c35.2812 97.8164 89.6592 197.326 96.791 302.842c9.89648 146.602 -175.09 123.688 -255.879 61.0791c-41.5986 -32.2422 -73.8408 -78.0244 -78.6016 -131.542c-4.73242 -53.1787 25.6426 -133.189 92.0957 -122.451
c25.541 4.12891 38.1191 -29.5137 10.3262 -35.6016c-136.567 -29.9082 -209.228 112.674 -147.37 224.25c59.4131 107.163 196.183 176.069 317.773 149.869zM316.879 -156.352c13.4482 35.2539 83.6074 29.8721 80.2754 -11.9736
c-2.19727 -27.5186 -5.91406 -55.001 -8.66016 -82.4922c-4.80566 -48.0889 -88.2314 -45.6816 -87.7734 3.06641c0.28418 30.4297 5.29199 62.9287 16.1582 91.3994z" />
    <glyph glyph-name="at" unicode="@" horiz-adv-x="971" 
d="M852.512 562.317c98.3662 -163.766 99.335 -435.164 -50.7637 -570.615c-85.9521 -77.5664 -214.116 -49.8926 -261.546 55.0645c-29.8809 66.1143 -29.7803 139.744 -23.4912 212.926c-5.0625 -13.0449 -10.0879 -26.0625 -15.2324 -38.9062
c-18.6758 -46.6611 -43.0547 -89.0742 -65.6572 -133.62c-23.4541 -46.2305 -46.624 -89.7695 -108.188 -79.2051c-59.541 10.2256 -83.6816 63.2852 -83.6455 118.688c0.0644531 97.752 54.5703 224.927 129.849 288.057c37.7627 31.6748 85.5225 54.8086 135.003 37.415
c18.8037 -6.60938 32.8008 -18.2354 40.4355 -33.2119c11.5801 2.35254 24.6074 -2.37109 28.8281 -14.9404c31.8213 -94.7959 33.6064 -196.951 66.6455 -290.896c13.3105 -37.8633 30.9883 -68.6318 66.5625 -39.8496c31.959 25.8525 54.4795 65.8125 69.4746 103.364
c53.9932 135.268 33.1758 319.869 -81.0918 418.747c-136.339 117.975 -329.646 41.9277 -434.274 -79.3242c-97.6426 -113.159 -145.686 -274.279 -115.842 -421.942c16.5332 -81.8047 56.1904 -162.63 130.013 -206.782
c82.8398 -49.5352 170.998 -18.7852 254.588 11.2236c43.5391 15.627 88.5518 -34.9062 40.0234 -62.0225c-109.974 -61.4453 -246.23 -78.418 -355.92 -7.31445c-102.814 66.6543 -154.043 183.32 -165.761 302.046c-20.0664 203.277 81.0732 411.488 254.434 519.961
c175.246 109.645 430.191 103.2 545.558 -88.8623zM459.953 246.794c19.8652 43.3105 38.4561 87.042 58.2578 130.325c-0.0546875 0.228516 -0.164062 0.429688 -0.200195 0.658203c-8.7334 50.1123 -55.1748 -5.64844 -60.8779 -13.1553
c-8.12012 -10.6836 -15.6084 -22.0898 -22.374 -33.6885c-14.0889 -24.1494 -23.4541 -50.4502 -31.501 -77.1445c-8.30273 -27.5459 -15.1504 -55.4678 -19.4717 -83.9297c-2.38965 -15.7646 -5.05371 -31.959 -4.20215 -47.9521
c0.100586 -1.83105 0.485352 -4.05566 1.00684 -6.4541c3.75293 3.60645 7.22266 7.49707 10.1709 11.9004c9.2832 10.8301 17.5771 23.0244 25.2578 34.9805c17.0918 26.6309 30.7598 55.7334 43.9336 84.46z" />
    <glyph glyph-name="A" unicode="A" horiz-adv-x="1430" 
d="M1295.27 27.959c31.2539 -209.035 62.6631 -418.5 75.251 -629.531c4.18359 -70.124 -126.718 -75.9375 -139.406 -10.9404c-36.6455 187.687 -58.2598 377.955 -78.2627 568.169c-130.132 -58.3691 -267.78 -99.8389 -409.2 -121.764
c-75.333 -11.6816 -155.628 -20.04 -236.216 -20.5068c-16.8262 -55.9531 -34.1836 -111.75 -52.9961 -167.071c-25.5957 -75.2783 -52.6562 -152.899 -119.365 -201.492c-18.3457 -13.3652 -50.3408 10.2539 -28.8457 26
c0.0732422 0.0546875 0.12793 0.109375 0.201172 0.164062c0.430664 0.970703 0.870117 1.9502 1.52051 2.94824c67.4873 103.392 114.148 219.838 137.291 340.751c-122.058 5.96875 -242.037 32.9287 -343.598 97.2852c-75.6992 47.9697 -147.562 126.662 -140.11 222.666
c7.40625 95.3721 77.0908 193.408 158.438 240.966c84.6152 49.4619 195.926 48.9492 271.085 -18.0439c70.7559 -63.0654 95.3174 -162.905 106.403 -253.252c6.19727 -50.4873 7.98242 -101.158 6.00488 -151.563c14.5469 50.4512 29.084 100.902 44.1797 151.188
c56.7305 188.959 122.104 376.902 223.555 547.095c41.6621 69.8955 91.6006 155.738 180.198 168.536c78.5371 11.3428 149.896 -56.1992 188.867 -117.333c51.9336 -81.4668 75.4883 -183.247 91.6553 -277.127c19.5449 -113.525 38.0459 -227.197 54.9912 -341.135
l2.30566 -15.4629c50.5977 29.917 99.6113 62.626 146.675 98.1094c18.8223 14.1895 51.8613 -10.3906 29.8262 -26.8867c-54.4785 -40.7744 -111.456 -78.0703 -170.448 -111.769zM315.65 -130.112c44.5186 -9.2832 90.0195 -14.9053 135.966 -17.6338
c13.0449 87.1426 14.0059 176.106 1.39062 263.844c-11.5801 80.5605 -35.6387 172.692 -103.227 224.855c-97.0566 74.9209 -223.628 13.8418 -286.666 -73.6484c-64.4209 -89.4033 -77.457 -193.051 3.41406 -276c65.2168 -66.8926 159.371 -102.696 249.122 -121.417z
M901.39 -94.832c85.0273 22.7578 167.769 52.792 247.395 89.5205c-3.64355 34.8516 -7.25977 69.6934 -10.9307 104.518c-10.5557 100.105 -18.8135 200.385 -27.8125 300.637c-8.52246 94.9512 -17.6406 186.845 -48.9863 277.384
c-19.041 55.0098 -48.0977 123.596 -121.124 98.5762c-43.3838 -14.8574 -71.7998 -56.2822 -96.123 -92.6621c-54.0576 -80.8535 -98.2832 -168.042 -136.412 -257.399c-72.1748 -169.158 -121.811 -346.72 -173.396 -522.908
c-5.12695 -17.4854 -10.2812 -34.9707 -15.4629 -52.4375c129.629 0.238281 260.942 22.1543 382.854 54.7725z" />
    <glyph glyph-name="A" unicode="&#xc5;" horiz-adv-x="1430" 
d="M1295.27 27.959c31.2539 -209.035 62.6631 -418.5 75.251 -629.531c4.18359 -70.124 -126.718 -75.9375 -139.406 -10.9404c-36.6455 187.687 -58.2598 377.955 -78.2627 568.169c-130.132 -58.3691 -267.78 -99.8389 -409.2 -121.764
c-75.333 -11.6816 -155.628 -20.04 -236.216 -20.5068c-16.8262 -55.9531 -34.1836 -111.75 -52.9961 -167.071c-25.5957 -75.2783 -52.6562 -152.899 -119.365 -201.492c-18.3457 -13.3652 -50.3408 10.2539 -28.8457 26
c0.0732422 0.0546875 0.12793 0.109375 0.201172 0.164062c0.430664 0.970703 0.870117 1.9502 1.52051 2.94824c67.4873 103.392 114.148 219.838 137.291 340.751c-122.058 5.96875 -242.037 32.9287 -343.598 97.2852c-75.6992 47.9697 -147.562 126.662 -140.11 222.666
c7.40625 95.3721 77.0908 193.408 158.438 240.966c84.6152 49.4619 195.926 48.9492 271.085 -18.0439c70.7559 -63.0654 95.3174 -162.905 106.403 -253.252c6.19727 -50.4873 7.98242 -101.158 6.00488 -151.563c14.5469 50.4512 29.084 100.902 44.1797 151.188
c56.7305 188.959 122.104 376.902 223.555 547.095c41.6621 69.8955 91.6006 155.738 180.198 168.536c78.5371 11.3428 149.896 -56.1992 188.867 -117.333c51.9336 -81.4668 75.4883 -183.247 91.6553 -277.127c19.5449 -113.525 38.0459 -227.197 54.9912 -341.135
l2.30566 -15.4629c50.5977 29.917 99.6113 62.626 146.675 98.1094c18.8223 14.1895 51.8613 -10.3906 29.8262 -26.8867c-54.4785 -40.7744 -111.456 -78.0703 -170.448 -111.769zM315.65 -130.112c44.5186 -9.2832 90.0195 -14.9053 135.966 -17.6338
c13.0449 87.1426 14.0059 176.106 1.39062 263.844c-11.5801 80.5605 -35.6387 172.692 -103.227 224.855c-97.0566 74.9209 -223.628 13.8418 -286.666 -73.6484c-64.4209 -89.4033 -77.457 -193.051 3.41406 -276c65.2168 -66.8926 159.371 -102.696 249.122 -121.417z
M901.39 -94.832c85.0273 22.7578 167.769 52.792 247.395 89.5205c-3.64355 34.8516 -7.25977 69.6934 -10.9307 104.518c-10.5557 100.105 -18.8135 200.385 -27.8125 300.637c-8.52246 94.9512 -17.6406 186.845 -48.9863 277.384
c-19.041 55.0098 -48.0977 123.596 -121.124 98.5762c-43.3838 -14.8574 -71.7998 -56.2822 -96.123 -92.6621c-54.0576 -80.8535 -98.2832 -168.042 -136.412 -257.399c-72.1748 -169.158 -121.811 -346.72 -173.396 -522.908
c-5.12695 -17.4854 -10.2812 -34.9707 -15.4629 -52.4375c129.629 0.238281 260.942 22.1543 382.854 54.7725z" />
    <glyph glyph-name="A" unicode="&#xc4;" horiz-adv-x="1430" 
d="M1295.27 27.959c31.2539 -209.035 62.6631 -418.5 75.251 -629.531c4.18359 -70.124 -126.718 -75.9375 -139.406 -10.9404c-36.6455 187.687 -58.2598 377.955 -78.2627 568.169c-130.132 -58.3691 -267.78 -99.8389 -409.2 -121.764
c-75.333 -11.6816 -155.628 -20.04 -236.216 -20.5068c-16.8262 -55.9531 -34.1836 -111.75 -52.9961 -167.071c-25.5957 -75.2783 -52.6562 -152.899 -119.365 -201.492c-18.3457 -13.3652 -50.3408 10.2539 -28.8457 26
c0.0732422 0.0546875 0.12793 0.109375 0.201172 0.164062c0.430664 0.970703 0.870117 1.9502 1.52051 2.94824c67.4873 103.392 114.148 219.838 137.291 340.751c-122.058 5.96875 -242.037 32.9287 -343.598 97.2852c-75.6992 47.9697 -147.562 126.662 -140.11 222.666
c7.40625 95.3721 77.0908 193.408 158.438 240.966c84.6152 49.4619 195.926 48.9492 271.085 -18.0439c70.7559 -63.0654 95.3174 -162.905 106.403 -253.252c6.19727 -50.4873 7.98242 -101.158 6.00488 -151.563c14.5469 50.4512 29.084 100.902 44.1797 151.188
c56.7305 188.959 122.104 376.902 223.555 547.095c41.6621 69.8955 91.6006 155.738 180.198 168.536c78.5371 11.3428 149.896 -56.1992 188.867 -117.333c51.9336 -81.4668 75.4883 -183.247 91.6553 -277.127c19.5449 -113.525 38.0459 -227.197 54.9912 -341.135
l2.30566 -15.4629c50.5977 29.917 99.6113 62.626 146.675 98.1094c18.8223 14.1895 51.8613 -10.3906 29.8262 -26.8867c-54.4785 -40.7744 -111.456 -78.0703 -170.448 -111.769zM315.65 -130.112c44.5186 -9.2832 90.0195 -14.9053 135.966 -17.6338
c13.0449 87.1426 14.0059 176.106 1.39062 263.844c-11.5801 80.5605 -35.6387 172.692 -103.227 224.855c-97.0566 74.9209 -223.628 13.8418 -286.666 -73.6484c-64.4209 -89.4033 -77.457 -193.051 3.41406 -276c65.2168 -66.8926 159.371 -102.696 249.122 -121.417z
M901.39 -94.832c85.0273 22.7578 167.769 52.792 247.395 89.5205c-3.64355 34.8516 -7.25977 69.6934 -10.9307 104.518c-10.5557 100.105 -18.8135 200.385 -27.8125 300.637c-8.52246 94.9512 -17.6406 186.845 -48.9863 277.384
c-19.041 55.0098 -48.0977 123.596 -121.124 98.5762c-43.3838 -14.8574 -71.7998 -56.2822 -96.123 -92.6621c-54.0576 -80.8535 -98.2832 -168.042 -136.412 -257.399c-72.1748 -169.158 -121.811 -346.72 -173.396 -522.908
c-5.12695 -17.4854 -10.2812 -34.9707 -15.4629 -52.4375c129.629 0.238281 260.942 22.1543 382.854 54.7725z" />
    <glyph glyph-name="A" unicode="&#xc3;" horiz-adv-x="1430" 
d="M1295.27 27.959c31.2539 -209.035 62.6631 -418.5 75.251 -629.531c4.18359 -70.124 -126.718 -75.9375 -139.406 -10.9404c-36.6455 187.687 -58.2598 377.955 -78.2627 568.169c-130.132 -58.3691 -267.78 -99.8389 -409.2 -121.764
c-75.333 -11.6816 -155.628 -20.04 -236.216 -20.5068c-16.8262 -55.9531 -34.1836 -111.75 -52.9961 -167.071c-25.5957 -75.2783 -52.6562 -152.899 -119.365 -201.492c-18.3457 -13.3652 -50.3408 10.2539 -28.8457 26
c0.0732422 0.0546875 0.12793 0.109375 0.201172 0.164062c0.430664 0.970703 0.870117 1.9502 1.52051 2.94824c67.4873 103.392 114.148 219.838 137.291 340.751c-122.058 5.96875 -242.037 32.9287 -343.598 97.2852c-75.6992 47.9697 -147.562 126.662 -140.11 222.666
c7.40625 95.3721 77.0908 193.408 158.438 240.966c84.6152 49.4619 195.926 48.9492 271.085 -18.0439c70.7559 -63.0654 95.3174 -162.905 106.403 -253.252c6.19727 -50.4873 7.98242 -101.158 6.00488 -151.563c14.5469 50.4512 29.084 100.902 44.1797 151.188
c56.7305 188.959 122.104 376.902 223.555 547.095c41.6621 69.8955 91.6006 155.738 180.198 168.536c78.5371 11.3428 149.896 -56.1992 188.867 -117.333c51.9336 -81.4668 75.4883 -183.247 91.6553 -277.127c19.5449 -113.525 38.0459 -227.197 54.9912 -341.135
l2.30566 -15.4629c50.5977 29.917 99.6113 62.626 146.675 98.1094c18.8223 14.1895 51.8613 -10.3906 29.8262 -26.8867c-54.4785 -40.7744 -111.456 -78.0703 -170.448 -111.769zM315.65 -130.112c44.5186 -9.2832 90.0195 -14.9053 135.966 -17.6338
c13.0449 87.1426 14.0059 176.106 1.39062 263.844c-11.5801 80.5605 -35.6387 172.692 -103.227 224.855c-97.0566 74.9209 -223.628 13.8418 -286.666 -73.6484c-64.4209 -89.4033 -77.457 -193.051 3.41406 -276c65.2168 -66.8926 159.371 -102.696 249.122 -121.417z
M901.39 -94.832c85.0273 22.7578 167.769 52.792 247.395 89.5205c-3.64355 34.8516 -7.25977 69.6934 -10.9307 104.518c-10.5557 100.105 -18.8135 200.385 -27.8125 300.637c-8.52246 94.9512 -17.6406 186.845 -48.9863 277.384
c-19.041 55.0098 -48.0977 123.596 -121.124 98.5762c-43.3838 -14.8574 -71.7998 -56.2822 -96.123 -92.6621c-54.0576 -80.8535 -98.2832 -168.042 -136.412 -257.399c-72.1748 -169.158 -121.811 -346.72 -173.396 -522.908
c-5.12695 -17.4854 -10.2812 -34.9707 -15.4629 -52.4375c129.629 0.238281 260.942 22.1543 382.854 54.7725z" />
    <glyph glyph-name="A" unicode="&#xc2;" horiz-adv-x="1430" 
d="M1295.27 27.959c31.2539 -209.035 62.6631 -418.5 75.251 -629.531c4.18359 -70.124 -126.718 -75.9375 -139.406 -10.9404c-36.6455 187.687 -58.2598 377.955 -78.2627 568.169c-130.132 -58.3691 -267.78 -99.8389 -409.2 -121.764
c-75.333 -11.6816 -155.628 -20.04 -236.216 -20.5068c-16.8262 -55.9531 -34.1836 -111.75 -52.9961 -167.071c-25.5957 -75.2783 -52.6562 -152.899 -119.365 -201.492c-18.3457 -13.3652 -50.3408 10.2539 -28.8457 26
c0.0732422 0.0546875 0.12793 0.109375 0.201172 0.164062c0.430664 0.970703 0.870117 1.9502 1.52051 2.94824c67.4873 103.392 114.148 219.838 137.291 340.751c-122.058 5.96875 -242.037 32.9287 -343.598 97.2852c-75.6992 47.9697 -147.562 126.662 -140.11 222.666
c7.40625 95.3721 77.0908 193.408 158.438 240.966c84.6152 49.4619 195.926 48.9492 271.085 -18.0439c70.7559 -63.0654 95.3174 -162.905 106.403 -253.252c6.19727 -50.4873 7.98242 -101.158 6.00488 -151.563c14.5469 50.4512 29.084 100.902 44.1797 151.188
c56.7305 188.959 122.104 376.902 223.555 547.095c41.6621 69.8955 91.6006 155.738 180.198 168.536c78.5371 11.3428 149.896 -56.1992 188.867 -117.333c51.9336 -81.4668 75.4883 -183.247 91.6553 -277.127c19.5449 -113.525 38.0459 -227.197 54.9912 -341.135
l2.30566 -15.4629c50.5977 29.917 99.6113 62.626 146.675 98.1094c18.8223 14.1895 51.8613 -10.3906 29.8262 -26.8867c-54.4785 -40.7744 -111.456 -78.0703 -170.448 -111.769zM315.65 -130.112c44.5186 -9.2832 90.0195 -14.9053 135.966 -17.6338
c13.0449 87.1426 14.0059 176.106 1.39062 263.844c-11.5801 80.5605 -35.6387 172.692 -103.227 224.855c-97.0566 74.9209 -223.628 13.8418 -286.666 -73.6484c-64.4209 -89.4033 -77.457 -193.051 3.41406 -276c65.2168 -66.8926 159.371 -102.696 249.122 -121.417z
M901.39 -94.832c85.0273 22.7578 167.769 52.792 247.395 89.5205c-3.64355 34.8516 -7.25977 69.6934 -10.9307 104.518c-10.5557 100.105 -18.8135 200.385 -27.8125 300.637c-8.52246 94.9512 -17.6406 186.845 -48.9863 277.384
c-19.041 55.0098 -48.0977 123.596 -121.124 98.5762c-43.3838 -14.8574 -71.7998 -56.2822 -96.123 -92.6621c-54.0576 -80.8535 -98.2832 -168.042 -136.412 -257.399c-72.1748 -169.158 -121.811 -346.72 -173.396 -522.908
c-5.12695 -17.4854 -10.2812 -34.9707 -15.4629 -52.4375c129.629 0.238281 260.942 22.1543 382.854 54.7725z" />
    <glyph glyph-name="A" unicode="&#xc1;" horiz-adv-x="1430" 
d="M1295.27 27.959c31.2539 -209.035 62.6631 -418.5 75.251 -629.531c4.18359 -70.124 -126.718 -75.9375 -139.406 -10.9404c-36.6455 187.687 -58.2598 377.955 -78.2627 568.169c-130.132 -58.3691 -267.78 -99.8389 -409.2 -121.764
c-75.333 -11.6816 -155.628 -20.04 -236.216 -20.5068c-16.8262 -55.9531 -34.1836 -111.75 -52.9961 -167.071c-25.5957 -75.2783 -52.6562 -152.899 -119.365 -201.492c-18.3457 -13.3652 -50.3408 10.2539 -28.8457 26
c0.0732422 0.0546875 0.12793 0.109375 0.201172 0.164062c0.430664 0.970703 0.870117 1.9502 1.52051 2.94824c67.4873 103.392 114.148 219.838 137.291 340.751c-122.058 5.96875 -242.037 32.9287 -343.598 97.2852c-75.6992 47.9697 -147.562 126.662 -140.11 222.666
c7.40625 95.3721 77.0908 193.408 158.438 240.966c84.6152 49.4619 195.926 48.9492 271.085 -18.0439c70.7559 -63.0654 95.3174 -162.905 106.403 -253.252c6.19727 -50.4873 7.98242 -101.158 6.00488 -151.563c14.5469 50.4512 29.084 100.902 44.1797 151.188
c56.7305 188.959 122.104 376.902 223.555 547.095c41.6621 69.8955 91.6006 155.738 180.198 168.536c78.5371 11.3428 149.896 -56.1992 188.867 -117.333c51.9336 -81.4668 75.4883 -183.247 91.6553 -277.127c19.5449 -113.525 38.0459 -227.197 54.9912 -341.135
l2.30566 -15.4629c50.5977 29.917 99.6113 62.626 146.675 98.1094c18.8223 14.1895 51.8613 -10.3906 29.8262 -26.8867c-54.4785 -40.7744 -111.456 -78.0703 -170.448 -111.769zM315.65 -130.112c44.5186 -9.2832 90.0195 -14.9053 135.966 -17.6338
c13.0449 87.1426 14.0059 176.106 1.39062 263.844c-11.5801 80.5605 -35.6387 172.692 -103.227 224.855c-97.0566 74.9209 -223.628 13.8418 -286.666 -73.6484c-64.4209 -89.4033 -77.457 -193.051 3.41406 -276c65.2168 -66.8926 159.371 -102.696 249.122 -121.417z
M901.39 -94.832c85.0273 22.7578 167.769 52.792 247.395 89.5205c-3.64355 34.8516 -7.25977 69.6934 -10.9307 104.518c-10.5557 100.105 -18.8135 200.385 -27.8125 300.637c-8.52246 94.9512 -17.6406 186.845 -48.9863 277.384
c-19.041 55.0098 -48.0977 123.596 -121.124 98.5762c-43.3838 -14.8574 -71.7998 -56.2822 -96.123 -92.6621c-54.0576 -80.8535 -98.2832 -168.042 -136.412 -257.399c-72.1748 -169.158 -121.811 -346.72 -173.396 -522.908
c-5.12695 -17.4854 -10.2812 -34.9707 -15.4629 -52.4375c129.629 0.238281 260.942 22.1543 382.854 54.7725z" />
    <glyph glyph-name="B" unicode="B" horiz-adv-x="1017" 
d="M1038.63 173.113c30.2744 0.585938 28.5547 -39.6787 -1.37109 -40.0996c-49.8008 -0.723633 -98.1465 -12.0205 -144.898 -28.9199c2.92969 -8.69727 5.68555 -17.4854 8.09277 -26.4473c52.6113 -195.917 -0.960938 -433.358 -124.768 -593.16
c-99.0977 -127.898 -342.225 -264.009 -468.649 -91.1611c-125.948 172.188 48.2168 391.853 173.313 506.56c74.9209 68.6963 160.26 125.391 249.755 173.251c6.34375 3.39648 12.7148 6.75586 19.1045 10.0977c-2.40723 6.43555 -4.75977 12.9082 -7.48828 19.1611
c-67.2402 154.355 -231.244 219.087 -388.602 174.56c-47.5576 -13.457 -87.4902 24.3145 -88.6074 62.0039c-27.583 -118.332 -42.2666 -240.097 -55.6143 -360.241c-15.9834 -143.882 -26.9141 -288.322 -34.8965 -432.882
c6.86621 -42.6514 17.4121 -95.1436 2.37988 -132.888c-8.5957 -21.5684 -35.4922 -21.1289 -51.6504 -9.57617c-41.6719 29.7891 -63.2949 95.9951 -77.6123 143.608c-16.1943 53.8467 -26.5938 109.873 -34.3838 165.469
c-16.1025 114.944 -26.5566 230.694 -31.2441 346.664c-9.67676 239.712 0.62207 478.93 32.4434 716.72c11.1045 82.9492 161.999 77.832 152.103 -5.30957c-27.583 -231.638 -40.5273 -465.701 -34.668 -698.941c2.2793 -90.7402 6.03223 -181.728 13.1543 -272.321
c6.7373 83.9111 15.0957 167.693 25.0654 251.32c19.1328 160.553 42.9531 324.685 101.313 476.394c47.668 123.925 133.336 249.36 267.203 288.844c53.0049 15.627 106.531 -0.0361328 133.721 -50.4775c30.7773 -57.1064 5.80371 -128.576 -17.6318 -183.567
c-28.04 -65.7939 -67.7529 -123.312 -115.906 -172.967c146.903 -28.5898 277.768 -127.66 339.606 -267.551c51.5586 18.4922 104.967 30.7871 160.736 31.8584zM271.017 365.704c5.70312 10.0332 15.2891 19.0244 29.5518 25.707
c124.996 58.4609 245.735 170.888 302.695 298.328c7.47949 16.7256 16.7344 38.8975 11.2598 57.5361c-11.6631 39.6943 -49.5264 34.2109 -78.418 22.6943c-35.1807 -14.0244 -66.7549 -35.4463 -94.6123 -60.9238c-61.7109 -56.4375 -101.186 -132.045 -129.684 -209.648
c-16.085 -43.8047 -29.4326 -88.4785 -40.793 -133.693zM723.006 -381.06c51.1553 124.502 75.1045 288.954 38.8887 424.908c-7.51562 -4.03711 -15.0039 -8.10156 -22.4102 -12.1758c-83.4893 -45.9375 -162.512 -100.682 -232.27 -165.752
c-65.3545 -60.9697 -126.471 -134.114 -164.343 -215.663c-35.3369 -76.1016 -47.8691 -182.139 25.0469 -241.845c66.5537 -54.4883 162.374 -16.1855 222.327 29.8066c60.5576 46.4502 103.95 110.605 132.76 180.721z" />
    <glyph glyph-name="C" unicode="C" horiz-adv-x="883" 
d="M883.135 193.007c5.03516 21.541 44.708 12.5889 39.5078 -10.6182c-37.3691 -166.75 -85 -332.933 -168.855 -482.894c-63.8535 -114.203 -178.624 -291.646 -334.508 -251.769c-145.447 37.2129 -207.68 212.56 -227.673 344.037
c-18.3369 120.574 -23.5371 243.145 -14.0527 364.671c-27.8389 7.06738 -54.7988 17.4209 -80.0469 31.9951c-52.9131 30.5488 -96.8828 77.8779 -119.092 135.167c-26.5117 68.3936 -16.2949 143.388 -1.60156 213.246c5.20898 24.7539 56.7861 17.9795 52.3008 -7.7998
c-11.9287 -68.4854 -17.7236 -143.287 9.42871 -209.2c25.1475 -61.0605 81.4209 -100.983 143.178 -119.293c2.7002 25.0381 5.95898 50.0205 9.94141 74.9121c24.708 154.327 71.5703 310.165 159.316 441.048c74.7383 111.484 238.303 244.418 367.748 131.249
c47.0088 -41.0947 67.8994 -114.779 73.4473 -174.714c6.81055 -73.6025 -10.5645 -149.823 -41.5713 -216.45c-53.6553 -115.32 -149.961 -208.844 -265.079 -262.315c-46.6152 -21.6602 -98.5947 -37.5156 -151.608 -44.8115
c-2.63672 -27.6738 -4.57715 -55.1562 -5.83105 -82.2627c-5.53809 -120.136 -4.90625 -243.786 21.3486 -361.642c23.9668 -107.603 99.2451 -281.137 229.313 -166.54c89.8975 79.2051 151.709 198.919 197.473 307.574c47.0273 111.649 79.3887 228.645 106.916 346.409z
M550.62 743.581c-125.316 -150.84 -187.732 -353.584 -211.928 -550.353c84.6152 14.125 166.43 54.4141 230.64 107.163c89.4492 73.4834 157.65 180.967 169.268 297.669c6.35352 63.8164 -0.979492 144.935 -50.5332 191.797
c-46.6885 44.1523 -105.369 -7.67188 -137.446 -46.2764z" />
    <glyph glyph-name="D" unicode="D" horiz-adv-x="1058" 
d="M385.034 -646.531c-133.437 -52.4736 -315.958 -55.9883 -426.848 50.1494c-104.06 99.5928 -34.375 212.734 51.541 296.178c-3.32324 28.123 -6.26172 56.3008 -9.18164 84.4141c-10.8301 104.197 -17.2842 208.477 -20.1865 313.187
c-5.95996 214.812 -0.759766 430.575 27.4541 643.748c10.2344 77.3105 148.743 74.3262 142.811 -4.98926c-15.8193 -211.333 -29.835 -422.721 -28.3428 -634.768c0.494141 -69.9404 2.3252 -139.937 5.02539 -209.887c13.0908 90.7129 26.8867 181.315 44.418 271.313
c36.124 185.48 85.6963 386.304 191.367 545.941c40.1797 60.6943 98.8418 119.769 175.512 124.4c74.1064 4.47656 142.628 -31.6289 190.616 -86.1904c119.027 -135.305 143.47 -337.153 132.393 -510.11c-2.49023 -38.8887 -6.61914 -78.3262 -12.1943 -117.901
c75.6719 20.9365 152.79 36.0596 232.06 41.2871c28.4521 1.87695 26.5205 -35.8857 -1.31836 -37.707c-80.7617 -5.28223 -159.628 -21.6504 -236.993 -44.2168c-21.5137 -128.42 -59.1846 -256.831 -113.279 -371.382
c-72.9531 -154.483 -182.396 -289.586 -344.853 -353.467zM296.466 450.771c-71.2314 -204.037 -102.045 -417.785 -132.575 -631.27c120.52 78.4453 252.702 138.436 385.672 192.401c45.8555 18.6113 91.958 36.9658 138.427 54.167
c23.6738 100.828 38.7969 203.643 40.0967 307.218c0.970703 76.752 -8.14746 153.192 -26.2373 227.812c-16.8262 69.3916 -44.8486 151.984 -116.208 182.569c-86.1445 36.9199 -158.475 -57.9121 -196.256 -122.388
c-38.6416 -65.9404 -67.7803 -138.509 -92.9189 -210.51zM101.676 -606.999c131.881 -18.3184 268.028 61.0137 354.045 155.021c94.4932 103.264 149.329 236.179 190.845 368.022c10.9395 34.751 21.0918 69.8408 30.3105 105.187
c-43.0449 -16.5605 -85.6865 -33.9727 -127.999 -51.3477c-136.659 -56.1172 -272.192 -118.908 -392.795 -204.678c-5.19043 -35.9775 -10.4912 -71.9277 -16.0479 -107.795c0.604492 -9.74023 1.19922 -19.4805 1.71191 -29.2207
c2.61816 -50.0117 9.32812 -101.845 -5.43848 -150.446c-9.17285 -30.21 -59.0742 -30.0908 -73.96 -5.51953c-28.0498 46.3125 -34.6318 102.586 -42.8896 155.289c-1.08008 6.90234 -1.99512 13.832 -2.9834 20.7441
c-30.7598 -32.9746 -55.5508 -70.6182 -60.3477 -113.169c-9.52051 -84.4785 72.8984 -132 145.549 -142.088z" />
    <glyph glyph-name="E" unicode="E" horiz-adv-x="920" 
d="M510.072 -551.744c-150.153 -23.7656 -274.562 91.4707 -301.906 232.286c-33.1582 170.751 28.2139 365.441 161.303 475.57c-4.08301 -0.860352 -8.16602 -1.74805 -12.2676 -2.49902c-107.557 -19.6553 -224.809 -4.70605 -309.187 69.7207
c-93.999 82.9131 -96.1777 198.562 -72.1289 313.517c5.18164 24.7627 56.8223 17.9697 52.2998 -7.80078c-20.2041 -115.21 -12.8711 -245.195 101.47 -307.547c70.0137 -38.1836 153.649 -40.5273 231.609 -23.0146c-25.3125 22.6025 -47.0361 49.0869 -63.5605 79.3057
c-89.6143 163.876 -23.207 376.042 103.94 499.939c66.9473 65.2354 188.474 127.551 281.648 82.8037c99.5742 -47.8232 118.479 -181.818 103.804 -279.662c-20.7529 -138.398 -105.57 -259.531 -219.472 -338.645c7.35156 -2.09668 14.7764 -3.92773 22.375 -5.07227
c76.3672 -11.5527 66.9658 -116.812 -4.4668 -127.897c-6.81055 -1.05273 -13.3564 -3.19531 -20.085 -4.52246c-1.08008 -0.210938 -1.9502 -0.366211 -2.69141 -0.494141c-0.870117 -0.384766 -1.89551 -0.824219 -3.14062 -1.33691
c-8.66016 -3.5791 -17.5039 -6.66406 -26.082 -10.5c-28.4893 -12.7432 -35.5752 -17.2568 -58.1133 -34.4395c-21.9893 -16.7617 -40.7471 -35.6562 -57.8203 -57.3984c-70.124 -89.3213 -96.3701 -220.552 -77.1826 -332.055
c9.83203 -57.1426 29.5879 -113.251 79.1143 -147.965c48.6475 -34.1006 102.229 -34.7051 152.049 -4.1748c108.069 66.2422 175.438 199.441 226.969 310.303c52.3916 112.729 95.3447 231.464 123.807 352.569c5.05371 21.5225 44.7568 12.5781 39.5117 -10.6191
c-36.2891 -160.599 -96.0596 -319.934 -176.226 -463.733c-58.7354 -105.351 -145.822 -236.105 -275.57 -256.639zM441.158 583.356c-19.1787 -58.8184 -31.0625 -125.703 -19.8662 -187.322c8.41309 -46.3857 28.7266 -80.5967 56.5752 -105.763
c3.33203 -3.01172 20.9268 -16.2588 20.7803 -16.7256c5.59375 -3.59766 11.251 -7.10352 17.0732 -10.3164c0.119141 -0.0732422 0.24707 -0.12793 0.366211 -0.192383c140.01 89.1104 248.309 252.913 220.625 421.146c-8.00977 48.666 -31.2256 122.553 -86.4463 134.115
c-48.6016 10.1797 -73.667 -24.5615 -102.806 -54.918c-49.5811 -51.6504 -84.1299 -112.024 -106.302 -180.024z" />
    <glyph glyph-name="E" unicode="&#xcb;" horiz-adv-x="920" 
d="M510.072 -551.744c-150.153 -23.7656 -274.562 91.4707 -301.906 232.286c-33.1582 170.751 28.2139 365.441 161.303 475.57c-4.08301 -0.860352 -8.16602 -1.74805 -12.2676 -2.49902c-107.557 -19.6553 -224.809 -4.70605 -309.187 69.7207
c-93.999 82.9131 -96.1777 198.562 -72.1289 313.517c5.18164 24.7627 56.8223 17.9697 52.2998 -7.80078c-20.2041 -115.21 -12.8711 -245.195 101.47 -307.547c70.0137 -38.1836 153.649 -40.5273 231.609 -23.0146c-25.3125 22.6025 -47.0361 49.0869 -63.5605 79.3057
c-89.6143 163.876 -23.207 376.042 103.94 499.939c66.9473 65.2354 188.474 127.551 281.648 82.8037c99.5742 -47.8232 118.479 -181.818 103.804 -279.662c-20.7529 -138.398 -105.57 -259.531 -219.472 -338.645c7.35156 -2.09668 14.7764 -3.92773 22.375 -5.07227
c76.3672 -11.5527 66.9658 -116.812 -4.4668 -127.897c-6.81055 -1.05273 -13.3564 -3.19531 -20.085 -4.52246c-1.08008 -0.210938 -1.9502 -0.366211 -2.69141 -0.494141c-0.870117 -0.384766 -1.89551 -0.824219 -3.14062 -1.33691
c-8.66016 -3.5791 -17.5039 -6.66406 -26.082 -10.5c-28.4893 -12.7432 -35.5752 -17.2568 -58.1133 -34.4395c-21.9893 -16.7617 -40.7471 -35.6562 -57.8203 -57.3984c-70.124 -89.3213 -96.3701 -220.552 -77.1826 -332.055
c9.83203 -57.1426 29.5879 -113.251 79.1143 -147.965c48.6475 -34.1006 102.229 -34.7051 152.049 -4.1748c108.069 66.2422 175.438 199.441 226.969 310.303c52.3916 112.729 95.3447 231.464 123.807 352.569c5.05371 21.5225 44.7568 12.5781 39.5117 -10.6191
c-36.2891 -160.599 -96.0596 -319.934 -176.226 -463.733c-58.7354 -105.351 -145.822 -236.105 -275.57 -256.639zM441.158 583.356c-19.1787 -58.8184 -31.0625 -125.703 -19.8662 -187.322c8.41309 -46.3857 28.7266 -80.5967 56.5752 -105.763
c3.33203 -3.01172 20.9268 -16.2588 20.7803 -16.7256c5.59375 -3.59766 11.251 -7.10352 17.0732 -10.3164c0.119141 -0.0732422 0.24707 -0.12793 0.366211 -0.192383c140.01 89.1104 248.309 252.913 220.625 421.146c-8.00977 48.666 -31.2256 122.553 -86.4463 134.115
c-48.6016 10.1797 -73.667 -24.5615 -102.806 -54.918c-49.5811 -51.6504 -84.1299 -112.024 -106.302 -180.024z" />
    <glyph glyph-name="E" unicode="&#xca;" horiz-adv-x="920" 
d="M510.072 -551.744c-150.153 -23.7656 -274.562 91.4707 -301.906 232.286c-33.1582 170.751 28.2139 365.441 161.303 475.57c-4.08301 -0.860352 -8.16602 -1.74805 -12.2676 -2.49902c-107.557 -19.6553 -224.809 -4.70605 -309.187 69.7207
c-93.999 82.9131 -96.1777 198.562 -72.1289 313.517c5.18164 24.7627 56.8223 17.9697 52.2998 -7.80078c-20.2041 -115.21 -12.8711 -245.195 101.47 -307.547c70.0137 -38.1836 153.649 -40.5273 231.609 -23.0146c-25.3125 22.6025 -47.0361 49.0869 -63.5605 79.3057
c-89.6143 163.876 -23.207 376.042 103.94 499.939c66.9473 65.2354 188.474 127.551 281.648 82.8037c99.5742 -47.8232 118.479 -181.818 103.804 -279.662c-20.7529 -138.398 -105.57 -259.531 -219.472 -338.645c7.35156 -2.09668 14.7764 -3.92773 22.375 -5.07227
c76.3672 -11.5527 66.9658 -116.812 -4.4668 -127.897c-6.81055 -1.05273 -13.3564 -3.19531 -20.085 -4.52246c-1.08008 -0.210938 -1.9502 -0.366211 -2.69141 -0.494141c-0.870117 -0.384766 -1.89551 -0.824219 -3.14062 -1.33691
c-8.66016 -3.5791 -17.5039 -6.66406 -26.082 -10.5c-28.4893 -12.7432 -35.5752 -17.2568 -58.1133 -34.4395c-21.9893 -16.7617 -40.7471 -35.6562 -57.8203 -57.3984c-70.124 -89.3213 -96.3701 -220.552 -77.1826 -332.055
c9.83203 -57.1426 29.5879 -113.251 79.1143 -147.965c48.6475 -34.1006 102.229 -34.7051 152.049 -4.1748c108.069 66.2422 175.438 199.441 226.969 310.303c52.3916 112.729 95.3447 231.464 123.807 352.569c5.05371 21.5225 44.7568 12.5781 39.5117 -10.6191
c-36.2891 -160.599 -96.0596 -319.934 -176.226 -463.733c-58.7354 -105.351 -145.822 -236.105 -275.57 -256.639zM441.158 583.356c-19.1787 -58.8184 -31.0625 -125.703 -19.8662 -187.322c8.41309 -46.3857 28.7266 -80.5967 56.5752 -105.763
c3.33203 -3.01172 20.9268 -16.2588 20.7803 -16.7256c5.59375 -3.59766 11.251 -7.10352 17.0732 -10.3164c0.119141 -0.0732422 0.24707 -0.12793 0.366211 -0.192383c140.01 89.1104 248.309 252.913 220.625 421.146c-8.00977 48.666 -31.2256 122.553 -86.4463 134.115
c-48.6016 10.1797 -73.667 -24.5615 -102.806 -54.918c-49.5811 -51.6504 -84.1299 -112.024 -106.302 -180.024z" />
    <glyph glyph-name="E" unicode="&#xc9;" horiz-adv-x="920" 
d="M510.072 -551.744c-150.153 -23.7656 -274.562 91.4707 -301.906 232.286c-33.1582 170.751 28.2139 365.441 161.303 475.57c-4.08301 -0.860352 -8.16602 -1.74805 -12.2676 -2.49902c-107.557 -19.6553 -224.809 -4.70605 -309.187 69.7207
c-93.999 82.9131 -96.1777 198.562 -72.1289 313.517c5.18164 24.7627 56.8223 17.9697 52.2998 -7.80078c-20.2041 -115.21 -12.8711 -245.195 101.47 -307.547c70.0137 -38.1836 153.649 -40.5273 231.609 -23.0146c-25.3125 22.6025 -47.0361 49.0869 -63.5605 79.3057
c-89.6143 163.876 -23.207 376.042 103.94 499.939c66.9473 65.2354 188.474 127.551 281.648 82.8037c99.5742 -47.8232 118.479 -181.818 103.804 -279.662c-20.7529 -138.398 -105.57 -259.531 -219.472 -338.645c7.35156 -2.09668 14.7764 -3.92773 22.375 -5.07227
c76.3672 -11.5527 66.9658 -116.812 -4.4668 -127.897c-6.81055 -1.05273 -13.3564 -3.19531 -20.085 -4.52246c-1.08008 -0.210938 -1.9502 -0.366211 -2.69141 -0.494141c-0.870117 -0.384766 -1.89551 -0.824219 -3.14062 -1.33691
c-8.66016 -3.5791 -17.5039 -6.66406 -26.082 -10.5c-28.4893 -12.7432 -35.5752 -17.2568 -58.1133 -34.4395c-21.9893 -16.7617 -40.7471 -35.6562 -57.8203 -57.3984c-70.124 -89.3213 -96.3701 -220.552 -77.1826 -332.055
c9.83203 -57.1426 29.5879 -113.251 79.1143 -147.965c48.6475 -34.1006 102.229 -34.7051 152.049 -4.1748c108.069 66.2422 175.438 199.441 226.969 310.303c52.3916 112.729 95.3447 231.464 123.807 352.569c5.05371 21.5225 44.7568 12.5781 39.5117 -10.6191
c-36.2891 -160.599 -96.0596 -319.934 -176.226 -463.733c-58.7354 -105.351 -145.822 -236.105 -275.57 -256.639zM441.158 583.356c-19.1787 -58.8184 -31.0625 -125.703 -19.8662 -187.322c8.41309 -46.3857 28.7266 -80.5967 56.5752 -105.763
c3.33203 -3.01172 20.9268 -16.2588 20.7803 -16.7256c5.59375 -3.59766 11.251 -7.10352 17.0732 -10.3164c0.119141 -0.0732422 0.24707 -0.12793 0.366211 -0.192383c140.01 89.1104 248.309 252.913 220.625 421.146c-8.00977 48.666 -31.2256 122.553 -86.4463 134.115
c-48.6016 10.1797 -73.667 -24.5615 -102.806 -54.918c-49.5811 -51.6504 -84.1299 -112.024 -106.302 -180.024z" />
    <glyph glyph-name="F" unicode="F" horiz-adv-x="534" 
d="M142.355 -407.203c-103.565 74.8018 -146.562 218.31 -163.261 338.399c-17.7324 127.395 -12.4502 260.465 3.48828 387.887c16.5332 132.229 48.9404 261.033 115.806 377.149c57.3535 99.6104 144.587 199.047 265.995 214.106
c107.85 13.375 178.98 -73.5566 175.383 -176.518c-7.48828 -214.455 -198.059 -396.869 -395.788 -447.704c-1.21777 -0.311523 -2.38086 -0.430664 -3.54395 -0.577148c-1.14453 -11.7998 -2.25195 -23.582 -3.35938 -35.3545
c-4.72363 -50.2129 -8.14746 -100.49 -9.43848 -150.804c138.875 30.833 281.668 34.1289 413.566 93.5059c21.916 9.85938 43.6943 -17.4941 20.1484 -31.2256c-105.809 -61.6836 -230.641 -71.1855 -351.032 -90.0068c69.1074 -24.2324 130.571 -68.2656 176.335 -127.459
c68.3018 -88.3418 107.337 -232.673 28.4707 -326.883c-63.7617 -76.1572 -194.873 -80.7803 -272.77 -24.5166zM402.823 -310.164c29.084 90.3643 -16.3125 195.542 -79.1309 260.631c-52.7666 54.6709 -121.792 89.6592 -196.558 98.6123
c0.155273 -27.2715 0.969727 -54.543 2.77344 -81.8232c5.87695 -88.8633 23.0967 -189.966 67.7617 -268.311c20.3506 -35.6934 51.5586 -80.7432 93.5049 -90.7861c55.1924 -13.21 96.3691 34.1924 111.648 81.6768zM283.165 779.642
c-53.3623 -75.6895 -82.4639 -159.509 -105.03 -248.812c-16.625 -65.8125 -25.9443 -133.327 -33.1768 -200.925c175.914 50.4785 347.965 221.715 346.07 414.089c-0.585938 58.9277 -32.9746 125.17 -101.433 116.564
c-50.7715 -6.38086 -79.1963 -42.2852 -106.431 -80.917z" />
    <glyph glyph-name="G" unicode="G" horiz-adv-x="847" 
d="M888.383 143.938c-57.4814 -91.8477 -151.115 -146.21 -251.852 -179.926c-10.5273 -71.7441 -29.7432 -142.766 -62.0498 -206.262c-78.4365 -154.172 -240.188 -247.594 -413.503 -208.934c-123.056 27.4541 -295.793 135.258 -249.196 286.839
c20.7168 67.3779 87.0967 88.4062 150.721 94.082c98.5859 8.80664 197.785 8.67871 296.371 18.1533c40.3076 3.87207 82.7207 8.85254 125.362 16.1309c11.4707 58.04 17.4482 116.913 20.4785 176.326c2.20605 43.1455 1.25391 85.9434 0.924805 128.75
c-32.334 -75.04 -72.541 -147.104 -129.4 -205.492c-71.9639 -73.8955 -190.754 -103.758 -272.238 -26.832c-76.5781 72.2939 -83.6641 200.138 -72.6875 298.375c4.88867 43.6943 13.2471 87.1514 24.6445 129.839c-66.3154 42.624 -102.22 119.321 -91.3076 199.323
c3.48828 25.6143 50.0762 24.0947 47.0273 -1.63867c-8.8252 -74.6006 15.4893 -123.853 57.1611 -154.062c15.9658 49.5625 36.0605 97.7705 60.3564 143.507c48.1162 90.5752 119.971 172.252 214.198 216.423c76.0195 35.6387 193.335 45.9922 255.394 -22.8135
c57.8477 -64.1455 28.9922 -168.169 -11.1416 -233.688c-50.3867 -82.2539 -136.019 -135.533 -226.813 -162.887c-51.2656 -15.4434 -108.17 -25.623 -163.757 -23.7646c-17.2559 -58.3604 -29.4219 -117.746 -33.248 -179.091
c-3.625 -58.0674 -9.12695 -151.252 39.4834 -194.205c73.0352 -64.54 165.148 62.9463 199.753 116.016c43.6396 66.9287 74.8477 141.392 104.078 215.479c0.594727 1.4834 1.3916 2.77441 2.2793 3.95508c4.52246 30.8145 52.2725 37.3965 68.0186 11.3887
c58.8184 -97.1387 73.2461 -211.232 69.0713 -323.705c-0.860352 -23.2529 -2.48047 -46.8164 -4.90625 -70.4258c84.7988 31.7842 160.36 80.8711 209.291 159.197c12.5049 20.0215 51.7227 2.68262 37.4873 -20.0576zM216.73 485.804
c-1.96777 -5.56641 -3.80859 -11.1611 -5.70312 -16.7451c75.1953 -1.14453 155.746 18.8311 211.369 48.2266c65.1709 34.4307 119.86 90.4658 144.853 160.645c12.6787 35.6025 21.6689 81.3203 1.44629 115.806c-26.1455 44.5732 -70.5264 29.5508 -108.362 12.752
c-127.147 -56.4561 -199.578 -196.228 -243.603 -320.684zM188.808 -383.322c158.246 8.44922 240.077 140.999 279.405 280.002c2.71875 9.59375 5.22754 19.2148 7.58008 28.8545c-68.7139 -11.1777 -138.233 -16.9453 -207.698 -21.166
c-77.832 -4.72363 -162.942 1.56543 -239.044 -16.4688c-95.4268 -22.6113 -90.7393 -125.481 -37.3037 -188.227c47.6582 -55.9619 123.906 -86.9043 197.061 -82.9951z" />
    <glyph glyph-name="H" unicode="H" horiz-adv-x="1201" 
d="M533.64 192.731c-31.4092 -12.3857 -63.2715 -23.6484 -95.3945 -33.8281c-53.3799 -16.9268 -107.538 -31.1074 -162.136 -43.4297c2.14258 -192.401 18.6299 -383.421 26.3564 -575.611c2.2334 -55.5771 -85.7324 -58.4883 -109.955 -21.0098
c-56.7305 87.7559 -59.6787 213.191 -69.1904 314.459c-7.68066 81.8145 -13.2744 163.794 -15.8926 245.901c-41.5527 -10.8574 -81.9521 -25.1846 -119.01 -47.9609c-18.6299 -11.4521 -51.248 10.748 -28.8467 26c44.7109 30.4385 94.7402 49.5166 146.793 63.7432
c-0.24707 13.2373 -0.429688 26.4746 -0.521484 39.7217c-1.50098 224.177 10.1162 450.496 54.3604 670.636c15.0771 75.0312 163.985 54.6533 157.184 -23.4531c-18.6934 -214.812 -41.168 -428.323 -41.6719 -644.261c0 -2.07812 0.0546875 -4.15625 0.0546875 -6.23438
c22.8135 4.70508 45.4072 9.72168 67.4697 15.6084c66.1143 17.6504 131.808 39.127 195.166 65.8398c16.1758 150.354 41.7812 303.438 100.983 443.429c47.2832 111.813 131.35 280.111 274.984 277.521c61.9307 -1.11719 104.774 -41.873 130.133 -94.6855
c28.9746 -60.3467 20.3877 -126.717 0.348633 -188.565c-40.124 -123.834 -122.387 -231.437 -220.798 -315.055c-37.1035 -31.5195 -76.7705 -59.4961 -118.24 -84.5156c-4.11035 -42.3584 -7.54297 -84.7441 -10.7744 -126.919
c-10.207 -133.309 -12.8896 -268.814 3.40527 -401.794c7.23242 -58.9736 19.6367 -118.771 38.4219 -175.146c6.61914 -19.8652 11.6631 -50.3682 27.4365 -65.5283c32.1787 -30.9238 87.7656 -1.94043 115.852 19.6465c97.459 74.8936 150.006 216.14 191.659 327.074
c43.0635 114.716 78.1709 232.278 127.551 344.587c10.29 23.3896 56.6123 12.8896 45.6729 -12.2666c-67.0479 -154.172 -106.55 -319.082 -178.34 -471.276c-57.9023 -122.763 -153.128 -295.747 -314.248 -269.099c-149.201 24.6807 -192.319 176.326 -215.48 305.937
c-26.0078 145.566 -17.9521 294.044 -3.33203 440.535zM743.22 525.644c-14.4092 -63.9268 -24.2129 -129.069 -31.7109 -194.516c11.9834 8.02832 23.8291 16.2578 35.4189 24.8994c94.2188 70.2432 175.933 160.718 225.587 268.009
c27.0146 58.3789 54.7617 131.112 37.7705 195.771c-8.57812 32.6543 -35.3457 67.3682 -72.6963 67.0391c-27.3994 -0.24707 -48.3721 -22.3008 -64.6943 -41.6533c-72.7334 -86.2178 -105.388 -211.8 -129.675 -319.549z" />
    <glyph glyph-name="I" unicode="I" horiz-adv-x="804" 
d="M557.099 -339.176c-66.9932 -35.2637 -133.673 -5.19336 -179.564 49.1025c-29.0654 34.3848 -33.6885 87.5273 -39.7949 130.608c-6.85645 48.373 -7.58887 97.2129 -3.43262 145.888c16.918 198.077 75.6992 392.41 75.4336 592.153
c-0.110352 80.0479 -9.73145 171.245 -77.6855 224.177c-71.0576 55.3486 -177.571 40.2891 -242.944 -16.0391c-64.668 -55.7236 -99.373 -149.951 -74.4727 -233.321c35.5293 -118.973 170.678 -123.468 267.496 -83.9014
c22.6758 9.26465 47.0176 -21.4951 20.8359 -32.2881c-86.5654 -35.6846 -189.655 -45.4893 -268.266 14.8027c-69.4736 53.2979 -85.9062 147.682 -63.0381 228.764c44.8203 158.941 205.474 225.403 354.812 175.054c77.9971 -26.3008 139.644 -74.9297 174.349 -150.684
c42.1387 -91.9854 49.7373 -203.488 46.5059 -303.483c-3.54297 -109.461 -20.4336 -218.098 -35.502 -326.424c-14.6836 -105.543 -38.916 -213.713 -39.7676 -320.189c-0.0917969 -11.5068 -4.56836 -39.4102 2.91992 -47.6035
c13.0273 -14.2627 41.7998 -15.7734 57.5088 -8.48633c26.2734 12.1846 47.0449 38.7422 64.8867 60.6211c29.8896 36.6553 56.3193 75.9102 79.6631 117.014c51.293 90.3369 89.6318 187.412 127.962 283.728c8.62402 21.6602 50.7441 12.1484 41.5713 -11.168
c-37.2773 -94.7402 -74.875 -189.683 -123.952 -279.086c-39.6572 -72.248 -89.3848 -169.158 -165.523 -209.237z" />
    <glyph glyph-name="I" unicode="&#xcf;" horiz-adv-x="804" 
d="M557.099 -339.176c-66.9932 -35.2637 -133.673 -5.19336 -179.564 49.1025c-29.0654 34.3848 -33.6885 87.5273 -39.7949 130.608c-6.85645 48.373 -7.58887 97.2129 -3.43262 145.888c16.918 198.077 75.6992 392.41 75.4336 592.153
c-0.110352 80.0479 -9.73145 171.245 -77.6855 224.177c-71.0576 55.3486 -177.571 40.2891 -242.944 -16.0391c-64.668 -55.7236 -99.373 -149.951 -74.4727 -233.321c35.5293 -118.973 170.678 -123.468 267.496 -83.9014
c22.6758 9.26465 47.0176 -21.4951 20.8359 -32.2881c-86.5654 -35.6846 -189.655 -45.4893 -268.266 14.8027c-69.4736 53.2979 -85.9062 147.682 -63.0381 228.764c44.8203 158.941 205.474 225.403 354.812 175.054c77.9971 -26.3008 139.644 -74.9297 174.349 -150.684
c42.1387 -91.9854 49.7373 -203.488 46.5059 -303.483c-3.54297 -109.461 -20.4336 -218.098 -35.502 -326.424c-14.6836 -105.543 -38.916 -213.713 -39.7676 -320.189c-0.0917969 -11.5068 -4.56836 -39.4102 2.91992 -47.6035
c13.0273 -14.2627 41.7998 -15.7734 57.5088 -8.48633c26.2734 12.1846 47.0449 38.7422 64.8867 60.6211c29.8896 36.6553 56.3193 75.9102 79.6631 117.014c51.293 90.3369 89.6318 187.412 127.962 283.728c8.62402 21.6602 50.7441 12.1484 41.5713 -11.168
c-37.2773 -94.7402 -74.875 -189.683 -123.952 -279.086c-39.6572 -72.248 -89.3848 -169.158 -165.523 -209.237z" />
    <glyph glyph-name="I" unicode="&#xce;" horiz-adv-x="804" 
d="M557.099 -339.176c-66.9932 -35.2637 -133.673 -5.19336 -179.564 49.1025c-29.0654 34.3848 -33.6885 87.5273 -39.7949 130.608c-6.85645 48.373 -7.58887 97.2129 -3.43262 145.888c16.918 198.077 75.6992 392.41 75.4336 592.153
c-0.110352 80.0479 -9.73145 171.245 -77.6855 224.177c-71.0576 55.3486 -177.571 40.2891 -242.944 -16.0391c-64.668 -55.7236 -99.373 -149.951 -74.4727 -233.321c35.5293 -118.973 170.678 -123.468 267.496 -83.9014
c22.6758 9.26465 47.0176 -21.4951 20.8359 -32.2881c-86.5654 -35.6846 -189.655 -45.4893 -268.266 14.8027c-69.4736 53.2979 -85.9062 147.682 -63.0381 228.764c44.8203 158.941 205.474 225.403 354.812 175.054c77.9971 -26.3008 139.644 -74.9297 174.349 -150.684
c42.1387 -91.9854 49.7373 -203.488 46.5059 -303.483c-3.54297 -109.461 -20.4336 -218.098 -35.502 -326.424c-14.6836 -105.543 -38.916 -213.713 -39.7676 -320.189c-0.0917969 -11.5068 -4.56836 -39.4102 2.91992 -47.6035
c13.0273 -14.2627 41.7998 -15.7734 57.5088 -8.48633c26.2734 12.1846 47.0449 38.7422 64.8867 60.6211c29.8896 36.6553 56.3193 75.9102 79.6631 117.014c51.293 90.3369 89.6318 187.412 127.962 283.728c8.62402 21.6602 50.7441 12.1484 41.5713 -11.168
c-37.2773 -94.7402 -74.875 -189.683 -123.952 -279.086c-39.6572 -72.248 -89.3848 -169.158 -165.523 -209.237z" />
    <glyph glyph-name="I" unicode="&#xcd;" horiz-adv-x="804" 
d="M557.099 -339.176c-66.9932 -35.2637 -133.673 -5.19336 -179.564 49.1025c-29.0654 34.3848 -33.6885 87.5273 -39.7949 130.608c-6.85645 48.373 -7.58887 97.2129 -3.43262 145.888c16.918 198.077 75.6992 392.41 75.4336 592.153
c-0.110352 80.0479 -9.73145 171.245 -77.6855 224.177c-71.0576 55.3486 -177.571 40.2891 -242.944 -16.0391c-64.668 -55.7236 -99.373 -149.951 -74.4727 -233.321c35.5293 -118.973 170.678 -123.468 267.496 -83.9014
c22.6758 9.26465 47.0176 -21.4951 20.8359 -32.2881c-86.5654 -35.6846 -189.655 -45.4893 -268.266 14.8027c-69.4736 53.2979 -85.9062 147.682 -63.0381 228.764c44.8203 158.941 205.474 225.403 354.812 175.054c77.9971 -26.3008 139.644 -74.9297 174.349 -150.684
c42.1387 -91.9854 49.7373 -203.488 46.5059 -303.483c-3.54297 -109.461 -20.4336 -218.098 -35.502 -326.424c-14.6836 -105.543 -38.916 -213.713 -39.7676 -320.189c-0.0917969 -11.5068 -4.56836 -39.4102 2.91992 -47.6035
c13.0273 -14.2627 41.7998 -15.7734 57.5088 -8.48633c26.2734 12.1846 47.0449 38.7422 64.8867 60.6211c29.8896 36.6553 56.3193 75.9102 79.6631 117.014c51.293 90.3369 89.6318 187.412 127.962 283.728c8.62402 21.6602 50.7441 12.1484 41.5713 -11.168
c-37.2773 -94.7402 -74.875 -189.683 -123.952 -279.086c-39.6572 -72.248 -89.3848 -169.158 -165.523 -209.237z" />
    <glyph glyph-name="J" unicode="J" horiz-adv-x="902" 
d="M1068.41 817.43c27.125 6.55469 40.2119 -30.9707 10.9902 -37.9561c-143.955 -34.3389 -291.783 -44.2803 -438.494 -61.5186c56.0713 -84.2041 68.0176 -209.154 78.9482 -303.767c9.88672 -85.5674 12.249 -171.309 7.66211 -256.986
c50.3135 17.6504 102.11 29.8809 156.827 32.2793c29.3682 1.29102 27.5742 -37.7715 -1.35449 -38.9062c-55.165 -2.16992 -107.557 -16.3594 -158.328 -35.8125c-1.36426 -16.8906 -2.91113 -33.79 -4.80566 -50.6709
c-20.8359 -185.554 -66.8281 -393.444 -211.516 -523.604c-60.8408 -54.7256 -144.156 -99.3447 -228.214 -90.4189c-73.5107 7.7998 -148.221 41.2959 -175.354 115.283c-63.5781 173.378 140.065 331.706 264.385 411.214
c65.2998 41.7627 133.721 78.1426 203.222 112.344c4.90723 50.5693 7.52539 101.157 8.32227 151.04c1.36426 85.623 -2.57227 170.495 -11.4893 255.633c-6.89355 65.8125 -28.0312 142.033 -21.8242 210.033c-7.46973 -1.11719 -14.9395 -2.20703 -22.3916 -3.39746
c-93.2305 -14.9131 -185.792 -34.0918 -277.273 -57.4727c-88.79 -22.6943 -177.754 -48.0615 -254.799 -99.3271c-19.0869 -12.6885 -51.7871 11.4248 -29.3398 26.4473c148.002 99.0801 344.633 131.14 516.985 161.148c25.0557 4.36719 50.2031 8.22168 75.3965 11.7461
c11.0957 16.46 41.0312 18.4736 56.7314 7.3877c152.451 18.7031 306.229 29.1943 455.714 65.2812zM502.196 -235.483c32.4619 88.6621 53.0146 183.02 64.9707 278.19c-69.0166 -34.1279 -137.071 -70.5811 -200.229 -114.697
c-64.9336 -45.3613 -127.312 -98.3848 -174.166 -162.76c-47.9697 -65.9033 -83.3428 -182.981 3.74414 -235.978c69.0342 -42.0107 151.114 3.58789 201.309 54.9268c49.0771 50.2031 80.5234 115.183 104.371 180.317z" />
    <glyph glyph-name="K" unicode="K" horiz-adv-x="908" 
d="M571.751 -227.463c-92.2139 -0.448242 -159.196 65.2227 -202.342 140.098c-22.4561 38.9707 -38.7236 77.127 -80.1201 99.208c-20.7256 11.04 -42.9072 19.041 -64.7412 27.7285c1.3457 -41.3789 2.93848 -82.7578 4.72363 -124.109
c2.1875 -50.7256 5.38281 -101.351 6.93945 -152.104c0.960938 -31.1348 12.5322 -92.251 -8.50488 -119.395c-1.69336 -1.83984 -3.45996 -3.59766 -5.29102 -5.29102c-10.4453 -9.76758 -30.1094 -9.42871 -41.8545 -3.06641
c-35.0801 19.0049 -39.9775 66.0498 -47.6582 101.743c-10.7295 49.8467 -18.0811 100.078 -24.5439 150.62c-3.87207 30.3203 -7.22266 60.668 -10.3076 91.0244c-19.0967 -17.6045 -39.5391 -33.5977 -61.6475 -46.835
c-29.8164 -17.8604 -97.4502 -52.877 -130.544 -24.7266c-53.9756 45.9102 106.889 131.569 183.631 168.929c-2.85645 37.7812 -5.34668 75.5986 -7.14062 113.517c-9.81348 207.003 -4.06445 415.287 23.7656 620.725c10.0791 74.4355 142.839 71.9639 137.804 -4.81543
c-12.6152 -192.347 -22.3369 -384.602 -22.584 -577.388c12.8984 26.1084 24.9912 52.4922 36.5713 78.7197c45.9922 104.179 86.1533 211.067 142.902 310.138c26.6943 46.5781 57.0596 91.3896 93.2656 131.139c27.793 30.5117 61.7109 73.2178 107.273 66.4893
c25.7246 -3.79883 25.3037 -38.8789 -1.23535 -35.2998c-35.9775 4.85156 -77.0449 -59.3125 -96.8643 -84.7529c-21.0283 -26.9873 -39.9873 -55.5312 -57.3994 -84.9629c-35.6387 -60.2549 -64.292 -124.383 -91.71 -188.693
c-40.7285 -95.5273 -79.2598 -193.481 -132.164 -283.113c0.182617 -10.8115 0.511719 -21.623 0.758789 -32.4346c58.4609 10.8662 121.627 1.7207 171.318 -31.0068c64.6768 -42.6055 89.623 -118.625 138.417 -175.694
c23.875 -27.9219 54.5791 -55.8711 94.1904 -52.0264c46.1846 4.48535 85.1191 43.4199 115.576 75.1865c64.6768 67.4688 118.167 145.301 162.457 227.427c11.6084 21.5225 56.6035 11.4521 44.2998 -11.9014c-47.1641 -89.5684 -104.179 -174.696 -172.289 -249.81
c-51.0547 -56.3008 -124.776 -114.872 -204.952 -115.266zM58.4746 -0.397461c12.0293 10.6738 23.4531 21.9258 34.3838 33.625c-0.00878906 0.137695 -0.0273438 0.265625 -0.0361328 0.40332c-38.0098 -18.7119 -75.1777 -39.1445 -108.747 -65.0615
c-24.7725 -19.1143 -57.7012 -43.3008 -0.0732422 -18.666c27.6465 11.8184 52.0986 29.8525 74.4727 49.6992z" />
    <glyph glyph-name="L" unicode="L" horiz-adv-x="1013" 
d="M668.669 -193.984c-1.24512 -127.001 -25.4404 -274.769 -131.341 -357.892c-81.4844 -63.9717 -188.657 -85.1465 -273.328 -12.459c-40.1426 34.458 -59.7793 82.8037 -60.3193 135.122c-0.723633 70.7285 32.333 123.917 82.9023 171.64
c67.9727 64.1465 149.293 115.274 233.268 159.546c-10.9395 62.8457 -24.2412 125.371 -37.9277 187.586c-17.4756 79.3975 -35.4092 160.178 -48.5732 241.534c-71.1309 -28.3516 -147.828 -41.9365 -225.551 -39.8223c-119.448 3.25 -281.447 64.1279 -245.781 212.515
c8.65137 36.0049 79.3066 26.6035 76.0752 -11.3516c-7.90039 -92.9824 88.8818 -131.175 165.186 -140.165c71.3594 -8.4043 144.953 3.61523 211.772 29.3398c3.45996 1.32715 6.84668 2.85547 10.2793 4.25586c-8.51367 64.6133 -13.3379 129.482 -11.7451 194.232
c3.31348 134.123 36.5723 307.181 185.325 349.887c135.002 38.7607 181.645 -103.382 164.864 -210.271c-18.2363 -116.153 -87.8838 -220.79 -177.113 -296.27c8.42188 -53.6914 18.3359 -107.008 27.3809 -159.436c16.7617 -97.1387 35.1533 -195.303 45.7637 -293.943
c60.4297 27.4268 122.168 52.4922 180.931 83.2881c62.4062 32.7002 137.189 64.9521 177.479 125.29c12.9082 19.3164 51.1289 2.49023 36.8848 -19.7373c-41.7354 -65.126 -118.569 -101.186 -184.372 -137.392c-68.7324 -37.8174 -136.86 -76.8252 -205.264 -115.283
c2.29785 -33.3682 3.53418 -66.7822 3.20508 -100.215zM569.122 704.083c-5.66699 -73.749 -0.494141 -148.488 9.19141 -222.869c60.96 55.2295 107.255 125.564 128.924 207.818c10.0605 38.165 15.4248 81.1914 8.5957 120.492
c-5.78613 33.2861 -28.9746 92.2969 -74.9307 74.2441c-53.5996 -21.0645 -68.0635 -131.396 -71.7803 -179.686zM421.103 -566.333c80.5781 17.7598 115.575 102.604 124.199 176.847c8.44043 72.6143 -3.06641 146.94 -13.8867 219.015
c-37.7168 -22.6846 -74.71 -46.4951 -110.193 -72.5859c-66.0225 -48.5557 -163.894 -127.02 -157.238 -219.124c5.31836 -73.502 89.7598 -119 157.119 -104.151z" />
    <glyph glyph-name="M" unicode="M" horiz-adv-x="1393" 
d="M880.903 -64.5938c-8.72461 197.208 43.3418 393.142 59.2803 588.912c3.45996 42.624 5.96875 85.3486 2.47168 128.018c-0.860352 10.5732 -2.00488 57.6914 -11.4248 64.7129c-17.7324 13.21 -47.9238 0.375 -59.5322 -12.6523
c-6.98535 -7.83594 -13.3574 -17.1367 -19.125 -25.7607c-54.0947 -80.917 -79.2334 -185.893 -101.882 -279.26c-24.3232 -100.288 -43.209 -202.005 -59.5869 -303.858c-10.4268 -64.8047 -15.2051 -132.393 -32.2236 -196.228
c-0.0820312 -21.3486 -0.337891 -42.6699 -0.841797 -63.9541c-2.12402 -89.2295 -155.994 -81.7959 -159.967 5.58398c-7.66211 168.426 -8.40332 337.41 -10.2246 506.001c-0.841797 77.9424 2.33496 156.791 -2.35254 234.596
c-2.24316 37.1123 -7.83691 72.4668 -18.5391 108.087c-4.10156 13.6221 -7.30566 35.0986 -18.1992 45.2236c-26.3193 24.4521 -53.6729 -4.0459 -70.6729 -23.2793c-50.9355 -57.6367 -73.4736 -140.778 -92.9639 -213.466
c-21.9346 -81.8145 -36.9482 -165.478 -49.7275 -249.159c-21.4951 -140.751 -34.1006 -282.931 -38.8887 -425.266c6.30762 -32.1875 12.7803 -64.75 6.38086 -97.1572c-4.98926 -25.2393 -43.667 -34.3477 -64.2734 -27.9395
c-43.0996 13.4023 -55.6875 53.8018 -68.458 93.6328c-15.0137 46.8252 -27.8945 94.2002 -38.5596 142.188c-20.0762 90.3467 -34.1289 181.353 -42.6514 273.493c-17.375 187.934 -19.0137 383.384 16.9551 569.258c15.9014 82.1895 165.103 83.2969 157.102 -5.48438
c-16.0938 -178.605 -30.4941 -355.316 -19.4902 -534.773c4.21094 -68.5498 10.8477 -137.255 19.7549 -205.493c7.02148 85.2012 17.2285 170.146 30.9238 254.753c21.5312 132.988 43.8594 279.36 110.404 398.406c24.9736 44.6836 65.1533 97.7617 121.362 100.563
c46.1572 2.29785 84.9268 -30.3018 110.468 -65.8027c39.3369 -54.6895 55.5771 -124.933 67.8994 -189.902c14.0156 -73.9326 23.2803 -148.332 31.8398 -223.07c6.71973 -58.6807 12.002 -117.765 15.7832 -177.004c2.84668 18.1172 5.60254 36.252 8.66016 54.332
c17.6953 104.783 37.4053 209.759 66.8467 311.96c31.3271 108.747 120.521 377.928 273.987 238c64.0273 -58.3789 74.6104 -150.053 79.0596 -231.602c5.38281 -98.5947 -5.4834 -196.769 -16.4873 -294.594c-11.3604 -100.929 -26.9053 -202.068 -30.4111 -303.684
c-1.53809 -44.5732 -12.0566 -194.342 60.7861 -193.161c91.1064 1.47363 159.747 139.872 193.316 209.136c37.4697 77.3105 67.0391 158.146 104.417 235.502c10.2441 21.2109 53.1611 11.4248 42.249 -11.3516c-42.4951 -88.6895 -74.6455 -182.148 -120.4 -269.291
c-37.543 -71.5059 -86.1533 -151.498 -158.996 -191.695c-58.3691 -32.2148 -137.254 -32.9561 -188.254 13.7324c-65.9492 60.3652 -82.0615 153.824 -85.8145 238.797z" />
    <glyph glyph-name="N" unicode="N" horiz-adv-x="937" 
d="M457.378 53.2988c10.5098 138.143 29.3799 275.341 38.9277 413.584c4.67773 67.707 6.44434 136.119 4.19238 203.964c-0.970703 29.3496 -2.23438 60.4111 -8.63379 89.2021c-5.47461 24.6533 -18.0625 65.7568 -62.6816 40.6914
c-8.98047 -5.05371 -16.46 -16.918 -22.6943 -25.6699c-36.0049 -50.5605 -55.3574 -115.201 -72.9434 -173.882c-86.1172 -287.407 -116.528 -591.915 -150.739 -889.648c2.20605 -30.54 2.96582 -60.915 1.05273 -90.8047
c-2.81055 -44.0146 -64.5127 -45.9463 -86.4561 -16.5234c-29.8623 40.042 -40.0791 95.6465 -49.9473 143.863c-10.043 49.0957 -19.3164 98.292 -26.5303 147.882c-14.3906 98.8604 -26.2461 198.215 -32.8193 297.917c-13.3652 202.801 -17.1465 408.274 11.8643 609.84
c10.8486 75.3604 141.054 73.7588 139.955 -4.8877c-2.74609 -197.629 -11.5527 -394.946 -1.9043 -592.557c4.87891 -99.9404 11.5527 -199.881 21.9248 -299.409c0.485352 -4.6875 1.0166 -9.40234 1.55664 -14.1172c10.2344 89.2207 21.3848 178.322 34.7686 267.167
c25.1016 166.714 52.6572 336.668 106.34 496.982c18.1807 54.2959 39.6211 117.133 79.5898 159.757c73.0811 77.9326 174.129 -1.50195 205.795 -78.7568c104.555 -255.056 35.1631 -545.859 20.6074 -810.911c-2.12402 -38.5684 -0.696289 -76.541 -0.183594 -115.018
c0.375 -28.3057 -0.366211 -52.5469 16.7617 -77.1543c53.3252 -76.5869 126.013 8.57812 157.294 58.9102c74.0879 119.238 109.745 266.746 151.93 399.387c7.53418 23.71 52.3369 13.6396 44.2988 -11.9014c-46.9541 -149.201 -171.768 -686.885 -430.329 -477.812
c-107.914 87.2617 -100.6 223.729 -90.9961 349.906z" />
    <glyph glyph-name="O" unicode="O" horiz-adv-x="722" 
d="M747.904 193.51c22.7402 1.50098 26.5371 -29.9541 4.29199 -34.2842c-45.0312 -8.75195 -93.1846 -12.3408 -142.454 -11.0312c0.0361328 -74.0967 -6.99414 -148.001 -24.3965 -219.883c-31.0801 -128.393 -124.777 -261.912 -253.509 -306.439
c-131.972 -45.6533 -253.178 22.7041 -311.812 143.288c-103.557 212.98 -47.8145 448.902 58.6436 650.696c-23.7285 39.4834 -41.0303 83.2061 -50.1387 131.121c-21.6689 113.956 1.41895 262.919 108.856 327.953c110.459 66.8652 221.889 -2.69141 292.333 -91.8564
c89.0742 -112.748 137.657 -261.556 159.948 -401.877c9.83203 -61.9033 16.8535 -125.052 19.2158 -188.319c47.6582 -2.76465 94.6123 -2.29785 139.021 0.631836zM104.877 773.753c-50.8994 -93.4219 -43.4854 -213.5 0.932617 -309.028
c22.6484 38.8975 46.9443 76.2666 72.0459 111.649c17.3574 24.4697 77.4941 7.43262 60.5127 -23.8398c-29.1211 -53.6094 -59.166 -107.539 -86.584 -162.668c75.1865 -96.3057 188.831 -150.602 310.193 -177.296c1.11719 177.809 -30.6309 357.787 -101.496 519.355
c-20.46 46.6611 -48.4268 109.956 -102.036 125.939c-64.1553 19.1328 -125.106 -31.876 -153.568 -84.1123zM452.768 57.0996c4.15625 36.3164 6.80273 73.0088 8.20312 109.847c-126.296 28.4521 -247.136 88.6797 -330.095 179.41
c-24.791 -53.6826 -46.2676 -108.692 -61.1807 -165.854c-31.4365 -120.52 -37.7256 -269.482 29.3867 -379.896c23.7197 -39.0352 59.0107 -80.1211 105.882 -89.9258c48.4004 -10.125 98.4023 26.3008 130.479 59.1387c73.0439 74.7744 105.744 186.039 117.324 287.279z
" />
    <glyph glyph-name="O" unicode="&#xd6;" horiz-adv-x="722" 
d="M747.904 193.51c22.7402 1.50098 26.5371 -29.9541 4.29199 -34.2842c-45.0312 -8.75195 -93.1846 -12.3408 -142.454 -11.0312c0.0361328 -74.0967 -6.99414 -148.001 -24.3965 -219.883c-31.0801 -128.393 -124.777 -261.912 -253.509 -306.439
c-131.972 -45.6533 -253.178 22.7041 -311.812 143.288c-103.557 212.98 -47.8145 448.902 58.6436 650.696c-23.7285 39.4834 -41.0303 83.2061 -50.1387 131.121c-21.6689 113.956 1.41895 262.919 108.856 327.953c110.459 66.8652 221.889 -2.69141 292.333 -91.8564
c89.0742 -112.748 137.657 -261.556 159.948 -401.877c9.83203 -61.9033 16.8535 -125.052 19.2158 -188.319c47.6582 -2.76465 94.6123 -2.29785 139.021 0.631836zM104.877 773.753c-50.8994 -93.4219 -43.4854 -213.5 0.932617 -309.028
c22.6484 38.8975 46.9443 76.2666 72.0459 111.649c17.3574 24.4697 77.4941 7.43262 60.5127 -23.8398c-29.1211 -53.6094 -59.166 -107.539 -86.584 -162.668c75.1865 -96.3057 188.831 -150.602 310.193 -177.296c1.11719 177.809 -30.6309 357.787 -101.496 519.355
c-20.46 46.6611 -48.4268 109.956 -102.036 125.939c-64.1553 19.1328 -125.106 -31.876 -153.568 -84.1123zM452.768 57.0996c4.15625 36.3164 6.80273 73.0088 8.20312 109.847c-126.296 28.4521 -247.136 88.6797 -330.095 179.41
c-24.791 -53.6826 -46.2676 -108.692 -61.1807 -165.854c-31.4365 -120.52 -37.7256 -269.482 29.3867 -379.896c23.7197 -39.0352 59.0107 -80.1211 105.882 -89.9258c48.4004 -10.125 98.4023 26.3008 130.479 59.1387c73.0439 74.7744 105.744 186.039 117.324 287.279z
" />
    <glyph glyph-name="O" unicode="&#xd5;" horiz-adv-x="722" 
d="M747.904 193.51c22.7402 1.50098 26.5371 -29.9541 4.29199 -34.2842c-45.0312 -8.75195 -93.1846 -12.3408 -142.454 -11.0312c0.0361328 -74.0967 -6.99414 -148.001 -24.3965 -219.883c-31.0801 -128.393 -124.777 -261.912 -253.509 -306.439
c-131.972 -45.6533 -253.178 22.7041 -311.812 143.288c-103.557 212.98 -47.8145 448.902 58.6436 650.696c-23.7285 39.4834 -41.0303 83.2061 -50.1387 131.121c-21.6689 113.956 1.41895 262.919 108.856 327.953c110.459 66.8652 221.889 -2.69141 292.333 -91.8564
c89.0742 -112.748 137.657 -261.556 159.948 -401.877c9.83203 -61.9033 16.8535 -125.052 19.2158 -188.319c47.6582 -2.76465 94.6123 -2.29785 139.021 0.631836zM104.877 773.753c-50.8994 -93.4219 -43.4854 -213.5 0.932617 -309.028
c22.6484 38.8975 46.9443 76.2666 72.0459 111.649c17.3574 24.4697 77.4941 7.43262 60.5127 -23.8398c-29.1211 -53.6094 -59.166 -107.539 -86.584 -162.668c75.1865 -96.3057 188.831 -150.602 310.193 -177.296c1.11719 177.809 -30.6309 357.787 -101.496 519.355
c-20.46 46.6611 -48.4268 109.956 -102.036 125.939c-64.1553 19.1328 -125.106 -31.876 -153.568 -84.1123zM452.768 57.0996c4.15625 36.3164 6.80273 73.0088 8.20312 109.847c-126.296 28.4521 -247.136 88.6797 -330.095 179.41
c-24.791 -53.6826 -46.2676 -108.692 -61.1807 -165.854c-31.4365 -120.52 -37.7256 -269.482 29.3867 -379.896c23.7197 -39.0352 59.0107 -80.1211 105.882 -89.9258c48.4004 -10.125 98.4023 26.3008 130.479 59.1387c73.0439 74.7744 105.744 186.039 117.324 287.279z
" />
    <glyph glyph-name="O" unicode="&#xd4;" horiz-adv-x="722" 
d="M747.904 193.51c22.7402 1.50098 26.5371 -29.9541 4.29199 -34.2842c-45.0312 -8.75195 -93.1846 -12.3408 -142.454 -11.0312c0.0361328 -74.0967 -6.99414 -148.001 -24.3965 -219.883c-31.0801 -128.393 -124.777 -261.912 -253.509 -306.439
c-131.972 -45.6533 -253.178 22.7041 -311.812 143.288c-103.557 212.98 -47.8145 448.902 58.6436 650.696c-23.7285 39.4834 -41.0303 83.2061 -50.1387 131.121c-21.6689 113.956 1.41895 262.919 108.856 327.953c110.459 66.8652 221.889 -2.69141 292.333 -91.8564
c89.0742 -112.748 137.657 -261.556 159.948 -401.877c9.83203 -61.9033 16.8535 -125.052 19.2158 -188.319c47.6582 -2.76465 94.6123 -2.29785 139.021 0.631836zM104.877 773.753c-50.8994 -93.4219 -43.4854 -213.5 0.932617 -309.028
c22.6484 38.8975 46.9443 76.2666 72.0459 111.649c17.3574 24.4697 77.4941 7.43262 60.5127 -23.8398c-29.1211 -53.6094 -59.166 -107.539 -86.584 -162.668c75.1865 -96.3057 188.831 -150.602 310.193 -177.296c1.11719 177.809 -30.6309 357.787 -101.496 519.355
c-20.46 46.6611 -48.4268 109.956 -102.036 125.939c-64.1553 19.1328 -125.106 -31.876 -153.568 -84.1123zM452.768 57.0996c4.15625 36.3164 6.80273 73.0088 8.20312 109.847c-126.296 28.4521 -247.136 88.6797 -330.095 179.41
c-24.791 -53.6826 -46.2676 -108.692 -61.1807 -165.854c-31.4365 -120.52 -37.7256 -269.482 29.3867 -379.896c23.7197 -39.0352 59.0107 -80.1211 105.882 -89.9258c48.4004 -10.125 98.4023 26.3008 130.479 59.1387c73.0439 74.7744 105.744 186.039 117.324 287.279z
" />
    <glyph glyph-name="O" unicode="&#xd3;" horiz-adv-x="722" 
d="M747.904 193.51c22.7402 1.50098 26.5371 -29.9541 4.29199 -34.2842c-45.0312 -8.75195 -93.1846 -12.3408 -142.454 -11.0312c0.0361328 -74.0967 -6.99414 -148.001 -24.3965 -219.883c-31.0801 -128.393 -124.777 -261.912 -253.509 -306.439
c-131.972 -45.6533 -253.178 22.7041 -311.812 143.288c-103.557 212.98 -47.8145 448.902 58.6436 650.696c-23.7285 39.4834 -41.0303 83.2061 -50.1387 131.121c-21.6689 113.956 1.41895 262.919 108.856 327.953c110.459 66.8652 221.889 -2.69141 292.333 -91.8564
c89.0742 -112.748 137.657 -261.556 159.948 -401.877c9.83203 -61.9033 16.8535 -125.052 19.2158 -188.319c47.6582 -2.76465 94.6123 -2.29785 139.021 0.631836zM104.877 773.753c-50.8994 -93.4219 -43.4854 -213.5 0.932617 -309.028
c22.6484 38.8975 46.9443 76.2666 72.0459 111.649c17.3574 24.4697 77.4941 7.43262 60.5127 -23.8398c-29.1211 -53.6094 -59.166 -107.539 -86.584 -162.668c75.1865 -96.3057 188.831 -150.602 310.193 -177.296c1.11719 177.809 -30.6309 357.787 -101.496 519.355
c-20.46 46.6611 -48.4268 109.956 -102.036 125.939c-64.1553 19.1328 -125.106 -31.876 -153.568 -84.1123zM452.768 57.0996c4.15625 36.3164 6.80273 73.0088 8.20312 109.847c-126.296 28.4521 -247.136 88.6797 -330.095 179.41
c-24.791 -53.6826 -46.2676 -108.692 -61.1807 -165.854c-31.4365 -120.52 -37.7256 -269.482 29.3867 -379.896c23.7197 -39.0352 59.0107 -80.1211 105.882 -89.9258c48.4004 -10.125 98.4023 26.3008 130.479 59.1387c73.0439 74.7744 105.744 186.039 117.324 287.279z
" />
    <glyph glyph-name="P" unicode="P" horiz-adv-x="851" 
d="M887.959 134.362c-76.5596 -83.9014 -190.16 -114.668 -299.558 -126.541c-71.6348 -7.79102 -143.946 -8.55078 -215.324 -18.8408c-2.29785 -0.338867 -4.58691 -0.750977 -6.87598 -1.12598c-51.0459 -28.0684 -104.948 -50.1123 -160.983 -63.9541
c-10.5273 -88.7627 -17.7871 -177.837 -18.1533 -267.148c7.25 -47.8691 14.2441 -95.7842 19.123 -144.028c4.07422 -40.2803 -64.9238 -43.8418 -81.292 -15.5361c-107.071 185.169 -119.192 422.556 -130.489 631.591c-12.3037 227.784 -26.0352 461.628 -2.85547 689
c8.05566 79.0225 139.149 73.6943 142.812 -4.98926c10.3994 -223.646 0.475586 -448.115 8.99805 -672.009c1.33691 -35.2812 2.7373 -70.5996 4.40332 -105.909c7.87305 2.47168 15.6914 5.08105 23.4639 7.77246c10.2988 70.3711 23.0234 140.184 37.4414 208.889
c19.6553 93.6328 45.3066 186.313 81.4492 275.012c31.8213 78.0977 69.877 160.178 131.78 219.262c52.6299 50.2314 129.382 86.2451 203.342 69.3545c70.6641 -16.1396 123.807 -80.3135 144.002 -147.361c51.1738 -169.937 -45.9014 -356.882 -156.854 -480.486
c-48.959 -54.543 -105.168 -105.982 -166.787 -149.632c35.4561 2.66406 70.9756 4.62305 106.395 7.72656c110.624 9.7041 218.181 33.9541 299.317 114.569c15.8193 15.7188 54.2139 -6.3623 36.6465 -25.6143zM155.107 -86.1963
c0.0458984 -0.540039 0.0820312 -1.08008 0.119141 -1.60156c0.0546875 0.540039 0.119141 1.08887 0.173828 1.6377c-0.100586 -0.00878906 -0.192383 -0.0273438 -0.292969 -0.0361328zM225.515 74.082c-0.548828 -3.72559 -1.08887 -7.45312 -1.62891 -11.1885
c115.979 49.1875 219.353 123.843 303.904 219.325c48.5098 54.7812 91.9482 113.819 121.572 181.023c30.3477 68.8242 61.2256 155.097 40.7373 230.769c-27.7021 102.339 -136.522 98.6221 -208.89 44.2627c-63.5234 -47.7227 -101.103 -122.79 -132.302 -193.912
c-65.4639 -149.229 -99.6377 -309.735 -123.394 -470.279z" />
    <glyph glyph-name="Q" unicode="Q" horiz-adv-x="722" 
d="M585.356 -71.6797c-25.3398 -104.673 -92.2998 -212.732 -185.924 -273.226c67.332 -49.8555 142.015 -87.2705 228.854 -72.8154c27.2988 4.5498 40.7656 -32.9658 11.0039 -37.9463c-94.374 -15.8096 -182.99 19.124 -259.339 73.0996
c-7.05859 4.98926 -13.8418 10.3076 -20.6982 15.5439c-8.96191 -4.12891 -18.0801 -7.87305 -27.418 -11.1045c-131.972 -45.6533 -253.178 22.7041 -311.812 143.288c-103.557 212.98 -47.8145 448.902 58.6436 650.696
c-23.7285 39.4834 -41.0303 83.2061 -50.1387 131.121c-21.6689 113.956 1.41895 262.919 108.856 327.953c110.459 66.8652 221.897 -2.69141 292.333 -91.8564c89.0742 -112.748 137.657 -261.556 159.948 -401.877c9.83203 -61.9033 16.8535 -125.052 19.2158 -188.319
c47.6582 -2.76465 94.6123 -2.29785 139.021 0.631836c22.7402 1.50098 26.5303 -29.9541 4.30273 -34.2754c-45.0312 -8.75195 -93.1846 -12.3408 -142.454 -11.0312c0.0371094 -74.0967 -6.99316 -148.001 -24.3955 -219.883zM104.875 773.754
c-50.8994 -93.4219 -43.4854 -213.501 0.932617 -309.029c22.6484 38.8975 46.9443 76.2666 72.0459 111.649c17.3574 24.4697 77.4941 7.43262 60.5127 -23.8389c-29.1211 -53.6094 -59.166 -107.539 -86.584 -162.668c75.1865 -96.3057 188.831 -150.602 310.193 -177.296
c1.11719 177.809 -30.6309 357.787 -101.496 519.355c-20.46 46.6611 -48.4268 109.956 -102.036 125.939c-64.1553 19.1328 -125.106 -31.876 -153.568 -84.1123zM204.961 -289.318c18.1719 -3.79883 36.5635 -1.0332 54.1494 5.63086
c-1.73926 1.47363 -3.45117 2.97461 -5.19043 4.43945c-34.5498 29.0752 -102.11 97.7432 -154.648 79.5352c23.7197 -38.9346 58.9463 -79.8281 105.689 -89.6055zM335.44 -230.17c73.0439 74.7744 105.755 186.032 117.326 287.281
c4.15625 36.3066 6.80176 72.998 8.20215 109.836c-126.296 28.4521 -247.136 88.6797 -330.095 179.41c-24.791 -53.6826 -46.2676 -108.692 -61.1807 -165.854c-28.2051 -108.106 -35.9863 -239.017 11.123 -344.551c78.5 26.6396 155.389 -44.5459 213.255 -93.7607
c1.56543 -1.32715 3.13965 -2.68164 4.70508 -4.01855c13.6768 9.76758 26.1455 20.8906 36.6641 31.6562z" />
    <glyph glyph-name="R" unicode="R" horiz-adv-x="974" 
d="M360.931 -346.032c-64.2012 63.1943 -124.86 149.594 -159.419 237.331c-8.48633 -77.96 -14.126 -156.158 -14.4463 -234.539c7.25 -47.8779 14.2441 -95.7842 19.123 -144.028c4.07422 -40.2803 -64.9238 -43.8418 -81.292 -15.5361
c-107.071 185.169 -119.192 422.556 -130.489 631.591c-12.3037 227.784 -26.0352 461.628 -2.85547 689c8.05566 79.0225 139.149 73.6943 142.812 -4.98926c10.3994 -223.646 0.475586 -448.115 8.99805 -672.009c1.33691 -35.2812 2.7373 -70.5996 4.40332 -105.909
c7.87305 2.47168 15.6914 5.08105 23.4639 7.77246c10.2988 70.3623 23.0234 140.175 37.4414 208.88c19.6553 93.6328 45.3066 186.313 81.4492 275.012c31.8213 78.0977 69.877 160.178 131.78 219.262c52.6299 50.2314 129.382 86.2451 203.342 69.3545
c70.6641 -16.1396 123.807 -80.3135 144.002 -147.361c51.1738 -169.937 -45.9014 -356.882 -156.854 -480.486c-89.3213 -99.5098 -202.518 -188.95 -329.409 -238.687c52.1348 -33.1943 90.4736 -99.9131 124.208 -145.237
c45.3428 -60.9238 116.62 -198.855 210.134 -175.896c101.204 24.8457 159.116 156.013 202.473 239.173c51.0645 97.9629 102.11 195.926 153.165 293.889c10.8389 20.8086 53.792 10.9678 42.248 -11.3506c-60.1641 -116.346 -118.945 -233.533 -180.738 -349.027
c-46.4414 -86.8037 -103.657 -181.416 -199.021 -220.872c-100.865 -41.7451 -200.641 1.95898 -274.518 74.6641zM225.516 74.0791c-0.548828 -3.72559 -1.08008 -7.45312 -1.62891 -11.1885c115.979 49.1875 219.353 123.843 303.904 219.325
c48.5098 54.7812 91.9482 113.819 121.572 181.023c30.3477 68.8242 61.2256 155.097 40.7373 230.769c-27.7021 102.339 -136.522 98.6221 -208.89 44.2627c-63.5234 -47.7227 -101.103 -122.79 -132.302 -193.912c-65.4639 -149.229 -99.6377 -309.735 -123.394 -470.279z
M155.41 -86.1738c-0.100586 -0.00878906 -0.192383 -0.0166016 -0.292969 -0.0351562c0.0371094 -0.540039 0.0732422 -1.07129 0.119141 -1.61133c0.0546875 0.548828 0.119141 1.09766 0.173828 1.64648z" />
    <glyph glyph-name="S" unicode="S" horiz-adv-x="650" 
d="M500.08 -439.263c-91.6738 -50.2676 -200.217 -67.3975 -303.188 -51.3857c-84.9355 13.2012 -181.919 50.8906 -221.778 133.053c-45.5625 93.8984 6.82031 195.267 75.4248 261.226c64.1455 61.6738 142.984 106.174 224.771 141.19
c-44.3359 29.8535 -89.1846 59.0381 -131.598 91.7842c-93.1016 71.8906 -158.776 169.012 -174.284 286.812c-12.8252 97.4316 16.8535 216.835 85.8877 288.78c57.6006 60.0352 150.775 95.7197 230.219 56.5293c70.2979 -34.6777 96.04 -124.822 37.4326 -182.341
c-17.165 -16.8447 -50.8174 8.18359 -30.3203 27.3262c30.5117 28.498 27.8848 79.9287 -2.63672 107.64c-25.6143 23.2617 -64.0996 28.6816 -96.8818 22.1729c-68.4121 -13.5762 -116.235 -72.916 -134.05 -137.438c-17.1006 -61.9307 5.81348 -132.457 31.1895 -189.188
c26.7314 -59.752 66.4619 -112.519 115.878 -155.216c69.5654 -60.0996 149.631 -106.064 223.618 -160.442c22.5752 7.26855 45.2148 14.3633 67.8633 21.3662c55.6416 17.2109 113.81 30.6777 157.129 72.0107c18.0254 17.1924 52.1533 -8.2666 31.2988 -28.2148
c-41.4697 -39.667 -94.9512 -55.7607 -148.496 -72.3857c-23.3262 -7.24121 -46.6523 -14.5283 -69.9414 -21.9248c6.89355 -5.60254 13.7324 -11.2783 20.4521 -17.1377c76.834 -66.9932 162.521 -160.754 174.504 -266.69
c12.4131 -109.818 -75.7178 -179.942 -162.494 -227.527zM23.332 -204.725c-130.479 -277.209 394.307 -317.829 516.565 -143.975c73.127 103.996 -53.4531 222.575 -126.781 289.367c-31.0068 28.2422 -64.2656 53.2979 -98.3662 77.1729
c-110.963 -45.1318 -239.42 -112.098 -291.418 -222.565z" />
    <glyph glyph-name="T" unicode="T" horiz-adv-x="940" 
d="M1129.61 876.184c25.1201 15.2422 56.415 -14.6084 27.3955 -32.002c-144.917 -86.9688 -312.226 -102.761 -477.73 -107.411c9.06348 -10.665 15.0596 -24.2227 16.9912 -39.9775c26.4658 -215.196 39.8594 -431.738 37.7812 -648.573
c29.0654 14.3359 58.0117 28.9102 86.4365 44.4727c34.2656 18.7578 113.581 50.6982 117.802 96.5713c2.19727 23.9121 45.4521 22.3467 43.4561 -1.51953c-5.69434 -68.0273 -94.8047 -103.693 -147.096 -132.457c-33.2861 -18.2998 -67.2129 -35.373 -101.222 -52.2637
c-2.00488 -85.7139 -8.14746 -171.557 -23.207 -256.017c-14.0615 -78.8936 -37.1309 -167.867 -92.5342 -228.827c-89.9619 -98.9795 -270.554 -115.806 -335.23 19.2695c-70.2891 146.784 81.0908 293.403 190.305 368.59
c40.7197 28.0225 83.6367 52.5205 127.396 75.4531c-1.56543 240.646 -32.0869 483.442 -53.124 720.509c-1.11719 12.624 3.45117 23.5 11.1133 32.4346c-102.724 -1.89453 -205.996 -6.04199 -306.293 -29.917c-51.2744 -12.2031 -101.973 -29.3223 -147.525 -56.2188
c-19.9658 -11.791 -38.916 -25.2578 -55.8887 -41.123c-10.7568 -10.0518 -22.0723 -22.0078 -30.3662 -34.5039c-9.05371 -11.498 -14.8574 -24.7539 -17.4111 -39.7578c8.65137 -10.0977 17.293 -20.1855 25.9443 -30.2832
c21.9805 8.69727 45.5898 -21.0918 20.1494 -31.2256c-32.4346 -12.917 -69.1348 -0.567383 -83.5527 32.9473c-18.7393 43.5664 17.0186 90.0625 45.7734 119.082c83.5996 84.3779 208.275 117.316 322.442 133.126c264.356 36.5996 558.465 -25.7891 798.195 119.622z
M586.468 -299.745c8.87988 77.7676 12.9014 156.112 13.6699 234.723c-0.577148 -0.311523 -1.1543 -0.613281 -1.73145 -0.924805c-115.796 -63.459 -315.411 -192.025 -282.656 -350.628c17.082 -82.7119 133.491 -150.804 202.772 -79.1875
c47.0908 48.6836 60.6396 132.063 67.9453 196.018z" />
    <glyph glyph-name="U" unicode="U" horiz-adv-x="1071" 
d="M987.705 -198.57c-60.9424 -91.4268 -176.395 -67.209 -221.783 25.8018c-58.9189 120.804 -52.877 282.116 -45.0771 412.815c2.91113 48.8125 7.04883 97.5605 12.0195 146.235c-28.7725 -98.6133 -58.1035 -197.053 -89.3574 -294.805
c-42.8613 -134.068 -103.263 -294.768 -220.157 -382.761c-51.7051 -38.916 -120.08 -49.874 -176.555 -13.8779c-63.9355 40.7471 -80.1846 117.929 -88.4697 187.641c-21.1191 177.735 12.9727 355.068 16.7715 532.868c1.64746 77.2275 7.78125 165.074 -12.4229 240.297
c-11.1133 41.3877 -26.7217 89.2109 -80.3672 78.2344c-40.8203 -8.3584 -70.252 -44.1523 -89.7324 -78.6279c-8.66895 -15.3252 -43.1543 -3.77246 -34.0635 13.4199c30.6221 57.9209 85.293 108.308 155.124 103.565c69.9043 -4.75098 121.601 -42.1562 154.319 -102.961
c81.1738 -150.858 72.3584 -330.379 60.6406 -495.976c-6.18848 -87.417 -12.9082 -174.926 -16.8174 -262.48c-2.16992 -48.6201 -25.0742 -206.207 68.833 -163.593c72.8701 33.0664 124.228 133.318 155.967 201.969c32.792 70.9199 56.7314 145.483 79.4805 220.103
c53.417 175.236 105.845 350.766 158.914 526.103c0.915039 3.02148 2.44336 5.49316 4.38379 7.46094c30.1094 55.8799 140.129 48.4736 136.879 -24.7627c-10.2715 -231.382 -65.1162 -457.884 -63.6055 -690.474c0.338867 -52.4736 -7.13086 -116.135 12.9814 -165.826
c34.5039 -85.2285 92.3887 15.2607 111.348 55.3115c45.6533 96.4346 70.2148 200.906 94.5107 304.279c4.89746 20.8447 42.9531 12.1113 38.1475 -10.2529c-26.457 -123.202 -50.6797 -262.846 -121.911 -369.707z" />
    <glyph glyph-name="U" unicode="&#xdc;" horiz-adv-x="1071" 
d="M987.705 -198.57c-60.9424 -91.4268 -176.395 -67.209 -221.783 25.8018c-58.9189 120.804 -52.877 282.116 -45.0771 412.815c2.91113 48.8125 7.04883 97.5605 12.0195 146.235c-28.7725 -98.6133 -58.1035 -197.053 -89.3574 -294.805
c-42.8613 -134.068 -103.263 -294.768 -220.157 -382.761c-51.7051 -38.916 -120.08 -49.874 -176.555 -13.8779c-63.9355 40.7471 -80.1846 117.929 -88.4697 187.641c-21.1191 177.735 12.9727 355.068 16.7715 532.868c1.64746 77.2275 7.78125 165.074 -12.4229 240.297
c-11.1133 41.3877 -26.7217 89.2109 -80.3672 78.2344c-40.8203 -8.3584 -70.252 -44.1523 -89.7324 -78.6279c-8.66895 -15.3252 -43.1543 -3.77246 -34.0635 13.4199c30.6221 57.9209 85.293 108.308 155.124 103.565c69.9043 -4.75098 121.601 -42.1562 154.319 -102.961
c81.1738 -150.858 72.3584 -330.379 60.6406 -495.976c-6.18848 -87.417 -12.9082 -174.926 -16.8174 -262.48c-2.16992 -48.6201 -25.0742 -206.207 68.833 -163.593c72.8701 33.0664 124.228 133.318 155.967 201.969c32.792 70.9199 56.7314 145.483 79.4805 220.103
c53.417 175.236 105.845 350.766 158.914 526.103c0.915039 3.02148 2.44336 5.49316 4.38379 7.46094c30.1094 55.8799 140.129 48.4736 136.879 -24.7627c-10.2715 -231.382 -65.1162 -457.884 -63.6055 -690.474c0.338867 -52.4736 -7.13086 -116.135 12.9814 -165.826
c34.5039 -85.2285 92.3887 15.2607 111.348 55.3115c45.6533 96.4346 70.2148 200.906 94.5107 304.279c4.89746 20.8447 42.9531 12.1113 38.1475 -10.2529c-26.457 -123.202 -50.6797 -262.846 -121.911 -369.707z" />
    <glyph glyph-name="U" unicode="&#xdb;" horiz-adv-x="1071" 
d="M987.705 -198.57c-60.9424 -91.4268 -176.395 -67.209 -221.783 25.8018c-58.9189 120.804 -52.877 282.116 -45.0771 412.815c2.91113 48.8125 7.04883 97.5605 12.0195 146.235c-28.7725 -98.6133 -58.1035 -197.053 -89.3574 -294.805
c-42.8613 -134.068 -103.263 -294.768 -220.157 -382.761c-51.7051 -38.916 -120.08 -49.874 -176.555 -13.8779c-63.9355 40.7471 -80.1846 117.929 -88.4697 187.641c-21.1191 177.735 12.9727 355.068 16.7715 532.868c1.64746 77.2275 7.78125 165.074 -12.4229 240.297
c-11.1133 41.3877 -26.7217 89.2109 -80.3672 78.2344c-40.8203 -8.3584 -70.252 -44.1523 -89.7324 -78.6279c-8.66895 -15.3252 -43.1543 -3.77246 -34.0635 13.4199c30.6221 57.9209 85.293 108.308 155.124 103.565c69.9043 -4.75098 121.601 -42.1562 154.319 -102.961
c81.1738 -150.858 72.3584 -330.379 60.6406 -495.976c-6.18848 -87.417 -12.9082 -174.926 -16.8174 -262.48c-2.16992 -48.6201 -25.0742 -206.207 68.833 -163.593c72.8701 33.0664 124.228 133.318 155.967 201.969c32.792 70.9199 56.7314 145.483 79.4805 220.103
c53.417 175.236 105.845 350.766 158.914 526.103c0.915039 3.02148 2.44336 5.49316 4.38379 7.46094c30.1094 55.8799 140.129 48.4736 136.879 -24.7627c-10.2715 -231.382 -65.1162 -457.884 -63.6055 -690.474c0.338867 -52.4736 -7.13086 -116.135 12.9814 -165.826
c34.5039 -85.2285 92.3887 15.2607 111.348 55.3115c45.6533 96.4346 70.2148 200.906 94.5107 304.279c4.89746 20.8447 42.9531 12.1113 38.1475 -10.2529c-26.457 -123.202 -50.6797 -262.846 -121.911 -369.707z" />
    <glyph glyph-name="U" unicode="&#xda;" horiz-adv-x="1071" 
d="M987.705 -198.57c-60.9424 -91.4268 -176.395 -67.209 -221.783 25.8018c-58.9189 120.804 -52.877 282.116 -45.0771 412.815c2.91113 48.8125 7.04883 97.5605 12.0195 146.235c-28.7725 -98.6133 -58.1035 -197.053 -89.3574 -294.805
c-42.8613 -134.068 -103.263 -294.768 -220.157 -382.761c-51.7051 -38.916 -120.08 -49.874 -176.555 -13.8779c-63.9355 40.7471 -80.1846 117.929 -88.4697 187.641c-21.1191 177.735 12.9727 355.068 16.7715 532.868c1.64746 77.2275 7.78125 165.074 -12.4229 240.297
c-11.1133 41.3877 -26.7217 89.2109 -80.3672 78.2344c-40.8203 -8.3584 -70.252 -44.1523 -89.7324 -78.6279c-8.66895 -15.3252 -43.1543 -3.77246 -34.0635 13.4199c30.6221 57.9209 85.293 108.308 155.124 103.565c69.9043 -4.75098 121.601 -42.1562 154.319 -102.961
c81.1738 -150.858 72.3584 -330.379 60.6406 -495.976c-6.18848 -87.417 -12.9082 -174.926 -16.8174 -262.48c-2.16992 -48.6201 -25.0742 -206.207 68.833 -163.593c72.8701 33.0664 124.228 133.318 155.967 201.969c32.792 70.9199 56.7314 145.483 79.4805 220.103
c53.417 175.236 105.845 350.766 158.914 526.103c0.915039 3.02148 2.44336 5.49316 4.38379 7.46094c30.1094 55.8799 140.129 48.4736 136.879 -24.7627c-10.2715 -231.382 -65.1162 -457.884 -63.6055 -690.474c0.338867 -52.4736 -7.13086 -116.135 12.9814 -165.826
c34.5039 -85.2285 92.3887 15.2607 111.348 55.3115c45.6533 96.4346 70.2148 200.906 94.5107 304.279c4.89746 20.8447 42.9531 12.1113 38.1475 -10.2529c-26.457 -123.202 -50.6797 -262.846 -121.911 -369.707z" />
    <glyph glyph-name="V" unicode="V" horiz-adv-x="989" 
d="M249.524 -416.77c-65.3359 45.8096 -108.389 112.534 -133.737 187.593c-54.5518 161.614 -58.3506 334.278 -66.9287 502.97c-4.36719 85.7695 -10.1895 171.054 -20.3232 256.328c-7.68066 64.6406 -8.44043 164.837 -60.8047 211.974
c-18.6934 16.835 5.5293 37.7803 24.3965 32.709c59.084 -15.874 90.7676 -61.4453 116.235 -114.057c34.8604 -72.0098 54.5156 -147.901 68.2471 -226.484c26.8965 -153.961 27.29 -311.017 50.6436 -465.39c18.1348 -119.833 33.084 -277.987 143.928 -349.549
c65.5098 -42.2939 147.59 8.57812 196.137 55.4492c48.9951 47.3018 87.3525 108.894 119.952 168.215c46.917 85.3848 80.999 177.27 103.354 271.964c-90.7031 -2.7002 -181.113 15.3066 -262.415 61.2627c-133.08 75.2324 -218.602 212.35 -211.909 366.97
c5.63965 130.123 68.2109 298.777 200.732 347.873c130.113 48.208 239.016 -58.543 290.821 -168.132c61.4365 -129.958 65.7207 -282.271 54.1855 -423.124c-3.90918 -47.8047 -10.3447 -95.6094 -19.4355 -142.938c54.085 6.92969 107.465 21.4121 157.833 41.3418
c23.875 9.44727 49.4619 -22.9961 21.8613 -33.8809c-59.9619 -23.6279 -123.65 -39.9688 -187.897 -46.4863c-20.2959 -90.3467 -50.46 -178.505 -91.6553 -261.134c-61.2988 -122.955 -152.094 -268.494 -294.393 -304.765
c-70.3438 -17.9336 -139.287 -10.4541 -198.828 31.291zM576.068 195.302c70.2158 -34.0371 146.655 -46.0371 222.94 -42.1924c5.25488 26.0723 9.6582 52.3184 13.1914 78.665c16.6709 124.255 20.5254 256.685 -9.54688 379.209
c-28.0498 114.258 -124.081 302.796 -271.213 245.067c-125.885 -49.3984 -178.469 -232.682 -170.596 -354.821c8.6875 -134.765 95.3174 -247.806 215.224 -305.928z" />
    <glyph glyph-name="W" unicode="W" horiz-adv-x="1508" 
d="M54.252 572.216c-10.7109 57.2158 -12.6465 146.181 -83.5664 161.249c-20.3135 4.31152 -16.4043 28.333 1.14453 32.8828c109.589 28.416 175.987 -82.3906 207.085 -169.799c42.2021 -118.625 62.3975 -240.555 77.3467 -365.157
c13.9697 -116.409 20.0762 -233.725 35.2822 -350.033c8.93457 -68.3477 21.5771 -290.904 132.677 -272.678c55.7607 9.14551 99.7666 68.1738 129.537 111.604c11.0957 16.1855 21.2754 32.9746 30.8232 50.1299c-9.25488 21.4951 -17.2471 43.7041 -24.0576 66.3154
c-38.9346 129.363 -51.7324 267.652 -45.2324 402.206c6.11523 126.516 14.6562 260.017 75.8545 373.533c18.7666 34.8145 51.7412 85.0459 97.249 85.1738c37.0029 0.109375 55.8525 -31.8496 68.8066 -61.9404c48.043 -111.566 37.0938 -245.177 25.5586 -363.143
c-11.3975 -116.61 -37.0664 -231.985 -76.1104 -342.49c5.12695 -20.625 10.6377 -41.168 16.9268 -61.5371c26.0449 -84.3867 67.5791 -173.287 153.77 -209.173c95.9121 -39.9326 186.259 51.4023 237.085 122.973c58.2051 81.9609 101.378 175.896 135.396 270.188
c10.6836 29.6152 20.79 59.377 30.2012 89.3213c-58.543 1.27246 -116.473 7.80859 -172.6 27.1426c-112.912 38.8887 -194.149 120.896 -213.557 240.939c-18.2637 112.958 2.02246 236.618 59.5498 335.845c50.8994 87.7832 151.865 179.769 261.5 158.594
c101.707 -19.6455 143.745 -132.641 160.864 -222.557c23.1973 -121.783 20.8076 -251.339 6.27051 -374.02c-4.96191 -41.8545 -11.2422 -83.1504 -19.1885 -123.934c59.7246 1.61133 117.518 5.32812 167.034 4.43066c30.6953 -0.558594 29.084 -41.168 -1.41895 -40.71
c-57.4453 0.870117 -115.925 -3.2041 -174.285 -5.1084c-15.416 -68.1836 -36.0508 -134.957 -63.8994 -200.531c-44.8848 -105.681 -101.322 -213.457 -185.571 -293.34c-85.8516 -81.4023 -208.788 -133.29 -324.383 -85.457
c-75.5801 31.2627 -130.077 86.8125 -168.847 153.714c-26.5938 -44.4268 -57.957 -85.2559 -96.1133 -117.718c-87.792 -74.6924 -191.119 -66.1699 -270.508 17.0088c-91.8477 96.2148 -116.675 222.776 -131.065 350.455
c-15.1875 134.736 -20.625 270.324 -34.3389 405.162c-6.81055 66.9844 -12.8252 134.225 -25.2207 200.458zM961.163 348.772c56.6025 -135.222 192.623 -162.933 331.314 -165.423c16.3223 57.1797 29.3672 115.183 36.6729 174.604
c15.0957 122.744 34.2012 613.228 -211.022 490.282c-163.217 -81.833 -224.067 -339.168 -156.965 -499.464zM707.327 641.782c-53.4258 38.6875 -53.4531 -110.229 -51.1924 -136.274c9.35547 -107.071 -0.907227 -215.397 9.62012 -323.119
c5.3916 -55.165 12.3584 -110.221 22.1816 -164.727c13.4482 43.2275 24.9736 87.0596 34.2656 131.358c22.4014 106.852 33.3682 217.319 26.585 326.451c-1.96777 31.7295 -5.9043 63.4404 -13.9053 94.2637c-4.76074 18.3643 -13.1367 61.6016 -27.5547 72.0469z" />
    <glyph glyph-name="X" unicode="X" horiz-adv-x="1106" 
d="M962.946 -230.722c-121.481 -86.126 -250.896 51.0107 -310.94 147.207c-56.8223 91.0332 -90.1631 197.464 -121.005 301.844c-52.1904 -116.995 -103.364 -234.649 -170.642 -343.974c-49.6455 -80.6699 -155.5 -226.813 -264.988 -148.588
c-43.8965 31.3633 -66.3711 85.5029 -84.3506 134.443c-23.7744 64.7139 -36.6641 132.604 -40.6191 201.364c-7.96484 138.518 18.9492 283.004 57.9199 415.607c34.3301 116.785 115.357 261.83 241.8 294.915c143.149 37.4512 243.301 -71.9277 301.716 -188.703
c16.0479 -32.0771 30.0996 -64.9326 42.834 -98.2822c5.80371 10.1162 11.5898 20.25 17.6406 30.2373c33.7441 55.6777 71.5801 111.438 116.858 158.529c28.7998 29.9443 65.1064 51.6777 105.341 30.8516c25.5684 -13.2285 -1.24512 -42.7705 -23.4082 -31.2637
c-45.8828 23.8203 -146.684 -152.981 -165.45 -184.226c-11.1689 -18.5928 -21.8154 -37.4785 -32.1143 -56.5479c30.8047 -90.7305 54.0938 -184.254 81.2373 -275.955c19.9199 -67.3135 41.9824 -133.693 65.0059 -199.973
c17.54 -50.4873 54.0303 -147.315 111.631 -164.847c69.6475 -21.2021 129.701 125.875 149.805 175.63c27.8301 68.8789 46.5049 141.475 66.7734 212.834c5.91406 20.8359 43.0264 11.9561 38.1475 -10.2529c-17.6865 -80.459 -37.5977 -160.36 -70.3896 -236.225
c-25.6602 -59.377 -58.7168 -126.278 -112.802 -164.627zM464.859 173.489c15.874 35.7031 31.6475 71.5068 47.7227 107.146c-3.03027 10.1611 -6.06934 20.2773 -9.1543 30.3105c-21.1562 68.8604 -43.9873 136.952 -72.7422 203.048
c-22.4287 51.5586 -46.1299 108.454 -89.6045 146.024c-50.2217 43.4014 -108.866 -7.33301 -144.239 -48.4648c-46.4316 -53.9932 -73.2363 -119.467 -102.54 -183.457c-58.04 -126.735 -83.3984 -275.68 -70.3262 -414.563
c6.70996 -71.2686 23.6641 -144.624 58.0488 -207.909c22.7861 -41.9375 57.8936 -77.1641 109.04 -56.4932c32.5811 13.1738 60.292 44.0244 81.7686 70.7188c83.792 104.133 138.143 232.425 192.026 353.641z" />
    <glyph glyph-name="Y" unicode="Y" horiz-adv-x="975" 
d="M977.779 196.769c14.2998 16.9268 51.8223 0.686523 35.6641 -19.0781c-64.9512 -79.498 -158.126 -121.06 -252.464 -155.508c-2.11426 -58.8457 -6.62793 -117.444 -14.2627 -175.594c-16.2676 -123.843 -39.6396 -251.201 -105.287 -359.362
c-52.6201 -86.6934 -130.983 -144.688 -226.703 -176.207c-170.257 -56.0537 -413.53 41.6533 -444.024 234.027c-32.2695 203.615 231.895 327.687 384.876 385.296c85.2568 32.1055 172.894 57.0703 259.844 84.1035
c-0.109375 5.41992 -0.21875 10.8301 -0.319336 16.1768c-3.43262 171.812 -23.3623 341.877 -44.2988 511.987c-10.0605 -94.8965 -26.0264 -189.216 -53.9658 -279.91c-35.1533 -114.121 -106.156 -259.743 -240.902 -271.745
c-147.013 -13.1006 -234.769 116.281 -270.123 241.863c-44.7568 158.969 -35.3828 328.026 -19.3076 490.291c7.92773 79.9922 152.433 74.9756 145.667 -5.08984c-10.9668 -129.748 -23.9209 -261.61 -11.8916 -391.761
c8.43164 -91.2705 34.0371 -282.079 157.285 -288.441c67.0752 -3.45996 117.242 74.3535 145.355 125.473c29.6152 53.8564 49.1875 112.675 64.1094 172.125c32.8828 130.992 43.6123 266.406 60.1455 400.09c0.12793 0.998047 0.393555 1.9043 0.667969 2.80176
c2.66406 67.332 140.724 72.4492 151.636 3.74414c35.2178 -221.696 66.417 -451.842 62.5908 -679.013c81.0547 29.7891 160.425 68.2842 215.709 133.73zM488.256 -584.756c124.813 147.397 130.836 369.484 127.879 559.029
c-56.502 -17.4482 -113.187 -34.3477 -169.24 -53.1689c-92.6621 -31.1162 -185.004 -67.5693 -267.074 -121.416c-77.8965 -51.1104 -168.801 -126.919 -165.551 -229.486c3.43262 -108.39 106.412 -193.563 202.983 -222.666
c98.4023 -29.6514 202.737 -12.9072 271.003 67.708z" />
    <glyph glyph-name="Y" unicode="&#x178;" horiz-adv-x="975" 
d="M977.779 196.769c14.2998 16.9268 51.8223 0.686523 35.6641 -19.0781c-64.9512 -79.498 -158.126 -121.06 -252.464 -155.508c-2.11426 -58.8457 -6.62793 -117.444 -14.2627 -175.594c-16.2676 -123.843 -39.6396 -251.201 -105.287 -359.362
c-52.6201 -86.6934 -130.983 -144.688 -226.703 -176.207c-170.257 -56.0537 -413.53 41.6533 -444.024 234.027c-32.2695 203.615 231.895 327.687 384.876 385.296c85.2568 32.1055 172.894 57.0703 259.844 84.1035
c-0.109375 5.41992 -0.21875 10.8301 -0.319336 16.1768c-3.43262 171.812 -23.3623 341.877 -44.2988 511.987c-10.0605 -94.8965 -26.0264 -189.216 -53.9658 -279.91c-35.1533 -114.121 -106.156 -259.743 -240.902 -271.745
c-147.013 -13.1006 -234.769 116.281 -270.123 241.863c-44.7568 158.969 -35.3828 328.026 -19.3076 490.291c7.92773 79.9922 152.433 74.9756 145.667 -5.08984c-10.9668 -129.748 -23.9209 -261.61 -11.8916 -391.761
c8.43164 -91.2705 34.0371 -282.079 157.285 -288.441c67.0752 -3.45996 117.242 74.3535 145.355 125.473c29.6152 53.8564 49.1875 112.675 64.1094 172.125c32.8828 130.992 43.6123 266.406 60.1455 400.09c0.12793 0.998047 0.393555 1.9043 0.667969 2.80176
c2.66406 67.332 140.724 72.4492 151.636 3.74414c35.2178 -221.696 66.417 -451.842 62.5908 -679.013c81.0547 29.7891 160.425 68.2842 215.709 133.73zM488.256 -584.756c124.813 147.397 130.836 369.484 127.879 559.029
c-56.502 -17.4482 -113.187 -34.3477 -169.24 -53.1689c-92.6621 -31.1162 -185.004 -67.5693 -267.074 -121.416c-77.8965 -51.1104 -168.801 -126.919 -165.551 -229.486c3.43262 -108.39 106.412 -193.563 202.983 -222.666
c98.4023 -29.6514 202.737 -12.9072 271.003 67.708z" />
    <glyph glyph-name="Y" unicode="&#xdd;" horiz-adv-x="975" 
d="M977.779 196.769c14.2998 16.9268 51.8223 0.686523 35.6641 -19.0781c-64.9512 -79.498 -158.126 -121.06 -252.464 -155.508c-2.11426 -58.8457 -6.62793 -117.444 -14.2627 -175.594c-16.2676 -123.843 -39.6396 -251.201 -105.287 -359.362
c-52.6201 -86.6934 -130.983 -144.688 -226.703 -176.207c-170.257 -56.0537 -413.53 41.6533 -444.024 234.027c-32.2695 203.615 231.895 327.687 384.876 385.296c85.2568 32.1055 172.894 57.0703 259.844 84.1035
c-0.109375 5.41992 -0.21875 10.8301 -0.319336 16.1768c-3.43262 171.812 -23.3623 341.877 -44.2988 511.987c-10.0605 -94.8965 -26.0264 -189.216 -53.9658 -279.91c-35.1533 -114.121 -106.156 -259.743 -240.902 -271.745
c-147.013 -13.1006 -234.769 116.281 -270.123 241.863c-44.7568 158.969 -35.3828 328.026 -19.3076 490.291c7.92773 79.9922 152.433 74.9756 145.667 -5.08984c-10.9668 -129.748 -23.9209 -261.61 -11.8916 -391.761
c8.43164 -91.2705 34.0371 -282.079 157.285 -288.441c67.0752 -3.45996 117.242 74.3535 145.355 125.473c29.6152 53.8564 49.1875 112.675 64.1094 172.125c32.8828 130.992 43.6123 266.406 60.1455 400.09c0.12793 0.998047 0.393555 1.9043 0.667969 2.80176
c2.66406 67.332 140.724 72.4492 151.636 3.74414c35.2178 -221.696 66.417 -451.842 62.5908 -679.013c81.0547 29.7891 160.425 68.2842 215.709 133.73zM488.256 -584.756c124.813 147.397 130.836 369.484 127.879 559.029
c-56.502 -17.4482 -113.187 -34.3477 -169.24 -53.1689c-92.6621 -31.1162 -185.004 -67.5693 -267.074 -121.416c-77.8965 -51.1104 -168.801 -126.919 -165.551 -229.486c3.43262 -108.39 106.412 -193.563 202.983 -222.666
c98.4023 -29.6514 202.737 -12.9072 271.003 67.708z" />
    <glyph glyph-name="Z" unicode="Z" horiz-adv-x="1015" 
d="M1044.4 119.843c-85.0088 -12.7793 -168.95 -31.1514 -251.323 -54.6514c-12.9717 -57.3809 -29.6426 -113.883 -50.1309 -168.874c-110.001 -295.299 -334.791 -624.313 -667.102 -684.597c-65.5742 -11.9014 -140.367 -14.1348 -200.806 18.501
c-67.0391 36.1973 -88.8633 110.147 -66.6729 180.674c46.6699 148.304 184.583 269.968 304.16 360.562c157.504 119.32 332.805 214.207 517.956 282.537c21.2109 69.1631 37.8535 139.525 49.1777 210.857c-13.75 -1.8584 -27.4814 -3.73535 -41.2129 -5.76758
c-22.6113 -3.35938 -33.9443 27.5371 -9.13574 31.501c18.4648 2.95703 36.957 5.73047 55.4678 8.36719c4.34863 32.4717 7.68066 65.126 9.68555 97.9639c8.37598 137.071 7.94531 294.548 -85.541 405.556c-113.315 134.554 -301.14 76.001 -415.718 -24.9277
c-105.323 -92.7812 -212.587 -239.73 -180.894 -387.521c5.53809 -25.8066 -38.834 -32.4707 -44.3271 -8.65039c-40.2617 174.66 88.5889 348.908 220.451 450.084c139.296 106.88 325.527 125.015 466.48 10.6104c133.135 -108.061 167.51 -286.978 171.145 -449.755
c0.567383 -25.4492 0.320312 -50.9541 -0.567383 -76.4404c5.28223 0.521484 10.5557 1.11621 15.8467 1.62012c24.3604 2.29785 36.4814 -31.6289 9.81445 -33.8447c-9.1084 -0.759766 -18.208 -1.65723 -27.3164 -2.49023
c-3.50586 -57.7285 -10.6279 -115.32 -21.5127 -172.18c76.001 20.6523 153.165 37.0938 231.07 48.8115c27.2988 4.10156 40.8477 -33.46 11.0039 -37.9453zM608.816 -12.4209c2.00488 5.72168 3.81738 11.498 5.76758 17.2471
c-164.709 -64.5762 -320.63 -151.196 -462.214 -258.973c-107.905 -82.1348 -220.434 -184.465 -255.861 -320.648c-17.3662 -66.7549 -3.86328 -133.327 76.0469 -131.908c61.5557 1.08984 125.263 28.251 177.315 59.4863c109.516 65.7119 197.82 168.545 270.608 271.863
c79.1504 112.345 142.747 233.23 188.337 362.933z" />
    <glyph glyph-name="bracketleft" unicode="[" horiz-adv-x="422" 
d="M293.41 -244.676c28.1865 24.5889 90.8486 1.41895 76.1826 -40.6191c-19.9111 -57.1523 -89.8242 -79.5537 -145.292 -67.4697c-66.5166 14.4912 -114.294 67.542 -137.729 129.381c-54.3047 143.333 -33.2588 318.414 -29.0381 468.191
c4.54102 160.919 -1.00684 322.533 21.9707 482.354c9.33789 64.915 15.627 143.69 44.3447 203.497c25.9258 53.9844 76.9629 43.9053 124.521 28.498c27.1709 -8.79785 12.4141 -40.335 -12.7793 -34.7969c-17.9062 3.93652 -11.0957 11.2783 -21.3857 3.70703
c-8.2207 -6.06055 -10.29 -15.874 -12.1846 -25.2939c-4.80566 -23.8838 -3.1123 -50.4873 -4.55859 -74.875c-3.45996 -58.2686 -3.59766 -116.474 -3.7627 -174.815c-0.320312 -111.338 2.34375 -222.712 3.03027 -334.059
c0.705078 -114.972 -6.54492 -230.209 -1.33594 -345.107c1.94043 -42.6602 12.1572 -293.477 98.0176 -218.592z" />
    <glyph glyph-name="backslash" unicode="\" horiz-adv-x="561" 
d="M508.811 -228.984c17.8418 -75.6895 -99.2354 -85.3662 -125.619 -24.5156c-70.1328 161.761 -116.564 334.187 -171.455 501.514c-26.9053 82.0342 -53.5996 164.389 -78.125 247.155c-23.2803 78.5557 -41.3516 163.638 -79.1504 236.691
c-22.0537 42.624 43.6025 62.3799 67.6699 30.3477c49.9746 -66.5078 80.5146 -144.258 113.361 -220.058c35.8955 -82.8398 68.6963 -167.19 100.06 -251.861c63.0107 -170.055 131.578 -342.508 173.259 -519.273z" />
    <glyph glyph-name="bracketright" unicode="]" horiz-adv-x="408" 
d="M356.905 353.712c1.65723 -155.875 2.29883 -313.325 -10.9932 -468.761c-5.61133 -65.583 -11.8369 -149.723 -50.167 -205.739c-37.708 -55.1104 -106.248 -84.2949 -170.559 -60.749c-50.0293 18.3096 -61.4541 93.7979 3.51562 100.618
c39.6846 4.16504 42.1016 73.7578 45.626 103.757c6.63672 56.5293 10.9209 113.306 13.6494 170.146c5.42871 113.004 8.81543 226.182 12.1572 339.259c3.37793 114.569 6.11523 229.02 3.7627 343.616c-1.10742 54.0117 -0.732422 109.672 -11.6631 162.805
c-4.26562 20.7354 -9.97852 54.7812 -23.5088 71.6719c-22.8037 28.4619 -64.082 15.2881 -94.0537 8.1748c-19.3896 -4.60449 -36.2803 23.9668 -14.2998 31.1533c49.6357 16.2217 107.768 32.0312 157.047 6.68262c55.8516 -28.7266 80.7061 -96.04 96.8086 -152.944
c40.7559 -144.047 41.1035 -301.157 42.6777 -449.69z" />
    <glyph glyph-name="asciicircum" unicode="^" horiz-adv-x="344" 
d="M291.729 529.343c18.7666 -64.1006 -98.0664 -82.4375 -112.411 -21.9258c-5.61133 23.6367 -11.1953 47.3008 -18.4277 70.5078c-1.35449 4.33887 -2.75488 8.6875 -4.19238 13.0176c-5.84961 -7.99219 -11.0215 -16.46 -16.7793 -24.5254
c-12.5967 -17.6406 -34.998 -35.4004 -44.0977 -54.7988c-10.3535 -22.0713 -54.5059 -13.127 -44.2988 11.9014c7.61621 18.6748 5.36426 43.5752 9.56641 63.7432c3.51562 16.8623 9.03613 32.7275 16.6982 48.1992c17.2285 34.7783 44.9209 66.6816 86.3086 68.7783
c86.1172 4.36719 109.104 -111.64 127.634 -174.897z" />
    <glyph glyph-name="underscore" unicode="_" horiz-adv-x="529" 
d="M432.215 -142.886c64.1641 -0.650391 60.8604 -86.3652 -2.9834 -85.1475c-116.639 2.24316 -239.85 -1.82129 -354.923 18.7764c-34.3203 6.14258 -31.0801 53.3896 2.04102 58.3604c115.576 17.3574 239.245 9.18262 355.865 8.01074z" />
    <glyph glyph-name="grave" unicode="`" horiz-adv-x="230" 
d="M175.24 594.486c27.5918 -52.1807 -67.3672 -75.7354 -80.5498 -25.3945c-10.4092 39.7861 -32.7275 75.0674 -43.6855 114.45c-8.43164 30.3203 38.4951 45.7363 56.9873 25.4404c30.292 -33.249 46.4951 -75.25 67.248 -114.496z" />
    <glyph glyph-name="a" unicode="a" horiz-adv-x="471" 
d="M456.663 184.621c9.31934 20.8359 50.6992 11.5771 40.8857 -10.9893c-32.7002 -75.1865 -59.7979 -153.55 -100.298 -225.093c-26.7041 -47.1826 -62.6543 -79.04 -117.673 -53.6816c-62.4619 28.7822 -77.457 104.5 -84.0762 166.732
c-0.613281 5.73047 -0.960938 11.5342 -1.44629 17.3018c-5.44727 -17.3291 -11.9375 -34.2285 -20.4512 -50.1211c-40.3438 -75.3145 -129.436 -54.8633 -170.063 11.1777c-56.3281 91.5361 -16.4688 217.137 58.4521 285.438
c40.6367 37.0488 112.152 55.5869 158.667 27.3086c26.8135 52.5293 135.707 34.1924 132.356 -30.1455c-6.13379 -117.736 -37.8086 -233.871 -39.2461 -352.13c-0.0644531 -5.58398 -3.87305 -29.459 0.850586 -33.5049c18.2178 -15.6084 31.7207 11.4795 37.9551 21.4492
c15.4805 24.7451 27.876 51.7148 40.0146 78.2178c22.3916 48.8857 42.1201 98.9521 64.0723 148.039zM206.113 296.706c0.548828 2.7373 1.00488 5.49902 1.59082 8.22754c-38.0557 50.002 -96.3789 -96.9102 -103.016 -118.688
c-9.33789 -30.6309 -14.2354 -60.7402 -14.6562 -92.7354c-0.182617 -13.4111 -3.43262 -58.8174 7.24121 -68.6309c34.3301 -31.5557 73.8965 127.789 78.9131 147.215c10.6924 41.3877 20.1494 83.041 29.9268 124.612z" />
    <glyph glyph-name="a" unicode="&#xe5;" horiz-adv-x="471" 
d="M456.663 184.621c9.31934 20.8359 50.6992 11.5771 40.8857 -10.9893c-32.7002 -75.1865 -59.7979 -153.55 -100.298 -225.093c-26.7041 -47.1826 -62.6543 -79.04 -117.673 -53.6816c-62.4619 28.7822 -77.457 104.5 -84.0762 166.732
c-0.613281 5.73047 -0.960938 11.5342 -1.44629 17.3018c-5.44727 -17.3291 -11.9375 -34.2285 -20.4512 -50.1211c-40.3438 -75.3145 -129.436 -54.8633 -170.063 11.1777c-56.3281 91.5361 -16.4688 217.137 58.4521 285.438
c40.6367 37.0488 112.152 55.5869 158.667 27.3086c26.8135 52.5293 135.707 34.1924 132.356 -30.1455c-6.13379 -117.736 -37.8086 -233.871 -39.2461 -352.13c-0.0644531 -5.58398 -3.87305 -29.459 0.850586 -33.5049c18.2178 -15.6084 31.7207 11.4795 37.9551 21.4492
c15.4805 24.7451 27.876 51.7148 40.0146 78.2178c22.3916 48.8857 42.1201 98.9521 64.0723 148.039zM206.113 296.706c0.548828 2.7373 1.00488 5.49902 1.59082 8.22754c-38.0557 50.002 -96.3789 -96.9102 -103.016 -118.688
c-9.33789 -30.6309 -14.2354 -60.7402 -14.6562 -92.7354c-0.182617 -13.4111 -3.43262 -58.8174 7.24121 -68.6309c34.3301 -31.5557 73.8965 127.789 78.9131 147.215c10.6924 41.3877 20.1494 83.041 29.9268 124.612z" />
    <glyph glyph-name="a" unicode="&#xe4;" horiz-adv-x="471" 
d="M456.663 184.621c9.31934 20.8359 50.6992 11.5771 40.8857 -10.9893c-32.7002 -75.1865 -59.7979 -153.55 -100.298 -225.093c-26.7041 -47.1826 -62.6543 -79.04 -117.673 -53.6816c-62.4619 28.7822 -77.457 104.5 -84.0762 166.732
c-0.613281 5.73047 -0.960938 11.5342 -1.44629 17.3018c-5.44727 -17.3291 -11.9375 -34.2285 -20.4512 -50.1211c-40.3438 -75.3145 -129.436 -54.8633 -170.063 11.1777c-56.3281 91.5361 -16.4688 217.137 58.4521 285.438
c40.6367 37.0488 112.152 55.5869 158.667 27.3086c26.8135 52.5293 135.707 34.1924 132.356 -30.1455c-6.13379 -117.736 -37.8086 -233.871 -39.2461 -352.13c-0.0644531 -5.58398 -3.87305 -29.459 0.850586 -33.5049c18.2178 -15.6084 31.7207 11.4795 37.9551 21.4492
c15.4805 24.7451 27.876 51.7148 40.0146 78.2178c22.3916 48.8857 42.1201 98.9521 64.0723 148.039zM206.113 296.706c0.548828 2.7373 1.00488 5.49902 1.59082 8.22754c-38.0557 50.002 -96.3789 -96.9102 -103.016 -118.688
c-9.33789 -30.6309 -14.2354 -60.7402 -14.6562 -92.7354c-0.182617 -13.4111 -3.43262 -58.8174 7.24121 -68.6309c34.3301 -31.5557 73.8965 127.789 78.9131 147.215c10.6924 41.3877 20.1494 83.041 29.9268 124.612z" />
    <glyph glyph-name="a" unicode="&#xe3;" horiz-adv-x="471" 
d="M456.663 184.621c9.31934 20.8359 50.6992 11.5771 40.8857 -10.9893c-32.7002 -75.1865 -59.7979 -153.55 -100.298 -225.093c-26.7041 -47.1826 -62.6543 -79.04 -117.673 -53.6816c-62.4619 28.7822 -77.457 104.5 -84.0762 166.732
c-0.613281 5.73047 -0.960938 11.5342 -1.44629 17.3018c-5.44727 -17.3291 -11.9375 -34.2285 -20.4512 -50.1211c-40.3438 -75.3145 -129.436 -54.8633 -170.063 11.1777c-56.3281 91.5361 -16.4688 217.137 58.4521 285.438
c40.6367 37.0488 112.152 55.5869 158.667 27.3086c26.8135 52.5293 135.707 34.1924 132.356 -30.1455c-6.13379 -117.736 -37.8086 -233.871 -39.2461 -352.13c-0.0644531 -5.58398 -3.87305 -29.459 0.850586 -33.5049c18.2178 -15.6084 31.7207 11.4795 37.9551 21.4492
c15.4805 24.7451 27.876 51.7148 40.0146 78.2178c22.3916 48.8857 42.1201 98.9521 64.0723 148.039zM206.113 296.706c0.548828 2.7373 1.00488 5.49902 1.59082 8.22754c-38.0557 50.002 -96.3789 -96.9102 -103.016 -118.688
c-9.33789 -30.6309 -14.2354 -60.7402 -14.6562 -92.7354c-0.182617 -13.4111 -3.43262 -58.8174 7.24121 -68.6309c34.3301 -31.5557 73.8965 127.789 78.9131 147.215c10.6924 41.3877 20.1494 83.041 29.9268 124.612z" />
    <glyph glyph-name="a" unicode="&#xe2;" horiz-adv-x="471" 
d="M456.663 184.621c9.31934 20.8359 50.6992 11.5771 40.8857 -10.9893c-32.7002 -75.1865 -59.7979 -153.55 -100.298 -225.093c-26.7041 -47.1826 -62.6543 -79.04 -117.673 -53.6816c-62.4619 28.7822 -77.457 104.5 -84.0762 166.732
c-0.613281 5.73047 -0.960938 11.5342 -1.44629 17.3018c-5.44727 -17.3291 -11.9375 -34.2285 -20.4512 -50.1211c-40.3438 -75.3145 -129.436 -54.8633 -170.063 11.1777c-56.3281 91.5361 -16.4688 217.137 58.4521 285.438
c40.6367 37.0488 112.152 55.5869 158.667 27.3086c26.8135 52.5293 135.707 34.1924 132.356 -30.1455c-6.13379 -117.736 -37.8086 -233.871 -39.2461 -352.13c-0.0644531 -5.58398 -3.87305 -29.459 0.850586 -33.5049c18.2178 -15.6084 31.7207 11.4795 37.9551 21.4492
c15.4805 24.7451 27.876 51.7148 40.0146 78.2178c22.3916 48.8857 42.1201 98.9521 64.0723 148.039zM206.113 296.706c0.548828 2.7373 1.00488 5.49902 1.59082 8.22754c-38.0557 50.002 -96.3789 -96.9102 -103.016 -118.688
c-9.33789 -30.6309 -14.2354 -60.7402 -14.6562 -92.7354c-0.182617 -13.4111 -3.43262 -58.8174 7.24121 -68.6309c34.3301 -31.5557 73.8965 127.789 78.9131 147.215c10.6924 41.3877 20.1494 83.041 29.9268 124.612z" />
    <glyph glyph-name="a" unicode="&#xe1;" horiz-adv-x="471" 
d="M456.663 184.621c9.31934 20.8359 50.6992 11.5771 40.8857 -10.9893c-32.7002 -75.1865 -59.7979 -153.55 -100.298 -225.093c-26.7041 -47.1826 -62.6543 -79.04 -117.673 -53.6816c-62.4619 28.7822 -77.457 104.5 -84.0762 166.732
c-0.613281 5.73047 -0.960938 11.5342 -1.44629 17.3018c-5.44727 -17.3291 -11.9375 -34.2285 -20.4512 -50.1211c-40.3438 -75.3145 -129.436 -54.8633 -170.063 11.1777c-56.3281 91.5361 -16.4688 217.137 58.4521 285.438
c40.6367 37.0488 112.152 55.5869 158.667 27.3086c26.8135 52.5293 135.707 34.1924 132.356 -30.1455c-6.13379 -117.736 -37.8086 -233.871 -39.2461 -352.13c-0.0644531 -5.58398 -3.87305 -29.459 0.850586 -33.5049c18.2178 -15.6084 31.7207 11.4795 37.9551 21.4492
c15.4805 24.7451 27.876 51.7148 40.0146 78.2178c22.3916 48.8857 42.1201 98.9521 64.0723 148.039zM206.113 296.706c0.548828 2.7373 1.00488 5.49902 1.59082 8.22754c-38.0557 50.002 -96.3789 -96.9102 -103.016 -118.688
c-9.33789 -30.6309 -14.2354 -60.7402 -14.6562 -92.7354c-0.182617 -13.4111 -3.43262 -58.8174 7.24121 -68.6309c34.3301 -31.5557 73.8965 127.789 78.9131 147.215c10.6924 41.3877 20.1494 83.041 29.9268 124.612z" />
    <glyph glyph-name="b" unicode="b" horiz-adv-x="497" 
d="M377.209 327.734c36.5088 -63.459 50.2227 -135.057 47.7422 -208.027c-4.39453 -128.319 -50.6797 -302.394 -169.104 -371.465c-45.9287 -26.7861 -121.729 -37.4238 -159.628 8.81543c-36.9844 45.1133 -16.7715 120.354 2.89258 168.334
c43.7402 106.724 118.734 212.624 210.957 285.687c9.72168 85.3203 5.80371 162.118 -40.3623 155.353c-55.8242 -8.1748 -92.8359 -114.157 -109.049 -158.914c-15.8555 -43.7676 -27.2441 -88.9453 -37.5342 -134.334
c-1.75781 -31.6836 -7.25098 -62.5898 -23.3721 -87.8105c-10.958 -17.1465 -42.6787 -18.2539 -56.2275 -4.11035c-41.2959 43.0996 -44.9941 110.185 -51.4297 167.162c-7.20508 63.752 -8.65137 128.878 -7.92773 193.006
c1.4834 130.901 9.87793 261.381 24.5254 391.449c8.85254 78.6006 148.523 75.0488 144.239 -5.03516c-6.8291 -127.614 -19.7373 -254.826 -24.8184 -382.532c-1.40039 -35.1992 -2.19727 -70.3623 -2.86523 -105.534c4.69629 11.9189 9.62109 23.7471 15.1318 35.3643
c24.7178 52.126 61.3545 122.012 125.098 130.287c52.6025 6.8291 87.9941 -36.4258 111.731 -77.6943zM267.464 1.41113c5.61133 16.8809 20.7539 75.1035 32.3438 140.266c-63.6611 -63.0293 -115.082 -141.805 -147.435 -222.337
c-8.10156 -20.1768 -32.5352 -78.2441 -16.7344 -99.501c16.46 -22.1445 45.8916 17.7695 55.7422 30.6777c34.7139 45.4707 58.1309 96.8828 76.083 150.895z" />
    <glyph glyph-name="c" unicode="c" horiz-adv-x="369" 
d="M362.636 193.675c9.01758 15.4346 44.0146 3.87988 34.7041 -13.6787c-49.1963 -92.791 -110.184 -217.431 -205.053 -271.946c-110.349 -63.4141 -198.672 50.6611 -210.481 151.096c-13.6582 116.181 21.3486 262.471 131.496 323.596
c36.5635 20.2959 96.041 37.7539 129.666 3.37891c34.7139 -35.4922 28.1504 -108.582 20.8086 -152.46c-4.02832 -24.1035 -48.1074 -23.0869 -44.8848 1.56641c3.51562 26.8867 5.52051 54.2041 0.128906 81.1006c-1.08008 8.66895 -3.44238 16.9443 -7.08594 24.8076
c-1.93164 11.7451 -6.38086 10.9307 -13.3477 -2.43457c-20.7812 -16.5791 -31.2354 -55.9805 -39.0537 -80.3037c-22.5664 -70.2334 -38.7979 -138.188 -41.7002 -212.129c-1.0166 -25.9717 -12.0938 -80.8623 8.33008 -102.146
c35.6025 -37.1035 94.0635 39.6484 114.085 63.9355c46.9902 56.9961 85.1924 122.003 122.388 185.618z" />
    <glyph glyph-name="d" unicode="d" horiz-adv-x="422" 
d="M556.706 961.294c93.2939 -75.1768 40.5918 -246.897 7.88281 -338.517c-45.9102 -128.604 -119.824 -245.645 -214.116 -344.111c0.238281 -68.9521 2.11523 -137.84 5.85059 -206.719c4.1377 -76.2852 11.04 -155.921 0.942383 -231.949
c-2.45312 -18.5107 -26.2549 -23.5273 -39.3916 -12.1846c-65.9766 56.9961 -80.9629 148.725 -91.7285 230.805c-4.56836 34.833 -8.23047 69.8398 -11.0039 104.92c-10.4365 -45.6084 -19.4268 -93.459 -41.5439 -134.755
c-40.335 -75.3145 -129.437 -54.8633 -170.064 11.1777c-56.3193 91.5361 -16.46 217.146 58.4697 285.447c37.2686 33.9727 100.518 52.3828 146.629 33.3867c0.741211 149.586 6.63672 316.363 79.9561 449.251c41.8086 75.7725 168.791 233.286 268.118 153.248z
M176.188 172.099c11.3701 43.9971 21.3477 88.2949 31.8018 132.484c-38.0557 51.082 -96.6445 -96.499 -103.3 -118.333c-9.33789 -30.6309 -14.2354 -60.7402 -14.6562 -92.7354c-0.182617 -13.4111 -3.43262 -58.8174 7.24121 -68.6309
c34.3301 -31.5557 73.8965 127.789 78.9131 147.215zM350.664 341.933c80.9629 94.0449 143.507 202.354 182.377 320.96c22.667 69.1719 47.7783 158.438 21.3125 229.944c-10.8662 29.3584 -31.1709 57.1338 -70.124 45.3516
c-17.3936 -5.25488 -36.3252 -24.1045 -47.2188 -37.2598c-22.9326 -27.6836 -34.0098 -62.8008 -41.8828 -97.2402c-34.293 -149.988 -42.7793 -307.959 -44.4639 -461.756z" />
    <glyph glyph-name="e" unicode="e" horiz-adv-x="349" 
d="M341.343 173.022c9.09082 16.1484 45.1963 4.31934 36.0049 -14.1729c-53.2891 -107.228 -119.541 -238.632 -244.885 -271.533c-57.5918 -15.1143 -109.58 19.1875 -134.736 71.4326c-30.6309 63.6055 -22.1816 141.758 -7.3418 208.138
c14.1348 63.2305 41.5615 128.356 90.2822 172.985c41.0586 37.6162 113.654 65.4277 164.453 29.7158c40.417 -28.416 28.3789 -92.1865 4.9248 -128.347c-27.6836 -42.6875 -71.1309 -66.0498 -118.698 -76.7881c-9.67676 -35.3545 -16.5791 -71.5605 -21.376 -105.231
c-4.19238 -29.377 -11.2783 -77.4014 0.146484 -106.458c21.6689 -55.0918 89.2295 14.8398 111.154 38.4863c49.3066 53.1787 84.7441 118.973 120.071 181.772zM169.072 263.972c-8.20215 -15.6543 -15.4346 -32.4619 -21.8789 -49.9014
c27.29 10.5557 50.8721 28.123 61.1709 57.7109c4.62305 13.2832 11.2783 35.4463 -9.93262 29.8984c-11.7822 -3.08496 -24.251 -27.9492 -29.3594 -37.708z" />
    <glyph glyph-name="e" unicode="&#xeb;" horiz-adv-x="349" 
d="M341.343 173.022c9.09082 16.1484 45.1963 4.31934 36.0049 -14.1729c-53.2891 -107.228 -119.541 -238.632 -244.885 -271.533c-57.5918 -15.1143 -109.58 19.1875 -134.736 71.4326c-30.6309 63.6055 -22.1816 141.758 -7.3418 208.138
c14.1348 63.2305 41.5615 128.356 90.2822 172.985c41.0586 37.6162 113.654 65.4277 164.453 29.7158c40.417 -28.416 28.3789 -92.1865 4.9248 -128.347c-27.6836 -42.6875 -71.1309 -66.0498 -118.698 -76.7881c-9.67676 -35.3545 -16.5791 -71.5605 -21.376 -105.231
c-4.19238 -29.377 -11.2783 -77.4014 0.146484 -106.458c21.6689 -55.0918 89.2295 14.8398 111.154 38.4863c49.3066 53.1787 84.7441 118.973 120.071 181.772zM169.072 263.972c-8.20215 -15.6543 -15.4346 -32.4619 -21.8789 -49.9014
c27.29 10.5557 50.8721 28.123 61.1709 57.7109c4.62305 13.2832 11.2783 35.4463 -9.93262 29.8984c-11.7822 -3.08496 -24.251 -27.9492 -29.3594 -37.708z" />
    <glyph glyph-name="e" unicode="&#xea;" horiz-adv-x="349" 
d="M341.343 173.022c9.09082 16.1484 45.1963 4.31934 36.0049 -14.1729c-53.2891 -107.228 -119.541 -238.632 -244.885 -271.533c-57.5918 -15.1143 -109.58 19.1875 -134.736 71.4326c-30.6309 63.6055 -22.1816 141.758 -7.3418 208.138
c14.1348 63.2305 41.5615 128.356 90.2822 172.985c41.0586 37.6162 113.654 65.4277 164.453 29.7158c40.417 -28.416 28.3789 -92.1865 4.9248 -128.347c-27.6836 -42.6875 -71.1309 -66.0498 -118.698 -76.7881c-9.67676 -35.3545 -16.5791 -71.5605 -21.376 -105.231
c-4.19238 -29.377 -11.2783 -77.4014 0.146484 -106.458c21.6689 -55.0918 89.2295 14.8398 111.154 38.4863c49.3066 53.1787 84.7441 118.973 120.071 181.772zM169.072 263.972c-8.20215 -15.6543 -15.4346 -32.4619 -21.8789 -49.9014
c27.29 10.5557 50.8721 28.123 61.1709 57.7109c4.62305 13.2832 11.2783 35.4463 -9.93262 29.8984c-11.7822 -3.08496 -24.251 -27.9492 -29.3594 -37.708z" />
    <glyph glyph-name="e" unicode="&#xe9;" horiz-adv-x="349" 
d="M341.343 173.022c9.09082 16.1484 45.1963 4.31934 36.0049 -14.1729c-53.2891 -107.228 -119.541 -238.632 -244.885 -271.533c-57.5918 -15.1143 -109.58 19.1875 -134.736 71.4326c-30.6309 63.6055 -22.1816 141.758 -7.3418 208.138
c14.1348 63.2305 41.5615 128.356 90.2822 172.985c41.0586 37.6162 113.654 65.4277 164.453 29.7158c40.417 -28.416 28.3789 -92.1865 4.9248 -128.347c-27.6836 -42.6875 -71.1309 -66.0498 -118.698 -76.7881c-9.67676 -35.3545 -16.5791 -71.5605 -21.376 -105.231
c-4.19238 -29.377 -11.2783 -77.4014 0.146484 -106.458c21.6689 -55.0918 89.2295 14.8398 111.154 38.4863c49.3066 53.1787 84.7441 118.973 120.071 181.772zM169.072 263.972c-8.20215 -15.6543 -15.4346 -32.4619 -21.8789 -49.9014
c27.29 10.5557 50.8721 28.123 61.1709 57.7109c4.62305 13.2832 11.2783 35.4463 -9.93262 29.8984c-11.7822 -3.08496 -24.251 -27.9492 -29.3594 -37.708z" />
    <glyph glyph-name="f" unicode="f" horiz-adv-x="272" 
d="M326.125 961.294c93.2939 -75.1777 40.5918 -246.9 7.88281 -338.52c-45.9102 -128.604 -119.824 -245.653 -214.116 -344.11c0.0820312 -24.5254 0.337891 -49.041 0.859375 -73.5479c52.501 3.92773 104.984 8.21191 157.44 12.8535
c24.6533 2.17871 37.2412 -32.0225 9.98828 -34.4297c-55.4492 -4.89746 -110.935 -9.41992 -166.448 -13.5674c0.979492 -32.6816 2.24316 -65.3545 4.00977 -98.0273c4.1377 -76.2852 11.04 -155.921 0.942383 -231.949
c-2.46289 -18.5107 -26.2646 -23.5273 -39.4014 -12.1846c-65.9766 56.9961 -80.9629 148.725 -91.7285 230.805c-4.44043 33.8535 -8.00195 67.8623 -10.748 101.944c-7.54297 -0.475586 -15.0859 -0.99707 -22.6289 -1.46387
c-26.6582 -1.63867 -24.8457 33.6982 1.23535 35.2998c6.28906 0.393555 12.5781 0.833008 18.8672 1.22656c-3.01172 47.2832 -4.44922 94.6768 -4.32129 141.96c0.412109 154.85 3.25 331.268 80.0479 470.463c41.8086 75.7725 168.792 233.286 268.119 153.248z
M120.084 341.932c80.9629 94.0449 143.507 202.354 182.377 320.961c22.667 69.1719 47.7783 158.438 21.3125 229.943c-10.8662 29.3584 -31.1709 57.1338 -70.124 45.3516c-17.3936 -5.25488 -36.3252 -24.1045 -47.2188 -37.2598
c-22.9326 -27.6836 -34.0098 -62.8008 -41.8828 -97.2402c-34.293 -149.988 -42.7793 -307.959 -44.4639 -461.756z" />
    <glyph glyph-name="g" unicode="g" horiz-adv-x="431" 
d="M358.336 349.852c11.0957 -110.624 4.42969 -223.937 -2.0332 -334.688c-9.77734 -167.849 -15.2061 -486.94 -225.633 -537.547c-127.185 -30.585 -205.758 101.817 -182.651 213.338c28.7998 138.984 161.349 260.85 274.847 337.07
c-0.915039 51.082 -2.07812 102.174 -3.25 153.247c-0.329102 -1.31836 -0.695312 -2.62793 -1.01562 -3.94629c-11.9834 -49.6182 -20.3877 -103.071 -44.748 -148.551c-40.335 -75.3145 -129.437 -54.8633 -170.064 11.1777
c-56.3184 91.5361 -16.459 217.146 58.4707 285.447c39.3008 35.8311 107.484 54.3232 153.999 29.9268c-0.466797 79.6172 134.48 70.334 142.079 -5.47461zM176.451 172.101c11.3701 43.9971 21.3477 88.2949 31.8018 132.484
c-38.0557 51.082 -96.6445 -96.499 -103.3 -118.333c-9.33789 -30.6309 -14.2354 -60.7402 -14.6562 -92.7354c-0.182617 -13.4111 -3.43262 -58.8174 7.24121 -68.6309c34.3301 -31.5557 73.8965 127.789 78.9131 147.215zM222.791 -263.566
c2.14258 80.9541 1.97559 161.943 0.868164 242.934c-57.3076 -44.207 -109.58 -95.1797 -154.346 -152.029c-53.7188 -68.2109 -108.994 -166 -64.0723 -253.371c19.0693 -37.0664 58.2422 -66.1045 101.388 -60.502c50.8623 6.60059 77.9414 47.1826 93.9531 91.7656
c15.4531 43.0449 21.0098 85.8789 22.209 131.203z" />
    <glyph glyph-name="h" unicode="h" horiz-adv-x="480" 
d="M463.702 162c10.1064 21.7783 53.7393 11.7646 42.9365 -11.543c-40.6738 -87.6641 -58.498 -205.053 -129.373 -275.47c-60.7402 -60.3564 -149.072 -5.62109 -172.225 63.7432c-17.8604 53.5176 -8.66895 118.378 0.824219 172.802
c10.3809 59.541 24.5156 118.021 38.7871 176.609c3.08496 12.6699 12.8896 22.6572 -4.63184 14.1162c-11.1133 -5.41016 -18.043 -18.6113 -24.6064 -28.5527c-16.2314 -24.6162 -29.2031 -51.2197 -40.6826 -78.3262
c-19.9297 -47.082 -36.9844 -95.6475 -53.5449 -144.14c-2.98438 -23.8203 -9.06348 -46.5332 -21.4316 -65.8857c-10.958 -17.1465 -42.6787 -18.2539 -56.2275 -4.11035c-41.2959 43.0996 -44.9941 110.185 -51.4297 167.162
c-7.20508 63.752 -8.65137 128.878 -7.92773 193.006c1.4834 130.901 9.87793 261.381 24.5254 391.449c8.85254 78.6006 148.523 75.0488 144.239 -5.03516c-6.8291 -127.614 -19.7373 -254.826 -24.8184 -382.532c-2.06934 -52.0801 -2.85645 -104.097 -3.7998 -156.168
c2.30664 5.9873 4.64062 11.9561 7.06641 17.8975c16.5977 40.6279 37.1406 89.4033 69.5205 120.218c61.5 58.5156 132.063 -12.8076 151.178 -73.5479c17.458 -55.4854 14.9863 -115.769 7.81836 -172.729c-3.88184 -30.8965 -9.49316 -61.5273 -16.084 -91.9844
c-2.89258 -13.3291 -5.4834 -27.207 -9.37402 -40.2344c-3.14941 -10.5186 -11.2422 -22.3828 -12.2949 -33.3594c-4.29395 -44.9219 30.127 -5.1543 42.6504 14.0703c16.9082 25.9805 29.3311 54.8994 40.6914 83.6357c19.627 49.627 35.7207 100.435 58.2139 148.908z" />
    <glyph glyph-name="i" unicode="i" horiz-adv-x="291" 
d="M281.687 182.974c7.74512 18.6299 44.168 10.5439 36.0938 -9.70605c-28.0498 -70.3799 -55.916 -141.776 -94.3926 -207.286c-28.3242 -48.2266 -59.1475 -83.6094 -118.203 -74.5918c-150.729 23.0146 -123.54 272.632 -110.586 380.161
c10.2441 85.0547 165.121 78.958 154.96 -5.41016c-6.72852 -55.8428 -12.9082 -111.914 -15.9199 -168.087c-2.59082 -48.208 -11.1777 -104.526 -1.14453 -152.194c2.88379 -13.6768 -4.11914 -21.2656 14.3271 -14.6377c8.94434 3.22266 19.4629 20.5068 25.2764 28.2607
c18.4004 24.5527 32.5898 52.9414 46.248 80.2402c23.3809 46.6973 43.3105 95.0518 63.3408 143.251zM59.5938 378.109c-29.3408 19.3623 -76.1865 96.0771 -35.5947 124.987c23.2803 16.5693 40.1709 5.68457 51.7236 -14.208
c11.3428 15.5449 29.3867 31.7119 49.2617 26.6309c56.7578 -14.5098 -14.208 -109.745 -32.4893 -130.938c-3.38672 -3.92773 -7.92773 -6.05176 -12.7617 -6.89355c-6.41699 -3.00293 -14.0889 -3.57031 -20.1396 0.420898z" />
    <glyph glyph-name="i" unicode="&#xef;" horiz-adv-x="291" 
d="M281.687 182.974c7.74512 18.6299 44.168 10.5439 36.0938 -9.70605c-28.0498 -70.3799 -55.916 -141.776 -94.3926 -207.286c-28.3242 -48.2266 -59.1475 -83.6094 -118.203 -74.5918c-150.729 23.0146 -123.54 272.632 -110.586 380.161
c10.2441 85.0547 165.121 78.958 154.96 -5.41016c-6.72852 -55.8428 -12.9082 -111.914 -15.9199 -168.087c-2.59082 -48.208 -11.1777 -104.526 -1.14453 -152.194c2.88379 -13.6768 -4.11914 -21.2656 14.3271 -14.6377c8.94434 3.22266 19.4629 20.5068 25.2764 28.2607
c18.4004 24.5527 32.5898 52.9414 46.248 80.2402c23.3809 46.6973 43.3105 95.0518 63.3408 143.251zM59.5938 378.109c-29.3408 19.3623 -76.1865 96.0771 -35.5947 124.987c23.2803 16.5693 40.1709 5.68457 51.7236 -14.208
c11.3428 15.5449 29.3867 31.7119 49.2617 26.6309c56.7578 -14.5098 -14.208 -109.745 -32.4893 -130.938c-3.38672 -3.92773 -7.92773 -6.05176 -12.7617 -6.89355c-6.41699 -3.00293 -14.0889 -3.57031 -20.1396 0.420898z" />
    <glyph glyph-name="i" unicode="&#xee;" horiz-adv-x="291" 
d="M281.687 182.974c7.74512 18.6299 44.168 10.5439 36.0938 -9.70605c-28.0498 -70.3799 -55.916 -141.776 -94.3926 -207.286c-28.3242 -48.2266 -59.1475 -83.6094 -118.203 -74.5918c-150.729 23.0146 -123.54 272.632 -110.586 380.161
c10.2441 85.0547 165.121 78.958 154.96 -5.41016c-6.72852 -55.8428 -12.9082 -111.914 -15.9199 -168.087c-2.59082 -48.208 -11.1777 -104.526 -1.14453 -152.194c2.88379 -13.6768 -4.11914 -21.2656 14.3271 -14.6377c8.94434 3.22266 19.4629 20.5068 25.2764 28.2607
c18.4004 24.5527 32.5898 52.9414 46.248 80.2402c23.3809 46.6973 43.3105 95.0518 63.3408 143.251zM59.5938 378.109c-29.3408 19.3623 -76.1865 96.0771 -35.5947 124.987c23.2803 16.5693 40.1709 5.68457 51.7236 -14.208
c11.3428 15.5449 29.3867 31.7119 49.2617 26.6309c56.7578 -14.5098 -14.208 -109.745 -32.4893 -130.938c-3.38672 -3.92773 -7.92773 -6.05176 -12.7617 -6.89355c-6.41699 -3.00293 -14.0889 -3.57031 -20.1396 0.420898z" />
    <glyph glyph-name="i" unicode="&#xed;" horiz-adv-x="291" 
d="M281.687 182.974c7.74512 18.6299 44.168 10.5439 36.0938 -9.70605c-28.0498 -70.3799 -55.916 -141.776 -94.3926 -207.286c-28.3242 -48.2266 -59.1475 -83.6094 -118.203 -74.5918c-150.729 23.0146 -123.54 272.632 -110.586 380.161
c10.2441 85.0547 165.121 78.958 154.96 -5.41016c-6.72852 -55.8428 -12.9082 -111.914 -15.9199 -168.087c-2.59082 -48.208 -11.1777 -104.526 -1.14453 -152.194c2.88379 -13.6768 -4.11914 -21.2656 14.3271 -14.6377c8.94434 3.22266 19.4629 20.5068 25.2764 28.2607
c18.4004 24.5527 32.5898 52.9414 46.248 80.2402c23.3809 46.6973 43.3105 95.0518 63.3408 143.251zM59.5938 378.109c-29.3408 19.3623 -76.1865 96.0771 -35.5947 124.987c23.2803 16.5693 40.1709 5.68457 51.7236 -14.208
c11.3428 15.5449 29.3867 31.7119 49.2617 26.6309c56.7578 -14.5098 -14.208 -109.745 -32.4893 -130.938c-3.38672 -3.92773 -7.92773 -6.05176 -12.7617 -6.89355c-6.41699 -3.00293 -14.0889 -3.57031 -20.1396 0.420898z" />
    <glyph glyph-name="j" unicode="j" horiz-adv-x="202" 
d="M128.327 349.852c11.0859 -110.624 4.43262 -223.938 -2.02148 -334.681c-9.77734 -167.849 -15.2061 -486.94 -225.633 -537.547c-127.185 -30.585 -205.758 101.817 -182.651 213.338c28.7998 138.984 161.349 260.85 274.847 337.07
c-1.95898 108.958 -5.18164 217.906 -6.6377 326.781c-1.07129 80.1846 134.48 71.0117 142.097 -4.96191zM-7.21289 -263.566c2.14258 80.9541 1.97559 161.943 0.868164 242.934c-57.3076 -44.207 -109.58 -95.1797 -154.346 -152.029
c-53.7188 -68.2109 -108.994 -166 -64.0723 -253.371c19.0693 -37.0664 58.2422 -66.1045 101.388 -60.502c50.8623 6.60059 77.9414 47.1826 93.9531 91.7656c15.4531 43.0449 21.0098 85.8789 22.209 131.203zM32.6621 451.349
c-29.3408 19.3623 -76.1855 96.0771 -35.6035 124.987c23.2803 16.5693 40.1709 5.68457 51.7236 -14.208c11.3428 15.5449 29.3867 31.7119 49.2617 26.6309c56.7578 -14.5098 -14.208 -109.745 -32.4893 -130.938c-3.37793 -3.92773 -7.91895 -6.05176 -12.7529 -6.89355
c-6.41699 -3.00293 -14.0889 -3.57031 -20.1396 0.420898z" />
    <glyph glyph-name="k" unicode="k" horiz-adv-x="530" 
d="M515.9 167.219c6.83887 22.3008 48.9287 12.8555 41.5684 -11.1475c-33.002 -107.64 -86.501 -265.309 -228.067 -205.429c-63.8535 27.0059 -96.1416 89.9805 -115.266 153.458c-10.3721 34.4121 -19.3525 70.0596 -26.8135 105.177
c-1.11719 5.24512 -2.69141 10.9023 -4.36621 16.7617c-24.8916 -57.6279 -44.5918 -118.213 -62.2139 -178.367c-3.13086 -22.5205 -9.2373 -43.9238 -20.9922 -62.2969c-10.958 -17.1465 -42.6787 -18.2539 -56.2275 -4.11035
c-41.2959 43.0996 -44.9941 110.185 -51.4297 167.162c-7.20508 63.752 -8.65137 128.878 -7.92773 193.006c1.4834 130.901 9.87793 261.381 24.5254 391.449c8.85254 78.6006 148.523 75.0488 144.239 -5.03516c-6.8291 -127.614 -19.7373 -254.826 -24.8184 -382.532
c-2.04102 -51.458 -2.82812 -102.843 -3.76172 -154.282c11.251 30.2744 23.6826 60.0361 37.9639 88.7627c2.13281 4.30273 4.37598 8.71484 6.67383 13.1641c0.631836 3.25879 2.20605 6.33496 4.66895 8.90723c25.4775 47.6953 60.6855 99.1807 113.782 113.27
c50.167 13.3105 83.1504 -25.2393 55.3848 -71.0029c-17.9707 -29.6152 -47.293 -51.0098 -80.0664 -62.9473c45.5352 -34.6318 64.2383 -91.418 80.9092 -143.901c9.39258 -29.5693 24.8916 -163.556 71.7451 -156.965c31.6201 4.44043 59.1846 71.4609 69.5479 96.2607
c12.3125 29.4775 21.5947 60.1357 30.9414 90.6387zM245.426 338.887c-6.80176 -8.50488 -13.0264 -17.5869 -18.8857 -26.915c12.8809 2.66406 25.3125 7.0127 37.4238 13.9062c10.6924 6.0791 20.3232 12.9355 29.3223 21.4219
c7.14941 6.74707 23.417 28.6904 2.92871 33.6709c-14.4092 3.50586 -43.5752 -33.0664 -50.7891 -42.084z" />
    <glyph glyph-name="l" unicode="l" horiz-adv-x="361" 
d="M353.323 181.225c6.38086 18.8398 41.6094 10.9668 35.4209 -9.53027c-26.2373 -86.8037 -64.7227 -172.93 -119.348 -245.91c-38.8701 -51.9248 -113.873 -89.6689 -172.838 -44.2441c-62.7549 48.3457 -90.127 126.772 -100.097 202.371
c-12.1758 92.2412 -14.1533 184.784 -8.27637 277.611c9.9873 157.669 37.5518 360.287 168.993 466.489c45.791 37.0029 115.896 50.9541 145.026 -11.9648c31.9307 -68.9609 19.1143 -146.015 5.64746 -217.869c-30.3203 -161.743 -96.8652 -313.755 -174.267 -458.104
c0.65918 -33.1943 2.19727 -66.3154 4.71484 -99.2715c3.00293 -39.3369 4.43066 -85.0547 21.4678 -121.344c20.8818 -44.4727 64.5762 12.4414 81.8965 36.8379c48.6016 68.4766 84.7988 145.595 111.658 224.928zM167.689 536.119
c-18.4277 -95.8848 -29.6729 -194.068 -33.2158 -292.352c55.3574 116.373 102.705 236.829 125.326 364.123c6.17969 34.7871 12.2861 70.9844 11.1514 106.422c-0.255859 7.87305 -4.79688 71.6436 -14.2988 73.584c-7.28711 1.4834 -20.2773 -23.3711 -23.6641 -29.4863
c-36.1699 -65.3359 -51.3203 -149.567 -65.2988 -222.291z" />
    <glyph glyph-name="m" unicode="m" horiz-adv-x="721" 
d="M705.399 173.205c10.5918 21.0283 53.5547 11.1025 42.2393 -11.3809c-40.6367 -80.7344 -56.6484 -200.055 -127.001 -262.095c-55.7969 -49.2061 -149.687 4.60449 -172.49 65.1982c-38.8428 103.218 9.11816 230.53 26.4023 333.729
c3.14941 18.7764 0.90625 27.1982 -19.1426 12.4688c-10.0703 -7.39648 -19.0781 -27.1982 -24.9648 -37.9912c-15.2695 -28.0127 -26.0264 -58.3145 -36.1055 -88.5244c-13.4209 -40.2256 -24.3418 -81.2197 -35.7207 -122.067
c-0.814453 -8.89844 -1.84863 -17.6045 -3.14844 -25.999c-11.9746 -77.374 -135.689 -73.6113 -141.384 4.93457c-4.00977 55.2939 5.11719 110.972 12.9814 165.634c3.55176 24.7178 7.3877 49.2061 11.2783 73.8506c3.56152 22.584 -2.43457 56.2363 -25.4854 24.7451
c-52.8311 -72.1836 -69.7305 -176.939 -82.9043 -267.268c0.741211 -7.0127 1.33594 -14.0156 2.26074 -21.0371c6.29883 -47.9609 -55.7969 -72.5498 -89.7881 -40.0879c-44.1338 42.1572 -50.3594 106.267 -54.6621 164.407
c-4.78809 64.7871 -3.50684 129.721 5.08008 194.086c9.87793 74.0605 140.156 71.8906 137.09 -4.78809c-1.47363 -36.8926 -3.29492 -73.5752 -4.48535 -110.185c1.33691 4.30273 2.58203 8.6416 4.00098 12.917c14.2168 42.8613 40.5635 119.329 92.4062 129.519
c52.7666 10.3633 92.8818 -49.2881 110.01 -90.8496c8.12891 -19.7285 14.4092 -41.626 19.041 -64.5029c32.0771 98.6865 83.8096 189.701 165.44 146.94c71.7627 -37.5977 79.3887 -123.761 78.0342 -196.961c-1.35449 -73.3008 -0.182617 -160.471 -25.2383 -230.896
c25.5684 -12.7061 74.2432 96.0137 80.9531 112.775c17.9336 44.793 33.5693 90.2549 55.3027 133.428z" />
    <glyph glyph-name="n" unicode="n" horiz-adv-x="486" 
d="M472.69 181.49c11.9922 21.165 52.3252 3.34473 38.6943 -20.7041c-30.1182 -53.1514 -49.7002 -110.89 -74.8936 -166.33c-17.668 -38.8701 -38.4492 -87.4346 -73.9688 -113.122c-14.043 -10.1523 -29.8623 -16.002 -47.3379 -15.791
c-6.86621 0.0820312 -13.5762 0.823242 -20.2041 2.9375c-2.28906 0.732422 -22.2461 12.3682 -10.666 7.64453c-24.7354 10.0879 -39.1816 10.3721 -54.2139 35.3096c-12.1846 20.2129 -16.4502 43.7031 -17.1182 66.9834c-1.75781 60.9971 12.7061 122.534 22.749 182.396
c4.99805 29.8164 10.8936 59.4219 17.9062 88.8076c2.84668 11.9561 5.8125 23.4629 7.10352 35.7666c2.19727 21.0459 -3.47852 22.6572 -21.4854 8.67773c-39.0439 -30.3018 -58.3047 -104.344 -74.5996 -148.789c-19.6182 -53.5264 -36.4443 -108.115 -53.0596 -162.631
c-0.521484 -1.7207 -1.3457 -3.16699 -2.28906 -4.47656c-0.988281 -3.60645 -2.06836 -7.19531 -3.26758 -10.7568c-10.5371 -31.2539 -57.9121 -29.249 -74.6191 -5.56641c-35.8584 50.8174 -41.4795 118.442 -45.3242 179.063
c-4.00098 62.9102 -4.1748 131.798 17.0547 191.788c21.0371 59.4404 117.489 41.2598 122.223 -18.2354c4.44043 -55.7334 -4.23828 -113.041 -6.33496 -169.095c12.8438 38.2842 27.4365 75.8818 45.3154 111.822c25.5322 51.3115 64.9609 109.965 128.457 85.2197
c82.7295 -32.2334 92.7266 -135.771 89.1016 -212.908c-2.3252 -49.5166 -9.43848 -98.7314 -21.0918 -146.875c-3.89941 -16.1484 -7.51562 -36.8467 -14.043 -55.6504c8.86133 11.8281 18.6387 25.5693 20.1953 28.1963c7.04883 11.9189 13.292 24.3877 19.334 36.8467
c10.2344 21.0918 19.0869 42.8613 28.0312 64.5215c17.6318 42.6787 35.5654 84.7344 58.3516 124.95z" />
    <glyph glyph-name="o" unicode="o" horiz-adv-x="338" 
d="M338.381 203.488c21.5869 10.2988 44.2715 -18.3623 20.1494 -31.2148c-30.585 -16.3047 -71.1123 -26.7314 -112.921 -29.002c-0.475586 -3.04883 -0.942383 -6.10645 -1.45508 -9.10938c-10.1611 -59.8438 -31.8027 -126.782 -87.957 -158.942
c-47.9883 -27.4824 -105.8 -32.7188 -143.654 14.1709c-45.2051 55.998 -37.3594 148.423 -24.7627 214.079c5.58398 29.1025 32.4248 45.2051 59.6963 47.8232c-29.2217 108.948 117.636 190.644 177.744 81.3564c24.6074 -44.7295 28.9746 -99.3916 24.8916 -151.087
c32.7646 2.44434 64.3936 10.5371 88.2686 21.9258zM135.955 12.8096c39.0811 18.6299 57.2715 77.4941 65.2266 131.24c-33.5605 3.08496 -65.959 12.0107 -92.6904 28.1133c-3.18555 -28.6992 -6.70117 -57.3711 -7.24121 -86.2812
c-0.420898 -22.4199 -4.86133 -91.9307 34.7051 -73.0723zM205.347 182.077c0.998047 13.5117 1.41016 25.7686 1.4375 35.7744c0.155273 34.9062 -11.9473 168.489 -86.7764 123.477c-36.042 -21.6777 -38.5225 -73.4463 -17.8145 -105.743
c21.3848 -33.3496 60.7129 -49.2236 103.153 -53.5078z" />
    <glyph glyph-name="o" unicode="&#xf6;" horiz-adv-x="338" 
d="M338.381 203.488c21.5869 10.2988 44.2715 -18.3623 20.1494 -31.2148c-30.585 -16.3047 -71.1123 -26.7314 -112.921 -29.002c-0.475586 -3.04883 -0.942383 -6.10645 -1.45508 -9.10938c-10.1611 -59.8438 -31.8027 -126.782 -87.957 -158.942
c-47.9883 -27.4824 -105.8 -32.7188 -143.654 14.1709c-45.2051 55.998 -37.3594 148.423 -24.7627 214.079c5.58398 29.1025 32.4248 45.2051 59.6963 47.8232c-29.2217 108.948 117.636 190.644 177.744 81.3564c24.6074 -44.7295 28.9746 -99.3916 24.8916 -151.087
c32.7646 2.44434 64.3936 10.5371 88.2686 21.9258zM135.955 12.8096c39.0811 18.6299 57.2715 77.4941 65.2266 131.24c-33.5605 3.08496 -65.959 12.0107 -92.6904 28.1133c-3.18555 -28.6992 -6.70117 -57.3711 -7.24121 -86.2812
c-0.420898 -22.4199 -4.86133 -91.9307 34.7051 -73.0723zM205.347 182.077c0.998047 13.5117 1.41016 25.7686 1.4375 35.7744c0.155273 34.9062 -11.9473 168.489 -86.7764 123.477c-36.042 -21.6777 -38.5225 -73.4463 -17.8145 -105.743
c21.3848 -33.3496 60.7129 -49.2236 103.153 -53.5078z" />
    <glyph glyph-name="o" unicode="&#xf5;" horiz-adv-x="338" 
d="M338.381 203.488c21.5869 10.2988 44.2715 -18.3623 20.1494 -31.2148c-30.585 -16.3047 -71.1123 -26.7314 -112.921 -29.002c-0.475586 -3.04883 -0.942383 -6.10645 -1.45508 -9.10938c-10.1611 -59.8438 -31.8027 -126.782 -87.957 -158.942
c-47.9883 -27.4824 -105.8 -32.7188 -143.654 14.1709c-45.2051 55.998 -37.3594 148.423 -24.7627 214.079c5.58398 29.1025 32.4248 45.2051 59.6963 47.8232c-29.2217 108.948 117.636 190.644 177.744 81.3564c24.6074 -44.7295 28.9746 -99.3916 24.8916 -151.087
c32.7646 2.44434 64.3936 10.5371 88.2686 21.9258zM135.955 12.8096c39.0811 18.6299 57.2715 77.4941 65.2266 131.24c-33.5605 3.08496 -65.959 12.0107 -92.6904 28.1133c-3.18555 -28.6992 -6.70117 -57.3711 -7.24121 -86.2812
c-0.420898 -22.4199 -4.86133 -91.9307 34.7051 -73.0723zM205.347 182.077c0.998047 13.5117 1.41016 25.7686 1.4375 35.7744c0.155273 34.9062 -11.9473 168.489 -86.7764 123.477c-36.042 -21.6777 -38.5225 -73.4463 -17.8145 -105.743
c21.3848 -33.3496 60.7129 -49.2236 103.153 -53.5078z" />
    <glyph glyph-name="o" unicode="&#xf4;" horiz-adv-x="338" 
d="M338.381 203.488c21.5869 10.2988 44.2715 -18.3623 20.1494 -31.2148c-30.585 -16.3047 -71.1123 -26.7314 -112.921 -29.002c-0.475586 -3.04883 -0.942383 -6.10645 -1.45508 -9.10938c-10.1611 -59.8438 -31.8027 -126.782 -87.957 -158.942
c-47.9883 -27.4824 -105.8 -32.7188 -143.654 14.1709c-45.2051 55.998 -37.3594 148.423 -24.7627 214.079c5.58398 29.1025 32.4248 45.2051 59.6963 47.8232c-29.2217 108.948 117.636 190.644 177.744 81.3564c24.6074 -44.7295 28.9746 -99.3916 24.8916 -151.087
c32.7646 2.44434 64.3936 10.5371 88.2686 21.9258zM135.955 12.8096c39.0811 18.6299 57.2715 77.4941 65.2266 131.24c-33.5605 3.08496 -65.959 12.0107 -92.6904 28.1133c-3.18555 -28.6992 -6.70117 -57.3711 -7.24121 -86.2812
c-0.420898 -22.4199 -4.86133 -91.9307 34.7051 -73.0723zM205.347 182.077c0.998047 13.5117 1.41016 25.7686 1.4375 35.7744c0.155273 34.9062 -11.9473 168.489 -86.7764 123.477c-36.042 -21.6777 -38.5225 -73.4463 -17.8145 -105.743
c21.3848 -33.3496 60.7129 -49.2236 103.153 -53.5078z" />
    <glyph glyph-name="o" unicode="&#xf3;" horiz-adv-x="338" 
d="M338.381 203.488c21.5869 10.2988 44.2715 -18.3623 20.1494 -31.2148c-30.585 -16.3047 -71.1123 -26.7314 -112.921 -29.002c-0.475586 -3.04883 -0.942383 -6.10645 -1.45508 -9.10938c-10.1611 -59.8438 -31.8027 -126.782 -87.957 -158.942
c-47.9883 -27.4824 -105.8 -32.7188 -143.654 14.1709c-45.2051 55.998 -37.3594 148.423 -24.7627 214.079c5.58398 29.1025 32.4248 45.2051 59.6963 47.8232c-29.2217 108.948 117.636 190.644 177.744 81.3564c24.6074 -44.7295 28.9746 -99.3916 24.8916 -151.087
c32.7646 2.44434 64.3936 10.5371 88.2686 21.9258zM135.955 12.8096c39.0811 18.6299 57.2715 77.4941 65.2266 131.24c-33.5605 3.08496 -65.959 12.0107 -92.6904 28.1133c-3.18555 -28.6992 -6.70117 -57.3711 -7.24121 -86.2812
c-0.420898 -22.4199 -4.86133 -91.9307 34.7051 -73.0723zM205.347 182.077c0.998047 13.5117 1.41016 25.7686 1.4375 35.7744c0.155273 34.9062 -11.9473 168.489 -86.7764 123.477c-36.042 -21.6777 -38.5225 -73.4463 -17.8145 -105.743
c21.3848 -33.3496 60.7129 -49.2236 103.153 -53.5078z" />
    <glyph glyph-name="p" unicode="p" horiz-adv-x="568" 
d="M567.134 182.122c21.5225 11.5068 44.8662 -18.5498 20.4785 -31.7412c-47.4756 -25.7334 -98.2471 -42.3125 -149.421 -57.665c-6.15234 -65.9951 -33.8086 -129.5 -82.7764 -167.784c-43.6494 -34.1279 -127.13 -52.9131 -166.403 -1.95898
c-13.2744 17.2197 -20.0576 36.4717 -20.0117 55.4951c-26.2373 -93.6514 -45.7275 -189.316 -58.7637 -285.622c0.357422 -10.1611 0.916016 -20.2861 1.96875 -30.292c4.07422 -38.9248 -63.4131 -42.9707 -79.0762 -15.1045
c-55.2754 98.3379 -50.332 234.146 -49.7832 343.817c0.613281 121.325 -1.33691 257.582 39.3281 373.058c19.5908 55.6318 110.285 38.7236 114.533 -17.0918c8.80664 -115.613 -17.2285 -235.73 -21.9893 -351.755
c-0.65918 -15.9199 -1.18066 -31.8486 -1.62891 -47.7959c18.2363 75.4521 41.4434 149.678 70.2617 221.853c19.6641 49.2334 45.9189 119.971 94.3467 148.029c41.2783 23.9121 78.5645 -1.91309 106.175 -33.3223c35.0713 -39.8955 53.2891 -96.3789 55.0098 -154.218
c43.7773 14.1162 86.749 30.1914 127.752 52.0986zM273.455 31.6738c1.3916 2.26074 2.60938 4.63184 3.95508 6.9209c-6.80176 -3.00293 -13.5488 -6.15234 -20.2412 -9.45703c-16.918 -8.3584 -39.209 -25.3398 -42.7246 -43.9873
c-8.87109 -7.69922 -7.81836 -8.90723 3.14844 -3.63379c4.44922 1.40039 8.88965 2.81055 13.3389 4.21094c18.373 9.26465 31.8398 28.6445 42.5234 45.9463zM325.608 184.977c3.42383 20.7627 15.8271 68.2559 2.03125 87.041
c-27.4453 37.332 -67.0391 -45.4072 -75.415 -61.8213c-26.6582 -52.2637 -45.5439 -108.912 -63.3037 -164.69c-2.66406 -8.34863 -5.12695 -16.7617 -7.68066 -25.1562c3.21289 5.18164 6.99414 10.2168 11.5166 14.9863c26.667 28.1777 68.1924 42.7979 108.454 54.2139
c11.4619 30.9512 19.124 63.5137 24.3975 95.4268z" />
    <glyph glyph-name="q" unicode="q" horiz-adv-x="477" 
d="M503.537 198.902c-29.2393 -39.584 -60.7783 -77.0654 -92.2793 -114.883c-26.292 -31.5557 -59.8525 -63.6152 -81.2373 -99.8945c43.0537 -18.0342 78.0146 -41.9092 101.111 -86.5469c24.8359 -47.9971 35.0801 -103.84 31.4004 -157.613
c-5.76758 -84.3955 -61.0156 -214.692 -165.424 -147.471c-106.522 68.5771 -114.312 233.918 -116.784 346.244c-0.768555 35.1172 -0.613281 70.0605 0.476562 104.894c-2.26074 -5.0166 -4.59473 -10.0059 -7.19434 -14.8574
c-40.3438 -75.3145 -129.445 -54.8633 -170.073 11.1777c-56.3184 91.5361 -16.459 217.146 58.4707 285.447c40.8018 37.1953 112.729 55.7148 159.226 26.9512c29.002 50.9639 147.453 30.8145 137.347 -34.6221c-13.2832 -85.9609 -23.9756 -174.403 -30.1094 -263.074
c10.7471 12.4863 21.7236 24.7539 32.123 37.1768c35.5381 42.4678 70.5723 85.1279 108.49 125.509c14.0615 14.9766 49.6357 2.11426 34.457 -18.4375zM176.205 172.095c11.3701 43.9971 21.3486 88.2949 31.8027 132.484
c-38.0645 51.082 -96.6445 -96.499 -103.3 -118.333c-9.33789 -30.6309 -14.2354 -60.7402 -14.6562 -92.7354c-0.182617 -13.4111 -3.43262 -58.8174 7.24121 -68.6309c34.3389 -31.5557 73.8955 127.789 78.9121 147.215zM401.811 -150.87
c-15.4434 45.9561 -40.4346 73.7588 -78.4717 93.3682c-1.05273 -48.8125 -0.503906 -97.4229 2.0957 -145.43c2.14258 -39.5293 7.07715 -78.6836 19.2988 -116.455c6.11523 -18.8955 14.7109 -61.9766 44.042 -34.4209c14.7842 13.8779 20.9727 54.3135 23.8193 72.6963
c6.72852 43.4014 3.22266 88.5879 -10.7842 130.241z" />
    <glyph glyph-name="r" unicode="r" horiz-adv-x="431" 
d="M420.674 188.805c8.63281 18.7666 43.9082 12.0801 37.4814 -10.0742c-26.0996 -89.8799 -61.1895 -178.148 -92.6807 -266.325c-18.4375 -51.6318 -41.9551 -125.976 -101.588 -142.151c-79.8281 -21.6602 -106.12 80.2305 -112.94 138.344
c-9.86816 84.1025 -5.69336 169.881 9.18262 253.188c-30.21 -12.7432 -63.4414 -21.6602 -93.6426 -15.5996c-44.043 8.84375 -76.002 38.9258 -94.5029 78.8672c-39.9873 86.3184 -11.6445 193.866 68.7598 245.837c75.9922 49.1143 162.42 22.6211 153.274 -76.2852
c-6.13379 -66.3613 -37.8818 -141.429 -90.4014 -188.3c1.32715 -1.69336 2.72754 -3.26758 4.25586 -4.63184c20.7715 -18.5566 51.0635 -0.623047 72.6865 8.88867c2.49902 1.09863 4.99805 1.65723 7.44238 1.80371c41.2598 22.0811 117.472 -0.136719 111.677 -52.3086
c-7.25 -65.2441 -15.8828 -130.067 -20.542 -195.604c-2.99316 -42.0742 -12.6328 -95.5645 -4.97949 -140.064c20.8906 21.2939 34.4668 65.1172 41.8086 84.543c11.1406 29.4873 21.1924 59.4043 31.8574 89.0654c22.9775 63.9355 44.4727 129.062 72.8516 190.809z
M84.7686 260.453c23.2803 22.4375 39.2471 50.4229 49.5918 88.2949c5.46484 20.0215 21.3301 75.1133 -0.521484 88.9004c-17.9434 11.3242 -31.126 -35.7939 -36.207 -51.4209c-13.3203 -40.9297 -21.1387 -83.1689 -12.8633 -125.774z" />
    <glyph glyph-name="s" unicode="s" horiz-adv-x="333" 
d="M336.579 210.556c26.4385 4.90723 39.3818 -31.4766 10.6641 -36.7949c-45.9375 -8.48633 -92.8457 -28.8643 -136.211 -57.0146c26.1182 -36.499 47.1924 -76.5869 58.1777 -120.062c15.6729 -62.0312 14.1719 -139.827 -25.4395 -193.646
c-29.3682 -39.8955 -90.0625 -71.2686 -139.809 -68.0732c-48.7666 3.13086 -94.6768 36.1514 -111.888 82.0244c-20.7627 55.3301 2.28809 115.32 31.1064 162.979c17.0273 28.1689 37.79 55.5781 61.3359 81.2021c-20.46 26.1729 -42.4492 51.1924 -63.2939 77.75
c-34.2656 43.667 -62.2783 108.848 -35.6113 162.631c39.7578 80.1846 147.132 114.057 203.085 30.082c15.6729 -23.5176 -26.6943 -38.2471 -40.6826 -18.2354c-15.499 22.1816 -50.9824 41.3057 -74.0244 15.9297c-20.6982 -22.7861 -3.32324 -53.9482 10.418 -74.2344
c19.6826 -29.0566 50.6523 -50.625 74.6826 -75.9648c9.48438 -9.99707 18.7578 -20.3779 27.7021 -31.0977c46.6699 30.4385 97.6885 52.8584 149.787 62.5254zM167.832 -195.562c24.3516 50.7715 -11.0518 135.938 -33.9844 181.427
c-7.46973 14.8213 -15.9287 28.7725 -25.0098 42.1836c-27.8203 -31.9678 -50.5781 -66.8379 -65.582 -102.403c-15.123 -35.8584 -23.0693 -78.29 -1.13477 -113.361c25.1113 -40.1338 99.7666 -61.9678 125.711 -7.8457z" />
    <glyph glyph-name="t" unicode="t" horiz-adv-x="361" 
d="M1035.24 749.402c16.9541 15.9932 49.4824 -8.28418 29.3516 -26.4561c-74.5273 -67.1943 -172.463 -92.6895 -269.501 -106.998c-119.357 -17.5947 -240.354 -22.8037 -360.855 -24.6074c-42.6055 -0.631836 -85.2295 -0.805664 -127.844 -0.924805
c-30.9697 -158.841 -96.5254 -308.316 -172.691 -450.35c0.667969 -33.1943 2.19727 -66.3154 4.71484 -99.2715c3.00293 -39.3369 4.42188 -85.0547 21.4678 -121.344c20.8818 -44.4727 64.5762 12.4414 81.8965 36.8379c48.6016 68.4766 84.7988 145.595 111.658 224.928
c6.38086 18.8496 41.5986 10.9678 35.4102 -9.51074c-26.2461 -86.8037 -64.7227 -172.93 -119.348 -245.91c-38.8701 -51.9248 -113.873 -89.6689 -172.838 -44.2441c-62.7549 48.3457 -90.127 126.772 -100.097 202.371
c-12.1758 92.2412 -14.1533 184.784 -8.27637 277.611c4.44922 70.1787 12.4043 149.237 31.418 224.753c-56.0264 -2.20605 -112.062 -5.59277 -167.693 -12.5596c-50.6338 -6.34375 -154.501 -9.62988 -176.984 -65.6562
c-7.92773 -19.7373 -45.1963 -11.8555 -38.1475 10.2529c12.6885 39.8223 48.6748 55.7324 86.3643 66.3789c57.1885 16.1582 117.407 21.9531 176.427 26.6309c42.9805 3.40527 85.9883 5.73047 129.006 7.44238c24.6719 81.8145 64.1191 157.138 128.604 209.245
c45.791 37.0029 115.896 50.9541 145.026 -11.9648c28.2236 -60.9512 21.4766 -128.219 10.2344 -192.64c131.24 0.594727 262.745 1.74805 393.381 15.5078c115.457 12.1572 241.277 27.3994 329.316 110.478zM134.554 243.77
c52.7939 110.98 98.2012 225.716 121.911 346.52c-26.0635 -0.0732422 -52.1172 -0.210938 -78.1709 -0.430664c-3.74414 -18.2812 -7.17676 -36.3525 -10.5186 -53.7373c-18.4277 -95.876 -29.6602 -194.059 -33.2217 -292.352zM262.545 623.163
c5.13574 30.0449 9.45508 60.8682 8.49414 91.1514c-0.255859 7.87305 -4.80566 71.6436 -14.2988 73.584c-7.28711 1.4834 -20.2773 -23.3711 -23.6641 -29.4863c-22.3828 -40.4541 -36.71 -88.1494 -47.6953 -135.872c25.7148 0.292969 51.4395 0.485352 77.1641 0.623047
z" />
    <glyph glyph-name="u" unicode="u" horiz-adv-x="492" 
d="M478.264 187.834c8.1748 21.376 49.1514 12.3428 40.8848 -10.9736c-27.6104 -77.9424 -55.7969 -155.848 -96.9922 -227.866c-28.7725 -50.3047 -77.7588 -100.307 -141.493 -75.6992c-70.3252 27.1436 -67.4688 134.316 -67.3037 196.137
c0.00878906 2.64551 0.146484 5.30078 0.173828 7.94629c-17 -41.8916 -41.0947 -84.2588 -84.5059 -97.7803c-66.1055 -20.5889 -108.408 42.2021 -129.152 96.626c-31.4189 82.4277 -18.5938 178.203 2.17773 261.482c15.8467 63.5322 143.498 47.5303 135.506 -20.2139
c-7.35156 -62.2881 -21.6963 -123.147 -23.8662 -186.076c-0.897461 -26.0449 -1.5293 -54.0674 3.00195 -79.792c5.84082 -33.1855 11.416 -31.1533 29.707 -3.91895c53.1514 79.1416 66.1689 179.348 96.709 269.41c2.30664 10.5732 4.68652 21.1191 7.16699 31.6016
c14.666 61.8115 139.04 45.9287 131.313 -19.5908c-14.9951 -127.129 -49.9746 -254.167 -49.8369 -382.816c0 -2.56348 -1.08008 -30.7959 0.696289 -32.3525c6.70117 -5.87695 27.6289 21.6689 30.4023 25.3125c19.2432 25.3311 33.4873 55.0742 47.2188 83.6455
c25.7607 53.627 46.9717 109.388 68.1924 164.919z" />
    <glyph glyph-name="u" unicode="&#xfc;" horiz-adv-x="492" 
d="M478.264 187.834c8.1748 21.376 49.1514 12.3428 40.8848 -10.9736c-27.6104 -77.9424 -55.7969 -155.848 -96.9922 -227.866c-28.7725 -50.3047 -77.7588 -100.307 -141.493 -75.6992c-70.3252 27.1436 -67.4688 134.316 -67.3037 196.137
c0.00878906 2.64551 0.146484 5.30078 0.173828 7.94629c-17 -41.8916 -41.0947 -84.2588 -84.5059 -97.7803c-66.1055 -20.5889 -108.408 42.2021 -129.152 96.626c-31.4189 82.4277 -18.5938 178.203 2.17773 261.482c15.8467 63.5322 143.498 47.5303 135.506 -20.2139
c-7.35156 -62.2881 -21.6963 -123.147 -23.8662 -186.076c-0.897461 -26.0449 -1.5293 -54.0674 3.00195 -79.792c5.84082 -33.1855 11.416 -31.1533 29.707 -3.91895c53.1514 79.1416 66.1689 179.348 96.709 269.41c2.30664 10.5732 4.68652 21.1191 7.16699 31.6016
c14.666 61.8115 139.04 45.9287 131.313 -19.5908c-14.9951 -127.129 -49.9746 -254.167 -49.8369 -382.816c0 -2.56348 -1.08008 -30.7959 0.696289 -32.3525c6.70117 -5.87695 27.6289 21.6689 30.4023 25.3125c19.2432 25.3311 33.4873 55.0742 47.2188 83.6455
c25.7607 53.627 46.9717 109.388 68.1924 164.919z" />
    <glyph glyph-name="u" unicode="&#xfb;" horiz-adv-x="492" 
d="M478.264 187.834c8.1748 21.376 49.1514 12.3428 40.8848 -10.9736c-27.6104 -77.9424 -55.7969 -155.848 -96.9922 -227.866c-28.7725 -50.3047 -77.7588 -100.307 -141.493 -75.6992c-70.3252 27.1436 -67.4688 134.316 -67.3037 196.137
c0.00878906 2.64551 0.146484 5.30078 0.173828 7.94629c-17 -41.8916 -41.0947 -84.2588 -84.5059 -97.7803c-66.1055 -20.5889 -108.408 42.2021 -129.152 96.626c-31.4189 82.4277 -18.5938 178.203 2.17773 261.482c15.8467 63.5322 143.498 47.5303 135.506 -20.2139
c-7.35156 -62.2881 -21.6963 -123.147 -23.8662 -186.076c-0.897461 -26.0449 -1.5293 -54.0674 3.00195 -79.792c5.84082 -33.1855 11.416 -31.1533 29.707 -3.91895c53.1514 79.1416 66.1689 179.348 96.709 269.41c2.30664 10.5732 4.68652 21.1191 7.16699 31.6016
c14.666 61.8115 139.04 45.9287 131.313 -19.5908c-14.9951 -127.129 -49.9746 -254.167 -49.8369 -382.816c0 -2.56348 -1.08008 -30.7959 0.696289 -32.3525c6.70117 -5.87695 27.6289 21.6689 30.4023 25.3125c19.2432 25.3311 33.4873 55.0742 47.2188 83.6455
c25.7607 53.627 46.9717 109.388 68.1924 164.919z" />
    <glyph glyph-name="u" unicode="&#xfa;" horiz-adv-x="492" 
d="M478.264 187.834c8.1748 21.376 49.1514 12.3428 40.8848 -10.9736c-27.6104 -77.9424 -55.7969 -155.848 -96.9922 -227.866c-28.7725 -50.3047 -77.7588 -100.307 -141.493 -75.6992c-70.3252 27.1436 -67.4688 134.316 -67.3037 196.137
c0.00878906 2.64551 0.146484 5.30078 0.173828 7.94629c-17 -41.8916 -41.0947 -84.2588 -84.5059 -97.7803c-66.1055 -20.5889 -108.408 42.2021 -129.152 96.626c-31.4189 82.4277 -18.5938 178.203 2.17773 261.482c15.8467 63.5322 143.498 47.5303 135.506 -20.2139
c-7.35156 -62.2881 -21.6963 -123.147 -23.8662 -186.076c-0.897461 -26.0449 -1.5293 -54.0674 3.00195 -79.792c5.84082 -33.1855 11.416 -31.1533 29.707 -3.91895c53.1514 79.1416 66.1689 179.348 96.709 269.41c2.30664 10.5732 4.68652 21.1191 7.16699 31.6016
c14.666 61.8115 139.04 45.9287 131.313 -19.5908c-14.9951 -127.129 -49.9746 -254.167 -49.8369 -382.816c0 -2.56348 -1.08008 -30.7959 0.696289 -32.3525c6.70117 -5.87695 27.6289 21.6689 30.4023 25.3125c19.2432 25.3311 33.4873 55.0742 47.2188 83.6455
c25.7607 53.627 46.9717 109.388 68.1924 164.919z" />
    <glyph glyph-name="v" unicode="v" horiz-adv-x="488" 
d="M487.809 202.408c21.7051 9.87793 44.334 -18.3271 20.1572 -31.2168c-49.1504 -26.2002 -103.922 -22.8135 -152.661 -1.27246c-5.00781 -15.5264 -10.3818 -30.8965 -16.2129 -45.9922c-23.3076 -60.3193 -55.5498 -127.139 -105.771 -169.726
c-39.1816 -33.2402 -95.7295 -53.9756 -142.29 -25.0469c-59.7246 37.0947 -82.3359 109.965 -94.1455 175.081c-14.3174 78.9395 -19.499 162.676 -6.19727 241.954c11.5625 68.9062 124.374 67.4414 127.798 -4.45898c3.05762 -64.292 -1.51953 -128.521 1.42871 -192.914
c2.25195 -49.3525 1.74805 -117.197 26.3643 -161.762c35.9229 -65.0244 107.759 60.2285 123.56 90.21c19.2246 36.4717 34.1924 75.1768 46.4141 114.605c-50.9541 35.291 -89.7051 90.3096 -98.6582 148.075c-8.6416 55.7422 6.52734 112.382 45.5986 153.733
c27.793 29.4141 70.4805 49.2607 103.94 15.7734c39.7217 -39.7676 29.4229 -126.507 23.793 -176.115c-4.78809 -42.2393 -13.1553 -84.6162 -24.5068 -126.059c37.4053 -18.8857 80.2031 -23.6006 121.39 -4.87012zM352.366 408.862
c-0.320312 14.6016 1.44727 36.6445 -4.29297 50.376c-10.125 24.2227 -35.6758 33.3135 -55.5508 11.5166c-18.6387 -20.4512 -30.2471 -48.0244 -33.8994 -75.332c-7.81836 -58.5156 22.4561 -121.728 69.3916 -162.255c15.0869 57.3164 25.624 116.263 24.3516 175.694z
" />
    <glyph glyph-name="w" unicode="w" horiz-adv-x="689" 
d="M697.352 202.17c23.1426 3.82617 34.04 -25.7129 9.31348 -32.0664c-45.5439 -11.7451 -93.3213 -10.6191 -137.19 1.78516c-1.54688 -5.9043 -3.08496 -11.8086 -4.66895 -17.6855c-24.0859 -89.248 -75.5342 -307.071 -211.928 -252.309
c-73.6396 29.5605 -107.018 108.308 -120.851 193.125c-19.2158 -60.7588 -50.9639 -111.942 -110.779 -125.07c-60.7129 -13.3203 -99.9863 43.9785 -118.552 93.5869c-26.3467 70.3984 -22.3369 153.961 -16.002 227.518
c6.01465 69.8398 128.183 65.9678 127.084 -4.44043c-0.824219 -52.8037 -8.29395 -105.26 -7.94629 -158.191c0.165039 -25.3027 1.95898 -51.8145 8.15625 -76.459c5.31836 -21.1562 10.0693 -41.5068 32.251 -23.8848c34.751 27.6191 47.3564 98.8232 56.8496 139.79
c8.08301 34.8418 14.418 70.041 21.8428 105.021c0.430664 8.19336 0.924805 16.0566 1.44629 23.5176c5.30078 75.626 137.667 70.9844 137.09 -4.78809c-0.485352 -63.3857 -5.18164 -126.836 -2.04199 -190.24c1.47363 -29.7891 8.3125 -184.785 72.248 -144.743
c19.1699 12.002 32.9658 53.5547 41.6074 73.5938c11.1777 25.9072 20.168 52.6934 28.3887 79.6631c7.94629 26.0635 15.2607 52.374 22.0811 78.8125c-63.3311 31.3174 -111.832 88.918 -121.756 166.777c-7.31445 57.4629 8.29395 120.867 48.0977 164.104
c31.6748 34.4033 87.6641 52.1445 126.415 17.6045c40.5635 -36.1514 34.7959 -108.454 30.4746 -156.479c-5.25488 -58.415 -16.6523 -116.647 -30.6318 -173.873c37.4424 -11.626 77.8691 -11.4707 119.001 -4.66895zM550.297 299.788
c9.84082 55.2207 24.9473 124.511 9.31152 179.933c-13.6309 48.3174 -55.54 37.3867 -80.6875 2.43457c-18.5566 -25.7979 -27.8848 -58.6992 -29.4316 -90.0898c-2.85645 -58.1035 21 -113.708 65.8203 -150.939c6.42676 -5.33691 13.0176 -10.0977 19.7549 -14.3457
c5.62988 24.2324 10.875 48.5557 15.2324 73.0078z" />
    <glyph glyph-name="x" unicode="x" horiz-adv-x="415" 
d="M404.755 176.977c7.64453 19.3799 41.8838 11.6709 36.7939 -9.86035c-25.7881 -108.985 -117.736 -327.02 -265.152 -274.436c-49.8281 17.7783 -86.3369 58.04 -113.966 103.456c-18.8398 -37.7627 -34.6406 -76.9443 -45.2236 -118.579
c-5.73047 -22.5205 -47.8418 -13.1641 -41.5713 11.1689c13.8691 53.8193 36.3623 103.794 62.9287 151.818c-4.66895 9.80469 -9.04492 19.5908 -13.0908 29.2119c-33.4873 79.5439 -42.3857 168.407 -46.4775 253.811c-3.41504 71.3047 133.775 78.9668 142.93 11.2139
c6.02344 -44.6191 10.0146 -91.5449 15.7275 -138.453c37.5059 52.9229 78.2344 103.108 125.893 147.947c16.2129 15.252 46.0752 -7.12207 27.8672 -25.1201c-55.5586 -54.918 -102.109 -117.654 -145.228 -182.561c8.97168 -52.8584 22.2822 -104.38 45.5625 -151.104
c16.5146 -33.1396 36.9199 -64.1738 78.9023 -45.1963c23.6738 10.6924 46.167 51.9707 59.1572 73.0078c31.9307 51.7051 52.7754 107.438 74.9473 163.675z" />
    <glyph glyph-name="y" unicode="y" horiz-adv-x="498" 
d="M424.469 349.852c11.0957 -110.624 4.43262 -223.939 -2.00293 -334.673c-9.77734 -167.849 -15.2061 -486.94 -225.633 -537.547c-127.175 -30.585 -205.758 101.817 -182.651 213.338c28.7998 138.984 161.349 260.85 274.847 337.07
c-0.860352 47.8232 -1.93164 95.6465 -3.03027 143.461c-5.03516 -17.7051 -10.9033 -35.1533 -18.1357 -52.1807c-21.916 -51.6406 -54.9551 -111.521 -115.293 -119.485c-167.043 -22.0352 -175.081 226.466 -170.797 335.148
c3.18555 80.9541 152.652 74.5371 145.667 -5.08887c-4.98047 -56.7861 -10.8574 -114.039 -6.42676 -171.072c2.13281 -27.4727 13.7041 -148.688 58.6074 -99.2725c70.2979 77.3564 79.4434 195.597 102.778 293.67l-0.0263672 1.59375
c-1.07129 80.1846 134.48 71.0117 142.097 -4.96191zM288.928 -263.568c2.14258 80.9541 1.98535 161.943 0.87793 242.934c-57.3076 -44.207 -109.58 -95.1797 -154.346 -152.029c-53.7188 -68.2109 -108.994 -166 -64.0723 -253.371
c19.0596 -37.0664 58.2314 -66.1045 101.377 -60.502c50.8535 6.60059 77.9326 47.1826 93.9443 91.7656c15.4531 43.0449 21.0195 85.8789 22.2188 131.203z" />
    <glyph glyph-name="y" unicode="&#xff;" horiz-adv-x="498" 
d="M424.469 349.852c11.0957 -110.624 4.43262 -223.939 -2.00293 -334.673c-9.77734 -167.849 -15.2061 -486.94 -225.633 -537.547c-127.175 -30.585 -205.758 101.817 -182.651 213.338c28.7998 138.984 161.349 260.85 274.847 337.07
c-0.860352 47.8232 -1.93164 95.6465 -3.03027 143.461c-5.03516 -17.7051 -10.9033 -35.1533 -18.1357 -52.1807c-21.916 -51.6406 -54.9551 -111.521 -115.293 -119.485c-167.043 -22.0352 -175.081 226.466 -170.797 335.148
c3.18555 80.9541 152.652 74.5371 145.667 -5.08887c-4.98047 -56.7861 -10.8574 -114.039 -6.42676 -171.072c2.13281 -27.4727 13.7041 -148.688 58.6074 -99.2725c70.2979 77.3564 79.4434 195.597 102.778 293.67l-0.0263672 1.59375
c-1.07129 80.1846 134.48 71.0117 142.097 -4.96191zM288.928 -263.568c2.14258 80.9541 1.98535 161.943 0.87793 242.934c-57.3076 -44.207 -109.58 -95.1797 -154.346 -152.029c-53.7188 -68.2109 -108.994 -166 -64.0723 -253.371
c19.0596 -37.0664 58.2314 -66.1045 101.377 -60.502c50.8535 6.60059 77.9326 47.1826 93.9443 91.7656c15.4531 43.0449 21.0195 85.8789 22.2188 131.203z" />
    <glyph glyph-name="y" unicode="&#xfd;" horiz-adv-x="498" 
d="M424.469 349.852c11.0957 -110.624 4.43262 -223.939 -2.00293 -334.673c-9.77734 -167.849 -15.2061 -486.94 -225.633 -537.547c-127.175 -30.585 -205.758 101.817 -182.651 213.338c28.7998 138.984 161.349 260.85 274.847 337.07
c-0.860352 47.8232 -1.93164 95.6465 -3.03027 143.461c-5.03516 -17.7051 -10.9033 -35.1533 -18.1357 -52.1807c-21.916 -51.6406 -54.9551 -111.521 -115.293 -119.485c-167.043 -22.0352 -175.081 226.466 -170.797 335.148
c3.18555 80.9541 152.652 74.5371 145.667 -5.08887c-4.98047 -56.7861 -10.8574 -114.039 -6.42676 -171.072c2.13281 -27.4727 13.7041 -148.688 58.6074 -99.2725c70.2979 77.3564 79.4434 195.597 102.778 293.67l-0.0263672 1.59375
c-1.07129 80.1846 134.48 71.0117 142.097 -4.96191zM288.928 -263.568c2.14258 80.9541 1.98535 161.943 0.87793 242.934c-57.3076 -44.207 -109.58 -95.1797 -154.346 -152.029c-53.7188 -68.2109 -108.994 -166 -64.0723 -253.371
c19.0596 -37.0664 58.2314 -66.1045 101.377 -60.502c50.8535 6.60059 77.9326 47.1826 93.9443 91.7656c15.4531 43.0449 21.0195 85.8789 22.2188 131.203z" />
    <glyph glyph-name="z" unicode="z" horiz-adv-x="491" 
d="M486.923 168.243c24.5342 10.125 50.8525 -23.2598 22.5371 -34.9502c-54.9639 -22.6846 -105.79 -52.501 -152.954 -87.5996c20.1309 -35.5928 32.9287 -76.1934 36.334 -118.598c10.6289 -132.338 -81.21 -290.812 -225.33 -299.244
c-53.1875 -3.1123 -95.5273 30.4297 -102.567 83.9014c-9.19141 69.8311 41.5615 140.596 82.8486 191.275c25.8984 31.7842 53.5176 62.2686 82.7852 91.0049c-18.8125 38.8701 -50.6064 67.0293 -99.5098 55.458c-55.0186 -13.0176 -130.324 62.5898 -66.3066 103.19
c51.9336 32.9385 101.78 71.8271 142.015 118.579c17.3018 20.1123 30.1543 25.3398 12.1748 49.4805c-14.9131 20.0215 -26.6309 21.2021 -50.2949 21.0195c-20.625 -0.165039 -42.3486 -4.51367 -61.5273 -12.0664c-6.94824 -2.7373 -31.5557 -12.7803 -40.7197 -20.3232
c0.100586 -12.7246 -21.9707 -21.7783 -34.8604 -11.5713c-0.713867 0.558594 -1.41895 1.12598 -2.13281 1.68457c-4.81543 3.81738 -6.63672 10.8574 -4.57715 16.5605c13.6406 37.7715 82.1719 55.7969 117.042 60.5664c41.543 5.68457 95.6738 3.23145 125.335 -30.9062
c53.1699 -61.1982 23.3262 -132.961 -22.6025 -193.564c34.3018 -16.167 64.2461 -40.8477 88.1582 -71.1221c47.7227 34.7598 99.0244 64.4756 154.153 87.2246zM233.78 -229.265c15.2334 39.4473 19.6729 81.6865 19.0869 123.715
c-0.219727 16.2217 -2.29785 34.8242 -6.51855 53.4268c-27.6104 -28.709 -53.8105 -59.1299 -77.2188 -91.1709c-26.9873 -36.957 -72.7598 -104.838 -52.501 -153.339c37.1953 -89.0283 104.289 34.0732 117.151 67.3682z" />
    <glyph glyph-name="braceleft" unicode="{" horiz-adv-x="576" 
d="M471.355 -244.886c32.416 13.4756 75.6807 -21.3242 43.2549 -50.5186c-114.734 -103.3 -269.4 -14.9033 -313.956 111.649c-26.3281 74.7559 -28.498 158.703 -37.4424 236.883c-5.91406 51.7139 -1.24512 175.347 -66.0684 192.548
c-48.3818 12.8438 -63.166 63.9541 -27.1338 98.1924c88.9639 84.542 153.22 189.407 201.281 301.816c23.4814 54.9277 90.2822 249.032 181.096 177.7c18.1445 -14.2441 -9.04492 -28.6621 -22.8408 -23.1787c-27.5371 10.9492 -53.0234 -131.999 -57.1152 -149.466
c-11.2969 -48.2627 -25.7432 -96.1318 -43.7959 -142.298c-27.4541 -70.2061 -66.1777 -136.54 -113.892 -195.12c69.9863 -67.1758 73.6758 -185.242 84.4053 -282.226c7.78125 -70.4355 8.3584 -145.622 27.3262 -214.089
c7.46094 -26.8965 18.7207 -54.1768 41.6533 -71.7627c35.8955 -27.5273 67.7627 -4.87891 103.228 9.86914z" />
    <glyph glyph-name="verticalbar" unicode="|" horiz-adv-x="260" 
d="M209.558 -264.065c5.41992 -81.7686 -139.872 -74.7744 -147.809 5.17188c-18.0898 182.148 -11.6816 366.558 -4.57812 549.146c3.625 93.1113 9.53906 186.396 16.0205 279.352c5.86816 84.1855 3.28613 176.866 27.1982 258.187
c7.4248 25.2295 49.0322 20.5244 56.3838 -1.96875c27.2256 -83.2881 23.417 -182.268 26.7305 -269.099c3.44238 -90.2178 4.76074 -180.793 5.35547 -271.075c1.21777 -183.659 8.55957 -366.476 20.6982 -549.713z" />
    <glyph glyph-name="braceright" unicode="}" horiz-adv-x="579" 
d="M510.471 340.456c38.8154 -36.8926 10.5762 -84.248 -33.9238 -96.0664c-61.3633 -16.2861 -56.6309 -147.654 -62.1514 -195.944c-8.93457 -78.1523 -12.0293 -161.614 -38.4033 -236.38c-45.3975 -128.686 -201.62 -206.948 -314.532 -105.644
c-34.5674 31.0068 17.3477 59.6426 46.6602 47.375c36.499 -15.2793 68.6953 -35.9043 103.363 -6.16992c22.1543 18.9961 33.0664 45.9473 40.5732 73.4199c18.6758 68.3662 18.6211 144.422 26.3936 214.72c10.9121 98.6953 15.9102 211.452 85.0176 277.311
c-47.0273 57.8662 -84.79 123.623 -112.757 192.429c-18.4922 45.5068 -32.8193 93.0098 -44.3545 140.714c-3.72559 15.3984 -29.5508 165.058 -59.2207 153.34c-15.2148 -6.00586 -38.376 11.1318 -21.165 24.7168c90.1543 71.1396 157.943 -127.561 181.113 -181.884
c48.2627 -113.142 114.084 -217.064 203.387 -301.937z" />
    <glyph glyph-name="nonbreakingspace" unicode="&#xa0;" horiz-adv-x="318" 
 />
    <glyph glyph-name="exclamdown" unicode="&#xa1;" horiz-adv-x="269" 
d="M76.2383 455.41c10.2627 76.8984 148.123 73.9502 142.1 -4.95312c-9.09082 -118.991 -19.0879 -237.964 -26.2471 -357.102c-3.5791 -59.5869 -6.19727 -119.211 -9.83203 -178.798c-3.22266 -52.9131 -1.54785 -112.317 -32.9668 -157.34
c-14.7021 -21.0645 -48.2441 -16.6611 -62.2139 2.16992c-34.3115 46.2676 -32.0869 113.453 -34.8154 168.655c-2.80176 56.7676 -2.57324 113.435 -1.59375 170.248c2.06934 119.559 9.75 238.586 25.5693 357.119zM198.032 582.567
c-7.24121 -46.0566 -84.752 -45.251 -85.6309 2.99316c-0.540039 29.3584 1.71191 58.0303 6.41699 87.0137c9.75879 60.0635 112.207 44.9678 95.6553 -14.2715c-6.95703 -24.9004 -12.4316 -50.1943 -16.4414 -75.7354z" />
    <glyph glyph-name="cent" unicode="&#xa2;" horiz-adv-x="579" 
d="M486.326 156.505c6.31641 22.4834 47.9141 13.0605 41.5518 -11.1719c-29.7617 -113.599 -106.275 -265.646 -231.803 -293.705c-2.68262 -66.1055 -2.8291 -132.375 0.713867 -198.956c1.62988 -30.4756 -52.1436 -27.7842 -54.8896 1.91309
c-5.9043 63.8535 -5.62988 128.613 -1.74805 193.574c-95.29 10.0791 -162.97 102.348 -179.842 196.219c-23.1797 128.987 -7.32422 273.189 48.1982 392.491c44.125 94.7959 131.404 213.942 249.855 199.24c9.99707 49.7646 20.4336 99.4375 31.373 149.01
c4.43066 20.0947 41.3057 11.7461 36.7832 -9.87695c-10.3633 -49.499 -20.2041 -99.1074 -29.5967 -148.789c104.628 -42.5049 80.542 -194.873 83.0596 -285.467c0.732422 -26.0723 -45.5439 -24.0762 -47.0273 1.63867c-3.48828 60.6309 11.498 134.361 -17.7598 190.506
c-9.11816 17.5039 -19.3252 26.7412 -29.9443 30.2109c-20.9727 -116.272 -39.2725 -233.029 -54.7715 -350.181c-13.9336 -105.332 -26.0635 -210.481 -32.1787 -315.987c49.2881 6.0791 91.957 68.001 117.361 105.169c32.3799 47.3838 55.1748 99.043 70.6641 154.162z
M288.284 232.247c15.5166 106.797 33.4873 213.219 53.582 319.237c-20.4512 -15.4258 -39.2451 -40.9395 -51.7041 -59.8164c-55.7881 -84.542 -89.8252 -196.896 -99.4648 -297.064c-7.54297 -78.3906 -21.4033 -225.633 54.4697 -281.063
c10.0605 107.282 27.9756 214.537 43.1172 318.707z" />
    <glyph glyph-name="sterling" unicode="&#xa3;" horiz-adv-x="554" 
d="M503.606 504.305c7.03027 -24.2598 -35.0625 -30.2314 -42.2393 -8.24219c-12.3857 37.9365 -44.8574 77.3564 -87.3711 82.5469c-45.1504 5.51074 -58.6533 -32.8564 -67.2588 -68.5684c-18.1807 -75.5068 -9.34668 -158.868 -11.5986 -235.785
c-0.640625 -21.9707 -1.91309 -43.9971 -3.74414 -66.0049c11.4248 0.192383 22.8682 0.274414 34.3574 0.136719c28.4336 -0.329102 26.9229 -38.0371 -1.31934 -37.708c-12.2852 0.146484 -24.5527 0.0361328 -36.8105 -0.192383
c-5.58398 -48.9951 -14.0059 -97.7344 -25.4121 -145.421c-8.90723 -37.2227 -20.2041 -77.4482 -36.0596 -115.293c52.0713 13.5029 104.023 27.6006 157.504 34.1367c34.0645 4.16504 51.7148 -39.6582 13.8887 -47.8975
c-71.9365 -15.6729 -148.789 -27.3545 -214.281 -63.0664c-4.54102 -6.01465 -9.31934 -11.791 -14.3359 -17.3115c-28.4434 -48.3359 -139.946 -23.335 -115.431 41.9736c18.1904 48.4639 44.6104 92.9277 61.4824 142.188c17.9521 52.4102 30.2646 106.184 38.293 160.965
c-13.8691 -1.73926 -27.7295 -3.63379 -41.5713 -5.82129c-24.6895 -3.89941 -37.0205 29.377 -9.9873 34.4307c18.8398 3.51562 37.6709 6.51855 56.5205 9.04492c11.2324 94.2275 14.9219 189.801 36.499 282.362c18.4561 79.1865 61.876 152.103 153.77 143.305
c72.7334 -6.9668 134.206 -47.7139 155.105 -119.778z" />
    <glyph glyph-name="currency" unicode="&#xa4;" horiz-adv-x="501" 
d="M409.352 407.395c15.7461 16.5693 54.7949 -0.923828 36.8799 -19.7275c-22.8311 -23.9756 -45.1777 -48.3721 -67.2949 -72.9707c47.9336 -75.7539 43.9053 -178.065 -2.37988 -253.938c-5.26367 -8.62402 -11.2412 -16.3594 -17.5762 -23.5918
c12.3584 -19.2334 25.1934 -38.1738 38.6777 -56.7031c16.7256 -22.9873 -26.6758 -38.6875 -41.3047 -18.5195c-10.8662 14.9678 -21.2197 30.2559 -31.3262 45.6904c-55.2939 -35.6475 -128.512 -34.2471 -186.927 7.13184
c-16.4326 -23.0059 -32.6816 -46.1484 -48.5645 -69.5752c-12.8164 -18.9043 -50.8174 -2.10547 -36.2705 19.4082c17.6045 26.0352 35.6846 51.7227 53.9756 77.2363c-67.2314 73.8223 -61.8945 186.652 -45.0137 280.13c4.63184 25.6514 27.9307 39.502 51.8789 41.9824
c-14.501 21.2021 -29.624 42.001 -45.7998 62.1406c-17.4307 21.7051 25.4307 37.1855 40.6826 18.2354c14.8125 -18.4102 28.8008 -37.3418 42.1943 -56.6484c67.6064 32.3525 149.293 13.5127 202.243 -40.6914c18.4189 20.332 37.0117 40.5088 55.9248 60.4111z
M297.579 283.699c-24.4609 34.6777 -63.9443 57.3525 -101.414 34.4023c18.3545 -30.1455 35.8857 -60.8223 53.1328 -91.6729c15.8828 19.2607 31.9766 38.3574 48.2812 57.2705zM165.708 282.554c-8.27539 -51.9795 -14.8301 -107.209 4.04688 -156.186
c16.1396 21.1104 32.4619 42.0742 49.0771 62.7998c-17.3848 31.3457 -34.8701 62.6084 -53.124 93.3857zM192.668 88.9072c24.2227 -25.8252 58.5801 -34.502 87.5547 -8.71387c-13.6035 23.2432 -26.8135 46.7334 -39.9141 70.2881
c-16.1123 -20.3418 -31.9863 -40.8662 -47.6406 -61.5742zM308.748 120.41c18.0713 38.1104 21.0918 83.4541 8.36719 123.661c-15.7002 -18.4561 -31.2168 -37.0674 -46.5234 -55.8525c12.5967 -22.667 25.248 -45.3154 38.1562 -67.8086z" />
    <glyph glyph-name="yen" unicode="&#xa5;" horiz-adv-x="625" 
d="M544.774 53.9648c29.3311 4.67773 43.9541 -35.1455 11.8672 -40.876c-21.001 -3.75293 -41.9102 -7.87207 -62.7363 -12.4131c1.19043 -8.00977 2.31641 -16.0195 3.58008 -24.0205c9.59375 3.35938 19.2061 6.63672 28.7812 10.0693
c23.6924 8.49512 48.9678 -23.665 21.5225 -33.3506c-14.6016 -5.1543 -29.2578 -10.1348 -43.9141 -15.1055c7.08594 -41.2324 15.0137 -82.4004 24.0488 -123.56c19.0781 -86.9131 -126.699 -108.252 -149.247 -29.1104
c-9.83203 34.5127 -17.7871 69.6846 -24.3232 105.25c-14.4463 -4.26562 -28.8926 -8.54102 -43.3936 -12.6426c-25.2939 -7.14941 -37.2227 27.8574 -10.3262 35.6025c15.874 4.57715 31.6934 9.31934 47.4941 14.0977c-1.62012 10.583 -3.10352 21.2021 -4.46777 31.8486
c-13.4941 -5.69434 -26.1455 -12.3867 -36.71 -20.9092c-47.1182 -38.0283 -95.6006 50.167 -24.3691 54.1123c18.2998 1.0166 37.2041 5.51172 56.1172 11.1055c-2.72852 28.3428 -4.66016 56.8135 -5.83203 85.3662c-13.0361 -9.24609 -26.8867 -16.9268 -41.708 -22.2275
c-68.4033 -24.4609 -140.926 12.0654 -182.79 66.4893c-53.0781 69.0068 -61.5557 165.963 -57.4814 250.011c4.65918 96.1689 29.1016 188.95 58.2588 280.258c13.9336 43.6309 102.439 34.6406 96.3516 -14.373c-13.1455 -105.845 -33.0752 -213.182 -24.9092 -320.189
c3.70801 -48.5557 14.1074 -96.416 26.375 -143.479c4.9248 -18.9043 9.9502 -40.9297 23.0684 -56.1357c21.8789 -25.3584 56.3369 -11.2783 78.4639 6.05078c7.96484 6.24316 15.5449 13.082 22.8965 20.2588c-0.292969 90.4199 5.9043 180.739 15.8457 268.175
c9.93262 87.3711 17.8877 188.84 61.7568 266.91c28.8369 51.3115 80.9355 59.3125 109.955 2.63672c35.291 -68.9248 21.9531 -160.645 7.97461 -233.295c-12.4316 -64.5674 -32.8467 -128.219 -60.7861 -188.025c0.274414 -4.53125 0.475586 -9.07227 0.759766 -13.5947
c4.45801 -72.3115 11.3604 -143.873 20.8447 -215.059c18.9404 3.68945 37.9453 7.07617 57.0322 10.125zM459.859 492.696c-0.384766 -33.3408 0.0917969 -66.7363 0.998047 -100.123c15.5166 49.9932 25.6963 101.606 29.752 153.814
c2.67285 34.3203 7.46973 89.5498 -10.4453 125.628c-2.56348 -7.66211 -4.88867 -15.3887 -6.75586 -23.2617c-4.34863 -17.6504 -6.98535 -35.749 -8.85254 -53.8018c-3.51562 -33.9268 -4.30273 -68.1738 -4.69629 -102.256z" />
    <glyph glyph-name="section" unicode="&#xa7;" horiz-adv-x="557" 
d="M440.163 13.2354c0.0361328 -0.0644531 0.0712891 -0.128906 0.108398 -0.193359c55.2383 -105.937 103.199 -275.314 5.30957 -371.291c-80.7705 -79.1963 -234.21 -102.092 -321.801 -23.1338c-97.3857 87.792 -78.4453 222.703 -54.5059 337.611
c5.51074 26.4746 54.0391 15.4893 48.3994 -13c-20.8447 -105.223 -40.2979 -306.22 123.285 -295.5c130.242 8.54102 145.21 140.568 117.243 242.34c-30.9238 112.51 -101.973 198.562 -156.708 298.869c-30.4844 55.8701 -64.3652 159.463 -12.6055 209.557
c-37.8262 51.0918 -65.958 108.747 -61.7656 170.678c6.35352 93.7705 78.9307 182.396 159.573 226.118c69.959 37.9277 168.179 32.6455 214.528 -38.3301c24.6074 -37.6895 -37.3047 -61.4727 -63.0293 -37.79c-76.1846 70.1426 -158.621 -41.25 -172.298 -111.768
c-17.4307 -89.8516 74.0146 -173.661 126.178 -235.747c58.1953 -69.2637 113.946 -147.233 104.581 -242.496c-4.02832 -40.9756 -22.8682 -89.7695 -56.4932 -115.924zM418.877 50.8701c15.4434 36.1699 -21.4043 112.245 -35.7402 133.071
c-30.5488 44.3809 -70.417 79.4336 -108.125 117.517c-19.0322 19.2334 -39.4375 40.2891 -58.8359 62.9287c-30.0449 -51.3389 79.9102 -152.259 107.502 -184.354c35.0898 -40.8203 67.4971 -83.2979 95.1992 -129.162z" />
    <glyph glyph-name="copyright" unicode="&#xa9;" horiz-adv-x="797" 
d="M684.302 526.853c88.1309 -167.556 82.8828 -385.033 -13.377 -548.066c-88.9639 -150.675 -305.313 -274.124 -470.031 -163.234c-166.76 112.263 -168.032 379.97 -131.862 555.005c1.9502 9.42969 6.53711 17.0283 12.8447 22.9883
c4.90723 33.8623 16.6709 67.7432 30.6504 98.0537c36.8193 79.8184 98.6035 151.15 180.408 186.606c154.117 66.8096 315.741 -7.55273 391.367 -151.353zM587.16 77.124c59.6973 125.445 72.7979 281.968 32.3252 415.084
c-19.875 65.3457 -56.9238 130.27 -123.065 156.57c-64.3291 25.5869 -139.021 17.5127 -199.552 -14.7295c-62.4795 -33.2764 -109.964 -90.9229 -139.598 -154.446c-9.77734 -20.9639 -19.2246 -44.9395 -25.3213 -69.5283
c37.2412 -0.604492 75.9287 -22.2188 70.4912 -59.4043c-12.5693 -86.0527 -16.7715 -174.44 -3.44238 -260.704c10.3359 -66.8828 28.0312 -154.336 91.8018 -191.339c55.2207 -32.0498 129.354 -2.16895 176.61 31.3555c52.7666 37.4326 92.0762 88.9824 119.75 147.142z
M522.383 165.006c13.8232 17.8877 51.3193 1.9668 36.2695 -19.418c-46.8076 -66.5264 -125.234 -132.823 -212.999 -114.065c-102.11 21.8154 -117.06 131.588 -102.229 218.528c15.4717 90.6396 65.3271 221.357 160.306 256.758
c92.5254 34.4854 143.645 -57.4268 142.592 -135.891c-0.375 -28.0586 -50.0293 -26.0625 -50.6064 1.76758c-0.430664 20.8818 -9.93262 83.8838 -41.5889 64.2656c-19.2061 -11.9014 -33.4414 -49.252 -43.4932 -68.4307
c-23.8105 -45.4248 -43.7305 -94.4746 -52.6289 -145.255c-6.83887 -39.0352 -13.4023 -98.915 23.2246 -125.939c53.499 -39.4746 111.731 29.6055 141.154 67.6797z" />
    <glyph glyph-name="softhyphen" unicode="&#xad;" 
 />
    <glyph glyph-name="registered" unicode="&#xae;" horiz-adv-x="797" 
d="M684.302 526.853c88.1309 -167.556 82.8857 -385.033 -13.374 -548.066c-88.9639 -150.675 -305.313 -274.124 -470.031 -163.234c-166.76 112.263 -168.032 379.97 -131.862 555.005c1.94043 9.42969 6.53613 17.0283 12.8438 22.9883
c4.90723 33.8623 16.6709 67.7432 30.6494 98.0537c36.8193 79.8184 98.6035 151.15 180.408 186.606c154.117 66.8096 315.731 -7.55273 391.366 -151.353zM587.163 77.124c59.7061 125.445 72.7979 281.968 32.3252 415.084
c-19.875 65.3457 -56.9238 130.27 -123.065 156.57c-64.3379 25.5869 -139.03 17.5127 -199.561 -14.7295c-62.4795 -33.2764 -109.964 -90.9229 -139.598 -154.446c-9.77734 -20.9639 -19.2246 -44.9395 -25.3213 -69.5283c37.25 -0.604492 75.9375 -22.2188 70.5 -59.4043
c-12.5781 -86.0527 -16.7803 -174.44 -3.45117 -260.704c10.3447 -66.8828 28.04 -154.336 91.8105 -191.339c55.2207 -32.0498 129.354 -2.16895 176.61 31.3555c52.7666 37.4326 92.0762 88.9824 119.75 147.142zM506.192 236.438
c51.7969 12.6055 76.8857 -59.3584 21.0342 -72.5039c-48.4365 -11.3887 -104.6 -25.166 -155.315 -15.7002c-2.26074 -32.0957 -7.51562 -63.2949 -20.5518 -89.6602c-8.65137 -17.5039 -35.0898 -20.1406 -46.4229 -3.46094
c-37.6162 55.3574 -35.9229 142.444 -36.2246 207.085c-0.338867 73.3008 -0.640625 153.403 22.0625 223.655c15.6543 48.4463 98.7227 34.4492 100.544 -15.0039c0.640625 -17.375 0.192383 -34.8877 -0.887695 -52.4463c34.4395 15.7275 75.9648 26.2832 110.396 13.2285
c33.6709 -12.7617 39.9512 -42.9717 22.7588 -73.1455c-25.4951 -44.7383 -69.1162 -71.7627 -104.324 -107.585c-8.36719 -8.51367 -16.2031 -22.96 -25.6875 -29.917c-0.137695 -0.420898 -0.265625 -0.741211 -0.40332 -1.14355
c1.87695 -0.540039 3.90039 -1.18066 6.2627 -2.04102c36.2607 5.2002 70.9561 9.92383 106.76 18.6387zM386.722 375.652c-3.35059 -32.0957 -7.53418 -64.2285 -10.1895 -96.0771c17.1738 10.5 34.5312 20.4697 48.126 31.4551
c23.7656 19.2061 56.2461 39.6758 52.1357 71.8906c-3.57031 27.9951 -16.46 19.6553 -38.6143 14.4736c-19.0967 -4.46777 -34.9062 -12.3037 -51.458 -21.7422z" />
    <glyph glyph-name="mu" unicode="&#xb5;" horiz-adv-x="602" 
d="M550.36 197.407c17.9707 -75.1768 -116.97 -93.9902 -128.403 -25.0469c-8.28516 49.8828 -14.5469 99.8115 -17.9336 149.951c-31.8213 -40.1611 -75.3516 -81.3936 -128.677 -73.96c-42.0557 5.85938 -68.668 37.2959 -85.915 73.9326
c-2.56348 -59.248 -3.94629 -118.569 -3.66211 -178.001c0.412109 -85.2197 4.76074 -170.247 10.125 -255.274c5.1084 -81 18.9131 -163.244 18.5557 -244.372c-0.219727 -50.0479 -80.0928 -48.125 -94.3008 -7.39648c-28.6533 82.1348 -37.9727 173.671 -48.8486 259.632
c-10.207 80.6973 -15.7734 161.99 -18.9229 243.255c-6.60938 170.477 0.0644531 342.006 26.2012 510.697c11.2324 72.458 142.362 70.1689 134.947 -4.71582c-5.07129 -51.2285 -9.63965 -102.476 -13.6221 -153.741c1.16309 -27.8848 3.94629 -55.6318 9.49414 -83.0127
c7.21387 -35.5928 17.9795 -81.9883 45.791 -107.694c38.7051 -35.7764 79.5156 7.66211 104.947 37.2588c15.2793 17.7871 28.8281 36.9014 41.1963 56.8037c-0.0732422 14.8857 0.0546875 29.7891 0.631836 44.7383c3.16699 82.3271 9.18164 174.229 44.6553 249.864
c12.0566 25.6973 56.9326 111.512 92.6357 59.7334c15.5811 -22.6025 7.48828 -71.8086 4.62305 -96.9102c-4.19238 -36.7188 -13.5117 -72.7969 -25.2666 -107.758c-4.33008 -12.8896 -9.02637 -25.7793 -13.9053 -38.6416
c0.960938 -14.8398 2.04102 -29.6699 3.24902 -44.4453c7.27832 -89.0283 21.6328 -178.029 42.4043 -264.896zM506.591 697.126c-1.53809 -9.37402 -2.59082 -20.1221 -3.31445 -31.1807c1.61133 10.5732 2.84766 21.3027 3.31445 31.1807z" />
    <glyph glyph-name="paragraph" unicode="&#xb6;" horiz-adv-x="854" 
d="M804.074 827.451c-10.9941 -197.437 -30.585 -393.479 -32.4893 -591.456c-0.952148 -98.6592 -0.887695 -197.437 1.83105 -296.067c2.67285 -96.9102 12.624 -198.251 1.62012 -294.776c-4.46777 -39.2002 -66.4443 -42.7432 -78.0889 -6.125
c-29.707 93.4219 -35.877 198.745 -42.624 296.104c-6.83887 98.6865 -11.2793 197.446 -11.417 296.38c-0.100586 73.3096 0.366211 147.242 2.56348 221.22c-36.4072 -28.2969 -76.9619 -52.6758 -113.672 -74.6104c-5.29102 -3.1582 -10.6465 -6.28027 -15.9834 -9.40234
c-2.49023 -53.0049 -4.53125 -106.056 -5.73926 -159.216c-1.88574 -82.8584 -2.29785 -165.771 -0.887695 -248.639c1.42773 -83.874 -0.631836 -169.213 22.4375 -250.35c15.8008 -55.5771 -73.4932 -72.3848 -99.0615 -31.2354
c-42.1934 67.9082 -41.9648 166.036 -46.3496 243.832c-4.95215 87.8838 -6.52637 176.061 -7.03027 264.072c-0.210938 37.7529 -0.0644531 75.625 0.356445 113.534c-17.165 -6.68262 -34.5771 -12.6328 -52.2451 -17.6035
c-107.85 -30.3379 -299.931 -22.2725 -275.104 137.081c22.9502 147.315 174.257 227.876 308.17 248.867c12.2031 1.91309 24.8457 3.51465 37.7715 4.73242c1.91309 19.7832 3.92676 39.5479 6.19727 59.2578c8.33105 72.3389 137.447 68.9971 132.806 -4.64258
c-1.23633 -19.5723 -2.48145 -39.1357 -3.73535 -58.6992c44.5645 -7.85449 86.6846 -23.2529 120.62 -49.3438c5.32812 71.0029 13.0732 141.667 24.3975 211.471c10.8574 66.9014 129.602 66.3887 125.656 -4.38477zM380.282 347.708
c1.83984 95.4727 6.22559 191.102 14.3184 286.089c-20.3965 -2.49902 -39.8135 -5.97754 -57.3721 -10.0059c-106.238 -24.3691 -235.428 -101.78 -238.22 -225.367c-3.12207 -137.867 195.449 -86.501 281.273 -50.7158zM649.729 553.979
c0.228516 4.08301 0.430664 8.15625 0.65918 12.2305c-28.4062 36.2705 -71.6709 56.0898 -119.431 65.208c-4.18359 -65.5283 -8.2666 -131.011 -11.7998 -196.53c7.12207 5.69434 14.1895 11.4248 21.1562 17.2285c38.1104 31.7295 71.25 70.3896 109.415 101.863z" />
    <glyph glyph-name="questiondown" unicode="&#xbf;" horiz-adv-x="544" 
d="M470.507 77.2354c63.0654 -103.419 -9.2002 -233.497 -97.8252 -296.151c-78.958 -55.8242 -223.911 -104.966 -291.948 -7.94531c-79.6543 113.59 14.5459 278.774 68.082 383.549c70.4717 137.904 148.377 269.666 181.452 422.749
c13.0449 60.374 138.215 44.1152 127.815 -19.0693c-37.5342 -228.049 -203.8 -394.781 -290.887 -602.004c-20.3965 -48.5195 -46.7705 -120.31 -5.31836 -166.027c37.5156 -41.3877 106.825 -22.1172 149.732 -0.576172c88.5703 44.4727 180.409 169.671 121.354 268.641
c-13.3291 22.3467 25.6973 36.2705 37.543 16.835zM412.879 661.927c-11.5254 0.402344 -22.4844 5.68652 -29.0576 15.2715c-12.752 18.5928 -10.418 45.4248 -5.94141 66.2236c3.87207 17.9883 28.6992 24.3594 43.8779 22.1074
c16.8447 -2.49902 33.2588 -15.0771 32.8926 -33.5605c-0.375 -18.8496 -2.28809 -40.418 -11.708 -56.832c-5.50195 -9.58496 -19.9199 -13.5674 -30.0635 -13.21z" />
    <glyph glyph-name="Agrave" unicode="&#xc0;" horiz-adv-x="1426" 
d="M1433.89 166.617c18.8125 14.1895 51.8525 -10.3984 29.8271 -26.877c-54.4785 -40.7744 -111.456 -78.0703 -170.448 -111.769c31.2539 -209.026 62.6543 -418.501 75.251 -629.541c4.18359 -70.124 -126.718 -75.9375 -139.406 -10.9404
c-36.6455 187.687 -58.2598 377.955 -78.2627 568.169c-130.132 -58.3691 -267.78 -99.8389 -409.2 -121.764c-75.333 -11.6816 -155.628 -20.04 -236.216 -20.5068c-16.8262 -55.9531 -34.1836 -111.75 -52.9961 -167.071
c-25.5957 -75.2783 -52.6562 -152.899 -119.365 -201.492c-18.3457 -13.3652 -50.3408 10.2539 -28.8457 26c0.0732422 0.0546875 0.12793 0.109375 0.201172 0.164062c0.430664 0.979492 0.870117 1.95898 1.52051 2.95703
c67.4873 103.392 114.148 219.838 137.291 340.751c-122.058 5.96875 -242.037 32.9287 -343.598 97.2852c-75.6992 47.9697 -147.562 126.662 -140.11 222.666c7.41504 95.3633 77.0996 193.399 158.438 240.948c84.6152 49.4619 195.926 48.9492 271.085 -18.0439
c70.7559 -63.0654 95.3174 -162.905 106.403 -253.252c6.19727 -50.4873 7.98242 -101.158 6.00488 -151.563c14.5469 50.4512 29.084 100.902 44.1797 151.188c56.7305 188.959 122.104 376.902 223.555 547.095c41.6621 69.8955 91.6006 155.738 180.198 168.536
c78.5371 11.3428 149.896 -56.1992 188.867 -117.333c51.9336 -81.4668 75.4883 -183.247 91.6553 -277.127c19.5449 -113.517 38.0459 -227.188 54.9912 -341.126l2.30566 -15.4629c50.5977 29.917 99.6113 62.626 146.675 98.1094zM449.605 -147.74
c13.0449 87.1426 14.0068 176.113 1.40137 263.842c-11.5801 80.5605 -35.6387 172.692 -103.227 224.855c-97.0566 74.9209 -223.628 13.8418 -286.666 -73.6484c-64.4209 -89.4033 -77.457 -193.051 3.41406 -276c65.2168 -66.8926 159.371 -102.696 249.122 -121.417
c44.5098 -9.29199 90.0176 -14.9131 135.955 -17.6318zM899.389 -94.8301c85.0273 22.749 167.768 52.791 247.394 89.5195c-3.64355 34.8516 -7.25977 69.7031 -10.9307 104.518c-10.5557 100.105 -18.8135 200.385 -27.8125 300.637
c-8.52246 94.9512 -17.6406 186.845 -48.9854 277.384c-19.041 55.0098 -48.0977 123.596 -121.124 98.5762c-43.3838 -14.8574 -71.7998 -56.2822 -96.123 -92.6621c-54.0576 -80.8535 -98.2832 -168.042 -136.412 -257.399
c-72.1748 -169.158 -121.811 -346.72 -173.396 -522.908c-5.12695 -17.4941 -10.2812 -34.9697 -15.4629 -52.4365c129.629 0.238281 260.942 22.1543 382.854 54.7725zM859.687 871.98c-20.7256 -8.87988 -42.9902 19.3438 -19.124 29.6338
c89.3301 38.5039 181.324 69.0713 275.9 91.8389c23.7832 5.73047 35.2539 -27.1523 9.64844 -33.2588c-91.3809 -21.7969 -180.079 -51.2109 -266.425 -88.2139z" />
    </font>
</defs>
</svg>
