<?xml version="1.0" standalone="no"?>
<!DOCTYPE svg PUBLIC "-//W3C//DTD SVG 1.1//EN" "http://www.w3.org/Graphics/SVG/1.1/DTD/svg11.dtd" >
<svg xmlns="http://www.w3.org/2000/svg" xmlns:xlink="http://www.w3.org/1999/xlink" version="1.1">
<metadata>
Created by FontForge 20170812 at Tue Sep 20 18:46:49 2022
 By www-data
</metadata>
<defs>
<font id="NovemberRegular" horiz-adv-x="0" >
  <font-face 
    font-family="November"
    font-weight="400"
    font-stretch="normal"
    units-per-em="1000"
    panose-1="0 0 0 0 0 0 0 0 0 0"
    ascent="800"
    descent="-200"
    x-height="407.648"
    cap-height="1283.31"
    bbox="-234.001 -797.838 2375.19 1548.35"
    underline-thickness="50"
    underline-position="-100"
    unicode-range="U+000A-20AC"
  />
<missing-glyph horiz-adv-x="527" 
d="M50 700h427v-700h-427v700zM78 680l185 -309l186 309h-371zM251 350l-180 300v-601zM264 329l-185 -308h370zM276 350l181 -303v605z" />
    <glyph glyph-name=".notdef" horiz-adv-x="527" 
d="M50 700h427v-700h-427v700zM78 680l185 -309l186 309h-371zM251 350l-180 300v-601zM264 329l-185 -308h370zM276 350l181 -303v605z" />
    <glyph glyph-name=".null" 
 />
    <glyph glyph-name=".null" 
 />
    <glyph glyph-name="LF" unicode="&#xa;" 
 />
    <glyph glyph-name="controlCR" unicode="&#xd;" 
 />
    <glyph glyph-name="space" unicode=" " horiz-adv-x="290" 
 />
    <glyph glyph-name="exclam" unicode="!" horiz-adv-x="244" 
d="M169.011 -153.638c-0.313477 -29.4902 -69.1094 -28.0264 -73.5977 0.00488281c-14.5312 90.8535 -25.8506 182.131 -31.667 273.995c-20.1377 318.123 -18.9961 638.59 9.05469 956.193c3.87012 43.8193 112.941 42.709 110.892 0
c-4.38086 -91.3408 -7.69531 -182.718 -11.2002 -274.095c-6.10938 -159.298 -8.61133 -318.896 -7.00586 -478.305c1.60547 -159.302 5.2373 -318.484 3.52441 -477.794zM189.815 -234.328c3.75098 -39.7197 1.80078 -80.1748 3.74316 -120.061
c1.62988 -33.332 -85.5996 -34.042 -86.1709 0c-0.662109 39.6758 -1.6377 81.0127 6.22852 120.062c5.80078 28.7959 73.2773 30.9326 76.1992 -0.000976562z" />
    <glyph glyph-name="quotedbl" unicode="&#x22;" horiz-adv-x="322" 
d="M112.81 826.872c10.9629 0 47.1211 -6.24414 42.8672 -24.4346c-18.999 -81.2783 -26.0088 -163.976 -37.166 -246.424c-1.74414 -12.8857 -20.7354 -15.0586 -30.6826 -13.3223c-22.6309 3.94922 -30.3662 16.7598 -33.7002 38.2607
c-3.69531 23.8086 -4.35352 47.835 -4.06836 71.9014c0.598633 50.4277 8.4248 100.578 19.8789 149.583c4.41699 18.8887 25.2637 24.4355 42.8711 24.4355zM190.031 756.108c6.46289 32.0156 86.7334 30.0557 81.833 -0.000976562
c-6.20508 -38.1055 -13.2783 -75.9932 -20.0303 -114.004c-5.62207 -31.6426 -10.4951 -64.915 -19.9111 -95.6143c-4.59082 -14.9746 -32.4473 -10.9541 -42.1885 -6.34668c-13.9043 6.57324 -16.7236 18.8203 -17.7148 33.165
c-1.3916 20.1055 -0.0400391 41.1152 1.56152 61.165c3.2793 41.0195 8.30664 81.29 16.4502 121.636z" />
    <glyph glyph-name="quotedbl" unicode="&#x201d;" horiz-adv-x="322" 
d="M112.81 826.872c10.9629 0 47.1211 -6.24414 42.8672 -24.4346c-18.999 -81.2783 -26.0088 -163.976 -37.166 -246.424c-1.74414 -12.8857 -20.7354 -15.0586 -30.6826 -13.3223c-22.6309 3.94922 -30.3662 16.7598 -33.7002 38.2607
c-3.69531 23.8086 -4.35352 47.835 -4.06836 71.9014c0.598633 50.4277 8.4248 100.578 19.8789 149.583c4.41699 18.8887 25.2637 24.4355 42.8711 24.4355zM190.031 756.108c6.46289 32.0156 86.7334 30.0557 81.833 -0.000976562
c-6.20508 -38.1055 -13.2783 -75.9932 -20.0303 -114.004c-5.62207 -31.6426 -10.4951 -64.915 -19.9111 -95.6143c-4.59082 -14.9746 -32.4473 -10.9541 -42.1885 -6.34668c-13.9043 6.57324 -16.7236 18.8203 -17.7148 33.165
c-1.3916 20.1055 -0.0400391 41.1152 1.56152 61.165c3.2793 41.0195 8.30664 81.29 16.4502 121.636z" />
    <glyph glyph-name="quotedbl" unicode="&#x201c;" horiz-adv-x="322" 
d="M112.81 826.872c10.9629 0 47.1211 -6.24414 42.8672 -24.4346c-18.999 -81.2783 -26.0088 -163.976 -37.166 -246.424c-1.74414 -12.8857 -20.7354 -15.0586 -30.6826 -13.3223c-22.6309 3.94922 -30.3662 16.7598 -33.7002 38.2607
c-3.69531 23.8086 -4.35352 47.835 -4.06836 71.9014c0.598633 50.4277 8.4248 100.578 19.8789 149.583c4.41699 18.8887 25.2637 24.4355 42.8711 24.4355zM190.031 756.108c6.46289 32.0156 86.7334 30.0557 81.833 -0.000976562
c-6.20508 -38.1055 -13.2783 -75.9932 -20.0303 -114.004c-5.62207 -31.6426 -10.4951 -64.915 -19.9111 -95.6143c-4.59082 -14.9746 -32.4473 -10.9541 -42.1885 -6.34668c-13.9043 6.57324 -16.7236 18.8203 -17.7148 33.165
c-1.3916 20.1055 -0.0400391 41.1152 1.56152 61.165c3.2793 41.0195 8.30664 81.29 16.4502 121.636z" />
    <glyph glyph-name="numbersign" unicode="#" horiz-adv-x="719" 
d="M639.775 323.985c-38.9541 -0.999023 -77.9102 -1.65918 -116.872 -2.29395c-4.30176 -21.1084 -8.5166 -42.2324 -12.6123 -63.377c41.1191 -1.42383 82.2266 -3.32715 123.31 -5.76172c6.71191 -0.400391 21.1875 -2.41895 21.1875 -12.0771
c0 -9.09082 -14.21 -12.501 -21.1885 -12.0771c-42.6055 2.58105 -85.2393 4.59473 -127.885 6.08984c-37.8994 -199.132 -67.5723 -399.771 -96.3809 -600.532c-3.57617 -24.9111 -65.1807 -25.3438 -64.4912 -0.000976562
c2.36328 86.6709 8.17969 172.826 16.8389 259.101c11.5371 114.987 27.7178 229.736 47.8115 343.887c-30.7354 0.491211 -61.4746 0.729492 -92.2139 0.654297c-6.10547 -28.9395 -11.8984 -57.958 -17.3662 -87.0596
c-13.9326 -74.1494 -25.5059 -148.537 -35.3467 -223.333c-9.66211 -73.4316 -14.582 -148.386 -27.6299 -221.259c-4.79297 -26.75 -67.75 -28.249 -70.1289 0c-7.14062 84.7949 1.84766 173.646 10.9307 258.005c9.78906 90.9131 23.2451 181.944 40.5117 272.417
c-49.2549 -1.08594 -98.498 -2.87793 -147.713 -5.41113c-6.50195 -0.336914 -20.5371 2.86621 -20.5371 11.7041c0 9.33301 13.7578 11.3467 20.5381 11.7031c50.7529 2.68066 101.538 4.56348 152.335 5.70508c3.58789 18.0752 7.33105 36.123 11.2285 54.1387
c-5.49121 -0.213867 -10.9863 -0.392578 -16.4814 -0.614258c-45.6465 -1.84375 -93.4619 -7.41797 -138.946 -2.36719c-22.3379 2.47754 -19.1348 21.1006 -0.000976562 25.4346c45.5361 10.3164 96.3096 8.50879 142.853 10.5391
c6.68848 0.292969 13.3809 0.535156 20.0693 0.816406c38.0537 167.215 89.5918 331.5 155.808 488.423c13.873 32.8838 108.742 24.9229 93.9658 -14.7646c-29.2285 -78.5107 -57.0889 -157.422 -82.6934 -237.189c-24.6611 -76.8301 -46.333 -154.417 -65.4199 -232.65
c5.01172 0.166992 10.0234 0.365234 15.0391 0.523438c24.4434 0.777344 48.8945 1.53418 73.3496 2.21191c29.0615 145.338 64.1543 289.486 103.98 431.64c5.83203 20.8193 45.6943 22.3184 61.2676 19.8281c18.0791 -2.89062 40.7461 -13.4365 34.7871 -34.9219
c-22.873 -82.4639 -44.1992 -165.392 -64.2852 -248.577c-13.3096 -55.127 -25.6914 -110.424 -37.3125 -165.859c36.5674 0.5 73.1387 0.619141 109.694 0.111328c9.12305 -0.126953 28.7764 -3.58789 28.7764 -16.4023c0 -12.9053 -19.2725 -16.1562 -28.7764 -16.4023z
M413.796 260.741c3.57617 19.7646 7.26758 39.5098 11.0742 59.2305c-22.1953 -0.44043 -44.3867 -0.935547 -66.5781 -1.55762c-7.73535 -0.217773 -15.4746 -0.491211 -23.21 -0.725586c-4.38477 -18.75 -8.62695 -37.5352 -12.7227 -56.3564
c30.4775 0.0830078 60.959 -0.119141 91.4365 -0.59082z" />
    <glyph glyph-name="dollar" unicode="$" horiz-adv-x="632" 
d="M573.909 7.87988c16.7754 -72.7305 10.5439 -155.11 -48.96 -207.493c-45.1904 -39.7832 -108.346 -34.8311 -161.978 -14.0361c2.33496 -111.006 4.44824 -222.012 4.77734 -333.073c0.0556641 -19.8477 -49.124 -19.7998 -50.6152 0
c-9.17871 122.044 -13.8057 243.458 -14.8604 365.76c-49.0723 34.791 -86.627 84.8662 -108.151 141.071c-13.79 35.9961 -21.6406 74.4111 -24.2334 112.834c-2.33496 34.6719 -5.25684 75.5332 16.6406 104.658c8.80957 11.7197 47.8389 4.77344 35.4648 -11.8154
c-13.9248 -18.666 -11.9941 -46.8281 -11.6416 -68.916c0.369141 -22.8057 2.51367 -45.583 6.625 -68.0234c7.87793 -42.9902 23.8721 -85.0254 47.9268 -121.604c10.6807 -16.2402 23.1973 -31.4414 37.1689 -45.1475c-0.376953 121.588 1.58203 243.168 4.63086 364.725
c-103.216 102.724 -207.533 207.961 -243.458 354.258c-19.5664 79.6846 -18.0127 158.933 8.41699 236.964c24.2646 71.6357 68.0439 132.027 132.02 172.825c39.918 25.458 88.7959 38.7002 136.191 35.0088c3.83789 53.7822 8.16699 107.518 13.1387 161.177
c1.34766 14.5195 37.4785 14.1309 36.7373 0c-2.95801 -56.2725 -6.16992 -112.529 -9.33398 -168.79c5.25684 -1.60938 10.4746 -3.37012 15.5928 -5.47559c67.7305 -27.8447 91.4678 -90.6475 101.209 -158.703c2.33887 -16.335 -41.3174 -17.457 -44.1084 0
c-6.61719 41.3887 -17.4131 86.3496 -49.627 115.749c-7.49707 6.83887 -15.8906 12.3701 -24.835 16.6953c-3.36621 -60.4033 -6.61328 -120.811 -9.33301 -181.246c-7.25586 -161.256 -11.7246 -322.473 -12.8467 -483.784
c88.6094 -93.5693 188.051 -186.199 217.441 -313.616zM315.037 509.78c5.19824 162.521 11.8096 325.286 22.8555 487.645c-11.5654 0.904297 -23.3057 0.163086 -34.7324 -2.27148c-75.3789 -16.0537 -118.417 -103.12 -133.947 -171.545
c-35.0566 -154.456 31.1514 -318.947 128.863 -437.015c4.13086 -4.99121 8.36914 -9.95117 12.6475 -14.8994c1.3916 46.0312 2.84277 92.0625 4.31348 138.086zM471.918 -197.742c76.3496 39.8418 38.7002 149.684 8.5 207.45
c-32.7686 62.6836 -75.4854 116.458 -124.003 167.057c0.0908203 -15.1494 0.134766 -30.2988 0.289062 -45.4521c1.07031 -104.528 3.36621 -209.009 5.59473 -313.489c32.6143 -17.5205 76.4453 -32.876 109.619 -15.5654z" />
    <glyph glyph-name="percent" unicode="%" horiz-adv-x="893" 
d="M823.336 929.358c-58.374 -100.643 -116.34 -201.53 -172.021 -303.703c-99.7148 -182.939 -194.521 -368.631 -282.79 -557.367c-44.2158 -94.541 -87.9004 -189.312 -129.63 -284.982c-41.7891 -95.8057 -80.2158 -193.315 -123.385 -288.475
c-9.9873 -22.0205 -73.3809 -18.2939 -64.6943 10.165c33.6807 110.349 77.6465 218.429 120.72 325.383c154.79 384.348 337.912 759.382 551.146 1114.79c12.3701 20.6172 42.6172 24.2334 64.2012 20.7803c14.4082 -2.30371 48.5059 -15.8154 36.4531 -36.5947z
M165.89 549.227c-1.79199 1.24512 -3.17676 2.76953 -3.94238 4.60547c-16.9531 40.7783 -10.4434 89.0176 1.36426 130.481c11.5098 40.4131 37.1934 76.8574 75.0371 96.4756c65.459 33.9268 149.861 16.0098 182.048 -53.6396
c31.7461 -68.6904 20.0693 -158.786 -0.94043 -228.59c-10.7686 -35.7744 -28.4678 -70.2998 -59.29 -92.7246c-36.3018 -26.4092 -88.7881 -27.7646 -126.073 -2.21191c-36.2109 24.8193 -50.6787 70.7637 -60.9082 111.359
c-2.86621 11.375 -5.29688 22.79 -7.29492 34.2441zM245.109 731.648c-14.1699 -15.4385 -26.6055 -35.6123 -35.6055 -57.6484c19.4238 -1.32812 37.0195 -9.68945 36.1904 -24.7676c-2.09375 -38.0107 -0.174805 -76.1279 7.39844 -113.484
c6.35938 -31.373 16.0293 -77.6465 41.6699 -99.4961c1.22559 -1.04688 2.78809 -1.91504 4.17188 -2.64062c2.42285 1.32812 5.45996 2.84277 6.95508 4.03223c10.249 8.15137 18.6348 18.7373 25.3594 29.8779c15.4111 25.5332 25.1367 54.7812 32.3086 83.5898
c13.3174 53.4775 20.8896 117.549 -3.50977 169.131c-9.08691 19.209 -25.1523 39.9727 -47.7637 42.9541c-25.5215 3.36621 -50.8086 -13.7139 -67.1748 -31.5479zM823.31 284.585c31.7461 -68.6904 20.0684 -158.788 -0.9375 -228.592
c-10.7686 -35.7744 -28.4678 -70.2998 -59.29 -92.7246c-36.3018 -26.4092 -88.7881 -27.7646 -126.073 -2.21191c-36.2109 24.8193 -50.6787 70.7637 -60.9082 111.359c-2.86621 11.375 -5.29688 22.79 -7.29492 34.2441
c-1.7959 1.24121 -3.17969 2.77148 -3.94531 4.60742c-16.9531 40.7783 -10.4434 89.0176 1.36426 130.481c11.5098 40.4131 37.1934 76.8574 75.0371 96.4756c65.459 33.9268 149.861 16.0098 182.048 -53.6396zM766.474 108.546
c13.3174 53.4775 20.8877 117.549 -3.51172 169.135c-9.08691 19.209 -25.1523 39.9727 -47.7637 42.9541c-25.5215 3.36621 -50.8086 -13.7139 -67.1748 -31.5479c-14.1699 -15.4434 -26.6035 -35.6123 -35.6035 -57.6523
c19.4238 -1.32812 37.0195 -9.68945 36.1904 -24.7676c-2.09375 -38.0107 -0.174805 -76.1279 7.39844 -113.484c6.35938 -31.373 16.0293 -77.6465 41.6699 -99.4961c1.22559 -1.04688 2.78809 -1.91504 4.17188 -2.64062c2.42285 1.32812 5.45996 2.84277 6.95508 4.03223
c10.249 8.15137 18.6348 18.7373 25.3594 29.8779c15.4111 25.5332 25.1367 54.7812 32.3086 83.5898z" />
    <glyph glyph-name="ampersand" unicode="&#x26;" horiz-adv-x="998" 
d="M838.825 339.75c73.4082 -44.5049 115.252 -138.45 108.932 -222.773c-7.41016 -98.9258 -61.7871 -188.201 -125.601 -261.399c-61.8506 -70.9502 -139.489 -130.125 -224.883 -169.864c-2.22461 -1.03516 -4.46484 -2.05371 -6.70508 -3.07227
c3.16797 -56.8711 6.75195 -113.75 10.7607 -170.652c1.62598 -23.083 -57.8418 -23.7373 -60.1533 0c-4.73438 48.668 -7.9375 97.4785 -10.166 146.341c-78.9111 -28.3994 -164.202 -43.5527 -246.603 -28.9189c-91.9551 16.3311 -180.897 75.1885 -203.632 170.225
c-23.1104 96.6221 12.3828 205.281 57.5938 290.382c45.8564 86.3096 109.531 162.279 177.999 231.473c3.5166 3.55664 7.06934 7.08887 10.6221 10.6133c-53.7393 -7.50977 -108.62 -6.87891 -158.497 11.7002c-69.1025 25.7393 -110.257 80.9648 -117.509 154.071
c-7.2002 72.5518 26.1797 144.207 64.25 203.782c67.9287 106.3 175.51 187.582 292.927 232.649c43.2676 16.6084 90.5674 28.9707 137.519 29.2637c-0.142578 56.6055 -0.808594 113.219 -2.21582 169.836c-0.392578 15.8311 40.1875 15.9814 40.6396 -0.000976562
c1.62988 -57.6201 2.50586 -115.252 2.84277 -172.889c8.45703 -1.37207 16.8623 -3.21582 25.1846 -5.59473c53.707 -15.3633 102.997 -57.7783 110.831 -115.24c8.46875 -62.1484 -29.2764 -126.655 -70.7168 -169.986
c-20.2803 -21.2041 -43.4541 -38.8828 -68.6143 -53.0332c-0.733398 -34.4307 -1.52637 -68.8613 -2.31543 -103.292c19.1182 4.76953 39.1758 4.30176 57.8184 -3.99219c15.0938 -6.7168 34.7275 -28.1699 15.1016 -43.1133
c-23.8682 -18.1748 -48.9697 -34.6289 -75.0381 -49.3623c-0.625977 -30.0059 -1.18066 -60.0078 -1.65625 -90.0137c81.1953 39.3506 182.702 60.5068 261.284 12.8623zM586.314 772.881c-0.456055 -39.8545 -1.17188 -79.7031 -1.96875 -119.55
c17.6113 13.373 33.6328 28.8955 47.6211 46.0986c38.2607 47.0537 70.709 119.871 37.0635 177.562c-19.9941 34.2871 -49.0322 52.0254 -81.9873 58.6504c0.170898 -54.2539 -0.106445 -108.512 -0.728516 -162.762zM532.609 302.06
c0.816406 30.6836 1.67285 61.3643 2.53711 92.0322c-14.4043 -6.78809 -29.0459 -13.0723 -43.9023 -18.8369c-35.2588 -28.1504 -68.333 -58.9922 -100.233 -90.8652c-67.9482 -67.8936 -131.067 -142.436 -175.62 -228.023
c-38.2646 -73.5029 -70.8984 -166.735 -54.9961 -250.599c15.2246 -80.2871 92.0068 -130.628 169.618 -137.079c66.9492 -5.5625 136.27 13.2627 199.036 40.3301c-1.74414 54.1904 -2.47363 108.417 -2.69531 162.584c-0.539062 131.092 1.93848 262.156 5.28516 393.213
c-23.9238 -18.0996 -45.9082 -38.7559 -65.4863 -61.4785c-13.6865 -15.8828 -26.1162 -32.7891 -37.2773 -50.5352c-9.11914 -14.4951 -25.9102 -39.7275 -11.7715 -55.8721c13.2539 -15.1338 -25.248 -22.124 -34.7158 -11.5654
c-32.4834 36.2266 17.0762 92.3281 40.2383 120.66c30.9297 37.8359 68.5078 70.2168 109.983 96.0352zM541.411 626.737c2.48633 103.941 4.28125 207.891 4.30469 311.848c-62.2832 -2.55371 -130.375 -32.9834 -176.156 -61.5498
c-85.707 -53.4814 -154.825 -139.585 -192.11 -233.487c-21.1445 -53.2549 -32.1904 -114.769 -9.97168 -169.519c9.13477 -22.5078 25.541 -45.2422 45.6025 -59.333c8.83789 -6.20898 13.5635 -7.83887 24.5654 -11.1533
c0.662109 -0.198242 1.17383 -0.352539 1.61426 -0.487305c3.58789 -0.741211 7.1875 -1.28027 10.7998 -1.92285c2.59668 -0.459961 3.79004 -0.737305 4.28613 -0.899414c0.650391 0.0361328 1.87988 0.0478516 4.15918 -0.0078125
c7.46973 -0.178711 14.9072 -0.0791016 22.373 0.202148c0.491211 0.0195312 0.911133 0.0351562 1.28418 0.046875c2.52539 0.246094 5.05078 0.515625 7.56836 0.8125c14.1504 1.66895 28.2178 4.06738 42.1895 6.85449c24.6494 4.91602 49.584 12.041 77.0166 21.668
c25.5371 8.96484 50.166 19.7139 74.165 31.7471c17.7539 12.1045 36.0078 23.5156 54.8721 33.4629c0.939453 33.875 1.84766 67.75 2.69629 101.625c-14.9238 -5.62598 -30.3037 -10.1816 -46.0166 -13.5957c-21.0566 -4.5752 -38.7676 17.3818 -11.2637 23.2891
c20.209 4.33789 39.6445 11.3037 58.0215 20.3994zM893.745 120.282c9.43262 78.7959 -14.2217 161.775 -86.2422 204.413c-69.7012 41.2617 -162.926 9.12305 -230.45 -29.8789c-0.658203 -49.7031 -1.03125 -99.4102 -0.860352 -149.117
c0.463867 -136.361 4.62305 -272.338 11.4746 -408.274c70.8867 38.1377 134.454 88.4189 187.634 148.97c57.1406 65.0664 107.961 146.325 118.444 233.888z" />
    <glyph glyph-name="quotesingle" unicode="'" horiz-adv-x="196" 
d="M69.0674 809.819c6.86719 27.4209 85.3115 21.71 75.9863 -11.9395c-9.59473 -34.6201 -17.1992 -69.6328 -22.0645 -105.232c-2.39844 -17.5479 -4.3291 -35.1475 -6.625 -52.7031c-2.11328 -16.1768 -2.94238 -33.7324 -9.87695 -48.5723
c-6.35156 -13.5869 -35.5996 -12.0527 -42.5342 0c-17.0918 29.7158 -14.582 75.4453 -12.3818 108.781c2.45801 37.1973 8.44043 73.5186 17.4961 109.666z" />
    <glyph glyph-name="quotesingle" unicode="&#x2019;" horiz-adv-x="196" 
d="M69.0674 809.819c6.86719 27.4209 85.3115 21.71 75.9863 -11.9395c-9.59473 -34.6201 -17.1992 -69.6328 -22.0645 -105.232c-2.39844 -17.5479 -4.3291 -35.1475 -6.625 -52.7031c-2.11328 -16.1768 -2.94238 -33.7324 -9.87695 -48.5723
c-6.35156 -13.5869 -35.5996 -12.0527 -42.5342 0c-17.0918 29.7158 -14.582 75.4453 -12.3818 108.781c2.45801 37.1973 8.44043 73.5186 17.4961 109.666z" />
    <glyph glyph-name="quotesingle" unicode="&#x2018;" horiz-adv-x="196" 
d="M69.0674 809.819c6.86719 27.4209 85.3115 21.71 75.9863 -11.9395c-9.59473 -34.6201 -17.1992 -69.6328 -22.0645 -105.232c-2.39844 -17.5479 -4.3291 -35.1475 -6.625 -52.7031c-2.11328 -16.1768 -2.94238 -33.7324 -9.87695 -48.5723
c-6.35156 -13.5869 -35.5996 -12.0527 -42.5342 0c-17.0918 29.7158 -14.582 75.4453 -12.3818 108.781c2.45801 37.1973 8.44043 73.5186 17.4961 109.666z" />
    <glyph glyph-name="parenleft" unicode="(" horiz-adv-x="653" 
d="M595.609 -426.554c10.1738 -6.47461 10.3438 -16.585 -0.00390625 -23.0195c-64.7764 -40.3223 -146.336 -43.5381 -218.016 -21.918c-76.4531 23.0596 -137.911 74.1338 -183.692 138.407c-85.9209 120.629 -120.411 277.869 -135.231 422.695
c-16.1211 157.557 -9.07129 317.996 15.5303 474.316c24.1689 153.592 67.8848 307.125 136.281 447.055c30.9854 63.3887 75.0146 131.369 137.452 167.738c46.2295 26.9287 135.854 27.6816 149.496 -38.3242c2.63672 -12.7666 -32.6299 -14.3164 -36.5078 -2.81445
c-26.8574 79.6689 -107.311 -44.0322 -122.456 -72.1748c-34.7002 -64.4873 -57.8779 -134.906 -79.9619 -204.465c-82.3135 -259.262 -108.834 -546.016 -72.8652 -815.836c16.3623 -122.75 41.9629 -255.892 108.6 -362.426
c52.6084 -84.1094 160.324 -162.133 260.986 -109.234c11.4658 6.02246 29.085 7.19238 40.3887 0z" />
    <glyph glyph-name="parenright" unicode=")" horiz-adv-x="653" 
d="M587.562 505.244c19.8086 -157.164 22.5635 -317.91 -0.0673828 -474.92c-20.375 -141.365 -63.1152 -296.722 -160.938 -405.321c-89.0098 -98.8145 -249.12 -149.024 -368.722 -74.5732c-10.4434 6.50195 -10.4473 16.5371 0 23.0234
c11.5293 7.16016 28.7285 6.125 40.3887 -0.000976562c51.3359 -26.9766 111.244 -18.4805 160.824 8.94824c54.8447 30.3428 93.9893 83.4033 121.553 138.55c57.3984 114.836 80.8506 249.421 93.1895 376.1c13.417 137.776 10.5938 278.134 -5.49512 415.55
c-15.8672 135.509 -45.6748 268.071 -89.1807 397.352c-20.1611 59.9082 -42.4912 121.256 -75.5498 175.423c-16.9492 27.7734 -86.8486 123.959 -111.038 52.2119c-3.84961 -11.415 -39.1641 -10.0469 -36.5078 2.81445c6.14551 29.7402 33.4072 48.8506 62.2549 54.4131
c40.4609 7.80273 77.9873 -7.13281 109.643 -31.5957c65.8828 -50.9121 105.824 -128.214 138.269 -202.994c62.584 -144.247 101.74 -299.155 121.378 -454.979z" />
    <glyph glyph-name="asterisk" unicode="*" horiz-adv-x="380" 
d="M327.322 596.177c5.93164 -7.27148 0.109375 -13.7842 -7.52246 -16.3574c-33.1816 -11.1611 -67.3857 -13.6387 -101.852 -14.0664c27.4209 -20.748 54.5244 -41.8047 77.8291 -67.4014c14.0195 -15.3994 -26.1914 -23.0752 -36.2148 -12.0654
c-14.6504 16.0889 -30.8027 30.4014 -47.5938 43.9932c0.134766 -26.9648 -0.22168 -53.9414 -1.7041 -80.8389c-1.3916 -25.2598 -64.3213 -24.9072 -64.0557 0c0.22168 20.8428 0.708984 41.6738 1.11719 62.5049c-4.38477 -4.58691 -8.74219 -9.20215 -13.0078 -13.9004
c-5.28516 -5.82031 -22.2383 -20.1846 -22.1982 -28.2725c0.0791016 -16.0889 -33.5859 -13.6309 -39.4854 -3.04492c-8.50879 15.2725 21.1875 38.6484 30.5205 48.6318c14.6182 15.6367 29.7197 30.8262 44.7705 46.0547
c0.00390625 1.41113 0.0234375 2.82227 0.0234375 4.2334c-24.6172 -0.475586 -49.1035 -2.17676 -73.1855 -7.5293c-20.6484 -4.59082 -37.8203 16.5576 -11.0342 22.8145c23.6816 5.52734 47.6367 7.66016 71.6953 8.53613
c-4.13086 3.37793 -8.22266 6.7998 -12.2471 10.3047c-5.35254 4.66211 -33.2969 38.375 -39.502 37.415c-19.665 -3.04102 -36.8008 17.2471 -10.5732 21.8623c21.7148 3.82227 39.7744 -3.88965 55.7324 -18.4326c6.24805 -5.69336 12.3936 -11.4268 18.5469 -17.1357
c-0.0361328 2.2959 -0.0722656 4.5918 -0.103516 6.8877c-0.292969 20.6094 -2.92969 42.4912 -0.0390625 62.8818c2.77539 19.5938 51.2725 23.7881 56.0977 4.3252c5.68945 -22.9404 7.19629 -47.6924 7.64062 -72.3301c21.0771 21.2119 42.2139 42.3564 63.4775 63.3936
c9.44043 9.34082 45.8652 2.80273 32.8447 -10.9434c-27.5752 -29.1172 -55.3408 -58.0322 -83.2568 -86.8125c25.0615 0.967773 49.9961 3.35449 74.5898 9.58301c8.17578 2.06934 22.4531 3.35352 28.6895 -4.29102z" />
    <glyph glyph-name="plus" unicode="+" horiz-adv-x="364" 
d="M292.651 301.949c6.91895 0.253906 21.8369 -2.97754 21.8369 -12.457c0 -9.84863 -14.626 -12.1758 -21.8379 -12.4453c-20.9697 -0.78125 -41.9395 -1.31641 -62.9131 -1.71289c-0.119141 -4.06348 -0.273438 -8.12695 -0.376953 -12.1904
c-1.02734 -40.7822 -2.41504 -81.6396 -4.25098 -122.39c-0.947266 -21.0332 -1.50586 -42.1494 -2.83789 -63.1631c-1.25684 -19.7959 -1.86719 -42.6572 -11.0938 -60.5029c-10.7607 -20.8115 -55.5234 -19.4238 -66.7871 0
c-9.95605 17.1592 -12.0967 40.9238 -13.7979 60.502c-1.82812 21.0137 -3.25586 42.1064 -4.50488 63.1631c-2.41016 40.6514 -3.42871 81.667 -3.12695 122.39c0.03125 3.94531 0.0625 7.89844 0.0898438 11.8438c-16.9971 0.213867 -33.9941 0.523438 -50.9912 0.995117
c-6.99414 0.194336 -22.0566 2.68066 -22.0566 12.5732c0 9.62305 14.7764 12.7832 22.0557 12.5732c17.0645 -0.491211 34.1328 -0.824219 51.1973 -1.05859c0.634766 70.5928 2.04199 141.499 9.5752 211.589c4.47656 41.6582 107.335 41.6104 106.554 0
c-1.32031 -70.4863 -6.12207 -140.877 -8.81445 -211.343c20.6963 0.373047 41.3887 0.884766 62.0811 1.63379z" />
    <glyph glyph-name="comma" unicode="," horiz-adv-x="241" 
d="M106.638 65.5127c13.3096 29.7959 97.9619 18.5029 82.2617 -12.9297c-15.4434 -30.9053 -29.5859 -62.3145 -43.2842 -94.0166c-12.7354 -29.4707 -22.877 -68.7266 -45.2705 -92.1152c-9.0752 -9.47949 -43.0293 -12.2861 -47.8389 3.56543
c-8.72656 28.7529 7.45801 69.2139 16.0615 97.0186c10.3955 33.6055 23.7295 66.3867 38.0703 98.4775z" />
    <glyph glyph-name="hyphen" unicode="-" horiz-adv-x="380" 
d="M287.842 298.104c13.0596 0.761719 42.8672 -6.00098 42.4395 -24.1875c-0.459961 -19.3838 -28.0869 -23.3525 -42.4355 -24.1895c-71.1367 -4.14355 -142.206 -4.33008 -213.224 1.77148c-10.2529 0.879883 -27.0039 8.5752 -24.3398 21.251
c2.84277 13.5156 22.2227 16.3223 33.3721 16.7939c68.0635 2.89453 136.163 4.5957 204.188 8.56055z" />
    <glyph glyph-name="period" unicode="." horiz-adv-x="159" 
d="M107.579 5.98145c1.65332 -12.0967 1.39941 -23.4258 0.194336 -35.5742c-2.24023 -22.4766 -56.9502 -22.6475 -57.5527 -0.000976562c-0.317383 11.9502 -0.369141 23.6465 0.368164 35.5762c0.702148 11.3555 -0.206055 23.3486 4.64648 33.8271
c6.75195 14.5869 35.584 11.4424 43.3672 0c6.52637 -9.59473 7.42285 -22.4609 8.97656 -33.8281z" />
    <glyph glyph-name="slash" unicode="/" horiz-adv-x="602" 
d="M453.483 888.271c16.4385 32.25 113.616 25.3066 96.8887 -15.2217c-33.8115 -81.9561 -66.8467 -164.245 -101.083 -246.027c-60.1895 -143.775 -116.922 -289.181 -169.603 -435.878c-26.8135 -74.6807 -53.1797 -149.575 -78.8086 -224.668
c-25.3506 -74.2764 -46.5186 -153.596 -88.2715 -220.498c-10.0547 -16.1094 -61.6924 -21.3115 -62.4854 4.82031c-1.37207 45.2344 9.34082 86.8809 20.5967 130.406c10.9785 42.4512 22.7939 84.5654 35.4414 126.553c90.8457 301.555 204.215 599.782 347.324 880.514z
" />
    <glyph glyph-name="zero" unicode="0" horiz-adv-x="583" 
d="M98.5908 726.206c18.2617 45.1035 40.2441 91.1895 76.0977 125.132c66.2236 62.6836 163.599 61.3516 229.604 -0.53125c67.7148 -63.4844 96.3447 -155.312 111.094 -244.314c17.1475 -103.47 20.0176 -210.321 16.4766 -314.933
c-3.45703 -102.065 -15.3076 -206.8 -40.2422 -305.955c-11.6885 -46.4678 -26.6836 -92.5938 -48.8311 -135.203c-20.3516 -39.1562 -44.9971 -79.3711 -80.3984 -106.617c-84.5576 -65.082 -200.04 -37.709 -254.532 50.876
c-50.6816 82.3848 -52.4102 189.985 -47.3828 283.622c4.73438 88.1807 17.4531 179.731 39.9775 266.397c-3.4375 1.74023 -6.72461 3.82129 -9.78906 6.26758c-19.083 15.2324 -25.2129 40.75 -30.585 63.3809c-12.2549 51.6094 -12.6436 105.142 -4.89648 157.473
c7.85059 53.0176 23.3252 104.794 43.4072 154.405zM246.222 -234.08c3.38965 -0.503906 4.47266 0.321289 0 0zM293.693 875.084c-38.8311 1.91113 -74.1348 -24.1445 -97.9473 -52.3701c-25.3076 -29.9814 -41.8486 -66.8301 -56.499 -102.897
c-16.2002 -39.8857 -29.5254 -81.1357 -37.7803 -123.428c-7.90625 -40.4922 -11.4785 -82.0234 -8.5166 -123.241c0.677734 -9.42871 6.17676 -62.0615 17.7773 -91.6074c1.59766 5.35645 3.21094 10.7051 4.8877 16.0137
c6.60938 20.9062 70.4746 19.3721 67.1719 -5.18164c-6.87891 -51.1738 -19.2256 -101.499 -27.8291 -152.423c-8.61133 -50.9639 -15.1768 -102.315 -17.9883 -153.945c-4.76953 -87.5312 -7.02539 -199.093 46.8047 -273.956
c10.5508 -14.6699 24.4629 -28.043 40.1279 -37.0312c6.63672 -3.80664 13.2812 -7.03027 20.7949 -8.81055c0.217773 -0.0517578 0.396484 -0.0751953 0.602539 -0.115234c1.73242 0.289062 4.23438 0.614258 3.68359 0.388672
c3.34277 1.36816 7.30371 3.74707 10.1621 5.74121c4.97949 3.46875 9.57031 8.13574 13.7412 12.5371c11.1172 11.7275 19.9189 25.2715 28.0742 39.168c40.4883 68.9756 63.7656 147.066 79.4072 225.038c34.7432 173.222 44.5479 354.972 35.4014 531.23
c-3.88965 74.9707 -10.2607 152.034 -42.8037 220.867c-15.1934 32.1348 -39.708 72.0762 -79.2725 74.0225z" />
    <glyph glyph-name="one" unicode="1" horiz-adv-x="425" 
d="M164.928 -235.634c0 9.41211 13.7637 11.2334 20.5352 11.7129c16.1846 1.12598 32.3652 2.25586 48.5498 3.38184c-3.00488 4.13086 -4.91211 8.86523 -5.26855 14.2529c-7.00586 105.733 -4.51172 211.704 -0.5625 317.536
c3.46094 92.7568 7.92969 185.557 15.3877 278.079c7.26758 90.1514 16.3506 180.39 19.8672 270.787c1.77246 45.5635 4.1748 91.04 4.29785 136.659c0.0986328 37.1543 3.93652 78.9629 -3.5293 115.582c-11.6367 57.0889 -71.7666 4.25 -92.9111 -16.085
c-31.3496 -30.1562 -59.3252 -63.4961 -83.832 -99.4209c-7.88184 -11.5498 -44.5088 -6.7168 -36.2617 5.69727c28.8955 43.4941 62.3701 84.4902 101.217 119.52c31.2822 28.21 73.8525 51.6533 116.458 34.5332c32.5791 -13.0918 52.3711 -51.8398 62.3545 -83.3008
c15.3398 -48.3311 25.0576 -98.1484 30.6562 -148.518c11.2598 -101.332 5.78027 -203.418 1.35547 -305c-4.54004 -104.119 -8.8418 -208.246 -10.7412 -312.449c-1.90332 -104.563 -1.33594 -209.15 -6.36328 -313.619
c-0.111328 -2.30371 -0.567383 -4.45703 -1.19336 -6.53027c3.01367 0.209961 6.03125 0.419922 9.04492 0.629883c6.56152 0.456055 20.752 -2.98535 20.752 -11.8311c0 -9.50781 -13.9082 -11.3633 -20.751 -11.8311
c-15.6768 -1.07031 -31.3496 -2.13672 -47.0225 -3.20703c-7.81055 -1.49121 -16.1211 -2.0625 -24.3242 -1.6582l-97.1777 -6.62402c-6.49805 -0.444336 -20.5371 2.94531 -20.5371 11.7031z" />
    <glyph glyph-name="two" unicode="2" horiz-adv-x="603" 
d="M316.093 2.88086c61.8711 145.473 89.3574 302.203 106.545 458.547c9.1709 83.3955 18.5957 166.914 17.8818 250.968c-0.575195 67.5918 5.14648 164.174 -51.6846 212.977c-26.1992 22.4922 -61.6885 36.4961 -95.5039 23.7852
c-32.832 -12.3428 -58.0762 -41.2734 -76.7305 -69.9473c-41.8799 -64.3721 -62.2148 -140.194 -60.4902 -216.755c0.360352 -16.0176 -40.707 -16.1406 -41.0723 0c-2.06934 91.9355 27.1992 190.627 89.8467 259.666c58.5723 64.5469 149.314 72.9043 217.116 16.9893
c67.8535 -55.9629 96.793 -142.209 108.58 -226.711c13.4131 -96.1348 9.06348 -194.208 1.29688 -290.672c-7.43359 -92.3643 -20.1445 -183.57 -42.3711 -273.603c-20.8945 -84.6367 -49.9131 -169.027 -97.0029 -242.915
c-20.1328 -31.5918 -44.8018 -60.8555 -72.8086 -85.8809c23.7773 -9.59863 47.7842 -18.5 72.7705 -25.4502c34.1562 -9.5 90.8809 -30.1963 121.568 -3.12891c11.1289 9.81641 50.7139 1.02637 35.8418 -11.9424c-27.5 -23.9834 -63.8057 -26.5283 -98.6562 -22.2783
c-40.96 4.99609 -82.1982 17.0449 -121.002 30.7754c-11.3984 4.03613 -22.6064 8.63965 -33.7393 13.4531c-28.1426 -19.4746 -60.1025 -32.1504 -92.0986 -44.457c-34.4541 -13.2539 -78.0986 -25.7627 -114.483 -13.8682
c-36.1475 11.8154 -52.165 46.5908 -29.2285 78.916c39.1406 55.166 113.615 50.6621 173.179 32.1787c33.2607 46.3838 59.7734 96.5146 82.2461 149.354zM157.999 -224.867c26.8496 13.2939 42.7764 35.0615 60.7207 58.1641c-4.48828 1.5459 -9 3.0166 -13.5557 4.35254
c-35.0449 10.2891 -78.333 9.80566 -103.493 -20.918c-13.2266 -16.1484 -17.0088 -44.1758 7.44629 -51.7998c15.0625 -4.69824 35.3301 3.49316 48.8818 10.2012z" />
    <glyph glyph-name="three" unicode="3" horiz-adv-x="632" 
d="M337.024 233.128c-110.233 -44.751 -202.195 -148.576 -234.774 -263.1c-15.415 -54.2109 -10.4072 -113.061 28.7607 -156.099c31.2109 -34.2959 79.6133 -53.0576 125.76 -51.2373c103.838 4.09961 179.034 98.9141 204.381 191.856
c29.332 107.541 4.20703 229.185 -53.5088 322.877c-52.4785 85.1914 -144.283 149.322 -235.521 169.443c-20.8271 4.59473 -58.584 22.0674 -34.2676 48.0127c51.1699 54.5957 95.7979 114.912 132.405 180.2c32.6855 58.2939 60.9863 119.055 82.7012 182.309
c11.668 33.9941 22.7373 70.5342 18.2969 106.867c-4.73047 38.748 -36.5039 59.2773 -74.2725 47.1455c-61.0576 -19.6143 -102.502 -80.9023 -130.089 -135.304c-30.8818 -60.9033 -46.7842 -128.139 -39.4336 -196.42c1.60938 -14.9512 -38.0664 -15.8516 -39.7715 0
c-9.55957 88.7754 19.9111 177.924 69.4277 251.074c38.4502 56.8037 97.7236 111.026 171.124 107.435c34.8584 -1.70508 60.8711 -19.8438 82.6855 -45.873c26.4258 -31.5322 34.5889 -71.5566 29.6602 -111.962c-17.2822 -141.702 -86.749 -276.652 -176.762 -386.861
c120.617 -40.3818 224.245 -125.213 278.884 -242.448c56.0146 -120.181 53.8652 -271.394 -19.999 -383.859c-68.8447 -104.829 -203.913 -172.532 -328.622 -133.515c-49.5918 15.5146 -96.5625 48.8271 -123.11 94.0537
c-32.2217 54.9004 -23.2061 121.778 -0.586914 178.443c44.3223 111.034 133.982 203.339 244.807 248.244c16.6641 6.74805 48.0293 -10.6455 21.8262 -21.2832z" />
    <glyph glyph-name="four" unicode="4" horiz-adv-x="767" 
d="M280.235 496.335c48.7793 61.2715 76.4893 139.893 94.9141 215.093c21.4062 87.3281 30.4062 177.995 27.3926 267.806c-0.550781 16.4814 41.084 16.6436 42.377 -0.000976562c8.88477 -114.21 -2.25195 -229.403 -36.1709 -339.01
c-17.0645 -55.1426 -42.542 -106.55 -78.7207 -149.528c84.7676 -2.41895 169.749 -8.52832 254.136 0.22168c-2.4541 156.756 -4.78906 313.758 1.5625 470.427c1.83984 45.333 114.4 45.0234 115.229 -0.000976562c1.64551 -89.4102 1.74023 -178.753 2.29883 -268.175
c0.979492 -156.431 3.33887 -312.869 5.81641 -469.284c1.20898 -76.3623 1.41895 -152.756 2.89746 -229.11c1.4707 -75.8984 6.81543 -151.693 3.70703 -227.516c-1.18164 -28.8838 -66.2119 -29.1182 -75.6875 -5.84082
c-33.0664 81.2383 -38.9062 169.407 -43.2002 256.256c-7.38672 149.365 -9.88867 299.227 -12.2354 448.782c-85.5205 -7.97363 -171.513 -2.24414 -257.382 0.0517578c-6.35547 0.170898 -12.7227 0.321289 -19.0898 0.452148
c-15.7764 -15.459 -33.2451 -29.502 -52.5732 -41.8203c-36.6113 -23.333 -79.0225 -38.0938 -122.39 -41.0713c-24.8311 -1.70898 -98.7744 -2.81152 -80.1396 41.5508c14.7686 35.1602 62.0332 50.54 95.8965 57.2803c41.4277 8.24316 84.9414 9.07227 127.412 8.73926
c1.30859 1.57031 2.67285 3.09277 3.94922 4.69824zM139.735 410.06c17.2988 2.59668 34.2891 7.83398 50.2549 14.9668c23.46 10.4746 44.5371 24.8867 63.1514 42.1455c-21.2236 -0.369141 -42.4238 -1.36426 -63.4971 -3.50098
c-30.707 -3.1123 -79.0059 -10.1533 -94.1592 -42.1172c-6.7998 -14.3447 4.76562 -12.9648 15.6924 -13.2705c9.60254 -0.265625 19.0703 0.352539 28.5576 1.77637z" />
    <glyph glyph-name="five" unicode="5" horiz-adv-x="694" 
d="M418.593 1001.11c-39.5801 -4.6582 -78.2842 -14.1719 -116.802 -24.1787c-26.6035 -6.91504 -53.2861 -14.0283 -80.1279 -20.2139c0.119141 -0.396484 0.253906 -0.789062 0.34082 -1.20117c11.4463 -54.3135 11.0576 -108.631 12.2549 -163.889
c1.18555 -54.6582 1.39941 -109.333 2.16895 -164c0.384766 -27.333 0.234375 -54.6777 0.515625 -82.0146c0.150391 -14.3008 0 -28.6729 0.567383 -42.9619c0.0478516 -1.17383 0.475586 -3.78613 0.923828 -6.52539
c1.07812 0.0478516 2.15625 0.0996094 3.23438 0.135742c9.76953 0.329102 19.5107 0.202148 29.2725 -0.333008c26.9766 -1.47852 52.9619 -5.47461 79.1377 -12.0566c154.115 -38.752 268.833 -167.94 290.311 -324.784
c20.375 -148.791 -52.0498 -334.157 -192.971 -401.888c-66.6602 -32.0391 -148.978 -30.8936 -213.088 6.79199c-59.6943 35.0889 -101.451 97.9629 -104.338 167.755c-2.88672 69.8359 27.2021 139.108 78.5664 186.258c47.0029 43.1445 138.189 78.6689 182.377 11.6719
c9.25391 -14.0312 -32.1465 -19.6338 -40.8613 -6.41895c-26.6953 40.4727 -76.8975 7.88184 -103.081 -15.3916c-26.6191 -23.6621 -47.1963 -53.5293 -60.3359 -86.6074c-27.583 -69.4434 -16.8584 -148.181 35.6787 -202.879
c40.6943 -42.3682 103.386 -66.1689 157.814 -36.5205c55.9033 30.4531 93.7275 84.3232 118.618 141.745c53.1045 122.517 52.1367 281.243 -29.5068 391.456c-35.584 48.0332 -86.2305 87.5664 -142.693 106.815c-29.1572 9.93945 -51.0146 12.9688 -79.0264 12.4336
l-3.11719 -0.120117c0.380859 -0.0234375 -0.400391 -0.142578 -2.42285 -0.360352c-5.0791 -0.579102 -10.1104 -1.07031 -15.209 -1.49414c-10.5625 -0.875977 -20.3154 -1.08203 -30.8779 -0.0429688c-23.1191 2.27539 -48.208 9.11816 -62.9414 28.3867
c-12.8457 16.7988 -11.8271 37.4395 -11.7715 57.585c0.0556641 20.8311 0.198242 41.6621 0.427734 62.4893c0.456055 41.6973 2.08594 83.3193 4.04492 124.97c3.72266 79.1846 6.25977 161.279 27.6299 238.069c-28.3203 -3.90527 -56.8945 -5.74512 -85.8301 -4.12793
c-23.1152 1.29297 -23.4844 22.9482 -0.000976562 21.9297c33.2803 -1.44336 65.8945 2.06152 98.1484 8.10742c6.2168 4.05957 15.1855 5.59766 24.1777 4.97949c50 11.1807 99.2979 27.0918 149.024 38.7324c42.8154 10.0234 87.8828 18.2939 132.051 16.2441
c34.1523 -1.58203 71.5527 -10.3242 89.6045 -42.1934c10.6895 -18.8643 -45.1826 -28.9072 -52.9854 -8.32617c-12.7031 33.5107 -60.9707 25.2598 -88.9023 21.9727zM224.021 495.644c-1.61719 0.567383 -2.32227 0.674805 -1.24023 -0.0273438
c0.416016 0.0078125 0.828125 0.0195312 1.24023 0.0273438z" />
    <glyph glyph-name="six" unicode="6" horiz-adv-x="622" 
d="M489.579 823.371c-1.62207 -15.1895 -39.4453 -14.3008 -38.042 -0.00390625c4.5791 46.543 10.0029 97.6494 -13.2422 140.41c-9.27344 17.0566 -24.209 35.3027 -43.2598 41.6699c-19.7246 6.59766 -38.5771 -4.80859 -52.0332 -18.6934
c-28.7998 -29.7158 -46.1299 -71.0684 -62.8496 -108.31c-18.4639 -41.123 -33.0703 -84.1455 -45.3809 -127.484c-21.6875 -76.3496 -34.3311 -155.804 -43.0215 -234.604c-9.12695 -82.7646 -17.4375 -165.728 -17.9961 -249.075
c-0.384766 -57.834 3.03711 -116.251 12.5879 -173.515c39.4971 55.2734 97.9736 96.876 165.019 111.609c46.0508 10.1221 97.3154 6.76367 138.26 -18.3018c39.418 -24.126 65.7207 -64.999 76.4453 -109.456c20.1367 -83.4824 -9.9082 -181.179 -66.165 -244.802
c-61.625 -69.6934 -155.229 -80.8389 -238.775 -44.9336c-92.4072 39.7158 -149.694 129.364 -178.78 222.414c-29.918 95.6982 -35.1797 196.559 -31.1709 296.166c7.72754 191.943 33.2451 397.161 126.01 568.341c42.292 78.0391 111.716 178.039 214.991 157.716
c37.4678 -7.375 68.0645 -31.3027 85.2637 -65.333c22.4209 -44.3545 17.2314 -96.1465 12.1406 -143.815zM333.007 171.35c-60.7764 -25.8389 -107.865 -77.5654 -134.191 -137.505c0.995117 -3.94141 1.99414 -7.87891 3.05664 -11.7998
c18.5156 -68.29 44.667 -148.363 100.737 -195.39c26.9365 -22.5918 62.0332 -33.7529 96.4951 -23.1035c34.0811 10.5303 62.1475 37.6689 81.6221 66.6396c41.833 62.2314 64.583 151.328 38.0508 223.674c-12.4854 34.0342 -36.2861 65.832 -69.5986 81.6631
c-36.8564 17.5166 -79.791 11.2881 -116.172 -4.17871z" />
    <glyph glyph-name="seven" unicode="7" horiz-adv-x="471" 
d="M405.745 773.542c1.4707 -104.234 -12.0957 -209.604 -22.8047 -313.132c-7.98145 -77.1514 -15.5303 -154.434 -23.4717 -231.688l27.3457 3.45996c9.45996 1.19727 28.8516 0.535156 33.2646 -10.7646c4.3291 -11.0781 -9.87695 -18.0322 -18.8848 -18.96
c-14.9629 -1.54199 -29.9336 -3.00488 -44.9043 -4.43262c-13.4688 -129.062 -28.3369 -257.984 -48.5059 -386.035c-4.10742 -26.0684 -36.2266 -33.459 -58.6992 -33.459c-17.8301 0 -60.7725 7.69922 -58.6992 33.458c8.93652 111.098 23.2734 221.458 37.1465 332.024
c1.7998 14.3291 3.66699 28.6455 5.51074 42.9707c-9.74121 -0.84082 -19.4785 -1.68164 -29.2197 -2.52637c-7.81055 -0.677734 -23.4395 -0.650391 -27.1309 8.77832c-3.54492 9.05176 8.06836 14.6777 15.4033 15.4629c14.793 1.58203 29.582 3.25488 44.3672 4.96387
c9.71387 74.4707 19.8994 148.878 29.9141 223.309c12.9131 95.9834 29.4736 191.507 41.9189 287.534c10.3438 79.8232 19.502 172.782 -12.4619 249.16c-9.75293 23.3047 -25.8262 38.0137 -52.5645 35.1553c-19.3916 -2.07324 -38.8662 -8.80957 -56.7471 -16.3906
c-37.9434 -16.085 -70.9736 -41.2578 -98.2471 -71.9531c-9.78516 -11.0146 -49.001 -3.37402 -35.4648 11.8154c32.6104 36.5947 73.2617 64.7051 118.896 82.5859c42.2686 16.5645 95.2939 28.7012 135.894 1.69336c75.085 -49.9482 96.959 -159.044 98.1445 -243.03z" />
    <glyph glyph-name="eight" unicode="8" horiz-adv-x="596" 
d="M448.504 922.143c42.166 -96.0117 42.4141 -210.689 33.4414 -313.421c-9.45996 -108.318 -36.6582 -215.17 -80.168 -314.793c5.76855 -8.81348 11.5059 -17.6436 17.1797 -26.5088c27.9756 -43.7275 53.1836 -89.4619 74.6885 -136.71
c21.1484 -46.4678 41.7373 -96.6064 49.627 -147.276c8.21875 -52.7754 -2.4707 -93.9893 -28.8721 -139.322c-21.8662 -37.5469 -47.1699 -70.0146 -86.2109 -91.1592c-76.5879 -41.4756 -177.31 -27.8125 -242.546 29.0068
c-76.5244 66.6445 -77.1709 178.42 -65.2842 271.117c13.6152 106.165 49.4492 209.162 108.743 298.521c0.908203 1.37207 2.21289 2.51758 3.77148 3.46875c-28.376 40.9092 -56.332 82.0879 -82.6816 124.317c-57.8779 92.748 -108.064 194.235 -99.1631 306.657
c7.73145 97.6172 56.1016 207.521 153.929 243.728c95.1396 35.207 203.616 -16.6963 243.546 -107.625zM420.459 69.5215c-26.7109 47.9062 -55.9727 94.3379 -86.6162 139.822c-26.0205 38.6172 -52.8389 76.7227 -79.5303 114.911
c-57.9932 -98.0459 -89.6123 -211.082 -95.5439 -324.693c-2.91797 -55.9238 1.66113 -114.741 30.4893 -164.071c25.4463 -43.5449 71.1963 -73.7129 121.102 -80.6475c46.793 -6.50195 91.7656 10.5312 125.319 43.2324c16.2715 15.8594 32.4639 35.8027 38.9502 57.8389
c5.86426 19.915 5.91992 42.1416 4.58789 62.6553c-3.46484 53.2793 -33.2998 105.281 -58.7578 150.952zM438.957 666.057c1.30078 107.724 -6.86914 252.447 -110.033 315.241c-36.7295 22.3574 -75.4258 25.4424 -107.842 -5.89551
c-31.6426 -30.5889 -48.0762 -75.5137 -54.7891 -118.219c-17.9248 -114.012 20.8828 -219.487 76.7109 -317.124c40.2549 -70.4033 86.3135 -137.321 131.397 -204.778c41.04 105.503 63.1836 217.188 64.5557 330.775z" />
    <glyph glyph-name="nine" unicode="9" horiz-adv-x="689" 
d="M65.9434 676.479c27.0596 110.701 93.6143 215.383 187.715 280.759c47.2842 32.8525 107.466 54.2031 165.507 47.5186c37.7842 -4.35352 86.2422 -24.3398 96.6338 -64.6504c4.10352 -15.915 -31.6348 -18.4053 -35.8418 -5.63477
c-6.90234 20.9541 -25.4541 37.9707 -48.3789 38.0459c-45.6387 0.150391 -89.0332 -34.9258 -119.114 -65.9111c-38.2324 -39.3779 -69.2529 -84.6279 -93.1172 -134.065c-24.209 -50.1504 -40.9443 -104.452 -47.7598 -159.753
c-6.53809 -53.0684 -10.9033 -118.872 12.7148 -168.562c6.12988 -12.9014 19.4795 -32.1904 35.2158 -33.0146c21.4219 -1.12207 47.4072 21.6475 62.0576 34.7158c42.7168 38.1055 73.3057 91.4199 98.8389 141.963c25.8984 51.2607 45.4844 105.324 63.1553 159.888
c8.88867 27.4482 17.2383 55.0635 25.4453 82.7217c7.34668 24.7441 11.6963 54.8291 24.082 77.5869c10.2451 18.8291 33.5859 24.3477 53.0605 17.2471c25.291 -9.21777 36.9277 -41.3125 46.209 -64.166c24.7881 -61.0264 29.1055 -130.672 34.9141 -195.659
c11.9893 -134.145 13.373 -271.049 10.792 -405.649c-1.29297 -67.4609 -3.22754 -135.247 -10.7246 -202.344c-6.84277 -61.2402 -16.0928 -124.245 -44.1797 -179.827c-24.0586 -47.6133 -60.0947 -90.8809 -105.06 -119.967
c-49.4248 -31.9717 -123.333 -47.8428 -177.266 -18c-104.001 57.5449 -74.4912 200.689 -29.9229 287.095c53.8301 104.354 146.337 180.418 241.806 245.227c2.31934 84.3193 2.81934 168.694 5.62598 253.018c2.24805 67.5322 4.32129 135.215 3.99219 202.791
c-0.154297 31.5713 -1.4668 63.0674 -2.02148 94.6113c-0.225586 12.8701 0.0996094 25.7363 0.0322266 38.6025c-3.94141 -13.3691 -7.87012 -26.7422 -11.8428 -40.0996c-9.1709 -30.8457 -18.5273 -61.6328 -28.6377 -92.1816
c-19.9473 -60.2803 -42.7646 -120.252 -71.9609 -176.719c-24.4941 -47.3672 -53.8213 -96.7012 -90.4004 -135.865c-41.1787 -44.0928 -98.4062 -62.3105 -157.156 -44.1758c-130.041 40.1436 -120.283 198.62 -94.4131 304.456zM487.625 -57.3613
c11.9102 60.7207 14.3408 123.241 18.5557 184.826c2.4541 35.8574 4.13477 71.7393 5.3877 107.633c-97.6484 -70.3906 -188.062 -156.851 -222.614 -275.608c-15.1816 -52.1807 -22.0205 -122.191 15.3359 -167.101c34.7432 -41.7695 84.5723 -19.0986 117.75 12.3779
c38.2363 36.2783 55.6494 87.2256 65.585 137.872z" />
    <glyph glyph-name="colon" unicode=":" horiz-adv-x="163" 
d="M107.405 529.045c8.15918 -21.457 5.6582 -49.2822 5.93945 -72.0049c0.301758 -24.8115 -63.4922 -24.6572 -63.1904 0c0.28125 22.7021 -2.23242 50.5195 5.93945 72.0049c5.8916 15.498 45.3926 15.5654 51.3115 0zM103.727 168.399
c5.94336 -13.8057 5.08984 -29.1768 5.64453 -44.001c0.594727 -15.8389 1.33203 -31.6465 1.7959 -47.4902c0.662109 -22.7305 -57.7471 -22.9961 -58.417 0c-0.804688 27.4756 -4.33691 66.4971 8.8584 91.4912c6.33203 11.9893 36.334 13.4365 42.1182 0z" />
    <glyph glyph-name="semicolon" unicode=";" horiz-adv-x="207" 
d="M152.865 557.968c6.85938 -24.8311 2.91113 -52.7637 2.20508 -78.2812c-0.503906 -18.1982 -27.2422 -23.3252 -40.917 -23.3252c-12.0059 0 -42.9277 5.45996 -40.918 23.3252c2.82715 25.1484 2.44629 54.7412 12.4258 78.2803
c4.86914 11.4902 22.7188 14.583 33.6025 14.583c9.20215 0 30.4531 -3.17969 33.6016 -14.582zM106.748 173.695c9.56738 9.4082 30.1777 7.65137 37.9326 -2.82715c10.9941 -14.8682 7.44141 -37.6416 6.2002 -55.3281
c-1.30078 -18.5557 -3.4502 -37.2021 -5.94824 -55.6309c-5.11816 -37.7568 -13.4404 -75.1055 -22.4922 -112.085c-6.33203 -25.8779 -80.0059 -20.7314 -71.8027 11.2842c9.50781 37.1104 17.5166 74.5186 25.8311 111.902
c3.83789 17.2666 6.89844 34.6963 10.6729 51.9707c3.91309 17.9092 6.21289 37.543 19.6064 50.7139z" />
    <glyph glyph-name="less" unicode="&#x3c;" horiz-adv-x="527" 
d="M437.172 252.048c16.0693 -3.07227 48.2822 -15.0039 37.8154 -37.9678c-10.2969 -22.5918 -45.8887 -24.1299 -66.6045 -21.5566c-62.0645 7.71582 -123.769 20.8193 -184.716 34.7041c-33.0547 7.5293 -66.1172 15.3359 -98.8545 24.1699
c-24.665 6.65723 -51.2129 16.1133 -68.1543 36.2344c-11.625 13.8057 -7.57715 29.4424 8.61914 38.0742c48.418 25.8066 97.0186 51.2686 145.833 76.3223c49.084 25.1924 100.187 53.3262 152.815 70.1484c12.4414 3.97656 29.1729 4.14355 40.6514 -2.98926
c8.00098 -4.96777 14.293 -15.3594 5.24512 -23.1699c-38.2012 -32.9834 -86.8652 -57.4502 -130.271 -82.999c-32.5029 -19.1299 -64.8516 -38.5215 -97.1328 -58.0283c6.76758 -1.66504 13.8008 -3.08008 20.585 -4.80469
c24.0781 -6.12598 48.2598 -11.8076 72.5283 -17.1406c53.6396 -11.7871 107.728 -20.6924 161.641 -30.9971z" />
    <glyph glyph-name="equal" unicode="=" horiz-adv-x="277" 
d="M115.605 388.996c-20.6602 0.178711 -45.8516 -2.42676 -62.6621 11.5566l0.213867 0.09375c-3.56055 3.2666 -4.72656 7.67188 -0.214844 13.0596c12.6045 15.0508 43.0498 13.8457 60.959 15.3525c25.2715 2.12891 50.499 3.5957 75.8379 4.54297
c11.4658 0.427734 37.6172 -5.09961 37.2324 -21.2246c-0.404297 -16.957 -24.6406 -20.5654 -37.2324 -21.2236c-24.7051 -1.29297 -49.3818 -2.36719 -74.1338 -2.15723zM186.43 307.871c12.3896 0.820312 40.6738 -5.77246 40.2617 -22.9521
c-0.436523 -18.3965 -26.6514 -22.1553 -40.2666 -22.9521c-32.2139 -1.88281 -63.3096 -9.96289 -95.0918 -14.7168c-15.5654 -2.32715 -55.7725 10.9863 -29.208 28.6016c35.7148 23.6777 82.5791 29.248 124.305 32.0195z" />
    <glyph glyph-name="greater" unicode="&#x3e;" horiz-adv-x="497" 
d="M434.512 373.518c47.3916 -56.0459 -55.2842 -99.7139 -93.0293 -121.365c-57.2598 -32.8604 -116.169 -62.3184 -176.826 -88.375c-21.4102 -9.19824 -55.1025 -5.71289 -73.7607 8.39355c-16.1055 12.1797 -15.3047 33.958 4.46777 42.7959
c50.0635 22.3691 99.75 45.5947 148.347 71.0205c24.3916 12.7627 48.4502 26.1162 72.3379 39.7871c10.6133 6.07422 39.873 14.377 23.3203 28.0986c-16.4854 13.667 -44.5166 18.9443 -64.4238 25.4541c-24.2451 7.92578 -48.7715 14.9551 -73.5234 21.1201
c-24.8594 6.19336 -49.9209 11.4785 -75.1611 15.8916c-23.2539 4.06836 -53.4541 5.37695 -72.1279 20.8076c-10.8994 9.00391 2.34277 18.6025 10.0859 21.9326c28.0986 12.0771 68.8926 3.50879 98.2285 -0.242188c31.9209 -4.08008 63.584 -9.58301 94.9453 -16.7949
c32.6543 -7.50977 65.0469 -16.0576 96.9795 -26.2158c28.2412 -8.98438 60.3047 -18.8486 80.1406 -42.3086z" />
    <glyph glyph-name="question" unicode="?" horiz-adv-x="635" 
d="M510.625 1094.38c60.3994 -37.8359 74.5459 -102.605 73.9873 -169.437c-1.39551 -161.954 -42.8994 -321.961 -74.5703 -479.906c-32.123 -160.205 -56.2451 -323.653 -50.1514 -487.482c1.01074 -27.2383 -42.0117 -34.2119 -60.8682 -34.6914
c-20.8867 -0.535156 -59.8096 8.05664 -60.8682 34.6924c-6.60547 166.089 21.3027 329.685 57.1797 491.254c31.9043 143.672 74.3154 284.862 96.2168 430.647c4.94434 32.9238 10.1855 66.3428 9.43652 99.7383c-0.614258 27.2617 -3.12793 57.0693 -19.9863 79.6729
c-31.1357 41.7373 -88.7725 45.3291 -134.923 31.0205c-119.074 -36.9121 -200.031 -158.001 -234.049 -272.144c-18.6104 -62.4492 -27.3926 -132.765 -13.1982 -197.042c13.2266 -59.9121 54.8291 -120.656 119.332 -130.453
c6.89453 -1.04688 16.624 -5.41602 13.8887 -13.9443c-2.68066 -8.35352 -17.6797 -8.91699 -24.4639 -7.91797c-72.2822 10.6533 -126.397 66.957 -145.968 135.77c-21.7471 76.4688 -10.6533 161.851 14.1738 236.266c40.707 122.021 135.243 245.496 266.232 275.898
c54.3926 12.624 120.371 8.27051 168.599 -21.9414zM375.045 -144.643c1.25684 29.5176 64.7236 27.8936 75.2656 5.80566c11.8711 -24.8711 13.1592 -56.4229 14.7969 -83.5576c1.09863 -18.2461 -28.8867 -23.5713 -41.3516 -23.5713
c-14.3799 0 -40.3926 5.22168 -41.3525 23.5703c-1.34375 25.6602 -8.44824 52.2119 -7.3584 77.7529z" />
    <glyph glyph-name="at" unicode="@" horiz-adv-x="1090" 
d="M984.398 694.67c61.1494 -111.411 69.0869 -239.95 36.4248 -361.261c-17.3066 -64.2617 -45.6943 -125.169 -83.0391 -180.248c-34.4736 -50.8486 -76.1514 -98.9062 -141.067 -106.118c-29.125 -3.23535 -61.5371 1.90723 -84.5449 21.3027
c-23.3213 19.6611 -32.3135 50.1387 -39.1367 78.6973c-5.82422 24.3672 -8.45703 48.168 -8.53223 71.7188c-3.8418 -7.40625 -7.73926 -14.7764 -11.7676 -22.0752c-23.0869 -41.8564 -47.665 -82.833 -71.2119 -124.42
c-16.0498 -28.3447 -33.5742 -60.1904 -65.7568 -72.2832c-38.5537 -14.4834 -87.3682 -1.69727 -113.979 29.7793c-52.6719 62.3027 -32.083 155.903 -4.61914 224.586c28.0352 70.1172 78.3564 143.379 149.763 174.503c37.3721 16.291 89.3662 22.7969 123.507 -4.58789
c11.2002 -8.98438 15.4707 -22.001 20.0498 -35.168c4.60742 -13.25 3.81445 -26.2705 -1.85547 -38.9619c-5.85156 -13.0996 -44.0088 -10.0586 -37.9346 5.95898c9.1709 24.1816 -9.55469 50.1592 -34.8857 37.6943
c-22.4326 -11.0381 -41.4912 -37.2139 -55.5342 -57.1406c-31.1357 -44.1641 -52.5254 -94.2471 -65.542 -146.574c-6.97852 -28.0664 -10.0791 -57.3389 -9.11133 -86.2539c0.459961 -13.6709 1.7959 -28.1816 6.08594 -41.2334
c0.301758 -0.919922 3.05762 -6.77637 5.94434 -12.6328c2.26367 2.18457 4.37305 4.52344 6.41504 7.0293c8.77051 10.749 16.1572 22.7588 23.7256 34.3682c17.3496 26.6074 33.6016 53.9922 49.8652 81.2695c32.8721 55.1348 66.7715 109.639 99.3936 164.924
c1.60547 2.72363 4.72949 4.75781 8.56348 6.12207c5.61035 11.6523 42.4668 9.39258 39.5127 -4.05566c-14.2969 -65.082 -8.39355 -141.222 12.0137 -204.543c6.96582 -21.6123 20.085 -57.9658 48.9482 -53.0615c25.8857 4.39648 44.0049 34.4297 55.5586 55.3398
c60.1738 108.913 92.4512 236.44 79.8467 360.753c-10.2451 101.039 -51.3203 199.505 -127.868 268.322c-19.3682 17.4131 -40.6553 31.8604 -63.7539 43.9131c-10.8789 5.67383 -17.6787 8.5918 -28.3281 12.5645c-5.93555 2.2168 -11.9102 4.30273 -17.96 6.18555
c0.943359 -0.292969 -12.7275 3.51758 -12.1133 3.52148c-10.626 2.48633 -21.6445 4.22266 -32.54 5.16602c1.15332 -0.265625 -13.5088 0.285156 -13.0254 0.285156c-5.66211 0.0234375 -11.3672 -0.0800781 -17.0332 -0.432617
c-0.646484 -0.229492 -13.6826 -1.67676 -12.9453 -1.57324c-6.48242 -0.919922 -12.9492 -2.02246 -19.3721 -3.28711c-9.04395 -1.78027 -19.9111 -4.70605 -30.9971 -8.30566c-98.8506 -32.1064 -183.174 -105.407 -246.853 -185.825
c-65.2998 -82.4678 -110.451 -181.108 -137.809 -282.246c-28.3408 -104.77 -40.1797 -218.198 -25.5342 -326.045c14.3086 -105.376 60.6377 -199.829 139.573 -271.48c70.2168 -63.7344 161.661 -102.265 256.899 -102.432
c103.572 -0.182617 203.846 41.7646 278.915 112.552c12.8975 12.1641 61.4268 2.91406 43.7041 -14.5586c-20.1367 -19.8516 -42.0225 -37.7363 -65.4902 -53.5205c-194.418 -130.791 -471.308 -96.8047 -623.675 82.9111
c-161.585 190.588 -130.747 481.755 -44.7393 699.133c89.4893 226.172 295.952 449.794 560.154 419.88c128.027 -14.4951 242.166 -96.0586 303.691 -208.155z" />
    <glyph glyph-name="A" unicode="A" horiz-adv-x="1232" 
d="M1074.39 262.053c34.002 -225.414 73.5127 -449.302 135.99 -668.816c13.0957 -46.0156 -92.2842 -53.6201 -104.421 -16.4102c-75.3311 230.969 -104.175 474.617 -134.279 714.733c-10.1699 81.1074 -19.7568 162.48 -30.375 243.731
c-26.1123 -0.662109 -52.2207 -1.3916 -78.3291 -2.39844c-181.104 -6.99414 -361.604 -21.4775 -541.507 -42.0947c-18.0869 -53.0449 -34.957 -106.502 -50.7803 -160.261c-61.918 -210.38 -108.195 -424.892 -154.342 -639.157
c-3.64355 -16.9062 -45.5439 -14.8203 -42.376 0c52.9658 247.78 106.094 496.143 182.936 737.856c5.9668 18.7617 12.1318 37.4639 18.3926 56.1299c-66.6953 -8.03223 -133.304 -16.8857 -199.833 -26.5078c-6.58984 -0.955078 -22.2861 -0.383789 -24.9941 8.08887
c-2.76367 8.65918 7.06934 13.1748 14.1943 14.249c72.9844 10.9902 146.1 21.0527 219.357 30.001c27.5635 80.125 58.0449 159.246 92.2373 236.781c41.1426 93.2959 87.5938 185.116 150.967 265.515c56.7803 72.0361 142.281 162.311 243.962 141.495
c100.56 -20.585 146.579 -135.088 172.116 -222.302c34.6445 -118.31 60.1738 -238.879 81.7148 -360.233c21.4775 0.717773 42.9551 1.33203 64.4209 1.68848c9.80859 0.162109 30.9453 -4.07617 30.9453 -17.6396c0 -13.9004 -20.7236 -17.3418 -30.9453 -17.6348
c-19.4316 -0.563477 -38.8672 -1.03516 -58.3027 -1.47949c15.6963 -91.6182 29.4141 -183.602 43.251 -275.335zM688.954 551.301c82.4404 6.74414 165.158 13.0303 247.919 17.376c-16.5059 122.604 -35.8623 244.803 -63.6758 365.237
c-16.3711 70.8945 -61.4785 230.319 -164.258 191.806c-46.7803 -17.5283 -85.2031 -57.9814 -117.69 -94.5605c-33.0508 -37.2139 -61.585 -78.1143 -87.0625 -120.819c-52.5371 -88.0537 -93.5684 -183.169 -131.06 -278.423
c-15.0068 -38.1211 -29.2051 -76.5479 -42.7295 -115.209c119.285 13.7979 238.875 24.8037 358.557 34.5928z" />
    <glyph glyph-name="A" unicode="&#xc5;" horiz-adv-x="1232" 
d="M1074.39 262.053c34.002 -225.414 73.5127 -449.302 135.99 -668.816c13.0957 -46.0156 -92.2842 -53.6201 -104.421 -16.4102c-75.3311 230.969 -104.175 474.617 -134.279 714.733c-10.1699 81.1074 -19.7568 162.48 -30.375 243.731
c-26.1123 -0.662109 -52.2207 -1.3916 -78.3291 -2.39844c-181.104 -6.99414 -361.604 -21.4775 -541.507 -42.0947c-18.0869 -53.0449 -34.957 -106.502 -50.7803 -160.261c-61.918 -210.38 -108.195 -424.892 -154.342 -639.157
c-3.64355 -16.9062 -45.5439 -14.8203 -42.376 0c52.9658 247.78 106.094 496.143 182.936 737.856c5.9668 18.7617 12.1318 37.4639 18.3926 56.1299c-66.6953 -8.03223 -133.304 -16.8857 -199.833 -26.5078c-6.58984 -0.955078 -22.2861 -0.383789 -24.9941 8.08887
c-2.76367 8.65918 7.06934 13.1748 14.1943 14.249c72.9844 10.9902 146.1 21.0527 219.357 30.001c27.5635 80.125 58.0449 159.246 92.2373 236.781c41.1426 93.2959 87.5938 185.116 150.967 265.515c56.7803 72.0361 142.281 162.311 243.962 141.495
c100.56 -20.585 146.579 -135.088 172.116 -222.302c34.6445 -118.31 60.1738 -238.879 81.7148 -360.233c21.4775 0.717773 42.9551 1.33203 64.4209 1.68848c9.80859 0.162109 30.9453 -4.07617 30.9453 -17.6396c0 -13.9004 -20.7236 -17.3418 -30.9453 -17.6348
c-19.4316 -0.563477 -38.8672 -1.03516 -58.3027 -1.47949c15.6963 -91.6182 29.4141 -183.602 43.251 -275.335zM688.954 551.301c82.4404 6.74414 165.158 13.0303 247.919 17.376c-16.5059 122.604 -35.8623 244.803 -63.6758 365.237
c-16.3711 70.8945 -61.4785 230.319 -164.258 191.806c-46.7803 -17.5283 -85.2031 -57.9814 -117.69 -94.5605c-33.0508 -37.2139 -61.585 -78.1143 -87.0625 -120.819c-52.5371 -88.0537 -93.5684 -183.169 -131.06 -278.423
c-15.0068 -38.1211 -29.2051 -76.5479 -42.7295 -115.209c119.285 13.7979 238.875 24.8037 358.557 34.5928z" />
    <glyph glyph-name="A" unicode="&#xc4;" horiz-adv-x="1232" 
d="M1074.39 262.053c34.002 -225.414 73.5127 -449.302 135.99 -668.816c13.0957 -46.0156 -92.2842 -53.6201 -104.421 -16.4102c-75.3311 230.969 -104.175 474.617 -134.279 714.733c-10.1699 81.1074 -19.7568 162.48 -30.375 243.731
c-26.1123 -0.662109 -52.2207 -1.3916 -78.3291 -2.39844c-181.104 -6.99414 -361.604 -21.4775 -541.507 -42.0947c-18.0869 -53.0449 -34.957 -106.502 -50.7803 -160.261c-61.918 -210.38 -108.195 -424.892 -154.342 -639.157
c-3.64355 -16.9062 -45.5439 -14.8203 -42.376 0c52.9658 247.78 106.094 496.143 182.936 737.856c5.9668 18.7617 12.1318 37.4639 18.3926 56.1299c-66.6953 -8.03223 -133.304 -16.8857 -199.833 -26.5078c-6.58984 -0.955078 -22.2861 -0.383789 -24.9941 8.08887
c-2.76367 8.65918 7.06934 13.1748 14.1943 14.249c72.9844 10.9902 146.1 21.0527 219.357 30.001c27.5635 80.125 58.0449 159.246 92.2373 236.781c41.1426 93.2959 87.5938 185.116 150.967 265.515c56.7803 72.0361 142.281 162.311 243.962 141.495
c100.56 -20.585 146.579 -135.088 172.116 -222.302c34.6445 -118.31 60.1738 -238.879 81.7148 -360.233c21.4775 0.717773 42.9551 1.33203 64.4209 1.68848c9.80859 0.162109 30.9453 -4.07617 30.9453 -17.6396c0 -13.9004 -20.7236 -17.3418 -30.9453 -17.6348
c-19.4316 -0.563477 -38.8672 -1.03516 -58.3027 -1.47949c15.6963 -91.6182 29.4141 -183.602 43.251 -275.335zM688.954 551.301c82.4404 6.74414 165.158 13.0303 247.919 17.376c-16.5059 122.604 -35.8623 244.803 -63.6758 365.237
c-16.3711 70.8945 -61.4785 230.319 -164.258 191.806c-46.7803 -17.5283 -85.2031 -57.9814 -117.69 -94.5605c-33.0508 -37.2139 -61.585 -78.1143 -87.0625 -120.819c-52.5371 -88.0537 -93.5684 -183.169 -131.06 -278.423
c-15.0068 -38.1211 -29.2051 -76.5479 -42.7295 -115.209c119.285 13.7979 238.875 24.8037 358.557 34.5928z" />
    <glyph glyph-name="A" unicode="&#xc3;" horiz-adv-x="1232" 
d="M1074.39 262.053c34.002 -225.414 73.5127 -449.302 135.99 -668.816c13.0957 -46.0156 -92.2842 -53.6201 -104.421 -16.4102c-75.3311 230.969 -104.175 474.617 -134.279 714.733c-10.1699 81.1074 -19.7568 162.48 -30.375 243.731
c-26.1123 -0.662109 -52.2207 -1.3916 -78.3291 -2.39844c-181.104 -6.99414 -361.604 -21.4775 -541.507 -42.0947c-18.0869 -53.0449 -34.957 -106.502 -50.7803 -160.261c-61.918 -210.38 -108.195 -424.892 -154.342 -639.157
c-3.64355 -16.9062 -45.5439 -14.8203 -42.376 0c52.9658 247.78 106.094 496.143 182.936 737.856c5.9668 18.7617 12.1318 37.4639 18.3926 56.1299c-66.6953 -8.03223 -133.304 -16.8857 -199.833 -26.5078c-6.58984 -0.955078 -22.2861 -0.383789 -24.9941 8.08887
c-2.76367 8.65918 7.06934 13.1748 14.1943 14.249c72.9844 10.9902 146.1 21.0527 219.357 30.001c27.5635 80.125 58.0449 159.246 92.2373 236.781c41.1426 93.2959 87.5938 185.116 150.967 265.515c56.7803 72.0361 142.281 162.311 243.962 141.495
c100.56 -20.585 146.579 -135.088 172.116 -222.302c34.6445 -118.31 60.1738 -238.879 81.7148 -360.233c21.4775 0.717773 42.9551 1.33203 64.4209 1.68848c9.80859 0.162109 30.9453 -4.07617 30.9453 -17.6396c0 -13.9004 -20.7236 -17.3418 -30.9453 -17.6348
c-19.4316 -0.563477 -38.8672 -1.03516 -58.3027 -1.47949c15.6963 -91.6182 29.4141 -183.602 43.251 -275.335zM688.954 551.301c82.4404 6.74414 165.158 13.0303 247.919 17.376c-16.5059 122.604 -35.8623 244.803 -63.6758 365.237
c-16.3711 70.8945 -61.4785 230.319 -164.258 191.806c-46.7803 -17.5283 -85.2031 -57.9814 -117.69 -94.5605c-33.0508 -37.2139 -61.585 -78.1143 -87.0625 -120.819c-52.5371 -88.0537 -93.5684 -183.169 -131.06 -278.423
c-15.0068 -38.1211 -29.2051 -76.5479 -42.7295 -115.209c119.285 13.7979 238.875 24.8037 358.557 34.5928z" />
    <glyph glyph-name="A" unicode="&#xc2;" horiz-adv-x="1232" 
d="M1074.39 262.053c34.002 -225.414 73.5127 -449.302 135.99 -668.816c13.0957 -46.0156 -92.2842 -53.6201 -104.421 -16.4102c-75.3311 230.969 -104.175 474.617 -134.279 714.733c-10.1699 81.1074 -19.7568 162.48 -30.375 243.731
c-26.1123 -0.662109 -52.2207 -1.3916 -78.3291 -2.39844c-181.104 -6.99414 -361.604 -21.4775 -541.507 -42.0947c-18.0869 -53.0449 -34.957 -106.502 -50.7803 -160.261c-61.918 -210.38 -108.195 -424.892 -154.342 -639.157
c-3.64355 -16.9062 -45.5439 -14.8203 -42.376 0c52.9658 247.78 106.094 496.143 182.936 737.856c5.9668 18.7617 12.1318 37.4639 18.3926 56.1299c-66.6953 -8.03223 -133.304 -16.8857 -199.833 -26.5078c-6.58984 -0.955078 -22.2861 -0.383789 -24.9941 8.08887
c-2.76367 8.65918 7.06934 13.1748 14.1943 14.249c72.9844 10.9902 146.1 21.0527 219.357 30.001c27.5635 80.125 58.0449 159.246 92.2373 236.781c41.1426 93.2959 87.5938 185.116 150.967 265.515c56.7803 72.0361 142.281 162.311 243.962 141.495
c100.56 -20.585 146.579 -135.088 172.116 -222.302c34.6445 -118.31 60.1738 -238.879 81.7148 -360.233c21.4775 0.717773 42.9551 1.33203 64.4209 1.68848c9.80859 0.162109 30.9453 -4.07617 30.9453 -17.6396c0 -13.9004 -20.7236 -17.3418 -30.9453 -17.6348
c-19.4316 -0.563477 -38.8672 -1.03516 -58.3027 -1.47949c15.6963 -91.6182 29.4141 -183.602 43.251 -275.335zM688.954 551.301c82.4404 6.74414 165.158 13.0303 247.919 17.376c-16.5059 122.604 -35.8623 244.803 -63.6758 365.237
c-16.3711 70.8945 -61.4785 230.319 -164.258 191.806c-46.7803 -17.5283 -85.2031 -57.9814 -117.69 -94.5605c-33.0508 -37.2139 -61.585 -78.1143 -87.0625 -120.819c-52.5371 -88.0537 -93.5684 -183.169 -131.06 -278.423
c-15.0068 -38.1211 -29.2051 -76.5479 -42.7295 -115.209c119.285 13.7979 238.875 24.8037 358.557 34.5928z" />
    <glyph glyph-name="A" unicode="&#xc1;" horiz-adv-x="1232" 
d="M1074.39 262.053c34.002 -225.414 73.5127 -449.302 135.99 -668.816c13.0957 -46.0156 -92.2842 -53.6201 -104.421 -16.4102c-75.3311 230.969 -104.175 474.617 -134.279 714.733c-10.1699 81.1074 -19.7568 162.48 -30.375 243.731
c-26.1123 -0.662109 -52.2207 -1.3916 -78.3291 -2.39844c-181.104 -6.99414 -361.604 -21.4775 -541.507 -42.0947c-18.0869 -53.0449 -34.957 -106.502 -50.7803 -160.261c-61.918 -210.38 -108.195 -424.892 -154.342 -639.157
c-3.64355 -16.9062 -45.5439 -14.8203 -42.376 0c52.9658 247.78 106.094 496.143 182.936 737.856c5.9668 18.7617 12.1318 37.4639 18.3926 56.1299c-66.6953 -8.03223 -133.304 -16.8857 -199.833 -26.5078c-6.58984 -0.955078 -22.2861 -0.383789 -24.9941 8.08887
c-2.76367 8.65918 7.06934 13.1748 14.1943 14.249c72.9844 10.9902 146.1 21.0527 219.357 30.001c27.5635 80.125 58.0449 159.246 92.2373 236.781c41.1426 93.2959 87.5938 185.116 150.967 265.515c56.7803 72.0361 142.281 162.311 243.962 141.495
c100.56 -20.585 146.579 -135.088 172.116 -222.302c34.6445 -118.31 60.1738 -238.879 81.7148 -360.233c21.4775 0.717773 42.9551 1.33203 64.4209 1.68848c9.80859 0.162109 30.9453 -4.07617 30.9453 -17.6396c0 -13.9004 -20.7236 -17.3418 -30.9453 -17.6348
c-19.4316 -0.563477 -38.8672 -1.03516 -58.3027 -1.47949c15.6963 -91.6182 29.4141 -183.602 43.251 -275.335zM688.954 551.301c82.4404 6.74414 165.158 13.0303 247.919 17.376c-16.5059 122.604 -35.8623 244.803 -63.6758 365.237
c-16.3711 70.8945 -61.4785 230.319 -164.258 191.806c-46.7803 -17.5283 -85.2031 -57.9814 -117.69 -94.5605c-33.0508 -37.2139 -61.585 -78.1143 -87.0625 -120.819c-52.5371 -88.0537 -93.5684 -183.169 -131.06 -278.423
c-15.0068 -38.1211 -29.2051 -76.5479 -42.7295 -115.209c119.285 13.7979 238.875 24.8037 358.557 34.5928z" />
    <glyph glyph-name="B" unicode="B" horiz-adv-x="1346" 
d="M430.754 654.21c-0.991211 -44.7549 -1.39453 -89.5293 -1.18457 -134.319c142.301 70.0898 279.586 150.115 410.206 240.211c62.9453 43.4189 125.593 87.9316 183.189 138.344c56.292 49.2744 117.104 106.823 147.665 176.35
c13.9961 31.8369 16.752 66.3027 -0.668945 97.3633c-14.0947 25.1289 -40.5752 42.2412 -66.1914 53.9297c-67.624 30.8623 -150.31 32.3848 -223.096 26.6953c-156.871 -12.2627 -312.568 -67.6787 -451.507 -139.668
c-67.5049 -34.9736 -132.21 -75.3633 -193.006 -121.014c-59.2422 -44.4814 -112.751 -95.1758 -142.78 -164.171c-6.5498 -15.0381 -49.96 -10.582 -42.5342 6.68457c34.3076 79.792 99.3857 142.472 168.127 193.336c73.4395 54.3457 152.137 101.852 234.993 140.421
c154.623 71.9727 328.67 125.601 500.714 121.382c76.3584 -1.87109 161.376 -12.4844 227.164 -54.5869c27.1309 -17.3662 52.4385 -41.0439 66.002 -70.7715c16.2236 -35.5527 13.1865 -76.1523 -1.18555 -111.769c-29.9385 -74.1816 -93.835 -137.92 -152.332 -190.422
c-62.9805 -56.5264 -131.658 -106.942 -201.062 -155.229c-67.0244 -46.6338 -135.865 -90.6191 -206.288 -131.904c81.8535 9.63867 164.52 10.2061 245.092 0.166992c147.265 -18.3447 306.403 -100.043 330.156 -260.898
c11.2441 -76.1562 -12.1484 -155.285 -41.5391 -224.852c-26.9365 -63.7656 -60.709 -124.637 -100.206 -181.472c-80.2275 -115.443 -181.683 -214.135 -299.969 -290.259c-129.315 -83.2246 -313.837 -157.647 -452.481 -51.9297
c-16.9453 12.9209 0.166992 30.2588 12.6602 36.1465c18.9717 8.94434 46.2139 8.48828 64.543 -2.18848c28.1855 -16.4219 57.2949 -23.4355 85.1436 -23.0908c14.6221 0.182617 26.8936 1.50293 44.8223 5.93555c18.4883 4.57129 36.8174 11.2598 54.2783 18.8125
c62.6953 27.1309 122.615 65.0898 176.493 106.927c97.1768 75.4541 180.814 168.298 244.283 273.754c32.3096 53.6797 60.6855 110.662 81.0928 169.976c21.6953 63.0557 34.2002 136.008 10.6416 200.4c-44.8379 122.552 -178.106 163.373 -296.198 166.37
c-142.328 3.61621 -283.197 -24.5498 -414.856 -78.1543c-0.0996094 -0.0400391 -0.210938 -0.0712891 -0.310547 -0.111328c2.24805 -105.955 8.00879 -211.839 17.6992 -317.362c15.4746 -168.508 29.4902 -342.772 83.7129 -504.096
c10.499 -31.2305 -62.168 -36.5557 -72.2227 -11.3477c-35.7627 89.6396 -58.1201 183.645 -74.6846 278.538c-61.248 350.853 -75.5645 711.641 -41.4795 1066.21c3.94531 41.0312 106.217 39.1162 103.085 0c-7.94531 -99.2744 -13.7734 -198.763 -15.9814 -298.335z" />
    <glyph glyph-name="C" unicode="C" horiz-adv-x="1015" 
d="M577.431 -393.617c-93.4268 -65.5146 -214.546 -74.0957 -312.837 -13.3633c-100.115 61.8662 -151.095 171.913 -178.983 282.174c-63.873 252.525 -32.8252 513.171 22.5508 764.182c26.8535 121.707 59.0557 243.196 112.601 356.197
c50.0996 105.726 122.025 213.092 233.512 260.479c52.541 22.3379 119.352 29.3037 169.942 -2.16895c40.5 -25.1924 65.6133 -69.2334 78.4873 -114.166c35.0566 -122.334 -1.04688 -249.953 -35.8184 -367.93c-4.60742 -15.6455 -48.7637 -12.2402 -43.3672 6.81445
c34.042 120.213 75.0732 262.803 18.2578 382.837c-19.3047 40.79 -59.9639 85.1006 -109.123 67.9531c-49.3652 -17.2148 -87.582 -64.0078 -117.667 -104.655c-63.7539 -86.1309 -104.317 -192.059 -137.511 -293.082
c-35.1162 -106.867 -60.0625 -217.263 -80.3818 -327.817c-41.3926 -225.212 -61.6055 -467.188 4.00781 -689.966c26.4014 -89.6523 77.916 -186.128 173.004 -216.446c92.6572 -29.5459 183.233 47.0537 241.976 109.713c73.4561 78.3564 137.313 168.754 186.18 264.412
c48.8818 95.6826 88.2012 195.881 123.678 297.197c4.87305 13.9121 44.3984 10.498 38.7686 -6.09473c-9.51953 -28.0547 -19.2969 -56.0146 -29.5225 -83.8154c-39.9141 -108.509 -86.9248 -215.091 -144.173 -315.654
c-54.6865 -96.0635 -121.997 -192.582 -213.58 -256.8z" />
    <glyph glyph-name="D" unicode="D" horiz-adv-x="1461" 
d="M288.048 -362.271c0 24.6133 36.5586 30.4482 54.5869 31.1025c62.3984 2.29199 125.431 20.752 185.866 48.2998c-7.87793 13.0088 -9.99121 28.8281 -13.6113 44.4219c-11.6719 50.2773 -19.5859 101.673 -27.7256 152.624
c-57.6484 360.824 -58.6035 734.843 -10.0947 1096.71c3.22754 24.0781 33.8877 30.8623 54.1436 30.8623c15.7002 0 57.0449 -7.26758 54.1426 -30.8623c-11.7754 -95.7422 -21.335 -191.793 -27.373 -288.078c-10.7207 -170.922 -11.1406 -341.892 -3.22656 -512.929
c3.91699 -84.7002 10.2568 -169.273 19.1973 -253.597c4.3252 -40.8057 8.58691 -81.6191 13.6416 -122.342c2.83887 -22.8691 6.20898 -45.6826 8.74609 -68.583c0.376953 -3.42578 0.488281 -7.90625 0.698242 -12.7236c22.4404 12.9766 44.3027 26.9092 65.3994 41.3848
c101.605 69.7168 194.636 154.69 280.101 243.188c77.6904 80.4453 149.199 166.949 213.492 258.457c66.2002 94.2197 127.333 193.748 167.659 302.038c38.042 102.149 54.1426 215.836 28.3555 323.056c-23.9473 99.5801 -85.7822 182.635 -172.723 236.243
c-194.62 120.007 -438.459 66.498 -635.684 -18c-92.3281 -39.5566 -181.128 -90.8691 -257.648 -156.229c-38.8193 -33.1572 -74.6416 -69.9346 -105.893 -110.332c-16.3115 -21.085 -31.4453 -43.3867 -44.6201 -66.5732
c-12.0098 -21.1406 -24.0664 -46.0947 -10.2334 -69.0547c14.4639 -24.0029 -53.457 -32.7334 -66.7871 -10.4951c-13.8887 23.1738 -8.79004 49.9238 1.78027 73.4229c21.7354 48.3193 58.6318 93.332 93.9268 132.354c36.4922 40.3457 77.4727 76.2949 121.169 108.632
c89.2471 66.0459 189.101 116.2 292.923 154.996c224.07 83.7246 492.998 111.998 697.771 -35.7939c92.6729 -66.8818 153.267 -162.413 175.275 -274.55c23.1738 -118.071 1.49805 -241.27 -42.9551 -351.828c-45.6543 -113.536 -112.041 -219.761 -183.522 -318.706
c-70.6484 -97.7881 -149.306 -189.743 -235.373 -274.288c-170.042 -167.033 -385.651 -339.062 -636.825 -333.939c-17.3066 0.352539 -54.5801 6.71973 -54.5801 31.1074z" />
    <glyph glyph-name="E" unicode="E" horiz-adv-x="1398" 
d="M471.651 705.53c11.0498 12.5371 56.1318 5.81836 41.4541 -13.8154c-16.0498 -21.4775 -13.6113 -50.6152 -3.04492 -73.8564c30.8223 -67.7822 102.185 -67.624 165.094 -49.751c65.3242 18.5635 128.389 45.9082 188.182 77.9004
c119.443 63.9121 226.037 149.885 316.082 250.951c44.6035 50.0596 86.9473 103.961 120.886 161.914c33.8076 57.7314 64.5898 139.307 9.3877 194.568c-40.7656 40.8135 -104.317 44.6357 -158.571 43.1328c-74.3164 -2.05762 -147.284 -20.4189 -216.533 -46.6855
c-251.249 -95.2979 -468.856 -289.375 -610.594 -515.551c-74.0508 -118.163 -142.253 -254.829 -158.366 -394.822c-7.38672 -64.1816 -3.71094 -130.263 23.0674 -189.838c12.0527 -26.8135 27.9512 -50.7051 49.9121 -70.3906
c19.8633 -17.8018 45.7969 -29.2402 68.0557 -32.9072c17.457 -2.87891 24.4434 -2.93457 45.1357 -1.87598c0.852539 0.0400391 1.4707 0.0712891 1.99414 0.0908203c0.546875 0.0634766 1.21289 0.134766 2.16797 0.229492
c4.3457 0.44043 8.67969 0.967773 13.0049 1.55469c7.61621 1.02734 15.2051 2.25684 22.7617 3.66406c31.8174 5.91992 65.0977 16.5537 97.8037 27.8418c67.5244 23.3047 133.261 51.1416 196.899 83.5898c48.7988 24.8828 95.9961 52.2236 141.643 81.833
c65.249 68.1504 138.49 133.97 224.165 172.452c23.4521 10.5342 50.2422 13.21 74.2686 2.52051c16.4023 -7.29883 31.4922 -25.7109 14.5664 -41.5898c-29.5732 -27.75 -60.3477 -54.1318 -92.1055 -79.3477c-45.8809 -36.4287 -93.5342 -70.3398 -142.722 -101.765
c-9.77734 -10.5625 -19.3525 -21.1172 -28.7256 -31.5244c-64.6504 -71.7949 -126.462 -150.354 -169.976 -237.016c-30.668 -61.0781 -79.5059 -182.492 5.57031 -219.036c9.87207 -4.24219 21.7031 -6.65723 38.5928 -8.46875
c1.35645 -0.115234 3.85449 -0.336914 4.58008 -0.352539c5.30469 -0.130859 10.5898 -0.317383 15.8945 -0.277344c3.49707 0.0234375 6.99805 0.110352 10.4951 0.245117c-0.745117 -0.03125 9.58691 0.674805 10.2969 0.670898
c46.6143 4.02441 92.8076 13.7695 137.551 27.2461c94.9766 28.6064 183.875 72.834 272.286 117.121c18.4482 9.24219 43.8623 10.7334 62.1602 0.000976562c16.1729 -9.4834 15.499 -25.8066 0.000976562 -35.4287c-107.914 -67.0127 -224.935 -121.093 -348.874 -150.448
c-92.2725 -21.8584 -208.064 -38.2607 -293.435 14.9668c-98.3506 61.3232 -61.3594 184.474 -18.8525 270.062c23.0195 46.3525 51.1895 90.7822 82.2578 133.245c-21.6953 -9.75781 -43.585 -19.127 -65.709 -28c-145.702 -58.4248 -344.834 -122.389 -478.936 -4.1748
c-119.725 105.543 -102.268 290.401 -57.7705 426.612c47.9102 146.662 129.312 282.821 225.985 402.396c93.874 116.113 206.648 216.617 332.114 297.519c142.022 91.5791 303.813 160.812 473.935 172.057c73.083 4.83301 154.758 0.539062 219.21 -38.2646
c65.9941 -39.7275 85.8857 -110.289 64.1943 -182.357c-22.001 -73.0869 -74.4668 -138.336 -121.945 -196.77c-47.4307 -58.3779 -100.202 -112.434 -157.561 -161.098c-114.555 -97.1973 -247.161 -173.754 -390.544 -219.396
c-72.4805 -23.0752 -165.792 -40.2305 -231.671 9.44043c-46.6025 35.1357 -67.041 104.096 -25.7197 150.983z" />
    <glyph glyph-name="E" unicode="&#xcb;" horiz-adv-x="1398" 
d="M471.651 705.53c11.0498 12.5371 56.1318 5.81836 41.4541 -13.8154c-16.0498 -21.4775 -13.6113 -50.6152 -3.04492 -73.8564c30.8223 -67.7822 102.185 -67.624 165.094 -49.751c65.3242 18.5635 128.389 45.9082 188.182 77.9004
c119.443 63.9121 226.037 149.885 316.082 250.951c44.6035 50.0596 86.9473 103.961 120.886 161.914c33.8076 57.7314 64.5898 139.307 9.3877 194.568c-40.7656 40.8135 -104.317 44.6357 -158.571 43.1328c-74.3164 -2.05762 -147.284 -20.4189 -216.533 -46.6855
c-251.249 -95.2979 -468.856 -289.375 -610.594 -515.551c-74.0508 -118.163 -142.253 -254.829 -158.366 -394.822c-7.38672 -64.1816 -3.71094 -130.263 23.0674 -189.838c12.0527 -26.8135 27.9512 -50.7051 49.9121 -70.3906
c19.8633 -17.8018 45.7969 -29.2402 68.0557 -32.9072c17.457 -2.87891 24.4434 -2.93457 45.1357 -1.87598c0.852539 0.0400391 1.4707 0.0712891 1.99414 0.0908203c0.546875 0.0634766 1.21289 0.134766 2.16797 0.229492
c4.3457 0.44043 8.67969 0.967773 13.0049 1.55469c7.61621 1.02734 15.2051 2.25684 22.7617 3.66406c31.8174 5.91992 65.0977 16.5537 97.8037 27.8418c67.5244 23.3047 133.261 51.1416 196.899 83.5898c48.7988 24.8828 95.9961 52.2236 141.643 81.833
c65.249 68.1504 138.49 133.97 224.165 172.452c23.4521 10.5342 50.2422 13.21 74.2686 2.52051c16.4023 -7.29883 31.4922 -25.7109 14.5664 -41.5898c-29.5732 -27.75 -60.3477 -54.1318 -92.1055 -79.3477c-45.8809 -36.4287 -93.5342 -70.3398 -142.722 -101.765
c-9.77734 -10.5625 -19.3525 -21.1172 -28.7256 -31.5244c-64.6504 -71.7949 -126.462 -150.354 -169.976 -237.016c-30.668 -61.0781 -79.5059 -182.492 5.57031 -219.036c9.87207 -4.24219 21.7031 -6.65723 38.5928 -8.46875
c1.35645 -0.115234 3.85449 -0.336914 4.58008 -0.352539c5.30469 -0.130859 10.5898 -0.317383 15.8945 -0.277344c3.49707 0.0234375 6.99805 0.110352 10.4951 0.245117c-0.745117 -0.03125 9.58691 0.674805 10.2969 0.670898
c46.6143 4.02441 92.8076 13.7695 137.551 27.2461c94.9766 28.6064 183.875 72.834 272.286 117.121c18.4482 9.24219 43.8623 10.7334 62.1602 0.000976562c16.1729 -9.4834 15.499 -25.8066 0.000976562 -35.4287c-107.914 -67.0127 -224.935 -121.093 -348.874 -150.448
c-92.2725 -21.8584 -208.064 -38.2607 -293.435 14.9668c-98.3506 61.3232 -61.3594 184.474 -18.8525 270.062c23.0195 46.3525 51.1895 90.7822 82.2578 133.245c-21.6953 -9.75781 -43.585 -19.127 -65.709 -28c-145.702 -58.4248 -344.834 -122.389 -478.936 -4.1748
c-119.725 105.543 -102.268 290.401 -57.7705 426.612c47.9102 146.662 129.312 282.821 225.985 402.396c93.874 116.113 206.648 216.617 332.114 297.519c142.022 91.5791 303.813 160.812 473.935 172.057c73.083 4.83301 154.758 0.539062 219.21 -38.2646
c65.9941 -39.7275 85.8857 -110.289 64.1943 -182.357c-22.001 -73.0869 -74.4668 -138.336 -121.945 -196.77c-47.4307 -58.3779 -100.202 -112.434 -157.561 -161.098c-114.555 -97.1973 -247.161 -173.754 -390.544 -219.396
c-72.4805 -23.0752 -165.792 -40.2305 -231.671 9.44043c-46.6025 35.1357 -67.041 104.096 -25.7197 150.983z" />
    <glyph glyph-name="E" unicode="&#xca;" horiz-adv-x="1398" 
d="M471.651 705.53c11.0498 12.5371 56.1318 5.81836 41.4541 -13.8154c-16.0498 -21.4775 -13.6113 -50.6152 -3.04492 -73.8564c30.8223 -67.7822 102.185 -67.624 165.094 -49.751c65.3242 18.5635 128.389 45.9082 188.182 77.9004
c119.443 63.9121 226.037 149.885 316.082 250.951c44.6035 50.0596 86.9473 103.961 120.886 161.914c33.8076 57.7314 64.5898 139.307 9.3877 194.568c-40.7656 40.8135 -104.317 44.6357 -158.571 43.1328c-74.3164 -2.05762 -147.284 -20.4189 -216.533 -46.6855
c-251.249 -95.2979 -468.856 -289.375 -610.594 -515.551c-74.0508 -118.163 -142.253 -254.829 -158.366 -394.822c-7.38672 -64.1816 -3.71094 -130.263 23.0674 -189.838c12.0527 -26.8135 27.9512 -50.7051 49.9121 -70.3906
c19.8633 -17.8018 45.7969 -29.2402 68.0557 -32.9072c17.457 -2.87891 24.4434 -2.93457 45.1357 -1.87598c0.852539 0.0400391 1.4707 0.0712891 1.99414 0.0908203c0.546875 0.0634766 1.21289 0.134766 2.16797 0.229492
c4.3457 0.44043 8.67969 0.967773 13.0049 1.55469c7.61621 1.02734 15.2051 2.25684 22.7617 3.66406c31.8174 5.91992 65.0977 16.5537 97.8037 27.8418c67.5244 23.3047 133.261 51.1416 196.899 83.5898c48.7988 24.8828 95.9961 52.2236 141.643 81.833
c65.249 68.1504 138.49 133.97 224.165 172.452c23.4521 10.5342 50.2422 13.21 74.2686 2.52051c16.4023 -7.29883 31.4922 -25.7109 14.5664 -41.5898c-29.5732 -27.75 -60.3477 -54.1318 -92.1055 -79.3477c-45.8809 -36.4287 -93.5342 -70.3398 -142.722 -101.765
c-9.77734 -10.5625 -19.3525 -21.1172 -28.7256 -31.5244c-64.6504 -71.7949 -126.462 -150.354 -169.976 -237.016c-30.668 -61.0781 -79.5059 -182.492 5.57031 -219.036c9.87207 -4.24219 21.7031 -6.65723 38.5928 -8.46875
c1.35645 -0.115234 3.85449 -0.336914 4.58008 -0.352539c5.30469 -0.130859 10.5898 -0.317383 15.8945 -0.277344c3.49707 0.0234375 6.99805 0.110352 10.4951 0.245117c-0.745117 -0.03125 9.58691 0.674805 10.2969 0.670898
c46.6143 4.02441 92.8076 13.7695 137.551 27.2461c94.9766 28.6064 183.875 72.834 272.286 117.121c18.4482 9.24219 43.8623 10.7334 62.1602 0.000976562c16.1729 -9.4834 15.499 -25.8066 0.000976562 -35.4287c-107.914 -67.0127 -224.935 -121.093 -348.874 -150.448
c-92.2725 -21.8584 -208.064 -38.2607 -293.435 14.9668c-98.3506 61.3232 -61.3594 184.474 -18.8525 270.062c23.0195 46.3525 51.1895 90.7822 82.2578 133.245c-21.6953 -9.75781 -43.585 -19.127 -65.709 -28c-145.702 -58.4248 -344.834 -122.389 -478.936 -4.1748
c-119.725 105.543 -102.268 290.401 -57.7705 426.612c47.9102 146.662 129.312 282.821 225.985 402.396c93.874 116.113 206.648 216.617 332.114 297.519c142.022 91.5791 303.813 160.812 473.935 172.057c73.083 4.83301 154.758 0.539062 219.21 -38.2646
c65.9941 -39.7275 85.8857 -110.289 64.1943 -182.357c-22.001 -73.0869 -74.4668 -138.336 -121.945 -196.77c-47.4307 -58.3779 -100.202 -112.434 -157.561 -161.098c-114.555 -97.1973 -247.161 -173.754 -390.544 -219.396
c-72.4805 -23.0752 -165.792 -40.2305 -231.671 9.44043c-46.6025 35.1357 -67.041 104.096 -25.7197 150.983z" />
    <glyph glyph-name="E" unicode="&#xc9;" horiz-adv-x="1398" 
d="M471.651 705.53c11.0498 12.5371 56.1318 5.81836 41.4541 -13.8154c-16.0498 -21.4775 -13.6113 -50.6152 -3.04492 -73.8564c30.8223 -67.7822 102.185 -67.624 165.094 -49.751c65.3242 18.5635 128.389 45.9082 188.182 77.9004
c119.443 63.9121 226.037 149.885 316.082 250.951c44.6035 50.0596 86.9473 103.961 120.886 161.914c33.8076 57.7314 64.5898 139.307 9.3877 194.568c-40.7656 40.8135 -104.317 44.6357 -158.571 43.1328c-74.3164 -2.05762 -147.284 -20.4189 -216.533 -46.6855
c-251.249 -95.2979 -468.856 -289.375 -610.594 -515.551c-74.0508 -118.163 -142.253 -254.829 -158.366 -394.822c-7.38672 -64.1816 -3.71094 -130.263 23.0674 -189.838c12.0527 -26.8135 27.9512 -50.7051 49.9121 -70.3906
c19.8633 -17.8018 45.7969 -29.2402 68.0557 -32.9072c17.457 -2.87891 24.4434 -2.93457 45.1357 -1.87598c0.852539 0.0400391 1.4707 0.0712891 1.99414 0.0908203c0.546875 0.0634766 1.21289 0.134766 2.16797 0.229492
c4.3457 0.44043 8.67969 0.967773 13.0049 1.55469c7.61621 1.02734 15.2051 2.25684 22.7617 3.66406c31.8174 5.91992 65.0977 16.5537 97.8037 27.8418c67.5244 23.3047 133.261 51.1416 196.899 83.5898c48.7988 24.8828 95.9961 52.2236 141.643 81.833
c65.249 68.1504 138.49 133.97 224.165 172.452c23.4521 10.5342 50.2422 13.21 74.2686 2.52051c16.4023 -7.29883 31.4922 -25.7109 14.5664 -41.5898c-29.5732 -27.75 -60.3477 -54.1318 -92.1055 -79.3477c-45.8809 -36.4287 -93.5342 -70.3398 -142.722 -101.765
c-9.77734 -10.5625 -19.3525 -21.1172 -28.7256 -31.5244c-64.6504 -71.7949 -126.462 -150.354 -169.976 -237.016c-30.668 -61.0781 -79.5059 -182.492 5.57031 -219.036c9.87207 -4.24219 21.7031 -6.65723 38.5928 -8.46875
c1.35645 -0.115234 3.85449 -0.336914 4.58008 -0.352539c5.30469 -0.130859 10.5898 -0.317383 15.8945 -0.277344c3.49707 0.0234375 6.99805 0.110352 10.4951 0.245117c-0.745117 -0.03125 9.58691 0.674805 10.2969 0.670898
c46.6143 4.02441 92.8076 13.7695 137.551 27.2461c94.9766 28.6064 183.875 72.834 272.286 117.121c18.4482 9.24219 43.8623 10.7334 62.1602 0.000976562c16.1729 -9.4834 15.499 -25.8066 0.000976562 -35.4287c-107.914 -67.0127 -224.935 -121.093 -348.874 -150.448
c-92.2725 -21.8584 -208.064 -38.2607 -293.435 14.9668c-98.3506 61.3232 -61.3594 184.474 -18.8525 270.062c23.0195 46.3525 51.1895 90.7822 82.2578 133.245c-21.6953 -9.75781 -43.585 -19.127 -65.709 -28c-145.702 -58.4248 -344.834 -122.389 -478.936 -4.1748
c-119.725 105.543 -102.268 290.401 -57.7705 426.612c47.9102 146.662 129.312 282.821 225.985 402.396c93.874 116.113 206.648 216.617 332.114 297.519c142.022 91.5791 303.813 160.812 473.935 172.057c73.083 4.83301 154.758 0.539062 219.21 -38.2646
c65.9941 -39.7275 85.8857 -110.289 64.1943 -182.357c-22.001 -73.0869 -74.4668 -138.336 -121.945 -196.77c-47.4307 -58.3779 -100.202 -112.434 -157.561 -161.098c-114.555 -97.1973 -247.161 -173.754 -390.544 -219.396
c-72.4805 -23.0752 -165.792 -40.2305 -231.671 9.44043c-46.6025 35.1357 -67.041 104.096 -25.7197 150.983z" />
    <glyph glyph-name="F" unicode="F" horiz-adv-x="940" 
d="M1521.96 1150.08c10.709 -16.7715 -18.9609 -28.1709 -29.7891 -29.9111c-18.4834 -2.95801 -41.3877 0.542969 -52.4648 16.9814c-23.9951 35.6162 -67.4893 49.4893 -107.609 57.375c-53.9922 10.6133 -108.952 16.3428 -163.936 17.8418
c-204.425 5.57422 -406.28 -44.002 -596.531 -115.487c-90.04 -33.832 -178.55 -72.624 -261.965 -120.709c-41.6699 -24.0186 -81.7021 -50.5508 -120.137 -79.4619c-19.3682 -14.5664 -38.3916 -29.7393 -56.4795 -45.8799
c-14.3125 -12.7666 -33.7715 -30.3896 -28.8271 -51.6533c3.83398 -16.4697 -35.084 -13.6426 -41.9033 -6.4707c-42.5898 44.79 36.5518 99.001 66.958 124.082c45.3809 37.4316 95.127 70.0342 146.074 99.3379c93.4775 53.7783 193.438 96.2734 294.69 133.039
c107.331 38.9736 217.894 70.1768 330.485 89.6201c114.693 19.8086 231.492 26.4736 347.534 16.6963c93.0654 -7.83887 218.483 -18.5752 273.899 -105.4zM905.189 508.676c12.6006 0.384766 41.3379 -5.53809 40.9141 -23.3242
c-0.427734 -18.0713 -27.083 -23.4277 -40.916 -23.3242c-107.275 0.796875 -209.932 -24.7725 -311.91 -54.3975c1.13379 -54.123 2.83887 -108.238 5.16992 -162.342c3.64355 -84.6045 9.97559 -168.959 16.458 -253.377
c5.92383 -77.1475 9.15918 -157.113 37.9238 -229.852c14.0156 -35.4414 -71.3584 -42.2646 -84.3467 -13.2539c-36.5479 81.6152 -44.7783 174.653 -54.7422 262.564c-13.7178 121.057 -22.7656 242.736 -27.4834 364.63
c-58.9482 -17.1875 -118.135 -33.0781 -178.309 -43.4541c-10.665 -4.0957 -25.8623 -2.46582 -34.0615 2.625c-12.541 7.78711 -7.73535 20.3994 5.47949 24.2412c68.7295 19.9746 136.943 41.6143 205.32 62.6992c-6.11328 206.898 0.349609 414.257 18.8213 620.089
c3.9248 43.7197 112.992 41.5029 109.591 -0.000976562c-7.88184 -96.0986 -13.5986 -192.439 -17.3174 -288.788c-3.8457 -99.6396 -4.70215 -199.303 -3.32227 -298.95c102.45 29.4346 205.832 50.9395 312.73 54.2148z" />
    <glyph glyph-name="G" unicode="G" horiz-adv-x="1297" 
d="M1115.43 550.722c-0.602539 -32.2061 -1.24707 -64.4082 -2.12305 -96.6104c-2.15332 -78.8477 -2.7002 -157.728 -1.46289 -236.596c2.48633 -158.449 17.4336 -316.308 48.708 -471.747c4.38086 -21.7627 -37.9512 -28.8838 -50.6738 -28.8838
c-20.5615 0 -45.583 6.66504 -50.6738 28.8838c-35.6992 155.781 -45.3418 316.113 -44.8066 475.558c0.265625 78.9355 4.14746 157.835 9.07129 236.604c0.0751953 1.18555 0.169922 2.36719 0.245117 3.55273c-50.2178 -148.914 -104.77 -297.205 -162.628 -443.284
c-53.5645 -135.235 -120.859 -268.785 -225.779 -371.862c-94.3662 -92.709 -230.684 -168.56 -367.263 -141.321c-67.2109 13.4053 -121.961 52.6729 -156.296 111.95c-34.6445 59.8125 -47.9746 131.893 -55.793 199.727
c-17.6787 153.362 5.74512 307.038 48.0928 454.572c40.4922 141.06 98.1562 278.063 167.357 407.407c66.7793 124.812 147.665 244.049 248.216 344.271c97.9619 97.6406 233.007 203.18 379.296 197.661c66.2793 -2.49805 128.114 -34.7832 145.472 -102.482
c14.793 -57.6953 -1.26855 -119.927 -27.9199 -171.747c-59.2383 -115.182 -173.1 -189.419 -284.74 -247.281c-10.2451 -5.30859 -26.0088 -6.50586 -36.0957 0c-8.8252 5.68945 -9.54297 15.0264 0 20.5732c25.0771 14.5703 49.8213 29.7041 73.8594 45.9404
c92.9033 62.7432 192.994 147.732 213.119 264.77c8.33789 48.4854 0.0439453 117.116 -51.4863 139.097c-48.4775 20.6768 -111.292 -12.8301 -152.054 -37.1426c-54.9326 -32.7686 -103.557 -76.0566 -148.41 -121.362
c-44.6875 -45.1436 -86.6113 -93.0459 -124.345 -144.176c-77.1592 -104.552 -140.489 -218.591 -194.169 -336.766c-113.6 -250.092 -200.171 -532.813 -145.278 -809.219c10.915 -54.9639 32.626 -115.752 79.3389 -150.416
c41.6855 -30.9375 96.1504 -30.5928 144.243 -17.1406c117.861 32.9756 211.974 134.098 277.556 232.964c78.6143 118.512 129.348 253.402 181.842 384.775c28.832 72.1553 58.7109 143.895 88.2725 215.757c19.7051 47.9023 40.8496 95.21 61.1377 142.867
c-42.5742 -10.0068 -84.6602 -22.4805 -126.228 -37.6455c-14.6104 -5.3291 -41.1504 -4.89648 -52.4219 7.83887c-11.6289 13.1396 0.487305 25.0938 13.7451 29.8828c60.4395 21.834 122.889 39.2314 186.31 51.4902c2.31152 5.74512 4.64258 11.4863 6.90625 17.251
c1.32422 3.37793 4.55176 5.77246 8.65918 7.26758c3.19141 31.4766 7.19141 62.707 16.8096 93.0654c6.48633 20.4863 54.8291 15.7842 58.6514 -4.52734c6.12598 -32.5312 5.52734 -65.6094 4.69434 -98.6279c31.251 3.37012 62.6006 5.45605 93.9463 6.12598
c11.4023 0.242188 37.3994 -4.93555 37.0146 -21.0996c-0.400391 -16.8818 -24.498 -20.4023 -37.0146 -21.0957c-31.8809 -1.76465 -63.5078 -4.70605 -94.9014 -8.81738z" />
    <glyph glyph-name="H" unicode="H" horiz-adv-x="1209" 
d="M404.533 847.891c-12.1201 -155.495 -17.3545 -311.904 -13.3779 -467.951c82.7178 33.748 167.838 61.7236 254.151 83.8594c76.9883 19.749 155.043 35.2041 233.848 45.6074c20.7793 2.74316 41.9746 5.33203 63.3252 7.22363
c2.49023 87.0508 7.2832 174.015 13.7734 260.653c18.1982 242.852 49.1787 484.45 88.8066 724.673c4.1709 25.2793 34.9971 32.4678 56.9619 32.4678c16.2314 0 60.4033 -7.72754 56.9658 -32.4717c-18.6621 -134.308 -37.2178 -268.722 -53.5088 -403.338
c-23.3887 -193.256 -40.6592 -387.495 -47.5615 -582.1c22.373 -2.68457 44.4336 -7.25195 65.8672 -14.5273c10.5586 -3.58398 20.4473 -13.4092 10.9473 -23.793c-9.90039 -10.8242 -29.0264 -9.56738 -41.7451 -6.24121
c-12.041 3.14844 -24.126 5.49121 -36.2383 7.29102c-0.955078 -33.3555 -1.62891 -66.7236 -1.93457 -100.096c-1.11035 -120.775 2.51758 -241.773 10.6807 -362.275c8.14746 -120.272 26.2432 -239.296 36.5996 -359.274
c2.5293 -29.292 -71.9648 -31.1797 -79.5215 -6.13379c-38.8984 128.903 -54.8252 265.938 -67.2275 399.623c-13.2461 142.78 -16.7744 286.465 -13.7373 430.002c-28.376 -2.47363 -56.7402 -6.46973 -84.9619 -10.6924
c-136.088 -20.3711 -269.658 -55.6104 -398.221 -104.655c-22.2031 -8.47266 -44.1963 -17.4092 -66.0264 -26.7266c0.958984 -26.6709 2.16797 -53.3262 3.69434 -79.9619c5.55469 -97.0586 14.793 -194.145 28.043 -290.457
c12.6123 -91.7021 26.6475 -184.375 62.6201 -270.276c12.7939 -30.5527 -60.8438 -35.7979 -73.0596 -11.4814c-48.4463 96.4434 -70.0508 202.739 -87.75 308.397c-16.4854 98.418 -27.7178 197.7 -34.4463 297.407
c-7.45801 -3.67188 -14.8955 -7.38281 -22.3174 -11.1377c-14.499 -7.33887 -166.406 -91.5547 -173.772 -106.268c14.3838 -8.46094 -2.09766 -24.5303 -20.9424 -20.9023c-14.0391 2.7002 -29.3828 12.0566 -22.9639 28.8672
c5.8877 15.4346 26.3105 28.7051 38.9658 38.1533c35.6074 26.5879 74.4111 48.5811 113.373 69.8125c27.9561 15.2363 56.3555 29.7041 85.1084 43.4736c-15.4268 281.282 4.1875 565.503 42.8008 843.039c3.32227 23.8799 33.5146 30.6162 53.7109 30.6162
c15.5498 0 56.625 -7.21973 53.7109 -30.6162c-13.6592 -109.682 -26.0488 -219.582 -34.6406 -329.791z" />
    <glyph glyph-name="I" unicode="I" horiz-adv-x="672" 
d="M99.8008 1037.25c8.25098 -4.47266 6.76074 -11.8545 -0.00292969 -16.5488c-7.96094 -5.53516 -20.8779 -4.13965 -29.041 0c-22.0879 11.2002 -27.1748 40.6035 -12.2236 59.6104c18.749 23.8447 52.2236 39.7002 77.749 55.2822
c61.3633 37.4551 126.846 69.0859 194.057 94.5791c8.64746 3.2832 17.3418 6.43945 26.0801 9.48438c0.947266 10.3721 1.90234 20.7441 2.90918 31.1084c4.21875 43.4424 112.033 41.5635 109.591 0.496094c23.4912 5.01172 47.1729 9.07129 70.9932 12.0449
c61.9385 7.72754 140.156 12.8779 187.46 -36.0078c10.1621 -10.5029 -0.737305 -20.5938 -11.1807 -24.3008c-14.0596 -4.9873 -30.9023 -2.72363 -42.6338 6.37207c-40.1836 31.1553 -97.1934 20.7559 -143.542 13.4365
c-21.6279 -3.41797 -43.0693 -7.7832 -64.3203 -12.9258c-7.88184 -102.609 -14.0947 -205.433 -18.3057 -308.231c-8.53613 -208.37 -8.33789 -417.275 1.83203 -625.582c5.11426 -104.746 11.8779 -209.211 19.0859 -313.822
c5.69336 -82.6621 18.1982 -167.112 18.3525 -250.512c60.6572 19.1504 122.785 33.8164 185.854 43.7803c13.0283 2.05762 40.3223 0.459961 46.333 -14.9951c6.16113 -15.8438 -13.9004 -24.499 -26.3066 -26.4102c-70.585 -10.8916 -139.949 -27.7773 -207.37 -50.373
c-0.209961 -3.31055 -0.376953 -6.625 -0.642578 -9.92773h-0.396484c-0.546875 -14.7891 -33.3633 -16.7676 -41.0391 -5.08691c-70.5059 -26.4531 -138.677 -59.1787 -203.568 -98.0254c-12.3223 -7.37891 -33.4033 -7.76367 -45.6025 -0.000976562
c-11.5059 7.32324 -11.6523 18.7021 0 25.9932c74.082 46.3643 152.645 84.8232 234.275 114.999c-12.6797 42.9824 -20.5059 87.1621 -28.3838 131.532c-10.4473 58.8379 -19.293 118.342 -26.1914 177.699c-45.2227 389.089 -53.6641 783.201 -21.1484 1173.71
c-48.0449 -18.2139 -94.6074 -40.0439 -139.83 -64.4551c-24.9072 -13.4482 -49.6475 -27.1787 -73.9473 -41.6982c-8.55957 -5.11426 -65.4863 -36.8086 -38.8945 -51.2246z" />
    <glyph glyph-name="I" unicode="&#xcf;" horiz-adv-x="672" 
d="M99.8008 1037.25c8.25098 -4.47266 6.76074 -11.8545 -0.00292969 -16.5488c-7.96094 -5.53516 -20.8779 -4.13965 -29.041 0c-22.0879 11.2002 -27.1748 40.6035 -12.2236 59.6104c18.749 23.8447 52.2236 39.7002 77.749 55.2822
c61.3633 37.4551 126.846 69.0859 194.057 94.5791c8.64746 3.2832 17.3418 6.43945 26.0801 9.48438c0.947266 10.3721 1.90234 20.7441 2.90918 31.1084c4.21875 43.4424 112.033 41.5635 109.591 0.496094c23.4912 5.01172 47.1729 9.07129 70.9932 12.0449
c61.9385 7.72754 140.156 12.8779 187.46 -36.0078c10.1621 -10.5029 -0.737305 -20.5938 -11.1807 -24.3008c-14.0596 -4.9873 -30.9023 -2.72363 -42.6338 6.37207c-40.1836 31.1553 -97.1934 20.7559 -143.542 13.4365
c-21.6279 -3.41797 -43.0693 -7.7832 -64.3203 -12.9258c-7.88184 -102.609 -14.0947 -205.433 -18.3057 -308.231c-8.53613 -208.37 -8.33789 -417.275 1.83203 -625.582c5.11426 -104.746 11.8779 -209.211 19.0859 -313.822
c5.69336 -82.6621 18.1982 -167.112 18.3525 -250.512c60.6572 19.1504 122.785 33.8164 185.854 43.7803c13.0283 2.05762 40.3223 0.459961 46.333 -14.9951c6.16113 -15.8438 -13.9004 -24.499 -26.3066 -26.4102c-70.585 -10.8916 -139.949 -27.7773 -207.37 -50.373
c-0.209961 -3.31055 -0.376953 -6.625 -0.642578 -9.92773h-0.396484c-0.546875 -14.7891 -33.3633 -16.7676 -41.0391 -5.08691c-70.5059 -26.4531 -138.677 -59.1787 -203.568 -98.0254c-12.3223 -7.37891 -33.4033 -7.76367 -45.6025 -0.000976562
c-11.5059 7.32324 -11.6523 18.7021 0 25.9932c74.082 46.3643 152.645 84.8232 234.275 114.999c-12.6797 42.9824 -20.5059 87.1621 -28.3838 131.532c-10.4473 58.8379 -19.293 118.342 -26.1914 177.699c-45.2227 389.089 -53.6641 783.201 -21.1484 1173.71
c-48.0449 -18.2139 -94.6074 -40.0439 -139.83 -64.4551c-24.9072 -13.4482 -49.6475 -27.1787 -73.9473 -41.6982c-8.55957 -5.11426 -65.4863 -36.8086 -38.8945 -51.2246z" />
    <glyph glyph-name="I" unicode="&#xce;" horiz-adv-x="672" 
d="M99.8008 1037.25c8.25098 -4.47266 6.76074 -11.8545 -0.00292969 -16.5488c-7.96094 -5.53516 -20.8779 -4.13965 -29.041 0c-22.0879 11.2002 -27.1748 40.6035 -12.2236 59.6104c18.749 23.8447 52.2236 39.7002 77.749 55.2822
c61.3633 37.4551 126.846 69.0859 194.057 94.5791c8.64746 3.2832 17.3418 6.43945 26.0801 9.48438c0.947266 10.3721 1.90234 20.7441 2.90918 31.1084c4.21875 43.4424 112.033 41.5635 109.591 0.496094c23.4912 5.01172 47.1729 9.07129 70.9932 12.0449
c61.9385 7.72754 140.156 12.8779 187.46 -36.0078c10.1621 -10.5029 -0.737305 -20.5938 -11.1807 -24.3008c-14.0596 -4.9873 -30.9023 -2.72363 -42.6338 6.37207c-40.1836 31.1553 -97.1934 20.7559 -143.542 13.4365
c-21.6279 -3.41797 -43.0693 -7.7832 -64.3203 -12.9258c-7.88184 -102.609 -14.0947 -205.433 -18.3057 -308.231c-8.53613 -208.37 -8.33789 -417.275 1.83203 -625.582c5.11426 -104.746 11.8779 -209.211 19.0859 -313.822
c5.69336 -82.6621 18.1982 -167.112 18.3525 -250.512c60.6572 19.1504 122.785 33.8164 185.854 43.7803c13.0283 2.05762 40.3223 0.459961 46.333 -14.9951c6.16113 -15.8438 -13.9004 -24.499 -26.3066 -26.4102c-70.585 -10.8916 -139.949 -27.7773 -207.37 -50.373
c-0.209961 -3.31055 -0.376953 -6.625 -0.642578 -9.92773h-0.396484c-0.546875 -14.7891 -33.3633 -16.7676 -41.0391 -5.08691c-70.5059 -26.4531 -138.677 -59.1787 -203.568 -98.0254c-12.3223 -7.37891 -33.4033 -7.76367 -45.6025 -0.000976562
c-11.5059 7.32324 -11.6523 18.7021 0 25.9932c74.082 46.3643 152.645 84.8232 234.275 114.999c-12.6797 42.9824 -20.5059 87.1621 -28.3838 131.532c-10.4473 58.8379 -19.293 118.342 -26.1914 177.699c-45.2227 389.089 -53.6641 783.201 -21.1484 1173.71
c-48.0449 -18.2139 -94.6074 -40.0439 -139.83 -64.4551c-24.9072 -13.4482 -49.6475 -27.1787 -73.9473 -41.6982c-8.55957 -5.11426 -65.4863 -36.8086 -38.8945 -51.2246z" />
    <glyph glyph-name="I" unicode="&#xcd;" horiz-adv-x="672" 
d="M99.8008 1037.25c8.25098 -4.47266 6.76074 -11.8545 -0.00292969 -16.5488c-7.96094 -5.53516 -20.8779 -4.13965 -29.041 0c-22.0879 11.2002 -27.1748 40.6035 -12.2236 59.6104c18.749 23.8447 52.2236 39.7002 77.749 55.2822
c61.3633 37.4551 126.846 69.0859 194.057 94.5791c8.64746 3.2832 17.3418 6.43945 26.0801 9.48438c0.947266 10.3721 1.90234 20.7441 2.90918 31.1084c4.21875 43.4424 112.033 41.5635 109.591 0.496094c23.4912 5.01172 47.1729 9.07129 70.9932 12.0449
c61.9385 7.72754 140.156 12.8779 187.46 -36.0078c10.1621 -10.5029 -0.737305 -20.5938 -11.1807 -24.3008c-14.0596 -4.9873 -30.9023 -2.72363 -42.6338 6.37207c-40.1836 31.1553 -97.1934 20.7559 -143.542 13.4365
c-21.6279 -3.41797 -43.0693 -7.7832 -64.3203 -12.9258c-7.88184 -102.609 -14.0947 -205.433 -18.3057 -308.231c-8.53613 -208.37 -8.33789 -417.275 1.83203 -625.582c5.11426 -104.746 11.8779 -209.211 19.0859 -313.822
c5.69336 -82.6621 18.1982 -167.112 18.3525 -250.512c60.6572 19.1504 122.785 33.8164 185.854 43.7803c13.0283 2.05762 40.3223 0.459961 46.333 -14.9951c6.16113 -15.8438 -13.9004 -24.499 -26.3066 -26.4102c-70.585 -10.8916 -139.949 -27.7773 -207.37 -50.373
c-0.209961 -3.31055 -0.376953 -6.625 -0.642578 -9.92773h-0.396484c-0.546875 -14.7891 -33.3633 -16.7676 -41.0391 -5.08691c-70.5059 -26.4531 -138.677 -59.1787 -203.568 -98.0254c-12.3223 -7.37891 -33.4033 -7.76367 -45.6025 -0.000976562
c-11.5059 7.32324 -11.6523 18.7021 0 25.9932c74.082 46.3643 152.645 84.8232 234.275 114.999c-12.6797 42.9824 -20.5059 87.1621 -28.3838 131.532c-10.4473 58.8379 -19.293 118.342 -26.1914 177.699c-45.2227 389.089 -53.6641 783.201 -21.1484 1173.71
c-48.0449 -18.2139 -94.6074 -40.0439 -139.83 -64.4551c-24.9072 -13.4482 -49.6475 -27.1787 -73.9473 -41.6982c-8.55957 -5.11426 -65.4863 -36.8086 -38.8945 -51.2246z" />
    <glyph glyph-name="J" unicode="J" horiz-adv-x="1216" 
d="M1285.46 1126.11c-10.5898 4.70996 -21.3467 17.3682 -9.70605 27.6963c11.5137 10.209 9.28516 31.3652 0.995117 43.1963c-9.59863 13.6982 -26.9883 15.4385 -42.3203 16.2432c-55.0908 2.88672 -111.019 -5.70898 -165.103 -15.1846
c-22.8213 -4 -45.5908 -8.37305 -68.293 -13.0986c5.78906 -96.3877 11.2959 -192.784 19.5068 -289.021c10.4316 -122.271 21.7031 -244.584 30.0332 -367.017c14.2852 -209.889 21.2832 -424.285 -15.2441 -632.373
c-27.6064 -157.264 -80.4258 -405.432 -284.941 -405.253c-83.2607 0.0712891 -188.213 39.0889 -213.774 126.278c-24.6885 84.208 9.58691 180.576 37.3486 259.765c67.0605 191.266 178.432 360.884 290.001 528.543c10.0508 15.0977 58.1836 9.38867 47.5498 -7.47363
c-111.906 -177.508 -225.541 -359.615 -291.476 -560.171c-24.2451 -73.7451 -55.4561 -169.289 -16.5059 -243.554c35.6436 -67.9609 153.854 -100.223 211.799 -44.0771c53.7627 52.0938 68.25 135.822 82.1826 206.193c19.1738 96.8359 33.2969 194.037 40.2471 292.578
c14.127 200.306 4.45312 400.448 -7.3418 600.587c-10.0586 170.617 -25.0967 343.931 -15.2246 515.277c-125.771 -31.4648 -248.934 -73.9512 -367.144 -126.758c-84.5332 -37.7646 -167.013 -80.6641 -246.384 -128.341
c-38.2686 -22.9922 -75.8389 -47.4072 -110.884 -75.1172c-19.2725 -15.2363 -38.3193 -31.2227 -56.0654 -48.2275c-7.18066 -6.88281 -14.29 -13.9199 -18.0918 -23.3047c-0.904297 -2.22852 -5.84863 -20.8477 -1.03125 -22.8145
c30.1758 -12.3145 -0.880859 -32.7012 -20.8359 -28.1689c-22.5752 5.12207 -43.7627 19.3955 -44.7305 45.0156c-1.01074 26.8301 24.8398 48.9541 42.4717 65.9199c43.4863 41.8447 94.1641 76.9092 145.088 109.024c184.225 116.185 388.84 203.212 598.594 261.082
c27.3291 7.54102 54.8887 14.8203 82.6182 21.624c1.6377 18.627 3.59277 37.2295 5.92773 55.793c3.46875 27.5869 69.1777 28.1377 70.9932 0c0.816406 -12.6436 1.60156 -25.291 2.38672 -37.9346c59.5635 12.1162 119.705 21.168 179.99 24.9746
c50.8721 3.21191 112.449 6.01855 155.701 -25.8545c37.2891 -27.4805 41.7539 -78.3135 1.11914 -104.37c-13.6504 -8.75 -35.124 -8.05664 -49.457 -1.67773z" />
    <glyph glyph-name="K" unicode="K" horiz-adv-x="972" 
d="M426.8 -369.619c-19.5107 -3.12402 -45.3955 0.328125 -56.7305 18.3643c-60.1777 95.6787 -82.1709 209.484 -102.729 319.02c-21.3818 113.944 -36.377 229.059 -45.8643 344.755c-38.082 -1.60547 -76.6836 -9.53906 -114.527 -17.4131
c-15.5342 -3.23145 -39.8379 -0.448242 -51.3438 11.9102c-10.082 10.832 -5.87891 24.8594 7.10938 31.4053c52.2676 26.3418 102.648 55.3682 151.229 87.3955c-14.2373 277.746 1.8877 557.768 37.7812 832.111c3.12402 23.8916 33.6807 30.6162 53.7109 30.6162
c15.8594 0 56.2129 -7.14453 53.7109 -30.6162c-12.7666 -119.729 -23.6064 -239.886 -30.8857 -360.082c-7.95312 -131.394 -11.1406 -263.267 -8.28223 -394.969c121.728 96.7686 230.442 209.82 331.481 327.638c54.6191 63.6865 106.066 131.18 168.44 187.666
c29.0459 26.3066 63.1748 53.7275 100.016 68.0488c28.8555 11.2168 74.1807 16.7676 91.5742 -15.4697c8.13965 -15.0859 -27.1514 -16.5723 -34.3232 -11.3906c-13.3252 9.62207 -28.5859 -4.04883 -39.7988 -12.3828
c-17.3418 -12.8896 -33.2129 -27.6582 -48.9375 -42.4307c-30.5967 -28.7451 -57.9375 -60.7803 -84.1689 -93.4902c-95.9521 -119.642 -189.624 -240.108 -300.599 -346.603c-56.1572 -53.8896 -116.573 -104.857 -180.831 -150.171
c0.879883 -20.5537 1.93457 -41.0996 3.13184 -61.6377c22.5283 -4.80176 44.7549 -11.8633 66.5254 -21.7988c66.6719 -30.4297 119.403 -83.915 164.233 -140.615c46.7051 -59.0791 89.5967 -120.731 139.569 -177.237
c50.6104 -57.2314 107.108 -111.279 171.564 -152.703c31.5283 -20.2598 64.7969 -38.0498 99.8379 -51.4268c36.4766 -13.9248 73.8135 -24.3604 111.8 -10.4355c12.9248 4.73828 32.376 3.88965 43.5527 -4.95605c9.75781 -7.72754 8.69922 -19.3447 -2.63965 -25.2725
c-88.792 -46.4082 -199.021 -3.66016 -281.521 38.0537c-73.1348 36.9795 -140.417 87.543 -198.43 145.271c-55.6064 55.3291 -101.166 117.782 -147.34 180.897c-41.0674 56.1299 -86.2383 116.731 -147.213 152.482c-5.30469 3.1084 -10.6611 5.87988 -16.0488 8.40137
c0.800781 -10.8994 1.61719 -21.7949 2.51367 -32.6904c8.78223 -106.855 21.6084 -213.6 39.4854 -319.325c16.3115 -96.4434 36.1514 -193.696 87.1582 -278.578c11.0459 -18.3887 -20.0342 -30.3896 -32.2139 -32.3408z" />
    <glyph glyph-name="L" unicode="L" horiz-adv-x="552" 
d="M1097.87 -219.004c42.6416 -87.9746 -94.8457 -131.506 -155.646 -143.436c-162.846 -31.9639 -318.991 33.2891 -475.648 66.2607c-0.336914 0.0712891 -0.673828 0.134766 -1.01074 0.206055c8.03711 -17.4014 17.5127 -34.0254 28.8721 -49.5117
c10.9189 -14.8838 -15.6211 -26.9014 -25.3232 -29.4111c-15.2764 -3.94922 -43.3467 -3.7666 -54.6143 10.2012c-20.5459 25.4775 -35.7227 53.1475 -47.5459 82.5107c-38.8232 2.2998 -77.7461 0.396484 -116.431 -7.83887
c-32.1387 -6.84277 -63.3223 -18.6699 -91.3887 -35.8135c-15.748 -9.62305 -30.7988 -20.9668 -43.8867 -34.0264c-6.50586 -6.49414 -12.9883 -13.8926 -15.3115 -23.0596c-1.22949 -4.85645 -0.789062 -8.5791 -0.213867 -13.5352
c0.376953 -3.24316 5.22168 -4.18652 1.22949 -4.46777c21.3066 1.49512 30.1318 -22.2227 5.80371 -24.4512c-36.7373 -3.36621 -72.0635 27.1543 -49.8525 64.542c19.4316 32.7139 58.6475 56.8477 92.1699 72.8418c66.4023 31.6787 136.048 41.0312 206.276 38.2598
c-2.96973 9.41602 -5.69336 18.9707 -8.21094 28.6611c-14.9551 57.4971 -26.5439 116.025 -36.6982 174.542c-37.1816 214.345 -45.0117 432.856 -36.6934 649.94c8.36133 218.258 30.2393 436.107 61.2197 652.256c3.52832 24.6455 34.5088 31.6035 55.4434 31.6035
c16.2871 0 58.1357 -7.39062 55.4434 -31.6035c-13.3936 -120.514 -27.7656 -240.98 -39.1562 -361.704c-20.2168 -214.277 -30.7793 -430.141 -21.7236 -645.33c4.46875 -106.189 13.6748 -212.521 28.8877 -317.728c8.94043 -61.8232 16.4619 -129.629 37.4199 -191.004
c56.0703 -9.36914 111.74 -23.5156 165.657 -37.3252c81.3613 -20.8389 164.193 -40.5117 248.806 -36.5391c56.9062 2.67578 194.611 26.6904 176.452 110.665c-4.44043 20.5498 48.1768 19.7646 55.6738 4.29395z" />
    <glyph glyph-name="M" unicode="M" horiz-adv-x="1224" 
d="M1004.93 516.799c3.79004 127.477 6.55469 254.942 9.39746 382.442c1.39551 62.3701 1.82812 124.729 1.60254 187.11c-0.22168 60.8877 2.23633 124.578 -12.4297 184.181c-3.23535 13.1592 -6.79199 29.8154 -14.5674 41.2061
c-8.2627 12.1006 -13.96 9.47168 -25.2275 2.26758c-20.2363 -12.9375 -34.3789 -33.499 -47.7881 -52.8789c-30.9219 -44.6914 -57.6367 -92.166 -81.4766 -140.973c-47.1221 -96.4639 -82.8926 -197.903 -118.671 -298.962
c-35.9131 -101.439 -71.8779 -203.224 -119.135 -300.067c-19.3008 -39.5527 -40.2666 -96.2852 -87.3408 -109.266c-50.416 -13.9043 -82.1621 25.1885 -105.725 63.1787c-112.228 180.957 -119.408 401.312 -152.475 608.14
c-14.7051 -67.6396 -28.4707 -135.478 -41.0234 -203.561c-32.1621 -174.451 -52.7275 -350.81 -59.2461 -528.119c-3.27051 -89.0176 -2.06152 -178.134 2.43848 -267.092c4.13965 -81.833 10.6494 -166.212 41.377 -242.982
c12.0811 -30.1758 -59.0078 -34.4297 -70.9658 -11.1523c-44.1641 85.9688 -55.626 182.016 -64.2139 277.012c-32.5273 359.777 22.1631 727.881 111.902 1075.93c5.01953 19.459 40.9961 21.9326 56.0781 20.8662c11.3438 -0.800781 48.7988 -9.1582 44.3145 -28.6133
c-0.217773 -0.955078 -0.431641 -1.91016 -0.649414 -2.86133c0.0869141 -0.225586 0.241211 -0.423828 0.304688 -0.666016c35.6592 -135.973 44.3857 -276.869 72.9365 -414.261c13.0088 -62.6045 30.3506 -124.399 55.0195 -183.467
c12.4531 -29.8154 26.75 -58.8496 43.4297 -86.5361c7.96875 -13.2227 16.0332 -27.0557 26.4805 -38.5098c10.7363 -11.7676 19.209 -18.7178 32.8281 -7.42578c20.2285 16.7715 31.5879 45.5635 43.1885 68.4326c10.8994 21.4814 21.208 43.2637 31.0488 65.248
c22.4443 50.1426 42.4189 101.348 61.4297 152.878c37.2773 101.039 70.792 203.518 112.03 303.058c20.8154 50.2422 43.6055 99.7227 69.7734 147.419c23.8047 43.3828 49.4883 89.918 82.749 126.917c30.4775 33.8994 81.6436 57.0537 123.885 29.1572
c22.9404 -15.1455 34.5771 -43.4141 43.2402 -68.3252c9.36914 -26.9326 14.5947 -54.6787 17.9648 -82.9355c14.8955 -124.819 17.5361 -252.402 18.8721 -377.983c1.35547 -127.472 1.12988 -254.987 0.733398 -382.459
c-0.800781 -257.264 5.38477 -514.056 36.2705 -769.71c3.05273 -25.2754 -41.6738 -32.9629 -57.8301 -32.9629c-21.6592 0 -54.4238 7.34668 -57.8291 32.9629c-37.9746 285.474 -31.2422 576.185 -22.7021 863.358z" />
    <glyph glyph-name="N" unicode="N" horiz-adv-x="934" 
d="M823.62 1381.35c-3.04883 -4.76953 -4.17188 -10.5684 -5.0127 -16.0322c-2.25195 -14.6934 -0.174805 -30.4736 0.792969 -45.2031c2.25195 -34.3076 3.34668 -68.5 4.07227 -102.875c1.45117 -68.5986 1.7168 -137.138 1.74414 -205.753
c0.0556641 -137.182 -0.380859 -274.34 -1.46289 -411.514c-1.93066 -243.962 0.444336 -489.97 -21.2588 -733.17c-4.89258 -54.8447 -13.2861 -109.543 -32.9873 -161.236c-18.4482 -48.3906 -67.3457 -71.252 -115.506 -45.1875
c-41.7734 22.6074 -73.4521 71.1885 -96.7256 111.28c-25.6289 44.1523 -44.7666 91.7295 -61.585 139.822c-75.9697 217.203 -113.413 445.144 -153.474 670.982c-20.3945 114.971 -40.6465 230.164 -66.7305 344.005c-17.7939 77.6543 -33.7285 161.086 -80.8418 225.692
c-9.28906 -91.1074 -16.6914 -182.444 -22.0244 -273.845c-11.7354 -201.122 -13.9521 -402.779 -4.95996 -604.056c4.49219 -100.603 10.9473 -200.876 19.1426 -301.237c8.16309 -99.9521 19.6885 -199.588 27.7607 -299.544
c2.2168 -27.4443 -69.5225 -30.0771 -75.2637 -5.80469c-26.1475 110.526 -43.4893 223.353 -56.2441 336.183c-45.5518 403.021 -44.1875 811.419 5.09863 1214.03c3.09277 25.2441 35.7627 32.3447 56.748 32.3447c16.6562 0 59.5273 -7.56836 56.748 -32.3447
c-0.677734 -6.05469 -1.31641 -12.1172 -1.97852 -18.1719c80.0654 -72.6191 108.485 -190.068 133.495 -290.952c30.9727 -124.927 54.6504 -251.253 77.8564 -377.797c20.6562 -112.628 41.3877 -225.312 67.3574 -336.861
c25.8945 -111.236 55.2021 -223.428 98.5215 -329.319c19.2891 -47.1533 42.5586 -93.6758 73.916 -134.073c8.04883 -10.3721 16.6367 -20.4541 25.8506 -29.8193c4.25391 -4.32129 10.9189 -8.36133 14.5703 -12.9922
c2.38281 -0.769531 3.95312 -1.44727 4.78223 -2.04199c0.178711 0.138672 0.357422 0.28125 0.536133 0.419922c5.12207 8.81348 11.3701 15.8984 15.4258 25.6797c5.29297 12.7666 9.07129 26.1602 12.1836 39.6123c12.7314 55.0312 13.79 112.397 15.2646 168.603
c1.66113 63.1436 1.68066 126.314 0.927734 189.47c-2.93359 245.234 -10.5654 490.421 -13.7734 735.663c-1.58594 121.335 -4.30566 242.682 -3.83008 364.028c0.123047 31.6865 0.0195312 63.3057 1.50586 94.9609c1.15332 24.5459 0.749023 50.2217 9.44336 73.6143
c19.3877 52.1611 92.249 67.9248 134.363 34.3906c12.5244 -9.97559 0.142578 -22.8535 -9.59082 -27.377c-9.87207 -4.58691 -23.1143 -5.95898 -34.8584 -3.57227zM826.371 1385.24c2.35156 1.57812 2.46582 3.04883 0 0zM813.255 1384.73
c-1.24512 0.59082 -2.51367 1.14941 -3.66309 1.85547c1.28809 -0.792969 2.49707 -1.37207 3.66309 -1.85547z" />
    <glyph glyph-name="O" unicode="O" horiz-adv-x="932" 
d="M715.839 1159.67c84.3545 -118.302 121.481 -265.357 135.913 -408.118c15.7637 -156.059 11.6328 -315.388 -12.7783 -470.34c-23.9795 -152.208 -62.5098 -308.556 -129.994 -447.752c-60.8242 -125.454 -171.795 -268.456 -330.573 -234.351
c-160.967 34.5771 -192.686 220.898 -197.816 359.46c-3.10059 83.7012 3.56836 166.641 15.1895 249.049c-35.7148 32.0479 -62.2754 74.832 -80.9971 118.298c-27.7891 64.5107 -46.1221 134.549 -55.9941 204.028c-20.3193 143.019 -5.1582 290.814 42.915 427.005
c45.3457 128.451 121.616 262.568 252.34 318.464c64.9199 27.7578 142.349 34.5381 209.421 10.1543c64.0674 -23.2891 113.457 -71.3184 152.375 -125.897zM748.466 388.952c16.5371 140.378 18.1562 283.059 2.3291 423.583
c-14.1426 125.558 -48.0498 258.989 -128.194 359.759c-34.8467 43.8105 -80.9648 82.5625 -139.156 86.0986c-59.0957 3.5918 -116.808 -25.252 -160.127 -63.4365c-95.1113 -83.8359 -149.365 -215.896 -178.269 -336.723
c-30.6162 -127.995 -31.2783 -263.063 -4.38867 -391.753c13.2461 -63.4131 32.9951 -127.92 65.8789 -184.077c0.265625 -0.456055 0.550781 -0.916016 0.820312 -1.37207c9.54688 55.3643 20.668 110.522 31.9795 165.526
c6.0625 29.4824 79.2529 26.2236 74.0312 0.000976562c-7.2793 -36.5635 -14.5273 -73.1348 -21.291 -109.797c-7.8584 -42.5781 -15.1699 -85.5127 -21.0977 -128.649c21.8623 -16.3867 46.8125 -27.7734 73.9834 -29.7715
c7.5332 -0.554688 23.7891 -2.64062 23.7891 -13.5596c0 -10.6016 -15.9307 -13.4561 -23.7891 -13.5596c-27.2617 -0.356445 -54.0117 4.56348 -79.374 14.0234c-10.2412 -90.2266 -13.1826 -181.123 -0.966797 -271.294
c8.91309 -65.7998 23.0439 -139.728 67.041 -192.091c17.6357 -20.9854 40.0449 -39.7188 67.124 -46.709c17.2432 -4.44824 30.918 -1.62891 49.2314 7.9541c51.2969 26.8379 87.9795 75.0977 117.938 123.254c35.7109 57.3984 62.9453 119.657 85.7393 183.177
c48.5967 135.438 79.9424 276.604 96.7686 419.416z" />
    <glyph glyph-name="O" unicode="&#xd6;" horiz-adv-x="932" 
d="M715.839 1159.67c84.3545 -118.302 121.481 -265.357 135.913 -408.118c15.7637 -156.059 11.6328 -315.388 -12.7783 -470.34c-23.9795 -152.208 -62.5098 -308.556 -129.994 -447.752c-60.8242 -125.454 -171.795 -268.456 -330.573 -234.351
c-160.967 34.5771 -192.686 220.898 -197.816 359.46c-3.10059 83.7012 3.56836 166.641 15.1895 249.049c-35.7148 32.0479 -62.2754 74.832 -80.9971 118.298c-27.7891 64.5107 -46.1221 134.549 -55.9941 204.028c-20.3193 143.019 -5.1582 290.814 42.915 427.005
c45.3457 128.451 121.616 262.568 252.34 318.464c64.9199 27.7578 142.349 34.5381 209.421 10.1543c64.0674 -23.2891 113.457 -71.3184 152.375 -125.897zM748.466 388.952c16.5371 140.378 18.1562 283.059 2.3291 423.583
c-14.1426 125.558 -48.0498 258.989 -128.194 359.759c-34.8467 43.8105 -80.9648 82.5625 -139.156 86.0986c-59.0957 3.5918 -116.808 -25.252 -160.127 -63.4365c-95.1113 -83.8359 -149.365 -215.896 -178.269 -336.723
c-30.6162 -127.995 -31.2783 -263.063 -4.38867 -391.753c13.2461 -63.4131 32.9951 -127.92 65.8789 -184.077c0.265625 -0.456055 0.550781 -0.916016 0.820312 -1.37207c9.54688 55.3643 20.668 110.522 31.9795 165.526
c6.0625 29.4824 79.2529 26.2236 74.0312 0.000976562c-7.2793 -36.5635 -14.5273 -73.1348 -21.291 -109.797c-7.8584 -42.5781 -15.1699 -85.5127 -21.0977 -128.649c21.8623 -16.3867 46.8125 -27.7734 73.9834 -29.7715
c7.5332 -0.554688 23.7891 -2.64062 23.7891 -13.5596c0 -10.6016 -15.9307 -13.4561 -23.7891 -13.5596c-27.2617 -0.356445 -54.0117 4.56348 -79.374 14.0234c-10.2412 -90.2266 -13.1826 -181.123 -0.966797 -271.294
c8.91309 -65.7998 23.0439 -139.728 67.041 -192.091c17.6357 -20.9854 40.0449 -39.7188 67.124 -46.709c17.2432 -4.44824 30.918 -1.62891 49.2314 7.9541c51.2969 26.8379 87.9795 75.0977 117.938 123.254c35.7109 57.3984 62.9453 119.657 85.7393 183.177
c48.5967 135.438 79.9424 276.604 96.7686 419.416z" />
    <glyph glyph-name="O" unicode="&#xd5;" horiz-adv-x="932" 
d="M715.839 1159.67c84.3545 -118.302 121.481 -265.357 135.913 -408.118c15.7637 -156.059 11.6328 -315.388 -12.7783 -470.34c-23.9795 -152.208 -62.5098 -308.556 -129.994 -447.752c-60.8242 -125.454 -171.795 -268.456 -330.573 -234.351
c-160.967 34.5771 -192.686 220.898 -197.816 359.46c-3.10059 83.7012 3.56836 166.641 15.1895 249.049c-35.7148 32.0479 -62.2754 74.832 -80.9971 118.298c-27.7891 64.5107 -46.1221 134.549 -55.9941 204.028c-20.3193 143.019 -5.1582 290.814 42.915 427.005
c45.3457 128.451 121.616 262.568 252.34 318.464c64.9199 27.7578 142.349 34.5381 209.421 10.1543c64.0674 -23.2891 113.457 -71.3184 152.375 -125.897zM748.466 388.952c16.5371 140.378 18.1562 283.059 2.3291 423.583
c-14.1426 125.558 -48.0498 258.989 -128.194 359.759c-34.8467 43.8105 -80.9648 82.5625 -139.156 86.0986c-59.0957 3.5918 -116.808 -25.252 -160.127 -63.4365c-95.1113 -83.8359 -149.365 -215.896 -178.269 -336.723
c-30.6162 -127.995 -31.2783 -263.063 -4.38867 -391.753c13.2461 -63.4131 32.9951 -127.92 65.8789 -184.077c0.265625 -0.456055 0.550781 -0.916016 0.820312 -1.37207c9.54688 55.3643 20.668 110.522 31.9795 165.526
c6.0625 29.4824 79.2529 26.2236 74.0312 0.000976562c-7.2793 -36.5635 -14.5273 -73.1348 -21.291 -109.797c-7.8584 -42.5781 -15.1699 -85.5127 -21.0977 -128.649c21.8623 -16.3867 46.8125 -27.7734 73.9834 -29.7715
c7.5332 -0.554688 23.7891 -2.64062 23.7891 -13.5596c0 -10.6016 -15.9307 -13.4561 -23.7891 -13.5596c-27.2617 -0.356445 -54.0117 4.56348 -79.374 14.0234c-10.2412 -90.2266 -13.1826 -181.123 -0.966797 -271.294
c8.91309 -65.7998 23.0439 -139.728 67.041 -192.091c17.6357 -20.9854 40.0449 -39.7188 67.124 -46.709c17.2432 -4.44824 30.918 -1.62891 49.2314 7.9541c51.2969 26.8379 87.9795 75.0977 117.938 123.254c35.7109 57.3984 62.9453 119.657 85.7393 183.177
c48.5967 135.438 79.9424 276.604 96.7686 419.416z" />
    <glyph glyph-name="O" unicode="&#xd4;" horiz-adv-x="932" 
d="M715.839 1159.67c84.3545 -118.302 121.481 -265.357 135.913 -408.118c15.7637 -156.059 11.6328 -315.388 -12.7783 -470.34c-23.9795 -152.208 -62.5098 -308.556 -129.994 -447.752c-60.8242 -125.454 -171.795 -268.456 -330.573 -234.351
c-160.967 34.5771 -192.686 220.898 -197.816 359.46c-3.10059 83.7012 3.56836 166.641 15.1895 249.049c-35.7148 32.0479 -62.2754 74.832 -80.9971 118.298c-27.7891 64.5107 -46.1221 134.549 -55.9941 204.028c-20.3193 143.019 -5.1582 290.814 42.915 427.005
c45.3457 128.451 121.616 262.568 252.34 318.464c64.9199 27.7578 142.349 34.5381 209.421 10.1543c64.0674 -23.2891 113.457 -71.3184 152.375 -125.897zM748.466 388.952c16.5371 140.378 18.1562 283.059 2.3291 423.583
c-14.1426 125.558 -48.0498 258.989 -128.194 359.759c-34.8467 43.8105 -80.9648 82.5625 -139.156 86.0986c-59.0957 3.5918 -116.808 -25.252 -160.127 -63.4365c-95.1113 -83.8359 -149.365 -215.896 -178.269 -336.723
c-30.6162 -127.995 -31.2783 -263.063 -4.38867 -391.753c13.2461 -63.4131 32.9951 -127.92 65.8789 -184.077c0.265625 -0.456055 0.550781 -0.916016 0.820312 -1.37207c9.54688 55.3643 20.668 110.522 31.9795 165.526
c6.0625 29.4824 79.2529 26.2236 74.0312 0.000976562c-7.2793 -36.5635 -14.5273 -73.1348 -21.291 -109.797c-7.8584 -42.5781 -15.1699 -85.5127 -21.0977 -128.649c21.8623 -16.3867 46.8125 -27.7734 73.9834 -29.7715
c7.5332 -0.554688 23.7891 -2.64062 23.7891 -13.5596c0 -10.6016 -15.9307 -13.4561 -23.7891 -13.5596c-27.2617 -0.356445 -54.0117 4.56348 -79.374 14.0234c-10.2412 -90.2266 -13.1826 -181.123 -0.966797 -271.294
c8.91309 -65.7998 23.0439 -139.728 67.041 -192.091c17.6357 -20.9854 40.0449 -39.7188 67.124 -46.709c17.2432 -4.44824 30.918 -1.62891 49.2314 7.9541c51.2969 26.8379 87.9795 75.0977 117.938 123.254c35.7109 57.3984 62.9453 119.657 85.7393 183.177
c48.5967 135.438 79.9424 276.604 96.7686 419.416z" />
    <glyph glyph-name="O" unicode="&#xd3;" horiz-adv-x="932" 
d="M715.839 1159.67c84.3545 -118.302 121.481 -265.357 135.913 -408.118c15.7637 -156.059 11.6328 -315.388 -12.7783 -470.34c-23.9795 -152.208 -62.5098 -308.556 -129.994 -447.752c-60.8242 -125.454 -171.795 -268.456 -330.573 -234.351
c-160.967 34.5771 -192.686 220.898 -197.816 359.46c-3.10059 83.7012 3.56836 166.641 15.1895 249.049c-35.7148 32.0479 -62.2754 74.832 -80.9971 118.298c-27.7891 64.5107 -46.1221 134.549 -55.9941 204.028c-20.3193 143.019 -5.1582 290.814 42.915 427.005
c45.3457 128.451 121.616 262.568 252.34 318.464c64.9199 27.7578 142.349 34.5381 209.421 10.1543c64.0674 -23.2891 113.457 -71.3184 152.375 -125.897zM748.466 388.952c16.5371 140.378 18.1562 283.059 2.3291 423.583
c-14.1426 125.558 -48.0498 258.989 -128.194 359.759c-34.8467 43.8105 -80.9648 82.5625 -139.156 86.0986c-59.0957 3.5918 -116.808 -25.252 -160.127 -63.4365c-95.1113 -83.8359 -149.365 -215.896 -178.269 -336.723
c-30.6162 -127.995 -31.2783 -263.063 -4.38867 -391.753c13.2461 -63.4131 32.9951 -127.92 65.8789 -184.077c0.265625 -0.456055 0.550781 -0.916016 0.820312 -1.37207c9.54688 55.3643 20.668 110.522 31.9795 165.526
c6.0625 29.4824 79.2529 26.2236 74.0312 0.000976562c-7.2793 -36.5635 -14.5273 -73.1348 -21.291 -109.797c-7.8584 -42.5781 -15.1699 -85.5127 -21.0977 -128.649c21.8623 -16.3867 46.8125 -27.7734 73.9834 -29.7715
c7.5332 -0.554688 23.7891 -2.64062 23.7891 -13.5596c0 -10.6016 -15.9307 -13.4561 -23.7891 -13.5596c-27.2617 -0.356445 -54.0117 4.56348 -79.374 14.0234c-10.2412 -90.2266 -13.1826 -181.123 -0.966797 -271.294
c8.91309 -65.7998 23.0439 -139.728 67.041 -192.091c17.6357 -20.9854 40.0449 -39.7188 67.124 -46.709c17.2432 -4.44824 30.918 -1.62891 49.2314 7.9541c51.2969 26.8379 87.9795 75.0977 117.938 123.254c35.7109 57.3984 62.9453 119.657 85.7393 183.177
c48.5967 135.438 79.9424 276.604 96.7686 419.416z" />
    <glyph glyph-name="P" unicode="P" horiz-adv-x="1279" 
d="M654.796 114.003c-62.9971 -25.2949 -131.278 -40.4736 -199.366 -39.0303c-0.689453 0.0117188 -1.39551 0.0390625 -2.08887 0.0546875c7.02148 -67.3779 15.6367 -134.577 26.3975 -201.483c15.9072 -98.8975 31.0967 -196.035 74.4834 -287.143
c7.19238 -15.1016 -14.459 -23.7451 -25.3975 -25.498c-16.0098 -2.56543 -34.9658 0.598633 -44.7354 14.4756c-31.7266 45.0596 -47.9033 100.376 -61.2969 153.242c-14.6582 57.8428 -26.8145 116.312 -37.4678 175.015
c-11.4385 63.0088 -21.1084 126.406 -29.1406 190.077c-22.4014 9.8252 -41.8682 24.4238 -54.1865 45.8809c-27.7021 48.2559 2.90234 101.638 35.3467 142.134c-22.6865 302.879 -9.23438 609.524 34.8027 908.502c3.34668 22.71 31.7344 29.1328 51.1104 29.1328
c14.9512 0 53.6758 -6.83105 51.1104 -29.1328c-13.6826 -118.939 -25.9775 -238.188 -33.7168 -357.676c-9.87988 -152.537 -13.1748 -305.674 -8.09961 -458.497c26.5723 20.498 54.6348 39.1328 82.9434 56.2529c58.8809 35.6074 122.167 64.6855 187.665 85.8135
c68.4844 22.0918 141.654 34.0254 211.641 11.6162c10.832 -3.46484 20.6289 -13.7139 11.1016 -24.1299c-9.79297 -10.709 -29.7002 -10.1777 -42.3359 -6.32812c-28.5303 8.69434 -57.7314 8.25781 -86.9082 3.27441
c-61.3516 -10.4746 -121.783 -35.9092 -176.894 -64.2061c-54.2705 -27.8643 -105.976 -61.5488 -152.324 -101.28c-10.1582 -8.70703 -21.1768 -18.3848 -32.0957 -28.8799c1.91113 -38.3438 4.3457 -76.6592 7.38281 -114.932
c1.65332 -20.835 3.46875 -41.6582 5.38379 -62.4736c107.216 3.65137 209.277 57.791 293.319 120.721c92.459 69.2256 174.602 154.734 243.121 247.566c70.209 95.1113 128.701 201.015 169.678 311.97c41.6621 112.807 62.8027 241.948 17.0137 356.915
c-45.3613 113.896 -150.277 173.515 -266.561 195.722c-121.196 23.1426 -246.285 6.33984 -359.868 -40.5439c-106.998 -44.1641 -202.399 -115.118 -281.081 -199.481c-41.7139 -44.7266 -78.7764 -93.6758 -107.854 -147.577
c-26.0371 -48.2598 -55.4834 -110.384 -26.6279 -163.615c13.3262 -24.582 -53.0918 -32.3408 -65.1133 -10.2334c-15.1973 27.9443 -17.0889 59.3535 -10.6543 90.1084c13.3535 63.8096 50.5078 123.123 88.6455 174.994c38.9902 53.0293 84.1416 101.451 133.955 144.461
c101.511 87.6455 221.783 152.236 352.681 182.686c137.618 32.0117 287.341 24.8232 418.592 -29.2402c60.1182 -24.7637 116.351 -60.249 156.815 -111.97c39.7314 -50.7852 63.6191 -110.526 74.4941 -173.856c23.749 -138.308 -24.1816 -279.962 -82.5391 -403.755
c-56.0146 -118.825 -131.532 -228.777 -220.855 -325.043c-90.2344 -97.248 -196.368 -184.779 -320.475 -234.608z" />
    <glyph glyph-name="Q" unicode="Q" horiz-adv-x="943" 
d="M726.799 1159.67c84.3594 -118.302 121.482 -265.358 135.902 -408.115c15.7676 -156.059 11.6318 -315.388 -12.7793 -470.34c-23.9756 -152.208 -62.5059 -308.556 -129.99 -447.752c-31.667 -65.3164 -76.9287 -135.37 -135.449 -182.729
c56.8984 9.74512 114.055 17.9678 171.397 24.5771c14.1104 1.62598 42.9463 0.908203 49.5322 -16.0293c6.44238 -16.5645 -14.71 -26.7578 -28.123 -28.2363c-230.41 -25.3545 -457.283 -73.9512 -677.313 -146.986c-13.0283 -4.3252 -35.8184 -4.53125 -45.8965 6.85938
c-10.1064 11.4189 0.336914 22.1084 12.0332 26.1641c98.5566 34.1846 198.763 63.7344 300.15 88.4268c-140.885 46.7842 -169.848 221.426 -174.721 353.061c-3.10059 83.7012 3.56836 166.641 15.1895 249.049c-35.7148 32.0479 -62.2754 74.8359 -80.9971 118.298
c-27.7891 64.5107 -46.1221 134.549 -55.9941 204.028c-20.3154 143.019 -5.1543 290.814 42.9189 427.005c45.3457 128.451 121.616 262.568 252.34 318.464c64.9238 27.7578 142.349 34.5381 209.425 10.1543c64.0674 -23.2891 113.457 -71.3184 152.375 -125.897z
M759.426 388.951c16.5371 140.378 18.1572 283.06 2.32227 423.584c-14.1387 125.558 -48.0498 258.989 -128.194 359.759c-34.8428 43.8105 -80.9648 82.5625 -139.156 86.0986c-59.0957 3.5918 -116.808 -25.252 -160.127 -63.4365
c-95.1074 -83.8359 -149.365 -215.896 -178.269 -336.723c-30.6162 -127.995 -31.2744 -263.063 -4.38867 -391.753c13.2539 -63.4131 32.999 -127.92 65.8828 -184.077c0.269531 -0.456055 0.550781 -0.916016 0.824219 -1.37207
c9.54297 55.3643 20.6641 110.522 31.9795 165.526c6.0625 29.4824 79.249 26.2236 74.0312 0c-7.2832 -36.5635 -14.5273 -73.1348 -21.2949 -109.797c-7.85449 -42.5781 -15.166 -85.5127 -21.0938 -128.649c21.8623 -16.3867 46.8125 -27.7734 73.9834 -29.7715
c7.5332 -0.554688 23.7891 -2.64062 23.7891 -13.5596c0 -10.6016 -15.9307 -13.4561 -23.7891 -13.5596c-27.2617 -0.356445 -54.0117 4.56348 -79.375 14.0234c-10.2412 -90.2266 -13.1826 -181.123 -0.966797 -271.294
c8.91309 -65.7998 23.0439 -139.728 67.041 -192.091c17.6357 -20.9854 40.0449 -39.7188 67.124 -46.709c17.2432 -4.44824 30.918 -1.62891 49.2314 7.9541c51.2969 26.8379 87.9795 75.0977 117.938 123.254c35.7109 57.3984 62.9453 119.657 85.7393 183.177
c48.6006 135.438 79.9424 276.604 96.7686 419.416z" />
    <glyph glyph-name="R" unicode="R" horiz-adv-x="1088" 
d="M1004.66 -153.938c19.2891 3.60352 55.6201 0.0214844 65.2627 -21.1191c10.249 -22.4609 -20.9141 -33.8555 -37.0586 -37.2021c-88.6055 -18.373 -172.73 27.0791 -242.661 76.7822c-113.631 80.7627 -204.119 187.998 -314.13 272.983
c-44.4971 34.375 -93.4619 64.916 -145.952 85.8184c1.26465 -22.5674 2.63281 -45.1309 4.13184 -67.6904c6.80371 -102.331 16.6084 -204.452 28.792 -306.28c11.7314 -98.0615 25.5605 -194.18 57.1006 -288.161c11.2842 -33.6172 -65.6055 -38.4824 -77.2383 -12.1406
c-45.7891 103.684 -62.8574 219.309 -78.0547 330.814c-16.2041 118.928 -29.0225 238.871 -37.2021 359.194c-39.2471 -13.877 -79.9453 -23.5039 -122.757 -26.4775c-16.6797 -1.1582 -57.7275 14.2412 -36.3418 36.0996c32.6855 33.4033 79.0732 44.7383 126.227 45.1621
c9.6543 4.68262 19.2051 9.65039 28.6572 14.8643c-14.1309 269.189 -3.62793 539.688 46.3643 804.452c4.30957 22.8291 31.2148 29.3789 51.542 29.3789c14.1816 0 55.3242 -7.14453 51.542 -29.3789c-19.3164 -113.528 -33.0469 -227.948 -41.5234 -342.788
c-9.80859 -132.884 -11.3711 -265.827 -7.56934 -398.735c10.9902 7.34668 21.8652 14.6299 32.6338 21.7031c83.8594 55.083 164.697 115.28 241.368 179.989c70.1807 59.2305 137.027 122.607 200.313 189.152c63.627 66.8984 123.452 137.943 170.784 217.489
c44.0254 73.9834 86.5674 167.073 65.1738 255.096c-18.8408 77.5273 -84.3633 132.194 -157.196 157.629c-82.7891 28.915 -176.033 29.4736 -262.22 18.6494c-88.4033 -11.1016 -174.146 -38.1016 -253.318 -78.9512
c-76.9688 -39.7158 -151.249 -91.6582 -205.975 -159.523c-28.2217 -34.9971 -53.9609 -77.666 -60.8994 -122.71c-6.16113 -40.0244 5.83203 -91.21 47.2881 -107.949c24.4629 -9.87598 -4.84082 -25.7705 -20.292 -19.7881
c-44.1084 17.084 -71.3662 59.3174 -71.4531 106.534c-0.0947266 52.585 27.5957 102.668 58.2041 143.688c63.2979 84.8271 157.26 148.054 252.26 192.372c86.2939 40.2549 179.942 66.8945 274.646 77.2588c96.7334 10.5898 200.956 8.58789 293.209 -25.3789
c83.3242 -30.6797 164.277 -93.9023 189.568 -182.416c27.9238 -97.7285 -7.64453 -197.003 -54.8135 -282.575c-49.2188 -89.291 -116.239 -168.281 -185.596 -242.482c-68.7412 -73.5391 -142.915 -141.924 -220.978 -205.456
c-78.6377 -64 -161.458 -123.579 -248.782 -175.213c-26.5723 -15.7129 -53.3623 -31.1719 -80.6279 -45.457c0.158203 -3.52051 0.300781 -7.04102 0.467773 -10.5615c126.057 -38.2285 232.816 -121.343 331.646 -206.542
c55.6543 -47.9824 110.229 -97.8633 170.102 -140.636c30.4893 -21.7861 62.2588 -41.9229 95.5986 -59.0742c15.0469 -7.73926 30.7637 -15.042 47.2607 -19.1338c14.0078 -3.47363 21.5449 -3.33887 32.4961 -1.28906z" />
    <glyph glyph-name="S" unicode="S" horiz-adv-x="1106" 
d="M654.656 -328.004c-124.363 28.1934 -209.936 127.19 -234.957 250.146c-27.123 133.276 24.0146 269.947 97.3115 379.887c8.39355 12.5918 48.9375 8.13184 40.0244 -6.28809c-18.1426 -29.3555 -34.5088 -59.7578 -48.5879 -91.2744
c-53.6553 -120.098 -62.6475 -267.549 8.54395 -382.81c61.0146 -98.791 191.123 -159.488 296.745 -91.7539c106.471 68.2812 152.423 216.497 132.948 336.753c-18.9795 117.207 -104.706 217.834 -201.392 281.6c-115.407 76.1201 -250.733 111.819 -382.816 146.916
c-123.174 32.7295 -287.439 81.5918 -310.074 229.372c-21.3184 139.192 103.505 257.3 201.57 335.216c102.026 81.0645 218.754 145.302 345.6 177.393c61.292 15.502 125.232 24.7559 188.582 22.8213c54.1787 -1.65332 111.945 -12.0928 156.45 -44.9414
c49.3105 -36.3926 65.8516 -96.0234 55.2617 -154.94c-12.2588 -68.2061 -53.6318 -125.192 -82.46 -186.869c-6.98633 -14.9434 -50.3965 -10.1416 -42.5342 6.68457c15.0146 32.127 33.1455 62.5928 49.1475 94.2119c29.3594 58.0088 54.2627 133.776 15.6689 193.851
c-30.7549 47.8789 -92.5781 63.0088 -145.968 64.9082c-127.849 4.54785 -255.416 -38.6807 -363.976 -103.834c-55.4951 -33.3086 -106.09 -73.3252 -152.3 -118.604c-46.46 -45.5273 -91.8564 -97.748 -113.195 -160.272
c-20.335 -59.5869 -15.7559 -131.833 25.6006 -181.746c40.9727 -49.4531 99.2793 -73.6816 159.282 -91.7852c136.444 -41.1709 275.851 -71.5967 403.104 -138.348c108.901 -57.125 208.037 -146.643 255.726 -262.03c50.543 -122.29 29.2676 -261.34 -43.875 -370.086
c-68.9395 -102.498 -185.54 -162.268 -309.432 -134.177z" />
    <glyph glyph-name="T" unicode="T" horiz-adv-x="1003" 
d="M1399.99 1299.86c-139.391 -17.7461 -275.292 -56.7617 -408.735 -99.7598c-58.5557 -18.8643 -116.695 -39.1279 -174.269 -60.8828c0.0556641 -0.955078 0.123047 -1.90625 0.0595703 -2.90137c-6.89062 -110.852 -14.459 -221.688 -19.542 -332.643
c-8.95996 -195.484 -11.168 -392.106 4.48145 -587.313c7.59668 -94.7549 17.584 -189.835 35.251 -283.301c16.3193 -86.3369 42.4668 -170.803 88.9619 -245.932c11.3594 -18.3535 -20.3594 -30.5693 -32.3652 -32.4922
c-19.8916 -3.18359 -45.2227 0.483398 -57.002 18.4482c-56.2168 85.7266 -85.7266 184.533 -106.688 284.034c-78.1426 370.923 -62.8467 756.701 -35.6201 1132.95c-26.834 -11.4346 -53.5332 -23.1904 -80.0098 -35.4375
c-122.829 -56.8271 -240.444 -122.979 -353.274 -197.66c-52.5137 -34.7598 -114.293 -75.3193 -147.669 -130.354c-7.21582 -11.8906 -17.2627 -30.8623 -8.96875 -44.5928c6.74414 -11.1611 23.4355 -15.7803 35.167 -19.1777
c33.6846 -9.75293 68.2695 -6.70801 100.789 5.62598c16.3506 6.20508 47.2676 -10.7998 21.3857 -20.8545c-37.8086 -14.6895 -79.3037 -19.0781 -119.34 -12.1797c-31.2148 5.37988 -74.1533 17.3457 -88.3945 49.4248c-15.2012 34.2441 14.1621 69.666 34.5059 94.541
c25.7471 31.4844 57.8027 57.3584 90.2783 81.5557c159.781 119.047 338.562 212.771 523.936 289.058c9.42871 13.4365 30.7236 20.3711 52.4512 21.0605c80.8301 31.667 162.68 60.21 244.541 86.2432c155.396 49.4209 314.273 91.4678 477.654 101.424
c80.3389 4.89648 165.039 3.40137 243.642 -15.4111c63.3096 -15.1533 145.643 -63.0361 130.774 -140.6c-4.06348 -21.1914 -28.9307 -27.2773 -47.8545 -27.2773c-13.1475 0 -51.3955 6.63672 -47.8545 27.2773c5.30078 30.9258 -8.47656 59.9873 -34.9258 76.7666
c-27.8604 17.6748 -63.7578 20.6006 -95.7256 24.2402c-74.8672 8.52832 -151.015 5.61816 -225.64 -3.88184z" />
    <glyph glyph-name="U" unicode="U" horiz-adv-x="1029" 
d="M937.598 -153.637c12.4971 -76.0166 28.4443 -151.373 41.1074 -227.326c3.58398 -21.4854 -33.7324 -29.5693 -47.7002 -30.7988c-15.5107 -1.36426 -55.0957 1.76367 -60.3613 22.46c-9.94727 39.1045 -18.166 78.2412 -25.3262 117.948
c-26.4688 146.757 -45.1504 294.755 -56.2197 443.315c-40.627 -127.06 -90.0439 -255.174 -162.488 -366.652c-36.8887 -56.7598 -78.6182 -113.294 -141.698 -142.471c-67.5918 -31.2627 -147.392 -28.4756 -205.876 20.7314
c-52.5176 44.1836 -80.1406 115.059 -101.757 178.087c-24.5977 71.7393 -41.4834 145.904 -51.0146 221.104c-19.8633 156.748 -16.5527 315.792 -10.8477 473.356c2.9541 81.6074 5.6543 163.397 5.22656 245.068c-0.198242 37.8955 0.935547 76.6826 -3.80664 114.349
c-2.41895 19.1816 -6.72852 36.5234 -11.9385 54.9678c-2.80664 9.93945 -6.79102 32.1982 -18.4082 15.1895c-7.18066 -10.5107 -43.0859 -8.28613 -35.4258 5.56641c11.6768 21.124 37.5713 26.8096 60.0635 23.0078c75.8623 -12.8301 91.7646 -90.3057 100.309 -154.841
c10.4033 -78.5781 14.1895 -157.941 16.0176 -237.122c3.53613 -153.314 -0.959961 -306.843 11.6484 -459.853c5.95117 -72.2148 16.1211 -144.386 30.4932 -215.411c13.1992 -65.2168 30.9814 -133.613 58.9453 -194.219
c10.8955 -23.6182 25.9697 -48.3467 50.1709 -60.2803c24.582 -12.124 54.8652 -4.69824 77.623 8.11621c57.957 32.6387 98.4375 94.6084 131.702 150.286c75.2119 125.878 123.464 267.057 168.302 405.979c8.2627 25.5967 16.1484 51.2842 23.6895 77.0557
c-4.36523 118.979 -3.83398 238.161 1.68457 357.2c3.70312 79.8467 10.5703 159.63 22.6826 238.672c6.01855 39.291 13.5957 78.3125 22.8652 116.97c3.75488 15.6611 6.27246 30.2676 19.2852 40.9014c11.6045 9.4834 28.1533 12.7188 42.8193 10.0938
c31.9326 -5.71289 42.0947 -41.1025 45.1279 -69.3037c4.04004 -37.5664 2.14844 -76.4648 0.245117 -114.11c-4.02051 -79.5137 -14.4277 -158.794 -26.8691 -237.384c-9.68555 -61.165 -20.8701 -122.247 -33.6562 -183.012
c4.42871 -138.558 14.2412 -276.973 30.5527 -414.635c9.23047 -77.8809 20.1143 -155.623 32.833 -233.008zM884.594 929.65c0.773438 20.875 1.98242 42.7207 1.55469 64.3174c-8.38574 -67.168 -11.7041 -134.867 -12.8379 -202.522
c5.45117 45.9326 9.57031 92.0273 11.2832 138.205zM870.15 1066.01c-0.321289 0.416016 -0.514648 0.630859 -0.50293 0.503906c0.0195312 -0.238281 0.22168 -0.392578 0.50293 -0.503906z" />
    <glyph glyph-name="U" unicode="&#xdc;" horiz-adv-x="1029" 
d="M937.598 -153.637c12.4971 -76.0166 28.4443 -151.373 41.1074 -227.326c3.58398 -21.4854 -33.7324 -29.5693 -47.7002 -30.7988c-15.5107 -1.36426 -55.0957 1.76367 -60.3613 22.46c-9.94727 39.1045 -18.166 78.2412 -25.3262 117.948
c-26.4688 146.757 -45.1504 294.755 -56.2197 443.315c-40.627 -127.06 -90.0439 -255.174 -162.488 -366.652c-36.8887 -56.7598 -78.6182 -113.294 -141.698 -142.471c-67.5918 -31.2627 -147.392 -28.4756 -205.876 20.7314
c-52.5176 44.1836 -80.1406 115.059 -101.757 178.087c-24.5977 71.7393 -41.4834 145.904 -51.0146 221.104c-19.8633 156.748 -16.5527 315.792 -10.8477 473.356c2.9541 81.6074 5.6543 163.397 5.22656 245.068c-0.198242 37.8955 0.935547 76.6826 -3.80664 114.349
c-2.41895 19.1816 -6.72852 36.5234 -11.9385 54.9678c-2.80664 9.93945 -6.79102 32.1982 -18.4082 15.1895c-7.18066 -10.5107 -43.0859 -8.28613 -35.4258 5.56641c11.6768 21.124 37.5713 26.8096 60.0635 23.0078c75.8623 -12.8301 91.7646 -90.3057 100.309 -154.841
c10.4033 -78.5781 14.1895 -157.941 16.0176 -237.122c3.53613 -153.314 -0.959961 -306.843 11.6484 -459.853c5.95117 -72.2148 16.1211 -144.386 30.4932 -215.411c13.1992 -65.2168 30.9814 -133.613 58.9453 -194.219
c10.8955 -23.6182 25.9697 -48.3467 50.1709 -60.2803c24.582 -12.124 54.8652 -4.69824 77.623 8.11621c57.957 32.6387 98.4375 94.6084 131.702 150.286c75.2119 125.878 123.464 267.057 168.302 405.979c8.2627 25.5967 16.1484 51.2842 23.6895 77.0557
c-4.36523 118.979 -3.83398 238.161 1.68457 357.2c3.70312 79.8467 10.5703 159.63 22.6826 238.672c6.01855 39.291 13.5957 78.3125 22.8652 116.97c3.75488 15.6611 6.27246 30.2676 19.2852 40.9014c11.6045 9.4834 28.1533 12.7188 42.8193 10.0938
c31.9326 -5.71289 42.0947 -41.1025 45.1279 -69.3037c4.04004 -37.5664 2.14844 -76.4648 0.245117 -114.11c-4.02051 -79.5137 -14.4277 -158.794 -26.8691 -237.384c-9.68555 -61.165 -20.8701 -122.247 -33.6562 -183.012
c4.42871 -138.558 14.2412 -276.973 30.5527 -414.635c9.23047 -77.8809 20.1143 -155.623 32.833 -233.008zM884.594 929.65c0.773438 20.875 1.98242 42.7207 1.55469 64.3174c-8.38574 -67.168 -11.7041 -134.867 -12.8379 -202.522
c5.45117 45.9326 9.57031 92.0273 11.2832 138.205zM870.15 1066.01c-0.321289 0.416016 -0.514648 0.630859 -0.50293 0.503906c0.0195312 -0.238281 0.22168 -0.392578 0.50293 -0.503906z" />
    <glyph glyph-name="U" unicode="&#xdb;" horiz-adv-x="1029" 
d="M937.598 -153.637c12.4971 -76.0166 28.4443 -151.373 41.1074 -227.326c3.58398 -21.4854 -33.7324 -29.5693 -47.7002 -30.7988c-15.5107 -1.36426 -55.0957 1.76367 -60.3613 22.46c-9.94727 39.1045 -18.166 78.2412 -25.3262 117.948
c-26.4688 146.757 -45.1504 294.755 -56.2197 443.315c-40.627 -127.06 -90.0439 -255.174 -162.488 -366.652c-36.8887 -56.7598 -78.6182 -113.294 -141.698 -142.471c-67.5918 -31.2627 -147.392 -28.4756 -205.876 20.7314
c-52.5176 44.1836 -80.1406 115.059 -101.757 178.087c-24.5977 71.7393 -41.4834 145.904 -51.0146 221.104c-19.8633 156.748 -16.5527 315.792 -10.8477 473.356c2.9541 81.6074 5.6543 163.397 5.22656 245.068c-0.198242 37.8955 0.935547 76.6826 -3.80664 114.349
c-2.41895 19.1816 -6.72852 36.5234 -11.9385 54.9678c-2.80664 9.93945 -6.79102 32.1982 -18.4082 15.1895c-7.18066 -10.5107 -43.0859 -8.28613 -35.4258 5.56641c11.6768 21.124 37.5713 26.8096 60.0635 23.0078c75.8623 -12.8301 91.7646 -90.3057 100.309 -154.841
c10.4033 -78.5781 14.1895 -157.941 16.0176 -237.122c3.53613 -153.314 -0.959961 -306.843 11.6484 -459.853c5.95117 -72.2148 16.1211 -144.386 30.4932 -215.411c13.1992 -65.2168 30.9814 -133.613 58.9453 -194.219
c10.8955 -23.6182 25.9697 -48.3467 50.1709 -60.2803c24.582 -12.124 54.8652 -4.69824 77.623 8.11621c57.957 32.6387 98.4375 94.6084 131.702 150.286c75.2119 125.878 123.464 267.057 168.302 405.979c8.2627 25.5967 16.1484 51.2842 23.6895 77.0557
c-4.36523 118.979 -3.83398 238.161 1.68457 357.2c3.70312 79.8467 10.5703 159.63 22.6826 238.672c6.01855 39.291 13.5957 78.3125 22.8652 116.97c3.75488 15.6611 6.27246 30.2676 19.2852 40.9014c11.6045 9.4834 28.1533 12.7188 42.8193 10.0938
c31.9326 -5.71289 42.0947 -41.1025 45.1279 -69.3037c4.04004 -37.5664 2.14844 -76.4648 0.245117 -114.11c-4.02051 -79.5137 -14.4277 -158.794 -26.8691 -237.384c-9.68555 -61.165 -20.8701 -122.247 -33.6562 -183.012
c4.42871 -138.558 14.2412 -276.973 30.5527 -414.635c9.23047 -77.8809 20.1143 -155.623 32.833 -233.008zM884.594 929.65c0.773438 20.875 1.98242 42.7207 1.55469 64.3174c-8.38574 -67.168 -11.7041 -134.867 -12.8379 -202.522
c5.45117 45.9326 9.57031 92.0273 11.2832 138.205zM870.15 1066.01c-0.321289 0.416016 -0.514648 0.630859 -0.50293 0.503906c0.0195312 -0.238281 0.22168 -0.392578 0.50293 -0.503906z" />
    <glyph glyph-name="U" unicode="&#xda;" horiz-adv-x="1029" 
d="M937.598 -153.637c12.4971 -76.0166 28.4443 -151.373 41.1074 -227.326c3.58398 -21.4854 -33.7324 -29.5693 -47.7002 -30.7988c-15.5107 -1.36426 -55.0957 1.76367 -60.3613 22.46c-9.94727 39.1045 -18.166 78.2412 -25.3262 117.948
c-26.4688 146.757 -45.1504 294.755 -56.2197 443.315c-40.627 -127.06 -90.0439 -255.174 -162.488 -366.652c-36.8887 -56.7598 -78.6182 -113.294 -141.698 -142.471c-67.5918 -31.2627 -147.392 -28.4756 -205.876 20.7314
c-52.5176 44.1836 -80.1406 115.059 -101.757 178.087c-24.5977 71.7393 -41.4834 145.904 -51.0146 221.104c-19.8633 156.748 -16.5527 315.792 -10.8477 473.356c2.9541 81.6074 5.6543 163.397 5.22656 245.068c-0.198242 37.8955 0.935547 76.6826 -3.80664 114.349
c-2.41895 19.1816 -6.72852 36.5234 -11.9385 54.9678c-2.80664 9.93945 -6.79102 32.1982 -18.4082 15.1895c-7.18066 -10.5107 -43.0859 -8.28613 -35.4258 5.56641c11.6768 21.124 37.5713 26.8096 60.0635 23.0078c75.8623 -12.8301 91.7646 -90.3057 100.309 -154.841
c10.4033 -78.5781 14.1895 -157.941 16.0176 -237.122c3.53613 -153.314 -0.959961 -306.843 11.6484 -459.853c5.95117 -72.2148 16.1211 -144.386 30.4932 -215.411c13.1992 -65.2168 30.9814 -133.613 58.9453 -194.219
c10.8955 -23.6182 25.9697 -48.3467 50.1709 -60.2803c24.582 -12.124 54.8652 -4.69824 77.623 8.11621c57.957 32.6387 98.4375 94.6084 131.702 150.286c75.2119 125.878 123.464 267.057 168.302 405.979c8.2627 25.5967 16.1484 51.2842 23.6895 77.0557
c-4.36523 118.979 -3.83398 238.161 1.68457 357.2c3.70312 79.8467 10.5703 159.63 22.6826 238.672c6.01855 39.291 13.5957 78.3125 22.8652 116.97c3.75488 15.6611 6.27246 30.2676 19.2852 40.9014c11.6045 9.4834 28.1533 12.7188 42.8193 10.0938
c31.9326 -5.71289 42.0947 -41.1025 45.1279 -69.3037c4.04004 -37.5664 2.14844 -76.4648 0.245117 -114.11c-4.02051 -79.5137 -14.4277 -158.794 -26.8691 -237.384c-9.68555 -61.165 -20.8701 -122.247 -33.6562 -183.012
c4.42871 -138.558 14.2412 -276.973 30.5527 -414.635c9.23047 -77.8809 20.1143 -155.623 32.833 -233.008zM884.594 929.65c0.773438 20.875 1.98242 42.7207 1.55469 64.3174c-8.38574 -67.168 -11.7041 -134.867 -12.8379 -202.522
c5.45117 45.9326 9.57031 92.0273 11.2832 138.205zM870.15 1066.01c-0.321289 0.416016 -0.514648 0.630859 -0.50293 0.503906c0.0195312 -0.238281 0.22168 -0.392578 0.50293 -0.503906z" />
    <glyph glyph-name="V" unicode="V" horiz-adv-x="1052" 
d="M1090.93 1172.63c6.33594 15.1221 49.7969 10.707 42.5332 -6.67871c-96.1982 -230.196 -162.248 -471.414 -214.278 -715.055c-44.9092 -210.301 -73.7764 -424.852 -142.185 -629.396c-14.9033 -44.5645 -29.8984 -92.0908 -56.9424 -131.029
c-25.4619 -36.666 -64.4639 -54.0557 -108.854 -53.5205c-105.103 1.26465 -178.388 99.3535 -216.572 186.979c-43.4424 99.6865 -72.0049 205.603 -96.293 311.352c-24.2207 105.456 -44.1006 212.018 -62.9336 318.552
c-18.999 107.497 -37.4912 215.177 -60.9033 321.826c-11.248 51.2334 -21.8379 102.981 -37.832 152.989c-7.59668 23.7607 -17.1914 46.9434 -26.7305 69.9512c-7.95312 19.1738 -17.3535 42.6807 -41.8682 42.0781c-24.5459 -0.602539 -23.6416 21.1758 0 22.6709
c52.585 3.33008 101.059 -36.2783 129.875 -76.5723c33.5342 -46.8916 52.7002 -105.662 69.3203 -160.337c34.6562 -113.979 59.2539 -230.513 82.916 -347.161c41.9316 -206.725 79.0781 -413.005 147.38 -613.211c15.1016 -44.2627 31.9082 -89.4814 57.4062 -128.939
c11.0771 -17.1436 24.9697 -33.9189 41.5938 -46.0078c10.8281 -7.87402 27.0635 -19.4238 40.8574 -16.248c41.71 9.60254 61.6094 71.7471 75.5176 105.856c19.3916 47.5615 35.4971 96.1934 49.374 145.635c28.792 102.609 48.6475 207.419 68.7373 311.998
c20.498 106.692 42.082 213.163 66.8623 318.952c49.0879 209.539 109.781 416.62 193.019 615.315z" />
    <glyph glyph-name="W" unicode="W" horiz-adv-x="1562" 
d="M1572.41 1057.62c-39.6914 -74.875 -64.9238 -158.49 -85.9805 -240.244c-21.8379 -84.7793 -37.6934 -171.104 -50.876 -257.612c-26.0645 -171.041 -42.4824 -343.431 -75.3867 -513.425c-16.5527 -85.5244 -36.6143 -170.87 -63.4678 -253.782
c-22.3057 -68.8721 -46.459 -149.238 -117.904 -182.249c-44.7822 -20.6924 -97.9229 -21.3945 -143.494 -2.52246c-43.5498 18.0322 -75.3076 51.9434 -101.765 89.9375c-49.8652 71.6123 -72.8691 159.357 -92.0029 243.344
c-40.6865 178.586 -45.4756 362.116 -62.124 543.779c-1.94629 21.2236 -2.71973 43.4307 -7.02539 64.333c-0.356445 1.72852 -0.860352 3.37793 -1.43945 4.97949c-8.82129 -13.0801 -15.1611 -29.0225 -21.707 -42.4395
c-8.85352 -18.1553 -17.1201 -36.5957 -24.8789 -55.2461c-32.0234 -76.9805 -55.1699 -157.291 -75.6758 -237.994c-41.3486 -162.723 -71.8223 -330.438 -142.812 -483.752c-15.9189 -34.3789 -32.8008 -69.3955 -70.1689 -84.335
c-39.2041 -15.6729 -88.6729 -8.32617 -123.281 15.3242c-33.3008 22.7578 -54.8057 59.4082 -70.042 96.0352c-17.6953 42.542 -29.8232 88.3076 -41.5273 132.793c-46.0713 175.129 -59.4131 357.764 -69 537.983c-4.87695 91.6816 -9.32129 183.479 -16.6719 275.002
c-3.60352 44.8691 -7.55273 89.7148 -11.165 134.58c-1.76074 21.8662 -1.00781 44.8975 -6.05859 66.4385c-2.72363 11.6133 -12.374 38.2568 -27.4834 38.6494c-5.86035 0.154297 -17.7471 1.71289 -20.0107 8.68652c-2.11328 6.52246 3.32617 11.8389 9.53906 13.3574
c36.167 8.8418 74.7285 -2.99707 97.4346 -33.2285c25.8184 -34.3828 32.9072 -81.7705 41.1465 -122.901c8.72266 -43.5254 15.8594 -87.1426 21.5684 -131.164c11.7002 -90.2344 19.4121 -180.842 27.5244 -271.453c16.0732 -179.573 30.0615 -359.456 70.209 -535.699
c9.30957 -40.8691 20.4189 -81.6113 32.0156 -121.874c5.46387 -18.96 12.5371 -39.002 26.4336 -53.5645c4.47656 -4.69043 9.4209 -8.60742 15.2607 -11.4463c0.432617 -0.209961 1.32031 -0.475586 2.31934 -0.745117c3.67578 2.87402 18.5596 16.8623 19.4434 18.0713
c4.60742 6.29199 8.3623 13.2939 12.0293 20.1611c9.39258 17.5996 17.4883 35.9883 25.3545 54.3057c16.4541 38.3115 30.6797 77.5469 43.415 117.238c50.8721 158.524 77.1152 323.789 129.641 481.826c13.4443 40.4609 28.6094 80.3789 46.2646 119.202
c14.3682 31.5879 29.0537 72.3818 57.1562 94.5176c30.1875 23.7773 80.6152 22.667 105.554 -8.1875c23.1348 -28.626 25.1729 -75.748 32.1426 -110.424c35.8975 -178.559 45.7461 -361.99 92.9072 -538.364c21.0488 -78.709 46.7324 -166.564 99.4844 -230.528
c11.585 -14.0469 24.3916 -27.9912 40.0488 -37.499c-1.26855 0.769531 6.66895 -3.27051 9.78906 -4.97559c7.88184 3.7627 18.2969 12.2432 27.1895 21.8535c10.2217 11.0537 18.3936 23.4199 25.8555 36.4639c40.667 71.085 64.4795 155.071 85.1484 233.855
c21.6553 82.5469 37.8867 166.414 52.4014 250.476c29.4824 170.748 53.4971 342.603 95.1152 510.999c20.6924 83.7168 47.0381 166.292 80.4258 245.838c31.2861 74.5381 68.1152 150.46 132.456 202.125c8.24707 6.625 20.8311 8.2627 30.7666 4.59961
c6.74805 -2.49023 16.1328 -10.5508 8.06836 -17.5371c-30.3105 -26.2627 -53.4375 -58.2432 -72.1592 -93.5615z" />
    <glyph glyph-name="X" unicode="X" horiz-adv-x="1161" 
d="M1450.33 -322.362c9.05566 19.1377 65.3125 15.6133 56.7324 -8.90918c-23.127 -66.1641 -53.2754 -134.886 -120.078 -167.187c-70.7236 -34.2002 -155.269 -27.3369 -225.426 4.56348c-61.9541 28.1738 -112.751 75.8145 -156.673 126.857
c-46.1855 53.667 -87.748 111.422 -125.247 171.453c-66.9102 107.117 -120.253 221.843 -168.521 338.396c-29.0977 -60.4512 -58.9053 -120.55 -90.4893 -179.768c-57.8779 -108.517 -120.724 -221.822 -224.142 -293.45
c-93.5254 -64.7725 -235.413 -93.2754 -337.411 -31.6348c-10.749 6.49805 -12.3984 16.8262 -2.56934 24.6211c10.7051 8.48828 29.9385 9.74512 42.4355 4.8291c123.737 -48.6758 238.725 36.7334 309.548 133.431c77.9004 106.359 133.959 230.275 191.29 348.418
c19.9785 41.166 39.6436 82.4912 59.3369 123.801c-42.832 110.226 -83.9785 221.141 -130.299 329.946c-28.6895 67.3936 -58.0762 134.752 -91.2852 200.076c-24.082 47.375 -58.5361 113.017 -118.65 117.358c-6.64062 0.479492 -20.9697 2.33496 -20.9697 11.9531
c0 9.01953 14.0596 12.3418 20.9707 11.9531c65.7129 -3.70312 119.464 -46 158.077 -96.8799c46.6699 -61.4902 81.2705 -133.031 114.726 -202.245c42.7285 -88.3994 79.998 -179.142 116.344 -270.257c25.0459 51.6455 50.5439 103.064 77.2188 153.897
c60.1182 114.566 127.337 225.37 205.757 328.415c39.3193 51.665 82.0879 101.832 129.682 146.056c26.6514 24.7676 55.2256 49.6348 94.5488 43.3545c12.3184 -1.9668 30.5322 -8.65918 30.5762 -23.6504c0.03125 -10.2529 -8.12402 -18.3018 -16.6836 -22.2432
c-2.89062 -1.32812 -8.17188 -2.7041 -13.79 -3.21973c-2.44629 -3.49707 -4.63867 -6.71289 -5.43164 -7.58887c-5.28906 -5.84375 -10.4668 -11.7871 -15.6133 -17.7539c-11.1211 -12.8936 -22.2578 -25.7754 -33.3555 -38.6885
c-22.7539 -26.4805 -44.5996 -53.7861 -65.3672 -81.8525c-41.0596 -55.4912 -79.165 -112.997 -114.443 -172.33c-83.2646 -140.024 -152.01 -287.345 -221.401 -434.371c51.915 -129.534 106.308 -257.934 176.223 -379.521
c33.9385 -59.0195 71.2275 -116.291 113.385 -169.792c39.3193 -49.8965 82.6309 -102.51 136.405 -137.447c45.3691 -29.4785 103.901 -48.3672 155.868 -24.1465c56.2129 26.1992 83.7441 90.7695 108.723 143.557z" />
    <glyph glyph-name="Y" unicode="Y" horiz-adv-x="1219" 
d="M1075.54 796.189c9.37305 -46.1777 18.8252 -92.7363 25.1367 -139.434c12.6953 -94.041 17.6436 -190.23 18.1436 -285.068c0.983398 -186.25 -13.7617 -374.122 -47.3555 -557.423c-15.9229 -86.8809 -38.1455 -173.028 -74.1816 -253.918
c-33.9463 -76.1953 -81.873 -152.791 -155.844 -195.627c-39.9814 -23.1504 -92.0234 -34.5176 -136.532 -17.8379c-35.834 13.4287 -57.4023 42.5625 -66.8428 78.793c-21.7588 83.499 16.9697 173.131 52.0264 247.376c75.8857 160.713 181.23 305.566 288.169 446.709
c3.08496 4.07227 8.65918 6.69727 15.3721 8.11621c0.427734 4.16309 0.860352 8.32227 1.28418 12.4736c19.4033 188.902 20.1289 376.806 11.125 566.283c-4.16309 87.5898 -12.8105 179.47 -42.8242 262.521c-6.15723 17.0332 -15.8672 42.8955 -38.1611 36.5557
c-17.3418 -4.93652 -32.8838 -24.7246 -43.957 -37.9111c-28.1973 -33.5742 -49.373 -72.4492 -69.0029 -111.455c-81.3096 -161.554 -140.802 -332.702 -213.183 -498.2c-35.001 -80.0254 -72.9365 -159 -118.437 -233.646
c-21.9053 -35.9365 -45.6465 -70.7471 -73.0273 -102.778c-24.2168 -28.3281 -50.8281 -58.5361 -84.4697 -75.835c-79.1963 -40.7266 -173.669 -2.55371 -222.325 66.6045c-23.3564 33.1973 -33.415 75.6006 -40.5557 114.975
c-7.98535 44.041 -10.5068 88.6729 -10.0547 133.376c1.76465 173.722 50.2148 347.086 124.686 503.239c36.7773 77.1191 77.0996 156.284 135.184 219.824c27.4521 30.0293 64.0039 61.415 104.631 70.3359c31.1113 6.83496 73.7129 -1.7334 81.2852 -37.377
c3.58008 -16.8506 -34.6006 -11.7324 -40.7656 -3.14453c-1.86719 2.59668 -9.89941 6.39062 -9.07031 7.95703c-2.33887 -0.733398 -4.7373 -1.86719 -6.38672 -2.72363c-7.89355 -4.11133 -14.0156 -11.1611 -20.1289 -17.4053
c-12.9805 -13.2627 -24.498 -27.4326 -35.6191 -42.2812c-49.7822 -66.4541 -83.7051 -147.467 -114.496 -224.066c-32.5625 -81.0049 -61.2363 -164.071 -79.1973 -249.632c-17.9326 -85.4336 -27.4443 -172.742 -24.1572 -260.083
c1.6377 -43.541 4.30566 -88.0459 12.2705 -130.938c6.2959 -33.915 19.5029 -74.1377 44.2119 -99.2227c10.8916 -11.0615 24.8164 -21.4893 40.3145 -24.6885c14.8398 -3.06055 32.7842 6.03027 46.3281 14.7051c34.3545 22.0049 62.1006 55.4004 86.9795 87.2412
c54.2148 69.3877 94.6875 149.028 132.254 228.316c78.0273 164.689 137.793 337.257 214.789 502.387c18.5312 39.7432 37.4834 79.6172 60.0664 117.255c19.8477 33.0703 43.3867 68.7021 74.998 91.6582c28.4717 20.6768 66.6211 26.9648 97.1025 6.66113
c31.2188 -20.7998 50.6934 -59.8057 64.8838 -93.4111c17.1914 -40.7266 26.5762 -86.0996 35.334 -129.257zM891.836 -388.277c48.6123 127.286 72.2871 263.49 88.8516 399.316c-3.0332 -4.20703 -6.11426 -8.37793 -9.13574 -12.5928
c-51.709 -72.0918 -101.447 -145.738 -145.548 -222.771c-43.4346 -75.8662 -90.7227 -159.479 -106.859 -246.324c-6.58203 -35.4258 -10.46 -78.0557 5.94629 -111.57c3.57227 -7.29883 8.20703 -14.4395 14.3447 -19.8438
c2.73535 -2.41504 4.43262 -3.89355 7.43359 -5.43164c9.18262 2.75195 19.3164 10.4551 26.7627 16.8701c28.7529 24.7559 47.9824 56.2324 66.3398 88.9971c20.292 36.2148 37.0635 74.5938 51.8643 113.35z" />
    <glyph glyph-name="Y" unicode="&#x178;" horiz-adv-x="1219" 
d="M1075.54 796.189c9.37305 -46.1777 18.8252 -92.7363 25.1367 -139.434c12.6953 -94.041 17.6436 -190.23 18.1436 -285.068c0.983398 -186.25 -13.7617 -374.122 -47.3555 -557.423c-15.9229 -86.8809 -38.1455 -173.028 -74.1816 -253.918
c-33.9463 -76.1953 -81.873 -152.791 -155.844 -195.627c-39.9814 -23.1504 -92.0234 -34.5176 -136.532 -17.8379c-35.834 13.4287 -57.4023 42.5625 -66.8428 78.793c-21.7588 83.499 16.9697 173.131 52.0264 247.376c75.8857 160.713 181.23 305.566 288.169 446.709
c3.08496 4.07227 8.65918 6.69727 15.3721 8.11621c0.427734 4.16309 0.860352 8.32227 1.28418 12.4736c19.4033 188.902 20.1289 376.806 11.125 566.283c-4.16309 87.5898 -12.8105 179.47 -42.8242 262.521c-6.15723 17.0332 -15.8672 42.8955 -38.1611 36.5557
c-17.3418 -4.93652 -32.8838 -24.7246 -43.957 -37.9111c-28.1973 -33.5742 -49.373 -72.4492 -69.0029 -111.455c-81.3096 -161.554 -140.802 -332.702 -213.183 -498.2c-35.001 -80.0254 -72.9365 -159 -118.437 -233.646
c-21.9053 -35.9365 -45.6465 -70.7471 -73.0273 -102.778c-24.2168 -28.3281 -50.8281 -58.5361 -84.4697 -75.835c-79.1963 -40.7266 -173.669 -2.55371 -222.325 66.6045c-23.3564 33.1973 -33.415 75.6006 -40.5557 114.975
c-7.98535 44.041 -10.5068 88.6729 -10.0547 133.376c1.76465 173.722 50.2148 347.086 124.686 503.239c36.7773 77.1191 77.0996 156.284 135.184 219.824c27.4521 30.0293 64.0039 61.415 104.631 70.3359c31.1113 6.83496 73.7129 -1.7334 81.2852 -37.377
c3.58008 -16.8506 -34.6006 -11.7324 -40.7656 -3.14453c-1.86719 2.59668 -9.89941 6.39062 -9.07031 7.95703c-2.33887 -0.733398 -4.7373 -1.86719 -6.38672 -2.72363c-7.89355 -4.11133 -14.0156 -11.1611 -20.1289 -17.4053
c-12.9805 -13.2627 -24.498 -27.4326 -35.6191 -42.2812c-49.7822 -66.4541 -83.7051 -147.467 -114.496 -224.066c-32.5625 -81.0049 -61.2363 -164.071 -79.1973 -249.632c-17.9326 -85.4336 -27.4443 -172.742 -24.1572 -260.083
c1.6377 -43.541 4.30566 -88.0459 12.2705 -130.938c6.2959 -33.915 19.5029 -74.1377 44.2119 -99.2227c10.8916 -11.0615 24.8164 -21.4893 40.3145 -24.6885c14.8398 -3.06055 32.7842 6.03027 46.3281 14.7051c34.3545 22.0049 62.1006 55.4004 86.9795 87.2412
c54.2148 69.3877 94.6875 149.028 132.254 228.316c78.0273 164.689 137.793 337.257 214.789 502.387c18.5312 39.7432 37.4834 79.6172 60.0664 117.255c19.8477 33.0703 43.3867 68.7021 74.998 91.6582c28.4717 20.6768 66.6211 26.9648 97.1025 6.66113
c31.2188 -20.7998 50.6934 -59.8057 64.8838 -93.4111c17.1914 -40.7266 26.5762 -86.0996 35.334 -129.257zM891.836 -388.277c48.6123 127.286 72.2871 263.49 88.8516 399.316c-3.0332 -4.20703 -6.11426 -8.37793 -9.13574 -12.5928
c-51.709 -72.0918 -101.447 -145.738 -145.548 -222.771c-43.4346 -75.8662 -90.7227 -159.479 -106.859 -246.324c-6.58203 -35.4258 -10.46 -78.0557 5.94629 -111.57c3.57227 -7.29883 8.20703 -14.4395 14.3447 -19.8438
c2.73535 -2.41504 4.43262 -3.89355 7.43359 -5.43164c9.18262 2.75195 19.3164 10.4551 26.7627 16.8701c28.7529 24.7559 47.9824 56.2324 66.3398 88.9971c20.292 36.2148 37.0635 74.5938 51.8643 113.35z" />
    <glyph glyph-name="Y" unicode="&#xdd;" horiz-adv-x="1219" 
d="M1075.54 796.189c9.37305 -46.1777 18.8252 -92.7363 25.1367 -139.434c12.6953 -94.041 17.6436 -190.23 18.1436 -285.068c0.983398 -186.25 -13.7617 -374.122 -47.3555 -557.423c-15.9229 -86.8809 -38.1455 -173.028 -74.1816 -253.918
c-33.9463 -76.1953 -81.873 -152.791 -155.844 -195.627c-39.9814 -23.1504 -92.0234 -34.5176 -136.532 -17.8379c-35.834 13.4287 -57.4023 42.5625 -66.8428 78.793c-21.7588 83.499 16.9697 173.131 52.0264 247.376c75.8857 160.713 181.23 305.566 288.169 446.709
c3.08496 4.07227 8.65918 6.69727 15.3721 8.11621c0.427734 4.16309 0.860352 8.32227 1.28418 12.4736c19.4033 188.902 20.1289 376.806 11.125 566.283c-4.16309 87.5898 -12.8105 179.47 -42.8242 262.521c-6.15723 17.0332 -15.8672 42.8955 -38.1611 36.5557
c-17.3418 -4.93652 -32.8838 -24.7246 -43.957 -37.9111c-28.1973 -33.5742 -49.373 -72.4492 -69.0029 -111.455c-81.3096 -161.554 -140.802 -332.702 -213.183 -498.2c-35.001 -80.0254 -72.9365 -159 -118.437 -233.646
c-21.9053 -35.9365 -45.6465 -70.7471 -73.0273 -102.778c-24.2168 -28.3281 -50.8281 -58.5361 -84.4697 -75.835c-79.1963 -40.7266 -173.669 -2.55371 -222.325 66.6045c-23.3564 33.1973 -33.415 75.6006 -40.5557 114.975
c-7.98535 44.041 -10.5068 88.6729 -10.0547 133.376c1.76465 173.722 50.2148 347.086 124.686 503.239c36.7773 77.1191 77.0996 156.284 135.184 219.824c27.4521 30.0293 64.0039 61.415 104.631 70.3359c31.1113 6.83496 73.7129 -1.7334 81.2852 -37.377
c3.58008 -16.8506 -34.6006 -11.7324 -40.7656 -3.14453c-1.86719 2.59668 -9.89941 6.39062 -9.07031 7.95703c-2.33887 -0.733398 -4.7373 -1.86719 -6.38672 -2.72363c-7.89355 -4.11133 -14.0156 -11.1611 -20.1289 -17.4053
c-12.9805 -13.2627 -24.498 -27.4326 -35.6191 -42.2812c-49.7822 -66.4541 -83.7051 -147.467 -114.496 -224.066c-32.5625 -81.0049 -61.2363 -164.071 -79.1973 -249.632c-17.9326 -85.4336 -27.4443 -172.742 -24.1572 -260.083
c1.6377 -43.541 4.30566 -88.0459 12.2705 -130.938c6.2959 -33.915 19.5029 -74.1377 44.2119 -99.2227c10.8916 -11.0615 24.8164 -21.4893 40.3145 -24.6885c14.8398 -3.06055 32.7842 6.03027 46.3281 14.7051c34.3545 22.0049 62.1006 55.4004 86.9795 87.2412
c54.2148 69.3877 94.6875 149.028 132.254 228.316c78.0273 164.689 137.793 337.257 214.789 502.387c18.5312 39.7432 37.4834 79.6172 60.0664 117.255c19.8477 33.0703 43.3867 68.7021 74.998 91.6582c28.4717 20.6768 66.6211 26.9648 97.1025 6.66113
c31.2188 -20.7998 50.6934 -59.8057 64.8838 -93.4111c17.1914 -40.7266 26.5762 -86.0996 35.334 -129.257zM891.836 -388.277c48.6123 127.286 72.2871 263.49 88.8516 399.316c-3.0332 -4.20703 -6.11426 -8.37793 -9.13574 -12.5928
c-51.709 -72.0918 -101.447 -145.738 -145.548 -222.771c-43.4346 -75.8662 -90.7227 -159.479 -106.859 -246.324c-6.58203 -35.4258 -10.46 -78.0557 5.94629 -111.57c3.57227 -7.29883 8.20703 -14.4395 14.3447 -19.8438
c2.73535 -2.41504 4.43262 -3.89355 7.43359 -5.43164c9.18262 2.75195 19.3164 10.4551 26.7627 16.8701c28.7529 24.7559 47.9824 56.2324 66.3398 88.9971c20.292 36.2148 37.0635 74.5938 51.8643 113.35z" />
    <glyph glyph-name="Z" unicode="Z" horiz-adv-x="1258" 
d="M1053.9 -128.884c53.7783 -6.02246 157.481 -18.3477 173.312 -83.5371c7.14844 -29.4307 -57.9775 -32.377 -64.1904 -4.95215c-6.01855 26.5723 -38.542 35.624 -61.1494 41.8809c-65.0068 17.9844 -133.788 18.1514 -200.65 14.9521
c-69.749 -3.33789 -139.185 -11.2949 -208.025 -22.9395c-2.97363 -0.503906 -5.94727 -1.05078 -8.9209 -1.56641c-69.043 -77.5869 -142.613 -151.153 -223.447 -216.453c-59.4521 -48.0254 -123.706 -96.3564 -196.5 -121.901
c-39.0254 -13.6943 -81.3018 -20.5498 -122.433 -13.7695c-31.75 5.2334 -67.5322 19.1455 -83.7959 48.9209c-34.5889 63.3379 50.0674 126.886 94.0371 157.692c58.6074 41.0635 125.181 68.5234 192.261 92.4229c68.2305 24.3086 137.809 44.7627 208.283 61.3955
c61.4189 66.1211 119.333 135.596 174.947 206.521c77.0996 98.3232 148.062 201.039 202.169 313.973c54.7217 114.222 93.7744 241.476 85.2461 369.436c-7.41797 111.359 -61.9141 231.719 -170.458 277.286c-108.711 45.6348 -240.224 10.376 -341.35 -39.1914
c-50.8447 -24.9229 -99.0645 -56.3438 -139.521 -96.166c-20.6406 -20.3154 -39.6162 -42.4395 -55.9434 -66.375c-8.62695 -12.6514 -17.1992 -25.8662 -23.8086 -39.7031c-3.29492 -6.89844 -6.16113 -14.1699 -6.44629 -21.8896
c-0.273438 -7.37402 6.92676 -14.3564 1.20117 -17.8135c12.2871 7.41406 47.8867 -3.75879 28.1221 -16.0303c-20.1055 -12.4814 -51.2168 -7.81055 -64.4512 12.8936c-17.1436 26.8301 7.27539 61.4189 21.6006 83.8721c16.7588 26.2666 36.2852 50.8525 57.877 73.3008
c43.9932 45.7344 95.8135 84.0381 152.019 113.425c121.311 63.4287 274.261 97.2725 406.55 48.6279c134.117 -49.3145 212.414 -178.206 228.892 -315.824c17.3818 -145.155 -24.6172 -296.412 -88.8711 -425.685c-65.5615 -131.904 -154.456 -250.701 -247.304 -364.424
c-17.6514 -21.6162 -35.5449 -43.0781 -53.7314 -64.3018c31.7695 4.69824 63.6465 8.66699 95.6064 11.8389c79.2441 7.8623 159.495 12.9727 238.874 4.08398zM470.619 -260.835c12.4375 12.0449 24.7012 24.2715 36.8418 36.626
c-70.2559 -19.2451 -139.299 -42.9385 -205.495 -72.0283c-52.4424 -23.0469 -111.664 -53.2227 -147.213 -99.8486c-14.2852 -18.7373 -28.7051 -50.543 -10.4434 -71.4453c3.19922 -3.65918 5.91895 -5.08301 8.14746 -6.18164
c0.261719 -0.126953 2.00977 -0.602539 3.08398 -0.939453c2.13281 0.297852 10.8828 0.341797 7.62012 -0.356445c5.57031 0.756836 11.1562 1.72852 16.5996 2.94141c20.2207 4.50391 47.0186 17.9404 68.1982 30.9375c25.7715 15.8154 50.3809 33.4746 74.3086 51.9385
c51.8203 39.9893 101.329 82.8252 148.352 128.356z" />
    <glyph glyph-name="bracketleft" unicode="[" horiz-adv-x="417" 
d="M358.743 -297.806c13.5957 -10.2803 8.95312 -22.5117 -3.25488 -31.1074c-51.5859 -36.3291 -131.342 -22.417 -180.314 11.8701c-51.7998 36.2695 -74.8115 92.7676 -88.708 152.239c-28.626 122.508 -30.9775 249.81 -34.0664 375.014
c-3.16016 128.118 -2.83105 256.165 -1.12598 384.304c1.66504 125.152 4.44434 254.437 28.0234 377.678c5.62598 29.4111 12.5449 58.7705 22.0166 87.2021c8.41309 25.248 18.373 49.9209 41.793 64.7451c42.9863 27.2139 93.5332 15.668 139.112 3.0918
c23.7139 -6.54199 -1.28809 -23.4639 -15.4902 -20.9424c-17.6191 3.12793 -43.2158 7.7627 -59.7686 -2.16113c-18.6387 -11.1729 -21.8223 -39.0693 -25.1367 -58.2949c-10.1699 -58.9844 -10.6699 -120.066 -11.415 -179.78
c-2.76758 -222.278 1.58594 -445.417 8.37793 -667.608c3.3623 -110.015 8.99219 -219.812 22.5439 -329.077c5.38379 -43.4141 11.5215 -88.4863 34.2158 -126.818c9.1582 -15.4707 22.8604 -29.8506 39.7939 -36.8369c11.1729 -4.60742 14.6465 -3.75488 29.7803 2.58496
c15.6807 6.56934 39.9688 4.22266 53.623 -6.10156z" />
    <glyph glyph-name="backslash" unicode="\" horiz-adv-x="534" 
d="M482.832 -378.584c6.79199 -25.9814 -19.3848 -38.2041 -41.6035 -41.7646c-14.6377 -2.34668 -31.7969 -1.41113 -45.8955 3.42188c-8.1123 2.7793 -24.5742 10.4629 -27.373 20.292c-30.1562 105.848 -58.7227 212.061 -85.2432 318.88
c-47.1299 189.814 -92.1895 380.239 -132.179 571.695c-39.4219 188.712 -78.3877 378.428 -100.439 570.078c-3.08496 26.834 67.584 29.3438 73.9873 5.70996c28.5186 -105.237 52.5654 -211.502 77.6582 -317.592c44.7188 -189.062 88.5215 -378.329 135.334 -566.891
c46.7725 -188.396 96.6816 -376.025 145.754 -563.83z" />
    <glyph glyph-name="bracketright" unicode="]" horiz-adv-x="417" 
d="M366.738 547.604c1.44727 -128.193 0.895508 -256.296 -2.99805 -384.446c-3.71094 -122.259 -6.2998 -250.477 -43.418 -368.108c-15.6455 -49.5879 -46.2812 -96.2373 -92.9668 -121.422c-48.1719 -25.9854 -118.146 -35.8223 -165.407 -2.53809
c-38.6846 27.2422 26.917 47.0381 50.373 37.2129c17.5322 -7.34277 21.2041 -7.78711 37.1113 1.31641c17.54 10.0391 29.4307 25.8828 38.3115 43.7441c23.5547 47.3633 27.0869 102.696 33.1416 154.361c12.957 110.626 16.1289 222.607 18.9795 333.867
c2.85059 111.125 4.32129 222.321 5.45117 333.479c1.11816 109.893 3.93359 219.812 0.959961 329.705c-1.39941 51.748 -2.50195 104.741 -13.3857 155.534c-3.77441 17.623 -9.03613 39.2158 -27.7617 46.2139c-16.624 6.20898 -37.582 2.75977 -54.4209 -0.229492
c-14.4834 -2.57324 -38.8467 14.4951 -15.4902 20.9414c49.457 13.6465 112.414 27.127 153.41 -14.2734c22.373 -22.5879 30.4297 -59.9756 38.0654 -89.6602c8.13184 -31.5957 14.1309 -63.5127 18.3252 -95.8535c16.3271 -125.966 20.2881 -252.962 21.7197 -379.844z
" />
    <glyph glyph-name="asciicircum" unicode="^" horiz-adv-x="367" 
d="M317.389 512.428c2.42285 -23.2578 -37.918 -30.2451 -53.0557 -30.2412c-19.2373 0 -50.7812 6.7041 -53.0605 30.2432c-3.6875 38.0898 -7.14062 76.334 -13.1035 114.15c-2.2959 14.5469 -4.8252 29.1846 -8.33398 43.5293
c-9.34863 -16.2402 -18.0117 -32.9043 -26.0322 -49.8379c-17.4531 -36.8408 -29.5615 -76.6074 -48.9775 -112.405c-9.80859 -18.0869 -63.2656 -21.0488 -64.6133 4.98438c-2.49414 48.2002 17.3818 100.021 35.5049 143.907
c18.7617 45.4248 43.3633 95.9756 97.1855 104.658c29.0264 4.68262 61.6289 -3.82617 81.1123 -26.8018c16.4541 -19.4033 22.8252 -43.3945 28.8398 -67.5762c12.6553 -50.8877 19.1143 -102.545 24.5342 -154.61z" />
    <glyph glyph-name="underscore" unicode="_" horiz-adv-x="509" 
d="M413.847 -117.261c14.0039 0.44043 45.9395 -6.16113 45.4678 -25.918c-0.491211 -20.5576 -30.0889 -25.3311 -45.4727 -25.918c-54.3535 -2.07715 -108.723 -3.8418 -163.052 -6.55762c-54.123 -2.70801 -108.619 -8.72656 -162.81 -8.69043
c-12.2119 0.0078125 -34.502 4.08398 -37.6299 18.9365c-3.15625 14.9746 15.8906 21.9766 27.4443 23.9629c55.4795 9.55469 113.021 11.3428 169.118 15.2285c55.5947 3.84961 111.232 7.20801 166.934 8.95605z" />
    <glyph glyph-name="grave" unicode="`" horiz-adv-x="188" 
d="M137.61 630.679c3.17969 -15.3672 -40.251 -17.5117 -43.6768 0.000976562c-7.26367 37.1299 -21.8779 71.6396 -42.5859 103.239c-9.28906 14.1777 32.1426 19.4395 40.8613 6.41895c22.4922 -33.5898 37.2139 -70.1377 45.4014 -109.659z" />
    <glyph glyph-name="a" unicode="a" horiz-adv-x="455" 
d="M449.291 202.054c2.97363 14.8721 40.4297 14.4727 38.4629 0.000976562c-8.06445 -59.623 -24.8438 -128.15 -59.7461 -178.214c-32.6543 -46.8438 -93.1924 -43.874 -135.243 -10.3438c-25.7793 20.5576 -38.2646 51.3525 -46.0908 82.4326
c-8.38965 33.3164 -13.6387 66.8428 -16.6084 101.047c-7.42188 -29.2324 -16.041 -58.1084 -26.3809 -86.3184c-14.6582 -39.9932 -33.6494 -86.04 -73.5391 -106.911c-35.5127 -18.5791 -84.3594 -12.9258 -112.47 16.2119
c-31.3691 32.5156 -38.2998 89.0654 -40.9326 132.171c-2.94141 48.208 3.1084 98.0332 14.4238 144.846c10.4629 43.2754 30.2432 83.1689 66.1084 110.779c34.3984 26.4805 80.4814 36.1074 121.826 20.5928c19.2334 -7.21582 34.9141 -18.71 48.1211 -32.7734
c0 4.02441 0.0234375 8.05273 0 12.0732c-0.265625 42.709 107.68 42.8125 109.154 0.000976562c3.75488 -108.842 -13.4004 -219.237 0.119141 -327.702c2.39062 -19.1621 5.22559 -49.4727 21.6045 -62.8613c16.4219 -13.4248 35.4688 23.8994 41.5547 35.6865
c24.1221 46.7051 39.3711 97.8945 49.6357 149.282zM180.836 170.436c16.4854 56.3164 28.165 113.951 37.8115 171.821c-14.0791 23.999 -51.4111 80.1328 -81.4326 58.6758c-11.1768 -7.98926 -16.1641 -24.5303 -20.0137 -36.9365
c-5.3877 -17.3662 -11.3271 -34.5654 -16.3945 -52.0459c-21.5371 -74.2959 -31.5439 -151.867 -27.5791 -229.26c0.816406 -15.9541 2.3584 -32.5107 9.43945 -47.1133c2.58105 -5.31641 8.63574 -10.3281 10.8682 -15.4746
c2.59668 0.773438 7.38965 1.43945 9.25293 2.40723c14.2539 7.37012 24.376 20.6445 32.4844 34.0693c21.085 34.9141 34.1729 74.9385 45.5635 113.856z" />
    <glyph glyph-name="a" unicode="&#xe5;" horiz-adv-x="455" 
d="M449.291 202.054c2.97363 14.8721 40.4297 14.4727 38.4629 0.000976562c-8.06445 -59.623 -24.8438 -128.15 -59.7461 -178.214c-32.6543 -46.8438 -93.1924 -43.874 -135.243 -10.3438c-25.7793 20.5576 -38.2646 51.3525 -46.0908 82.4326
c-8.38965 33.3164 -13.6387 66.8428 -16.6084 101.047c-7.42188 -29.2324 -16.041 -58.1084 -26.3809 -86.3184c-14.6582 -39.9932 -33.6494 -86.04 -73.5391 -106.911c-35.5127 -18.5791 -84.3594 -12.9258 -112.47 16.2119
c-31.3691 32.5156 -38.2998 89.0654 -40.9326 132.171c-2.94141 48.208 3.1084 98.0332 14.4238 144.846c10.4629 43.2754 30.2432 83.1689 66.1084 110.779c34.3984 26.4805 80.4814 36.1074 121.826 20.5928c19.2334 -7.21582 34.9141 -18.71 48.1211 -32.7734
c0 4.02441 0.0234375 8.05273 0 12.0732c-0.265625 42.709 107.68 42.8125 109.154 0.000976562c3.75488 -108.842 -13.4004 -219.237 0.119141 -327.702c2.39062 -19.1621 5.22559 -49.4727 21.6045 -62.8613c16.4219 -13.4248 35.4688 23.8994 41.5547 35.6865
c24.1221 46.7051 39.3711 97.8945 49.6357 149.282zM180.836 170.436c16.4854 56.3164 28.165 113.951 37.8115 171.821c-14.0791 23.999 -51.4111 80.1328 -81.4326 58.6758c-11.1768 -7.98926 -16.1641 -24.5303 -20.0137 -36.9365
c-5.3877 -17.3662 -11.3271 -34.5654 -16.3945 -52.0459c-21.5371 -74.2959 -31.5439 -151.867 -27.5791 -229.26c0.816406 -15.9541 2.3584 -32.5107 9.43945 -47.1133c2.58105 -5.31641 8.63574 -10.3281 10.8682 -15.4746
c2.59668 0.773438 7.38965 1.43945 9.25293 2.40723c14.2539 7.37012 24.376 20.6445 32.4844 34.0693c21.085 34.9141 34.1729 74.9385 45.5635 113.856z" />
    <glyph glyph-name="a" unicode="&#xe4;" horiz-adv-x="455" 
d="M449.291 202.054c2.97363 14.8721 40.4297 14.4727 38.4629 0.000976562c-8.06445 -59.623 -24.8438 -128.15 -59.7461 -178.214c-32.6543 -46.8438 -93.1924 -43.874 -135.243 -10.3438c-25.7793 20.5576 -38.2646 51.3525 -46.0908 82.4326
c-8.38965 33.3164 -13.6387 66.8428 -16.6084 101.047c-7.42188 -29.2324 -16.041 -58.1084 -26.3809 -86.3184c-14.6582 -39.9932 -33.6494 -86.04 -73.5391 -106.911c-35.5127 -18.5791 -84.3594 -12.9258 -112.47 16.2119
c-31.3691 32.5156 -38.2998 89.0654 -40.9326 132.171c-2.94141 48.208 3.1084 98.0332 14.4238 144.846c10.4629 43.2754 30.2432 83.1689 66.1084 110.779c34.3984 26.4805 80.4814 36.1074 121.826 20.5928c19.2334 -7.21582 34.9141 -18.71 48.1211 -32.7734
c0 4.02441 0.0234375 8.05273 0 12.0732c-0.265625 42.709 107.68 42.8125 109.154 0.000976562c3.75488 -108.842 -13.4004 -219.237 0.119141 -327.702c2.39062 -19.1621 5.22559 -49.4727 21.6045 -62.8613c16.4219 -13.4248 35.4688 23.8994 41.5547 35.6865
c24.1221 46.7051 39.3711 97.8945 49.6357 149.282zM180.836 170.436c16.4854 56.3164 28.165 113.951 37.8115 171.821c-14.0791 23.999 -51.4111 80.1328 -81.4326 58.6758c-11.1768 -7.98926 -16.1641 -24.5303 -20.0137 -36.9365
c-5.3877 -17.3662 -11.3271 -34.5654 -16.3945 -52.0459c-21.5371 -74.2959 -31.5439 -151.867 -27.5791 -229.26c0.816406 -15.9541 2.3584 -32.5107 9.43945 -47.1133c2.58105 -5.31641 8.63574 -10.3281 10.8682 -15.4746
c2.59668 0.773438 7.38965 1.43945 9.25293 2.40723c14.2539 7.37012 24.376 20.6445 32.4844 34.0693c21.085 34.9141 34.1729 74.9385 45.5635 113.856z" />
    <glyph glyph-name="a" unicode="&#xe3;" horiz-adv-x="455" 
d="M449.291 202.054c2.97363 14.8721 40.4297 14.4727 38.4629 0.000976562c-8.06445 -59.623 -24.8438 -128.15 -59.7461 -178.214c-32.6543 -46.8438 -93.1924 -43.874 -135.243 -10.3438c-25.7793 20.5576 -38.2646 51.3525 -46.0908 82.4326
c-8.38965 33.3164 -13.6387 66.8428 -16.6084 101.047c-7.42188 -29.2324 -16.041 -58.1084 -26.3809 -86.3184c-14.6582 -39.9932 -33.6494 -86.04 -73.5391 -106.911c-35.5127 -18.5791 -84.3594 -12.9258 -112.47 16.2119
c-31.3691 32.5156 -38.2998 89.0654 -40.9326 132.171c-2.94141 48.208 3.1084 98.0332 14.4238 144.846c10.4629 43.2754 30.2432 83.1689 66.1084 110.779c34.3984 26.4805 80.4814 36.1074 121.826 20.5928c19.2334 -7.21582 34.9141 -18.71 48.1211 -32.7734
c0 4.02441 0.0234375 8.05273 0 12.0732c-0.265625 42.709 107.68 42.8125 109.154 0.000976562c3.75488 -108.842 -13.4004 -219.237 0.119141 -327.702c2.39062 -19.1621 5.22559 -49.4727 21.6045 -62.8613c16.4219 -13.4248 35.4688 23.8994 41.5547 35.6865
c24.1221 46.7051 39.3711 97.8945 49.6357 149.282zM180.836 170.436c16.4854 56.3164 28.165 113.951 37.8115 171.821c-14.0791 23.999 -51.4111 80.1328 -81.4326 58.6758c-11.1768 -7.98926 -16.1641 -24.5303 -20.0137 -36.9365
c-5.3877 -17.3662 -11.3271 -34.5654 -16.3945 -52.0459c-21.5371 -74.2959 -31.5439 -151.867 -27.5791 -229.26c0.816406 -15.9541 2.3584 -32.5107 9.43945 -47.1133c2.58105 -5.31641 8.63574 -10.3281 10.8682 -15.4746
c2.59668 0.773438 7.38965 1.43945 9.25293 2.40723c14.2539 7.37012 24.376 20.6445 32.4844 34.0693c21.085 34.9141 34.1729 74.9385 45.5635 113.856z" />
    <glyph glyph-name="a" unicode="&#xe2;" horiz-adv-x="455" 
d="M449.291 202.054c2.97363 14.8721 40.4297 14.4727 38.4629 0.000976562c-8.06445 -59.623 -24.8438 -128.15 -59.7461 -178.214c-32.6543 -46.8438 -93.1924 -43.874 -135.243 -10.3438c-25.7793 20.5576 -38.2646 51.3525 -46.0908 82.4326
c-8.38965 33.3164 -13.6387 66.8428 -16.6084 101.047c-7.42188 -29.2324 -16.041 -58.1084 -26.3809 -86.3184c-14.6582 -39.9932 -33.6494 -86.04 -73.5391 -106.911c-35.5127 -18.5791 -84.3594 -12.9258 -112.47 16.2119
c-31.3691 32.5156 -38.2998 89.0654 -40.9326 132.171c-2.94141 48.208 3.1084 98.0332 14.4238 144.846c10.4629 43.2754 30.2432 83.1689 66.1084 110.779c34.3984 26.4805 80.4814 36.1074 121.826 20.5928c19.2334 -7.21582 34.9141 -18.71 48.1211 -32.7734
c0 4.02441 0.0234375 8.05273 0 12.0732c-0.265625 42.709 107.68 42.8125 109.154 0.000976562c3.75488 -108.842 -13.4004 -219.237 0.119141 -327.702c2.39062 -19.1621 5.22559 -49.4727 21.6045 -62.8613c16.4219 -13.4248 35.4688 23.8994 41.5547 35.6865
c24.1221 46.7051 39.3711 97.8945 49.6357 149.282zM180.836 170.436c16.4854 56.3164 28.165 113.951 37.8115 171.821c-14.0791 23.999 -51.4111 80.1328 -81.4326 58.6758c-11.1768 -7.98926 -16.1641 -24.5303 -20.0137 -36.9365
c-5.3877 -17.3662 -11.3271 -34.5654 -16.3945 -52.0459c-21.5371 -74.2959 -31.5439 -151.867 -27.5791 -229.26c0.816406 -15.9541 2.3584 -32.5107 9.43945 -47.1133c2.58105 -5.31641 8.63574 -10.3281 10.8682 -15.4746
c2.59668 0.773438 7.38965 1.43945 9.25293 2.40723c14.2539 7.37012 24.376 20.6445 32.4844 34.0693c21.085 34.9141 34.1729 74.9385 45.5635 113.856z" />
    <glyph glyph-name="a" unicode="&#xe1;" horiz-adv-x="455" 
d="M449.291 202.054c2.97363 14.8721 40.4297 14.4727 38.4629 0.000976562c-8.06445 -59.623 -24.8438 -128.15 -59.7461 -178.214c-32.6543 -46.8438 -93.1924 -43.874 -135.243 -10.3438c-25.7793 20.5576 -38.2646 51.3525 -46.0908 82.4326
c-8.38965 33.3164 -13.6387 66.8428 -16.6084 101.047c-7.42188 -29.2324 -16.041 -58.1084 -26.3809 -86.3184c-14.6582 -39.9932 -33.6494 -86.04 -73.5391 -106.911c-35.5127 -18.5791 -84.3594 -12.9258 -112.47 16.2119
c-31.3691 32.5156 -38.2998 89.0654 -40.9326 132.171c-2.94141 48.208 3.1084 98.0332 14.4238 144.846c10.4629 43.2754 30.2432 83.1689 66.1084 110.779c34.3984 26.4805 80.4814 36.1074 121.826 20.5928c19.2334 -7.21582 34.9141 -18.71 48.1211 -32.7734
c0 4.02441 0.0234375 8.05273 0 12.0732c-0.265625 42.709 107.68 42.8125 109.154 0.000976562c3.75488 -108.842 -13.4004 -219.237 0.119141 -327.702c2.39062 -19.1621 5.22559 -49.4727 21.6045 -62.8613c16.4219 -13.4248 35.4688 23.8994 41.5547 35.6865
c24.1221 46.7051 39.3711 97.8945 49.6357 149.282zM180.836 170.436c16.4854 56.3164 28.165 113.951 37.8115 171.821c-14.0791 23.999 -51.4111 80.1328 -81.4326 58.6758c-11.1768 -7.98926 -16.1641 -24.5303 -20.0137 -36.9365
c-5.3877 -17.3662 -11.3271 -34.5654 -16.3945 -52.0459c-21.5371 -74.2959 -31.5439 -151.867 -27.5791 -229.26c0.816406 -15.9541 2.3584 -32.5107 9.43945 -47.1133c2.58105 -5.31641 8.63574 -10.3281 10.8682 -15.4746
c2.59668 0.773438 7.38965 1.43945 9.25293 2.40723c14.2539 7.37012 24.376 20.6445 32.4844 34.0693c21.085 34.9141 34.1729 74.9385 45.5635 113.856z" />
    <glyph glyph-name="b" unicode="b" horiz-adv-x="495" 
d="M522.708 202.8c5.95508 -2.19629 14.9795 -9.82129 7.36719 -16.0068c-37.4912 -30.5127 -80.1084 -46.4824 -124.486 -57.9014c-2.46191 -12.0254 -5.36035 -23.9316 -8.64355 -35.6514c-16.541 -59.04 -50.2969 -111.927 -107.814 -137.531
c-44.667 -19.8877 -123.392 -29.2803 -158.603 13.9004c-33.3838 40.9404 -2.16895 92.1533 35.627 115.998c37.8008 23.8486 80.5732 34.9346 124.229 43.625c2.23242 7.88965 4.28613 15.752 6.18164 23.499c11.6562 47.6094 16.9375 97.6289 20.1016 146.463
c2.10156 32.416 7.08105 125.327 -51.2451 95.5078c-39.707 -20.2998 -68.0479 -70.5059 -87.3721 -108.758c-43.2715 -85.6592 -65.958 -186.698 -67.75 -282.452c0.717773 -3.83008 1.51074 -7.63281 2.41113 -11.3877
c8.9209 -37.2295 -72.7266 -42.6689 -83.5107 -13.123c-22.1113 60.5898 -30.5723 128.896 -37.8877 192.653c-7.33105 63.8809 -10.1143 128.17 -11.3037 192.432c-2.41895 130.597 -1.42383 264.163 13.6738 394.01c4.80176 41.2656 105.714 41.8047 106.122 0
c1.25293 -128.705 -11.0938 -257.462 -10.8125 -386.294c0.138672 -64.2217 2.74707 -128.376 6.53711 -192.479c0.0517578 -0.87207 0.123047 -1.74023 0.174805 -2.6123c2.59668 9.59863 5.34863 19.1533 8.28613 28.6533c18.6816 60.3955 45.999 118.753 87.4824 166.977
c31.6943 36.8447 81.6152 67.5088 130.735 43.9932c50.1621 -24.0146 73.915 -83.7441 85.0684 -134.351c9.13477 -41.4365 9.03125 -84.5098 2.91797 -126.655c30.1406 9.42871 58.7979 22.5479 84.4141 43.292c7.50098 6.07422 19.0586 7.5293 28.0986 4.19922z
M242.268 25.3584c17.2939 22.1191 29.7715 48.5869 39.3184 75.8691c-14.1426 -3.6123 -28.1621 -7.66797 -41.9395 -12.5127c-22.1553 -7.79102 -45.6113 -17.5605 -61.9023 -35.1367c-13.7461 -14.8281 -21.6836 -41.0273 -8.86523 -58.9365
c11.8984 -16.624 24.0742 -14.209 38.1055 -4.31641c13.0088 9.1748 25.498 22.5205 35.2832 35.0332z" />
    <glyph glyph-name="c" unicode="c" horiz-adv-x="260" 
d="M256.12 197.153c5.47559 12.9287 42.7559 9.9834 37.0977 -5.83594c-23.5664 -65.8311 -59.4199 -147.161 -123.784 -182.899c-26.4092 -14.666 -59.3008 -21.2002 -88.5449 -12.1006c-31.5957 9.83301 -61.8037 34.6562 -79.4746 62.3818
c-37.3281 58.5684 -30.3105 141.211 -15.3672 205.579c16.0654 69.2178 55.8955 134.895 125.312 160.531c26.8975 9.93555 63.3896 11.5176 84.2646 -11.5811c20.0225 -22.1553 23.3408 -62.6084 23.2812 -90.9209c-0.0361328 -15.7803 -40.0449 -15.7207 -40.207 0
c-0.194336 19.126 -2.64453 37.3877 -9.13086 55.4795c-2.10547 5.87988 -4.29395 14.8125 -8.63965 19.5342c-6.91895 7.52539 -7.22461 5.13086 -13.4971 -2.30273c-15.6172 -18.5039 -24.3555 -49.5605 -31.0996 -72.3584
c-18.8965 -63.8652 -31.8379 -126.632 -31.7031 -193.482c0.0517578 -26.5723 2.49805 -55.2773 12.208 -80.2832c4.21875 -10.8633 13.0488 -25.1328 25.6328 -27.5752c11.5615 -2.24805 24.8438 8.80566 33.5859 16.0967c48.5684 40.5 75.9648 102.851 100.066 159.737z
" />
    <glyph glyph-name="d" unicode="d" horiz-adv-x="512" 
d="M507.568 197.32c4.40527 13.9639 43.8701 10.8066 38.7637 -6.08691c-16.252 -53.8379 -31.6514 -110.162 -64.5273 -156.681c-35.1914 -49.8018 -93.0938 -71.0811 -151.982 -48.208c-74.082 28.7764 -94.7939 126.136 -103.378 200.468
c-6.81934 -25.7676 -14.6182 -51.2178 -23.7568 -76.1562c-14.6543 -39.9932 -33.6494 -86.04 -73.5391 -106.911c-35.5127 -18.5791 -84.3594 -12.9258 -112.47 16.2119c-31.3691 32.5156 -38.2998 89.0654 -40.9326 132.171
c-2.94141 48.208 3.1084 98.0332 14.4238 144.846c10.4629 43.2754 30.2432 83.1689 66.1084 110.779c34.3984 26.4805 80.4814 36.1074 121.826 20.5928c14.9746 -5.61816 27.7969 -13.833 38.9814 -23.8281c0.19043 32.8164 0.785156 65.6289 1.38379 98.3818
c1.78809 97.7168 5.85156 194.997 14.9629 292.309c3.96875 42.3555 107.585 42.5137 108.291 -0.000976562c1.61719 -97.5264 -0.163086 -194.807 -2.88281 -292.309c-2.40625 -86.2461 -5.02734 -172.373 -3.75879 -258.671
c0.594727 -40.2939 1.85938 -81.0635 6.57324 -121.112c3.99609 -33.9668 4.51953 -74.998 23.5977 -104.806c31.5244 -49.2549 83.2217 31.373 96.3408 56.6367c20.1846 38.8672 32.8477 80.7754 45.9746 122.374zM179.837 170.438
c16.3232 55.7568 27.9287 112.801 37.5234 170.088c-0.0117188 0.765625 -0.0195312 1.53125 -0.03125 2.29297c-14.3291 24.3086 -51.3203 79.4033 -81.1035 58.1162c-11.1768 -7.98926 -16.1641 -24.5303 -20.0137 -36.9365
c-5.39258 -17.3662 -11.332 -34.5654 -16.3994 -52.0459c-21.5371 -74.2959 -31.5439 -151.867 -27.5791 -229.26c0.816406 -15.9541 2.3584 -32.5107 9.43945 -47.1133c2.58105 -5.31641 8.63574 -10.3281 10.8682 -15.4746
c2.59668 0.773438 7.38574 1.43945 9.25293 2.40723c14.249 7.37012 24.3711 20.6445 32.4795 34.0693c21.085 34.9141 34.1729 74.9385 45.5635 113.856z" />
    <glyph glyph-name="e" unicode="e" horiz-adv-x="271" 
d="M265.872 198.133c4.32129 14.1426 44.3672 10.915 39.1855 -6.15723c-14.4756 -47.748 -35.5088 -93.1328 -63.4727 -134.51c-24.6455 -36.4717 -54.9365 -71.1719 -101.035 -77.3926c-37.8555 -5.11035 -76.6592 7.77539 -106.026 31.5361
c-34.3906 27.8252 -50.6221 70.2568 -56.7441 113.021c-12.1914 85.1719 4.29004 189.152 61.8193 255.84c26.8096 31.0801 65.7715 56.958 108.06 57.0215c39.3584 0.0556641 63.667 -24.6328 65.4873 -63.0791c3.75098 -79.292 -60.6416 -138.848 -127.623 -168.635
c-4.52344 -35.5166 -6.14941 -71.3066 -3.72656 -107.728c1.74023 -26.1436 4.83691 -55.9863 21.7588 -77.3047c8.36523 -10.542 18.8994 -18.9434 32.8193 -15.6406c16.085 3.81836 29.6719 14.7812 40.8486 26.5371c42.7012 44.9209 70.7559 107.926 88.6494 166.49z
M101.87 292.602c-3.86133 -15.9307 -7.3125 -31.8613 -10.2539 -47.8193c45.5117 30.3027 84.3389 79.1572 72.7891 135.072c-1.45898 7.06543 -4.72559 13.4727 -9.09473 19.0752c-0.412109 0.53125 -0.745117 0.951172 -1.00293 1.29199
c-2.08984 -1.32422 -4.0918 -3.32617 -5.74512 -4.75781c-8.80566 -7.63574 -15.2842 -17.4482 -20.6006 -27.7051c-12.1836 -23.5117 -19.875 -49.5166 -26.0918 -75.1572z" />
    <glyph glyph-name="e" unicode="&#xeb;" horiz-adv-x="271" 
d="M265.872 198.133c4.32129 14.1426 44.3672 10.915 39.1855 -6.15723c-14.4756 -47.748 -35.5088 -93.1328 -63.4727 -134.51c-24.6455 -36.4717 -54.9365 -71.1719 -101.035 -77.3926c-37.8555 -5.11035 -76.6592 7.77539 -106.026 31.5361
c-34.3906 27.8252 -50.6221 70.2568 -56.7441 113.021c-12.1914 85.1719 4.29004 189.152 61.8193 255.84c26.8096 31.0801 65.7715 56.958 108.06 57.0215c39.3584 0.0556641 63.667 -24.6328 65.4873 -63.0791c3.75098 -79.292 -60.6416 -138.848 -127.623 -168.635
c-4.52344 -35.5166 -6.14941 -71.3066 -3.72656 -107.728c1.74023 -26.1436 4.83691 -55.9863 21.7588 -77.3047c8.36523 -10.542 18.8994 -18.9434 32.8193 -15.6406c16.085 3.81836 29.6719 14.7812 40.8486 26.5371c42.7012 44.9209 70.7559 107.926 88.6494 166.49z
M101.87 292.602c-3.86133 -15.9307 -7.3125 -31.8613 -10.2539 -47.8193c45.5117 30.3027 84.3389 79.1572 72.7891 135.072c-1.45898 7.06543 -4.72559 13.4727 -9.09473 19.0752c-0.412109 0.53125 -0.745117 0.951172 -1.00293 1.29199
c-2.08984 -1.32422 -4.0918 -3.32617 -5.74512 -4.75781c-8.80566 -7.63574 -15.2842 -17.4482 -20.6006 -27.7051c-12.1836 -23.5117 -19.875 -49.5166 -26.0918 -75.1572z" />
    <glyph glyph-name="e" unicode="&#xea;" horiz-adv-x="271" 
d="M265.872 198.133c4.32129 14.1426 44.3672 10.915 39.1855 -6.15723c-14.4756 -47.748 -35.5088 -93.1328 -63.4727 -134.51c-24.6455 -36.4717 -54.9365 -71.1719 -101.035 -77.3926c-37.8555 -5.11035 -76.6592 7.77539 -106.026 31.5361
c-34.3906 27.8252 -50.6221 70.2568 -56.7441 113.021c-12.1914 85.1719 4.29004 189.152 61.8193 255.84c26.8096 31.0801 65.7715 56.958 108.06 57.0215c39.3584 0.0556641 63.667 -24.6328 65.4873 -63.0791c3.75098 -79.292 -60.6416 -138.848 -127.623 -168.635
c-4.52344 -35.5166 -6.14941 -71.3066 -3.72656 -107.728c1.74023 -26.1436 4.83691 -55.9863 21.7588 -77.3047c8.36523 -10.542 18.8994 -18.9434 32.8193 -15.6406c16.085 3.81836 29.6719 14.7812 40.8486 26.5371c42.7012 44.9209 70.7559 107.926 88.6494 166.49z
M101.87 292.602c-3.86133 -15.9307 -7.3125 -31.8613 -10.2539 -47.8193c45.5117 30.3027 84.3389 79.1572 72.7891 135.072c-1.45898 7.06543 -4.72559 13.4727 -9.09473 19.0752c-0.412109 0.53125 -0.745117 0.951172 -1.00293 1.29199
c-2.08984 -1.32422 -4.0918 -3.32617 -5.74512 -4.75781c-8.80566 -7.63574 -15.2842 -17.4482 -20.6006 -27.7051c-12.1836 -23.5117 -19.875 -49.5166 -26.0918 -75.1572z" />
    <glyph glyph-name="e" unicode="&#xe9;" horiz-adv-x="271" 
d="M265.872 198.133c4.32129 14.1426 44.3672 10.915 39.1855 -6.15723c-14.4756 -47.748 -35.5088 -93.1328 -63.4727 -134.51c-24.6455 -36.4717 -54.9365 -71.1719 -101.035 -77.3926c-37.8555 -5.11035 -76.6592 7.77539 -106.026 31.5361
c-34.3906 27.8252 -50.6221 70.2568 -56.7441 113.021c-12.1914 85.1719 4.29004 189.152 61.8193 255.84c26.8096 31.0801 65.7715 56.958 108.06 57.0215c39.3584 0.0556641 63.667 -24.6328 65.4873 -63.0791c3.75098 -79.292 -60.6416 -138.848 -127.623 -168.635
c-4.52344 -35.5166 -6.14941 -71.3066 -3.72656 -107.728c1.74023 -26.1436 4.83691 -55.9863 21.7588 -77.3047c8.36523 -10.542 18.8994 -18.9434 32.8193 -15.6406c16.085 3.81836 29.6719 14.7812 40.8486 26.5371c42.7012 44.9209 70.7559 107.926 88.6494 166.49z
M101.87 292.602c-3.86133 -15.9307 -7.3125 -31.8613 -10.2539 -47.8193c45.5117 30.3027 84.3389 79.1572 72.7891 135.072c-1.45898 7.06543 -4.72559 13.4727 -9.09473 19.0752c-0.412109 0.53125 -0.745117 0.951172 -1.00293 1.29199
c-2.08984 -1.32422 -4.0918 -3.32617 -5.74512 -4.75781c-8.80566 -7.63574 -15.2842 -17.4482 -20.6006 -27.7051c-12.1836 -23.5117 -19.875 -49.5166 -26.0918 -75.1572z" />
    <glyph glyph-name="f" unicode="f" horiz-adv-x="317" 
d="M351.82 229.725c5.5625 -6.81543 0.326172 -13.7305 -7.27832 -15.8477c-71.5645 -19.9033 -142.225 -42.5146 -211.712 -68.5352c63.9756 -9.44434 123.551 -45.4883 147.011 -108.984c26.0527 -70.5137 -1.62988 -163.781 -84.0781 -177.571
c-104.302 -17.4453 -165.38 82.5664 -189.244 168.495c-27.7734 100.004 -25.5293 208.318 -23.3008 311.205c2.32715 107.391 8.2627 215.415 16.9658 322.465c3.61621 44.4971 111.641 44.5723 113.492 0c4.13574 -99.627 -5.65723 -199.671 -10.2803 -299.159
c-3.08105 -66.3037 -5.43652 -132.881 -3.625 -199.303c73.3926 27.8369 148.156 52.0225 224.249 71.3906c7.91797 2.01367 21.7627 3.24707 27.8008 -4.15527zM236.133 35.0967c-23.1064 56.0225 -77.3545 86.376 -134.701 87.5576
c0.296875 -5.45117 0.535156 -10.9072 0.904297 -16.3545c2.69238 -39.8623 7.31543 -80.0693 17.7666 -118.683c8.42871 -31.1436 19.8516 -70.1768 47.1611 -90.2744c15.4824 -11.3945 30.5967 -13.4287 45.9004 -0.499023
c12.3506 10.4355 20.9346 25.3555 26.4971 40.3545c11.625 31.3535 9.10352 67.2705 -3.52832 97.8984z" />
    <glyph glyph-name="g" unicode="g" horiz-adv-x="422" 
d="M418.922 188.586c7.14844 12.7148 46.0176 8.84863 38.334 -6.02734c-32.6934 -63.4209 -77.2695 -117.484 -124.558 -169.511c-0.483398 -23.1543 -1.07031 -46.2891 -1.85156 -69.3721c-2.42285 -71.5166 -6.71289 -142.586 -19.3486 -213.132
c-10.9346 -61.0381 -26.8096 -125.612 -67.0762 -174.415c-35.7031 -43.2715 -95.8809 -64.7207 -150.631 -51.0146c-56.1855 14.0635 -94.0176 64.96 -90.0527 122.799c4.04004 58.9404 36.5518 112.564 70.9941 158.719c35.5723 47.6689 76.1523 90.7461 118.457 132.436
c12.251 12.0732 24.5381 24.2373 36.7852 36.5039c-0.348633 26.3818 -0.789062 52.7197 -1.05469 78.9473c-0.495117 49.4414 -1.94238 98.8662 -3.55957 148.287c-6.56152 -24.3955 -14.0078 -48.5059 -22.6748 -72.1475
c-14.6543 -39.9932 -33.6494 -86.04 -73.5391 -106.911c-35.5127 -18.5791 -84.3594 -12.9258 -112.47 16.2119c-31.3691 32.5156 -38.2998 89.0654 -40.9326 132.171c-2.94141 48.208 3.1084 98.0332 14.4238 144.846c10.4629 43.2754 30.2432 83.1689 66.1084 110.779
c34.3984 26.4805 80.4814 36.1074 121.826 20.5928c16.1094 -6.04199 29.709 -15.1094 41.4727 -26.1475c-0.0400391 4.41309 -0.130859 8.82617 -0.154297 13.2393c-0.234375 41.2139 102.589 41.2373 105.253 -0.000976562
c7.4541 -115.435 10.1299 -232.095 8.90918 -348.264c31.8613 38.1299 61.0742 78.2422 85.3389 121.411zM179.839 170.435c16.4854 56.3164 28.1699 113.951 37.8164 171.821c-14.0791 24.0029 -51.4111 80.1328 -81.4326 58.6758
c-11.1768 -7.98926 -16.1641 -24.5303 -20.0137 -36.9365c-5.3877 -17.3662 -11.3271 -34.5654 -16.3945 -52.0459c-21.5371 -74.2959 -31.5439 -151.867 -27.5791 -229.26c0.816406 -15.9541 2.3584 -32.5107 9.43945 -47.1133
c2.58105 -5.31641 8.63574 -10.3281 10.8682 -15.4746c2.59668 0.773438 7.38574 1.43945 9.25293 2.40723c14.249 7.37012 24.3711 20.6445 32.4795 34.0693c21.085 34.9141 34.1729 74.9385 45.5635 113.856zM213.317 -352
c14.8438 83.5938 17.4561 168.865 17.1504 253.997c-33.832 -38.0225 -67.7275 -76.5605 -97.5391 -117.803c-14.7852 -20.4541 -27.4482 -42.0664 -41.1152 -63.2305c-16.3906 -25.3867 -32.4717 -51.5742 -39.8105 -81.2266
c-13.5078 -54.5674 28.1182 -126.592 91.5195 -112.378c50.6221 11.3477 62.2266 78.0195 69.7949 120.641z" />
    <glyph glyph-name="h" unicode="h" horiz-adv-x="431" 
d="M423.795 178.507c3.2666 13.373 43.5195 10.5391 40.3438 -3.11133c-10.3008 -44.3027 -20.5059 -88.835 -36.6582 -131.452c-13.4482 -35.4854 -32.2656 -70.8828 -70.3555 -83.9346c-36.5986 -12.5449 -72.2539 -4.78223 -103.461 17.3057
c-36.9404 26.1436 -40.6514 74.248 -38.5342 116.156c4.19043 83.0186 25.8818 164.122 34.6562 246.617c0.999023 9.40039 0.463867 18.833 2.44629 28.0352c1.80371 8.38574 4.29004 15.2334 0.376953 23.9795c-12.0527 26.9287 -38.7236 -3.37012 -47.7793 -17.3623
c-20.7754 -32.0947 -33.9033 -69.7607 -45.0322 -106.098c-25.5654 -83.4512 -41.1865 -169.788 -48.541 -256.7c-0.138672 -1.64941 -0.729492 -3.10449 -1.62988 -4.38477c0.891602 -5.20605 1.87109 -10.376 3.08789 -15.4512
c8.9209 -37.2295 -72.7266 -42.6689 -83.5107 -13.123c-22.1113 60.5898 -30.5723 128.896 -37.8877 192.653c-7.33105 63.8809 -10.1143 128.17 -11.3037 192.432c-2.41895 130.597 -1.42383 264.163 13.6738 394.01c4.80176 41.2656 105.714 41.8047 106.122 0
c1.25293 -128.705 -11.0938 -257.462 -10.8125 -386.294c0.138672 -64.2217 2.74707 -128.376 6.53711 -192.479c0.111328 -1.90332 0.257812 -3.80273 0.376953 -5.70215c8.36133 39.9414 18.7607 79.4268 31.4756 118.056c18.666 56.7041 52.8506 150.951 130.264 132.594
c16.5293 -3.9209 32.2256 -14.1582 44.5801 -25.6484c12.7109 -11.8232 26.3779 -25.9463 31.5322 -42.6064c12.1484 -39.2598 13.2148 -80.4658 11.7715 -121.188c-1.49512 -42.1738 -6.52637 -84.3359 -9.48828 -126.438
c-1.56641 -22.2344 -2.28027 -44.4893 -3.7041 -66.7236c-0.614258 -9.58301 -0.697266 -18.9043 0.246094 -28.4639c0.646484 -6.5459 -0.400391 -15.5059 1.25684 -21.7422c2.6084 -9.81641 4.81641 -8.18262 11.9648 -3.22266
c8.81738 6.11816 15.7236 13.0527 21.5479 22.1162c9.91211 15.4229 16.6006 33.0508 22.9082 50.1748c14.1504 38.415 23.8359 78.2812 33.5303 117.997z" />
    <glyph glyph-name="i" unicode="i" horiz-adv-x="209" 
d="M202.684 202.054c2.96973 14.8721 40.4307 14.4697 38.4717 -0.00195312c-8.06836 -59.623 -24.8477 -128.15 -59.75 -178.214c-32.6543 -46.8438 -93.1963 -43.874 -135.243 -10.3438c-25.7793 20.5576 -38.2646 51.3525 -46.0908 82.4326
c-8.48828 33.7129 -13.7734 67.6318 -16.7236 102.257c-5.91992 69.499 -2.2998 139.814 -2.73242 209.464c-0.265625 42.709 107.68 42.8125 109.154 0.000976562c3.75488 -108.842 -13.4004 -219.237 0.119141 -327.702
c2.39062 -19.1621 5.22559 -49.4727 21.6045 -62.8613c16.4219 -13.4248 35.4688 23.8994 41.5547 35.6865c24.1221 46.7051 39.3711 97.8945 49.6357 149.282zM30.2959 461.991c-45.6465 14.8164 -95.3818 80.4932 -72.5684 129.403
c8.00488 17.1719 26.9365 24.5264 43.4619 13.8057c11.5137 -7.46582 18.3447 -20.248 22.4756 -34.5527c4.77734 11.8867 10.9629 23.1748 19.0947 33.3926c13.5713 17.0527 35.5439 33.0986 58.3018 23.583c59.999 -25.0811 -34.6406 -135.802 -55.5547 -161.414
c-0.765625 -0.935547 -1.94336 -1.60156 -3.30762 -2.06934c-3.08105 -2.06152 -8.27539 -3.32617 -11.9033 -2.14844zM-22.9365 588.357c-4.6748 -7.24414 -5.10156 -19.2666 -4.69336 -27.6914c1.51465 -31.0996 28.3643 -69.3721 57.6719 -84.7158
c15.082 17.8613 30.0771 35.8809 42.7363 55.5703c11.4541 17.8135 25.8701 41.6299 26.8809 63.373c0.535156 11.5176 -0.321289 16.002 -11.4863 19.2852c-10.6455 3.13184 -13.1709 0.483398 -20.4541 -6.7207c-8.13574 -8.04492 -14.6377 -17.8701 -19.8154 -28.0244
c-9.99121 -19.5977 -14.832 -41.0635 -17.5918 -62.7471c-0.979492 -7.6875 -19.5625 -7.86621 -19.8438 0c-0.777344 21.8184 -2.4502 44.9287 -12.3428 64.7959c-5.35645 10.7607 -12.6279 19.9473 -21.0615 6.875z" />
    <glyph glyph-name="i" unicode="&#xef;" horiz-adv-x="209" 
d="M202.684 202.054c2.96973 14.8721 40.4307 14.4697 38.4717 -0.00195312c-8.06836 -59.623 -24.8477 -128.15 -59.75 -178.214c-32.6543 -46.8438 -93.1963 -43.874 -135.243 -10.3438c-25.7793 20.5576 -38.2646 51.3525 -46.0908 82.4326
c-8.48828 33.7129 -13.7734 67.6318 -16.7236 102.257c-5.91992 69.499 -2.2998 139.814 -2.73242 209.464c-0.265625 42.709 107.68 42.8125 109.154 0.000976562c3.75488 -108.842 -13.4004 -219.237 0.119141 -327.702
c2.39062 -19.1621 5.22559 -49.4727 21.6045 -62.8613c16.4219 -13.4248 35.4688 23.8994 41.5547 35.6865c24.1221 46.7051 39.3711 97.8945 49.6357 149.282zM30.2959 461.991c-45.6465 14.8164 -95.3818 80.4932 -72.5684 129.403
c8.00488 17.1719 26.9365 24.5264 43.4619 13.8057c11.5137 -7.46582 18.3447 -20.248 22.4756 -34.5527c4.77734 11.8867 10.9629 23.1748 19.0947 33.3926c13.5713 17.0527 35.5439 33.0986 58.3018 23.583c59.999 -25.0811 -34.6406 -135.802 -55.5547 -161.414
c-0.765625 -0.935547 -1.94336 -1.60156 -3.30762 -2.06934c-3.08105 -2.06152 -8.27539 -3.32617 -11.9033 -2.14844zM-22.9365 588.357c-4.6748 -7.24414 -5.10156 -19.2666 -4.69336 -27.6914c1.51465 -31.0996 28.3643 -69.3721 57.6719 -84.7158
c15.082 17.8613 30.0771 35.8809 42.7363 55.5703c11.4541 17.8135 25.8701 41.6299 26.8809 63.373c0.535156 11.5176 -0.321289 16.002 -11.4863 19.2852c-10.6455 3.13184 -13.1709 0.483398 -20.4541 -6.7207c-8.13574 -8.04492 -14.6377 -17.8701 -19.8154 -28.0244
c-9.99121 -19.5977 -14.832 -41.0635 -17.5918 -62.7471c-0.979492 -7.6875 -19.5625 -7.86621 -19.8438 0c-0.777344 21.8184 -2.4502 44.9287 -12.3428 64.7959c-5.35645 10.7607 -12.6279 19.9473 -21.0615 6.875z" />
    <glyph glyph-name="i" unicode="&#xee;" horiz-adv-x="209" 
d="M202.684 202.054c2.96973 14.8721 40.4307 14.4697 38.4717 -0.00195312c-8.06836 -59.623 -24.8477 -128.15 -59.75 -178.214c-32.6543 -46.8438 -93.1963 -43.874 -135.243 -10.3438c-25.7793 20.5576 -38.2646 51.3525 -46.0908 82.4326
c-8.48828 33.7129 -13.7734 67.6318 -16.7236 102.257c-5.91992 69.499 -2.2998 139.814 -2.73242 209.464c-0.265625 42.709 107.68 42.8125 109.154 0.000976562c3.75488 -108.842 -13.4004 -219.237 0.119141 -327.702
c2.39062 -19.1621 5.22559 -49.4727 21.6045 -62.8613c16.4219 -13.4248 35.4688 23.8994 41.5547 35.6865c24.1221 46.7051 39.3711 97.8945 49.6357 149.282zM30.2959 461.991c-45.6465 14.8164 -95.3818 80.4932 -72.5684 129.403
c8.00488 17.1719 26.9365 24.5264 43.4619 13.8057c11.5137 -7.46582 18.3447 -20.248 22.4756 -34.5527c4.77734 11.8867 10.9629 23.1748 19.0947 33.3926c13.5713 17.0527 35.5439 33.0986 58.3018 23.583c59.999 -25.0811 -34.6406 -135.802 -55.5547 -161.414
c-0.765625 -0.935547 -1.94336 -1.60156 -3.30762 -2.06934c-3.08105 -2.06152 -8.27539 -3.32617 -11.9033 -2.14844zM-22.9365 588.357c-4.6748 -7.24414 -5.10156 -19.2666 -4.69336 -27.6914c1.51465 -31.0996 28.3643 -69.3721 57.6719 -84.7158
c15.082 17.8613 30.0771 35.8809 42.7363 55.5703c11.4541 17.8135 25.8701 41.6299 26.8809 63.373c0.535156 11.5176 -0.321289 16.002 -11.4863 19.2852c-10.6455 3.13184 -13.1709 0.483398 -20.4541 -6.7207c-8.13574 -8.04492 -14.6377 -17.8701 -19.8154 -28.0244
c-9.99121 -19.5977 -14.832 -41.0635 -17.5918 -62.7471c-0.979492 -7.6875 -19.5625 -7.86621 -19.8438 0c-0.777344 21.8184 -2.4502 44.9287 -12.3428 64.7959c-5.35645 10.7607 -12.6279 19.9473 -21.0615 6.875z" />
    <glyph glyph-name="i" unicode="&#xed;" horiz-adv-x="209" 
d="M202.684 202.054c2.96973 14.8721 40.4307 14.4697 38.4717 -0.00195312c-8.06836 -59.623 -24.8477 -128.15 -59.75 -178.214c-32.6543 -46.8438 -93.1963 -43.874 -135.243 -10.3438c-25.7793 20.5576 -38.2646 51.3525 -46.0908 82.4326
c-8.48828 33.7129 -13.7734 67.6318 -16.7236 102.257c-5.91992 69.499 -2.2998 139.814 -2.73242 209.464c-0.265625 42.709 107.68 42.8125 109.154 0.000976562c3.75488 -108.842 -13.4004 -219.237 0.119141 -327.702
c2.39062 -19.1621 5.22559 -49.4727 21.6045 -62.8613c16.4219 -13.4248 35.4688 23.8994 41.5547 35.6865c24.1221 46.7051 39.3711 97.8945 49.6357 149.282zM30.2959 461.991c-45.6465 14.8164 -95.3818 80.4932 -72.5684 129.403
c8.00488 17.1719 26.9365 24.5264 43.4619 13.8057c11.5137 -7.46582 18.3447 -20.248 22.4756 -34.5527c4.77734 11.8867 10.9629 23.1748 19.0947 33.3926c13.5713 17.0527 35.5439 33.0986 58.3018 23.583c59.999 -25.0811 -34.6406 -135.802 -55.5547 -161.414
c-0.765625 -0.935547 -1.94336 -1.60156 -3.30762 -2.06934c-3.08105 -2.06152 -8.27539 -3.32617 -11.9033 -2.14844zM-22.9365 588.357c-4.6748 -7.24414 -5.10156 -19.2666 -4.69336 -27.6914c1.51465 -31.0996 28.3643 -69.3721 57.6719 -84.7158
c15.082 17.8613 30.0771 35.8809 42.7363 55.5703c11.4541 17.8135 25.8701 41.6299 26.8809 63.373c0.535156 11.5176 -0.321289 16.002 -11.4863 19.2852c-10.6455 3.13184 -13.1709 0.483398 -20.4541 -6.7207c-8.13574 -8.04492 -14.6377 -17.8701 -19.8154 -28.0244
c-9.99121 -19.5977 -14.832 -41.0635 -17.5918 -62.7471c-0.979492 -7.6875 -19.5625 -7.86621 -19.8438 0c-0.777344 21.8184 -2.4502 44.9287 -12.3428 64.7959c-5.35645 10.7607 -12.6279 19.9473 -21.0615 6.875z" />
    <glyph glyph-name="j" unicode="j" horiz-adv-x="184" 
d="M181.458 188.586c7.14844 12.7148 46.0186 8.84766 38.3467 -6.02832c-32.6934 -63.4209 -77.2695 -117.484 -124.558 -169.511c-0.483398 -23.1543 -1.07031 -46.2891 -1.85156 -69.3721c-2.42285 -71.5166 -6.71289 -142.586 -19.3486 -213.132
c-10.9346 -61.0381 -26.8096 -125.612 -67.0762 -174.415c-35.7031 -43.2715 -95.8848 -64.7207 -150.635 -51.0146c-56.1855 14.0635 -94.0176 64.96 -90.0527 122.799c4.04004 58.9404 36.5518 112.564 70.9941 158.719c35.5723 47.6689 76.1523 90.7461 118.457 132.436
c12.251 12.0732 24.5381 24.2373 36.7852 36.5039c-0.348633 26.3818 -0.789062 52.7197 -1.05469 78.9473c-1.27637 127.021 -8.79004 253.922 -9.50781 380.922c-0.234375 41.2139 102.589 41.2373 105.253 -0.000976562
c7.4541 -115.435 10.1299 -232.095 8.90918 -348.264c31.8613 38.1299 61.0742 78.2422 85.3389 121.411zM-24.1455 -352c14.8438 83.5938 17.4561 168.865 17.1504 253.997c-33.832 -38.0225 -67.7275 -76.5605 -97.5391 -117.803
c-14.7852 -20.4541 -27.4482 -42.0664 -41.1152 -63.2305c-16.3906 -25.3867 -32.4717 -51.5742 -39.8105 -81.2266c-13.5078 -54.5674 28.1182 -126.592 91.5195 -112.378c50.6221 11.3477 62.2266 78.0195 69.7949 120.641zM24.752 461.993
c-45.6465 14.8164 -95.3789 80.4932 -72.5693 129.403c8.00488 17.1719 26.9365 24.5264 43.4619 13.8057c11.5137 -7.46582 18.3447 -20.248 22.4756 -34.5527c4.77734 11.8906 10.9629 23.1748 19.0947 33.3926c13.5713 17.0527 35.5439 33.0986 58.3018 23.583
c59.999 -25.0811 -34.6406 -135.802 -55.5547 -161.414c-0.765625 -0.935547 -1.94336 -1.60156 -3.30762 -2.06934c-3.08496 -2.06152 -8.27441 -3.32617 -11.9023 -2.14844zM-28.4775 588.359c-4.6748 -7.24414 -5.10156 -19.2666 -4.69336 -27.6914
c1.51465 -31.0996 28.3643 -69.3721 57.6719 -84.7158c15.0859 17.8613 30.0771 35.8809 42.7363 55.5703c11.4541 17.8135 25.8701 41.6299 26.8809 63.373c0.53125 11.5176 -0.321289 16.002 -11.4863 19.2852c-10.6455 3.13184 -13.1709 0.483398 -20.4541 -6.7207
c-8.13574 -8.04492 -14.6377 -17.8701 -19.8154 -28.0244c-9.99121 -19.5977 -14.832 -41.0635 -17.5918 -62.7471c-0.979492 -7.6875 -19.5625 -7.86621 -19.8438 0c-0.777344 21.8184 -2.4541 44.9287 -12.3428 64.7959c-5.35645 10.7607 -12.6279 19.9473 -21.0615 6.875
z" />
    <glyph glyph-name="k" unicode="k" horiz-adv-x="395" 
d="M389.59 172.873c4.84863 14.0752 44.7783 10.6777 39.1963 -6.15723c-25.2197 -75.9932 -62.8535 -185.886 -158.702 -191.028c-52.2842 -2.80664 -103.985 26.6006 -133.424 68.5205c-12.8496 18.2979 -23.8682 37.8359 -32.9512 58.2627
c-0.967773 2.17676 -1.9707 4.35352 -2.97754 6.53027c0.567383 -7.19238 1.12207 -14.3848 1.64551 -21.5771c2.27148 -31.3057 2.99707 -64.709 10.332 -95.3252c8.9209 -37.2295 -72.7266 -42.6689 -83.5107 -13.123c-22.1113 60.5898 -30.5723 128.896 -37.8877 192.653
c-7.33105 63.8809 -10.1143 128.17 -11.3037 192.432c-2.41895 130.597 -1.42383 264.163 13.6738 394.01c4.80176 41.2656 105.714 41.8047 106.122 0c1.25293 -128.705 -11.0938 -257.462 -10.8125 -386.294c0.0517578 -22.583 0.420898 -45.1621 1.02344 -67.7295
c8.85742 22.0049 18.9678 43.415 30.6162 63.8574c28.7686 50.4756 82.5029 115.732 148.414 90.3105c72.1875 -27.8408 43.165 -113.484 13.4688 -161.858c-34.4941 -56.1855 -85.957 -104.136 -145.064 -133.682c6.375 -2.25586 12.6113 -5.04688 18.6533 -8.79004
c17.4131 -10.7881 31.04 -26.4053 43.0615 -42.792c21.291 -29.0146 39.7119 -66.1211 67.4102 -89.6201c13.1592 -11.165 21.8623 -11.1533 36.2461 -1.46289c17.1758 11.5732 30.4854 29.3477 41.2422 46.7891c20.3154 32.9473 32.9873 69.665 45.5283 106.074z
M104.763 232.234c28.2773 18.2656 54.5312 39.25 78.4189 63.8398c19.0547 19.6143 36.6152 39.9541 51.2451 63.1045c11.2363 17.7822 38.4268 53.668 20.7363 74.8516c-20.1768 24.1572 -56.3438 -16.6406 -68.7412 -31.2109
c-18.75 -22.04 -32.999 -47.6885 -45.1709 -73.8242c-14.5469 -31.2383 -26.5645 -63.6904 -36.4883 -96.7607z" />
    <glyph glyph-name="l" unicode="l" horiz-adv-x="273" 
d="M268.556 197.32c4.40527 13.9639 43.8701 10.8047 38.7637 -6.08887c-16.252 -53.8379 -31.6514 -110.162 -64.5273 -156.681c-35.1914 -49.8018 -93.0938 -71.0811 -151.982 -48.208c-81.9326 31.8252 -98.5889 147.55 -105.749 223.222
c-9.21777 97.4033 -7.39355 195.623 -5.60547 293.335c1.78809 97.7168 5.85156 194.997 14.9629 292.309c3.96875 42.3555 107.585 42.5137 108.291 -0.000976562c1.61719 -97.5264 -0.163086 -194.807 -2.88281 -292.309
c-2.40625 -86.2461 -5.02734 -172.373 -3.75879 -258.671c0.59082 -40.2939 1.85938 -81.0635 6.57324 -121.112c3.99609 -33.9668 4.51562 -74.998 23.5986 -104.806c31.5244 -49.2549 83.2217 31.373 96.3408 56.6367c20.1846 38.8672 32.8477 80.7754 45.9756 122.374z
" />
    <glyph glyph-name="m" unicode="m" horiz-adv-x="698" 
d="M690.604 170.475c5.79688 14.7373 47.96 10.6992 41.2754 -6.47266c-17.4297 -44.8018 -35.0654 -89.6875 -57.165 -132.443c-16.9814 -32.8525 -37.1426 -67.4053 -75.3945 -77.3965c-35.79 -9.34863 -75.8184 2.99414 -100.218 30.6602
c-28.7686 32.6143 -38.2441 77.7061 -36.5791 120.038c3.34277 84.9893 21.3945 168.777 28.1904 253.497c0.8125 10.1455 8.82129 53.1875 -0.761719 60.7998c-11.9893 9.52344 -37.5586 -30.1445 -42.2725 -37.4004c-22.0684 -33.9746 -38.2324 -72.457 -53.0566 -110.027
c-29.791 -75.498 -49.4688 -154.132 -70.7236 -232.298c-0.0517578 -2.81152 -0.0996094 -5.62695 -0.151367 -8.4375c-0.856445 -45.1191 -113.96 -44.873 -114.793 0.000976562c-1.28027 69.293 5.2334 138.355 7.81055 207.545
c1.29297 34.7197 3.09277 69.4551 3.44531 104.202c0.142578 13.9678 -0.217773 27.8525 -1.47461 41.7646c-0.638672 7.05762 0.693359 20.1533 -2.20508 26.4854c-0.325195 2.02246 -0.654297 4.04492 -0.979492 6.06738
c-3.94531 -1.57031 -7.35938 -3.95312 -10.2422 -7.15625c-22.5117 -20.9619 -34.9092 -53.8857 -45.3838 -82.0557c-11.8906 -31.9805 -21.7666 -64.6982 -30.3984 -97.6934c-15.7324 -60.1338 -27.9912 -121.347 -38.835 -182.603
c0.579102 -22.1074 -0.768555 -44.5205 -9.77637 -63.1475c-7.9375 -16.4102 -43.6367 -16.8545 -54.5752 -4.06445c-23.9834 28.0469 -30.5137 68.7695 -35.7715 104.263c-5.31641 35.8975 -8.52832 71.624 -9.79688 107.89
c-2.56152 73.1904 1.03418 147.078 13.7451 219.27c4.22656 24.0068 33.043 30.8623 54.1436 30.8623c15.8037 0 56.9111 -7.24414 54.1436 -30.8623c-7.02148 -59.9717 -12.7227 -119.924 -14.8359 -180.209c0.419922 1.64551 0.808594 3.29492 1.23633 4.93652
c14.8916 57.3584 30.8574 121.655 66.5605 170.105c14.6855 19.9229 34.5098 35.1875 60.21 35.7861c26.1045 0.606445 44.7236 -15.6611 59.9131 -35.4297c37.6816 -49.0449 43.1494 -120.463 46.4443 -179.938c0.677734 -12.291 1.15332 -24.5898 1.53809 -36.8926
c12.041 38.958 25.8584 77.3369 41.8369 114.757c21.9209 51.332 65.6289 162.228 140.473 139.125c78.2891 -24.1689 84.3232 -144.009 82.5029 -210.134c-1.18555 -43.0264 -5.18555 -85.9766 -5.62207 -129.022c-0.22168 -21.7627 -0.645508 -43.7041 -3.30957 -65.3203
c-2.05762 -16.6836 -4.3457 -34.3428 5.26855 -49.3174c0.257812 -0.404297 2.2959 -3.05273 4.27051 -5.38379l1.29785 0.474609c6.01855 6.15332 13.7021 9.97949 19.2842 17.1602c12.1875 15.6768 21.5566 34.2402 30.6562 51.7881
c19.4277 37.4629 34.6445 77.0039 50.0752 116.228zM592.61 -18.6445c0.265625 -0.19043 0.460938 -0.258789 0.536133 -0.155273z" />
    <glyph glyph-name="n" unicode="n" horiz-adv-x="456" 
d="M451.991 163.909c4.94824 13.4404 43.252 9.96973 37.5068 -5.89355c-16.9375 -46.832 -33.9541 -93.9062 -57.6045 -137.868c-17.6992 -32.8994 -38.8994 -64.8164 -77.3145 -74.1533c-32.7412 -7.95703 -71.3857 -0.336914 -99.3018 18.0518
c-37.0391 24.3994 -42.4189 70.4746 -42.459 111.804c-0.0869141 90.8252 17.6123 182.939 28.0869 272.964c2.28809 19.6416 5.31738 40.6436 3.3623 60.3721c-1.02734 10.3398 -3.23926 11.3867 -11.292 4.72168c-7.99707 -6.61719 -14.499 -15.5186 -20.1406 -24.0742
c-22.5918 -34.2559 -36.2783 -75.2285 -49.1836 -113.881c-28.9902 -86.8174 -48.8818 -176.251 -72.5117 -264.57c-0.269531 -1.01074 -0.852539 -1.88672 -1.55859 -2.69922c-1.01855 -8.55176 -2.7793 -16.8818 -5.7373 -24.7676
c-7.18066 -19.1582 -50.583 -18.4482 -61.708 -4.59961c-22.1436 27.5674 -28.8604 65.665 -33.8438 100.056c-4.75781 32.8125 -7.45801 65.6885 -8.04102 98.8301c-1.20508 68.7891 1.88379 137.732 11.209 205.899c3.32227 24.2646 34.1045 31.1074 54.5791 31.1074
c17.1436 0 55.7568 -7.05762 54.5791 -31.1084c-3.29883 -67.4092 -10.7285 -134.564 -12.0762 -202.085c-0.115234 -5.74512 -0.194336 -11.4902 -0.277344 -17.2393c12.7471 48.3311 27.3496 96.1582 43.9141 142.665c18.9561 53.2119 63.0918 172.746 141.516 127.817
c17.3623 -9.94727 33.582 -18.7217 42.4551 -37.5547c7.69922 -16.3467 10.9863 -35.1475 14.5312 -52.7314c9.14648 -45.3887 8.05664 -92.2725 7.02148 -138.327c-1.03125 -46.0586 -3.8623 -92.502 -6.53809 -138.497
c-1.18945 -20.4268 -4.43262 -41.6738 -2.82715 -62.1279c0.571289 -7.29492 0.825195 -15.5977 1.72559 -22.6748c0.53125 -4.18652 5.76074 -11.2402 2.73926 -9.60254c45.3174 -28.9707 109.36 163.488 119.189 190.167z" />
    <glyph glyph-name="o" unicode="o" horiz-adv-x="356" 
d="M392.995 206.938c2.74805 -8.61133 -7.10059 -13.5234 -14.3486 -14.3994c-20.5137 -2.47754 -42.4863 -4.28125 -65.0186 -4.85645c-0.0712891 -0.820312 -0.123047 -1.64453 -0.198242 -2.46094c-5.05078 -53.4688 -19.1738 -104.968 -51.832 -148.343
c-36.2695 -48.168 -93.7119 -77.2656 -154.556 -72.9365c-62.501 4.44824 -110.082 45.3809 -125.481 105.709c-15.4707 60.6016 -7.62793 122.595 4.96387 182.911c4.73438 22.6865 30.708 29.2559 51.3252 29.2559c8.38184 0 26.5684 -2.57715 38.9502 -9.39648
c-7.29102 9.75781 -13.7656 20.502 -19.2129 32.416c-20.0576 43.8779 -19.7959 98.3379 9.27832 138.2c28.1299 38.5615 77.5752 53.7266 122.548 37.4629c51.6934 -18.6943 82.7021 -73.0234 101.499 -121.632c17.957 -46.4277 25.6094 -97.752 24.0947 -147.8
c17.8379 0.598633 35.5488 2.08496 52.7246 4.04395c6.7168 0.765625 22.4844 0.536133 25.2637 -8.1748zM199.164 98.7275c14.3799 29.9062 24.0752 61.2891 30.5059 93.5703c-53.7666 8.0127 -104.544 27.1504 -140.397 65.2324
c0.217773 -1.56641 0.217773 -3.21191 -0.0957031 -4.96484c-9.53125 -53.291 -19.126 -108.438 -10.3799 -162.514c3.37402 -20.8584 10.9033 -43.3389 25.7715 -58.8691c4.02441 -4.20703 9.22656 -9.64648 15.0625 -11.3789
c-1.80762 0.879883 6.28809 1.54199 8.39746 2.31152c33.165 12.1045 56.5137 46.1982 71.1357 76.6123zM234.499 220.61c6.26855 44.4932 5.9248 89.4473 -1.51758 133.798c-6.98633 41.6426 -22.2939 92.1582 -66.9023 107.232
c-43.3154 14.6338 -74.8828 -35.3027 -80.5645 -71.7666c-6.32031 -40.5674 7.38965 -82.8555 34.5762 -113.273c30.8623 -34.5293 70.8154 -52.3232 113.73 -60.3203c0.217773 1.44727 0.47168 2.88281 0.677734 4.33008z" />
    <glyph glyph-name="o" unicode="&#xf6;" horiz-adv-x="356" 
d="M392.995 206.938c2.74805 -8.61133 -7.10059 -13.5234 -14.3486 -14.3994c-20.5137 -2.47754 -42.4863 -4.28125 -65.0186 -4.85645c-0.0712891 -0.820312 -0.123047 -1.64453 -0.198242 -2.46094c-5.05078 -53.4688 -19.1738 -104.968 -51.832 -148.343
c-36.2695 -48.168 -93.7119 -77.2656 -154.556 -72.9365c-62.501 4.44824 -110.082 45.3809 -125.481 105.709c-15.4707 60.6016 -7.62793 122.595 4.96387 182.911c4.73438 22.6865 30.708 29.2559 51.3252 29.2559c8.38184 0 26.5684 -2.57715 38.9502 -9.39648
c-7.29102 9.75781 -13.7656 20.502 -19.2129 32.416c-20.0576 43.8779 -19.7959 98.3379 9.27832 138.2c28.1299 38.5615 77.5752 53.7266 122.548 37.4629c51.6934 -18.6943 82.7021 -73.0234 101.499 -121.632c17.957 -46.4277 25.6094 -97.752 24.0947 -147.8
c17.8379 0.598633 35.5488 2.08496 52.7246 4.04395c6.7168 0.765625 22.4844 0.536133 25.2637 -8.1748zM199.164 98.7275c14.3799 29.9062 24.0752 61.2891 30.5059 93.5703c-53.7666 8.0127 -104.544 27.1504 -140.397 65.2324
c0.217773 -1.56641 0.217773 -3.21191 -0.0957031 -4.96484c-9.53125 -53.291 -19.126 -108.438 -10.3799 -162.514c3.37402 -20.8584 10.9033 -43.3389 25.7715 -58.8691c4.02441 -4.20703 9.22656 -9.64648 15.0625 -11.3789
c-1.80762 0.879883 6.28809 1.54199 8.39746 2.31152c33.165 12.1045 56.5137 46.1982 71.1357 76.6123zM234.499 220.61c6.26855 44.4932 5.9248 89.4473 -1.51758 133.798c-6.98633 41.6426 -22.2939 92.1582 -66.9023 107.232
c-43.3154 14.6338 -74.8828 -35.3027 -80.5645 -71.7666c-6.32031 -40.5674 7.38965 -82.8555 34.5762 -113.273c30.8623 -34.5293 70.8154 -52.3232 113.73 -60.3203c0.217773 1.44727 0.47168 2.88281 0.677734 4.33008z" />
    <glyph glyph-name="o" unicode="&#xf5;" horiz-adv-x="356" 
d="M392.995 206.938c2.74805 -8.61133 -7.10059 -13.5234 -14.3486 -14.3994c-20.5137 -2.47754 -42.4863 -4.28125 -65.0186 -4.85645c-0.0712891 -0.820312 -0.123047 -1.64453 -0.198242 -2.46094c-5.05078 -53.4688 -19.1738 -104.968 -51.832 -148.343
c-36.2695 -48.168 -93.7119 -77.2656 -154.556 -72.9365c-62.501 4.44824 -110.082 45.3809 -125.481 105.709c-15.4707 60.6016 -7.62793 122.595 4.96387 182.911c4.73438 22.6865 30.708 29.2559 51.3252 29.2559c8.38184 0 26.5684 -2.57715 38.9502 -9.39648
c-7.29102 9.75781 -13.7656 20.502 -19.2129 32.416c-20.0576 43.8779 -19.7959 98.3379 9.27832 138.2c28.1299 38.5615 77.5752 53.7266 122.548 37.4629c51.6934 -18.6943 82.7021 -73.0234 101.499 -121.632c17.957 -46.4277 25.6094 -97.752 24.0947 -147.8
c17.8379 0.598633 35.5488 2.08496 52.7246 4.04395c6.7168 0.765625 22.4844 0.536133 25.2637 -8.1748zM199.164 98.7275c14.3799 29.9062 24.0752 61.2891 30.5059 93.5703c-53.7666 8.0127 -104.544 27.1504 -140.397 65.2324
c0.217773 -1.56641 0.217773 -3.21191 -0.0957031 -4.96484c-9.53125 -53.291 -19.126 -108.438 -10.3799 -162.514c3.37402 -20.8584 10.9033 -43.3389 25.7715 -58.8691c4.02441 -4.20703 9.22656 -9.64648 15.0625 -11.3789
c-1.80762 0.879883 6.28809 1.54199 8.39746 2.31152c33.165 12.1045 56.5137 46.1982 71.1357 76.6123zM234.499 220.61c6.26855 44.4932 5.9248 89.4473 -1.51758 133.798c-6.98633 41.6426 -22.2939 92.1582 -66.9023 107.232
c-43.3154 14.6338 -74.8828 -35.3027 -80.5645 -71.7666c-6.32031 -40.5674 7.38965 -82.8555 34.5762 -113.273c30.8623 -34.5293 70.8154 -52.3232 113.73 -60.3203c0.217773 1.44727 0.47168 2.88281 0.677734 4.33008z" />
    <glyph glyph-name="o" unicode="&#xf4;" horiz-adv-x="356" 
d="M392.995 206.938c2.74805 -8.61133 -7.10059 -13.5234 -14.3486 -14.3994c-20.5137 -2.47754 -42.4863 -4.28125 -65.0186 -4.85645c-0.0712891 -0.820312 -0.123047 -1.64453 -0.198242 -2.46094c-5.05078 -53.4688 -19.1738 -104.968 -51.832 -148.343
c-36.2695 -48.168 -93.7119 -77.2656 -154.556 -72.9365c-62.501 4.44824 -110.082 45.3809 -125.481 105.709c-15.4707 60.6016 -7.62793 122.595 4.96387 182.911c4.73438 22.6865 30.708 29.2559 51.3252 29.2559c8.38184 0 26.5684 -2.57715 38.9502 -9.39648
c-7.29102 9.75781 -13.7656 20.502 -19.2129 32.416c-20.0576 43.8779 -19.7959 98.3379 9.27832 138.2c28.1299 38.5615 77.5752 53.7266 122.548 37.4629c51.6934 -18.6943 82.7021 -73.0234 101.499 -121.632c17.957 -46.4277 25.6094 -97.752 24.0947 -147.8
c17.8379 0.598633 35.5488 2.08496 52.7246 4.04395c6.7168 0.765625 22.4844 0.536133 25.2637 -8.1748zM199.164 98.7275c14.3799 29.9062 24.0752 61.2891 30.5059 93.5703c-53.7666 8.0127 -104.544 27.1504 -140.397 65.2324
c0.217773 -1.56641 0.217773 -3.21191 -0.0957031 -4.96484c-9.53125 -53.291 -19.126 -108.438 -10.3799 -162.514c3.37402 -20.8584 10.9033 -43.3389 25.7715 -58.8691c4.02441 -4.20703 9.22656 -9.64648 15.0625 -11.3789
c-1.80762 0.879883 6.28809 1.54199 8.39746 2.31152c33.165 12.1045 56.5137 46.1982 71.1357 76.6123zM234.499 220.61c6.26855 44.4932 5.9248 89.4473 -1.51758 133.798c-6.98633 41.6426 -22.2939 92.1582 -66.9023 107.232
c-43.3154 14.6338 -74.8828 -35.3027 -80.5645 -71.7666c-6.32031 -40.5674 7.38965 -82.8555 34.5762 -113.273c30.8623 -34.5293 70.8154 -52.3232 113.73 -60.3203c0.217773 1.44727 0.47168 2.88281 0.677734 4.33008z" />
    <glyph glyph-name="o" unicode="&#xf3;" horiz-adv-x="356" 
d="M392.995 206.938c2.74805 -8.61133 -7.10059 -13.5234 -14.3486 -14.3994c-20.5137 -2.47754 -42.4863 -4.28125 -65.0186 -4.85645c-0.0712891 -0.820312 -0.123047 -1.64453 -0.198242 -2.46094c-5.05078 -53.4688 -19.1738 -104.968 -51.832 -148.343
c-36.2695 -48.168 -93.7119 -77.2656 -154.556 -72.9365c-62.501 4.44824 -110.082 45.3809 -125.481 105.709c-15.4707 60.6016 -7.62793 122.595 4.96387 182.911c4.73438 22.6865 30.708 29.2559 51.3252 29.2559c8.38184 0 26.5684 -2.57715 38.9502 -9.39648
c-7.29102 9.75781 -13.7656 20.502 -19.2129 32.416c-20.0576 43.8779 -19.7959 98.3379 9.27832 138.2c28.1299 38.5615 77.5752 53.7266 122.548 37.4629c51.6934 -18.6943 82.7021 -73.0234 101.499 -121.632c17.957 -46.4277 25.6094 -97.752 24.0947 -147.8
c17.8379 0.598633 35.5488 2.08496 52.7246 4.04395c6.7168 0.765625 22.4844 0.536133 25.2637 -8.1748zM199.164 98.7275c14.3799 29.9062 24.0752 61.2891 30.5059 93.5703c-53.7666 8.0127 -104.544 27.1504 -140.397 65.2324
c0.217773 -1.56641 0.217773 -3.21191 -0.0957031 -4.96484c-9.53125 -53.291 -19.126 -108.438 -10.3799 -162.514c3.37402 -20.8584 10.9033 -43.3389 25.7715 -58.8691c4.02441 -4.20703 9.22656 -9.64648 15.0625 -11.3789
c-1.80762 0.879883 6.28809 1.54199 8.39746 2.31152c33.165 12.1045 56.5137 46.1982 71.1357 76.6123zM234.499 220.61c6.26855 44.4932 5.9248 89.4473 -1.51758 133.798c-6.98633 41.6426 -22.2939 92.1582 -66.9023 107.232
c-43.3154 14.6338 -74.8828 -35.3027 -80.5645 -71.7666c-6.32031 -40.5674 7.38965 -82.8555 34.5762 -113.273c30.8623 -34.5293 70.8154 -52.3232 113.73 -60.3203c0.217773 1.44727 0.47168 2.88281 0.677734 4.33008z" />
    </font>
</defs>
</svg>
