<?xml version="1.0" standalone="no"?>
<!DOCTYPE svg PUBLIC "-//W3C//DTD SVG 1.1//EN" "http://www.w3.org/Graphics/SVG/1.1/DTD/svg11.dtd" >
<svg xmlns="http://www.w3.org/2000/svg" xmlns:xlink="http://www.w3.org/1999/xlink" version="1.1">
<metadata>
Created by FontForge 20170812 at Thu Aug  4 08:47:16 2022
 By www-data
</metadata>
<defs>
<font id="LeatherRegular" horiz-adv-x="757" >
  <font-face 
    font-family="Leather"
    font-weight="400"
    font-stretch="normal"
    units-per-em="1000"
    panose-1="0 0 0 0 0 0 0 0 0 0"
    ascent="800"
    descent="-200"
    x-height="445.565"
    cap-height="911.752"
    bbox="-193.002 -544.269 1666.93 1262.47"
    underline-thickness="50"
    underline-position="-100"
    unicode-range="U+000A-20AC"
  />
<missing-glyph horiz-adv-x="527" 
d="M50 700h427v-700h-427v700zM78 680l185 -309l186 309h-371zM251 350l-180 300v-601zM264 329l-185 -308h370zM276 350l181 -303v605z" />
    <glyph glyph-name=".notdef" horiz-adv-x="527" 
d="M50 700h427v-700h-427v700zM78 680l185 -309l186 309h-371zM251 350l-180 300v-601zM264 329l-185 -308h370zM276 350l181 -303v605z" />
    <glyph glyph-name=".null" horiz-adv-x="0" 
 />
    <glyph glyph-name=".null" horiz-adv-x="0" 
 />
    <glyph glyph-name="LF" unicode="&#xa;" horiz-adv-x="0" 
 />
    <glyph glyph-name="controlCR" unicode="&#xd;" horiz-adv-x="0" 
 />
    <glyph glyph-name="space" unicode=" " horiz-adv-x="296" 
 />
    <glyph glyph-name="exclam" unicode="!" horiz-adv-x="234" 
d="M139.833 827.139c54.9717 -105.09 43.5225 -231.1 41.4346 -345.796c-2.23535 -122.545 -6.84961 -244.335 -16.4561 -366.542c-2.19629 -27.8877 -28.6816 -41.7705 -54.5811 -43.5811c-21.3672 -1.49316 -59.916 7.94043 -60.1113 35.5586
c-0.868164 120.922 3.13477 241.075 9.58594 361.814c6.17285 115.582 12.5625 229.784 -2.07129 345.032c-4.80957 37.915 67.8652 40.915 82.1992 13.5137zM123.161 31.8848c11.5342 1.7666 31.5205 -2.2373 39 -12.3691
c18.8887 -25.582 14.5342 -66.0498 16.1533 -96.6064c1.41504 -26.7539 -30.0967 -39.083 -51.6807 -41.2627c-19.709 -1.99219 -57.416 7.9668 -56.9209 33.6709c0.399414 20.9932 0.143555 42.1123 1.99316 63.0361c1.06836 12.0811 1.27246 23.8545 8.99512 33.9561
c10.4355 13.6445 26.5322 17.1309 42.46 19.5752z" />
    <glyph glyph-name="quotedbl" unicode="&#x22;" horiz-adv-x="289" 
d="M105.201 684.859c12.9717 -0.291016 35.8906 -7.15625 35.7344 -24.1123c-0.204102 -22.3955 -4.2627 -44.3574 -7.52734 -66.4795c-2.99121 -20.2559 -35.541 -25.4561 -50.7607 -24.0977c-18.1543 1.62402 -35.8701 14.2998 -32.1494 33.9395
c3.7334 19.7217 6.88086 39.3525 13.1797 58.4365c5.45703 16.5264 26.0078 22.665 41.5234 22.3135zM235.016 666.854c9.43359 -29.667 -1.69336 -67.041 -3.63867 -97.7627c-1.22461 -19.3047 -20.0908 -28.9199 -37.7725 -30.1572
c-13.0928 -0.916016 -43.7715 5.69141 -41.6006 24.6104c3.79395 33.0615 4.88379 77.2842 26.2598 104.451c10.7617 13.6787 49.8535 20.5508 56.752 -1.1416z" />
    <glyph glyph-name="quotedbl" unicode="&#x201d;" horiz-adv-x="289" 
d="M105.201 684.859c12.9717 -0.291016 35.8906 -7.15625 35.7344 -24.1123c-0.204102 -22.3955 -4.2627 -44.3574 -7.52734 -66.4795c-2.99121 -20.2559 -35.541 -25.4561 -50.7607 -24.0977c-18.1543 1.62402 -35.8701 14.2998 -32.1494 33.9395
c3.7334 19.7217 6.88086 39.3525 13.1797 58.4365c5.45703 16.5264 26.0078 22.665 41.5234 22.3135zM235.016 666.854c9.43359 -29.667 -1.69336 -67.041 -3.63867 -97.7627c-1.22461 -19.3047 -20.0908 -28.9199 -37.7725 -30.1572
c-13.0928 -0.916016 -43.7715 5.69141 -41.6006 24.6104c3.79395 33.0615 4.88379 77.2842 26.2598 104.451c10.7617 13.6787 49.8535 20.5508 56.752 -1.1416z" />
    <glyph glyph-name="quotedbl" unicode="&#x201c;" horiz-adv-x="289" 
d="M105.201 684.859c12.9717 -0.291016 35.8906 -7.15625 35.7344 -24.1123c-0.204102 -22.3955 -4.2627 -44.3574 -7.52734 -66.4795c-2.99121 -20.2559 -35.541 -25.4561 -50.7607 -24.0977c-18.1543 1.62402 -35.8701 14.2998 -32.1494 33.9395
c3.7334 19.7217 6.88086 39.3525 13.1797 58.4365c5.45703 16.5264 26.0078 22.665 41.5234 22.3135zM235.016 666.854c9.43359 -29.667 -1.69336 -67.041 -3.63867 -97.7627c-1.22461 -19.3047 -20.0908 -28.9199 -37.7725 -30.1572
c-13.0928 -0.916016 -43.7715 5.69141 -41.6006 24.6104c3.79395 33.0615 4.88379 77.2842 26.2598 104.451c10.7617 13.6787 49.8535 20.5508 56.752 -1.1416z" />
    <glyph glyph-name="numbersign" unicode="#" horiz-adv-x="665" 
d="M613.87 661.604c-18.958 -69.0713 -46.6992 -135.824 -66.8896 -204.652c-9.48926 -32.3496 -18.2842 -64.8945 -26.6064 -97.5527c15.1631 -1.24609 30.335 -2.89551 45.5029 -5.02246c27.6533 -3.87695 13.7402 -32.1025 -9.25879 -28.877
c-14.5078 2.03125 -29.0205 3.61133 -43.5332 4.80078c-4.61035 -18.7451 -9.08594 -37.5205 -13.4443 -56.3262c14.4902 -1.88867 28.9287 -4.43652 43.3066 -7.85742c10.9785 -2.61816 18.4238 -13.501 13.4834 -23.9287
c-5.46973 -11.5391 -21.5234 -15.0898 -33.084 -13.8438c-11.1172 1.19824 -22.2217 2.30957 -33.3262 3.32129c-14.6855 -65.5859 -28.5947 -131.575 -45.1562 -196.661c-8.62598 -33.9219 -16.3701 -68.3643 -26.7979 -101.77
c-5.66992 -18.1592 -11.708 -36.4092 -18.3584 -54.2383c-2.86914 -7.69727 -5.78223 -15.5635 -9.16406 -23.0605c-5.19238 -11.5 -11.9121 -17.6641 -19.5615 -27.3232c-10.3574 -13.0752 -49.3799 -20.416 -55.6309 1.12012
c-2.97754 10.2715 -7.42676 17.0918 -7.97852 28.1396c-0.37793 7.5752 0.625 15.6455 1.1416 23.2471c1.2373 18.1934 3.24316 36.3955 5.05371 54.5459c3.77246 37.7891 10.8184 75.4131 16.5098 112.959c9.49414 62.6729 21.3545 125.52 34.4863 187.667
c-18.8926 -0.633789 -37.7979 -2.01855 -56.7471 -4.32812c-0.230469 -1.0293 -0.477539 -2.0498 -0.708008 -3.0791c-14.7168 -66.3145 -26.9678 -133.024 -38.9277 -199.878c-12.1943 -68.1553 -20.5811 -137.622 -39.4775 -204.323
c-9.43359 -33.3047 -83.9707 -36.2783 -87.4912 2.04102c-6.26465 68.208 2.46582 137.24 10.4014 205.005c7.13281 60.9229 16.9268 121.638 27.8486 182.027c-31.8555 -4.91406 -63.6719 -10.0498 -95.4014 -15.4463
c-10.2275 -1.74121 -25.3906 -2.02344 -31.7461 8.33398c-5.58301 9.09863 -0.507812 19.4131 9.17285 23.4023c37.6328 15.5156 78.9385 20.3428 118.859 26.7461c2.44434 0.395508 4.88379 0.743164 7.32812 1.12988c3.22949 16.9219 6.57227 33.8477 10.0449 50.7607
c-28.8643 -4.90527 -57.6416 -10.2061 -86.3145 -15.5674c-8.9209 -1.6709 -23.3984 -1.46289 -27.835 8.7168c-4.0459 9.28125 5.34863 18.2412 14.0742 19.7695c35.4062 6.19922 70.9473 12.4326 106.579 18.0977c21.9443 102.003 48.8984 203.372 83.9482 301.238
c18.4805 51.6025 140.691 47.3652 123.37 -14.6475c-25.0566 -89.7227 -50.4824 -179.141 -73.5732 -269.254c18.2803 1.67969 36.5742 3.0166 54.8809 3.92383c9.06445 37.1162 18.7275 74.0898 29.2422 110.815c20.8721 72.918 43.0205 147.372 79.7207 214.095
c21.3799 38.8701 127.216 30.9736 112.057 -24.2666zM373.357 276.881c4.02441 18.2324 8.16602 36.4385 12.4424 54.6191c-18.4932 -1.02051 -36.9775 -2.49609 -55.4355 -4.34082c-4.49316 -17.9941 -8.84766 -36.0225 -13.0977 -54.0898
c18.6709 1.44141 37.3809 2.81348 56.0908 3.81152z" />
    <glyph glyph-name="dollar" unicode="$" horiz-adv-x="509" 
d="M348.599 300.691c67.6914 -59.6426 142.688 -153.991 94.832 -248.302c-24.5879 -48.4473 -80.3975 -81.4697 -138 -90.7949c0.582031 -7.79688 1.09863 -15.5938 1.50684 -23.3994c1.5625 -30.0625 -55.6191 -31.5908 -62.3223 -4.35449
c-2.30469 9.36816 -4.33203 18.7969 -6.15918 28.2695c-13.1797 2.57422 -25.8037 6.68945 -37.4209 12.5459c-82.6768 41.6787 -117.35 141.798 -84.6172 226.857c6.78906 17.6338 49.2324 14.9727 41.8525 -4.9707c-19.874 -53.708 -12.377 -114.167 25 -158.585
c13.1885 -15.6758 30.0449 -30.2227 49.1543 -38.7354c-11.1006 83.124 -7.54102 169.16 -5.10156 253.568c-55.9873 44.6094 -114.219 86.9658 -152.347 150.333c-22.5605 37.4941 -33.7393 87.7686 -16.7695 129.582c17.668 43.541 60.541 76 103.145 92.791
c22.8867 9.02051 46.6367 13.9561 69.9834 14.7812c0.395508 31.4512 0.798828 62.9023 1.19434 94.3584c0.230469 18.6143 39.6387 21.1104 39.7861 2.78223c0.264648 -33.4092 0.472656 -66.8223 0.655273 -100.231c48.5381 -9.20703 91.5459 -38.249 116.008 -88.4062
c11.4434 -23.4678 -37.2334 -31.2207 -48.2861 -12.7314c-14.7295 24.6445 -39.9336 40.9502 -67.4561 46.4287c0.351562 -73.6299 0.676758 -147.26 1.21973 -220.89c24.6621 -20.3516 50.1318 -39.7432 74.1426 -60.8975zM229.07 401.506
c0.308594 60.1943 0.87207 120.384 1.5752 180.573c-3.28613 -0.733398 -6.55957 -1.58887 -9.78027 -2.66992c-39.3867 -13.1973 -71.5586 -47.249 -57.2412 -90.4346c11.5732 -34.9023 38.4707 -62.5684 65.4463 -87.4688zM320.324 13.7178
c34.4775 25.2178 49.3496 62.1631 32.6191 103.355c-14.8896 36.6562 -43.6846 65.3594 -73.0303 91.4795c1.67969 -23.1689 3.70703 -46.3379 6.08594 -69.5498c4.67969 -45.6689 11.0479 -91.2158 15.7578 -136.889c6.4209 3.31641 12.624 7.25781 18.5674 11.6035z" />
    <glyph glyph-name="percent" unicode="%" horiz-adv-x="669" 
d="M587.319 676.594c24.4443 -8.0957 41.3564 -31.4863 25.6592 -55.4932c-80.0107 -122.324 -159.306 -243.624 -226.229 -373.862c-33.9561 -66.0723 -66.9316 -132.409 -98.0439 -199.883c-16.752 -36.3311 -34.3945 -72.584 -52.957 -108.029
c-18.5059 -35.3281 -35.458 -73.2002 -66.7314 -98.7734c-12.8672 -10.5186 -41.249 -9.46387 -45.2432 9.57617c-7.35352 35.0586 10.4795 75.5312 21.6885 108.754c12.3379 36.5605 25.6133 73.0732 40.1904 108.796c28.0996 68.8721 57.1289 137.618 90.7207 204.02
c66.9619 132.369 140.587 265.025 229.367 384.172c17.6035 23.624 55.041 29.5146 81.5781 20.7236zM257.402 391.95c-16.0752 -55.1582 -81.8203 -82.4424 -134.738 -67.8213c-71.1553 19.665 -81.4268 92.5303 -67.0928 154.934
c4.7666 20.7461 27.21 31.8164 50.8818 33.4834c28.9287 19.9824 71.376 25.2266 99.9971 9.00391c41.21 -23.3506 63.9707 -84.9248 50.9521 -129.6zM158.673 499.653c-0.754883 -0.108398 -1.51855 -0.25 -2.27832 -0.397461
c9.38086 -7.82715 14.5469 -19.0225 11.8467 -33.5654c-4.90527 -26.4111 -10.8965 -55.2275 3.52051 -79.8242c0.681641 -1.16309 2.91309 -3.78906 4.03711 -5.26953c0.772461 0.942383 4.20215 2.11914 6.38965 4.05957c4.53613 4.02441 8.2959 9.48145 10.9961 14.9209
c11.0654 22.2832 13.9482 56.8779 0.929688 78.8096c-7.69238 12.9492 -19.4658 23.5107 -35.4414 21.2666zM485.819 183.079c33.0537 4.5752 67.8047 -4.38965 89.1064 -31.8164c29.4287 -37.8896 36.1055 -86.9746 6.03418 -126.787
c-36.1875 -47.917 -108.745 -60.4414 -160.065 -29.7275c-56.9775 34.1035 -51.291 112.591 -30.1367 166.959c12.2549 31.4951 68.9023 39.8389 95.0615 21.3721zM512.808 54.8604c16.7217 15.7539 29.5635 46.6016 23.1299 69.6836
c-5.19238 18.6104 -20.6904 26.333 -37.4209 27.1143c-0.147461 -0.894531 -0.243164 -1.7666 -0.451172 -2.69141c-6.06445 -26.7373 -17.377 -68.5244 -6.15527 -95.1484c0.919922 -2.1875 2.98633 -5.74707 3.37305 -6.49805
c0.642578 -1.25 1.46289 -1.98828 2.24023 -2.43945c-1.12891 -0.0302734 -1.15039 -0.360352 0.0214844 -0.0869141c0.0302734 0.00390625 0.0605469 0.0214844 0.0908203 0.0253906c1.92773 -1.0459 3.44238 -0.208008 0.707031 0.0478516
c-0.225586 0.0214844 -0.34668 0.00390625 -0.529297 0.0078125c5.42676 1.38086 11.1221 6.33398 14.9941 9.98535z" />
    <glyph glyph-name="ampersand" unicode="&#x26;" horiz-adv-x="617" 
d="M566.33 17.0176c4.2373 -9.73242 -5.57715 -18.0137 -14.2725 -20.041c-18.7969 -4.39746 -35.9443 -13.4795 -54.5547 -18.9932c-18.7314 -5.55273 -37.7148 -9.8457 -56.7764 -14.0957c-16.3271 -3.64258 -32.7324 -6.87695 -49.1807 -9.88086
c2.66992 -45.6299 6 -91.2549 10.3066 -136.871c1.84473 -19.5264 -40.1074 -22.5127 -42.2217 -2.95117c-4.77051 44.123 -8.43848 88.3203 -11.2129 132.565c-8.55664 -1.30664 -17.1172 -2.57422 -25.6953 -3.75098
c-36.7822 -5.04395 -74.1855 -9.50684 -111.215 -12.0898c-34.3994 -2.40039 -81.9863 2.8916 -101.239 36.21c-18.1416 31.3867 8.17383 64.8174 29.293 87.0566c22.7344 23.9365 49.0977 42.0732 77.1455 59.2334c1.92773 1.18066 3.87695 2.31836 5.81738 3.47754
c-31.1738 8.26953 -61.1055 21.3145 -87.2256 39.9463c-164.459 117.327 -64.4658 342.562 75.7783 432.601c43.0811 27.6572 94.085 47.4697 144.72 48.8457c1.21094 24.1367 2.43555 48.2559 3.64648 72.3574c0.850586 16.9473 36.8076 18.9482 36.1309 2.52539
c-1.05957 -25.7734 -2.08887 -51.5469 -3.08691 -77.3154c22.9385 -3.77246 45.3779 -11.9336 66.5059 -25.5996c73.5645 -47.583 104.399 -138.59 103.24 -222.977c-0.538086 -39.1396 -82.29 -45.0869 -84.2432 -5.89062
c-3.53809 70.9512 -11.0049 159.771 -83.458 195.937c-1.37598 0.69043 -2.76465 1.29785 -4.1543 1.89648c-4.41504 -123.093 -7.49316 -246.146 -6.75488 -369.152c25.9209 1.92773 51.8242 3.6123 77.9141 1.77148c24.54 -1.72754 52.7793 -19.1094 50.2959 -46.2236
c-2.16211 -23.6113 -28.96 -39.1396 -51.8721 -42.7822c-21.2451 -6.3252 -43.0332 -10.7832 -65.0771 -13.6748c-3.26465 -1.12891 -6.48145 -2.2666 -9.6377 -3.38184c0.820312 -32.749 2.00098 -65.4893 3.50293 -98.2295
c18.4277 2.76953 36.8516 5.59082 55.2402 8.56055c15.25 2.46094 30.4307 4.67969 45.7676 6.5332c16.1104 1.94922 32.4502 0.239258 48.3516 3.22168c9.04688 1.69727 23.7246 1.48047 28.2217 -8.83789zM268.578 -7.39062
c25.7041 2.0791 51.3301 5.06836 76.873 8.61035c-1.3584 29.2812 -2.35254 58.5791 -3.02148 87.8906c-13.6787 -6.15137 -27.0967 -12.9102 -40.3154 -19.9424c-20.7676 -11.0391 -41.1055 -22.7646 -59.6338 -37.3203
c-8.7041 -6.83691 -17.0391 -14.0039 -24.085 -22.5732c-1.99219 -2.42188 -10.54 -14.5596 -13.2754 -16.999c3.46875 0.364258 16.9043 -1.27637 19.3438 -1.37598c14.7559 -0.59082 29.4199 0.520508 44.1143 1.70996zM341.357 207.275
c0.473633 126.131 5.69336 252.382 11.8232 378.287c-43.0381 -2.49219 -86.0107 -35.2891 -112.882 -65.1602c-40.1602 -44.6445 -70.1309 -104.487 -71.9502 -165.358c-0.951172 -31.916 4.6709 -65.5986 24.2793 -91.7236
c6.9502 -9.25977 18.7324 -20.0127 25.1699 -24.5713c6.35547 -4.49707 13.1406 -8.16113 19.8438 -12.0684c0.473633 -0.27832 5.26172 -2.66992 5.88672 -3.09082c2.20996 -0.898438 4.4502 -1.74512 6.67285 -2.57422c8.3916 -3.12598 16.9434 -5.75195 25.626 -7.94434
c2.0752 -0.525391 4.16309 -0.990234 6.24707 -1.47168c1.69336 -0.338867 4.09863 -0.8125 5.01074 -0.933594c9.75488 -1.28027 19.3965 -2.67383 29.2295 -3.37305c3.57715 -0.255859 7.18066 -0.50293 10.7705 -0.616211
c1.53223 0.0566406 3.8457 0.134766 7.30957 0.260742c2.32227 0.0820312 4.64062 0.229492 6.96289 0.337891z" />
    <glyph glyph-name="quotesingle" unicode="'" horiz-adv-x="188" 
d="M58.9658 670.395c3.12598 36.8125 81.3906 41.7227 79.3721 5.55273c-1.94922 -34.7939 -3.89453 -69.5879 -5.83887 -104.382c-2.19629 -39.3047 -85.5107 -42.209 -82.416 -5.76562c2.96094 34.8633 5.92188 69.7314 8.88281 104.595z" />
    <glyph glyph-name="quotesingle" unicode="&#x2019;" horiz-adv-x="188" 
d="M58.9658 670.395c3.12598 36.8125 81.3906 41.7227 79.3721 5.55273c-1.94922 -34.7939 -3.89453 -69.5879 -5.83887 -104.382c-2.19629 -39.3047 -85.5107 -42.209 -82.416 -5.76562c2.96094 34.8633 5.92188 69.7314 8.88281 104.595z" />
    <glyph glyph-name="quotesingle" unicode="&#x2018;" horiz-adv-x="188" 
d="M58.9658 670.395c3.12598 36.8125 81.3906 41.7227 79.3721 5.55273c-1.94922 -34.7939 -3.89453 -69.5879 -5.83887 -104.382c-2.19629 -39.3047 -85.5107 -42.209 -82.416 -5.76562c2.96094 34.8633 5.92188 69.7314 8.88281 104.595z" />
    <glyph glyph-name="parenleft" unicode="(" horiz-adv-x="485" 
d="M433.111 -204.002c6.61133 -15.5674 -8.80664 -25.3486 -21.2832 -29.8848c-52.3623 -19.0225 -107.746 -26.0596 -162.306 -13.0098c-55.4189 13.2539 -98.9736 47.8047 -130.247 94.6191c-25.6777 38.4404 -38.5928 84.9082 -48.4561 129.557
c-11.3906 51.5723 -17.5117 104.213 -19.7822 156.949c-4.59277 106.77 6.39062 213.67 25.7646 318.607c17.8857 96.8721 43.668 201.215 94.3291 286.683c38.7666 65.3906 133.325 169.1 209.368 92.1748c18.3369 -18.5449 -24.7832 -32.2842 -39.0088 -18.9912
c-20.125 18.8018 -66.4365 -59.1123 -72.8652 -71.2803c-19.3047 -36.5391 -31.707 -77.5674 -41.627 -117.523c-20.4209 -82.2422 -33.4922 -167.541 -41.4668 -251.863c-8.19141 -86.6182 -11.9766 -174.548 -4.72656 -261.353
c6.5293 -78.166 19.752 -161.354 55.1846 -232.185c29.5283 -59.0215 91.8193 -81.3916 155.048 -69.3193c13.3447 2.54785 35.5361 2.20898 42.0742 -13.1807z" />
    <glyph glyph-name="parenright" unicode=")" horiz-adv-x="473" 
d="M403.546 503.001c17.8809 -105.884 24.123 -212.827 16.5176 -320.001c-7.16699 -101.074 -27.5967 -205.682 -74.5977 -296.229c-24.2148 -46.6543 -57.4375 -85.6328 -107.646 -104.964c-50.3701 -19.3916 -108.319 -22.4785 -160.586 -9.14648
c-13.9307 3.55078 -25.873 15.9229 -24.5361 30.5391c1.40625 15.3721 17.8203 25.6777 31.5684 29.1201c37.5898 9.41602 79.2256 4.61914 105.768 31.3779c25.4082 25.6172 36.7207 67.8691 47.665 101.604c25.5342 78.7305 35.6357 161.19 39.7207 243.58
c4.41895 89.123 1.30176 179.275 -9.08203 267.895c-8.93359 76.2432 -17.9502 156.046 -45.3213 228.304c-16.7129 44.123 -73.3994 164.619 -135.174 110.221c-11.1309 -9.80273 -49.4277 -0.899414 -34.3896 15.332c75.6572 81.6699 201.701 15.5156 254.814 -58.3701
c56.2568 -78.2529 79.46 -175.576 95.2793 -269.262z" />
    <glyph glyph-name="asterisk" unicode="*" horiz-adv-x="304" 
d="M238.843 573.045c27.0586 -3.08203 13.2402 -30.3594 -8.99902 -28.0459c-11.3516 1.17676 -22.7207 1.99316 -34.0898 2.53613c14.1738 -10.6396 28.3262 -21.3105 42.1914 -32.3633c8.32227 -6.63281 0.491211 -16.9863 -6.18066 -20.459
c-9.38574 -4.88379 -21.2324 -3.33789 -29.25 3.20898c-9.97168 8.14355 -20.1035 16.0791 -30.2744 23.9492c0.750977 -12.3203 1.64941 -24.6406 2.79102 -36.9561c1.91406 -20.6553 -42.8428 -23.8545 -44.6572 -3.12109
c-0.868164 9.90625 -1.6709 19.8389 -2.40918 29.7842c-7.7666 -9.74609 -15.3418 -19.6523 -22.5693 -29.8496c-9.39453 -13.2539 -45.3779 -6.86816 -33.7002 10.9258c11.417 17.3994 24.002 35.1846 37.6416 52.4492
c-11.1611 -1.19824 -22.3047 -2.69141 -33.4092 -4.62305c-7.7832 -1.35449 -21.4795 -1.47559 -25.1436 7.875c-3.33789 8.51758 4.60156 16.3574 12.7148 17.8555c14.6074 2.69629 29.2324 4.88867 43.875 6.55957c-13.3574 11.0225 -26.4463 22.3828 -38.9355 34.499
c-15.793 15.3242 21.0801 27.9092 33.3867 16.2617c7.52734 -7.12402 15.2979 -13.9307 23.1641 -20.625c0.204102 9.02539 0.529297 18.042 1.1416 27.0459c1.27148 18.7012 39.9854 22.2393 41.0059 2.86523c0.438477 -8.27832 0.811523 -16.5566 1.17188 -24.835
c11.1953 9.74609 22.8379 18.7109 34.958 26.5029c13.4619 8.66016 48.1387 0.611328 29.4893 -17.4473c-14.6074 -14.1475 -30.1924 -27.0234 -45.208 -40.6113c17.0693 -0.37793 34.165 -1.42871 51.2949 -3.38184z" />
    <glyph glyph-name="plus" unicode="+" horiz-adv-x="342" 
d="M274.519 278.903c9.18555 -0.277344 20.2227 -8.1748 17.3838 -18.3506c-3.12988 -11.209 -17.8203 -13.3408 -27.4443 -13.0283c-7.17188 0.230469 -14.3389 0.369141 -21.5107 0.464844c-0.0957031 -6.31152 -0.208984 -12.6191 -0.274414 -18.9355
c-0.408203 -39.2568 6.59375 -86.0371 -6.73828 -123.744c-9.93262 -28.0918 -53.5908 -33.457 -76.29 -19.4785c-40.5762 24.9834 -42.5684 82.79 -47.4873 125.619c-1.17188 10.2061 -2.0791 20.4424 -2.80371 30.6963
c-12.4854 -1.22852 -24.957 -2.58691 -37.4072 -4.17578c-28.0781 -3.58594 -29.6494 27.666 -2.18359 31.2344c12.7021 1.64941 25.4131 3.02539 38.1279 4.27148c-0.633789 27.2617 0.412109 54.5459 3.55469 81.5996c3.82422 32.9229 32.2373 47.3828 63.2715 50.5215
c24.6182 2.4873 69.6182 -9.7373 69.6875 -41.2236c0.0654297 -28.3125 -0.447266 -56.6123 -0.955078 -84.916c10.3535 -0.0820312 20.707 -0.242188 31.0693 -0.554688z" />
    <glyph glyph-name="comma" unicode="," horiz-adv-x="230" 
d="M140.117 63.9229c16.3271 -1.97949 48.9824 -18.0449 37.9209 -40.0244c-18.4277 -36.626 -39.4521 -76.0654 -76.4561 -96.7725c-15.4678 -8.65625 -48.6553 -5.72559 -51.2598 16.2617c-1.92773 16.2617 5.20508 31.2432 10.8486 46.0596
c5.92969 15.5801 12.6406 30.6826 19.0781 46.0586c9.49414 22.6826 36.96 31.1953 59.8682 28.417z" />
    <glyph glyph-name="hyphen" unicode="-" horiz-adv-x="399" 
d="M320.4 267.795c35.2148 -4.39355 40.6387 -44.7617 3.66504 -52.4062c-40.5547 -8.38281 -80.0977 -10.3711 -121.364 -11.6035c-40.4463 -1.20703 -82.2949 -4.7793 -122.576 -0.0166016c-36.5908 4.32812 -42.1777 46.7363 -3.80273 54.416
c39.9688 7.99609 81.2354 8.50879 121.833 10.627c41.1143 2.14453 81.2695 4.09766 122.245 -1.0166z" />
    <glyph glyph-name="period" unicode="." horiz-adv-x="191" 
d="M132.023 51.6113c8.69043 -8.80859 9.13281 -18.3965 8.85449 -29.8965c-0.186523 -7.64941 -1.4668 -15.3633 -2.30469 -22.9736c-1.29395 -11.7646 -5.72656 -19.0186 -15.8721 -25.374c-9.97559 -6.24707 -20.7979 -8.61719 -32.4971 -8.35254
c-11.5645 0.260742 -25.5557 3.08203 -33.5781 12.4023c-6.26855 7.28027 -7.46191 13.8789 -6.14648 23.377c2.57422 18.5586 3.29492 39.6221 19.3096 51.9941c16.6348 12.8457 46.6191 14.6514 62.2344 -1.17676z" />
    <glyph glyph-name="slash" unicode="/" horiz-adv-x="624" 
d="M539.497 709.59c28.4258 -9.41602 43.124 -33.6592 28.1084 -60.8037c-36.8867 -66.7061 -78.0059 -130.907 -114.55 -197.839c-35.3281 -64.7129 -68.4072 -130.663 -102.111 -196.227c-35.3281 -68.7246 -70.2129 -137.675 -106.248 -206.034
c-17.3818 -32.9707 -35.541 -65.4814 -54.7637 -97.4189c-20.9463 -34.7988 -43.0078 -69.5195 -78.0322 -91.416c-15.0156 -9.38965 -63.8838 -7.27539 -61.8389 19.6182c2.62598 34.5986 23.6416 70.4385 38.0801 101.607c15.3457 33.127 30.4697 66.3369 45.9287 99.4121
c31.6602 67.7344 62.1523 136.007 93.2646 203.993c31.9814 69.8828 66.1855 138.629 102.291 206.48c36.0049 67.6611 72.8477 135.626 120.474 195.915c20.1299 25.4863 59.5996 32.584 89.3975 22.7119z" />
    <glyph glyph-name="zero" unicode="0" horiz-adv-x="506" 
d="M319.682 14.0264c-60.8623 -29.9756 -136.16 -32.7734 -189 14.4883c-40.9189 36.5996 -57.9707 93.6553 -68.3203 145.684c-11.5039 57.8457 -12.8281 117.936 -12.251 176.736c0.621094 63.5322 2.07129 133.889 22.9785 194.426
c7.59668 21.9922 31.5166 31.873 53.5039 34.0137c15.1631 19.3047 38.8398 34.9023 58.0322 42.6035c58.5879 23.5117 114.211 21.1504 164.434 -19.3389c83.5791 -67.3789 107.338 -197.508 107.056 -299.068c-0.3125 -111.602 -27.4531 -235.866 -136.433 -289.544z
M239.583 76.3936c12.3721 -6.22559 2.13477 0.459961 1.60547 0.325195c-0.711914 -0.182617 -1.23242 -0.282227 -1.60547 -0.325195zM184.745 222.042c3.94629 -40.4941 11.3301 -81.9766 31.1689 -118.021c4.20215 -7.62305 8.68262 -14.2734 14.9551 -20.3555
c0.681641 -0.660156 11.665 -8.80859 6.32129 -6.05176c0.633789 -0.330078 1.1543 -0.59082 1.70117 -0.868164c0.538086 0.694336 3.22559 2.0791 2.86133 1.6709c3.07812 3.42969 0.985352 -0.0996094 4.96582 1.4541c4.1543 1.61914 8.17383 3.60742 12.0898 5.72168
c64.249 34.7285 79.8945 134.718 85.4512 201.975c6.78906 82.1641 6.46387 171.93 -32.1377 246.948c-15.2109 29.5674 -42.9639 67.8779 -80.2236 65.833c-15.8975 -0.873047 -44.3926 -11.8691 -62.5645 -27.9316c12.4893 -5.9209 22.6084 -15.584 23.1514 -29.8398
c2.08789 -54.8887 -7.4668 -110.833 -9.98047 -165.727c-2.35254 -51.4248 -2.76074 -103.519 2.24023 -154.809z" />
    <glyph glyph-name="one" unicode="1" horiz-adv-x="338" 
d="M274.254 17c-4.84473 -28.7861 -48.2988 -39.0098 -71.6152 -38.4805c-26.667 0.603516 -56.7031 12.3545 -61.6299 41.583c-10.0059 59.3213 -3.96777 121.226 -0.916016 181.012c2.99512 58.7393 9.31543 117.939 17.6807 176.154
c7.96191 55.3887 15.9404 111.697 13.9043 167.775c-0.481445 13.293 3.16504 57.5596 -15.9053 58.3848c-22.1484 0.955078 -50.8652 -21.5059 -67.0488 -34.5635c-15.1113 -12.1982 -53.5215 1.99707 -32.6494 19.3135c42.8906 35.5889 103.805 63.1289 157.969 36.0273
c61.2441 -30.6484 69.5703 -108.52 72.5566 -169.325c3.56445 -72.5098 0.104492 -145.28 -1.37988 -217.812c-1.48926 -72.8701 1.1543 -148.067 -10.9658 -220.069z" />
    <glyph glyph-name="two" unicode="2" horiz-adv-x="394" 
d="M334.175 41.8096c5.78711 -20.3984 -15.3467 -33.8711 -31.9951 -38.9111c-40.5811 -12.2939 -84.3174 -18.0762 -125.888 -26.5762c-49.1113 -10.0371 -120.67 3.07715 -125.992 64.2344c-3.38574 38.9395 22.6006 82.0732 38.0117 116.459
c17.5771 39.2305 36.1572 77.9795 55.21 116.507c38.4404 77.7188 79.3643 158.885 96.7109 244.305c3.79004 18.667 8.52637 38.3711 4.91895 57.5459c-3.75098 19.9346 -16.8867 23.8242 -35.6143 23.7852c-40.0811 -0.0820312 -73.751 -24.1924 -80.792 -64.374
c-3.33008 -18.9971 -46.6064 -16.9961 -43.042 5.1084c11.1221 68.9238 88.5068 98.5693 150.945 89.5742c28.3818 -4.08496 56.8809 -10.7529 76.6592 -33.1318c22.2139 -25.1348 30.748 -64.4824 31.0518 -97.167c0.676758 -72.957 -23.5859 -142.229 -51.0654 -208.752
c-27.5137 -66.6143 -60.1631 -130.954 -87.0566 -197.824c-4.08496 -10.167 -7.80957 -20.2861 -11.2129 -30.5742c11.8516 0.637695 24.0107 0.55957 35.1025 1.72754c18.2109 1.91895 36.3477 3.80273 54.6807 3.59863
c18.8359 -0.212891 43.3721 -4.40625 49.3672 -25.5342zM170.388 58.7764c-1.36719 0.951172 -8.46094 -1.97559 0 0z" />
    <glyph glyph-name="three" unicode="3" horiz-adv-x="505" 
d="M338.918 7.28906c-60.1807 -30.9609 -144.947 -45.0547 -207.277 -13.3555c-58.792 29.9014 -79.9463 98.9941 -81.6309 160.616c-1.25488 45.9072 90.4551 51.4678 97.6396 6.82812c6.125 -38.0713 12.0459 -114.675 65.6631 -113.29
c41.5791 1.07617 83.5361 34.4072 100.822 72.6309c22.917 50.6738 14.0781 103.496 -21.25 146.144c-15.7666 19.0361 -34.4375 36.1787 -57.2285 46.4023c-21.1113 9.47266 -39.4912 9.55078 -56.1875 6.2168c-25.7383 -5.13574 -65.1992 -3.68555 -78.4395 24.5703
c-13.0928 27.9434 16.7744 48.499 39.665 55.71c2.1748 0.685547 3.74219 1.16699 4.92773 1.52344c0.442383 0.191406 0.994141 0.421875 1.74902 0.730469c4.94043 2.00977 9.78516 4.25 14.5479 6.64648c6.52051 3.27734 10.875 5.62598 16.2188 9.16406
c13.6836 9.06445 26.6631 19.9043 37.6465 32.0938c23.4639 26.0381 45.4082 58.6445 53.9648 93.0127c4.61035 18.5146 2.74805 42.7383 -17.7422 50.5957c-19.6953 7.55371 -45.7812 -0.621094 -64.6309 -7.28027c-40.4678 -14.2949 -76.6592 -45.5771 -72.3916 -92.0918
c1.89746 -20.6641 -42.4512 -23.8115 -44.6562 -3.12207c-6.51562 61.1182 43.5205 103.782 95.9004 123.152c51.6504 19.0967 121.977 25.3525 160.591 -23.0508c35.8711 -44.9697 19.8174 -110.959 -6.33789 -156.284
c-8.47852 -14.6816 -18.6367 -28.3779 -30.0537 -41.002c33.5137 -12.3291 64.5957 -31.4385 90.1992 -55.5625c46.2461 -43.5762 79.8467 -106.892 73.1484 -171.644c-7.28906 -70.4609 -52.7012 -127.382 -114.857 -159.354z" />
    <glyph glyph-name="four" unicode="4" horiz-adv-x="415" 
d="M355.897 -3.21582c-13.0752 -39.543 -86.9111 -43.1631 -105.908 -7.40137c-13.2061 24.8701 -17.2695 54.1514 -20.5166 81.8438c-3.16504 27.0234 -6.46875 54.0342 -8.56543 81.166c-2.3916 30.9648 -4.56641 61.9473 -6.63281 92.9385
c-31.5205 -9.87207 -64.9902 -13.0928 -97.1104 -3.41602c-37.5068 11.291 -66.2627 38.9697 -67.1094 79.6152c-1.06348 51.0771 12.9414 106.022 25.1621 155.26c6.25098 25.1875 13.1318 50.2227 20.499 75.1055c7.5625 25.5518 13.8965 53.2266 25.7344 77.1377
c7.74902 15.6455 44.9521 17.5205 41.2578 -4.89746c-6.66797 -40.4463 -22.9121 -80.7188 -32.9014 -120.627c-10.3926 -41.5137 -21.4707 -84.3691 -23.6416 -127.255c-1.64941 -32.6104 -7.01953 -76.6162 28.3818 -93.2598
c23.624 -11.1094 51.668 -1.46777 76.8164 7.87012c-0.325195 5.23535 -0.694336 10.4668 -1.00684 15.7021c-6.33789 106.322 -16.4531 215.245 2.58301 320.722c4.58398 25.3955 42.1611 34.0908 62.8809 33.7871c24.3838 -0.360352 48.6162 -11.1006 54.1123 -36.5137
c22.001 -101.751 17.5732 -208.799 22.0186 -312.396c2.27051 -52.9092 5.24023 -105.775 8.24414 -158.646c2.82617 -49.7363 11.582 -108.715 -4.29785 -156.736z" />
    <glyph glyph-name="five" unicode="5" horiz-adv-x="508" 
d="M347.678 9.80273c-64.6221 -37.3203 -159.668 -41.4346 -215.824 13.333c-26.0078 25.3691 -41.5879 60.749 -51.4727 95.1172c-11.0137 38.2969 -18.8496 81.3828 -8.86035 120.644c7.37109 28.9639 70.7471 30.2012 74.25 -1.72754
c4.75391 -43.2979 3.35156 -83.6572 19.5137 -125.232c10.8184 -27.8311 28.0869 -64.3096 60.4541 -71.1768c61.1406 -12.9717 99.6855 66.4922 109.214 114.157c13.6309 68.1816 -7.18066 148.636 -51.3516 202.062c-20.1211 24.3359 -45.1865 46.9355 -76.0342 56.1348
c-13.0664 3.89844 -26.168 5.41797 -35.1328 4.1543c-25.5557 -3.59863 -47.4092 -12.1719 -74.0547 -7.95703c-20.1299 3.18652 -58.1406 20.6592 -46.0508 48.6113c14.5859 33.7266 30.8779 67.2266 50.3867 98.4131c16.4355 26.2725 34.1348 62.8467 63.1504 76.9639
c29.4414 14.3252 61.8174 3.67188 92.3486 -0.37793c33.0576 -4.38477 68.2773 -1.16406 99.9111 -12.5205c13.5615 -4.87109 15.3633 -19.3359 1.81055 -25.8828c-26.5283 -12.8105 -54.6592 -12.3984 -83.5234 -11.8555
c-15.4199 0.291016 -30.8174 0.916016 -46.1895 2.20508c-5.00098 0.416992 -9.97559 0.963867 -14.9463 1.56738c-1.54102 -7.17578 -2.71777 -14.4902 -4.56738 -21.332c-3.4209 -12.6504 -6.8291 -25.3613 -10.5195 -37.9336
c-2.46191 -8.38281 -5.14062 -16.709 -7.91504 -25.0049c24.4189 -0.629883 48.6074 -4.37598 71.9883 -11.7734c43.9102 -13.8877 84.2656 -41.1279 114.923 -75.3359c103.271 -115.222 116.294 -319.896 -31.5078 -405.252z" />
    <glyph glyph-name="six" unicode="6" horiz-adv-x="402" 
d="M106.014 25.4697c-33.2656 29.0244 -47.0537 73.5488 -53.1055 116.014c-12.9883 91.2021 19.7695 189.063 53.6211 272.365c17.7852 43.7715 40.6807 87.5518 67.7783 126.305c26.0117 37.1992 53.5869 70.8213 96.4033 88.6631
c15.1377 6.30762 53.2051 1.21582 39.0137 -23.0771c-34.8682 -59.6904 -54.5332 -130.455 -77.8672 -195.233c-18.5801 -51.5898 -36.5781 -105.715 -45.6816 -160.404c68.2207 7.35352 143.04 -29.1904 161.686 -98.4395
c19.5303 -72.5312 -38.7012 -149.36 -110.16 -162.54c-47.1484 -8.69531 -95.6172 4.875 -131.688 36.3477zM253.024 205.758c-22.3086 11.0869 -48.1113 7.6416 -72.0869 1.02148c-2.20117 -29.3027 -1.99316 -59.9902 2.5127 -88.707
c3.51172 -22.4092 13.5918 -51.6465 32.0889 -66.2852c17.0645 -13.501 45.9541 -0.15625 60.1406 11.916c21.502 18.2979 32.9014 47.2012 28.2871 75.3447c-4.62305 28.1865 -25.6426 54.1338 -50.9424 66.71z" />
    <glyph glyph-name="seven" unicode="7" horiz-adv-x="414" 
d="M335.549 295.257c-14.9814 -1.60156 -29.8887 -1.86816 -44.8047 -1.62109c-5.16992 -23.0127 -10.6182 -45.9863 -16.1055 -68.9766c-8.62988 -36.1572 -17.251 -72.3271 -24.8525 -108.723c-7.60156 -36.4004 -11.9336 -73.8857 -23.2852 -109.331
c-8.89062 -27.7617 -43.8408 -38.0244 -69.6748 -37.4385c-21.8701 0.495117 -60.0977 11.999 -59.959 40.459c0.317383 65.7285 25.4873 132.69 44.4229 194.994c9.37695 30.8613 18.7275 61.7051 27.9043 92.6006c-11.3047 0.369141 -22.6045 0.829102 -33.8701 1.62793
c-11.3262 0.802734 -25.1611 9.0293 -23.7158 21.7969c1.52344 13.4443 17.2773 19.5137 28.9893 20.5645c14 1.25488 28.0693 1.89746 42.1562 2.20117c4.44141 15.3193 8.82129 30.6562 13.123 46.0283c8.99023 32.1025 17.2256 64.5352 25.2393 96.8936
c6.35547 25.6738 18.4365 56.8477 14.4258 83.6582c-4.69727 31.3906 -45.4951 30.54 -70.7471 30.9785c-31.0781 0.538086 -62.3037 -1.21582 -93.291 -3.40332c-27.3096 -1.93164 -29.25 28.2129 -2.12695 30.3926c66.502 5.34863 138.513 12.6025 200.591 -17.043
c60.8232 -29.0508 52.6094 -117.514 46.293 -173.636c-3.6377 -32.3154 -9.05957 -64.2354 -15.3887 -95.9824c15.6885 -1.1416 31.3164 -3.03906 47.0918 -6.48633c9.6543 -2.10938 18.4277 -12.3066 15.3936 -22.3691
c-3.4248 -11.3691 -17.4072 -16.0703 -27.8086 -17.1855z" />
    <glyph glyph-name="eight" unicode="8" horiz-adv-x="469" 
d="M417.442 105.333c-17.2686 -113.052 -163.465 -156.902 -248.759 -90.2188c-40.5898 31.7295 -59.3564 80.2373 -55.4932 131.033c3.47266 45.6602 13.1533 89.8965 32.7012 130.707c-37.1553 25.873 -72.4658 57.7236 -87.1992 100.961
c-18.6064 54.6064 -5.93457 109.088 24.6221 156.714c30.0449 46.8271 79.5078 86.8613 134.067 100.197c54.6592 13.3574 112.001 -2.18848 143.066 -50.4961c28.1436 -43.7588 32.6797 -103.102 32.6494 -153.667c-0.0390625 -58.7959 -5.5957 -123.452 -22.1094 -180.438
c34.6641 -40.0029 54.5898 -91.5186 46.4541 -144.793zM179.865 476.198c-6.39844 -47.501 21.541 -84.3389 53.1924 -114.341c21.6836 -20.5557 46.4453 -37.1514 70.7295 -54.3594c2.32227 14.4209 4.70508 28.8379 6.4502 43.333
c4.26758 35.4844 6.3125 71.459 4.17676 107.169c-1.62793 27.2012 -11.0869 139.836 -62.3906 121.078c-37.8545 -13.8438 -67.0576 -65.0039 -72.1582 -102.88zM284.729 44.3975c45.9766 23.5156 38.7617 83.2559 13.375 119.608
c-28.4258 40.707 -75.3232 64.5488 -116.998 89.9707c-6.85449 -18.4717 -12.0156 -37.6641 -15.1191 -56.7695c-5.34375 -32.8926 3.61621 -64.5088 18.3584 -93.876c16.752 -33.374 58.7354 -80.2402 100.384 -58.9336z" />
    <glyph glyph-name="nine" unicode="9" horiz-adv-x="529" 
d="M169.696 303.158c-65.2734 -13.4443 -126.546 31.1338 -119.075 99.4541c5.76953 52.6797 31.8857 101.001 68.1641 138.934c37.2725 38.9697 88.6318 71.502 143.538 76.1553c37.6074 3.18652 85.9023 -19.166 95.5527 -58.4102
c42.2607 -6.68555 81.6826 -52.3369 95.8955 -87.8945c20.8418 -52.1455 24.1543 -112.639 24.7617 -168.161c0.607422 -55.6318 -7.40234 -113.607 -22.3096 -167.216c-14.4648 -52.0195 -40.3506 -109.583 -83.4062 -144.125
c-51.3203 -41.1709 -132.391 -45.625 -187.362 -8.69043c-43.5283 29.2461 -70.417 81.8477 -73.8467 133.754c-2.3877 36.1396 65.0342 46.0596 83.627 21.7627c17.9805 -23.5029 31.4814 -50.5439 53.96 -70.3955c6.79395 -6.00391 15.8281 -11.0654 21.25 -13.375
c1.67578 1.53223 3.46875 3.16406 4.57129 4.1709c-0.660156 -0.117188 9.33789 12.5547 8.20508 10.9619c7.20215 10.123 13.4102 20.9365 18.6279 32.2021c12.8281 27.6924 22.7646 56.9775 30.3662 86.5098c13.6055 52.8447 21.3975 108.359 24.5488 162.806
c1.68457 29.042 3.18262 59.165 0.0175781 88.1289c-1.45898 13.3232 -3.78613 27.2412 -7.61523 40.0908c-0.464844 1.55859 -3.00879 6.5293 -5.91309 12.1289c-1.07617 -1.63184 -2.16602 -3.25977 -3.22949 -4.89648
c-6.25586 -9.61133 -12.4463 -19.3525 -18.1377 -29.3154c-11.2432 -19.6787 -21.1582 -40.0605 -33.2393 -59.2744c-27.8135 -44.2363 -66.0195 -84.4043 -118.951 -95.3047zM178.997 368.916c0.138672 -0.182617 0.238281 -0.226562 0.268555 -0.0527344
c-0.0820312 0.0478516 -0.181641 0.0263672 -0.268555 0.0527344zM172.746 403.314c-0.520508 -7.16309 -0.198242 -16.5391 1.71191 -23.5107c-0.0429688 0.15625 -0.0166016 0.117188 0.0439453 -0.0302734c7.30176 5.23535 14.126 11.5996 20.3643 17.7207
c16.0186 15.7236 29.4717 34.1211 42.4902 52.3359c14.873 20.8154 28.1484 42.6465 42.8037 63.5967c10.5361 15.0596 21.7539 30.0928 37.5684 38.9316c-13.6221 51.2773 -88.2324 -28.3086 -102.957 -48.2607c-14.2607 -19.3184 -25.2217 -40.998 -32.9922 -63.7061
c-4.01074 -11.7295 -8.13477 -24.6787 -9.0332 -37.0771z" />
    <glyph glyph-name="colon" unicode=":" horiz-adv-x="202" 
d="M92.9238 442.1c-17.8467 1.59766 -39.7373 15.3623 -33.9941 35.8867c4.49707 16.0879 5.69922 34.959 12.623 50.083c6.4209 14.0352 20.2822 20.1689 35.0547 21.6621c12.5674 1.27148 32.2285 -3.54688 37.7285 -16.5703
c8.59082 -20.3428 4.88379 -44.3887 2.26172 -65.582c-1.12402 -9.08203 -12.0205 -16.002 -19.3223 -19.9395c-10.293 -5.55273 -22.8906 -6.56445 -34.3516 -5.54004zM150.528 130.245c4.5752 -21.6143 0.0683594 -43.999 -4.8418 -65.2354
c-5.33496 -23.0732 -39.0479 -29.2549 -58.0449 -27.5527c-19.7256 1.7627 -42.4033 16.5186 -36.7646 38.8105c4.71875 18.6455 7.20605 37.7812 13.5137 55.9834c11.7432 33.8779 78.3711 34.6719 86.1377 -2.00586z" />
    <glyph glyph-name="semicolon" unicode=";" horiz-adv-x="314" 
d="M249.377 456.803c-13.0801 -42.2002 -107.712 -38.835 -98.3789 11.6826c4.24512 22.9902 9.82324 45.7637 12.4668 69.0322c2.81348 24.7832 24.3154 35.6709 47.623 38.0234c17.1865 1.73633 54.2471 -7.42383 52.4541 -31.0264
c-2.23535 -29.4238 -5.4043 -59.4473 -14.165 -87.7119zM173.061 156.606c8.04004 29.7979 80.1768 33.6465 80.2725 -1.86816c0.134766 -50.8955 -10.8008 -99.6895 -30.9697 -146.408c-20.998 -48.6426 -47.3877 -98.0137 -85.3203 -135.304
c-21.3887 -21.0244 -99.0381 -15.5156 -85.459 27.5742c14.1387 44.8789 46.0674 84.8174 68.2812 126.128c22.1221 41.1367 41.0059 84.6953 53.1953 129.878z" />
    <glyph glyph-name="less" unicode="&#x3c;" horiz-adv-x="407" 
d="M338.468 186.941c18.5059 -9.03418 24.4941 -32.3623 12.7119 -48.832c-14.2432 -19.917 -42.8516 -25.2783 -65.5117 -23.4375c-26.3721 2.14453 -52.3887 12.5811 -77.3809 20.8555c-21.8965 7.25391 -43.5674 15.1328 -64.9688 23.7451
c-33.9609 13.666 -103.918 33.791 -91.958 83.6963c5.37402 22.418 25.4863 39.0918 41.7002 54.1729c16.5566 15.3936 34.2637 29.6494 51.9014 43.7754c37.9844 30.418 77.7314 67.5254 123.756 85.0029c14.5215 5.51367 29.6543 7.43262 44.2275 0.942383
c9.46387 -4.21094 21.5146 -15.8584 16.2363 -27.7881c-15.3936 -34.7764 -47.9131 -60.2373 -75.4619 -85.2852c-25.4561 -23.1426 -53.1309 -44.8008 -76.6289 -69.958c-0.104492 -0.108398 -0.195312 -0.225586 -0.294922 -0.333984
c15.8281 -7.04102 32.2852 -13.04 48.5293 -18.957c37.0039 -13.4834 77.9102 -20.3945 113.143 -37.5986z" />
    <glyph glyph-name="equal" unicode="=" horiz-adv-x="396" 
d="M322.345 423.259c14.2002 -4.32422 27.458 -17.4883 22.9131 -33.2852c-4.91895 -17.0693 -26.082 -23.7109 -41.3887 -25.5771c-36.0879 -4.39746 -73.2568 0.885742 -109.462 2.375c-34.1387 1.40625 -69.25 -0.594727 -102.945 5.4873
c-12.6025 2.2793 -29.2158 8.7002 -30.2705 23.8076c-1.0293 14.6943 14.4072 24.4619 26.6582 27.7871c37.1338 10.0674 76.6641 9.95898 114.896 9.9502c39.917 -0.0175781 81.0664 1.18945 119.599 -10.5449zM320.587 299.652
c35.623 -11.5166 13.3584 -46.2539 -14.9414 -47.6035c-38.7441 -1.84082 -76.2734 3.45508 -114.831 6.41602c-36.2529 2.78223 -72.4668 1.33203 -108.754 0.584961c-33.6133 -0.69043 -45.9199 30.7266 -11.6514 43.1943
c40.5283 14.7422 83.8789 16.0098 126.543 14.8896c42.0869 -1.10254 83.4189 -4.47949 123.635 -17.4814z" />
    <glyph glyph-name="greater" unicode="&#x3e;" horiz-adv-x="414" 
d="M357.384 293.846c28.4473 -51.7725 -44.2188 -87.4277 -79.1816 -110.141c-43.2549 -28.1133 -87.1396 -60.8535 -133.659 -83.2402c-24.5059 -11.7949 -58.2236 -11.7559 -80.2422 5.3916c-19.8086 15.4326 -18.6064 40.75 0.916016 56.1523
c33.9434 26.7891 75.1143 47.7871 112.4 69.8057c17.043 10.0674 34.1602 20.0264 51.1904 30.1191c1.31055 0.777344 8.62988 5.36133 14.2559 9.12109c-0.958984 1.15918 -1.92676 2.31348 -2.9082 3.45996c-19.3701 23.8193 -46.8926 39.0781 -72.9043 54.4541
c-33.292 19.6826 -64.5918 41.7656 -95.6182 64.8516c-15.0547 11.2002 -18.9355 28.0225 -2.87305 41.1025c16.5703 13.4883 41.1973 13.3799 59.5693 4.16406c43.6631 -21.9014 88.3242 -41.7314 131.744 -64.1318c36.6133 -18.8887 76.8379 -43.8457 97.3105 -81.1094z
" />
    <glyph glyph-name="question" unicode="?" horiz-adv-x="527" 
d="M439.05 613.257c54.668 -86.6094 41.208 -210.034 12.166 -303.013c-15.8193 -50.6523 -39.4043 -98.5693 -55.9482 -148.996c-16.5527 -50.4609 -24.4014 -99.5547 -19.3916 -152.611c2.9043 -30.7393 -36.3398 -46.7363 -60.667 -48.4385
c-28.8164 -2.01465 -59.7686 9.41504 -66.8145 39.5205c-22.96 98.1182 27.3799 195.979 63.7412 284.144c32.2324 78.1484 59.6943 163.339 53.1826 249.102c-2.65723 35.0195 -13.5576 72.0537 -41.085 95.752c-25.0049 21.5322 -58.1406 24.1973 -88.498 13.2578
c-68.9893 -24.8662 -118.891 -102.876 -115.617 -175.407c3.07812 -68.2295 59.9727 -148.263 136.198 -128.259c23.6895 6.2168 42.3691 -20.6855 13.9482 -28.8818c-103.653 -29.8838 -207.271 38.4238 -219.14 145.589c-10.1152 91.3066 49.2969 181.823 128.878 222.756
c90.4385 46.5146 203.954 22.7598 259.047 -64.5137zM364.645 -74.626c1.85352 -22.6738 2.97461 -45.4502 5.4707 -68.0762c2.49219 -22.5352 -26.624 -33.2754 -43.8584 -35.0166c-17.7119 -1.78809 -47.375 6.75488 -48.3037 28.5732
c-1.10742 25.9902 -0.0175781 50.8037 4.61426 76.4297c3.20801 17.7334 29.585 24.0322 44.1143 23.7021c15.1416 -0.338867 36.4873 -7.54492 37.9629 -25.6123z" />
    <glyph glyph-name="at" unicode="@" horiz-adv-x="807" 
d="M756.069 397.977c4.10254 -84.5479 -10.0664 -173.668 -51.502 -248.175c-18.4932 -33.2402 -47.001 -63.8496 -85.1074 -72.6318c-50.1484 -11.5605 -111.181 8.84668 -140.001 52.0059c-24.4316 36.5781 -31.3906 79.4463 -32.8057 122.454
c-11.4131 -24.8223 -24.4756 -48.8594 -39.9434 -71.624c-17.8467 -26.2725 -42.3525 -54.4678 -72.7842 -66.1016c-36.8691 -14.0957 -79.8027 -4.68848 -108.767 21.8447c-58.8398 53.9033 -47.2275 162.236 -26.9199 230.839
c21.1025 71.2764 72.9531 139.909 150.233 152.693c33.1709 5.49121 69.0547 8.64258 97.7451 -12.5635c21.4365 -15.8447 32.7021 -37.5117 40.6592 -61.3877c25.2822 12.5156 65.9189 9.78027 73.8066 -14.8076c14.751 -45.9814 18.6533 -95.3486 20.6982 -143.466
c0.990234 -23.2598 3.23047 -46.3115 7.18945 -69.2539c3.3125 -19.2178 4.83594 -38.501 12.9189 -56.4561c4.87988 -10.835 7.12891 -30.8604 20.1348 -36.3779c-3.83301 2.15723 8.53906 4.20605 12.7197 7.09766c7.37598 5.10059 13.2627 13.2188 18.5811 20.373
c25.4863 34.2822 38.5576 76.2393 46.5928 117.753c25.3564 130.989 5.76074 325.089 -152.643 359.427c-134.384 29.1328 -272.544 -60.8408 -346.074 -167.459c-73.499 -106.574 -106.691 -269.77 -25.1133 -381.527c37.7334 -51.6943 97.0371 -86.2803 159.181 -99.4512
c76.7295 -16.2578 155.243 -0.994141 229.493 19.7959c12.7979 3.58105 31.7773 1.51855 39.8389 -10.459c7.53223 -11.1875 0.22168 -24.5234 -11.5078 -29.3682c-98.8301 -40.7979 -210.913 -53.9863 -314.605 -23.3379
c-88.5635 26.1729 -169.156 86.9961 -204.433 174.152c-63.1719 156.085 7.64453 335.034 124.299 445.221c119.979 113.325 316.52 171.027 456.959 60.8633c67.7471 -53.1436 97.084 -136.215 101.156 -220.072zM386.007 221.244
c34.7334 57.4629 56.1523 121.862 75.9219 185.72c-7.41895 0.998047 -13.7227 4.25 -15.5332 10.2363c-4.97461 16.4482 -10.7305 33.6221 -21.9824 47.0059c-4.64062 5.51758 -10.7354 12.0645 -18.2627 13.2803c-3.61133 0.582031 -13.748 -3.93262 -9.99316 -0.884766
c-16.4307 -13.3232 -28.3213 -37.7549 -36.665 -55.3193c-28.4434 -59.8594 -44.2324 -123.014 -46.3984 -189.168c-0.499023 -15.2461 0.338867 -30.6875 2.05762 -45.8555c0.816406 -7.18066 4.99707 -26.9111 8.96875 -29.0684
c19.6133 -10.6572 54.3682 51.6162 61.8867 64.0537z" />
    <glyph glyph-name="A" unicode="A" horiz-adv-x="1044" 
d="M322.69 153.536c-2.03613 -0.360352 -4.08301 -0.736328 -6.11914 -1.11426c-7.11035 -119.642 -1.59668 -239.644 22.123 -357.83c3.97168 -19.791 -39.4004 -22.9512 -44.0498 -3.07715c-26.9756 115.326 -32.7627 233.834 -26.0342 351.934
c-56.8555 -10.6924 -115.213 -20.625 -171.925 -16.6094c-58.1494 4.11523 -119.615 32.2373 -141.79 89.5967c-7.17578 18.5674 31.0352 25.8516 37.2773 9.82812c32.2676 -82.8203 131.488 -76.2041 203.703 -65.625c24.9219 3.65137 49.7881 7.66699 74.6152 11.8779
c5.66504 76.5771 16.3096 152.854 29.585 227.855c27.9219 157.756 71.9707 324.194 177.689 449.171c47.3613 55.9873 114.153 101.712 190.683 95.5693c77.0029 -6.18164 133.828 -66.0068 172.251 -128.033c90.5684 -146.2 109.104 -328.302 117.986 -496.129
c1.25488 -23.75 2.23145 -47.5264 2.98633 -71.3154c41.9053 -5.78223 82.7422 -16.748 121.353 -36.0225c9.12109 -4.5498 8.00586 -14.6602 1.44238 -20.5986c-7.84863 -7.10254 -20.9893 -6.53809 -29.8535 -2.08887c-29.2373 14.6729 -60.2676 23.6934 -92.1182 29.0029
c1.48438 -60.8535 1.69238 -121.768 1.54883 -182.573c-0.230469 -97.2754 -0.217773 -196.248 -14.3262 -292.646c-4.38477 -29.9492 -50.7607 -40.585 -74.5283 -40.0469c-24.0537 0.542969 -63.4844 12.7891 -64.1357 43.2764
c-2.14062 100.115 8.45996 201.076 12.8145 301.104c2.56152 58.874 4.36719 117.805 5.62598 176.739c-9.83301 -0.381836 -19.6221 -0.850586 -29.333 -1.37598c-161.056 -8.7168 -319.055 -42.8428 -477.471 -70.8691zM332.26 306.159
c-5.94727 -41.623 -10.6113 -83.4121 -13.793 -125.256c112.795 20.2295 225.091 43.4287 338.754 58.4707c57.2549 7.5752 115.035 13.4053 172.863 15.2549c0.529297 29.502 0.958984 59 1.18945 88.498c1.20703 154.713 -8.57324 315.847 -73.0908 458.8
c-24.5488 54.3945 -74.4062 125.806 -143.994 103.176c-68.7412 -22.3564 -116.649 -93.3252 -151.227 -152.721c-78.3311 -134.562 -108.94 -293.897 -130.702 -446.223z" />
    <glyph glyph-name="A" unicode="&#xc5;" horiz-adv-x="1044" 
d="M322.69 153.536c-2.03613 -0.360352 -4.08301 -0.736328 -6.11914 -1.11426c-7.11035 -119.642 -1.59668 -239.644 22.123 -357.83c3.97168 -19.791 -39.4004 -22.9512 -44.0498 -3.07715c-26.9756 115.326 -32.7627 233.834 -26.0342 351.934
c-56.8555 -10.6924 -115.213 -20.625 -171.925 -16.6094c-58.1494 4.11523 -119.615 32.2373 -141.79 89.5967c-7.17578 18.5674 31.0352 25.8516 37.2773 9.82812c32.2676 -82.8203 131.488 -76.2041 203.703 -65.625c24.9219 3.65137 49.7881 7.66699 74.6152 11.8779
c5.66504 76.5771 16.3096 152.854 29.585 227.855c27.9219 157.756 71.9707 324.194 177.689 449.171c47.3613 55.9873 114.153 101.712 190.683 95.5693c77.0029 -6.18164 133.828 -66.0068 172.251 -128.033c90.5684 -146.2 109.104 -328.302 117.986 -496.129
c1.25488 -23.75 2.23145 -47.5264 2.98633 -71.3154c41.9053 -5.78223 82.7422 -16.748 121.353 -36.0225c9.12109 -4.5498 8.00586 -14.6602 1.44238 -20.5986c-7.84863 -7.10254 -20.9893 -6.53809 -29.8535 -2.08887c-29.2373 14.6729 -60.2676 23.6934 -92.1182 29.0029
c1.48438 -60.8535 1.69238 -121.768 1.54883 -182.573c-0.230469 -97.2754 -0.217773 -196.248 -14.3262 -292.646c-4.38477 -29.9492 -50.7607 -40.585 -74.5283 -40.0469c-24.0537 0.542969 -63.4844 12.7891 -64.1357 43.2764
c-2.14062 100.115 8.45996 201.076 12.8145 301.104c2.56152 58.874 4.36719 117.805 5.62598 176.739c-9.83301 -0.381836 -19.6221 -0.850586 -29.333 -1.37598c-161.056 -8.7168 -319.055 -42.8428 -477.471 -70.8691zM332.26 306.159
c-5.94727 -41.623 -10.6113 -83.4121 -13.793 -125.256c112.795 20.2295 225.091 43.4287 338.754 58.4707c57.2549 7.5752 115.035 13.4053 172.863 15.2549c0.529297 29.502 0.958984 59 1.18945 88.498c1.20703 154.713 -8.57324 315.847 -73.0908 458.8
c-24.5488 54.3945 -74.4062 125.806 -143.994 103.176c-68.7412 -22.3564 -116.649 -93.3252 -151.227 -152.721c-78.3311 -134.562 -108.94 -293.897 -130.702 -446.223z" />
    <glyph glyph-name="A" unicode="&#xc4;" horiz-adv-x="1044" 
d="M322.69 153.536c-2.03613 -0.360352 -4.08301 -0.736328 -6.11914 -1.11426c-7.11035 -119.642 -1.59668 -239.644 22.123 -357.83c3.97168 -19.791 -39.4004 -22.9512 -44.0498 -3.07715c-26.9756 115.326 -32.7627 233.834 -26.0342 351.934
c-56.8555 -10.6924 -115.213 -20.625 -171.925 -16.6094c-58.1494 4.11523 -119.615 32.2373 -141.79 89.5967c-7.17578 18.5674 31.0352 25.8516 37.2773 9.82812c32.2676 -82.8203 131.488 -76.2041 203.703 -65.625c24.9219 3.65137 49.7881 7.66699 74.6152 11.8779
c5.66504 76.5771 16.3096 152.854 29.585 227.855c27.9219 157.756 71.9707 324.194 177.689 449.171c47.3613 55.9873 114.153 101.712 190.683 95.5693c77.0029 -6.18164 133.828 -66.0068 172.251 -128.033c90.5684 -146.2 109.104 -328.302 117.986 -496.129
c1.25488 -23.75 2.23145 -47.5264 2.98633 -71.3154c41.9053 -5.78223 82.7422 -16.748 121.353 -36.0225c9.12109 -4.5498 8.00586 -14.6602 1.44238 -20.5986c-7.84863 -7.10254 -20.9893 -6.53809 -29.8535 -2.08887c-29.2373 14.6729 -60.2676 23.6934 -92.1182 29.0029
c1.48438 -60.8535 1.69238 -121.768 1.54883 -182.573c-0.230469 -97.2754 -0.217773 -196.248 -14.3262 -292.646c-4.38477 -29.9492 -50.7607 -40.585 -74.5283 -40.0469c-24.0537 0.542969 -63.4844 12.7891 -64.1357 43.2764
c-2.14062 100.115 8.45996 201.076 12.8145 301.104c2.56152 58.874 4.36719 117.805 5.62598 176.739c-9.83301 -0.381836 -19.6221 -0.850586 -29.333 -1.37598c-161.056 -8.7168 -319.055 -42.8428 -477.471 -70.8691zM332.26 306.159
c-5.94727 -41.623 -10.6113 -83.4121 -13.793 -125.256c112.795 20.2295 225.091 43.4287 338.754 58.4707c57.2549 7.5752 115.035 13.4053 172.863 15.2549c0.529297 29.502 0.958984 59 1.18945 88.498c1.20703 154.713 -8.57324 315.847 -73.0908 458.8
c-24.5488 54.3945 -74.4062 125.806 -143.994 103.176c-68.7412 -22.3564 -116.649 -93.3252 -151.227 -152.721c-78.3311 -134.562 -108.94 -293.897 -130.702 -446.223z" />
    <glyph glyph-name="A" unicode="&#xc3;" horiz-adv-x="1044" 
d="M322.69 153.536c-2.03613 -0.360352 -4.08301 -0.736328 -6.11914 -1.11426c-7.11035 -119.642 -1.59668 -239.644 22.123 -357.83c3.97168 -19.791 -39.4004 -22.9512 -44.0498 -3.07715c-26.9756 115.326 -32.7627 233.834 -26.0342 351.934
c-56.8555 -10.6924 -115.213 -20.625 -171.925 -16.6094c-58.1494 4.11523 -119.615 32.2373 -141.79 89.5967c-7.17578 18.5674 31.0352 25.8516 37.2773 9.82812c32.2676 -82.8203 131.488 -76.2041 203.703 -65.625c24.9219 3.65137 49.7881 7.66699 74.6152 11.8779
c5.66504 76.5771 16.3096 152.854 29.585 227.855c27.9219 157.756 71.9707 324.194 177.689 449.171c47.3613 55.9873 114.153 101.712 190.683 95.5693c77.0029 -6.18164 133.828 -66.0068 172.251 -128.033c90.5684 -146.2 109.104 -328.302 117.986 -496.129
c1.25488 -23.75 2.23145 -47.5264 2.98633 -71.3154c41.9053 -5.78223 82.7422 -16.748 121.353 -36.0225c9.12109 -4.5498 8.00586 -14.6602 1.44238 -20.5986c-7.84863 -7.10254 -20.9893 -6.53809 -29.8535 -2.08887c-29.2373 14.6729 -60.2676 23.6934 -92.1182 29.0029
c1.48438 -60.8535 1.69238 -121.768 1.54883 -182.573c-0.230469 -97.2754 -0.217773 -196.248 -14.3262 -292.646c-4.38477 -29.9492 -50.7607 -40.585 -74.5283 -40.0469c-24.0537 0.542969 -63.4844 12.7891 -64.1357 43.2764
c-2.14062 100.115 8.45996 201.076 12.8145 301.104c2.56152 58.874 4.36719 117.805 5.62598 176.739c-9.83301 -0.381836 -19.6221 -0.850586 -29.333 -1.37598c-161.056 -8.7168 -319.055 -42.8428 -477.471 -70.8691zM332.26 306.159
c-5.94727 -41.623 -10.6113 -83.4121 -13.793 -125.256c112.795 20.2295 225.091 43.4287 338.754 58.4707c57.2549 7.5752 115.035 13.4053 172.863 15.2549c0.529297 29.502 0.958984 59 1.18945 88.498c1.20703 154.713 -8.57324 315.847 -73.0908 458.8
c-24.5488 54.3945 -74.4062 125.806 -143.994 103.176c-68.7412 -22.3564 -116.649 -93.3252 -151.227 -152.721c-78.3311 -134.562 -108.94 -293.897 -130.702 -446.223z" />
    <glyph glyph-name="A" unicode="&#xc2;" horiz-adv-x="1044" 
d="M322.69 153.536c-2.03613 -0.360352 -4.08301 -0.736328 -6.11914 -1.11426c-7.11035 -119.642 -1.59668 -239.644 22.123 -357.83c3.97168 -19.791 -39.4004 -22.9512 -44.0498 -3.07715c-26.9756 115.326 -32.7627 233.834 -26.0342 351.934
c-56.8555 -10.6924 -115.213 -20.625 -171.925 -16.6094c-58.1494 4.11523 -119.615 32.2373 -141.79 89.5967c-7.17578 18.5674 31.0352 25.8516 37.2773 9.82812c32.2676 -82.8203 131.488 -76.2041 203.703 -65.625c24.9219 3.65137 49.7881 7.66699 74.6152 11.8779
c5.66504 76.5771 16.3096 152.854 29.585 227.855c27.9219 157.756 71.9707 324.194 177.689 449.171c47.3613 55.9873 114.153 101.712 190.683 95.5693c77.0029 -6.18164 133.828 -66.0068 172.251 -128.033c90.5684 -146.2 109.104 -328.302 117.986 -496.129
c1.25488 -23.75 2.23145 -47.5264 2.98633 -71.3154c41.9053 -5.78223 82.7422 -16.748 121.353 -36.0225c9.12109 -4.5498 8.00586 -14.6602 1.44238 -20.5986c-7.84863 -7.10254 -20.9893 -6.53809 -29.8535 -2.08887c-29.2373 14.6729 -60.2676 23.6934 -92.1182 29.0029
c1.48438 -60.8535 1.69238 -121.768 1.54883 -182.573c-0.230469 -97.2754 -0.217773 -196.248 -14.3262 -292.646c-4.38477 -29.9492 -50.7607 -40.585 -74.5283 -40.0469c-24.0537 0.542969 -63.4844 12.7891 -64.1357 43.2764
c-2.14062 100.115 8.45996 201.076 12.8145 301.104c2.56152 58.874 4.36719 117.805 5.62598 176.739c-9.83301 -0.381836 -19.6221 -0.850586 -29.333 -1.37598c-161.056 -8.7168 -319.055 -42.8428 -477.471 -70.8691zM332.26 306.159
c-5.94727 -41.623 -10.6113 -83.4121 -13.793 -125.256c112.795 20.2295 225.091 43.4287 338.754 58.4707c57.2549 7.5752 115.035 13.4053 172.863 15.2549c0.529297 29.502 0.958984 59 1.18945 88.498c1.20703 154.713 -8.57324 315.847 -73.0908 458.8
c-24.5488 54.3945 -74.4062 125.806 -143.994 103.176c-68.7412 -22.3564 -116.649 -93.3252 -151.227 -152.721c-78.3311 -134.562 -108.94 -293.897 -130.702 -446.223z" />
    <glyph glyph-name="A" unicode="&#xc1;" horiz-adv-x="1044" 
d="M322.69 153.536c-2.03613 -0.360352 -4.08301 -0.736328 -6.11914 -1.11426c-7.11035 -119.642 -1.59668 -239.644 22.123 -357.83c3.97168 -19.791 -39.4004 -22.9512 -44.0498 -3.07715c-26.9756 115.326 -32.7627 233.834 -26.0342 351.934
c-56.8555 -10.6924 -115.213 -20.625 -171.925 -16.6094c-58.1494 4.11523 -119.615 32.2373 -141.79 89.5967c-7.17578 18.5674 31.0352 25.8516 37.2773 9.82812c32.2676 -82.8203 131.488 -76.2041 203.703 -65.625c24.9219 3.65137 49.7881 7.66699 74.6152 11.8779
c5.66504 76.5771 16.3096 152.854 29.585 227.855c27.9219 157.756 71.9707 324.194 177.689 449.171c47.3613 55.9873 114.153 101.712 190.683 95.5693c77.0029 -6.18164 133.828 -66.0068 172.251 -128.033c90.5684 -146.2 109.104 -328.302 117.986 -496.129
c1.25488 -23.75 2.23145 -47.5264 2.98633 -71.3154c41.9053 -5.78223 82.7422 -16.748 121.353 -36.0225c9.12109 -4.5498 8.00586 -14.6602 1.44238 -20.5986c-7.84863 -7.10254 -20.9893 -6.53809 -29.8535 -2.08887c-29.2373 14.6729 -60.2676 23.6934 -92.1182 29.0029
c1.48438 -60.8535 1.69238 -121.768 1.54883 -182.573c-0.230469 -97.2754 -0.217773 -196.248 -14.3262 -292.646c-4.38477 -29.9492 -50.7607 -40.585 -74.5283 -40.0469c-24.0537 0.542969 -63.4844 12.7891 -64.1357 43.2764
c-2.14062 100.115 8.45996 201.076 12.8145 301.104c2.56152 58.874 4.36719 117.805 5.62598 176.739c-9.83301 -0.381836 -19.6221 -0.850586 -29.333 -1.37598c-161.056 -8.7168 -319.055 -42.8428 -477.471 -70.8691zM332.26 306.159
c-5.94727 -41.623 -10.6113 -83.4121 -13.793 -125.256c112.795 20.2295 225.091 43.4287 338.754 58.4707c57.2549 7.5752 115.035 13.4053 172.863 15.2549c0.529297 29.502 0.958984 59 1.18945 88.498c1.20703 154.713 -8.57324 315.847 -73.0908 458.8
c-24.5488 54.3945 -74.4062 125.806 -143.994 103.176c-68.7412 -22.3564 -116.649 -93.3252 -151.227 -152.721c-78.3311 -134.562 -108.94 -293.897 -130.702 -446.223z" />
    <glyph glyph-name="B" unicode="B" horiz-adv-x="993" 
d="M582.523 618.001c-17.208 -21.2324 -35.8037 -41.3545 -55.6855 -59.917c61.2666 -5.3916 121.204 -20.6113 176.735 -49.8223c86.0674 -45.2783 141.312 -123.258 161.382 -213.796c58.6699 -5.21777 116.993 -19.583 165.601 -50.1484
c29.1943 -18.3545 -19.4736 -44.084 -41.1318 -25.7295c-32.4365 27.4834 -77.2764 37.9326 -118.864 43.4375c2.04883 -16.2705 3.04297 -32.8408 2.89062 -49.6279c-1.87988 -205.786 -146.035 -385.209 -326.808 -470.872
c-104.104 -49.3281 -229.498 -79.5811 -344.702 -59.4473c-91.4678 15.9844 -183.061 70.0137 -204.735 166.451c-21.8877 97.3975 55.9355 183.564 128.02 236.969c14.8203 10.9746 30.0449 21.3018 45.5732 31.126c-1.47168 12.5635 -2.74805 25.001 -4.10645 37.043
c-6.44629 57.0332 -11.6943 114.314 -14.1035 171.669c-4.875 116.09 -7.6748 233.018 -0.529297 349.056c1.89258 30.709 32.0068 46.0117 60.085 47.9736c23.9893 1.67578 65.3164 -8.73438 66.1758 -39.1484c1.41113 -50.1484 0.920898 -100.314 0.00488281 -150.489
c6.28125 3.70312 13.0449 6.35156 19.5264 7.60156c11.1309 2.14844 21.875 5.03516 32.8018 7.99609c6.14258 1.66309 11.2695 3.7168 22.3135 8.77441c18.9316 8.66895 33.6523 17.2686 48.9893 28.0391c34.3906 24.1455 65.0342 52.9707 92.3965 84.7871
c45.4473 52.8447 116.099 130.945 67.2783 203.407c-49.7793 73.8857 -158.724 52.2803 -230.608 30.332c-74.6631 -22.7949 -143.848 -62.251 -202.553 -113.576c-58.0273 -50.7344 -128.731 -126.448 -128.632 -208.235
c0.0214844 -20.1035 -42.7129 -22.6689 -42.834 -2.99512c-0.347656 56.0479 28.2217 104.89 61.4268 148.127c31.1826 40.6064 68.0908 77.25 108.78 108.311c71.0557 54.2471 154.526 93.3389 242.243 111.177c90.417 18.3887 204.059 10.3965 261.687 -72.8145
c57.6113 -83.1885 7.2627 -186.698 -48.6162 -255.657zM538.154 -153.352c126.921 92.3525 220.722 249.709 199.207 411.815c-0.225586 1.68848 -0.568359 3.33398 -0.824219 5.00977c-6.60742 -0.542969 -13.2188 -1.1377 -19.8262 -1.78418
c-114.271 -11.2129 -227.418 -39.4951 -335.242 -78.6299c-34.5244 -12.5332 -69.0576 -26.6377 -102.653 -42.7871c1.47168 -44.6396 3.33008 -89.3789 14.0049 -132.89c4.64062 -18.9053 -23.0205 -30.5049 -36.5215 -32.8965
c-18.875 -3.34668 -39.8164 1.6582 -50.4258 18.6016c-16.3096 26.0508 -24.7529 56.625 -30.0879 87.8418c-17.1348 -11.8682 -33.6787 -24.5098 -49.3936 -38.1064c-63.6279 -55.0625 -118.17 -144.828 -66.8018 -226.241
c51.1729 -81.1006 150.646 -89.6309 236.864 -73.2393c86.6396 16.4746 170.328 51.373 241.7 103.306zM605.274 443.035c-83.3232 37.9541 -174.226 28.2998 -265.814 11.1133c-18.6406 -3.49414 -43.7627 -4.13184 -62.6035 5.0752
c-0.820312 -40.3291 -1.48926 -80.6582 -1.25098 -120.979c0.325195 -54.7158 0.316406 -109.427 2.11816 -164.116c45.834 20.9629 93.2305 38.6699 141.13 54.1064c100.944 32.5283 205.479 55.9922 311.289 64.9961c-18.9922 67.8389 -65.2383 122.642 -124.868 149.804z
" />
    <glyph glyph-name="C" unicode="C" horiz-adv-x="649" 
d="M-28.4453 324.967c5.9043 237.017 63.0566 504.621 274.521 643.806c82.9414 54.5898 209.125 81.4922 273.66 -13.9863c29.75 -44.0146 40.6631 -101.109 46.124 -153.077c6.02148 -57.2812 2.64844 -115.596 -9.22461 -171.939
c-20.4551 -97.0586 -69.9043 -218.54 -175.202 -247.921c-45.0479 -12.5674 -101.122 -10.9043 -138.638 19.6094c-42.2344 34.3516 -54.3545 90.4297 -53.2041 142.211c0.664062 29.9277 56.8643 32.8232 62.9287 4.40234
c9.88867 -46.3281 12.0898 -103.652 58.1318 -129.781c43.4502 -24.6533 92.9258 5.40039 121.929 38.6963c35.293 40.5156 56.1689 93.5557 70.4385 144.707c15.7666 56.5127 21.8789 115.313 18.2676 173.871c-4.91016 79.5684 -27.875 220.182 -136.78 206.677
c-91.8623 -11.3955 -137.153 -107.399 -170.319 -181.681c-82.3252 -184.385 -108.06 -394.234 -98.9775 -594.642c4.42773 -97.7227 15.8145 -201.241 55.8916 -291.523c32.1377 -72.4014 85.3906 -134.462 171.684 -123.856
c93.8896 11.5391 164.038 95.8438 208.387 172.994c47.3662 82.4033 74.3809 174.93 100.197 265.815c4.80078 16.9131 44.1572 14.7334 38.874 -4.61523c-32.042 -117.375 -67.2656 -239.096 -142.749 -336.918c-69.2188 -89.7002 -187.188 -166.052 -304.941 -147.046
c-110.677 17.8594 -187.962 111.827 -223.164 213.132c-41.5879 119.685 -50.9688 245.217 -47.834 371.065z" />
    <glyph glyph-name="D" unicode="D" horiz-adv-x="1003" 
d="M-29.0967 587.73c19.8125 136.367 101.448 257.026 219.379 327.622c118.625 71.0166 272.257 87.7471 404.07 46.5498c137.157 -42.8643 245.768 -154.34 286.227 -292.036c37.4551 -127.473 23.459 -274.337 -17.5605 -399.418
c-11.1523 -34.0039 -25.0703 -67.7432 -41.4492 -100.605c65.7549 -0.699219 131.723 7.29688 192.355 34.1377c9.05957 4.01074 24.1143 5.04785 31.3594 -3.43945c6.77246 -7.93164 2.35352 -17.9639 -6.62402 -21.9355
c-30.6748 -13.5791 -62.5469 -23.7637 -95.5303 -29.9717c-45.3428 -8.53418 -91.793 -11.5947 -138.573 -10.9697c-77.4326 -138.421 -199.947 -256.3 -351.23 -301.617c-137.062 -41.0586 -306.066 -20.3779 -400.446 96.8369
c-40.6846 50.5264 -71.6406 109.388 -67.9072 176.306c3.65039 65.4385 43.1152 119.494 103.092 145.22c45.9033 19.6914 94.2637 22.7129 142.415 17.4033c-6.04297 49.8965 -9.27246 100.549 -10.21 150.646c-2.24414 120.219 4.34961 241.306 21.2148 360.335
c3.6123 25.5127 43.125 34.2559 63.2031 33.9609c19.2139 -0.282227 55.2803 -11.0527 54.3906 -36.7002c-3.98926 -115.018 -15.1592 -229.532 -15.5234 -344.711c-0.186523 -58.3096 0.612305 -116.285 4.3418 -174.495
c0.294922 -4.5498 0.546875 -9.14258 0.785156 -13.7568c64.1094 -16.2402 127.854 -33.1055 193.145 -45.0996c43.9795 -8.08301 88.3418 -15.1982 132.868 -20.7725c0.395508 0.685547 0.798828 1.36719 1.18945 2.05273c2.47461 4.3457 4.95312 8.68262 7.37109 13.0586
c0.898438 1.62793 4.87012 9.15137 5.54297 10.3369c22.6084 44.5488 40.5156 91.5156 53.6436 139.706c30.123 110.59 47.3877 241.565 9.38086 352.121c-40.8369 118.786 -129.752 212.272 -253.435 242.899c-123.908 30.6826 -259.512 -16.7783 -352.299 -100.788
c-97.4541 -88.2373 -147.62 -221.501 -139.051 -351.887c1.21582 -18.5107 -38.4355 -21.2197 -39.7852 -2.7832c-2.49219 34.0557 -1.25977 67.999 3.65039 101.795zM624.576 104.432c11.0615 14.7861 21.5225 30.0176 31.4248 45.6113
c-47.6523 6.68066 -94.7793 15.3154 -140.548 24.0674c-55.6055 10.6318 -110.325 24.1631 -165.045 38.1152c1.8584 -34.8809 4.90137 -70.1738 15.5547 -102.598c14.4258 -43.8975 -63.7793 -53.1748 -83.0498 -21.8975
c-28.3516 46.0293 -40.1465 98.1621 -47.9912 151.023c-46.2803 6.70703 -93.4375 5.33496 -135.386 -17.9336c-57.3418 -31.8076 -74.1807 -98.752 -55.3359 -159.071c18.0938 -57.9189 63.1367 -103.627 117.427 -128.879
c55.6094 -25.8691 109.713 -34.5947 164.845 -28.9033c47.9131 4.94922 108.771 29.2598 151.771 58.4238c31.9502 21.6709 60.793 46.9844 88.3242 73.9424c0.191406 0.186523 0.491211 0.451172 0.825195 0.742188
c-0.152344 -0.165039 -0.291016 -0.317383 -0.425781 -0.464844c0.165039 0.186523 0.347656 0.364258 0.516602 0.546875c1.64062 1.41992 4.42285 3.72949 4.63574 4.75c0.0175781 0.0742188 -0.112305 -0.0126953 -0.320312 -0.204102
c0.720703 0.742188 1.43262 1.49707 2.14062 2.25195c5.2959 5.65625 10.4961 11.3994 15.6016 17.2256c12.2285 13.957 23.9189 28.3916 35.0361 43.251zM566.947 36.5908c-1.18945 -1.29785 -1.68457 -1.8584 0 0z" />
    <glyph glyph-name="E" unicode="E" horiz-adv-x="700" 
d="M46.2773 807.729c66.5967 82.0215 163.124 144.376 269.347 156.531c50.8516 5.82129 109.248 -1.90137 148.344 -37.8154c32.2715 -29.6455 43.7666 -77.7275 35.9834 -119.897c-19.0449 -103.176 -152.312 -128.983 -233.287 -85.2725
c-17.4902 9.4375 -13.2451 28.3867 1.05859 37.6719c16.2354 10.5449 39.2607 9.35156 53.8818 -3.29883c29.9404 -25.9033 72.7393 -23.8496 102.146 1.74609c30.7354 26.75 39.1572 74.8145 23.4688 111.779c-35.3623 83.3369 -139.302 55.1846 -201.597 23.2031
c-67.7607 -34.7852 -119.398 -95.4482 -143.969 -167.411c-23.5508 -68.9756 -23.6592 -159.601 33.6699 -212.323c7.23633 -6.65918 12.8447 -10.21 23.5195 -16.3789c3.04785 -1.75781 6.14746 -3.44238 9.27734 -5.05762
c1.04199 -0.451172 5.24902 -2.43066 5.86133 -2.65625c5.25684 -1.93652 10.5137 -3.78613 15.875 -5.40527c1.81445 -0.546875 8.75977 -2.34863 9.61914 -2.70508c7.38867 -1.31543 14.8643 -2.00098 22.3047 -2.98633
c7.55762 -0.294922 8.88574 -0.507812 3.97168 -0.642578c2.76562 0.0175781 5.52637 0.0390625 8.29199 0.0566406c6.91113 0.134766 13.8096 0.542969 20.7031 1.00781c11.9209 0.802734 23.9238 1.83594 35.7275 3.77637
c1.51953 0.317383 3.79395 0.791016 7.18457 1.50293c5.47461 1.14648 10.9316 2.32324 16.3887 3.53027c13.7393 3.03418 27.501 5.91699 41.249 8.90332c25.7129 5.58301 58.7275 4.30273 78.2188 -16.1738c15.7324 -16.5312 13.5361 -44.8525 -6.65039 -57.542
c-102.919 -64.6914 -192.459 -152.664 -260.723 -253.078c-30.917 -45.4775 -58.9385 -93.6855 -79.6934 -144.707c-20.5508 -50.5215 -37.8027 -106.239 -23.1953 -160.859c26.6807 -99.7588 130.707 -154.148 227.874 -123.443
c102.642 32.4326 193.263 113.256 261.062 194.53c67.7432 81.209 118.282 175.081 148.926 276.269c5.73438 18.9404 50.0742 16.2754 43.6367 -5.17871c-37.5156 -125.028 -105.298 -239.816 -196.448 -333.237c-82.6719 -84.7344 -185.812 -158.963 -305.298 -177.147
c-114.939 -17.4951 -234.021 48.7676 -267.169 163.199c-36.0742 124.533 34.4434 255.514 100.085 357.747c37.9805 59.1562 82.0518 113.107 131.137 162.275c-90.3037 4.67969 -176.128 38.9658 -219.587 123.093c-51.4424 99.585 -7.24512 225.052 58.8047 306.396z" />
    <glyph glyph-name="E" unicode="&#xcb;" horiz-adv-x="700" 
d="M46.2773 807.729c66.5967 82.0215 163.124 144.376 269.347 156.531c50.8516 5.82129 109.248 -1.90137 148.344 -37.8154c32.2715 -29.6455 43.7666 -77.7275 35.9834 -119.897c-19.0449 -103.176 -152.312 -128.983 -233.287 -85.2725
c-17.4902 9.4375 -13.2451 28.3867 1.05859 37.6719c16.2354 10.5449 39.2607 9.35156 53.8818 -3.29883c29.9404 -25.9033 72.7393 -23.8496 102.146 1.74609c30.7354 26.75 39.1572 74.8145 23.4688 111.779c-35.3623 83.3369 -139.302 55.1846 -201.597 23.2031
c-67.7607 -34.7852 -119.398 -95.4482 -143.969 -167.411c-23.5508 -68.9756 -23.6592 -159.601 33.6699 -212.323c7.23633 -6.65918 12.8447 -10.21 23.5195 -16.3789c3.04785 -1.75781 6.14746 -3.44238 9.27734 -5.05762
c1.04199 -0.451172 5.24902 -2.43066 5.86133 -2.65625c5.25684 -1.93652 10.5137 -3.78613 15.875 -5.40527c1.81445 -0.546875 8.75977 -2.34863 9.61914 -2.70508c7.38867 -1.31543 14.8643 -2.00098 22.3047 -2.98633
c7.55762 -0.294922 8.88574 -0.507812 3.97168 -0.642578c2.76562 0.0175781 5.52637 0.0390625 8.29199 0.0566406c6.91113 0.134766 13.8096 0.542969 20.7031 1.00781c11.9209 0.802734 23.9238 1.83594 35.7275 3.77637
c1.51953 0.317383 3.79395 0.791016 7.18457 1.50293c5.47461 1.14648 10.9316 2.32324 16.3887 3.53027c13.7393 3.03418 27.501 5.91699 41.249 8.90332c25.7129 5.58301 58.7275 4.30273 78.2188 -16.1738c15.7324 -16.5312 13.5361 -44.8525 -6.65039 -57.542
c-102.919 -64.6914 -192.459 -152.664 -260.723 -253.078c-30.917 -45.4775 -58.9385 -93.6855 -79.6934 -144.707c-20.5508 -50.5215 -37.8027 -106.239 -23.1953 -160.859c26.6807 -99.7588 130.707 -154.148 227.874 -123.443
c102.642 32.4326 193.263 113.256 261.062 194.53c67.7432 81.209 118.282 175.081 148.926 276.269c5.73438 18.9404 50.0742 16.2754 43.6367 -5.17871c-37.5156 -125.028 -105.298 -239.816 -196.448 -333.237c-82.6719 -84.7344 -185.812 -158.963 -305.298 -177.147
c-114.939 -17.4951 -234.021 48.7676 -267.169 163.199c-36.0742 124.533 34.4434 255.514 100.085 357.747c37.9805 59.1562 82.0518 113.107 131.137 162.275c-90.3037 4.67969 -176.128 38.9658 -219.587 123.093c-51.4424 99.585 -7.24512 225.052 58.8047 306.396z" />
    <glyph glyph-name="E" unicode="&#xca;" horiz-adv-x="700" 
d="M46.2773 807.729c66.5967 82.0215 163.124 144.376 269.347 156.531c50.8516 5.82129 109.248 -1.90137 148.344 -37.8154c32.2715 -29.6455 43.7666 -77.7275 35.9834 -119.897c-19.0449 -103.176 -152.312 -128.983 -233.287 -85.2725
c-17.4902 9.4375 -13.2451 28.3867 1.05859 37.6719c16.2354 10.5449 39.2607 9.35156 53.8818 -3.29883c29.9404 -25.9033 72.7393 -23.8496 102.146 1.74609c30.7354 26.75 39.1572 74.8145 23.4688 111.779c-35.3623 83.3369 -139.302 55.1846 -201.597 23.2031
c-67.7607 -34.7852 -119.398 -95.4482 -143.969 -167.411c-23.5508 -68.9756 -23.6592 -159.601 33.6699 -212.323c7.23633 -6.65918 12.8447 -10.21 23.5195 -16.3789c3.04785 -1.75781 6.14746 -3.44238 9.27734 -5.05762
c1.04199 -0.451172 5.24902 -2.43066 5.86133 -2.65625c5.25684 -1.93652 10.5137 -3.78613 15.875 -5.40527c1.81445 -0.546875 8.75977 -2.34863 9.61914 -2.70508c7.38867 -1.31543 14.8643 -2.00098 22.3047 -2.98633
c7.55762 -0.294922 8.88574 -0.507812 3.97168 -0.642578c2.76562 0.0175781 5.52637 0.0390625 8.29199 0.0566406c6.91113 0.134766 13.8096 0.542969 20.7031 1.00781c11.9209 0.802734 23.9238 1.83594 35.7275 3.77637
c1.51953 0.317383 3.79395 0.791016 7.18457 1.50293c5.47461 1.14648 10.9316 2.32324 16.3887 3.53027c13.7393 3.03418 27.501 5.91699 41.249 8.90332c25.7129 5.58301 58.7275 4.30273 78.2188 -16.1738c15.7324 -16.5312 13.5361 -44.8525 -6.65039 -57.542
c-102.919 -64.6914 -192.459 -152.664 -260.723 -253.078c-30.917 -45.4775 -58.9385 -93.6855 -79.6934 -144.707c-20.5508 -50.5215 -37.8027 -106.239 -23.1953 -160.859c26.6807 -99.7588 130.707 -154.148 227.874 -123.443
c102.642 32.4326 193.263 113.256 261.062 194.53c67.7432 81.209 118.282 175.081 148.926 276.269c5.73438 18.9404 50.0742 16.2754 43.6367 -5.17871c-37.5156 -125.028 -105.298 -239.816 -196.448 -333.237c-82.6719 -84.7344 -185.812 -158.963 -305.298 -177.147
c-114.939 -17.4951 -234.021 48.7676 -267.169 163.199c-36.0742 124.533 34.4434 255.514 100.085 357.747c37.9805 59.1562 82.0518 113.107 131.137 162.275c-90.3037 4.67969 -176.128 38.9658 -219.587 123.093c-51.4424 99.585 -7.24512 225.052 58.8047 306.396z" />
    <glyph glyph-name="E" unicode="&#xc9;" horiz-adv-x="700" 
d="M46.2773 807.729c66.5967 82.0215 163.124 144.376 269.347 156.531c50.8516 5.82129 109.248 -1.90137 148.344 -37.8154c32.2715 -29.6455 43.7666 -77.7275 35.9834 -119.897c-19.0449 -103.176 -152.312 -128.983 -233.287 -85.2725
c-17.4902 9.4375 -13.2451 28.3867 1.05859 37.6719c16.2354 10.5449 39.2607 9.35156 53.8818 -3.29883c29.9404 -25.9033 72.7393 -23.8496 102.146 1.74609c30.7354 26.75 39.1572 74.8145 23.4688 111.779c-35.3623 83.3369 -139.302 55.1846 -201.597 23.2031
c-67.7607 -34.7852 -119.398 -95.4482 -143.969 -167.411c-23.5508 -68.9756 -23.6592 -159.601 33.6699 -212.323c7.23633 -6.65918 12.8447 -10.21 23.5195 -16.3789c3.04785 -1.75781 6.14746 -3.44238 9.27734 -5.05762
c1.04199 -0.451172 5.24902 -2.43066 5.86133 -2.65625c5.25684 -1.93652 10.5137 -3.78613 15.875 -5.40527c1.81445 -0.546875 8.75977 -2.34863 9.61914 -2.70508c7.38867 -1.31543 14.8643 -2.00098 22.3047 -2.98633
c7.55762 -0.294922 8.88574 -0.507812 3.97168 -0.642578c2.76562 0.0175781 5.52637 0.0390625 8.29199 0.0566406c6.91113 0.134766 13.8096 0.542969 20.7031 1.00781c11.9209 0.802734 23.9238 1.83594 35.7275 3.77637
c1.51953 0.317383 3.79395 0.791016 7.18457 1.50293c5.47461 1.14648 10.9316 2.32324 16.3887 3.53027c13.7393 3.03418 27.501 5.91699 41.249 8.90332c25.7129 5.58301 58.7275 4.30273 78.2188 -16.1738c15.7324 -16.5312 13.5361 -44.8525 -6.65039 -57.542
c-102.919 -64.6914 -192.459 -152.664 -260.723 -253.078c-30.917 -45.4775 -58.9385 -93.6855 -79.6934 -144.707c-20.5508 -50.5215 -37.8027 -106.239 -23.1953 -160.859c26.6807 -99.7588 130.707 -154.148 227.874 -123.443
c102.642 32.4326 193.263 113.256 261.062 194.53c67.7432 81.209 118.282 175.081 148.926 276.269c5.73438 18.9404 50.0742 16.2754 43.6367 -5.17871c-37.5156 -125.028 -105.298 -239.816 -196.448 -333.237c-82.6719 -84.7344 -185.812 -158.963 -305.298 -177.147
c-114.939 -17.4951 -234.021 48.7676 -267.169 163.199c-36.0742 124.533 34.4434 255.514 100.085 357.747c37.9805 59.1562 82.0518 113.107 131.137 162.275c-90.3037 4.67969 -176.128 38.9658 -219.587 123.093c-51.4424 99.585 -7.24512 225.052 58.8047 306.396z" />
    <glyph glyph-name="F" unicode="F" horiz-adv-x="574" 
d="M282.327 -168.562c82.2725 -2.5918 121.538 100.852 89.0322 166.793c-41.9746 85.1602 -147.551 96.877 -231.113 105.086c-17.0254 1.67578 -24.3096 19.8389 -7.45703 28.3779c143.482 72.6924 303.982 114.953 465.095 117.263
c26.6592 0.381836 29.1943 -28.8994 2.09668 -29.9756c-137.483 -5.45703 -271.008 -34.9766 -396.041 -90.8594c91.8193 -13.5225 192.794 -44.9697 220.829 -141.533c28.9121 -99.5898 -55.5615 -189.911 -150.328 -203.911
c-50.8691 -7.51465 -104.33 5.94727 -146.14 35.7705c-46.0938 32.8799 -77.4844 80.9053 -100.666 131.904c-47.4229 104.326 -58.1582 226.416 -56.4736 339.641c3.19922 215.063 38.3623 481.586 239.026 604.505c77.9971 47.7744 198.984 59.7861 246.789 -35.5537
c19.8262 -39.5391 22.3096 -86.0674 20.1348 -129.452c-2.45703 -49.0195 -11.3125 -97.957 -26.9844 -144.485c-51.7197 -153.554 -178.211 -296.129 -336.688 -342.361c0.538086 -84.0176 8.75195 -168.896 31.1309 -249.861
c18.5889 -67.248 56.2393 -158.776 137.757 -161.347zM223.224 805.962c-46.793 -75.8135 -70.5215 -159.505 -83.5059 -247.265c-12.3984 -83.7969 -22.3047 -169.004 -25.3438 -253.877c49.7969 18.5889 96.9502 42.5781 140.821 76.5732
c78.1709 60.5713 131.393 141.221 158.091 236.352c11.8994 42.3955 18.1201 85.915 17.8379 129.969c-0.238281 37.2334 -4.55762 77.8447 -25.7207 109.635c-22.2568 33.4307 -64.1396 44.4658 -100.354 28.0693c-34.8506 -15.7803 -62.1084 -47.5137 -81.8262 -79.4561z
" />
    <glyph glyph-name="G" unicode="G" horiz-adv-x="937" 
d="M120.842 705.909c79.9238 97.6055 186.822 178.926 313.943 199.716c58.5791 9.58105 124.277 6.57715 169.334 -36.9814c39.3086 -38.002 61.8691 -82.4854 71.7969 -136.103c3.5293 -19.0527 -38.124 -22.1436 -42.2217 -2.95117
c-10.8828 50.9912 -35.6797 111.046 -92.8955 120.879c-49.2285 8.45605 -98.791 -13.458 -140.227 -37.8164c-80.6797 -47.4268 -146.96 -117.18 -196.735 -196.748c-49.3066 -78.8213 -69.2754 -184.098 -34.0342 -272.899
c44.6133 -112.413 176.878 -30.4619 240.744 18.9961c79.79 61.7871 142.923 141.625 201.732 222.873c1.3418 1.85352 3.12988 3.36426 5.20508 4.5752c7.58398 9.98047 23.1465 15.9326 33.3652 17.7432c17.2041 3.04297 43.5195 -0.881836 51.8066 -19.1143
c25.0176 -55.0371 45.8984 -109.375 59.959 -168.279c12.8799 -53.96 19.4736 -109.109 20.6758 -164.58c0.637695 -29.6416 -0.65625 -59.1738 -3.82129 -88.416c13.7354 0.885742 27.4619 1.85352 41.167 2.98633c43.4238 3.59473 87.2559 10.4971 121.524 39.4785
c15.8018 13.3623 56.2354 -1.96191 34.4561 -20.3809c-54.1289 -45.7725 -130.072 -52.875 -201.636 -55.6963c-10.4102 -64.5137 -30.5791 -127.13 -61.4707 -185.579c-81.3652 -153.94 -245.178 -271.949 -423.424 -271.515
c-82.3291 0.199219 -167.085 23.3066 -232.545 74.584c-62.2344 48.7549 -108.719 127.182 -106.466 208.1c2.20996 79.334 64.4707 142.966 134.268 172.732c86.9912 37.1035 183.851 28.5908 275.995 26.7246c93.8506 -1.90137 187.753 -1.15039 281.564 2.14453
c5.87793 46.0762 7.31055 92.7344 4.99707 139.354c-2.24902 45.3477 -7.31055 90.9902 -14.1865 135.864c-4.70117 30.6875 -8.64258 61.4707 -13.1357 92.1758c-69.5576 -93.7031 -148.583 -181.937 -251.32 -239.604
c-53.5215 -30.0449 -113.771 -50.5781 -175.663 -38.5928c-58.6006 11.3477 -117.015 51.2646 -147.949 102.672c-69.0762 114.779 -0.143555 261.652 75.1963 353.658zM333.477 -249.091c149.369 31.6689 243.732 159.939 286.032 299.186
c7.76172 25.543 13.8613 51.4424 18.4541 77.5801c-80.0635 -2.86914 -160.196 -3.85938 -240.303 -2.94727c-88.5283 1.01172 -184.311 13.5312 -269.943 -14.5732c-68.8975 -22.6133 -132.113 -85.0381 -121.916 -162.692
c9.92773 -75.6045 78.5176 -133.459 141.611 -167.315c57.1162 -30.6484 124.551 -42.2822 186.064 -29.2373z" />
    <glyph glyph-name="H" unicode="H" horiz-adv-x="907" 
d="M-43.4541 83.6836c16.6182 62.0088 75.876 96.0098 137.068 118.87c-2.30469 35.2021 -4.11035 70.4346 -5.41309 105.667c-6.43359 173.936 -4.13281 349.694 20.1514 522.21c3.75488 26.6846 45.1299 35.8311 66.1152 35.5225
c20.1426 -0.299805 57.7666 -11.5566 56.8936 -38.3936c-5.57422 -171.647 -15.0029 -342.64 -12.5244 -514.474c0.347656 -23.8242 0.90332 -47.6309 1.58008 -71.4375c82.4121 22.9512 166.126 43.0635 243.923 79.1162c8.50879 3.94141 16.8223 8.13965 25.0137 12.4941
c-0.946289 92.2656 2.71777 185.439 14.3389 276.069c7.18066 55.9658 16.3799 111.389 33.8916 165.141c17.4814 53.6475 45.0781 112.674 86.7959 151.952c33.4531 31.499 99.3857 52.1406 135.538 13.6309c32.1377 -34.2295 40.7373 -90.0645 39.9648 -135.091
c-1.67578 -97.5928 -32.6885 -200.564 -77.5322 -286.662c-23.7461 -45.5947 -53.4658 -86.584 -88.7158 -122.15c-1.15039 -54.6152 -1.1416 -109.266 -1.10645 -163.868c0.0605469 -99.1035 3.60742 -204.311 29.9707 -300.419
c8.38281 -30.5566 23.3291 -68.4717 52.623 -84.7812c40.8154 -22.7217 85.8115 43.6885 102.212 72.7002c50.3701 89.1143 79.3389 193.657 94.0811 294.384c2.47461 16.9219 40.7715 15.1855 38.2793 -4.54492c-8.2832 -65.625 -23.1299 -130.061 -45.3652 -192.386
c-19.3916 -54.3594 -42.0127 -114.771 -81.877 -157.77c-35.1934 -37.959 -94.0938 -62.7988 -146.188 -56.6904c-56.3516 6.60742 -96.29 52.9795 -119.788 101.136c-50.0225 102.511 -60.0547 222.49 -64.6475 334.721
c-0.78125 19.0664 -1.38477 38.2363 -1.83203 57.4541c-78.1787 -36.8691 -163.252 -58.1016 -246.15 -81.3486c-7.43652 -2.08789 -14.8857 -4.18457 -22.3398 -6.29395c4.67578 -136.697 13.9697 -273.178 23.2637 -409.667
c3.10352 -45.5684 -86.6318 -49.3281 -95.8135 -6.69824c-26.5459 123.235 -43.1807 248.473 -52.7656 374.227c-41.293 -17.9111 -80.9316 -43.3584 -96.6035 -87.7285c-6.36816 -18.0332 -48.8633 -16.6182 -43.042 5.10938zM722.087 915.76
c1.89258 0.243164 3.23438 3.69824 0 0zM690.059 845.92c-31.0693 -95.3828 -41.21 -198.737 -49.2324 -298.266c-2.49609 -30.9561 -4.18457 -61.9561 -5.40918 -92.9775c9.11621 11.6426 17.7725 23.7803 25.8516 36.5088
c48.7764 76.8379 78.4648 167.429 92.0527 257.138c6.90625 45.6074 8.86426 97.0195 -11.7646 139.506c-4.34082 8.93848 -10.2793 22.9385 -19.6904 27.6748c-0.699219 -0.816406 -1.56738 -1.90137 -2.6875 -3.4209
c-1.89746 -2.56543 -3.12598 -5.32227 -4.63672 -8.08301c-10.21 -18.6758 -17.8809 -37.8066 -24.4834 -58.0801z" />
    <glyph glyph-name="I" unicode="I" horiz-adv-x="363" 
d="M202.889 885.184c28.3564 -4.57129 14.1387 -33.1074 -9.53809 -29.7041c-15.8887 2.2793 -31.7383 3.90332 -47.5527 4.8623c3.18164 -98.1357 -3.2998 -196.744 -9.29883 -294.671c-5.8125 -94.9014 -11.7168 -189.842 -13.9961 -284.908
c-2.1875 -91.4111 -7.28809 -184.232 2.20605 -275.383c4.62793 -44.4316 9.75 -86.7402 32.0283 -126.271c28.5605 -50.6777 86.8926 20.6465 103.15 47.5098c26.0811 43.0898 44.2832 91.9619 61.6299 139.089c18.1025 49.1895 33.4307 99.3115 46.4365 150.081
c4.21973 16.4834 42.3135 14.4736 37.6855 -4.47559c-15.2412 -62.4248 -34.0645 -123.899 -57.085 -183.906c-20.416 -53.2266 -41.6006 -112.631 -81.9512 -154.379c-33.8086 -34.9805 -78.3701 -48.8115 -125.367 -35.8574
c-49.6533 13.6836 -78.6436 52.9229 -99.1338 98.1221c-43.0898 95.0576 -48.3164 208.392 -49.4932 311.458c-2.30078 201.428 12.2285 403.589 20.6631 604.812c-5.72168 -1.14648 -11.4434 -2.35742 -17.1602 -3.71191
c-21.7578 -5.15723 -39.2002 19.9385 -12.8066 26.5195c12.0469 3.00391 24.1807 5.59961 36.3701 7.84375c10.918 18.4277 34.9326 27.3359 56.7295 29.5371c18.7061 1.89258 46.8711 -4.34082 60.7412 -20.3643c21.9707 -0.668945 43.9238 -2.6875 65.7422 -6.2041z" />
    <glyph glyph-name="I" unicode="&#xcf;" horiz-adv-x="363" 
d="M202.889 885.184c28.3564 -4.57129 14.1387 -33.1074 -9.53809 -29.7041c-15.8887 2.2793 -31.7383 3.90332 -47.5527 4.8623c3.18164 -98.1357 -3.2998 -196.744 -9.29883 -294.671c-5.8125 -94.9014 -11.7168 -189.842 -13.9961 -284.908
c-2.1875 -91.4111 -7.28809 -184.232 2.20605 -275.383c4.62793 -44.4316 9.75 -86.7402 32.0283 -126.271c28.5605 -50.6777 86.8926 20.6465 103.15 47.5098c26.0811 43.0898 44.2832 91.9619 61.6299 139.089c18.1025 49.1895 33.4307 99.3115 46.4365 150.081
c4.21973 16.4834 42.3135 14.4736 37.6855 -4.47559c-15.2412 -62.4248 -34.0645 -123.899 -57.085 -183.906c-20.416 -53.2266 -41.6006 -112.631 -81.9512 -154.379c-33.8086 -34.9805 -78.3701 -48.8115 -125.367 -35.8574
c-49.6533 13.6836 -78.6436 52.9229 -99.1338 98.1221c-43.0898 95.0576 -48.3164 208.392 -49.4932 311.458c-2.30078 201.428 12.2285 403.589 20.6631 604.812c-5.72168 -1.14648 -11.4434 -2.35742 -17.1602 -3.71191
c-21.7578 -5.15723 -39.2002 19.9385 -12.8066 26.5195c12.0469 3.00391 24.1807 5.59961 36.3701 7.84375c10.918 18.4277 34.9326 27.3359 56.7295 29.5371c18.7061 1.89258 46.8711 -4.34082 60.7412 -20.3643c21.9707 -0.668945 43.9238 -2.6875 65.7422 -6.2041z" />
    <glyph glyph-name="I" unicode="&#xce;" horiz-adv-x="363" 
d="M202.889 885.184c28.3564 -4.57129 14.1387 -33.1074 -9.53809 -29.7041c-15.8887 2.2793 -31.7383 3.90332 -47.5527 4.8623c3.18164 -98.1357 -3.2998 -196.744 -9.29883 -294.671c-5.8125 -94.9014 -11.7168 -189.842 -13.9961 -284.908
c-2.1875 -91.4111 -7.28809 -184.232 2.20605 -275.383c4.62793 -44.4316 9.75 -86.7402 32.0283 -126.271c28.5605 -50.6777 86.8926 20.6465 103.15 47.5098c26.0811 43.0898 44.2832 91.9619 61.6299 139.089c18.1025 49.1895 33.4307 99.3115 46.4365 150.081
c4.21973 16.4834 42.3135 14.4736 37.6855 -4.47559c-15.2412 -62.4248 -34.0645 -123.899 -57.085 -183.906c-20.416 -53.2266 -41.6006 -112.631 -81.9512 -154.379c-33.8086 -34.9805 -78.3701 -48.8115 -125.367 -35.8574
c-49.6533 13.6836 -78.6436 52.9229 -99.1338 98.1221c-43.0898 95.0576 -48.3164 208.392 -49.4932 311.458c-2.30078 201.428 12.2285 403.589 20.6631 604.812c-5.72168 -1.14648 -11.4434 -2.35742 -17.1602 -3.71191
c-21.7578 -5.15723 -39.2002 19.9385 -12.8066 26.5195c12.0469 3.00391 24.1807 5.59961 36.3701 7.84375c10.918 18.4277 34.9326 27.3359 56.7295 29.5371c18.7061 1.89258 46.8711 -4.34082 60.7412 -20.3643c21.9707 -0.668945 43.9238 -2.6875 65.7422 -6.2041z" />
    <glyph glyph-name="I" unicode="&#xcd;" horiz-adv-x="363" 
d="M202.889 885.184c28.3564 -4.57129 14.1387 -33.1074 -9.53809 -29.7041c-15.8887 2.2793 -31.7383 3.90332 -47.5527 4.8623c3.18164 -98.1357 -3.2998 -196.744 -9.29883 -294.671c-5.8125 -94.9014 -11.7168 -189.842 -13.9961 -284.908
c-2.1875 -91.4111 -7.28809 -184.232 2.20605 -275.383c4.62793 -44.4316 9.75 -86.7402 32.0283 -126.271c28.5605 -50.6777 86.8926 20.6465 103.15 47.5098c26.0811 43.0898 44.2832 91.9619 61.6299 139.089c18.1025 49.1895 33.4307 99.3115 46.4365 150.081
c4.21973 16.4834 42.3135 14.4736 37.6855 -4.47559c-15.2412 -62.4248 -34.0645 -123.899 -57.085 -183.906c-20.416 -53.2266 -41.6006 -112.631 -81.9512 -154.379c-33.8086 -34.9805 -78.3701 -48.8115 -125.367 -35.8574
c-49.6533 13.6836 -78.6436 52.9229 -99.1338 98.1221c-43.0898 95.0576 -48.3164 208.392 -49.4932 311.458c-2.30078 201.428 12.2285 403.589 20.6631 604.812c-5.72168 -1.14648 -11.4434 -2.35742 -17.1602 -3.71191
c-21.7578 -5.15723 -39.2002 19.9385 -12.8066 26.5195c12.0469 3.00391 24.1807 5.59961 36.3701 7.84375c10.918 18.4277 34.9326 27.3359 56.7295 29.5371c18.7061 1.89258 46.8711 -4.34082 60.7412 -20.3643c21.9707 -0.668945 43.9238 -2.6875 65.7422 -6.2041z" />
    <glyph glyph-name="J" unicode="J" 
d="M463.768 295.387c0.0957031 1.25488 0.199219 2.50977 0.290039 3.77344c7.16699 94.5752 8.26953 189.798 7.11523 284.607c-0.555664 45.4951 -0.152344 91.0771 0.841797 136.572c1.06836 49.0547 2.80957 96.6074 15.5938 144.047
c-135.699 -16.375 -271.068 -35.4062 -406.012 -57.2295c-20.9072 -3.38184 -29.9541 23.6768 -7.39355 27.4062c199.305 32.9443 399.486 60.1592 600.389 81.3135c27.3057 2.87402 29.0986 -27.6523 2.12695 -30.3955
c-39.166 -3.98535 -78.3008 -8.26562 -117.414 -12.7021c0.53418 -0.894531 1.0332 -1.81934 1.44141 -2.80078c23.2686 -55.6787 30.7783 -115.2 37.7373 -174.938c6.74609 -57.9014 10.7139 -115.612 12.7715 -173.874
c3.34668 -94.7012 1.67969 -190.314 -8.57422 -284.733c57.8066 -17.4336 117.905 -25.6729 178.764 -17.9414c26.9326 3.4209 28.4863 -26.624 2.09668 -29.9756c-64.8428 -8.23926 -125.939 -0.481445 -184.597 16.7139
c-1.55371 -11.9941 -3.2168 -23.9717 -5.07031 -35.918c-14.3867 -92.7432 -37.1084 -185.738 -93.8037 -262.624c-51.75 -70.1826 -147.507 -121.26 -234.894 -124.75c-176.905 -7.06348 -292.045 162.826 -302.581 324.268
c-5.3877 82.5068 26.3984 171.196 73.6641 237.963c21.9619 31.0176 47.8477 61.2881 83.5703 76.6641c40.3809 17.3818 83.8828 11.3516 123.335 -5.43945c76.8379 -32.7061 146.821 -80.5664 220.603 -120.006zM426.812 43.958
c19.2266 71.0508 28.0576 144.63 34.2783 217.99c-73 37.1904 -143.578 81.7393 -214.643 119.051c-39.873 20.9326 -83.4756 36.8389 -123.145 7.03711c-31.373 -23.5723 -50.873 -59.3477 -64.2695 -95.4531c-25.9033 -69.8184 -24.9482 -149.005 -11.5645 -221.588
c12.9365 -70.1611 46.5107 -138.659 100.87 -185.86c45.6816 -39.6689 110.95 -58.7139 165.314 -23.959c29.1025 18.6064 49.8486 48.7686 68.6191 77.0029c21.3711 32.1504 34.5068 68.7109 44.5391 105.779z" />
    <glyph glyph-name="K" unicode="K" horiz-adv-x="923" 
d="M513.342 686.573c-56.7119 -67.9951 -122.253 -132.61 -195.9 -184.595c-0.191406 -9.9541 -0.360352 -19.9131 -0.512695 -29.8672c80.9053 -4.31934 136.224 -92.457 165.622 -160.005c31.7207 -72.8828 50.4219 -150.576 81.9902 -223.459
c24.8965 -57.4805 56.5996 -128.653 109.253 -166.378c12.8154 -9.18164 28.3613 -19.5781 43.5381 -24.3145c18.4756 -5.76074 34.5156 1.25 49.5312 12.0508c28.5908 20.5635 50.6006 48.8809 68.4727 78.9043c35.9658 60.4199 57.1768 128.307 89.1445 190.767
c8.69043 16.9785 51.8281 13.4922 42.4473 -5.04004c-37.833 -74.7275 -61.3701 -157.053 -109.917 -226.12c-20.9805 -29.8584 -46.042 -58.709 -78.501 -76.3906c-37.2471 -20.29 -81.2012 -20.542 -121.765 -11.0742c-80.0107 18.6758 -147.024 75.666 -190.049 143.718
c-45.6602 72.2188 -63.0986 159.936 -90.0176 239.999c-16.0449 47.7266 -34.5557 93.8076 -60.8281 135.408c-0.0566406 -6.74609 -0.134766 -13.4961 -0.186523 -20.2422c-0.699219 -87.1006 1.08887 -174.188 2.81641 -261.266
c0.850586 -42.8428 2.30078 -85.6416 2.80469 -128.488c0.516602 -43.9844 4.28906 -93.5342 -9.16016 -136.003c-8.41699 -26.5889 -57.4023 -28.1123 -70.0742 -4.90039c-21.4102 39.2178 -26.5322 89.4746 -32.8184 133.063
c-6.11621 42.4297 -10.3447 85.0029 -14.2344 127.689c-8.01367 88.0244 -11.9463 176.393 -14.3945 264.738c-0.646484 23.4199 -1.17578 46.9229 -1.55762 70.4736c-21.5146 -8.77734 -43.5283 -16.3789 -66.0635 -22.5518
c-40.0293 -10.9658 -89.4316 -19.9043 -129.548 -4.48047c-32.2461 12.3984 -41.5146 45.3564 -9.92871 65.2305c33.3877 21.0107 77.9492 18.8789 115.66 16.8477c29.8193 -1.60645 59.5908 -3.97266 89.3447 -6.54688c-0.855469 138.677 4.75293 278.539 26.2461 414.659
c4.29785 27.2188 45.6602 36.5391 67.4092 36.2178c21.2236 -0.3125 58.0713 -11.7207 58.0107 -39.1436c-0.195312 -88.376 -5.86523 -176.153 -9.38574 -264.426c-1.00293 -25.252 -1.75781 -50.5039 -2.39551 -75.7607c21.041 16.3965 41.3535 33.7305 60.9316 51.7676
c102.754 94.6758 187.366 210.21 250.013 334.961c7.09766 14.1299 43.4854 12.1328 35.9014 -4.26367c-40.1855 -86.8613 -90.5684 -167.646 -151.899 -241.18zM13.3115 422.796c36.0791 -8.33887 76.6475 3.98145 110.834 15.1426
c8.2998 2.70898 16.5215 5.66113 24.665 8.80859c-18.9834 1.59766 -37.9717 3.09082 -56.9814 4.31934c-19.0225 1.22852 -38.2012 2.43945 -57.207 0.208008c-8.46484 -0.994141 -24.123 -2.43066 -31.1865 -8.33496
c-12.2461 -10.2324 -1.94922 -17.4082 9.87598 -20.1436z" />
    <glyph glyph-name="L" unicode="L" horiz-adv-x="475" 
d="M247.494 415.444c-19.8994 -44.9434 -41.7344 -89.2842 -66.4609 -131.775c-21.4932 -36.9209 -43.4727 -74.3154 -70.6309 -107.373c0.490234 -45.6211 2.29199 -91.2197 6.3252 -136.736c3.7334 -42.1611 7.875 -84.3701 21.5449 -124.569
c10.6055 -31.1865 29.4238 -81.0615 68.0732 -82.707c41.0801 -1.74902 73.8555 34.8555 97.002 64.293c26.0732 33.1572 49.459 68.7373 70.9385 105.012c45.6211 77.0459 81.0449 160.195 108.15 245.468c4.87988 15.3506 40.6943 13.7441 35.9014 -4.2627
c-28.8643 -108.497 -76.5127 -211.125 -138.513 -304.681c-27.1318 -40.9453 -56.4434 -85.1768 -98.1787 -112.656c-43.1338 -28.3994 -85.7285 -25.3213 -133.642 -13.6172c-111.628 27.2666 -137.462 146.313 -154.77 244.323
c-19.0576 107.92 -21.8184 217.889 -17.4121 327.185c4.41504 109.461 13.9785 219.399 37.9111 326.481c21.957 98.2529 55.8086 204.033 125.275 279.517c32.5586 35.376 77.5156 70.7773 127.66 73.7686c45.2383 2.69629 84.417 -26.0596 101.234 -66.957
c37.9893 -92.3965 5.46582 -208.912 -18.4756 -300.966c-25.1611 -96.7461 -61.54 -188.518 -101.935 -279.746zM111.162 275.234c5.77344 8.44824 11.4717 16.9453 16.9502 25.5889c26.5107 41.7793 52.002 84.166 75.0576 127.968
c45.373 86.1934 77.8535 181.394 102.807 275.331c12.1943 45.9033 23.4727 92.6006 28.4307 139.91c4.6709 44.5615 6.99805 98.3652 -12.4023 140.027c-5.67773 12.1943 -22.877 38.3711 -39.6768 32.4414c-13.0576 -4.61426 -20.4463 -22.0264 -26.6631 -32.9355
c-19.8779 -34.8809 -35.7529 -69.6875 -50.5127 -107.082c-67.1963 -170.211 -85.8418 -360.925 -92.2627 -542.306c-0.694336 -19.6436 -1.2627 -39.291 -1.72754 -58.9434z" />
    <glyph glyph-name="M" unicode="M" horiz-adv-x="1152" 
d="M916.887 128.771c-1.98438 -43.8457 -5.45605 -87.4854 -8.01758 -131.257c-1.94434 -33.166 0.0175781 -65.1689 14.6426 -95.4268c32.1201 -66.4453 109.856 89.9307 122.484 113.395c39.291 72.9961 73.373 148.614 103.01 226.017
c7.17578 18.7314 52.1455 15.667 44.2314 -5.25293c-32.2324 -85.1904 -70.0127 -168.188 -113.099 -248.442c-36.626 -68.2207 -82.9199 -155.564 -173.497 -151.302c-35.4238 1.66699 -72.5625 17.9375 -95.4746 45.582
c-26.3154 31.751 -32.9316 73.6387 -36.3223 113.625c-7.24121 85.4023 -6.25586 170.549 -3.36426 256.121c2.96094 87.6729 7.19336 175.229 13.3096 262.745c5.39648 77.2246 17.5391 156.901 9.14746 234.251c-2.11426 19.5176 -5.35742 39.5176 -9.57227 58.6963
c-1.70215 7.74902 -5.62695 34.2822 -12.6035 38.0635c-14.0127 7.58789 -37.4287 -29.3721 -43.3154 -38.0107c-10.4707 -15.3633 -19.1143 -31.8379 -26.8242 -48.7383c-34.2471 -75.0576 -56.9727 -155.295 -76.5078 -235.254
c-37.9932 -155.499 -64.3438 -313.503 -90.0215 -471.424c0.585938 -8.23047 1.12012 -16.4609 1.75391 -24.6875c2.58301 -33.5703 -38.5312 -49.2373 -65.0117 -51.9111c-28.6211 -2.8916 -67.0273 10.2578 -71.6025 42.3564
c-19.7129 138.265 -10.584 278.995 -7.14551 418.062c1.51465 61.2832 3.75879 122.532 2.59961 183.846c-1.05078 55.3496 2.1875 113.312 -11.5781 167.438c-5.23926 20.6025 -16.0576 58.4004 -42.9336 58.5479c-21.502 0.117188 -38.1201 -28.3213 -47.1455 -44.2666
c-27.0977 -47.8691 -45.5693 -101.89 -61.2275 -154.417c-34.0254 -114.137 -53.3389 -233.127 -70.873 -350.741c-12.3809 -83.0713 -22.0264 -166.512 -29.2109 -250.169c1.31543 -23.1426 2.62207 -46.2803 3.86328 -69.4316
c1.8623 -34.6816 10.4883 -83.8408 -18.2715 -108.698c-0.0390625 0.0390625 -0.078125 0.0820312 -0.117188 0.121094c-11.4043 -9.41602 -33.1709 -12.0508 -45.2822 -3.29883c-30.6484 22.1436 -41.375 68.498 -48.9551 103.995
c-9.00781 42.1914 -15.6279 84.2871 -20.7852 127.116c-9.80273 81.3701 -15.9062 163.374 -21.5195 245.135c-5.65234 82.3252 -5.99121 164.194 -1.88867 246.61c4.33203 87 9.53223 174.378 22.8203 260.523c4.2373 27.4795 46.1729 36.8906 68.0566 36.5693
c22.2656 -0.325195 57.6152 -11.7861 58.5664 -39.5176c2.88672 -84.1484 -7.26758 -168.236 -11.5264 -252.202c-4.16699 -82.2422 -4.13184 -164.48 -0.424805 -246.74c0.612305 -13.5352 1.31152 -27.0791 1.94531 -40.6143
c3.28223 22.5127 6.69434 45.0039 10.3711 67.4561c20.8291 127.116 43.707 256.824 93.5342 376.292c18.3584 44.0146 40.1729 101.239 87.7988 121.078c50.4355 21.0068 101.765 -13.9951 130.911 -53.6426c36.9902 -50.3135 48.125 -116.711 56.8594 -177.148
c9.74121 -67.4131 14.9111 -135.76 17.9844 -203.764c2.95215 -65.251 5.31348 -130.477 8.11328 -195.676c19.6826 116.924 42.1865 233.404 72.9785 347.749c20.3594 75.6094 43.5146 155.716 84.8896 222.882c16.8525 27.3574 39.3008 56.6904 72.0586 64.6475
c15.8193 3.84668 30.9219 1.29004 45.6816 -4.84375c13.8008 -5.73438 29.624 -11.2129 41.2148 -20.915c29.3242 -24.54 45.0908 -63.8184 56.3174 -99.2637c11.8037 -37.2686 20.7852 -76.7549 23.0469 -115.851c4.76172 -82.4072 2.5957 -165.418 1.48047 -247.912
c-1.15918 -85.9502 -1.67188 -172.243 -5.55273 -258.102z" />
    <glyph glyph-name="N" unicode="N" horiz-adv-x="863" 
d="M66.1279 846.778c20.3379 -0.459961 61.5439 -12.0986 59.6777 -40.2686c-10.5967 -160.048 -20.3203 -319.35 -15.3887 -479.854c2.41797 -78.6699 5.76465 -157.179 12.5928 -235.609c0.772461 -8.89062 1.48438 -17.7852 2.22656 -26.6797
c29.498 154.852 61.3008 309.273 101.573 461.721c22.917 86.7529 46.6025 174.548 88.3594 254.459c16.4834 31.543 36.6611 63.1553 68.7031 80.8145c32.8145 18.0898 66.0244 13.3232 97.8496 -3.53809c37.2637 -19.7432 62.9932 -44.1533 80.4355 -83.0674
c17.5078 -39.0566 24.3838 -85.5498 30.1836 -127.646c13.0801 -94.9492 13.332 -190.419 8.81738 -286.002c-4.52734 -95.8389 -11.1084 -191.635 -13.9736 -287.543c-1.38086 -46.1592 -2.23145 -92.3311 -2.4834 -138.508
c-0.199219 -36.6953 0.317383 -76.1348 16.584 -109.809c18.6846 -38.6797 66.9707 -0.90332 87.5215 19.0654c28.5859 27.7793 48.9062 64.5264 66.8008 99.7324c41.8047 82.2646 74.3154 168.796 106.774 255.045c6.86719 18.2461 50.5869 15.3809 43.042 -5.10938
c-35.1416 -95.4307 -70.2139 -191.6 -118.266 -281.474c-38.6055 -72.21 -104.951 -151.952 -195.933 -146.353c-94.8408 5.83887 -136.351 101.617 -142.862 184.225c-7.42285 94.1367 -1.84473 188.517 5.18359 282.506c7.16309 95.7871 15.4717 191.708 19.1484 287.707
c1.83594 47.9131 3.20312 95.748 2.78613 143.695c-0.347656 39.8555 1.08496 82.0254 -7.89648 121.139c-3.75488 16.3359 -7.65723 41.3711 -23.0986 51.043c-17.4033 10.9004 -35.0459 1.22852 -48.291 -10.9395c-30.6348 -28.1436 -48.2598 -71.707 -63.7227 -109.318
c-35.0371 -85.2334 -57.4072 -175.984 -79.7725 -265.19c-46.1328 -183.98 -81.3779 -370.436 -116.433 -556.773c-0.438477 -15.0938 -1.75391 -30.1055 -4.37988 -44.8564c-4.89258 -27.4658 -55.8008 -24.6133 -67.1396 -4.69629
c-20.7373 36.4219 -31.291 80.4932 -39.4736 121.435c-7.72754 38.6885 -14.791 77.5674 -19.9521 116.681c-10.4619 79.3037 -18.9883 159.193 -22.8564 239.113c-7.85352 162.297 -6.66797 326.3 14.3125 487.59c3.62012 27.8525 47.5742 37.7588 69.3496 37.2637z" />
    <glyph glyph-name="O" unicode="O" 
d="M563.504 67.3613c-44.4141 -118.621 -133.308 -228.431 -270.534 -230.367c-137.548 -1.93652 -252.979 91.1201 -294.141 220.077c-44.0576 138.034 -18.8008 282.532 -5.16992 423.336c1.81055 18.7061 12.2686 31.3516 26.5332 39.3174
c-32.498 89.8955 -37.8467 189.615 -13.1152 282.138c28.7646 107.625 106.197 219.443 223.017 239.703c56.7822 9.84961 114.637 -5.76953 161.316 -38.9795c51.3164 -36.5127 84.4346 -88.2158 112.699 -143.461c60.5586 -118.369 98.2139 -256.69 109.709 -388.908
c7.61035 -87.5254 4.36719 -176.279 -11.6777 -262.629c56.873 4.55859 113.533 17.2129 167.775 37.8418c9.22949 3.50781 23.5244 5.29199 30.9395 -3.39062c6.4375 -7.54004 2.5957 -18.1719 -6.53809 -21.6406c-30.8086 -11.6992 -62.082 -21.8145 -94.2197 -29.2158
c-34.3994 -7.92285 -69.3711 -12.8887 -104.435 -15.1328c-8.26562 -36.8516 -18.8662 -73.1914 -32.1592 -108.688zM35.6143 697.751c-1.54102 -57.2852 7.84277 -113.982 26.957 -167.213c24.9219 -0.00390625 62.1387 -12.502 62.2256 -40.9541
c0.0693359 -23.8027 -1.11621 -47.8398 -2.84863 -72.0107c6.69824 -9.3252 13.6699 -18.4766 21.0889 -27.3105c89.9043 -107.065 215.597 -166.834 348.118 -181.151c27.6611 109.904 33.4395 222.109 26.5244 335.2c-3.57715 58.5312 -11.6172 116.776 -23.7207 174.148
c-12.2852 58.2275 -26.4072 120.066 -55.8662 172.312c-53.1914 94.3408 -161.359 162.4 -263.428 95.2734c-93.0566 -61.2012 -136.173 -181.107 -139.051 -288.294zM381.965 -26.1719c17.5645 19.5352 32.4297 41.5869 45.3574 64.4121
c24.6572 43.5332 41.8047 92.1973 55.583 140.375c-139.341 15.3545 -271.68 76.0391 -365.804 180.921c-8.57812 -95.2744 -17.3779 -191.369 14.7031 -282.281c18.3975 -52.1328 50.292 -100.532 95.127 -127.625c6.52441 -3.94141 13.2793 -7.7793 20.2383 -10.9697
c-0.55957 0.456055 12.4766 -4.58008 11.8076 -4.34961c4.72754 -1.62793 9.53711 -3.07812 14.3779 -4.37207c-0.694336 0.420898 11.7432 -1.97949 12.1777 -2.03125c2.93848 -0.351562 5.88574 -0.542969 8.83789 -0.750977
c1.03711 0.0351562 2.59082 0.0742188 4.7832 0.109375c0.855469 0.0996094 11.7734 1.66211 12.3164 1.4541c3.90234 0.998047 8.9248 2.34766 11.2686 2.94238c2.30469 1.14648 12.3887 5.35352 11.2256 4.78906c15.4238 7.50098 33.7393 21.5186 48 37.377z" />
    <glyph glyph-name="O" unicode="&#xd6;" 
d="M563.504 67.3613c-44.4141 -118.621 -133.308 -228.431 -270.534 -230.367c-137.548 -1.93652 -252.979 91.1201 -294.141 220.077c-44.0576 138.034 -18.8008 282.532 -5.16992 423.336c1.81055 18.7061 12.2686 31.3516 26.5332 39.3174
c-32.498 89.8955 -37.8467 189.615 -13.1152 282.138c28.7646 107.625 106.197 219.443 223.017 239.703c56.7822 9.84961 114.637 -5.76953 161.316 -38.9795c51.3164 -36.5127 84.4346 -88.2158 112.699 -143.461c60.5586 -118.369 98.2139 -256.69 109.709 -388.908
c7.61035 -87.5254 4.36719 -176.279 -11.6777 -262.629c56.873 4.55859 113.533 17.2129 167.775 37.8418c9.22949 3.50781 23.5244 5.29199 30.9395 -3.39062c6.4375 -7.54004 2.5957 -18.1719 -6.53809 -21.6406c-30.8086 -11.6992 -62.082 -21.8145 -94.2197 -29.2158
c-34.3994 -7.92285 -69.3711 -12.8887 -104.435 -15.1328c-8.26562 -36.8516 -18.8662 -73.1914 -32.1592 -108.688zM35.6143 697.751c-1.54102 -57.2852 7.84277 -113.982 26.957 -167.213c24.9219 -0.00390625 62.1387 -12.502 62.2256 -40.9541
c0.0693359 -23.8027 -1.11621 -47.8398 -2.84863 -72.0107c6.69824 -9.3252 13.6699 -18.4766 21.0889 -27.3105c89.9043 -107.065 215.597 -166.834 348.118 -181.151c27.6611 109.904 33.4395 222.109 26.5244 335.2c-3.57715 58.5312 -11.6172 116.776 -23.7207 174.148
c-12.2852 58.2275 -26.4072 120.066 -55.8662 172.312c-53.1914 94.3408 -161.359 162.4 -263.428 95.2734c-93.0566 -61.2012 -136.173 -181.107 -139.051 -288.294zM381.965 -26.1719c17.5645 19.5352 32.4297 41.5869 45.3574 64.4121
c24.6572 43.5332 41.8047 92.1973 55.583 140.375c-139.341 15.3545 -271.68 76.0391 -365.804 180.921c-8.57812 -95.2744 -17.3779 -191.369 14.7031 -282.281c18.3975 -52.1328 50.292 -100.532 95.127 -127.625c6.52441 -3.94141 13.2793 -7.7793 20.2383 -10.9697
c-0.55957 0.456055 12.4766 -4.58008 11.8076 -4.34961c4.72754 -1.62793 9.53711 -3.07812 14.3779 -4.37207c-0.694336 0.420898 11.7432 -1.97949 12.1777 -2.03125c2.93848 -0.351562 5.88574 -0.542969 8.83789 -0.750977
c1.03711 0.0351562 2.59082 0.0742188 4.7832 0.109375c0.855469 0.0996094 11.7734 1.66211 12.3164 1.4541c3.90234 0.998047 8.9248 2.34766 11.2686 2.94238c2.30469 1.14648 12.3887 5.35352 11.2256 4.78906c15.4238 7.50098 33.7393 21.5186 48 37.377z" />
    <glyph glyph-name="O" unicode="&#xd5;" 
d="M563.504 67.3613c-44.4141 -118.621 -133.308 -228.431 -270.534 -230.367c-137.548 -1.93652 -252.979 91.1201 -294.141 220.077c-44.0576 138.034 -18.8008 282.532 -5.16992 423.336c1.81055 18.7061 12.2686 31.3516 26.5332 39.3174
c-32.498 89.8955 -37.8467 189.615 -13.1152 282.138c28.7646 107.625 106.197 219.443 223.017 239.703c56.7822 9.84961 114.637 -5.76953 161.316 -38.9795c51.3164 -36.5127 84.4346 -88.2158 112.699 -143.461c60.5586 -118.369 98.2139 -256.69 109.709 -388.908
c7.61035 -87.5254 4.36719 -176.279 -11.6777 -262.629c56.873 4.55859 113.533 17.2129 167.775 37.8418c9.22949 3.50781 23.5244 5.29199 30.9395 -3.39062c6.4375 -7.54004 2.5957 -18.1719 -6.53809 -21.6406c-30.8086 -11.6992 -62.082 -21.8145 -94.2197 -29.2158
c-34.3994 -7.92285 -69.3711 -12.8887 -104.435 -15.1328c-8.26562 -36.8516 -18.8662 -73.1914 -32.1592 -108.688zM35.6143 697.751c-1.54102 -57.2852 7.84277 -113.982 26.957 -167.213c24.9219 -0.00390625 62.1387 -12.502 62.2256 -40.9541
c0.0693359 -23.8027 -1.11621 -47.8398 -2.84863 -72.0107c6.69824 -9.3252 13.6699 -18.4766 21.0889 -27.3105c89.9043 -107.065 215.597 -166.834 348.118 -181.151c27.6611 109.904 33.4395 222.109 26.5244 335.2c-3.57715 58.5312 -11.6172 116.776 -23.7207 174.148
c-12.2852 58.2275 -26.4072 120.066 -55.8662 172.312c-53.1914 94.3408 -161.359 162.4 -263.428 95.2734c-93.0566 -61.2012 -136.173 -181.107 -139.051 -288.294zM381.965 -26.1719c17.5645 19.5352 32.4297 41.5869 45.3574 64.4121
c24.6572 43.5332 41.8047 92.1973 55.583 140.375c-139.341 15.3545 -271.68 76.0391 -365.804 180.921c-8.57812 -95.2744 -17.3779 -191.369 14.7031 -282.281c18.3975 -52.1328 50.292 -100.532 95.127 -127.625c6.52441 -3.94141 13.2793 -7.7793 20.2383 -10.9697
c-0.55957 0.456055 12.4766 -4.58008 11.8076 -4.34961c4.72754 -1.62793 9.53711 -3.07812 14.3779 -4.37207c-0.694336 0.420898 11.7432 -1.97949 12.1777 -2.03125c2.93848 -0.351562 5.88574 -0.542969 8.83789 -0.750977
c1.03711 0.0351562 2.59082 0.0742188 4.7832 0.109375c0.855469 0.0996094 11.7734 1.66211 12.3164 1.4541c3.90234 0.998047 8.9248 2.34766 11.2686 2.94238c2.30469 1.14648 12.3887 5.35352 11.2256 4.78906c15.4238 7.50098 33.7393 21.5186 48 37.377z" />
    <glyph glyph-name="O" unicode="&#xd4;" 
d="M563.504 67.3613c-44.4141 -118.621 -133.308 -228.431 -270.534 -230.367c-137.548 -1.93652 -252.979 91.1201 -294.141 220.077c-44.0576 138.034 -18.8008 282.532 -5.16992 423.336c1.81055 18.7061 12.2686 31.3516 26.5332 39.3174
c-32.498 89.8955 -37.8467 189.615 -13.1152 282.138c28.7646 107.625 106.197 219.443 223.017 239.703c56.7822 9.84961 114.637 -5.76953 161.316 -38.9795c51.3164 -36.5127 84.4346 -88.2158 112.699 -143.461c60.5586 -118.369 98.2139 -256.69 109.709 -388.908
c7.61035 -87.5254 4.36719 -176.279 -11.6777 -262.629c56.873 4.55859 113.533 17.2129 167.775 37.8418c9.22949 3.50781 23.5244 5.29199 30.9395 -3.39062c6.4375 -7.54004 2.5957 -18.1719 -6.53809 -21.6406c-30.8086 -11.6992 -62.082 -21.8145 -94.2197 -29.2158
c-34.3994 -7.92285 -69.3711 -12.8887 -104.435 -15.1328c-8.26562 -36.8516 -18.8662 -73.1914 -32.1592 -108.688zM35.6143 697.751c-1.54102 -57.2852 7.84277 -113.982 26.957 -167.213c24.9219 -0.00390625 62.1387 -12.502 62.2256 -40.9541
c0.0693359 -23.8027 -1.11621 -47.8398 -2.84863 -72.0107c6.69824 -9.3252 13.6699 -18.4766 21.0889 -27.3105c89.9043 -107.065 215.597 -166.834 348.118 -181.151c27.6611 109.904 33.4395 222.109 26.5244 335.2c-3.57715 58.5312 -11.6172 116.776 -23.7207 174.148
c-12.2852 58.2275 -26.4072 120.066 -55.8662 172.312c-53.1914 94.3408 -161.359 162.4 -263.428 95.2734c-93.0566 -61.2012 -136.173 -181.107 -139.051 -288.294zM381.965 -26.1719c17.5645 19.5352 32.4297 41.5869 45.3574 64.4121
c24.6572 43.5332 41.8047 92.1973 55.583 140.375c-139.341 15.3545 -271.68 76.0391 -365.804 180.921c-8.57812 -95.2744 -17.3779 -191.369 14.7031 -282.281c18.3975 -52.1328 50.292 -100.532 95.127 -127.625c6.52441 -3.94141 13.2793 -7.7793 20.2383 -10.9697
c-0.55957 0.456055 12.4766 -4.58008 11.8076 -4.34961c4.72754 -1.62793 9.53711 -3.07812 14.3779 -4.37207c-0.694336 0.420898 11.7432 -1.97949 12.1777 -2.03125c2.93848 -0.351562 5.88574 -0.542969 8.83789 -0.750977
c1.03711 0.0351562 2.59082 0.0742188 4.7832 0.109375c0.855469 0.0996094 11.7734 1.66211 12.3164 1.4541c3.90234 0.998047 8.9248 2.34766 11.2686 2.94238c2.30469 1.14648 12.3887 5.35352 11.2256 4.78906c15.4238 7.50098 33.7393 21.5186 48 37.377z" />
    <glyph glyph-name="O" unicode="&#xd3;" 
d="M563.504 67.3613c-44.4141 -118.621 -133.308 -228.431 -270.534 -230.367c-137.548 -1.93652 -252.979 91.1201 -294.141 220.077c-44.0576 138.034 -18.8008 282.532 -5.16992 423.336c1.81055 18.7061 12.2686 31.3516 26.5332 39.3174
c-32.498 89.8955 -37.8467 189.615 -13.1152 282.138c28.7646 107.625 106.197 219.443 223.017 239.703c56.7822 9.84961 114.637 -5.76953 161.316 -38.9795c51.3164 -36.5127 84.4346 -88.2158 112.699 -143.461c60.5586 -118.369 98.2139 -256.69 109.709 -388.908
c7.61035 -87.5254 4.36719 -176.279 -11.6777 -262.629c56.873 4.55859 113.533 17.2129 167.775 37.8418c9.22949 3.50781 23.5244 5.29199 30.9395 -3.39062c6.4375 -7.54004 2.5957 -18.1719 -6.53809 -21.6406c-30.8086 -11.6992 -62.082 -21.8145 -94.2197 -29.2158
c-34.3994 -7.92285 -69.3711 -12.8887 -104.435 -15.1328c-8.26562 -36.8516 -18.8662 -73.1914 -32.1592 -108.688zM35.6143 697.751c-1.54102 -57.2852 7.84277 -113.982 26.957 -167.213c24.9219 -0.00390625 62.1387 -12.502 62.2256 -40.9541
c0.0693359 -23.8027 -1.11621 -47.8398 -2.84863 -72.0107c6.69824 -9.3252 13.6699 -18.4766 21.0889 -27.3105c89.9043 -107.065 215.597 -166.834 348.118 -181.151c27.6611 109.904 33.4395 222.109 26.5244 335.2c-3.57715 58.5312 -11.6172 116.776 -23.7207 174.148
c-12.2852 58.2275 -26.4072 120.066 -55.8662 172.312c-53.1914 94.3408 -161.359 162.4 -263.428 95.2734c-93.0566 -61.2012 -136.173 -181.107 -139.051 -288.294zM381.965 -26.1719c17.5645 19.5352 32.4297 41.5869 45.3574 64.4121
c24.6572 43.5332 41.8047 92.1973 55.583 140.375c-139.341 15.3545 -271.68 76.0391 -365.804 180.921c-8.57812 -95.2744 -17.3779 -191.369 14.7031 -282.281c18.3975 -52.1328 50.292 -100.532 95.127 -127.625c6.52441 -3.94141 13.2793 -7.7793 20.2383 -10.9697
c-0.55957 0.456055 12.4766 -4.58008 11.8076 -4.34961c4.72754 -1.62793 9.53711 -3.07812 14.3779 -4.37207c-0.694336 0.420898 11.7432 -1.97949 12.1777 -2.03125c2.93848 -0.351562 5.88574 -0.542969 8.83789 -0.750977
c1.03711 0.0351562 2.59082 0.0742188 4.7832 0.109375c0.855469 0.0996094 11.7734 1.66211 12.3164 1.4541c3.90234 0.998047 8.9248 2.34766 11.2686 2.94238c2.30469 1.14648 12.3887 5.35352 11.2256 4.78906c15.4238 7.50098 33.7393 21.5186 48 37.377z" />
    <glyph glyph-name="P" unicode="P" horiz-adv-x="745" 
d="M282.928 826.336c17.1953 39.1826 45.3994 79.5391 87.7422 93.7998c46.085 15.5195 85.8799 -11.8037 119.962 -40.4375c82.4814 -69.2969 117.319 -175.368 138.404 -277.562c23.5723 -114.263 33.4395 -234.32 18.4189 -350.358
c-1.41504 -10.9609 -3.27734 -22.0176 -5.53027 -33.0879c40.75 4.13281 81.3564 9.67676 121.716 16.7178c8.02246 1.39746 22.1357 1.51465 25.9121 -8.11816c3.4209 -8.72559 -4.71875 -16.9395 -13.1016 -18.4023c-46.9189 -8.1875 -94.0635 -14.7861 -141.455 -19.375
c-22.1436 -81.4395 -67.5605 -159.987 -139.307 -204.188c-47.4609 -29.2422 -106.726 -51.3779 -162.313 -32.3076c-40.9365 14.0439 -73.3301 43.4072 -79.3682 87.7998c-12.8848 94.71 82.5938 150.905 162.739 163.412c27.4922 4.28906 55.3623 5.75195 83.293 6.60254
c16.9258 65.2949 20.5723 133.785 19.9473 201.298c-0.907227 98.5566 -5.80859 197.339 -26.6982 293.972c-9.56738 44.2529 -49.9658 231.512 -122.953 176.692c-33.1533 -24.9004 -49.3281 -67.3916 -60.7754 -105.693
c-13.4141 -44.8652 -23.2295 -91.0195 -32.3633 -136.918c-19.6133 -98.582 -32.4062 -198.376 -41.3057 -298.46c-17.2344 -193.792 -20.3467 -388.443 -29.9922 -582.678c1.74121 -9.68945 3.04395 -19.3916 3.51758 -29.1025
c1.94922 -40.0645 -69.6143 -49.0332 -90.9072 -23.6553c-28.2217 33.6309 -40.9893 76.5732 -52.832 118.109c-11.9033 41.7568 -19.8994 84.6426 -28.082 127.255c-29.8711 155.563 -46.4502 313.923 -54.6641 472.057c-8.14355 156.84 -7.43164 315.126 11.5605 471.159
c3.80273 31.2305 31.0732 46.793 61.2441 48.9023c23.377 1.63672 68.0469 -8.93848 67.4561 -39.8994c-1.66699 -87.4824 -3.85059 -174.974 -4.32812 -262.474c-0.84668 -155.517 6.74121 -311.358 23.0723 -466.02c8.16113 -77.25 18.2197 -154.443 29.5107 -231.299
c0.646484 -4.41016 1.33691 -8.81641 2.00977 -13.2227c6.81152 193.849 13.293 387.806 39.7607 580.144c7.6748 55.7881 17.0605 111.35 28.6865 166.456c10.5146 49.8447 20.4512 102.003 41.0234 148.883zM409.728 43.5342
c26.5723 29.6758 48.8027 59.1387 65.2988 95.5781c6.38574 14.1045 11.834 28.4775 16.6045 43.0244c-16.5703 -0.711914 -33.1191 -1.66699 -49.6152 -3.26855c-46.4365 -4.50586 -100.675 -19.292 -126.93 -61.6006c-23.3682 -37.6504 -15.1768 -85.6201 24.0674 -107.1
c3.20801 -0.772461 5.10938 -1.30664 5.83887 -1.62305c3.96387 0.24707 8.18359 0.24707 12.1123 1.00195c5.49609 1.05957 10.7666 3.15234 15.8975 5.44922c14.8594 6.64648 26.0205 16.583 36.7256 28.5381z" />
    <glyph glyph-name="Q" unicode="Q" 
d="M391.409 1002.58c51.3164 -36.5088 84.4355 -88.21 112.696 -143.468c60.5625 -118.369 98.2178 -256.69 109.713 -388.908c7.61035 -87.5254 4.36719 -176.279 -11.6777 -262.629c56.873 4.55859 113.533 17.2129 167.775 37.8418
c9.22949 3.50781 23.5244 5.29199 30.9395 -3.39062c6.4375 -7.54004 2.5957 -18.1719 -6.53809 -21.6406c-30.8086 -11.6992 -62.082 -21.8145 -94.2197 -29.2158c-34.3994 -7.92285 -69.3711 -12.8887 -104.435 -15.1328
c-8.26562 -36.8516 -18.8662 -73.1914 -32.1592 -108.688c-44.4092 -118.621 -133.302 -228.434 -270.528 -230.365c-3.91113 -0.0566406 -7.79688 -0.00878906 -11.6689 0.0869141c67.3262 -25.7686 153.81 -63.6748 218.562 -12.4365
c15.7188 12.4414 55.2705 -2.66113 33.5518 -19.8477c-60.1113 -47.5654 -140.856 -41.9346 -209.885 -19.5557c-75.7217 24.5488 -163.808 78.4912 -243.489 38.6699c-19.6045 -9.79395 -51.3115 12.0938 -24.7354 25.373c32.9053 16.4443 67.3906 21.1934 101.946 18.9443
c-74.376 37.4463 -131.874 105.649 -158.429 188.847c-44.0576 138.034 -18.8008 282.532 -5.16992 423.336c1.81055 18.7061 12.2686 31.3516 26.5332 39.3174c-32.498 89.8916 -37.8467 189.616 -13.1152 282.139c28.7646 107.625 106.201 219.443 223.017 239.703
c56.7822 9.84961 114.637 -5.76953 161.316 -38.9795zM427.315 38.2334c24.6572 43.5332 41.8096 92.1963 55.584 140.374c-139.341 15.3545 -271.68 76.0391 -365.804 180.921c-8.57812 -95.2744 -17.3779 -191.369 14.7031 -282.281
c18.3975 -52.1328 50.292 -100.532 95.127 -127.625c6.52051 -3.9375 13.2793 -7.77539 20.2334 -10.9658c-0.55957 0.456055 12.4766 -4.58008 11.8076 -4.34961c4.72754 -1.62793 9.53711 -3.07812 14.3779 -4.37207
c-0.694336 0.420898 11.7432 -1.97949 12.1777 -2.03125c2.93848 -0.351562 5.89062 -0.542969 8.83789 -0.750977c1.04199 0.0351562 2.5957 0.0742188 4.78809 0.109375c0.855469 0.0996094 11.7734 1.66211 12.3164 1.4541
c3.90234 0.998047 8.9248 2.34766 11.2686 2.94238c2.30469 1.14648 12.3887 5.35352 11.2256 4.78906c15.4238 7.50098 33.7393 21.5186 48 37.377c17.5645 19.5352 32.4326 41.5879 45.3564 64.4092zM491.157 209.107c27.6611 109.904 33.4385 222.112 26.5273 335.203
c-3.57715 58.5312 -11.6123 116.776 -23.7197 174.148c-12.2852 58.2275 -26.4072 120.066 -55.8662 172.312c-53.1914 94.3408 -161.359 162.4 -263.428 95.2734c-93.0566 -61.2012 -136.168 -181.107 -139.051 -288.294
c-1.53711 -57.2852 7.84375 -113.989 26.9531 -167.216c24.9219 -0.00390625 62.1387 -12.502 62.2256 -40.9541c0.0693359 -23.8027 -1.11621 -47.8398 -2.84863 -72.0107c6.69824 -9.3252 13.6699 -18.4766 21.0889 -27.3105
c89.9043 -107.065 215.597 -166.834 348.118 -181.151z" />
    <glyph glyph-name="R" unicode="R" horiz-adv-x="957" 
d="M313.482 392.159c4.51074 23.6113 9.24316 47.1729 14.3789 70.624c21.2061 96.6592 51.1602 191.664 97.4717 279.411c38.7793 73.4688 97.7451 147.415 189.92 140.152c82.377 -6.49023 127.104 -97.4023 126.335 -172
c-1.01172 -98.083 -42.4395 -184.385 -111.75 -252.554c-71.8799 -70.6953 -169.568 -120.562 -264.651 -151.939c-7.90039 -2.60938 -15.9531 -5.08789 -24.1143 -7.44043c-0.0351562 -0.216797 -0.0654297 -0.438477 -0.100586 -0.655273
c-0.724609 -4.85352 -1.37109 -9.71973 -2.08301 -14.5732c8.50391 -4.65332 15.6973 -11.1084 22.9727 -17.6982c17.3945 -15.7539 32.3584 -33.8955 46.085 -52.8926c28.6084 -39.5957 51.5645 -81.2793 73.1484 -125.008
c36.708 -74.376 68.8623 -150.814 106.786 -224.657c29.5801 -57.5977 74.9141 -137.656 151.2 -104.746c75.3613 32.5146 113.281 122.146 143.435 192.832c33.2012 77.8359 58.2324 159.011 75.8877 241.73c3.98926 18.6797 46.9492 16.5391 42.4473 -5.04102
c-21.5361 -103.24 -55.0195 -203.78 -99.9502 -299.224c-34.877 -74.0771 -82.7246 -145.463 -164.308 -172c-39.8945 -12.9756 -82.9365 -16.3877 -123.152 -2.51367c-44.292 15.2803 -83.3232 47.3047 -114.389 81.6123
c-62.8633 69.4277 -96.8721 160.47 -132.287 245.786c-15.3721 37.0293 -30.1494 74.3105 -45.4609 111.357c-16.457 -134.05 -28.5166 -268.698 -38.8008 -403.29c-0.0351562 -0.425781 -0.182617 -0.798828 -0.256836 -1.20703
c0.412109 -8.03125 1.29297 -16.0273 4.85742 -22.7471c6.99805 -13.1885 -6.75879 -24.6182 -17.5381 -28.707c-14.3564 -5.44336 -30.8574 -3.49805 -42.6172 6.55176c-15.5195 13.2617 -29.7803 25.9375 -37 45.5508c-6.26855 17.0342 -10.4746 34.9326 -13.8086 52.749
c-8.18262 43.7363 -13.4053 87.6943 -18.1631 131.917c-12.3154 114.419 -19.6133 229.862 -22.4961 345.579c-25.2568 3.51172 -49.9014 9.70215 -73.3135 19.1309c-39.5732 15.9404 -81.4385 39.0352 -97.1533 81.1094c-12.1816 32.6152 -13.1885 83.3936 16.3828 107.148
c48.9893 39.3525 106.322 13.5059 153.167 -24.3398c2.09277 142.688 10.5625 285.216 24.6016 426.202c3.06934 30.8262 31.1953 46.168 60.376 48.208c22.1875 1.5498 68.251 -8.89062 66.4971 -39.335c-5.08789 -88.3594 -9.82422 -176.806 -13.7314 -265.221
c-3.72461 -84.2305 -5.99902 -168.608 -6.78906 -252.995c16.292 3.70703 32.25 8.12207 47.9648 13.1318zM91.2305 382.498c19.3574 -7.18848 25.2168 -8.13867 42.916 -10.3184c-0.0566406 13.1709 -0.143555 26.3418 -0.0917969 39.5127
c-22.791 23.3252 -48.8027 44.8828 -77.6924 57.0078c-18.6973 7.84863 -47.2832 6.45898 -44.1924 -21.5801c1.84082 -16.666 22.8516 -33.3574 36.3916 -41.7578c13.8613 -8.5957 28.8164 -17.7246 42.6689 -22.8643zM269.285 81.7852
c5.23535 50.9434 11.2178 101.8 18.2676 152.461c-3.13867 7.01074 -6.69824 14.0654 -8.77734 21.2539c-3.1084 10.7314 -1.27246 16.8867 -10.667 24.375c-0.768555 0.612305 -1.39844 1.21973 -1.9668 1.83203
c-0.299805 -0.0478516 -0.594727 -0.0957031 -0.894531 -0.143555c0.191406 -39.0225 0.725586 -78.0322 1.62012 -117.02c0.629883 -27.583 1.48047 -55.1709 2.41797 -82.7588zM486.215 769.913c-68.2559 -107.989 -103.304 -234.758 -126.854 -361.089
c37.2246 15.1943 73.2949 33.9258 109.062 55.7617c60.2109 36.7559 119.467 86.4658 155.85 152.416c18.3799 33.3135 30.4609 68.5898 38.2012 105.732c6.21191 29.8057 13.166 68.5244 -2.42285 96.8066c-18.8184 34.1426 -60.5537 39.916 -94.1455 26.6016
c-35.1025 -13.9131 -60.0811 -45.208 -79.6895 -76.2295z" />
    <glyph glyph-name="S" unicode="S" horiz-adv-x="738" 
d="M374.682 470.095c130.789 31.8379 107.562 211.998 51.0977 297.019c-32.5059 48.9639 -84.751 85.1992 -144.928 85.2471c-56.1914 0.0429688 -111.662 -26.0518 -150.875 -65.6299c-40.5508 -40.9277 -62.4346 -96.1289 -64.5488 -153.38
c-1.08105 -29.2334 -0.599609 -59.626 5.93848 -88.1904c6.30371 -27.5439 18.5459 -53.0137 31.6992 -77.8447c57.7979 -109.123 166.36 -181.246 261.335 -251.963c31.6377 -23.5596 63.1455 -47.2578 93.7109 -72.1191c26.8408 8.72559 53.9297 16.8477 81.1787 25.1348
c72.4102 22.0225 145.519 41.54 218.666 60.9316c21.1064 5.5957 37.7021 -18.3018 12.4277 -25.7334c-36.8262 -10.8311 -73.6299 -21.7314 -110.386 -32.7969c-56.79 -17.0957 -112.396 -36.001 -167.888 -56.1572c8.94727 -7.79688 17.8164 -15.6846 26.5029 -23.7979
c45.7949 -42.7686 91.8457 -93.4121 119.425 -150.229c27.8311 -57.3418 43.0859 -123.031 25.8604 -185.821c-15.2109 -55.4531 -57.2725 -99.3682 -103.059 -132.057c-95.8691 -68.4512 -234.477 -87.209 -342.636 -38.2109
c-106.093 48.0645 -171.37 168.019 -127.664 280.822c40.6025 104.795 139.298 177.218 237.876 226.143c-27.8789 21.3232 -56.3135 42.1865 -84.9951 63.1758c-54.2207 39.6826 -108.498 79.5645 -156.285 127.013c-44.8867 44.5742 -88.6104 99.0381 -108.314 160.109
c-38.332 118.82 0.720703 247.986 82.0996 339.28c74.1465 83.1797 200.564 131.766 307.378 84.6084c104.838 -46.2852 163.065 -175.702 144.473 -286.184c-9.16016 -54.4248 -41.3447 -102.689 -91.1152 -127.673c-45.9512 -23.0684 -103.18 -25.6553 -147.042 3.28711
c-24.4316 16.1182 14.1084 35.9307 31.6943 25.3037c20.9199 -12.6416 44.6445 -16.0664 68.373 -10.2881zM528.381 -96.0488c-48.9248 61.1445 -105.051 112.278 -164.633 159.913c-27.5186 -12.5889 -54.3594 -26.5938 -79.9375 -42.9941
c-101.717 -65.2168 -202.678 -187.758 -139.449 -312.795c60.8711 -120.384 213.127 -143.379 329.096 -95.21c53.7822 22.3398 99.9541 57.3896 112.509 116.945c12.9883 61.6182 -20.0908 127.282 -57.585 174.141z" />
    <glyph glyph-name="T" unicode="T" horiz-adv-x="988" 
d="M1283.71 863.543c-7.66602 44.2666 -50.2959 68.4912 -89.8867 80.6416c-51.3467 15.7627 -107.529 18.0596 -160.834 15.9277c-162.18 -6.48145 -319.337 -52.5801 -476.025 -93.7686c9.88477 -63.2588 7.42773 -128.293 7.65332 -192.207
c0.238281 -68.3506 -0.169922 -136.653 -1.49805 -204.991c-2.40039 -123.544 -8.08301 -247.296 -6.42871 -370.87c0.786133 -58.8096 2.80469 -118.409 12.1377 -176.571c7.18457 -44.7529 18.333 -103.023 48.5215 -138.738
c39.9385 -47.249 102.104 3.24219 132.136 36.6123c34.9893 38.8789 63.2715 83.9922 88.2285 129.786c51.1904 93.9414 88.6416 194.638 140.427 288.314c8.99512 16.2666 49.5586 8.7041 38.0283 -12.3291c-62.4814 -113.984 -103.648 -239.021 -174.548 -348.513
c-30.1318 -46.5371 -65.8379 -94.8359 -114.692 -123.084c-45.3994 -26.251 -110.955 -33.6738 -158.247 -8.43066c-50.583 27.002 -79.1738 84.6133 -96.1133 137.002c-20.0391 61.9697 -28.3047 125.754 -33.7012 190.406c-11.2305 134.483 -8.5 269.318 -9.51172 404.123
c-0.512695 68.2725 -0.681641 136.545 -1.17676 204.817c-0.369141 51.2256 -1.98438 102.32 1.74902 153.181c-83.7529 -19.1533 -169.151 -35.1152 -254.945 -39.0264c-47.1533 -2.14844 -94.6621 -0.0820312 -140.899 9.85938
c-32.1631 6.91504 -74.2803 16.6914 -81.8467 53.9814c-3.57227 17.6074 34.9727 20.3682 39.1787 2.73926c5.70898 -23.9199 49.2676 -28.1523 68.5332 -31.5293c28.0918 -4.92676 56.6436 -7.04492 85.1514 -6.88477c54.0645 0.308594 108.207 7.10254 161.434 16.1709
c42.4688 7.23633 84.5557 16.1875 126.443 26.0117c0.958984 7.83594 2.05273 15.6631 3.35938 23.4814c4.2373 25.3955 42.4219 34.0859 62.8818 33.7861c21.1504 -0.3125 42.8477 -8.5957 51.3477 -27.8008c107.755 28.252 215.149 58.0928 325.049 76.8467
c94.5322 16.127 192.62 26.9932 287.946 11.0225c67.3135 -11.2734 151.345 -40.1465 164.807 -116.846c3.52051 -20.0605 -41.0801 -23.7939 -44.6572 -3.12109z" />
    <glyph glyph-name="U" unicode="U" horiz-adv-x="979" 
d="M1019.42 216.065c-38.918 -107.517 -61.9678 -221.447 -117.625 -322.309c-22.8516 -41.4141 -52.0322 -86.3232 -93.8154 -110.742c-41.8008 -24.4277 -92.54 -23.3203 -134.788 -0.898438c-50.3096 26.7021 -71.4121 79.5684 -84.6523 131.653
c-14.2217 55.957 -22.1143 113.029 -26.7979 170.519c-9.61523 118.113 -1.95703 237.702 6.00879 355.72c5.2002 77.1064 8.82031 154.113 11.4902 231.207c-11.2393 -38.4971 -20.1816 -77.749 -28.6992 -116.728c-18.8838 -86.375 -34.6113 -173.393 -52.623 -259.945
c-29.9189 -143.804 -60.4844 -300.375 -142.601 -425.061c-37.8027 -57.4023 -86.9307 -106.166 -161.768 -96.9502c-73.6602 9.06836 -130.928 65.9414 -163.534 129.27c-33.4785 65.0254 -42.9902 142.861 -48.5508 214.785
c-5.96484 77.1455 -3.1084 154.847 0.243164 232.058c3.43359 79.0869 8.75586 158.052 11.6689 237.16c1.4502 39.4346 4.07617 78.8564 5.45703 118.321c1.38477 39.5654 2.22656 77.9062 16.7041 115.249c6.0166 15.5156 34.1475 19.9258 44.9785 7.24512
c28.834 -33.7568 40.5381 -71.9414 49.3809 -114.731c8.43945 -40.8369 14.4385 -83.2803 15.9971 -124.964c3.04785 -81.5869 1.10742 -162.943 -0.316406 -244.526c-1.28027 -73.209 -0.564453 -146.418 4.63574 -219.479
c4.63672 -65.1299 11.0225 -133.646 28.8428 -196.713c8.93848 -31.6377 38.8662 -108.289 83.8574 -92.3008c59.7168 21.2148 97.7061 97.3193 121 151.414c57.3066 133.077 83.0146 278.717 110.559 420.146c25.9336 133.159 45.9551 274.645 108.771 396.564
c7.11914 53.0615 116.624 60.0508 122.827 4.11523c13.418 -121.03 0.664062 -244.427 -8.97363 -365.375c-8.37402 -105.085 -15.9141 -209.706 -16.8994 -315.174c-0.503906 -53.7305 2.52637 -107.062 7.43164 -160.54
c4.00293 -43.6416 6.83301 -97.1982 32.5234 -134.597c9.1377 -13.3008 24.5576 -30.5049 42.4561 -28.6426c20.0254 2.08398 39.6426 24.2588 51.6846 38.4717c29.4629 34.7676 52.0928 75.1875 70.4688 116.724c37.7852 85.416 59.5947 176.749 92.2139 264.093
c6.71582 17.9854 49.7881 15.25 42.4434 -5.04004z" />
    <glyph glyph-name="U" unicode="&#xdc;" horiz-adv-x="979" 
d="M1019.42 216.065c-38.918 -107.517 -61.9678 -221.447 -117.625 -322.309c-22.8516 -41.4141 -52.0322 -86.3232 -93.8154 -110.742c-41.8008 -24.4277 -92.54 -23.3203 -134.788 -0.898438c-50.3096 26.7021 -71.4121 79.5684 -84.6523 131.653
c-14.2217 55.957 -22.1143 113.029 -26.7979 170.519c-9.61523 118.113 -1.95703 237.702 6.00879 355.72c5.2002 77.1064 8.82031 154.113 11.4902 231.207c-11.2393 -38.4971 -20.1816 -77.749 -28.6992 -116.728c-18.8838 -86.375 -34.6113 -173.393 -52.623 -259.945
c-29.9189 -143.804 -60.4844 -300.375 -142.601 -425.061c-37.8027 -57.4023 -86.9307 -106.166 -161.768 -96.9502c-73.6602 9.06836 -130.928 65.9414 -163.534 129.27c-33.4785 65.0254 -42.9902 142.861 -48.5508 214.785
c-5.96484 77.1455 -3.1084 154.847 0.243164 232.058c3.43359 79.0869 8.75586 158.052 11.6689 237.16c1.4502 39.4346 4.07617 78.8564 5.45703 118.321c1.38477 39.5654 2.22656 77.9062 16.7041 115.249c6.0166 15.5156 34.1475 19.9258 44.9785 7.24512
c28.834 -33.7568 40.5381 -71.9414 49.3809 -114.731c8.43945 -40.8369 14.4385 -83.2803 15.9971 -124.964c3.04785 -81.5869 1.10742 -162.943 -0.316406 -244.526c-1.28027 -73.209 -0.564453 -146.418 4.63574 -219.479
c4.63672 -65.1299 11.0225 -133.646 28.8428 -196.713c8.93848 -31.6377 38.8662 -108.289 83.8574 -92.3008c59.7168 21.2148 97.7061 97.3193 121 151.414c57.3066 133.077 83.0146 278.717 110.559 420.146c25.9336 133.159 45.9551 274.645 108.771 396.564
c7.11914 53.0615 116.624 60.0508 122.827 4.11523c13.418 -121.03 0.664062 -244.427 -8.97363 -365.375c-8.37402 -105.085 -15.9141 -209.706 -16.8994 -315.174c-0.503906 -53.7305 2.52637 -107.062 7.43164 -160.54
c4.00293 -43.6416 6.83301 -97.1982 32.5234 -134.597c9.1377 -13.3008 24.5576 -30.5049 42.4561 -28.6426c20.0254 2.08398 39.6426 24.2588 51.6846 38.4717c29.4629 34.7676 52.0928 75.1875 70.4688 116.724c37.7852 85.416 59.5947 176.749 92.2139 264.093
c6.71582 17.9854 49.7881 15.25 42.4434 -5.04004z" />
    <glyph glyph-name="U" unicode="&#xdb;" horiz-adv-x="979" 
d="M1019.42 216.065c-38.918 -107.517 -61.9678 -221.447 -117.625 -322.309c-22.8516 -41.4141 -52.0322 -86.3232 -93.8154 -110.742c-41.8008 -24.4277 -92.54 -23.3203 -134.788 -0.898438c-50.3096 26.7021 -71.4121 79.5684 -84.6523 131.653
c-14.2217 55.957 -22.1143 113.029 -26.7979 170.519c-9.61523 118.113 -1.95703 237.702 6.00879 355.72c5.2002 77.1064 8.82031 154.113 11.4902 231.207c-11.2393 -38.4971 -20.1816 -77.749 -28.6992 -116.728c-18.8838 -86.375 -34.6113 -173.393 -52.623 -259.945
c-29.9189 -143.804 -60.4844 -300.375 -142.601 -425.061c-37.8027 -57.4023 -86.9307 -106.166 -161.768 -96.9502c-73.6602 9.06836 -130.928 65.9414 -163.534 129.27c-33.4785 65.0254 -42.9902 142.861 -48.5508 214.785
c-5.96484 77.1455 -3.1084 154.847 0.243164 232.058c3.43359 79.0869 8.75586 158.052 11.6689 237.16c1.4502 39.4346 4.07617 78.8564 5.45703 118.321c1.38477 39.5654 2.22656 77.9062 16.7041 115.249c6.0166 15.5156 34.1475 19.9258 44.9785 7.24512
c28.834 -33.7568 40.5381 -71.9414 49.3809 -114.731c8.43945 -40.8369 14.4385 -83.2803 15.9971 -124.964c3.04785 -81.5869 1.10742 -162.943 -0.316406 -244.526c-1.28027 -73.209 -0.564453 -146.418 4.63574 -219.479
c4.63672 -65.1299 11.0225 -133.646 28.8428 -196.713c8.93848 -31.6377 38.8662 -108.289 83.8574 -92.3008c59.7168 21.2148 97.7061 97.3193 121 151.414c57.3066 133.077 83.0146 278.717 110.559 420.146c25.9336 133.159 45.9551 274.645 108.771 396.564
c7.11914 53.0615 116.624 60.0508 122.827 4.11523c13.418 -121.03 0.664062 -244.427 -8.97363 -365.375c-8.37402 -105.085 -15.9141 -209.706 -16.8994 -315.174c-0.503906 -53.7305 2.52637 -107.062 7.43164 -160.54
c4.00293 -43.6416 6.83301 -97.1982 32.5234 -134.597c9.1377 -13.3008 24.5576 -30.5049 42.4561 -28.6426c20.0254 2.08398 39.6426 24.2588 51.6846 38.4717c29.4629 34.7676 52.0928 75.1875 70.4688 116.724c37.7852 85.416 59.5947 176.749 92.2139 264.093
c6.71582 17.9854 49.7881 15.25 42.4434 -5.04004z" />
    <glyph glyph-name="U" unicode="&#xda;" horiz-adv-x="979" 
d="M1019.42 216.065c-38.918 -107.517 -61.9678 -221.447 -117.625 -322.309c-22.8516 -41.4141 -52.0322 -86.3232 -93.8154 -110.742c-41.8008 -24.4277 -92.54 -23.3203 -134.788 -0.898438c-50.3096 26.7021 -71.4121 79.5684 -84.6523 131.653
c-14.2217 55.957 -22.1143 113.029 -26.7979 170.519c-9.61523 118.113 -1.95703 237.702 6.00879 355.72c5.2002 77.1064 8.82031 154.113 11.4902 231.207c-11.2393 -38.4971 -20.1816 -77.749 -28.6992 -116.728c-18.8838 -86.375 -34.6113 -173.393 -52.623 -259.945
c-29.9189 -143.804 -60.4844 -300.375 -142.601 -425.061c-37.8027 -57.4023 -86.9307 -106.166 -161.768 -96.9502c-73.6602 9.06836 -130.928 65.9414 -163.534 129.27c-33.4785 65.0254 -42.9902 142.861 -48.5508 214.785
c-5.96484 77.1455 -3.1084 154.847 0.243164 232.058c3.43359 79.0869 8.75586 158.052 11.6689 237.16c1.4502 39.4346 4.07617 78.8564 5.45703 118.321c1.38477 39.5654 2.22656 77.9062 16.7041 115.249c6.0166 15.5156 34.1475 19.9258 44.9785 7.24512
c28.834 -33.7568 40.5381 -71.9414 49.3809 -114.731c8.43945 -40.8369 14.4385 -83.2803 15.9971 -124.964c3.04785 -81.5869 1.10742 -162.943 -0.316406 -244.526c-1.28027 -73.209 -0.564453 -146.418 4.63574 -219.479
c4.63672 -65.1299 11.0225 -133.646 28.8428 -196.713c8.93848 -31.6377 38.8662 -108.289 83.8574 -92.3008c59.7168 21.2148 97.7061 97.3193 121 151.414c57.3066 133.077 83.0146 278.717 110.559 420.146c25.9336 133.159 45.9551 274.645 108.771 396.564
c7.11914 53.0615 116.624 60.0508 122.827 4.11523c13.418 -121.03 0.664062 -244.427 -8.97363 -365.375c-8.37402 -105.085 -15.9141 -209.706 -16.8994 -315.174c-0.503906 -53.7305 2.52637 -107.062 7.43164 -160.54
c4.00293 -43.6416 6.83301 -97.1982 32.5234 -134.597c9.1377 -13.3008 24.5576 -30.5049 42.4561 -28.6426c20.0254 2.08398 39.6426 24.2588 51.6846 38.4717c29.4629 34.7676 52.0928 75.1875 70.4688 116.724c37.7852 85.416 59.5947 176.749 92.2139 264.093
c6.71582 17.9854 49.7881 15.25 42.4434 -5.04004z" />
    <glyph glyph-name="V" unicode="V" horiz-adv-x="1053" 
d="M-19.8848 776.513c-2.32715 13.6699 -3.99512 27.7373 -8.59277 40.8955c-4.55371 13.0625 -3.76367 24.6797 -10.7227 37.1904c-9.60254 17.2646 21.8232 22.7432 32.0166 19.9609c13.7832 -3.75977 26.6543 -9.89355 39.0225 -16.9043
c13.2793 -7.53223 21.1719 -20.1777 29.542 -32.8584c36.8477 -55.8398 57.0293 -124.863 78.5869 -187.735c23.5508 -68.6719 46.3457 -137.496 66.7363 -207.176c38.6533 -132.101 70.8428 -265.959 112.192 -397.243c27.1494 -86.1924 75.7959 -271.697 202.548 -236.586
c119.038 32.9756 181.91 175.551 221.011 280.371c7.6748 20.5684 14.9893 41.2881 22.0303 62.1084c-55.6006 10.8828 -106.583 37.0293 -149.703 73.751c-103.366 88.0244 -144.129 225.355 -147.58 357.139c-3.45996 132.108 24.5791 274.375 127.129 366.198
c45.5557 40.7891 107.547 71.3418 169.737 70.2695c63.0723 -1.08496 113.086 -43.5674 136.021 -100.688c27.084 -67.4609 27.3838 -146.886 23.8066 -218.389c-3.80273 -76.0303 -15.502 -151.739 -29.5195 -226.489
c-18.4062 -98.1748 -41.7354 -196.991 -72.4531 -292.974c82.5205 -0.885742 165.874 33.9209 242.373 69.3965c19.8955 9.22949 52.3018 -12.5322 25.0654 -25.7119c-34.0088 -16.4619 -68.2471 -32.2852 -103.731 -45.3213
c-55.6836 -20.46 -115.383 -34.8418 -174.969 -32.5283c-12.4551 -36.4736 -26.0254 -72.4697 -40.8936 -107.785c-48.5898 -115.422 -127.537 -245.655 -261.317 -268.984c-32.7012 -5.7041 -65.4248 -3.87695 -97.1885 6.05078
c-31.46 9.83301 -66.5234 26.334 -92.4619 46.75c-56.6123 44.5615 -96.2383 108.484 -124.455 173.979c-30.5488 70.8994 -49.0029 146.348 -68.4297 220.872c-19.4912 74.7891 -37.7412 149.882 -57.9053 224.501c-20.9766 77.6318 -41.2061 155.546 -60.8711 233.521
c-9.60254 38.0762 -20.4424 75.7354 -27.0234 114.419zM697.601 201.057c25.5605 -14.8682 51.6143 -24.1758 77.8994 -29.168c31.6641 98.834 56.4609 200.068 75.2363 301.92c12.7764 69.3145 23.5117 139.323 27.0449 209.784
c3.30762 66.0244 4.02832 139.988 -18.7842 202.969c-9.79785 27.0498 -25.0957 52.7666 -48.542 70.1006c-27.7441 20.5117 -60.0547 20.2207 -92.1396 10.8525c-54.0293 -15.7715 -99.542 -54.1816 -131.948 -99.3027
c-74.1328 -103.231 -83.4746 -245.906 -66.9346 -368.152c16.0537 -118.687 71.3418 -236.864 178.168 -299.003z" />
    <glyph glyph-name="W" unicode="W" horiz-adv-x="1233" 
d="M1244.43 216.283c20.1387 9.97559 52.7246 -12.4326 25.415 -26.042c-38.6533 -19.2744 -81.1963 -29.8193 -124.412 -30.7266c-52.957 -1.11133 -105.333 10.1973 -153.411 31.4727c-18.5977 -68.624 -41.5576 -136.458 -73.5557 -199.048
c-46.502 -90.9512 -109.626 -184.567 -223.88 -183.513c-100.188 0.924805 -178.45 78.7041 -229.593 160.604c-20.2949 -34.5205 -45.2002 -66.0801 -76.209 -92.4873c-84.5127 -71.9805 -211.403 -19.3701 -272.431 58.4883
c-70.2266 89.6055 -84.9434 205.179 -93.6953 315.218c-9.27246 116.581 -19.3311 233.123 -26.6328 349.847c-3.72461 59.543 -12.207 120.553 -10.3096 180.126c0.928711 29.3027 2.02734 59.2002 0.204102 88.4814c-0.664062 10.6396 3.04297 34.8633 -7.72754 42.1348
c-27.249 18.3936 6.34277 43.5898 28.6211 39.1709c39.7861 -7.89258 65.8193 -35.8672 75.8867 -74.5381c52.041 -199.856 68.9971 -409.615 86.9131 -614.945c7.79199 -89.3447 13.9785 -182.267 45.6943 -267.01c13.6836 -36.5566 30.6357 -73.0439 68.9463 -88.29
c39.9814 -15.9141 75.9346 3.66406 102.129 33.8916c20.625 23.7979 37.4297 50.3652 51.4424 78.5088c-45.6074 91.3066 -67.6689 191.751 -75.4219 293.272c-8.50391 111.38 -8.97754 233.317 21.1807 341.646c8.15723 29.3027 19.0098 57.2598 32.7236 84.4004
c9.54199 18.875 19.8828 38.1367 37.0693 51.2168c33.0449 25.1436 76.7734 12.4414 90.7822 -25.917c17.3213 -47.4355 24.0283 -101.695 28.1523 -151.739c4.66699 -56.5996 3.04785 -113.247 -0.841797 -169.829c-6.38574 -92.7959 -16.874 -187.445 -36.7783 -278.757
c20.1992 -61.7783 47.9521 -121 84.1182 -175.182c19.209 -28.7812 46.3975 -63.7617 70.9902 -84.4121c14.7725 -12.4072 23.624 -15.4023 33.166 -14.2695c12.7891 1.51953 29.7627 8.77344 43.8145 17.4775c76.8291 47.6006 120.979 135.239 151.041 217.473
c10.9697 30.0098 20.8936 60.3936 30.0615 91.0068c-19.2529 11.7119 -37.5068 25.0957 -54.4463 40.0166c-71.2637 62.7725 -119.658 148.062 -152.568 236.191c-37.0771 99.3027 -62.1475 208 -45.751 314.145c13.6523 88.376 61.8037 188.282 147.857 226.44
c84.7471 37.5811 162.691 -12.168 199.66 -89.6738c43.9756 -92.1924 39.2305 -204.259 30.0059 -303.288c-10.7012 -114.884 -29.5898 -228.63 -54.8164 -341.178c-5.16602 -23.0469 -10.5879 -46.2627 -16.3916 -69.4785
c1.90527 -0.994141 3.77148 -2.04492 5.70312 -3.00391c73.8164 -36.626 162.167 -45.1211 237.294 -7.90039zM479.003 673.838c-1.54102 -49.1113 0.494141 -98.0156 3.57617 -147.053c5.54395 -88.2764 9.22559 -175.798 25.8047 -262.529
c11.9551 66.8965 20.6201 134.766 24.6621 202.001c2.99121 49.7754 3.21289 99.7852 -1.12402 149.491c-2.09668 24.0322 -5.27441 47.9824 -9.71094 71.6982c-4.15918 22.2266 -7.71875 46.8711 -18.4678 67.0576c-1.875 3.5293 -5.24805 10.2012 -9.26758 13.1709
c-0.672852 -0.37793 -1.49805 -1.15039 -2.0498 -2.74316c-3.12598 -9.04297 -7.68848 -15.8496 -9.28125 -25.8604c-3.39062 -21.3018 -3.46484 -43.6973 -4.1416 -65.2334zM832.187 399.769c32.0674 -56.4521 74.2529 -108.427 126.958 -146.455
c14.7686 53.8604 27.1279 108.397 37.3555 163.234c18.333 98.2998 33.4404 198.849 36.627 298.911c2.68262 84.2393 -1.49316 185.509 -56.252 254.706c-23.4551 29.6416 -57.5586 51.8418 -96.5898 41.5186c-41.748 -11.0391 -73.9941 -48.0947 -96.1387 -83.2363
c-50.3223 -79.8633 -57.168 -178.567 -42.6162 -269.744c14.3213 -89.748 45.7383 -179.856 90.6562 -258.935z" />
    <glyph glyph-name="X" unicode="X" horiz-adv-x="1108" 
d="M659.44 567.813c-25.6172 -77.2158 -48.7627 -155.198 -71.6797 -233.247c-8.31738 -28.3174 -16.1748 -56.752 -23.9717 -85.1689c9.82812 -25.3564 20.0732 -50.5566 31.082 -75.4707c22.8301 -51.6719 51.1641 -102.797 85.1416 -147.05
c19.3613 -25.2217 33.7002 -50.7998 59.6816 -70.4434c22.4912 -17.0039 55.9912 -30.0615 84.5078 -29.4062c68.5205 1.57617 133.729 44.7529 176.593 95.6006c47.001 55.7617 79.0947 121.842 110.516 187.115c7.81836 16.2441 48.5381 13.1533 40.0645 -4.75781
c-14.083 -29.7666 -28.2744 -59.4863 -43.7373 -88.5674c-31.4121 -59.0742 -69.748 -115.809 -120.839 -159.745c-48.8896 -42.0439 -107.052 -65.1816 -170.385 -73.6211c-35.502 -4.73145 -67.5049 -2.95605 -101.6 8.96875
c-35.6016 12.4502 -65.4902 31.7549 -96.334 52.8877c-45.1045 30.8955 -80.2109 72.4531 -109.475 118.147c-19.9775 -58.9697 -43.5283 -116.668 -74.4238 -171.892c-34.8418 -62.2822 -76.9072 -124.625 -139.48 -161.768
c-63.3018 -37.5723 -144.116 -35.3232 -203.146 9.5332c-56.8291 43.1807 -80.1797 109.504 -95.6475 176.648c-17.4639 75.8086 -21.8701 156.002 -24.4014 233.656c-5.02734 154.131 10.6748 308.357 51.1904 457.314c10.002 36.7695 21.5234 73.126 34.5381 108.94
c10.6787 29.3896 22.4824 59.2695 42.1221 83.9922c38.8223 48.877 101.156 57.2119 150.311 17.6943c24.0322 -19.3223 42.8252 -44.4443 63.9922 -66.667c21.3584 -22.418 40.9326 -46.4502 59.0527 -71.5459c36.8477 -51.0303 66.1592 -104.14 90.417 -162.185
c8.82129 -21.1064 17.1992 -42.3779 25.3174 -63.7451c4.92285 14.4951 9.93652 28.96 15.124 43.3809c26.9414 74.8623 55.8271 148.753 87.9258 221.554c31.2695 70.9121 62.6035 141.121 123.427 191.812c12.7803 10.6533 68.8936 9.98926 55.6357 -17.9502
c-14.6514 -30.8828 -26.0898 -64.3184 -35.3672 -97.1934c-21.5664 -76.4336 -51.125 -151.396 -76.1514 -226.823zM295.053 -138.646c32.5762 62.4248 54.4766 130.92 75.0664 198.051c18.9404 61.7354 36.5742 123.783 54.5293 185.714
c-18.9795 56.1953 -34.2041 113.828 -49.6543 171.049c-15.0244 55.666 -32.0029 110.815 -47.0273 166.421c-14.6035 54.0469 -34.2295 107.486 -61.5479 156.484c-14.0996 25.291 -39.6514 55.748 -66.0449 68.5068c-31.0039 14.9854 -54.1855 -8.37402 -70.2871 -33.1182
c-18.4844 -28.3994 -28.708 -62.0088 -39.3398 -93.9033c-11.626 -34.8809 -21.8447 -70.2217 -30.6533 -105.919c-36.083 -146.257 -47.3916 -299.26 -30.7822 -449.037c8.21777 -74.0723 25.6689 -147.324 45.4727 -219.131
c14.9121 -54.0645 45.4521 -134.384 110.147 -144.377c50.9346 -7.87012 90.9121 62.4385 110.121 99.2598z" />
    <glyph glyph-name="Y" unicode="Y" horiz-adv-x="895" 
d="M773.874 513.953c9.125 -80.8838 10.7764 -163.589 3.32227 -244.672c-1.97949 -21.5537 -4.28027 -43.1377 -6.99805 -64.6787c48.4902 6.60742 97.3711 10.1934 146.369 10.332c8.57812 0.0263672 22.3135 -2.5957 23.0859 -13.6572
c0.708008 -10.1191 -12.2412 -16.835 -20.9629 -16.7393c-36.7783 0.408203 -73.5215 -0.933594 -110.151 -4.30664c-14.1523 -1.30273 -28.248 -3 -42.3135 -4.89746c-17.0693 -117.08 -48.499 -231.863 -113.828 -332.286
c-78.7393 -121.039 -222.942 -206.06 -368.795 -204.71c-65.1387 0.598633 -146.335 13.5391 -188.044 69.5176c-40.0205 53.7129 -24.3623 125.415 10.9658 177.135c39.3389 57.5811 99.4629 102.395 158.016 138.726c64.3398 39.9209 133.516 72.7568 203.872 100.575
c48.877 19.3223 98.9521 35.9355 149.83 49.5361c22.7471 116.928 31.1172 238.184 27.501 356.18c-2.10547 68.7285 -5.43066 141.746 -21.4883 208.847c-6.1084 25.5303 -12.6855 51.8379 -26.0566 74.707c-13.3096 22.7695 -41.7656 47.3877 -68.3545 28.7207
c-25.8213 -18.124 -37.6074 -56.4434 -49.1113 -84.2441c-13.1621 -31.8115 -24.9268 -64.1396 -35.502 -96.8975c-20.7588 -64.335 -38.7617 -129.525 -59.7119 -193.8c-20.5635 -63.0977 -44.3525 -125.275 -74.957 -184.249
c-26.5029 -51.0693 -63.3115 -116.725 -121.152 -136.807c-67.999 -23.6113 -139.849 13.957 -171.986 74.9502c-32.4541 61.5918 -43.6416 138.347 -45.7861 207.093c-4.61035 147.75 16.2314 299.828 49.9922 443.098c5.80371 24.6318 62.8203 30.8223 70.6602 4.94043
c11.3301 -37.3984 18.6748 -73.6514 22.0908 -112.674c6.79395 -77.6016 -3.96777 -157.287 -5.75195 -235.036c-1.7627 -77.0547 2.99121 -154.431 19.6699 -229.818c6.39844 -28.9248 16.5439 -56.3691 30.7354 -82.3555
c1.91406 -3.50781 5.64746 -11.5732 7.07129 -13.6182c1.53223 -2.19629 3.8457 -4.61035 5.98145 -6.5332c0.490234 0.0263672 0.994141 0.0654297 1.60645 0.208984c10.9961 2.5957 19.5918 4.6709 28.6514 12.168c25.8906 21.4238 44.2793 54.8154 60.9102 83.4492
c18.2461 31.4209 33.6045 64.2002 47.3662 97.8096c54.9668 134.223 85.0859 277.788 144.959 410.105c11.999 26.5195 26.9238 54.2158 53.5693 68.5332c28.4209 15.2725 59.5986 11.418 88.9492 1.38965c60.0508 -20.5166 102.194 -68.9717 124.716 -127.286
c28.1699 -72.9307 42.3262 -151.349 51.0605 -228.755zM171.963 196.311c-3.85449 2.88672 -3.99414 -0.165039 0 0zM599.51 91.0684c4.4541 17.1348 8.5625 34.4131 12.3525 51.8037c-76.543 -21.7754 -151.011 -51.1738 -222.383 -86.124
c-63.4893 -31.0908 -125.685 -66.2451 -179.328 -112.699c-47.54 -41.167 -103.167 -103.762 -80.8408 -171.743c18.8711 -57.4766 94.9102 -65.291 145.84 -60.0293c49.4883 5.10938 100.18 29.8838 141.056 62.6113c47.9863 38.4189 82.2812 80.6016 114.84 136.984
c31.1562 53.96 52.4883 117.757 68.4639 179.196z" />
    <glyph glyph-name="Y" unicode="&#x178;" horiz-adv-x="895" 
d="M773.874 513.953c9.125 -80.8838 10.7764 -163.589 3.32227 -244.672c-1.97949 -21.5537 -4.28027 -43.1377 -6.99805 -64.6787c48.4902 6.60742 97.3711 10.1934 146.369 10.332c8.57812 0.0263672 22.3135 -2.5957 23.0859 -13.6572
c0.708008 -10.1191 -12.2412 -16.835 -20.9629 -16.7393c-36.7783 0.408203 -73.5215 -0.933594 -110.151 -4.30664c-14.1523 -1.30273 -28.248 -3 -42.3135 -4.89746c-17.0693 -117.08 -48.499 -231.863 -113.828 -332.286
c-78.7393 -121.039 -222.942 -206.06 -368.795 -204.71c-65.1387 0.598633 -146.335 13.5391 -188.044 69.5176c-40.0205 53.7129 -24.3623 125.415 10.9658 177.135c39.3389 57.5811 99.4629 102.395 158.016 138.726c64.3398 39.9209 133.516 72.7568 203.872 100.575
c48.877 19.3223 98.9521 35.9355 149.83 49.5361c22.7471 116.928 31.1172 238.184 27.501 356.18c-2.10547 68.7285 -5.43066 141.746 -21.4883 208.847c-6.1084 25.5303 -12.6855 51.8379 -26.0566 74.707c-13.3096 22.7695 -41.7656 47.3877 -68.3545 28.7207
c-25.8213 -18.124 -37.6074 -56.4434 -49.1113 -84.2441c-13.1621 -31.8115 -24.9268 -64.1396 -35.502 -96.8975c-20.7588 -64.335 -38.7617 -129.525 -59.7119 -193.8c-20.5635 -63.0977 -44.3525 -125.275 -74.957 -184.249
c-26.5029 -51.0693 -63.3115 -116.725 -121.152 -136.807c-67.999 -23.6113 -139.849 13.957 -171.986 74.9502c-32.4541 61.5918 -43.6416 138.347 -45.7861 207.093c-4.61035 147.75 16.2314 299.828 49.9922 443.098c5.80371 24.6318 62.8203 30.8223 70.6602 4.94043
c11.3301 -37.3984 18.6748 -73.6514 22.0908 -112.674c6.79395 -77.6016 -3.96777 -157.287 -5.75195 -235.036c-1.7627 -77.0547 2.99121 -154.431 19.6699 -229.818c6.39844 -28.9248 16.5439 -56.3691 30.7354 -82.3555
c1.91406 -3.50781 5.64746 -11.5732 7.07129 -13.6182c1.53223 -2.19629 3.8457 -4.61035 5.98145 -6.5332c0.490234 0.0263672 0.994141 0.0654297 1.60645 0.208984c10.9961 2.5957 19.5918 4.6709 28.6514 12.168c25.8906 21.4238 44.2793 54.8154 60.9102 83.4492
c18.2461 31.4209 33.6045 64.2002 47.3662 97.8096c54.9668 134.223 85.0859 277.788 144.959 410.105c11.999 26.5195 26.9238 54.2158 53.5693 68.5332c28.4209 15.2725 59.5986 11.418 88.9492 1.38965c60.0508 -20.5166 102.194 -68.9717 124.716 -127.286
c28.1699 -72.9307 42.3262 -151.349 51.0605 -228.755zM171.963 196.311c-3.85449 2.88672 -3.99414 -0.165039 0 0zM599.51 91.0684c4.4541 17.1348 8.5625 34.4131 12.3525 51.8037c-76.543 -21.7754 -151.011 -51.1738 -222.383 -86.124
c-63.4893 -31.0908 -125.685 -66.2451 -179.328 -112.699c-47.54 -41.167 -103.167 -103.762 -80.8408 -171.743c18.8711 -57.4766 94.9102 -65.291 145.84 -60.0293c49.4883 5.10938 100.18 29.8838 141.056 62.6113c47.9863 38.4189 82.2812 80.6016 114.84 136.984
c31.1562 53.96 52.4883 117.757 68.4639 179.196z" />
    <glyph glyph-name="Y" unicode="&#xdd;" horiz-adv-x="895" 
d="M773.874 513.953c9.125 -80.8838 10.7764 -163.589 3.32227 -244.672c-1.97949 -21.5537 -4.28027 -43.1377 -6.99805 -64.6787c48.4902 6.60742 97.3711 10.1934 146.369 10.332c8.57812 0.0263672 22.3135 -2.5957 23.0859 -13.6572
c0.708008 -10.1191 -12.2412 -16.835 -20.9629 -16.7393c-36.7783 0.408203 -73.5215 -0.933594 -110.151 -4.30664c-14.1523 -1.30273 -28.248 -3 -42.3135 -4.89746c-17.0693 -117.08 -48.499 -231.863 -113.828 -332.286
c-78.7393 -121.039 -222.942 -206.06 -368.795 -204.71c-65.1387 0.598633 -146.335 13.5391 -188.044 69.5176c-40.0205 53.7129 -24.3623 125.415 10.9658 177.135c39.3389 57.5811 99.4629 102.395 158.016 138.726c64.3398 39.9209 133.516 72.7568 203.872 100.575
c48.877 19.3223 98.9521 35.9355 149.83 49.5361c22.7471 116.928 31.1172 238.184 27.501 356.18c-2.10547 68.7285 -5.43066 141.746 -21.4883 208.847c-6.1084 25.5303 -12.6855 51.8379 -26.0566 74.707c-13.3096 22.7695 -41.7656 47.3877 -68.3545 28.7207
c-25.8213 -18.124 -37.6074 -56.4434 -49.1113 -84.2441c-13.1621 -31.8115 -24.9268 -64.1396 -35.502 -96.8975c-20.7588 -64.335 -38.7617 -129.525 -59.7119 -193.8c-20.5635 -63.0977 -44.3525 -125.275 -74.957 -184.249
c-26.5029 -51.0693 -63.3115 -116.725 -121.152 -136.807c-67.999 -23.6113 -139.849 13.957 -171.986 74.9502c-32.4541 61.5918 -43.6416 138.347 -45.7861 207.093c-4.61035 147.75 16.2314 299.828 49.9922 443.098c5.80371 24.6318 62.8203 30.8223 70.6602 4.94043
c11.3301 -37.3984 18.6748 -73.6514 22.0908 -112.674c6.79395 -77.6016 -3.96777 -157.287 -5.75195 -235.036c-1.7627 -77.0547 2.99121 -154.431 19.6699 -229.818c6.39844 -28.9248 16.5439 -56.3691 30.7354 -82.3555
c1.91406 -3.50781 5.64746 -11.5732 7.07129 -13.6182c1.53223 -2.19629 3.8457 -4.61035 5.98145 -6.5332c0.490234 0.0263672 0.994141 0.0654297 1.60645 0.208984c10.9961 2.5957 19.5918 4.6709 28.6514 12.168c25.8906 21.4238 44.2793 54.8154 60.9102 83.4492
c18.2461 31.4209 33.6045 64.2002 47.3662 97.8096c54.9668 134.223 85.0859 277.788 144.959 410.105c11.999 26.5195 26.9238 54.2158 53.5693 68.5332c28.4209 15.2725 59.5986 11.418 88.9492 1.38965c60.0508 -20.5166 102.194 -68.9717 124.716 -127.286
c28.1699 -72.9307 42.3262 -151.349 51.0605 -228.755zM171.963 196.311c-3.85449 2.88672 -3.99414 -0.165039 0 0zM599.51 91.0684c4.4541 17.1348 8.5625 34.4131 12.3525 51.8037c-76.543 -21.7754 -151.011 -51.1738 -222.383 -86.124
c-63.4893 -31.0908 -125.685 -66.2451 -179.328 -112.699c-47.54 -41.167 -103.167 -103.762 -80.8408 -171.743c18.8711 -57.4766 94.9102 -65.291 145.84 -60.0293c49.4883 5.10938 100.18 29.8838 141.056 62.6113c47.9863 38.4189 82.2812 80.6016 114.84 136.984
c31.1562 53.96 52.4883 117.757 68.4639 179.196z" />
    <glyph glyph-name="Z" unicode="Z" horiz-adv-x="908" 
d="M198.383 136.202c107.334 46.3418 218.724 88.4033 332.86 115.778c10.4014 29.333 19.6172 59.0869 27.4961 89.1445c-5.43945 -0.864258 -10.8828 -1.70605 -16.3184 -2.61816c-7.55762 -1.26367 -20.8066 -1.45898 -24.3711 7.63574
c-3.22949 8.23047 4.4541 15.8926 12.3242 17.3076c11.7686 2.11426 23.5547 4.09375 35.3496 6.0166c4.13672 17.6768 7.87012 35.4316 11.0996 53.2432c19.5654 107.898 17.5342 226.624 -37.2812 324.577c-24.0107 42.9033 -60.5547 83.2627 -107.044 101.877
c-48.334 19.3525 -107.877 20.6982 -159.011 14.0732c-97.5664 -12.6328 -189.854 -60.9707 -248.03 -140.621c-13.2314 -18.1152 -62.7285 -10.6445 -47.2178 15.3105c14.334 23.998 32.0801 43.1943 52.3838 62.2559c82.6553 77.5928 198.103 106.804 309.287 106.456
c64.1055 -0.199219 129.513 -11.4814 185.665 -43.9268c52.7529 -30.4785 93.7461 -77.9658 123.062 -130.854c58.0713 -104.765 66.4717 -227.835 50.6523 -344.837c17.6553 1.75391 35.332 3.2998 53.0391 4.59766c26.1426 1.91895 28.1094 -27.5225 2.03711 -29.1328
c-19.8604 -1.22461 -39.6953 -2.75293 -59.5039 -4.52832c-0.802734 -4.72754 -1.63184 -9.44629 -2.50879 -14.1475c-4.11133 -22.0654 -8.93848 -43.9834 -14.4131 -65.7285c93.0215 9.67188 189.086 3.00391 268.077 -49.6318
c23.4814 -15.6494 -13.8691 -35.9961 -30.873 -24.6523c-71.7852 47.8867 -159.802 53.0918 -245.713 42.5693c-25.7041 -90.2002 -63.3848 -176.827 -113.434 -256.413c-69.5879 -110.659 -165.47 -202.157 -281.98 -262.1
c-57.5762 -29.6191 -119.09 -51.0342 -182.947 -61.791c-62.8115 -10.5791 -129.738 -16.2832 -191.639 2.37012c-24.0322 7.24121 -52.1758 19.3184 -69.3623 38.2412c-17.0869 18.8057 -22.6914 50.1533 -23.0518 74.6592
c-0.889648 60.5195 30.3623 109.184 71.6377 151.097c89.3232 90.708 203.808 153.728 319.729 203.771zM270.386 -138.843c80.4062 64.8691 147.696 151.176 197.832 246.524c18.3154 34.833 34.751 70.8076 49.2764 107.577
c-122.88 -32.2852 -244.34 -78.5615 -358.498 -133.763c-98.4561 -47.6094 -205.964 -110.073 -270.43 -201.245c-16.4395 -23.2471 -27.5703 -49.6543 -26.0293 -78.6621c1.34961 -25.4082 12.4629 -38.792 32.5098 -51.1338
c18.4844 -11.3828 32.9834 -17.417 54.7803 -18.5371c0.912109 0.0605469 8.09277 -0.0214844 9.03027 0c5.03125 0.117188 10.0322 0.369141 15.0596 0.708008c9.26367 0.625 27.3789 2.61719 31.2773 3.22949c100.836 15.8145 186.621 61.917 265.191 125.302z" />
    <glyph glyph-name="bracketleft" unicode="[" horiz-adv-x="360" 
d="M301.321 -122.276c14.0869 -14.8027 9.12695 -34.1602 -5.38574 -46.5059c-40.8496 -34.79 -101.651 -34.2305 -148.439 -12.6162c-45.8809 21.1934 -72.1748 58.7354 -84.3037 106.887c-9.97168 39.582 -9.85059 81.1914 -11.0918 121.768
c-1.39746 45.5596 -1.89258 91.1416 -2.06152 136.724c-0.338867 92.1748 1.78809 184.328 5.02246 276.442c3.25586 92.7305 8.94727 189.464 27.5488 280.519c7.4541 36.5 16.1533 86.6357 48.7246 109.604c29.6104 20.876 62.6895 20.4854 95.9902 10.3184
c22.1572 -6.76367 3.16504 -28.3438 -13.1572 -25.3613c-5.17871 0.946289 -22.6738 6.15527 -27.5225 2.83887c-2.82129 -1.93164 -2.36523 -9.36816 -2.54785 -14.8037c-0.573242 -17.3252 -0.603516 -34.7285 -0.820312 -52.0713
c-0.516602 -41.6699 1.19824 -83.5791 2.49609 -125.232c4.69238 -150.667 1.55371 -301.868 2.10547 -452.613c0.264648 -71.7373 -0.912109 -144.59 5.96387 -216.066c1.41113 -14.6602 3.19531 -29.5586 8.06152 -43.4717
c4.28906 -12.2764 10.6875 -25.3477 16.2441 -31.7295c2.13184 -2.44434 4.49805 -4.87988 6.96777 -7.05078c0.412109 -0.291016 0.932617 -0.664062 1.72656 -1.2373c1.7666 -1.27637 3.72852 -2.375 5.68652 -3.41699
c0.308594 -0.125977 0.651367 -0.264648 1.05957 -0.429688c0.46875 -0.191406 0.87207 -0.356445 1.28027 -0.521484c1.43652 0.507812 3.06445 1.05078 3.22461 1.10254c19.626 6.46875 48.5029 2.39258 63.2275 -13.0752z" />
    <glyph glyph-name="backslash" unicode="\" horiz-adv-x="524" 
d="M472.655 -126.904c7.36719 -27.7227 -34.5381 -45.6328 -54.2471 -48.8584c-23.4814 -3.8418 -64.6133 0.672852 -74.8926 27.6309c-57.1113 149.812 -105.367 302.636 -156.584 454.522c-25.0703 74.3369 -49.0684 149.147 -73.1357 223.819
c-11.2002 34.751 -24.2236 68.7676 -36.1836 103.231c-11.2129 32.3027 -27.6699 66.0156 -27.6133 100.532c0.0302734 19.9043 30.9395 24.9834 44.4883 16.1494c63.8105 -41.6006 98.0537 -124.16 129.436 -190.879c33.5615 -71.3418 63.25 -145.389 91.5322 -218.966
c59.0518 -153.628 114.909 -308.011 157.2 -467.183z" />
    <glyph glyph-name="bracketright" unicode="]" horiz-adv-x="374" 
d="M277.577 753.379c50.4873 -177.069 48.2139 -363.812 44.4844 -546.478c-1.8623 -91.3115 -6.39453 -188.727 -31.79 -276.942c-12.1641 -42.2432 -34.3691 -78.1445 -73.4131 -100.115c-40.9717 -23.0557 -91.0156 -22.4873 -135.395 -11.0352
c-13.8916 3.58105 -26.4023 17.29 -22.1221 32.1494c4.81836 16.7354 25.1475 22.5049 39.9727 24.7012c30.501 4.52344 40.4209 9.97559 49.6895 38.8652c11.0918 34.5684 12.3203 72.458 15.415 108.697c6.60254 77.2158 8.27344 155.199 9.71875 232.666
c1.41992 76.2607 4.57617 152.517 4.25488 228.799c-0.321289 76.7686 -1.6709 153.771 -8.95996 230.244c-1.78809 18.7578 -3.79395 37.3809 -5.24414 56.1562c-0.951172 12.2461 -1.48047 25.6338 -9.00781 35.9355c-16.4873 22.5566 -58.292 22.5693 -82.7412 20.208
c-22.4873 -2.1709 -32.915 24.748 -8.05371 29.8486c48.6377 9.98047 91.4189 22.8867 139.215 0.304688c41.7354 -19.7178 61.874 -61.5527 73.9766 -104.005z" />
    <glyph glyph-name="asciicircum" unicode="^" horiz-adv-x="304" 
d="M253.487 545.24c5.34375 -24.1846 -31.75 -37.7598 -48.7754 -38.9492c-23.4375 -1.64062 -47.709 7.64551 -53.7305 31.7822c-2.93457 11.7559 -6.0127 28.8555 -11.7559 43.9971c-3.03027 -4.42773 -6.00781 -8.88574 -8.92969 -13.4004
c-10.9092 -16.8438 -20.1084 -34.6641 -36.1406 -47.2275c-10.7832 -8.45215 -30.1055 -8.1748 -37.7979 4.18848c-16.2139 26.0645 2.31836 60.6416 14.2646 84.9473c14.7686 30.0449 30.8955 54.9893 67.582 58.3662c68.4639 6.30371 103.067 -68.416 115.283 -123.704z
" />
    <glyph glyph-name="underscore" unicode="_" horiz-adv-x="495" 
d="M408.645 18.1328c17.6289 -1.31055 37.9336 -13.6885 36.1494 -33.2236c-1.87109 -20.4463 -26.6895 -29.8271 -44.1885 -31.3418c-49.9922 -4.33203 -100.284 -4.24121 -150.372 -7.49316c-50.1221 -3.25586 -99.9756 -8.98633 -149.989 -13.3926
c-18.5283 -1.63672 -43.7197 5.62207 -49.3672 25.5303c-5.33984 18.8232 14.7852 36.04 31.9805 38.9141c53.8604 8.99512 108.076 14.291 162.544 18.0244c54.2637 3.7207 108.923 7.02441 163.243 2.98242z" />
    <glyph glyph-name="grave" unicode="`" horiz-adv-x="203" 
d="M147.299 591.938c-1.48926 -26.0293 -0.875977 -52.0078 1.27246 -77.9717c3.75488 -45.3643 -95.1182 -52.0977 -97.6406 -6.82812c-1.75781 31.5859 -1.07227 63.0723 2.46582 94.5195c3.59473 31.9072 5.96973 64.3438 35.2158 82.5547
c20.2686 12.6152 57.8232 5.50488 63.1494 -20.0342c4.64453 -22.2783 -3.16504 -49.6016 -4.46289 -72.2402z" />
    <glyph glyph-name="a" unicode="a" horiz-adv-x="498" 
d="M482.148 214.741c2.44824 20.5117 46.2109 22.6055 44.0537 3.0791c-6.9502 -62.7461 -23.9453 -127.729 -59.1992 -180.929c-15.4062 -23.251 -37.2422 -44.4619 -65.377 -50.0186c-34.2207 -6.75879 -70.6641 6.66406 -96.2031 29.3984
c-29.498 26.2598 -39.2656 63.0078 -47.9043 100.029c-1.89258 8.10059 -3.52441 16.2188 -4.9873 24.3496c-0.889648 -4.33691 -1.77051 -8.67383 -2.73828 -12.9932c-8.61719 -38.4883 -20.8633 -80.8789 -49.2979 -109.708
c-27.3018 -27.6787 -69.5107 -42.1475 -107.66 -34.5459c-100.601 20.043 -119.38 149.799 -112.595 234.972c7.03711 88.3242 37.2861 188.612 124.504 229.041c36.0576 16.7129 72.9229 26.7803 112.401 16.6182c15.9492 -4.10645 27.9307 -11.9072 38.0762 -21.6963
c0.294922 1.42383 0.55957 2.85645 0.859375 4.28027c11.6338 54.8105 136.341 57.0938 140.469 -3.27344c3.89844 -56.9727 -1.90527 -114.119 -2.61328 -171.17c-0.69043 -55.7314 0.24707 -111.285 4.3623 -166.891c1.58887 -21.502 -0.816406 -47.4961 8.37402 -67.5869
c0.894531 -1.95312 1.86719 -5.61719 3.67773 -7.03223c0.603516 -0.473633 0.802734 -0.951172 0.841797 -1.32031c0.40332 0.907227 1.62793 2.88672 4.90137 6.61133c7.70117 8.76074 14.0088 19.0625 19.7432 29.1729c25.626 45.1611 40.1865 98.3047 46.3115 149.612z
M242.688 346.001c0.864258 13.5967 2.07617 27.1543 3.66504 40.6289c-15.2939 22.3525 -34.4561 51.5293 -61.1318 43.7803c-24.9922 -7.2627 -33.3877 -45.959 -41.1455 -67.3867c-21.4707 -59.3037 -28.7686 -128.492 -29.7979 -191.195
c-0.551758 -33.6221 2.12207 -69.0156 9.95801 -101.773c3.16016 -13.2061 7.74023 -26.2773 14.543 -38.0986c7.00195 -12.1641 12.6797 -7.75391 22.5381 1.09375c25.001 22.4346 35.5156 60.8271 43.4941 92.1357c8.79492 34.5166 14.6162 69.8447 19.8779 105.038
c5.77832 38.666 11.8389 77.2285 17.999 115.777z" />
    <glyph glyph-name="a" unicode="&#xe5;" horiz-adv-x="498" 
d="M482.148 214.741c2.44824 20.5117 46.2109 22.6055 44.0537 3.0791c-6.9502 -62.7461 -23.9453 -127.729 -59.1992 -180.929c-15.4062 -23.251 -37.2422 -44.4619 -65.377 -50.0186c-34.2207 -6.75879 -70.6641 6.66406 -96.2031 29.3984
c-29.498 26.2598 -39.2656 63.0078 -47.9043 100.029c-1.89258 8.10059 -3.52441 16.2188 -4.9873 24.3496c-0.889648 -4.33691 -1.77051 -8.67383 -2.73828 -12.9932c-8.61719 -38.4883 -20.8633 -80.8789 -49.2979 -109.708
c-27.3018 -27.6787 -69.5107 -42.1475 -107.66 -34.5459c-100.601 20.043 -119.38 149.799 -112.595 234.972c7.03711 88.3242 37.2861 188.612 124.504 229.041c36.0576 16.7129 72.9229 26.7803 112.401 16.6182c15.9492 -4.10645 27.9307 -11.9072 38.0762 -21.6963
c0.294922 1.42383 0.55957 2.85645 0.859375 4.28027c11.6338 54.8105 136.341 57.0938 140.469 -3.27344c3.89844 -56.9727 -1.90527 -114.119 -2.61328 -171.17c-0.69043 -55.7314 0.24707 -111.285 4.3623 -166.891c1.58887 -21.502 -0.816406 -47.4961 8.37402 -67.5869
c0.894531 -1.95312 1.86719 -5.61719 3.67773 -7.03223c0.603516 -0.473633 0.802734 -0.951172 0.841797 -1.32031c0.40332 0.907227 1.62793 2.88672 4.90137 6.61133c7.70117 8.76074 14.0088 19.0625 19.7432 29.1729c25.626 45.1611 40.1865 98.3047 46.3115 149.612z
M242.688 346.001c0.864258 13.5967 2.07617 27.1543 3.66504 40.6289c-15.2939 22.3525 -34.4561 51.5293 -61.1318 43.7803c-24.9922 -7.2627 -33.3877 -45.959 -41.1455 -67.3867c-21.4707 -59.3037 -28.7686 -128.492 -29.7979 -191.195
c-0.551758 -33.6221 2.12207 -69.0156 9.95801 -101.773c3.16016 -13.2061 7.74023 -26.2773 14.543 -38.0986c7.00195 -12.1641 12.6797 -7.75391 22.5381 1.09375c25.001 22.4346 35.5156 60.8271 43.4941 92.1357c8.79492 34.5166 14.6162 69.8447 19.8779 105.038
c5.77832 38.666 11.8389 77.2285 17.999 115.777z" />
    <glyph glyph-name="a" unicode="&#xe4;" horiz-adv-x="498" 
d="M482.148 214.741c2.44824 20.5117 46.2109 22.6055 44.0537 3.0791c-6.9502 -62.7461 -23.9453 -127.729 -59.1992 -180.929c-15.4062 -23.251 -37.2422 -44.4619 -65.377 -50.0186c-34.2207 -6.75879 -70.6641 6.66406 -96.2031 29.3984
c-29.498 26.2598 -39.2656 63.0078 -47.9043 100.029c-1.89258 8.10059 -3.52441 16.2188 -4.9873 24.3496c-0.889648 -4.33691 -1.77051 -8.67383 -2.73828 -12.9932c-8.61719 -38.4883 -20.8633 -80.8789 -49.2979 -109.708
c-27.3018 -27.6787 -69.5107 -42.1475 -107.66 -34.5459c-100.601 20.043 -119.38 149.799 -112.595 234.972c7.03711 88.3242 37.2861 188.612 124.504 229.041c36.0576 16.7129 72.9229 26.7803 112.401 16.6182c15.9492 -4.10645 27.9307 -11.9072 38.0762 -21.6963
c0.294922 1.42383 0.55957 2.85645 0.859375 4.28027c11.6338 54.8105 136.341 57.0938 140.469 -3.27344c3.89844 -56.9727 -1.90527 -114.119 -2.61328 -171.17c-0.69043 -55.7314 0.24707 -111.285 4.3623 -166.891c1.58887 -21.502 -0.816406 -47.4961 8.37402 -67.5869
c0.894531 -1.95312 1.86719 -5.61719 3.67773 -7.03223c0.603516 -0.473633 0.802734 -0.951172 0.841797 -1.32031c0.40332 0.907227 1.62793 2.88672 4.90137 6.61133c7.70117 8.76074 14.0088 19.0625 19.7432 29.1729c25.626 45.1611 40.1865 98.3047 46.3115 149.612z
M242.688 346.001c0.864258 13.5967 2.07617 27.1543 3.66504 40.6289c-15.2939 22.3525 -34.4561 51.5293 -61.1318 43.7803c-24.9922 -7.2627 -33.3877 -45.959 -41.1455 -67.3867c-21.4707 -59.3037 -28.7686 -128.492 -29.7979 -191.195
c-0.551758 -33.6221 2.12207 -69.0156 9.95801 -101.773c3.16016 -13.2061 7.74023 -26.2773 14.543 -38.0986c7.00195 -12.1641 12.6797 -7.75391 22.5381 1.09375c25.001 22.4346 35.5156 60.8271 43.4941 92.1357c8.79492 34.5166 14.6162 69.8447 19.8779 105.038
c5.77832 38.666 11.8389 77.2285 17.999 115.777z" />
    <glyph glyph-name="a" unicode="&#xe3;" horiz-adv-x="498" 
d="M482.148 214.741c2.44824 20.5117 46.2109 22.6055 44.0537 3.0791c-6.9502 -62.7461 -23.9453 -127.729 -59.1992 -180.929c-15.4062 -23.251 -37.2422 -44.4619 -65.377 -50.0186c-34.2207 -6.75879 -70.6641 6.66406 -96.2031 29.3984
c-29.498 26.2598 -39.2656 63.0078 -47.9043 100.029c-1.89258 8.10059 -3.52441 16.2188 -4.9873 24.3496c-0.889648 -4.33691 -1.77051 -8.67383 -2.73828 -12.9932c-8.61719 -38.4883 -20.8633 -80.8789 -49.2979 -109.708
c-27.3018 -27.6787 -69.5107 -42.1475 -107.66 -34.5459c-100.601 20.043 -119.38 149.799 -112.595 234.972c7.03711 88.3242 37.2861 188.612 124.504 229.041c36.0576 16.7129 72.9229 26.7803 112.401 16.6182c15.9492 -4.10645 27.9307 -11.9072 38.0762 -21.6963
c0.294922 1.42383 0.55957 2.85645 0.859375 4.28027c11.6338 54.8105 136.341 57.0938 140.469 -3.27344c3.89844 -56.9727 -1.90527 -114.119 -2.61328 -171.17c-0.69043 -55.7314 0.24707 -111.285 4.3623 -166.891c1.58887 -21.502 -0.816406 -47.4961 8.37402 -67.5869
c0.894531 -1.95312 1.86719 -5.61719 3.67773 -7.03223c0.603516 -0.473633 0.802734 -0.951172 0.841797 -1.32031c0.40332 0.907227 1.62793 2.88672 4.90137 6.61133c7.70117 8.76074 14.0088 19.0625 19.7432 29.1729c25.626 45.1611 40.1865 98.3047 46.3115 149.612z
M242.688 346.001c0.864258 13.5967 2.07617 27.1543 3.66504 40.6289c-15.2939 22.3525 -34.4561 51.5293 -61.1318 43.7803c-24.9922 -7.2627 -33.3877 -45.959 -41.1455 -67.3867c-21.4707 -59.3037 -28.7686 -128.492 -29.7979 -191.195
c-0.551758 -33.6221 2.12207 -69.0156 9.95801 -101.773c3.16016 -13.2061 7.74023 -26.2773 14.543 -38.0986c7.00195 -12.1641 12.6797 -7.75391 22.5381 1.09375c25.001 22.4346 35.5156 60.8271 43.4941 92.1357c8.79492 34.5166 14.6162 69.8447 19.8779 105.038
c5.77832 38.666 11.8389 77.2285 17.999 115.777z" />
    <glyph glyph-name="a" unicode="&#xe2;" horiz-adv-x="498" 
d="M482.148 214.741c2.44824 20.5117 46.2109 22.6055 44.0537 3.0791c-6.9502 -62.7461 -23.9453 -127.729 -59.1992 -180.929c-15.4062 -23.251 -37.2422 -44.4619 -65.377 -50.0186c-34.2207 -6.75879 -70.6641 6.66406 -96.2031 29.3984
c-29.498 26.2598 -39.2656 63.0078 -47.9043 100.029c-1.89258 8.10059 -3.52441 16.2188 -4.9873 24.3496c-0.889648 -4.33691 -1.77051 -8.67383 -2.73828 -12.9932c-8.61719 -38.4883 -20.8633 -80.8789 -49.2979 -109.708
c-27.3018 -27.6787 -69.5107 -42.1475 -107.66 -34.5459c-100.601 20.043 -119.38 149.799 -112.595 234.972c7.03711 88.3242 37.2861 188.612 124.504 229.041c36.0576 16.7129 72.9229 26.7803 112.401 16.6182c15.9492 -4.10645 27.9307 -11.9072 38.0762 -21.6963
c0.294922 1.42383 0.55957 2.85645 0.859375 4.28027c11.6338 54.8105 136.341 57.0938 140.469 -3.27344c3.89844 -56.9727 -1.90527 -114.119 -2.61328 -171.17c-0.69043 -55.7314 0.24707 -111.285 4.3623 -166.891c1.58887 -21.502 -0.816406 -47.4961 8.37402 -67.5869
c0.894531 -1.95312 1.86719 -5.61719 3.67773 -7.03223c0.603516 -0.473633 0.802734 -0.951172 0.841797 -1.32031c0.40332 0.907227 1.62793 2.88672 4.90137 6.61133c7.70117 8.76074 14.0088 19.0625 19.7432 29.1729c25.626 45.1611 40.1865 98.3047 46.3115 149.612z
M242.688 346.001c0.864258 13.5967 2.07617 27.1543 3.66504 40.6289c-15.2939 22.3525 -34.4561 51.5293 -61.1318 43.7803c-24.9922 -7.2627 -33.3877 -45.959 -41.1455 -67.3867c-21.4707 -59.3037 -28.7686 -128.492 -29.7979 -191.195
c-0.551758 -33.6221 2.12207 -69.0156 9.95801 -101.773c3.16016 -13.2061 7.74023 -26.2773 14.543 -38.0986c7.00195 -12.1641 12.6797 -7.75391 22.5381 1.09375c25.001 22.4346 35.5156 60.8271 43.4941 92.1357c8.79492 34.5166 14.6162 69.8447 19.8779 105.038
c5.77832 38.666 11.8389 77.2285 17.999 115.777z" />
    <glyph glyph-name="a" unicode="&#xe1;" horiz-adv-x="498" 
d="M482.148 214.741c2.44824 20.5117 46.2109 22.6055 44.0537 3.0791c-6.9502 -62.7461 -23.9453 -127.729 -59.1992 -180.929c-15.4062 -23.251 -37.2422 -44.4619 -65.377 -50.0186c-34.2207 -6.75879 -70.6641 6.66406 -96.2031 29.3984
c-29.498 26.2598 -39.2656 63.0078 -47.9043 100.029c-1.89258 8.10059 -3.52441 16.2188 -4.9873 24.3496c-0.889648 -4.33691 -1.77051 -8.67383 -2.73828 -12.9932c-8.61719 -38.4883 -20.8633 -80.8789 -49.2979 -109.708
c-27.3018 -27.6787 -69.5107 -42.1475 -107.66 -34.5459c-100.601 20.043 -119.38 149.799 -112.595 234.972c7.03711 88.3242 37.2861 188.612 124.504 229.041c36.0576 16.7129 72.9229 26.7803 112.401 16.6182c15.9492 -4.10645 27.9307 -11.9072 38.0762 -21.6963
c0.294922 1.42383 0.55957 2.85645 0.859375 4.28027c11.6338 54.8105 136.341 57.0938 140.469 -3.27344c3.89844 -56.9727 -1.90527 -114.119 -2.61328 -171.17c-0.69043 -55.7314 0.24707 -111.285 4.3623 -166.891c1.58887 -21.502 -0.816406 -47.4961 8.37402 -67.5869
c0.894531 -1.95312 1.86719 -5.61719 3.67773 -7.03223c0.603516 -0.473633 0.802734 -0.951172 0.841797 -1.32031c0.40332 0.907227 1.62793 2.88672 4.90137 6.61133c7.70117 8.76074 14.0088 19.0625 19.7432 29.1729c25.626 45.1611 40.1865 98.3047 46.3115 149.612z
M242.688 346.001c0.864258 13.5967 2.07617 27.1543 3.66504 40.6289c-15.2939 22.3525 -34.4561 51.5293 -61.1318 43.7803c-24.9922 -7.2627 -33.3877 -45.959 -41.1455 -67.3867c-21.4707 -59.3037 -28.7686 -128.492 -29.7979 -191.195
c-0.551758 -33.6221 2.12207 -69.0156 9.95801 -101.773c3.16016 -13.2061 7.74023 -26.2773 14.543 -38.0986c7.00195 -12.1641 12.6797 -7.75391 22.5381 1.09375c25.001 22.4346 35.5156 60.8271 43.4941 92.1357c8.79492 34.5166 14.6162 69.8447 19.8779 105.038
c5.77832 38.666 11.8389 77.2285 17.999 115.777z" />
    <glyph glyph-name="b" unicode="b" horiz-adv-x="471" 
d="M406.149 250.43c9.77148 -96.0127 9.88281 -231.821 -95.4023 -276.109c-45.708 -19.2314 -105.902 -19.2188 -137.028 25.082c-24.8398 35.3545 -20.3203 89.4707 -12.3193 129.452c8.92578 44.6006 29.3203 85.8711 54.8369 123.261
c17.7549 26.0117 37.2598 53.3779 62.1777 73.4033c-0.998047 13.21 -2.52637 26.416 -4.80957 39.7998c-4.45801 26.125 -15.3584 66.4932 -40.6279 79.9111c-32.5762 17.2998 -71.1729 -8.39941 -93.5381 -31.1514c-9.86719 -10.041 -18.1455 -21.2412 -25.1914 -33.1748
c0.907227 -60.6543 2.6875 -121.304 3.95508 -181.944c1.57617 -75.3008 9.96777 -156.527 -7.64844 -230.4c-6.96289 -29.1982 -69.8525 -34.043 -80.6445 -5.63867c-27.4014 72.1064 -29.4199 155.447 -35.7705 231.639
c-6.37305 76.4648 -9.85449 153.038 -11.6348 229.746c-3.57227 154.105 -3.5459 314.488 32.3809 465.207c6.0127 25.2305 40.8457 33.9297 62.5557 33.6123c18.9922 -0.282227 54.7412 -10.9443 53.834 -36.3271c-2.71289 -76.0342 -9.5332 -151.908 -13.1055 -227.926
c-3.45117 -73.4385 -4.71484 -147.072 -4.4541 -220.598c39.0176 37.7891 91.6582 57.3506 147.745 32.8193c44.2275 -19.3486 78.1748 -46.4541 104.36 -87.334c24.6963 -38.5488 35.749 -88.333 40.3291 -133.329zM222.9 25.5107
c-1.22461 -0.0693359 -1.62793 -0.699219 0 0zM279.864 270.358c0.0478516 2.87402 0.0595703 5.72559 0.0722656 8.58203c-11.2734 -13.249 -21.2578 -27.6836 -30.4258 -41.3447c-22.3135 -33.249 -40.7803 -70.1963 -48.4854 -109.774
c-6.56836 -33.7432 -5.88672 -78.6045 22.9727 -101.786c0.538086 0.282227 1.20215 0.660156 1.98828 1.13379c-2.02734 -1.16797 5.00977 3.85059 3.56836 2.37012c9.24707 8.28711 16.2363 18.5195 20.6338 27.9961c29.3281 63.207 28.5947 144.659 29.6758 212.823z" />
    <glyph glyph-name="c" unicode="c" horiz-adv-x="371" 
d="M363.828 213.092c5.60449 15.7188 43.0254 13.6982 37.0869 -4.39941c-27.1836 -82.8809 -66.2793 -175.524 -143.764 -223.429c-35.8096 -22.1396 -77.2588 -38.6094 -120.058 -33.1875c-42.1787 5.34863 -83.9834 32.9756 -109.136 66.5586
c-56.1523 74.9756 -59.7031 181.567 -36.5039 269.609c21.875 83.0156 81.626 177.439 178.516 173.546c94.7275 -3.81152 108.424 -107.634 106.01 -182.631c-0.646484 -20.0996 -42.543 -23.3164 -43.4414 -3.03906c-1.70996 38.4453 -5.33887 79.6514 -24.7178 113.824
c-5.96484 10.5186 -15.2676 24.8096 -28.9072 19.249c-8.01758 -3.26855 -14.8721 -12.4932 -19.2656 -19.5254c-14.2129 -22.7432 -21.0498 -53.5176 -26.624 -79.3428c-6.46777 -29.9844 -11.7334 -60.2725 -14.0859 -90.8818
c-4.69238 -60.9932 -0.724609 -125.255 27.3232 -180.652c9.91504 -19.5869 27.4014 -38.5879 50.7783 -40.042c30.1191 -1.875 59.5254 28.1523 77.9619 48.9199c42.1562 47.4834 67.7207 106.228 88.8271 165.423z" />
    <glyph glyph-name="d" unicode="d" horiz-adv-x="570" 
d="M560.421 219.59c5.19238 16.5312 43.9854 14.2744 38.2852 -4.54395c-22.8037 -75.2578 -47.1357 -158.187 -103.05 -216.401c-21.3623 -22.2441 -50.3047 -29.8545 -80.1934 -22.6963c-16.9395 4.05859 -36.0928 4.59277 -51.1562 14.0088
c-14.4209 9.01172 -27.3057 21.458 -37.707 34.8291c-40.3506 51.8809 -55.1494 119.398 -62.3213 185.184c-3.85938 -27.6182 -8.40039 -55.1406 -14.4824 -82.3203c-8.61719 -38.4883 -20.8633 -80.8789 -49.2979 -109.708
c-27.3018 -27.6787 -69.5107 -42.1475 -107.66 -34.5459c-100.601 20.043 -119.385 149.799 -112.596 234.972c7.03711 88.3242 37.2861 188.612 124.504 229.041c36.0576 16.7129 72.9229 26.7803 112.401 16.6182c15.585 -4.01074 27.3887 -11.5508 37.3867 -21.0234
c0.0390625 24.8223 0.277344 49.6533 0.664062 74.4971c1.34961 86.835 1.60156 174.078 16.3311 259.867c4.85352 28.2646 47.3574 38.3057 70.3223 37.7852c23.7891 -0.538086 58.5742 -12.0293 60.5146 -40.833c5.52148 -82.082 -1.07715 -164.546 -2.70117 -246.715
c-1.44141 -73.0176 -2.55273 -146.195 -1.5498 -219.222c0.963867 -70.2305 0.74707 -142.983 11.3789 -212.532c4.60547 -30.127 9.7627 -56.8164 20.8799 -84.9551c2.46582 -6.24219 -1.12402 -7.21484 9.38184 -7.50586
c7.84473 -0.212891 13.5791 3.26465 19.4004 8.2959c10.9785 9.48926 19.7949 22.5557 27.9131 34.4941c35.5664 52.2979 54.5723 113.62 73.3516 173.41zM224.701 230.227c7.63574 51.1162 15.7695 102.061 23.9873 153.025
c-15.6719 22.6387 -35.4111 55.3096 -63.459 47.1611c-24.9873 -7.2627 -33.3828 -45.959 -41.1406 -67.3867c-21.4707 -59.3037 -28.7686 -128.492 -29.7979 -191.195c-0.551758 -33.6221 2.12207 -69.0156 9.95801 -101.773
c3.16016 -13.2061 7.74023 -26.2773 14.543 -38.0986c7.00195 -12.1641 12.6797 -7.75391 22.5381 1.09375c25 22.4346 35.5146 60.8271 43.4932 92.1357c8.79492 34.5166 14.6162 69.8447 19.8779 105.038z" />
    <glyph glyph-name="e" unicode="e" horiz-adv-x="337" 
d="M329.607 220.224c4.4541 16.1357 41.8242 14.1943 37.0967 -4.40332c-12.377 -48.6592 -32.0898 -95.0566 -59.0742 -137.443c-24.2627 -38.1191 -55.2061 -75.6914 -97.9531 -93.5156c-40.1553 -16.7441 -82.7109 -25.0615 -124.929 -10.1191
c-41.3271 14.6299 -72.1582 51.9502 -87.7383 92.0273c-17.5859 45.2432 -19.9736 95.7607 -16.8389 143.786c3.18652 48.7637 9.42871 99.7803 33.1699 143.191c21.4014 39.1348 51.4414 79.7549 93.7285 97.6924c35.1328 14.9033 85.0986 12.6152 109.335 -20.8809
c23.5459 -32.5449 10.5918 -72.7266 -14.9082 -99.8799c-20.2646 -21.5801 -46.1338 -35.5283 -74.1943 -42.7256c-1.05078 -6.71582 -2.12305 -13.4102 -3.29102 -20.0127c-7.06738 -39.9727 -11.3301 -81.9473 -10.4355 -122.532
c1.00293 -45.6426 13.7402 -171.596 88.3252 -128.449c34.5117 19.9648 59.2217 55.71 79.4297 89.1367c21.5234 35.6016 37.2295 74.0811 48.2773 114.128zM144.791 376.725c-5.25684 -17.1689 -8.82812 -35.1172 -11.8623 -53.1934
c25.4043 11.7773 48.0908 32.8574 50.1445 60.0801c0.772461 10.2236 -3.18262 17.2129 -7.22461 26.1074c-4.68848 1.44531 -6.65918 2.72168 -6.02148 3.83691c-2.17969 -1.1377 -4.35059 -2.29199 -6.56055 -3.36426
c-10.2627 -7.875 -14.8467 -21.6064 -18.4756 -33.4668z" />
    <glyph glyph-name="e" unicode="&#xeb;" horiz-adv-x="337" 
d="M329.607 220.224c4.4541 16.1357 41.8242 14.1943 37.0967 -4.40332c-12.377 -48.6592 -32.0898 -95.0566 -59.0742 -137.443c-24.2627 -38.1191 -55.2061 -75.6914 -97.9531 -93.5156c-40.1553 -16.7441 -82.7109 -25.0615 -124.929 -10.1191
c-41.3271 14.6299 -72.1582 51.9502 -87.7383 92.0273c-17.5859 45.2432 -19.9736 95.7607 -16.8389 143.786c3.18652 48.7637 9.42871 99.7803 33.1699 143.191c21.4014 39.1348 51.4414 79.7549 93.7285 97.6924c35.1328 14.9033 85.0986 12.6152 109.335 -20.8809
c23.5459 -32.5449 10.5918 -72.7266 -14.9082 -99.8799c-20.2646 -21.5801 -46.1338 -35.5283 -74.1943 -42.7256c-1.05078 -6.71582 -2.12305 -13.4102 -3.29102 -20.0127c-7.06738 -39.9727 -11.3301 -81.9473 -10.4355 -122.532
c1.00293 -45.6426 13.7402 -171.596 88.3252 -128.449c34.5117 19.9648 59.2217 55.71 79.4297 89.1367c21.5234 35.6016 37.2295 74.0811 48.2773 114.128zM144.791 376.725c-5.25684 -17.1689 -8.82812 -35.1172 -11.8623 -53.1934
c25.4043 11.7773 48.0908 32.8574 50.1445 60.0801c0.772461 10.2236 -3.18262 17.2129 -7.22461 26.1074c-4.68848 1.44531 -6.65918 2.72168 -6.02148 3.83691c-2.17969 -1.1377 -4.35059 -2.29199 -6.56055 -3.36426
c-10.2627 -7.875 -14.8467 -21.6064 -18.4756 -33.4668z" />
    <glyph glyph-name="e" unicode="&#xea;" horiz-adv-x="337" 
d="M329.607 220.224c4.4541 16.1357 41.8242 14.1943 37.0967 -4.40332c-12.377 -48.6592 -32.0898 -95.0566 -59.0742 -137.443c-24.2627 -38.1191 -55.2061 -75.6914 -97.9531 -93.5156c-40.1553 -16.7441 -82.7109 -25.0615 -124.929 -10.1191
c-41.3271 14.6299 -72.1582 51.9502 -87.7383 92.0273c-17.5859 45.2432 -19.9736 95.7607 -16.8389 143.786c3.18652 48.7637 9.42871 99.7803 33.1699 143.191c21.4014 39.1348 51.4414 79.7549 93.7285 97.6924c35.1328 14.9033 85.0986 12.6152 109.335 -20.8809
c23.5459 -32.5449 10.5918 -72.7266 -14.9082 -99.8799c-20.2646 -21.5801 -46.1338 -35.5283 -74.1943 -42.7256c-1.05078 -6.71582 -2.12305 -13.4102 -3.29102 -20.0127c-7.06738 -39.9727 -11.3301 -81.9473 -10.4355 -122.532
c1.00293 -45.6426 13.7402 -171.596 88.3252 -128.449c34.5117 19.9648 59.2217 55.71 79.4297 89.1367c21.5234 35.6016 37.2295 74.0811 48.2773 114.128zM144.791 376.725c-5.25684 -17.1689 -8.82812 -35.1172 -11.8623 -53.1934
c25.4043 11.7773 48.0908 32.8574 50.1445 60.0801c0.772461 10.2236 -3.18262 17.2129 -7.22461 26.1074c-4.68848 1.44531 -6.65918 2.72168 -6.02148 3.83691c-2.17969 -1.1377 -4.35059 -2.29199 -6.56055 -3.36426
c-10.2627 -7.875 -14.8467 -21.6064 -18.4756 -33.4668z" />
    <glyph glyph-name="e" unicode="&#xe9;" horiz-adv-x="337" 
d="M329.607 220.224c4.4541 16.1357 41.8242 14.1943 37.0967 -4.40332c-12.377 -48.6592 -32.0898 -95.0566 -59.0742 -137.443c-24.2627 -38.1191 -55.2061 -75.6914 -97.9531 -93.5156c-40.1553 -16.7441 -82.7109 -25.0615 -124.929 -10.1191
c-41.3271 14.6299 -72.1582 51.9502 -87.7383 92.0273c-17.5859 45.2432 -19.9736 95.7607 -16.8389 143.786c3.18652 48.7637 9.42871 99.7803 33.1699 143.191c21.4014 39.1348 51.4414 79.7549 93.7285 97.6924c35.1328 14.9033 85.0986 12.6152 109.335 -20.8809
c23.5459 -32.5449 10.5918 -72.7266 -14.9082 -99.8799c-20.2646 -21.5801 -46.1338 -35.5283 -74.1943 -42.7256c-1.05078 -6.71582 -2.12305 -13.4102 -3.29102 -20.0127c-7.06738 -39.9727 -11.3301 -81.9473 -10.4355 -122.532
c1.00293 -45.6426 13.7402 -171.596 88.3252 -128.449c34.5117 19.9648 59.2217 55.71 79.4297 89.1367c21.5234 35.6016 37.2295 74.0811 48.2773 114.128zM144.791 376.725c-5.25684 -17.1689 -8.82812 -35.1172 -11.8623 -53.1934
c25.4043 11.7773 48.0908 32.8574 50.1445 60.0801c0.772461 10.2236 -3.18262 17.2129 -7.22461 26.1074c-4.68848 1.44531 -6.65918 2.72168 -6.02148 3.83691c-2.17969 -1.1377 -4.35059 -2.29199 -6.56055 -3.36426
c-10.2627 -7.875 -14.8467 -21.6064 -18.4756 -33.4668z" />
    <glyph glyph-name="f" unicode="f" horiz-adv-x="251" 
d="M260.821 229.81c9.94531 -0.216797 25.3203 -3.37988 24.0918 -16.5684c-1.21582 -13.0801 -17.9814 -15.6152 -28.0742 -15.3633c-44.6875 1.11133 -89.3486 1.75391 -133.992 1.4541c3.44727 -50.4658 7.48926 -100.896 10.0244 -151.418
c2.27051 -45.1865 4.92773 -89.0234 -1.30176 -133.976c-3.8418 -27.7314 -47.1787 -37.5859 -69.0273 -37.0908c-25.0225 0.564453 -55.4844 11.8555 -59.4043 40.0811c-7.84863 56.4912 -9.37207 114.515 -11.7861 171.496
c-1.49805 35.376 -3.13867 70.8125 -4.42773 106.267c-7.94434 -0.520508 -15.8926 -1.00684 -23.8369 -1.63184c-28.0605 -2.20996 -30.04 28.9639 -2.18262 31.2344c8.33105 0.676758 16.666 1.21094 24.9971 1.77539c-2.45703 85.1338 -1.92285 170.298 8.92969 254.906
c7.21484 56.2734 17.4814 121.842 51.5938 168.787c37.7285 51.9238 129.005 88.6367 182.118 38.4443c16.748 -15.8232 -21.6104 -27.7139 -34.4082 -16.7568c-13.4961 11.5518 -37.2549 14.916 -52.5615 3.86816c-12.2852 -8.86914 -17.2432 -31.0352 -20.8242 -44.8877
c-7.12402 -27.5576 -11.6387 -54.75 -12.7324 -83.1758c-4.0498 -105.138 5.70508 -211.309 12.6943 -316.264c46.6758 0.442383 93.3779 -0.152344 140.11 -1.18164z" />
    <glyph glyph-name="g" unicode="g" horiz-adv-x="511" 
d="M523.485 234.685c26.9365 2.37012 28.7822 -27.6221 2.09766 -29.9834c-39.4395 -3.47266 -79.0869 -10.9482 -117.293 -22.8604c-0.577148 -36.8955 -2.42676 -73.7471 -6.72461 -110.525c-10.1191 -86.6357 -37.1992 -194.985 -128.905 -228.659
c-36.9512 -13.5703 -75.1055 -11.8037 -106.86 13.2754c-30.1621 23.8193 -45 60.7363 -42.3906 98.8164c5.78711 84.4824 73.791 153.802 141.647 196.661c6.80273 4.29785 13.748 8.36133 20.7549 12.3164c-4.21973 36.6777 -9.25098 73.4033 -12.9883 110.129
c-17.0088 -47.3184 -37.5381 -93.4258 -67.2832 -131.901c-44.54 -57.6113 -127.299 -85.7373 -187.284 -32.8281c-60.3936 53.2695 -42.3174 166.364 -21.793 233.843c24.5928 80.8623 95.3789 140.913 180.76 146.105c40.6152 2.46973 82.3164 -9.3252 110.117 -35.2891
c12.3291 10.5449 29.6543 16.0625 47.3008 17.8467c24.7227 2.5 71.8457 -9.97168 71.2861 -42.165c-1.25 -71.7627 2.42285 -143.678 2.55273 -215.479c37.668 10.4668 76.3564 17.2949 115.006 20.6982zM267.494 372.187
c0.0126953 1.4502 0.0341797 2.89648 0.0644531 4.3418c-0.0908203 0.182617 -0.204102 0.351562 -0.291016 0.538086c-8.68652 18.8184 -36.9951 47.6689 -59.5771 49.2539c-18.2197 1.27637 -33.292 -19.709 -43.0117 -33.4658
c-37.624 -53.2441 -51.3506 -122.129 -56.1299 -185.979c-1.73633 -23.1729 -5.65234 -63.9268 12.3457 -83.123c8.31738 -8.86914 21.5928 5.1748 30.4443 13.041c13.1924 11.7207 23.8633 26.5977 33.3877 41.3838c37.6074 58.3877 59.9639 128.332 82.7676 194.009z
M280.812 -68.5918c16.0186 64.3184 14.9932 129.119 8.99414 194.127c-2.7041 -1.84473 -5.43457 -3.65527 -8.0957 -5.56543c-53.834 -38.6709 -111.575 -101.852 -110.902 -172.494c0.303711 -31.8945 16.8691 -68.9805 49.8008 -79.1084
c37.2119 -11.4434 53.3525 35.5273 60.2031 63.041z" />
    <glyph glyph-name="h" unicode="h" horiz-adv-x="545" 
d="M530.084 214.889c7.875 18.2979 52.7764 15.293 44.2285 -5.25781c-19.3701 -46.5762 -38.9746 -93.2949 -64.6309 -136.845c-22.1963 -37.6719 -48.5293 -77.3369 -87.8252 -98.9209c-40.1338 -22.0439 -88.0684 -19.5869 -123.592 10.1758
c-34.0254 28.5078 -42 74.5713 -42.8252 116.897c-0.994141 51.1338 9.41113 102.619 16.1484 153.124c6.00781 45.0176 11.7168 90.4736 15.3682 135.738c0.894531 11.0781 5.20508 47.873 -11.4043 49.6611c-16.6182 1.79297 -35.9229 -30.3057 -43.0381 -42.1738
c-23.4512 -39.1396 -37.4297 -85.0771 -50.8828 -128.401c-22.4736 -72.3965 -41.835 -145.771 -60.7061 -219.214c-1.15918 -27.5703 -4.09766 -54.8154 -10.3701 -81.1182c-6.96289 -29.1982 -69.8525 -34.043 -80.6445 -5.63867
c-27.4014 72.1064 -29.4199 155.447 -35.7705 231.639c-6.37305 76.4648 -9.85449 153.038 -11.6348 229.746c-3.57227 154.105 -3.5459 314.488 32.3809 465.207c6.0127 25.2305 40.8457 33.9297 62.5557 33.6123c18.9922 -0.282227 54.7412 -10.9443 53.834 -36.3271
c-2.71289 -76.0342 -9.5332 -151.908 -13.1055 -227.926c-3.59473 -76.4512 -4.8623 -153.12 -4.45898 -229.654c0.40332 -75.8525 2.83008 -151.7 4.43652 -227.535c9.96289 35.8926 20.6592 71.542 32.3281 106.744c20.0127 60.3848 56.8643 175.659 141.442 161.359
c94.2461 -15.9316 110.135 -132.651 108.594 -210.475c-0.951172 -48.1953 -4.01562 -96.6074 -7.91406 -144.638c-1.88379 -23.2549 -5.60449 -46.5059 -6.69434 -69.7871c-0.303711 -6.50293 -6.27734 -31.9854 1.06348 -37.8633
c11.7041 -9.37207 39.5654 22.7871 45.5996 29.6934c14.2256 16.2744 26.1855 34.4375 37.2207 52.9785c23.7324 39.8691 41.9951 82.6553 60.2969 125.198z" />
    <glyph glyph-name="i" unicode="i" horiz-adv-x="265" 
d="M256.268 215.405c4.83203 16.2881 42.7266 14.3545 37.6777 -4.48145c-16.292 -60.8623 -42.4561 -121.277 -79.9629 -172.233c-16.6914 -22.6777 -38.5186 -42.0391 -66.5713 -48.5986c-26.9326 -6.29883 -58.627 -8.44336 -83.3887 5.91309
c-56.7207 32.8838 -69.2314 116.129 -76.2383 175.189c-8.49121 71.5938 -7.1543 147.646 5.5957 218.605c9.10352 50.6738 128.979 52.9531 130.234 -3.03418c1.25879 -56.2568 -5.40039 -113.086 -7.08887 -169.421c-1.57617 -52.6318 1.47559 -106.058 8.39941 -158.246
c1.24609 -9.39453 3.38184 -18.585 6.50293 -27.5186c1.00293 -2.86914 2.2832 -6.45508 3.61133 -9.17676c2.15723 -4.41895 -5.13184 -6.04688 4.41895 -1.26758c23.8105 11.9209 38.3623 32.5801 52.6836 54.4072c28.3604 43.2246 49.4316 90.3604 64.126 139.862z
M53.1299 491.485c-30.8867 -3.32129 -49.8418 16.9453 -64.1934 41.7725c-10.8965 18.8447 -25.0312 49.0156 -13.8311 70.6387c10.7656 20.79 43.5928 21.2412 59.4941 6.63379c4.24121 -3.89844 7.53223 -8.41309 10.293 -13.2705
c3.22949 4.88379 6.92383 9.51562 11.252 13.792c13.7959 13.627 37.5811 26.9932 56.374 15.0078c19.248 -12.2725 8.19531 -42.6123 1.23633 -59.2168c-10.0195 -23.9111 -25.4092 -45.0391 -41.5322 -65.1387c-1.77148 -2.20508 -4.18066 -3.88965 -6.9502 -5.12695
c-3.19531 -2.63477 -7.34082 -4.5752 -12.1426 -5.0918z" />
    <glyph glyph-name="i" unicode="&#xef;" horiz-adv-x="265" 
d="M256.268 215.405c4.83203 16.2881 42.7266 14.3545 37.6777 -4.48145c-16.292 -60.8623 -42.4561 -121.277 -79.9629 -172.233c-16.6914 -22.6777 -38.5186 -42.0391 -66.5713 -48.5986c-26.9326 -6.29883 -58.627 -8.44336 -83.3887 5.91309
c-56.7207 32.8838 -69.2314 116.129 -76.2383 175.189c-8.49121 71.5938 -7.1543 147.646 5.5957 218.605c9.10352 50.6738 128.979 52.9531 130.234 -3.03418c1.25879 -56.2568 -5.40039 -113.086 -7.08887 -169.421c-1.57617 -52.6318 1.47559 -106.058 8.39941 -158.246
c1.24609 -9.39453 3.38184 -18.585 6.50293 -27.5186c1.00293 -2.86914 2.2832 -6.45508 3.61133 -9.17676c2.15723 -4.41895 -5.13184 -6.04688 4.41895 -1.26758c23.8105 11.9209 38.3623 32.5801 52.6836 54.4072c28.3604 43.2246 49.4316 90.3604 64.126 139.862z
M53.1299 491.485c-30.8867 -3.32129 -49.8418 16.9453 -64.1934 41.7725c-10.8965 18.8447 -25.0312 49.0156 -13.8311 70.6387c10.7656 20.79 43.5928 21.2412 59.4941 6.63379c4.24121 -3.89844 7.53223 -8.41309 10.293 -13.2705
c3.22949 4.88379 6.92383 9.51562 11.252 13.792c13.7959 13.627 37.5811 26.9932 56.374 15.0078c19.248 -12.2725 8.19531 -42.6123 1.23633 -59.2168c-10.0195 -23.9111 -25.4092 -45.0391 -41.5322 -65.1387c-1.77148 -2.20508 -4.18066 -3.88965 -6.9502 -5.12695
c-3.19531 -2.63477 -7.34082 -4.5752 -12.1426 -5.0918z" />
    <glyph glyph-name="i" unicode="&#xee;" horiz-adv-x="265" 
d="M256.268 215.405c4.83203 16.2881 42.7266 14.3545 37.6777 -4.48145c-16.292 -60.8623 -42.4561 -121.277 -79.9629 -172.233c-16.6914 -22.6777 -38.5186 -42.0391 -66.5713 -48.5986c-26.9326 -6.29883 -58.627 -8.44336 -83.3887 5.91309
c-56.7207 32.8838 -69.2314 116.129 -76.2383 175.189c-8.49121 71.5938 -7.1543 147.646 5.5957 218.605c9.10352 50.6738 128.979 52.9531 130.234 -3.03418c1.25879 -56.2568 -5.40039 -113.086 -7.08887 -169.421c-1.57617 -52.6318 1.47559 -106.058 8.39941 -158.246
c1.24609 -9.39453 3.38184 -18.585 6.50293 -27.5186c1.00293 -2.86914 2.2832 -6.45508 3.61133 -9.17676c2.15723 -4.41895 -5.13184 -6.04688 4.41895 -1.26758c23.8105 11.9209 38.3623 32.5801 52.6836 54.4072c28.3604 43.2246 49.4316 90.3604 64.126 139.862z
M53.1299 491.485c-30.8867 -3.32129 -49.8418 16.9453 -64.1934 41.7725c-10.8965 18.8447 -25.0312 49.0156 -13.8311 70.6387c10.7656 20.79 43.5928 21.2412 59.4941 6.63379c4.24121 -3.89844 7.53223 -8.41309 10.293 -13.2705
c3.22949 4.88379 6.92383 9.51562 11.252 13.792c13.7959 13.627 37.5811 26.9932 56.374 15.0078c19.248 -12.2725 8.19531 -42.6123 1.23633 -59.2168c-10.0195 -23.9111 -25.4092 -45.0391 -41.5322 -65.1387c-1.77148 -2.20508 -4.18066 -3.88965 -6.9502 -5.12695
c-3.19531 -2.63477 -7.34082 -4.5752 -12.1426 -5.0918z" />
    <glyph glyph-name="i" unicode="&#xed;" horiz-adv-x="265" 
d="M256.268 215.405c4.83203 16.2881 42.7266 14.3545 37.6777 -4.48145c-16.292 -60.8623 -42.4561 -121.277 -79.9629 -172.233c-16.6914 -22.6777 -38.5186 -42.0391 -66.5713 -48.5986c-26.9326 -6.29883 -58.627 -8.44336 -83.3887 5.91309
c-56.7207 32.8838 -69.2314 116.129 -76.2383 175.189c-8.49121 71.5938 -7.1543 147.646 5.5957 218.605c9.10352 50.6738 128.979 52.9531 130.234 -3.03418c1.25879 -56.2568 -5.40039 -113.086 -7.08887 -169.421c-1.57617 -52.6318 1.47559 -106.058 8.39941 -158.246
c1.24609 -9.39453 3.38184 -18.585 6.50293 -27.5186c1.00293 -2.86914 2.2832 -6.45508 3.61133 -9.17676c2.15723 -4.41895 -5.13184 -6.04688 4.41895 -1.26758c23.8105 11.9209 38.3623 32.5801 52.6836 54.4072c28.3604 43.2246 49.4316 90.3604 64.126 139.862z
M53.1299 491.485c-30.8867 -3.32129 -49.8418 16.9453 -64.1934 41.7725c-10.8965 18.8447 -25.0312 49.0156 -13.8311 70.6387c10.7656 20.79 43.5928 21.2412 59.4941 6.63379c4.24121 -3.89844 7.53223 -8.41309 10.293 -13.2705
c3.22949 4.88379 6.92383 9.51562 11.252 13.792c13.7959 13.627 37.5811 26.9932 56.374 15.0078c19.248 -12.2725 8.19531 -42.6123 1.23633 -59.2168c-10.0195 -23.9111 -25.4092 -45.0391 -41.5322 -65.1387c-1.77148 -2.20508 -4.18066 -3.88965 -6.9502 -5.12695
c-3.19531 -2.63477 -7.34082 -4.5752 -12.1426 -5.0918z" />
    <glyph glyph-name="j" unicode="j" horiz-adv-x="257" 
d="M278.991 220.641c8.64355 -2.42676 13.8223 -10.8184 8.71289 -18.8359c-5.65625 -8.88184 -18.7275 -8.99902 -27.6963 -7.03711c-42.209 9.23828 -85.5068 7.70996 -126.687 -2.7041c-0.24707 -56.0479 -3.88965 -112.062 -11.3691 -167.584
c-6.53809 -48.542 -15.2852 -97.9912 -45.5996 -138.056c-24.0928 -31.8467 -62.2949 -57.7373 -102.594 -62.2998c-39.8643 -4.51074 -78.127 13.7041 -94.9316 50.9854c-15.9619 35.4189 -13.8262 77.9834 -4.99219 114.974
c17.1562 71.8242 63.6367 132.569 123.931 175.16c-1.73242 30.9346 -3.44727 61.8691 -5.23535 92.7998c-2.44824 42.3477 -8.58203 86.4795 -3.90234 128.788c6.92383 62.6074 120.535 71.9932 134.787 9.4248c12.4551 -54.6934 10.1064 -115.326 9.91113 -172.03
c48.542 10.0195 98.6641 9.59863 145.665 -3.58496zM6.65137 -104.839c10.7705 34.0869 4.73145 71.6543 1.7793 106.466c-3.3252 39.2393 -5.78711 78.3965 -8.05762 117.68c-42.2646 -39.2393 -74.25 -90.6035 -83.7705 -147.815
c-5.21777 -31.3555 -5.59961 -73.0908 15.6592 -99.168c12.0723 -14.8076 31.6895 -20.4463 49.4668 -12.3506c13.5791 6.18164 20.625 21.5791 24.9229 35.1885zM54.4717 491.486c-30.8916 -3.32129 -49.8418 16.9453 -64.1982 41.7725
c-10.8965 18.8447 -25.0312 49.0156 -13.8311 70.6387c10.7705 20.79 43.5977 21.2412 59.499 6.63379c4.24121 -3.89844 7.53223 -8.41309 10.293 -13.2705c3.22949 4.88379 6.92383 9.51562 11.252 13.792c13.7959 13.627 37.5811 26.9932 56.374 15.0078
c19.248 -12.2725 8.19531 -42.6123 1.23633 -59.2168c-10.0195 -23.9111 -25.4092 -45.0391 -41.5322 -65.1387c-1.77148 -2.20508 -4.18066 -3.88965 -6.9502 -5.12695c-3.19531 -2.63477 -7.34082 -4.5752 -12.1426 -5.0918z" />
    <glyph glyph-name="k" unicode="k" horiz-adv-x="452" 
d="M444.123 215.466c9.04297 17.4248 48.9883 13.2617 37.6582 -8.16602c-27.4492 -51.9111 -53.7129 -106.974 -89.8916 -153.52c-31.6943 -40.7764 -72.7393 -71.29 -127.003 -65.7207c-57.2119 5.87793 -103.688 55.4834 -126.322 104.955
c-9.32031 20.377 -18.0586 41.5527 -28.9023 61.2266c2.40039 -62.0479 5.06543 -126.249 -9.1084 -185.692c-6.96289 -29.1982 -69.8525 -34.043 -80.6445 -5.63867c-27.4014 72.1064 -29.4199 155.447 -35.7705 231.639
c-6.37305 76.4648 -9.85449 153.038 -11.6348 229.746c-3.57227 154.105 -3.5459 314.488 32.3809 465.207c6.0127 25.2305 40.8457 33.9297 62.5557 33.6123c18.9922 -0.282227 54.7412 -10.9443 53.834 -36.3271c-2.71289 -76.0342 -9.5332 -151.908 -13.1055 -227.926
c-3.59473 -76.4512 -4.8623 -153.119 -4.45898 -229.653c0.286133 -54.0342 1.60547 -108.06 2.9209 -162.085c18.5322 20.8809 37.29 41.5752 55.7354 62.4688c29.2637 33.1445 63.8926 65.2861 87.7119 102.624c8.93848 14.0088 44.8311 7.83105 34.2432 -11.1045
c-21.5273 -38.4922 -55.7227 -70.625 -84.5996 -103.631c-23.0596 -26.3545 -45.7285 -53.1738 -68.958 -79.4375c37.5332 -4.93555 70.1611 -34.1816 91.8447 -64.209c25.6084 -35.4629 37.625 -77.0156 56.4785 -115.79
c4.44531 -9.14258 9.26855 -15.5938 16.1279 -22.9346c7.79688 -8.34375 10.002 -7.93555 21.2236 -2.36621c21.6924 10.7705 37.3721 30.6445 50.9814 50.002c29.4375 41.8701 53.1699 87.3867 76.7031 132.721z" />
    <glyph glyph-name="l" unicode="l" horiz-adv-x="296" 
d="M286.921 219.59c5.19238 16.5312 43.9854 14.2764 38.2812 -4.54688c-22.8037 -75.2578 -47.1357 -158.187 -103.05 -216.401c-21.3623 -22.2441 -50.3047 -29.8545 -80.1934 -22.6963c-16.9395 4.05859 -36.0967 4.59277 -51.1562 14.0088
c-14.4209 9.01172 -27.3057 21.458 -37.707 34.8291c-51.5723 66.3145 -61.4658 158.182 -66.9482 239.317c-5.7002 84.4082 -5.76074 168.848 -4.4502 253.399c1.34961 86.835 1.60156 174.078 16.3311 259.867c4.85352 28.2646 47.3574 38.3057 70.3223 37.7852
c23.7891 -0.538086 58.5742 -12.0293 60.5146 -40.833c5.52148 -82.082 -1.07715 -164.546 -2.70117 -246.715c-1.44141 -73.0176 -2.55273 -146.195 -1.5498 -219.222c0.963867 -70.2305 0.74707 -142.983 11.3789 -212.532
c4.60547 -30.127 9.7627 -56.8164 20.8799 -84.9551c2.46582 -6.24219 -1.12402 -7.21484 9.38184 -7.50586c7.84863 -0.212891 13.5791 3.26465 19.4004 8.2959c10.9834 9.48926 19.7959 22.5557 27.9141 34.4941c35.5664 52.2979 54.5723 113.62 73.3516 173.41z" />
    <glyph glyph-name="m" unicode="m" horiz-adv-x="725" 
d="M716.654 219.977c7.12402 16.0361 46.6328 13.1904 38.8711 -4.6123c-15.8838 -36.4219 -31.9023 -72.8438 -50.9727 -107.742c-16.6094 -30.3838 -35.0068 -63.9883 -60.0508 -88.2939c-24.1016 -23.3945 -59.0342 -34.7031 -92.5127 -30.2363
c-42.6299 5.68652 -76.417 44.9521 -87.248 84.4307c-20.6982 75.4443 -3.76758 150.837 3.16992 227.093c3.50293 38.5273 16.7695 75.0537 18.8096 114.206c0.143555 2.80469 2.71777 21.2852 0.299805 22.2666c-3.60742 1.46289 -12.5283 -11.7129 -14.2949 -14.0098
c-10.1973 -13.2578 -18.1592 -28.1475 -25.001 -43.3584c-30.3398 -67.4307 -48.6377 -139.58 -67.248 -210.861c-13.7705 -52.7441 -32.5283 -133.124 -98.0752 -138.238c-34.5293 -2.69629 -63.1025 8.69434 -75.2188 42.915
c-13.5527 38.2803 -15.7402 76.7559 -12.623 116.916c3.06055 39.4473 6.58984 79.1855 12.3242 118.338c5.11426 34.916 16.0752 70.7129 17.6377 105.919c0.173828 3.93262 -0.0732422 7.1582 0.43457 10.5967c-3.17773 -4.44141 -6.94629 -8.73926 -9.62012 -13.2715
c-8.39551 -14.2129 -14.6123 -29.6416 -20.2686 -45.1133c-12.4805 -34.126 -22.7383 -69.124 -31.959 -104.257c-18.4414 -70.2656 -31.5518 -141.808 -46.0771 -212.959c-1.78027 -20.0215 -8.50879 -38.3193 -27.6748 -46.125
c-39.9951 -16.2832 -65.4336 32.4629 -75.6309 62.7158c-12.9668 38.4707 -20.0469 79.2334 -24.8652 119.406c-9.52832 79.46 -12.5146 168.887 13.749 245.256c13.5742 39.4736 106.887 47.2744 109.765 -2.55762c2.23145 -38.623 -1.51953 -75.9307 -3.09082 -114.515
c-1.35449 -33.3311 -1.0332 -66.7842 -0.200195 -100.142c6.19922 27.3574 12.9844 54.585 20.6035 81.6084c11.0439 39.1738 22.4961 79.5029 41.0938 115.873c13.0752 25.5693 29.6318 52.8447 61.9473 51.9551c16.791 -0.464844 31.1426 -9.83691 45.4766 -17.6943
c15.2373 -8.35254 20.4512 -20.7031 26.915 -36.1709c17.8242 -42.6562 26.9531 -86.8574 29.0068 -132.942c1.88867 -42.3691 1.71094 -84.9639 -2.66504 -127.164c-1.06836 -10.3057 -2.76562 -20.208 -4.70996 -30.0234
c0.351562 0.972656 0.703125 1.94043 1.04199 2.84375c8.02246 21.5537 13.9092 43.8193 19.7656 66.0371c11.9336 45.2783 24.874 90.2959 40.0684 134.597c16.0967 46.9316 47.084 158.963 116.915 140.053c37.9062 -10.2627 57.0371 -40.8418 69.0449 -75.957
c7.01562 -20.5117 17.0176 -43.7061 19.7441 -65.0078c2.58691 -20.2207 1.91016 -41.3447 2.375 -61.6875c0.972656 -42.5996 -0.173828 -85.3164 0.0341797 -127.92c0.104492 -21.293 0.360352 -43.1895 -1.63672 -64.3916
c-0.820312 -8.68652 -2.20508 -16.7832 -0.173828 -25.3525c0.325195 -1.36328 2.54395 -5.92188 4.47559 -9.96777c0.868164 0.46875 1.75781 0.889648 2.58691 1.43652c3.13477 1.78418 5.83887 3.82422 8.65234 6.07324c7.82715 6.25977 14.4209 13.8613 20.7979 21.5361
c12.3682 14.8818 22.6826 31.1006 32.3594 47.8223c20.5771 35.5498 37.1953 73.1875 53.8525 110.678zM308.256 48.1357c-1.86621 -2.4834 -1.87598 -2.54297 0.0341797 -0.125c-0.0126953 0.0429688 -0.0253906 0.0820312 -0.0341797 0.125z" />
    <glyph glyph-name="n" unicode="n" horiz-adv-x="476" 
d="M467.862 213.604c6.30371 16.2441 45.2949 13.3887 38.293 -4.54004c-17.3076 -44.2402 -37.7979 -87.1387 -61.665 -128.223c-19.7568 -34.0088 -41.124 -70.7646 -77.5674 -88.9541c-29.5195 -14.7295 -65.7939 -18.1846 -97.0635 -7.02344
c-45.5469 16.2529 -56.8291 57.6279 -61.1699 101.46c-4.31055 43.5107 2.27539 87.8291 5.78711 131.184c3.54199 43.7803 6.59375 87.1787 8.25684 131.05c0.629883 16.5615 0.208984 32.9883 0.126953 49.4668c-3.98047 -4.71875 -8.03027 -9.40234 -11.3125 -14.7988
c-21.6836 -35.6357 -35.627 -77.3232 -48.498 -116.802c-22.8389 -70.0439 -39.2959 -141.954 -60.7363 -212.424c-0.681641 -16.7744 -2.82617 -33.3184 -9.22949 -48.3477c-9.85449 -23.1162 -46.4893 -26.6328 -63.7842 -10.2754
c-25.8252 24.4229 -31.8506 60.5361 -36.4004 94.4404c-4.55371 33.9258 -6.09473 67.9033 -7.02832 102.107c-1.93652 71.0205 -1.39355 142.653 9.7373 212.953c7.27539 45.9512 119.42 47.8789 118.195 -2.75586c-1.46289 -60.376 -7.02832 -120.596 -9.19922 -180.98
c7.61914 26.958 15.8281 53.7432 25.2871 80.1631c17.3691 48.5166 55.3584 167.424 127.586 137.587c35.793 -14.79 60.1729 -39.6084 73.6172 -76.5771c15.0547 -41.3926 20.3896 -87.335 20.4717 -131.146c0.0820312 -42.335 -2.65332 -85.0127 -6.63379 -127.135
c-1.91895 -20.2773 -5.51367 -40.4248 -6.06934 -60.8369c-0.191406 -7.02832 -2.29297 -26.4678 0.545898 -27.4795c14.4121 -5.13086 36.3867 23.1562 43.1455 32.4639c10.8877 14.9902 20.3076 31.1699 29.4844 47.2451c21.6494 37.9238 40.0342 77.4844 55.8232 118.178
z" />
    <glyph glyph-name="o" unicode="o" horiz-adv-x="372" 
d="M378.315 227.786c17.4951 6.09082 40.4863 -16.502 17.8691 -25.123c-39.5 -15.0508 -80.4629 -28.9385 -122.372 -34.8203c-6.82422 -44.5703 -20.7637 -90.5732 -48.916 -125.419c-29.915 -37.0293 -88.5547 -66.3105 -136.997 -60.3975
c-31.9766 3.90234 -59.9287 22.9688 -77.667 49.2061c-16.3135 24.1318 -21.7441 52.8047 -26.0117 81.2129c-9.99805 66.5537 -5.08398 133.659 10.0273 199.093c4.1543 17.9941 21.1064 29.0596 41.084 33.4961c-1.37207 22.7822 1.45801 45.6299 9.6582 66.8232
c18.042 46.6191 60.2812 78.5566 111.658 64.1094c52.3799 -14.7295 81.7861 -70.8604 99.3506 -118.174c18.7061 -50.3789 25.9082 -104.708 21.5674 -158.221c35.0938 5.95215 69.9746 17.5039 100.749 28.2139zM209.582 100.468
c8.46094 20.6855 14.6689 42.3838 18.7969 64.458c-8.73047 0.160156 -17.4863 0.742188 -26.2773 1.84961c-38.4531 4.85352 -73.6982 19.2617 -101.803 43.1201c-1.98828 -24.1934 -2.45703 -48.5342 -1.31055 -72.9316
c1.53711 -32.667 1.08594 -89.7354 36.7695 -106.418c31.5293 -14.7383 64.8125 47.8906 73.8242 69.9219zM232.751 195.53c0.9375 9.57227 1.54004 19.165 1.71387 28.7373c0.772461 44.0146 -6.05566 88.2764 -21.8486 129.443
c-12.9404 33.7305 -37.8408 92.748 -80.2188 95.8438c-42.9072 3.13477 -53.3174 -69.54 -51.9453 -99.377c0.0908203 -2.04004 0.24707 -4.08496 0.412109 -6.13379c23.0469 -6.37695 40.0029 -22.1182 33.7822 -46.793
c-2.8916 -11.4736 -5.31836 -23.0205 -7.42773 -34.6113c5.70898 -9.20703 12.2725 -17.8027 19.7041 -25.5078c29.7148 -30.792 66.8535 -41.541 105.828 -41.6016z" />
    <glyph glyph-name="o" unicode="&#xf6;" horiz-adv-x="372" 
d="M378.315 227.786c17.4951 6.09082 40.4863 -16.502 17.8691 -25.123c-39.5 -15.0508 -80.4629 -28.9385 -122.372 -34.8203c-6.82422 -44.5703 -20.7637 -90.5732 -48.916 -125.419c-29.915 -37.0293 -88.5547 -66.3105 -136.997 -60.3975
c-31.9766 3.90234 -59.9287 22.9688 -77.667 49.2061c-16.3135 24.1318 -21.7441 52.8047 -26.0117 81.2129c-9.99805 66.5537 -5.08398 133.659 10.0273 199.093c4.1543 17.9941 21.1064 29.0596 41.084 33.4961c-1.37207 22.7822 1.45801 45.6299 9.6582 66.8232
c18.042 46.6191 60.2812 78.5566 111.658 64.1094c52.3799 -14.7295 81.7861 -70.8604 99.3506 -118.174c18.7061 -50.3789 25.9082 -104.708 21.5674 -158.221c35.0938 5.95215 69.9746 17.5039 100.749 28.2139zM209.582 100.468
c8.46094 20.6855 14.6689 42.3838 18.7969 64.458c-8.73047 0.160156 -17.4863 0.742188 -26.2773 1.84961c-38.4531 4.85352 -73.6982 19.2617 -101.803 43.1201c-1.98828 -24.1934 -2.45703 -48.5342 -1.31055 -72.9316
c1.53711 -32.667 1.08594 -89.7354 36.7695 -106.418c31.5293 -14.7383 64.8125 47.8906 73.8242 69.9219zM232.751 195.53c0.9375 9.57227 1.54004 19.165 1.71387 28.7373c0.772461 44.0146 -6.05566 88.2764 -21.8486 129.443
c-12.9404 33.7305 -37.8408 92.748 -80.2188 95.8438c-42.9072 3.13477 -53.3174 -69.54 -51.9453 -99.377c0.0908203 -2.04004 0.24707 -4.08496 0.412109 -6.13379c23.0469 -6.37695 40.0029 -22.1182 33.7822 -46.793
c-2.8916 -11.4736 -5.31836 -23.0205 -7.42773 -34.6113c5.70898 -9.20703 12.2725 -17.8027 19.7041 -25.5078c29.7148 -30.792 66.8535 -41.541 105.828 -41.6016z" />
    <glyph glyph-name="o" unicode="&#xf5;" horiz-adv-x="372" 
d="M378.315 227.786c17.4951 6.09082 40.4863 -16.502 17.8691 -25.123c-39.5 -15.0508 -80.4629 -28.9385 -122.372 -34.8203c-6.82422 -44.5703 -20.7637 -90.5732 -48.916 -125.419c-29.915 -37.0293 -88.5547 -66.3105 -136.997 -60.3975
c-31.9766 3.90234 -59.9287 22.9688 -77.667 49.2061c-16.3135 24.1318 -21.7441 52.8047 -26.0117 81.2129c-9.99805 66.5537 -5.08398 133.659 10.0273 199.093c4.1543 17.9941 21.1064 29.0596 41.084 33.4961c-1.37207 22.7822 1.45801 45.6299 9.6582 66.8232
c18.042 46.6191 60.2812 78.5566 111.658 64.1094c52.3799 -14.7295 81.7861 -70.8604 99.3506 -118.174c18.7061 -50.3789 25.9082 -104.708 21.5674 -158.221c35.0938 5.95215 69.9746 17.5039 100.749 28.2139zM209.582 100.468
c8.46094 20.6855 14.6689 42.3838 18.7969 64.458c-8.73047 0.160156 -17.4863 0.742188 -26.2773 1.84961c-38.4531 4.85352 -73.6982 19.2617 -101.803 43.1201c-1.98828 -24.1934 -2.45703 -48.5342 -1.31055 -72.9316
c1.53711 -32.667 1.08594 -89.7354 36.7695 -106.418c31.5293 -14.7383 64.8125 47.8906 73.8242 69.9219zM232.751 195.53c0.9375 9.57227 1.54004 19.165 1.71387 28.7373c0.772461 44.0146 -6.05566 88.2764 -21.8486 129.443
c-12.9404 33.7305 -37.8408 92.748 -80.2188 95.8438c-42.9072 3.13477 -53.3174 -69.54 -51.9453 -99.377c0.0908203 -2.04004 0.24707 -4.08496 0.412109 -6.13379c23.0469 -6.37695 40.0029 -22.1182 33.7822 -46.793
c-2.8916 -11.4736 -5.31836 -23.0205 -7.42773 -34.6113c5.70898 -9.20703 12.2725 -17.8027 19.7041 -25.5078c29.7148 -30.792 66.8535 -41.541 105.828 -41.6016z" />
    <glyph glyph-name="o" unicode="&#xf4;" horiz-adv-x="372" 
d="M378.315 227.786c17.4951 6.09082 40.4863 -16.502 17.8691 -25.123c-39.5 -15.0508 -80.4629 -28.9385 -122.372 -34.8203c-6.82422 -44.5703 -20.7637 -90.5732 -48.916 -125.419c-29.915 -37.0293 -88.5547 -66.3105 -136.997 -60.3975
c-31.9766 3.90234 -59.9287 22.9688 -77.667 49.2061c-16.3135 24.1318 -21.7441 52.8047 -26.0117 81.2129c-9.99805 66.5537 -5.08398 133.659 10.0273 199.093c4.1543 17.9941 21.1064 29.0596 41.084 33.4961c-1.37207 22.7822 1.45801 45.6299 9.6582 66.8232
c18.042 46.6191 60.2812 78.5566 111.658 64.1094c52.3799 -14.7295 81.7861 -70.8604 99.3506 -118.174c18.7061 -50.3789 25.9082 -104.708 21.5674 -158.221c35.0938 5.95215 69.9746 17.5039 100.749 28.2139zM209.582 100.468
c8.46094 20.6855 14.6689 42.3838 18.7969 64.458c-8.73047 0.160156 -17.4863 0.742188 -26.2773 1.84961c-38.4531 4.85352 -73.6982 19.2617 -101.803 43.1201c-1.98828 -24.1934 -2.45703 -48.5342 -1.31055 -72.9316
c1.53711 -32.667 1.08594 -89.7354 36.7695 -106.418c31.5293 -14.7383 64.8125 47.8906 73.8242 69.9219zM232.751 195.53c0.9375 9.57227 1.54004 19.165 1.71387 28.7373c0.772461 44.0146 -6.05566 88.2764 -21.8486 129.443
c-12.9404 33.7305 -37.8408 92.748 -80.2188 95.8438c-42.9072 3.13477 -53.3174 -69.54 -51.9453 -99.377c0.0908203 -2.04004 0.24707 -4.08496 0.412109 -6.13379c23.0469 -6.37695 40.0029 -22.1182 33.7822 -46.793
c-2.8916 -11.4736 -5.31836 -23.0205 -7.42773 -34.6113c5.70898 -9.20703 12.2725 -17.8027 19.7041 -25.5078c29.7148 -30.792 66.8535 -41.541 105.828 -41.6016z" />
    <glyph glyph-name="o" unicode="&#xf3;" horiz-adv-x="372" 
d="M378.315 227.786c17.4951 6.09082 40.4863 -16.502 17.8691 -25.123c-39.5 -15.0508 -80.4629 -28.9385 -122.372 -34.8203c-6.82422 -44.5703 -20.7637 -90.5732 -48.916 -125.419c-29.915 -37.0293 -88.5547 -66.3105 -136.997 -60.3975
c-31.9766 3.90234 -59.9287 22.9688 -77.667 49.2061c-16.3135 24.1318 -21.7441 52.8047 -26.0117 81.2129c-9.99805 66.5537 -5.08398 133.659 10.0273 199.093c4.1543 17.9941 21.1064 29.0596 41.084 33.4961c-1.37207 22.7822 1.45801 45.6299 9.6582 66.8232
c18.042 46.6191 60.2812 78.5566 111.658 64.1094c52.3799 -14.7295 81.7861 -70.8604 99.3506 -118.174c18.7061 -50.3789 25.9082 -104.708 21.5674 -158.221c35.0938 5.95215 69.9746 17.5039 100.749 28.2139zM209.582 100.468
c8.46094 20.6855 14.6689 42.3838 18.7969 64.458c-8.73047 0.160156 -17.4863 0.742188 -26.2773 1.84961c-38.4531 4.85352 -73.6982 19.2617 -101.803 43.1201c-1.98828 -24.1934 -2.45703 -48.5342 -1.31055 -72.9316
c1.53711 -32.667 1.08594 -89.7354 36.7695 -106.418c31.5293 -14.7383 64.8125 47.8906 73.8242 69.9219zM232.751 195.53c0.9375 9.57227 1.54004 19.165 1.71387 28.7373c0.772461 44.0146 -6.05566 88.2764 -21.8486 129.443
c-12.9404 33.7305 -37.8408 92.748 -80.2188 95.8438c-42.9072 3.13477 -53.3174 -69.54 -51.9453 -99.377c0.0908203 -2.04004 0.24707 -4.08496 0.412109 -6.13379c23.0469 -6.37695 40.0029 -22.1182 33.7822 -46.793
c-2.8916 -11.4736 -5.31836 -23.0205 -7.42773 -34.6113c5.70898 -9.20703 12.2725 -17.8027 19.7041 -25.5078c29.7148 -30.792 66.8535 -41.541 105.828 -41.6016z" />
    <glyph glyph-name="p" unicode="p" horiz-adv-x="529" 
d="M542.541 212.905c25.7559 2.45703 27.626 -26.6855 1.99609 -28.7129c-38.1885 -3.02539 -76.1777 -7.84863 -113.768 -14.8506c-2.57812 -22.1221 -7.05859 -43.8408 -14.082 -64.5c-22.96 -67.5352 -84.5557 -127.481 -160.469 -120.492
c-56.2734 5.17871 -94.4707 61.2441 -62.3076 112.591c23.0557 36.8086 66.2412 55.5449 108.021 68.4727c4.71484 21.4883 7.78809 43.376 10.0498 65.1553c5.25293 50.5918 9.11621 103.714 1.39746 154.231c-1.9707 12.9102 -5.90332 39.9072 -20.2549 41.4268
c-22.1611 2.34375 -42.708 -39.2441 -50.2744 -54.7676c-47.0312 -96.4814 -60.8359 -212.28 -71.7891 -317.826c-9.46387 -91.2158 -12.1465 -182.801 -14.5381 -274.402c3.58105 -22.335 6.91504 -44.7002 9.41113 -67.1787
c3.19531 -28.7686 -31.3428 -45.1084 -54.2422 -48.8594c-25.1348 -4.11523 -62.625 1.10742 -74.8975 27.6318c-52.25 112.921 -50.752 250.816 -50.791 372.906c-0.0390625 129.674 1.09863 265.008 31.2178 391.6c8.06543 33.8955 77.3018 32.5322 83.2793 -1.94043
c21.6143 -124.572 19.5088 -253.79 24.8701 -379.912c0.481445 -11.2695 1.01074 -22.5352 1.5752 -33.7959c4.97949 52.2451 11.8555 104.261 20.9893 155.803c11.6211 65.5811 25.6992 132.382 56.6035 191.95c26.2158 50.5303 77.2324 86.8398 136.037 65.6943
c60.2803 -21.6748 80.041 -100.753 87.5732 -157.257c4.24121 -31.79 6.45996 -65.334 4.91016 -98.5518c36.2354 6.82031 72.7656 12.082 109.482 15.585zM251.034 53.373c2.38281 0.585938 3.6123 2.35254 0.352539 0.216797
c-0.152344 -0.0996094 -0.217773 -0.134766 -0.352539 -0.216797zM277.603 93.3682c6.12109 12.4893 11.1602 25.3828 15.3799 38.541c-4.1416 -1.77539 -8.24414 -3.62891 -12.2471 -5.67383c-20.7119 -10.5879 -46.5547 -33.2793 -44.3232 -59.3213
c1.08984 -12.6982 4.78418 -12.043 12.2852 -13.6191c0.277344 -0.0605469 0.546875 -0.0478516 0.820312 -0.0566406c0.447266 0.538086 1.0293 1.1416 1.04688 1.22852c0.699219 3.0166 9.9375 10.7354 13.2676 15.5713c5.08789 7.39746 9.82422 15.2812 13.7705 23.3301z
" />
    <glyph glyph-name="q" unicode="q" horiz-adv-x="553" 
d="M578.604 210.044c8.53906 -5.53516 10.4053 -16.4492 1.61426 -22.9912c-39.1572 -29.0547 -76.8252 -60.0068 -112.644 -93.0947c-15.75 -14.5469 -35.9492 -29.667 -48.1133 -47.4219c-14.0088 -20.4463 4.81836 -48.0684 13.2402 -68.2373
c15.2021 -36.4043 30.084 -74.4414 32.1592 -114.293c1.66699 -31.9893 -2.95605 -72.6396 -27.3838 -95.8555c-29.2373 -27.7832 -70.6299 -21.5713 -101.877 0.763672c-34.8633 24.9219 -57.1162 60.5801 -69.5576 101.296
c-26.5332 86.8486 -19.2705 180.781 -14.5908 270.139c0.694336 13.3145 1.5625 26.6152 2.49609 39.9121c-5.26562 -12.3154 -10.8877 -24.4922 -17.0996 -36.4385c-31.7119 -61.0059 -86.4229 -120.652 -162.892 -100.089
c-39.1221 10.5225 -71.3721 40.8926 -88.1768 77.2666c-17.4209 37.707 -13.2705 81.7344 -2.00977 120.596c21.8535 75.4004 73.5645 141.186 140.118 182.3c36.665 22.6523 82.876 39.6953 126.291 27.4141c13.084 -3.69824 27.4883 -13.3398 38.918 -25.1953
c19.418 20.1426 64.8916 18.7012 78.0361 -5.94336c8.31738 -15.6016 14.7119 -27.7656 18.3711 -45.2217c3.2207 -15.3584 5.69531 -30.709 7.71387 -46.2715c3.65527 -28.209 5.01855 -56.166 5.68262 -84.5957c1.27148 -54.2686 -0.855469 -108.415 -1.29395 -162.662
c14.208 14.1084 28.7334 27.9092 43.584 41.3359c33.2568 30.0713 68.0684 58.3105 104.112 84.9609c8.93359 6.60254 23.5938 8.61719 33.3008 2.32715zM271.235 379.741c0.117188 1.05957 0.301758 2.08887 0.479492 3.12598
c-0.651367 0.833008 -1.20703 1.74902 -1.64551 2.75586c-6.37305 14.6689 -11.6953 20.877 -25.7432 15.9717c-13.3359 -4.6582 -24.1455 -14.6602 -34.8506 -23.6328c-23.6631 -19.8301 -44.4531 -43.1943 -61.1709 -69.1494
c-17 -26.3936 -29.9668 -55.1621 -37.8203 -85.5889c-8.08789 -31.3213 -15.0596 -68.7852 -9.35938 -101.031c2.37012 -13.4268 8.42578 -25.8037 19.3174 -34.3906c12.0557 -9.50293 22.5869 -0.499023 32.9404 8.83008c26.3545 23.75 42.9072 60.9883 56.5859 92.9258
c24.6318 57.5107 40.3594 118.19 59.96 177.503c0.438477 4.22852 0.841797 8.46094 1.30664 12.6807zM415.953 -146.758c-0.0566406 22.2393 -4.41016 44.1826 -11.043 65.3369c-2.00977 6.41602 -4.25 12.7588 -6.57227 19.0664
c0.395508 -12.5586 0.912109 -25.1084 1.6543 -37.6279c1.52344 -25.6777 3.98926 -50.7002 9.18555 -75.9092c0.495117 -2.40918 1.13281 -4.6582 1.85742 -6.82422c0.129883 0.386719 0.238281 0.716797 0.307617 0.938477
c3.48145 11.3438 4.64062 23.1816 4.61035 35.0195z" />
    <glyph glyph-name="r" unicode="r" horiz-adv-x="406" 
d="M410.713 223.236c24.5186 6.83301 42.7256 -19.5322 14.3262 -29.6689c-62.1992 -22.2051 -152.377 -33.5742 -199.109 24.8438c-22.7559 28.4434 -25.8291 70.4658 -24.041 105.507c0.928711 18.168 4.36719 36.1963 5.22656 54.3857
c0.347656 7.34473 0.0302734 14.6035 0.841797 21.9229c0.208008 1.84961 1.30664 5.58691 2.35742 9.75391c-4.77539 -7.04102 -8.8125 -15.2197 -10.3359 -18.3105c-7.25 -14.7295 -12.7246 -30.6133 -17.96 -46.1289
c-11.165 -33.0879 -19.8867 -67.0098 -28.4473 -100.845c-13.123 -51.8672 -25.0303 -104.143 -35.8965 -156.583c0.230469 -31.8418 -0.229492 -70.5469 -20.8066 -92.7734c-17.3994 -18.793 -47.6748 -21.5234 -67.4834 -4.71875
c-28.3428 24.0498 -29.5586 75.8477 -33.2402 110.39c-3.95898 37.1162 -6.5332 74.0635 -8.15723 111.354c-1.67578 38.5625 -2.83887 77.168 -2.94727 115.77c-0.108398 38.041 -0.699219 77.9834 10.7871 114.579c14.9072 47.4922 109.388 47.6182 119.398 -2.78223
c7.18848 -36.1963 2.95996 -74.4414 2.10449 -111.124c-0.442383 -19.0791 -0.664062 -38.1582 -0.711914 -57.2422c9.06836 35.4932 18.4668 71.0508 31.7549 105.237c9.71582 24.9922 21.4668 52.0508 45.4736 66.3848c10.749 6.4209 23.7676 10.7754 36.4658 9.67285
c13.8398 -1.20215 23.5244 -10.8613 33.874 -19.0967c30.3057 -24.1191 40.0254 -56.79 47.0889 -94.0625c6.42871 -33.9385 11.0039 -64.6436 23.7412 -97.0156c4.38477 -11.1396 6.14746 -26.1465 16.2754 -27.8916c19.8516 -3.4209 40.3896 3.13867 59.4209 8.44336z" />
    <glyph glyph-name="s" unicode="s" horiz-adv-x="361" 
d="M382.916 233.677c26.9629 -8.23535 -0.208008 -32.8604 -19.834 -27.0264c-42.7646 12.7109 -99.5117 -8.76465 -138.325 -26.5371c-11.8682 -5.43555 -23.8018 -11.5176 -35.4189 -18.2988c44.6484 -42.6035 90.7295 -84.665 70.9648 -154.691
c-22.3262 -79.0869 -136.91 -115.722 -191.695 -48.3779c-40.1338 49.332 -25.335 107.038 8.16504 152.889c-12.8281 9.44238 -25.3525 19.3096 -36.791 30.6924c-54.9238 54.6631 -86.4492 137.626 -50.9258 211.742c39.3174 82.0254 136.493 134.331 226.493 111.762
c15.9404 -3.99414 29.5801 -18.2549 28.0566 -34.9209c-1.58008 -17.2646 -20.373 -29.75 -36.1006 -33.3008c-23.2773 -5.25684 -37.4072 -5.9209 -53.8037 -17.1943c-14.708 -10.1104 -25.8643 -24.8311 -32.1416 -42.0781
c-15.9277 -43.7715 -7.32324 -83.9785 18.2803 -121.989c7.03223 -10.4404 15.4492 -20.2988 24.5439 -29.8711c26.3203 15.1162 54.2471 27.3584 83.2412 36.5137c42.625 13.457 91.5107 24.0625 135.291 10.6875zM184.449 -16.5176
c5.91309 36.166 -26.8105 65.0303 -51.3203 86.002c-7.70508 6.58984 -15.7275 12.7324 -23.8672 18.71c-17.6211 -29.8496 -24.6846 -66.8789 -8.42676 -98.8945c7.60547 -14.9727 20.9111 -29.3154 37.7852 -33.3789c21.3535 -5.13965 42.1953 5.33105 45.8291 27.5615z
" />
    <glyph glyph-name="t" unicode="t" horiz-adv-x="276" 
d="M263.35 224.14c3.26855 17.9287 44.2676 16.0225 40.6553 -4.83203c-7.14941 -41.375 -18.1807 -81.8252 -33.6611 -120.878c-13.1533 -33.1836 -28.1953 -67.8125 -55.3447 -92.0576c-44.2275 -39.4951 -126.592 -44.5781 -167.159 2.80078
c-44.8613 52.3887 -50.9082 135.312 -57.6025 201.076c-7.95703 78.1963 -7.87891 157.986 -6.98438 236.53c0.373047 32.8662 0.607422 65.959 1.75781 99.0127c-15.667 -0.408203 -31.2686 -1.60156 -46.6836 -4.36719
c-7.89258 -1.41504 -21.8193 -1.4668 -25.5264 7.99707c-3.4082 8.69043 4.6875 16.5518 12.9053 18.1318c19.874 3.82031 40.1299 6.08594 60.5898 7.31836c2.04004 37.6025 5.68262 75.0488 12.5811 111.944c4.87109 26.0469 43.1162 34.9678 64.4961 34.6553
c21.9873 -0.321289 53.5303 -11.1562 55.5059 -37.4502c2.74805 -36.5996 2.91699 -73.5469 2.04004 -110.56c15.7236 -0.660156 31.3428 -1.28516 46.7754 -1.63281c8.33887 -0.186523 21.6836 -2.36621 22.4473 -13.2803
c0.685547 -9.80664 -11.9033 -16.4141 -20.3818 -16.2754c-16.5918 0.273438 -33.1787 0.564453 -49.7666 0.876953c-1.41992 -39.2217 -3.55566 -78.4268 -4.62402 -117.279c-2.30469 -83.8789 -5.00879 -168.67 0.0917969 -252.483
c2.27441 -37.4463 5.43457 -76.7334 13.665 -113.411c2.63086 -11.7168 6.16895 -23.1816 11.0049 -34.1475c6.55078 -14.8506 11.2217 -17.9414 26.4717 -10.4229c34.707 17.1084 51.6592 61.6875 64.8691 95.3008c14.417 36.6777 24.8145 74.6797 31.8779 113.433z" />
    <glyph glyph-name="u" unicode="u" horiz-adv-x="491" 
d="M481.647 220.767c3.69824 16.8389 42.0322 14.9775 38.2812 -4.54492c-6.28125 -32.7275 -14.8984 -64.8604 -26.3848 -96.1553c-10.5186 -28.6641 -22.2305 -60.3848 -40.4766 -85.1816c-33.9609 -46.1543 -104.287 -51.5107 -146.287 -13.3135
c-26.1162 23.75 -36.0664 59.1992 -43.7852 92.2656c-1.74121 7.4707 -3.22559 15.0332 -4.5498 22.6387c-7.84473 -43.6064 -20.7334 -87.2998 -51.5645 -118.178c-44.7051 -44.7695 -119.068 -49.1367 -165.7 -4.93555
c-24.0977 22.8389 -33.1533 54.3594 -41.5791 85.3682c-9.2334 33.9912 -12.8623 70.2051 -15.0674 105.294c-4.48438 71.4414 1.38477 144.615 10.8916 215.384c3.65137 27.1973 46.1465 36.5303 67.4092 36.2178c20.4512 -0.299805 59.0088 -11.791 58.0107 -39.1445
c-1.46777 -40.1904 -33.1445 -403.867 29.9277 -391.799c31.1133 5.95215 47.7002 59.9033 54.7637 85.0381c9.69336 34.5029 15.0977 70.3428 20.6328 105.701c10.0537 64.2012 17.8154 128.736 28.9287 192.755c1.26758 11.0957 2.67383 22.1396 4.37988 33.0664
c4.43652 28.3906 47.8994 38.4746 70.6426 37.958c25.3779 -0.573242 57.0547 -12.1162 60.792 -41.0195c5.16992 -39.9863 2.13965 -79.6553 -0.22168 -119.789c-2.1875 -37.1943 -3.50293 -74.4238 -5.46484 -111.627
c-1.87988 -35.5928 -4.14551 -72.4619 -1.72363 -108.046c1.27148 -18.6758 2.7041 -47.1924 13.4873 -65.8848c26.4111 12.0947 41.8613 59.0352 51.2383 81.3701c14.4648 34.4551 25.4092 70.083 33.4189 106.562z" />
    <glyph glyph-name="u" unicode="&#xfc;" horiz-adv-x="491" 
d="M481.647 220.767c3.69824 16.8389 42.0322 14.9775 38.2812 -4.54492c-6.28125 -32.7275 -14.8984 -64.8604 -26.3848 -96.1553c-10.5186 -28.6641 -22.2305 -60.3848 -40.4766 -85.1816c-33.9609 -46.1543 -104.287 -51.5107 -146.287 -13.3135
c-26.1162 23.75 -36.0664 59.1992 -43.7852 92.2656c-1.74121 7.4707 -3.22559 15.0332 -4.5498 22.6387c-7.84473 -43.6064 -20.7334 -87.2998 -51.5645 -118.178c-44.7051 -44.7695 -119.068 -49.1367 -165.7 -4.93555
c-24.0977 22.8389 -33.1533 54.3594 -41.5791 85.3682c-9.2334 33.9912 -12.8623 70.2051 -15.0674 105.294c-4.48438 71.4414 1.38477 144.615 10.8916 215.384c3.65137 27.1973 46.1465 36.5303 67.4092 36.2178c20.4512 -0.299805 59.0088 -11.791 58.0107 -39.1445
c-1.46777 -40.1904 -33.1445 -403.867 29.9277 -391.799c31.1133 5.95215 47.7002 59.9033 54.7637 85.0381c9.69336 34.5029 15.0977 70.3428 20.6328 105.701c10.0537 64.2012 17.8154 128.736 28.9287 192.755c1.26758 11.0957 2.67383 22.1396 4.37988 33.0664
c4.43652 28.3906 47.8994 38.4746 70.6426 37.958c25.3779 -0.573242 57.0547 -12.1162 60.792 -41.0195c5.16992 -39.9863 2.13965 -79.6553 -0.22168 -119.789c-2.1875 -37.1943 -3.50293 -74.4238 -5.46484 -111.627
c-1.87988 -35.5928 -4.14551 -72.4619 -1.72363 -108.046c1.27148 -18.6758 2.7041 -47.1924 13.4873 -65.8848c26.4111 12.0947 41.8613 59.0352 51.2383 81.3701c14.4648 34.4551 25.4092 70.083 33.4189 106.562z" />
    </font>
</defs>
</svg>
