<?xml version="1.0" standalone="no"?>
<!DOCTYPE svg PUBLIC "-//W3C//DTD SVG 1.1//EN" "http://www.w3.org/Graphics/SVG/1.1/DTD/svg11.dtd" >
<svg xmlns="http://www.w3.org/2000/svg" xmlns:xlink="http://www.w3.org/1999/xlink" version="1.1">
<metadata>
Created by FontForge 20170812 at Tue Jun  7 14:27:31 2022
 By www-data
</metadata>
<defs>
<font id="BibleRegular" horiz-adv-x="0" >
  <font-face 
    font-family="Bible"
    font-weight="400"
    font-stretch="normal"
    units-per-em="1000"
    panose-1="0 0 0 0 0 0 0 0 0 0"
    ascent="800"
    descent="-200"
    x-height="404.777"
    cap-height="1236.9"
    bbox="-233.002 -660.243 2851.03 1623.25"
    underline-thickness="50"
    underline-position="-100"
    unicode-range="U+000A-20AC"
  />
<missing-glyph horiz-adv-x="527" 
d="M50 700h427v-700h-427v700zM78 680l185 -309l186 309h-371zM251 350l-180 300v-601zM264 329l-185 -308h370zM276 350l181 -303v605z" />
    <glyph glyph-name=".notdef" horiz-adv-x="527" 
d="M50 700h427v-700h-427v700zM78 680l185 -309l186 309h-371zM251 350l-180 300v-601zM264 329l-185 -308h370zM276 350l181 -303v605z" />
    <glyph glyph-name=".null" 
 />
    <glyph glyph-name=".null" 
 />
    <glyph glyph-name="LF" unicode="&#xa;" 
 />
    <glyph glyph-name="controlCR" unicode="&#xd;" 
 />
    <glyph glyph-name="space" unicode=" " horiz-adv-x="307" 
 />
    <glyph glyph-name="exclam" unicode="!" horiz-adv-x="246" 
d="M187.308 434.823c8.24902 -119.523 11.0332 -239.576 7.08105 -359.327c-1.59961 -48.3057 -122.937 -47.5889 -122.419 0c1.27637 117.578 0.566406 235.053 -4.20605 352.562c-2.38672 58.665 -6.26953 117.247 -9.44238 175.863
c-2.75879 50.9541 -19.1045 119.806 3.38672 167.291c9.19336 19.4014 54.1953 21.3467 66.5752 4.95996c33.5537 -44.4229 34.9541 -111.799 42.1406 -165.505c7.81445 -58.4238 12.8213 -117.048 16.8838 -175.844zM117.206 -45.2607
c7.26953 16.1943 44.3818 15.2695 52.0576 0c30.8564 -61.3066 22.3936 -142.814 20.8281 -209.404c-0.889648 -37.9258 -97.1084 -36.7461 -95.4805 0.000976562c2.95898 66.8242 -5.34473 147.159 22.5947 209.403z" />
    <glyph glyph-name="quotedbl" unicode="&#x22;" horiz-adv-x="361" 
d="M92.9668 833.016c10.8145 34.0293 107.695 25.0713 93.626 -14.71c-19.6357 -55.5547 -36.9258 -119.53 -72.3203 -167.437c-11.1182 -15.042 -63.0449 -23.0146 -64.1416 4.94531c-2.26953 58.0029 25.5459 122.785 42.8359 177.201zM223.731 787.835
c9.60742 31.2979 96.5977 24.8086 86.873 -13.6484c-11.6006 -45.9053 -29.084 -91.7764 -56.9131 -130.303c-9.3457 -12.9453 -52.2236 -18.9941 -53.5547 4.13086c-2.68262 46.6094 9.98047 95.4736 23.5947 139.82z" />
    <glyph glyph-name="quotedbl" unicode="&#x201d;" horiz-adv-x="361" 
d="M92.9668 833.016c10.8145 34.0293 107.695 25.0713 93.626 -14.71c-19.6357 -55.5547 -36.9258 -119.53 -72.3203 -167.437c-11.1182 -15.042 -63.0449 -23.0146 -64.1416 4.94531c-2.26953 58.0029 25.5459 122.785 42.8359 177.201zM223.731 787.835
c9.60742 31.2979 96.5977 24.8086 86.873 -13.6484c-11.6006 -45.9053 -29.084 -91.7764 -56.9131 -130.303c-9.3457 -12.9453 -52.2236 -18.9941 -53.5547 4.13086c-2.68262 46.6094 9.98047 95.4736 23.5947 139.82z" />
    <glyph glyph-name="quotedbl" unicode="&#x201c;" horiz-adv-x="361" 
d="M92.9668 833.016c10.8145 34.0293 107.695 25.0713 93.626 -14.71c-19.6357 -55.5547 -36.9258 -119.53 -72.3203 -167.437c-11.1182 -15.042 -63.0449 -23.0146 -64.1416 4.94531c-2.26953 58.0029 25.5459 122.785 42.8359 177.201zM223.731 787.835
c9.60742 31.2979 96.5977 24.8086 86.873 -13.6484c-11.6006 -45.9053 -29.084 -91.7764 -56.9131 -130.303c-9.3457 -12.9453 -52.2236 -18.9941 -53.5547 4.13086c-2.68262 46.6094 9.98047 95.4736 23.5947 139.82z" />
    <glyph glyph-name="numbersign" unicode="#" horiz-adv-x="891" 
d="M729.397 914.688c18.4424 36.2021 126.981 30.7744 110.25 -17.3457c-59.1201 -169.987 -128.972 -336.017 -190.126 -505.37c0.137695 0 0.282227 0.00683594 0.426758 0.00683594c33.2842 0.517578 32.9189 -30.6426 0 -31.0771
c-3.8418 -0.0478516 -7.68359 -0.199219 -11.5254 -0.261719c-5.98633 -16.9316 -12.0146 -33.8496 -17.7803 -50.8711c-3.8623 -11.3936 -7.62793 -22.8281 -11.4424 -34.2422c4.58691 0.227539 9.15918 0.517578 13.7461 0.724609
c34.0293 1.52441 33.374 -30.3252 0 -31.6973c-8.16602 -0.337891 -16.332 -0.772461 -24.4912 -1.20703c-25.5664 -77.3896 -50.168 -155.132 -73.9346 -233.066c-15.332 -50.2646 -30.5264 -100.536 -46.2168 -150.684
c-15.1387 -48.3955 -29.5459 -99.2051 -60.7539 -139.842c-8.52441 -11.0967 -47.7949 -12.5723 -51.8018 3.86328c-11.9521 49.0371 1.46875 101.681 11.7656 150.187c10.5107 49.5127 22.4902 98.501 35.3945 147.441c18.7178 70.9893 38.9326 141.489 60.3818 211.651
c-46.7676 -5.33105 -93.3145 -12.2422 -139.586 -20.7188c-18.0215 -56.7061 -35.3877 -113.633 -51.7471 -170.801c-24.8428 -86.8525 -43.0234 -181.63 -86.0254 -261.641c-9.80762 -18.249 -59.8789 -19.9111 -62.5479 4.82812
c-9.50391 88.1289 17.7871 182.409 38.292 267.606c10.6768 44.333 21.9873 88.4727 34.043 132.406c-39.2852 -9.76562 -78.335 -20.6006 -117.075 -32.6289c-20.0908 -6.24121 -58.5 15.3184 -26.1602 25.5117c50.6025 15.9453 101.694 29.9258 153.159 42.0986
c9.02832 31.7461 18.3184 63.417 28.1943 94.9424c1.75879 5.62109 3.55176 11.2422 5.32422 16.8564c-36.085 -4.83496 -72.1143 -10.1387 -108.061 -16.1455c-25.9941 -4.34473 -48.3818 22.9395 -13.9248 28.7881c43.9883 7.46289 88.1006 14.043 132.31 19.7744
c51.0234 158.773 108.75 316.961 185.437 464.989c18.7178 36.1328 128.165 30.0156 110.254 -17.3242c-54.7822 -144.793 -114.289 -287.518 -166.119 -433.346c44.4092 4.05566 88.8945 7.22852 133.441 9.55273c58.4375 178.975 121.688 359.797 206.899 527.04z
M501.203 322.011c3.67578 11.373 7.35938 22.7754 11.0488 34.1689c-44.8643 -2.44141 -89.6523 -5.82129 -134.358 -10.0693c-5.04883 -14.5869 -10.1387 -29.1602 -15.001 -43.8232c-6.21387 -18.7393 -12.3242 -37.5127 -18.4004 -56.2998
c46.0576 7.99316 92.377 14.5244 138.896 19.5664c5.87598 18.835 11.752 37.6699 17.8145 56.457z" />
    <glyph glyph-name="dollar" unicode="$" horiz-adv-x="627" 
d="M483.28 245.696c81.3213 -99.6533 146.288 -248.461 30.3857 -350.625c-44.9053 -39.5811 -104.177 -60.0098 -164.18 -61.6924c2.15918 -39.0156 4.57324 -78.0244 7.5459 -117.02c1.57227 -20.6084 -52.3887 -21.4502 -53.9883 -0.000976562
c-2.99316 40.1816 -5.40723 80.3838 -7.53125 120.593c-41.0361 6.62109 -80.4658 22.1738 -113.736 46.5547c-87.4111 64.0586 -135.062 207.997 -73.6934 304.905c10.3594 16.3594 60.9619 9.8418 49.9824 -7.85547c-68.1064 -109.799 11.4219 -284.353 135.614 -309.016
c-6.80078 144.725 -8.35254 289.56 -6.84863 434.408c-11.4834 8.88965 -23.1182 17.6143 -34.9531 26.1113c-55.6094 39.9258 -113.75 78.5898 -154.193 134.951c-36.6221 51.0303 -57.0918 112.109 -43.4287 174.871c12.4902 57.375 53.4717 108.288 105.468 135.262
c44.6025 23.1387 94.4951 29.5869 141.132 21.0068c1.99316 48.9199 4.06934 97.833 6.15918 146.732c0.882812 20.5732 52.6514 19.959 51.8379 -0.000976562c-2.2207 -54.3408 -4.42773 -108.702 -6.52441 -163.07c39.0293 -18.0283 72.7002 -47.9404 94.5361 -88.5977
c10.042 -18.6973 -40.457 -24.7109 -49.4648 -7.77246c-11.6143 21.8359 -27.7529 40.6641 -46.6299 55.1475c-4.55176 -121.965 -8.32422 -243.984 -10.166 -366.004c51.9268 -38.4775 101.295 -78.1758 142.677 -128.889zM288.428 413.146
c2.37207 117.868 6.46973 235.729 11.1738 353.541c-37.4229 10.752 -78.4521 5.90332 -114.537 -21.25c-70.3965 -52.9746 -56.5615 -145.683 -14.8906 -212.741c29.4082 -47.333 73.4658 -85.5068 118.254 -119.55zM478.052 -8.80762
c11.876 73.3281 -25.9199 143.461 -70.2256 198.788c-20.8701 26.0566 -43.9053 49.8027 -68.3613 72.0039c-0.538086 -130.552 1.59277 -261.068 7.97266 -391.488c0.400391 0.0693359 0.793945 0.0761719 1.20117 0.145508
c62.2656 10.1318 118.979 56.1133 129.413 120.551z" />
    <glyph glyph-name="percent" unicode="%" horiz-adv-x="985" 
d="M906.328 828.181c20.084 -7.18652 39.2705 -25.9189 21.0898 -45.8506c-149.932 -164.353 -292.566 -335.251 -425.407 -513.722c-66.3066 -89.0869 -130.889 -179.333 -195.788 -269.441c-32.8701 -45.6436 -65.665 -91.46 -99.4463 -136.435
c-32.7881 -43.6504 -65.5762 -96.3496 -110.654 -128.048c-9.54492 -6.7041 -47.4844 -7.4834 -46.084 10.8828c1.91016 24.9668 16.6279 47.5127 28.1045 69.417c13.2627 25.3184 28.0225 49.9473 42.7539 74.4453c27.7598 46.168 56.7471 91.7979 86.2656 136.855
c60.6992 92.6533 123.206 184.327 188.382 273.891c131.958 181.34 270.579 358.162 430.353 515.983c19.208 18.9736 56.5273 20.5732 80.4316 12.0215zM304.828 406.69c-120.606 -48.4717 -182.652 73.915 -180.707 177.113
c-21.6221 65.6855 3.53125 154.207 56.5547 192.637c35.8154 25.9531 84.8105 34.9326 126.882 19.7734c50.2715 -18.1113 79.2246 -68.541 90.6455 -118.123c12.5459 -54.4443 5.04883 -111.654 -12.2412 -164.243c-14.5244 -44.1748 -35.3525 -88.7559 -81.1338 -107.157z
M197.091 730.936c-15.125 -22.2705 -25.6729 -54.4453 -27.8105 -86.6396c28.7119 3.43457 60.9277 -6.29004 58.4932 -28.4219c-3.2002 -29.0566 -4.37988 -57.5059 -1.27637 -85.9551c0.46875 -1.33105 0.641602 -2.69629 0.414062 -4.08984
c1.29688 -10.4561 3.16602 -20.9258 5.80078 -31.416c3.49023 -13.918 8.47656 -37.623 20.6152 -46.6377c14.5732 -10.8213 27.8018 -0.358398 40.5537 11.249c47.8574 43.5537 59.8721 131.696 53.168 192.872c-3.90332 35.6152 -16.8555 74.293 -42.6426 100.205
c-35.7051 35.8779 -82.1484 15.8975 -107.315 -21.166zM796.684 307.093c50.2715 -18.1113 79.2236 -68.541 90.6445 -118.137c12.5459 -54.4375 5.04883 -111.654 -12.2412 -164.243c-14.5244 -44.1748 -35.3525 -88.7559 -81.1338 -107.149
c-120.606 -48.4717 -182.651 73.9141 -180.706 177.112c-21.6221 65.6855 3.53125 154.207 56.5547 192.637c35.8154 25.96 84.8105 34.9395 126.882 19.7803zM783.006 -30.0967c47.8574 43.5469 59.8691 131.688 53.165 192.856
c-3.90332 35.6152 -16.8555 74.293 -42.6426 100.205c-35.7051 35.8779 -82.1484 15.8975 -107.315 -21.166c-15.125 -22.2705 -25.6631 -54.4443 -27.8076 -86.6455c28.7119 3.43457 60.9277 -6.29004 58.4932 -28.4219
c-3.2002 -29.0498 -4.37988 -57.499 -1.27637 -85.9482c0.46875 -1.33105 0.641602 -2.68945 0.414062 -4.08984c1.29688 -10.4561 3.17285 -20.9189 5.80078 -31.4092c3.49023 -13.918 8.47656 -37.6152 20.6152 -46.6367
c14.5732 -10.8213 27.8018 -0.351562 40.5537 11.2559z" />
    <glyph glyph-name="ampersand" unicode="&#x26;" horiz-adv-x="809" 
d="M603.136 82.2607c-40.7402 -49.7539 -87.6592 -100.846 -140.593 -142.841c58.3682 -38.2705 126.172 -61.3477 202.113 -61.4922c34.2568 -0.0693359 33.9121 -31.4707 0 -32.002c-88.8945 -1.39355 -168.52 24.3047 -236.688 68.0996
c-34.0088 -23.0498 -70.2178 -41.9268 -108.723 -53.9824c-82.6729 -25.8906 -233.239 -28.5322 -264.255 75.6729c-15.0625 50.6094 6.06934 102.998 35.2637 144.021c33.8291 47.5332 73.666 91.3564 113.233 134.18c-12.6211 36.8154 -21.9805 74.6514 -27.8086 112.619
c-29.7256 193.596 22.8154 495.272 251.275 543.785c102.881 21.8428 221.425 -24.1387 223.508 -142.655c1.96582 -111.84 -77.8242 -225.97 -143.207 -310.291c-69.3486 -89.4385 -151.27 -167.884 -229.777 -249.157c34.5186 -78.2939 84.9697 -149.904 149.125 -202.424
c45.6025 37.8018 86.1973 82.707 121.123 123.875c75.2041 88.6455 133.876 192.526 157.484 307.111c4.38672 21.2773 57.2236 18.9326 53.4512 0.000976562c-23.3809 -117.42 -80.0732 -222.363 -155.525 -314.52zM276.348 683.477
c-47.8027 -102.488 -61.4434 -221.839 -48.6494 -333.541c3.46875 -30.2295 9.46191 -60.8242 17.7041 -91.1494c67.5342 71.7832 135.655 143.511 190.41 225.715c31.0977 46.6855 57.3262 96.1572 77.6309 148.47c19.8213 51.0645 35.2637 108.702 14.9385 161.953
c-11.5039 30.1533 -27.4014 44.623 -61.4932 44.0918c-28.0156 -0.43457 -56.0381 -11.5527 -79.8877 -25.5742c-50.7061 -29.8086 -86.1143 -77.3555 -110.653 -129.965zM249.354 -120.012c51.334 6.22754 99.0928 28.8213 142.84 59.4854
c-63.3271 49.623 -114.964 115.475 -152.572 189.195c-38.9814 -40.3604 -85.9561 -86.0527 -100.57 -140.104c-20.4766 -75.7275 40.5957 -117.047 110.303 -108.577z" />
    <glyph glyph-name="quotesingle" unicode="'" horiz-adv-x="235" 
d="M83.1719 796.752c12.5244 37.3877 117.272 23.4766 99.3408 -15.6084c-20.5801 -44.8574 -38.96 -102.791 -80.0654 -132.689c-11.0898 -8.06934 -42.6357 -7.91113 -48.7188 7.33105c-8.80762 22.0771 0 44.4785 5.7793 66.5352
c6.60059 25.208 15.3945 49.7266 23.6641 74.4316z" />
    <glyph glyph-name="quotesingle" unicode="&#x2019;" horiz-adv-x="235" 
d="M83.1719 796.752c12.5244 37.3877 117.272 23.4766 99.3408 -15.6084c-20.5801 -44.8574 -38.96 -102.791 -80.0654 -132.689c-11.0898 -8.06934 -42.6357 -7.91113 -48.7188 7.33105c-8.80762 22.0771 0 44.4785 5.7793 66.5352
c6.60059 25.208 15.3945 49.7266 23.6641 74.4316z" />
    <glyph glyph-name="quotesingle" unicode="&#x2018;" horiz-adv-x="235" 
d="M83.1719 796.752c12.5244 37.3877 117.272 23.4766 99.3408 -15.6084c-20.5801 -44.8574 -38.96 -102.791 -80.0654 -132.689c-11.0898 -8.06934 -42.6357 -7.91113 -48.7188 7.33105c-8.80762 22.0771 0 44.4785 5.7793 66.5352
c6.60059 25.208 15.3945 49.7266 23.6641 74.4316z" />
    <glyph glyph-name="parenleft" unicode="(" horiz-adv-x="589" 
d="M530.181 -282.709c11.5039 -9.64844 12.2148 -25.5605 -3.39258 -32.5059c-122.206 -54.3408 -278.2 -50.4092 -367.528 61.3408c-71.0244 88.8594 -91.3086 216.162 -102.398 326.119c-13.2627 131.462 -7.09668 265.82 16.8213 395.737
c23.2705 126.386 56.5547 256.323 111.178 373.081c23.0078 49.1885 57.5264 103.516 106.771 129.951c46.8164 25.1396 100.274 40.4297 153.359 34.54c35.2979 -3.91699 11.3311 -30.9395 -13.9258 -28.7881c-61.9551 5.27637 -104.392 -54.9541 -128.834 -104.653
c-24.0977 -49.002 -38.6367 -101.57 -53.8584 -153.801c-60.0029 -205.914 -89.3076 -425.814 -65.6377 -639.825c10.3457 -93.5283 25.2637 -193.078 72.3906 -276.068c19.0635 -33.5742 44.6299 -65.4307 80.8389 -81.4727
c42.6299 -18.8975 94.9639 -8.68359 138.193 2.7168c17.2559 4.55176 41.2021 6.05566 56.0234 -6.37207z" />
    <glyph glyph-name="parenright" unicode=")" horiz-adv-x="589" 
d="M424.19 793.358c95.6738 -242.57 140.487 -518.105 100.713 -777.222c-16.1943 -105.516 -41.1816 -228.287 -125.606 -301.933c-94.0664 -82.0459 -228.859 -77.6318 -337.306 -29.4092c-16.042 7.13867 -14.7656 22.9531 -3.39258 32.5049
c14.8633 12.4834 38.5957 10.9727 56.0244 6.37207c50.2646 -13.249 108.254 -22.8428 154.732 6.35156c37.9053 23.8076 62.1543 63.6094 80.1758 103.549c40.209 89.1006 53.21 192.154 60.6035 288.766c8.2002 107.15 2.44824 214.218 -11.4902 320.63
c-14.1729 108.137 -39.7256 213.177 -70.6309 317.63c-13.2969 44.9473 -28.208 90.2393 -51.7266 131.041c-25.0498 43.4434 -63.8584 89.7979 -118.564 85.1357c-25.3877 -2.15918 -49.1133 24.8838 -13.9258 28.7871c56.5889 6.2832 123.882 -11.042 170.043 -45.126
c54.8721 -40.5195 86.0117 -105.371 110.351 -167.077z" />
    <glyph glyph-name="asterisk" unicode="*" horiz-adv-x="438" 
d="M363.506 578.058c31.9873 -2.3584 32.5752 -32.8711 -0.0195312 -30.4775c-31.333 2.31738 -62.6797 3.49707 -94.0605 3.56641c27.0361 -25.5254 53.1963 -52.0576 78.3564 -79.6934c17.6562 -19.4014 -33.0771 -29.2432 -45.6846 -15.2285
c-18.7041 20.7939 -38.0088 40.9678 -57.8027 60.6172c0.337891 -34.084 -0.0898438 -68.1826 -1.50391 -102.295c-0.889648 -21.6016 -55.2236 -21.0566 -54.5273 0c0.875977 26.5732 1.36523 53.1328 1.48242 79.6855
c-19.877 -22.0498 -39.2227 -44.5889 -57.9268 -67.6797c-11.083 -13.6836 -58.0645 -5.71777 -42.8984 14.29c28.4287 37.4912 58.8369 73.0859 90.8936 107.095c-8.10352 -0.599609 -16.2139 -1.15137 -24.3037 -1.94434
c-13.5527 -1.32422 -49.3271 0.648438 -58.9414 -10.8008c-11.4902 -13.6904 -59.2578 -5.10352 -43.3604 14.4492c12.2832 15.1045 30.4219 16.8223 48.6299 19.6777c25.5596 4 51.4297 6.51074 77.2314 8.52441c-35.8916 31.7256 -73.1553 61.9199 -111.792 90.4658
c-17.3799 12.8418 25.6982 24.9736 37.7471 16.6006c28.1943 -19.5938 55.4648 -40.2568 82.0176 -61.7402c-1.48926 31.8018 -3.54492 63.5898 -6.37305 95.3564c-1.76562 19.8975 50.292 20.7734 52.375 0c3.6416 -36.374 6.44141 -72.79 8.37207 -109.24
c23.2354 21.7188 47.1396 42.7754 71.8721 63.0312c14.8008 12.1182 66.293 0.517578 46.6162 -15.5312c-29.415 -23.9873 -57.7754 -49.1475 -85.2246 -75.2588c29.6016 -0.0898438 59.1963 -1.2832 88.8252 -3.46973z" />
    <glyph glyph-name="plus" unicode="+" horiz-adv-x="380" 
d="M305.025 426.251c32.9053 0.117188 32.6689 -30.7881 0.0195312 -30.7676c-21.6426 0.00683594 -43.209 -0.668945 -64.7139 -1.88281c0.37207 -33.2979 1.76562 -66.541 2.6416 -99.832c0.930664 -35.4775 6.96582 -73.21 -4.31738 -107.309
c-9.56641 -28.9121 -71.5215 -21.7324 -84.2734 0c-18.9248 32.25 -20.8555 77.4863 -24.9385 114.033c-2.98633 26.6914 -4.64844 53.624 -5.86914 80.5078c-14.0762 -2.24121 -28.1318 -4.65527 -42.167 -7.41406c-26.0361 -5.11719 -48.0928 21.9258 -13.9258 28.7881
c18.2285 3.65527 36.5264 6.84863 54.8584 9.66211c-2.68945 75.6797 0.131836 150.173 9.89746 225.328c5.78613 44.5537 116.302 44.4707 114.336 0c-3.12402 -70.8867 -5.91016 -142.076 -6.26855 -213.073c21.5254 1.19336 43.0986 1.87598 64.7207 1.95898z" />
    <glyph glyph-name="comma" unicode="," horiz-adv-x="258" 
d="M103.909 69.4326c15.4697 35.9053 119.213 25.9326 101.937 -16.0283c-13.5391 -32.8701 -28.0088 -65.3066 -44.2578 -96.9424c-15.5459 -30.2568 -28.8154 -58.6377 -57.9619 -77.3213c-12.0557 -7.73145 -41.6299 -8.09668 -48.7197 7.33203
c-12.6484 27.5322 2.11133 57.7822 11.1328 85.0107c11.0283 33.2705 24.0078 65.7754 37.8701 97.9492z" />
    <glyph glyph-name="hyphen" unicode="-" horiz-adv-x="430" 
d="M327.902 339.888c16.4219 0.200195 51.7822 -6.75781 51.7822 -29.5107c0 -23.3809 -34.6846 -28.8506 -51.7822 -29.5195c-86.4736 -3.37305 -174.085 -3.27637 -259.896 8.38672c-24.877 3.37988 -23.125 24.9668 0 29.3809
c85.1494 16.249 173.285 20.2285 259.896 21.2627z" />
    <glyph glyph-name="period" unicode="." horiz-adv-x="239" 
d="M85.2998 62.5908c13.1934 36.2988 115.998 28.0781 101.942 -16.0273c-13.6211 -42.7266 -27.6357 -99.1709 -57.8721 -133.214c-13.9521 -15.7109 -53.5957 -15.6699 -67.5547 0c-10.8555 12.1865 -13.6768 18.0488 -10.7109 34.1602
c2.2002 11.9795 5.30371 24.0078 8.60059 35.7256c7.51758 26.7529 16.1113 53.2441 25.5947 79.3555z" />
    <glyph glyph-name="slash" unicode="/" horiz-adv-x="787" 
d="M631.738 831.988c20.2979 27.0293 125.117 12.751 101.53 -24.4023c-108.909 -171.602 -222.929 -339.051 -324.307 -515.438c-50.2305 -87.4043 -99.0742 -175.739 -146.414 -264.744c-47.8916 -90.0596 -90.2871 -188.934 -160.622 -264.131
c-11.1523 -11.9248 -57.8164 -11.6074 -51.3057 12.332c26.2773 96.5566 73.9209 189.354 117.868 278.918c44.1123 89.9014 90.8389 178.299 139.966 265.565c98.6807 175.291 202.375 350.872 323.284 511.9z" />
    <glyph glyph-name="zero" unicode="0" horiz-adv-x="599" 
d="M81.6963 74.7666c-7.01367 73.6523 -0.561523 147.697 11.7637 220.666c-54.3477 91.501 -52.6855 206.444 -22.6357 305.629c25.2979 83.4941 73.542 168.561 161.919 195.906c77.9277 24.1113 152.366 -8.7666 199.741 -72.1143
c55.3818 -74.0518 81.0938 -169.656 97.4326 -259.385c18.9316 -103.957 24.8906 -212.983 11.8555 -318.002c-11.1797 -90.0596 -34.7461 -188.112 -93.5557 -259.668c-60.0303 -73.0449 -162.276 -100.57 -245.97 -50.1338
c-82.1211 49.4922 -111.964 146.959 -120.551 237.102zM117.054 575.557c-16.0283 -61.0723 -19.9463 -127.255 -5.58008 -189.189c1.02734 4.62793 2.04785 9.2627 3.0957 13.8701c10.1113 44.5605 122.807 42.4014 115.413 -0.000976562
c-9.29688 -53.3135 -19.3525 -106.902 -26.3945 -160.774c29.1328 -19.6221 63.79 -28.9463 102.31 -19.9736c18.7598 4.37305 47.2988 -18.8555 19.1387 -25.877c-44.1885 -11.0146 -87.335 -7.08301 -125.771 8.60059
c-2.73828 -27.1465 -4.52441 -54.3613 -4.80762 -81.6592c-0.792969 -76.7139 3.49023 -168.69 58.376 -228.624c12.7109 -13.8838 30.8701 -29.8291 50.7129 -29.0703c17.6699 0.675781 36.5264 14.6836 49.6025 25.8154c26.2422 22.3389 45.8984 50.7402 61.4717 81.2725
c35.7607 70.1279 54.6924 150.519 65.0791 228.102c20.5664 153.553 3.75195 325.886 -66.5547 465.645c-33.5947 66.7617 -96.4043 139.62 -177.567 97.0801c-66.9141 -35.0635 -100.336 -115.909 -118.523 -185.216z" />
    <glyph glyph-name="one" unicode="1" horiz-adv-x="513" 
d="M101.317 608.428c-6.87598 -18.042 -58.3857 -13.3184 -50.5029 7.93066c28.5117 76.9072 105.509 162.408 195.465 154.429c93.9775 -8.33789 137.801 -114.288 156.05 -193.085c27.2148 -117.523 26.6631 -243.709 27.3877 -363.708
c0.738281 -123.033 -1.69629 -246.667 -13.2207 -369.17c-0.241211 -2.5791 -0.869141 -5 -1.73828 -7.29688c4.60742 0.420898 9.22168 0.731445 13.8291 1.18652c9.30371 0.923828 29.7871 0.786133 33.8701 -10.959
c3.93848 -11.3389 -9.68945 -18.3809 -19.2275 -19.3047c-64.3477 -6.23438 -128.771 -9.58594 -193.43 -9.65527c-33.2295 -0.0341797 -32.9883 30.9951 0 31.085c16.7871 0.0410156 33.5537 0.358398 50.3135 0.827148c-2.66895 4.11719 -4.29004 8.7998 -4.41406 14.1172
c-4.64844 198.065 19.8975 396.344 20.6768 594.63c0.324219 82.0312 4.9248 180.333 -30.0498 256.702c-50.9541 111.261 -161.339 -25.6084 -185.009 -87.7285z" />
    <glyph glyph-name="two" unicode="2" horiz-adv-x="626" 
d="M64.1123 -185.205c-12.5801 9.05566 -20.1992 21.001 -7.81934 34.5537c33.2979 36.4297 79.873 63.0859 116.702 96.3428c37.2158 33.6084 71.583 70.2998 103.585 108.895c57.5137 69.3623 104.605 148.091 141.049 230.433
c40.2295 90.9082 73.0654 190.83 71.6035 291.249c-0.751953 51.665 -12.3184 103.302 -51.7686 139.518c-41.1055 37.7402 -100.867 38.8096 -148.621 12.9189c-75.1348 -40.7471 -152.966 -162.622 -114.812 -248.468
c9.17285 -20.6494 -43.0156 -25.8633 -51.0225 -8.02148c-47.5127 105.895 52.416 248.646 149.338 288.545c44.8232 18.4492 96.8535 22.7803 143.663 9.22754c52.7334 -15.2695 87.0381 -52.0918 112.736 -99.0117c60.3135 -110.13 52.3682 -230.405 15.8633 -347.28
c-33.6982 -107.881 -88.7354 -206.361 -158.49 -294.979c-52.3057 -66.4512 -120.516 -138.931 -196.995 -186.009c3.60742 0.378906 7.21484 0.703125 10.8223 1.10352c22.5391 2.51074 45.0713 5.08301 67.6035 7.62793c36.2363 4.08984 72.4658 8.71094 108.875 10.9658
c66.5479 4.12402 135.91 -1.6416 191.954 -40.9951c26.4707 -18.5869 -22.4209 -33.6152 -38.9385 -22.1943c-70.6797 48.8574 -159.802 30.5596 -239.509 20.6973c-46.0088 -5.68945 -91.9424 -12.7383 -137.979 -18.0352
c-30.0977 -3.46191 -61.9199 -5.73145 -87.8389 12.918z" />
    <glyph glyph-name="three" unicode="3" horiz-adv-x="731" 
d="M260.317 -171.776c82.3975 -49.8643 177.153 -1.62207 235.136 62.8154c59.2441 65.8242 86.6455 157.519 80.7764 245.13c-5.78613 86.3633 -47.6094 164.829 -113.185 220.756c-48.5332 41.3955 -124.875 79.6455 -190.485 65.1133
c-14.6699 -6.33789 -29.5254 -12.2275 -44.5469 -17.5869c-22.8428 -8.14551 -56.7412 -6.93164 -76.4873 8.7041c-18.084 14.3184 -14.1807 32.8438 4.63379 44.375c22.1943 13.6006 46.2852 22.6836 71.4316 27.9736c44.7129 19.7803 86.7148 44.9053 125.572 75.4375
c36.7324 28.8633 139.544 104.888 94.6318 160.828c-21.9736 27.3672 -74.2041 27.0156 -104.854 24.0225c-36.4639 -3.55859 -71.9209 -15.0488 -104.984 -30.5186c-58.9199 -27.5664 -121.778 -70.7959 -137.421 -137.902c-4.5791 -19.6426 -53.5264 -17.3662 -49.6777 0
c18.6904 84.2939 96.4258 136.435 171.43 168.554c72.7627 31.1533 172.768 49.9609 246.495 10.7109c34.374 -18.3047 58.8652 -52.1963 57.6992 -92.1152c-1.25488 -43.0088 -25.9111 -76.1689 -54.1543 -106.102c-28.5049 -30.2012 -60.4717 -56.6436 -94.8184 -79.6172
c62.1758 -16.125 121.323 -46.3682 166.153 -81.6182c189.147 -148.704 182.312 -446.367 -12.877 -587.126c-101.653 -73.3066 -252.447 -89.6318 -358.273 -15.001c-108.219 76.3213 -133.813 225.08 -118.42 348.61c4.67578 37.5332 94.0527 38.25 96.5566 0
c7.16602 -109.454 1.31738 -249.875 109.668 -315.443z" />
    <glyph glyph-name="four" unicode="4" horiz-adv-x="755" 
d="M118.446 145.012c-36.4912 1.93066 -73.1963 22.793 -67.9404 64.1396c11.4766 90.1494 132.958 123.206 205.458 139.91c15.9316 3.66895 31.96 6.84863 48.0371 9.73828c19.8145 40.0781 35.6846 81.7764 48.3955 120.943
c17.1182 52.7539 28.6562 107.156 34.6914 162.29c6.14551 56.1406 11.6836 119.261 -5.57227 173.822c-7.02832 22.2217 45.209 26.2773 51.0234 8.02148c18.4287 -57.8721 14.1592 -122.206 7.83496 -181.844c-6.33789 -59.8027 -19.29 -119.096 -38.1533 -176.195
c-10.6416 -32.209 -23.3047 -65.1904 -38.2988 -97.4062c57.8789 8.46289 115.999 15.4912 172.988 28.1611c-1.75879 34.4365 -3.04199 68.8936 -3.52441 103.378c-1.16602 83.8525 5.04102 165.691 12.207 249.096c4.00684 46.582 120.274 43.9961 116.495 0.000976562
c-13.7451 -159.98 -2.55859 -325.017 7.21387 -484.99c4.81445 -78.7764 9.17285 -157.828 17.1455 -236.356c3.93848 -38.7334 8.22852 -77.4873 13.7598 -116.027c4.56543 -31.8496 7.52441 -59.6367 -0.254883 -91.0449
c-3.81445 -15.4004 -36.582 -13.1934 -46.0166 -6.92383c-61.8994 41.1396 -71.5 132.813 -82.3975 201.023c-12.5039 78.2178 -18.9873 156.946 -24.9873 235.867c-2.88965 37.9883 -5.62109 75.9902 -7.87598 114.026
c-63.376 -12.752 -127.813 -19.9863 -191.762 -30.4561c-28.877 -54.2578 -65.1963 -104.536 -110.957 -142.772c-32.6982 -27.3252 -73.79 -48.7051 -117.51 -46.4014zM104.204 204.399c-2.35156 -47.8027 53.292 -20.3672 73.707 -5.82129
c43.6436 31.0703 78.625 75.2793 106.833 124.123c-48.1543 -9.95215 -100.212 -23.5801 -139.056 -53.6504c-19.3389 -14.9736 -40.2158 -38.8848 -41.4844 -64.6514z" />
    <glyph glyph-name="five" unicode="5" horiz-adv-x="691" 
d="M244.163 716.916c-66.1621 -15.6699 -160.628 -21.666 -193.153 53.4131c-8.73145 20.167 41.8574 25.1055 49.4648 7.77344c27.0498 -61.6377 100.371 -40.7539 151.05 -26.7949c46.8164 12.8906 92.957 28.374 140.649 37.8848
c61.0518 12.1729 189.451 26.9941 205.928 -57.4102c3.75879 -19.2422 -49.7891 -21.4971 -53.9893 0.000976562c-12.3037 62.9893 -130.985 35.6641 -217.955 9.87012c0.475586 -1.5791 0.709961 -3.29688 0.365234 -5.31738
c-7.7793 -45.6572 -16.4072 -88.9697 -31.1182 -133.055c-7.0625 -21.1738 -14.373 -42.2783 -21.5596 -63.417c-4.09668 -12.042 -11 -25.4287 -13.1797 -38.0156c-13.5732 -0.724609 -12.9941 -1.61426 1.74414 -2.64844
c1.70996 -0.0966797 3.41992 -0.200195 5.12988 -0.296875c82.7559 -6.04883 160.201 -15.8496 232.046 -61.5693c54.1201 -34.4365 99.0469 -84.2041 123.021 -144.166c27.6768 -69.2236 21.3252 -141.807 1.99316 -212.3
c-37.6709 -137.352 -136.89 -247.799 -286.449 -253.371c-64.8789 -2.41406 -132.944 15.8145 -182.057 59.6924c-48.6992 43.5059 -63.459 104.509 -56.7139 167.491c14.1592 132.138 108.626 251.178 248.991 251.351c32.9531 0.0410156 32.5947 -30.2158 0 -30.7744
c-151.421 -2.56543 -208.12 -198.879 -149.731 -314.912c57.1611 -113.592 196.934 -91.5283 266.013 -3.53125c70.1689 89.3838 109.709 235.302 58.4443 341.121c-24.2842 50.127 -65.0586 91.0391 -114.709 116.179c-58.1758 29.457 -115.165 25.0986 -177.803 30.0645
c-24.7393 1.96582 -59.0234 6.85547 -72.9346 30.7949c-13.2695 22.8359 6.3457 53.665 15.4424 74.0596c26.7393 59.9199 54.2852 116.757 87.7627 172.532c-6.62793 -1.99316 -12.3252 -3.61426 -16.6914 -4.64844z" />
    <glyph glyph-name="six" unicode="6" horiz-adv-x="601" 
d="M171.158 -156.5c-65.5205 40.5947 -98.5615 117.461 -112.473 190.472c-30.8428 161.822 24.1328 341.135 107.15 479.362c41.0713 68.3828 91.6182 132.482 154.049 182.63c51.3887 41.2783 120.716 99.4189 190.898 75.0518
c32.7324 -11.3662 -6.46973 -31.9814 -26.4365 -25.7812c-28.3115 8.79395 -74.3896 -35.291 -91.6113 -53.126c-23.3184 -24.1387 -43.8711 -50.8086 -63.3613 -78.0791c-38.3809 -53.6924 -72.3623 -111.164 -98.874 -171.643
c-44.6367 -101.84 -74.0869 -216.184 -70.5693 -328.396c101.149 60.1689 237.812 74.9004 333.554 5.80762c54.3057 -39.1816 69.7275 -108.351 48.0234 -170.285c-21.96 -62.665 -82.0186 -103.295 -143.325 -121.938
c-71.541 -21.7529 -161.635 -24.5947 -227.024 15.9248zM427.952 113.604c-88.3906 40.8916 -191.667 13.585 -264.643 -46.1279c13.3799 -108.695 70.0107 -230.163 199.024 -207.093c58.4785 10.4561 109.964 49.0098 127.931 106.868
c18.415 59.2861 -5.36523 120.014 -62.3125 146.353z" />
    <glyph glyph-name="seven" unicode="7" horiz-adv-x="608" 
d="M80.2725 672.459c-24.8564 -3.68945 -46.54 22.46 -13.3389 27.584c62.1133 9.61426 122.937 23.291 183.561 39.8086c51.3955 14.0078 103.874 27.4434 157.607 22.7471c39.9609 -3.49023 83.2041 -16.5732 106.212 -51.9336
c26.5459 -40.7881 33.0771 -96.8252 33.8701 -144.158c1.77246 -105.302 -27.3535 -207.189 -53.9893 -308.222c12.918 0.455078 25.8359 1.08301 38.7471 2.04883c26.1396 1.96582 36.8438 -27.5947 7.10449 -29.9189
c-17.9521 -1.40039 -35.8906 -2.46289 -53.8574 -3.03516c-30.2148 -118.661 -48.2021 -239.867 -78.417 -358.342c-9.25586 -36.2705 -115.137 -33.0977 -113.357 8.74609c5.17285 121.53 38.1123 237.86 74.9834 353.204
c-4.10352 -0.496094 -8.11035 -1.21387 -11.9521 -2.24805c-9.79395 -2.63477 -30.2227 -4.57324 -37.3057 5.5791c-6.55176 9.38672 -1.1582 18.3525 9.78027 21.2627c16.8008 4.46875 32.877 5.57227 49.1328 5.38574c23.5117 72.4863 47.7754 144.718 66.8457 217.749
c13.6348 52.21 20.166 104.688 25.373 158.236c2.02051 20.7666 4.06152 42.3955 -7.02148 61.2031c-15.6973 26.6426 -47.126 34.1533 -75.8721 34.8984c-54.8926 1.43457 -108.792 -19.0078 -161.408 -31.9326c-48.4434 -11.9043 -97.3496 -21.3457 -146.697 -28.6631z
" />
    <glyph glyph-name="eight" unicode="8" horiz-adv-x="614" 
d="M443.312 703.64c50.5752 -58.6855 59.7236 -141.425 59.2686 -215.945c-0.585938 -97.1289 -16.1035 -193.278 -32.7041 -288.779c19.4834 -26.6016 37.3398 -54.2715 52.7334 -83.1416c20.8906 -39.167 37.6436 -81.5 40.8232 -126.185
c3.16602 -44.4639 -11.6621 -81.1895 -34.7461 -118.529c-84.3281 -136.379 -282.352 -115.385 -377.363 -4.4209c-55.7754 65.1416 -77.6592 152.808 -74.4658 237.246c3.49023 92.2324 32.3535 196.438 79.8525 275.586c1.53125 2.54492 4.08984 4.49023 7.17285 5.9873
c-2.11719 2 -4.25488 3.97266 -6.36523 5.97949c-60.9336 57.9199 -119.433 133.062 -105.418 222.639c26.5186 169.484 287.973 209.362 391.212 89.5635zM280.569 737.361c-102.86 -0.296875 -148.547 -102.46 -114.014 -190.485
c34.8086 -88.7559 118.778 -147.304 184.368 -212.431c24.9941 -24.8223 49.6162 -50.7197 72.9414 -77.8037c14.7178 87.5215 26.4355 176.043 22.96 264.592c-3.95215 100.591 -46.54 216.466 -166.256 216.128zM433.202 -164.234
c38.9053 28.001 55.0859 61.3203 52.6104 108.558c-4.95215 94.2256 -63.6377 176.236 -123.055 245.916c-50.7822 59.5547 -108.785 111.682 -166.092 164.629c-48.9062 -90.4111 -75.7217 -206.852 -65.0518 -307.719c10.4629 -98.9502 66.1689 -201.887 166.354 -233.344
c46.9336 -14.7314 95.3154 -6.76562 135.234 21.96z" />
    <glyph glyph-name="nine" unicode="9" horiz-adv-x="726" 
d="M271.658 716.605c57.7617 29.2773 197.341 78.2129 237.812 -2.23242c9.73145 -19.3525 -39.3398 -22.9805 -48.4229 -7.60742c-29.8018 50.4092 -113.965 -6.58691 -142.801 -31.0986c-36.4844 -31.0156 -69.5479 -65.4102 -98.1074 -103.854
c-49.2021 -66.2373 -96.418 -178.753 -25.1523 -247.859c37.9326 -36.7881 94.2178 5.07617 128.164 30.6709c39.1123 29.498 72.1895 66.8447 99.9629 107.033c57.4375 83.1006 94.2119 179.223 128.6 273.586c6.51758 17.8975 52.5332 15.9111 54.7949 -4.22754
c4.03516 -35.9883 19.4639 -70.8311 26.2852 -106.709c5.90332 -31.0703 11.3447 -62.1611 16.4551 -93.3691c9.97949 -60.9551 18.3037 -122.413 23.1182 -184.002c8.53125 -109.198 6.71094 -224.052 -41.4014 -324.939
c-42.8506 -89.8594 -127.579 -172.974 -230.936 -181.277c-102.522 -8.23535 -186.416 66.0928 -199.658 165.994c-3.08301 23.2637 56.0508 23.2227 60.9961 0.000976562c9.24902 -43.4092 37.1885 -96.9707 83.998 -109.481
c37.5742 -10.042 71.4795 16.0146 96.6396 40.6299c55.0439 53.8643 87.749 129.834 101.433 204.879c17.5391 96.1357 9.24219 191.568 4.84863 288.366c-2.11035 46.5332 -4.08301 93.0186 -4.60059 139.594c-27.8496 -61.9893 -60.8584 -121.254 -105.716 -173.787
c-60.8311 -71.2383 -155.573 -148.118 -255.605 -131.738c-101.336 16.5869 -151.862 115.806 -125.406 210.327c28.7188 102.612 121.806 194.017 214.7 241.102z" />
    <glyph glyph-name="colon" unicode=":" horiz-adv-x="213" 
d="M161.44 442.699c2.77246 -29.7949 0.716797 -60.7754 0.0615234 -90.667c-0.731445 -33.6426 -86.1562 -32.6016 -84.7012 0c0.979492 22.001 2.37988 43.9609 3.81445 65.9414c1.51758 23.2012 0.0898438 40.8574 22.4355 52.417
c12.4072 6.4209 26.8838 5.77246 39.3193 0c13.7598 -6.39355 17.7188 -13.2285 19.0703 -27.6914zM95.5957 0.367188c26.7666 10.876 53.2939 -9.15918 56.9629 -34.9883c4.08984 -28.7803 -0.310547 -59.1953 -1.63477 -88.0938
c-1.85547 -40.3535 -103.55 -38.3535 -100.867 0c1.67578 23.9531 3.49609 47.7402 8.12402 71.3418c5.12402 26.1533 12.3037 41.54 37.415 51.7402z" />
    <glyph glyph-name="semicolon" unicode=";" horiz-adv-x="261" 
d="M193.551 493.419c14.8418 -37.5264 19.8848 -74.2852 16.6084 -114.584c-2.7793 -34.1602 -87.5283 -29.9873 -83.0869 0c5.43457 36.7188 9.23438 73.7617 13.9863 110.536c2.49707 19.3799 45.7402 21.125 52.4922 4.04785zM137.936 4.45898
c3.7041 20.4014 43.4922 19.8477 52.5068 4.04688c26.6631 -46.7881 19.2285 -97.2324 7.78613 -148c-12.0557 -53.458 -28.8838 -104.433 -53.8164 -153.304c-15.6973 -30.7744 -108.461 -24.3047 -92.5908 14.5459c37.7744 92.46 68.2861 184.423 86.1143 282.711z" />
    <glyph glyph-name="less" unicode="&#x3c;" horiz-adv-x="462" 
d="M386.225 170.872c18.5869 -5.80078 35.165 -23.5059 18.9707 -41.21c-17.1182 -18.7109 -50.3193 -16.6348 -72.3203 -10.8066c-57.1133 15.1318 -116.033 21.3389 -173.491 34.9531c-31.0498 7.35254 -115.427 21.2148 -109.04 68.8379
c6.29004 46.8984 81.5352 76.8311 117.488 93.8799c54.9893 26.0771 110.612 43.209 168.442 61.1826c20.8008 6.46191 61.6582 -12.4561 27.7949 -27.1055c-39.333 -17.0146 -77.5 -41.002 -114.64 -62.3408c-17.4971 -10.0557 -34.8633 -20.373 -51.7334 -31.4492
c-7.7793 -5.11035 -41.6152 -26.3457 -42.415 -33.3672c-0.234375 -2.08301 40.292 -12.4971 50.9268 -14.8691c19.8701 -4.44141 40.0088 -7.73828 60.0723 -11.2217c40.4092 -7.01367 80.7354 -14.2344 119.944 -26.4834z" />
    <glyph glyph-name="equal" unicode="=" horiz-adv-x="627" 
d="M291.393 405.188c-71.666 -3.60742 -144.261 -1.77637 -215.644 -6.63184c-26.8838 -1.82031 -37.9053 27.0361 -7.31738 30.8291c72.5273 8.99316 143.91 22.959 217.038 29.4971c73.8867 6.60742 147.842 10.8555 221.963 13.6484
c15.5527 0.585938 49.085 -6.7041 49.085 -27.9814c0 -22.3047 -32.8848 -27.1396 -49.0859 -27.9814c-72.0176 -3.73828 -144.015 -7.75879 -216.039 -11.3799zM575.084 281.888c8.17285 -20.9316 -18.7588 -34.6211 -35.9736 -36.1104
c-77.1348 -6.71777 -154.27 -13.8975 -231.308 -21.6699c-73.1006 -7.37305 -150.284 -20.8564 -223.667 -14.7256c-21.6084 1.7998 -27.9053 21.8281 -6.9668 30.3662c64.2588 26.2012 142.952 30.3809 211.335 39.0156c74.2793 9.37988 148.635 17.1387 223.218 23.6289
c18.2217 1.58594 54.7617 1.50977 63.3623 -20.5049z" />
    <glyph glyph-name="greater" unicode="&#x3e;" horiz-adv-x="426" 
d="M374.755 282.623c10.9316 -45.5127 -47.6934 -79.752 -79.8672 -98.1387c-50.8994 -29.0908 -105.75 -51.54 -160.76 -71.4717c-20.7324 -7.51758 -58.9756 -7.12402 -74.9004 11.1943c-16.9521 19.5049 1.22852 34.8301 19.6436 42.6924
c40.5674 17.3252 81.9414 32.9609 121.171 53.2305c14.4971 7.49707 90.8252 42.5537 62.1201 63.3682c-10.9658 7.95215 -34.1943 7.60742 -46.6504 9.67676c-19.4697 3.23438 -38.8643 6.38672 -58.1064 10.8213c-36.6504 8.44141 -65.2793 23.0283 -98.5703 39.0293
c-28.0977 13.5039 18.5186 29.167 33.043 24.4082c53.7402 -17.6143 117.233 -16.3379 173.105 -24.1865c36.8779 -5.18652 99.3154 -17.0977 109.771 -60.624z" />
    <glyph glyph-name="question" unicode="?" horiz-adv-x="525" 
d="M475.046 651.606c4.23438 -118.675 -42.3457 -241.191 -75.6504 -353.197c-18.4082 -61.8994 -37.5332 -123.861 -50.2236 -187.251c-12.1113 -60.4922 -14.415 -121.061 -20.9951 -182.133c-5.09668 -47.333 -112.688 -46.3262 -119.186 0
c-9.01465 64.2725 4.27539 132.345 18.4004 194.989c13.2695 58.8652 30.208 116.854 49.9746 173.857c40.0156 115.392 91.8389 232.681 111.675 353.735c8.40723 51.3057 9.2832 119.785 -45.0225 147.028c-57.6924 28.9395 -137.048 -10.8975 -178.926 -50.7617
c-75.5352 -71.9072 -97.1982 -230.633 25.5391 -269c32.6709 -10.2139 -6.14453 -32.0703 -26.4355 -25.7734c-103.246 32.0361 -140.199 147.407 -95.542 241.185c41.9053 88.0039 141.027 145.469 237.818 144.082c102.232 -1.46191 165.125 -90.1279 168.573 -186.761z
M331.544 -215.533c-1.4209 -38.1885 6.83496 -83.2568 -10.5654 -118.562c-7.33789 -14.8975 -38.126 -14.4561 -48.3545 -3.60059c-30.6152 32.498 -33.2363 79.5762 -33.8643 122.164c-0.538086 36.6084 94.1221 35.9736 92.7842 -0.000976562z" />
    <glyph glyph-name="at" unicode="@" horiz-adv-x="1137" 
d="M1083.38 515.255c15.6211 -117.896 -21.8604 -246.506 -96.6299 -338.511c-71.6035 -88.1562 -223.149 -157.712 -313.574 -53.5967c-37.3398 42.9814 -52.0508 103.315 -55.5195 159.001c-0.923828 14.835 -0.537109 29.4492 0.635742 43.9395
c-24.2705 -40.7539 -50.8027 -80.0869 -81.4043 -116.854c-54.9268 -65.9961 -132.613 -148.752 -226.639 -108.605c-95.832 40.9258 -53.9883 169.525 -19.3174 240.219c39.1123 79.7422 109.24 148.835 189.899 185.892c57.3682 26.3457 160.276 41.0908 188.719 -31.8711
c15.0283 1.20703 30.6494 -3.20703 29.249 -15.5176c-7.02832 -61.7275 -0.648438 -123.724 9.2207 -185.071c8.25586 -51.3193 23.2148 -116.232 66.1963 -150.772c35.8291 -28.7881 87.4795 31.3115 109.336 56.9814c34.2295 40.1953 57.5273 90.1699 72.0518 140.669
c27.9463 97.1562 25.5527 210.865 -33.1885 296.332c-52.3545 76.1758 -140.766 121.902 -232.287 126.965c-184.92 10.2285 -352.28 -117.054 -446.389 -267.33c-103.467 -165.222 -143.234 -397.551 -35.7598 -571.27c50.1885 -81.1211 138.903 -122.551 232.839 -121.289
c103.791 1.40039 198.733 53.1133 285.958 104.302c25.0215 14.6904 99.542 -5.04199 58.7539 -33.4844c-114.454 -79.8037 -252.848 -132.683 -394.062 -120.055c-131.352 11.7383 -244.439 83.0176 -298.083 205.368c-97.3291 221.956 -21.9668 494.508 137.021 667.724
c161.649 176.119 433.318 262.551 656.495 152.801c105.171 -51.7129 180.988 -149.035 196.479 -265.965zM519.373 268.694c46.4229 61.3545 82.0879 129.606 116.482 198.189c-6.63477 1.68262 -11.9727 5.02734 -13.4834 10.207
c-32.4287 111.22 -152.731 -28.7666 -181.939 -71.7207c-40.1123 -58.9756 -82.0459 -144.125 -74.5488 -217.501c1.17969 -11.5244 3.75879 -21.6211 9.77246 -31.5596c2.76562 -4.5791 11.7314 -8.66211 6.24121 -8.29004
c17.2695 -1.16602 46.6572 26.8838 58.6162 36.9805c29.5186 24.9258 55.5615 52.8994 78.8594 83.6943z" />
    <glyph glyph-name="A" unicode="A" horiz-adv-x="1769" 
d="M375.992 255.366c-94.5977 17.2559 -199.021 45.5977 -268.742 116.174c-153.208 155.042 29.5049 388.923 214.349 388.564c95.1914 -0.179688 175.188 -63.1621 220.749 -143.111c51.251 -89.9287 60.1338 -198.12 55.499 -299.532
c-0.779297 -17.0352 -1.91016 -34.0703 -3.2207 -51.0918c60.6855 -1.11719 121.495 0.407227 182.16 4.00098c2.92383 10.2764 5.8623 20.5527 8.74512 30.8223c65.1484 231.853 115.289 474.271 218.19 693.316c39.5947 84.2871 95.9424 191.465 187.389 228.625
c95.9775 39.002 171.912 -24.8633 220.963 -102.157c62.8721 -99.0605 90.873 -220.219 119.171 -332.673c29.9053 -118.833 54.8926 -238.674 78.0312 -358.99c47.6299 -247.702 87.9766 -497.08 128.868 -745.969
c6.93848 -42.2363 -102.681 -42.8359 -112.723 0.000976562c-52.5332 224.094 -84.1484 452.595 -118.854 680.15c-224.267 -60.1826 -453.182 -103.874 -684.855 -120.53c-18.6426 -63.9688 -38.375 -127.606 -60.4033 -190.555
c-35.6016 -101.729 -75.4658 -204.396 -138.655 -292.573c-51.2988 -71.5967 -122.647 -146.821 -217.425 -144.986c-13.4209 0.254883 -20.6699 6.04785 -21.877 12.2617c-3.73828 3.04199 -5.35938 7.15918 -3.15918 12.2422
c81.4521 188.361 138.958 392.503 158.2 598.064c-54.4854 2.65527 -108.771 8.16602 -162.4 17.9463zM959.465 729.228c-47.4717 -150.359 -85.4541 -303.544 -128.746 -455.124c18.7803 1.47559 37.5537 3.06836 56.2783 4.88184
c208.018 20.1455 413.187 61.8506 614.59 117.054c-4.73145 30.7256 -9.53125 61.4307 -14.4834 92.1016c-18.9316 117.303 -39.1738 234.584 -63.0781 350.982c-21.291 103.674 -28.9053 234.391 -98.8672 319.374c-162.325 197.196 -334.382 -330.078 -365.693 -429.27z
M736.535 237.978c-48.0234 -2.03418 -96.3066 -3.08789 -144.558 -2.28125c-19.3525 -202.39 -75.376 -402.676 -155.67 -588.616c54.2578 15.9736 99.5771 70.9492 131.123 113.165c36.333 48.6162 64.6719 102.812 88.9971 158.276
c45.4717 103.681 80.0391 212.217 111.523 321.077c-10.4697 -0.558594 -20.9326 -1.17969 -31.416 -1.62109zM102.878 514.849c-4.93848 -95.5225 72.1279 -160.18 153.394 -193.112c89.3281 -36.1953 188.389 -49.21 284.621 -53.707
c1.37207 18.3115 2.54492 36.6299 3.29004 54.9482c3.59375 88.6182 -2.98633 180.975 -41.4365 262.22c-42.6641 90.1494 -132.379 171.34 -237.805 133.365c-83.6045 -30.1123 -157.353 -112.544 -162.063 -203.714z" />
    <glyph glyph-name="A" unicode="&#xc5;" horiz-adv-x="1769" 
d="M375.992 255.366c-94.5977 17.2559 -199.021 45.5977 -268.742 116.174c-153.208 155.042 29.5049 388.923 214.349 388.564c95.1914 -0.179688 175.188 -63.1621 220.749 -143.111c51.251 -89.9287 60.1338 -198.12 55.499 -299.532
c-0.779297 -17.0352 -1.91016 -34.0703 -3.2207 -51.0918c60.6855 -1.11719 121.495 0.407227 182.16 4.00098c2.92383 10.2764 5.8623 20.5527 8.74512 30.8223c65.1484 231.853 115.289 474.271 218.19 693.316c39.5947 84.2871 95.9424 191.465 187.389 228.625
c95.9775 39.002 171.912 -24.8633 220.963 -102.157c62.8721 -99.0605 90.873 -220.219 119.171 -332.673c29.9053 -118.833 54.8926 -238.674 78.0312 -358.99c47.6299 -247.702 87.9766 -497.08 128.868 -745.969
c6.93848 -42.2363 -102.681 -42.8359 -112.723 0.000976562c-52.5332 224.094 -84.1484 452.595 -118.854 680.15c-224.267 -60.1826 -453.182 -103.874 -684.855 -120.53c-18.6426 -63.9688 -38.375 -127.606 -60.4033 -190.555
c-35.6016 -101.729 -75.4658 -204.396 -138.655 -292.573c-51.2988 -71.5967 -122.647 -146.821 -217.425 -144.986c-13.4209 0.254883 -20.6699 6.04785 -21.877 12.2617c-3.73828 3.04199 -5.35938 7.15918 -3.15918 12.2422
c81.4521 188.361 138.958 392.503 158.2 598.064c-54.4854 2.65527 -108.771 8.16602 -162.4 17.9463zM959.465 729.228c-47.4717 -150.359 -85.4541 -303.544 -128.746 -455.124c18.7803 1.47559 37.5537 3.06836 56.2783 4.88184
c208.018 20.1455 413.187 61.8506 614.59 117.054c-4.73145 30.7256 -9.53125 61.4307 -14.4834 92.1016c-18.9316 117.303 -39.1738 234.584 -63.0781 350.982c-21.291 103.674 -28.9053 234.391 -98.8672 319.374c-162.325 197.196 -334.382 -330.078 -365.693 -429.27z
M736.535 237.978c-48.0234 -2.03418 -96.3066 -3.08789 -144.558 -2.28125c-19.3525 -202.39 -75.376 -402.676 -155.67 -588.616c54.2578 15.9736 99.5771 70.9492 131.123 113.165c36.333 48.6162 64.6719 102.812 88.9971 158.276
c45.4717 103.681 80.0391 212.217 111.523 321.077c-10.4697 -0.558594 -20.9326 -1.17969 -31.416 -1.62109zM102.878 514.849c-4.93848 -95.5225 72.1279 -160.18 153.394 -193.112c89.3281 -36.1953 188.389 -49.21 284.621 -53.707
c1.37207 18.3115 2.54492 36.6299 3.29004 54.9482c3.59375 88.6182 -2.98633 180.975 -41.4365 262.22c-42.6641 90.1494 -132.379 171.34 -237.805 133.365c-83.6045 -30.1123 -157.353 -112.544 -162.063 -203.714z" />
    <glyph glyph-name="A" unicode="&#xc4;" horiz-adv-x="1769" 
d="M375.992 255.366c-94.5977 17.2559 -199.021 45.5977 -268.742 116.174c-153.208 155.042 29.5049 388.923 214.349 388.564c95.1914 -0.179688 175.188 -63.1621 220.749 -143.111c51.251 -89.9287 60.1338 -198.12 55.499 -299.532
c-0.779297 -17.0352 -1.91016 -34.0703 -3.2207 -51.0918c60.6855 -1.11719 121.495 0.407227 182.16 4.00098c2.92383 10.2764 5.8623 20.5527 8.74512 30.8223c65.1484 231.853 115.289 474.271 218.19 693.316c39.5947 84.2871 95.9424 191.465 187.389 228.625
c95.9775 39.002 171.912 -24.8633 220.963 -102.157c62.8721 -99.0605 90.873 -220.219 119.171 -332.673c29.9053 -118.833 54.8926 -238.674 78.0312 -358.99c47.6299 -247.702 87.9766 -497.08 128.868 -745.969
c6.93848 -42.2363 -102.681 -42.8359 -112.723 0.000976562c-52.5332 224.094 -84.1484 452.595 -118.854 680.15c-224.267 -60.1826 -453.182 -103.874 -684.855 -120.53c-18.6426 -63.9688 -38.375 -127.606 -60.4033 -190.555
c-35.6016 -101.729 -75.4658 -204.396 -138.655 -292.573c-51.2988 -71.5967 -122.647 -146.821 -217.425 -144.986c-13.4209 0.254883 -20.6699 6.04785 -21.877 12.2617c-3.73828 3.04199 -5.35938 7.15918 -3.15918 12.2422
c81.4521 188.361 138.958 392.503 158.2 598.064c-54.4854 2.65527 -108.771 8.16602 -162.4 17.9463zM959.465 729.228c-47.4717 -150.359 -85.4541 -303.544 -128.746 -455.124c18.7803 1.47559 37.5537 3.06836 56.2783 4.88184
c208.018 20.1455 413.187 61.8506 614.59 117.054c-4.73145 30.7256 -9.53125 61.4307 -14.4834 92.1016c-18.9316 117.303 -39.1738 234.584 -63.0781 350.982c-21.291 103.674 -28.9053 234.391 -98.8672 319.374c-162.325 197.196 -334.382 -330.078 -365.693 -429.27z
M736.535 237.978c-48.0234 -2.03418 -96.3066 -3.08789 -144.558 -2.28125c-19.3525 -202.39 -75.376 -402.676 -155.67 -588.616c54.2578 15.9736 99.5771 70.9492 131.123 113.165c36.333 48.6162 64.6719 102.812 88.9971 158.276
c45.4717 103.681 80.0391 212.217 111.523 321.077c-10.4697 -0.558594 -20.9326 -1.17969 -31.416 -1.62109zM102.878 514.849c-4.93848 -95.5225 72.1279 -160.18 153.394 -193.112c89.3281 -36.1953 188.389 -49.21 284.621 -53.707
c1.37207 18.3115 2.54492 36.6299 3.29004 54.9482c3.59375 88.6182 -2.98633 180.975 -41.4365 262.22c-42.6641 90.1494 -132.379 171.34 -237.805 133.365c-83.6045 -30.1123 -157.353 -112.544 -162.063 -203.714z" />
    <glyph glyph-name="A" unicode="&#xc3;" horiz-adv-x="1769" 
d="M375.992 255.366c-94.5977 17.2559 -199.021 45.5977 -268.742 116.174c-153.208 155.042 29.5049 388.923 214.349 388.564c95.1914 -0.179688 175.188 -63.1621 220.749 -143.111c51.251 -89.9287 60.1338 -198.12 55.499 -299.532
c-0.779297 -17.0352 -1.91016 -34.0703 -3.2207 -51.0918c60.6855 -1.11719 121.495 0.407227 182.16 4.00098c2.92383 10.2764 5.8623 20.5527 8.74512 30.8223c65.1484 231.853 115.289 474.271 218.19 693.316c39.5947 84.2871 95.9424 191.465 187.389 228.625
c95.9775 39.002 171.912 -24.8633 220.963 -102.157c62.8721 -99.0605 90.873 -220.219 119.171 -332.673c29.9053 -118.833 54.8926 -238.674 78.0312 -358.99c47.6299 -247.702 87.9766 -497.08 128.868 -745.969
c6.93848 -42.2363 -102.681 -42.8359 -112.723 0.000976562c-52.5332 224.094 -84.1484 452.595 -118.854 680.15c-224.267 -60.1826 -453.182 -103.874 -684.855 -120.53c-18.6426 -63.9688 -38.375 -127.606 -60.4033 -190.555
c-35.6016 -101.729 -75.4658 -204.396 -138.655 -292.573c-51.2988 -71.5967 -122.647 -146.821 -217.425 -144.986c-13.4209 0.254883 -20.6699 6.04785 -21.877 12.2617c-3.73828 3.04199 -5.35938 7.15918 -3.15918 12.2422
c81.4521 188.361 138.958 392.503 158.2 598.064c-54.4854 2.65527 -108.771 8.16602 -162.4 17.9463zM959.465 729.228c-47.4717 -150.359 -85.4541 -303.544 -128.746 -455.124c18.7803 1.47559 37.5537 3.06836 56.2783 4.88184
c208.018 20.1455 413.187 61.8506 614.59 117.054c-4.73145 30.7256 -9.53125 61.4307 -14.4834 92.1016c-18.9316 117.303 -39.1738 234.584 -63.0781 350.982c-21.291 103.674 -28.9053 234.391 -98.8672 319.374c-162.325 197.196 -334.382 -330.078 -365.693 -429.27z
M736.535 237.978c-48.0234 -2.03418 -96.3066 -3.08789 -144.558 -2.28125c-19.3525 -202.39 -75.376 -402.676 -155.67 -588.616c54.2578 15.9736 99.5771 70.9492 131.123 113.165c36.333 48.6162 64.6719 102.812 88.9971 158.276
c45.4717 103.681 80.0391 212.217 111.523 321.077c-10.4697 -0.558594 -20.9326 -1.17969 -31.416 -1.62109zM102.878 514.849c-4.93848 -95.5225 72.1279 -160.18 153.394 -193.112c89.3281 -36.1953 188.389 -49.21 284.621 -53.707
c1.37207 18.3115 2.54492 36.6299 3.29004 54.9482c3.59375 88.6182 -2.98633 180.975 -41.4365 262.22c-42.6641 90.1494 -132.379 171.34 -237.805 133.365c-83.6045 -30.1123 -157.353 -112.544 -162.063 -203.714z" />
    <glyph glyph-name="A" unicode="&#xc2;" horiz-adv-x="1769" 
d="M375.992 255.366c-94.5977 17.2559 -199.021 45.5977 -268.742 116.174c-153.208 155.042 29.5049 388.923 214.349 388.564c95.1914 -0.179688 175.188 -63.1621 220.749 -143.111c51.251 -89.9287 60.1338 -198.12 55.499 -299.532
c-0.779297 -17.0352 -1.91016 -34.0703 -3.2207 -51.0918c60.6855 -1.11719 121.495 0.407227 182.16 4.00098c2.92383 10.2764 5.8623 20.5527 8.74512 30.8223c65.1484 231.853 115.289 474.271 218.19 693.316c39.5947 84.2871 95.9424 191.465 187.389 228.625
c95.9775 39.002 171.912 -24.8633 220.963 -102.157c62.8721 -99.0605 90.873 -220.219 119.171 -332.673c29.9053 -118.833 54.8926 -238.674 78.0312 -358.99c47.6299 -247.702 87.9766 -497.08 128.868 -745.969
c6.93848 -42.2363 -102.681 -42.8359 -112.723 0.000976562c-52.5332 224.094 -84.1484 452.595 -118.854 680.15c-224.267 -60.1826 -453.182 -103.874 -684.855 -120.53c-18.6426 -63.9688 -38.375 -127.606 -60.4033 -190.555
c-35.6016 -101.729 -75.4658 -204.396 -138.655 -292.573c-51.2988 -71.5967 -122.647 -146.821 -217.425 -144.986c-13.4209 0.254883 -20.6699 6.04785 -21.877 12.2617c-3.73828 3.04199 -5.35938 7.15918 -3.15918 12.2422
c81.4521 188.361 138.958 392.503 158.2 598.064c-54.4854 2.65527 -108.771 8.16602 -162.4 17.9463zM959.465 729.228c-47.4717 -150.359 -85.4541 -303.544 -128.746 -455.124c18.7803 1.47559 37.5537 3.06836 56.2783 4.88184
c208.018 20.1455 413.187 61.8506 614.59 117.054c-4.73145 30.7256 -9.53125 61.4307 -14.4834 92.1016c-18.9316 117.303 -39.1738 234.584 -63.0781 350.982c-21.291 103.674 -28.9053 234.391 -98.8672 319.374c-162.325 197.196 -334.382 -330.078 -365.693 -429.27z
M736.535 237.978c-48.0234 -2.03418 -96.3066 -3.08789 -144.558 -2.28125c-19.3525 -202.39 -75.376 -402.676 -155.67 -588.616c54.2578 15.9736 99.5771 70.9492 131.123 113.165c36.333 48.6162 64.6719 102.812 88.9971 158.276
c45.4717 103.681 80.0391 212.217 111.523 321.077c-10.4697 -0.558594 -20.9326 -1.17969 -31.416 -1.62109zM102.878 514.849c-4.93848 -95.5225 72.1279 -160.18 153.394 -193.112c89.3281 -36.1953 188.389 -49.21 284.621 -53.707
c1.37207 18.3115 2.54492 36.6299 3.29004 54.9482c3.59375 88.6182 -2.98633 180.975 -41.4365 262.22c-42.6641 90.1494 -132.379 171.34 -237.805 133.365c-83.6045 -30.1123 -157.353 -112.544 -162.063 -203.714z" />
    <glyph glyph-name="A" unicode="&#xc1;" horiz-adv-x="1769" 
d="M375.992 255.366c-94.5977 17.2559 -199.021 45.5977 -268.742 116.174c-153.208 155.042 29.5049 388.923 214.349 388.564c95.1914 -0.179688 175.188 -63.1621 220.749 -143.111c51.251 -89.9287 60.1338 -198.12 55.499 -299.532
c-0.779297 -17.0352 -1.91016 -34.0703 -3.2207 -51.0918c60.6855 -1.11719 121.495 0.407227 182.16 4.00098c2.92383 10.2764 5.8623 20.5527 8.74512 30.8223c65.1484 231.853 115.289 474.271 218.19 693.316c39.5947 84.2871 95.9424 191.465 187.389 228.625
c95.9775 39.002 171.912 -24.8633 220.963 -102.157c62.8721 -99.0605 90.873 -220.219 119.171 -332.673c29.9053 -118.833 54.8926 -238.674 78.0312 -358.99c47.6299 -247.702 87.9766 -497.08 128.868 -745.969
c6.93848 -42.2363 -102.681 -42.8359 -112.723 0.000976562c-52.5332 224.094 -84.1484 452.595 -118.854 680.15c-224.267 -60.1826 -453.182 -103.874 -684.855 -120.53c-18.6426 -63.9688 -38.375 -127.606 -60.4033 -190.555
c-35.6016 -101.729 -75.4658 -204.396 -138.655 -292.573c-51.2988 -71.5967 -122.647 -146.821 -217.425 -144.986c-13.4209 0.254883 -20.6699 6.04785 -21.877 12.2617c-3.73828 3.04199 -5.35938 7.15918 -3.15918 12.2422
c81.4521 188.361 138.958 392.503 158.2 598.064c-54.4854 2.65527 -108.771 8.16602 -162.4 17.9463zM959.465 729.228c-47.4717 -150.359 -85.4541 -303.544 -128.746 -455.124c18.7803 1.47559 37.5537 3.06836 56.2783 4.88184
c208.018 20.1455 413.187 61.8506 614.59 117.054c-4.73145 30.7256 -9.53125 61.4307 -14.4834 92.1016c-18.9316 117.303 -39.1738 234.584 -63.0781 350.982c-21.291 103.674 -28.9053 234.391 -98.8672 319.374c-162.325 197.196 -334.382 -330.078 -365.693 -429.27z
M736.535 237.978c-48.0234 -2.03418 -96.3066 -3.08789 -144.558 -2.28125c-19.3525 -202.39 -75.376 -402.676 -155.67 -588.616c54.2578 15.9736 99.5771 70.9492 131.123 113.165c36.333 48.6162 64.6719 102.812 88.9971 158.276
c45.4717 103.681 80.0391 212.217 111.523 321.077c-10.4697 -0.558594 -20.9326 -1.17969 -31.416 -1.62109zM102.878 514.849c-4.93848 -95.5225 72.1279 -160.18 153.394 -193.112c89.3281 -36.1953 188.389 -49.21 284.621 -53.707
c1.37207 18.3115 2.54492 36.6299 3.29004 54.9482c3.59375 88.6182 -2.98633 180.975 -41.4365 262.22c-42.6641 90.1494 -132.379 171.34 -237.805 133.365c-83.6045 -30.1123 -157.353 -112.544 -162.063 -203.714z" />
    <glyph glyph-name="B" unicode="B" horiz-adv-x="1384" 
d="M128.142 62.7217c-24.7803 112.509 -43.2002 226.008 -55.877 340.51c-25.5527 230.425 -31.001 464.078 -6.40625 694.786c5.69727 53.4238 138.594 51.9346 135.353 0.000976562c-14.3389 -229.487 -15.6699 -459.347 7.37988 -688.323
c11.2627 -111.93 27.5879 -223.591 47.9541 -334.224c1.63477 -8.86914 3.33789 -17.7451 5.06934 -26.6143c4.33105 143.614 15.2217 286.945 39.7949 428.648c33.002 190.285 87.7148 387.385 196.113 549.476c85.8047 128.31 237.315 263.744 401.827 186.45
c72.0586 -33.8564 103.957 -102.881 93.3633 -180.837c-11.5596 -85.0039 -68.0039 -159.635 -123.303 -222.183c-59.3477 -67.1348 -129.013 -124.807 -202.492 -175.795c-4.62109 -3.20703 -9.29688 -6.46191 -14.0215 -9.73828
c136.924 -0.103516 274.586 -31.8291 394.889 -91.3838c83.3555 -41.2637 162.139 -98.1904 214.155 -176.484c55.168 -83.0391 64.0859 -186.106 37.3877 -280.746c-53.8506 -190.899 -245.667 -322.251 -433.146 -356.853
c-94.0596 -17.3594 -202.893 -15.9873 -287.572 33.8086c-79.3145 46.6367 -117.364 128.6 -107.543 219.411c19.5527 180.809 150.015 343.548 304.539 431.049c17.7871 10.0625 68.6377 -6.53809 40.085 -22.8496c-148.559 -84.8799 -287.372 -257.412 -285.647 -436.462
c0.841797 -87.3633 53.7549 -156.608 137.993 -180.334c81.2803 -22.8906 175.492 1.39355 251.062 33.9121c147.738 63.582 281.304 199.623 288.222 367.763c7.29004 177.292 -142.187 292.408 -293.394 349.598c-129.379 48.9336 -262.344 57.5889 -393.585 29.6426
c-37.4023 -16.959 -76.3486 -28.332 -116.144 -28.3799c-11.1934 -0.0136719 -27.167 2.04883 -39.5127 8.31152c-48.0781 -240.784 -53.4922 -490.852 -52.3613 -735.367c2.73828 -18.1387 5.17285 -36.3047 7.13184 -54.5059
c3.57227 -33.1943 -72.7285 -29.3115 -84.2461 -6.49707c-52.7617 104.509 -81.8945 219.922 -107.068 334.21zM575.842 1053.77c-52.2236 -68.7617 -91.7998 -146.766 -123.505 -226.832c-32.1123 -81.0732 -56.9551 -164.104 -76.2041 -248.419
c31.5254 11.2559 63.8721 20.374 96.75 27.4844c18.1182 10.1729 35.4365 21.5801 50.0508 29.6494c40.5469 22.3877 80.0732 46.6719 118.165 73.0322c73.3418 50.7539 140.704 110.771 199.763 177.608c51.3887 58.1611 119.371 144.435 91.832 227.397
c-22.1113 66.624 -97.1289 100.474 -163.58 86.8242c-81.1973 -16.6699 -145.09 -83.3145 -193.271 -146.745z" />
    <glyph glyph-name="C" unicode="C" horiz-adv-x="1005" 
d="M164.743 -53.3047c-62.4863 124.206 -97.3564 262.386 -109.812 400.462c-12.6279 140.145 -0.633789 280.876 31.8027 417.669c30.2148 127.42 81.9688 252.709 168.973 352.259c79.0732 90.4668 203.948 157.946 321.796 100.716
c111.909 -54.3477 154.442 -198.155 164.636 -312.927c10.9453 -123.282 -15.9316 -264.641 -90.1904 -366.011c-56.4443 -77.0449 -189.113 -130.337 -263.104 -44.0498c-21.208 24.7324 39.7881 33.6084 54.9961 18.3184c106.764 -107.364 203.72 108.626 225.079 185.754
c32.9883 119.123 25.3604 251.95 -23.5391 365.659c-21.7324 50.5195 -55.8857 102.156 -108.047 125.15c-54.2373 23.9111 -100.757 -7.67676 -137.504 -45.9609c-71.0586 -74.0449 -119.627 -169.339 -153.395 -265.454
c-74.2451 -211.321 -93.0596 -446.202 -52.6367 -666.517c19.8906 -108.392 50.2852 -221.804 108.709 -316.36c58.7686 -95.1221 161.602 -172.595 274.097 -115.144c97.6328 49.8574 162.112 153.249 212.625 246.729c53.5127 99.0254 91.5146 205.699 113.274 316.091
c4.08301 20.6904 55.3887 18.4287 51.8369 0c-28.9736 -150.456 -86.3555 -294.249 -172.263 -421.387c-75.418 -111.612 -183.72 -208.327 -327.485 -197.603c-134.421 10.0283 -232.032 107.682 -289.849 222.604z" />
    <glyph glyph-name="D" unicode="D" horiz-adv-x="1265" 
d="M113.198 114.524c-16.0977 99.6807 -29.0938 199.663 -38.7354 300.186c-19.4219 202.624 -30.3535 407.172 -21.1465 610.658c2.11035 46.7129 118.268 46.2988 118.646 0c1.65527 -201.631 4.68262 -402.951 21.8486 -603.968
c8.55859 -100.246 19.2832 -200.444 32.291 -300.215c0.544922 -4.19336 1.09668 -8.39355 1.6416 -12.5938c18.0557 130.055 42.54 259.144 73.8037 386.854c43.7539 178.712 97.1357 361.556 211.39 509.26c84.3838 109.088 220.073 194.83 361.618 149.821
c146.993 -46.7402 235.46 -206.541 285 -342.113c54.9131 -150.276 68.6934 -313.981 41.4365 -471.534c-26.96 -155.821 -89.2256 -317.209 -205.342 -428.607c-117.461 -112.682 -292.283 -157.76 -445.271 -93.4121c-63.707 26.7949 -118.427 72.9141 -155.084 131.482
c-41.6504 66.5547 -46.8848 148.752 -30.1387 224.08c28.5117 128.269 124.041 235.722 245.84 283.441c56.3545 22.0771 130.345 33.416 182.857 -4.30273c53.8164 -38.6572 48.8164 -111.771 20.5527 -164.471c-9.67676 -18.042 -63.1758 -11.5654 -52.582 8.2627
c38.002 71.1279 14.0557 165.415 -82.0732 146.139c-64.8174 -13.001 -124.234 -55.0029 -168.078 -103.102c-92.543 -101.522 -139.725 -282.959 -38.1191 -395.144c89.2803 -98.5703 236.066 -120.02 349.32 -53.0234c114.344 67.6445 183.023 190.506 227.818 311.781
c90.2734 244.378 77.2314 545.358 -45.6094 776.846c-33.1533 62.4717 -79.8105 117.95 -147.828 143.303c-65.21 24.3047 -131.227 5.95898 -187.768 -30.7051c-112.481 -72.9414 -182.064 -203.093 -230.012 -324.43
c-54.2031 -137.158 -88.501 -283.027 -117.875 -427.234c-29.4355 -144.524 -51.1191 -290.4 -64.8301 -437.235c3.98633 -27.5459 6.31738 -55.2441 2.58594 -81.2109c-4.29004 -29.8428 -63.2451 -28.1602 -75.7832 -5.84863
c-25.001 44.4922 -32.5742 101.495 -42.9473 151.104c-10.1387 48.4854 -19.5322 97.0322 -27.4287 145.932z" />
    <glyph glyph-name="E" unicode="E" horiz-adv-x="1326" 
d="M351.221 -214.105c-128.951 27.2363 -243.43 100.912 -283.873 231.843c-38.25 123.771 -10.6006 254.364 56.8438 362.708c74.0518 118.958 184.781 212.438 300.091 289.76c38.5811 25.877 79.1143 51.0713 121.227 73.6445
c-17.373 1.83496 -34.7051 4.22168 -51.9609 7.29102c-82.542 14.6768 -190.105 42.6992 -231.294 124.71c-42.9336 85.4805 30.5459 171.112 100.046 214.48c78.9629 49.2715 185.182 75.4111 277.317 55.4443c68.5137 -14.8418 143.738 -85.5488 86.8525 -155.511
c-12.1797 -14.9805 -63.6094 -5.49707 -46.6152 15.5312c33.0361 40.8848 -3.74512 94.2119 -46.1406 107.316c-43.7471 13.5176 -95.9287 6.09668 -138.944 -6.58008c-78.7627 -23.2285 -173.844 -87.9834 -153.084 -183.009
c17.7803 -81.3906 123.275 -105.074 192.555 -116.068c47.6162 -7.55176 95.6738 -9.15918 143.297 -5.24219c53.9404 18.3662 109.64 30.1182 166.456 31.8906c36.0156 1.11719 77.583 -38.0088 26.0977 -54.9199c-52.3125 -17.1875 -106.253 -28.8916 -160.787 -34.8848
c-26.4424 -10.6006 -52.2158 -22.9941 -77.2305 -35.6641c-61.21 -31.002 -120.179 -66.7344 -175.747 -106.991c-106.667 -77.2793 -209.147 -173.663 -265.329 -294.759c-44.1543 -95.1631 -54.8857 -207.996 -12.7666 -305.974
c46.4785 -108.102 148.373 -156.166 260.386 -168.491c224.501 -24.6982 459.134 67.0928 626.287 214.355c85.7217 75.5283 193.396 195.838 138.635 318.555c-51.9678 116.454 -194.616 153.773 -311.174 146.897c-112.516 -6.63477 -225.77 -48.8027 -313.077 -120.489
c-75.7764 -62.2236 -183.65 -192.01 -122.496 -294.539c10.8145 -18.1318 -40.0156 -24.3594 -49.9814 -7.85547c-75.1211 124.372 67.9141 279.441 162.608 345.789c113.792 79.7285 260.255 118.73 398.6 107.551c120.634 -9.74512 266.021 -69.8652 300.298 -198.402
c35.5879 -133.469 -65.3965 -259.647 -157.615 -343.059c-197.989 -179.078 -495.625 -271.041 -759.479 -215.328z" />
    <glyph glyph-name="E" unicode="&#xcb;" horiz-adv-x="1326" 
d="M351.221 -214.105c-128.951 27.2363 -243.43 100.912 -283.873 231.843c-38.25 123.771 -10.6006 254.364 56.8438 362.708c74.0518 118.958 184.781 212.438 300.091 289.76c38.5811 25.877 79.1143 51.0713 121.227 73.6445
c-17.373 1.83496 -34.7051 4.22168 -51.9609 7.29102c-82.542 14.6768 -190.105 42.6992 -231.294 124.71c-42.9336 85.4805 30.5459 171.112 100.046 214.48c78.9629 49.2715 185.182 75.4111 277.317 55.4443c68.5137 -14.8418 143.738 -85.5488 86.8525 -155.511
c-12.1797 -14.9805 -63.6094 -5.49707 -46.6152 15.5312c33.0361 40.8848 -3.74512 94.2119 -46.1406 107.316c-43.7471 13.5176 -95.9287 6.09668 -138.944 -6.58008c-78.7627 -23.2285 -173.844 -87.9834 -153.084 -183.009
c17.7803 -81.3906 123.275 -105.074 192.555 -116.068c47.6162 -7.55176 95.6738 -9.15918 143.297 -5.24219c53.9404 18.3662 109.64 30.1182 166.456 31.8906c36.0156 1.11719 77.583 -38.0088 26.0977 -54.9199c-52.3125 -17.1875 -106.253 -28.8916 -160.787 -34.8848
c-26.4424 -10.6006 -52.2158 -22.9941 -77.2305 -35.6641c-61.21 -31.002 -120.179 -66.7344 -175.747 -106.991c-106.667 -77.2793 -209.147 -173.663 -265.329 -294.759c-44.1543 -95.1631 -54.8857 -207.996 -12.7666 -305.974
c46.4785 -108.102 148.373 -156.166 260.386 -168.491c224.501 -24.6982 459.134 67.0928 626.287 214.355c85.7217 75.5283 193.396 195.838 138.635 318.555c-51.9678 116.454 -194.616 153.773 -311.174 146.897c-112.516 -6.63477 -225.77 -48.8027 -313.077 -120.489
c-75.7764 -62.2236 -183.65 -192.01 -122.496 -294.539c10.8145 -18.1318 -40.0156 -24.3594 -49.9814 -7.85547c-75.1211 124.372 67.9141 279.441 162.608 345.789c113.792 79.7285 260.255 118.73 398.6 107.551c120.634 -9.74512 266.021 -69.8652 300.298 -198.402
c35.5879 -133.469 -65.3965 -259.647 -157.615 -343.059c-197.989 -179.078 -495.625 -271.041 -759.479 -215.328z" />
    <glyph glyph-name="E" unicode="&#xca;" horiz-adv-x="1326" 
d="M351.221 -214.105c-128.951 27.2363 -243.43 100.912 -283.873 231.843c-38.25 123.771 -10.6006 254.364 56.8438 362.708c74.0518 118.958 184.781 212.438 300.091 289.76c38.5811 25.877 79.1143 51.0713 121.227 73.6445
c-17.373 1.83496 -34.7051 4.22168 -51.9609 7.29102c-82.542 14.6768 -190.105 42.6992 -231.294 124.71c-42.9336 85.4805 30.5459 171.112 100.046 214.48c78.9629 49.2715 185.182 75.4111 277.317 55.4443c68.5137 -14.8418 143.738 -85.5488 86.8525 -155.511
c-12.1797 -14.9805 -63.6094 -5.49707 -46.6152 15.5312c33.0361 40.8848 -3.74512 94.2119 -46.1406 107.316c-43.7471 13.5176 -95.9287 6.09668 -138.944 -6.58008c-78.7627 -23.2285 -173.844 -87.9834 -153.084 -183.009
c17.7803 -81.3906 123.275 -105.074 192.555 -116.068c47.6162 -7.55176 95.6738 -9.15918 143.297 -5.24219c53.9404 18.3662 109.64 30.1182 166.456 31.8906c36.0156 1.11719 77.583 -38.0088 26.0977 -54.9199c-52.3125 -17.1875 -106.253 -28.8916 -160.787 -34.8848
c-26.4424 -10.6006 -52.2158 -22.9941 -77.2305 -35.6641c-61.21 -31.002 -120.179 -66.7344 -175.747 -106.991c-106.667 -77.2793 -209.147 -173.663 -265.329 -294.759c-44.1543 -95.1631 -54.8857 -207.996 -12.7666 -305.974
c46.4785 -108.102 148.373 -156.166 260.386 -168.491c224.501 -24.6982 459.134 67.0928 626.287 214.355c85.7217 75.5283 193.396 195.838 138.635 318.555c-51.9678 116.454 -194.616 153.773 -311.174 146.897c-112.516 -6.63477 -225.77 -48.8027 -313.077 -120.489
c-75.7764 -62.2236 -183.65 -192.01 -122.496 -294.539c10.8145 -18.1318 -40.0156 -24.3594 -49.9814 -7.85547c-75.1211 124.372 67.9141 279.441 162.608 345.789c113.792 79.7285 260.255 118.73 398.6 107.551c120.634 -9.74512 266.021 -69.8652 300.298 -198.402
c35.5879 -133.469 -65.3965 -259.647 -157.615 -343.059c-197.989 -179.078 -495.625 -271.041 -759.479 -215.328z" />
    <glyph glyph-name="E" unicode="&#xc9;" horiz-adv-x="1326" 
d="M351.221 -214.105c-128.951 27.2363 -243.43 100.912 -283.873 231.843c-38.25 123.771 -10.6006 254.364 56.8438 362.708c74.0518 118.958 184.781 212.438 300.091 289.76c38.5811 25.877 79.1143 51.0713 121.227 73.6445
c-17.373 1.83496 -34.7051 4.22168 -51.9609 7.29102c-82.542 14.6768 -190.105 42.6992 -231.294 124.71c-42.9336 85.4805 30.5459 171.112 100.046 214.48c78.9629 49.2715 185.182 75.4111 277.317 55.4443c68.5137 -14.8418 143.738 -85.5488 86.8525 -155.511
c-12.1797 -14.9805 -63.6094 -5.49707 -46.6152 15.5312c33.0361 40.8848 -3.74512 94.2119 -46.1406 107.316c-43.7471 13.5176 -95.9287 6.09668 -138.944 -6.58008c-78.7627 -23.2285 -173.844 -87.9834 -153.084 -183.009
c17.7803 -81.3906 123.275 -105.074 192.555 -116.068c47.6162 -7.55176 95.6738 -9.15918 143.297 -5.24219c53.9404 18.3662 109.64 30.1182 166.456 31.8906c36.0156 1.11719 77.583 -38.0088 26.0977 -54.9199c-52.3125 -17.1875 -106.253 -28.8916 -160.787 -34.8848
c-26.4424 -10.6006 -52.2158 -22.9941 -77.2305 -35.6641c-61.21 -31.002 -120.179 -66.7344 -175.747 -106.991c-106.667 -77.2793 -209.147 -173.663 -265.329 -294.759c-44.1543 -95.1631 -54.8857 -207.996 -12.7666 -305.974
c46.4785 -108.102 148.373 -156.166 260.386 -168.491c224.501 -24.6982 459.134 67.0928 626.287 214.355c85.7217 75.5283 193.396 195.838 138.635 318.555c-51.9678 116.454 -194.616 153.773 -311.174 146.897c-112.516 -6.63477 -225.77 -48.8027 -313.077 -120.489
c-75.7764 -62.2236 -183.65 -192.01 -122.496 -294.539c10.8145 -18.1318 -40.0156 -24.3594 -49.9814 -7.85547c-75.1211 124.372 67.9141 279.441 162.608 345.789c113.792 79.7285 260.255 118.73 398.6 107.551c120.634 -9.74512 266.021 -69.8652 300.298 -198.402
c35.5879 -133.469 -65.3965 -259.647 -157.615 -343.059c-197.989 -179.078 -495.625 -271.041 -759.479 -215.328z" />
    <glyph glyph-name="F" unicode="F" horiz-adv-x="1432" 
d="M102.4 918.716c-25.6768 0.420898 -62.6416 13.4424 -49.7441 46.1748c13.2559 33.6357 57.7412 61.7686 86.0596 81.9141c128.041 91.1016 315.788 133.986 463.112 64.583c47.8994 15.5176 95.9775 30.4697 144.387 44.4287
c4.4834 1.29004 8.9873 2.54492 13.4844 3.82129c4.91016 29.3945 10.3789 58.6514 16.6133 87.7012c5.79297 27.001 72.0234 29.7734 72.8516 0c0.585938 -21.0771 0.827148 -42.1816 0.820312 -63.3066c142.689 36.3672 287.931 62.6582 435.228 70.3203
c89.2598 4.64844 181.243 4.97949 268.461 -16.96c53.8506 -13.5459 151.069 -56.458 107.881 -128.827c-10.6279 -17.8076 -64.4717 -10.7178 -53.0986 8.3457c65.5967 109.909 -232.143 109.605 -284.973 108.15c-116.475 -3.20703 -232.253 -19.5732 -346.148 -43.6504
c-42.7949 -9.04199 -85.2939 -19.2637 -127.579 -30.3057c-1.59277 -126.413 -11.6416 -253.351 -17.752 -379.226c-6.14551 -126.517 -13.1592 -253.061 -12.6416 -379.715c1.21387 -0.186523 2.44824 -0.366211 3.65527 -0.552734
c12.4629 -1.91016 24.8633 -4.19336 37.2363 -6.63477c82.459 34.0986 166.139 64.5693 255.012 78.0869c27.3115 4.15234 50.9951 -24.7734 14.6416 -30.2705c-73.1211 -11.0557 -142.311 -34.4775 -210.328 -61.6445c103.061 -27.8154 201.183 -74.1074 287.297 -137.207
c96.2871 -70.5479 189.588 -178.229 180.395 -305.595c-9.39355 -130.048 -120.695 -225.204 -245.522 -241.37c-131.462 -17.0215 -264.647 41.9883 -338.479 151.738c-77.79 115.626 -90.3633 269.386 -98.9844 404.434
c-0.813477 12.7803 -1.48242 25.5742 -2.0752 38.375c-8.7041 -3.24121 -17.4287 -6.41406 -26.1943 -9.46289c-63.2998 -22.0146 -144.366 -51.4365 -212.384 -41.7949c-23.6836 3.35156 -50.3682 14.4629 -54.8857 40.6846
c-5.30371 30.7744 23.6084 56.5479 45.7607 73.0176c66.9141 49.7334 157.546 62.1963 245.026 59.6377c0.130859 113.999 7.01367 228.239 16.1318 341.445c2.17285 27.0225 4.31738 54.1475 6.51758 81.3076c-7.93848 40.4229 -18.9111 80.1562 -33.4219 118.462
c-21.125 55.7754 -54.1338 99.543 -98.4941 128.689c-70.0928 -23.0703 -139.827 -47.2441 -209.431 -71.4316c-48.6025 -16.8838 -97.1846 -33.8291 -145.828 -50.6094c-42.4297 -14.6426 -86.8799 -33.5127 -132.606 -32.7539zM616.388 288.085
c28.5254 8.95215 56.6045 19.207 84.4131 30.1523c-0.544922 17.6768 -0.938477 35.374 -1.125 53.0713c-23.3047 0.358398 -46.5889 -0.455078 -69.6729 -2.63477c-52.6514 -4.97266 -132.49 -20.291 -161.416 -71.4453
c-27.3115 -48.3057 41.7812 -34.8496 66.8652 -30.0146c27.3877 5.27637 54.334 12.5186 80.9355 20.8711zM1154.28 222.185c-85.8184 60.6582 -183.4 104.204 -285.709 127.971c-16.1045 -6.80078 -32.1807 -13.6836 -48.2646 -20.5527
c0.220703 -8.50391 0.324219 -17.0146 0.62793 -25.5186c4.35156 -121.303 9.33105 -250.074 48.4775 -366.142c34.6016 -102.591 105.061 -209.734 223.949 -216.941c125.992 -7.63477 237.688 97.3428 239.618 223.08c1.80664 117.447 -88.6875 214.479 -178.699 278.104z
M754.115 1124.65c-38.4297 -11.207 -76.7002 -22.9951 -114.847 -35.2021c43.8369 -31.1191 74.0869 -74.5967 95.2188 -124.282c5.34473 53.3545 11.6279 106.612 19.6279 159.484zM112.745 970.889c-8.15918 -33.8428 23.4844 -17.7266 36.4229 -14.0156
c20.1592 5.7793 39.9531 13.2002 59.8096 19.9727c113.93 38.8506 227.231 79.6113 341.431 117.641c-20.3457 8.2832 -42.457 14.1523 -66.4307 17.2559c-82.0732 10.6348 -168.209 -9.26953 -241.605 -46.0918c-41.5059 -20.8213 -79.9902 -47.3398 -113.806 -79.1963
c-1.2207 -1.14453 -15.0352 -12.3174 -15.8213 -15.5654z" />
    <glyph glyph-name="G" unicode="G" horiz-adv-x="1169" 
d="M50.915 401.753c-11.8418 251.709 92.2295 517.494 253.934 707.725c77.7764 91.501 180.478 170.877 298.78 200.857c105.067 26.6289 225.35 -3.88281 246.62 -124.6c20.1807 -114.558 -66.4375 -233.28 -154.2 -297.193
c-67.7344 -49.3262 -217.817 -102.35 -257.558 10.9941c-8.04199 22.9395 46.9814 27.5947 53.623 8.42871c25.96 -74.8867 108.04 -36.7129 154.346 -5.11816c45.8779 31.2979 84.7139 73.8379 112.384 121.902c30.043 52.1816 50.3408 117.633 30.6016 177.036
c-20.4834 61.6309 -74.5967 92.8672 -138.09 76.666c-90.9219 -23.2012 -160.181 -98.6328 -218.28 -168.036c-64.0859 -76.5488 -117.227 -163.85 -159.891 -253.965c-43.6572 -92.2188 -74.9619 -190.313 -92.832 -290.76
c-17.8906 -100.55 -26.3672 -211.845 7.04102 -310.16c13.0352 -38.3604 34.6289 -79.1074 69.8584 -101.363c51.9131 -32.7949 114.468 -9.11133 161.077 21.9727c81.1006 54.0928 145.159 136.849 197.141 218.073c101.984 159.373 167.656 338.402 261.026 502.556
c1.2207 2.15137 3.12402 3.90332 5.46875 5.31738c9.63477 21.3115 64.0439 21.8564 71.0928 -0.00683594c47.0986 -146.049 60.6025 -303.946 81.6104 -455.492c14.8838 -107.392 31.4502 -217.162 30.167 -326.285c17.7871 -7.4209 35.1328 -15.7451 51.8789 -25.0488
c41.7744 -23.2148 80.5693 -55.3408 101.226 -99.3848c24.1387 -51.4717 21.8076 -110.605 19.1592 -165.939c-1.01367 -21.249 -54.4443 -20.5176 -53.4512 0.000976562c2.80664 57.9131 6.05469 121.054 -25.0713 172.656
c-21.7734 36.0918 -57.2715 60.8652 -94.9492 79.335c-1.40723 -26.5664 -3.96582 -53.0713 -8.0625 -79.4727c-16.3047 -105.033 -53.4512 -208.935 -120.654 -292.422c-70.707 -87.8457 -175.043 -144.8 -285.648 -163.504
c-101.426 -17.1523 -229.467 -4.57227 -304.539 73.3486c-64.1416 66.5684 -75.9561 168.814 -45.5127 253.784c70.8037 197.638 317.022 291.104 510.474 293.705c42.7881 0.572266 86.4248 -2.87598 129.372 -10.5518c-0.37207 21.3525 -1.25488 42.5332 -2.58594 63.3828
c-7.17969 112.164 -22.374 223.825 -34.9814 335.465c-9.13184 80.8525 -19.8701 163.009 -22.4014 244.854c-103.268 -205.721 -184.271 -429.58 -353.459 -590.768c-82.1279 -78.2383 -200.94 -136.779 -314.291 -89.4873
c-110.522 46.1123 -155.166 169.822 -160.422 281.497zM779.493 -320.725c122.227 113.992 158.141 282.578 159.692 444.959c-74.8867 15.9805 -152.787 16.9258 -228.384 3.08398c-167.478 -30.6709 -383.04 -158.56 -370.426 -354.639
c14.9453 -232.301 306.918 -216.7 439.117 -93.4043z" />
    <glyph glyph-name="H" unicode="H" horiz-adv-x="1187" 
d="M442.509 -192.911c-104.957 -133.634 -289.242 -87.1992 -357.184 58.1182c-71.1348 152.208 -30.4639 337.569 82.7969 457.361c67.0928 70.9688 151.366 125.406 240.239 171.415c-0.972656 13.9873 -1.97949 27.9678 -2.88965 41.9551
c-13.6006 208.755 -27.3252 417.538 -34.0977 626.645c-1.52441 47.1885 117.971 47.6992 121.344 0c14.4424 -204.465 22.3389 -409.296 30.0078 -614.12c34.5537 15.3799 69.0107 30.0566 102.675 44.4023c90.1084 38.4023 181.789 74.2939 271.752 113.717
c6.81445 124.22 30.5469 247.246 82.1562 360.148c35.2637 77.1348 81.0449 152.249 150.041 203.576c61.8516 46.0156 146.483 78.7207 221.708 46.3125c63.4512 -27.3252 102.226 -96.0801 101.302 -164.104c-1.11035 -82.3213 -50.499 -156.049 -105.329 -213.59
c-89.0938 -93.501 -204.334 -159.208 -322.326 -214.59c-6.52441 -111.13 -0.572266 -223.356 11.3525 -333.334c21.0635 -194.188 57.6855 -387.088 99.5703 -577.697c7.49707 -34.1191 -83.4385 -35.54 -95.3633 -7.35938
c-44.4092 104.95 -69.3418 216.673 -90.7363 328.319c-20.1182 105.012 -36.1533 211.293 -46.0156 317.774c-6.53125 70.5625 -9.89648 142.78 -7.96582 214.915c-1.20703 -0.524414 -2.42773 -1.04883 -3.63477 -1.56641
c-122.413 -52.4512 -247.44 -100.095 -367.646 -157.573c0.668945 -17.8633 1.33789 -35.7334 2.01367 -53.6035c4.44824 -117.675 10.9248 -236.577 1.97266 -354.169c-4.11719 -54.1338 -10.5381 -108.398 -22.6426 -161.373
c-11.6836 -51.1406 -30.9531 -90.6465 -63.0996 -131.579zM1057.06 946.86c-14.4424 -58.8301 -23.7598 -118.664 -29.167 -178.936c38.4639 19.5117 76.3145 40.2305 113.199 62.79c77.6592 47.5059 153.967 105.599 205.797 181.623
c47.9336 70.2998 75.9414 168.863 15.7451 240.984c-71.2588 85.3838 -163.25 3.81445 -208.625 -65.2988c-47.4023 -72.1963 -76.4658 -157.752 -96.9492 -241.163zM169.378 248.926c-48.3613 -74.1963 -70.208 -163.974 -63.0352 -252.116
c6.89648 -84.7422 42.7051 -185.051 123.605 -225.777c48.0371 -24.1807 98.915 -16.6426 137.724 20.6768c34.5254 33.209 44.9668 80.2871 53.1533 126.117c17.7598 99.46 11.4629 204.493 5.95898 304.795c-4.15234 75.6797 -9.88379 151.304 -15.3184 226.935
c-13.0693 -7.32422 -26.0771 -14.7656 -38.9541 -22.4834c-77.252 -46.292 -153.263 -101.64 -203.134 -178.146z" />
    <glyph glyph-name="I" unicode="I" horiz-adv-x="818" 
d="M420.714 495.806c-174.815 -62.2656 -361.49 52.083 -370.229 240.265c-7.39355 158.877 69.6719 330.609 193.526 430.111c58.3477 46.8711 129.717 78.8594 205.955 70.7207c79.1836 -8.44824 133.352 -61.0439 166.422 -130.771
c38.085 -80.3145 52.5342 -171.602 61.1211 -259.274c10.0078 -102.212 9.62207 -206.12 7.51172 -308.711c-4.06934 -197.548 -6.81445 -395.357 -12.0078 -592.843c20.3799 3.33789 40.7812 6.56543 61.2031 9.66211c27.5664 4.17285 51.499 -25.0078 14.7803 -30.5664
c-26.8701 -4.06934 -53.7061 -8.33203 -80.5283 -12.6973c-13.7041 -22.0703 -59.4238 -26.96 -88.7012 -15.0352c-28.1738 -4.96582 -56.3203 -10.0488 -84.4248 -15.4004c-26.291 -5.00684 -48.6162 22.1807 -14.0625 29.084
c24.3809 4.87598 48.7959 9.54492 73.2314 14.1104c-0.0273438 0.200195 -0.0830078 0.393555 -0.103516 0.59375c-17.1523 189.499 6.84863 382.908 18.3184 572.207c9.84863 162.456 23.9395 328.72 4.84863 490.948c-8.18652 69.5547 -19.7041 158.235 -83.9697 199.94
c-71.9824 46.7197 -159.104 0.786133 -215.589 -48.6299c-105.364 -92.1836 -168.036 -234.039 -172.409 -373.418c-2.31055 -73.5068 18.0078 -144.606 71.6729 -196.851c58.293 -56.7412 139.918 -73.9834 216.46 -47.1406
c20.6904 7.2627 59.9473 -14.5596 26.9736 -26.3047z" />
    <glyph glyph-name="I" unicode="&#xcf;" horiz-adv-x="818" 
d="M420.714 495.806c-174.815 -62.2656 -361.49 52.083 -370.229 240.265c-7.39355 158.877 69.6719 330.609 193.526 430.111c58.3477 46.8711 129.717 78.8594 205.955 70.7207c79.1836 -8.44824 133.352 -61.0439 166.422 -130.771
c38.085 -80.3145 52.5342 -171.602 61.1211 -259.274c10.0078 -102.212 9.62207 -206.12 7.51172 -308.711c-4.06934 -197.548 -6.81445 -395.357 -12.0078 -592.843c20.3799 3.33789 40.7812 6.56543 61.2031 9.66211c27.5664 4.17285 51.499 -25.0078 14.7803 -30.5664
c-26.8701 -4.06934 -53.7061 -8.33203 -80.5283 -12.6973c-13.7041 -22.0703 -59.4238 -26.96 -88.7012 -15.0352c-28.1738 -4.96582 -56.3203 -10.0488 -84.4248 -15.4004c-26.291 -5.00684 -48.6162 22.1807 -14.0625 29.084
c24.3809 4.87598 48.7959 9.54492 73.2314 14.1104c-0.0273438 0.200195 -0.0830078 0.393555 -0.103516 0.59375c-17.1523 189.499 6.84863 382.908 18.3184 572.207c9.84863 162.456 23.9395 328.72 4.84863 490.948c-8.18652 69.5547 -19.7041 158.235 -83.9697 199.94
c-71.9824 46.7197 -159.104 0.786133 -215.589 -48.6299c-105.364 -92.1836 -168.036 -234.039 -172.409 -373.418c-2.31055 -73.5068 18.0078 -144.606 71.6729 -196.851c58.293 -56.7412 139.918 -73.9834 216.46 -47.1406
c20.6904 7.2627 59.9473 -14.5596 26.9736 -26.3047z" />
    <glyph glyph-name="I" unicode="&#xce;" horiz-adv-x="818" 
d="M420.714 495.806c-174.815 -62.2656 -361.49 52.083 -370.229 240.265c-7.39355 158.877 69.6719 330.609 193.526 430.111c58.3477 46.8711 129.717 78.8594 205.955 70.7207c79.1836 -8.44824 133.352 -61.0439 166.422 -130.771
c38.085 -80.3145 52.5342 -171.602 61.1211 -259.274c10.0078 -102.212 9.62207 -206.12 7.51172 -308.711c-4.06934 -197.548 -6.81445 -395.357 -12.0078 -592.843c20.3799 3.33789 40.7812 6.56543 61.2031 9.66211c27.5664 4.17285 51.499 -25.0078 14.7803 -30.5664
c-26.8701 -4.06934 -53.7061 -8.33203 -80.5283 -12.6973c-13.7041 -22.0703 -59.4238 -26.96 -88.7012 -15.0352c-28.1738 -4.96582 -56.3203 -10.0488 -84.4248 -15.4004c-26.291 -5.00684 -48.6162 22.1807 -14.0625 29.084
c24.3809 4.87598 48.7959 9.54492 73.2314 14.1104c-0.0273438 0.200195 -0.0830078 0.393555 -0.103516 0.59375c-17.1523 189.499 6.84863 382.908 18.3184 572.207c9.84863 162.456 23.9395 328.72 4.84863 490.948c-8.18652 69.5547 -19.7041 158.235 -83.9697 199.94
c-71.9824 46.7197 -159.104 0.786133 -215.589 -48.6299c-105.364 -92.1836 -168.036 -234.039 -172.409 -373.418c-2.31055 -73.5068 18.0078 -144.606 71.6729 -196.851c58.293 -56.7412 139.918 -73.9834 216.46 -47.1406
c20.6904 7.2627 59.9473 -14.5596 26.9736 -26.3047z" />
    <glyph glyph-name="I" unicode="&#xcd;" horiz-adv-x="818" 
d="M420.714 495.806c-174.815 -62.2656 -361.49 52.083 -370.229 240.265c-7.39355 158.877 69.6719 330.609 193.526 430.111c58.3477 46.8711 129.717 78.8594 205.955 70.7207c79.1836 -8.44824 133.352 -61.0439 166.422 -130.771
c38.085 -80.3145 52.5342 -171.602 61.1211 -259.274c10.0078 -102.212 9.62207 -206.12 7.51172 -308.711c-4.06934 -197.548 -6.81445 -395.357 -12.0078 -592.843c20.3799 3.33789 40.7812 6.56543 61.2031 9.66211c27.5664 4.17285 51.499 -25.0078 14.7803 -30.5664
c-26.8701 -4.06934 -53.7061 -8.33203 -80.5283 -12.6973c-13.7041 -22.0703 -59.4238 -26.96 -88.7012 -15.0352c-28.1738 -4.96582 -56.3203 -10.0488 -84.4248 -15.4004c-26.291 -5.00684 -48.6162 22.1807 -14.0625 29.084
c24.3809 4.87598 48.7959 9.54492 73.2314 14.1104c-0.0273438 0.200195 -0.0830078 0.393555 -0.103516 0.59375c-17.1523 189.499 6.84863 382.908 18.3184 572.207c9.84863 162.456 23.9395 328.72 4.84863 490.948c-8.18652 69.5547 -19.7041 158.235 -83.9697 199.94
c-71.9824 46.7197 -159.104 0.786133 -215.589 -48.6299c-105.364 -92.1836 -168.036 -234.039 -172.409 -373.418c-2.31055 -73.5068 18.0078 -144.606 71.6729 -196.851c58.293 -56.7412 139.918 -73.9834 216.46 -47.1406
c20.6904 7.2627 59.9473 -14.5596 26.9736 -26.3047z" />
    <glyph glyph-name="J" unicode="J" horiz-adv-x="1270" 
d="M80.0703 747.156c-133.931 58.4785 219.871 330.93 271.956 367.09c140.642 97.6465 337.458 218.231 515.874 164.028c163.449 -49.6641 224.956 -224.693 264.999 -374.26c49.0303 -183.14 66.8242 -374.646 50.6924 -563.662
c-14.2012 -166.374 -55.5273 -365.102 -188.775 -479.466c-129.606 -111.24 -321.947 -111.641 -468.417 -32.8096c-130.6 70.293 -207.493 215.004 -210.997 360.812c-3.58594 149.193 67.7207 291.028 176.182 390.902c104.412 96.1426 294.415 182.768 410.648 53.9678
c123.289 -136.628 -45.374 -300.554 -151.586 -380.93c-12.7588 -9.65527 -30.8906 -12.5176 -46.1465 -6.89648c-9.67676 3.56543 -24.7188 16.2217 -12.1045 26.3047c66.2725 52.9609 143.738 101.322 180.319 181.306c33.5605 73.3828 15.1943 157.276 -58.4434 197.271
c-81.583 44.3125 -178.732 -6.04199 -243.543 -58.0518c-57.541 -46.1748 -106.558 -102.771 -141.649 -167.802c-59.3545 -110.006 -76.7832 -241.371 -32.9053 -359.97c46.168 -124.792 162.153 -223.218 298.581 -227.535
c315.975 -10.0078 356.873 423.655 362.487 654.239c3.82129 156.967 -14.042 313.133 -50.2305 465.768c-28.9668 122.179 -63.3271 296.987 -219.411 302.471c-74.0107 2.60059 -147.387 -25.877 -212.673 -58.0996c-67.7754 -33.457 -133.055 -72.3076 -194.851 -115.82
c-58.2715 -41.0293 -113.302 -86.8242 -164.152 -136.765c-20.1318 -19.7734 -156.166 -155.415 -106.081 -180.099c24.1807 -11.918 -15.5801 -28.1875 -29.7734 -21.9941z" />
    <glyph glyph-name="K" unicode="K" horiz-adv-x="994" 
d="M290.713 -237.01c-89.0254 -21.8906 -180.432 17.3086 -221.262 100.485c-45.1953 92.0527 -4.97266 191.768 52.4922 268.013c68.2451 90.5498 155.181 163.484 247.062 231.178c-8.09668 57.1064 -16.1934 114.213 -21.9385 171.595
c-24.7871 247.454 -38.7051 496.812 -37.8779 745.521c0.172852 50.7754 126.11 50.6582 129.428 0.000976562c18.2559 -278.614 22.6494 -557.566 44.5059 -835.938c66.4375 46.4648 132.551 92.8262 193.416 143.525c182.126 151.677 348.617 352.066 359.466 599.41
c0.923828 21.0078 53.7812 20.3594 52.9121 0c-10.4346 -244.095 -168.814 -446.194 -347.285 -599.057c-74.9346 -64.1895 -156.311 -120.944 -237.046 -178.437c92.5146 -19.1113 151.925 -100.061 205.148 -172.851c62.9824 -86.1562 121.109 -174.947 198.514 -249.351
c135.476 -130.221 337.748 -224.784 510.998 -103.157c14.249 10.001 66.2861 -4.32422 45.3613 -19.9521c-163.436 -122.062 -398.357 -89.1914 -559.435 19.7383c-91.3428 61.7686 -162.967 144.745 -225.136 235.039c-32.25 46.8438 -62.1064 94.915 -90.3496 144.263
c-26.8223 46.8506 -48.0713 100.226 -101.164 116.103c0.407227 -4.60059 0.772461 -9.20117 1.19336 -13.8018c18.1455 -198.527 60.2998 -538.558 -199.003 -602.326zM218.121 173.614c-68.3066 -72.5342 -141.014 -176.566 -104.494 -281.075
c14.3252 -40.9746 44.1475 -79.8867 85.2598 -96.5977c52.5684 -21.3594 110.495 3.11035 144.91 44.9121c68.624 83.335 58.4648 220.997 49.8984 321.058c-4.37305 51.0166 -10.9043 101.784 -17.9326 152.497c-55.6787 -43.3193 -109.095 -89.2461 -157.642 -140.794z
" />
    <glyph glyph-name="L" unicode="L" horiz-adv-x="676" 
d="M958.424 -120.453c25.3604 -13.8906 -19.6328 -28.2373 -35.1162 -20.0166c-41.8369 22.1943 -87.4189 9.95215 -129.938 -3.77246c-41.4434 -13.3799 -82.4043 -28.4014 -123.537 -42.6982c-80.1553 -27.8564 -160.049 -56.6582 -240.563 -83.4385
c-121.406 -40.3887 -287.78 -66.0381 -376.074 52.5127c-16.4697 22.1113 35.5742 31.2012 47.085 15.6836c68.8174 -92.749 179.795 -81.1211 284.759 -49.333c-7.2207 1.5791 -13.207 4.2207 -15.9102 7.76562c-43.0576 56.4648 -69.666 123.447 -94.1152 189.837
c-23.5322 63.8926 -42.5605 130.186 -57.5615 196.582c-30.0566 133.027 -47.2578 269.393 -49.3887 405.792c-3.64844 233.149 25.8359 485.466 123.999 699.4c45.0986 98.2881 113.281 194.486 211.444 245.434c82.9141 43.0293 197.699 51.4023 253.585 -37.6436
c56.1816 -89.5146 36.7119 -223.88 17.3457 -321.043c-24.291 -121.854 -68.6514 -239.633 -118.013 -353.335c-87.8936 -202.451 -201.789 -392.93 -336.989 -567.221c7.69727 -43.7949 16.5801 -87.4043 26.5322 -130.813
c12.9248 -56.3818 28.7461 -112.212 45.3467 -167.607c14.918 -49.7822 33.8984 -98.0469 41.1611 -149.602c0.0966797 -0.682617 -0.0136719 -1.26855 -0.0136719 -1.91016c38.8984 13.7246 75.8516 28.5117 108.185 39.6982
c78.707 27.2432 157.042 57.8379 236.949 81.3223c60.1338 17.6768 123.826 25.6357 180.829 -5.59375zM346.271 1070.47c-52.9961 -215.728 -69.4717 -441.023 -51.9746 -662.282c3.44141 -43.5469 8.4834 -86.8594 14.7871 -129.985
c124.399 168.271 228.391 351.162 308.802 544.586c45.0986 108.468 86.1562 220.742 105.957 336.899c15.2354 89.3701 33.4775 221.9 -31.043 297.656c-79.9561 93.874 -196.162 -45.457 -237.833 -111.633c-53.0996 -84.335 -85.0391 -178.939 -108.695 -275.241z" />
    <glyph glyph-name="M" unicode="M" horiz-adv-x="1655" 
d="M118.267 83.3506c-20.0771 113.709 -36.0615 228.577 -46.71 343.569c-21.4492 232.005 -29.2637 465.74 -12.4424 698.29c3.43457 47.3887 121.103 46.7334 120.268 0c-4.11035 -230.715 -2.7998 -461.561 16.0977 -691.661
c9.43457 -114.861 21.0146 -229.398 36.4365 -343.618c4.49707 -33.2979 9.2832 -66.5752 13.9727 -99.8594c17.8213 127.586 38.3604 254.834 61.5342 381.454c29.1465 159.249 61.0654 319.698 116.675 472.154c38.9189 106.688 108.46 299.009 254.088 283.242
c64.6104 -6.99316 103.84 -65.541 124.779 -121.896c28.457 -76.5898 43.458 -159.746 55.3135 -240.288c16.8975 -114.778 24.7529 -230.336 29.374 -346.087c28.6016 115.95 53.2441 232.956 88.0732 347.244c21.6357 70.9824 47.5059 140.876 81.1211 207.113
c28.0078 55.1885 62.3477 127.599 121.261 155.669c148.125 70.5762 221.432 -158.504 251.081 -256.55c47.9883 -158.697 68.3135 -325.609 86.1768 -489.914c18.1318 -166.829 35.5254 -333.217 59.0371 -499.418c6.64844 -46.9746 -113.902 -47.3818 -124.034 0
c-34.9883 163.622 -44.6992 332.927 -57.7969 499.418c-11.7041 148.835 -23.8906 298.104 -50.0303 445.243c-12.0898 68.0381 -21.1455 140.173 -44.3125 205.527c-12.0967 34.1396 -45.6846 93.6943 -90.5488 69.2656
c-29.4502 -16.0352 -48.5479 -49.8164 -65.3828 -77.501c-140.338 -230.729 -163.677 -507.294 -246.136 -759.665c-0.662109 -2.02051 -1.95215 -3.72363 -3.63477 -5.16504c0.0410156 -1.6416 0.0820312 -3.27637 0.123047 -4.91797
c1.11035 -45.0088 -114.744 -45.3398 -115.413 0c-2.48242 167.732 -4.00684 335.775 -16.2285 503.156c-5.32422 72.9277 -10.4277 146.676 -20.4561 219.135c-4.97266 35.8984 -12.8691 76.0176 -40.0293 102.253c-32.3945 31.2773 -71.8311 10.5381 -100.191 -15.0703
c-51.8857 -46.8506 -80.7627 -118.233 -106.557 -181.616c-26.291 -64.6035 -47.582 -131.151 -65.7549 -198.465c-78.8867 -292.139 -112.792 -594.802 -159.58 -893.071c-0.103516 -0.682617 -0.393555 -1.28223 -0.607422 -1.91699
c-0.00683594 -13.1455 -0.558594 -26.332 -2.02051 -39.5947c-2.3584 -21.4287 -44.8359 -19.4287 -53.5537 -4.13184c-56.6025 99.2949 -74.2656 225.963 -93.9912 337.672z" />
    <glyph glyph-name="N" unicode="N" horiz-adv-x="1071" 
d="M98.1104 126.843c-15.8076 107.536 -25.2617 215.836 -32.6064 324.241c-15.0762 222.535 -21.1387 446.34 -9.14453 669.151c2.53809 47.1406 119.578 46.6924 119.723 0c0.689453 -220.887 -0.283203 -441.719 11.2832 -662.405
c5.67578 -108.219 12.4971 -216.79 23.291 -324.63c2.87598 -28.7119 6.55859 -57.2578 10.6758 -85.707c23.6836 176.464 55.5605 352.011 88.0449 526.84c19.3252 104.012 41.1396 207.824 71.9346 309.126c27.6982 91.1426 62.1758 183.354 120.717 259.606
c46.9541 61.1621 119.854 96.1016 194.32 61.21c88.1426 -41.292 133.635 -131.89 161.561 -220.012c63.582 -200.604 77.9414 -412.786 88.9424 -621.645c5.46191 -103.791 10.4824 -207.651 20.1934 -311.146c10.0625 -107.254 29.8564 -212.625 42.9883 -319.334
c5.15918 -41.9326 -101.818 -43.8496 -113.881 -8.78613c-34.457 100.156 -46.0439 210.127 -54.541 315.215c-8.71777 107.819 -12.1113 215.977 -15.9941 324.051c-6.86914 191.299 -13.6973 383.273 -48.8301 571.917c-8.7041 46.7402 -19.0977 92.3701 -36.1816 136.807
c-15.2217 39.5879 -34.6436 84.6104 -73.9287 105.749c-88.5703 47.6641 -159.291 -111.944 -185.782 -172.837c-76.666 -176.202 -106.675 -370.984 -140.001 -558.904c-34.7119 -195.733 -68.6855 -391.729 -87.6387 -589.719
c1.49707 -8.71777 3.00098 -17.4287 4.46289 -26.1602c4.43457 -26.4639 -55.5547 -20.4639 -65.1963 -5.02832c-56.7754 90.8525 -79.0107 197.637 -94.4111 302.4z" />
    <glyph glyph-name="O" unicode="O" horiz-adv-x="1027" 
d="M199.259 475.107c-68.5068 83.377 -113.765 185.341 -134.876 292.442c-30.7051 155.78 -14.8701 336.796 73.0098 472.438c82.0312 126.62 222.88 198.41 373.771 176.871c340.645 -48.6299 455.05 -432.318 465.229 -726.864
c6.10352 -176.65 -16.0215 -358.19 -78.6035 -524.178c-56.7617 -150.531 -154.58 -289.601 -309.532 -349.189c-76.376 -29.374 -169.491 -38.2988 -245.536 -3.61426c-65.9346 30.0703 -106.736 91.2109 -126.965 159.021
c-47.9678 160.787 -33.9805 336.865 -16.4971 503.073zM133.407 1112.12c-43.0088 -135.496 -39.041 -289.553 4.91309 -424.263c17.1113 -52.458 40.9053 -102.75 70.8926 -148.78c22.374 34.3398 118.848 28.0635 114.751 -12.3457
c-3.60059 -35.5117 -7.3457 -71.0449 -10.7529 -106.612c20.6006 -17.4834 42.5947 -33.4639 66.0928 -47.5264c116.227 -69.5479 257.709 -92.418 386.805 -47.043c20.3184 7.13867 58.748 -14.4004 26.4365 -25.7734c-155.18 -54.6367 -331.354 -26.5527 -468.257 62.6309
c-5.2207 3.40039 -10.2207 7.04883 -15.2969 10.6143c-3.62109 -42.9121 -6.46289 -85.873 -7.55957 -128.909c-2.19336 -85.8252 -2.4209 -176.981 20.3389 -260.427c17.7461 -65.0586 53.665 -135.317 128.848 -140.855c76.2246 -5.61426 154.242 39.3398 209.569 87.79
c113.026 98.9844 171.85 246.978 212.031 388.247c43.7266 153.731 57.6172 313.284 40.6504 472.195c-15.2148 142.524 -51.3271 289.118 -133.594 408.696c-76.9834 111.909 -208.907 202.031 -349.99 189.403c-148.794 -13.3184 -253.393 -143.166 -295.878 -277.042z
" />
    <glyph glyph-name="O" unicode="&#xd6;" horiz-adv-x="1027" 
d="M199.259 475.107c-68.5068 83.377 -113.765 185.341 -134.876 292.442c-30.7051 155.78 -14.8701 336.796 73.0098 472.438c82.0312 126.62 222.88 198.41 373.771 176.871c340.645 -48.6299 455.05 -432.318 465.229 -726.864
c6.10352 -176.65 -16.0215 -358.19 -78.6035 -524.178c-56.7617 -150.531 -154.58 -289.601 -309.532 -349.189c-76.376 -29.374 -169.491 -38.2988 -245.536 -3.61426c-65.9346 30.0703 -106.736 91.2109 -126.965 159.021
c-47.9678 160.787 -33.9805 336.865 -16.4971 503.073zM133.407 1112.12c-43.0088 -135.496 -39.041 -289.553 4.91309 -424.263c17.1113 -52.458 40.9053 -102.75 70.8926 -148.78c22.374 34.3398 118.848 28.0635 114.751 -12.3457
c-3.60059 -35.5117 -7.3457 -71.0449 -10.7529 -106.612c20.6006 -17.4834 42.5947 -33.4639 66.0928 -47.5264c116.227 -69.5479 257.709 -92.418 386.805 -47.043c20.3184 7.13867 58.748 -14.4004 26.4365 -25.7734c-155.18 -54.6367 -331.354 -26.5527 -468.257 62.6309
c-5.2207 3.40039 -10.2207 7.04883 -15.2969 10.6143c-3.62109 -42.9121 -6.46289 -85.873 -7.55957 -128.909c-2.19336 -85.8252 -2.4209 -176.981 20.3389 -260.427c17.7461 -65.0586 53.665 -135.317 128.848 -140.855c76.2246 -5.61426 154.242 39.3398 209.569 87.79
c113.026 98.9844 171.85 246.978 212.031 388.247c43.7266 153.731 57.6172 313.284 40.6504 472.195c-15.2148 142.524 -51.3271 289.118 -133.594 408.696c-76.9834 111.909 -208.907 202.031 -349.99 189.403c-148.794 -13.3184 -253.393 -143.166 -295.878 -277.042z
" />
    <glyph glyph-name="O" unicode="&#xd5;" horiz-adv-x="1027" 
d="M199.259 475.107c-68.5068 83.377 -113.765 185.341 -134.876 292.442c-30.7051 155.78 -14.8701 336.796 73.0098 472.438c82.0312 126.62 222.88 198.41 373.771 176.871c340.645 -48.6299 455.05 -432.318 465.229 -726.864
c6.10352 -176.65 -16.0215 -358.19 -78.6035 -524.178c-56.7617 -150.531 -154.58 -289.601 -309.532 -349.189c-76.376 -29.374 -169.491 -38.2988 -245.536 -3.61426c-65.9346 30.0703 -106.736 91.2109 -126.965 159.021
c-47.9678 160.787 -33.9805 336.865 -16.4971 503.073zM133.407 1112.12c-43.0088 -135.496 -39.041 -289.553 4.91309 -424.263c17.1113 -52.458 40.9053 -102.75 70.8926 -148.78c22.374 34.3398 118.848 28.0635 114.751 -12.3457
c-3.60059 -35.5117 -7.3457 -71.0449 -10.7529 -106.612c20.6006 -17.4834 42.5947 -33.4639 66.0928 -47.5264c116.227 -69.5479 257.709 -92.418 386.805 -47.043c20.3184 7.13867 58.748 -14.4004 26.4365 -25.7734c-155.18 -54.6367 -331.354 -26.5527 -468.257 62.6309
c-5.2207 3.40039 -10.2207 7.04883 -15.2969 10.6143c-3.62109 -42.9121 -6.46289 -85.873 -7.55957 -128.909c-2.19336 -85.8252 -2.4209 -176.981 20.3389 -260.427c17.7461 -65.0586 53.665 -135.317 128.848 -140.855c76.2246 -5.61426 154.242 39.3398 209.569 87.79
c113.026 98.9844 171.85 246.978 212.031 388.247c43.7266 153.731 57.6172 313.284 40.6504 472.195c-15.2148 142.524 -51.3271 289.118 -133.594 408.696c-76.9834 111.909 -208.907 202.031 -349.99 189.403c-148.794 -13.3184 -253.393 -143.166 -295.878 -277.042z
" />
    <glyph glyph-name="O" unicode="&#xd4;" horiz-adv-x="1027" 
d="M199.259 475.107c-68.5068 83.377 -113.765 185.341 -134.876 292.442c-30.7051 155.78 -14.8701 336.796 73.0098 472.438c82.0312 126.62 222.88 198.41 373.771 176.871c340.645 -48.6299 455.05 -432.318 465.229 -726.864
c6.10352 -176.65 -16.0215 -358.19 -78.6035 -524.178c-56.7617 -150.531 -154.58 -289.601 -309.532 -349.189c-76.376 -29.374 -169.491 -38.2988 -245.536 -3.61426c-65.9346 30.0703 -106.736 91.2109 -126.965 159.021
c-47.9678 160.787 -33.9805 336.865 -16.4971 503.073zM133.407 1112.12c-43.0088 -135.496 -39.041 -289.553 4.91309 -424.263c17.1113 -52.458 40.9053 -102.75 70.8926 -148.78c22.374 34.3398 118.848 28.0635 114.751 -12.3457
c-3.60059 -35.5117 -7.3457 -71.0449 -10.7529 -106.612c20.6006 -17.4834 42.5947 -33.4639 66.0928 -47.5264c116.227 -69.5479 257.709 -92.418 386.805 -47.043c20.3184 7.13867 58.748 -14.4004 26.4365 -25.7734c-155.18 -54.6367 -331.354 -26.5527 -468.257 62.6309
c-5.2207 3.40039 -10.2207 7.04883 -15.2969 10.6143c-3.62109 -42.9121 -6.46289 -85.873 -7.55957 -128.909c-2.19336 -85.8252 -2.4209 -176.981 20.3389 -260.427c17.7461 -65.0586 53.665 -135.317 128.848 -140.855c76.2246 -5.61426 154.242 39.3398 209.569 87.79
c113.026 98.9844 171.85 246.978 212.031 388.247c43.7266 153.731 57.6172 313.284 40.6504 472.195c-15.2148 142.524 -51.3271 289.118 -133.594 408.696c-76.9834 111.909 -208.907 202.031 -349.99 189.403c-148.794 -13.3184 -253.393 -143.166 -295.878 -277.042z
" />
    <glyph glyph-name="O" unicode="&#xd3;" horiz-adv-x="1027" 
d="M199.259 475.107c-68.5068 83.377 -113.765 185.341 -134.876 292.442c-30.7051 155.78 -14.8701 336.796 73.0098 472.438c82.0312 126.62 222.88 198.41 373.771 176.871c340.645 -48.6299 455.05 -432.318 465.229 -726.864
c6.10352 -176.65 -16.0215 -358.19 -78.6035 -524.178c-56.7617 -150.531 -154.58 -289.601 -309.532 -349.189c-76.376 -29.374 -169.491 -38.2988 -245.536 -3.61426c-65.9346 30.0703 -106.736 91.2109 -126.965 159.021
c-47.9678 160.787 -33.9805 336.865 -16.4971 503.073zM133.407 1112.12c-43.0088 -135.496 -39.041 -289.553 4.91309 -424.263c17.1113 -52.458 40.9053 -102.75 70.8926 -148.78c22.374 34.3398 118.848 28.0635 114.751 -12.3457
c-3.60059 -35.5117 -7.3457 -71.0449 -10.7529 -106.612c20.6006 -17.4834 42.5947 -33.4639 66.0928 -47.5264c116.227 -69.5479 257.709 -92.418 386.805 -47.043c20.3184 7.13867 58.748 -14.4004 26.4365 -25.7734c-155.18 -54.6367 -331.354 -26.5527 -468.257 62.6309
c-5.2207 3.40039 -10.2207 7.04883 -15.2969 10.6143c-3.62109 -42.9121 -6.46289 -85.873 -7.55957 -128.909c-2.19336 -85.8252 -2.4209 -176.981 20.3389 -260.427c17.7461 -65.0586 53.665 -135.317 128.848 -140.855c76.2246 -5.61426 154.242 39.3398 209.569 87.79
c113.026 98.9844 171.85 246.978 212.031 388.247c43.7266 153.731 57.6172 313.284 40.6504 472.195c-15.2148 142.524 -51.3271 289.118 -133.594 408.696c-76.9834 111.909 -208.907 202.031 -349.99 189.403c-148.794 -13.3184 -253.393 -143.166 -295.878 -277.042z
" />
    <glyph glyph-name="P" unicode="P" horiz-adv-x="1043" 
d="M111.35 69.3428c-22.5117 125.841 -38.3516 252.571 -48.4346 380.005c-10.0557 127.255 -14.4492 254.827 -12.4355 382.468c2.07617 131.965 7.60059 265.282 32.9189 395.04c8.17969 41.9121 112.522 44.7949 111.646 0
c-2.54492 -129.551 -13.8418 -258.806 -16.1035 -388.439c-2.2207 -127.503 0.517578 -255.233 8.84863 -382.488c7.93164 -121.026 20.9258 -241.888 38.0508 -361.99c2 196.645 16.001 392.792 60.8721 585.002c29.5049 126.399 71.5068 250.985 132.262 365.964
c54.0166 102.219 129.345 196.134 239.86 239.246c100.777 39.3193 211.313 21.8701 296.849 -43.4023c94.1016 -71.8105 147.062 -190.003 160.532 -305.533c26.5117 -227.453 -88.0938 -499.591 -303.863 -599.568c-107.144 -49.6436 -238.93 -45.8984 -328.39 37.5264
c-89.6875 83.6318 -90.0947 209.721 -50.0654 318.229c7.9043 21.4287 68.3691 16.8076 60.376 -9.4834c-33.415 -109.854 8.79395 -253.909 120.427 -303.188c103.04 -45.4854 211.066 50.6572 271.945 124.337c128.44 155.436 193.278 399.696 119.02 593.002
c-36.0781 93.915 -125.862 178.099 -231.261 179.223c-113.516 1.20703 -207.065 -83.9766 -265.938 -173.223c-124.434 -188.637 -180.781 -424.883 -208.237 -646.287c-30.2227 -243.702 -23.1328 -489.921 -16.1396 -734.781
c0.0410156 -1.38672 -0.207031 -2.66309 -0.621094 -3.86328c0.0136719 -7.4209 -0.193359 -14.8486 -0.704102 -22.29c-1.88965 -27.3389 -55.9541 -23.29 -66.7822 -5.15137c-34.7256 58.1826 -49.2715 124.282 -65.1758 189.623
c-15.3115 62.9062 -28.0566 126.296 -39.457 190.023z" />
    <glyph glyph-name="Q" unicode="Q" horiz-adv-x="1027" 
d="M199.245 475.107c-68.5068 83.377 -113.764 185.341 -134.861 292.442c-30.7051 155.78 -14.8701 336.796 73.0098 472.438c82.0312 126.62 222.88 198.41 373.771 176.871c340.645 -48.6299 455.05 -432.318 465.229 -726.864
c6.10352 -176.65 -16.0215 -358.19 -78.6035 -524.178c-56.7617 -150.531 -154.58 -289.601 -309.532 -349.189c-14.7246 -5.66211 -30.0771 -10.5381 -45.8018 -14.5176c0.241211 -0.407227 0.496094 -0.814453 0.737305 -1.22168
c23.5186 -39.7119 43.3398 -82.4932 70.1064 -120.178c25.291 -35.6152 73.3281 -82.2246 121.131 -60.2236c10.6279 4.88965 27.8906 7.68262 38.1738 -0.000976562c8.02148 -5.98633 11.3799 -16.4766 0 -21.7598c-76.5068 -35.5117 -157.042 -0.220703 -204.748 64.4307
c-29.7324 40.292 -51.1611 86.4258 -76.2383 129.704c-50.9062 -5.75195 -103.013 -0.786133 -148.911 20.1523c-65.9346 30.0703 -106.736 91.2109 -126.965 159.021c-47.9678 160.787 -33.9805 336.865 -16.4971 503.073zM133.395 1112.12
c-43.0088 -135.496 -39.042 -289.555 4.92578 -424.265c17.1113 -52.458 40.9053 -102.75 70.8926 -148.78c22.373 34.3398 118.847 28.0635 114.75 -12.3457c-3.60059 -35.5117 -7.3457 -71.0449 -10.7529 -106.612c20.6006 -17.4834 42.5947 -33.4639 66.0928 -47.5264
c116.227 -69.5479 257.709 -92.418 386.805 -47.043c20.3115 7.13867 58.748 -14.4004 26.4365 -25.7734c-155.18 -54.6367 -331.354 -26.5527 -468.257 62.6309c-5.2207 3.40039 -10.2207 7.04883 -15.2969 10.6143c-3.62109 -42.9121 -6.46289 -85.873 -7.55957 -128.909
c-2.19336 -85.8252 -2.4209 -176.981 20.3389 -260.427c17.7461 -65.0586 53.6719 -135.317 128.848 -140.855c3.63477 -0.268555 7.27637 -0.316406 10.918 -0.357422c-4.44141 7.08984 -8.85547 14.2002 -13.3867 21.2354
c-12.1592 18.877 -29.9326 56.6025 -49.3125 72.9824c-19.2695 4.16602 -29.8838 23.7119 -1.24805 28.3809c36.5264 5.95898 50.6025 -18.2695 69.4102 -45.4092c16.1045 -23.2422 31.6504 -46.8643 46.7412 -70.7686c54.499 13.5664 106.412 46.6787 146.435 81.7285
c113.026 98.9844 171.85 246.978 212.031 388.247c43.7266 153.731 57.6172 313.284 40.6504 472.195c-15.2148 142.524 -51.3271 289.118 -133.594 408.696c-76.9834 111.909 -208.907 202.031 -349.99 189.403c-148.794 -13.3184 -253.393 -143.166 -295.877 -277.042z
" />
    <glyph glyph-name="R" unicode="R" horiz-adv-x="981" 
d="M88.3018 19.9746c-15.1592 128.496 -25.0117 257.396 -30.2461 386.665c-10.5596 260.33 -12.7188 523.743 5.75098 783.756c3.08301 43.4365 110.13 43.2295 110.564 0c2.58594 -259.144 -9.37305 -517.881 -0.0693359 -777.066
c4.63477 -129.034 12.0215 -258.165 24.3184 -386.709c0.882812 -9.29004 1.7998 -18.5732 2.70312 -27.8633c15.5039 171.87 42.2363 342.706 81.0449 510.907c43.3262 187.81 104.888 375.901 222.625 531.191c98.6875 130.165 291.731 282.462 453.298 156.855
c162.028 -125.965 95.8525 -355.673 -4.11133 -496.391c-56.6514 -79.749 -123.068 -150.125 -200.721 -209.707c-64.2793 -49.3193 -132.069 -87.1768 -204.542 -119.647c76.4385 -42.7334 120.564 -125.896 163.519 -202.031
c56.2168 -99.6328 122.551 -192.976 198.596 -278.49c71.7002 -80.6318 150.229 -162.291 247.413 -211.687c101.667 -51.6719 225.494 -57.9131 324.665 2.51758c17.2627 10.5244 67.5068 -4.99316 39.6982 -22.6289c-202.403 -128.338 -451.547 -16.8906 -614.059 123.709
c-92.0117 79.5967 -170.016 175.622 -235.246 278.055c-32.7881 51.4854 -59.1689 105.84 -88.4053 159.271c-27.6846 50.5957 -66.1758 111.434 -126.827 125.2c-31.2568 7.08984 -46.7334 32.7256 -10.9795 47.8848c180.506 76.5137 345.597 218.238 456.526 378.688
c50.6719 73.2861 93.4531 159.49 87.7773 250.984c-4.7998 77.2588 -54.1406 162.87 -133.523 183.292c-92.6807 23.8428 -184.299 -48.8369 -244.219 -110.937c-62.665 -64.9482 -112.558 -140.786 -152.594 -221.452
c-82.0869 -165.395 -124.634 -348.286 -158.056 -528.84c-38.3398 -207.079 -59.8926 -416.924 -64.9551 -627.444c-0.0898438 -3.7041 -1.88965 -6.71094 -4.69629 -9.06934c1.13086 -22.1807 0.820312 -44.1475 -2.13867 -65.4521
c-3.29688 -23.7119 -50.6094 -22.5605 -60.4375 -4.66309c-31.043 56.541 -41.9746 125.979 -53.665 189.03c-11.8076 63.7002 -21.4219 127.738 -29.0088 192.072z" />
    <glyph glyph-name="S" unicode="S" horiz-adv-x="1185" 
d="M272.815 443.106c-115.634 73.1621 -221.316 177.866 -222.799 323.508c-1.44824 141.938 83.3418 266.724 194.085 348.741c110.771 82.0381 247.186 127.979 385.386 124.861c128.124 -2.88965 267.448 -49.5605 347.135 -155.146
c74.2109 -98.3291 78.6387 -240.219 18.1807 -346.417c-62.417 -109.64 -173.54 -178.629 -298.76 -187.34c-34.7812 -2.4209 -48.2441 33.3467 -9.39355 39.5742c151.684 24.3252 285.062 128.22 293.553 290.455c8.75195 167.222 -117.682 286.883 -274.606 317.105
c-267.579 51.5332 -619.106 -171.747 -541.116 -475.424c35.9951 -140.166 167.953 -224.315 288.331 -287.104c134.248 -70.0107 279.813 -112.24 416.393 -176.616c115.164 -54.2852 233.977 -146.034 244.198 -283.241
c9.15918 -123.02 -83.4658 -239.426 -193.223 -284.421c-115.227 -47.2373 -257.261 -28.209 -343.672 65.6436c-83.8037 91.0186 -87.2178 230.646 -2.87598 322.479c12.4004 13.5039 61.3887 3.99316 44.291 -14.7598
c-116.957 -128.323 -31.4424 -335.147 133.704 -364.479c163.809 -29.1045 337.39 127.399 276.545 295.173c-53.251 146.835 -198.879 208.342 -334.424 258.248c-143.849 52.9609 -290.773 106.812 -420.932 189.16z" />
    <glyph glyph-name="T" unicode="T" horiz-adv-x="1061" 
d="M96.7021 1014.33c-38.9609 12.5459 -68.0107 52.8145 -26.2979 81.8232c42.7812 29.7461 102.805 38.7393 153.655 38.6084c55.9609 -0.144531 110.57 -11.7793 162.076 -31.8906c22.7041 7.06934 45.3672 14.2695 67.9756 21.6289
c63.8096 20.7803 127.378 42.5469 191.022 64.1338c9.13184 19.8281 42.3818 27.8008 71.2871 24.0078c137.324 45.8506 275.524 88.8115 417.731 117.062c114.261 22.6973 234.749 38.7881 351.451 31.25c75.5762 -4.88281 194.327 -55.7959 152.125 -152.877
c-8.10352 -18.6426 -61.8438 -12.9805 -52.5811 8.26172c13.1797 30.2227 2.33105 63.376 -21.3525 85.3838c-29.7324 27.6289 -74.6865 29.1113 -112.964 29.4424c-75.0869 0.655273 -150.091 -5.9248 -224.26 -17.3252
c-143.635 -22.084 -283.572 -62.4863 -421.579 -107.227c-15.4766 -5.02051 -30.9326 -10.0967 -46.3818 -15.2139c2.49023 -3.89648 4.05566 -8.27637 4.31055 -13.1943c8.71777 -166.746 16.332 -333.506 26.4912 -500.142
c33.4639 -71.9072 59.6719 -146.876 79.0244 -221.218c59.293 -227.776 56.6445 -468.229 -0.979492 -695.965c-0.882812 -7.29688 -2.05566 -14.5391 -3.62793 -21.7051c-5.62793 -25.6426 -55.4717 -26.0566 -67.3135 -5.19336
c-30.4219 53.582 -39.1465 118.841 -50.292 178.774c-10.7588 57.8516 -20.1523 115.854 -28.8145 174.058c-17.9316 120.51 -31.9395 241.475 -43.7539 362.735c-12.1865 125.062 -21.7734 250.564 -27.3184 376.212c-59.2168 86.2598 -132.138 161.939 -220.301 215.053
c-15.4492 9.31055 -31.4434 17.7588 -47.8369 25.2832c-42.7402 -12.8623 -85.6738 -25.0693 -128.896 -36.2422c-48.1055 -12.4355 -103.019 -31.4912 -152.601 -15.5244zM851.939 -23.4766c15.918 172.885 -0.198242 348.866 -49.8418 515.15
c0.896484 -11.8008 1.7168 -23.6016 2.6543 -35.3955c9.44141 -118.841 21.3936 -237.495 33.8076 -356.06c4.31738 -41.25 8.88281 -82.4658 13.3799 -123.695zM433.645 1083.15c-0.648438 -0.207031 -1.30371 -0.399414 -1.94531 -0.599609
c28.7803 -14.5459 56.3262 -31.6914 82.252 -50.8994c47.6924 -35.333 90.7012 -76.5557 129.289 -121.958c-2.35156 80.8252 -2.84082 161.678 -1.15137 242.495c-69.3203 -23.498 -138.634 -47.0098 -208.444 -69.0381zM107.643 1071.79
c-26.3252 -45.1885 71.1543 -26.5859 85.2998 -23.2275c29.9395 7.10352 59.6719 15.0967 89.2939 23.4004c15.415 4.31738 30.7949 8.77246 46.1475 13.3105c-15.4424 4.83496 -31.1533 8.82812 -47.1543 11.6074c-29.5459 5.1377 -59.9131 7.12402 -89.7695 3.56543
c-20.7871 -2.47559 -72.2725 -8.8418 -83.8174 -28.6562z" />
    <glyph glyph-name="U" unicode="U" horiz-adv-x="1591" 
d="M661.926 472.308c-0.806641 -130.717 -6.19141 -271.351 34.7139 -397.322c30.5186 -93.9492 117.006 -231.06 236.005 -180.367c121.192 51.623 189.237 196.52 237.302 310.388c107.819 255.42 164.602 527.958 220.666 798.33
c2.10352 27.4775 4.82129 54.8857 8.4834 82.1494c5.56543 41.4297 103.674 42.4023 106.791 0c7.52441 -102.37 2.34473 -205.686 0.0478516 -308.242c-2.29688 -102.771 -3 -205.534 -1.4209 -308.318c1.57227 -102.474 4.39355 -204.823 12.0352 -307.049
c3.80664 -50.9199 8.56543 -101.812 13.6143 -152.629c4.9248 -49.5195 15.1387 -102.088 9.50391 -151.814c-3.15918 -27.8838 -61.3135 -27.4014 -72.0723 -5.55859c-22.6562 45.9883 -30.5742 100.618 -39.2021 150.752
c-8.71777 50.665 -15.4697 101.495 -20.9941 152.602c-11.0283 101.964 -18.5049 204.507 -21.9883 307.009c-2.71094 79.7627 -3.27637 159.622 -2.88281 239.446c-42.085 -184.009 -92.915 -366.024 -168.863 -538.806
c-45.3535 -103.191 -104.874 -212.852 -198.285 -280.241c-92.1494 -66.4795 -212.162 -62.8311 -306.615 -2.26953c-216.873 139.048 -178.258 457.002 -168.437 677.351c5.7041 127.917 10.6768 260.627 -16.6904 386.599
c-10.249 47.1885 -27.2432 97.2461 -58.1064 135.131c-39.9814 49.085 -101.509 58.9824 -159.07 36.3125c-109.799 -43.2363 -199.252 -168.188 -203.652 -285.917c-4.13086 -110.571 83.2734 -248.668 210.19 -207.659c20.1182 6.50391 58.3887 -15.0283 26.1592 -25.5117
c-111.426 -36.2295 -233.887 23.3115 -273.771 133.669c-44.8848 124.22 13.877 256.771 105.86 342.714c76.3691 71.3486 188.981 113.979 288.4 64.5693c96.0117 -47.7197 146.883 -151.738 171.484 -251.171c33.4434 -135.124 31.6504 -275.924 30.7949 -414.145z" />
    <glyph glyph-name="U" unicode="&#xdc;" horiz-adv-x="1591" 
d="M661.926 472.308c-0.806641 -130.717 -6.19141 -271.351 34.7139 -397.322c30.5186 -93.9492 117.006 -231.06 236.005 -180.367c121.192 51.623 189.237 196.52 237.302 310.388c107.819 255.42 164.602 527.958 220.666 798.33
c2.10352 27.4775 4.82129 54.8857 8.4834 82.1494c5.56543 41.4297 103.674 42.4023 106.791 0c7.52441 -102.37 2.34473 -205.686 0.0478516 -308.242c-2.29688 -102.771 -3 -205.534 -1.4209 -308.318c1.57227 -102.474 4.39355 -204.823 12.0352 -307.049
c3.80664 -50.9199 8.56543 -101.812 13.6143 -152.629c4.9248 -49.5195 15.1387 -102.088 9.50391 -151.814c-3.15918 -27.8838 -61.3135 -27.4014 -72.0723 -5.55859c-22.6562 45.9883 -30.5742 100.618 -39.2021 150.752
c-8.71777 50.665 -15.4697 101.495 -20.9941 152.602c-11.0283 101.964 -18.5049 204.507 -21.9883 307.009c-2.71094 79.7627 -3.27637 159.622 -2.88281 239.446c-42.085 -184.009 -92.915 -366.024 -168.863 -538.806
c-45.3535 -103.191 -104.874 -212.852 -198.285 -280.241c-92.1494 -66.4795 -212.162 -62.8311 -306.615 -2.26953c-216.873 139.048 -178.258 457.002 -168.437 677.351c5.7041 127.917 10.6768 260.627 -16.6904 386.599
c-10.249 47.1885 -27.2432 97.2461 -58.1064 135.131c-39.9814 49.085 -101.509 58.9824 -159.07 36.3125c-109.799 -43.2363 -199.252 -168.188 -203.652 -285.917c-4.13086 -110.571 83.2734 -248.668 210.19 -207.659c20.1182 6.50391 58.3887 -15.0283 26.1592 -25.5117
c-111.426 -36.2295 -233.887 23.3115 -273.771 133.669c-44.8848 124.22 13.877 256.771 105.86 342.714c76.3691 71.3486 188.981 113.979 288.4 64.5693c96.0117 -47.7197 146.883 -151.738 171.484 -251.171c33.4434 -135.124 31.6504 -275.924 30.7949 -414.145z" />
    <glyph glyph-name="U" unicode="&#xdb;" horiz-adv-x="1591" 
d="M661.926 472.308c-0.806641 -130.717 -6.19141 -271.351 34.7139 -397.322c30.5186 -93.9492 117.006 -231.06 236.005 -180.367c121.192 51.623 189.237 196.52 237.302 310.388c107.819 255.42 164.602 527.958 220.666 798.33
c2.10352 27.4775 4.82129 54.8857 8.4834 82.1494c5.56543 41.4297 103.674 42.4023 106.791 0c7.52441 -102.37 2.34473 -205.686 0.0478516 -308.242c-2.29688 -102.771 -3 -205.534 -1.4209 -308.318c1.57227 -102.474 4.39355 -204.823 12.0352 -307.049
c3.80664 -50.9199 8.56543 -101.812 13.6143 -152.629c4.9248 -49.5195 15.1387 -102.088 9.50391 -151.814c-3.15918 -27.8838 -61.3135 -27.4014 -72.0723 -5.55859c-22.6562 45.9883 -30.5742 100.618 -39.2021 150.752
c-8.71777 50.665 -15.4697 101.495 -20.9941 152.602c-11.0283 101.964 -18.5049 204.507 -21.9883 307.009c-2.71094 79.7627 -3.27637 159.622 -2.88281 239.446c-42.085 -184.009 -92.915 -366.024 -168.863 -538.806
c-45.3535 -103.191 -104.874 -212.852 -198.285 -280.241c-92.1494 -66.4795 -212.162 -62.8311 -306.615 -2.26953c-216.873 139.048 -178.258 457.002 -168.437 677.351c5.7041 127.917 10.6768 260.627 -16.6904 386.599
c-10.249 47.1885 -27.2432 97.2461 -58.1064 135.131c-39.9814 49.085 -101.509 58.9824 -159.07 36.3125c-109.799 -43.2363 -199.252 -168.188 -203.652 -285.917c-4.13086 -110.571 83.2734 -248.668 210.19 -207.659c20.1182 6.50391 58.3887 -15.0283 26.1592 -25.5117
c-111.426 -36.2295 -233.887 23.3115 -273.771 133.669c-44.8848 124.22 13.877 256.771 105.86 342.714c76.3691 71.3486 188.981 113.979 288.4 64.5693c96.0117 -47.7197 146.883 -151.738 171.484 -251.171c33.4434 -135.124 31.6504 -275.924 30.7949 -414.145z" />
    <glyph glyph-name="U" unicode="&#xda;" horiz-adv-x="1591" 
d="M661.926 472.308c-0.806641 -130.717 -6.19141 -271.351 34.7139 -397.322c30.5186 -93.9492 117.006 -231.06 236.005 -180.367c121.192 51.623 189.237 196.52 237.302 310.388c107.819 255.42 164.602 527.958 220.666 798.33
c2.10352 27.4775 4.82129 54.8857 8.4834 82.1494c5.56543 41.4297 103.674 42.4023 106.791 0c7.52441 -102.37 2.34473 -205.686 0.0478516 -308.242c-2.29688 -102.771 -3 -205.534 -1.4209 -308.318c1.57227 -102.474 4.39355 -204.823 12.0352 -307.049
c3.80664 -50.9199 8.56543 -101.812 13.6143 -152.629c4.9248 -49.5195 15.1387 -102.088 9.50391 -151.814c-3.15918 -27.8838 -61.3135 -27.4014 -72.0723 -5.55859c-22.6562 45.9883 -30.5742 100.618 -39.2021 150.752
c-8.71777 50.665 -15.4697 101.495 -20.9941 152.602c-11.0283 101.964 -18.5049 204.507 -21.9883 307.009c-2.71094 79.7627 -3.27637 159.622 -2.88281 239.446c-42.085 -184.009 -92.915 -366.024 -168.863 -538.806
c-45.3535 -103.191 -104.874 -212.852 -198.285 -280.241c-92.1494 -66.4795 -212.162 -62.8311 -306.615 -2.26953c-216.873 139.048 -178.258 457.002 -168.437 677.351c5.7041 127.917 10.6768 260.627 -16.6904 386.599
c-10.249 47.1885 -27.2432 97.2461 -58.1064 135.131c-39.9814 49.085 -101.509 58.9824 -159.07 36.3125c-109.799 -43.2363 -199.252 -168.188 -203.652 -285.917c-4.13086 -110.571 83.2734 -248.668 210.19 -207.659c20.1182 6.50391 58.3887 -15.0283 26.1592 -25.5117
c-111.426 -36.2295 -233.887 23.3115 -273.771 133.669c-44.8848 124.22 13.877 256.771 105.86 342.714c76.3691 71.3486 188.981 113.979 288.4 64.5693c96.0117 -47.7197 146.883 -151.738 171.484 -251.171c33.4434 -135.124 31.6504 -275.924 30.7949 -414.145z" />
    <glyph glyph-name="V" unicode="V" horiz-adv-x="1487" 
d="M103.926 978.608c6.66895 -20.8145 -42.2188 -24.624 -47.9082 -7.52637c-38.9189 116.979 119.834 207.983 219.08 203.321c109.137 -5.13086 167.705 -117.102 209.493 -203.506c111.551 -230.646 166.07 -483.285 259.096 -721.221
c42.5264 -108.785 94.4053 -224.757 181.32 -305.761c39.3057 -36.6367 84.4805 -59.9824 135.869 -33.6572c52.8574 27.0771 91.0244 79.0664 123.322 127.304c132.469 197.865 182.236 442.809 259.171 664.923c41.6709 120.31 88.832 238.854 144.477 353.425
c49.4717 101.854 102.067 210.079 198.921 274.737c30.96 20.6699 121.896 -6.69727 72.4658 -41.3057c-107.571 -75.3145 -170.146 -213.148 -228.046 -326.81c-63.4717 -124.613 -117.998 -253.605 -167.29 -384.419c-79.2383 -210.272 -126.496 -440.422 -271.2 -619.12
c-64.6719 -79.8662 -158.449 -130.689 -262.854 -100.426c-109.764 31.8223 -185.795 130.586 -236.887 227.521c-56.499 107.198 -94.2393 223.928 -128.593 339.74c-35.1396 118.454 -67.0029 238.032 -98.9287 357.376
c-15.8418 59.2031 -32.8975 118.158 -51.3945 176.596c-14.9111 47.1338 -30.2363 96.957 -62.8311 135.228c-15.9248 18.6973 -35.1328 36.1602 -58.6377 44.4775c-33.1123 11.7178 -67.1963 -1.2207 -96.9355 -16.2559
c-53.7822 -27.1943 -113.42 -76.9277 -91.709 -144.642z" />
    <glyph glyph-name="W" unicode="W" horiz-adv-x="1740" 
d="M57.876 1020.24c69.4033 40.5332 147.226 10.25 197.952 -44.7041c63.7822 -69.0859 91.4736 -157.973 113.965 -246.956c42.5811 -168.471 73.7002 -340.196 135.027 -503.35c25.2285 -67.1201 53.9541 -138.275 103.598 -191.368
c22.7529 -24.332 49.0303 -46.6777 83.8457 -47.6152c42.7334 -1.15137 84.4531 23.1943 116.958 48.8164c62.5273 49.292 108.95 118.592 144.056 194.623c-20.3594 79.4863 -31.25 161.229 -35.6299 238.053c-5.8418 102.46 3.13086 205.307 19.8555 306.367
c12.1455 73.3896 15.8076 171.78 82.0938 218.658c10.373 7.33789 32.8848 6.23438 41.9062 -3.07617c60.5479 -62.5137 55.0996 -165.705 54.1406 -246.454c-1.1582 -97.7217 -13.3652 -195.292 -35.6143 -290.435c-10.0557 -43.0225 -22.001 -87.8525 -36.7119 -132.406
c15.7803 -67.707 37.1816 -134.372 64.9834 -197.886c32.6084 -74.4932 76.7139 -158.166 145.572 -205.327c32.1465 -22.0215 55.6514 -25.5322 87.0596 -2.27637c29.4287 21.7803 50.6709 53.4297 67.2715 85.4932c41.4922 80.1484 64.6104 169.67 81.5352 257.833
c34.1328 177.815 49.2715 357.252 100.446 531.757c49.251 167.926 123.903 328.893 234.95 465.071c25.8291 31.6709 134.938 12.3594 99.1904 -33.0498c-137.524 -174.719 -220.535 -384.398 -267.489 -600.396c-43.0576 -198.086 -48.3408 -408.186 -127.117 -597.146
c-31.2012 -74.8516 -80.335 -153.069 -160.843 -181.016c-94.791 -32.9053 -191.982 5.88281 -257.951 76.3418c-62.5615 66.8174 -106.688 150.539 -136.992 240.103c-32.4014 -57.1611 -72.541 -108.688 -123.054 -148.745
c-59.6924 -47.3398 -136.662 -75.5137 -213.259 -63.7617c-73.7412 11.3105 -128.841 51.7949 -171.643 111.384c-49.3057 68.6514 -79.5283 151.986 -103.909 232.28c-25.9805 85.5762 -46.5195 173.484 -62.2578 261.51
c-16.1523 90.3281 -28.5117 181.712 -49.2227 271.123c-9.73828 42.0508 -17.6494 83.2803 -38.4707 121.73c-22.125 40.8506 -69.4932 80.5283 -117.206 53.7129c-16.2969 -9.15234 -63.4512 5.68945 -37.0361 21.1113zM1003.37 688.347
c1.2832 -85.0322 6.55273 -170.228 18.7676 -254.445c4.45508 18.1875 8.53125 36.1191 12.2559 53.6162c17.8838 84.0244 27.2227 169.808 28.1533 255.708c0.689453 63.0791 6.09668 146.511 -27.5742 204.852c-19.4082 -28.6562 -24.4707 -67.5137 -27.2705 -100.908
c-4.41406 -52.665 -5.13184 -106.006 -4.33203 -158.822z" />
    <glyph glyph-name="X" unicode="X" horiz-adv-x="879" 
d="M143.374 -98.6104c-25.9463 -23.7598 -70.4893 -29.1094 -91.7588 2.87109c-11.0762 16.6562 37.9951 23.001 48.4229 7.61426c-3.61426 5.33789 50.4922 65.499 57.0371 74.6445c18.7461 26.1875 36.0361 53.4092 52.3955 81.1416
c32.9189 55.8027 62.376 113.702 91.4189 171.588c47.7266 95.1152 92.9844 191.623 139.738 287.331c-26.0146 103.108 -48.9326 207.079 -70.6436 311.036c-15.4834 74.1416 -28.332 148.932 -45.0566 222.812c-13.8701 61.2725 -39.3193 123.552 -97.667 154.498
c-27.6914 14.6836 21.29 30.4434 38.1738 21.7598c55.3408 -28.4492 83.5146 -79.0244 108.605 -133.62c32.4502 -70.6172 54.8232 -146.256 78.3213 -220.177c22.1318 -69.6445 41.8984 -140.386 61.2031 -211.403c35.7256 68.3418 73.2793 135.697 114.24 201.204
c58.0029 92.7637 122.6 181.879 196.527 262.669c69.0518 75.459 146.228 150.58 245.226 183.657c21.3945 7.14551 61.9346 -15.7314 27.7949 -27.1045c-125.564 -41.8506 -224.101 -162.815 -303.118 -263.766c-103.543 -132.289 -185.678 -278.683 -261.261 -428.428
c49.1953 -182.112 99.5908 -364.314 183.284 -533.061c56.623 -114.171 131.717 -224.08 238.102 -297.463c88.6943 -61.1826 222.77 -114.357 314.112 -29.8701c15.0557 13.9248 74.1553 5.8418 53.1338 -17.7041c-95.1084 -106.536 -266.221 -85.0801 -382.592 -31.2568
c-270.883 125.282 -382.558 424.67 -459.686 692.207c-6.62109 22.96 -12.9658 46.0029 -19.1934 69.0869c-13.3457 -27.6221 -26.6357 -55.2441 -39.9541 -82.7969c-54.7754 -113.281 -108.502 -228.521 -175.961 -334.975
c-28.7803 -45.416 -60.9199 -95.9355 -100.846 -132.496z" />
    <glyph glyph-name="Y" unicode="Y" horiz-adv-x="1229" 
d="M99.2236 1073.38c-9.2207 -15.8008 -57.8066 -10.6094 -47.9023 7.5498c34.3125 62.8584 125.469 53.4922 172.099 11.2422c71.4033 -64.6924 95.9424 -176.401 116.481 -266.164c21.9463 -95.915 43.4092 -194.271 95.708 -279.124
c45.5957 -73.9619 129.221 -139.91 220.377 -133.958c135.097 8.82812 235.901 119.896 307.374 234.881c-0.103516 0.945312 -0.220703 1.9043 -0.324219 2.8418c-10.8623 95.7773 -20.8555 192.361 -22.124 288.828c-1.18652 90.7773 0.551758 186.733 24.7256 274.89
c17.8145 64.9619 85.0664 119.709 150.959 74.5273c59.2373 -40.623 65.2031 -141.518 61.417 -205.541c-7.30371 -123.42 -52.8027 -249.95 -113.454 -363.135c1.45508 -10.0557 2.90332 -20.1182 4.35156 -30.1807c27.9941 -194.782 65.6992 -393.62 49.0566 -591.182
c-14.2969 -169.767 -86.4316 -327.367 -234.936 -419.116c-132.744 -82.0107 -319.85 -81.3418 -450.601 4.8418c-120.675 79.5352 -177.608 236.439 -119.688 372.75c60.9824 143.504 230.984 189.175 373.578 183.561c32.6152 -1.29004 32.8633 -31.8711 0 -30.7744
c-88.1006 2.93848 -182.312 -12.9248 -251.889 -71.0586c-67.6104 -56.4922 -95.2598 -144.193 -84.1904 -230.321c23.0566 -179.306 221.404 -289.407 385.144 -213.045c325.409 151.759 274.545 570.056 236.937 877.264
c-86.1074 -115.736 -204.899 -206.079 -355.286 -206.583c-176.885 -0.592773 -304.602 115.254 -353.114 280.097c-25.0566 85.1279 -31.7188 172.87 -43.2021 260.426c-6.13867 46.7881 -6.53906 95.8662 -25.7402 139.82
c-15.9521 36.5332 -67.1611 75.6455 -95.7559 26.6641zM1062.42 1271.28c-50.5615 -6.76562 -40.7451 -100.045 -39.7588 -134.771c1.35156 -48.1611 4.17969 -96.5225 8.2002 -144.539c4.93848 -58.9404 12.1523 -117.557 20.1523 -176.084
c29.043 66.4307 52.7334 136.048 65.5205 206.706c8.62793 47.6777 11.9932 96.9697 4.41992 145.034c-4.09668 26.0498 -20.1113 108.799 -58.5342 103.653z" />
    <glyph glyph-name="Y" unicode="&#x178;" horiz-adv-x="1229" 
d="M99.2236 1073.38c-9.2207 -15.8008 -57.8066 -10.6094 -47.9023 7.5498c34.3125 62.8584 125.469 53.4922 172.099 11.2422c71.4033 -64.6924 95.9424 -176.401 116.481 -266.164c21.9463 -95.915 43.4092 -194.271 95.708 -279.124
c45.5957 -73.9619 129.221 -139.91 220.377 -133.958c135.097 8.82812 235.901 119.896 307.374 234.881c-0.103516 0.945312 -0.220703 1.9043 -0.324219 2.8418c-10.8623 95.7773 -20.8555 192.361 -22.124 288.828c-1.18652 90.7773 0.551758 186.733 24.7256 274.89
c17.8145 64.9619 85.0664 119.709 150.959 74.5273c59.2373 -40.623 65.2031 -141.518 61.417 -205.541c-7.30371 -123.42 -52.8027 -249.95 -113.454 -363.135c1.45508 -10.0557 2.90332 -20.1182 4.35156 -30.1807c27.9941 -194.782 65.6992 -393.62 49.0566 -591.182
c-14.2969 -169.767 -86.4316 -327.367 -234.936 -419.116c-132.744 -82.0107 -319.85 -81.3418 -450.601 4.8418c-120.675 79.5352 -177.608 236.439 -119.688 372.75c60.9824 143.504 230.984 189.175 373.578 183.561c32.6152 -1.29004 32.8633 -31.8711 0 -30.7744
c-88.1006 2.93848 -182.312 -12.9248 -251.889 -71.0586c-67.6104 -56.4922 -95.2598 -144.193 -84.1904 -230.321c23.0566 -179.306 221.404 -289.407 385.144 -213.045c325.409 151.759 274.545 570.056 236.937 877.264
c-86.1074 -115.736 -204.899 -206.079 -355.286 -206.583c-176.885 -0.592773 -304.602 115.254 -353.114 280.097c-25.0566 85.1279 -31.7188 172.87 -43.2021 260.426c-6.13867 46.7881 -6.53906 95.8662 -25.7402 139.82
c-15.9521 36.5332 -67.1611 75.6455 -95.7559 26.6641zM1062.42 1271.28c-50.5615 -6.76562 -40.7451 -100.045 -39.7588 -134.771c1.35156 -48.1611 4.17969 -96.5225 8.2002 -144.539c4.93848 -58.9404 12.1523 -117.557 20.1523 -176.084
c29.043 66.4307 52.7334 136.048 65.5205 206.706c8.62793 47.6777 11.9932 96.9697 4.41992 145.034c-4.09668 26.0498 -20.1113 108.799 -58.5342 103.653z" />
    <glyph glyph-name="Y" unicode="&#xdd;" horiz-adv-x="1229" 
d="M99.2236 1073.38c-9.2207 -15.8008 -57.8066 -10.6094 -47.9023 7.5498c34.3125 62.8584 125.469 53.4922 172.099 11.2422c71.4033 -64.6924 95.9424 -176.401 116.481 -266.164c21.9463 -95.915 43.4092 -194.271 95.708 -279.124
c45.5957 -73.9619 129.221 -139.91 220.377 -133.958c135.097 8.82812 235.901 119.896 307.374 234.881c-0.103516 0.945312 -0.220703 1.9043 -0.324219 2.8418c-10.8623 95.7773 -20.8555 192.361 -22.124 288.828c-1.18652 90.7773 0.551758 186.733 24.7256 274.89
c17.8145 64.9619 85.0664 119.709 150.959 74.5273c59.2373 -40.623 65.2031 -141.518 61.417 -205.541c-7.30371 -123.42 -52.8027 -249.95 -113.454 -363.135c1.45508 -10.0557 2.90332 -20.1182 4.35156 -30.1807c27.9941 -194.782 65.6992 -393.62 49.0566 -591.182
c-14.2969 -169.767 -86.4316 -327.367 -234.936 -419.116c-132.744 -82.0107 -319.85 -81.3418 -450.601 4.8418c-120.675 79.5352 -177.608 236.439 -119.688 372.75c60.9824 143.504 230.984 189.175 373.578 183.561c32.6152 -1.29004 32.8633 -31.8711 0 -30.7744
c-88.1006 2.93848 -182.312 -12.9248 -251.889 -71.0586c-67.6104 -56.4922 -95.2598 -144.193 -84.1904 -230.321c23.0566 -179.306 221.404 -289.407 385.144 -213.045c325.409 151.759 274.545 570.056 236.937 877.264
c-86.1074 -115.736 -204.899 -206.079 -355.286 -206.583c-176.885 -0.592773 -304.602 115.254 -353.114 280.097c-25.0566 85.1279 -31.7188 172.87 -43.2021 260.426c-6.13867 46.7881 -6.53906 95.8662 -25.7402 139.82
c-15.9521 36.5332 -67.1611 75.6455 -95.7559 26.6641zM1062.42 1271.28c-50.5615 -6.76562 -40.7451 -100.045 -39.7588 -134.771c1.35156 -48.1611 4.17969 -96.5225 8.2002 -144.539c4.93848 -58.9404 12.1523 -117.557 20.1523 -176.084
c29.043 66.4307 52.7334 136.048 65.5205 206.706c8.62793 47.6777 11.9932 96.9697 4.41992 145.034c-4.09668 26.0498 -20.1113 108.799 -58.5342 103.653z" />
    <glyph glyph-name="Z" unicode="Z" horiz-adv-x="1228" 
d="M192.418 -258.343c-46.6992 13.1729 -143.144 44.0645 -142.412 105.943c0.731445 60.8652 83.6318 71.2246 128.269 67.5488c75.2451 -6.2002 143.869 -45.9473 207.907 -82.9287c14.4902 -8.36621 28.8906 -16.9805 43.2637 -25.6777
c102.191 34.1807 191.94 103.854 265.668 180.844c91.3223 95.3564 159.926 208.914 210.929 330.285c-21.3662 -0.137695 -42.7471 0.786133 -64.1484 3.96582c-34.7744 5.16602 -11.8418 32.4434 13.9248 28.7881c20.6836 -2.94531 41.4014 -3.78027 62.1475 -3.58008
c92.8809 235.805 156.822 583.084 -45.4434 776.956c-102.412 98.1494 -266.42 102.405 -396.247 68.8242c-119.481 -30.9053 -242.191 -98.6807 -283.752 -222.004c-6.06934 -17.9941 -57.1406 -13.6006 -49.9883 7.85547c46.1055 138.331 190.678 212.617 323.946 244.584
c152.877 36.6709 314.623 21.5732 444.333 -71.9902c251.261 -181.236 223.983 -535.716 134.406 -798.557c17.0625 0.213867 34.1318 -0.227539 51.1943 -1.96582c36.6709 -3.73828 12.4355 -33.209 -14.6416 -30.2705c-15.7461 1.70312 -31.4844 2.30273 -47.2227 2.30273
c-89.4668 -242.405 -274.462 -479.086 -524.502 -565.731c101.019 -62.6855 203.079 -124.233 318.058 -156.849c70.9551 -20.125 159.098 -34.9736 228.329 -1.18555c31.2979 15.2695 69.748 49.1611 63.1406 88.3906c-7.14551 42.4502 -55.5 35.2979 -86.2949 30.0771
c-28.126 -4.75879 -52.3271 24.5596 -15.0703 31.1602c47.5889 8.42773 120.985 13.7725 149.855 -35.375c35.043 -59.665 -30.9951 -119.537 -80.3145 -141.883c-131.214 -59.4648 -295.698 -6.97949 -418.049 50.2031c-73.5352 34.3672 -142.297 77.2041 -211.038 120.075
c-9.78711 -2.49023 -19.6494 -4.80078 -29.6152 -6.82129c-78.5 -15.9385 -159.428 -14.7656 -236.632 7.01465zM147.024 -117.273c-48.2441 -7.86914 -39.9668 -49.5537 -2.81348 -68.3203c62.0791 -31.3604 140.772 -35.6982 208.555 -26.1602
c7.83496 1.10352 15.6006 2.47559 23.3184 4.01367c-33.6572 20.125 -67.7559 39.4844 -102.833 57.0918c-37.3877 18.7598 -83.2656 40.3887 -126.227 33.375z" />
    <glyph glyph-name="bracketleft" unicode="[" horiz-adv-x="419" 
d="M354.24 -273.777c11.2764 -7.00684 21.4277 -22.8965 7.66797 -33.9248c-45.9814 -36.8223 -112.344 -52.1885 -168.478 -30.3457c-51.4229 20.0078 -70.9961 71.9893 -86.2109 120.93c-33.2295 106.874 -43.1406 220.894 -50.375 332.037
c-7.50391 115.288 -8.37305 230.735 -4.8623 346.183c3.45508 113.688 6.4209 228.494 31.457 339.886c10.1182 44.9951 20.1807 81.9277 69.3828 93.2734c47.7744 11.0146 100.735 10.5186 148.938 3.05566c35.2295 -5.45508 11.835 -32.5254 -14.0693 -29.084
c-22.3115 2.96582 -82.7354 11.877 -101.012 -8.52441c-13.29 -14.835 -12.1172 -51.8643 -14.6621 -71.3613c-6.91797 -53.0713 -8.09766 -106.529 -9.75293 -159.96c-3.4834 -112.337 -2.86914 -224.784 0.427734 -337.121
c3.35156 -114.178 10.835 -228.804 27.6914 -341.851c7.81445 -52.4023 18.6836 -103.901 34.6152 -154.463c7.29688 -23.1602 16.7803 -44.2441 25.8838 -66.5283c1.89648 -3.81445 4.44824 -7.15918 7.60742 -10.0693c11.8906 1.91016 25.0361 8.89648 36.2646 12.2412
c18.4424 5.49707 42.4785 6.2002 59.4863 -4.37305z" />
    <glyph glyph-name="backslash" unicode="\" horiz-adv-x="585" 
d="M533.366 -214.236c20.1592 -55.458 -109.966 -64.7705 -129.491 -20.3477c-79.0664 179.981 -132.358 370.771 -189.195 558.607c-28.1045 92.8809 -55.5059 186.003 -84.79 278.518c-14.918 47.127 -29.8916 94.2607 -45.251 141.242
c-14.1455 43.25 -33.6084 88.6182 -34.6357 134.613c-0.558594 25.1602 59.9961 26.8779 68.0381 5.00098c30.6777 -38.5537 49.251 -84.8936 68.2314 -130.068c18.5732 -44.1885 36.0771 -88.708 52.7949 -133.628c34.1055 -91.6182 66.2246 -183.898 97.4258 -276.537
c62.9277 -186.851 129.511 -372.136 196.873 -557.4z" />
    <glyph glyph-name="bracketright" unicode="]" horiz-adv-x="419" 
d="M367.72 413.554c2.44824 -115.405 -0.21875 -230.917 -9.54297 -345.999c-8.87598 -109.619 -20.2969 -224.438 -62.0576 -327.202c-17.8281 -43.8574 -47.2158 -76.3623 -95.418 -85.4111c-50.7754 -9.53809 -104.171 5.37305 -144.132 37.375
c-13.5801 10.8828 -3.6416 26.877 7.67578 33.9121c16.9111 10.4971 41.2568 9.80078 59.4854 4.37305c7.2002 -2.14453 26.4355 -12.1172 37.8359 -14.0068c-1.73145 3.00684 6.87598 13.2695 8.39355 15.877c11.0693 19.0283 16.9658 41.6221 23.5312 62.4922
c16.5527 52.6436 27.6357 106.288 35.5322 160.863c16.0693 111.006 23.4766 223.391 26.7666 335.451c3.3584 114.481 3.88965 229.066 0.227539 343.555c-1.64844 51.292 -2.91016 102.563 -9.55859 153.524c-2.68945 20.6152 -2.64844 60.5547 -19.167 73.7832
c-20.7041 16.5869 -72.8105 9.24902 -96.5078 6.10449c-26.043 -3.45508 -49.1963 23.6494 -14.0703 29.084c51.0166 7.88965 117.613 11.8213 166.354 -8.38672c49.1201 -20.3662 52.7754 -86.418 60.8311 -132.331c19.7939 -112.736 21.3936 -228.873 23.8213 -343.058z
" />
    <glyph glyph-name="asciicircum" unicode="^" horiz-adv-x="337" 
d="M285.421 582.555c13.0977 -47.8438 -95.792 -55.5801 -108.179 -16.999c-8.29688 25.8496 -13.1455 52.0645 -17.4766 78.6309c-12.7871 -30.7881 -28.1602 -60.79 -51.4443 -84.7979c-9.91797 -10.2285 -49.7266 -14.3184 -54.2646 4.04102
c-11.876 48.0088 4.60742 102.005 20.001 147.945c14.6973 43.8506 35.8643 87.8877 87.0879 92.0186c112.723 9.08301 104.309 -147.904 124.275 -220.839z" />
    <glyph glyph-name="underscore" unicode="_" horiz-adv-x="497" 
d="M445.079 -90.1748c8.88965 -22.7666 -20.0752 -35.6484 -38.0488 -38.2002c-59.0166 -8.37305 -118.075 -15.5254 -177.285 -22.3672c-52.1133 -6.02148 -113.378 -18.9395 -164.677 -4.69043c-8.51758 2.37207 -22.0703 14.9727 -10.7451 23.3662
c38.7051 28.6914 101.515 30.7607 147.931 38.1816c58.499 9.35254 117.054 17.8359 175.815 25.3945c19.042 2.45508 58.1338 1.04102 67.0098 -21.6846z" />
    <glyph glyph-name="grave" unicode="`" horiz-adv-x="213" 
d="M161.083 633.971c11.1318 -18.6836 -31.9453 -21.0518 -40.8428 -17.8926c-38.5469 13.6631 -50.8164 47.1543 -59.7412 84.6875c-12.0283 50.5615 -11.2969 101.247 -9.44824 152.822c1.31738 36.8848 94.0391 36.1953 93.3213 0
c-0.799805 -40.3955 -1.5791 -80.9834 0.393555 -121.351c1.47559 -30.208 0.37207 -71.5 16.3174 -98.2666z" />
    <glyph glyph-name="a" unicode="a" horiz-adv-x="525" 
d="M511.088 175.161c7.08984 16.3936 54.4287 12.9092 47.3867 -7.4502c-19.4355 -56.1963 -56.1338 -121.8 -108.219 -154.236c-46.1953 -28.7666 -108.047 -19.5244 -148.979 14.5391c-50.0508 41.6504 -66.4375 110.392 -74.4307 172.181
c-9.32422 -38.8086 -20.6143 -77.1826 -38.5459 -112.943c-20.0146 -39.9189 -47.7061 -76.2383 -95.6396 -79.3145c-46.7607 -3 -81.0938 29.7881 -100.268 69.3828c-44.9053 92.7354 -6.29004 221.197 59.2168 295.49c36.498 41.3887 119.475 78.0254 181.505 64.501
c0.0761719 0.0898438 0.166016 0.172852 0.249023 0.262695c18.8076 37.9121 119.909 35.1396 118.054 -8.80762c-4.38672 -103.723 -16.125 -209.831 4.18652 -312.685c4.17969 -21.1738 10.9111 -41.085 20.7324 -60.3066
c15.0693 -29.4912 25.1807 -32.1943 52.2373 -7.25488c37.2158 34.3125 62.6514 80.6738 82.5146 126.642zM177.036 210.293c15.1182 61.9414 28.3379 124.144 44.1182 185.871c-43.5469 8.39355 -102.384 -96.6328 -115.577 -125.282
c-27.7734 -60.3271 -53.5469 -137.262 -32.9043 -203.789c17.6631 -56.9336 58.7891 15.2217 69.9688 39.0918c15.5322 33.167 25.7324 68.6172 34.3945 104.108z" />
    <glyph glyph-name="a" unicode="&#xe5;" horiz-adv-x="525" 
d="M511.088 175.161c7.08984 16.3936 54.4287 12.9092 47.3867 -7.4502c-19.4355 -56.1963 -56.1338 -121.8 -108.219 -154.236c-46.1953 -28.7666 -108.047 -19.5244 -148.979 14.5391c-50.0508 41.6504 -66.4375 110.392 -74.4307 172.181
c-9.32422 -38.8086 -20.6143 -77.1826 -38.5459 -112.943c-20.0146 -39.9189 -47.7061 -76.2383 -95.6396 -79.3145c-46.7607 -3 -81.0938 29.7881 -100.268 69.3828c-44.9053 92.7354 -6.29004 221.197 59.2168 295.49c36.498 41.3887 119.475 78.0254 181.505 64.501
c0.0761719 0.0898438 0.166016 0.172852 0.249023 0.262695c18.8076 37.9121 119.909 35.1396 118.054 -8.80762c-4.38672 -103.723 -16.125 -209.831 4.18652 -312.685c4.17969 -21.1738 10.9111 -41.085 20.7324 -60.3066
c15.0693 -29.4912 25.1807 -32.1943 52.2373 -7.25488c37.2158 34.3125 62.6514 80.6738 82.5146 126.642zM177.036 210.293c15.1182 61.9414 28.3379 124.144 44.1182 185.871c-43.5469 8.39355 -102.384 -96.6328 -115.577 -125.282
c-27.7734 -60.3271 -53.5469 -137.262 -32.9043 -203.789c17.6631 -56.9336 58.7891 15.2217 69.9688 39.0918c15.5322 33.167 25.7324 68.6172 34.3945 104.108z" />
    <glyph glyph-name="a" unicode="&#xe4;" horiz-adv-x="525" 
d="M511.088 175.161c7.08984 16.3936 54.4287 12.9092 47.3867 -7.4502c-19.4355 -56.1963 -56.1338 -121.8 -108.219 -154.236c-46.1953 -28.7666 -108.047 -19.5244 -148.979 14.5391c-50.0508 41.6504 -66.4375 110.392 -74.4307 172.181
c-9.32422 -38.8086 -20.6143 -77.1826 -38.5459 -112.943c-20.0146 -39.9189 -47.7061 -76.2383 -95.6396 -79.3145c-46.7607 -3 -81.0938 29.7881 -100.268 69.3828c-44.9053 92.7354 -6.29004 221.197 59.2168 295.49c36.498 41.3887 119.475 78.0254 181.505 64.501
c0.0761719 0.0898438 0.166016 0.172852 0.249023 0.262695c18.8076 37.9121 119.909 35.1396 118.054 -8.80762c-4.38672 -103.723 -16.125 -209.831 4.18652 -312.685c4.17969 -21.1738 10.9111 -41.085 20.7324 -60.3066
c15.0693 -29.4912 25.1807 -32.1943 52.2373 -7.25488c37.2158 34.3125 62.6514 80.6738 82.5146 126.642zM177.036 210.293c15.1182 61.9414 28.3379 124.144 44.1182 185.871c-43.5469 8.39355 -102.384 -96.6328 -115.577 -125.282
c-27.7734 -60.3271 -53.5469 -137.262 -32.9043 -203.789c17.6631 -56.9336 58.7891 15.2217 69.9688 39.0918c15.5322 33.167 25.7324 68.6172 34.3945 104.108z" />
    <glyph glyph-name="a" unicode="&#xe3;" horiz-adv-x="525" 
d="M511.088 175.161c7.08984 16.3936 54.4287 12.9092 47.3867 -7.4502c-19.4355 -56.1963 -56.1338 -121.8 -108.219 -154.236c-46.1953 -28.7666 -108.047 -19.5244 -148.979 14.5391c-50.0508 41.6504 -66.4375 110.392 -74.4307 172.181
c-9.32422 -38.8086 -20.6143 -77.1826 -38.5459 -112.943c-20.0146 -39.9189 -47.7061 -76.2383 -95.6396 -79.3145c-46.7607 -3 -81.0938 29.7881 -100.268 69.3828c-44.9053 92.7354 -6.29004 221.197 59.2168 295.49c36.498 41.3887 119.475 78.0254 181.505 64.501
c0.0761719 0.0898438 0.166016 0.172852 0.249023 0.262695c18.8076 37.9121 119.909 35.1396 118.054 -8.80762c-4.38672 -103.723 -16.125 -209.831 4.18652 -312.685c4.17969 -21.1738 10.9111 -41.085 20.7324 -60.3066
c15.0693 -29.4912 25.1807 -32.1943 52.2373 -7.25488c37.2158 34.3125 62.6514 80.6738 82.5146 126.642zM177.036 210.293c15.1182 61.9414 28.3379 124.144 44.1182 185.871c-43.5469 8.39355 -102.384 -96.6328 -115.577 -125.282
c-27.7734 -60.3271 -53.5469 -137.262 -32.9043 -203.789c17.6631 -56.9336 58.7891 15.2217 69.9688 39.0918c15.5322 33.167 25.7324 68.6172 34.3945 104.108z" />
    <glyph glyph-name="a" unicode="&#xe2;" horiz-adv-x="525" 
d="M511.088 175.161c7.08984 16.3936 54.4287 12.9092 47.3867 -7.4502c-19.4355 -56.1963 -56.1338 -121.8 -108.219 -154.236c-46.1953 -28.7666 -108.047 -19.5244 -148.979 14.5391c-50.0508 41.6504 -66.4375 110.392 -74.4307 172.181
c-9.32422 -38.8086 -20.6143 -77.1826 -38.5459 -112.943c-20.0146 -39.9189 -47.7061 -76.2383 -95.6396 -79.3145c-46.7607 -3 -81.0938 29.7881 -100.268 69.3828c-44.9053 92.7354 -6.29004 221.197 59.2168 295.49c36.498 41.3887 119.475 78.0254 181.505 64.501
c0.0761719 0.0898438 0.166016 0.172852 0.249023 0.262695c18.8076 37.9121 119.909 35.1396 118.054 -8.80762c-4.38672 -103.723 -16.125 -209.831 4.18652 -312.685c4.17969 -21.1738 10.9111 -41.085 20.7324 -60.3066
c15.0693 -29.4912 25.1807 -32.1943 52.2373 -7.25488c37.2158 34.3125 62.6514 80.6738 82.5146 126.642zM177.036 210.293c15.1182 61.9414 28.3379 124.144 44.1182 185.871c-43.5469 8.39355 -102.384 -96.6328 -115.577 -125.282
c-27.7734 -60.3271 -53.5469 -137.262 -32.9043 -203.789c17.6631 -56.9336 58.7891 15.2217 69.9688 39.0918c15.5322 33.167 25.7324 68.6172 34.3945 104.108z" />
    <glyph glyph-name="a" unicode="&#xe1;" horiz-adv-x="525" 
d="M511.088 175.161c7.08984 16.3936 54.4287 12.9092 47.3867 -7.4502c-19.4355 -56.1963 -56.1338 -121.8 -108.219 -154.236c-46.1953 -28.7666 -108.047 -19.5244 -148.979 14.5391c-50.0508 41.6504 -66.4375 110.392 -74.4307 172.181
c-9.32422 -38.8086 -20.6143 -77.1826 -38.5459 -112.943c-20.0146 -39.9189 -47.7061 -76.2383 -95.6396 -79.3145c-46.7607 -3 -81.0938 29.7881 -100.268 69.3828c-44.9053 92.7354 -6.29004 221.197 59.2168 295.49c36.498 41.3887 119.475 78.0254 181.505 64.501
c0.0761719 0.0898438 0.166016 0.172852 0.249023 0.262695c18.8076 37.9121 119.909 35.1396 118.054 -8.80762c-4.38672 -103.723 -16.125 -209.831 4.18652 -312.685c4.17969 -21.1738 10.9111 -41.085 20.7324 -60.3066
c15.0693 -29.4912 25.1807 -32.1943 52.2373 -7.25488c37.2158 34.3125 62.6514 80.6738 82.5146 126.642zM177.036 210.293c15.1182 61.9414 28.3379 124.144 44.1182 185.871c-43.5469 8.39355 -102.384 -96.6328 -115.577 -125.282
c-27.7734 -60.3271 -53.5469 -137.262 -32.9043 -203.789c17.6631 -56.9336 58.7891 15.2217 69.9688 39.0918c15.5322 33.167 25.7324 68.6172 34.3945 104.108z" />
    <glyph glyph-name="b" unicode="b" horiz-adv-x="560" 
d="M556.743 183.458c20.7256 8.82812 59.709 -12.7041 27.2451 -26.5811c-37.3262 -15.9521 -76.3828 -23.1318 -116.088 -26.9248c-16.084 -83.7217 -64.0176 -160.298 -147.622 -188.679c-47.6641 -16.1797 -123.675 -16.5938 -159.104 26.1465
c-33.5469 40.4639 -14.3945 101.501 21.0068 133.688c49.8779 45.3467 115.205 53.4229 182.525 56.5537c0.0830078 0.414062 0.179688 0.834961 0.262695 1.24902c11.752 59.1826 12.3311 121.462 2.64746 181.037c-4.01367 24.7256 -12.9795 74.1416 -47.8848 70.1553
c-26.001 -2.97266 -54.7676 -51.8926 -67.2852 -70.4385c-65.8311 -97.5703 -98.957 -212.507 -130.538 -324.698c-0.207031 -5.66211 -0.668945 -11.29 -1.74512 -16.835c-5.17285 -26.7188 -57.2441 -29.96 -72.8936 -11.249
c-26.0498 31.1328 -33.8223 70.1211 -42.168 109.103c-8.44141 39.4092 -14.2422 78.9902 -18.6084 119.048c-9.29688 85.3701 -11.249 171.312 -8.08984 257.103c4.86914 132.131 20.291 271.689 89.9219 387.191c52.2578 86.6729 174.25 172.532 266.917 85.1348
c92.2734 -87.0322 22.9873 -245.909 -24.8838 -337.272c-60.3896 -115.247 -134.483 -222.956 -208.756 -329.713c1.4209 -34.3535 3.49023 -68.6865 6.38672 -102.881c0.668945 -7.93848 1.26172 -15.8838 1.88281 -23.8291
c9.58691 28.9053 20.0361 57.5137 31.9814 85.5635c25.7461 60.458 59.5752 128.537 108.599 173.926c34.4297 31.8701 86.832 43.7607 127.641 16.3184c47.1748 -31.7256 74.459 -102.302 87.0664 -154.539c8.2627 -34.2637 10.8486 -71.5898 7.49023 -108.592
c29.498 3.2002 57.9404 8.86914 84.0938 20.0146zM99.46 363.805c0.0136719 -1.24121 0.0488281 -2.48242 0.0625 -3.72363c51.7197 76.0938 101.708 153.373 145.779 234.156c45.6025 83.5762 125.068 235.632 48.2715 322.629
c-88.0391 99.7227 -155.601 -150.469 -165.649 -204.348c-21.3945 -114.675 -29.3057 -232.136 -28.4639 -348.714zM287.291 3.9043c34.8291 29.1533 56.459 75.3916 69.3145 120.407c-47.3477 -2.30371 -97.502 -9.2832 -129.593 -42.7402
c-20.2012 -21.0635 -35.2568 -58.8857 -17.0078 -85.8047c20.3457 -30.0156 55.4854 -10.1113 77.2861 8.1377z" />
    <glyph glyph-name="c" unicode="c" horiz-adv-x="322" 
d="M306.217 177.058c7.42773 17.4697 57.8027 12.6025 49.4648 -7.77734c-36.8428 -90.0322 -102.377 -196.555 -210.307 -200.886c-111.882 -4.49023 -158.994 111.709 -167.615 206.493c-9.02148 99.1562 14.8691 232.783 113.336 281.647
c36.5195 18.125 87.0117 27.4355 122.207 1.08301c39.623 -29.6709 36.4297 -94.9639 33.3809 -138.256c-1.50391 -21.3877 -54.8994 -20.7881 -53.9893 -0.000976562c0.799805 18.2627 5.1377 109.15 -23.0771 111.357
c-15.4355 1.20703 -38.1396 -52.2646 -44.0645 -66.1553c-27.0156 -63.3135 -35.4092 -133.496 -31.4229 -201.775c2.21387 -37.9326 14.2148 -177.16 77.8184 -156.932c34.0156 10.8213 61.417 48.0508 81.4521 75.8037c21.4014 29.6426 38.5332 61.8096 52.8164 95.3975z
" />
    <glyph glyph-name="d" unicode="d" horiz-adv-x="608" 
d="M592.357 187.775c3.91016 16.4697 53.6123 13.1777 49.8604 -3.87109c-17.373 -78.6318 -66.1406 -163.885 -146.338 -192.128c-83.0732 -29.2568 -156.636 14.6836 -198.755 85.4805c-31.8916 53.5957 -47.7686 118.075 -57.0244 181.63
c-1.2207 -5.56543 -2.49707 -11.1104 -3.71094 -16.6758c-11.5527 -52.8369 -23.6914 -106.329 -48.0859 -154.973c-20.0146 -39.9189 -47.7061 -76.2383 -95.6396 -79.3145c-46.7607 -3 -81.0938 29.7881 -100.268 69.3828
c-44.9121 92.7422 -6.28906 221.197 59.2178 295.49c35.416 40.1602 114.564 75.7969 175.905 65.5273c0.475586 58.9268 5.49609 117.937 14.5723 175.822c13.6211 86.832 36.9668 172.657 78.6865 250.413c36.8223 68.6309 91.2666 138.496 168.933 162.015
c71.4795 21.6494 137.055 -8.89648 140.854 -86.7344c3.18652 -65.3066 -15.0967 -132.579 -40.0078 -192.292c-48.7197 -116.792 -131.186 -232.322 -239.86 -300.464c-5.0625 -101.246 0.662109 -205.307 24.3184 -300.601
c13.4492 -54.1748 25.4912 -165.498 107.86 -121.323c59.0654 31.6846 94.5566 99.7979 109.481 162.615zM362.562 574.703c-3.35156 -24.8701 -6.16504 -50.2646 -8.36523 -75.9766c78.4932 61.4102 138.096 156.491 176.587 243.337
c22.0283 49.7061 39.2773 103.274 42.3535 157.877c1.38672 24.7051 2.15918 61.8379 -16.6758 80.7285c-22.0703 22.1318 -52.624 -17.8496 -65.1836 -35.5059c-74.5967 -104.86 -111.771 -244.833 -128.716 -370.46zM177.029 210.292
c15.125 61.9414 28.3457 124.144 44.1191 185.871c-43.5469 8.39355 -102.385 -96.6328 -115.578 -125.282c-27.7734 -60.3271 -53.5469 -137.262 -32.9043 -203.789c17.6631 -56.9336 58.7891 15.2217 69.9688 39.0918c15.5322 33.167 25.7324 68.6172 34.3945 104.108z
" />
    <glyph glyph-name="e" unicode="e" horiz-adv-x="285" 
d="M268.716 179.472c7.68359 17.6289 58.6221 12.5391 49.9873 -7.85547c-33.3467 -78.707 -118.951 -207.996 -222.46 -168.422c-116.427 44.5195 -136.331 183.492 -112.213 290.366c12.1387 53.7959 34.8984 106.509 81.9766 138.324
c37.6299 25.4287 94.2881 46.375 137.339 21.1328c39.2852 -23.0352 40.6162 -73.1689 16.5732 -107.474c-27.4082 -39.0986 -74.5762 -60.8105 -120.682 -71.2939c-3.20703 -15.5254 -5.7793 -30.9678 -7.65527 -46.0518
c-4.22754 -33.9189 -3.68945 -67.0518 -0.820312 -101.054c1.71777 -20.4287 5.69043 -77.4863 25.7539 -90.9072c58.6924 -39.2568 135.523 104.964 152.2 143.234zM143.101 401.731c-14.4561 -27.5664 -25.9316 -58.3135 -34.6836 -89.7422
c24.877 9.33105 48.2432 23.9248 61.6162 45.54c8.50391 13.7383 15.9316 36.4287 7.9248 52.2158c-11.4072 22.498 -26.3809 8.15234 -34.8574 -8.01367z" />
    <glyph glyph-name="e" unicode="&#xeb;" horiz-adv-x="285" 
d="M268.716 179.472c7.68359 17.6289 58.6221 12.5391 49.9873 -7.85547c-33.3467 -78.707 -118.951 -207.996 -222.46 -168.422c-116.427 44.5195 -136.331 183.492 -112.213 290.366c12.1387 53.7959 34.8984 106.509 81.9766 138.324
c37.6299 25.4287 94.2881 46.375 137.339 21.1328c39.2852 -23.0352 40.6162 -73.1689 16.5732 -107.474c-27.4082 -39.0986 -74.5762 -60.8105 -120.682 -71.2939c-3.20703 -15.5254 -5.7793 -30.9678 -7.65527 -46.0518
c-4.22754 -33.9189 -3.68945 -67.0518 -0.820312 -101.054c1.71777 -20.4287 5.69043 -77.4863 25.7539 -90.9072c58.6924 -39.2568 135.523 104.964 152.2 143.234zM143.101 401.731c-14.4561 -27.5664 -25.9316 -58.3135 -34.6836 -89.7422
c24.877 9.33105 48.2432 23.9248 61.6162 45.54c8.50391 13.7383 15.9316 36.4287 7.9248 52.2158c-11.4072 22.498 -26.3809 8.15234 -34.8574 -8.01367z" />
    <glyph glyph-name="e" unicode="&#xea;" horiz-adv-x="285" 
d="M268.716 179.472c7.68359 17.6289 58.6221 12.5391 49.9873 -7.85547c-33.3467 -78.707 -118.951 -207.996 -222.46 -168.422c-116.427 44.5195 -136.331 183.492 -112.213 290.366c12.1387 53.7959 34.8984 106.509 81.9766 138.324
c37.6299 25.4287 94.2881 46.375 137.339 21.1328c39.2852 -23.0352 40.6162 -73.1689 16.5732 -107.474c-27.4082 -39.0986 -74.5762 -60.8105 -120.682 -71.2939c-3.20703 -15.5254 -5.7793 -30.9678 -7.65527 -46.0518
c-4.22754 -33.9189 -3.68945 -67.0518 -0.820312 -101.054c1.71777 -20.4287 5.69043 -77.4863 25.7539 -90.9072c58.6924 -39.2568 135.523 104.964 152.2 143.234zM143.101 401.731c-14.4561 -27.5664 -25.9316 -58.3135 -34.6836 -89.7422
c24.877 9.33105 48.2432 23.9248 61.6162 45.54c8.50391 13.7383 15.9316 36.4287 7.9248 52.2158c-11.4072 22.498 -26.3809 8.15234 -34.8574 -8.01367z" />
    <glyph glyph-name="e" unicode="&#xe9;" horiz-adv-x="285" 
d="M268.716 179.472c7.68359 17.6289 58.6221 12.5391 49.9873 -7.85547c-33.3467 -78.707 -118.951 -207.996 -222.46 -168.422c-116.427 44.5195 -136.331 183.492 -112.213 290.366c12.1387 53.7959 34.8984 106.509 81.9766 138.324
c37.6299 25.4287 94.2881 46.375 137.339 21.1328c39.2852 -23.0352 40.6162 -73.1689 16.5732 -107.474c-27.4082 -39.0986 -74.5762 -60.8105 -120.682 -71.2939c-3.20703 -15.5254 -5.7793 -30.9678 -7.65527 -46.0518
c-4.22754 -33.9189 -3.68945 -67.0518 -0.820312 -101.054c1.71777 -20.4287 5.69043 -77.4863 25.7539 -90.9072c58.6924 -39.2568 135.523 104.964 152.2 143.234zM143.101 401.731c-14.4561 -27.5664 -25.9316 -58.3135 -34.6836 -89.7422
c24.877 9.33105 48.2432 23.9248 61.6162 45.54c8.50391 13.7383 15.9316 36.4287 7.9248 52.2158c-11.4072 22.498 -26.3809 8.15234 -34.8574 -8.01367z" />
    <glyph glyph-name="f" unicode="f" horiz-adv-x="341" 
d="M370.482 197.763c7.58691 -6.17285 11.1172 -15.5879 -0.0078125 -21.1123c-73.1963 -36.333 -146.4 -72.666 -219.597 -108.999c79.4863 -10.7314 150.428 -43.2227 161.855 -137.027c10.001 -82.0596 -30.9316 -154.656 -120.75 -153.015
c-93.8389 1.71777 -146.083 80.915 -172.505 162.574c-32.7949 101.378 -39.8848 207.963 -36.8359 313.886c3.2832 114.261 10.5039 229.666 33.0088 341.913c9.29004 46.3545 126.351 47.8584 122.419 0.000976562c-13.7178 -167.146 -40.2637 -340.162 -29.2012 -509.343
c74.8594 37.043 149.719 74.0791 224.577 111.122c9.74512 4.82129 27.7188 7.58691 37.0361 0zM232.957 -1.08984c-30.2295 34.2432 -76.4736 40.4395 -120.172 42.4053c2.2832 -21.1182 5.18652 -42.1748 8.89746 -63.1279
c7.66211 -43.3057 16.8281 -90.6602 36.4707 -130.4c8.66211 -17.5254 21.7803 -39.9746 44.292 -38.1543c23.8223 1.92383 42.3955 23.1729 50.8096 43.8223c17.2627 42.3467 10.373 110.716 -20.2979 145.455z" />
    <glyph glyph-name="g" unicode="g" horiz-adv-x="498" 
d="M485.52 176.147c6.35156 16.8213 54.2178 12.8945 47.376 -7.45801c-12.7178 -37.8779 -46.085 -66.417 -76.6865 -90.0938c-28.877 -22.3389 -59.4648 -42.3398 -90.6875 -61.2646c0.130859 -36.3398 0.0273438 -72.6387 -0.469727 -108.819
c-1.57227 -115.013 -22.4766 -270.055 -149.828 -311.905c-101.212 -33.2637 -218.817 44.3535 -195.299 156.925c23.167 110.854 135.855 185.603 228.757 238.798c-0.96582 13.6904 -1.85547 27.291 -2.52441 40.7402c-3.4209 68.9619 -7.2627 138 -10.2285 207.065
c-11.4141 -52.1611 -23.5527 -104.881 -47.623 -152.883c-20.0146 -39.9189 -47.7061 -76.2383 -95.6396 -79.3145c-46.7607 -3 -81.0938 29.7881 -100.268 69.3828c-44.9121 92.7422 -6.28906 221.197 59.2178 295.49c36.498 41.3887 119.475 78.0254 181.505 64.501
c1.15137 1.34473 2.62012 2.51758 4.45508 3.44824c24.5732 28.8291 111.081 23.084 113.757 -17.2832c7.94531 -119.902 12.5801 -241.156 13.8701 -361.997c8.07617 5.25586 16.1455 10.5186 24.0566 16.0225c35.9189 25.001 80.1904 56.0713 96.2598 98.6455z
M177.044 210.292c15.1182 61.9414 28.3379 124.144 44.1182 185.871c-43.5469 8.39355 -102.384 -96.6328 -115.577 -125.282c-27.7734 -60.3271 -53.5469 -137.262 -32.9043 -203.789c17.6631 -56.9336 58.7891 15.2217 69.9688 39.0918
c15.5322 33.167 25.7324 68.6172 34.3945 104.108zM232.831 -323.087c31.3184 86.3633 25.8213 181.237 18.959 273.394c-59.5684 -36.9326 -115.427 -79.2041 -153.008 -140.152c-30.5674 -49.582 -42.3955 -113.22 0.420898 -159.891
c21.0771 -22.9736 51.2305 -35.5264 82.2461 -28.3057c29.208 6.80078 41.8848 28.7607 51.3818 54.9551z" />
    <glyph glyph-name="h" unicode="h" horiz-adv-x="495" 
d="M477.809 163.781c8.00684 17.9736 60.0352 12.6289 51.0205 -8.02051c-28.5879 -65.5273 -66.3066 -172.843 -149.407 -182.471c-110.357 -12.7871 -123.654 105.922 -117.427 187.981c4.01367 52.9062 11.2207 105.743 17.0068 158.477
c2.04102 18.6631 12.959 77.1348 -22.5811 47.1328c-17.6494 -14.8975 -29.1123 -46.1885 -38.3125 -66.8447c-41.6436 -93.4668 -66.3896 -195.444 -95.0186 -293.422c-0.427734 -1.46875 -1.26953 -2.72363 -2.2832 -3.88184
c-0.227539 -1.53125 -0.344727 -3.07617 -0.641602 -4.60059c-5.17285 -26.7188 -57.2441 -29.96 -72.8936 -11.249c-26.0498 31.1328 -33.8223 70.1211 -42.168 109.103c-8.44141 39.4092 -14.2422 78.9902 -18.6074 119.048
c-9.29688 85.3701 -11.249 171.312 -8.08984 257.103c4.86914 132.131 20.291 271.689 89.9287 387.191c52.2578 86.6729 174.25 172.532 266.917 85.1348c92.2734 -87.0322 22.9873 -245.909 -24.8838 -337.272c-60.3896 -115.247 -134.483 -222.956 -208.756 -329.713
c1.41406 -34.3535 3.49023 -68.6865 6.38672 -102.881c0.896484 -10.5732 1.69629 -21.1533 2.50977 -31.7334c16.2559 58.3135 34.8018 116.033 59.5 170.67c15.8281 35.002 35.8984 76.1973 73.1416 92.5361c27.9463 12.2627 62.2236 7.69043 82.4385 -16.0068
c62.8096 -73.6309 44.0361 -196.81 49.9541 -285.559c1.65527 -24.7803 3.12402 -49.6436 4.92383 -74.376c0.351562 -4.84863 2.63477 -20.2148 1.46875 -20.0146c6.17969 -1.08301 23.1318 21.7178 26.2285 25.5322c30.6084 37.7324 50.0508 84.1279 69.6445 128.137z
M99.4775 363.805c0.00683594 -1.24121 0.0488281 -2.48242 0.0625 -3.72363c51.7197 76.0938 101.708 153.373 145.779 234.156c45.6025 83.5762 125.068 235.632 48.2715 322.629c-88.0391 99.7227 -155.601 -150.469 -165.649 -204.348
c-21.3945 -114.675 -29.3057 -232.136 -28.4639 -348.714z" />
    <glyph glyph-name="i" unicode="i" horiz-adv-x="281" 
d="M267.504 175.161c7.08301 16.3936 54.4229 12.9082 47.3809 -7.45117c-19.4355 -56.1963 -56.1338 -121.8 -108.219 -154.236c-46.1953 -28.7666 -108.047 -19.5244 -148.979 14.5391c-50.7891 42.2646 -66.9346 112.434 -74.7969 174.92
c-9.4834 75.3555 -6.13184 150.787 4.1377 225.832c6.42773 46.9268 122.799 47.1133 120.806 0.000976562c-4.38672 -103.723 -16.125 -209.831 4.18652 -312.685c4.17969 -21.1738 10.9111 -41.085 20.7324 -60.3066c15.0693 -29.4912 25.1807 -32.1943 52.2373 -7.25488
c37.2158 34.3125 62.6514 80.6738 82.5146 126.642zM38.8301 513.817c-26.4707 13.1797 -45.4844 48.3594 -58.9199 73.0361c-17.8975 32.8701 -28.4707 69.375 -19.8633 107.032c8.20703 35.8984 43.2363 58.0586 77.0381 34.3955
c7.82129 -5.47656 13.8906 -12.8906 18.7119 -21.415c21.8633 30.6641 52.2236 50.4102 87.7422 34.5059c31.1807 -13.9658 17.4287 -52.0088 8.51074 -76.6855c-17.5254 -48.5059 -45.6436 -94.2666 -69.1895 -140.027
c-0.110352 -0.200195 -0.283203 -0.358398 -0.400391 -0.551758c-0.524414 -3.63477 -3.19336 -7.29688 -6.97949 -10.29c-9.46289 -7.47656 -26.7676 -4.9248 -36.6504 0z" />
    <glyph glyph-name="i" unicode="&#xef;" horiz-adv-x="281" 
d="M267.504 175.161c7.08301 16.3936 54.4229 12.9082 47.3809 -7.45117c-19.4355 -56.1963 -56.1338 -121.8 -108.219 -154.236c-46.1953 -28.7666 -108.047 -19.5244 -148.979 14.5391c-50.7891 42.2646 -66.9346 112.434 -74.7969 174.92
c-9.4834 75.3555 -6.13184 150.787 4.1377 225.832c6.42773 46.9268 122.799 47.1133 120.806 0.000976562c-4.38672 -103.723 -16.125 -209.831 4.18652 -312.685c4.17969 -21.1738 10.9111 -41.085 20.7324 -60.3066c15.0693 -29.4912 25.1807 -32.1943 52.2373 -7.25488
c37.2158 34.3125 62.6514 80.6738 82.5146 126.642zM38.8301 513.817c-26.4707 13.1797 -45.4844 48.3594 -58.9199 73.0361c-17.8975 32.8701 -28.4707 69.375 -19.8633 107.032c8.20703 35.8984 43.2363 58.0586 77.0381 34.3955
c7.82129 -5.47656 13.8906 -12.8906 18.7119 -21.415c21.8633 30.6641 52.2236 50.4102 87.7422 34.5059c31.1807 -13.9658 17.4287 -52.0088 8.51074 -76.6855c-17.5254 -48.5059 -45.6436 -94.2666 -69.1895 -140.027
c-0.110352 -0.200195 -0.283203 -0.358398 -0.400391 -0.551758c-0.524414 -3.63477 -3.19336 -7.29688 -6.97949 -10.29c-9.46289 -7.47656 -26.7676 -4.9248 -36.6504 0z" />
    <glyph glyph-name="i" unicode="&#xee;" horiz-adv-x="281" 
d="M267.504 175.161c7.08301 16.3936 54.4229 12.9082 47.3809 -7.45117c-19.4355 -56.1963 -56.1338 -121.8 -108.219 -154.236c-46.1953 -28.7666 -108.047 -19.5244 -148.979 14.5391c-50.7891 42.2646 -66.9346 112.434 -74.7969 174.92
c-9.4834 75.3555 -6.13184 150.787 4.1377 225.832c6.42773 46.9268 122.799 47.1133 120.806 0.000976562c-4.38672 -103.723 -16.125 -209.831 4.18652 -312.685c4.17969 -21.1738 10.9111 -41.085 20.7324 -60.3066c15.0693 -29.4912 25.1807 -32.1943 52.2373 -7.25488
c37.2158 34.3125 62.6514 80.6738 82.5146 126.642zM38.8301 513.817c-26.4707 13.1797 -45.4844 48.3594 -58.9199 73.0361c-17.8975 32.8701 -28.4707 69.375 -19.8633 107.032c8.20703 35.8984 43.2363 58.0586 77.0381 34.3955
c7.82129 -5.47656 13.8906 -12.8906 18.7119 -21.415c21.8633 30.6641 52.2236 50.4102 87.7422 34.5059c31.1807 -13.9658 17.4287 -52.0088 8.51074 -76.6855c-17.5254 -48.5059 -45.6436 -94.2666 -69.1895 -140.027
c-0.110352 -0.200195 -0.283203 -0.358398 -0.400391 -0.551758c-0.524414 -3.63477 -3.19336 -7.29688 -6.97949 -10.29c-9.46289 -7.47656 -26.7676 -4.9248 -36.6504 0z" />
    <glyph glyph-name="i" unicode="&#xed;" horiz-adv-x="281" 
d="M267.504 175.161c7.08301 16.3936 54.4229 12.9082 47.3809 -7.45117c-19.4355 -56.1963 -56.1338 -121.8 -108.219 -154.236c-46.1953 -28.7666 -108.047 -19.5244 -148.979 14.5391c-50.7891 42.2646 -66.9346 112.434 -74.7969 174.92
c-9.4834 75.3555 -6.13184 150.787 4.1377 225.832c6.42773 46.9268 122.799 47.1133 120.806 0.000976562c-4.38672 -103.723 -16.125 -209.831 4.18652 -312.685c4.17969 -21.1738 10.9111 -41.085 20.7324 -60.3066c15.0693 -29.4912 25.1807 -32.1943 52.2373 -7.25488
c37.2158 34.3125 62.6514 80.6738 82.5146 126.642zM38.8301 513.817c-26.4707 13.1797 -45.4844 48.3594 -58.9199 73.0361c-17.8975 32.8701 -28.4707 69.375 -19.8633 107.032c8.20703 35.8984 43.2363 58.0586 77.0381 34.3955
c7.82129 -5.47656 13.8906 -12.8906 18.7119 -21.415c21.8633 30.6641 52.2236 50.4102 87.7422 34.5059c31.1807 -13.9658 17.4287 -52.0088 8.51074 -76.6855c-17.5254 -48.5059 -45.6436 -94.2666 -69.1895 -140.027
c-0.110352 -0.200195 -0.283203 -0.358398 -0.400391 -0.551758c-0.524414 -3.63477 -3.19336 -7.29688 -6.97949 -10.29c-9.46289 -7.47656 -26.7676 -4.9248 -36.6504 0z" />
    <glyph glyph-name="j" unicode="j" horiz-adv-x="248" 
d="M235.626 176.147c6.35156 16.8213 54.2158 12.8975 47.3809 -7.44824c-12.7178 -37.8779 -46.085 -66.417 -76.6865 -90.0938c-28.877 -22.3389 -59.4648 -42.3398 -90.6875 -61.2646c0.130859 -36.3398 0.0273438 -72.6387 -0.469727 -108.819
c-1.57227 -115.013 -22.4766 -270.055 -149.828 -311.905c-101.212 -33.2637 -218.817 44.3535 -195.299 156.925c23.1602 110.854 135.849 185.602 228.75 238.797c-0.96582 13.6904 -1.85547 27.291 -2.52441 40.7402c-6.44824 129.985 -14.4971 260.233 -15.0898 390.398
c-0.213867 47.1123 117.144 47.1055 120.268 0c7.94531 -119.902 12.5801 -241.156 13.8701 -361.997c8.07617 5.25586 16.1455 10.5186 24.0566 16.0225c35.9189 25.001 80.1904 56.0713 96.2598 98.6455zM-17.0625 -323.083
c31.3184 86.3633 25.8213 181.237 18.9521 273.394c-59.5684 -36.9326 -115.427 -79.2041 -153.008 -140.152c-30.5674 -49.582 -42.3955 -113.22 0.420898 -159.891c21.084 -22.9736 51.2373 -35.5264 82.2529 -28.3057c29.208 6.80078 41.8848 28.7607 51.3818 54.9551z
M21.9463 527.614c-26.4707 13.1797 -45.4844 48.3594 -58.9336 73.0361c-17.8975 32.8701 -28.4707 69.375 -19.8633 107.032c8.20703 35.8984 43.2363 58.0586 77.0381 34.3955c7.82812 -5.47656 13.8975 -12.8906 18.7188 -21.415
c21.8633 30.6641 52.2236 50.4102 87.7422 34.5059c31.1807 -13.9658 17.4287 -52.0088 8.51074 -76.6855c-17.5254 -48.5059 -45.6436 -94.2666 -69.1895 -140.027c-0.103516 -0.200195 -0.283203 -0.358398 -0.393555 -0.551758
c-0.524414 -3.63477 -3.19336 -7.29688 -6.97949 -10.29c-9.46289 -7.47656 -26.7676 -4.9248 -36.6504 0z" />
    <glyph glyph-name="k" unicode="k" horiz-adv-x="447" 
d="M430.808 160.905c9.31055 17.2285 60.6572 11.2158 50.5186 -7.93652c-37.5879 -70.8936 -98.0186 -165.437 -191.209 -150.063c-44.5332 7.34473 -88.3564 32.1455 -111.047 71.5684c-11.3936 19.8008 -19.6768 41.7471 -27.5254 63.1553
c-1.08984 2.96582 -2.09668 6.16602 -3.06934 9.46973c-9.60059 -41.3467 -17.1182 -83.3828 -26.4844 -123.84c0.179688 -8.47656 -0.227539 -16.8838 -1.82031 -25.126c-5.17285 -26.7188 -57.2441 -29.96 -72.8936 -11.249
c-26.0498 31.1328 -33.8223 70.1211 -42.168 109.103c-8.44141 39.4092 -14.2422 78.9902 -18.6084 119.048c-9.30371 85.3701 -11.2559 171.312 -8.09668 257.103c4.86914 132.131 20.291 271.689 89.9287 387.191c52.2578 86.6729 174.25 172.532 266.917 85.1348
c92.2734 -87.0322 22.9873 -245.909 -24.8838 -337.272c-60.3896 -115.247 -134.483 -222.956 -208.756 -329.713c1.24121 -30.0156 3.05469 -60.0029 5.41992 -89.9082c24.4014 93.5771 63.7002 182.389 152.057 220.363
c56.0928 24.1045 151.035 -2.35156 117.758 -79.8867c-28.8086 -67.1279 -123.44 -100.495 -194.299 -113.951c24.4424 -22.918 42.5469 -40.9121 57.9199 -73.8311c13.0557 -27.9463 26.7666 -54.1543 42.4023 -80.749c13.7666 -23.4219 28.7744 -31.8291 55.417 -16.8838
c12.5801 7.0625 22.9736 19.373 32.4434 30.0146c23.8291 26.7871 43.085 56.7891 60.0791 88.2598zM99.4521 363.806c0.0136719 -1.24121 0.0488281 -2.48242 0.0625 -3.72363c51.7197 76.0938 101.708 153.373 145.779 234.156
c45.6025 83.5762 125.068 235.632 48.2715 322.629c-88.0391 99.7227 -155.601 -150.469 -165.649 -204.348c-21.3945 -114.675 -29.3057 -232.136 -28.4639 -348.714zM178.395 245.593c56.5342 12.4004 126.696 39.498 147.932 90.3906
c7.44141 17.8496 8.82031 46.8994 -16.6777 52.5205c-17.5869 3.87598 -43.0918 -17.4902 -54.9473 -27.8213c-24.0703 -20.9805 -42.8984 -48.0576 -58.0439 -75.9697c-6.8623 -12.6562 -12.8418 -25.7539 -18.2627 -39.1201z" />
    <glyph glyph-name="l" unicode="l" horiz-adv-x="353" 
d="M337.896 187.775c3.91016 16.4697 53.6104 13.1797 49.8584 -3.8623c-17.373 -78.6318 -66.1406 -163.885 -146.338 -192.128c-83.0732 -29.2568 -156.636 14.6836 -198.755 85.4805c-44.0645 74.0586 -57.624 168.891 -65.2725 253.363
c-8.51758 94.0664 -4.38672 190.251 10.2412 283.518c13.6211 86.832 36.96 172.657 78.6865 250.413c36.8223 68.6309 91.2666 138.496 168.933 162.015c71.4795 21.6494 137.055 -8.89648 140.854 -86.7344c3.18652 -65.3066 -15.0967 -132.579 -40.0078 -192.292
c-48.7197 -116.792 -131.186 -232.322 -239.86 -300.464c-5.0625 -101.246 0.662109 -205.307 24.3184 -300.601c13.4492 -54.1748 25.4912 -165.498 107.86 -121.323c59.0654 31.6846 94.5566 99.7979 109.481 162.615zM108.105 574.705
c-3.3584 -24.8701 -6.17188 -50.2646 -8.37207 -75.9766c78.4932 61.4102 138.089 156.491 176.587 243.337c22.0283 49.7061 39.2773 103.274 42.3535 157.877c1.39355 24.7051 2.15918 61.8379 -16.6689 80.7285c-22.0703 22.1318 -52.624 -17.8496 -65.1836 -35.5059
c-74.5967 -104.86 -111.771 -244.833 -128.716 -370.46z" />
    <glyph glyph-name="m" unicode="m" horiz-adv-x="710" 
d="M693.273 162.188c7.52441 17.7871 58.6514 12.4502 49.9609 -7.84766c-27.7949 -65.0723 -67.5625 -162.705 -150.491 -166.637c-36.5605 -1.73828 -76.6797 17.6006 -99.7637 45.7949c-26.2979 32.126 -28.3945 83.6455 -31.3115 123.103
c-3.75195 50.8506 -4.2627 101.847 -3.00098 152.794c0.655273 26.4844 2.15234 52.9268 3.69727 79.3623c1.03418 17.7246 2.25488 55.8438 -21.126 34.3672c-30.1328 -27.6914 -48.2646 -76.9072 -64.0518 -113.64c-18.4766 -42.9883 -32.7393 -87.3906 -46.4023 -132.075
c0.0478516 -0.585938 0.0957031 -1.17871 0.143555 -1.75781c3.58594 -43.499 -112.909 -45.6719 -114.337 -0.000976562c-1.84863 59.0508 -3.71777 118.171 -6.7041 177.167c-0.758789 14.9316 -2.1377 29.8291 -2.50977 44.7676
c-6.54492 -8.35254 -12.9385 -16.5801 -13.8281 -18.166c-5.13867 -9.19336 -9.41504 -18.8975 -13.332 -28.6562c-42.0645 -104.688 -43.2852 -221.355 -61.0996 -331.823c0.585938 -13.4766 -0.889648 -26.1602 -6.64844 -36.4502
c-9.47656 -16.9248 -38.4854 -16.0625 -53.2236 -8.00684c-68.7686 37.5742 -72.9209 160.104 -77.0176 228.956c-5.31738 89.3076 -2.97949 181.712 27.7119 266.688c10.835 30.0088 93.9492 28.5264 95.3633 -7.35156
c2.61426 -66.3623 -2.95801 -132.82 -4.25488 -199.278c10.5381 54.0713 25.6904 111.626 60.6094 153.801c17.4424 21.0635 39.2715 35.9336 67.5352 31.7881c25.8496 -3.78613 41.1465 -25.4561 52.9336 -47.2988c17.208 -31.8848 27.5811 -66.8174 34.4365 -102.695
c16.3867 42.5742 36.8848 83.4863 62.2236 118.95c19.5254 27.3252 44.4443 50.5469 80.0732 48.167c33.7324 -2.25488 49.9199 -25.8633 63.0381 -54.4375c40.8018 -88.8662 38.0088 -192.975 49.6855 -288.228c2.73145 -22.2705 6.44922 -44.4092 10.7529 -66.4307
c1.53125 -7.85547 2.14551 -18.3184 6.80078 -24.8984c11.2148 -15.8418 24.5186 -4.62012 35.3193 6.86328c31.1055 33.0566 51.3545 81.8457 68.8174 123.109z" />
    <glyph glyph-name="n" unicode="n" horiz-adv-x="542" 
d="M525.32 176.348c8.55176 17.4902 59.5498 11.5439 49.9766 -7.85742c-36.8984 -74.8174 -83.9697 -204.32 -190.637 -179.14c-55.1963 13.0283 -83.0596 54.5684 -92.3701 107.86c-11.4141 65.3271 -12.1865 132.751 -13.8555 198.893
c-0.855469 33.8496 0.365234 68.1338 -2.49707 101.901c-0.916992 10.7656 -3.36523 19.001 -6.1377 29.2637c10.6074 9.27637 8.88281 7.86914 -5.17969 -4.20703c-6.24902 -6.91113 -11.9385 -14.2559 -17.0771 -22.042
c-22.291 -32.96 -37.457 -70.1338 -51.0234 -107.343c-32.2842 -88.5488 -58.9609 -180.34 -76.5342 -272.985c-0.158203 -0.848633 -0.50293 -1.61426 -0.833984 -2.38672c0.510742 -13.249 -1 -25.6982 -6.66895 -35.8232
c-9.47656 -16.9248 -38.4854 -16.0625 -53.2236 -8.00684c-68.7754 37.5742 -72.9277 160.104 -77.0244 228.956c-5.31738 89.3076 -2.97949 181.712 27.7119 266.688c10.835 30.0088 93.9492 28.5264 95.3633 -7.35156
c3.31055 -84.1836 -6.66895 -168.525 -4.19336 -252.833c0.37207 -12.5381 0.861328 -25.0908 1.42676 -37.6504c11.249 38.6016 24.0977 76.7002 37.0156 113.882c22.1113 63.6309 60.7344 187.533 144.973 182.809c53.0098 -2.97949 71.7275 -48.4854 81.9277 -93.3975
c14.8623 -65.4375 16.3037 -132.579 22.752 -199.106c3.2207 -33.3047 6.27637 -66.7129 12.8076 -99.5625c4.66211 -23.4287 11.124 -70.252 41.6982 -41.4365c37.5117 35.3467 59.416 95.4873 81.6035 140.876z" />
    <glyph glyph-name="o" unicode="o" horiz-adv-x="371" 
d="M375.435 195.313c26.25 4.33789 48.8926 -23.248 14.0771 -29.083c-26.9326 -4.50391 -57.3545 -7.02832 -88.9355 -6.7666c-7.34473 -50.9883 -24.3936 -104.701 -63.9883 -138.683c-42.0713 -36.0986 -103.219 -36.0088 -154.146 -21.5186
c-139.959 39.8223 -110.854 228.88 -84.3916 334.616c1.75195 6.98633 7.13184 12.4414 14.6768 16.4277c-5.63477 41.0986 -0.296875 84.7217 23.835 117.675c31.4775 42.9814 86.9971 55.0859 136.33 38.6162c117.634 -39.2705 139.497 -209.093 131.034 -316.649
c24.8086 -0.248047 49.1064 1.66895 71.5078 5.36523zM245.531 156.527c0.358398 2.04883 0.581055 4.12988 0.912109 6.19238c-55.7686 6.35938 -111.061 22.5322 -153.884 52.6582c-3.46191 -25.7188 -5.62793 -51.5684 -5.21387 -77.5693
c0.599609 -37.4229 8.81348 -104.626 54.1191 -114.889c65.5752 -14.8555 96.335 88.9639 104.066 133.607zM250.209 194.072c4.20703 49.6367 0.302734 100.534 -11.4355 148.495c-12.6143 51.5264 -38.6914 129.999 -99.708 141.386
c-65.0029 12.125 -78.9834 -72.4443 -74.6104 -125.826c27.3535 -2.44141 51.8447 -13.8281 48.0029 -33.0703c-3.82129 -19.166 -7.75293 -38.415 -11.3809 -57.7197c35.2227 -42.2363 90.8389 -64.7197 149.132 -73.2646z" />
    <glyph glyph-name="o" unicode="&#xf6;" horiz-adv-x="371" 
d="M375.435 195.313c26.25 4.33789 48.8926 -23.248 14.0771 -29.083c-26.9326 -4.50391 -57.3545 -7.02832 -88.9355 -6.7666c-7.34473 -50.9883 -24.3936 -104.701 -63.9883 -138.683c-42.0713 -36.0986 -103.219 -36.0088 -154.146 -21.5186
c-139.959 39.8223 -110.854 228.88 -84.3916 334.616c1.75195 6.98633 7.13184 12.4414 14.6768 16.4277c-5.63477 41.0986 -0.296875 84.7217 23.835 117.675c31.4775 42.9814 86.9971 55.0859 136.33 38.6162c117.634 -39.2705 139.497 -209.093 131.034 -316.649
c24.8086 -0.248047 49.1064 1.66895 71.5078 5.36523zM245.531 156.527c0.358398 2.04883 0.581055 4.12988 0.912109 6.19238c-55.7686 6.35938 -111.061 22.5322 -153.884 52.6582c-3.46191 -25.7188 -5.62793 -51.5684 -5.21387 -77.5693
c0.599609 -37.4229 8.81348 -104.626 54.1191 -114.889c65.5752 -14.8555 96.335 88.9639 104.066 133.607zM250.209 194.072c4.20703 49.6367 0.302734 100.534 -11.4355 148.495c-12.6143 51.5264 -38.6914 129.999 -99.708 141.386
c-65.0029 12.125 -78.9834 -72.4443 -74.6104 -125.826c27.3535 -2.44141 51.8447 -13.8281 48.0029 -33.0703c-3.82129 -19.166 -7.75293 -38.415 -11.3809 -57.7197c35.2227 -42.2363 90.8389 -64.7197 149.132 -73.2646z" />
    <glyph glyph-name="o" unicode="&#xf5;" horiz-adv-x="371" 
d="M375.435 195.313c26.25 4.33789 48.8926 -23.248 14.0771 -29.083c-26.9326 -4.50391 -57.3545 -7.02832 -88.9355 -6.7666c-7.34473 -50.9883 -24.3936 -104.701 -63.9883 -138.683c-42.0713 -36.0986 -103.219 -36.0088 -154.146 -21.5186
c-139.959 39.8223 -110.854 228.88 -84.3916 334.616c1.75195 6.98633 7.13184 12.4414 14.6768 16.4277c-5.63477 41.0986 -0.296875 84.7217 23.835 117.675c31.4775 42.9814 86.9971 55.0859 136.33 38.6162c117.634 -39.2705 139.497 -209.093 131.034 -316.649
c24.8086 -0.248047 49.1064 1.66895 71.5078 5.36523zM245.531 156.527c0.358398 2.04883 0.581055 4.12988 0.912109 6.19238c-55.7686 6.35938 -111.061 22.5322 -153.884 52.6582c-3.46191 -25.7188 -5.62793 -51.5684 -5.21387 -77.5693
c0.599609 -37.4229 8.81348 -104.626 54.1191 -114.889c65.5752 -14.8555 96.335 88.9639 104.066 133.607zM250.209 194.072c4.20703 49.6367 0.302734 100.534 -11.4355 148.495c-12.6143 51.5264 -38.6914 129.999 -99.708 141.386
c-65.0029 12.125 -78.9834 -72.4443 -74.6104 -125.826c27.3535 -2.44141 51.8447 -13.8281 48.0029 -33.0703c-3.82129 -19.166 -7.75293 -38.415 -11.3809 -57.7197c35.2227 -42.2363 90.8389 -64.7197 149.132 -73.2646z" />
    <glyph glyph-name="o" unicode="&#xf4;" horiz-adv-x="371" 
d="M375.435 195.313c26.25 4.33789 48.8926 -23.248 14.0771 -29.083c-26.9326 -4.50391 -57.3545 -7.02832 -88.9355 -6.7666c-7.34473 -50.9883 -24.3936 -104.701 -63.9883 -138.683c-42.0713 -36.0986 -103.219 -36.0088 -154.146 -21.5186
c-139.959 39.8223 -110.854 228.88 -84.3916 334.616c1.75195 6.98633 7.13184 12.4414 14.6768 16.4277c-5.63477 41.0986 -0.296875 84.7217 23.835 117.675c31.4775 42.9814 86.9971 55.0859 136.33 38.6162c117.634 -39.2705 139.497 -209.093 131.034 -316.649
c24.8086 -0.248047 49.1064 1.66895 71.5078 5.36523zM245.531 156.527c0.358398 2.04883 0.581055 4.12988 0.912109 6.19238c-55.7686 6.35938 -111.061 22.5322 -153.884 52.6582c-3.46191 -25.7188 -5.62793 -51.5684 -5.21387 -77.5693
c0.599609 -37.4229 8.81348 -104.626 54.1191 -114.889c65.5752 -14.8555 96.335 88.9639 104.066 133.607zM250.209 194.072c4.20703 49.6367 0.302734 100.534 -11.4355 148.495c-12.6143 51.5264 -38.6914 129.999 -99.708 141.386
c-65.0029 12.125 -78.9834 -72.4443 -74.6104 -125.826c27.3535 -2.44141 51.8447 -13.8281 48.0029 -33.0703c-3.82129 -19.166 -7.75293 -38.415 -11.3809 -57.7197c35.2227 -42.2363 90.8389 -64.7197 149.132 -73.2646z" />
    <glyph glyph-name="o" unicode="&#xf3;" horiz-adv-x="371" 
d="M375.435 195.313c26.25 4.33789 48.8926 -23.248 14.0771 -29.083c-26.9326 -4.50391 -57.3545 -7.02832 -88.9355 -6.7666c-7.34473 -50.9883 -24.3936 -104.701 -63.9883 -138.683c-42.0713 -36.0986 -103.219 -36.0088 -154.146 -21.5186
c-139.959 39.8223 -110.854 228.88 -84.3916 334.616c1.75195 6.98633 7.13184 12.4414 14.6768 16.4277c-5.63477 41.0986 -0.296875 84.7217 23.835 117.675c31.4775 42.9814 86.9971 55.0859 136.33 38.6162c117.634 -39.2705 139.497 -209.093 131.034 -316.649
c24.8086 -0.248047 49.1064 1.66895 71.5078 5.36523zM245.531 156.527c0.358398 2.04883 0.581055 4.12988 0.912109 6.19238c-55.7686 6.35938 -111.061 22.5322 -153.884 52.6582c-3.46191 -25.7188 -5.62793 -51.5684 -5.21387 -77.5693
c0.599609 -37.4229 8.81348 -104.626 54.1191 -114.889c65.5752 -14.8555 96.335 88.9639 104.066 133.607zM250.209 194.072c4.20703 49.6367 0.302734 100.534 -11.4355 148.495c-12.6143 51.5264 -38.6914 129.999 -99.708 141.386
c-65.0029 12.125 -78.9834 -72.4443 -74.6104 -125.826c27.3535 -2.44141 51.8447 -13.8281 48.0029 -33.0703c-3.82129 -19.166 -7.75293 -38.415 -11.3809 -57.7197c35.2227 -42.2363 90.8389 -64.7197 149.132 -73.2646z" />
    <glyph glyph-name="p" unicode="p" horiz-adv-x="494" 
d="M492.12 176.582c20.5869 7.04883 59.4316 -14.998 26.6924 -26.04c-34.6709 -11.7109 -69.9766 -15.4629 -105.751 -16.7871c-18.5732 -61.9893 -65.6172 -107.667 -129.055 -122.061c-41.333 -9.37305 -114.854 -3.22754 -120.398 52.0029
c-6.09668 60.6855 67.2588 85.6318 114.109 93.4395c14.4561 2.41406 29.043 3.63477 43.6855 4.30371c13.2764 41.4365 18.0908 86.0732 20.2705 129.179c2.49707 49.3682 2.72461 104.529 -31.9463 143.696c-28.7188 32.4502 -59.0723 -1.18555 -75.7764 -26.4072
c-12.959 -19.5664 -23.4355 -40.7744 -32.2227 -62.5068c-40.1748 -99.3291 -55.7822 -211.383 -69.7695 -317.022c-9.76562 -73.7412 -16.125 -147.82 -21.4355 -221.982c0.441406 -40.0576 0.648438 -80.1221 0.344727 -120.221
c-0.172852 -22.6699 -43.4229 -18.2969 -54.3203 -8.38574c-44.7129 40.6504 -43.7822 124.31 -50.1895 180.52c-7.73145 67.79 -12.2695 135.801 -16.0215 203.922c-7.58691 137.82 -11.0557 277.352 -1.6416 415.131c3.15918 46.209 117.199 45.9404 117.571 0
c0.772461 -95.8604 -0.53125 -191.699 -0.704102 -287.56c3.08301 15.0146 6.26953 30.0088 9.69727 44.9541c19.291 84.1494 73.707 295.318 202.989 242.736c52.4375 -21.3252 84.377 -91.3359 97.1982 -142.704c13.4766 -53.9824 15.8838 -115.344 4.9248 -171.174
c24.2773 1.52441 48.3057 4.93848 71.748 12.9668zM224.591 54.3506c28.6562 -27.1113 70.8525 46.3672 85.1016 76.4443c-13.5664 -1.35156 -27.0088 -3.59961 -40.0645 -7.53125c-21.4492 -6.45508 -75.4316 -40.1602 -45.0371 -68.9131z" />
    <glyph glyph-name="q" unicode="q" horiz-adv-x="532" 
d="M522.644 203.148c16.6211 9.4834 64.0391 -6.08887 37.417 -21.3379c-71.0586 -40.6777 -143.725 -78.2588 -217.914 -112.792c82.0176 -18.2217 152.896 -74.3145 177.926 -158.836c12.752 -43.0645 15.8486 -94.8945 -13.7939 -131.993
c-28.2432 -35.3467 -74.9355 -43.9473 -116.876 -30.8574c-115.454 36.0498 -141.311 170.588 -158.388 274.834c-7.53809 46.0303 -11.9658 93.3223 -13.8555 140.993c-7.52441 -26.0566 -16.6562 -51.5889 -28.8564 -75.9141
c-20.0146 -39.9189 -47.7061 -76.2383 -95.6396 -79.3145c-46.7607 -3 -81.0938 29.7881 -100.268 69.3828c-44.9121 92.7422 -6.28906 221.197 59.2178 295.49c36.4912 41.3818 119.447 78.0186 181.478 64.5078c16.166 36.167 110.288 34.6426 110.612 -7.31836
c0.834961 -107.426 -8.74512 -216.403 -7.73828 -324.595c63.3691 30.333 125.613 62.8936 186.679 97.75zM177.049 210.295c15.1182 61.9414 28.3389 124.144 44.1191 185.871c-43.5469 8.39355 -102.385 -96.6328 -115.578 -125.282
c-27.7734 -60.3271 -53.5469 -137.262 -32.9043 -203.789c17.6631 -56.9336 58.7891 15.2217 69.9688 39.0918c15.5391 33.167 25.7324 68.6172 34.3945 104.108zM469.559 -106.19c-16.3594 68.4375 -66.7959 122.352 -131.289 142.519
c3.31738 -55.21 10.5664 -110.089 24.6426 -164.306c7.95215 -30.6221 32.2012 -114.357 79.8174 -93.8457c39.0645 16.835 34.5742 83.2246 26.8291 115.633z" />
    <glyph glyph-name="r" unicode="r" horiz-adv-x="394" 
d="M385.919 223.847c15.6904 10.7314 61.9258 -2.74609 37.0215 -21.126c-49.3613 -36.416 -110.144 -42.1201 -155.008 5.41309c-48.4648 51.3545 -59.8379 118.517 -68.8311 185.424c-1.25488 9.33887 -7.14453 24.7051 -6.86914 33.7812
c-0.124023 -0.193359 -0.248047 -0.379883 -0.378906 -0.573242c-7.9043 -14.3867 -12.4082 -30.7598 -17.0977 -46.3945c-12.0762 -40.25 -20.7451 -81.4863 -28.7734 -122.716c-15.8213 -81.2314 -27.0635 -163.222 -34.374 -245.653
c-0.137695 -1.5791 -0.662109 -2.98633 -1.34473 -4.30371c-0.716797 -8.76562 -2.21387 -17.4629 -4.87598 -26.0703c-6.4834 -20.9668 -49.8232 -16.001 -61.6514 -4.59375c-56.2852 54.2783 -55.9336 158.677 -59.4092 231.708
c-3.95898 83.2314 -11.4834 171.077 12.373 252.074c9.74512 33.1055 92.1836 26.8496 96.9492 -7.47656c7.44141 -53.5752 6.73145 -108.64 6.17285 -163.395c6.25586 31.126 13.1318 62.1689 21.8154 92.6943c7.73828 27.1943 16.2627 63.2168 41.2158 80.4043
c58.6309 40.3887 97.3359 -44.7119 113.261 -86.5488c13.6348 -35.8086 17.4697 -71.9209 25.9043 -108.771c4.08984 -17.835 12.8281 -40.7393 26.8428 -53.3535c20.0488 -18.042 38.9121 -2.9375 57.0576 9.47656z" />
    <glyph glyph-name="s" unicode="s" horiz-adv-x="267" 
d="M299.941 194.548c9.77246 -7.61426 -2.2168 -16.5967 -8.89941 -19.3828c-10.9795 -4.55176 -24.7803 -1.74512 -33.9873 5.08301c-29.0498 21.5459 -70.6309 8.0625 -104.453 -14.3457c29.3047 -33.8779 64.6582 -77.0527 67.2656 -122.676
c2.36523 -41.457 -25.0566 -85.542 -65.8584 -95.6318c-39.8916 -9.8623 -83.5215 4.45605 -107.86 37.8857c-31.6084 43.4229 -22.7734 99.9014 5.9043 142.352c0.806641 1.19336 1.68262 2.36621 2.53125 3.5459c-16.9521 17.0146 -34.125 33.8359 -50.1807 51.7129
c-28.5596 31.8018 -56.7129 68.376 -63.7617 111.675c-8.15234 50.085 14.876 91.8184 51.2988 124.593c30.5391 27.4775 67.8789 49.4307 110.467 43.3271c37.6436 -5.39355 63.3896 -33.2295 72.9902 -68.8867c6.20703 -23.0566 -46.2578 -26.7744 -52.0654 -8.18066
c-3.74512 11.9941 -9.24902 29.7949 -20.5527 37.0781c-23.877 15.3799 -40.5605 -12.9521 -47.6846 -28.7734c-12.9658 -28.7949 -12.5312 -61.2656 -1.79297 -90.4668c15.7314 -42.7744 45.0566 -76.3965 74.748 -109.708c55.4092 29.6777 123.53 38.457 171.892 0.799805
zM149.187 -8.47852c4.04883 13.5596 -7.94531 29.6924 -14.5039 40.4443c-12.2695 20.1113 -24.6904 39.1953 -40.1055 57.0371c-1.59961 1.85547 -3.26855 3.66211 -4.89648 5.49707c-15.8701 -39.0156 -16.3594 -89.3564 22.8359 -113.192
c12.5039 -7.60059 31.8906 -5.80762 36.6699 10.2139z" />
    <glyph glyph-name="t" unicode="t" horiz-adv-x="236" 
d="M218.354 171.513c4.10352 20.0908 54.1611 18.208 50.7471 0c-11.1113 -59.3818 -38.1953 -143.827 -96.6396 -173.429c-55.0439 -27.877 -117.875 14.8281 -145.366 61.9961c-40.457 69.4238 -46.25 160.725 -48.0635 239.073
c-1.35156 58.2373 -2.42773 118.371 2.1377 177.45c-6.53125 -0.151367 -13.0625 -0.213867 -19.6074 -0.427734c-33.0225 -1.07617 -32.4775 29.7734 0 30.7734c7.53125 0.234375 15.042 0.365234 22.5664 0.544922c2.09668 18.249 4.78613 36.3535 8.32422 54.21
c8.63477 43.6025 116.309 47.0996 116.495 0.000976562c0.0693359 -17.8701 -0.254883 -35.7051 -0.792969 -53.5332c11.9795 -0.166016 23.959 -0.331055 35.9668 -0.621094c32.1328 -0.765625 32.0986 -29.9873 0 -30.1602
c-12.3867 -0.0693359 -24.7461 -0.0556641 -37.1123 -0.0419922c-4.12402 -94.8457 -13.0137 -189.396 -7.64746 -284.8c1.66895 -29.6631 4.11035 -60.0371 8.47656 -89.4385c2.59277 -17.415 5.08984 -59.7549 17.8906 -71.8594
c38.1602 -36.0781 88.2178 118.682 92.625 140.262z" />
    <glyph glyph-name="u" unicode="u" horiz-adv-x="464" 
d="M445.387 168.064c2.71094 20.1738 52.9082 18.9932 50.749 -0.000976562c-5.84863 -51.5547 -24.0908 -114.151 -66.8174 -147.566c-35.4365 -27.7188 -82.3145 -25.0078 -116.737 2.61426c-40.8711 32.7949 -55.7617 88.3496 -64.7275 139.607
c-1.44141 -4.51758 -2.7793 -9.06934 -4.31055 -13.5596c-18.373 -53.8857 -50.4023 -139.842 -119.406 -139.628c-75.4102 0.234375 -116.743 76.7207 -132.269 140.055c-20.332 82.9561 -13.2217 170.732 -10.0078 255.191c1.68945 44.333 111.522 44.085 112.723 0
c1.80664 -66.1064 -5.95898 -131.999 -5.2832 -198.147c0.331055 -32.5537 2.8418 -65.5 8.7041 -97.543c2.53125 -13.8213 5.15918 -61.2441 21.2432 -65.582c21.7188 -5.85547 46.0781 49.9883 53.0781 64.9824c13.5039 28.9531 23.8076 59.5342 32.6699 90.1836
c13.8418 47.8711 23.2285 96.8389 31.6289 145.938c0.855469 16.4424 2.15234 32.7676 3.91113 48.8301c4.51758 41.1953 105.315 41.5889 105.716 0.000976562c0.862305 -89.7764 -5.73828 -178.525 1.27539 -268.33c1.91699 -24.5596 7.62109 -121.682 48.8027 -76.4932
c28.8633 31.6709 43.4707 77.9424 49.0576 119.448z" />
    <glyph glyph-name="u" unicode="&#xfc;" horiz-adv-x="464" 
d="M445.387 168.064c2.71094 20.1738 52.9082 18.9932 50.749 -0.000976562c-5.84863 -51.5547 -24.0908 -114.151 -66.8174 -147.566c-35.4365 -27.7188 -82.3145 -25.0078 -116.737 2.61426c-40.8711 32.7949 -55.7617 88.3496 -64.7275 139.607
c-1.44141 -4.51758 -2.7793 -9.06934 -4.31055 -13.5596c-18.373 -53.8857 -50.4023 -139.842 -119.406 -139.628c-75.4102 0.234375 -116.743 76.7207 -132.269 140.055c-20.332 82.9561 -13.2217 170.732 -10.0078 255.191c1.68945 44.333 111.522 44.085 112.723 0
c1.80664 -66.1064 -5.95898 -131.999 -5.2832 -198.147c0.331055 -32.5537 2.8418 -65.5 8.7041 -97.543c2.53125 -13.8213 5.15918 -61.2441 21.2432 -65.582c21.7188 -5.85547 46.0781 49.9883 53.0781 64.9824c13.5039 28.9531 23.8076 59.5342 32.6699 90.1836
c13.8418 47.8711 23.2285 96.8389 31.6289 145.938c0.855469 16.4424 2.15234 32.7676 3.91113 48.8301c4.51758 41.1953 105.315 41.5889 105.716 0.000976562c0.862305 -89.7764 -5.73828 -178.525 1.27539 -268.33c1.91699 -24.5596 7.62109 -121.682 48.8027 -76.4932
c28.8633 31.6709 43.4707 77.9424 49.0576 119.448z" />
    <glyph glyph-name="u" unicode="&#xfb;" horiz-adv-x="464" 
d="M445.387 168.064c2.71094 20.1738 52.9082 18.9932 50.749 -0.000976562c-5.84863 -51.5547 -24.0908 -114.151 -66.8174 -147.566c-35.4365 -27.7188 -82.3145 -25.0078 -116.737 2.61426c-40.8711 32.7949 -55.7617 88.3496 -64.7275 139.607
c-1.44141 -4.51758 -2.7793 -9.06934 -4.31055 -13.5596c-18.373 -53.8857 -50.4023 -139.842 -119.406 -139.628c-75.4102 0.234375 -116.743 76.7207 -132.269 140.055c-20.332 82.9561 -13.2217 170.732 -10.0078 255.191c1.68945 44.333 111.522 44.085 112.723 0
c1.80664 -66.1064 -5.95898 -131.999 -5.2832 -198.147c0.331055 -32.5537 2.8418 -65.5 8.7041 -97.543c2.53125 -13.8213 5.15918 -61.2441 21.2432 -65.582c21.7188 -5.85547 46.0781 49.9883 53.0781 64.9824c13.5039 28.9531 23.8076 59.5342 32.6699 90.1836
c13.8418 47.8711 23.2285 96.8389 31.6289 145.938c0.855469 16.4424 2.15234 32.7676 3.91113 48.8301c4.51758 41.1953 105.315 41.5889 105.716 0.000976562c0.862305 -89.7764 -5.73828 -178.525 1.27539 -268.33c1.91699 -24.5596 7.62109 -121.682 48.8027 -76.4932
c28.8633 31.6709 43.4707 77.9424 49.0576 119.448z" />
    <glyph glyph-name="u" unicode="&#xfa;" horiz-adv-x="464" 
d="M445.387 168.064c2.71094 20.1738 52.9082 18.9932 50.749 -0.000976562c-5.84863 -51.5547 -24.0908 -114.151 -66.8174 -147.566c-35.4365 -27.7188 -82.3145 -25.0078 -116.737 2.61426c-40.8711 32.7949 -55.7617 88.3496 -64.7275 139.607
c-1.44141 -4.51758 -2.7793 -9.06934 -4.31055 -13.5596c-18.373 -53.8857 -50.4023 -139.842 -119.406 -139.628c-75.4102 0.234375 -116.743 76.7207 -132.269 140.055c-20.332 82.9561 -13.2217 170.732 -10.0078 255.191c1.68945 44.333 111.522 44.085 112.723 0
c1.80664 -66.1064 -5.95898 -131.999 -5.2832 -198.147c0.331055 -32.5537 2.8418 -65.5 8.7041 -97.543c2.53125 -13.8213 5.15918 -61.2441 21.2432 -65.582c21.7188 -5.85547 46.0781 49.9883 53.0781 64.9824c13.5039 28.9531 23.8076 59.5342 32.6699 90.1836
c13.8418 47.8711 23.2285 96.8389 31.6289 145.938c0.855469 16.4424 2.15234 32.7676 3.91113 48.8301c4.51758 41.1953 105.315 41.5889 105.716 0.000976562c0.862305 -89.7764 -5.73828 -178.525 1.27539 -268.33c1.91699 -24.5596 7.62109 -121.682 48.8027 -76.4932
c28.8633 31.6709 43.4707 77.9424 49.0576 119.448z" />
    <glyph glyph-name="v" unicode="v" horiz-adv-x="449" 
d="M461.279 180.458c32.0771 1.1582 31.4326 -28.6094 0.03125 -29.8506c-34.4014 -1.37207 -68.1963 4.08301 -99.4873 15.2559c-4.27637 -12.042 -8.80762 -23.9941 -13.8496 -35.7324c-22.415 -52.1611 -54.2998 -116.53 -108.213 -142.373
c-47.002 -22.5391 -106.433 -8.18652 -146.966 21.4082c-53.7959 39.2705 -79.7148 108.777 -97.3574 170.532c-19.5869 68.541 -30.0498 138.779 -34.374 209.811c-2.64844 43.499 104.246 42.6709 111.102 0c18.3252 -114.047 19.6768 -245.516 79.4795 -348.052
c8 -13.7178 20.2217 -32.5186 38.5469 -33.3115c15.415 -0.668945 29.7334 12.9658 39.9268 22.959c22.7461 22.291 38.9541 52.458 53.1475 80.6729c12.3936 24.6494 22.7461 50.2441 31.4365 76.4043c-61.7207 37.3604 -106.31 100.129 -113.075 177.995
c-4.44824 51.1133 7.75195 121.068 50.5674 154.629c36.1885 28.3672 89.1699 24.8291 118.213 -11.5107c39.6846 -49.6641 34.498 -129.144 27.1943 -187.919c-5.15234 -41.4502 -13.2842 -82.8242 -25.168 -123.026c26.6494 -12.4492 56.6582 -19.0498 88.8457 -17.8916z
M338.188 280.642c10.9248 60.0654 20.7734 128.794 -0.331055 187.831c-3.88281 10.8486 -10.4209 30.0078 -21.0908 36.0771c-21.4492 12.207 -35.9736 -16.0361 -42.5879 -29.5264c-11.7041 -23.8701 -17.5596 -50.54 -18.7871 -76.9961
c-3.11035 -66.707 24.6084 -129.014 71.1553 -169.74c4.52441 17.3115 8.44141 34.7744 11.6416 52.3545z" />
    <glyph glyph-name="w" unicode="w" horiz-adv-x="720" 
d="M718.297 185.044c19.8076 7.29688 57.3506 -13.3779 25.9004 -25.2471c-41.3955 -15.6211 -87.2324 -15.4277 -129.945 -3.28906c-27.7119 -80.8594 -80.377 -158.16 -173.229 -157.188c-85.3076 0.889648 -129.758 68.0029 -152.779 143.737
c-8.2832 -30.6914 -19.6631 -60.4648 -39.2852 -88.4316c-31.3809 -44.7266 -81.7422 -72.6035 -136.959 -57.5127c-149.193 40.7744 -146.304 268.951 -123.227 386.716c8.71777 44.5127 120.695 43.1611 114.874 0c-8.29688 -61.5205 -12.9385 -123.647 -9.51758 -185.72
c2.67578 -48.6436 5.93066 -102.012 28.8906 -145.938c34.4434 -65.8926 87.3076 27.6504 102.612 62.9697c21.9805 50.7061 25.2842 106.157 40.3818 158.85c-0.43457 40.499 104.363 40.9883 108.936 -1.38574c5.78613 -53.665 28.6221 -313.822 128.875 -212.142
c30.3672 30.8018 50.6582 71.1758 63.666 114.792c-34.1533 17.9873 -63.7891 43.9131 -83.9004 75.3701c-45.3467 70.9209 -59.3125 264.021 67.5488 257.924c50.7607 -2.44141 74.6377 -46.3604 82.9482 -91.5078c11.5869 -62.9551 10.0762 -130.552 -2.0625 -193.244
c-2.2832 -11.7734 -5.0625 -23.9668 -8.36621 -36.292c30.0566 -11.6553 62.9268 -14.1309 94.6387 -2.46094zM577.127 214.386c9.37988 47.3545 11.5391 96.2744 9.45605 139.511c-1.27637 26.4912 -2.71094 54.7617 -10.5938 80.3145
c-3.2627 10.5869 -8.24902 25.2979 -16.4629 33.3672c-19.249 18.9043 -33.2568 -4.02051 -41.7607 -22.1934c-22.125 -47.251 -17.9941 -110.778 2.15137 -157.705c11.8418 -27.5811 32.1533 -53.5068 57.21 -73.2939z" />
    <glyph glyph-name="x" unicode="x" horiz-adv-x="328" 
d="M312.439 172.81c8.91113 16.9043 59.2041 11.2861 49.459 -7.7627c-45.6992 -89.4463 -140.511 -232.847 -256.979 -148.174c-26.6221 19.3525 -48.9268 46.6299 -66.9824 76.6934c-17.2627 -32.8018 -33.9531 -65.9277 -49.9541 -99.4326
c-8.0625 -16.8975 -57.7344 -12.1182 -48.9404 7.68945c22.0283 49.6162 46.0225 98.2598 71.7275 145.966c-5.16602 12.4355 -9.71094 24.8428 -13.5664 36.9053c-21.7666 68.0654 -31.8564 140.966 -31.2637 212.321c0.37207 45.1191 109.764 44.4502 114.336 0
c3.8623 -37.5127 6.44824 -75.2939 10.2549 -112.848c28.8428 45.6504 59.2236 90.3633 91.0527 134.062c12.2285 16.8008 65.5205 8.58691 53.0996 -8.33789c-48.0508 -65.4932 -92.4805 -133.275 -133.642 -203.003c6.51758 -35.9951 15.8076 -71.4385 30.2432 -105.861
c8.30371 -19.7939 19.1797 -48.6367 35.8223 -63.4443c25.0498 -22.291 49.6445 1.21387 69.2871 20.5186c32.9805 32.415 54.7129 74.2236 76.0449 114.708z" />
    <glyph glyph-name="y" unicode="y" horiz-adv-x="544" 
d="M531.375 176.147c6.35156 16.8213 54.2139 12.9014 47.3789 -7.44434c-12.7178 -37.8779 -46.085 -66.417 -76.6865 -90.0938c-28.877 -22.3389 -59.4648 -42.3398 -90.6875 -61.2646c0.137695 -36.3398 0.0341797 -72.6387 -0.461914 -108.819
c-1.57227 -115.013 -22.4834 -270.055 -149.835 -311.905c-101.212 -33.2637 -218.817 44.3535 -195.299 156.925c23.1602 110.854 135.849 185.602 228.75 238.797c-0.96582 13.6904 -1.85547 27.291 -2.52441 40.7402c-3.07617 62.0586 -6.50391 124.172 -9.3252 186.306
c-5.31738 -19.6494 -10.9521 -39.2158 -17.125 -58.6309c-19.8008 -62.293 -45.5332 -152.69 -125.744 -150.021c-76.0586 2.52441 -127.089 82.2314 -144.455 147.876c-22.6562 85.6182 -24.4424 180.078 -10.4902 267.255c7.17969 44.8301 119.062 44.9609 115.958 0
c-4.67578 -67.5898 -10.124 -134.979 -9.22754 -202.804c0.400391 -30.3604 1.69043 -60.1689 6.87695 -90.1357c3.58594 -20.7393 10.9658 -72.1074 32.7529 -83.8877c47.7891 -25.8428 88.8809 140.89 97.0332 169.339c19.8145 69.1064 34.5322 139.503 48.7119 209.94
c0.241211 1.17285 0.668945 2.25586 1.19336 3.2832c12.5039 38.8018 116.088 36.0908 119.02 -8.125c7.94531 -119.902 12.5801 -241.156 13.8701 -361.997c8.07617 5.25586 16.1455 10.5186 24.0566 16.0225c35.9121 25.001 80.1904 56.0713 96.2598 98.6455z
M278.685 -323.079c31.3184 86.3633 25.8223 181.237 18.9531 273.394c-59.5684 -36.9326 -115.427 -79.2041 -153.008 -140.152c-30.5674 -49.582 -42.3955 -113.22 0.419922 -159.891c21.084 -22.9736 51.2373 -35.5264 82.2529 -28.3057
c29.2012 6.80078 41.8848 28.7607 51.3818 54.9551z" />
    <glyph glyph-name="y" unicode="&#xff;" horiz-adv-x="544" 
d="M531.375 176.147c6.35156 16.8213 54.2139 12.9014 47.3789 -7.44434c-12.7178 -37.8779 -46.085 -66.417 -76.6865 -90.0938c-28.877 -22.3389 -59.4648 -42.3398 -90.6875 -61.2646c0.137695 -36.3398 0.0341797 -72.6387 -0.461914 -108.819
c-1.57227 -115.013 -22.4834 -270.055 -149.835 -311.905c-101.212 -33.2637 -218.817 44.3535 -195.299 156.925c23.1602 110.854 135.849 185.602 228.75 238.797c-0.96582 13.6904 -1.85547 27.291 -2.52441 40.7402c-3.07617 62.0586 -6.50391 124.172 -9.3252 186.306
c-5.31738 -19.6494 -10.9521 -39.2158 -17.125 -58.6309c-19.8008 -62.293 -45.5332 -152.69 -125.744 -150.021c-76.0586 2.52441 -127.089 82.2314 -144.455 147.876c-22.6562 85.6182 -24.4424 180.078 -10.4902 267.255c7.17969 44.8301 119.062 44.9609 115.958 0
c-4.67578 -67.5898 -10.124 -134.979 -9.22754 -202.804c0.400391 -30.3604 1.69043 -60.1689 6.87695 -90.1357c3.58594 -20.7393 10.9658 -72.1074 32.7529 -83.8877c47.7891 -25.8428 88.8809 140.89 97.0332 169.339c19.8145 69.1064 34.5322 139.503 48.7119 209.94
c0.241211 1.17285 0.668945 2.25586 1.19336 3.2832c12.5039 38.8018 116.088 36.0908 119.02 -8.125c7.94531 -119.902 12.5801 -241.156 13.8701 -361.997c8.07617 5.25586 16.1455 10.5186 24.0566 16.0225c35.9121 25.001 80.1904 56.0713 96.2598 98.6455z
M278.685 -323.079c31.3184 86.3633 25.8223 181.237 18.9531 273.394c-59.5684 -36.9326 -115.427 -79.2041 -153.008 -140.152c-30.5674 -49.582 -42.3955 -113.22 0.419922 -159.891c21.084 -22.9736 51.2373 -35.5264 82.2529 -28.3057
c29.2012 6.80078 41.8848 28.7607 51.3818 54.9551z" />
    <glyph glyph-name="y" unicode="&#xfd;" horiz-adv-x="544" 
d="M531.375 176.147c6.35156 16.8213 54.2139 12.9014 47.3789 -7.44434c-12.7178 -37.8779 -46.085 -66.417 -76.6865 -90.0938c-28.877 -22.3389 -59.4648 -42.3398 -90.6875 -61.2646c0.137695 -36.3398 0.0341797 -72.6387 -0.461914 -108.819
c-1.57227 -115.013 -22.4834 -270.055 -149.835 -311.905c-101.212 -33.2637 -218.817 44.3535 -195.299 156.925c23.1602 110.854 135.849 185.602 228.75 238.797c-0.96582 13.6904 -1.85547 27.291 -2.52441 40.7402c-3.07617 62.0586 -6.50391 124.172 -9.3252 186.306
c-5.31738 -19.6494 -10.9521 -39.2158 -17.125 -58.6309c-19.8008 -62.293 -45.5332 -152.69 -125.744 -150.021c-76.0586 2.52441 -127.089 82.2314 -144.455 147.876c-22.6562 85.6182 -24.4424 180.078 -10.4902 267.255c7.17969 44.8301 119.062 44.9609 115.958 0
c-4.67578 -67.5898 -10.124 -134.979 -9.22754 -202.804c0.400391 -30.3604 1.69043 -60.1689 6.87695 -90.1357c3.58594 -20.7393 10.9658 -72.1074 32.7529 -83.8877c47.7891 -25.8428 88.8809 140.89 97.0332 169.339c19.8145 69.1064 34.5322 139.503 48.7119 209.94
c0.241211 1.17285 0.668945 2.25586 1.19336 3.2832c12.5039 38.8018 116.088 36.0908 119.02 -8.125c7.94531 -119.902 12.5801 -241.156 13.8701 -361.997c8.07617 5.25586 16.1455 10.5186 24.0566 16.0225c35.9121 25.001 80.1904 56.0713 96.2598 98.6455z
M278.685 -323.079c31.3184 86.3633 25.8223 181.237 18.9531 273.394c-59.5684 -36.9326 -115.427 -79.2041 -153.008 -140.152c-30.5674 -49.582 -42.3955 -113.22 0.419922 -159.891c21.084 -22.9736 51.2373 -35.5264 82.2529 -28.3057
c29.2012 6.80078 41.8848 28.7607 51.3818 54.9551z" />
    <glyph glyph-name="z" unicode="z" horiz-adv-x="388" 
d="M393.288 163.664c25.4629 3.88965 47.4932 -23.1748 13.6436 -28.1953c-30.4775 -4.51758 -60.458 -11.0693 -89.8115 -19.5391c0.130859 -0.9375 0.317383 -1.85449 0.43457 -2.7998c13.4561 -107.819 -44.4365 -227.108 -125.048 -296.663
c-44.3125 -38.2363 -96.584 -60.2715 -155.38 -60.8574c-41.1123 -0.414062 -98.2461 9.96582 -118.164 51.5605c-22.4355 46.8506 13.9658 97.1289 43.9531 130.352c37.085 41.085 80.0732 76.9902 125.848 107.985c38.6641 26.1738 79.7695 48.3682 122.564 66.5693
c-2.27637 15.8564 -6.49707 31.3467 -13.1387 46.0029c-12.9248 28.5117 -47.2158 77.3828 -83.8174 58.5127c-22.2012 -11.4424 -51.6025 -13.1523 -74.4863 -2.52441c-16.3799 7.60742 -31.5947 25.5391 -14.6074 41.7119c39.25 37.3672 77.3623 75.417 109.019 119.619
c6.07617 8.4834 16.084 19.7598 18.96 30.1807c8.20703 29.8018 -6.3252 35.3887 -30.0439 33.2295c-27.4844 -2.50391 -54.6924 -7.09082 -81.7217 -12.5742c-26.043 -5.2832 -47.9678 21.5117 -13.9248 28.7881c46.6855 9.97949 172.299 45.7676 191.665 -24.167
c14.5322 -52.4922 -16.5176 -105.771 -51.4023 -151.876c65.9824 -14.7666 121.943 -63.0381 142.71 -132.696c27.2148 7.30371 54.8438 13.1182 82.749 17.3809zM200.901 2.69629c7.11719 23.4629 11.7441 48.6426 12.3926 73.7891
c-30.8154 -14.7109 -60.6172 -31.7461 -89.1152 -51.1611c-41.4639 -28.2432 -79.9688 -61.4375 -113.854 -98.46c-17.8418 -19.4971 -36.2148 -43.4014 -40.8428 -70.3477c-5.33105 -31.0361 12.2217 -61.1133 46.4922 -57.4717
c43.8232 4.66211 88.8047 47.0225 116.386 78.4512c31.4775 35.8779 54.6924 79.5908 68.541 125.2z" />
    <glyph glyph-name="braceleft" unicode="{" horiz-adv-x="582" 
d="M528.146 -287.971c8.76562 -12.0283 0.594727 -21.3262 -11.9092 -25.8916c-66.7686 -24.374 -145.021 -38.2158 -212.086 -7.40039c-57.8096 26.5664 -93.6943 82.376 -114.026 140.73c-26.1602 75.0723 -33.292 154.366 -28.8232 233.37
c2.35156 41.6025 6.9375 83.3564 2.18555 124.959c-1.88281 16.4561 -7.72461 29.3877 -12.3184 44.7197c-0.0556641 0.186523 -0.145508 0.351562 -0.208008 0.538086c-2.12402 -0.517578 -4.09668 -1.05566 -5.57227 -1.62109
c-19.6152 -7.51758 -116.199 -2.08301 -91.3223 40.0156c83.1562 140.738 76.6943 309.457 131.594 460.161c23.1318 63.4863 63.3682 131.021 118.675 171.595c42.6504 31.291 109.571 52.7402 155.463 17.042c17.8145 -13.8623 -26.7598 -26.0693 -39.0156 -17.1582
c-27.6016 20.0703 -72.0723 -15.3457 -91.0107 -34.3604c-20.0908 -20.167 -33.9053 -43.1543 -44.127 -69.5898c-22.084 -57.0859 -29.333 -119.613 -34.5332 -180.195c-9.03516 -105.144 -14.9111 -216.37 -53.7822 -315.637
c31.457 -7.62793 58.4932 -26.2773 72.4111 -60.9414c28.3389 -70.5762 7.98633 -151.918 7.64844 -225.253c-0.337891 -73.3281 8.0625 -155.808 39.7881 -222.853c33.8564 -71.5342 92.9424 -84.2041 165.56 -65.4443c12.2354 3.16602 36.4023 5.55957 45.4102 -6.78613z
" />
    <glyph glyph-name="verticalbar" unicode="|" horiz-adv-x="246" 
d="M190.383 -1.96387c2.97266 -89.1221 13.582 -181.141 -4.66016 -269.131c-4.51758 -21.8145 -51.6025 -24.8486 -60.4307 -4.66113c-36.5264 83.5215 -43.9541 177.285 -53.2168 267.055c-9.02148 87.4668 -14.0078 175.312 -17.7188 263.151
c-7.60059 180.029 -6.04883 360.776 11.0205 540.206c4.65527 48.8916 125.647 48.4912 124.578 -0.000976562c-3.93164 -177.829 -8.61426 -355.562 -6.82129 -533.454c0.882812 -87.7695 4.31738 -175.45 7.24902 -263.165z" />
    <glyph glyph-name="braceright" unicode="}" horiz-adv-x="582" 
d="M527.841 261.449c24.5049 -41.4775 -71.1104 -47.7666 -91.3184 -40.0146c-1.72461 0.703125 -3.49707 1.28906 -5.24219 1.95801c-0.290039 -0.420898 -0.49707 -0.745117 -0.538086 -0.875977c-5.50391 -17.7598 -11.2832 -31.9258 -13.0488 -51.2305
c-3.80664 -41.6572 1.06934 -83.4385 3.27637 -125.033c4.0625 -76.6865 -3.82031 -153.994 -29.1807 -226.777c-20.9316 -60.0723 -58.5332 -117.544 -119.122 -142.973c-66.1826 -27.7734 -141.779 -14.166 -206.996 9.6416
c-12.6484 4.62109 -20.8418 13.7109 -11.9102 25.8838c9.14551 12.4629 32.7539 10.0557 45.4102 6.78613c37.3193 -9.6416 77.1484 -16.876 112.509 2.73145c26.3535 14.6211 43.0576 40.4014 55.1826 67.2373c29.8633 66.0928 37.9805 146.545 37.6494 218.321
c-0.337891 73.7764 -22.4424 159.188 9.4209 229.37c14.5869 32.126 40.6094 49.5889 70.6035 56.9131c-38.8438 99.2393 -44.7197 210.431 -53.748 315.546c-5.33789 62.1553 -12.8145 126.469 -36.3604 184.74c-10.6074 26.2568 -25.2422 48.748 -45.7744 68.377
c-18.7246 17.9043 -61.0645 50.2783 -87.5352 31.0361c-12.0967 -8.79395 -56.8848 3.24805 -39.0078 17.1592c47.416 36.8848 116.206 12.8906 159.325 -19.9316c53.2168 -40.5195 92.3291 -106.702 114.812 -168.705c54.6719 -150.731 48.4717 -319.484 131.593 -460.16z
" />
    <glyph glyph-name="nonbreakingspace" unicode="&#xa0;" horiz-adv-x="307" 
 />
    <glyph glyph-name="exclamdown" unicode="&#xa1;" horiz-adv-x="235" 
d="M179.362 -92.8516c1.62793 -51.127 16.4209 -120.503 -7.00781 -167.657c-11.7734 -23.7051 -56.8857 -18.3604 -70.2451 -0.000976562c-31.3398 43.0781 -30.126 116.296 -35.7607 167.657c-6.4209 58.541 -9.85547 117.289 -12.5244 176.105
c-5.32422 117.406 -5.25488 235.232 1.24902 352.597c2.68945 48.4648 123.985 47.2852 122.42 0c-3.88965 -117.53 -5.7998 -235.005 -3.64844 -352.597c1.07617 -58.7197 3.64844 -117.405 5.51758 -176.104zM135.035 556.787
c-7.45508 -15.7598 -44.541 -15.6973 -52.0654 0c-29.6084 61.7959 -19.291 142.931 -16.249 209.334c1.75195 38.1602 97.9014 36.3604 95.4805 0c-4.45508 -66.8789 2.04199 -147.545 -27.166 -209.334z" />
    <glyph glyph-name="cent" unicode="&#xa2;" horiz-adv-x="676" 
d="M575.559 198.591c4.51074 18.2148 55.9473 14.6426 50.5127 -7.94434c-32.8359 -136.021 -99.0322 -297.725 -238.494 -355.224c2.26953 -62.2725 4.87695 -124.565 7.87695 -186.893c1.04102 -21.7041 -54.624 -22.1523 -56.1484 0
c-3.93848 57.2305 -7.16602 114.551 -9.81445 171.926c-127.586 -12.001 -212.252 123.02 -246.93 237.639c-43.5605 143.966 -40.5186 310.099 -8.00684 455.981c29.0703 130.462 104.412 312.071 264.992 305.326c2.73145 46.168 5.68359 92.2939 8.93848 138.352
c1.42773 20.2285 52.0303 19.3525 50.7539 0c-3.30371 -49.9609 -6.125 -99.8945 -8.58691 -149.821c108.351 -48.1816 118.186 -235.005 123.021 -335.872c0.986328 -20.6562 -52.1338 -21.1045 -53.4512 0c-4.51074 72.1211 -10.9453 146.814 -37.9326 214.583
c-8.10352 20.3457 -18.7041 45.5879 -34.2363 64.3125c-12.6006 -291.373 -11.7109 -582.339 -1.95215 -873.76c17.7041 11.3105 34.0156 24.96 48.9609 39.5947c76.5488 74.9141 115.24 179.933 140.497 281.8zM327.938 -142.95
c-12.6836 305.602 -7.87598 612.747 9.05566 918.079c-22.2217 -4.40039 -41.7471 -26.1045 -55.3135 -43.2988c-72.2998 -91.625 -101.908 -223.266 -112.75 -336.664c-11.2354 -117.51 -11.0078 -240.984 22.5869 -355.094
c15.9043 -54.0166 39.6641 -116.206 80.832 -156.139c17.4766 -16.9521 35.8086 -26.2217 55.5889 -26.8838z" />
    <glyph glyph-name="sterling" unicode="&#xa3;" horiz-adv-x="686" 
d="M585.771 -184.552c12.5312 15.0283 64.5693 5.09863 47.0928 -15.7021c-38.1055 -45.292 -105.426 -40.0713 -156.987 -25.5049c-46.5127 13.1318 -90.8184 33.8506 -135.973 51.6377c-4.01367 -10.9941 -8.75195 -21.6221 -14.5312 -31.6152
c-34.4844 -59.665 -98.0732 -82.708 -164.249 -71.7559c-41.8916 6.93164 -113.854 34.5264 -111.04 87.5566c3.21387 60.5684 81.8867 77.1211 129.172 79.4316c20.2842 0.993164 40.3408 -0.158203 60.1621 -2.83398c2.70312 20.5938 3.63379 41.4707 4.17188 62.2988
c1.63477 63.2998 -3.73828 125.951 -12.1865 188.299c-20.1455 -3.91016 -40.3047 -7.75195 -60.4854 -11.4902c-26.0215 -4.81445 -48.2021 22.2354 -13.9248 28.7871c23.3525 4.46875 46.6709 9.08984 69.9756 13.7861
c-11.1865 74.2383 -25.8906 148.125 -37.6084 222.239c-11.1318 70.4033 -18.6221 143.2 -14.2705 214.521c3.97949 65.21 15.9658 142.745 53.623 197.775c28.2842 41.3262 76.9141 60.5273 125.675 46.2373c57.499 -16.8418 83.6309 -69.0723 89.252 -125.158
c1.90332 -19.0146 -47.8369 -19.877 -50.2168 0c-4.52441 37.8018 -33.0986 120.468 -87.1494 93.7422c-34.8018 -17.208 -51.8164 -74.0596 -56.8232 -109.034c-11.5869 -80.9004 6.60059 -169.532 22.7256 -248.66c18.3184 -89.915 41.5889 -179.45 59.293 -269.807
c12.3457 2.67578 24.6982 5.34473 37.0371 8.08984c27.084 6.02832 49.8643 -22.3252 14.4971 -29.9668c-15.1865 -3.2832 -30.3945 -6.49707 -45.6025 -9.68359c9.05566 -50.4443 16.042 -101.178 19.0283 -152.436c2.70312 -46.4092 3.66895 -99.6191 -7.14551 -148.139
c11.0967 -4 22.1182 -8.2002 33.043 -12.5176c50.375 -19.918 158.181 -84.376 203.445 -30.0977zM226.962 -166.97c2.81348 7.80762 5.03418 15.7324 6.95117 23.7256c-0.668945 0.0966797 -1.33105 0.241211 -2.00684 0.337891
c-35.1396 5.02832 -103.805 9.14551 -121.481 -31.0293c-14.7939 -33.6357 30.7461 -63.8994 60.9893 -60.168c31.6914 3.90332 46.2305 41.2637 55.5479 67.1338z" />
    <glyph glyph-name="currency" unicode="&#xa4;" horiz-adv-x="647" 
d="M546.149 649.53c14.6426 12.3799 66.1621 0.930664 46.6162 -15.5459c-30.7119 -25.877 -60.5752 -52.6162 -89.8252 -79.9697c58.7617 -110.322 57.2725 -253.646 -4.0752 -362.673c-8.52441 -15.1523 -18.4971 -28.9873 -29.5732 -41.4707
c12.6484 -27.8359 25.6494 -55.499 39.209 -82.9004c10.4492 -21.1113 -44.9395 -27.3115 -54.1396 -8.50391c-8.9043 18.2012 -17.5049 36.5537 -25.9883 54.9619c-70.9277 -49.2646 -165.767 -54.8926 -243.426 1.76562
c-17.7529 12.9521 -32.4502 27.4844 -44.665 43.1816c-13.9316 -16.7529 -27.8359 -33.5195 -41.6982 -50.3135c-11.9316 -14.4492 -61.8516 -5.15234 -45.2236 15.0693c20.6699 25.1318 41.4023 50.2363 62.2383 75.2578
c-28.3115 59.3613 -30.3604 129.717 -21.1318 198.313c-52.0645 89.2324 -2.95215 224.674 84.6729 275.441c-12.8906 23.7256 -26.209 47.2441 -40.3066 70.3828c-10.5449 17.3047 38.1406 22.9941 47.9062 7.52441c12.4697 -19.7529 24.2773 -39.8301 35.8018 -60.0449
c97.1562 27.2012 197.975 -19.918 257.178 -98.9629c21.7461 19.8838 43.8711 39.4092 66.4307 58.4863zM444.31 558.016c-42.3262 70.0791 -127.593 128.357 -205.369 102.694c36.8779 -67.6865 69.4248 -137.49 100.288 -208.128
c34.1807 35.9814 69.1064 71.2314 105.081 105.434zM220.608 494.006c-13.5107 -61.6787 -32.4199 -136.208 -28.5645 -205.115c35.7256 41.6094 72.0244 82.708 109.15 123.021c-32.2158 76.459 -65.7832 152.256 -103.854 225.866
c-2.22754 -1.78613 -4.45508 -3.5791 -6.64844 -5.54492c-30.1396 -27.0146 -52.5273 -70.2373 -60.6797 -115.171c30.2148 15.6426 96.9697 6.02148 90.5967 -23.0557zM248.149 153.953c53.2236 -51.582 111.19 -29.8154 155.979 13.4072
c-29.0498 66.0518 -56.3955 132.917 -84.1143 199.596c-40.25 -44.4229 -79.5898 -89.708 -118.378 -135.462c8.56641 -28.5527 23.209 -54.9541 46.5137 -77.541zM467.813 259.896c34.0918 78.9141 29.5537 177.265 -3.36523 257.448
c-36.3193 -35.3535 -71.6455 -71.7002 -106.22 -108.771c27.9189 -65.3135 55.0098 -131.041 83.3418 -196.189c10.6904 15.835 19.6152 32.167 26.2432 47.5127z" />
    <glyph glyph-name="yen" unicode="&#xa5;" horiz-adv-x="753" 
d="M670.113 162.899c-12.5107 1.43457 -25.0322 2.55273 -37.5361 3.49805c0.0410156 -17.3799 -0.0625 -34.7666 -0.317383 -52.1533c10.1934 -0.0898438 20.3936 -0.276367 30.6006 -0.669922c32.9668 -1.2832 33.1396 -32.5811 0 -31.084
c-10.4346 0.46875 -20.835 0.709961 -31.2285 0.847656c-2.38672 -92.1768 -9.55957 -184.182 -25.1055 -274.689c-8.38672 -48.7891 -130.496 -47.3545 -125.116 0c10.1523 89.377 18.7529 178.581 24.6289 267.972c-10.1113 -1.22754 -20.2295 -2.55859 -30.3408 -4.12402
c-25.9463 -4.00684 -48.4854 23.2217 -13.9248 28.7871c15.3662 2.47559 30.7598 4.56543 46.1816 6.33789c1.1582 19.9736 2.15137 39.9746 3.00684 59.9756c-10.4971 -0.585938 -20.9941 -1.28906 -31.4844 -2.23438c-11.8486 -1.07617 -43.6436 3.91699 -29.9053 22.166
c5.80762 7.72461 13.5254 9.51074 22.7744 11.2627c7.2207 1.36523 14.0967 0.241211 19.6279 -2.17969c6.73145 0.46875 13.4492 0.806641 20.1738 1.14453c1.31738 38.5264 2.08984 77.1143 2.03418 115.812c-0.103516 74.5 -1.68945 148.966 -2.39258 223.452
c-9.83496 -33.8359 -20.8291 -67.334 -33.1543 -100.37c-34.4502 -92.3359 -94.0947 -226.108 -203.549 -245.792c-128.476 -23.0977 -197.928 87.8945 -217.204 198.086c-10.4902 59.9619 -8.69727 123.765 -4.95898 184.367
c4.05566 65.7959 10.7383 135.186 39.6982 195.271c8.97949 18.6357 59.8164 19.3184 62.0234 -4.7793c9.55176 -104.343 2.63379 -210.045 13.2412 -314.602c4.94531 -48.7266 12.8633 -96.6875 33.0781 -141.642c14.2285 -31.6221 41.8232 -82.6182 81.9219 -62.0098
c86.832 44.6299 128.537 167.512 158.573 253.254c36.4844 104.171 61.1963 211.693 73.5 321.368c2.31055 20.6006 50.1338 20.5596 52.375 0c4.93164 -45.1885 18.5186 -89.8594 26.1943 -134.841c6.88965 -40.3887 12.1455 -80.9424 17.1943 -121.593
c10.2832 -82.8105 15.9316 -166.78 18.8633 -250.164c1.3584 -38.6982 2.35156 -77.5625 2.77246 -116.488c17.3594 -1.08301 34.7256 -2.56543 52.1055 -4.51074c35.9678 -4.02734 12.1807 -32.7256 -14.3516 -29.6768zM494.073 171.942
c0.414062 0.117188 0.818359 0.234375 1.22559 0.358398c-0.0478516 0.0341797 -0.0888672 0.0615234 -0.129883 0.0957031c-0.351562 -0.158203 -0.723633 -0.30957 -1.0957 -0.454102z" />
    <glyph glyph-name="section" unicode="&#xa7;" horiz-adv-x="466" 
d="M322.854 8.49902c35.291 -56.5615 63.96 -116.325 69.0498 -183.039c3.80664 -49.8506 -9.71777 -101.288 -51.8096 -131.613c-41.5332 -29.9189 -98.3018 -34.1533 -146.684 -20.3936c-110.833 31.5322 -136.772 149.669 -143.387 250.274
c-1.40039 21.3389 53.8779 22.001 55.6094 0c4.17969 -53.1406 10.125 -107.93 38.9404 -154.146c21.6631 -34.7393 72.8799 -83.6172 111.551 -43.6152c31.2637 32.3398 30.3398 87.6182 22.2842 128.606c-10.1387 51.5957 -37.0781 98.9912 -64.1553 143.4
c-54.3271 89.1152 -124.275 176.402 -147.49 280.29c-17.1318 76.6592 12.9316 155.498 77.252 196.396c-33.4912 44.2295 -60.9336 91.3418 -65.251 150.724c-6.81445 93.4941 57.9814 204.21 157.124 215.314c101.315 11.3457 158.566 -74.707 172.574 -163.649
c3.12402 -19.8281 -50.2988 -21.3662 -53.9883 0c-8.40039 48.6572 -31.5254 113.681 -85.6934 127.943c-58.8232 15.4834 -79.6729 -61.21 -82.2871 -103.433c-2.97949 -48.1123 2.2832 -96.8389 23.0225 -140.793c20.6631 -43.7812 55.0234 -77.5625 84.1426 -115.502
c56.6514 -73.8242 114.481 -166.028 121.668 -261.274c4.93164 -65.4238 -27.4697 -152.587 -92.4727 -175.491zM304.466 36.9395c23.9805 13.2627 29.4766 54.2646 29.1729 77.2793c-0.393555 29.9189 -7.24219 59.0029 -16.8906 87.1562
c-18.7939 54.8027 -48.8301 106.709 -80.6387 154.946c-20.4834 31.0635 -45.0498 59.6855 -68.6445 88.6455c-88.8867 -75.293 13.498 -222.749 64.1973 -301.229c22.7324 -35.1953 48.5684 -70.4521 72.8037 -106.799z" />
    <glyph glyph-name="copyright" unicode="&#xa9;" horiz-adv-x="1044" 
d="M946.161 577.396c87.9766 -211.645 54.8965 -495.473 -98.7178 -669.702c-146.234 -165.856 -428.048 -201.941 -589.215 -38.0781c-133.482 135.71 -168.891 340.438 -170.152 532.206c-80.4932 77.4453 -16.7588 215.776 38.8643 288.76
c74.2314 97.3975 186.623 161.235 306.815 181.657c221.391 37.6152 427.436 -90.4395 512.405 -294.843zM796.144 -2.37109c106.867 166.291 135.875 408.93 64.665 593.932c-32.3535 84.0459 -88.0459 161.705 -166.595 207.79
c-88.1426 51.7129 -195.21 59.4648 -292.497 31.2842c-94.6602 -27.4219 -181.119 -87.8662 -237.232 -169.257c-13.5459 -19.6562 -28.0361 -44.6299 -39.5674 -71.6445c31.8633 8.58008 76.79 -1.05469 77.3213 -28.8418
c4.20703 -218.549 -10.3936 -494.245 157.967 -662.144c141.007 -140.621 341.858 -47.5059 435.938 98.8809zM636.038 206.473c4.20703 16.5801 54.2441 13.2861 50.3818 -3.88672c-10.5801 -47.0166 -16.877 -101.447 -48.251 -140.028
c-27.9873 -34.4082 -73.5205 -47.7334 -116.619 -46.7129c-115.405 2.74512 -177.643 105.585 -191.905 209.349c-14.7598 107.385 12.1035 255.564 104.881 323.851c40.1533 29.5527 95.2666 41.2012 140.503 15.2412c51.0713 -29.3115 62.499 -85.2246 70.6309 -138.924
c3.08301 -20.3594 -51.2305 -21.6699 -55.0654 0c-4.53809 25.6768 -24.8975 131.482 -73.0791 108.412c-25.5596 -12.2354 -44.9746 -66.6309 -55.2646 -90.9629c-30.1396 -71.2793 -41.5537 -146.697 -33.5879 -223.652
c6.29004 -60.7549 31.3535 -151.539 101.86 -165.526c76.0801 -15.0977 92.6602 102.184 105.516 152.841z" />
    <glyph glyph-name="softhyphen" unicode="&#xad;" 
 />
    <glyph glyph-name="registered" unicode="&#xae;" horiz-adv-x="891" 
d="M801.13 648.931c73.2998 -176.885 40.5938 -402.648 -65.8809 -559.442c-52.5127 -77.3418 -125.468 -137.393 -217.327 -160.49c-94.1699 -23.6836 -195.954 -9.2832 -272.013 53.4785c-132.744 109.529 -156.373 306.16 -151.421 474.224
c-7.97949 0.9375 -15.1729 3.73047 -18.3867 8.76562c-57.1963 89.5488 -11.5459 193.65 51.8848 265.806c64.9551 73.8936 155.208 125.896 252.337 142.607c173.926 29.9189 352.7 -60.5957 420.807 -224.948zM672.826 177.589
c72.8936 142.228 103.268 327.656 44.5684 480.264c-57.6162 149.787 -215.989 223.791 -368.797 174.623c-110.964 -35.7051 -263.951 -163.346 -247.806 -292.938c16.5459 35.4229 112.44 31.6016 110.861 -8.95215c-3.60742 -92.6182 -3.95215 -186.975 13.7383 -278.304
c16.0693 -82.9697 50.25 -176.602 116.143 -233.225c128.206 -110.157 275.165 49.0234 331.292 158.532zM621.886 634.887c103.315 -45.582 20.8779 -193.893 -31.959 -244.812c-34.5254 -33.2705 -75.8311 -61.6582 -119.509 -81.9561
c4.76562 -2.29688 9.53809 -4.55859 14.3105 -6.70996l100.535 -45.293c28.6289 -12.8975 -18.0566 -33.5605 -35.3262 -26.0977c-28.0293 12.1113 -56.0586 24.2295 -84.0879 36.3408c-12.0146 5.19336 -23.9736 10.5107 -36.043 15.5732
c-1.69629 0.724609 -3.42773 1.37305 -5.1377 2.09082c-0.317383 -3.31055 -0.704102 -6.62109 -0.987305 -9.93848c-2.82129 -33.6016 -12.1455 -83.9971 4.51074 -114.529c1.96582 -3.59375 1.7041 -6.69727 -0.0410156 -9.26953
c3.57227 -9.55957 7.95215 -18.7119 13.3936 -27.2363c15.166 -23.7461 -60.0928 -39.8848 -72.3213 -11.3662c-33.9668 79.2246 -56.5537 152.539 -61.1055 239.599c-4.64844 89.0664 4.00684 181.678 23.9531 268.489
c7.82129 34.0566 93.9912 37.6426 92.7842 -0.000976562c-1.40723 -43.8232 -5.85547 -87.3906 -10.125 -130.986c0.56543 1.47559 1.07617 2.98633 1.64844 4.46191c30.4219 77.5352 107.64 184.816 205.507 141.642zM490.598 382.315
c29.7812 18.2764 58.3975 38.5957 81.709 64.8867c25.7871 29.0908 42.085 66.6172 41.6914 105.833c-0.179688 18.291 -3.04199 43.4512 -20.2979 54.4238c-19.8564 12.6143 -42.9404 -4.40723 -57.5273 -17.4561c-56.0029 -50.1133 -80.0938 -130.993 -95.626 -201.955
c-2.69629 -12.3525 -4.99316 -24.7881 -7.11719 -37.251c2.3584 1.08984 4.73047 2.1377 7.06152 3.28906c17.2148 8.46973 33.7607 18.1943 50.1064 28.2295z" />
    <glyph glyph-name="mu" unicode="&#xb5;" horiz-adv-x="591" 
d="M539.515 301.589c14.001 -45.4434 -92.0059 -53.498 -103.992 -16.3311c-18.4561 57.0791 -30.4639 116.931 -35.9121 177.168c-23.1182 -35.4912 -51.8027 -67.6924 -88.1768 -86.0518c-50.9961 -25.7393 -105.585 -6.37305 -135.159 38.6221
c-3.46191 -76.4932 -5.01367 -153.069 -3.03418 -229.9c2.05566 -79.8174 6.11816 -159.821 12.5947 -239.411c3 -36.8916 6.49707 -73.8525 8.3457 -110.827c1.1582 -23.1875 5.7793 -60.2441 -5.6416 -83.3076c0.337891 -15.8701 -36.4023 -15.9248 -45.7891 -13.5244
c-32.8154 8.38672 -39.8086 54.292 -47.085 82.7139c-9.37988 36.6504 -15.8213 74.4043 -20.877 111.882c-10.7246 79.4248 -18.166 158.98 -21.5244 239.061c-6.82129 162.739 -4.17285 327.727 19.7666 489.052c6.88965 46.4648 122.729 45.8369 119.185 0
c-2.41406 -31.1943 -4.72461 -62.3613 -6.91797 -93.5283c4.18652 -34.9121 11.7871 -69.376 23.5811 -102.729c8.03516 -22.7188 18.2217 -52.582 41.499 -63.4932c28.6562 -13.4287 56.9541 20.8145 74.9893 41.6152c31.0635 35.8428 52.7061 79.3691 71.4385 122.875
c1.66211 44.0293 6.63477 87.5967 16.1387 130.688c6.57227 29.8154 16.6621 56.0576 42.6982 73.5479c12.5107 8.40723 43.1748 6.74512 46.54 -10.9863c7.54492 -39.6846 -7.02832 -78.4795 -19.6768 -115.729c-0.862305 -2.54492 -1.81445 -5.0625 -2.69727 -7.60059
c1.62793 -35.0498 4.29688 -69.8379 8.38672 -104.702c9.18652 -78.2939 28.1465 -153.884 51.3203 -229.102z" />
    </font>
</defs>
</svg>
