<?xml version="1.0" standalone="no"?>
<!DOCTYPE svg PUBLIC "-//W3C//DTD SVG 1.1//EN" "http://www.w3.org/Graphics/SVG/1.1/DTD/svg11.dtd" >
<svg xmlns="http://www.w3.org/2000/svg" xmlns:xlink="http://www.w3.org/1999/xlink" version="1.1">
<metadata>
Created by FontForge 20170812 at Wed Aug  3 07:03:57 2022
 By www-data
</metadata>
<defs>
<font id="OceanRegular" horiz-adv-x="0" >
  <font-face 
    font-family="Ocean"
    font-weight="400"
    font-stretch="normal"
    units-per-em="1000"
    panose-1="0 0 0 0 0 0 0 0 0 0"
    ascent="800"
    descent="-200"
    x-height="365.718"
    cap-height="931.324"
    bbox="-274.537 -461.715 1686.97 1199.77"
    underline-thickness="50"
    underline-position="-100"
    unicode-range="U+000A-20AC"
  />
<missing-glyph horiz-adv-x="527" 
d="M50 700h427v-700h-427v700zM78 680l185 -309l186 309h-371zM251 350l-180 300v-601zM264 329l-185 -308h370zM276 350l181 -303v605z" />
    <glyph glyph-name=".notdef" horiz-adv-x="527" 
d="M50 700h427v-700h-427v700zM78 680l185 -309l186 309h-371zM251 350l-180 300v-601zM264 329l-185 -308h370zM276 350l181 -303v605z" />
    <glyph glyph-name=".null" 
 />
    <glyph glyph-name=".null" 
 />
    <glyph glyph-name="LF" unicode="&#xa;" 
 />
    <glyph glyph-name="controlCR" unicode="&#xd;" 
 />
    <glyph glyph-name="space" unicode=" " horiz-adv-x="319" 
 />
    <glyph glyph-name="exclam" unicode="!" horiz-adv-x="244" 
d="M177.232 -4.09473c-12.0996 -23.4922 -46.373 -34.1309 -68.083 -18.7402c-28.4268 20.1562 -34.5498 60.5986 -40.7617 92.8711c-6.0332 31.3311 -9.95801 62.7178 -12.1787 94.5312c-4.62012 66.2783 -5.44434 132.585 -5.9209 198.992
c-0.986328 137.642 0.499023 275.115 5.3877 412.673c1.25586 35.3955 30.1533 61.4443 63.3008 70.1963c25.3818 6.70605 71.7334 0.891602 72.0254 -34.123c1.14355 -137.3 -1.18848 -274.521 -2.1582 -411.809c-0.487305 -68.6553 -1.78809 -137.445 -0.431641 -206.095
c0.639648 -32.4463 1.04883 -64.8926 1.83984 -97.3389c0.84668 -34.9248 3.39746 -69.2725 -13.0195 -101.158zM183.49 -90.7734c9.08887 -20.8906 11.7803 -41.3613 10.8047 -63.9795c-1.17188 -27.3389 -24.9219 -46.1387 -50.6738 -50.3662
c-24.7041 -4.05371 -47.165 7.91113 -43.6611 34.8574c1.67676 12.9121 1.21094 32.8672 1.17188 48.6729c-0.0449219 20.2803 16.1865 35.1211 34.0107 41.8047c14.752 5.52832 40.543 6.95801 48.3477 -10.9893z" />
    <glyph glyph-name="quotedbl" unicode="&#x22;" horiz-adv-x="339" 
d="M120.604 810.205c16.6299 0.908203 42.0234 -7.55273 41.8271 -28.4043c-0.202148 -21.4736 -4.67676 -42.4092 -6.3418 -63.7598c-1.73242 -22.1865 -0.992188 -44.4736 -6.20605 -66.2617c-5.80859 -24.2715 -52.7881 -51.2178 -72.7314 -27.4785
c-34.3135 40.8398 -32.9121 104.242 -13.4736 151.384c8.33691 20.2178 36.2871 33.3994 56.9258 34.5205zM244.43 802.333c23.6436 1.28418 50.1982 -14.3369 43.2285 -41.3613c-5.71289 -22.1865 -10.2822 -44.6191 -13.6074 -67.2705
c-3.66113 -24.9395 -6.4082 -45.7295 -21.9727 -66.29c-9.75586 -12.8896 -34.3525 -21.4795 -49.5303 -13.6914c-45.9141 23.5547 -34.9531 100.233 -22.7139 140.731c8.27539 27.3896 36.4941 46.3516 64.5957 47.8818z" />
    <glyph glyph-name="quotedbl" unicode="&#x201d;" horiz-adv-x="339" 
d="M120.604 810.205c16.6299 0.908203 42.0234 -7.55273 41.8271 -28.4043c-0.202148 -21.4736 -4.67676 -42.4092 -6.3418 -63.7598c-1.73242 -22.1865 -0.992188 -44.4736 -6.20605 -66.2617c-5.80859 -24.2715 -52.7881 -51.2178 -72.7314 -27.4785
c-34.3135 40.8398 -32.9121 104.242 -13.4736 151.384c8.33691 20.2178 36.2871 33.3994 56.9258 34.5205zM244.43 802.333c23.6436 1.28418 50.1982 -14.3369 43.2285 -41.3613c-5.71289 -22.1865 -10.2822 -44.6191 -13.6074 -67.2705
c-3.66113 -24.9395 -6.4082 -45.7295 -21.9727 -66.29c-9.75586 -12.8896 -34.3525 -21.4795 -49.5303 -13.6914c-45.9141 23.5547 -34.9531 100.233 -22.7139 140.731c8.27539 27.3896 36.4941 46.3516 64.5957 47.8818z" />
    <glyph glyph-name="quotedbl" unicode="&#x201c;" horiz-adv-x="339" 
d="M120.604 810.205c16.6299 0.908203 42.0234 -7.55273 41.8271 -28.4043c-0.202148 -21.4736 -4.67676 -42.4092 -6.3418 -63.7598c-1.73242 -22.1865 -0.992188 -44.4736 -6.20605 -66.2617c-5.80859 -24.2715 -52.7881 -51.2178 -72.7314 -27.4785
c-34.3135 40.8398 -32.9121 104.242 -13.4736 151.384c8.33691 20.2178 36.2871 33.3994 56.9258 34.5205zM244.43 802.333c23.6436 1.28418 50.1982 -14.3369 43.2285 -41.3613c-5.71289 -22.1865 -10.2822 -44.6191 -13.6074 -67.2705
c-3.66113 -24.9395 -6.4082 -45.7295 -21.9727 -66.29c-9.75586 -12.8896 -34.3525 -21.4795 -49.5303 -13.6914c-45.9141 23.5547 -34.9531 100.233 -22.7139 140.731c8.27539 27.3896 36.4941 46.3516 64.5957 47.8818z" />
    <glyph glyph-name="numbersign" unicode="#" horiz-adv-x="750" 
d="M684.456 263.575c34.2461 -6.10547 5.79004 -47.2461 -18.1172 -46.2988c-43.834 1.77734 -87.584 5.25879 -131.328 8.83594c-3.20703 -59.8193 -5.1416 -119.768 -6.16211 -179.609c-1.36816 -80.1045 3.24023 -162.256 -9.25195 -241.553
c-4.33398 -27.5186 -68.4932 -57.1279 -81.1309 -21.9111c-26.6719 74.3125 -30.1875 157.489 -33.8604 235.794c-3.39258 72.2891 -3.10645 144.432 -0.224609 216.692c-12.6094 0.639648 -25.2246 1.15527 -37.8516 1.50879
c-7.14355 0.202148 -14.3037 0.25293 -21.458 0.365234c-2.23145 -65.3193 -3.53809 -130.717 -4.35156 -196.048c-0.936523 -75.3945 5.36523 -154.955 -6.85156 -229.521c-3.4707 -21.1885 -27.709 -37.3359 -46.9014 -42.4043
c-15.0996 -3.98633 -45.5498 -3.48145 -51.6387 15.7891c-23.0664 72.9893 -23.1396 156.104 -26.6162 232.032c-3.3252 72.5293 -3.53223 144.958 -1.93945 217.527c-46.8789 -2.31543 -93.7012 -5.77441 -140.243 -9.80566
c-30.4561 -2.64062 -13.5684 33.2373 8.55078 35.7207c44.2041 4.96191 88.375 8.43262 132.585 11.001c0.919922 32.2451 2.13672 64.501 3.70117 96.751c-41.9443 0.611328 -83.9004 0.875 -125.879 0.594727c-30.709 -0.202148 -14.6006 35.8389 8.66211 36.1973
c39.7295 0.611328 79.4707 0.779297 119.212 0.666992c5.85938 101.203 15.7334 202.182 32.7217 302.022c10.7314 63.0713 141.135 89.4404 134.154 8.11328c-8.93164 -104.062 -19.0801 -207.974 -26.4248 -312.12c20.5771 -0.521484 41.1484 -1.15527 61.7197 -1.90137
c10.7256 112.865 28.0615 224.9 53.4658 335.674c13.5518 59.0957 142.772 85.3018 129.008 7.80469c-20.5771 -115.831 -38.0645 -232.599 -49.9453 -349.798c43.2676 -2.59082 86.5127 -5.62402 129.708 -9.28516c12.5254 -1.06543 16.0635 -13.5127 11.3926 -23.3643
c-5.65137 -11.9092 -20.6836 -17.0166 -32.9062 -16.0469c-37.3301 2.95508 -74.6719 5.56738 -112.019 7.97852c-2.2207 -24.6533 -4.26758 -49.3174 -5.93848 -73.999c-0.0615234 -0.975586 -0.106445 -1.95703 -0.173828 -2.93848
c49.1719 -1.75488 98.1807 -5.87598 146.332 -14.4658zM406.39 278.525c1.50293 27.9668 3.38672 55.8945 5.64648 83.7832c-20.2803 0.930664 -40.5605 1.78809 -60.8457 2.53418c-1.83301 -29.1719 -3.41992 -58.3613 -4.63672 -87.584
c11.752 0.291992 23.5039 0.566406 35.2725 0.801758c8.16895 0.162109 16.3604 0.319336 24.5635 0.464844z" />
    <glyph glyph-name="dollar" unicode="$" horiz-adv-x="473" 
d="M388.467 235.838c48.7344 -96.6729 52.5664 -223.067 -33.7783 -300.296c-22.2646 -19.915 -48.5889 -32.0986 -76.1973 -37.459c2.23145 -30.5459 4.10449 -61.0918 4.79395 -91.6826c0.65625 -29.1162 -52.5977 -49.0654 -61.3838 -16.3613
c-9.52051 35.457 -14.1572 72.1143 -16.4111 109.108c-43.5254 9.36914 -84.3203 33.8877 -111.715 70.5615c-29.2783 39.1973 -38.457 86.6982 -30.4336 134.508c7.45703 44.4111 19.0234 98.8418 66.6426 114.603c22.792 7.54102 26.2686 -19.7305 7.69922 -28.3262
c-21.9336 -10.1484 -28.4209 -67.8369 -31.1123 -88.8965c-4.12695 -32.29 1.92285 -64.1084 18.3848 -92.2773c14.583 -24.9561 45.5215 -53.5615 78.8369 -66.8838c-0.639648 31.2246 -0.258789 62.4375 -0.320312 93.1348
c-0.140625 68.7061 4.21582 136.852 8.15723 205.232c-20.0166 20.8291 -40.7783 40.9629 -61.2939 61.417c-37.9922 37.8682 -76.8643 79.3926 -92.3955 131.968c-29.5762 100.109 26.3965 200.813 119.525 242.864c23.8008 10.748 49.5303 15.9121 74.7324 15.5029
c4.42969 31.3984 9.11133 62.7744 14.3037 94.1055c3.09473 18.7041 43.2734 26.2344 39.7295 2.40527c-5.03516 -33.876 -9.80078 -67.9033 -14.2471 -102.026c40.3525 -10.8096 75.4961 -37.4814 93.6514 -80.127c8.42188 -19.7812 -31.5322 -39.1523 -40.4697 -19.7412
c-11.7012 25.4102 -33.209 46.5479 -58.417 58.249c-10.2832 -84.7021 -18.2285 -169.92 -22.4004 -255.021c4.18262 -3.93555 8.32031 -7.87109 12.3408 -11.8291c42.6904 -42.0459 84.6348 -88.8906 111.777 -142.732zM223.377 429.184
c5.97656 75.5635 13.7637 150.908 23.6543 226.062c-16.3555 0.583008 -32.9512 -3.12305 -48.4873 -12.2451c-49.4688 -29.0654 -46.5977 -96.4258 -26.6318 -143.243c11.4941 -26.958 30.5068 -49.5869 51.4648 -70.5732zM274.886 -54.9531
c33.0244 21.4629 43.0762 74.415 40.7891 110.377c-2.95996 46.5586 -24.8037 90.5605 -53.0059 127.123c1.43555 -45.1406 3.62793 -90.2871 5.50586 -135.242c1.42969 -34.1289 4.04199 -68.1963 6.71094 -102.258z" />
    <glyph glyph-name="percent" unicode="%" horiz-adv-x="775" 
d="M673.979 790.587c-76.9258 -174.585 -161.901 -345.288 -235.866 -521.286c-37.083 -88.2461 -72.0977 -177.35 -107.225 -266.386c-35.4854 -89.9561 -68.1504 -181.414 -112.103 -267.675c-17.2686 -33.9043 -101.068 -51.9131 -92.9277 4.40723
c13.5908 94.0488 45.1797 184.852 75.9668 274.438c31.5156 91.7158 66.9336 182.053 103.327 271.93c72.165 178.195 148.361 358.017 243.722 525.229c17.5098 30.7031 57.627 51.4648 92.9277 45.3193c34.5605 -6.0166 45.376 -36.0186 32.1777 -65.9756z
M182.426 406.881c-85.2852 -3.21875 -125.806 73.6846 -132.259 148.261c-2.81445 32.5361 30.7314 59.3535 63.9014 65.7676c26.9854 29.873 71.1113 48.3418 107.611 46.5312c67.293 -3.33594 108.296 -76.5273 101.113 -138.376
c-8.0293 -69.1436 -72.665 -119.633 -140.367 -122.184zM165.135 607.487c4.25586 -5.00684 7.49707 -11.3438 9.29688 -19.2324c6.91895 -30.3213 9.55371 -72.4453 36.752 -92.9434c16.9043 -12.7383 30.7529 -1.89453 36.5508 16.8096
c9.73926 31.4209 -1.96191 74.2959 -28.0898 94.918c-15.3848 12.1387 -36.5508 9.90723 -54.5098 0.448242zM638.339 182.041c60.9404 -23.75 95.8594 -106.1 85.2402 -167.854c-14.7686 -85.7783 -119.117 -138.561 -199.541 -118.92
c-88.8008 21.6875 -108.391 120.968 -83.3672 197.77c6.87988 21.1045 22.9941 36.5293 42.7188 44.8047c36.7637 42.4775 104.073 64.0303 154.949 44.1992zM621.854 9.41113c10.3955 30.7197 7.33008 76.1904 -10.8701 103.849
c-13.7031 20.8232 -40.4648 26.5312 -64.3223 20.6494c5.99902 -5.09668 10.2656 -12.1553 11.4316 -21.5693c4.32812 -34.9697 -4.65918 -79.5381 19.0518 -109.215c15.6934 -19.6406 36.7412 -17.2686 44.709 6.28613z" />
    <glyph glyph-name="ampersand" unicode="&#x26;" horiz-adv-x="841" 
d="M787.587 175.251c22.7412 -129.523 -79.8242 -255.576 -180.606 -322.796c-116.622 -77.7832 -265.999 -125.335 -402.743 -73.5957c-138.769 52.5078 -183.337 205.708 -135.977 338.461c24.4678 68.5879 66.5693 129.215 118.259 180.209
c10.1992 10.0645 20.7119 20.1172 31.5166 30.0469c-41.5918 0.583008 -79.0342 13.1426 -102.348 54.0498c-39.8252 69.8838 16.501 160.255 59.3428 214.686c47.9219 60.8848 114.458 109.109 188.21 133.213c70.5225 23.0439 155.926 14.0508 192.073 -58.9668
c31.3369 -63.3066 18.2617 -133.319 -42.6953 -173.615c-19.2764 -12.7383 -46.0996 4.85547 -22.9551 21.2383c65.3477 46.2559 42.5508 147.302 -39.6055 153.323c-58.2832 4.27246 -116.768 -30.7031 -157.63 -69.3232
c-21.7881 -20.5938 -40.2285 -44.7422 -54.7617 -70.9033c-13.2549 -23.874 -30.1318 -55.2725 -23.2969 -83.5088c7.35645 -30.4053 36.4502 -28.123 61.7598 -25.7344c31.2129 2.94336 69.7314 6.91895 98.7188 18.7881c21.334 8.74121 51.1113 14.9648 70.0459 -2.92676
c17.0332 -16.0967 11.1348 -43.6602 -3.93652 -58.9775c-46.3066 -47.0635 -103.86 -81.5898 -150.094 -129.018c-36.9824 -37.9355 -70.7861 -82.168 -88.0273 -132.882c-29.75 -87.5283 -7.81641 -191.938 73.1904 -244.463
c86.0361 -55.7881 197.763 -30.1367 281.001 18.3281c82.8857 48.252 169.253 142.413 159.329 245.702c-9.3125 96.9414 -121.853 158.325 -206.6 105.56c-11.9424 -7.43457 -30.4277 -14.998 -43.5254 -5.18066c-11.1797 8.38184 -11.1514 24.5518 -0.734375 34.252
c54.4814 50.7412 130.583 72.1484 202.462 46.873c62.1904 -21.8721 108.29 -78.2656 119.627 -142.839z" />
    <glyph glyph-name="quotesingle" unicode="'" horiz-adv-x="216" 
d="M122.778 782.003c23.4248 1.27246 49.1777 -14.0898 42.5449 -40.6943c-9.68848 -38.8887 -13.4287 -78.4844 -20.415 -117.844c-5.47266 -30.8154 -63.0996 -53.2207 -80.918 -21.8564c-21.5918 38.0029 -14.0615 92.9053 -4.78223 133.28
c6.22363 27.0811 37.4873 45.6953 63.5703 47.1143z" />
    <glyph glyph-name="quotesingle" unicode="&#x2019;" horiz-adv-x="216" 
d="M122.778 782.003c23.4248 1.27246 49.1777 -14.0898 42.5449 -40.6943c-9.68848 -38.8887 -13.4287 -78.4844 -20.415 -117.844c-5.47266 -30.8154 -63.0996 -53.2207 -80.918 -21.8564c-21.5918 38.0029 -14.0615 92.9053 -4.78223 133.28
c6.22363 27.0811 37.4873 45.6953 63.5703 47.1143z" />
    <glyph glyph-name="quotesingle" unicode="&#x2018;" horiz-adv-x="216" 
d="M122.778 782.003c23.4248 1.27246 49.1777 -14.0898 42.5449 -40.6943c-9.68848 -38.8887 -13.4287 -78.4844 -20.415 -117.844c-5.47266 -30.8154 -63.0996 -53.2207 -80.918 -21.8564c-21.5918 38.0029 -14.0615 92.9053 -4.78223 133.28
c6.22363 27.0811 37.4873 45.6953 63.5703 47.1143z" />
    <glyph glyph-name="parenleft" unicode="(" horiz-adv-x="596" 
d="M531.911 -109.25c10.8936 -2.43945 17.7832 -12.8496 11.3975 -23.3682c-58.8438 -96.8018 -192.751 -120.334 -292.283 -78.4004c-109.865 46.29 -164.437 158.818 -185.429 270.276c-21.4404 113.841 -20.3691 233.008 0.717773 346.871
c21.2217 114.604 71.9131 231.545 149.113 319.577c37.2969 42.5332 86.6143 82.5996 142.772 95.6855c42.5166 9.90723 95.5684 1.41309 125.985 -31.9248c15.8281 -17.3418 -20.4531 -40.2344 -35.2998 -26.6719c-79.5771 72.7256 -166.685 -96.7402 -192.437 -152.371
c-73.5166 -158.824 -80.7158 -348.604 -50.5625 -518.815c14.5498 -82.1455 41.8828 -162.177 103.608 -221.211c54.2793 -51.9189 142.485 -65.8916 189.51 4.30566c6.80664 10.1592 19.9658 18.9453 32.9062 16.0469z" />
    <glyph glyph-name="parenright" unicode=")" horiz-adv-x="597" 
d="M538.296 385.59c15.0371 -112.646 13.0869 -236.79 -18.1709 -346.694c-32.8672 -115.584 -104.875 -219.898 -222.758 -259.112c-87.1748 -28.998 -196.385 -1.27246 -245.152 79.9199c-12.7109 21.1602 32.8721 42.8477 46.5361 22.6963
c25.5615 -37.7002 69.7148 -58.5127 114.945 -57.0156c39.9033 1.31738 73.8857 24.8496 99.5596 53.7305c56.1182 63.1436 73.9756 146.674 84.5498 228.404c11.3711 87.8867 12.5938 177.579 0.140625 265.421c-12.5645 88.6826 -36.6514 172.331 -76.5947 252.638
c-18.9229 38.042 -42.4775 74.8955 -71.7168 105.901c-24.5303 26.0156 -67.1309 70.9824 -103.267 37.2354c-15.2783 -14.2695 -53.208 -7.34473 -32.5303 14.8467c37.4199 40.1504 99.9639 49.6543 151.378 35.6768c60.7607 -16.5176 109.063 -62.1455 146.254 -111.144
c70.5898 -93.0117 111.441 -207.317 126.826 -322.504z" />
    <glyph glyph-name="asterisk" unicode="*" horiz-adv-x="316" 
d="M254.851 658.558c11.0059 -0.672852 13.4521 -11.7363 9.78516 -20.0459c-4.62598 -10.4512 -17.8975 -14.3145 -28.2305 -13.7646c-8.46582 0.448242 -17.0947 0.874023 -25.7793 1.27734c8.86426 -7.84961 17.7178 -15.665 26.4697 -23.459
c17.3809 -15.4688 -20.3359 -40.7832 -35.7822 -27.0352c-7.69238 6.83984 -15.3906 13.7588 -23.0723 20.7227c0.358398 -7.22754 0.795898 -14.46 1.36816 -21.7041c1.69922 -21.4521 -42.8857 -36.2041 -45.0781 -12.0166
c-1.12109 12.3906 -1.88379 24.7705 -2.36035 37.1445c-9.78906 -11.4434 -19.3486 -23.0996 -28.6729 -34.9639c-13.3105 -16.9268 -48.6504 -7.9502 -31.2021 14.2471c12.6152 16.0469 25.7188 31.623 39.1973 46.8398
c-13.3438 -1.03711 -26.5088 -2.60156 -39.3369 -4.93359c-29.7607 -5.40527 -28.3594 29.4131 -2.83203 33.8535c14.2188 2.4668 28.6396 4.14355 43.1553 5.29297c-12.7334 13.5352 -25.001 27.4512 -36.4053 41.9727c-12.7725 16.2656 19.4834 37.3926 31.4541 23.7676
c8.75195 -9.96875 17.9248 -19.6572 27.3223 -29.1885c0.795898 8.6123 1.68164 17.2246 2.76367 25.8418c2.74707 21.8662 49.8047 30.4053 46.0254 2.78613c-1.29492 -9.46387 -2.32129 -18.9229 -3.21289 -28.3867c7.71484 7.27246 15.5029 14.4775 23.4365 21.5479
c18.127 16.1533 44.3047 -2.80371 23.2793 -21.5469c-12.7949 -11.3984 -25.2256 -23.1611 -37.376 -35.1934c21.8662 -0.566406 43.6543 -1.74414 65.084 -3.05566z" />
    <glyph glyph-name="plus" unicode="+" horiz-adv-x="367" 
d="M305.875 277.238c11.1631 -0.678711 13.6309 -11.9023 9.90234 -20.3242c-4.65332 -10.5352 -18.1602 -14.6113 -28.6172 -13.9551c-18.0205 1.12695 -36.0469 1.83887 -54.0674 2.16406c-0.701172 -21.1377 -1.50293 -42.2754 -1.97949 -63.4238
c-0.611328 -27.165 2.0127 -57.5088 -6.90234 -83.418c-8.27539 -24.0527 -44.2314 -44.1641 -66.5635 -25.1514c-39.2139 33.377 -37.1113 113.302 -38.1318 160.551c-0.0615234 2.77539 -0.0722656 5.55664 -0.117188 8.33789
c-17.8916 -1.28418 -35.7715 -2.92676 -53.6289 -4.94531c-28.8691 -3.25781 -13.2373 31.835 8.21484 34.3018c15.082 1.73242 30.1641 3.11133 45.252 4.2998c0.358398 46.3516 3.16699 92.7705 9.95703 138.527c4.02539 27.1143 36.7637 45.3477 60.8447 49.4404
c18.6934 3.17871 56.1016 -3.52148 54.2734 -30.5127c-3.46484 -51.2012 -8.0791 -102.201 -10.0469 -153.47c23.8516 -0.207031 47.7197 -0.975586 71.6104 -2.42188z" />
    <glyph glyph-name="comma" unicode="," horiz-adv-x="248" 
d="M159.946 84.6221c32.6484 -2.07422 45.6133 -25.96 33.458 -54.6895c-23.5039 -55.5752 -39.7471 -129.882 -86.1719 -170.761c-13.4453 -11.8301 -39.0068 -14.2695 -49.5703 2.08594c-14.7568 22.8477 -4.65918 58.6748 1.05371 83.6084
c7.03125 30.6865 16.6914 60.4365 26.9463 90.1748c10.4844 30.4053 41.8379 51.6387 74.2842 49.5811z" />
    <glyph glyph-name="hyphen" unicode="-" horiz-adv-x="483" 
d="M401.677 308.295c25.4492 -3.2627 36.8643 -25.8643 28.8408 -48.4092c-8.77441 -24.6592 -39.1523 -43.6162 -65.0059 -43.958c-95.3662 -1.25586 -191.781 -0.986328 -286.945 5.48926c-23.5986 1.60938 -33.3379 24.5801 -26.3516 44.2148
c8.88672 24.9727 35.2441 36.2988 59.3818 40.1562c95.041 15.1777 194.725 14.7295 290.08 2.50684z" />
    <glyph glyph-name="period" unicode="." horiz-adv-x="190" 
d="M129.632 25.9639c12.0605 -17.9023 11.5342 -41.3213 9.8125 -61.8818c-0.885742 -10.541 -11.0508 -20.1738 -18.7822 -26.459c-9.63281 -7.83301 -22.2705 -11.9424 -34.5049 -13.0361c-9.35254 -0.834961 -21.5078 1.91211 -28.5498 8.57324
c-7.47949 7.08105 -8.41602 15.9346 -7.10938 25.5449c0.863281 6.33594 2.32129 17.1182 2.57324 21.0312c-0.21875 -2.02441 -0.196289 -1.03809 0.0615234 2.94824c-0.00585938 4.14941 0.257812 8.28711 0.785156 12.4082
c0.499023 3.70605 1.31738 7.32812 2.09668 10.9834c6.23438 29.2959 55.417 46.8955 73.6172 19.8877z" />
    <glyph glyph-name="slash" unicode="/" horiz-adv-x="611" 
d="M529.184 772.651c18.71 -3.25781 37.6543 -20.6396 30.5508 -41.5869c-26.9971 -79.5215 -73.1191 -152.186 -111.868 -226.42c-38.3223 -73.4209 -74.9688 -147.723 -109.781 -222.876c-34.835 -75.21 -68.3018 -151.193 -100.378 -227.625
c-32.5254 -77.4805 -64.1982 -155.169 -116.129 -221.957c-15.6602 -20.1396 -81.6416 -29.9404 -70.2705 11.6006c42.9258 156.789 103.474 309.193 170.425 457.196c34.0449 75.2549 69.9346 149.686 107.506 223.247c39.1748 76.7012 77.834 156.188 132.809 222.966
c15.0713 18.3066 43.6328 29.5479 67.1367 25.4551z" />
    <glyph glyph-name="zero" unicode="0" horiz-adv-x="586" 
d="M251.186 -102.271c-69.0811 5.10254 -116.805 54.1846 -143.729 114.767c-60.6045 136.386 -63.6318 298.552 -52.1992 444.699c2.63477 33.6914 27.4502 57.9688 60.0312 66.5752c0.415039 0.106445 0.869141 0.18457 1.29004 0.285156
c25.2246 96.6055 81.0684 185.406 183.953 182.042c149.181 -4.88379 216.345 -143.613 230.866 -275.06c8.12402 -73.5225 4.90527 -150.992 -6.67285 -223.971c-11.124 -70.124 -31.5996 -144.907 -72.2773 -203.958
c-44.9609 -65.2686 -120.064 -111.385 -201.263 -105.38zM282.339 667.853c-57.5703 -0.577148 -90.3818 -58.8662 -108.84 -105.98c-5.1748 -13.2041 -9.59863 -26.6211 -13.3662 -40.1787c12.8564 -5.00098 22.7803 -14.5273 23.4697 -30.2939
c5.76367 -131.743 -4.60938 -269.138 38.4062 -396.07c11.4375 -33.7588 31.2686 -88.0439 72.5068 -94.1553c36.0801 -5.34863 59.1797 37.9023 73.0957 67.5059c48.084 102.302 57.1338 226.465 54.084 337.8c-1.45215 52.9785 -8.78027 106.793 -29.7607 155.853
c-18.25 42.6846 -56.5107 106.053 -109.596 105.521z" />
    <glyph glyph-name="one" unicode="1" horiz-adv-x="456" 
d="M86.8457 539.182c-14.6113 -15.0654 -50.7148 -6.3252 -31.1865 14.252c53.0068 55.8662 91.5869 143.613 173.693 161.953c31.7178 7.08105 70.8369 -2.2041 94.5654 -24.8105c30.4336 -28.9932 33.7812 -80.7158 37.9023 -120.064
c10.2432 -97.7607 -2.86523 -199.317 -6.82324 -297.274c-3.78418 -93.5439 -0.986328 -187.906 -7.84375 -281.209c-1.2168 -16.54 -7.13184 -31.1182 -16.3379 -43.2568c20.7451 0.173828 41.5068 -0.24707 62.3027 -1.72168
c12.5762 -0.891602 16.0078 -13.6357 11.3936 -23.3633c-5.60645 -11.8252 -20.7168 -17.1572 -32.9062 -16.0527c-71.3359 6.47559 -142.84 -0.762695 -214.271 -1.33984c-30.3662 -0.24707 -14.3193 35.0986 8.55078 35.7207
c10.8096 0.291992 21.6084 0.723633 32.4072 1.2168c-0.773438 2.71973 -1.39062 5.5625 -1.61523 8.67969c-5.80273 79.7686 1.72168 161.359 7.05957 241.032c5.69629 84.9883 15.4238 169.584 28.1846 253.787c6.61035 43.6152 12.7334 87.7803 15.6152 131.811
c1.25 19.0742 1.75488 38.0986 2.41602 57.1504c0.364258 10.5576 6.76172 35.0879 -3.46484 43.0439c-27.4785 21.3789 -76.8857 -38.6924 -91.043 -55.8545c-23.0049 -27.8887 -43.3633 -57.6777 -68.5996 -83.6992z" />
    <glyph glyph-name="two" unicode="2" horiz-adv-x="550" 
d="M119.849 -123.409c-25.4492 -7.83789 -59.5811 -1.2207 -68.1094 26.7012c-9.06055 29.6826 19.1475 55.3623 42.3652 68.0059c35.7715 19.4834 70.0127 39.3877 100.401 70.7803c33.1025 34.1904 59.5781 73.2588 81.792 115.254
c47.4004 89.6025 80.7949 193.054 91.207 293.87c7.94531 76.9141 -3.89062 236.024 -116.946 219.192c-47.1758 -7.02539 -87.96 -38.8164 -111.48 -79.5498c-21.2949 -36.8818 -41.9727 -110.275 10.417 -131.239c22.6963 -9.07715 -9.24609 -37.6387 -27.1152 -30.6865
c-102.173 39.7578 -24.5186 185.568 30.4229 231.202c67.9209 56.416 172.724 66.8613 244.995 12.4023c84.8867 -63.9629 90.3086 -191.428 76.2354 -286.811c-21.5244 -145.867 -84.5791 -309.788 -196.446 -415.387c6.67773 0.40918 13.3721 0.661133 20.0889 0.706055
c28.8359 0.19043 57.0322 -3.40332 85.4531 -7.91699c29.2959 -4.64844 59.7461 -10.1768 87.4326 3.43066c26.8174 13.1875 41.6699 -17.5654 14.9707 -30.6914c-50.4336 -24.793 -101.299 -11.0566 -154.205 -4.51953c-35.3906 4.36816 -71.1953 3.08984 -106.064 -3.375
c-31.9248 -21.9502 -66.9902 -39.5332 -105.414 -51.3691z" />
    <glyph glyph-name="three" unicode="3" horiz-adv-x="569" 
d="M111.676 467.084c-38.5977 -4.41211 -61.5811 27.3281 -61.6768 63.4697c-0.0898438 37.9072 17.2129 72.709 40.2119 101.932c41.6924 52.9619 109.053 92.21 177.489 92.6533c65.8018 0.425781 134.031 -39.5508 169.494 -94.6768
c41.7656 -64.9268 25.7578 -153.032 -12.0156 -215.733c-12.2959 -20.4092 -26.7334 -38.6934 -42.8193 -55.1328c52.8945 -20.6387 97.5244 -59.8916 120.008 -116.576c35.457 -89.4004 11.3535 -191.567 -47.9717 -264.742
c-57.5596 -70.999 -140.949 -104.247 -231.168 -96.6777c-81.4727 6.83496 -148.43 66.3564 -142.476 151.406c5.47266 78.1309 56.584 156.822 140.714 160.954c32.6992 1.60938 15.3457 -37.2461 -9.23438 -38.5635c-86.5693 -4.62598 -107.55 -146.355 -53.1641 -198.006
c55.2441 -52.457 140.933 -35.1152 187.352 19.0801c42.3594 49.458 55.3955 132.933 38.1543 194.619c-16.9658 60.7158 -77.918 111.312 -143.182 100.322c-26.0664 -4.38965 -64.8203 -2.6123 -68.1055 32.2676c-3.15625 33.4951 31.9258 57.8115 59.8594 66.3789
c41.8438 12.834 84.3711 46.9961 109.254 89.6133c31.3418 53.6738 43.3799 123.468 10.1484 179.238c-34.2295 57.4473 -114.996 57.0098 -167.688 28.3311c-28.9199 -15.7383 -54.4756 -39.707 -71.3633 -68.0322c-8.77441 -14.7178 -15.4521 -31.0332 -17.3525 -48.1904
c-1.79395 -16.2432 0.375977 -50.3721 24.082 -48.2139c30.417 2.76953 13.5742 -33.1924 -8.5498 -35.7207z" />
    <glyph glyph-name="four" unicode="4" horiz-adv-x="610" 
d="M123.027 185.565c-24.1602 -10.1201 -85.9307 -12.2783 -70.6133 32.0039c11.7178 33.8486 71.9346 45.9092 102.032 51.5156c7.38965 1.37402 14.7852 2.44531 22.1914 3.31445c37.8516 57.0156 55.0928 132.091 72.4346 196.216
c20.4365 75.5742 35.457 152.707 46.8779 230.132c2.92676 19.8428 44.8711 27.9053 42.0225 2.5459c-11.8477 -105.486 -35.29 -209.038 -68.1797 -309.949c-12.8955 -39.5674 -27.6416 -80.4131 -48.9697 -116.185c64.8203 0.914062 130.05 -9.66016 194.517 -4.55273
c-0.106445 4.2168 -0.207031 8.43359 -0.319336 12.6445c-3.34766 125.979 -5.78125 253.72 2.94824 379.475c2.51758 36.2705 29.8223 62.5049 64.6631 71.7061c26.918 7.10938 71.8906 0.762695 73.5723 -34.8574c5.9375 -125.644 2.78613 -252.436 1.78223 -378.213
c-0.504883 -63.4971 0.139648 -127.09 -1.57617 -190.564c-1.7041 -63.043 3.08398 -133.846 -19.6348 -193.519c-10.5068 -27.5967 -64.4385 -59.8691 -84.5 -22.8252c-29.2393 54.0107 -26.4531 126.126 -30.5234 186.052
c-3.0332 44.6973 -4.36719 89.6025 -5.50586 134.457c-62.4434 -5.33203 -124.662 3.09473 -187.879 3.58789c-11.415 0.0898438 -22.9092 -0.139648 -34.3809 -0.790039c-18.9395 -21.8389 -41.9609 -40.0439 -70.959 -52.1943zM120.526 224.601
c-1.44141 -0.493164 -28.2979 -9.77344 -28.9707 -12.7168c-0.527344 -2.30469 31.5322 7.34473 34.2178 8.90918c4.62012 2.69141 8.95996 5.82031 13.1709 9.11719c-6.19531 -1.53613 -12.3574 -3.22949 -18.418 -5.30957z" />
    <glyph glyph-name="five" unicode="5" horiz-adv-x="578" 
d="M119.647 192.574c16.7695 16.5293 58.21 8.69141 36.0801 -16.4834c-32.0488 -36.4219 -43.4639 -84.4834 -28.8135 -131.171c13.4561 -42.8867 39.0684 -83.8223 88.3184 -84.3604c81.4502 -0.891602 128.951 75.1484 143.781 146.08
c17.8525 85.3857 -9.41309 173.62 -93.9131 208.69c-41.7256 17.3193 -84.7803 15.5869 -128.889 14.5889c-23.627 -0.532227 -48.5039 1.57617 -65.6494 19.7139c-19.1865 20.3027 -11.4775 49.4639 -6.53223 73.7529c10.2549 50.3604 23.4082 99.6221 38.6982 148.682
c9.43066 30.249 19.0352 66.1211 34.5098 97.0537c-11.8701 -2.70215 -22.4893 -8.01758 -30.0586 -17.9189c-9.77246 -12.7949 -44.5684 -8.94336 -31.6562 9.44727c20.7227 29.5146 51.4707 40.4482 84.5342 43.7109c2.76953 3.22949 5.62891 6.36328 8.69043 9.25684
c12.8057 12.1055 50.3486 29.7217 60.8555 4.07617c1.93457 -4.71484 3.21875 -9.46387 4.02637 -14.2461c1.93457 -0.128906 3.85742 -0.251953 5.76367 -0.375c43.9297 -2.83691 87.7861 -7.69824 131.839 -7.98438c38.9277 -0.251953 90.0957 -2.125 122.021 23.3525
c20.7119 16.5342 49.7324 -3.95898 25.5947 -23.6836c-53.0801 -43.374 -134.183 -38.0137 -198.453 -34.252c-29.3066 1.71582 -58.5293 4.64844 -87.791 6.98047c-1.30078 -7.76562 -3.01074 -15.5312 -4.5752 -23.2578
c-5.45508 -26.9131 -11.2754 -53.7197 -16.9102 -80.5928c-5.68555 -27.0977 -10.502 -54.3525 -15.8506 -81.5117c-2.78125 -14.1289 -8.65723 -32.1719 -11.2871 -49.0654c3.74512 0.118164 7.49609 0.224609 11.2471 0.257812
c14.9756 0.128906 29.957 -0.504883 44.8994 -1.48633c27.2383 -1.7832 53.293 -6.87988 79.3701 -14.8477c46.0547 -14.0674 89.8496 -39.8701 119.807 -78.1475c56.9092 -72.7256 61.5459 -180.175 29.5254 -264.607
c-33.1084 -87.293 -109.002 -156.357 -199.216 -180.888c-80.3232 -21.8389 -181.291 -7.21094 -211.176 81.9209c-24.709 73.6846 7.5918 164.442 61.21 217.314z" />
    <glyph glyph-name="six" unicode="6" horiz-adv-x="524" 
d="M153.795 -69.998c-23.3467 17.1455 -42.4893 40.3242 -57.5264 64.9775c-38.1885 62.6172 -47.7422 139.396 -46.0938 211.365c3.3584 146.674 43.0938 291.308 130.7 410.425c38.2549 52.0146 100.418 103.766 169.331 95.1924
c46.7891 -5.82031 97.3906 -36.9492 120.059 -78.4004c10.2041 -18.665 -28.7012 -37.1562 -39.9199 -19.4727c-24.0088 37.8516 -73.7188 58.7314 -112.271 28.4375c-17.8242 -14.0059 -28.3984 -35.7773 -39.416 -54.9473
c-12.7666 -22.209 -24.5293 -45.0566 -34.1953 -68.8125c-36.4277 -89.541 -52.2393 -188.726 -53.3047 -284.989c-0.0107422 -1.21094 0.0117188 -2.42773 0.000976562 -3.63867c44.2773 29.2559 97.5137 44.708 150.907 34.1113
c60.043 -11.9141 113.017 -56.4883 127.37 -117.008c30.3838 -128.138 -87.4209 -250.008 -212.392 -247.787c-40.4082 0.723633 -69.8379 6.0166 -103.249 30.5469zM423.471 136.726c-29.1104 104.275 -159.588 116.712 -231.596 50.793
c1.54199 -37.3359 5.52832 -74.5146 12.6543 -111.278c7.65332 -39.4893 23.4199 -79.8193 56.2705 -104.798c10.1816 -7.7373 18.3564 -15.4805 31 -17.7627c12.0996 -2.18066 23.5938 -1.90039 35.626 0.510742c23.0781 4.63086 42.1416 18.7432 57.7734 35.8555
c34.7061 37.9971 52.2832 96.4932 38.2715 146.68z" />
    <glyph glyph-name="seven" unicode="7" horiz-adv-x="491" 
d="M436.387 653.808c8.94238 -42.3818 -5.20508 -93.5615 -16.1611 -134.446c-17.4541 -65.0391 -39.9375 -128.62 -61.9219 -192.33c21.4961 -0.212891 42.998 -0.740234 64.5059 -1.62012c35.373 -1.44629 10.9668 -38.6699 -14.623 -37.3467
c-20.8066 1.07617 -41.6191 1.7998 -62.4375 2.19824c-6.46484 -19.1133 -12.8281 -38.249 -18.8555 -57.4863c-14.7119 -46.9287 -28.46 -94.25 -40.9355 -141.824c-13.3105 -50.7471 -18.8496 -106.479 -37.6211 -155.364
c-12.8623 -33.4844 -39.9375 -55.2949 -75.4902 -61.3389c-25.9092 -4.40723 -66.2051 4.51855 -67.3379 37.8564c-1.69922 49.8672 15.3789 101.865 28.5547 149.495c12.374 44.7256 26.4531 88.8398 42.2646 132.461c11.4824 31.6953 23.5703 63.0938 36.124 94.2842
c-20.5713 -0.975586 -41.1318 -2.2373 -61.6807 -3.81836c-29.4971 -2.25977 -13.5625 32.8672 8.32617 34.7793c22.6406 1.97949 45.3037 3.56641 67.9717 4.79395c18.4355 44.333 37.7842 88.2852 57.7891 132.068c19.3096 42.2588 38.3164 84.5225 56.7178 127.179
c9.14453 21.1992 20.5547 43.9795 26.7842 66.2441c6.28516 22.4717 -8.21973 28.0957 -28.9424 33.6797c-88.2236 23.7676 -183.915 -16.6973 -272.749 -19.7363c-30.2939 -1.03711 -14.3203 34.875 8.5498 35.7217c94.0996 3.49316 189.617 42.332 283.856 20.0391
c32.1045 -7.5918 69.9277 -30.4736 77.3115 -65.4883z" />
    <glyph glyph-name="eight" unicode="8" horiz-adv-x="467" 
d="M71.4648 191.016c11.6113 45.3145 26.959 94.4971 50.2949 137.429c-47.916 62.9307 -82.0781 132.181 -68.9131 218.419c15.7441 103.126 153.447 248.808 254.067 144.033c42.2637 -44.0078 43.8564 -107.998 38.2275 -165.227
c-6.0332 -61.3945 -22.7588 -120.748 -41.665 -179.277c7.79883 -9.44727 15.5527 -18.9287 23.1328 -28.5332c45 -57.0381 82.6104 -116.51 89.5742 -190.576c6.21191 -66.0879 -11.9541 -135.854 -60.9854 -182.704c-89.2939 -85.3301 -233.765 -53.416 -279.259 60.7051
c-23.6494 59.3311 -20.0615 124.892 -4.47461 185.731zM315.75 17.9834c7.47363 64.2314 -36.5293 126.294 -75.4463 173.083c-28.4268 34.1738 -60.7217 67.7754 -90.5439 102.807c-5.62891 -13.8486 -10.6299 -27.9668 -15.5361 -41.9219
c-13.9668 -39.7021 -26.083 -81.0303 -28.752 -123.25c-4.56934 -72.1768 21.0479 -155.157 92.8379 -185.474c28.9814 -12.2344 64.6523 -16.3721 87.8145 8.67871c16.3662 17.7012 26.8506 42.2422 29.626 66.0771zM171.604 656.018
c-10.4795 -24.5967 -2.59668 -64.3398 2.65137 -89.2002c6.35254 -30.0635 17.4482 -58.7139 31.6338 -85.918c18.0479 -34.6162 41.2041 -65.5488 65.5605 -95.6348c18.7549 57.7891 33.7246 117.316 33.7754 177.382c0.0332031 37.5938 -8.05762 77.5371 -36.2539 104.518
c-27.3945 26.2119 -79.9023 29.873 -97.3672 -11.1465z" />
    <glyph glyph-name="nine" unicode="9" horiz-adv-x="634" 
d="M300.471 100.769c-40.7393 -16.9941 -55.6436 -83.2139 -38.0322 -120.746c14.5947 -31.084 51.2236 -49.2891 84.6963 -39.6113c64.1865 18.5469 76.6279 129.696 83.749 183.202c12.0654 90.6562 12.6768 184.239 11.0059 275.586
c-0.824219 44.9443 -0.902344 89.6924 -3.8291 134.569c-0.162109 2.4502 -0.369141 4.93359 -0.616211 7.43945c-19.4893 -62.5723 -43.6826 -123.546 -79.4258 -178.694c-45.0957 -69.5801 -108.94 -137.204 -198.453 -133.402
c-51.1006 2.16406 -89.9395 30.748 -103.974 80.374c-14.0449 49.6709 0.470703 101.512 20.2236 147.712c35.5303 83.082 102.723 160.075 179.138 207.885c36.8818 23.0781 77.0215 42.4668 121.775 35.6436c23.0439 -3.50977 45.8076 -11.8135 61.0361 -28.3027
c0.633789 0.335938 1.26172 0.666992 1.91211 0.969727c11.1631 13.5459 30.7197 19.5566 47.7305 13.7197c49.458 -16.9717 67.916 -83.8887 77.9971 -129.567c11.0732 -50.1924 15.0879 -102.274 17.2188 -153.498c4.01465 -96.4482 2.82031 -197.92 -19.5508 -292.311
c-21.5752 -91.0215 -64.2598 -182.737 -152.59 -225.59c-70.7969 -34.3477 -159.064 -23.2129 -194.679 54.1719c-29.9463 65.0674 0.078125 164.196 69.3164 191.922c28.0059 11.2188 43.8223 -19.5967 15.3506 -31.4717zM338.293 409.46
c37.291 68.2236 58.6836 143.534 78.3408 218.503c-1.17188 1.07129 -2.2373 2.31641 -3.02832 3.94824c-9.41406 19.4668 -30.2998 32.6484 -51.5781 24.2891c-15.3799 -6.04395 -30.8047 -21.9004 -42.9326 -32.6094
c-25.4326 -22.4551 -48.7061 -49.3623 -66.9619 -77.9629c-41.1875 -64.5234 -80.9512 -138.449 -60.9014 -217.253c3.04492 -11.9648 6.33594 -34.1006 17.415 -41.8379c17.7227 -12.3799 45.7402 13.3047 56.875 23.8906c29.6436 28.1738 53.2598 63.3281 72.7715 99.0322
z" />
    <glyph glyph-name="colon" unicode=":" horiz-adv-x="187" 
d="M91.5498 362.568c-8.33203 -2.49512 -19.7891 -2.50488 -27.8232 1.27441c-6.88477 3.24609 -13.1924 10.3105 -13.5176 18.3115c-0.470703 11.4658 -0.223633 22.2754 1.48633 33.668c1.12695 7.51855 8.66211 16.3047 14.5264 20.4707
c5.35449 3.80664 11.3203 6.7168 17.6172 8.59473c11.2754 3.37012 29.9854 1.77246 35.3906 -10.8203c4.3623 -10.1484 6.56055 -20.4199 8.66309 -31.2021c1.6709 -8.56738 -4.17676 -17.5498 -9.29004 -23.8467c-6.72266 -8.27539 -17.0107 -13.4502 -27.0527 -16.4502z
M136.912 126.31c1.97363 -20.7285 -19.9648 -36.0645 -37.1611 -41.2061c-15.374 -4.5918 -41.3613 -0.0722656 -42.2754 20.0342c-0.734375 16.2148 -0.167969 32.3066 4.08789 48.0283c3.86328 14.2695 17.1455 23.7109 30.708 27.7646
c11.208 3.34766 28.0957 1.50879 33.8086 -10.3389c6.73926 -13.9609 9.37402 -28.9307 10.832 -44.2822z" />
    <glyph glyph-name="semicolon" unicode=";" horiz-adv-x="274" 
d="M125.938 384.401c-0.476562 3.84082 -0.959961 7.68359 -1.44238 11.5303c-1.33398 10.6309 4.70996 20.6279 11.0957 28.4941c6.58789 8.11914 16.5908 13.7598 26.2119 17.3652c5.73047 2.60742 11.7744 4.02637 18.1377 4.26758l11.2705 -0.539062
c5.28125 -0.532227 9.94043 -2.39941 13.9834 -5.60645c4.3457 -2.18652 7.55859 -5.5791 9.65039 -10.1709c1.60938 -3.41992 3.22461 -6.83984 4.83984 -10.2598c2.85938 -6.24609 3.44238 -12.7051 1.74316 -19.3711
c-1.26172 -5.57324 -3.69531 -10.5068 -7.31152 -14.8076c-3.25195 -5.30371 -7.47363 -9.75586 -12.6768 -13.3555c-5.39941 -4.30566 -11.3652 -7.45703 -17.8975 -9.44727c-5.94922 -2.70215 -12.2236 -4.17676 -18.8232 -4.42871
c-7.64258 -0.572266 -14.9814 0.644531 -22.0176 3.63281c-2.79199 1.82812 -5.57812 3.66113 -8.37012 5.48926c-4.96777 4.67578 -7.76562 10.4111 -8.39355 17.207zM186.484 183.018c13.4395 2.08594 38.501 -2.31738 37.7773 -21.2461
c-2.95996 -76.5781 -36.9033 -149.483 -87.1289 -206.763c-15.4023 -17.5713 -47.9111 -31.168 -70.5117 -19.4941c-22.9258 11.8477 -19.5615 36.5068 -5.43262 54.1631c38.418 48 63.3174 100.917 82.9473 158.925c6.31934 18.6768 23.0166 31.415 42.3486 34.415z" />
    <glyph glyph-name="less" unicode="&#x3c;" horiz-adv-x="361" 
d="M291.116 162.137c56.4883 -27.8379 -18.5176 -97.4209 -60.7314 -85.7979s-84.2539 32.0938 -121.511 55.0869c-33.8203 20.874 -78.9893 48.3926 -49.1328 92.5459c11.7354 17.3477 32.5371 28.6846 49.6436 40.0996c18.626 12.4248 37.4766 24.5352 56.3379 36.6006
c36.3828 23.2793 72.0479 53.7861 111.879 70.7129c11.4492 4.86719 33.1699 4.30078 29.5479 -13.8096c-7.42871 -37.1172 -44.3604 -66.6318 -71.6094 -89.7939c-21.5693 -18.334 -46.71 -34.3867 -69.2715 -52.4912c14.791 -9.04395 35.2227 -17.7119 45.4385 -22.3828
c25.8135 -11.7852 54.0547 -18.2725 79.4092 -30.7705z" />
    <glyph glyph-name="equal" unicode="=" horiz-adv-x="432" 
d="M83.1035 238.91c-54.8906 -4.05957 -33.3613 60.4736 5.66797 68.918c83.4121 18.0479 184.032 26.2842 267.882 7.03027c55.6982 -12.7891 9.75586 -76.8467 -29.7158 -75.9043c-40.9072 0.981445 -81.4893 6.38086 -122.458 6.62793
c-40.6885 0.24707 -80.8613 -3.67773 -121.376 -6.67188zM352.6 208.134c16.0967 -6.16797 17.707 -25.1289 10.833 -38.5742c-8.69629 -17.0283 -29.4248 -27.3115 -47.6748 -28.9092c-41.502 -3.63281 -84.2373 5.11914 -125.985 5.30371
c-39.1807 0.173828 -80.5137 -5.41016 -119.167 2.34375c-28.3818 5.69629 -15.8955 36.5957 3.40332 45.668c42.9814 20.207 92.041 24.4795 138.97 26.1387c45.1289 1.59277 96.8857 4.40723 139.621 -11.9707z" />
    <glyph glyph-name="greater" unicode="&#x3e;" horiz-adv-x="363" 
d="M220.797 326.971c29.8398 -10.9443 90.1621 -19.6426 91.9004 -60.3086c1.69922 -39.752 -53.1855 -77.3398 -78.8428 -100.664c-32.4688 -29.5088 -66.8047 -64.6133 -107.454 -82.3252c-41.5967 -18.1211 -92.7363 8.08496 -57.5029 53.8477
c21.3506 27.7256 54.9688 48.1123 82.4873 69.4072c13.8711 10.7314 27.4961 21.7656 41.2217 32.6816c3.28027 2.6123 6.59961 5.16895 9.89648 7.75391c-8.06836 3.77344 -16.4678 7.02539 -22.6631 10.0977c-14.2129 7.04785 -28.4707 14.0176 -42.6445 21.1494
c-30.3496 15.2734 -56.2871 31.4326 -81.9443 53.3662c-18.2393 15.5986 15.8105 35.458 29.5752 33.3838c47.6299 -7.16504 90.7402 -21.8047 135.971 -38.3896z" />
    <glyph glyph-name="question" unicode="?" horiz-adv-x="556" 
d="M491.624 726.675c23.8965 -55.4629 14.668 -123.802 0.864258 -180.604c-15.542 -64.002 -39.8643 -125.184 -63.2393 -186.617c-46.3516 -121.813 -92.3389 -241.749 -100.284 -373.33c-2.07422 -34.415 -28.5605 -59.416 -61.3936 -68.084
c-24.6924 -6.52051 -69.4688 -0.851562 -69.8555 33.0977c-1.35156 118.842 38.2217 231.695 82.5664 340.366c39.4668 96.7227 89.8438 189.628 123.21 288.7c15.1943 45.1182 34.8467 102.823 16.3945 149.735c-18.6934 47.5293 -77.1895 60.4922 -123.064 55.457
c-91.0605 -9.99707 -173.194 -83.25 -195.925 -171.507c-11.4551 -44.4736 -6.24121 -94.3906 24.7363 -130.123c29.0156 -33.4619 83.5869 -48.9932 117.301 -13.1484c15.5195 16.4951 54.0947 6.8623 33.417 -15.2568
c-36.8877 -39.4551 -96.7344 -53.3604 -146.518 -30.1758c-48.8857 22.7637 -77.6543 76.1182 -79.6836 128.688c-4.07617 105.604 76.2354 202.754 168.585 244.794c91.9912 41.877 227.132 34.2129 272.889 -71.9912zM310.457 -199.59
c3.4541 -12.9971 7.01074 -25.8906 9.34277 -39.1396c4.18848 -23.8574 -25.0283 -42.876 -43.6934 -48.4551c-20.2236 -6.04395 -45.6729 0.533203 -49.7158 23.5547c-2.34375 13.333 -3.75684 26.8848 -4.63184 40.3975
c-0.459961 7.09863 -0.145508 13.832 0.404297 20.9248c0.924805 11.9365 5.16309 18.7715 12.2109 28.2471c10.417 14.0166 34.7334 21.0977 50.8193 14.0498c16.9268 -7.41211 20.8848 -23.1172 25.2637 -39.5791z" />
    <glyph glyph-name="at" unicode="@" horiz-adv-x="921" 
d="M581.63 474.167c14.9922 -53.0518 13.3457 -106.164 8.55176 -160.656c-4.19434 -47.6357 -6.7959 -100.85 14.8125 -144.992c12.4756 -25.4883 41.1035 -78.4502 75.3945 -75.9941c45.2754 3.24609 81.54 71.7393 98.8369 106.664
c41.333 83.457 64.7471 188.119 28.0898 277.251c-28.7578 69.9111 -85.9531 126.315 -154.076 158.19c-160.237 74.9746 -345.587 -0.717773 -442.495 -139.402c-96.0332 -137.423 -109.798 -335.473 5.72461 -466.997c52.3447 -59.5947 125.637 -101.758 205.455 -108.43
c78.3271 -6.55469 151.373 24.6191 207.368 78.1807c12.8398 12.2842 34.8184 23.9072 52.8223 14.6055c17.1514 -8.86426 14.6904 -27.3672 4.07129 -40.5771c-71.6943 -89.1768 -197.32 -129.366 -308.778 -117.34c-110.241 11.8916 -210.003 79.5547 -268.695 172.438
c-116.88 184.969 -48.9307 425.865 112.882 558.819c147.823 121.455 375.679 165.233 532.854 37.0674c73.1074 -59.6172 117.979 -148.76 116.308 -243.661c-1.78906 -101.416 -44.2998 -222.333 -119.005 -293.495c-72.4346 -68.9971 -206.505 -81.4609 -261.115 18.0156
c-16.1533 29.4248 -23.4141 60.2451 -25.1299 91.7441c-21.4688 -36.2256 -55.7373 -68.1113 -99.3301 -73.1348c-44.501 -5.12988 -84.4326 20.0898 -96.2461 63.7393c-22.7637 84.0908 37.2627 190.828 96.2686 246.862c29.4355 27.9551 75.5068 62.1787 118.954 52.249
c11.6963 -2.6748 23.6055 -7.55273 33.4346 -14.5889c2.17578 1.59766 4.59766 2.97168 7.13184 4.12109c18.7881 14.3027 49.6201 21.5801 55.9111 -0.678711zM455.114 286.845c18.3564 45.4268 32.4248 92.4053 45.4102 139.632
c-3.89648 8.68457 -11.9482 14.8408 -21.25 11.8301c-8.5 -2.74707 -16.9658 -16.4336 -22.1973 -23.0498c-14.7852 -18.7041 -26.9521 -39.4268 -37.4814 -60.8057c-21.2051 -43.0547 -34.0283 -90.6113 -24.7822 -138.274
c0.157227 -0.818359 3.15137 -10.0918 4.20508 -16.332c0.986328 0.62793 2.08496 1.38477 3.33008 2.44434c4.86719 4.14941 9.3418 8.88184 13.4287 13.793c17.0332 20.4814 29.4072 46.1826 39.3369 70.7627z" />
    <glyph glyph-name="A" unicode="A" horiz-adv-x="1049" 
d="M242.626 223.755c65.5381 -16.7139 135.493 -20.7295 203.891 -19.1709c20.4316 91.0098 43.7676 181.33 73.4668 269.828c43.8008 130.521 96.4932 273.052 203.673 365.385c24.9561 21.4961 55.7148 39.6738 89.9785 34.7959
c31.2861 -4.45215 53.6406 -25.6855 71.0723 -50.4619c42.001 -59.6953 50.2881 -141.14 56.9824 -211.813c15.5537 -164.224 11.2979 -329.519 17.3926 -494.19c6.06641 -163.864 23.0215 -326.081 39.8809 -489.06c6.7168 -64.9385 -121.349 -109.58 -137.076 -36.5342
c-44.1592 205.08 -40.3916 414.164 -32.1328 623.187c-40.0439 -10.0869 -81.9717 -15.2393 -122.717 -21.7324c-73.0684 -11.6396 -146.641 -21.1484 -220.556 -25.1182c-22.0234 -98.9717 -41.2207 -198.577 -62 -297.807
c-13.7812 -65.8184 -25.2979 -133.577 -52.3955 -195.538c-17.8184 -40.7451 -67.3438 -110.314 -116.375 -61.1426c-43.3965 43.5205 -39.6738 128.912 -42.8926 185.098c-4.40137 76.8359 -3.87402 153.829 -5.41602 230.749
c-1.00879 50.5059 0.185547 105.004 -6.39648 157.052c-1.68164 0.302734 -3.36328 0.560547 -5.04004 0.875c-57.4414 10.6982 -157.691 34.208 -144.841 113.977c9.00488 55.9004 80.5195 82.8359 126.501 52.626c41.9727 -27.5742 57.6943 -81.1582 65 -131.003z
M136.247 265.861c17.583 -10.0527 35.8955 -18.5527 54.7344 -25.7686c-1.06543 3.99805 -2.17578 7.97363 -3.39258 11.9092c-8.12988 26.3291 -25.3936 69.2041 -55.9561 76.2627c-21.1377 4.87793 -35.7881 -10.3779 -27.8828 -30.7754
c5.75293 -14.8467 19.3047 -24.0869 32.4971 -31.6279zM408.285 20.8721c9.62695 48.7959 19.4502 97.6094 29.957 146.271c-63.9961 -1.09863 -127.6 3.35352 -190.777 12.5547c6.95215 -82.1289 6.66602 -164.667 7.98926 -247.015
c1.23926 -77.2676 0.167969 -158.364 15.2842 -234.454c2.15332 -10.8379 14.8027 -64.0127 33.2998 -61.0635c9.64941 1.54199 22.9717 38.5469 25.915 45.3145c15.2949 35.127 24.1084 72.8105 32.3223 110.09c16.7031 75.8037 30.9834 152.151 46.0098 228.303z
M515.874 292.579c-7.33887 -28.5889 -14.2012 -57.2881 -20.8398 -86.04c18.5469 1.04297 36.876 2.36621 54.8398 3.84082c74.3184 6.10059 148.188 16.9102 221.711 29.2168c20.1729 3.375 39.8916 8.14062 59.6279 12.542
c5.1416 124.387 10.9727 248.667 8.35449 371.989c-0.734375 34.5889 -1.86133 69.4297 -8.31445 103.508c-5.18066 27.3838 -15.3008 65.583 -35.7939 85.9297c-38.8164 38.5352 -115.568 -89.3564 -131.554 -117.789
c-69.9453 -124.438 -112.697 -265.601 -148.031 -403.197z" />
    <glyph glyph-name="A" unicode="&#xc5;" horiz-adv-x="1049" 
d="M242.626 223.755c65.5381 -16.7139 135.493 -20.7295 203.891 -19.1709c20.4316 91.0098 43.7676 181.33 73.4668 269.828c43.8008 130.521 96.4932 273.052 203.673 365.385c24.9561 21.4961 55.7148 39.6738 89.9785 34.7959
c31.2861 -4.45215 53.6406 -25.6855 71.0723 -50.4619c42.001 -59.6953 50.2881 -141.14 56.9824 -211.813c15.5537 -164.224 11.2979 -329.519 17.3926 -494.19c6.06641 -163.864 23.0215 -326.081 39.8809 -489.06c6.7168 -64.9385 -121.349 -109.58 -137.076 -36.5342
c-44.1592 205.08 -40.3916 414.164 -32.1328 623.187c-40.0439 -10.0869 -81.9717 -15.2393 -122.717 -21.7324c-73.0684 -11.6396 -146.641 -21.1484 -220.556 -25.1182c-22.0234 -98.9717 -41.2207 -198.577 -62 -297.807
c-13.7812 -65.8184 -25.2979 -133.577 -52.3955 -195.538c-17.8184 -40.7451 -67.3438 -110.314 -116.375 -61.1426c-43.3965 43.5205 -39.6738 128.912 -42.8926 185.098c-4.40137 76.8359 -3.87402 153.829 -5.41602 230.749
c-1.00879 50.5059 0.185547 105.004 -6.39648 157.052c-1.68164 0.302734 -3.36328 0.560547 -5.04004 0.875c-57.4414 10.6982 -157.691 34.208 -144.841 113.977c9.00488 55.9004 80.5195 82.8359 126.501 52.626c41.9727 -27.5742 57.6943 -81.1582 65 -131.003z
M136.247 265.861c17.583 -10.0527 35.8955 -18.5527 54.7344 -25.7686c-1.06543 3.99805 -2.17578 7.97363 -3.39258 11.9092c-8.12988 26.3291 -25.3936 69.2041 -55.9561 76.2627c-21.1377 4.87793 -35.7881 -10.3779 -27.8828 -30.7754
c5.75293 -14.8467 19.3047 -24.0869 32.4971 -31.6279zM408.285 20.8721c9.62695 48.7959 19.4502 97.6094 29.957 146.271c-63.9961 -1.09863 -127.6 3.35352 -190.777 12.5547c6.95215 -82.1289 6.66602 -164.667 7.98926 -247.015
c1.23926 -77.2676 0.167969 -158.364 15.2842 -234.454c2.15332 -10.8379 14.8027 -64.0127 33.2998 -61.0635c9.64941 1.54199 22.9717 38.5469 25.915 45.3145c15.2949 35.127 24.1084 72.8105 32.3223 110.09c16.7031 75.8037 30.9834 152.151 46.0098 228.303z
M515.874 292.579c-7.33887 -28.5889 -14.2012 -57.2881 -20.8398 -86.04c18.5469 1.04297 36.876 2.36621 54.8398 3.84082c74.3184 6.10059 148.188 16.9102 221.711 29.2168c20.1729 3.375 39.8916 8.14062 59.6279 12.542
c5.1416 124.387 10.9727 248.667 8.35449 371.989c-0.734375 34.5889 -1.86133 69.4297 -8.31445 103.508c-5.18066 27.3838 -15.3008 65.583 -35.7939 85.9297c-38.8164 38.5352 -115.568 -89.3564 -131.554 -117.789
c-69.9453 -124.438 -112.697 -265.601 -148.031 -403.197z" />
    <glyph glyph-name="A" unicode="&#xc4;" horiz-adv-x="1049" 
d="M242.626 223.755c65.5381 -16.7139 135.493 -20.7295 203.891 -19.1709c20.4316 91.0098 43.7676 181.33 73.4668 269.828c43.8008 130.521 96.4932 273.052 203.673 365.385c24.9561 21.4961 55.7148 39.6738 89.9785 34.7959
c31.2861 -4.45215 53.6406 -25.6855 71.0723 -50.4619c42.001 -59.6953 50.2881 -141.14 56.9824 -211.813c15.5537 -164.224 11.2979 -329.519 17.3926 -494.19c6.06641 -163.864 23.0215 -326.081 39.8809 -489.06c6.7168 -64.9385 -121.349 -109.58 -137.076 -36.5342
c-44.1592 205.08 -40.3916 414.164 -32.1328 623.187c-40.0439 -10.0869 -81.9717 -15.2393 -122.717 -21.7324c-73.0684 -11.6396 -146.641 -21.1484 -220.556 -25.1182c-22.0234 -98.9717 -41.2207 -198.577 -62 -297.807
c-13.7812 -65.8184 -25.2979 -133.577 -52.3955 -195.538c-17.8184 -40.7451 -67.3438 -110.314 -116.375 -61.1426c-43.3965 43.5205 -39.6738 128.912 -42.8926 185.098c-4.40137 76.8359 -3.87402 153.829 -5.41602 230.749
c-1.00879 50.5059 0.185547 105.004 -6.39648 157.052c-1.68164 0.302734 -3.36328 0.560547 -5.04004 0.875c-57.4414 10.6982 -157.691 34.208 -144.841 113.977c9.00488 55.9004 80.5195 82.8359 126.501 52.626c41.9727 -27.5742 57.6943 -81.1582 65 -131.003z
M136.247 265.861c17.583 -10.0527 35.8955 -18.5527 54.7344 -25.7686c-1.06543 3.99805 -2.17578 7.97363 -3.39258 11.9092c-8.12988 26.3291 -25.3936 69.2041 -55.9561 76.2627c-21.1377 4.87793 -35.7881 -10.3779 -27.8828 -30.7754
c5.75293 -14.8467 19.3047 -24.0869 32.4971 -31.6279zM408.285 20.8721c9.62695 48.7959 19.4502 97.6094 29.957 146.271c-63.9961 -1.09863 -127.6 3.35352 -190.777 12.5547c6.95215 -82.1289 6.66602 -164.667 7.98926 -247.015
c1.23926 -77.2676 0.167969 -158.364 15.2842 -234.454c2.15332 -10.8379 14.8027 -64.0127 33.2998 -61.0635c9.64941 1.54199 22.9717 38.5469 25.915 45.3145c15.2949 35.127 24.1084 72.8105 32.3223 110.09c16.7031 75.8037 30.9834 152.151 46.0098 228.303z
M515.874 292.579c-7.33887 -28.5889 -14.2012 -57.2881 -20.8398 -86.04c18.5469 1.04297 36.876 2.36621 54.8398 3.84082c74.3184 6.10059 148.188 16.9102 221.711 29.2168c20.1729 3.375 39.8916 8.14062 59.6279 12.542
c5.1416 124.387 10.9727 248.667 8.35449 371.989c-0.734375 34.5889 -1.86133 69.4297 -8.31445 103.508c-5.18066 27.3838 -15.3008 65.583 -35.7939 85.9297c-38.8164 38.5352 -115.568 -89.3564 -131.554 -117.789
c-69.9453 -124.438 -112.697 -265.601 -148.031 -403.197z" />
    <glyph glyph-name="A" unicode="&#xc3;" horiz-adv-x="1049" 
d="M242.626 223.755c65.5381 -16.7139 135.493 -20.7295 203.891 -19.1709c20.4316 91.0098 43.7676 181.33 73.4668 269.828c43.8008 130.521 96.4932 273.052 203.673 365.385c24.9561 21.4961 55.7148 39.6738 89.9785 34.7959
c31.2861 -4.45215 53.6406 -25.6855 71.0723 -50.4619c42.001 -59.6953 50.2881 -141.14 56.9824 -211.813c15.5537 -164.224 11.2979 -329.519 17.3926 -494.19c6.06641 -163.864 23.0215 -326.081 39.8809 -489.06c6.7168 -64.9385 -121.349 -109.58 -137.076 -36.5342
c-44.1592 205.08 -40.3916 414.164 -32.1328 623.187c-40.0439 -10.0869 -81.9717 -15.2393 -122.717 -21.7324c-73.0684 -11.6396 -146.641 -21.1484 -220.556 -25.1182c-22.0234 -98.9717 -41.2207 -198.577 -62 -297.807
c-13.7812 -65.8184 -25.2979 -133.577 -52.3955 -195.538c-17.8184 -40.7451 -67.3438 -110.314 -116.375 -61.1426c-43.3965 43.5205 -39.6738 128.912 -42.8926 185.098c-4.40137 76.8359 -3.87402 153.829 -5.41602 230.749
c-1.00879 50.5059 0.185547 105.004 -6.39648 157.052c-1.68164 0.302734 -3.36328 0.560547 -5.04004 0.875c-57.4414 10.6982 -157.691 34.208 -144.841 113.977c9.00488 55.9004 80.5195 82.8359 126.501 52.626c41.9727 -27.5742 57.6943 -81.1582 65 -131.003z
M136.247 265.861c17.583 -10.0527 35.8955 -18.5527 54.7344 -25.7686c-1.06543 3.99805 -2.17578 7.97363 -3.39258 11.9092c-8.12988 26.3291 -25.3936 69.2041 -55.9561 76.2627c-21.1377 4.87793 -35.7881 -10.3779 -27.8828 -30.7754
c5.75293 -14.8467 19.3047 -24.0869 32.4971 -31.6279zM408.285 20.8721c9.62695 48.7959 19.4502 97.6094 29.957 146.271c-63.9961 -1.09863 -127.6 3.35352 -190.777 12.5547c6.95215 -82.1289 6.66602 -164.667 7.98926 -247.015
c1.23926 -77.2676 0.167969 -158.364 15.2842 -234.454c2.15332 -10.8379 14.8027 -64.0127 33.2998 -61.0635c9.64941 1.54199 22.9717 38.5469 25.915 45.3145c15.2949 35.127 24.1084 72.8105 32.3223 110.09c16.7031 75.8037 30.9834 152.151 46.0098 228.303z
M515.874 292.579c-7.33887 -28.5889 -14.2012 -57.2881 -20.8398 -86.04c18.5469 1.04297 36.876 2.36621 54.8398 3.84082c74.3184 6.10059 148.188 16.9102 221.711 29.2168c20.1729 3.375 39.8916 8.14062 59.6279 12.542
c5.1416 124.387 10.9727 248.667 8.35449 371.989c-0.734375 34.5889 -1.86133 69.4297 -8.31445 103.508c-5.18066 27.3838 -15.3008 65.583 -35.7939 85.9297c-38.8164 38.5352 -115.568 -89.3564 -131.554 -117.789
c-69.9453 -124.438 -112.697 -265.601 -148.031 -403.197z" />
    <glyph glyph-name="A" unicode="&#xc2;" horiz-adv-x="1049" 
d="M242.626 223.755c65.5381 -16.7139 135.493 -20.7295 203.891 -19.1709c20.4316 91.0098 43.7676 181.33 73.4668 269.828c43.8008 130.521 96.4932 273.052 203.673 365.385c24.9561 21.4961 55.7148 39.6738 89.9785 34.7959
c31.2861 -4.45215 53.6406 -25.6855 71.0723 -50.4619c42.001 -59.6953 50.2881 -141.14 56.9824 -211.813c15.5537 -164.224 11.2979 -329.519 17.3926 -494.19c6.06641 -163.864 23.0215 -326.081 39.8809 -489.06c6.7168 -64.9385 -121.349 -109.58 -137.076 -36.5342
c-44.1592 205.08 -40.3916 414.164 -32.1328 623.187c-40.0439 -10.0869 -81.9717 -15.2393 -122.717 -21.7324c-73.0684 -11.6396 -146.641 -21.1484 -220.556 -25.1182c-22.0234 -98.9717 -41.2207 -198.577 -62 -297.807
c-13.7812 -65.8184 -25.2979 -133.577 -52.3955 -195.538c-17.8184 -40.7451 -67.3438 -110.314 -116.375 -61.1426c-43.3965 43.5205 -39.6738 128.912 -42.8926 185.098c-4.40137 76.8359 -3.87402 153.829 -5.41602 230.749
c-1.00879 50.5059 0.185547 105.004 -6.39648 157.052c-1.68164 0.302734 -3.36328 0.560547 -5.04004 0.875c-57.4414 10.6982 -157.691 34.208 -144.841 113.977c9.00488 55.9004 80.5195 82.8359 126.501 52.626c41.9727 -27.5742 57.6943 -81.1582 65 -131.003z
M136.247 265.861c17.583 -10.0527 35.8955 -18.5527 54.7344 -25.7686c-1.06543 3.99805 -2.17578 7.97363 -3.39258 11.9092c-8.12988 26.3291 -25.3936 69.2041 -55.9561 76.2627c-21.1377 4.87793 -35.7881 -10.3779 -27.8828 -30.7754
c5.75293 -14.8467 19.3047 -24.0869 32.4971 -31.6279zM408.285 20.8721c9.62695 48.7959 19.4502 97.6094 29.957 146.271c-63.9961 -1.09863 -127.6 3.35352 -190.777 12.5547c6.95215 -82.1289 6.66602 -164.667 7.98926 -247.015
c1.23926 -77.2676 0.167969 -158.364 15.2842 -234.454c2.15332 -10.8379 14.8027 -64.0127 33.2998 -61.0635c9.64941 1.54199 22.9717 38.5469 25.915 45.3145c15.2949 35.127 24.1084 72.8105 32.3223 110.09c16.7031 75.8037 30.9834 152.151 46.0098 228.303z
M515.874 292.579c-7.33887 -28.5889 -14.2012 -57.2881 -20.8398 -86.04c18.5469 1.04297 36.876 2.36621 54.8398 3.84082c74.3184 6.10059 148.188 16.9102 221.711 29.2168c20.1729 3.375 39.8916 8.14062 59.6279 12.542
c5.1416 124.387 10.9727 248.667 8.35449 371.989c-0.734375 34.5889 -1.86133 69.4297 -8.31445 103.508c-5.18066 27.3838 -15.3008 65.583 -35.7939 85.9297c-38.8164 38.5352 -115.568 -89.3564 -131.554 -117.789
c-69.9453 -124.438 -112.697 -265.601 -148.031 -403.197z" />
    <glyph glyph-name="A" unicode="&#xc1;" horiz-adv-x="1049" 
d="M242.626 223.755c65.5381 -16.7139 135.493 -20.7295 203.891 -19.1709c20.4316 91.0098 43.7676 181.33 73.4668 269.828c43.8008 130.521 96.4932 273.052 203.673 365.385c24.9561 21.4961 55.7148 39.6738 89.9785 34.7959
c31.2861 -4.45215 53.6406 -25.6855 71.0723 -50.4619c42.001 -59.6953 50.2881 -141.14 56.9824 -211.813c15.5537 -164.224 11.2979 -329.519 17.3926 -494.19c6.06641 -163.864 23.0215 -326.081 39.8809 -489.06c6.7168 -64.9385 -121.349 -109.58 -137.076 -36.5342
c-44.1592 205.08 -40.3916 414.164 -32.1328 623.187c-40.0439 -10.0869 -81.9717 -15.2393 -122.717 -21.7324c-73.0684 -11.6396 -146.641 -21.1484 -220.556 -25.1182c-22.0234 -98.9717 -41.2207 -198.577 -62 -297.807
c-13.7812 -65.8184 -25.2979 -133.577 -52.3955 -195.538c-17.8184 -40.7451 -67.3438 -110.314 -116.375 -61.1426c-43.3965 43.5205 -39.6738 128.912 -42.8926 185.098c-4.40137 76.8359 -3.87402 153.829 -5.41602 230.749
c-1.00879 50.5059 0.185547 105.004 -6.39648 157.052c-1.68164 0.302734 -3.36328 0.560547 -5.04004 0.875c-57.4414 10.6982 -157.691 34.208 -144.841 113.977c9.00488 55.9004 80.5195 82.8359 126.501 52.626c41.9727 -27.5742 57.6943 -81.1582 65 -131.003z
M136.247 265.861c17.583 -10.0527 35.8955 -18.5527 54.7344 -25.7686c-1.06543 3.99805 -2.17578 7.97363 -3.39258 11.9092c-8.12988 26.3291 -25.3936 69.2041 -55.9561 76.2627c-21.1377 4.87793 -35.7881 -10.3779 -27.8828 -30.7754
c5.75293 -14.8467 19.3047 -24.0869 32.4971 -31.6279zM408.285 20.8721c9.62695 48.7959 19.4502 97.6094 29.957 146.271c-63.9961 -1.09863 -127.6 3.35352 -190.777 12.5547c6.95215 -82.1289 6.66602 -164.667 7.98926 -247.015
c1.23926 -77.2676 0.167969 -158.364 15.2842 -234.454c2.15332 -10.8379 14.8027 -64.0127 33.2998 -61.0635c9.64941 1.54199 22.9717 38.5469 25.915 45.3145c15.2949 35.127 24.1084 72.8105 32.3223 110.09c16.7031 75.8037 30.9834 152.151 46.0098 228.303z
M515.874 292.579c-7.33887 -28.5889 -14.2012 -57.2881 -20.8398 -86.04c18.5469 1.04297 36.876 2.36621 54.8398 3.84082c74.3184 6.10059 148.188 16.9102 221.711 29.2168c20.1729 3.375 39.8916 8.14062 59.6279 12.542
c5.1416 124.387 10.9727 248.667 8.35449 371.989c-0.734375 34.5889 -1.86133 69.4297 -8.31445 103.508c-5.18066 27.3838 -15.3008 65.583 -35.7939 85.9297c-38.8164 38.5352 -115.568 -89.3564 -131.554 -117.789
c-69.9453 -124.438 -112.697 -265.601 -148.031 -403.197z" />
    <glyph glyph-name="B" unicode="B" horiz-adv-x="1374" 
d="M115.893 674.768c35.3057 56.7295 86.2295 107.426 148.005 134.624c61.8037 27.2041 140.781 31.6387 187.436 -25.416c22.7412 -27.8154 49.2002 -55.4961 58.8828 -90.7129c11.9707 -43.543 17.2354 -87.6631 23.3975 -132.271
c12.2393 -88.5371 0.806641 -180.422 -4.47461 -269.312c-5.55664 -93.5498 -6.7168 -187.391 -2.73633 -281.035c1.84473 -43.4189 5.45508 -86.3672 12.29 -129.287c1.00391 -6.29688 1.99609 -13.9502 3.20117 -22.1758
c0.919922 4.05371 1.81738 8.11328 2.74219 12.1611c8.09668 35.4404 15.1729 71.4414 19.1533 107.594c7.91113 71.8125 13.9775 143.804 20.8516 215.717c12.1729 127.286 25.1475 255.133 56.209 379.453c23.8174 95.333 54.7725 218.739 145.519 273.192
c41.6807 25.0117 95.1475 31.8965 137.221 4.26562c44.1816 -29.0156 58.1201 -79.208 50.6406 -129.843c-10.3057 -69.749 -48.2021 -135.696 -96.1631 -192.078c69.8389 -0.975586 139.829 -13.6641 200.977 -44.8887c82.2236 -41.9893 142.929 -116.218 176.676 -201.368
c67.0352 -169.146 42.8193 -374.709 -62.0732 -523.245c-53.6123 -75.9219 -127.914 -136.772 -214.887 -170.537c-92.2148 -35.7998 -200.953 -47.4229 -281.528 20.6777c-59.5781 50.3496 -84.4668 114.693 -87.1191 182.844
c-3.67285 -20.4092 -10.0195 -39.7754 -21.2891 -56.6465c-23.958 -35.8555 -78.4277 -60.7891 -120.193 -41.165c-26.6328 12.5146 -41.1436 43.5596 -51.8975 69.3008c-26.0996 62.4766 -31.0957 129.87 -33.2822 196.731
c-2.94922 90.0732 1.85059 179.821 10.5576 269.272c-38.9111 -25.6064 -81.585 -44.3164 -129.753 -48.7236c-79.1006 -7.24414 -147.565 32.3682 -181.604 103.793c-56.9648 119.531 -35.2773 278.989 33.2432 389.079zM1128.53 -119.606
c49.4131 129.63 43.7959 286.877 -29.5859 406.459c-10.6924 17.4316 -23.123 33.5684 -37.0674 48.1406c-25.6123 -5.0625 -50.9551 -20.9971 -72.0762 -34.1006c-28.7354 -17.8301 -56.1582 -38.1826 -81.9102 -60.0938
c-61.1816 -52.0596 -109.894 -124.18 -147.516 -194.567c-38.9619 -72.8994 -67.416 -155.992 -51.1895 -239.354c11.707 -60.1611 55.3789 -124.062 117.312 -140.164c65.9189 -17.1348 135.393 14.9639 183.421 51.958c53.5342 41.2324 94.3125 97.9736 118.612 161.723z
M630.198 116.119c-4.82715 -67.8252 -11.207 -135.534 -14.3301 -203.483c-0.672852 -14.583 -0.611328 -30.1084 -0.707031 -45.9531c14.9814 89.8994 59.7578 180.118 107.617 248.701c47.1758 67.6074 107.421 128.094 174.72 175.864
c38.2773 27.1709 83.0195 57.7783 130.201 73.96c-23.2734 17.4033 -49.3223 31.123 -77.5303 40.251c-71.2852 23.0771 -148.34 15.3906 -221.711 10.0977c-54.9746 -3.96387 -66.9453 58.165 -23.958 85.9912c56.1299 36.332 105.425 82.0166 144.521 136.437
c20.168 28.0732 42.1299 59.8809 51.9307 93.3145c8.79688 30.0186 8.0791 75.7646 -23.9131 92.4229c-64.5293 33.6016 -117.935 -51.3643 -139.375 -98.3994c-29.7549 -65.2744 -46.9619 -137.815 -61.2705 -207.851c-27.042 -132.332 -36.624 -266.89 -46.1953 -401.353z
M382.597 782.466c-55.3506 29.2568 -122.198 -5.82031 -164.928 -42.0518c-41.5068 -35.1992 -72.501 -82.2686 -92.6465 -132.578c-38.4961 -96.1514 -46.4355 -223.689 5.9209 -316.432c32.6426 -57.8174 93.168 -84.9043 158.477 -72.5186
c40.5371 7.68652 76.2969 28.168 108.912 53.1074c4.47949 40.7949 9.63184 81.5342 15.1377 122.212c9.55371 70.6123 22.6396 143.859 19.6904 215.173c-1.37402 33.1865 -6.15137 65.8633 -7.45801 98.9824c-1.30078 32.8057 -12.9072 58.1426 -43.1055 74.1055z" />
    <glyph glyph-name="C" unicode="C" horiz-adv-x="744" 
d="M59.4092 337.321c9.15039 102.011 25.8613 202.602 64.4141 297.917c36.6689 90.6514 99.3027 174.995 187.678 220.483c80.8955 41.6357 180.041 35.3613 224.01 -53.5068c69.4795 -140.417 -6.3916 -406.443 -198.907 -377.372
c-29.2168 4.41211 -1.58105 39.8691 19.9824 36.6113c98.3711 -14.8525 147.392 90.3818 154.72 171.95c3.97559 44.249 3.14551 98.8877 -20.6104 137.895c-20.4541 33.585 -57.3076 54.2852 -95.54 37.8184c-56.5674 -24.3672 -91.5703 -87.8809 -115.69 -141.011
c-32.0713 -70.6514 -51.3086 -146.209 -63.7334 -222.646c-25.5166 -156.935 -35.9004 -318.181 -13.7256 -476.04c9.54883 -67.9941 27.0986 -156.576 82.6006 -203.04c67.2422 -56.2979 144.297 25.8193 186.157 76.4434c105.946 128.127 142.945 295.944 178.336 454.208
c4.6084 20.6162 50.0127 28.7178 44.3105 2.67969c-24.8994 -113.7 -50.3936 -228.455 -100.064 -334.396c-41.9561 -89.4844 -104.427 -181.649 -191.108 -233.008c-75.7764 -44.8936 -175.695 -36.293 -235.413 31.7344
c-64.1865 73.124 -94.9902 174.859 -108.391 269.356c-14.2354 100.373 -8.0459 203.319 0.975586 303.923z" />
    <glyph glyph-name="D" unicode="D" horiz-adv-x="1233" 
d="M787.211 244.759c64.0186 88.5537 146.475 182.838 247.291 231.853c-7.92773 45.1289 -19.0068 89.6582 -33.8701 132.287c-15.1719 43.5146 -32.334 85.3301 -55.0078 125.559c-20.3193 36.0518 -47.4727 74.9746 -87.8193 90.2646
c-89.2998 33.8486 -134.267 -136.817 -148.884 -193.737c-24.8994 -96.9697 -36.876 -197.668 -47.7139 -297.021c-11.3262 -103.793 -19.1816 -207.923 -28.3154 -311.924c-8.44434 -96.1738 -10.2158 -199.238 -38.6982 -292.07
c-11.1523 -36.3379 -21.4746 -72.4287 -56.7529 -92.748c-39.0459 -22.4893 -85.6221 -12.2119 -113.695 21.8945c-61.9834 75.2998 -69.7373 180.938 -70.7236 274.291c-1.10449 104.416 9.72754 209.364 19.8535 313.146c5.02344 51.5039 7.91113 103.216 10.8379 154.899
c-49.0986 -40.2119 -109.77 -68.9746 -174.354 -65.4756c-66.2275 3.58301 -119.7 46.4805 -143.479 107.668c-46.8896 120.67 15.1494 263.588 119.531 332.765c54.9072 36.3887 117.692 49.8838 180.858 29.1611c71.9639 -23.6104 107.786 -83.1152 124.713 -153.329
c19.8877 -82.5039 26.6553 -163.713 24.9336 -248.544c-1.67676 -82.6162 -6.55469 -165.138 -11.1465 -247.631c-4.7998 -86.2773 -7.31152 -173.093 -3.69531 -259.477c1.7041 -40.7725 2.02344 -81.9541 6.82324 -122.508
c1.6709 -14.1572 10.2324 -59.5049 21.3281 -76.3086c17.2861 22.9824 22.9658 56.4443 28.5498 83.1211c7.76562 37.083 12.4756 74.8564 16.5352 112.501c9.03223 83.7715 15.4629 167.823 22.5889 251.774c13.5234 159.317 24.8047 322.599 63.7832 478.159
c25.3936 101.332 75.9111 251.623 204.885 244.228c125.918 -7.21582 208.383 -147.975 250.188 -251.516c100.199 -248.191 86.4795 -538.552 -31.9648 -778.26c-28.3428 -57.3691 -66.8506 -110 -116.269 -151.014c-51.291 -42.5674 -125.295 -76.1182 -193.104 -66.3115
c-57.874 8.37109 -104.001 51 -127.101 103.519c-26.9297 61.2266 -19.2432 131.782 -6.63379 195.543c23.3633 118.107 76.2744 228.062 146.527 325.24zM368.934 432.329c4.2666 3.94727 10.5908 8.1416 17.1455 9.78418c2.27637 37.9746 4.86719 75.8994 8.66309 113.684
c6.75098 67.2539 2.70801 211.399 -88.1895 222.288c-88.9629 10.6533 -166.539 -76.3701 -195.078 -151.748c-26.7725 -70.7246 -24.2666 -163.231 32.6934 -219.238c66.1211 -65.0166 165.003 -30.0752 224.766 25.2305zM968.363 385.955
c-127.796 -112.327 -235.97 -270.729 -264.974 -440.549c-12.9121 -75.5801 -14.3809 -200.466 77.3916 -228.893c33.4053 -10.3447 69.625 7.70312 91.5029 24.9492c23.9971 18.917 44.3779 47.248 61.3887 76.1846c90.6738 154.21 124.449 343.895 115.904 520.991
c-1.58691 32.918 -4.54688 66.2285 -9.07715 99.415c-25.7744 -14.6396 -49.6201 -32.3066 -72.1367 -52.0986z" />
    <glyph glyph-name="E" unicode="E" horiz-adv-x="904" 
d="M129.936 330.016c-54.1953 47.4111 -83.998 124.725 -79.4844 196.065c10.1768 160.675 156.128 293.517 305.135 333.033c65.2012 17.291 132.668 21.9111 196.709 -2.6582c63.0938 -24.2051 104.085 -80.6318 98.002 -149.422
c-6.12793 -69.3506 -49.5361 -134.58 -110.746 -167.56c-57.8115 -31.1455 -134.075 -26.9072 -180.763 21.9395c-17.8125 18.6426 23.667 45.9531 39.1475 29.5811c95.3213 -100.833 234.398 43.5029 201.901 151.894c-27.9336 93.1738 -151.356 100.737 -228.002 72.1934
c-80.8057 -30.0918 -149.187 -102.111 -178.947 -182.625c-30.8037 -83.3457 2.38281 -173.065 76.9199 -221.116c27.0303 -17.4199 57.8281 -23.4863 89.0801 -23.6543c17.1348 12.3799 34.8467 23.9639 53.1758 34.5381c39.3936 22.7305 85.2295 40.6494 130.925 44.3389
c43.7275 3.52637 91.083 -23.9473 80.251 -73.9092c-11.292 -52.1094 -72.2266 -77.2617 -117.261 -93.2471c-43.9072 -15.5869 -90.1582 -25.4609 -136.297 -31.5723c-2.35449 -0.314453 -4.72656 -0.527344 -7.08691 -0.796875
c-5.88672 -5.58398 -11.6787 -11.2637 -17.3027 -17.1504c-52.8555 -55.3506 -95.2266 -120.703 -122.666 -192.291c-27.5352 -71.8457 -38.8613 -147.768 -21.5029 -223.448c14.6953 -64.0801 60.5703 -122.951 126.921 -137.204
c38.1094 -8.19141 78.0801 -2.84766 115.343 6.96973c5.29883 1.40137 10.5244 2.92676 15.7607 4.55273c2.48926 0.773438 4.94531 1.6709 7.41211 2.53418c0.212891 0.078125 0.341797 0.123047 0.526367 0.18457c0.347656 0.140625 0.711914 0.291992 1.18848 0.482422
c25.999 10.4229 51.2744 23.2119 75.002 38.0195c183.152 114.312 263.75 325.1 265.28 534.469c0.157227 21.7881 45.7295 36.2539 45.6621 12.1729c-0.100586 -36.7412 -2.0459 -73.4434 -6.52051 -109.921c-24.7656 -201.963 -138.713 -392.566 -315.047 -497.846
c-87.2871 -52.1094 -206.729 -82.874 -302.343 -37.3359c-63.0938 30.0469 -110.926 91.666 -131.968 157.484c-25.7012 80.3906 -10.5127 172.656 17 250.49c27.5186 77.8564 69.3789 151.238 122.554 215.05c-39.2363 9.99707 -76.1738 27.9609 -107.959 55.7646z
M506.071 417.942c8.69043 3.0166 9.08887 8.92578 0 0z" />
    <glyph glyph-name="E" unicode="&#xcb;" horiz-adv-x="904" 
d="M129.936 330.016c-54.1953 47.4111 -83.998 124.725 -79.4844 196.065c10.1768 160.675 156.128 293.517 305.135 333.033c65.2012 17.291 132.668 21.9111 196.709 -2.6582c63.0938 -24.2051 104.085 -80.6318 98.002 -149.422
c-6.12793 -69.3506 -49.5361 -134.58 -110.746 -167.56c-57.8115 -31.1455 -134.075 -26.9072 -180.763 21.9395c-17.8125 18.6426 23.667 45.9531 39.1475 29.5811c95.3213 -100.833 234.398 43.5029 201.901 151.894c-27.9336 93.1738 -151.356 100.737 -228.002 72.1934
c-80.8057 -30.0918 -149.187 -102.111 -178.947 -182.625c-30.8037 -83.3457 2.38281 -173.065 76.9199 -221.116c27.0303 -17.4199 57.8281 -23.4863 89.0801 -23.6543c17.1348 12.3799 34.8467 23.9639 53.1758 34.5381c39.3936 22.7305 85.2295 40.6494 130.925 44.3389
c43.7275 3.52637 91.083 -23.9473 80.251 -73.9092c-11.292 -52.1094 -72.2266 -77.2617 -117.261 -93.2471c-43.9072 -15.5869 -90.1582 -25.4609 -136.297 -31.5723c-2.35449 -0.314453 -4.72656 -0.527344 -7.08691 -0.796875
c-5.88672 -5.58398 -11.6787 -11.2637 -17.3027 -17.1504c-52.8555 -55.3506 -95.2266 -120.703 -122.666 -192.291c-27.5352 -71.8457 -38.8613 -147.768 -21.5029 -223.448c14.6953 -64.0801 60.5703 -122.951 126.921 -137.204
c38.1094 -8.19141 78.0801 -2.84766 115.343 6.96973c5.29883 1.40137 10.5244 2.92676 15.7607 4.55273c2.48926 0.773438 4.94531 1.6709 7.41211 2.53418c0.212891 0.078125 0.341797 0.123047 0.526367 0.18457c0.347656 0.140625 0.711914 0.291992 1.18848 0.482422
c25.999 10.4229 51.2744 23.2119 75.002 38.0195c183.152 114.312 263.75 325.1 265.28 534.469c0.157227 21.7881 45.7295 36.2539 45.6621 12.1729c-0.100586 -36.7412 -2.0459 -73.4434 -6.52051 -109.921c-24.7656 -201.963 -138.713 -392.566 -315.047 -497.846
c-87.2871 -52.1094 -206.729 -82.874 -302.343 -37.3359c-63.0938 30.0469 -110.926 91.666 -131.968 157.484c-25.7012 80.3906 -10.5127 172.656 17 250.49c27.5186 77.8564 69.3789 151.238 122.554 215.05c-39.2363 9.99707 -76.1738 27.9609 -107.959 55.7646z
M506.071 417.942c8.69043 3.0166 9.08887 8.92578 0 0z" />
    <glyph glyph-name="E" unicode="&#xca;" horiz-adv-x="904" 
d="M129.936 330.016c-54.1953 47.4111 -83.998 124.725 -79.4844 196.065c10.1768 160.675 156.128 293.517 305.135 333.033c65.2012 17.291 132.668 21.9111 196.709 -2.6582c63.0938 -24.2051 104.085 -80.6318 98.002 -149.422
c-6.12793 -69.3506 -49.5361 -134.58 -110.746 -167.56c-57.8115 -31.1455 -134.075 -26.9072 -180.763 21.9395c-17.8125 18.6426 23.667 45.9531 39.1475 29.5811c95.3213 -100.833 234.398 43.5029 201.901 151.894c-27.9336 93.1738 -151.356 100.737 -228.002 72.1934
c-80.8057 -30.0918 -149.187 -102.111 -178.947 -182.625c-30.8037 -83.3457 2.38281 -173.065 76.9199 -221.116c27.0303 -17.4199 57.8281 -23.4863 89.0801 -23.6543c17.1348 12.3799 34.8467 23.9639 53.1758 34.5381c39.3936 22.7305 85.2295 40.6494 130.925 44.3389
c43.7275 3.52637 91.083 -23.9473 80.251 -73.9092c-11.292 -52.1094 -72.2266 -77.2617 -117.261 -93.2471c-43.9072 -15.5869 -90.1582 -25.4609 -136.297 -31.5723c-2.35449 -0.314453 -4.72656 -0.527344 -7.08691 -0.796875
c-5.88672 -5.58398 -11.6787 -11.2637 -17.3027 -17.1504c-52.8555 -55.3506 -95.2266 -120.703 -122.666 -192.291c-27.5352 -71.8457 -38.8613 -147.768 -21.5029 -223.448c14.6953 -64.0801 60.5703 -122.951 126.921 -137.204
c38.1094 -8.19141 78.0801 -2.84766 115.343 6.96973c5.29883 1.40137 10.5244 2.92676 15.7607 4.55273c2.48926 0.773438 4.94531 1.6709 7.41211 2.53418c0.212891 0.078125 0.341797 0.123047 0.526367 0.18457c0.347656 0.140625 0.711914 0.291992 1.18848 0.482422
c25.999 10.4229 51.2744 23.2119 75.002 38.0195c183.152 114.312 263.75 325.1 265.28 534.469c0.157227 21.7881 45.7295 36.2539 45.6621 12.1729c-0.100586 -36.7412 -2.0459 -73.4434 -6.52051 -109.921c-24.7656 -201.963 -138.713 -392.566 -315.047 -497.846
c-87.2871 -52.1094 -206.729 -82.874 -302.343 -37.3359c-63.0938 30.0469 -110.926 91.666 -131.968 157.484c-25.7012 80.3906 -10.5127 172.656 17 250.49c27.5186 77.8564 69.3789 151.238 122.554 215.05c-39.2363 9.99707 -76.1738 27.9609 -107.959 55.7646z
M506.071 417.942c8.69043 3.0166 9.08887 8.92578 0 0z" />
    <glyph glyph-name="E" unicode="&#xc9;" horiz-adv-x="904" 
d="M129.936 330.016c-54.1953 47.4111 -83.998 124.725 -79.4844 196.065c10.1768 160.675 156.128 293.517 305.135 333.033c65.2012 17.291 132.668 21.9111 196.709 -2.6582c63.0938 -24.2051 104.085 -80.6318 98.002 -149.422
c-6.12793 -69.3506 -49.5361 -134.58 -110.746 -167.56c-57.8115 -31.1455 -134.075 -26.9072 -180.763 21.9395c-17.8125 18.6426 23.667 45.9531 39.1475 29.5811c95.3213 -100.833 234.398 43.5029 201.901 151.894c-27.9336 93.1738 -151.356 100.737 -228.002 72.1934
c-80.8057 -30.0918 -149.187 -102.111 -178.947 -182.625c-30.8037 -83.3457 2.38281 -173.065 76.9199 -221.116c27.0303 -17.4199 57.8281 -23.4863 89.0801 -23.6543c17.1348 12.3799 34.8467 23.9639 53.1758 34.5381c39.3936 22.7305 85.2295 40.6494 130.925 44.3389
c43.7275 3.52637 91.083 -23.9473 80.251 -73.9092c-11.292 -52.1094 -72.2266 -77.2617 -117.261 -93.2471c-43.9072 -15.5869 -90.1582 -25.4609 -136.297 -31.5723c-2.35449 -0.314453 -4.72656 -0.527344 -7.08691 -0.796875
c-5.88672 -5.58398 -11.6787 -11.2637 -17.3027 -17.1504c-52.8555 -55.3506 -95.2266 -120.703 -122.666 -192.291c-27.5352 -71.8457 -38.8613 -147.768 -21.5029 -223.448c14.6953 -64.0801 60.5703 -122.951 126.921 -137.204
c38.1094 -8.19141 78.0801 -2.84766 115.343 6.96973c5.29883 1.40137 10.5244 2.92676 15.7607 4.55273c2.48926 0.773438 4.94531 1.6709 7.41211 2.53418c0.212891 0.078125 0.341797 0.123047 0.526367 0.18457c0.347656 0.140625 0.711914 0.291992 1.18848 0.482422
c25.999 10.4229 51.2744 23.2119 75.002 38.0195c183.152 114.312 263.75 325.1 265.28 534.469c0.157227 21.7881 45.7295 36.2539 45.6621 12.1729c-0.100586 -36.7412 -2.0459 -73.4434 -6.52051 -109.921c-24.7656 -201.963 -138.713 -392.566 -315.047 -497.846
c-87.2871 -52.1094 -206.729 -82.874 -302.343 -37.3359c-63.0938 30.0469 -110.926 91.666 -131.968 157.484c-25.7012 80.3906 -10.5127 172.656 17 250.49c27.5186 77.8564 69.3789 151.238 122.554 215.05c-39.2363 9.99707 -76.1738 27.9609 -107.959 55.7646z
M506.071 417.942c8.69043 3.0166 9.08887 8.92578 0 0z" />
    <glyph glyph-name="F" unicode="F" horiz-adv-x="786" 
d="M562.484 -308.337c-6.94727 -35.2275 -78.8574 -59.3457 -87.9961 -14.4746c-11.0234 54.1504 -17.7793 106.098 -19.8262 161.375c-2.04102 55.1543 -2.84277 110.533 -3.52637 165.721c-0.308594 24.9619 -0.578125 49.957 -0.802734 74.958
c-6.06055 22.4834 -13.9043 44.1592 -24.4111 64.3047c-25.8086 49.4746 -101.73 127.701 -164.011 87.3994c-20.0664 -15.6875 -60.2725 -1.87207 -36.8809 24.2275c22.1914 24.7656 49.3281 37.9248 77.334 41.5977c27.5293 15.5479 54.6494 32.1777 82.2236 46.4531
c22.3154 11.5498 44.7822 22.7969 67.4951 33.5c2.18652 81.0918 5.19727 162.727 -1.18848 243.426c-5.07422 64.1025 -11.7461 144.039 -52.3115 198.521c-53.7695 -17.3643 -107.376 -35.2334 -161.235 -52.2891c-42.8135 -13.5625 -88.6377 -34.3975 -133.357 -39.7803
c-29.0605 -3.49902 -64.501 10.3496 -51.0557 45.79c12.3633 32.5928 53.2373 62.3701 79.5498 83.7822c32.1328 26.1504 68.7393 48.0059 107.538 62.6562c80.5586 30.4111 175.712 29.1719 242.052 -32.3516c1.87793 -1.73828 3.59375 -3.63379 5.39941 -5.44434
c104.78 31.7236 210.794 58.7373 319.947 71.3584c81.8037 9.45898 176.184 17.2354 256.495 -5.67383c63.0322 -17.9814 118.416 -79.4658 84.125 -146.501c-10.417 -20.3691 -56.8359 -20.2285 -42.7236 7.05469c27.501 53.1748 -32.5371 96.0557 -77.2734 106.104
c-51.8066 11.6396 -107.695 10.3672 -160.428 7.81055c-115.612 -5.60645 -229.224 -30.7422 -340.148 -62.7295c-5.58984 -1.60938 -11.1514 -3.29688 -16.7305 -4.93945c44.5967 -62.2305 61.877 -148.082 71.3525 -220.214
c8.62891 -65.6777 11.2305 -132.31 11.7012 -198.834c28.4717 9.57129 57.8574 16.6475 86.2051 15.3467c38.4463 -1.7666 83.0986 -24.3848 78.5127 -67.9668c-2.54004 -24.1094 -50.585 -36.9883 -56.8193 -9.34082c-5.30957 23.5371 -13.5742 37.0947 -39.999 37.8008
c-21.1211 0.566406 -43.5205 -7.84375 -63.4756 -14.0557c-1.46289 -0.454102 -2.9043 -0.981445 -4.36719 -1.44727c-0.078125 -21.2891 -0.285156 -42.5449 -0.514648 -63.7334c-1.15527 -105.896 -1.00391 -211.942 -4.27246 -317.793
c-1.67676 -54.1953 -2.46777 -108.503 -5.69727 -162.626c-3.24609 -54.3408 -10.3496 -105.604 -20.8789 -158.991zM132.265 769.912c44.6416 12.0771 88.8125 25.4707 132.804 39.6953c36.1865 11.7012 72.3613 23.6436 108.604 35.4463
c-62.1406 50.9775 -148.188 28.6738 -207.357 -14.084c-16.8037 -12.1445 -32.6543 -25.4492 -47.5684 -39.8477c-6.39746 -6.17285 -22.8145 -21.0137 -12.6826 -26.5645c5.5 -3.01074 20.9023 3.91895 26.2012 5.35449zM362.391 290.747
c35.7324 -11.8135 67.959 -37.666 87.5215 -73.0342c0.118164 38.1318 0.392578 76.2529 1.11035 114.312c0.0283203 1.62598 0.0791016 3.2627 0.112305 4.89453c-27.793 -13.4229 -55.1602 -27.6924 -82.1963 -42.6182
c-2.1582 -1.18848 -4.36719 -2.37109 -6.54785 -3.55371z" />
    <glyph glyph-name="G" unicode="G" horiz-adv-x="881" 
d="M340.895 87.1006c-69.665 -38.5635 -162.916 -41.7598 -223.239 14.9307c-63.7998 59.9707 -73.7744 144.354 -64.8535 226.953c18.4854 171.176 95.8145 348.693 209.465 478.003c59.7012 67.9326 131.821 123.03 217.421 153.492
c68.4033 24.3447 160.137 19.3486 198.953 -52.0488c31.7793 -58.457 4.5752 -132.933 -38.1875 -177.776c-51.3076 -53.8086 -133.918 -77.2451 -202.181 -42.1406c-25.0508 12.8848 11.1748 45.1348 30.9111 34.9863c72.0479 -37.0498 152.842 13.4336 169.343 88.8057
c6.06641 27.7197 2.60156 60.8057 -20.3643 80.4521c-27.1201 23.2012 -67.7637 15.9512 -97.5361 2.78125c-53.4102 -23.627 -100.586 -70.208 -137.843 -114.238c-39.7354 -46.9688 -73.3926 -97.71 -102.84 -151.692
c-31.5996 -57.9297 -56.2637 -118.864 -74.3291 -182.311c-17.583 -61.7539 -32.5195 -124.803 -32.0596 -189.343c0.398438 -55.2383 19.1143 -125.475 75.3115 -149.522c65.5938 -28.0732 133.834 52.6875 170.542 96.8691
c93.3477 112.354 158.785 246.453 233.02 371.418c0.750977 1.26172 1.7207 2.41113 2.78027 3.49902c7.21582 26.8506 71.4814 54.5654 81.7363 19.6406c12.4307 -42.3311 23.1953 -82.4531 29.6484 -126.17c6.75098 -45.752 11.2588 -91.7334 16.1143 -137.721
c8.89258 -84.248 16.2988 -169.909 17.4814 -254.656c2.0293 -145.771 -35.458 -312.384 -151.289 -411.019c-102.375 -87.1689 -263.582 -97.3398 -341.921 24.9668c-75.0869 117.244 -1.57031 263.537 74.4922 359.666c64.585 81.6299 162.021 169.466 269.75 190.172
c-2.43359 44.5352 -4.61426 89.0703 -6.25098 133.689c-1.3623 37.0557 -0.830078 73.332 1.30566 109.574c-36.7305 -66.334 -75.5742 -131.608 -116.729 -195.128c-49.6709 -76.6504 -106.877 -160.864 -188.652 -206.134zM630.511 -183.669
c39.8311 113.303 31.8115 239.73 24.7578 357.58c-0.706055 11.7744 -1.37891 23.5488 -2.05762 35.3174c-52.5078 -9.53711 -100.222 -41.0811 -141.706 -74.6826c-52.5361 -42.5557 -98.1025 -94.29 -132.938 -152.275
c-53.9932 -89.8828 -93.3809 -241.514 24.7773 -301.72c104.202 -53.0967 195.375 45.3594 227.166 135.78z" />
    <glyph glyph-name="H" unicode="H" horiz-adv-x="1069" 
d="M829.922 240.206c-0.364258 10.9277 -0.691406 21.8584 -1 32.7695c-33.7871 0.078125 -67.7812 -3.80762 -101.372 -7.7207c-59.5947 -6.94727 -118.758 -17.0117 -177.489 -29.2236c-14.8916 -3.09473 -29.7275 -6.39746 -44.5293 -9.80078
c0.19043 -138.629 1.45215 -276.54 14.9814 -414.973c6.52051 -66.7324 -124.191 -112.871 -141.41 -38.9561c-3.16211 1.29492 -5.70215 3.66113 -7.08691 7.40137c-14.2695 38.6084 -19.2988 79.583 -29.1729 119.392c-9.6377 38.8662 -22.5107 77.1162 -39.9082 113.224
c-17.7627 36.8594 -40.3525 71.2402 -69.7158 99.9189c-12.1729 11.8916 -25.3711 22.7852 -39.9766 31.5264c-29.8057 -7.25 -62.4482 -11.623 -84.7295 1.36816c-36.041 21.0146 3.02148 50.9268 28.3701 54.3525c26.5762 3.59375 51.6387 -1.58105 74.7383 -12.3965
c18.6201 3.52637 34.6445 6.75586 38.2383 7.7207c31.998 8.6123 63.7441 18.1836 95.7031 26.9639c7.65332 2.10254 15.335 4.12109 23.0049 6.18457c3.25781 48.8408 6.4541 97.7715 9 146.753c-35.3623 -31.1572 -78.0811 -52.5693 -127.314 -56.7412
c-70.3486 -5.95996 -132.254 29.0381 -167.403 89.3057c-61.6523 105.717 -31.3809 247.373 47.9893 335.092c39.5332 43.6885 93.6279 78.1875 153.368 83.5811c61.2598 5.53418 119.218 -29.5977 153.189 -79.0215c40.2178 -58.502 50.7695 -138.646 57.8955 -207.722
c8.42188 -81.5791 10.1094 -163.181 10.1934 -245.136c0.0107422 -10.6807 0.0166016 -21.3506 0.0224609 -32.0146c12.1279 2.74219 24.2559 5.48926 36.4229 8.0625c66.0654 13.9775 132.759 25.4434 199.861 33.1523c28.5332 3.28027 57.4814 6.39746 86.3623 7.23242
c-2.5459 152.152 3.55957 304.72 24.0918 455.498c4.48535 32.9229 44.9893 55.1768 73.9648 60.0996c22.5957 3.84082 68.3584 -4.27832 65.9756 -37.0947c-12.3408 -169.987 -22.377 -340.036 -18.7666 -510.556c1.81055 -85.498 5.1748 -171.131 11.1738 -256.444
c2.94922 -41.9336 5.49512 -83.8945 8.46094 -125.828c2.91602 -41.2158 10.7715 -92.4678 -1.12012 -132.45c-7.53516 -25.3428 -59.292 -59.1963 -81.3096 -30.7197c-25.5 32.9854 -33.3828 84.1143 -41.0303 124.686c-7.68652 40.79 -14.4033 81.7422 -19.3145 122.964
c-10.2773 86.2891 -17.4541 172.695 -20.3584 259.551zM242.729 354.42c55.7705 -1.46289 102.293 29.8145 137.195 70.4131c2.63477 64.1982 3.78418 128.441 1.95605 192.589c-1.41895 49.7383 -2.6748 118.489 -44.4902 153.717
c-47.2041 39.7695 -117.34 5.79199 -155.696 -29.3398c-77.4248 -70.9092 -109.182 -193.911 -66.626 -291.447c23.0273 -52.7822 67.7246 -94.3564 127.661 -95.9316zM358.216 8.07324c0.392578 61.0859 3.93652 122.278 7.91699 182.771
c-37.5547 -10.1592 -75.0703 -20.5205 -112.687 -30.6465c33.2881 -27.4844 60.498 -64.8877 79.5498 -98.8877c9.62695 -17.1738 17.9023 -35.0088 25.2197 -53.2363z" />
    <glyph glyph-name="I" unicode="I" horiz-adv-x="623" 
d="M572.829 -258.498c-12.6543 -14.8525 -32.293 -20.6172 -51.0869 -19.3721c-71.7275 4.75488 -118.09 58.8154 -138.953 123.759c-26.2285 81.6523 -33.6406 168.054 -33.1416 253.39c0.84082 144.112 25.5781 285.292 44.8604 427.525
c-49.5811 -43.6211 -108.548 -77.2783 -176.575 -76.998c-75.1875 0.302734 -135.747 45.9756 -157.642 117.637c-38.6426 126.484 36.4043 264.12 143.528 331.121c52.166 32.626 123.726 58.7314 183.96 32.7607c70.1582 -30.249 107.051 -111.1 120.631 -181.348
c33.3994 -172.791 -2.70312 -352.332 -6.61621 -526.295c-1.96777 -87.3652 3.43164 -174.484 16.9053 -260.818c5.64062 -36.1475 10.0928 -73.6289 20.7236 -108.738c7.53027 -24.877 16.2266 -53.6064 36.1699 -71.2227
c12.8789 -11.376 6.74512 -30.2373 -2.76367 -41.4004zM205.5 487.285c75.4395 -13.7031 141.163 35.1016 190.738 86.0166c1.42383 1.46875 3.05566 2.70215 4.81641 3.7334c8.41602 68.2178 14.7402 138.477 6.72266 206.868
c-3.73438 31.8301 -6.44824 79.2861 -31.7852 102.234c-27.5801 24.9785 -70.8252 19.7021 -102.868 8.58984c-111.368 -38.6201 -192.067 -162.648 -175.583 -280.341c8.43848 -60.251 44.8154 -115.63 107.959 -127.102z" />
    <glyph glyph-name="I" unicode="&#xcf;" horiz-adv-x="623" 
d="M572.829 -258.498c-12.6543 -14.8525 -32.293 -20.6172 -51.0869 -19.3721c-71.7275 4.75488 -118.09 58.8154 -138.953 123.759c-26.2285 81.6523 -33.6406 168.054 -33.1416 253.39c0.84082 144.112 25.5781 285.292 44.8604 427.525
c-49.5811 -43.6211 -108.548 -77.2783 -176.575 -76.998c-75.1875 0.302734 -135.747 45.9756 -157.642 117.637c-38.6426 126.484 36.4043 264.12 143.528 331.121c52.166 32.626 123.726 58.7314 183.96 32.7607c70.1582 -30.249 107.051 -111.1 120.631 -181.348
c33.3994 -172.791 -2.70312 -352.332 -6.61621 -526.295c-1.96777 -87.3652 3.43164 -174.484 16.9053 -260.818c5.64062 -36.1475 10.0928 -73.6289 20.7236 -108.738c7.53027 -24.877 16.2266 -53.6064 36.1699 -71.2227
c12.8789 -11.376 6.74512 -30.2373 -2.76367 -41.4004zM205.5 487.285c75.4395 -13.7031 141.163 35.1016 190.738 86.0166c1.42383 1.46875 3.05566 2.70215 4.81641 3.7334c8.41602 68.2178 14.7402 138.477 6.72266 206.868
c-3.73438 31.8301 -6.44824 79.2861 -31.7852 102.234c-27.5801 24.9785 -70.8252 19.7021 -102.868 8.58984c-111.368 -38.6201 -192.067 -162.648 -175.583 -280.341c8.43848 -60.251 44.8154 -115.63 107.959 -127.102z" />
    <glyph glyph-name="I" unicode="&#xce;" horiz-adv-x="623" 
d="M572.829 -258.498c-12.6543 -14.8525 -32.293 -20.6172 -51.0869 -19.3721c-71.7275 4.75488 -118.09 58.8154 -138.953 123.759c-26.2285 81.6523 -33.6406 168.054 -33.1416 253.39c0.84082 144.112 25.5781 285.292 44.8604 427.525
c-49.5811 -43.6211 -108.548 -77.2783 -176.575 -76.998c-75.1875 0.302734 -135.747 45.9756 -157.642 117.637c-38.6426 126.484 36.4043 264.12 143.528 331.121c52.166 32.626 123.726 58.7314 183.96 32.7607c70.1582 -30.249 107.051 -111.1 120.631 -181.348
c33.3994 -172.791 -2.70312 -352.332 -6.61621 -526.295c-1.96777 -87.3652 3.43164 -174.484 16.9053 -260.818c5.64062 -36.1475 10.0928 -73.6289 20.7236 -108.738c7.53027 -24.877 16.2266 -53.6064 36.1699 -71.2227
c12.8789 -11.376 6.74512 -30.2373 -2.76367 -41.4004zM205.5 487.285c75.4395 -13.7031 141.163 35.1016 190.738 86.0166c1.42383 1.46875 3.05566 2.70215 4.81641 3.7334c8.41602 68.2178 14.7402 138.477 6.72266 206.868
c-3.73438 31.8301 -6.44824 79.2861 -31.7852 102.234c-27.5801 24.9785 -70.8252 19.7021 -102.868 8.58984c-111.368 -38.6201 -192.067 -162.648 -175.583 -280.341c8.43848 -60.251 44.8154 -115.63 107.959 -127.102z" />
    <glyph glyph-name="I" unicode="&#xcd;" horiz-adv-x="623" 
d="M572.829 -258.498c-12.6543 -14.8525 -32.293 -20.6172 -51.0869 -19.3721c-71.7275 4.75488 -118.09 58.8154 -138.953 123.759c-26.2285 81.6523 -33.6406 168.054 -33.1416 253.39c0.84082 144.112 25.5781 285.292 44.8604 427.525
c-49.5811 -43.6211 -108.548 -77.2783 -176.575 -76.998c-75.1875 0.302734 -135.747 45.9756 -157.642 117.637c-38.6426 126.484 36.4043 264.12 143.528 331.121c52.166 32.626 123.726 58.7314 183.96 32.7607c70.1582 -30.249 107.051 -111.1 120.631 -181.348
c33.3994 -172.791 -2.70312 -352.332 -6.61621 -526.295c-1.96777 -87.3652 3.43164 -174.484 16.9053 -260.818c5.64062 -36.1475 10.0928 -73.6289 20.7236 -108.738c7.53027 -24.877 16.2266 -53.6064 36.1699 -71.2227
c12.8789 -11.376 6.74512 -30.2373 -2.76367 -41.4004zM205.5 487.285c75.4395 -13.7031 141.163 35.1016 190.738 86.0166c1.42383 1.46875 3.05566 2.70215 4.81641 3.7334c8.41602 68.2178 14.7402 138.477 6.72266 206.868
c-3.73438 31.8301 -6.44824 79.2861 -31.7852 102.234c-27.5801 24.9785 -70.8252 19.7021 -102.868 8.58984c-111.368 -38.6201 -192.067 -162.648 -175.583 -280.341c8.43848 -60.251 44.8154 -115.63 107.959 -127.102z" />
    <glyph glyph-name="J" unicode="J" horiz-adv-x="847" 
d="M629.202 -340.564c-93.8135 -102.173 -271.754 -141.001 -376.438 -29.8682c-97.3623 103.351 -110.802 244.682 -65.1621 374.255c43.7783 124.292 111.475 240.818 195.302 342.308c41.249 49.9395 86.8887 96.1904 135.965 138.455
c25.6963 22.124 52.5469 43.8838 81.5283 61.6689c-0.21875 97.2275 1.96777 194.472 -3.17383 291.593c-1.35156 25.5449 -4.74414 66.7549 -38.1777 67.9268c-28.3984 0.992188 -63.834 -20.6836 -89.0986 -32.166c-52.1436 -23.7002 -102.768 -50.9775 -150.801 -82.1904
c-48.3867 -31.4434 -94.4912 -66.5088 -137.321 -105.195c-40.8682 -36.915 -94.626 -84.915 -87.4883 -146.085c7.27246 -62.3193 76.5273 -83.457 130.565 -76.6338c56.4941 7.13184 105.683 42.124 145.44 80.9229c13.6689 13.3389 47.3887 7.33398 29.4297 -13.4336
c-44.748 -51.751 -106.619 -91.29 -174.978 -101.966c-58.0645 -9.06641 -132.371 4.47363 -162.665 61.0908c-34.1006 63.7266 10.0586 133.699 53.9268 178.912c52.2334 53.8418 111.777 101.337 174.226 142.743c57.8623 38.3672 118.993 71.873 182.513 99.8955
c52.7041 23.251 115.534 50.9033 165.939 7.04102c50.585 -44.0195 72.4404 -121.068 83.5703 -184.173c13.0186 -73.8076 15.5693 -149.813 22.1182 -224.379c13.126 -149.545 30.3838 -300.834 18.666 -451.085c-10.7539 -137.86 -36.7305 -293.825 -133.886 -399.637z
M609.295 90.2402c4.6084 125.47 -5.05957 251.013 -8.00293 376.42c-0.302734 12.9688 -0.476562 25.9375 -0.62207 38.9062c-25.9199 -18.166 -49.9229 -39.6182 -72.877 -60.335c-45.0342 -40.6494 -86.4463 -85.459 -124.034 -133.056
c-77.8447 -98.5791 -143.759 -214.142 -178.397 -335.417c-17.6895 -61.9219 -22.6455 -125.229 1.28418 -186.202c21.4238 -54.5879 58.8662 -91.4639 111.021 -116.729c43.3965 -21.0254 100.878 -30.0576 144.331 -4.29395
c27.1533 16.1025 49.082 50.6123 66.7041 88.1055c22.1191 47.0801 32.9629 100.574 42.4609 151.792c11.085 59.752 15.9072 120.138 18.1328 180.809z" />
    <glyph glyph-name="K" unicode="K" horiz-adv-x="917" 
d="M399.216 -240.377c-61.7754 129.73 -53.4521 285.366 -47.9238 425.211c4.54199 114.777 13.9219 229.336 19.0352 344.079c-25.8477 -21.3506 -55.5361 -38.0195 -88.1172 -48.8633c-65.998 -21.9727 -149.125 -17.4092 -197.949 37.9297
c-89.2998 101.214 14.5332 245.606 99.9922 308.75c46.5137 34.3701 109.029 66.1387 168.092 47.5742c58.9668 -18.5361 100.608 -69.0928 117.507 -127.432c21.3115 -73.5557 24.748 -155.808 28.2246 -231.909c1.15527 -25.3203 1.7998 -50.6738 2.1582 -76.0449
c26.1279 28.7969 54.0215 56.001 81.3604 83.6367c38.0029 38.418 74.2227 78.2764 106.916 121.354c31.9873 42.1523 81.9326 97.2168 73.4609 153.975c-2.71973 18.2168 35.0586 31.0176 38.6748 10.3115c8.10156 -46.3682 -16.832 -87.0283 -41.2158 -124.387
c-27.2158 -41.6865 -57.4258 -81.3662 -90.293 -118.753c-32.5029 -36.9717 -67.9375 -71.1455 -102.105 -106.536c-15.7891 -16.3438 -31.3477 -32.9346 -46.127 -50.1982c-2.18066 -2.5459 -4.2998 -5.14746 -6.44727 -7.7207
c35.7383 -12.8008 71.4199 -24.9287 101.091 -49.8115c29.2734 -24.5469 52.1943 -57.4873 72.2158 -89.6699c48.1846 -77.4414 72.0752 -168.574 108.812 -251.51c31.9082 -72.042 69.8438 -144.19 123.646 -202.49c22.6182 -24.5127 52.4629 -51.1562 86.6924 -56.875
c41.3223 -6.90234 62.5156 39.0684 47.1533 72.8047c-9.15039 20.0947 31.2861 39.7295 41.5742 20.2734c44.2158 -83.6084 -52.165 -146.864 -124.381 -153.413c-97.1719 -8.81348 -187.229 71.4141 -238.744 145.374c-60.0322 86.1826 -90.3936 189.724 -123.312 288.319
c-15.3965 46.1045 -31.1904 92.7588 -50.5615 137.366c-13.5176 31.1289 -30.8984 73.4043 -58.1309 97.6309c-0.157227 -28.2861 -0.499023 -56.5615 -0.824219 -84.7979c-0.908203 -78.6523 -1.35156 -157.562 2.92676 -236.131
c4.18262 -76.8301 16.8037 -152.562 29.4531 -228.343c9.52051 -57.0605 -105.868 -106.372 -132.854 -49.7041zM271.366 510.54c39.3262 11.7852 73.8926 35.1074 100.777 65.5303c0.0556641 1.67676 0.139648 3.34766 0.19043 5.02441
c1.05957 33.7646 2.32129 67.5684 2.56836 101.35c0.207031 28.4658 3.00488 58.4961 -1.20605 86.71c-3.44824 23.1172 -13.3555 53.8203 -34.9082 66.3291c-25.4883 14.791 -58.4736 7.03711 -83.5527 -4.22168c-86.5859 -38.8721 -205.444 -168.558 -146.59 -270.354
c32.6934 -56.5508 104.443 -67.832 162.721 -50.3672z" />
    <glyph glyph-name="L" unicode="L" horiz-adv-x="651" 
d="M973.252 -153.151c8.8418 20.6221 53.5049 20.7734 41.6914 -6.87891c-47.832 -111.8 -196.766 -104.22 -297.178 -101.825c-65.7852 1.57031 -131.497 6.64453 -196.698 15.5371c-29.8174 4.06445 -59.4609 9.07715 -89.0254 14.6162
c-20.4365 -22.4326 -47.4502 -41.2158 -76.6221 -49.3623c-23.4199 -6.53711 -61.5635 -10.2041 -75.8779 14.6621c-18.8945 32.8281 3.3418 71.4531 35.9062 82.2969c6.96387 2.31543 14.1348 3.80664 21.4238 4.74902c4.46875 7.98438 8.28125 16.3887 12.0322 24.6592
c13.1875 29.083 22.915 59.332 30.5352 90.3379c16.6807 67.8818 23.375 138.488 26.7725 208.17c6.11133 125.278 12.75 252.861 6.50391 378.487c-69.6201 -59.8525 -158.045 -107.382 -249.896 -72.0312c-97.9004 37.6777 -132.304 153.997 -102.357 247.799
c27.4346 85.9355 99.0615 161.095 188.597 181.464c97.6875 22.2256 190.906 -25.999 236.983 -112.961c53.0908 -100.199 65.0498 -224.469 67.9824 -335.988c2.98828 -113.784 2.5 -228.443 -8.37695 -341.824c-9.01562 -93.959 -32.2002 -202.501 -85.9697 -284.231
c3.87988 -0.807617 7.72656 -1.57617 11.5 -2.25488c61.0977 -10.9727 122.778 -18.626 184.7 -22.9434c59.1738 -4.12109 118.993 -5.52246 178.257 -2.54004c55.1201 2.77539 115.085 14.0283 139.116 70.0625zM110.945 558.689
c26.083 -52.4072 77.374 -87.8242 137.087 -83.9502c64.792 4.20508 117.396 46.6484 162.104 90.4824c-4.10938 62.3477 -7.26074 129.035 -33.0469 186.466c-23.1055 51.4541 -61.5967 104.029 -125.1 92.748c-119.739 -21.2666 -194.276 -178.796 -141.045 -285.746z
M315.325 -206.724c-5.95996 1.05371 -3.78418 -1.86133 0 0z" />
    <glyph glyph-name="M" unicode="M" horiz-adv-x="1427" 
d="M1260.98 -366.334c-35.5195 18.1602 -58.5967 47.4453 -77.4805 82.252c-68.8799 126.843 -50.5176 293.309 -40.6045 431.247c11.2021 155.959 25.1016 310.674 28.4766 467.059c0.734375 33.9824 4.7207 73.1514 -6.19531 105.979
c-15.0264 45.1797 -64.7256 -25.0508 -75.4736 -41.54c-37.8799 -58.0869 -57.7783 -126.558 -75.9668 -192.83c-37.375 -136.167 -58.249 -276.023 -77.8672 -415.672c2.13574 -11.5 4.39551 -22.9883 6.89062 -34.46
c11.3818 -52.3398 -105.032 -101.438 -124.354 -46.5195c-42.9541 122.094 -42.1074 255.52 -42.9424 383.551c-0.40918 62.9473 -5.54492 124.679 -12.9629 187.11c-2.14746 18.0596 -2.21484 73.5225 -20.0391 85.1113
c-25.0508 16.293 -54.2061 -38.5137 -62.5098 -54.751c-51.3691 -100.479 -70.9199 -220.847 -85.9346 -331.542c-15.3066 -112.849 -23.5322 -226.661 -34.0732 -340.02c-2.73633 -29.4023 -7.79395 -58.0479 -14.999 -86.6543
c-4.82227 -19.1357 -7.18848 -38.748 -21.2451 -53.4434c-48.9814 -51.1963 -109.922 -8.08594 -137.064 40.7666c-25.5947 46.0713 -28.3926 102.997 -31.5215 154.507c-3.53809 58.333 -0.773438 117.02 1.66016 175.353c3.96973 95.248 10.6416 191.074 8.72949 286.563
c-87.7129 -61.1084 -229.234 -82.8682 -291.083 14.1689c-65.1963 102.291 10.8379 230.081 102.246 285.375c100.855 61.0078 231.982 20.0947 276.002 -91.1055c53.416 -134.944 50.7246 -283.16 45.6953 -425.657c-2.62988 -74.4189 -4.2666 -148.844 -2.76953 -223.308
c0.711914 -35.6816 3.10059 -71.167 5.24805 -106.765c0.224609 -3.72852 0.521484 -7.54688 0.914062 -11.3818c2.71973 12.7334 4.85059 25.5957 6.76855 38.4746c4.7998 32.25 7.5918 64.7861 10.7373 97.2324c6.19531 63.8672 11.9424 127.79 19.6689 191.495
c14.084 116.15 34.8408 232.407 75.9561 342.356c16.1416 43.1611 36.248 89.7764 73.999 118.596c30.8711 23.5654 78.0801 35.0703 110.953 9.04883c38.4287 -30.417 55.5234 -92.9727 67.7852 -137.973c14.3643 -52.7324 25.085 -107.113 31.4375 -161.427
c6.18457 -52.8496 10.7988 -105.644 16.4111 -158.286c16.6406 107.146 37.2236 213.631 68.7393 317.486c18.2393 60.0879 40.0381 120.288 77.6484 171.248c34.0225 46.0996 75.6982 81.8154 134.581 61.1094c65.9189 -23.1846 76.5996 -99.9756 84.959 -161.538
c10.1367 -74.6602 11.8467 -149.573 11.3867 -224.828c-0.919922 -150.515 -18.8281 -301.45 -6.35254 -451.948c5.30957 -64.0186 16.5234 -128.172 46.626 -185.619c8.81934 -16.832 21.6143 -58.0088 46.251 -59.0293c23.8574 -0.986328 25.5957 47.4902 25.3262 64.417
c-0.353516 22.5566 45.9365 39.5176 48.5771 12.9473c6.06055 -61.0078 -20.46 -123.412 -84.0801 -140.703c-36.0518 -9.79492 -75.2939 -3.25781 -108.155 13.5459zM105.334 487.479c45.6113 -102.033 189.039 -76.6113 258.805 -11.5781
c-0.476562 10.0586 -1.03125 20.1172 -1.74902 30.165c-3.44238 48.1006 -6.87891 98.4727 -21.6641 144.706c-6.54883 20.4756 -15.2061 43.5703 -28.8359 60.4355c-16.7305 20.7002 -45.5723 22.293 -70.0576 17.0117
c-97.6543 -21.0703 -179.239 -145.127 -136.498 -240.74z" />
    <glyph glyph-name="N" unicode="N" horiz-adv-x="1220" 
d="M948.021 -213.453c-44.8828 167.891 -20.1064 344.139 -8.06348 514.631c5.42188 76.6846 11.2139 153.795 8.35449 230.709c-1.49121 40.0996 -6.80078 79.6328 -14.2412 119.043c-4.87793 25.8525 -13.3613 56.1465 -30.5684 76.9307
c-49.5029 59.791 -113.667 -83.7822 -126.288 -118.208c-26.2793 -71.6836 -42.3818 -147.628 -57.1221 -222.384c-30.7588 -155.987 -51.9414 -313.5 -84.8818 -469.105c-7.1377 -33.7246 -12.9521 -67.4385 -25.0684 -99.8799
c-10.5068 -28.1406 -18.9844 -63.1162 -44.0303 -82.168c-33.8311 -25.7295 -83.3164 -21.0195 -113.862 7.6084c-21.7988 20.4316 -37.8906 54.6221 -48.6113 82.2803c-25.8975 66.8164 -18.4404 145.115 -14.3701 214.909c4.90039 84.0625 8.55566 168.35 9.22266 252.563
c0.078125 10.249 0.235352 20.5146 0.425781 30.7861c-24.3115 -22.4941 -55.5586 -38.9727 -85.6338 -50.0625c-67.6963 -24.9619 -151.731 -33.832 -208.528 19.5332c-116.891 109.832 -25.6846 309.424 78.5293 393.128c50.0967 40.2344 116.582 64.4727 181.083 50.9824
c67.8086 -14.1797 122.262 -74.6104 140.675 -139.312c21.4297 -75.3047 28.6514 -156.391 33.6523 -234.314c5.64648 -87.8984 4.87793 -176.441 0.577148 -264.356c-3.65527 -74.7393 -4.35059 -147.364 3.59473 -221.772
c2.08008 -19.4609 4.39551 -37.1221 9.97949 -55.4844c14.8408 28.752 24.042 62.1631 31.791 92.4961c41.5801 162.755 57.8906 331.29 92.7988 495.491c15.6426 73.5781 32.6758 148.401 61.1133 218.268c23.5879 57.9521 63.6875 128.94 127.263 149.63
c162.261 52.8047 197.337 -191.988 204.569 -298.182c10.9609 -160.949 -10.5469 -322.201 0.246094 -483.257c4.95605 -73.9424 16.3887 -149.59 39.9258 -220.096c6.51465 -19.5059 48.2744 -114.62 75.9717 -77.3799c15.5479 20.9023 79.2305 29.2119 69.2559 -11.4316
c-17.6338 -71.8516 -107.662 -98.5234 -172.286 -80.9121c-82.6504 22.5166 -115.372 104.118 -135.473 179.316zM252.519 291.747c57.2178 8.5957 130.532 38.1533 147.852 98.2305c1.00391 46.6543 1.50293 93.3477 -1.40723 139.75
c-3.56055 56.7969 -11.2812 142.11 -72.4629 167.823c-64.8936 27.2715 -140.092 -48.1455 -172.769 -96.123c-39.623 -58.1768 -69.3672 -134.435 -53.7021 -205.423c16.1982 -73.3984 78.3779 -115.388 152.489 -104.258z" />
    <glyph glyph-name="O" unicode="O" horiz-adv-x="796" 
d="M713.967 288.469c5.85938 -143.82 -10.1309 -309.857 -106.243 -424.5c-84.4443 -100.732 -246.924 -167.156 -369.948 -96.8691c-52.5635 30.0303 -93.4932 79.46 -118.045 134.514c-29.1445 65.3525 -30.1758 140.366 -24.625 210.653
c5.19727 65.7627 19.5059 132.36 45.207 193.671c-8.5332 8.66797 -16.6123 17.9473 -24.1143 27.9727c-43.0605 57.5762 -67.1758 129.77 -66.167 201.8c1.73242 123.692 79.6338 239.473 197.747 280.392c64.248 22.2539 132.443 27.5635 197.841 7.01465
c64.8262 -20.3691 113.712 -63.5137 151.277 -119.004c38.5527 -56.9424 62.3145 -123.45 80.6934 -189.285c20.7227 -74.2119 33.2373 -149.332 36.377 -226.358zM109.995 451.254c11.2861 -35.8613 28.9141 -69.9883 52.4014 -99.4072
c20.8965 38.2725 46.9229 73.6182 79.0498 104.108c41.7598 39.6348 99.2354 76.6621 159.273 58.8047c61.3887 -18.2617 67.8193 -81.6689 64.9434 -136.312c-1.21094 -22.9258 -49.4238 -37.5205 -47.9941 -12.7891c1.5752 27.2383 3.80664 58.1992 -8.84766 83.3398
c-14.4883 28.7744 -47.3555 37.9697 -76.8027 27.5859c-55.3896 -19.5283 -99.0049 -83.1094 -125.133 -132.64c-4.44043 -8.41016 -8.60059 -17 -12.5479 -25.7188c1.46875 -1.29004 2.83105 -2.69141 4.33398 -3.94727
c44.9834 -37.6719 102.812 -54.5596 160.327 -60.3965c72.3838 -7.34473 147.123 5.13086 212.896 36.2207c-0.795898 32.2451 -2.86523 64.3721 -6.02734 96.0898c-10.5801 106.188 -33.8037 223.941 -97.3906 312.366c-65.7568 91.4531 -183.909 120.267 -276.146 48.1123
c-88.1787 -68.9746 -115.181 -191.097 -82.3359 -295.417zM544.82 33.4922c18.9453 71.5596 26.9658 146.332 27.4482 220.964c-85.3916 -37.627 -182.059 -49.1436 -274.711 -30.4277c-44.1592 8.9209 -85.0781 25.5449 -120.463 50.6074
c-32.1045 -94.1611 -36.1914 -199.731 -3.01562 -292.625c17.7344 -49.6367 42.6738 -92.2539 85.9531 -123.63c35.8896 -26.0215 82.5273 -40.9023 126.484 -30.042c89.457 22.0967 135.837 120.289 158.304 205.153z" />
    <glyph glyph-name="O" unicode="&#xd6;" horiz-adv-x="796" 
d="M713.967 288.469c5.85938 -143.82 -10.1309 -309.857 -106.243 -424.5c-84.4443 -100.732 -246.924 -167.156 -369.948 -96.8691c-52.5635 30.0303 -93.4932 79.46 -118.045 134.514c-29.1445 65.3525 -30.1758 140.366 -24.625 210.653
c5.19727 65.7627 19.5059 132.36 45.207 193.671c-8.5332 8.66797 -16.6123 17.9473 -24.1143 27.9727c-43.0605 57.5762 -67.1758 129.77 -66.167 201.8c1.73242 123.692 79.6338 239.473 197.747 280.392c64.248 22.2539 132.443 27.5635 197.841 7.01465
c64.8262 -20.3691 113.712 -63.5137 151.277 -119.004c38.5527 -56.9424 62.3145 -123.45 80.6934 -189.285c20.7227 -74.2119 33.2373 -149.332 36.377 -226.358zM109.995 451.254c11.2861 -35.8613 28.9141 -69.9883 52.4014 -99.4072
c20.8965 38.2725 46.9229 73.6182 79.0498 104.108c41.7598 39.6348 99.2354 76.6621 159.273 58.8047c61.3887 -18.2617 67.8193 -81.6689 64.9434 -136.312c-1.21094 -22.9258 -49.4238 -37.5205 -47.9941 -12.7891c1.5752 27.2383 3.80664 58.1992 -8.84766 83.3398
c-14.4883 28.7744 -47.3555 37.9697 -76.8027 27.5859c-55.3896 -19.5283 -99.0049 -83.1094 -125.133 -132.64c-4.44043 -8.41016 -8.60059 -17 -12.5479 -25.7188c1.46875 -1.29004 2.83105 -2.69141 4.33398 -3.94727
c44.9834 -37.6719 102.812 -54.5596 160.327 -60.3965c72.3838 -7.34473 147.123 5.13086 212.896 36.2207c-0.795898 32.2451 -2.86523 64.3721 -6.02734 96.0898c-10.5801 106.188 -33.8037 223.941 -97.3906 312.366c-65.7568 91.4531 -183.909 120.267 -276.146 48.1123
c-88.1787 -68.9746 -115.181 -191.097 -82.3359 -295.417zM544.82 33.4922c18.9453 71.5596 26.9658 146.332 27.4482 220.964c-85.3916 -37.627 -182.059 -49.1436 -274.711 -30.4277c-44.1592 8.9209 -85.0781 25.5449 -120.463 50.6074
c-32.1045 -94.1611 -36.1914 -199.731 -3.01562 -292.625c17.7344 -49.6367 42.6738 -92.2539 85.9531 -123.63c35.8896 -26.0215 82.5273 -40.9023 126.484 -30.042c89.457 22.0967 135.837 120.289 158.304 205.153z" />
    <glyph glyph-name="O" unicode="&#xd5;" horiz-adv-x="796" 
d="M713.967 288.469c5.85938 -143.82 -10.1309 -309.857 -106.243 -424.5c-84.4443 -100.732 -246.924 -167.156 -369.948 -96.8691c-52.5635 30.0303 -93.4932 79.46 -118.045 134.514c-29.1445 65.3525 -30.1758 140.366 -24.625 210.653
c5.19727 65.7627 19.5059 132.36 45.207 193.671c-8.5332 8.66797 -16.6123 17.9473 -24.1143 27.9727c-43.0605 57.5762 -67.1758 129.77 -66.167 201.8c1.73242 123.692 79.6338 239.473 197.747 280.392c64.248 22.2539 132.443 27.5635 197.841 7.01465
c64.8262 -20.3691 113.712 -63.5137 151.277 -119.004c38.5527 -56.9424 62.3145 -123.45 80.6934 -189.285c20.7227 -74.2119 33.2373 -149.332 36.377 -226.358zM109.995 451.254c11.2861 -35.8613 28.9141 -69.9883 52.4014 -99.4072
c20.8965 38.2725 46.9229 73.6182 79.0498 104.108c41.7598 39.6348 99.2354 76.6621 159.273 58.8047c61.3887 -18.2617 67.8193 -81.6689 64.9434 -136.312c-1.21094 -22.9258 -49.4238 -37.5205 -47.9941 -12.7891c1.5752 27.2383 3.80664 58.1992 -8.84766 83.3398
c-14.4883 28.7744 -47.3555 37.9697 -76.8027 27.5859c-55.3896 -19.5283 -99.0049 -83.1094 -125.133 -132.64c-4.44043 -8.41016 -8.60059 -17 -12.5479 -25.7188c1.46875 -1.29004 2.83105 -2.69141 4.33398 -3.94727
c44.9834 -37.6719 102.812 -54.5596 160.327 -60.3965c72.3838 -7.34473 147.123 5.13086 212.896 36.2207c-0.795898 32.2451 -2.86523 64.3721 -6.02734 96.0898c-10.5801 106.188 -33.8037 223.941 -97.3906 312.366c-65.7568 91.4531 -183.909 120.267 -276.146 48.1123
c-88.1787 -68.9746 -115.181 -191.097 -82.3359 -295.417zM544.82 33.4922c18.9453 71.5596 26.9658 146.332 27.4482 220.964c-85.3916 -37.627 -182.059 -49.1436 -274.711 -30.4277c-44.1592 8.9209 -85.0781 25.5449 -120.463 50.6074
c-32.1045 -94.1611 -36.1914 -199.731 -3.01562 -292.625c17.7344 -49.6367 42.6738 -92.2539 85.9531 -123.63c35.8896 -26.0215 82.5273 -40.9023 126.484 -30.042c89.457 22.0967 135.837 120.289 158.304 205.153z" />
    <glyph glyph-name="O" unicode="&#xd4;" horiz-adv-x="796" 
d="M713.967 288.469c5.85938 -143.82 -10.1309 -309.857 -106.243 -424.5c-84.4443 -100.732 -246.924 -167.156 -369.948 -96.8691c-52.5635 30.0303 -93.4932 79.46 -118.045 134.514c-29.1445 65.3525 -30.1758 140.366 -24.625 210.653
c5.19727 65.7627 19.5059 132.36 45.207 193.671c-8.5332 8.66797 -16.6123 17.9473 -24.1143 27.9727c-43.0605 57.5762 -67.1758 129.77 -66.167 201.8c1.73242 123.692 79.6338 239.473 197.747 280.392c64.248 22.2539 132.443 27.5635 197.841 7.01465
c64.8262 -20.3691 113.712 -63.5137 151.277 -119.004c38.5527 -56.9424 62.3145 -123.45 80.6934 -189.285c20.7227 -74.2119 33.2373 -149.332 36.377 -226.358zM109.995 451.254c11.2861 -35.8613 28.9141 -69.9883 52.4014 -99.4072
c20.8965 38.2725 46.9229 73.6182 79.0498 104.108c41.7598 39.6348 99.2354 76.6621 159.273 58.8047c61.3887 -18.2617 67.8193 -81.6689 64.9434 -136.312c-1.21094 -22.9258 -49.4238 -37.5205 -47.9941 -12.7891c1.5752 27.2383 3.80664 58.1992 -8.84766 83.3398
c-14.4883 28.7744 -47.3555 37.9697 -76.8027 27.5859c-55.3896 -19.5283 -99.0049 -83.1094 -125.133 -132.64c-4.44043 -8.41016 -8.60059 -17 -12.5479 -25.7188c1.46875 -1.29004 2.83105 -2.69141 4.33398 -3.94727
c44.9834 -37.6719 102.812 -54.5596 160.327 -60.3965c72.3838 -7.34473 147.123 5.13086 212.896 36.2207c-0.795898 32.2451 -2.86523 64.3721 -6.02734 96.0898c-10.5801 106.188 -33.8037 223.941 -97.3906 312.366c-65.7568 91.4531 -183.909 120.267 -276.146 48.1123
c-88.1787 -68.9746 -115.181 -191.097 -82.3359 -295.417zM544.82 33.4922c18.9453 71.5596 26.9658 146.332 27.4482 220.964c-85.3916 -37.627 -182.059 -49.1436 -274.711 -30.4277c-44.1592 8.9209 -85.0781 25.5449 -120.463 50.6074
c-32.1045 -94.1611 -36.1914 -199.731 -3.01562 -292.625c17.7344 -49.6367 42.6738 -92.2539 85.9531 -123.63c35.8896 -26.0215 82.5273 -40.9023 126.484 -30.042c89.457 22.0967 135.837 120.289 158.304 205.153z" />
    <glyph glyph-name="O" unicode="&#xd3;" horiz-adv-x="796" 
d="M713.967 288.469c5.85938 -143.82 -10.1309 -309.857 -106.243 -424.5c-84.4443 -100.732 -246.924 -167.156 -369.948 -96.8691c-52.5635 30.0303 -93.4932 79.46 -118.045 134.514c-29.1445 65.3525 -30.1758 140.366 -24.625 210.653
c5.19727 65.7627 19.5059 132.36 45.207 193.671c-8.5332 8.66797 -16.6123 17.9473 -24.1143 27.9727c-43.0605 57.5762 -67.1758 129.77 -66.167 201.8c1.73242 123.692 79.6338 239.473 197.747 280.392c64.248 22.2539 132.443 27.5635 197.841 7.01465
c64.8262 -20.3691 113.712 -63.5137 151.277 -119.004c38.5527 -56.9424 62.3145 -123.45 80.6934 -189.285c20.7227 -74.2119 33.2373 -149.332 36.377 -226.358zM109.995 451.254c11.2861 -35.8613 28.9141 -69.9883 52.4014 -99.4072
c20.8965 38.2725 46.9229 73.6182 79.0498 104.108c41.7598 39.6348 99.2354 76.6621 159.273 58.8047c61.3887 -18.2617 67.8193 -81.6689 64.9434 -136.312c-1.21094 -22.9258 -49.4238 -37.5205 -47.9941 -12.7891c1.5752 27.2383 3.80664 58.1992 -8.84766 83.3398
c-14.4883 28.7744 -47.3555 37.9697 -76.8027 27.5859c-55.3896 -19.5283 -99.0049 -83.1094 -125.133 -132.64c-4.44043 -8.41016 -8.60059 -17 -12.5479 -25.7188c1.46875 -1.29004 2.83105 -2.69141 4.33398 -3.94727
c44.9834 -37.6719 102.812 -54.5596 160.327 -60.3965c72.3838 -7.34473 147.123 5.13086 212.896 36.2207c-0.795898 32.2451 -2.86523 64.3721 -6.02734 96.0898c-10.5801 106.188 -33.8037 223.941 -97.3906 312.366c-65.7568 91.4531 -183.909 120.267 -276.146 48.1123
c-88.1787 -68.9746 -115.181 -191.097 -82.3359 -295.417zM544.82 33.4922c18.9453 71.5596 26.9658 146.332 27.4482 220.964c-85.3916 -37.627 -182.059 -49.1436 -274.711 -30.4277c-44.1592 8.9209 -85.0781 25.5449 -120.463 50.6074
c-32.1045 -94.1611 -36.1914 -199.731 -3.01562 -292.625c17.7344 -49.6367 42.6738 -92.2539 85.9531 -123.63c35.8896 -26.0215 82.5273 -40.9023 126.484 -30.042c89.457 22.0967 135.837 120.289 158.304 205.153z" />
    <glyph glyph-name="P" unicode="P" horiz-adv-x="1202" 
d="M806.623 78.0283c-70.0566 37.9023 -86.3652 110.295 -71.2715 184.12c30.2432 147.992 141.92 276.528 277.123 339.409c1.69336 0.785156 3.33594 1.40234 4.92285 1.86816c-2.41699 10.7314 -5.14746 21.3115 -8.27051 31.667
c-18.9619 62.8301 -46.5703 162.368 -132.383 156.677c-77.3125 -5.125 -106.204 -112.439 -121.74 -172.623c-20.9023 -80.9346 -29.5146 -164.79 -38.2559 -247.726c-18.3848 -174.372 -30.8711 -349.187 -55.5918 -522.863
c-5.34863 -37.5996 -12.542 -74.5088 -24.165 -110.718c-10.1816 -31.7119 -18.8213 -68.4141 -50.0791 -85.5938c-76.124 -41.8379 -136.599 53.1074 -158.28 114.205c-26.9629 75.9893 -24.8545 165.878 -21.2666 245.214
c3.94727 87.2812 11.5332 174.372 17.8525 261.496c3.05566 42.1523 5.64062 84.5957 7.27734 127.073c-22.3711 -15.4248 -45.7402 -29.3975 -70.5615 -40.4033c-71.1445 -31.5439 -158.308 -39.96 -225.472 5.78027c-60.6152 41.2773 -91.6377 115.226 -85.7559 187.363
c13.0752 160.405 179.855 280.963 336.011 241.805c183.623 -46.0488 187.918 -287.96 186.067 -439.389c-1.21094 -99.2578 -9.2959 -198.218 -11.8867 -297.425c-2.41113 -92.165 -8.39355 -186.932 5.91504 -278.457c2.43945 -15.6035 5.92676 -31.4873 11.9482 -46.2559
c3.82422 6.97461 8.62402 14.2129 10.4131 19.209c14.8525 41.4678 21.502 86.3672 28.3145 129.714c15.9238 101.287 24.7432 203.808 34.3477 305.841c9.34668 99.3076 18.0762 198.812 31.8018 297.638c11.8135 85.0439 27.165 177.539 71.1562 252.755
c40.0215 68.4258 106.02 103.771 184.936 86.665c78.9609 -17.1172 144.785 -88.5928 174.591 -161.117c66.3115 -161.342 46.9287 -383.383 -77.498 -512.592c-53.9043 -55.9785 -151.496 -115.915 -230.199 -73.3369zM226.252 372.164
c76.9482 -14.5605 147.629 24.5967 207.498 69.0811c0.711914 31.7061 0.8125 63.3848 0.0332031 94.9346c-1.53027 61.8037 -5.8584 139.307 -51.543 186.135c-55.7656 57.167 -136.279 44.9277 -195.493 -0.330078c-60.542 -46.2783 -99.7676 -124.358 -90.5049 -201.239
c8.44922 -70.1523 58.6914 -135.085 130.01 -148.581zM852.562 423.46c-39.377 -56.7021 -82.6738 -144.071 -69.1162 -215.659c15.5986 -82.3926 108.975 -76.3652 153.97 -24.4629c50.7305 58.5068 75.1934 141.051 86.5303 216.036
c8.24805 54.5264 8.52832 113.487 -0.0947266 169.746c-68.583 -33.0186 -127.797 -83.0205 -171.289 -145.66z" />
    <glyph glyph-name="Q" unicode="Q" horiz-adv-x="796" 
d="M607.724 -136.034c-52.8105 -63.0039 -136.146 -112.588 -221.274 -123.684c81.6797 -29.8057 172.505 -68.4756 256.854 -31.4092c27.5234 12.0938 42.8916 -18.9004 15.1602 -31.084c-83.8613 -36.8535 -171.232 -18.4238 -254.309 10.9844
c-95.3887 33.7646 -193.34 72.9287 -295.872 47.3447c-31.123 -7.77148 -29.2275 29.0986 -2.97656 35.6475c37.1338 9.26758 74.3516 11.5439 111.301 8.95312c-42.4102 30.2715 -75.7314 73.4775 -96.875 120.895c-29.1445 65.3525 -30.1758 140.366 -24.625 210.653
c5.19727 65.7627 19.5059 132.36 45.207 193.671c-8.5332 8.66797 -16.6123 17.9473 -24.1143 27.9727c-43.0605 57.5762 -67.1758 129.77 -66.167 201.8c1.73242 123.692 79.6338 239.473 197.747 280.392c64.248 22.2539 132.443 27.5635 197.841 7.01465
c64.8262 -20.3691 113.712 -63.5137 151.277 -119.004c38.5527 -56.9424 62.3145 -123.45 80.6934 -189.285c20.7168 -74.2119 33.2314 -149.332 36.3711 -226.358c5.86426 -143.82 -10.126 -309.85 -106.238 -424.503zM110 451.254
c11.2861 -35.8613 28.9141 -69.9883 52.3955 -99.4072c20.8965 38.2725 46.9229 73.6182 79.0498 104.108c41.7598 39.6348 99.2354 76.6621 159.273 58.8047c61.3887 -18.2617 67.8193 -81.6689 64.9434 -136.312c-1.21094 -22.9258 -49.4238 -37.5205 -47.9941 -12.7891
c1.5752 27.2383 3.80664 58.1992 -8.84766 83.3398c-14.4883 28.7744 -47.3555 37.9697 -76.8027 27.5859c-55.3896 -19.5283 -99.0049 -83.1094 -125.133 -132.64c-4.44043 -8.41016 -8.60059 -17 -12.5479 -25.7188c1.46875 -1.29004 2.83105 -2.69141 4.33398 -3.94727
c44.9893 -37.6719 102.818 -54.5596 160.333 -60.3965c72.3838 -7.34473 147.123 5.13086 212.896 36.2207c-0.795898 32.2451 -2.86523 64.3721 -6.02734 96.0898c-10.5801 106.188 -33.8037 223.941 -97.3906 312.366c-65.7568 91.4531 -183.903 120.267 -276.146 48.1123
c-88.1787 -68.9746 -115.181 -191.097 -82.3359 -295.417zM544.825 33.4922c18.9453 71.5596 26.9658 146.332 27.4482 220.964c-85.3975 -37.627 -182.059 -49.1436 -274.711 -30.4277c-44.1592 8.9209 -85.0781 25.5449 -120.463 50.6074
c-32.1045 -94.1611 -36.1914 -199.731 -3.01562 -292.625c17.7344 -49.6367 42.6738 -92.2539 85.9531 -123.63c35.8896 -26.0215 82.5273 -40.9023 126.484 -30.042c89.457 22.0967 135.837 120.289 158.304 205.153z" />
    <glyph glyph-name="R" unicode="R" horiz-adv-x="1086" 
d="M365.577 341.369c-71.7725 -71.0771 -195.521 -82.8438 -270.826 0.960938c-54.3691 60.5088 -52.3281 143.153 -30.0244 216.961c21.3223 70.5732 57.3291 138.578 113.7 187.296c51.9131 44.8711 115.107 64.4727 181.946 45.46
c64.9492 -18.4688 98.8145 -75.0137 117.099 -136.341c48.3193 -162.048 30.8096 -333.409 19.9492 -499.376c-5.43848 -83.1211 -10.7031 -166.483 -12.1387 -249.772c-0.701172 -40.6436 0.599609 -80.8105 2.8252 -121.359
c1.83301 -33.377 4.13184 -65.9521 27.2939 -92.4834c0.795898 -0.857422 6.63867 -7.39453 7.92285 -9.09863c0.504883 0.257812 1.05957 0.549805 1.69336 0.875c11.8477 13.4062 19.3438 30.3105 25.9658 46.7217c14.2861 35.3848 24.6416 72.6816 31.9141 110.096
c15.5869 80.1602 24.0752 161.801 32.1211 242.999c2.125 21.4463 4.1377 42.9092 6.09473 64.3887c-7.91113 4.84473 -14.168 11.9883 -17.1504 21.7549c-6.22949 20.3916 6.99121 42.8584 24.1816 56.7744c10.9727 122.912 22.624 245.847 46.3301 366.977
c12.5371 64.0693 30.9727 130.264 80.542 175.942c44.1758 40.7109 106.927 65.0332 166.022 43.374c64.0244 -23.4648 98.5234 -100.939 105.146 -164.313c7.44629 -71.2568 -10.2656 -143.181 -38.9727 -208.04c-50.2822 -113.611 -140.586 -215.218 -252.509 -271.258
c44.1143 -31.5889 67.2031 -92.8711 85.835 -144.325c30.3164 -83.7373 59.5781 -169.556 107.533 -245.253c42.8135 -67.5732 107.443 -123.024 179.614 -157.68c34.291 -16.4619 83.457 -37.5439 120.933 -20.875c36.2314 16.1143 52.7881 62.6562 54.8066 99.3418
c1.19434 21.7822 47.3779 37.3975 46.8281 12.4805c-1.90039 -85.9131 -61.4443 -159.604 -150.48 -163.478c-49.7041 -2.16406 -102.521 11.1299 -150.543 22.6855c-49.1719 11.8301 -96.835 30.0469 -138.628 58.9502c-85.7393 59.2979 -134.866 150.431 -168.143 246.733
c-18.542 53.6631 -30.4453 109.288 -44.3955 164.229c-4.3623 17.168 -9.50977 33.9434 -14.9092 50.6123c-6.9248 -75.0977 -15.0879 -150.055 -27.6025 -224.418c-14.623 -86.8887 -50.9717 -312.069 -188.069 -255.138
c-56.0459 23.2734 -86.5918 97.502 -95.7031 153.407c-11.4775 70.4609 -12.4814 142.794 -11.5 214.006c1.02051 74.1504 9.40234 148.424 15.3457 222.305c3.69531 45.9531 6.83496 91.9121 9.95215 137.877zM710.479 532.568
c-12.1445 -73.6738 -20.6816 -147.875 -28.0156 -222.159c-1.94043 -19.6074 -3.74609 -39.2373 -5.50098 -58.8721c104.926 51.4199 189.196 147.095 229.554 259.893c22.623 63.2275 31.0557 139.071 3.61035 202.316c-11.752 27.0811 -31.9141 52.9785 -63.6768 54.8564
c-32.6875 1.93457 -60.8789 -17.5098 -78.8428 -43.1719c-38.2441 -54.627 -46.5537 -128.721 -57.1279 -192.862zM523.046 -316.383c-3.72266 -2.01855 -3.64551 -2.03027 0.111328 -0.0957031c-0.0449219 0.0390625 -0.0556641 0.0449219 -0.111328 0.0957031z
M106.353 414.498c20.5039 -52.1436 72.6982 -91.709 128.945 -95.2637c62.9697 -3.98047 118.292 42.4941 135.718 100.984c0.202148 2.83691 0.392578 5.66797 0.594727 8.49902c5.28711 73.6562 7.66406 145.962 -3.80762 219.227
c-4.31738 27.5742 -12.9521 55.7705 -25.3037 80.7715c-16.0576 32.5029 -44.6855 39.584 -78.5449 28.8809c-60.5195 -19.1309 -102.957 -78.2607 -129.275 -132.843c-29.8672 -61.9443 -54.7227 -143.131 -28.3262 -210.256z" />
    <glyph glyph-name="S" unicode="S" horiz-adv-x="713" 
d="M162.053 43.126c33.7139 40.8174 83.2441 84.7217 137.58 107.064c-79.8975 62.3818 -157.815 126.591 -205.277 217.858c-50.5117 97.1494 -60.127 210.379 -17.1953 312.059c35.9678 85.1846 112.271 167.386 203.824 191.192
c87.3369 22.708 170.643 -16.6406 216.495 -92.832c52.9229 -87.9375 31.5781 -197.69 -16.248 -282.64c-10.8379 -19.2539 -56.2471 -19.2988 -41.6748 6.87891c57.7109 103.676 64.6074 262.735 -61.3662 320.144c-51.3809 23.4141 -107.241 10.373 -147.84 -27.5459
c-40.5039 -37.8291 -56.6631 -90.7803 -59.8594 -144.824c-14.0898 -238.29 221.407 -361.971 366.052 -509.929c76.8857 -78.6523 136.391 -175.039 124.739 -288.896c-10.2158 -99.874 -74.4248 -193.238 -157.904 -246.991
c-86.2666 -55.5469 -187.341 -87.001 -287.832 -51.0449c-94.9678 33.9824 -151.63 121.235 -152.947 220.829c-1.28418 97.0312 38.0928 194.394 99.4541 268.678zM330.717 125.986c-42.668 -11.7012 -84.2373 -46.1221 -111.38 -73.8086
c-38.6982 -39.4893 -68.6719 -87.7754 -87.4658 -139.768c-38.6924 -107.057 -32.9121 -242.915 75.8096 -306.059c92.6133 -53.7969 216.978 -31.0439 289.104 46.7109c65.4316 70.5342 86.7715 167.498 41.2109 254.409
c-47.9658 91.4863 -126.759 155.729 -207.278 218.515z" />
    <glyph glyph-name="T" unicode="T" horiz-adv-x="857" 
d="M1274.29 1033.34c83.0205 -58.9668 -49.8398 -176.015 -96.7637 -210.278c-134.3 -98.0518 -309.177 -133.296 -473.703 -154.669c4.5752 -147.14 3.58887 -294.526 9.31348 -441.638c3.50977 -90.2529 7.79883 -180.534 12.4697 -270.736
c2.29883 -44.3838 4.1543 -88.7725 6.34082 -133.156c2.28711 -46.4863 6.06641 -95.3271 -7.93945 -140.255c-9.46973 -30.3721 -60.6094 -54.1562 -81.6914 -22.0625c-25.2979 38.5137 -29.873 89.5576 -36.2422 134.39
c-6.16797 43.4082 -11.8584 86.8271 -16.5176 130.426c-1.2334 11.5557 -2.30469 23.1172 -3.4541 34.6787c-21.1377 133.279 -46.2842 265.769 -99.6104 390.139c-36.2373 84.5117 -84.624 164.762 -149.344 230.58c-20.6104 20.958 -45.292 43.4297 -72.5186 63.5977
c-33.2314 2.62988 -66.3174 6.91309 -98.9883 13.6689c-40.0771 8.28711 -84.584 17.6895 -111.917 50.6855c-10.7422 12.9746 3.80176 29.4473 17.5557 32.167c78.4395 15.5088 153.531 -16.2197 217.499 -60.334c29.8789 -2.25391 59.8643 -3.08398 89.8496 -2.84277
c60.918 0.493164 122.582 3.22363 184.263 8.29199c1.14355 19.1758 2.4502 38.3398 4.04785 57.4873c4.46875 53.5283 129.501 89.4004 133.017 21.8662c1.10449 -21.1992 2.0127 -42.4043 2.80371 -63.6152c72.8154 10.4795 144.896 24.502 215.021 42.5615
c73.1406 18.833 146.119 44.1426 210.244 84.7754c38.418 24.3447 178.499 129.859 113.37 179.418c-16.9775 12.9121 17.8018 35.5752 32.8955 24.8545zM147.409 703.154c5.87012 -1.90625 11.8594 -3.57227 17.9199 -5.03516
c-5.94922 1.93457 -11.9209 3.61621 -17.9199 5.03516zM339.993 640.974c116.021 -99.5996 181.856 -230.518 224.412 -372.757c-6.07812 127.841 -9.24023 256.068 -3.30273 383.876c-73.4824 -7.24414 -147.47 -12.1729 -221.109 -11.1191z" />
    <glyph glyph-name="U" unicode="U" horiz-adv-x="955" 
d="M680.827 1.29395c-11.707 84.0801 -13.2295 168.588 -10.6172 253.11c-7.82129 -36.96 -16.5283 -73.7354 -26.5811 -110.235c-21.7373 -78.9326 -47.6182 -167.985 -93.4707 -236.73c-41.6758 -62.4824 -132.91 -110.174 -199.087 -53.0176
c-66.1719 57.1562 -71.5547 172.478 -71.291 252.997c0.331055 99.9805 17.1855 199.412 31.6123 298.064c5.34375 36.5117 10.3896 72.9277 14.2412 109.383c-55.5693 -41.7207 -130.51 -59.1523 -196.563 -33.8604c-91.6602 35.0928 -93.8408 143.354 -55.9277 220.017
c34.2188 69.1934 103.44 123.619 180.035 136.61c91.5596 15.5254 158.012 -45.0391 186.713 -128.037c33.4336 -96.6895 26.5986 -205.557 19.332 -305.84c-7.38965 -102.044 -21.3447 -203.942 -19.6406 -306.463c0.830078 -50.1699 1.37402 -101.203 8.74707 -150.919
c3.85156 -25.9766 17.1846 -67.5117 47.2822 -44.5352c36.4834 27.8545 54.8789 90.3818 70.3926 131.479c16.9043 44.7871 30.8877 90.6562 42.8584 136.996c49.1943 190.486 62.8242 387.835 102.442 580.244c0.341797 1.64844 0.998047 3.19043 1.79395 4.6709
c1.01465 5.43848 2.0127 10.8828 3.09473 16.2988c3.76172 18.8389 24.0869 32.957 41.5576 37.5713c13.0137 3.43652 40.8291 3.17871 45.752 -13.9893c8.56152 -29.834 15.1836 -56.5449 18.2842 -87.6572c3.04492 -30.5068 3.73438 -61.3496 4.46289 -91.9912
c1.39062 -58.3389 -1.35645 -116.919 -4.10352 -175.185c-9.44727 -200.455 -15.5195 -412.858 38.8164 -608.194c21.3506 -76.752 69.5244 -180.966 159.788 -191.742c45.6396 -5.4502 93.7744 24.1816 87.2871 75.0352c-5.71875 44.8213 -54.4648 59.1074 -91.834 67.877
c-27.8154 6.52637 -1.44141 40.0547 19.2139 35.21c44.8936 -10.5352 98.8086 -26.1777 114.984 -75.0527c15.9629 -48.2188 -13.1084 -99.291 -53.7295 -124.538c-86.9502 -54.0332 -208.349 -14.3594 -275.608 53.2529c-84.8086 85.2461 -124.039 212.823 -140.237 329.17
zM109.726 542.701c57.2734 -73.5898 170.604 -38.7715 220.459 23.918c2.95508 42.8701 3.66699 85.8857 0.65625 129.271c-2.37695 34.252 -8.18555 80.5918 -41.1924 99.3975c-38.4629 21.9111 -91.9346 -5.24219 -123.114 -29.7607
c-59.8027 -47.0186 -110.539 -153.795 -56.8086 -222.826z" />
    <glyph glyph-name="U" unicode="&#xdc;" horiz-adv-x="955" 
d="M680.827 1.29395c-11.707 84.0801 -13.2295 168.588 -10.6172 253.11c-7.82129 -36.96 -16.5283 -73.7354 -26.5811 -110.235c-21.7373 -78.9326 -47.6182 -167.985 -93.4707 -236.73c-41.6758 -62.4824 -132.91 -110.174 -199.087 -53.0176
c-66.1719 57.1562 -71.5547 172.478 -71.291 252.997c0.331055 99.9805 17.1855 199.412 31.6123 298.064c5.34375 36.5117 10.3896 72.9277 14.2412 109.383c-55.5693 -41.7207 -130.51 -59.1523 -196.563 -33.8604c-91.6602 35.0928 -93.8408 143.354 -55.9277 220.017
c34.2188 69.1934 103.44 123.619 180.035 136.61c91.5596 15.5254 158.012 -45.0391 186.713 -128.037c33.4336 -96.6895 26.5986 -205.557 19.332 -305.84c-7.38965 -102.044 -21.3447 -203.942 -19.6406 -306.463c0.830078 -50.1699 1.37402 -101.203 8.74707 -150.919
c3.85156 -25.9766 17.1846 -67.5117 47.2822 -44.5352c36.4834 27.8545 54.8789 90.3818 70.3926 131.479c16.9043 44.7871 30.8877 90.6562 42.8584 136.996c49.1943 190.486 62.8242 387.835 102.442 580.244c0.341797 1.64844 0.998047 3.19043 1.79395 4.6709
c1.01465 5.43848 2.0127 10.8828 3.09473 16.2988c3.76172 18.8389 24.0869 32.957 41.5576 37.5713c13.0137 3.43652 40.8291 3.17871 45.752 -13.9893c8.56152 -29.834 15.1836 -56.5449 18.2842 -87.6572c3.04492 -30.5068 3.73438 -61.3496 4.46289 -91.9912
c1.39062 -58.3389 -1.35645 -116.919 -4.10352 -175.185c-9.44727 -200.455 -15.5195 -412.858 38.8164 -608.194c21.3506 -76.752 69.5244 -180.966 159.788 -191.742c45.6396 -5.4502 93.7744 24.1816 87.2871 75.0352c-5.71875 44.8213 -54.4648 59.1074 -91.834 67.877
c-27.8154 6.52637 -1.44141 40.0547 19.2139 35.21c44.8936 -10.5352 98.8086 -26.1777 114.984 -75.0527c15.9629 -48.2188 -13.1084 -99.291 -53.7295 -124.538c-86.9502 -54.0332 -208.349 -14.3594 -275.608 53.2529c-84.8086 85.2461 -124.039 212.823 -140.237 329.17
zM109.726 542.701c57.2734 -73.5898 170.604 -38.7715 220.459 23.918c2.95508 42.8701 3.66699 85.8857 0.65625 129.271c-2.37695 34.252 -8.18555 80.5918 -41.1924 99.3975c-38.4629 21.9111 -91.9346 -5.24219 -123.114 -29.7607
c-59.8027 -47.0186 -110.539 -153.795 -56.8086 -222.826z" />
    <glyph glyph-name="U" unicode="&#xdb;" horiz-adv-x="955" 
d="M680.827 1.29395c-11.707 84.0801 -13.2295 168.588 -10.6172 253.11c-7.82129 -36.96 -16.5283 -73.7354 -26.5811 -110.235c-21.7373 -78.9326 -47.6182 -167.985 -93.4707 -236.73c-41.6758 -62.4824 -132.91 -110.174 -199.087 -53.0176
c-66.1719 57.1562 -71.5547 172.478 -71.291 252.997c0.331055 99.9805 17.1855 199.412 31.6123 298.064c5.34375 36.5117 10.3896 72.9277 14.2412 109.383c-55.5693 -41.7207 -130.51 -59.1523 -196.563 -33.8604c-91.6602 35.0928 -93.8408 143.354 -55.9277 220.017
c34.2188 69.1934 103.44 123.619 180.035 136.61c91.5596 15.5254 158.012 -45.0391 186.713 -128.037c33.4336 -96.6895 26.5986 -205.557 19.332 -305.84c-7.38965 -102.044 -21.3447 -203.942 -19.6406 -306.463c0.830078 -50.1699 1.37402 -101.203 8.74707 -150.919
c3.85156 -25.9766 17.1846 -67.5117 47.2822 -44.5352c36.4834 27.8545 54.8789 90.3818 70.3926 131.479c16.9043 44.7871 30.8877 90.6562 42.8584 136.996c49.1943 190.486 62.8242 387.835 102.442 580.244c0.341797 1.64844 0.998047 3.19043 1.79395 4.6709
c1.01465 5.43848 2.0127 10.8828 3.09473 16.2988c3.76172 18.8389 24.0869 32.957 41.5576 37.5713c13.0137 3.43652 40.8291 3.17871 45.752 -13.9893c8.56152 -29.834 15.1836 -56.5449 18.2842 -87.6572c3.04492 -30.5068 3.73438 -61.3496 4.46289 -91.9912
c1.39062 -58.3389 -1.35645 -116.919 -4.10352 -175.185c-9.44727 -200.455 -15.5195 -412.858 38.8164 -608.194c21.3506 -76.752 69.5244 -180.966 159.788 -191.742c45.6396 -5.4502 93.7744 24.1816 87.2871 75.0352c-5.71875 44.8213 -54.4648 59.1074 -91.834 67.877
c-27.8154 6.52637 -1.44141 40.0547 19.2139 35.21c44.8936 -10.5352 98.8086 -26.1777 114.984 -75.0527c15.9629 -48.2188 -13.1084 -99.291 -53.7295 -124.538c-86.9502 -54.0332 -208.349 -14.3594 -275.608 53.2529c-84.8086 85.2461 -124.039 212.823 -140.237 329.17
zM109.726 542.701c57.2734 -73.5898 170.604 -38.7715 220.459 23.918c2.95508 42.8701 3.66699 85.8857 0.65625 129.271c-2.37695 34.252 -8.18555 80.5918 -41.1924 99.3975c-38.4629 21.9111 -91.9346 -5.24219 -123.114 -29.7607
c-59.8027 -47.0186 -110.539 -153.795 -56.8086 -222.826z" />
    <glyph glyph-name="U" unicode="&#xda;" horiz-adv-x="955" 
d="M680.827 1.29395c-11.707 84.0801 -13.2295 168.588 -10.6172 253.11c-7.82129 -36.96 -16.5283 -73.7354 -26.5811 -110.235c-21.7373 -78.9326 -47.6182 -167.985 -93.4707 -236.73c-41.6758 -62.4824 -132.91 -110.174 -199.087 -53.0176
c-66.1719 57.1562 -71.5547 172.478 -71.291 252.997c0.331055 99.9805 17.1855 199.412 31.6123 298.064c5.34375 36.5117 10.3896 72.9277 14.2412 109.383c-55.5693 -41.7207 -130.51 -59.1523 -196.563 -33.8604c-91.6602 35.0928 -93.8408 143.354 -55.9277 220.017
c34.2188 69.1934 103.44 123.619 180.035 136.61c91.5596 15.5254 158.012 -45.0391 186.713 -128.037c33.4336 -96.6895 26.5986 -205.557 19.332 -305.84c-7.38965 -102.044 -21.3447 -203.942 -19.6406 -306.463c0.830078 -50.1699 1.37402 -101.203 8.74707 -150.919
c3.85156 -25.9766 17.1846 -67.5117 47.2822 -44.5352c36.4834 27.8545 54.8789 90.3818 70.3926 131.479c16.9043 44.7871 30.8877 90.6562 42.8584 136.996c49.1943 190.486 62.8242 387.835 102.442 580.244c0.341797 1.64844 0.998047 3.19043 1.79395 4.6709
c1.01465 5.43848 2.0127 10.8828 3.09473 16.2988c3.76172 18.8389 24.0869 32.957 41.5576 37.5713c13.0137 3.43652 40.8291 3.17871 45.752 -13.9893c8.56152 -29.834 15.1836 -56.5449 18.2842 -87.6572c3.04492 -30.5068 3.73438 -61.3496 4.46289 -91.9912
c1.39062 -58.3389 -1.35645 -116.919 -4.10352 -175.185c-9.44727 -200.455 -15.5195 -412.858 38.8164 -608.194c21.3506 -76.752 69.5244 -180.966 159.788 -191.742c45.6396 -5.4502 93.7744 24.1816 87.2871 75.0352c-5.71875 44.8213 -54.4648 59.1074 -91.834 67.877
c-27.8154 6.52637 -1.44141 40.0547 19.2139 35.21c44.8936 -10.5352 98.8086 -26.1777 114.984 -75.0527c15.9629 -48.2188 -13.1084 -99.291 -53.7295 -124.538c-86.9502 -54.0332 -208.349 -14.3594 -275.608 53.2529c-84.8086 85.2461 -124.039 212.823 -140.237 329.17
zM109.726 542.701c57.2734 -73.5898 170.604 -38.7715 220.459 23.918c2.95508 42.8701 3.66699 85.8857 0.65625 129.271c-2.37695 34.252 -8.18555 80.5918 -41.1924 99.3975c-38.4629 21.9111 -91.9346 -5.24219 -123.114 -29.7607
c-59.8027 -47.0186 -110.539 -153.795 -56.8086 -222.826z" />
    <glyph glyph-name="V" unicode="V" horiz-adv-x="1197" 
d="M1124.67 680.711c20.6387 -74.3018 25.9062 -151.782 21.1348 -228.545c-9.63281 -155.079 -50.3779 -314.924 -117.424 -455.218c-31.2188 -65.3135 -66.2725 -137.26 -121.69 -185.551c-46.5645 -40.582 -116.594 -72.2266 -179.025 -74.0771
c-108.346 -3.21289 -186.656 102.397 -219.165 190.536c-43.8457 118.893 -64.1875 245.281 -77.9521 371.138c-29.3799 -27.0645 -66.5977 -46.29 -104.55 -56.5557c-65.252 -17.6504 -128.262 -5.02344 -180.512 38.3682
c-114.475 95.0635 -123.613 275.598 -40.3408 393.189c37.4756 52.9229 95.5117 94.7383 161.319 101.539c62.667 6.48145 126.007 -23.4365 167.436 -69.3398c46.834 -51.8857 69.8838 -120.474 91.3076 -185.619c26.918 -81.8594 47.2598 -164.061 61.5576 -248.953
c12.3906 -73.5674 25.8418 -146.231 47.4277 -217.69c2.45605 -8.12988 4.6875 -16.3154 6.94141 -24.501c-0.431641 1.60938 2.62988 -9.3291 2.93262 -10.3779c2.64648 -9.21191 5.32617 -18.4131 8.1748 -27.5635c4.47949 -14.3818 9.48633 -28.5498 13.209 -43.1553
c3.02246 -11.8525 5.48926 -22.001 7.40137 -27.9609c11.7129 -36.4775 27.793 -82.4199 61.5742 -102.402c41.249 -24.4062 103.435 4.98438 137.905 30.7139c59.4434 44.3721 98.5225 124.802 128.277 191.001c16.4443 36.5957 30.7197 74.2227 43.1553 112.467
c-70.2812 14.7119 -138.118 54.4473 -184.38 109.013c-51.3027 60.5029 -66.7832 146.629 -72.127 223.476c-5.98242 86.0312 2.2373 177.153 48.1406 252.262c35.6709 58.3721 109.4 129.253 184.627 103.395c63.166 -21.71 88.6543 -102.017 104.645 -159.587z
M278.194 270.701c55.7373 0.112305 115.408 28.7783 147.479 75.3096c-0.0898438 0.936523 -0.19043 1.86719 -0.280273 2.80371c-8.35938 85.1621 -23.4189 170.134 -44.1758 253.126c-14.4316 57.7168 -42.6953 140.361 -114.967 137.384
c-77.7549 -3.20703 -135.842 -75.1143 -158.403 -143.809c-23.0605 -70.209 -17.874 -148.368 16.3779 -214.035c29.6377 -56.8193 86.1377 -110.914 153.969 -110.779zM1075.76 267.772c35.3115 151.709 46.9248 321.301 -18.1533 466.96
c-14.6787 32.8389 -39.6289 76.6895 -81.2822 75.6406c-36.6689 -0.924805 -69.71 -34.4199 -90.0684 -61.8936c-50.9941 -68.8066 -60.0156 -158.331 -54.8574 -241.25c4.55859 -73.2871 17.1514 -159.212 66.2334 -217.17
c40.2734 -47.5518 97.3848 -83.3623 158.207 -98.417c7.32227 25.2197 13.9834 50.624 19.9209 76.1299z" />
    <glyph glyph-name="W" unicode="W" horiz-adv-x="1499" 
d="M1380.77 156.093c-35.043 -96.2686 -80.7012 -206.463 -160.016 -274.934c-75.6191 -65.291 -185.967 -85.7002 -272.581 -30.0693c-96.0781 61.709 -133.705 171.188 -151.417 279.068c-3.24121 19.7188 -5.83691 39.7461 -7.92871 59.8799
c-18.1777 -72.9219 -41.917 -155.056 -93.6123 -211.544c-47.1699 -51.5381 -115.422 -68.3359 -181.874 -49.0713c-80.8447 23.4365 -121.948 90.0957 -141.667 167.868c-22.0352 86.9111 -22.0352 177.08 -21.3066 267.311
c-38.4795 -40.0664 -89.832 -66.3516 -147.862 -64.2822c-84.9316 3.02734 -143.074 72.3105 -151.271 153.789c-13.9053 138.281 91.3623 316.067 242.505 314.458c83.5977 -0.891602 128.385 -66.3789 155.74 -137.826
c31.1406 -81.3271 40.9023 -168.406 47.2266 -254.684c6.26855 -85.5205 10.6367 -172.505 28.752 -256.551c7.62012 -35.3232 17.1572 -72.2158 37.2354 -102.846c16.4844 -25.1465 49.6211 -47.9551 78.9561 -29.5869c30.2656 18.9512 47.8594 54.3975 61.8428 85.9697
c18.3789 41.4961 31.4707 85.1006 41.9951 129.187c17.9697 75.2773 27.7988 152.136 36.6016 228.96c1.09863 17.2578 3.11133 34.4092 6.64355 51.3477c6.94727 33.2764 66.5254 56.7129 86.749 23.4307c28.2412 -46.4746 33.3545 -104.932 42.8408 -157.955
c9.4082 -52.5752 14.4883 -105.795 24.5859 -158.297c9.72266 -50.5898 19.832 -101.388 36.8545 -150.134c13.3213 -38.1543 26.7832 -79.4707 50.9258 -112.438c21.3506 -29.1494 54.1445 -54.543 91.5195 -49.665c44.7588 5.84277 79 36.0693 106.198 70.0859
c58.6191 73.3145 96.207 168.781 123.933 257.56c0.750977 2.41699 1.40723 4.86719 2.14746 7.28906c-107.449 -14.8633 -206.802 36.1982 -268.135 126.474c-67.1133 98.7861 -75.3105 230.474 -50.0801 344.393c20.583 92.9385 71.4814 195.212 157.63 243.509
c40.7783 22.8643 88.2627 26.7891 128.755 1.2334c40.75 -25.7188 66.0312 -71.168 83.6084 -114.693c41.1768 -101.971 46.335 -218.654 40.7559 -327.241c-5.78613 -112.551 -27.6807 -224.048 -66.25 -329.994zM1132.46 356.684
c52.8945 -75.1484 140.546 -122.947 232.862 -106.317c20.7842 77.8398 33.3438 157.956 36.6348 238.431c3.85742 94.3965 -0.65625 195.066 -32.0938 284.943c-14.6846 41.9785 -35.4189 87.2197 -71 115.573c-44.6523 35.5811 -90.7295 13.042 -126.08 -23.3682
c-61.585 -63.4297 -91.6934 -151.238 -100.676 -237.824c-9.68262 -93.3477 5.45605 -193.446 60.3525 -271.438zM163.562 349.405c73.7354 -40.6553 149.781 9.89746 187.173 74.1572c0.0166016 49.2891 -1.13281 98.3818 -6.94727 146.763
c-6.7002 55.793 -20.8184 180.404 -104.674 157.651c-70.9824 -19.2598 -119.403 -106.967 -136.655 -172.701c-18.7656 -71.4922 -11.1514 -166.028 61.1035 -205.87z" />
    <glyph glyph-name="X" unicode="X" horiz-adv-x="919" 
d="M1023.86 -207.729c11.5332 -2.58496 18.0918 -13.1787 11.7949 -24.1904c-42.5332 -74.543 -136.891 -97.0596 -215.7 -75.2656c-84.6016 23.3975 -149.714 78.3887 -200.344 148.361c-86.4688 119.515 -132.36 265.051 -165.643 408.271
c-5.50586 -11.3203 -11.0234 -22.6348 -16.585 -33.9102c-35.1543 -71.3184 -71.7109 -142.088 -113.538 -209.762c-34.8467 -56.377 -85.2354 -119.639 -160.159 -102.913c-24.5742 5.48926 -1.27246 34.959 16.9277 31.0117
c62.0391 -13.4512 96.123 58.3047 121.914 102.318c24.8721 42.4434 47.8936 85.9521 69.9902 129.898c23.5264 46.7891 45.998 94.0996 68.543 141.371c-12.0098 56.332 -22.3936 113.017 -33.0469 169.64c-34.2803 -35.0879 -80.4521 -57.9473 -131.199 -61.7656
c-87.7744 -6.59961 -166.758 44.5684 -201.044 124.622c-56.1807 131.177 -25.4443 353.694 141.414 383.719c76.6396 13.7871 162.452 -34.3252 207.055 -94.4355c55.8721 -75.2998 82.874 -167.604 108.542 -256.456c5.18066 -17.9248 10.0645 -35.9395 14.8193 -53.9932
c31.791 57.1562 66.29 112.748 105.403 165.307c52.5186 70.5781 115.074 141.678 204.127 162.978c30.7705 7.36133 29.0039 -29.0547 2.94336 -35.2002c-87.1631 -20.5605 -146.416 -103.951 -194.909 -173.453c-38.5859 -55.3115 -72.4395 -113.482 -104.006 -172.96
c35.8555 -146.377 63.2725 -295.221 111.676 -437.942c25.5781 -75.417 56.791 -151.568 109.837 -212.195c45.9199 -52.4746 152.813 -118.315 207.115 -39.6738c7.20996 10.4512 20.5322 19.6523 34.0723 16.6191zM237.999 453.761
c65.9697 -14.8525 126.557 14.5156 161.7 67.0293c-2.38281 12.3516 -4.80469 24.6982 -7.28809 37.0273c-8.37109 41.5127 -18.7324 82.583 -26.8115 124.141c-7.91699 40.7109 -17.1572 80.5195 -32.7217 119.061c-14.4541 35.7822 -37.9521 76.0283 -78.2539 85.3975
c-39.1133 9.08887 -77.6543 -7.13184 -105.004 -35.1494c-56.1807 -57.543 -62.1406 -153.829 -49.9404 -229.05c12.5254 -77.2334 57.6152 -150.29 138.319 -168.456z" />
    <glyph glyph-name="Y" unicode="Y" horiz-adv-x="1040" 
d="M53.2109 699.836c12.7441 76.1064 57.5918 151.391 123.617 192.696c62.1455 38.8828 145.62 42.3369 205.372 -3.13477c71.9521 -54.7559 81.1475 -163.102 83.3623 -246.01c2.52344 -94.5762 -8.32617 -189.393 -12.6992 -283.783
c-2.2207 -48.0059 -1.58691 -95.8545 -0.404297 -143.854c0.891602 -36.1357 1.58691 -70.8135 22.6016 -101.472c7.2998 -10.6533 21.8213 -15.0605 39.5391 -12.2295c19.0684 3.04492 36.1748 14.4102 49.9395 27.4512c30.1699 28.6006 49.8662 68.835 68.0215 105.644
c80.1211 162.44 110.941 342.969 140.719 519.992c-0.504883 24.6025 44.8379 43.5703 61.7148 26.3408c17.1846 -17.5439 36.0293 -35.458 47.1309 -57.7002c9.90723 -19.8535 14.8525 -43.2344 20.2402 -64.6357c12.3633 -49.0879 19.0244 -99.9922 23.7178 -150.319
c9.46973 -101.461 13.2266 -203.449 10.2041 -305.319c-4.96191 -167.095 -33.2764 -345.711 -130.941 -485.831c-46.3457 -66.502 -102.139 -124.679 -179.042 -154.108c-76.6729 -29.3408 -153.452 -23.7617 -229.273 6.39746
c-66.5811 26.4814 -113.354 82.0732 -109.378 156.212c4.03711 75.2158 53.5898 135.702 107.079 184.207c112.08 101.635 251.538 171.726 399.25 203.556c3.87988 54.8174 5.16406 109.871 5.08594 164.711c-0.118164 81.96 -3.54395 163.494 -7.12109 245.337
c-0.947266 21.7549 -1.81055 43.5762 -3.04395 65.3701c-24.7539 -124.309 -56.9814 -247.154 -112.438 -361.472c-30.2373 -62.3252 -68.6387 -130.947 -134.883 -160.596c-63.1553 -28.2695 -145.626 -23.3857 -190.127 33.7871
c-50.3496 64.6855 -54.1455 160.366 -50.1758 239.008c4.37305 86.5977 18.1826 172.314 26.2793 258.547c-46.5029 -32.0146 -104.617 -52.5527 -158.151 -51.3193c-36.1582 0.834961 -75.2881 12.6152 -97.7549 42.6006
c-23.4648 31.3086 -24.6699 72.7266 -18.4404 109.928zM522.018 -409.756c134.312 4.90625 199.294 164.067 230.72 274.516c19.8535 69.7715 31.5889 141.191 38.2949 213.205c-143.865 -31.7402 -283.01 -101.058 -387.414 -205.681
c-48.5098 -48.6055 -91.7773 -118.69 -66.373 -189.673c25.4102 -70.9883 117.373 -94.8281 184.772 -92.3672zM304.321 851.161c-53.8193 81.54 -147.229 -9.39844 -177.898 -64.9229c-33.8428 -61.2773 -62.2969 -180.72 33.2148 -201.066
c56.1299 -11.959 126.607 15.7559 171.041 53.916c2.03516 35.3564 2.32129 70.6797 1.54199 106.177c-0.818359 37.375 -6.92969 74.1279 -27.8994 105.896z" />
    <glyph glyph-name="Y" unicode="&#x178;" horiz-adv-x="1040" 
d="M53.2109 699.836c12.7441 76.1064 57.5918 151.391 123.617 192.696c62.1455 38.8828 145.62 42.3369 205.372 -3.13477c71.9521 -54.7559 81.1475 -163.102 83.3623 -246.01c2.52344 -94.5762 -8.32617 -189.393 -12.6992 -283.783
c-2.2207 -48.0059 -1.58691 -95.8545 -0.404297 -143.854c0.891602 -36.1357 1.58691 -70.8135 22.6016 -101.472c7.2998 -10.6533 21.8213 -15.0605 39.5391 -12.2295c19.0684 3.04492 36.1748 14.4102 49.9395 27.4512c30.1699 28.6006 49.8662 68.835 68.0215 105.644
c80.1211 162.44 110.941 342.969 140.719 519.992c-0.504883 24.6025 44.8379 43.5703 61.7148 26.3408c17.1846 -17.5439 36.0293 -35.458 47.1309 -57.7002c9.90723 -19.8535 14.8525 -43.2344 20.2402 -64.6357c12.3633 -49.0879 19.0244 -99.9922 23.7178 -150.319
c9.46973 -101.461 13.2266 -203.449 10.2041 -305.319c-4.96191 -167.095 -33.2764 -345.711 -130.941 -485.831c-46.3457 -66.502 -102.139 -124.679 -179.042 -154.108c-76.6729 -29.3408 -153.452 -23.7617 -229.273 6.39746
c-66.5811 26.4814 -113.354 82.0732 -109.378 156.212c4.03711 75.2158 53.5898 135.702 107.079 184.207c112.08 101.635 251.538 171.726 399.25 203.556c3.87988 54.8174 5.16406 109.871 5.08594 164.711c-0.118164 81.96 -3.54395 163.494 -7.12109 245.337
c-0.947266 21.7549 -1.81055 43.5762 -3.04395 65.3701c-24.7539 -124.309 -56.9814 -247.154 -112.438 -361.472c-30.2373 -62.3252 -68.6387 -130.947 -134.883 -160.596c-63.1553 -28.2695 -145.626 -23.3857 -190.127 33.7871
c-50.3496 64.6855 -54.1455 160.366 -50.1758 239.008c4.37305 86.5977 18.1826 172.314 26.2793 258.547c-46.5029 -32.0146 -104.617 -52.5527 -158.151 -51.3193c-36.1582 0.834961 -75.2881 12.6152 -97.7549 42.6006
c-23.4648 31.3086 -24.6699 72.7266 -18.4404 109.928zM522.018 -409.756c134.312 4.90625 199.294 164.067 230.72 274.516c19.8535 69.7715 31.5889 141.191 38.2949 213.205c-143.865 -31.7402 -283.01 -101.058 -387.414 -205.681
c-48.5098 -48.6055 -91.7773 -118.69 -66.373 -189.673c25.4102 -70.9883 117.373 -94.8281 184.772 -92.3672zM304.321 851.161c-53.8193 81.54 -147.229 -9.39844 -177.898 -64.9229c-33.8428 -61.2773 -62.2969 -180.72 33.2148 -201.066
c56.1299 -11.959 126.607 15.7559 171.041 53.916c2.03516 35.3564 2.32129 70.6797 1.54199 106.177c-0.818359 37.375 -6.92969 74.1279 -27.8994 105.896z" />
    <glyph glyph-name="Y" unicode="&#xdd;" horiz-adv-x="1040" 
d="M53.2109 699.836c12.7441 76.1064 57.5918 151.391 123.617 192.696c62.1455 38.8828 145.62 42.3369 205.372 -3.13477c71.9521 -54.7559 81.1475 -163.102 83.3623 -246.01c2.52344 -94.5762 -8.32617 -189.393 -12.6992 -283.783
c-2.2207 -48.0059 -1.58691 -95.8545 -0.404297 -143.854c0.891602 -36.1357 1.58691 -70.8135 22.6016 -101.472c7.2998 -10.6533 21.8213 -15.0605 39.5391 -12.2295c19.0684 3.04492 36.1748 14.4102 49.9395 27.4512c30.1699 28.6006 49.8662 68.835 68.0215 105.644
c80.1211 162.44 110.941 342.969 140.719 519.992c-0.504883 24.6025 44.8379 43.5703 61.7148 26.3408c17.1846 -17.5439 36.0293 -35.458 47.1309 -57.7002c9.90723 -19.8535 14.8525 -43.2344 20.2402 -64.6357c12.3633 -49.0879 19.0244 -99.9922 23.7178 -150.319
c9.46973 -101.461 13.2266 -203.449 10.2041 -305.319c-4.96191 -167.095 -33.2764 -345.711 -130.941 -485.831c-46.3457 -66.502 -102.139 -124.679 -179.042 -154.108c-76.6729 -29.3408 -153.452 -23.7617 -229.273 6.39746
c-66.5811 26.4814 -113.354 82.0732 -109.378 156.212c4.03711 75.2158 53.5898 135.702 107.079 184.207c112.08 101.635 251.538 171.726 399.25 203.556c3.87988 54.8174 5.16406 109.871 5.08594 164.711c-0.118164 81.96 -3.54395 163.494 -7.12109 245.337
c-0.947266 21.7549 -1.81055 43.5762 -3.04395 65.3701c-24.7539 -124.309 -56.9814 -247.154 -112.438 -361.472c-30.2373 -62.3252 -68.6387 -130.947 -134.883 -160.596c-63.1553 -28.2695 -145.626 -23.3857 -190.127 33.7871
c-50.3496 64.6855 -54.1455 160.366 -50.1758 239.008c4.37305 86.5977 18.1826 172.314 26.2793 258.547c-46.5029 -32.0146 -104.617 -52.5527 -158.151 -51.3193c-36.1582 0.834961 -75.2881 12.6152 -97.7549 42.6006
c-23.4648 31.3086 -24.6699 72.7266 -18.4404 109.928zM522.018 -409.756c134.312 4.90625 199.294 164.067 230.72 274.516c19.8535 69.7715 31.5889 141.191 38.2949 213.205c-143.865 -31.7402 -283.01 -101.058 -387.414 -205.681
c-48.5098 -48.6055 -91.7773 -118.69 -66.373 -189.673c25.4102 -70.9883 117.373 -94.8281 184.772 -92.3672zM304.321 851.161c-53.8193 81.54 -147.229 -9.39844 -177.898 -64.9229c-33.8428 -61.2773 -62.2969 -180.72 33.2148 -201.066
c56.1299 -11.959 126.607 15.7559 171.041 53.916c2.03516 35.3564 2.32129 70.6797 1.54199 106.177c-0.818359 37.375 -6.92969 74.1279 -27.8994 105.896z" />
    <glyph glyph-name="Z" unicode="Z" horiz-adv-x="1010" 
d="M69.8779 -156.358c33.1807 39.8535 91.9639 51.082 141.085 49.1416c50.6914 -2.02441 101.669 -7.87793 152.332 -16.4395c39.7246 25.2139 76.1299 55.6758 111.801 90.5049c92.1367 89.9561 173.851 194.158 238.856 306.883
c-19.6182 3.38672 -39.5166 5.65234 -59.7119 6.71191c-27.1201 1.42383 -5.24219 38.2607 14.623 37.3467c22.2031 -1.02051 44.1367 -3.31348 65.7734 -6.8457c17.9473 33.5459 34.4766 67.7363 49.251 102.51c34.5039 81.2031 56.4541 175.027 33.0342 262.427
c-11.5439 43.0771 -33.9824 82.0273 -73.1572 104.858c-39.5391 23.0439 -86.0527 32.4639 -131.39 34.3252c-85.0605 3.49316 -170.727 -16.4336 -246.777 -54.2236c-37.3916 -18.5811 -72.3105 -41.5518 -104.309 -68.375
c-17.5049 -14.6729 -33.8604 -30.5791 -49.1611 -47.5283c-5.15234 -5.70215 -46.9229 -50.4951 -26.9238 -55.3281c27.5684 -6.66113 1.32812 -38.9395 -18.9629 -34.7451c-65.6162 13.5625 -8.96484 83.9893 14.1348 109.147
c39.416 42.9258 85.3867 79.2021 135.629 108.638c98.2314 57.5479 214.876 86.8379 328.666 77.8896c102.318 -8.05176 197.729 -63.3906 245.309 -156.307c52.1045 -101.753 30.5859 -220.208 -6.3125 -323.188c-11.1348 -31.084 -23.6152 -61.3945 -37.2959 -91.043
c13.8877 -5.56152 27.6074 -11.7178 41.1367 -18.541c25.3984 -12.8115 -11.2646 -45.707 -31.292 -35.4131c-9.66602 4.96777 -19.4502 9.56543 -29.3184 13.8604c-32.082 -62.9082 -69.8496 -122.705 -112.831 -179.827
c-58.6807 -77.9961 -125.643 -154.243 -202.35 -216.108c21.1709 -5.56152 42.1797 -11.4258 62.9697 -17.543c104.971 -30.8877 217.012 -67.3828 294.969 -148.064c16.1475 -16.708 -21.1768 -41.2881 -35.3008 -26.6709
c-74.1328 76.7236 -180.774 111.632 -280.677 141.112c-26.5254 7.82715 -53.4268 15.1611 -80.5859 21.8721c-1.29492 -0.919922 -2.56738 -1.88477 -3.87402 -2.79883c-53.9043 -37.751 -113.914 -69.1768 -178.006 -85.459
c-58.2041 -14.7852 -128.317 -23.7393 -186.583 -4.77148c-54.8232 17.8408 -72.0586 77.1943 -34.751 121.993zM143.407 -154.331c-22.0068 -11.5166 -14.1797 -25.0449 5.77539 -32.1211c36.041 -12.7725 89.6475 4.62012 123.513 17.3535
c12.2842 4.62012 24.1592 9.7168 35.7432 15.1777c-30.249 3.93066 -60.5371 6.79004 -90.7188 8.32031c-22.8867 1.16016 -53.3545 2.23633 -74.3125 -8.73047z" />
    <glyph glyph-name="bracketleft" unicode="[" horiz-adv-x="452" 
d="M394.531 -136.572c9.68848 -7.27246 9.49219 -21.0283 0.633789 -29.4668c-39.6406 -37.7002 -89.9277 -68.1338 -145.704 -71.8398c-55.709 -3.7002 -111.782 15.0205 -144.285 62.207c-23.5146 34.1338 -31.3418 79.7617 -36.0625 120.248
c-6.45898 55.3281 -9.74414 111.082 -11.8691 166.713c-4.33984 113.538 -7.43457 227.132 -7.23828 340.76c0.0957031 57.7217 1.7666 114.889 6.9248 172.397c4.45703 49.6709 9.21191 102.111 26.8506 149.146c16.4004 43.7334 46.9463 89.7705 94.6992 103.311
c35.3398 10.0195 71.6328 20.3135 105.279 -0.488281c21.5244 -13.3047 -10.1816 -40.3799 -27.4902 -31.1172c-13.5176 7.23242 -31.3418 10.9551 -45.4873 3.50391c-5.69629 -11.7686 -12.2061 -22.3711 -15.6377 -35.9785
c-4.7207 -18.7158 -7.24902 -36.6465 -7.84863 -55.917c-1.59766 -50.9434 1.22852 -102.465 3.31445 -153.386c4.45215 -108.548 8.27637 -217.157 11.915 -325.738c3.56641 -106.367 4.95117 -213.418 11.5557 -319.616
c2.17578 -35.0029 8.11914 -76.0674 33.3389 -102.633c31.7793 -33.4785 76.5947 -20.5713 109.675 3.4375c9.66016 7.01367 26.6436 12.5479 37.4365 4.45703z" />
    <glyph glyph-name="backslash" unicode="\" horiz-adv-x="520" 
d="M469.561 -113.136c9.92969 -51.8799 -103.277 -100.679 -123.221 -46.1074c-57.6602 157.826 -96.7393 323.025 -146.388 483.554c-49.1885 159.037 -90.1855 322.005 -148.592 477.953c-10.165 27.1426 39.3652 58.4795 58.5234 35.8506
c54.1113 -63.9004 84.0576 -142.614 117.121 -218.575c33.8262 -77.71 64.1758 -157.046 92.4619 -236.926c57.251 -161.673 117.793 -326.95 150.094 -495.749z" />
    <glyph glyph-name="bracketright" unicode="]" horiz-adv-x="453" 
d="M382.633 748.233c22.0176 -104.152 20.79 -211.102 20.3076 -316.997c-0.521484 -113.252 -2.57324 -227.361 -9.68262 -340.411c-5.9541 -94.7051 -3.96973 -213.087 -79.7344 -282.298c-38.8271 -35.4629 -91.2959 -51.3418 -143.389 -45.4326
c-43.2002 4.89453 -83.9395 33.0068 -114.087 62.9414c-23.2344 23.0723 26.5312 50.2314 47.3154 35.7549c27.6416 -19.2539 91.1777 -47.7754 116.756 -10.4902c17.3926 25.3594 18.7832 62.9697 19.8145 93.2686c3.82422 112.495 8.5 224.957 12.0322 337.469
c3.54883 113.224 9.90137 226.353 12.4023 339.61c1.08789 49.2842 5.37109 100.788 -1.73242 149.792c-3.26855 22.5615 -9.89062 41.8213 -19.3887 62.168c-5.40527 11.5664 -5.76367 14.4932 -19.5674 17.6553c-12.4082 2.84863 -22.585 1.46973 -33.7197 -4.58594
c-24.7148 -13.4453 -36.7139 14.4209 -13.8213 28.3428c18.0537 10.9834 38.7432 15.7998 59.8477 13.7363c20.4814 -1.99609 47.002 -7.53027 65.667 -15.8672c50.8037 -22.6855 70.2373 -73.8418 80.9795 -124.656z" />
    <glyph glyph-name="asciicircum" unicode="^" horiz-adv-x="320" 
d="M267.758 636.473c9.34082 -29.2119 -10.7891 -54.5371 -36.6475 -67.1416c-19.8311 -9.67188 -66.2607 -16.3496 -75.4785 12.4639c-6.80078 21.2607 -13.0693 42.4717 -18.5693 64.0576c-8.83105 -15.1162 -18.0322 -29.9463 -29.6104 -42.8418
c-12.8506 -14.3145 -52.5303 -25.7188 -56.6064 2.5957c-4.76562 33.0742 11.5166 65.5996 25.5508 94.6543c16.2988 33.7471 35.6699 65.4033 74.3516 75.5625c36.1748 9.49805 64.8652 -5.99902 79.6787 -39.0508c14.5781 -32.5303 26.4873 -66.3955 37.3311 -100.3z" />
    <glyph glyph-name="underscore" unicode="_" horiz-adv-x="522" 
d="M428.205 -67.6982c79.8574 -2.5957 38.4688 -95.4551 -22.6123 -94.4463c-56.8086 0.942383 -113.555 1.71582 -170.368 2.0127c-53.5391 0.280273 -112.422 -5.94336 -164.975 5.43262c-41.6309 9.01562 -9.89648 49.0039 13.624 57.4258
c53.7861 19.2646 116.056 22.2471 172.695 26.3174c56.9316 4.08203 114.604 5.11328 171.636 3.25781z" />
    <glyph glyph-name="grave" unicode="`" horiz-adv-x="229" 
d="M176.369 618.077c20.1064 -46.9854 -77.7334 -87.9805 -90.915 -34.0098c-12.2959 50.3379 -32.7549 102.128 -35.4238 154.227c-1.55859 30.4336 56.0625 58.8877 72.2158 27.0127c23.4365 -46.2393 33.6973 -99.4932 54.123 -147.229z" />
    <glyph glyph-name="a" unicode="a" horiz-adv-x="485" 
d="M486.021 256.724c8.27539 17.6279 46.9775 18.1621 36.4307 -6.00879c-28.1689 -64.5459 -47.3945 -133.039 -79.5156 -195.869c-23.5264 -46.0205 -71.6328 -98.6016 -129.248 -90.9932c-67.3887 8.89844 -88.0166 89.2324 -100.357 144.763
c-1.21094 5.4668 -2.27637 10.9951 -3.26855 16.5459c-9.4082 -31.0557 -21.6084 -61.0186 -39.4326 -88.7334c-23.1562 -35.9961 -64.0186 -64.1309 -108.256 -61.8213c-57.4023 2.99414 -87.4883 49.833 -94.542 102.324
c-14.0166 104.281 29.2627 226.005 119.914 283.133c38.2725 24.1094 95.2266 39.6572 137.485 14.6338c7.25488 -4.29492 13.5742 -9.80078 19.1924 -16.0918c41.4346 26.5254 107.242 24.1875 101.434 -34.0508c-5.05176 -50.6299 -11.3652 -100.648 -9.7168 -151.665
c1.37891 -42.6006 -0.0898438 -97.5527 18.917 -136.464c1.37891 -2.81445 8.81348 -18.6035 12.1553 -18.5869c9.25684 0.0507812 23.1172 25.6406 27.0195 32.0664c12.0938 19.9043 21.6924 41.6025 31.0391 62.875c20.9639 47.6973 38.5977 96.7568 60.75 143.943z
M212.85 316.511c0.167969 0.924805 0.446289 1.81836 0.675781 2.73242c-5.00098 5.5 -10.6357 9.80078 -17.0889 12.0264c-21.1826 7.2998 -46.6602 -24.4121 -56.6738 -39.7861c-33.1475 -50.9043 -49.4629 -126.456 -47.4561 -186.505
c0.46582 -13.9326 -0.548828 -81.9658 20.7686 -78.5117c12.0039 1.94531 26.2676 36.001 30.9941 45.5605c8.46094 17.123 15.1387 34.9531 20.8184 53.1748c19.416 62.2744 27.6865 127.369 47.6416 189.476c0.112305 0.605469 0.208008 1.22754 0.320312 1.83301z" />
    <glyph glyph-name="a" unicode="&#xe5;" horiz-adv-x="485" 
d="M486.021 256.724c8.27539 17.6279 46.9775 18.1621 36.4307 -6.00879c-28.1689 -64.5459 -47.3945 -133.039 -79.5156 -195.869c-23.5264 -46.0205 -71.6328 -98.6016 -129.248 -90.9932c-67.3887 8.89844 -88.0166 89.2324 -100.357 144.763
c-1.21094 5.4668 -2.27637 10.9951 -3.26855 16.5459c-9.4082 -31.0557 -21.6084 -61.0186 -39.4326 -88.7334c-23.1562 -35.9961 -64.0186 -64.1309 -108.256 -61.8213c-57.4023 2.99414 -87.4883 49.833 -94.542 102.324
c-14.0166 104.281 29.2627 226.005 119.914 283.133c38.2725 24.1094 95.2266 39.6572 137.485 14.6338c7.25488 -4.29492 13.5742 -9.80078 19.1924 -16.0918c41.4346 26.5254 107.242 24.1875 101.434 -34.0508c-5.05176 -50.6299 -11.3652 -100.648 -9.7168 -151.665
c1.37891 -42.6006 -0.0898438 -97.5527 18.917 -136.464c1.37891 -2.81445 8.81348 -18.6035 12.1553 -18.5869c9.25684 0.0507812 23.1172 25.6406 27.0195 32.0664c12.0938 19.9043 21.6924 41.6025 31.0391 62.875c20.9639 47.6973 38.5977 96.7568 60.75 143.943z
M212.85 316.511c0.167969 0.924805 0.446289 1.81836 0.675781 2.73242c-5.00098 5.5 -10.6357 9.80078 -17.0889 12.0264c-21.1826 7.2998 -46.6602 -24.4121 -56.6738 -39.7861c-33.1475 -50.9043 -49.4629 -126.456 -47.4561 -186.505
c0.46582 -13.9326 -0.548828 -81.9658 20.7686 -78.5117c12.0039 1.94531 26.2676 36.001 30.9941 45.5605c8.46094 17.123 15.1387 34.9531 20.8184 53.1748c19.416 62.2744 27.6865 127.369 47.6416 189.476c0.112305 0.605469 0.208008 1.22754 0.320312 1.83301z" />
    <glyph glyph-name="a" unicode="&#xe4;" horiz-adv-x="485" 
d="M486.021 256.724c8.27539 17.6279 46.9775 18.1621 36.4307 -6.00879c-28.1689 -64.5459 -47.3945 -133.039 -79.5156 -195.869c-23.5264 -46.0205 -71.6328 -98.6016 -129.248 -90.9932c-67.3887 8.89844 -88.0166 89.2324 -100.357 144.763
c-1.21094 5.4668 -2.27637 10.9951 -3.26855 16.5459c-9.4082 -31.0557 -21.6084 -61.0186 -39.4326 -88.7334c-23.1562 -35.9961 -64.0186 -64.1309 -108.256 -61.8213c-57.4023 2.99414 -87.4883 49.833 -94.542 102.324
c-14.0166 104.281 29.2627 226.005 119.914 283.133c38.2725 24.1094 95.2266 39.6572 137.485 14.6338c7.25488 -4.29492 13.5742 -9.80078 19.1924 -16.0918c41.4346 26.5254 107.242 24.1875 101.434 -34.0508c-5.05176 -50.6299 -11.3652 -100.648 -9.7168 -151.665
c1.37891 -42.6006 -0.0898438 -97.5527 18.917 -136.464c1.37891 -2.81445 8.81348 -18.6035 12.1553 -18.5869c9.25684 0.0507812 23.1172 25.6406 27.0195 32.0664c12.0938 19.9043 21.6924 41.6025 31.0391 62.875c20.9639 47.6973 38.5977 96.7568 60.75 143.943z
M212.85 316.511c0.167969 0.924805 0.446289 1.81836 0.675781 2.73242c-5.00098 5.5 -10.6357 9.80078 -17.0889 12.0264c-21.1826 7.2998 -46.6602 -24.4121 -56.6738 -39.7861c-33.1475 -50.9043 -49.4629 -126.456 -47.4561 -186.505
c0.46582 -13.9326 -0.548828 -81.9658 20.7686 -78.5117c12.0039 1.94531 26.2676 36.001 30.9941 45.5605c8.46094 17.123 15.1387 34.9531 20.8184 53.1748c19.416 62.2744 27.6865 127.369 47.6416 189.476c0.112305 0.605469 0.208008 1.22754 0.320312 1.83301z" />
    <glyph glyph-name="a" unicode="&#xe3;" horiz-adv-x="485" 
d="M486.021 256.724c8.27539 17.6279 46.9775 18.1621 36.4307 -6.00879c-28.1689 -64.5459 -47.3945 -133.039 -79.5156 -195.869c-23.5264 -46.0205 -71.6328 -98.6016 -129.248 -90.9932c-67.3887 8.89844 -88.0166 89.2324 -100.357 144.763
c-1.21094 5.4668 -2.27637 10.9951 -3.26855 16.5459c-9.4082 -31.0557 -21.6084 -61.0186 -39.4326 -88.7334c-23.1562 -35.9961 -64.0186 -64.1309 -108.256 -61.8213c-57.4023 2.99414 -87.4883 49.833 -94.542 102.324
c-14.0166 104.281 29.2627 226.005 119.914 283.133c38.2725 24.1094 95.2266 39.6572 137.485 14.6338c7.25488 -4.29492 13.5742 -9.80078 19.1924 -16.0918c41.4346 26.5254 107.242 24.1875 101.434 -34.0508c-5.05176 -50.6299 -11.3652 -100.648 -9.7168 -151.665
c1.37891 -42.6006 -0.0898438 -97.5527 18.917 -136.464c1.37891 -2.81445 8.81348 -18.6035 12.1553 -18.5869c9.25684 0.0507812 23.1172 25.6406 27.0195 32.0664c12.0938 19.9043 21.6924 41.6025 31.0391 62.875c20.9639 47.6973 38.5977 96.7568 60.75 143.943z
M212.85 316.511c0.167969 0.924805 0.446289 1.81836 0.675781 2.73242c-5.00098 5.5 -10.6357 9.80078 -17.0889 12.0264c-21.1826 7.2998 -46.6602 -24.4121 -56.6738 -39.7861c-33.1475 -50.9043 -49.4629 -126.456 -47.4561 -186.505
c0.46582 -13.9326 -0.548828 -81.9658 20.7686 -78.5117c12.0039 1.94531 26.2676 36.001 30.9941 45.5605c8.46094 17.123 15.1387 34.9531 20.8184 53.1748c19.416 62.2744 27.6865 127.369 47.6416 189.476c0.112305 0.605469 0.208008 1.22754 0.320312 1.83301z" />
    <glyph glyph-name="a" unicode="&#xe2;" horiz-adv-x="485" 
d="M486.021 256.724c8.27539 17.6279 46.9775 18.1621 36.4307 -6.00879c-28.1689 -64.5459 -47.3945 -133.039 -79.5156 -195.869c-23.5264 -46.0205 -71.6328 -98.6016 -129.248 -90.9932c-67.3887 8.89844 -88.0166 89.2324 -100.357 144.763
c-1.21094 5.4668 -2.27637 10.9951 -3.26855 16.5459c-9.4082 -31.0557 -21.6084 -61.0186 -39.4326 -88.7334c-23.1562 -35.9961 -64.0186 -64.1309 -108.256 -61.8213c-57.4023 2.99414 -87.4883 49.833 -94.542 102.324
c-14.0166 104.281 29.2627 226.005 119.914 283.133c38.2725 24.1094 95.2266 39.6572 137.485 14.6338c7.25488 -4.29492 13.5742 -9.80078 19.1924 -16.0918c41.4346 26.5254 107.242 24.1875 101.434 -34.0508c-5.05176 -50.6299 -11.3652 -100.648 -9.7168 -151.665
c1.37891 -42.6006 -0.0898438 -97.5527 18.917 -136.464c1.37891 -2.81445 8.81348 -18.6035 12.1553 -18.5869c9.25684 0.0507812 23.1172 25.6406 27.0195 32.0664c12.0938 19.9043 21.6924 41.6025 31.0391 62.875c20.9639 47.6973 38.5977 96.7568 60.75 143.943z
M212.85 316.511c0.167969 0.924805 0.446289 1.81836 0.675781 2.73242c-5.00098 5.5 -10.6357 9.80078 -17.0889 12.0264c-21.1826 7.2998 -46.6602 -24.4121 -56.6738 -39.7861c-33.1475 -50.9043 -49.4629 -126.456 -47.4561 -186.505
c0.46582 -13.9326 -0.548828 -81.9658 20.7686 -78.5117c12.0039 1.94531 26.2676 36.001 30.9941 45.5605c8.46094 17.123 15.1387 34.9531 20.8184 53.1748c19.416 62.2744 27.6865 127.369 47.6416 189.476c0.112305 0.605469 0.208008 1.22754 0.320312 1.83301z" />
    <glyph glyph-name="a" unicode="&#xe1;" horiz-adv-x="485" 
d="M486.021 256.724c8.27539 17.6279 46.9775 18.1621 36.4307 -6.00879c-28.1689 -64.5459 -47.3945 -133.039 -79.5156 -195.869c-23.5264 -46.0205 -71.6328 -98.6016 -129.248 -90.9932c-67.3887 8.89844 -88.0166 89.2324 -100.357 144.763
c-1.21094 5.4668 -2.27637 10.9951 -3.26855 16.5459c-9.4082 -31.0557 -21.6084 -61.0186 -39.4326 -88.7334c-23.1562 -35.9961 -64.0186 -64.1309 -108.256 -61.8213c-57.4023 2.99414 -87.4883 49.833 -94.542 102.324
c-14.0166 104.281 29.2627 226.005 119.914 283.133c38.2725 24.1094 95.2266 39.6572 137.485 14.6338c7.25488 -4.29492 13.5742 -9.80078 19.1924 -16.0918c41.4346 26.5254 107.242 24.1875 101.434 -34.0508c-5.05176 -50.6299 -11.3652 -100.648 -9.7168 -151.665
c1.37891 -42.6006 -0.0898438 -97.5527 18.917 -136.464c1.37891 -2.81445 8.81348 -18.6035 12.1553 -18.5869c9.25684 0.0507812 23.1172 25.6406 27.0195 32.0664c12.0938 19.9043 21.6924 41.6025 31.0391 62.875c20.9639 47.6973 38.5977 96.7568 60.75 143.943z
M212.85 316.511c0.167969 0.924805 0.446289 1.81836 0.675781 2.73242c-5.00098 5.5 -10.6357 9.80078 -17.0889 12.0264c-21.1826 7.2998 -46.6602 -24.4121 -56.6738 -39.7861c-33.1475 -50.9043 -49.4629 -126.456 -47.4561 -186.505
c0.46582 -13.9326 -0.548828 -81.9658 20.7686 -78.5117c12.0039 1.94531 26.2676 36.001 30.9941 45.5605c8.46094 17.123 15.1387 34.9531 20.8184 53.1748c19.416 62.2744 27.6865 127.369 47.6416 189.476c0.112305 0.605469 0.208008 1.22754 0.320312 1.83301z" />
    <glyph glyph-name="b" unicode="b" horiz-adv-x="597" 
d="M632.814 262.678c25.416 -8.1748 -10.0146 -40.4922 -30.1543 -34.123c-35.833 11.3369 -80.1553 -7.19922 -114.598 -17.7959c-1.44629 -0.448242 -2.87598 -0.936523 -4.32227 -1.38477c4.16602 -80.2783 -17.5039 -167.756 -44.3438 -230.703
c-34.2969 -80.4463 -91.542 -149.813 -167.268 -194.141c-62.8301 -36.7803 -156.38 -65.3867 -225.585 -28.791c-80.5869 42.623 -46.374 142.2 -5.4502 200.965c2.88184 4.1377 5.85352 8.24219 8.88086 12.3125c-30.8818 87.6455 -38.6973 185.815 -47.0293 277.683
c-8.89844 98.0518 -15.6719 196.625 -15.2959 295.12c0.617188 160.759 9.8125 329.288 84.6914 474.976c33.9883 66.127 81.8477 133.465 151.916 164.348c57.6885 25.4209 138.673 30.417 184.049 -21.2607c44.165 -50.2988 43.7559 -120.973 32.4248 -183.163
c-14.2188 -78.041 -46.8789 -152.325 -81.8154 -223.072c-61.1699 -123.883 -139.184 -239.288 -230.899 -342.56c2.97168 -65.0615 7.93359 -129.972 11.9932 -194.988c0.0166016 -0.24707 0.0332031 -0.488281 0.0498047 -0.735352
c8.52246 25.7461 18.6094 50.8145 30.9727 74.6826c33.624 64.9209 99.4092 140.781 181.342 114.457c78.3271 -25.1689 115.259 -85.9023 127.291 -157.137c50.7363 17.5098 105.711 30.5732 153.15 15.3115zM148.021 873.798
c-26.4307 -132.949 -26.1992 -270.165 -22.1064 -405.289c76.0898 92.417 141.561 193.138 194.203 301.013c31.5996 64.7588 62.0273 132.747 73.6611 204.357c9.05469 55.7314 10.1533 141.157 -52.166 167.442c-62.5557 26.3857 -105.128 -35.4346 -130.213 -82.9355
c-30.5791 -57.8955 -50.623 -120.429 -63.3789 -184.588zM341.665 40.9619c14.3027 41.8945 24.6953 83.5928 30.2344 126.316c-53.4443 -24.0137 -104.685 -52.8438 -151.574 -88.1104c-25.2246 -18.9736 -50.7861 -40.2686 -73.3145 -64.1084
c-0.62207 -10.6133 -1.48535 -21.2217 -2.69629 -31.8184c-2.05176 -17.9697 -25.9756 -35.5811 -49.0586 -40.7227c-18.7881 -39.8252 -20.4082 -116.213 40.9922 -110.281c104.449 10.0918 174.45 118.018 205.417 208.725zM375.538 207.619
c0.62207 11.3535 1.02051 22.7715 0.924805 34.3438c-0.291992 31.5215 1.83887 62.8525 -11.752 92.3613c-14.4766 31.4258 -48.4092 48.1113 -81.4219 32.8555c-54.2969 -25.0957 -83.5645 -101.657 -100.284 -154.4
c-14.4316 -45.5332 -24.6924 -92.5576 -33.0967 -139.762c19.5225 16.3379 39.752 31.6221 60.1777 45.7119c51.79 35.7266 107.517 64.7695 165.452 88.8896z" />
    <glyph glyph-name="c" unicode="c" horiz-adv-x="321" 
d="M320.994 256.746c6.38086 16.1191 47.6953 19.1885 39.7168 -1.89355c-32.4297 -85.7227 -67.6016 -182.39 -131.811 -250.104c-47.9326 -50.5508 -148.171 -103.048 -210.653 -46.9736c-63.5977 57.0771 -54.1338 163.354 -41.9053 238.974
c13.6299 84.293 62.9023 174.849 150.116 201.486c31.3867 9.58789 68.7334 6.28027 89.5176 -21.9443c21.9502 -29.7998 16.2148 -69.1816 20.1562 -103.81c2.49512 -21.8838 -42.7852 -37.1787 -46.2441 -12.3232c-3.17871 22.8594 3.06738 95.8652 -34.083 93.9648
c-18.0312 -0.919922 -15.9512 -18.5029 -19.6348 -32.8896c-4.03711 -15.7549 -8.79688 -31.4424 -13.0469 -47.1582c-18.1045 -66.9229 -35.6484 -137.204 -27.042 -207.076c3.10059 -25.1465 7.26074 -70.0234 38.5977 -74.75
c36.8818 -5.56152 68.6104 37.0898 86.8047 63.4473c42.5166 61.5801 72.0986 131.783 99.5107 201.05z" />
    <glyph glyph-name="d" unicode="d" horiz-adv-x="578" 
d="M580.561 260.469c6.18945 15.4023 45.8018 18.3574 38.0752 -1.79395c-28.2471 -73.7861 -62.5273 -144.953 -104.326 -212.062c-33.1025 -53.1475 -80.6035 -109.872 -150.936 -95.1602c-95.9551 20.0781 -130.504 118.22 -142.906 212.622
c-10.6865 -44.8711 -24.6533 -88.498 -49.834 -127.645c-23.1504 -35.9961 -64.0186 -64.1309 -108.256 -61.8213c-57.4023 2.99414 -87.4883 49.833 -94.542 102.324c-14.0166 104.281 29.2676 226.005 119.924 283.127c35.833 22.5791 88.0439 37.6338 129.237 18.9238
c8.16895 103.025 32.7773 205.501 91.8398 290.831c33.377 48.2188 91.2168 112.865 157.203 106.647c61.9893 -5.84277 61.2607 -79.9756 54.3086 -126.759c-16.8145 -113.179 -80.9062 -220.33 -170.088 -291.728c-2.60742 -33.1367 -4.02051 -66.4355 -4.50293 -99.8975
c-0.740234 -51.9307 -0.914062 -104.573 5.1748 -156.206c3.95312 -33.5117 10.3506 -127.779 62.5723 -111.401c27.877 8.74121 45.7236 39.7754 60.5371 62.7861c12.8232 19.915 25.0459 40.2178 36.6631 60.8564c26.5596 47.1816 49.6768 96.123 69.8555 146.354z
M383.526 556.901c-13.2041 -48.7178 -22.2539 -97.8896 -28.1973 -147.477c63.6709 63.3291 108.402 143.305 124.478 233.126c4.00293 22.3604 10.8486 68.415 -10.5186 85.7061c-19.4668 15.7549 -31.0557 -21.3398 -37.0439 -34.4658
c-20.2686 -44.417 -35.9287 -89.6973 -48.7178 -136.89zM164.9 125.193c19.8477 63.665 28.0723 130.268 49.0254 193.625c-5.09668 5.70801 -10.8545 10.1602 -17.4766 12.4424c-21.1826 7.2998 -46.6602 -24.4121 -56.6738 -39.7861
c-33.1475 -50.9043 -49.4629 -126.456 -47.4561 -186.505c0.46582 -13.9326 -0.548828 -81.9658 20.7686 -78.5117c12.0039 1.94531 26.2676 36.001 30.9941 45.5605c8.46094 17.123 15.1387 34.9531 20.8184 53.1748z" />
    <glyph glyph-name="e" unicode="e" horiz-adv-x="333" 
d="M332.303 253.976c8.44434 19.54 50.6338 19.8154 39.5879 -6.54199c-23.0781 -55.0361 -46.2227 -110.37 -76.7686 -161.79c-24.8662 -41.8545 -54.1621 -84.2422 -96.4658 -110.056c-35.5361 -21.6816 -78.748 -36.7529 -120.766 -30.1982
c-54.6387 8.52246 -81.0352 48.7236 -95.1816 98.4229c-26.7617 94.0146 -12.5762 214.124 54.582 288.604c33.6973 37.3691 84.9658 76.0898 138.382 70.1807c37.7393 -4.17676 67.2646 -39.9766 66.7373 -77.2617c-0.969727 -68.9805 -71.3076 -103.445 -132.293 -94.0479
c-11.1914 -44.4785 -13.2549 -90.8975 -8.16406 -137.456c3.17871 -29.1104 4.37891 -74.6484 34.2412 -90.5938c31.2969 -16.708 58.6807 11.2588 78.0293 33.5742c53.8369 62.084 85.874 142.587 118.079 217.163zM137.195 302.593
c-5.86426 -11.1855 -10.9443 -22.5947 -15.3682 -34.167c12.4307 -3.62207 25.4775 -4.2168 38.5361 0.364258c19.3096 6.77832 38.5859 28.3535 32.0146 50.5059c-12.4531 41.9727 -45.3262 2.09668 -55.1826 -16.7031z" />
    <glyph glyph-name="e" unicode="&#xeb;" horiz-adv-x="333" 
d="M332.303 253.976c8.44434 19.54 50.6338 19.8154 39.5879 -6.54199c-23.0781 -55.0361 -46.2227 -110.37 -76.7686 -161.79c-24.8662 -41.8545 -54.1621 -84.2422 -96.4658 -110.056c-35.5361 -21.6816 -78.748 -36.7529 -120.766 -30.1982
c-54.6387 8.52246 -81.0352 48.7236 -95.1816 98.4229c-26.7617 94.0146 -12.5762 214.124 54.582 288.604c33.6973 37.3691 84.9658 76.0898 138.382 70.1807c37.7393 -4.17676 67.2646 -39.9766 66.7373 -77.2617c-0.969727 -68.9805 -71.3076 -103.445 -132.293 -94.0479
c-11.1914 -44.4785 -13.2549 -90.8975 -8.16406 -137.456c3.17871 -29.1104 4.37891 -74.6484 34.2412 -90.5938c31.2969 -16.708 58.6807 11.2588 78.0293 33.5742c53.8369 62.084 85.874 142.587 118.079 217.163zM137.195 302.593
c-5.86426 -11.1855 -10.9443 -22.5947 -15.3682 -34.167c12.4307 -3.62207 25.4775 -4.2168 38.5361 0.364258c19.3096 6.77832 38.5859 28.3535 32.0146 50.5059c-12.4531 41.9727 -45.3262 2.09668 -55.1826 -16.7031z" />
    <glyph glyph-name="e" unicode="&#xea;" horiz-adv-x="333" 
d="M332.303 253.976c8.44434 19.54 50.6338 19.8154 39.5879 -6.54199c-23.0781 -55.0361 -46.2227 -110.37 -76.7686 -161.79c-24.8662 -41.8545 -54.1621 -84.2422 -96.4658 -110.056c-35.5361 -21.6816 -78.748 -36.7529 -120.766 -30.1982
c-54.6387 8.52246 -81.0352 48.7236 -95.1816 98.4229c-26.7617 94.0146 -12.5762 214.124 54.582 288.604c33.6973 37.3691 84.9658 76.0898 138.382 70.1807c37.7393 -4.17676 67.2646 -39.9766 66.7373 -77.2617c-0.969727 -68.9805 -71.3076 -103.445 -132.293 -94.0479
c-11.1914 -44.4785 -13.2549 -90.8975 -8.16406 -137.456c3.17871 -29.1104 4.37891 -74.6484 34.2412 -90.5938c31.2969 -16.708 58.6807 11.2588 78.0293 33.5742c53.8369 62.084 85.874 142.587 118.079 217.163zM137.195 302.593
c-5.86426 -11.1855 -10.9443 -22.5947 -15.3682 -34.167c12.4307 -3.62207 25.4775 -4.2168 38.5361 0.364258c19.3096 6.77832 38.5859 28.3535 32.0146 50.5059c-12.4531 41.9727 -45.3262 2.09668 -55.1826 -16.7031z" />
    <glyph glyph-name="e" unicode="&#xe9;" horiz-adv-x="333" 
d="M332.303 253.976c8.44434 19.54 50.6338 19.8154 39.5879 -6.54199c-23.0781 -55.0361 -46.2227 -110.37 -76.7686 -161.79c-24.8662 -41.8545 -54.1621 -84.2422 -96.4658 -110.056c-35.5361 -21.6816 -78.748 -36.7529 -120.766 -30.1982
c-54.6387 8.52246 -81.0352 48.7236 -95.1816 98.4229c-26.7617 94.0146 -12.5762 214.124 54.582 288.604c33.6973 37.3691 84.9658 76.0898 138.382 70.1807c37.7393 -4.17676 67.2646 -39.9766 66.7373 -77.2617c-0.969727 -68.9805 -71.3076 -103.445 -132.293 -94.0479
c-11.1914 -44.4785 -13.2549 -90.8975 -8.16406 -137.456c3.17871 -29.1104 4.37891 -74.6484 34.2412 -90.5938c31.2969 -16.708 58.6807 11.2588 78.0293 33.5742c53.8369 62.084 85.874 142.587 118.079 217.163zM137.195 302.593
c-5.86426 -11.1855 -10.9443 -22.5947 -15.3682 -34.167c12.4307 -3.62207 25.4775 -4.2168 38.5361 0.364258c19.3096 6.77832 38.5859 28.3535 32.0146 50.5059c-12.4531 41.9727 -45.3262 2.09668 -55.1826 -16.7031z" />
    <glyph glyph-name="f" unicode="f" horiz-adv-x="386" 
d="M395.067 261.618c20.6104 15.9961 49.4639 -4.29102 25.2588 -23.3818c-47.3887 -37.3916 -95.9834 -73.1963 -145.945 -107.078c-36.3711 -24.6641 -79.2461 -46.1104 -113.447 -75.2881c7.14844 0.554688 14.292 1.38965 20.8018 1.22754
c11.6963 -0.291992 23.3027 -1.62109 34.6953 -4.30664c21.1318 -4.97363 40.958 -13.2832 59.0234 -25.3486c41.6084 -27.7988 68.0723 -72.9277 73.0176 -122.722c8.72949 -87.876 -59.0684 -178.229 -153.823 -159.34c-101.181 20.168 -149.915 141.275 -172.186 230.115
c-27.0527 107.932 -27.0195 223.533 -22.6514 333.965c4.6709 118.097 15.9121 236.625 38.3564 352.714c6.04395 31.2861 41.249 51.9922 69.9951 56.876c21.9951 3.74023 63.917 -4.05371 62.4365 -35.1045c-5.09082 -106.938 -20.2178 -213.042 -27.3271 -319.841
c-6.11719 -91.8848 -7.38477 -184.772 -0.488281 -276.674c30.6914 22.8418 65.0107 41.4678 96.6387 62.3643c53.3262 35.2334 105.155 72.6309 155.645 111.822zM209.517 8.91113c-19.5791 7.30566 -39.9258 6.11719 -59.9248 6.13379
c7.27246 -59.668 20.2969 -120.479 49.918 -170.615c16.7363 -28.3311 60.3457 -68.7227 85.8955 -26.8789c20.5156 33.5957 18.2334 80.8779 3.28516 115.948c-14.9365 35.043 -43.4639 62.0898 -79.1738 75.4121z" />
    <glyph glyph-name="g" unicode="g" horiz-adv-x="485" 
d="M484.786 249.967c11.1748 17.4375 54.7109 17.3223 39.5723 -6.52344c-42.3711 -66.7881 -102.123 -121.819 -166.029 -170.15c0.425781 -55.3896 -0.723633 -110.673 -5.19238 -166.04c-10.2773 -127.325 -42.0957 -267.456 -169.65 -325.896
c-50.3545 -23.0723 -110.779 -21.2334 -159.609 4.90039c-54.2461 29.0322 -80.1211 79.3027 -74.9961 139.94c5.24219 62.0059 48.3926 113.409 91.6885 154.844c49.5361 47.4053 103.877 89.333 160.988 127.196c11.6846 7.74316 23.5322 15.5088 35.4297 23.3359
c-2.85352 52.7266 -7.42871 105.582 -10.7764 158.409c-11.5781 -53.9043 -25.6738 -106.905 -55.6816 -153.56c-23.1562 -35.9961 -64.0186 -64.1309 -108.256 -61.8213c-57.4023 2.99414 -87.4883 49.833 -94.542 102.324
c-14.0166 104.281 29.2676 226.005 119.924 283.127c38.2725 24.1094 95.2266 39.6572 137.485 14.6338c3.39258 -2.00684 6.52637 -4.34473 9.54297 -6.82812c10.877 14.6562 27.793 25.2197 45.8857 29.9971c25.4326 6.71094 62.9141 0.414062 66.1377 -31.3369
c7.74316 -76.2861 8.67383 -154.098 10.5859 -230.731c0.162109 -6.52637 0.291016 -13.041 0.425781 -19.5615c48.959 38.4688 93.6396 81.5908 127.067 133.74zM164.793 125.189c19.8477 63.665 28.0723 130.268 49.0254 193.625
c-5.09668 5.70801 -10.8545 10.1602 -17.4766 12.4424c-21.1826 7.2998 -46.6602 -24.4121 -56.6738 -39.7861c-33.1475 -50.9043 -49.4629 -126.456 -47.4561 -186.505c0.46582 -13.9326 -0.548828 -81.9658 20.7686 -78.5117
c12.0039 1.94531 26.2676 36.001 30.9941 45.5605c8.46094 17.123 15.1387 34.9531 20.8184 53.1748zM239.89 -186.819c1.13281 56.9092 0.775391 113.415 -0.850586 170.318c-0.0673828 2.20312 -0.163086 4.41211 -0.236328 6.61523
c-39.9883 -27.3223 -79.0117 -55.7988 -115.899 -87.3818c-44.3164 -37.9355 -90.9541 -79.4541 -110.196 -136.145c-18.4854 -54.4756 -3.24023 -113.896 48.584 -144.252c48.5996 -28.4717 113.913 -19.6406 144.768 29.1777
c29.918 47.3271 32.749 107.264 33.8311 161.667z" />
    <glyph glyph-name="h" unicode="h" horiz-adv-x="591" 
d="M589.036 223.127c8.35938 17.3418 47.1494 17.3789 35.9248 -5.92871c-26.2227 -54.3584 -52.0312 -108.918 -78.417 -163.203c-23.6387 -48.6279 -44.2998 -103.12 -76.1689 -147.01c-22.7129 -31.2803 -57.7383 -55.2891 -97.1035 -58.5693
c-37.2568 -3.10645 -80.0986 8.16895 -96.9531 44.8711c-19.9941 43.5479 -15.918 100.272 -7.59766 145.929c9.07715 49.8223 21.3223 99.0674 32.1436 148.525c10.0918 46.1494 19.3154 95.3828 16.1982 142.452c-1.07617 16.2041 -2.84277 28.3818 -25.0684 21.5527
c-11.3086 -3.47656 -21.5693 -14.6396 -29.374 -23.0557c-15.8115 -17.0449 -27.7656 -37.499 -38.5928 -57.958c-42.9033 -81.0918 -55.7207 -169.735 -77.0996 -257.37c-0.611328 -10.0479 -1.46387 -20.084 -2.60742 -30.1201
c-3.64453 -31.9082 -76.2695 -62.7119 -90.6787 -24.4902c-34.0107 90.1973 -42.04 192.493 -50.6973 287.955c-8.89844 98.0518 -15.6719 196.625 -15.2959 295.12c0.617188 160.759 9.8125 329.288 84.6973 474.981c33.9883 66.127 81.8477 133.465 151.916 164.348
c57.6826 25.4209 138.667 30.417 184.043 -21.2607c44.165 -50.2988 43.7559 -120.973 32.4248 -183.163c-14.2188 -78.041 -46.8789 -152.325 -81.8154 -223.072c-61.1699 -123.883 -139.184 -239.288 -230.899 -342.56
c2.97168 -65.0615 7.93359 -129.972 11.9932 -194.988c0.762695 -12.2451 1.61523 -24.5068 2.47266 -36.7686c13.5684 42.1182 30.8545 82.6943 52.6934 119.604c19.7529 33.377 45.5557 67.1465 81.6299 83.9277c16.8711 7.84961 36.125 11.3711 54.3467 6.72852
c16.0635 -4.09863 40.4473 -12.7383 53.9482 -22.3262c37.2686 -26.4697 45.2754 -86.2549 46.8115 -128.093c1.84473 -50.3379 -4.00879 -100.502 -10.7988 -150.312c-6.86816 -50.3496 -15.9961 -99.7236 -27.3945 -149.231
c-2.33203 -10.1367 -15.6816 -41.6641 -3.12793 -46.9453c20.6104 -8.66797 49.3564 36.1973 56.7295 48.0664c27.3389 44.0078 48.5439 92.748 71.5488 139.122c23.627 47.6299 47.0693 95.3555 70.1689 143.243zM148.012 873.796
c-26.4307 -132.949 -26.1943 -270.165 -22.1123 -405.289c76.0957 92.417 141.566 193.138 194.209 301.013c31.5996 64.7588 62.0273 132.747 73.6611 204.357c9.05469 55.7314 10.1533 141.157 -52.166 167.442c-62.5557 26.3857 -105.128 -35.4346 -130.213 -82.9355
c-30.5791 -57.8955 -50.623 -120.429 -63.3789 -184.588z" />
    <glyph glyph-name="i" unicode="i" horiz-adv-x="302" 
d="M297.995 241.299c6.58789 17.6836 48.9062 25.3066 40.8662 2.46973c-25.2871 -71.835 -50.6016 -144.466 -88.75 -210.699c-33.4277 -58.0303 -70.0518 -102.56 -141.067 -103.496c-81.1982 -1.07129 -103.637 92.1367 -114.004 156.626
c-13.3047 82.7734 -4.78809 166.646 2.91016 249.531c6.18457 66.5752 150.252 92.6807 139.879 8.46094c-7.87207 -63.918 -15.5811 -127.853 -18.502 -192.208c-1.41309 -31.1514 -0.493164 -61.9443 0.762695 -93.0674
c1.02637 -25.3936 0.864258 -49.6152 11.377 -72.9678c6.41992 -14.2578 7.53613 -21.6416 24.2891 -12.957c11.9033 6.17285 20.7451 17.459 28.6396 28.0332c17.0615 22.8477 30.9443 48.4707 43.8516 73.8193c27.3555 53.7246 48.7227 110.034 69.748 166.455z
M60.2021 417.636c-2.76953 0.666992 -5.31934 1.92871 -7.36035 4.09277c-33.6182 35.5693 -91.0098 113.913 -34.4092 156.11c32.5586 24.2715 53.208 4.52441 64.9482 -25.2871c0.4375 0.504883 0.807617 1.04883 1.25586 1.54785
c15.2227 16.9775 47.9668 42.2529 72.5752 28.3652c50.9043 -28.7295 -44.3555 -133.762 -66.0537 -155.151c-7.33398 -7.23242 -20.3027 -13.9609 -30.9561 -9.67773z" />
    <glyph glyph-name="i" unicode="&#xef;" horiz-adv-x="302" 
d="M297.995 241.299c6.58789 17.6836 48.9062 25.3066 40.8662 2.46973c-25.2871 -71.835 -50.6016 -144.466 -88.75 -210.699c-33.4277 -58.0303 -70.0518 -102.56 -141.067 -103.496c-81.1982 -1.07129 -103.637 92.1367 -114.004 156.626
c-13.3047 82.7734 -4.78809 166.646 2.91016 249.531c6.18457 66.5752 150.252 92.6807 139.879 8.46094c-7.87207 -63.918 -15.5811 -127.853 -18.502 -192.208c-1.41309 -31.1514 -0.493164 -61.9443 0.762695 -93.0674
c1.02637 -25.3936 0.864258 -49.6152 11.377 -72.9678c6.41992 -14.2578 7.53613 -21.6416 24.2891 -12.957c11.9033 6.17285 20.7451 17.459 28.6396 28.0332c17.0615 22.8477 30.9443 48.4707 43.8516 73.8193c27.3555 53.7246 48.7227 110.034 69.748 166.455z
M60.2021 417.636c-2.76953 0.666992 -5.31934 1.92871 -7.36035 4.09277c-33.6182 35.5693 -91.0098 113.913 -34.4092 156.11c32.5586 24.2715 53.208 4.52441 64.9482 -25.2871c0.4375 0.504883 0.807617 1.04883 1.25586 1.54785
c15.2227 16.9775 47.9668 42.2529 72.5752 28.3652c50.9043 -28.7295 -44.3555 -133.762 -66.0537 -155.151c-7.33398 -7.23242 -20.3027 -13.9609 -30.9561 -9.67773z" />
    <glyph glyph-name="i" unicode="&#xee;" horiz-adv-x="302" 
d="M297.995 241.299c6.58789 17.6836 48.9062 25.3066 40.8662 2.46973c-25.2871 -71.835 -50.6016 -144.466 -88.75 -210.699c-33.4277 -58.0303 -70.0518 -102.56 -141.067 -103.496c-81.1982 -1.07129 -103.637 92.1367 -114.004 156.626
c-13.3047 82.7734 -4.78809 166.646 2.91016 249.531c6.18457 66.5752 150.252 92.6807 139.879 8.46094c-7.87207 -63.918 -15.5811 -127.853 -18.502 -192.208c-1.41309 -31.1514 -0.493164 -61.9443 0.762695 -93.0674
c1.02637 -25.3936 0.864258 -49.6152 11.377 -72.9678c6.41992 -14.2578 7.53613 -21.6416 24.2891 -12.957c11.9033 6.17285 20.7451 17.459 28.6396 28.0332c17.0615 22.8477 30.9443 48.4707 43.8516 73.8193c27.3555 53.7246 48.7227 110.034 69.748 166.455z
M60.2021 417.636c-2.76953 0.666992 -5.31934 1.92871 -7.36035 4.09277c-33.6182 35.5693 -91.0098 113.913 -34.4092 156.11c32.5586 24.2715 53.208 4.52441 64.9482 -25.2871c0.4375 0.504883 0.807617 1.04883 1.25586 1.54785
c15.2227 16.9775 47.9668 42.2529 72.5752 28.3652c50.9043 -28.7295 -44.3555 -133.762 -66.0537 -155.151c-7.33398 -7.23242 -20.3027 -13.9609 -30.9561 -9.67773z" />
    <glyph glyph-name="i" unicode="&#xed;" horiz-adv-x="302" 
d="M297.995 241.299c6.58789 17.6836 48.9062 25.3066 40.8662 2.46973c-25.2871 -71.835 -50.6016 -144.466 -88.75 -210.699c-33.4277 -58.0303 -70.0518 -102.56 -141.067 -103.496c-81.1982 -1.07129 -103.637 92.1367 -114.004 156.626
c-13.3047 82.7734 -4.78809 166.646 2.91016 249.531c6.18457 66.5752 150.252 92.6807 139.879 8.46094c-7.87207 -63.918 -15.5811 -127.853 -18.502 -192.208c-1.41309 -31.1514 -0.493164 -61.9443 0.762695 -93.0674
c1.02637 -25.3936 0.864258 -49.6152 11.377 -72.9678c6.41992 -14.2578 7.53613 -21.6416 24.2891 -12.957c11.9033 6.17285 20.7451 17.459 28.6396 28.0332c17.0615 22.8477 30.9443 48.4707 43.8516 73.8193c27.3555 53.7246 48.7227 110.034 69.748 166.455z
M60.2021 417.636c-2.76953 0.666992 -5.31934 1.92871 -7.36035 4.09277c-33.6182 35.5693 -91.0098 113.913 -34.4092 156.11c32.5586 24.2715 53.208 4.52441 64.9482 -25.2871c0.4375 0.504883 0.807617 1.04883 1.25586 1.54785
c15.2227 16.9775 47.9668 42.2529 72.5752 28.3652c50.9043 -28.7295 -44.3555 -133.762 -66.0537 -155.151c-7.33398 -7.23242 -20.3027 -13.9609 -30.9561 -9.67773z" />
    <glyph glyph-name="j" unicode="j" horiz-adv-x="262" 
d="M261.999 249.967c11.1748 17.4375 54.7178 17.3223 39.5791 -6.5293c-42.3711 -66.7881 -102.123 -121.819 -166.029 -170.15c0.425781 -55.3896 -0.723633 -110.673 -5.19238 -166.04c-10.2773 -127.325 -42.0957 -267.456 -169.65 -325.896
c-50.3496 -23.0723 -110.78 -21.2334 -159.61 4.90039c-54.2461 29.0322 -80.1211 79.3027 -74.9961 139.94c5.24219 62.0059 48.3926 113.409 91.6885 154.844c49.5361 47.4053 103.877 89.333 160.988 127.196c11.6846 7.74316 23.5322 15.5088 35.4297 23.3359
c-5.43848 100.508 -17.2412 201.498 -14.5498 301.832c0.869141 32.4688 27.916 56.4775 58.126 64.4561c25.4326 6.71094 62.9141 0.414062 66.1377 -31.3369c7.74316 -76.2861 8.67383 -154.098 10.5859 -230.731c0.162109 -6.52637 0.291016 -13.041 0.425781 -19.5615
c48.959 38.4688 93.6396 81.5908 127.067 133.74zM17.1104 -186.818c1.13281 56.9092 0.769531 113.415 -0.850586 170.318c-0.0673828 2.20312 -0.163086 4.41211 -0.236328 6.61523c-39.9883 -27.3223 -79.0117 -55.7988 -115.899 -87.3818
c-44.3164 -37.9355 -90.9541 -79.4541 -110.196 -136.145c-18.4854 -54.4756 -3.24023 -113.896 48.584 -144.252c48.5996 -28.4717 113.913 -19.6406 144.768 29.1777c29.918 47.3271 32.749 107.264 33.8311 161.667zM39.752 426.617
c-35.3115 32.7666 -96.1406 104.892 -45.6006 151.075c30.5791 27.9443 53.5449 9.54883 68.083 -19.5674c0.666992 0.869141 1.23926 1.78906 1.92871 2.6416c14.6006 18.0088 45.7188 44.1699 71.1738 31.0615c51.4541 -26.498 -36.7861 -136.375 -57.2793 -159.436
c-5.05762 -5.70215 -12.5537 -8.52246 -19.7754 -8.98828c-6.80664 -1.77148 -13.7871 -1.18848 -18.5303 3.21289z" />
    <glyph glyph-name="k" unicode="k" horiz-adv-x="538" 
d="M532.925 228.246c6.42578 15.8672 47.2344 18.7646 39.1885 -1.86328c-41.2666 -105.649 -71.0781 -256.114 -206.314 -272.884c-73.2979 -9.09473 -125.323 47.3486 -144.986 112.567c-9.57617 31.7734 -15.3848 64.4053 -18.7822 97.3506
c-1.63672 15.873 -3.02734 31.9424 -3.13965 47.8711c0 0.212891 0.0224609 0.425781 0.0224609 0.638672c-23.9639 -51.7344 -39.6348 -107.741 -50.7695 -163.736c-0.24707 -21.6699 -1.3457 -43.3291 -3.81836 -64.96
c-3.64453 -31.9082 -76.2695 -62.7119 -90.6787 -24.4902c-34.0107 90.1973 -42.04 192.493 -50.6973 287.955c-8.89844 98.0518 -15.6719 196.625 -15.2959 295.12c0.617188 160.759 9.8125 329.288 84.6973 474.981c33.9883 66.127 81.8477 133.465 151.916 164.348
c57.6826 25.4209 138.667 30.417 184.043 -21.2607c44.165 -50.2988 43.7559 -120.973 32.4248 -183.163c-14.2188 -78.041 -46.8789 -152.326 -81.8154 -223.073c-61.1699 -123.883 -139.184 -239.288 -230.899 -342.56
c2.97168 -65.0615 7.93359 -129.972 11.9932 -194.988c0.869141 -13.9102 1.84473 -27.8262 2.82031 -41.7539c5.87012 15.7715 12.2959 31.3643 19.3994 46.7324c27.5742 59.6504 66.9512 118.932 125.845 151.457c23.2959 12.8672 57.9795 24.165 83.3955 10.5127
c20.5488 -11.0342 24.877 -36.1523 15.5195 -56.415c-19.6465 -42.5498 -73.4219 -65.5654 -123.569 -74.8447c25.2588 -14.8359 43.3066 -38.1885 57.9688 -68.6387c21.8213 -45.3369 32.8164 -95.8428 54.2793 -141.538
c11.959 -25.4658 24.6748 -43.1777 52.0869 -22.5947c20.8008 15.6152 35.4238 40.8574 46.9512 63.6152c23.6328 46.6484 38.6309 97.2334 58.2158 145.614zM148.02 873.797c-26.4307 -132.949 -26.1934 -270.165 -22.1064 -405.289
c76.0898 92.417 141.561 193.138 194.203 301.013c31.5996 64.7588 62.0273 132.747 73.6611 204.357c9.05469 55.7314 10.1533 141.157 -52.166 167.442c-62.5557 26.3857 -105.128 -35.4346 -130.213 -82.9355c-30.5791 -57.8955 -50.623 -120.429 -63.3789 -184.588z
M282.024 329.072c-15.8955 -12.8281 -29.6318 -28.3584 -41.6025 -44.9434c20.5156 1.50293 40.5371 5.76953 59.791 14.0732c13.7539 5.93164 58.0586 25.5215 46.873 47.0234c-12.4414 23.9297 -51.9189 -5.54492 -65.0615 -16.1533z" />
    <glyph glyph-name="l" unicode="l" horiz-adv-x="347" 
d="M343.506 249.956c6.62207 18.4072 50.1426 26 42.0127 2.54102c-30.7031 -88.7002 -62.9365 -182.233 -128.06 -252.341c-52.3896 -56.4043 -140.512 -58.0635 -190.906 3.4043c-27.7871 33.8984 -38.0088 76.3418 -48.2021 117.967
c-11.5781 47.2715 -17.8975 96.0898 -21.7441 144.583c-16.0918 202.81 8.62305 410.564 29.8389 612.129c3.41406 32.3965 45.1846 54.6221 73.0508 59.3545c24.1484 4.10449 65.2188 -4.28906 65.1631 -36.6348c-0.370117 -218.229 -34.0166 -434.725 -29.9512 -653.385
c0.577148 -30.8379 -5.1582 -283.273 70.8701 -245.966c17.2354 8.45508 31.875 31.3418 42.9648 46.4297c15.4473 21.0088 28.4658 43.8057 40.1562 67.0791c21.8164 43.4248 38.3848 89.1768 54.8066 134.839z" />
    <glyph glyph-name="m" unicode="m" horiz-adv-x="725" 
d="M720.161 229.346c8.42188 18.3232 48.9248 18.2725 37.4697 -6.18457c-41.2383 -88.0664 -56.2754 -194.501 -113.285 -274.634c-23.1787 -32.5869 -62.3252 -50.2598 -102.05 -41.3281c-23.9971 5.39355 -42.7295 10.0811 -57.2451 31.9814
c-13.4736 20.3359 -20.0615 45.3027 -20.8799 69.418c-1.83887 53.9932 11.1133 109.389 23.168 161.723c5.49512 23.8516 10.917 47.6465 15.9355 71.6045c5.30957 25.3535 14.9531 55.2549 14.6113 81.1748c-0.202148 15.4639 2.05762 26.7168 -28.499 12.4307
c-11.04 -5.1582 -20.8857 -18.0703 -28.2197 -27.5293c-16.002 -20.6328 -27.21 -44.916 -37.1953 -68.8906c-19.4785 -46.75 -31.2861 -95.8545 -46.9795 -143.815c0.241211 -2.71387 0.504883 -5.42773 0.711914 -8.1416
c4.92285 -64.8652 -123.513 -110.808 -137.659 -36.6914c-12.5645 65.8184 -6.26758 135.78 0.146484 201.957c3 30.916 5.82617 61.7812 8.57324 92.7031c0.375977 4.20508 5.30469 43.6494 0.813477 45.0566c-4.16016 1.30664 -17.8516 -26.7607 -19.5107 -29.7656
c-58.3896 -105.75 -83.8389 -225.473 -102.56 -343.703c-0.0332031 -0.202148 -0.128906 -0.381836 -0.167969 -0.578125c-0.785156 -7.40137 -1.95703 -14.6846 -3.71191 -21.7832c-6.2793 -25.4102 -46.5869 -44.1982 -67.8252 -25.6289
c-41.2441 36.0518 -53.4277 109.607 -61.6807 161.324c-9.57617 59.998 -8.5332 120.361 -2.71289 180.606c3.17383 32.8506 49.1777 55.7549 77.2852 57.2852c32.3232 1.76074 54.5371 -17.1113 51.7227 -49.4795c-3.7793 -43.4473 -4.16602 -87.0293 -2.89355 -130.566
c4.32812 16.1416 8.9707 32.2051 14.1289 48.1289c11.6396 35.9229 25.4385 71.3076 42.0234 105.251c12.7158 26.0264 26.4521 58.9941 50.8252 76.4814c63.5361 45.583 110.577 -40.5039 122.357 -91.666c8.79688 -38.2051 12.6484 -78.3613 16.624 -117.323
c0.599609 -5.88672 1.27246 -11.7686 1.97363 -17.6445c5.15234 15.0264 10.625 29.9121 16.4395 44.5625c16.1416 40.6826 35.8828 81.3828 69.0361 111.026c32.5586 29.1104 69.6367 40.8174 106.827 14.5439c19.9492 -14.0898 32.0547 -20.7285 41.1885 -44.6357
c9.19531 -24.0811 13.8828 -50.6182 14.9424 -76.3145c2.11328 -51.3916 -5.53418 -102.492 -10.2832 -153.536c-2.52832 -27.1934 -3.34668 -54.6895 -7.35547 -81.709c-1.39062 -9.375 -10.2158 -52.3564 -1.3291 -56.9424
c22.6631 -11.7012 113.403 255.475 125.239 281.232z" />
    <glyph glyph-name="n" unicode="n" horiz-adv-x="523" 
d="M517.698 223.245c9.80078 17.6836 51.2266 17.5918 38 -6.28223c-42.9541 -77.5361 -67.2539 -164.778 -119.504 -237.19c-41.6641 -57.7393 -109.108 -112.231 -174.287 -52.6875c-70.7744 64.6523 -23.5029 169.118 -4.32812 246.576
c10.7988 43.6211 26.4248 87.1523 34.1172 131.424c1.77148 10.1934 4.2666 22.5117 -9.3916 24.4521c-9.85156 1.40137 -23.5996 -12.375 -29.8398 -18.6543c-14.9814 -15.082 -27.5459 -32.5361 -38.6924 -50.5625c-42.3877 -68.543 -70.4727 -144.655 -90.5225 -222.45
c0.476562 -22.8145 -0.515625 -45.3037 -13.4277 -65.2529c-9.375 -14.4883 -29.1055 -27.3779 -47.3271 -23.083c-64.4277 15.1836 -71.9805 106.788 -74.6943 161.914c-3.38672 68.79 -2.11426 139.032 7.0752 207.329c4.28906 31.8301 43.5479 53.3604 71.5254 58.1152
c23.7783 4.03711 63.6875 -4.21094 63.7998 -35.873c0.212891 -58.9111 -6.72852 -117.671 -7.66504 -176.621c16.5957 41.6309 37.0664 81.6074 61.4053 118.019c38.1436 57.0547 102.684 114.424 172.034 65.751c34.3135 -24.0811 38.8994 -69.3447 40.2676 -108.01
c1.60352 -45.1738 -5.43262 -89.6191 -16.3545 -133.347c-5.64648 -22.5957 -12.3691 -44.7422 -18.3848 -67.2197c-5.67383 -21.1992 -13.3555 -44.3496 -16.0859 -66.042c-2.46094 -19.5674 12.958 -22.3535 26.9131 -12.0762
c16.9385 12.4639 29.6211 31.9424 40.7783 49.4297c42.5498 66.6875 66.3447 143.311 104.589 212.342z" />
    <glyph glyph-name="o" unicode="o" horiz-adv-x="369" 
d="M380.22 262.796c15.127 13.5518 46.4199 0.52832 28.4053 -18.6523c-35.1543 -37.4199 -86.3447 -65.0615 -140.271 -76.3369c-8.9209 -93.8359 -54.7002 -222.994 -166.909 -221.856c-133.123 1.35156 -141.314 184.941 -124.887 279.085
c5.61816 32.1943 46.127 53.8535 79.6777 54.5098c-5.50586 53.3711 22.6797 109.047 84.1133 121.713c105.453 21.7432 129.618 -110.769 129.714 -195.393c41.1592 9.13867 80.5137 30.3994 110.157 56.9307zM218.33 140.254
c1.20508 7.31152 2.11816 14.6865 2.875 22.0879c-39.1689 -0.897461 -77.7715 7.63574 -110.835 28.1787c-4.68164 2.9043 -9.01562 6.12793 -13.0977 9.55957c-4.22754 -39.0127 -4.76562 -78.3613 3.36426 -117.06c5.99414 -28.5166 20.7734 -83.5137 60.1113 -67.6074
c39.1582 15.834 51.499 87.9316 57.582 124.841zM141.241 226.87c24.9619 -17.2803 53.1396 -25.0752 81.8916 -25.7871c-0.078125 30.165 -3.79004 60.375 -11.4766 89.3457c-5.95996 22.4385 -14.9473 46.1719 -33.4941 61.3105
c-21.3789 17.4482 -48.0674 16.7588 -64.5625 -7.46777c-25.6396 -37.6494 -7.54102 -93.0449 27.6416 -117.401z" />
    <glyph glyph-name="o" unicode="&#xf6;" horiz-adv-x="369" 
d="M380.22 262.796c15.127 13.5518 46.4199 0.52832 28.4053 -18.6523c-35.1543 -37.4199 -86.3447 -65.0615 -140.271 -76.3369c-8.9209 -93.8359 -54.7002 -222.994 -166.909 -221.856c-133.123 1.35156 -141.314 184.941 -124.887 279.085
c5.61816 32.1943 46.127 53.8535 79.6777 54.5098c-5.50586 53.3711 22.6797 109.047 84.1133 121.713c105.453 21.7432 129.618 -110.769 129.714 -195.393c41.1592 9.13867 80.5137 30.3994 110.157 56.9307zM218.33 140.254
c1.20508 7.31152 2.11816 14.6865 2.875 22.0879c-39.1689 -0.897461 -77.7715 7.63574 -110.835 28.1787c-4.68164 2.9043 -9.01562 6.12793 -13.0977 9.55957c-4.22754 -39.0127 -4.76562 -78.3613 3.36426 -117.06c5.99414 -28.5166 20.7734 -83.5137 60.1113 -67.6074
c39.1582 15.834 51.499 87.9316 57.582 124.841zM141.241 226.87c24.9619 -17.2803 53.1396 -25.0752 81.8916 -25.7871c-0.078125 30.165 -3.79004 60.375 -11.4766 89.3457c-5.95996 22.4385 -14.9473 46.1719 -33.4941 61.3105
c-21.3789 17.4482 -48.0674 16.7588 -64.5625 -7.46777c-25.6396 -37.6494 -7.54102 -93.0449 27.6416 -117.401z" />
    <glyph glyph-name="o" unicode="&#xf5;" horiz-adv-x="369" 
d="M380.22 262.796c15.127 13.5518 46.4199 0.52832 28.4053 -18.6523c-35.1543 -37.4199 -86.3447 -65.0615 -140.271 -76.3369c-8.9209 -93.8359 -54.7002 -222.994 -166.909 -221.856c-133.123 1.35156 -141.314 184.941 -124.887 279.085
c5.61816 32.1943 46.127 53.8535 79.6777 54.5098c-5.50586 53.3711 22.6797 109.047 84.1133 121.713c105.453 21.7432 129.618 -110.769 129.714 -195.393c41.1592 9.13867 80.5137 30.3994 110.157 56.9307zM218.33 140.254
c1.20508 7.31152 2.11816 14.6865 2.875 22.0879c-39.1689 -0.897461 -77.7715 7.63574 -110.835 28.1787c-4.68164 2.9043 -9.01562 6.12793 -13.0977 9.55957c-4.22754 -39.0127 -4.76562 -78.3613 3.36426 -117.06c5.99414 -28.5166 20.7734 -83.5137 60.1113 -67.6074
c39.1582 15.834 51.499 87.9316 57.582 124.841zM141.241 226.87c24.9619 -17.2803 53.1396 -25.0752 81.8916 -25.7871c-0.078125 30.165 -3.79004 60.375 -11.4766 89.3457c-5.95996 22.4385 -14.9473 46.1719 -33.4941 61.3105
c-21.3789 17.4482 -48.0674 16.7588 -64.5625 -7.46777c-25.6396 -37.6494 -7.54102 -93.0449 27.6416 -117.401z" />
    <glyph glyph-name="o" unicode="&#xf4;" horiz-adv-x="369" 
d="M380.22 262.796c15.127 13.5518 46.4199 0.52832 28.4053 -18.6523c-35.1543 -37.4199 -86.3447 -65.0615 -140.271 -76.3369c-8.9209 -93.8359 -54.7002 -222.994 -166.909 -221.856c-133.123 1.35156 -141.314 184.941 -124.887 279.085
c5.61816 32.1943 46.127 53.8535 79.6777 54.5098c-5.50586 53.3711 22.6797 109.047 84.1133 121.713c105.453 21.7432 129.618 -110.769 129.714 -195.393c41.1592 9.13867 80.5137 30.3994 110.157 56.9307zM218.33 140.254
c1.20508 7.31152 2.11816 14.6865 2.875 22.0879c-39.1689 -0.897461 -77.7715 7.63574 -110.835 28.1787c-4.68164 2.9043 -9.01562 6.12793 -13.0977 9.55957c-4.22754 -39.0127 -4.76562 -78.3613 3.36426 -117.06c5.99414 -28.5166 20.7734 -83.5137 60.1113 -67.6074
c39.1582 15.834 51.499 87.9316 57.582 124.841zM141.241 226.87c24.9619 -17.2803 53.1396 -25.0752 81.8916 -25.7871c-0.078125 30.165 -3.79004 60.375 -11.4766 89.3457c-5.95996 22.4385 -14.9473 46.1719 -33.4941 61.3105
c-21.3789 17.4482 -48.0674 16.7588 -64.5625 -7.46777c-25.6396 -37.6494 -7.54102 -93.0449 27.6416 -117.401z" />
    <glyph glyph-name="o" unicode="&#xf3;" horiz-adv-x="369" 
d="M380.22 262.796c15.127 13.5518 46.4199 0.52832 28.4053 -18.6523c-35.1543 -37.4199 -86.3447 -65.0615 -140.271 -76.3369c-8.9209 -93.8359 -54.7002 -222.994 -166.909 -221.856c-133.123 1.35156 -141.314 184.941 -124.887 279.085
c5.61816 32.1943 46.127 53.8535 79.6777 54.5098c-5.50586 53.3711 22.6797 109.047 84.1133 121.713c105.453 21.7432 129.618 -110.769 129.714 -195.393c41.1592 9.13867 80.5137 30.3994 110.157 56.9307zM218.33 140.254
c1.20508 7.31152 2.11816 14.6865 2.875 22.0879c-39.1689 -0.897461 -77.7715 7.63574 -110.835 28.1787c-4.68164 2.9043 -9.01562 6.12793 -13.0977 9.55957c-4.22754 -39.0127 -4.76562 -78.3613 3.36426 -117.06c5.99414 -28.5166 20.7734 -83.5137 60.1113 -67.6074
c39.1582 15.834 51.499 87.9316 57.582 124.841zM141.241 226.87c24.9619 -17.2803 53.1396 -25.0752 81.8916 -25.7871c-0.078125 30.165 -3.79004 60.375 -11.4766 89.3457c-5.95996 22.4385 -14.9473 46.1719 -33.4941 61.3105
c-21.3789 17.4482 -48.0674 16.7588 -64.5625 -7.46777c-25.6396 -37.6494 -7.54102 -93.0449 27.6416 -117.401z" />
    <glyph glyph-name="p" unicode="p" horiz-adv-x="521" 
d="M528.375 252.591c20.8682 16.9385 50.4219 -4.10938 25.9316 -23.9912c-40.3242 -32.7266 -84.1475 -55.0586 -129.804 -73.7402c-8.96484 -39.6514 -25.7793 -76.2139 -47.6006 -100.945c-37.0557 -41.9951 -101.344 -76.8242 -157.787 -53.1973
c-47.5459 19.9043 -39.2422 68.9189 -6.84082 99.1729c25.7803 24.0645 58.6191 36.9043 92.1816 47.5293c11.5498 44.7588 15.5254 89.8652 13.002 135.97c-0.795898 14.4932 0.65625 47.7861 -16.1133 53.6338c-21.4121 7.46875 -40.167 -25.7627 -48.2461 -40.1328
c-46.1611 -82.1006 -60.4248 -183.326 -71.8125 -275.524c-12.0322 -97.4297 -20.1172 -195.549 -27.7197 -293.427c1.23926 -24.3057 0.0390625 -48.3867 -6.76758 -71.5146c-6.91895 -23.498 -47.4053 -46.8564 -68.1445 -25.7471
c-41.6191 42.3652 -48.4258 111.139 -59.9531 167.146c-11.9814 58.1982 -19.3096 117.294 -24.9053 176.424c-5.77539 61.0752 -7.32812 122.498 -6.8291 183.831c0.487305 60.1943 -0.628906 123.686 12.917 182.585c7.20508 31.3252 40.4082 51.8516 69.9951 56.875
c24.7256 4.19922 60.5137 -4.27832 62.4365 -35.1045c3.67285 -58.8604 -4.9502 -119.032 -5.94824 -178.016c-0.981445 -58.0361 0.62793 -116.078 2.87598 -174.069c0.532227 -13.8428 1.26074 -27.6689 2.07324 -41.4951c6.2793 62.3086 15.082 124.23 28.6338 185.059
c19.2822 86.5469 63.1719 254.084 184.649 213.171c70.1807 -23.6328 92.7871 -99.7227 85.874 -174.489c34.7627 16.1309 67.8096 35.5752 97.9014 59.998zM239.114 53.9355c1.12695 -0.0615234 3.36523 1.94043 5.68652 4.31738
c-0.347656 -0.24707 -0.650391 -0.46582 -1.04883 -0.746094c-1.54785 -1.18848 -3.08984 -2.38281 -4.6377 -3.57129zM251.865 65.6592c13.9102 11.7578 25.3096 24.2666 34.3193 38.4688c-18.1553 -6.9248 -41.8721 -17.4824 -49.5986 -34.3867
c-8.41602 -18.4072 1.62012 -9.35742 8.35352 -10.5352c0.695312 0.40918 1.26172 0.734375 1.75 1.00879c2.17578 2.33203 4.19434 4.61426 5.17578 5.44434z" />
    <glyph glyph-name="q" unicode="q" horiz-adv-x="482" 
d="M513.231 263.138c8.60059 -2.17578 15.4268 -10.7695 9.5 -19.4883c-25.0625 -36.9268 -59.6787 -63.2842 -93.5547 -91.5986c-35.3848 -29.5762 -92.4902 -83.3115 -61.6641 -132.792c45.0391 -72.2998 127.19 -137.198 110.875 -232.94
c-15.335 -89.9834 -122.874 -107.387 -181.499 -45.7568c-67.8252 71.3076 -83.749 173.94 -85.667 268.477c-0.852539 42.1182 -0.185547 84.5391 1.99023 126.933c-9.80664 -34.9082 -22.6914 -68.6279 -42.5791 -99.5498
c-23.1562 -35.9961 -64.0186 -64.1309 -108.256 -61.8213c-57.4023 2.99414 -87.4883 49.833 -94.542 102.324c-14.0166 104.281 29.2676 226.005 119.924 283.127c38.2725 24.1094 95.2266 39.6572 137.485 14.6338c7.55762 -4.47461 14.0947 -10.2725 19.8867 -16.9053
c14.0615 19.2988 39.8477 31.9307 61.2266 35.5635c22.3936 3.80176 64.6182 -4.10938 63.2559 -35.5635c-3.40332 -78.5117 -13.249 -156.485 -18.374 -234.829c39.5 47.7646 98.8535 75.6699 134.541 126.799c5.73047 8.20801 16.6523 16.125 27.4512 13.3887z
M164.895 125.195c19.8477 63.665 28.0781 130.268 49.0254 193.625c-5.09668 5.70801 -10.8545 10.1602 -17.4766 12.4424c-21.1826 7.2998 -46.6602 -24.4121 -56.6738 -39.7861c-33.1475 -50.9043 -49.4629 -126.456 -47.4561 -186.505
c0.46582 -13.9326 -0.548828 -81.9658 20.7686 -78.5117c12.0039 1.94531 26.2676 36.001 30.9941 45.5605c8.46094 17.123 15.1387 34.9531 20.8184 53.1748zM391.909 -93.5391c-12.0039 17.959 -27.7305 35.3125 -42.2188 53.3105
c0.930664 -15.8506 2.34375 -31.6562 4.46875 -47.3271c5.21973 -38.5137 9.75 -80.1104 25.0625 -116.156c5.32617 -12.5371 17.0439 -38.1826 33.5615 -39.6064c17.207 -1.48535 19.4941 27.3164 19.6172 40.0547c0.398438 39.7354 -18.9502 77.4912 -40.4912 109.725z
" />
    <glyph glyph-name="r" unicode="r" horiz-adv-x="410" 
d="M422.891 266.872c19.501 12.834 46.6191 -4.54297 23.2725 -21.543c-43.7441 -31.8525 -94.2783 -55.373 -149.702 -46.083c-57.3965 9.62109 -82.0557 59.5381 -82.7617 113.901c-0.0898438 7.16504 2.99902 15.2393 2.3877 22.3486
c1.37402 3.63281 0.533203 6.81738 -2.5166 9.54785c-2.6748 8.05664 -5.43359 6.98047 -8.28223 -3.24121c-8.19727 -10.2607 -13.2324 -27.2773 -18.3174 -39.1191c-12.6768 -29.5312 -23.083 -59.9932 -32.1943 -90.7969
c-16.2148 -54.8232 -28.5615 -110.605 -40.1396 -166.556c-1.21094 -12.2227 -3.34668 -24.2383 -7.36133 -35.5137c-7.60254 -21.3789 -48.7285 -49.9346 -68.79 -25.9932c-36.4893 43.5479 -40.3184 117.899 -44.1592 172.526
c-4.37305 62.2129 -6.52051 127.123 3.9248 188.854c5.05176 29.8789 39.9883 49.8164 66.9463 54.3975c22.0293 3.74512 59.8975 -3.9248 59.7178 -33.5732c-0.274414 -45.5332 -4.59766 -91.0664 -6.84082 -136.639c8.9209 28.668 19.1201 56.9482 30.9619 84.5391
c9.66016 22.5166 19.5117 48.7568 40.1221 63.665c42.0566 30.4277 100.973 -6.3584 117.737 -48.7959c9.09473 -23.0156 10.7988 -58.5127 25.4385 -78.3604c20.8857 -28.3145 69.626 2.66309 90.5566 16.4336z" />
    <glyph glyph-name="s" unicode="s" horiz-adv-x="360" 
d="M375.641 267.55c26.4141 11.8916 41.1123 -17.8965 14.5752 -29.9004c-60.8672 -27.5576 -118.398 -64.501 -167.688 -110.118c51.2012 -46.043 95.9326 -101.926 60.4756 -170.486c-30.8652 -59.6846 -133.072 -120.075 -187.957 -54.3633
c-36.041 43.1504 -17.6562 98.6074 12.3174 145.677c-30.1426 21.4961 -60.7783 42.5889 -84.8203 70.8418c-27.8262 32.6992 -48.2178 71.8291 -45.6104 115.927c2.6748 45.1348 26.9805 85.8066 59.3936 116.375c49.2617 46.4639 129.747 77.29 185.305 22.7637
c17.4766 -17.1514 -20.874 -41.0928 -36.7412 -27.7656c-46.4072 38.9844 -109.652 2.57422 -101.78 -56.415c6.01074 -45.0508 43.7559 -80.29 75.9834 -108.683c11.124 -9.80664 23.9131 -20.1963 37.1006 -31.1914c53.1416 48.2969 113.83 87.791 179.446 117.339z
M189.9 -85.6729c21.1768 8.93164 22.3604 21.8896 12.4082 40.1172c-15.9346 29.1943 -38.7432 51.1338 -63.7666 70.7969c-13.2998 -25.4834 -21.0205 -54.0332 -12.5713 -81.501c8.5957 -27.9443 37.3027 -40.6377 63.9297 -29.4131z" />
    <glyph glyph-name="t" unicode="t" horiz-adv-x="359" 
d="M355.24 249.956c6.62207 18.4072 50.1367 25.9971 42.0068 2.52734c-30.6973 -88.7002 -62.9365 -182.233 -128.06 -252.341c-52.3896 -56.4043 -140.512 -58.0635 -190.906 3.4043c-27.7871 33.8984 -38.0088 76.3418 -48.2021 117.967
c-11.5781 47.2715 -17.8916 96.0898 -21.7432 144.583c-8.66797 109.254 -5.44922 219.938 2.6416 330.319c-26.8955 -2.18652 -53.791 -4.91113 -80.7041 -8.35938c-29.3906 -3.76758 -12.9736 31.6953 8.32617 34.7734c24.9561 3.60547 50.0244 6.74512 75.1602 9.37988
c6.78418 82.5215 15.8613 164.773 24.4121 246.017c3.41504 32.3965 45.1855 54.6221 73.0518 59.3545c24.1484 4.10449 65.2188 -4.28906 65.1631 -36.6348c-0.151367 -86.7881 -5.57324 -173.307 -11.7803 -259.792c27.8096 0.314453 55.6133 -0.111328 83.3672 -1.49609
c26.4756 -1.31738 4.52539 -36.0459 -14.0664 -35.9336c-24.0586 0.145508 -48.0615 0.0449219 -72.0303 -0.325195c-8.68457 -118.382 -17.6494 -236.781 -15.4346 -355.825c0.577148 -30.8379 -5.1582 -283.273 70.8701 -245.966
c17.2354 8.45508 31.875 31.3418 42.9648 46.4297c15.4473 21.0088 28.4658 43.8057 40.1562 67.0791c21.8164 43.4248 38.3848 89.1768 54.8066 134.839z" />
    <glyph glyph-name="u" unicode="u" horiz-adv-x="551" 
d="M547.215 241.299c6.59375 17.6836 48.9141 25.3086 40.8848 2.47168c-25.2871 -71.835 -50.6016 -144.466 -88.7559 -210.699c-33.4277 -58.0303 -70.0518 -102.56 -141.067 -103.496c-81.1982 -1.07129 -103.643 92.1367 -114.004 156.626
c-4.27246 26.5928 -6.27441 53.3037 -6.7959 80.0596c-4.21094 -11.5439 -8.51172 -23.0547 -13.0137 -34.4756c-21.7207 -55.1094 -46.749 -115.326 -105.021 -139.155c-69.5527 -28.4375 -117.009 34.8799 -132.921 95.5508
c-18.626 71.0049 1.31738 147.583 7.81055 219.171c2.88184 31.7959 44.7764 53.7686 71.8291 58.3662c22.1523 3.76172 66.1152 -4.15527 64.0684 -36.0244c-1.81055 -28.1348 -56.0508 -297.352 -7.63574 -295.104c16.2764 0.750977 37.6719 55.3555 43.4023 67.5166
c11.9648 25.3711 21.8838 51.5996 31.2637 78.0186c18.3398 51.6445 34.874 103.889 50.0684 156.537c7.44043 65.874 150.05 91.3516 139.728 7.5293c-7.87207 -63.918 -15.5811 -127.853 -18.502 -192.208c-1.41895 -31.1514 -0.494141 -61.9443 0.755859 -93.0674
c1.02637 -25.3936 0.864258 -49.6152 11.377 -72.9678c6.41992 -14.2578 7.53613 -21.6416 24.2891 -12.957c11.9033 6.17285 20.7451 17.459 28.6396 28.0332c17.0615 22.8477 30.9443 48.4707 43.8516 73.8193c27.3555 53.7246 48.7227 110.034 69.748 166.455z" />
    <glyph glyph-name="u" unicode="&#xfc;" horiz-adv-x="551" 
d="M547.215 241.299c6.59375 17.6836 48.9141 25.3086 40.8848 2.47168c-25.2871 -71.835 -50.6016 -144.466 -88.7559 -210.699c-33.4277 -58.0303 -70.0518 -102.56 -141.067 -103.496c-81.1982 -1.07129 -103.643 92.1367 -114.004 156.626
c-4.27246 26.5928 -6.27441 53.3037 -6.7959 80.0596c-4.21094 -11.5439 -8.51172 -23.0547 -13.0137 -34.4756c-21.7207 -55.1094 -46.749 -115.326 -105.021 -139.155c-69.5527 -28.4375 -117.009 34.8799 -132.921 95.5508
c-18.626 71.0049 1.31738 147.583 7.81055 219.171c2.88184 31.7959 44.7764 53.7686 71.8291 58.3662c22.1523 3.76172 66.1152 -4.15527 64.0684 -36.0244c-1.81055 -28.1348 -56.0508 -297.352 -7.63574 -295.104c16.2764 0.750977 37.6719 55.3555 43.4023 67.5166
c11.9648 25.3711 21.8838 51.5996 31.2637 78.0186c18.3398 51.6445 34.874 103.889 50.0684 156.537c7.44043 65.874 150.05 91.3516 139.728 7.5293c-7.87207 -63.918 -15.5811 -127.853 -18.502 -192.208c-1.41895 -31.1514 -0.494141 -61.9443 0.755859 -93.0674
c1.02637 -25.3936 0.864258 -49.6152 11.377 -72.9678c6.41992 -14.2578 7.53613 -21.6416 24.2891 -12.957c11.9033 6.17285 20.7451 17.459 28.6396 28.0332c17.0615 22.8477 30.9443 48.4707 43.8516 73.8193c27.3555 53.7246 48.7227 110.034 69.748 166.455z" />
    <glyph glyph-name="u" unicode="&#xfb;" horiz-adv-x="551" 
d="M547.215 241.299c6.59375 17.6836 48.9141 25.3086 40.8848 2.47168c-25.2871 -71.835 -50.6016 -144.466 -88.7559 -210.699c-33.4277 -58.0303 -70.0518 -102.56 -141.067 -103.496c-81.1982 -1.07129 -103.643 92.1367 -114.004 156.626
c-4.27246 26.5928 -6.27441 53.3037 -6.7959 80.0596c-4.21094 -11.5439 -8.51172 -23.0547 -13.0137 -34.4756c-21.7207 -55.1094 -46.749 -115.326 -105.021 -139.155c-69.5527 -28.4375 -117.009 34.8799 -132.921 95.5508
c-18.626 71.0049 1.31738 147.583 7.81055 219.171c2.88184 31.7959 44.7764 53.7686 71.8291 58.3662c22.1523 3.76172 66.1152 -4.15527 64.0684 -36.0244c-1.81055 -28.1348 -56.0508 -297.352 -7.63574 -295.104c16.2764 0.750977 37.6719 55.3555 43.4023 67.5166
c11.9648 25.3711 21.8838 51.5996 31.2637 78.0186c18.3398 51.6445 34.874 103.889 50.0684 156.537c7.44043 65.874 150.05 91.3516 139.728 7.5293c-7.87207 -63.918 -15.5811 -127.853 -18.502 -192.208c-1.41895 -31.1514 -0.494141 -61.9443 0.755859 -93.0674
c1.02637 -25.3936 0.864258 -49.6152 11.377 -72.9678c6.41992 -14.2578 7.53613 -21.6416 24.2891 -12.957c11.9033 6.17285 20.7451 17.459 28.6396 28.0332c17.0615 22.8477 30.9443 48.4707 43.8516 73.8193c27.3555 53.7246 48.7227 110.034 69.748 166.455z" />
    <glyph glyph-name="u" unicode="&#xfa;" horiz-adv-x="551" 
d="M547.215 241.299c6.59375 17.6836 48.9141 25.3086 40.8848 2.47168c-25.2871 -71.835 -50.6016 -144.466 -88.7559 -210.699c-33.4277 -58.0303 -70.0518 -102.56 -141.067 -103.496c-81.1982 -1.07129 -103.643 92.1367 -114.004 156.626
c-4.27246 26.5928 -6.27441 53.3037 -6.7959 80.0596c-4.21094 -11.5439 -8.51172 -23.0547 -13.0137 -34.4756c-21.7207 -55.1094 -46.749 -115.326 -105.021 -139.155c-69.5527 -28.4375 -117.009 34.8799 -132.921 95.5508
c-18.626 71.0049 1.31738 147.583 7.81055 219.171c2.88184 31.7959 44.7764 53.7686 71.8291 58.3662c22.1523 3.76172 66.1152 -4.15527 64.0684 -36.0244c-1.81055 -28.1348 -56.0508 -297.352 -7.63574 -295.104c16.2764 0.750977 37.6719 55.3555 43.4023 67.5166
c11.9648 25.3711 21.8838 51.5996 31.2637 78.0186c18.3398 51.6445 34.874 103.889 50.0684 156.537c7.44043 65.874 150.05 91.3516 139.728 7.5293c-7.87207 -63.918 -15.5811 -127.853 -18.502 -192.208c-1.41895 -31.1514 -0.494141 -61.9443 0.755859 -93.0674
c1.02637 -25.3936 0.864258 -49.6152 11.377 -72.9678c6.41992 -14.2578 7.53613 -21.6416 24.2891 -12.957c11.9033 6.17285 20.7451 17.459 28.6396 28.0332c17.0615 22.8477 30.9443 48.4707 43.8516 73.8193c27.3555 53.7246 48.7227 110.034 69.748 166.455z" />
    <glyph glyph-name="v" unicode="v" horiz-adv-x="517" 
d="M520.929 259.415c15.6934 17.7793 55.4863 7.8623 34.7471 -15.8545c-45.0674 -51.5215 -122.576 -78.5352 -190.049 -68.6338c-6.33594 -16.6973 -13.1318 -33.1924 -20.3418 -49.3965c-23.8848 -53.6738 -53.085 -113.712 -95.3604 -155.595
c-43.7832 -43.3857 -110.538 -42.0791 -158.499 -5.5957c-49.8389 37.9131 -70.7246 108.402 -84.3047 166.394c-15.6709 66.9346 -19.2422 140.439 -11.9473 208.657c5.70215 53.3213 128.183 90.2646 133.593 21.9629c7.88867 -99.5996 -7.44043 -205.86 28.1406 -301.849
c6.66113 -17.9697 16.1201 -36.5449 28.1748 -51.5039c11.8867 -14.7461 20.2803 -16.2539 34.9033 -4.2998c33.4619 27.3555 54.5664 72.6641 73.125 110.723c11.0176 22.6016 21.9561 46.7275 31.7852 71.7168c-34.168 14.4434 -62.4707 41.1094 -77.5703 82.207
c-18.5303 50.4443 -18.5469 120.372 9.63867 167.738c21.7324 36.5176 79.4941 65.0615 116.561 32.4863c40.6328 -35.71 35.2451 -111.812 28.2979 -159.441c-4.7207 -32.3682 -12.6152 -64.3271 -22.6455 -95.6299c49.6426 -10.541 107.186 6.75586 141.752 45.9141z
M340.189 228.926c16.2207 51.123 25.4824 104.399 19.1016 155.118c-2.41113 19.1807 -7.69238 53.6064 -30.6582 59.3594c-22.9766 5.75293 -33.9941 -22.2363 -38.8721 -40.1055c-11.6338 -42.6338 -9.95703 -92.4951 10.9512 -131.995
c9.77832 -18.4746 23.4873 -32.4639 39.4775 -42.377z" />
    <glyph glyph-name="w" unicode="w" horiz-adv-x="735" 
d="M744.555 271.104c14.3594 15.665 49.2354 8.76758 31.6465 -14.4395c-40.5205 -53.4775 -111.021 -80.0205 -174.916 -71.3076c-0.577148 -2.18652 -1.09277 -4.38477 -1.6875 -6.56543c-15.6934 -57.5088 -25.8301 -122.559 -60.2617 -172.577
c-34.1514 -49.6143 -95.3721 -73.3984 -153.357 -53.5615c-59.8584 20.4766 -94.6602 85.1064 -111.145 142.638c-1.73242 6.05566 -3.29688 12.1113 -4.76562 18.1611c-3.8125 -13.3945 -8.05078 -26.6602 -12.833 -39.7578
c-20.207 -55.3389 -62.1572 -124.605 -129.086 -124.785c-75.1143 -0.207031 -114.855 81.8877 -130.583 143.675c-19.0576 74.8682 -14.1016 155.096 -1.83984 230.637c10.1592 62.5947 146.152 86.0479 131.866 7.97266
c-10.625 -58.0527 -14.5332 -116.381 -13.3105 -175.331c0.930664 -44.9053 5.53418 -100.855 33.708 -138.337c33.4834 -44.541 75.5293 89.4453 81.2871 110.056c11.4434 40.9629 19.2646 82.7559 25.5439 124.784c-0.0449219 10.2383 0.0673828 20.5215 0.331055 30.877
c0.897461 35.2051 30.3105 61.2539 63.0322 69.8936c25.0732 6.62207 71.7109 0.90918 71.7168 -33.9766c0.0107422 -88.1836 -10.2441 -197.533 37.5039 -276.241c6.54883 -10.7988 21.0088 -32.6934 35.7266 -29.7891c15.0322 2.97168 25.6514 28.2246 32.251 39.7744
c22.2256 38.9004 43.7441 79.8418 56.2979 122.986c2.09668 7.19336 4.05371 14.4258 5.9541 21.6699c-27.126 11.9365 -51.0332 31.7627 -68.0498 60.4307c-28.3369 47.7305 -26.6553 110.824 -11.0518 162.502c12.7383 42.1797 49.0146 99.1621 101.545 87.0068
c55.6592 -12.8789 49.8789 -98.7754 48.2422 -140.81c-1.87793 -48.0957 -7.82129 -96.0117 -17.8633 -143.069c46.7383 -10.3506 98.4668 8.60645 134.098 47.4844zM578.724 307.732c5.23633 43.1387 11.627 94.4238 -2.26074 136.699
c-2.83105 8.6123 -7.88867 22.624 -18.0205 23.9473c-11.292 1.48047 -18.5137 -11.6396 -23.6885 -21.1035c-9.89062 -18.0762 -14.7129 -39.4658 -17.6504 -59.7285c-5.93164 -40.874 -1.26074 -85.7285 24.71 -119.263
c7.99512 -10.3281 16.8711 -18.8057 26.335 -25.6406c4.38477 21.5469 7.92871 43.2617 10.5752 65.0889z" />
    <glyph glyph-name="x" unicode="x" horiz-adv-x="422" 
d="M422.93 255.305c4.05957 17.5381 42.749 24.7852 38.0225 2.2959c-15.7549 -74.8457 -45.3193 -146.428 -88.458 -209.7c-18.9121 -27.7422 -39.6348 -55.877 -67.377 -75.4502c-28.124 -19.8428 -58.2666 -24.8213 -91.9746 -25.3984
c-66.3008 -1.12695 -113.863 47.4453 -145.307 101.792c-13.4229 -24.4121 -26.0098 -49.2891 -37.5371 -74.7275c-9.375 -20.6895 -54.9531 -20.6387 -42.2031 6.96973c17.4648 37.835 37.2686 74.3525 58.748 109.872c-32.4863 75.4844 -47.3945 158.964 -54.0889 240.414
c-5.14746 62.6621 120.765 107.181 132.999 35.4531c7.49609 -43.9795 12.7217 -88.2568 19.4609 -132.31c18.6709 24.6641 37.7959 48.9922 57.1953 73.0898c22.0742 27.417 43.0322 59.4707 75.793 74.8779c23.9863 11.2812 36.4893 -14.9248 13.249 -27.1699
c-15.6484 -8.24219 -26.3691 -26.1562 -37.2354 -39.7021c-12.3965 -15.4473 -24.7432 -30.9277 -36.9434 -46.5254c-21.71 -27.7598 -42.999 -55.8721 -63.4697 -84.5625c0.834961 -4.33398 1.62598 -8.67383 2.52832 -12.9971
c11.0508 -52.9785 24.2939 -127.583 65.498 -166.208c9.93555 -9.3125 18.2559 -18.4629 32.1328 -18.3115c15.7383 0.173828 30.6465 11.9648 41.6299 22.2422c23.2568 21.7598 41.9385 49.5811 58.5068 76.5605c32.2393 52.4971 54.9473 109.541 68.8301 169.495z" />
    <glyph glyph-name="y" unicode="y" horiz-adv-x="527" 
d="M527.395 249.967c11.1748 17.4375 54.7109 17.3223 39.5781 -6.52344c-42.3711 -66.7881 -102.123 -121.819 -166.029 -170.15c0.425781 -55.3896 -0.723633 -110.673 -5.19238 -166.04c-10.2773 -127.325 -42.0957 -267.456 -169.65 -325.896
c-50.3496 -23.0723 -110.78 -21.2334 -159.61 4.90039c-54.2461 29.0322 -80.1211 79.3027 -74.9961 139.94c5.24219 62.0059 48.3926 113.409 91.6885 154.844c49.5361 47.4053 103.877 89.333 160.988 127.196c11.6846 7.74316 23.5322 15.5088 35.4297 23.3359
c-2.83691 52.4346 -7.37305 105.004 -10.7207 157.54c-4.88379 -20.1006 -10.2715 -40.1006 -16.8145 -59.8535c-18.8447 -56.8867 -42.0957 -117.228 -104.208 -136.201c-157.838 -48.2129 -179.974 226.044 -154.614 321.394
c13.126 49.3682 111.396 86.4961 126.664 20.8232c6.4082 -27.5684 2.85938 -56.623 2.62402 -84.7129c-0.24707 -28.8584 0.196289 -57.4863 1.81641 -86.2939c1.07129 -19.0459 6.33008 -130.745 34.6387 -125.536c17.6562 3.24121 32.167 47.0752 38.1553 61.8545
c10.4902 25.9033 18.8838 52.8105 26.834 79.5889c15.2334 51.2852 22.707 105.245 41.2432 155.421c2.0127 31.3477 28.4434 54.4648 57.958 62.2588c25.4326 6.71094 62.9141 0.414062 66.1377 -31.3369c7.74316 -76.2861 8.67383 -154.098 10.5859 -230.731
c0.163086 -6.52637 0.291992 -13.041 0.426758 -19.5615c48.959 38.4688 93.6455 81.5908 127.067 133.74zM282.499 -186.818c1.13281 56.9092 0.774414 113.415 -0.851562 170.318c-0.0615234 2.20312 -0.162109 4.41211 -0.235352 6.61523
c-39.9873 -27.3223 -79.0107 -55.7988 -115.898 -87.3818c-44.3164 -37.9355 -90.96 -79.4541 -110.197 -136.145c-18.4854 -54.4756 -3.24023 -113.896 48.584 -144.252c48.5996 -28.4717 113.913 -19.6406 144.768 29.1777c29.918 47.3271 32.749 107.264 33.8311 161.667
z" />
    <glyph glyph-name="y" unicode="&#xff;" horiz-adv-x="527" 
d="M527.395 249.967c11.1748 17.4375 54.7109 17.3223 39.5781 -6.52344c-42.3711 -66.7881 -102.123 -121.819 -166.029 -170.15c0.425781 -55.3896 -0.723633 -110.673 -5.19238 -166.04c-10.2773 -127.325 -42.0957 -267.456 -169.65 -325.896
c-50.3496 -23.0723 -110.78 -21.2334 -159.61 4.90039c-54.2461 29.0322 -80.1211 79.3027 -74.9961 139.94c5.24219 62.0059 48.3926 113.409 91.6885 154.844c49.5361 47.4053 103.877 89.333 160.988 127.196c11.6846 7.74316 23.5322 15.5088 35.4297 23.3359
c-2.83691 52.4346 -7.37305 105.004 -10.7207 157.54c-4.88379 -20.1006 -10.2715 -40.1006 -16.8145 -59.8535c-18.8447 -56.8867 -42.0957 -117.228 -104.208 -136.201c-157.838 -48.2129 -179.974 226.044 -154.614 321.394
c13.126 49.3682 111.396 86.4961 126.664 20.8232c6.4082 -27.5684 2.85938 -56.623 2.62402 -84.7129c-0.24707 -28.8584 0.196289 -57.4863 1.81641 -86.2939c1.07129 -19.0459 6.33008 -130.745 34.6387 -125.536c17.6562 3.24121 32.167 47.0752 38.1553 61.8545
c10.4902 25.9033 18.8838 52.8105 26.834 79.5889c15.2334 51.2852 22.707 105.245 41.2432 155.421c2.0127 31.3477 28.4434 54.4648 57.958 62.2588c25.4326 6.71094 62.9141 0.414062 66.1377 -31.3369c7.74316 -76.2861 8.67383 -154.098 10.5859 -230.731
c0.163086 -6.52637 0.291992 -13.041 0.426758 -19.5615c48.959 38.4688 93.6455 81.5908 127.067 133.74zM282.499 -186.818c1.13281 56.9092 0.774414 113.415 -0.851562 170.318c-0.0615234 2.20312 -0.162109 4.41211 -0.235352 6.61523
c-39.9873 -27.3223 -79.0107 -55.7988 -115.898 -87.3818c-44.3164 -37.9355 -90.96 -79.4541 -110.197 -136.145c-18.4854 -54.4756 -3.24023 -113.896 48.584 -144.252c48.5996 -28.4717 113.913 -19.6406 144.768 29.1777c29.918 47.3271 32.749 107.264 33.8311 161.667
z" />
    </font>
</defs>
</svg>
