<?xml version="1.0" standalone="no"?>
<!DOCTYPE svg PUBLIC "-//W3C//DTD SVG 1.1//EN" "http://www.w3.org/Graphics/SVG/1.1/DTD/svg11.dtd" >
<svg xmlns="http://www.w3.org/2000/svg" xmlns:xlink="http://www.w3.org/1999/xlink" version="1.1">
<metadata>
Created by FontForge 20170812 at Wed Aug  3 06:32:28 2022
 By www-data
</metadata>
<defs>
<font id="MildRegular" horiz-adv-x="0" >
  <font-face 
    font-family="Mild"
    font-weight="400"
    font-stretch="normal"
    units-per-em="1000"
    panose-1="0 0 0 0 0 0 0 0 0 0"
    ascent="800"
    descent="-200"
    x-height="414.012"
    cap-height="909.208"
    bbox="-201.36 -651.755 2127.35 1223.58"
    underline-thickness="50"
    underline-position="-100"
    unicode-range="U+000A-20AC"
  />
<missing-glyph horiz-adv-x="527" 
d="M50 700h427v-700h-427v700zM78 680l185 -309l186 309h-371zM251 350l-180 300v-601zM264 329l-185 -308h370zM276 350l181 -303v605z" />
    <glyph glyph-name=".notdef" horiz-adv-x="527" 
d="M50 700h427v-700h-427v700zM78 680l185 -309l186 309h-371zM251 350l-180 300v-601zM264 329l-185 -308h370zM276 350l181 -303v605z" />
    <glyph glyph-name=".null" 
 />
    <glyph glyph-name=".null" 
 />
    <glyph glyph-name="LF" unicode="&#xa;" 
 />
    <glyph glyph-name="controlCR" unicode="&#xd;" 
 />
    <glyph glyph-name="space" unicode=" " horiz-adv-x="343" 
 />
    <glyph glyph-name="exclam" unicode="!" horiz-adv-x="269" 
d="M198.58 -4.78125c-14.1299 -27.4346 -54.1543 -39.8525 -79.5068 -21.8799c-33.1963 23.5381 -40.3467 70.7656 -47.6016 108.453c-7.04492 36.5879 -11.6279 73.2412 -14.2207 110.392c-5.39551 77.3984 -6.3584 154.83 -6.91504 232.379
c-1.15234 160.735 0.583008 321.274 6.29199 481.912c1.4668 41.335 35.2129 71.7549 73.9219 81.9756c29.6406 7.83105 83.7695 1.04102 84.1104 -39.8486c1.33594 -160.336 -1.3877 -320.581 -2.52051 -480.904c-0.569336 -80.1748 -2.08789 -160.507 -0.50293 -240.675
c0.746094 -37.8906 1.22363 -75.7812 2.14648 -113.672c0.988281 -40.7852 3.96777 -80.8955 -15.2031 -118.132zM205.888 -105.997c10.6133 -24.3965 13.7578 -48.3027 12.6182 -74.7158c-1.36816 -31.9258 -29.1035 -53.8799 -59.1768 -58.8164
c-28.8486 -4.7334 -55.0781 9.23926 -50.9863 40.707c1.95801 15.0791 1.41406 38.3818 1.36816 56.8398c-0.0527344 23.6826 18.9023 41.0137 39.7168 48.8184c17.2266 6.45605 47.3457 8.12598 56.46 -12.833z" />
    <glyph glyph-name="quotedbl" unicode="&#x22;" horiz-adv-x="379" 
d="M132.45 946.146c19.4199 1.06055 49.0742 -8.82129 48.8447 -33.1719c-0.235352 -25.0771 -5.45996 -49.5254 -7.4043 -74.458c-2.02344 -25.9082 -1.15918 -51.9346 -7.24805 -77.3779c-6.7832 -28.3447 -61.6455 -59.8125 -84.9355 -32.0898
c-40.0713 47.6924 -38.4346 121.732 -15.7344 176.784c9.73633 23.6104 42.376 39.0039 66.4775 40.3135zM277.053 936.951c27.6113 1.49902 58.6191 -16.7412 50.4805 -48.3008c-6.67188 -25.9082 -12.0078 -52.1045 -15.8906 -78.5566
c-4.27539 -29.123 -7.4834 -53.4014 -25.6592 -77.4111c-11.3926 -15.0527 -40.1162 -25.084 -57.8408 -15.9893c-53.6182 27.5059 -40.8174 117.05 -26.5244 164.343c9.66406 31.9844 42.6182 54.1279 75.4346 55.915z" />
    <glyph glyph-name="quotedbl" unicode="&#x201d;" horiz-adv-x="379" 
d="M132.45 946.146c19.4199 1.06055 49.0742 -8.82129 48.8447 -33.1719c-0.235352 -25.0771 -5.45996 -49.5254 -7.4043 -74.458c-2.02344 -25.9082 -1.15918 -51.9346 -7.24805 -77.3779c-6.7832 -28.3447 -61.6455 -59.8125 -84.9355 -32.0898
c-40.0713 47.6924 -38.4346 121.732 -15.7344 176.784c9.73633 23.6104 42.376 39.0039 66.4775 40.3135zM277.053 936.951c27.6113 1.49902 58.6191 -16.7412 50.4805 -48.3008c-6.67188 -25.9082 -12.0078 -52.1045 -15.8906 -78.5566
c-4.27539 -29.123 -7.4834 -53.4014 -25.6592 -77.4111c-11.3926 -15.0527 -40.1162 -25.084 -57.8408 -15.9893c-53.6182 27.5059 -40.8174 117.05 -26.5244 164.343c9.66406 31.9844 42.6182 54.1279 75.4346 55.915z" />
    <glyph glyph-name="quotedbl" unicode="&#x201c;" horiz-adv-x="379" 
d="M132.45 946.146c19.4199 1.06055 49.0742 -8.82129 48.8447 -33.1719c-0.235352 -25.0771 -5.45996 -49.5254 -7.4043 -74.458c-2.02344 -25.9082 -1.15918 -51.9346 -7.24805 -77.3779c-6.7832 -28.3447 -61.6455 -59.8125 -84.9355 -32.0898
c-40.0713 47.6924 -38.4346 121.732 -15.7344 176.784c9.73633 23.6104 42.376 39.0039 66.4775 40.3135zM277.053 936.951c27.6113 1.49902 58.6191 -16.7412 50.4805 -48.3008c-6.67188 -25.9082 -12.0078 -52.1045 -15.8906 -78.5566
c-4.27539 -29.123 -7.4834 -53.4014 -25.6592 -77.4111c-11.3926 -15.0527 -40.1162 -25.084 -57.8408 -15.9893c-53.6182 27.5059 -40.8174 117.05 -26.5244 164.343c9.66406 31.9844 42.6182 54.1279 75.4346 55.915z" />
    <glyph glyph-name="numbersign" unicode="#" horiz-adv-x="859" 
d="M790.907 307.799c39.9922 -7.12988 6.75391 -55.1709 -21.165 -54.0645c-51.1885 2.0752 -102.279 6.1416 -153.363 10.3193c-3.74512 -69.8555 -6.00391 -139.862 -7.19531 -209.744c-1.59766 -93.5449 3.78418 -189.479 -10.8037 -282.081
c-5.06152 -32.1357 -79.9854 -66.7129 -94.7432 -25.5879c-31.1465 86.7812 -35.252 183.914 -39.541 275.357c-3.96094 84.418 -3.62695 168.665 -0.261719 253.05c-14.7256 0.746094 -29.458 1.34863 -44.2031 1.76074
c-8.3418 0.235352 -16.7031 0.293945 -25.0576 0.424805c-2.60547 -76.2793 -4.13086 -152.649 -5.08008 -228.941c-1.09375 -88.0449 6.26562 -180.955 -8.00195 -268.031c-4.05273 -24.7432 -32.3574 -43.6006 -54.7695 -49.5195
c-17.6328 -4.65527 -53.1924 -4.06641 -60.3027 18.4375c-26.9365 85.2363 -27.0215 182.297 -31.0811 270.964c-3.88281 84.6992 -4.125 169.28 -2.26562 254.025c-54.7441 -2.7041 -109.423 -6.74414 -163.774 -11.4521
c-35.5664 -3.08398 -15.8447 38.8135 9.98535 41.7139c51.6211 5.79492 103.203 9.84766 154.83 12.8467c1.07422 37.6553 2.49512 75.3232 4.32227 112.984c-48.9824 0.713867 -97.9775 1.02148 -146.999 0.694336c-35.8613 -0.235352 -17.0498 41.8525 10.1162 42.2715
c46.3955 0.713867 92.8047 0.910156 139.214 0.779297c6.8418 118.184 18.3721 236.104 38.2109 352.696c12.5322 73.6533 164.815 104.446 156.664 9.47363c-10.4307 -121.522 -22.2812 -242.868 -30.8584 -364.489c24.0293 -0.609375 48.0527 -1.34961 72.0762 -2.2207
c12.5254 131.802 32.7705 262.635 62.4375 391.995c15.8252 69.0107 166.727 99.6143 150.652 9.11426c-24.0293 -135.266 -44.4512 -271.625 -58.3252 -408.488c50.5273 -3.02539 101.028 -6.56738 151.471 -10.8428c14.627 -1.24414 18.7588 -15.7793 13.3047 -27.2832
c-6.59961 -13.9072 -24.1533 -19.8721 -38.4268 -18.7393c-43.5938 3.4502 -87.2002 6.50098 -130.813 9.31641c-2.59277 -28.79 -4.98242 -57.5928 -6.93359 -86.415c-0.0722656 -1.13965 -0.125 -2.28516 -0.203125 -3.43066
c57.4219 -2.0498 114.654 -6.8623 170.885 -16.8936zM466.179 325.26c1.75488 32.6592 3.9541 65.2715 6.59277 97.8389c-23.6826 1.08691 -47.3652 2.08887 -71.0547 2.95996c-2.14062 -34.0664 -3.99316 -68.1533 -5.41406 -102.279
c13.7236 0.34082 27.4473 0.662109 41.1904 0.9375c9.54004 0.189453 19.1064 0.373047 28.6855 0.542969z" />
    <glyph glyph-name="dollar" unicode="$" horiz-adv-x="535" 
d="M445.256 275.408c56.9111 -112.893 61.3828 -260.493 -39.4492 -350.679c-26 -23.2568 -56.7402 -37.4844 -88.9805 -43.7441c2.60547 -35.6709 4.79199 -71.3418 5.59766 -107.065c0.765625 -34.001 -61.4229 -57.2969 -71.6826 -19.1055
c-11.1182 41.4062 -16.5332 84.2139 -19.165 127.415c-50.8281 10.9414 -98.4678 39.5742 -130.459 82.4014c-34.1914 45.7734 -44.9102 101.244 -35.541 157.075c8.70801 51.8633 22.2158 115.427 77.8242 133.832c26.6162 8.80664 30.6758 -23.041 8.99023 -33.0781
c-25.6143 -11.8506 -33.1895 -79.2188 -36.332 -103.812c-4.81934 -37.707 2.24512 -74.8643 21.4688 -107.759c17.0303 -29.1436 53.1592 -62.5488 92.0645 -78.1055c-0.746094 36.4629 -0.300781 72.9131 -0.373047 108.761
c-0.164062 80.2334 4.92383 159.812 9.52637 239.666c-23.375 24.3242 -47.6201 47.8369 -71.5771 71.7227c-44.3662 44.2217 -89.7607 92.7129 -107.897 154.109c-34.5381 116.906 30.8262 234.507 139.581 283.613c27.7939 12.5518 57.8408 18.582 87.2725 18.1045
c5.17285 36.666 10.6396 73.3057 16.7031 109.894c3.61426 21.8428 50.5342 30.6357 46.3965 2.80859c-5.87988 -39.5605 -11.4453 -79.2979 -16.6377 -119.146c47.123 -12.624 88.1631 -43.7705 109.364 -93.5713c9.83398 -23.0996 -36.8242 -45.7217 -47.2607 -23.0537
c-13.665 29.6738 -38.7812 54.3584 -68.2188 68.0234c-12.0078 -98.9141 -21.2861 -198.431 -26.1572 -297.81c4.88477 -4.59668 9.7168 -9.19336 14.4111 -13.8164c49.8525 -49.0996 98.835 -103.805 130.531 -166.681zM252.463 501.195
c6.97949 88.2412 16.0742 176.228 27.624 263.991c-19.0996 0.680664 -38.4805 -3.64746 -56.624 -14.3008c-57.7686 -33.9424 -54.416 -112.604 -31.1006 -167.276c13.4229 -31.4805 35.626 -57.9062 60.1006 -82.4141zM312.615 -64.1719
c38.5654 25.0645 50.3057 86.8984 47.6338 128.895c-3.45703 54.3711 -28.9658 105.756 -61.9004 148.452c1.67578 -52.7139 4.23633 -105.435 6.42969 -157.933c1.66992 -39.8545 4.7207 -79.6377 7.83691 -119.414z" />
    <glyph glyph-name="percent" unicode="%" horiz-adv-x="889" 
d="M778.674 923.235c-89.832 -203.878 -189.066 -403.225 -275.441 -608.752c-43.3057 -103.052 -84.1953 -207.105 -125.216 -311.08c-41.4395 -105.049 -79.5859 -211.853 -130.912 -312.587c-20.166 -39.5928 -118.025 -60.623 -108.519 5.14746
c15.8711 109.828 52.7598 215.865 88.7119 320.482c36.8037 107.104 78.165 212.599 120.665 317.556c84.2734 208.094 173.255 418.087 284.615 613.354c20.4482 35.8545 67.2959 60.0996 108.52 52.9238c40.3594 -7.02539 52.9893 -42.0615 37.5762 -77.0449z
M204.644 475.147c-99.5947 -3.75781 -146.914 86.0479 -154.45 173.137c-3.28711 37.9951 35.8867 69.3125 74.6221 76.8027c31.5137 34.8857 83.043 56.4531 125.668 54.3379c78.584 -3.89551 126.466 -89.3672 118.078 -161.593
c-9.37598 -80.7441 -84.8564 -139.705 -163.918 -142.685zM184.451 709.411c4.96973 -5.84668 8.75391 -13.2471 10.8555 -22.46c8.08008 -35.4092 11.1572 -84.6006 42.9189 -108.538c19.7412 -14.876 35.9141 -2.21289 42.6846 19.6299
c11.373 36.6924 -2.29199 86.7617 -32.8037 110.844c-17.9668 14.1758 -42.6836 11.5703 -63.6553 0.524414zM737.051 212.581c71.165 -27.7354 111.943 -123.901 99.542 -196.016c-17.2461 -100.171 -139.103 -161.81 -233.021 -138.873
c-103.7 25.3262 -126.577 141.264 -97.3555 230.952c8.03418 24.6445 26.8516 42.6572 49.8857 52.3213c42.9326 49.6045 121.536 74.7734 180.948 51.6152zM717.801 10.9863c12.1387 35.874 8.55762 88.9766 -12.6953 121.275
c-16.002 24.3174 -47.2529 30.9824 -75.1123 24.1143c7.00586 -5.95215 11.9883 -14.1953 13.3506 -25.1885c5.05469 -40.8369 -5.44141 -92.8838 22.248 -127.54c18.3262 -22.9365 42.9053 -20.167 52.209 7.33887z" />
    <glyph glyph-name="ampersand" unicode="&#x26;" horiz-adv-x="965" 
d="M911.343 204.655c26.5566 -151.255 -93.2188 -298.455 -210.911 -376.954c-136.189 -90.834 -310.629 -146.363 -470.317 -85.9424c-162.052 61.3174 -214.099 240.223 -158.791 395.249c28.5732 80.0957 77.7393 150.895 138.102 210.444
c11.9102 11.7529 24.1865 23.4922 36.8037 35.0879c-48.5693 0.680664 -92.2939 15.3477 -119.519 63.1182c-46.5068 81.6084 19.2695 187.142 69.2998 250.705c55.9619 71.0996 133.662 127.415 219.788 155.562c82.3555 26.9102 182.088 16.4082 224.3 -68.8604
c36.5938 -73.9287 21.3252 -155.688 -49.8594 -202.745c-22.5107 -14.876 -53.834 5.66992 -26.8057 24.8018c76.3115 54.0176 49.6895 172.018 -46.252 179.05c-68.0615 4.98926 -136.359 -35.8545 -184.078 -80.9541
c-25.4434 -24.0488 -46.9785 -52.249 -63.9502 -82.7998c-15.4785 -27.8799 -35.1865 -64.5459 -27.2051 -97.5195c8.59082 -35.5078 42.5664 -32.8428 72.1221 -30.0537c36.4502 3.4375 81.4316 8.08008 115.282 21.9414c24.9131 10.208 59.6875 17.4756 81.7988 -3.41797
c19.8916 -18.7979 13.0039 -50.9854 -4.5957 -68.873c-54.0762 -54.96 -121.287 -95.2793 -175.278 -150.665c-43.1875 -44.3008 -82.6631 -95.9541 -102.797 -155.177c-34.7412 -102.214 -9.12695 -224.143 85.4717 -285.48
c100.472 -65.1484 230.944 -35.1934 328.149 21.4033c96.792 56.3486 197.65 166.309 186.062 286.928c-10.875 113.207 -142.298 184.89 -241.264 123.271c-13.9463 -8.68164 -35.5332 -17.5146 -50.8281 -6.0498c-13.0557 9.78906 -13.0225 28.6719 -0.857422 39.999
c63.6221 59.2549 152.492 84.2539 236.432 54.7373c72.625 -25.542 126.459 -91.3975 139.698 -166.806z" />
    <glyph glyph-name="quotesingle" unicode="'" horiz-adv-x="236" 
d="M134.989 913.211c27.3555 1.48633 57.4316 -16.4521 49.6855 -47.5205c-11.3145 -45.4141 -15.6816 -91.6533 -23.8398 -137.617c-6.39062 -35.9854 -73.6865 -62.1494 -94.4951 -25.5225c-25.2148 44.3789 -16.4219 108.492 -5.58594 155.641
c7.26758 31.625 43.7764 53.3633 74.2354 55.0195z" />
    <glyph glyph-name="quotesingle" unicode="&#x2019;" horiz-adv-x="236" 
d="M134.989 913.211c27.3555 1.48633 57.4316 -16.4521 49.6855 -47.5205c-11.3145 -45.4141 -15.6816 -91.6533 -23.8398 -137.617c-6.39062 -35.9854 -73.6865 -62.1494 -94.4951 -25.5225c-25.2148 44.3789 -16.4219 108.492 -5.58594 155.641
c7.26758 31.625 43.7764 53.3633 74.2354 55.0195z" />
    <glyph glyph-name="quotesingle" unicode="&#x2018;" horiz-adv-x="236" 
d="M134.989 913.211c27.3555 1.48633 57.4316 -16.4521 49.6855 -47.5205c-11.3145 -45.4141 -15.6816 -91.6533 -23.8398 -137.617c-6.39062 -35.9854 -73.6865 -62.1494 -94.4951 -25.5225c-25.2148 44.3789 -16.4219 108.492 -5.58594 155.641
c7.26758 31.625 43.7764 53.3633 74.2354 55.0195z" />
    <glyph glyph-name="parenleft" unicode="(" horiz-adv-x="679" 
d="M612.768 -127.581c12.7217 -2.84863 20.7705 -15.0088 13.3125 -27.292c-68.7168 -113.043 -225.092 -140.523 -341.324 -91.5547c-128.299 54.0566 -192.026 185.466 -216.54 315.625c-25.0381 132.941 -23.7871 272.103 0.837891 405.07
c24.7822 133.832 83.9785 270.395 174.132 373.197c43.5547 49.6699 101.146 96.459 166.727 111.741c49.6504 11.5693 111.604 1.64941 147.124 -37.2822c18.4834 -20.252 -23.8857 -46.9854 -41.2236 -31.1465c-92.9297 84.9287 -194.652 -112.971 -224.726 -177.936
c-85.8516 -185.473 -94.2588 -407.094 -59.0459 -605.864c16.9912 -95.9277 48.9102 -189.388 120.992 -258.327c63.3867 -60.6299 166.393 -76.9463 221.307 5.0293c7.94922 11.8643 23.3164 22.124 38.4277 18.7393z" />
    <glyph glyph-name="parenright" unicode=")" horiz-adv-x="681" 
d="M620.225 450.286c17.5605 -131.547 15.2812 -276.515 -21.2217 -404.859c-38.3818 -134.978 -122.472 -256.795 -260.134 -302.589c-101.802 -33.8643 -229.335 -1.48633 -286.285 93.3291c-14.8438 24.71 38.3877 50.0361 54.3438 26.5039
c29.8506 -44.0254 81.4121 -68.3301 134.231 -66.582c46.5986 1.53906 86.2832 29.0195 116.265 62.7461c65.5342 73.7383 86.3877 171.283 98.7363 266.727c13.2783 102.633 14.7061 207.374 0.164062 309.954c-14.6729 103.562 -42.8008 201.245 -89.4453 295.025
c-22.0977 44.4248 -49.6035 87.4619 -83.749 123.67c-28.6455 30.3809 -78.3936 82.8926 -120.593 43.4824c-17.8418 -16.6631 -62.1357 -8.57715 -37.9883 17.3379c43.6982 46.8867 116.736 57.9844 176.777 41.6611c70.9561 -19.2891 127.363 -72.5732 170.793 -129.792
c82.4336 -108.617 130.139 -242.102 148.105 -376.614z" />
    <glyph glyph-name="asterisk" unicode="*" horiz-adv-x="353" 
d="M289.221 769.054c12.8525 -0.786133 15.7109 -13.7031 11.4287 -23.4062c-5.40137 -12.2051 -20.8994 -16.7168 -32.9668 -16.0752c-9.88672 0.523438 -19.9639 1.02148 -30.1064 1.49316c10.3516 -9.16699 20.6904 -18.2939 30.9111 -27.3955
c20.2979 -18.0645 -23.7471 -47.627 -41.7852 -31.5723c-8.9834 7.98828 -17.9736 16.0684 -26.9434 24.2002c0.418945 -8.43945 0.929688 -16.8857 1.59766 -25.3447c1.98438 -25.0508 -50.082 -42.2773 -52.6426 -14.0312
c-1.30957 14.4697 -2.2002 28.9268 -2.75684 43.377c-11.4316 -13.3633 -22.5957 -26.9756 -33.4844 -40.8301c-15.5439 -19.7666 -56.8135 -9.28418 -36.4375 16.6377c14.7324 18.7393 30.0342 36.9287 45.7744 54.6992
c-15.583 -1.21094 -30.957 -3.03809 -45.9375 -5.76172c-34.7539 -6.31152 -33.1172 34.3486 -3.30664 39.5342c16.6045 2.88086 33.4443 4.83887 50.3955 6.18066c-14.8691 15.8057 -29.1953 32.0566 -42.5127 49.0146c-14.915 18.9941 22.7529 43.665 36.7314 27.7549
c10.2207 -11.6416 20.9326 -22.9561 31.9062 -34.0869c0.929688 10.0566 1.96387 20.1133 3.22754 30.1768c3.20801 25.5352 58.1611 35.5068 53.748 3.25391c-1.5127 -11.0527 -2.71094 -22.0986 -3.75195 -33.1514c9.00977 8.49219 18.1045 16.9062 27.3691 25.1631
c21.168 18.8633 51.7383 -3.27441 27.1846 -25.1631c-14.9414 -13.3115 -29.457 -27.0479 -43.6455 -41.0986c25.5352 -0.661133 50.9785 -2.03613 76.0029 -3.56836z" />
    <glyph glyph-name="plus" unicode="+" horiz-adv-x="412" 
d="M348.808 323.755c13.0361 -0.791992 15.916 -13.9033 11.5615 -23.7373c-5.43457 -12.3027 -21.208 -17.0625 -33.4189 -16.2969c-21.0439 1.31641 -42.0947 2.14844 -63.1387 2.52832c-0.818359 -24.6846 -1.75488 -49.3691 -2.31152 -74.0664
c-0.713867 -31.7227 2.35059 -67.1582 -8.05957 -97.4141c-9.66406 -28.0889 -51.6533 -51.5752 -77.7324 -29.3721c-45.7939 38.9775 -43.3389 132.312 -44.5303 187.488c-0.0722656 3.24121 -0.0849609 6.48926 -0.137695 9.7373
c-20.8936 -1.49902 -41.7734 -3.41699 -62.627 -5.77441c-33.7129 -3.80371 -15.458 37.1777 9.59277 40.0586c17.6133 2.02344 35.2266 3.63379 52.8457 5.02148c0.418945 54.1289 3.69922 108.336 11.6279 161.771c4.70117 31.6641 42.9326 52.957 71.0547 57.7363
c21.8291 3.71289 65.5146 -4.11133 63.3799 -35.6309c-4.0459 -59.792 -9.43457 -119.349 -11.7324 -179.22c27.8535 -0.242188 55.7266 -1.13965 83.626 -2.8291z" />
    <glyph glyph-name="comma" unicode="," horiz-adv-x="273" 
d="M178.394 98.8203c38.126 -2.42285 53.2646 -30.3164 39.0693 -63.8662c-27.4473 -64.8994 -46.415 -151.674 -100.629 -199.412c-15.7012 -13.8154 -45.5518 -16.6641 -57.8877 2.43555c-17.2334 26.6816 -5.44141 68.5205 1.23047 97.6377
c8.21094 35.835 19.4922 70.5762 31.4678 105.305c12.2441 35.5078 48.8584 60.3037 86.749 57.9004z" />
    <glyph glyph-name="hyphen" unicode="-" horiz-adv-x="547" 
d="M460.683 360.021c29.7197 -3.81055 43.0488 -30.2041 33.6797 -56.5322c-10.2471 -28.7959 -45.7217 -50.9336 -75.9121 -51.333c-111.367 -1.4668 -223.959 -1.15234 -335.091 6.41016c-27.5586 1.87891 -38.9316 28.7041 -30.7734 51.6338
c10.3779 29.1631 41.1582 42.3887 69.3457 46.8936c110.987 17.7246 227.396 17.2012 338.751 2.92773z" />
    <glyph glyph-name="period" unicode="." horiz-adv-x="206" 
d="M142.993 30.3203c14.084 -20.9062 13.4678 -48.2549 11.458 -72.2646c-1.03418 -12.3096 -12.9053 -23.5586 -21.9346 -30.8984c-11.249 -9.14648 -26.0068 -13.9463 -40.2939 -15.2227c-10.9209 -0.975586 -25.1162 2.23242 -33.3398 10.0107
c-8.73438 8.26953 -9.82812 18.6084 -8.30273 29.8311c1.00879 7.39844 2.71094 19.9893 3.00586 24.5596c-0.254883 -2.36328 -0.228516 -1.21094 0.0722656 3.44434c-0.00683594 4.84473 0.300781 9.67676 0.916016 14.4893
c0.583008 4.32812 1.53906 8.55762 2.44922 12.8262c7.28125 34.2109 64.7168 54.7637 85.9697 23.2246z" />
    <glyph glyph-name="slash" unicode="/" horiz-adv-x="697" 
d="M609.583 902.29c21.8496 -3.80371 43.9736 -24.1016 35.6777 -48.5635c-31.5264 -92.8643 -85.3867 -177.721 -130.637 -264.41c-44.7529 -85.7402 -87.5479 -172.509 -128.201 -260.272c-40.6797 -87.8291 -79.7617 -176.562 -117.221 -265.817
c-37.9824 -90.4805 -74.9697 -181.203 -135.613 -259.197c-18.2871 -23.5186 -95.3389 -34.9639 -82.0605 13.5469c50.1279 183.096 120.835 361.071 199.02 533.907c39.7568 87.8809 81.668 174.8 125.543 260.704c45.748 89.5703 90.8936 182.395 155.092 260.376
c17.5996 21.3779 50.9531 34.5059 78.4004 29.7266z" />
    <glyph glyph-name="zero" unicode="0" horiz-adv-x="667" 
d="M284.941 -119.431c-80.6719 5.95801 -136.404 63.2764 -167.846 134.022c-70.7725 159.27 -74.3086 348.645 -60.958 519.312c3.07715 39.3438 32.0566 67.6943 70.1045 77.7451c0.484375 0.124023 1.01465 0.21582 1.50586 0.333984
c29.457 112.814 94.6709 216.515 214.818 212.586c174.211 -5.70312 252.644 -167.709 269.602 -321.21c9.4873 -85.8584 5.72949 -176.326 -7.79102 -261.549c-12.9902 -81.8906 -36.9023 -169.222 -84.4053 -238.181
c-52.5049 -76.2197 -140.209 -130.073 -235.03 -123.061zM321.319 779.909c-67.2305 -0.674805 -105.544 -68.7432 -127.099 -123.763c-6.04297 -15.4199 -11.209 -31.0879 -15.6094 -46.9199c15.0137 -5.84082 26.6025 -16.9648 27.4082 -35.377
c6.73047 -153.848 -5.38281 -314.295 44.8496 -462.524c13.3574 -39.4229 36.5156 -102.816 84.6729 -109.953c42.1338 -6.24609 69.1094 44.2617 85.3604 78.833c56.1514 119.467 66.7188 264.462 63.1572 394.477c-1.69629 61.8682 -10.2539 124.712 -34.7549 182.003
c-21.3125 49.8467 -65.9932 123.847 -127.985 123.225z" />
    <glyph glyph-name="one" unicode="1" horiz-adv-x="516" 
d="M93.0283 629.648c-17.0625 -17.5928 -59.2197 -7.38672 -36.415 16.6426c61.9004 65.2402 106.954 167.709 202.836 189.126c37.0391 8.26953 82.7217 -2.57324 110.431 -28.9727c35.54 -33.8574 39.4492 -94.2588 44.2617 -140.209
c11.9619 -114.163 -3.34668 -232.759 -7.96973 -347.151c-4.41992 -109.239 -1.15234 -219.435 -9.16016 -328.393c-1.4209 -19.3154 -8.32812 -36.3389 -19.0791 -50.5146c24.2256 0.203125 48.4707 -0.288086 72.7559 -2.00977
c14.6865 -1.04102 18.6934 -15.9238 13.3047 -27.2842c-6.54785 -13.8086 -24.1934 -20.0352 -38.4277 -18.7451c-83.3047 7.5625 -166.806 -0.890625 -250.222 -1.56543c-35.4619 -0.288086 -16.7227 40.9873 9.98438 41.7139
c12.624 0.34082 25.2344 0.844727 37.8447 1.4209c-0.90332 3.17578 -1.62402 6.49512 -1.88574 10.1357c-6.77637 93.1523 2.01074 188.433 8.24414 281.474c6.65234 99.248 18.0127 198.037 32.915 296.368c7.71973 50.9336 14.8701 102.509 18.2354 153.927
c1.45996 22.2744 2.04883 44.4902 2.82129 66.7393c0.425781 12.3291 7.89648 40.9746 -4.0459 50.2656c-32.0898 24.9658 -89.7871 -45.1846 -106.319 -65.2266c-26.8643 -32.5674 -50.6387 -67.3545 -80.1094 -97.7412z" />
    <glyph glyph-name="two" unicode="2" horiz-adv-x="625" 
d="M131.568 -144.115c-29.7197 -9.15332 -69.5811 -1.42676 -79.54 31.1797c-10.5811 34.6631 22.3594 64.6504 49.4727 79.415c41.7734 22.7529 81.7598 45.9971 117.247 82.6572c38.6562 39.9268 69.5742 85.5498 95.5156 134.591
c55.3525 104.637 94.3496 225.445 106.509 343.177c9.27832 89.8193 -4.54395 275.626 -136.568 255.971c-55.0908 -8.2041 -102.718 -45.3291 -130.185 -92.8975c-24.8672 -43.0693 -49.0146 -128.776 12.166 -153.258
c26.5049 -10.6006 -10.7969 -43.9541 -31.6641 -35.835c-119.316 46.4287 -28.6328 216.704 35.5264 269.994c79.3174 65.8818 201.704 78.0801 286.102 14.4834c99.1299 -74.6943 105.461 -223.546 89.0264 -334.933
c-25.1357 -170.341 -98.7695 -361.765 -229.406 -485.081c7.79785 0.477539 15.6152 0.772461 23.459 0.825195c33.6738 0.222656 66.6016 -3.97461 99.791 -9.24512c34.2109 -5.42773 69.7705 -11.8838 102.103 4.00684c31.3174 15.3994 48.6621 -20.5137 17.4824 -35.8418
c-58.8955 -28.9531 -118.295 -12.9121 -180.077 -5.27734c-41.3281 5.10059 -83.1406 3.60742 -123.859 -3.94238c-37.2812 -25.6338 -78.2295 -46.167 -123.1 -59.9893z" />
    <glyph glyph-name="three" unicode="3" horiz-adv-x="648" 
d="M122.023 545.453c-45.0732 -5.15332 -71.9092 31.9111 -72.0205 74.1162c-0.104492 44.2676 20.1016 84.9082 46.96 119.034c48.6875 61.8486 127.35 107.682 207.269 108.199c76.8418 0.498047 156.519 -46.1855 197.932 -110.561
c48.7725 -75.8203 30.0791 -178.708 -14.0312 -251.93c-14.3584 -23.833 -31.2188 -45.1846 -50.0039 -64.3818c61.7695 -24.1016 113.888 -69.9414 140.144 -136.137c41.4062 -104.4 13.2588 -223.71 -56.0205 -309.162
c-67.2168 -82.9111 -164.599 -121.738 -269.955 -112.899c-95.1426 7.98145 -173.333 77.4902 -166.38 176.81c6.39062 91.2402 66.0781 183.135 164.324 187.96c38.1855 1.87891 17.9209 -43.4951 -10.7832 -45.0342c-101.094 -5.40137 -125.595 -170.91 -62.084 -231.227
c64.5127 -61.2588 164.579 -41.0068 218.786 22.2822c49.4668 57.7559 64.6895 155.235 44.5557 227.271c-19.8125 70.9033 -90.9912 129.988 -167.205 117.155c-30.4395 -5.12695 -75.6963 -3.05176 -79.5332 37.6807c-3.68652 39.1152 37.2812 67.5117 69.9014 77.5166
c48.8643 14.9873 98.5273 54.8818 127.585 104.649c36.6006 62.6797 50.6582 144.184 11.8506 209.312c-39.9727 67.0859 -134.29 66.5752 -195.824 33.085c-33.7725 -18.3789 -63.6162 -46.3701 -83.3379 -79.4482c-10.2471 -17.1875 -18.0449 -36.2412 -20.2646 -56.2764
c-2.09473 -18.9678 0.439453 -58.8223 28.1221 -56.3018c35.5205 3.23438 15.8516 -38.7617 -9.98535 -41.7148z" />
    <glyph glyph-name="four" unicode="4" horiz-adv-x="695" 
d="M135.28 216.701c-28.2139 -11.8184 -100.354 -14.334 -82.4658 37.3789c13.6846 39.5273 84.0049 53.6113 119.152 60.1592c8.62988 1.60449 17.2656 2.85547 25.915 3.87012c44.2021 66.582 64.3359 154.254 84.5879 229.139
c23.8662 88.2549 41.4072 178.329 54.7441 268.744c3.41797 23.1719 52.4004 32.5869 49.0742 2.97266c-13.835 -123.186 -41.21 -244.112 -79.6182 -361.955c-15.0596 -46.2061 -32.2793 -93.9053 -57.1865 -135.679c75.6963 1.06738 151.87 -11.2812 227.154 -5.31641
c-0.124023 4.92383 -0.242188 9.84766 -0.373047 14.7646c-3.90918 147.117 -6.75098 296.29 3.44336 443.145c2.93945 42.3564 34.8262 72.9922 75.5127 83.7363c31.4346 8.30273 83.9521 0.890625 85.916 -40.7061c6.93359 -146.724 3.25391 -294.79 2.08203 -441.671
c-0.588867 -74.1514 0.164062 -148.414 -1.83984 -222.539c-1.99023 -73.6211 3.60156 -156.304 -22.9287 -225.989c-12.2705 -32.2266 -75.251 -69.9141 -98.6777 -26.6543c-34.1455 63.0723 -30.8916 147.287 -35.6455 217.268
c-3.54199 52.1973 -5.10059 104.637 -6.42969 157.018c-72.9199 -6.22656 -145.578 3.61426 -219.401 4.19043c-13.3311 0.104492 -26.7539 -0.164062 -40.1504 -0.923828c-22.1172 -25.5029 -49.001 -46.7627 -82.8652 -60.9512zM132.354 262.291
c-1.68262 -0.576172 -33.0449 -11.4121 -33.8311 -14.8496c-0.615234 -2.69141 36.8232 8.57715 39.96 10.4043c5.39551 3.14258 10.4629 6.7959 15.3799 10.6455c-7.23535 -1.79395 -14.4307 -3.77148 -21.5088 -6.2002z" />
    <glyph glyph-name="five" unicode="5" horiz-adv-x="658" 
d="M131.334 224.885c19.584 19.3018 67.9736 10.1494 42.1309 -19.249c-37.4258 -42.5332 -50.7568 -98.6592 -33.6484 -153.181c15.7139 -50.082 45.623 -97.8857 103.137 -98.5146c95.1162 -1.04102 150.587 87.7568 167.905 170.59
c20.8477 99.7129 -10.9932 202.752 -109.671 243.707c-48.7266 20.2256 -99.0049 18.2021 -150.515 17.0371c-27.5918 -0.62207 -56.6436 1.83984 -76.666 23.0215c-22.4053 23.709 -13.4023 57.7627 -7.62695 86.127c11.9756 58.8105 27.3359 116.337 45.1914 173.628
c11.0127 35.3242 22.2285 77.2158 40.2998 113.339c-13.8613 -3.15625 -26.2627 -9.36328 -35.1016 -20.9258c-11.4121 -14.9414 -52.0459 -10.4434 -36.9668 11.0322c24.2002 34.4658 60.1074 47.2334 98.7188 51.0439c3.23438 3.77148 6.57324 7.43164 10.1484 10.8105
c14.9551 14.1357 58.7979 34.708 71.0684 4.75977c2.25879 -5.50684 3.75781 -11.0527 4.7002 -16.6377c2.25879 -0.150391 4.50488 -0.294922 6.73145 -0.438477c51.2998 -3.31348 102.515 -8.99023 153.959 -9.32422c45.46 -0.294922 105.213 -2.48145 142.495 27.2705
c24.1865 19.3086 58.0762 -4.62305 29.8887 -27.6572c-61.9854 -50.6514 -156.695 -44.3916 -231.75 -39.998c-34.2236 2.00391 -68.3496 5.42871 -102.521 8.15234c-1.51855 -9.06836 -3.51562 -18.1367 -5.34277 -27.1592
c-6.37109 -31.4287 -13.167 -62.7324 -19.7471 -94.1152c-6.63965 -31.6445 -12.2637 -63.4717 -18.5098 -95.1885c-3.24805 -16.5 -10.1104 -37.5703 -13.1807 -57.2979c4.37402 0.137695 8.75391 0.261719 13.1338 0.300781
c17.4883 0.150391 34.9834 -0.589844 52.4326 -1.73535c31.8076 -2.08203 62.2344 -8.03418 92.6865 -17.3379c53.7812 -16.4277 104.924 -46.5596 139.907 -91.2598c66.458 -84.9287 71.873 -210.406 34.4805 -309.006
c-38.6631 -101.938 -127.291 -182.591 -232.641 -211.236c-93.7998 -25.5029 -211.708 -8.41992 -246.606 95.666c-28.8555 86.0479 8.86523 192.033 71.4795 253.776z" />
    <glyph glyph-name="six" unicode="6" horiz-adv-x="595" 
d="M171.21 -81.7432c-27.2637 20.0225 -49.6201 47.0879 -67.1807 75.8779c-44.5957 73.123 -55.7529 162.785 -53.8281 246.829c3.92188 171.284 50.3242 340.185 152.63 479.287c44.6738 60.7412 117.267 121.175 197.742 111.164
c54.6396 -6.7959 113.731 -43.1475 140.203 -91.5537c11.917 -21.7969 -33.5166 -43.3906 -46.6182 -22.7393c-28.0361 44.2021 -86.0869 68.585 -131.107 33.209c-20.8145 -16.3555 -33.1631 -41.7793 -46.0293 -64.165
c-14.9092 -25.9346 -28.6455 -52.6162 -39.9336 -80.3584c-42.5391 -104.564 -61.0029 -220.391 -62.2471 -332.806c-0.0126953 -1.41406 0.0136719 -2.83496 0.000976562 -4.24902c51.7061 34.165 113.875 52.21 176.228 39.835
c70.1182 -13.9131 131.979 -65.9658 148.741 -136.64c35.4814 -149.638 -102.089 -291.955 -248.027 -289.362c-47.1885 0.844727 -81.5566 7.02539 -120.573 35.6709zM486.131 159.663c-33.9951 121.771 -186.365 136.293 -270.455 59.3135
c1.80078 -43.6006 6.45605 -87.0176 14.7783 -129.95c8.9375 -46.1143 27.3496 -93.2109 65.7119 -122.38c11.8906 -9.03516 21.4365 -18.0771 36.2012 -20.7422c14.1299 -2.54688 27.5527 -2.21973 41.6035 0.595703c26.9502 5.4082 49.2119 21.8887 67.4668 41.8721
c40.5293 44.373 61.0557 112.684 44.6934 171.291z" />
    <glyph glyph-name="seven" unicode="7" horiz-adv-x="556" 
d="M501.217 763.506c10.4434 -49.4932 -6.08105 -109.255 -18.875 -157c-20.3828 -75.9512 -46.6387 -150.2 -72.3115 -224.6c25.1035 -0.249023 50.2129 -0.864258 75.3291 -1.89258c41.3086 -1.68945 12.8076 -45.1582 -17.0752 -43.6133
c-24.2979 1.25684 -48.6025 2.10156 -72.9131 2.56641c-7.5498 -22.3203 -14.9814 -44.667 -22.0205 -67.1318c-17.1807 -54.8027 -33.2354 -110.064 -47.8037 -165.62c-15.5439 -59.2617 -22.0127 -124.345 -43.9336 -181.433
c-15.0205 -39.1016 -46.6387 -64.5713 -88.1562 -71.6299c-30.2559 -5.14648 -77.3135 5.27734 -78.6357 44.209c-1.98438 58.2344 17.959 118.956 33.3457 174.577c14.4502 52.2295 30.8906 103.746 49.3545 154.686c13.4092 37.0137 27.5254 73.6797 42.1855 110.104
c-24.0225 -1.13965 -48.0322 -2.61328 -72.0293 -4.45996c-34.4463 -2.63867 -15.8379 38.3818 9.72363 40.6143c26.4395 2.31152 52.9043 4.16406 79.376 5.59766c21.5283 51.7715 44.124 103.098 67.4854 154.228c22.5498 49.3486 44.7461 98.7041 66.2354 148.518
c10.6787 24.7559 24.0029 51.3584 31.2773 77.3584c7.33984 26.2422 -9.59863 32.8096 -33.7988 39.3311c-103.025 27.7549 -214.772 -19.499 -318.512 -23.0479c-35.376 -1.21094 -16.7217 40.7266 9.98535 41.7148c109.888 4.0791 221.432 49.4336 331.482 23.4004
c37.4912 -8.86523 81.6611 -35.5859 90.2842 -76.4756z" />
    <glyph glyph-name="eight" unicode="8" horiz-adv-x="529" 
d="M75.0654 223.064c13.5596 52.917 31.4805 110.353 58.7314 160.487c-55.9551 73.4893 -95.8496 154.358 -80.4756 255.066c18.3857 120.429 179.193 290.554 296.695 168.199c49.3555 -51.3916 51.2148 -126.119 44.6406 -192.95
c-7.04492 -71.6953 -26.5762 -141.008 -48.6543 -209.357c9.10742 -11.0322 18.1631 -22.1045 27.0156 -33.3203c52.5508 -66.6084 96.4717 -136.059 104.604 -222.552c7.25488 -77.1758 -13.959 -158.646 -71.2178 -213.357
c-104.276 -99.6475 -272.987 -62.3789 -326.114 70.8896c-27.6172 69.2861 -23.4268 145.847 -5.22461 216.895zM360.336 21.001c8.72754 75.0088 -42.6592 147.481 -88.1055 202.121c-33.1963 39.9072 -70.9102 79.1465 -105.736 120.056
c-6.57324 -16.1729 -12.4141 -32.6592 -18.1436 -48.9561c-16.3096 -46.3633 -30.459 -94.625 -33.5752 -143.928c-5.33594 -84.2861 24.5801 -181.189 108.415 -216.592c33.8447 -14.2871 75.5 -19.1191 102.548 10.1357c19.1123 20.6709 31.3564 49.3291 34.5977 77.1631z
M192.003 766.084c-12.2373 -28.7236 -3.03125 -75.1309 3.09766 -104.163c7.41797 -35.1084 20.376 -68.5664 36.9414 -100.335c21.0762 -40.4248 48.1172 -76.5479 76.5596 -111.682c21.9014 67.4854 39.3838 137.001 39.4424 207.145
c0.0390625 43.9014 -9.40918 90.5459 -42.3369 122.053c-31.9912 30.6094 -93.3086 34.8848 -113.704 -13.0176z" />
    <glyph glyph-name="nine" unicode="9" horiz-adv-x="724" 
d="M342.495 117.676c-47.5742 -19.8457 -64.9795 -97.1768 -44.4141 -141.006c17.043 -36.2998 59.8184 -57.5596 98.9072 -46.2588c74.9561 21.6592 89.4854 151.458 97.8008 213.941c14.0898 105.867 14.8037 215.152 12.8525 321.825
c-0.962891 52.4854 -1.05469 104.741 -4.47266 157.147c-0.189453 2.86133 -0.431641 5.76172 -0.719727 8.68848c-22.7588 -73.0703 -51.0117 -144.274 -92.752 -208.676c-52.6621 -81.2549 -127.219 -160.225 -231.75 -155.785
c-59.6748 2.52734 -105.029 35.9072 -121.418 93.8594c-16.4014 58.0049 0.549805 118.544 23.6172 172.496c41.4922 97.0215 119.958 186.933 209.194 242.764c43.0693 26.9492 89.9434 49.5908 142.206 41.6221c26.9102 -4.09863 53.4932 -13.7959 71.2764 -33.0518
c0.740234 0.392578 1.47363 0.779297 2.2334 1.13281c13.0361 15.8193 35.874 22.8379 55.7393 16.0215c57.7559 -19.8193 79.3105 -97.9639 91.083 -151.307c12.9316 -58.6133 17.6201 -119.434 20.1084 -179.252c4.68848 -112.631 3.29395 -231.128 -22.8311 -341.355
c-25.1953 -106.293 -75.042 -213.397 -178.192 -263.44c-82.6758 -40.1104 -185.754 -27.1064 -227.344 63.2627c-34.9707 75.9844 0.0917969 191.745 80.9473 224.123c32.7051 13.1016 51.1758 -22.8838 17.9277 -36.752zM386.663 478.159
c43.5479 79.6709 68.5244 167.619 91.4805 255.166c-1.36816 1.25098 -2.6123 2.7041 -3.53516 4.60938c-10.9932 22.7334 -35.3828 38.127 -60.2305 28.3643c-17.96 -7.05859 -35.9727 -25.5752 -50.1348 -38.0811c-29.6992 -26.2227 -56.8779 -57.6445 -78.1963 -91.0439
c-48.0986 -75.3496 -94.5342 -161.679 -71.1201 -253.704c3.55566 -13.9727 7.39941 -39.8223 20.3369 -48.8574c20.6973 -14.457 53.415 15.5371 66.4189 27.8984c34.6172 32.9014 62.1953 73.9541 84.9805 115.648z" />
    <glyph glyph-name="colon" unicode=":" horiz-adv-x="202" 
d="M98.5205 423.402c-9.72949 -2.91406 -23.1055 -2.92871 -32.4883 1.48438c-8.04004 3.79102 -15.4062 12.041 -15.7861 21.3848c-0.549805 13.3896 -0.261719 26.0137 1.73535 39.3184c1.31641 8.78027 10.1162 19.04 16.9648 23.9053
c6.25293 4.44531 13.2197 7.84375 20.5723 10.0371c13.167 3.93555 35.0166 2.06934 41.3281 -12.6367c5.09375 -11.8506 7.66016 -23.8457 10.1152 -36.4365c1.95117 -10.0049 -4.87793 -20.4941 -10.8496 -27.8467c-7.85059 -9.66406 -19.8652 -15.707 -31.5918 -19.21z
M151.498 147.5c2.30469 -24.2061 -23.3174 -42.1133 -43.3984 -48.1172c-17.9531 -5.3623 -48.3008 -0.0849609 -49.3682 23.3945c-0.857422 18.9355 -0.196289 37.7266 4.77344 56.0859c4.51172 16.6631 20.0225 27.6895 35.8613 32.4229
c13.0889 3.90918 32.8105 1.76172 39.4824 -12.0732c7.87012 -16.3037 10.9473 -33.7861 12.6494 -51.7129z" />
    <glyph glyph-name="semicolon" unicode=";" horiz-adv-x="304" 
d="M138.679 448.898c-0.556641 4.48535 -1.11719 8.97949 -1.68066 13.4707c-1.55859 12.4141 5.5 24.0879 12.958 33.2744c7.69336 9.48047 19.374 16.0674 30.6094 20.2773c6.69141 3.04492 13.75 4.70117 21.1816 4.98242l13.1602 -0.629883
c6.16797 -0.62207 11.6094 -2.80273 16.3301 -6.54785c5.07422 -2.55371 8.82617 -6.51465 11.2686 -11.877c1.87891 -3.99414 3.76465 -7.98828 5.65039 -11.9824c3.33887 -7.29395 4.01953 -14.8369 2.03516 -22.6221
c-1.47363 -6.50781 -4.31543 -12.2695 -8.53906 -17.292c-3.79785 -6.19434 -8.72852 -11.3936 -14.8047 -15.5967c-6.30566 -5.02832 -13.2725 -8.70801 -20.9004 -11.0322c-6.94727 -3.15625 -14.2744 -4.87793 -21.9805 -5.17285
c-8.92383 -0.667969 -17.4941 0.75293 -25.7109 4.24316c-3.26074 2.13477 -6.51465 4.27539 -9.77539 6.41016c-5.80078 5.46094 -9.06836 12.1592 -9.80176 20.0947zM209.389 213.733c15.6943 2.43555 44.9609 -2.7041 44.1162 -24.8086
c-3.45703 -89.4268 -43.0957 -174.564 -101.749 -241.454c-17.9863 -20.5195 -55.9492 -36.3975 -82.3428 -22.7656c-26.7725 13.835 -22.8438 42.6309 -6.34375 63.249c44.8643 56.0537 73.9424 117.85 96.8652 185.591c7.37891 21.8096 26.8779 36.6855 49.4541 40.1885z
" />
    <glyph glyph-name="less" unicode="&#x3c;" horiz-adv-x="405" 
d="M331.571 189.34c65.9668 -32.5088 -21.6182 -113.772 -70.915 -100.199s-98.3906 37.4785 -141.899 64.3301c-39.4951 24.377 -92.2422 56.5127 -57.377 108.074c13.7041 20.2578 37.9951 33.4971 57.9717 46.8281c21.751 14.5098 43.7637 28.6523 65.79 42.7422
c42.4873 27.1855 84.1367 62.8105 130.65 82.5771c13.3701 5.68359 38.7354 5.02246 34.5059 -16.126c-8.67578 -43.3447 -51.8047 -77.8105 -83.626 -104.858c-25.1885 -21.4102 -54.5479 -40.1562 -80.8955 -61.2979c17.2725 -10.5615 41.1318 -20.6836 53.0615 -26.1377
c30.1445 -13.7627 63.125 -21.3379 92.7334 -35.9326z" />
    <glyph glyph-name="equal" unicode="=" horiz-adv-x="488" 
d="M88.6572 278.996c-64.1006 -4.74023 -38.958 70.6221 6.61914 80.4824c97.4082 21.0762 214.91 30.6943 312.829 8.20996c65.043 -14.9346 11.3926 -89.7402 -34.7021 -88.6406c-47.7705 1.14551 -95.1621 7.45117 -143.005 7.73926
c-47.5156 0.288086 -94.4287 -4.29492 -141.741 -7.79102zM403.372 243.057c18.7979 -7.20215 20.6768 -29.3477 12.6494 -45.0488c-10.1553 -19.8848 -34.3613 -31.8926 -55.6738 -33.7588c-48.4648 -4.24316 -98.3701 5.97754 -147.123 6.19336
c-45.7539 0.203125 -94.0225 -6.31836 -139.161 2.7373c-33.1436 6.65234 -18.5625 42.7363 3.97461 53.3301c50.1934 23.5977 107.484 28.5869 162.287 30.5254c52.7012 1.85938 113.142 5.14648 163.047 -13.9785z" />
    <glyph glyph-name="greater" unicode="&#x3e;" horiz-adv-x="407" 
d="M249.454 381.832c34.8457 -12.7812 105.293 -22.9365 107.322 -70.4258c1.98438 -46.4219 -62.1094 -90.3164 -92.0713 -117.554c-37.917 -34.46 -78.0146 -75.4541 -125.484 -96.1377c-48.5762 -21.1621 -108.296 9.44141 -67.1514 62.8828
c24.9326 32.3779 64.1914 56.1846 96.3271 81.0518c16.1982 12.5322 32.1084 25.418 48.1367 38.166c3.83008 3.05078 7.70605 6.03613 11.5557 9.05469c-9.42188 4.40625 -19.2305 8.2041 -26.4658 11.792c-16.5977 8.23047 -33.248 16.3691 -49.7998 24.6973
c-35.4414 17.8359 -65.7305 36.7061 -95.6924 62.3203c-21.2988 18.2148 18.4648 41.4062 34.5391 38.9834c55.6211 -8.36816 105.965 -25.4639 158.784 -44.8311z" />
    <glyph glyph-name="question" unicode="?" horiz-adv-x="633" 
d="M565.721 848.6c27.9053 -64.7686 17.1299 -144.576 1.00977 -210.909c-18.1494 -74.7402 -46.5527 -146.188 -73.8496 -217.929c-54.1289 -142.252 -107.832 -282.311 -117.11 -435.969c-2.42285 -40.1885 -33.3535 -69.3838 -71.6963 -79.5059
c-28.835 -7.61523 -81.124 -0.996094 -81.5762 38.6494c-1.57812 138.782 44.6348 270.571 96.4189 397.476c46.0879 112.952 104.918 221.445 143.883 337.141c17.7441 52.6885 40.6934 120.076 19.1455 174.859c-21.8291 55.5039 -90.1396 70.6416 -143.712 64.7617
c-106.339 -11.6738 -202.254 -97.2178 -228.798 -200.283c-13.377 -51.9355 -7.28809 -110.229 28.8867 -151.956c33.8838 -39.0762 97.6113 -57.2129 136.981 -15.3545c18.124 19.2627 63.1709 8.01367 39.0234 -17.8164
c-43.0762 -46.0752 -112.965 -62.3135 -171.101 -35.2393c-57.0879 26.583 -90.6836 88.8896 -93.0537 150.279c-4.75977 123.323 89.0273 236.772 196.872 285.866c107.426 48.9033 265.241 39.9531 318.676 -84.0703zM354.158 -233.081
c4.0332 -15.1768 8.1875 -30.2354 10.9111 -45.707c4.89062 -27.8594 -29.2285 -50.0684 -51.0254 -56.583c-23.6172 -7.05859 -53.3369 0.62207 -58.0576 27.5059c-2.7373 15.5703 -4.3877 31.3955 -5.40918 47.1748c-0.537109 8.28906 -0.170898 16.1523 0.470703 24.4346
c1.08008 13.9395 6.03027 21.9209 14.2607 32.9863c12.165 16.3691 40.5615 24.6387 59.3467 16.4082c19.7666 -8.65625 24.3896 -26.9961 29.5029 -46.2197z" />
    <glyph glyph-name="at" unicode="@" horiz-adv-x="1059" 
d="M670.829 553.725c17.5078 -61.9531 15.5869 -123.98 9.98828 -187.616c-4.89746 -55.6279 -7.93555 -117.771 17.2988 -169.319c14.5684 -29.7656 48 -91.6133 88.0449 -88.7451c52.8711 3.79102 95.2207 83.7754 115.42 124.561
c48.2686 97.46 75.6113 219.683 32.8037 323.769c-33.582 81.6416 -100.374 147.51 -179.927 184.732c-187.122 87.5537 -403.571 -0.837891 -516.739 -162.791c-112.146 -160.48 -128.221 -391.76 6.68457 -545.353c61.1279 -69.5938 146.718 -118.831 239.929 -126.623
c91.4688 -7.6543 176.771 28.75 242.161 91.2988c14.9941 14.3457 40.6602 27.9189 61.6846 17.0566c20.0293 -10.3516 17.1553 -31.958 4.75391 -47.3838c-83.7236 -104.139 -230.428 -151.071 -360.587 -137.026c-128.738 13.8877 -245.239 92.9033 -313.779 201.37
c-136.49 216.004 -57.1406 497.319 131.821 652.581c172.626 141.833 438.712 192.956 622.26 43.2861c85.373 -69.6201 137.773 -173.72 135.822 -284.544c-2.08887 -118.432 -51.7324 -259.636 -138.972 -342.737c-84.5879 -80.5742 -241.153 -95.1299 -304.927 21.0371
c-18.8633 34.3613 -27.3428 70.3535 -29.3467 107.138c-25.0703 -42.3037 -65.0889 -79.54 -115.996 -85.4062c-51.9678 -5.99121 -98.5996 23.46 -112.396 74.4326c-26.583 98.2002 43.5146 222.846 112.421 288.282c34.375 32.6465 88.1758 72.6123 138.913 61.0166
c13.6582 -3.12305 27.5654 -8.81934 39.043 -17.0361c2.54004 1.86621 5.36816 3.4707 8.32812 4.8125c21.9404 16.7031 57.9453 25.2021 65.292 -0.791992zM523.088 334.969c21.4365 53.0479 37.8643 107.911 53.0283 163.062
c-4.55078 10.1426 -13.9531 17.332 -24.8154 13.8164c-9.92578 -3.20801 -19.8125 -19.1904 -25.9209 -26.917c-17.2656 -21.8428 -31.4736 -46.043 -43.7695 -71.0088c-24.7627 -50.2783 -39.7373 -105.814 -28.9404 -161.476
c0.183594 -0.956055 3.67969 -11.7861 4.91016 -19.0732c1.15234 0.733398 2.43555 1.61719 3.88867 2.85449c5.68359 4.84473 10.9082 10.3711 15.6816 16.1064c19.8916 23.918 34.3418 53.9316 45.9375 82.6357z" />
    <glyph glyph-name="A" unicode="A" horiz-adv-x="1465" 
d="M406.759 -125.906c4.00684 24.3701 56.3623 34.168 51.7656 3.14551c-3.59473 -24.1279 1.82031 -60.5586 29.9424 -68.75c25.6924 -7.4834 43.2402 25.9414 54.0498 44.333c25.0645 42.6445 41.4199 90.7432 57.2188 137.388
c31.7686 93.7998 58.6855 189.257 86.2178 284.36c4.7207 16.3164 9.4541 32.6592 14.2139 49.0088c-32.4434 -5.67676 -64.8018 -11.6611 -97.0684 -17.7832c-106.162 -20.1465 -212.128 -41.459 -318.971 -57.7754c-50.2783 -7.67383 -101.225 -16.0215 -152.243 -13.501
c-34.2568 1.69629 -71.8789 6.72461 -81.4844 44.6084c-5.27051 20.7881 42.8994 40.1885 49.2568 18.4248c11.1309 -38.1133 109.946 -17.3252 139.41 -13.4883c51.8369 6.75098 103.432 15.4785 154.876 24.7363c99.8828 17.9727 199.268 38.584 299.177 56.3867
c6.74414 1.20508 13.501 2.35742 20.2578 3.5293c40.7393 137.708 85.4785 275.128 150.652 403.054c35.6055 69.8887 82.0801 142.69 147.425 188.398c36.7715 25.7256 82.4209 42.4873 127.475 32.2793c34.0996 -7.72656 59.4121 -32.915 79.1074 -60.4805
c102.004 -142.782 98.874 -342.993 113.685 -510.25c17.0957 -193.12 42.6709 -385.186 62.877 -577.945c8.42676 -80.3838 -154.613 -136.883 -170.269 -45.3877c-31.7559 185.544 -42.4482 375.285 -48.2822 563.782c-131.717 7.37891 -263.361 -5.00879 -393.926 -25.084
c-40.4639 -128.155 -78.7344 -257.09 -129.203 -381.755c-16.6963 -41.2295 -37.085 -80.3252 -62.5938 -116.795c-19.957 -28.5273 -41.2754 -58.875 -75.3818 -71.2109c-71.6436 -25.915 -118.969 41.1777 -108.185 106.771zM822.876 461.975
c-9.04883 -26.4717 -17.7686 -53.0547 -26.3457 -79.7031c125.359 18.9678 251.733 30.6748 378.18 25.5938c-0.458008 16.8203 -0.90332 33.6279 -1.31543 50.4092c-2.29199 92.4902 -0.130859 185.053 -10.8037 277.164
c-4.52441 39.0625 -27.2578 214.903 -97.0879 174.708c-65.2461 -37.5498 -107.235 -126.426 -138.906 -191.115c-40.6934 -83.1016 -73.8242 -169.556 -103.721 -257.057z" />
    <glyph glyph-name="A" unicode="&#xc5;" horiz-adv-x="1465" 
d="M406.759 -125.906c4.00684 24.3701 56.3623 34.168 51.7656 3.14551c-3.59473 -24.1279 1.82031 -60.5586 29.9424 -68.75c25.6924 -7.4834 43.2402 25.9414 54.0498 44.333c25.0645 42.6445 41.4199 90.7432 57.2188 137.388
c31.7686 93.7998 58.6855 189.257 86.2178 284.36c4.7207 16.3164 9.4541 32.6592 14.2139 49.0088c-32.4434 -5.67676 -64.8018 -11.6611 -97.0684 -17.7832c-106.162 -20.1465 -212.128 -41.459 -318.971 -57.7754c-50.2783 -7.67383 -101.225 -16.0215 -152.243 -13.501
c-34.2568 1.69629 -71.8789 6.72461 -81.4844 44.6084c-5.27051 20.7881 42.8994 40.1885 49.2568 18.4248c11.1309 -38.1133 109.946 -17.3252 139.41 -13.4883c51.8369 6.75098 103.432 15.4785 154.876 24.7363c99.8828 17.9727 199.268 38.584 299.177 56.3867
c6.74414 1.20508 13.501 2.35742 20.2578 3.5293c40.7393 137.708 85.4785 275.128 150.652 403.054c35.6055 69.8887 82.0801 142.69 147.425 188.398c36.7715 25.7256 82.4209 42.4873 127.475 32.2793c34.0996 -7.72656 59.4121 -32.915 79.1074 -60.4805
c102.004 -142.782 98.874 -342.993 113.685 -510.25c17.0957 -193.12 42.6709 -385.186 62.877 -577.945c8.42676 -80.3838 -154.613 -136.883 -170.269 -45.3877c-31.7559 185.544 -42.4482 375.285 -48.2822 563.782c-131.717 7.37891 -263.361 -5.00879 -393.926 -25.084
c-40.4639 -128.155 -78.7344 -257.09 -129.203 -381.755c-16.6963 -41.2295 -37.085 -80.3252 -62.5938 -116.795c-19.957 -28.5273 -41.2754 -58.875 -75.3818 -71.2109c-71.6436 -25.915 -118.969 41.1777 -108.185 106.771zM822.876 461.975
c-9.04883 -26.4717 -17.7686 -53.0547 -26.3457 -79.7031c125.359 18.9678 251.733 30.6748 378.18 25.5938c-0.458008 16.8203 -0.90332 33.6279 -1.31543 50.4092c-2.29199 92.4902 -0.130859 185.053 -10.8037 277.164
c-4.52441 39.0625 -27.2578 214.903 -97.0879 174.708c-65.2461 -37.5498 -107.235 -126.426 -138.906 -191.115c-40.6934 -83.1016 -73.8242 -169.556 -103.721 -257.057z" />
    <glyph glyph-name="A" unicode="&#xc4;" horiz-adv-x="1465" 
d="M406.759 -125.906c4.00684 24.3701 56.3623 34.168 51.7656 3.14551c-3.59473 -24.1279 1.82031 -60.5586 29.9424 -68.75c25.6924 -7.4834 43.2402 25.9414 54.0498 44.333c25.0645 42.6445 41.4199 90.7432 57.2188 137.388
c31.7686 93.7998 58.6855 189.257 86.2178 284.36c4.7207 16.3164 9.4541 32.6592 14.2139 49.0088c-32.4434 -5.67676 -64.8018 -11.6611 -97.0684 -17.7832c-106.162 -20.1465 -212.128 -41.459 -318.971 -57.7754c-50.2783 -7.67383 -101.225 -16.0215 -152.243 -13.501
c-34.2568 1.69629 -71.8789 6.72461 -81.4844 44.6084c-5.27051 20.7881 42.8994 40.1885 49.2568 18.4248c11.1309 -38.1133 109.946 -17.3252 139.41 -13.4883c51.8369 6.75098 103.432 15.4785 154.876 24.7363c99.8828 17.9727 199.268 38.584 299.177 56.3867
c6.74414 1.20508 13.501 2.35742 20.2578 3.5293c40.7393 137.708 85.4785 275.128 150.652 403.054c35.6055 69.8887 82.0801 142.69 147.425 188.398c36.7715 25.7256 82.4209 42.4873 127.475 32.2793c34.0996 -7.72656 59.4121 -32.915 79.1074 -60.4805
c102.004 -142.782 98.874 -342.993 113.685 -510.25c17.0957 -193.12 42.6709 -385.186 62.877 -577.945c8.42676 -80.3838 -154.613 -136.883 -170.269 -45.3877c-31.7559 185.544 -42.4482 375.285 -48.2822 563.782c-131.717 7.37891 -263.361 -5.00879 -393.926 -25.084
c-40.4639 -128.155 -78.7344 -257.09 -129.203 -381.755c-16.6963 -41.2295 -37.085 -80.3252 -62.5938 -116.795c-19.957 -28.5273 -41.2754 -58.875 -75.3818 -71.2109c-71.6436 -25.915 -118.969 41.1777 -108.185 106.771zM822.876 461.975
c-9.04883 -26.4717 -17.7686 -53.0547 -26.3457 -79.7031c125.359 18.9678 251.733 30.6748 378.18 25.5938c-0.458008 16.8203 -0.90332 33.6279 -1.31543 50.4092c-2.29199 92.4902 -0.130859 185.053 -10.8037 277.164
c-4.52441 39.0625 -27.2578 214.903 -97.0879 174.708c-65.2461 -37.5498 -107.235 -126.426 -138.906 -191.115c-40.6934 -83.1016 -73.8242 -169.556 -103.721 -257.057z" />
    <glyph glyph-name="A" unicode="&#xc3;" horiz-adv-x="1465" 
d="M406.759 -125.906c4.00684 24.3701 56.3623 34.168 51.7656 3.14551c-3.59473 -24.1279 1.82031 -60.5586 29.9424 -68.75c25.6924 -7.4834 43.2402 25.9414 54.0498 44.333c25.0645 42.6445 41.4199 90.7432 57.2188 137.388
c31.7686 93.7998 58.6855 189.257 86.2178 284.36c4.7207 16.3164 9.4541 32.6592 14.2139 49.0088c-32.4434 -5.67676 -64.8018 -11.6611 -97.0684 -17.7832c-106.162 -20.1465 -212.128 -41.459 -318.971 -57.7754c-50.2783 -7.67383 -101.225 -16.0215 -152.243 -13.501
c-34.2568 1.69629 -71.8789 6.72461 -81.4844 44.6084c-5.27051 20.7881 42.8994 40.1885 49.2568 18.4248c11.1309 -38.1133 109.946 -17.3252 139.41 -13.4883c51.8369 6.75098 103.432 15.4785 154.876 24.7363c99.8828 17.9727 199.268 38.584 299.177 56.3867
c6.74414 1.20508 13.501 2.35742 20.2578 3.5293c40.7393 137.708 85.4785 275.128 150.652 403.054c35.6055 69.8887 82.0801 142.69 147.425 188.398c36.7715 25.7256 82.4209 42.4873 127.475 32.2793c34.0996 -7.72656 59.4121 -32.915 79.1074 -60.4805
c102.004 -142.782 98.874 -342.993 113.685 -510.25c17.0957 -193.12 42.6709 -385.186 62.877 -577.945c8.42676 -80.3838 -154.613 -136.883 -170.269 -45.3877c-31.7559 185.544 -42.4482 375.285 -48.2822 563.782c-131.717 7.37891 -263.361 -5.00879 -393.926 -25.084
c-40.4639 -128.155 -78.7344 -257.09 -129.203 -381.755c-16.6963 -41.2295 -37.085 -80.3252 -62.5938 -116.795c-19.957 -28.5273 -41.2754 -58.875 -75.3818 -71.2109c-71.6436 -25.915 -118.969 41.1777 -108.185 106.771zM822.876 461.975
c-9.04883 -26.4717 -17.7686 -53.0547 -26.3457 -79.7031c125.359 18.9678 251.733 30.6748 378.18 25.5938c-0.458008 16.8203 -0.90332 33.6279 -1.31543 50.4092c-2.29199 92.4902 -0.130859 185.053 -10.8037 277.164
c-4.52441 39.0625 -27.2578 214.903 -97.0879 174.708c-65.2461 -37.5498 -107.235 -126.426 -138.906 -191.115c-40.6934 -83.1016 -73.8242 -169.556 -103.721 -257.057z" />
    <glyph glyph-name="A" unicode="&#xc2;" horiz-adv-x="1465" 
d="M406.759 -125.906c4.00684 24.3701 56.3623 34.168 51.7656 3.14551c-3.59473 -24.1279 1.82031 -60.5586 29.9424 -68.75c25.6924 -7.4834 43.2402 25.9414 54.0498 44.333c25.0645 42.6445 41.4199 90.7432 57.2188 137.388
c31.7686 93.7998 58.6855 189.257 86.2178 284.36c4.7207 16.3164 9.4541 32.6592 14.2139 49.0088c-32.4434 -5.67676 -64.8018 -11.6611 -97.0684 -17.7832c-106.162 -20.1465 -212.128 -41.459 -318.971 -57.7754c-50.2783 -7.67383 -101.225 -16.0215 -152.243 -13.501
c-34.2568 1.69629 -71.8789 6.72461 -81.4844 44.6084c-5.27051 20.7881 42.8994 40.1885 49.2568 18.4248c11.1309 -38.1133 109.946 -17.3252 139.41 -13.4883c51.8369 6.75098 103.432 15.4785 154.876 24.7363c99.8828 17.9727 199.268 38.584 299.177 56.3867
c6.74414 1.20508 13.501 2.35742 20.2578 3.5293c40.7393 137.708 85.4785 275.128 150.652 403.054c35.6055 69.8887 82.0801 142.69 147.425 188.398c36.7715 25.7256 82.4209 42.4873 127.475 32.2793c34.0996 -7.72656 59.4121 -32.915 79.1074 -60.4805
c102.004 -142.782 98.874 -342.993 113.685 -510.25c17.0957 -193.12 42.6709 -385.186 62.877 -577.945c8.42676 -80.3838 -154.613 -136.883 -170.269 -45.3877c-31.7559 185.544 -42.4482 375.285 -48.2822 563.782c-131.717 7.37891 -263.361 -5.00879 -393.926 -25.084
c-40.4639 -128.155 -78.7344 -257.09 -129.203 -381.755c-16.6963 -41.2295 -37.085 -80.3252 -62.5938 -116.795c-19.957 -28.5273 -41.2754 -58.875 -75.3818 -71.2109c-71.6436 -25.915 -118.969 41.1777 -108.185 106.771zM822.876 461.975
c-9.04883 -26.4717 -17.7686 -53.0547 -26.3457 -79.7031c125.359 18.9678 251.733 30.6748 378.18 25.5938c-0.458008 16.8203 -0.90332 33.6279 -1.31543 50.4092c-2.29199 92.4902 -0.130859 185.053 -10.8037 277.164
c-4.52441 39.0625 -27.2578 214.903 -97.0879 174.708c-65.2461 -37.5498 -107.235 -126.426 -138.906 -191.115c-40.6934 -83.1016 -73.8242 -169.556 -103.721 -257.057z" />
    <glyph glyph-name="A" unicode="&#xc1;" horiz-adv-x="1465" 
d="M406.759 -125.906c4.00684 24.3701 56.3623 34.168 51.7656 3.14551c-3.59473 -24.1279 1.82031 -60.5586 29.9424 -68.75c25.6924 -7.4834 43.2402 25.9414 54.0498 44.333c25.0645 42.6445 41.4199 90.7432 57.2188 137.388
c31.7686 93.7998 58.6855 189.257 86.2178 284.36c4.7207 16.3164 9.4541 32.6592 14.2139 49.0088c-32.4434 -5.67676 -64.8018 -11.6611 -97.0684 -17.7832c-106.162 -20.1465 -212.128 -41.459 -318.971 -57.7754c-50.2783 -7.67383 -101.225 -16.0215 -152.243 -13.501
c-34.2568 1.69629 -71.8789 6.72461 -81.4844 44.6084c-5.27051 20.7881 42.8994 40.1885 49.2568 18.4248c11.1309 -38.1133 109.946 -17.3252 139.41 -13.4883c51.8369 6.75098 103.432 15.4785 154.876 24.7363c99.8828 17.9727 199.268 38.584 299.177 56.3867
c6.74414 1.20508 13.501 2.35742 20.2578 3.5293c40.7393 137.708 85.4785 275.128 150.652 403.054c35.6055 69.8887 82.0801 142.69 147.425 188.398c36.7715 25.7256 82.4209 42.4873 127.475 32.2793c34.0996 -7.72656 59.4121 -32.915 79.1074 -60.4805
c102.004 -142.782 98.874 -342.993 113.685 -510.25c17.0957 -193.12 42.6709 -385.186 62.877 -577.945c8.42676 -80.3838 -154.613 -136.883 -170.269 -45.3877c-31.7559 185.544 -42.4482 375.285 -48.2822 563.782c-131.717 7.37891 -263.361 -5.00879 -393.926 -25.084
c-40.4639 -128.155 -78.7344 -257.09 -129.203 -381.755c-16.6963 -41.2295 -37.085 -80.3252 -62.5938 -116.795c-19.957 -28.5273 -41.2754 -58.875 -75.3818 -71.2109c-71.6436 -25.915 -118.969 41.1777 -108.185 106.771zM822.876 461.975
c-9.04883 -26.4717 -17.7686 -53.0547 -26.3457 -79.7031c125.359 18.9678 251.733 30.6748 378.18 25.5938c-0.458008 16.8203 -0.90332 33.6279 -1.31543 50.4092c-2.29199 92.4902 -0.130859 185.053 -10.8037 277.164
c-4.52441 39.0625 -27.2578 214.903 -97.0879 174.708c-65.2461 -37.5498 -107.235 -126.426 -138.906 -191.115c-40.6934 -83.1016 -73.8242 -169.556 -103.721 -257.057z" />
    <glyph glyph-name="B" unicode="B" horiz-adv-x="1276" 
d="M669.167 936.329c36.9678 4.10547 90.4326 -8.94727 77.2979 -57.5625c-11.7002 -43.3184 -35.9658 -82.041 -67.0859 -115.375c166.033 -25.0381 327.954 -103.412 426.554 -237.932c114.052 -155.596 108.106 -365.962 46.3174 -541.188
c-65.1221 -184.693 -201.16 -352.088 -402.615 -390.489c-88.9092 -16.9453 -182.016 -7.68066 -259.663 41.334c-69.2861 43.7373 -121.876 110.817 -137.066 192.36c-17.3574 93.1914 9.91309 191.614 46.8613 276.856c37.3604 86.2051 91.9863 159.001 163.492 219.671
c27.7285 23.5254 82.7217 2.38379 51.2344 -33.6543c-56.2109 -64.3301 -105.789 -139.123 -135.318 -219.618c-29.4834 -80.3779 -50.5205 -177.511 -10.1943 -257.705c64.9453 -129.163 234.985 -156.027 350.884 -81.6016
c120.54 77.4053 184.431 222.538 210.195 358.728c28.2529 149.33 -1.18457 304.127 -114.778 410.97c-55.0186 51.7451 -121.352 87.9795 -192.857 111.655c-82.0996 27.1855 -166.32 29.7588 -251.53 36.8691c-15.8779 1.32227 -28.9209 10.6133 -36.0967 23.2891
c-13.9395 -27.6436 -26.4775 -55.8311 -38.1973 -83.4092c-91.6465 -215.617 -140.609 -449.954 -147.386 -684.107c6.03711 -37.3145 12.8789 -76.6387 -1.66992 -111.039c-10.0566 -23.7744 -51.6729 -40.9688 -75.0869 -28.4824
c-39.7764 21.2139 -55.4443 79.0488 -67.3213 120.331c-12.4668 43.3252 -22.917 87.7568 -30.4268 132.215c-15.1973 89.9502 -21.5156 181.694 -23.1523 272.81c-3.44434 191.961 -3.6543 389.088 26.3271 579.085c6.00391 38.041 51.2803 63.5303 85.3076 69.3115
c27.6768 4.70117 76.8164 -4.97656 76.0957 -42.7822c-3.56836 -187.07 -19.8721 -373.545 -19.6758 -560.824c0.0527344 -51.2734 0.798828 -102.476 2.82227 -153.625c4.32129 25.5879 9.21875 51.084 14.7061 76.4814c25.0771 116.16 61.3838 229.747 107.721 339.163
c44.2021 104.374 99.2344 209.672 192.504 278.44c37.2949 27.4932 84.9023 54.6133 131.803 59.8252zM490.116 764.858c2.95312 1.11328 5.89941 2.12891 8.81934 2.9668c43.083 12.4141 82.002 35.959 116.187 67.2627c7.07129 6.47559 56.9834 43.5215 52.7275 52.4717
c-5.50684 11.5957 -61.2852 -18.418 -69.4307 -23.0342c-43.8096 -24.8086 -78.9307 -59.7266 -108.303 -99.667z" />
    <glyph glyph-name="C" unicode="C" horiz-adv-x="906" 
d="M458.336 455.608c-22.1113 14.4639 -19.1631 45.7344 -1.34766 63.0654c54.0498 52.6094 62.3975 130.519 54.043 202.148c-4.51172 38.6895 -14.3135 82.6104 -47.5947 107.144c-25.752 18.9814 -40.8896 9.12109 -60.7021 -7.68652
c-51.2998 -43.5215 -86.6895 -112.585 -111.19 -175.035c-31.7754 -81 -52.2168 -168.174 -64.8271 -254.11c-12.7412 -86.8398 -14.6592 -175.022 -7.28027 -262.465c6.82227 -80.8359 14.7578 -166.177 44.6475 -242.331
c25.0967 -63.9434 72.2979 -129.949 144.727 -141.971c80.3643 -13.3369 148.597 45.918 196.204 103.02c103.884 124.6 153.121 284.327 198.083 437.344c6.99316 23.7871 61.0566 33.1562 52.4141 3.16895c-59.5693 -206.778 -131.566 -413.91 -304.062 -554.106
c-75.5977 -61.4424 -174.289 -86.0742 -266.904 -50.3643c-92.3398 35.5986 -157.305 122.727 -187.07 214.641c-66.6084 205.691 -59.7207 442.981 -0.570312 649.563c28.7236 100.315 68.5068 202.464 136.379 283.182c69.1875 82.29 185.151 162.871 297.311 122.617
c97.4736 -34.9766 122.217 -151.831 119.474 -243.778c-2.84863 -95.3262 -34.041 -184.896 -111.584 -244.505c-21.4365 -16.4736 -56.0928 -25.2803 -80.1484 -9.54004z" />
    <glyph glyph-name="D" unicode="D" horiz-adv-x="1156" 
d="M440.93 793.854c64.6895 106.62 177.092 199.154 309.064 185.941c136.019 -13.6387 225.891 -131.206 269.608 -251c94.4482 -258.812 70.1377 -579.294 -77.5557 -814.391c-73.4961 -116.998 -182.788 -224.233 -319.985 -260.265
c-36.0576 -9.46777 -73.4375 -13.1602 -110.562 -9.66406c-30.0137 2.82227 -51.1885 17.3447 -76.377 32.2207c-48.9365 28.9072 -84.4238 77.333 -92.7852 133.982c-16.5068 111.865 44.3398 241.028 109.22 328.72c52.8125 71.3818 200.545 201.639 279.875 93.3623
c16.2383 -22.1572 -37.4912 -50.4424 -54.3447 -26.5049c-41.2168 58.5479 -126.655 -22.0137 -156.329 -55.3076c-39.2266 -44.0127 -67.7275 -97.0215 -89.4131 -151.582c-20.2842 -51.0186 -36.9219 -113.004 -23.5449 -167.729
c6.67871 -27.3359 21.4238 -55.5098 45.46 -71.3945c24.1143 -15.9307 45.9238 -17.6982 73.4893 -15.4326c47.7051 3.92188 84.332 15.8057 123.591 44.0195c38.5781 27.7227 69.1357 58.2998 100.027 96.9238c59.9492 74.9561 101.231 168.907 127.095 261.876
c30.832 110.811 42.7549 224.869 36.2334 339.621c-6.18066 108.847 -24.4482 232.942 -83.0293 327.142c-58.5615 94.1865 -167.729 141.951 -262.164 64.6572c-88.0381 -72.0557 -135.619 -195.451 -170.76 -300.186
c-71.1719 -212.107 -106.325 -439.327 -123.866 -662.998c5.80078 -39.4551 14.2734 -79.2314 13.2979 -119.237c-1.06738 -44.0781 -82.4336 -89.8779 -108.152 -40.4639c-19.2891 37.0654 -27.5459 79.624 -37.5898 119.904
c-10.2471 41.0859 -19.3223 82.3096 -27.3623 123.887c-15.2686 78.9639 -28.2266 158.202 -37.5303 238.096c-19.1318 164.298 -28.3115 329.165 -26.2559 494.562c0.510742 40.6934 35.5205 71.0215 72.9727 80.915c28.9014 7.62793 83.1934 1.06738 83.0234 -39.3379
c-0.700195 -163.237 5.65137 -326.834 21.5488 -489.318c5.35547 -54.7373 11.248 -109.468 17.8936 -164.101c9.88672 74.5303 22.3857 148.74 37.7988 222.544c32.3379 154.85 74.6416 314.105 157.409 450.537z" />
    <glyph glyph-name="E" unicode="E" horiz-adv-x="970" 
d="M417.546 158.166c-71.0674 -57.0557 -148.678 -125.64 -192.848 -206.456c-19.8525 -36.332 -41.3086 -92.6211 -11.1045 -129.241c23.8008 -28.8486 67.25 -33.6484 102.115 -33.6943c205.364 -0.261719 384.761 123.604 583.282 156.119
c30.1191 4.93066 25.0518 -33.0127 3.7334 -41.6289c-123.133 -49.7812 -248.473 -99.7256 -375.633 -138.396c-55.7656 -16.958 -112.631 -30.1514 -170.524 -37.3213c-51.0771 -6.3252 -104.512 -11.4189 -155.177 0.707031
c-47.6592 11.4062 -90.8271 38.3818 -106.391 87.082c-17.626 55.1504 1.2832 114.235 26.3213 164.075c51.627 102.771 142.821 189.375 229.772 262.452c17.502 14.7061 35.4229 28.8623 53.5596 42.71c-70.334 4.04004 -138.998 20.0557 -202.162 57.1152
c-116.311 68.2383 -167.316 188.916 -148.773 320.731c17.4951 124.345 102.26 229.538 206.785 294.234c98.0762 60.709 235.98 109.9 349.666 65.8418c55.1826 -21.3848 91.4561 -70.0459 106.738 -125.909c17.9268 -65.5537 4.74023 -131.193 -1.87891 -197.33
c-4.98242 -49.7549 -114.543 -63.4912 -100.531 -6.07617c23.2695 95.3457 26.6738 259.879 -110.34 262.06c-79.9844 1.27051 -166.301 -47.3252 -219.428 -104.649c-57.8545 -62.4248 -83.9658 -146.62 -64.8008 -230.533c19.2168 -84.1494 86.2109 -140 164.553 -168.011
c93.2178 -33.334 205.94 -16.7295 303.296 -6.88184c30.165 3.05762 65.9863 -13.8809 69.1025 -46.9268c3.14258 -33.3857 -28.4102 -69.3057 -57.6846 -80.5547c-101.604 -39.0498 -196.721 -91.332 -281.649 -159.519z" />
    <glyph glyph-name="E" unicode="&#xcb;" horiz-adv-x="970" 
d="M417.546 158.166c-71.0674 -57.0557 -148.678 -125.64 -192.848 -206.456c-19.8525 -36.332 -41.3086 -92.6211 -11.1045 -129.241c23.8008 -28.8486 67.25 -33.6484 102.115 -33.6943c205.364 -0.261719 384.761 123.604 583.282 156.119
c30.1191 4.93066 25.0518 -33.0127 3.7334 -41.6289c-123.133 -49.7812 -248.473 -99.7256 -375.633 -138.396c-55.7656 -16.958 -112.631 -30.1514 -170.524 -37.3213c-51.0771 -6.3252 -104.512 -11.4189 -155.177 0.707031
c-47.6592 11.4062 -90.8271 38.3818 -106.391 87.082c-17.626 55.1504 1.2832 114.235 26.3213 164.075c51.627 102.771 142.821 189.375 229.772 262.452c17.502 14.7061 35.4229 28.8623 53.5596 42.71c-70.334 4.04004 -138.998 20.0557 -202.162 57.1152
c-116.311 68.2383 -167.316 188.916 -148.773 320.731c17.4951 124.345 102.26 229.538 206.785 294.234c98.0762 60.709 235.98 109.9 349.666 65.8418c55.1826 -21.3848 91.4561 -70.0459 106.738 -125.909c17.9268 -65.5537 4.74023 -131.193 -1.87891 -197.33
c-4.98242 -49.7549 -114.543 -63.4912 -100.531 -6.07617c23.2695 95.3457 26.6738 259.879 -110.34 262.06c-79.9844 1.27051 -166.301 -47.3252 -219.428 -104.649c-57.8545 -62.4248 -83.9658 -146.62 -64.8008 -230.533c19.2168 -84.1494 86.2109 -140 164.553 -168.011
c93.2178 -33.334 205.94 -16.7295 303.296 -6.88184c30.165 3.05762 65.9863 -13.8809 69.1025 -46.9268c3.14258 -33.3857 -28.4102 -69.3057 -57.6846 -80.5547c-101.604 -39.0498 -196.721 -91.332 -281.649 -159.519z" />
    <glyph glyph-name="E" unicode="&#xca;" horiz-adv-x="970" 
d="M417.546 158.166c-71.0674 -57.0557 -148.678 -125.64 -192.848 -206.456c-19.8525 -36.332 -41.3086 -92.6211 -11.1045 -129.241c23.8008 -28.8486 67.25 -33.6484 102.115 -33.6943c205.364 -0.261719 384.761 123.604 583.282 156.119
c30.1191 4.93066 25.0518 -33.0127 3.7334 -41.6289c-123.133 -49.7812 -248.473 -99.7256 -375.633 -138.396c-55.7656 -16.958 -112.631 -30.1514 -170.524 -37.3213c-51.0771 -6.3252 -104.512 -11.4189 -155.177 0.707031
c-47.6592 11.4062 -90.8271 38.3818 -106.391 87.082c-17.626 55.1504 1.2832 114.235 26.3213 164.075c51.627 102.771 142.821 189.375 229.772 262.452c17.502 14.7061 35.4229 28.8623 53.5596 42.71c-70.334 4.04004 -138.998 20.0557 -202.162 57.1152
c-116.311 68.2383 -167.316 188.916 -148.773 320.731c17.4951 124.345 102.26 229.538 206.785 294.234c98.0762 60.709 235.98 109.9 349.666 65.8418c55.1826 -21.3848 91.4561 -70.0459 106.738 -125.909c17.9268 -65.5537 4.74023 -131.193 -1.87891 -197.33
c-4.98242 -49.7549 -114.543 -63.4912 -100.531 -6.07617c23.2695 95.3457 26.6738 259.879 -110.34 262.06c-79.9844 1.27051 -166.301 -47.3252 -219.428 -104.649c-57.8545 -62.4248 -83.9658 -146.62 -64.8008 -230.533c19.2168 -84.1494 86.2109 -140 164.553 -168.011
c93.2178 -33.334 205.94 -16.7295 303.296 -6.88184c30.165 3.05762 65.9863 -13.8809 69.1025 -46.9268c3.14258 -33.3857 -28.4102 -69.3057 -57.6846 -80.5547c-101.604 -39.0498 -196.721 -91.332 -281.649 -159.519z" />
    <glyph glyph-name="E" unicode="&#xc9;" horiz-adv-x="970" 
d="M417.546 158.166c-71.0674 -57.0557 -148.678 -125.64 -192.848 -206.456c-19.8525 -36.332 -41.3086 -92.6211 -11.1045 -129.241c23.8008 -28.8486 67.25 -33.6484 102.115 -33.6943c205.364 -0.261719 384.761 123.604 583.282 156.119
c30.1191 4.93066 25.0518 -33.0127 3.7334 -41.6289c-123.133 -49.7812 -248.473 -99.7256 -375.633 -138.396c-55.7656 -16.958 -112.631 -30.1514 -170.524 -37.3213c-51.0771 -6.3252 -104.512 -11.4189 -155.177 0.707031
c-47.6592 11.4062 -90.8271 38.3818 -106.391 87.082c-17.626 55.1504 1.2832 114.235 26.3213 164.075c51.627 102.771 142.821 189.375 229.772 262.452c17.502 14.7061 35.4229 28.8623 53.5596 42.71c-70.334 4.04004 -138.998 20.0557 -202.162 57.1152
c-116.311 68.2383 -167.316 188.916 -148.773 320.731c17.4951 124.345 102.26 229.538 206.785 294.234c98.0762 60.709 235.98 109.9 349.666 65.8418c55.1826 -21.3848 91.4561 -70.0459 106.738 -125.909c17.9268 -65.5537 4.74023 -131.193 -1.87891 -197.33
c-4.98242 -49.7549 -114.543 -63.4912 -100.531 -6.07617c23.2695 95.3457 26.6738 259.879 -110.34 262.06c-79.9844 1.27051 -166.301 -47.3252 -219.428 -104.649c-57.8545 -62.4248 -83.9658 -146.62 -64.8008 -230.533c19.2168 -84.1494 86.2109 -140 164.553 -168.011
c93.2178 -33.334 205.94 -16.7295 303.296 -6.88184c30.165 3.05762 65.9863 -13.8809 69.1025 -46.9268c3.14258 -33.3857 -28.4102 -69.3057 -57.6846 -80.5547c-101.604 -39.0498 -196.721 -91.332 -281.649 -159.519z" />
    <glyph glyph-name="F" unicode="F" horiz-adv-x="854" 
d="M280.415 930.842c69.168 28.75 138.575 56.083 210.12 78.4033c145.362 45.3682 299.694 82.4336 452.429 87.3838c128.673 4.1709 294.496 -18.543 355.159 -150.09c22.2812 -48.3145 -74.5049 -95.123 -100.04 -48.793
c-72.4355 131.423 -254.274 123.782 -382.815 111.31c-132.51 -12.8594 -266.564 -39.9072 -394.51 -76.5674c-64.2646 -18.4121 -126.185 -41.0605 -186.396 -70.1973c-31.959 -15.4648 -64.8799 -31.29 -93.3486 -52.7266
c-6.80273 -5.12012 -12.8594 -11.9033 -19.6299 -16.7881c-0.078125 -0.0849609 -0.163086 -0.169922 -0.241211 -0.254883c9.74902 -0.503906 22.8574 -3.50879 30.1387 -4.80566c104.911 -18.7061 186.251 -108.938 231.73 -199.72
c15.3145 -30.5703 28.6777 -61.4229 40.5947 -92.5957c8.51855 128.947 24.0693 257.659 46.2725 383.811c6.31152 35.8672 47.7969 59.7393 80.3184 65.2656c25.5029 4.33398 73.0186 -4.66211 71.6436 -40.2812c-7.6543 -198.521 -32.7705 -395.642 -37.707 -594.405
c62.084 13.1475 125.778 24.2324 187.633 26.6221c14.9805 0.576172 28.9922 -8.12598 25.8359 -24.7178c-3.27344 -17.2197 -23.0273 -26.6807 -38.6035 -28.6123c-41.7539 -5.18555 -83.8477 -5.49316 -125.536 -11.543
c-16.749 -2.43555 -33.4453 -5.21191 -50.1084 -8.17773c-0.654297 -88.333 3.02539 -176.312 9.59277 -264.508c3.69238 -49.6104 10.168 -98.8545 15.6025 -148.282c4.48535 -40.8174 7.03223 -84.3652 17.5215 -124.037
c6.94043 -26.2422 -29.6143 -47.7969 -48.7988 -54.1084c-26.6748 -8.77344 -56.5059 -4.5957 -73.3457 19.002c-12.2764 17.2002 -17.8613 39.2129 -24.042 59.1699c-16.041 51.7715 -28.4678 104.041 -37.7002 157.43c-18.1035 104.748 -24.5264 210.942 -25.9014 317.137
c-9.67773 -2.71094 -19.3291 -5.4873 -28.9609 -8.36133c-38.29 -11.4189 -75.8994 -27.8994 -114.727 -36.9287c-29.8311 -6.94043 -32.9932 23.7744 -9.79492 36.0186c37.2822 19.6758 80.751 31.1475 120.953 43.5225c10.7188 3.2998 21.4629 6.49512 32.2402 9.5918
c0.00683594 22.3271 0.282227 44.6934 0.734375 67.0791c-10.7188 42.5195 -23.1787 84.5615 -39.3379 125.412c-28.7373 72.6387 -70.9102 128.221 -129.491 179.429c-47.5156 41.5381 -99.2148 61.3184 -155.949 85.9434
c-20.9062 9.0752 -43.3906 22.7207 -41.8779 48.5576c1.51855 25.9873 29.2539 44.373 48.0391 58.5879c54.7246 41.4268 119.231 70.6094 182.304 96.8262z" />
    <glyph glyph-name="G" unicode="G" horiz-adv-x="1047" 
d="M428.332 866.997c-100.093 -112.146 -171.26 -262.547 -196.724 -410.371c-11.3203 -65.7705 -9.98438 -137.257 4.87891 -202.425c8.83301 -38.709 35.0098 -100.694 85.4062 -89.0459c58.9736 13.6318 109.082 78.832 145.854 122.354
c44.5039 52.6748 83.9268 109.514 129.569 161.252c40.8828 46.3369 96.6553 98.5205 162.393 99.9482c65.541 1.42773 114.333 -43.1152 146.632 -96.4971c73.1689 -120.939 67.5049 -278.82 46.3369 -413.771c-22.7793 -145.172 -85.6094 -285.349 -210.046 -370.644
c-59.7988 -40.9873 -132.699 -67.9307 -205.737 -67.584c-61.6514 0.294922 -136.215 15.3477 -173.595 69.2139c-36.8887 53.1592 -21.5479 127.507 -1.42773 184.307c21.6328 61.0625 59.0322 115.283 104.086 161.522c44.7461 45.9248 95.3389 86.4736 149.448 120.77
c54.2207 34.3613 111.361 67.25 177.825 59.1182c13.5996 -1.66309 17.8291 -14.4697 12.5195 -25.666c-6.24609 -13.1738 -22.6865 -18.5557 -36.1484 -17.6328c-70.5957 4.84473 -147.386 -67.0928 -193.526 -114.308
c-45.0801 -46.1279 -79.5859 -102.993 -101.383 -163.577c-18.6016 -51.7188 -44.5557 -139.076 25.916 -161.776c57.0361 -18.3721 112.809 17.9795 150.522 46.9658c92.6738 71.2305 129.177 207.708 148.773 325.381c10.8691 65.2461 18.4121 130.453 15.6885 196.747
c-2.54004 61.7627 -10.1152 137.302 -41.1572 192.02c-7.64746 13.4883 -16.9512 27.0615 -32.7705 23.8799c-14.2871 -2.87402 -25.8701 -19.8906 -34.6768 -30.6348c-20.3887 -24.8672 -41.6289 -49.0342 -61.7627 -74.1309
c-40.6738 -50.6973 -77.6279 -104.282 -118.55 -154.771c-80.5479 -99.3721 -210.824 -224.208 -350.856 -167.539c-129.295 52.3213 -135.744 239.188 -119.336 353.804c20.4609 142.9 92.3398 280.674 182.205 392.041c78.3418 97.0801 201.154 208.198 334.803 200.78
c139.94 -7.76562 214.569 -111.139 243.876 -239.654c5.60449 -24.5791 -46.6123 -42.4863 -53.3232 -14.2139c-18.9551 79.8994 -59.0527 164.65 -140.694 196.053c-75.5127 29.0449 -148.354 -39.6318 -195.019 -91.9141z" />
    <glyph glyph-name="H" unicode="H" horiz-adv-x="1030" 
d="M64.2578 128.1c-25.915 3.11035 -11.2754 31.1553 2.88672 38.8682c46.7295 25.418 94.7949 50.3311 143.94 73.8828c-13.2129 182.094 -14.1553 368.221 11.7529 549.234c5.44141 37.9893 51.6934 63.5967 85.3086 69.3125
c26.2754 4.46582 78.5703 -4.93652 76.0957 -42.7812c-11.0781 -169.319 -21.4365 -337.65 -15.2754 -507.271c122.197 47.0635 249.239 81.0449 377.99 90.0605c-1.61035 141.886 5.76172 284.256 24.6641 424.053c5.02832 37.1709 50.835 62.3066 83.5273 67.8652
c27.1523 4.61621 75.1396 -4.87109 74.5049 -41.8848c-3.25391 -190.351 -20.166 -379.908 -14.2998 -570.481c2.93945 -95.5283 9.93262 -190.455 18.8047 -285.584c4.17773 -44.7783 9.59277 -89.3213 16.1533 -133.806
c3.07715 -20.8672 7.60156 -40.8438 13.1338 -61.1611c1.49316 -5.48047 7.53613 -31.834 9.72266 -42.1924c24.8877 -0.818359 19.2637 -34.833 -7.14941 -42.8926c-45.0664 -13.7627 -80.8623 -5.90527 -109.069 33.3535
c-27.0156 37.6025 -39.4561 83.4482 -50.8027 127.677c-26.0723 101.65 -42.6641 206.123 -50.2002 310.812c-4.08594 56.8193 -6.85547 113.973 -8.23047 171.251c-96.1045 -6.42285 -189.236 -29.5098 -282.755 -58.666
c-31.6904 -9.87402 -63.001 -20.8213 -93.9775 -32.6133c4.32812 -85.4453 10.5088 -170.459 19.0996 -255.609c9.06836 -89.8457 23.7549 -179.658 28.6396 -269.818c2.18652 -40.4902 -79.501 -82.3555 -98.8945 -36.9941
c-30.3867 71.0869 -49.0342 148.256 -64.6104 224.456c-12.6758 24.7627 -26.0527 49.1846 -41.0137 72.6445c-33.707 52.8516 -82.8926 120.239 -149.946 128.286zM229.576 71.249c-6.14844 42.0283 -11.1426 84.2744 -14.96 126.46
c-27.5195 -13.1406 -54.8164 -26.7598 -81.8975 -40.7588c38.7021 -18.0586 70.4707 -50.7246 96.8574 -85.7012z" />
    <glyph glyph-name="I" unicode="I" horiz-adv-x="366" 
d="M286.594 495.562c-0.0917969 -116.127 -6.50879 -232.132 -8.2832 -348.233c-1.69629 -110.346 -10.2607 -228.411 16.5381 -336.505c8.25 -33.2881 -34.4463 -63.6689 -59.6934 -73.3721c-30.8584 -11.8643 -65.2393 -9.31738 -84.8623 19.2891
c-54.6064 79.6182 -46.9658 187.352 -46.2256 279.737c0.811523 101.553 6.91992 203.086 11.4248 304.514c4.53711 102.194 10.5869 204.329 14.6074 306.543c1.89258 48.1445 7.72656 96.7539 7.10449 144.938c-0.261719 20.4941 -13.501 97.958 -47.4824 67.6162
c-17.6914 -15.7988 -54.7246 -0.0253906 -33.1699 21.7842c28.9531 29.2939 63.1514 31.0225 102.312 27.3359c46.9922 -4.42578 77.6611 -41.9629 93.7285 -83.9326c18.7061 -48.877 23.4004 -105.415 27.748 -157.18c4.83887 -57.5527 6.29883 -114.791 6.25293 -172.534z
" />
    <glyph glyph-name="I" unicode="&#xcf;" horiz-adv-x="366" 
d="M286.594 495.562c-0.0917969 -116.127 -6.50879 -232.132 -8.2832 -348.233c-1.69629 -110.346 -10.2607 -228.411 16.5381 -336.505c8.25 -33.2881 -34.4463 -63.6689 -59.6934 -73.3721c-30.8584 -11.8643 -65.2393 -9.31738 -84.8623 19.2891
c-54.6064 79.6182 -46.9658 187.352 -46.2256 279.737c0.811523 101.553 6.91992 203.086 11.4248 304.514c4.53711 102.194 10.5869 204.329 14.6074 306.543c1.89258 48.1445 7.72656 96.7539 7.10449 144.938c-0.261719 20.4941 -13.501 97.958 -47.4824 67.6162
c-17.6914 -15.7988 -54.7246 -0.0253906 -33.1699 21.7842c28.9531 29.2939 63.1514 31.0225 102.312 27.3359c46.9922 -4.42578 77.6611 -41.9629 93.7285 -83.9326c18.7061 -48.877 23.4004 -105.415 27.748 -157.18c4.83887 -57.5527 6.29883 -114.791 6.25293 -172.534z
" />
    <glyph glyph-name="I" unicode="&#xce;" horiz-adv-x="366" 
d="M286.594 495.562c-0.0917969 -116.127 -6.50879 -232.132 -8.2832 -348.233c-1.69629 -110.346 -10.2607 -228.411 16.5381 -336.505c8.25 -33.2881 -34.4463 -63.6689 -59.6934 -73.3721c-30.8584 -11.8643 -65.2393 -9.31738 -84.8623 19.2891
c-54.6064 79.6182 -46.9658 187.352 -46.2256 279.737c0.811523 101.553 6.91992 203.086 11.4248 304.514c4.53711 102.194 10.5869 204.329 14.6074 306.543c1.89258 48.1445 7.72656 96.7539 7.10449 144.938c-0.261719 20.4941 -13.501 97.958 -47.4824 67.6162
c-17.6914 -15.7988 -54.7246 -0.0253906 -33.1699 21.7842c28.9531 29.2939 63.1514 31.0225 102.312 27.3359c46.9922 -4.42578 77.6611 -41.9629 93.7285 -83.9326c18.7061 -48.877 23.4004 -105.415 27.748 -157.18c4.83887 -57.5527 6.29883 -114.791 6.25293 -172.534z
" />
    <glyph glyph-name="I" unicode="&#xcd;" horiz-adv-x="366" 
d="M286.594 495.562c-0.0917969 -116.127 -6.50879 -232.132 -8.2832 -348.233c-1.69629 -110.346 -10.2607 -228.411 16.5381 -336.505c8.25 -33.2881 -34.4463 -63.6689 -59.6934 -73.3721c-30.8584 -11.8643 -65.2393 -9.31738 -84.8623 19.2891
c-54.6064 79.6182 -46.9658 187.352 -46.2256 279.737c0.811523 101.553 6.91992 203.086 11.4248 304.514c4.53711 102.194 10.5869 204.329 14.6074 306.543c1.89258 48.1445 7.72656 96.7539 7.10449 144.938c-0.261719 20.4941 -13.501 97.958 -47.4824 67.6162
c-17.6914 -15.7988 -54.7246 -0.0253906 -33.1699 21.7842c28.9531 29.2939 63.1514 31.0225 102.312 27.3359c46.9922 -4.42578 77.6611 -41.9629 93.7285 -83.9326c18.7061 -48.877 23.4004 -105.415 27.748 -157.18c4.83887 -57.5527 6.29883 -114.791 6.25293 -172.534z
" />
    <glyph glyph-name="J" unicode="J" horiz-adv-x="1055" 
d="M991.978 935.274c-45.0732 6.45605 -91.3008 0.289062 -136.773 -10.043c39.2129 -86.834 49.3291 -189.133 62.2871 -281.27c15.8906 -112.984 28.0234 -227.18 32.6914 -341.231c4.30859 -105.396 0.294922 -212.127 -16.4668 -316.331
c-15.6221 -97.1133 -40.6201 -200.623 -89.3271 -286.985c-49.2568 -87.3311 -139.442 -154.993 -243.68 -145.119c-42.71 4.04688 -80.3252 22.1709 -106.208 55.5566c-25.5352 32.9404 -50.5537 64.0938 -66.877 103.104
c-69.0176 164.952 -66.0322 369.399 17.8809 528.204c65.0234 123.062 179.651 216.325 312.927 252.769c-4.54395 59.4062 -9.23828 118.812 -14.1689 178.159c-6.02344 72.6055 -17.2461 143.797 -29.1758 215.276c-64.9385 -18.2217 -129.458 -37.9492 -193.395 -59.4248
c-150.901 -50.6777 -298.915 -108.564 -439.262 -184.045c-30.2168 -16.251 -46.1992 18.5166 -17.0361 34.9248c147.902 83.2324 302.961 152.819 462.97 209.2c58.9473 20.7686 118.399 40.0049 178.218 58.0498c3.89551 48.21 90.2842 74.0273 118.203 33.9697
c67.4072 18.0322 134.834 31.7891 205.705 25.792c21.8818 -1.85254 29.4639 -24.3232 20.3955 -41.8252c-10.4893 -20.2451 -36.8301 -31.8936 -58.9082 -28.7314zM755.295 -101.28c28.0166 169.929 21.5752 345.388 9.1084 516.495
c-0.883789 12.1523 -1.85938 24.3047 -2.7627 36.457c-145.146 -39.541 -257.634 -162.406 -300.795 -306.046c-23.7217 -78.9434 -29.2021 -162.28 -18.8506 -243.928c9.16699 -72.2783 31.8408 -159.439 88.0322 -210.124
c25.4043 -22.916 70.0781 -36.79 104.473 -38.2109c26.8711 -1.10645 43.6133 11.8115 58.9277 33.2021c41.6943 58.2275 50.5527 143.529 61.8672 212.154z" />
    <glyph glyph-name="K" unicode="K" horiz-adv-x="652" 
d="M83.7402 936.649c5.67676 38.1719 51.7598 63.8477 85.6562 69.6025c26.5176 4.51172 78.7275 -4.95605 76.4102 -42.958c-10.7051 -175.743 -24.3242 -350.347 -24.4619 -526.018c87.3115 91.9541 165.935 190.561 237.388 295.479
c34.9443 51.3193 69.915 103.144 111.832 149.12c27.7354 30.4199 74.5762 83.4551 118.615 50.1279c19.5898 -14.8301 -16.71 -40.3457 -31.9658 -36.0771c-17.1025 4.78613 -47.3457 -39.3047 -57.3115 -50.9658c-16.9912 -19.8721 -32.8623 -40.6934 -48.1836 -61.875
c-31.0547 -42.9258 -59.7783 -87.4814 -90.6699 -130.525c-55.6084 -77.4902 -116.501 -150.928 -182.18 -219.998c7.76562 -0.576172 15.5771 -1.68262 23.1006 -3.2998c25.2998 -5.44727 48.7266 -18.5166 69.417 -33.8047
c39.8809 -29.4775 66.1494 -75.4023 84.7383 -120.449c41.0137 -99.3789 69.3838 -203.609 103.418 -305.456c28.9795 -86.7354 59.8447 -181.642 135.103 -239.613c25.6143 -19.7344 61.8291 -37.0264 94.9922 -33.7529c46.7695 4.60938 78.6953 49.8721 103.235 85.3398
c8.86523 12.8066 24.6514 23.4531 41.1582 20.0742c13.7568 -2.81543 22.1309 -16.2314 14.2539 -29.2217c-55.0449 -90.7686 -128.672 -162.294 -241.886 -159.583c-112.101 2.67773 -204.794 67.5635 -260.586 162.673
c-58.0176 98.9072 -83.4814 218.767 -114.916 328.032c-15.8584 55.124 -28.0234 111.649 -47.3457 165.713c-14.1885 39.7109 -37.668 69.5674 -61.5205 101.546c0.386719 -19.2959 0.890625 -38.5918 1.67676 -57.9199c4.43262 -109.515 16.1787 -218.066 31.3818 -326.56
c7.45801 -53.2451 17.7441 -105.822 27.5127 -158.661c4.30859 -23.3223 8.3291 -46.6582 11.9102 -70.0918c2.84863 -18.6475 10.9482 -38.6826 10.1562 -57.4346c-1.20508 -28.502 -29.5098 -52.0469 -57.8477 -52.2891
c-57.0811 -0.484375 -81.6738 41.832 -98.7764 90.3301c-19.4336 55.1045 -33.1836 112.18 -45.7676 169.189c-24.3896 110.51 -37.3672 223.259 -44.8252 336.105c-15.1768 229.655 -7.53613 465.491 26.2881 693.222z" />
    <glyph glyph-name="L" unicode="L" horiz-adv-x="598" 
d="M342.242 943.23c9.03516 30.8779 52.1436 49.542 78.9561 29.8408c37.0264 -27.2119 45.7998 -80.293 52.8838 -123.611c8.25684 -50.4814 11.5957 -101.709 14.123 -152.734c4.80566 -97.0547 2.97852 -195.379 -1.21875 -292.459
c-7.25488 -167.762 -17.2725 -343.203 -75.958 -502.229c-6.60645 -17.9141 -14.3584 -35.75 -23.2236 -53.0557c49.4795 -13.874 98.9004 -27.8789 149.644 -37.209c64.3623 -11.8311 147.556 -23.1123 199.7 25.8105c21.7773 20.4287 87.7568 27.6309 66.3525 -19.8057
c-28.6914 -63.6025 -109.416 -85.085 -173.51 -86.2832c-74.1182 -1.3877 -145.827 21.1162 -214.065 48.0527c-18.8564 7.45117 -37.7852 14.8633 -56.832 21.9219c-28.999 -40.5029 -66.667 -73.8496 -115.178 -90.8408
c-61.626 -21.5869 -130.5 -20.1201 -175.809 32.7119c-43.1152 50.2656 -2.0625 102.011 48.1113 125.752c39.5342 18.7061 83.3506 20.0479 126.218 14.4043c17.2598 51.9678 25.3066 108.656 33.8643 161.967c23.2109 144.596 28.835 291.268 37.5303 437.232
c4.68164 78.5967 10.0117 157.285 13.0762 235.961c1.53223 39.3115 3.11035 78.6953 5.49414 117.954c2.17383 35.8477 -0.261719 72.0879 9.84082 106.62zM139.915 -222.479c39.8682 -0.811523 66.666 28.1943 84.0566 61.1348
c-0.477539 0.0722656 -0.949219 0.183594 -1.43359 0.249023c-28.5537 4.05957 -61.4678 5.68945 -88.3721 -6.62012c-31.3955 -14.3652 -34.8652 -53.9385 5.74902 -54.7637z" />
    <glyph glyph-name="M" unicode="M" horiz-adv-x="1341" 
d="M181.748 726.631c47.1357 84.4834 106.456 176.526 201.035 212.4c96.5635 36.6465 189.421 -2.71094 251.367 -80.2861c72.0889 -90.2715 106.418 -198.437 132.483 -309.438c7.66699 -32.6396 13.9521 -66.085 19.1963 -99.877
c15.5312 80.1484 36.1953 159.125 66.458 235.391c23.4863 59.1963 50.9141 123.984 97.1465 169.319c37.4189 36.6924 104.701 67.3936 154.371 37.1309c55.3926 -33.7529 73.8105 -123.873 86.375 -182.277c16.166 -75.1523 21.4561 -153.454 22.4443 -230.185
c2.04297 -158.45 -5.5 -316.764 11.7852 -474.632c7.26074 -66.3271 20.3555 -132.522 47.6914 -193.762c15.7861 -35.3633 66.582 -150.044 122.426 -96.0859c10.9805 10.6074 29.9287 20.4746 45.3545 12.5391c14.2676 -7.33984 13.2529 -23.9053 3.49707 -34.8398
c-48.5176 -54.3975 -123.192 -63.4854 -190.409 -43.3584c-78.1318 23.4014 -133.714 81.458 -165.47 155.269c-58.2539 135.416 -49.2246 298.961 -44.8447 442.876c4.6748 153.481 25.5352 308.92 12.6885 462.44c-3.18164 38.0215 -6.26562 76.9336 -15.4385 114.091
c-2.49414 10.0898 -4.41895 23.8066 -16.584 26.8906c-13.7236 3.4834 -33.6475 -18.8828 -41.1309 -27.1787c-46.4814 -51.5225 -73.6533 -127.323 -95.5479 -192.026c-45.6367 -134.899 -64.8926 -276.805 -82.2832 -417.604
c0.0527344 -7.41797 0.197266 -14.876 0.158203 -22.248c-0.254883 -43.4951 -38.2305 -76.043 -78.0596 -86.5586c-33.6416 -8.87891 -85.1836 -0.681641 -88.8105 42.0801c-18.3203 216.017 0.949219 445.594 -81.1045 651.344
c-16.2773 40.8174 -41.0596 96.3535 -88.3135 107.857c-41.6035 10.1289 -85.583 -7.80469 -117.921 -33.2354c-68.252 -53.6768 -112.775 -141.486 -145.002 -220.345c-67.8125 -165.915 -82.3018 -357.621 -57.126 -534.248
c11.6543 -81.7725 38.8066 -185.97 99.8623 -245.664c8.65625 -8.45898 18.1309 -17.2324 29.5303 -21.8418c2.92676 -1.18555 14.8037 -1.83984 14.0508 -3.04492c6.2002 2.63184 11.0322 9.07422 17.082 16.7412c19.9502 25.2871 33.3076 55.792 42.6445 86.4346
c24.5996 80.7246 26.2168 163.257 28.3379 246.765c2.67773 105.579 -3.79785 211.021 -0.537109 316.534c1.15918 37.5371 66.667 73.1562 89.623 33.5303c66.3066 -114.458 84.4961 -257.673 82.2041 -388.428c-2.1084 -120.232 -25.7715 -242.718 -109.619 -334.488
c-75.4932 -82.623 -210.458 -126.643 -289.604 -24.9521c-66.1631 85.0137 -88.3008 200.467 -97.5068 305.182c-18.582 211.322 23.7803 435.87 127.5 621.788z" />
    <glyph glyph-name="N" unicode="N" horiz-adv-x="875" 
d="M347.156 447.076c-33.248 -172.41 -63.4824 -346.591 -63.7832 -522.53c3.41797 -22.5166 6.63281 -45.1055 10.6992 -67.2881c5.58496 -14.1357 0.949219 -29.2803 -10.1426 -42.1982l-1.57031 -1.82812c-16.041 -18.6797 -55.123 -36.3252 -79.29 -21.9209
c-33.8047 20.1533 -43.8486 62.0049 -56.0537 97.29c-13.5928 39.2852 -24.7764 79.1924 -35.2588 119.414c-20.1602 77.3262 -34.6104 155.38 -44.7529 234.638c-20.8076 162.582 -22.458 325.767 -5.29688 488.735c4.00098 37.9951 52.9834 64.0547 85.6621 69.6074
c26.373 4.48535 78.9043 -4.95605 76.4102 -42.958c-10.0635 -153.128 -10.2793 -307.14 3.73926 -460.031c4.7207 -51.4961 11.2354 -102.907 18.7061 -154.142c12.6953 121.077 34.6494 241.375 58.1094 360.874c17.626 89.8066 38.1855 179.207 73.2676 264.018
c27.9912 67.6689 68.998 136.916 134.971 173.857c75.6699 42.3691 153.763 15.1318 199.38 -55.084c47.0703 -72.4551 53.127 -171.179 58.1357 -255.046c11.5176 -192.91 -2.58594 -385.893 -0.490234 -578.914c0.96875 -89.6035 5.56543 -179.868 21.5283 -268.168
c7.77832 -43.0303 18.2344 -85.7598 37.2285 -125.444c10.4043 -21.7314 22.0654 -51.3066 48.7334 -47.3916c25.7188 3.77148 47.5879 -21.083 33.0068 -44.9551c-28.0039 -45.8457 -80.2666 -62.5352 -131.868 -53.2051
c-50.4951 9.12695 -82.4863 37.3604 -109.103 79.3428c-50.1016 79.0225 -72.9521 177.458 -80.0361 269.844c-14.0703 183.527 3.33984 368.967 14.5947 552.187c5.68945 92.5557 9.27734 185.302 8.58984 278.061c-0.360352 47.8564 9.625 202.183 -66.2217 203.812
c-41.7998 0.897461 -71.0342 -46.042 -88.8633 -77.7588c-20.6641 -36.7578 -36.208 -76.4883 -49.3887 -116.454c-27.5518 -83.5137 -44.0186 -170.164 -60.6426 -256.362z" />
    <glyph glyph-name="O" unicode="O" horiz-adv-x="926" 
d="M464.054 945.194c131.396 -12.3096 236.131 -109.285 297.003 -220.705c68.7363 -125.785 86.3359 -274.611 84.5088 -415.953c-1.85254 -143.051 -18.4111 -290.606 -82.1123 -420.522c-61.3174 -125.059 -177.294 -250.273 -323.436 -263.893
c-161.725 -15.0723 -216.167 141.506 -234.337 272.791c-15.2949 110.51 -6.0957 224.3 12.1133 335.137c-85.8125 57.6182 -146.672 151.032 -163.172 253.626c-38.0088 236.327 163.715 482.534 409.432 459.52zM137.593 413.068
c21.4561 -46.5664 52.7324 -87.6055 91.0752 -120.252c2.75 14.3457 5.57812 28.6455 8.51172 42.8408c15.125 73.2803 170.498 105.985 158.667 9.59863c-5.16602 -42.0811 -11.0322 -84.1426 -16.0537 -126.23c99.1758 -20.7031 201.815 -2.20605 296.578 30.7607
c2.43555 45.2236 2.74316 90.4209 1.49219 134.84c-3.14258 111.446 -23.4463 224.646 -78.2432 322.978c-46.8936 84.1553 -118.661 166.189 -223.363 162.307c-221.687 -8.22363 -322.617 -274.656 -238.664 -456.842zM641.629 19.8037
c16.3291 60.5186 26.3271 123.6 31.7549 187.11c-95.0381 -32.5352 -199.347 -50.4102 -298.752 -34.7549c-7.37207 -74.4521 -10.2529 -149.062 0.00683594 -224.097c6.95312 -50.8281 17.8945 -111.852 49.3486 -154.201
c11.334 -15.2559 26.9561 -26.9297 40.5615 -26.7334c5.90625 0.0849609 8.63672 1.48633 12.4609 3.16895c1.53223 0.674805 13.4033 7.03223 13.3506 6.62598c3.41797 2.27832 6.77051 4.7207 10.0576 7.13672c32.4756 23.8916 62.0576 59.3398 84.8105 98.4355
c25.1758 43.2725 43.3711 89.0332 56.4004 137.309z" />
    <glyph glyph-name="O" unicode="&#xd6;" horiz-adv-x="926" 
d="M464.054 945.194c131.396 -12.3096 236.131 -109.285 297.003 -220.705c68.7363 -125.785 86.3359 -274.611 84.5088 -415.953c-1.85254 -143.051 -18.4111 -290.606 -82.1123 -420.522c-61.3174 -125.059 -177.294 -250.273 -323.436 -263.893
c-161.725 -15.0723 -216.167 141.506 -234.337 272.791c-15.2949 110.51 -6.0957 224.3 12.1133 335.137c-85.8125 57.6182 -146.672 151.032 -163.172 253.626c-38.0088 236.327 163.715 482.534 409.432 459.52zM137.593 413.068
c21.4561 -46.5664 52.7324 -87.6055 91.0752 -120.252c2.75 14.3457 5.57812 28.6455 8.51172 42.8408c15.125 73.2803 170.498 105.985 158.667 9.59863c-5.16602 -42.0811 -11.0322 -84.1426 -16.0537 -126.23c99.1758 -20.7031 201.815 -2.20605 296.578 30.7607
c2.43555 45.2236 2.74316 90.4209 1.49219 134.84c-3.14258 111.446 -23.4463 224.646 -78.2432 322.978c-46.8936 84.1553 -118.661 166.189 -223.363 162.307c-221.687 -8.22363 -322.617 -274.656 -238.664 -456.842zM641.629 19.8037
c16.3291 60.5186 26.3271 123.6 31.7549 187.11c-95.0381 -32.5352 -199.347 -50.4102 -298.752 -34.7549c-7.37207 -74.4521 -10.2529 -149.062 0.00683594 -224.097c6.95312 -50.8281 17.8945 -111.852 49.3486 -154.201
c11.334 -15.2559 26.9561 -26.9297 40.5615 -26.7334c5.90625 0.0849609 8.63672 1.48633 12.4609 3.16895c1.53223 0.674805 13.4033 7.03223 13.3506 6.62598c3.41797 2.27832 6.77051 4.7207 10.0576 7.13672c32.4756 23.8916 62.0576 59.3398 84.8105 98.4355
c25.1758 43.2725 43.3711 89.0332 56.4004 137.309z" />
    <glyph glyph-name="O" unicode="&#xd5;" horiz-adv-x="926" 
d="M464.054 945.194c131.396 -12.3096 236.131 -109.285 297.003 -220.705c68.7363 -125.785 86.3359 -274.611 84.5088 -415.953c-1.85254 -143.051 -18.4111 -290.606 -82.1123 -420.522c-61.3174 -125.059 -177.294 -250.273 -323.436 -263.893
c-161.725 -15.0723 -216.167 141.506 -234.337 272.791c-15.2949 110.51 -6.0957 224.3 12.1133 335.137c-85.8125 57.6182 -146.672 151.032 -163.172 253.626c-38.0088 236.327 163.715 482.534 409.432 459.52zM137.593 413.068
c21.4561 -46.5664 52.7324 -87.6055 91.0752 -120.252c2.75 14.3457 5.57812 28.6455 8.51172 42.8408c15.125 73.2803 170.498 105.985 158.667 9.59863c-5.16602 -42.0811 -11.0322 -84.1426 -16.0537 -126.23c99.1758 -20.7031 201.815 -2.20605 296.578 30.7607
c2.43555 45.2236 2.74316 90.4209 1.49219 134.84c-3.14258 111.446 -23.4463 224.646 -78.2432 322.978c-46.8936 84.1553 -118.661 166.189 -223.363 162.307c-221.687 -8.22363 -322.617 -274.656 -238.664 -456.842zM641.629 19.8037
c16.3291 60.5186 26.3271 123.6 31.7549 187.11c-95.0381 -32.5352 -199.347 -50.4102 -298.752 -34.7549c-7.37207 -74.4521 -10.2529 -149.062 0.00683594 -224.097c6.95312 -50.8281 17.8945 -111.852 49.3486 -154.201
c11.334 -15.2559 26.9561 -26.9297 40.5615 -26.7334c5.90625 0.0849609 8.63672 1.48633 12.4609 3.16895c1.53223 0.674805 13.4033 7.03223 13.3506 6.62598c3.41797 2.27832 6.77051 4.7207 10.0576 7.13672c32.4756 23.8916 62.0576 59.3398 84.8105 98.4355
c25.1758 43.2725 43.3711 89.0332 56.4004 137.309z" />
    <glyph glyph-name="O" unicode="&#xd4;" horiz-adv-x="926" 
d="M464.054 945.194c131.396 -12.3096 236.131 -109.285 297.003 -220.705c68.7363 -125.785 86.3359 -274.611 84.5088 -415.953c-1.85254 -143.051 -18.4111 -290.606 -82.1123 -420.522c-61.3174 -125.059 -177.294 -250.273 -323.436 -263.893
c-161.725 -15.0723 -216.167 141.506 -234.337 272.791c-15.2949 110.51 -6.0957 224.3 12.1133 335.137c-85.8125 57.6182 -146.672 151.032 -163.172 253.626c-38.0088 236.327 163.715 482.534 409.432 459.52zM137.593 413.068
c21.4561 -46.5664 52.7324 -87.6055 91.0752 -120.252c2.75 14.3457 5.57812 28.6455 8.51172 42.8408c15.125 73.2803 170.498 105.985 158.667 9.59863c-5.16602 -42.0811 -11.0322 -84.1426 -16.0537 -126.23c99.1758 -20.7031 201.815 -2.20605 296.578 30.7607
c2.43555 45.2236 2.74316 90.4209 1.49219 134.84c-3.14258 111.446 -23.4463 224.646 -78.2432 322.978c-46.8936 84.1553 -118.661 166.189 -223.363 162.307c-221.687 -8.22363 -322.617 -274.656 -238.664 -456.842zM641.629 19.8037
c16.3291 60.5186 26.3271 123.6 31.7549 187.11c-95.0381 -32.5352 -199.347 -50.4102 -298.752 -34.7549c-7.37207 -74.4521 -10.2529 -149.062 0.00683594 -224.097c6.95312 -50.8281 17.8945 -111.852 49.3486 -154.201
c11.334 -15.2559 26.9561 -26.9297 40.5615 -26.7334c5.90625 0.0849609 8.63672 1.48633 12.4609 3.16895c1.53223 0.674805 13.4033 7.03223 13.3506 6.62598c3.41797 2.27832 6.77051 4.7207 10.0576 7.13672c32.4756 23.8916 62.0576 59.3398 84.8105 98.4355
c25.1758 43.2725 43.3711 89.0332 56.4004 137.309z" />
    <glyph glyph-name="O" unicode="&#xd3;" horiz-adv-x="926" 
d="M464.054 945.194c131.396 -12.3096 236.131 -109.285 297.003 -220.705c68.7363 -125.785 86.3359 -274.611 84.5088 -415.953c-1.85254 -143.051 -18.4111 -290.606 -82.1123 -420.522c-61.3174 -125.059 -177.294 -250.273 -323.436 -263.893
c-161.725 -15.0723 -216.167 141.506 -234.337 272.791c-15.2949 110.51 -6.0957 224.3 12.1133 335.137c-85.8125 57.6182 -146.672 151.032 -163.172 253.626c-38.0088 236.327 163.715 482.534 409.432 459.52zM137.593 413.068
c21.4561 -46.5664 52.7324 -87.6055 91.0752 -120.252c2.75 14.3457 5.57812 28.6455 8.51172 42.8408c15.125 73.2803 170.498 105.985 158.667 9.59863c-5.16602 -42.0811 -11.0322 -84.1426 -16.0537 -126.23c99.1758 -20.7031 201.815 -2.20605 296.578 30.7607
c2.43555 45.2236 2.74316 90.4209 1.49219 134.84c-3.14258 111.446 -23.4463 224.646 -78.2432 322.978c-46.8936 84.1553 -118.661 166.189 -223.363 162.307c-221.687 -8.22363 -322.617 -274.656 -238.664 -456.842zM641.629 19.8037
c16.3291 60.5186 26.3271 123.6 31.7549 187.11c-95.0381 -32.5352 -199.347 -50.4102 -298.752 -34.7549c-7.37207 -74.4521 -10.2529 -149.062 0.00683594 -224.097c6.95312 -50.8281 17.8945 -111.852 49.3486 -154.201
c11.334 -15.2559 26.9561 -26.9297 40.5615 -26.7334c5.90625 0.0849609 8.63672 1.48633 12.4609 3.16895c1.53223 0.674805 13.4033 7.03223 13.3506 6.62598c3.41797 2.27832 6.77051 4.7207 10.0576 7.13672c32.4756 23.8916 62.0576 59.3398 84.8105 98.4355
c25.1758 43.2725 43.3711 89.0332 56.4004 137.309z" />
    <glyph glyph-name="P" unicode="P" horiz-adv-x="1092" 
d="M598.912 1009.24c149.454 4.01367 326.299 -40.6338 415.038 -170.897c99.8896 -146.633 53.6768 -330.966 -24.4482 -476.21c-40.209 -74.7529 -94.7041 -149.683 -166.603 -196.675c-67.3809 -44.0391 -178.028 -79.415 -248.297 -23.2432
c3.92871 -59.3271 6.56055 -118.785 7.74609 -177.949c2.14062 -107.184 -0.301758 -213.941 -21.0967 -319.455c-17.8613 -90.6504 -73.4111 -186.002 -174.08 -198.278c-85.6943 -10.4434 -130.571 60.1846 -173.405 121.816
c-45.2832 65.1484 -76.8623 139.129 -100.322 214.655c-53.3359 171.716 -73.3389 356.704 -58.8887 535.852c13.377 165.862 49.5654 336.825 148.708 474.016c93.1387 128.875 235.148 212.055 395.648 216.369zM749.939 281.784
c9.78223 7.91602 23.3672 22.0664 36.2334 37.1914c-24.4746 -0.40625 -49.0283 -1.76855 -73.0117 -6.35156c-22.8965 -4.37402 -65.5342 -14.8047 -75.4668 -39.6855c-11.7002 -29.3066 34.4072 -29.0771 47.7842 -26.0195
c25.123 5.73535 38.6309 13.9658 64.4609 34.8652zM928.817 656.207c5.23828 131.01 -80.2021 220.481 -198.929 261.771c-127.88 44.4775 -270.721 29.3916 -378.002 -55.9619c-101.834 -81.0127 -159.06 -207.145 -184.805 -332
c-29.5166 -143.143 -30.9111 -295.426 -17.6328 -440.585c12.5449 -137.197 36.1943 -278.873 97.4072 -403.564c26.5635 -54.1094 61.6191 -115.492 113.652 -149.068c22.1699 -14.3066 31.1797 -9.58594 39.6982 13.3242c10.0107 26.9297 9.35645 59.8838 10.502 88.1885
c12.1787 300.919 4.41309 604.535 -16.5781 904.779c-3.14258 44.9297 92.9492 93.165 110.805 41.4521c34.0869 -98.7305 47.8369 -203.196 58.3389 -306.727c0.150391 -1.47949 0.274414 -2.95898 0.424805 -4.43848c17.3711 23.002 41.1318 42.7363 63.1777 55.5371
c58.0117 33.6875 127.678 37.0723 193.16 35.8613c15.9629 24.7363 30.2168 50.8418 43.7832 76.8223c34.4922 66.0586 61.9922 139.319 64.9971 214.609z" />
    <glyph glyph-name="Q" unicode="Q" horiz-adv-x="914" 
d="M148.751 692.911c86.9775 128.574 225.505 227.331 386.922 180.987c157.305 -45.165 220.96 -224.771 251.812 -368.083c18.2217 -84.6406 23.8262 -172.758 22.5361 -259.172c-1.375 -91.9473 -6.53418 -186.514 -31.749 -275.403
c-30.0986 -106.097 -88.1953 -205.986 -171.009 -276.778c5.97168 -6.05664 12.0742 -11.9883 18.4121 -17.6719c49.833 -44.6807 139.613 -88.5752 197.493 -31.3105c24.4229 24.1602 81.6152 15.583 52.4717 -23.9512
c-40.752 -55.2871 -115.434 -74.4844 -181.021 -61.0029c-58.083 11.9424 -104.021 49.9316 -141.112 94.4619c-34.584 -21.6006 -72.4746 -38.5586 -113.593 -49.5654c-85.125 -22.7852 -186.972 -18.2412 -254.031 45.4922
c-57.7432 54.875 -82.5059 133.164 -89.0537 210.405c-7.06445 83.3174 3.50293 169.051 30.4395 248.289c0.569336 1.66992 1.14551 3.36621 1.73438 5.0752c-15.2168 21.8496 -27.834 45.6953 -38.1592 68.8936c-74.2754 166.91 -42.6963 360.619 57.9072 509.334z
M410.791 -275.792c23.7549 8.63574 46.1865 22.9541 67.4072 41.4707c-51.8174 89.3018 -89.7012 185.178 -121.896 283.653c-27.6045 -14.3916 -58.3125 -22.4512 -91.8623 -20.9775c-36.3262 1.59766 -66.9814 16.375 -92.7393 38.3027
c-5.10742 -36.5547 -5.70312 -73.8301 -1.91211 -108.08c12.9443 -116.926 98.4688 -286.153 241.002 -234.369zM186.891 134.162c14.333 -18.7393 30.8398 -34.9785 49.8604 -46.4434c37.3799 -22.543 74.4648 -17.1543 106.849 1.38867
c-3.4248 11.0068 -6.80957 22.0391 -10.1357 33.0918c-9.93262 33.0391 -17.9014 74.1318 -45.584 97.5391c-42.6768 36.0967 -73.5488 -18.5361 -88.7852 -53.0811c-4.58984 -10.3975 -8.62305 -21.2988 -12.2041 -32.4951zM525.333 796.02
c-117.588 120.888 -274.025 -24.6455 -339.658 -129.249c-75.4082 -120.147 -102.974 -269.824 -60.0869 -406.681c7.7002 -24.5469 18.0059 -51.6475 31.2314 -77.543c20.9912 41.1445 50.7041 77.9873 95.3975 86.5713c84.3779 16.2051 112.382 -80.3447 132.588 -140.909
c0.549805 -1.65039 1.11914 -3.30078 1.66895 -4.95117c12.0938 12.5322 22.8184 26.3018 31.7295 39.9795c13.0557 20.0488 63.8643 20.54 46.2188 -7.62793c-17.3379 -27.6699 -38.5391 -53.9453 -63.2363 -75.3818c22.8701 -65.5605 47.9541 -130.381 78.5117 -192.766
c12.7021 -25.9346 26.2949 -51.9541 41.1777 -77.2803c0.392578 0.47168 0.785156 0.929688 1.17188 1.40723c15.9102 19.4922 31.3555 44.4512 45.6943 72.6973c14.2412 28.0566 24.7236 57.0889 33.1963 87.3779c39.7373 142.062 46.4424 299.19 38.873 445.934
c-6.39648 123.978 -22.7461 284.117 -114.478 378.422z" />
    <glyph glyph-name="R" unicode="R" horiz-adv-x="942" 
d="M107.053 497.715c47.2471 153.743 118.344 309.471 246.637 412.215c115.938 92.8643 281.996 139.581 425.354 85.8711c67.6885 -25.3584 128.194 -87.1738 140.444 -160.041c12.8662 -76.5479 -10.0566 -155.321 -45.4268 -222.669
c-36.3125 -69.1357 -87.1865 -129.576 -142.795 -183.895c-32.1221 -31.376 -65.5469 -61.4551 -99.0898 -91.292c-8.00781 -7.12402 -35.4023 -34.5518 -55.1104 -51.8311c1.86621 -3.03809 3.71875 -6.08301 5.5918 -9.11426
c6.40332 -10.3447 12.8789 -20.6504 19.4199 -30.917c10.8955 -17.1084 21.9873 -34.0996 33.2617 -50.96c23.8525 -35.6641 48.4648 -70.877 74.1709 -105.232c52.6816 -70.4062 107.007 -140.524 164.422 -207.146c49.1064 -56.9766 104.001 -110.215 172.495 -143.116
c39.2988 -18.877 81.0596 -39.8818 125.937 -26.0996c35.6318 10.9414 58.7051 41.9375 63.6094 77.9551c3.55566 26.0918 58.208 36.6133 55.085 3.33203c-7.15039 -76.1416 -76.417 -128.228 -146.764 -143.653c-88.4248 -19.3936 -180.346 2.69824 -259.087 43.9219
c-156.14 81.7461 -270.395 219.749 -370.775 361.418c2.24609 -29.1562 3.90234 -58.3252 4.7207 -87.4229c2.29199 -81.2227 -3.18164 -164.514 -29.6924 -241.984c-28.0166 -81.8701 -95.875 -180.116 -194.153 -172.462
c-82.2305 6.40332 -130.879 91.5801 -161.718 158.483c-35.9521 78.001 -59.0322 162.596 -71.6621 247.419c-26.5244 178.179 -7.6543 365.497 45.125 537.22zM463.563 928.407c-142.887 -74.1445 -224.944 -224.292 -268.243 -373.596
c-46.749 -161.194 -72.9004 -332.354 -59.0723 -500.174c6.98633 -84.8174 23.8926 -169.372 54.3848 -248.971c15.8584 -41.4062 36.5293 -82.165 62.3594 -118.294c12.7158 -17.7832 48.7471 -65.0693 76.4893 -54.8555c27.3945 10.083 35.6973 63.2617 38.7021 87.2061
c4.02637 32.1553 2.25195 65.5215 -1.08691 97.6309c-6.44238 61.9463 -5.08691 125.176 -7.97461 187.41c-3.31348 71.46 -8.03418 142.927 -12.8271 214.295c-4.60938 68.7227 -9.94531 134.964 -1.93066 203.451c4.29492 36.6992 81.5693 67.4463 99.9873 27.0088
c10.8623 -23.8594 19.0205 -48.6094 25.5029 -73.8633c38.6172 34.6367 82.001 65.8877 119.741 99.1299c94.8672 83.5537 199.202 196.414 198.188 335.746c-0.261719 36.1816 -3.26074 69.2275 -27.8398 97.9062c-21.0107 24.5137 -51.1553 42.7744 -82.0986 51.6982
c-71.7871 20.7031 -149.631 1.82031 -214.281 -31.7295z" />
    <glyph glyph-name="S" unicode="S" horiz-adv-x="926" 
d="M211.187 -33.6514c-61.6973 -27.4863 -98.5527 -89.9619 -101.31 -156.511c-2.7832 -67.2168 33.6475 -127.205 85.9824 -167.146c101.716 -77.6211 253.58 -78.1123 373.132 -51.2871c59.9629 13.4551 118.701 35.5137 170.04 69.7314
c45.623 30.4131 86.6895 68.1396 57.1865 126.02c-28.7695 56.4395 -96.3467 90.749 -146.377 125.478c-57.2061 39.7109 -116.33 76.6455 -174.021 115.656c-105.618 71.4268 -206.595 148.38 -284.078 250.869c-76.3965 101.055 -120.062 222.761 -108.879 350.268
c11.3857 129.903 80.5605 250.273 192.065 319.547c92.5166 57.4873 212.356 89.8516 317.536 47.8027c48.4521 -19.3672 85.1572 -57.4736 96.5107 -109.062c13.1406 -59.7266 -8.13867 -121.457 -29.0977 -176.705c-5.24414 -13.8223 -18.084 -24.2197 -33.3984 -24.7568
c-11.0068 -0.386719 -27.6182 7.50977 -22.3535 21.3838c25.3721 66.8828 57.9004 157.704 -3.10938 215.564c-48.5107 46.0098 -125.766 45.8594 -185.368 24.8291c-127.553 -45.0078 -189.211 -186.396 -178.591 -314.767
c22.1826 -268.233 291.581 -423.286 482.409 -568.812c95.5088 -72.835 248.04 -183.691 194.848 -324.13c-22.6416 -59.7793 -77.0645 -99.1758 -130.015 -130.853c-55.1045 -32.9668 -116.206 -56.4727 -178.912 -70.1768
c-200.139 -43.7314 -595.715 -8.2959 -552.049 284.53c16.8662 113.103 115.079 195.359 227.187 204.041c56.8262 4.40625 109.881 -11.9893 157.213 -42.7822c49.29 -32.0635 91.9473 -73.7715 149.35 -91.2598c26.2822 -8.00781 -7.72559 -45.2832 -27.9375 -39.4824
c-63.7666 18.3008 -109.711 62.1631 -165.3 95.7256c-55.5234 33.5234 -122.132 43.2529 -182.664 16.2832z" />
    <glyph glyph-name="T" unicode="T" horiz-adv-x="1049" 
d="M1182.37 1042.88c50.54 -3.06445 107.428 -15.2627 143.8 -53.4482c37.0527 -38.8994 44.9951 -87.6328 24.8809 -136.517c-22.543 -54.79 -141.944 -46.9922 -105.651 17.4424c26.085 46.3174 -31.3896 87.1279 -69.7129 96.458
c-55.7588 13.5801 -116.991 11.7402 -173.856 8.56445c-118.562 -6.62598 -232.811 -33.707 -346.162 -67.7148c-59.4453 -17.8359 -118.609 -36.667 -178.035 -54.5938c1.65625 -1.22461 3.35254 -2.38965 4.98926 -3.64062
c142.724 -109.115 199.937 -301.148 233.787 -474.829c5.00879 80.1094 12.7676 159.865 26.5898 237.873c8.26953 46.6836 109.854 81.1045 118.93 19.5508c12.6631 -85.8711 14.3652 -174.924 15.0723 -261.705c0.6875 -84.1094 1.98438 -168.245 1.47363 -252.361
c-0.530273 -86.748 -0.288086 -173.483 -3.50293 -260.173c-1.61719 -43.5674 -4.63574 -87.6123 -10.0898 -130.879c-5.27734 -41.8779 -22.7656 -83.6445 -39.7373 -122.19c-11.9102 -27.0479 -48.1963 -44.7852 -76.3838 -46.3174
c-22.3604 -1.21777 -56.3359 10.1357 -56.126 38.1133c0.510742 67.2236 -4.04004 131.665 -10.791 198.574c-6.37109 63.1182 -13.0557 126.197 -19.1582 189.349c-20.5859 213.018 -39.1094 440.283 -133.139 635.931c-38.7285 80.5869 -95.5811 157.796 -177.956 196.924
c-1.50586 -0.392578 -2.99902 -0.818359 -4.50488 -1.20508c-51.9023 -13.4229 -104.439 -25.8174 -157.324 -34.709c-32.9805 -5.5459 -103.104 -24.3896 -130.271 4.58301c-32.9141 35.1084 28.3184 78.6562 54.2988 94.8877
c38.3359 23.9443 80.4697 36.7773 125.412 40.8896c65.4619 5.98438 131.775 -8.40723 189.931 -38.4668c16.4805 4.72754 32.9414 9.52051 49.3691 14.4111c115.61 34.4209 230.742 69.5811 347.38 100.439c115.335 30.5186 236.772 52.0273 356.488 44.7598z
M163.289 826.638c15.3086 0.694336 30.623 2.84961 45.7744 5.08887c18.8311 2.7959 37.5371 6.25977 56.165 10.0898c-38.3555 4.42578 -78.584 0.942383 -111.23 -15.5117c3.09082 -0.00683594 6.1875 0.0712891 9.29102 0.333008z" />
    <glyph glyph-name="U" unicode="U" horiz-adv-x="955" 
d="M823.04 678.087c6.68457 -133.348 -8.09473 -265.627 -17.2676 -398.444c-9.05566 -131.147 -9.27148 -261.012 7.58887 -391.511c7.45801 -57.7363 16.9453 -118.085 39.5674 -172.043c7.41797 -17.6914 14.5938 -41.0527 31.002 -52.6816
c7.81738 -5.53906 14.3584 -5.05469 22.543 -7.90332c0.602539 -0.209961 1.25098 -0.255859 1.89258 -0.197266c-0.47168 -0.294922 -0.949219 -0.589844 -1.50586 -0.950195c0.510742 0.333984 1.05469 0.641602 1.5918 0.962891
c2.96582 0.307617 5.79395 2.82227 3.84277 2.11523c30.584 15.2627 86.6699 11.707 65.1943 -35.4941c-28.168 -61.9141 -109.043 -82.585 -170.858 -67.7744c-69.6855 16.6963 -113.449 69.3516 -139.233 133.373c-57.8604 143.666 -63.832 301.566 -53.4346 454.269
c9.74902 143.261 28.8027 285.834 47.457 428.145c8.70801 66.458 16.7158 133.563 18.2607 200.63c0.779297 33.9492 -2.22559 66.9092 -7.64062 100.367c-1.25684 7.78516 0.556641 30.5244 -9.34961 28.7959c-6.90137 -1.20508 -18.9229 -34.8662 -21.5029 -40.7979
c-26.5957 -61.0889 -39.0361 -128.24 -53.3691 -192.982c-15.2295 -68.7822 -29.5166 -137.768 -43.2402 -206.864c-26.1904 -131.861 -44.8379 -266.604 -79.0557 -396.69c-27.2119 -103.458 -75.0811 -258.235 -210.864 -241.094
c-134.539 16.9844 -190.953 160.592 -201.416 277.904c-6.16797 69.208 -2.04297 140.76 0.143555 210.145c2.31738 73.4111 3.23438 147.025 7.76562 220.325c4.28906 69.4824 9.28516 138.48 16.501 207.714c2.62598 25.1816 -0.28125 48.4258 -1.00781 73.3262
c-0.641602 21.9609 4.54395 39.1221 -5.90625 60.1982c-10.2793 20.7363 21.5547 35.5596 37.3799 34.1191c28.082 -2.56055 52.2559 -12.8008 74.1572 -30.5771c22.249 -18.0645 28.5146 -43.377 35.3633 -70.5625c16.4668 -65.3643 14.7773 -135.357 17.0693 -202.28
c5.17285 -151.308 1.60449 -302.72 -0.104492 -454.06c-0.661133 -58.8428 5.29102 -115.139 26.5771 -170.19c9.12109 -23.5908 22.249 -50.8281 44.4385 -65.0293c17.8291 -11.4121 26.7666 -2.16699 39.5146 13.0957c39.7959 47.6338 59.1631 114.111 75.2246 172.876
c16.2705 59.5303 25.7969 120.9 37.2031 181.491c25.2734 134.271 51.5752 268.352 81.3467 401.699c13.1934 59.085 25.6797 118.845 48.7988 175.029c16.8008 40.8242 44.1172 96.8975 96.7139 94.0889c52.3936 -2.80273 80.7705 -50.0625 99.6016 -92.707
c25.0381 -56.6953 35.9268 -118.249 39.0176 -179.835z" />
    <glyph glyph-name="U" unicode="&#xdc;" horiz-adv-x="955" 
d="M823.04 678.087c6.68457 -133.348 -8.09473 -265.627 -17.2676 -398.444c-9.05566 -131.147 -9.27148 -261.012 7.58887 -391.511c7.45801 -57.7363 16.9453 -118.085 39.5674 -172.043c7.41797 -17.6914 14.5938 -41.0527 31.002 -52.6816
c7.81738 -5.53906 14.3584 -5.05469 22.543 -7.90332c0.602539 -0.209961 1.25098 -0.255859 1.89258 -0.197266c-0.47168 -0.294922 -0.949219 -0.589844 -1.50586 -0.950195c0.510742 0.333984 1.05469 0.641602 1.5918 0.962891
c2.96582 0.307617 5.79395 2.82227 3.84277 2.11523c30.584 15.2627 86.6699 11.707 65.1943 -35.4941c-28.168 -61.9141 -109.043 -82.585 -170.858 -67.7744c-69.6855 16.6963 -113.449 69.3516 -139.233 133.373c-57.8604 143.666 -63.832 301.566 -53.4346 454.269
c9.74902 143.261 28.8027 285.834 47.457 428.145c8.70801 66.458 16.7158 133.563 18.2607 200.63c0.779297 33.9492 -2.22559 66.9092 -7.64062 100.367c-1.25684 7.78516 0.556641 30.5244 -9.34961 28.7959c-6.90137 -1.20508 -18.9229 -34.8662 -21.5029 -40.7979
c-26.5957 -61.0889 -39.0361 -128.24 -53.3691 -192.982c-15.2295 -68.7822 -29.5166 -137.768 -43.2402 -206.864c-26.1904 -131.861 -44.8379 -266.604 -79.0557 -396.69c-27.2119 -103.458 -75.0811 -258.235 -210.864 -241.094
c-134.539 16.9844 -190.953 160.592 -201.416 277.904c-6.16797 69.208 -2.04297 140.76 0.143555 210.145c2.31738 73.4111 3.23438 147.025 7.76562 220.325c4.28906 69.4824 9.28516 138.48 16.501 207.714c2.62598 25.1816 -0.28125 48.4258 -1.00781 73.3262
c-0.641602 21.9609 4.54395 39.1221 -5.90625 60.1982c-10.2793 20.7363 21.5547 35.5596 37.3799 34.1191c28.082 -2.56055 52.2559 -12.8008 74.1572 -30.5771c22.249 -18.0645 28.5146 -43.377 35.3633 -70.5625c16.4668 -65.3643 14.7773 -135.357 17.0693 -202.28
c5.17285 -151.308 1.60449 -302.72 -0.104492 -454.06c-0.661133 -58.8428 5.29102 -115.139 26.5771 -170.19c9.12109 -23.5908 22.249 -50.8281 44.4385 -65.0293c17.8291 -11.4121 26.7666 -2.16699 39.5146 13.0957c39.7959 47.6338 59.1631 114.111 75.2246 172.876
c16.2705 59.5303 25.7969 120.9 37.2031 181.491c25.2734 134.271 51.5752 268.352 81.3467 401.699c13.1934 59.085 25.6797 118.845 48.7988 175.029c16.8008 40.8242 44.1172 96.8975 96.7139 94.0889c52.3936 -2.80273 80.7705 -50.0625 99.6016 -92.707
c25.0381 -56.6953 35.9268 -118.249 39.0176 -179.835z" />
    <glyph glyph-name="U" unicode="&#xdb;" horiz-adv-x="955" 
d="M823.04 678.087c6.68457 -133.348 -8.09473 -265.627 -17.2676 -398.444c-9.05566 -131.147 -9.27148 -261.012 7.58887 -391.511c7.45801 -57.7363 16.9453 -118.085 39.5674 -172.043c7.41797 -17.6914 14.5938 -41.0527 31.002 -52.6816
c7.81738 -5.53906 14.3584 -5.05469 22.543 -7.90332c0.602539 -0.209961 1.25098 -0.255859 1.89258 -0.197266c-0.47168 -0.294922 -0.949219 -0.589844 -1.50586 -0.950195c0.510742 0.333984 1.05469 0.641602 1.5918 0.962891
c2.96582 0.307617 5.79395 2.82227 3.84277 2.11523c30.584 15.2627 86.6699 11.707 65.1943 -35.4941c-28.168 -61.9141 -109.043 -82.585 -170.858 -67.7744c-69.6855 16.6963 -113.449 69.3516 -139.233 133.373c-57.8604 143.666 -63.832 301.566 -53.4346 454.269
c9.74902 143.261 28.8027 285.834 47.457 428.145c8.70801 66.458 16.7158 133.563 18.2607 200.63c0.779297 33.9492 -2.22559 66.9092 -7.64062 100.367c-1.25684 7.78516 0.556641 30.5244 -9.34961 28.7959c-6.90137 -1.20508 -18.9229 -34.8662 -21.5029 -40.7979
c-26.5957 -61.0889 -39.0361 -128.24 -53.3691 -192.982c-15.2295 -68.7822 -29.5166 -137.768 -43.2402 -206.864c-26.1904 -131.861 -44.8379 -266.604 -79.0557 -396.69c-27.2119 -103.458 -75.0811 -258.235 -210.864 -241.094
c-134.539 16.9844 -190.953 160.592 -201.416 277.904c-6.16797 69.208 -2.04297 140.76 0.143555 210.145c2.31738 73.4111 3.23438 147.025 7.76562 220.325c4.28906 69.4824 9.28516 138.48 16.501 207.714c2.62598 25.1816 -0.28125 48.4258 -1.00781 73.3262
c-0.641602 21.9609 4.54395 39.1221 -5.90625 60.1982c-10.2793 20.7363 21.5547 35.5596 37.3799 34.1191c28.082 -2.56055 52.2559 -12.8008 74.1572 -30.5771c22.249 -18.0645 28.5146 -43.377 35.3633 -70.5625c16.4668 -65.3643 14.7773 -135.357 17.0693 -202.28
c5.17285 -151.308 1.60449 -302.72 -0.104492 -454.06c-0.661133 -58.8428 5.29102 -115.139 26.5771 -170.19c9.12109 -23.5908 22.249 -50.8281 44.4385 -65.0293c17.8291 -11.4121 26.7666 -2.16699 39.5146 13.0957c39.7959 47.6338 59.1631 114.111 75.2246 172.876
c16.2705 59.5303 25.7969 120.9 37.2031 181.491c25.2734 134.271 51.5752 268.352 81.3467 401.699c13.1934 59.085 25.6797 118.845 48.7988 175.029c16.8008 40.8242 44.1172 96.8975 96.7139 94.0889c52.3936 -2.80273 80.7705 -50.0625 99.6016 -92.707
c25.0381 -56.6953 35.9268 -118.249 39.0176 -179.835z" />
    <glyph glyph-name="U" unicode="&#xda;" horiz-adv-x="955" 
d="M823.04 678.087c6.68457 -133.348 -8.09473 -265.627 -17.2676 -398.444c-9.05566 -131.147 -9.27148 -261.012 7.58887 -391.511c7.45801 -57.7363 16.9453 -118.085 39.5674 -172.043c7.41797 -17.6914 14.5938 -41.0527 31.002 -52.6816
c7.81738 -5.53906 14.3584 -5.05469 22.543 -7.90332c0.602539 -0.209961 1.25098 -0.255859 1.89258 -0.197266c-0.47168 -0.294922 -0.949219 -0.589844 -1.50586 -0.950195c0.510742 0.333984 1.05469 0.641602 1.5918 0.962891
c2.96582 0.307617 5.79395 2.82227 3.84277 2.11523c30.584 15.2627 86.6699 11.707 65.1943 -35.4941c-28.168 -61.9141 -109.043 -82.585 -170.858 -67.7744c-69.6855 16.6963 -113.449 69.3516 -139.233 133.373c-57.8604 143.666 -63.832 301.566 -53.4346 454.269
c9.74902 143.261 28.8027 285.834 47.457 428.145c8.70801 66.458 16.7158 133.563 18.2607 200.63c0.779297 33.9492 -2.22559 66.9092 -7.64062 100.367c-1.25684 7.78516 0.556641 30.5244 -9.34961 28.7959c-6.90137 -1.20508 -18.9229 -34.8662 -21.5029 -40.7979
c-26.5957 -61.0889 -39.0361 -128.24 -53.3691 -192.982c-15.2295 -68.7822 -29.5166 -137.768 -43.2402 -206.864c-26.1904 -131.861 -44.8379 -266.604 -79.0557 -396.69c-27.2119 -103.458 -75.0811 -258.235 -210.864 -241.094
c-134.539 16.9844 -190.953 160.592 -201.416 277.904c-6.16797 69.208 -2.04297 140.76 0.143555 210.145c2.31738 73.4111 3.23438 147.025 7.76562 220.325c4.28906 69.4824 9.28516 138.48 16.501 207.714c2.62598 25.1816 -0.28125 48.4258 -1.00781 73.3262
c-0.641602 21.9609 4.54395 39.1221 -5.90625 60.1982c-10.2793 20.7363 21.5547 35.5596 37.3799 34.1191c28.082 -2.56055 52.2559 -12.8008 74.1572 -30.5771c22.249 -18.0645 28.5146 -43.377 35.3633 -70.5625c16.4668 -65.3643 14.7773 -135.357 17.0693 -202.28
c5.17285 -151.308 1.60449 -302.72 -0.104492 -454.06c-0.661133 -58.8428 5.29102 -115.139 26.5771 -170.19c9.12109 -23.5908 22.249 -50.8281 44.4385 -65.0293c17.8291 -11.4121 26.7666 -2.16699 39.5146 13.0957c39.7959 47.6338 59.1631 114.111 75.2246 172.876
c16.2705 59.5303 25.7969 120.9 37.2031 181.491c25.2734 134.271 51.5752 268.352 81.3467 401.699c13.1934 59.085 25.6797 118.845 48.7988 175.029c16.8008 40.8242 44.1172 96.8975 96.7139 94.0889c52.3936 -2.80273 80.7705 -50.0625 99.6016 -92.707
c25.0381 -56.6953 35.9268 -118.249 39.0176 -179.835z" />
    <glyph glyph-name="V" unicode="V" horiz-adv-x="1058" 
d="M609.27 880.111c37.2949 103.006 120.042 256.296 248.904 253.265c137.073 -3.22168 145.316 -215.663 148.957 -311.513c5.96484 -157.023 -18.5752 -316.371 -50.9072 -469.636c-30.0986 -142.697 -73.7051 -289.389 -151.49 -414.034
c-72.4814 -116.153 -184.13 -195.195 -325.348 -187.836c-63.9502 3.33301 -136.34 43.5088 -177.308 92.7197c-49.9385 59.9824 -74.957 130.113 -95.4111 204.251c-42.9453 155.707 -51.333 318.034 -65.7178 478.193c-6.93359 77.2412 -15.4189 154.889 -27.8066 231.456
c-6.41016 39.6064 -11.8115 79.1211 -19.8057 118.433c-2.96582 14.5684 -5.99121 28.4033 -13.4355 41.4326c-3.89551 6.82227 -13.1533 25.5938 -20.6826 28.9727c-15.4912 6.94727 -9.17969 26.708 2.27148 34.1133c149.081 96.4131 219.382 -187.816 238.219 -280.294
c31.2383 -153.324 44.4316 -310.662 63.7334 -465.786c8.72754 -70.124 19.3672 -140.752 35.8604 -209.501c13.3438 -55.6211 31.4414 -119.31 69.502 -163.859c38.5781 -45.1523 98.96 -58.8955 153.651 -37.583c60.6172 23.6172 106.012 78.335 138.684 132.464
c12.1787 20.1729 23.4141 40.8828 33.916 61.9795c-3.69238 0.130859 -7.12305 0.831055 -10.0693 2.28418c-130.722 64.4541 -186.945 211.846 -210.831 347.387c-29.4707 167.257 -23.0869 352.323 35.1143 513.092zM813.146 1082.9
c-54.1875 -20.8018 -95.4121 -82.8516 -117.844 -133.674c-24.8545 -56.2959 -36.8037 -117.954 -45.9307 -178.499c-20.749 -137.623 -17.0166 -284.321 14.9883 -420.025c24.7168 -104.8 74.5439 -201.9 160.415 -267.69c33.7334 82.0146 57.6709 168.469 76.5342 254.405
c31.042 141.446 55.0254 288.111 54.5801 433.225c-0.21582 71.0605 -7.00586 364.364 -142.743 312.259z" />
    <glyph glyph-name="W" unicode="W" horiz-adv-x="1540" 
d="M304.237 331.434c4.68164 -84.5156 29.5049 -555.607 211.33 -421.468c47.1162 34.7676 80.1221 85.6943 105.291 140.824c-4.64258 17.8818 -8.87891 35.8809 -12.6436 53.9717c-25.4238 122.06 -29.8369 246.254 -27.9248 370.553
c1.07422 70.0322 4.91797 139.771 10.8242 209.555c5.84668 69.0244 12.165 134.604 37.7139 199.589c20.4482 52.0205 53.0811 112.251 113.155 124.161c64.1465 12.7217 82.1982 -44.6025 87.2139 -96.1641c6.21973 -63.9102 -2.91406 -128.299 -8.44043 -191.908
c-5.90625 -67.9697 -10.9023 -135.685 -20.7168 -203.269c-9.27148 -63.832 -21.3447 -127.219 -35.8867 -190.036c10.5869 -84.1162 24.2451 -167.355 51.7383 -248.08c29.6143 -86.9385 73.8955 -178.905 140.988 -243.241
c25.9678 -24.9072 59.8574 -55.8506 97.5322 -59.0195c40.0059 -3.36523 75.9844 33.9033 101.114 60.3164c75.4473 79.2969 120.128 177.693 155.334 280.104c6.99902 20.3564 13.3701 40.8965 19.4531 61.5078c-2.16699 0.150391 -4.2627 0.537109 -6.24023 1.26367
c-48.0068 17.6592 -89.5049 48.2295 -123.329 86.4082c-148.275 167.375 -186.382 424.713 -127.513 635.728c28.7959 103.216 80.7051 206.281 163.885 276.15c38.5781 32.4043 89.0732 56.1846 139.771 39.9795c47.915 -15.3213 78.25 -58.4561 91.915 -105.003
c18.3984 -62.6729 19.9834 -131.802 20.6904 -196.694c0.720703 -66.209 -3.33887 -132.379 -9.55859 -198.267c-12.7871 -135.364 -31.1201 -271.593 -57.4541 -405.006c-24.6191 -124.704 -57.1543 -249.657 -110.596 -365.392
c-49.3027 -106.79 -112.886 -202.836 -219.683 -259.06c-121.634 -64.0352 -254.49 -16.3164 -337.762 84.4697c-48.5303 58.7314 -83.3301 125.614 -108.748 196.348c-27.9248 -52.4785 -63.5303 -99.9219 -110.731 -131.265
c-105.167 -69.8301 -224.712 -31.1475 -300.218 62.0898c-78.9961 97.5586 -101.684 229.203 -109.384 351.472c-8.54492 135.796 -4.25586 272.228 -8.87207 408.188c-2.11523 62.3984 -1.08105 127.167 -10.6924 188.884
c-3.76465 24.1934 -10.293 45.8066 -20.7891 67.8916c-9.02246 18.9883 -12.6562 36.7188 -29.4902 51.2285c-17.9668 15.4912 12.4531 37.9561 27.2051 38.3223c41.6162 1.04102 83.5732 -9.96582 110.137 -43.2344c61.959 -77.6016 79.958 -188.006 91.6719 -283.672
c14.1104 -115.211 13.292 -232.393 19.709 -348.226zM1168.98 425.389c38.1328 -80.2207 92.8838 -158.655 175.429 -195.943c19.0469 72.9004 33.582 146.992 46.042 221.32c20.0156 119.375 36.4307 240.295 41.9629 361.287
c2.7373 59.8252 2.55371 119.847 -2.26562 179.561c-4.23633 52.5244 -7.41797 116.894 -45.25 157.691c-84.627 91.2725 -182.735 -67.6885 -215.886 -135.062c-45.4072 -92.2881 -67.1055 -196.224 -66.0186 -298.876c1.06055 -100.118 22.9688 -199.471 65.9863 -289.978
zM738.434 874.404c-2.54688 -54.5996 -0.452148 -110.529 0.150391 -165.273c0.694336 -61.54 2.84863 -123.146 6.71777 -184.64c0.0849609 0.549805 0.183594 1.09961 0.261719 1.65625c16.6377 114.091 29.5693 233.721 11.9102 348.545
c-2.38965 15.5312 -5.30371 31.4287 -10.5352 46.3047c-1.51855 -3.64062 -2.81543 -6.9082 -3.29297 -8.9834c-2.83496 -12.3877 -4.61621 -24.9199 -5.21191 -37.6094z" />
    <glyph glyph-name="X" unicode="X" horiz-adv-x="1028" 
d="M857.206 753.862c-39.5664 -79.3887 -77.6035 -159.551 -114.08 -240.433c-20.0293 -44.4248 -39.2266 -89.4521 -58.8105 -134.329c2.94629 -16.0088 5.87305 -32.0176 8.80664 -48c24.1738 -131.685 50.3838 -268.679 104.486 -391.832
c25.084 -57.0879 54.7578 -115.243 97.998 -160.814c30.8584 -32.5283 92.6807 -71.7617 119.211 -13.3057c11.085 24.4229 72.0557 35.5342 64.9648 -3.08301c-11.7529 -64.0088 -76.6191 -101.401 -136.837 -108.905c-69.3125 -8.64258 -135.24 26.6553 -184.02 73.2734
c-108.52 103.713 -171.769 243.228 -209.921 386.056c-6.18066 -9.67773 -12.4727 -19.2891 -18.9941 -28.7764c-66.792 -97.2373 -179.704 -221.791 -312.391 -168.605c-116.238 46.5928 -151.209 212.782 -162.687 322.52
c-14.3584 137.263 3.71973 281.715 39.9082 414.46c31.0879 114.052 92.8838 261.208 219.684 294.607c126.878 33.4189 223.965 -78.7344 267.944 -183.076c40.8174 -96.8379 65.6133 -198.776 86.0742 -301.586c36.4238 81.4189 72.874 162.812 112.198 242.986
c33.5166 68.3232 68.1602 136.091 103.93 203.262c24.7959 46.5596 50.7109 93.0342 107.897 100.014c35.9922 4.39355 16.4219 -39.4951 -10.2529 -42.8213c-30.9893 -3.85645 -55.3203 -75.3232 -67.5312 -98.7305c-19.5381 -37.4453 -38.7422 -75.0742 -57.5791 -112.88z
M504.966 130.62c9.82129 15.6621 19.1963 31.5879 28.2578 47.6885c-25.2275 117.456 -36.8955 238.369 -53.8994 356.926c-9.91309 69.1094 -21.8428 138.396 -40.1035 205.835c-13.7168 50.665 -19.5967 116.658 -63.7793 152.133
c-58.7314 47.1553 -131.187 -33.668 -159.537 -79.4746c-37.4385 -60.4932 -59.7129 -128.614 -75.584 -197.573c-31.0352 -134.854 -45.8457 -277.695 -21.6982 -414.847c19.6426 -111.563 93.8135 -319.337 245.468 -230.932
c60.584 35.3174 104.479 102.207 140.876 160.244z" />
    <glyph glyph-name="Y" unicode="Y" horiz-adv-x="1034" 
d="M60.7207 979.981c63.8584 46.3564 145.739 5.28223 171.785 -63.7354c30.5439 -80.9014 39.1738 -166.792 42.002 -252.486c2.8877 -87.4561 4.40625 -174.997 12.5449 -262.185c3.63379 -38.9121 7.3916 -77.3789 19 -114.812
c8.67578 -27.9512 19.5771 -67.25 48 -82.3486c57.6377 -30.6162 113.665 88.1367 132.057 125.137c32.5869 65.5537 53.3496 137.066 71.4795 207.761c17.999 70.1963 32.6064 141.204 49.5713 211.649c14.4834 60.1455 24.6582 140.7 67.8652 188.137
c38.2568 42.0029 102.73 47.7256 143.456 6.24023c52.8906 -53.8799 66.2217 -130.271 79.2119 -201.455c28.0693 -153.809 36.9082 -312.796 36.0703 -468.948c-0.832031 -154.915 -18.9492 -314.643 -77.4775 -459.121
c-54.5479 -134.65 -191.326 -290.037 -353.07 -242.129c-63.2168 18.7197 -113.908 72.4883 -131.835 135.914c-17.9795 63.6289 -0.956055 126.754 32.1748 182.101c69.2529 115.702 181.766 212.848 293.46 285.99c26.0068 17.0303 62.0186 -7.7002 30.6621 -28.3711
c-59.6484 -39.3242 -115.604 -83.8936 -165.456 -135.167c-47.9736 -49.3359 -103.464 -106.823 -124.363 -173.896c-10.8037 -34.6631 -11.8252 -69.1621 11.3926 -98.8291c20.291 -25.9287 49.6172 -44.6416 81.6611 -51.9551
c16.9912 -3.87598 19.7148 -5.23828 34.0674 -1.33594c6.80273 1.85254 1.22461 0.130859 11.4385 4.05957c14.5098 5.58496 9.8418 5.17871 4.97656 2.11426c26.5635 16.7354 38.2119 28.3379 56.2041 52.957c71.6172 97.9775 94.1279 236.032 107.491 354.497
c15.6416 138.71 14.627 278.979 17.4229 418.362c1.47949 73.752 3.58105 147.49 3.55469 221.268c-0.0126953 27.6436 11.3477 203 -39.1729 187.279c-30.4658 -9.47461 -39.4297 -71.0283 -46.5205 -97.042c-7.99414 -29.3457 -15.1699 -58.9082 -22.0254 -88.542
c-14.5879 -63.0664 -27.5127 -126.512 -42.9189 -189.395c-27.7285 -113.207 -63.5566 -234.848 -132.431 -330.605c-71.7871 -99.8105 -222.381 -137.014 -311.303 -35.54c-43.1025 49.1914 -56.6953 124.017 -65.6787 186.945
c-9.7627 68.376 -9.08789 137.282 -9.00977 206.208c0.078125 71.8789 -0.0917969 143.811 2.17383 215.565c1.06055 33.6152 0.0390625 68.3301 -4.02734 101.742c-1.89258 15.5371 -13.2588 44.6934 -31.0488 49.4863c-18.6348 5.02148 -17.8027 24.0156 -3.38477 34.4854
z" />
    <glyph glyph-name="Y" unicode="&#x178;" horiz-adv-x="1034" 
d="M60.7207 979.981c63.8584 46.3564 145.739 5.28223 171.785 -63.7354c30.5439 -80.9014 39.1738 -166.792 42.002 -252.486c2.8877 -87.4561 4.40625 -174.997 12.5449 -262.185c3.63379 -38.9121 7.3916 -77.3789 19 -114.812
c8.67578 -27.9512 19.5771 -67.25 48 -82.3486c57.6377 -30.6162 113.665 88.1367 132.057 125.137c32.5869 65.5537 53.3496 137.066 71.4795 207.761c17.999 70.1963 32.6064 141.204 49.5713 211.649c14.4834 60.1455 24.6582 140.7 67.8652 188.137
c38.2568 42.0029 102.73 47.7256 143.456 6.24023c52.8906 -53.8799 66.2217 -130.271 79.2119 -201.455c28.0693 -153.809 36.9082 -312.796 36.0703 -468.948c-0.832031 -154.915 -18.9492 -314.643 -77.4775 -459.121
c-54.5479 -134.65 -191.326 -290.037 -353.07 -242.129c-63.2168 18.7197 -113.908 72.4883 -131.835 135.914c-17.9795 63.6289 -0.956055 126.754 32.1748 182.101c69.2529 115.702 181.766 212.848 293.46 285.99c26.0068 17.0303 62.0186 -7.7002 30.6621 -28.3711
c-59.6484 -39.3242 -115.604 -83.8936 -165.456 -135.167c-47.9736 -49.3359 -103.464 -106.823 -124.363 -173.896c-10.8037 -34.6631 -11.8252 -69.1621 11.3926 -98.8291c20.291 -25.9287 49.6172 -44.6416 81.6611 -51.9551
c16.9912 -3.87598 19.7148 -5.23828 34.0674 -1.33594c6.80273 1.85254 1.22461 0.130859 11.4385 4.05957c14.5098 5.58496 9.8418 5.17871 4.97656 2.11426c26.5635 16.7354 38.2119 28.3379 56.2041 52.957c71.6172 97.9775 94.1279 236.032 107.491 354.497
c15.6416 138.71 14.627 278.979 17.4229 418.362c1.47949 73.752 3.58105 147.49 3.55469 221.268c-0.0126953 27.6436 11.3477 203 -39.1729 187.279c-30.4658 -9.47461 -39.4297 -71.0283 -46.5205 -97.042c-7.99414 -29.3457 -15.1699 -58.9082 -22.0254 -88.542
c-14.5879 -63.0664 -27.5127 -126.512 -42.9189 -189.395c-27.7285 -113.207 -63.5566 -234.848 -132.431 -330.605c-71.7871 -99.8105 -222.381 -137.014 -311.303 -35.54c-43.1025 49.1914 -56.6953 124.017 -65.6787 186.945
c-9.7627 68.376 -9.08789 137.282 -9.00977 206.208c0.078125 71.8789 -0.0917969 143.811 2.17383 215.565c1.06055 33.6152 0.0390625 68.3301 -4.02734 101.742c-1.89258 15.5371 -13.2588 44.6934 -31.0488 49.4863c-18.6348 5.02148 -17.8027 24.0156 -3.38477 34.4854
z" />
    <glyph glyph-name="Y" unicode="&#xdd;" horiz-adv-x="1034" 
d="M60.7207 979.981c63.8584 46.3564 145.739 5.28223 171.785 -63.7354c30.5439 -80.9014 39.1738 -166.792 42.002 -252.486c2.8877 -87.4561 4.40625 -174.997 12.5449 -262.185c3.63379 -38.9121 7.3916 -77.3789 19 -114.812
c8.67578 -27.9512 19.5771 -67.25 48 -82.3486c57.6377 -30.6162 113.665 88.1367 132.057 125.137c32.5869 65.5537 53.3496 137.066 71.4795 207.761c17.999 70.1963 32.6064 141.204 49.5713 211.649c14.4834 60.1455 24.6582 140.7 67.8652 188.137
c38.2568 42.0029 102.73 47.7256 143.456 6.24023c52.8906 -53.8799 66.2217 -130.271 79.2119 -201.455c28.0693 -153.809 36.9082 -312.796 36.0703 -468.948c-0.832031 -154.915 -18.9492 -314.643 -77.4775 -459.121
c-54.5479 -134.65 -191.326 -290.037 -353.07 -242.129c-63.2168 18.7197 -113.908 72.4883 -131.835 135.914c-17.9795 63.6289 -0.956055 126.754 32.1748 182.101c69.2529 115.702 181.766 212.848 293.46 285.99c26.0068 17.0303 62.0186 -7.7002 30.6621 -28.3711
c-59.6484 -39.3242 -115.604 -83.8936 -165.456 -135.167c-47.9736 -49.3359 -103.464 -106.823 -124.363 -173.896c-10.8037 -34.6631 -11.8252 -69.1621 11.3926 -98.8291c20.291 -25.9287 49.6172 -44.6416 81.6611 -51.9551
c16.9912 -3.87598 19.7148 -5.23828 34.0674 -1.33594c6.80273 1.85254 1.22461 0.130859 11.4385 4.05957c14.5098 5.58496 9.8418 5.17871 4.97656 2.11426c26.5635 16.7354 38.2119 28.3379 56.2041 52.957c71.6172 97.9775 94.1279 236.032 107.491 354.497
c15.6416 138.71 14.627 278.979 17.4229 418.362c1.47949 73.752 3.58105 147.49 3.55469 221.268c-0.0126953 27.6436 11.3477 203 -39.1729 187.279c-30.4658 -9.47461 -39.4297 -71.0283 -46.5205 -97.042c-7.99414 -29.3457 -15.1699 -58.9082 -22.0254 -88.542
c-14.5879 -63.0664 -27.5127 -126.512 -42.9189 -189.395c-27.7285 -113.207 -63.5566 -234.848 -132.431 -330.605c-71.7871 -99.8105 -222.381 -137.014 -311.303 -35.54c-43.1025 49.1914 -56.6953 124.017 -65.6787 186.945
c-9.7627 68.376 -9.08789 137.282 -9.00977 206.208c0.078125 71.8789 -0.0917969 143.811 2.17383 215.565c1.06055 33.6152 0.0390625 68.3301 -4.02734 101.742c-1.89258 15.5371 -13.2588 44.6934 -31.0488 49.4863c-18.6348 5.02148 -17.8027 24.0156 -3.38477 34.4854
z" />
    <glyph glyph-name="Z" unicode="Z" horiz-adv-x="957" 
d="M188.5 -351.796c-45.918 4.07227 -99.8164 19.7285 -126.17 60.8145c-28.835 44.9551 -2.92676 92.0381 34.8652 121.136c40.0381 30.8193 89.0527 43.3184 139.253 42.9385c45.4072 -0.34668 88.3916 -11.8438 130.106 -28.252
c51.2998 54.1416 89.8652 125.667 122.779 198.09c39.7041 87.377 68.1074 180.353 87.3115 274.323c6.59961 32.2793 11.707 64.6377 15.8125 97.0742c-15.1836 -3.30664 -30.3018 -7.07812 -45.3418 -11.3867c-34.3613 -9.83398 -31.7754 31.1016 -3.30664 39.5352
c17.6982 5.24414 35.5078 9.82715 53.3955 13.749c5.15918 52.2754 7.83691 104.787 9.02832 157.612c1.90527 84.7188 -1.17188 178.106 -45.2822 252.997c-39.5996 67.2305 -123.29 116.344 -202.961 100.722c-86.8398 -17.0303 -153.913 -88.1631 -189.807 -165.529
c-10.5674 -22.7725 -60.7676 -23.0938 -46.834 7.73242c44.582 98.6191 131.199 176.947 237.812 201.363c109.259 25.0186 232.883 11.917 310.969 -77.4111c71.375 -81.6475 96.4326 -192.694 105.534 -298.254c4.60938 -53.4736 4.65527 -107.628 1.04102 -161.619
c18.7061 -0.34668 37.458 -1.34863 56.2295 -3.01855c34.7744 -3.09668 1.97754 -46.415 -23.9307 -43.8418c-12.0342 1.19824 -24.0625 2.0498 -36.0703 2.61328c-5.33008 -51.4834 -13.8027 -102.606 -24.7236 -152.616
c-25.5293 -116.841 -67.9971 -231.907 -124.646 -337.283c-31.291 -58.208 -70.0654 -114.104 -117.09 -161.208c15.2227 -7.39258 30.4453 -14.4834 45.7402 -20.9199c57.0615 -24.0225 114.451 -46.4609 173.969 -63.7598
c51.1562 -14.876 111.485 -24.6123 149.409 20.9785c11.4316 13.7432 34.6426 22.8643 52.1182 16.8672c15.2227 -5.22461 24.0811 -21.7568 14.2266 -36.6719c-64.002 -96.8711 -184.398 -90.8477 -282.48 -57.5791c-52.6621 17.8555 -105.187 40.4775 -153.835 67.4336
c-16.7949 9.29785 -33.1699 19.2832 -49.499 29.3467c-25.0508 -19.2109 -51.9873 -35.9854 -80.999 -49.4863c-57.3037 -26.668 -123.303 -42.1074 -186.624 -36.4893zM214.05 -175.627c-22.2881 -1.16504 -108.198 -22.0469 -61.4355 -55.4004
c27.5781 -19.6689 75.2441 -7.64746 104.236 1.76172c23.1914 7.52344 45.1846 19.8398 65.083 34.4277c-34.584 12.8467 -71.2109 21.1357 -107.884 19.2109z" />
    <glyph glyph-name="bracketleft" unicode="[" horiz-adv-x="511" 
d="M452.338 -159.487c11.3145 -8.49219 11.0879 -24.5596 0.743164 -34.4141c-46.291 -44.0254 -105.016 -79.5654 -170.15 -83.8936c-65.0566 -4.32129 -130.539 17.541 -168.495 72.6455c-27.46 39.8613 -36.6006 93.1455 -42.1133 140.426
c-7.54297 64.6113 -11.3799 129.72 -13.8613 194.685c-5.06738 132.588 -8.68164 265.241 -8.45215 397.934c0.111328 67.4072 2.0625 134.166 8.08594 201.324c5.20508 58.0049 10.7578 119.244 31.3564 174.172c19.1514 51.0713 54.8223 104.833 110.588 120.646
c41.2695 11.7002 83.6514 23.7217 122.943 -0.569336c25.1357 -15.5371 -11.8906 -47.1553 -32.1025 -36.3389c-15.7861 8.44629 -36.6006 12.7939 -53.1201 4.0918c-6.65234 -13.7432 -14.2539 -26.125 -18.2607 -42.0156
c-5.5127 -21.8555 -8.46582 -42.7949 -9.16602 -65.2988c-1.86621 -59.4912 1.43359 -119.656 3.86914 -179.121c5.19922 -126.761 9.66504 -253.594 13.9141 -380.394c4.16406 -124.214 5.78125 -249.227 13.4941 -373.244
c2.54004 -40.876 9.48047 -88.8301 38.9316 -119.853c37.1113 -39.0957 89.4463 -24.0234 128.077 4.0127c11.2812 8.19141 31.1143 14.6543 43.7188 5.20605z" />
    <glyph glyph-name="backslash" unicode="\" horiz-adv-x="591" 
d="M539.957 -132.118c11.5957 -60.584 -120.604 -117.567 -143.895 -53.8398c-67.335 184.307 -112.972 377.224 -170.95 564.687c-57.4414 185.721 -105.317 376.032 -173.523 558.146c-11.8711 31.6963 45.9697 68.29 68.3428 41.8643
c63.1904 -74.6221 98.1611 -166.543 136.772 -255.249c39.501 -90.749 74.9424 -183.396 107.975 -276.68c66.8574 -188.799 137.558 -381.808 175.278 -578.928z" />
    <glyph glyph-name="bracketright" unicode="]" horiz-adv-x="512" 
d="M438.442 873.775c25.7119 -121.627 24.2793 -246.519 23.7158 -370.182c-0.609375 -132.254 -3.00586 -265.51 -11.3086 -397.528c-6.95312 -110.595 -4.63574 -248.84 -93.1123 -329.663c-45.3418 -41.4131 -106.613 -59.9561 -167.446 -53.0547
c-50.4492 5.71582 -98.0234 38.5449 -133.229 73.502c-27.1328 26.9434 30.9834 58.6602 55.2549 41.7539c32.2793 -22.4844 106.477 -55.792 136.347 -12.251c20.3105 29.6143 21.9346 73.5352 23.1396 108.918c4.46582 131.37 9.92676 262.701 14.0518 394.091
c4.14453 132.221 11.5625 264.331 14.4824 396.592c1.27051 57.5527 6.27246 117.698 -2.02344 174.924c-3.81738 26.3477 -11.5498 48.8389 -22.6416 72.5996c-6.31152 13.5078 -6.73047 16.9258 -22.8506 20.6182c-14.4893 3.32617 -26.373 1.71582 -39.377 -5.35547
c-28.8613 -15.7012 -42.873 16.8398 -16.1396 33.0977c21.083 12.8262 45.2432 18.4502 69.8877 16.041c23.918 -2.33105 54.8877 -8.79395 76.6846 -18.5303c59.3271 -26.4912 82.0205 -86.2314 94.5654 -145.572z" />
    <glyph glyph-name="asciicircum" unicode="^" horiz-adv-x="357" 
d="M304.294 743.263c10.9082 -34.1123 -12.5996 -63.6895 -42.7969 -78.4082c-23.1582 -11.2949 -77.3789 -19.0928 -88.1436 14.5547c-7.94238 24.8281 -15.2627 49.5977 -21.6855 74.8057c-10.3125 -17.6523 -21.0566 -34.9707 -34.5771 -50.0303
c-15.0068 -16.7158 -61.3438 -30.0332 -66.1035 3.03223c-5.56543 38.624 13.4482 76.6064 29.8369 110.536c19.0342 39.4102 41.6562 76.3779 86.8281 88.2422c42.2451 11.0918 75.749 -7.00586 93.0479 -45.6035c17.0234 -37.9893 30.9307 -77.5361 43.5938 -117.129z" />
    <glyph glyph-name="underscore" unicode="_" horiz-adv-x="593" 
d="M491.662 -79.0566c93.2568 -3.03125 44.9238 -111.472 -26.4053 -110.293c-66.3398 1.09961 -132.607 2.00293 -198.954 2.34961c-62.5225 0.327148 -131.285 -6.94043 -192.655 6.34473c-48.6152 10.5283 -11.5557 57.2256 15.9111 67.0596
c62.8105 22.4971 135.527 25.9805 201.671 30.7344c66.4834 4.7666 133.831 5.97168 200.433 3.80469z" />
    <glyph glyph-name="grave" unicode="`" horiz-adv-x="251" 
d="M197.572 721.78c23.4795 -54.8682 -90.7764 -102.743 -106.17 -39.7168c-14.3584 58.7842 -38.25 119.264 -41.3662 180.104c-1.82031 35.54 65.4688 68.7686 84.332 31.5459c27.3691 -53.998 39.3516 -116.187 63.2041 -171.933z" />
    <glyph glyph-name="a" unicode="a" horiz-adv-x="537" 
d="M531.614 282.399c7.60156 18.3467 55.1768 22.0195 45.748 -2.18066c-29.9678 -76.8877 -57.4277 -158.293 -101.028 -228.738c-33.9883 -54.9082 -97.0605 -117.319 -168.226 -99.9883c-60.4668 14.7324 -85.2881 72.3047 -93.0146 130.473
c-2.27832 -5.15918 -4.58301 -10.3057 -7.12305 -15.3145c-20.8086 -41.0332 -58.0771 -73.7314 -105.029 -79.5977c-52.4717 -6.55371 -96.3662 31.0361 -117.057 76.7646c-46.2061 102.115 -12.1133 254.627 76.9199 323.259
c42.1143 32.4697 94.2588 47.4307 146.973 37.8848c15.3994 -2.78906 28.3506 -7.87012 39.4814 -14.7979c10.1484 32.9863 41.4453 54.4033 74.3994 60.002c26.5566 4.51758 64.2705 -4.58398 66.5625 -37.4199c8.77344 -125.759 -38.2188 -248.656 -21.6143 -374.323
c2.58594 -19.5645 6.96582 -59.1113 32.1016 -33.707c22.7725 23.0078 38.709 53.4014 53.2646 81.9941c29.0322 57.0557 53.1533 116.599 77.6416 175.69zM202.365 213.283c10.2012 43.3184 19.5039 86.8262 30.5039 129.902
c-6.69824 9.13379 -14.9551 16.7422 -26.0732 20.5596c-8.57715 2.95312 -17.4814 3.59473 -26.1572 1.09375c4.92383 1.08691 -9.6377 -7.98145 -12.2305 -10.3975c-24.8086 -23.1719 -39.0098 -56.1914 -49.0664 -88.2744
c-13.1934 -42.0742 -19.0859 -85.2754 -15.6221 -129.347c1.86621 -23.7549 5.57227 -78.4072 28.4492 -96.9561c25.5156 14.3916 37.3145 55.3271 45.1318 80.0049c9.74316 30.7471 17.6719 62.0312 25.0645 93.4141z" />
    <glyph glyph-name="a" unicode="&#xe5;" horiz-adv-x="537" 
d="M531.614 282.399c7.60156 18.3467 55.1768 22.0195 45.748 -2.18066c-29.9678 -76.8877 -57.4277 -158.293 -101.028 -228.738c-33.9883 -54.9082 -97.0605 -117.319 -168.226 -99.9883c-60.4668 14.7324 -85.2881 72.3047 -93.0146 130.473
c-2.27832 -5.15918 -4.58301 -10.3057 -7.12305 -15.3145c-20.8086 -41.0332 -58.0771 -73.7314 -105.029 -79.5977c-52.4717 -6.55371 -96.3662 31.0361 -117.057 76.7646c-46.2061 102.115 -12.1133 254.627 76.9199 323.259
c42.1143 32.4697 94.2588 47.4307 146.973 37.8848c15.3994 -2.78906 28.3506 -7.87012 39.4814 -14.7979c10.1484 32.9863 41.4453 54.4033 74.3994 60.002c26.5566 4.51758 64.2705 -4.58398 66.5625 -37.4199c8.77344 -125.759 -38.2188 -248.656 -21.6143 -374.323
c2.58594 -19.5645 6.96582 -59.1113 32.1016 -33.707c22.7725 23.0078 38.709 53.4014 53.2646 81.9941c29.0322 57.0557 53.1533 116.599 77.6416 175.69zM202.365 213.283c10.2012 43.3184 19.5039 86.8262 30.5039 129.902
c-6.69824 9.13379 -14.9551 16.7422 -26.0732 20.5596c-8.57715 2.95312 -17.4814 3.59473 -26.1572 1.09375c4.92383 1.08691 -9.6377 -7.98145 -12.2305 -10.3975c-24.8086 -23.1719 -39.0098 -56.1914 -49.0664 -88.2744
c-13.1934 -42.0742 -19.0859 -85.2754 -15.6221 -129.347c1.86621 -23.7549 5.57227 -78.4072 28.4492 -96.9561c25.5156 14.3916 37.3145 55.3271 45.1318 80.0049c9.74316 30.7471 17.6719 62.0312 25.0645 93.4141z" />
    <glyph glyph-name="a" unicode="&#xe4;" horiz-adv-x="537" 
d="M531.614 282.399c7.60156 18.3467 55.1768 22.0195 45.748 -2.18066c-29.9678 -76.8877 -57.4277 -158.293 -101.028 -228.738c-33.9883 -54.9082 -97.0605 -117.319 -168.226 -99.9883c-60.4668 14.7324 -85.2881 72.3047 -93.0146 130.473
c-2.27832 -5.15918 -4.58301 -10.3057 -7.12305 -15.3145c-20.8086 -41.0332 -58.0771 -73.7314 -105.029 -79.5977c-52.4717 -6.55371 -96.3662 31.0361 -117.057 76.7646c-46.2061 102.115 -12.1133 254.627 76.9199 323.259
c42.1143 32.4697 94.2588 47.4307 146.973 37.8848c15.3994 -2.78906 28.3506 -7.87012 39.4814 -14.7979c10.1484 32.9863 41.4453 54.4033 74.3994 60.002c26.5566 4.51758 64.2705 -4.58398 66.5625 -37.4199c8.77344 -125.759 -38.2188 -248.656 -21.6143 -374.323
c2.58594 -19.5645 6.96582 -59.1113 32.1016 -33.707c22.7725 23.0078 38.709 53.4014 53.2646 81.9941c29.0322 57.0557 53.1533 116.599 77.6416 175.69zM202.365 213.283c10.2012 43.3184 19.5039 86.8262 30.5039 129.902
c-6.69824 9.13379 -14.9551 16.7422 -26.0732 20.5596c-8.57715 2.95312 -17.4814 3.59473 -26.1572 1.09375c4.92383 1.08691 -9.6377 -7.98145 -12.2305 -10.3975c-24.8086 -23.1719 -39.0098 -56.1914 -49.0664 -88.2744
c-13.1934 -42.0742 -19.0859 -85.2754 -15.6221 -129.347c1.86621 -23.7549 5.57227 -78.4072 28.4492 -96.9561c25.5156 14.3916 37.3145 55.3271 45.1318 80.0049c9.74316 30.7471 17.6719 62.0312 25.0645 93.4141z" />
    <glyph glyph-name="a" unicode="&#xe3;" horiz-adv-x="537" 
d="M531.614 282.399c7.60156 18.3467 55.1768 22.0195 45.748 -2.18066c-29.9678 -76.8877 -57.4277 -158.293 -101.028 -228.738c-33.9883 -54.9082 -97.0605 -117.319 -168.226 -99.9883c-60.4668 14.7324 -85.2881 72.3047 -93.0146 130.473
c-2.27832 -5.15918 -4.58301 -10.3057 -7.12305 -15.3145c-20.8086 -41.0332 -58.0771 -73.7314 -105.029 -79.5977c-52.4717 -6.55371 -96.3662 31.0361 -117.057 76.7646c-46.2061 102.115 -12.1133 254.627 76.9199 323.259
c42.1143 32.4697 94.2588 47.4307 146.973 37.8848c15.3994 -2.78906 28.3506 -7.87012 39.4814 -14.7979c10.1484 32.9863 41.4453 54.4033 74.3994 60.002c26.5566 4.51758 64.2705 -4.58398 66.5625 -37.4199c8.77344 -125.759 -38.2188 -248.656 -21.6143 -374.323
c2.58594 -19.5645 6.96582 -59.1113 32.1016 -33.707c22.7725 23.0078 38.709 53.4014 53.2646 81.9941c29.0322 57.0557 53.1533 116.599 77.6416 175.69zM202.365 213.283c10.2012 43.3184 19.5039 86.8262 30.5039 129.902
c-6.69824 9.13379 -14.9551 16.7422 -26.0732 20.5596c-8.57715 2.95312 -17.4814 3.59473 -26.1572 1.09375c4.92383 1.08691 -9.6377 -7.98145 -12.2305 -10.3975c-24.8086 -23.1719 -39.0098 -56.1914 -49.0664 -88.2744
c-13.1934 -42.0742 -19.0859 -85.2754 -15.6221 -129.347c1.86621 -23.7549 5.57227 -78.4072 28.4492 -96.9561c25.5156 14.3916 37.3145 55.3271 45.1318 80.0049c9.74316 30.7471 17.6719 62.0312 25.0645 93.4141z" />
    <glyph glyph-name="a" unicode="&#xe2;" horiz-adv-x="537" 
d="M531.614 282.399c7.60156 18.3467 55.1768 22.0195 45.748 -2.18066c-29.9678 -76.8877 -57.4277 -158.293 -101.028 -228.738c-33.9883 -54.9082 -97.0605 -117.319 -168.226 -99.9883c-60.4668 14.7324 -85.2881 72.3047 -93.0146 130.473
c-2.27832 -5.15918 -4.58301 -10.3057 -7.12305 -15.3145c-20.8086 -41.0332 -58.0771 -73.7314 -105.029 -79.5977c-52.4717 -6.55371 -96.3662 31.0361 -117.057 76.7646c-46.2061 102.115 -12.1133 254.627 76.9199 323.259
c42.1143 32.4697 94.2588 47.4307 146.973 37.8848c15.3994 -2.78906 28.3506 -7.87012 39.4814 -14.7979c10.1484 32.9863 41.4453 54.4033 74.3994 60.002c26.5566 4.51758 64.2705 -4.58398 66.5625 -37.4199c8.77344 -125.759 -38.2188 -248.656 -21.6143 -374.323
c2.58594 -19.5645 6.96582 -59.1113 32.1016 -33.707c22.7725 23.0078 38.709 53.4014 53.2646 81.9941c29.0322 57.0557 53.1533 116.599 77.6416 175.69zM202.365 213.283c10.2012 43.3184 19.5039 86.8262 30.5039 129.902
c-6.69824 9.13379 -14.9551 16.7422 -26.0732 20.5596c-8.57715 2.95312 -17.4814 3.59473 -26.1572 1.09375c4.92383 1.08691 -9.6377 -7.98145 -12.2305 -10.3975c-24.8086 -23.1719 -39.0098 -56.1914 -49.0664 -88.2744
c-13.1934 -42.0742 -19.0859 -85.2754 -15.6221 -129.347c1.86621 -23.7549 5.57227 -78.4072 28.4492 -96.9561c25.5156 14.3916 37.3145 55.3271 45.1318 80.0049c9.74316 30.7471 17.6719 62.0312 25.0645 93.4141z" />
    <glyph glyph-name="a" unicode="&#xe1;" horiz-adv-x="537" 
d="M531.614 282.399c7.60156 18.3467 55.1768 22.0195 45.748 -2.18066c-29.9678 -76.8877 -57.4277 -158.293 -101.028 -228.738c-33.9883 -54.9082 -97.0605 -117.319 -168.226 -99.9883c-60.4668 14.7324 -85.2881 72.3047 -93.0146 130.473
c-2.27832 -5.15918 -4.58301 -10.3057 -7.12305 -15.3145c-20.8086 -41.0332 -58.0771 -73.7314 -105.029 -79.5977c-52.4717 -6.55371 -96.3662 31.0361 -117.057 76.7646c-46.2061 102.115 -12.1133 254.627 76.9199 323.259
c42.1143 32.4697 94.2588 47.4307 146.973 37.8848c15.3994 -2.78906 28.3506 -7.87012 39.4814 -14.7979c10.1484 32.9863 41.4453 54.4033 74.3994 60.002c26.5566 4.51758 64.2705 -4.58398 66.5625 -37.4199c8.77344 -125.759 -38.2188 -248.656 -21.6143 -374.323
c2.58594 -19.5645 6.96582 -59.1113 32.1016 -33.707c22.7725 23.0078 38.709 53.4014 53.2646 81.9941c29.0322 57.0557 53.1533 116.599 77.6416 175.69zM202.365 213.283c10.2012 43.3184 19.5039 86.8262 30.5039 129.902
c-6.69824 9.13379 -14.9551 16.7422 -26.0732 20.5596c-8.57715 2.95312 -17.4814 3.59473 -26.1572 1.09375c4.92383 1.08691 -9.6377 -7.98145 -12.2305 -10.3975c-24.8086 -23.1719 -39.0098 -56.1914 -49.0664 -88.2744
c-13.1934 -42.0742 -19.0859 -85.2754 -15.6221 -129.347c1.86621 -23.7549 5.57227 -78.4072 28.4492 -96.9561c25.5156 14.3916 37.3145 55.3271 45.1318 80.0049c9.74316 30.7471 17.6719 62.0312 25.0645 93.4141z" />
    <glyph glyph-name="b" unicode="b" horiz-adv-x="629" 
d="M622.647 269.462c13.4619 20.5791 65.0928 20.0107 46.8125 -7.72461c-43.3125 -65.8027 -109.083 -99.5752 -180.504 -120.757c-21.4102 -101.742 -82.584 -203.511 -189.119 -214.654c-26.4521 -2.76953 -54.8164 1.56445 -77.6934 15.7266
c-26.2881 16.2773 -28.5605 44.0195 -26.2031 72.4492c4.53125 54.5938 36.915 96.4199 87.4033 117.071c18.3662 7.50977 37.8779 13.1738 57.9785 17.9336c6.79004 31.834 10.4111 64.4736 11.0137 96.498c0.530273 28.3115 0.169922 57.7686 -4.92383 85.6934
c-4.55664 24.9854 -13.9258 78.4131 -50.874 50.0625c-45.2373 -34.709 -65.8428 -106.169 -82.5391 -157.764c-18.1104 -55.9619 -31.8994 -113.188 -43.3506 -170.852c-0.569336 -14.2998 -2.16699 -28.4424 -5.44043 -42.3301
c-8.04688 -34.1455 -58.9668 -54.626 -86.958 -32.8555c-54.5342 42.415 -65.5205 127.48 -74.877 192.092c-9.96582 68.8145 -10.9482 138.71 -11.6748 208.141c-1.55859 148.832 4.39355 299.937 34.2832 446.064c14.5029 70.9033 163.898 102.515 153.324 9.27148
c-15.8125 -139.456 -27.1133 -278.689 -27.6504 -419.141c-0.254883 -67.8066 1.33594 -135.686 5.39551 -203.374c0.143555 -2.38379 0.34668 -4.79297 0.530273 -7.18945c5.5459 19.0137 11.668 37.8906 18.5039 56.5771c21.1553 57.8145 47.3848 123.696 102.083 157.783
c43.8682 27.3359 109.796 25.3516 149.468 -9.26562c47.1553 -41.1387 66.2676 -107.151 69.6133 -167.514c1.03418 -18.6143 0.464844 -38.5186 -1.70898 -58.9404c50.3184 15.0332 95.6992 38.9512 127.107 86.9971zM322.093 83.8398
c2.8418 7.36621 5.4082 14.8623 7.82422 22.4316c-45.4727 -11.877 -90.0352 -33.4775 -67.584 -76.8877c12.5059 -24.1797 18.4902 -18.1953 31.9062 0.275391c11.4775 15.793 20.7295 35.6973 27.8535 54.1807z" />
    <glyph glyph-name="c" unicode="c" horiz-adv-x="359" 
d="M354.906 296.641c11.2422 22.3271 61.79 22.582 46.8418 -7.71973c-28.5146 -57.7822 -57.3828 -115.728 -90.1602 -171.237c-26.0068 -44.0449 -54.4883 -90.3164 -95.4951 -122.053c-40.542 -31.3828 -95.8691 -53.3955 -146.344 -37.5635
c-56.2568 17.6387 -83.8086 76.9795 -95.208 130.755c-12.1387 57.2783 -5.08008 123.362 8.32227 180.005c13.7109 57.9521 38.3818 119.748 87.416 157.043c35.6445 27.1064 94.834 46.8281 137.989 26.8389c46.2451 -21.417 44.8506 -75.3818 41.2949 -118.131
c-2.0498 -24.6123 -54.3516 -34.4336 -51.7461 -3.12988c1.47949 17.7959 2.57324 39.6582 -6.06934 55.9941c-1.81348 3.4248 -11.0918 18.1572 -17.8428 17.208c-5.3623 -0.759766 -1.30957 -2.22656 -4.13184 -8.68262
c-12.7607 -29.209 -22.7129 -60.8857 -31.0352 -91.627c-19.2236 -70.9756 -29.5166 -146.148 -14.5684 -218.938c3.4834 -16.9648 16.3691 -69.0371 39.0176 -72.6182c14.3389 -2.27246 38.4336 26.583 46.1797 35.3105c12.7412 14.3525 23.7148 30.1719 34.2109 46.2002
c42.127 64.3164 76.8096 133.753 111.328 202.345z" />
    <glyph glyph-name="d" unicode="d" horiz-adv-x="624" 
d="M616.572 290.571c7.66016 21.3848 58.3691 30.6064 49.0713 2.96875c-20.0811 -59.707 -40.2217 -119.525 -65.1094 -177.438c-20.2578 -47.1484 -45.0596 -95.0957 -84.6982 -128.999c-39.1084 -33.4453 -84.8818 -59.9238 -137.04 -39.6592
c-49.9316 19.4004 -80.7051 68.415 -99.7783 115.931c-15.6875 39.0957 -25.8555 79.252 -32.4355 119.991c-9.30371 -40.123 -20.2705 -80.5283 -38.6172 -116.703c-20.8076 -41.0332 -58.0762 -73.7314 -105.028 -79.5977
c-52.4717 -6.55371 -96.3662 31.0361 -117.057 76.7646c-46.1992 102.109 -12.1123 254.628 76.9277 323.266c42.1143 32.4697 94.2588 47.4307 146.973 37.8848c9.99121 -1.81348 18.9551 -4.58984 27.0742 -8.19727c0.0527344 2.02344 0.105469 4.05957 0.158203 6.08887
c3.69922 135.279 9.88672 271.232 24.4287 405.798c4.04004 37.373 52.0205 62.9736 84.2344 68.4473c28.292 4.8125 74.6416 -4.98242 75.1396 -42.2441c1.47363 -110.215 -5.27734 -220.22 -10.8496 -330.245c-5.12695 -101.114 -13.7178 -202.012 -6.28613 -303.296
c1.86621 -25.4307 22.8311 -253.142 79.8467 -204.343c35.0098 29.9678 55.3594 77.123 73.4502 118.353c22.2812 50.7832 40.9092 103.053 59.5957 155.23zM202.366 213.28c10.2012 43.3252 19.4971 86.8262 30.5039 129.902
c-6.69824 9.13379 -14.9551 16.7422 -26.0732 20.5596c-8.57715 2.95312 -17.4814 3.59473 -26.1572 1.09375c4.92383 1.08691 -9.6377 -7.98145 -12.2305 -10.3975c-24.8086 -23.1719 -39.0098 -56.1914 -49.0664 -88.2744
c-13.1934 -42.0742 -19.0859 -85.2754 -15.6221 -129.347c1.86621 -23.7549 5.57227 -78.4072 28.4492 -96.9561c25.5156 14.3916 37.3145 55.3271 45.1318 80.0049c9.74316 30.7471 17.6719 62.0312 25.0645 93.4141z" />
    <glyph glyph-name="e" unicode="e" horiz-adv-x="399" 
d="M399.975 307.183c17.6523 20.4346 62.6855 9.41406 39.5332 -18.0459c-18.418 -21.8496 -26.1836 -52.833 -38.3887 -78.3291c-12.7217 -26.5703 -27.1787 -52.2695 -43.2725 -76.9404c-30.6426 -46.9785 -66.5625 -96.917 -112.873 -129.629
c-40.5625 -28.6523 -89.3545 -52.3086 -140.445 -42.3174c-50.2852 9.83398 -88.2412 51.8164 -107.766 97.1973c-41.3018 95.9805 -26.7461 237.598 29.1504 325.59c32.2471 50.7627 83.0166 97.8721 145.781 103.45c42.6113 3.78418 80.875 -14.9814 93.9443 -57.2197
c24.9326 -80.5811 -52.793 -142.737 -126.021 -136.511c-14.123 -62.1299 -16.9189 -126.42 -3.91504 -189.237c5.61816 -27.1328 17.4033 -72.5664 50.54 -76.9463c38.3359 -5.07422 76.3047 52.4658 96.9229 78.8066c25.9805 33.1963 48.3799 69.1289 67.4072 106.725
c15.9502 31.5195 26.0137 66.3262 49.4014 93.4072zM153.269 343.789c-0.491211 -1.49316 -0.928711 -3 -1.40625 -4.50586c21.6787 -5.76172 43.665 0.268555 53.8271 23.0938c7.37891 16.5781 -0.00683594 47.0312 -18.6807 42.1406
c-13.835 -3.62109 -28.502 -44.7529 -33.7402 -60.7285z" />
    <glyph glyph-name="e" unicode="&#xeb;" horiz-adv-x="399" 
d="M399.975 307.183c17.6523 20.4346 62.6855 9.41406 39.5332 -18.0459c-18.418 -21.8496 -26.1836 -52.833 -38.3887 -78.3291c-12.7217 -26.5703 -27.1787 -52.2695 -43.2725 -76.9404c-30.6426 -46.9785 -66.5625 -96.917 -112.873 -129.629
c-40.5625 -28.6523 -89.3545 -52.3086 -140.445 -42.3174c-50.2852 9.83398 -88.2412 51.8164 -107.766 97.1973c-41.3018 95.9805 -26.7461 237.598 29.1504 325.59c32.2471 50.7627 83.0166 97.8721 145.781 103.45c42.6113 3.78418 80.875 -14.9814 93.9443 -57.2197
c24.9326 -80.5811 -52.793 -142.737 -126.021 -136.511c-14.123 -62.1299 -16.9189 -126.42 -3.91504 -189.237c5.61816 -27.1328 17.4033 -72.5664 50.54 -76.9463c38.3359 -5.07422 76.3047 52.4658 96.9229 78.8066c25.9805 33.1963 48.3799 69.1289 67.4072 106.725
c15.9502 31.5195 26.0137 66.3262 49.4014 93.4072zM153.269 343.789c-0.491211 -1.49316 -0.928711 -3 -1.40625 -4.50586c21.6787 -5.76172 43.665 0.268555 53.8271 23.0938c7.37891 16.5781 -0.00683594 47.0312 -18.6807 42.1406
c-13.835 -3.62109 -28.502 -44.7529 -33.7402 -60.7285z" />
    <glyph glyph-name="e" unicode="&#xea;" horiz-adv-x="399" 
d="M399.975 307.183c17.6523 20.4346 62.6855 9.41406 39.5332 -18.0459c-18.418 -21.8496 -26.1836 -52.833 -38.3887 -78.3291c-12.7217 -26.5703 -27.1787 -52.2695 -43.2725 -76.9404c-30.6426 -46.9785 -66.5625 -96.917 -112.873 -129.629
c-40.5625 -28.6523 -89.3545 -52.3086 -140.445 -42.3174c-50.2852 9.83398 -88.2412 51.8164 -107.766 97.1973c-41.3018 95.9805 -26.7461 237.598 29.1504 325.59c32.2471 50.7627 83.0166 97.8721 145.781 103.45c42.6113 3.78418 80.875 -14.9814 93.9443 -57.2197
c24.9326 -80.5811 -52.793 -142.737 -126.021 -136.511c-14.123 -62.1299 -16.9189 -126.42 -3.91504 -189.237c5.61816 -27.1328 17.4033 -72.5664 50.54 -76.9463c38.3359 -5.07422 76.3047 52.4658 96.9229 78.8066c25.9805 33.1963 48.3799 69.1289 67.4072 106.725
c15.9502 31.5195 26.0137 66.3262 49.4014 93.4072zM153.269 343.789c-0.491211 -1.49316 -0.928711 -3 -1.40625 -4.50586c21.6787 -5.76172 43.665 0.268555 53.8271 23.0938c7.37891 16.5781 -0.00683594 47.0312 -18.6807 42.1406
c-13.835 -3.62109 -28.502 -44.7529 -33.7402 -60.7285z" />
    <glyph glyph-name="e" unicode="&#xe9;" horiz-adv-x="399" 
d="M399.975 307.183c17.6523 20.4346 62.6855 9.41406 39.5332 -18.0459c-18.418 -21.8496 -26.1836 -52.833 -38.3887 -78.3291c-12.7217 -26.5703 -27.1787 -52.2695 -43.2725 -76.9404c-30.6426 -46.9785 -66.5625 -96.917 -112.873 -129.629
c-40.5625 -28.6523 -89.3545 -52.3086 -140.445 -42.3174c-50.2852 9.83398 -88.2412 51.8164 -107.766 97.1973c-41.3018 95.9805 -26.7461 237.598 29.1504 325.59c32.2471 50.7627 83.0166 97.8721 145.781 103.45c42.6113 3.78418 80.875 -14.9814 93.9443 -57.2197
c24.9326 -80.5811 -52.793 -142.737 -126.021 -136.511c-14.123 -62.1299 -16.9189 -126.42 -3.91504 -189.237c5.61816 -27.1328 17.4033 -72.5664 50.54 -76.9463c38.3359 -5.07422 76.3047 52.4658 96.9229 78.8066c25.9805 33.1963 48.3799 69.1289 67.4072 106.725
c15.9502 31.5195 26.0137 66.3262 49.4014 93.4072zM153.269 343.789c-0.491211 -1.49316 -0.928711 -3 -1.40625 -4.50586c21.6787 -5.76172 43.665 0.268555 53.8271 23.0938c7.37891 16.5781 -0.00683594 47.0312 -18.6807 42.1406
c-13.835 -3.62109 -28.502 -44.7529 -33.7402 -60.7285z" />
    <glyph glyph-name="f" unicode="f" horiz-adv-x="440" 
d="M458.362 318.653c30.7861 11.792 48.2773 -22.2432 16.8096 -34.4541c-89.2305 -34.6758 -176.706 -73.3916 -262.381 -115.95c70.2881 -12.8857 137.453 -46.8213 129 -131.92c-8.21094 -82.7217 -93.6562 -142.664 -173.962 -134.768
c-102.567 10.0898 -142.861 109.462 -158.667 198.338c-38.5 216.521 -16.5 447.819 15.3076 663.882c5.80078 39.4355 53.5127 65.9727 88.5098 71.918c27.2314 4.62305 81.5693 -5.12012 78.957 -44.3926c-7.05859 -106.012 -19.9248 -211.532 -26.708 -317.55
c-6.12891 -95.8232 -7.44531 -191.312 -4.81934 -287.194c97.0215 49.0938 196.374 93.1914 297.953 132.091zM270.346 87.0791c-26.3936 32.2207 -68.2988 40.1748 -108.441 43.0488c0.857422 -32.2334 2.58594 -65.5469 10.9473 -95.3184
c8.23047 -29.3066 42.2979 -93.2168 79.9268 -69.416c39.167 24.7822 45.6035 87.4619 17.5674 121.686z" />
    <glyph glyph-name="g" unicode="g" horiz-adv-x="533" 
d="M540.894 309.297c24.9072 19.7607 59.0186 -4.14355 30.6611 -28.3633c-58.6992 -50.1738 -115.729 -102.377 -170.97 -156.407c-1.02832 -72.4814 -4.55078 -144.864 -11.498 -216.697c-12.3027 -127.173 -34.9375 -282.814 -136.077 -372.692
c-46.2061 -41.0664 -105.017 -49.0146 -149.271 -1.95117c-39.6982 42.2051 -54.7246 107.845 -51.6602 164.265c6.85547 126.079 104.552 236.059 185.951 324.339c2.52734 2.74316 5.10742 5.4541 7.6416 8.19141c-1.22461 42.415 -2.83496 84.8174 -4.49805 127.22
c-8.06641 -31.3301 -17.8555 -62.2344 -32.208 -90.5391c-20.8086 -41.0332 -58.0771 -73.7314 -105.029 -79.5977c-52.4717 -6.55371 -96.3662 31.0361 -117.057 76.7646c-46.1992 102.109 -12.1123 254.628 76.9277 323.266
c42.1143 32.4697 94.2588 47.4307 146.973 37.8848c14.7646 -2.67773 27.2578 -7.47754 38.0742 -13.9658c38.1914 50.4883 140.517 72.54 144.504 2.99902c4.31445 -75.1924 7.13672 -150.915 7.50977 -226.67c45.1455 42.5791 91.6924 83.5996 140.026 121.955z
M203.373 213.277c10.2012 43.3252 19.5039 86.8262 30.5039 129.902c-6.69824 9.13379 -14.9551 16.7422 -26.0732 20.5596c-8.57715 2.95312 -17.4814 3.59473 -26.1572 1.09375c4.92383 1.08691 -9.6377 -7.98145 -12.2305 -10.3975
c-24.8086 -23.1719 -39.0098 -56.1914 -49.0664 -88.2744c-13.1934 -42.0742 -19.0859 -85.2754 -15.6221 -129.347c1.86621 -23.7549 5.57227 -78.4072 28.4492 -96.9561c25.5156 14.3916 37.3145 55.3271 45.1318 80.0049
c9.74316 30.7471 17.6719 62.0312 25.0645 93.4141zM228.986 -329.581c21.3584 96.4453 20.7744 195.942 18.417 294.392c-60.9385 -67.9697 -122.06 -146.651 -136.025 -235.351c-7.73926 -49.1592 0.445312 -130.244 43.2666 -163.82
c28.2393 -22.1377 41.6553 13.3633 51.8369 35.7031c10.0967 22.1699 17.2402 45.3154 22.5049 69.0762z" />
    <glyph glyph-name="h" unicode="h" horiz-adv-x="599" 
d="M586.524 281.555c8.76074 23.2832 63.9707 32.1377 53.082 3.19727c-20.0947 -53.3955 -41.0928 -106.443 -62.5098 -159.321c-20.6182 -50.9072 -40.4512 -103.398 -75.7422 -146.271c-29.6602 -36.0312 -81.2354 -62.8301 -128.836 -52.334
c-59.7725 13.1807 -87.2725 72.9268 -85.459 129.675c2.0625 64.4277 16.4932 129.091 28.8223 192.131c5.93848 30.3672 11.4971 60.8594 16.2969 91.4229c0.661133 4.19043 5.74219 28.9463 6.03027 27.9443c-6.39062 22.1768 -30.8262 -6.39648 -39.4688 -15.9561
c-74.8125 -82.7676 -100.918 -194.927 -128.149 -300.479c-0.62207 -13.7627 -2.22656 -27.3818 -5.38281 -40.7588c-8.04688 -34.1455 -58.9668 -54.626 -86.958 -32.8555c-54.5342 42.415 -65.5205 127.48 -74.877 192.092
c-9.96582 68.8145 -10.9482 138.71 -11.6748 208.141c-1.55859 148.832 4.39355 299.937 34.2832 446.064c14.5029 70.9033 163.898 102.515 153.324 9.27148c-15.8125 -139.456 -27.1133 -278.689 -27.6504 -419.141c-0.261719 -67.8066 1.33594 -135.686 5.39551 -203.374
c0.517578 -8.60352 1.30957 -17.292 2.24609 -26.0264c17.4492 53.1992 40.1953 104.336 73.1689 150.994c26.8711 38.0146 66.2148 88.5098 118.72 84.2998c45.957 -3.68652 83.4678 -36.0244 98.2393 -78.001c20.2646 -57.5918 15.2559 -115.76 10.4766 -175.283
c-2.7041 -33.6611 -4.81934 -68.0156 -9.55273 -101.44c-3.16211 -22.3271 -14.4961 -50.4229 -5.38867 -72.5928c1.08008 -1.30957 1.88574 -2.36328 2.53418 -3.27344c5.4082 3.31934 10.0566 7.5166 13.8408 12.7158c8.00098 9.16699 14.2861 20.0029 20.3428 30.5244
c14.8496 25.8037 26.334 53.4277 37.9629 80.7764c23.5713 55.4385 45.6631 111.479 66.8838 167.859z" />
    <glyph glyph-name="i" unicode="i" horiz-adv-x="318" 
d="M312.96 295.861c7.86328 19.5244 58.1172 23.2969 48.3154 -2.29102c-28.8877 -75.3818 -57.71 -151.209 -96.5957 -222.139c-31.4219 -57.3105 -77.1895 -121.07 -150.378 -121.215c-85.793 -0.169922 -117.929 91.3848 -126.925 162.609
c-10.9473 86.6826 -0.412109 177.189 15.7471 262.557c14.4043 76.0889 177.117 108.434 163.348 9.87988c-8.66895 -62.0449 -19.2959 -123.716 -23.6299 -186.284c-3.67285 -53.0684 -10.6455 -121.117 10.4375 -171.835c12.9248 -31.1074 32.2139 5.69629 42.8008 22
c17.2139 26.5107 32.083 54.7373 46.0879 83.0488c26.3672 53.3105 48.583 108.539 70.792 163.669zM62.5898 504.972c-36.1426 25.8828 -68.835 92.0898 -37.9111 133.294c15.1836 20.2324 48.7266 25.8174 66.0518 5.56543
c6.42285 -7.50391 11.1113 -17.4102 14.7783 -28.207c3.2998 3.46387 6.73047 6.82324 10.4629 9.93359c16.375 13.6514 44.5625 31.5586 66.0781 19.7529c4.75391 -2.6123 9.52051 -7.09082 9.63184 -13.0488c0.871094 -47.1943 -51.3584 -93.6885 -80.6787 -125.353
c-9.0752 -9.80176 -26.9629 -17.8223 -40.0713 -11.0781c-4.26855 2.19336 -6.93359 5.46094 -8.3418 9.14062z" />
    <glyph glyph-name="i" unicode="&#xef;" horiz-adv-x="318" 
d="M312.96 295.861c7.86328 19.5244 58.1172 23.2969 48.3154 -2.29102c-28.8877 -75.3818 -57.71 -151.209 -96.5957 -222.139c-31.4219 -57.3105 -77.1895 -121.07 -150.378 -121.215c-85.793 -0.169922 -117.929 91.3848 -126.925 162.609
c-10.9473 86.6826 -0.412109 177.189 15.7471 262.557c14.4043 76.0889 177.117 108.434 163.348 9.87988c-8.66895 -62.0449 -19.2959 -123.716 -23.6299 -186.284c-3.67285 -53.0684 -10.6455 -121.117 10.4375 -171.835c12.9248 -31.1074 32.2139 5.69629 42.8008 22
c17.2139 26.5107 32.083 54.7373 46.0879 83.0488c26.3672 53.3105 48.583 108.539 70.792 163.669zM62.5898 504.972c-36.1426 25.8828 -68.835 92.0898 -37.9111 133.294c15.1836 20.2324 48.7266 25.8174 66.0518 5.56543
c6.42285 -7.50391 11.1113 -17.4102 14.7783 -28.207c3.2998 3.46387 6.73047 6.82324 10.4629 9.93359c16.375 13.6514 44.5625 31.5586 66.0781 19.7529c4.75391 -2.6123 9.52051 -7.09082 9.63184 -13.0488c0.871094 -47.1943 -51.3584 -93.6885 -80.6787 -125.353
c-9.0752 -9.80176 -26.9629 -17.8223 -40.0713 -11.0781c-4.26855 2.19336 -6.93359 5.46094 -8.3418 9.14062z" />
    <glyph glyph-name="i" unicode="&#xee;" horiz-adv-x="318" 
d="M312.96 295.861c7.86328 19.5244 58.1172 23.2969 48.3154 -2.29102c-28.8877 -75.3818 -57.71 -151.209 -96.5957 -222.139c-31.4219 -57.3105 -77.1895 -121.07 -150.378 -121.215c-85.793 -0.169922 -117.929 91.3848 -126.925 162.609
c-10.9473 86.6826 -0.412109 177.189 15.7471 262.557c14.4043 76.0889 177.117 108.434 163.348 9.87988c-8.66895 -62.0449 -19.2959 -123.716 -23.6299 -186.284c-3.67285 -53.0684 -10.6455 -121.117 10.4375 -171.835c12.9248 -31.1074 32.2139 5.69629 42.8008 22
c17.2139 26.5107 32.083 54.7373 46.0879 83.0488c26.3672 53.3105 48.583 108.539 70.792 163.669zM62.5898 504.972c-36.1426 25.8828 -68.835 92.0898 -37.9111 133.294c15.1836 20.2324 48.7266 25.8174 66.0518 5.56543
c6.42285 -7.50391 11.1113 -17.4102 14.7783 -28.207c3.2998 3.46387 6.73047 6.82324 10.4629 9.93359c16.375 13.6514 44.5625 31.5586 66.0781 19.7529c4.75391 -2.6123 9.52051 -7.09082 9.63184 -13.0488c0.871094 -47.1943 -51.3584 -93.6885 -80.6787 -125.353
c-9.0752 -9.80176 -26.9629 -17.8223 -40.0713 -11.0781c-4.26855 2.19336 -6.93359 5.46094 -8.3418 9.14062z" />
    <glyph glyph-name="i" unicode="&#xed;" horiz-adv-x="318" 
d="M312.96 295.861c7.86328 19.5244 58.1172 23.2969 48.3154 -2.29102c-28.8877 -75.3818 -57.71 -151.209 -96.5957 -222.139c-31.4219 -57.3105 -77.1895 -121.07 -150.378 -121.215c-85.793 -0.169922 -117.929 91.3848 -126.925 162.609
c-10.9473 86.6826 -0.412109 177.189 15.7471 262.557c14.4043 76.0889 177.117 108.434 163.348 9.87988c-8.66895 -62.0449 -19.2959 -123.716 -23.6299 -186.284c-3.67285 -53.0684 -10.6455 -121.117 10.4375 -171.835c12.9248 -31.1074 32.2139 5.69629 42.8008 22
c17.2139 26.5107 32.083 54.7373 46.0879 83.0488c26.3672 53.3105 48.583 108.539 70.792 163.669zM62.5898 504.972c-36.1426 25.8828 -68.835 92.0898 -37.9111 133.294c15.1836 20.2324 48.7266 25.8174 66.0518 5.56543
c6.42285 -7.50391 11.1113 -17.4102 14.7783 -28.207c3.2998 3.46387 6.73047 6.82324 10.4629 9.93359c16.375 13.6514 44.5625 31.5586 66.0781 19.7529c4.75391 -2.6123 9.52051 -7.09082 9.63184 -13.0488c0.871094 -47.1943 -51.3584 -93.6885 -80.6787 -125.353
c-9.0752 -9.80176 -26.9629 -17.8223 -40.0713 -11.0781c-4.26855 2.19336 -6.93359 5.46094 -8.3418 9.14062z" />
    <glyph glyph-name="j" unicode="j" horiz-adv-x="280" 
d="M287.827 309.297c24.9004 19.7607 59.0127 -4.14062 30.6748 -28.3662c-58.6992 -50.1738 -115.729 -102.377 -170.97 -156.407c-1.02832 -72.4814 -4.55078 -144.864 -11.498 -216.697c-12.3027 -127.173 -34.9375 -282.814 -136.077 -372.692
c-46.2061 -41.0664 -105.01 -49.0146 -149.271 -1.95117c-39.6914 42.2051 -54.7246 107.845 -51.6602 164.265c6.85547 126.079 104.552 236.059 185.951 324.339c2.52734 2.74316 5.10742 5.4541 7.6416 8.19141c-3.28711 113.934 -9.63184 227.75 -11.0332 341.729
c-0.916992 74.459 153.795 128.123 158.712 42.3047c4.30859 -75.1924 7.13086 -150.915 7.50391 -226.67c45.1455 42.5791 91.6924 83.5996 140.026 121.955zM-24.085 -329.576c21.3584 96.4453 20.7744 195.942 18.417 294.392
c-60.9385 -67.9697 -122.06 -146.651 -136.025 -235.351c-7.73926 -49.1592 0.445312 -130.244 43.2666 -163.82c28.2393 -22.1377 41.6553 13.3633 51.8369 35.7031c10.0967 22.1699 17.2402 45.3154 22.5049 69.0762zM28.9561 501.439
c-38.1064 23.29 -77.3535 80.1074 -53.8613 125.567c11.3408 21.9541 44.917 32.3779 65.2666 16.4277c8.2168 -6.44238 14.5547 -16.2314 19.7275 -27.251c2.56055 3.20215 5.25195 6.31836 8.17871 9.29785c16.8008 17.0957 42.5127 35.7822 67.249 25.3262
c5.30371 -2.24609 8.95117 -7.41211 9.63184 -13.0498c2.85449 -23.5908 -13.0039 -50.5664 -24.9727 -69.9336c-13.416 -21.7051 -28.999 -42.0742 -44.3203 -62.4434c-12.1455 -16.1465 -38.46 -15.5371 -46.8994 -3.94141z" />
    <glyph glyph-name="k" unicode="k" horiz-adv-x="591" 
d="M579.794 257.44c9.36328 22.3535 57.543 22.5186 44.998 -7.42383c-45.5713 -108.755 -80.6924 -298.601 -229.78 -298.574c-37.4844 0.00683594 -71.2178 1.39453 -102.633 24.3965c-31.9385 23.3809 -46.3037 59.5166 -52.249 97.5449
c-5.75488 36.8232 -5.10059 74.8447 -4.97656 111.989c0.0585938 19.1904 0.0322266 38.6562 1.97656 57.7617c1.49902 14.7256 4.85742 25.4502 -0.773438 35.4609c-34.1455 -76.292 -51.0381 -159.583 -66.8047 -241.414
c-0.910156 -8.87207 -2.29199 -17.6719 -4.3418 -26.3672c-8.04688 -34.1455 -58.9668 -54.626 -86.958 -32.8555c-54.5342 42.415 -65.5205 127.48 -74.877 192.092c-9.96582 68.8145 -10.9482 138.71 -11.6748 208.141c-1.55859 148.832 4.39355 299.937 34.2832 446.064
c14.5029 70.9033 163.898 102.515 153.324 9.27148c-15.8125 -139.456 -27.1133 -278.689 -27.6504 -419.141c-0.261719 -67.8066 1.33594 -135.686 5.39551 -203.374c0.392578 -6.55371 0.96875 -13.1602 1.62305 -19.793c6.80957 23.7021 14.4443 47.1689 23.5322 70.1904
c26.6289 67.459 65.6787 140.504 128.312 180.961c22.2939 14.4043 57.3564 30.0664 84.0381 18.2812c25.8633 -11.4258 23.6631 -40.5166 10.7705 -61.3379c-26.5244 -42.8213 -74.4463 -73.0117 -123.723 -88.6406c1.85938 -1.57812 3.74512 -3.22852 5.73535 -4.96973
c9.83398 -8.59668 20.9062 -14.5488 31.4277 -22.7598c24.4092 -19.0469 42.7422 -49.7422 54.1738 -77.9355c20.5986 -50.8154 31.2969 -107.184 45.9639 -159.996c5.90625 -21.2598 8.23047 -53.4414 37.3535 -35.5928c24.3564 14.9287 40.4834 52.0664 52.8848 76.541
c27.9912 55.2285 46.7627 114.483 70.6484 171.479zM275.336 350.108c11.3076 3.56836 22.2881 8.06641 32.9082 14.0771c16.4014 9.28418 50.2979 29.4307 51.1357 50.0098c5.03516 11.4062 0.844727 13.2334 -12.5645 5.4873
c-6.69824 -2.86816 -12.918 -6.54785 -18.667 -11.0527c-10.0898 -7.29395 -19.0537 -16.2314 -27.4014 -25.4238c-9.34961 -10.293 -17.6914 -21.4824 -25.4111 -33.0977z" />
    <glyph glyph-name="l" unicode="l" horiz-adv-x="378" 
d="M370.003 290.571c7.66016 21.3848 58.374 30.6104 49.0762 2.9668c-20.0811 -59.707 -40.2217 -119.525 -65.1094 -177.438c-20.2578 -47.1484 -45.0596 -95.0957 -84.6982 -128.999c-39.1084 -33.4453 -84.8818 -59.9238 -137.04 -39.6592
c-49.9316 19.4004 -80.7051 68.415 -99.7783 115.931c-45.9834 114.582 -45.3291 238.095 -42.0098 359.499c3.69922 135.279 9.88672 271.232 24.4287 405.798c4.04004 37.373 52.0205 62.9736 84.2344 68.4473c28.292 4.8125 74.6416 -4.98242 75.1396 -42.2441
c1.47363 -110.215 -5.27734 -220.22 -10.8496 -330.245c-5.12695 -101.114 -13.7178 -202.012 -6.28613 -303.296c1.86621 -25.4307 22.8311 -253.142 79.8467 -204.343c35.0098 29.9678 55.3594 77.123 73.4502 118.353c22.2812 50.7832 40.9092 103.053 59.5957 155.23z
" />
    <glyph glyph-name="m" unicode="m" horiz-adv-x="829" 
d="M811.716 250.638c8.46582 23.3418 63.5488 32.5605 53.0859 3.20801c-18.6475 -52.2695 -39.9141 -103.557 -64.8408 -153.161c-19.4531 -38.709 -39.4824 -83.54 -74.2363 -111.217c-30.3018 -24.1279 -84.123 -39.2852 -122.086 -29.1367
c-44.1104 11.792 -71.4199 61.9131 -79.5195 104.033c-10.3252 53.6641 3.94238 115.637 12.0352 168.849c4.01367 26.3799 6.52148 53.3096 11.4453 79.5195c2.63184 14.0244 7.67969 27.7676 11.1436 41.6094c1.91797 7.67383 10.1025 23.9902 -1.27051 23.4463
c-18.9551 -0.910156 -39.8223 -48.2422 -46.4287 -61.2461c-12.5781 -24.7432 -23.2705 -50.4688 -32.9346 -76.4756c-18.7979 -50.5732 -33.8242 -102.62 -49.4404 -154.261c-0.137695 -2.2002 -0.21582 -4.40625 -0.379883 -6.6123
c-2.95312 -39.6914 -32.4756 -68.3369 -70.7461 -78.4463c-30.21 -7.98145 -77.5879 -0.680664 -80.4883 38.1328c-5.66406 75.7617 1.95703 153.429 9.19824 228.869c3.31348 34.5254 6.94043 69.0635 11.7988 103.412c3.03809 21.4502 14.5352 96.4912 -26.6943 54.7314
c-23.8594 -24.167 -36.6533 -67.3936 -48.3408 -98.3311c-12.0479 -31.8994 -22.707 -64.3359 -32.3184 -97.0479c-17.6719 -60.1396 -31.4678 -121.28 -43.1621 -182.834c0.275391 -16.0283 -1.66309 -31.7812 -8.8457 -48.667
c-10.0107 -23.5322 -53.7549 -43.293 -77.3125 -29.3271c-54.7373 32.4492 -63.3994 125.83 -70.8896 184.169c-8.85254 68.9521 -5.31055 140.478 7.94141 208.553c13.082 67.2041 154.28 96.5957 144.636 8.74707c-6.19434 -56.4199 -8.83984 -112.474 -7.55664 -169.097
c8.41406 31.7031 17.751 63.1572 28.3125 94.2578c20.998 61.8086 46.8281 159.348 115.741 184.144c69.5352 25.0244 118.033 -65.6133 130.951 -120.174c9.21191 -38.8994 12.6953 -80.0898 14.9346 -120.253c15.8389 45.2373 35.5859 88.6279 62.4248 126.289
c21.168 29.7061 52.8584 59.1172 92.0195 56.8125c40.7979 -2.40332 75.1006 -35.5537 90.6768 -71.4541c20.8994 -48.1641 17.3896 -108.218 15.7266 -159.531c-0.857422 -26.3672 -0.680664 -52.6953 -2.23242 -79.0361
c-1.4668 -24.8477 -9.66406 -48.9492 -10.875 -73.5352c-0.268555 -5.5127 0.0849609 -21.8555 5.14648 -25.7246c5.66406 -4.32812 17.6133 7.67383 24.1084 14.5029c15.7402 16.5518 25.9678 38.6494 36.5947 58.5869c28.1416 52.7861 52.2891 107.472 72.6777 163.695z
" />
    <glyph glyph-name="n" unicode="n" horiz-adv-x="569" 
d="M554.489 261.311c7.68652 19.499 57.9932 24.5 48.958 -2.31836c-23.584 -69.9932 -48.249 -146.927 -89.0537 -209.018c-32.4561 -49.3818 -97.4336 -97.8467 -160.677 -82.2959c-81.3662 20.0029 -91.3447 124.207 -86.1787 191.641
c3.15625 41.2559 10.0703 81.8701 16.8799 122.642c3.26074 19.5381 5.62402 39.3965 9.625 58.8037c2.44922 11.8906 7.41895 23.251 10.2998 34.9844c-34.0469 12.584 -107.91 -144.904 -114.805 -161.777c-25.4697 -62.3457 -44.7129 -127.068 -63.0723 -191.791
c-0.491211 -1.75488 -1.375 -3.38477 -2.40332 -4.94922c-0.805664 -4.59668 -1.72266 -9.16016 -2.89453 -13.6514c-8.30273 -31.8867 -62.9229 -61.0039 -90.0293 -34.0215c-44 43.7969 -47.3916 124.357 -49.5127 183.062
c-2.36328 65.3838 3.03223 135.22 17.0967 199.15c14.1299 64.251 149.153 93.9248 139.954 8.46582c-6.37109 -59.1641 -14.7715 -116.756 -16.6699 -176.385c-0.21582 -6.88184 -0.176758 -13.8809 0.0195312 -20.959c18.8965 56.5967 41.8779 111.721 73.1494 162.084
c22.6152 36.417 54.626 78.8516 97.5977 91.9531c36.5088 11.1309 83.2979 -12.5908 103.936 -43.0889c30.4131 -44.9551 30.3213 -108.395 30.0264 -160.546c-0.294922 -52.5898 -3.86328 -106.882 0.49707 -159.308c0.680664 -8.22363 2.00977 -13.7559 4.8252 -21.626
c2.68457 -12.3027 3.45703 -13.7168 2.31738 -4.23633c7.27441 3.87598 13.5859 8.96387 18.9219 15.2559c17.1348 17.7246 28.2002 42.0811 38.6895 64.0615c23.8916 50.0693 42.1924 102.325 62.5029 153.867z" />
    <glyph glyph-name="o" unicode="o" horiz-adv-x="366" 
d="M404.233 307.208c11.1436 -6.42969 12.0596 -20.1758 2.93262 -29.3027c-34.5576 -34.5771 -82.4199 -62.5156 -133.792 -77.542c-2.54688 -98.6064 -42.5391 -232.235 -165.548 -221.523c-152.204 13.2588 -147.614 199.884 -123.271 309.143
c4.71387 21.1416 22.1826 38.6631 43.4951 49.9639c8.13184 48.2227 43.9336 92.1309 99.9873 100.996c103.464 16.3691 137.721 -108.054 144.249 -196.36c36.3652 11 69.9414 30.2109 93.7939 54.0771c8.66211 8.66895 25.7969 17.6787 38.1523 10.5488zM80.1816 351.722
c30.5381 0.0986328 55.2803 -15.8184 50.3438 -54.9141c-1.85254 -14.6797 -3.89551 -29.2021 -5.83984 -43.6592c27.7227 -16.4346 60.7881 -22.3867 94.292 -20.3242c-1.62402 26.4395 -5.80762 52.7676 -14.0449 77.3867
c-11.9756 35.8154 -46.2715 106.424 -94.874 80.7373c-16.749 -8.8457 -26.1445 -23.1064 -29.877 -39.2266zM218.864 174.695c0.300781 4.96289 0.517578 9.97363 0.694336 15.002c-34.4922 -3.53613 -69.0439 -0.563477 -100.917 10.6328
c-1.70898 -20.2979 -2.46875 -40.7266 -1.375 -61.5605c1.3418 -25.5947 10.0957 -102.855 52.4912 -93.5713c19.4336 4.25586 31.376 41.2754 36.7188 57.8213c7.4248 22.9883 10.9209 47.6592 12.3877 71.6758z" />
    <glyph glyph-name="o" unicode="&#xf6;" horiz-adv-x="366" 
d="M404.233 307.208c11.1436 -6.42969 12.0596 -20.1758 2.93262 -29.3027c-34.5576 -34.5771 -82.4199 -62.5156 -133.792 -77.542c-2.54688 -98.6064 -42.5391 -232.235 -165.548 -221.523c-152.204 13.2588 -147.614 199.884 -123.271 309.143
c4.71387 21.1416 22.1826 38.6631 43.4951 49.9639c8.13184 48.2227 43.9336 92.1309 99.9873 100.996c103.464 16.3691 137.721 -108.054 144.249 -196.36c36.3652 11 69.9414 30.2109 93.7939 54.0771c8.66211 8.66895 25.7969 17.6787 38.1523 10.5488zM80.1816 351.722
c30.5381 0.0986328 55.2803 -15.8184 50.3438 -54.9141c-1.85254 -14.6797 -3.89551 -29.2021 -5.83984 -43.6592c27.7227 -16.4346 60.7881 -22.3867 94.292 -20.3242c-1.62402 26.4395 -5.80762 52.7676 -14.0449 77.3867
c-11.9756 35.8154 -46.2715 106.424 -94.874 80.7373c-16.749 -8.8457 -26.1445 -23.1064 -29.877 -39.2266zM218.864 174.695c0.300781 4.96289 0.517578 9.97363 0.694336 15.002c-34.4922 -3.53613 -69.0439 -0.563477 -100.917 10.6328
c-1.70898 -20.2979 -2.46875 -40.7266 -1.375 -61.5605c1.3418 -25.5947 10.0957 -102.855 52.4912 -93.5713c19.4336 4.25586 31.376 41.2754 36.7188 57.8213c7.4248 22.9883 10.9209 47.6592 12.3877 71.6758z" />
    <glyph glyph-name="o" unicode="&#xf5;" horiz-adv-x="366" 
d="M404.233 307.208c11.1436 -6.42969 12.0596 -20.1758 2.93262 -29.3027c-34.5576 -34.5771 -82.4199 -62.5156 -133.792 -77.542c-2.54688 -98.6064 -42.5391 -232.235 -165.548 -221.523c-152.204 13.2588 -147.614 199.884 -123.271 309.143
c4.71387 21.1416 22.1826 38.6631 43.4951 49.9639c8.13184 48.2227 43.9336 92.1309 99.9873 100.996c103.464 16.3691 137.721 -108.054 144.249 -196.36c36.3652 11 69.9414 30.2109 93.7939 54.0771c8.66211 8.66895 25.7969 17.6787 38.1523 10.5488zM80.1816 351.722
c30.5381 0.0986328 55.2803 -15.8184 50.3438 -54.9141c-1.85254 -14.6797 -3.89551 -29.2021 -5.83984 -43.6592c27.7227 -16.4346 60.7881 -22.3867 94.292 -20.3242c-1.62402 26.4395 -5.80762 52.7676 -14.0449 77.3867
c-11.9756 35.8154 -46.2715 106.424 -94.874 80.7373c-16.749 -8.8457 -26.1445 -23.1064 -29.877 -39.2266zM218.864 174.695c0.300781 4.96289 0.517578 9.97363 0.694336 15.002c-34.4922 -3.53613 -69.0439 -0.563477 -100.917 10.6328
c-1.70898 -20.2979 -2.46875 -40.7266 -1.375 -61.5605c1.3418 -25.5947 10.0957 -102.855 52.4912 -93.5713c19.4336 4.25586 31.376 41.2754 36.7188 57.8213c7.4248 22.9883 10.9209 47.6592 12.3877 71.6758z" />
    <glyph glyph-name="o" unicode="&#xf4;" horiz-adv-x="366" 
d="M404.233 307.208c11.1436 -6.42969 12.0596 -20.1758 2.93262 -29.3027c-34.5576 -34.5771 -82.4199 -62.5156 -133.792 -77.542c-2.54688 -98.6064 -42.5391 -232.235 -165.548 -221.523c-152.204 13.2588 -147.614 199.884 -123.271 309.143
c4.71387 21.1416 22.1826 38.6631 43.4951 49.9639c8.13184 48.2227 43.9336 92.1309 99.9873 100.996c103.464 16.3691 137.721 -108.054 144.249 -196.36c36.3652 11 69.9414 30.2109 93.7939 54.0771c8.66211 8.66895 25.7969 17.6787 38.1523 10.5488zM80.1816 351.722
c30.5381 0.0986328 55.2803 -15.8184 50.3438 -54.9141c-1.85254 -14.6797 -3.89551 -29.2021 -5.83984 -43.6592c27.7227 -16.4346 60.7881 -22.3867 94.292 -20.3242c-1.62402 26.4395 -5.80762 52.7676 -14.0449 77.3867
c-11.9756 35.8154 -46.2715 106.424 -94.874 80.7373c-16.749 -8.8457 -26.1445 -23.1064 -29.877 -39.2266zM218.864 174.695c0.300781 4.96289 0.517578 9.97363 0.694336 15.002c-34.4922 -3.53613 -69.0439 -0.563477 -100.917 10.6328
c-1.70898 -20.2979 -2.46875 -40.7266 -1.375 -61.5605c1.3418 -25.5947 10.0957 -102.855 52.4912 -93.5713c19.4336 4.25586 31.376 41.2754 36.7188 57.8213c7.4248 22.9883 10.9209 47.6592 12.3877 71.6758z" />
    <glyph glyph-name="o" unicode="&#xf3;" horiz-adv-x="366" 
d="M404.233 307.208c11.1436 -6.42969 12.0596 -20.1758 2.93262 -29.3027c-34.5576 -34.5771 -82.4199 -62.5156 -133.792 -77.542c-2.54688 -98.6064 -42.5391 -232.235 -165.548 -221.523c-152.204 13.2588 -147.614 199.884 -123.271 309.143
c4.71387 21.1416 22.1826 38.6631 43.4951 49.9639c8.13184 48.2227 43.9336 92.1309 99.9873 100.996c103.464 16.3691 137.721 -108.054 144.249 -196.36c36.3652 11 69.9414 30.2109 93.7939 54.0771c8.66211 8.66895 25.7969 17.6787 38.1523 10.5488zM80.1816 351.722
c30.5381 0.0986328 55.2803 -15.8184 50.3438 -54.9141c-1.85254 -14.6797 -3.89551 -29.2021 -5.83984 -43.6592c27.7227 -16.4346 60.7881 -22.3867 94.292 -20.3242c-1.62402 26.4395 -5.80762 52.7676 -14.0449 77.3867
c-11.9756 35.8154 -46.2715 106.424 -94.874 80.7373c-16.749 -8.8457 -26.1445 -23.1064 -29.877 -39.2266zM218.864 174.695c0.300781 4.96289 0.517578 9.97363 0.694336 15.002c-34.4922 -3.53613 -69.0439 -0.563477 -100.917 10.6328
c-1.70898 -20.2979 -2.46875 -40.7266 -1.375 -61.5605c1.3418 -25.5947 10.0957 -102.855 52.4912 -93.5713c19.4336 4.25586 31.376 41.2754 36.7188 57.8213c7.4248 22.9883 10.9209 47.6592 12.3877 71.6758z" />
    <glyph glyph-name="p" unicode="p" horiz-adv-x="629" 
d="M628.589 284.181c19.001 19.2109 65.5156 7.45996 40.0586 -18.2852c-41.0469 -41.4922 -89.001 -74.1318 -141.892 -98.7246c-13.1543 -6.11523 -26.5566 -11.4971 -40.0908 -16.5127c-1.76172 -54.3906 -16.5918 -108.755 -50.168 -151.399
c-48.792 -61.9795 -138.677 -93.3291 -207.819 -45.3818c-18.2744 12.6758 -26.8906 27.1133 -28.8945 42.0811c-0.956055 -6.65918 -1.97754 -13.3047 -2.88086 -19.9639c-14.418 -106.627 -22.2158 -213.954 -29.1172 -321.295
c1.15234 -25.7451 0.674805 -51.5752 -2.82812 -77.6406c-3.74512 -27.8662 -57.1865 -52.5049 -77.7324 -29.3721c-50.167 56.4854 -66.6016 130.669 -79.376 203.53c-12.6172 71.9639 -18.8242 144.354 -21.1025 217.346c-4.68848 150.424 5.94434 301.312 24.1729 450.59
c4.41992 36.1689 49.8857 60.7744 81.3857 66.1299c24.7236 4.19727 75.3955 -4.71387 72.5996 -40.8174c-11.209 -144.648 -24.3438 -289.362 -23.2246 -434.606c0.143555 -18.5098 0.503906 -37.0391 1.07324 -55.5752c7.27441 59.6807 16.4873 119.1 28.751 178.034
c18.124 87.1016 65.3125 355.112 207.152 260.631c30.7012 -20.4541 53.5459 -33.8115 70.9688 -67.8984c16.4541 -32.1943 27.0352 -70.6348 32.7246 -106.332c1.38184 -8.66895 2.42969 -17.4756 3.19531 -26.3604c52.8906 21.6729 102.351 50.6846 143.044 91.8232z
M283.914 27.4072c30.1709 4.81934 41.21 34.5586 48.6221 66.6152c-15.2881 -7.70605 -29.9023 -16.7021 -42.9648 -27.8789c-7.5166 -6.43652 -24.6055 -19.3291 -25.5742 -29.7988c-1.31641 -14.208 7.33301 -10.9473 19.917 -8.9375zM341.735 142.265
c6.91406 44.0518 10.2217 89.8848 9.35742 133.394c-0.386719 19.6299 -1.33594 63.8916 -13.8877 80.3125c-25.0576 32.7705 -46.1279 -5.57812 -56.4531 -26.8906c-26.3281 -54.3447 -39.6064 -116.664 -52.6426 -175.343
c-9.21191 -41.4521 -16.8789 -83.252 -23.4658 -125.209c9.38965 23.5645 29.7783 46.2578 49.9121 63.3604c26.1182 22.1895 55.9287 37.7656 87.1797 50.376z" />
    <glyph glyph-name="q" unicode="q" horiz-adv-x="557" 
d="M438.699 45.3525c-3.64062 -4.24316 -27.3818 -25.9053 -29.7324 -34.1748c1.80664 4.33496 17.292 -8.125 22.7197 -11.7783c73.5547 -49.4795 144.484 -163.315 111.891 -254.614c-15.8125 -44.3008 -45.3418 -82.7549 -92.543 -94.9922
c-47.4111 -12.29 -98.7373 -1.78125 -135.829 30.4199c-88.4971 76.8154 -97.5586 227.854 -99.876 335.987c-0.458008 21.332 -0.34668 42.7363 0.00683594 64.1602c-2.05566 -4.60254 -4.09863 -9.21875 -6.37109 -13.7041
c-20.8086 -41.0332 -58.0771 -73.7314 -105.029 -79.5977c-52.4717 -6.55371 -96.3662 31.0361 -117.057 76.7646c-46.1992 102.109 -12.1123 254.628 76.9277 323.266c42.1143 32.4697 94.2588 47.4307 146.973 37.8848
c16.4932 -2.98535 30.2041 -8.57031 41.8389 -16.2705c1.64355 3.75195 4.43945 7.08496 8.02051 9.87402c37.7402 43.2725 135.24 65.7041 139.188 -1.78809c6.9668 -119.1 -13.1016 -237.329 -18.3203 -356.298c-0.222656 -5.07422 -0.321289 -10.168 -0.504883 -15.249
c70.0459 71.5645 123.572 154.057 176.169 238.507c8.01465 12.8662 51.2217 23.5645 42.5527 -2.0166c-20.1211 -59.3799 -61.3252 -113.194 -99.5957 -162.131c-19.793 -25.3066 -40.5225 -49.8662 -61.4287 -74.249zM203.374 213.281
c10.2012 43.3252 19.5039 86.8262 30.4902 129.902c-6.69824 9.13379 -14.9551 16.7422 -26.0732 20.5596c-8.57715 2.95312 -17.4814 3.59473 -26.1572 1.09375c4.92383 1.08691 -9.6377 -7.98145 -12.2305 -10.3975
c-24.8086 -23.1719 -39.0098 -56.1914 -49.0664 -88.2744c-13.1865 -42.0742 -19.0791 -85.2754 -15.6152 -129.347c1.86621 -23.7549 5.57227 -78.4072 28.4492 -96.9561c25.5225 14.3916 37.3213 55.3271 45.1387 80.0049
c9.74316 30.7471 17.6719 62.0312 25.0645 93.4141zM445.089 -145.964c-15.3936 32.417 -37.5303 59.1318 -64.8994 80.9609c0.314453 -13.4424 0.75293 -26.8652 1.3623 -40.248c2.2002 -48.6221 3.5752 -98.2725 18.1309 -145.094
c5.70898 -18.3789 13.3242 -49.1982 34.6494 -55.8174c24.0098 -7.45801 34.3418 18.7715 34.0078 38.5713c-0.707031 41.8389 -5.08105 83.3633 -23.251 121.627z" />
    <glyph glyph-name="r" unicode="r" horiz-adv-x="508" 
d="M507.571 281.261c18.5625 18.6475 64.377 8.21289 39.542 -18.043c-56.9043 -60.1455 -120.926 -92.9619 -204.374 -73.915c-43.0371 9.82129 -73.6406 31.0156 -82.9844 76.4951c-9.14062 44.5098 6.95996 93.2363 18.2021 135.933
c1.55859 5.91211 24.7764 72.3896 20.54 76.2529c-5.61816 5.12695 -27.1201 -33.7852 -32.1357 -43.4424c-21.7051 -41.7861 -34.6758 -88.3457 -46.9258 -133.615c-25.9746 -95.9932 -42.4678 -193.951 -53.8145 -292.662
c0.62207 -4.00684 1.30273 -7.99414 2.12109 -11.9033c9.64453 -45.957 -68.3369 -71.0342 -98.3311 -47.9609c-31.4482 24.1934 -42.5859 74.249 -52.165 110.601c-10.1816 38.6436 -14.752 78.8721 -17.8428 118.661c-6.65234 85.7402 -2.20703 175.173 13.415 259.688
c6.71777 36.3652 48.1895 60.4863 81.3857 66.1299c26.8389 4.55664 72.7373 -4.77344 72.5996 -40.8174c-0.268555 -71.9121 -8.07324 -143.602 -10.8564 -215.507c4.75977 21.0303 9.87988 41.9893 15.6553 62.791c11.5693 41.6494 24.1992 83.8086 42.873 122.924
c15.583 32.6396 39.043 74.3145 73.6338 89.8457c30.9307 13.8877 61.1348 -0.779297 82.4082 -24.9072c32.0107 -36.3125 29.2871 -84.6992 26.3018 -129.831c-1.3623 -20.5986 -2.63281 -40.8701 -2.35742 -61.5215c0.229492 -17.292 -3.26074 -42.585 2.12793 -58.8555
c16.6182 -50.1611 92.9102 15.5107 110.981 33.6602z" />
    <glyph glyph-name="s" unicode="s" horiz-adv-x="343" 
d="M356.879 315.661c31.6309 12.3096 49.4961 -22.9355 17.249 -35.3887c-52.4717 -20.2578 -108.977 -49.3877 -158.521 -86.6299c0.0722656 -0.0986328 0.157227 -0.197266 0.229492 -0.295898c55.2871 -71.9971 100.406 -190.881 27.041 -266.584
c-53.5781 -55.2812 -145.073 -75.3164 -192.242 -0.982422c-37.792 59.5566 -12.8848 126.1 25.4316 180.346c-57.6973 65.3711 -113.843 133.309 -85.5439 227.725c14.5557 48.5439 58.4238 94.9004 103.628 118.177c36.3193 18.7061 89.0078 25.6338 109.849 -17.9531
c11.1182 -23.2568 -34.5049 -44.5234 -47.9082 -23.3682c-11.6484 18.3916 -29.4902 7.22852 -36.5225 -7.38574c-5.19922 -10.8037 -2.8877 -18.9883 -2.32422 -30.3486c1.09375 -22.0586 1.67676 -39.6777 11.8711 -59.8643
c16.585 -32.8232 39.9863 -61.5928 63.1709 -90.1797c50.0957 38.4473 105.494 69.7314 164.593 92.7334zM154.229 -80.7402c60.9121 7.54883 -12.834 108.577 -29.1631 129.483c-6.11523 7.83105 -12.5645 15.6025 -19.1836 23.3486
c-1.08691 -2.0293 -2.19336 -4.0459 -3.22754 -6.0957c-15.8584 -31.3887 -23.4863 -70.1826 -8.21777 -103.418c9.65723 -21.0303 34.2041 -46.4873 59.792 -43.3184z" />
    <glyph glyph-name="t" unicode="t" horiz-adv-x="382" 
d="M374.256 290.571c7.66016 21.3848 58.375 30.6094 49.0771 2.96582c-20.0811 -59.707 -40.2217 -119.525 -65.1094 -177.438c-20.2578 -47.1484 -45.0596 -95.0957 -84.6982 -128.999c-39.1084 -33.4453 -84.8818 -59.9238 -137.04 -39.6592
c-49.9316 19.4004 -80.7051 68.415 -99.7783 115.931c-45.9834 114.582 -45.3291 238.095 -42.0098 359.499c1.82031 66.4248 4.24902 133.014 7.96191 199.523c-31.2715 -3.11035 -62.543 -6.2334 -93.8467 -9.01562c-23.2764 -2.06934 -54.2393 -5.41504 -63.6416 21.8027
c-8.47266 24.5332 40.2734 47.3975 48.5498 23.6826c4.36719 -12.5186 87.9658 1.4082 111.452 4.78027c3.54883 55.1504 8.03418 110.209 13.96 165.031c4.04004 37.373 52.0205 62.9736 84.2344 68.4473c28.292 4.8125 74.6416 -4.98242 75.1396 -42.2441
c0.779297 -58.1162 -0.759766 -116.173 -3.17578 -174.21c47.0117 4.06641 94.1016 5.46777 140.608 -5.01465c33.3789 -7.5293 1.75391 -47.8691 -23.042 -42.2119c-38.748 8.83887 -78.9893 9.42773 -119.375 6.78906
c-1.83984 -38.5391 -3.92188 -77.0713 -5.87305 -115.604c-5.12695 -101.114 -13.7178 -202.012 -6.28613 -303.296c1.86621 -25.4307 22.8311 -253.142 79.8467 -204.343c35.0098 29.9678 55.3594 77.123 73.4502 118.353c22.2812 50.7832 40.9092 103.053 59.5957 155.23z
" />
    <glyph glyph-name="u" unicode="u" horiz-adv-x="609" 
d="M602.571 295.861c7.86328 19.5244 58.1152 23.2959 48.3135 -2.29883c-28.8877 -75.3818 -57.71 -151.209 -96.5957 -222.139c-31.4277 -57.3105 -77.1953 -121.07 -150.384 -121.215c-85.793 -0.169922 -117.929 91.3848 -126.925 162.609
c-2.21289 17.5674 -3.50977 35.292 -4.09863 53.0947c-3.46387 -9.95898 -6.97363 -19.8984 -10.5684 -29.8047c-21.083 -58.168 -45.6621 -131.448 -113.43 -146.501c-195.517 -43.4238 -172.921 260.945 -148.897 375.036c7.5625 35.9268 46.8809 59.5762 80.3193 65.2598
c25.2471 4.28906 73.332 -4.65527 71.6426 -40.2803c-3.20215 -67.4922 -15.7012 -134.009 -16.1592 -201.743c-0.196289 -29.2285 1.4668 -58.4111 3.71289 -87.5215c1.12012 -14.4893 0.838867 -29.208 6.2207 -43.0361
c1.53906 -3.96094 11.5898 -21.7568 10.7256 -21.5869c16.2119 -3.17578 43.5811 74.4326 47.752 85.3213c10.5283 27.4863 20.0947 55.333 29.458 83.2324c18.752 55.8701 36.2139 112.094 58.2656 166.733c0.275391 1.45312 0.530273 2.91309 0.805664 4.36035
c14.4043 76.0889 177.117 108.434 163.348 9.87988c-8.66895 -62.0449 -19.2959 -123.716 -23.6309 -186.284c-3.67285 -53.0684 -10.6455 -121.117 10.4375 -171.835c12.9248 -31.1074 32.2139 5.69629 42.8008 22c17.2139 26.5107 32.0898 54.7373 46.0947 83.0488
c26.3672 53.3105 48.583 108.539 70.792 163.669z" />
    <glyph glyph-name="u" unicode="&#xfc;" horiz-adv-x="609" 
d="M602.571 295.861c7.86328 19.5244 58.1152 23.2959 48.3135 -2.29883c-28.8877 -75.3818 -57.71 -151.209 -96.5957 -222.139c-31.4277 -57.3105 -77.1953 -121.07 -150.384 -121.215c-85.793 -0.169922 -117.929 91.3848 -126.925 162.609
c-2.21289 17.5674 -3.50977 35.292 -4.09863 53.0947c-3.46387 -9.95898 -6.97363 -19.8984 -10.5684 -29.8047c-21.083 -58.168 -45.6621 -131.448 -113.43 -146.501c-195.517 -43.4238 -172.921 260.945 -148.897 375.036c7.5625 35.9268 46.8809 59.5762 80.3193 65.2598
c25.2471 4.28906 73.332 -4.65527 71.6426 -40.2803c-3.20215 -67.4922 -15.7012 -134.009 -16.1592 -201.743c-0.196289 -29.2285 1.4668 -58.4111 3.71289 -87.5215c1.12012 -14.4893 0.838867 -29.208 6.2207 -43.0361
c1.53906 -3.96094 11.5898 -21.7568 10.7256 -21.5869c16.2119 -3.17578 43.5811 74.4326 47.752 85.3213c10.5283 27.4863 20.0947 55.333 29.458 83.2324c18.752 55.8701 36.2139 112.094 58.2656 166.733c0.275391 1.45312 0.530273 2.91309 0.805664 4.36035
c14.4043 76.0889 177.117 108.434 163.348 9.87988c-8.66895 -62.0449 -19.2959 -123.716 -23.6309 -186.284c-3.67285 -53.0684 -10.6455 -121.117 10.4375 -171.835c12.9248 -31.1074 32.2139 5.69629 42.8008 22c17.2139 26.5107 32.0898 54.7373 46.0947 83.0488
c26.3672 53.3105 48.583 108.539 70.792 163.669z" />
    <glyph glyph-name="u" unicode="&#xfb;" horiz-adv-x="609" 
d="M602.571 295.861c7.86328 19.5244 58.1152 23.2959 48.3135 -2.29883c-28.8877 -75.3818 -57.71 -151.209 -96.5957 -222.139c-31.4277 -57.3105 -77.1953 -121.07 -150.384 -121.215c-85.793 -0.169922 -117.929 91.3848 -126.925 162.609
c-2.21289 17.5674 -3.50977 35.292 -4.09863 53.0947c-3.46387 -9.95898 -6.97363 -19.8984 -10.5684 -29.8047c-21.083 -58.168 -45.6621 -131.448 -113.43 -146.501c-195.517 -43.4238 -172.921 260.945 -148.897 375.036c7.5625 35.9268 46.8809 59.5762 80.3193 65.2598
c25.2471 4.28906 73.332 -4.65527 71.6426 -40.2803c-3.20215 -67.4922 -15.7012 -134.009 -16.1592 -201.743c-0.196289 -29.2285 1.4668 -58.4111 3.71289 -87.5215c1.12012 -14.4893 0.838867 -29.208 6.2207 -43.0361
c1.53906 -3.96094 11.5898 -21.7568 10.7256 -21.5869c16.2119 -3.17578 43.5811 74.4326 47.752 85.3213c10.5283 27.4863 20.0947 55.333 29.458 83.2324c18.752 55.8701 36.2139 112.094 58.2656 166.733c0.275391 1.45312 0.530273 2.91309 0.805664 4.36035
c14.4043 76.0889 177.117 108.434 163.348 9.87988c-8.66895 -62.0449 -19.2959 -123.716 -23.6309 -186.284c-3.67285 -53.0684 -10.6455 -121.117 10.4375 -171.835c12.9248 -31.1074 32.2139 5.69629 42.8008 22c17.2139 26.5107 32.0898 54.7373 46.0947 83.0488
c26.3672 53.3105 48.583 108.539 70.792 163.669z" />
    <glyph glyph-name="u" unicode="&#xfa;" horiz-adv-x="609" 
d="M602.571 295.861c7.86328 19.5244 58.1152 23.2959 48.3135 -2.29883c-28.8877 -75.3818 -57.71 -151.209 -96.5957 -222.139c-31.4277 -57.3105 -77.1953 -121.07 -150.384 -121.215c-85.793 -0.169922 -117.929 91.3848 -126.925 162.609
c-2.21289 17.5674 -3.50977 35.292 -4.09863 53.0947c-3.46387 -9.95898 -6.97363 -19.8984 -10.5684 -29.8047c-21.083 -58.168 -45.6621 -131.448 -113.43 -146.501c-195.517 -43.4238 -172.921 260.945 -148.897 375.036c7.5625 35.9268 46.8809 59.5762 80.3193 65.2598
c25.2471 4.28906 73.332 -4.65527 71.6426 -40.2803c-3.20215 -67.4922 -15.7012 -134.009 -16.1592 -201.743c-0.196289 -29.2285 1.4668 -58.4111 3.71289 -87.5215c1.12012 -14.4893 0.838867 -29.208 6.2207 -43.0361
c1.53906 -3.96094 11.5898 -21.7568 10.7256 -21.5869c16.2119 -3.17578 43.5811 74.4326 47.752 85.3213c10.5283 27.4863 20.0947 55.333 29.458 83.2324c18.752 55.8701 36.2139 112.094 58.2656 166.733c0.275391 1.45312 0.530273 2.91309 0.805664 4.36035
c14.4043 76.0889 177.117 108.434 163.348 9.87988c-8.66895 -62.0449 -19.2959 -123.716 -23.6309 -186.284c-3.67285 -53.0684 -10.6455 -121.117 10.4375 -171.835c12.9248 -31.1074 32.2139 5.69629 42.8008 22c17.2139 26.5107 32.0898 54.7373 46.0947 83.0488
c26.3672 53.3105 48.583 108.539 70.792 163.669z" />
    <glyph glyph-name="v" unicode="v" horiz-adv-x="523" 
d="M533.663 308.832c23.6895 16.5918 56.6025 -6.01172 28.3496 -26.2236c-43.8887 -31.415 -102.057 -45.9502 -156.428 -41.0459c-7.90332 -36.2207 -16.9189 -72.1865 -27.1592 -107.399c-17.043 -58.5811 -40.2734 -127.311 -87.8213 -168.508
c-44.4844 -38.5391 -122.584 -49.6367 -173.923 -19.2168c-61.4941 36.4434 -87.4551 112.539 -103.261 178.289c-17.6592 73.4502 -21.7646 148.072 -19.5381 223.316c1.23047 41.6621 35.7168 72.4229 74.5566 82.6768c31.9385 8.43359 81.6406 0.694336 84.8359 -40.1953
c8.64941 -110.699 7.26758 -221.785 39.0498 -329.283c5.96484 -20.166 14.7646 -39.6445 25.7969 -57.5254c12.8135 -20.7686 22.5957 -25.0508 41.25 -6.35059c32.3975 32.4824 48.6484 85.3994 61.8809 127.984c12.6699 40.7783 24.8154 83.3633 34.9902 126.577
c-50.6455 17.502 -91.6855 55.6416 -104.558 117.208c-11.373 54.417 3.46387 118.963 38.4932 162.406c30.1387 37.3867 98.9473 63.1836 129.491 11.3398c30.6621 -52.04 15.6943 -132.844 6.89453 -188.982c-3.64746 -23.2373 -7.76562 -46.5732 -12.2832 -69.8955
c40.418 -7.59473 84.5225 0.40625 119.382 24.8281zM383.003 430.177c1.07422 24.2061 1.32812 50.5938 -6.31934 73.8438c-5.17871 15.7529 -13.7559 27.1523 -30.6357 21.541c-13.3047 -4.41992 -19.7412 -17.1484 -25.8369 -28.9863
c-19.3936 -37.668 -25.2598 -85.249 -11.084 -125.693c10.9473 -31.2188 31.9121 -54.4756 57.7549 -69.4697c8.36133 43.1094 14.248 86.4082 16.1211 128.765z" />
    <glyph glyph-name="w" unicode="w" horiz-adv-x="814" 
d="M830.036 306.547c23.4463 13.7695 47.3066 -14.4619 22.3604 -29.8818c-51.7256 -31.9785 -118.406 -48.9951 -178.506 -41.708c-2.08203 -9.86035 -4.18359 -19.7207 -6.28516 -29.5684c-24.5537 -114.969 -76.7246 -259.879 -220.143 -253.253
c-89.1709 4.125 -136.771 77.209 -160.919 158.844c-7.24805 -19.3418 -15.8057 -38.0088 -26.0391 -55.5166c-30.7861 -52.6621 -83.2773 -106.516 -149.637 -92.4189c-76.8096 16.3096 -104.624 101.198 -117.313 169.103
c-14.8301 79.3428 -6.97949 167.872 8.41992 246.573c6.71777 34.3096 45.1777 56.9971 76.7568 62.3662c24.1338 4.09863 70.0781 -4.44629 68.4678 -38.4932c-5.03516 -106.627 -37.5107 -228.765 0.857422 -332.727c7.98828 -21.6396 21.4043 -53.9717 45.4277 -30.459
c18.7393 18.333 30.5049 47.3975 39.3047 71.4072c15.7334 42.9258 25.9082 87.6787 32.1807 132.909c-0.157227 2.96582 -0.300781 5.91895 -0.412109 8.7998c-2.81543 73.7061 150.312 124.751 155.314 41.4004c3.4834 -58.1553 6.36426 -116.605 20.8799 -173.34
c6.8291 -26.7012 24.5859 -103.006 63.5303 -95.8818c45.5771 8.33496 77.752 101.382 91.5088 136.948c10.9736 28.3574 18.9287 57.5459 25.542 87.0752c-39.082 16.6436 -71.3154 47.4434 -88.4893 96.1182c-19.2305 54.502 -12.8994 117.738 14.1875 168.561
c20.5918 38.6367 74.2363 90.0215 121.641 62.9082c49.6309 -28.3906 39.7314 -114.91 35.3311 -161.482c-4.34766 -45.9707 -12.2246 -91.5547 -21.2598 -136.877c49.1523 -10.4824 106.194 4.46582 147.293 28.5938zM636.269 324.705
c10.332 56.8389 25.5439 121.947 11.7939 179.284c-5.17285 21.5615 -15.2363 39.4434 -37.498 22.6748c-9.70312 -7.30664 -16.2314 -23.04 -20.8145 -33.9609c-11.1377 -26.5176 -15.7998 -56.3027 -13.4688 -84.9092c3.3457 -41.0928 22.9814 -81.5176 55.6533 -106.673
c1.45996 7.86328 2.90039 15.7207 4.33398 23.584z" />
    <glyph glyph-name="x" unicode="x" horiz-adv-x="468" 
d="M458.598 284.122c7.68652 22.7139 60.5732 31.7227 51.0859 3.07031c-44.8506 -135.188 -122.21 -344.774 -299.832 -330.088c-55.1045 4.55664 -101.86 34.3477 -134.532 76.1406c-13.3633 -23.1523 -27.0801 -46.1016 -41.5498 -68.6182
c-12.4473 -19.3672 -61.1807 -19.8193 -44.3799 7.32715c20.9717 33.8965 40.5947 68.5 59.7656 103.32c-5.15918 10.6465 -9.625 21.6396 -13.1475 32.9346c-28.4883 91.3906 -43.8359 194.587 -33.7656 290.109c6.79004 64.3887 138.756 101.271 153.985 25.3125
c8.82617 -44.0254 10.2539 -90.1465 11.6748 -136.058c28.8613 47.0371 60.126 92.6543 96.0918 135.587c18.7256 22.3535 66.2734 11.3271 42.6436 -19.4658c-48.8057 -63.6025 -94.3701 -128.103 -134.638 -197.277
c0.111328 -1.25684 0.203125 -2.52051 0.321289 -3.77734c5.40137 -56.6758 14.0898 -122.648 47.9795 -170.394c8.80664 -12.4072 23.6895 -29.1426 40.2217 -30.2822c16.5781 -1.13965 36.5811 12.5186 48.9365 21.5869c26.1445 19.1904 48.2158 44.582 66.1426 71.4658
c38.4795 57.7031 60.918 123.898 82.9961 189.105z" />
    <glyph glyph-name="y" unicode="y" horiz-adv-x="608" 
d="M616.215 309.297c24.9072 19.7607 59.0117 -4.14062 30.6738 -28.373c-58.6992 -50.167 -115.729 -102.377 -170.97 -156.407c-1.02832 -72.4814 -4.55078 -144.864 -11.498 -216.697c-12.2959 -127.173 -34.9307 -282.814 -136.077 -372.692
c-46.2061 -41.0664 -105.01 -49.0146 -149.271 -1.95117c-39.6982 42.2051 -54.7246 107.845 -51.6602 164.265c6.84863 126.079 104.551 236.059 185.95 324.339c2.52734 2.7373 5.10742 5.4541 7.6416 8.19141c-1.63672 56.4854 -3.97461 112.945 -6.1416 169.405
c-6.48828 -16.9189 -13.252 -33.6738 -20.1201 -50.2197c-26.1963 -63.1055 -61.2324 -135.331 -133.321 -154.613c-78.3418 -20.9521 -135.999 34.6035 -157.96 104.485c-26.2949 83.6846 -19.3672 175.39 -5.53906 260.763
c11.5762 71.4932 161.79 101.107 151.988 9.19336c-6.47559 -60.7412 -16.709 -121.031 -14.3125 -182.382c1.10645 -28.2988 2.50781 -57.8154 10.6729 -85.04c3.95508 -13.1865 15.0596 -50.9268 32.6729 -51.2607c18.3008 -0.34082 40.0586 50.4092 47.084 64.5254
c14.8301 29.8174 27.4277 60.9375 39.1084 92.1035c18.0977 48.2754 34.0674 97.6182 45.126 148.021c-0.0917969 5.58496 -0.229492 11.1699 -0.294922 16.7549c-0.916992 74.459 153.795 128.123 158.712 42.3047c4.31445 -75.1924 7.13672 -150.921 7.50977 -226.67
c45.1455 42.5791 91.6924 83.5996 140.026 121.955zM304.301 -329.576c21.3643 96.4453 20.7803 195.942 18.4102 294.392c-60.9316 -67.9697 -122.053 -146.651 -136.019 -235.351c-7.73926 -49.1592 0.445312 -130.244 43.2666 -163.82
c28.2393 -22.1377 41.6553 13.3633 51.8369 35.7031c10.0967 22.1699 17.2402 45.3154 22.5049 69.0762z" />
    <glyph glyph-name="y" unicode="&#xff;" horiz-adv-x="608" 
d="M616.215 309.297c24.9072 19.7607 59.0117 -4.14062 30.6738 -28.373c-58.6992 -50.167 -115.729 -102.377 -170.97 -156.407c-1.02832 -72.4814 -4.55078 -144.864 -11.498 -216.697c-12.2959 -127.173 -34.9307 -282.814 -136.077 -372.692
c-46.2061 -41.0664 -105.01 -49.0146 -149.271 -1.95117c-39.6982 42.2051 -54.7246 107.845 -51.6602 164.265c6.84863 126.079 104.551 236.059 185.95 324.339c2.52734 2.7373 5.10742 5.4541 7.6416 8.19141c-1.63672 56.4854 -3.97461 112.945 -6.1416 169.405
c-6.48828 -16.9189 -13.252 -33.6738 -20.1201 -50.2197c-26.1963 -63.1055 -61.2324 -135.331 -133.321 -154.613c-78.3418 -20.9521 -135.999 34.6035 -157.96 104.485c-26.2949 83.6846 -19.3672 175.39 -5.53906 260.763
c11.5762 71.4932 161.79 101.107 151.988 9.19336c-6.47559 -60.7412 -16.709 -121.031 -14.3125 -182.382c1.10645 -28.2988 2.50781 -57.8154 10.6729 -85.04c3.95508 -13.1865 15.0596 -50.9268 32.6729 -51.2607c18.3008 -0.34082 40.0586 50.4092 47.084 64.5254
c14.8301 29.8174 27.4277 60.9375 39.1084 92.1035c18.0977 48.2754 34.0674 97.6182 45.126 148.021c-0.0917969 5.58496 -0.229492 11.1699 -0.294922 16.7549c-0.916992 74.459 153.795 128.123 158.712 42.3047c4.31445 -75.1924 7.13672 -150.921 7.50977 -226.67
c45.1455 42.5791 91.6924 83.5996 140.026 121.955zM304.301 -329.576c21.3643 96.4453 20.7803 195.942 18.4102 294.392c-60.9316 -67.9697 -122.053 -146.651 -136.019 -235.351c-7.73926 -49.1592 0.445312 -130.244 43.2666 -163.82
c28.2393 -22.1377 41.6553 13.3633 51.8369 35.7031c10.0967 22.1699 17.2402 45.3154 22.5049 69.0762z" />
    <glyph glyph-name="y" unicode="&#xfd;" horiz-adv-x="608" 
d="M616.215 309.297c24.9072 19.7607 59.0117 -4.14062 30.6738 -28.373c-58.6992 -50.167 -115.729 -102.377 -170.97 -156.407c-1.02832 -72.4814 -4.55078 -144.864 -11.498 -216.697c-12.2959 -127.173 -34.9307 -282.814 -136.077 -372.692
c-46.2061 -41.0664 -105.01 -49.0146 -149.271 -1.95117c-39.6982 42.2051 -54.7246 107.845 -51.6602 164.265c6.84863 126.079 104.551 236.059 185.95 324.339c2.52734 2.7373 5.10742 5.4541 7.6416 8.19141c-1.63672 56.4854 -3.97461 112.945 -6.1416 169.405
c-6.48828 -16.9189 -13.252 -33.6738 -20.1201 -50.2197c-26.1963 -63.1055 -61.2324 -135.331 -133.321 -154.613c-78.3418 -20.9521 -135.999 34.6035 -157.96 104.485c-26.2949 83.6846 -19.3672 175.39 -5.53906 260.763
c11.5762 71.4932 161.79 101.107 151.988 9.19336c-6.47559 -60.7412 -16.709 -121.031 -14.3125 -182.382c1.10645 -28.2988 2.50781 -57.8154 10.6729 -85.04c3.95508 -13.1865 15.0596 -50.9268 32.6729 -51.2607c18.3008 -0.34082 40.0586 50.4092 47.084 64.5254
c14.8301 29.8174 27.4277 60.9375 39.1084 92.1035c18.0977 48.2754 34.0674 97.6182 45.126 148.021c-0.0917969 5.58496 -0.229492 11.1699 -0.294922 16.7549c-0.916992 74.459 153.795 128.123 158.712 42.3047c4.31445 -75.1924 7.13672 -150.921 7.50977 -226.67
c45.1455 42.5791 91.6924 83.5996 140.026 121.955zM304.301 -329.576c21.3643 96.4453 20.7803 195.942 18.4102 294.392c-60.9316 -67.9697 -122.053 -146.651 -136.019 -235.351c-7.73926 -49.1592 0.445312 -130.244 43.2666 -163.82
c28.2393 -22.1377 41.6553 13.3633 51.8369 35.7031c10.0967 22.1699 17.2402 45.3154 22.5049 69.0762z" />
    <glyph glyph-name="z" unicode="z" horiz-adv-x="438" 
d="M438.279 282.989c25.6992 16.9844 61.208 -7.73438 30.2773 -28.0186c-48.6152 -31.8799 -94.5205 -67.3936 -137.302 -106.293c29.1299 -61.8281 50.2129 -130.682 51.5293 -198.966c2.13477 -110.955 -49.5322 -251.996 -147.647 -314.414
c-84.0312 -53.4609 -208.192 -22.4912 -206.503 91.4883c1.70898 115.538 77.084 226.82 145.729 314.224c6.54785 8.33496 13.3643 16.4346 20.1475 24.5664c-17.3574 40.0186 -39.0234 77.8701 -71.4727 107.917c-18.582 17.207 -43.7705 27.3164 -61.3184 44.8047
c-28.1738 28.082 -8.1709 68.7295 15.7607 91.332c20.998 19.8389 47.5742 34.6826 70.1826 52.8779c8.99609 7.24121 17.9004 14.4766 26.4775 22.209c1.59766 1.44043 8.36816 7.34668 14.9551 12.6309c-19.7607 3.53613 -47.7383 1.49316 -58.9805 1.95117
c-27.3691 1.11328 -54.751 1.79395 -82.1455 1.93164c-33.707 0.164062 -15.6885 38.4668 9.46094 39.501c43.6201 1.78711 87.0498 1.68262 130.656 -0.445312c25.0508 -1.21777 54.9277 -0.765625 72.7891 -21.7959c21.7441 -25.6074 0.850586 -62.0312 -13.3252 -85.8711
c-9.04883 -15.2227 -19.3477 -29.5947 -30.6816 -43.1943c17.4688 -11.6943 34.4854 -23.5449 49.4141 -40.1885c17.292 -19.2822 32.541 -40.7119 45.6104 -63.2285c39.8545 35.1602 82.0537 67.6748 126.387 96.9814zM239.294 -298.056
c34.4268 51.627 25.2227 103.723 17.9414 161.21c-6.90137 54.4883 -25.8438 106.737 -45.0742 157.959c-8.59668 -10.8887 -17.0361 -21.915 -25.2207 -33.1641c-35.3506 -48.5898 -67.7021 -101.278 -88.0977 -158.046
c-16.8857 -46.998 -38.8398 -118.576 5.42773 -157.384c44.1631 -38.709 105.821 -14.3652 135.023 29.4248z" />
    <glyph glyph-name="braceleft" unicode="{" horiz-adv-x="613" 
d="M510.742 -201.699c14.2734 19.8066 66.0059 15.5439 48.2686 -14.4043c-34.001 -57.4219 -107.91 -80.6523 -171.841 -69.9336c-77.916 13.0625 -128.765 86.6045 -157.338 154.306c-38.1523 90.3955 -52.6748 182.146 -68.9785 278.049
c-9.97852 58.7246 -19.8652 157.782 -86.46 180.221c-34.2109 11.5303 -28.2266 57.2451 -7.79785 77.7256c93.8652 94.1338 139.469 220.253 190.657 340.211c28.2588 66.2285 58.4238 131.934 103.333 188.753c29.3789 37.1709 74.9824 80.6006 125.667 57.7559
c24.1084 -10.8623 -7.93555 -40.1953 -25.3457 -35.8154c-32.9404 8.2959 -36.7969 -47.2012 -43.4492 -69.4561c-7.53613 -25.2275 -16.5391 -50.0234 -24.2197 -75.2314c-16.8008 -55.1367 -33.4844 -110.843 -53.3037 -164.984
c-31.3496 -85.6484 -69.2471 -169.483 -123.801 -242.384c30.6885 -25.7383 51.2998 -61.5732 64.7031 -103.727c24.835 -78.0996 38.0811 -159.741 48.9697 -240.768c10.1885 -75.8535 11.4189 -155.838 52.4785 -223.245
c25.1885 -41.3545 90.1143 -90.2773 128.457 -37.0723z" />
    <glyph glyph-name="verticalbar" unicode="|" horiz-adv-x="273" 
d="M207.904 414.523c5.98438 -201.639 13.7295 -403.356 14.8887 -605.066c0.242188 -42.1855 -37.5303 -73.9736 -75.833 -84.0898c-31.8213 -8.40039 -83.9463 -0.844727 -86.2773 40.876c-11.3799 203.924 -12.3945 408.993 -8.91797 613.198
c1.76172 103.085 4.96387 206.209 10.1689 309.176c2.56641 50.5996 5.10059 101.212 8.09277 151.792c2.99219 50.6123 3.77832 105.219 22.7988 152.597c9.87402 24.5859 65.0498 43.5938 78.793 13.3438c19.6035 -43.1416 16.5781 -100.243 18.5293 -146.927
c2.0625 -49.3164 4.15137 -98.6328 6.42969 -147.942c4.57715 -98.9268 8.3877 -197.972 11.3271 -296.957z" />
    <glyph glyph-name="braceright" unicode="}" horiz-adv-x="615" 
d="M550.989 424.063c40.7129 -40.4053 -18.7939 -87.9844 -54.5176 -99.8877c13.9727 4.64844 3.01172 1.90527 -3.61426 -8.01465c-8.52539 -12.7549 -14.3135 -27.3496 -18.8643 -41.9053c-12.9902 -41.5312 -20.3691 -85.0137 -27.0996 -127.92
c-14.5811 -92.9883 -33.0254 -181.236 -70.582 -268.168c-30.4199 -70.4189 -85.125 -142.828 -163.479 -162.064c-58.6855 -14.4111 -128.974 4.60938 -160.219 58.6982c-14.9346 25.8564 38.3037 49.4082 54.9873 26.8193
c40.791 -55.2412 107.484 -17.9531 132.856 29.4121c34.9707 65.2852 36.1104 143.738 45.5654 215.532c14.2676 108.303 30.4531 250.437 109.711 332.458c-56.5576 74.459 -96.3867 160.873 -126.276 249.317c-19.6758 58.2207 -36.5947 117.417 -54.542 176.175
c-7.86328 25.752 -16.1914 51.1299 -23.0332 77.1826c-5.82031 22.1572 -12.3545 83.7432 -48.5234 74.1768c-26.9697 -7.12988 -32.0371 23.7549 -9.12695 33.5693c55.6084 23.8135 98.5801 -17.502 131.724 -59.0195c41.2363 -51.6602 68.5264 -112.297 94.8213 -172.521
c51.418 -117.751 97.2578 -241.585 190.213 -333.84z" />
    <glyph glyph-name="nonbreakingspace" unicode="&#xa0;" horiz-adv-x="343" 
 />
    <glyph glyph-name="exclamdown" unicode="&#xa1;" horiz-adv-x="267" 
d="M205.532 223.204c5.99707 -158.313 13.752 -316.567 10.707 -475.024c-0.805664 -41.793 -36.2148 -72.8223 -74.8779 -83.0303c-31.3564 -8.27637 -82.9902 -0.837891 -85.1963 40.3662c-8.50488 158.699 -5.93848 317.595 -5.30371 476.465
c0.327148 81.124 2.5332 162.229 4.21582 243.333c1.65039 79.5068 3.09766 160.29 23.4277 237.453c6.66504 25.2871 69.502 60.2314 82.2764 22.2227c24.835 -73.876 28.5078 -151.89 32.7832 -229.308c4.26855 -77.4775 9.02832 -154.935 11.9678 -232.478z
M168.371 800.521c-6.61328 -26.8975 -66.6152 -58.0391 -81.5957 -22.0469c-14.8232 35.6191 -14.3584 75.9189 -11.8965 113.797c2.0752 31.9453 28.7041 54.4102 59.543 59.1836c27.1064 4.19727 57.6309 -8.96973 51.2998 -40.9541
c-7.19531 -36.3389 -8.53125 -74.0859 -17.3506 -109.979z" />
    <glyph glyph-name="cent" unicode="&#xa2;" horiz-adv-x="639" 
d="M538.514 263.256c6.50781 22.5166 57.6504 31.7012 49.7471 3.00293c-36.9736 -133.989 -97.1982 -299.982 -238.017 -355.165c-11.4453 -4.48535 -23.1982 -8.00098 -35.0752 -10.4756c-5.27734 -71.8467 -9.61816 -143.805 -12.8916 -215.854
c-1.14551 -25.2412 -54.3242 -42.1338 -53.3223 -14.2148c2.7041 75.4863 6.89453 150.921 12.3682 226.276c-33.1045 2.27832 -65.2207 13.4023 -92.5693 35.1797c-53.8145 42.8535 -82.833 111.131 -98.5146 176.2c-33.4648 138.88 -25.333 295.955 23.6689 430.16
c43.8164 120.01 131.704 257.521 264.351 291.13c14.5488 3.68652 27.8076 5.30371 39.8945 5.12695c7.59473 34.918 15.3467 69.7969 23.459 104.584c5.08789 21.8291 53.3301 30.4395 47.0645 2.84766c-8.95703 -39.4297 -17.4297 -78.9443 -25.6533 -118.498
c73.6729 -39.1152 79.0547 -173.517 78.4785 -254.052c-0.183594 -25.0771 -52.6357 -41.8584 -52.6484 -14.0312c-0.0263672 60.9902 0.569336 125.556 -25.9551 181.982c-3.58105 7.6084 -7.93555 14.9482 -13.0098 21.4043
c-51.6533 -261.424 -87.5801 -525.329 -109.455 -790.8c19.0273 -6.71777 41.0596 -4.37402 66.3662 12.1123c42.5195 27.7031 68.9717 78.833 90.5918 123.029c25.1953 51.4961 45.1982 105.009 61.1221 160.054zM270.83 12.666
c23.5186 257.986 62.665 514.669 115.739 768.164c-4.51758 -0.418945 -9.21191 -1.47949 -14.1484 -3.46973c-23.6631 -9.55957 -40.8438 -31.3301 -54.0303 -52.1836c-51.5225 -81.4844 -74.6094 -176.974 -93.3027 -270.623
c-20.7168 -103.792 -20.5137 -213.293 -0.373047 -317.202c6.39062 -32.9805 21.2275 -86.0352 46.1152 -124.686z" />
    <glyph glyph-name="sterling" unicode="&#xa3;" horiz-adv-x="603" 
d="M506.013 -48.2109c16.709 23.0801 62.96 11.2197 41.1045 -18.7549c-42.0029 -57.5859 -117.051 -74.0332 -184.556 -75.2441c-45.2695 -0.805664 -90.5264 4.37305 -134.808 13.5596c-29.1631 6.0498 -97.7227 35.4482 -127.37 15.8906
c-4.0332 -21.3389 -47.9609 -34.6045 -48.1641 -9.95312c-0.268555 32.6328 35.3701 47.3906 63.6689 52.5898c-0.183594 1.65625 -0.367188 3.3125 -0.333984 5.08691c1.01465 58.5742 8.14453 116.874 10.75 175.396c2.34375 52.623 3.11621 105.305 4.68066 157.96
c-22.8252 0.602539 -45.4795 2.0166 -67.7871 4.64258c-29.7061 3.50293 -2.33691 35.8018 14.7129 37.5762c18.1035 1.87891 36.332 3.08398 54.6123 4.0332c4.00098 106.574 10.6729 213.921 36.6074 317.66c22.8184 91.2793 76.9072 180.529 177.812 194.299
c95.4043 13.0166 159.558 -77.1104 182.808 -159.616c6.71094 -23.7939 -39.4688 -46.5664 -47.2607 -23.0537c-15.249 45.9961 -109.22 202.581 -160.035 110.811c-16.415 -29.6406 -20.0029 -66.6084 -23.2305 -99.7656
c-4.13184 -42.3887 -4.71484 -85.6943 -5.04883 -128.267c-0.549805 -69.6006 1.77441 -139.188 2.94629 -208.774c21.751 0.34082 43.4492 0.864258 65.0234 1.94434c36.7188 1.83301 17.3574 -42.0557 -10.3848 -43.3779
c-17.8555 -0.851562 -35.9199 -1.89941 -54.1094 -2.9668c0.0722656 -9.74316 0.125 -19.4922 0.105469 -29.2412c-0.209961 -93.335 2.40234 -191.751 -20.8086 -282.729c-5.02246 -19.6621 -17.7832 -35.7695 -33.9756 -47.6533
c2.38965 -0.517578 4.77344 -1.00879 7.16309 -1.47363c75.958 -14.7061 202.771 -33.9297 255.878 39.4229z" />
    <glyph glyph-name="currency" unicode="&#xa4;" horiz-adv-x="570" 
d="M476.747 560.927c16.7354 19.4336 59.5684 8.68066 37.4707 -17.1162c-28.3115 -33.0322 -56.6758 -66.0254 -85.0264 -99.0381c5.40137 -8.27637 10.3516 -16.8535 14.7383 -25.6465c39.6523 -79.4541 32.6396 -171.637 -14.2275 -242.573
c23.9121 -26.5244 47.1104 -53.6309 67.9775 -82.6953c16.1729 -22.5303 -37.4971 -50.1611 -54.3438 -26.5049c-16.0156 22.4912 -33.5107 43.7705 -51.6279 64.5527c-2.66504 -2.45508 -5.38867 -4.86426 -8.18457 -7.22168
c-69.1748 -58.2344 -170.066 -77.0254 -244.008 -32.0107c-12.3818 -19.3545 -23.748 -39.1738 -33.5566 -59.6348c-10.7246 -22.3662 -60.6953 -22.3594 -46.2188 7.63477c13.1738 27.2969 28.9863 53.4805 46.3574 78.8779
c-6.1543 6.40332 -12.0078 13.3564 -17.4287 21.043c-66.7197 94.6387 -40.7129 256.966 29.3984 344.186c-11.917 15.5244 -24.0957 30.8584 -36.916 45.7148c-17.3447 20.1006 21.4297 41.3408 38.4141 29.0312c16.0674 -11.6484 30.2627 -26.5771 43.3711 -42.7822
c13.9072 4.84473 28.751 6.66504 42.4551 4.27539c5.84668 -1.01465 11.7334 -3.16211 17.1289 -6.20703c66.6602 40.5098 134.382 13.5537 181.733 -37.8965c24.1797 27.9971 48.3594 55.9883 72.4932 84.0117zM243.47 469.174
c-4.9043 -14.2275 -10.6523 -27.9395 -16.3359 -41.624c20.3105 -28.5996 40.3857 -57.376 61.0039 -85.7529c25.8174 30.2695 51.7197 60.4795 77.7002 90.6182c-5.17871 10.3447 -11.8965 20.0811 -20.7031 28.9795c-24.8154 25.0645 -66.8115 41.8984 -100.434 25.5557
c1.15234 -5.55859 0.922852 -11.5361 -1.23145 -17.7764zM199.523 250.02c0.517578 -3.20215 1.1543 -6.41406 1.88086 -9.61621c16.4346 19.165 32.875 38.0674 48.8115 56.8652c-15.4912 21.5811 -30.5771 43.4561 -45.5576 65.4033
c-0.0722656 -0.321289 -0.170898 -0.635742 -0.243164 -0.957031c-8.09961 -36.6924 -10.8955 -74.4395 -4.8916 -111.695zM312.739 172.65c8.9834 5.66992 16.8652 12.583 23.9434 20.2891c-21.1484 23.2178 -42.0674 46.6582 -61.6318 71.2578
c-18.791 -21.8164 -37.9883 -43.8555 -56.7666 -66.3525c19.8262 -32.5869 52.8848 -51.4043 94.4551 -25.1943zM367.574 244.378c14.123 37.0264 18.0059 79.4941 15.2891 115.119c-0.713867 9.32324 -1.68945 18.5293 -3.16309 27.5322
c-22.334 -26.0918 -44.6152 -52.2363 -66.8115 -78.4463c17.3311 -22.1895 35.8086 -43.3711 54.6855 -64.2051z" />
    <glyph glyph-name="yen" unicode="&#xa5;" horiz-adv-x="760" 
d="M695.638 219.19c33.7334 -8.10547 1.72168 -48.7725 -23.3359 -42.7617c-15.0527 3.62109 -30.3867 5.83398 -45.832 7.34668c-6.07617 -35.5596 -14.5293 -70.4053 -26.4463 -103.817c-36.4766 -102.286 -117.876 -217.333 -236.721 -222.041
c-113.063 -4.47852 -161.986 110.522 -174.839 203.982c-3.54883 25.8037 49.8076 43.8945 54.6855 14.5811c7.53613 -45.2832 18.8311 -94.9854 52.1123 -128.986c15.4395 -15.7734 39.2988 -30.8262 62.3594 -30.0469c18.5166 0.628906 31.1729 17.2334 42.5195 30.459
c54.2266 63.1973 64.4277 158.647 68.4805 238.43c0.150391 2.92676 0.261719 5.85352 0.399414 8.78027c-12.8594 0.209961 -25.4893 -0.464844 -37.5234 -2.72363c-36.1162 -6.7832 -34.3613 35.2979 -3.4375 41.1055c14.1426 2.6582 28.416 3.60059 42.7354 3.67871
c0.254883 6.94727 0.509766 13.8877 0.732422 20.835c-13.8281 -0.0917969 -27.6826 -0.209961 -41.6357 -0.379883c-27.8203 -0.34082 -17.5801 30.9434 2.90039 35.2383c13.1348 2.75684 26.459 4.70801 39.8945 6.11621c1.55176 63.125 2.23242 126.303 3.77148 189.389
c0.438477 18.1436 1.09961 36.2471 1.72852 54.3643c-8.56445 -30.0078 -18.1436 -59.7471 -29.9814 -88.8838c-35.8545 -88.2344 -83.1143 -188.523 -171.401 -235.548c-49.0996 -26.1514 -103.844 -12.9707 -145.689 20.376
c-41.1973 32.8232 -59.1572 81.0264 -69.123 131.089c-24.1084 121.104 -8.17871 252.762 15.3008 372.805c14.4834 74.0527 169.222 106.509 159.335 9.6377c-10.2334 -100.249 -26.9561 -198.325 -27.9385 -299.38c-0.399414 -40.916 0.118164 -86.1338 13.0889 -125.341
c5.66406 -17.1348 13.416 -34.5186 27.4404 -46.4482c17.6191 -14.9873 27.165 -11.8506 43.0557 2.01074c31.4023 27.3887 52.1777 65.1025 71.0088 101.69c23.2041 45.0928 43.0957 91.8223 59.1963 139.914c28.5801 85.3535 42.834 174.563 77.2148 258.077
c0.333984 0.805664 0.832031 1.55176 1.30957 2.29785c1.55176 3.75195 3.20215 7.44434 5.0752 11.0322c12.25 23.499 65.7959 51.9609 87.7236 24.1338c35.9268 -45.6104 33.0527 -120.036 37.8262 -176.194c5.31641 -62.542 6.80957 -125.392 8.06641 -188.144
c1.04102 -51.9941 1.56445 -106.077 -1.27051 -160.055c14.5029 -1.26367 28.8945 -2.55371 43.1025 -3.71875c31.8076 -2.59961 1.67578 -42.0752 -21.8496 -40.0254c-8.10547 0.707031 -16.165 1.2959 -24.2246 1.85254
c-0.765625 -8.55078 -1.63672 -17.082 -2.625 -25.5938c21.2598 -1.65039 42.3564 -4.2168 62.8105 -9.13379z" />
    <glyph glyph-name="section" unicode="&#xa7;" horiz-adv-x="634" 
d="M492.329 91.5527c22.5693 -45.9375 37.6865 -95.1631 41.0127 -147.288c7.33301 -114.478 -58.8691 -232.006 -160.972 -285.407c-90.7881 -47.4824 -209.613 -22.7324 -266.079 65.2998c-57.7754 90.0742 -68.4805 191.731 -43.9268 294.895
c5.86035 24.6191 60.166 35.2852 53.749 3.25488c-22.5234 -112.428 -3.54883 -234.441 111.289 -285.087c35.167 -15.5049 67.1914 -17.0439 95.1758 10.9668c27.9971 28.0234 43.3965 66.0977 48.4385 105.068c12.25 94.6641 -28.9541 187.659 -78.9775 265.549
c-26.3604 41.0527 -54.5938 81.0518 -82.624 120.972c-26.2422 37.373 -55.3652 77.1689 -68.8789 121.332c-18.8311 61.5469 13.3564 119.971 61.874 157.305c-26.6484 47.0049 -41.4463 99.9287 -37.1777 161.05c8.33496 119.283 77.2285 239.68 194.548 280.065
c91.1025 31.3564 202.215 -24.4941 214.963 -124.488c3.30664 -25.9287 -48.1377 -43.542 -54.6855 -14.5752c-24.9785 110.51 -173.444 92.3994 -204.873 -2.69727c-29.9941 -90.7363 18.6865 -207.388 79.3369 -274.336
c71.624 -79.0547 163.021 -140.614 185.559 -251.831c14.8496 -73.2539 -18.1436 -167.774 -87.751 -200.047zM473.785 125.881c46.3496 20.2715 13.1074 99.8701 -10.9092 130.919c-35.8213 46.3369 -84.0771 80.6006 -129.15 117.051
c-40.7061 32.9209 -78.4727 68.6055 -107.982 108.709c-9.33008 -13.0361 -8.43945 -24.1279 -8.0791 -39.7705c0.746094 -32.4824 16.2109 -54.6592 38.9834 -76.7246c44.0654 -42.7031 90.9785 -82.8457 132.582 -128.057
c31.5264 -34.2637 60.7158 -71.7812 84.5557 -112.127z" />
    </font>
</defs>
</svg>
