<?xml version="1.0" standalone="no"?>
<!DOCTYPE svg PUBLIC "-//W3C//DTD SVG 1.1//EN" "http://www.w3.org/Graphics/SVG/1.1/DTD/svg11.dtd" >
<svg xmlns="http://www.w3.org/2000/svg" xmlns:xlink="http://www.w3.org/1999/xlink" version="1.1">
<metadata>
Created by FontForge 20170812 at Wed Aug  3 06:13:37 2022
 By www-data
</metadata>
<defs>
<font id="BonnyRegular" horiz-adv-x="0" >
  <font-face 
    font-family="Bonny"
    font-weight="400"
    font-stretch="normal"
    units-per-em="1000"
    panose-1="0 0 0 0 0 0 0 0 0 0"
    ascent="800"
    descent="-200"
    x-height="430.009"
    cap-height="1088.23"
    bbox="-467.648 -924.195 1979.24 1391.1"
    underline-thickness="50"
    underline-position="-100"
    unicode-range="U+000A-F000"
  />
<missing-glyph horiz-adv-x="527" 
d="M50 700h427v-700h-427v700zM78 680l185 -309l186 309h-371zM251 350l-180 300v-601zM264 329l-185 -308h370zM276 350l181 -303v605z" />
    <glyph glyph-name="tt.liga" unicode="tt" horiz-adv-x="861" 
d="M278.764 953.71c73.9463 -5.97363 103.485 -75.6943 95.2354 -142.029c-1.24316 -10.0264 -2.84863 -20.0127 -4.6709 -29.9727c41.2031 6.6377 82.3672 13.5391 123.524 20.5127c7.2041 13.2041 15.0654 26.1641 23.7236 38.8213
c42.1113 61.5586 112.584 119.084 191.997 112.663c58.7158 -4.74316 89.4062 -49.6963 95.4395 -101.215c41.2959 5.88184 82.6504 11.3223 124.117 15.9932c145.037 16.3418 291.285 23.4072 437.007 12.4668c114.564 -8.60547 282.279 -25.0791 305.562 -165.965
c4.26953 -25.8154 -50.1045 -44.0977 -54.9463 -14.6445c-13.6113 82.8672 -99.5439 114.472 -172.51 125.741c-81.4658 12.585 -164.609 16.3281 -246.957 15.9072c-131.781 -0.68457 -262.517 -13.7305 -392.719 -31.9346
c-18.6377 -146.162 -99.9453 -286.489 -205.358 -387.073c-1.8291 -1.74316 -3.98047 -3.51953 -6.34863 -5.19043c-0.125 -20.21 -0.144531 -40.4463 -0.131836 -60.7158c0.0458984 -60.9336 1.80273 -122.899 12.1055 -183.063
c8.65137 -50.5254 21.9805 -112.577 58.6377 -151.024c25.4072 -26.6514 49.1309 -27.2373 75.4199 0.196289c22.1113 23.0723 36.3018 53.3154 49.6631 81.9795c29.8877 64.0977 51.6436 131.479 72.6436 198.886c7.19043 23.0723 60.1572 32.3154 51.3223 3.10547
c-27.585 -91.1895 -54.9795 -190.517 -107.466 -271.134c-41.5322 -63.8018 -127.137 -118.702 -205.261 -91.2285c-70.9268 24.9404 -117.466 107.531 -139.117 175.293c-6.7832 21.2363 -12.1514 42.5908 -16.5 64.0645
c-18.0791 -52.0977 -39.5791 -103.038 -68.9336 -148.13c-41.5322 -63.8018 -127.137 -118.702 -205.261 -91.2285c-70.9268 24.9404 -117.466 107.531 -139.117 175.293c-24.1572 75.6367 -30.874 152.728 -34.4531 231.582
c-5.15137 113.472 -6.21094 233.193 24.5391 343.159c-42.835 -3.52637 -85.7422 -6.2168 -128.729 -7.5918c-119.268 -3.81543 -254.581 -8.32227 -353.06 70.1104c-21.9473 17.4805 23.9473 48.6904 43.6777 33.0068c60.4727 -48.0781 138.676 -58.7949 213.74 -60.6768
c79.499 -1.9873 159.301 2.05859 238.523 8.77539c13.2695 35.7168 30.4531 70.124 52.6631 102.598c42.1113 61.5586 112.584 119.084 191.997 112.663zM303.921 729.505c-40.2559 -6.1582 -80.5762 -11.9414 -120.971 -17.1846
c-13.2305 -76.8604 -18.1973 -153.951 -20 -231.404c64.1699 71.0059 114.544 156.491 140.971 248.589zM746.639 784.866c0.973633 5.56543 1.80957 11.3809 2.44141 17.3086c-40.7168 -6.11133 -81.3877 -12.6182 -122.032 -19.3281
c-5.09863 -20.2559 -8.97363 -40.7295 -12.5391 -60.3408c-14.5918 -80.2422 -19.8613 -160.722 -21.7432 -241.596c76.874 85.0645 134.077 190.872 153.873 303.956zM664.502 873.371c-9.66406 -14.2305 -17.335 -29.8555 -23.6377 -46.1904
c35.7559 5.9082 71.5381 11.6318 107.36 17.0928c-2.72363 14.8486 -8.59863 28.75 -19.5068 39.8223c-21.6709 22.0059 -48.8086 11.9727 -64.2158 -10.7246zM471.012 756.604c-37.1904 -6.27637 -74.3789 -12.4473 -111.569 -18.4072
c-31.9863 -119.597 -103.058 -231.253 -191.036 -315.199c-1.8291 -1.74316 -3.98047 -3.51953 -6.34863 -5.19043c-0.125 -20.21 -0.144531 -40.4463 -0.131836 -60.7158c0.0458984 -60.9336 1.7959 -122.899 12.1045 -183.063
c8.6582 -50.5254 21.9805 -112.577 58.6377 -151.024c25.4072 -26.6514 49.1309 -27.2373 75.4199 0.196289c22.1113 23.0723 36.3018 53.3154 49.6631 81.9795c28.9336 62.0586 50.2422 127.202 70.6299 192.464c-1.3291 17.9209 -2.3291 35.9268 -3.15137 54.0254
c-6.1377 135.123 -6.5 279.121 45.7822 404.936zM191.024 755.531c41.2168 5.34863 82.3604 11.2295 123.438 17.5449c0.783203 3.93457 1.66504 7.84277 2.35547 11.79c5.72363 32.6973 7.36816 73.5586 -17.9209 99.2295
c-21.6709 22.0059 -48.8086 11.9727 -64.2158 -10.7246c-23.2822 -34.3018 -35.1504 -76.6172 -43.6572 -117.84z" />
    <glyph glyph-name=".notdef" horiz-adv-x="527" 
d="M50 700h427v-700h-427v700zM78 680l185 -309l186 309h-371zM251 350l-180 300v-601zM264 329l-185 -308h370zM276 350l181 -303v605z" />
    <glyph glyph-name=".null" 
 />
    <glyph glyph-name=".null" 
 />
    <glyph glyph-name="LF" unicode="&#xa;" 
 />
    <glyph glyph-name="controlCR" unicode="&#xd;" 
 />
    <glyph glyph-name="space" unicode=" " horiz-adv-x="371" 
 />
    <glyph glyph-name="exclam" unicode="!" horiz-adv-x="270" 
d="M199.29 -4.80469c-14.1973 -27.5654 -54.4121 -40.0439 -79.8857 -21.9854c-33.3545 23.6514 -40.5391 71.1045 -47.8281 108.973c-7.0791 36.7627 -11.6846 73.5908 -14.29 110.919c-5.4209 77.7686 -6.3877 155.57 -6.94727 233.49
c-1.1582 161.504 0.584961 322.811 6.32129 484.216c1.47363 41.5322 35.3809 72.0977 74.2754 82.3672c29.7822 7.86816 84.1699 1.0459 84.5117 -40.0391c1.3418 -161.103 -1.39453 -322.113 -2.53223 -483.203c-0.572266 -80.5576 -2.09863 -161.273 -0.506836 -241.825
c0.75 -38.0723 1.23047 -76.1445 2.1582 -114.217c0.993164 -40.9795 3.98633 -81.2812 -15.2764 -118.695zM206.634 -106.505c10.6641 -24.5127 13.8223 -48.5322 12.6777 -75.0713c-1.375 -32.0781 -29.2432 -54.1367 -59.46 -59.0977
c-28.9863 -4.75684 -55.3408 9.28223 -51.2295 40.9004c1.9668 15.1514 1.4209 38.5654 1.375 57.1113c-0.0527344 23.7959 18.9932 41.21 39.9072 49.0518c17.3086 6.48633 47.5713 8.16406 56.7295 -12.8945z" />
    <glyph glyph-name="quotedbl" unicode="&#x22;" horiz-adv-x="380" 
d="M132.845 950.669c19.5127 1.06543 49.3096 -8.86035 49.0791 -33.3271c-0.237305 -25.1973 -5.4873 -49.7627 -7.44141 -74.8154c-2.0332 -26.0322 -1.16504 -52.1836 -7.2832 -77.749c-6.81543 -28.4795 -61.9395 -60.0977 -85.3408 -32.2432
c-40.2627 47.9199 -38.6182 122.313 -15.8096 177.629c9.7832 23.7236 42.5791 39.1904 66.7959 40.5059zM278.14 941.435c27.7432 1.50684 58.9004 -16.8213 50.7227 -48.5312c-6.7041 -26.0322 -12.0654 -52.3545 -15.9668 -78.9326
c-4.2959 -29.2627 -7.51953 -53.6572 -25.7822 -77.7822c-11.4473 -15.125 -40.3086 -25.2041 -58.1172 -16.0664c-53.874 27.6377 -41.0127 117.61 -26.6514 165.129c9.70996 32.1377 42.8213 54.3877 75.7949 56.1836z" />
    <glyph glyph-name="quotedbl" unicode="&#x201d;" horiz-adv-x="380" 
d="M132.845 950.669c19.5127 1.06543 49.3096 -8.86035 49.0791 -33.3271c-0.237305 -25.1973 -5.4873 -49.7627 -7.44141 -74.8154c-2.0332 -26.0322 -1.16504 -52.1836 -7.2832 -77.749c-6.81543 -28.4795 -61.9395 -60.0977 -85.3408 -32.2432
c-40.2627 47.9199 -38.6182 122.313 -15.8096 177.629c9.7832 23.7236 42.5791 39.1904 66.7959 40.5059zM278.14 941.435c27.7432 1.50684 58.9004 -16.8213 50.7227 -48.5312c-6.7041 -26.0322 -12.0654 -52.3545 -15.9668 -78.9326
c-4.2959 -29.2627 -7.51953 -53.6572 -25.7822 -77.7822c-11.4473 -15.125 -40.3086 -25.2041 -58.1172 -16.0664c-53.874 27.6377 -41.0127 117.61 -26.6514 165.129c9.70996 32.1377 42.8213 54.3877 75.7949 56.1836z" />
    <glyph glyph-name="quotedbl" unicode="&#x201c;" horiz-adv-x="380" 
d="M132.845 950.669c19.5127 1.06543 49.3096 -8.86035 49.0791 -33.3271c-0.237305 -25.1973 -5.4873 -49.7627 -7.44141 -74.8154c-2.0332 -26.0322 -1.16504 -52.1836 -7.2832 -77.749c-6.81543 -28.4795 -61.9395 -60.0977 -85.3408 -32.2432
c-40.2627 47.9199 -38.6182 122.313 -15.8096 177.629c9.7832 23.7236 42.5791 39.1904 66.7959 40.5059zM278.14 941.435c27.7432 1.50684 58.9004 -16.8213 50.7227 -48.5312c-6.7041 -26.0322 -12.0654 -52.3545 -15.9668 -78.9326
c-4.2959 -29.2627 -7.51953 -53.6572 -25.7822 -77.7822c-11.4473 -15.125 -40.3086 -25.2041 -58.1172 -16.0664c-53.874 27.6377 -41.0127 117.61 -26.6514 165.129c9.70996 32.1377 42.8213 54.3877 75.7949 56.1836z" />
    <glyph glyph-name="numbersign" unicode="#" horiz-adv-x="863" 
d="M794.45 309.271c40.1836 -7.16406 6.79395 -55.4414 -21.2578 -54.3291c-51.4336 2.08594 -102.769 6.17188 -154.097 10.3691c-3.7627 -70.1895 -6.03223 -140.53 -7.22949 -210.746c-1.60547 -93.9922 3.80273 -190.386 -10.8545 -283.431
c-5.08594 -32.2891 -80.3682 -67.0322 -95.1973 -25.71c-31.2959 87.1963 -35.4209 184.794 -39.7305 276.674c-3.98047 84.8213 -3.64453 169.472 -0.262695 254.26c-14.7959 0.75 -29.5986 1.35547 -44.4141 1.76953
c-8.38184 0.237305 -16.7832 0.296875 -25.1777 0.428711c-2.61816 -76.6436 -4.15137 -153.379 -5.10547 -230.036c-1.09863 -88.4658 6.2959 -181.819 -8.03906 -269.312c-4.07227 -24.8613 -32.5127 -43.8086 -55.0322 -49.7559
c-17.7168 -4.67773 -53.4463 -4.08594 -60.5908 18.5254c-27.0654 85.6436 -27.1514 183.168 -31.2305 272.259c-3.90137 85.1045 -4.14453 170.09 -2.27637 255.24c-55.0059 -2.7168 -109.946 -6.77637 -164.558 -11.5068
c-35.7363 -3.09863 -15.9209 38.999 10.0322 41.9131c51.8672 5.82227 103.695 9.89453 155.569 12.9072c1.0791 37.835 2.50684 75.6826 4.34277 113.524c-49.2168 0.716797 -98.4463 1.02637 -147.702 0.697266c-36.0322 -0.237305 -17.1309 42.0518 10.165 42.4727
c46.6182 0.716797 93.249 0.914062 139.88 0.782227c6.875 118.748 18.46 237.233 38.3936 354.383c12.5918 74.0059 165.603 104.946 157.412 9.52051c-10.4805 -122.104 -22.3887 -244.029 -31.0068 -366.231c24.1445 -0.612305 48.2822 -1.35547 72.4199 -2.23047
c12.585 132.433 32.9268 263.892 62.7354 393.87c15.9014 69.3408 167.524 100.091 151.373 9.1582c-24.1445 -135.912 -44.6641 -272.923 -58.6045 -410.44c50.7686 -3.03906 101.512 -6.59863 152.195 -10.8945c14.6973 -1.25 18.8486 -15.8555 13.3682 -27.4141
c-6.63184 -13.9736 -24.2695 -19.9668 -38.6113 -18.8291c-43.8018 3.4668 -87.6172 6.53223 -131.438 9.36133c-2.60547 -28.9268 -5.00684 -57.8672 -6.96777 -86.8271c-0.0722656 -1.14453 -0.125 -2.2959 -0.204102 -3.44727
c57.6963 -2.05957 115.202 -6.89551 171.701 -16.9746zM468.177 326.808c1.7627 32.8154 3.97559 65.584 6.62695 98.3076c-23.7959 1.0918 -47.5918 2.09863 -71.3945 2.97363c-2.15137 -34.2295 -4.0127 -68.4785 -5.44043 -102.768
c13.7891 0.341797 27.5781 0.664062 41.3867 0.94043c9.58496 0.19043 19.1963 0.375 28.8213 0.545898z" />
    <glyph glyph-name="dollar" unicode="$" horiz-adv-x="538" 
d="M447.146 276.725c57.1836 -113.433 61.6738 -261.743 -39.6406 -352.36c-26.125 -23.3682 -57.0127 -37.6641 -89.4072 -43.9531c2.61816 -35.8418 4.81543 -71.6836 5.625 -107.578c0.769531 -34.1641 -61.7168 -57.5713 -72.0254 -19.1973
c-11.1709 41.6045 -16.6113 84.6172 -19.2559 128.024c-51.0713 10.9932 -98.9395 39.7627 -131.084 82.7949c-34.3545 45.9932 -45.124 101.729 -35.71 157.827c8.75 52.1113 22.3223 115.979 78.1963 134.472c26.7432 8.84863 30.8223 -23.1514 9.0332 -33.2363
c-25.7363 -11.9082 -33.3477 -79.5977 -36.5059 -104.308c-4.8418 -37.8877 2.25684 -75.2227 21.5723 -108.274c17.1113 -29.2822 53.4131 -62.8477 92.5049 -78.4795c-0.75 36.6377 -0.302734 73.2617 -0.375 109.281c-0.164062 80.6172 4.94727 160.576 9.57227 240.812
c-23.4863 24.4404 -47.8477 48.0654 -71.9199 72.0654c-44.5781 44.4336 -90.1895 93.1562 -108.413 154.846c-34.7031 117.466 30.9736 235.629 140.248 284.971c27.9268 12.6113 58.1172 18.6709 87.6895 18.1904c5.19727 36.8418 10.6904 73.6572 16.7822 110.42
c3.63184 21.9473 50.7764 30.7822 46.6182 2.82227c-5.9082 -39.749 -11.5 -79.6758 -16.7168 -119.715c47.3477 -12.6836 88.584 -43.9795 109.887 -94.0186c9.88184 -23.21 -36.999 -45.9395 -47.4854 -23.1631c-13.7305 29.8154 -38.9668 54.6182 -68.5449 68.3486
c-12.0654 -99.3867 -21.3877 -199.379 -26.2822 -299.232c4.9082 -4.61816 9.76367 -9.23633 14.4805 -13.8809c50.0918 -49.335 99.3086 -104.301 131.157 -167.478zM253.429 503.586c7.0127 88.6631 16.1514 177.07 27.7568 265.253
c-19.1904 0.68457 -38.6641 -3.66406 -56.8945 -14.3682c-58.0449 -34.1045 -54.6768 -113.143 -31.249 -168.076c13.4863 -31.6309 35.7949 -58.1836 60.3867 -82.8086zM313.869 -64.4834c38.749 25.1836 50.5449 87.3154 47.8604 129.512
c-3.47363 54.6309 -29.1045 106.262 -62.1963 149.162c1.68457 -52.9668 4.25684 -105.939 6.46094 -158.688c1.67773 -40.0459 4.74316 -80.0186 7.875 -119.985z" />
    <glyph glyph-name="percent" unicode="%" horiz-adv-x="893" 
d="M782.157 927.649c-90.2617 -204.853 -189.972 -405.153 -276.76 -611.663c-43.5127 -103.545 -84.5977 -208.096 -125.814 -312.568c-41.6377 -105.551 -79.9658 -212.865 -131.537 -314.081c-20.2627 -39.7822 -118.59 -60.9131 -109.037 5.17188
c15.9473 110.354 53.0127 216.898 89.1367 322.016c36.9795 107.617 78.5381 213.615 121.241 319.074c84.6768 209.089 174.083 420.086 285.977 616.287c20.5459 36.0254 67.6172 60.3867 109.038 53.1768c40.5518 -7.05957 53.2422 -42.2627 37.7559 -77.4131z
M205.382 477.418c-100.071 -3.77637 -147.616 86.459 -155.188 173.964c-3.30273 38.1768 36.0586 69.6436 74.9795 77.1699c31.6641 35.0518 83.4395 56.7227 126.268 54.5977c78.959 -3.91406 127.07 -89.7939 118.643 -162.365
c-9.4209 -81.1309 -85.2617 -140.373 -164.701 -143.366zM185.093 712.803c4.99316 -5.875 8.7959 -13.3096 10.9082 -22.5664c8.11816 -35.5781 11.21 -85.0049 43.124 -109.058c19.835 -14.9473 36.085 -2.22363 42.8877 19.7236
c11.4277 36.8682 -2.30273 87.1768 -32.96 111.374c-18.0527 14.2432 -42.8877 11.625 -63.96 0.526367zM740.335 213.6c71.5059 -27.8682 112.479 -124.492 100.02 -196.952c-17.3291 -100.649 -139.769 -162.583 -234.136 -139.537
c-104.196 25.4473 -127.183 141.939 -97.8213 232.057c8.07227 24.7627 26.9795 42.8613 50.124 52.5713c43.1377 49.8418 122.117 75.1309 181.813 51.8613zM720.994 11.043c12.1973 36.0459 8.59766 89.4014 -12.7568 121.854
c-16.0791 24.4336 -47.4795 31.1309 -75.4727 24.2295c7.03906 -5.98047 12.0459 -14.2637 13.4141 -25.3096c5.0791 -41.0322 -5.4668 -93.3271 22.3555 -128.149c18.4141 -23.0459 43.1113 -20.2627 52.46 7.375z" />
    <glyph glyph-name="ampersand" unicode="&#x26;" horiz-adv-x="969" 
d="M915.461 205.634c26.6836 -151.979 -93.6631 -299.883 -211.918 -378.757c-136.84 -91.2686 -312.113 -147.063 -472.564 -86.3535c-162.826 61.6113 -215.121 241.372 -159.55 397.14c28.71 80.4795 78.1104 151.616 138.761 211.451
c11.9668 11.8086 24.3018 23.6045 36.9795 35.2559c-48.8018 0.68457 -92.7354 15.4209 -120.09 63.4199c-46.7295 81.999 19.3613 188.037 69.6299 251.904c56.2295 71.4395 134.301 128.024 220.839 156.307c82.749 27.0391 182.958 16.4863 225.372 -69.1904
c36.7695 -74.2822 21.4277 -156.433 -50.0977 -203.715c-22.6182 -14.9473 -54.0918 5.69727 -26.9346 24.9209c76.6768 54.2754 49.9268 172.84 -46.4736 179.905c-68.3867 5.0127 -137.011 -36.0264 -184.957 -81.3418
c-25.5654 -24.1641 -47.2031 -52.499 -64.2559 -83.1963c-15.5527 -28.0127 -35.3555 -64.8545 -27.3359 -97.9854c8.63184 -35.6768 42.7695 -32.999 72.4668 -30.1963c36.624 3.4541 81.8203 8.11816 115.833 22.0459c25.0322 10.2568 59.9727 17.5596 82.1895 -3.43359
c19.9863 -18.8877 13.0654 -51.2295 -4.61816 -69.2031c-54.335 -55.2227 -121.867 -95.7354 -176.116 -151.386c-43.3945 -44.5127 -83.0586 -96.4131 -103.288 -155.919c-34.9072 -102.702 -9.1709 -225.214 85.8799 -286.845
c100.952 -65.46 232.049 -35.3613 329.719 21.5059c97.2549 56.6172 198.596 167.103 186.951 288.298c-10.9277 113.748 -142.979 185.773 -242.418 123.859c-14.0127 -8.72363 -35.7031 -17.5986 -51.0713 -6.0791c-13.1182 9.83496 -13.085 28.8086 -0.861328 40.1904
c63.9268 59.5391 153.222 84.6572 237.562 55c72.9727 -25.6641 127.064 -91.834 140.367 -167.603z" />
    <glyph glyph-name="quotesingle" unicode="'" horiz-adv-x="237" 
d="M135.396 917.577c27.4863 1.49316 57.7031 -16.5312 49.9199 -47.748c-11.3682 -45.6309 -15.7559 -92.0908 -23.9531 -138.274c-6.4209 -36.1572 -74.0381 -62.4463 -94.9453 -25.6445c-25.335 44.5918 -16.5 109.012 -5.6123 156.386
c7.30273 31.7754 43.9863 53.6172 74.5908 55.2812z" />
    <glyph glyph-name="quotesingle" unicode="&#x2019;" horiz-adv-x="237" 
d="M135.396 917.577c27.4863 1.49316 57.7031 -16.5312 49.9199 -47.748c-11.3682 -45.6309 -15.7559 -92.0908 -23.9531 -138.274c-6.4209 -36.1572 -74.0381 -62.4463 -94.9453 -25.6445c-25.335 44.5918 -16.5 109.012 -5.6123 156.386
c7.30273 31.7754 43.9863 53.6172 74.5908 55.2812z" />
    <glyph glyph-name="quotesingle" unicode="&#x2018;" horiz-adv-x="237" 
d="M135.396 917.577c27.4863 1.49316 57.7031 -16.5312 49.9199 -47.748c-11.3682 -45.6309 -15.7559 -92.0908 -23.9531 -138.274c-6.4209 -36.1572 -74.0381 -62.4463 -94.9453 -25.6445c-25.335 44.5918 -16.5 109.012 -5.6123 156.386
c7.30273 31.7754 43.9863 53.6172 74.5908 55.2812z" />
    <glyph glyph-name="parenleft" unicode="(" horiz-adv-x="682" 
d="M615.458 -128.19c12.7822 -2.86133 20.8682 -15.0801 13.375 -27.4219c-69.0449 -113.584 -226.168 -141.195 -342.956 -91.9922c-128.912 54.3154 -192.944 186.353 -217.575 317.134c-25.1572 133.577 -23.9004 273.404 0.842773 407.008
c24.9014 134.472 84.3809 271.687 174.965 374.981c43.7627 49.9072 101.63 96.9199 167.523 112.275c49.8877 11.625 112.137 1.6582 147.827 -37.46c18.5723 -20.3486 -23.999 -47.21 -41.4199 -31.2959c-93.374 85.334 -195.583 -113.512 -225.8 -178.787
c-86.2617 -186.359 -94.709 -409.04 -59.3281 -608.761c17.0723 -96.3867 49.1445 -190.293 121.571 -259.562c63.6895 -60.9199 167.188 -77.3145 222.364 5.05273c7.98633 11.9209 23.4268 22.2295 38.6104 18.8281z" />
    <glyph glyph-name="parenright" unicode=")" horiz-adv-x="684" 
d="M622.951 452.439c17.6445 -132.176 15.3525 -277.838 -21.3242 -406.797c-38.5654 -135.623 -123.058 -258.022 -261.378 -304.035c-102.288 -34.0254 -230.431 -1.49316 -287.653 93.7754c-14.9141 24.8281 38.5723 50.2754 54.6045 26.6309
c29.9932 -44.2363 81.8018 -68.6572 134.873 -66.9004c46.8213 1.5459 86.6953 29.1572 116.82 63.0449c65.8477 74.0908 86.8018 172.103 99.21 268.003c13.3418 103.123 14.7764 208.365 0.165039 311.437c-14.7432 104.058 -43.0059 202.207 -89.874 296.436
c-22.2031 44.6377 -49.8408 87.8809 -84.1494 124.262c-28.7822 30.5254 -78.7686 83.2881 -121.169 43.6904c-17.9277 -16.7432 -62.4336 -8.61816 -38.1709 17.4209c43.9072 47.1113 117.294 58.2627 177.622 41.8613c71.2949 -19.3809 127.972 -72.9199 171.609 -130.412
c82.8281 -109.137 130.762 -243.26 148.814 -378.416z" />
    <glyph glyph-name="asterisk" unicode="*" horiz-adv-x="354" 
d="M290.365 772.73c12.9141 -0.789062 15.7861 -13.7715 11.4834 -23.5215c-5.42773 -12.2627 -21 -16.7959 -33.125 -16.1514c-9.93359 0.526367 -20.0586 1.02637 -30.249 1.5c10.4014 -9.20996 20.7891 -18.3809 31.0586 -27.5254
c20.3945 -18.1514 -23.8613 -47.8545 -41.9863 -31.7236c-9.02637 8.02637 -18.0596 16.1445 -27.0723 24.3154c0.420898 -8.48047 0.933594 -16.9668 1.60449 -25.4668c1.99316 -25.1709 -50.3223 -42.4795 -52.8945 -14.0986
c-1.31543 14.5391 -2.20996 29.0654 -2.76953 43.585c-11.4863 -13.4277 -22.7031 -27.1055 -33.6436 -41.0264c-15.6182 -19.8613 -57.085 -9.32812 -36.6113 16.7178c14.8027 18.8291 30.1777 37.1055 45.9932 54.9609
c-15.6572 -1.2168 -31.1045 -3.05273 -46.1572 -5.78906c-34.9209 -6.3418 -33.2764 34.5127 -3.32324 39.7236c16.6836 2.89453 33.6045 4.86133 50.6367 6.20996c-14.9404 15.8809 -29.335 32.21 -42.7168 49.249c-14.9863 19.085 22.8613 43.874 36.9072 27.8877
c10.2695 -11.6973 21.0322 -23.0654 32.0586 -34.249c0.93457 10.1055 1.97363 20.2109 3.24316 30.3223c3.22363 25.6572 58.4404 35.6768 54.0059 3.26953c-1.51953 -11.1055 -2.72363 -22.2041 -3.76953 -33.3096c9.05273 8.5332 18.1904 16.9873 27.499 25.2832
c21.2695 18.9541 51.9863 -3.28906 27.3154 -25.2822c-15.0127 -13.375 -29.5977 -27.1777 -43.8545 -41.2959c25.6572 -0.664062 51.2227 -2.0459 76.3672 -3.58496z" />
    <glyph glyph-name="plus" unicode="+" horiz-adv-x="414" 
d="M350.236 325.303c13.0986 -0.795898 15.9922 -13.9658 11.6172 -23.8477c-5.45996 -12.3613 -21.3086 -17.1445 -33.5781 -16.375c-21.1445 1.32227 -42.2959 2.1582 -63.4404 2.54004c-0.822266 -24.8027 -1.7627 -49.6055 -2.32227 -74.4209
c-0.716797 -31.875 2.3623 -67.4795 -8.09766 -97.8799c-9.70996 -28.2236 -51.9004 -51.8223 -78.1035 -29.5137c-46.0127 39.1641 -43.5459 132.945 -44.7432 188.386c-0.0722656 3.25684 -0.0849609 6.51953 -0.137695 9.78223
c-20.9932 -1.50684 -41.9727 -3.43457 -62.9268 -5.80273c-33.875 -3.82227 -15.5332 37.3545 9.6377 40.249c17.6973 2.0332 35.3945 3.65137 53.0986 5.0459c0.420898 54.3877 3.7168 108.854 11.6836 162.544c4.72363 31.8154 43.1377 53.21 71.3936 58.0127
c21.9336 3.73047 65.8281 -4.13086 63.6836 -35.8018c-4.06543 -60.0781 -9.47949 -119.919 -11.7891 -180.076c27.9863 -0.243164 55.9922 -1.14453 84.0244 -2.8418z" />
    <glyph glyph-name="comma" unicode="," horiz-adv-x="274" 
d="M179.007 99.293c38.3086 -2.43457 53.5176 -30.459 39.2549 -64.1689c-27.5781 -65.21 -46.6367 -152.399 -101.109 -200.366c-15.7764 -13.8818 -45.7695 -16.7432 -58.1641 2.44727c-17.3154 26.8086 -5.4668 68.8477 1.2373 98.1035
c8.25 36.0059 19.585 70.9131 31.6172 105.808c12.3027 35.6768 49.0918 60.5908 87.1641 58.1768z" />
    <glyph glyph-name="hyphen" unicode="-" horiz-adv-x="549" 
d="M462.646 361.743c29.8613 -3.8291 43.2549 -30.3467 33.8408 -56.7998c-10.2959 -28.9336 -45.9404 -51.1768 -76.2754 -51.5781c-111.899 -1.47363 -225.029 -1.1582 -336.692 6.44043c-27.6904 1.8877 -39.1182 28.8408 -30.9209 51.8799
c10.4277 29.3018 41.3545 42.5908 69.6768 47.1172c111.519 17.8086 228.484 17.2822 340.371 2.94043z" />
    <glyph glyph-name="period" unicode="." horiz-adv-x="206" 
d="M143.438 30.4648c14.1514 -21.0059 13.5332 -48.4863 11.5137 -72.6113c-1.03906 -12.3682 -12.9668 -23.6709 -22.0391 -31.0459c-11.3027 -9.19043 -26.1318 -14.0127 -40.4873 -15.2959c-10.9736 -0.980469 -25.2363 2.24316 -33.499 10.0586
c-8.77637 8.30957 -9.875 18.6973 -8.3418 29.9736c1.0127 7.43457 2.72363 20.0859 3.01953 24.6777c-0.256836 -2.375 -0.230469 -1.2168 0.0722656 3.46094c-0.00683594 4.86816 0.302734 9.72363 0.920898 14.5596c0.585938 4.34863 1.54688 8.59863 2.46094 12.8877
c7.31543 34.374 65.0254 55.0254 86.3799 23.335z" />
    <glyph glyph-name="slash" unicode="/" horiz-adv-x="700" 
d="M612.259 906.604c21.9541 -3.82227 44.1836 -24.2197 35.8486 -48.7979c-31.6768 -93.3076 -85.7939 -178.569 -131.261 -265.673c-44.9668 -86.1504 -87.9658 -173.333 -128.813 -261.516c-40.874 -88.249 -80.1436 -177.405 -117.781 -267.088
c-38.1641 -90.9131 -75.3281 -182.069 -136.262 -260.437c-18.375 -23.6309 -95.7949 -35.1309 -82.4531 13.6123c50.3682 183.971 121.413 362.797 199.971 536.459c39.9463 88.3018 82.0576 175.636 126.143 261.95c45.9668 89.999 91.3281 183.268 155.834 261.622
c17.6836 21.4795 51.1963 34.6699 78.7744 29.8672z" />
    <glyph glyph-name="zero" unicode="0" horiz-adv-x="670" 
d="M286.064 -120.002c-81.0576 5.98633 -137.057 63.5771 -168.648 134.662c-71.1104 160.03 -74.6631 350.311 -61.249 521.795c3.0918 39.5322 32.21 68.0186 70.4395 78.1172c0.487305 0.125 1.02051 0.216797 1.51367 0.334961
c29.5986 113.354 95.124 217.55 215.846 213.603c175.044 -5.73047 253.852 -168.511 270.891 -322.745c9.5332 -86.2686 5.75684 -177.169 -7.82812 -262.799c-13.0527 -82.2812 -37.0791 -170.03 -84.8086 -239.318c-52.7559 -76.584 -140.88 -130.695 -236.155 -123.649z
M322.616 783.637c-67.5518 -0.677734 -106.051 -69.0732 -127.708 -124.355c-6.07227 -15.4932 -11.2627 -31.2363 -15.6836 -47.1436c15.085 -5.86816 26.7295 -17.0459 27.5391 -35.5459c6.7627 -154.583 -5.4082 -315.798 45.0645 -464.736
c13.4209 -39.6113 36.6904 -103.308 85.0781 -110.479c42.335 -6.27637 69.4395 44.4727 85.7686 79.209c56.4199 120.038 67.0381 265.727 63.459 396.363c-1.7041 62.1641 -10.3027 125.308 -34.9209 182.873c-21.4141 50.085 -66.3086 124.439 -128.597 123.814z" />
    <glyph glyph-name="one" unicode="1" horiz-adv-x="518" 
d="M93.2334 632.658c-17.1445 -17.6777 -59.5078 -7.4209 -36.5938 16.7236c62.1963 65.5518 107.466 168.511 203.807 190.03c37.2168 8.30957 83.1172 -2.58496 110.959 -29.1113c35.71 -34.0195 39.6377 -94.709 44.4736 -140.879
c12.0195 -114.709 -3.3623 -233.872 -8.00684 -348.812c-4.44043 -109.762 -1.15723 -220.483 -9.20312 -329.962c-1.42773 -19.4072 -8.36816 -36.5127 -19.1709 -50.7559c24.3418 0.204102 48.7031 -0.289062 73.1045 -2.01953
c14.7568 -1.0459 18.7832 -16 13.3691 -27.4141c-6.5791 -13.875 -24.3096 -20.1318 -38.6123 -18.8359c-83.7031 7.59863 -167.604 -0.894531 -251.418 -1.57227c-35.6309 -0.289062 -16.8018 41.1836 10.0332 41.9141c12.6836 0.341797 25.3545 0.848633 38.0254 1.42773
c-0.908203 3.19043 -1.63184 6.52637 -1.89453 10.1846c-6.80957 93.5977 2.01953 189.333 8.28223 282.818c6.68457 99.7227 18.0986 198.984 33.0723 297.785c7.75684 51.1768 14.9414 102.998 18.3232 154.662c1.4668 22.3809 2.05859 44.7031 2.83496 67.0576
c0.427734 12.3877 7.93457 41.1699 -4.06543 50.5049c-32.2432 25.085 -90.2158 -45.4004 -106.827 -65.5381c-26.9932 -32.7236 -50.8809 -67.6768 -80.4922 -98.209z" />
    <glyph glyph-name="two" unicode="2" horiz-adv-x="628" 
d="M131.958 -144.804c-29.8613 -9.19727 -69.9111 -1.43555 -79.918 31.3271c-10.6318 34.8281 22.4668 64.959 49.71 79.7939c41.9727 22.8613 82.1494 46.2158 117.807 83.0508c38.8418 40.1182 69.9072 85.96 95.9727 135.235
c55.6172 105.137 94.8008 226.523 107.018 344.817c9.32227 90.249 -4.56543 276.943 -137.222 257.193c-55.3545 -8.24316 -103.209 -45.5449 -130.808 -93.3398c-24.9863 -43.2754 -49.249 -129.393 12.2236 -153.991
c26.6309 -10.6514 -10.8486 -44.1641 -31.8154 -36.0059c-119.887 46.6504 -28.7695 217.74 35.6963 271.285c79.6963 66.1963 202.668 78.4531 287.47 14.5527c99.6035 -75.0518 105.965 -224.615 89.4521 -336.535c-25.2559 -171.155 -99.2412 -363.494 -230.503 -487.4
c7.83496 0.480469 15.6904 0.776367 23.5723 0.829102c33.835 0.223633 66.9199 -3.99316 100.269 -9.28906c34.374 -5.4541 70.1035 -11.9404 102.59 4.02637c31.4668 15.4736 48.8945 -20.6113 17.5664 -36.0127c-59.1768 -29.0918 -118.86 -12.9736 -180.938 -5.30273
c-41.5254 5.125 -83.5381 3.625 -124.452 -3.95996c-37.46 -25.7559 -78.6045 -46.3867 -123.689 -60.2744z" />
    <glyph glyph-name="three" unicode="3" horiz-adv-x="650" 
d="M122.368 548.061c-45.2891 -5.17773 -72.2529 32.0645 -72.3652 74.4717c-0.105469 44.4795 20.1973 85.3145 47.1836 119.604c48.9199 62.1436 127.958 108.195 208.26 108.715c77.209 0.5 157.267 -46.4072 198.878 -111.091
c49.0059 -76.1836 30.2236 -179.563 -14.0977 -253.135c-14.4277 -23.9473 -31.3682 -45.4014 -50.2432 -64.6904c62.0645 -24.2168 114.432 -70.2754 140.812 -136.787c41.6045 -104.899 13.3223 -224.779 -56.2881 -310.64
c-67.5381 -83.3076 -165.386 -122.32 -271.246 -113.438c-95.5977 8.01953 -174.162 77.8604 -167.176 177.655c6.4209 91.6768 66.3936 184.011 165.109 188.859c38.3682 1.8877 18.0068 -43.7041 -10.835 -45.25c-101.577 -5.42773 -126.195 -171.728 -62.3809 -232.332
c64.8213 -61.5518 165.366 -41.2031 219.832 22.3877c49.7031 58.0322 64.999 155.979 44.7695 228.359c-19.9072 71.2422 -91.4258 130.609 -168.004 117.715c-30.585 -5.15137 -76.0576 -3.06543 -79.9131 37.8613c-3.7041 39.3018 37.46 67.834 70.2354 77.8867
c49.0977 15.0586 98.998 55.1436 128.195 105.149c36.7754 62.9795 50.9004 144.873 11.9072 210.312c-40.1641 67.4072 -134.933 66.8945 -196.761 33.2441c-33.9336 -18.4668 -63.9199 -46.5918 -83.7354 -79.8281c-10.2959 -17.2695 -18.1309 -36.4141 -20.3613 -56.5449
c-2.10547 -19.0586 0.44043 -59.1045 28.2559 -56.5713c35.6904 3.25 15.9277 -38.9463 -10.0322 -41.9131z" />
    <glyph glyph-name="four" unicode="4" horiz-adv-x="698" 
d="M135.688 217.736c-28.3486 -11.875 -100.834 -14.3994 -82.8604 37.5605c13.75 39.7168 84.4072 53.8682 119.723 60.4473c8.6709 1.61133 17.3486 2.86816 26.0391 3.8877c44.4141 66.9004 64.6436 154.991 84.9922 230.233
c23.9795 88.6768 41.6045 179.182 55.0059 270.029c3.43457 23.2822 52.6514 32.7422 49.3096 2.98633c-13.9014 -123.774 -41.4072 -245.279 -79.999 -363.686c-15.1318 -46.4268 -32.4346 -94.3535 -57.4609 -136.326c76.0586 1.07227 152.597 -11.335 228.24 -5.3418
c-0.125 4.94727 -0.243164 9.89453 -0.375 14.835c-3.92773 147.82 -6.7832 297.706 3.45996 445.263c2.9541 42.5586 34.9932 73.3408 75.874 84.1367c31.585 8.3418 84.3535 0.894531 86.3271 -40.9014c6.9668 -147.426 3.26953 -296.2 2.0918 -443.783
c-0.591797 -74.5059 0.165039 -149.123 -1.84766 -223.603c-2 -73.9727 3.61816 -157.051 -23.0391 -227.069c-12.3291 -32.3809 -75.6113 -70.249 -99.1504 -26.7822c-34.3086 63.374 -31.0391 147.991 -35.8154 218.306c-3.55957 52.4463 -5.125 105.137 -6.46094 157.768
c-73.2686 -6.25684 -146.274 3.63086 -220.451 4.20996c-13.3945 0.105469 -26.8809 -0.164062 -40.3408 -0.926758c-22.2236 -25.625 -49.2363 -46.9863 -83.2617 -61.2432zM132.748 263.547c-1.69043 -0.579102 -33.2041 -11.4668 -33.9932 -14.9209
c-0.618164 -2.7041 37 8.61816 40.1514 10.4541c5.4209 3.1582 10.5127 6.8291 15.4531 10.6973c-7.26953 -1.80273 -14.5 -3.79004 -21.6113 -6.23047z" />
    <glyph glyph-name="five" unicode="5" horiz-adv-x="661" 
d="M131.723 225.96c19.6777 19.3945 68.3027 10.1943 42.3359 -19.3447c-37.6045 -42.7363 -50.999 -99.1299 -33.8086 -153.912c15.7891 -50.3213 45.8408 -98.3535 103.63 -98.9854c95.5713 -1.0459 151.308 88.1768 168.709 171.406
c20.9473 100.189 -11.0459 203.721 -110.195 244.871c-48.96 20.3223 -99.4785 18.2891 -151.234 17.1182c-27.7236 -0.625 -56.9141 1.84863 -77.0322 23.1309c-22.5127 23.8223 -13.4668 58.0391 -7.66406 86.5391c12.0322 59.0908 27.4658 116.893 45.4062 174.458
c11.0654 35.4932 22.335 77.585 40.4922 113.881c-13.9277 -3.1709 -26.3877 -9.40723 -35.2695 -21.0254c-11.4668 -15.0127 -52.2949 -10.4932 -37.1436 11.0859c24.3154 34.6309 60.3936 47.46 99.1895 51.2891c3.25 3.78906 6.60547 7.4668 10.1973 10.8613
c15.0264 14.2041 59.0781 34.875 71.4072 4.7832c2.26953 -5.5332 3.77637 -11.1055 4.72363 -16.7168c2.26953 -0.151367 4.52637 -0.295898 6.7627 -0.44043c51.5449 -3.3291 103.005 -9.0332 154.695 -9.36914c45.6768 -0.295898 105.716 -2.49316 143.176 27.4014
c24.3027 19.4014 58.3545 -4.64453 30.0322 -27.7891c-62.2822 -50.8936 -157.445 -44.6045 -232.858 -40.1904c-34.3877 2.0127 -68.6768 5.45312 -103.012 8.18945c-1.52637 -9.11133 -3.5332 -18.2227 -5.36914 -27.2881
c-6.40137 -31.5781 -13.2305 -63.0312 -19.8418 -94.5635c-6.6709 -31.7959 -12.3223 -63.7754 -18.5986 -95.6436c-3.2627 -16.5791 -10.1572 -37.75 -13.2432 -57.5723c4.39453 0.137695 8.7959 0.262695 13.1973 0.301758
c17.5723 0.151367 35.1514 -0.591797 52.6836 -1.74316c31.96 -2.0918 62.5322 -8.07227 93.1309 -17.4209c54.0391 -16.5059 105.427 -46.7812 140.577 -91.6953c66.7754 -85.334 72.2158 -211.411 34.6436 -310.482
c-38.8477 -102.426 -127.899 -183.464 -233.753 -212.246c-94.249 -25.625 -212.721 -8.46094 -247.786 96.123c-28.9932 86.459 8.90723 192.951 71.8203 254.989z" />
    <glyph glyph-name="six" unicode="6" horiz-adv-x="598" 
d="M171.79 -82.1338c-27.3945 20.1182 -49.8545 47.3164 -67.499 76.2432c-44.8086 73.4727 -56.0186 163.563 -54.084 248.01c3.94043 172.103 50.5645 341.811 153.359 481.578c44.8877 61.0322 117.827 121.755 198.688 111.696
c54.9004 -6.8291 114.274 -43.3545 140.873 -91.9922c11.9736 -21.9014 -33.6768 -43.5986 -46.8408 -22.8486c-28.1709 44.4141 -86.499 68.9141 -131.735 33.3682c-20.9141 -16.4336 -33.3213 -41.9795 -46.249 -64.4727
c-14.9805 -26.0586 -28.7832 -52.8672 -40.125 -80.7422c-42.7432 -105.064 -61.2959 -221.444 -62.5459 -334.396c-0.0126953 -1.4209 0.0136719 -2.84863 0.000976562 -4.26953c51.9531 34.3281 114.419 52.459 177.069 40.0254
c70.4531 -13.9805 132.61 -66.2822 149.452 -137.294c35.6504 -150.354 -102.578 -293.352 -249.214 -290.746c-47.4141 0.848633 -81.9463 7.05859 -121.149 35.8408zM488.22 160.43c-34.1572 122.354 -187.254 136.944 -271.746 59.5967
c1.80957 -43.8086 6.4873 -87.4326 14.8486 -130.57c8.98047 -46.335 27.4805 -93.6562 66.0264 -122.965c11.9473 -9.0791 21.5391 -18.1641 36.374 -20.8418c14.1973 -2.55957 27.6836 -2.23047 41.8018 0.598633c27.0781 5.43457 49.4463 21.9932 67.7881 42.0723
c40.7227 44.585 61.3477 113.222 44.9072 172.109z" />
    <glyph glyph-name="seven" unicode="7" horiz-adv-x="558" 
d="M503.374 767.156c10.4932 -49.7295 -6.11328 -109.782 -18.9688 -157.755c-20.4795 -76.3145 -46.8604 -150.919 -72.6562 -225.675c25.2236 -0.25 50.4531 -0.868164 75.6895 -1.90137c41.5059 -1.69727 12.8682 -45.374 -17.1572 -43.8213
c-24.4141 1.2627 -48.835 2.11133 -73.2627 2.57812c-7.58496 -22.4277 -15.0518 -44.8809 -22.124 -67.4531c-17.2627 -55.0654 -33.3936 -110.591 -48.0312 -166.412c-15.6182 -59.5449 -22.1182 -124.938 -44.1445 -182.3
c-15.0918 -39.2891 -46.8613 -64.8809 -88.5781 -71.9727c-30.4004 -5.1709 -77.6826 5.30273 -79.0117 44.4209c-1.99316 58.5127 18.0459 119.525 33.5059 175.413c14.5195 52.4795 31.0391 104.242 49.5918 155.426c13.4736 37.1904 27.6572 74.0322 42.3877 110.63
c-24.1377 -1.14453 -48.2627 -2.625 -72.374 -4.48047c-34.6113 -2.65137 -15.9141 38.5654 9.76953 40.8086c26.5654 2.32227 53.1572 4.18457 79.7559 5.625c21.6309 52.0186 44.335 103.59 67.8086 154.964c22.6572 49.585 44.96 99.1768 66.5518 149.229
c10.7305 24.875 24.1182 51.6045 31.4277 77.7295c7.375 26.3682 -9.64453 32.9668 -33.96 39.5195c-103.519 27.8877 -215.8 -19.5918 -320.035 -23.1572c-35.5459 -1.2168 -16.8027 40.9209 10.0322 41.9141c110.413 4.09863 222.49 49.6699 333.067 23.5127
c37.6709 -8.9082 82.0518 -35.7568 90.7158 -76.8418z" />
    <glyph glyph-name="eight" unicode="8" horiz-adv-x="531" 
d="M75.1855 224.132c13.625 53.1699 31.6318 110.878 59.0127 161.252c-56.2227 73.8408 -96.3076 155.097 -80.8604 256.286c18.4736 121.005 180.05 291.943 298.114 169.004c49.5918 -51.6377 51.46 -126.722 44.8545 -193.872
c-7.0791 -72.0381 -26.7041 -141.682 -48.8877 -210.358c9.15137 -11.085 18.25 -22.21 27.1445 -33.4795c52.8018 -66.9268 96.9326 -136.709 105.104 -223.615c7.28906 -77.5449 -14.0264 -159.405 -71.5586 -214.378
c-104.774 -100.123 -274.292 -62.6758 -327.673 71.2305c-27.75 69.6172 -23.5391 146.544 -5.25 217.931zM361.82 21.0996c8.76953 75.3672 -42.8613 148.191 -88.5254 203.092c-33.3545 40.0977 -71.249 79.5244 -106.242 120.629
c-6.60547 -16.25 -12.4736 -32.8154 -18.2305 -49.1904c-16.3877 -46.585 -30.6045 -95.0781 -33.7363 -144.617c-5.36133 -84.6895 24.6973 -182.057 108.933 -217.629c34.0059 -14.3555 75.8604 -19.2109 103.038 10.1836
c19.2041 20.7695 31.5068 49.5654 34.7637 77.5322zM192.685 769.75c-12.2959 -28.8613 -3.0459 -75.4922 3.1123 -104.663c7.4541 -35.2754 20.4736 -68.8936 37.1182 -100.814c21.1777 -40.6182 48.3486 -76.9141 76.9268 -112.216
c22.0059 67.8086 39.5713 137.656 39.6309 208.136c0.0390625 44.1113 -9.4541 90.9795 -42.5391 122.637c-32.1445 30.7559 -93.7559 35.0518 -114.249 -13.0791z" />
    <glyph glyph-name="nine" unicode="9" horiz-adv-x="727" 
d="M343.894 118.238c-47.8018 -19.9404 -65.2861 -97.6367 -44.6221 -141.676c17.125 -36.4736 60.1045 -57.835 99.3799 -46.4795c75.3145 21.7627 89.9131 152.182 98.2686 214.964c14.1572 106.373 14.874 216.181 12.9131 323.363
c-0.966797 52.7363 -1.05859 105.242 -4.49316 157.899c-0.19043 2.875 -0.433594 5.78906 -0.722656 8.72949c-22.8682 -73.4199 -51.2559 -144.965 -93.1963 -209.675c-52.9141 -81.6436 -127.827 -160.991 -232.858 -156.53
c-59.96 2.53906 -105.531 36.0781 -121.998 94.3076c-16.4805 58.2822 0.551758 119.11 23.7295 173.32c41.6904 97.4854 120.531 187.826 210.194 243.924c43.2754 27.0781 90.373 49.8281 142.886 41.8213c27.0391 -4.11816 53.749 -13.8613 71.6172 -33.21
c0.743164 0.394531 1.48047 0.782227 2.24316 1.1377c13.0986 15.8945 36.0459 22.9473 56.0059 16.0986c58.0322 -19.9141 79.6895 -98.4326 91.5186 -152.03c12.9932 -58.8936 17.7041 -120.005 20.2041 -180.109c4.71094 -113.169 3.30957 -232.233 -22.9404 -342.988
c-25.3154 -106.801 -75.4004 -214.418 -179.044 -264.7c-83.0713 -40.3018 -186.643 -27.2363 -228.432 63.5654c-35.1377 76.3477 0.0917969 192.662 81.334 225.194c32.8613 13.1641 51.4199 -22.9932 18.0127 -36.9268zM388.276 480.45
c43.7559 80.0518 68.8545 168.419 91.9199 256.385c-1.375 1.25684 -2.625 2.71777 -3.55273 4.63184c-11.0459 22.8418 -35.5518 38.3086 -60.5186 28.5c-18.0459 -7.0918 -36.1445 -25.6973 -50.375 -38.2627c-29.8418 -26.3486 -57.1504 -57.9209 -78.5713 -91.4795
c-48.3281 -75.709 -94.9854 -162.451 -71.459 -254.917c3.57227 -14.0391 7.43359 -40.0127 20.4336 -49.0918c20.7959 -14.5264 53.6709 15.6113 66.7363 28.0322c34.7822 33.0586 62.4922 74.3076 85.3867 116.202z" />
    <glyph glyph-name="colon" unicode=":" horiz-adv-x="202" 
d="M98.7529 425.427c-9.77637 -2.92773 -23.2178 -2.93945 -32.6455 1.49512c-8.0791 3.80957 -15.4805 12.0986 -15.8623 21.4863c-0.552734 13.4541 -0.263672 26.1377 1.74316 39.5059c1.32227 8.82227 10.1641 19.1309 17.0459 24.0186
c6.2832 4.4668 13.2832 7.88086 20.6709 10.085c13.2305 3.9541 35.1846 2.0791 41.5264 -12.6973c5.11816 -11.9082 7.69727 -23.9609 10.1641 -36.6123c1.96094 -10.0527 -4.90039 -20.5918 -10.9004 -27.9795c-7.8877 -9.70996 -19.96 -15.7822 -31.7422 -19.3018z
M151.981 148.208c2.31543 -24.3223 -23.4268 -42.3164 -43.6045 -48.3496c-18.0391 -5.3877 -48.5322 -0.0849609 -49.6045 23.5068c-0.862305 19.0264 -0.198242 37.9072 4.79492 56.3545c4.5332 16.7432 20.1182 27.8223 36.0322 32.5791
c13.1514 3.92773 32.9668 1.76953 39.6709 -12.1318c7.9082 -16.3809 11 -33.9463 12.7109 -51.959z" />
    <glyph glyph-name="semicolon" unicode=";" horiz-adv-x="304" 
d="M139.103 451.044c-0.55957 4.50684 -1.125 9.01758 -1.69043 13.5303c-1.56543 12.4736 5.52637 24.2041 13.0195 33.4346c7.73047 9.52637 19.4668 16.1445 30.7559 20.375c6.72363 3.05957 13.8154 4.72363 21.2822 5.00684l13.2246 -0.632812
c6.19727 -0.625 11.6641 -2.81543 16.4072 -6.57812c5.09863 -2.56543 8.86816 -6.5459 11.3223 -11.9336c1.8877 -4.0127 3.78223 -8.02539 5.67676 -12.0381c3.35547 -7.3291 4.04004 -14.9082 2.04688 -22.7305c-1.48047 -6.53906 -4.33594 -12.3281 -8.5791 -17.374
c-3.81543 -6.22363 -8.76953 -11.4473 -14.875 -15.6709c-6.33496 -5.05273 -13.335 -8.75 -20.999 -11.0859c-6.98047 -3.1709 -14.3418 -4.90137 -22.085 -5.19727c-8.9668 -0.670898 -17.5781 0.756836 -25.835 4.26367
c-3.27637 2.14453 -6.5459 4.2959 -9.82227 6.44043c-5.8291 5.48633 -9.1123 12.2168 -9.84961 20.1904zM210.147 214.749c15.7695 2.44727 45.1787 -2.71582 44.3301 -24.9258c-3.47363 -89.8535 -43.3018 -175.398 -102.235 -242.608
c-18.0723 -20.6182 -56.2168 -36.5723 -82.7363 -22.875c-26.9014 13.9014 -22.9541 42.835 -6.375 63.5518c45.0781 56.3213 74.2949 118.412 97.3271 186.477c7.41406 21.9141 27.0059 36.8613 49.6895 40.3809z" />
    <glyph glyph-name="less" unicode="&#x3c;" horiz-adv-x="407" 
d="M332.918 190.245c66.2822 -32.6641 -21.7217 -114.313 -71.2539 -100.676s-98.8604 37.6572 -142.577 64.6367c-39.6836 24.4932 -92.6826 56.7822 -57.6504 108.591c13.7695 20.3545 38.1768 33.6572 58.249 47.0518c21.8545 14.5791 43.9727 28.7891 66.1035 42.9463
c42.6904 27.3154 84.5381 63.1113 131.274 82.9727c13.4336 5.70996 38.9199 5.0459 34.6699 -16.2041c-8.7168 -43.5518 -52.0518 -78.1826 -84.0254 -105.36c-25.3086 -21.5127 -54.8086 -40.3477 -81.2822 -61.5908c17.3555 -10.6113 41.3291 -20.7822 53.3154 -26.2627
c30.2891 -13.8291 63.4268 -21.4404 93.1768 -36.1045z" />
    <glyph glyph-name="equal" unicode="=" horiz-adv-x="490" 
d="M88.8418 280.33c-64.4072 -4.7627 -39.1436 70.96 6.65137 80.8682c97.874 21.1777 215.938 30.8418 314.325 8.25c65.3545 -15.0068 11.4473 -90.1699 -34.8682 -89.0645c-47.999 1.15137 -95.6172 7.48633 -143.688 7.77539
c-47.7432 0.289062 -94.8809 -4.31641 -142.42 -7.8291zM405.062 244.219c18.8877 -7.23633 20.7734 -29.4863 12.708 -45.2627c-10.2041 -19.9795 -34.5264 -32.0449 -55.9404 -33.9199c-48.6963 -4.2627 -98.8398 6.00684 -147.826 6.22363
c-45.9727 0.204102 -94.4717 -6.34863 -139.826 2.75c-33.3018 6.68457 -18.6504 42.9404 3.99414 53.585c50.4336 23.71 107.999 28.7227 163.064 30.6699c52.9531 1.86816 113.683 5.1709 163.826 -14.0459z" />
    <glyph glyph-name="greater" unicode="&#x3e;" horiz-adv-x="408" 
d="M250.407 383.657c35.0127 -12.8418 105.793 -23.0459 107.832 -70.7627c1.99316 -46.6436 -62.4072 -90.748 -92.5117 -118.116c-38.0977 -34.624 -78.3867 -75.8145 -126.083 -96.5967c-48.8086 -21.2627 -108.814 9.4873 -67.4727 63.1836
c25.0527 32.5322 64.5 56.4531 96.7891 81.4395c16.2764 12.5918 32.2627 25.5391 48.3682 38.3477c3.84863 3.06543 7.74316 6.06543 11.6113 9.09863c-9.4668 4.42773 -19.3223 8.24316 -26.5918 11.8486c-16.6777 8.26953 -33.4082 16.4473 -50.0391 24.8154
c-35.6113 17.9209 -66.0449 36.8809 -96.1494 62.6172c-21.4014 18.3027 18.5518 41.6055 34.7031 39.1709c55.8877 -8.4082 106.473 -25.5859 159.544 -45.0459z" />
    <glyph glyph-name="question" unicode="?" horiz-adv-x="635" 
d="M568.187 852.657c28.0391 -65.0781 17.21 -145.27 1.0127 -211.92c-18.2363 -75.0977 -46.7754 -146.886 -74.2021 -218.97c-54.3877 -142.933 -108.348 -283.661 -117.67 -438.054c-2.43457 -40.3809 -33.5127 -69.7158 -72.0381 -79.8867
c-28.9736 -7.65137 -81.5127 -1 -81.9668 38.835c-1.58594 139.445 44.8477 271.864 96.8799 399.376c46.3086 113.492 105.42 222.504 144.57 338.752c17.8291 52.9404 40.8877 120.65 19.2363 175.695c-21.9336 55.7686 -90.5703 70.9785 -144.398 65.0703
c-106.847 -11.7305 -203.221 -97.6836 -229.892 -201.241c-13.4404 -52.1836 -7.32227 -110.755 29.0264 -152.682c34.0459 -39.2627 98.0781 -57.4863 137.637 -15.4277c18.21 19.3555 63.4727 8.05273 39.21 -17.9004
c-43.2822 -46.2949 -113.505 -62.6104 -171.919 -35.4072c-57.3613 26.71 -91.1172 89.3145 -93.499 150.998c-4.7832 123.913 89.4521 237.905 197.812 287.233c107.939 49.1377 266.51 40.1445 320.2 -84.4717zM355.61 -234.197
c4.05273 -15.25 8.22461 -30.3828 10.9609 -45.9287c4.91406 -27.9932 -29.3682 -50.3086 -51.2695 -56.8545c-23.7295 -7.0918 -53.5908 0.625 -58.334 27.6377c-2.75 15.6445 -4.4082 31.5459 -5.43457 47.4014c-0.539062 8.3291 -0.170898 16.2305 0.473633 24.5527
c1.08594 14.0068 6.05957 22.0264 14.3291 33.1445c12.2236 16.4473 40.7559 24.7568 59.6309 16.4873c19.8613 -8.69727 24.5059 -27.125 29.6436 -46.4404z" />
    <glyph glyph-name="at" unicode="@" horiz-adv-x="1063" 
d="M673.797 556.372c17.5918 -62.249 15.6582 -124.568 10.0332 -188.508c-4.9209 -55.8936 -7.97363 -118.333 17.3809 -170.128c14.6377 -29.9072 48.2295 -92.0508 88.4658 -89.1689c53.124 3.80957 95.6758 84.1768 115.972 125.156
c48.499 97.9258 75.9727 220.733 32.96 325.317c-33.7432 82.0312 -100.854 148.215 -180.787 185.615c-188.017 87.9727 -405.5 -0.841797 -519.209 -163.569c-112.683 -161.248 -128.834 -393.633 6.7168 -547.96c61.4199 -69.9268 147.419 -119.399 241.075 -127.229
c91.9062 -7.69043 177.615 28.8877 243.318 91.7354c15.0654 14.4141 40.8545 28.0518 61.9795 17.1377c20.125 -10.4014 17.2373 -32.1113 4.77734 -47.6113c-84.124 -104.637 -231.53 -151.794 -362.312 -137.683c-129.354 13.9541 -246.411 93.3477 -315.278 202.333
c-137.143 217.036 -57.4131 499.696 132.452 655.7c173.451 142.511 440.81 193.879 625.234 43.4932c85.7812 -69.9531 138.432 -174.551 136.471 -285.904c-2.09863 -118.998 -51.9795 -260.878 -139.636 -344.377c-84.9922 -80.959 -242.306 -95.584 -306.384 21.1377
c-18.9541 34.5254 -27.4736 70.6895 -29.4863 107.649c-25.1904 -42.5059 -65.4004 -79.9199 -116.551 -85.8145c-52.2168 -6.01953 -99.0713 23.5723 -112.933 74.7891c-26.71 98.6699 43.7236 223.911 112.959 289.66c34.5391 32.8018 88.5977 72.959 139.577 61.3076
c13.7236 -3.1377 27.6973 -8.86133 39.2305 -17.1182c2.55273 1.875 5.39453 3.48633 8.36816 4.83496c22.0459 16.7822 58.2227 25.3213 65.6045 -0.796875zM525.346 336.574c21.5391 53.3018 38.0449 108.427 53.2812 163.841
c-4.57227 10.1904 -14.0195 17.4141 -24.9336 13.8809c-9.97363 -3.22363 -19.9072 -19.2822 -26.0449 -27.0449c-17.3486 -21.9473 -31.625 -46.2627 -43.9805 -71.3477c-24.8809 -50.5186 -39.9268 -106.32 -29.0781 -162.247
c0.18457 -0.960938 3.69727 -11.8428 4.93457 -19.165c1.1582 0.737305 2.44727 1.625 3.9082 2.86816c5.70996 4.86816 10.96 10.4209 15.7559 16.1836c19.9863 24.0322 34.5059 54.1895 46.1572 83.0312z" />
    <glyph glyph-name="A" unicode="A" horiz-adv-x="1290" 
d="M404.144 180.76c7.23633 55.0186 15.9775 109.828 26.6943 164.229c36.3018 184.543 85.6895 382.158 194.8 538.755c50.9336 73.1045 131.419 132.669 224.865 122.906c90.0381 -9.4082 148.195 -82.0186 191.819 -154.524
c98.9922 -164.523 120.623 -366.731 137.886 -554.058c19.4072 -210.629 25.0781 -422.455 29.3545 -633.827c1.5459 -76.4463 -157.294 -130.656 -162.208 -43.2363c-12.1514 216.3 -8.7168 433.152 -19.8809 649.531
c-0.137695 2.6582 -0.289062 5.33594 -0.426758 8.00684c-117.433 -10.9082 -232.352 -49.9473 -346.6 -76.9531c-65.7949 -15.5586 -131.722 -31.9463 -197.853 -47.499c-9.58496 -63.4463 -17.3545 -127.162 -23.1895 -191.062
c-7.45996 -81.6699 -17.3682 -163.386 -22.4863 -245.267c0.362305 -10.585 0.533203 -21.1963 0.355469 -31.8408c-0.0527344 -3.10547 -0.954102 -6.07227 -2.4541 -8.8418c-0.0332031 -0.730469 -0.0722656 -1.46777 -0.0986328 -2.20508
c0.848633 -2.33594 1.05957 -5.24414 0.256836 -8.9082c-0.348633 -1.59863 -0.697266 -3.19043 -1.0459 -4.78223c-3.61133 -16.4805 -43.3018 -31.3096 -44.7822 -7.3623c-0.216797 3.50684 -0.414062 6.99316 -0.625 10.4932
c-1.34863 2.07227 -2.11816 4.72363 -2.10547 8.0459c0.44043 123.479 -30.8682 258.608 -83.3086 370.652c-10.8086 23.0918 -23.6836 45.4004 -39.3145 65.4531c-5.6377 -0.966797 -11.2627 -2.05273 -16.9072 -2.98047
c-51.1113 -8.4082 -128.354 -24.2832 -174.722 8.06543c-46.6045 32.5127 -11.3945 84.2812 29.1836 101.926c73.9004 32.125 143.933 -3.45312 194.768 -57.8203c8.74316 1.88184 17.3877 3.75 25.8545 5.51953c27.4141 5.72363 54.8018 11.6113 82.1699 17.585z
M139.744 142.952c28.7559 -4.2627 58.8691 -2.4541 88.8486 1.90137c-3.0332 2.48047 -6.01953 5 -9.2168 7.31543c-22.5459 16.3555 -51.5322 29.875 -80.0322 28.6904c-15.8223 -0.658203 -37.6514 -8.85547 -28.0791 -26.6182
c4.3877 -8.14453 20.5918 -10.1182 28.4795 -11.2891zM386.025 7.51855c3.4082 42.5059 7.49316 85.0186 12.4209 127.452c-23.9863 -5.23633 -48.0127 -10.2031 -72.0654 -14.9336c10.6777 -15.4072 19.9082 -31.335 27.375 -46.9922
c12.5723 -26.3682 22.5723 -53.8809 31.2041 -81.8545c0.375 5.44727 0.625 10.8682 1.06543 16.3281zM645.955 761.238c-79.4326 -161.741 -117.104 -341.967 -148.723 -518.194c-2.5791 -14.375 -5.02637 -28.7695 -7.41406 -43.1768
c4.3291 0.987305 8.6709 1.92188 13 2.90918c116.755 26.6836 233.793 53.0381 349.541 83.8203c57.9531 15.4141 114.597 27.7627 172.346 34.0518c-9.0332 154.879 -25.0332 312.061 -84.71 456.242c-22.5654 54.5186 -66.6367 160.767 -140.372 155.267
c-78.3867 -5.85547 -124.09 -110.689 -153.668 -170.919z" />
    <glyph glyph-name="A" unicode="&#xc5;" horiz-adv-x="1290" 
d="M404.144 180.76c7.23633 55.0186 15.9775 109.828 26.6943 164.229c36.3018 184.543 85.6895 382.158 194.8 538.755c50.9336 73.1045 131.419 132.669 224.865 122.906c90.0381 -9.4082 148.195 -82.0186 191.819 -154.524
c98.9922 -164.523 120.623 -366.731 137.886 -554.058c19.4072 -210.629 25.0781 -422.455 29.3545 -633.827c1.5459 -76.4463 -157.294 -130.656 -162.208 -43.2363c-12.1514 216.3 -8.7168 433.152 -19.8809 649.531
c-0.137695 2.6582 -0.289062 5.33594 -0.426758 8.00684c-117.433 -10.9082 -232.352 -49.9473 -346.6 -76.9531c-65.7949 -15.5586 -131.722 -31.9463 -197.853 -47.499c-9.58496 -63.4463 -17.3545 -127.162 -23.1895 -191.062
c-7.45996 -81.6699 -17.3682 -163.386 -22.4863 -245.267c0.362305 -10.585 0.533203 -21.1963 0.355469 -31.8408c-0.0527344 -3.10547 -0.954102 -6.07227 -2.4541 -8.8418c-0.0332031 -0.730469 -0.0722656 -1.46777 -0.0986328 -2.20508
c0.848633 -2.33594 1.05957 -5.24414 0.256836 -8.9082c-0.348633 -1.59863 -0.697266 -3.19043 -1.0459 -4.78223c-3.61133 -16.4805 -43.3018 -31.3096 -44.7822 -7.3623c-0.216797 3.50684 -0.414062 6.99316 -0.625 10.4932
c-1.34863 2.07227 -2.11816 4.72363 -2.10547 8.0459c0.44043 123.479 -30.8682 258.608 -83.3086 370.652c-10.8086 23.0918 -23.6836 45.4004 -39.3145 65.4531c-5.6377 -0.966797 -11.2627 -2.05273 -16.9072 -2.98047
c-51.1113 -8.4082 -128.354 -24.2832 -174.722 8.06543c-46.6045 32.5127 -11.3945 84.2812 29.1836 101.926c73.9004 32.125 143.933 -3.45312 194.768 -57.8203c8.74316 1.88184 17.3877 3.75 25.8545 5.51953c27.4141 5.72363 54.8018 11.6113 82.1699 17.585z
M139.744 142.952c28.7559 -4.2627 58.8691 -2.4541 88.8486 1.90137c-3.0332 2.48047 -6.01953 5 -9.2168 7.31543c-22.5459 16.3555 -51.5322 29.875 -80.0322 28.6904c-15.8223 -0.658203 -37.6514 -8.85547 -28.0791 -26.6182
c4.3877 -8.14453 20.5918 -10.1182 28.4795 -11.2891zM386.025 7.51855c3.4082 42.5059 7.49316 85.0186 12.4209 127.452c-23.9863 -5.23633 -48.0127 -10.2031 -72.0654 -14.9336c10.6777 -15.4072 19.9082 -31.335 27.375 -46.9922
c12.5723 -26.3682 22.5723 -53.8809 31.2041 -81.8545c0.375 5.44727 0.625 10.8682 1.06543 16.3281zM645.955 761.238c-79.4326 -161.741 -117.104 -341.967 -148.723 -518.194c-2.5791 -14.375 -5.02637 -28.7695 -7.41406 -43.1768
c4.3291 0.987305 8.6709 1.92188 13 2.90918c116.755 26.6836 233.793 53.0381 349.541 83.8203c57.9531 15.4141 114.597 27.7627 172.346 34.0518c-9.0332 154.879 -25.0332 312.061 -84.71 456.242c-22.5654 54.5186 -66.6367 160.767 -140.372 155.267
c-78.3867 -5.85547 -124.09 -110.689 -153.668 -170.919z" />
    <glyph glyph-name="A" unicode="&#xc4;" horiz-adv-x="1290" 
d="M404.144 180.76c7.23633 55.0186 15.9775 109.828 26.6943 164.229c36.3018 184.543 85.6895 382.158 194.8 538.755c50.9336 73.1045 131.419 132.669 224.865 122.906c90.0381 -9.4082 148.195 -82.0186 191.819 -154.524
c98.9922 -164.523 120.623 -366.731 137.886 -554.058c19.4072 -210.629 25.0781 -422.455 29.3545 -633.827c1.5459 -76.4463 -157.294 -130.656 -162.208 -43.2363c-12.1514 216.3 -8.7168 433.152 -19.8809 649.531
c-0.137695 2.6582 -0.289062 5.33594 -0.426758 8.00684c-117.433 -10.9082 -232.352 -49.9473 -346.6 -76.9531c-65.7949 -15.5586 -131.722 -31.9463 -197.853 -47.499c-9.58496 -63.4463 -17.3545 -127.162 -23.1895 -191.062
c-7.45996 -81.6699 -17.3682 -163.386 -22.4863 -245.267c0.362305 -10.585 0.533203 -21.1963 0.355469 -31.8408c-0.0527344 -3.10547 -0.954102 -6.07227 -2.4541 -8.8418c-0.0332031 -0.730469 -0.0722656 -1.46777 -0.0986328 -2.20508
c0.848633 -2.33594 1.05957 -5.24414 0.256836 -8.9082c-0.348633 -1.59863 -0.697266 -3.19043 -1.0459 -4.78223c-3.61133 -16.4805 -43.3018 -31.3096 -44.7822 -7.3623c-0.216797 3.50684 -0.414062 6.99316 -0.625 10.4932
c-1.34863 2.07227 -2.11816 4.72363 -2.10547 8.0459c0.44043 123.479 -30.8682 258.608 -83.3086 370.652c-10.8086 23.0918 -23.6836 45.4004 -39.3145 65.4531c-5.6377 -0.966797 -11.2627 -2.05273 -16.9072 -2.98047
c-51.1113 -8.4082 -128.354 -24.2832 -174.722 8.06543c-46.6045 32.5127 -11.3945 84.2812 29.1836 101.926c73.9004 32.125 143.933 -3.45312 194.768 -57.8203c8.74316 1.88184 17.3877 3.75 25.8545 5.51953c27.4141 5.72363 54.8018 11.6113 82.1699 17.585z
M139.744 142.952c28.7559 -4.2627 58.8691 -2.4541 88.8486 1.90137c-3.0332 2.48047 -6.01953 5 -9.2168 7.31543c-22.5459 16.3555 -51.5322 29.875 -80.0322 28.6904c-15.8223 -0.658203 -37.6514 -8.85547 -28.0791 -26.6182
c4.3877 -8.14453 20.5918 -10.1182 28.4795 -11.2891zM386.025 7.51855c3.4082 42.5059 7.49316 85.0186 12.4209 127.452c-23.9863 -5.23633 -48.0127 -10.2031 -72.0654 -14.9336c10.6777 -15.4072 19.9082 -31.335 27.375 -46.9922
c12.5723 -26.3682 22.5723 -53.8809 31.2041 -81.8545c0.375 5.44727 0.625 10.8682 1.06543 16.3281zM645.955 761.238c-79.4326 -161.741 -117.104 -341.967 -148.723 -518.194c-2.5791 -14.375 -5.02637 -28.7695 -7.41406 -43.1768
c4.3291 0.987305 8.6709 1.92188 13 2.90918c116.755 26.6836 233.793 53.0381 349.541 83.8203c57.9531 15.4141 114.597 27.7627 172.346 34.0518c-9.0332 154.879 -25.0332 312.061 -84.71 456.242c-22.5654 54.5186 -66.6367 160.767 -140.372 155.267
c-78.3867 -5.85547 -124.09 -110.689 -153.668 -170.919z" />
    <glyph glyph-name="A" unicode="&#xc3;" horiz-adv-x="1290" 
d="M404.144 180.76c7.23633 55.0186 15.9775 109.828 26.6943 164.229c36.3018 184.543 85.6895 382.158 194.8 538.755c50.9336 73.1045 131.419 132.669 224.865 122.906c90.0381 -9.4082 148.195 -82.0186 191.819 -154.524
c98.9922 -164.523 120.623 -366.731 137.886 -554.058c19.4072 -210.629 25.0781 -422.455 29.3545 -633.827c1.5459 -76.4463 -157.294 -130.656 -162.208 -43.2363c-12.1514 216.3 -8.7168 433.152 -19.8809 649.531
c-0.137695 2.6582 -0.289062 5.33594 -0.426758 8.00684c-117.433 -10.9082 -232.352 -49.9473 -346.6 -76.9531c-65.7949 -15.5586 -131.722 -31.9463 -197.853 -47.499c-9.58496 -63.4463 -17.3545 -127.162 -23.1895 -191.062
c-7.45996 -81.6699 -17.3682 -163.386 -22.4863 -245.267c0.362305 -10.585 0.533203 -21.1963 0.355469 -31.8408c-0.0527344 -3.10547 -0.954102 -6.07227 -2.4541 -8.8418c-0.0332031 -0.730469 -0.0722656 -1.46777 -0.0986328 -2.20508
c0.848633 -2.33594 1.05957 -5.24414 0.256836 -8.9082c-0.348633 -1.59863 -0.697266 -3.19043 -1.0459 -4.78223c-3.61133 -16.4805 -43.3018 -31.3096 -44.7822 -7.3623c-0.216797 3.50684 -0.414062 6.99316 -0.625 10.4932
c-1.34863 2.07227 -2.11816 4.72363 -2.10547 8.0459c0.44043 123.479 -30.8682 258.608 -83.3086 370.652c-10.8086 23.0918 -23.6836 45.4004 -39.3145 65.4531c-5.6377 -0.966797 -11.2627 -2.05273 -16.9072 -2.98047
c-51.1113 -8.4082 -128.354 -24.2832 -174.722 8.06543c-46.6045 32.5127 -11.3945 84.2812 29.1836 101.926c73.9004 32.125 143.933 -3.45312 194.768 -57.8203c8.74316 1.88184 17.3877 3.75 25.8545 5.51953c27.4141 5.72363 54.8018 11.6113 82.1699 17.585z
M139.744 142.952c28.7559 -4.2627 58.8691 -2.4541 88.8486 1.90137c-3.0332 2.48047 -6.01953 5 -9.2168 7.31543c-22.5459 16.3555 -51.5322 29.875 -80.0322 28.6904c-15.8223 -0.658203 -37.6514 -8.85547 -28.0791 -26.6182
c4.3877 -8.14453 20.5918 -10.1182 28.4795 -11.2891zM386.025 7.51855c3.4082 42.5059 7.49316 85.0186 12.4209 127.452c-23.9863 -5.23633 -48.0127 -10.2031 -72.0654 -14.9336c10.6777 -15.4072 19.9082 -31.335 27.375 -46.9922
c12.5723 -26.3682 22.5723 -53.8809 31.2041 -81.8545c0.375 5.44727 0.625 10.8682 1.06543 16.3281zM645.955 761.238c-79.4326 -161.741 -117.104 -341.967 -148.723 -518.194c-2.5791 -14.375 -5.02637 -28.7695 -7.41406 -43.1768
c4.3291 0.987305 8.6709 1.92188 13 2.90918c116.755 26.6836 233.793 53.0381 349.541 83.8203c57.9531 15.4141 114.597 27.7627 172.346 34.0518c-9.0332 154.879 -25.0332 312.061 -84.71 456.242c-22.5654 54.5186 -66.6367 160.767 -140.372 155.267
c-78.3867 -5.85547 -124.09 -110.689 -153.668 -170.919z" />
    <glyph glyph-name="A" unicode="&#xc2;" horiz-adv-x="1290" 
d="M404.144 180.76c7.23633 55.0186 15.9775 109.828 26.6943 164.229c36.3018 184.543 85.6895 382.158 194.8 538.755c50.9336 73.1045 131.419 132.669 224.865 122.906c90.0381 -9.4082 148.195 -82.0186 191.819 -154.524
c98.9922 -164.523 120.623 -366.731 137.886 -554.058c19.4072 -210.629 25.0781 -422.455 29.3545 -633.827c1.5459 -76.4463 -157.294 -130.656 -162.208 -43.2363c-12.1514 216.3 -8.7168 433.152 -19.8809 649.531
c-0.137695 2.6582 -0.289062 5.33594 -0.426758 8.00684c-117.433 -10.9082 -232.352 -49.9473 -346.6 -76.9531c-65.7949 -15.5586 -131.722 -31.9463 -197.853 -47.499c-9.58496 -63.4463 -17.3545 -127.162 -23.1895 -191.062
c-7.45996 -81.6699 -17.3682 -163.386 -22.4863 -245.267c0.362305 -10.585 0.533203 -21.1963 0.355469 -31.8408c-0.0527344 -3.10547 -0.954102 -6.07227 -2.4541 -8.8418c-0.0332031 -0.730469 -0.0722656 -1.46777 -0.0986328 -2.20508
c0.848633 -2.33594 1.05957 -5.24414 0.256836 -8.9082c-0.348633 -1.59863 -0.697266 -3.19043 -1.0459 -4.78223c-3.61133 -16.4805 -43.3018 -31.3096 -44.7822 -7.3623c-0.216797 3.50684 -0.414062 6.99316 -0.625 10.4932
c-1.34863 2.07227 -2.11816 4.72363 -2.10547 8.0459c0.44043 123.479 -30.8682 258.608 -83.3086 370.652c-10.8086 23.0918 -23.6836 45.4004 -39.3145 65.4531c-5.6377 -0.966797 -11.2627 -2.05273 -16.9072 -2.98047
c-51.1113 -8.4082 -128.354 -24.2832 -174.722 8.06543c-46.6045 32.5127 -11.3945 84.2812 29.1836 101.926c73.9004 32.125 143.933 -3.45312 194.768 -57.8203c8.74316 1.88184 17.3877 3.75 25.8545 5.51953c27.4141 5.72363 54.8018 11.6113 82.1699 17.585z
M139.744 142.952c28.7559 -4.2627 58.8691 -2.4541 88.8486 1.90137c-3.0332 2.48047 -6.01953 5 -9.2168 7.31543c-22.5459 16.3555 -51.5322 29.875 -80.0322 28.6904c-15.8223 -0.658203 -37.6514 -8.85547 -28.0791 -26.6182
c4.3877 -8.14453 20.5918 -10.1182 28.4795 -11.2891zM386.025 7.51855c3.4082 42.5059 7.49316 85.0186 12.4209 127.452c-23.9863 -5.23633 -48.0127 -10.2031 -72.0654 -14.9336c10.6777 -15.4072 19.9082 -31.335 27.375 -46.9922
c12.5723 -26.3682 22.5723 -53.8809 31.2041 -81.8545c0.375 5.44727 0.625 10.8682 1.06543 16.3281zM645.955 761.238c-79.4326 -161.741 -117.104 -341.967 -148.723 -518.194c-2.5791 -14.375 -5.02637 -28.7695 -7.41406 -43.1768
c4.3291 0.987305 8.6709 1.92188 13 2.90918c116.755 26.6836 233.793 53.0381 349.541 83.8203c57.9531 15.4141 114.597 27.7627 172.346 34.0518c-9.0332 154.879 -25.0332 312.061 -84.71 456.242c-22.5654 54.5186 -66.6367 160.767 -140.372 155.267
c-78.3867 -5.85547 -124.09 -110.689 -153.668 -170.919z" />
    <glyph glyph-name="A" unicode="&#xc1;" horiz-adv-x="1290" 
d="M404.144 180.76c7.23633 55.0186 15.9775 109.828 26.6943 164.229c36.3018 184.543 85.6895 382.158 194.8 538.755c50.9336 73.1045 131.419 132.669 224.865 122.906c90.0381 -9.4082 148.195 -82.0186 191.819 -154.524
c98.9922 -164.523 120.623 -366.731 137.886 -554.058c19.4072 -210.629 25.0781 -422.455 29.3545 -633.827c1.5459 -76.4463 -157.294 -130.656 -162.208 -43.2363c-12.1514 216.3 -8.7168 433.152 -19.8809 649.531
c-0.137695 2.6582 -0.289062 5.33594 -0.426758 8.00684c-117.433 -10.9082 -232.352 -49.9473 -346.6 -76.9531c-65.7949 -15.5586 -131.722 -31.9463 -197.853 -47.499c-9.58496 -63.4463 -17.3545 -127.162 -23.1895 -191.062
c-7.45996 -81.6699 -17.3682 -163.386 -22.4863 -245.267c0.362305 -10.585 0.533203 -21.1963 0.355469 -31.8408c-0.0527344 -3.10547 -0.954102 -6.07227 -2.4541 -8.8418c-0.0332031 -0.730469 -0.0722656 -1.46777 -0.0986328 -2.20508
c0.848633 -2.33594 1.05957 -5.24414 0.256836 -8.9082c-0.348633 -1.59863 -0.697266 -3.19043 -1.0459 -4.78223c-3.61133 -16.4805 -43.3018 -31.3096 -44.7822 -7.3623c-0.216797 3.50684 -0.414062 6.99316 -0.625 10.4932
c-1.34863 2.07227 -2.11816 4.72363 -2.10547 8.0459c0.44043 123.479 -30.8682 258.608 -83.3086 370.652c-10.8086 23.0918 -23.6836 45.4004 -39.3145 65.4531c-5.6377 -0.966797 -11.2627 -2.05273 -16.9072 -2.98047
c-51.1113 -8.4082 -128.354 -24.2832 -174.722 8.06543c-46.6045 32.5127 -11.3945 84.2812 29.1836 101.926c73.9004 32.125 143.933 -3.45312 194.768 -57.8203c8.74316 1.88184 17.3877 3.75 25.8545 5.51953c27.4141 5.72363 54.8018 11.6113 82.1699 17.585z
M139.744 142.952c28.7559 -4.2627 58.8691 -2.4541 88.8486 1.90137c-3.0332 2.48047 -6.01953 5 -9.2168 7.31543c-22.5459 16.3555 -51.5322 29.875 -80.0322 28.6904c-15.8223 -0.658203 -37.6514 -8.85547 -28.0791 -26.6182
c4.3877 -8.14453 20.5918 -10.1182 28.4795 -11.2891zM386.025 7.51855c3.4082 42.5059 7.49316 85.0186 12.4209 127.452c-23.9863 -5.23633 -48.0127 -10.2031 -72.0654 -14.9336c10.6777 -15.4072 19.9082 -31.335 27.375 -46.9922
c12.5723 -26.3682 22.5723 -53.8809 31.2041 -81.8545c0.375 5.44727 0.625 10.8682 1.06543 16.3281zM645.955 761.238c-79.4326 -161.741 -117.104 -341.967 -148.723 -518.194c-2.5791 -14.375 -5.02637 -28.7695 -7.41406 -43.1768
c4.3291 0.987305 8.6709 1.92188 13 2.90918c116.755 26.6836 233.793 53.0381 349.541 83.8203c57.9531 15.4141 114.597 27.7627 172.346 34.0518c-9.0332 154.879 -25.0332 312.061 -84.71 456.242c-22.5654 54.5186 -66.6367 160.767 -140.372 155.267
c-78.3867 -5.85547 -124.09 -110.689 -153.668 -170.919z" />
    <glyph glyph-name="B" unicode="B" horiz-adv-x="1301" 
d="M60.6904 343.08c-76.4268 364.198 270.381 673.396 611.501 692.929c140.419 8.03906 399.685 -45.0781 355.915 -239.22c-19.9072 -88.3018 -90.7158 -162.301 -156.445 -220.103c-19.0195 -16.7305 -38.8281 -32.1641 -59.1104 -46.874
c28.3809 -3.14453 56.2031 -7.7959 82.6631 -13.9668c77.0576 -17.96 153.675 -51.1836 210.397 -107.827c102.702 -102.558 120.813 -260.114 98.0576 -397.31c-25.1309 -151.53 -114.281 -283.752 -248.075 -359.586
c-116.637 -66.1045 -295.213 -90.3477 -392.811 22.1904c-100.499 115.887 -81.8018 281.602 -38.6777 417.237c8.49316 26.71 35.7363 46.1113 63.7295 47.2363c24.7695 1 47.5322 -13.7891 42.6504 -40.8018c-21.1836 -117.202 -54.5186 -278.785 65.0518 -357.791
c41.0391 -27.1182 90.2227 -25.8223 135.887 -13.2109c39.9141 11.0332 77.6572 33.5791 107.302 63.7168c74.5781 75.8145 108.821 181.083 108.532 286.345c-0.283203 104.748 -32.4404 212.582 -127.61 268.864c-108.894 64.4004 -228.372 47.3477 -348.548 55.1768
c-26.7627 1.74316 -44.7754 25.4141 -43.6572 50.3477c1.28906 28.75 27.5186 54.2295 52.3076 65.835c79.0576 36.9932 157.043 82.3281 225.989 136.024c59.5391 46.3682 148.445 119.439 146.058 203.03c-2.36816 83.0645 -106.176 113.972 -172.247 126.182
c-86.2031 15.9277 -175.354 6.88184 -258.8 -18.6113c-146.531 -44.7627 -280.7 -143.215 -354.028 -279.318c-78.3672 -145.458 -75.7158 -308.311 -5.0459 -455.559c22.9209 -47.749 49.6973 -93.498 75.7822 -139.432
c-0.262695 4.14453 -0.539062 8.28223 -0.795898 12.4199c-9.64453 154.419 -8.52637 312.509 12.5654 465.901c4.61133 33.5322 45.7881 56.1895 75.334 61.209c24.4473 4.1582 67.8213 -4.3877 67.1963 -37.7754c-2.61816 -139.505 -10.3545 -278.621 -10.0713 -418.218
c0.144531 -70.6895 1.24316 -141.3 4.5791 -211.917c1.5918 -33.7559 4.57227 -67.5254 7.3877 -101.196c1.4082 -16.875 3.56641 -33.6973 4.80957 -50.5918c0.795898 -10.8291 -2.86816 -20.2959 -2.73633 -30.5391c0.204102 -16.0986 -14.46 -28.1113 -28.9004 -32.0459
c-31.75 -8.64453 -57.8027 0.644531 -72.3555 30.2432c-16.2695 33.0918 -26.875 69.4863 -33.9541 105.591c-4.68457 23.9209 -8.31641 47.999 -11.3291 72.1631c-62.8281 129.643 -158.34 245.549 -188.497 389.251z" />
    <glyph glyph-name="C" unicode="C" horiz-adv-x="942" 
d="M573.424 523.834c-15.2236 -0.533203 -30.2803 8.61426 -26.7734 25.6006c10.9141 52.9004 11.4014 104.617 2.42773 157.84c-6.7041 39.7559 -15.7568 88.1963 -43.1182 119.656c-52.624 60.5059 -127.998 -40.8613 -155.215 -81.334
c-92.8672 -138.104 -128.959 -316.134 -129.229 -480.421c-0.144531 -91.8799 9.38184 -184.089 30.2832 -273.601c18.6113 -79.7031 43.1641 -163.313 87.0117 -233.148c36.0391 -57.4004 108.091 -117.558 180.813 -103.755
c75.6963 14.3682 127.347 99.8672 162.544 160.854c43.4863 75.3477 76.1768 156.807 99.9395 240.378c24.9277 87.6631 32.9873 176.761 49.4541 265.95c3.32227 18 47.5781 32.7764 47.7031 7.84277c0.572266 -114.024 -23.1777 -235.72 -54.4531 -345.066
c-30.3086 -105.952 -78.0771 -210.049 -149.761 -294.666c-64.8086 -76.5059 -153.669 -124.689 -255.806 -115.906c-105.584 9.07227 -190.023 76.7354 -247.845 161.59c-60.3408 88.5576 -88.3799 200.892 -106.386 305.114
c-19.4277 112.426 -19.0654 226.779 -4.30859 339.771c26.8018 205.233 115.405 425.236 301.876 534.563c87.7754 51.4668 217.682 62.7236 265.023 -47.1562c41.8154 -97.0312 22.3223 -219.128 -14.1904 -314.462c-6.33496 -16.5459 -21.6045 -29 -39.9922 -29.6445z" />
    <glyph glyph-name="D" unicode="D" horiz-adv-x="1260" 
d="M597.914 1010.49c64.6309 3.76953 123.645 -12.124 183.479 -34.6172c283.753 -106.696 388.212 -420.08 389.613 -701.004c0.783203 -157.734 -26.2031 -317.37 -104.452 -456.02c-37.3877 -66.2559 -85.1436 -124.913 -143.933 -173.32
c-58.9795 -48.5654 -139.919 -91.0781 -218.747 -82.2754c-137.104 15.3154 -212.892 156.498 -209.103 282.332c4.1582 137.827 67.5918 264.464 168.616 356.817c19.5527 17.875 60.875 -1.30859 36.5 -23.9795c-100.031 -93.0518 -166.694 -238.194 -139.504 -376.363
c12.8613 -65.3408 54.1045 -125.958 120.268 -146.155c53.4668 -16.3223 113.098 27.21 148.051 63.4072c82.6631 85.6104 125.156 204.214 150.787 318.206c28.4404 126.505 31.9863 260.582 21.5 389.521c-10.0986 124.11 -34.085 249.168 -101.644 356.002
c-61.7363 97.624 -157.465 174.104 -275.72 181.387c-250.457 15.4277 -423.783 -257.206 -481.078 -467.953c-33.4531 -123.058 -42.4795 -252.411 -13.8027 -377.265c16.4336 -71.5381 43.9268 -139.524 76.1504 -205.432
c-6.3291 52.1768 -9.8623 104.748 -13.3096 157.136c-10.1113 153.537 -6.47949 309.989 14.2637 462.441c4.56543 33.5254 45.8281 56.1963 75.334 61.209c24.3682 4.1377 67.9199 -4.38867 67.1963 -37.7832c-3.02637 -139.373 -13.1318 -278.181 -10.9678 -417.705
c1.1709 -75.3145 2.52637 -150.465 6.4541 -225.7c2.0127 -38.6641 5.87402 -77.2949 9.61719 -115.82c1.69043 -17.4141 4.89453 -34.9932 5.72363 -52.4473c0.454102 -9.63184 -2.9541 -20.9805 -1.5332 -29.8945c2.44043 -15.3613 -16.125 -28.8936 -28.9014 -32.0449
c-34.499 -8.50684 -57.5576 6.10449 -73.584 30.1699c-2.92773 1.4541 -5.47363 3.58594 -7.2959 6.69141c-87.3213 148.655 -174.938 302.284 -193.643 476.906c-17.4072 162.537 19.4346 323.238 96.21 466.842c62.0449 116.058 148.465 222.839 263.482 289.542
c55.874 32.4004 119.301 53.3936 183.971 57.1699z" />
    <glyph glyph-name="E" unicode="E" horiz-adv-x="1136" 
d="M949.847 897.907c-19.3418 -40.6836 -124.888 -61.7324 -116.565 -0.450195c-7.69043 0.539062 -15.6572 -0.00683594 -23.3477 -0.105469c-17.5195 -0.237305 -35.0322 -0.763672 -52.5322 -1.57324c-33.0322 -1.5332 -66.0186 -4.09863 -98.8936 -7.6709
c-65.1436 -7.08496 -129.59 -18.6963 -193.24 -34.2285c23.3682 -6.6582 39.2754 -24.9873 34.9658 -58.4541c-17.585 -136.715 -37.8086 -273.226 -53.2227 -410.197c-1.2959 -11.5068 -2.53906 -23.0391 -3.78223 -34.5723
c81.5781 29.5459 165.551 57.5254 252.853 59.7754c27.9668 0.723633 56.2363 -15.2695 49.3809 -47.2432c-6.375 -29.7295 -43.9531 -55.6436 -73.7881 -54.6895c-81.4531 2.60547 -159.84 -22.5391 -237.075 -45.8936
c-6.6709 -76.6768 -10.8027 -153.702 -9.2168 -230.319c2.03906 -98.5576 7.07812 -218.589 69.5967 -300.528c64.4531 -84.4795 181.53 -95.1504 276.154 -65.5781c110.545 34.5459 211.044 97.4268 309.51 156.919c24.7363 14.9473 50.1172 -15.4795 23.6836 -31.6699
c-120.123 -73.5713 -242.878 -150.222 -381.737 -182.155c-113.235 -26.0391 -231.425 -28.4668 -327.746 46.835c-92.2021 72.085 -118.84 212.023 -127.215 321.673c-5.80273 76.0186 -6.43457 152.524 -3.46777 229.129
c-26.1973 -7.61816 -52.5254 -13.9863 -78.9785 -17.8223c-26.7764 -3.8877 -27.5859 26.2373 -10.8887 39.0664c28.0723 21.5791 60.1973 39.4209 93.8809 55.0459c11.6904 169.011 39.4404 337.877 69.2627 502.395c2.7627 15.2432 11.5254 28.6709 23.5713 39.6904
c-33.4473 -10.3086 -66.5586 -21.7031 -99.1104 -34.4531c-60.2559 -23.5986 -122.077 -62.8945 -186.129 -73.0127c-24.7627 -3.9082 -33.0322 22.0713 -18.8418 38.6299c27.4531 32.0254 71.9521 51.9922 109.109 70.6104
c36.6113 18.3486 74.3809 34.6641 112.413 49.8018c81.0059 32.2432 163.919 58.8018 249.01 77.9072c85.124 19.1182 171.919 32.1377 258.964 38.1709c40.1309 2.77637 89.2812 11.0068 127.78 -3.70312c40.3877 -15.4277 53.6699 -53.4141 35.6436 -91.3281z" />
    <glyph glyph-name="E" unicode="&#xcb;" horiz-adv-x="1136" 
d="M949.847 897.907c-19.3418 -40.6836 -124.888 -61.7324 -116.565 -0.450195c-7.69043 0.539062 -15.6572 -0.00683594 -23.3477 -0.105469c-17.5195 -0.237305 -35.0322 -0.763672 -52.5322 -1.57324c-33.0322 -1.5332 -66.0186 -4.09863 -98.8936 -7.6709
c-65.1436 -7.08496 -129.59 -18.6963 -193.24 -34.2285c23.3682 -6.6582 39.2754 -24.9873 34.9658 -58.4541c-17.585 -136.715 -37.8086 -273.226 -53.2227 -410.197c-1.2959 -11.5068 -2.53906 -23.0391 -3.78223 -34.5723
c81.5781 29.5459 165.551 57.5254 252.853 59.7754c27.9668 0.723633 56.2363 -15.2695 49.3809 -47.2432c-6.375 -29.7295 -43.9531 -55.6436 -73.7881 -54.6895c-81.4531 2.60547 -159.84 -22.5391 -237.075 -45.8936
c-6.6709 -76.6768 -10.8027 -153.702 -9.2168 -230.319c2.03906 -98.5576 7.07812 -218.589 69.5967 -300.528c64.4531 -84.4795 181.53 -95.1504 276.154 -65.5781c110.545 34.5459 211.044 97.4268 309.51 156.919c24.7363 14.9473 50.1172 -15.4795 23.6836 -31.6699
c-120.123 -73.5713 -242.878 -150.222 -381.737 -182.155c-113.235 -26.0391 -231.425 -28.4668 -327.746 46.835c-92.2021 72.085 -118.84 212.023 -127.215 321.673c-5.80273 76.0186 -6.43457 152.524 -3.46777 229.129
c-26.1973 -7.61816 -52.5254 -13.9863 -78.9785 -17.8223c-26.7764 -3.8877 -27.5859 26.2373 -10.8887 39.0664c28.0723 21.5791 60.1973 39.4209 93.8809 55.0459c11.6904 169.011 39.4404 337.877 69.2627 502.395c2.7627 15.2432 11.5254 28.6709 23.5713 39.6904
c-33.4473 -10.3086 -66.5586 -21.7031 -99.1104 -34.4531c-60.2559 -23.5986 -122.077 -62.8945 -186.129 -73.0127c-24.7627 -3.9082 -33.0322 22.0713 -18.8418 38.6299c27.4531 32.0254 71.9521 51.9922 109.109 70.6104
c36.6113 18.3486 74.3809 34.6641 112.413 49.8018c81.0059 32.2432 163.919 58.8018 249.01 77.9072c85.124 19.1182 171.919 32.1377 258.964 38.1709c40.1309 2.77637 89.2812 11.0068 127.78 -3.70312c40.3877 -15.4277 53.6699 -53.4141 35.6436 -91.3281z" />
    <glyph glyph-name="E" unicode="&#xca;" horiz-adv-x="1136" 
d="M949.847 897.907c-19.3418 -40.6836 -124.888 -61.7324 -116.565 -0.450195c-7.69043 0.539062 -15.6572 -0.00683594 -23.3477 -0.105469c-17.5195 -0.237305 -35.0322 -0.763672 -52.5322 -1.57324c-33.0322 -1.5332 -66.0186 -4.09863 -98.8936 -7.6709
c-65.1436 -7.08496 -129.59 -18.6963 -193.24 -34.2285c23.3682 -6.6582 39.2754 -24.9873 34.9658 -58.4541c-17.585 -136.715 -37.8086 -273.226 -53.2227 -410.197c-1.2959 -11.5068 -2.53906 -23.0391 -3.78223 -34.5723
c81.5781 29.5459 165.551 57.5254 252.853 59.7754c27.9668 0.723633 56.2363 -15.2695 49.3809 -47.2432c-6.375 -29.7295 -43.9531 -55.6436 -73.7881 -54.6895c-81.4531 2.60547 -159.84 -22.5391 -237.075 -45.8936
c-6.6709 -76.6768 -10.8027 -153.702 -9.2168 -230.319c2.03906 -98.5576 7.07812 -218.589 69.5967 -300.528c64.4531 -84.4795 181.53 -95.1504 276.154 -65.5781c110.545 34.5459 211.044 97.4268 309.51 156.919c24.7363 14.9473 50.1172 -15.4795 23.6836 -31.6699
c-120.123 -73.5713 -242.878 -150.222 -381.737 -182.155c-113.235 -26.0391 -231.425 -28.4668 -327.746 46.835c-92.2021 72.085 -118.84 212.023 -127.215 321.673c-5.80273 76.0186 -6.43457 152.524 -3.46777 229.129
c-26.1973 -7.61816 -52.5254 -13.9863 -78.9785 -17.8223c-26.7764 -3.8877 -27.5859 26.2373 -10.8887 39.0664c28.0723 21.5791 60.1973 39.4209 93.8809 55.0459c11.6904 169.011 39.4404 337.877 69.2627 502.395c2.7627 15.2432 11.5254 28.6709 23.5713 39.6904
c-33.4473 -10.3086 -66.5586 -21.7031 -99.1104 -34.4531c-60.2559 -23.5986 -122.077 -62.8945 -186.129 -73.0127c-24.7627 -3.9082 -33.0322 22.0713 -18.8418 38.6299c27.4531 32.0254 71.9521 51.9922 109.109 70.6104
c36.6113 18.3486 74.3809 34.6641 112.413 49.8018c81.0059 32.2432 163.919 58.8018 249.01 77.9072c85.124 19.1182 171.919 32.1377 258.964 38.1709c40.1309 2.77637 89.2812 11.0068 127.78 -3.70312c40.3877 -15.4277 53.6699 -53.4141 35.6436 -91.3281z" />
    <glyph glyph-name="E" unicode="&#xc9;" horiz-adv-x="1136" 
d="M949.847 897.907c-19.3418 -40.6836 -124.888 -61.7324 -116.565 -0.450195c-7.69043 0.539062 -15.6572 -0.00683594 -23.3477 -0.105469c-17.5195 -0.237305 -35.0322 -0.763672 -52.5322 -1.57324c-33.0322 -1.5332 -66.0186 -4.09863 -98.8936 -7.6709
c-65.1436 -7.08496 -129.59 -18.6963 -193.24 -34.2285c23.3682 -6.6582 39.2754 -24.9873 34.9658 -58.4541c-17.585 -136.715 -37.8086 -273.226 -53.2227 -410.197c-1.2959 -11.5068 -2.53906 -23.0391 -3.78223 -34.5723
c81.5781 29.5459 165.551 57.5254 252.853 59.7754c27.9668 0.723633 56.2363 -15.2695 49.3809 -47.2432c-6.375 -29.7295 -43.9531 -55.6436 -73.7881 -54.6895c-81.4531 2.60547 -159.84 -22.5391 -237.075 -45.8936
c-6.6709 -76.6768 -10.8027 -153.702 -9.2168 -230.319c2.03906 -98.5576 7.07812 -218.589 69.5967 -300.528c64.4531 -84.4795 181.53 -95.1504 276.154 -65.5781c110.545 34.5459 211.044 97.4268 309.51 156.919c24.7363 14.9473 50.1172 -15.4795 23.6836 -31.6699
c-120.123 -73.5713 -242.878 -150.222 -381.737 -182.155c-113.235 -26.0391 -231.425 -28.4668 -327.746 46.835c-92.2021 72.085 -118.84 212.023 -127.215 321.673c-5.80273 76.0186 -6.43457 152.524 -3.46777 229.129
c-26.1973 -7.61816 -52.5254 -13.9863 -78.9785 -17.8223c-26.7764 -3.8877 -27.5859 26.2373 -10.8887 39.0664c28.0723 21.5791 60.1973 39.4209 93.8809 55.0459c11.6904 169.011 39.4404 337.877 69.2627 502.395c2.7627 15.2432 11.5254 28.6709 23.5713 39.6904
c-33.4473 -10.3086 -66.5586 -21.7031 -99.1104 -34.4531c-60.2559 -23.5986 -122.077 -62.8945 -186.129 -73.0127c-24.7627 -3.9082 -33.0322 22.0713 -18.8418 38.6299c27.4531 32.0254 71.9521 51.9922 109.109 70.6104
c36.6113 18.3486 74.3809 34.6641 112.413 49.8018c81.0059 32.2432 163.919 58.8018 249.01 77.9072c85.124 19.1182 171.919 32.1377 258.964 38.1709c40.1309 2.77637 89.2812 11.0068 127.78 -3.70312c40.3877 -15.4277 53.6699 -53.4141 35.6436 -91.3281z" />
    <glyph glyph-name="F" unicode="F" horiz-adv-x="1035" 
d="M50.2871 595.307c4.9209 63.2949 69.6582 111.064 116.947 145.13c116.222 83.6895 247.595 151.472 378.277 209.365c4.19043 1.85547 8.40723 3.6709 12.6113 5.50684c9.18457 34.7822 54.875 58.4004 86.1182 63.71
c15.3555 2.60547 37.6318 0.783203 54.4805 -7.73633c84.1104 30.0322 170.254 54.2949 258.16 69.9463c73.8545 13.1514 148.288 22.1445 223.353 23.6182c66.9922 1.31543 144.445 6.45996 198.761 -39.5596c61.4463 -52.0654 -70.9199 -143.913 -125.472 -94.8086
c-17.9141 16.125 -49.7158 13.3154 -72.6172 14.0322c-35.1445 1.09863 -70.3545 0.466797 -105.453 -1.54004c-66.0059 -3.77637 -131.439 -12.7168 -196.057 -26.6641c-53.8086 -11.6055 -106.874 -25.8359 -159.262 -42.2168
c-6.80273 -175.018 -18.8486 -349.765 -22.5723 -524.881c76.4199 15.2432 154.176 24.0391 231.51 27.0391c63.1963 2.4541 31.0918 -76.459 -18.0195 -75.2549c-72.9463 1.78906 -144.366 -4.11914 -214.483 -16.165
c-0.112305 -13.6777 -0.171875 -27.3613 -0.15918 -41.0449c0.125 -107.867 0.762695 -215.418 10.8018 -322.916c5.0791 -54.335 14.1123 -108.38 24.6055 -161.919c4.7168 -24.0322 8.83496 -48.9531 15.6768 -72.5059
c2.51953 -8.65137 11.1045 -50.1904 18.6172 -52.5918c28.3223 -9.0459 -8.9668 -45.7295 -29.1904 -41.249c-24.4736 5.42773 -45.2559 2.4082 -67.2559 18.7637c-18.2363 13.5654 -31.0977 38.0186 -42.0059 57.6436c-27.6904 49.8477 -44.2695 104.038 -57.9072 159.104
c-27.3086 110.274 -36.7422 225.154 -39.9463 338.501c-0.730469 25.7168 -1.25684 51.46 -1.6582 77.21c-65.9199 -20.6113 -130.768 -45.9268 -194.661 -74.9463c-23.9863 -10.8945 -49.0586 13.8291 -22.7695 30.4473c68.0381 42.9932 140.965 77.2295 216.767 103.769
c-0.0332031 6.47363 -0.0263672 12.9541 -0.0458984 19.4277c-90.2422 98.3477 -256.582 82.1172 -374.061 123.524c-50.7754 17.8945 -107.926 47.1045 -103.09 109.262zM525.426 841.691c-112.644 -48.7432 -230.745 -101.275 -331.5 -172.018
c-25 -17.5527 -56.3223 -35.8418 -67.2822 -65.96c-10.8682 -29.8545 6.48047 -50.5059 32.6836 -62.7949c56.374 -26.4404 119.741 -33.375 180.51 -43.3086c65.5713 -10.7168 133.143 -27.1113 187.833 -63.0518c1.36133 138.979 7.72949 278.003 19.7422 416.35
c-7.3291 -3.06543 -14.6904 -6.05859 -21.9863 -9.2168z" />
    <glyph glyph-name="G" unicode="G" horiz-adv-x="1050" 
d="M247.143 326.291c-25.4473 -73.7422 -47.0332 -153.592 -51.4209 -231.729c-3.80957 -67.8408 -0.0527344 -167.596 67.8936 -205.812c68.1045 -38.3086 143.479 0.68457 197.438 44.9072c60.6113 49.6699 111.091 112.183 151.919 178.768
c90.7881 148.044 151.438 311.055 215.444 471.671c10.4141 26.1445 80.3604 46.7168 82.3076 5.09863c3.73633 -79.8408 0.75 -159.484 0.980469 -239.391c0.230469 -79.2295 4.75684 -158.137 10.8945 -237.103c12.5332 -161.294 41.7041 -320.134 76.0127 -478.046
c9.06543 -41.71 -46.2559 -78.749 -78.749 -87.3281c-38.5459 -10.1777 -79.7031 0.822266 -89.6045 42.4531c-38.0654 160.037 -54.1572 325.278 -56.7432 489.572c-1.19043 75.7295 -0.144531 153.452 5.80957 230.747
c-53.0586 -118.248 -107.735 -235.332 -190.701 -337.988c-58.4658 -72.334 -131.932 -139.925 -222.16 -168.688c-87.6436 -27.9336 -190.3 -10.2168 -249.792 63.8936c-64.3809 80.1895 -72.5713 184.807 -63.7031 283.463
c8.48047 94.3535 33.8945 186.556 70.5449 273.726c73.2686 174.273 197.629 337.12 353.442 445.579c87.1299 60.6504 191.431 110.373 299.955 100.63c39.9795 -3.5918 87.209 -19.0391 114.143 -50.2686c17.9277 -20.7891 18.5527 -33.249 20.0264 -58.6562
c0.868164 -15 7.20996 -28.7695 10.6309 -43.7031c4.51953 -19.7627 -38.6377 -37.8682 -46.835 -17.5264c-5.57227 13.835 -7.94727 21.3877 -21.1514 27.0127c-7.11133 3.02637 -16.5713 2.63184 -24.1367 4.96094c-18.4141 5.6709 -35.874 14.8223 -54.6895 19.5195
c-35.9209 8.97363 -72.9199 0.519531 -106.847 -12.5c-72.5713 -27.8613 -138.024 -81.2158 -192.234 -136.893c-103.505 -106.301 -180.333 -236.312 -228.675 -376.37z" />
    <glyph glyph-name="H" unicode="H" horiz-adv-x="1100" 
d="M76.4824 40.9395c-35.9209 -9.81543 -33.5479 33.0469 -3.44922 41.3164c47.3613 13 94.1895 28.2236 140.248 45.5195c-1.7041 26.4932 -3.125 52.999 -4.2832 79.4922c-9.875 225.431 1.81543 454.111 28.835 678.003c4.76953 39.5195 54.5518 66.4209 88.9326 72.2627
c27.2559 4.63184 82.0908 -5.1377 79.334 -44.5977c-15.4209 -220.747 -33.6045 -440.362 -32.8154 -661.872c0.0595703 -17.3555 0.316406 -34.6973 0.665039 -52.0391c97.9463 50.8086 189.748 113.091 271.543 187.847c62.4004 57.0322 119.966 121.445 166.011 192.865
c0.25 34.3154 0.56543 68.6309 0.993164 102.953c0.697266 55.9922 0.81543 112.09 4.02637 168.01c3.1709 55.2754 5.05273 115.051 27.8223 166.136c17.0391 38.2227 81.5049 53.4326 106.912 18.1045c14.9541 -20.7891 12.6387 -48.2891 13.4941 -72.7168
c0.960938 -27.3086 1.2832 -53.7822 -0.401367 -81.0645c-1.74316 -28.2627 -4.53223 -55.8408 -9.29492 -83.0576c1.3291 -34.1709 3.0332 -68.3281 4.60547 -102.479c4.99316 -108.387 9.58496 -216.773 14.124 -325.187c9.2832 -221.779 23.375 -443.789 26.1318 -665.76
c0.55957 -45.1904 -40.4795 -79.3809 -81.3076 -90.1641c-34.3486 -9.07227 -89.6963 -0.862305 -92.5117 43.8281c-14.2822 226.733 -13.6504 454.815 -14.874 681.931c-0.289062 53.1699 -0.322266 106.327 -0.151367 159.491
c-65.4658 -83.7295 -145.412 -157.202 -228.904 -219.004c-65.21 -48.2695 -134.637 -90.3086 -207.023 -126.506c2.51953 -75.9395 7.45996 -151.754 14.1045 -227.51c9.8418 -112.202 31.0781 -223.272 39.3281 -335.527
c3.05957 -41.5781 -77.6035 -80.5576 -98.6953 -36.9199c-48.0586 99.4131 -70.0713 212.115 -88.3936 320.331c-11.8291 69.8545 -19.7568 140.354 -25.2373 211.043c-45.9199 -16.9209 -92.584 -31.8418 -139.768 -44.7295z" />
    <glyph glyph-name="I" unicode="I" horiz-adv-x="614" 
d="M415.105 1088.23c25.3027 6.68457 72.9395 2.56543 83.5186 -26.5c31.8682 8.53906 65.21 15.5723 95.9199 14.3877c49.0391 -1.8877 28.9863 -50.3867 -5.00684 -60.8408c-29.0986 -8.94727 -60.1045 -13.1836 -90.7031 -18.4668
c-8.75 -234.529 -22.1973 -469.059 -22.3291 -703.779c-0.0722656 -127.038 2.17773 -254.312 10.0127 -381.12c3.73047 -60.3877 7.61816 -120.702 12.4473 -181.011c0.131836 -1.61816 0.217773 -3.24316 0.342773 -4.86133
c10.6904 4.08594 21.374 8.13867 32.0117 12.1455c20.3809 7.6709 54.4727 13.2305 62.4131 -14.7754c7.88184 -27.7891 -22.1699 -46.5195 -43.5977 -54.4473c-15.4014 -5.69043 -30.71 -11.5986 -45.9727 -17.625c0.137695 -2.2959 0.275391 -4.59863 0.413086 -6.89453
c1.72363 -29.1768 8.06543 -62.7617 -1.625 -90.7285c-9.25 -26.6904 -42.5 -46.0254 -70.0459 -34.1641c-30.7695 13.25 -46.9268 44.5322 -57.1309 78.2295c-69.1113 -29.7695 -138.019 -59.9463 -208.445 -86.3477c-31.8154 -11.9277 -49.1182 26.2432 -21.6914 44.4668
c66.624 44.2695 139.445 81.0322 213.99 113.598c-12.5586 61.8613 -20.6641 125.505 -27.0322 188.28c-12.7568 125.781 -19.415 252.022 -20.8818 378.415c-2.7627 238.194 7.4209 475.842 24.21 713.318c-2.41406 -0.960938 -4.86816 -1.81641 -7.27637 -2.79688
c-84.6768 -34.4336 -165.037 -77.0449 -237.746 -132.597c-24.5918 -18.7891 -58.5918 4.75 -30.0332 27.7891c76.374 61.624 159.195 116.195 249.299 155.504c10.0332 4.375 20.1582 8.55273 30.3223 12.6514c5.2832 39.4668 35.6182 67.874 74.6172 78.1699z" />
    <glyph glyph-name="I" unicode="&#xcf;" horiz-adv-x="614" 
d="M415.105 1088.23c25.3027 6.68457 72.9395 2.56543 83.5186 -26.5c31.8682 8.53906 65.21 15.5723 95.9199 14.3877c49.0391 -1.8877 28.9863 -50.3867 -5.00684 -60.8408c-29.0986 -8.94727 -60.1045 -13.1836 -90.7031 -18.4668
c-8.75 -234.529 -22.1973 -469.059 -22.3291 -703.779c-0.0722656 -127.038 2.17773 -254.312 10.0127 -381.12c3.73047 -60.3877 7.61816 -120.702 12.4473 -181.011c0.131836 -1.61816 0.217773 -3.24316 0.342773 -4.86133
c10.6904 4.08594 21.374 8.13867 32.0117 12.1455c20.3809 7.6709 54.4727 13.2305 62.4131 -14.7754c7.88184 -27.7891 -22.1699 -46.5195 -43.5977 -54.4473c-15.4014 -5.69043 -30.71 -11.5986 -45.9727 -17.625c0.137695 -2.2959 0.275391 -4.59863 0.413086 -6.89453
c1.72363 -29.1768 8.06543 -62.7617 -1.625 -90.7285c-9.25 -26.6904 -42.5 -46.0254 -70.0459 -34.1641c-30.7695 13.25 -46.9268 44.5322 -57.1309 78.2295c-69.1113 -29.7695 -138.019 -59.9463 -208.445 -86.3477c-31.8154 -11.9277 -49.1182 26.2432 -21.6914 44.4668
c66.624 44.2695 139.445 81.0322 213.99 113.598c-12.5586 61.8613 -20.6641 125.505 -27.0322 188.28c-12.7568 125.781 -19.415 252.022 -20.8818 378.415c-2.7627 238.194 7.4209 475.842 24.21 713.318c-2.41406 -0.960938 -4.86816 -1.81641 -7.27637 -2.79688
c-84.6768 -34.4336 -165.037 -77.0449 -237.746 -132.597c-24.5918 -18.7891 -58.5918 4.75 -30.0332 27.7891c76.374 61.624 159.195 116.195 249.299 155.504c10.0332 4.375 20.1582 8.55273 30.3223 12.6514c5.2832 39.4668 35.6182 67.874 74.6172 78.1699z" />
    <glyph glyph-name="I" unicode="&#xce;" horiz-adv-x="614" 
d="M415.105 1088.23c25.3027 6.68457 72.9395 2.56543 83.5186 -26.5c31.8682 8.53906 65.21 15.5723 95.9199 14.3877c49.0391 -1.8877 28.9863 -50.3867 -5.00684 -60.8408c-29.0986 -8.94727 -60.1045 -13.1836 -90.7031 -18.4668
c-8.75 -234.529 -22.1973 -469.059 -22.3291 -703.779c-0.0722656 -127.038 2.17773 -254.312 10.0127 -381.12c3.73047 -60.3877 7.61816 -120.702 12.4473 -181.011c0.131836 -1.61816 0.217773 -3.24316 0.342773 -4.86133
c10.6904 4.08594 21.374 8.13867 32.0117 12.1455c20.3809 7.6709 54.4727 13.2305 62.4131 -14.7754c7.88184 -27.7891 -22.1699 -46.5195 -43.5977 -54.4473c-15.4014 -5.69043 -30.71 -11.5986 -45.9727 -17.625c0.137695 -2.2959 0.275391 -4.59863 0.413086 -6.89453
c1.72363 -29.1768 8.06543 -62.7617 -1.625 -90.7285c-9.25 -26.6904 -42.5 -46.0254 -70.0459 -34.1641c-30.7695 13.25 -46.9268 44.5322 -57.1309 78.2295c-69.1113 -29.7695 -138.019 -59.9463 -208.445 -86.3477c-31.8154 -11.9277 -49.1182 26.2432 -21.6914 44.4668
c66.624 44.2695 139.445 81.0322 213.99 113.598c-12.5586 61.8613 -20.6641 125.505 -27.0322 188.28c-12.7568 125.781 -19.415 252.022 -20.8818 378.415c-2.7627 238.194 7.4209 475.842 24.21 713.318c-2.41406 -0.960938 -4.86816 -1.81641 -7.27637 -2.79688
c-84.6768 -34.4336 -165.037 -77.0449 -237.746 -132.597c-24.5918 -18.7891 -58.5918 4.75 -30.0332 27.7891c76.374 61.624 159.195 116.195 249.299 155.504c10.0332 4.375 20.1582 8.55273 30.3223 12.6514c5.2832 39.4668 35.6182 67.874 74.6172 78.1699z" />
    <glyph glyph-name="I" unicode="&#xcd;" horiz-adv-x="614" 
d="M415.105 1088.23c25.3027 6.68457 72.9395 2.56543 83.5186 -26.5c31.8682 8.53906 65.21 15.5723 95.9199 14.3877c49.0391 -1.8877 28.9863 -50.3867 -5.00684 -60.8408c-29.0986 -8.94727 -60.1045 -13.1836 -90.7031 -18.4668
c-8.75 -234.529 -22.1973 -469.059 -22.3291 -703.779c-0.0722656 -127.038 2.17773 -254.312 10.0127 -381.12c3.73047 -60.3877 7.61816 -120.702 12.4473 -181.011c0.131836 -1.61816 0.217773 -3.24316 0.342773 -4.86133
c10.6904 4.08594 21.374 8.13867 32.0117 12.1455c20.3809 7.6709 54.4727 13.2305 62.4131 -14.7754c7.88184 -27.7891 -22.1699 -46.5195 -43.5977 -54.4473c-15.4014 -5.69043 -30.71 -11.5986 -45.9727 -17.625c0.137695 -2.2959 0.275391 -4.59863 0.413086 -6.89453
c1.72363 -29.1768 8.06543 -62.7617 -1.625 -90.7285c-9.25 -26.6904 -42.5 -46.0254 -70.0459 -34.1641c-30.7695 13.25 -46.9268 44.5322 -57.1309 78.2295c-69.1113 -29.7695 -138.019 -59.9463 -208.445 -86.3477c-31.8154 -11.9277 -49.1182 26.2432 -21.6914 44.4668
c66.624 44.2695 139.445 81.0322 213.99 113.598c-12.5586 61.8613 -20.6641 125.505 -27.0322 188.28c-12.7568 125.781 -19.415 252.022 -20.8818 378.415c-2.7627 238.194 7.4209 475.842 24.21 713.318c-2.41406 -0.960938 -4.86816 -1.81641 -7.27637 -2.79688
c-84.6768 -34.4336 -165.037 -77.0449 -237.746 -132.597c-24.5918 -18.7891 -58.5918 4.75 -30.0332 27.7891c76.374 61.624 159.195 116.195 249.299 155.504c10.0332 4.375 20.1582 8.55273 30.3223 12.6514c5.2832 39.4668 35.6182 67.874 74.6172 78.1699z" />
    <glyph glyph-name="J" unicode="J" horiz-adv-x="1017" 
d="M1094.4 1068.42c28.8613 -16.75 28.126 -47.7236 7.18555 -71.71c-22.6445 -25.9531 -60.8613 -37.5713 -93.3477 -25.8086c-12.4404 4.5127 -35.3682 -3.88867 -48.46 -6.30957c-21.7627 -4.0127 -43.46 -8.33496 -65.1172 -12.8613
c-37.4473 -7.82227 -74.7168 -16.4014 -111.763 -25.9473c22.2891 -90.7686 36.7363 -183.379 46.9531 -276.581c16.0986 -146.886 27.1973 -294.942 33.2627 -442.559c5.44727 -132.577 5.68457 -265.167 -7.1709 -397.369
c-11.375 -116.945 -33.1309 -245.825 -92.0117 -349.205c-26.9072 -47.249 -63.5381 -91.5312 -109.287 -121.558c-53.749 -35.2822 -111.781 -43.835 -174.655 -46.624c-93.624 -4.1582 -214.03 12.3477 -280.022 86.1426
c-78.2822 87.5381 -62.5322 213.221 -30.5791 316.719c35.5254 115.064 92.1162 221.773 154.122 324.535c100.124 165.945 213.116 330.66 348.857 471.053c-5.31543 131.794 -12.5586 263.871 -28.7686 394.612c-34.7363 -11.5459 -69.1436 -24.0586 -103.031 -37.8672
c-78.0117 -31.7959 -154.353 -68.3936 -226.963 -111.149c-61.7422 -36.3545 -116.34 -83.9463 -176.154 -122.748c-1.7959 -2.89453 -3.90723 -5.52637 -6.14453 -7.57227c-16.8027 -15.3945 -35.0654 -18.5918 -57.1572 -16.7168
c-19.2432 1.63184 -31 24.3154 -19.7695 40.5391c52.0781 75.2295 141.557 131.584 218.075 179.695c80.8145 50.8154 165.044 94.7686 253.352 131.058c34.4336 14.1514 69.2354 27.3945 104.34 39.7764c-2.32227 14.375 -4.77637 28.7236 -7.36816 43.0459
c-8.98047 49.6182 99.2354 96.6377 117.985 44.1387c5.5459 -15.5391 10.7627 -31.1572 15.7227 -46.8408c14.4336 4.15137 28.8936 8.2041 43.4062 12.0596c46.4727 12.3486 93.3145 23.2236 140.465 32.625c47.7822 9.52637 108.755 29.71 154.044 3.42773z
M668.031 -360.805c36.7959 226.536 18.9707 462.561 10.3594 690.683c-1.05957 28.0586 -2.07227 56.1631 -3.10547 84.2939c-41.249 -45.7363 -80.7285 -93.0059 -117.938 -143.077c-71.5908 -96.3477 -135.708 -198.195 -192.911 -303.7
c-51.1182 -94.2812 -97.3809 -193.221 -126.019 -296.884c-26.5781 -96.1895 -30.8809 -221.892 63.4072 -283.878c73.8086 -48.5195 205.155 -44.3154 273.839 11.8945c64.9336 53.1377 79.8154 163.373 92.3682 240.668z" />
    <glyph glyph-name="K" unicode="K" horiz-adv-x="849" 
d="M91.8291 1016.24c11.4014 77.6631 172.405 109.2 164.122 9.91895c-17.0059 -203.858 -34.1631 -407.204 -36.374 -611.569c72.1367 73.3145 140.004 150.136 204.062 231.345c42.2227 53.5322 80.9922 109.939 117.604 167.426
c34.585 54.3086 57.2363 111.814 84.1895 169.768c8.125 17.4736 65.124 36.4141 62.624 3.88184c-4.95996 -64.5449 -39.4131 -126.781 -73.3799 -180.557c-36.8223 -58.2891 -81.7031 -111.308 -125.262 -164.576c-84.874 -103.801 -172.702 -205.556 -264.904 -302.995
c112.209 -45.1309 203.194 -121.663 291.871 -204.004c100.979 -93.7617 198.353 -198.853 276.733 -312.371c19.9141 -28.8486 -15.9404 -66.2227 -37.5654 -79.8477c-23.8877 -15.0527 -73.2754 -27.9404 -95.8867 -1.89453
c-86.4326 99.5449 -168.55 202.569 -255.871 301.463c-43.0781 48.7891 -87.0713 96.9463 -131.209 144.781c-17.1055 18.5322 -33.5068 37.3281 -51.1445 54.4463c3.13184 -102.795 9.3291 -205.215 19.0986 -307.72c5.60547 -58.7754 11.6123 -117.445 19.7109 -175.944
c8.32227 -60.0977 24.2168 -129.229 11.6055 -189.319c-6.4541 -30.75 -66.3018 -63.4268 -90.749 -34.2891c-38.6641 46.0918 -50.8418 114.959 -63.4268 172.623c-13.3555 61.2031 -24.8623 123.156 -33.8887 185.148c-17.7695 122.051 -27.7959 246.036 -31.4932 369.284
c-7.5459 251.496 2.96094 505.939 39.5332 755.002z" />
    <glyph glyph-name="L" unicode="L" horiz-adv-x="644" 
d="M83.0029 -389.817c-30.6113 -16.7236 -47.0957 18.8789 -17.3457 35.5566c78.9072 44.2227 162.038 81.4326 247.708 111.143c0.0458984 3.57227 0.25 7.27637 0.80957 11.2568c30.5918 218.688 26.0195 435.572 12.0527 655.319
c-7.20996 113.387 -16.0518 226.661 -23.3477 340.041c-7.18457 111.584 -24.2959 227.207 -17.0264 338.969c1.7959 27.5264 20.3682 46.1973 45.4268 55.8291c18.8086 7.23047 55.2227 9.5332 64.5781 -14.6768c40.7363 -105.426 51.0918 -226.339 66.7959 -337.534
c16.0459 -113.644 28.9473 -227.714 40.6836 -341.877c22.25 -216.411 34.0264 -442.895 -11.8809 -657.181c125.472 27.9014 264.628 46.5586 382.823 -14.1777c41.1641 -21.1572 -18.5986 -75.2949 -50.9668 -57.6895c-105.623 57.4531 -236.325 40.46 -350.85 17.3877
c-31.6768 -42.5059 -107.938 -63.4131 -142.103 -36.1895c-85.5977 -27.0586 -168.129 -62.8809 -247.358 -106.177z" />
    <glyph glyph-name="M" unicode="M" horiz-adv-x="1427" 
d="M170.278 982.295c25.7891 4.38184 75.4941 -4.78027 73.5732 -41.3721c-11.0068 -210.668 -33.3486 -419.901 -30.9014 -631.214c0.723633 -62.9336 2.41406 -125.762 5.69727 -188.524c3.22363 49.0654 7.0459 98.0781 13.7764 146.86
c23.0986 167.386 54.5723 342.245 129.696 495.177c27.835 56.6641 83.6895 135.683 156.773 125.13c64.2881 -9.2832 95.3662 -99.7949 110.136 -153.82c20.3418 -74.4072 30.75 -151.393 45.4473 -227.029c15.5195 -79.8672 32.7627 -159.609 51.749 -238.72
c4.48633 -18.7041 8.39453 -38.1973 13.2891 -57.3613c22.1572 55.7627 40.9863 113.084 61.0127 169.451c51.4727 144.899 102.82 291.72 182.865 423.843c37.9863 62.7031 84.9531 125.531 144.091 170.116c22.5 16.96 53.835 31.1113 82.0781 20.5918
c27.4531 -10.2236 31.7891 -40.0391 39.8545 -64.7949c23.25 -71.4072 20.2764 -147.452 21.7891 -221.668c1.61816 -79.3213 2.5459 -158.662 4.66406 -237.97c8.66406 -324.39 28.6641 -645.714 100.071 -963.203c9.20996 -40.9336 -45.7568 -77.5322 -77.4736 -85.9072
c-38.0127 -10.0391 -78.2754 0.848633 -88.1436 41.7627c-80.8809 335.252 -84.9863 686.925 -64.4209 1029.53c4.59863 76.5576 10.5918 152.938 17.3877 229.332c3.4668 38.9668 7.72363 77.7822 11.3223 116.696c1.40137 15.1709 15.1777 97.584 2.2041 103.242
c-8.61816 3.75684 -95.5713 -153.715 -103.67 -168.761c-32.0586 -59.5645 -58.8145 -121.873 -81.8926 -185.418c-50.874 -140.07 -89.4062 -284.937 -133.932 -427.099c-24.1445 -77.0781 -62.5449 -153.274 -155.09 -157.88
c-90.1436 -4.48633 -115.841 87.4727 -130.709 157.656c-31.8809 150.484 -50.3867 301.153 -61.4258 454.447c-2.69727 37.4141 -6.75684 74.6699 -13.54 111.564c-2.6377 14.3154 -5.64453 28.4336 -10.1572 42.2822c-2.2832 6.99316 -4.85547 14.0264 -7.69141 20.8291
c-0.43457 1.0459 -0.869141 2.00684 -1.29004 2.9082c-3.69043 -4.4082 -7.19043 -8.97363 -10.3945 -13.7168c-8.44043 -12.5068 -15.46 -26.1514 -22.1641 -39.6377c-15.1514 -30.4795 -28.2236 -62.0449 -39.7627 -94.0508
c-50.8154 -140.919 -79.6904 -289.357 -109.328 -435.803c-28.0195 -138.465 -41.0986 -277.417 -44.6904 -418.139c4.9668 -22.0586 11.3154 -43.6631 19.625 -64.5439c17.1182 -37.7959 -51.8154 -63.1572 -83.0908 -52.2822
c-46.1572 16.0527 -66.4795 88.6631 -77.0645 130.636c-29.6182 117.419 -42.3223 239.878 -51.1514 360.396c-18.1182 247.26 -10.7627 504.552 28.3877 749.437c5.88184 36.7891 49.5264 61.4199 82.4932 67.0254z" />
    <glyph glyph-name="N" unicode="N" horiz-adv-x="1055" 
d="M918.457 246.937c17.8418 -207.51 46.0996 -412.133 85.6582 -616.61c8.13184 -42.0127 -45.4658 -78.5381 -78.748 -87.3271c-38.7891 -10.2432 -79.374 0.927734 -89.6045 42.4531c-49.6768 201.701 -66.1826 412.356 -75.2744 619.38
c-7.97363 181.648 -2.31543 365.955 -29.124 546.202c-6.03906 40.5977 -10.9404 83.3867 -22.0518 122.906c-8.30957 29.5586 -23.6123 69.2031 -60.8818 66.0918c-39.4795 -3.28906 -72.459 -47.7354 -95.1562 -76.3867
c-24.7891 -31.2891 -45.4531 -65.6572 -63.6572 -101.131c-78.999 -153.965 -121.827 -330.166 -149.82 -500.013c-24.875 -150.938 -35.3682 -303.634 -35.3154 -456.454c8.60547 -30.1182 17.0918 -60.3154 24.8281 -90.8281
c26.2822 -37.0195 -61.9531 -86.2686 -90.2549 -54.7432c-68.9463 76.7881 -97.6699 183.057 -122.098 280.989c-25.75 103.235 -43.9541 207.885 -54.6123 313.738c-21.7041 215.497 -15.6123 436.093 24.8408 649.097c14.0459 73.9658 172.682 105.235 158.754 9.59863
c-29.8154 -204.694 -42.0059 -410.382 -27.1113 -616.984c7.31543 -101.538 19.9531 -203.155 38.3809 -303.292c7.05273 125.688 22.5127 250.818 48.7891 374.126c36.999 173.609 88.9785 363.041 197.846 506.717c44.6504 58.9268 113.938 129.873 195.142 119.774
c81.9004 -10.1836 119.769 -94.1689 140.848 -164.135c57.1504 -189.708 61.7822 -387.231 78.624 -583.169z" />
    <glyph glyph-name="O" unicode="O" horiz-adv-x="988" 
d="M684.543 1006.49c107.17 -58.1836 173.144 -171.845 206.169 -285.948c42.96 -148.412 44.6963 -305.798 25.3809 -458.145c-19.1836 -151.307 -60.5117 -308.495 -135.136 -442.315c-72.5713 -130.143 -216.01 -253.246 -375.008 -197.096
c-132.676 46.8613 -178.912 217.319 -198.418 340.831c-15.7305 99.6299 -14.3428 200.365 -7.19141 300.738c-5.7041 3.8418 -11.3096 7.83496 -16.7568 12.0977c-122.709 96.0049 -155.063 263.193 -120.669 409.066c31.0059 131.518 111.274 241.753 231.483 304.798
c115.729 60.6963 271.897 80.1826 390.146 15.9727zM794.483 327.786c14.5918 124.709 8.41895 252.069 -21.1797 374.186c-22.3809 92.3799 -69.6631 193.51 -153.918 244.575c-98.499 59.6963 -235.168 42.8545 -332.042 -12.1514
c-106.972 -60.7422 -164.339 -179.24 -179.01 -297.942c-13.6641 -110.545 16.4404 -227.175 97.4463 -305.239c2.55957 27.9473 5.36914 55.835 8.19824 83.6436c7.73633 76.1104 169.511 106.373 160.097 9.68359c-5.3418 -54.874 -10.6709 -110.13 -14 -165.478
c56.9727 -4.96094 114.788 11.0713 160.768 52.3535c23.9277 21.4863 58.4795 -3.5791 30.8086 -28.5068c-54.374 -48.9795 -124.241 -71.2881 -193.819 -69.0908c-2.58594 -69.4004 -1.09277 -138.808 8.56543 -207.648
c8.98633 -64.0381 24.7168 -128.465 54.5918 -186.207c20.2295 -39.0977 55.1367 -87.4326 104.399 -86.6494c40.7891 0.651367 72.3936 34.875 95.7285 65.21c35.4141 46.0322 61.5322 101.663 82.9531 155.366c47.2432 118.439 75.624 247.477 90.4131 373.896z" />
    <glyph glyph-name="O" unicode="&#xd6;" horiz-adv-x="988" 
d="M684.543 1006.49c107.17 -58.1836 173.144 -171.845 206.169 -285.948c42.96 -148.412 44.6963 -305.798 25.3809 -458.145c-19.1836 -151.307 -60.5117 -308.495 -135.136 -442.315c-72.5713 -130.143 -216.01 -253.246 -375.008 -197.096
c-132.676 46.8613 -178.912 217.319 -198.418 340.831c-15.7305 99.6299 -14.3428 200.365 -7.19141 300.738c-5.7041 3.8418 -11.3096 7.83496 -16.7568 12.0977c-122.709 96.0049 -155.063 263.193 -120.669 409.066c31.0059 131.518 111.274 241.753 231.483 304.798
c115.729 60.6963 271.897 80.1826 390.146 15.9727zM794.483 327.786c14.5918 124.709 8.41895 252.069 -21.1797 374.186c-22.3809 92.3799 -69.6631 193.51 -153.918 244.575c-98.499 59.6963 -235.168 42.8545 -332.042 -12.1514
c-106.972 -60.7422 -164.339 -179.24 -179.01 -297.942c-13.6641 -110.545 16.4404 -227.175 97.4463 -305.239c2.55957 27.9473 5.36914 55.835 8.19824 83.6436c7.73633 76.1104 169.511 106.373 160.097 9.68359c-5.3418 -54.874 -10.6709 -110.13 -14 -165.478
c56.9727 -4.96094 114.788 11.0713 160.768 52.3535c23.9277 21.4863 58.4795 -3.5791 30.8086 -28.5068c-54.374 -48.9795 -124.241 -71.2881 -193.819 -69.0908c-2.58594 -69.4004 -1.09277 -138.808 8.56543 -207.648
c8.98633 -64.0381 24.7168 -128.465 54.5918 -186.207c20.2295 -39.0977 55.1367 -87.4326 104.399 -86.6494c40.7891 0.651367 72.3936 34.875 95.7285 65.21c35.4141 46.0322 61.5322 101.663 82.9531 155.366c47.2432 118.439 75.624 247.477 90.4131 373.896z" />
    <glyph glyph-name="O" unicode="&#xd5;" horiz-adv-x="988" 
d="M684.543 1006.49c107.17 -58.1836 173.144 -171.845 206.169 -285.948c42.96 -148.412 44.6963 -305.798 25.3809 -458.145c-19.1836 -151.307 -60.5117 -308.495 -135.136 -442.315c-72.5713 -130.143 -216.01 -253.246 -375.008 -197.096
c-132.676 46.8613 -178.912 217.319 -198.418 340.831c-15.7305 99.6299 -14.3428 200.365 -7.19141 300.738c-5.7041 3.8418 -11.3096 7.83496 -16.7568 12.0977c-122.709 96.0049 -155.063 263.193 -120.669 409.066c31.0059 131.518 111.274 241.753 231.483 304.798
c115.729 60.6963 271.897 80.1826 390.146 15.9727zM794.483 327.786c14.5918 124.709 8.41895 252.069 -21.1797 374.186c-22.3809 92.3799 -69.6631 193.51 -153.918 244.575c-98.499 59.6963 -235.168 42.8545 -332.042 -12.1514
c-106.972 -60.7422 -164.339 -179.24 -179.01 -297.942c-13.6641 -110.545 16.4404 -227.175 97.4463 -305.239c2.55957 27.9473 5.36914 55.835 8.19824 83.6436c7.73633 76.1104 169.511 106.373 160.097 9.68359c-5.3418 -54.874 -10.6709 -110.13 -14 -165.478
c56.9727 -4.96094 114.788 11.0713 160.768 52.3535c23.9277 21.4863 58.4795 -3.5791 30.8086 -28.5068c-54.374 -48.9795 -124.241 -71.2881 -193.819 -69.0908c-2.58594 -69.4004 -1.09277 -138.808 8.56543 -207.648
c8.98633 -64.0381 24.7168 -128.465 54.5918 -186.207c20.2295 -39.0977 55.1367 -87.4326 104.399 -86.6494c40.7891 0.651367 72.3936 34.875 95.7285 65.21c35.4141 46.0322 61.5322 101.663 82.9531 155.366c47.2432 118.439 75.624 247.477 90.4131 373.896z" />
    <glyph glyph-name="O" unicode="&#xd4;" horiz-adv-x="988" 
d="M684.543 1006.49c107.17 -58.1836 173.144 -171.845 206.169 -285.948c42.96 -148.412 44.6963 -305.798 25.3809 -458.145c-19.1836 -151.307 -60.5117 -308.495 -135.136 -442.315c-72.5713 -130.143 -216.01 -253.246 -375.008 -197.096
c-132.676 46.8613 -178.912 217.319 -198.418 340.831c-15.7305 99.6299 -14.3428 200.365 -7.19141 300.738c-5.7041 3.8418 -11.3096 7.83496 -16.7568 12.0977c-122.709 96.0049 -155.063 263.193 -120.669 409.066c31.0059 131.518 111.274 241.753 231.483 304.798
c115.729 60.6963 271.897 80.1826 390.146 15.9727zM794.483 327.786c14.5918 124.709 8.41895 252.069 -21.1797 374.186c-22.3809 92.3799 -69.6631 193.51 -153.918 244.575c-98.499 59.6963 -235.168 42.8545 -332.042 -12.1514
c-106.972 -60.7422 -164.339 -179.24 -179.01 -297.942c-13.6641 -110.545 16.4404 -227.175 97.4463 -305.239c2.55957 27.9473 5.36914 55.835 8.19824 83.6436c7.73633 76.1104 169.511 106.373 160.097 9.68359c-5.3418 -54.874 -10.6709 -110.13 -14 -165.478
c56.9727 -4.96094 114.788 11.0713 160.768 52.3535c23.9277 21.4863 58.4795 -3.5791 30.8086 -28.5068c-54.374 -48.9795 -124.241 -71.2881 -193.819 -69.0908c-2.58594 -69.4004 -1.09277 -138.808 8.56543 -207.648
c8.98633 -64.0381 24.7168 -128.465 54.5918 -186.207c20.2295 -39.0977 55.1367 -87.4326 104.399 -86.6494c40.7891 0.651367 72.3936 34.875 95.7285 65.21c35.4141 46.0322 61.5322 101.663 82.9531 155.366c47.2432 118.439 75.624 247.477 90.4131 373.896z" />
    <glyph glyph-name="O" unicode="&#xd3;" horiz-adv-x="988" 
d="M684.543 1006.49c107.17 -58.1836 173.144 -171.845 206.169 -285.948c42.96 -148.412 44.6963 -305.798 25.3809 -458.145c-19.1836 -151.307 -60.5117 -308.495 -135.136 -442.315c-72.5713 -130.143 -216.01 -253.246 -375.008 -197.096
c-132.676 46.8613 -178.912 217.319 -198.418 340.831c-15.7305 99.6299 -14.3428 200.365 -7.19141 300.738c-5.7041 3.8418 -11.3096 7.83496 -16.7568 12.0977c-122.709 96.0049 -155.063 263.193 -120.669 409.066c31.0059 131.518 111.274 241.753 231.483 304.798
c115.729 60.6963 271.897 80.1826 390.146 15.9727zM794.483 327.786c14.5918 124.709 8.41895 252.069 -21.1797 374.186c-22.3809 92.3799 -69.6631 193.51 -153.918 244.575c-98.499 59.6963 -235.168 42.8545 -332.042 -12.1514
c-106.972 -60.7422 -164.339 -179.24 -179.01 -297.942c-13.6641 -110.545 16.4404 -227.175 97.4463 -305.239c2.55957 27.9473 5.36914 55.835 8.19824 83.6436c7.73633 76.1104 169.511 106.373 160.097 9.68359c-5.3418 -54.874 -10.6709 -110.13 -14 -165.478
c56.9727 -4.96094 114.788 11.0713 160.768 52.3535c23.9277 21.4863 58.4795 -3.5791 30.8086 -28.5068c-54.374 -48.9795 -124.241 -71.2881 -193.819 -69.0908c-2.58594 -69.4004 -1.09277 -138.808 8.56543 -207.648
c8.98633 -64.0381 24.7168 -128.465 54.5918 -186.207c20.2295 -39.0977 55.1367 -87.4326 104.399 -86.6494c40.7891 0.651367 72.3936 34.875 95.7285 65.21c35.4141 46.0322 61.5322 101.663 82.9531 155.366c47.2432 118.439 75.624 247.477 90.4131 373.896z" />
    <glyph glyph-name="P" unicode="P" horiz-adv-x="1164" 
d="M74.8164 658.267c74.6836 265.957 290.281 469.281 564.311 514.176c127.498 20.9014 266.864 1.47363 364.941 -88.9785c100.216 -92.4199 137.663 -232.023 127.834 -364.482c-19.8027 -266.989 -160.024 -544.959 -393.817 -684.457
c-57.3154 -34.1973 -128.439 -61.9404 -196.169 -46.9141c-65.2822 14.4863 -97.5713 69.7354 -96.0186 133.405c3.0459 124.762 94.5186 232.793 195.787 296.97c13.835 8.76953 37.4463 17.7363 51.6104 3.65137c13.2432 -13.1641 3.44727 -33.2686 -9.55273 -42.5645
c-48.2891 -34.5254 -103.814 -73.8936 -129.137 -129.537c-20.2363 -44.46 -26.5195 -113.492 23.3086 -142.019c40.4795 -23.1777 84.4463 14.6504 114.617 37.9463c42.0195 32.4473 76.3545 69.0977 110.519 112.735c61.2559 78.2295 103.887 169.472 135.149 263.352
c37.8877 113.769 63.3936 241.188 28.8613 359.311c-29.2822 100.176 -100.406 181.497 -204.319 205.346c-106.137 24.3545 -218.201 0.519531 -314.312 -47.5322c-207.932 -103.966 -347.324 -353.62 -337.127 -584.604
c5.41406 -122.676 55.5254 -231.694 105.413 -340.745c-1.92773 22.4209 -3.5332 44.8682 -4.75684 67.3154c-9.58496 176.234 -4.3877 352.317 7.38867 528.282c2.9541 44.1641 36.4072 76.1436 78.749 87.3271c29.7295 7.84863 91.873 1.25684 89.6035 -42.4531
c-9.03906 -174.063 -17.3682 -348.831 -11.9541 -523.145c2.67773 -86.124 6.76367 -172.057 16.2705 -257.733c4.86133 -43.8086 9.40723 -87.6768 15.6904 -131.301c6.11133 -42.4463 13.0127 -89.7285 4.72363 -132.143
c-0.375 0.112305 -0.756836 0.230469 -1.13184 0.342773c-6.94727 -34.335 -64.0449 -62.624 -89.2812 -34.5059c-29.5518 32.9141 -43.4922 80.2559 -54.249 122.531c-3.8877 15.2959 -7.57227 30.6514 -11.125 46.0332c-41.2295 132.308 -108.86 251.971 -158.511 381.488
c-53.585 139.787 -63.9932 288.042 -23.3164 432.901z" />
    <glyph glyph-name="Q" unicode="Q" horiz-adv-x="998" 
d="M684.543 1006.49c107.17 -58.1836 173.142 -171.844 206.167 -285.94c42.96 -148.412 44.6963 -305.798 25.3809 -458.145c-19.1836 -151.307 -60.5117 -308.495 -135.136 -442.315c-48.3086 -86.6299 -128.038 -170.069 -222.839 -199.668
c49.3154 -13.1445 97.5059 -22.9863 148.966 -21.9736c50.9404 1 101.36 9.44727 152.268 11.8096c43.499 2.0127 24.4072 -45.1182 -4.38184 -53.2695c-96.6963 -27.3682 -197.28 -35.4795 -294.292 -5.0459c-47.3877 14.8682 -93.6367 39.085 -143.432 43.9404
c-52.1904 5.0918 -104.907 -3.73047 -156.36 -11.7236c-30.7295 -4.77637 -19.8213 35.4463 3.27051 39.7354c37.0918 6.8877 73.0908 11.96 108.768 14.2695c-107.545 61.374 -147.597 213.01 -165.386 325.653c-15.7363 99.6299 -14.3486 200.365 -7.19727 300.738
c-5.69727 3.8418 -11.3086 7.83496 -16.7559 12.0977c-122.709 96.0049 -155.063 263.193 -120.669 409.066c31.0059 131.518 111.274 241.753 231.483 304.798c115.729 60.6963 271.897 80.1826 390.146 15.9727zM794.481 327.787
c14.5918 124.709 8.41895 252.068 -21.1797 374.185c-22.3809 92.3799 -69.6631 193.51 -153.918 244.575c-98.499 59.6963 -235.168 42.8545 -332.042 -12.1514c-106.972 -60.7422 -164.339 -179.24 -179.01 -297.942c-13.6641 -110.545 16.4404 -227.175 97.4463 -305.239
c2.55957 27.9473 5.36914 55.835 8.19824 83.6436c7.73633 76.1104 169.511 106.373 160.097 9.68359c-5.3418 -54.874 -10.6709 -110.13 -14 -165.478c56.9727 -4.96094 114.788 11.0713 160.768 52.3535c23.9277 21.4863 58.4795 -3.5791 30.8086 -28.5068
c-54.374 -48.9795 -124.241 -71.2881 -193.819 -69.0908c-2.58594 -69.4004 -1.09277 -138.808 8.56543 -207.648c8.98633 -64.0381 24.7168 -128.465 54.5918 -186.207c20.2295 -39.0977 55.1367 -87.4326 104.399 -86.6494c40.7891 0.651367 72.3936 34.875 95.7285 65.21
c35.4141 46.0322 61.5322 101.663 82.9531 155.366c47.2432 118.439 75.624 247.478 90.4131 373.896z" />
    <glyph glyph-name="R" unicode="R" horiz-adv-x="963" 
d="M615.326 272.002c-33.8154 -36.1836 -69.1572 -70.9316 -105.433 -104.668c-18.1182 -16.8486 -38.4336 -33.3086 -57.9072 -49.999c5.625 -3.68457 11.25 -7.36914 16.8818 -11.0469c20.71 -13.5322 41.4395 -27.0254 62.2285 -40.4395
c39.835 -25.7031 79.8545 -51.1309 120.229 -75.9795c82.459 -50.749 166.458 -98.8994 252.911 -142.523c82.7158 -41.7363 -36.5391 -148.058 -101.742 -115.157c-110.406 55.71 -216.681 118.92 -321.054 185.149c-35.7559 22.6904 -71.2881 45.7227 -106.748 68.8799
c2.0791 -18.7363 4.17773 -37.4668 6.43457 -56.2031c5.57227 -46.2168 11.7959 -92.2754 17.9541 -138.413c6.125 -45.8877 14.9473 -93.9395 12.3877 -140.274c-2.48047 -44.8809 -78.7686 -87.584 -107.341 -40.1572c-25.2959 41.9863 -37.5918 94.6895 -49.8486 141.84
c-11.5791 44.5654 -21.6514 89.9004 -30.2891 135.123c-13.7891 72.1699 -24.2754 145.472 -31.6436 218.8c-117.82 120.294 -163.886 300.712 -133.011 465.578c28.8018 153.761 128.774 291.798 259.977 375.204c137.873 87.6504 334.936 133.045 476.019 28.2305
c161.537 -119.998 72.459 -342.738 -10.5068 -483.006c-47.2891 -79.9531 -106.163 -153.169 -169.498 -220.938zM145.893 615.906c-33.8486 -122.808 -16.4082 -251.365 35.6631 -365.074c-8.39453 158.715 -5.69043 317.687 10.7305 475.868
c-19.9668 -34.8877 -35.7295 -72.1172 -46.3936 -110.794zM356.027 189.037c141.505 121.899 278.49 257.726 363.292 425.881c41.1445 81.5977 85.2363 188.938 27.4805 272.938c-58.085 84.4727 -169.169 93.5254 -260.654 69.3945
c-91.4395 -24.1182 -173.386 -77.7822 -235.569 -148.808c10.585 4.7168 21.2686 8.02637 30.6826 9.625c26.6572 4.52637 80.0381 -5.01953 77.4199 -43.5254c-12.71 -186.747 -17.1572 -374.1 -4.48633 -560.972c0.552734 -8.18457 1.24316 -16.3486 1.83496 -24.5332z
" />
    <glyph glyph-name="S" unicode="S" horiz-adv-x="934" 
d="M234.623 -23.1318c-44.1445 -35.8418 -73.208 -89.7812 -85.3525 -144.813c-26.6113 -120.669 36.1836 -241.806 146.53 -294.574c98.499 -47.1113 224.938 -57.1904 321.574 -0.704102c86.4727 50.5449 155.32 152.405 155.438 254.239
c0.269531 232.596 -278.792 337.66 -441.283 441.882c-96.1826 61.6963 -188.596 136.241 -238.364 242.135c-53.0713 112.919 -34.4199 234.213 38.9541 332.587c133.07 178.405 435.23 261.852 607.926 91.3145c53.2227 -52.5586 -62.9141 -123.091 -111.367 -84.1504
c-93.584 75.2158 -219.049 78.959 -312.751 2.44043c-40.6973 -33.2295 -70.2559 -80.1562 -77.8154 -132.715c-8.5791 -59.6504 16.9141 -120.491 48.3281 -169.819c60.2686 -94.6436 164.655 -158.426 257.595 -216.813
c103.577 -65.0645 205.944 -134.347 274.272 -238.188c65.3408 -99.3008 86.1953 -221.095 43.1562 -333.369c-40.9727 -106.873 -117.491 -198.661 -218.056 -254.318c-199.069 -110.176 -518.525 -36.3154 -582.663 201.122
c-29.71 109.998 3.99316 228.522 78.9395 313.048c58.1172 65.5518 200.786 150.866 278.476 70.3672c15.6836 -16.2559 -10.5859 -39.1699 -27.3418 -38.5059c-57.1699 2.27637 -110.551 -4.10547 -156.195 -41.1641z" />
    <glyph glyph-name="T" unicode="T" horiz-adv-x="898" 
d="M698.823 988.906c12.3223 3.97363 25.127 6.05664 37.2715 6.00391c202.543 31.4072 408.54 52.0713 612.84 60.4199c26.9736 1.09863 54.0254 -15.0068 47.499 -45.4404c-6.48047 -30.2031 -41.9336 -51.1504 -70.9727 -52.6045
c-176.155 -8.81543 -353.574 -14.9932 -529.67 -31.3945c-21.4072 -216.346 -35.2891 -432.553 -42.1904 -649.846c-3.52637 -110.966 -3.4541 -221.964 -3.875 -332.976c-0.210938 -54.7363 0.630859 -109.446 -0.283203 -164.183
c-0.894531 -53.9268 5.58594 -118.913 -13.5059 -169.945c-10.4209 -27.8418 -55.835 -51.3613 -76.7422 -20.7236c-28.1113 41.1904 -30.5059 108.36 -37.3154 156.669c-7.7832 55.1904 -12.2441 110.689 -16.5332 166.248c-8.60547 111.459 -11 223.431 -11.7764 335.192
c-1.5332 220.267 11.9932 442.04 37.6377 660.819c-13.6445 -1.88184 -27.2891 -3.81641 -40.9072 -5.87598c-112.617 -17.0264 -228.74 -44.585 -330.488 -97.1768c-45.7363 -23.6445 -86.7754 -54.9668 -119.064 -95.3086
c-28.1514 -35.1709 -71.4932 -133.077 6.45996 -143.084c32.7295 -4.19727 1.51953 -43.5195 -22.25 -40.7695c-43.0518 4.98633 -73.3867 41.7422 -74.8867 84.5576c-1.7832 50.7627 30.7949 97.7822 63.0703 134.131c135.222 152.274 356.363 206.866 548.808 239.353
c12.2568 2.07227 24.5859 3.94727 36.875 5.93359z" />
    <glyph glyph-name="U" unicode="U" horiz-adv-x="987" 
d="M744.9 999.195c22.7295 38.0322 83.502 98.1406 124.929 46.9707c17.3223 -21.4072 18.125 -52.834 20.7168 -78.9326c3.32227 -33.4268 4.6709 -67.0508 4.375 -100.636c-1.67773 -190.182 -40.0254 -386.646 -112.669 -566.465
c15.5059 -204.451 64.3271 -405.725 157.826 -589.433c39.3877 -77.3936 -122.399 -156.176 -163.898 -79.9404c-69.499 127.683 -111.88 265.438 -133.801 407.047c-61.46 -88.4727 -140.63 -169.912 -252.108 -185.162c-65.4727 -8.9541 -122.13 2.20996 -179.833 34.8408
c-53.8086 30.4209 -94.1367 91.4395 -117.341 147.498c-51.4531 124.301 -45.8545 266.47 -38.0654 397.889c8.86133 149.518 22.2627 301.673 52.9531 448.421c6.65137 31.7754 41.5 52.7031 71.0391 57.7227c22.625 3.8418 64.499 -4.125 63.3672 -35.625
c-5.23633 -145.708 -28.3018 -290.351 -34.749 -436.125c-5.50684 -124.445 -7.7373 -252.91 32.8672 -372.172c31.3418 -92.0449 97.0254 -215.826 212.478 -168.906c50.9199 20.6904 89.6562 64.3477 122.59 106.834c20.5059 26.4531 39.3213 54.1436 56.8408 82.6494
c-15.9336 155.182 -9.1709 313.594 11.9404 467.302c10.3613 75.4658 23.7686 150.353 40.1631 224.739c14.2627 64.7158 25.8809 133.768 60.3799 191.483zM793.226 801.663c-11.3555 -118.031 -17.3682 -235.656 -16.6514 -354.082
c7.19727 24.375 13.9668 48.8682 20.1309 73.5195c31.1641 124.656 48.5254 250.918 35.2432 379.337c-2.69043 26 -3.78906 56.9268 -11.7432 82.9004c-1.6709 -4.01953 -3.22363 -8.02637 -4.23633 -11.9473c-14.1182 -54.8018 -17.3418 -113.584 -22.7432 -169.728z" />
    <glyph glyph-name="U" unicode="&#xdc;" horiz-adv-x="987" 
d="M744.9 999.195c22.7295 38.0322 83.502 98.1406 124.929 46.9707c17.3223 -21.4072 18.125 -52.834 20.7168 -78.9326c3.32227 -33.4268 4.6709 -67.0508 4.375 -100.636c-1.67773 -190.182 -40.0254 -386.646 -112.669 -566.465
c15.5059 -204.451 64.3271 -405.725 157.826 -589.433c39.3877 -77.3936 -122.399 -156.176 -163.898 -79.9404c-69.499 127.683 -111.88 265.438 -133.801 407.047c-61.46 -88.4727 -140.63 -169.912 -252.108 -185.162c-65.4727 -8.9541 -122.13 2.20996 -179.833 34.8408
c-53.8086 30.4209 -94.1367 91.4395 -117.341 147.498c-51.4531 124.301 -45.8545 266.47 -38.0654 397.889c8.86133 149.518 22.2627 301.673 52.9531 448.421c6.65137 31.7754 41.5 52.7031 71.0391 57.7227c22.625 3.8418 64.499 -4.125 63.3672 -35.625
c-5.23633 -145.708 -28.3018 -290.351 -34.749 -436.125c-5.50684 -124.445 -7.7373 -252.91 32.8672 -372.172c31.3418 -92.0449 97.0254 -215.826 212.478 -168.906c50.9199 20.6904 89.6562 64.3477 122.59 106.834c20.5059 26.4531 39.3213 54.1436 56.8408 82.6494
c-15.9336 155.182 -9.1709 313.594 11.9404 467.302c10.3613 75.4658 23.7686 150.353 40.1631 224.739c14.2627 64.7158 25.8809 133.768 60.3799 191.483zM793.226 801.663c-11.3555 -118.031 -17.3682 -235.656 -16.6514 -354.082
c7.19727 24.375 13.9668 48.8682 20.1309 73.5195c31.1641 124.656 48.5254 250.918 35.2432 379.337c-2.69043 26 -3.78906 56.9268 -11.7432 82.9004c-1.6709 -4.01953 -3.22363 -8.02637 -4.23633 -11.9473c-14.1182 -54.8018 -17.3418 -113.584 -22.7432 -169.728z" />
    <glyph glyph-name="U" unicode="&#xdb;" horiz-adv-x="987" 
d="M744.9 999.195c22.7295 38.0322 83.502 98.1406 124.929 46.9707c17.3223 -21.4072 18.125 -52.834 20.7168 -78.9326c3.32227 -33.4268 4.6709 -67.0508 4.375 -100.636c-1.67773 -190.182 -40.0254 -386.646 -112.669 -566.465
c15.5059 -204.451 64.3271 -405.725 157.826 -589.433c39.3877 -77.3936 -122.399 -156.176 -163.898 -79.9404c-69.499 127.683 -111.88 265.438 -133.801 407.047c-61.46 -88.4727 -140.63 -169.912 -252.108 -185.162c-65.4727 -8.9541 -122.13 2.20996 -179.833 34.8408
c-53.8086 30.4209 -94.1367 91.4395 -117.341 147.498c-51.4531 124.301 -45.8545 266.47 -38.0654 397.889c8.86133 149.518 22.2627 301.673 52.9531 448.421c6.65137 31.7754 41.5 52.7031 71.0391 57.7227c22.625 3.8418 64.499 -4.125 63.3672 -35.625
c-5.23633 -145.708 -28.3018 -290.351 -34.749 -436.125c-5.50684 -124.445 -7.7373 -252.91 32.8672 -372.172c31.3418 -92.0449 97.0254 -215.826 212.478 -168.906c50.9199 20.6904 89.6562 64.3477 122.59 106.834c20.5059 26.4531 39.3213 54.1436 56.8408 82.6494
c-15.9336 155.182 -9.1709 313.594 11.9404 467.302c10.3613 75.4658 23.7686 150.353 40.1631 224.739c14.2627 64.7158 25.8809 133.768 60.3799 191.483zM793.226 801.663c-11.3555 -118.031 -17.3682 -235.656 -16.6514 -354.082
c7.19727 24.375 13.9668 48.8682 20.1309 73.5195c31.1641 124.656 48.5254 250.918 35.2432 379.337c-2.69043 26 -3.78906 56.9268 -11.7432 82.9004c-1.6709 -4.01953 -3.22363 -8.02637 -4.23633 -11.9473c-14.1182 -54.8018 -17.3418 -113.584 -22.7432 -169.728z" />
    <glyph glyph-name="U" unicode="&#xda;" horiz-adv-x="987" 
d="M744.9 999.195c22.7295 38.0322 83.502 98.1406 124.929 46.9707c17.3223 -21.4072 18.125 -52.834 20.7168 -78.9326c3.32227 -33.4268 4.6709 -67.0508 4.375 -100.636c-1.67773 -190.182 -40.0254 -386.646 -112.669 -566.465
c15.5059 -204.451 64.3271 -405.725 157.826 -589.433c39.3877 -77.3936 -122.399 -156.176 -163.898 -79.9404c-69.499 127.683 -111.88 265.438 -133.801 407.047c-61.46 -88.4727 -140.63 -169.912 -252.108 -185.162c-65.4727 -8.9541 -122.13 2.20996 -179.833 34.8408
c-53.8086 30.4209 -94.1367 91.4395 -117.341 147.498c-51.4531 124.301 -45.8545 266.47 -38.0654 397.889c8.86133 149.518 22.2627 301.673 52.9531 448.421c6.65137 31.7754 41.5 52.7031 71.0391 57.7227c22.625 3.8418 64.499 -4.125 63.3672 -35.625
c-5.23633 -145.708 -28.3018 -290.351 -34.749 -436.125c-5.50684 -124.445 -7.7373 -252.91 32.8672 -372.172c31.3418 -92.0449 97.0254 -215.826 212.478 -168.906c50.9199 20.6904 89.6562 64.3477 122.59 106.834c20.5059 26.4531 39.3213 54.1436 56.8408 82.6494
c-15.9336 155.182 -9.1709 313.594 11.9404 467.302c10.3613 75.4658 23.7686 150.353 40.1631 224.739c14.2627 64.7158 25.8809 133.768 60.3799 191.483zM793.226 801.663c-11.3555 -118.031 -17.3682 -235.656 -16.6514 -354.082
c7.19727 24.375 13.9668 48.8682 20.1309 73.5195c31.1641 124.656 48.5254 250.918 35.2432 379.337c-2.69043 26 -3.78906 56.9268 -11.7432 82.9004c-1.6709 -4.01953 -3.22363 -8.02637 -4.23633 -11.9473c-14.1182 -54.8018 -17.3418 -113.584 -22.7432 -169.728z" />
    <glyph glyph-name="V" unicode="V" horiz-adv-x="1084" 
d="M587.657 -265.904c61.2686 14.5127 112.544 72.3115 148.655 120.351c28.0654 37.3223 52.1377 78.1572 73.5186 120.137c-147.287 58.6172 -228.49 223.147 -269.792 368.533c-48.2559 169.847 -45.9141 356.884 -5.46777 528.276
c30.0781 127.445 106.649 290.891 254.489 308.173c151.366 17.6973 216.464 -157.353 239.517 -275.785c31.5391 -161.998 8.82227 -330.002 -22.0459 -490.256c-24.8809 -129.169 -57.8672 -258.779 -109.109 -380.475
c26.0654 -15.21 -0.355469 -51.7754 -29.5723 -64.9072c-3.36816 -6.86816 -6.73633 -13.7363 -10.2432 -20.5459c-33.999 -65.9727 -74.6035 -132.794 -126.491 -186.372c-50.5059 -52.1436 -119.189 -101.63 -190.432 -119.616
c-172.688 -43.6113 -319.713 76.959 -381.731 229.463c-65.749 161.682 -72.0713 340.646 -85.5713 512.361c-7.1377 90.7881 -12.8682 182.017 -16.9141 273.002c-4.25 95.4131 -13.2432 194.504 2.30957 288.943c5.82227 35.3486 85.9922 72.2031 103.104 27.8486
c31.8418 -82.5312 38.6768 -174.536 51.3213 -261.798c12.9209 -89.1631 23.7363 -179.096 32.9463 -268.726c17.1777 -167.136 26.75 -341.14 83.1836 -500.789c39.6973 -112.294 119.578 -240.687 258.326 -207.818zM645.762 327.452
c39.3154 -103.637 101.379 -217.075 201.66 -272.173c54.4336 127.813 86.1699 264.634 110.848 400.941c26.4209 145.958 42.3086 297.482 11.8555 444.151c-21.3682 102.899 -102.591 303.601 -241.582 213.253c-116.794 -75.9199 -137.412 -253.411 -143.03 -379.942
c-6.0791 -136.919 11.4736 -277.68 60.249 -406.23z" />
    <glyph glyph-name="W" unicode="W" horiz-adv-x="1606" 
d="M418.422 30.7949c11.0391 21.2822 21.332 42.9209 31.3848 64.6709c21.5586 46.6182 43.7422 92.9199 61.9199 140.998c36.21 95.7617 65.0186 193.971 99.5176 290.324c29.6113 82.6895 60.3809 189.365 128.091 249.647c29.25 26.0459 69.8418 36.6709 102.644 11.1445
c35.7432 -27.8154 51.1182 -73.3086 60.9336 -115.946c22.6445 -98.3477 29.2295 -200.544 32.9004 -301.168c3.7168 -101.933 7.33496 -204.142 18.9795 -305.555c10.9805 -95.6436 28.9609 -196.116 72.1055 -283.069c17.2236 -34.7236 40.2236 -69.5059 72.3154 -92.3545
c22.7695 -16.2041 48.6309 -23.4346 67.7295 -12.2178c35.3418 20.7627 61.124 58.4268 82.6963 92.2285c26.0586 40.835 47.4199 83.9062 65.7354 128.722c30.75 75.249 55.3086 153.781 74.8936 233.853c-146.859 31.7168 -212.971 186.03 -243.621 318.377
c-37.4932 161.893 -30.9932 339.811 15.1572 499.394c31.9004 110.308 121.123 257.062 256.871 200.287c58.3936 -24.4209 87.123 -77.3613 104.208 -135.545c21.75 -74.0449 29.5723 -150.557 31.7568 -227.457c4.57227 -160.984 -7.15137 -323.002 -33.0654 -481.914
c-25.125 -154.077 -60.2891 -310.647 -120.052 -455.29c-54.7363 -132.485 -137.774 -283.911 -294.852 -305.608c-75.8408 -10.4805 -156.347 16.8018 -207.589 74.5381c-52.2754 58.9004 -74.7227 134.248 -93.5312 209.096
c-38.5322 153.34 -32.4531 313.824 -26.2891 470.388c3.07227 78.0908 7.09863 156.03 8.9082 234.167c0.973633 41.9932 2.61816 83.7627 0.868164 125.769c-0.526367 12.5586 -1.4668 72.3535 -12.9795 90.6562c-26.4336 -21.3086 -44.0586 -65.7549 -56.5254 -93.2148
c-16.7695 -36.9404 -30.0059 -75.4658 -42.8545 -113.919c-25.0322 -74.9131 -48.3604 -150.879 -68.8271 -227.161c-17.5918 -65.5781 -35.46 -131.663 -56.8477 -196.109c-19.9141 -59.999 -43.9727 -129.07 -84.0645 -178.918
c-44.0713 -54.8018 -118.077 -75.9854 -185.096 -57.5977c-65.1572 17.8809 -109.262 69.1562 -145.531 123.294c-80.0186 119.452 -89.1104 280.246 -85.7285 419.954c1.88184 77.9131 7.72363 155.596 12.9473 233.331c5.28906 78.709 13.9473 157.425 17.3877 236.174
c2.2041 50.374 100.992 93.0117 112.334 29.9404c9.25684 -51.4863 19.0195 -103.367 20.835 -155.688c7.2168 -207.938 -6.1709 -422.046 54.3281 -623.694c13.125 -43.749 26.2959 -88.3203 52.71 -126.353c9.78906 -14.0918 22.6836 -27.9209 37.6768 -36.4473
c6.11133 -3.47363 12.6904 -6.24316 19.7236 -6.8877c2.5918 -0.237305 3.4668 -0.585938 3.7627 -0.823242c-0.0126953 0.322266 0.323242 1.01953 2.15234 2.44727c15.7568 12.3291 25.0859 36.3818 33.9805 53.5391zM1261.73 359.692
c30.0195 -64.1572 76.0059 -130.327 145.248 -153.327c21.0391 102.577 34.5459 206.806 42.6514 309.199c8.16406 103.156 11.585 207.951 4.3418 311.272c-6.1709 88.0713 -20.4473 185.866 -76.21 257.825c-70.8213 91.3936 -146.676 -92.0244 -161.058 -141.563
c-28.835 -99.3477 -38.2686 -201.583 -28.1436 -304.503c9.35547 -95.1172 32.5654 -192.096 73.1699 -278.903z" />
    <glyph glyph-name="X" unicode="X" horiz-adv-x="764" 
d="M765.967 907.611c19.1973 18.4209 44.4697 37.5518 39.5879 67.2617c-3.6709 22.3545 41.7822 37.749 47.4268 12.6445c11.2363 -49.9795 -37.0791 -88.7754 -68.5391 -119.716c-43.5654 -42.8418 -87.0781 -85.7559 -130.13 -129.117
c-81.7881 -82.3809 -163.208 -166.755 -238.424 -256.05c20.085 -94.7354 41.71 -189.655 69.1895 -282.352c29.6113 -99.8867 64.9004 -202.135 116.769 -292.903c32.6045 -57.0586 108.512 -158.176 184.603 -111.709c37.5518 22.9336 72.499 -19.8154 35.6182 -47.624
c-96.0117 -72.3809 -218.339 -59.4863 -311.588 9.6709c-39.5254 29.3154 -69.0381 74.2158 -94.3467 115.801c-28.8223 47.3545 -52.2432 99.959 -70.5391 152.241c-30.4004 86.8672 -53.5254 177.234 -71.9922 267.852
c-8.52637 -12.96 -16.9346 -26.0059 -25.0859 -39.2227c-52.2949 -84.7754 -95.1895 -177.116 -111.847 -275.938c-7.9541 -47.1904 -9.68457 -95.3809 -1.36914 -142.637c7.99316 -45.4004 37.5127 -99.9717 90.4199 -99.9062
c45.6504 0.0595703 21.3545 -52.3604 -12.8291 -53.584c-52.9336 -1.8877 -100.374 23.4346 -130.005 67.2559c-32.2236 47.6572 -35.4805 105.887 -31.5723 161.544c12.1904 173.511 100.959 326.515 207.319 461.349c-19.4795 110.795 -32.5518 221.682 -45.2686 333.397
c-6.14453 53.9922 -12.0654 107.926 -25.585 160.688c-4.85547 18.9336 -24.9805 129.979 -57.2764 122.229c-30.5518 -7.3418 -36.7754 27.0264 -10.374 38.1641c115.57 48.7627 181.254 -92.334 210.793 -179.912c33.5586 -99.4854 51.7949 -204.03 72.9062 -306.732
c56.7422 62.1504 114.741 123.156 174.082 182.813c40.3281 40.5459 81.1367 80.6045 122.116 120.492c21.9473 21.3682 43.8418 42.7891 65.9404 63.999z" />
    <glyph glyph-name="Y" unicode="Y" horiz-adv-x="1078" 
d="M92.7598 945.374c6.94043 39.3018 89.25 75.6611 110.354 29.8193c37.5127 -81.4922 31.4795 -178.188 26.5059 -266.431c-5.1582 -91.6172 -10.1318 -182.386 -4.46094 -274.121c2.48047 -40.0918 3.42773 -81.874 21.0459 -118.821
c9.34863 -19.6045 37.7891 -54.9395 59.2168 -48.6299c30.125 8.86816 54.8877 55.7559 70.3418 80.2754c21.6641 34.374 40.5254 70.4463 57.4326 107.38c60.8086 132.86 95.6768 275.575 159.248 407.429c25.9014 53.7227 59.5264 129.169 122.289 147.741
c69.3672 20.5264 120.945 -31.6172 155.425 -84.2676c82.3672 -125.781 111.716 -269.707 115.874 -418.284c4.16406 -148.708 -3.9873 -305.949 -44.4277 -449.736c-39.9668 -142.09 -113.512 -277.081 -233.398 -366.929
c-100.406 -75.249 -270.424 -147.531 -391.994 -80.2891c-132.847 73.4727 -58.4131 248.964 7.22363 342.692c77.6631 110.913 188.688 193.018 309.653 251.392c34.1113 16.46 68.9922 -19.7373 32.249 -43.125c-113.262 -72.0908 -233.142 -152.826 -292.174 -278.028
c-23.125 -49.0449 -47.6377 -133.044 3.45996 -173.978c43.7695 -35.0654 114.223 -5.15137 153.716 15.3809c40.7031 21.1572 77.8271 55.3545 112.761 94.1436c38.5781 42.8418 66.3076 87.7031 91.9912 143.841c56.1113 122.616 73.4668 261.088 88.8682 393.691
c15.8809 136.761 14.9199 271.641 -4.6123 407.896c-4.86816 33.9795 -11.7236 67.834 -22.2305 100.531c-9.32227 29.0195 -19.7695 64.8086 -42.0127 86.7686c-37.7432 37.2559 -64.6963 -18.7627 -79.749 -48.4463
c-15.4736 -30.5254 -26.0195 -63.1504 -36.2822 -95.7158c-39.249 -124.551 -72.2422 -251.417 -124.09 -371.626c-47.2822 -109.637 -124.512 -261.825 -261.49 -267.035c-167.004 -6.34863 -206.628 191.083 -203.306 319.72
c1.9873 76.959 9.96777 154.287 18.9805 230.707c8.89453 75.4463 10.4541 151.616 23.5918 226.056z" />
    <glyph glyph-name="Y" unicode="&#x178;" horiz-adv-x="1078" 
d="M92.7598 945.374c6.94043 39.3018 89.25 75.6611 110.354 29.8193c37.5127 -81.4922 31.4795 -178.188 26.5059 -266.431c-5.1582 -91.6172 -10.1318 -182.386 -4.46094 -274.121c2.48047 -40.0918 3.42773 -81.874 21.0459 -118.821
c9.34863 -19.6045 37.7891 -54.9395 59.2168 -48.6299c30.125 8.86816 54.8877 55.7559 70.3418 80.2754c21.6641 34.374 40.5254 70.4463 57.4326 107.38c60.8086 132.86 95.6768 275.575 159.248 407.429c25.9014 53.7227 59.5264 129.169 122.289 147.741
c69.3672 20.5264 120.945 -31.6172 155.425 -84.2676c82.3672 -125.781 111.716 -269.707 115.874 -418.284c4.16406 -148.708 -3.9873 -305.949 -44.4277 -449.736c-39.9668 -142.09 -113.512 -277.081 -233.398 -366.929
c-100.406 -75.249 -270.424 -147.531 -391.994 -80.2891c-132.847 73.4727 -58.4131 248.964 7.22363 342.692c77.6631 110.913 188.688 193.018 309.653 251.392c34.1113 16.46 68.9922 -19.7373 32.249 -43.125c-113.262 -72.0908 -233.142 -152.826 -292.174 -278.028
c-23.125 -49.0449 -47.6377 -133.044 3.45996 -173.978c43.7695 -35.0654 114.223 -5.15137 153.716 15.3809c40.7031 21.1572 77.8271 55.3545 112.761 94.1436c38.5781 42.8418 66.3076 87.7031 91.9912 143.841c56.1113 122.616 73.4668 261.088 88.8682 393.691
c15.8809 136.761 14.9199 271.641 -4.6123 407.896c-4.86816 33.9795 -11.7236 67.834 -22.2305 100.531c-9.32227 29.0195 -19.7695 64.8086 -42.0127 86.7686c-37.7432 37.2559 -64.6963 -18.7627 -79.749 -48.4463
c-15.4736 -30.5254 -26.0195 -63.1504 -36.2822 -95.7158c-39.249 -124.551 -72.2422 -251.417 -124.09 -371.626c-47.2822 -109.637 -124.512 -261.825 -261.49 -267.035c-167.004 -6.34863 -206.628 191.083 -203.306 319.72
c1.9873 76.959 9.96777 154.287 18.9805 230.707c8.89453 75.4463 10.4541 151.616 23.5918 226.056z" />
    <glyph glyph-name="Y" unicode="&#xdd;" horiz-adv-x="1078" 
d="M92.7598 945.374c6.94043 39.3018 89.25 75.6611 110.354 29.8193c37.5127 -81.4922 31.4795 -178.188 26.5059 -266.431c-5.1582 -91.6172 -10.1318 -182.386 -4.46094 -274.121c2.48047 -40.0918 3.42773 -81.874 21.0459 -118.821
c9.34863 -19.6045 37.7891 -54.9395 59.2168 -48.6299c30.125 8.86816 54.8877 55.7559 70.3418 80.2754c21.6641 34.374 40.5254 70.4463 57.4326 107.38c60.8086 132.86 95.6768 275.575 159.248 407.429c25.9014 53.7227 59.5264 129.169 122.289 147.741
c69.3672 20.5264 120.945 -31.6172 155.425 -84.2676c82.3672 -125.781 111.716 -269.707 115.874 -418.284c4.16406 -148.708 -3.9873 -305.949 -44.4277 -449.736c-39.9668 -142.09 -113.512 -277.081 -233.398 -366.929
c-100.406 -75.249 -270.424 -147.531 -391.994 -80.2891c-132.847 73.4727 -58.4131 248.964 7.22363 342.692c77.6631 110.913 188.688 193.018 309.653 251.392c34.1113 16.46 68.9922 -19.7373 32.249 -43.125c-113.262 -72.0908 -233.142 -152.826 -292.174 -278.028
c-23.125 -49.0449 -47.6377 -133.044 3.45996 -173.978c43.7695 -35.0654 114.223 -5.15137 153.716 15.3809c40.7031 21.1572 77.8271 55.3545 112.761 94.1436c38.5781 42.8418 66.3076 87.7031 91.9912 143.841c56.1113 122.616 73.4668 261.088 88.8682 393.691
c15.8809 136.761 14.9199 271.641 -4.6123 407.896c-4.86816 33.9795 -11.7236 67.834 -22.2305 100.531c-9.32227 29.0195 -19.7695 64.8086 -42.0127 86.7686c-37.7432 37.2559 -64.6963 -18.7627 -79.749 -48.4463
c-15.4736 -30.5254 -26.0195 -63.1504 -36.2822 -95.7158c-39.249 -124.551 -72.2422 -251.417 -124.09 -371.626c-47.2822 -109.637 -124.512 -261.825 -261.49 -267.035c-167.004 -6.34863 -206.628 191.083 -203.306 319.72
c1.9873 76.959 9.96777 154.287 18.9805 230.707c8.89453 75.4463 10.4541 151.616 23.5918 226.056z" />
    <glyph glyph-name="Z" unicode="Z" horiz-adv-x="955" 
d="M649.8 -241.898c-105.123 -49.1182 -202.26 -112.418 -300.719 -173.364c-70.6836 -43.7432 -181.195 -123.077 -258.931 -47.9727c-76.6895 74.0977 -5.80273 203.951 37.0781 276.733c107.024 181.668 247.97 341.619 362.093 518.794
c-27.4404 -1.13184 -54.8281 -0.25 -81.6826 6.30273c-30.7236 7.49316 -4.61914 40.1699 16.0713 41.0645c34.9668 1.50684 69.71 7.93457 104.407 14.4209c89.7949 147.833 187.932 351.39 62.3809 498.506c-139.386 163.326 -362.436 78.3076 -501.52 -36.6973
c-23.1113 -19.1055 -55.7295 4.15039 -28.875 26.7158c159.623 134.123 400.113 210.115 587.196 81.8213c82.3809 -56.4922 125.249 -150.655 129.434 -248.977c4.51953 -106.308 -33.0459 -209.767 -80.96 -303.357c22.8809 -0.105469 45.7686 -1.375 68.6367 -4.16406
c22.0527 -2.68457 30.3818 -24.2168 20.8164 -42.6709c-10.5459 -20.3486 -37.7432 -33.0195 -60.1045 -29.3154c-22.7627 3.76953 -45.3408 5.30859 -67.9131 5.61816c-99.4463 -172.715 -225.201 -328.199 -334.239 -494.888
c-29.5586 -45.1963 -60.4727 -90.3535 -82.9727 -139.609c-9.89453 -21.6709 -18.1309 -44.3545 -22.3672 -67.8477c-2.06543 -11.4736 -8.16406 -32.6309 1.08594 -42.5391c11.8613 -12.7168 33.3809 1.05957 45.4795 6.88184
c23.8545 11.4863 47.2617 23.9199 70.4258 36.7422c46.5059 25.7363 92.7549 51.96 138.833 78.4658c91.0908 52.4004 183.398 103.505 282.41 139.504c83.7881 30.46 190.918 65.2822 269.542 4.96777c33.25 -25.5127 -37.4922 -78.4131 -67.3672 -50.9072
c-40.2363 37.0459 -102.473 18.5596 -149.248 5.69824c-54.7949 -15.0654 -107.551 -35.8945 -158.991 -59.9268z" />
    <glyph glyph-name="bracketleft" unicode="[" horiz-adv-x="513" 
d="M454.262 -160.249c11.3682 -8.5332 11.1416 -24.6787 0.74707 -34.5801c-46.5127 -44.2363 -105.519 -79.9463 -170.965 -84.2949c-65.3672 -4.3418 -131.162 17.625 -169.3 72.9922c-27.5918 40.0518 -36.7764 93.5908 -42.3154 141.097
c-7.5791 64.9199 -11.4346 130.34 -13.9277 195.615c-5.0918 133.222 -8.72363 266.509 -8.49316 399.836c0.112305 67.7295 2.07324 134.808 8.12598 202.287c5.23047 58.2822 10.8096 119.814 31.5068 175.005c19.2432 51.3154 55.085 105.334 111.117 121.222
c41.4668 11.7568 84.0518 23.8359 123.531 -0.571289c25.2559 -15.6113 -11.9473 -47.3809 -32.2559 -36.5127c-15.8613 8.48633 -36.7754 12.8545 -53.374 4.11133c-6.68457 -13.8086 -14.3223 -26.249 -18.3486 -42.2158
c-5.53906 -21.96 -8.50586 -42.999 -9.20996 -65.6104c-1.875 -59.7754 1.44043 -120.229 3.8877 -179.978c5.22363 -127.366 9.70996 -254.805 13.9795 -382.211c4.18457 -124.808 5.80957 -250.418 13.5596 -375.028c2.55273 -41.0723 9.52637 -89.2559 39.1182 -120.427
c37.2891 -39.2822 89.874 -24.1377 128.689 4.0332c11.335 8.23047 31.2627 14.7236 43.9268 5.23047z" />
    <glyph glyph-name="backslash" unicode="\" horiz-adv-x="593" 
d="M542.299 -132.75c11.6514 -60.874 -121.181 -118.133 -144.582 -54.1006c-67.6572 185.188 -113.512 379.027 -171.768 567.387c-57.7158 186.609 -105.82 377.83 -174.353 560.814c-11.9277 31.8486 46.1895 68.6182 68.6689 42.0664
c63.4922 -74.9795 98.6299 -167.34 137.426 -256.47c39.6904 -91.1826 75.3018 -184.273 108.492 -278.002c67.1768 -189.701 138.215 -383.633 176.115 -581.695z" />
    <glyph glyph-name="bracketright" unicode="]" horiz-adv-x="514" 
d="M440.3 877.953c25.835 -122.209 24.3926 -247.702 23.8271 -371.957c-0.612305 -132.886 -3.02051 -266.778 -11.3623 -399.428c-6.98633 -111.123 -4.65723 -250.029 -93.5576 -331.238c-45.5586 -41.6113 -107.123 -60.2422 -168.247 -53.3076
c-50.6904 5.74316 -98.4922 38.7295 -133.866 73.8535c-27.2627 27.0723 31.1309 58.9404 55.5186 41.9541c32.4336 -22.5918 106.985 -56.0586 136.998 -12.3096c20.4072 29.7559 22.0391 73.8867 23.25 109.438c4.48633 131.998 9.97266 263.957 14.1172 395.975
c4.16406 132.854 11.6182 265.595 14.5527 398.487c1.27637 57.8281 6.30273 118.262 -2.03223 175.761c-3.83594 26.4736 -11.6055 49.0723 -22.75 72.9473c-6.3418 13.5723 -6.7627 17.0068 -22.96 20.7178c-14.5586 3.3418 -26.499 1.72363 -39.5645 -5.38184
c-29 -15.7764 -43.0791 16.9209 -16.2178 33.2559c21.1836 12.8877 45.46 18.5391 70.2227 16.1182c24.0322 -2.3418 55.1504 -8.83496 77.0518 -18.6182c59.6113 -26.6182 82.4141 -86.6436 95.0195 -146.268z" />
    <glyph glyph-name="asciicircum" unicode="^" horiz-adv-x="358" 
d="M305.51 746.816c10.96 -34.2754 -12.6562 -63.9922 -42.998 -78.7812c-23.2695 -11.3486 -77.749 -19.1836 -88.5645 14.625c-7.98047 24.9473 -15.3359 49.835 -21.79 75.1631c-10.3613 -17.7363 -21.1572 -35.1377 -34.7422 -50.2695
c-15.0791 -16.7959 -61.6377 -30.1777 -66.4209 3.0459c-5.5918 38.8086 13.5127 76.9727 29.9795 111.064c19.125 39.5977 41.8545 76.7422 87.2422 88.6631c42.4463 11.1445 76.1104 -7.03906 93.4912 -45.8213c17.1055 -38.1709 31.0791 -77.9072 43.8027 -117.689z" />
    <glyph glyph-name="underscore" unicode="_" horiz-adv-x="596" 
d="M493.773 -79.4346c93.7021 -3.0459 45.1357 -112.006 -26.5342 -110.821c-66.6572 1.10547 -133.242 2.01367 -199.905 2.3623c-62.8213 0.329102 -131.912 -6.97363 -193.575 6.375c-48.8477 10.5791 -11.6113 57.499 15.9873 67.3809
c63.1113 22.6045 136.176 26.1045 202.636 30.8809c66.8018 4.78906 134.472 6 201.392 3.82227z" />
    <glyph glyph-name="grave" unicode="`" horiz-adv-x="251" 
d="M198.277 725.231c23.5918 -55.1309 -91.21 -103.234 -106.677 -39.9062c-14.4277 59.0645 -38.4336 119.833 -41.5654 180.964c-1.8291 35.71 65.7822 69.0977 84.7363 31.6973c27.5 -54.2559 39.5391 -116.742 63.5059 -172.755z" />
    <glyph glyph-name="a" unicode="a" horiz-adv-x="540" 
d="M537.38 294.075c7.6582 18.8486 56.5439 23.2031 47.2607 -2.2373c-25.5322 -69.9727 -52.5254 -139.755 -90.8271 -203.912c-31.9736 -53.5654 -72.1709 -104.519 -138.025 -114.295c-85.5518 -12.7041 -116.591 77.1895 -126.334 146.426
c-0.625 4.4209 -1.1377 8.86133 -1.5918 13.2959c-8.5791 -30.6768 -18.9209 -60.9131 -34.1904 -88.1631c-22.835 -40.7559 -67.6367 -70.3867 -115.491 -68.2354c-56.2158 2.5332 -88.7744 50.2236 -102.077 99.999c-29.4531 110.222 4.75684 248.141 97.6172 318.791
c36.6641 27.8945 86.624 43.6641 132.762 35.0986c20.6904 -3.8418 37.0459 -13.4795 50.5654 -26.46c14.6836 18.1182 36.2686 31.1504 59.709 37.3408c29.9736 7.91406 92.0713 1.25 89.9658 -42.624c-2.98633 -62.3408 -13.1309 -123.307 -19.6572 -185.24
c-5.65137 -53.6768 -13.2109 -112.202 -1.16504 -165.412c1.96094 -8.68359 0.573242 -17.749 10.0801 -15.9727c11.4014 2.1377 27.6318 30.2363 33.3223 38.624c15.4336 22.7559 29.0586 46.749 41.5918 71.2021c25.1836 49.1309 45.7295 100.663 66.4854 151.774z
M181.883 152.655c18.375 62.96 33.501 126.813 48.5928 190.635c-14.7168 20.4541 -34.1445 39.75 -51.7822 32.6973c1.6377 -0.151367 -8.21094 -8.75 -10.0469 -10.8877c-3.78906 -4.4082 -8.18359 -8.56641 -11.4863 -13.3623
c-6.86133 -9.9541 -11.3945 -22.1846 -15.1514 -33.5596c-22.3945 -67.7617 -36.085 -133.826 -31.8418 -205.496c1.0459 -17.6836 0.756836 -39.2158 6.625 -56.123c1.57227 -4.51953 4.44727 -12.3945 8.125 -15.6377c8.20996 -7.25 8.56543 -3.08594 15.7295 6.37402
c22.085 29.1768 31.1641 70.8213 41.2363 105.36z" />
    <glyph glyph-name="a" unicode="&#xe5;" horiz-adv-x="540" 
d="M537.38 294.075c7.6582 18.8486 56.5439 23.2031 47.2607 -2.2373c-25.5322 -69.9727 -52.5254 -139.755 -90.8271 -203.912c-31.9736 -53.5654 -72.1709 -104.519 -138.025 -114.295c-85.5518 -12.7041 -116.591 77.1895 -126.334 146.426
c-0.625 4.4209 -1.1377 8.86133 -1.5918 13.2959c-8.5791 -30.6768 -18.9209 -60.9131 -34.1904 -88.1631c-22.835 -40.7559 -67.6367 -70.3867 -115.491 -68.2354c-56.2158 2.5332 -88.7744 50.2236 -102.077 99.999c-29.4531 110.222 4.75684 248.141 97.6172 318.791
c36.6641 27.8945 86.624 43.6641 132.762 35.0986c20.6904 -3.8418 37.0459 -13.4795 50.5654 -26.46c14.6836 18.1182 36.2686 31.1504 59.709 37.3408c29.9736 7.91406 92.0713 1.25 89.9658 -42.624c-2.98633 -62.3408 -13.1309 -123.307 -19.6572 -185.24
c-5.65137 -53.6768 -13.2109 -112.202 -1.16504 -165.412c1.96094 -8.68359 0.573242 -17.749 10.0801 -15.9727c11.4014 2.1377 27.6318 30.2363 33.3223 38.624c15.4336 22.7559 29.0586 46.749 41.5918 71.2021c25.1836 49.1309 45.7295 100.663 66.4854 151.774z
M181.883 152.655c18.375 62.96 33.501 126.813 48.5928 190.635c-14.7168 20.4541 -34.1445 39.75 -51.7822 32.6973c1.6377 -0.151367 -8.21094 -8.75 -10.0469 -10.8877c-3.78906 -4.4082 -8.18359 -8.56641 -11.4863 -13.3623
c-6.86133 -9.9541 -11.3945 -22.1846 -15.1514 -33.5596c-22.3945 -67.7617 -36.085 -133.826 -31.8418 -205.496c1.0459 -17.6836 0.756836 -39.2158 6.625 -56.123c1.57227 -4.51953 4.44727 -12.3945 8.125 -15.6377c8.20996 -7.25 8.56543 -3.08594 15.7295 6.37402
c22.085 29.1768 31.1641 70.8213 41.2363 105.36z" />
    <glyph glyph-name="a" unicode="&#xe4;" horiz-adv-x="540" 
d="M537.38 294.075c7.6582 18.8486 56.5439 23.2031 47.2607 -2.2373c-25.5322 -69.9727 -52.5254 -139.755 -90.8271 -203.912c-31.9736 -53.5654 -72.1709 -104.519 -138.025 -114.295c-85.5518 -12.7041 -116.591 77.1895 -126.334 146.426
c-0.625 4.4209 -1.1377 8.86133 -1.5918 13.2959c-8.5791 -30.6768 -18.9209 -60.9131 -34.1904 -88.1631c-22.835 -40.7559 -67.6367 -70.3867 -115.491 -68.2354c-56.2158 2.5332 -88.7744 50.2236 -102.077 99.999c-29.4531 110.222 4.75684 248.141 97.6172 318.791
c36.6641 27.8945 86.624 43.6641 132.762 35.0986c20.6904 -3.8418 37.0459 -13.4795 50.5654 -26.46c14.6836 18.1182 36.2686 31.1504 59.709 37.3408c29.9736 7.91406 92.0713 1.25 89.9658 -42.624c-2.98633 -62.3408 -13.1309 -123.307 -19.6572 -185.24
c-5.65137 -53.6768 -13.2109 -112.202 -1.16504 -165.412c1.96094 -8.68359 0.573242 -17.749 10.0801 -15.9727c11.4014 2.1377 27.6318 30.2363 33.3223 38.624c15.4336 22.7559 29.0586 46.749 41.5918 71.2021c25.1836 49.1309 45.7295 100.663 66.4854 151.774z
M181.883 152.655c18.375 62.96 33.501 126.813 48.5928 190.635c-14.7168 20.4541 -34.1445 39.75 -51.7822 32.6973c1.6377 -0.151367 -8.21094 -8.75 -10.0469 -10.8877c-3.78906 -4.4082 -8.18359 -8.56641 -11.4863 -13.3623
c-6.86133 -9.9541 -11.3945 -22.1846 -15.1514 -33.5596c-22.3945 -67.7617 -36.085 -133.826 -31.8418 -205.496c1.0459 -17.6836 0.756836 -39.2158 6.625 -56.123c1.57227 -4.51953 4.44727 -12.3945 8.125 -15.6377c8.20996 -7.25 8.56543 -3.08594 15.7295 6.37402
c22.085 29.1768 31.1641 70.8213 41.2363 105.36z" />
    <glyph glyph-name="a" unicode="&#xe3;" horiz-adv-x="540" 
d="M537.38 294.075c7.6582 18.8486 56.5439 23.2031 47.2607 -2.2373c-25.5322 -69.9727 -52.5254 -139.755 -90.8271 -203.912c-31.9736 -53.5654 -72.1709 -104.519 -138.025 -114.295c-85.5518 -12.7041 -116.591 77.1895 -126.334 146.426
c-0.625 4.4209 -1.1377 8.86133 -1.5918 13.2959c-8.5791 -30.6768 -18.9209 -60.9131 -34.1904 -88.1631c-22.835 -40.7559 -67.6367 -70.3867 -115.491 -68.2354c-56.2158 2.5332 -88.7744 50.2236 -102.077 99.999c-29.4531 110.222 4.75684 248.141 97.6172 318.791
c36.6641 27.8945 86.624 43.6641 132.762 35.0986c20.6904 -3.8418 37.0459 -13.4795 50.5654 -26.46c14.6836 18.1182 36.2686 31.1504 59.709 37.3408c29.9736 7.91406 92.0713 1.25 89.9658 -42.624c-2.98633 -62.3408 -13.1309 -123.307 -19.6572 -185.24
c-5.65137 -53.6768 -13.2109 -112.202 -1.16504 -165.412c1.96094 -8.68359 0.573242 -17.749 10.0801 -15.9727c11.4014 2.1377 27.6318 30.2363 33.3223 38.624c15.4336 22.7559 29.0586 46.749 41.5918 71.2021c25.1836 49.1309 45.7295 100.663 66.4854 151.774z
M181.883 152.655c18.375 62.96 33.501 126.813 48.5928 190.635c-14.7168 20.4541 -34.1445 39.75 -51.7822 32.6973c1.6377 -0.151367 -8.21094 -8.75 -10.0469 -10.8877c-3.78906 -4.4082 -8.18359 -8.56641 -11.4863 -13.3623
c-6.86133 -9.9541 -11.3945 -22.1846 -15.1514 -33.5596c-22.3945 -67.7617 -36.085 -133.826 -31.8418 -205.496c1.0459 -17.6836 0.756836 -39.2158 6.625 -56.123c1.57227 -4.51953 4.44727 -12.3945 8.125 -15.6377c8.20996 -7.25 8.56543 -3.08594 15.7295 6.37402
c22.085 29.1768 31.1641 70.8213 41.2363 105.36z" />
    <glyph glyph-name="a" unicode="&#xe2;" horiz-adv-x="540" 
d="M537.38 294.075c7.6582 18.8486 56.5439 23.2031 47.2607 -2.2373c-25.5322 -69.9727 -52.5254 -139.755 -90.8271 -203.912c-31.9736 -53.5654 -72.1709 -104.519 -138.025 -114.295c-85.5518 -12.7041 -116.591 77.1895 -126.334 146.426
c-0.625 4.4209 -1.1377 8.86133 -1.5918 13.2959c-8.5791 -30.6768 -18.9209 -60.9131 -34.1904 -88.1631c-22.835 -40.7559 -67.6367 -70.3867 -115.491 -68.2354c-56.2158 2.5332 -88.7744 50.2236 -102.077 99.999c-29.4531 110.222 4.75684 248.141 97.6172 318.791
c36.6641 27.8945 86.624 43.6641 132.762 35.0986c20.6904 -3.8418 37.0459 -13.4795 50.5654 -26.46c14.6836 18.1182 36.2686 31.1504 59.709 37.3408c29.9736 7.91406 92.0713 1.25 89.9658 -42.624c-2.98633 -62.3408 -13.1309 -123.307 -19.6572 -185.24
c-5.65137 -53.6768 -13.2109 -112.202 -1.16504 -165.412c1.96094 -8.68359 0.573242 -17.749 10.0801 -15.9727c11.4014 2.1377 27.6318 30.2363 33.3223 38.624c15.4336 22.7559 29.0586 46.749 41.5918 71.2021c25.1836 49.1309 45.7295 100.663 66.4854 151.774z
M181.883 152.655c18.375 62.96 33.501 126.813 48.5928 190.635c-14.7168 20.4541 -34.1445 39.75 -51.7822 32.6973c1.6377 -0.151367 -8.21094 -8.75 -10.0469 -10.8877c-3.78906 -4.4082 -8.18359 -8.56641 -11.4863 -13.3623
c-6.86133 -9.9541 -11.3945 -22.1846 -15.1514 -33.5596c-22.3945 -67.7617 -36.085 -133.826 -31.8418 -205.496c1.0459 -17.6836 0.756836 -39.2158 6.625 -56.123c1.57227 -4.51953 4.44727 -12.3945 8.125 -15.6377c8.20996 -7.25 8.56543 -3.08594 15.7295 6.37402
c22.085 29.1768 31.1641 70.8213 41.2363 105.36z" />
    <glyph glyph-name="a" unicode="&#xe1;" horiz-adv-x="540" 
d="M537.38 294.075c7.6582 18.8486 56.5439 23.2031 47.2607 -2.2373c-25.5322 -69.9727 -52.5254 -139.755 -90.8271 -203.912c-31.9736 -53.5654 -72.1709 -104.519 -138.025 -114.295c-85.5518 -12.7041 -116.591 77.1895 -126.334 146.426
c-0.625 4.4209 -1.1377 8.86133 -1.5918 13.2959c-8.5791 -30.6768 -18.9209 -60.9131 -34.1904 -88.1631c-22.835 -40.7559 -67.6367 -70.3867 -115.491 -68.2354c-56.2158 2.5332 -88.7744 50.2236 -102.077 99.999c-29.4531 110.222 4.75684 248.141 97.6172 318.791
c36.6641 27.8945 86.624 43.6641 132.762 35.0986c20.6904 -3.8418 37.0459 -13.4795 50.5654 -26.46c14.6836 18.1182 36.2686 31.1504 59.709 37.3408c29.9736 7.91406 92.0713 1.25 89.9658 -42.624c-2.98633 -62.3408 -13.1309 -123.307 -19.6572 -185.24
c-5.65137 -53.6768 -13.2109 -112.202 -1.16504 -165.412c1.96094 -8.68359 0.573242 -17.749 10.0801 -15.9727c11.4014 2.1377 27.6318 30.2363 33.3223 38.624c15.4336 22.7559 29.0586 46.749 41.5918 71.2021c25.1836 49.1309 45.7295 100.663 66.4854 151.774z
M181.883 152.655c18.375 62.96 33.501 126.813 48.5928 190.635c-14.7168 20.4541 -34.1445 39.75 -51.7822 32.6973c1.6377 -0.151367 -8.21094 -8.75 -10.0469 -10.8877c-3.78906 -4.4082 -8.18359 -8.56641 -11.4863 -13.3623
c-6.86133 -9.9541 -11.3945 -22.1846 -15.1514 -33.5596c-22.3945 -67.7617 -36.085 -133.826 -31.8418 -205.496c1.0459 -17.6836 0.756836 -39.2158 6.625 -56.123c1.57227 -4.51953 4.44727 -12.3945 8.125 -15.6377c8.20996 -7.25 8.56543 -3.08594 15.7295 6.37402
c22.085 29.1768 31.1641 70.8213 41.2363 105.36z" />
    <glyph glyph-name="b" unicode="b" horiz-adv-x="635" 
d="M627.833 252.188c10.4541 22.6309 60.4092 22.7793 46.4355 -7.67383c-37.1973 -81.0576 -107.045 -133.859 -190.188 -157.346c-35.4795 -87.9395 -108.288 -162.412 -201.372 -181.143c-33.9268 -6.8291 -60.5049 0.348633 -84.6299 24.125
c-17.5459 17.2959 -28.7168 37.3809 -27.2822 62.4854c3.25684 57.0654 65.5977 88.9268 113.972 102.262c22.2168 6.13184 44.9004 9.74316 67.7227 12.6045c15.8027 36.5918 24.9404 76.4141 28.7236 113.723c2.5332 24.9277 3.1123 50.9795 0.908203 75.9531
c-1.7832 20.1836 -2.2832 47.1768 -10.6914 65.8145c-31.21 69.21 -101.301 -17.1572 -120.729 -49.209c-47.7295 -78.7354 -63.6045 -173.089 -85.4199 -261.719c-1.6377 -13.8945 -4.05176 -27.8223 -7.47949 -41.8291
c-9.2168 -37.6445 -70.1699 -60.085 -94.5381 -25.5332c-44.0781 62.499 -49.5449 142.755 -57.3604 216.859c-7.98633 75.7422 -8.85449 152.616 -7.20312 228.707c2.83594 130.637 20.7695 263.997 87.499 378.93c46.0254 79.2754 146.294 166.044 243.964 116.781
c101.117 -50.999 47.0322 -209.293 14.9668 -286.647c-41.4072 -99.9062 -106.531 -189.194 -188.129 -259.982c0.164062 -13.5391 0.414062 -27.0518 0.776367 -40.5449c1.0918 -41.0195 2.6709 -82.1172 5.00684 -123.13c3.5332 10.335 7.21777 20.6182 11.2178 30.8018
c22.75 57.8809 54.9336 123.729 108.519 159.116c48.6182 32.1045 100.559 25.9004 145.92 -7.67773c51.1377 -37.8613 70.8086 -101.604 77.6699 -162.273c3.8291 -33.8486 1.02637 -69.0195 -7.4082 -103.295c58.5391 20.5723 102.9 63.0391 129.13 119.841z
M168.809 647.58c-7.65137 -70.0254 -11.2041 -141.018 -11.8486 -211.812c62.9336 63.2422 113.466 137.682 147.195 220.852c20.0723 49.4863 39.3281 106.709 32.9004 160.669c-5.17773 43.4795 -40.6113 88.0117 -88.7227 64.1768
c-30.5518 -15.1309 -44.0518 -61.9004 -52.8867 -91.9854c-13.5 -45.9727 -21.4404 -94.3145 -26.6377 -141.899zM247.834 -7.7793c-6.68457 1.44043 -10.8613 -5.89453 0 0zM262.677 -0.891602c26.9336 15.7959 48.5254 38.0127 65.6699 63.71
c-9.80273 -1.64453 -19.5723 -3.45996 -29.25 -5.75586c-13.9805 -3.30957 -27.9473 -7.33594 -40.7959 -13.8691c-11.3486 -5.76953 -33.6514 -20.9404 -28.8682 -37.0391c2.94043 -9.88184 11.7432 -10.3291 18.8223 -13.7041
c0.18457 0.105469 0.335938 0.170898 0.533203 0.283203c4.4082 2.5127 9.49414 3.7959 13.8887 6.375z" />
    <glyph glyph-name="c" unicode="c" horiz-adv-x="402" 
d="M400.178 288.266c10.3613 21.875 58.8213 22.2451 45.21 -7.46484c-37.6641 -82.1826 -71.8281 -168.622 -129.63 -239.306c-50.7432 -62.0586 -134.973 -109.644 -215.998 -80.0059c-97.5186 35.6709 -126.11 157.399 -122.13 250.26
c4.5332 105.814 40.4473 235.207 157.564 264.542c41.249 10.335 78.459 -1.49414 106.169 -33.6582c26.2627 -30.4863 28.5459 -76.1045 27.2305 -114.406c-0.776367 -22.5918 -47.2559 -41.3877 -50.1641 -13.3682c-1.8418 17.71 -4.63086 36.4141 -10.4727 53.335
c-3.35547 9.70996 -8.38184 23.6699 -18.04 29.2686c-8.47363 4.91406 -8.7627 4.2168 -19.1504 -3.19727c15.335 10.9541 -1.31641 -3.3418 -4.17773 -8.0918c-2.0332 -3.375 -3.75684 -7.23633 -5.3623 -10.9336c-7.25 -16.7041 -10.7109 -36.3418 -14.9014 -53.9932
c-19.4863 -82.1104 -25.3018 -178.839 4.44824 -259.443c14.4014 -39.0127 43.6309 -67.9795 83.9062 -40.0723c29.585 20.4932 52.1436 51.7168 71.2422 81.7031c37.2432 58.4727 64.6641 122.34 94.2559 184.832z" />
    <glyph glyph-name="d" unicode="d" horiz-adv-x="661" 
d="M665.046 304.055c7.18457 23.0723 60.1494 32.3145 51.3145 3.09082c-27.585 -91.1895 -54.9795 -190.517 -107.466 -271.134c-41.5322 -63.8018 -127.137 -118.702 -205.261 -91.2285c-70.9268 24.9404 -117.472 107.531 -139.116 175.293
c-8.48047 26.5391 -14.7695 53.2559 -19.5723 80.1631c-0.0595703 -0.256836 -0.119141 -0.513672 -0.18457 -0.770508c-12.9336 -51.6963 -24.8086 -107.399 -51.085 -154.287c-22.835 -40.7559 -67.6367 -70.3867 -115.491 -68.2354
c-56.2158 2.5332 -88.7744 50.2236 -102.077 99.999c-29.4531 110.222 4.75684 248.141 97.6172 318.798c36.6641 27.8945 86.624 43.6641 132.762 35.0986c7.625 -1.41406 14.6055 -3.69043 21.1318 -6.55859c-2.75684 144.979 10.1514 294.489 93.8018 416.764
c42.1113 61.5586 112.584 119.084 191.997 112.663c73.9463 -5.97363 103.485 -75.6963 95.2422 -142.018c-18.2363 -146.755 -99.7939 -287.746 -205.602 -388.705c-1.8291 -1.74316 -3.98047 -3.51953 -6.34863 -5.19043
c-0.125 -20.21 -0.144531 -40.4463 -0.131836 -60.7158c0.0458984 -60.9336 1.7959 -122.899 12.1045 -183.063c8.65137 -50.5254 21.9805 -112.577 58.6377 -151.024c25.4072 -26.6514 49.124 -27.2373 75.4199 0.196289c22.1113 23.0723 36.3018 53.3154 49.6631 81.9795
c29.8877 64.0977 51.6436 131.479 72.6436 198.886zM419.337 722.502c-14.5918 -80.2422 -19.8623 -160.714 -21.7441 -241.595c76.874 85.0645 134.077 190.872 153.873 303.956c5.72363 32.6973 7.36816 73.5586 -17.9209 99.2295
c-21.6709 22.0059 -48.8086 11.9727 -64.2158 -10.7246c-29.5781 -43.5781 -40.7617 -100.104 -49.9922 -150.866zM181.886 152.656c18.3682 62.9463 33.4941 126.795 48.5791 190.597v0.0585938c-14.71 20.4404 -34.1377 39.7227 -51.7686 32.6768
c1.6377 -0.151367 -8.21094 -8.75 -10.0469 -10.8877c-3.78906 -4.4082 -8.18359 -8.56641 -11.4863 -13.3623c-6.86133 -9.9541 -11.3945 -22.1846 -15.1514 -33.5596c-22.3945 -67.7617 -36.085 -133.826 -31.8418 -205.496
c1.0459 -17.6836 0.756836 -39.2158 6.625 -56.123c1.57227 -4.51953 4.44727 -12.3945 8.125 -15.6377c8.20996 -7.25 8.56543 -3.08594 15.7295 6.37402c22.085 29.1768 31.1641 70.8213 41.2363 105.36z" />
    <glyph glyph-name="e" unicode="e" horiz-adv-x="373" 
d="M368.404 296.239c5.86133 22.5459 56.3047 31.833 49.3047 2.98438c-14.6641 -60.5059 -36.3682 -119.216 -65.6377 -174.215c-26.0127 -48.8877 -57.2227 -101.255 -104.005 -132.912c-38.7168 -26.2031 -94.5322 -44.084 -141.223 -34.7686
c-54.335 10.835 -97.9531 58.4131 -115.17 109.182c-33.9668 100.156 -23.7432 238.062 47.6836 320.489c35.6309 41.1113 87.9521 68.335 142.234 72.9336c40.0918 3.39453 88.585 -11.875 93.7559 -57.9727c8.9541 -79.8408 -75.8076 -132.241 -147.938 -135.722
c-9.01953 -41.5781 -11.5986 -84.3799 -6.6582 -127.886c4.11816 -36.2363 14.7363 -78.2881 39.9922 -105.808c34.9736 -38.1045 69.9795 -5.25586 95.9531 27.1582c54.3672 67.8477 89.9912 153.051 111.708 236.536zM159.621 360.71
c-7.7627 -16.6182 -14.4922 -33.5391 -20.1768 -50.6904c35.7754 1.0791 76.1172 22.8154 81.1699 61.1572c3.10547 23.5195 -17.7695 46.9531 -40.0127 27.4932c-10.2236 -8.94043 -15.3555 -25.9209 -20.9805 -37.96z" />
    <glyph glyph-name="e" unicode="&#xeb;" horiz-adv-x="373" 
d="M368.404 296.239c5.86133 22.5459 56.3047 31.833 49.3047 2.98438c-14.6641 -60.5059 -36.3682 -119.216 -65.6377 -174.215c-26.0127 -48.8877 -57.2227 -101.255 -104.005 -132.912c-38.7168 -26.2031 -94.5322 -44.084 -141.223 -34.7686
c-54.335 10.835 -97.9531 58.4131 -115.17 109.182c-33.9668 100.156 -23.7432 238.062 47.6836 320.489c35.6309 41.1113 87.9521 68.335 142.234 72.9336c40.0918 3.39453 88.585 -11.875 93.7559 -57.9727c8.9541 -79.8408 -75.8076 -132.241 -147.938 -135.722
c-9.01953 -41.5781 -11.5986 -84.3799 -6.6582 -127.886c4.11816 -36.2363 14.7363 -78.2881 39.9922 -105.808c34.9736 -38.1045 69.9795 -5.25586 95.9531 27.1582c54.3672 67.8477 89.9912 153.051 111.708 236.536zM159.621 360.71
c-7.7627 -16.6182 -14.4922 -33.5391 -20.1768 -50.6904c35.7754 1.0791 76.1172 22.8154 81.1699 61.1572c3.10547 23.5195 -17.7695 46.9531 -40.0127 27.4932c-10.2236 -8.94043 -15.3555 -25.9209 -20.9805 -37.96z" />
    <glyph glyph-name="e" unicode="&#xea;" horiz-adv-x="373" 
d="M368.404 296.239c5.86133 22.5459 56.3047 31.833 49.3047 2.98438c-14.6641 -60.5059 -36.3682 -119.216 -65.6377 -174.215c-26.0127 -48.8877 -57.2227 -101.255 -104.005 -132.912c-38.7168 -26.2031 -94.5322 -44.084 -141.223 -34.7686
c-54.335 10.835 -97.9531 58.4131 -115.17 109.182c-33.9668 100.156 -23.7432 238.062 47.6836 320.489c35.6309 41.1113 87.9521 68.335 142.234 72.9336c40.0918 3.39453 88.585 -11.875 93.7559 -57.9727c8.9541 -79.8408 -75.8076 -132.241 -147.938 -135.722
c-9.01953 -41.5781 -11.5986 -84.3799 -6.6582 -127.886c4.11816 -36.2363 14.7363 -78.2881 39.9922 -105.808c34.9736 -38.1045 69.9795 -5.25586 95.9531 27.1582c54.3672 67.8477 89.9912 153.051 111.708 236.536zM159.621 360.71
c-7.7627 -16.6182 -14.4922 -33.5391 -20.1768 -50.6904c35.7754 1.0791 76.1172 22.8154 81.1699 61.1572c3.10547 23.5195 -17.7695 46.9531 -40.0127 27.4932c-10.2236 -8.94043 -15.3555 -25.9209 -20.9805 -37.96z" />
    <glyph glyph-name="e" unicode="&#xe9;" horiz-adv-x="373" 
d="M368.404 296.239c5.86133 22.5459 56.3047 31.833 49.3047 2.98438c-14.6641 -60.5059 -36.3682 -119.216 -65.6377 -174.215c-26.0127 -48.8877 -57.2227 -101.255 -104.005 -132.912c-38.7168 -26.2031 -94.5322 -44.084 -141.223 -34.7686
c-54.335 10.835 -97.9531 58.4131 -115.17 109.182c-33.9668 100.156 -23.7432 238.062 47.6836 320.489c35.6309 41.1113 87.9521 68.335 142.234 72.9336c40.0918 3.39453 88.585 -11.875 93.7559 -57.9727c8.9541 -79.8408 -75.8076 -132.241 -147.938 -135.722
c-9.01953 -41.5781 -11.5986 -84.3799 -6.6582 -127.886c4.11816 -36.2363 14.7363 -78.2881 39.9922 -105.808c34.9736 -38.1045 69.9795 -5.25586 95.9531 27.1582c54.3672 67.8477 89.9912 153.051 111.708 236.536zM159.621 360.71
c-7.7627 -16.6182 -14.4922 -33.5391 -20.1768 -50.6904c35.7754 1.0791 76.1172 22.8154 81.1699 61.1572c3.10547 23.5195 -17.7695 46.9531 -40.0127 27.4932c-10.2236 -8.94043 -15.3555 -25.9209 -20.9805 -37.96z" />
    <glyph glyph-name="f" unicode="f" horiz-adv-x="416" 
d="M427.742 323.884c17.5322 17.6055 60.6445 7.27148 37.1387 -16.9521c-85.624 -88.1826 -177.518 -171.53 -273.318 -248.983c72.2822 -1.25684 149.945 -20.7041 177.097 -93.7158c13.0068 -34.9668 8.8291 -76.5713 -14.8809 -106.104
c-25.5195 -31.7891 -61.8877 -41.1768 -100.696 -44.499c-219.076 -18.7627 -254.997 275.378 -261.221 433.533c-3.88184 98.5645 -1.92773 197.708 8.45996 295.832c10.4336 98.5771 34.7949 197.51 90.6162 280.791c30.0264 44.8018 62.8223 86.4463 116.439 103.209
c32.96 10.3027 69.1367 9.72363 98.6826 -9.43359c70.8408 -45.9268 70.5049 -140.577 53.2354 -213.984c-34.5195 -146.715 -106.42 -286.982 -197.234 -408.257c0.769531 -63.6836 3.97363 -127.755 11.1514 -190.866
c0.30957 -2.71094 0.638672 -5.46777 0.960938 -8.21094c88.8145 71.0645 172.938 146.701 253.569 227.641zM204.911 749.523c-30.5195 -123.163 -40.7236 -248.647 -42.6777 -375.093c57.0654 88.2881 102.104 184.326 131.788 285.285
c17.5264 59.6172 37.375 139.932 -8.53906 192.062c-9.11816 10.3486 -22.9209 23.6182 -36.7695 15.3486c-7.01953 -4.19043 -16.4668 -27.249 -19.9668 -35.3477c-11.1836 -25.9014 -17.0781 -54.9736 -23.835 -82.2559zM313.324 -47.8389
c-24.7236 47.5654 -75.4414 60.9072 -126.085 62.3545c8.52637 -39.0518 21.1846 -77.2881 41.4609 -109.413c16.0918 -25.4932 43.46 -63.2158 76.6963 -36.5908c23.9531 19.1836 20.5391 59.3867 7.92773 83.6494z" />
    <glyph glyph-name="g" unicode="g" horiz-adv-x="525" 
d="M532.578 306.641c17.2559 20.6572 61.8896 9.45898 39.1992 -17.9023c-43.6836 -52.6836 -99.7812 -97.4199 -154.773 -141.031c-2.02637 -67.2559 -7.08594 -134.334 -14.4082 -200.32c-14.46 -130.32 -44.3672 -320.673 -187.523 -370.14
c-64.4727 -22.2695 -137.505 -2.76953 -170.149 60.0127c-36.1309 69.4727 -11.0723 156.722 24.5918 220.925c46.7891 84.2295 115.973 149.117 188.222 210.662c-2.01953 50.8418 -4.91406 101.637 -7.7168 152.426c-1.75 -7.26953 -3.44727 -14.5459 -5.2627 -21.7959
c-12.9336 -51.6963 -24.8086 -107.399 -51.085 -154.287c-22.835 -40.7559 -67.6367 -70.3867 -115.491 -68.2354c-56.2158 2.5332 -88.7744 50.2236 -102.077 99.999c-29.4531 110.222 4.75684 248.141 97.6172 318.798c36.6641 27.8945 86.624 43.6641 132.762 35.0986
c17.1777 -3.19043 31.3418 -10.4072 43.4004 -20.1768c30.0723 58.9922 146.38 90.8994 155.781 13.9404c8.9209 -73.0381 12.5986 -147.386 12.2832 -221.819c7.80957 6.55273 15.6777 13.0391 23.4541 19.6309c31.2559 26.4863 64.8018 52.6309 91.1768 84.2158z
M181.889 152.655c18.3682 62.96 33.501 126.813 48.5928 190.635c-14.7168 20.4541 -34.1445 39.75 -51.7822 32.6973c1.6377 -0.151367 -8.21094 -8.75 -10.0469 -10.8877c-3.78906 -4.4082 -8.18359 -8.56641 -11.4863 -13.3623
c-6.86133 -9.9541 -11.3945 -22.1846 -15.1514 -33.5596c-22.3945 -67.7617 -36.085 -133.826 -31.8418 -205.496c1.0459 -17.6836 0.756836 -39.2158 6.625 -56.123c1.57227 -4.51953 4.44727 -12.3945 8.125 -15.6377c8.20996 -7.25 8.56543 -3.08594 15.7295 6.37402
c22.085 29.1768 31.1641 70.8213 41.2363 105.36zM229.698 -318.582c36.7891 103.248 33.1279 226.261 29.832 335.206c-41.8477 -37.3418 -81.3467 -77.085 -113.807 -123.098c-41.2754 -58.5059 -80.4785 -139.215 -56.4785 -212.188
c10.8555 -33.0127 43.7305 -73.8604 83.1904 -64.7285c30.5322 7.06543 47.6113 37.7295 57.2627 64.8076z" />
    <glyph glyph-name="h" unicode="h" horiz-adv-x="631" 
d="M622.63 276.529c7.98047 19.9473 59.1914 23.6494 49.1982 -2.32422c-38.2295 -99.3477 -75.459 -220.938 -158.319 -293.267c-42.71 -37.2822 -96.8936 -54.6895 -147.722 -20.3672c-45.1641 30.5 -57.5459 86.9404 -54.9082 138.328
c3.1582 61.6113 18.4404 121.406 27.3682 182.188c4.34863 29.6377 7.77637 59.7559 10.6514 89.5059c4.2959 44.4336 -39.8281 9.83496 -55.1836 -7.29004c-40.2891 -44.9199 -65.5518 -105.149 -86.999 -160.793c-19.0527 -49.4404 -34.5195 -100.184 -48.5391 -151.262
c-1.63184 -13.625 -4.00684 -27.2822 -7.36816 -41.0127c-9.2168 -37.6445 -70.1699 -60.085 -94.5381 -25.5332c-44.0781 62.499 -49.5449 142.755 -57.3604 216.859c-7.98633 75.7422 -8.85449 152.616 -7.20312 228.707c2.83594 130.637 20.7695 263.997 87.499 378.93
c46.0254 79.2754 146.294 166.044 243.964 116.781c101.117 -50.999 47.0322 -209.293 14.9668 -286.647c-41.4072 -99.9062 -106.531 -189.194 -188.129 -259.982c0.164062 -13.5391 0.414062 -27.0518 0.776367 -40.5449
c1.25684 -47.1572 3.19727 -94.4131 6.15137 -141.518c19.3086 53.8018 43.0117 105.774 74.4121 152.037c25.6777 37.8281 61.2363 78.8408 108.781 86.8799c42.5781 7.19043 83.5713 -13.9346 105.939 -49.8418c29.0586 -46.6445 30.1182 -113.275 28.0723 -166.433
c-2.18457 -56.6045 -5.69141 -115.841 -1.75098 -172.287c1.27637 -18.3027 1.80273 -32.9014 20.0127 -18.7305c24.6641 19.1904 40.5977 52.9404 55.209 79.8418c29.3018 53.9336 52.2422 110.874 75.0186 167.774zM161.821 647.581
c-7.65137 -70.0254 -11.2041 -141.017 -11.8486 -211.812c62.9336 63.2422 113.466 137.682 147.195 220.852c20.0723 49.4863 39.3281 106.709 32.9004 160.669c-5.17773 43.4795 -40.6113 88.0117 -88.7227 64.1768
c-30.5518 -15.1318 -44.0518 -61.9014 -52.8867 -91.9863c-13.5 -45.9727 -21.4404 -94.3145 -26.6377 -141.899z" />
    <glyph glyph-name="i" unicode="i" horiz-adv-x="328" 
d="M322.771 287.088c7.90137 21.6309 59.5391 31.1953 49.9863 3.01855c-38.4209 -113.222 -98.6836 -301.107 -244.78 -305.344c-80.959 -2.34863 -114.176 75.6572 -126.123 143.479c-14.5391 82.5117 -10.0391 171.78 1.82227 254.385
c5.2959 36.9004 50.1904 61.7686 82.8477 67.3145c26.6709 4.53906 74.8477 -4.81641 73.9004 -41.5459c-2.90137 -112.288 -33.9531 -236.392 -3.5918 -347.113c8.43457 -30.7559 24.6514 -23.6182 44.2559 -4.67773c19.1973 18.5527 34 42.3555 47.5986 65.1514
c30.9932 51.9727 53.374 108.656 74.084 165.333zM69.8604 488.176c-20.6182 16.7764 -36.9326 38.21 -49.9648 61.4072c-9.76953 17.3945 -25.125 43.9336 -12.2305 63.2686c11.5586 17.335 40.8809 24.7031 56.5713 8.92676
c7.6709 -7.7168 14.0986 -17.6377 19.8486 -28.1836c5.0127 5.86816 10.46 11.3809 16.5713 16.3154c17.5654 14.1777 46.8672 29.4805 69.1895 17.7041c29.0322 -15.3086 4.57227 -46.374 -6.84863 -64.4199c-15.3682 -24.2891 -29.6045 -49.124 -46.585 -72.374
c-12.1973 -16.7041 -39.4336 -15.5527 -46.5518 -2.64453z" />
    <glyph glyph-name="i" unicode="&#xef;" horiz-adv-x="328" 
d="M322.771 287.088c7.90137 21.6309 59.5391 31.1953 49.9863 3.01855c-38.4209 -113.222 -98.6836 -301.107 -244.78 -305.344c-80.959 -2.34863 -114.176 75.6572 -126.123 143.479c-14.5391 82.5117 -10.0391 171.78 1.82227 254.385
c5.2959 36.9004 50.1904 61.7686 82.8477 67.3145c26.6709 4.53906 74.8477 -4.81641 73.9004 -41.5459c-2.90137 -112.288 -33.9531 -236.392 -3.5918 -347.113c8.43457 -30.7559 24.6514 -23.6182 44.2559 -4.67773c19.1973 18.5527 34 42.3555 47.5986 65.1514
c30.9932 51.9727 53.374 108.656 74.084 165.333zM69.8604 488.176c-20.6182 16.7764 -36.9326 38.21 -49.9648 61.4072c-9.76953 17.3945 -25.125 43.9336 -12.2305 63.2686c11.5586 17.335 40.8809 24.7031 56.5713 8.92676
c7.6709 -7.7168 14.0986 -17.6377 19.8486 -28.1836c5.0127 5.86816 10.46 11.3809 16.5713 16.3154c17.5654 14.1777 46.8672 29.4805 69.1895 17.7041c29.0322 -15.3086 4.57227 -46.374 -6.84863 -64.4199c-15.3682 -24.2891 -29.6045 -49.124 -46.585 -72.374
c-12.1973 -16.7041 -39.4336 -15.5527 -46.5518 -2.64453z" />
    <glyph glyph-name="i" unicode="&#xee;" horiz-adv-x="328" 
d="M322.771 287.088c7.90137 21.6309 59.5391 31.1953 49.9863 3.01855c-38.4209 -113.222 -98.6836 -301.107 -244.78 -305.344c-80.959 -2.34863 -114.176 75.6572 -126.123 143.479c-14.5391 82.5117 -10.0391 171.78 1.82227 254.385
c5.2959 36.9004 50.1904 61.7686 82.8477 67.3145c26.6709 4.53906 74.8477 -4.81641 73.9004 -41.5459c-2.90137 -112.288 -33.9531 -236.392 -3.5918 -347.113c8.43457 -30.7559 24.6514 -23.6182 44.2559 -4.67773c19.1973 18.5527 34 42.3555 47.5986 65.1514
c30.9932 51.9727 53.374 108.656 74.084 165.333zM69.8604 488.176c-20.6182 16.7764 -36.9326 38.21 -49.9648 61.4072c-9.76953 17.3945 -25.125 43.9336 -12.2305 63.2686c11.5586 17.335 40.8809 24.7031 56.5713 8.92676
c7.6709 -7.7168 14.0986 -17.6377 19.8486 -28.1836c5.0127 5.86816 10.46 11.3809 16.5713 16.3154c17.5654 14.1777 46.8672 29.4805 69.1895 17.7041c29.0322 -15.3086 4.57227 -46.374 -6.84863 -64.4199c-15.3682 -24.2891 -29.6045 -49.124 -46.585 -72.374
c-12.1973 -16.7041 -39.4336 -15.5527 -46.5518 -2.64453z" />
    <glyph glyph-name="i" unicode="&#xed;" horiz-adv-x="328" 
d="M322.771 287.088c7.90137 21.6309 59.5391 31.1953 49.9863 3.01855c-38.4209 -113.222 -98.6836 -301.107 -244.78 -305.344c-80.959 -2.34863 -114.176 75.6572 -126.123 143.479c-14.5391 82.5117 -10.0391 171.78 1.82227 254.385
c5.2959 36.9004 50.1904 61.7686 82.8477 67.3145c26.6709 4.53906 74.8477 -4.81641 73.9004 -41.5459c-2.90137 -112.288 -33.9531 -236.392 -3.5918 -347.113c8.43457 -30.7559 24.6514 -23.6182 44.2559 -4.67773c19.1973 18.5527 34 42.3555 47.5986 65.1514
c30.9932 51.9727 53.374 108.656 74.084 165.333zM69.8604 488.176c-20.6182 16.7764 -36.9326 38.21 -49.9648 61.4072c-9.76953 17.3945 -25.125 43.9336 -12.2305 63.2686c11.5586 17.335 40.8809 24.7031 56.5713 8.92676
c7.6709 -7.7168 14.0986 -17.6377 19.8486 -28.1836c5.0127 5.86816 10.46 11.3809 16.5713 16.3154c17.5654 14.1777 46.8672 29.4805 69.1895 17.7041c29.0322 -15.3086 4.57227 -46.374 -6.84863 -64.4199c-15.3682 -24.2891 -29.6045 -49.124 -46.585 -72.374
c-12.1973 -16.7041 -39.4336 -15.5527 -46.5518 -2.64453z" />
    <glyph glyph-name="j" unicode="j" horiz-adv-x="278" 
d="M285.199 306.641c17.25 20.6572 61.8906 9.46191 39.207 -17.9062c-43.6836 -52.6836 -99.7812 -97.4199 -154.773 -141.031c-2.02637 -67.2559 -7.08594 -134.334 -14.4082 -200.32c-14.46 -130.32 -44.3672 -320.673 -187.523 -370.14
c-64.4727 -22.2695 -137.505 -2.76953 -170.149 60.0127c-36.124 69.4727 -11.0713 156.722 24.5928 220.925c46.7891 84.2295 115.973 149.116 188.222 210.661c-4.15137 104.183 -12.0596 208.161 -14.9678 312.351c-2.11816 75.7822 152.005 132.473 162.887 43.4209
c8.9209 -73.0381 12.5986 -147.386 12.2832 -221.819c7.80957 6.55273 15.6777 13.0391 23.4541 19.6309c31.2559 26.4863 64.8018 52.6309 91.1768 84.2158zM-17.6885 -318.578c36.7959 103.248 33.1357 226.261 29.8262 335.206
c-41.8477 -37.3418 -81.3467 -77.085 -113.807 -123.098c-41.2754 -58.5059 -80.4785 -139.215 -56.4785 -212.188c10.8613 -33.0127 43.7363 -73.8604 83.1963 -64.7285c30.5322 7.06543 47.6113 37.7295 57.2627 64.8076zM50.1904 507.917
c-20.6182 16.7764 -36.9326 38.2109 -49.9658 61.4082c-9.76953 17.3945 -25.125 43.9336 -12.2305 63.2686c11.5586 17.335 40.8809 24.7031 56.5713 8.92676c7.67773 -7.7168 14.0986 -17.6377 19.8486 -28.1836c5.0127 5.86816 10.4668 11.3809 16.5723 16.3154
c17.5654 14.1777 46.8672 29.4805 69.1895 17.7041c29.0322 -15.3086 4.57227 -46.374 -6.84863 -64.4199c-15.3682 -24.2891 -29.6045 -49.124 -46.585 -72.374c-12.1973 -16.7041 -39.4336 -15.5527 -46.5518 -2.64551z" />
    <glyph glyph-name="k" unicode="k" horiz-adv-x="615" 
d="M604.901 275.042c10.3291 24.9531 63.6289 25.2812 50.1426 -8.26465c-26.5264 -65.9531 -53.5527 -132.301 -93.335 -191.603c-34.1572 -50.9141 -79.3867 -104.156 -142.8 -115.709c-67.7158 -12.335 -134.301 29.8945 -161.274 90.6367
c-13.6777 30.8154 -23.8154 64.8213 -33.5518 97.0771c-3.6582 12.1055 -8.7041 25.4404 -13.3623 39.0059c-14.0723 -44.7168 -26.7363 -89.9795 -42.335 -133.156c-1.6377 -14.2168 -4.07812 -28.46 -7.58496 -42.7891
c-9.20996 -37.6445 -70.1631 -60.085 -94.5312 -25.5332c-44.0713 62.499 -49.5449 142.755 -57.3604 216.859c-7.98633 75.7422 -8.85449 152.616 -7.20312 228.707c2.83594 130.637 20.7695 263.997 87.499 378.93c46.0195 79.2754 146.294 166.044 243.964 116.781
c101.117 -50.999 47.0322 -209.293 14.9668 -286.647c-41.4072 -99.9062 -106.531 -189.194 -188.129 -259.982c0.164062 -13.5391 0.420898 -27.0518 0.776367 -40.5449c1.31543 -49.4795 3.375 -99.0771 6.58594 -148.491c12.75 41.0518 26.6777 81.6826 45.0723 120.676
c32.6572 69.2363 85.7744 147.769 164.082 168.906c28.0518 7.57227 67.959 8.23047 85.873 -19.4004c20.1045 -31.0195 1.1377 -73.1436 -17.6914 -99.8867c-35.1973 -49.9863 -93.624 -86.3604 -154.188 -104.116c27.8613 -19.5 49.6963 -53.5986 63.2031 -80.21
c13.2168 -26.0459 22.9795 -53.96 34.2686 -80.8477c8.2959 -19.7627 14.9736 -45.5713 28.9277 -62.0449c58.4404 -68.999 172.281 203.714 187.985 241.647zM171.807 647.582c-7.65137 -70.0254 -11.2041 -141.018 -11.8486 -211.812
c62.9336 63.2422 113.466 137.682 147.195 220.852c20.0723 49.4863 39.3281 106.709 32.9004 160.669c-5.17773 43.4795 -40.6113 88.0117 -88.7227 64.1768c-30.5518 -15.1309 -44.0518 -61.9004 -52.8867 -91.9854c-13.5 -45.9727 -21.4404 -94.3145 -26.6377 -141.899z
M247.996 287.824c57.6641 6.4541 123.531 39.1055 156.149 88.0127c18.7695 28.1377 24.4736 77.9131 -24.4141 65.5312c-28.5322 -7.23047 -51.4072 -30.4736 -69.7949 -52.2168c-26.0127 -30.7627 -45.7432 -65.0908 -61.9404 -101.327z" />
    <glyph glyph-name="l" unicode="l" horiz-adv-x="429" 
d="M432.449 304.055c7.19043 23.0723 60.1572 32.3154 51.3086 3.0918c-27.585 -91.1895 -54.9795 -190.517 -107.466 -271.134c-41.5322 -63.8018 -127.137 -118.702 -205.261 -91.2285c-70.9268 24.9404 -117.472 107.531 -139.116 175.293
c-24.1572 75.6367 -30.874 152.728 -34.4531 231.582c-7.55957 166.537 -6.3623 346.548 91.3604 489.388c42.1113 61.5586 112.584 119.084 191.997 112.663c73.9463 -5.97363 103.485 -75.6963 95.2422 -142.018c-18.2363 -146.755 -99.7939 -287.746 -205.602 -388.705
c-1.8291 -1.74316 -3.98047 -3.51953 -6.34863 -5.19043c-0.125 -20.21 -0.144531 -40.4463 -0.131836 -60.7158c0.0458984 -60.9336 1.80273 -122.899 12.1055 -183.063c8.65137 -50.5254 21.9805 -112.577 58.6377 -151.024
c25.4072 -26.6514 49.1309 -27.2373 75.4199 0.196289c22.1113 23.0723 36.3018 53.3154 49.6631 81.9795c29.8877 64.0977 51.6436 131.479 72.6436 198.886zM186.749 722.503c-14.5918 -80.2422 -19.8623 -160.714 -21.7441 -241.588
c76.874 85.0576 134.077 190.865 153.873 303.949c5.72363 32.6973 7.36816 73.5586 -17.9209 99.2295c-21.6709 22.0059 -48.8086 11.9727 -64.2158 -10.7246c-29.5781 -43.5781 -40.7617 -100.104 -49.9922 -150.866z" />
    <glyph glyph-name="m" unicode="m" horiz-adv-x="857" 
d="M844.835 275.858c8.64453 22.5918 62.6641 31.6318 51.9932 3.12598c-35.9404 -95.9395 -53.7959 -211.53 -121.604 -292.075c-68.1836 -80.9922 -217.912 -71.9131 -237.037 45.6777c-9.19043 56.5059 7.39453 120.269 17.2363 175.774
c5.8877 33.21 13.5059 66.1367 20.4336 99.1367c2.2041 10.4863 4.77637 20.9795 6.08594 31.624c0.387695 3.18457 5.82812 34.4932 4.66992 36.1572c-22.5654 32.3682 -97.5908 -109.255 -104.229 -124.498c-25.1973 -57.8545 -45.0322 -117.998 -61.6113 -178.839
c-0.408203 -1.5127 -1.05273 -2.94727 -1.8291 -4.3291c-13.4736 -63.2422 -134.406 -104.426 -149.38 -27.3682c-12.3682 63.6436 1.13184 131.109 5.46777 195.036c2.19043 32.3154 3.14453 64.749 5.5127 97.0049c1.03906 14.1904 8.97363 99.5771 -21.0781 59.8145
c-17.1641 -22.71 -26.3545 -56.6436 -35.5381 -83.1299c-10.2695 -29.5986 -18.9531 -59.7168 -27.4004 -89.874c-17.2305 -61.499 -34.6709 -123.084 -48.9336 -185.353c-1.31543 -11.6445 -4.28906 -22.8945 -10.4531 -33.1113
c-22.2695 -36.8809 -77.2158 -41.7363 -105.505 -10.2695c-24.8545 27.6514 -32.4727 77.8945 -37.4268 113.309c-11.6709 83.4062 -10.9336 181.497 8.04004 263.621c12.4541 53.9268 139.248 102.729 146.59 24.0977c5.4082 -57.9268 -2.78223 -117.195 -4.62402 -175.688
c5.97363 20.8545 12.1973 41.6104 18.6377 62.2549c17.2822 55.3936 38.0908 147.708 101.34 167.938c67.3477 21.5391 113.104 -67.7949 127.498 -118.952c10.7363 -38.1504 17.2959 -78.9258 21.4473 -120.07c21.3223 58.7422 48.6113 115.412 87.0449 160.944
c24.8809 29.4795 68.7549 63.6631 110.248 50.6172c42.835 -13.46 70.9336 -46.3809 84.4658 -88.6562c17.6709 -55.21 10.4082 -114.058 6.51367 -170.675c-2.17773 -31.6309 -2.5918 -63.3281 -2.19043 -95.0186c0.262695 -20.7959 -1.05273 -42.9072 7.22363 -62.2227
c5.92773 -13.8223 4.88184 -11.3945 14.8418 -4.93457c14.0322 9.10547 24.1172 26.625 32.4395 40.5459c14.3945 24.0918 25.7295 50.3154 35.6377 76.5254c20.1709 53.374 35.085 108.551 55.4727 161.859z" />
    <glyph glyph-name="n" unicode="n" horiz-adv-x="581" 
d="M571.934 269.989c7.42773 21.5986 57.833 30.0791 48.6357 2.94824c-19.0059 -56.0713 -38.2227 -112.229 -62.4062 -166.326c-18.7764 -42.0127 -39.4404 -87.2686 -78.0781 -114.656c-37.8545 -26.8281 -81.1504 -29.1768 -125.117 -21.8418
c-59.8018 9.98047 -81.5312 75.3477 -80.7285 127.597c0.954102 61.9463 12.3359 122.886 20.29 184.096c3.61816 27.8418 11.7432 55.4404 15.1309 83.0254c5.76953 46.9795 -46.7363 -17.4932 -53.2959 -27.7764c-61.0518 -95.7227 -85.9658 -216.655 -110.669 -326.153
c-0.473633 -6.11816 -0.94043 -12.2295 -1.61816 -18.335c-4.67773 -42.2627 -80.4131 -65.0127 -103.762 -28.0264c-35.7031 56.5518 -47.8281 128.584 -53.2754 194.386c-5.875 71.0449 -6.5127 144.537 20.0654 211.471c19.5918 49.3477 123.281 73.0645 136.656 8.4668
c11.8486 -57.249 1.07227 -121.077 0.993164 -180.057c7.7627 22.9736 16.1445 45.7236 25.1309 68.1572c23.6445 59.0059 64.3154 151.813 137.058 160.458c31.9473 3.7959 60.0723 -18.75 81.0459 -40.9141c29.7695 -31.4531 38.4404 -77.0449 43.7959 -118.419
c5.95996 -46.0254 4.28223 -93.1758 4.48633 -139.523c0.0917969 -20.2959 -1.69141 -40.4736 -1.75684 -60.7559c-0.0458984 -14.625 1.91504 -29.5586 0.552734 -44.1113c19.8545 -24.2236 71.4922 78.1104 77.2881 90.4717
c23.6377 50.4004 41.499 103.248 59.5781 155.819z" />
    <glyph glyph-name="o" unicode="o" horiz-adv-x="391" 
d="M434.57 307.47c9.63184 -5.55957 10.4531 -17.4658 2.55176 -25.3672c-38.1572 -38.0781 -83.6035 -66.2422 -134.386 -81.9785c-0.591797 -60.5518 -12.3281 -124.61 -47.6436 -174.893c-36.2432 -51.6045 -99.1895 -83.7881 -162.018 -64.0059
c-120.505 37.9336 -132.215 200.938 -115.366 304.396c5.13184 31.5127 37.9277 54.5918 71.3223 62.0654c-0.960938 61.9395 35.5254 122.879 105.662 133.312c52.2891 7.77637 88.9199 -20.2822 108.854 -66.9326c20.1182 -47.0918 33.2695 -101.15 37.5527 -153.709
c39.3086 13.4277 75.834 35.1514 100.445 57.9795c7.82227 7.25684 22.0586 15.4609 33.0254 9.13184zM223.98 153.579c2.23047 10.9404 4.30664 21.9014 6.13574 32.8945c-37.2822 -2.7959 -76.1436 1.10547 -108.689 18.2959
c-0.137695 -22.8418 0.665039 -45.7031 2.19141 -68.4795c1.66406 -24.7822 8.20312 -98.0439 44.999 -100.051c-3.8418 0.210938 7.69141 7.91504 11.0205 11.5264c9.73047 10.5459 16.9082 23.5586 23.0068 36.46c10.3818 21.9404 16.5068 45.6436 21.3359 69.3535z
M235.484 226.993c2.9082 31.3945 2.55273 62.8867 -3.77637 94.3799c-8.5332 42.46 -38.8818 126.722 -98.7891 91.373c-30.2695 -17.8555 -35.2891 -56.4473 -28.2559 -90.5518c14.1318 -8.45996 22.8027 -23.8018 20.3818 -47.6562
c-0.0195312 -0.170898 -0.0263672 -0.341797 -0.0458984 -0.512695c26.1514 -36.8877 66.9863 -49.3613 110.485 -47.0322z" />
    <glyph glyph-name="o" unicode="&#xf6;" horiz-adv-x="391" 
d="M434.57 307.47c9.63184 -5.55957 10.4531 -17.4658 2.55176 -25.3672c-38.1572 -38.0781 -83.6035 -66.2422 -134.386 -81.9785c-0.591797 -60.5518 -12.3281 -124.61 -47.6436 -174.893c-36.2432 -51.6045 -99.1895 -83.7881 -162.018 -64.0059
c-120.505 37.9336 -132.215 200.938 -115.366 304.396c5.13184 31.5127 37.9277 54.5918 71.3223 62.0654c-0.960938 61.9395 35.5254 122.879 105.662 133.312c52.2891 7.77637 88.9199 -20.2822 108.854 -66.9326c20.1182 -47.0918 33.2695 -101.15 37.5527 -153.709
c39.3086 13.4277 75.834 35.1514 100.445 57.9795c7.82227 7.25684 22.0586 15.4609 33.0254 9.13184zM223.98 153.579c2.23047 10.9404 4.30664 21.9014 6.13574 32.8945c-37.2822 -2.7959 -76.1436 1.10547 -108.689 18.2959
c-0.137695 -22.8418 0.665039 -45.7031 2.19141 -68.4795c1.66406 -24.7822 8.20312 -98.0439 44.999 -100.051c-3.8418 0.210938 7.69141 7.91504 11.0205 11.5264c9.73047 10.5459 16.9082 23.5586 23.0068 36.46c10.3818 21.9404 16.5068 45.6436 21.3359 69.3535z
M235.484 226.993c2.9082 31.3945 2.55273 62.8867 -3.77637 94.3799c-8.5332 42.46 -38.8818 126.722 -98.7891 91.373c-30.2695 -17.8555 -35.2891 -56.4473 -28.2559 -90.5518c14.1318 -8.45996 22.8027 -23.8018 20.3818 -47.6562
c-0.0195312 -0.170898 -0.0263672 -0.341797 -0.0458984 -0.512695c26.1514 -36.8877 66.9863 -49.3613 110.485 -47.0322z" />
    <glyph glyph-name="o" unicode="&#xf5;" horiz-adv-x="391" 
d="M434.57 307.47c9.63184 -5.55957 10.4531 -17.4658 2.55176 -25.3672c-38.1572 -38.0781 -83.6035 -66.2422 -134.386 -81.9785c-0.591797 -60.5518 -12.3281 -124.61 -47.6436 -174.893c-36.2432 -51.6045 -99.1895 -83.7881 -162.018 -64.0059
c-120.505 37.9336 -132.215 200.938 -115.366 304.396c5.13184 31.5127 37.9277 54.5918 71.3223 62.0654c-0.960938 61.9395 35.5254 122.879 105.662 133.312c52.2891 7.77637 88.9199 -20.2822 108.854 -66.9326c20.1182 -47.0918 33.2695 -101.15 37.5527 -153.709
c39.3086 13.4277 75.834 35.1514 100.445 57.9795c7.82227 7.25684 22.0586 15.4609 33.0254 9.13184zM223.98 153.579c2.23047 10.9404 4.30664 21.9014 6.13574 32.8945c-37.2822 -2.7959 -76.1436 1.10547 -108.689 18.2959
c-0.137695 -22.8418 0.665039 -45.7031 2.19141 -68.4795c1.66406 -24.7822 8.20312 -98.0439 44.999 -100.051c-3.8418 0.210938 7.69141 7.91504 11.0205 11.5264c9.73047 10.5459 16.9082 23.5586 23.0068 36.46c10.3818 21.9404 16.5068 45.6436 21.3359 69.3535z
M235.484 226.993c2.9082 31.3945 2.55273 62.8867 -3.77637 94.3799c-8.5332 42.46 -38.8818 126.722 -98.7891 91.373c-30.2695 -17.8555 -35.2891 -56.4473 -28.2559 -90.5518c14.1318 -8.45996 22.8027 -23.8018 20.3818 -47.6562
c-0.0195312 -0.170898 -0.0263672 -0.341797 -0.0458984 -0.512695c26.1514 -36.8877 66.9863 -49.3613 110.485 -47.0322z" />
    <glyph glyph-name="o" unicode="&#xf4;" horiz-adv-x="391" 
d="M434.57 307.47c9.63184 -5.55957 10.4531 -17.4658 2.55176 -25.3672c-38.1572 -38.0781 -83.6035 -66.2422 -134.386 -81.9785c-0.591797 -60.5518 -12.3281 -124.61 -47.6436 -174.893c-36.2432 -51.6045 -99.1895 -83.7881 -162.018 -64.0059
c-120.505 37.9336 -132.215 200.938 -115.366 304.396c5.13184 31.5127 37.9277 54.5918 71.3223 62.0654c-0.960938 61.9395 35.5254 122.879 105.662 133.312c52.2891 7.77637 88.9199 -20.2822 108.854 -66.9326c20.1182 -47.0918 33.2695 -101.15 37.5527 -153.709
c39.3086 13.4277 75.834 35.1514 100.445 57.9795c7.82227 7.25684 22.0586 15.4609 33.0254 9.13184zM223.98 153.579c2.23047 10.9404 4.30664 21.9014 6.13574 32.8945c-37.2822 -2.7959 -76.1436 1.10547 -108.689 18.2959
c-0.137695 -22.8418 0.665039 -45.7031 2.19141 -68.4795c1.66406 -24.7822 8.20312 -98.0439 44.999 -100.051c-3.8418 0.210938 7.69141 7.91504 11.0205 11.5264c9.73047 10.5459 16.9082 23.5586 23.0068 36.46c10.3818 21.9404 16.5068 45.6436 21.3359 69.3535z
M235.484 226.993c2.9082 31.3945 2.55273 62.8867 -3.77637 94.3799c-8.5332 42.46 -38.8818 126.722 -98.7891 91.373c-30.2695 -17.8555 -35.2891 -56.4473 -28.2559 -90.5518c14.1318 -8.45996 22.8027 -23.8018 20.3818 -47.6562
c-0.0195312 -0.170898 -0.0263672 -0.341797 -0.0458984 -0.512695c26.1514 -36.8877 66.9863 -49.3613 110.485 -47.0322z" />
    <glyph glyph-name="o" unicode="&#xf3;" horiz-adv-x="391" 
d="M434.57 307.47c9.63184 -5.55957 10.4531 -17.4658 2.55176 -25.3672c-38.1572 -38.0781 -83.6035 -66.2422 -134.386 -81.9785c-0.591797 -60.5518 -12.3281 -124.61 -47.6436 -174.893c-36.2432 -51.6045 -99.1895 -83.7881 -162.018 -64.0059
c-120.505 37.9336 -132.215 200.938 -115.366 304.396c5.13184 31.5127 37.9277 54.5918 71.3223 62.0654c-0.960938 61.9395 35.5254 122.879 105.662 133.312c52.2891 7.77637 88.9199 -20.2822 108.854 -66.9326c20.1182 -47.0918 33.2695 -101.15 37.5527 -153.709
c39.3086 13.4277 75.834 35.1514 100.445 57.9795c7.82227 7.25684 22.0586 15.4609 33.0254 9.13184zM223.98 153.579c2.23047 10.9404 4.30664 21.9014 6.13574 32.8945c-37.2822 -2.7959 -76.1436 1.10547 -108.689 18.2959
c-0.137695 -22.8418 0.665039 -45.7031 2.19141 -68.4795c1.66406 -24.7822 8.20312 -98.0439 44.999 -100.051c-3.8418 0.210938 7.69141 7.91504 11.0205 11.5264c9.73047 10.5459 16.9082 23.5586 23.0068 36.46c10.3818 21.9404 16.5068 45.6436 21.3359 69.3535z
M235.484 226.993c2.9082 31.3945 2.55273 62.8867 -3.77637 94.3799c-8.5332 42.46 -38.8818 126.722 -98.7891 91.373c-30.2695 -17.8555 -35.2891 -56.4473 -28.2559 -90.5518c14.1318 -8.45996 22.8027 -23.8018 20.3818 -47.6562
c-0.0195312 -0.170898 -0.0263672 -0.341797 -0.0458984 -0.512695c26.1514 -36.8877 66.9863 -49.3613 110.485 -47.0322z" />
    <glyph glyph-name="p" unicode="p" horiz-adv-x="646" 
d="M650.5 280.602c19.0391 17.5391 59.3359 -1.29785 35.5928 -23.3633c-34.7295 -32.3086 -73.5977 -57.5381 -114.985 -79.2812c1.73633 -59.0186 -5.80957 -120.82 -32.0723 -171.853c-38.1113 -74.0645 -118.216 -119.419 -199.701 -92.2412
c-31.8809 10.6318 -57.209 26.4209 -66.3604 60.5195c-7.26953 27.0781 1.5459 54.6699 15.8418 78.0186c31.2627 51.0586 87.249 80.6699 140.873 105.242c4.57227 50.7891 4.24316 102.288 1.0918 152.998c-1.6709 26.9668 -4.25684 68.1836 -25.3818 88.2881
c-32.3877 30.8223 -61.7227 -8.81543 -78.0576 -34.7822c-64.5381 -102.598 -78.0771 -238.615 -93.4717 -356.186c-17.5527 -134.037 -29.625 -268.699 -41.6904 -403.31c-0.0332031 -0.355469 -0.177734 -0.68457 -0.230469 -1.0332
c-0.802734 -7.93457 -1.7832 -15.8818 -3.05273 -23.8486c-6.27637 -39.4531 -72.6895 -59.5908 -95.8535 -25.8936c-42.6182 61.9922 -55.7754 139.057 -69.5713 212.352c-13.1113 69.6504 -20.8682 140.715 -26.1973 211.365
c-11.0459 146.419 -13.7305 301.66 16.5254 445.764c7.81543 37.2227 48.585 61.7285 83.209 67.6104c28.375 4.82227 73.1963 -4.96094 74.2227 -41.7305c2.02637 -72.7822 -2.7168 -144.966 -4.2627 -217.722c-1.51953 -71.4922 0.605469 -142.78 3.25684 -214.207
c0.914062 -24.6377 2.28906 -49.249 3.82227 -73.8408c9.70996 84.3477 22.4268 168.149 41.3672 250.233c16.4805 71.4072 38.5127 147.012 84.2617 205.682c19.8555 25.4668 45.4863 49.5322 78.9199 53.6699c30.6904 3.80273 54.3613 -10.2695 79.2363 -26.1045
c65.9727 -42.0127 99.3271 -115.11 108.748 -190.997c0.545898 -4.39453 1.0459 -8.83496 1.5127 -13.3154c29.3154 16.1973 57.2168 34.7559 82.4072 57.9658zM407.563 42.2021c8.45996 21.5586 12.9219 45.0967 16.4082 68.0439
c-21.25 -10.9141 -41.4736 -23.2959 -59.2695 -38.5195c-16.9473 -14.5 -54.8613 -58.0322 -25.0527 -79.1367c19.1973 -13.5918 35.7627 1.6123 48.2363 13.625c-6.15137 -5.9209 3.7041 5.3291 3.42773 4.375c2.23047 3.27637 4.13184 6.9082 5.97363 10.3818
c3.61816 6.80957 7.4541 14.04 10.2764 21.2305z" />
    <glyph glyph-name="q" unicode="q" horiz-adv-x="542" 
d="M478.726 131.505c-20.2764 -24.1445 -41.1436 -47.7891 -61.6436 -71.749c-4.89453 -5.70996 -22.5 -23.2158 -35.9736 -39.6758c0.125 -4.69043 0.144531 -9.3877 0.308594 -14.0781c0.262695 -7.60547 0.572266 -15.2168 0.908203 -22.8418
c11.9141 -3.18457 26.1045 -6.3623 28.8154 -7.42188c9.7627 -3.81543 18.749 -8.53906 27.499 -14.2559c19.5059 -12.7432 35.249 -28.9336 48.9727 -47.6836c29.8945 -40.8477 48.5391 -92.5576 47.3418 -143.524c-1.0332 -43.8613 -16.9473 -96.7422 -50.1768 -127.07
c-40.6641 -37.1182 -97.6699 -38.7764 -140.36 -5.00684c-92.8271 73.4199 -117.59 220.326 -125.695 330.535c-2.94043 39.9668 -4.69043 80.1836 -5.07812 120.466c-5.68457 -15.21 -12.1318 -30.0322 -19.9668 -44.0186
c-22.835 -40.7559 -67.6367 -70.3867 -115.491 -68.2354c-56.2227 2.5332 -88.7744 50.2236 -102.077 99.999c-29.46 110.222 4.75684 248.141 97.6172 318.798c36.6641 27.8945 86.624 43.6641 132.762 35.0986c21.2295 -3.94043 37.9004 -13.9795 51.6172 -27.4727
c16.4141 14.8486 38.7627 24.6113 58.1572 27.9072c26.3545 4.48047 72.4463 -4.7168 71.9854 -40.4727c-1.31543 -102.308 -7.5918 -204.635 -7.86816 -306.988c58.6963 67.9658 119.465 134.294 160.353 215.148c11.4932 22.7295 63.0586 22.8613 47.6709 -7.86816
c-29.0918 -58.0908 -68.0127 -109.984 -109.677 -159.589zM181.896 152.649c18.375 62.96 33.499 126.813 48.5908 190.635c-14.7168 20.4541 -34.1445 39.75 -51.7822 32.6973c1.6377 -0.151367 -8.2041 -8.75 -10.0459 -10.8877
c-3.78906 -4.4082 -8.18359 -8.56641 -11.4863 -13.3623c-6.86133 -9.9541 -11.3877 -22.1846 -15.1504 -33.5596c-22.3945 -67.7617 -36.085 -133.826 -31.8418 -205.496c1.0459 -17.6836 0.756836 -39.2158 6.625 -56.123
c1.57227 -4.51953 4.44727 -12.3945 8.125 -15.6377c8.20996 -7.25 8.56543 -3.08594 15.7295 6.37402c22.085 29.1768 31.1641 70.8213 41.2363 105.36zM419.477 -94.0586c-10.625 10.5195 -21.8359 18.0264 -33.9209 23.9209
c2.13184 -26.8945 5.13867 -53.71 9.56641 -80.1895c7.9209 -47.3877 12.3291 -103.019 39.6113 -144.209c2.77637 -4.19043 18.71 -18.6904 13.8877 -20.2959c7.49316 1.58594 17.585 18.1055 20.0127 22.9932c10.7764 21.7236 11.6582 49.2627 9.25 72.8018
c-4.68457 45.7627 -25.5723 92.4531 -58.4072 124.979z" />
    <glyph glyph-name="r" unicode="r" horiz-adv-x="518" 
d="M516.828 267.845c18.3154 18.5059 63.6279 8.4668 39.1807 -17.9082c-51.8154 -55.9268 -121.255 -102.591 -201.464 -88.1572c-39.7822 7.16406 -63.4395 23.0254 -86.2217 56.6504c-24.4141 36.0391 -24.125 79.0781 -15.4541 120.334
c4.88184 23.2041 12.165 45.71 21.3555 67.5713c10.8613 25.8418 -1.19727 0.216797 -5.06543 -5.38867c-6.125 -8.86133 -12.8818 -17.21 -18.6387 -26.374c-21.6641 -34.4795 -36.7822 -72.5312 -47.8018 -111.636c-19.5527 -69.3936 -26.9932 -141.301 -37.6113 -212.511
c1.63184 -22.8154 2.16504 -45.7432 -1.9668 -67.2227c-6.00684 -31.1973 -52.0986 -52.3613 -80.0986 -39.0654c-41.1904 19.5654 -51.624 66.5059 -60.1895 107.696c-9.39453 45.2031 -14.71 90.4326 -17.8545 136.484c-6.11133 89.4854 -16.1699 197.576 22.2373 280.857
c10.625 23.0527 39.1641 37.8223 62.8545 41.8486c16.9932 2.8877 50.7559 0.0585938 57.3408 -21.4941c13.0586 -42.6963 7.69727 -84.9189 6.68457 -128.99c-0.743164 -32.4863 -1.42773 -64.9336 -1.11816 -97.4072c0.204102 0.697266 0.375 1.40137 0.579102 2.0918
c10.7891 37.2627 25.0059 74.0059 44.4863 107.624c16.335 28.1904 37.3213 62.6768 67.0049 78.4131c29.6709 15.7305 54.2959 5.7373 76.8154 -15.9463c30.0781 -28.96 33.1768 -78.7686 37.9395 -117.551c3.30273 -26.9072 -8.11133 -84.0244 13.2637 -101.544
c16.4805 -13.5 47.9404 -3.6582 64.3418 4.4668c22.75 11.2627 41.7295 29.3018 59.4004 47.1572z" />
    <glyph glyph-name="s" unicode="s" horiz-adv-x="380" 
d="M408.324 320.364c34.7891 8.02637 32.7354 -32.8096 3.31445 -39.7236c-51.8672 -12.1836 -102.176 -48.4072 -144.583 -79.4199c-12.6973 -9.28906 -25.2822 -18.9863 -37.5781 -29.085c20.1973 -30.96 36.1113 -63.7686 41.3418 -101.808
c6.36816 -46.3086 -7.9668 -94.5781 -41.0781 -127.959c-49.5518 -49.96 -149.551 -69.4463 -170.123 18.3818c-10.2363 43.71 7.26953 88.2686 34.0518 127.801c-62.6963 70.8086 -132.636 145.123 -101.979 247.49c23.7168 79.1826 112.195 164.122 199.904 124.813
c26.9277 -12.0654 -8.80176 -45.4463 -28.4395 -40.1963c-23.3281 6.23633 -52.5977 2.11816 -57.9004 -25.085c-4.06543 -20.8613 5.94141 -40.7822 14.7373 -58.7559c22.8086 -46.6113 53.5059 -88.124 84.6367 -129.545
c0.579102 -0.769531 1.14453 -1.53906 1.7168 -2.30859c26.335 21.1445 53.9463 40.6836 82.6895 58.4463c37.0586 22.9072 76.4199 47.0713 119.288 56.9531zM143.485 -56.8945c35.8682 -6.68457 26.1855 36.6299 17.8633 55.998
c-8.27637 19.2695 -21.7568 35.7031 -35.2041 51.6836c-5.6582 -11.6113 -10.2109 -23.6436 -12.6191 -35.7227c-4.8291 -24.2031 -1.65137 -66.0645 29.96 -71.959z" />
    <glyph glyph-name="t" unicode="t" horiz-adv-x="425" 
d="M1033.99 838.686c79.5449 -21.1377 164.409 -91.8984 118.805 -181.838c-11.5332 -22.75 -63.21 -22.7305 -47.6709 7.86816c30.0459 59.1436 -30.4072 110.301 -80.5576 127.524c-55.4863 19.0586 -118.459 23.8613 -176.643 26.9268
c-163.491 8.61133 -324.752 -19.3359 -484.026 -55.0068c-28.1045 -129.34 -103.018 -251.167 -197.339 -341.166c-1.8291 -1.74316 -3.98047 -3.51953 -6.34863 -5.19043c-0.125 -20.21 -0.144531 -40.4463 -0.131836 -60.7158
c0.0458984 -60.9336 1.80273 -122.899 12.1055 -183.063c8.65137 -50.5254 21.9805 -112.577 58.6377 -151.024c25.4072 -26.6514 49.1309 -27.2373 75.4199 0.196289c22.1113 23.0723 36.3018 53.3154 49.6631 81.9795c29.8877 64.0977 51.6436 131.479 72.6436 198.886
c7.19043 23.0723 60.1572 32.3154 51.3223 3.10547c-27.585 -91.1895 -54.9795 -190.517 -107.466 -271.134c-41.5322 -63.8018 -127.137 -118.702 -205.261 -91.2285c-70.9268 24.9404 -117.466 107.531 -139.117 175.293
c-24.1572 75.6367 -30.874 152.728 -34.4531 231.582c-4.98633 109.827 -6.14453 225.517 21.6641 332.541c-58.1309 -11.8682 -116.551 -22.2764 -175.418 -29.9141c-85.249 -11.0654 -191.241 -27.374 -259.865 37.6055c-20.2041 19.1309 24.7031 49.0254 42.5518 32.1504
c44.6963 -42.2559 108.031 -39.9404 165.393 -34.6445c70.2158 6.48047 139.873 17.8623 208.997 31.665c10.4863 2.0918 20.9463 4.2959 31.4131 6.48633c13.7432 39.624 32.1572 77.7217 56.624 113.484c42.1113 61.5586 112.584 119.084 191.997 112.663
c73.9463 -5.97363 103.485 -75.6963 95.2422 -142.018c-0.216797 -1.74316 -0.552734 -3.4668 -0.790039 -5.20312c107.301 23.8086 215.24 44.0127 325.226 52.5391c110.755 8.58496 229.286 8.37402 337.383 -20.3496zM161.104 480.909
c69.2158 76.584 122.366 170.017 146.728 270.41c-41.8477 -9.76953 -83.5576 -19.835 -125.136 -29.6836c-14.4668 -79.9531 -19.7168 -160.143 -21.5918 -240.727zM316.41 794.023c4.34863 30.8877 3.62402 66.7373 -19.3555 90.0723
c-21.6709 22.0059 -48.8086 11.9727 -64.2158 -10.7246c-21.6113 -31.8418 -33.3877 -70.5908 -41.7695 -108.952c41.7695 9.91406 83.5322 19.9141 125.341 29.6045z" />
    <glyph glyph-name="u" unicode="u" horiz-adv-x="603" 
d="M598.808 292.253c9.86816 23.3281 59.9004 23.6797 47.0449 -7.77344c-29.8877 -73.1699 -56.2227 -151.597 -98.7217 -218.648c-31.96 -50.4268 -82.8477 -99.8076 -147.972 -91.9521c-75.5977 9.11816 -101.973 91.1562 -111.433 156.155
c-2.09863 -6.3877 -4.125 -12.8086 -6.40137 -19.124c-22.9404 -63.6895 -60.9004 -118.551 -131.077 -133.419c-93.709 -19.8486 -131.433 84.2158 -146.498 157.287c-16.5322 80.209 -17.2363 180.918 3.3291 260.331c13.335 51.4668 134.182 100.703 142.53 23.4346
c6.9668 -64.499 -7.00684 -131.294 -5.42773 -196.3c1.2832 -52.9072 -1.11816 -128.445 27.7432 -174.965c8.7959 -14.1777 11.3945 -11.6387 22.46 0.966797c9.7627 11.1113 16.6973 24.46 23.0918 37.6963c13.0068 26.9336 21.5986 55.7227 29.6182 84.4463
c17.7764 63.624 30.7832 128.485 43.9736 193.175c0.335938 1.6377 0.941406 3.19043 1.69141 4.69043c0.0917969 0.585938 0.157227 1.17773 0.243164 1.75684c5.2959 35.4863 48.0918 59.3408 79.6309 64.7021c25.1572 4.27637 72.5381 -4.61816 71.0254 -39.9336
c-2.46094 -57.6572 -9.27637 -115.019 -11.5918 -172.683c-2.0459 -50.999 -9.7041 -117.558 8.82227 -166.393c1.91406 -5.05273 10.6045 -26.3086 17.335 -26.71c3.63184 -0.210938 15.5918 15.2822 19.3154 19.4072c21.0459 23.2959 35.6377 51.8418 49.3613 79.8213
c26.2822 53.5977 48.6631 109.077 71.9062 164.03z" />
    <glyph glyph-name="u" unicode="&#xfc;" horiz-adv-x="603" 
d="M598.808 292.253c9.86816 23.3281 59.9004 23.6797 47.0449 -7.77344c-29.8877 -73.1699 -56.2227 -151.597 -98.7217 -218.648c-31.96 -50.4268 -82.8477 -99.8076 -147.972 -91.9521c-75.5977 9.11816 -101.973 91.1562 -111.433 156.155
c-2.09863 -6.3877 -4.125 -12.8086 -6.40137 -19.124c-22.9404 -63.6895 -60.9004 -118.551 -131.077 -133.419c-93.709 -19.8486 -131.433 84.2158 -146.498 157.287c-16.5322 80.209 -17.2363 180.918 3.3291 260.331c13.335 51.4668 134.182 100.703 142.53 23.4346
c6.9668 -64.499 -7.00684 -131.294 -5.42773 -196.3c1.2832 -52.9072 -1.11816 -128.445 27.7432 -174.965c8.7959 -14.1777 11.3945 -11.6387 22.46 0.966797c9.7627 11.1113 16.6973 24.46 23.0918 37.6963c13.0068 26.9336 21.5986 55.7227 29.6182 84.4463
c17.7764 63.624 30.7832 128.485 43.9736 193.175c0.335938 1.6377 0.941406 3.19043 1.69141 4.69043c0.0917969 0.585938 0.157227 1.17773 0.243164 1.75684c5.2959 35.4863 48.0918 59.3408 79.6309 64.7021c25.1572 4.27637 72.5381 -4.61816 71.0254 -39.9336
c-2.46094 -57.6572 -9.27637 -115.019 -11.5918 -172.683c-2.0459 -50.999 -9.7041 -117.558 8.82227 -166.393c1.91406 -5.05273 10.6045 -26.3086 17.335 -26.71c3.63184 -0.210938 15.5918 15.2822 19.3154 19.4072c21.0459 23.2959 35.6377 51.8418 49.3613 79.8213
c26.2822 53.5977 48.6631 109.077 71.9062 164.03z" />
    <glyph glyph-name="u" unicode="&#xfb;" horiz-adv-x="603" 
d="M598.808 292.253c9.86816 23.3281 59.9004 23.6797 47.0449 -7.77344c-29.8877 -73.1699 -56.2227 -151.597 -98.7217 -218.648c-31.96 -50.4268 -82.8477 -99.8076 -147.972 -91.9521c-75.5977 9.11816 -101.973 91.1562 -111.433 156.155
c-2.09863 -6.3877 -4.125 -12.8086 -6.40137 -19.124c-22.9404 -63.6895 -60.9004 -118.551 -131.077 -133.419c-93.709 -19.8486 -131.433 84.2158 -146.498 157.287c-16.5322 80.209 -17.2363 180.918 3.3291 260.331c13.335 51.4668 134.182 100.703 142.53 23.4346
c6.9668 -64.499 -7.00684 -131.294 -5.42773 -196.3c1.2832 -52.9072 -1.11816 -128.445 27.7432 -174.965c8.7959 -14.1777 11.3945 -11.6387 22.46 0.966797c9.7627 11.1113 16.6973 24.46 23.0918 37.6963c13.0068 26.9336 21.5986 55.7227 29.6182 84.4463
c17.7764 63.624 30.7832 128.485 43.9736 193.175c0.335938 1.6377 0.941406 3.19043 1.69141 4.69043c0.0917969 0.585938 0.157227 1.17773 0.243164 1.75684c5.2959 35.4863 48.0918 59.3408 79.6309 64.7021c25.1572 4.27637 72.5381 -4.61816 71.0254 -39.9336
c-2.46094 -57.6572 -9.27637 -115.019 -11.5918 -172.683c-2.0459 -50.999 -9.7041 -117.558 8.82227 -166.393c1.91406 -5.05273 10.6045 -26.3086 17.335 -26.71c3.63184 -0.210938 15.5918 15.2822 19.3154 19.4072c21.0459 23.2959 35.6377 51.8418 49.3613 79.8213
c26.2822 53.5977 48.6631 109.077 71.9062 164.03z" />
    <glyph glyph-name="u" unicode="&#xfa;" horiz-adv-x="603" 
d="M598.808 292.253c9.86816 23.3281 59.9004 23.6797 47.0449 -7.77344c-29.8877 -73.1699 -56.2227 -151.597 -98.7217 -218.648c-31.96 -50.4268 -82.8477 -99.8076 -147.972 -91.9521c-75.5977 9.11816 -101.973 91.1562 -111.433 156.155
c-2.09863 -6.3877 -4.125 -12.8086 -6.40137 -19.124c-22.9404 -63.6895 -60.9004 -118.551 -131.077 -133.419c-93.709 -19.8486 -131.433 84.2158 -146.498 157.287c-16.5322 80.209 -17.2363 180.918 3.3291 260.331c13.335 51.4668 134.182 100.703 142.53 23.4346
c6.9668 -64.499 -7.00684 -131.294 -5.42773 -196.3c1.2832 -52.9072 -1.11816 -128.445 27.7432 -174.965c8.7959 -14.1777 11.3945 -11.6387 22.46 0.966797c9.7627 11.1113 16.6973 24.46 23.0918 37.6963c13.0068 26.9336 21.5986 55.7227 29.6182 84.4463
c17.7764 63.624 30.7832 128.485 43.9736 193.175c0.335938 1.6377 0.941406 3.19043 1.69141 4.69043c0.0917969 0.585938 0.157227 1.17773 0.243164 1.75684c5.2959 35.4863 48.0918 59.3408 79.6309 64.7021c25.1572 4.27637 72.5381 -4.61816 71.0254 -39.9336
c-2.46094 -57.6572 -9.27637 -115.019 -11.5918 -172.683c-2.0459 -50.999 -9.7041 -117.558 8.82227 -166.393c1.91406 -5.05273 10.6045 -26.3086 17.335 -26.71c3.63184 -0.210938 15.5918 15.2822 19.3154 19.4072c21.0459 23.2959 35.6377 51.8418 49.3613 79.8213
c26.2822 53.5977 48.6631 109.077 71.9062 164.03z" />
    <glyph glyph-name="v" unicode="v" horiz-adv-x="587" 
d="M603.235 313.785c22.9072 17.8291 54.5137 -4.18066 28.0732 -25.9834c-51.1045 -42.1963 -115.248 -54.1367 -172.346 -40.8799c-9.5 -49.8213 -21.5 -99.2354 -38.0986 -146.899c-20.6777 -59.3672 -47.5654 -125.248 -106.979 -155.359
c-63.5059 -32.1836 -140.485 -24.0781 -193.353 23.9805c-54.5322 49.5654 -80.8867 126.433 -96.4326 196.268c-16.8154 75.5518 -21.7891 152.123 -20.9268 229.312c0.473633 42.124 36.8213 73.5508 75.5576 83.7812c32.3486 8.53906 82.7559 0.704102 85.9668 -40.7295
c8.98047 -115.847 9.08594 -231.996 43.5459 -344.1c9.68359 -31.5059 28.6436 -106.485 68.9258 -114.985c47.7891 -10.085 80.8936 93.2627 91.459 124.348c17.9404 52.7822 31.2031 107.624 41.2881 163.077c-47.8154 26.2627 -84.1377 73.3281 -92.3086 137.334
c-7.1582 56.0713 8.42676 123.13 46.0908 166.399c36.8018 42.2891 100.518 46.4531 118.576 -14.5068c19.9541 -67.3672 1.14551 -152.518 -8.76855 -220.398c-2 -13.6777 -4.14453 -27.3877 -6.38086 -41.0918c43.2959 -16.4473 93.9199 -12.4082 136.11 20.4336z
M431.207 423.714c2.88184 30.0322 5.74219 60.916 1.91309 91.0205c-2.89453 22.7627 -14.3809 58.7949 -35.5059 25.9004c-24.6309 -38.3418 -33.0322 -88.3086 -25.085 -132.88c6.14453 -34.46 23.3418 -63.5518 46.7168 -84.9004
c4.86816 33.6768 8.75 67.4062 11.9609 100.859z" />
    <glyph glyph-name="w" unicode="w" horiz-adv-x="838" 
d="M848.694 309.752c17.46 18.1055 60.793 8.3584 37.6357 -17.1738c-45.585 -50.3086 -113.005 -87.6172 -182.715 -72.4004c-2.32227 0.506836 -4.55957 1.18457 -6.8291 1.79004c-0.31543 -1.30957 -0.604492 -2.625 -0.926758 -3.93457
c-27.7363 -111.827 -80.4062 -318.68 -239.989 -279.687c-71.1367 17.3809 -117.057 83.4258 -140.122 149.175c-7.61816 21.7236 -13.0586 43.6377 -16.9336 65.7168c-7.03906 -26.2822 -14.624 -52.4004 -23.0586 -78.2158
c-19.8545 -60.749 -66.249 -125.051 -137.058 -128.063c-79.9004 -3.39453 -121.847 82.6631 -136.03 148.419c-18.1777 84.3018 -11.2695 173.018 -5.19727 258.299c2.875 40.4141 33.1641 69.624 72.0381 79.8867c26.4404 6.98047 85.1309 1.1582 81.9668 -38.835
c-5.36133 -67.7881 -11.8154 -135.774 -12.1514 -203.807c-0.243164 -50.4668 -4.00586 -108.571 17.4414 -155.689c6.1377 -13.4932 13.2627 -31.7959 32.2168 -23.6846c11.9014 5.09863 21.2695 28.4141 26.0918 39.4268c12.0127 27.4473 19.3945 57.6045 27.6709 86.2949
c19.0723 66.1172 36.5654 132.563 51.3418 199.773c0.789062 3.5918 2.8418 6.80273 5.57812 9.5791c11.9863 24.2363 36.2891 41.6504 63.5586 48.8545c28.0322 7.40137 81.7686 1.06641 81.2422 -38.4922c-1.40137 -106.038 -11.4209 -231.279 54.8408 -322.041
c9.4209 -12.9014 23.0322 -31.1641 40.4463 -24.2959c18.4863 7.2959 32.8213 34.3877 42.1104 50.2822c26.9336 46.085 43.8936 96.4463 57.6826 147.788c3.1377 11.6641 6.18359 23.5518 9.11133 35.584c-36.8154 25.4531 -63.1963 65.6035 -77.7227 108.28
c-19.1973 56.4072 -27.7236 121.36 -6.68457 178.438c16.25 44.0781 64.2432 101.38 117.96 80.1436c56.3281 -22.2695 49.46 -121.269 47.2031 -168.452c-2.76953 -57.8213 -10.2627 -115.445 -21.7559 -172.208c4.2832 -1.9873 8.67773 -3.79688 13.2695 -5.27051
c48.124 -15.4473 94.8994 10.4336 127.768 44.5186zM662.044 306.163c13.3555 71.3408 19.4141 145.591 7.8877 214.695c-3.5791 21.4795 -14.1582 63.6826 -39.6904 33.499c-12.6377 -14.9336 -17.7295 -38.8018 -20.3086 -57.6572
c-6 -43.8682 2.70996 -92.4795 18.7559 -133.36c8.00684 -20.4014 19.0791 -40.3154 33.3555 -57.1768z" />
    <glyph glyph-name="x" unicode="x" horiz-adv-x="455" 
d="M456.131 296.232c7.56543 17.4541 53.7686 21.9131 44.6699 -2.13281c-28.2432 -74.7295 -55.3213 -153.61 -99.0645 -221.011c-18.8877 -29.1113 -41.6504 -56.8086 -70.2812 -76.874c-30.9531 -21.6973 -66.749 -26.46 -103.906 -24.6836
c-73.874 3.52637 -123.38 44.3613 -155.984 104.314c-10.4082 -22.2627 -19.6514 -44.96 -27.3945 -68.1572c-8.09863 -24.2627 -64.1641 -33.2695 -54.0059 -3.26953c14.8945 43.9727 34.9141 85.2422 57.8477 124.985c-28.335 76.8867 -42.3877 160.773 -50.1182 241.614
c-6.98633 73.0322 142.097 124.571 154.688 41.2373c5.4209 -35.874 9.55273 -71.9131 14.2432 -107.873c33.0322 44.3477 67.3145 87.7354 103.393 129.702c16.4805 19.1709 57.8877 9.83594 37.1318 -16.9463c-42.9072 -55.374 -89.2686 -111.873 -132.064 -170.853
c2.23633 -13.6514 4.64453 -27.2891 7.4541 -40.8682c10.7764 -52.085 22.9277 -115.519 61.2695 -155.195c8.6377 -8.93359 20.9209 -22.5908 33.3223 -26.5713c20.0986 -6.4541 36.0459 9.5459 48.6309 22.6113c21.1377 21.9541 37.0781 48.0195 51.1572 74.8877
c29.6768 56.624 53.6045 116.465 79.0117 175.082z" />
    <glyph glyph-name="y" unicode="y" horiz-adv-x="610" 
d="M617.026 306.641c17.25 20.6572 61.8906 9.46289 39.2129 -17.8984c-43.6836 -52.6836 -99.7812 -97.4199 -154.773 -141.031c-2.02637 -67.2559 -7.08594 -134.334 -14.4082 -200.32c-14.46 -130.32 -44.3672 -320.673 -187.523 -370.14
c-64.4727 -22.2695 -137.505 -2.76953 -170.149 60.0127c-36.124 69.4727 -11.0713 156.722 24.5928 220.925c46.7891 84.2295 115.973 149.117 188.222 210.662c-2.43457 61.1172 -6.13867 122.169 -9.40137 183.233c-7.55273 -21.7432 -15.6973 -43.2959 -24.9277 -64.5
c-26.7891 -61.5391 -64.1572 -137.104 -128.012 -167.412c-75.3018 -35.7432 -139.222 2.55273 -166.103 77.1113c-31.0322 86.0713 -26.0977 179.912 -14.8145 269.188c4.39453 34.7695 47.8154 58.374 78.1963 63.5381c24.1973 4.11133 71.874 -4.52637 69.749 -39.2168
c-4.16406 -67.999 -13.1504 -135.399 -14.1768 -203.562c-0.447266 -29.8613 -1.2959 -61.9004 6.82227 -90.999c2.3877 -8.57227 8.62402 -31.3281 17.7227 -35.3545c13.4805 -5.9668 26.4277 11.7891 34.2568 20.3086c75.1045 81.709 103.742 205.332 136.445 310.048
c10.7695 70.5117 151.761 118.445 162.155 33.3809c8.9209 -73.0381 12.5986 -147.386 12.2832 -221.819c7.80957 6.55273 15.6777 13.0391 23.4541 19.6309c31.2559 26.4863 64.8018 52.6309 91.1768 84.2158zM314.139 -318.577
c36.7959 103.248 33.1357 226.261 29.8262 335.206c-41.8477 -37.3418 -81.3535 -77.085 -113.807 -123.098c-41.2754 -58.5059 -80.4785 -139.215 -56.4785 -212.188c10.8613 -33.0127 43.7363 -73.8604 83.1963 -64.7285c30.5322 7.06543 47.6113 37.7295 57.2627 64.8076
z" />
    <glyph glyph-name="y" unicode="&#xff;" horiz-adv-x="610" 
d="M617.026 306.641c17.25 20.6572 61.8906 9.46289 39.2129 -17.8984c-43.6836 -52.6836 -99.7812 -97.4199 -154.773 -141.031c-2.02637 -67.2559 -7.08594 -134.334 -14.4082 -200.32c-14.46 -130.32 -44.3672 -320.673 -187.523 -370.14
c-64.4727 -22.2695 -137.505 -2.76953 -170.149 60.0127c-36.124 69.4727 -11.0713 156.722 24.5928 220.925c46.7891 84.2295 115.973 149.117 188.222 210.662c-2.43457 61.1172 -6.13867 122.169 -9.40137 183.233c-7.55273 -21.7432 -15.6973 -43.2959 -24.9277 -64.5
c-26.7891 -61.5391 -64.1572 -137.104 -128.012 -167.412c-75.3018 -35.7432 -139.222 2.55273 -166.103 77.1113c-31.0322 86.0713 -26.0977 179.912 -14.8145 269.188c4.39453 34.7695 47.8154 58.374 78.1963 63.5381c24.1973 4.11133 71.874 -4.52637 69.749 -39.2168
c-4.16406 -67.999 -13.1504 -135.399 -14.1768 -203.562c-0.447266 -29.8613 -1.2959 -61.9004 6.82227 -90.999c2.3877 -8.57227 8.62402 -31.3281 17.7227 -35.3545c13.4805 -5.9668 26.4277 11.7891 34.2568 20.3086c75.1045 81.709 103.742 205.332 136.445 310.048
c10.7695 70.5117 151.761 118.445 162.155 33.3809c8.9209 -73.0381 12.5986 -147.386 12.2832 -221.819c7.80957 6.55273 15.6777 13.0391 23.4541 19.6309c31.2559 26.4863 64.8018 52.6309 91.1768 84.2158zM314.139 -318.577
c36.7959 103.248 33.1357 226.261 29.8262 335.206c-41.8477 -37.3418 -81.3535 -77.085 -113.807 -123.098c-41.2754 -58.5059 -80.4785 -139.215 -56.4785 -212.188c10.8613 -33.0127 43.7363 -73.8604 83.1963 -64.7285c30.5322 7.06543 47.6113 37.7295 57.2627 64.8076
z" />
    <glyph glyph-name="y" unicode="&#xfd;" horiz-adv-x="610" 
d="M617.026 306.641c17.25 20.6572 61.8906 9.46289 39.2129 -17.8984c-43.6836 -52.6836 -99.7812 -97.4199 -154.773 -141.031c-2.02637 -67.2559 -7.08594 -134.334 -14.4082 -200.32c-14.46 -130.32 -44.3672 -320.673 -187.523 -370.14
c-64.4727 -22.2695 -137.505 -2.76953 -170.149 60.0127c-36.124 69.4727 -11.0713 156.722 24.5928 220.925c46.7891 84.2295 115.973 149.117 188.222 210.662c-2.43457 61.1172 -6.13867 122.169 -9.40137 183.233c-7.55273 -21.7432 -15.6973 -43.2959 -24.9277 -64.5
c-26.7891 -61.5391 -64.1572 -137.104 -128.012 -167.412c-75.3018 -35.7432 -139.222 2.55273 -166.103 77.1113c-31.0322 86.0713 -26.0977 179.912 -14.8145 269.188c4.39453 34.7695 47.8154 58.374 78.1963 63.5381c24.1973 4.11133 71.874 -4.52637 69.749 -39.2168
c-4.16406 -67.999 -13.1504 -135.399 -14.1768 -203.562c-0.447266 -29.8613 -1.2959 -61.9004 6.82227 -90.999c2.3877 -8.57227 8.62402 -31.3281 17.7227 -35.3545c13.4805 -5.9668 26.4277 11.7891 34.2568 20.3086c75.1045 81.709 103.742 205.332 136.445 310.048
c10.7695 70.5117 151.761 118.445 162.155 33.3809c8.9209 -73.0381 12.5986 -147.386 12.2832 -221.819c7.80957 6.55273 15.6777 13.0391 23.4541 19.6309c31.2559 26.4863 64.8018 52.6309 91.1768 84.2158zM314.139 -318.577
c36.7959 103.248 33.1357 226.261 29.8262 335.206c-41.8477 -37.3418 -81.3535 -77.085 -113.807 -123.098c-41.2754 -58.5059 -80.4785 -139.215 -56.4785 -212.188c10.8613 -33.0127 43.7363 -73.8604 83.1963 -64.7285c30.5322 7.06543 47.6113 37.7295 57.2627 64.8076
z" />
    <glyph glyph-name="z" unicode="z" horiz-adv-x="464" 
d="M476.645 299.897c31.1045 17.6709 48.1152 -19.1064 17.7803 -36.4619c-42.6445 -24.4336 -83.0127 -52.4854 -120.749 -83.6953c38.6768 -46.335 55.8604 -106.413 61.1035 -166.511c11.4541 -131.268 -27.9336 -301.173 -151.109 -371.126
c-46.71 -26.5322 -110.321 -43.835 -162.294 -22.335c-46.4141 19.2041 -62.085 71.1445 -62.0781 117.624c0.0195312 121.979 69.6045 237.188 143.038 329.765c10.1973 12.8555 20.7627 25.3818 31.624 37.6123c-26.0723 27.3281 -61.1904 44.8086 -102.559 43.3086
c-24.1377 -0.875 -48.7295 7.88184 -56.2295 32.4473c-7.7959 25.5391 11.0127 48.874 29.2891 64.2422c31.1113 26.1709 59.1172 56.0127 84.459 87.7881c22.0586 27.6572 70.8076 81.1494 25.6699 108.169c-38.7363 23.1904 -82.1826 -11.2891 -108.005 -38.96
c-27.9736 -29.9736 -44.8154 -65.7031 -57.8682 -104.144c-7 -20.5986 -55.0186 -33.6182 -49.3086 -2.98047c17.5986 94.3604 128.195 231.799 237.825 192.464c53.249 -19.1113 68.5059 -81.6104 57.4932 -132.919c-7.19727 -33.5322 -23.5918 -66.6309 -42.874 -97.8867
c33.2295 -9.17773 64.5186 -24.7891 91.7686 -46.96c41.6836 33.7168 86.2285 63.9668 133.023 90.5586zM238.528 -275.84c44.7559 83.959 58.2881 190.406 42.8018 283.747c-3.44043 20.7363 -10.4004 41.0977 -20.4131 59.5977
c-3.1582 -3.7832 -6.32227 -7.57227 -9.4209 -11.4082c-60.9141 -75.5117 -115.446 -164.444 -130.985 -261.627c-5.94727 -37.21 -10.5459 -98.749 27.46 -122.124c41.5918 -25.585 73.624 20.0391 90.5576 51.8145z" />
    <glyph glyph-name="braceleft" unicode="{" horiz-adv-x="615" 
d="M512.945 -202.663c14.3418 19.9014 66.3242 15.6162 48.502 -14.4756c-34.1641 -57.6963 -108.426 -81.0381 -172.662 -70.2686c-78.2881 13.125 -129.38 87.0186 -158.09 155.044c-38.335 90.8271 -52.9268 183.017 -69.3076 279.377
c-10.0264 59.0059 -19.96 158.537 -86.873 181.083c-34.374 11.585 -28.3613 57.5186 -7.83496 78.0977c94.3145 94.584 140.136 221.306 191.569 341.837c28.3945 66.5449 58.7031 132.563 103.827 189.654c29.5195 37.3486 75.3408 80.9863 126.268 58.0332
c24.2236 -10.9141 -7.97363 -40.3877 -25.4668 -35.9863c-33.0986 8.33496 -36.9736 -47.4277 -43.6582 -69.7891c-7.57227 -25.3486 -16.6182 -50.2627 -24.335 -75.5908c-16.8809 -55.4004 -33.6436 -111.373 -53.5576 -165.773
c-31.5 -86.0576 -69.5781 -170.293 -124.394 -243.542c30.835 -25.8613 51.5449 -61.8672 65.0117 -104.222c24.9531 -78.4727 38.2617 -160.504 49.2021 -241.917c10.2363 -76.2158 11.4727 -156.583 52.7285 -224.312c25.3086 -41.5518 90.5449 -90.709 129.07 -37.249z
" />
    <glyph glyph-name="verticalbar" unicode="|" horiz-adv-x="274" 
d="M208.66 416.506c6.0127 -202.603 13.7949 -405.285 14.959 -607.96c0.243164 -42.3877 -37.71 -74.3281 -76.1963 -84.4922c-31.9736 -8.44043 -84.3477 -0.848633 -86.6895 41.0723c-11.4336 204.898 -12.4531 410.948 -8.95996 616.13
c1.76953 103.577 4.98633 207.194 10.2168 310.653c2.5791 50.8418 5.125 101.696 8.13184 152.518c3.00684 50.8545 3.7959 105.722 22.9072 153.326c9.9209 24.7031 65.3613 43.8018 79.1699 13.4072c19.6973 -43.3477 16.6582 -100.722 18.6191 -147.629
c2.07227 -49.5518 4.1709 -99.1035 6.45996 -148.648c4.59863 -99.3994 8.42773 -198.918 11.3818 -298.377z" />
    <glyph glyph-name="braceright" unicode="}" horiz-adv-x="617" 
d="M553.384 426.091c40.9072 -40.5977 -18.8799 -88.4043 -54.7744 -100.364c14.0391 4.6709 3.02637 1.91406 -3.63184 -8.05273c-8.56543 -12.8154 -14.3809 -27.4795 -18.9531 -42.1045c-13.0527 -41.7295 -20.4668 -85.4199 -27.2295 -128.531
c-14.6514 -93.4326 -33.1836 -182.103 -70.9199 -269.45c-30.5654 -70.7559 -85.5312 -143.512 -164.261 -162.841c-58.9658 -14.4805 -129.59 4.63086 -160.984 58.9785c-15.0068 25.9795 38.4854 49.6436 55.248 26.9463
c40.9863 -55.5059 107.998 -18.0391 133.491 29.5527c35.1377 65.5977 36.2822 144.426 45.7822 216.562c14.335 108.82 30.5977 251.634 110.234 334.047c-56.8281 74.8145 -96.8477 161.643 -126.88 250.51c-19.7695 58.499 -36.7695 117.979 -54.8018 177.018
c-7.90137 25.875 -16.2695 51.375 -23.1445 77.5527c-5.84863 22.2627 -12.4141 84.1436 -48.7559 74.5322c-27.0986 -7.16406 -32.1904 23.8682 -9.1709 33.7295c55.874 23.9277 99.0508 -17.585 132.353 -59.3018c41.4336 -51.9072 68.8545 -112.834 95.2754 -173.347
c51.6641 -118.314 97.7227 -242.74 191.123 -335.437z" />
    <glyph glyph-name="nonbreakingspace" unicode="&#xa0;" horiz-adv-x="371" 
 />
    <glyph glyph-name="exclamdown" unicode="&#xa1;" horiz-adv-x="268" 
d="M206.275 224.271c6.02637 -159.07 13.8154 -318.079 10.7559 -477.294c-0.80957 -41.9932 -36.3877 -73.1699 -75.2354 -83.4268c-31.5059 -8.31543 -83.3867 -0.841797 -85.6035 40.5586c-8.5459 159.458 -5.9668 319.113 -5.3291 478.742
c0.329102 81.5117 2.5459 163.004 4.23633 244.496c1.6582 79.8867 3.1123 161.057 23.54 238.589c6.69727 25.4072 69.835 60.5186 82.6699 22.3281c24.9531 -74.2295 28.6436 -152.616 32.9395 -230.404c4.28906 -77.8477 9.07227 -155.676 12.0264 -233.589z
M168.934 804.351c-6.64453 -27.0264 -66.9336 -58.3154 -81.9863 -22.1514c-14.8945 35.7891 -14.4277 76.2822 -11.9541 114.341c2.08594 32.0986 28.8418 54.6709 59.8281 59.4668c27.2363 4.2168 57.9072 -9.01367 51.5459 -41.1514
c-7.23047 -36.5127 -8.57227 -74.4395 -17.4336 -110.505z" />
    <glyph glyph-name="cent" unicode="&#xa2;" horiz-adv-x="642" 
d="M540.849 264.515c6.53906 22.625 57.9238 31.8506 49.9834 3.01562c-37.1504 -134.63 -97.6631 -301.417 -239.154 -356.863c-11.5 -4.50684 -23.3086 -8.04004 -35.2422 -10.5273c-5.30273 -72.1895 -9.66406 -144.491 -12.9531 -216.885
c-1.15137 -25.3613 -54.585 -42.335 -53.5781 -14.2832c2.7168 75.8477 6.92773 151.643 12.4277 227.358c-33.2627 2.28906 -65.5322 13.4668 -93.0117 35.3477c-54.0713 43.0586 -83.2285 111.663 -98.9844 177.044c-33.625 139.544 -25.4541 297.371 23.7822 432.218
c44.0254 120.584 132.333 258.753 265.614 292.522c14.6182 3.7041 27.9404 5.3291 40.085 5.15137c7.63184 35.085 15.4209 70.1309 23.5723 105.084c5.11133 21.9336 53.584 30.585 47.2881 2.86133c-9 -39.6182 -17.5127 -79.3213 -25.7754 -119.064
c74.0254 -39.3018 79.4336 -174.346 78.8545 -255.266c-0.18457 -25.1973 -52.8877 -42.0586 -52.9004 -14.0986c-0.0263672 61.2822 0.572266 126.156 -26.0791 182.853c-3.59863 7.64453 -7.97363 15.0195 -13.0723 21.5059
c-51.9004 -262.674 -87.999 -527.841 -109.979 -794.58c19.1182 -6.75 41.2559 -4.39453 66.6836 12.1709c42.7227 27.835 69.3008 79.209 91.0244 123.616c25.3154 51.7422 45.4141 105.511 61.4141 160.819zM271.883 12.7246
c23.6309 259.22 62.9668 517.132 116.295 771.839c-4.53906 -0.420898 -9.25586 -1.48633 -14.2168 -3.48633c-23.7764 -9.60547 -41.0391 -31.4805 -54.2891 -52.4346c-51.7686 -81.874 -74.9658 -177.82 -93.748 -271.918
c-20.8154 -104.288 -20.6113 -214.312 -0.375 -318.719c6.4209 -33.1377 21.3281 -86.4463 46.334 -125.281z" />
    </font>
</defs>
</svg>
