<?xml version="1.0" standalone="no"?>
<!DOCTYPE svg PUBLIC "-//W3C//DTD SVG 1.1//EN" "http://www.w3.org/Graphics/SVG/1.1/DTD/svg11.dtd" >
<svg xmlns="http://www.w3.org/2000/svg">
<metadata>
This is a custom SVG webfont generated by Font Squirrel.
Foundry     : Stereotypes.de
</metadata>
<defs>
<font id="webfonti6QgH8L5" horiz-adv-x="327" >
<font-face units-per-em="1000" ascent="750" descent="-250" />
<missing-glyph horiz-adv-x="209" />
<glyph unicode=" "  horiz-adv-x="209" />
<glyph unicode="&#x09;" horiz-adv-x="209" />
<glyph unicode="&#xa0;" horiz-adv-x="209" />
<glyph unicode="!" horiz-adv-x="242" d="M152 28q0 -11 -8.5 -19.5t-20.5 -8.5q-11 0 -19.5 8.5t-8.5 19.5q0 12 8.5 20.5t19.5 8.5q12 0 20.5 -8.5t8.5 -20.5zM136 700l-1 -348l-2 -197h-18l-2 197l-1 348h24z" />
<glyph unicode="&#x22;" horiz-adv-x="210" d="M40 700h25l-4 -220h-17zM145 700h25l-4 -220h-17z" />
<glyph unicode="#" horiz-adv-x="734" d="M475 166h-251l-40 -236h-20l40 236h-177l2 18h178l44 261h-192l2 18h193l41 237h20l-41 -237h251l41 237h20l-41 -237h162l-2 -18h-163l-44 -261h177l-2 -18h-178l-40 -236h-20zM227 184h251l44 261h-251z" />
<glyph unicode="$" horiz-adv-x="594" d="M290 -8q-34 0 -60.5 2.5t-48 7.5t-41 12t-39.5 16l-3 13l17 182q4 0 7.5 -0.5t7.5 -0.5l-12 -181q33 -14 75.5 -23.5t96.5 -9.5v341q-50 18 -85 37t-57 41.5t-32 50t-10 62.5t14 63.5t38.5 49.5t58.5 34t73 17v100h20v-98q25 0 46 -1.5t40.5 -4t39 -7t40.5 -10.5l4 -11 l-13 -122q-4 0 -7.5 0.5t-7.5 0.5l6 116q-12 4 -29.5 8t-36 7t-37 4.5t-32.5 1.5q-4 0 -7 -0.5t-6 -0.5v-325q89 -33 134 -74t57 -92q5 -23 5 -44q0 -30 -12 -57.5t-36.5 -50t-61.5 -36.5t-86 -17v-87h-20v86zM486 154q0 30 -9 56t-29.5 49.5t-54 44t-83.5 39.5v-332 q33 2 67.5 12.5t67.5 32.5q20 24 30.5 47t10.5 51zM128 542q0 -33 8.5 -57t27.5 -43t50 -35.5t76 -34.5v316q-26 -3 -54.5 -11.5t-52.5 -25.5t-39.5 -43.5t-15.5 -65.5z" />
<glyph unicode="%" horiz-adv-x="1069" d="M690 723l16 -8l-331 -737l-17 7zM269 708q47 0 83 -14.5t61 -40.5t37.5 -62.5t12.5 -80.5q0 -95 -51 -147.5t-142 -52.5q-41 0 -75.5 14t-60 39.5t-40 61.5t-14.5 80q0 47 14 84.5t39 64t60 40.5t76 14zM795 392q47 0 83 -14.5t61 -40.5t37.5 -62.5t12.5 -80.5 q0 -95 -51 -147.5t-142 -52.5q-41 0 -75.5 14t-60 39.5t-40 61.5t-14.5 80q0 47 14 84.5t39 64t60 40.5t76 14zM794 375q-35 0 -61 -9.5t-52 -26.5q-23 -27 -39 -62.5t-16 -88.5q0 -39 13 -71.5t36 -56t54 -36.5t67 -13q43 0 73 11t56 33q20 27 32 60t12 78q0 40 -11 73.5 t-33 57.5t-55 37.5t-76 13.5zM268 691q-35 0 -61 -9.5t-52 -26.5q-23 -27 -39 -62.5t-16 -88.5q0 -39 13 -71.5t36 -56t54 -36.5t67 -13q43 0 73 11t56 33q20 27 32 60t12 78q0 40 -11 73.5t-33 57.5t-55 37.5t-76 13.5z" />
<glyph unicode="&#x26;" horiz-adv-x="833" d="M479 380h278l-1 -10l-108 -9q-10 -75 -39 -144.5t-76 -122.5q30 -23 60.5 -42.5t60.5 -36.5l114 -5l-1 -10h-125q-30 17 -61 37t-62 43q-41 -41 -91.5 -64.5t-110.5 -23.5q-62 0 -105 16t-70 44t-39.5 65.5t-12.5 81.5q0 40 10.5 71t29.5 56t44 46t55 40q-11 29 -17.5 58 t-6.5 58q0 43 8 76.5t26.5 56.5t48.5 35t75 12q91 0 163 -33l-18 -114l-14 1l9 102q-27 13 -63 19.5t-78 6.5q-33 0 -58 -8t-49 -27q-19 -31 -24.5 -58.5t-5.5 -68.5q0 -54 24 -110.5t64.5 -111t93.5 -106t111 -95.5q44 50 72 116t39 140l-150 9v10zM504 91 q-85 64 -157 141.5t-110 161.5q-27 -17 -50 -36.5t-40.5 -42.5t-27 -52t-9.5 -66q0 -39 10.5 -73t35 -59.5t63.5 -40t96 -14.5t104 21.5t85 59.5z" />
<glyph unicode="'" horiz-adv-x="105" d="M40 700h25l-4 -220h-17z" />
<glyph unicode="(" horiz-adv-x="367" d="M278 750q-29 -36 -54 -85.5t-44 -106.5t-29.5 -118.5t-10.5 -121.5q0 -114 33.5 -221.5t106.5 -210.5l-17 -11q-38 51 -66 103t-46 106t-26.5 112t-8.5 122q0 66 11 130t30.5 121t46 106t58.5 85z" />
<glyph unicode=")" horiz-adv-x="367" d="M84 -115q29 36 54 85.5t44 106.5t29.5 119t10.5 122q0 113 -33.5 220.5t-106.5 210.5l17 11q38 -51 66 -102.5t46 -105.5t26.5 -112t8.5 -122q0 -66 -11 -129.5t-30.5 -121t-46.5 -107t-58 -85.5z" />
<glyph unicode="*" horiz-adv-x="328" d="M164 697q15 -4 13 -49l-4 -60l60 17l41 26q2 -4 4 -12q0 -15 -42 -27l-61 -15l36 -51l38 -32q-8 -4 -10 -7q-15 -6 -40 34l-32 50l-40 -51l-18 -45q-3 2 -9 8q-11 13 19 46l39 48l-59 23l-49 3q1 2 1.5 5t2.5 6q9 14 51 -3l56 -23l3 63l-12 47h6q4 0 6 -1z" />
<glyph unicode="+" horiz-adv-x="465" d="M60 266h163v163h18v-163h164v-18h-164v-164h-18v164h-163v18z" />
<glyph unicode="," horiz-adv-x="242" d="M149 24q0 -17 -14 -41.5t-35 -46.5l-13 13q11 12 19.5 25t13.5 26q-11 0 -19.5 8.5t-8.5 19.5q0 12 8.5 20.5t19.5 8.5q12 0 20.5 -9t8.5 -24z" />
<glyph unicode="-" horiz-adv-x="445" d="M70 274h305v-20h-305v20z" />
<glyph unicode="." horiz-adv-x="242" d="M149 28q0 -11 -8.5 -19.5t-20.5 -8.5q-11 0 -19.5 8.5t-8.5 19.5q0 12 8.5 20.5t19.5 8.5q12 0 20.5 -8.5t8.5 -20.5z" />
<glyph unicode="/" horiz-adv-x="269" d="M214 750h20l-179 -820h-20z" />
<glyph unicode="0" horiz-adv-x="676" d="M332 568q61 0 110 -21t83.5 -60t52.5 -94t18 -123q0 -62 -17.5 -113t-50 -87.5t-80 -57t-107.5 -20.5t-108.5 20.5t-82 57.5t-52 88.5t-18.5 114.5q0 67 18.5 122t51.5 93t79.5 59t102.5 21zM334 550q-42 0 -79 -13.5t-75 -38.5q-20 -23 -35 -47t-25 -51t-15 -58.5 t-5 -68.5q0 -59 17 -107t48.5 -83t76 -54t100.5 -19q45 0 84.5 13.5t77.5 38.5q32 42 52 90t20 117q0 132 -64 206.5t-178 74.5z" />
<glyph unicode="1" horiz-adv-x="395" d="M71 0l1 10l119 5v530l-120 5l1 10h252l-1 -10l-112 -5v-530l114 -5l-1 -10h-253z" />
<glyph unicode="2" horiz-adv-x="516" d="M242 568q48 0 82.5 -13t56.5 -35.5t32 -53t10 -65.5q0 -38 -16.5 -76.5t-44.5 -75.5t-64 -71.5t-76 -64.5t-80 -53.5t-76 -38.5l1 -4l388 3l-1 -20h-413l-1 26q39 18 81 42t82.5 53.5t77 63t64 69t43.5 73t16 74.5q0 31 -8.5 58t-28 47t-50.5 32t-75 12q-45 0 -86.5 -7.5 t-70.5 -19.5l-4 -142l-13 1l-7 140l4 11q32 17 77.5 26t99.5 9z" />
<glyph unicode="3" horiz-adv-x="566" d="M440 397q0 27 -10 54.5t-31.5 49t-55 35.5t-79.5 14q-38 0 -78.5 -5t-78.5 -14l-4 -125l-15 1l-3 116l5 20q37 13 85 19t90 6q49 0 85 -14.5t60 -38.5t36 -54.5t12 -63.5q0 -27 -9.5 -54t-27 -49t-41 -37.5t-51.5 -21.5v-4q26 -6 52.5 -18.5t47.5 -33t34 -49t13 -65.5 q0 -38 -13.5 -72t-42 -59.5t-72 -41t-104.5 -15.5q-51 0 -90 12t-74 34l9 15q38 -23 77.5 -33t77.5 -10q37 0 64 4.5t47 12.5t35 18t29 22q20 26 29.5 52t9.5 60q0 38 -16 68.5t-46 51.5t-71.5 32.5t-92.5 11.5l-1 13q50 0 86 7t71 25q23 26 37.5 55t14.5 69z" />
<glyph unicode="4" horiz-adv-x="571" d="M433 0v-91l-5 -39h-15v130h-353l-2 19l178 541h16v-11l-174 -530h335v256l5 44h15v-300h113l-1 -19h-112z" />
<glyph unicode="5" horiz-adv-x="570" d="M103 253l8 307h373l-1 -18h-353l-8 -284q26 8 65.5 14t81.5 6q50 0 93 -13.5t75 -39.5t50.5 -65t18.5 -90q0 -47 -17 -85t-48.5 -65t-77 -42t-103.5 -15q-57 0 -100 11t-84 33l8 16q42 -20 84 -31t92 -11q65 0 110.5 17.5t82.5 52.5q9 15 15.5 28.5t10 27.5t5.5 29t2 34 q0 46 -17 81.5t-46.5 59.5t-69 36.5t-84.5 12.5t-89 -8.5t-75 -16.5z" />
<glyph unicode="6" horiz-adv-x="563" d="M319 672q-46 0 -88.5 -24t-74.5 -68t-51.5 -106.5t-19.5 -140.5q45 27 98.5 43.5t108.5 16.5q109 0 162 -52.5t53 -151.5q0 -93 -56 -145t-159 -52q-106 0 -166.5 84t-60.5 258q0 79 20 145t54.5 112.5t80.5 72.5t98 26q49 0 88 -7.5t77 -23.5l-10 -18q-36 17 -72.5 24 t-81.5 7zM292 375q-48 0 -103 -16t-104 -46q3 -156 57.5 -229.5t150.5 -73.5q45 0 82 12t69 34q22 31 32 60t10 73q0 92 -49.5 139t-144.5 47z" />
<glyph unicode="7" horiz-adv-x="540" d="M491 560l2 -17q-106 -157 -171.5 -329t-92.5 -344h-20l-2 9q31 164 95.5 336t165.5 327h-403l-3 -145l-14 1l-5 162h448z" />
<glyph unicode="8" horiz-adv-x="559" d="M470 520q0 -31 -11 -59t-30 -51t-44 -41.5t-53 -30.5q78 -26 116.5 -67t38.5 -110q0 -33 -11.5 -64t-37 -54t-65.5 -37t-96 -14q-53 0 -92.5 14t-66 38t-40 56.5t-13.5 68.5t13 64.5t35 51t50.5 39t59.5 27.5q-61 26 -99.5 69.5t-38.5 109.5q0 36 14 65.5t39 50.5 t60 32.5t78 11.5q45 0 81 -13.5t61 -37t38.5 -54.5t13.5 -65zM285 331q-10 2 -19.5 5l-18.5 6q-34 -12 -63.5 -27.5t-51.5 -36.5t-34.5 -48t-12.5 -61q0 -33 12 -62t36.5 -50.5t60.5 -34t84 -12.5q46 0 84.5 12.5t70.5 34.5q19 27 26.5 53t7.5 50q0 36 -11.5 63t-34 47.5 t-57 35t-79.5 25.5zM105 529q0 -35 13.5 -63.5t38 -50.5t58 -38t73.5 -26l20 -5q29 10 54.5 27t45 39t31 49t11.5 57q0 66 -45 110t-133 44q-38 0 -69.5 -11t-60.5 -30q-19 -24 -28 -47t-9 -55z" />
<glyph unicode="9" horiz-adv-x="565" d="M256 -112q57 0 97.5 22.5t66.5 64t38 101t12 133.5q-42 -23 -95 -33.5t-114 -10.5q-44 0 -81.5 12.5t-64.5 37.5t-42.5 62t-15.5 86t11.5 87t38 64t68.5 40t102 14q57 0 97 -24.5t66 -72t38 -116t12 -156.5q0 -76 -14.5 -137t-43.5 -103.5t-73 -65.5t-103 -23 q-55 0 -98.5 12.5t-83.5 35.5l11 18q37 -24 80.5 -36t90.5 -12zM262 182q60 0 114 11t93 34q-2 78 -13 138.5t-34 102t-59 63t-86 21.5q-86 0 -152 -40q-26 -32 -37 -66t-11 -84q0 -46 13.5 -79.5t38 -56t58.5 -33.5t75 -11z" />
<glyph unicode=":" horiz-adv-x="242" d="M149 451q0 -11 -8.5 -19.5t-20.5 -8.5q-11 0 -19.5 8.5t-8.5 19.5q0 12 8.5 20.5t19.5 8.5q12 0 20.5 -8.5t8.5 -20.5zM149 28q0 -11 -8.5 -19.5t-20.5 -8.5q-11 0 -19.5 8.5t-8.5 19.5q0 12 8.5 20.5t19.5 8.5q12 0 20.5 -8.5t8.5 -20.5z" />
<glyph unicode=";" horiz-adv-x="242" d="M149 451q0 -11 -8.5 -19.5t-20.5 -8.5q-11 0 -19.5 8.5t-8.5 19.5q0 12 8.5 20.5t19.5 8.5q12 0 20.5 -8.5t8.5 -20.5zM149 24q0 -17 -14 -41.5t-35 -46.5l-13 13q11 12 19.5 25t13.5 26q-11 0 -19.5 8.5t-8.5 19.5q0 12 8.5 20.5t19.5 8.5q12 0 20.5 -9t8.5 -24z" />
<glyph unicode="&#x3c;" horiz-adv-x="438" d="M348.006 5.0293l-287.982 224.986v19.998l287.982 224.986l10.999 -12.999l-282.982 -221.986l282.982 -221.986z" />
<glyph unicode="=" horiz-adv-x="465" d="M60 335h345v-20h-345v20zM60 205h345v-20h-345v20z" />
<glyph unicode="&#x3e;" horiz-adv-x="438" d="M90 475l288 -225v-20l-288 -225l-11 13l283 222l-283 222z" />
<glyph unicode="?" horiz-adv-x="409" d="M185 28q0 -11 -8.5 -19.5t-20.5 -8.5q-11 0 -19.5 8.5t-8.5 19.5q0 12 8.5 20.5t19.5 8.5q12 0 20.5 -8.5t8.5 -20.5zM137 700q54 0 95.5 -18.5t70 -52t43.5 -81.5t15 -108q0 -17 -12.5 -33.5t-41 -33.5t-73.5 -36.5t-109 -41.5q-10 -11 -10 -35q-1 -23 3 -47.5t15 -53.5 l-18 -7q-21 60 -21 111q0 15 8 30t23 20q25 9 54.5 21t58 25t54 27t42.5 28q7 14 7 34q0 45 -13 87.5t-38.5 75t-64 52t-88.5 19.5q-13 0 -36.5 -1t-37.5 -3l-2 -105h-14l-9 114q15 5 38 9t61 4z" />
<glyph unicode="@" horiz-adv-x="857" d="M580 80l114 -5q32 35 47.5 88.5t15.5 119.5q0 69 -23 124.5t-64.5 94.5t-100 59.5t-130.5 20.5q-40 0 -71.5 -5t-58.5 -14.5t-51.5 -22.5t-49.5 -29q-50 -50 -79 -108t-29 -137q0 -75 25 -134.5t70.5 -100.5t110.5 -63t145 -22h129l1 -7q-38 -6 -69.5 -8.5t-69.5 -2.5 q-81 0 -147.5 23.5t-114.5 67t-74 105.5t-26 140q0 66 25 127.5t72 108t113 74.5t149 28q75 0 137.5 -23t107 -64.5t69 -100.5t24.5 -131q0 -70 -18 -125.5t-56 -97.5h-136l-5 41q-25 -21 -58 -33.5t-77 -12.5q-77 0 -122.5 50.5t-45.5 144.5q0 45 11 83.5t33 66.5t55.5 44 t78.5 16q37 0 68.5 -12.5t56.5 -32.5l6 41h12v-376zM427 73q45 0 78 14t55 33v273q-27 26 -57.5 37.5t-67.5 11.5q-31 0 -59.5 -9t-57.5 -32q-23 -36 -31 -72.5t-8 -78.5q0 -88 40 -132.5t108 -44.5z" />
<glyph unicode="A" horiz-adv-x="728" d="M346 700h33l259 -684l80 -6l-1 -10h-200l1 10l99 5l-77 203h-355l-76 -203l100 -5l-1 -10h-198l1 10l78 5zM191 236h342l-169 448h-5z" />
<glyph unicode="B" horiz-adv-x="615" d="M50 0l1 10l104 5v670l-98 5l1 10h276q46 0 82.5 -13.5t61.5 -38t38.5 -57.5t13.5 -72q0 -28 -6 -54t-19.5 -48t-35.5 -38t-53 -25q60 -17 94.5 -62.5t34.5 -108.5q0 -36 -10.5 -69t-35.5 -58.5t-66.5 -40.5t-103.5 -15h-279zM175 344v-324q26 -4 64.5 -4.5t79.5 -0.5 q67 0 109 15t71 43q13 22 20 45t6 65q0 36 -13.5 66t-36.5 51t-55 32.5t-71 11.5h-174zM175 683v-321h174q37 0 60.5 6t43.5 16q26 23 41.5 53t15.5 81q0 34 -12 64.5t-34.5 52.5t-56.5 35t-77 13h-155z" />
<glyph unicode="C" horiz-adv-x="687" d="M627 53q-59 -35 -114.5 -48t-126.5 -13q-74 0 -132.5 24t-99.5 70t-62.5 111t-21.5 148q0 90 24.5 158t67.5 113.5t101.5 68.5t126.5 23q37 0 67 -2t55.5 -6.5t48.5 -11.5t46 -16l3 -15l-7 -138l-14 1l1 133q-74 37 -199 37q-47 0 -90 -12t-86 -35q-62 -53 -93.5 -123 t-31.5 -175q0 -78 20 -140t57.5 -105.5t92.5 -66.5t126 -23q35 0 64.5 2.5t57.5 9.5t55 18t57 28z" />
<glyph unicode="D" horiz-adv-x="743" d="M51 10l99 5v670l-93 5l1 10h237q182 0 280 -89.5t98 -259.5q0 -81 -22 -146t-65.5 -110.5t-109 -70t-152.5 -24.5h-274zM286 684q-47 0 -73 -1t-43 -3v-662q24 -3 65 -3h89q46 0 82 5.5t65 16.5t53.5 26.5t47.5 35.5q19 25 34 50t25.5 54.5t16 65t5.5 82.5q0 167 -93 250 t-274 83z" />
<glyph unicode="E" horiz-adv-x="587" d="M72 10l94 5v670l-96 5l1 10h446l-3 -162l-12 1l-6 145h-310v-322h216l9 93l12 -1v-194l-12 1l-9 85h-216v-330h327l5 149l12 -1l2 -164h-461z" />
<glyph unicode="F" horiz-adv-x="563" d="M71 0l1 10l92 5v670l-94 5l1 10h442l-3 -161l-12 1l-6 142h-308v-323h203l7 80l12 -1v-188l-12 1l-7 90h-203v-326l129 -5l-1 -10h-241z" />
<glyph unicode="G" horiz-adv-x="747" d="M597 67q-41 -34 -94 -54.5t-121 -20.5q-71 0 -128.5 25.5t-98 72.5t-63 112.5t-22.5 145.5q0 89 26 156.5t71.5 112.5t109 68t138.5 23q28 0 56 -3.5t54.5 -9.5t50.5 -13.5t43 -16.5l7 -14l-16 -140l-14 1l9 139q-15 8 -37 15t-47.5 12.5t-52.5 8.5t-53 3q-52 0 -93 -9 t-88 -29q-78 -53 -111 -129t-33 -176q0 -77 20.5 -139t58.5 -106t92 -68t121 -24t118 19.5t96 60.5v177l-160 6v11h260v-13l-80 -4v-267h-14z" />
<glyph unicode="H" horiz-adv-x="753" d="M510 0l1 10l84 5v334h-438v-334l88 -5l-1 -10h-194l1 10l86 5v670l-79 5l1 10h182l-1 -10l-83 -5v-318h438v318l-82 5l1 10h185l-1 -10l-83 -5v-670l88 -5l-1 -10h-192z" />
<glyph unicode="I" horiz-adv-x="376" d="M81 0l1 10l93 5v670l-95 5l1 10h210l-1 -10l-93 -5v-670l99 -5l-1 -10h-214z" />
<glyph unicode="J" horiz-adv-x="376" d="M176 685l-99 5l1 10h218l-1 -10l-97 -5v-606q0 -35 -5 -62.5t-17 -51.5t-32 -46t-51 -45l-10 11q27 22 45 42.5t28.5 42.5t15 47t4.5 57v611z" />
<glyph unicode="K" horiz-adv-x="666" d="M80 0l1 10l84 5v670l-95 5l1 10h207l-1 -10l-90 -5v-325h33l304 325l-74 5l1 10h165l-1 -10l-66 -5l-309 -329v-7q18 -22 44 -50.5l56 -60l62.5 -64l64.5 -62l62 -55t55 -42.5l62 -5l-1 -10h-73q-38 28 -86 71.5l-96.5 91.5l-93.5 96t-76 84h-33v-328l97 -5l-1 -10h-203z " />
<glyph unicode="L" horiz-adv-x="536" d="M70 0l1 10l94 5v670l-83 5l1 10h213l-1 -10l-110 -5v-669h305l7 169l13 -1l1 -184h-441z" />
<glyph unicode="M" horiz-adv-x="998" d="M778 672l-260 -652h-26l-270 653l-55 -658l84 -5l-1 -10h-190l1 10l84 5l58 670l-80 5l1 10h202l-1 -10l-85 -5l265 -640h2l256 640l-71 5l1 10h174l-1 -10l-71 -5l61 -670l82 -5v-10h-190l1 10l84 5z" />
<glyph unicode="N" horiz-adv-x="865" d="M192 700l502 -669v654l-96 5l1 10h211l-1 -10l-95 -5v-685h-19l-504 670v-655l107 -5l-1 -10h-225l1 10l98 5v670l-101 5l1 10h121z" />
<glyph unicode="O" horiz-adv-x="794" d="M392 708q81 0 143 -26.5t104 -74t63.5 -113t21.5 -144.5q0 -86 -23 -152.5t-65.5 -112t-104 -69.5t-138.5 -24q-68 0 -127 24.5t-102.5 70t-68.5 110t-25 144.5q0 84 24 152t67 115.5t102 73.5t129 26zM390 688q-63 0 -110.5 -19t-92.5 -54q-20 -24 -38 -52t-31 -61 t-20.5 -73t-7.5 -89q0 -73 23.5 -133.5t64.5 -103.5t96 -67t119 -24q76 0 130 21.5t102 62.5q35 50 57 109.5t22 143.5q0 75 -20 137.5t-59.5 107t-98.5 69.5t-136 25z" />
<glyph unicode="P" horiz-adv-x="602" d="M70 0l1 11l91 4v670l-92 5l1 10h266q97 0 151 -53t54 -146q0 -106 -53.5 -153t-168.5 -47h-138v-286l114 -5l-1 -10h-225zM182 682v-363h150q84 0 143 34q24 29 35 63t11 85q0 86 -48 133.5t-140 47.5h-151z" />
<glyph unicode="Q" horiz-adv-x="794" d="M392 708q81 0 143 -26.5t104 -74t63.5 -113t21.5 -144.5q0 -125 -47 -208t-133 -121q26 -32 64.5 -61t86.5 -54t108.5 -40.5t117.5 -22.5l-3 -18q-55 5 -117 21t-111 41q-53 27 -94.5 58t-71.5 68q-29 -10 -62.5 -15.5t-68.5 -5.5q-68 0 -127 24.5t-102.5 70t-68.5 110 t-25 144.5q0 84 24 152t67 115.5t102 73.5t129 26zM390 688q-63 0 -110.5 -19t-92.5 -54q-20 -24 -38 -52t-31 -61t-20.5 -73t-7.5 -89q0 -73 23.5 -133.5t64.5 -103.5t96 -67t119 -24q76 0 130 21.5t102 62.5q35 50 57 109.5t22 143.5q0 75 -20 137.5t-59.5 107t-98.5 69.5 t-136 25z" />
<glyph unicode="R" horiz-adv-x="682" d="M78 0l1 10l90 5v670l-96 5l1 10h262q54 0 94.5 -15t67.5 -42t41 -64.5t14 -82.5q0 -39 -13.5 -71t-37 -56t-56 -39.5t-71.5 -21.5q15 -35 37.5 -76.5t48 -82t51 -76t46.5 -58.5l68 -5l-1 -10h-79q-23 25 -49.5 63t-53 80.5t-50.5 85t-40 77.5q-6 -1 -13 -1h-151v-290 l92 -5l-1 -10h-202zM189 683v-360h92q43 0 74.5 2.5t55.5 9.5t43 18t39 28q20 25 31.5 51.5t11.5 62.5q0 41 -12.5 75.5t-38 59.5t-65 39t-93.5 14h-138z" />
<glyph unicode="S" horiz-adv-x="608" d="M325 708q44 0 78.5 -6t74.5 -17l4 -11l-13 -122l-15 1l6 116q-12 4 -29.5 8t-36 7t-37 4.5t-32.5 1.5q-38 0 -76.5 -10t-76.5 -34q-20 -22 -31 -46.5t-11 -57.5q0 -35 9 -59.5t30.5 -44t56 -36.5t85.5 -37q107 -42 152 -92t45 -119q0 -31 -13.5 -60.5t-41 -52t-68.5 -36 t-96 -13.5q-33 0 -59 2.5t-47.5 7.5t-40.5 12t-39 16l-3 13l17 182l15 -1l-12 -181q32 -14 74 -23.5t95 -9.5q38 0 78.5 10t79.5 36q20 24 30.5 47t10.5 51q0 30 -9 56.5t-30 50t-55.5 44.5t-85.5 40q-54 20 -92 40t-62 42.5t-35 50.5t-11 64q0 39 17 69.5t46 52t69 33 t85 11.5z" />
<glyph unicode="T" horiz-adv-x="612" d="M582 700l-3 -165l-12 1l-5 147h-246v-668l105 -5l-1 -10h-228l1 10l103 5v668h-247l-4 -148l-12 -1l-3 166h552z" />
<glyph unicode="U" horiz-adv-x="771" d="M629 264q0 -66 -10.5 -117t-36.5 -85.5t-71 -52t-115 -17.5q-68 0 -113.5 18t-74 52.5t-40.5 85t-12 116.5v421l-90 5l1 10h195l-1 -10l-85 -5v-413q0 -65 10.5 -114t36 -82t68 -49.5t105.5 -16.5q54 0 94.5 12.5t73.5 40.5q12 18 21 38t15 44.5t8.5 55.5t2.5 71v413 l-85 5l1 10h189l-1 -10l-86 -5v-421z" />
<glyph unicode="V" horiz-adv-x="759" d="M393 0h-28l-275 685l-80 5l1 10h215l-1 -10l-113 -5l267 -667h2l262 667l-98 5l1 10h203l-1 -10l-85 -5z" />
<glyph unicode="W" horiz-adv-x="1092" d="M758 0h-32l-189 536l-184 -536h-32l-231 685l-80 5l1 10h200l-1 -10l-98 -5l225 -669h1l189 549l-42 120l-89 5l1 10h233l-1 -10l-122 -5l235 -669h2l229 669l-106 5l1 10h214l-1 -10l-88 -5z" />
<glyph unicode="X" horiz-adv-x="713" d="M345 352l-238 -337l85 -5l-1 -10h-181l1 10l74 5l249 352l-241 318l-65 5l1 10h168l-1 -10l-78 -5l230 -303l218 303l-86 5l1 10h183l-1 -10l-73 -5l-231 -318l268 -352l76 -5l-1 -10h-190l1 10l88 5z" />
<glyph unicode="Y" horiz-adv-x="675" d="M220 0l1 10l102 5v289l-233 381l-80 5l1 10h203l-1 -10l-99 -5l220 -360h2l228 360l-93 5l1 10h193l-1 -10l-79 -5l-242 -383v-287l95 -5l-1 -10h-217z" />
<glyph unicode="Z" horiz-adv-x="722" d="M92 0l-2 19l518 663h-474l-5 -171l-14 1l-7 188h521l3 -19l-517 -663h486l8 174l14 -1l1 -191h-532z" />
<glyph unicode="[" horiz-adv-x="328" d="M248 724v-18h-103v-774h103v-18h-123v810h123z" />
<glyph unicode="\" horiz-adv-x="269" d="M55.0127 750h-19.998l178.988 -820h19.999z" />
<glyph unicode="]" horiz-adv-x="328" d="M80 -86v18h103v774h-103v18h123v-810h-123z" />
<glyph unicode="^" horiz-adv-x="483" d="M128 559l-18 5l121 157h20l121 -157l-18 -5l-113 140z" />
<glyph unicode="_" horiz-adv-x="545" d="M20 -103h505v-18h-505v18z" />
<glyph unicode="`" horiz-adv-x="550" d="M303 559l-127 157l24 5l121 -157z" />
<glyph unicode="a" horiz-adv-x="619" d="M293 560h31l214 -545l66 -5l-1 -10h-168l1 10l81 4l-63 160h-292l-62 -160l82 -4l-1 -10h-166l1 10l65 4zM167 190h281l-139 354h-4z" />
<glyph unicode="b" horiz-adv-x="526" d="M48 0l1 10l86 4v532l-81 4v10h231q39 0 69.5 -11t51.5 -30t32 -46t11 -58q0 -45 -21 -81t-73 -50q50 -14 78.5 -50t28.5 -87q0 -29 -9 -55.5t-30 -47t-55.5 -32.5t-85.5 -12h-234zM154 274v-256q22 -3 53.5 -3.5t65.5 -0.5q55 0 89 12t58 34q11 18 17 36t5 51 q-1 58 -41 92.5t-104 34.5h-143zM154 544v-253h143q30 0 49.5 4.5t36.5 12.5q20 19 33 42t13 64q0 55 -38 92.5t-110 37.5h-127z" />
<glyph unicode="c" horiz-adv-x="584" d="M528 43q-24 -14 -47.5 -23.5t-47.5 -15t-50 -8t-56 -2.5q-62 0 -110.5 19.5t-82.5 56t-52 88.5t-18 118q0 72 20.5 126.5t56 91t84.5 55t106 18.5q61 0 101.5 -7.5t78.5 -22.5l3 -12l-7 -112l-13 1l1 107q-61 29 -164 29q-38 0 -73.5 -10t-70.5 -27q-52 -43 -77.5 -98.5 t-25.5 -138.5q0 -62 16.5 -111t47.5 -83t76.5 -52.5t103.5 -18.5q28 0 53 2t48 7.5t45.5 14t46.5 22.5z" />
<glyph unicode="d" horiz-adv-x="631" d="M49 10l82 4v532l-77 4l1 10h198q151 0 232.5 -71.5t81.5 -207.5q0 -131 -72.5 -206t-217.5 -75h-229zM245 545q-38 0 -59.5 -0.5t-35.5 -2.5v-525q20 -2 53.5 -2.5t73.5 -0.5q37 0 66.5 4.5t53.5 13t44.5 21t39.5 28.5q15 20 27.5 40t21 43t13 51.5t4.5 65.5 q0 131 -76.5 197.5t-225.5 66.5z" />
<glyph unicode="e" horiz-adv-x="503" d="M66 10l78 4v532l-80 4l1 10h373l-2 -131l-13 1l-5 115h-254v-254h176l7 74l12 -1v-157l-12 1l-7 68h-176v-261h268l4 119l13 -1l2 -133h-386z" />
<glyph unicode="f" horiz-adv-x="482" d="M65 0l1 10l76 4v532l-78 4l1 10h369l-2 -130l-13 1l-5 113h-252v-256h166l6 64l11 -1v-152l-11 1l-6 72h-166v-258l106 -4l-1 -10h-202z" />
<glyph unicode="g" horiz-adv-x="634" d="M502 53q-34 -27 -78 -43t-100 -16q-59 0 -106.5 20.5t-82 58t-53 89.5t-18.5 116q0 71 21.5 125t60 90.5t91 55t114.5 18.5q47 0 92.5 -10.5t77.5 -24.5l6 -12l-13 -113l-14 1l7 111q-25 13 -69 22t-87 9t-76.5 -7t-72.5 -23q-63 -42 -90.5 -103t-27.5 -139 q0 -61 17 -110t48.5 -84t76 -54t99.5 -19q54 0 96 15t79 47v140l-132 5l1 11h217l-1 -12l-66 -4v-213h-13z" />
<glyph unicode="h" horiz-adv-x="640" d="M429 0l1 10l70 4v264h-360v-264l73 -4l-1 -10h-164l1 10l71 4v532l-66 4l1 10h155l-1 -10l-69 -4v-251h360v251l-68 4v10h157l-1 -10l-69 -4v-532l73 -4l-1 -10h-162z" />
<glyph unicode="i" d="M73 0l1 10l77 4v532l-79 4l1 10h177v-10l-77 -4v-532l82 -4l-1 -10h-181z" />
<glyph unicode="j" d="M152 546l-82 4l1 10h184l-1 -10l-80 -4v-484q0 -28 -4 -50t-14.5 -41.5t-28 -37t-43.5 -36.5l-9 10q44 34 60.5 67t16.5 83v489z" />
<glyph unicode="k" horiz-adv-x="568" d="M72 0l1 10l70 4v532l-79 4l1 10h175l-1 -10l-75 -4v-257h27l250 257l-61 4l1 10h140l-1 -10l-55 -4l-254 -261v-5q23 -27 58.5 -64l75 -75t79 -72t70.5 -55l51 -4v-10h-64q-31 22 -70.5 56.5l-79.5 73l-77 76.5l-63 67h-27v-259l81 -4l-1 -10h-172z" />
<glyph unicode="l" horiz-adv-x="460" d="M64 0l1 10l78 4v532l-69 4l1 10h180l-1 -10l-91 -4v-531h249l7 135l13 -1l1 -149h-369z" />
<glyph unicode="m" horiz-adv-x="843" d="M652 532l-214 -516h-24l-222 517l-45 -519l70 -4l-1 -10h-160l1 10l70 4l47 532l-66 4l1 10h171l-1 -10l-70 -4l217 -506h2l210 506l-59 4l1 10h149l-1 -10l-59 -4l50 -532l68 -4v-10h-160l1 10l69 4z" />
<glyph unicode="n" horiz-adv-x="730" d="M167 560l413 -529v515l-79 4l1 10h176l-1 -10l-78 -4v-546h-18l-415 530v-516l89 -4l-1 -10h-188l1 10l81 4v532l-84 4l1 10h102z" />
<glyph unicode="o" horiz-adv-x="672" d="M332 567q67 0 118.5 -21t86.5 -59t53 -91t18 -116q0 -137 -73 -211.5t-202 -74.5q-57 0 -106 19.5t-85.5 56t-57 88t-20.5 115.5q0 67 20 121.5t56 93t85 59t107 20.5zM331 548q-52 0 -91 -14.5t-76 -42.5q-34 -39 -57 -90.5t-23 -128.5q0 -58 19 -105.5t53 -82t79 -53.5 t98 -19q63 0 107 17t83 49q29 40 47 87.5t18 113.5q0 60 -16.5 109.5t-48.5 85t-80.5 55t-111.5 19.5z" />
<glyph unicode="p" horiz-adv-x="515" d="M64 0l1 11l76 3v532l-77 4l1 10h223q81 0 126 -42.5t45 -117.5q0 -85 -44.5 -122.5t-140.5 -37.5h-114v-226l95 -4l-1 -10h-190zM160 543v-287h123q35 0 64.5 7t53.5 20q20 23 28.5 49.5t8.5 67.5q0 68 -39.5 105.5t-114.5 37.5h-124z" />
<glyph unicode="q" horiz-adv-x="672" d="M332 567q67 0 118.5 -21t86.5 -59t53 -91t18 -116q0 -99 -38.5 -165.5t-109.5 -97.5q22 -23 55.5 -44.5t73.5 -38.5t84.5 -29.5t89.5 -17.5l-1 -18q-47 4 -93.5 17t-89 32t-78.5 42.5t-61 49.5q-23 -8 -50.5 -12t-56.5 -4q-57 0 -106 19.5t-85.5 56t-57 88t-20.5 115.5 q0 67 20 121.5t56 93t85 59t107 20.5zM331 548q-52 0 -91 -14.5t-76 -42.5q-34 -39 -57 -90.5t-23 -128.5q0 -58 19 -105.5t53 -82t79 -53.5t98 -19q63 0 107 17t83 49q29 40 47 87.5t18 113.5q0 60 -16.5 109.5t-48.5 85t-80.5 55t-111.5 19.5z" />
<glyph unicode="r" horiz-adv-x="581" d="M71 0l1 10l74 4v532l-79 4v10h220q89 0 135 -45.5t46 -117.5q0 -63 -41.5 -102t-105.5 -49q12 -27 30.5 -60t39.5 -65.5t42.5 -60.5t38.5 -46l56 -4l-1 -10h-67q-19 20 -41 50t-44 63.5t-42 68t-33 62.5q-5 -1 -11 -1h-123v-229l76 -4l-1 -10h-170zM166 544v-285h75 q35 0 60.5 2.5t45.5 7.5t36 14t32 22q17 20 26 40.5t9 49.5q0 33 -10 60t-31 47t-53.5 31t-76.5 11h-113z" />
<glyph unicode="s" horiz-adv-x="517" d="M276 567q38 0 66.5 -5t61.5 -14l4 -9l-12 -100l-14 1l5 93q-10 3 -24 6.5t-29.5 5.5t-30.5 3.5t-27 1.5q-31 0 -62.5 -7.5t-63.5 -26.5q-16 -17 -25 -36.5t-9 -45.5q0 -27 7.5 -46.5t25 -35t46 -29.5t70.5 -30q89 -34 126.5 -74t37.5 -95q0 -25 -11.5 -48.5t-34.5 -41.5 t-57 -29t-80 -11q-28 0 -49.5 2t-39.5 6t-34 9.5t-32 12.5l-3 11l15 146l15 -1l-10 -144q26 -11 60.5 -18.5t77.5 -7.5q31 0 64.5 8t65.5 28q17 19 25.5 37t8.5 40q0 48 -32.5 84.5t-116.5 66.5q-45 16 -76.5 32t-51.5 34.5t-29 41t-9 51.5q0 31 14 56t38.5 42t57.5 26.5 t71 9.5z" />
<glyph unicode="t" horiz-adv-x="523" d="M492 560l-3 -134l-12 1l-4 117h-201v-530l86 -4l-1 -10h-191l1 10l85 4v530h-202l-4 -118l-12 -1l-3 135h461z" />
<glyph unicode="u" horiz-adv-x="654" d="M530 213q0 -54 -8.5 -94.5t-30.5 -68.5t-59.5 -42t-95.5 -14q-57 0 -95.5 14.5t-62 42.5t-33.5 68.5t-10 93.5v333l-74 4l1 10h164l-1 -10l-70 -4v-328q0 -52 8.5 -90.5t29.5 -64.5t56 -39t87 -13q44 0 77.5 9.5t60.5 31.5q10 15 17.5 30.5t12 35t7 44t2.5 56.5v328 l-71 4l1 10h159l-1 -10l-71 -4v-333z" />
<glyph unicode="v" horiz-adv-x="645" d="M335 0h-27l-227 546l-66 4l1 10h181l-1 -10l-93 -4l219 -528h2l215 528l-81 4l1 10h171l-1 -10l-71 -4z" />
<glyph unicode="w" horiz-adv-x="922" d="M639 0h-30l-155 423l-152 -423h-30l-191 546l-66 4l1 10h168l-1 -10l-80 -4l185 -529h1l155 433l-35 96l-73 4l1 10h195l-1 -10l-100 -4l193 -530h2l188 530l-87 4l1 10h179l-1 -10l-73 -4z" />
<glyph unicode="x" horiz-adv-x="605" d="M293 279l-195 -265l70 -4l-1 -10h-152l1 10l61 4l205 279l-198 253l-54 4l1 10h142l-1 -10l-64 -4l188 -239l179 239l-71 4l1 10h154l-1 -10l-61 -4l-190 -252l221 -280l62 -4v-10h-161l1 10l72 4z" />
<glyph unicode="y" horiz-adv-x="576" d="M189 0l1 10l84 4v228l-193 304l-66 4l1 10h171l-1 -10l-81 -4l180 -285h2l188 285l-77 4l1 10h162l-1 -10l-66 -4l-200 -306v-226l79 -4l-1 -10h-183z" />
<glyph unicode="z" horiz-adv-x="611" d="M82 0l-2 17l428 526h-388l-5 -136l-14 1l-6 152h434l2 -17l-426 -526h398l7 138h14l1 -155h-443z" />
<glyph unicode="{" horiz-adv-x="329" d="M249 724v-18h-47q-29 0 -43.5 -17.5t-14.5 -65.5v-241q0 -32 -16.5 -48.5t-31.5 -16.5v-3q7 0 15.5 -6t16 -16.5t12 -24t4.5 -29.5v-243q0 -30 10.5 -46.5t39.5 -16.5h55v-18h-57q-35 0 -51.5 21.5t-16.5 56.5v242q0 33 -17 51t-37 18v25q20 0 37 12.5t17 44.5v240 q0 53 21 76t55 23h49z" />
<glyph unicode="|" horiz-adv-x="210" d="M95 750h20v-820h-20v820z" />
<glyph unicode="}" horiz-adv-x="329" d="M80 -86v18h47q29 0 43.5 17.5t14.5 65.5v241q0 32 16.5 48.5t31.5 16.5v3q-8 0 -16 6t-15.5 16.5t-12 24t-4.5 29.5v243q0 30 -10.5 46.5t-39.5 16.5h-55v18h57q35 0 51.5 -21.5t16.5 -56.5v-242q0 -33 17 -51t37 -18v-25q-20 0 -37 -12.5t-17 -44.5v-240q0 -53 -21 -76 t-55 -23h-49z" />
<glyph unicode="~" horiz-adv-x="582" d="M105 614q23 28 45.5 48t39.5 20q16 0 43.5 -11l57.5 -24l57 -24t44 -11l64 65l14 -7q-9 -12 -20 -24.5t-22.5 -23.5t-22.5 -18t-20 -7q-22 0 -50.5 11l-58 23.5l-56 23.5t-44.5 11l-57 -60z" />
<glyph unicode="&#xa1;" horiz-adv-x="242" d="M96.0098 473.002q0 10.999 8.49902 19.499q8.49902 8.49902 20.499 8.49902q10.999 0 19.498 -8.49902q8.5 -8.5 8.5 -19.499q0 -12 -8.5 -20.499q-8.49902 -8.49902 -19.498 -8.49902q-12 0 -20.499 8.49902t-8.49902 20.499zM112.008 -198.957l1 347.979l2 196.988 h17.999l2 -196.988l1 -347.979h-23.999z" />
<glyph unicode="&#xa2;" horiz-adv-x="484" d="M429 326q-4 0 -8 0.5t-8 0.5l10 115q-7 4 -22 9t-33.5 9t-39.5 7t-40 3v-460q85 0 154 47l8 -14q-35 -25 -73 -37.5t-89 -13.5v-75h-20v75q-96 5 -147 72t-51 181q0 53 15 96t41 74t62.5 49.5t79.5 22.5v90h20v-89q43 0 84.5 -9t67.5 -24l4 -18zM90 246 q0 -106 44.5 -168.5t133.5 -67.5v459q-31 -3 -56.5 -13.5t-55.5 -29.5q-32 -36 -49 -78t-17 -102z" />
<glyph unicode="&#xa3;" horiz-adv-x="594" d="M58 0l1 10l99 5v306h-73v18h73v90q0 141 52.5 210t165.5 69q51 0 84 -10.5t65 -27.5l2 -14l-14 -105l-11 1l8 106q-28 13 -58.5 22.5t-75.5 9.5q-42 0 -77 -11.5t-67 -35.5q-20 -30 -30.5 -54.5t-16 -56.5t-6.5 -77t-1 -116h252v-18h-252v-305h346l6 145l14 -1l2 -160 h-488z" />
<glyph unicode="&#xa4;" horiz-adv-x="588" d="M50 9l96 96q-21 25 -32.5 58t-11.5 74q0 85 45 139l-92 92l13 12l91 -91q51 51 132 51q45 0 80 -13.5t60 -37.5l91 91l10 -10l-91 -91q44 -53 44 -137q0 -42 -10.5 -76t-30.5 -59l94 -94l-12 -13l-94 93q-51 -51 -140 -51q-83 0 -136 53l-95 -95zM290 423q-35 0 -61 -9.5 t-52 -26.5q-23 -27 -39 -62.5t-16 -88.5q0 -39 13 -71.5t36 -56t54 -36.5t67 -13q43 0 73 11t56 33q20 27 32 60t12 78q0 40 -11 73.5t-33 57.5t-55 37.5t-76 13.5z" />
<glyph unicode="&#xa5;" horiz-adv-x="675" d="M220 0l1 10l102 5v209h-198v18h198v62l-2 3h-197v18h186l-220 360l-80 5l1 10h203l-1 -10l-99 -5l220 -360h2l228 360l-93 5l1 10h193l-1 -10l-79 -5l-228 -360h187v-18h-198l-3 -5v-60h202v-18h-202v-209l95 -5l-1 -10h-217z" />
<glyph unicode="&#xa6;" horiz-adv-x="210" d="M95 305h20v-375h-20v375zM95 750h20v-372h-20v372z" />
<glyph unicode="&#xa7;" horiz-adv-x="640" d="M338 708q62 0 105 -9.5t78 -22.5l3 -15l-14 -115q-4 0 -7.5 0.5t-7.5 0.5l8 113q-28 14 -71 22t-94 8q-33 0 -76 -8t-82 -26q-19 -22 -27 -42t-8 -48q0 -22 6 -39.5t19.5 -32t36.5 -27t57 -23.5l178 -58q60 -20 84 -57.5t24 -91.5q0 -58 -26 -98.5t-66 -75.5 q39 -21 53.5 -49t14.5 -60q0 -36 -16 -62.5t-45 -44.5t-69.5 -27t-90.5 -9q-62 0 -103 9.5t-75 22.5l-3 16l19 131q3 0 6.5 -0.5t6.5 -0.5l-13 -132q27 -11 69 -19.5t92 -8.5q31 0 55.5 2.5t44.5 7.5t37 13.5t34 19.5q17 20 24 39t7 42t-5.5 40.5t-20.5 32t-41 26t-67 23.5 l-165 53q-62 20 -89.5 55.5t-27.5 91.5q0 52 24 93t72 87q-34 20 -47.5 46t-13.5 62q0 41 17 69t46 45t67.5 24t82.5 7zM257 425q-17 5 -31 10.5t-25 11.5q-48 -48 -69.5 -87t-21.5 -84q0 -48 24 -81t82 -51l200 -64q15 -5 25 -10q31 29 52.5 56.5t30.5 60.5q6 22 6 48 q0 48 -20.5 80t-76.5 51z" />
<glyph unicode="&#xa8;" horiz-adv-x="407" d="M71 641q0 9 8 18.5t19 9.5t20 -9.5t9 -19.5t-9 -19t-19 -9q-11 0 -19.5 9t-8.5 20zM281 641q0 9 8 18.5t19 9.5t20 -9.5t9 -19.5t-9 -19t-19 -9q-11 0 -19.5 9t-8.5 20z" />
<glyph unicode="&#xa9;" horiz-adv-x="813" d="M91 349q0 71 22.5 129.5t63.5 100t99.5 64t129.5 22.5q73 0 132 -22.5t99.5 -64t62.5 -100t22 -129.5q0 -70 -22 -128t-63 -99.5t-99.5 -64.5t-131.5 -23q-71 0 -129 23t-99.5 64.5t-64 99.5t-22.5 128zM111 349q0 -66 21 -120.5t59.5 -94t93 -61t121.5 -21.5 q68 0 123 21.5t93.5 61t59 94t20.5 120.5q0 67 -20.5 122t-58.5 94t-93 60.5t-124 21.5q-68 0 -122.5 -21.5t-92.5 -60.5t-59 -94t-21 -122zM533 203q-30 -18 -59 -25.5t-67 -7.5q-78 0 -121 46.5t-43 126.5q0 44 13 77.5t35.5 56t53 33.5t65.5 11q38 0 63.5 -4.5 t48.5 -14.5l3 -9l-7 -72l-14 1l1 67q-36 17 -96 17q-22 0 -43 -5.5t-42 -15.5q-29 -26 -44 -60t-15 -82q0 -72 37 -114t106 -42q35 0 61 5.5t58 22.5z" />
<glyph unicode="&#xaa;" horiz-adv-x="449" d="M109 568q-4 0 -7.5 -0.5t-7.5 -0.5l-7 88l3 11q33 11 63.5 13.5t49.5 2.5q37 0 61.5 -11t39 -29.5t20.5 -43t6 -51.5v-214l66 -4l-1 -9h-79l-5 67q-23 -27 -60 -50t-87 -23q-54 0 -80 26.5t-26 62.5q0 26 4.5 45.5t9.5 30.5q27 6 58.5 10.5t63.5 7.5t62 5t55 3v41 q0 57 -26 89t-82 32q-26 0 -51.5 -4t-41.5 -9zM166 329q24 0 46 7t40 18.5t33 25t26 27.5v84q-23 -1 -53.5 -3.5t-62 -5.5t-60.5 -7t-48 -9q-4 -11 -7 -26t-3 -33q0 -34 22 -56t67 -22zM50 246l339 1v-15l-339 -1v15z" />
<glyph unicode="&#xab;" horiz-adv-x="553" d="M251.005 1.0293l-49.4961 61.9961l-46.498 58.4961l-46.9971 55.9971q-23.998 27.498 -51.9961 54.4971v16.998q52.9961 54.9971 97.4941 110.994l97.4932 118.992l14 -9.99902l-84.9951 -105.994l-104.994 -122.992l104.994 -118.993l85.9941 -108.993zM466.005 1.0293 l-49.4961 61.9961l-46.498 58.4961l-46.9971 55.9971q-23.998 27.498 -51.9961 54.4971v16.998q52.9961 54.9971 97.4941 110.994l97.4932 118.992l14 -9.99902l-84.9951 -105.994l-104.994 -122.992l104.994 -118.993l85.9941 -108.993z" />
<glyph unicode="&#xac;" horiz-adv-x="585" d="M70 347h405v-213h-20v195h-385v18z" />
<glyph unicode="&#xad;" horiz-adv-x="445" d="M70 274h305v-20h-305v20z" />
<glyph unicode="&#xae;" horiz-adv-x="813" d="M91 349q0 71 22.5 129.5t63.5 100t99.5 64t129.5 22.5q73 0 132 -22.5t99.5 -64t62.5 -100t22 -129.5q0 -70 -22 -128t-63 -99.5t-99.5 -64.5t-131.5 -23q-71 0 -129 23t-99.5 64.5t-64 99.5t-22.5 128zM111 349q0 -66 21 -120.5t59.5 -94t93 -61t121.5 -21.5 q68 0 123 21.5t93.5 61t59 94t20.5 120.5q0 67 -20.5 122t-58.5 94t-93 60.5t-124 21.5q-68 0 -122.5 -21.5t-92.5 -60.5t-59 -94t-21 -122zM274 179v11l46 3v315l-49 3l1 11h139q55 0 84.5 -27t29.5 -73q0 -40 -25 -63.5t-63 -30.5q8 -17 19 -36t23.5 -38t25 -35t22.5 -26 l35 -3l-1 -11h-47q-12 12 -25.5 29.5t-26.5 37.5t-25 41t-20 39h-77v-133l47 -3l-1 -11h-112zM340 507v-167h63q49 0 76 21.5t27 58.5q0 39 -25 63t-76 24h-65z" />
<glyph unicode="&#xaf;" horiz-adv-x="503" d="M84 637h328v-18h-328v18z" />
<glyph unicode="&#xb0;" horiz-adv-x="395" d="M55 546q0 30 11 56t30.5 45.5t45 30.5t55.5 11t56 -11t45.5 -30.5t30.5 -45.5t11 -56t-11 -55.5t-30.5 -45t-45.5 -30.5t-56 -11t-55.5 11t-45 30.5t-30.5 45t-11 55.5zM75 546q0 -29 10 -52t27.5 -39t39.5 -24.5t46 -8.5q27 0 48.5 8t44.5 24q15 24 22 45t7 46 q0 26 -10 49t-26.5 40t-39 27t-46.5 10q-39 0 -85 -27q-20 -23 -29 -44.5t-9 -53.5z" />
<glyph unicode="&#xb1;" horiz-adv-x="465" d="M60 317h163v163h18v-163h164v-18h-164v-164h-18v164h-163v18zM60 41h345v-20h-345v20z" />
<glyph unicode="&#xb2;" horiz-adv-x="378" d="M50 300l-1 19q33 22 75 53t80 66t64 74t26 78q0 46 -30 71t-89 25q-31 0 -55 -6.5t-40 -11.5l-3 -78l-12 1l-4 78l1 9q23 10 49.5 16t65.5 6q66 0 101 -28t35 -81q0 -41 -27.5 -81.5t-66 -77t-80 -66.5t-70.5 -49v-2h237l4 89l12 -1l1 -103h-273z" />
<glyph unicode="&#xb3;" horiz-adv-x="368" d="M269 598q0 16 -6 31.5t-18.5 28t-32 20.5t-46.5 8q-22 0 -45 -2.5t-45 -7.5l-3 -75l-13 1l-2 71l3 12q23 8 52 11.5t55 3.5q29 0 51 -8.5t36.5 -22.5t22 -32.5t7.5 -37.5q0 -32 -21 -59.5t-54 -34.5v-3q15 -3 30.5 -10.5t28 -19.5t20.5 -28.5t8 -38.5t-8.5 -42t-26 -35 t-44.5 -24t-63 -9q-32 0 -55.5 7t-44.5 20l6 12q23 -12 47 -18t47 -6q44 0 65.5 9.5t38.5 22.5q21 28 21 63q0 43 -36 68t-96 25l-1 11q29 1 50 5t41 14q14 14 22.5 30.5t8.5 39.5z" />
<glyph unicode="&#xb4;" horiz-adv-x="550" d="M189 564l121 157l24 -5l-127 -157z" />
<glyph unicode="&#xb5;" horiz-adv-x="627" d="M65 -230l1 10l72 5v677h-88v10l81 8h23l4 -32v-274q0 -41 11 -72t30 -51.5t44 -30.5t54 -10q35 0 66 6t66 23q17 15 31 30.5t28 35.5v357h-88v10l80 8h25l3 -31v-434l79 -5l-1 -10h-92l-6 76q-29 -37 -77 -60.5t-114 -23.5q-46 0 -82.5 21t-56.5 61v-289l80 -5l-1 -10 h-172z" />
<glyph unicode="&#xb6;" horiz-adv-x="498" d="M60 533q0 37 12 68t33.5 53t52 34t68.5 12h221l-1 -10l-89 -5v-670l91 -5v-10h-111v682h-80v-682h-114l1 10l93 5v351h-11q-38 0 -68.5 12.5t-52 34.5t-33.5 52.5t-12 67.5z" />
<glyph unicode="&#xb7;" horiz-adv-x="242" d="M149 216q0 -11 -8.5 -19.5t-20.5 -8.5q-11 0 -19.5 8.5t-8.5 19.5q0 12 8.5 20.5t19.5 8.5q12 0 20.5 -8.5t8.5 -20.5z" />
<glyph unicode="&#xb8;" horiz-adv-x="326" d="M189 3l-49 -74q37 0 57.5 -15.5t20.5 -36.5q0 -36 -25.5 -58.5t-67.5 -38.5l-7 17q37 13 58.5 31.5t21.5 46.5q0 17 -17.5 27.5t-55.5 10.5l-7 13l49 77h22z" />
<glyph unicode="&#xb9;" horiz-adv-x="264" d="M63 300l1 10l66 3v368l-91 -30l-4 12l102 37l12 -1v-386l61 -3l-1 -10h-146z" />
<glyph unicode="&#xba;" horiz-adv-x="448" d="M230 682q32 0 60.5 -11.5t49.5 -34.5t33.5 -58t12.5 -82q0 -83 -38.5 -132.5t-116.5 -49.5q-85 0 -127 51.5t-42 132.5q0 45 12.5 79.5t35 57.5t53.5 35t67 12zM228 666q-30 0 -50 -6.5t-42 -19.5q-28 -30 -40.5 -63t-12.5 -80q0 -35 9 -65.5t27 -53t46 -35.5t66 -13 q23 0 45 6t49 25q21 28 31.5 57t10.5 79q0 40 -11 71.5t-29.5 53.5t-44 33t-54.5 11zM62 246h323v-15h-323v15z" />
<glyph unicode="&#xbb;" horiz-adv-x="553" d="M87 479l49.5 -62l46.5 -58.5l47 -56t52 -54.5v-17q-53 -55 -97.5 -111l-97.5 -119l-14 10l85 106l105 123l-105 119l-86 109zM302 479l49.5 -62l46.5 -58.5l47 -56t52 -54.5v-17q-53 -55 -97.5 -111l-97.5 -119l-14 10l85 106l105 123l-105 119l-86 109z" />
<glyph unicode="&#xbc;" horiz-adv-x="746" d="M554 1l1 10l60 3v88h-189l-2 15l47 141.5l47 142.5h17v-7l-94 -278h174v100l5 46h13v-146h70v-14h-70v-88l59 -3l-1 -10h-137zM485 723l16 -8l-331 -737l-17 7zM63 300l1 10l66 3v368l-91 -30l-4 12l102 37l12 -1v-386l61 -3l-1 -10h-146z" />
<glyph unicode="&#xbd;" horiz-adv-x="783" d="M485 723l16 -8l-331 -737l-17 7zM63 300l1 10l66 3v368l-91 -30l-4 12l102 37l12 -1v-386l61 -3l-1 -10h-146zM455 1l-1 19q33 22 75 53t80 66t64 74t26 78q0 46 -30 71t-89 25q-31 0 -55 -6.5t-40 -11.5l-3 -78l-12 1l-4 78l1 9q23 10 49.5 16t65.5 6q66 0 101 -28 t35 -81q0 -41 -27.5 -81.5t-66 -77t-80 -66.5t-70.5 -49v-2h237l4 89l12 -1l1 -103h-273z" />
<glyph unicode="&#xbe;" horiz-adv-x="796" d="M604 1l1 10l60 3v88h-189l-2 15l47 141.5l47 142.5h17v-7l-94 -278h174v100l5 46h13v-146h70v-14h-70v-88l59 -3l-1 -10h-137zM567 723l16 -8l-331 -737l-17 7zM269 598q0 16 -6 31.5t-18.5 28t-32 20.5t-46.5 8q-22 0 -45 -2.5t-45 -7.5l-3 -75l-13 1l-2 71l3 12 q23 8 52 11.5t55 3.5q29 0 51 -8.5t36.5 -22.5t22 -32.5t7.5 -37.5q0 -32 -21 -59.5t-54 -34.5v-3q15 -3 30.5 -10.5t28 -19.5t20.5 -28.5t8 -38.5t-8.5 -42t-26 -35t-44.5 -24t-63 -9q-32 0 -55.5 7t-44.5 20l6 12q23 -12 47 -18t47 -6q44 0 65.5 9.5t38.5 22.5 q21 28 21 63q0 43 -36 68t-96 25l-1 11q29 1 50 5t41 14q14 14 22.5 30.5t8.5 39.5z" />
<glyph unicode="&#xbf;" horiz-adv-x="409" d="M224.012 473.002q0 10.999 8.49902 19.499q8.49902 8.49902 20.499 8.49902q10.999 0 19.499 -8.49902q8.49902 -8.5 8.49902 -19.499q0 -12 -8.49902 -20.499q-8.5 -8.49902 -19.499 -8.49902q-12 0 -20.499 8.49902t-8.49902 20.499zM272.009 -198.957 q-53.9971 0 -95.4941 18.499q-41.498 18.498 -69.9961 51.9961t-43.4971 81.4951t-14.999 107.994q0 16.998 12.499 33.4971t40.9971 33.498t73.4961 36.498q44.9971 19.499 108.993 41.4971q9.99902 11 9.99902 34.998q1 22.999 -3 47.4971 q-3.99902 24.499 -14.999 53.4971l17.999 7q20.999 -59.9971 20.999 -110.994q0 -14.999 -8 -29.998q-7.99902 -14.999 -22.998 -19.998q-24.999 -9 -54.4971 -20.999t-57.9961 -24.999q-28.498 -12.999 -53.9971 -26.998q-25.498 -13.999 -42.4971 -27.998 q-7 -13.999 -7 -33.998q0 -44.9971 12.999 -87.4951q13 -42.4971 38.498 -74.9951t63.9961 -51.9971q38.498 -19.498 88.4951 -19.498q12.999 0 36.4971 1q23.499 0.999023 37.498 2.99902l2 104.994h13.999l8.99902 -113.993q-14.999 -5 -37.9971 -8.99902 q-22.999 -4 -60.9961 -4z" />
<glyph unicode="&#xc0;" horiz-adv-x="728" d="M346 700h33l259 -684l80 -6l-1 -10h-200l1 10l99 5l-77 203h-355l-76 -203l100 -5l-1 -10h-198l1 10l78 5zM191 236h342l-169 448h-5zM388 779l-127 157l24 5l121 -157z" />
<glyph unicode="&#xc1;" horiz-adv-x="728" d="M346 700h33l259 -684l80 -6l-1 -10h-200l1 10l99 5l-77 203h-355l-76 -203l100 -5l-1 -10h-198l1 10l78 5zM191 236h342l-169 448h-5zM323 784l121 157l24 -5l-127 -157z" />
<glyph unicode="&#xc2;" horiz-adv-x="728" d="M346 700h33l259 -684l80 -6l-1 -10h-200l1 10l99 5l-77 203h-355l-76 -203l100 -5l-1 -10h-198l1 10l78 5zM191 236h342l-169 448h-5zM249 779l-18 5l121 157h20l121 -157l-18 -5l-113 140z" />
<glyph unicode="&#xc3;" horiz-adv-x="728" d="M346 700h33l259 -684l80 -6l-1 -10h-200l1 10l99 5l-77 203h-355l-76 -203l100 -5l-1 -10h-198l1 10l78 5zM191 236h342l-169 448h-5zM180 834q23 28 45.5 48t39.5 20q16 0 43.5 -11l57.5 -24l57 -24t44 -11l64 65l14 -7q-9 -12 -20 -24.5t-22.5 -23.5t-22.5 -18t-20 -7 q-22 0 -50.5 11l-58 23.5l-56 23.5t-44.5 11l-57 -60z" />
<glyph unicode="&#xc4;" horiz-adv-x="728" d="M346 700h33l259 -684l80 -6l-1 -10h-200l1 10l99 5l-77 203h-355l-76 -203l100 -5l-1 -10h-198l1 10l78 5zM191 236h342l-169 448h-5zM232 861q0 9 8 18.5t19 9.5t20 -9.5t9 -19.5t-9 -19t-19 -9q-11 0 -19.5 9t-8.5 20zM442 861q0 9 8 18.5t19 9.5t20 -9.5t9 -19.5 t-9 -19t-19 -9q-11 0 -19.5 9t-8.5 20z" />
<glyph unicode="&#xc5;" horiz-adv-x="728" d="M346 700h33l259 -684l80 -6l-1 -10h-200l1 10l99 5l-77 203h-355l-76 -203l100 -5l-1 -10h-198l1 10l78 5zM191 236h342l-169 448h-5zM280 868q0 35 23.5 58.5t58.5 23.5t58.5 -23.5t23.5 -58.5t-23.5 -58.5t-58.5 -23.5t-58.5 23.5t-23.5 58.5zM298 867q0 -26 19 -45 t45 -19t45 19t19 45q0 24 -19 44t-45 20t-45 -19t-19 -45z" />
<glyph unicode="&#xc6;" horiz-adv-x="913" d="M397 0l1 10l94 5v213h-307l-81 -213l100 -5l-1 -10h-198l1 10l78 5l263 685h496l-3 -162l-12 1l-6 145h-310v-322h216l9 93l12 -1v-194l-12 1l-9 85h-216v-330h327l5 149l12 -1l2 -164h-461zM192 246h300v438h-132z" />
<glyph unicode="&#xc7;" horiz-adv-x="687" d="M627 53q-29 -17 -55.5 -28.5t-54.5 -18.5t-57.5 -10.5t-62.5 -3.5l-47 -72q37 0 57.5 -15.5t20.5 -36.5q0 -36 -25.5 -58.5t-67.5 -38.5l-7 17q37 13 58.5 31.5t21.5 46.5q0 17 -17.5 27.5t-55.5 10.5l-7 13l47 75q-71 2 -127.5 27t-96 70.5t-60.5 110t-21 145.5 q0 90 24.5 158t67.5 113.5t101.5 68.5t126.5 23q37 0 67 -2t55.5 -6.5t48.5 -11.5t46 -16l3 -15l-7 -138l-14 1l1 133q-74 37 -199 37q-47 0 -90 -12t-86 -35q-62 -53 -93.5 -123t-31.5 -175q0 -78 20 -140t57.5 -105.5t92.5 -66.5t126 -23q35 0 64.5 2.5t57.5 9.5t55 18 t57 28z" />
<glyph unicode="&#xc8;" horiz-adv-x="587" d="M72 10l94 5v670l-96 5l1 10h446l-3 -162l-12 1l-6 145h-310v-322h216l9 93l12 -1v-194l-12 1l-9 85h-216v-330h327l5 149l12 -1l2 -164h-461zM361 779l-127 157l24 5l121 -157z" />
<glyph unicode="&#xc9;" horiz-adv-x="587" d="M72 10l94 5v670l-96 5l1 10h446l-3 -162l-12 1l-6 145h-310v-322h216l9 93l12 -1v-194l-12 1l-9 85h-216v-330h327l5 149l12 -1l2 -164h-461zM296 784l121 157l24 -5l-127 -157z" />
<glyph unicode="&#xca;" horiz-adv-x="587" d="M72 10l94 5v670l-96 5l1 10h446l-3 -162l-12 1l-6 145h-310v-322h216l9 93l12 -1v-194l-12 1l-9 85h-216v-330h327l5 149l12 -1l2 -164h-461zM222 779l-18 5l121 157h20l121 -157l-18 -5l-113 140z" />
<glyph unicode="&#xcb;" horiz-adv-x="587" d="M72 10l94 5v670l-96 5l1 10h446l-3 -162l-12 1l-6 145h-310v-322h216l9 93l12 -1v-194l-12 1l-9 85h-216v-330h327l5 149l12 -1l2 -164h-461zM205 861q0 9 8 18.5t19 9.5t20 -9.5t9 -19.5t-9 -19t-19 -9q-11 0 -19.5 9t-8.5 20zM415 861q0 9 8 18.5t19 9.5t20 -9.5 t9 -19.5t-9 -19t-19 -9q-11 0 -19.5 9t-8.5 20z" />
<glyph unicode="&#xcc;" horiz-adv-x="376" d="M81 0l1 10l93 5v670l-95 5l1 10h210l-1 -10l-93 -5v-670l99 -5l-1 -10h-214zM213 779l-127 157l24 5l121 -157z" />
<glyph unicode="&#xcd;" horiz-adv-x="376" d="M81 0l1 10l93 5v670l-95 5l1 10h210l-1 -10l-93 -5v-670l99 -5l-1 -10h-214zM148 784l121 157l24 -5l-127 -157z" />
<glyph unicode="&#xce;" horiz-adv-x="376" d="M81 0l1 10l93 5v670l-95 5l1 10h210l-1 -10l-93 -5v-670l99 -5l-1 -10h-214zM74 779l-18 5l121 157h20l121 -157l-18 -5l-113 140z" />
<glyph unicode="&#xcf;" horiz-adv-x="376" d="M81 0l1 10l93 5v670l-95 5l1 10h210l-1 -10l-93 -5v-670l99 -5l-1 -10h-214zM57 861q0 9 8 18.5t19 9.5t20 -9.5t9 -19.5t-9 -19t-19 -9q-11 0 -19.5 9t-8.5 20zM267 861q0 9 8 18.5t19 9.5t20 -9.5t9 -19.5t-9 -19t-19 -9q-11 0 -19.5 9t-8.5 20z" />
<glyph unicode="&#xd0;" horiz-adv-x="743" d="M52 362h98v323l-93 5l1 10h237q182 0 280 -89.5t98 -259.5q0 -81 -22 -146t-65.5 -110.5t-109 -70t-152.5 -24.5h-274l1 10l99 5v330h-98v17zM286 684q-47 0 -73 -1t-43 -3v-318h261v-17h-261v-327q24 -3 65 -3h89q46 0 82 5.5t65 16.5t53.5 26.5t47.5 35.5q19 25 34 50 t25.5 54.5t16 65t5.5 82.5q0 167 -93 250t-274 83z" />
<glyph unicode="&#xd1;" horiz-adv-x="865" d="M192 700l502 -669v654l-96 5l1 10h211l-1 -10l-95 -5v-685h-19l-504 670v-655l107 -5l-1 -10h-225l1 10l98 5v670l-101 5l1 10h121zM262 834q23 28 45.5 48t39.5 20q16 0 43.5 -11l57.5 -24l57 -24t44 -11l64 65l14 -7q-9 -12 -20 -24.5t-22.5 -23.5t-22.5 -18t-20 -7 q-22 0 -50.5 11l-58 23.5l-56 23.5t-44.5 11l-57 -60z" />
<glyph unicode="&#xd2;" horiz-adv-x="794" d="M392 708q81 0 143 -26.5t104 -74t63.5 -113t21.5 -144.5q0 -86 -23 -152.5t-65.5 -112t-104 -69.5t-138.5 -24q-68 0 -127 24.5t-102.5 70t-68.5 110t-25 144.5q0 84 24 152t67 115.5t102 73.5t129 26zM390 688q-63 0 -110.5 -19t-92.5 -54q-20 -24 -38 -52t-31 -61 t-20.5 -73t-7.5 -89q0 -73 23.5 -133.5t64.5 -103.5t96 -67t119 -24q76 0 130 21.5t102 62.5q35 50 57 109.5t22 143.5q0 75 -20 137.5t-59.5 107t-98.5 69.5t-136 25zM416 779l-127 157l24 5l121 -157z" />
<glyph unicode="&#xd3;" horiz-adv-x="794" d="M392 708q81 0 143 -26.5t104 -74t63.5 -113t21.5 -144.5q0 -86 -23 -152.5t-65.5 -112t-104 -69.5t-138.5 -24q-68 0 -127 24.5t-102.5 70t-68.5 110t-25 144.5q0 84 24 152t67 115.5t102 73.5t129 26zM390 688q-63 0 -110.5 -19t-92.5 -54q-20 -24 -38 -52t-31 -61 t-20.5 -73t-7.5 -89q0 -73 23.5 -133.5t64.5 -103.5t96 -67t119 -24q76 0 130 21.5t102 62.5q35 50 57 109.5t22 143.5q0 75 -20 137.5t-59.5 107t-98.5 69.5t-136 25zM351 784l121 157l24 -5l-127 -157z" />
<glyph unicode="&#xd4;" horiz-adv-x="794" d="M392 708q81 0 143 -26.5t104 -74t63.5 -113t21.5 -144.5q0 -86 -23 -152.5t-65.5 -112t-104 -69.5t-138.5 -24q-68 0 -127 24.5t-102.5 70t-68.5 110t-25 144.5q0 84 24 152t67 115.5t102 73.5t129 26zM390 688q-63 0 -110.5 -19t-92.5 -54q-20 -24 -38 -52t-31 -61 t-20.5 -73t-7.5 -89q0 -73 23.5 -133.5t64.5 -103.5t96 -67t119 -24q76 0 130 21.5t102 62.5q35 50 57 109.5t22 143.5q0 75 -20 137.5t-59.5 107t-98.5 69.5t-136 25zM277 779l-18 5l121 157h20l121 -157l-18 -5l-113 140z" />
<glyph unicode="&#xd5;" horiz-adv-x="794" d="M392 708q81 0 143 -26.5t104 -74t63.5 -113t21.5 -144.5q0 -86 -23 -152.5t-65.5 -112t-104 -69.5t-138.5 -24q-68 0 -127 24.5t-102.5 70t-68.5 110t-25 144.5q0 84 24 152t67 115.5t102 73.5t129 26zM390 688q-63 0 -110.5 -19t-92.5 -54q-20 -24 -38 -52t-31 -61 t-20.5 -73t-7.5 -89q0 -73 23.5 -133.5t64.5 -103.5t96 -67t119 -24q76 0 130 21.5t102 62.5q35 50 57 109.5t22 143.5q0 75 -20 137.5t-59.5 107t-98.5 69.5t-136 25zM208 834q23 28 45.5 48t39.5 20q16 0 43.5 -11l57.5 -24l57 -24t44 -11l64 65l14 -7q-9 -12 -20 -24.5 t-22.5 -23.5t-22.5 -18t-20 -7q-22 0 -50.5 11l-58 23.5l-56 23.5t-44.5 11l-57 -60z" />
<glyph unicode="&#xd6;" horiz-adv-x="794" d="M392 708q81 0 143 -26.5t104 -74t63.5 -113t21.5 -144.5q0 -86 -23 -152.5t-65.5 -112t-104 -69.5t-138.5 -24q-68 0 -127 24.5t-102.5 70t-68.5 110t-25 144.5q0 84 24 152t67 115.5t102 73.5t129 26zM390 688q-63 0 -110.5 -19t-92.5 -54q-20 -24 -38 -52t-31 -61 t-20.5 -73t-7.5 -89q0 -73 23.5 -133.5t64.5 -103.5t96 -67t119 -24q76 0 130 21.5t102 62.5q35 50 57 109.5t22 143.5q0 75 -20 137.5t-59.5 107t-98.5 69.5t-136 25zM260 861q0 9 8 18.5t19 9.5t20 -9.5t9 -19.5t-9 -19t-19 -9q-11 0 -19.5 9t-8.5 20zM470 861q0 9 8 18.5 t19 9.5t20 -9.5t9 -19.5t-9 -19t-19 -9q-11 0 -19.5 9t-8.5 20z" />
<glyph unicode="&#xd7;" horiz-adv-x="465" d="M104 141l115 115l-115 116l13 12l115 -115l116 116l12 -13l-116 -116l116 -115l-12 -13l-116 116l-115 -115z" />
<glyph unicode="&#xd8;" horiz-adv-x="794" d="M392 708q66 0 118 -17.5t93 -49.5l83 121l16 -11l-84 -122q53 -48 79.5 -119.5t26.5 -159.5q0 -86 -23 -152.5t-65.5 -112t-104 -69.5t-138.5 -24q-51 0 -95.5 13t-82.5 38l-70 -102l-17 12l70 102q-59 45 -93.5 117.5t-34.5 168.5q0 84 24 152t67 115.5t102 73.5t129 26 zM390 688q-63 0 -110.5 -19t-92.5 -54q-20 -24 -38 -52t-31 -61t-20.5 -73t-7.5 -89q0 -88 32.5 -156t88.5 -111l380 552q-38 30 -88 46.5t-113 16.5zM704 349q0 83 -24.5 150t-73.5 112l-378 -550q72 -49 165 -49q76 0 130 21.5t102 62.5q35 50 57 109.5t22 143.5z" />
<glyph unicode="&#xd9;" horiz-adv-x="771" d="M629 264q0 -66 -10.5 -117t-36.5 -85.5t-71 -52t-115 -17.5q-68 0 -113.5 18t-74 52.5t-40.5 85t-12 116.5v421l-90 5l1 10h195l-1 -10l-85 -5v-413q0 -65 10.5 -114t36 -82t68 -49.5t105.5 -16.5q54 0 94.5 12.5t73.5 40.5q12 18 21 38t15 44.5t8.5 55.5t2.5 71v413 l-85 5l1 10h189l-1 -10l-86 -5v-421zM421 779l-127 157l24 5l121 -157z" />
<glyph unicode="&#xda;" horiz-adv-x="771" d="M629 264q0 -66 -10.5 -117t-36.5 -85.5t-71 -52t-115 -17.5q-68 0 -113.5 18t-74 52.5t-40.5 85t-12 116.5v421l-90 5l1 10h195l-1 -10l-85 -5v-413q0 -65 10.5 -114t36 -82t68 -49.5t105.5 -16.5q54 0 94.5 12.5t73.5 40.5q12 18 21 38t15 44.5t8.5 55.5t2.5 71v413 l-85 5l1 10h189l-1 -10l-86 -5v-421zM356 784l121 157l24 -5l-127 -157z" />
<glyph unicode="&#xdb;" horiz-adv-x="771" d="M629 264q0 -66 -10.5 -117t-36.5 -85.5t-71 -52t-115 -17.5q-68 0 -113.5 18t-74 52.5t-40.5 85t-12 116.5v421l-90 5l1 10h195l-1 -10l-85 -5v-413q0 -65 10.5 -114t36 -82t68 -49.5t105.5 -16.5q54 0 94.5 12.5t73.5 40.5q12 18 21 38t15 44.5t8.5 55.5t2.5 71v413 l-85 5l1 10h189l-1 -10l-86 -5v-421zM282 779l-18 5l121 157h20l121 -157l-18 -5l-113 140z" />
<glyph unicode="&#xdc;" horiz-adv-x="771" d="M629 264q0 -66 -10.5 -117t-36.5 -85.5t-71 -52t-115 -17.5q-68 0 -113.5 18t-74 52.5t-40.5 85t-12 116.5v421l-90 5l1 10h195l-1 -10l-85 -5v-413q0 -65 10.5 -114t36 -82t68 -49.5t105.5 -16.5q54 0 94.5 12.5t73.5 40.5q12 18 21 38t15 44.5t8.5 55.5t2.5 71v413 l-85 5l1 10h189l-1 -10l-86 -5v-421zM265 861q0 9 8 18.5t19 9.5t20 -9.5t9 -19.5t-9 -19t-19 -9q-11 0 -19.5 9t-8.5 20zM475 861q0 9 8 18.5t19 9.5t20 -9.5t9 -19.5t-9 -19t-19 -9q-11 0 -19.5 9t-8.5 20z" />
<glyph unicode="&#xdd;" horiz-adv-x="675" d="M220 0l1 10l102 5v289l-233 381l-80 5l1 10h203l-1 -10l-99 -5l220 -360h2l228 360l-93 5l1 10h193l-1 -10l-79 -5l-242 -383v-287l95 -5l-1 -10h-217zM302 784l121 157l24 -5l-127 -157z" />
<glyph unicode="&#xde;" horiz-adv-x="605" d="M71 0l1 10l93 5v670l-95 5l1 10h210l-1 -10l-95 -5v-130h155q97 0 151 -53t54 -146q0 -106 -53.5 -153t-168.5 -47h-138v-141l101 -5l-1 -10h-214zM185 537v-363h150q84 0 143 34q24 29 35 63t11 85q0 86 -48 133.5t-140 47.5h-151z" />
<glyph unicode="&#xdf;" horiz-adv-x="1056" d="M276 567q38 0 66.5 -5t61.5 -14l4 -9l-12 -100l-14 1l5 93q-10 3 -24 6.5t-29.5 5.5t-30.5 3.5t-27 1.5q-31 0 -62.5 -7.5t-63.5 -26.5q-16 -17 -25 -36.5t-9 -45.5q0 -27 7.5 -46.5t25 -35t46 -29.5t70.5 -30q89 -34 126.5 -74t37.5 -95q0 -25 -11.5 -48.5t-34.5 -41.5 t-57 -29t-80 -11q-28 0 -49.5 2t-39.5 6t-34 9.5t-32 12.5l-3 11l15 146l15 -1l-10 -144q26 -11 60.5 -18.5t77.5 -7.5q31 0 64.5 8t65.5 28q17 19 25.5 37t8.5 40q0 48 -32.5 84.5t-116.5 66.5q-45 16 -76.5 32t-51.5 34.5t-29 41t-9 51.5q0 31 14 56t38.5 42t57.5 26.5 t71 9.5zM815 567q38 0 66.5 -5t61.5 -14l4 -9l-12 -100l-14 1l5 93q-10 3 -24 6.5t-29.5 5.5t-30.5 3.5t-27 1.5q-31 0 -62.5 -7.5t-63.5 -26.5q-16 -17 -25 -36.5t-9 -45.5q0 -27 7.5 -46.5t25 -35t46 -29.5t70.5 -30q89 -34 126.5 -74t37.5 -95q0 -25 -11.5 -48.5 t-34.5 -41.5t-57 -29t-80 -11q-28 0 -49.5 2t-39.5 6t-34 9.5t-32 12.5l-3 11l15 146l15 -1l-10 -144q26 -11 60.5 -18.5t77.5 -7.5q31 0 64.5 8t65.5 28q17 19 25.5 37t8.5 40q0 48 -32.5 84.5t-116.5 66.5q-45 16 -76.5 32t-51.5 34.5t-29 41t-9 51.5q0 31 14 56t38.5 42 t57.5 26.5t71 9.5z" />
<glyph unicode="&#xe0;" horiz-adv-x="619" d="M293 560h31l214 -545l66 -5l-1 -10h-168l1 10l81 4l-63 160h-292l-62 -160l82 -4l-1 -10h-166l1 10l65 4zM167 190h281l-139 354h-4zM346 639l-127 157l24 5l121 -157z" />
<glyph unicode="&#xe1;" horiz-adv-x="619" d="M293 560h31l214 -545l66 -5l-1 -10h-168l1 10l81 4l-63 160h-292l-62 -160l82 -4l-1 -10h-166l1 10l65 4zM167 190h281l-139 354h-4zM281 644l121 157l24 -5l-127 -157z" />
<glyph unicode="&#xe2;" horiz-adv-x="619" d="M293 560h31l214 -545l66 -5l-1 -10h-168l1 10l81 4l-63 160h-292l-62 -160l82 -4l-1 -10h-166l1 10l65 4zM167 190h281l-139 354h-4zM207 639l-18 5l121 157h20l121 -157l-18 -5l-113 140z" />
<glyph unicode="&#xe3;" horiz-adv-x="619" d="M293 560h31l214 -545l66 -5l-1 -10h-168l1 10l81 4l-63 160h-292l-62 -160l82 -4l-1 -10h-166l1 10l65 4zM167 190h281l-139 354h-4zM138 694q23 28 45.5 48t39.5 20q16 0 43.5 -11l57.5 -24l57 -24t44 -11l64 65l14 -7q-9 -12 -20 -24.5t-22.5 -23.5t-22.5 -18t-20 -7 q-22 0 -50.5 11l-58 23.5l-56 23.5t-44.5 11l-57 -60z" />
<glyph unicode="&#xe4;" horiz-adv-x="619" d="M293 560h31l214 -545l66 -5l-1 -10h-168l1 10l81 4l-63 160h-292l-62 -160l82 -4l-1 -10h-166l1 10l65 4zM167 190h281l-139 354h-4zM190 721q0 9 8 18.5t19 9.5t20 -9.5t9 -19.5t-9 -19t-19 -9q-11 0 -19.5 9t-8.5 20zM400 721q0 9 8 18.5t19 9.5t20 -9.5t9 -19.5 t-9 -19t-19 -9q-11 0 -19.5 9t-8.5 20z" />
<glyph unicode="&#xe5;" horiz-adv-x="619" d="M293 560h31l214 -545l66 -5l-1 -10h-168l1 10l81 4l-63 160h-292l-62 -160l82 -4l-1 -10h-166l1 10l65 4zM167 190h281l-139 354h-4zM238 728q0 35 23.5 58.5t58.5 23.5t58.5 -23.5t23.5 -58.5t-23.5 -58.5t-58.5 -23.5t-58.5 23.5t-23.5 58.5zM256 727q0 -26 19 -45 t45 -19t45 19t19 45q0 24 -19 44t-45 20t-45 -19t-19 -45z" />
<glyph unicode="&#xe6;" horiz-adv-x="785" d="M347 0l1 10l78 4v168h-253l-66 -168l82 -4l-1 -10h-166l1 10l65 4l217 546h415l-2 -131l-13 1l-5 115h-254v-254h176l7 74l12 -1v-157l-12 1l-7 68h-176v-261h268l4 119l13 -1l2 -133h-386zM180 199h246v346h-109z" />
<glyph unicode="&#xe7;" horiz-adv-x="584" d="M528 43q-46 -27 -89.5 -38t-97.5 -13l-41 -63q37 0 57.5 -15.5t20.5 -36.5q0 -36 -25.5 -58.5t-67.5 -38.5l-7 17q37 13 58.5 31.5t21.5 46.5q0 17 -17.5 27.5t-55.5 10.5l-7 13l42 66q-60 1 -107.5 21t-80.5 57t-50.5 89t-17.5 117q0 72 20.5 126.5t56 91.5t84.5 55.5 t106 18.5q61 0 101.5 -8t78.5 -23l3 -12l-7 -112l-13 1l1 107q-30 14 -71 22t-93 8q-38 0 -73 -10t-70 -27q-51 -43 -77.5 -98.5t-26.5 -139.5q0 -62 16.5 -111t47.5 -84t76.5 -53.5t103.5 -18.5q57 0 100.5 10.5t92.5 37.5z" />
<glyph unicode="&#xe8;" horiz-adv-x="503" d="M66 10l78 4v532l-80 4l1 10h373l-2 -131l-13 1l-5 115h-254v-254h176l7 74l12 -1v-157l-12 1l-7 68h-176v-261h268l4 119l13 -1l2 -133h-386zM310 639l-127 157l24 5l121 -157z" />
<glyph unicode="&#xe9;" horiz-adv-x="503" d="M66 10l78 4v532l-80 4l1 10h373l-2 -131l-13 1l-5 115h-254v-254h176l7 74l12 -1v-157l-12 1l-7 68h-176v-261h268l4 119l13 -1l2 -133h-386zM245 644l121 157l24 -5l-127 -157z" />
<glyph unicode="&#xea;" horiz-adv-x="503" d="M66 10l78 4v532l-80 4l1 10h373l-2 -131l-13 1l-5 115h-254v-254h176l7 74l12 -1v-157l-12 1l-7 68h-176v-261h268l4 119l13 -1l2 -133h-386zM171 639l-18 5l121 157h20l121 -157l-18 -5l-113 140z" />
<glyph unicode="&#xeb;" horiz-adv-x="503" d="M66 10l78 4v532l-80 4l1 10h373l-2 -131l-13 1l-5 115h-254v-254h176l7 74l12 -1v-157l-12 1l-7 68h-176v-261h268l4 119l13 -1l2 -133h-386zM154 721q0 9 8 18.5t19 9.5t20 -9.5t9 -19.5t-9 -19t-19 -9q-11 0 -19.5 9t-8.5 20zM364 721q0 9 8 18.5t19 9.5t20 -9.5 t9 -19.5t-9 -19t-19 -9q-11 0 -19.5 9t-8.5 20z" />
<glyph unicode="&#xec;" d="M73 0l1 10l77 4v532l-79 4l1 10h177v-10l-77 -4v-532l82 -4l-1 -10h-181zM200 639l-127 157l24 5l121 -157z" />
<glyph unicode="&#xed;" d="M73 0l1 10l77 4v532l-79 4l1 10h177v-10l-77 -4v-532l82 -4l-1 -10h-181zM135 644l121 157l24 -5l-127 -157z" />
<glyph unicode="&#xee;" d="M73 0l1 10l77 4v532l-79 4l1 10h177v-10l-77 -4v-532l82 -4l-1 -10h-181zM61 639l-18 5l121 157h20l121 -157l-18 -5l-113 140z" />
<glyph unicode="&#xef;" d="M73 0l1 10l77 4v532l-79 4l1 10h177v-10l-77 -4v-532l82 -4l-1 -10h-181zM44 721q0 9 8 18.5t19 9.5t20 -9.5t9 -19.5t-9 -19t-19 -9q-11 0 -19.5 9t-8.5 20zM254 721q0 9 8 18.5t19 9.5t20 -9.5t9 -19.5t-9 -19t-19 -9q-11 0 -19.5 9t-8.5 20z" />
<glyph unicode="&#xf0;" horiz-adv-x="631" d="M50 290h81v256l-77 4l1 10h199q150 0 231.5 -71.5t81.5 -207.5q0 -131 -72.5 -206t-217.5 -75h-229l1 10l82 4v261h-81v15zM246 545q-38 0 -59.5 -1t-35.5 -3v-251h215v-15h-215v-258q20 -2 53.5 -2.5t72.5 -0.5q38 0 67.5 4.5t53.5 13.5t44.5 21.5t39.5 28.5 q15 20 27.5 39.5t20.5 43t12.5 51.5t4.5 65q0 131 -76 197.5t-225 66.5z" />
<glyph unicode="&#xf1;" horiz-adv-x="730" d="M167 560l413 -529v515l-79 4l1 10h176l-1 -10l-78 -4v-546h-18l-415 530v-516l89 -4l-1 -10h-188l1 10l81 4v532l-84 4l1 10h102zM186 694q23 28 45.5 48t39.5 20q16 0 43.5 -11l57.5 -24l57 -24t44 -11l64 65l14 -7q-9 -12 -20 -24.5t-22.5 -23.5t-22.5 -18t-20 -7 q-22 0 -50.5 11l-58 23.5l-56 23.5t-44.5 11l-57 -60z" />
<glyph unicode="&#xf2;" horiz-adv-x="672" d="M332 567q67 0 118.5 -21t86.5 -59t53 -91t18 -116q0 -137 -73 -211.5t-202 -74.5q-57 0 -106 19.5t-85.5 56t-57 88t-20.5 115.5q0 67 20 121.5t56 93t85 59t107 20.5zM331 548q-52 0 -91 -14.5t-76 -42.5q-34 -39 -57 -90.5t-23 -128.5q0 -58 19 -105.5t53 -82t79 -53.5 t98 -19q63 0 107 17t83 49q29 40 47 87.5t18 113.5q0 60 -16.5 109.5t-48.5 85t-80.5 55t-111.5 19.5zM369 639l-127 157l24 5l121 -157z" />
<glyph unicode="&#xf3;" horiz-adv-x="672" d="M332 567q67 0 118.5 -21t86.5 -59t53 -91t18 -116q0 -137 -73 -211.5t-202 -74.5q-57 0 -106 19.5t-85.5 56t-57 88t-20.5 115.5q0 67 20 121.5t56 93t85 59t107 20.5zM331 548q-52 0 -91 -14.5t-76 -42.5q-34 -39 -57 -90.5t-23 -128.5q0 -58 19 -105.5t53 -82t79 -53.5 t98 -19q63 0 107 17t83 49q29 40 47 87.5t18 113.5q0 60 -16.5 109.5t-48.5 85t-80.5 55t-111.5 19.5zM304 644l121 157l24 -5l-127 -157z" />
<glyph unicode="&#xf4;" horiz-adv-x="672" d="M332 567q67 0 118.5 -21t86.5 -59t53 -91t18 -116q0 -137 -73 -211.5t-202 -74.5q-57 0 -106 19.5t-85.5 56t-57 88t-20.5 115.5q0 67 20 121.5t56 93t85 59t107 20.5zM331 548q-52 0 -91 -14.5t-76 -42.5q-34 -39 -57 -90.5t-23 -128.5q0 -58 19 -105.5t53 -82t79 -53.5 t98 -19q63 0 107 17t83 49q29 40 47 87.5t18 113.5q0 60 -16.5 109.5t-48.5 85t-80.5 55t-111.5 19.5zM230 639l-18 5l121 157h20l121 -157l-18 -5l-113 140z" />
<glyph unicode="&#xf5;" horiz-adv-x="672" d="M332 567q67 0 118.5 -21t86.5 -59t53 -91t18 -116q0 -137 -73 -211.5t-202 -74.5q-57 0 -106 19.5t-85.5 56t-57 88t-20.5 115.5q0 67 20 121.5t56 93t85 59t107 20.5zM331 548q-52 0 -91 -14.5t-76 -42.5q-34 -39 -57 -90.5t-23 -128.5q0 -58 19 -105.5t53 -82t79 -53.5 t98 -19q63 0 107 17t83 49q29 40 47 87.5t18 113.5q0 60 -16.5 109.5t-48.5 85t-80.5 55t-111.5 19.5zM161 694q23 28 45.5 48t39.5 20q16 0 43.5 -11l57.5 -24l57 -24t44 -11l64 65l14 -7q-9 -12 -20 -24.5t-22.5 -23.5t-22.5 -18t-20 -7q-22 0 -50.5 11l-58 23.5l-56 23.5 t-44.5 11l-57 -60z" />
<glyph unicode="&#xf6;" horiz-adv-x="672" d="M332 567q67 0 118.5 -21t86.5 -59t53 -91t18 -116q0 -137 -73 -211.5t-202 -74.5q-57 0 -106 19.5t-85.5 56t-57 88t-20.5 115.5q0 67 20 121.5t56 93t85 59t107 20.5zM331 548q-52 0 -91 -14.5t-76 -42.5q-34 -39 -57 -90.5t-23 -128.5q0 -58 19 -105.5t53 -82t79 -53.5 t98 -19q63 0 107 17t83 49q29 40 47 87.5t18 113.5q0 60 -16.5 109.5t-48.5 85t-80.5 55t-111.5 19.5zM213 721q0 9 8 18.5t19 9.5t20 -9.5t9 -19.5t-9 -19t-19 -9q-11 0 -19.5 9t-8.5 20zM423 721q0 9 8 18.5t19 9.5t20 -9.5t9 -19.5t-9 -19t-19 -9q-11 0 -19.5 9t-8.5 20z " />
<glyph unicode="&#xf7;" horiz-adv-x="465" d="M60 266h345v-20h-345v20zM261 86q0 -11 -8.5 -19.5t-20.5 -8.5q-11 0 -19.5 8.5t-8.5 19.5q0 12 8.5 20.5t19.5 8.5q12 0 20.5 -8.5t8.5 -20.5zM261 424q0 -11 -8.5 -19.5t-20.5 -8.5q-11 0 -19.5 8.5t-8.5 19.5q0 12 8.5 20.5t19.5 8.5q12 0 20.5 -8.5t8.5 -20.5z" />
<glyph unicode="&#xf8;" horiz-adv-x="672" d="M171 42q-50 36 -78.5 95t-28.5 136q0 67 20 122t56 93t85 59t107 21q54 0 97 -13.5t76 -38.5l67 95l16 -10l-68 -97q43 -38 65.5 -95.5t22.5 -128.5q0 -68 -19 -121.5t-54.5 -90.5t-86.5 -56.5t-115 -19.5q-41 0 -77.5 10t-67.5 29l-57 -80l-17 10zM331 549 q-55 0 -94.5 -16.5t-78.5 -46.5q-32 -40 -53 -90t-21 -124q0 -69 27 -123.5t72 -89.5l311 441q-31 23 -71.5 36t-91.5 13zM588 279q0 66 -20 119.5t-59 89.5l-310 -441q59 -37 134 -37q59 0 104.5 18t84.5 50q30 42 48 88.5t18 112.5z" />
<glyph unicode="&#xf9;" horiz-adv-x="654" d="M530 213q0 -54 -8.5 -94.5t-30.5 -68.5t-59.5 -42t-95.5 -14q-57 0 -95.5 14.5t-62 42.5t-33.5 68.5t-10 93.5v333l-74 4l1 10h164l-1 -10l-70 -4v-328q0 -52 8.5 -90.5t29.5 -64.5t56 -39t87 -13q44 0 77.5 9.5t60.5 31.5q10 15 17.5 30.5t12 35t7 44t2.5 56.5v328 l-71 4l1 10h159l-1 -10l-71 -4v-333zM367 639l-127 157l24 5l121 -157z" />
<glyph unicode="&#xfa;" horiz-adv-x="654" d="M530 213q0 -54 -8.5 -94.5t-30.5 -68.5t-59.5 -42t-95.5 -14q-57 0 -95.5 14.5t-62 42.5t-33.5 68.5t-10 93.5v333l-74 4l1 10h164l-1 -10l-70 -4v-328q0 -52 8.5 -90.5t29.5 -64.5t56 -39t87 -13q44 0 77.5 9.5t60.5 31.5q10 15 17.5 30.5t12 35t7 44t2.5 56.5v328 l-71 4l1 10h159l-1 -10l-71 -4v-333zM302 644l121 157l24 -5l-127 -157z" />
<glyph unicode="&#xfb;" horiz-adv-x="654" d="M530 213q0 -54 -8.5 -94.5t-30.5 -68.5t-59.5 -42t-95.5 -14q-57 0 -95.5 14.5t-62 42.5t-33.5 68.5t-10 93.5v333l-74 4l1 10h164l-1 -10l-70 -4v-328q0 -52 8.5 -90.5t29.5 -64.5t56 -39t87 -13q44 0 77.5 9.5t60.5 31.5q10 15 17.5 30.5t12 35t7 44t2.5 56.5v328 l-71 4l1 10h159l-1 -10l-71 -4v-333zM228 639l-18 5l121 157h20l121 -157l-18 -5l-113 140z" />
<glyph unicode="&#xfc;" horiz-adv-x="654" d="M530 213q0 -54 -8.5 -94.5t-30.5 -68.5t-59.5 -42t-95.5 -14q-57 0 -95.5 14.5t-62 42.5t-33.5 68.5t-10 93.5v333l-74 4l1 10h164l-1 -10l-70 -4v-328q0 -52 8.5 -90.5t29.5 -64.5t56 -39t87 -13q44 0 77.5 9.5t60.5 31.5q10 15 17.5 30.5t12 35t7 44t2.5 56.5v328 l-71 4l1 10h159l-1 -10l-71 -4v-333zM211 721q0 9 8 18.5t19 9.5t20 -9.5t9 -19.5t-9 -19t-19 -9q-11 0 -19.5 9t-8.5 20zM421 721q0 9 8 18.5t19 9.5t20 -9.5t9 -19.5t-9 -19t-19 -9q-11 0 -19.5 9t-8.5 20z" />
<glyph unicode="&#xfd;" horiz-adv-x="576" d="M189 0l1 10l84 4v228l-193 304l-66 4l1 10h171l-1 -10l-81 -4l180 -285h2l188 285l-77 4l1 10h162l-1 -10l-66 -4l-200 -306v-226l79 -4l-1 -10h-183zM259 644l121 157l24 -5l-127 -157z" />
<glyph unicode="&#xfe;" horiz-adv-x="517" d="M65 0l1 10l77 4v532l-79 4l1 10h177l-1 -10l-79 -4v-102h128q81 0 126 -42t45 -117q0 -85 -44.5 -123t-140.5 -38h-114v-110l84 -4l-1 -10h-180zM162 428v-287h123q70 0 117 26q20 23 29 50t9 68q0 68 -39.5 105.5t-114.5 37.5h-124z" />
<glyph unicode="&#xff;" horiz-adv-x="576" d="M189 0l1 10l84 4v228l-193 304l-66 4l1 10h171l-1 -10l-81 -4l180 -285h2l188 285l-77 4l1 10h162l-1 -10l-66 -4l-200 -306v-226l79 -4l-1 -10h-183zM168 721q0 9 8 18.5t19 9.5t20 -9.5t9 -19.5t-9 -19t-19 -9q-11 0 -19.5 9t-8.5 20zM378 721q0 9 8 18.5t19 9.5 t20 -9.5t9 -19.5t-9 -19t-19 -9q-11 0 -19.5 9t-8.5 20z" />
<glyph unicode="&#x100;" horiz-adv-x="728" d="M346 700h33l259 -684l80 -6l-1 -10h-200l1 10l99 5l-77 203h-355l-76 -203l100 -5l-1 -10h-198l1 10l78 5zM191 236h342l-169 448h-5zM195 857h328v-18h-328v18z" />
<glyph unicode="&#x101;" horiz-adv-x="619" d="M293 560h31l214 -545l66 -5l-1 -10h-168l1 10l81 4l-63 160h-292l-62 -160l82 -4l-1 -10h-166l1 10l65 4zM167 190h281l-139 354h-4zM153 717h328v-18h-328v18z" />
<glyph unicode="&#x102;" horiz-adv-x="728" d="M346 700h33l259 -684l80 -6l-1 -10h-200l1 10l99 5l-77 203h-355l-76 -203l100 -5l-1 -10h-198l1 10l78 5zM191 236h342l-169 448h-5zM263 914q6 -42 32 -64t67 -22q36 0 62 20.5t36 65.5h14l3 -10q-11 -43 -42 -68.5t-73 -25.5q-45 0 -77.5 25t-40.5 70l3 9h16z" />
<glyph unicode="&#x103;" horiz-adv-x="619" d="M293 560h31l214 -545l66 -5l-1 -10h-168l1 10l81 4l-63 160h-292l-62 -160l82 -4l-1 -10h-166l1 10l65 4zM167 190h281l-139 354h-4zM221 774q6 -42 32 -64t67 -22q36 0 62 20.5t36 65.5h14l3 -10q-11 -43 -42 -68.5t-73 -25.5q-45 0 -77.5 25t-40.5 70l3 9h16z" />
<glyph unicode="&#x104;" horiz-adv-x="728" d="M346 700h33l259 -684l80 -6l-1 -10h-79q-29 -32 -44 -58.5t-17 -60.5q8 -17 22.5 -22t38.5 -9l-1 -13q-41 0 -58.5 14.5t-17.5 34.5q0 32 16 59.5t41 54.5h-101l1 10l99 5l-77 203h-355l-76 -203l100 -5l-1 -10h-198l1 10l78 5zM191 236h342l-169 448h-5z" />
<glyph unicode="&#x105;" horiz-adv-x="619" d="M293 560h31l214 -545l66 -5l-1 -10h-58q-29 -32 -44 -58.5t-17 -60.5q8 -17 22.5 -22t38.5 -9q0 -3 -0.5 -6.5t-0.5 -6.5q-41 0 -58.5 14.5t-17.5 34.5q0 32 16 59.5t41 54.5h-90l1 10l81 4l-63 160h-292l-62 -160l82 -4l-1 -10h-166l1 10l65 4zM168 190h280l-139 354h-4 z" />
<glyph unicode="&#x106;" horiz-adv-x="687" d="M627 53q-59 -35 -114.5 -48t-126.5 -13q-74 0 -132.5 24t-99.5 70t-62.5 111t-21.5 148q0 90 24.5 158t67.5 113.5t101.5 68.5t126.5 23q37 0 67 -2t55.5 -6.5t48.5 -11.5t46 -16l3 -15l-7 -138l-14 1l1 133q-74 37 -199 37q-47 0 -90 -12t-86 -35q-62 -53 -93.5 -123 t-31.5 -175q0 -78 20 -140t57.5 -105.5t92.5 -66.5t126 -23q35 0 64.5 2.5t57.5 9.5t55 18t57 28zM357 784l121 157l24 -5l-127 -157z" />
<glyph unicode="&#x107;" horiz-adv-x="584" d="M528 43q-24 -14 -47.5 -23.5t-47.5 -15t-50 -8t-56 -2.5q-62 0 -110.5 19.5t-82.5 56t-52 88.5t-18 118q0 72 20.5 126.5t56 91t84.5 55t106 18.5q61 0 101.5 -7.5t78.5 -22.5l3 -12l-7 -112l-13 1l1 107q-61 29 -164 29q-38 0 -73.5 -10t-70.5 -27q-52 -43 -77.5 -98.5 t-25.5 -138.5q0 -62 16.5 -111t47.5 -83t76.5 -52.5t103.5 -18.5q28 0 53 2t48 7.5t45.5 14t46.5 22.5zM303 644l121 157l24 -5l-127 -157z" />
<glyph unicode="&#x108;" horiz-adv-x="687" d="M627 53q-59 -35 -114.5 -48t-126.5 -13q-74 0 -132.5 24t-99.5 70t-62.5 111t-21.5 148q0 90 24.5 158t67.5 113.5t101.5 68.5t126.5 23q37 0 67 -2t55.5 -6.5t48.5 -11.5t46 -16l3 -15l-7 -138l-14 1l1 133q-74 37 -199 37q-47 0 -90 -12t-86 -35q-62 -53 -93.5 -123 t-31.5 -175q0 -78 20 -140t57.5 -105.5t92.5 -66.5t126 -23q35 0 64.5 2.5t57.5 9.5t55 18t57 28zM283 779l-18 5l121 157h20l121 -157l-18 -5l-113 140z" />
<glyph unicode="&#x109;" horiz-adv-x="584" d="M528 43q-24 -14 -47.5 -23.5t-47.5 -15t-50 -8t-56 -2.5q-62 0 -110.5 19.5t-82.5 56t-52 88.5t-18 118q0 72 20.5 126.5t56 91t84.5 55t106 18.5q61 0 101.5 -7.5t78.5 -22.5l3 -12l-7 -112l-13 1l1 107q-61 29 -164 29q-38 0 -73.5 -10t-70.5 -27q-52 -43 -77.5 -98.5 t-25.5 -138.5q0 -62 16.5 -111t47.5 -83t76.5 -52.5t103.5 -18.5q28 0 53 2t48 7.5t45.5 14t46.5 22.5zM229 639l-18 5l121 157h20l121 -157l-18 -5l-113 140z" />
<glyph unicode="&#x10a;" horiz-adv-x="687" d="M627 53q-59 -35 -114.5 -48t-126.5 -13q-74 0 -132.5 24t-99.5 70t-62.5 111t-21.5 148q0 90 24.5 158t67.5 113.5t101.5 68.5t126.5 23q37 0 67 -2t55.5 -6.5t48.5 -11.5t46 -16l3 -15l-7 -138l-14 1l1 133q-74 37 -199 37q-47 0 -90 -12t-86 -35q-62 -53 -93.5 -123 t-31.5 -175q0 -78 20 -140t57.5 -105.5t92.5 -66.5t126 -23q35 0 64.5 2.5t57.5 9.5t55 18t57 28zM433 860q0 -15 -11 -26t-26 -11t-26 11t-11 26t11 26t26 11t26 -11t11 -26z" />
<glyph unicode="&#x10b;" horiz-adv-x="584" d="M528 43q-24 -14 -47.5 -23.5t-47.5 -15t-50 -8t-56 -2.5q-62 0 -110.5 19.5t-82.5 56t-52 88.5t-18 118q0 72 20.5 126.5t56 91t84.5 55t106 18.5q61 0 101.5 -7.5t78.5 -22.5l3 -12l-7 -112l-13 1l1 107q-61 29 -164 29q-38 0 -73.5 -10t-70.5 -27q-52 -43 -77.5 -98.5 t-25.5 -138.5q0 -62 16.5 -111t47.5 -83t76.5 -52.5t103.5 -18.5q28 0 53 2t48 7.5t45.5 14t46.5 22.5zM379 720q0 -15 -11 -26t-26 -11t-26 11t-11 26t11 26t26 11t26 -11t11 -26z" />
<glyph unicode="&#x10c;" horiz-adv-x="687" d="M627 53q-59 -35 -114.5 -48t-126.5 -13q-74 0 -132.5 24t-99.5 70t-62.5 111t-21.5 148q0 90 24.5 158t67.5 113.5t101.5 68.5t126.5 23q37 0 67 -2t55.5 -6.5t48.5 -11.5t46 -16l3 -15l-7 -138l-14 1l1 133q-74 37 -199 37q-47 0 -90 -12t-86 -35q-62 -53 -93.5 -123 t-31.5 -175q0 -78 20 -140t57.5 -105.5t92.5 -66.5t126 -23q35 0 64.5 2.5t57.5 9.5t55 18t57 28zM510 952l18 -5l-121 -157h-20l-121 157l18 5l113 -140z" />
<glyph unicode="&#x10d;" horiz-adv-x="584" d="M528 43q-24 -14 -47.5 -23.5t-47.5 -15t-50 -8t-56 -2.5q-62 0 -110.5 19.5t-82.5 56t-52 88.5t-18 118q0 72 20.5 126.5t56 91t84.5 55t106 18.5q61 0 101.5 -7.5t78.5 -22.5l3 -12l-7 -112l-13 1l1 107q-61 29 -164 29q-38 0 -73.5 -10t-70.5 -27q-52 -43 -77.5 -98.5 t-25.5 -138.5q0 -62 16.5 -111t47.5 -83t76.5 -52.5t103.5 -18.5q28 0 53 2t48 7.5t45.5 14t46.5 22.5zM456 812l18 -5l-121 -157h-20l-121 157l18 5l113 -140z" />
<glyph unicode="&#x10e;" horiz-adv-x="743" d="M51 10l99 5v670l-93 5l1 10h237q182 0 280 -89.5t98 -259.5q0 -81 -22 -146t-65.5 -110.5t-109 -70t-152.5 -24.5h-274zM286 684q-47 0 -73 -1t-43 -3v-662q24 -3 65 -3h89q46 0 82 5.5t65 16.5t53.5 26.5t47.5 35.5q19 25 34 50t25.5 54.5t16 65t5.5 82.5q0 167 -93 250 t-274 83zM454 952l18 -5l-121 -157h-20l-121 157l18 5l113 -140z" />
<glyph unicode="&#x10f;" horiz-adv-x="631" d="M49 10l82 4v532l-77 4l1 10h198q151 0 232.5 -71.5t81.5 -207.5q0 -131 -72.5 -206t-217.5 -75h-229zM245 545q-38 0 -59.5 -0.5t-35.5 -2.5v-525q20 -2 53.5 -2.5t73.5 -0.5q37 0 66.5 4.5t53.5 13t44.5 21t39.5 28.5q15 20 27.5 40t21 43t13 51.5t4.5 65.5 q0 131 -76.5 197.5t-225.5 66.5zM427 812l18 -5l-121 -157h-20l-121 157l18 5l113 -140z" />
<glyph unicode="&#x110;" horiz-adv-x="743" d="M52 362h98v323l-93 5l1 10h237q182 0 280 -89.5t98 -259.5q0 -81 -22 -146t-65.5 -110.5t-109 -70t-152.5 -24.5h-274l1 10l99 5v330h-98v17zM286 684q-47 0 -73 -1t-43 -3v-318h261v-17h-261v-327q24 -3 65 -3h89q46 0 82 5.5t65 16.5t53.5 26.5t47.5 35.5q19 25 34 50 t25.5 54.5t16 65t5.5 82.5q0 167 -93 250t-274 83z" />
<glyph unicode="&#x111;" horiz-adv-x="631" d="M50 290h81v256l-77 4l1 10h199q150 0 231.5 -71.5t81.5 -207.5q0 -131 -72.5 -206t-217.5 -75h-229l1 10l82 4v261h-81v15zM246 545q-38 0 -59.5 -1t-35.5 -3v-251h215v-15h-215v-258q20 -2 53.5 -2.5t72.5 -0.5q38 0 67.5 4.5t53.5 13.5t44.5 21.5t39.5 28.5 q15 20 27.5 39.5t20.5 43t12.5 51.5t4.5 65q0 131 -76 197.5t-225 66.5z" />
<glyph unicode="&#x112;" horiz-adv-x="587" d="M72 10l94 5v670l-96 5l1 10h446l-3 -162l-12 1l-6 145h-310v-322h216l9 93l12 -1v-194l-12 1l-9 85h-216v-330h327l5 149l12 -1l2 -164h-461zM168 857h328v-18h-328v18z" />
<glyph unicode="&#x113;" horiz-adv-x="503" d="M66 10l78 4v532l-80 4l1 10h373l-2 -131l-13 1l-5 115h-254v-254h176l7 74l12 -1v-157l-12 1l-7 68h-176v-261h268l4 119l13 -1l2 -133h-386zM117 717h328v-18h-328v18z" />
<glyph unicode="&#x114;" horiz-adv-x="587" d="M72 10l94 5v670l-96 5l1 10h446l-3 -162l-12 1l-6 145h-310v-322h216l9 93l12 -1v-194l-12 1l-9 85h-216v-330h327l5 149l12 -1l2 -164h-461zM236 914q6 -42 32 -64t67 -22q36 0 62 20.5t36 65.5h14l3 -10q-11 -43 -42 -68.5t-73 -25.5q-45 0 -77.5 25t-40.5 70l3 9h16z " />
<glyph unicode="&#x115;" horiz-adv-x="503" d="M66 10l78 4v532l-80 4l1 10h373l-2 -131l-13 1l-5 115h-254v-254h176l7 74l12 -1v-157l-12 1l-7 68h-176v-261h268l4 119l13 -1l2 -133h-386zM185 774q6 -42 32 -64t67 -22q36 0 62 20.5t36 65.5h14l3 -10q-11 -43 -42 -68.5t-73 -25.5q-45 0 -77.5 25t-40.5 70l3 9h16z " />
<glyph unicode="&#x116;" horiz-adv-x="587" d="M72 10l94 5v670l-96 5l1 10h446l-3 -162l-12 1l-6 145h-310v-322h216l9 93l12 -1v-194l-12 1l-9 85h-216v-330h327l5 149l12 -1l2 -164h-461zM372 860q0 -15 -11 -26t-26 -11t-26 11t-11 26t11 26t26 11t26 -11t11 -26z" />
<glyph unicode="&#x117;" horiz-adv-x="503" d="M66 10l78 4v532l-80 4l1 10h373l-2 -131l-13 1l-5 115h-254v-254h176l7 74l12 -1v-157l-12 1l-7 68h-176v-261h268l4 119l13 -1l2 -133h-386zM321 720q0 -15 -11 -26t-26 -11t-26 11t-11 26t11 26t26 11t26 -11t11 -26z" />
<glyph unicode="&#x118;" horiz-adv-x="587" d="M72 10l94 5v670l-96 5l1 10h446l-3 -162l-12 1l-6 145h-310v-322h216l9 93l12 -1v-194l-12 1l-9 85h-216v-330h327l5 149l12 -1l2 -164q-23 -25 -40 -52.5t-21 -66.5q8 -17 22.5 -22t38.5 -9q0 -3 -0.5 -6.5t-0.5 -6.5q-41 0 -58.5 14.5t-17.5 34.5q0 32 16 59.5t41 54.5 h-441z" />
<glyph unicode="&#x119;" horiz-adv-x="503" d="M66 10l78 4v532l-80 4l1 10h373l-2 -131l-13 1l-5 115h-254v-254h176l7 74l12 -1v-157l-12 1l-7 68h-176v-261h268l4 119l13 -1l2 -133q-29 -32 -44 -58.5t-17 -60.5q8 -17 22.5 -22t38.5 -9l-1 -13q-41 0 -58.5 14.5t-17.5 34.5q0 32 16 59.5t41 54.5h-366z" />
<glyph unicode="&#x11a;" horiz-adv-x="587" d="M72 10l94 5v670l-96 5l1 10h446l-3 -162l-12 1l-6 145h-310v-322h216l9 93l12 -1v-194l-12 1l-9 85h-216v-330h327l5 149l12 -1l2 -164h-461zM449 952l18 -5l-121 -157h-20l-121 157l18 5l113 -140z" />
<glyph unicode="&#x11b;" horiz-adv-x="503" d="M66 10l78 4v532l-80 4l1 10h373l-2 -131l-13 1l-5 115h-254v-254h176l7 74l12 -1v-157l-12 1l-7 68h-176v-261h268l4 119l13 -1l2 -133h-386zM398 812l18 -5l-121 -157h-20l-121 157l18 5l113 -140z" />
<glyph unicode="&#x11c;" horiz-adv-x="747" d="M597 67q-41 -34 -94 -54.5t-121 -20.5q-71 0 -128.5 25.5t-98 72.5t-63 112.5t-22.5 145.5q0 89 26 156.5t71.5 112.5t109 68t138.5 23q28 0 56 -3.5t54.5 -9.5t50.5 -13.5t43 -16.5l7 -14l-16 -140l-14 1l9 139q-15 8 -37 15t-47.5 12.5t-52.5 8.5t-53 3q-52 0 -93 -9 t-88 -29q-78 -53 -111 -129t-33 -176q0 -77 20.5 -139t58.5 -106t92 -68t121 -24t118 19.5t96 60.5v177l-160 6v11h260v-13l-80 -4v-267h-14zM289 779l-18 5l121 157h20l121 -157l-18 -5l-113 140z" />
<glyph unicode="&#x11d;" horiz-adv-x="634" d="M502 53q-34 -27 -78 -43t-100 -16q-59 0 -106.5 20.5t-82 58t-53 89.5t-18.5 116q0 71 21.5 125t60 90.5t91 55t114.5 18.5q47 0 92.5 -10.5t77.5 -24.5l6 -12l-13 -113l-14 1l7 111q-25 13 -69 22t-87 9t-76.5 -7t-72.5 -23q-63 -42 -90.5 -103t-27.5 -139 q0 -61 17 -110t48.5 -84t76 -54t99.5 -19q54 0 96 15t79 47v140l-132 5l1 11h217l-1 -12l-66 -4v-213h-13zM240 639l-18 5l121 157h20l121 -157l-18 -5l-113 140z" />
<glyph unicode="&#x11e;" horiz-adv-x="747" d="M597 67q-41 -34 -94 -54.5t-121 -20.5q-71 0 -128.5 25.5t-98 72.5t-63 112.5t-22.5 145.5q0 89 26 156.5t71.5 112.5t109 68t138.5 23q28 0 56 -3.5t54.5 -9.5t50.5 -13.5t43 -16.5l7 -14l-16 -140l-14 1l9 139q-15 8 -37 15t-47.5 12.5t-52.5 8.5t-53 3q-52 0 -93 -9 t-88 -29q-78 -53 -111 -129t-33 -176q0 -77 20.5 -139t58.5 -106t92 -68t121 -24t118 19.5t96 60.5v177l-160 6v11h260v-13l-80 -4v-267h-14zM303 914q6 -42 32 -64t67 -22q36 0 62 20.5t36 65.5h14l3 -10q-11 -43 -42 -68.5t-73 -25.5q-45 0 -77.5 25t-40.5 70l3 9h16z" />
<glyph unicode="&#x11f;" horiz-adv-x="634" d="M502 53q-34 -27 -78 -43t-100 -16q-59 0 -106.5 20.5t-82 58t-53 89.5t-18.5 116q0 71 21.5 125t60 90.5t91 55t114.5 18.5q47 0 92.5 -10.5t77.5 -24.5l6 -12l-13 -113l-14 1l7 111q-25 13 -69 22t-87 9t-76.5 -7t-72.5 -23q-63 -42 -90.5 -103t-27.5 -139 q0 -61 17 -110t48.5 -84t76 -54t99.5 -19q54 0 96 15t79 47v140l-132 5l1 11h217l-1 -12l-66 -4v-213h-13zM254 774q6 -42 32 -64t67 -22q36 0 62 20.5t36 65.5h14l3 -10q-11 -43 -42 -68.5t-73 -25.5q-45 0 -77.5 25t-40.5 70l3 9h16z" />
<glyph unicode="&#x120;" horiz-adv-x="747" d="M597 67q-41 -34 -94 -54.5t-121 -20.5q-71 0 -128.5 25.5t-98 72.5t-63 112.5t-22.5 145.5q0 89 26 156.5t71.5 112.5t109 68t138.5 23q28 0 56 -3.5t54.5 -9.5t50.5 -13.5t43 -16.5l7 -14l-16 -140l-14 1l9 139q-15 8 -37 15t-47.5 12.5t-52.5 8.5t-53 3q-52 0 -93 -9 t-88 -29q-78 -53 -111 -129t-33 -176q0 -77 20.5 -139t58.5 -106t92 -68t121 -24t118 19.5t96 60.5v177l-160 6v11h260v-13l-80 -4v-267h-14zM439 860q0 -15 -11 -26t-26 -11t-26 11t-11 26t11 26t26 11t26 -11t11 -26z" />
<glyph unicode="&#x121;" horiz-adv-x="634" d="M502 53q-34 -27 -78 -43t-100 -16q-59 0 -106.5 20.5t-82 58t-53 89.5t-18.5 116q0 71 21.5 125t60 90.5t91 55t114.5 18.5q47 0 92.5 -10.5t77.5 -24.5l6 -12l-13 -113l-14 1l7 111q-25 13 -69 22t-87 9t-76.5 -7t-72.5 -23q-63 -42 -90.5 -103t-27.5 -139 q0 -61 17 -110t48.5 -84t76 -54t99.5 -19q54 0 96 15t79 47v140l-132 5l1 11h217l-1 -12l-66 -4v-213h-13zM390 720q0 -15 -11 -26t-26 -11t-26 11t-11 26t11 26t26 11t26 -11t11 -26z" />
<glyph unicode="&#x122;" horiz-adv-x="747" d="M597 67q-41 -34 -94 -54.5t-121 -20.5q-71 0 -128.5 25.5t-98 72.5t-63 112.5t-22.5 145.5q0 89 26 156.5t71.5 112.5t109 68t138.5 23q28 0 56 -3.5t54.5 -9.5t50.5 -13.5t43 -16.5l7 -14l-16 -140l-14 1l9 139q-15 8 -37 15t-47.5 12.5t-52.5 8.5t-53 3q-52 0 -93 -9 t-88 -29q-78 -53 -111 -129t-33 -176q0 -77 20.5 -139t58.5 -106t92 -68t121 -24t118 19.5t96 60.5v177l-160 6v11h260v-13l-80 -4v-267h-14zM418 -106q0 -17 -14 -41.5t-35 -46.5l-13 13q11 12 19.5 25t13.5 26q-11 0 -19.5 8.5t-8.5 19.5q0 12 8.5 20.5t19.5 8.5 q12 0 20.5 -9t8.5 -24z" />
<glyph unicode="&#x123;" horiz-adv-x="634" d="M502 53q-34 -27 -78 -43t-100 -16q-59 0 -106.5 20.5t-82 58t-53 89.5t-18.5 116q0 71 21.5 125t60 90.5t91 55t114.5 18.5q47 0 92.5 -10.5t77.5 -24.5l6 -12l-13 -113l-14 1l7 111q-25 13 -69 22t-87 9t-76.5 -7t-72.5 -23q-63 -42 -90.5 -103t-27.5 -139 q0 -61 17 -110t48.5 -84t76 -54t99.5 -19q54 0 96 15t79 47v140l-132 5l1 11h217l-1 -12l-66 -4v-213h-13zM363 -106q0 -17 -14 -41.5t-35 -46.5l-13 13q11 12 19.5 25t13.5 26q-11 0 -19.5 8.5t-8.5 19.5q0 12 8.5 20.5t19.5 8.5q12 0 20.5 -9t8.5 -24z" />
<glyph unicode="&#x124;" horiz-adv-x="753" d="M510 0l1 10l84 5v334h-438v-334l88 -5l-1 -10h-194l1 10l86 5v670l-79 5l1 10h182l-1 -10l-83 -5v-318h438v318l-82 5l1 10h185l-1 -10l-83 -5v-670l88 -5l-1 -10h-192zM266 779l-18 5l121 157h20l121 -157l-18 -5l-113 140z" />
<glyph unicode="&#x125;" horiz-adv-x="640" d="M429 0l1 10l70 4v264h-360v-264l73 -4l-1 -10h-164l1 10l71 4v532l-66 4l1 10h155l-1 -10l-69 -4v-251h360v251l-68 4v10h157l-1 -10l-69 -4v-532l73 -4l-1 -10h-162zM224 639l-18 5l121 157h20l121 -157l-18 -5l-113 140z" />
<glyph unicode="&#x126;" horiz-adv-x="753" d="M60 535h77v150l-79 5l1 10h182l-1 -10l-83 -5v-150h438v150l-82 5l1 10h185l-1 -10l-83 -5v-150h83v-17h-83v-503l88 -5l-1 -10h-192l1 10l84 5v334h-438v-334l88 -5l-1 -10h-194l1 10l86 5v503h-77v17zM157 367h438v151h-438v-151z" />
<glyph unicode="&#x127;" horiz-adv-x="640" d="M56 428h64v118l-66 4l1 10h155l-1 -10l-69 -4v-118h360v118l-68 4v10h157l-1 -10l-69 -4v-118h69v-16h-69v-398l73 -4l-1 -10h-162l1 10l70 4v263h-360v-263l73 -4l-1 -10h-164l1 10l71 4v398h-64v16zM140 294h360v118h-360v-118z" />
<glyph unicode="&#x128;" horiz-adv-x="376" d="M81 0l1 10l93 5v670l-95 5l1 10h210l-1 -10l-93 -5v-670l99 -5l-1 -10h-214zM5 834q23 28 45.5 48t39.5 20q16 0 43.5 -11l57.5 -24l57 -24t44 -11l64 65l14 -7q-9 -12 -20 -24.5t-22.5 -23.5t-22.5 -18t-20 -7q-22 0 -50.5 11l-58 23.5l-56 23.5t-44.5 11l-57 -60z" />
<glyph unicode="&#x129;" d="M73 0l1 10l77 4v532l-79 4l1 10h177v-10l-77 -4v-532l82 -4l-1 -10h-181zM-8 694q23 28 45.5 48t39.5 20q16 0 43.5 -11l57.5 -24l57 -24t44 -11l64 65l14 -7q-9 -12 -20 -24.5t-22.5 -23.5t-22.5 -18t-20 -7q-22 0 -50.5 11l-58 23.5l-56 23.5t-44.5 11l-57 -60z" />
<glyph unicode="&#x12a;" horiz-adv-x="376" d="M81 0l1 10l93 5v670l-95 5l1 10h210l-1 -10l-93 -5v-670l99 -5l-1 -10h-214zM20 857h328v-18h-328v18z" />
<glyph unicode="&#x12b;" d="M73 0l1 10l77 4v532l-79 4l1 10h177v-10l-77 -4v-532l82 -4l-1 -10h-181zM7 717h328v-18h-328v18z" />
<glyph unicode="&#x12c;" horiz-adv-x="376" d="M81 0l1 10l93 5v670l-95 5l1 10h210l-1 -10l-93 -5v-670l99 -5l-1 -10h-214zM88 914q6 -42 32 -64t67 -22q36 0 62 20.5t36 65.5h14l3 -10q-11 -43 -42 -68.5t-73 -25.5q-45 0 -77.5 25t-40.5 70l3 9h16z" />
<glyph unicode="&#x12d;" d="M73 0l1 10l77 4v532l-79 4l1 10h177v-10l-77 -4v-532l82 -4l-1 -10h-181zM75 774q6 -42 32 -64t67 -22q36 0 62 20.5t36 65.5h14l3 -10q-11 -43 -42 -68.5t-73 -25.5q-45 0 -77.5 25t-40.5 70l3 9h16z" />
<glyph unicode="&#x12e;" horiz-adv-x="376" d="M197 0q-29 -32 -44 -58.5t-17 -60.5q8 -17 22.5 -22t38.5 -9l-1 -13q-41 0 -58.5 14.5t-17.5 34.5q0 32 16 59.5t41 54.5h-96l1 10l93 5v670l-95 5l1 10h210l-1 -10l-93 -5v-670l99 -5l-1 -10h-98z" />
<glyph unicode="&#x12f;" d="M172 0q-29 -32 -44 -58.5t-17 -60.5q8 -17 22.5 -22t38.5 -9l-1 -13q-41 0 -58.5 14.5t-17.5 34.5q0 32 16 59.5t41 54.5h-79l1 10l77 4v532l-79 4l1 10h177v-10l-77 -4v-532l82 -4l-1 -10h-82z" />
<glyph unicode="&#x130;" horiz-adv-x="376" d="M81 0l1 10l93 5v670l-95 5l1 10h210l-1 -10l-93 -5v-670l99 -5l-1 -10h-214zM223 860q0 -15 -11 -26t-26 -11t-26 11t-11 26t11 26t26 11t26 -11t11 -26z" />
<glyph unicode="&#x131;" d="M73 0l1 10l77 4v532l-79 4l1 10h177v-10l-77 -4v-532l82 -4l-1 -10h-181z" />
<glyph unicode="&#x132;" horiz-adv-x="722" d="M81 0l1 10l93 5v670l-95 5l1 10h210l-1 -10l-93 -5v-670l99 -5l-1 -10h-214zM522 685l-99 5l1 10h218l-1 -10l-97 -5v-606q0 -35 -5 -62.5t-17 -51.5t-32 -46t-51 -45l-10 11q27 22 45 42.5t28.5 42.5t15 47t4.5 57v611z" />
<glyph unicode="&#x133;" horiz-adv-x="660" d="M73 0l1 10l77 4v532l-79 4l1 10h177v-10l-77 -4v-532l82 -4l-1 -10h-181zM485 546l-82 4l1 10h184l-1 -10l-80 -4v-484q0 -28 -4 -50t-14.5 -41.5t-28 -37t-43.5 -36.5l-9 10q44 34 60.5 67t16.5 83v489z" />
<glyph unicode="&#x134;" horiz-adv-x="376" d="M176 685l-99 5l1 10h218l-1 -10l-97 -5v-606q0 -35 -5 -62.5t-17 -51.5t-32 -46t-51 -45l-10 11q27 22 45 42.5t28.5 42.5t15 47t4.5 57v611zM75 778l-18 5l121 157h20l121 -157l-18 -5l-113 140z" />
<glyph unicode="&#x135;" d="M152 546l-82 4l1 10h184l-1 -10l-80 -4v-484q0 -28 -4 -50t-14.5 -41.5t-28 -37t-43.5 -36.5l-9 10q44 34 60.5 67t16.5 83v489zM62 639l-18 5l121 157h20l121 -157l-18 -5l-113 140z" />
<glyph unicode="&#x136;" horiz-adv-x="666" d="M80 0l1 10l84 5v670l-95 5l1 10h207l-1 -10l-90 -5v-325h33l304 325l-74 5l1 10h165l-1 -10l-66 -5l-309 -329v-7q18 -22 44 -50.5l56 -60l62.5 -64l64.5 -62l62 -55t55 -42.5l62 -5l-1 -10h-73q-38 28 -86 71.5l-96.5 91.5l-93.5 96t-76 84h-33v-328l97 -5l-1 -10h-203z M387 -106q0 -17 -14 -41.5t-35 -46.5l-13 13q11 12 19.5 25t13.5 26q-11 0 -19.5 8.5t-8.5 19.5q0 12 8.5 20.5t19.5 8.5q12 0 20.5 -9t8.5 -24z" />
<glyph unicode="&#x137;" horiz-adv-x="568" d="M72 0l1 10l70 4v532l-79 4l1 10h175l-1 -10l-75 -4v-257h27l250 257l-61 4l1 10h140l-1 -10l-55 -4l-254 -261v-5q23 -27 58.5 -64l75 -75t79 -72t70.5 -55l51 -4v-10h-64q-31 22 -70.5 56.5l-79.5 73l-77 76.5l-63 67h-27v-259l81 -4l-1 -10h-172zM351 -106 q0 -17 -14 -41.5t-35 -46.5l-13 13q11 12 19.5 25t13.5 26q-11 0 -19.5 8.5t-8.5 19.5q0 12 8.5 20.5t19.5 8.5q12 0 20.5 -9t8.5 -24z" />
<glyph unicode="&#x138;" horiz-adv-x="568" d="M72 0l1 10l70 4v532l-79 4l1 10h175l-1 -10l-75 -4v-257h27l250 257l-61 4l1 10h140l-1 -10l-55 -4l-254 -261v-5q23 -27 58.5 -64l75 -75t79 -72t70.5 -55l51 -4v-10h-64q-31 22 -70.5 56.5l-79.5 73l-77 76.5l-63 67h-27v-259l81 -4l-1 -10h-172z" />
<glyph unicode="&#x139;" horiz-adv-x="536" d="M70 0l1 10l94 5v670l-83 5l1 10h213l-1 -10l-110 -5v-669h305l7 169l13 -1l1 -184h-441zM138 784l121 157l24 -5l-127 -157z" />
<glyph unicode="&#x13a;" horiz-adv-x="460" d="M64 0l1 10l78 4v532l-69 4l1 10h180l-1 -10l-91 -4v-531h249l7 135l13 -1l1 -149h-369zM136 644l121 157l24 -5l-127 -157z" />
<glyph unicode="&#x13b;" horiz-adv-x="536" d="M70 0l1 10l94 5v670l-83 5l1 10h213l-1 -10l-110 -5v-669h305l7 169l13 -1l1 -184h-441zM335 -106q0 -17 -14 -41.5t-35 -46.5l-13 13q11 12 19.5 25t13.5 26q-11 0 -19.5 8.5t-8.5 19.5q0 12 8.5 20.5t19.5 8.5q12 0 20.5 -9t8.5 -24z" />
<glyph unicode="&#x13c;" horiz-adv-x="460" d="M64 0l1 10l78 4v532l-69 4l1 10h180l-1 -10l-91 -4v-531h249l7 135l13 -1l1 -149h-369zM303 -106q0 -17 -14 -41.5t-35 -46.5l-13 13q11 12 19.5 25t13.5 26q-11 0 -19.5 8.5t-8.5 19.5q0 12 8.5 20.5t19.5 8.5q12 0 20.5 -9t8.5 -24z" />
<glyph unicode="&#x13d;" horiz-adv-x="536" d="M70 0l1 10l94 5v670l-83 5l1 10h213l-1 -10l-110 -5v-669h305l7 169l13 -1l1 -184h-441zM448 646q0 -17 -14 -41.5t-35 -46.5l-13 13q11 12 19.5 25t13.5 26q-11 0 -19.5 8.5t-8.5 19.5q0 12 8.5 20.5t19.5 8.5q12 0 20.5 -9t8.5 -24z" />
<glyph unicode="&#x13e;" horiz-adv-x="482" d="M64 0l1 10l78 4v532l-69 4l1 10h180l-1 -10l-91 -4v-531h249l7 135l13 -1l1 -149h-369zM384 527q0 -17 -14 -41.5t-35 -46.5l-13 13q11 12 19.5 25t13.5 26q-11 0 -19.5 8.5t-8.5 19.5q0 12 8.5 20.5t19.5 8.5q12 0 20.5 -9t8.5 -24z" />
<glyph unicode="&#x13f;" horiz-adv-x="536" d="M70 0l1 10l94 5v670l-83 5l1 10h213l-1 -10l-110 -5v-669h305l7 169l13 -1l1 -184h-441zM472 359q0 -15 -11 -26t-26 -11t-26 11t-11 26t11 26t26 11t26 -11t11 -26z" />
<glyph unicode="&#x140;" horiz-adv-x="482" d="M64 0l1 10l78 4v532l-69 4l1 10h180l-1 -10l-91 -4v-531h249l7 135l13 -1l1 -149h-369zM444 290q0 -15 -11 -26t-26 -11t-26 11t-11 26t11 26t26 11t26 -11t11 -26z" />
<glyph unicode="&#x141;" horiz-adv-x="536" d="M71 10l94 5v262l-111 -58l-10 18l121 62v386l-83 5l1 10h213l-1 -10l-110 -5v-375l169 87l9 -17l-178 -93v-271h305l7 169l13 -1l1 -184h-441z" />
<glyph unicode="&#x142;" horiz-adv-x="460" d="M65 10l78 4v206l-91 -45l-9 16l100 49v306l-69 4l1 10h180l-1 -10l-91 -4v-296l139 69l8 -15l-147 -74v-215h249l7 135l13 -1l1 -149h-369z" />
<glyph unicode="&#x143;" horiz-adv-x="865" d="M192 700l502 -669v654l-96 5l1 10h211l-1 -10l-95 -5v-685h-19l-504 670v-655l107 -5l-1 -10h-225l1 10l98 5v670l-101 5l1 10h121zM405 784l121 157l24 -5l-127 -157z" />
<glyph unicode="&#x144;" horiz-adv-x="730" d="M167 560l413 -529v515l-79 4l1 10h176l-1 -10l-78 -4v-546h-18l-415 530v-516l89 -4l-1 -10h-188l1 10l81 4v532l-84 4l1 10h102zM329 644l121 157l24 -5l-127 -157z" />
<glyph unicode="&#x145;" horiz-adv-x="865" d="M192 700l502 -669v654l-96 5l1 10h211l-1 -10l-95 -5v-685h-19l-504 670v-655l107 -5l-1 -10h-225l1 10l98 5v670l-101 5l1 10h121zM469 -106q0 -17 -14 -41.5t-35 -46.5l-13 13q11 12 19.5 25t13.5 26q-11 0 -19.5 8.5t-8.5 19.5q0 12 8.5 20.5t19.5 8.5q12 0 20.5 -9 t8.5 -24z" />
<glyph unicode="&#x146;" horiz-adv-x="730" d="M167 560l413 -529v515l-79 4l1 10h176l-1 -10l-78 -4v-546h-18l-415 530v-516l89 -4l-1 -10h-188l1 10l81 4v532l-84 4l1 10h102zM393 -106q0 -17 -14 -41.5t-35 -46.5l-13 13q11 12 19.5 25t13.5 26q-11 0 -19.5 8.5t-8.5 19.5q0 12 8.5 20.5t19.5 8.5q12 0 20.5 -9 t8.5 -24z" />
<glyph unicode="&#x147;" horiz-adv-x="865" d="M192 700l502 -669v654l-96 5l1 10h211l-1 -10l-95 -5v-685h-19l-504 670v-655l107 -5l-1 -10h-225l1 10l98 5v670l-101 5l1 10h121zM558 952l18 -5l-121 -157h-20l-121 157l18 5l113 -140z" />
<glyph unicode="&#x148;" horiz-adv-x="730" d="M167 560l413 -529v515l-79 4l1 10h176l-1 -10l-78 -4v-546h-18l-415 530v-516l89 -4l-1 -10h-188l1 10l81 4v532l-84 4l1 10h102zM482 812l18 -5l-121 -157h-20l-121 157l18 5l113 -140z" />
<glyph unicode="&#x149;" horiz-adv-x="824" d="M261 560l413 -529v515l-79 4l1 10h176l-1 -10l-78 -4v-546h-18l-415 530v-516l89 -4l-1 -10h-188l1 10l81 4v532l-84 4l1 10h102zM101 639q0 -17 -14 -41.5t-35 -46.5l-13 13q11 12 19.5 25t13.5 26q-11 0 -19.5 8.5t-8.5 19.5q0 12 8.5 20.5t19.5 8.5q12 0 20.5 -9 t8.5 -24z" />
<glyph unicode="&#x14a;" horiz-adv-x="865" d="M191 670v-655l107 -5l-1 -10h-225l1 10l98 5v670l-101 5l1 10h121l502 -669v654l-96 5l1 10h211l-1 -10l-95 -5v-655q0 -35 -5 -62.5t-17 -51.5t-32 -46t-51 -45l-10 11q54 44 74.5 87t20.5 78z" />
<glyph unicode="&#x14b;" horiz-adv-x="730" d="M580 1l-414 530v-517l89 -4l-1 -10h-188l1 10l81 4v532l-84 4l1 10h102l413 -529v515l-79 4l1 10h176l-1 -10l-78 -4v-522q0 -28 -4 -50t-14 -41.5t-27.5 -37t-43.5 -36.5l-9 10q45 35 62 69t17 62v1z" />
<glyph unicode="&#x14c;" horiz-adv-x="794" d="M392 708q81 0 143 -26.5t104 -74t63.5 -113t21.5 -144.5q0 -86 -23 -152.5t-65.5 -112t-104 -69.5t-138.5 -24q-68 0 -127 24.5t-102.5 70t-68.5 110t-25 144.5q0 84 24 152t67 115.5t102 73.5t129 26zM390 688q-63 0 -110.5 -19t-92.5 -54q-20 -24 -38 -52t-31 -61 t-20.5 -73t-7.5 -89q0 -73 23.5 -133.5t64.5 -103.5t96 -67t119 -24q76 0 130 21.5t102 62.5q35 50 57 109.5t22 143.5q0 75 -20 137.5t-59.5 107t-98.5 69.5t-136 25zM223 857h328v-18h-328v18z" />
<glyph unicode="&#x14d;" horiz-adv-x="672" d="M332 567q67 0 118.5 -21t86.5 -59t53 -91t18 -116q0 -137 -73 -211.5t-202 -74.5q-57 0 -106 19.5t-85.5 56t-57 88t-20.5 115.5q0 67 20 121.5t56 93t85 59t107 20.5zM331 548q-52 0 -91 -14.5t-76 -42.5q-34 -39 -57 -90.5t-23 -128.5q0 -58 19 -105.5t53 -82t79 -53.5 t98 -19q63 0 107 17t83 49q29 40 47 87.5t18 113.5q0 60 -16.5 109.5t-48.5 85t-80.5 55t-111.5 19.5zM176 717h328v-18h-328v18z" />
<glyph unicode="&#x14e;" horiz-adv-x="794" d="M392 708q81 0 143 -26.5t104 -74t63.5 -113t21.5 -144.5q0 -86 -23 -152.5t-65.5 -112t-104 -69.5t-138.5 -24q-68 0 -127 24.5t-102.5 70t-68.5 110t-25 144.5q0 84 24 152t67 115.5t102 73.5t129 26zM390 688q-63 0 -110.5 -19t-92.5 -54q-20 -24 -38 -52t-31 -61 t-20.5 -73t-7.5 -89q0 -73 23.5 -133.5t64.5 -103.5t96 -67t119 -24q76 0 130 21.5t102 62.5q35 50 57 109.5t22 143.5q0 75 -20 137.5t-59.5 107t-98.5 69.5t-136 25zM291 914q6 -42 32 -64t67 -22q36 0 62 20.5t36 65.5h14l3 -10q-11 -43 -42 -68.5t-73 -25.5 q-45 0 -77.5 25t-40.5 70l3 9h16z" />
<glyph unicode="&#x14f;" horiz-adv-x="672" d="M332 567q67 0 118.5 -21t86.5 -59t53 -91t18 -116q0 -137 -73 -211.5t-202 -74.5q-57 0 -106 19.5t-85.5 56t-57 88t-20.5 115.5q0 67 20 121.5t56 93t85 59t107 20.5zM331 548q-52 0 -91 -14.5t-76 -42.5q-34 -39 -57 -90.5t-23 -128.5q0 -58 19 -105.5t53 -82t79 -53.5 t98 -19q63 0 107 17t83 49q29 40 47 87.5t18 113.5q0 60 -16.5 109.5t-48.5 85t-80.5 55t-111.5 19.5zM244 774q6 -42 32 -64t67 -22q36 0 62 20.5t36 65.5h14l3 -10q-11 -43 -42 -68.5t-73 -25.5q-45 0 -77.5 25t-40.5 70l3 9h16z" />
<glyph unicode="&#x150;" horiz-adv-x="794" d="M392 708q81 0 143 -26.5t104 -74t63.5 -113t21.5 -144.5q0 -86 -23 -152.5t-65.5 -112t-104 -69.5t-138.5 -24q-68 0 -127 24.5t-102.5 70t-68.5 110t-25 144.5q0 84 24 152t67 115.5t102 73.5t129 26zM390 688q-63 0 -110.5 -19t-92.5 -54q-20 -24 -38 -52t-31 -61 t-20.5 -73t-7.5 -89q0 -73 23.5 -133.5t64.5 -103.5t96 -67t119 -24q76 0 130 21.5t102 62.5q35 50 57 109.5t22 143.5q0 75 -20 137.5t-59.5 107t-98.5 69.5t-136 25zM292 781l91 161l26 -4l-99 -160zM443 784l121 157l24 -5l-126 -156z" />
<glyph unicode="&#x151;" horiz-adv-x="672" d="M332 567q67 0 118.5 -21t86.5 -59t53 -91t18 -116q0 -137 -73 -211.5t-202 -74.5q-57 0 -106 19.5t-85.5 56t-57 88t-20.5 115.5q0 67 20 121.5t56 93t85 59t107 20.5zM331 548q-52 0 -91 -14.5t-76 -42.5q-34 -39 -57 -90.5t-23 -128.5q0 -58 19 -105.5t53 -82t79 -53.5 t98 -19q63 0 107 17t83 49q29 40 47 87.5t18 113.5q0 60 -16.5 109.5t-48.5 85t-80.5 55t-111.5 19.5zM245 641l91 161l26 -4l-99 -160zM396 644l121 157l24 -5l-126 -156z" />
<glyph unicode="&#x152;" horiz-adv-x="946" d="M540 0q-35 -5 -70 -6.5t-77 -1.5q-68 0 -126 24.5t-100 70t-66 110t-24 144.5q0 84 23 152t65.5 115.5t102 73.5t132.5 26q38 0 74 -2.5t68 -5.5h334l-3 -162l-12 1l-6 145h-312v-322h218l9 93l12 -1v-194l-12 1l-9 85h-218v-330h329l5 149l12 -1l2 -164h-351zM399 688 q-68 0 -116 -19t-92 -53q-20 -24 -37.5 -52t-30 -61.5t-19.5 -73.5t-7 -89q0 -73 22.5 -133.5t62 -103.5t93.5 -67t118 -24q38 0 68.5 -0.5t61.5 2.5v667q-30 2 -61 4.5t-63 2.5z" />
<glyph unicode="&#x153;" horiz-adv-x="794" d="M449 0q-24 -2 -42 -3t-32 -2t-25 -1h-23q-57 0 -105 19.5t-83.5 56t-55 88t-19.5 115.5q0 67 19 121.5t54.5 93t85 59t110.5 20.5q20 0 40 -1t39 -3l318 -3l-3 -131l-12 1l-5 115h-256v-254h177l8 74l11 -1v-157l-11 1l-8 68h-177v-261h270l4 119l13 -1l1 -133h-293z M332 548q-56 0 -94.5 -14.5t-75.5 -40.5q-34 -39 -56 -90.5t-22 -130.5q0 -58 18.5 -105.5t50.5 -82t76.5 -53.5t97.5 -19h56q25 0 51 2v528l-50.5 4t-51.5 2z" />
<glyph unicode="&#x154;" horiz-adv-x="682" d="M78 0l1 10l90 5v670l-96 5l1 10h262q54 0 94.5 -15t67.5 -42t41 -64.5t14 -82.5q0 -39 -13.5 -71t-37 -56t-56 -39.5t-71.5 -21.5q15 -35 37.5 -76.5t48 -82t51 -76t46.5 -58.5l68 -5l-1 -10h-79q-23 25 -49.5 63t-53 80.5t-50.5 85t-40 77.5q-6 -1 -13 -1h-151v-290 l92 -5l-1 -10h-202zM189 683v-360h92q43 0 74.5 2.5t55.5 9.5t43 18t39 28q20 25 31.5 51.5t11.5 62.5q0 41 -12.5 75.5t-38 59.5t-65 39t-93.5 14h-138zM286 784l121 157l24 -5l-127 -157z" />
<glyph unicode="&#x155;" horiz-adv-x="581" d="M71 0l1 10l74 4v532l-79 4v10h220q89 0 135 -45.5t46 -117.5q0 -63 -41.5 -102t-105.5 -49q12 -27 30.5 -60t39.5 -65.5t42.5 -60.5t38.5 -46l56 -4l-1 -10h-67q-19 20 -41 50t-44 63.5t-42 68t-33 62.5q-5 -1 -11 -1h-123v-229l76 -4l-1 -10h-170zM166 544v-285h75 q35 0 60.5 2.5t45.5 7.5t36 14t32 22q17 20 26 40.5t9 49.5q0 33 -10 60t-31 47t-53.5 31t-76.5 11h-113zM244 644l121 157l24 -5l-127 -157z" />
<glyph unicode="&#x156;" horiz-adv-x="682" d="M78 0l1 10l90 5v670l-96 5l1 10h262q54 0 94.5 -15t67.5 -42t41 -64.5t14 -82.5q0 -39 -13.5 -71t-37 -56t-56 -39.5t-71.5 -21.5q15 -35 37.5 -76.5t48 -82t51 -76t46.5 -58.5l68 -5l-1 -10h-79q-23 25 -49.5 63t-53 80.5t-50.5 85t-40 77.5q-6 -1 -13 -1h-151v-290 l92 -5l-1 -10h-202zM189 683v-360h92q43 0 74.5 2.5t55.5 9.5t43 18t39 28q20 25 31.5 51.5t11.5 62.5q0 41 -12.5 75.5t-38 59.5t-65 39t-93.5 14h-138zM397 -106q0 -17 -14 -41.5t-35 -46.5l-13 13q11 12 19.5 25t13.5 26q-11 0 -19.5 8.5t-8.5 19.5q0 12 8.5 20.5 t19.5 8.5q12 0 20.5 -9t8.5 -24z" />
<glyph unicode="&#x157;" horiz-adv-x="581" d="M71 0l1 10l74 4v532l-79 4v10h220q89 0 135 -45.5t46 -117.5q0 -63 -41.5 -102t-105.5 -49q12 -27 30.5 -60t39.5 -65.5t42.5 -60.5t38.5 -46l56 -4l-1 -10h-67q-19 20 -41 50t-44 63.5t-42 68t-33 62.5q-5 -1 -11 -1h-123v-229l76 -4l-1 -10h-170zM166 544v-285h75 q35 0 60.5 2.5t45.5 7.5t36 14t32 22q17 20 26 40.5t9 49.5q0 33 -10 60t-31 47t-53.5 31t-76.5 11h-113zM365 -106q0 -17 -14 -41.5t-35 -46.5l-13 13q11 12 19.5 25t13.5 26q-11 0 -19.5 8.5t-8.5 19.5q0 12 8.5 20.5t19.5 8.5q12 0 20.5 -9t8.5 -24z" />
<glyph unicode="&#x158;" horiz-adv-x="682" d="M78 0l1 10l90 5v670l-96 5l1 10h262q54 0 94.5 -15t67.5 -42t41 -64.5t14 -82.5q0 -39 -13.5 -71t-37 -56t-56 -39.5t-71.5 -21.5q15 -35 37.5 -76.5t48 -82t51 -76t46.5 -58.5l68 -5l-1 -10h-79q-23 25 -49.5 63t-53 80.5t-50.5 85t-40 77.5q-6 -1 -13 -1h-151v-290 l92 -5l-1 -10h-202zM189 683v-360h92q43 0 74.5 2.5t55.5 9.5t43 18t39 28q20 25 31.5 51.5t11.5 62.5q0 41 -12.5 75.5t-38 59.5t-65 39t-93.5 14h-138zM439 952l18 -5l-121 -157h-20l-121 157l18 5l113 -140z" />
<glyph unicode="&#x159;" horiz-adv-x="581" d="M71 0l1 10l74 4v532l-79 4v10h220q89 0 135 -45.5t46 -117.5q0 -63 -41.5 -102t-105.5 -49q12 -27 30.5 -60t39.5 -65.5t42.5 -60.5t38.5 -46l56 -4l-1 -10h-67q-19 20 -41 50t-44 63.5t-42 68t-33 62.5q-5 -1 -11 -1h-123v-229l76 -4l-1 -10h-170zM166 544v-285h75 q35 0 60.5 2.5t45.5 7.5t36 14t32 22q17 20 26 40.5t9 49.5q0 33 -10 60t-31 47t-53.5 31t-76.5 11h-113zM397 812l18 -5l-121 -157h-20l-121 157l18 5l113 -140z" />
<glyph unicode="&#x15a;" horiz-adv-x="608" d="M325 708q44 0 78.5 -6t74.5 -17l4 -11l-13 -122l-15 1l6 116q-12 4 -29.5 8t-36 7t-37 4.5t-32.5 1.5q-38 0 -76.5 -10t-76.5 -34q-20 -22 -31 -46.5t-11 -57.5q0 -35 9 -59.5t30.5 -44t56 -36.5t85.5 -37q107 -42 152 -92t45 -119q0 -31 -13.5 -60.5t-41 -52t-68.5 -36 t-96 -13.5q-33 0 -59 2.5t-47.5 7.5t-40.5 12t-39 16l-3 13l17 182l15 -1l-12 -181q32 -14 74 -23.5t95 -9.5q38 0 78.5 10t79.5 36q20 24 30.5 47t10.5 51q0 30 -9 56.5t-30 50t-55.5 44.5t-85.5 40q-54 20 -92 40t-62 42.5t-35 50.5t-11 64q0 39 17 69.5t46 52t69 33 t85 11.5zM280 784l121 157l24 -5l-127 -157z" />
<glyph unicode="&#x15b;" horiz-adv-x="517" d="M276 567q38 0 66.5 -5t61.5 -14l4 -9l-12 -100l-14 1l5 93q-10 3 -24 6.5t-29.5 5.5t-30.5 3.5t-27 1.5q-31 0 -62.5 -7.5t-63.5 -26.5q-16 -17 -25 -36.5t-9 -45.5q0 -27 7.5 -46.5t25 -35t46 -29.5t70.5 -30q89 -34 126.5 -74t37.5 -95q0 -25 -11.5 -48.5t-34.5 -41.5 t-57 -29t-80 -11q-28 0 -49.5 2t-39.5 6t-34 9.5t-32 12.5l-3 11l15 146l15 -1l-10 -144q26 -11 60.5 -18.5t77.5 -7.5q31 0 64.5 8t65.5 28q17 19 25.5 37t8.5 40q0 48 -32.5 84.5t-116.5 66.5q-45 16 -76.5 32t-51.5 34.5t-29 41t-9 51.5q0 31 14 56t38.5 42t57.5 26.5 t71 9.5zM247 643l121 157l24 -5l-127 -157z" />
<glyph unicode="&#x15c;" horiz-adv-x="608" d="M325 708q44 0 78.5 -6t74.5 -17l4 -11l-13 -122l-15 1l6 116q-12 4 -29.5 8t-36 7t-37 4.5t-32.5 1.5q-38 0 -76.5 -10t-76.5 -34q-20 -22 -31 -46.5t-11 -57.5q0 -35 9 -59.5t30.5 -44t56 -36.5t85.5 -37q107 -42 152 -92t45 -119q0 -31 -13.5 -60.5t-41 -52t-68.5 -36 t-96 -13.5q-33 0 -59 2.5t-47.5 7.5t-40.5 12t-39 16l-3 13l17 182l15 -1l-12 -181q32 -14 74 -23.5t95 -9.5q38 0 78.5 10t79.5 36q20 24 30.5 47t10.5 51q0 30 -9 56.5t-30 50t-55.5 44.5t-85.5 40q-54 20 -92 40t-62 42.5t-35 50.5t-11 64q0 39 17 69.5t46 52t69 33 t85 11.5zM206 779l-18 5l121 157h20l121 -157l-18 -5l-113 140z" />
<glyph unicode="&#x15d;" horiz-adv-x="517" d="M276 567q38 0 66.5 -5t61.5 -14l4 -9l-12 -100l-14 1l5 93q-10 3 -24 6.5t-29.5 5.5t-30.5 3.5t-27 1.5q-31 0 -62.5 -7.5t-63.5 -26.5q-16 -17 -25 -36.5t-9 -45.5q0 -27 7.5 -46.5t25 -35t46 -29.5t70.5 -30q89 -34 126.5 -74t37.5 -95q0 -25 -11.5 -48.5t-34.5 -41.5 t-57 -29t-80 -11q-28 0 -49.5 2t-39.5 6t-34 9.5t-32 12.5l-3 11l15 146l15 -1l-10 -144q26 -11 60.5 -18.5t77.5 -7.5q31 0 64.5 8t65.5 28q17 19 25.5 37t8.5 40q0 48 -32.5 84.5t-116.5 66.5q-45 16 -76.5 32t-51.5 34.5t-29 41t-9 51.5q0 31 14 56t38.5 42t57.5 26.5 t71 9.5zM173 638l-18 5l121 157h20l121 -157l-18 -5l-113 140z" />
<glyph unicode="&#x15e;" horiz-adv-x="608" d="M325 708q44 0 78.5 -6t74.5 -17l4 -11l-13 -122l-15 1l6 116q-12 4 -29.5 8t-36 7t-37 4.5t-32.5 1.5q-38 0 -76.5 -10t-76.5 -34q-20 -22 -31 -46.5t-11 -57.5q0 -35 9 -59.5t30.5 -44t56 -36.5t85.5 -37q107 -42 152 -92t45 -119q0 -30 -12 -57.5t-37 -50t-62 -36.5 t-86 -17l-42 -64q37 0 57.5 -15.5t20.5 -36.5q0 -36 -25.5 -58.5t-67.5 -38.5l-7 17q37 13 58.5 31.5t21.5 46.5q0 17 -17.5 27.5t-55.5 10.5l-7 13l42 66q-33 0 -59 2.5t-47.5 7.5t-40.5 12t-39 16l-3 13l17 182l15 -1l-12 -181q32 -14 74 -23.5t95 -9.5q38 0 78.5 10 t79.5 36q20 24 30.5 47t10.5 51q0 30 -9 56.5t-30 50t-55.5 44.5t-85.5 40q-54 20 -92 40t-62 42.5t-35 50.5t-11 64q0 39 17 69.5t46 52t69 33t85 11.5z" />
<glyph unicode="&#x15f;" horiz-adv-x="517" d="M276 568q38 0 66.5 -5.5t61.5 -14.5l4 -9l-12 -100l-14 1l5 93q-10 3 -24 6.5t-29.5 5.5t-30.5 3.5t-27 1.5q-32 0 -64.5 -8t-64.5 -28q-16 -19 -23.5 -36.5t-7.5 -43.5q0 -27 7.5 -46.5t25 -35t46 -29.5t70.5 -30q89 -34 126.5 -74t37.5 -95q0 -24 -10 -46.5 t-30.5 -40.5t-51 -29.5t-70.5 -14.5l-42 -64q37 0 57.5 -15.5t20.5 -36.5q0 -36 -25.5 -58.5t-67.5 -38.5l-7 17q37 13 58.5 31.5t21.5 46.5q0 17 -17.5 27.5t-55.5 10.5l-7 13l42 66q-28 0 -49 2.5t-39 7t-34 10t-32 12.5l-3 11l15 146l15 -1l-10 -144q26 -11 60.5 -18.5 t77.5 -7.5q32 0 65 8t65 28q17 20 25.5 37.5t8.5 39.5q0 48 -32.5 84.5t-116.5 66.5q-45 16 -76.5 32t-51.5 34.5t-29 41t-9 51.5q0 31 14 56t38.5 42.5t57.5 27t71 9.5z" />
<glyph unicode="&#x160;" horiz-adv-x="608" d="M325 708q44 0 78.5 -6t74.5 -17l4 -11l-13 -122l-15 1l6 116q-12 4 -29.5 8t-36 7t-37 4.5t-32.5 1.5q-38 0 -76.5 -10t-76.5 -34q-20 -22 -31 -46.5t-11 -57.5q0 -35 9 -59.5t30.5 -44t56 -36.5t85.5 -37q107 -42 152 -92t45 -119q0 -31 -13.5 -60.5t-41 -52t-68.5 -36 t-96 -13.5q-33 0 -59 2.5t-47.5 7.5t-40.5 12t-39 16l-3 13l17 182l15 -1l-12 -181q32 -14 74 -23.5t95 -9.5q38 0 78.5 10t79.5 36q20 24 30.5 47t10.5 51q0 30 -9 56.5t-30 50t-55.5 44.5t-85.5 40q-54 20 -92 40t-62 42.5t-35 50.5t-11 64q0 39 17 69.5t46 52t69 33 t85 11.5zM433 952l18 -5l-121 -157h-20l-121 157l18 5l113 -140z" />
<glyph unicode="&#x161;" horiz-adv-x="517" d="M276 567q38 0 66.5 -5t61.5 -14l4 -9l-12 -100l-14 1l5 93q-10 3 -24 6.5t-29.5 5.5t-30.5 3.5t-27 1.5q-31 0 -62.5 -7.5t-63.5 -26.5q-16 -17 -25 -36.5t-9 -45.5q0 -27 7.5 -46.5t25 -35t46 -29.5t70.5 -30q89 -34 126.5 -74t37.5 -95q0 -25 -11.5 -48.5t-34.5 -41.5 t-57 -29t-80 -11q-28 0 -49.5 2t-39.5 6t-34 9.5t-32 12.5l-3 11l15 146l15 -1l-10 -144q26 -11 60.5 -18.5t77.5 -7.5q31 0 64.5 8t65.5 28q17 19 25.5 37t8.5 40q0 48 -32.5 84.5t-116.5 66.5q-45 16 -76.5 32t-51.5 34.5t-29 41t-9 51.5q0 31 14 56t38.5 42t57.5 26.5 t71 9.5zM400 811l18 -5l-121 -157h-20l-121 157l18 5l113 -140z" />
<glyph unicode="&#x162;" horiz-adv-x="612" d="M582 700l-3 -165l-12 1l-5 147h-246v-668l105 -5l-1 -10h-228l1 10l103 5v668h-247l-4 -148l-12 -1l-3 166h552zM334 -106q0 -17 -14 -41.5t-35 -46.5l-13 13q11 12 19.5 25t13.5 26q-11 0 -19.5 8.5t-8.5 19.5q0 12 8.5 20.5t19.5 8.5q12 0 20.5 -9t8.5 -24z" />
<glyph unicode="&#x163;" horiz-adv-x="523" d="M492 560l-3 -134l-12 1l-4 117h-201v-530l86 -4l-1 -10h-191l1 10l85 4v530h-202l-4 -118l-12 -1l-3 135h461zM302 -106q0 -17 -14 -41.5t-35 -46.5l-13 13q11 12 19.5 25t13.5 26q-11 0 -19.5 8.5t-8.5 19.5q0 12 8.5 20.5t19.5 8.5q12 0 20.5 -9t8.5 -24z" />
<glyph unicode="&#x164;" horiz-adv-x="612" d="M582 700l-3 -165l-12 1l-5 147h-246v-668l105 -5l-1 -10h-228l1 10l103 5v668h-247l-4 -148l-12 -1l-3 166h552zM420 952l18 -5l-121 -157h-20l-121 157l18 5l113 -140z" />
<glyph unicode="&#x165;" horiz-adv-x="523" d="M492 560l-3 -134l-12 1l-4 117h-201v-530l86 -4l-1 -10h-191l1 10l85 4v530h-202l-4 -118l-12 -1l-3 135h461zM381 806l18 -5l-121 -157h-20l-121 157l18 5l113 -140z" />
<glyph unicode="&#x166;" horiz-adv-x="612" d="M582 700l-3 -165l-12 1l-5 147h-246v-317h201v-18h-201v-333l105 -5l-1 -10h-228l1 10l103 5v333h-204v18h204v317h-247l-4 -148l-12 -1l-3 166h552z" />
<glyph unicode="&#x167;" horiz-adv-x="523" d="M492 560l-3 -134l-12 1l-4 117h-201v-271h162v-16h-162v-243l86 -4l-1 -10h-191l1 10l85 4v243h-162v16h162v271h-202l-4 -118l-12 -1l-3 135h461z" />
<glyph unicode="&#x168;" horiz-adv-x="771" d="M629 264q0 -66 -10.5 -117t-36.5 -85.5t-71 -52t-115 -17.5q-68 0 -113.5 18t-74 52.5t-40.5 85t-12 116.5v421l-90 5l1 10h195l-1 -10l-85 -5v-413q0 -65 10.5 -114t36 -82t68 -49.5t105.5 -16.5q54 0 94.5 12.5t73.5 40.5q12 18 21 38t15 44.5t8.5 55.5t2.5 71v413 l-85 5l1 10h189l-1 -10l-86 -5v-421zM213 834q23 28 45.5 48t39.5 20q16 0 43.5 -11l57.5 -24l57 -24t44 -11l64 65l14 -7q-9 -12 -20 -24.5t-22.5 -23.5t-22.5 -18t-20 -7q-22 0 -50.5 11l-58 23.5l-56 23.5t-44.5 11l-57 -60z" />
<glyph unicode="&#x169;" horiz-adv-x="654" d="M530 213q0 -54 -8.5 -94.5t-30.5 -68.5t-59.5 -42t-95.5 -14q-57 0 -95.5 14.5t-62 42.5t-33.5 68.5t-10 93.5v333l-74 4l1 10h164l-1 -10l-70 -4v-328q0 -52 8.5 -90.5t29.5 -64.5t56 -39t87 -13q44 0 77.5 9.5t60.5 31.5q10 15 17.5 30.5t12 35t7 44t2.5 56.5v328 l-71 4l1 10h159l-1 -10l-71 -4v-333zM159 694q23 28 45.5 48t39.5 20q16 0 43.5 -11l57.5 -24l57 -24t44 -11l64 65l14 -7q-9 -12 -20 -24.5t-22.5 -23.5t-22.5 -18t-20 -7q-22 0 -50.5 11l-58 23.5l-56 23.5t-44.5 11l-57 -60z" />
<glyph unicode="&#x16a;" horiz-adv-x="771" d="M629 264q0 -66 -10.5 -117t-36.5 -85.5t-71 -52t-115 -17.5q-68 0 -113.5 18t-74 52.5t-40.5 85t-12 116.5v421l-90 5l1 10h195l-1 -10l-85 -5v-413q0 -65 10.5 -114t36 -82t68 -49.5t105.5 -16.5q54 0 94.5 12.5t73.5 40.5q12 18 21 38t15 44.5t8.5 55.5t2.5 71v413 l-85 5l1 10h189l-1 -10l-86 -5v-421zM228 857h328v-18h-328v18z" />
<glyph unicode="&#x16b;" horiz-adv-x="654" d="M530 213q0 -54 -8.5 -94.5t-30.5 -68.5t-59.5 -42t-95.5 -14q-57 0 -95.5 14.5t-62 42.5t-33.5 68.5t-10 93.5v333l-74 4l1 10h164l-1 -10l-70 -4v-328q0 -52 8.5 -90.5t29.5 -64.5t56 -39t87 -13q44 0 77.5 9.5t60.5 31.5q10 15 17.5 30.5t12 35t7 44t2.5 56.5v328 l-71 4l1 10h159l-1 -10l-71 -4v-333zM174 717h328v-18h-328v18z" />
<glyph unicode="&#x16c;" horiz-adv-x="771" d="M629 264q0 -66 -10.5 -117t-36.5 -85.5t-71 -52t-115 -17.5q-68 0 -113.5 18t-74 52.5t-40.5 85t-12 116.5v421l-90 5l1 10h195l-1 -10l-85 -5v-413q0 -65 10.5 -114t36 -82t68 -49.5t105.5 -16.5q54 0 94.5 12.5t73.5 40.5q12 18 21 38t15 44.5t8.5 55.5t2.5 71v413 l-85 5l1 10h189l-1 -10l-86 -5v-421zM296 914q6 -42 32 -64t67 -22q36 0 62 20.5t36 65.5h14l3 -10q-11 -43 -42 -68.5t-73 -25.5q-45 0 -77.5 25t-40.5 70l3 9h16z" />
<glyph unicode="&#x16d;" horiz-adv-x="654" d="M530 213q0 -54 -8.5 -94.5t-30.5 -68.5t-59.5 -42t-95.5 -14q-57 0 -95.5 14.5t-62 42.5t-33.5 68.5t-10 93.5v333l-74 4l1 10h164l-1 -10l-70 -4v-328q0 -52 8.5 -90.5t29.5 -64.5t56 -39t87 -13q44 0 77.5 9.5t60.5 31.5q10 15 17.5 30.5t12 35t7 44t2.5 56.5v328 l-71 4l1 10h159l-1 -10l-71 -4v-333zM242 774q6 -42 32 -64t67 -22q36 0 62 20.5t36 65.5h14l3 -10q-11 -43 -42 -68.5t-73 -25.5q-45 0 -77.5 25t-40.5 70l3 9h16z" />
<glyph unicode="&#x16e;" horiz-adv-x="771" d="M629 264q0 -66 -10.5 -117t-36.5 -85.5t-71 -52t-115 -17.5q-68 0 -113.5 18t-74 52.5t-40.5 85t-12 116.5v421l-90 5l1 10h195l-1 -10l-85 -5v-413q0 -65 10.5 -114t36 -82t68 -49.5t105.5 -16.5q54 0 94.5 12.5t73.5 40.5q12 18 21 38t15 44.5t8.5 55.5t2.5 71v413 l-85 5l1 10h189l-1 -10l-86 -5v-421zM313 868q0 35 23.5 58.5t58.5 23.5t58.5 -23.5t23.5 -58.5t-23.5 -58.5t-58.5 -23.5t-58.5 23.5t-23.5 58.5zM331 867q0 -26 19 -45t45 -19t45 19t19 45q0 24 -19 44t-45 20t-45 -19t-19 -45z" />
<glyph unicode="&#x16f;" horiz-adv-x="654" d="M259 728q0 35 23.5 58.5t58.5 23.5t58.5 -23.5t23.5 -58.5t-23.5 -58.5t-58.5 -23.5t-58.5 23.5t-23.5 58.5zM277 727q0 -26 19 -45t45 -19t45 19t19 45q0 24 -19 44t-45 20t-45 -19t-19 -45zM530 213q0 -54 -8.5 -94.5t-30.5 -68.5t-59.5 -42t-95.5 -14 q-57 0 -95.5 14.5t-62 42.5t-33.5 68.5t-10 93.5v333l-74 4l1 10h164l-1 -10l-70 -4v-328q0 -52 8.5 -90.5t29.5 -64.5t56 -39t87 -13q44 0 77.5 9.5t60.5 31.5q10 15 17.5 30.5t12 35t7 44t2.5 56.5v328l-71 4l1 10h159l-1 -10l-71 -4v-333z" />
<glyph unicode="&#x170;" horiz-adv-x="771" d="M629 264q0 -66 -10.5 -117t-36.5 -85.5t-71 -52t-115 -17.5q-68 0 -113.5 18t-74 52.5t-40.5 85t-12 116.5v421l-90 5l1 10h195l-1 -10l-85 -5v-413q0 -65 10.5 -114t36 -82t68 -49.5t105.5 -16.5q54 0 94.5 12.5t73.5 40.5q12 18 21 38t15 44.5t8.5 55.5t2.5 71v413 l-85 5l1 10h189l-1 -10l-86 -5v-421zM297 781l91 161l26 -4l-99 -160zM448 784l121 157l24 -5l-126 -156z" />
<glyph unicode="&#x171;" horiz-adv-x="654" d="M530 213q0 -54 -8.5 -94.5t-30.5 -68.5t-59.5 -42t-95.5 -14q-57 0 -95.5 14.5t-62 42.5t-33.5 68.5t-10 93.5v333l-74 4l1 10h164l-1 -10l-70 -4v-328q0 -52 8.5 -90.5t29.5 -64.5t56 -39t87 -13q44 0 77.5 9.5t60.5 31.5q10 15 17.5 30.5t12 35t7 44t2.5 56.5v328 l-71 4l1 10h159l-1 -10l-71 -4v-333zM243 641l91 161l26 -4l-99 -160zM394 644l121 157l24 -5l-126 -156z" />
<glyph unicode="&#x172;" horiz-adv-x="771" d="M629 317q0 -68 -4.5 -122.5t-20.5 -94.5t-47.5 -65.5t-84.5 -35.5q-29 -32 -44 -58.5t-17 -60.5q8 -17 22.5 -22t38.5 -9q0 -3 -0.5 -6.5t-0.5 -6.5q-41 0 -58.5 14.5t-17.5 34.5q0 32 16 59t38 51q-26 -3 -53 -3q-85 0 -133 25t-72 73.5t-29.5 118.5t-5.5 160v316l-90 5 l1 10h195l-1 -10l-85 -5v-413q0 -65 10.5 -114t36 -82t68 -49.5t105.5 -16.5q54 0 94.5 12.5t73.5 40.5q12 18 21 38t15 44.5t8.5 55.5t2.5 71v413l-85 5l1 10h189l-1 -10l-86 -5v-368z" />
<glyph unicode="&#x173;" horiz-adv-x="654" d="M530 213q0 -81 -21 -133.5t-79 -73.5q-28 -31 -42 -57t-16 -59q8 -17 22.5 -22t38.5 -9l-1 -13q-41 0 -58.5 14.5t-17.5 34.5q0 29 13 54t34 49q-29 -6 -67 -6q-57 0 -95.5 15t-62 43t-33.5 69t-10 94v333l-74 4l1 10h164l-1 -10l-70 -4v-328q0 -52 8.5 -91t29.5 -65.5 t56 -39.5t87 -13q44 0 77 10.5t62 33.5q20 29 29 65.5t9 99.5v328l-71 4l1 10h159l-1 -10l-71 -4v-333z" />
<glyph unicode="&#x174;" horiz-adv-x="1092" d="M758 0h-32l-189 536l-184 -536h-32l-231 685l-80 5l1 10h200l-1 -10l-98 -5l225 -669h1l189 549l-42 120l-89 5l1 10h233l-1 -10l-122 -5l235 -669h2l229 669l-106 5l1 10h214l-1 -10l-88 -5zM406 779l-18 5l121 157h20l121 -157l-18 -5l-113 140z" />
<glyph unicode="&#x175;" horiz-adv-x="922" d="M639 0h-30l-155 423l-152 -423h-30l-191 546l-66 4l1 10h168l-1 -10l-80 -4l185 -529h1l155 433l-35 96l-73 4l1 10h195l-1 -10l-100 -4l193 -530h2l188 530l-87 4l1 10h179l-1 -10l-73 -4zM328 639l-18 5l121 157h20l121 -157l-18 -5l-113 140z" />
<glyph unicode="&#x176;" horiz-adv-x="675" d="M220 0l1 10l102 5v289l-233 381l-80 5l1 10h203l-1 -10l-99 -5l220 -360h2l228 360l-93 5l1 10h193l-1 -10l-79 -5l-242 -383v-287l95 -5l-1 -10h-217zM228 779l-18 5l121 157h20l121 -157l-18 -5l-113 140z" />
<glyph unicode="&#x177;" horiz-adv-x="576" d="M189 0l1 10l84 4v228l-193 304l-66 4l1 10h171l-1 -10l-81 -4l180 -285h2l188 285l-77 4l1 10h162l-1 -10l-66 -4l-200 -306v-226l79 -4l-1 -10h-183zM185 639l-18 5l121 157h20l121 -157l-18 -5l-113 140z" />
<glyph unicode="&#x178;" horiz-adv-x="675" d="M220 0l1 10l102 5v289l-233 381l-80 5l1 10h203l-1 -10l-99 -5l220 -360h2l228 360l-93 5l1 10h193l-1 -10l-79 -5l-242 -383v-287l95 -5l-1 -10h-217zM211 861q0 9 8 18.5t19 9.5t20 -9.5t9 -19.5t-9 -19t-19 -9q-11 0 -19.5 9t-8.5 20zM421 861q0 9 8 18.5t19 9.5 t20 -9.5t9 -19.5t-9 -19t-19 -9q-11 0 -19.5 9t-8.5 20z" />
<glyph unicode="&#x179;" horiz-adv-x="722" d="M92 0l-2 19l518 663h-474l-5 -171l-14 1l-7 188h521l3 -19l-517 -663h486l8 174l14 -1l1 -191h-532zM331 784l121 157l24 -5l-127 -157z" />
<glyph unicode="&#x17a;" horiz-adv-x="611" d="M82 0l-2 17l428 526h-388l-5 -136l-14 1l-6 152h434l2 -17l-426 -526h398l7 138h14l1 -155h-443zM270 644l121 157l24 -5l-127 -157z" />
<glyph unicode="&#x17b;" horiz-adv-x="722" d="M92 0l-2 19l518 663h-474l-5 -171l-14 1l-7 188h521l3 -19l-517 -663h486l8 174l14 -1l1 -191h-532zM407 860q0 -15 -11 -26t-26 -11t-26 11t-11 26t11 26t26 11t26 -11t11 -26z" />
<glyph unicode="&#x17c;" horiz-adv-x="611" d="M82 0l-2 17l428 526h-388l-5 -136l-14 1l-6 152h434l2 -17l-426 -526h398l7 138h14l1 -155h-443zM346 720q0 -15 -11 -26t-26 -11t-26 11t-11 26t11 26t26 11t26 -11t11 -26z" />
<glyph unicode="&#x17d;" horiz-adv-x="722" d="M92 0l-2 19l518 663h-474l-5 -171l-14 1l-7 188h521l3 -19l-517 -663h486l8 174l14 -1l1 -191h-532zM484 952l18 -5l-121 -157h-20l-121 157l18 5l113 -140z" />
<glyph unicode="&#x17e;" horiz-adv-x="611" d="M82 0l-2 17l428 526h-388l-5 -136l-14 1l-6 152h434l2 -17l-426 -526h398l7 138h14l1 -155h-443zM423 812l18 -5l-121 -157h-20l-121 157l18 5l113 -140z" />
<glyph unicode="&#x192;" horiz-adv-x="374" d="M174 480h162v-13l-164 -5l-72 -592h-20l71 592l-114 5l1 13h115l8 63q11 91 48 144t112 53q61 0 112 -22l-6 -19h-6q-45 22 -100 22q-21 0 -39.5 -4t-44.5 -20q-24 -29 -36.5 -64t-19.5 -94z" />
<glyph unicode="&#x1fc;" horiz-adv-x="913" d="M397 0l1 10l94 5v213h-307l-81 -213l100 -5l-1 -10h-198l1 10l78 5l263 685h496l-3 -162l-12 1l-6 145h-310v-322h216l9 93l12 -1v-194l-12 1l-9 85h-216v-330h327l5 149l12 -1l2 -164h-461zM192 246h300v438h-132zM530 784l121 157l24 -5l-127 -157z" />
<glyph unicode="&#x1fd;" horiz-adv-x="785" d="M440 644l121 157l24 -5l-127 -157zM347 0l1 10l78 4v168h-253l-66 -168l82 -4l-1 -10h-166l1 10l65 4l217 546h415l-2 -131l-13 1l-5 115h-254v-254h176l7 74l12 -1v-157l-12 1l-7 68h-176v-261h268l4 119l13 -1l2 -133h-386zM180 199h246v346h-109z" />
<glyph unicode="&#x1fe;" horiz-adv-x="794" d="M304 784l121 157l24 -5l-127 -157zM392 708q66 0 118 -17.5t93 -49.5l83 121l16 -11l-84 -122q53 -48 79.5 -119.5t26.5 -159.5q0 -86 -23 -152.5t-65.5 -112t-104 -69.5t-138.5 -24q-51 0 -95.5 13t-82.5 38l-70 -102l-17 12l70 102q-59 45 -93.5 117.5t-34.5 168.5 q0 84 24 152t67 115.5t102 73.5t129 26zM390 688q-63 0 -110.5 -19t-92.5 -54q-20 -24 -38 -52t-31 -61t-20.5 -73t-7.5 -89q0 -88 32.5 -156t88.5 -111l380 552q-38 30 -88 46.5t-113 16.5zM704 349q0 83 -24.5 150t-73.5 112l-378 -550q72 -49 165 -49q76 0 130 21.5 t102 62.5q35 50 57 109.5t22 143.5z" />
<glyph unicode="&#x1ff;" horiz-adv-x="672" d="M301 644l121 157l24 -5l-127 -157zM171 42q-50 36 -78.5 95t-28.5 136q0 67 20 122t56 93t85 59t107 21q54 0 97 -13.5t76 -38.5l67 95l16 -10l-68 -97q43 -38 65.5 -95.5t22.5 -128.5q0 -68 -19 -121.5t-54.5 -90.5t-86.5 -56.5t-115 -19.5q-41 0 -77.5 10t-67.5 29 l-57 -80l-17 10zM331 549q-55 0 -94.5 -16.5t-78.5 -46.5q-32 -40 -53 -90t-21 -124q0 -69 27 -123.5t72 -89.5l311 441q-31 23 -71.5 36t-91.5 13zM588 279q0 66 -20 119.5t-59 89.5l-310 -441q59 -37 134 -37q59 0 104.5 18t84.5 50q30 42 48 88.5t18 112.5z" />
<glyph unicode="&#x218;" horiz-adv-x="608" d="M325 708q44 0 78.5 -6t74.5 -17l4 -11l-13 -122l-15 1l6 116q-12 4 -29.5 8t-36 7t-37 4.5t-32.5 1.5q-38 0 -76.5 -10t-76.5 -34q-20 -22 -31 -46.5t-11 -57.5q0 -35 9 -59.5t30.5 -44t56 -36.5t85.5 -37q107 -42 152 -92t45 -119q0 -31 -13.5 -60.5t-41 -52t-68.5 -36 t-96 -13.5q-33 0 -59 2.5t-47.5 7.5t-40.5 12t-39 16l-3 13l17 182l15 -1l-12 -181q32 -14 74 -23.5t95 -9.5q38 0 78.5 10t79.5 36q20 24 30.5 47t10.5 51q0 30 -9 56.5t-30 50t-55.5 44.5t-85.5 40q-54 20 -92 40t-62 42.5t-35 50.5t-11 64q0 39 17 69.5t46 52t69 33 t85 11.5zM329 -106q0 -17 -14 -41.5t-35 -46.5l-13 13q11 12 19.5 25t13.5 26q-11 0 -19.5 8.5t-8.5 19.5q0 12 8.5 20.5t19.5 8.5q12 0 20.5 -9t8.5 -24z" />
<glyph unicode="&#x219;" horiz-adv-x="517" d="M276 567q38 0 66.5 -5t61.5 -14l4 -9l-12 -100l-14 1l5 93q-10 3 -24 6.5t-29.5 5.5t-30.5 3.5t-27 1.5q-31 0 -62.5 -7.5t-63.5 -26.5q-16 -17 -25 -36.5t-9 -45.5q0 -27 7.5 -46.5t25 -35t46 -29.5t70.5 -30q89 -34 126.5 -74t37.5 -95q0 -25 -11.5 -48.5t-34.5 -41.5 t-57 -29t-80 -11q-28 0 -49.5 2t-39.5 6t-34 9.5t-32 12.5l-3 11l15 146l15 -1l-10 -144q26 -11 60.5 -18.5t77.5 -7.5q31 0 64.5 8t65.5 28q17 19 25.5 37t8.5 40q0 48 -32.5 84.5t-116.5 66.5q-45 16 -76.5 32t-51.5 34.5t-29 41t-9 51.5q0 31 14 56t38.5 42t57.5 26.5 t71 9.5zM304 -106q0 -17 -14 -41.5t-35 -46.5l-13 13q11 12 19.5 25t13.5 26q-11 0 -19.5 8.5t-8.5 19.5q0 12 8.5 20.5t19.5 8.5q12 0 20.5 -9t8.5 -24z" />
<glyph unicode="&#x21a;" horiz-adv-x="612" d="M582 700l-3 -165l-12 1l-5 147h-246v-668l105 -5l-1 -10h-228l1 10l103 5v668h-247l-4 -148l-12 -1l-3 166h552zM334 -106q0 -17 -14 -41.5t-35 -46.5l-13 13q11 12 19.5 25t13.5 26q-11 0 -19.5 8.5t-8.5 19.5q0 12 8.5 20.5t19.5 8.5q12 0 20.5 -9t8.5 -24z" />
<glyph unicode="&#x21b;" horiz-adv-x="523" d="M492 560l-3 -134l-12 1l-4 117h-201v-530l86 -4l-1 -10h-191l1 10l85 4v530h-202l-4 -118l-12 -1l-3 135h461zM300 -106q0 -17 -14 -41.5t-35 -46.5l-13 13q11 12 19.5 25t13.5 26q-11 0 -19.5 8.5t-8.5 19.5q0 12 8.5 20.5t19.5 8.5q12 0 20.5 -9t8.5 -24z" />
<glyph unicode="&#x237;" d="M152 546l-82 4l1 10h184l-1 -10l-80 -4v-484q0 -28 -4 -50t-14.5 -41.5t-28 -37t-43.5 -36.5l-9 10q44 34 60.5 67t16.5 83v489z" />
<glyph unicode="&#x2c6;" horiz-adv-x="483" d="M128 559l-18 5l121 157h20l121 -157l-18 -5l-113 140z" />
<glyph unicode="&#x2c7;" horiz-adv-x="483" d="M355 732l18 -5l-121 -157h-20l-121 157l18 5l113 -140z" />
<glyph unicode="&#x2d8;" horiz-adv-x="464" d="M133 694q6 -42 32 -64t67 -22q36 0 62 20.5t36 65.5h14l3 -10q-11 -43 -42 -68.5t-73 -25.5q-45 0 -77.5 25t-40.5 70l3 9h16z" />
<glyph unicode="&#x2d9;" horiz-adv-x="270" d="M172 640q0 -15 -11 -26t-26 -11t-26 11t-11 26t11 26t26 11t26 -11t11 -26z" />
<glyph unicode="&#x2da;" horiz-adv-x="406" d="M121 648q0 35 23.5 58.5t58.5 23.5t58.5 -23.5t23.5 -58.5t-23.5 -58.5t-58.5 -23.5t-58.5 23.5t-23.5 58.5zM139 647q0 -26 19 -45t45 -19t45 19t19 45q0 24 -19 44t-45 20t-45 -19t-19 -45z" />
<glyph unicode="&#x2db;" horiz-adv-x="548" d="M498 0q-29 -32 -44 -58.5t-17 -60.5q8 -17 22.5 -22t38.5 -9q0 -3 -0.5 -6.5t-0.5 -6.5q-41 0 -58.5 14.5t-17.5 34.5q0 34 18.5 64t47.5 59z" />
<glyph unicode="&#x2dc;" horiz-adv-x="582" d="M105 614q23 28 45.5 48t39.5 20q16 0 43.5 -11l57.5 -24l57 -24t44 -11l64 65l14 -7q-9 -12 -20 -24.5t-22.5 -23.5t-22.5 -18t-20 -7q-22 0 -50.5 11l-58 23.5l-56 23.5t-44.5 11l-57 -60z" />
<glyph unicode="&#x2dd;" horiz-adv-x="538" d="M118 561l91 161l26 -4l-99 -160zM269 564l121 157l24 -5l-126 -156z" />
<glyph unicode="&#x394;" horiz-adv-x="705" d="M346 700h33l259 -684l80 -6l-1 -10h-707l1 10l78 5zM110 18h506l-252 666h-5z" />
<glyph unicode="&#x3a9;" horiz-adv-x="814" d="M42 153l18 1l5 -137h253q-52 17 -96.5 48.5t-77 75t-51 98.5t-18.5 118q0 79 23.5 144t65.5 111t99.5 71t125.5 25q79 0 139.5 -25.5t101.5 -72t62 -110.5t21 -141q0 -72 -18.5 -129t-51 -99t-77.5 -70t-98 -44h280l2 136l18 1l6 -154h-365v25q56 2 106 28t95 62 q17 25 32 50.5t26 55t17.5 63t6.5 74.5q0 73 -19.5 133.5t-58 104t-95.5 68t-132 24.5q-62 0 -107.5 -18.5t-89.5 -53.5q-40 -47 -67.5 -109t-27.5 -153q0 -62 20.5 -117t57 -98.5t87 -73t111.5 -40.5v-25h-331z" />
<glyph unicode="&#x3bc;" horiz-adv-x="627" d="M65 -230l1 10l72 5v677h-88v10l81 8h23l4 -32v-274q0 -41 11 -72t30 -51.5t44 -30.5t54 -10q35 0 66 6t66 23q17 15 31 30.5t28 35.5v357h-88v10l80 8h25l3 -31v-434l79 -5l-1 -10h-92l-6 76q-29 -37 -77 -60.5t-114 -23.5q-46 0 -82.5 21t-56.5 61v-289l80 -5l-1 -10 h-172z" />
<glyph unicode="&#x3c0;" horiz-adv-x="636" d="M394 0l1 10l73 5v447h-301v-447l79 -5l-1 -10h-184l1 10l85 5v450l-87 5l1 10h515l-1 -10l-87 -5v-450l87 -5l-1 -10h-180z" />
<glyph unicode="&#x1e80;" horiz-adv-x="1092" d="M758 0h-32l-189 536l-184 -536h-32l-231 685l-80 5l1 10h200l-1 -10l-98 -5l225 -669h1l189 549l-42 120l-89 5l1 10h233l-1 -10l-122 -5l235 -669h2l229 669l-106 5l1 10h214l-1 -10l-88 -5zM545 779l-127 157l24 5l121 -157z" />
<glyph unicode="&#x1e81;" horiz-adv-x="922" d="M639 0h-30l-155 423l-152 -423h-30l-191 546l-66 4l1 10h168l-1 -10l-80 -4l185 -529h1l155 433l-35 96l-73 4l1 10h195l-1 -10l-100 -4l193 -530h2l188 530l-87 4l1 10h179l-1 -10l-73 -4zM467 639l-127 157l24 5l121 -157z" />
<glyph unicode="&#x1e82;" horiz-adv-x="1092" d="M758 0h-32l-189 536l-184 -536h-32l-231 685l-80 5l1 10h200l-1 -10l-98 -5l225 -669h1l189 549l-42 120l-89 5l1 10h233l-1 -10l-122 -5l235 -669h2l229 669l-106 5l1 10h214l-1 -10l-88 -5zM480 784l121 157l24 -5l-127 -157z" />
<glyph unicode="&#x1e83;" horiz-adv-x="922" d="M639 0h-30l-155 423l-152 -423h-30l-191 546l-66 4l1 10h168l-1 -10l-80 -4l185 -529h1l155 433l-35 96l-73 4l1 10h195l-1 -10l-100 -4l193 -530h2l188 530l-87 4l1 10h179l-1 -10l-73 -4zM402 644l121 157l24 -5l-127 -157z" />
<glyph unicode="&#x1e84;" horiz-adv-x="1092" d="M758 0h-32l-189 536l-184 -536h-32l-231 685l-80 5l1 10h200l-1 -10l-98 -5l225 -669h1l189 549l-42 120l-89 5l1 10h233l-1 -10l-122 -5l235 -669h2l229 669l-106 5l1 10h214l-1 -10l-88 -5zM389 861q0 9 8 18.5t19 9.5t20 -9.5t9 -19.5t-9 -19t-19 -9q-11 0 -19.5 9 t-8.5 20zM599 861q0 9 8 18.5t19 9.5t20 -9.5t9 -19.5t-9 -19t-19 -9q-11 0 -19.5 9t-8.5 20z" />
<glyph unicode="&#x1e85;" horiz-adv-x="922" d="M639 0h-30l-155 423l-152 -423h-30l-191 546l-66 4l1 10h168l-1 -10l-80 -4l185 -529h1l155 433l-35 96l-73 4l1 10h195l-1 -10l-100 -4l193 -530h2l188 530l-87 4l1 10h179l-1 -10l-73 -4zM311 721q0 9 8 18.5t19 9.5t20 -9.5t9 -19.5t-9 -19t-19 -9q-11 0 -19.5 9 t-8.5 20zM521 721q0 9 8 18.5t19 9.5t20 -9.5t9 -19.5t-9 -19t-19 -9q-11 0 -19.5 9t-8.5 20z" />
<glyph unicode="&#x1ef2;" horiz-adv-x="675" d="M220 0l1 10l102 5v289l-233 381l-80 5l1 10h203l-1 -10l-99 -5l220 -360h2l228 360l-93 5l1 10h193l-1 -10l-79 -5l-242 -383v-287l95 -5l-1 -10h-217zM367 779l-127 157l24 5l121 -157z" />
<glyph unicode="&#x1ef3;" horiz-adv-x="576" d="M189 0l1 10l84 4v228l-193 304l-66 4l1 10h171l-1 -10l-81 -4l180 -285h2l188 285l-77 4l1 10h162l-1 -10l-66 -4l-200 -306v-226l79 -4l-1 -10h-183zM324 639l-127 157l24 5l121 -157z" />
<glyph unicode="&#x2000;" horiz-adv-x="476" />
<glyph unicode="&#x2001;" horiz-adv-x="952" />
<glyph unicode="&#x2002;" horiz-adv-x="476" />
<glyph unicode="&#x2003;" horiz-adv-x="952" />
<glyph unicode="&#x2004;" horiz-adv-x="317" />
<glyph unicode="&#x2005;" horiz-adv-x="238" />
<glyph unicode="&#x2006;" horiz-adv-x="158" />
<glyph unicode="&#x2007;" horiz-adv-x="158" />
<glyph unicode="&#x2008;" horiz-adv-x="119" />
<glyph unicode="&#x2009;" horiz-adv-x="190" />
<glyph unicode="&#x200a;" horiz-adv-x="52" />
<glyph unicode="&#x2010;" horiz-adv-x="445" d="M70 274h305v-20h-305v20z" />
<glyph unicode="&#x2011;" horiz-adv-x="445" d="M70 274h305v-20h-305v20z" />
<glyph unicode="&#x2013;" horiz-adv-x="565" d="M70 274h425v-20h-425v20z" />
<glyph unicode="&#x2014;" horiz-adv-x="705" d="M70 274h565v-20h-565v20z" />
<glyph unicode="&#x2018;" horiz-adv-x="242" d="M99.0088 672.002q0 16.998 13.999 41.4971q14 24.498 34.998 46.4971l12.999 -12.999q-10.999 -11.999 -19.498 -24.999q-8.5 -12.999 -13.499 -25.998q10.999 0 19.498 -8.49902q8.5 -8.5 8.5 -19.499q0 -12 -8.5 -20.499q-8.49902 -8.49902 -19.498 -8.49902 q-12 0 -20.499 8.99902q-8.5 8.99902 -8.5 23.999z" />
<glyph unicode="&#x2019;" horiz-adv-x="242" d="M149 668q0 -17 -14 -41.5t-35 -46.5l-13 13q11 12 19.5 25t13.5 26q-11 0 -19.5 8.5t-8.5 19.5q0 12 8.5 20.5t19.5 8.5q12 0 20.5 -9t8.5 -24z" />
<glyph unicode="&#x201a;" horiz-adv-x="242" d="M149 24q0 -17 -14 -41.5t-35 -46.5l-13 13q11 12 19.5 25t13.5 26q-11 0 -19.5 8.5t-8.5 19.5q0 12 8.5 20.5t19.5 8.5q12 0 20.5 -9t8.5 -24z" />
<glyph unicode="&#x201c;" horiz-adv-x="339" d="M87.0088 674.002q0 16.998 13.999 41.4971q14 24.498 34.998 46.4971l12.999 -12.999q-10.999 -11.999 -19.498 -24.999q-8.5 -12.999 -13.499 -25.998q10.999 0 19.498 -8.49902q8.5 -8.5 8.5 -19.499q0 -12 -8.5 -20.499q-8.49902 -8.49902 -19.498 -8.49902 q-12 0 -20.499 8.99902q-8.5 8.99902 -8.5 23.999zM183.009 674.002q0 16.998 13.999 41.4971q14 24.498 34.998 46.4971l12.999 -12.999q-10.999 -11.999 -19.498 -24.999q-8.5 -12.999 -13.499 -25.998q10.999 0 19.498 -8.49902q8.5 -8.5 8.5 -19.499q0 -12 -8.5 -20.499 q-8.49902 -8.49902 -19.498 -8.49902q-12 0 -20.499 8.99902q-8.5 8.99902 -8.5 23.999z" />
<glyph unicode="&#x201d;" horiz-adv-x="339" d="M149 667q0 -17 -14 -41.5t-35 -46.5l-13 13q11 12 19.5 25t13.5 26q-11 0 -19.5 8.5t-8.5 19.5q0 12 8.5 20.5t19.5 8.5q12 0 20.5 -9t8.5 -24zM245 667q0 -17 -14 -41.5t-35 -46.5l-13 13q11 12 19.5 25t13.5 26q-11 0 -19.5 8.5t-8.5 19.5q0 12 8.5 20.5t19.5 8.5 q12 0 20.5 -9t8.5 -24z" />
<glyph unicode="&#x201e;" horiz-adv-x="339" d="M149 24q0 -17 -14 -41.5t-35 -46.5l-13 13q11 12 19.5 25t13.5 26q-11 0 -19.5 8.5t-8.5 19.5q0 12 8.5 20.5t19.5 8.5q12 0 20.5 -9t8.5 -24zM245 24q0 -17 -14 -41.5t-35 -46.5l-13 13q11 12 19.5 25t13.5 26q-11 0 -19.5 8.5t-8.5 19.5q0 12 8.5 20.5t19.5 8.5 q12 0 20.5 -9t8.5 -24z" />
<glyph unicode="&#x2020;" horiz-adv-x="405" d="M50 556h143v194h20v-194h142v-20h-142v-606h-20v606h-143v20z" />
<glyph unicode="&#x2021;" horiz-adv-x="405" d="M50 556h143v194h20v-194h142v-20h-142v-359h142v-20h-142v-227h-20v227h-143v20h143v359h-143v20z" />
<glyph unicode="&#x2022;" horiz-adv-x="298" d="M182.698 224.399q0 -14.2998 -11.0498 -25.3496t-26.6504 -11.0498q-14.2998 0 -25.3496 11.0498t-11.0498 25.3496q0 15.6006 11.0498 26.6504t25.3496 11.0498q15.6006 0 26.6504 -11.0498t11.0498 -26.6504z" />
<glyph unicode="&#x2026;" horiz-adv-x="481" d="M269 28q0 -11 -8.5 -19.5t-20.5 -8.5q-11 0 -19.5 8.5t-8.5 19.5q0 12 8.5 20.5t19.5 8.5q12 0 20.5 -8.5t8.5 -20.5zM391 28q0 -11 -8.5 -19.5t-20.5 -8.5q-11 0 -19.5 8.5t-8.5 19.5q0 12 8.5 20.5t19.5 8.5q12 0 20.5 -8.5t8.5 -20.5zM148 28q0 -11 -8.5 -19.5 t-20.5 -8.5q-11 0 -19.5 8.5t-8.5 19.5q0 12 8.5 20.5t19.5 8.5q12 0 20.5 -8.5t8.5 -20.5z" />
<glyph unicode="&#x202f;" horiz-adv-x="190" />
<glyph unicode="&#x2030;" horiz-adv-x="1522" d="M269 708q47 0 83 -14.5t61 -40.5t37.5 -62.5t12.5 -80.5q0 -95 -51 -147.5t-142 -52.5q-41 0 -75.5 14t-60 39.5t-40 61.5t-14.5 80q0 47 14 84.5t39 64t60 40.5t76 14zM795 392q47 0 83 -14.5t61 -40.5t37.5 -62.5t12.5 -80.5q0 -95 -51 -147.5t-142 -52.5 q-41 0 -75.5 14t-60 39.5t-40 61.5t-14.5 80q0 47 14 84.5t39 64t60 40.5t76 14zM690 723l16 -8l-331 -737l-17 7zM794 375q-35 0 -61 -9.5t-52 -26.5q-23 -27 -39 -62.5t-16 -88.5q0 -39 13 -71.5t36 -56t54 -36.5t67 -13q43 0 73 11t56 33q20 27 32 60t12 78 q0 40 -11 73.5t-33 57.5t-55 37.5t-76 13.5zM268 691q-35 0 -61 -9.5t-52 -26.5q-23 -27 -39 -62.5t-16 -88.5q0 -39 13 -71.5t36 -56t54 -36.5t67 -13q43 0 73 11t56 33q20 27 32 60t12 78q0 40 -11 73.5t-33 57.5t-55 37.5t-76 13.5zM1248 392q47 0 83 -14.5t61 -40.5 t37.5 -62.5t12.5 -80.5q0 -95 -51 -147.5t-142 -52.5q-41 0 -75.5 14t-60 39.5t-40 61.5t-14.5 80q0 47 14 84.5t39 64t60 40.5t76 14zM1247 375q-35 0 -61 -9.5t-52 -26.5q-23 -27 -39 -62.5t-16 -88.5q0 -39 13 -71.5t36 -56t54 -36.5t67 -13q43 0 73 11t56 33 q20 27 32 60t12 78q0 40 -11 73.5t-33 57.5t-55 37.5t-76 13.5z" />
<glyph unicode="&#x2039;" horiz-adv-x="338" d="M251.005 1.0293l-49.4961 61.9961l-46.498 58.4961l-46.9971 55.9971q-23.998 27.498 -51.9961 54.4971v16.998q52.9961 54.9971 97.4941 110.994l97.4932 118.992l14 -9.99902l-84.9951 -105.994l-104.994 -122.992l104.994 -118.993l85.9941 -108.993z" />
<glyph unicode="&#x203a;" horiz-adv-x="338" d="M87 479l49.5 -62l46.5 -58.5l47 -56t52 -54.5v-17q-53 -55 -97.5 -111l-97.5 -119l-14 10l85 106l105 123l-105 119l-86 109z" />
<glyph unicode="&#x2044;" horiz-adv-x="104" d="M213 723l16 -8l-331 -737l-17 7z" />
<glyph unicode="&#x205f;" horiz-adv-x="238" />
<glyph unicode="&#x2070;" horiz-adv-x="421" d="M216 700q74 0 108.5 -48t34.5 -161q0 -97 -34 -146.5t-109 -49.5q-72 0 -113.5 49.5t-41.5 146.5q0 113 42 161t113 48zM216 685q-24 0 -45 -6.5t-42 -18.5q-23 -28 -36.5 -66.5t-13.5 -103.5q0 -89 36.5 -134t100.5 -45q23 0 42 5t39 16q19 23 31.5 60t12.5 99 q0 104 -30.5 149t-94.5 45z" />
<glyph unicode="&#x2074;" horiz-adv-x="365" d="M173 300l1 10l60 3v88h-189l-2 15l47 141.5l47 142.5h17v-7l-94 -278h174v100l5 46h13v-146h70v-14h-70v-88l59 -3l-1 -10h-137z" />
<glyph unicode="&#x2075;" horiz-adv-x="377" d="M71 522l5 178h227l-1 -15h-209l-5 -158q17 5 39.5 8t46.5 3q30 0 56 -8t45 -23t30 -37.5t11 -52.5q0 -56 -39 -89t-110 -33q-34 0 -61 6.5t-51 19.5l6 13q25 -11 51 -17.5t55 -6.5q36 0 63 9.5t48 27.5q11 18 15.5 33t4.5 36q0 25 -9.5 45t-26.5 34t-40 21t-50 7 t-53.5 -4.5t-45.5 -9.5z" />
<glyph unicode="&#x2076;" horiz-adv-x="377" d="M210 685q-27 0 -52 -13t-44 -38t-30 -60t-11 -78q27 14 58.5 24t63.5 10q64 0 96.5 -31t32.5 -88q0 -54 -34 -85t-97 -31q-66 0 -102 49t-36 150q0 46 12 84t33 65t49 42t60 15q56 0 100 -19l-7 -14q-22 10 -44 14t-48 4zM193 515q-28 0 -59.5 -9t-60.5 -26 q2 -88 33.5 -129t87.5 -41q26 0 47.5 7t40.5 19q12 17 18 33.5t6 41.5q0 51 -29 77.5t-84 26.5z" />
<glyph unicode="&#x2077;" horiz-adv-x="352" d="M311 700l2 -13q-63 -91 -101.5 -189t-54.5 -198h-18l-1 8q18 93 55.5 191t97.5 186h-233l-2 -83l-13 1l-3 97h271z" />
<glyph unicode="&#x2078;" horiz-adv-x="372" d="M304 601q0 -35 -23.5 -62.5t-55.5 -41.5q67 -21 83 -67q6 -17 6 -35q0 -20 -7 -38t-22.5 -32t-40 -22t-58.5 -8q-65 0 -97 30t-32 74q0 41 27.5 66t63.5 38q-35 15 -57 40.5t-22 62.5q0 42 31.5 68t85.5 26q55 0 86.5 -29t31.5 -70zM190 490q-6 2 -11.5 3t-11.5 3 q-38 -13 -65 -36t-27 -61t28 -63.5t84 -25.5q27 0 48.5 7t41.5 19q11 16 15 29.5t4 27.5q0 42 -26 63t-80 34zM86 606q0 -39 29.5 -63.5t77.5 -36.5l12 -3q33 11 57 37t24 60q0 37 -26 61.5t-77 24.5q-19 0 -36.5 -4.5t-31 -14.5t-21.5 -25t-8 -36z" />
<glyph unicode="&#x2079;" horiz-adv-x="374" d="M169 310q37 0 61 16t38 41.5t19.5 58t5.5 64.5q-49 -25 -122 -25q-54 0 -89 28.5t-35 86.5t31 89t103 31q69 0 99.5 -55t30.5 -159q0 -88 -35.5 -139.5t-107.5 -51.5q-33 0 -59.5 7t-50.5 21l8 15q45 -28 103 -28zM173 479q34 0 65.5 6t54.5 19q-2 89 -28 136t-84 47 q-17 0 -32 -3q-47 -7 -65 -32.5t-18 -71.5q0 -51 29.5 -76t77.5 -25z" />
<glyph unicode="&#x2080;" horiz-adv-x="421" d="M216 271q74 0 108.5 -48t34.5 -161q0 -97 -34 -146.5t-109 -49.5q-72 0 -113.5 49.5t-41.5 146.5q0 113 42 161t113 48zM216 256q-24 0 -45 -6.5t-42 -18.5q-23 -28 -36.5 -66.5t-13.5 -103.5q0 -89 36.5 -134t100.5 -45q23 0 42 5t39 16q19 23 31.5 60t12.5 99 q0 104 -30.5 149t-94.5 45z" />
<glyph unicode="&#x2081;" horiz-adv-x="264" d="M63 -129l1 10l66 3v368l-91 -30l-4 12l102 37l12 -1v-386l61 -3l-1 -10h-146z" />
<glyph unicode="&#x2082;" horiz-adv-x="378" d="M50 -129l-1 19q33 22 75 53t80 66t64 74t26 78q0 46 -30 71t-89 25q-31 0 -55 -6.5t-40 -11.5l-3 -78l-12 1l-4 78l1 9q23 10 49.5 16t65.5 6q66 0 101 -28t35 -81q0 -41 -27.5 -81.5t-66 -77t-80 -66.5t-70.5 -49v-2h237l4 89l12 -1l1 -103h-273z" />
<glyph unicode="&#x2083;" horiz-adv-x="368" d="M269 169q0 16 -6 31.5t-18.5 28t-32 20.5t-46.5 8q-22 0 -45 -2.5t-45 -7.5l-3 -75l-13 1l-2 71l3 12q23 8 52 11.5t55 3.5q29 0 51 -8.5t36.5 -22.5t22 -32.5t7.5 -37.5q0 -32 -21 -59.5t-54 -34.5v-3q15 -3 30.5 -10.5t28 -19.5t20.5 -28.5t8 -38.5t-8.5 -42t-26 -35 t-44.5 -24t-63 -9q-32 0 -55.5 7t-44.5 20l6 12q23 -12 47 -18t47 -6q44 0 65.5 9.5t38.5 22.5q21 28 21 63q0 43 -36 68t-96 25l-1 11q29 1 50 5t41 14q14 14 22.5 30.5t8.5 39.5z" />
<glyph unicode="&#x2084;" horiz-adv-x="365" d="M173 -129l1 10l60 3v88h-189l-2 15l47 141.5l47 142.5h17v-7l-94 -278h174v100l5 46h13v-146h70v-14h-70v-88l59 -3l-1 -10h-137z" />
<glyph unicode="&#x2085;" horiz-adv-x="377" d="M71 93l5 178h227l-1 -15h-209l-5 -158q17 5 39.5 8t46.5 3q30 0 56 -8t45 -23t30 -37.5t11 -52.5q0 -56 -39 -89t-110 -33q-34 0 -61 6.5t-51 19.5l6 13q25 -11 51 -17.5t55 -6.5q36 0 63 9.5t48 27.5q11 18 15.5 33t4.5 36q0 25 -9.5 45t-26.5 34t-40 21t-50 7 t-53.5 -4.5t-45.5 -9.5z" />
<glyph unicode="&#x2086;" horiz-adv-x="377" d="M210 256q-27 0 -52 -13t-44 -38t-30 -60t-11 -78q27 14 58.5 24t63.5 10q64 0 96.5 -31t32.5 -88q0 -54 -34 -85t-97 -31q-66 0 -102 49t-36 150q0 46 12 84t33 65t49 42t60 15q56 0 100 -19l-7 -14q-22 10 -44 14t-48 4zM193 86q-28 0 -59.5 -9t-60.5 -26 q2 -88 33.5 -129t87.5 -41q26 0 47.5 7t40.5 19q12 17 18 33.5t6 41.5q0 51 -29 77.5t-84 26.5z" />
<glyph unicode="&#x2087;" horiz-adv-x="352" d="M311 271l2 -13q-63 -91 -101.5 -189t-54.5 -198h-18l-1 8q18 93 55.5 191t97.5 186h-233l-2 -83l-13 1l-3 97h271z" />
<glyph unicode="&#x2088;" horiz-adv-x="372" d="M304 172q0 -35 -23.5 -62.5t-55.5 -41.5q67 -21 83 -67q6 -17 6 -35q0 -20 -7 -38t-22.5 -32t-40 -22t-58.5 -8q-65 0 -97 30t-32 74q0 41 27.5 66t63.5 38q-35 15 -57 40.5t-22 62.5q0 42 31.5 68t85.5 26q55 0 86.5 -29t31.5 -70zM190 61q-6 2 -11.5 3t-11.5 3 q-38 -13 -65 -36t-27 -61t28 -63.5t84 -25.5q27 0 48.5 7t41.5 19q11 16 15 29.5t4 27.5q0 42 -26 63t-80 34zM86 177q0 -39 29.5 -63.5t77.5 -36.5l12 -3q33 11 57 37t24 60q0 37 -26 61.5t-77 24.5q-19 0 -36.5 -4.5t-31 -14.5t-21.5 -25t-8 -36z" />
<glyph unicode="&#x2089;" horiz-adv-x="374" d="M169 -119q37 0 61 16t38 41.5t19.5 58t5.5 64.5q-49 -25 -122 -25q-54 0 -89 28.5t-35 86.5t31 89t103 31q69 0 99.5 -55t30.5 -159q0 -88 -35.5 -139.5t-107.5 -51.5q-33 0 -59.5 7t-50.5 21l8 15q45 -28 103 -28zM173 50q34 0 65.5 6t54.5 19q-2 89 -28 136t-84 47 q-17 0 -32 -3q-47 -7 -65 -32.5t-18 -71.5q0 -51 29.5 -76t77.5 -25z" />
<glyph unicode="&#x20ac;" horiz-adv-x="736" d="M15 408h107q9 74 36 130.5t69 94t96 56.5t116 19q37 0 67 -2t55.5 -6.5t48.5 -11.5t46 -16l3 -15l-7 -138l-14 1l1 133q-74 37 -199 37q-47 0 -90 -12t-86 -35q-53 -45 -83.5 -101t-38.5 -134h298v-20h-300q-1 -11 -1 -22v-21q0 -14 0.5 -26t1.5 -24h299v-20h-297 q17 -125 92 -195t200 -70q35 0 64.5 2.5t57.5 9.5t55 18t57 28l7 -15q-59 -35 -114.5 -48t-126.5 -13q-66 0 -119.5 19t-93.5 55.5t-65 89t-34 119.5h-108v20h106q-2 12 -2 24v47q0 11 1 22h-105v20z" />
<glyph unicode="&#x2122;" horiz-adv-x="923" d="M783 673l-136 -334h-23l-143 334l-27 -330l46 -3l-1 -11h-111l1 11l46 3l31 343l-45 3l1 11h123l-1 -11l-46 -3l139 -322h1l134 322l-39 3l1 11h107l-1 -11l-39 -3l32 -343l45 -3v-11h-112l1 11l45 3zM122 329v11l56 3v342h-126l-3 -77l-14 -1l-2 93h311l-2 -93l-14 1 l-3 77h-126v-342l56 -3v-11h-133z" />
<glyph unicode="&#x2126;" horiz-adv-x="814" d="M42 153l18 1l5 -137h253q-52 17 -96.5 48.5t-77 75t-51 98.5t-18.5 118q0 79 23.5 144t65.5 111t99.5 71t125.5 25q79 0 139.5 -25.5t101.5 -72t62 -110.5t21 -141q0 -72 -18.5 -129t-51 -99t-77.5 -70t-98 -44h280l2 136l18 1l6 -154h-365v25q56 2 106 28t95 62 q17 25 32 50.5t26 55t17.5 63t6.5 74.5q0 73 -19.5 133.5t-58 104t-95.5 68t-132 24.5q-62 0 -107.5 -18.5t-89.5 -53.5q-40 -47 -67.5 -109t-27.5 -153q0 -62 20.5 -117t57 -98.5t87 -73t111.5 -40.5v-25h-331z" />
<glyph unicode="&#x2153;" horiz-adv-x="766" d="M485 723l16 -8l-331 -737l-17 7zM63 300l1 10l66 3v368l-91 -30l-4 12l102 37l12 -1v-386l61 -3l-1 -10h-146zM667 299q0 16 -6 31.5t-18.5 28t-32 20.5t-46.5 8q-22 0 -45 -2.5t-45 -7.5l-3 -75l-13 1l-2 71l3 12q23 8 52 11.5t55 3.5q29 0 51 -8.5t36.5 -22.5t22 -32.5 t7.5 -37.5q0 -32 -21 -59.5t-54 -34.5v-3q15 -3 30.5 -10.5t28 -19.5t20.5 -28.5t8 -38.5t-8.5 -42t-26 -35t-44.5 -24t-63 -9q-32 0 -55.5 7t-44.5 20l6 12q23 -12 47 -18t47 -6q44 0 65.5 9.5t38.5 22.5q21 28 21 63q0 43 -36 68t-96 25l-1 11q29 1 50 5t41 14 q14 14 22.5 30.5t8.5 39.5z" />
<glyph unicode="&#x2154;" horiz-adv-x="845" d="M591 723l16 -8l-331 -737l-17 7zM50 300l-1 19q33 22 75 53t80 66t64 74t26 78q0 46 -30 71t-89 25q-31 0 -55 -6.5t-40 -11.5l-3 -78l-12 1l-4 78l1 9q23 10 49.5 16t65.5 6q66 0 101 -28t35 -81q0 -41 -27.5 -81.5t-66 -77t-80 -66.5t-70.5 -49v-2h237l4 89l12 -1 l1 -103h-273zM746 299q0 16 -6 31.5t-18.5 28t-32 20.5t-46.5 8q-22 0 -45 -2.5t-45 -7.5l-3 -75l-13 1l-2 71l3 12q23 8 52 11.5t55 3.5q29 0 51 -8.5t36.5 -22.5t22 -32.5t7.5 -37.5q0 -32 -21 -59.5t-54 -34.5v-3q15 -3 30.5 -10.5t28 -19.5t20.5 -28.5t8 -38.5t-8.5 -42 t-26 -35t-44.5 -24t-63 -9q-32 0 -55.5 7t-44.5 20l6 12q23 -12 47 -18t47 -6q44 0 65.5 9.5t38.5 22.5q21 28 21 63q0 43 -36 68t-96 25l-1 11q29 1 50 5t41 14q14 14 22.5 30.5t8.5 39.5z" />
<glyph unicode="&#x215b;" horiz-adv-x="755" d="M687 302q0 -35 -23.5 -62.5t-55.5 -41.5q67 -21 83 -67q6 -17 6 -35q0 -20 -7 -38t-22.5 -32t-40 -22t-58.5 -8q-65 0 -97 30t-32 74q0 41 27.5 66t63.5 38q-35 15 -57 40.5t-22 62.5q0 42 31.5 68t85.5 26q55 0 86.5 -29t31.5 -70zM573 191q-6 2 -11.5 3t-11.5 3 q-38 -13 -65 -36t-27 -61t28 -63.5t84 -25.5q27 0 48.5 7t41.5 19q11 16 15 29.5t4 27.5q0 42 -26 63t-80 34zM469 307q0 -39 29.5 -63.5t77.5 -36.5l12 -3q33 11 57 37t24 60q0 37 -26 61.5t-77 24.5q-19 0 -36.5 -4.5t-31 -14.5t-21.5 -25t-8 -36zM485 723l16 -8 l-331 -737l-17 7zM63 300l1 10l66 3v368l-91 -30l-4 12l102 37l12 -1v-386l61 -3l-1 -10h-146z" />
<glyph unicode="&#x215c;" horiz-adv-x="822" d="M754 302q0 -35 -23.5 -62.5t-55.5 -41.5q67 -21 83 -67q6 -17 6 -35q0 -20 -7 -38t-22.5 -32t-40 -22t-58.5 -8q-65 0 -97 30t-32 74q0 41 27.5 66t63.5 38q-35 15 -57 40.5t-22 62.5q0 42 31.5 68t85.5 26q55 0 86.5 -29t31.5 -70zM640 191q-6 2 -11.5 3t-11.5 3 q-38 -13 -65 -36t-27 -61t28 -63.5t84 -25.5q27 0 48.5 7t41.5 19q11 16 15 29.5t4 27.5q0 42 -26 63t-80 34zM536 307q0 -39 29.5 -63.5t77.5 -36.5l12 -3q33 11 57 37t24 60q0 37 -26 61.5t-77 24.5q-19 0 -36.5 -4.5t-31 -14.5t-21.5 -25t-8 -36zM567 723l16 -8 l-331 -737l-17 7zM269 598q0 16 -6 31.5t-18.5 28t-32 20.5t-46.5 8q-22 0 -45 -2.5t-45 -7.5l-3 -75l-13 1l-2 71l3 12q23 8 52 11.5t55 3.5q29 0 51 -8.5t36.5 -22.5t22 -32.5t7.5 -37.5q0 -32 -21 -59.5t-54 -34.5v-3q15 -3 30.5 -10.5t28 -19.5t20.5 -28.5t8 -38.5 t-8.5 -42t-26 -35t-44.5 -24t-63 -9q-32 0 -55.5 7t-44.5 20l6 12q23 -12 47 -18t47 -6q44 0 65.5 9.5t38.5 22.5q21 28 21 63q0 43 -36 68t-96 25l-1 11q29 1 50 5t41 14q14 14 22.5 30.5t8.5 39.5z" />
<glyph unicode="&#x215d;" horiz-adv-x="807" d="M71 522l5 178h227l-1 -15h-209l-5 -158q17 5 39.5 8t46.5 3q30 0 56 -8t45 -23t30 -37.5t11 -52.5q0 -56 -39 -89t-110 -33q-34 0 -61 6.5t-51 19.5l6 13q25 -11 51 -17.5t55 -6.5q36 0 63 9.5t48 27.5q11 18 15.5 33t4.5 36q0 25 -9.5 45t-26.5 34t-40 21t-50 7 t-53.5 -4.5t-45.5 -9.5zM739 302q0 -35 -23.5 -62.5t-55.5 -41.5q67 -21 83 -67q6 -17 6 -35q0 -20 -7 -38t-22.5 -32t-40 -22t-58.5 -8q-65 0 -97 30t-32 74q0 41 27.5 66t63.5 38q-35 15 -57 40.5t-22 62.5q0 42 31.5 68t85.5 26q55 0 86.5 -29t31.5 -70zM625 191 q-6 2 -11.5 3t-11.5 3q-38 -13 -65 -36t-27 -61t28 -63.5t84 -25.5q27 0 48.5 7t41.5 19q11 16 15 29.5t4 27.5q0 42 -26 63t-80 34zM521 307q0 -39 29.5 -63.5t77.5 -36.5l12 -3q33 11 57 37t24 60q0 37 -26 61.5t-77 24.5q-19 0 -36.5 -4.5t-31 -14.5t-21.5 -25t-8 -36z M562 723l16 -8l-331 -737l-17 7z" />
<glyph unicode="&#x215e;" horiz-adv-x="768" d="M311 700l2 -13q-63 -91 -101.5 -189t-54.5 -198h-18l-1 8q18 93 55.5 191t97.5 186h-233l-2 -83l-13 1l-3 97h271zM700 302q0 -35 -23.5 -62.5t-55.5 -41.5q67 -21 83 -67q6 -17 6 -35q0 -20 -7 -38t-22.5 -32t-40 -22t-58.5 -8q-65 0 -97 30t-32 74q0 41 27.5 66 t63.5 38q-35 15 -57 40.5t-22 62.5q0 42 31.5 68t85.5 26q55 0 86.5 -29t31.5 -70zM586 191q-6 2 -11.5 3t-11.5 3q-38 -13 -65 -36t-27 -61t28 -63.5t84 -25.5q27 0 48.5 7t41.5 19q11 16 15 29.5t4 27.5q0 42 -26 63t-80 34zM482 307q0 -39 29.5 -63.5t77.5 -36.5l12 -3 q33 11 57 37t24 60q0 37 -26 61.5t-77 24.5q-19 0 -36.5 -4.5t-31 -14.5t-21.5 -25t-8 -36zM503 723l16 -8l-331 -737l-17 7z" />
<glyph unicode="&#x2206;" horiz-adv-x="728" d="M346 700h33l259 -684l80 -6l-1 -10h-707l1 10l78 5zM110 18h506l-252 666h-5z" />
<glyph unicode="&#x220f;" horiz-adv-x="785" d="M82 700h630l-1 -10l-119 -5v-800l92 -5l-1 -10h-202l1 10l90 5v800h-363v-800l92 -5l-1 -10h-205l1 10l93 5v800l-108 5z" />
<glyph unicode="&#x2211;" horiz-adv-x="642" d="M53 -130l-3 21l299 402l-293 387l4 20h498l-3 -199l-14 -1l-4 183h-459l289 -384v-10l-297 -401h489l6 183l14 -1l3 -200h-529z" />
<glyph unicode="&#x2212;" horiz-adv-x="465" d="M60 276h345v-20h-345v20z" />
<glyph unicode="&#x221a;" horiz-adv-x="451" d="M137 300l77 -287l172 693h17l-178 -718h-21l-81 296h-103v16h117z" />
<glyph unicode="&#x221e;" horiz-adv-x="811" d="M443 237l-40 53l-34 -47q-21 -30 -48 -57.5t-58.5 -47.5t-67.5 -20q-33 0 -61.5 12.5t-49 35.5t-32.5 55t-12 71q0 42 12.5 77t34 60t50 38.5t60.5 13.5q36 0 66 -15t55.5 -39t47.5 -54l43 -59q15 27 37 55q23 30 51 54.5t60.5 40t67.5 15.5q70 0 108 -49.5t38 -131.5 q0 -39 -10 -72t-28.5 -57t-45 -37t-60.5 -13q-38 0 -70.5 17.5t-60.5 43.5t-53 57zM363 258q19 26 31 44l-42 56q-22 30 -46 53t-51.5 37.5t-58.5 14.5q-29 0 -54.5 -11.5t-43.5 -28.5q-18 -27 -28.5 -59.5t-10.5 -72.5q0 -32 10 -60t28 -49t43 -33t56 -12q33 0 63.5 19.5 t57 46.5t46.5 55zM454 353q-21 -27 -37 -51l39 -52q24 -31 51 -56t56.5 -41t63.5 -16q27 0 50.5 10.5t40.5 24.5q16 22 25 55t9 71q0 35 -8 65t-24.5 51.5t-40.5 34t-57 12.5q-32 0 -62 -16t-57 -40t-49 -52z" />
<glyph unicode="&#x222b;" horiz-adv-x="345" d="M225 59q9 -47 5 -82.5t-19.5 -59t-41 -35t-58.5 -11.5q-20 0 -35 2t-26 5l3 15q9 -3 24.5 -5t34.5 -2q27 0 46 7.5t39 24.5q6 11 10 23t6 28t0.5 36.5t-6.5 47.5l-108 555q-19 97 14.5 147t107.5 50q23 0 41.5 -3t32.5 -8l-3 -13q-14 5 -32.5 7t-36.5 2q-34 0 -55 -10.5 t-42 -28.5q-6 -11 -10 -23t-5.5 -28t0 -36.5t6.5 -47.5z" />
<glyph unicode="&#x2248;" horiz-adv-x="513" d="M77 153q23 28 45.5 48t39.5 20q16 0 43.5 -11l57.5 -24l57 -24t44 -11l64 65l14 -7q-9 -12 -20 -24.5t-22.5 -23.5t-22.5 -18t-20 -7q-22 0 -50.5 11l-58 23.5l-56 23.5t-44.5 11l-57 -60zM66 322q23 28 45.5 48t39.5 20q16 0 43.5 -11l57.5 -24l57 -24t44 -11l64 65 l14 -7q-9 -12 -20 -24.5t-22.5 -23.5t-22.5 -18t-20 -7q-22 0 -50.5 11l-58 23.5l-56 23.5t-44.5 11l-57 -60z" />
<glyph unicode="&#x2260;" horiz-adv-x="465" d="M60 335h182l31 142h20l-31 -142h143v-20h-148l-23 -110h171v-20h-176l-32 -151h-20l32 151h-149v20h154l24 110h-178v20z" />
<glyph unicode="&#x2264;" horiz-adv-x="438" d="M361.006 481l-287.982 -199v-17l287.982 -199l10.999 13l-282.982 194l282.982 195zM378.005 15h-304.981v-15h304.981v15z" />
<glyph unicode="&#x2265;" horiz-adv-x="438" d="M90 481l288 -199v-17l-288 -199l-11 13l283 194l-283 195zM73 15h305v-15h-305v15z" />
<glyph unicode="&#x25ca;" horiz-adv-x="440" d="M205 700h30l165 -340v-20l-165 -340h-31l-164 340v20zM218 685l-163 -335l163 -335h4l164 335l-164 335h-4z" />
<glyph unicode="&#xfb01;" horiz-adv-x="809" d="M555 0l1 10l77 4v532l-79 4l1 10h177v-10l-77 -4v-532l82 -4l-1 -10h-181zM65 0l1 10l76 4v532l-78 4l1 10h369l-2 -130l-13 1l-5 113h-252v-256h166l6 64l11 -1v-152l-11 1l-6 72h-166v-258l106 -4l-1 -10h-202z" />
<glyph unicode="&#xfb02;" horiz-adv-x="942" d="M546 0l1 10l78 4v532l-69 4l1 10h180l-1 -10l-91 -4v-531h249l7 135l13 -1l1 -149h-369zM65 0l1 10l76 4v532l-78 4l1 10h369l-2 -130l-13 1l-5 113h-252v-256h166l6 64l11 -1v-152l-11 1l-6 72h-166v-258l106 -4l-1 -10h-202z" />
<glyph horiz-adv-x="368" d="M269 299q0 16 -6 31.5t-18.5 28t-32 20.5t-46.5 8q-22 0 -45 -2.5t-45 -7.5l-3 -75l-13 1l-2 71l3 12q23 8 52 11.5t55 3.5q29 0 51 -8.5t36.5 -22.5t22 -32.5t7.5 -37.5q0 -32 -21 -59.5t-54 -34.5v-3q15 -3 30.5 -10.5t28 -19.5t20.5 -28.5t8 -38.5t-8.5 -42t-26 -35 t-44.5 -24t-63 -9q-32 0 -55.5 7t-44.5 20l6 12q23 -12 47 -18t47 -6q44 0 65.5 9.5t38.5 22.5q21 28 21 63q0 43 -36 68t-96 25l-1 11q29 1 50 5t41 14q14 14 22.5 30.5t8.5 39.5z" />
<glyph horiz-adv-x="368" d="M269 598q0 16 -6 31.5t-18.5 28t-32 20.5t-46.5 8q-22 0 -45 -2.5t-45 -7.5l-3 -75l-13 1l-2 71l3 12q23 8 52 11.5t55 3.5q29 0 51 -8.5t36.5 -22.5t22 -32.5t7.5 -37.5q0 -32 -21 -59.5t-54 -34.5v-3q15 -3 30.5 -10.5t28 -19.5t20.5 -28.5t8 -38.5t-8.5 -42t-26 -35 t-44.5 -24t-63 -9q-32 0 -55.5 7t-44.5 20l6 12q23 -12 47 -18t47 -6q44 0 65.5 9.5t38.5 22.5q21 28 21 63q0 43 -36 68t-96 25l-1 11q29 1 50 5t41 14q14 14 22.5 30.5t8.5 39.5z" />
<glyph horiz-adv-x="378" d="M50 1l-1 19q33 22 75 53t80 66t64 74t26 78q0 46 -30 71t-89 25q-31 0 -55 -6.5t-40 -11.5l-3 -78l-12 1l-4 78l1 9q23 10 49.5 16t65.5 6q66 0 101 -28t35 -81q0 -41 -27.5 -81.5t-66 -77t-80 -66.5t-70.5 -49v-2h237l4 89l12 -1l1 -103h-273z" />
<glyph horiz-adv-x="378" d="M50 300l-1 19q33 22 75 53t80 66t64 74t26 78q0 46 -30 71t-89 25q-31 0 -55 -6.5t-40 -11.5l-3 -78l-12 1l-4 78l1 9q23 10 49.5 16t65.5 6q66 0 101 -28t35 -81q0 -41 -27.5 -81.5t-66 -77t-80 -66.5t-70.5 -49v-2h237l4 89l12 -1l1 -103h-273z" />
<glyph horiz-adv-x="377" d="M71 223l5 178h227l-1 -15h-209l-5 -158q17 5 39.5 8t46.5 3q30 0 56 -8t45 -23t30 -37.5t11 -52.5q0 -56 -39 -89t-110 -33q-34 0 -61 6.5t-51 19.5l6 13q25 -11 51 -17.5t55 -6.5q36 0 63 9.5t48 27.5q11 18 15.5 33t4.5 36q0 25 -9.5 45t-26.5 34t-40 21t-50 7 t-53.5 -4.5t-45.5 -9.5z" />
<glyph horiz-adv-x="377" d="M71 522l5 178h227l-1 -15h-209l-5 -158q17 5 39.5 8t46.5 3q30 0 56 -8t45 -23t30 -37.5t11 -52.5q0 -56 -39 -89t-110 -33q-34 0 -61 6.5t-51 19.5l6 13q25 -11 51 -17.5t55 -6.5q36 0 63 9.5t48 27.5q11 18 15.5 33t4.5 36q0 25 -9.5 45t-26.5 34t-40 21t-50 7 t-53.5 -4.5t-45.5 -9.5z" />
<glyph horiz-adv-x="242" d="M149 -106q0 -17 -14 -41.5t-35 -46.5l-13 13q11 12 19.5 25t13.5 26q-11 0 -19.5 8.5t-8.5 19.5q0 12 8.5 20.5t19.5 8.5q12 0 20.5 -9t8.5 -24z" />
<glyph horiz-adv-x="377" d="M210 386q-27 0 -52 -13t-44 -38t-30 -60t-11 -78q27 14 58.5 24t63.5 10q64 0 96.5 -31t32.5 -88q0 -54 -34 -85t-97 -31q-66 0 -102 49t-36 150q0 46 12 84t33 65t49 42t60 15q56 0 100 -19l-7 -14q-22 10 -44 14t-48 4zM193 216q-28 0 -59.5 -9t-60.5 -26 q2 -88 33.5 -129t87.5 -41q26 0 47.5 7t40.5 19q12 17 18 33.5t6 41.5q0 51 -29 77.5t-84 26.5z" />
<glyph horiz-adv-x="372" d="M304 601q0 -35 -23.5 -62.5t-55.5 -41.5q67 -21 83 -67q6 -17 6 -35q0 -20 -7 -38t-22.5 -32t-40 -22t-58.5 -8q-65 0 -97 30t-32 74q0 41 27.5 66t63.5 38q-35 15 -57 40.5t-22 62.5q0 42 31.5 68t85.5 26q55 0 86.5 -29t31.5 -70zM190 490q-6 2 -11.5 3t-11.5 3 q-38 -13 -65 -36t-27 -61t28 -63.5t84 -25.5q27 0 48.5 7t41.5 19q11 16 15 29.5t4 27.5q0 42 -26 63t-80 34zM86 606q0 -39 29.5 -63.5t77.5 -36.5l12 -3q33 11 57 37t24 60q0 37 -26 61.5t-77 24.5q-19 0 -36.5 -4.5t-31 -14.5t-21.5 -25t-8 -36z" />
<glyph horiz-adv-x="377" d="M210 685q-27 0 -52 -13t-44 -38t-30 -60t-11 -78q27 14 58.5 24t63.5 10q64 0 96.5 -31t32.5 -88q0 -54 -34 -85t-97 -31q-66 0 -102 49t-36 150q0 46 12 84t33 65t49 42t60 15q56 0 100 -19l-7 -14q-22 10 -44 14t-48 4zM193 515q-28 0 -59.5 -9t-60.5 -26 q2 -88 33.5 -129t87.5 -41q26 0 47.5 7t40.5 19q12 17 18 33.5t6 41.5q0 51 -29 77.5t-84 26.5z" />
<glyph horiz-adv-x="365" d="M173 1l1 10l60 3v88h-189l-2 15l47 141.5l47 142.5h17v-7l-94 -278h174v100l5 46h13v-146h70v-14h-70v-88l59 -3l-1 -10h-137z" />
<glyph horiz-adv-x="365" d="M173 300l1 10l60 3v88h-189l-2 15l47 141.5l47 142.5h17v-7l-94 -278h174v100l5 46h13v-146h70v-14h-70v-88l59 -3l-1 -10h-137z" />
<glyph horiz-adv-x="421" d="M216 401q74 0 108.5 -48t34.5 -161q0 -97 -34 -146.5t-109 -49.5q-72 0 -113.5 49.5t-41.5 146.5q0 113 42 161t113 48zM216 386q-24 0 -45 -6.5t-42 -18.5q-23 -28 -36.5 -66.5t-13.5 -103.5q0 -89 36.5 -134t100.5 -45q23 0 42 5t39 16q19 23 31.5 60t12.5 99 q0 104 -30.5 149t-94.5 45z" />
<glyph horiz-adv-x="421" d="M216 700q74 0 108.5 -48t34.5 -161q0 -97 -34 -146.5t-109 -49.5q-72 0 -113.5 49.5t-41.5 146.5q0 113 42 161t113 48zM216 685q-24 0 -45 -6.5t-42 -18.5q-23 -28 -36.5 -66.5t-13.5 -103.5q0 -89 36.5 -134t100.5 -45q23 0 42 5t39 16q19 23 31.5 60t12.5 99 q0 104 -30.5 149t-94.5 45z" />
<glyph horiz-adv-x="374" d="M169 11q37 0 61 16t38 41.5t19.5 58t5.5 64.5q-49 -25 -122 -25q-54 0 -89 28.5t-35 86.5t31 89t103 31q69 0 99.5 -55t30.5 -159q0 -88 -35.5 -139.5t-107.5 -51.5q-33 0 -59.5 7t-50.5 21l8 15q45 -28 103 -28zM173 180q34 0 65.5 6t54.5 19q-2 89 -28 136t-84 47 q-17 0 -32 -3q-47 -7 -65 -32.5t-18 -71.5q0 -51 29.5 -76t77.5 -25z" />
<glyph horiz-adv-x="374" d="M169 310q37 0 61 16t38 41.5t19.5 58t5.5 64.5q-49 -25 -122 -25q-54 0 -89 28.5t-35 86.5t31 89t103 31q69 0 99.5 -55t30.5 -159q0 -88 -35.5 -139.5t-107.5 -51.5q-33 0 -59.5 7t-50.5 21l8 15q45 -28 103 -28zM173 479q34 0 65.5 6t54.5 19q-2 89 -28 136t-84 47 q-17 0 -32 -3q-47 -7 -65 -32.5t-18 -71.5q0 -51 29.5 -76t77.5 -25z" />
<glyph horiz-adv-x="264" d="M63 1l1 10l66 3v368l-91 -30l-4 12l102 37l12 -1v-386l61 -3l-1 -10h-146z" />
<glyph horiz-adv-x="264" d="M63 300l1 10l66 3v368l-91 -30l-4 12l102 37l12 -1v-386l61 -3l-1 -10h-146z" />
<glyph horiz-adv-x="352" d="M311 401l2 -13q-63 -91 -101.5 -189t-54.5 -198h-18l-1 8q18 93 55.5 191t97.5 186h-233l-2 -83l-13 1l-3 97h271z" />
<glyph horiz-adv-x="352" d="M311 700l2 -13q-63 -91 -101.5 -189t-54.5 -198h-18l-1 8q18 93 55.5 191t97.5 186h-233l-2 -83l-13 1l-3 97h271z" />
<glyph horiz-adv-x="372" d="M304 302q0 -35 -23.5 -62.5t-55.5 -41.5q67 -21 83 -67q6 -17 6 -35q0 -20 -7 -38t-22.5 -32t-40 -22t-58.5 -8q-65 0 -97 30t-32 74q0 41 27.5 66t63.5 38q-35 15 -57 40.5t-22 62.5q0 42 31.5 68t85.5 26q55 0 86.5 -29t31.5 -70zM190 191q-6 2 -11.5 3t-11.5 3 q-38 -13 -65 -36t-27 -61t28 -63.5t84 -25.5q27 0 48.5 7t41.5 19q11 16 15 29.5t4 27.5q0 42 -26 63t-80 34zM86 307q0 -39 29.5 -63.5t77.5 -36.5l12 -3q33 11 57 37t24 60q0 37 -26 61.5t-77 24.5q-19 0 -36.5 -4.5t-31 -14.5t-21.5 -25t-8 -36z" />
<glyph d="M73 0l1 10l77 4v532l-79 4l1 10h177v-10l-77 -4v-532l82 -4l-1 -10h-181zM202 720q0 -15 -11 -26t-26 -11t-26 11t-11 26t11 26t26 11t26 -11t11 -26z" />
<glyph horiz-adv-x="543" d="M70 0l1 10l94 5v670l-83 5l1 10h213l-1 -10l-110 -5v-669h305l7 169l13 -1l1 -184h-441zM472 359q0 -15 -11 -26t-26 -11t-26 11t-11 26t11 26t26 11t26 -11t11 -26z" />
<glyph horiz-adv-x="492" d="M64 0l1 10l78 4v532l-69 4l1 10h180l-1 -10l-91 -4v-531h249l7 135l13 -1l1 -149h-369zM451 312q0 -15 -11 -26t-26 -11t-26 11t-11 26t11 26t26 11t26 -11t11 -26z" />
<glyph horiz-adv-x="50" />
<glyph horiz-adv-x="765" d="M630 682l-206 -299l105 -46q48 -21 81.5 -41t54.5 -42t30.5 -48t9.5 -59q0 -30 -12.5 -57.5t-37.5 -49.5t-63 -35t-89 -13q-31 0 -54.5 2.5t-43.5 7.5t-37.5 12t-35.5 15l-3 12l16 173l15 -1l-12 -172q30 -14 68.5 -22.5t87.5 -8.5q34 0 71 9t74 34q18 23 27 45.5t9 48.5 q0 29 -8 52t-27 43t-49.5 38.5t-75.5 38.5l-121 54v11l207 301h-252q-42 0 -73 -7t-62 -27q-22 -25 -32 -51t-10 -66v-534h-112l1 10l91 5v519q0 86 53.5 126t144.5 40h272z" />
<glyph horiz-adv-x="649" d="M530 544l-169 -237l86 -36q40 -17 67.5 -33t45 -34t25.5 -38.5t8 -47.5q0 -24 -10.5 -46.5t-31.5 -39.5t-52.5 -27.5t-73.5 -10.5q-26 0 -46 2t-36.5 6t-31 9.5l-29.5 11.5l-3 10l14 138l14 -1l-9 -135q24 -11 55.5 -18t71.5 -7q28 0 58.5 7t60.5 27q30 34 30 74 q0 22 -7 40.5t-22.5 34t-41 30.5t-62.5 31l-100 43v10l171 239h-207q-35 0 -60 -6t-51 -21q-18 -20 -26 -40.5t-8 -52.5v-426h-96l1 10l75 4v413q0 69 45 101t121 32h226z" />
</font>
</defs>
</svg>
