<?xml version="1.0" standalone="no"?>
<!DOCTYPE svg PUBLIC "-//W3C//DTD SVG 1.1//EN" "http://www.w3.org/Graphics/SVG/1.1/DTD/svg11.dtd" >
<svg xmlns="http://www.w3.org/2000/svg" xmlns:xlink="http://www.w3.org/1999/xlink" version="1.1">
<metadata>
Created by FontForge 20170812 at Tue Sep 20 16:01:23 2022
 By www-data
</metadata>
<defs>
<font id="GoddessRegular" horiz-adv-x="0" >
  <font-face 
    font-family="Goddess"
    font-weight="400"
    font-stretch="normal"
    units-per-em="1000"
    panose-1="0 0 0 0 0 0 0 0 0 0"
    ascent="800"
    descent="-200"
    x-height="428.568"
    cap-height="914.239"
    bbox="-394.636 -410.489 1537.01 1124.67"
    underline-thickness="50"
    underline-position="-100"
    unicode-range="U+000A-20AC"
  />
<missing-glyph horiz-adv-x="527" 
d="M50 700h427v-700h-427v700zM78 680l185 -309l186 309h-371zM251 350l-180 300v-601zM264 329l-185 -308h370zM276 350l181 -303v605z" />
    <glyph glyph-name=".notdef" horiz-adv-x="527" 
d="M50 700h427v-700h-427v700zM78 680l185 -309l186 309h-371zM251 350l-180 300v-601zM264 329l-185 -308h370zM276 350l181 -303v605z" />
    <glyph glyph-name=".null" 
 />
    <glyph glyph-name=".null" 
 />
    <glyph glyph-name="LF" unicode="&#xa;" 
 />
    <glyph glyph-name="controlCR" unicode="&#xd;" 
 />
    <glyph glyph-name="space" unicode=" " horiz-adv-x="295" 
 />
    <glyph glyph-name="exclam" unicode="!" horiz-adv-x="214" 
d="M153.575 -5.99023c-2.9834 -40.1328 -101.129 -40.0967 -102.278 -0.00195312c-3.54102 123.889 1.03809 247.922 3.43457 371.819c1.19629 61.9912 2.24316 123.944 4.08984 185.919c1.77051 59.374 -0.314453 124.331 19.1094 181.02
c4.87305 14.2148 40.2822 13.415 45.6572 0.000976562c22.3691 -55.8242 23.1611 -121.564 26.7656 -181.02c3.75781 -61.9609 5.91992 -123.867 7.43945 -185.918c3.03027 -123.863 4.9707 -248.194 -4.21777 -371.819zM163.95 -152.492
c2.23828 -17.8447 -29.2256 -22.7617 -40.4316 -23.0469c-12.3037 -0.314453 -41.8184 5.51172 -40.4307 23.0459c1.67285 21.1904 -0.612305 44.2021 6.12891 64.5967s58.4717 19.4668 65.8555 0c7.60547 -20.0449 6.23926 -43.5293 8.87793 -64.5957z" />
    <glyph glyph-name="quotedbl" unicode="&#x22;" horiz-adv-x="279" 
d="M58.54 602.673c9.98438 20.8027 69.957 22.5059 71.1865 -5.48926c0.680664 -15.4961 -3.26855 -30.1533 -6.32422 -45.2959c-2.9873 -14.8105 -6.49414 -28.1445 -15.7334 -40.2188c-7.65625 -10.0098 -32.0762 -8.66113 -40.0771 0
c-21.1172 22.8623 -22.041 63.9277 -9.05176 91.0039zM149.973 616.851c9.21777 23.1602 81.5977 23.7441 78.5039 -6.05176c-1.91504 -18.3984 -7.39258 -36.5537 -11.8828 -54.4707c-4.71582 -18.8193 -8.03125 -36.5957 -23.5059 -49.6191
c-9.64355 -8.11133 -28.1562 -8.94141 -37.668 0c-26.8545 25.2412 -17.751 79.2314 -5.44727 110.142z" />
    <glyph glyph-name="quotedbl" unicode="&#x201d;" horiz-adv-x="279" 
d="M58.54 602.673c9.98438 20.8027 69.957 22.5059 71.1865 -5.48926c0.680664 -15.4961 -3.26855 -30.1533 -6.32422 -45.2959c-2.9873 -14.8105 -6.49414 -28.1445 -15.7334 -40.2188c-7.65625 -10.0098 -32.0762 -8.66113 -40.0771 0
c-21.1172 22.8623 -22.041 63.9277 -9.05176 91.0039zM149.973 616.851c9.21777 23.1602 81.5977 23.7441 78.5039 -6.05176c-1.91504 -18.3984 -7.39258 -36.5537 -11.8828 -54.4707c-4.71582 -18.8193 -8.03125 -36.5957 -23.5059 -49.6191
c-9.64355 -8.11133 -28.1562 -8.94141 -37.668 0c-26.8545 25.2412 -17.751 79.2314 -5.44727 110.142z" />
    <glyph glyph-name="quotedbl" unicode="&#x201c;" horiz-adv-x="279" 
d="M58.54 602.673c9.98438 20.8027 69.957 22.5059 71.1865 -5.48926c0.680664 -15.4961 -3.26855 -30.1533 -6.32422 -45.2959c-2.9873 -14.8105 -6.49414 -28.1445 -15.7334 -40.2188c-7.65625 -10.0098 -32.0762 -8.66113 -40.0771 0
c-21.1172 22.8623 -22.041 63.9277 -9.05176 91.0039zM149.973 616.851c9.21777 23.1602 81.5977 23.7441 78.5039 -6.05176c-1.91504 -18.3984 -7.39258 -36.5537 -11.8828 -54.4707c-4.71582 -18.8193 -8.03125 -36.5957 -23.5059 -49.6191
c-9.64355 -8.11133 -28.1562 -8.94141 -37.668 0c-26.8545 25.2412 -17.751 79.2314 -5.44727 110.142z" />
    <glyph glyph-name="numbersign" unicode="#" horiz-adv-x="535" 
d="M462.262 197.433c7.27344 0.438477 22.9834 -3.25488 22.9834 -13.0947c0 -10.4697 -15.3936 -12.6533 -22.9736 -13.0957c-16.8281 -0.978516 -33.6475 -2.18262 -50.4453 -3.58691c-3.30273 -101.55 -4.85156 -204.15 -20.8281 -303.955
c-4.75 -29.6846 -68.7324 -28.7354 -74.3457 0c-18.5215 94.7871 -19.6455 193.881 -17.1221 291.404c-20.6328 -2.89844 -41.2188 -6.1416 -61.749 -9.67871c-1.48535 -36.6641 -2.74902 -73.3369 -3.77051 -110.044
c-0.889648 -31.8594 -1.90234 -63.8555 -3.53613 -95.6855c-1.6084 -31.332 -3.67676 -61.0977 -16.6357 -89.9014c-9.26465 -20.5859 -48.5762 -15.0742 -59.5693 0c-36.6562 50.2539 -32.6855 125.766 -34.5195 185.586c-0.87207 28.5146 -1.4043 57.0889 -1.67285 85.667
c-9.125 -2.14941 -18.2412 -4.3457 -27.3359 -6.62305c-8.69922 -2.17871 -23.8418 -3.5791 -30.4814 4.55371c-6.00488 7.35449 -0.451172 15.2402 7.99219 17.3721c16.5166 4.17969 33.0762 8.14648 49.6699 11.9219
c-0.0683594 27.0332 0.0810547 54.0537 0.591797 81.0322c0.0976562 5.07715 0.292969 10.1582 0.416016 15.2354c-13.9385 -2.67285 -27.8506 -5.49023 -41.7334 -8.50293c-22.6074 -4.90234 -41.584 18.5557 -12.0908 25.0029
c18.1387 3.96191 36.3369 7.60449 54.5771 10.9922c1.68555 50.3594 4.49902 100.719 7.66992 150.973c4.09375 64.8516 7.63086 130.273 23.8027 193.418c5.51172 21.5049 45.3379 24.2373 61.9824 23.0625c17.8232 -1.25977 47.7588 -9.09863 48.9805 -31.625
c3.49023 -64.251 -5.58301 -129.222 -10.1836 -193.272c-2.9668 -41.2949 -5.1543 -82.6113 -7.23145 -123.936c19.9346 2.24707 39.9072 4.1875 59.9102 5.7666c4.86426 107.107 13.2607 213.819 34.1104 319.233c7.06055 35.6943 95.7275 38.376 95.293 0.000976562
c-1.19141 -104.865 -9.46875 -209.309 -15.8359 -313.923c11.7588 0.182617 23.5225 0.289062 35.29 0.242188c7.3584 -0.0302734 23.207 -2.94141 23.207 -13.2275c0 -10.2441 -15.542 -13.2705 -23.207 -13.2275
c-12.2871 0.0683594 -24.5654 -0.0380859 -36.8398 -0.233398c-0.667969 -11.6992 -1.34082 -23.3984 -1.92773 -35.1064c-0.774414 -15.3936 -1.41309 -30.834 -1.9834 -46.3037c16.4873 1.375 33.0039 2.5625 49.542 3.55859zM302.327 240.176
c0.357422 9.86133 0.74707 19.7178 1.14258 29.5703c-20.0752 -1.64746 -40.1201 -3.63086 -60.123 -5.98047c-0.638672 -12.8906 -1.27734 -25.7812 -1.94141 -38.6768c-0.911133 -17.6572 -1.73242 -35.3105 -2.51172 -52.96
c20.4199 3.41309 40.8867 6.49023 61.3955 9.30762c0.621094 19.6787 1.33203 39.2812 2.03809 58.7393z" />
    <glyph glyph-name="dollar" unicode="$" horiz-adv-x="474" 
d="M416.293 73.8545c33.2168 -89.3008 -46.9697 -155.862 -129.572 -157.701c1.61719 -27.1904 3.30273 -54.3809 5.09863 -81.5713c1.16602 -17.6533 -44.3379 -18.1475 -45.9512 0c-2.60449 29.2803 -4.89844 58.5947 -7.01367 87.9258
c-28.8125 8.37109 -56.2715 24.8838 -72.8311 49.5293c-21.9521 32.6729 -32.3369 75.6445 -30.3623 114.603c0.893555 17.585 44.8145 17.2998 44.5547 0c-0.698242 -46.1846 16.0146 -91.5781 55.4238 -116.646c-3.43066 54.1348 -6.06934 108.338 -7.97168 162.583
c-30.127 21.4961 -60.8291 42.124 -88.0879 67.4512c-68.9326 64.043 -104.64 154.646 -83.5391 248.055c18.3174 81.0918 85.2705 151.854 171.422 144.734c0.961914 31.1104 2.07227 62.2041 3.37891 93.2725c0.710938 16.9209 43.2617 16.4785 42.6914 0
c-1.19141 -34.4561 -2.08984 -68.9033 -2.73633 -103.342c67.8135 -26.8418 100.273 -99.2598 89.293 -173.112c-2.66406 -17.9297 -47.2363 -16.6533 -45.0186 0c6.43066 48.291 -3.51562 103.694 -44.8613 133.962c-1.39551 -107.461 -0.297852 -214.841 2.80078 -322.183
c18.8496 -16.0361 38.5156 -31.0596 58.5908 -46.2236c34.9365 -26.3867 69.1025 -59.4248 84.6914 -101.337zM224.364 268.353c-1.29785 96.1875 -0.47168 192.408 2.07715 288.493c-22.0498 -3.71973 -39.5078 -23.8115 -50.2539 -48.9424
c-35.251 -82.4492 -8.55371 -174.733 48.1768 -239.551zM284.344 -42.749c22.6924 3.12402 41.3623 19.457 41.7236 48.1074c0.43457 34.541 -22.832 64.7744 -48.4775 88.2715c1.94043 -45.4609 4.21289 -90.918 6.75391 -136.379z" />
    <glyph glyph-name="percent" unicode="%" horiz-adv-x="637" 
d="M542.944 670.38c15.9932 -2.55762 55.2676 -18.0742 41.2402 -41.4053c-82.4453 -137.167 -164.303 -274.947 -238.606 -416.736c-36.8047 -70.2344 -72.6055 -140.887 -107.517 -212.083c-36.3408 -74.1123 -70.3408 -151.692 -113.93 -221.876
c-8.45215 -13.6104 -26.5479 -16.4111 -41.2949 -15.3682c-8.80566 0.621094 -35.4092 6.60059 -32.6348 21.0703c14.8574 77.457 46.5088 153.373 76.6318 225.961c30.5059 73.5078 64.4336 146.075 100.251 217.127c72.916 144.632 152.071 285.825 243.22 419.801
c15.5 22.7861 46.917 27.625 72.6396 23.5098zM161.631 325.083c-31.4424 -0.710938 -62.1631 11.6709 -80.6338 37.5596c-19.8916 27.8887 -18.5723 61.5693 -13.2393 93.8672c1.07715 6.50684 5.09473 11.7246 10.832 15.6953
c10.0693 39.2949 39.9971 72.0312 82.7178 79.6064c65.1875 11.5635 114.824 -38.2646 116.041 -102.095c1.23438 -64.5918 -50.4619 -123.157 -115.718 -124.634zM156.548 372.547c0.0341797 -0.144531 0.285156 -0.0927734 0.693359 0.111328
c-0.229492 -0.046875 -0.463867 -0.0556641 -0.693359 -0.111328zM162.57 510.195c-13.21 -7.87793 -23.5615 -18.3906 -30.792 -30.6055c13.8018 -3.42188 24.0332 -11.125 22.8887 -23.0801c-1.83398 -19.207 -5.72852 -41.5713 -0.723633 -60.5479
c1.84668 -7.00977 5.55371 -12.6406 8.96289 -18.8584c0.0761719 -0.0976562 0.169922 -0.173828 0.246094 -0.267578c3.66406 2.83887 7.55859 6.08203 7.9375 6.44824c6.1582 5.97949 10.9551 12.8398 15.0576 20.3477c7.92871 14.5215 12.0781 29.6895 13.6143 46.0869
c1.48145 15.7637 1.03906 31.8301 -5.12305 46.6494c-7.35449 17.6963 -14.9131 24.0586 -32.0684 13.8271zM478.364 112.934c53.0498 -15.2832 82.9297 -68.8848 64.9482 -121.671c-19.6025 -57.5654 -87.8418 -91.4805 -145.713 -74.3125
c-25.2285 7.48145 -46.6182 25.501 -57.126 49.8232c-13.7803 31.8975 -6.23926 63.8125 0.169922 96.3105c2.12402 10.7676 11.291 17.832 22.833 21.5176c23.1475 34.5195 75.3164 39.7334 114.888 28.332zM473.209 -4.15723
c11.5635 24.8037 9.31445 60.7188 -14.2422 78.4912c-11.6738 8.80957 -28.5439 9.65234 -41.4395 3.50293c6.22656 -5.14551 9.29102 -12.2441 6.65234 -21.1943c-9.45215 -32.043 -14.959 -66.4473 4.32031 -95.4297c5.51562 -8.29492 8.31152 -4.07715 17.1387 1.87695
c11.9424 8.05176 21.5225 19.7812 27.5703 32.7529z" />
    <glyph glyph-name="ampersand" unicode="&#x26;" horiz-adv-x="554" 
d="M461.963 164.074c38.7412 -21.4834 48.0127 -66.8701 38.9941 -107.501c-18.1348 -81.6787 -96.3535 -137.848 -165.929 -174.61c-8.51172 -4.50293 -17.4316 -8.64844 -26.6416 -12.3975c2.60059 -15.8193 5.40527 -31.6084 8.48633 -47.3594
c3.16602 -16.1895 -41.9932 -18.1514 -45.4873 0c-2.14453 11.1543 -4.11914 22.3262 -6.02148 33.5107c-57.5732 -13.8652 -120.352 -10.5801 -169.18 22.9141c-82.9814 56.9229 -37.0947 159.357 5.60449 226.855c34.2852 54.1982 78.168 102.413 125.697 145.921
c-42.3203 11.7207 -82.3682 30.3828 -116.016 59.5996c-48.7686 42.3457 -66.8691 110.878 -28.5615 166.323c18.7002 27.0674 43.3848 46.168 71.6357 62.459c25.5908 14.7598 50.1768 28.2471 79.0361 35.7803c5.57129 1.45117 11.3164 2.75781 17.1768 3.89453
c1.62598 30.7363 3.25195 61.4004 4.75391 91.9619c0.833984 16.96 43.4443 16.4062 42.6914 0c-1.33594 -29.0508 -2.77441 -58.1904 -4.22559 -87.3984c37.6309 0.395508 75.0488 -9.45703 100.12 -38.7754c38.3369 -44.8311 13.9844 -95.9951 -28.877 -126.033
c-13.8232 -9.68652 -54.5137 3.00488 -32.4941 18.5215c22.3262 15.7383 41.3203 42.3076 33.6084 70.9199c-7.43945 27.5947 -33.2725 44.376 -60.7656 46.3418c-4.3457 0.310547 -8.69531 0.254883 -13.0361 0.0419922
c-3.83496 -77.5508 -7.50781 -155.522 -9.24414 -233.52c21.2705 -6.25195 38.9707 -9.12012 62.0801 -14.1758c16.0918 -3.51953 37.5029 -8.86523 45.1553 -25.7402c6.83496 -15.0781 -3.74902 -28.752 -16.627 -35.8506
c-32.7021 -18.0322 -63.085 -38.3623 -91.2803 -61.3525c1.40039 -94.0381 7.16699 -187.757 20.458 -280.438c57.1904 23.1348 115.049 70.6982 141.559 126.105c13.1846 27.5566 19.917 63.5439 5.94043 92.1943c-18.0703 37.0391 -55.9346 30.4766 -85.8154 12.9082
c-13.4355 -7.90332 -53.0752 3.5625 -31.1748 17.7686c37.5537 24.3652 87.5352 33.7754 128.379 11.1299zM214.643 353.148c8.61426 -6.16699 16.8789 -11.0352 25.2627 -15.21c2.00488 69.1709 5.42188 138.291 9.03516 207.096
c-6.21387 -2.53223 -12.2529 -5.44727 -18.0322 -8.69043c-22.3477 -12.5332 -35.5195 -28.9443 -47.0449 -51.5986c-11.3203 -22.2539 -20.6914 -48.8535 -14.0391 -74.0654c6.375 -24.1816 25.0332 -43.3672 44.8184 -57.5312zM136.756 -76.9453
c21.5518 -44.0273 77.6016 -43.1348 123.093 -32.665c-12.4824 84.1641 -18.6445 169.192 -20.8066 254.562c-12.8057 -12.8652 -25.1006 -26.4248 -36.877 -40.75c-35.9668 -43.7588 -94.5703 -121.564 -65.4092 -181.146z" />
    <glyph glyph-name="quotesingle" unicode="'" horiz-adv-x="177" 
d="M96.2578 613.836c10.7715 -0.761719 30.5752 -5.75586 30.8174 -19.8936c0.22168 -12.6445 -3.26855 -24.7529 -6.38379 -37.0098c-3.1709 -12.4863 -6.52051 -23.9385 -14.5469 -34.1357c-7.95898 -10.1123 -33.9756 -9.53809 -42.0869 -0.000976562
c-16.8535 19.8066 -17.8242 53.7598 -6.79688 76.5283c6.41406 13.2441 26.2803 15.4102 38.9971 14.5117z" />
    <glyph glyph-name="quotesingle" unicode="&#x2019;" horiz-adv-x="177" 
d="M96.2578 613.836c10.7715 -0.761719 30.5752 -5.75586 30.8174 -19.8936c0.22168 -12.6445 -3.26855 -24.7529 -6.38379 -37.0098c-3.1709 -12.4863 -6.52051 -23.9385 -14.5469 -34.1357c-7.95898 -10.1123 -33.9756 -9.53809 -42.0869 -0.000976562
c-16.8535 19.8066 -17.8242 53.7598 -6.79688 76.5283c6.41406 13.2441 26.2803 15.4102 38.9971 14.5117z" />
    <glyph glyph-name="quotesingle" unicode="&#x2018;" horiz-adv-x="177" 
d="M96.2578 613.836c10.7715 -0.761719 30.5752 -5.75586 30.8174 -19.8936c0.22168 -12.6445 -3.26855 -24.7529 -6.38379 -37.0098c-3.1709 -12.4863 -6.52051 -23.9385 -14.5469 -34.1357c-7.95898 -10.1123 -33.9756 -9.53809 -42.0869 -0.000976562
c-16.8535 19.8066 -17.8242 53.7598 -6.79688 76.5283c6.41406 13.2441 26.2803 15.4102 38.9971 14.5117z" />
    <glyph glyph-name="parenleft" unicode="(" horiz-adv-x="487" 
d="M422.49 -181.703c9.93359 -3.64746 20.8613 -13.6562 10.9238 -23.7256c-72.9717 -73.9072 -195.49 -60.2676 -272.973 -1.44238c-75.3037 57.1689 -103.729 149.521 -108.946 240.563c-5.80469 101.239 5.82227 204.542 26.5527 303.572
c10.4102 49.7432 24.0371 98.4775 40.9883 146.395c16.3125 46.1172 35.4551 94.5791 63.0674 135.266c26.1992 38.6055 63.1533 73.2227 108.525 87.0928c30.6338 9.36328 74.4824 24.6338 99.5068 -4.83789c13.8018 -16.2578 -26.1396 -22.208 -36.0605 -12.0156
c-21.6416 22.2373 -66.2344 -49.4443 -74.1758 -64.4502c-20.0498 -37.8818 -33.4307 -78.6572 -45.709 -119.569c-45.4102 -151.267 -74.0693 -312.913 -65.626 -471.449c3.66016 -68.7363 20.1006 -142.022 67.1533 -194.847
c36.7363 -41.248 96.6631 -63.3447 145.146 -26.7695c11.542 8.70312 27.833 11.2783 41.626 6.21777z" />
    <glyph glyph-name="parenright" unicode=")" horiz-adv-x="488" 
d="M416.224 302.136c17.8916 -98.668 28.8799 -203.729 16.5674 -303.743c-11.1631 -90.625 -51.4834 -176.926 -133.218 -223.864c-75.1973 -43.1758 -181.896 -44.4609 -245.568 20.0322c-10.0566 10.1846 0.833984 20.1514 10.9121 23.7266
c13.8486 4.91602 30.0166 2.53711 41.6221 -6.2168c56.084 -42.3115 123.833 -6.62598 158.735 44.2109c42.3672 61.7148 53.8496 135.47 54.501 208.96c0.698242 78.9893 -6.11133 158.94 -18.6963 236.892c-12.7715 79.1123 -32.5186 156.824 -57.0967 233.056
c-11.5254 35.7539 -24.9531 72.4102 -45.0283 104.363c-8.41406 13.3887 -46.7002 69.0469 -65.6221 49.6104c-10.0273 -10.3037 -49.79 -4.1582 -36.0605 12.0137c27.8076 32.7529 87.4492 12.5293 119.518 -2.41699c47.2959 -22.0459 82.2705 -64.7197 106.073 -109.913
c46.9512 -89.1436 75.4482 -187.931 93.3613 -286.71z" />
    <glyph glyph-name="asterisk" unicode="*" horiz-adv-x="278" 
d="M227.617 447.116c0 -9.54199 -14.7764 -12.8818 -22.0371 -12.5664c-12.6143 0.548828 -25.2412 1.04297 -37.8682 1.36621c13.4102 -11.8779 26.7607 -23.7988 39.0479 -36.9287c14.6875 -15.7002 -27.1436 -24.084 -37.668 -12.5508
c-4.1748 4.5752 -8.48145 8.99707 -12.8652 13.334c0.420898 -8.27734 0.84668 -16.5674 1.23438 -24.8965c0.799805 -17.1387 -41.0869 -16.7812 -43.623 0c-0.706055 4.65137 -1.25098 9.3457 -1.7959 14.04c-6.08203 -6.89062 -12.1553 -13.8018 -18.2158 -20.7471
c-10.1846 -11.6699 -51.7178 -4.18359 -37.6689 12.5508c15.5596 18.5342 31.8086 36.6895 48.5088 54.4707c-10.4102 -0.633789 -20.8027 -1.55273 -31.1787 -2.90137c-19.1094 -2.48535 -36.1924 16.5596 -10.3594 21.4199
c10.8652 2.04297 21.7471 3.50293 32.6504 4.59277c-10.376 11.8398 -20.7012 23.9307 -33.0732 32.7275c-19.7939 14.0742 16.8408 25.2246 29.2002 16.6445c6.46875 -4.49023 12.3203 -9.63965 17.9258 -15.0654c0.506836 10.4697 1.12793 20.9014 1.85156 31.2178
c1.19141 16.9678 43.6221 16.3467 42.6904 0c-0.749023 -13.0869 -1.03809 -26.0967 -1.03809 -39.0605c9.91602 9.69043 19.9131 19.2617 29.9736 28.667c9.97559 9.32422 47.8486 2.51074 34.0508 -11.3467c-13.6396 -13.6992 -26.9902 -27.5645 -40.1748 -41.5576
c9.45215 -0.22168 18.9131 -0.510742 28.3867 -0.84668c6.98828 -0.24707 22.0459 -2.63477 22.0459 -12.5635z" />
    <glyph glyph-name="plus" unicode="+" horiz-adv-x="367" 
d="M294.52 258.832c7.21387 -0.157227 22.7441 -2.79199 22.7402 -12.959c0 -9.95898 -15.2363 -13.1211 -22.7441 -12.9639c-23.7266 0.498047 -47.415 0.344727 -71.0781 -0.348633c-0.501953 -9.1416 -0.974609 -18.2832 -1.35742 -27.4209
c-1.34961 -32.0977 -2.55859 -64.3193 -5.20117 -96.3408c-2.57031 -31.1572 -4.9707 -60.8594 -19.3936 -89.0635c-10.5371 -20.6113 -56.373 -19.9258 -67.2002 0c-15.7979 29.0723 -18.4707 60.6592 -20.6416 93.251c-2.03809 30.625 -2.24707 61.4717 -1.85547 92.1484
c0.0849609 6.42188 0.161133 12.8486 0.242188 19.2793c-9.75 -1.10254 -19.4961 -2.29004 -29.2334 -3.60059c-7.47363 -1.00879 -25.1865 -0.485352 -28.2637 9.14551c-3.09375 9.69922 7.95898 15.0273 16.0498 16.1084c13.9297 1.85938 27.8848 3.45996 41.8486 4.92871
c0.864258 47.6484 2.83008 95.4033 10.3633 142.405c6.80469 42.457 110.363 44.3896 111.116 0.000976562c0.761719 -44.9375 -2.22559 -89.8711 -4.9541 -134.771c23.1729 0.595703 46.3633 0.710938 69.5625 0.200195z" />
    <glyph glyph-name="comma" unicode="," horiz-adv-x="224" 
d="M83.3848 65.7637c11.916 32.2549 103.754 22.917 89.1943 -14.0156c-16.1084 -40.8652 -34.7744 -94.2471 -74.0225 -118.229c-10.8994 -6.66016 -39.4053 -8.01367 -45.4014 6.83105c-7.90723 19.5645 0.791992 41.0566 7.06055 60.1611
c7.21387 21.999 15.1465 43.5342 23.1689 65.252z" />
    <glyph glyph-name="hyphen" unicode="-" horiz-adv-x="355" 
d="M303.471 230.411c6.55371 -16.8535 -14.7305 -25.624 -27.749 -27.8545c-62.7783 -10.7764 -126.753 -15.9307 -190.285 -19.71c-11.1934 -0.667969 -32.4131 4.25195 -35.1367 17.6797c-2.80469 13.8145 14.7041 20.7725 25.625 22.373
c59.3613 8.71582 118.936 17.6104 178.671 23.3301c13.998 1.34082 42.3037 1.08594 48.875 -15.8184z" />
    <glyph glyph-name="period" unicode="." horiz-adv-x="189" 
d="M133.366 23.8008c3.92773 -3.99609 7.4707 -11.5957 3.93359 -17.1367c-4.51172 -7.08594 -8.24805 -14.5039 -12.2441 -21.875c-4.41797 -8.1543 -8.67773 -17.8496 -16.2314 -23.501c-15.168 -11.3506 -42.8652 -12.917 -54.7559 4.07715
c-10.2061 14.585 1.20801 39.2051 7.95312 53.126c7.80078 16.0869 33.0762 17.5293 48.0186 15.5371c7.66016 -1.02148 17.7207 -4.51172 23.3262 -10.2275z" />
    <glyph glyph-name="slash" unicode="/" horiz-adv-x="657" 
d="M568.466 725.404c15.666 -2.50684 46.1689 -14.9287 36.04 -36.1826c-73.6562 -154.586 -158.369 -303.351 -235.558 -456.18c-38.5664 -76.3594 -76.3965 -153.131 -113.286 -230.315c-37.8301 -79.1504 -73.7627 -160.221 -119.109 -235.409
c-15.7852 -26.1777 -96.1533 -26.2207 -85.6025 13.4521c21.9561 82.5518 58.1357 161.783 93.1787 239.487c35.0127 77.627 71.2773 154.633 108.984 230.987c76.708 155.327 155.183 309.628 251.876 453.617c13.4062 19.9639 41.1201 24.1221 63.4766 20.543z" />
    <glyph glyph-name="zero" unicode="0" horiz-adv-x="438" 
d="M354.954 488.911c22.1182 -48.7383 27.2617 -104.986 30.8711 -157.751c3.89453 -56.7646 3.42676 -114.134 -1.19531 -170.856c-3.92383 -48.1465 -11.8057 -105.46 -40.0391 -146.078c-35.1621 -50.5938 -100.801 -72.3838 -160.137 -54.292
c-105.026 32.0254 -127.463 163.898 -132.932 257.587c-3.33203 57.0801 -1.00391 114.424 5.125 171.244c3.25195 30.1357 7.88672 59.667 14.7432 89.1943c6.24316 26.876 12.3975 55.2461 26.6543 79.1045c11.708 19.5938 59.2207 27.0674 80.7295 11.4189
c19.4277 11.4951 43.5967 15.9131 65.9912 12.1465c53.1133 -8.92871 88.5137 -43.9502 110.188 -91.7178zM264.65 179.469c8.51562 84.6797 15.1162 174.258 7.77051 259.235c-3.01758 34.9492 -8.35449 72.8652 -27.7529 102.929
c-8.94141 13.8613 -16.3594 18.4453 -32.7441 11.125c-9.41797 -4.20508 -16.7852 -11.0312 -22.2666 -19.2705c-0.651367 -19.9004 -4.70312 -40.0176 -7.33789 -59.5518c-3.45605 -25.6377 -6.97559 -51.3135 -9.9248 -77.0146
c-5.62207 -48.9297 -7.65625 -98.0254 -7.81348 -147.253c-0.140625 -43.8311 1.7959 -87.9941 10.7334 -131.017c6.78418 -32.6592 18.4961 -70.6426 43.8779 -93.7861c0.0302734 -0.0292969 0.0644531 -0.0546875 0.0986328 -0.0839844
c8.04395 10.5371 14.168 21.3682 19.5049 34.2422c15.8193 38.1455 21.748 79.6191 25.8545 120.445z" />
    <glyph glyph-name="one" unicode="1" horiz-adv-x="328" 
d="M191.157 -70.6943c-10.4014 0 -28.8525 2.28516 -42.2881 9.08984c-11.1973 -0.770508 -22.3906 -1.5752 -33.584 -2.42188c-22.0117 -1.66406 -31.0303 23.165 -5.98438 25.2031c7.27344 0.591797 14.5469 1.14062 21.8203 1.70215
c-6.62598 27.4629 -6.47266 56.0283 -6.99219 84.2236c-0.514648 27.8672 -1.02539 55.7393 -1.54004 83.6113c-1.05566 57.1523 -1.53223 114.245 -1.45996 171.406c0.0722656 56.752 1.42969 113.628 4.03027 170.325c1.09375 23.9395 3.3877 47.6357 2.73242 71.5244
c-0.0166016 0.182617 -0.0849609 0.352539 -0.110352 0.53125c-4.03027 -3.84277 -8.86914 -7.46875 -12.5928 -11.4395c-8.28223 -8.82715 -16.2275 -17.9902 -24.3223 -26.9873c-10.2695 -11.4189 -51.9385 -4.92871 -38.0684 12.6816
c16.9814 21.5557 32.7451 46.9033 60.6172 55.0703c24.8115 7.26953 52.6914 0.694336 72.1406 -16.0312c48.249 -41.4951 51.1387 -122.204 56.6289 -180.816c6.60938 -70.6221 8.12012 -141.934 9.77539 -212.824c0.783203 -33.4424 1.5625 -66.8896 2.3457 -100.332
c0.723633 -31.0088 2.91113 -62.4131 -1.9707 -93.0176c0.804688 0.0429688 1.60938 0.09375 2.41406 0.136719c7.3457 0.382812 23.207 -3.24316 23.207 -13.2275c0 -10.5166 -15.5469 -12.874 -23.207 -13.2275c-4.18359 -0.191406 -8.36328 -0.420898 -12.5469 -0.625
c-12.5723 -11.2656 -38.0859 -14.5557 -51.0449 -14.5557z" />
    <glyph glyph-name="two" unicode="2" horiz-adv-x="351" 
d="M171.354 324.068c18.8447 60.7402 30.0361 125.789 34.1562 189.215c0.783203 12.0908 2.43848 31.3828 -9.84375 37.7285c-13.7764 7.12012 -30.3525 -7.17969 -39.3281 -16.8486c-17.6621 -19.0156 -43.8525 -59.2803 -33.1875 -85.8496
c6.48633 -16.1592 -32.3525 -19.1172 -38.4727 -6.04297c-14.7041 31.417 7.28613 68.3154 25.9307 93.5098c17.9131 24.2119 43.8994 40.3887 74.3926 42.0361c63.2422 3.41309 100.153 -53.7988 110.048 -109.283c12.959 -72.6738 1.96191 -146.841 -19.8584 -216.752
c-21.3262 -68.3193 -51.8447 -132.349 -83.7002 -196.242c-8.59277 -17.2324 -15.8574 -34.6514 -22.1982 -52.8281c-3.74121 -10.7168 -10.0742 -30.7666 -5.13281 -41.7939c1.9707 -0.208984 5.87305 -0.174805 6.7627 -0.0683594
c9.15039 1.10254 18.2666 2.10645 27.3271 3.85156c17.0957 3.29004 33.6172 8.66113 49.9385 14.6621c18.3643 6.75 53.3389 -11.7754 24.1309 -23.5303c-33.4473 -13.4609 -67.958 -20.4189 -102.763 -29.1221c-35.8809 -8.97168 -76.4307 -3.06055 -100.472 27.4541
c-44.9717 57.0928 0.259766 126.638 26.0889 181.066c29.2422 61.625 55.9482 123.612 76.1807 188.838z" />
    <glyph glyph-name="three" unicode="3" horiz-adv-x="389" 
d="M89.8223 490.38c-5.1543 -13.959 -44.4404 -11.0117 -39.3672 6.19043c12.1631 41.2646 44.9883 71.5322 88.5176 75.6436c40.6396 3.83887 87.2119 -16.8408 107.811 -52.9688c21.126 -37.0479 13.8486 -83.3096 -0.174805 -121.195
c-7.13281 -19.2666 -16.3506 -37.3672 -27.7354 -54.459c-6.83496 -10.2568 -14.21 -20.2627 -21.8027 -29.9707c-1.51465 -1.93652 -7.37109 -10.8525 -12.125 -16.4404c0.204102 -0.12793 0.416992 -0.250977 0.621094 -0.378906
c3.7959 -2.3623 7.56641 -4.77148 11.29 -7.24414c9.04785 -6.00098 17.8281 -12.3887 26.582 -18.8027c16.1123 -11.8018 31.6807 -24.2246 45.7637 -38.4307c30.749 -31.0254 53.9482 -67.29 64.2178 -109.938c10.1377 -42.1162 7.09473 -86.0498 -17.0488 -123.157
c-25.2969 -38.873 -64.042 -66.3154 -110.154 -74.1162c-43.0059 -7.27344 -88.7314 0.208008 -119.681 32.7354c-25.2246 26.5137 -36.9492 63.4082 -30.6719 99.46c3.00879 17.292 46.2354 16.4873 44.0859 0c-4.53711 -34.8516 11.082 -76.2441 47.9336 -86.4414
c29.4639 -8.15039 47.415 9.94141 58.8037 36.1406c23.7393 54.5947 7.87305 120.012 -22.9268 168.005c-14.8066 23.0713 -35.9375 43.7246 -57.6514 60.3184c-21.5137 16.4443 -69.8438 32.5742 -60.1445 67.2295c4.78809 17.1084 21.9688 30.3867 33.0762 43.7207
c9.1582 10.9932 17.2441 22.5947 24.9561 34.6387c17.5898 27.4717 31.1367 57.1865 41.585 88.0889c6.77539 20.0371 20.5088 68.2861 -8.78906 76.6357c-32.1914 9.17969 -57.833 -30.4805 -66.9707 -55.2627z" />
    <glyph glyph-name="four" unicode="4" horiz-adv-x="358" 
d="M100.989 157.578c-46.7002 13.8271 -54.7949 59.5352 -49.6279 102.311c6.83105 56.5947 29.1318 111.074 52.999 162.379c24.6455 52.9688 52.415 105.436 86.3477 153.071c1.77441 2.49805 5.08984 4.34961 9.09082 5.5625
c22.3389 30.2637 102.341 27.9268 105.784 -12.083c4.57129 -53.0967 0.293945 -106.836 -0.485352 -160.03c-0.761719 -51.9639 -1.14941 -103.933 -0.634766 -155.896c0.527344 -53.3564 1.92773 -106.691 2.57031 -160.043
c0.301758 -25.3096 0.416992 -50.4404 -0.617188 -75.7412c-1.11523 -27.2207 -1.25977 -51.5049 -20.6025 -72.4902c-12.8994 -13.998 -43.2695 -11.9512 -56.5566 -0.000976562c-22.4795 20.2158 -25.1143 48.2539 -29.5234 76.6963
c-3.90234 25.1904 -6.25586 50.3389 -8.20898 75.7461c-1.57031 20.4238 -2.68555 40.8525 -3.61719 61.2891c-28.9316 -7.3623 -59.4248 -8.91113 -86.918 -0.769531zM114.901 324.451c-11.7422 -35.8945 -27.582 -87.752 -10.3545 -124.463
c13.623 -29.0293 51.9727 -22.6963 82.1299 -11.1328c-0.723633 21.3301 -1.26855 42.6689 -1.65137 64.0332c-0.949219 53.3643 -1.18359 106.746 -0.178711 160.11c0.472656 25.0078 0.608398 50.2109 1.63379 75.3506
c-27.6934 -52.8584 -52.9346 -106.891 -71.5791 -163.898z" />
    <glyph glyph-name="five" unicode="5" horiz-adv-x="423" 
d="M176.44 296.665c-19.875 -34.9873 -38.3945 -68.627 -45.8428 -108.73c-6.91602 -37.252 -8.06055 -77.9639 0.974609 -114.994c6.69922 -27.459 21.5605 -60.4082 50.2793 -70.8564c19.2324 -6.99707 33.6807 10.7588 43.3457 25.7227
c18.6279 28.8418 24.3691 64.1445 26.4463 97.7705c2.06445 33.4258 1.66406 68.1494 -5.79199 100.945c-6.78809 29.8633 -20.041 61.208 -39.8691 84.7725c-22.709 26.9912 -51.6279 45.2871 -78.8906 66.9795c-28.7617 22.8799 -41.4658 52.1094 -29.5029 88.1016
c8.3418 25.0967 22.2412 52.7217 39.5664 75.5674c-11.6611 1.69336 -23.1904 3.87207 -34.4941 6.81738c-20.3008 5.29004 -20.6709 27.5742 0 32.6982c69.6094 17.249 146.449 8.21387 217.557 9.26465c14.3936 0.212891 47.2061 -6.1582 46.7168 -26.6289
c-0.489258 -20.4365 -30.9316 -27.0156 -46.7168 -26.624c-37.4258 0.931641 -76.6016 -0.974609 -115.437 -0.361328c-3.51074 -15.9297 -8.22168 -31.7148 -12.124 -47.4102c-5.32812 -21.4326 -14.7041 -47.4531 0.71875 -66.6602
c12.2529 -15.2568 33.6816 -24.0664 49.6074 -34.7871c20.1689 -13.5674 40.0869 -28.25 57.2471 -45.5459c110.112 -110.998 106.146 -391.614 -92.4678 -396.849c-41.3838 -1.08984 -86.7939 12.1289 -114.866 44.0732c-23.2588 26.4678 -35.1152 61.5488 -39.9111 95.958
c-10.5166 75.4053 6.06055 169.584 60.6162 225.877c12.5127 12.9082 77.6787 11.0225 62.8389 -15.1006z" />
    <glyph glyph-name="six" unicode="6" horiz-adv-x="360" 
d="M187.536 -62.791c-96.5527 1.44727 -139.471 94.959 -137.471 180.421c1.95801 83.4072 27.4717 168.61 56.1729 246.306c14.0107 37.9287 31.8555 75.3213 51.5771 110.624c11.3506 20.3174 23.7988 40.4521 37.4521 59.293
c13.3721 18.4531 28.3994 31.9785 44.9805 47.415c9.03516 8.41406 23.9092 10.2402 35.6729 8.27441c6.49023 -1.08984 25.582 -6.98828 23.1904 -17.3643c-4.23926 -18.3984 -5.9502 -34.7959 -12.998 -52.6025c-7.20508 -18.2021 -14.9932 -36.1787 -22.249 -54.373
c-14.7803 -37.0645 -28.4033 -74.1924 -40.8428 -112.108c-23.9688 -73.0439 -45.4229 -150.658 -49.7979 -227.732c-0.0556641 -0.961914 -0.102539 -1.93652 -0.15332 -2.90234c57.3994 16.8066 129.736 -11.2227 136.039 -77.0996
c6.69434 -69.9883 -59.127 -109.091 -121.573 -108.15zM183.93 95.0312c-3.29785 -1.80859 -7.48438 -3.10254 -11.8896 -3.69434c-0.12793 -28.3184 2.53613 -56.7773 12.9717 -83.1123c7.83887 -19.7773 24.7344 -43.083 48.2734 -29.4385
c60.127 34.8467 18.2705 153.322 -49.3555 116.245z" />
    <glyph glyph-name="seven" unicode="7" horiz-adv-x="367" 
d="M89.4326 521.571c-10.7158 -8.89062 -51.2627 -2.2334 -36.0645 12.0156c39.6904 37.1875 107.172 64.4424 161.085 45.4062c65.7744 -23.2285 64.9277 -116.56 63.2852 -173.694c-1.2168 -42.333 -5.44336 -84.4453 -11.002 -126.404
c9.09863 0.102539 18.1846 0.192383 27.2373 0.290039c7.28223 0.0810547 22.9736 -2.99121 22.9736 -13.0947c0 -10.2266 -15.3848 -13.0098 -22.9727 -13.0947c-10.3076 -0.110352 -20.6152 -0.374023 -30.9229 -0.693359
c-3.15332 -21.7432 -6.55371 -43.4521 -10.0518 -65.127c-11.5039 -71.248 -20.165 -145.023 -40.2744 -214.433c-11.1846 -38.6055 -125.174 -35.9502 -122.391 9.43848c3.62598 59.1104 17.9424 118.067 28.2803 176.288c5.27734 29.7061 10.9678 59.3359 16.4746 88.999
c-5.91992 -0.119141 -11.8398 -0.238281 -17.7637 -0.28125c-19.9512 -0.149414 -29.1738 20.2744 -5.5498 23.377c9.32422 1.22168 18.7002 2.20508 28.0977 3.08594c3.17871 17.6875 6.24316 35.3965 9.02637 53.1562c8.81836 56.2627 18.1982 112.397 20.0322 169.405
c0.429688 13.3594 8.25586 49.6787 -8.98438 55.0449c-21.7812 6.78418 -55.3135 -17.0742 -70.5156 -29.6846z" />
    <glyph glyph-name="eight" unicode="8" horiz-adv-x="378" 
d="M128.814 194.226c-14.1768 19.0195 -28.082 38.2188 -40.3047 58.5234c-25.5996 42.542 -44.1465 90.2637 -36.9453 140.691c6.7666 47.3848 29.0762 91.5732 63.2891 125.109c31.9619 31.332 84.6885 52.9092 129.716 46.7002
c45.3721 -6.25586 74.2695 -44.1592 81.0361 -87.4756c7.72852 -49.4707 -5.91602 -103.916 -17.2959 -151.893c-11.2139 -47.291 -29.7314 -91.2588 -46.832 -136.401c3.88965 -6.18848 7.70312 -12.4277 11.3721 -18.7432
c22.4199 -38.6133 47.3164 -93.7188 37.6338 -139.432c-8.03516 -37.9326 -34.0088 -77.0273 -70.3877 -92.9951c-40.0137 -17.5684 -90.7949 -6.46484 -119.624 26.3906c-33.541 38.2266 -34.6855 91.3232 -24.7012 138.713
c5.34082 25.3477 12.874 50.5381 23.8887 74.0303c2.97949 6.3584 5.82715 12.0312 9.15527 16.7812zM188.388 -41.8135c30.5576 -8.59277 43.3076 16.6924 41.3496 42.6787c-3.3916 44.9551 -28.9951 90.4883 -53.2109 127.361
c-6.26465 9.54199 -12.8613 18.8662 -19.5771 28.1055c-0.348633 -1 -0.693359 -1.9707 -1.03809 -2.87305c-5.75781 -15.0957 -10.5498 -30.6299 -14.0439 -46.4062c-6.58008 -29.6973 -10.0957 -62.3867 -1.26074 -91.9863
c6.92871 -23.2119 22.8672 -49.875 47.7812 -56.8799zM166.12 445.83c-11.0312 -48.0361 3.75391 -95.3955 23.8115 -138.784c9.74609 -21.0879 21.6494 -40.916 34.1875 -60.3779c16.8154 36.7881 32 74.6523 43.3887 112.598
c13.4102 44.6777 33.4727 149.079 -23.2285 174.193c-39.707 17.585 -71.7031 -59.502 -78.1592 -87.6289z" />
    <glyph glyph-name="nine" unicode="9" horiz-adv-x="463" 
d="M147.15 326.779c-33.2002 -0.638672 -73.6787 12.4609 -89.332 44.0996c-28.9951 58.6377 28.749 132.83 73.4824 166.545c49.3984 37.2305 121.681 47.7168 173.538 10.6016c16.04 1.5957 34.1787 -4.13281 45.793 -14.624
c19.7646 -17.8496 34.792 -49.501 43.0146 -74.3506c8.07812 -24.4199 12.917 -49.002 15.8965 -74.5156c6.40039 -54.8076 2.12793 -110.841 -3.69824 -165.499c-5.9834 -56.1309 -9.7793 -113.193 -19.8867 -168.754c-8.5332 -46.917 -26.8975 -104.443 -70.6143 -130.247
c-46.0527 -27.1826 -98.8984 -11.5293 -127.554 31.4424c-24.4971 36.7412 -30.792 81.4619 -31.3535 124.672c-0.225586 17.415 44.168 17.4785 44.5557 0c0.770508 -34.7744 5.00488 -104.481 43.3545 -122.51c24.0283 20.3857 19.5088 78.6357 21.335 104.443
c3.81738 53.8838 9.75391 107.266 15.7637 160.958c6.1709 55.1006 11.1592 110.027 11.8486 165.498c0.335938 27.3994 -1.54492 54.7822 -1.75391 82.1562c-0.0166016 2.34473 0.0263672 4.69434 0.0605469 7.04395
c-5.78418 -12.0908 -11.3555 -24.2754 -17.1396 -36.3623c-13.002 -27.1611 -28.2207 -54.5605 -50.0234 -75.7715c-20.1982 -19.6533 -48.7002 -34.2812 -77.2871 -34.8262zM180.545 458.627c-13.4531 -22.1436 -24.3477 -44.4814 -20.3809 -71.123
c1.02539 -6.88184 3.12793 -14.1465 5.51953 -20.9473c1.05957 0.285156 2.42578 0.527344 4.14062 0.722656c4.16699 2.99609 8.28223 5.03418 12.3936 8.3916c37.1797 30.3398 53.2627 83.1855 74.2695 124.582c5.14941 10.1504 10.4307 21.5391 17.8193 30.6641
c-39.0479 17.4453 -76.5166 -43.9033 -93.7617 -72.29z" />
    <glyph glyph-name="colon" unicode=":" horiz-adv-x="188" 
d="M134.785 355.096c5.65625 -20.4961 2.82129 -41.5244 -3.88184 -61.3613c-4.01758 -11.9033 -24.4326 -13.5078 -34.3994 -12.8018c-8.24805 0.583008 -28.4375 5.26465 -27.1865 17.5518c1.90234 18.7041 3.64746 38.5234 8.9375 56.6113
c2.11914 7.25195 14.2275 10.8311 20.4707 11.6699c0.651367 0.0898438 1.30273 0.174805 1.94922 0.264648c4.64746 0.621094 9.03516 0.327148 13.6396 -0.264648c6.13281 -0.787109 18.4834 -4.45605 20.4707 -11.6699zM103.448 112.004
c10.1846 -2.31934 20.1553 -5.66504 22.585 -16.9131c3.94531 -18.2744 1.90723 -37.7666 -0.59082 -56.165c-4.5498 -33.4814 -85.5391 -26.3828 -74.3887 5.74023c6.28613 18.1084 9.22656 36.7666 14.5547 55.0879c2.31543 7.95898 14.875 10.8613 21.4883 12.249
c0.714844 0.149414 1.43457 0.298828 2.1543 0.452148c4.42578 0.927734 9.77539 0.557617 14.1973 -0.451172z" />
    <glyph glyph-name="semicolon" unicode=";" horiz-adv-x="254" 
d="M203.259 376.855c1.19629 -7.7373 -0.978516 -16.083 -1.92773 -23.8203c-0.987305 -8.03906 -2.14062 -16.04 -2.95312 -24.1006c-1.91504 -18.9727 -26.8242 -23.5859 -42.0605 -23.9736c-9.51172 -0.242188 -21.4199 2.12402 -29.7402 7.02246
c-5.07324 2.9873 -13.1934 9.86914 -12.3213 16.9512c1.1875 9.63574 2.63867 19.1348 4.88965 28.5781c2.03809 8.54199 3.48535 17.7812 8.35449 25.1904c9.03906 13.7549 26.9141 16.9258 42.3164 15.7471c13.4746 -1.03418 31.0596 -6.1543 33.4424 -21.5947z
M140.127 102.279c9.81836 7.91211 34.9385 10.8252 41.5645 -3.09961c14.8193 -31.1357 -1.75684 -74.2734 -10.0342 -105.788c-9.90332 -37.7031 -20.9814 -74.9121 -32.749 -112.07c-10.0264 -31.6553 -99.5996 -24.3818 -87.8486 13.8066
c11.1162 36.124 23.0068 71.8008 35.6084 107.436c12.0654 34.1152 24.3525 76.2402 53.459 99.7158z" />
    <glyph glyph-name="less" unicode="&#x3c;" horiz-adv-x="394" 
d="M304.839 215.783c16.5938 -2.05957 47.2432 -15.5098 37.5059 -37.6533c-9.89941 -22.4883 -45.7422 -23.8711 -66.0557 -21.377c-46.623 5.72852 -93.3096 11.542 -139.146 22.0664c-34.1875 7.85645 -102.86 28.2842 -83.8877 77.9883
c14.0488 36.8047 70.0049 58.6328 103.009 73.7539c42.542 19.4873 85.5137 36.6299 131.396 46.3887c11.5762 2.46387 56.4072 -8.1123 35.9326 -26.6426c-45.9678 -41.6094 -108.439 -56.8115 -156.335 -95.374c-2.22168 -1.78711 -8.85254 -6.28125 -9.80176 -9.1582
c-0.144531 -0.425781 1.09375 -5.34961 0.293945 -5.72461c3.66895 -1.94531 13.2959 -3.20508 16.1094 -3.85156c9.41016 -2.16602 18.9219 -3.95801 28.4209 -5.69434c33.9873 -6.21387 68.2852 -10.4658 102.558 -14.7217z" />
    <glyph glyph-name="equal" unicode="=" horiz-adv-x="338" 
d="M99.3408 262.671c-13.0654 -1.05957 -39.2783 -1.14062 -45.4365 14.708c-6.20898 15.9639 13.8408 23.3779 25.7998 25.8975c51.7178 10.9082 109.776 17.3555 161.52 4.02148c9.69043 -2.49414 20.9385 -11.2227 18.6357 -22.1689
c-2.375 -11.2783 -17.6748 -17.334 -27.9609 -18.4961c-43.8145 -4.94922 -88.4883 -0.386719 -132.558 -3.96191zM244.219 237.349c13.5293 -0.204102 44.3867 -5.49805 43.9229 -25.041c-0.476562 -20.0156 -29.0674 -24.2334 -43.9199 -25.0332
c-30.2129 -1.62598 -60.4336 -2.97559 -90.667 -4.12891c-29.9951 -1.14453 -59.8291 -3.44238 -89.2031 3.9502c-14.5078 3.65625 -20.4961 18.7559 -6.11133 27.0293c25.8164 14.8525 58.5098 16.4102 87.5566 19.168c32.7451 3.11133 65.5322 4.55371 98.4219 4.05566z
" />
    <glyph glyph-name="greater" unicode="&#x3e;" horiz-adv-x="397" 
d="M343.706 243.222c19.0576 -42.3379 -51.5811 -58.4385 -78.3848 -66.4902c-43.6777 -13.1377 -87.6025 -22.1094 -132.191 -31.2217c-16.5469 -3.37891 -52.2158 -0.0595703 -59.7568 19.3389c-8.1377 20.9346 18.168 30.8418 33.9277 34.0596
c30.8164 6.29492 61.5137 15.0576 91.9775 22.9824c15.5762 4.04688 31.0381 8.51172 46.5938 12.627c0.911133 0.229492 1.82227 0.476562 2.7334 0.710938c-0.0722656 0.0976562 -0.148438 0.166016 -0.220703 0.272461
c-2.70703 1.72363 -5.49902 3.28125 -8.37988 4.68164c-57.5654 29.7275 -120.982 49.1299 -179.909 76.1934c-13.0654 6.00098 -12.8271 19.3857 -2.85156 27.2979c12.8779 10.2139 32.1016 9.3457 47.0527 5.35352c46.6611 -12.4609 91.9648 -28.7227 136.996 -46.1631
c31.7148 -12.2822 86.8496 -25.0674 102.413 -59.6426z" />
    <glyph glyph-name="question" unicode="?" horiz-adv-x="438" 
d="M350.126 609.602c34.043 -26.4248 40.1777 -65.4385 37.8115 -106.18c-5.25586 -90.7393 -41.3418 -176.925 -63.4941 -264.238c-23.748 -93.6211 -29.3105 -189.638 -46.2529 -284.374c-4.84766 -27.1055 -37.252 -34.8516 -61.1445 -34.8516
c-19.2744 0 -62.3691 7.89453 -61.1436 34.8516c4.03906 88.8457 19.6748 178.015 43.3203 263.724c20.0537 72.7031 51.207 142.015 77.1504 212.705c12.9043 35.1709 26.7617 72.0859 33.7881 108.95c6.24805 32.7744 -3.46777 66.9922 -40.166 73.5928
c-63.5918 11.4443 -124.11 -44.8271 -152.109 -96c-16.1768 -29.5615 -26.9189 -63.4805 -22.4971 -97.4639c3.87305 -29.7871 23.6377 -63.7793 55.1953 -70.2783c28.502 -5.87305 9.98047 -28.3311 -11.5967 -23.9775c-37.5918 7.58789 -69.0898 32.2588 -82.0996 69.0684
c-14.8359 41.9756 -3.94922 88.3691 15.9893 126.731c33.1279 63.7236 95.9531 112.718 168.729 118.825c38.6943 3.24707 77.6357 -7.11621 108.521 -31.085zM251.86 -129.146c4.43066 -2.61328 11.1992 -8.40527 10.5479 -14.5127
c-1.70703 -16.0703 -2.72461 -32.0811 -5.58887 -47.998c-2.97461 -16.5039 -22.3135 -20.5557 -36.707 -20.9219c-11.8105 -0.301758 -37.1162 4.91211 -36.708 20.9229c0.416992 16.3555 3.5918 32.0254 6.9834 47.998c3.43066 16.1465 21.459 20.1553 36.0098 20.5254
c8.14551 0.204102 18.3428 -1.81738 25.4629 -6.01367z" />
    <glyph glyph-name="at" unicode="@" horiz-adv-x="763" 
d="M644.137 561.515c54.6367 -60.7061 70.752 -142.882 69.2109 -222.45c-1.69824 -87.8711 -24.3604 -182.893 -70.3965 -258.357c-21.1172 -34.6133 -48.3848 -63.8555 -91.1816 -66.7666c-42.5801 -2.89355 -95.0889 15.334 -119.833 51.1816
c-19.2021 27.8203 -22.8496 62.5781 -21.8965 96.7402c-6.7373 -11.3291 -14.1553 -22.3223 -22.6289 -32.8047c-18.1982 -22.5137 -40.4141 -46.5381 -68.9111 -54.9141c-43.4736 -12.7764 -91.876 4.5752 -115.492 43.2949
c-37.46 61.4297 -3.88965 140.47 23.0078 198.992c28.2334 61.4248 77.0781 122.692 148.606 131.229c27.9355 3.33691 60.1016 -6.57031 78.9043 -28.2842c9.09473 -10.5039 14.2617 -22.6377 17.1133 -35.4736c24.3096 3.77051 55.1855 -4.83105 56.9561 -24.7949
c4.40918 -49.7432 0.348633 -99.958 -0.629883 -149.828c-0.855469 -43.6143 -3.08594 -88.4717 10.707 -130.405c2.60449 -7.9248 7.12402 -30.2002 15.9297 -32.9492c15.2871 -4.77051 37.873 32.5107 43.6143 41.9629c22.2539 36.6221 39.4902 78.1172 48.0703 120.165
c14.1631 69.4004 15.8828 145.946 1.57422 215.453c-13.5508 65.8213 -42.5205 132.422 -104.223 165.35c-127.987 68.2988 -284.706 -5.30664 -362.116 -115.074c-86.3477 -122.446 -112.287 -307.398 -43.3457 -443.468c32.374 -63.8975 87.415 -115.509 158.012 -132.987
c70.375 -17.4277 141.602 1.82617 205.04 33.1064c11.751 5.79199 29.1621 7.45605 40.7207 0c9.83105 -6.34082 10.916 -17.0996 0 -23.2109c-82.9004 -46.415 -189.055 -58.5869 -280.186 -31.0986c-88.8623 26.7988 -155.548 98.7188 -186.109 185.135
c-59.6846 168.763 -8.46973 378.225 126.28 496.683c62.123 54.6113 142.112 91.2842 225.28 94.293c84.2021 3.04688 161.569 -28.1064 217.922 -90.7188zM364.094 174.438c31.502 48.1387 45.5449 105.658 66.8242 158.853
c-0.106445 18.4453 0.1875 37.9668 -6.79199 55.3857c-2.48535 6.20117 -5.70312 12.5342 -10.2314 17.4922c-2.05176 2.5625 -4.48145 4.67773 -7.27734 6.35449c-0.357422 0.22168 -0.646484 0.400391 -0.944336 0.587891
c-20.1816 -5.45996 -35.5586 -36.2471 -44.6963 -52.4453c-13.6738 -24.2461 -22.9307 -51.0068 -31.7871 -77.3125c-9.7334 -28.9141 -18.2959 -58.1729 -19.9297 -88.8281c-0.821289 -15.4189 0.685547 -30.1914 3.9707 -45.2188
c1.32812 -6.05566 5.20996 -13.4395 7.78027 -20.3125c5.22168 3.46387 10.7334 7.07324 12.0146 8.22266c11.9893 10.75 22.2754 23.7861 31.0684 37.2217z" />
    <glyph glyph-name="A" unicode="A" horiz-adv-x="970" 
d="M244.438 189.898c-4.72363 -25.1094 -8.18262 -50.3945 -10.9785 -75.2617c-9.9541 -88.4971 -7.73242 -178.39 4.60938 -266.533c0.293945 -2.09863 -0.212891 -3.9248 -1.28516 -5.48633c6.05566 -2.90234 9.04785 -7.80469 3.9707 -14.3115
c-9.9375 -12.7334 -30.7871 -13.4316 -44.5889 -7.06445c-16.8535 7.77539 -19.8115 26.4414 -23.2969 42.9883c-10.4912 49.8193 -11.998 101.358 -12.2578 152.097c-0.285156 55.7178 1.43848 111.44 5.03906 167.039
c-82.7383 -17.3984 -167.954 -20.5049 -252.017 -9.52051c-7.17578 0.936523 -17.9854 5.5498 -16.457 14.3682c1.60059 9.21387 15.2871 10.9375 22.5645 11.3545c82.6191 4.74121 165.26 9.04395 247.922 12.9717c3.03906 39.4561 7.04004 78.8438 12.0156 118.104
c20.084 158.536 51.1475 324.481 135.286 462.917c38.6475 63.5918 90.1055 131.375 161.307 159.847c70.9414 28.3701 145.585 6.03516 195.54 -50.0107c57.2246 -64.2002 80.917 -149.582 98.6133 -231.768c19.4668 -90.416 35.0898 -182.888 43.6055 -275.027
c4.9668 -53.7393 9.12012 -107.542 13.0059 -161.362c43.9756 0.936523 87.9512 1.76172 131.932 2.46777c7.20996 0.115234 22.7441 -2.99121 22.7441 -12.9629c0 -10.1504 -15.2314 -12.8398 -22.7432 -12.9629c-43.3633 -0.710938 -86.7227 -1.52832 -130.082 -2.45996
c8.72852 -123.672 16.2822 -247.433 28.3477 -370.854c2.54102 -26.0166 -42.2266 -33.792 -59.2842 -33.792c-21.8838 0 -56.2207 7.50781 -59.2852 33.792c-14.2617 122.233 -18.9941 245.182 -23.9951 368.104c-156.795 -4.08105 -313.543 -9.66895 -470.231 -16.6738z
M337.897 750.057c-68.2725 -130.323 -95.6602 -278.902 -113.85 -423.525c-2.95801 -23.5391 -5.52832 -47.125 -7.79199 -70.7412c19.7051 66.6807 52.4834 132.175 111.661 170.873c31.8721 20.8408 82.3936 31.9951 113.517 3.51074
c27.3398 -25.0156 19.9346 -67.2852 2.67676 -95.9824c-34.0723 -56.6631 -97.3525 -92.2852 -161.055 -116.463c143.47 6.1543 286.991 11.1084 430.546 14.8105c-2.20898 53.3428 -4.58789 106.678 -7.9541 159.932c-5.20508 82.3467 -8.91211 164.523 -18.8789 246.509
c-9.08203 74.665 -17.9043 152.198 -49.7598 221.22c-13.0615 28.3018 -32.3281 60.3486 -62.0977 73.3506c-34.3965 15.0186 -72.2266 2.72754 -102.099 -16.7559c-59.2246 -38.626 -102.686 -105.214 -134.915 -166.737zM255.451 238.34
c59.2588 22.0117 121.956 54.8242 149.879 109.857c12.1504 23.9434 18.3594 86.9219 -27.2168 70.6475c-35.1318 -12.542 -63.3232 -48.9424 -81.6104 -79.8486c-18.4873 -31.2471 -31.502 -65.3877 -41.0518 -100.656z" />
    <glyph glyph-name="A" unicode="&#xc5;" horiz-adv-x="970" 
d="M244.438 189.898c-4.72363 -25.1094 -8.18262 -50.3945 -10.9785 -75.2617c-9.9541 -88.4971 -7.73242 -178.39 4.60938 -266.533c0.293945 -2.09863 -0.212891 -3.9248 -1.28516 -5.48633c6.05566 -2.90234 9.04785 -7.80469 3.9707 -14.3115
c-9.9375 -12.7334 -30.7871 -13.4316 -44.5889 -7.06445c-16.8535 7.77539 -19.8115 26.4414 -23.2969 42.9883c-10.4912 49.8193 -11.998 101.358 -12.2578 152.097c-0.285156 55.7178 1.43848 111.44 5.03906 167.039
c-82.7383 -17.3984 -167.954 -20.5049 -252.017 -9.52051c-7.17578 0.936523 -17.9854 5.5498 -16.457 14.3682c1.60059 9.21387 15.2871 10.9375 22.5645 11.3545c82.6191 4.74121 165.26 9.04395 247.922 12.9717c3.03906 39.4561 7.04004 78.8438 12.0156 118.104
c20.084 158.536 51.1475 324.481 135.286 462.917c38.6475 63.5918 90.1055 131.375 161.307 159.847c70.9414 28.3701 145.585 6.03516 195.54 -50.0107c57.2246 -64.2002 80.917 -149.582 98.6133 -231.768c19.4668 -90.416 35.0898 -182.888 43.6055 -275.027
c4.9668 -53.7393 9.12012 -107.542 13.0059 -161.362c43.9756 0.936523 87.9512 1.76172 131.932 2.46777c7.20996 0.115234 22.7441 -2.99121 22.7441 -12.9629c0 -10.1504 -15.2314 -12.8398 -22.7432 -12.9629c-43.3633 -0.710938 -86.7227 -1.52832 -130.082 -2.45996
c8.72852 -123.672 16.2822 -247.433 28.3477 -370.854c2.54102 -26.0166 -42.2266 -33.792 -59.2842 -33.792c-21.8838 0 -56.2207 7.50781 -59.2852 33.792c-14.2617 122.233 -18.9941 245.182 -23.9951 368.104c-156.795 -4.08105 -313.543 -9.66895 -470.231 -16.6738z
M337.897 750.057c-68.2725 -130.323 -95.6602 -278.902 -113.85 -423.525c-2.95801 -23.5391 -5.52832 -47.125 -7.79199 -70.7412c19.7051 66.6807 52.4834 132.175 111.661 170.873c31.8721 20.8408 82.3936 31.9951 113.517 3.51074
c27.3398 -25.0156 19.9346 -67.2852 2.67676 -95.9824c-34.0723 -56.6631 -97.3525 -92.2852 -161.055 -116.463c143.47 6.1543 286.991 11.1084 430.546 14.8105c-2.20898 53.3428 -4.58789 106.678 -7.9541 159.932c-5.20508 82.3467 -8.91211 164.523 -18.8789 246.509
c-9.08203 74.665 -17.9043 152.198 -49.7598 221.22c-13.0615 28.3018 -32.3281 60.3486 -62.0977 73.3506c-34.3965 15.0186 -72.2266 2.72754 -102.099 -16.7559c-59.2246 -38.626 -102.686 -105.214 -134.915 -166.737zM255.451 238.34
c59.2588 22.0117 121.956 54.8242 149.879 109.857c12.1504 23.9434 18.3594 86.9219 -27.2168 70.6475c-35.1318 -12.542 -63.3232 -48.9424 -81.6104 -79.8486c-18.4873 -31.2471 -31.502 -65.3877 -41.0518 -100.656z" />
    <glyph glyph-name="A" unicode="&#xc4;" horiz-adv-x="970" 
d="M244.438 189.898c-4.72363 -25.1094 -8.18262 -50.3945 -10.9785 -75.2617c-9.9541 -88.4971 -7.73242 -178.39 4.60938 -266.533c0.293945 -2.09863 -0.212891 -3.9248 -1.28516 -5.48633c6.05566 -2.90234 9.04785 -7.80469 3.9707 -14.3115
c-9.9375 -12.7334 -30.7871 -13.4316 -44.5889 -7.06445c-16.8535 7.77539 -19.8115 26.4414 -23.2969 42.9883c-10.4912 49.8193 -11.998 101.358 -12.2578 152.097c-0.285156 55.7178 1.43848 111.44 5.03906 167.039
c-82.7383 -17.3984 -167.954 -20.5049 -252.017 -9.52051c-7.17578 0.936523 -17.9854 5.5498 -16.457 14.3682c1.60059 9.21387 15.2871 10.9375 22.5645 11.3545c82.6191 4.74121 165.26 9.04395 247.922 12.9717c3.03906 39.4561 7.04004 78.8438 12.0156 118.104
c20.084 158.536 51.1475 324.481 135.286 462.917c38.6475 63.5918 90.1055 131.375 161.307 159.847c70.9414 28.3701 145.585 6.03516 195.54 -50.0107c57.2246 -64.2002 80.917 -149.582 98.6133 -231.768c19.4668 -90.416 35.0898 -182.888 43.6055 -275.027
c4.9668 -53.7393 9.12012 -107.542 13.0059 -161.362c43.9756 0.936523 87.9512 1.76172 131.932 2.46777c7.20996 0.115234 22.7441 -2.99121 22.7441 -12.9629c0 -10.1504 -15.2314 -12.8398 -22.7432 -12.9629c-43.3633 -0.710938 -86.7227 -1.52832 -130.082 -2.45996
c8.72852 -123.672 16.2822 -247.433 28.3477 -370.854c2.54102 -26.0166 -42.2266 -33.792 -59.2842 -33.792c-21.8838 0 -56.2207 7.50781 -59.2852 33.792c-14.2617 122.233 -18.9941 245.182 -23.9951 368.104c-156.795 -4.08105 -313.543 -9.66895 -470.231 -16.6738z
M337.897 750.057c-68.2725 -130.323 -95.6602 -278.902 -113.85 -423.525c-2.95801 -23.5391 -5.52832 -47.125 -7.79199 -70.7412c19.7051 66.6807 52.4834 132.175 111.661 170.873c31.8721 20.8408 82.3936 31.9951 113.517 3.51074
c27.3398 -25.0156 19.9346 -67.2852 2.67676 -95.9824c-34.0723 -56.6631 -97.3525 -92.2852 -161.055 -116.463c143.47 6.1543 286.991 11.1084 430.546 14.8105c-2.20898 53.3428 -4.58789 106.678 -7.9541 159.932c-5.20508 82.3467 -8.91211 164.523 -18.8789 246.509
c-9.08203 74.665 -17.9043 152.198 -49.7598 221.22c-13.0615 28.3018 -32.3281 60.3486 -62.0977 73.3506c-34.3965 15.0186 -72.2266 2.72754 -102.099 -16.7559c-59.2246 -38.626 -102.686 -105.214 -134.915 -166.737zM255.451 238.34
c59.2588 22.0117 121.956 54.8242 149.879 109.857c12.1504 23.9434 18.3594 86.9219 -27.2168 70.6475c-35.1318 -12.542 -63.3232 -48.9424 -81.6104 -79.8486c-18.4873 -31.2471 -31.502 -65.3877 -41.0518 -100.656z" />
    <glyph glyph-name="A" unicode="&#xc3;" horiz-adv-x="970" 
d="M244.438 189.898c-4.72363 -25.1094 -8.18262 -50.3945 -10.9785 -75.2617c-9.9541 -88.4971 -7.73242 -178.39 4.60938 -266.533c0.293945 -2.09863 -0.212891 -3.9248 -1.28516 -5.48633c6.05566 -2.90234 9.04785 -7.80469 3.9707 -14.3115
c-9.9375 -12.7334 -30.7871 -13.4316 -44.5889 -7.06445c-16.8535 7.77539 -19.8115 26.4414 -23.2969 42.9883c-10.4912 49.8193 -11.998 101.358 -12.2578 152.097c-0.285156 55.7178 1.43848 111.44 5.03906 167.039
c-82.7383 -17.3984 -167.954 -20.5049 -252.017 -9.52051c-7.17578 0.936523 -17.9854 5.5498 -16.457 14.3682c1.60059 9.21387 15.2871 10.9375 22.5645 11.3545c82.6191 4.74121 165.26 9.04395 247.922 12.9717c3.03906 39.4561 7.04004 78.8438 12.0156 118.104
c20.084 158.536 51.1475 324.481 135.286 462.917c38.6475 63.5918 90.1055 131.375 161.307 159.847c70.9414 28.3701 145.585 6.03516 195.54 -50.0107c57.2246 -64.2002 80.917 -149.582 98.6133 -231.768c19.4668 -90.416 35.0898 -182.888 43.6055 -275.027
c4.9668 -53.7393 9.12012 -107.542 13.0059 -161.362c43.9756 0.936523 87.9512 1.76172 131.932 2.46777c7.20996 0.115234 22.7441 -2.99121 22.7441 -12.9629c0 -10.1504 -15.2314 -12.8398 -22.7432 -12.9629c-43.3633 -0.710938 -86.7227 -1.52832 -130.082 -2.45996
c8.72852 -123.672 16.2822 -247.433 28.3477 -370.854c2.54102 -26.0166 -42.2266 -33.792 -59.2842 -33.792c-21.8838 0 -56.2207 7.50781 -59.2852 33.792c-14.2617 122.233 -18.9941 245.182 -23.9951 368.104c-156.795 -4.08105 -313.543 -9.66895 -470.231 -16.6738z
M337.897 750.057c-68.2725 -130.323 -95.6602 -278.902 -113.85 -423.525c-2.95801 -23.5391 -5.52832 -47.125 -7.79199 -70.7412c19.7051 66.6807 52.4834 132.175 111.661 170.873c31.8721 20.8408 82.3936 31.9951 113.517 3.51074
c27.3398 -25.0156 19.9346 -67.2852 2.67676 -95.9824c-34.0723 -56.6631 -97.3525 -92.2852 -161.055 -116.463c143.47 6.1543 286.991 11.1084 430.546 14.8105c-2.20898 53.3428 -4.58789 106.678 -7.9541 159.932c-5.20508 82.3467 -8.91211 164.523 -18.8789 246.509
c-9.08203 74.665 -17.9043 152.198 -49.7598 221.22c-13.0615 28.3018 -32.3281 60.3486 -62.0977 73.3506c-34.3965 15.0186 -72.2266 2.72754 -102.099 -16.7559c-59.2246 -38.626 -102.686 -105.214 -134.915 -166.737zM255.451 238.34
c59.2588 22.0117 121.956 54.8242 149.879 109.857c12.1504 23.9434 18.3594 86.9219 -27.2168 70.6475c-35.1318 -12.542 -63.3232 -48.9424 -81.6104 -79.8486c-18.4873 -31.2471 -31.502 -65.3877 -41.0518 -100.656z" />
    <glyph glyph-name="A" unicode="&#xc2;" horiz-adv-x="970" 
d="M244.438 189.898c-4.72363 -25.1094 -8.18262 -50.3945 -10.9785 -75.2617c-9.9541 -88.4971 -7.73242 -178.39 4.60938 -266.533c0.293945 -2.09863 -0.212891 -3.9248 -1.28516 -5.48633c6.05566 -2.90234 9.04785 -7.80469 3.9707 -14.3115
c-9.9375 -12.7334 -30.7871 -13.4316 -44.5889 -7.06445c-16.8535 7.77539 -19.8115 26.4414 -23.2969 42.9883c-10.4912 49.8193 -11.998 101.358 -12.2578 152.097c-0.285156 55.7178 1.43848 111.44 5.03906 167.039
c-82.7383 -17.3984 -167.954 -20.5049 -252.017 -9.52051c-7.17578 0.936523 -17.9854 5.5498 -16.457 14.3682c1.60059 9.21387 15.2871 10.9375 22.5645 11.3545c82.6191 4.74121 165.26 9.04395 247.922 12.9717c3.03906 39.4561 7.04004 78.8438 12.0156 118.104
c20.084 158.536 51.1475 324.481 135.286 462.917c38.6475 63.5918 90.1055 131.375 161.307 159.847c70.9414 28.3701 145.585 6.03516 195.54 -50.0107c57.2246 -64.2002 80.917 -149.582 98.6133 -231.768c19.4668 -90.416 35.0898 -182.888 43.6055 -275.027
c4.9668 -53.7393 9.12012 -107.542 13.0059 -161.362c43.9756 0.936523 87.9512 1.76172 131.932 2.46777c7.20996 0.115234 22.7441 -2.99121 22.7441 -12.9629c0 -10.1504 -15.2314 -12.8398 -22.7432 -12.9629c-43.3633 -0.710938 -86.7227 -1.52832 -130.082 -2.45996
c8.72852 -123.672 16.2822 -247.433 28.3477 -370.854c2.54102 -26.0166 -42.2266 -33.792 -59.2842 -33.792c-21.8838 0 -56.2207 7.50781 -59.2852 33.792c-14.2617 122.233 -18.9941 245.182 -23.9951 368.104c-156.795 -4.08105 -313.543 -9.66895 -470.231 -16.6738z
M337.897 750.057c-68.2725 -130.323 -95.6602 -278.902 -113.85 -423.525c-2.95801 -23.5391 -5.52832 -47.125 -7.79199 -70.7412c19.7051 66.6807 52.4834 132.175 111.661 170.873c31.8721 20.8408 82.3936 31.9951 113.517 3.51074
c27.3398 -25.0156 19.9346 -67.2852 2.67676 -95.9824c-34.0723 -56.6631 -97.3525 -92.2852 -161.055 -116.463c143.47 6.1543 286.991 11.1084 430.546 14.8105c-2.20898 53.3428 -4.58789 106.678 -7.9541 159.932c-5.20508 82.3467 -8.91211 164.523 -18.8789 246.509
c-9.08203 74.665 -17.9043 152.198 -49.7598 221.22c-13.0615 28.3018 -32.3281 60.3486 -62.0977 73.3506c-34.3965 15.0186 -72.2266 2.72754 -102.099 -16.7559c-59.2246 -38.626 -102.686 -105.214 -134.915 -166.737zM255.451 238.34
c59.2588 22.0117 121.956 54.8242 149.879 109.857c12.1504 23.9434 18.3594 86.9219 -27.2168 70.6475c-35.1318 -12.542 -63.3232 -48.9424 -81.6104 -79.8486c-18.4873 -31.2471 -31.502 -65.3877 -41.0518 -100.656z" />
    <glyph glyph-name="A" unicode="&#xc1;" horiz-adv-x="970" 
d="M244.438 189.898c-4.72363 -25.1094 -8.18262 -50.3945 -10.9785 -75.2617c-9.9541 -88.4971 -7.73242 -178.39 4.60938 -266.533c0.293945 -2.09863 -0.212891 -3.9248 -1.28516 -5.48633c6.05566 -2.90234 9.04785 -7.80469 3.9707 -14.3115
c-9.9375 -12.7334 -30.7871 -13.4316 -44.5889 -7.06445c-16.8535 7.77539 -19.8115 26.4414 -23.2969 42.9883c-10.4912 49.8193 -11.998 101.358 -12.2578 152.097c-0.285156 55.7178 1.43848 111.44 5.03906 167.039
c-82.7383 -17.3984 -167.954 -20.5049 -252.017 -9.52051c-7.17578 0.936523 -17.9854 5.5498 -16.457 14.3682c1.60059 9.21387 15.2871 10.9375 22.5645 11.3545c82.6191 4.74121 165.26 9.04395 247.922 12.9717c3.03906 39.4561 7.04004 78.8438 12.0156 118.104
c20.084 158.536 51.1475 324.481 135.286 462.917c38.6475 63.5918 90.1055 131.375 161.307 159.847c70.9414 28.3701 145.585 6.03516 195.54 -50.0107c57.2246 -64.2002 80.917 -149.582 98.6133 -231.768c19.4668 -90.416 35.0898 -182.888 43.6055 -275.027
c4.9668 -53.7393 9.12012 -107.542 13.0059 -161.362c43.9756 0.936523 87.9512 1.76172 131.932 2.46777c7.20996 0.115234 22.7441 -2.99121 22.7441 -12.9629c0 -10.1504 -15.2314 -12.8398 -22.7432 -12.9629c-43.3633 -0.710938 -86.7227 -1.52832 -130.082 -2.45996
c8.72852 -123.672 16.2822 -247.433 28.3477 -370.854c2.54102 -26.0166 -42.2266 -33.792 -59.2842 -33.792c-21.8838 0 -56.2207 7.50781 -59.2852 33.792c-14.2617 122.233 -18.9941 245.182 -23.9951 368.104c-156.795 -4.08105 -313.543 -9.66895 -470.231 -16.6738z
M337.897 750.057c-68.2725 -130.323 -95.6602 -278.902 -113.85 -423.525c-2.95801 -23.5391 -5.52832 -47.125 -7.79199 -70.7412c19.7051 66.6807 52.4834 132.175 111.661 170.873c31.8721 20.8408 82.3936 31.9951 113.517 3.51074
c27.3398 -25.0156 19.9346 -67.2852 2.67676 -95.9824c-34.0723 -56.6631 -97.3525 -92.2852 -161.055 -116.463c143.47 6.1543 286.991 11.1084 430.546 14.8105c-2.20898 53.3428 -4.58789 106.678 -7.9541 159.932c-5.20508 82.3467 -8.91211 164.523 -18.8789 246.509
c-9.08203 74.665 -17.9043 152.198 -49.7598 221.22c-13.0615 28.3018 -32.3281 60.3486 -62.0977 73.3506c-34.3965 15.0186 -72.2266 2.72754 -102.099 -16.7559c-59.2246 -38.626 -102.686 -105.214 -134.915 -166.737zM255.451 238.34
c59.2588 22.0117 121.956 54.8242 149.879 109.857c12.1504 23.9434 18.3594 86.9219 -27.2168 70.6475c-35.1318 -12.542 -63.3232 -48.9424 -81.6104 -79.8486c-18.4873 -31.2471 -31.502 -65.3877 -41.0518 -100.656z" />
    <glyph glyph-name="B" unicode="B" horiz-adv-x="945" 
d="M22.6846 854.152c4.96191 46.3555 120.219 45.2588 117.648 -0.00683594c-9.98828 -175.065 -15.125 -350.25 -6.5791 -525.503c0.710938 -14.5723 1.51562 -29.1445 2.3584 -43.7168c11.6357 81.4062 27.0928 162.2 46.3291 241.206
c19.6582 80.7422 46.04 160.629 85.1348 234.188c34.0898 64.1406 80.9346 127.357 145.777 163.021c33.1191 18.2148 72.0898 27.4717 109.316 17.4453c34.6982 -9.3457 59.9395 -35.2295 81.21 -62.9307c45.4531 -59.2031 50.8496 -135.265 40.1035 -206.865
c-8.15039 -54.2793 -26.6035 -110.172 -54.1309 -161.157c59.2842 -41.6182 105.516 -107.934 124.582 -176.841c18.9512 -68.5107 25.5518 -142.623 19.7891 -215.96c63 16.9766 123.476 40.0898 176.789 79.7764c13.6572 10.167 55.4971 1.00391 33.8896 -14.9043
c-26.6162 -19.5986 -55.1729 -35.6562 -85.3896 -49.0029c-41.3545 -18.2705 -84.2881 -31.0547 -127.852 -41.6816c-9.97559 -84.0967 -36.3193 -166.185 -79.1504 -236.547c-44.3252 -72.8135 -108.997 -124.539 -193.536 -141.528
c-73.1035 -14.6914 -159.664 -2.47656 -202.95 64.0215c-90.3096 138.746 106.538 242.207 213.297 276.935c46.4746 15.1172 95.1748 25.4629 144.088 35.5918c18.4961 87.7607 21.8965 179.462 3.63867 265.149c-9.20508 43.2012 -18.1807 90.4844 -45.5635 123.829
c-49.8447 -77.5 -122.229 -139.023 -212.675 -157.94c-21.6279 -4.52441 -46.333 -5.85645 -68.2549 -2.06055c-3.22559 0.557617 -19.0996 2.61719 -2.83398 1.22559c-5.56641 0.476562 -10.5459 1.00879 -16.0361 2.14551
c-8.78418 1.82129 -17.2451 4.46387 -25.4971 7.94531c-19.6963 8.30762 -44.5166 20.7861 -49.9512 41.3633c-2.42969 -13.8789 -4.7959 -27.7578 -7.07324 -41.6104c-15.3174 -93.127 -27.374 -186.927 -33.2217 -281.075
c4.00879 -37.2861 8.01758 -74.5762 11.9629 -111.866c2.27734 -21.5137 4.40527 -43.1807 5.97949 -64.7578c0.779297 -10.6396 1.65137 -21.6367 1.53613 -32.3018c-0.115234 -10.8398 -3.25586 -21.3857 -2.29004 -32.2471
c1.94922 -21.9092 -53.4414 -23.1182 -59.3018 -4.5752c-3.49023 11.0479 -10.6143 20.0576 -14.7676 30.9316c-3.45605 9.03125 -6.43945 18.4023 -9.27344 27.6465c-5.63867 18.3984 -10.2559 37.2139 -14.9199 55.8799c-9.29492 37.1924 -16.4961 75.125 -23.293 112.85
c-24.5312 136.196 -35.873 275.215 -41.0781 413.373c-5.1582 136.844 -2.38379 274.359 12.1885 410.556zM566.406 -59.0605c16.7002 39.1025 30.6748 80.5723 41.1738 123.221c-40.6777 -8.78809 -81.1387 -18.3848 -120.629 -31.4414
c-59.9736 -19.8281 -119.267 -47.96 -164.469 -93.0811c-22.7305 -22.6885 -44.7295 -50.2666 -44.832 -83.9434c-0.09375 -31.0596 20.4746 -59.6162 46.1797 -75.4863c109.751 -67.7617 206.078 75.2822 242.576 160.731zM286.683 362.472
c54.8154 19.3936 100.241 51.6436 139.872 94.1895c18.6621 20.0322 35.6006 41.9541 50.7773 65.1104c-55.1396 1.4082 -110.372 -26.9023 -156.336 -54.7188c-27.0762 -16.3896 -56.1904 -34.0898 -72.7754 -62.0293c-10.082 -16.9814 -12.8955 -35.3076 9.45605 -42.2061
c6.74512 -2.08105 13.252 -2.15332 20.291 -1.83008c0.561523 0.0253906 4.80859 0.731445 7.44727 1.09277c0.599609 0.178711 1.07617 0.323242 1.26758 0.391602zM310.74 746.968c-56.3652 -106.788 -86.5205 -224.437 -108.574 -342.75
c12.8271 25.8379 37.8984 45.4062 60.9053 61.2471c32.0889 22.0967 66.6377 41.8398 102.63 56.8203c39.248 16.334 83.2324 25.4199 125.8 22.3389c15.8271 27.0293 29.3477 55.3945 40.3535 84.2578c23.4707 61.5654 38.2002 120.808 31.957 187.042
c-2.83887 30.1064 -12.1123 61.6855 -35.2256 82.4287c-29.8037 26.7441 -61.5225 17.2539 -92.501 -2.49316c-55.4629 -35.3535 -95.1064 -91.6074 -125.345 -148.892z" />
    <glyph glyph-name="C" unicode="C" horiz-adv-x="525" 
d="M380.999 797.345c20.8154 -86.373 22.1074 -198.618 -48.042 -263.188c20.7305 -9.63574 42.1123 -16.9688 63.5576 -15.2109c7.64746 0.625977 25.3516 0.775391 28.5479 -9.23828c3.03906 -9.52051 -7.9541 -15.6104 -16.2109 -16.2744
c-36.9707 -2.97461 -69.7236 6.29004 -102.677 20.8535c-33.2432 -19.3262 -73.8232 -25.8418 -111.386 -17.168c-18.6113 4.29883 -45.1338 13.5088 -54.3135 32.0898c-7.79688 15.7812 1.88477 30.7275 15.4951 38.9795c35.5752 21.5771 84.748 8.86035 120.238 -6.08203
c6.28125 -2.64258 12.7031 -5.75391 19.2314 -9.04785c33.1699 34.4561 45.8057 83.0967 46.9678 129.771c1.07227 43.0693 -3.63867 90.5186 -18.4404 131.158c-10.3545 28.4248 -41.4482 77.5635 -78.2998 60.7695c-34.0977 -15.5342 -51.3975 -55.2881 -65.2969 -87.5732
c-16.9473 -39.3711 -30.6641 -79.9932 -42.21 -121.245c-23.999 -85.7344 -37.2686 -174.934 -46.8359 -263.307c-10.1377 -93.6035 -13.8955 -186.398 -9.83984 -280.487c2.02539 -46.9385 6.71582 -94.0254 13.2354 -140.551
c5.7373 -40.959 13.3682 -82.0537 29.5791 -120.322c14.2188 -33.5742 32.5869 -69.8467 64.6426 -89.3428c34.5752 -21.0283 70.6309 -16.2998 103.887 5.27734c66.5234 43.167 108.227 126.634 140.448 196.413c36.3711 78.7598 60.7314 162.362 72.8994 248.225
c2.47266 17.4492 45.793 16.083 43.6221 0c-15.6621 -116.177 -52.9307 -229.137 -111.585 -330.768c-50.4707 -87.458 -120.999 -172.746 -232.405 -158.774c-48.3506 6.06445 -93.0586 30.6123 -129.477 62.3564c-39.7246 34.6221 -62.2344 88.3994 -78.2959 137.389
c-36.1494 110.249 -48.4697 224.801 -46.3457 340.438c2.06445 112.219 15.1426 225.544 40.2988 334.988c24.5439 106.768 68.3076 215.863 161.469 279.97c43.0059 29.5908 104.567 44.0693 152.854 18.2109c41.1416 -22.0322 64.1104 -64.4297 74.6865 -108.308z
M188.376 548.992c-21.7812 -19.9219 38.2383 -29.0078 48.7891 -27.5947c11.2314 1.51074 21.833 5.32812 31.5752 10.7676c-7.94141 3.82227 -15.9463 7.50781 -24.1562 10.708c-13.1465 5.12402 -43.3848 17.8486 -56.208 6.11914z" />
    <glyph glyph-name="D" unicode="D" horiz-adv-x="832" 
d="M852.331 169.926c-34.7705 -72.959 -109.591 -110.359 -186.422 -131.907c-11.9297 -64.1875 -30.877 -126.94 -61.3574 -184.156c-54.1006 -101.545 -165.021 -205.456 -289.43 -159.884c-83.8154 30.7021 -186.225 149.429 -129.149 241.189
c28.3828 45.6318 81.1426 64.8213 131.35 74.9209c62.0889 12.4912 125.731 16.6572 188.493 24.501c9.75 1.2168 19.8408 2.49805 30.1611 3.89355c16.7637 80.7637 22.6748 164.813 26.4834 246.229c5.3877 115.168 6.69824 232.886 -4.49902 347.761
c-4.99219 51.2412 -12.8105 102.508 -27.1191 152.051c-13.5938 47.0615 -46.9941 114.211 -106.951 85.1182c-46.874 -22.7432 -79.0566 -73.2266 -103.864 -117.045c-25.833 -45.6318 -45.4355 -94.5791 -62.4463 -144.079
c-71.6904 -208.623 -99.1279 -429.371 -125.178 -647.612c0.898438 -27.1309 1.55762 -54.2666 1.81738 -81.4189c0.297852 -31.0547 -77.4531 -33.8721 -84.4453 -6.51562c-38.5664 150.922 -49.6357 307.424 -53.875 462.755
c-4.22656 154.804 -0.583984 311.918 19.8828 465.529c3.47266 26.0498 36.6855 33.3916 58.5859 33.3916c18.2402 0 60.0625 -7.60059 58.5859 -33.3916c-8.82227 -153.896 -17.6152 -307.134 -15.8408 -461.367c0.523438 -45.627 2.12793 -91.2031 4.14551 -136.763
c7.68164 51.7471 16.4277 103.333 26.8799 154.642c26.8457 131.796 60.7393 268.793 124.828 388c43.2354 80.4102 139.712 209.41 243.772 135.226c21.1982 -15.1123 37.4385 -37.2979 53.0488 -57.8369c16.4492 -21.6455 32.2471 -44.8574 44.3379 -69.2861
c26.4717 -53.4883 39.2266 -114.998 49.3467 -173.393c22.5986 -130.388 27.2627 -263.848 19.3809 -395.81c-2.31934 -38.7969 -6.03516 -78.2021 -12.0312 -117.313c59.1016 20.0967 111.619 52.6631 138.546 109.321c7.16309 15.0703 51.0068 10.1338 42.9629 -6.74902z
M457.983 -169.825c26.8203 43.1504 45.5771 90.083 60.3496 138.553c4.34082 14.2314 8.18848 28.6416 11.6914 43.1709c-46.2021 -6.04297 -92.6377 -10.3457 -138.814 -16.5811c-56.1055 -7.57129 -127.809 -14.168 -161.072 -67.0986
c-30.1826 -48.0322 -0.723633 -105.266 34.3232 -141.339c29.127 -29.9785 68.4385 -59.9609 109.142 -43.1797c37.8262 15.5977 63.5527 52.96 84.3809 86.4746z" />
    <glyph glyph-name="E" unicode="E" horiz-adv-x="710" 
d="M76.9287 -100.042c-16.5684 83.2236 -7.95215 174.661 6.84082 257.549c9.1377 51.1768 22.1904 102.396 39.7881 151.824c-77.874 15.623 -144.904 56.9473 -158.668 140.737c-12.6992 77.3164 17.0029 160.685 55.3701 226.757
c38.0098 65.4551 86.7266 126.136 146.505 172.921c61.9316 48.4697 135.277 82.4873 214.13 90.5947c69.4561 7.1416 157.361 -1.31445 199.886 -64.7656c35.2432 -52.5859 11.4189 -124.744 -29.5273 -169.605c15.334 -2.11914 30.834 -2.36133 46.5889 0.869141
c25.1611 5.1543 46.4746 -21.4238 13.4531 -27.8164c-28.3701 -5.49023 -57.3232 -4.14551 -85.5098 1.8252c-0.821289 0.174805 -1.63867 0.383789 -2.45996 0.5625c-51.6494 -37.0342 -130.575 -64.3525 -192.357 -45.8398c-30 8.98828 -52.5859 35.9238 -35.7451 67.2178
c16.0068 29.7441 53.8545 37.6562 84.833 38.3887c36.1797 0.855469 71.457 -8.77539 105.879 -18.8916c29.1699 35.4092 50.0576 81.0879 29.0635 125.128c-22.0664 46.2959 -78.9971 42.5762 -118.776 33.3711c-108.495 -25.1055 -200.559 -118.505 -259.46 -208.5
c-35.2256 -53.8242 -64.6211 -113.743 -76.4316 -177.42c-5.26465 -28.3779 -8.19727 -63.085 -0.272461 -91.2373c7.47363 -26.5566 25.8252 -44.6484 49.8799 -57.0801c7.61328 -3.93262 15.665 -7.09863 23.9766 -9.7334
c8.26953 20.8281 17.3682 41.2773 27.3994 61.1777c35.0938 69.6133 81.8486 133.03 144.717 179.904c59.3486 44.248 156.855 74.8262 222.749 24.7432c61.3447 -46.627 32.7236 -130.736 -11.4141 -177.343c-49.8193 -52.6113 -119.062 -89.2588 -188.54 -108.01
c-22.3906 -6.04297 -48.2109 -10.7412 -75.5596 -13.3545c-15.9424 -42.125 -29.4932 -85.0195 -40.29 -129.06c-16.377 -66.7793 -25.1143 -136.27 -27.7061 -204.938c-2.3623 -62.5527 -2.08984 -130.451 28.6504 -186.88
c30.6045 -56.1777 90.4932 -77.2275 151.416 -63.0508c62.5146 14.542 116.305 54.6748 157.97 102.294c43.4189 49.624 74.7979 108.866 101.15 168.946c28.7529 65.5576 50.7432 133.911 65.8262 203.882c3.65137 16.9385 45.7891 15.083 42.6904 0
c-8.17969 -39.8604 -18.2061 -79.3164 -30.6592 -118.07c-47.0186 -146.334 -125.055 -307.287 -275.926 -368.725c-70.5664 -28.7402 -159.442 -32.9072 -227.281 5.19531c-69.1533 38.8389 -107.176 111.082 -122.178 186.433zM461.041 695.957
c0.765625 0.706055 1.52734 1.4375 2.29297 2.16504c-8.41797 2.57031 -16.8486 5.11133 -25.335 7.46875c-25.0586 6.9668 -63.6895 18.0537 -87.1094 1.32812c-13.623 -9.72852 -20.6025 -33.4385 -3.73242 -43.7246c10.9414 -6.67285 27.1904 -4.22949 39.252 -2.28027
c27.0977 4.375 54.4502 16.3125 74.6318 35.043zM370.416 518.92c-38.2734 -43.8955 -66.7002 -96.6338 -90.2734 -149.603c-5.48535 -12.3291 -10.707 -24.7354 -15.7754 -37.1797c6.66895 1.04688 13.2021 2.2041 19.5264 3.45996
c60.9404 12.1035 119.735 39.7324 167.656 79.3203c42.291 34.9326 93.3535 104.993 46.9688 157.715c-9.46094 10.7549 -23.084 18.6797 -37.6943 17.4756c-11.8184 -0.974609 -20.0791 -9.11621 -29.5186 -15.7686c-22.4502 -15.8145 -42.8232 -34.7021 -60.8896 -55.4199
z" />
    <glyph glyph-name="E" unicode="&#xcb;" horiz-adv-x="710" 
d="M76.9287 -100.042c-16.5684 83.2236 -7.95215 174.661 6.84082 257.549c9.1377 51.1768 22.1904 102.396 39.7881 151.824c-77.874 15.623 -144.904 56.9473 -158.668 140.737c-12.6992 77.3164 17.0029 160.685 55.3701 226.757
c38.0098 65.4551 86.7266 126.136 146.505 172.921c61.9316 48.4697 135.277 82.4873 214.13 90.5947c69.4561 7.1416 157.361 -1.31445 199.886 -64.7656c35.2432 -52.5859 11.4189 -124.744 -29.5273 -169.605c15.334 -2.11914 30.834 -2.36133 46.5889 0.869141
c25.1611 5.1543 46.4746 -21.4238 13.4531 -27.8164c-28.3701 -5.49023 -57.3232 -4.14551 -85.5098 1.8252c-0.821289 0.174805 -1.63867 0.383789 -2.45996 0.5625c-51.6494 -37.0342 -130.575 -64.3525 -192.357 -45.8398c-30 8.98828 -52.5859 35.9238 -35.7451 67.2178
c16.0068 29.7441 53.8545 37.6562 84.833 38.3887c36.1797 0.855469 71.457 -8.77539 105.879 -18.8916c29.1699 35.4092 50.0576 81.0879 29.0635 125.128c-22.0664 46.2959 -78.9971 42.5762 -118.776 33.3711c-108.495 -25.1055 -200.559 -118.505 -259.46 -208.5
c-35.2256 -53.8242 -64.6211 -113.743 -76.4316 -177.42c-5.26465 -28.3779 -8.19727 -63.085 -0.272461 -91.2373c7.47363 -26.5566 25.8252 -44.6484 49.8799 -57.0801c7.61328 -3.93262 15.665 -7.09863 23.9766 -9.7334
c8.26953 20.8281 17.3682 41.2773 27.3994 61.1777c35.0938 69.6133 81.8486 133.03 144.717 179.904c59.3486 44.248 156.855 74.8262 222.749 24.7432c61.3447 -46.627 32.7236 -130.736 -11.4141 -177.343c-49.8193 -52.6113 -119.062 -89.2588 -188.54 -108.01
c-22.3906 -6.04297 -48.2109 -10.7412 -75.5596 -13.3545c-15.9424 -42.125 -29.4932 -85.0195 -40.29 -129.06c-16.377 -66.7793 -25.1143 -136.27 -27.7061 -204.938c-2.3623 -62.5527 -2.08984 -130.451 28.6504 -186.88
c30.6045 -56.1777 90.4932 -77.2275 151.416 -63.0508c62.5146 14.542 116.305 54.6748 157.97 102.294c43.4189 49.624 74.7979 108.866 101.15 168.946c28.7529 65.5576 50.7432 133.911 65.8262 203.882c3.65137 16.9385 45.7891 15.083 42.6904 0
c-8.17969 -39.8604 -18.2061 -79.3164 -30.6592 -118.07c-47.0186 -146.334 -125.055 -307.287 -275.926 -368.725c-70.5664 -28.7402 -159.442 -32.9072 -227.281 5.19531c-69.1533 38.8389 -107.176 111.082 -122.178 186.433zM461.041 695.957
c0.765625 0.706055 1.52734 1.4375 2.29297 2.16504c-8.41797 2.57031 -16.8486 5.11133 -25.335 7.46875c-25.0586 6.9668 -63.6895 18.0537 -87.1094 1.32812c-13.623 -9.72852 -20.6025 -33.4385 -3.73242 -43.7246c10.9414 -6.67285 27.1904 -4.22949 39.252 -2.28027
c27.0977 4.375 54.4502 16.3125 74.6318 35.043zM370.416 518.92c-38.2734 -43.8955 -66.7002 -96.6338 -90.2734 -149.603c-5.48535 -12.3291 -10.707 -24.7354 -15.7754 -37.1797c6.66895 1.04688 13.2021 2.2041 19.5264 3.45996
c60.9404 12.1035 119.735 39.7324 167.656 79.3203c42.291 34.9326 93.3535 104.993 46.9688 157.715c-9.46094 10.7549 -23.084 18.6797 -37.6943 17.4756c-11.8184 -0.974609 -20.0791 -9.11621 -29.5186 -15.7686c-22.4502 -15.8145 -42.8232 -34.7021 -60.8896 -55.4199
z" />
    <glyph glyph-name="E" unicode="&#xca;" horiz-adv-x="710" 
d="M76.9287 -100.042c-16.5684 83.2236 -7.95215 174.661 6.84082 257.549c9.1377 51.1768 22.1904 102.396 39.7881 151.824c-77.874 15.623 -144.904 56.9473 -158.668 140.737c-12.6992 77.3164 17.0029 160.685 55.3701 226.757
c38.0098 65.4551 86.7266 126.136 146.505 172.921c61.9316 48.4697 135.277 82.4873 214.13 90.5947c69.4561 7.1416 157.361 -1.31445 199.886 -64.7656c35.2432 -52.5859 11.4189 -124.744 -29.5273 -169.605c15.334 -2.11914 30.834 -2.36133 46.5889 0.869141
c25.1611 5.1543 46.4746 -21.4238 13.4531 -27.8164c-28.3701 -5.49023 -57.3232 -4.14551 -85.5098 1.8252c-0.821289 0.174805 -1.63867 0.383789 -2.45996 0.5625c-51.6494 -37.0342 -130.575 -64.3525 -192.357 -45.8398c-30 8.98828 -52.5859 35.9238 -35.7451 67.2178
c16.0068 29.7441 53.8545 37.6562 84.833 38.3887c36.1797 0.855469 71.457 -8.77539 105.879 -18.8916c29.1699 35.4092 50.0576 81.0879 29.0635 125.128c-22.0664 46.2959 -78.9971 42.5762 -118.776 33.3711c-108.495 -25.1055 -200.559 -118.505 -259.46 -208.5
c-35.2256 -53.8242 -64.6211 -113.743 -76.4316 -177.42c-5.26465 -28.3779 -8.19727 -63.085 -0.272461 -91.2373c7.47363 -26.5566 25.8252 -44.6484 49.8799 -57.0801c7.61328 -3.93262 15.665 -7.09863 23.9766 -9.7334
c8.26953 20.8281 17.3682 41.2773 27.3994 61.1777c35.0938 69.6133 81.8486 133.03 144.717 179.904c59.3486 44.248 156.855 74.8262 222.749 24.7432c61.3447 -46.627 32.7236 -130.736 -11.4141 -177.343c-49.8193 -52.6113 -119.062 -89.2588 -188.54 -108.01
c-22.3906 -6.04297 -48.2109 -10.7412 -75.5596 -13.3545c-15.9424 -42.125 -29.4932 -85.0195 -40.29 -129.06c-16.377 -66.7793 -25.1143 -136.27 -27.7061 -204.938c-2.3623 -62.5527 -2.08984 -130.451 28.6504 -186.88
c30.6045 -56.1777 90.4932 -77.2275 151.416 -63.0508c62.5146 14.542 116.305 54.6748 157.97 102.294c43.4189 49.624 74.7979 108.866 101.15 168.946c28.7529 65.5576 50.7432 133.911 65.8262 203.882c3.65137 16.9385 45.7891 15.083 42.6904 0
c-8.17969 -39.8604 -18.2061 -79.3164 -30.6592 -118.07c-47.0186 -146.334 -125.055 -307.287 -275.926 -368.725c-70.5664 -28.7402 -159.442 -32.9072 -227.281 5.19531c-69.1533 38.8389 -107.176 111.082 -122.178 186.433zM461.041 695.957
c0.765625 0.706055 1.52734 1.4375 2.29297 2.16504c-8.41797 2.57031 -16.8486 5.11133 -25.335 7.46875c-25.0586 6.9668 -63.6895 18.0537 -87.1094 1.32812c-13.623 -9.72852 -20.6025 -33.4385 -3.73242 -43.7246c10.9414 -6.67285 27.1904 -4.22949 39.252 -2.28027
c27.0977 4.375 54.4502 16.3125 74.6318 35.043zM370.416 518.92c-38.2734 -43.8955 -66.7002 -96.6338 -90.2734 -149.603c-5.48535 -12.3291 -10.707 -24.7354 -15.7754 -37.1797c6.66895 1.04688 13.2021 2.2041 19.5264 3.45996
c60.9404 12.1035 119.735 39.7324 167.656 79.3203c42.291 34.9326 93.3535 104.993 46.9688 157.715c-9.46094 10.7549 -23.084 18.6797 -37.6943 17.4756c-11.8184 -0.974609 -20.0791 -9.11621 -29.5186 -15.7686c-22.4502 -15.8145 -42.8232 -34.7021 -60.8896 -55.4199
z" />
    <glyph glyph-name="E" unicode="&#xc9;" horiz-adv-x="710" 
d="M76.9287 -100.042c-16.5684 83.2236 -7.95215 174.661 6.84082 257.549c9.1377 51.1768 22.1904 102.396 39.7881 151.824c-77.874 15.623 -144.904 56.9473 -158.668 140.737c-12.6992 77.3164 17.0029 160.685 55.3701 226.757
c38.0098 65.4551 86.7266 126.136 146.505 172.921c61.9316 48.4697 135.277 82.4873 214.13 90.5947c69.4561 7.1416 157.361 -1.31445 199.886 -64.7656c35.2432 -52.5859 11.4189 -124.744 -29.5273 -169.605c15.334 -2.11914 30.834 -2.36133 46.5889 0.869141
c25.1611 5.1543 46.4746 -21.4238 13.4531 -27.8164c-28.3701 -5.49023 -57.3232 -4.14551 -85.5098 1.8252c-0.821289 0.174805 -1.63867 0.383789 -2.45996 0.5625c-51.6494 -37.0342 -130.575 -64.3525 -192.357 -45.8398c-30 8.98828 -52.5859 35.9238 -35.7451 67.2178
c16.0068 29.7441 53.8545 37.6562 84.833 38.3887c36.1797 0.855469 71.457 -8.77539 105.879 -18.8916c29.1699 35.4092 50.0576 81.0879 29.0635 125.128c-22.0664 46.2959 -78.9971 42.5762 -118.776 33.3711c-108.495 -25.1055 -200.559 -118.505 -259.46 -208.5
c-35.2256 -53.8242 -64.6211 -113.743 -76.4316 -177.42c-5.26465 -28.3779 -8.19727 -63.085 -0.272461 -91.2373c7.47363 -26.5566 25.8252 -44.6484 49.8799 -57.0801c7.61328 -3.93262 15.665 -7.09863 23.9766 -9.7334
c8.26953 20.8281 17.3682 41.2773 27.3994 61.1777c35.0938 69.6133 81.8486 133.03 144.717 179.904c59.3486 44.248 156.855 74.8262 222.749 24.7432c61.3447 -46.627 32.7236 -130.736 -11.4141 -177.343c-49.8193 -52.6113 -119.062 -89.2588 -188.54 -108.01
c-22.3906 -6.04297 -48.2109 -10.7412 -75.5596 -13.3545c-15.9424 -42.125 -29.4932 -85.0195 -40.29 -129.06c-16.377 -66.7793 -25.1143 -136.27 -27.7061 -204.938c-2.3623 -62.5527 -2.08984 -130.451 28.6504 -186.88
c30.6045 -56.1777 90.4932 -77.2275 151.416 -63.0508c62.5146 14.542 116.305 54.6748 157.97 102.294c43.4189 49.624 74.7979 108.866 101.15 168.946c28.7529 65.5576 50.7432 133.911 65.8262 203.882c3.65137 16.9385 45.7891 15.083 42.6904 0
c-8.17969 -39.8604 -18.2061 -79.3164 -30.6592 -118.07c-47.0186 -146.334 -125.055 -307.287 -275.926 -368.725c-70.5664 -28.7402 -159.442 -32.9072 -227.281 5.19531c-69.1533 38.8389 -107.176 111.082 -122.178 186.433zM461.041 695.957
c0.765625 0.706055 1.52734 1.4375 2.29297 2.16504c-8.41797 2.57031 -16.8486 5.11133 -25.335 7.46875c-25.0586 6.9668 -63.6895 18.0537 -87.1094 1.32812c-13.623 -9.72852 -20.6025 -33.4385 -3.73242 -43.7246c10.9414 -6.67285 27.1904 -4.22949 39.252 -2.28027
c27.0977 4.375 54.4502 16.3125 74.6318 35.043zM370.416 518.92c-38.2734 -43.8955 -66.7002 -96.6338 -90.2734 -149.603c-5.48535 -12.3291 -10.707 -24.7354 -15.7754 -37.1797c6.66895 1.04688 13.2021 2.2041 19.5264 3.45996
c60.9404 12.1035 119.735 39.7324 167.656 79.3203c42.291 34.9326 93.3535 104.993 46.9688 157.715c-9.46094 10.7549 -23.084 18.6797 -37.6943 17.4756c-11.8184 -0.974609 -20.0791 -9.11621 -29.5186 -15.7686c-22.4502 -15.8145 -42.8232 -34.7021 -60.8896 -55.4199
z" />
    <glyph glyph-name="F" unicode="F" horiz-adv-x="753" 
d="M619.054 -273.107c-56.6631 -55.8672 -137.18 -80.3838 -214.483 -53.4863c-81.4443 28.3525 -124.165 105.196 -153.139 181.296c-1.46387 3.84277 -2.85547 7.71582 -4.24707 11.584c-11.8828 -3.99609 -23.8037 -7.88184 -35.8223 -11.4648
c-31.0977 -9.26953 -66.6807 -22.459 -99.5488 -15.999c-27.4209 5.3877 -44.5938 26.0332 -36.1924 53.9053c8.45605 28.0459 34.4424 51.6494 55.3857 70.7793c23.6582 21.6074 49.4658 40.627 76.5713 57.6807c-5.60059 31.4932 -10.2012 63.1445 -14.4014 94.5908
c-8.75391 65.5361 -14.8525 131.707 -17.2021 197.903c-51.2236 -9.75488 -104.447 -11.9932 -153.296 1.93164c-30.374 8.65625 -60.7266 26.6973 -74.6689 56.1943c-13.7168 29.0205 -8.74121 63.6504 6.9668 90.833c37.9414 65.6465 122.948 87.4326 191.919 101.153
c22.377 4.45117 41.3115 -18.7607 11.9668 -24.7441c-35.7412 -7.28613 -72.1416 -16.4062 -104.358 -34.0469c-30.0166 -16.4365 -55.9268 -40.4395 -64.9111 -74.499c-8.02637 -30.4385 1.48535 -61.8896 28.3613 -79.543
c27.8252 -18.2744 64.6299 -19.5811 96.792 -17.3721c20.2666 1.3916 40.5029 4.38379 60.4932 8.58008c-0.250977 13.3213 -0.395508 26.6426 -0.319336 39.9551c0.961914 167.839 31.502 352.761 142.547 485.212c27.6973 33.0381 58.3145 62.2373 97.541 80.9209
c37.6221 17.9219 75.1211 34.5195 117.837 31.9961c81.3516 -4.80469 119.208 -76.6309 120.646 -150.841c2.80469 -144.453 -83.666 -288.217 -190.808 -379.263c-44.6143 -37.9111 -94.7021 -69.2383 -148.182 -92.9863
c0.617188 -84.2539 7.58398 -168.512 17.3516 -252.927c0.714844 -6.14941 1.49805 -12.291 2.26367 -18.4326c131.673 55.7949 272.679 89.7227 398.006 159.851c7.84375 4.3877 21.5225 5.34082 29.2002 0c6.87305 -4.7793 7.94141 -12.0693 0 -16.6445
c-35.915 -20.6875 -73.3027 -38.4561 -111.457 -54.6025c-100.949 -42.7246 -210.874 -72.2861 -311.828 -118.139c5.69824 -40.4951 12.7881 -80.7305 21.9893 -120.544c35.0391 12.168 70.4482 23.1357 106.861 30.7881c65.6807 13.8057 152.727 12.6777 188.557 -55.0889
c31.6514 -59.8594 9.98438 -138.802 -36.3916 -184.531zM329.271 573.904c-9.40137 -60.7695 -13.8047 -121.474 -14.6729 -182.167c96.0166 49.1211 177.934 125.408 231.013 219.786c32.4727 57.7393 56.335 123.557 60.5312 190.038
c3.71582 58.8633 -19.917 177.283 -105.001 138.665c-15.4961 -7.03516 -26.3916 -16.9688 -37.0742 -29.9873c-10.4736 -12.7637 -22.5557 -24.1826 -32.6934 -37.2139c-19.5469 -25.1396 -32.0928 -55.25 -44.3076 -84.4111
c-28.6123 -68.3115 -46.4912 -141.653 -57.7949 -214.71zM219.084 -114.874c6.51172 2.1582 12.998 4.38281 19.4844 6.63379c-9.80176 30.7998 -17.6709 62.2637 -24.2168 94.0381c-7.03906 -5.11523 -14.0059 -10.3623 -20.832 -15.8438
c-25.5186 -20.4961 -63.3027 -49.0781 -73.8145 -81.4316c-3.45117 -10.6182 -3.63379 -24.4502 10.3975 -26.3828c9.12891 -1.25586 21.2578 3.32812 29.9355 5.50293c19.918 4.99219 39.5586 11.0273 59.0459 17.4834zM366.533 -90.8633
c2.99219 -11.6484 6.11133 -23.2705 9.51562 -34.8379c15.457 -52.5176 35.1318 -137.01 95.3613 -155.522c26.8457 -8.24805 54.292 -6.27344 80.6953 3.77441c33.0723 12.585 55.1094 44.5342 66.1445 77.1553c20.7002 61.1826 0.918945 141.363 -72.9756 148.726
c-37.8047 3.7666 -76.7627 -7.03516 -112.674 -17.5684c-22.2578 -6.52832 -44.2178 -13.9678 -66.0674 -21.7266z" />
    <glyph glyph-name="G" unicode="G" horiz-adv-x="733" 
d="M509.835 -144.912c-84.1045 -140.405 -263.898 -211.555 -422.937 -178.98c-78.3164 16.0361 -153.339 54.6289 -193.927 125.953c-18.126 31.8467 -28.8379 69.0645 -31.3145 105.593c-2.2041 32.5488 -1.8252 70.3838 21.084 96.3281
c24.9141 28.2168 65.1709 29.2549 99.2646 20.7725c42.0098 -10.4521 81.9814 -27.5312 124.392 -37.1279c80.6318 -18.249 164.967 -25.6377 247.122 -14.0957c26.0166 3.65625 51.918 9.3125 77.0957 17.1514c18.7471 69.2598 29.0293 140.436 36.0811 211.883
c3.51562 35.5967 3.91113 73.5 6.40918 111.126c-27.4756 -47.04 -57.8115 -92.3184 -92.9434 -133.774c-58.4541 -68.9746 -140.223 -121.075 -234.082 -108.605c-91.2588 12.125 -158.757 74.6055 -178.993 164.507c-21.3945 95.0508 -3.375 196.592 23.501 288.689
c26.1484 89.5986 66.2646 178.219 122.587 252.986c57.9355 76.9082 137.308 138.631 238.84 129.778c42.0693 -3.66895 84.0068 -20.6924 108.439 -56.6074c22.1943 -32.6211 24.6797 -75.1631 13.2354 -112.108c-14.5635 -47.0107 -49.0107 -90.1309 -91.6035 -119.339
c23.9951 -12.2783 49.5264 -19.083 75.5635 -8.51953c17.7041 7.18359 51.0361 -11.3213 23.1895 -22.6162c-36.7578 -14.9131 -77.9463 -10.4316 -113.887 4.7998c-5.67285 2.4043 -11.1455 5.13281 -16.5459 7.98438
c-16.5723 -7.96289 -33.8379 -13.8145 -51.2568 -17.0361c-34.915 -6.45605 -82.8955 -5.38379 -108.235 23.5264c-25.4844 29.0762 -8.29883 65.0166 25.9014 75.6055c39.5967 12.2568 77.4912 -8.25195 109.93 -29.0293
c6.21387 -3.97949 12.6445 -8.33789 19.2578 -12.7598c6.22656 5.14062 12.125 10.6562 17.6064 16.4404c41.252 43.5039 74.6396 133.414 19.4961 180.356c-43.8232 37.3115 -93.0684 -15.8916 -123.242 -51.3604c-46.5547 -54.7217 -81.9678 -120.42 -110.58 -185.994
c-30.2803 -69.4004 -52.6191 -140.768 -65.6289 -215.364c-12.0693 -69.2129 -24.4492 -150.875 1.81836 -218.109c10.9805 -28.1055 29.208 -57.4795 59.4756 -67.749c30.4209 -10.3203 68.5918 -1.14844 96.6895 11.8066c63.6592 29.3525 109.797 88.9688 148.56 145.278
c43.125 62.6504 79.1084 129.791 112.921 197.812c1.09766 2.21289 3.04688 3.9668 5.51953 5.28613c10.8096 15.0576 45.2441 14.1807 54.3223 -1.74902c27.6377 -48.5 30.834 -103.516 31.8086 -158.268c0.90625 -50.9092 -1.49023 -102.614 -6.7207 -153.264
c-2.42188 -23.4629 -5.71191 -46.8281 -9.68262 -70.0781c21.2969 19.0703 42.3809 38.4648 63.4004 57.7998c25.9014 23.8291 52.9648 48.5049 72.4824 78.0361c9.62695 14.5635 54.8242 8.24316 44.7588 -7.03516c-39.1289 -59.3867 -99.7627 -105.627 -152.161 -152.833
c-12.3721 -11.1465 -25.4756 -21.2666 -39.1152 -30.5312c-2.32324 -10.6396 -4.75293 -21.2539 -7.34473 -31.8252c-11.3926 -46.5078 -25.79 -93.4072 -50.5508 -134.74zM270.476 608.601c16.1299 0.983398 31.459 5.67285 45.6611 12.8311
c-15.291 9.96289 -30.4248 20.2197 -46.5547 28.8721c-9.26074 4.9668 -21.9688 12.5547 -32.5488 8.61816c-10.3037 -3.83496 -13.9297 -15.1426 -11.7041 -25.1182c4.72363 -21.1982 26.2119 -26.3604 45.1465 -25.2031zM-42.4727 -185.118
c42.8271 -55.8545 109.75 -91.2441 179.793 -96.0107c60.5693 -4.12012 125.761 14.8652 173.571 52.7471c57.8887 45.8652 87.207 114.231 109.1 182.802c0.408203 1.28906 0.791016 2.58691 1.19531 3.88086c-7.35449 -1.80859 -14.7295 -3.51562 -22.1387 -5.02637
c-71.1885 -14.5166 -144.718 -14.9209 -216.706 -6.72852c-40.7881 4.64355 -81.1172 12.4365 -120.854 22.71c-21.4414 5.5459 -42.6484 11.96 -63.5957 19.1562c-15.4912 5.32422 -34.2852 14.9336 -50.998 13.7119
c-35.8389 -2.62598 -36.2139 -58.8125 -32.9756 -84.4072c4.66406 -36.8857 21.0791 -73.4482 43.6094 -102.835z" />
    <glyph glyph-name="H" unicode="H" horiz-adv-x="920" 
d="M692.296 -264.068c-72.5879 -17.7217 -151.282 15.9473 -199.446 70.3672c-52.249 59.0293 -71.9492 134.72 -87.0664 210.334c-0.736328 3.67285 -1.35742 7.36719 -2.05566 11.0439c-21.0625 -11.8359 -43.0146 -22.0332 -65.877 -30.1875
c-35.1533 -12.542 -71.5449 -19.3174 -107.559 -20.3047c1.19141 -32.5488 2.08105 -65.1064 2.3916 -97.6855c0.297852 -31.0547 -77.4531 -33.8721 -84.4453 -6.51562c-10.082 39.4561 -18.2451 79.2998 -24.9395 119.398
c-54.9863 17.9854 -104.576 51.8574 -141.649 102.196c-76.4141 103.763 -71.7627 243.951 1.2168 348.472c27.1826 38.9287 66.7158 74.5889 111.279 98.3838c2.49414 87.0283 8.66895 173.98 20.1084 259.834c3.47266 26.0498 36.6855 33.3916 58.5859 33.3916
c18.2402 0 60.0625 -7.60059 58.5859 -33.3916c-4.41309 -76.9463 -8.81836 -153.727 -11.8955 -230.55c33.4346 -2.82617 66.167 -15.1934 95.6816 -40.0986c7.38867 -6.23438 -1.37891 -13.1289 -7.07324 -15.376c-8.59668 -3.39648 -19.8535 -1.68555 -26.9775 4.03027
c-18.1084 14.5254 -39.8262 23.4414 -62.5869 26.1689c-2.46875 -68.4131 -3.7793 -136.878 -2.99219 -205.542c1.29395 -112.483 9.06055 -224.694 13.7119 -337.007c58.9014 2.97949 117.369 26.5781 168.351 59.8252c-22.8838 144.726 -19.1641 293.817 -3.08105 438.913
c8.63477 77.9121 24.2412 157.327 49.8867 231.537c12.3164 35.6348 27.1777 71.8906 46.0908 104.584c18.292 31.6211 44.6318 56.8027 73.1377 79.1162c50.0146 39.1543 121.348 40.8525 162.029 -12.6865c21.7734 -28.6504 29.2002 -65.5615 33.8564 -100.511
c5.37988 -40.3799 5.5459 -81.3301 2.48633 -121.91c-10.6104 -140.746 -51.8027 -283.156 -122.271 -405.657c-32.2686 -56.0967 -72.1846 -111.011 -119.233 -158.276c7.30762 -56.6504 17.5303 -112.981 31.4727 -169.019
c13.21 -53.0752 26.9863 -115.837 66.8896 -155.646c16.8359 -16.7939 38.0811 -29.3789 62.5439 -23.8975c26.4844 5.93652 50.0361 24.5303 68.3916 43.6475c41.7207 43.4521 69.8262 100.034 92.4248 155.297c25.1992 61.6338 41.6992 126.157 49.8535 192.213
c2.22168 17.9941 46.9512 16.7812 45.0186 0c-4.14551 -35.9873 -10.6484 -71.5703 -19.6328 -106.669c-18.4062 -71.9121 -47.2354 -143.113 -86.9346 -206.007c-32.8848 -52.0918 -76.8994 -96.8301 -138.277 -111.815zM105.207 31.9121
c4.30273 -2.45996 8.63477 -4.70312 12.9883 -6.83105c-15.0654 102.732 -20.9941 206.95 -23.8242 310.649c-1.52832 55.9434 -2.00488 112.193 -1.05566 168.469c-18.1602 -13.7129 -34.5791 -29.6299 -48.6064 -46.0068
c-36.9365 -43.1201 -62.0381 -97.7402 -69.9883 -153.994c-15.1338 -107.133 35.7031 -218.054 130.486 -272.286zM539.26 761.477c-34.7617 -130.868 -34.9873 -268.052 -34.0342 -402.495c0.455078 -64.2676 3.37012 -128.055 9.66016 -191.429
c59.5566 68.749 105.456 149.13 138.652 233.779c46.0957 117.552 75.5508 251.434 65.2988 378.08c-2.71094 33.5361 -7.10742 69.2471 -23.335 99.2637c-14.0361 25.9648 -40.6357 50.7295 -71.3975 37.0811c-29.0078 -12.8701 -44.3545 -38.9541 -55.6279 -67.29
c-11.3164 -28.4463 -21.3516 -57.3779 -29.2168 -86.9902z" />
    <glyph glyph-name="I" unicode="I" horiz-adv-x="605" 
d="M502.406 -114.844c-19.9512 -41.8223 -39.9189 -84.2266 -71.8213 -118.508c-32.834 -35.29 -76.5674 -29.8174 -117.224 -11.4238c-39.5332 17.8877 -73.2656 46.4102 -91.8506 86.1172c-18.9941 40.5752 -23.9229 85.7773 -21.2881 129.937
c5.67285 95.1016 23.0713 190.208 39.2432 283.995c16.2998 94.498 32.3574 189.229 43.8018 284.459c5.01758 41.7412 9.53711 83.5762 13.1934 125.467c-22.3174 -7.99219 -44.6562 -15.9375 -67.5576 -22.1211c-74.4014 -20.083 -200.461 -28.1523 -227.996 67.3369
c-21.9561 76.1211 47.0488 150.492 103.673 190.612c64.0469 45.3809 147.666 65.1748 210.363 6.99219c32.1484 -29.834 55.9346 -62.3408 67.3535 -105.287c6.37988 -23.9863 11.0146 -48.4873 14.5215 -73.1543c52.7725 10.1416 110.733 8.01758 138.499 -39.1758
c9.99316 -16.9893 -31.71 -15.9639 -39.4385 -9.47754c-26.918 22.5947 -61.9102 21.8115 -94.9951 15.5127c1.05566 -10.1465 1.97949 -20.293 2.75879 -30.4219c7.42188 -96.5195 -0.728516 -193.124 -13.1299 -288.886
c-12.3037 -95.0039 -28.127 -189.502 -40.5244 -284.489c-6.09863 -46.7207 -12.4609 -93.7783 -16.1211 -140.755c-3.39648 -43.5713 -4.9668 -81.627 9.86523 -123.245c5.68555 -15.9463 11.5498 -37.166 23.002 -50.1162
c13.8018 -15.6064 31.4082 12.6572 39.9365 23.9307c27.0459 35.7539 45.9502 78.5596 64.9141 118.918c40.7158 86.6543 76.2734 175.594 111.806 264.461c6.18848 15.4746 50.5225 11.1846 43.4111 -6.82227c-39.0898 -98.9746 -78.5508 -197.771 -124.396 -293.855z
M208.56 667.486c30.7783 9.00977 60.7529 20.6348 90.7949 31.9551c3.08594 38.3281 5.52441 77.5332 1.65137 115.517c-4.06055 39.8008 -10.3721 80.8955 -50.9307 99.2812c-42.252 19.1514 -92.2412 -13.6699 -124.33 -39.5205
c-53.9521 -43.457 -129.868 -148.479 -46.2744 -203.197c38.1963 -25.0029 87.9814 -16.0703 129.089 -4.03516z" />
    <glyph glyph-name="I" unicode="&#xcf;" horiz-adv-x="605" 
d="M502.406 -114.844c-19.9512 -41.8223 -39.9189 -84.2266 -71.8213 -118.508c-32.834 -35.29 -76.5674 -29.8174 -117.224 -11.4238c-39.5332 17.8877 -73.2656 46.4102 -91.8506 86.1172c-18.9941 40.5752 -23.9229 85.7773 -21.2881 129.937
c5.67285 95.1016 23.0713 190.208 39.2432 283.995c16.2998 94.498 32.3574 189.229 43.8018 284.459c5.01758 41.7412 9.53711 83.5762 13.1934 125.467c-22.3174 -7.99219 -44.6562 -15.9375 -67.5576 -22.1211c-74.4014 -20.083 -200.461 -28.1523 -227.996 67.3369
c-21.9561 76.1211 47.0488 150.492 103.673 190.612c64.0469 45.3809 147.666 65.1748 210.363 6.99219c32.1484 -29.834 55.9346 -62.3408 67.3535 -105.287c6.37988 -23.9863 11.0146 -48.4873 14.5215 -73.1543c52.7725 10.1416 110.733 8.01758 138.499 -39.1758
c9.99316 -16.9893 -31.71 -15.9639 -39.4385 -9.47754c-26.918 22.5947 -61.9102 21.8115 -94.9951 15.5127c1.05566 -10.1465 1.97949 -20.293 2.75879 -30.4219c7.42188 -96.5195 -0.728516 -193.124 -13.1299 -288.886
c-12.3037 -95.0039 -28.127 -189.502 -40.5244 -284.489c-6.09863 -46.7207 -12.4609 -93.7783 -16.1211 -140.755c-3.39648 -43.5713 -4.9668 -81.627 9.86523 -123.245c5.68555 -15.9463 11.5498 -37.166 23.002 -50.1162
c13.8018 -15.6064 31.4082 12.6572 39.9365 23.9307c27.0459 35.7539 45.9502 78.5596 64.9141 118.918c40.7158 86.6543 76.2734 175.594 111.806 264.461c6.18848 15.4746 50.5225 11.1846 43.4111 -6.82227c-39.0898 -98.9746 -78.5508 -197.771 -124.396 -293.855z
M208.56 667.486c30.7783 9.00977 60.7529 20.6348 90.7949 31.9551c3.08594 38.3281 5.52441 77.5332 1.65137 115.517c-4.06055 39.8008 -10.3721 80.8955 -50.9307 99.2812c-42.252 19.1514 -92.2412 -13.6699 -124.33 -39.5205
c-53.9521 -43.457 -129.868 -148.479 -46.2744 -203.197c38.1963 -25.0029 87.9814 -16.0703 129.089 -4.03516z" />
    <glyph glyph-name="I" unicode="&#xce;" horiz-adv-x="605" 
d="M502.406 -114.844c-19.9512 -41.8223 -39.9189 -84.2266 -71.8213 -118.508c-32.834 -35.29 -76.5674 -29.8174 -117.224 -11.4238c-39.5332 17.8877 -73.2656 46.4102 -91.8506 86.1172c-18.9941 40.5752 -23.9229 85.7773 -21.2881 129.937
c5.67285 95.1016 23.0713 190.208 39.2432 283.995c16.2998 94.498 32.3574 189.229 43.8018 284.459c5.01758 41.7412 9.53711 83.5762 13.1934 125.467c-22.3174 -7.99219 -44.6562 -15.9375 -67.5576 -22.1211c-74.4014 -20.083 -200.461 -28.1523 -227.996 67.3369
c-21.9561 76.1211 47.0488 150.492 103.673 190.612c64.0469 45.3809 147.666 65.1748 210.363 6.99219c32.1484 -29.834 55.9346 -62.3408 67.3535 -105.287c6.37988 -23.9863 11.0146 -48.4873 14.5215 -73.1543c52.7725 10.1416 110.733 8.01758 138.499 -39.1758
c9.99316 -16.9893 -31.71 -15.9639 -39.4385 -9.47754c-26.918 22.5947 -61.9102 21.8115 -94.9951 15.5127c1.05566 -10.1465 1.97949 -20.293 2.75879 -30.4219c7.42188 -96.5195 -0.728516 -193.124 -13.1299 -288.886
c-12.3037 -95.0039 -28.127 -189.502 -40.5244 -284.489c-6.09863 -46.7207 -12.4609 -93.7783 -16.1211 -140.755c-3.39648 -43.5713 -4.9668 -81.627 9.86523 -123.245c5.68555 -15.9463 11.5498 -37.166 23.002 -50.1162
c13.8018 -15.6064 31.4082 12.6572 39.9365 23.9307c27.0459 35.7539 45.9502 78.5596 64.9141 118.918c40.7158 86.6543 76.2734 175.594 111.806 264.461c6.18848 15.4746 50.5225 11.1846 43.4111 -6.82227c-39.0898 -98.9746 -78.5508 -197.771 -124.396 -293.855z
M208.56 667.486c30.7783 9.00977 60.7529 20.6348 90.7949 31.9551c3.08594 38.3281 5.52441 77.5332 1.65137 115.517c-4.06055 39.8008 -10.3721 80.8955 -50.9307 99.2812c-42.252 19.1514 -92.2412 -13.6699 -124.33 -39.5205
c-53.9521 -43.457 -129.868 -148.479 -46.2744 -203.197c38.1963 -25.0029 87.9814 -16.0703 129.089 -4.03516z" />
    <glyph glyph-name="I" unicode="&#xcd;" horiz-adv-x="605" 
d="M502.406 -114.844c-19.9512 -41.8223 -39.9189 -84.2266 -71.8213 -118.508c-32.834 -35.29 -76.5674 -29.8174 -117.224 -11.4238c-39.5332 17.8877 -73.2656 46.4102 -91.8506 86.1172c-18.9941 40.5752 -23.9229 85.7773 -21.2881 129.937
c5.67285 95.1016 23.0713 190.208 39.2432 283.995c16.2998 94.498 32.3574 189.229 43.8018 284.459c5.01758 41.7412 9.53711 83.5762 13.1934 125.467c-22.3174 -7.99219 -44.6562 -15.9375 -67.5576 -22.1211c-74.4014 -20.083 -200.461 -28.1523 -227.996 67.3369
c-21.9561 76.1211 47.0488 150.492 103.673 190.612c64.0469 45.3809 147.666 65.1748 210.363 6.99219c32.1484 -29.834 55.9346 -62.3408 67.3535 -105.287c6.37988 -23.9863 11.0146 -48.4873 14.5215 -73.1543c52.7725 10.1416 110.733 8.01758 138.499 -39.1758
c9.99316 -16.9893 -31.71 -15.9639 -39.4385 -9.47754c-26.918 22.5947 -61.9102 21.8115 -94.9951 15.5127c1.05566 -10.1465 1.97949 -20.293 2.75879 -30.4219c7.42188 -96.5195 -0.728516 -193.124 -13.1299 -288.886
c-12.3037 -95.0039 -28.127 -189.502 -40.5244 -284.489c-6.09863 -46.7207 -12.4609 -93.7783 -16.1211 -140.755c-3.39648 -43.5713 -4.9668 -81.627 9.86523 -123.245c5.68555 -15.9463 11.5498 -37.166 23.002 -50.1162
c13.8018 -15.6064 31.4082 12.6572 39.9365 23.9307c27.0459 35.7539 45.9502 78.5596 64.9141 118.918c40.7158 86.6543 76.2734 175.594 111.806 264.461c6.18848 15.4746 50.5225 11.1846 43.4111 -6.82227c-39.0898 -98.9746 -78.5508 -197.771 -124.396 -293.855z
M208.56 667.486c30.7783 9.00977 60.7529 20.6348 90.7949 31.9551c3.08594 38.3281 5.52441 77.5332 1.65137 115.517c-4.06055 39.8008 -10.3721 80.8955 -50.9307 99.2812c-42.252 19.1514 -92.2412 -13.6699 -124.33 -39.5205
c-53.9521 -43.457 -129.868 -148.479 -46.2744 -203.197c38.1963 -25.0029 87.9814 -16.0703 129.089 -4.03516z" />
    <glyph glyph-name="J" unicode="J" horiz-adv-x="681" 
d="M667.247 196.316c-28.2891 0.250977 -56.1553 4.77344 -82.9209 14.0049c-19.9219 6.87793 -38.252 15.7178 -55.4414 25.9746c0.34082 -7.9668 0.681641 -15.9385 1.01758 -23.9102c2.94531 -69.6348 7.5332 -139.797 -5.91113 -208.721
c-24.7441 -126.838 -129.707 -237.972 -264.878 -237.338c-129.885 0.613281 -208.887 113.245 -239.789 227.604c-32.7656 121.267 -15.9209 260.157 39.248 372.41c27.1055 55.1562 66.6299 107.389 127.323 127.11c61.2041 19.8877 119.595 -1.74023 166.431 -42.3496
c10.6992 -9.27344 21.1904 -19.3857 31.6006 -29.9785c-2.09375 69.8223 -3.55371 139.657 -3.45996 209.458c0.046875 35.2051 0.149414 70.4053 0.494141 105.605c0.212891 22.0586 1.05176 43.5469 2.47754 65.0986
c-75.7334 -26.582 -156.225 -32.2637 -234.941 -45.9082c-1.42578 -15.9766 -5.50684 -31.625 -12.457 -45.9375c-21.2881 -43.8398 -88.9482 -73.7969 -128.354 -33.0684c-15.0918 15.6025 -19.3945 42.1719 -4.38867 59.2852
c17.2578 19.6787 49.0957 24.3857 73.1631 30.1143c9.40527 2.23828 18.8535 4.23438 28.3184 6.13672c-1.14453 41.5205 -20.6494 86.0967 -60.6074 101.954c-26.8076 10.6436 5.26855 28.4414 22.2539 21.7002c22.5479 -8.9502 41.3252 -22.3477 55.6934 -42.0693
c15.3555 -21.0752 24.3906 -47.1299 26.4502 -73.6484c36.2812 5.94531 72.7588 10.8145 108.998 17.0625c43.75 7.5459 87.6025 17.4922 128.34 34.9795c0.314453 3.30664 0.56543 6.58398 0.914062 9.91211c5.25195 49.9004 -3.31055 124.842 63.5029 134.749
c45.6992 6.77539 88.8711 -34.834 69.2432 -80.3076c-7.20117 -16.6826 -19.5859 -30.8379 -34.4854 -42.9463c4.11523 -22.1094 8.20117 -44.2148 10.1338 -66.4092c3.31152 -38.0137 6.75879 -76.0146 9.75098 -114.054
c6.08594 -77.4062 10.4521 -154.791 14.5078 -232.329c2.86035 -54.6797 5.33301 -109.372 7.69531 -164.073c40.4014 -31.3574 85.5898 -53.2197 140.078 -53.6582c7.3584 -0.0595703 23.207 -2.92383 23.207 -13.2275c0 -10.2266 -15.543 -13.2949 -23.208 -13.2266z
M62.5176 683.843c24.5654 5.39648 36.6055 38.8604 40.5596 62.5234c-13.5938 -3.11523 -27.0938 -6.63867 -40.4619 -10.7373c-14.083 -4.31543 -27.2549 -10.5332 -26.4463 -27.3613c0.702148 -14.6357 10.9717 -27.8037 26.3486 -24.4248zM477.189 899.676
c4.59668 9.11621 6.50781 19.0293 3.7334 29.4941c-1.58789 6.00098 -5.3457 8.82227 -7.69531 14.4062c-0.046875 0.046875 -0.0976562 0.0976562 -0.148438 0.144531c-0.416992 -1.34082 -0.884766 -2.71094 -0.969727 -3.35742
c-1.51953 -11.291 2.84668 -24.0244 4.28906 -35.2051c0.238281 -1.83008 0.536133 -3.65625 0.791016 -5.48242zM390.51 11.1387c7.75879 65.0723 3.0918 131.744 0.801758 197.042c-1.83008 52.2666 -3.82227 104.567 -5.59668 156.881
c-23.5605 25.2207 -47.4189 50.2363 -73.5586 72.6777c-21.8965 18.7939 -49.4531 37.7705 -79.6191 36.7061c-33.0635 -1.16602 -62.7314 -23.2578 -83.8359 -47.0312c-39.8857 -44.9297 -63.9482 -106.95 -77.1582 -164.864
c-26.1689 -114.743 -9.37109 -240.475 48.2793 -343.616c24.127 -43.167 60.957 -89.1777 110.453 -103.566c43.4824 -12.6396 78.7598 16.2666 105.963 47.0537c37.0986 41.9844 47.832 94.7402 54.2715 148.718z" />
    <glyph glyph-name="K" unicode="K" horiz-adv-x="757" 
d="M459.83 719.662c-43.5078 -84.5811 -110.327 -157.756 -171.565 -229.667c-6.29883 -7.39258 -12.5889 -14.7979 -18.8701 -22.2119c39.1758 -7.68652 71.4443 -29.0508 92.6045 -66.0684c24.6162 -43.0605 38.9033 -92.2881 49.7256 -140.371
c19.8916 -88.373 27.8369 -179.428 40.3193 -269.073c5.69434 -40.9121 12.8145 -81.9385 28.8887 -120.199c12.7334 -30.3105 29.5996 -62.9062 58.9824 -80.2188c36.0986 -21.2705 72.3633 19.8408 90.625 48.1514c21.9473 34.0303 36.0303 73.8096 47.7207 112.359
c25.4121 83.8066 36.7715 171.078 57.7783 255.983c3.91504 15.8193 48.6357 12.708 43.8604 -6.89062c-24.8799 -102.158 -35.6172 -208.419 -74.2139 -306.888c-30.1064 -76.7969 -80.9766 -150.139 -172.286 -149.33
c-97.1279 0.855469 -168.946 88.4072 -194.584 174.197c-27.208 91.0293 -31.0557 189.136 -43.2148 282.918c-6.25195 48.2275 -12.6445 96.3105 -21.3389 144.168c-3.90234 21.4707 -7.21387 43.1973 -13.1846 64.2295c-2.68555 9.46094 -6.21387 22.833 -13.2441 31.3955
c-17.624 -21.1133 -35.0098 -42.4229 -51.7568 -64.2432c-22.8877 -29.8252 -48.5078 -61.8213 -62.3994 -97.6855c0.911133 -15.8789 1.90234 -31.7529 3.06836 -47.6191c9.9541 -135.537 31.9951 -269.188 59.3779 -402.036
c2.65527 -12.8906 -19.8203 -20.0361 -28.6602 -21.4531c-13.6016 -2.1748 -33.9619 -0.532227 -44.082 10.2266c-53.9775 57.3906 -67.6768 145.458 -83.1211 219.982c-29.2041 140.938 -39.6611 285.195 -39.4863 428.946
c0.174805 143.845 8.67773 288.805 32.166 430.811c4.53711 27.4502 37.9844 35.251 61.8428 35.251c18.6025 0 64.2637 -8.14551 61.8418 -35.251c-7.12891 -79.7549 -15.5254 -159.45 -20.9004 -239.351c-6.84375 -101.707 -8.62695 -203.597 -5.32422 -305.394
c2.88086 4.03027 5.80078 8.04785 8.7373 12.0527c26.335 35.9072 54.4746 70.418 83.1426 104.482c53.9941 64.1621 110.082 126.953 157.611 196.205c20.1729 29.3994 39.3369 60.4805 51.6318 94.1406c-5.75391 -1.61719 -11.5039 -3.24707 -17.2539 -4.90723
c-48.9209 -14.1377 -103.49 -27.373 -152.59 -6.50684c-35.4131 15.0488 -49.2705 51.4707 -13.0361 74.75c39.0176 25.0625 85.7002 37.8389 131.565 41.5283c32.9961 2.65137 79.2109 -2.75781 97.5449 -34.6982c5.08984 -8.86914 7.43457 -18.4873 7.85156 -28.416
c7.66016 1.64746 15.334 3.23535 23.0498 4.68652c33.4346 6.29004 72.7461 15.2744 103.019 -5.48145c21.9902 -15.0781 -18.4492 -27.71 -32.1621 -18.334c-19.6279 13.4229 -56.8672 -0.672852 -78.3428 -5.16309c-6.32031 -1.31934 -12.5977 -2.75781 -18.8711 -4.23047
c-4.92871 -19.709 -14.3721 -39.0391 -22.4668 -54.7773zM387.406 777.781c17.4023 4.97559 34.8174 9.78223 52.3086 14.2852c1.3916 11.5166 0.489258 23.3477 -5.80566 32.417c-11.082 15.9639 -27.7734 12.0742 -44.2393 9.21875
c-19.3555 -3.35742 -38.1367 -9.12793 -56.9521 -14.6475c-14.9385 -4.38379 -45.1895 -8.20996 -54.9229 -21.7734c-17.2656 -24.0498 32.7109 -32.1318 45.6787 -31.9277c21.7266 0.34082 43.1895 6.49512 63.9326 12.4277z" />
    <glyph glyph-name="L" unicode="L" horiz-adv-x="825" 
d="M829.251 211.454c-29.8213 -16.9385 -60.7998 -31.5547 -92.5615 -44.459c-58.4668 -23.7607 -121.335 -43.1934 -181.194 -67.9795c0.348633 -9.39258 0.663086 -18.7852 0.931641 -28.1826c2.0127 -70.4268 2.13184 -141.372 -6.24414 -211.407
c-6.69922 -56.0244 -17.7559 -113.058 -63.668 -150.225c-19.9814 -16.1768 -36.5586 -31.8896 -62.4043 -38.1973c-25.5225 -6.22656 -53.1689 -3.84277 -77.542 5.83496c-50.6279 20.1094 -78.6016 68.792 -84.0615 121.429
c-11.8994 114.679 71.418 212.518 162.928 270.125c-0.250977 3.5752 -0.459961 7.1543 -0.719727 10.7295c-6.7373 93.3184 -15.9551 187.037 -21.3643 280.803c-102.128 -51.0879 -222.161 -67.9238 -329.256 -19.8447c-52.4111 23.5312 -100.494 64.332 -115.066 122.033
c-14.3086 56.6758 13.4141 105.802 63.4844 132.972c60.7275 32.9531 134.797 26.7695 201.499 27.1953c59.6211 0.378906 119.237 0.761719 178.858 1.14062c3.20898 41.2266 9.22266 82.2529 21.0879 121.245c18.1299 59.582 49.0273 131.145 108.299 160.233
c31.2471 15.3379 71.6016 18.1934 102.683 0.569336c25.7988 -14.6318 40.8438 -43.0615 49.7939 -70.3379c20.9727 -63.9102 9.86523 -124.169 -12.6484 -185.713c-28.0547 -76.6914 -75.0908 -141.93 -133.869 -195.763c2.45996 -107.742 11.1123 -215.22 15.96 -322.872
c81.4111 31.9365 165.938 56.9482 242.914 99.0049c8.71582 4.7627 23.6367 5.92871 32.1611 0c7.5332 -5.23926 8.79297 -13.3379 0 -18.334zM588.394 870.484c-1.86816 1.06445 -2.63477 -0.94043 0 0zM543.723 705.041
c-7.38867 -64.5869 -6.66113 -129.959 -6.24805 -194.912c13.4531 15.9082 25.8633 32.6846 37.0352 50.2656c15.168 23.8711 28.0762 48.9766 37.4863 75.665c10.7373 30.4551 14.2354 59.2676 15.7422 91.3359c1.42578 30.332 0.0302734 61.1191 -9.49023 90.1865
c-4.90723 14.9766 -11.082 31.0762 -21.0029 43.4736c-1.71484 2.14941 -4.43457 4.1709 -6.1416 6.40137c-39.8779 -38.2939 -41.5459 -111.405 -47.3809 -162.416zM288.017 354.58c39.4902 9.70801 77.6348 24.7812 113.346 44.3838
c-1.9873 44.04 -2.9707 88.084 -2.23828 132.086c0.366211 21.875 0.893555 44.0947 2.05957 66.3662c-20.2363 -0.157227 -40.4775 -0.310547 -60.7139 -0.463867c-69.7666 -0.527344 -140.351 2.04297 -209.989 -2.32812
c-57.667 -3.61719 -127.659 -30.7354 -125.629 -99.6426c1.75293 -59.459 58.4795 -107.069 108.644 -129.379c55.0713 -24.4922 116.692 -25.2324 174.521 -11.0225zM437.644 -144.725c-2.97461 58.0332 -5.91016 116.063 -9.58301 174.054
c-18.9043 -14.2275 -36.6514 -30.1533 -52.8154 -48.3516c-41.1377 -46.3125 -69.8945 -106.605 -68.001 -169.546c0.931641 -31.042 9.68555 -63.3955 29.918 -87.5898c18.4062 -22.0117 51.2783 -39.6611 79.5117 -25.54c26.3223 13.1631 23.9434 42.8223 24.6328 68.7363
c0.779297 29.2979 -2.16113 58.9229 -3.66309 88.2373z" />
    <glyph glyph-name="M" unicode="M" horiz-adv-x="1195" 
d="M856.99 160.375c4.07715 177.415 25.6445 354.139 28.1133 531.494c0.506836 36.46 -1.0127 74.9883 -10.5889 110.405c-2.85547 10.5762 -8.39648 24.3223 -21.4746 20.6924c-6.40039 -1.7793 -12.9248 -11.5723 -17.0488 -16.6201
c-12.3848 -15.1719 -22.3779 -32.5488 -31.2305 -49.9727c-37.4004 -73.6221 -59.0205 -156.905 -79.0107 -236.647c-41.8945 -167.142 -63.9863 -338.398 -97.7568 -507.208c-0.110352 -0.557617 -0.276367 -1.08984 -0.47168 -1.60449
c0.0556641 -2.68555 0.09375 -5.36719 0.149414 -8.05273c0.961914 -46.7764 -117.433 -47.1338 -119.965 0c-5.88574 109.605 -4.89844 219.382 1.94922 328.933c3.37109 53.8838 9.18457 107.401 14.0107 161.153c2.45605 27.3525 3.59668 54.7305 5.60547 82.0791
c0.996094 13.585 1.94043 27.1865 2.87207 40.7627c0.216797 3.19629 0.561523 6.75391 0.714844 10.3672c-7.81348 -9.29492 -18.0576 -23.7949 -19.3135 -25.5527c-8.46875 -11.8613 -16.2227 -24.2412 -23.4531 -36.8936
c-13.3291 -23.3262 -24.6885 -47.7461 -34.9922 -72.541c-23.127 -55.6416 -42.1807 -113.121 -60.6895 -170.431c-36.1064 -111.798 -67.5527 -225.013 -98.5947 -338.305c0.332031 -15.4824 0.655273 -30.9648 0.96582 -46.4473
c0.586914 -29.4043 -44.8232 -36.8477 -65.5664 -37.375c-23.624 -0.599609 -62.9229 8.69531 -65.5654 37.376c-12.4014 134.554 -9.9248 269.771 -1.41309 404.517c5.3584 84.8242 17.5264 168.593 30.5957 252.327c-11.6777 -4.60059 -23.624 -8.49512 -35.9785 -11.1631
c-53.292 -11.5078 -115.24 -1.60449 -146.759 47.2314c-57.7695 89.5059 20.8154 227.55 105.508 270.228c37.0605 18.6748 90.876 25.9482 124.643 -3.65137c21.8408 -19.1475 33.6426 -53.1523 43.1455 -79.7002c9.7207 -27.1611 15.4453 -56.3906 18.5566 -85.0283
c2.11523 -19.4746 3.16602 -38.9619 3.52734 -58.4541c30.9229 2.09863 63.7822 -6.42578 59.1777 -41.9414c-2.05176 -15.832 -41.4443 -15.5088 -40.3633 0c1.20898 17.2832 -8.03027 19.4238 -18.7041 16.8789c-0.344727 -37.0557 -2.69824 -74.1289 -4.71582 -111.185
c-3.62207 -66.5703 -6.09473 -133.072 -8.27832 -199.702c-2.31543 -70.6729 -2.28516 -141.363 -1.37012 -212.049c15.8145 57.4668 32.2207 114.768 49.9297 171.682c27.7656 89.2285 55.0078 182.177 99.5117 264.788c17.2832 32.085 41.0527 78.7207 76.2578 93.9521
c37.2734 16.126 73.082 -5.69434 85.9727 -41.3672c17.0615 -47.2275 19.3125 -99.5156 20.3848 -149.203c1.10254 -51.0664 -0.548828 -102.082 -0.689453 -153.152c-0.0761719 -28.502 -0.0126953 -57.0039 0.12793 -85.5059
c19.4404 116.581 39.541 233.035 70.2812 347.255c20.8457 77.4482 43.4912 162.123 89.5225 228.915c18.1553 26.3477 41.0137 50.376 75.5029 49.3887c32.8643 -0.944336 56.4121 -27.5049 74.9463 -51.8906c23.4629 -30.876 33.0342 -69.7021 40.2646 -107.273
c8.23047 -42.7676 12.8145 -85.6885 15.6484 -129.12c5.79199 -88.752 3.88574 -177.747 2.96191 -266.61c-0.927734 -89.1182 -1.2041 -178.206 -1.59961 -267.32c-0.1875 -42.5547 -3.65625 -85.3262 -2.90723 -127.809
c0.557617 -31.6211 4.93652 -69.7109 26.9434 -94.3779c20.8877 -23.416 40.4434 -15.0322 58.4072 10.0137c20.3428 28.3613 30.5693 63.5195 40.5322 96.4814c25.8457 85.4883 45.9463 172.529 60.7314 260.597c3.17871 18.9258 50.1211 17.1807 47.3467 0
c-15.5088 -95.9697 -37.4268 -190.706 -65.5156 -283.773c-21.0244 -69.6475 -54.1094 -144.027 -139.512 -140.15c-38.7969 1.76172 -76.291 18.9941 -103.806 46.3213c-28.6416 28.4424 -40.332 66.1494 -47.4736 104.891
c-15.7041 85.1816 -11.9844 173.159 -10.001 259.35zM127.697 603.423c25.8975 2.375 49.6123 12.4756 72.6406 24.4854c3.28125 20.8027 6.56641 41.6094 9.7666 62.4424c4.49805 29.2588 7.83887 59.0029 9.1875 88.5811
c1.16992 25.6719 7.02637 61.3701 -2.94531 85.8418c-22.8838 56.1602 -91.0713 4.48926 -115.381 -21.7783c-34.873 -37.6816 -62.1357 -92.5098 -62.5908 -144.47c-0.455078 -52.2197 33.0557 -100.265 89.3223 -95.1025z" />
    <glyph glyph-name="N" unicode="N" horiz-adv-x="842" 
d="M768.749 -72.3574c-16.6025 -37.8516 -32.7129 -83.1074 -65.6494 -110.124c-30.127 -24.7051 -70.085 -32.7656 -107.252 -20.9473c-82.9766 26.3818 -99.4805 126.897 -96.4805 201.869c3.65625 91.3867 18.4883 182.986 29.3242 273.756
c10.9082 91.3818 24.3867 182.415 36.6396 273.61c6.20508 46.1895 11.9717 92.3613 16.0996 138.789c2.08105 23.416 4.64355 46.7383 5.04785 70.2686c0.310547 17.9297 3.37012 35.9023 1.96973 53.8066c-1.24316 15.917 -6.74609 42.3506 -26.9658 34.1875
c-16.0996 -6.49902 -30.042 -26.6465 -39.3662 -40.2607c-22.1982 -32.4131 -36.9062 -69.3203 -49.5117 -106.321c-27.9443 -82.0234 -49.4326 -166.341 -68.6309 -250.782c-38.5068 -169.358 -67.085 -340.807 -107.209 -509.816
c0.268555 -29.1484 -44.8867 -36.5449 -65.5576 -37.0723c-23.624 -0.599609 -62.9229 8.69531 -65.5654 37.376c-12.4014 134.554 -9.91992 269.771 -1.4082 404.517c5.3584 84.8242 17.5264 168.593 30.5957 252.327
c-11.6777 -4.60059 -23.624 -8.49512 -35.9785 -11.1631c-53.292 -11.5078 -115.236 -1.60449 -146.76 47.2314c-57.7695 89.5059 20.8154 227.55 105.508 270.228c37.0605 18.6748 90.8721 25.9482 124.643 -3.65137c21.8408 -19.1475 33.6426 -53.1523 43.1455 -79.7002
c9.7207 -27.1611 15.4453 -56.3906 18.5566 -85.0283c2.11523 -19.4746 3.1709 -38.9619 3.52832 -58.4541c30.9229 2.09863 63.7822 -6.42578 59.1777 -41.9414c-2.05176 -15.832 -41.4443 -15.5088 -40.3633 0c1.20898 17.2832 -8.03027 19.4238 -18.7041 16.8789
c-0.34082 -37.0557 -2.69434 -74.1289 -4.71191 -111.185c-3.62207 -66.5703 -6.09473 -133.072 -8.27832 -199.702c-2.50293 -76.4395 -2.25586 -152.896 -1.11914 -229.354c27.1484 136.137 51.4619 272.865 84.0283 407.854
c19.292 79.9678 39.0479 162.532 71.6611 238.291c25.6758 59.6416 75.7891 140.171 152.591 113.652c73.9121 -25.5225 80.9639 -134.384 82.4189 -198.716c2.09863 -92.8672 -2.92773 -185.352 -11.6055 -277.772c-8.58789 -91.4756 -18.1641 -182.815 -27.9521 -274.172
c-4.7627 -44.4785 -11.1934 -88.8584 -14.9941 -133.417c-3.52832 -41.3838 -3.01758 -81.998 -1.73242 -123.416c0.301758 -9.70801 2.42969 -33.1406 14.6826 -36.2002c15.8232 -3.94922 35.8262 21.5049 43.4316 32.1152
c23.1309 32.2812 38.1328 71.6777 53.2373 108.125c33.3789 80.5293 59.6377 163.74 85.8408 246.807c4.68164 14.8447 46.751 11.3887 41.167 -6.46875c-29.1016 -93.127 -58.2627 -186.548 -97.498 -276.023zM127.692 603.422
c25.9014 2.375 49.6113 12.4756 72.6445 24.4854c3.28125 20.8027 6.56641 41.6094 9.7666 62.4424c4.49414 29.2588 7.83496 59.0029 9.18359 88.5811c1.16992 25.6719 7.02637 61.3701 -2.94531 85.8418c-22.8838 56.1602 -91.0713 4.48926 -115.381 -21.7783
c-34.873 -37.6816 -62.1357 -92.5098 -62.5908 -144.47c-0.455078 -52.2197 33.0557 -100.265 89.3223 -95.1025z" />
    <glyph glyph-name="O" unicode="O" horiz-adv-x="629" 
d="M631.635 218.677c20.4922 -9.46973 -12.9912 -24.0898 -25.2949 -18.6973c-28.042 12.2949 -58.1738 9.88574 -88.0547 9.32422c-7.55371 -76.1465 -23.3682 -151.476 -51.8447 -220.885c-25.459 -62.0508 -60.4209 -124.089 -116.535 -163.106
c-54.5605 -37.9365 -130.341 -50.4746 -191.43 -21.5859c-106.972 50.5898 -130.158 201.401 -126.489 306.13c2.31543 66.2217 15.7852 132.478 37.1152 195.149c4.39648 12.9209 9.3125 25.8291 14.8115 38.5156c-58.4541 61.8418 -94.8975 143.354 -99.7666 229.592
c-6.81348 120.663 46.9473 250.616 151.455 316.34c49.6494 31.2256 114.283 46.9131 170.891 25.8721c56.2793 -20.9131 100.068 -68.8809 130.153 -119.274c34.3232 -57.4971 49.2822 -126.399 62.0068 -191.463c13.998 -71.5664 21.5391 -143.818 24.2373 -216.671
c1.84668 -49.9385 1.50586 -101.312 -2.3418 -152.578c38.0225 0.361328 76.2188 -0.549805 111.087 -16.6621zM75.9932 419.166c7.94531 -13.7041 16.834 -26.4932 26.3799 -38.5928c16.0918 28.1016 36.2559 53.6279 62.2334 73.4688
c34.8301 26.6035 109.397 43.6611 131.911 -8.81836c14.8271 -34.5537 -5.18359 -60.791 -32.7314 -78.3125c12.8311 -2.36621 25.4922 -5.96289 37.8984 -10.9043c27.6465 -11.0059 -5.43848 -29.3613 -22.9561 -22.3857
c-24.0283 9.56738 -47.9375 13.2529 -73.6387 9.59668c-22.1904 -3.1582 -41.082 17.6104 -11.8994 24.5986c28.2637 6.7666 61.5195 20.998 63.5625 54.5469c0.821289 13.5381 -5.63086 29.2891 -20.5225 32.085c-13.9463 2.62207 -29.1182 -8.70703 -39.4258 -16.8867
c-29.3525 -23.3008 -50.3555 -54.5557 -66.2344 -88.3174c51.998 -50.8369 119.352 -83.5391 192.515 -98.7373c22.6201 -4.69824 45.4482 -8.00977 68.3828 -10.3848c11.9375 116.483 12.6309 235.631 3.68457 352.276c-4.21777 54.9736 -9.29883 111.402 -23.8203 164.741
c-12.3672 45.4355 -28.5312 102.086 -71.4521 128.379c-51.4834 31.54 -114.028 4.07227 -156.195 -30.8262c-39.1162 -32.374 -68.2354 -75.1162 -87.6084 -121.829c-42.0225 -101.341 -35.1709 -218.723 19.917 -313.697zM302.293 -74.6992
c48.9258 89.7354 73.9492 187.861 86.2695 288.628c-81.2021 7.79688 -161.438 26.9229 -230.886 69.5664c-14.7334 9.04785 -28.7012 19.1348 -41.873 30.0938c-2.61719 -7.18359 -5.07324 -14.3926 -7.37598 -21.5811
c-37.7578 -118.032 -52.3984 -262.536 5.01367 -376.913c16.5215 -32.9189 52.3223 -84.5723 95.124 -80.3975c43.9033 4.28125 74.9121 56.0967 93.7275 90.6035z" />
    <glyph glyph-name="O" unicode="&#xd6;" horiz-adv-x="629" 
d="M631.635 218.677c20.4922 -9.46973 -12.9912 -24.0898 -25.2949 -18.6973c-28.042 12.2949 -58.1738 9.88574 -88.0547 9.32422c-7.55371 -76.1465 -23.3682 -151.476 -51.8447 -220.885c-25.459 -62.0508 -60.4209 -124.089 -116.535 -163.106
c-54.5605 -37.9365 -130.341 -50.4746 -191.43 -21.5859c-106.972 50.5898 -130.158 201.401 -126.489 306.13c2.31543 66.2217 15.7852 132.478 37.1152 195.149c4.39648 12.9209 9.3125 25.8291 14.8115 38.5156c-58.4541 61.8418 -94.8975 143.354 -99.7666 229.592
c-6.81348 120.663 46.9473 250.616 151.455 316.34c49.6494 31.2256 114.283 46.9131 170.891 25.8721c56.2793 -20.9131 100.068 -68.8809 130.153 -119.274c34.3232 -57.4971 49.2822 -126.399 62.0068 -191.463c13.998 -71.5664 21.5391 -143.818 24.2373 -216.671
c1.84668 -49.9385 1.50586 -101.312 -2.3418 -152.578c38.0225 0.361328 76.2188 -0.549805 111.087 -16.6621zM75.9932 419.166c7.94531 -13.7041 16.834 -26.4932 26.3799 -38.5928c16.0918 28.1016 36.2559 53.6279 62.2334 73.4688
c34.8301 26.6035 109.397 43.6611 131.911 -8.81836c14.8271 -34.5537 -5.18359 -60.791 -32.7314 -78.3125c12.8311 -2.36621 25.4922 -5.96289 37.8984 -10.9043c27.6465 -11.0059 -5.43848 -29.3613 -22.9561 -22.3857
c-24.0283 9.56738 -47.9375 13.2529 -73.6387 9.59668c-22.1904 -3.1582 -41.082 17.6104 -11.8994 24.5986c28.2637 6.7666 61.5195 20.998 63.5625 54.5469c0.821289 13.5381 -5.63086 29.2891 -20.5225 32.085c-13.9463 2.62207 -29.1182 -8.70703 -39.4258 -16.8867
c-29.3525 -23.3008 -50.3555 -54.5557 -66.2344 -88.3174c51.998 -50.8369 119.352 -83.5391 192.515 -98.7373c22.6201 -4.69824 45.4482 -8.00977 68.3828 -10.3848c11.9375 116.483 12.6309 235.631 3.68457 352.276c-4.21777 54.9736 -9.29883 111.402 -23.8203 164.741
c-12.3672 45.4355 -28.5312 102.086 -71.4521 128.379c-51.4834 31.54 -114.028 4.07227 -156.195 -30.8262c-39.1162 -32.374 -68.2354 -75.1162 -87.6084 -121.829c-42.0225 -101.341 -35.1709 -218.723 19.917 -313.697zM302.293 -74.6992
c48.9258 89.7354 73.9492 187.861 86.2695 288.628c-81.2021 7.79688 -161.438 26.9229 -230.886 69.5664c-14.7334 9.04785 -28.7012 19.1348 -41.873 30.0938c-2.61719 -7.18359 -5.07324 -14.3926 -7.37598 -21.5811
c-37.7578 -118.032 -52.3984 -262.536 5.01367 -376.913c16.5215 -32.9189 52.3223 -84.5723 95.124 -80.3975c43.9033 4.28125 74.9121 56.0967 93.7275 90.6035z" />
    <glyph glyph-name="O" unicode="&#xd5;" horiz-adv-x="629" 
d="M631.635 218.677c20.4922 -9.46973 -12.9912 -24.0898 -25.2949 -18.6973c-28.042 12.2949 -58.1738 9.88574 -88.0547 9.32422c-7.55371 -76.1465 -23.3682 -151.476 -51.8447 -220.885c-25.459 -62.0508 -60.4209 -124.089 -116.535 -163.106
c-54.5605 -37.9365 -130.341 -50.4746 -191.43 -21.5859c-106.972 50.5898 -130.158 201.401 -126.489 306.13c2.31543 66.2217 15.7852 132.478 37.1152 195.149c4.39648 12.9209 9.3125 25.8291 14.8115 38.5156c-58.4541 61.8418 -94.8975 143.354 -99.7666 229.592
c-6.81348 120.663 46.9473 250.616 151.455 316.34c49.6494 31.2256 114.283 46.9131 170.891 25.8721c56.2793 -20.9131 100.068 -68.8809 130.153 -119.274c34.3232 -57.4971 49.2822 -126.399 62.0068 -191.463c13.998 -71.5664 21.5391 -143.818 24.2373 -216.671
c1.84668 -49.9385 1.50586 -101.312 -2.3418 -152.578c38.0225 0.361328 76.2188 -0.549805 111.087 -16.6621zM75.9932 419.166c7.94531 -13.7041 16.834 -26.4932 26.3799 -38.5928c16.0918 28.1016 36.2559 53.6279 62.2334 73.4688
c34.8301 26.6035 109.397 43.6611 131.911 -8.81836c14.8271 -34.5537 -5.18359 -60.791 -32.7314 -78.3125c12.8311 -2.36621 25.4922 -5.96289 37.8984 -10.9043c27.6465 -11.0059 -5.43848 -29.3613 -22.9561 -22.3857
c-24.0283 9.56738 -47.9375 13.2529 -73.6387 9.59668c-22.1904 -3.1582 -41.082 17.6104 -11.8994 24.5986c28.2637 6.7666 61.5195 20.998 63.5625 54.5469c0.821289 13.5381 -5.63086 29.2891 -20.5225 32.085c-13.9463 2.62207 -29.1182 -8.70703 -39.4258 -16.8867
c-29.3525 -23.3008 -50.3555 -54.5557 -66.2344 -88.3174c51.998 -50.8369 119.352 -83.5391 192.515 -98.7373c22.6201 -4.69824 45.4482 -8.00977 68.3828 -10.3848c11.9375 116.483 12.6309 235.631 3.68457 352.276c-4.21777 54.9736 -9.29883 111.402 -23.8203 164.741
c-12.3672 45.4355 -28.5312 102.086 -71.4521 128.379c-51.4834 31.54 -114.028 4.07227 -156.195 -30.8262c-39.1162 -32.374 -68.2354 -75.1162 -87.6084 -121.829c-42.0225 -101.341 -35.1709 -218.723 19.917 -313.697zM302.293 -74.6992
c48.9258 89.7354 73.9492 187.861 86.2695 288.628c-81.2021 7.79688 -161.438 26.9229 -230.886 69.5664c-14.7334 9.04785 -28.7012 19.1348 -41.873 30.0938c-2.61719 -7.18359 -5.07324 -14.3926 -7.37598 -21.5811
c-37.7578 -118.032 -52.3984 -262.536 5.01367 -376.913c16.5215 -32.9189 52.3223 -84.5723 95.124 -80.3975c43.9033 4.28125 74.9121 56.0967 93.7275 90.6035z" />
    <glyph glyph-name="O" unicode="&#xd4;" horiz-adv-x="629" 
d="M631.635 218.677c20.4922 -9.46973 -12.9912 -24.0898 -25.2949 -18.6973c-28.042 12.2949 -58.1738 9.88574 -88.0547 9.32422c-7.55371 -76.1465 -23.3682 -151.476 -51.8447 -220.885c-25.459 -62.0508 -60.4209 -124.089 -116.535 -163.106
c-54.5605 -37.9365 -130.341 -50.4746 -191.43 -21.5859c-106.972 50.5898 -130.158 201.401 -126.489 306.13c2.31543 66.2217 15.7852 132.478 37.1152 195.149c4.39648 12.9209 9.3125 25.8291 14.8115 38.5156c-58.4541 61.8418 -94.8975 143.354 -99.7666 229.592
c-6.81348 120.663 46.9473 250.616 151.455 316.34c49.6494 31.2256 114.283 46.9131 170.891 25.8721c56.2793 -20.9131 100.068 -68.8809 130.153 -119.274c34.3232 -57.4971 49.2822 -126.399 62.0068 -191.463c13.998 -71.5664 21.5391 -143.818 24.2373 -216.671
c1.84668 -49.9385 1.50586 -101.312 -2.3418 -152.578c38.0225 0.361328 76.2188 -0.549805 111.087 -16.6621zM75.9932 419.166c7.94531 -13.7041 16.834 -26.4932 26.3799 -38.5928c16.0918 28.1016 36.2559 53.6279 62.2334 73.4688
c34.8301 26.6035 109.397 43.6611 131.911 -8.81836c14.8271 -34.5537 -5.18359 -60.791 -32.7314 -78.3125c12.8311 -2.36621 25.4922 -5.96289 37.8984 -10.9043c27.6465 -11.0059 -5.43848 -29.3613 -22.9561 -22.3857
c-24.0283 9.56738 -47.9375 13.2529 -73.6387 9.59668c-22.1904 -3.1582 -41.082 17.6104 -11.8994 24.5986c28.2637 6.7666 61.5195 20.998 63.5625 54.5469c0.821289 13.5381 -5.63086 29.2891 -20.5225 32.085c-13.9463 2.62207 -29.1182 -8.70703 -39.4258 -16.8867
c-29.3525 -23.3008 -50.3555 -54.5557 -66.2344 -88.3174c51.998 -50.8369 119.352 -83.5391 192.515 -98.7373c22.6201 -4.69824 45.4482 -8.00977 68.3828 -10.3848c11.9375 116.483 12.6309 235.631 3.68457 352.276c-4.21777 54.9736 -9.29883 111.402 -23.8203 164.741
c-12.3672 45.4355 -28.5312 102.086 -71.4521 128.379c-51.4834 31.54 -114.028 4.07227 -156.195 -30.8262c-39.1162 -32.374 -68.2354 -75.1162 -87.6084 -121.829c-42.0225 -101.341 -35.1709 -218.723 19.917 -313.697zM302.293 -74.6992
c48.9258 89.7354 73.9492 187.861 86.2695 288.628c-81.2021 7.79688 -161.438 26.9229 -230.886 69.5664c-14.7334 9.04785 -28.7012 19.1348 -41.873 30.0938c-2.61719 -7.18359 -5.07324 -14.3926 -7.37598 -21.5811
c-37.7578 -118.032 -52.3984 -262.536 5.01367 -376.913c16.5215 -32.9189 52.3223 -84.5723 95.124 -80.3975c43.9033 4.28125 74.9121 56.0967 93.7275 90.6035z" />
    <glyph glyph-name="O" unicode="&#xd3;" horiz-adv-x="629" 
d="M631.635 218.677c20.4922 -9.46973 -12.9912 -24.0898 -25.2949 -18.6973c-28.042 12.2949 -58.1738 9.88574 -88.0547 9.32422c-7.55371 -76.1465 -23.3682 -151.476 -51.8447 -220.885c-25.459 -62.0508 -60.4209 -124.089 -116.535 -163.106
c-54.5605 -37.9365 -130.341 -50.4746 -191.43 -21.5859c-106.972 50.5898 -130.158 201.401 -126.489 306.13c2.31543 66.2217 15.7852 132.478 37.1152 195.149c4.39648 12.9209 9.3125 25.8291 14.8115 38.5156c-58.4541 61.8418 -94.8975 143.354 -99.7666 229.592
c-6.81348 120.663 46.9473 250.616 151.455 316.34c49.6494 31.2256 114.283 46.9131 170.891 25.8721c56.2793 -20.9131 100.068 -68.8809 130.153 -119.274c34.3232 -57.4971 49.2822 -126.399 62.0068 -191.463c13.998 -71.5664 21.5391 -143.818 24.2373 -216.671
c1.84668 -49.9385 1.50586 -101.312 -2.3418 -152.578c38.0225 0.361328 76.2188 -0.549805 111.087 -16.6621zM75.9932 419.166c7.94531 -13.7041 16.834 -26.4932 26.3799 -38.5928c16.0918 28.1016 36.2559 53.6279 62.2334 73.4688
c34.8301 26.6035 109.397 43.6611 131.911 -8.81836c14.8271 -34.5537 -5.18359 -60.791 -32.7314 -78.3125c12.8311 -2.36621 25.4922 -5.96289 37.8984 -10.9043c27.6465 -11.0059 -5.43848 -29.3613 -22.9561 -22.3857
c-24.0283 9.56738 -47.9375 13.2529 -73.6387 9.59668c-22.1904 -3.1582 -41.082 17.6104 -11.8994 24.5986c28.2637 6.7666 61.5195 20.998 63.5625 54.5469c0.821289 13.5381 -5.63086 29.2891 -20.5225 32.085c-13.9463 2.62207 -29.1182 -8.70703 -39.4258 -16.8867
c-29.3525 -23.3008 -50.3555 -54.5557 -66.2344 -88.3174c51.998 -50.8369 119.352 -83.5391 192.515 -98.7373c22.6201 -4.69824 45.4482 -8.00977 68.3828 -10.3848c11.9375 116.483 12.6309 235.631 3.68457 352.276c-4.21777 54.9736 -9.29883 111.402 -23.8203 164.741
c-12.3672 45.4355 -28.5312 102.086 -71.4521 128.379c-51.4834 31.54 -114.028 4.07227 -156.195 -30.8262c-39.1162 -32.374 -68.2354 -75.1162 -87.6084 -121.829c-42.0225 -101.341 -35.1709 -218.723 19.917 -313.697zM302.293 -74.6992
c48.9258 89.7354 73.9492 187.861 86.2695 288.628c-81.2021 7.79688 -161.438 26.9229 -230.886 69.5664c-14.7334 9.04785 -28.7012 19.1348 -41.873 30.0938c-2.61719 -7.18359 -5.07324 -14.3926 -7.37598 -21.5811
c-37.7578 -118.032 -52.3984 -262.536 5.01367 -376.913c16.5215 -32.9189 52.3223 -84.5723 95.124 -80.3975c43.9033 4.28125 74.9121 56.0967 93.7275 90.6035z" />
    <glyph glyph-name="P" unicode="P" horiz-adv-x="615" 
d="M173.685 170.475c-6.5498 -47.7383 -12.334 -95.5723 -18.5225 -143.357c-2.08105 -16.0664 -4.01758 -32.1328 -5.55371 -48.2158c4.49414 -46.623 7.98828 -93.2969 7.42188 -140.039c-0.387695 -31.9658 -74.708 -32.7061 -84.4453 -6.51562
c-27.5479 74.0947 -40.6133 153.016 -50.3252 231.332c-17.1514 138.27 -24.8975 277.147 -23.4756 416.468c1.40039 137.512 8.85254 276.164 33.3838 411.642c4.86914 26.8975 36.9199 34.5879 60.6807 34.5879c18.1982 0 63.1318 -8.00488 60.6807 -34.5869
c-16.2061 -175.755 -31.8291 -350.553 -28.9648 -527.295c0.970703 -59.8076 3.23926 -119.662 6.90332 -179.41c3.09863 22.416 6.28223 44.8193 9.66992 67.1963c17.8916 118.109 40.333 235.665 71.7627 350.979c33.2295 121.918 139.682 451.71 320.744 302.844
c75.3975 -61.9912 86.7305 -175.619 77.3594 -266.308c-9.75 -94.3652 -38.9023 -194.174 -94.4072 -272.022c-30.2168 -42.3799 -68.7363 -79.7207 -113.282 -106.214c18.5 -34.5918 40.7197 -68.8896 77.3115 -85.543c49.3555 -22.4629 83.2705 21.8965 109.887 57.4414
c9.63086 12.8613 52.4062 5.26465 38.8721 -12.9502c-25.3184 -34.0771 -53.8281 -66.9111 -97.5449 -75.4229c-38.7119 -7.54102 -78.5684 5.25684 -109.509 28.6172c-24.3135 18.3594 -41.8184 42.7285 -56.8418 68.7188
c-28.9404 -12.2188 -59.8633 -19.8789 -92.2803 -21.624c-28.3018 -1.52344 -65.2471 2.64746 -89.2803 20.999c-3.5752 -23.752 -6.97949 -47.5254 -10.2441 -71.3203zM262.947 281.598c13.6484 5.16699 26.752 12.4062 39.0859 20.1904
c8.1416 5.13672 15.9512 10.6094 23.4668 16.3672c-18.875 33.0898 -46.2578 68.835 -76.8359 53.4668c-30.2168 -15.1846 -43.5635 -78.1504 -6.20117 -93.2969c2.37891 -0.961914 6.96289 -0.689453 5.30762 -0.838867c6.30273 0.570312 7.14551 1.07227 15.1768 4.11133z
M220.363 447.386c-4.30664 -20.5811 -8.3623 -41.2178 -12.2568 -61.8848c30.1611 20.0283 69.915 20.458 102.153 3.46875c19.3604 -10.2061 34.2002 -25.7227 46.623 -43.3672c38.043 37.6729 66.877 83.7686 89.3398 133.307
c34.1367 75.2783 57.084 159.834 63.332 242.3c3.1748 41.8818 0.451172 85.5596 -12.457 125.748c-9.29102 28.9316 -24.7568 77.9385 -64.4893 67.8096c-37.6816 -9.60547 -64.7236 -52.0664 -83.4834 -82.9258c-21.8115 -35.877 -39.3965 -74.1631 -54.249 -113.394
c-33.1406 -87.5264 -55.3652 -179.603 -74.5127 -271.062z" />
    <glyph glyph-name="Q" unicode="Q" horiz-adv-x="629" 
d="M349.896 -174.686c-34.2939 -23.8457 -76.9727 -37.6455 -119.118 -37.4414c3.08594 -20.5049 6.89941 -40.7588 13.0107 -60.2725c21.3223 4.00488 42.8701 4.29004 63.4902 -0.714844c24.9014 -6.04785 48.8662 -22.8545 52.9648 -49.9307
c4.2002 -27.7354 -18.0879 -46.0908 -42.9424 -51.5557c-48.5381 -10.6738 -84.0283 21.7266 -104.644 61.459c-17.7852 -9.33301 -34.123 -20.9512 -46.5332 -31.4502c-8.35449 -7.06934 -21.9395 -8.5293 -32.0723 -4.79297
c-6.90332 2.54492 -16.9688 11.1074 -8.41016 18.2783c21.1729 17.7383 47.2656 34.2939 75.2773 45.793c-0.961914 2.88574 -1.86035 5.7666 -2.67285 8.63086c-6.54102 23.1055 -9.99707 46.7939 -12.8994 70.5713c-9.18457 2.48145 -18.1855 5.72461 -26.876 9.83594
c-106.972 50.5898 -130.158 201.401 -126.489 306.13c2.31934 66.2217 15.7891 132.478 37.1191 195.149c4.39648 12.9209 9.3125 25.8291 14.8115 38.5156c-58.4541 61.8418 -94.8975 143.354 -99.7666 229.592c-6.81836 120.663 46.9424 250.616 151.45 316.34
c49.6533 31.2256 114.287 46.9131 170.895 25.8721c56.2793 -20.9131 100.068 -68.8809 130.153 -119.274c34.3232 -57.4971 49.2871 -126.399 62.0078 -191.463c13.998 -71.5674 21.5391 -143.819 24.2373 -216.672c1.84668 -49.9385 1.50586 -101.312 -2.3418 -152.578
c38.0225 0.361328 76.2188 -0.549805 111.087 -16.6621c20.4883 -9.46973 -12.9971 -24.0889 -25.3047 -18.6924c-28.042 12.2949 -58.1777 9.88574 -88.0537 9.32422c-7.55371 -76.1465 -23.3682 -151.476 -51.8447 -220.885
c-25.459 -62.0508 -60.4209 -124.089 -116.535 -163.106zM288.271 -296.742c-11.0654 2.33691 -22.9199 1.66895 -34.9131 -0.944336c2.66797 -5.92871 5.5957 -11.7676 8.91113 -17.4873c7.03027 -12.1377 28.5518 -45.2783 45.7666 -31.5918
c19.7939 15.7422 -0.911133 46.0439 -19.7646 50.0234zM75.9854 419.169c7.9502 -13.7041 16.8379 -26.4941 26.3838 -38.5938c16.0918 28.1016 36.2559 53.6279 62.2334 73.4688c34.8262 26.6035 109.394 43.6611 131.907 -8.81836
c14.8271 -34.5537 -5.18359 -60.791 -32.7314 -78.3125c12.8311 -2.36621 25.4922 -5.96289 37.8984 -10.9043c27.6465 -11.0059 -5.43848 -29.3613 -22.9561 -22.3857c-24.0283 9.56738 -47.9375 13.2529 -73.6387 9.59668
c-22.1943 -3.1582 -41.082 17.6104 -11.8994 24.5986c28.2637 6.7666 61.5195 20.998 63.5625 54.5469c0.821289 13.5381 -5.63086 29.2891 -20.5225 32.085c-13.9512 2.62207 -29.123 -8.70703 -39.4268 -16.8867c-29.3525 -23.3008 -50.3555 -54.5557 -66.2344 -88.3174
c51.998 -50.8369 119.352 -83.5391 192.515 -98.7363c22.6201 -4.69824 45.4482 -8.00977 68.3828 -10.3848c11.9375 116.483 12.6309 235.631 3.68457 352.276c-4.21777 54.9736 -9.29883 111.402 -23.8203 164.741c-12.3672 45.4355 -28.5312 102.086 -71.4521 128.379
c-51.4873 31.54 -114.027 4.07227 -156.194 -30.8262c-39.1162 -32.374 -68.2354 -75.1162 -87.6084 -121.829c-42.0225 -101.341 -35.1709 -218.723 19.917 -313.697zM203.808 -77.6426c10.6523 -26.8418 15.8799 -55.3516 20.0205 -84.1592
c35.915 12.9932 61.9141 56.7393 78.4697 87.1006c48.9258 89.7354 73.9502 187.863 86.2666 288.63c-81.2021 7.79688 -161.438 26.9229 -230.886 69.5664c-14.7334 9.04785 -28.7012 19.1348 -41.873 30.0938c-2.61719 -7.18359 -5.07324 -14.3926 -7.37598 -21.5811
c-37.7578 -118.032 -52.4023 -262.536 5.01367 -376.913c12.6396 -25.1816 36.5615 -61.293 66.2637 -75.0264c-3.51074 25.7188 -8.26074 51.1777 -17.5127 75.7471c-6.62207 17.5811 35.7959 21.2031 41.6133 6.54199z" />
    <glyph glyph-name="R" unicode="R" horiz-adv-x="718" 
d="M695.749 184.587c3.38379 14.2227 46.1943 11.1953 42.8408 -3.30859c-21.2754 -92.0254 -42.6484 -184.08 -70.2646 -274.449c-20.1094 -65.8125 -37.959 -138.844 -120.549 -139.853c-74.7207 -0.915039 -142.058 47.6914 -177.573 111.244
c-20.6709 36.9883 -28.7656 79.4619 -36.1924 120.667c-7.58008 42.04 -14.1426 84.5264 -20.0156 126.838c-5.71094 41.1504 -9.69043 82.7217 -11.6865 124.221c-0.991211 20.6328 -2.16602 40.7549 -5.45996 61.1826c-1.31934 8.1709 -1.63867 15.4102 -2.43066 22.4668
c-27.25 -10.9121 -55.7471 -17.6963 -84.5088 -18.2285c-0.868164 -4.65625 -1.75293 -9.31641 -2.60449 -13.9727c-22.4707 -122.927 -39.0732 -246.985 -53.5176 -371.143c2.23438 -30.4385 3.60938 -60.8975 3.23926 -91.3906
c-0.387695 -31.9658 -74.708 -32.7061 -84.4453 -6.51562c-27.5479 74.0947 -40.6133 153.016 -50.3252 231.332c-17.1514 138.27 -24.8975 277.147 -23.4756 416.468c1.4043 137.512 8.85254 276.164 33.3838 411.642c4.86914 26.8975 36.9199 34.5879 60.6807 34.5879
c18.1982 0 63.1318 -8.00488 60.6807 -34.5869c-13.5039 -146.428 -26.5566 -292.196 -28.8975 -438.969c1.68555 0.974609 3.43457 1.90234 5.25195 2.7832c21.5225 10.4102 44.7256 11.7383 67.8652 7.36328c0.301758 1.23828 0.583008 2.48145 0.884766 3.71973
c20.7266 84.4922 45.3809 168.938 78.8359 249.353c27.5996 66.3359 67.7412 145.479 137.185 176.031c68.209 30.0078 137.252 -11.002 156.6 -80.3604c21.3564 -76.5586 -2.65918 -162.693 -35.0332 -232.673c-30.459 -65.8389 -75.8604 -127.664 -130.519 -175.33
c-20.918 -18.2402 -44.5293 -35.583 -69.8643 -50.0146c10.7842 -11.8779 23.377 -21.6455 33.3828 -34.8477c12.6484 -16.6914 23.3389 -34.5869 31.7617 -53.7598c16.2783 -37.0518 23.8154 -78.4229 33.0674 -117.637c16.8877 -71.5664 28.1699 -144.47 42.6865 -216.53
c5.9707 -29.6338 15.4873 -59.1484 30.498 -85.4795c9.3584 -16.4189 29.4551 -45.1885 50.8965 -45.2607c27.8076 -0.0976562 41.6729 42.7207 49.2998 63.5195c12.5928 34.3408 23.3428 69.29 33.3994 104.448c20.4707 71.5801 37.7031 144.028 54.9229 216.442z
M319.41 709.446c-34.5449 -83.6621 -60.4785 -171.017 -81.3281 -259.437c12.4824 -5.54492 24.6201 -12.252 36.124 -19.5762c6.24805 4.43848 12.3896 9.06055 18.3994 13.9297c45.2021 36.6309 85.6758 81.1689 118.434 129.218
c36.9541 54.2031 71.793 111.355 91.6846 174.274c9.35449 29.583 16.1982 64.2773 5.20996 94.3916c-12.6787 34.7363 -46.4873 43.0098 -76.9854 25.5137c-55.7607 -31.9873 -88.0156 -101.35 -111.538 -158.314zM186.981 438.374
c-37.0811 8.44824 -66.0293 -29.5059 -33.5098 -57.1094c5.29004 -4.49023 10.4648 -6.90332 16.9121 -8.65625c2.51562 0.825195 5.03516 1.7832 7.52051 2.64746c4.35352 20.6963 8.90332 41.3457 13.708 61.9355c-1.54102 0.408203 -3.08203 0.829102 -4.63086 1.18262z
M171.184 372.378c3.63867 -0.927734 2.27246 -0.0595703 0 0zM161.851 320.631c-13.4912 3.33203 -26.0703 8.4873 -36.7188 15.7949c1.57422 -68.8604 4.85938 -137.755 10.1064 -206.432c9.10742 63.4336 19.373 126.693 31.4297 189.569
c-1.6084 0.348633 -3.21289 0.671875 -4.81738 1.06738zM231.389 420.781c-1.51074 -6.7666 -3.00879 -13.5371 -4.45996 -20.3164c6.45996 3.75391 12.8652 7.5625 19.2021 11.4648c-4.81348 3.12793 -9.7373 6.08105 -14.7422 8.85156z" />
    <glyph glyph-name="S" unicode="S" horiz-adv-x="681" 
d="M693.217 233.508c0 -9.81445 -14.4521 -11.9229 -21.5635 -12.3105c-78.3809 -4.1875 -154.625 -29.4805 -220 -71.873c8.17969 -10.0186 16.1465 -20.2451 23.8242 -30.7441c57.2969 -78.3721 96.2422 -180.807 76.6143 -278.785
c-8.64844 -43.1631 -31.4434 -88.752 -68.4736 -114.381c-39.6221 -27.4209 -91.3652 -27.6426 -134.673 -8.94629c-77.7549 33.5664 -118.177 122.54 -107.865 204.304c9.37109 74.3291 51.9004 138.929 105.784 189.965
c-25.8164 28.1865 -53.0967 55.1094 -80.4492 81.3721c-82.5303 79.249 -171.887 155.685 -229.503 256.276c-54.7686 95.625 -70.3496 214.245 -20.0918 314.99c46.8271 93.8682 146.197 169.329 254.709 163.252c98.3535 -5.50684 192.825 -82.7422 164.034 -189.395
c-10.1973 -37.7705 -33.8389 -71.3877 -64.4434 -95.1182c8.1543 -3.9668 16.1934 -8.20117 24.0752 -12.7588c22.8623 -13.2188 -17.9688 -26.54 -32.1621 -18.335c-7.36719 4.25586 -14.8613 8.22656 -22.4668 11.9287
c-41.8604 -20.667 -91.1006 -23.9521 -136.124 0.765625c-14.998 8.23535 -40.5117 25.9609 -23.0117 44.2061c14.3809 14.9932 41.1758 12.1289 59.4971 10.4951c30.9062 -2.75391 61.1699 -9.38477 90.2119 -19.5908c18.9434 16.4443 33.4004 39.1797 40.0312 61.668
c14.874 50.4453 4.33691 110.968 -39.5068 143.623c-37.167 27.6807 -83.9775 28.2256 -123.285 5.32031c-85.7344 -49.9639 -115.155 -162.307 -99.9658 -255.008c16.2871 -99.4297 79.9766 -189.463 147.274 -261.417c56.9736 -60.9141 119.599 -116.134 174.576 -178.555
c72.4561 44.3291 156.275 70.46 241.376 71.3496c6.83887 0.0722656 21.5771 -2.80859 21.5771 -12.2988zM248.065 638.627c17.7686 -6.12012 35.2812 -4.99121 51.373 0.975586c-7.60938 2.45605 -15.3291 4.61816 -23.1768 6.44434
c-14.623 3.4043 -29.5273 5.68945 -44.5078 6.74902c-3.81348 0.301758 -7.63086 0.489258 -11.457 0.56543c4.43848 -1.73242 8.47266 -4.16211 12.1025 -7.29492c5.13672 -2.84766 10.0908 -5.52051 15.666 -7.43945zM475.959 -230.453
c30.8809 46.9678 10.877 116.539 -9.15137 163.976c-23.2715 55.126 -56.9102 104.018 -95.2939 149.274c-6.91113 -7.28613 -13.6016 -14.7979 -20.0068 -22.582c-68.7705 -83.5684 -101.545 -218.79 -11.6943 -301.235c19.4795 -17.8789 46.8193 -32.332 73.9893 -30.5957
c26.0459 1.66406 48.3086 20.1006 62.1572 41.1631z" />
    <glyph glyph-name="T" unicode="T" horiz-adv-x="599" 
d="M748.865 776.644c-6.19238 -15.8105 -51.2891 -11.0234 -43.8545 6.88965c22.4365 54.1221 -51.6035 66.9873 -87.3486 69.9365c-50.2021 4.14551 -100.821 2.25586 -151.028 -0.787109c-11.4785 -0.693359 -22.957 -1.48926 -34.4355 -2.23438
c10.2656 -5.82227 17.1689 -14.249 17.5352 -25.3359c5.45605 -165.103 0.544922 -330.261 3.3584 -495.423c60.3564 -15.96 114.21 -52.4287 147.699 -111.267c8.9541 -15.7295 -32.9023 -19.1299 -41.167 -6.46875c-24.6201 37.7197 -62.9141 66.5449 -105.783 81.709
c0.353516 -14.4482 0.753906 -28.9014 1.25586 -43.3496c3.15332 -90.3271 6.32812 -181.82 -6.03906 -271.649c-11.1846 -81.2324 -28.9531 -177.407 -86.0713 -240.117c-52.1094 -57.208 -129.498 -69.959 -195.328 -26.6172
c-61.3271 40.3799 -96.1016 110.231 -109.21 180.743c-26.6592 143.41 30.9102 319.28 157.097 399.427c36.6387 23.2754 78.5635 38.0859 121.429 44.0186c-1.15723 16.0703 -2.1875 32.1445 -2.94043 48.2275c-6.88184 146.896 -7.38867 293.809 -3.32812 440.769
c0.204102 7.46484 3.35742 13.7207 8.48145 18.7939c-44.2529 -3.3877 -88.4717 -7.1416 -132.635 -11.2441c6.9375 -45.2441 -3.43848 -97.7744 -12.376 -135.137c-3.10254 -12.9678 -42.1885 -10.3164 -39.1885 3.02148c6.46484 28.7402 16.1729 82.832 10.2617 127.596
c-58.4033 -6.71582 -169.358 -15.1338 -149.888 48.1895c18.5088 60.1914 111.457 58.54 152.854 27.4717c16.1084 -12.0908 26.4072 -28.4424 32.6211 -47.041c74.7461 6.9375 149.624 12.5 224.493 17.9727c75.3418 5.50684 151.769 10.3887 227 0.698242
c47.8662 -6.16211 120.607 -37.3027 96.5361 -98.792zM79.0566 848.802c26.3525 -3.29785 53.9834 -0.0976562 81.0635 3.34082c-8.22656 26.4082 -24.7695 45.9473 -55.1738 48.5479c-13.6826 1.16992 -28.0889 -3.5459 -37.9795 -13.1895
c-5.70312 -5.5625 -11.9385 -15.4746 -10.4492 -23.8926c2.07715 -11.7119 11.9209 -13.4785 22.5391 -14.8066zM359.278 -76.5244c8.78418 125.957 -8.82031 251.143 -19.4902 376.508c-59.9482 -14.0576 -113.934 -53.2412 -153.713 -98.8555
c-87.5049 -100.332 -112.704 -264.736 -54.2705 -385.313c25.127 -51.8447 90.0381 -131.502 155.038 -94.1143c63.6553 36.6133 67.9199 137.022 72.4355 201.775z" />
    <glyph glyph-name="U" unicode="U" horiz-adv-x="1060" 
d="M1028.25 193.308c4.1748 15.8271 48.9365 12.5752 43.8721 -6.88672c-15.4316 -59.2549 -30.8682 -118.552 -49.2578 -176.977c-16.4492 -52.2578 -32.9023 -108.856 -60.7275 -156.398c-21.0713 -36.0049 -53.0752 -61.9404 -94.7021 -69.124
c-47.5381 -8.20508 -95.3232 9.88281 -128.115 44.6191c-72.9756 77.3037 -74.0781 203.703 -72.9248 303.316c0.570312 49.3467 2.34082 98.8047 4.59668 148.258c-18.083 -80.9209 -39.9502 -161.271 -69.499 -238.205
c-32.8682 -85.5771 -84.377 -186.569 -171.814 -227.409c-89.8887 -41.9844 -190.025 -3.10645 -245.297 74.6611c-31.7998 44.7422 -40.209 99.5029 -43.8691 153.396c-3.88574 57.2334 -2.20508 114.079 2.14453 171.235c8.70312 114.406 25.3857 228.11 39.3496 341.942
c1.57422 12.8145 3.07617 25.6377 4.51855 38.4688c-11.291 -1.03809 -22.6758 -1.39941 -34.1748 -0.8125c-43.7373 2.23438 -90.4502 15.1084 -120.914 48.5215c-32.374 35.5107 -38.043 84.7939 -28.6592 130.379c16.8281 81.7344 82.3301 182.105 179.53 155.809
c43.5459 -11.7803 86.998 -47.8105 107.043 -88.3477c11.3457 -22.9473 13.8525 -55.1475 16.7803 -80.2529c3.14941 -27.0332 5.50684 -54.3691 6.65137 -81.5596c0.28125 -6.70703 0.490234 -13.4141 0.65625 -20.1211c27.7783 9.58398 55.9775 17.8916 85.0537 20.2412
c36.2559 2.92773 78.4014 -3.40039 97.4463 -38.1201c8.82715 -16.0869 -32.5693 -18.4062 -40.7148 -6.39648c-28.4971 42.0059 -101.873 8.88672 -141.448 -6.00488c0.00390625 -210.3 -50.7178 -418.876 -35.2354 -629.802
c1.97461 -26.8887 7.26074 -53.3301 12.9805 -79.6055c3.94922 -18.1426 11.8398 -36.5625 22.8408 -51.624c10.0352 -13.7383 25.7568 -30.3359 42.8955 -34.332c20.8369 -4.85645 41.4609 4.67676 58.9316 15.2734c43.3457 26.293 74.1621 70.6133 98.6377 113.968
c25.7139 45.542 44.9375 94.4248 61.2158 144.031c61.5488 187.522 91.9609 383.706 118.786 579.06c0.915039 9.33301 1.80859 18.6621 2.78711 28.0039c2.89844 27.6416 3.19238 57.3311 16.5938 82.0957c12.4736 23.0586 64.668 23.4121 77.0742 0.000976562
c13.7549 -25.957 13.3164 -57.4805 15.8105 -86.3223c2.31055 -26.7529 4.02539 -53.4326 5.1875 -80.2617c2.43457 -56.3184 2.32812 -112.581 2.06836 -168.941c-0.451172 -98.0088 -5.27734 -196.047 -8.3418 -293.996
c-1.55371 -49.7295 -1.73242 -99.5527 0.272461 -149.278c1.70703 -42.3252 2.14551 -88.3564 13.3262 -129.464c5.03906 -18.543 11.8994 -38.2354 23.3477 -53.8633c10.0566 -13.7256 15.666 -20.2158 32.0938 -12.6406c38.2393 17.6279 55.5098 66.2178 70.0781 102.542
c35.1875 87.7559 59.0498 179.666 83.125 270.925zM120.08 624.5c22.9219 -6.75 46.2461 -7.03613 69.3262 -3.81836c3.65625 35.3281 6.65234 70.7158 8.58496 106.18c1.45508 26.7568 3.05078 54.0117 1.79492 80.8027c-1.00879 21.4707 0.765625 46.3594 -7.3125 66.6475
c-25.0625 62.9355 -87.6797 20.2959 -112.177 -19.5566c-24.0332 -39.0898 -40.0654 -87.3174 -36.8057 -133.549c3.26465 -46.2783 31.9111 -83.5557 76.5889 -96.7061z" />
    <glyph glyph-name="U" unicode="&#xdc;" horiz-adv-x="1060" 
d="M1028.25 193.308c4.1748 15.8271 48.9365 12.5752 43.8721 -6.88672c-15.4316 -59.2549 -30.8682 -118.552 -49.2578 -176.977c-16.4492 -52.2578 -32.9023 -108.856 -60.7275 -156.398c-21.0713 -36.0049 -53.0752 -61.9404 -94.7021 -69.124
c-47.5381 -8.20508 -95.3232 9.88281 -128.115 44.6191c-72.9756 77.3037 -74.0781 203.703 -72.9248 303.316c0.570312 49.3467 2.34082 98.8047 4.59668 148.258c-18.083 -80.9209 -39.9502 -161.271 -69.499 -238.205
c-32.8682 -85.5771 -84.377 -186.569 -171.814 -227.409c-89.8887 -41.9844 -190.025 -3.10645 -245.297 74.6611c-31.7998 44.7422 -40.209 99.5029 -43.8691 153.396c-3.88574 57.2334 -2.20508 114.079 2.14453 171.235c8.70312 114.406 25.3857 228.11 39.3496 341.942
c1.57422 12.8145 3.07617 25.6377 4.51855 38.4688c-11.291 -1.03809 -22.6758 -1.39941 -34.1748 -0.8125c-43.7373 2.23438 -90.4502 15.1084 -120.914 48.5215c-32.374 35.5107 -38.043 84.7939 -28.6592 130.379c16.8281 81.7344 82.3301 182.105 179.53 155.809
c43.5459 -11.7803 86.998 -47.8105 107.043 -88.3477c11.3457 -22.9473 13.8525 -55.1475 16.7803 -80.2529c3.14941 -27.0332 5.50684 -54.3691 6.65137 -81.5596c0.28125 -6.70703 0.490234 -13.4141 0.65625 -20.1211c27.7783 9.58398 55.9775 17.8916 85.0537 20.2412
c36.2559 2.92773 78.4014 -3.40039 97.4463 -38.1201c8.82715 -16.0869 -32.5693 -18.4062 -40.7148 -6.39648c-28.4971 42.0059 -101.873 8.88672 -141.448 -6.00488c0.00390625 -210.3 -50.7178 -418.876 -35.2354 -629.802
c1.97461 -26.8887 7.26074 -53.3301 12.9805 -79.6055c3.94922 -18.1426 11.8398 -36.5625 22.8408 -51.624c10.0352 -13.7383 25.7568 -30.3359 42.8955 -34.332c20.8369 -4.85645 41.4609 4.67676 58.9316 15.2734c43.3457 26.293 74.1621 70.6133 98.6377 113.968
c25.7139 45.542 44.9375 94.4248 61.2158 144.031c61.5488 187.522 91.9609 383.706 118.786 579.06c0.915039 9.33301 1.80859 18.6621 2.78711 28.0039c2.89844 27.6416 3.19238 57.3311 16.5938 82.0957c12.4736 23.0586 64.668 23.4121 77.0742 0.000976562
c13.7549 -25.957 13.3164 -57.4805 15.8105 -86.3223c2.31055 -26.7529 4.02539 -53.4326 5.1875 -80.2617c2.43457 -56.3184 2.32812 -112.581 2.06836 -168.941c-0.451172 -98.0088 -5.27734 -196.047 -8.3418 -293.996
c-1.55371 -49.7295 -1.73242 -99.5527 0.272461 -149.278c1.70703 -42.3252 2.14551 -88.3564 13.3262 -129.464c5.03906 -18.543 11.8994 -38.2354 23.3477 -53.8633c10.0566 -13.7256 15.666 -20.2158 32.0938 -12.6406c38.2393 17.6279 55.5098 66.2178 70.0781 102.542
c35.1875 87.7559 59.0498 179.666 83.125 270.925zM120.08 624.5c22.9219 -6.75 46.2461 -7.03613 69.3262 -3.81836c3.65625 35.3281 6.65234 70.7158 8.58496 106.18c1.45508 26.7568 3.05078 54.0117 1.79492 80.8027c-1.00879 21.4707 0.765625 46.3594 -7.3125 66.6475
c-25.0625 62.9355 -87.6797 20.2959 -112.177 -19.5566c-24.0332 -39.0898 -40.0654 -87.3174 -36.8057 -133.549c3.26465 -46.2783 31.9111 -83.5557 76.5889 -96.7061z" />
    <glyph glyph-name="U" unicode="&#xdb;" horiz-adv-x="1060" 
d="M1028.25 193.308c4.1748 15.8271 48.9365 12.5752 43.8721 -6.88672c-15.4316 -59.2549 -30.8682 -118.552 -49.2578 -176.977c-16.4492 -52.2578 -32.9023 -108.856 -60.7275 -156.398c-21.0713 -36.0049 -53.0752 -61.9404 -94.7021 -69.124
c-47.5381 -8.20508 -95.3232 9.88281 -128.115 44.6191c-72.9756 77.3037 -74.0781 203.703 -72.9248 303.316c0.570312 49.3467 2.34082 98.8047 4.59668 148.258c-18.083 -80.9209 -39.9502 -161.271 -69.499 -238.205
c-32.8682 -85.5771 -84.377 -186.569 -171.814 -227.409c-89.8887 -41.9844 -190.025 -3.10645 -245.297 74.6611c-31.7998 44.7422 -40.209 99.5029 -43.8691 153.396c-3.88574 57.2334 -2.20508 114.079 2.14453 171.235c8.70312 114.406 25.3857 228.11 39.3496 341.942
c1.57422 12.8145 3.07617 25.6377 4.51855 38.4688c-11.291 -1.03809 -22.6758 -1.39941 -34.1748 -0.8125c-43.7373 2.23438 -90.4502 15.1084 -120.914 48.5215c-32.374 35.5107 -38.043 84.7939 -28.6592 130.379c16.8281 81.7344 82.3301 182.105 179.53 155.809
c43.5459 -11.7803 86.998 -47.8105 107.043 -88.3477c11.3457 -22.9473 13.8525 -55.1475 16.7803 -80.2529c3.14941 -27.0332 5.50684 -54.3691 6.65137 -81.5596c0.28125 -6.70703 0.490234 -13.4141 0.65625 -20.1211c27.7783 9.58398 55.9775 17.8916 85.0537 20.2412
c36.2559 2.92773 78.4014 -3.40039 97.4463 -38.1201c8.82715 -16.0869 -32.5693 -18.4062 -40.7148 -6.39648c-28.4971 42.0059 -101.873 8.88672 -141.448 -6.00488c0.00390625 -210.3 -50.7178 -418.876 -35.2354 -629.802
c1.97461 -26.8887 7.26074 -53.3301 12.9805 -79.6055c3.94922 -18.1426 11.8398 -36.5625 22.8408 -51.624c10.0352 -13.7383 25.7568 -30.3359 42.8955 -34.332c20.8369 -4.85645 41.4609 4.67676 58.9316 15.2734c43.3457 26.293 74.1621 70.6133 98.6377 113.968
c25.7139 45.542 44.9375 94.4248 61.2158 144.031c61.5488 187.522 91.9609 383.706 118.786 579.06c0.915039 9.33301 1.80859 18.6621 2.78711 28.0039c2.89844 27.6416 3.19238 57.3311 16.5938 82.0957c12.4736 23.0586 64.668 23.4121 77.0742 0.000976562
c13.7549 -25.957 13.3164 -57.4805 15.8105 -86.3223c2.31055 -26.7529 4.02539 -53.4326 5.1875 -80.2617c2.43457 -56.3184 2.32812 -112.581 2.06836 -168.941c-0.451172 -98.0088 -5.27734 -196.047 -8.3418 -293.996
c-1.55371 -49.7295 -1.73242 -99.5527 0.272461 -149.278c1.70703 -42.3252 2.14551 -88.3564 13.3262 -129.464c5.03906 -18.543 11.8994 -38.2354 23.3477 -53.8633c10.0566 -13.7256 15.666 -20.2158 32.0938 -12.6406c38.2393 17.6279 55.5098 66.2178 70.0781 102.542
c35.1875 87.7559 59.0498 179.666 83.125 270.925zM120.08 624.5c22.9219 -6.75 46.2461 -7.03613 69.3262 -3.81836c3.65625 35.3281 6.65234 70.7158 8.58496 106.18c1.45508 26.7568 3.05078 54.0117 1.79492 80.8027c-1.00879 21.4707 0.765625 46.3594 -7.3125 66.6475
c-25.0625 62.9355 -87.6797 20.2959 -112.177 -19.5566c-24.0332 -39.0898 -40.0654 -87.3174 -36.8057 -133.549c3.26465 -46.2783 31.9111 -83.5557 76.5889 -96.7061z" />
    <glyph glyph-name="U" unicode="&#xda;" horiz-adv-x="1060" 
d="M1028.25 193.308c4.1748 15.8271 48.9365 12.5752 43.8721 -6.88672c-15.4316 -59.2549 -30.8682 -118.552 -49.2578 -176.977c-16.4492 -52.2578 -32.9023 -108.856 -60.7275 -156.398c-21.0713 -36.0049 -53.0752 -61.9404 -94.7021 -69.124
c-47.5381 -8.20508 -95.3232 9.88281 -128.115 44.6191c-72.9756 77.3037 -74.0781 203.703 -72.9248 303.316c0.570312 49.3467 2.34082 98.8047 4.59668 148.258c-18.083 -80.9209 -39.9502 -161.271 -69.499 -238.205
c-32.8682 -85.5771 -84.377 -186.569 -171.814 -227.409c-89.8887 -41.9844 -190.025 -3.10645 -245.297 74.6611c-31.7998 44.7422 -40.209 99.5029 -43.8691 153.396c-3.88574 57.2334 -2.20508 114.079 2.14453 171.235c8.70312 114.406 25.3857 228.11 39.3496 341.942
c1.57422 12.8145 3.07617 25.6377 4.51855 38.4688c-11.291 -1.03809 -22.6758 -1.39941 -34.1748 -0.8125c-43.7373 2.23438 -90.4502 15.1084 -120.914 48.5215c-32.374 35.5107 -38.043 84.7939 -28.6592 130.379c16.8281 81.7344 82.3301 182.105 179.53 155.809
c43.5459 -11.7803 86.998 -47.8105 107.043 -88.3477c11.3457 -22.9473 13.8525 -55.1475 16.7803 -80.2529c3.14941 -27.0332 5.50684 -54.3691 6.65137 -81.5596c0.28125 -6.70703 0.490234 -13.4141 0.65625 -20.1211c27.7783 9.58398 55.9775 17.8916 85.0537 20.2412
c36.2559 2.92773 78.4014 -3.40039 97.4463 -38.1201c8.82715 -16.0869 -32.5693 -18.4062 -40.7148 -6.39648c-28.4971 42.0059 -101.873 8.88672 -141.448 -6.00488c0.00390625 -210.3 -50.7178 -418.876 -35.2354 -629.802
c1.97461 -26.8887 7.26074 -53.3301 12.9805 -79.6055c3.94922 -18.1426 11.8398 -36.5625 22.8408 -51.624c10.0352 -13.7383 25.7568 -30.3359 42.8955 -34.332c20.8369 -4.85645 41.4609 4.67676 58.9316 15.2734c43.3457 26.293 74.1621 70.6133 98.6377 113.968
c25.7139 45.542 44.9375 94.4248 61.2158 144.031c61.5488 187.522 91.9609 383.706 118.786 579.06c0.915039 9.33301 1.80859 18.6621 2.78711 28.0039c2.89844 27.6416 3.19238 57.3311 16.5938 82.0957c12.4736 23.0586 64.668 23.4121 77.0742 0.000976562
c13.7549 -25.957 13.3164 -57.4805 15.8105 -86.3223c2.31055 -26.7529 4.02539 -53.4326 5.1875 -80.2617c2.43457 -56.3184 2.32812 -112.581 2.06836 -168.941c-0.451172 -98.0088 -5.27734 -196.047 -8.3418 -293.996
c-1.55371 -49.7295 -1.73242 -99.5527 0.272461 -149.278c1.70703 -42.3252 2.14551 -88.3564 13.3262 -129.464c5.03906 -18.543 11.8994 -38.2354 23.3477 -53.8633c10.0566 -13.7256 15.666 -20.2158 32.0938 -12.6406c38.2393 17.6279 55.5098 66.2178 70.0781 102.542
c35.1875 87.7559 59.0498 179.666 83.125 270.925zM120.08 624.5c22.9219 -6.75 46.2461 -7.03613 69.3262 -3.81836c3.65625 35.3281 6.65234 70.7158 8.58496 106.18c1.45508 26.7568 3.05078 54.0117 1.79492 80.8027c-1.00879 21.4707 0.765625 46.3594 -7.3125 66.6475
c-25.0625 62.9355 -87.6797 20.2959 -112.177 -19.5566c-24.0332 -39.0898 -40.0654 -87.3174 -36.8057 -133.549c3.26465 -46.2783 31.9111 -83.5557 76.5889 -96.7061z" />
    <glyph glyph-name="V" unicode="V" horiz-adv-x="915" 
d="M717.267 -22.9639c-20.084 -55.4668 -43.7412 -120.531 -92.5986 -157.408c-59.2627 -44.7168 -140.495 -39.8096 -205.048 -9.63965c-68.2939 31.9189 -111.589 95.042 -135.256 164.655c-25.6328 75.4102 -39.167 156.161 -51.6074 234.648
c-18.543 116.994 -30.3486 235.358 -40.4482 353.54c-88.5518 -24.8496 -184.429 -27.3184 -199.694 77.7383c-4.60449 31.7021 -1.05957 64.749 4.81738 96.0254c5.70312 30.3574 13.168 62.3955 30.4473 88.4795c31.668 47.8018 91.25 55.2236 136.366 20.7676
c25.3906 -19.3896 46.2998 -48.0957 64.0342 -74.457c19.2197 -28.5654 32.085 -59.293 44.542 -91.208c6.32031 -16.1895 11.8828 -32.7275 16.9307 -49.4785c6.45996 2.7666 12.9072 5.5625 19.3379 8.41406c32.6592 14.4785 64.8887 26.7734 101.094 26.876
c25.7861 0.0683594 25.4756 -23.5771 0 -24.0713c-37.1025 -0.719727 -70.7031 -22.1904 -103.831 -36.6689c-2.70215 -1.17871 -5.50684 -2.40039 -8.40039 -3.64746c12.7383 -48.3643 21.8457 -98.0557 31.2979 -146.581
c28.9609 -148.7 42.8994 -299.188 81.8447 -446.059c14.6914 -55.4072 35.46 -124.14 85.2578 -158.344c19.3086 -13.2656 38.3711 -18.7852 60.4082 -9.42188c25.7607 10.9463 48.0996 32.9531 63.8975 55.5137c39.3076 56.1309 63.5322 125.148 81.4023 190.782
c7.81348 28.6885 14.4824 57.6494 20.3936 86.7725c-16.5166 3.99609 -32.5781 9.45605 -47.7549 16.5596c-55.4111 25.9355 -93.6328 82.0068 -118.325 136.073c-60.5615 132.601 -67.124 289.268 -25.4805 428.175c18.4492 61.54 47.8916 123.773 101.201 162.477
c52.1045 37.8223 124.629 40.4482 163.179 -17.4785c18.8408 -28.3184 23.165 -63.8086 26.459 -96.8721c4.14062 -41.5547 5.60059 -83.3555 5.14062 -125.105c-0.911133 -82.4531 -9.61914 -164.43 -19.3994 -246.228
c-9.47363 -79.2402 -19.2021 -159.199 -33.6553 -238.129c41.499 -3.90723 84.4541 3.41309 120.237 24.1562c14.5215 8.41797 56.1055 -5.10742 32.8213 -18.709c-25.9648 -15.168 -54.6455 -24.6797 -84.3174 -29.3311
c-23.9775 -3.75781 -49.0107 -4.80859 -73.8398 -2.88086c-12.7764 -64.4678 -29.0674 -128.11 -51.4531 -189.936zM727.686 202.878c0.102539 -0.0341797 0.206055 -0.0595703 0.308594 -0.0849609c6.5332 35.1318 12.1084 70.4473 17.2285 105.788
c22.2412 153.552 44.1807 310.02 33.0088 465.474c-2.5957 36.1201 -4.13184 76.04 -21.3125 108.733c-6.87305 13.0781 -17.168 25.918 -30.5439 32.7744c-17.3467 8.88672 -35.5195 0.443359 -50.709 -9.25195c-55.2715 -35.2852 -83.1855 -101.43 -100.779 -161.948
c-39.4863 -135.822 -30.6338 -291.732 31.749 -419.503c25.5137 -52.2578 63.4082 -104.064 121.05 -121.981zM89.9727 574.178c31.8896 -4.50684 68.6797 8.80762 99.752 19.1367c-2.50684 30.1064 -4.93262 60.1914 -7.3584 90.2334
c-2.71973 33.7197 -6.97559 69.0908 -18.5215 101.019c-9.3418 25.833 -45.1553 74.4395 -76.7207 52.8711c-25.5352 -17.4531 -35.9873 -53.4072 -42.958 -81.8066c-8.5752 -34.9404 -12.6562 -73.2773 -8.02148 -109.116
c4.03027 -31.1699 18.7344 -67.375 53.8281 -72.3369z" />
    <glyph glyph-name="W" unicode="W" horiz-adv-x="1262" 
d="M203.73 298.572c-4.32812 88.3438 -1.68848 176.979 -1.54785 265.383c0.0507812 30.127 0.169922 60.3184 -0.0683594 90.5137c-30.6973 -7.58789 -62.5479 -10.5547 -93.7393 -3.9834c-81.5176 17.1768 -114.59 94.0801 -98.6475 171.107
c13.998 67.6221 65.3154 135.644 142.325 121.77c38.2559 -6.89453 60.3818 -33.9238 80.2061 -64.8213c23.9736 -37.3662 40.7246 -77.5244 53.4668 -120.088c3.93652 -13.1504 7.44727 -26.3525 10.6602 -39.5928c21.7471 8.53711 43.5117 17.0234 65.3916 25.2539
c16.2109 6.09863 46.9727 -10.0732 21.3135 -20.7812c-26.6592 -11.125 -53.3525 -22.4111 -80.2197 -33.2383c32.417 -156.897 22.084 -319.081 41.2188 -478.161c4.91602 -40.8604 10.6533 -82.1768 20.084 -122.263c8.29004 -35.2383 16.3291 -70.29 34.9697 -101.835
c13.6104 -23.0283 40.9375 -56.5693 71.2432 -48.4404c40.1367 10.7676 59.6035 59.4766 71.7627 94.6943c30.8506 89.3604 50.1982 183.858 69.2773 276.296c17.7637 86.0625 33.1787 172.576 48.3896 259.119c1.54492 12.7764 2.95801 25.5693 3.72363 38.4268
c1.51074 25.3945 62.6592 28.1094 69.3584 5.34863c9.33301 -31.6934 20.126 -63.6426 26.4209 -96.123c5.7627 -29.7441 7.09082 -60.9395 9.52051 -91.126c4.99609 -62.1396 6.25195 -124.412 8.87793 -186.667c2.55762 -60.6162 6.46484 -121.756 15.1855 -181.836
c6.30762 -43.4443 8.84863 -94.0762 37.9209 -129.489c72.2393 -87.9941 157.795 65.7197 184.437 122.417c29.5234 62.834 52.9395 128.805 71.1719 196.052c-40.2051 6.63086 -79.1631 21.8027 -112.708 44.4229c-95.3662 64.3018 -150.578 174.878 -171.444 285.526
c-20.3896 108.142 -7.60059 227.774 45.1807 325.408c21.8496 40.418 54.501 79.1377 99.3789 94.0508c44.6826 14.8486 91.7354 3.25098 127.357 -26.417c39.0098 -32.4893 61.9961 -81.917 77.0664 -129.302c17.9941 -56.5859 25.0713 -116.083 27.25 -175.227
c4.43848 -120.398 -7.53711 -241.589 -34.1318 -359.051c-2.80469 -12.376 -5.80469 -24.7051 -8.92383 -37c38.4434 0.467773 76.3672 12.0391 108.725 37.498c8.3457 6.57129 20.7725 8.29883 30.7949 4.60449c6.48145 -2.3916 16.4619 -10.8008 8.07324 -17.5547
c-44.1465 -35.5361 -99.1406 -51.457 -154.476 -50.7207c-10.4863 -38.4092 -22.4619 -76.4102 -35.8721 -113.917c-19.4619 -54.4502 -41.4268 -108.636 -72.8994 -157.378c-28.1914 -43.6611 -62.2002 -83.0576 -111.02 -103.869
c-55.458 -23.6367 -118.262 -5.12793 -162.778 32.209c-91.2549 76.5381 -93.4463 209.76 -96.5273 318.876c-0.387695 13.8525 -0.613281 27.6924 -0.741211 41.5283c-17.5254 -85.2793 -35.7832 -172.814 -65.5273 -254.132
c-26.3096 -71.9248 -89.3818 -123.399 -168.839 -106.891c-79.5635 16.5303 -138.286 83.4502 -169.797 155.132c-32.8174 74.665 -36.9111 163.945 -40.8438 244.267zM996.769 315.313c28.6035 -21.1094 62.0215 -35.9521 96.5156 -42.5615
c6.59277 26.3613 12.4189 52.8838 17.5049 79.457c19.918 104.035 28.502 210.688 24.1396 316.561c-3.86035 93.7021 -18.3984 210.858 -89.2676 279.939c-83.9131 81.7979 -155.582 -39.2773 -181.032 -111.347c-32.9619 -93.3271 -35.5879 -197.337 -10.6699 -292.929
c22.7686 -87.3438 68.9873 -174.628 142.81 -229.12zM119.194 675.244c27.416 -6.98828 55.6855 -1.39551 82.5527 7.38867c-0.787109 46.2188 -2.74902 92.3994 -7.63086 138.316c-3.88184 36.5283 -7.38867 83.6709 -49.8623 97.0254
c-41.2949 12.9893 -71.4395 -40.3457 -83.0449 -71.5713c-22.1055 -59.4805 -15.6582 -152.378 57.9854 -171.159z" />
    <glyph glyph-name="X" unicode="X" horiz-adv-x="850" 
d="M48.2598 -24.2197c-7.17578 -13.9209 -48.1885 -9.09863 -40.2598 6.31641c42.9717 83.6582 119.595 139.56 191.349 196.967c17.4834 13.9893 34.8857 28.1572 52.1689 42.5127c-20.4111 150.097 -22.9521 302.078 -39.6777 452.6
c-12.9551 -1.14941 -25.957 -1.48145 -38.9463 -0.732422c-77.5547 4.45996 -142.878 49.334 -158.208 128.076c-11.8145 60.6885 16.5938 134.694 80.7979 152.113c76.1846 20.6709 144.87 -50.751 173.903 -113.594c17.0361 -36.877 30.876 -74.4863 42.333 -112.641
c14.7129 5.75781 29.2676 11.9375 43.7031 18.1768c38.1367 16.4834 75.0439 27.7363 116.407 17.458c24.1602 -6.00098 -0.736328 -25.1953 -16.0918 -21.752c-27.5439 6.17969 -53.0498 -6.92383 -77.832 -17.6318c-19.292 -8.33691 -38.6729 -16.4443 -58.416 -23.6279
c32.2422 -119.467 43.2393 -243.807 57.1006 -367.56c68.1025 65.0684 131.375 134.988 185.395 212.186c48.7041 69.5967 101.686 150.927 112.84 236.892c9.29492 71.6055 -23.4795 168.64 -106.933 176.458c-7.91992 0.745117 -18.7168 6.44824 -15.7207 15.7861
c3.11133 9.70312 19.918 9.72461 27.6895 8.96289c88.7949 -8.70801 143.628 -94.834 140.385 -179.229c-3.50293 -91.2031 -56.6885 -177.181 -106.512 -250.599c-50.6279 -74.5967 -109.776 -143.095 -173.704 -206.559
c-19.1299 -18.9941 -38.7158 -37.5068 -58.5947 -55.6963c9.76758 -81.9473 21.416 -163.848 37.0049 -244.884c7.23535 -37.6133 14.751 -75.7881 33.0508 -109.869c15.2959 -28.4893 41.21 -59.1865 73.0693 -68.7451c75.6016 -22.6836 148.368 22.7822 196.017 78.7471
c56.3691 66.2002 81.7812 153.055 106.576 234.683c4.75391 15.666 49.1172 12.1123 43.4102 -6.82227c-26.1357 -86.7012 -53.8115 -176.411 -114.411 -246.037c-51.8154 -59.5352 -127.081 -99.4424 -207.359 -95.1016
c-76.2139 4.12012 -153.573 37.3242 -200.115 98.8262c-51.2363 67.7148 -75.8271 156.633 -89.582 239.312c-0.736328 4.41309 -1.37012 8.83496 -2.06836 13.2529c-8.00098 -6.48145 -16.0146 -12.9336 -24.0664 -19.3477
c-69.001 -54.9648 -143.334 -108.657 -184.701 -188.897zM115.197 716.687c28.1914 -17.2871 61.4258 -20.3477 93.6982 -16.96c-4.66016 38.6855 -9.76758 77.3076 -17.1221 115.598c-6.28125 32.7021 -8.49902 83.9346 -37.9365 104.853
c-37.0391 26.3223 -70.8438 -2.38379 -86.7695 -37.6523c-13.083 -28.9824 -13.8281 -63.1445 -4.65234 -93.3867c8.76758 -28.9014 26.7021 -56.458 52.7822 -72.4512z" />
    <glyph glyph-name="Y" unicode="Y" horiz-adv-x="896" 
d="M463.729 26.8594c67.9326 37.3838 139.678 66.3887 211.513 95.2305c1.31055 68.9668 -1.11914 138.048 -5.46484 206.861c-4.97949 78.9248 -12.8271 157.824 -21.4023 236.435c-1.375 12.6104 -2.55371 25.2422 -3.66016 37.8818
c-21.7607 -108.419 -42.0654 -217.212 -78.543 -321.792c-21.7607 -62.3867 -47.5938 -130.812 -91.9482 -180.998c-43.7715 -49.5254 -109.32 -71.2725 -174.436 -58.4541c-81.0449 15.9551 -119.476 90.5352 -134.907 165.09
c-15.874 76.6865 -16.9121 157.778 -20.4492 235.768c-2.92383 64.4932 -2.61328 129.08 -4.16699 193.591c-24.1777 -4.86426 -49.1475 -4.5957 -72.5205 4.70801c-75.3252 29.9785 -79.7979 129.408 -48.0449 193.179c29.5146 59.2803 105.529 64.9062 142.415 10.4697
c22.0029 -32.4766 45.2275 -62.8467 57.0508 -100.941c3.88965 -12.542 7.28613 -25.2588 10.4014 -38.0605c25.6719 10.2314 51.3438 15.5684 79.8838 12.3428c23.748 -2.68555 13.4697 -23.1904 -5.42676 -22.8584c-24.3779 0.425781 -46.457 -7.9668 -67.8896 -18.4443
c3.69434 -17.458 7.05176 -34.9834 10.4014 -52.415c15.9336 -82.9512 21.7178 -167.763 30.0674 -251.735c4.09863 -41.2012 8.58887 -82.415 13.7295 -123.497c4.65137 -37.1963 6.17969 -76.8828 18.6406 -112.479c6.77148 -19.3428 17.9346 -58.1611 41.7246 -63.6045
c33.2559 -7.61426 71.1719 25.748 90.3447 48.2871c47.6953 56.0713 73.7197 133.03 95.4375 202.23c45.8232 146.002 64.4639 298.69 102.261 446.719c1.02539 7.5332 2.44727 15.0791 4.41309 22.6592c5.49902 21.1777 50.8027 14.4111 59.5703 0.000976562
c26.2461 -43.1465 35.8389 -96.043 46.96 -144.918c10.9375 -48.0703 20.0576 -96.1914 27.9736 -144.857c15.3896 -94.6172 25.7695 -190.673 28.9316 -286.516c0.43457 -13.1377 0.741211 -26.2803 0.928711 -39.4229c18.0918 8.1582 36.0557 16.6064 53.7939 25.5479
c8.86914 4.46875 23.1729 6.02246 31.834 0c7.14941 -4.9707 9.05566 -13.5801 -0.000976562 -18.1465c-28.0166 -14.1211 -56.5986 -27.0332 -85.4453 -39.375c-0.1875 -61.3184 -3.61816 -122.577 -12.4873 -183.355
c-11.4229 -78.2744 -36.7031 -155.399 -90.8848 -214.756c-53.7861 -58.9229 -129.281 -88.6885 -208.368 -89.4629c-67.9404 -0.664062 -149.989 15.04 -196.736 68.834c-109.704 126.233 65.8213 245.951 164.507 300.256zM105.711 658.829
c11.3252 -1.31055 22.6279 0.430664 33.7871 3.86133c-0.191406 5.75391 -0.361328 11.5078 -0.599609 17.2617c-1.56641 37.8818 -5.99707 75.5801 -9.20605 113.338c-1.5791 18.5469 -1.68164 35.7402 -13.2324 51.2061
c-14.6953 19.6748 -32.4639 16.3809 -47.1973 -1.58789c-38.0898 -46.4404 -42.6943 -174.921 36.4482 -184.079zM651.829 -128.333c19.373 70.6982 20.2559 146.446 22.5879 219.319c-64.0977 -25.957 -127.621 -53.1006 -187.752 -87.4541
c-55.1006 -31.4854 -117.39 -70.5586 -153.173 -124.489c-38.3281 -57.7607 -21.1348 -127.089 39.3027 -161.545c54.9609 -31.332 130.014 -25.3779 183.353 6.7666c51.2539 30.8848 80.4111 91.6719 95.6816 147.402z" />
    <glyph glyph-name="Y" unicode="&#x178;" horiz-adv-x="896" 
d="M463.729 26.8594c67.9326 37.3838 139.678 66.3887 211.513 95.2305c1.31055 68.9668 -1.11914 138.048 -5.46484 206.861c-4.97949 78.9248 -12.8271 157.824 -21.4023 236.435c-1.375 12.6104 -2.55371 25.2422 -3.66016 37.8818
c-21.7607 -108.419 -42.0654 -217.212 -78.543 -321.792c-21.7607 -62.3867 -47.5938 -130.812 -91.9482 -180.998c-43.7715 -49.5254 -109.32 -71.2725 -174.436 -58.4541c-81.0449 15.9551 -119.476 90.5352 -134.907 165.09
c-15.874 76.6865 -16.9121 157.778 -20.4492 235.768c-2.92383 64.4932 -2.61328 129.08 -4.16699 193.591c-24.1777 -4.86426 -49.1475 -4.5957 -72.5205 4.70801c-75.3252 29.9785 -79.7979 129.408 -48.0449 193.179c29.5146 59.2803 105.529 64.9062 142.415 10.4697
c22.0029 -32.4766 45.2275 -62.8467 57.0508 -100.941c3.88965 -12.542 7.28613 -25.2588 10.4014 -38.0605c25.6719 10.2314 51.3438 15.5684 79.8838 12.3428c23.748 -2.68555 13.4697 -23.1904 -5.42676 -22.8584c-24.3779 0.425781 -46.457 -7.9668 -67.8896 -18.4443
c3.69434 -17.458 7.05176 -34.9834 10.4014 -52.415c15.9336 -82.9512 21.7178 -167.763 30.0674 -251.735c4.09863 -41.2012 8.58887 -82.415 13.7295 -123.497c4.65137 -37.1963 6.17969 -76.8828 18.6406 -112.479c6.77148 -19.3428 17.9346 -58.1611 41.7246 -63.6045
c33.2559 -7.61426 71.1719 25.748 90.3447 48.2871c47.6953 56.0713 73.7197 133.03 95.4375 202.23c45.8232 146.002 64.4639 298.69 102.261 446.719c1.02539 7.5332 2.44727 15.0791 4.41309 22.6592c5.49902 21.1777 50.8027 14.4111 59.5703 0.000976562
c26.2461 -43.1465 35.8389 -96.043 46.96 -144.918c10.9375 -48.0703 20.0576 -96.1914 27.9736 -144.857c15.3896 -94.6172 25.7695 -190.673 28.9316 -286.516c0.43457 -13.1377 0.741211 -26.2803 0.928711 -39.4229c18.0918 8.1582 36.0557 16.6064 53.7939 25.5479
c8.86914 4.46875 23.1729 6.02246 31.834 0c7.14941 -4.9707 9.05566 -13.5801 -0.000976562 -18.1465c-28.0166 -14.1211 -56.5986 -27.0332 -85.4453 -39.375c-0.1875 -61.3184 -3.61816 -122.577 -12.4873 -183.355
c-11.4229 -78.2744 -36.7031 -155.399 -90.8848 -214.756c-53.7861 -58.9229 -129.281 -88.6885 -208.368 -89.4629c-67.9404 -0.664062 -149.989 15.04 -196.736 68.834c-109.704 126.233 65.8213 245.951 164.507 300.256zM105.711 658.829
c11.3252 -1.31055 22.6279 0.430664 33.7871 3.86133c-0.191406 5.75391 -0.361328 11.5078 -0.599609 17.2617c-1.56641 37.8818 -5.99707 75.5801 -9.20605 113.338c-1.5791 18.5469 -1.68164 35.7402 -13.2324 51.2061
c-14.6953 19.6748 -32.4639 16.3809 -47.1973 -1.58789c-38.0898 -46.4404 -42.6943 -174.921 36.4482 -184.079zM651.829 -128.333c19.373 70.6982 20.2559 146.446 22.5879 219.319c-64.0977 -25.957 -127.621 -53.1006 -187.752 -87.4541
c-55.1006 -31.4854 -117.39 -70.5586 -153.173 -124.489c-38.3281 -57.7607 -21.1348 -127.089 39.3027 -161.545c54.9609 -31.332 130.014 -25.3779 183.353 6.7666c51.2539 30.8848 80.4111 91.6719 95.6816 147.402z" />
    <glyph glyph-name="Y" unicode="&#xdd;" horiz-adv-x="896" 
d="M463.729 26.8594c67.9326 37.3838 139.678 66.3887 211.513 95.2305c1.31055 68.9668 -1.11914 138.048 -5.46484 206.861c-4.97949 78.9248 -12.8271 157.824 -21.4023 236.435c-1.375 12.6104 -2.55371 25.2422 -3.66016 37.8818
c-21.7607 -108.419 -42.0654 -217.212 -78.543 -321.792c-21.7607 -62.3867 -47.5938 -130.812 -91.9482 -180.998c-43.7715 -49.5254 -109.32 -71.2725 -174.436 -58.4541c-81.0449 15.9551 -119.476 90.5352 -134.907 165.09
c-15.874 76.6865 -16.9121 157.778 -20.4492 235.768c-2.92383 64.4932 -2.61328 129.08 -4.16699 193.591c-24.1777 -4.86426 -49.1475 -4.5957 -72.5205 4.70801c-75.3252 29.9785 -79.7979 129.408 -48.0449 193.179c29.5146 59.2803 105.529 64.9062 142.415 10.4697
c22.0029 -32.4766 45.2275 -62.8467 57.0508 -100.941c3.88965 -12.542 7.28613 -25.2588 10.4014 -38.0605c25.6719 10.2314 51.3438 15.5684 79.8838 12.3428c23.748 -2.68555 13.4697 -23.1904 -5.42676 -22.8584c-24.3779 0.425781 -46.457 -7.9668 -67.8896 -18.4443
c3.69434 -17.458 7.05176 -34.9834 10.4014 -52.415c15.9336 -82.9512 21.7178 -167.763 30.0674 -251.735c4.09863 -41.2012 8.58887 -82.415 13.7295 -123.497c4.65137 -37.1963 6.17969 -76.8828 18.6406 -112.479c6.77148 -19.3428 17.9346 -58.1611 41.7246 -63.6045
c33.2559 -7.61426 71.1719 25.748 90.3447 48.2871c47.6953 56.0713 73.7197 133.03 95.4375 202.23c45.8232 146.002 64.4639 298.69 102.261 446.719c1.02539 7.5332 2.44727 15.0791 4.41309 22.6592c5.49902 21.1777 50.8027 14.4111 59.5703 0.000976562
c26.2461 -43.1465 35.8389 -96.043 46.96 -144.918c10.9375 -48.0703 20.0576 -96.1914 27.9736 -144.857c15.3896 -94.6172 25.7695 -190.673 28.9316 -286.516c0.43457 -13.1377 0.741211 -26.2803 0.928711 -39.4229c18.0918 8.1582 36.0557 16.6064 53.7939 25.5479
c8.86914 4.46875 23.1729 6.02246 31.834 0c7.14941 -4.9707 9.05566 -13.5801 -0.000976562 -18.1465c-28.0166 -14.1211 -56.5986 -27.0332 -85.4453 -39.375c-0.1875 -61.3184 -3.61816 -122.577 -12.4873 -183.355
c-11.4229 -78.2744 -36.7031 -155.399 -90.8848 -214.756c-53.7861 -58.9229 -129.281 -88.6885 -208.368 -89.4629c-67.9404 -0.664062 -149.989 15.04 -196.736 68.834c-109.704 126.233 65.8213 245.951 164.507 300.256zM105.711 658.829
c11.3252 -1.31055 22.6279 0.430664 33.7871 3.86133c-0.191406 5.75391 -0.361328 11.5078 -0.599609 17.2617c-1.56641 37.8818 -5.99707 75.5801 -9.20605 113.338c-1.5791 18.5469 -1.68164 35.7402 -13.2324 51.2061
c-14.6953 19.6748 -32.4639 16.3809 -47.1973 -1.58789c-38.0898 -46.4404 -42.6943 -174.921 36.4482 -184.079zM651.829 -128.333c19.373 70.6982 20.2559 146.446 22.5879 219.319c-64.0977 -25.957 -127.621 -53.1006 -187.752 -87.4541
c-55.1006 -31.4854 -117.39 -70.5586 -153.173 -124.489c-38.3281 -57.7607 -21.1348 -127.089 39.3027 -161.545c54.9609 -31.332 130.014 -25.3779 183.353 6.7666c51.2539 30.8848 80.4111 91.6719 95.6816 147.402z" />
    <glyph glyph-name="Z" unicode="Z" horiz-adv-x="807" 
d="M638.991 566.254c-18.5303 -47.8408 -39.8184 -94.2939 -63.3623 -139.866c-17.9688 -34.7832 -36.9375 -68.9834 -56.4209 -102.882c16.666 -2.94531 33.3828 -5.60059 50.1514 -7.94531c8.07324 -1.13184 19.3809 -6.3877 16.21 -16.2744
c-3.13672 -9.77148 -20.6201 -10.3672 -28.5488 -9.23926c-17.4961 2.49414 -34.9111 5.3877 -52.2793 8.55371c-28.085 -48.1299 -56.9521 -95.8086 -85.2754 -143.845c-53.4365 -90.6328 -105.384 -182.352 -145.24 -279.879
c-16.8828 -41.3164 -42.8398 -100.707 -16.8916 -143.262c12.8828 -21.126 24.918 -16.5938 44.5205 -3.53711c21.1094 14.0615 39.2305 32.5615 56.0625 51.3896c68.8857 77.0566 125.643 164.354 193.775 242.172c62.1484 70.9834 135.864 149.092 231.698 169.499
c21.918 4.66406 40.3506 -18.0918 11.7217 -24.2334c-62.4385 -13.3936 -113.198 -62.2979 -156.672 -106.214c-43.7969 -44.2402 -83.1123 -92.6211 -121.249 -141.751c-38.1074 -49.0918 -74.8652 -99.3457 -114.534 -147.207
c-34.7363 -41.9121 -82.2236 -89.7139 -140.737 -89.6113c-54.8154 0.09375 -102.745 37.4902 -117.211 89.957c-15.2021 55.1309 -1.89844 114.526 17.6357 166.827c39.8564 106.708 106.418 204.883 165.94 301.355c17.6191 28.5527 35.251 57.0967 52.7344 85.7256
c-13.0615 4.75391 -24.6162 11.5586 -31.5957 22.4277c-9.83984 15.3213 34.6553 21.0918 43.8604 6.88965c0.821289 -1.26367 2.04297 -2.38281 3.51562 -3.40039c36.584 60.4766 72.1504 121.54 104.759 184.314c25.7188 49.5088 52.8623 100.958 70.7285 153.893
c8.78809 26.0459 15.4316 55.5137 15.3809 83.2148c-0.046875 25.876 -10.627 42.4521 -36.0859 49.6357c-45.2021 12.7549 -97.1367 -8.1582 -138.853 -23.9473c-51.6025 -19.5303 -101.23 -43.8232 -152.488 -64.1914
c-0.978516 -0.391602 -1.95703 -0.766602 -2.93555 -1.1543c3.71094 -45.8652 -1.83008 -94.1865 -6.47363 -129.621c-2.13184 -16.2705 -42.6436 -15.7305 -41.2949 -0.000976562c3.09863 36.166 6.38867 75.5625 4.37109 113.771
c-33.2002 -11.0273 -67.2598 -19.5176 -102.081 -22.9648c-38.1748 -3.77539 -93.8799 0.0634766 -109.627 42.7666c-14.8398 40.2393 17.0029 82.5049 48.0029 104.605c35.3496 25.1992 83.6367 37.1201 125.796 23.4033
c47.5977 -15.4873 69.2686 -56.6973 77.7891 -104.389c77.7168 32.9316 154.961 76.0059 238.853 87.0713c38.8008 5.11523 81.9004 2.41309 114.904 -20.7432c36.5498 -25.6416 60.9443 -62.3955 64.166 -107.618c3.67676 -51.6064 -14.3555 -106.277 -32.7197 -153.696z
M142.785 724.466c23.3604 4.87695 46.2646 11.9668 68.7188 20.0957c-1.58789 12.2695 -3.84766 24.3096 -7.06055 35.9365c-6.33301 22.9014 -17.8711 46.4404 -39.1719 58.7744c-21.9521 12.7119 -48.1299 6.55762 -69.2344 -4.83496
c-20.9346 -11.2998 -38.7451 -28.8506 -48.4443 -50.7344c-11.0693 -24.9775 -6.71094 -55.9434 22.8594 -64.0674c22.5986 -6.20898 50.0703 0.178711 72.333 4.83008z" />
    <glyph glyph-name="bracketleft" unicode="[" horiz-adv-x="301" 
d="M239.185 -165.024c12.4395 -7.29492 16.707 -19.1221 6.93555 -30.668c-31.9238 -37.7109 -105.41 -25.3945 -139.938 1.44336c-35.2178 27.3779 -39.3037 71.2305 -41.5381 112.814c-9.43066 175.636 -15.6611 351.808 -14.5039 527.699
c0.579102 88.2373 2.77051 178.572 15.8105 265.945c4.90723 32.8848 6.51172 86.875 34.3789 109.631c21.4756 17.5342 57.4805 27.7656 81.7607 10.2783c20.5986 -14.8398 -17.1299 -22.8408 -29.1992 -16.6445c5.89453 -3.02637 0.24707 -15.6113 -0.1875 -20.8721
c-0.757812 -9.19727 0.727539 -18.4199 1.65918 -27.54c2.29004 -22.4668 4.80078 -44.9805 6.1582 -67.5156c2.71484 -45.0146 3.91113 -90.0039 5.24707 -135.069c2.5918 -87.2666 5.62207 -174.529 8.7373 -261.779c3.11523 -87.2627 5.9707 -174.517 9.91992 -261.754
c2.03809 -45.002 4.7998 -90.0117 6.13184 -135.035c0.498047 -16.8535 0.272461 -34.0215 5.9834 -50.1006c1.66406 -4.68164 4.9668 -8.9082 7.3418 -13.0488c-4.25195 -0.162109 -10.2148 -1.23047 -18.4922 -3.83105c5.85156 1.83887 12.248 2.97559 18.7471 3.36328
c0.625977 -1.12793 1.19238 -2.24316 1.61328 -3.3623c3.36621 -8.96289 12.7637 1.29395 3.22656 3.46875c10.665 -0.0341797 21.3516 -2.23047 30.208 -7.42285z" />
    <glyph glyph-name="backslash" unicode="\" horiz-adv-x="486" 
d="M435.848 -208.766c4.58789 -22.2754 -35.998 -31.042 -49.9873 -32.2764c-19.4795 -1.71484 -53.8711 2.2002 -63.2598 23.5391c-32.5107 73.916 -53.8154 153.714 -78.125 230.622c-23.9482 75.7676 -48.1299 151.454 -72.542 227.072
c-24.3525 75.4141 -48.0107 151.109 -70.2051 227.188c-21.5264 73.7881 -50.7305 152.05 -51.7266 229.604c-0.272461 21.2832 41.1504 15.2402 49.2451 3.80078c47.8145 -67.5625 75.29 -149.075 105.294 -225.601c29.1865 -74.4307 56.2969 -149.729 82.4707 -225.271
c26.1055 -75.3457 51.9814 -150.772 77.623 -226.28c25.9053 -76.2871 54.9385 -153.374 71.2129 -232.397z" />
    <glyph glyph-name="bracketright" unicode="]" horiz-adv-x="302" 
d="M239.391 678.453c18.5303 -174.874 13.3525 -352.314 6.99805 -527.742c-3.14062 -86.7686 -2.47266 -175.329 -11.8828 -261.664c-4.22656 -38.7881 -17.6367 -73.6221 -53.7646 -92.8545c-34.5449 -18.3896 -97.2217 -25.208 -125.438 8.12793
c-9.68262 11.4443 -5.36328 23.4414 6.94043 30.6641c8.75879 5.1416 19.4238 7.3252 30.0596 7.38867c-9.29102 -2.24707 0.0253906 -12.3545 3.375 -3.43457c0.413086 1.11035 0.974609 2.2168 1.5957 3.33203c6.5332 -0.378906 12.9512 -1.50684 18.7607 -3.33301
c-8.27344 2.5957 -14.2363 3.66797 -18.4883 3.83008c2.375 4.13672 5.67773 8.36328 7.3418 13.0488c5.71094 16.0742 5.48535 33.2422 5.9834 50.0996c1.32812 45.0234 4.08984 90.0332 6.12793 135.035c3.9541 87.2324 6.80957 174.486 9.9248 261.753
c3.11523 87.25 6.14551 174.513 8.7373 261.779c1.34082 45.0654 2.53223 90.0498 5.24707 135.068c1.3623 22.5352 3.86523 45.0488 6.15918 67.5156c0.931641 9.11621 2.41699 18.3389 1.65918 27.54c-0.429688 5.26074 -6.08105 17.8457 -0.186523 20.8721
c-12.1719 -6.24805 -49.7383 1.84668 -29.1992 16.6445c26.7061 19.2363 72.5713 5.47754 90.9951 -19.7598c12.3203 -16.8701 15.0654 -42.1885 18.5938 -62.1738c4.21777 -23.8838 7.90332 -47.6104 10.4609 -71.7373z" />
    <glyph glyph-name="asciicircum" unicode="^" horiz-adv-x="318" 
d="M267.899 461.008c4.68164 -20.7266 -36.7852 -27.6895 -48.5781 -27.6982c-19.0791 0 -44.5381 6.27344 -48.5771 27.6895c-4.3584 23.0928 -9.58008 46.4912 -17.0322 68.7959c-1.28516 3.83887 -2.66016 7.66895 -4.09473 11.4824
c-5.57129 -10.8271 -10.9893 -21.7227 -16.1387 -32.7539c-9.61426 -20.5898 -18.2705 -42.1797 -37.7246 -54.9043c-8.49902 -5.55859 -26.1777 -5.23047 -33.5234 2.46387c-23.7822 24.9141 -7.46973 73.04 3.61719 101.333
c14.1465 36.0938 37.9326 62.4678 78.7207 65.6211c91.8545 7.10352 107.934 -93.8545 123.331 -162.029z" />
    <glyph glyph-name="underscore" unicode="_" horiz-adv-x="434" 
d="M337.605 -63.7344c14.1719 0.314453 46.4941 -6.14258 46.0176 -26.2344c-0.494141 -20.6748 -30.4512 -25.8242 -46.0195 -26.2285c-79.2656 -2.05957 -157.65 -11.9541 -235.537 -26.5859c-14.8525 -2.78809 -39.6641 -0.28125 -49.0693 13.7295
c-8.9375 13.3125 3.69824 26.2031 17.0195 29.6074c87.7139 22.416 177.096 33.6943 267.589 35.7119z" />
    <glyph glyph-name="grave" unicode="`" horiz-adv-x="199" 
d="M139.928 565.553c3.83496 -24.6289 6.83496 -49.3672 8.75391 -74.2129c2.37891 -30.6719 -76.21 -31.4043 -79.9297 0c-2.60059 21.9727 -4.73242 43.9795 -7.09863 65.9785c-2.14062 19.918 -1.11035 42.1807 -9.86914 60.5146
c-13.8916 29.0801 57.5771 33.1104 70.792 11.124c11.248 -18.709 14.0361 -42.1123 17.3516 -63.4043z" />
    <glyph glyph-name="a" unicode="a" horiz-adv-x="456" 
d="M442.671 218.435c3.10645 17.4062 46.3086 15.7529 43.6191 0.00585938c-5.47754 -32.1357 -13.8066 -63.5957 -24.9102 -94.251c-10.6523 -29.4082 -22.3262 -61.4844 -39.835 -87.6201c-35.9541 -53.6709 -102.239 -35.5879 -143.394 2.08496
c-32.0254 29.3184 -48.1895 74.3457 -57.8164 119.449c-2.48145 -12.8613 -5.1709 -25.6543 -8.09863 -38.3535c-8.00488 -34.7148 -18.5684 -73.8311 -45.1211 -99.4131c-25.0029 -24.0928 -59.2119 -26.4971 -91.6035 -18.2871
c-87.6113 22.1982 -104.239 133.83 -102.469 209.755c1.88574 80.8916 21.9902 171.921 97.4043 215.331c33.0176 19.0068 75.2021 24.9824 108.836 4.1582c6.37109 -3.94141 12.4785 -8.41016 18.3477 -13.249c0.301758 6.07715 0.65918 12.1504 1.14453 18.2021
c3.85156 47.8447 106.678 43.1592 116.24 0c11.9209 -53.7861 11.0225 -109.491 13.0566 -164.354c1.91895 -51.7471 7.82617 -102.983 12.3369 -154.501c2 -22.8408 5.5625 -45.1289 10.3975 -67.5234c2.78809 -12.9121 6.38867 -25.8291 21.4805 -13.3379
c8.37109 6.93262 13.5459 19.8232 18.2363 29.3135c23.8887 48.334 42.6611 99.4297 52.1475 152.59zM178.552 171.788c8.80078 50.9258 14.917 102.33 20.4365 153.792c-0.859375 12.5508 -1.48926 25.1143 -1.84277 37.665
c-20.5684 26.3057 -54.998 63.042 -68.502 38.3281c-15.3506 -28.0889 -22.8623 -64.5742 -29.7656 -95.7275c-16.9346 -76.4014 -20.833 -156.633 -6.27344 -233.736c2.4043 -12.7119 5.74512 -33.5527 15.8057 -42.8643c11.8105 -10.9287 26.0332 9.83984 32.5234 19.9268
c22.9902 35.7451 30.5146 81.5176 37.6182 122.616z" />
    <glyph glyph-name="a" unicode="&#xe5;" horiz-adv-x="456" 
d="M442.671 218.435c3.10645 17.4062 46.3086 15.7529 43.6191 0.00585938c-5.47754 -32.1357 -13.8066 -63.5957 -24.9102 -94.251c-10.6523 -29.4082 -22.3262 -61.4844 -39.835 -87.6201c-35.9541 -53.6709 -102.239 -35.5879 -143.394 2.08496
c-32.0254 29.3184 -48.1895 74.3457 -57.8164 119.449c-2.48145 -12.8613 -5.1709 -25.6543 -8.09863 -38.3535c-8.00488 -34.7148 -18.5684 -73.8311 -45.1211 -99.4131c-25.0029 -24.0928 -59.2119 -26.4971 -91.6035 -18.2871
c-87.6113 22.1982 -104.239 133.83 -102.469 209.755c1.88574 80.8916 21.9902 171.921 97.4043 215.331c33.0176 19.0068 75.2021 24.9824 108.836 4.1582c6.37109 -3.94141 12.4785 -8.41016 18.3477 -13.249c0.301758 6.07715 0.65918 12.1504 1.14453 18.2021
c3.85156 47.8447 106.678 43.1592 116.24 0c11.9209 -53.7861 11.0225 -109.491 13.0566 -164.354c1.91895 -51.7471 7.82617 -102.983 12.3369 -154.501c2 -22.8408 5.5625 -45.1289 10.3975 -67.5234c2.78809 -12.9121 6.38867 -25.8291 21.4805 -13.3379
c8.37109 6.93262 13.5459 19.8232 18.2363 29.3135c23.8887 48.334 42.6611 99.4297 52.1475 152.59zM178.552 171.788c8.80078 50.9258 14.917 102.33 20.4365 153.792c-0.859375 12.5508 -1.48926 25.1143 -1.84277 37.665
c-20.5684 26.3057 -54.998 63.042 -68.502 38.3281c-15.3506 -28.0889 -22.8623 -64.5742 -29.7656 -95.7275c-16.9346 -76.4014 -20.833 -156.633 -6.27344 -233.736c2.4043 -12.7119 5.74512 -33.5527 15.8057 -42.8643c11.8105 -10.9287 26.0332 9.83984 32.5234 19.9268
c22.9902 35.7451 30.5146 81.5176 37.6182 122.616z" />
    <glyph glyph-name="a" unicode="&#xe4;" horiz-adv-x="456" 
d="M442.671 218.435c3.10645 17.4062 46.3086 15.7529 43.6191 0.00585938c-5.47754 -32.1357 -13.8066 -63.5957 -24.9102 -94.251c-10.6523 -29.4082 -22.3262 -61.4844 -39.835 -87.6201c-35.9541 -53.6709 -102.239 -35.5879 -143.394 2.08496
c-32.0254 29.3184 -48.1895 74.3457 -57.8164 119.449c-2.48145 -12.8613 -5.1709 -25.6543 -8.09863 -38.3535c-8.00488 -34.7148 -18.5684 -73.8311 -45.1211 -99.4131c-25.0029 -24.0928 -59.2119 -26.4971 -91.6035 -18.2871
c-87.6113 22.1982 -104.239 133.83 -102.469 209.755c1.88574 80.8916 21.9902 171.921 97.4043 215.331c33.0176 19.0068 75.2021 24.9824 108.836 4.1582c6.37109 -3.94141 12.4785 -8.41016 18.3477 -13.249c0.301758 6.07715 0.65918 12.1504 1.14453 18.2021
c3.85156 47.8447 106.678 43.1592 116.24 0c11.9209 -53.7861 11.0225 -109.491 13.0566 -164.354c1.91895 -51.7471 7.82617 -102.983 12.3369 -154.501c2 -22.8408 5.5625 -45.1289 10.3975 -67.5234c2.78809 -12.9121 6.38867 -25.8291 21.4805 -13.3379
c8.37109 6.93262 13.5459 19.8232 18.2363 29.3135c23.8887 48.334 42.6611 99.4297 52.1475 152.59zM178.552 171.788c8.80078 50.9258 14.917 102.33 20.4365 153.792c-0.859375 12.5508 -1.48926 25.1143 -1.84277 37.665
c-20.5684 26.3057 -54.998 63.042 -68.502 38.3281c-15.3506 -28.0889 -22.8623 -64.5742 -29.7656 -95.7275c-16.9346 -76.4014 -20.833 -156.633 -6.27344 -233.736c2.4043 -12.7119 5.74512 -33.5527 15.8057 -42.8643c11.8105 -10.9287 26.0332 9.83984 32.5234 19.9268
c22.9902 35.7451 30.5146 81.5176 37.6182 122.616z" />
    <glyph glyph-name="a" unicode="&#xe3;" horiz-adv-x="456" 
d="M442.671 218.435c3.10645 17.4062 46.3086 15.7529 43.6191 0.00585938c-5.47754 -32.1357 -13.8066 -63.5957 -24.9102 -94.251c-10.6523 -29.4082 -22.3262 -61.4844 -39.835 -87.6201c-35.9541 -53.6709 -102.239 -35.5879 -143.394 2.08496
c-32.0254 29.3184 -48.1895 74.3457 -57.8164 119.449c-2.48145 -12.8613 -5.1709 -25.6543 -8.09863 -38.3535c-8.00488 -34.7148 -18.5684 -73.8311 -45.1211 -99.4131c-25.0029 -24.0928 -59.2119 -26.4971 -91.6035 -18.2871
c-87.6113 22.1982 -104.239 133.83 -102.469 209.755c1.88574 80.8916 21.9902 171.921 97.4043 215.331c33.0176 19.0068 75.2021 24.9824 108.836 4.1582c6.37109 -3.94141 12.4785 -8.41016 18.3477 -13.249c0.301758 6.07715 0.65918 12.1504 1.14453 18.2021
c3.85156 47.8447 106.678 43.1592 116.24 0c11.9209 -53.7861 11.0225 -109.491 13.0566 -164.354c1.91895 -51.7471 7.82617 -102.983 12.3369 -154.501c2 -22.8408 5.5625 -45.1289 10.3975 -67.5234c2.78809 -12.9121 6.38867 -25.8291 21.4805 -13.3379
c8.37109 6.93262 13.5459 19.8232 18.2363 29.3135c23.8887 48.334 42.6611 99.4297 52.1475 152.59zM178.552 171.788c8.80078 50.9258 14.917 102.33 20.4365 153.792c-0.859375 12.5508 -1.48926 25.1143 -1.84277 37.665
c-20.5684 26.3057 -54.998 63.042 -68.502 38.3281c-15.3506 -28.0889 -22.8623 -64.5742 -29.7656 -95.7275c-16.9346 -76.4014 -20.833 -156.633 -6.27344 -233.736c2.4043 -12.7119 5.74512 -33.5527 15.8057 -42.8643c11.8105 -10.9287 26.0332 9.83984 32.5234 19.9268
c22.9902 35.7451 30.5146 81.5176 37.6182 122.616z" />
    <glyph glyph-name="a" unicode="&#xe2;" horiz-adv-x="456" 
d="M442.671 218.435c3.10645 17.4062 46.3086 15.7529 43.6191 0.00585938c-5.47754 -32.1357 -13.8066 -63.5957 -24.9102 -94.251c-10.6523 -29.4082 -22.3262 -61.4844 -39.835 -87.6201c-35.9541 -53.6709 -102.239 -35.5879 -143.394 2.08496
c-32.0254 29.3184 -48.1895 74.3457 -57.8164 119.449c-2.48145 -12.8613 -5.1709 -25.6543 -8.09863 -38.3535c-8.00488 -34.7148 -18.5684 -73.8311 -45.1211 -99.4131c-25.0029 -24.0928 -59.2119 -26.4971 -91.6035 -18.2871
c-87.6113 22.1982 -104.239 133.83 -102.469 209.755c1.88574 80.8916 21.9902 171.921 97.4043 215.331c33.0176 19.0068 75.2021 24.9824 108.836 4.1582c6.37109 -3.94141 12.4785 -8.41016 18.3477 -13.249c0.301758 6.07715 0.65918 12.1504 1.14453 18.2021
c3.85156 47.8447 106.678 43.1592 116.24 0c11.9209 -53.7861 11.0225 -109.491 13.0566 -164.354c1.91895 -51.7471 7.82617 -102.983 12.3369 -154.501c2 -22.8408 5.5625 -45.1289 10.3975 -67.5234c2.78809 -12.9121 6.38867 -25.8291 21.4805 -13.3379
c8.37109 6.93262 13.5459 19.8232 18.2363 29.3135c23.8887 48.334 42.6611 99.4297 52.1475 152.59zM178.552 171.788c8.80078 50.9258 14.917 102.33 20.4365 153.792c-0.859375 12.5508 -1.48926 25.1143 -1.84277 37.665
c-20.5684 26.3057 -54.998 63.042 -68.502 38.3281c-15.3506 -28.0889 -22.8623 -64.5742 -29.7656 -95.7275c-16.9346 -76.4014 -20.833 -156.633 -6.27344 -233.736c2.4043 -12.7119 5.74512 -33.5527 15.8057 -42.8643c11.8105 -10.9287 26.0332 9.83984 32.5234 19.9268
c22.9902 35.7451 30.5146 81.5176 37.6182 122.616z" />
    <glyph glyph-name="a" unicode="&#xe1;" horiz-adv-x="456" 
d="M442.671 218.435c3.10645 17.4062 46.3086 15.7529 43.6191 0.00585938c-5.47754 -32.1357 -13.8066 -63.5957 -24.9102 -94.251c-10.6523 -29.4082 -22.3262 -61.4844 -39.835 -87.6201c-35.9541 -53.6709 -102.239 -35.5879 -143.394 2.08496
c-32.0254 29.3184 -48.1895 74.3457 -57.8164 119.449c-2.48145 -12.8613 -5.1709 -25.6543 -8.09863 -38.3535c-8.00488 -34.7148 -18.5684 -73.8311 -45.1211 -99.4131c-25.0029 -24.0928 -59.2119 -26.4971 -91.6035 -18.2871
c-87.6113 22.1982 -104.239 133.83 -102.469 209.755c1.88574 80.8916 21.9902 171.921 97.4043 215.331c33.0176 19.0068 75.2021 24.9824 108.836 4.1582c6.37109 -3.94141 12.4785 -8.41016 18.3477 -13.249c0.301758 6.07715 0.65918 12.1504 1.14453 18.2021
c3.85156 47.8447 106.678 43.1592 116.24 0c11.9209 -53.7861 11.0225 -109.491 13.0566 -164.354c1.91895 -51.7471 7.82617 -102.983 12.3369 -154.501c2 -22.8408 5.5625 -45.1289 10.3975 -67.5234c2.78809 -12.9121 6.38867 -25.8291 21.4805 -13.3379
c8.37109 6.93262 13.5459 19.8232 18.2363 29.3135c23.8887 48.334 42.6611 99.4297 52.1475 152.59zM178.552 171.788c8.80078 50.9258 14.917 102.33 20.4365 153.792c-0.859375 12.5508 -1.48926 25.1143 -1.84277 37.665
c-20.5684 26.3057 -54.998 63.042 -68.502 38.3281c-15.3506 -28.0889 -22.8623 -64.5742 -29.7656 -95.7275c-16.9346 -76.4014 -20.833 -156.633 -6.27344 -233.736c2.4043 -12.7119 5.74512 -33.5527 15.8057 -42.8643c11.8105 -10.9287 26.0332 9.83984 32.5234 19.9268
c22.9902 35.7451 30.5146 81.5176 37.6182 122.616z" />
    <glyph glyph-name="b" unicode="b" horiz-adv-x="531" 
d="M519.246 196.942c9.83984 13.6699 52.9639 6.99902 42.9668 -6.74707c-35.0127 -48.0996 -90.3643 -75.2695 -144.142 -98.8555c-9.78418 -45.4873 -23.7266 -90.1572 -41.9336 -132.376c-28.3779 -65.7998 -77.6484 -124.918 -146.338 -150.015
c-60.6807 -22.1729 -148.317 -19.3896 -195.03 31.6934c-56.8926 62.2168 30.2676 118.927 79.5381 147.696c54.4414 31.7871 113.173 55.2754 171.695 78.6016c15.0361 48.6191 26.2764 98.375 34.6221 148.59c10.7764 64.7959 11.4531 126.936 0.46875 191.502
c-4.16211 24.4502 -12.4014 54.1309 -41.3496 58.4033c-31.0342 4.5791 -56.7354 -30.4258 -69.9756 -53.4922c-65.9912 -114.956 -88.5811 -253.327 -113.022 -381.88c-0.714844 -8.19727 -1.50684 -16.4326 -2.1709 -24.8418
c-2.16602 -27.4844 -63.8721 -28.6758 -73.0176 -5.62988c-12.8184 32.3018 -22.0195 62.2842 -28.1055 96.6592c-5.3584 30.2676 -8.1543 60.918 -10.5801 91.5479c-4.82617 60.9912 -4.23438 122.527 -2.12793 183.633c3.74902 108.899 16.5205 219.863 64.3438 319.183
c20.5986 42.7803 48.0273 85.4756 87.1641 113.479c34.1318 24.4199 83.8789 34.6592 122.646 14.6309c39.8857 -20.6074 44.3926 -69.6865 38.4297 -109.471c-7.10742 -47.4229 -27.4893 -92.3818 -51.9346 -133.255c-36.001 -60.1826 -83.6494 -112.279 -139.524 -154.063
c-3.31152 -44.6357 -5.25684 -89.374 -6.08203 -133.967c-0.391602 -21.1172 -0.527344 -42.2734 -0.467773 -63.4336c5.16699 20.1943 10.8105 40.2734 17.1094 60.1992c13.125 41.5078 28.7529 82.5518 48.6875 121.302c16.6494 32.3613 38.8438 62.1309 73.4062 76.4219
c61.7402 25.5264 120.943 -16.2881 157.178 -64.5195c46.1426 -61.4209 47.0664 -152.497 41.2363 -225.409c-1.74512 -21.8281 -4.45996 -43.7334 -8.08984 -65.5576c1.7998 0.90625 3.61328 1.7959 5.40918 2.71973c33.2217 17.083 66.7412 36.3447 88.9912 67.251z
M117.767 565.176c-4.67676 -30.7998 -8.43555 -61.7959 -11.5166 -92.8809c39.0859 36.2002 72.4863 78.4443 98.3965 125.311c20.3174 36.7539 38.1025 76.751 41.8389 119.003c2.27734 25.7393 -5.41309 103.669 -48.3418 73.5801
c-30.2256 -21.1855 -45.5127 -63.2422 -55.5225 -97.0762c-12.3076 -41.6016 -18.3555 -85.1436 -24.8545 -127.937zM269.799 19.1152c1.61719 4.38379 3.12012 8.79785 4.66895 13.2031c-27.7822 -11.4141 -55.3477 -23.3477 -82.2529 -36.8008
c-28.2549 -14.1299 -56.207 -29.5615 -81.6357 -48.3896c-23.0244 -17.0488 -61.2168 -47.376 -42.4443 -79.8701c7.70703 -13.3467 23.8154 -22.4453 38.5156 -26.1309c2.17871 -0.544922 10.0137 -1.62988 12.9844 -2.2168
c0.391602 0.0556641 0.761719 0.12793 1.07617 0.217773c3.41797 0.958008 6.85645 1.81348 10.2734 2.7666c21.1172 5.88184 38.0518 16.2578 54.2754 30.958c41.627 37.7158 65.4512 94.5918 84.5391 146.263z" />
    <glyph glyph-name="c" unicode="c" horiz-adv-x="292" 
d="M284.324 221.848c5.14551 14.2617 45.7031 10.7266 39.8213 -6.25391c-15.0186 -43.3594 -34.1318 -85.0928 -57.8115 -124.421c-19.6279 -32.5996 -41.5967 -67.877 -73.0176 -90.3945c-59.6162 -42.7246 -145.33 -13.2061 -186.084 42.542
c-51.2109 70.0518 -39.043 164.783 -24.1045 244.581c14.7002 78.5166 52.2715 165.898 136.231 190.242c31.502 9.13281 64.7578 1.07617 79.6875 -29.7617c15.9424 -32.9404 15.9805 -76.7207 12.8223 -112.274c-1.49805 -16.8916 -43.6396 -15.9258 -42.2266 0
c3.29004 37.0732 1.17871 77.1973 -16.1729 110.78c3.48535 6.03027 3.05078 6.40527 -1.29004 1.13184c-2.0127 -3.10254 -3.7959 -6.32422 -5.3623 -9.67383c-3.51074 -7.21387 -5.88965 -14.7676 -8.24316 -22.4072
c-4.52441 -14.6875 -9.7207 -29.1406 -14.1045 -43.8877c-22.1182 -74.4355 -40.627 -153.642 -41.7891 -231.601c-0.519531 -34.8604 -2.26465 -74.3682 12.4268 -106.968c18.4023 -40.8311 54.2754 -28.625 80.4619 -2.29004
c50.543 50.832 84.7305 124.067 108.755 190.655z" />
    <glyph glyph-name="d" unicode="d" horiz-adv-x="516" 
d="M506.788 221.674c4.20508 14.5254 45.0869 11.4385 40.2695 -6.33008c-17.377 -64.0469 -43.7803 -133.413 -86.1982 -185.42c-39.5879 -48.5342 -112.896 -46.7676 -161.417 -12.2314c-49.8447 35.4766 -66.9746 98.4551 -76.1035 156.688
c-3.27246 -18.3643 -6.94141 -36.5967 -11.1035 -54.6416c-8.00488 -34.7148 -18.5684 -73.8311 -45.1211 -99.4131c-25.0029 -24.0928 -59.2119 -26.4971 -91.6035 -18.2871c-87.6113 22.1982 -104.239 133.83 -102.469 209.755
c1.88574 80.8916 21.9902 171.921 97.4043 215.331c33.0176 19.0068 75.2021 24.9824 108.836 4.1582c10.1328 -6.27344 19.623 -13.832 28.4883 -22.2119c0.685547 6.43945 1.3584 12.8828 2.06445 19.3135c0.131836 1.19141 0.544922 2.25586 1.08105 3.25977
c4.25195 117.126 27.0762 237.112 109.065 325.855c35.3662 38.2812 96.042 82.1299 148.372 46.4316c43.1807 -29.459 38.2988 -104.315 30.1064 -148.666c-18.6621 -101.056 -81.8193 -188.535 -157.289 -256.629c-0.1875 -12.2568 -0.24707 -24.4922 -0.170898 -36.7021
c0.34082 -53.0195 0.987305 -105.967 2.62598 -158.965c1.50195 -48.709 0.642578 -105.057 19.6582 -150.676c6.3584 -15.249 18.249 -38.6436 37.5664 -28.3525c21.1641 11.2783 34.5449 37.4902 46.1553 57.335c25.8203 44.1289 45.5762 91.3184 59.7822 140.397z
M372.332 669.366c-16.9131 -71.9502 -26.0078 -146.217 -29.5576 -220.409c52.5771 55.1221 94.9531 120.501 113.096 194.706c6.82227 27.9062 9.66992 57.0889 5.85645 85.6504c-2.23047 16.709 -7.66992 54.1611 -28.3789 57.6338
c-21.4961 3.60449 -35.9785 -37.418 -41.8008 -53.6797c-7.42188 -20.7305 -14.1719 -42.4521 -19.2148 -63.9014zM178.549 171.784c10.5635 61.1445 17.2783 122.971 23.7129 184.762c-19.415 26.0078 -58.9141 71.9287 -73.6182 45.0234
c-15.3506 -28.0889 -22.8623 -64.5742 -29.7656 -95.7275c-16.9346 -76.4014 -20.833 -156.633 -6.27344 -233.736c2.40039 -12.7119 5.74121 -33.5527 15.8018 -42.8643c11.8105 -10.9287 26.0342 9.83984 32.5244 19.9268
c22.9902 35.7451 30.5146 81.5176 37.6182 122.616z" />
    <glyph glyph-name="e" unicode="e" horiz-adv-x="301" 
d="M292.201 207.54c4.91992 14.2695 45.2998 10.9707 39.8184 -6.24902c-27.7656 -87.2588 -82.2617 -182.008 -177.509 -206.313c-44.3037 -11.3076 -86.7178 -7.23047 -123.19 22.3818c-37.8096 30.6973 -48.0361 79.2441 -54.1182 125.19
c-12.6484 95.5781 3.40918 216.628 75.8184 286.518c31.4385 30.3447 83.1309 53.7773 127.511 44.1934c38.6094 -8.33691 61.4043 -42.3965 59.4805 -81.1465c-3.9541 -79.7676 -72.2393 -147.023 -142.683 -175.215c-4.03906 -34.9492 -5.41406 -70.209 -3.60938 -105.729
c1.36621 -26.8887 3.13672 -60.791 22.2031 -81.9941c21.6279 -24.0547 58.7734 4.8125 77.6865 20.3809c48.9512 40.29 78.2744 99.085 98.5918 157.982zM119.489 329.99c-6.89062 -25.1943 -12.5625 -50.5986 -16.8945 -76.1807
c50.1211 31.0508 94.0244 87.3174 91.6367 145.61c-0.463867 11.3164 -6.64746 40.4951 -21.7432 42.6064c-10.7891 1.50684 -16.458 -17.0996 -20.1309 -24.0967c-14.6357 -27.8848 -24.5693 -57.5947 -32.8682 -87.9395z" />
    <glyph glyph-name="e" unicode="&#xeb;" horiz-adv-x="301" 
d="M292.201 207.54c4.91992 14.2695 45.2998 10.9707 39.8184 -6.24902c-27.7656 -87.2588 -82.2617 -182.008 -177.509 -206.313c-44.3037 -11.3076 -86.7178 -7.23047 -123.19 22.3818c-37.8096 30.6973 -48.0361 79.2441 -54.1182 125.19
c-12.6484 95.5781 3.40918 216.628 75.8184 286.518c31.4385 30.3447 83.1309 53.7773 127.511 44.1934c38.6094 -8.33691 61.4043 -42.3965 59.4805 -81.1465c-3.9541 -79.7676 -72.2393 -147.023 -142.683 -175.215c-4.03906 -34.9492 -5.41406 -70.209 -3.60938 -105.729
c1.36621 -26.8887 3.13672 -60.791 22.2031 -81.9941c21.6279 -24.0547 58.7734 4.8125 77.6865 20.3809c48.9512 40.29 78.2744 99.085 98.5918 157.982zM119.489 329.99c-6.89062 -25.1943 -12.5625 -50.5986 -16.8945 -76.1807
c50.1211 31.0508 94.0244 87.3174 91.6367 145.61c-0.463867 11.3164 -6.64746 40.4951 -21.7432 42.6064c-10.7891 1.50684 -16.458 -17.0996 -20.1309 -24.0967c-14.6357 -27.8848 -24.5693 -57.5947 -32.8682 -87.9395z" />
    <glyph glyph-name="e" unicode="&#xea;" horiz-adv-x="301" 
d="M292.201 207.54c4.91992 14.2695 45.2998 10.9707 39.8184 -6.24902c-27.7656 -87.2588 -82.2617 -182.008 -177.509 -206.313c-44.3037 -11.3076 -86.7178 -7.23047 -123.19 22.3818c-37.8096 30.6973 -48.0361 79.2441 -54.1182 125.19
c-12.6484 95.5781 3.40918 216.628 75.8184 286.518c31.4385 30.3447 83.1309 53.7773 127.511 44.1934c38.6094 -8.33691 61.4043 -42.3965 59.4805 -81.1465c-3.9541 -79.7676 -72.2393 -147.023 -142.683 -175.215c-4.03906 -34.9492 -5.41406 -70.209 -3.60938 -105.729
c1.36621 -26.8887 3.13672 -60.791 22.2031 -81.9941c21.6279 -24.0547 58.7734 4.8125 77.6865 20.3809c48.9512 40.29 78.2744 99.085 98.5918 157.982zM119.489 329.99c-6.89062 -25.1943 -12.5625 -50.5986 -16.8945 -76.1807
c50.1211 31.0508 94.0244 87.3174 91.6367 145.61c-0.463867 11.3164 -6.64746 40.4951 -21.7432 42.6064c-10.7891 1.50684 -16.458 -17.0996 -20.1309 -24.0967c-14.6357 -27.8848 -24.5693 -57.5947 -32.8682 -87.9395z" />
    <glyph glyph-name="e" unicode="&#xe9;" horiz-adv-x="301" 
d="M292.201 207.54c4.91992 14.2695 45.2998 10.9707 39.8184 -6.24902c-27.7656 -87.2588 -82.2617 -182.008 -177.509 -206.313c-44.3037 -11.3076 -86.7178 -7.23047 -123.19 22.3818c-37.8096 30.6973 -48.0361 79.2441 -54.1182 125.19
c-12.6484 95.5781 3.40918 216.628 75.8184 286.518c31.4385 30.3447 83.1309 53.7773 127.511 44.1934c38.6094 -8.33691 61.4043 -42.3965 59.4805 -81.1465c-3.9541 -79.7676 -72.2393 -147.023 -142.683 -175.215c-4.03906 -34.9492 -5.41406 -70.209 -3.60938 -105.729
c1.36621 -26.8887 3.13672 -60.791 22.2031 -81.9941c21.6279 -24.0547 58.7734 4.8125 77.6865 20.3809c48.9512 40.29 78.2744 99.085 98.5918 157.982zM119.489 329.99c-6.89062 -25.1943 -12.5625 -50.5986 -16.8945 -76.1807
c50.1211 31.0508 94.0244 87.3174 91.6367 145.61c-0.463867 11.3164 -6.64746 40.4951 -21.7432 42.6064c-10.7891 1.50684 -16.458 -17.0996 -20.1309 -24.0967c-14.6357 -27.8848 -24.5693 -57.5947 -32.8682 -87.9395z" />
    <glyph glyph-name="f" unicode="f" horiz-adv-x="367" 
d="M365.711 216.958c13.3291 7.72461 51.6025 -4.62109 30.1826 -17.2188c-68.4043 -40.21 -138.988 -78.0869 -211.479 -111.193c46.8789 -5.85156 89.9229 -28.6797 111.696 -74.9287c15.7549 -33.4551 12.0059 -73.0645 -9.56738 -103.094
c-22.5986 -31.4551 -62.7363 -45.4229 -100.346 -45.1416c-41.6562 0.310547 -87.3691 16.4062 -116.313 46.7676c-29.2422 30.6768 -47.9805 70.3457 -60.0547 110.603c-27.2842 90.9609 -31.8291 189.008 -32.0078 283.369
c-0.178711 95.877 10.6016 191.256 33.4258 284.4c20.7646 84.7393 54.1865 169.401 114.901 233.844c27.7822 29.4893 65.7529 53.8672 106.192 60.8975c34.6943 6.03027 76.5508 0.505859 98.877 -29.5488c22.1982 -29.8887 21.3086 -71.9199 19.3037 -107.337
c-2.44727 -43.1719 -11.2695 -85.9434 -23.8926 -127.238c-25.833 -84.5088 -67.4346 -163.072 -112.266 -238.822c-29.1572 -49.2656 -62.5615 -96.5693 -99.3789 -140.839c0.787109 -42.3115 3.02148 -84.6025 7.14941 -126.663
c0.629883 -6.41406 1.32324 -12.8789 2.06348 -19.3525c82.4238 36.7578 163.149 76.082 241.513 121.496zM115.759 343.26c-0.297852 -8.88672 -0.52832 -17.7832 -0.707031 -26.6826c63.9531 86.8408 117.99 180.798 154.318 282.854
c23.1602 65.0635 40.8438 139.984 29.0889 209.338c-5.26465 31.0508 -27.502 58.4072 -59.6377 37.7871c-24.5518 -15.7549 -40.0391 -46.3076 -51.3555 -72.1152c-27.5225 -62.7617 -40.167 -130.384 -50.5684 -197.716
c-11.9336 -77.2529 -18.5469 -155.361 -21.1387 -233.465zM201.629 58.3398c-23.8115 10.2061 -48.8574 9.96289 -72.9795 4.00488c7.74121 -48.9766 21.3389 -97.374 50.3252 -137.503c15.3428 -21.2373 33.5576 -36.3115 57.4629 -15.0703
c21.8242 19.3945 30.9316 50.8799 24.5352 79.1045c-6.9541 30.6807 -30.5996 57.1436 -59.3438 69.4639z" />
    <glyph glyph-name="g" unicode="g" horiz-adv-x="447" 
d="M434.164 199.271c6.55859 15.1172 50.2705 10.9023 42.9678 -6.75098c-27.3271 -65.9619 -78.3252 -112.359 -137.712 -147.521c0.357422 -52.2578 -0.710938 -104.494 -4.11133 -156.808c-3.92773 -60.4502 -11.3115 -126.042 -40.8047 -180.045
c-31.6465 -57.9395 -84.8281 -97.3535 -149.075 -112.027c-64.6934 -14.7764 -134.234 -4.10645 -193.157 25.5439c-51.4404 25.8838 -105.566 71.3965 -107.307 133.655c-1.80859 64.5703 47.3047 114.088 96.8984 147.781c57.3604 38.9707 123.51 62.791 188.522 85.5469
c30.6045 10.7119 62.375 21.8711 93.5664 34.6943c-2.07227 36.4258 -4.32324 72.8477 -6.71484 109.257c-0.931641 -4.29004 -1.85547 -8.58398 -2.83887 -12.8525c-8.00488 -34.7148 -18.5684 -73.8311 -45.1211 -99.4131
c-25.0029 -24.0928 -59.2119 -26.4971 -91.6035 -18.2871c-87.6113 22.1982 -104.239 133.83 -102.469 209.755c1.88574 80.8916 21.9902 171.921 97.4043 215.331c33.0176 19.0068 75.2021 24.9824 108.836 4.1582c7.91602 -4.90234 15.4404 -10.584 22.5859 -16.832
c0.374023 4.71973 0.808594 9.42676 1.32812 14.1123c5.14551 46.6064 110.479 45.4658 117.169 0c6.75391 -45.9336 5.97949 -93.0254 8.32422 -139.367c2.2041 -43.6104 4.11035 -87.2285 5.83008 -130.864c0.970703 -24.5605 1.71582 -49.0996 2.20996 -73.626
c40.3623 29.2041 74.1709 65.9277 95.2715 114.56zM180.704 171.784c9.71191 56.2158 16.165 113.012 22.1445 169.823c-0.200195 5.87305 -0.362305 11.7422 -0.438477 17.5986c-20.0156 26.3223 -57.3994 68.375 -71.6143 42.3633
c-15.3506 -28.0889 -22.8623 -64.5742 -29.7656 -95.7275c-16.9346 -76.4014 -20.833 -156.633 -6.27344 -233.736c2.4043 -12.7119 5.74512 -33.5527 15.8057 -42.8643c11.8105 -10.9287 26.0342 9.83984 32.5244 19.9268c22.9902 35.7451 30.5186 81.5176 37.6172 122.616
zM226.779 -199.417c5.47266 63.251 2.35059 127.79 -1.05859 191.092c-13.5547 -5.20508 -27.0801 -10.1416 -40.418 -14.8613c-60.7998 -21.5225 -122.791 -41.3887 -179.173 -73.291c-51.752 -29.2891 -109.704 -73.3838 -113.815 -137.971
c-4.11133 -64.6084 55.4795 -109.789 109.163 -132.018c56.6162 -23.4453 121.748 -22.6406 168.481 21.1611c39.3672 36.8945 52.335 94.0596 56.8203 145.888z" />
    <glyph glyph-name="h" unicode="h" horiz-adv-x="475" 
d="M459.725 211.511c4.91992 16.1514 50.6494 12.4824 44.7637 -7.03906c-14.6826 -48.6025 -29.3994 -97.3535 -49.5039 -144.054c-16.0918 -37.3838 -33.7881 -80.04 -76.2959 -92.5654c-35.8301 -10.5547 -78.1084 1.2002 -106.12 25.4414
c-19.8154 17.1465 -30.1953 34 -35.6807 59.374c-4.7793 22.0967 -5.08594 43.7979 -3.48535 66.2734c3.27246 45.9805 11.1797 92.416 20.2744 137.584c9.1377 45.3848 17.0234 91.459 27.2422 136.55c2.00879 8.86035 2.88574 19.1123 6.29492 27.458
c0.0976562 0.238281 0.242188 0.855469 0.424805 1.63477c-0.604492 -0.135742 -1.1875 -0.271484 -1.88574 -0.40332c-1.23438 -0.961914 -2.46875 -1.91992 -3.70312 -2.88184c-17.3857 -12.7676 -28.9238 -32.5361 -39.8398 -50.7168
c-22.084 -36.7881 -40.9971 -75.4102 -58.0205 -114.769c-33.46 -77.3672 -59.583 -157.616 -88.6338 -236.678c-0.335938 -3.80859 -0.671875 -7.63477 -0.978516 -11.5078c-2.16602 -27.4844 -63.8721 -28.6758 -73.0176 -5.62988
c-12.8184 32.3018 -22.0195 62.2842 -28.1055 96.6592c-5.3584 30.2676 -8.1543 60.918 -10.5801 91.5479c-4.82617 60.9912 -4.23438 122.527 -2.12793 183.633c3.74902 108.899 16.5205 219.863 64.3438 319.183c20.5986 42.7803 48.0273 85.4756 87.1641 113.479
c34.1318 24.4199 83.8789 34.6592 122.646 14.6309c39.8906 -20.6074 44.3936 -69.6865 38.4307 -109.471c-7.10742 -47.4229 -27.4893 -92.3818 -51.9346 -133.255c-36.001 -60.1826 -83.6494 -112.279 -139.524 -154.063
c-3.31152 -44.6357 -5.25684 -89.374 -6.08203 -133.967c-0.876953 -47.2188 -0.664062 -94.625 0.833984 -141.827c0.0214844 -0.667969 0.0341797 -1.33203 0.0556641 -1.99609c17.3516 48.5342 35.5498 96.7451 56.9609 143.662
c17.4619 38.2607 36.6094 76.8398 60.5908 111.504c19.6875 28.459 46.7803 53.9941 83.7217 52.249c37.29 -1.76172 64.8643 -31.2168 73.3506 -65.4424c11.0439 -44.5381 12.4102 -92.1104 9.07812 -137.661c-3.25977 -44.5977 -10.4434 -89.0244 -14.6357 -133.558
c-2.1748 -23.0928 -6.75 -46.3301 -7.70312 -69.4902c-0.553711 -13.3545 -8.66504 -36.3535 -0.131836 -48.8232c7.20996 -10.5371 29.8125 25.876 33.6426 32.8389c9.91211 18.0234 18.1514 37.0342 25.8037 56.1133c16.5088 41.1504 29.4512 83.6025 42.3682 125.982z
M117.773 565.175c-4.67676 -30.7998 -8.43457 -61.7959 -11.5156 -92.8809c39.0859 36.2002 72.4863 78.4443 98.3965 125.311c20.3174 36.7539 38.1025 76.751 41.8389 119.003c2.27734 25.7393 -5.40918 103.669 -48.3428 73.5801
c-30.2256 -21.1855 -45.5127 -63.2422 -55.5225 -97.0762c-12.3076 -41.6016 -18.3555 -85.1436 -24.8545 -127.937z" />
    <glyph glyph-name="i" unicode="i" horiz-adv-x="217" 
d="M204.929 214.702c4.26855 14.5342 44.5938 11.5605 40.2656 -6.32227c-8.7334 -36.1201 -17.5684 -72.1465 -28.6895 -107.623c-9.33789 -29.7822 -18.8496 -60.9102 -37.2178 -86.5557c-34.9531 -48.8154 -105.512 -45.6406 -143.768 -1.64355
c-45.2695 52.0703 -48.542 131.872 -48.5977 197.221c-0.0595703 74.0732 5.23438 148.641 19.6367 221.318c5.1582 26.0293 35.418 33.5283 58.8164 33.5283c19.334 0 58.9346 -7.49902 58.8154 -33.5283c-0.527344 -115.096 -22.2324 -229.855 -17.1211 -345.126
c1.04297 -23.5908 -0.357422 -54.833 10.8564 -76.1465c0.595703 -1.13184 0.830078 -1.92773 0.936523 -2.56152c0.289062 0.480469 0.709961 1.0293 1.50977 1.69727c4.14062 3.46875 8.27344 6.66895 11.8184 10.8223c8.75879 10.2695 15.0068 22.7861 20.5186 35.0176
c22.9053 50.832 36.5449 106.533 52.2197 159.902zM39.6016 511.857c-14.8271 14.6533 -23.3896 32.9053 -26.8154 53.4482c-2.44336 14.6533 -5.22266 36.9629 11.7754 43.2705c15.7549 5.84375 27.5479 2.33691 36.3828 -6.06836
c11.5547 16.4912 28.2246 27.2158 50.4746 23.6875c59.6846 -9.46973 -8.91992 -92.8428 -24.2451 -114.454c-7.21387 -10.167 -32.7363 -9.48145 -41.9805 -2.74414c-2.41699 0.710938 -4.38281 1.66406 -5.5918 2.86035z" />
    <glyph glyph-name="i" unicode="&#xef;" horiz-adv-x="217" 
d="M204.929 214.702c4.26855 14.5342 44.5938 11.5605 40.2656 -6.32227c-8.7334 -36.1201 -17.5684 -72.1465 -28.6895 -107.623c-9.33789 -29.7822 -18.8496 -60.9102 -37.2178 -86.5557c-34.9531 -48.8154 -105.512 -45.6406 -143.768 -1.64355
c-45.2695 52.0703 -48.542 131.872 -48.5977 197.221c-0.0595703 74.0732 5.23438 148.641 19.6367 221.318c5.1582 26.0293 35.418 33.5283 58.8164 33.5283c19.334 0 58.9346 -7.49902 58.8154 -33.5283c-0.527344 -115.096 -22.2324 -229.855 -17.1211 -345.126
c1.04297 -23.5908 -0.357422 -54.833 10.8564 -76.1465c0.595703 -1.13184 0.830078 -1.92773 0.936523 -2.56152c0.289062 0.480469 0.709961 1.0293 1.50977 1.69727c4.14062 3.46875 8.27344 6.66895 11.8184 10.8223c8.75879 10.2695 15.0068 22.7861 20.5186 35.0176
c22.9053 50.832 36.5449 106.533 52.2197 159.902zM39.6016 511.857c-14.8271 14.6533 -23.3896 32.9053 -26.8154 53.4482c-2.44336 14.6533 -5.22266 36.9629 11.7754 43.2705c15.7549 5.84375 27.5479 2.33691 36.3828 -6.06836
c11.5547 16.4912 28.2246 27.2158 50.4746 23.6875c59.6846 -9.46973 -8.91992 -92.8428 -24.2451 -114.454c-7.21387 -10.167 -32.7363 -9.48145 -41.9805 -2.74414c-2.41699 0.710938 -4.38281 1.66406 -5.5918 2.86035z" />
    <glyph glyph-name="i" unicode="&#xee;" horiz-adv-x="217" 
d="M204.929 214.702c4.26855 14.5342 44.5938 11.5605 40.2656 -6.32227c-8.7334 -36.1201 -17.5684 -72.1465 -28.6895 -107.623c-9.33789 -29.7822 -18.8496 -60.9102 -37.2178 -86.5557c-34.9531 -48.8154 -105.512 -45.6406 -143.768 -1.64355
c-45.2695 52.0703 -48.542 131.872 -48.5977 197.221c-0.0595703 74.0732 5.23438 148.641 19.6367 221.318c5.1582 26.0293 35.418 33.5283 58.8164 33.5283c19.334 0 58.9346 -7.49902 58.8154 -33.5283c-0.527344 -115.096 -22.2324 -229.855 -17.1211 -345.126
c1.04297 -23.5908 -0.357422 -54.833 10.8564 -76.1465c0.595703 -1.13184 0.830078 -1.92773 0.936523 -2.56152c0.289062 0.480469 0.709961 1.0293 1.50977 1.69727c4.14062 3.46875 8.27344 6.66895 11.8184 10.8223c8.75879 10.2695 15.0068 22.7861 20.5186 35.0176
c22.9053 50.832 36.5449 106.533 52.2197 159.902zM39.6016 511.857c-14.8271 14.6533 -23.3896 32.9053 -26.8154 53.4482c-2.44336 14.6533 -5.22266 36.9629 11.7754 43.2705c15.7549 5.84375 27.5479 2.33691 36.3828 -6.06836
c11.5547 16.4912 28.2246 27.2158 50.4746 23.6875c59.6846 -9.46973 -8.91992 -92.8428 -24.2451 -114.454c-7.21387 -10.167 -32.7363 -9.48145 -41.9805 -2.74414c-2.41699 0.710938 -4.38281 1.66406 -5.5918 2.86035z" />
    <glyph glyph-name="i" unicode="&#xed;" horiz-adv-x="217" 
d="M204.929 214.702c4.26855 14.5342 44.5938 11.5605 40.2656 -6.32227c-8.7334 -36.1201 -17.5684 -72.1465 -28.6895 -107.623c-9.33789 -29.7822 -18.8496 -60.9102 -37.2178 -86.5557c-34.9531 -48.8154 -105.512 -45.6406 -143.768 -1.64355
c-45.2695 52.0703 -48.542 131.872 -48.5977 197.221c-0.0595703 74.0732 5.23438 148.641 19.6367 221.318c5.1582 26.0293 35.418 33.5283 58.8164 33.5283c19.334 0 58.9346 -7.49902 58.8154 -33.5283c-0.527344 -115.096 -22.2324 -229.855 -17.1211 -345.126
c1.04297 -23.5908 -0.357422 -54.833 10.8564 -76.1465c0.595703 -1.13184 0.830078 -1.92773 0.936523 -2.56152c0.289062 0.480469 0.709961 1.0293 1.50977 1.69727c4.14062 3.46875 8.27344 6.66895 11.8184 10.8223c8.75879 10.2695 15.0068 22.7861 20.5186 35.0176
c22.9053 50.832 36.5449 106.533 52.2197 159.902zM39.6016 511.857c-14.8271 14.6533 -23.3896 32.9053 -26.8154 53.4482c-2.44336 14.6533 -5.22266 36.9629 11.7754 43.2705c15.7549 5.84375 27.5479 2.33691 36.3828 -6.06836
c11.5547 16.4912 28.2246 27.2158 50.4746 23.6875c59.6846 -9.46973 -8.91992 -92.8428 -24.2451 -114.454c-7.21387 -10.167 -32.7363 -9.48145 -41.9805 -2.74414c-2.41699 0.710938 -4.38281 1.66406 -5.5918 2.86035z" />
    <glyph glyph-name="j" unicode="j" horiz-adv-x="208" 
d="M194.618 199.271c6.55859 15.1172 50.2734 10.9023 42.9619 -6.75098c-27.3271 -65.9619 -78.3252 -112.359 -137.712 -147.521c0.357422 -52.2578 -0.710938 -104.494 -4.11133 -156.808c-3.92773 -60.4502 -11.3115 -126.042 -40.8047 -180.045
c-31.6465 -57.9395 -84.8281 -97.3535 -149.075 -112.027c-64.6934 -14.7764 -134.234 -4.10645 -193.157 25.5439c-51.4404 25.8838 -105.562 71.3965 -107.308 133.656c-1.80469 64.5703 47.3086 114.088 96.9023 147.781c57.3604 38.9707 123.51 62.791 188.522 85.5469
c30.6045 10.7119 62.375 21.8711 93.5664 34.6943c-3.51953 61.9062 -7.5625 123.795 -11.874 185.649c-5.00879 71.8652 -14.6445 147.815 -6.71582 219.578c5.14551 46.6064 110.479 45.4658 117.169 0c6.75391 -45.9336 5.97949 -93.0254 8.32422 -139.367
c2.2041 -43.6104 4.11035 -87.2285 5.83008 -130.864c0.970703 -24.5605 1.71582 -49.0996 2.20996 -73.626c40.3623 29.2041 74.1709 65.9277 95.2715 114.56zM-12.7598 -199.414c5.46875 63.251 2.3457 127.79 -1.05859 191.092
c-13.5547 -5.20508 -27.0801 -10.1416 -40.418 -14.8613c-60.7998 -21.5225 -122.791 -41.3887 -179.173 -73.291c-51.752 -29.2891 -109.704 -73.3838 -113.815 -137.971c-4.11133 -64.6084 55.4795 -109.789 109.163 -132.018
c56.6162 -23.4453 121.748 -22.6406 168.481 21.1611c39.3672 36.8945 52.3389 94.0596 56.8203 145.888zM-5.2002 510.312c-17.9688 14.249 -60.2119 81.1562 -22.8115 94.0303c13.376 4.60449 24.2539 2.34863 33.1191 -3.86914
c9.5459 18.6152 25.3398 31.7236 49.1094 29.4082c59.4717 -5.79199 1.5918 -94.5615 -11.5928 -118.748c-6.00977 -11.0225 -31.7109 -11.001 -41.3467 -3.66797c-2.68945 0.689453 -4.95801 1.64258 -6.47754 2.84668z" />
    <glyph glyph-name="k" unicode="k" horiz-adv-x="428" 
d="M416.071 192.487c6.84375 13.751 47.0117 8.95996 39.3809 -6.2041c-39.7754 -78.8789 -75.8359 -206.947 -182.837 -211.497c-52.3604 -2.22559 -111.092 29.8594 -128.592 80.9385c-8.83496 25.7822 -12.584 53.1943 -17.623 79.8574
c-1.02539 5.42578 -1.96582 10.8945 -2.77441 16.3887c-10.3252 -34.5703 -18.8535 -69.6387 -25.5947 -105.107c-0.859375 -13.8184 -2.33594 -27.4883 -3.45117 -41.6514c-2.16602 -27.4844 -63.8721 -28.6758 -73.0176 -5.62988
c-12.8184 32.3018 -22.0195 62.2842 -28.1055 96.6592c-5.3584 30.2676 -8.1543 60.918 -10.5801 91.5479c-4.82617 60.9912 -4.23438 122.527 -2.12793 183.633c3.75391 108.899 16.5254 219.863 64.3486 319.183c20.5986 42.7803 48.0273 85.4756 87.1641 113.479
c34.1318 24.4199 83.8789 34.6592 122.646 14.6309c39.8857 -20.6074 44.3926 -69.6865 38.4297 -109.471c-7.10742 -47.4229 -27.4893 -92.3818 -51.9346 -133.255c-36.001 -60.1826 -83.6494 -112.279 -139.524 -154.063
c-3.31152 -44.6357 -5.25684 -89.374 -6.08203 -133.967c-0.527344 -28.3574 -0.608398 -56.7783 -0.306641 -85.1816c2.85156 8.21777 5.79199 16.4102 8.85156 24.5557c21.3857 56.9395 46.1299 115.653 82.5684 164.779c26.4756 35.6895 81.2363 90.9092 129.043 56.4795
c44.4062 -31.9785 -16.9551 -102.703 -40.2988 -129.655c-33.6006 -38.7881 -74.4658 -72.9375 -116.497 -102.882c20.2627 -7.3584 37.75 -14.376 53.0205 -32.042c15.5596 -18.002 25.8672 -38.1152 32.6934 -60.8291c6.32812 -21.0537 11.7285 -42.2139 18.6143 -63.127
c4.69824 -14.2783 8.89062 -33.6592 17.3389 -46.1719c20.96 -31.042 70.3496 46.5898 79.3936 62.4854c21.2578 37.3662 36.7197 77.6826 55.8545 116.117zM227.396 382.352c-26.4033 -35.3838 -46.5342 -76.4473 -63.6553 -118.023
c28.5273 22.8711 56.1562 46.6016 79.8916 75.2607c15.3467 18.5303 46.1504 54.1816 43.2734 80.291c-2.43848 22.1348 -18.3389 5.62207 -28.5186 -3.39648c-11.5205 -10.2061 -21.7939 -21.8115 -30.9912 -34.1318zM117.776 565.178
c-4.67285 -30.7998 -8.43555 -61.7959 -11.5166 -92.8809c39.0859 36.2002 72.4863 78.4443 98.3965 125.311c20.3174 36.7539 38.1025 76.751 41.8389 119.003c2.27734 25.7393 -5.41309 103.669 -48.3418 73.5801c-30.2256 -21.1855 -45.5127 -63.2422 -55.5225 -97.0762
c-12.3076 -41.6016 -18.3555 -85.1436 -24.8545 -127.937z" />
    <glyph glyph-name="l" unicode="l" horiz-adv-x="288" 
d="M278.383 221.674c4.20508 14.5254 45.0928 11.4385 40.2754 -6.33008c-17.377 -64.0469 -43.7803 -133.413 -86.1982 -185.42c-39.5879 -48.5342 -112.896 -46.7676 -161.417 -12.2314c-54.6025 38.8604 -69.9795 110.746 -78.5469 173.223
c-8.94629 65.2383 -11.0059 132.821 -10.7969 198.617c0.408203 129.902 18.0273 268.542 109.882 367.968c35.3662 38.2812 96.042 82.1299 148.372 46.4316c43.1807 -29.459 38.2988 -104.315 30.1064 -148.666c-18.6621 -101.056 -81.8193 -188.535 -157.289 -256.629
c-0.1875 -12.2568 -0.24707 -24.4922 -0.170898 -36.7021c0.34082 -53.0195 0.983398 -105.967 2.62207 -158.965c1.50195 -48.709 0.637695 -105.057 19.6572 -150.676c6.3584 -15.249 18.249 -38.6436 37.5664 -28.3525c21.1602 11.2783 34.5449 37.4902 46.1553 57.335
c25.8203 44.1289 45.5762 91.3184 59.7822 140.397zM143.932 669.366c-16.917 -71.9502 -26.0078 -146.217 -29.5576 -220.409c52.5771 55.1221 94.9531 120.501 113.096 194.706c6.82227 27.9062 9.66992 57.0889 5.85645 85.6504
c-2.23047 16.709 -7.66992 54.1611 -28.3789 57.6338c-21.4961 3.60449 -35.9785 -37.418 -41.8008 -53.6797c-7.42188 -20.7305 -14.1719 -42.4521 -19.2148 -63.9014z" />
    </font>
</defs>
</svg>
