<?xml version="1.0" standalone="no"?>
<!DOCTYPE svg PUBLIC "-//W3C//DTD SVG 1.1//EN" "http://www.w3.org/Graphics/SVG/1.1/DTD/svg11.dtd" >
<svg xmlns="http://www.w3.org/2000/svg" xmlns:xlink="http://www.w3.org/1999/xlink" version="1.1">
<metadata>
Created by FontForge 20170812 at Tue May 24 10:11:36 2022
 By www-data
</metadata>
<defs>
<font id="InsideRegular" horiz-adv-x="150" >
  <font-face 
    font-family="Inside"
    font-weight="400"
    font-stretch="normal"
    units-per-em="1000"
    panose-1="0 0 0 0 0 0 0 0 0 0"
    ascent="800"
    descent="-200"
    x-height="151.81"
    cap-height="712.495"
    bbox="-137.999 -334.144 1096.33 842.48"
    underline-thickness="50"
    underline-position="-100"
    unicode-range="U+000A-20AC"
  />
<missing-glyph horiz-adv-x="527" 
d="M50 700h427v-700h-427v700zM78 680l185 -309l186 309h-371zM251 350l-180 300v-601zM264 329l-185 -308h370zM276 350l181 -303v605z" />
    <glyph glyph-name=".notdef" horiz-adv-x="527" 
d="M50 700h427v-700h-427v700zM78 680l185 -309l186 309h-371zM251 350l-180 300v-601zM264 329l-185 -308h370zM276 350l181 -303v605z" />
    <glyph glyph-name=".null" horiz-adv-x="0" 
 />
    <glyph glyph-name=".null" horiz-adv-x="0" 
 />
    <glyph glyph-name="LF" unicode="&#xa;" horiz-adv-x="0" 
 />
    <glyph glyph-name="controlCR" unicode="&#xd;" horiz-adv-x="0" 
 />
    <glyph glyph-name="space" unicode=" " horiz-adv-x="425" 
 />
    <glyph glyph-name="exclam" unicode="!" 
d="M99.2734 273.277c1.32324 -39.0361 1.16797 -78.2695 -0.0693359 -117.311c-1.18164 -37.2041 1.30273 -78.6436 -10.7344 -114.326c-2.61621 -7.75 -22.9199 -7.73438 -25.582 0.000976562c-12.2598 35.6221 -10.0332 77.1123 -11.4551 114.326
c-1.49316 39.0303 -1.90332 78.2637 -0.828125 117.31c0.526367 19.1299 48.0215 19.041 48.6689 0zM96.958 -0.551758c1.62695 -10.5059 0.105469 -21.6543 1.14258 -32.3174c0.844727 -8.68945 -13.958 -11.0225 -19.5908 -11.167
c-7.08984 -0.182617 -18.7568 2.59863 -19.5889 11.166c-1.10547 11.3818 -1.77832 24.2588 2.66211 35.0479c4.75977 11.5664 33.3633 10.251 35.375 -2.72949z" />
    <glyph glyph-name="quotedbl" unicode="&#x22;" horiz-adv-x="199" 
d="M73.9727 320.116c6.18457 0 21.6777 -2.75098 20.7773 -11.8398c-0.913086 -9.21289 -2.1123 -18.3682 -3.13965 -27.5635c-0.882812 -7.90234 -0.0576172 -18.1201 -3.95215 -25.1143c-4.67383 -8.39551 -19.6689 -8.39551 -26.9609 -4.05859
c-9.99512 5.94141 -10.668 14.459 -10.6963 25.4766c-0.0253906 10.6807 0.862305 20.835 3.19531 31.2578c2.05176 9.16699 12.3174 11.8418 20.7764 11.8418zM128.375 320.115c6.18457 0 21.6777 -2.75098 20.7773 -11.8398
c-0.913086 -9.21289 -2.1123 -18.3682 -3.13965 -27.5635c-0.882812 -7.90234 -0.0576172 -18.1201 -3.95215 -25.1143c-4.67383 -8.39551 -19.6689 -8.39551 -26.9609 -4.05859c-9.99512 5.94141 -10.668 14.459 -10.6963 25.4766
c-0.0253906 10.6807 0.862305 20.835 3.19531 31.2578c2.05176 9.16699 12.3174 11.8418 20.7764 11.8418z" />
    <glyph glyph-name="quotedbl" unicode="&#x201d;" horiz-adv-x="199" 
d="M73.9727 320.116c6.18457 0 21.6777 -2.75098 20.7773 -11.8398c-0.913086 -9.21289 -2.1123 -18.3682 -3.13965 -27.5635c-0.882812 -7.90234 -0.0576172 -18.1201 -3.95215 -25.1143c-4.67383 -8.39551 -19.6689 -8.39551 -26.9609 -4.05859
c-9.99512 5.94141 -10.668 14.459 -10.6963 25.4766c-0.0253906 10.6807 0.862305 20.835 3.19531 31.2578c2.05176 9.16699 12.3174 11.8418 20.7764 11.8418zM128.375 320.115c6.18457 0 21.6777 -2.75098 20.7773 -11.8398
c-0.913086 -9.21289 -2.1123 -18.3682 -3.13965 -27.5635c-0.882812 -7.90234 -0.0576172 -18.1201 -3.95215 -25.1143c-4.67383 -8.39551 -19.6689 -8.39551 -26.9609 -4.05859c-9.99512 5.94141 -10.668 14.459 -10.6963 25.4766
c-0.0253906 10.6807 0.862305 20.835 3.19531 31.2578c2.05176 9.16699 12.3174 11.8418 20.7764 11.8418z" />
    <glyph glyph-name="quotedbl" unicode="&#x201c;" horiz-adv-x="199" 
d="M73.9727 320.116c6.18457 0 21.6777 -2.75098 20.7773 -11.8398c-0.913086 -9.21289 -2.1123 -18.3682 -3.13965 -27.5635c-0.882812 -7.90234 -0.0576172 -18.1201 -3.95215 -25.1143c-4.67383 -8.39551 -19.6689 -8.39551 -26.9609 -4.05859
c-9.99512 5.94141 -10.668 14.459 -10.6963 25.4766c-0.0253906 10.6807 0.862305 20.835 3.19531 31.2578c2.05176 9.16699 12.3174 11.8418 20.7764 11.8418zM128.375 320.115c6.18457 0 21.6777 -2.75098 20.7773 -11.8398
c-0.913086 -9.21289 -2.1123 -18.3682 -3.13965 -27.5635c-0.882812 -7.90234 -0.0576172 -18.1201 -3.95215 -25.1143c-4.67383 -8.39551 -19.6689 -8.39551 -26.9609 -4.05859c-9.99512 5.94141 -10.668 14.459 -10.6963 25.4766
c-0.0253906 10.6807 0.862305 20.835 3.19531 31.2578c2.05176 9.16699 12.3174 11.8418 20.7764 11.8418z" />
    <glyph glyph-name="numbersign" unicode="#" horiz-adv-x="362" 
d="M304.354 151.719c16.7988 -5.50879 2.81738 -17.4775 -8.33398 -17.5488c-14.1348 -0.0986328 -28.3047 1.9834 -42.4873 3.01367c-2.47754 -9.30176 -4.91406 -18.6162 -7.25684 -27.958c-2.6748 -10.6553 -5.2207 -21.3584 -7.71582 -32.0869
c7.56543 -0.222656 15.124 -0.491211 22.6719 -0.817383c5.23828 -0.227539 16.5264 -1.94824 16.5264 -9.41992c0 -7.11816 -11.0801 -9.71387 -16.5254 -9.41992c-8.98047 0.483398 -17.958 0.845703 -26.9336 1.11914
c-10.5312 -46.2773 -20.625 -92.7979 -35.1924 -137.798c-4.07129 -12.5811 -41.1709 -12.0195 -40.4219 3.11719c2.24414 45.3164 11.0469 90.6201 21.3301 135.266c-5.49121 -0.0351562 -10.9824 -0.09375 -16.4736 -0.177734
c-10.5645 -46.4141 -20.6787 -93.0742 -35.2861 -138.208c-4.07129 -12.5811 -41.1709 -12.0195 -40.4219 3.11719c2.2168 44.7773 10.835 89.5439 20.959 133.668c-16.417 -0.569336 -32.8369 -1.22949 -49.2666 -1.89746
c-9.9873 -0.407227 -13.9854 9.54199 -2.71289 11.4199c18.5117 3.08496 37.1455 5.36719 55.8447 7.0293c3.25391 13.7168 6.58887 27.3652 9.86816 40.9229c1.60156 6.62207 3.21582 13.249 4.83496 19.8809c-12.8184 0.0585938 -25.6045 0.683594 -38.2988 2.36914
c-10.6504 1.41699 -11.0859 12.2617 0 13.2793c14.2764 1.31055 28.6084 2.33301 42.9551 3.20898c12.5781 50.6045 26.1582 101.169 43.3643 150.268c6.46484 18.4434 57.834 14.6475 51.6982 -8.12305c-12.5508 -46.5762 -26.3916 -92.7549 -39.1475 -139.258
c2.98047 0.141602 5.96094 0.28125 8.93945 0.422852c2.29492 0.108398 4.58984 0.189453 6.88477 0.285156c12.3281 49.4053 25.6758 98.7373 42.4746 146.672c6.46484 18.4434 57.834 14.6475 51.6982 -8.12305c-12.4668 -46.2695 -26.2041 -92.1475 -38.8916 -138.342
c15.1543 -0.518555 31.083 -1.21191 45.3164 -5.88086zM193.381 115.059c1.79395 7.41602 3.59863 14.8398 5.41504 22.2637c-2.25977 -0.0712891 -4.52148 -0.131836 -6.78125 -0.212891c-3.14746 -0.111328 -6.2998 -0.243164 -9.45508 -0.379883
c-2.43457 -9.15234 -4.82812 -18.3174 -7.13574 -27.5098c-2.65723 -10.5996 -5.19238 -21.25 -7.6748 -31.9209c5.53125 0.157227 11.0625 0.28418 16.5967 0.355469c2.98828 12.5303 6.03711 25.0078 9.03516 37.4043z" />
    <glyph glyph-name="dollar" unicode="$" horiz-adv-x="325" 
d="M250.271 15.9482c16.085 -14.8633 32.6162 -33.1338 19.9775 -55.2266c-10.4229 -18.2158 -37.5127 -25.7461 -56.8447 -27.4814c-3.66602 -0.329102 -7.33984 -0.417969 -10.9961 -0.314453c1.7002 -22.3457 3.74707 -44.6709 6.21875 -66.958
c0.839844 -7.57617 -19.3525 -8.06738 -20.2031 -0.000976562c-2.44727 23.1982 -4.42871 46.4346 -6.04297 69.6885c-32.3203 8.01074 -59.0508 32.9805 -59.8525 69.4102c-0.15918 7.33301 18.5098 7.39844 18.8213 0c1.0498 -25.0576 17.2441 -47.585 40.1768 -56.585
c-1.60645 25.5918 -2.70508 51.207 -3.30469 76.8291c-71.1885 43.1934 -150.613 93.5498 -122.372 184.595c15.0557 48.542 61.4678 87.2129 111.766 93.8252c7.88965 1.03516 15.9893 1.19238 24.0459 0.501953c1.70508 14.2051 3.51465 28.4004 5.53418 42.5732
c1.00684 7.05762 18.5244 6.49121 17.6338 0.000976562c-2.07715 -15.1338 -3.91699 -30.293 -5.63477 -45.4648c29.2559 -7.21191 55.3438 -26.1211 65.1611 -55.9258c3.01367 -9.15527 -17.9023 -10.5068 -21.0068 -3.30273
c-8.32227 19.3115 -25.7793 34.9014 -46.3027 39.5752c-7.74316 -75.1113 -11.1006 -150.6 -10.1064 -226.052c18.4258 -12.2998 36.9355 -24.5361 53.332 -39.6875zM177.684 68.7402c-0.0810547 71.5 3.74316 142.989 11.499 214.117
c-23.8818 -2.09473 -44.6357 -17.5225 -59.0029 -35.999c-32.2295 -41.4443 -32.0273 -99.2021 2.30176 -138.951c13.3047 -15.4072 28.9141 -27.7275 45.2021 -39.167zM244.744 -42.417c13.9727 11.9209 2.48926 22.2227 -8.72266 30.5654
c-11.3027 8.41113 -24.3164 16.7109 -38.0967 25.1748c0.801758 -23.0186 2.04395 -46.0244 3.66113 -69.0098c15.0303 -0.561523 31.9863 3.74023 43.1582 13.2695z" />
    <glyph glyph-name="percent" unicode="%" horiz-adv-x="391" 
d="M321.285 312.597c6.78906 -1.08594 24.668 -8.11719 18.1699 -18.2412c-42.3174 -65.9229 -86.5811 -130.672 -130.409 -195.601c-22.29 -33.0186 -44.6377 -65.9971 -67.542 -98.5957c-10.5488 -15.0127 -21.2549 -29.9697 -32.4033 -44.5391
c-10.4551 -13.666 -20.9102 -27.1348 -37.0537 -34.3389c-4.3418 -1.93555 -26.207 -3.46387 -21.3438 7.08301c13.9521 30.2559 33.4609 59.2002 51.2539 87.3047c20.1289 31.7939 40.46 63.4385 60.9883 94.9766c41.7207 64.0908 83.1582 128.476 126.339 191.595
c6.85938 10.0273 20.6426 12.1729 32.001 10.3564zM114.648 117.548c-43.5625 7.48242 -44.9238 55.127 -39.6455 93.1504c-3.7373 3.35547 -5.10156 9.29395 -2.3584 16.6191c6.50781 17.3682 27.8711 27.6816 44.668 31.7051
c40.291 9.64844 70.6953 -22.3584 71.0449 -61.7764c0.359375 -40.4805 -27.4893 -87.6357 -73.709 -79.6982zM152.133 239.572c-9.11719 11.7988 -23.2773 11.2246 -35.749 6.21484c6.66016 -2.08789 11.1895 -6.04297 10.0332 -11.625
c-5.14941 -24.8662 -11.1211 -53.4668 -4.03906 -78.5352c1.2627 -4.46582 4.35254 -8.34473 5.61523 -12.6182c0.0605469 -0.0712891 0.124023 -0.142578 0.18457 -0.210938c1.32812 0.900391 2.60645 1.79102 2.76855 1.92773
c8.46875 7.06934 14.499 17.3701 18.9805 27.2939c8.32715 18.4385 15.9102 49.8203 2.20605 67.5527zM268.111 108.229c40.2881 9.64844 70.6934 -22.3574 71.0449 -61.7754c0.359375 -40.4805 -27.4893 -87.6357 -73.709 -79.6982
c-43.5625 7.48242 -44.9238 55.126 -39.6455 93.1494c-3.7373 3.35547 -5.10352 9.29395 -2.3584 16.6191c6.50781 17.3682 27.8711 27.6816 44.668 31.7051zM300.724 21.2266c8.32715 18.4385 15.9102 49.8213 2.20605 67.5566
c-9.11719 11.7969 -23.2773 11.2197 -35.749 6.21191c6.66016 -2.08789 11.1895 -6.04297 10.0332 -11.625c-5.14941 -24.8662 -11.1211 -53.4668 -4.03906 -78.5352c1.2627 -4.46875 4.35254 -8.3457 5.61523 -12.6221
c0.0605469 -0.0683594 0.124023 -0.139648 0.18457 -0.208008c1.32812 0.900391 2.60645 1.79102 2.76855 1.92773c8.46875 7.06934 14.499 17.3701 18.9805 27.2939z" />
    <glyph glyph-name="ampersand" unicode="&#x26;" horiz-adv-x="384" 
d="M293.751 94.8213c22.1406 -3.15527 41.8848 -18.2061 40.3057 -42.3555c-1.60449 -24.4531 -18.5625 -46.1533 -35.4648 -62.5703c-19.9346 -19.3623 -44.5146 -33.6406 -70.9287 -42.6943c0.582031 -7.50781 1.19434 -15.0107 1.8623 -22.5107
c0.675781 -7.58594 -19.332 -7.96582 -20.0049 0c-0.475586 5.61719 -0.893555 11.2344 -1.31836 16.8545c-16.4199 -3.92188 -33.2646 -5.93555 -49.9375 -5.9082c-24.2637 0.0400391 -55.2373 2.55566 -72.8027 21.5986
c-17.4795 18.9521 -14.542 46.6416 -3.32031 67.9775c9.81055 18.6514 23.877 36.1309 38.7607 51.708c-9.54492 0.379883 -19.0156 1.94629 -28.2539 4.94727c-39.3398 12.7832 -49.7822 51.4775 -38.1953 87.9521c11.5332 36.3057 41.1357 65.2305 73.5039 83.8486
c24.6807 14.1982 54.541 26.5215 84.3057 31.2783c1.11816 11.2451 2.2998 22.4795 3.61523 33.707c0.855469 7.29492 18.9902 6.79883 18.2256 0c-1.19141 -10.5791 -2.26172 -21.1689 -3.28125 -31.7637c5.67578 0.255859 11.3086 0.217773 16.8574 -0.219727
c31.5107 -2.4873 66.8037 -24.8301 61.3535 -60.7559c-1.27246 -8.39355 -22.209 -8.1123 -21.3896 0c1.79688 17.748 -9.66016 33.75 -25.8516 40.625c-10.1699 4.31934 -21.4678 4.43555 -32.6162 2.71777c-3.7959 -43.6104 -6.09863 -87.3223 -6.97168 -131.062
c2.05762 -0.496094 4.04395 -1.10352 5.81738 -1.89258c6.11816 -2.72266 14.0156 -11.3691 6.10352 -17.4268c-3.9248 -3.00391 -8.03125 -5.93945 -12.2773 -8.7832c-0.0527344 -9.67578 -0.0400391 -19.3516 0.0488281 -29.0273
c22.3428 9.91406 48.2031 17.1279 71.8545 13.7549zM156.312 -43.6299c17.0391 -0.976562 34.0625 0.996094 50.4639 5.38379c-1.99609 30.4961 -3.29395 61.0244 -3.86621 91.5605c-12.6338 -8.49707 -23.957 -17.4697 -20.541 -20.0908
c6.9082 -5.30078 -10.3262 -10.0625 -15.0879 -6.63672c-18.2949 13.1582 17.9297 35.3945 35.3535 44.9238c-0.0859375 8.98535 -0.106445 17.9678 -0.0683594 26.9531c-6.95312 -3.74023 -14.1592 -7.13574 -21.5381 -10.0781
c-20.1592 -16.7207 -37.6611 -38.0742 -51.2568 -57.3779c-10.4502 -14.8379 -20.1191 -33.3779 -14.6943 -51.9814c5.50879 -18.8916 24.0693 -21.6748 41.2354 -22.6562zM203.158 137.99c1.03516 42.3633 3.4248 84.6943 7.19531 126.929
c-2.82129 -0.825195 -5.58691 -1.68066 -8.25879 -2.53125c-33.332 -10.6221 -65.3135 -28.6504 -84.6504 -58.7393c-14.9238 -23.2236 -28.2559 -62.6846 -7.62305 -86.7891c9.06348 -10.5898 20.3057 -8.71484 32.3379 -5.01074
c18.9805 5.84277 37.0244 14.54 54.7441 23.3984c1.87012 1.20996 4.00586 2.08301 6.25488 2.74316zM302.859 25.6357c11.5078 16.6494 17.5869 43.4971 -4.31543 54.8252c-19.2305 9.94727 -49.2021 -1.7832 -67.4385 -10.0166
c-1.15137 -0.518555 -4.5293 -2.39355 -9.01074 -5.04492c0.553711 -32.4268 1.90527 -64.8428 4.06641 -97.2188c11.9658 4.75488 23.4414 10.7773 34.1299 17.9258c15.8936 10.6279 31.6123 23.6816 42.5684 39.5293z" />
    <glyph glyph-name="quotesingle" unicode="'" horiz-adv-x="145" 
d="M73.9727 320.116c6.18457 0 21.6777 -2.75098 20.7773 -11.8398c-0.913086 -9.21289 -2.1123 -18.3682 -3.13965 -27.5635c-0.882812 -7.90234 -0.0576172 -18.1201 -3.95215 -25.1143c-4.67383 -8.39551 -19.6689 -8.39551 -26.9609 -4.05859
c-9.99512 5.94141 -10.668 14.459 -10.6963 25.4766c-0.0253906 10.6807 0.862305 20.835 3.19531 31.2578c2.05176 9.16699 12.3174 11.8418 20.7764 11.8418z" />
    <glyph glyph-name="quotesingle" unicode="&#x2019;" horiz-adv-x="145" 
d="M73.9727 320.116c6.18457 0 21.6777 -2.75098 20.7773 -11.8398c-0.913086 -9.21289 -2.1123 -18.3682 -3.13965 -27.5635c-0.882812 -7.90234 -0.0576172 -18.1201 -3.95215 -25.1143c-4.67383 -8.39551 -19.6689 -8.39551 -26.9609 -4.05859
c-9.99512 5.94141 -10.668 14.459 -10.6963 25.4766c-0.0253906 10.6807 0.862305 20.835 3.19531 31.2578c2.05176 9.16699 12.3174 11.8418 20.7764 11.8418z" />
    <glyph glyph-name="quotesingle" unicode="&#x2018;" horiz-adv-x="145" 
d="M73.9727 320.116c6.18457 0 21.6777 -2.75098 20.7773 -11.8398c-0.913086 -9.21289 -2.1123 -18.3682 -3.13965 -27.5635c-0.882812 -7.90234 -0.0576172 -18.1201 -3.95215 -25.1143c-4.67383 -8.39551 -19.6689 -8.39551 -26.9609 -4.05859
c-9.99512 5.94141 -10.668 14.459 -10.6963 25.4766c-0.0253906 10.6807 0.862305 20.835 3.19531 31.2578c2.05176 9.16699 12.3174 11.8418 20.7764 11.8418z" />
    <glyph glyph-name="parenleft" unicode="(" horiz-adv-x="283" 
d="M228.308 -95.4834c6.7334 -5.33105 6.25879 -13.7578 -1.85352 -17.7686c-41.8877 -20.7031 -96.293 -7.88965 -127.282 26.4873c-26.9658 29.9141 -38.5576 70.7842 -44.6758 109.754c-7.11523 45.3213 -5.53906 91.3252 3.00879 136.32
c8.0918 42.6035 21.2803 85.3965 44.6504 122.256c18.8916 29.7949 49.8457 55.8242 86.5488 57.0283c11.4678 0.374023 11.0957 -9.96777 0 -10.6152c-22.6973 -1.32617 -36.1787 -18.998 -46.9375 -37.0039c-11.2471 -18.8232 -19.5059 -39.3115 -25.541 -60.3535
c-12.7002 -44.2861 -17.6191 -91.2598 -17.2246 -137.221c0.376953 -43.9746 6.5127 -90.665 24.4629 -131.179c12.0693 -27.2393 39.5713 -65.374 74.2168 -54.2207c9.34961 3.01074 22.5479 2.91211 30.627 -3.48438z" />
    <glyph glyph-name="parenright" unicode=")" horiz-adv-x="284" 
d="M190.132 265.62c41.0977 -77.0791 53.6475 -176.062 34.875 -261.12c-8.26172 -37.4414 -21.5996 -76.8564 -52.3838 -101.952c-31.8955 -26.002 -78.6689 -34.2764 -116.055 -15.7969c-8.32227 4.11426 -8.50195 12.4971 -1.85742 17.7676
c8.0918 6.41699 21.1992 6.52051 30.627 3.48438c34.6377 -11.1484 62.1504 26.9844 74.2197 54.2207c17.9551 40.5215 24.0859 87.1934 24.4629 131.179c0.394531 45.9609 -4.52441 92.9346 -17.2246 137.221c-6.03516 21.042 -14.2939 41.5303 -25.541 60.3535
c-10.7461 17.9805 -24.2656 35.6777 -46.9375 37.0039c-11.1689 0.65332 -11.3916 10.9873 0 10.6152c44.0283 -1.44531 76.4248 -36.6094 95.8145 -72.9756z" />
    <glyph glyph-name="asterisk" unicode="*" horiz-adv-x="209" 
d="M150.505 261.369c11.8623 0.25293 11.709 -10.8281 -0.00195312 -11.0586c-9.53418 -0.192383 -19.0713 0.0078125 -28.6055 0.255859c8.26953 -9.84277 16.4219 -19.7773 24.1045 -30.1016c5.98633 -8.04395 -12.877 -11.2852 -17.1025 -5.69824
c-4.06348 5.37402 -8.21582 10.6797 -12.3955 15.9609c0.250977 -6.62207 0.489258 -13.2412 0.691406 -19.8633c0.232422 -7.62695 -19.373 -7.72266 -19.6113 0c-0.265625 8.66602 -0.478516 17.3379 -0.667969 26.0098
c-5.03809 -5.8877 -9.9541 -11.9053 -14.6533 -18.1523c-4.36523 -5.80469 -27.4316 -3.30176 -22.4365 5.39258c5.69043 9.90918 13.1426 18.6387 21.3457 26.8037c-6.52344 -0.212891 -13.0439 -0.618164 -19.5596 -1.35742
c-9.4707 -1.07324 -17.8838 9.09863 -5.1084 10.5615c11.6777 1.33594 23.3447 1.75586 35.0117 1.79102c-7.55078 9.4707 -15.0029 19.0225 -22.1387 28.8174c-3.87402 5.32129 12.6494 8.3623 16.1162 3.87305c3.45898 -4.47852 7.00879 -8.88086 10.5889 -13.2559
c-0.103516 6.02734 -0.207031 12.0547 -0.321289 18.082c-0.131836 6.95605 17.5352 7.00684 17.8311 0c0.260742 -6.17676 0.53418 -12.3506 0.804688 -18.5244c3.2334 2.94531 6.39844 5.9209 9.42188 8.96777c4.64551 4.68066 22.8262 1.62695 16.4219 -5.4707
c-6.97852 -7.73242 -14.0713 -15.2832 -21.1162 -22.8613c10.4502 -0.212891 20.9053 -0.397461 31.3809 -0.171875z" />
    <glyph glyph-name="plus" unicode="+" horiz-adv-x="226" 
d="M168.956 123.587c13.0869 -1.3916 4.39746 -11.7979 -5.21289 -10.7734c-6.79102 0.720703 -13.5947 1.26465 -20.4014 1.70508c-0.316406 -29.3496 1.05762 -59.1162 -4.99707 -87.9521c-2.40918 -11.4756 -30.2383 -14.6895 -33.8213 -2.60938
c-8.80566 29.6836 -9.28125 60.6201 -10.417 91.3584c-10.7744 -0.34375 -21.5439 -0.984375 -32.29 -1.99414c-3.18555 -0.300781 -10.1797 -0.280273 -11.5762 3.74512c-1.35352 3.89648 3.32031 6.24707 6.57227 6.59668c12.3203 1.32617 24.6328 2.1582 36.9453 2.59375
c-0.758789 27.7783 -0.458008 55.6123 1.18652 83.3369c1.13574 19.1367 48.375 19.0254 48.6689 0c0.429688 -27.9629 0.275391 -55.9541 -0.126953 -83.9248c8.48633 -0.500977 16.9756 -1.17871 25.4697 -2.08203z" />
    <glyph glyph-name="comma" unicode="," horiz-adv-x="171" 
d="M80.6943 20.1357c6.85742 14.1797 46.7979 7.95605 38.9238 -6.11523c-13.1348 -23.4766 -28.127 -58.0459 -57.3301 -63.208c-7.13574 -1.2627 -18.9297 7.45703 -7.55566 10.2148c-1.42676 -0.34668 -0.796875 0.37207 0.0205078 2.43652
c0.751953 1.90039 1.14941 4.02051 1.79492 5.96387c1.8623 5.60449 4.53906 10.8477 7.0918 16.1533c5.56934 11.5791 11.4629 22.9863 17.0547 34.5547z" />
    <glyph glyph-name="hyphen" unicode="-" horiz-adv-x="241" 
d="M170.719 76.9473c6.32129 0.44043 19.9883 -2.87402 19.9854 -11.3916c0 -9.13477 -13.3936 -10.9697 -19.9854 -11.3926c-34.1416 -2.18359 -68.2783 -4.23535 -102.443 -6.00879c-5.54688 -0.288086 -17.0371 2.15625 -18.1729 9.14551
c-1.12598 6.92285 7.33301 11.085 13.2539 11.5703c35.7744 2.93262 71.5557 5.57422 107.362 8.07715z" />
    <glyph glyph-name="period" unicode="." horiz-adv-x="140" 
d="M89.0225 15.2598c1.40723 -3.26367 0.699219 -5.95312 -0.143555 -9.01758c-0.419922 -2.06445 -0.71875 -4.13379 -0.833008 -6.24902c-0.460938 -8.5625 -12.457 -10.6602 -18.998 -10.8271c-4.29688 -0.111328 -9.67676 0.956055 -13.4346 3.16992
c-2.1709 1.27832 -6.08496 4.52734 -5.56348 7.65723c0.548828 3.29199 1.29492 6.60449 2.39551 9.75977c1.49512 4.29102 4.11133 7.41895 8.02051 9.80273c4.74414 2.89453 11.2676 3.36816 16.624 2.50488c4.13672 -0.665039 10.0752 -2.49707 11.9326 -6.80078z" />
    <glyph glyph-name="slash" unicode="/" horiz-adv-x="282" 
d="M179.015 313.725c7.6543 18.1396 59.9785 13.8174 51.8916 -8.15625c-23.6084 -64.1348 -49.3594 -127.521 -73.4912 -191.468c-11.9434 -31.6475 -23.4541 -63.4434 -35.1719 -95.1738c-6.01758 -16.29 -12.0098 -32.6484 -18.4424 -48.7793
c-6.33105 -15.8779 -12.2422 -32.3477 -23.2393 -45.624c-6.03711 -7.29199 -28.9141 -6.79102 -30.2422 4.66895c-1.89062 16.2881 5.07031 34.7822 9.54395 50.3232c4.52441 15.7207 9.55762 31.3682 14.6436 46.915c10.4658 31.9941 21.5635 63.7959 32.6689 95.5693
c22.4873 64.3291 45.3438 128.921 71.8389 191.725z" />
    <glyph glyph-name="zero" unicode="0" horiz-adv-x="305" 
d="M60.1455 43.9756c-5.94922 27.707 -6.49219 56.3154 -4.83691 84.6836c-6.27734 17.6621 -6.41406 38.2998 -3.38477 57.541c5.33887 33.917 19.2939 71.0098 47.1582 92.8008c26.7412 20.9131 64.2666 23.5273 92.0146 3.1123
c30.1797 -22.2012 45.043 -59.3418 54.2539 -94.4609c9.7168 -37.0391 11.8496 -76.5635 7.88184 -114.598c-3.65625 -35.0479 -9.75195 -75.4424 -35.3438 -101.788c-26.6602 -27.4443 -69.2539 -32.7129 -102.845 -15.3525
c-33.3447 17.2344 -47.4541 53.3877 -54.8984 88.0615zM116.816 265.64c-20.5967 -20.0381 -31.4775 -51.7715 -36.3994 -79.4434c-0.381836 -2.14355 -0.733398 -4.34766 -1.07031 -6.57422c16.2451 2.46191 35.7363 -2.99609 34.5391 -15.585
c-2.10059 -22.0928 -3.91504 -44.2734 -3.88184 -66.4492c21.5059 -4.66602 48.0488 10.751 61.5781 25.5361c4.5166 4.93457 22.4766 1.57715 16.249 -5.41406c-18.5293 -20.8066 -49.0703 -34.6172 -77.6328 -31.7402
c0.260742 -7.92969 0.78418 -15.8574 1.66504 -23.7773c3.10449 -27.9199 8.85059 -63.7627 32.54 -82.3174c7.50293 -5.875 13.0547 -8.11426 21.6582 -3.6582c10.2627 5.31348 18.0283 14.3896 23.6377 24.3184c14.2461 25.2129 18.6113 55.6504 22.2578 83.9629
c3.72168 28.9043 4.16992 58.0537 0.738281 87.0039c-3.31934 27.9932 -8.81738 57.8896 -23.5059 82.4189c-7.76074 12.9609 -20.0654 24.8232 -35.7031 27.002c-13.7725 1.91797 -27.1533 -6.02441 -36.6699 -15.2832z" />
    <glyph glyph-name="one" unicode="1" horiz-adv-x="237" 
d="M68.9307 236.492c-3.91699 -5.85547 -22.4629 -3.51758 -18.3359 2.88379c15.9365 24.7236 46.4424 58.3975 79.3271 54.291c38.1953 -4.76953 42.7021 -55.6396 47.2871 -85.374c6.37891 -41.376 8.10742 -83.499 9.10449 -125.295
c1.01172 -42.5049 1.86719 -86.1787 -1.79395 -128.544c-1.93848 -22.4346 -55.6855 -22.46 -57.1709 -0.000976562c-2.31738 35.0449 0.81543 70.4297 2.18945 105.482c1.31348 33.4971 3.27148 66.9609 4.41016 100.471c1.1084 32.6084 3.04199 66.4111 0.787109 98.9766
c-0.500977 7.22461 -1.0498 17.5742 -8.07129 21.2285c-7.37891 3.83887 -17.7959 -4.4707 -23.998 -8.88574c-13.3604 -9.50684 -24.6436 -21.6377 -33.7354 -35.2334z" />
    <glyph glyph-name="two" unicode="2" horiz-adv-x="350" 
d="M62.9473 -49.5586c-12.0117 9.48926 -16.3496 24.7842 -10.0996 39.0146c6.33594 14.4307 22.3779 23.459 36.8789 27.4844c21.3438 5.92578 41.7891 3.02051 60.9619 -4.60352c27.5225 37.6318 44.8271 84.9443 55.5127 129.092
c6.77832 28.0088 11.6826 58.4688 6.00195 87.1348c-5.51367 27.8213 -27.6943 53.7217 -57.4668 55.7051c-28.1982 1.87793 -53.8379 -24.5107 -66.5938 -47.2607c-7.27246 -12.9707 -11.1895 -27.7451 -8.28711 -42.5605c2.75293 -14.043 13.96 -31.2061 30.3916 -29.9209
c3.19336 0.250977 10.1641 0.314453 11.5732 -3.74414c1.34863 -3.88379 -3.31445 -6.27246 -6.57129 -6.59863c-37.5811 -3.76562 -63.4307 28.0742 -55.3057 64.4961c7.47949 33.5244 39.3926 66.5303 72.6768 75.0703c30.3975 7.79883 63.1855 -4.14941 83.3672 -27.6992
c24.2939 -28.3496 34.9824 -62.7373 34.623 -99.792c-0.582031 -59.7822 -17.9678 -129.805 -56.8135 -178.719c26.5586 -18.1328 60.1768 -39.3496 89.7822 -18.3828c5.99414 4.24316 23.6865 -1.21777 14.1475 -8.06445
c-20.8701 -14.9795 -48.418 -14.5977 -72.1074 -7.15625c-15.2705 4.79785 -28.8105 13.0996 -42.3281 21.4443c-3.34766 -3.54004 -6.81641 -6.94629 -10.4375 -10.1777c-27.5654 -24.6025 -77.6895 -40.207 -109.906 -14.7617zM106.709 0.379883
c-9.26855 -3.00879 -20.1074 -13.3418 -14.5605 -23.8428c4.58203 -8.67188 8.60742 -7.72559 17.4355 -3.60352c10.2354 4.77734 18.7803 12.9736 26.3076 21.2051c1.09082 1.19141 2.12305 2.44141 3.18555 3.66113c-10.3545 3.41309 -22.0498 5.93066 -32.3682 2.58008z
" />
    <glyph glyph-name="three" unicode="3" horiz-adv-x="317" 
d="M80.6836 200.94c-13.6787 -3.28223 -28.7627 4.56445 -30.498 19.3262c-2.03711 17.3408 12.9102 34.9775 24.6943 46.0938c25.1719 23.7451 61.0244 35.375 95.3389 31.1035c17.1934 -2.14355 33.5068 -9.43066 45.1514 -22.5459
c12.9678 -14.6025 13.4033 -35.8398 8.09473 -53.7197c-6.56152 -22.1025 -20.3291 -44.9844 -37.6699 -63.4434c18.8662 -5.02734 36.4424 -14.6123 49.6133 -27.9873c51.4873 -52.2871 38.5391 -146.728 -26.8174 -180.918
c-30.7793 -16.1035 -72.6367 -17.9912 -103.982 -1.83984c-31.8672 16.4219 -32.958 51.0879 -29.5928 82.5938c0.898438 8.41602 21.8574 8.04395 21.1924 0c-2.73242 -33.0234 0.134766 -73.6328 42.1943 -76.4697c31.9785 -2.1582 55.2119 23.082 65.3662 51.0146
c10.7666 29.6104 10.3291 64.8047 -4.86035 92.8057c-10.9004 20.0957 -32.2363 37.9072 -55.1865 29.8506c-10.8604 -3.81348 -29.3066 -3.47949 -37.8057 5.65039c-8.97754 9.64551 0.97168 17.6689 9.91406 21.5479c22.9805 9.9668 41.6162 33.4961 56.1787 53.0762
c12.5049 16.8164 39.21 57.4561 12.2842 73.4453c-22.3711 13.2871 -54.041 5.68555 -75.0459 -6.60645c-10.5566 -6.17871 -19.9971 -14.3164 -27.5928 -23.9111c-4.02832 -5.08887 -7.9375 -10.7773 -10.3535 -16.8477
c-1.45703 -3.65625 -5.61914 -24.7539 4.69434 -22.5244c8.79004 1.89746 16.0449 -6.9668 4.68848 -9.69434z" />
    <glyph glyph-name="four" unicode="4" horiz-adv-x="332" 
d="M119.136 78.667c-17.1104 -16.4297 -60.7725 -24.8848 -68.5078 6.25879c-3.22852 12.9932 6.47754 24.3516 17.5098 29.792c14.7617 7.28027 32.9141 5.83789 48.7891 4.63379c2.29492 -0.176758 4.58789 -0.383789 6.87793 -0.606445
c12.1123 20.5215 20.2373 44.0332 26.7734 65.9229c10.8633 36.3818 15.8711 74.1299 15.6641 112.062c-0.0380859 6.90234 17.4492 6.91211 17.6338 -0.000976562c1.13867 -42.6992 -4.49609 -85.3027 -17.1982 -126.112
c-5.46094 -17.543 -12.0723 -36.877 -21.0723 -54.6025c10.5518 -1.56152 21.0684 -3.38867 31.5898 -5.17285c13.6846 -2.31738 28.1914 -5.55664 42.3564 -5.31836c-0.136719 3.36328 -0.298828 6.7207 -0.415039 10.084
c-1.9834 57.1787 -2.99023 114.428 2.17969 171.454c1.95117 21.5234 54.5645 21.5918 54.9941 0c1.13867 -57.1504 -0.379883 -114.299 0.994141 -171.454c0.696289 -28.9648 1.60938 -57.9395 2.78613 -86.8896c1.05469 -25.9688 5.89746 -57.4033 -3.36621 -82.165
c-4.58496 -12.2549 -31.0146 -9.81543 -36.6367 0c-13.5605 23.6738 -13.748 57.9805 -15.9473 84.6455c-1.72852 20.9795 -3.11719 41.9561 -4.11914 62.9658c-25.7363 -0.539062 -52.1787 6.54297 -77.1025 10.3086
c-1.13086 0.171875 -2.26465 0.329102 -3.39844 0.493164c-5.83008 -9.76758 -12.5332 -18.7607 -20.3848 -26.2988zM80.3145 104.832c-9.04883 -5.58691 -12.8389 -18.8643 -1.13867 -24.3174c7.63867 -3.5625 15.3457 3.02148 20.751 7.98145
c6.24023 5.72656 11.7539 12.2041 16.708 19.165c-1.25977 0.103516 -2.51758 0.224609 -3.78027 0.310547c-10.1797 0.680664 -23.5117 2.43457 -32.54 -3.13965z" />
    <glyph glyph-name="five" unicode="5" horiz-adv-x="305" 
d="M59.8086 62.2217c2.57324 6.83984 22.0889 5.02246 19.1006 -3.00391c-9.72461 -26.1484 -15.5293 -58.9717 2.4082 -83.1816c15.6709 -21.1484 41.5918 -21.6162 62.5605 -9.07031c38.8457 23.2441 57.7422 70.6172 57.4355 114.393
c-0.270508 38.6895 -23.1904 92.7988 -70.4043 83.5381c-11.0547 -2.16895 -21.2246 -6.9209 -31.5762 -11.1641c-12.3555 -5.06348 -32.8135 -6.80664 -43.1953 4.02832c-9.1875 9.58984 -0.415039 23.292 3.5293 33.3379c5.23047 13.3193 10.1396 26.8115 16.0908 39.8301
c9.60547 21.0098 19.833 48.9297 43.8389 56.5107c10.7588 3.39844 23.0312 2.50781 34.1543 2.89258c14.2002 0.491211 28.3857 0.966797 42.5908 1.17676c11.1465 0.164062 10.6982 -9.55273 0 -10.2764c-15.8574 -1.07324 -31.7256 -1.8125 -47.6006 -2.57129
c-7.36035 -0.351562 -17.6895 1.55371 -20.1211 -6.24219c-1.76367 -5.66016 -1.16699 -13.125 -1.90332 -19.0332c-1.85254 -14.8633 -5.36719 -29.5342 -9.48633 -43.9268c-1.49316 -5.22266 -3.0293 -10.4355 -4.55762 -15.6504
c10.6201 2.15039 21.417 3.36523 32.2793 3.10938c26.1436 -0.615234 51.9434 -8.44629 72.001 -25.6094c68.4688 -58.5928 36.9023 -173.356 -34.5518 -213.971c-30.7666 -17.4873 -76.3154 -23.5195 -106.546 -1.61914
c-33.9141 24.5674 -29.0049 72.0498 -16.0469 106.503z" />
    <glyph glyph-name="six" unicode="6" horiz-adv-x="282" 
d="M106.792 -41.333c-55.1846 24.6934 -61.4316 95.7461 -54.501 148.35c3.84082 29.1621 12.2158 57.3955 24.627 84.043c11.7988 25.3311 27.2666 52.8613 47.8994 72.1396c19.3828 18.1094 46.7305 34.2783 73.9043 26.8037
c25.7793 -7.08789 35.873 -30.0303 32.7529 -55.4043c-0.857422 -6.97656 -18.2256 -6.69336 -17.6338 -0.000976562c1.10352 12.4619 0.0078125 25.4375 -8.14746 35.5078c-9.39258 11.6016 -18.4434 8.16309 -28.5674 -0.404297
c-16.2041 -13.7148 -27.5576 -34.6914 -37.0215 -53.373c-18.3174 -36.1611 -31.2168 -75.0859 -34.4707 -115.663c-0.720703 -8.98047 -1.09473 -18.4336 -0.955078 -28.0537c41.3867 13.1523 97.459 -0.779297 109.046 -46.3994
c6.57129 -25.8682 -8.19336 -51.2852 -29.9844 -64.6807c-22.2344 -13.6689 -53.6514 -13.2891 -76.9482 -2.86426zM194.181 28.457c-12.4824 36.1133 -57.5391 45.7988 -88.9229 30.3945c1.72852 -24.8857 7.41406 -49.9258 20.1064 -70.0146
c10.2686 -16.2549 25.8965 -25.0811 44.4668 -15.7266c19.1748 9.6582 31.5303 34.5723 24.3496 55.3467z" />
    <glyph glyph-name="seven" unicode="7" horiz-adv-x="267" 
d="M62.9746 266.475c-3.19043 -0.807617 -9.74707 -1.51367 -12.0576 1.80664c-2.11035 3.02637 -0.381836 5.94922 3.16309 6.875c20.5869 5.38184 41.1963 10.7764 62.0615 14.9873c18.165 3.66406 38.1748 8.40625 56.7656 5.52637
c43.4004 -6.72363 41.0273 -54.8438 37.0596 -88.4873c-3.9043 -33.1094 -11.4248 -65.71 -19.7773 -98.0098c6.49805 -0.349609 12.998 -0.761719 19.501 -1.28516c3.47949 -0.28125 8.24414 -2.87207 6.91797 -6.94629
c-1.39941 -4.29102 -8.74219 -4.24023 -12.1836 -3.94141c-5.69629 0.493164 -11.3945 0.87793 -17.0957 1.20898c-1.43945 -5.45801 -2.8916 -10.9082 -4.34863 -16.3506c-10.9844 -41.0146 -21.1387 -82.1582 -31.1689 -123.41
c-4.35254 -17.8994 -58.6309 -15.1865 -55.1797 4.25684c8.21387 46.2549 22.3076 91.3428 36.3311 136.362c-7.15039 -0.1875 -14.3008 -0.475586 -21.4512 -0.885742c-11.5557 -0.663086 -11.2119 10.0176 0 10.7256c8.28711 0.523438 16.5713 0.882812 24.8506 1.08984
c6.37695 20.5518 12.6426 41.1055 18.2217 61.7705c4.78027 17.7051 9.27441 35.5059 13.4648 53.3574c1.88477 8.0293 3.39746 16.0986 5.1709 24.1396c1.51074 6.84668 7.19629 20.0352 5.80664 27.0166c-3.67188 18.4307 -48.6387 5.55078 -60.3057 3.24023
c-18.7295 -3.70703 -37.2412 -8.37305 -55.7461 -13.0469z" />
    <glyph glyph-name="eight" unicode="8" horiz-adv-x="281" 
d="M88.8037 127.895c-20.5771 19.1172 -40.9209 44.9961 -38.626 74.8896c2.3916 31.1562 25.2334 55.0049 50.1445 71.2217c24.4766 15.9365 56.1562 27.5205 85.4473 20.3701c25.5264 -6.23242 39.458 -26.1338 43.3623 -51.1719
c8.35059 -53.542 -17.5244 -106.785 -34.9893 -157.881c16.2471 -19.2686 32.1602 -41.7988 34.8369 -66.0723c6.66016 -60.4023 -78.8555 -95.126 -118.635 -51.3965c-19.4102 21.3389 -20.3135 55.2705 -15.7256 82.0742c3.37793 19.7314 9.44043 38.3096 19.1846 55.0762
c-8.31738 7.60156 -16.6904 15.1699 -25 22.8896zM181.652 -22.2129c24.4688 25.5869 -4.57422 63.0996 -22.6084 82.9102c-9.84766 10.8145 -20.1895 20.9609 -30.7363 30.8721c-10.8906 -22.8594 -16.0176 -49.0508 -14.2314 -73.4863
c2.29297 -31.3535 37.5713 -71.6719 67.5762 -40.2959zM117.139 246.966c-18.4668 -24.8965 -18.0049 -55.3037 -1.48145 -80.792c16.5459 -25.5234 44.2275 -42.7754 64.6826 -65.1055c7.25195 22.5811 15.0273 45.0098 20.5762 68.0869
c7.15332 29.7471 16.4551 75.5713 -6.81445 100.87c-22.0195 23.9375 -62.0518 -2.95801 -76.9629 -23.0596z" />
    <glyph glyph-name="nine" unicode="9" horiz-adv-x="281" 
d="M74.5039 109.431c-18.9297 11.7686 -24.7842 33.0098 -24.4883 54.1787c0.579102 42.6465 26.0596 86.0244 60.5605 110.445c17.3428 12.2744 38.8379 19.7539 59.792 12.3809c18.3604 -6.45996 29.3369 -24.8984 34.7695 -42.6465
c2.35547 -7.69727 -15.2129 -8.91895 -17.5762 -2.7627c-4.88867 12.7402 -17.4287 36.5303 -34.7188 28.9395c-11.0449 -4.84863 -20.6631 -17.8193 -27.2266 -27.4316c-15.7764 -23.1025 -26.3203 -50.749 -26.1279 -78.9248
c0.0888672 -13.1279 2.47754 -27.8496 11.1562 -38.2871c4.75684 -5.71875 6.66699 -5.55664 13.2207 -1.89551c6.70801 3.74512 12.4668 9.34961 17.4697 15.1289c18.542 21.417 28.7793 50.0176 38.1338 76.8467c0.53125 2.91992 1.29297 5.8252 2.38867 8.70215
c3.31738 8.71484 22.2998 7.99121 27.4941 2.0498c13.4189 -15.3438 16.501 -35.8906 19.2539 -55.5342c2.82617 -20.1621 2.91699 -40.9385 2.01855 -61.2471c-1.63965 -37.0742 -7.88477 -77.3496 -21.4727 -112.068
c-13.2842 -33.9346 -43.416 -56.6719 -81.1357 -50.3438c-30.5518 5.12402 -53.8457 26.8672 -60.1436 57.1602c-1.45703 7.0166 18.6367 8.27148 20.4258 1.57617c5.99902 -22.4521 29.8018 -53.0771 53.6533 -31.7568c17.6816 15.8066 23.0889 48.0605 28.0254 70.0244
c6.71777 29.8906 10.3057 60.7129 10.8271 91.3398c0.189453 11.1357 -0.0966797 22.3018 -0.575195 33.4434c-10.752 -23.4814 -24.7852 -45.1738 -46.0811 -59.1494c-17.8467 -11.7109 -41.4805 -11.458 -59.6436 -0.167969z" />
    <glyph glyph-name="colon" unicode=":" horiz-adv-x="141" 
d="M78.9453 137.273c-0.577148 -6.51855 -9.2832 -8.10645 -14.4531 -8.24023c-3.2666 -0.0810547 -7.36035 0.728516 -10.2168 2.41406c-1.61719 0.954102 -4.66406 3.46191 -4.23438 5.8252c1.11621 6.09277 0.90625 12.0771 1.04004 18.2314
c0.209961 9.71191 22.7432 9.99805 25.7061 1.98438c2.40918 -6.51562 2.76562 -13.3447 2.1582 -20.2148zM90.4268 -5.21387c0.0556641 -4.7998 0.167969 -9.59863 0.332031 -14.3965c0.283203 -8.06445 -12.4141 -10.124 -18.0088 -10.2656
c-5.89355 -0.149414 -18.0742 2.40137 -18.0088 10.2656c0.0527344 6.13086 -0.101562 12.3965 0.467773 18.5098c0.663086 7.12012 2.69727 11.8447 9.0332 15.6602c6.66016 4.01074 29.2461 3.95215 25.8047 -8.5625
c-0.817383 -2.96777 0.341797 -7.87891 0.379883 -11.2109z" />
    <glyph glyph-name="semicolon" unicode=";" horiz-adv-x="179" 
d="M81.126 35.1836c4.97168 16.1436 49.8887 12.7891 44.833 -7.0459c-5.55664 -21.8164 -12.4902 -43.1699 -20.8428 -64.0879c-7.88477 -19.752 -16.5078 -44.8076 -33.6611 -58.3398c-4.17969 -3.29688 -17.4414 -5.54883 -19.7266 1.4707
c-5.95898 18.3066 5.0127 43.5195 9.92188 61.3057c6.16406 22.3301 12.6592 44.5596 19.4756 66.6973zM128.503 137.901c0.852539 -7.34766 -11.9668 -9.35742 -16.6279 -9.47363c-3.75977 -0.0957031 -8.46582 0.84082 -11.7549 2.77637
c-2.05762 1.21191 -5.1543 3.87109 -4.86816 6.7002c0.356445 3.52734 0.614258 7.05957 0.720703 10.6045c0.0478516 1.66504 0.0429688 3.2793 0.28125 4.92871c0.397461 2.77344 1.35938 4.40332 3.0752 6.56934c2.34863 2.96289 7.85254 3.68945 11.2842 3.68945
c4.03125 0 8.19629 -0.979492 11.2832 -3.68945c5.56641 -4.88867 5.79883 -15.1416 6.60645 -22.1055z" />
    <glyph glyph-name="less" unicode="&#x3c;" horiz-adv-x="237" 
d="M161.123 93.1113c7.50488 -0.543945 24.6982 -2.74316 24.4355 -13.9277c-0.255859 -10.7236 -16.1768 -14.084 -24.4336 -13.9268c-16.6904 0.316406 -129.509 0.0556641 -108.537 37.2168c4.85059 8.5957 15.4375 12.5908 23.8457 16.5635
c10.8018 5.10645 21.7305 9.93164 32.6309 14.8232c20.3418 9.12988 45.2705 25.0234 68.1729 24.0293c2.79102 -0.119141 10.127 -1.19922 9.80566 -5.58691c-0.870117 -11.8721 -20.4072 -19.5742 -29.3145 -24.6904
c-13.2412 -7.60645 -26.4902 -15.2207 -39.8223 -22.6621c-2.07227 -1.15625 -6.79102 -4.52441 -11.1611 -7.14355c1.9834 -0.243164 3.96484 -0.500977 5.95117 -0.726562c16.1162 -1.82227 32.2578 -2.79688 48.4268 -3.96875z" />
    <glyph glyph-name="equal" unicode="=" horiz-adv-x="319" 
d="M61.5254 132.526c-2.50781 1.78418 -4.12891 4.2959 -1.57812 6.98047c8.86621 9.32715 28.3926 8.74512 40.2148 9.82812c15.7207 1.44238 31.5225 2.13574 47.2988 2.52832c32.8467 0.819336 65.7061 0.96875 98.5293 -0.632812
c7.15332 -0.349609 23.499 -2.7334 23.248 -13.252c-0.245117 -10.2148 -15.3916 -13.3857 -23.248 -13.252c-32.0195 0.543945 -64.0361 1.45215 -96.0654 1.49219c-15.5967 0.0205078 -31.2041 -0.0957031 -46.7959 0.324219
c-12.5684 0.338867 -30.8623 -1.66797 -41.6035 5.9834zM247.12 91.6836c6.57422 0.4375 20.7744 -2.97656 20.7744 -11.8457c0 -9.49121 -13.9219 -11.4121 -20.7764 -11.8418c-31.2646 -1.96582 -62.6055 -3.3877 -93.9365 -3.55176
c-30.1943 -0.162109 -63.4482 -2.43457 -93.0605 4.22559c-12.8135 2.88184 -14.1592 14.375 0.000976562 16.5381c30.291 4.63086 62.4648 1.7334 93.0615 2.45703c31.3457 0.744141 62.6484 1.93066 93.9365 4.01855z" />
    <glyph glyph-name="greater" unicode="&#x3e;" horiz-adv-x="250" 
d="M198.444 111.418c9.0459 -20.4248 -26.6074 -33.9326 -39.9775 -39.7148c-24.2051 -10.4551 -48.876 -19.6328 -73.6787 -28.5527c-8.92969 -3.21094 -25.0508 -3.01074 -31.9434 4.77539c-7.0498 7.96289 0.25 15.3594 8.375 18.209
c19.043 6.67773 38.1367 13.2441 57.0996 20.1494c8.86426 3.22852 17.7383 6.5 26.4834 10.04c3.9248 1.58691 7.88184 3.17871 11.4492 5.49609c4.53418 2.94531 5.69531 3.0166 1.82422 6.94141c-5.23242 5.30664 -17.6289 7.78613 -24.6934 9.64844
c-8.06152 2.12598 -16.3154 3.55273 -24.5234 4.97754c-16.5557 2.87402 -33.2129 5.20703 -48.9893 11.2471c-17.5508 6.71582 0.981445 17.3916 11.667 15.7744c24.0508 -3.6416 48.5703 -5.90625 72.3096 -11.2988c16.7412 -3.80078 46.7129 -9.88867 54.5977 -27.6924z
" />
    <glyph glyph-name="question" unicode="?" horiz-adv-x="276" 
d="M213.949 282.794c11.2529 -12.8613 13.8906 -30.4492 11.7168 -46.9346c-5.22754 -39.7109 -24.0049 -78.0791 -37.5957 -115.407c-14.0664 -38.6436 -25.5742 -77.335 -28.3926 -118.572c-1.37891 -20.1641 -51.6289 -19.7539 -51.042 0.000976562
c2.4873 83.8125 52.2871 155.112 78.5547 232.26c5.84277 17.1562 8.28223 43.168 -13.3291 50.1572c-18.4131 5.95117 -39.9082 -1.95898 -55.46 -11.7285c-15.2734 -9.59473 -30.1846 -23.9111 -40.0049 -39.0879c-9.6582 -14.9268 -13.8232 -38.7959 2.76074 -50.8711
c9.4209 -6.85742 -8.11426 -12.1787 -14.0049 -7.9834c-33.084 23.5674 -11.9023 65.5127 9.94238 88.9863c23.6465 25.4121 57.4541 40.5566 92.3809 37.8037c15.918 -1.25488 33.5801 -6.17383 44.4736 -18.623zM134.391 -30.5029
c3.72168 -0.262695 15.7168 -2.94336 14.3281 -9.25391c-2.52246 -11.4648 -3.73438 -23.1504 -3.22363 -34.8838c0.607422 -13.9297 -35.9229 -14.084 -35.8193 0c0.09375 12.9053 2.22949 25.2383 6.58203 37.3887c2.24219 6.2627 12.7832 7.12598 18.1328 6.74902z" />
    <glyph glyph-name="at" unicode="@" horiz-adv-x="445" 
d="M393.806 210.772c5.38184 -43.9619 -11.7344 -90.4551 -38.1182 -125.045c-26.0957 -34.2256 -68.1885 -61.002 -112.206 -44.6631c-25.9941 9.64844 -34.3193 31.6523 -34.585 55.8984c-6.62207 -7.29004 -13.834 -14.0381 -22.2275 -19.7314
c-14.0967 -9.5625 -32.5254 -16.1162 -49.2988 -9.67676c-12.6445 4.85547 -18.292 16.3965 -17.6572 29.4932c1.48242 30.4932 24.4199 61.2598 49.9131 76.4824c25.4961 15.2227 64.2158 18.626 81.5312 -10.2402c0.435547 -0.726562 0.567383 -1.3916 0.486328 -2.00098
c2.22656 -1.53125 3.3877 -3.7002 2.7041 -6.64062c-4.6709 -20.1133 -22.2168 -109.776 23.6738 -94.9102c18.0645 5.85059 33.2412 23.1299 44.124 37.9834c11.8369 16.1533 20.7256 34.6729 26.4395 53.8398c9.58984 32.1738 11.791 72.708 -11.9463 99.3955
c-21.1006 23.7275 -53.251 33.9404 -84.377 32.9463c-68.2002 -2.17578 -123.347 -53.6436 -148.145 -114.189c-25.3418 -61.877 -30.1094 -152.418 17.3115 -205.427c23.3604 -26.1133 57.6768 -37.1504 91.5527 -26.5332c34.6377 10.8555 61.4414 37.9961 85.9961 63.4873
c8.42383 8.74512 41.5059 2.89453 29.9062 -9.96484c-33.8838 -37.5635 -74.5967 -71.9355 -126.932 -77.1807c-50.1191 -5.02246 -97.2549 15.0664 -125.059 57.5381c-24.6152 37.6035 -29.7949 86.4111 -25.5664 130.252c4.08691 42.3779 18.0215 84.2881 43.0312 118.962
c48.8994 67.7959 141.622 104.431 222.52 75.8506c39.2002 -13.8486 71.6846 -43.0996 76.9277 -85.9258zM221.563 159.712c1.51562 1.78906 5.21484 3.1709 9.60742 3.91992c-31.6289 31.6172 -80.9707 -38.9668 -78.9688 -69.7178
c0.169922 -2.60156 0.476562 -7.16406 2.4707 -9.48926c-1.85742 2.53027 5.18945 4.35938 8.09668 6.43164c8.1377 5.79688 15.0811 13.332 21.4697 20.9531c13.0107 15.5215 24.2275 32.4297 37.3242 47.9023z" />
    <glyph glyph-name="A" unicode="A" horiz-adv-x="493" 
d="M662.912 -81.4004c35.4043 -31.3262 54.6904 -83.4609 42.1318 -129.807c-12.2363 -45.167 -55.1895 -76.25 -100.816 -80.668c-55.5312 -5.37402 -104.142 26.04 -135.308 69.8809c-27.96 39.334 -45.457 86.8564 -58.2656 134.172
c-59.9287 -40.291 -100.487 -107.082 -107.644 -180.905c-0.746094 -7.7002 -19.9316 -7.20703 -19.2158 -0.000976562c8.16504 82.1104 55.8623 153.249 123.395 194.104c-2.3252 9.16211 -4.51367 18.2939 -6.56543 27.3193
c-14.1729 62.335 -23.252 126.214 -29.2793 189.829c-6.26562 66.126 -9.25098 132.96 -6.17676 199.347c0.149414 3.20117 0.319336 6.39746 0.491211 9.59375c-25.6094 -24.0059 -52.1758 -46.9102 -79.1797 -69.3037
c-2.13574 -22.0752 -4.05664 -44.1807 -5.99707 -66.3037c-8.76465 -99.9082 -18.1572 -203.888 -56.5654 -297.579c-17.5732 -42.8643 -43.3428 -82.1855 -81.2295 -109.584c-35.5361 -25.6982 -80.0117 -36.6172 -123.223 -29.1396
c-37.4873 6.48828 -73.6211 27.5078 -89.6152 63.3477c-17.2646 38.6865 -12.6592 82.5732 4.87109 120.301c19.2305 41.3818 51.0215 76.3311 82.3975 108.874c30.1748 31.2979 62.4414 60.5078 95.5459 88.6602c42.9199 36.5 87.292 71.252 131.006 106.791
c3.9043 31.2578 8.36523 62.4365 14.2588 93.4082c9.29688 48.8486 19.917 100.409 49.1729 141.734c22.3682 31.5967 63.8984 59.2285 101.968 37.748c3.60352 -0.604492 6.58203 -2.36523 6.60254 -5.41699c0.230469 -32.7783 -3.69434 -65.8447 -5.69824 -98.5898
c-0.376953 -6.17676 -0.703125 -12.3584 -1.03223 -18.54c31.1084 34.0586 59.0811 70.8018 80.04 110.885c20.9688 40.1084 31.8691 90.7129 6.80566 131.772c-24.8584 40.7236 -78.8818 47.9355 -122.454 48.3965c-92.8281 0.979492 -187.549 -39.5166 -247.212 -111.435
c-30.6553 -36.9512 -50.2178 -83.7705 -48.0596 -132.315c1.0498 -23.5703 6.85742 -47.4336 20.6777 -66.874c12.7734 -17.9658 32.6543 -33.7354 55.7793 -28.293c9.83594 2.3125 18.0342 -7.87988 5.26562 -10.8887c-18.375 -4.33203 -37.4434 -0.625 -53.2812 9.57715
c-37.4766 24.1475 -50.708 71.3711 -48.2051 113.772c2.77539 47.0186 24.0273 90.3867 54.6299 125.566c61.3203 70.498 155.419 109.738 247.954 112.271c42.8213 1.17383 92.5254 -3.10742 128.431 -28.793c34.7012 -24.8281 46.5254 -69.4912 39.127 -110.199
c-8.48633 -46.7129 -36.9678 -87.2539 -65.376 -124.151c-17.2266 -22.376 -35.792 -43.666 -55.2783 -64.0859c-0.753906 -18.6865 -1.25488 -37.3857 -1.34863 -56.0703c-0.324219 -65.0195 2.62109 -129.822 9.54199 -194.485
c6.96875 -65.1338 15.1953 -132.55 30.7041 -197.676c23.373 9.11426 48.335 14.9092 74.3145 16.6904c50.1689 3.43848 103.58 -9.02344 141.915 -42.9375zM213.356 40.9814c13.2764 67.4082 19.5605 135.835 27.5791 204.005
c-27.085 -21.8369 -54.2959 -43.5195 -81.1123 -65.6475c-35.1084 -28.9678 -69.6279 -58.7246 -102.217 -90.5234c-33.8818 -33.0566 -68.96 -68.4287 -92.7148 -109.701c-23.1855 -40.2861 -35.6045 -93.3623 -11.4014 -136.206
c21.832 -38.6465 68.6055 -54.8457 110.298 -42.1201c44.709 13.6436 79.4658 52.4893 101.123 92.3223c24.7793 45.5742 38.4785 97.2588 48.4453 147.871zM316.049 328.354c17.0879 15.04 34.3008 30.6279 51.1348 46.8301
c1.5918 21.2725 3.79297 42.4814 6.81152 63.6406c4.52637 31.7305 10.4375 64.6328 21.5908 94.7891c-22.9473 10.4277 -46.0742 -6.14844 -58.6826 -25.8115c-26.0498 -40.6299 -33.5674 -93.0312 -40.3662 -139.908
c-3.04395 -20.9766 -5.54102 -41.9941 -7.7627 -63.0361c9.15723 7.75293 18.2637 15.5664 27.2744 23.4961zM689.391 -195.655c6.43457 46.7637 -17.3779 94.0957 -56.1602 119.983c-41.915 27.9834 -95.2705 32.7705 -143.598 21.9307
c-13.9141 -3.12012 -27.3047 -7.52246 -40.1162 -12.9932c10.5391 -41.6777 24.2363 -82.2979 42.7051 -120.641c19.4229 -40.3262 55.0479 -90.5312 105.161 -90.5342c45.9785 -0.00292969 85.8418 37.4385 92.0078 82.2539z" />
    <glyph glyph-name="A" unicode="&#xc5;" horiz-adv-x="493" 
d="M662.912 -81.4004c35.4043 -31.3262 54.6904 -83.4609 42.1318 -129.807c-12.2363 -45.167 -55.1895 -76.25 -100.816 -80.668c-55.5312 -5.37402 -104.142 26.04 -135.308 69.8809c-27.96 39.334 -45.457 86.8564 -58.2656 134.172
c-59.9287 -40.291 -100.487 -107.082 -107.644 -180.905c-0.746094 -7.7002 -19.9316 -7.20703 -19.2158 -0.000976562c8.16504 82.1104 55.8623 153.249 123.395 194.104c-2.3252 9.16211 -4.51367 18.2939 -6.56543 27.3193
c-14.1729 62.335 -23.252 126.214 -29.2793 189.829c-6.26562 66.126 -9.25098 132.96 -6.17676 199.347c0.149414 3.20117 0.319336 6.39746 0.491211 9.59375c-25.6094 -24.0059 -52.1758 -46.9102 -79.1797 -69.3037
c-2.13574 -22.0752 -4.05664 -44.1807 -5.99707 -66.3037c-8.76465 -99.9082 -18.1572 -203.888 -56.5654 -297.579c-17.5732 -42.8643 -43.3428 -82.1855 -81.2295 -109.584c-35.5361 -25.6982 -80.0117 -36.6172 -123.223 -29.1396
c-37.4873 6.48828 -73.6211 27.5078 -89.6152 63.3477c-17.2646 38.6865 -12.6592 82.5732 4.87109 120.301c19.2305 41.3818 51.0215 76.3311 82.3975 108.874c30.1748 31.2979 62.4414 60.5078 95.5459 88.6602c42.9199 36.5 87.292 71.252 131.006 106.791
c3.9043 31.2578 8.36523 62.4365 14.2588 93.4082c9.29688 48.8486 19.917 100.409 49.1729 141.734c22.3682 31.5967 63.8984 59.2285 101.968 37.748c3.60352 -0.604492 6.58203 -2.36523 6.60254 -5.41699c0.230469 -32.7783 -3.69434 -65.8447 -5.69824 -98.5898
c-0.376953 -6.17676 -0.703125 -12.3584 -1.03223 -18.54c31.1084 34.0586 59.0811 70.8018 80.04 110.885c20.9688 40.1084 31.8691 90.7129 6.80566 131.772c-24.8584 40.7236 -78.8818 47.9355 -122.454 48.3965c-92.8281 0.979492 -187.549 -39.5166 -247.212 -111.435
c-30.6553 -36.9512 -50.2178 -83.7705 -48.0596 -132.315c1.0498 -23.5703 6.85742 -47.4336 20.6777 -66.874c12.7734 -17.9658 32.6543 -33.7354 55.7793 -28.293c9.83594 2.3125 18.0342 -7.87988 5.26562 -10.8887c-18.375 -4.33203 -37.4434 -0.625 -53.2812 9.57715
c-37.4766 24.1475 -50.708 71.3711 -48.2051 113.772c2.77539 47.0186 24.0273 90.3867 54.6299 125.566c61.3203 70.498 155.419 109.738 247.954 112.271c42.8213 1.17383 92.5254 -3.10742 128.431 -28.793c34.7012 -24.8281 46.5254 -69.4912 39.127 -110.199
c-8.48633 -46.7129 -36.9678 -87.2539 -65.376 -124.151c-17.2266 -22.376 -35.792 -43.666 -55.2783 -64.0859c-0.753906 -18.6865 -1.25488 -37.3857 -1.34863 -56.0703c-0.324219 -65.0195 2.62109 -129.822 9.54199 -194.485
c6.96875 -65.1338 15.1953 -132.55 30.7041 -197.676c23.373 9.11426 48.335 14.9092 74.3145 16.6904c50.1689 3.43848 103.58 -9.02344 141.915 -42.9375zM213.356 40.9814c13.2764 67.4082 19.5605 135.835 27.5791 204.005
c-27.085 -21.8369 -54.2959 -43.5195 -81.1123 -65.6475c-35.1084 -28.9678 -69.6279 -58.7246 -102.217 -90.5234c-33.8818 -33.0566 -68.96 -68.4287 -92.7148 -109.701c-23.1855 -40.2861 -35.6045 -93.3623 -11.4014 -136.206
c21.832 -38.6465 68.6055 -54.8457 110.298 -42.1201c44.709 13.6436 79.4658 52.4893 101.123 92.3223c24.7793 45.5742 38.4785 97.2588 48.4453 147.871zM316.049 328.354c17.0879 15.04 34.3008 30.6279 51.1348 46.8301
c1.5918 21.2725 3.79297 42.4814 6.81152 63.6406c4.52637 31.7305 10.4375 64.6328 21.5908 94.7891c-22.9473 10.4277 -46.0742 -6.14844 -58.6826 -25.8115c-26.0498 -40.6299 -33.5674 -93.0312 -40.3662 -139.908
c-3.04395 -20.9766 -5.54102 -41.9941 -7.7627 -63.0361c9.15723 7.75293 18.2637 15.5664 27.2744 23.4961zM689.391 -195.655c6.43457 46.7637 -17.3779 94.0957 -56.1602 119.983c-41.915 27.9834 -95.2705 32.7705 -143.598 21.9307
c-13.9141 -3.12012 -27.3047 -7.52246 -40.1162 -12.9932c10.5391 -41.6777 24.2363 -82.2979 42.7051 -120.641c19.4229 -40.3262 55.0479 -90.5312 105.161 -90.5342c45.9785 -0.00292969 85.8418 37.4385 92.0078 82.2539z" />
    <glyph glyph-name="A" unicode="&#xc4;" horiz-adv-x="493" 
d="M662.912 -81.4004c35.4043 -31.3262 54.6904 -83.4609 42.1318 -129.807c-12.2363 -45.167 -55.1895 -76.25 -100.816 -80.668c-55.5312 -5.37402 -104.142 26.04 -135.308 69.8809c-27.96 39.334 -45.457 86.8564 -58.2656 134.172
c-59.9287 -40.291 -100.487 -107.082 -107.644 -180.905c-0.746094 -7.7002 -19.9316 -7.20703 -19.2158 -0.000976562c8.16504 82.1104 55.8623 153.249 123.395 194.104c-2.3252 9.16211 -4.51367 18.2939 -6.56543 27.3193
c-14.1729 62.335 -23.252 126.214 -29.2793 189.829c-6.26562 66.126 -9.25098 132.96 -6.17676 199.347c0.149414 3.20117 0.319336 6.39746 0.491211 9.59375c-25.6094 -24.0059 -52.1758 -46.9102 -79.1797 -69.3037
c-2.13574 -22.0752 -4.05664 -44.1807 -5.99707 -66.3037c-8.76465 -99.9082 -18.1572 -203.888 -56.5654 -297.579c-17.5732 -42.8643 -43.3428 -82.1855 -81.2295 -109.584c-35.5361 -25.6982 -80.0117 -36.6172 -123.223 -29.1396
c-37.4873 6.48828 -73.6211 27.5078 -89.6152 63.3477c-17.2646 38.6865 -12.6592 82.5732 4.87109 120.301c19.2305 41.3818 51.0215 76.3311 82.3975 108.874c30.1748 31.2979 62.4414 60.5078 95.5459 88.6602c42.9199 36.5 87.292 71.252 131.006 106.791
c3.9043 31.2578 8.36523 62.4365 14.2588 93.4082c9.29688 48.8486 19.917 100.409 49.1729 141.734c22.3682 31.5967 63.8984 59.2285 101.968 37.748c3.60352 -0.604492 6.58203 -2.36523 6.60254 -5.41699c0.230469 -32.7783 -3.69434 -65.8447 -5.69824 -98.5898
c-0.376953 -6.17676 -0.703125 -12.3584 -1.03223 -18.54c31.1084 34.0586 59.0811 70.8018 80.04 110.885c20.9688 40.1084 31.8691 90.7129 6.80566 131.772c-24.8584 40.7236 -78.8818 47.9355 -122.454 48.3965c-92.8281 0.979492 -187.549 -39.5166 -247.212 -111.435
c-30.6553 -36.9512 -50.2178 -83.7705 -48.0596 -132.315c1.0498 -23.5703 6.85742 -47.4336 20.6777 -66.874c12.7734 -17.9658 32.6543 -33.7354 55.7793 -28.293c9.83594 2.3125 18.0342 -7.87988 5.26562 -10.8887c-18.375 -4.33203 -37.4434 -0.625 -53.2812 9.57715
c-37.4766 24.1475 -50.708 71.3711 -48.2051 113.772c2.77539 47.0186 24.0273 90.3867 54.6299 125.566c61.3203 70.498 155.419 109.738 247.954 112.271c42.8213 1.17383 92.5254 -3.10742 128.431 -28.793c34.7012 -24.8281 46.5254 -69.4912 39.127 -110.199
c-8.48633 -46.7129 -36.9678 -87.2539 -65.376 -124.151c-17.2266 -22.376 -35.792 -43.666 -55.2783 -64.0859c-0.753906 -18.6865 -1.25488 -37.3857 -1.34863 -56.0703c-0.324219 -65.0195 2.62109 -129.822 9.54199 -194.485
c6.96875 -65.1338 15.1953 -132.55 30.7041 -197.676c23.373 9.11426 48.335 14.9092 74.3145 16.6904c50.1689 3.43848 103.58 -9.02344 141.915 -42.9375zM213.356 40.9814c13.2764 67.4082 19.5605 135.835 27.5791 204.005
c-27.085 -21.8369 -54.2959 -43.5195 -81.1123 -65.6475c-35.1084 -28.9678 -69.6279 -58.7246 -102.217 -90.5234c-33.8818 -33.0566 -68.96 -68.4287 -92.7148 -109.701c-23.1855 -40.2861 -35.6045 -93.3623 -11.4014 -136.206
c21.832 -38.6465 68.6055 -54.8457 110.298 -42.1201c44.709 13.6436 79.4658 52.4893 101.123 92.3223c24.7793 45.5742 38.4785 97.2588 48.4453 147.871zM316.049 328.354c17.0879 15.04 34.3008 30.6279 51.1348 46.8301
c1.5918 21.2725 3.79297 42.4814 6.81152 63.6406c4.52637 31.7305 10.4375 64.6328 21.5908 94.7891c-22.9473 10.4277 -46.0742 -6.14844 -58.6826 -25.8115c-26.0498 -40.6299 -33.5674 -93.0312 -40.3662 -139.908
c-3.04395 -20.9766 -5.54102 -41.9941 -7.7627 -63.0361c9.15723 7.75293 18.2637 15.5664 27.2744 23.4961zM689.391 -195.655c6.43457 46.7637 -17.3779 94.0957 -56.1602 119.983c-41.915 27.9834 -95.2705 32.7705 -143.598 21.9307
c-13.9141 -3.12012 -27.3047 -7.52246 -40.1162 -12.9932c10.5391 -41.6777 24.2363 -82.2979 42.7051 -120.641c19.4229 -40.3262 55.0479 -90.5312 105.161 -90.5342c45.9785 -0.00292969 85.8418 37.4385 92.0078 82.2539z" />
    <glyph glyph-name="A" unicode="&#xc3;" horiz-adv-x="493" 
d="M662.912 -81.4004c35.4043 -31.3262 54.6904 -83.4609 42.1318 -129.807c-12.2363 -45.167 -55.1895 -76.25 -100.816 -80.668c-55.5312 -5.37402 -104.142 26.04 -135.308 69.8809c-27.96 39.334 -45.457 86.8564 -58.2656 134.172
c-59.9287 -40.291 -100.487 -107.082 -107.644 -180.905c-0.746094 -7.7002 -19.9316 -7.20703 -19.2158 -0.000976562c8.16504 82.1104 55.8623 153.249 123.395 194.104c-2.3252 9.16211 -4.51367 18.2939 -6.56543 27.3193
c-14.1729 62.335 -23.252 126.214 -29.2793 189.829c-6.26562 66.126 -9.25098 132.96 -6.17676 199.347c0.149414 3.20117 0.319336 6.39746 0.491211 9.59375c-25.6094 -24.0059 -52.1758 -46.9102 -79.1797 -69.3037
c-2.13574 -22.0752 -4.05664 -44.1807 -5.99707 -66.3037c-8.76465 -99.9082 -18.1572 -203.888 -56.5654 -297.579c-17.5732 -42.8643 -43.3428 -82.1855 -81.2295 -109.584c-35.5361 -25.6982 -80.0117 -36.6172 -123.223 -29.1396
c-37.4873 6.48828 -73.6211 27.5078 -89.6152 63.3477c-17.2646 38.6865 -12.6592 82.5732 4.87109 120.301c19.2305 41.3818 51.0215 76.3311 82.3975 108.874c30.1748 31.2979 62.4414 60.5078 95.5459 88.6602c42.9199 36.5 87.292 71.252 131.006 106.791
c3.9043 31.2578 8.36523 62.4365 14.2588 93.4082c9.29688 48.8486 19.917 100.409 49.1729 141.734c22.3682 31.5967 63.8984 59.2285 101.968 37.748c3.60352 -0.604492 6.58203 -2.36523 6.60254 -5.41699c0.230469 -32.7783 -3.69434 -65.8447 -5.69824 -98.5898
c-0.376953 -6.17676 -0.703125 -12.3584 -1.03223 -18.54c31.1084 34.0586 59.0811 70.8018 80.04 110.885c20.9688 40.1084 31.8691 90.7129 6.80566 131.772c-24.8584 40.7236 -78.8818 47.9355 -122.454 48.3965c-92.8281 0.979492 -187.549 -39.5166 -247.212 -111.435
c-30.6553 -36.9512 -50.2178 -83.7705 -48.0596 -132.315c1.0498 -23.5703 6.85742 -47.4336 20.6777 -66.874c12.7734 -17.9658 32.6543 -33.7354 55.7793 -28.293c9.83594 2.3125 18.0342 -7.87988 5.26562 -10.8887c-18.375 -4.33203 -37.4434 -0.625 -53.2812 9.57715
c-37.4766 24.1475 -50.708 71.3711 -48.2051 113.772c2.77539 47.0186 24.0273 90.3867 54.6299 125.566c61.3203 70.498 155.419 109.738 247.954 112.271c42.8213 1.17383 92.5254 -3.10742 128.431 -28.793c34.7012 -24.8281 46.5254 -69.4912 39.127 -110.199
c-8.48633 -46.7129 -36.9678 -87.2539 -65.376 -124.151c-17.2266 -22.376 -35.792 -43.666 -55.2783 -64.0859c-0.753906 -18.6865 -1.25488 -37.3857 -1.34863 -56.0703c-0.324219 -65.0195 2.62109 -129.822 9.54199 -194.485
c6.96875 -65.1338 15.1953 -132.55 30.7041 -197.676c23.373 9.11426 48.335 14.9092 74.3145 16.6904c50.1689 3.43848 103.58 -9.02344 141.915 -42.9375zM213.356 40.9814c13.2764 67.4082 19.5605 135.835 27.5791 204.005
c-27.085 -21.8369 -54.2959 -43.5195 -81.1123 -65.6475c-35.1084 -28.9678 -69.6279 -58.7246 -102.217 -90.5234c-33.8818 -33.0566 -68.96 -68.4287 -92.7148 -109.701c-23.1855 -40.2861 -35.6045 -93.3623 -11.4014 -136.206
c21.832 -38.6465 68.6055 -54.8457 110.298 -42.1201c44.709 13.6436 79.4658 52.4893 101.123 92.3223c24.7793 45.5742 38.4785 97.2588 48.4453 147.871zM316.049 328.354c17.0879 15.04 34.3008 30.6279 51.1348 46.8301
c1.5918 21.2725 3.79297 42.4814 6.81152 63.6406c4.52637 31.7305 10.4375 64.6328 21.5908 94.7891c-22.9473 10.4277 -46.0742 -6.14844 -58.6826 -25.8115c-26.0498 -40.6299 -33.5674 -93.0312 -40.3662 -139.908
c-3.04395 -20.9766 -5.54102 -41.9941 -7.7627 -63.0361c9.15723 7.75293 18.2637 15.5664 27.2744 23.4961zM689.391 -195.655c6.43457 46.7637 -17.3779 94.0957 -56.1602 119.983c-41.915 27.9834 -95.2705 32.7705 -143.598 21.9307
c-13.9141 -3.12012 -27.3047 -7.52246 -40.1162 -12.9932c10.5391 -41.6777 24.2363 -82.2979 42.7051 -120.641c19.4229 -40.3262 55.0479 -90.5312 105.161 -90.5342c45.9785 -0.00292969 85.8418 37.4385 92.0078 82.2539z" />
    <glyph glyph-name="A" unicode="&#xc2;" horiz-adv-x="493" 
d="M662.912 -81.4004c35.4043 -31.3262 54.6904 -83.4609 42.1318 -129.807c-12.2363 -45.167 -55.1895 -76.25 -100.816 -80.668c-55.5312 -5.37402 -104.142 26.04 -135.308 69.8809c-27.96 39.334 -45.457 86.8564 -58.2656 134.172
c-59.9287 -40.291 -100.487 -107.082 -107.644 -180.905c-0.746094 -7.7002 -19.9316 -7.20703 -19.2158 -0.000976562c8.16504 82.1104 55.8623 153.249 123.395 194.104c-2.3252 9.16211 -4.51367 18.2939 -6.56543 27.3193
c-14.1729 62.335 -23.252 126.214 -29.2793 189.829c-6.26562 66.126 -9.25098 132.96 -6.17676 199.347c0.149414 3.20117 0.319336 6.39746 0.491211 9.59375c-25.6094 -24.0059 -52.1758 -46.9102 -79.1797 -69.3037
c-2.13574 -22.0752 -4.05664 -44.1807 -5.99707 -66.3037c-8.76465 -99.9082 -18.1572 -203.888 -56.5654 -297.579c-17.5732 -42.8643 -43.3428 -82.1855 -81.2295 -109.584c-35.5361 -25.6982 -80.0117 -36.6172 -123.223 -29.1396
c-37.4873 6.48828 -73.6211 27.5078 -89.6152 63.3477c-17.2646 38.6865 -12.6592 82.5732 4.87109 120.301c19.2305 41.3818 51.0215 76.3311 82.3975 108.874c30.1748 31.2979 62.4414 60.5078 95.5459 88.6602c42.9199 36.5 87.292 71.252 131.006 106.791
c3.9043 31.2578 8.36523 62.4365 14.2588 93.4082c9.29688 48.8486 19.917 100.409 49.1729 141.734c22.3682 31.5967 63.8984 59.2285 101.968 37.748c3.60352 -0.604492 6.58203 -2.36523 6.60254 -5.41699c0.230469 -32.7783 -3.69434 -65.8447 -5.69824 -98.5898
c-0.376953 -6.17676 -0.703125 -12.3584 -1.03223 -18.54c31.1084 34.0586 59.0811 70.8018 80.04 110.885c20.9688 40.1084 31.8691 90.7129 6.80566 131.772c-24.8584 40.7236 -78.8818 47.9355 -122.454 48.3965c-92.8281 0.979492 -187.549 -39.5166 -247.212 -111.435
c-30.6553 -36.9512 -50.2178 -83.7705 -48.0596 -132.315c1.0498 -23.5703 6.85742 -47.4336 20.6777 -66.874c12.7734 -17.9658 32.6543 -33.7354 55.7793 -28.293c9.83594 2.3125 18.0342 -7.87988 5.26562 -10.8887c-18.375 -4.33203 -37.4434 -0.625 -53.2812 9.57715
c-37.4766 24.1475 -50.708 71.3711 -48.2051 113.772c2.77539 47.0186 24.0273 90.3867 54.6299 125.566c61.3203 70.498 155.419 109.738 247.954 112.271c42.8213 1.17383 92.5254 -3.10742 128.431 -28.793c34.7012 -24.8281 46.5254 -69.4912 39.127 -110.199
c-8.48633 -46.7129 -36.9678 -87.2539 -65.376 -124.151c-17.2266 -22.376 -35.792 -43.666 -55.2783 -64.0859c-0.753906 -18.6865 -1.25488 -37.3857 -1.34863 -56.0703c-0.324219 -65.0195 2.62109 -129.822 9.54199 -194.485
c6.96875 -65.1338 15.1953 -132.55 30.7041 -197.676c23.373 9.11426 48.335 14.9092 74.3145 16.6904c50.1689 3.43848 103.58 -9.02344 141.915 -42.9375zM213.356 40.9814c13.2764 67.4082 19.5605 135.835 27.5791 204.005
c-27.085 -21.8369 -54.2959 -43.5195 -81.1123 -65.6475c-35.1084 -28.9678 -69.6279 -58.7246 -102.217 -90.5234c-33.8818 -33.0566 -68.96 -68.4287 -92.7148 -109.701c-23.1855 -40.2861 -35.6045 -93.3623 -11.4014 -136.206
c21.832 -38.6465 68.6055 -54.8457 110.298 -42.1201c44.709 13.6436 79.4658 52.4893 101.123 92.3223c24.7793 45.5742 38.4785 97.2588 48.4453 147.871zM316.049 328.354c17.0879 15.04 34.3008 30.6279 51.1348 46.8301
c1.5918 21.2725 3.79297 42.4814 6.81152 63.6406c4.52637 31.7305 10.4375 64.6328 21.5908 94.7891c-22.9473 10.4277 -46.0742 -6.14844 -58.6826 -25.8115c-26.0498 -40.6299 -33.5674 -93.0312 -40.3662 -139.908
c-3.04395 -20.9766 -5.54102 -41.9941 -7.7627 -63.0361c9.15723 7.75293 18.2637 15.5664 27.2744 23.4961zM689.391 -195.655c6.43457 46.7637 -17.3779 94.0957 -56.1602 119.983c-41.915 27.9834 -95.2705 32.7705 -143.598 21.9307
c-13.9141 -3.12012 -27.3047 -7.52246 -40.1162 -12.9932c10.5391 -41.6777 24.2363 -82.2979 42.7051 -120.641c19.4229 -40.3262 55.0479 -90.5312 105.161 -90.5342c45.9785 -0.00292969 85.8418 37.4385 92.0078 82.2539z" />
    <glyph glyph-name="A" unicode="&#xc1;" horiz-adv-x="493" 
d="M662.912 -81.4004c35.4043 -31.3262 54.6904 -83.4609 42.1318 -129.807c-12.2363 -45.167 -55.1895 -76.25 -100.816 -80.668c-55.5312 -5.37402 -104.142 26.04 -135.308 69.8809c-27.96 39.334 -45.457 86.8564 -58.2656 134.172
c-59.9287 -40.291 -100.487 -107.082 -107.644 -180.905c-0.746094 -7.7002 -19.9316 -7.20703 -19.2158 -0.000976562c8.16504 82.1104 55.8623 153.249 123.395 194.104c-2.3252 9.16211 -4.51367 18.2939 -6.56543 27.3193
c-14.1729 62.335 -23.252 126.214 -29.2793 189.829c-6.26562 66.126 -9.25098 132.96 -6.17676 199.347c0.149414 3.20117 0.319336 6.39746 0.491211 9.59375c-25.6094 -24.0059 -52.1758 -46.9102 -79.1797 -69.3037
c-2.13574 -22.0752 -4.05664 -44.1807 -5.99707 -66.3037c-8.76465 -99.9082 -18.1572 -203.888 -56.5654 -297.579c-17.5732 -42.8643 -43.3428 -82.1855 -81.2295 -109.584c-35.5361 -25.6982 -80.0117 -36.6172 -123.223 -29.1396
c-37.4873 6.48828 -73.6211 27.5078 -89.6152 63.3477c-17.2646 38.6865 -12.6592 82.5732 4.87109 120.301c19.2305 41.3818 51.0215 76.3311 82.3975 108.874c30.1748 31.2979 62.4414 60.5078 95.5459 88.6602c42.9199 36.5 87.292 71.252 131.006 106.791
c3.9043 31.2578 8.36523 62.4365 14.2588 93.4082c9.29688 48.8486 19.917 100.409 49.1729 141.734c22.3682 31.5967 63.8984 59.2285 101.968 37.748c3.60352 -0.604492 6.58203 -2.36523 6.60254 -5.41699c0.230469 -32.7783 -3.69434 -65.8447 -5.69824 -98.5898
c-0.376953 -6.17676 -0.703125 -12.3584 -1.03223 -18.54c31.1084 34.0586 59.0811 70.8018 80.04 110.885c20.9688 40.1084 31.8691 90.7129 6.80566 131.772c-24.8584 40.7236 -78.8818 47.9355 -122.454 48.3965c-92.8281 0.979492 -187.549 -39.5166 -247.212 -111.435
c-30.6553 -36.9512 -50.2178 -83.7705 -48.0596 -132.315c1.0498 -23.5703 6.85742 -47.4336 20.6777 -66.874c12.7734 -17.9658 32.6543 -33.7354 55.7793 -28.293c9.83594 2.3125 18.0342 -7.87988 5.26562 -10.8887c-18.375 -4.33203 -37.4434 -0.625 -53.2812 9.57715
c-37.4766 24.1475 -50.708 71.3711 -48.2051 113.772c2.77539 47.0186 24.0273 90.3867 54.6299 125.566c61.3203 70.498 155.419 109.738 247.954 112.271c42.8213 1.17383 92.5254 -3.10742 128.431 -28.793c34.7012 -24.8281 46.5254 -69.4912 39.127 -110.199
c-8.48633 -46.7129 -36.9678 -87.2539 -65.376 -124.151c-17.2266 -22.376 -35.792 -43.666 -55.2783 -64.0859c-0.753906 -18.6865 -1.25488 -37.3857 -1.34863 -56.0703c-0.324219 -65.0195 2.62109 -129.822 9.54199 -194.485
c6.96875 -65.1338 15.1953 -132.55 30.7041 -197.676c23.373 9.11426 48.335 14.9092 74.3145 16.6904c50.1689 3.43848 103.58 -9.02344 141.915 -42.9375zM213.356 40.9814c13.2764 67.4082 19.5605 135.835 27.5791 204.005
c-27.085 -21.8369 -54.2959 -43.5195 -81.1123 -65.6475c-35.1084 -28.9678 -69.6279 -58.7246 -102.217 -90.5234c-33.8818 -33.0566 -68.96 -68.4287 -92.7148 -109.701c-23.1855 -40.2861 -35.6045 -93.3623 -11.4014 -136.206
c21.832 -38.6465 68.6055 -54.8457 110.298 -42.1201c44.709 13.6436 79.4658 52.4893 101.123 92.3223c24.7793 45.5742 38.4785 97.2588 48.4453 147.871zM316.049 328.354c17.0879 15.04 34.3008 30.6279 51.1348 46.8301
c1.5918 21.2725 3.79297 42.4814 6.81152 63.6406c4.52637 31.7305 10.4375 64.6328 21.5908 94.7891c-22.9473 10.4277 -46.0742 -6.14844 -58.6826 -25.8115c-26.0498 -40.6299 -33.5674 -93.0312 -40.3662 -139.908
c-3.04395 -20.9766 -5.54102 -41.9941 -7.7627 -63.0361c9.15723 7.75293 18.2637 15.5664 27.2744 23.4961zM689.391 -195.655c6.43457 46.7637 -17.3779 94.0957 -56.1602 119.983c-41.915 27.9834 -95.2705 32.7705 -143.598 21.9307
c-13.9141 -3.12012 -27.3047 -7.52246 -40.1162 -12.9932c10.5391 -41.6777 24.2363 -82.2979 42.7051 -120.641c19.4229 -40.3262 55.0479 -90.5312 105.161 -90.5342c45.9785 -0.00292969 85.8418 37.4385 92.0078 82.2539z" />
    <glyph glyph-name="B" unicode="B" horiz-adv-x="798" 
d="M708.371 -116.137c-60.6729 -87.9551 -168.393 -143.513 -275.998 -122.936c-45.8242 8.75977 -96.8135 32.1348 -117.097 77.1875c-21.4854 47.7178 6.79102 99.2412 37.9473 135.286c31.4268 36.3564 73.3066 64.0762 119.428 77.7832
c36.9404 10.9746 104.521 14.5781 109.345 -38.6836c0.708984 -7.82617 -19.7314 -8.16016 -20.5996 0c-3.33496 31.3486 -36.7227 37.166 -62.2637 31.8623c-23.4561 -4.87109 -46.0625 -14.6133 -66.4775 -27.0195c-40.6045 -24.6787 -77.4365 -64.4434 -90.6201 -110.967
c-12.5 -44.1162 9.55469 -83.2354 47.8135 -105.174c39.4453 -22.6191 87.6279 -27.4795 131.497 -16.7783c84.9717 20.7266 150.94 93.3574 176.049 175.379c24.1299 78.8252 7.46973 169.568 -50.9863 229.403c-61.5176 62.9727 -151.292 66.8291 -233.842 61.4141
c-12.5957 -0.827148 -36.2773 13.0723 -17.3604 23.8896c66.8115 38.2012 128.284 87.0518 179.787 144.354c22.6572 25.207 42.7383 53.3066 56.0078 84.6475c6.75879 15.9668 13.2012 35.9033 3.37793 52.1328c-10.2324 16.9102 -31.082 17.7627 -47.9746 11.9551
c-62.0488 -21.3311 -102.752 -85.4424 -132.37 -140.072c-60.207 -111.047 -91.1152 -234.769 -107.071 -359.472c-1.6748 -32.7051 -6.0957 -65.2021 -14.8584 -97.209c-11.2451 -41.0703 -30.0713 -83.1328 -61.749 -112.602
c-32.335 -30.0781 -79.8799 -45.0527 -123.21 -34.1924c-80.4551 20.167 -95.9258 115.528 -79.4102 184.665c20.3594 85.2373 78.2871 158.69 131.065 226.537c29.6992 38.1777 60.3164 75.8594 89.2285 114.73c-2.78809 49.0938 -5.0498 98.0186 -4.85449 147.196
c0.154297 38.8154 3.08203 91.7227 45.6904 107.747c6.80371 2.55859 19.6807 -4.50586 8.89844 -8.67871c-22.1152 -8.55762 -30.8955 -34.8857 -32.416 -56.5859c-1.66797 -23.7979 3.94434 -48.5898 8.17773 -71.8916c4.16504 -22.9229 6.2959 -46.293 8.8291 -69.5039
c10.9893 16.29 21.5459 32.8711 31.4395 49.8975c22.1377 38.0996 46.3662 81.2324 50.7031 125.81c4.12695 42.4189 -16.1133 81.6094 -50.0879 106.519c-69.3135 50.8193 -170.153 30.0732 -238.379 -11.875c-65.2607 -40.126 -117.723 -107.979 -131.88 -184.206
c-7.68262 -41.3633 -0.572266 -92.6885 38.9795 -116.094c43.7324 -25.8809 92.6035 5.25781 123.529 36.3662c4.59766 4.62305 22.0137 1.07324 15.7383 -5.24219c-14.9492 -15.04 -31.5664 -28.7852 -50.7617 -38.0762
c-34.3643 -16.6348 -78.0986 -18.834 -109.672 5.20215c-33.165 25.2451 -42.9375 68.9795 -37.5859 108.552c10.5312 77.8818 61.3867 147.922 124.977 191.922c63.9795 44.2656 149.239 66.3857 225.577 45.4492c38.0488 -10.4355 72.7041 -33.8438 92.7773 -68.3145
c23.0391 -39.5693 16.9688 -84.2148 0.635742 -125.08c-20.7822 -51.9961 -50.4932 -99.9766 -83.2236 -145.728c5.03027 -45.0811 9.56738 -90.2354 13.9473 -135.379c2.2373 -23.0488 4.44922 -46.2441 6.08887 -69.4824c7.6543 38.3223 17.1006 76.2695 28.8135 113.592
c22.5859 71.9736 53.2188 143.944 97.0195 205.735c19.8174 27.9551 43.1777 53.6025 72.1426 72.2793c26.042 16.7939 59.8857 30.2305 89.999 15.9033c32.1631 -15.3037 26.9658 -51.2295 19.124 -80.0049c-9.34961 -34.3037 -28.4541 -64.5898 -50.1768 -92.376
c-37.1328 -47.4971 -82.8662 -88.4277 -132.472 -123.021c96.3027 -1.25977 192.62 -27.834 248.877 -113.292c57.1582 -86.8291 47.7607 -199.566 -10.1133 -283.463zM298.144 45.3672c4.5752 46.5732 2.45215 93.3779 -0.111328 140.005
c-2.56836 46.7334 -5.75684 93.4385 -8.56543 140.161c-8.10449 -10.5439 -16.2568 -21.0098 -24.3896 -31.3965c-28.7598 -36.7305 -57.9775 -73.125 -85.3281 -110.931c-27.1934 -37.5908 -54.043 -76.667 -72.4512 -119.447
c-18.1475 -42.1787 -28.5166 -89.8096 -18.0078 -135.368c8.16504 -35.3994 34.3291 -76.5986 72.5303 -83.9775c43.1172 -8.32715 79.1016 34.332 97.5811 67.5078c22.8291 40.9893 34.1826 87.0215 38.7422 133.446z" />
    <glyph glyph-name="C" unicode="C" horiz-adv-x="668" 
d="M593.808 -36.9648c-33.707 -76.7861 -102.4 -137.401 -189.748 -135.774c-37.7305 0.701172 -74.9395 7.58398 -108.165 26.0684c-41.3027 22.9756 -74.7588 60.3848 -94.1182 103.411c-30.3213 67.3906 -35.3516 145.247 -29.2686 218.007
c0.496094 5.92578 1.10352 11.8369 1.76367 17.7432c-10.0098 1.91309 -20.002 4.3418 -29.9541 7.35059c-61.7275 18.666 -118.736 58.2959 -151.434 114.652c-33.6133 57.9346 -35.124 127.911 -13.6924 190.348c22.1709 64.582 68.1904 122.3 127.287 156.829
c57.5576 33.6279 125.343 36.6162 185.014 6.52539c30.4551 -15.3594 56.0879 -37.8721 75.124 -65.0332c48.5166 42.4189 113.354 75.3135 178.577 68.6992c32.748 -3.31934 65.4297 -16.9102 84.5791 -44.6836c21.7734 -31.5791 23.3447 -71.7051 15.2627 -108.106
c-15.918 -71.6973 -59.5332 -137.648 -110.252 -189.63c-80.4473 -82.4492 -195.08 -145.202 -311.656 -142.196c-5.81934 -51.3662 -5.37109 -103.515 3.0957 -154.481c8.1123 -48.8457 26.584 -99.4707 60.7334 -136.279
c46.3311 -49.9443 119.028 -72.8994 183.413 -44.916c69.1367 30.0449 111.434 105.492 125.355 176.739c10.4053 53.2412 10.3594 136.518 -48.3906 162.79c-3.91699 1.75391 -2.50488 5.12891 0 7.10742c3.30957 2.61426 9.00293 1.54102 12.4697 0
c13.001 -5.77637 24.1475 -14.8223 32.7861 -26.0996c43.9697 -57.4062 27.9961 -148.068 1.21777 -209.07zM425.623 604.894c-14.0381 -11.4121 -26.9824 -23.9668 -39.0498 -37.3242c6.88477 -15.8174 11.8193 -32.6016 14.5166 -50.0283
c10.6396 -68.7598 -11.8271 -139.706 -54.9922 -193.436c-3.99805 -4.97754 -20.9893 -1.83203 -15.3975 5.12891c20.2783 25.2432 35.5439 54.2305 44.9062 85.2354c13.5781 44.9619 14.1045 94.5615 -1.4668 138.729
c-25.498 -30.9922 -46.7734 -65.6426 -65.5186 -100.888c-34.2559 -64.4102 -60.9766 -133.612 -75.8779 -205.133c-3.32715 -15.9766 -6.05762 -32.1123 -8.19824 -48.3398c15.2197 -0.572266 30.4424 0.105469 45.4219 2.10938
c134.286 17.9756 259.73 117.133 322.853 234.969c30.7158 57.3379 61.9072 151.103 0.141602 200.187c-50.0986 39.8125 -124.924 3.26172 -167.338 -31.209zM-13.6094 390.807c13.874 -99.4453 96.5371 -165.836 189.371 -185.831
c9.13477 69.2764 29.4512 137.014 57.7227 200.821c29.7549 67.1504 67.3232 134.541 120.668 185.955c0.243164 0.232422 0.494141 0.462891 0.737305 0.695312c-1.48535 2.28516 -3.00391 4.55273 -4.60352 6.7793c-35.0303 48.8184 -95.5615 83.2822 -156.639 78.8916
c-67.1104 -4.8252 -126.764 -55.8828 -162.613 -109.8c-34.415 -51.7607 -53.3223 -115.303 -44.6436 -177.512z" />
    <glyph glyph-name="D" unicode="D" horiz-adv-x="760" 
d="M111.637 361.363c-34.3643 -16.6348 -78.1016 -18.8359 -109.675 5.20996c-33.165 25.2451 -42.9375 68.9795 -37.5859 108.552c10.5312 77.8818 61.3838 147.922 124.977 191.922c63.9775 44.2656 149.24 66.3857 225.576 45.4492
c38.0488 -10.4355 72.7041 -33.8438 92.7773 -68.3145c23.0391 -39.5693 16.9658 -84.2148 0.632812 -125.08c-20.7793 -51.9961 -50.4902 -99.9766 -83.2207 -145.728c5.03027 -45.0811 9.56738 -90.2354 13.9473 -135.379
c2.96094 -30.5186 5.88867 -61.29 7.48535 -92.0771c10.9971 48.9746 22.1279 97.9189 35.3232 146.367c21.0176 77.1582 45.4053 158.858 89.9473 226.125c18.4434 27.8545 42.1758 57.8496 74.835 69.251c31.4678 10.9863 63.9756 -0.241211 87.999 -21.7598
c57.9248 -51.8877 79.8936 -138.8 89.7471 -212.833c10.8857 -81.7861 4.98535 -166.095 -17.8691 -245.434c-20.1084 -69.8125 -56.0498 -139.87 -114.66 -184.989c-56.5029 -43.4941 -143.046 -64.7285 -203.466 -15.8447
c-54.458 44.0635 -43.6709 128.054 -0.288086 175.275c22.8008 24.8174 53.3242 44.4297 86.4619 51.6611c30.1846 6.58398 66.5908 0.688477 86.6289 -24.9189c19.0791 -24.377 15.1719 -60.1338 -3.1377 -83.7979c-20.3691 -26.3232 -54.4248 -36.8418 -86.5146 -37.7979
c-11.2598 -0.336914 -11.1006 10.2275 0 10.501c37.2422 0.913086 75.7871 21.1377 83.4463 60.3838c7.54297 38.6465 -22.71 70.0654 -61.3486 67.5879c-36.0166 -2.30762 -72.127 -26.9658 -93.6094 -55.1182c-20.8936 -27.3779 -30.6182 -63.0635 -22.2705 -96.9648
c15.0703 -61.2119 84.1484 -82.5781 137.526 -58.9854c56.8516 25.1289 97.4688 80.9053 123.035 135.657c57.9248 124.048 64.7041 276.793 31.4404 408.444c-8.01367 31.7207 -18.3779 65.1064 -40.1465 90.3496c-23.4033 27.1357 -56.7734 42.5381 -89.4277 21.2305
c-28.3926 -18.5293 -48.8887 -49.9668 -65.0225 -79.0713c-16.6953 -30.124 -29.7549 -62.252 -41.5742 -94.5518c-38.9424 -106.424 -60.6025 -217.8 -86.6045 -327.918c-1.64746 -32.9453 -6.07324 -65.6855 -14.8994 -97.9248
c-11.2451 -41.0703 -30.0684 -83.1328 -61.748 -112.602c-32.333 -30.0781 -79.8809 -45.0527 -123.211 -34.1924c-80.4551 20.167 -95.9258 115.528 -79.4102 184.665c20.3594 85.2373 78.2871 158.69 131.065 226.537c29.6992 38.1777 60.3164 75.8594 89.2285 114.73
c-2.78809 49.0938 -5.05273 98.0186 -4.85742 147.196c0.154297 38.8154 3.08203 91.7227 45.6904 107.747c6.80371 2.55859 19.6807 -4.50586 8.89844 -8.67871c-22.1152 -8.55762 -30.8955 -34.8857 -32.416 -56.5859
c-1.66797 -23.7979 3.94727 -48.5898 8.17773 -71.8916c4.16504 -22.9229 6.2959 -46.293 8.8291 -69.5039c10.9893 16.29 21.5459 32.8711 31.4395 49.8975c22.1377 38.0996 46.3662 81.2324 50.7031 125.81c4.12988 42.4189 -16.1104 81.6094 -50.085 106.519
c-69.3135 50.8193 -170.153 30.0732 -238.379 -11.875c-65.2607 -40.126 -117.723 -107.979 -131.88 -184.206c-7.68262 -41.3633 -0.569336 -92.6885 38.9824 -116.094c43.7324 -25.8809 92.6035 5.25781 123.529 36.3662
c4.59766 4.62305 22.0137 1.07324 15.7383 -5.24219c-14.9492 -15.04 -31.5664 -28.7852 -50.7617 -38.0762zM298.034 185.37c-2.56836 46.7354 -5.75977 93.4365 -8.56836 140.159c-8.10449 -10.5439 -16.2568 -21.0098 -24.3896 -31.3965
c-28.7598 -36.7305 -57.9775 -73.125 -85.3281 -110.931c-27.1934 -37.5908 -54.043 -76.667 -72.4512 -119.447c-18.1475 -42.1787 -28.5166 -89.8096 -18.0078 -135.368c8.16504 -35.3994 34.3291 -76.5986 72.5303 -83.9775
c43.1201 -8.32715 79.1016 34.332 97.5811 67.5078c22.8291 40.9893 34.1826 87.0215 38.7422 133.446c4.5752 46.5762 2.45508 93.3828 -0.108398 140.007z" />
    <glyph glyph-name="E" unicode="E" horiz-adv-x="701" 
d="M634.227 -58.3691c-74.9795 -145.447 -316.646 -172.344 -415.603 -37.8281c-39.3975 53.5527 -51.5254 115.984 -41.9629 181.141c5.35449 36.4854 16.7988 71.9404 36.7891 102.608c-11.3486 0.675781 -22.71 1.96094 -34.0508 3.97266
c-95.5312 16.9512 -186.556 82.8135 -208.898 180.943c-23.0791 101.36 28.9092 210.289 109.781 271.28c66.4648 50.124 166.538 67.8262 242.644 28.1709c25.6201 -13.3506 46.2246 -33.0186 61.8594 -56.2598c5.62793 4.02344 11.3799 7.84473 17.2676 11.415
c43.0918 26.1387 96.6064 46.2627 147.621 41.3389c52.9375 -5.1084 91.834 -41.8037 98.3779 -94.9717c7.06445 -57.4238 -20.7822 -117.876 -50.6045 -165.333c-29.585 -47.0771 -68.0088 -88.4834 -111.45 -123.065
c-62.0547 -49.3975 -138.391 -86.8818 -217.849 -95.9355c-2.67188 -3.36035 -5.21484 -6.81641 -7.58789 -10.3789c-55.5029 -83.2666 -53.0986 -206.373 13.6592 -282.202c44.501 -50.5518 121.694 -73.626 187.466 -61.918
c76.6289 13.6436 141.772 65.1357 167.18 139.48c26.1719 76.5762 21.4355 201.023 -62.8584 239.781c-3.88867 1.78906 -2.53223 5.10645 0.000976562 7.1084c3.28906 2.5957 9.02832 1.57324 12.4697 -0.000976562c50.8701 -23.251 73.7471 -76.292 79.876 -129.158
c5.85254 -50.4854 -0.663086 -104.673 -24.127 -150.188zM473.324 640.694c-26.9229 -11.7227 -51.793 -30.3438 -73.501 -51.5635c8.75488 -18.5527 14.876 -38.4766 18.3555 -58.7246c8.35547 -48.6406 4.05371 -107.408 -28.0088 -147.284
c-4.00098 -4.97754 -20.9922 -1.83008 -15.3975 5.12793c6.13379 7.62891 10.9463 16.2471 14.8408 25.21c21.6797 49.8887 19.7217 111.406 -2.19141 162.906c-6.66211 -7.20605 -12.9834 -14.5918 -18.8789 -22.0312c-45.21 -57.0566 -91.6289 -146.882 -57.7295 -219.816
c5.2002 -11.1865 11.3613 -20.5459 19.1396 -29.2275c3.7627 -4.2002 7.77344 -8.17773 11.9912 -11.9199c1.84668 -1.63965 3.73145 -3.23145 5.6543 -4.78027c0.642578 -0.518555 3.68164 -2.79883 4.00586 -3.07715c5.50879 -3.89648 11.248 -7.48438 17.2227 -10.627
c1.94336 -1.02246 4.40527 -1.79199 6.2168 -3.03906c5.97168 -2.88672 12.0068 -7.86621 9.00879 -15.1152c-3.58008 -8.65137 -16.6699 -10.0078 -24.3545 -10.5693c15.1143 1.1084 -2.4873 -0.852539 -6.22949 -1.54297
c-0.308594 -0.0556641 -0.539062 -0.0957031 -0.777344 -0.135742c-0.126953 -0.0400391 -0.220703 -0.0703125 -0.370117 -0.116211c-2.35547 -0.713867 -4.75195 -1.29883 -7.10547 -2.02734c-5.54688 -1.71289 -10.959 -3.75 -16.3311 -5.94141
c-0.139648 -0.0556641 -0.228516 -0.0908203 -0.347656 -0.138672c-0.154297 -0.0732422 -0.288086 -0.138672 -0.483398 -0.232422c-1.52832 -0.728516 -3.06152 -1.44727 -4.57715 -2.20117c-3.18359 -1.58691 -6.32129 -3.2666 -9.40332 -5.04297
c-5.94336 -3.41895 -13.7041 -8.61914 -17.0869 -11.2607c-6.00977 -4.69336 -11.7334 -9.80762 -17.1182 -15.2578c92.3857 14.7119 177.429 69.2539 241.295 135.744c35.2627 36.71 64.9688 78.8887 85.4365 125.599c21.5361 49.1475 37.4873 112.398 2.11035 159.385
c-32.5576 43.2383 -91.1904 36.9424 -135.386 17.7012zM7.72754 325.402c40.8271 -78.0332 127.226 -123.085 213.465 -126.77c3.17578 4.22266 6.51074 8.34961 10.0605 12.3447c22.0498 24.8105 51.5029 44.001 83.4482 54.7627
c-37.3174 26.1592 -62.9951 67.0391 -65.5078 113.572c-2.57324 47.71 17.6748 94.8936 42.3936 134.569c21.293 34.1777 48.4385 66.4502 80.3154 91.9971c-20.7236 32.4824 -50.7715 58.0107 -88.9238 69.2402c-34.3213 10.1016 -71.2871 8.1123 -105.925 0.71582
c-51.7764 -11.0576 -96.7354 -45.3564 -129.673 -85.7988c-59.1396 -72.6162 -84.6787 -178.574 -39.6533 -264.634z" />
    <glyph glyph-name="E" unicode="&#xcb;" horiz-adv-x="701" 
d="M634.227 -58.3691c-74.9795 -145.447 -316.646 -172.344 -415.603 -37.8281c-39.3975 53.5527 -51.5254 115.984 -41.9629 181.141c5.35449 36.4854 16.7988 71.9404 36.7891 102.608c-11.3486 0.675781 -22.71 1.96094 -34.0508 3.97266
c-95.5312 16.9512 -186.556 82.8135 -208.898 180.943c-23.0791 101.36 28.9092 210.289 109.781 271.28c66.4648 50.124 166.538 67.8262 242.644 28.1709c25.6201 -13.3506 46.2246 -33.0186 61.8594 -56.2598c5.62793 4.02344 11.3799 7.84473 17.2676 11.415
c43.0918 26.1387 96.6064 46.2627 147.621 41.3389c52.9375 -5.1084 91.834 -41.8037 98.3779 -94.9717c7.06445 -57.4238 -20.7822 -117.876 -50.6045 -165.333c-29.585 -47.0771 -68.0088 -88.4834 -111.45 -123.065
c-62.0547 -49.3975 -138.391 -86.8818 -217.849 -95.9355c-2.67188 -3.36035 -5.21484 -6.81641 -7.58789 -10.3789c-55.5029 -83.2666 -53.0986 -206.373 13.6592 -282.202c44.501 -50.5518 121.694 -73.626 187.466 -61.918
c76.6289 13.6436 141.772 65.1357 167.18 139.48c26.1719 76.5762 21.4355 201.023 -62.8584 239.781c-3.88867 1.78906 -2.53223 5.10645 0.000976562 7.1084c3.28906 2.5957 9.02832 1.57324 12.4697 -0.000976562c50.8701 -23.251 73.7471 -76.292 79.876 -129.158
c5.85254 -50.4854 -0.663086 -104.673 -24.127 -150.188zM473.324 640.694c-26.9229 -11.7227 -51.793 -30.3438 -73.501 -51.5635c8.75488 -18.5527 14.876 -38.4766 18.3555 -58.7246c8.35547 -48.6406 4.05371 -107.408 -28.0088 -147.284
c-4.00098 -4.97754 -20.9922 -1.83008 -15.3975 5.12793c6.13379 7.62891 10.9463 16.2471 14.8408 25.21c21.6797 49.8887 19.7217 111.406 -2.19141 162.906c-6.66211 -7.20605 -12.9834 -14.5918 -18.8789 -22.0312c-45.21 -57.0566 -91.6289 -146.882 -57.7295 -219.816
c5.2002 -11.1865 11.3613 -20.5459 19.1396 -29.2275c3.7627 -4.2002 7.77344 -8.17773 11.9912 -11.9199c1.84668 -1.63965 3.73145 -3.23145 5.6543 -4.78027c0.642578 -0.518555 3.68164 -2.79883 4.00586 -3.07715c5.50879 -3.89648 11.248 -7.48438 17.2227 -10.627
c1.94336 -1.02246 4.40527 -1.79199 6.2168 -3.03906c5.97168 -2.88672 12.0068 -7.86621 9.00879 -15.1152c-3.58008 -8.65137 -16.6699 -10.0078 -24.3545 -10.5693c15.1143 1.1084 -2.4873 -0.852539 -6.22949 -1.54297
c-0.308594 -0.0556641 -0.539062 -0.0957031 -0.777344 -0.135742c-0.126953 -0.0400391 -0.220703 -0.0703125 -0.370117 -0.116211c-2.35547 -0.713867 -4.75195 -1.29883 -7.10547 -2.02734c-5.54688 -1.71289 -10.959 -3.75 -16.3311 -5.94141
c-0.139648 -0.0556641 -0.228516 -0.0908203 -0.347656 -0.138672c-0.154297 -0.0732422 -0.288086 -0.138672 -0.483398 -0.232422c-1.52832 -0.728516 -3.06152 -1.44727 -4.57715 -2.20117c-3.18359 -1.58691 -6.32129 -3.2666 -9.40332 -5.04297
c-5.94336 -3.41895 -13.7041 -8.61914 -17.0869 -11.2607c-6.00977 -4.69336 -11.7334 -9.80762 -17.1182 -15.2578c92.3857 14.7119 177.429 69.2539 241.295 135.744c35.2627 36.71 64.9688 78.8887 85.4365 125.599c21.5361 49.1475 37.4873 112.398 2.11035 159.385
c-32.5576 43.2383 -91.1904 36.9424 -135.386 17.7012zM7.72754 325.402c40.8271 -78.0332 127.226 -123.085 213.465 -126.77c3.17578 4.22266 6.51074 8.34961 10.0605 12.3447c22.0498 24.8105 51.5029 44.001 83.4482 54.7627
c-37.3174 26.1592 -62.9951 67.0391 -65.5078 113.572c-2.57324 47.71 17.6748 94.8936 42.3936 134.569c21.293 34.1777 48.4385 66.4502 80.3154 91.9971c-20.7236 32.4824 -50.7715 58.0107 -88.9238 69.2402c-34.3213 10.1016 -71.2871 8.1123 -105.925 0.71582
c-51.7764 -11.0576 -96.7354 -45.3564 -129.673 -85.7988c-59.1396 -72.6162 -84.6787 -178.574 -39.6533 -264.634z" />
    <glyph glyph-name="E" unicode="&#xca;" horiz-adv-x="701" 
d="M634.227 -58.3691c-74.9795 -145.447 -316.646 -172.344 -415.603 -37.8281c-39.3975 53.5527 -51.5254 115.984 -41.9629 181.141c5.35449 36.4854 16.7988 71.9404 36.7891 102.608c-11.3486 0.675781 -22.71 1.96094 -34.0508 3.97266
c-95.5312 16.9512 -186.556 82.8135 -208.898 180.943c-23.0791 101.36 28.9092 210.289 109.781 271.28c66.4648 50.124 166.538 67.8262 242.644 28.1709c25.6201 -13.3506 46.2246 -33.0186 61.8594 -56.2598c5.62793 4.02344 11.3799 7.84473 17.2676 11.415
c43.0918 26.1387 96.6064 46.2627 147.621 41.3389c52.9375 -5.1084 91.834 -41.8037 98.3779 -94.9717c7.06445 -57.4238 -20.7822 -117.876 -50.6045 -165.333c-29.585 -47.0771 -68.0088 -88.4834 -111.45 -123.065
c-62.0547 -49.3975 -138.391 -86.8818 -217.849 -95.9355c-2.67188 -3.36035 -5.21484 -6.81641 -7.58789 -10.3789c-55.5029 -83.2666 -53.0986 -206.373 13.6592 -282.202c44.501 -50.5518 121.694 -73.626 187.466 -61.918
c76.6289 13.6436 141.772 65.1357 167.18 139.48c26.1719 76.5762 21.4355 201.023 -62.8584 239.781c-3.88867 1.78906 -2.53223 5.10645 0.000976562 7.1084c3.28906 2.5957 9.02832 1.57324 12.4697 -0.000976562c50.8701 -23.251 73.7471 -76.292 79.876 -129.158
c5.85254 -50.4854 -0.663086 -104.673 -24.127 -150.188zM473.324 640.694c-26.9229 -11.7227 -51.793 -30.3438 -73.501 -51.5635c8.75488 -18.5527 14.876 -38.4766 18.3555 -58.7246c8.35547 -48.6406 4.05371 -107.408 -28.0088 -147.284
c-4.00098 -4.97754 -20.9922 -1.83008 -15.3975 5.12793c6.13379 7.62891 10.9463 16.2471 14.8408 25.21c21.6797 49.8887 19.7217 111.406 -2.19141 162.906c-6.66211 -7.20605 -12.9834 -14.5918 -18.8789 -22.0312c-45.21 -57.0566 -91.6289 -146.882 -57.7295 -219.816
c5.2002 -11.1865 11.3613 -20.5459 19.1396 -29.2275c3.7627 -4.2002 7.77344 -8.17773 11.9912 -11.9199c1.84668 -1.63965 3.73145 -3.23145 5.6543 -4.78027c0.642578 -0.518555 3.68164 -2.79883 4.00586 -3.07715c5.50879 -3.89648 11.248 -7.48438 17.2227 -10.627
c1.94336 -1.02246 4.40527 -1.79199 6.2168 -3.03906c5.97168 -2.88672 12.0068 -7.86621 9.00879 -15.1152c-3.58008 -8.65137 -16.6699 -10.0078 -24.3545 -10.5693c15.1143 1.1084 -2.4873 -0.852539 -6.22949 -1.54297
c-0.308594 -0.0556641 -0.539062 -0.0957031 -0.777344 -0.135742c-0.126953 -0.0400391 -0.220703 -0.0703125 -0.370117 -0.116211c-2.35547 -0.713867 -4.75195 -1.29883 -7.10547 -2.02734c-5.54688 -1.71289 -10.959 -3.75 -16.3311 -5.94141
c-0.139648 -0.0556641 -0.228516 -0.0908203 -0.347656 -0.138672c-0.154297 -0.0732422 -0.288086 -0.138672 -0.483398 -0.232422c-1.52832 -0.728516 -3.06152 -1.44727 -4.57715 -2.20117c-3.18359 -1.58691 -6.32129 -3.2666 -9.40332 -5.04297
c-5.94336 -3.41895 -13.7041 -8.61914 -17.0869 -11.2607c-6.00977 -4.69336 -11.7334 -9.80762 -17.1182 -15.2578c92.3857 14.7119 177.429 69.2539 241.295 135.744c35.2627 36.71 64.9688 78.8887 85.4365 125.599c21.5361 49.1475 37.4873 112.398 2.11035 159.385
c-32.5576 43.2383 -91.1904 36.9424 -135.386 17.7012zM7.72754 325.402c40.8271 -78.0332 127.226 -123.085 213.465 -126.77c3.17578 4.22266 6.51074 8.34961 10.0605 12.3447c22.0498 24.8105 51.5029 44.001 83.4482 54.7627
c-37.3174 26.1592 -62.9951 67.0391 -65.5078 113.572c-2.57324 47.71 17.6748 94.8936 42.3936 134.569c21.293 34.1777 48.4385 66.4502 80.3154 91.9971c-20.7236 32.4824 -50.7715 58.0107 -88.9238 69.2402c-34.3213 10.1016 -71.2871 8.1123 -105.925 0.71582
c-51.7764 -11.0576 -96.7354 -45.3564 -129.673 -85.7988c-59.1396 -72.6162 -84.6787 -178.574 -39.6533 -264.634z" />
    <glyph glyph-name="E" unicode="&#xc9;" horiz-adv-x="701" 
d="M634.227 -58.3691c-74.9795 -145.447 -316.646 -172.344 -415.603 -37.8281c-39.3975 53.5527 -51.5254 115.984 -41.9629 181.141c5.35449 36.4854 16.7988 71.9404 36.7891 102.608c-11.3486 0.675781 -22.71 1.96094 -34.0508 3.97266
c-95.5312 16.9512 -186.556 82.8135 -208.898 180.943c-23.0791 101.36 28.9092 210.289 109.781 271.28c66.4648 50.124 166.538 67.8262 242.644 28.1709c25.6201 -13.3506 46.2246 -33.0186 61.8594 -56.2598c5.62793 4.02344 11.3799 7.84473 17.2676 11.415
c43.0918 26.1387 96.6064 46.2627 147.621 41.3389c52.9375 -5.1084 91.834 -41.8037 98.3779 -94.9717c7.06445 -57.4238 -20.7822 -117.876 -50.6045 -165.333c-29.585 -47.0771 -68.0088 -88.4834 -111.45 -123.065
c-62.0547 -49.3975 -138.391 -86.8818 -217.849 -95.9355c-2.67188 -3.36035 -5.21484 -6.81641 -7.58789 -10.3789c-55.5029 -83.2666 -53.0986 -206.373 13.6592 -282.202c44.501 -50.5518 121.694 -73.626 187.466 -61.918
c76.6289 13.6436 141.772 65.1357 167.18 139.48c26.1719 76.5762 21.4355 201.023 -62.8584 239.781c-3.88867 1.78906 -2.53223 5.10645 0.000976562 7.1084c3.28906 2.5957 9.02832 1.57324 12.4697 -0.000976562c50.8701 -23.251 73.7471 -76.292 79.876 -129.158
c5.85254 -50.4854 -0.663086 -104.673 -24.127 -150.188zM473.324 640.694c-26.9229 -11.7227 -51.793 -30.3438 -73.501 -51.5635c8.75488 -18.5527 14.876 -38.4766 18.3555 -58.7246c8.35547 -48.6406 4.05371 -107.408 -28.0088 -147.284
c-4.00098 -4.97754 -20.9922 -1.83008 -15.3975 5.12793c6.13379 7.62891 10.9463 16.2471 14.8408 25.21c21.6797 49.8887 19.7217 111.406 -2.19141 162.906c-6.66211 -7.20605 -12.9834 -14.5918 -18.8789 -22.0312c-45.21 -57.0566 -91.6289 -146.882 -57.7295 -219.816
c5.2002 -11.1865 11.3613 -20.5459 19.1396 -29.2275c3.7627 -4.2002 7.77344 -8.17773 11.9912 -11.9199c1.84668 -1.63965 3.73145 -3.23145 5.6543 -4.78027c0.642578 -0.518555 3.68164 -2.79883 4.00586 -3.07715c5.50879 -3.89648 11.248 -7.48438 17.2227 -10.627
c1.94336 -1.02246 4.40527 -1.79199 6.2168 -3.03906c5.97168 -2.88672 12.0068 -7.86621 9.00879 -15.1152c-3.58008 -8.65137 -16.6699 -10.0078 -24.3545 -10.5693c15.1143 1.1084 -2.4873 -0.852539 -6.22949 -1.54297
c-0.308594 -0.0556641 -0.539062 -0.0957031 -0.777344 -0.135742c-0.126953 -0.0400391 -0.220703 -0.0703125 -0.370117 -0.116211c-2.35547 -0.713867 -4.75195 -1.29883 -7.10547 -2.02734c-5.54688 -1.71289 -10.959 -3.75 -16.3311 -5.94141
c-0.139648 -0.0556641 -0.228516 -0.0908203 -0.347656 -0.138672c-0.154297 -0.0732422 -0.288086 -0.138672 -0.483398 -0.232422c-1.52832 -0.728516 -3.06152 -1.44727 -4.57715 -2.20117c-3.18359 -1.58691 -6.32129 -3.2666 -9.40332 -5.04297
c-5.94336 -3.41895 -13.7041 -8.61914 -17.0869 -11.2607c-6.00977 -4.69336 -11.7334 -9.80762 -17.1182 -15.2578c92.3857 14.7119 177.429 69.2539 241.295 135.744c35.2627 36.71 64.9688 78.8887 85.4365 125.599c21.5361 49.1475 37.4873 112.398 2.11035 159.385
c-32.5576 43.2383 -91.1904 36.9424 -135.386 17.7012zM7.72754 325.402c40.8271 -78.0332 127.226 -123.085 213.465 -126.77c3.17578 4.22266 6.51074 8.34961 10.0605 12.3447c22.0498 24.8105 51.5029 44.001 83.4482 54.7627
c-37.3174 26.1592 -62.9951 67.0391 -65.5078 113.572c-2.57324 47.71 17.6748 94.8936 42.3936 134.569c21.293 34.1777 48.4385 66.4502 80.3154 91.9971c-20.7236 32.4824 -50.7715 58.0107 -88.9238 69.2402c-34.3213 10.1016 -71.2871 8.1123 -105.925 0.71582
c-51.7764 -11.0576 -96.7354 -45.3564 -129.673 -85.7988c-59.1396 -72.6162 -84.6787 -178.574 -39.6533 -264.634z" />
    <glyph glyph-name="F" unicode="F" horiz-adv-x="446" 
d="M454.098 258.213c23.3096 -44.7949 24.042 -102.666 -10.5303 -141.839c-4.74902 -5.38184 -23.6758 -1.47461 -17.1016 5.69922c39.666 43.292 28.0615 112.201 -5.2832 155.516c-15.5391 20.1816 -35.498 36.5557 -57.8838 48.4209
c1.91016 -76.2373 2.16309 -153.793 -9.86914 -229.232c-9.64355 -60.458 -28.1836 -123.193 -76.0352 -164.711c-47.5303 -41.2373 -118.717 -53.5049 -176.184 -26.5215c-107.553 50.5029 -101.479 192.286 -59.9062 288.164
c-14.6582 9.99219 -27.748 22.3604 -38.5068 36.3662c-30.9238 40.2549 -43.0137 93.8047 -33.7705 143.614c8.44141 45.4883 34.4336 85.2656 69.54 114.863c83.6025 70.4834 197.564 76.4023 301.855 69.958c1.03027 -0.0634766 2.0625 -0.131836 3.09277 -0.197266
c2.79883 4.12402 6.27539 7.78809 10.752 10.7256c4.21289 2.76562 21.1709 0.839844 14.9336 -6.56934c-1.36621 -1.62207 -2.4873 -3.5498 -3.43359 -5.67285c50.3389 -3.51465 101.718 -6.75098 150.242 8.85156c48.3115 15.5312 107.777 61.4092 89.3213 119.671
c-17.5205 55.3037 -96.6621 58.0039 -141.788 42.1738c-25.0684 -8.79297 -49.0332 -24.6182 -63.833 -47.0645c-7.57129 -11.4824 -13.4541 -25.2529 -13.6895 -39.165c-0.214844 -12.707 6.31348 -31.5 21.8096 -32.082
c10.9004 -0.412109 10.9609 -10.7109 -0.000976562 -10.2783c-25.3643 1.00488 -41.8164 21.3262 -39.377 46.5205c2.56348 26.4951 20.3418 50.2275 40.6504 66.2803c43.9932 34.7695 108.249 44.5312 160.941 25.6523c21.0498 -7.54297 41.2393 -20.7461 50.9434 -41.6191
c10.2227 -21.9863 7.71777 -48.2236 -3.07715 -69.4785c-23.418 -46.1055 -76.4922 -69.4932 -124.893 -78.2959c-43.1201 -7.8418 -86.8193 -5.1416 -130.377 -2.16602c-2.17383 -12.7373 -1.15918 -27.9697 -1.19727 -37.4834
c-0.078125 -19.5752 0.0234375 -39.1377 -0.0654297 -58.7148c-0.166992 -36.3311 0.625 -72.6943 1.55371 -109.021c38.2031 -16.9004 71.834 -45.2148 91.166 -82.3652zM-3.60352 280.167c9.9873 -27.8467 27.9395 -53.874 51.3018 -72.6465
c1.32324 2.68457 2.66699 5.3291 4.04395 7.91797c51.0957 96.1055 159.048 161.697 268.488 138.898c0.111328 17.0322 0.333984 34.0645 0.839844 51.0908c0.946289 31.915 2.71973 64.0908 8.25098 95.5586c2.54785 14.499 3.18262 31.9404 8.62793 46.4492
c-8.59082 0.536133 -17.1689 1.01465 -25.7314 1.34082c-60.6074 2.31543 -122.831 -0.53418 -180.229 -21.8955c-46.5029 -17.3076 -90.0781 -47.8262 -117.308 -89.8701c-29.9971 -46.3184 -36.9453 -104.81 -18.2842 -156.844zM318.917 216.243
c1.43945 42.0674 1.09473 84.1621 1.25195 126.249c-15.625 3.87109 -31.7412 5.74316 -47.8418 5.42969c-95.3584 -1.86523 -170.449 -68.793 -208.751 -151.505c13.6416 -8.19824 28.6621 -14.0107 44.6865 -16.5791c49.0107 -7.85449 99.4102 21.2852 115.979 68.2051
c2.15332 6.09863 19.4766 4.60547 17.0049 -2.67188c-15.6025 -45.9287 -61.8242 -74.7695 -109.013 -77.917c-25.9561 -1.73047 -51.4443 4.47168 -74.2051 16.2607c-4.95703 -12.0898 -9.16016 -24.4482 -12.5156 -36.9404
c-14.8076 -55.1211 -18.2539 -119.361 9.40527 -171.117c26.7354 -50.0273 80.9482 -78.8203 136.93 -61.1201c52.8721 16.7158 85.2783 69.0508 101.721 119.058c19.1191 58.1523 23.2686 121.856 25.3486 182.648z" />
    <glyph glyph-name="G" unicode="G" horiz-adv-x="675" 
d="M510.636 -116.176c2.69531 6.87012 22.3564 5.05273 19.2998 -3.03125c-11.2803 -29.7998 21.002 -48.499 46.4141 -47.2236c27.3936 1.37402 57.3887 11.3086 77.7148 30.1318c34.1191 31.5967 42.1279 85.2529 25.4072 127.522
c-13.8438 34.9951 -38.1328 59.415 -67.6895 75.3213c-11.584 -36.7354 -28.8711 -71.5957 -52.5957 -101.965c-34.4229 -44.0684 -85.1943 -76.0039 -141.434 -81.7754c-28.4434 -2.91797 -57.5225 -0.415039 -84.1699 10.4326
c-21.2627 8.65332 -44.9395 23.6152 -53.8037 46.042c-9.1748 23.2188 -0.275391 51.4854 13.0342 71.166c15.0225 22.2139 35.999 39.4531 58.9541 52.9854c47.8486 28.2109 107.249 40.7939 162.448 39.7842c19.251 -0.351562 38.5273 -2.69238 57.166 -7.25488
c8.91211 35.9688 12.2998 72.9521 11.6826 110.457c-0.723633 43.9902 -6.44727 87.8359 -5.73633 131.768c-3.89453 -5.7334 -7.77344 -11.4824 -11.625 -17.2461c-43.0615 -64.4561 -85.7559 -131.976 -148.45 -179.387
c-31.5303 -23.8438 -67.2842 -42.0371 -107.261 -45.0381c-37.8115 -2.83691 -76.5762 10.6094 -100.002 41.3203c-46.9658 61.5713 -31.5859 155.018 -10.0752 223.307c10.1084 32.0928 23.8916 63.79 40.7012 93.9346
c-73.9521 -0.412109 -151.725 -9.37988 -206.79 -63.1367c-25.8047 -25.1895 -45.1143 -59.7266 -47.71 -96.1641c-2.4668 -34.625 16.5947 -78.0664 54.7578 -82.9854c43.4561 -5.60254 80.4219 34.1191 98.3447 69.3848c9.00586 17.7227 15.6377 41.6016 1.99414 58.8105
c-16.2959 20.5537 -42.9277 12.7354 -60.6328 -1.25c-5.74121 -4.53418 -25.5947 -0.0732422 -17.958 5.98438c14.208 11.2676 30.3486 19.0938 48.7061 20.0098c35.1338 1.75098 64.3867 -23.9932 57.5342 -60.375c-6.50586 -34.5371 -33.5479 -68.5908 -62.4424 -87.6289
c-29.3291 -19.3271 -70.2422 -24.7754 -101.462 -6.58203c-29.1143 16.9688 -41.999 50.5215 -42.9053 82.8896c-2.01465 71.9248 59.5107 128.091 121.727 152.56c53.0059 20.8477 109.226 23.8438 165.592 23.6055c21.915 36.3613 48.2988 70.0508 78.1699 98.793
c27.8994 26.8447 59.4834 49.375 94.873 65.2402c37.3203 16.7285 81.0752 29.4863 121.783 18.416c33.6963 -9.16211 61.1152 -40.0498 51.9199 -76.373c-9.05371 -35.7695 -41.3584 -64.7441 -72.0137 -82.748c-70.1592 -41.2021 -153.841 -40.5439 -233.104 -39.043
c-12.0264 -20.6045 -22.6943 -41.9199 -31.9102 -63.5566c-16.6729 -39.1475 -28.1611 -80.3867 -32.1738 -122.811c-3.4209 -36.1611 -3.05371 -74.0811 11.3672 -108.043c16.002 -37.6895 52.502 -57.958 93.1445 -47.8623
c41.6143 10.3389 78.0205 39.5869 107.803 69.3408c55.126 55.0752 94.25 123.43 139.69 186.195c0.0605469 0.640625 0.0986328 1.28125 0.164062 1.92188c1.30078 12.8975 31.1787 12.7637 32.6562 0.000976562c8.53516 -73.7139 23.6719 -149.169 16.2354 -223.594
c-2.22461 -22.2549 -6.29883 -44.4658 -12.2578 -66.1533c15.7461 -7.78809 30.501 -17.6338 43.6865 -29.8633c36.1689 -33.5479 55.7031 -82.4043 44.8809 -131.422c-10.9512 -49.6074 -48.6182 -80.1182 -96.7656 -91.4873
c-24.3066 -5.74121 -52.5938 -8.64355 -75.2256 4.32227c-18.2617 10.458 -29.6689 31.9404 -21.6582 52.3525zM399.343 582.838c-39.1699 -31.3389 -72.3301 -70.4668 -99.2686 -113.328c15.6299 -0.240234 31.2041 -0.394531 46.6494 -0.141602
c44.4482 0.726562 89.7363 4.96973 131.297 21.7812c35.1113 14.2002 70.5215 39.4248 86.6377 74.8193c9.44531 20.7383 6.67188 41.5273 -10.7471 56.6689c-15.0352 13.0693 -33.7119 15.582 -52.8613 12.1006c-37.54 -6.8291 -72.3447 -28.4082 -101.707 -51.9004z
M557.279 51.6016c4.12402 10.4629 7.66309 21.042 10.7227 31.7129c-43.7246 11.04 -92.4844 8.94531 -134.757 -1.89941c-43.8711 -11.2549 -91.1055 -33.1504 -116.037 -72.9355c-12.8291 -20.4727 -17.2998 -42.3223 -5.22266 -64.1416
c10.7061 -19.3369 30.0908 -31.3535 51.2646 -36.4551c41.4062 -9.97754 86.335 6.42188 118.248 32.8789c35.0957 29.0967 59.2051 68.7725 75.7812 110.84z" />
    <glyph glyph-name="H" unicode="H" horiz-adv-x="679" 
d="M761.978 -87.2764c10.0527 -35.7998 1.62598 -78.9209 -29.5576 -101.942c-34.4561 -25.4453 -82.7119 -10.7793 -110.227 17.9355c-32.6562 34.0811 -45.6719 83.5518 -55.958 128.258c-1.64258 7.13281 -3.16602 14.2959 -4.62598 21.4746
c-27.3965 -11.9307 -52.2471 -30.7236 -71.5889 -53.2637c-24.8027 -28.9062 -47.0947 -69.2275 -44.9131 -108.354c0.981445 -17.6191 9.60742 -42.3789 28.3145 -48.4844c20.2881 -6.62402 41.6035 19.3877 53.4561 32.3809
c4.62793 5.07324 22.9756 1.52539 16.5918 -5.5293c-13.4814 -14.8984 -28.6104 -30.5615 -48.3779 -36.6191c-38.6533 -11.8447 -67.7295 22.123 -69.8428 58.251c-2.49219 42.626 22.3916 86.0293 49.7695 116.99c22.7373 25.7139 51.9834 45.8506 84.0078 57.8799
c-15.6279 83.2236 -19.9121 169.177 -20.4463 253.731c-21.3262 -12.6211 -43.8818 -23.5146 -67.5967 -32.4922c-40.9717 -15.5088 -83.6914 -25.8525 -126.546 -34.6914c5.35645 -69.5312 6.2373 -139.574 -12.333 -207.405
c-11.2451 -41.0703 -30.0713 -83.1328 -61.749 -112.602c-32.335 -30.0781 -79.8799 -45.0527 -123.21 -34.1924c-80.4551 20.167 -95.9258 115.528 -79.4102 184.665c20.3594 85.2373 78.2871 158.69 131.065 226.537c29.6982 38.1777 60.3154 75.8594 89.2275 114.73
c-2.78809 49.0938 -5.0498 98.0186 -4.85449 147.196c0.154297 38.8154 3.08203 91.7227 45.6904 107.747c6.80176 2.55859 19.6787 -4.50586 8.89941 -8.67871c-22.1152 -8.55762 -30.8955 -34.8857 -32.416 -56.5859c-1.66797 -23.7979 3.94434 -48.5898 8.17773 -71.8916
c4.16504 -22.9229 6.2959 -46.293 8.8291 -69.5039c10.9893 16.29 21.5459 32.8711 31.4395 49.8975c22.1377 38.0996 46.3662 81.2324 50.7031 125.81c4.12695 42.4189 -16.1133 81.6094 -50.0879 106.519c-69.3135 50.8193 -170.153 30.0732 -238.379 -11.875
c-65.2607 -40.126 -117.723 -107.979 -131.88 -184.206c-7.68262 -41.3633 -0.569336 -92.6885 38.9824 -116.094c43.7324 -25.8809 92.6035 5.25781 123.529 36.3662c4.59473 4.62305 22.0137 1.07324 15.7383 -5.24219
c-14.9492 -15.04 -31.5664 -28.7852 -50.7617 -38.0762c-34.3643 -16.6348 -78.0986 -18.834 -109.672 5.20215c-33.165 25.2451 -42.9375 68.9795 -37.5859 108.552c10.5312 77.8818 61.3867 147.922 124.977 191.922c63.9795 44.2656 149.239 66.3857 225.577 45.4492
c38.0488 -10.4355 72.7041 -33.8438 92.7773 -68.3145c23.0361 -39.5693 16.9658 -84.2148 0.632812 -125.08c-20.7822 -51.9961 -50.4932 -99.9766 -83.2236 -145.728c5.03027 -45.0811 9.56738 -90.2354 13.9473 -135.379
c1.53809 -15.8506 3.06348 -31.7686 4.40234 -47.7227c32.6162 6.83203 65.0254 14.6611 96.6553 25.2305c35.124 11.7334 68.1152 27.3057 98.4014 46.835c-0.00292969 1.95898 -0.015625 3.92285 -0.0126953 5.87891c0.0478516 52.6768 2.95996 105.473 7.65332 157.932
c4.44629 49.6787 11.8828 99.4863 25.5898 147.51c10.2197 35.8047 25.4854 88.4482 66.1504 100.926c36.4619 11.1865 69.0449 -19.9268 82.3545 -51.0068c35.1943 -82.1904 -1.99902 -180.406 -47.8896 -250.443c-24.5195 -37.4189 -54.249 -69.7139 -88.2998 -96.5889
c0.53125 -80.291 4.5625 -160.604 14.9746 -240.258c1.46289 -11.1865 3.11816 -22.3428 4.97754 -33.4609c24.9268 3.0293 50.4531 1.01562 75.0908 -7.12695c39.1064 -12.9277 71.5586 -42.7178 82.8613 -82.9678zM298.151 45.3633
c4.04395 41.1465 2.85449 82.4746 0.751953 123.704c-10.832 -2.42871 -21.5508 -5.27051 -31.9561 -9.15723c-20.5215 -7.66406 -52.4541 -25.1416 -45.4424 -52.0469c1.96582 -7.54297 -14.9395 -8.71191 -17.0039 -2.67188
c-5.46289 15.9844 1.04492 30.7637 12.8721 42.041c21.1357 20.1543 51.8799 28.1553 80.8877 34.0107c-0.0732422 1.37402 -0.146484 2.75098 -0.222656 4.125c-2.56836 46.7334 -5.75684 93.4385 -8.56543 140.161c-8.10449 -10.5439 -16.2568 -21.0098 -24.3896 -31.3965
c-28.7598 -36.7305 -57.9775 -73.125 -85.3281 -110.931c-27.1934 -37.5908 -54.043 -76.667 -72.4512 -119.447c-18.1475 -42.1787 -28.5166 -89.8096 -18.0078 -135.368c8.16504 -35.3994 34.3291 -76.5986 72.5303 -83.9775
c43.1201 -8.32715 79.1016 34.332 97.5811 67.5078c22.8311 40.9893 34.1846 87.0215 38.7441 133.446zM584.03 307.892c-0.015625 -3.78027 -0.0107422 -7.5625 -0.0136719 -11.3398c17.502 15.3115 33.7617 32.2881 48.5488 51.0713
c47.7881 60.708 85.834 140.867 80.8037 219.733c-2.14844 33.6611 -15.5137 86.8389 -53.6357 97.2334c-20.9209 5.70312 -31.252 -15.3623 -36.9629 -31.4404c-6.8877 -19.3848 -12.0771 -39.7744 -16.457 -59.8604c-18.8691 -86.5352 -21.916 -177.104 -22.2832 -265.397
zM687.311 -182.49c38.7549 -11.6797 58.7158 44.6484 56.7119 73.5781c-2.8291 40.8369 -30.2129 76.5479 -67.9502 91.6211c-22.9805 9.17969 -46.7959 11.4346 -69.9766 8.34277c5.16211 -28.502 11.7178 -56.7334 20.0557 -84.5166
c9.64355 -32.1328 25.0635 -78.1475 61.1592 -89.0254z" />
    <glyph glyph-name="I" unicode="I" horiz-adv-x="389" 
d="M332.105 -29.1533c-11.2451 -41.0723 -30.0723 -83.1377 -61.752 -112.599c-32.333 -30.0781 -79.8779 -45.0527 -123.21 -34.1924c-80.4551 20.167 -95.9258 115.528 -79.4102 184.665c20.3594 85.2373 78.2871 158.69 131.065 226.537
c29.6992 38.1777 60.3164 75.8594 89.2285 114.73c-2.78809 49.0938 -5.0498 98.0186 -4.85449 147.196c0.154297 38.8154 3.08203 91.7227 45.6904 107.747c6.80371 2.55859 19.6807 -4.50586 8.89844 -8.67871c-22.1152 -8.55762 -30.8955 -34.8857 -32.416 -56.5859
c-1.66504 -23.7979 3.94727 -48.5898 8.17773 -71.8916c4.16504 -22.9229 6.2959 -46.293 8.8291 -69.5039c10.9893 16.29 21.5459 32.8711 31.4395 49.8975c22.1377 38.0996 46.3662 81.2324 50.7031 125.81c4.12988 42.4189 -16.1104 81.6094 -50.085 106.519
c-69.3135 50.8193 -170.153 30.0732 -238.379 -11.875c-65.2607 -40.126 -117.723 -107.979 -131.88 -184.206c-7.68262 -41.3633 -0.569336 -92.6885 38.9824 -116.094c43.7324 -25.8809 92.6035 5.25781 123.529 36.3662
c4.59473 4.62305 22.0107 1.07324 15.7354 -5.24219c-14.9492 -15.04 -31.5664 -28.7852 -50.7617 -38.0762c-34.3643 -16.6348 -78.0986 -18.834 -109.672 5.20215c-33.165 25.2451 -42.9375 68.9795 -37.5859 108.552c10.5312 77.8818 61.3838 147.922 124.977 191.922
c63.9775 44.2656 149.24 66.3857 225.576 45.4492c38.0488 -10.4355 72.7041 -33.8438 92.7773 -68.3145c23.0391 -39.5693 16.9658 -84.2148 0.634766 -125.08c-20.7822 -51.9961 -50.4932 -99.9766 -83.2236 -145.728c5.03027 -45.0811 9.56738 -90.2354 13.9473 -135.379
c8.62305 -88.8457 16.9453 -179.827 -6.96191 -267.147zM161.819 -155.588c43.1201 -8.32715 79.0996 34.3291 97.5762 67.5049c22.8311 40.9893 34.1826 87.0215 38.7422 133.446c4.57715 46.5762 2.4541 93.3828 -0.106445 140.007
c-2.56836 46.7334 -5.75684 93.4385 -8.56543 140.161c-8.10449 -10.5439 -16.2568 -21.0098 -24.3896 -31.3965c-28.7598 -36.7305 -57.9775 -73.124 -85.3281 -110.93c-27.1934 -37.5908 -54.043 -76.667 -72.4512 -119.447
c-18.1475 -42.1787 -28.5166 -89.8096 -18.0078 -135.368c8.16504 -35.3994 34.3291 -76.5986 72.5303 -83.9775z" />
    <glyph glyph-name="I" unicode="&#xcf;" horiz-adv-x="389" 
d="M332.105 -29.1533c-11.2451 -41.0723 -30.0723 -83.1377 -61.752 -112.599c-32.333 -30.0781 -79.8779 -45.0527 -123.21 -34.1924c-80.4551 20.167 -95.9258 115.528 -79.4102 184.665c20.3594 85.2373 78.2871 158.69 131.065 226.537
c29.6992 38.1777 60.3164 75.8594 89.2285 114.73c-2.78809 49.0938 -5.0498 98.0186 -4.85449 147.196c0.154297 38.8154 3.08203 91.7227 45.6904 107.747c6.80371 2.55859 19.6807 -4.50586 8.89844 -8.67871c-22.1152 -8.55762 -30.8955 -34.8857 -32.416 -56.5859
c-1.66504 -23.7979 3.94727 -48.5898 8.17773 -71.8916c4.16504 -22.9229 6.2959 -46.293 8.8291 -69.5039c10.9893 16.29 21.5459 32.8711 31.4395 49.8975c22.1377 38.0996 46.3662 81.2324 50.7031 125.81c4.12988 42.4189 -16.1104 81.6094 -50.085 106.519
c-69.3135 50.8193 -170.153 30.0732 -238.379 -11.875c-65.2607 -40.126 -117.723 -107.979 -131.88 -184.206c-7.68262 -41.3633 -0.569336 -92.6885 38.9824 -116.094c43.7324 -25.8809 92.6035 5.25781 123.529 36.3662
c4.59473 4.62305 22.0107 1.07324 15.7354 -5.24219c-14.9492 -15.04 -31.5664 -28.7852 -50.7617 -38.0762c-34.3643 -16.6348 -78.0986 -18.834 -109.672 5.20215c-33.165 25.2451 -42.9375 68.9795 -37.5859 108.552c10.5312 77.8818 61.3838 147.922 124.977 191.922
c63.9775 44.2656 149.24 66.3857 225.576 45.4492c38.0488 -10.4355 72.7041 -33.8438 92.7773 -68.3145c23.0391 -39.5693 16.9658 -84.2148 0.634766 -125.08c-20.7822 -51.9961 -50.4932 -99.9766 -83.2236 -145.728c5.03027 -45.0811 9.56738 -90.2354 13.9473 -135.379
c8.62305 -88.8457 16.9453 -179.827 -6.96191 -267.147zM161.819 -155.588c43.1201 -8.32715 79.0996 34.3291 97.5762 67.5049c22.8311 40.9893 34.1826 87.0215 38.7422 133.446c4.57715 46.5762 2.4541 93.3828 -0.106445 140.007
c-2.56836 46.7334 -5.75684 93.4385 -8.56543 140.161c-8.10449 -10.5439 -16.2568 -21.0098 -24.3896 -31.3965c-28.7598 -36.7305 -57.9775 -73.124 -85.3281 -110.93c-27.1934 -37.5908 -54.043 -76.667 -72.4512 -119.447
c-18.1475 -42.1787 -28.5166 -89.8096 -18.0078 -135.368c8.16504 -35.3994 34.3291 -76.5986 72.5303 -83.9775z" />
    <glyph glyph-name="I" unicode="&#xce;" horiz-adv-x="389" 
d="M332.105 -29.1533c-11.2451 -41.0723 -30.0723 -83.1377 -61.752 -112.599c-32.333 -30.0781 -79.8779 -45.0527 -123.21 -34.1924c-80.4551 20.167 -95.9258 115.528 -79.4102 184.665c20.3594 85.2373 78.2871 158.69 131.065 226.537
c29.6992 38.1777 60.3164 75.8594 89.2285 114.73c-2.78809 49.0938 -5.0498 98.0186 -4.85449 147.196c0.154297 38.8154 3.08203 91.7227 45.6904 107.747c6.80371 2.55859 19.6807 -4.50586 8.89844 -8.67871c-22.1152 -8.55762 -30.8955 -34.8857 -32.416 -56.5859
c-1.66504 -23.7979 3.94727 -48.5898 8.17773 -71.8916c4.16504 -22.9229 6.2959 -46.293 8.8291 -69.5039c10.9893 16.29 21.5459 32.8711 31.4395 49.8975c22.1377 38.0996 46.3662 81.2324 50.7031 125.81c4.12988 42.4189 -16.1104 81.6094 -50.085 106.519
c-69.3135 50.8193 -170.153 30.0732 -238.379 -11.875c-65.2607 -40.126 -117.723 -107.979 -131.88 -184.206c-7.68262 -41.3633 -0.569336 -92.6885 38.9824 -116.094c43.7324 -25.8809 92.6035 5.25781 123.529 36.3662
c4.59473 4.62305 22.0107 1.07324 15.7354 -5.24219c-14.9492 -15.04 -31.5664 -28.7852 -50.7617 -38.0762c-34.3643 -16.6348 -78.0986 -18.834 -109.672 5.20215c-33.165 25.2451 -42.9375 68.9795 -37.5859 108.552c10.5312 77.8818 61.3838 147.922 124.977 191.922
c63.9775 44.2656 149.24 66.3857 225.576 45.4492c38.0488 -10.4355 72.7041 -33.8438 92.7773 -68.3145c23.0391 -39.5693 16.9658 -84.2148 0.634766 -125.08c-20.7822 -51.9961 -50.4932 -99.9766 -83.2236 -145.728c5.03027 -45.0811 9.56738 -90.2354 13.9473 -135.379
c8.62305 -88.8457 16.9453 -179.827 -6.96191 -267.147zM161.819 -155.588c43.1201 -8.32715 79.0996 34.3291 97.5762 67.5049c22.8311 40.9893 34.1826 87.0215 38.7422 133.446c4.57715 46.5762 2.4541 93.3828 -0.106445 140.007
c-2.56836 46.7334 -5.75684 93.4385 -8.56543 140.161c-8.10449 -10.5439 -16.2568 -21.0098 -24.3896 -31.3965c-28.7598 -36.7305 -57.9775 -73.124 -85.3281 -110.93c-27.1934 -37.5908 -54.043 -76.667 -72.4512 -119.447
c-18.1475 -42.1787 -28.5166 -89.8096 -18.0078 -135.368c8.16504 -35.3994 34.3291 -76.5986 72.5303 -83.9775z" />
    <glyph glyph-name="I" unicode="&#xcd;" horiz-adv-x="389" 
d="M332.105 -29.1533c-11.2451 -41.0723 -30.0723 -83.1377 -61.752 -112.599c-32.333 -30.0781 -79.8779 -45.0527 -123.21 -34.1924c-80.4551 20.167 -95.9258 115.528 -79.4102 184.665c20.3594 85.2373 78.2871 158.69 131.065 226.537
c29.6992 38.1777 60.3164 75.8594 89.2285 114.73c-2.78809 49.0938 -5.0498 98.0186 -4.85449 147.196c0.154297 38.8154 3.08203 91.7227 45.6904 107.747c6.80371 2.55859 19.6807 -4.50586 8.89844 -8.67871c-22.1152 -8.55762 -30.8955 -34.8857 -32.416 -56.5859
c-1.66504 -23.7979 3.94727 -48.5898 8.17773 -71.8916c4.16504 -22.9229 6.2959 -46.293 8.8291 -69.5039c10.9893 16.29 21.5459 32.8711 31.4395 49.8975c22.1377 38.0996 46.3662 81.2324 50.7031 125.81c4.12988 42.4189 -16.1104 81.6094 -50.085 106.519
c-69.3135 50.8193 -170.153 30.0732 -238.379 -11.875c-65.2607 -40.126 -117.723 -107.979 -131.88 -184.206c-7.68262 -41.3633 -0.569336 -92.6885 38.9824 -116.094c43.7324 -25.8809 92.6035 5.25781 123.529 36.3662
c4.59473 4.62305 22.0107 1.07324 15.7354 -5.24219c-14.9492 -15.04 -31.5664 -28.7852 -50.7617 -38.0762c-34.3643 -16.6348 -78.0986 -18.834 -109.672 5.20215c-33.165 25.2451 -42.9375 68.9795 -37.5859 108.552c10.5312 77.8818 61.3838 147.922 124.977 191.922
c63.9775 44.2656 149.24 66.3857 225.576 45.4492c38.0488 -10.4355 72.7041 -33.8438 92.7773 -68.3145c23.0391 -39.5693 16.9658 -84.2148 0.634766 -125.08c-20.7822 -51.9961 -50.4932 -99.9766 -83.2236 -145.728c5.03027 -45.0811 9.56738 -90.2354 13.9473 -135.379
c8.62305 -88.8457 16.9453 -179.827 -6.96191 -267.147zM161.819 -155.588c43.1201 -8.32715 79.0996 34.3291 97.5762 67.5049c22.8311 40.9893 34.1826 87.0215 38.7422 133.446c4.57715 46.5762 2.4541 93.3828 -0.106445 140.007
c-2.56836 46.7334 -5.75684 93.4385 -8.56543 140.161c-8.10449 -10.5439 -16.2568 -21.0098 -24.3896 -31.3965c-28.7598 -36.7305 -57.9775 -73.124 -85.3281 -110.93c-27.1934 -37.5908 -54.043 -76.667 -72.4512 -119.447
c-18.1475 -42.1787 -28.5166 -89.8096 -18.0078 -135.368c8.16504 -35.3994 34.3291 -76.5986 72.5303 -83.9775z" />
    <glyph glyph-name="J" unicode="J" horiz-adv-x="564" 
d="M650.268 674.046c27.3633 -39.9922 12.1289 -90.1445 -24.6045 -117.789c-45.4277 -34.208 -98.6484 -38.0742 -152.214 -29.9951c5.29102 -19.666 9.87598 -39.4707 13.9473 -59.4375c17.8213 -87.3887 24.4355 -177.203 21.0625 -266.289
c-3.11523 -82.2666 -13.2012 -167.521 -50.4707 -242.068c-34.4912 -68.9922 -90.8906 -124.609 -164.898 -149.172c-73.3799 -24.3545 -166.896 -27.915 -232.974 17.7676c-61.5586 42.5576 -94.0713 115.533 -96.9102 189.113
c-2.86914 74.377 24.0059 146.348 72.3174 202.56c46.7227 54.3643 114.48 96.4873 187.564 99.0381c71.126 2.48438 136.756 -42.5078 154.233 -112.664c17.2471 -69.2305 -14.3926 -146.522 -80.498 -176.963c-28.2314 -12.998 -63.8994 -16.3838 -93.3145 -5.10059
c-29.9111 11.4756 -54.9385 43.0166 -37.2568 75.0986c5.78711 10.498 37.0293 6.60352 30.7285 -4.83105c-20.46 -37.1279 21.6553 -68.1553 55.9014 -65.1367c34.7188 3.06152 65.7607 26.9053 84.7002 55.1436c42.998 64.1143 27.9121 158.438 -37.2822 201.791
c-59.4756 39.5518 -135.683 17.3203 -189.893 -20.6504c-51.6113 -36.1484 -91.624 -89.334 -111.27 -149.24c-21.8418 -66.6064 -15.7842 -141.656 18.5322 -203.005c15.5488 -27.7959 36.8467 -53.3604 63.4434 -71.1973
c29.2715 -19.6309 62.8594 -27.9258 97.8691 -27.4629c67.8105 0.895508 133.071 27.8213 179.544 77.4512c46.543 49.7041 73.916 113.909 87.6836 180.018c15.4199 74.041 17.7734 151.25 16.458 226.654c-1.35352 77.5684 -9.54688 154.521 -20.8555 231.209
c-0.179688 1.21484 0.0458984 2.30078 0.55957 3.27246c-39.5215 8.88867 -78.4434 22.3633 -113.744 32.9883c-56.6367 17.0449 -117.901 28.3711 -175.826 10.335c-49.9316 -15.5469 -92.1631 -52.1562 -106.839 -103.36
c-7.02148 -24.501 -9.14746 -54.999 2.65137 -78.3945c9.63574 -19.1064 29.9395 -30.6748 50.8857 -32.5166c51.4648 -4.52637 85.501 46.8906 94.5342 91.4648c1.41992 7.00195 18.834 6.2959 17.6348 0c-8.38086 -43.9775 -35.79 -87.7705 -81.5137 -99.5342
c-38.3369 -9.86328 -87.3848 3.83398 -103.223 43.2012c-16.7158 41.5508 -1.07031 94.1768 25.2305 128.134c27.8564 35.9639 70.5381 57.7656 114.589 66.417c52.042 10.2227 105.347 2.26172 155.84 -11.8525c51.293 -14.3369 101.146 -34.9951 154.185 -42.3125
c50.3994 -6.95312 109.62 -1.52539 146.751 37.3359c34.5869 36.1992 26.6846 95.0449 -16.9463 120.017c-39.876 22.8242 -102.069 21.4102 -142.195 0.473633c-20.0352 -10.4551 -39.4561 -29.5869 -42.7881 -52.9062
c-1.44434 -10.1016 -0.288086 -21.6982 6.47559 -29.7646c11.498 -13.7168 29.4404 -2.17285 41.1631 5.24316c5.67773 3.59082 22.1025 -1.65723 13.0283 -7.42676c-19.0586 -12.1182 -46.3506 -23.4082 -66.5508 -6.90527
c-16.5312 13.5068 -15.7871 38.7627 -7.42969 56.5156c23.1855 49.248 85.3135 61.9707 134.547 60.9512c39.4258 -0.817383 83.8945 -11.8066 107.437 -46.2168z" />
    <glyph glyph-name="K" unicode="K" horiz-adv-x="560" 
d="M697.233 -231.402c-67.3584 -10.1699 -134.262 15.9922 -182.412 62.9424c-55.0781 53.709 -78.2383 127.256 -93.291 200.669c-8.10254 39.5166 -14.7852 79.3115 -22.6826 118.861c-5.08301 25.4629 -23.1475 81.3506 -57.9453 67.707
c7.80859 -82.7119 13.3857 -166.901 -8.80273 -247.938c-11.2451 -41.0703 -30.0684 -83.1328 -61.748 -112.602c-32.333 -30.0781 -79.8779 -45.0527 -123.21 -34.1924c-80.4551 20.167 -95.9258 115.528 -79.4102 184.665c20.3594 85.2373 78.2871 158.69 131.065 226.537
c29.6992 38.1777 60.3164 75.8594 89.2285 114.73c-2.78809 49.0938 -5.0498 98.0186 -4.85449 147.196c0.154297 38.8154 3.08203 91.7227 45.6904 107.747c6.80371 2.55859 19.6807 -4.50586 8.89844 -8.67871c-22.1152 -8.55762 -30.8955 -34.8857 -32.416 -56.5859
c-1.66504 -23.7979 3.94727 -48.5898 8.17773 -71.8916c4.16504 -22.9229 6.2959 -46.293 8.8291 -69.5039c10.9893 16.29 21.5459 32.8711 31.4395 49.8975c22.1377 38.0996 46.3662 81.2324 50.7031 125.81c4.12988 42.4189 -16.1104 81.6094 -50.085 106.519
c-69.3135 50.8193 -170.153 30.0732 -238.379 -11.875c-65.2607 -40.126 -117.723 -107.979 -131.88 -184.206c-7.68262 -41.3633 -0.569336 -92.6885 38.9824 -116.094c43.7324 -25.8809 92.6035 5.25781 123.529 36.3662
c4.59473 4.62305 22.0107 1.07324 15.7354 -5.24219c-14.9492 -15.04 -31.5664 -28.7852 -50.7617 -38.0762c-34.3643 -16.6348 -78.0986 -18.834 -109.672 5.20215c-33.165 25.2451 -42.9375 68.9795 -37.5859 108.552c10.5312 77.8818 61.3838 147.922 124.977 191.922
c63.9775 44.2656 149.24 66.3857 225.576 45.4492c38.0488 -10.4355 72.7041 -33.8438 92.7773 -68.3145c23.0391 -39.5693 16.9658 -84.2148 0.634766 -125.08c-20.7822 -51.9961 -50.4932 -99.9766 -83.2236 -145.728c5.03027 -45.0811 9.56738 -90.2354 13.9473 -135.379
c0.015625 -0.154297 0.03125 -0.311523 0.046875 -0.46875c45.6504 32.1055 88.1426 68.5527 126.766 108.889c38.4717 40.1816 75.6328 84.1768 101.9 133.466c23.5801 44.2461 42.4131 104.256 18.5693 152.284c-12.834 25.8525 -37.6006 37.0996 -64.9463 25.8574
c-24.4512 -10.0527 -44.6914 -32.0537 -52.7734 -57.2178c-7.76562 -24.1826 -2.24707 -53.3955 17.0928 -70.8115c19.4229 -17.4922 49.2764 -13.2383 63.0742 9.00879c3.43164 5.53125 20.666 3.55469 17.0049 -2.67285
c-14.5137 -24.6885 -46.3379 -33.4385 -73.0791 -25.751c-29.4961 8.47949 -48.4531 37.3613 -48.7598 67.4395c-0.589844 57.667 66.0469 111.961 122.451 93.4971c59.792 -19.5723 56.8545 -99.3135 41.7559 -147.641
c-20.3086 -65.002 -66.6699 -121.317 -112.047 -170.71c-41.71 -45.4023 -88.2734 -86.0723 -138.531 -121.692c17.0674 -2.51562 33.5986 -11.6826 46.4658 -23.5098c25.916 -23.8203 34.8789 -67.8994 42.5557 -100.627
c16.4297 -70.043 25.6123 -143.699 60.6123 -207.732c27.5527 -50.4092 73.9844 -99.9893 132.137 -112.806c56.1992 -12.3857 124.663 11.0508 152.431 63.6816c16.4551 31.1914 15.0938 70.2979 -18.6084 88.8984c-26.8213 14.8047 -62.8838 7.84082 -76.9951 -20.8428
c-3.12793 -6.3584 -21.9238 -4.53613 -18.5283 2.91113c29.4404 64.5742 140.907 39.0352 144.948 -29.793c3.95996 -67.4639 -66.3457 -114.131 -125.374 -123.043zM298.139 45.3633c4.57715 46.5732 2.45215 93.3779 -0.111328 140.005
c-2.56836 46.7334 -5.75684 93.4385 -8.56543 140.161c-8.10449 -10.5439 -16.2568 -21.0098 -24.3896 -31.3965c-28.7598 -36.7305 -57.9775 -73.125 -85.3281 -110.931c-27.1934 -37.5908 -54.043 -76.667 -72.4512 -119.447
c-18.1475 -42.1787 -28.5166 -89.8096 -18.0078 -135.368c8.16504 -35.3994 34.3291 -76.5986 72.5303 -83.9775c43.1201 -8.32715 79.1016 34.332 97.5811 67.5078c22.8311 40.9893 34.1826 87.0215 38.7422 133.446z" />
    <glyph glyph-name="L" unicode="L" horiz-adv-x="442" 
d="M355.576 -95.7754c-11.3232 -26.7002 -27.5391 -50.8232 -51.7949 -68.5635c-38.5879 -28.2188 -96.3555 -41.207 -138.334 -12.4697c-38.6152 26.4375 -45.8213 81.126 -18.5293 118.4c29.8252 40.7363 87.8789 43.3047 131.522 26.5566
c14.5566 -5.58691 28.3877 -12.8613 41.7383 -21.125c5.90039 22.4951 9.4707 45.7236 12.4922 67.7119c9.35938 68.1123 11.8115 137.147 9.65332 205.829c-1.31348 41.791 -5.40723 83.4863 -8.5293 125.209c-67.5371 -72.376 -162.638 -142.561 -263.745 -117.756
c-52.1934 12.8057 -87.9775 51.2666 -99.832 103.339c-11.5537 50.7539 -3.22168 105.315 18.0713 152.4c20.8398 46.0879 54.6201 86.2314 97.0469 113.855c33.5723 21.8623 92.6562 48.6006 126.085 12.2246c5.93848 -6.46289 -10.9717 -9.60547 -15.2256 -5.07324
c-18.3525 19.5498 -47.1455 11.6553 -68.4736 1.52344c-87.5703 -41.5967 -145.867 -138.646 -142.641 -235.308c1.81445 -54.377 25.0029 -108.603 79.1826 -128.402c53.2158 -19.4512 109.162 -1.04492 155.207 27.6084c42.0674 26.1787 79.7471 59.4375 112.829 97.0254
c-1.32324 20.627 -2.26172 41.2666 -2.33984 61.9346c-0.232422 61.3486 7.92578 123.585 33.2744 179.959c11.417 25.3896 27.3682 53.7324 49.7363 71.0674c17.3857 13.4746 46.1504 19.4609 63.5312 2.25195c18.5068 -18.3252 12.125 -52.9434 7.7168 -75.4785
c-5.93652 -30.3672 -17.3252 -59.3369 -30.8398 -87.0693c-21.2598 -43.6279 -47.0791 -85.29 -76.8027 -123.757c1.01465 -15.6152 2.28711 -31.1992 3.65625 -46.7148c5.66016 -64.1846 11.8135 -128.192 11.457 -192.711
c-0.34375 -61.624 -4.95898 -123.987 -16.5732 -184.566c-3.47168 -18.0996 -7.91016 -36.3916 -14.1094 -53.9043c18.6738 -14.4961 36.7334 -29.7842 54.8535 -43.8125c46.915 -36.3184 97.1221 -71.1768 155.285 -86.4092
c45.9385 -12.0293 114.835 -13.001 141.869 34.8838c13.8184 24.4756 8.82617 55.7402 -8.12695 77.4385c-16.457 21.0625 -42.459 33.2363 -68.6738 36.1895c-49.7168 5.60254 -99.6279 -22.6309 -124.124 -65.3936c-3.79297 -6.62207 -23.5781 -4.01855 -19.4814 3.06152
c11.8291 20.4482 28.2383 37.3867 48.1973 50.0332c41.1562 26.0781 95.0352 32.085 139.9 12.1152c45.8477 -20.4043 79.124 -77.4131 45.7188 -123.286c-29.1699 -40.0576 -86.8115 -46.3408 -132.168 -40.3232c-60.8779 8.07715 -115.769 38.9648 -164.711 74.5391
c-25.1816 18.3018 -49.3672 37.9043 -73.9697 56.9658zM378.376 529.19c-4.39062 -35.584 -4.73535 -71.5117 -3.19727 -107.377c22.1611 31.6016 41.5205 65.0303 57.9629 99.0459c13.2412 27.3906 24.7666 56.0869 30.4268 86.0918
c3.06641 16.2598 13.5293 75.541 -17.2451 73.7139c-15.9238 -0.946289 -25.6045 -19.4307 -32.1074 -31.6855c-6.2959 -11.8652 -11.4551 -24.2939 -16.207 -36.8369c-10.0957 -26.6543 -16.1455 -54.7031 -19.6328 -82.9521zM268.68 -145.329
c23.874 20.9033 38.249 48.8379 47.6416 78.8584c-13.6533 9.35254 -27.876 17.7959 -43.0732 24.1172c-27.4951 11.4316 -60.6582 15.333 -87.3965 -0.387695c-25.5918 -15.0459 -39.1875 -46.4883 -31.5635 -75.332c6.51074 -24.6309 28.7451 -48.1406 54.9922 -50.5068
c21.9326 -1.97656 43.3369 9.1875 59.3994 23.251z" />
    <glyph glyph-name="M" unicode="M" horiz-adv-x="843" 
d="M873.94 -242.979c-36.3867 14.9668 -63.4062 46.668 -81.582 80.709c-18.4639 34.5801 -28.5898 72.5908 -36.0469 110.862c-2.43164 12.4873 -4.55469 25.043 -6.43262 37.6387c-55.4707 -12.7754 -107.044 -42.7324 -143.61 -86.6543
c-22.9375 -27.5508 -43.6006 -63.6973 -39.957 -100.803c3.10254 -31.5713 26.873 -60.9814 57.1787 -70.5264c32.9834 -10.3867 69.041 8.05664 86.4121 36.6289c15.1162 24.8711 17.5254 66.2275 -12.1201 81.7285c-9.61035 5.02539 7.3584 10.6963 13.3076 7.58691
c12.7607 -6.66992 21.6426 -17.8135 25.752 -31.6221c19.585 -65.7939 -55.3311 -119.511 -115.055 -105.733c-29.9287 6.90527 -56.1914 28.5547 -68.0791 56.9854c-14.8477 35.5156 -2.38086 74.1113 17.1758 105.136c37.4619 59.4277 100.058 99.7061 167.688 116.209
c3.20801 0.782227 6.4541 1.50293 9.71777 2.18848c-4.02539 29.5312 -6.61133 59.2754 -7.89453 89.0098c-3.89648 90.3184 4.8252 180.064 4.13672 270.276c-0.174805 23.165 5.94629 132.436 -43.998 103.916c-17.707 -10.1084 -29.3115 -30.5254 -39.2764 -47.6328
c-9.65332 -16.5713 -17.8262 -33.9629 -24.876 -51.7891c-26.9834 -68.2334 -38.2715 -141.236 -57.3633 -211.846c0.422852 -5.96191 0.845703 -11.918 1.34961 -17.874c1.45215 -17.2139 -43.998 -18.0537 -45.3086 0c-4.49414 61.8818 -2.91797 123.994 -4.10938 185.982
c-0.513672 26.748 -1.64746 53.4834 -3.04883 80.1934c-0.663086 12.6592 0.731445 28.6104 -3.97754 40.5996c-2.86914 7.30762 -9.40234 14.7061 -18.1621 11.4873c-5.20703 -1.91309 -10.2578 -8.43848 -13.79 -12.5049
c-32.3027 -37.1914 -47.8213 -89.3447 -63.2461 -135.18c-33.0645 -98.2588 -55.8223 -199.632 -89.0361 -297.84c-2.05957 -11.1533 -4.56445 -22.2588 -7.58789 -33.3066c-11.2451 -41.0703 -30.0684 -83.1328 -61.748 -112.602
c-32.333 -30.0781 -79.8779 -45.0527 -123.21 -34.1924c-80.4551 20.167 -95.9258 115.528 -79.4102 184.665c20.3594 85.2373 78.2871 158.69 131.065 226.537c29.6982 38.1777 60.3154 75.8594 89.2275 114.73c-2.78809 49.0938 -5.05273 98.0186 -4.85742 147.196
c0.154297 38.8154 3.08203 91.7227 45.6904 107.747c6.80371 2.55859 19.6807 -4.50586 8.89844 -8.67871c-22.1152 -8.55762 -30.8955 -34.8857 -32.416 -56.5859c-1.66504 -23.7979 3.94727 -48.5898 8.17773 -71.8916c4.16504 -22.9229 6.2959 -46.293 8.8291 -69.5039
c10.9893 16.29 21.5459 32.8711 31.4395 49.8975c22.1377 38.0996 46.3662 81.2324 50.7031 125.81c4.12988 42.4189 -16.1104 81.6094 -50.085 106.519c-69.3164 50.8193 -170.153 30.0732 -238.379 -11.875c-65.2607 -40.126 -117.723 -107.979 -131.88 -184.206
c-7.68262 -41.3633 -0.569336 -92.6885 38.9824 -116.094c43.7344 -25.8809 92.6035 5.25781 123.529 36.3662c4.59766 4.62305 22.0137 1.07324 15.7383 -5.24219c-14.9492 -15.04 -31.5664 -28.7852 -50.7617 -38.0762
c-34.3643 -16.6348 -78.0986 -18.834 -109.672 5.20215c-33.165 25.2451 -42.9375 68.9795 -37.5859 108.552c10.5312 77.8818 61.3838 147.922 124.977 191.922c63.9775 44.2656 149.24 66.3857 225.576 45.4492c38.0488 -10.4355 72.7041 -33.8438 92.7773 -68.3145
c23.0391 -39.5693 16.9658 -84.2148 0.632812 -125.08c-20.7793 -51.9961 -50.4902 -99.9766 -83.2207 -145.728c5.03027 -45.0811 9.56738 -90.2354 13.9473 -135.379c4.8584 -50.0635 9.61816 -100.8 8.5752 -151.182c10.1084 34.6123 19.6455 69.3975 29.415 104.106
c16.3105 57.9502 33.416 115.81 55.498 171.867c9.40039 23.8584 19.8379 47.5322 35.0195 68.3496c12.0215 16.4824 28.4736 34.9766 51.1357 29.3672c24.9287 -6.17188 31.8291 -36.9785 37.1152 -58.335c7.09473 -28.6689 11.0625 -57.8057 13.6455 -87.2158
c2.97363 -33.8535 4.4209 -67.8037 5.99512 -101.748c13.8564 60.293 26.8955 121.259 54.0693 177.167c13.3555 27.4775 31.4756 63.791 59.8311 78.5684c25.8047 13.4463 56.1465 4.72949 66.2529 -23.1621c13.0059 -35.8984 21.8418 -74.7393 24.4736 -112.778
c2.80859 -40.6455 2.08496 -81.3994 2.64941 -122.112c0.958984 -69.3418 2.21875 -138.734 11.1758 -207.481c51.2422 2.84668 104.096 -7.74316 144.444 -39.3604c53.2588 -41.7334 71.042 -126.675 30.8369 -183.421
c-22.7734 -32.1406 -59.6934 -38.2314 -95.2598 -23.6006zM298.136 45.3711c4.5752 46.5732 2.45215 93.3779 -0.111328 140.005c-2.56836 46.7334 -5.75684 93.4385 -8.56543 140.161c-8.10449 -10.5439 -16.2568 -21.0098 -24.3896 -31.3965
c-28.7598 -36.7305 -57.9775 -73.125 -85.3281 -110.931c-27.1934 -37.5908 -54.043 -76.667 -72.4512 -119.447c-18.1475 -42.1787 -28.5166 -89.8096 -18.0078 -135.368c8.16504 -35.3994 34.3291 -76.5986 72.5303 -83.9775
c43.1201 -8.32715 79.1016 34.332 97.5811 67.5078c22.8291 40.9893 34.1826 87.0215 38.7422 133.446zM957.502 -83.2256c-30.1387 58.9727 -99.6387 79.1641 -162.156 75.9102c1.41406 -9.92383 2.98828 -19.833 4.76172 -29.7266
c6.43457 -35.8779 15.0811 -71.915 29.8535 -105.363c13.3984 -30.3311 33.0615 -63.1982 62.4922 -80.2607c13.6592 -7.91699 30.167 -11.5225 44.2383 -2.27637c15.0049 9.8584 24 28.2891 29.2734 44.9131c9.93457 31.3105 6.42773 67.6641 -8.46289 96.8037z" />
    <glyph glyph-name="N" unicode="N" horiz-adv-x="667" 
d="M736.59 -98.6475c52.7295 -41.1387 70.0322 -125.966 30.4395 -181.988c-21.9277 -31.0322 -63.4658 -34.5547 -96.5801 -20.4023c-35.3994 15.126 -56.9355 50.4316 -71.7334 84.3916c-19.2432 44.1602 -29.7822 91.1514 -34.8203 138.871
c-1.17383 -0.164062 -2.35254 -0.318359 -3.5166 -0.495117c-70.0049 -10.6777 -139.607 -58.8428 -151.856 -132.76c-3.16309 -19.0967 -2.46484 -39.5566 6.26758 -57.1631c8.37012 -16.8721 25.5332 -32.0312 45.4873 -29.7871
c39.9746 4.49414 58.2842 48.9121 71.4551 81.1211c2.50488 6.12891 20.083 4.36523 17.1934 -2.70215c-7.57812 -18.5352 -15.3467 -37.1514 -27.3984 -53.3076c-18.8711 -25.2959 -51.416 -42.5879 -83.2803 -33.3623c-35.1064 10.1641 -51.5205 46.0371 -50.207 80.3838
c2.81836 73.7422 62.8408 130.584 129.306 152.866c14.2354 4.77441 29.4355 8.43066 45.0986 10.8525c-2.41406 29.8076 -2.83398 59.8096 -2.00684 89.501c2.5 89.7412 17.8613 178.531 24.668 267.949c3.47168 45.5771 6.4502 91.4395 5.34668 137.168
c-0.500977 20.7383 -1.75098 45.2705 -20.4453 58.4561c-21.0049 14.8154 -41.6729 -12.1836 -53.2188 -27.2773c-25.9365 -33.9043 -45.127 -72.543 -62.0322 -111.568c-17.8613 -41.2373 -33.8457 -83.3115 -48.8555 -125.662
c-22.3906 -63.1748 -42.335 -127.162 -61.6289 -191.345c-2.45996 -21.5762 -6.35449 -43.0186 -12.167 -64.2461c-11.2451 -41.0703 -30.0713 -83.1328 -61.749 -112.602c-32.335 -30.0781 -79.8799 -45.0527 -123.21 -34.1924
c-80.4551 20.167 -95.9258 115.528 -79.4102 184.665c20.3594 85.2373 78.2871 158.69 131.065 226.537c29.6982 38.1777 60.3154 75.8594 89.2275 114.73c-2.78809 49.0938 -5.0498 98.0186 -4.85449 147.196c0.154297 38.8154 3.08203 91.7227 45.6904 107.747
c6.80176 2.55859 19.6787 -4.50586 8.89941 -8.67871c-22.1152 -8.55762 -30.8955 -34.8857 -32.416 -56.5859c-1.66797 -23.7979 3.94434 -48.5898 8.17773 -71.8916c4.16504 -22.9229 6.2959 -46.293 8.8291 -69.5039c10.9893 16.29 21.5459 32.8711 31.4395 49.8975
c22.1377 38.0996 46.3662 81.2324 50.7031 125.81c4.12695 42.4189 -16.1133 81.6094 -50.0879 106.519c-69.3135 50.8193 -170.153 30.0732 -238.379 -11.875c-65.2607 -40.126 -117.723 -107.979 -131.88 -184.206c-7.68262 -41.3633 -0.572266 -92.6885 38.9795 -116.094
c43.7324 -25.8809 92.6035 5.25781 123.529 36.3662c4.59473 4.62305 22.0137 1.07324 15.7383 -5.24219c-14.9492 -15.04 -31.5664 -28.7852 -50.7617 -38.0762c-34.3643 -16.6348 -78.0986 -18.834 -109.672 5.20215c-33.165 25.2451 -42.9375 68.9795 -37.5859 108.552
c10.5312 77.8818 61.3838 147.922 124.977 191.922c63.9795 44.2656 149.239 66.3857 225.577 45.4492c38.0488 -10.4355 72.7041 -33.8438 92.7773 -68.3145c23.0361 -39.5693 16.9658 -84.2148 0.632812 -125.08c-20.7822 -51.9961 -50.4932 -99.9766 -83.2236 -145.728
c5.03027 -45.0811 9.56738 -90.2354 13.9473 -135.379c4.2666 -43.96 8.45215 -88.4434 8.70508 -132.747c16.7939 53.9805 34.4814 107.682 54.168 160.683c26.7607 72.0547 54.7842 147.565 103.258 208.246c17.8086 22.2949 45.3213 42.0117 74.3115 26.708
c30.3467 -16.0225 34.0586 -60.2402 38.6836 -90.3867c12.8721 -83.8711 3.99512 -168.706 -3.09961 -252.696c-6.07031 -71.8623 -11.3359 -144.536 -5.20996 -216.572c45.9336 -0.62207 91.8574 -12.6816 126.708 -39.873zM298.144 45.3623
c4.5752 46.5732 2.45215 93.377 -0.113281 140.004c-2.56836 46.7334 -5.75684 93.4385 -8.56543 140.161c-8.10449 -10.5439 -16.2568 -21.0098 -24.3896 -31.3965c-28.7598 -36.7305 -57.9775 -73.124 -85.3281 -110.93
c-27.1934 -37.5908 -54.043 -76.667 -72.4512 -119.447c-18.1475 -42.1787 -28.5166 -89.8096 -18.0078 -135.368c8.16504 -35.3994 34.3291 -76.5986 72.5303 -83.9775c43.1201 -8.32715 79.1016 34.332 97.5811 67.5078c22.8311 40.9893 34.1846 87.0215 38.7441 133.446z
M755.97 -240.276c8.51953 30.2119 4.7666 63.9551 -9.05664 91.9941c-25.4961 51.7148 -80.6328 71.2109 -135.442 73.0762c0.103516 -0.933594 0.18457 -1.87012 0.291016 -2.80664c4.31641 -37.6494 12.1553 -75.0146 24.7695 -110.791
c11.0605 -31.3662 24.5547 -69.8428 52.1787 -90.6572c11.4297 -8.61035 26.1562 -12.6992 39.1064 -4.99219c15.1445 9.0127 23.5508 27.8535 28.1533 44.1768z" />
    <glyph glyph-name="O" unicode="O" horiz-adv-x="495" 
d="M460.16 167.756c-7.01953 -103.648 -37.3105 -214.03 -113.322 -288.949c-34.7061 -34.208 -79.1748 -58.833 -128.451 -61.9375c-51.0977 -3.21875 -102.107 15.0527 -142.927 45.1895c-79.3896 58.6133 -119.121 160.212 -97.7217 256.863
c5.44824 24.6182 14.9141 48.8965 27.6924 71.3838c-18.0664 62.5684 -23.8232 128.825 -16.7256 193.25c11.4092 103.577 61.667 210.287 165.976 247.235c48.375 17.1357 102.104 15.8398 147.752 -8.54785c44.3701 -23.7041 77.249 -65.2598 98.8682 -109.91
c24.5879 -50.7842 39.4482 -107.074 49.1826 -162.469c10.5391 -59.9639 13.7881 -121.365 9.67676 -182.108zM196.624 -172.326c98.4814 -6.09766 170.356 83.7207 205.229 165.669c38.4795 90.4199 46.6934 193.6 37.6572 290.648
c-4.94434 53.1045 -15.5967 105.667 -31.8926 156.451c-14.4102 44.9082 -33.8838 89.6934 -65.6299 125.217c-29.2764 32.7607 -71.0752 57.4014 -115.981 56.8291c-42.3477 -0.539062 -83.0078 -23.0166 -112.044 -52.7812
c-63.542 -65.1367 -81.3281 -167.758 -78.666 -255.374c0.749023 -24.6582 3.37305 -49.167 7.73828 -73.3672c36.6777 38.1729 85.3164 63.5215 140.316 63.043c46.9883 -0.407227 91.7959 -20.6904 118.924 -59.6982c25.582 -36.7842 33.4385 -85.0889 26.2295 -128.821
c-7.44434 -45.1689 -30.582 -89.1924 -68.1172 -116.341c-19.2031 -13.8887 -43.4766 -24.6152 -67.6816 -21.5029c-20.417 2.62695 -38.8906 15.6709 -42.0586 36.8857c-1.0957 7.33301 18.8613 8.01074 20.0049 0c4.57715 -32.0977 40.4326 -28.252 61.8623 -16.6221
c74.9746 40.6777 98.957 147.871 64.1064 222.145c-19.6611 41.8975 -58.4639 69.8398 -105.002 73.1191c-48.8311 3.43848 -95.0332 -20.2256 -129.224 -53.6562c-5.52637 -5.40527 -10.7412 -11.0986 -15.6758 -17.0117
c3.61621 -16.5361 8.03125 -32.9102 13.2461 -49.0566c7.3125 -22.6445 16.3711 -44.6279 26.6895 -66.0625c5.28809 -10.9863 10.9844 -21.7988 17.1279 -32.335c2.52246 -4.32227 5.15625 -8.29199 8.19238 -12.2441c1.19141 -1.54883 3.16992 -3.58105 4.00195 -5.2793
c0.37207 -0.758789 0.97168 -1.06543 1.34375 -1.18164c5.86328 -0.164062 15.8965 -2.54297 16.9697 -9.13965c1.18945 -7.32324 -7.41113 -10.5195 -13.2539 -11.5723c-27.2217 -4.9043 -47.2314 10.8525 -60.9785 32.5449
c-19.7422 31.1514 -35.6123 64.7266 -47.5508 99.6982c-24.9092 -54.7393 -30.0205 -118.537 -11.3486 -176.098c27.2168 -83.8984 104.471 -158.468 195.465 -164.105zM117.411 56.3271c0.255859 -0.0654297 0.324219 -0.0351562 0 0z" />
    <glyph glyph-name="O" unicode="&#xd6;" horiz-adv-x="495" 
d="M460.16 167.756c-7.01953 -103.648 -37.3105 -214.03 -113.322 -288.949c-34.7061 -34.208 -79.1748 -58.833 -128.451 -61.9375c-51.0977 -3.21875 -102.107 15.0527 -142.927 45.1895c-79.3896 58.6133 -119.121 160.212 -97.7217 256.863
c5.44824 24.6182 14.9141 48.8965 27.6924 71.3838c-18.0664 62.5684 -23.8232 128.825 -16.7256 193.25c11.4092 103.577 61.667 210.287 165.976 247.235c48.375 17.1357 102.104 15.8398 147.752 -8.54785c44.3701 -23.7041 77.249 -65.2598 98.8682 -109.91
c24.5879 -50.7842 39.4482 -107.074 49.1826 -162.469c10.5391 -59.9639 13.7881 -121.365 9.67676 -182.108zM196.624 -172.326c98.4814 -6.09766 170.356 83.7207 205.229 165.669c38.4795 90.4199 46.6934 193.6 37.6572 290.648
c-4.94434 53.1045 -15.5967 105.667 -31.8926 156.451c-14.4102 44.9082 -33.8838 89.6934 -65.6299 125.217c-29.2764 32.7607 -71.0752 57.4014 -115.981 56.8291c-42.3477 -0.539062 -83.0078 -23.0166 -112.044 -52.7812
c-63.542 -65.1367 -81.3281 -167.758 -78.666 -255.374c0.749023 -24.6582 3.37305 -49.167 7.73828 -73.3672c36.6777 38.1729 85.3164 63.5215 140.316 63.043c46.9883 -0.407227 91.7959 -20.6904 118.924 -59.6982c25.582 -36.7842 33.4385 -85.0889 26.2295 -128.821
c-7.44434 -45.1689 -30.582 -89.1924 -68.1172 -116.341c-19.2031 -13.8887 -43.4766 -24.6152 -67.6816 -21.5029c-20.417 2.62695 -38.8906 15.6709 -42.0586 36.8857c-1.0957 7.33301 18.8613 8.01074 20.0049 0c4.57715 -32.0977 40.4326 -28.252 61.8623 -16.6221
c74.9746 40.6777 98.957 147.871 64.1064 222.145c-19.6611 41.8975 -58.4639 69.8398 -105.002 73.1191c-48.8311 3.43848 -95.0332 -20.2256 -129.224 -53.6562c-5.52637 -5.40527 -10.7412 -11.0986 -15.6758 -17.0117
c3.61621 -16.5361 8.03125 -32.9102 13.2461 -49.0566c7.3125 -22.6445 16.3711 -44.6279 26.6895 -66.0625c5.28809 -10.9863 10.9844 -21.7988 17.1279 -32.335c2.52246 -4.32227 5.15625 -8.29199 8.19238 -12.2441c1.19141 -1.54883 3.16992 -3.58105 4.00195 -5.2793
c0.37207 -0.758789 0.97168 -1.06543 1.34375 -1.18164c5.86328 -0.164062 15.8965 -2.54297 16.9697 -9.13965c1.18945 -7.32324 -7.41113 -10.5195 -13.2539 -11.5723c-27.2217 -4.9043 -47.2314 10.8525 -60.9785 32.5449
c-19.7422 31.1514 -35.6123 64.7266 -47.5508 99.6982c-24.9092 -54.7393 -30.0205 -118.537 -11.3486 -176.098c27.2168 -83.8984 104.471 -158.468 195.465 -164.105zM117.411 56.3271c0.255859 -0.0654297 0.324219 -0.0351562 0 0z" />
    <glyph glyph-name="O" unicode="&#xd5;" horiz-adv-x="495" 
d="M460.16 167.756c-7.01953 -103.648 -37.3105 -214.03 -113.322 -288.949c-34.7061 -34.208 -79.1748 -58.833 -128.451 -61.9375c-51.0977 -3.21875 -102.107 15.0527 -142.927 45.1895c-79.3896 58.6133 -119.121 160.212 -97.7217 256.863
c5.44824 24.6182 14.9141 48.8965 27.6924 71.3838c-18.0664 62.5684 -23.8232 128.825 -16.7256 193.25c11.4092 103.577 61.667 210.287 165.976 247.235c48.375 17.1357 102.104 15.8398 147.752 -8.54785c44.3701 -23.7041 77.249 -65.2598 98.8682 -109.91
c24.5879 -50.7842 39.4482 -107.074 49.1826 -162.469c10.5391 -59.9639 13.7881 -121.365 9.67676 -182.108zM196.624 -172.326c98.4814 -6.09766 170.356 83.7207 205.229 165.669c38.4795 90.4199 46.6934 193.6 37.6572 290.648
c-4.94434 53.1045 -15.5967 105.667 -31.8926 156.451c-14.4102 44.9082 -33.8838 89.6934 -65.6299 125.217c-29.2764 32.7607 -71.0752 57.4014 -115.981 56.8291c-42.3477 -0.539062 -83.0078 -23.0166 -112.044 -52.7812
c-63.542 -65.1367 -81.3281 -167.758 -78.666 -255.374c0.749023 -24.6582 3.37305 -49.167 7.73828 -73.3672c36.6777 38.1729 85.3164 63.5215 140.316 63.043c46.9883 -0.407227 91.7959 -20.6904 118.924 -59.6982c25.582 -36.7842 33.4385 -85.0889 26.2295 -128.821
c-7.44434 -45.1689 -30.582 -89.1924 -68.1172 -116.341c-19.2031 -13.8887 -43.4766 -24.6152 -67.6816 -21.5029c-20.417 2.62695 -38.8906 15.6709 -42.0586 36.8857c-1.0957 7.33301 18.8613 8.01074 20.0049 0c4.57715 -32.0977 40.4326 -28.252 61.8623 -16.6221
c74.9746 40.6777 98.957 147.871 64.1064 222.145c-19.6611 41.8975 -58.4639 69.8398 -105.002 73.1191c-48.8311 3.43848 -95.0332 -20.2256 -129.224 -53.6562c-5.52637 -5.40527 -10.7412 -11.0986 -15.6758 -17.0117
c3.61621 -16.5361 8.03125 -32.9102 13.2461 -49.0566c7.3125 -22.6445 16.3711 -44.6279 26.6895 -66.0625c5.28809 -10.9863 10.9844 -21.7988 17.1279 -32.335c2.52246 -4.32227 5.15625 -8.29199 8.19238 -12.2441c1.19141 -1.54883 3.16992 -3.58105 4.00195 -5.2793
c0.37207 -0.758789 0.97168 -1.06543 1.34375 -1.18164c5.86328 -0.164062 15.8965 -2.54297 16.9697 -9.13965c1.18945 -7.32324 -7.41113 -10.5195 -13.2539 -11.5723c-27.2217 -4.9043 -47.2314 10.8525 -60.9785 32.5449
c-19.7422 31.1514 -35.6123 64.7266 -47.5508 99.6982c-24.9092 -54.7393 -30.0205 -118.537 -11.3486 -176.098c27.2168 -83.8984 104.471 -158.468 195.465 -164.105zM117.411 56.3271c0.255859 -0.0654297 0.324219 -0.0351562 0 0z" />
    <glyph glyph-name="O" unicode="&#xd4;" horiz-adv-x="495" 
d="M460.16 167.756c-7.01953 -103.648 -37.3105 -214.03 -113.322 -288.949c-34.7061 -34.208 -79.1748 -58.833 -128.451 -61.9375c-51.0977 -3.21875 -102.107 15.0527 -142.927 45.1895c-79.3896 58.6133 -119.121 160.212 -97.7217 256.863
c5.44824 24.6182 14.9141 48.8965 27.6924 71.3838c-18.0664 62.5684 -23.8232 128.825 -16.7256 193.25c11.4092 103.577 61.667 210.287 165.976 247.235c48.375 17.1357 102.104 15.8398 147.752 -8.54785c44.3701 -23.7041 77.249 -65.2598 98.8682 -109.91
c24.5879 -50.7842 39.4482 -107.074 49.1826 -162.469c10.5391 -59.9639 13.7881 -121.365 9.67676 -182.108zM196.624 -172.326c98.4814 -6.09766 170.356 83.7207 205.229 165.669c38.4795 90.4199 46.6934 193.6 37.6572 290.648
c-4.94434 53.1045 -15.5967 105.667 -31.8926 156.451c-14.4102 44.9082 -33.8838 89.6934 -65.6299 125.217c-29.2764 32.7607 -71.0752 57.4014 -115.981 56.8291c-42.3477 -0.539062 -83.0078 -23.0166 -112.044 -52.7812
c-63.542 -65.1367 -81.3281 -167.758 -78.666 -255.374c0.749023 -24.6582 3.37305 -49.167 7.73828 -73.3672c36.6777 38.1729 85.3164 63.5215 140.316 63.043c46.9883 -0.407227 91.7959 -20.6904 118.924 -59.6982c25.582 -36.7842 33.4385 -85.0889 26.2295 -128.821
c-7.44434 -45.1689 -30.582 -89.1924 -68.1172 -116.341c-19.2031 -13.8887 -43.4766 -24.6152 -67.6816 -21.5029c-20.417 2.62695 -38.8906 15.6709 -42.0586 36.8857c-1.0957 7.33301 18.8613 8.01074 20.0049 0c4.57715 -32.0977 40.4326 -28.252 61.8623 -16.6221
c74.9746 40.6777 98.957 147.871 64.1064 222.145c-19.6611 41.8975 -58.4639 69.8398 -105.002 73.1191c-48.8311 3.43848 -95.0332 -20.2256 -129.224 -53.6562c-5.52637 -5.40527 -10.7412 -11.0986 -15.6758 -17.0117
c3.61621 -16.5361 8.03125 -32.9102 13.2461 -49.0566c7.3125 -22.6445 16.3711 -44.6279 26.6895 -66.0625c5.28809 -10.9863 10.9844 -21.7988 17.1279 -32.335c2.52246 -4.32227 5.15625 -8.29199 8.19238 -12.2441c1.19141 -1.54883 3.16992 -3.58105 4.00195 -5.2793
c0.37207 -0.758789 0.97168 -1.06543 1.34375 -1.18164c5.86328 -0.164062 15.8965 -2.54297 16.9697 -9.13965c1.18945 -7.32324 -7.41113 -10.5195 -13.2539 -11.5723c-27.2217 -4.9043 -47.2314 10.8525 -60.9785 32.5449
c-19.7422 31.1514 -35.6123 64.7266 -47.5508 99.6982c-24.9092 -54.7393 -30.0205 -118.537 -11.3486 -176.098c27.2168 -83.8984 104.471 -158.468 195.465 -164.105zM117.411 56.3271c0.255859 -0.0654297 0.324219 -0.0351562 0 0z" />
    <glyph glyph-name="O" unicode="&#xd3;" horiz-adv-x="495" 
d="M460.16 167.756c-7.01953 -103.648 -37.3105 -214.03 -113.322 -288.949c-34.7061 -34.208 -79.1748 -58.833 -128.451 -61.9375c-51.0977 -3.21875 -102.107 15.0527 -142.927 45.1895c-79.3896 58.6133 -119.121 160.212 -97.7217 256.863
c5.44824 24.6182 14.9141 48.8965 27.6924 71.3838c-18.0664 62.5684 -23.8232 128.825 -16.7256 193.25c11.4092 103.577 61.667 210.287 165.976 247.235c48.375 17.1357 102.104 15.8398 147.752 -8.54785c44.3701 -23.7041 77.249 -65.2598 98.8682 -109.91
c24.5879 -50.7842 39.4482 -107.074 49.1826 -162.469c10.5391 -59.9639 13.7881 -121.365 9.67676 -182.108zM196.624 -172.326c98.4814 -6.09766 170.356 83.7207 205.229 165.669c38.4795 90.4199 46.6934 193.6 37.6572 290.648
c-4.94434 53.1045 -15.5967 105.667 -31.8926 156.451c-14.4102 44.9082 -33.8838 89.6934 -65.6299 125.217c-29.2764 32.7607 -71.0752 57.4014 -115.981 56.8291c-42.3477 -0.539062 -83.0078 -23.0166 -112.044 -52.7812
c-63.542 -65.1367 -81.3281 -167.758 -78.666 -255.374c0.749023 -24.6582 3.37305 -49.167 7.73828 -73.3672c36.6777 38.1729 85.3164 63.5215 140.316 63.043c46.9883 -0.407227 91.7959 -20.6904 118.924 -59.6982c25.582 -36.7842 33.4385 -85.0889 26.2295 -128.821
c-7.44434 -45.1689 -30.582 -89.1924 -68.1172 -116.341c-19.2031 -13.8887 -43.4766 -24.6152 -67.6816 -21.5029c-20.417 2.62695 -38.8906 15.6709 -42.0586 36.8857c-1.0957 7.33301 18.8613 8.01074 20.0049 0c4.57715 -32.0977 40.4326 -28.252 61.8623 -16.6221
c74.9746 40.6777 98.957 147.871 64.1064 222.145c-19.6611 41.8975 -58.4639 69.8398 -105.002 73.1191c-48.8311 3.43848 -95.0332 -20.2256 -129.224 -53.6562c-5.52637 -5.40527 -10.7412 -11.0986 -15.6758 -17.0117
c3.61621 -16.5361 8.03125 -32.9102 13.2461 -49.0566c7.3125 -22.6445 16.3711 -44.6279 26.6895 -66.0625c5.28809 -10.9863 10.9844 -21.7988 17.1279 -32.335c2.52246 -4.32227 5.15625 -8.29199 8.19238 -12.2441c1.19141 -1.54883 3.16992 -3.58105 4.00195 -5.2793
c0.37207 -0.758789 0.97168 -1.06543 1.34375 -1.18164c5.86328 -0.164062 15.8965 -2.54297 16.9697 -9.13965c1.18945 -7.32324 -7.41113 -10.5195 -13.2539 -11.5723c-27.2217 -4.9043 -47.2314 10.8525 -60.9785 32.5449
c-19.7422 31.1514 -35.6123 64.7266 -47.5508 99.6982c-24.9092 -54.7393 -30.0205 -118.537 -11.3486 -176.098c27.2168 -83.8984 104.471 -158.468 195.465 -164.105zM117.411 56.3271c0.255859 -0.0654297 0.324219 -0.0351562 0 0z" />
    <glyph glyph-name="P" unicode="P" horiz-adv-x="661" 
d="M635.011 171.354c-12.9707 -54.0889 -38.4785 -110.27 -89.5742 -137.989c-48.2793 -26.1992 -113.906 -22.5332 -149.63 22.6973c-32.8721 41.6221 -25.0537 98.0029 7.79004 137.37c15.7139 18.8311 38.6338 34.7471 63.7783 35.9795
c21.3135 1.04492 42.2041 -9.2207 54.6533 -26.5186c29.3955 -40.8428 -10.2529 -89.4785 -55.3535 -87.5273c-14.0234 0.607422 -9.18555 11.5742 2.52734 10.6455c25.8477 -2.04688 47.2598 26.1182 45.167 50.2725c-2.03223 23.4287 -25.7539 46.7783 -50.1973 41.8135
c-25.7412 -5.23047 -45.4805 -31.3916 -54.1846 -54.6377c-8.78516 -23.4639 -7.90918 -48.54 2.00195 -71.5186c16.0547 -37.2295 53.5977 -59.6279 92.6465 -43.707c42.6084 17.373 66.624 62.4512 81.3232 103.536c16.7334 46.7783 23.0664 97.0234 20.3389 146.55
c-2.56055 46.5078 -11.9785 103.117 -43.8613 139.215c-86.0371 97.4131 -149.483 -127.568 -164.423 -181.118c-20.541 -73.623 -35.2549 -148.704 -53.9189 -222.782c-2.46973 -21.085 -6.31348 -42.041 -11.9941 -62.79
c-11.2451 -41.0703 -30.0713 -83.1328 -61.749 -112.602c-32.333 -30.0781 -79.8779 -45.0527 -123.21 -34.1924c-80.4551 20.167 -95.9258 115.528 -79.4102 184.665c20.3594 85.2373 78.2871 158.69 131.065 226.537c29.6982 38.1777 60.3154 75.8594 89.2275 114.73
c-2.78809 49.0938 -5.0498 98.0186 -4.85449 147.196c0.154297 38.8154 3.08203 91.7227 45.6904 107.747c6.80176 2.55859 19.6816 -4.50586 8.89941 -8.67871c-22.1152 -8.55762 -30.8955 -34.8857 -32.416 -56.5859c-1.66797 -23.7979 3.94434 -48.5898 8.17773 -71.8916
c4.16211 -22.9229 6.29297 -46.293 8.82617 -69.5039c10.9893 16.29 21.5459 32.8711 31.4395 49.8975c22.1377 38.0996 46.3662 81.2324 50.7031 125.81c4.12988 42.4189 -16.1104 81.6094 -50.085 106.519c-69.3164 50.8193 -170.153 30.0732 -238.379 -11.875
c-65.2607 -40.126 -117.723 -107.979 -131.88 -184.206c-7.68262 -41.3633 -0.572266 -92.6885 38.9795 -116.094c43.7324 -25.8809 92.6035 5.25781 123.529 36.3662c4.59766 4.62305 22.0137 1.07324 15.7383 -5.24219
c-14.9492 -15.04 -31.5684 -28.7852 -50.7607 -38.0762c-34.3643 -16.6348 -78.0986 -18.834 -109.672 5.20215c-33.165 25.2451 -42.9346 68.9795 -37.585 108.552c10.5312 77.8818 61.3838 147.922 124.977 191.922c63.9775 44.2656 149.24 66.3857 225.576 45.4492
c38.0518 -10.4355 72.707 -33.8438 92.7803 -68.3145c23.0361 -39.5693 16.9658 -84.2148 0.632812 -125.08c-20.7822 -51.9961 -50.4932 -99.9766 -83.2236 -145.728c5.03027 -45.0811 9.56738 -90.2354 13.9473 -135.379
c3.56543 -36.7432 7.07227 -73.8555 8.27637 -110.92c18.9443 84.3311 38.251 168.571 71.7832 248.371c18.5928 44.2461 54.5771 106.182 111.854 96.9336c24.2969 -3.9248 43.0518 -21.4707 57.1943 -40.5068c18.5146 -24.9219 31.8398 -52.5381 40.8398 -82.2393
c17.5605 -57.9473 20.1318 -119.326 5.99707 -178.273zM298.138 45.3682c4.5752 46.5732 2.45117 93.377 -0.114258 140.004c-2.56836 46.7334 -5.75684 93.4385 -8.56543 140.161c-8.10449 -10.5439 -16.2568 -21.0098 -24.3896 -31.3965
c-28.7598 -36.7305 -57.9775 -73.124 -85.3281 -110.93c-27.1934 -37.5908 -54.043 -76.667 -72.4512 -119.447c-18.1475 -42.1787 -28.5166 -89.8096 -18.0078 -135.368c8.16504 -35.3994 34.3291 -76.5986 72.5303 -83.9775
c43.1201 -8.32715 79.1016 34.332 97.5811 67.5078c22.8311 40.9893 34.1826 87.0215 38.7451 133.446z" />
    <glyph glyph-name="Q" unicode="Q" horiz-adv-x="496" 
d="M457.369 -257.688c-47.2471 -8.05664 -92.542 14.5977 -126.517 46.4502c-1.57129 -1.02734 -3.14746 -2.04688 -4.69141 -3.1123c-36.4648 -25.1797 -74.6025 -66.2754 -70.9541 -113.679c0.620117 -8.05371 -20.0381 -8.25391 -20.9941 0
c-6.18945 53.3369 40.9482 100.543 85.5605 127.919c-1.7334 1.8623 -3.44141 3.74219 -5.09668 5.64258c-8.77539 10.0859 -16.7939 20.7969 -24.2842 31.8721c-22.2598 -11.5029 -46.4805 -18.9219 -72.0068 -20.5312c-51.1006 -3.21875 -102.11 15.0527 -142.928 45.1895
c-79.3896 58.6133 -119.121 160.212 -97.7217 256.863c5.4502 24.6182 14.9141 48.8965 27.6953 71.3838c-18.0664 62.5684 -23.8232 128.825 -16.7256 193.25c11.4092 103.577 61.667 210.287 165.976 247.235c48.3779 17.1357 102.107 15.8398 147.755 -8.54785
c44.3701 -23.7041 77.252 -65.2598 98.8691 -109.91c24.5879 -50.7842 39.4482 -107.074 49.1826 -162.469c10.5361 -59.9639 13.7881 -121.365 9.67383 -182.108c-7.01953 -103.648 -37.3105 -214.03 -113.322 -288.949
c-12.9355 -12.75 -27.2266 -24.1621 -42.6191 -33.6309c5.04297 -7.64453 10.3369 -15.1221 15.9648 -22.3486c4.01855 -5.16406 8.32031 -10.3057 12.8623 -15.3389c1.79102 0.956055 3.57227 1.8877 5.33105 2.77051c23.249 11.6826 48.2842 19.8125 74.0176 23.7344
c24.9443 3.80273 53.793 5.76172 77.915 -2.96582c20.8223 -7.5332 39.3242 -29.5771 27.042 -52.0518c-11.5029 -21.0449 -37.3711 -32.8115 -59.9844 -36.668zM196.63 -172.323c31.7783 -1.96582 60.7676 6.09473 86.6611 20.6113
c-4.23535 6.68262 -8.32422 13.4541 -12.2686 20.2939c-14.6309 25.377 -25.8252 54.4912 -48.6621 73.8154c-6.42676 5.4375 10.5068 9.05371 15.2256 5.07324c19.7695 -16.6777 30.5615 -40.1289 42.8057 -62.3477c5.28613 -9.58984 10.7588 -19.1035 16.5205 -28.4355
c47.5322 32.1279 83.3496 85.8906 104.956 136.657c38.4795 90.4199 46.6934 193.6 37.6572 290.648c-4.94434 53.1045 -15.5967 105.667 -31.8945 156.451c-14.4131 44.9082 -33.8838 89.6934 -65.6299 125.217c-29.2764 32.7607 -71.0752 57.4014 -115.981 56.8291
c-42.3477 -0.539062 -83.0078 -23.0166 -112.044 -52.7812c-63.5449 -65.1367 -81.3311 -167.758 -78.6689 -255.374c0.751953 -24.6582 3.37598 -49.167 7.74121 -73.3672c36.6777 38.1729 85.3135 63.5215 140.315 63.043
c46.9883 -0.407227 91.7959 -20.6904 118.924 -59.6982c25.582 -36.7842 33.4385 -85.0889 26.2295 -128.821c-7.44434 -45.1689 -30.582 -89.1924 -68.1172 -116.341c-19.2031 -13.8887 -43.4766 -24.6152 -67.6816 -21.5029
c-20.4199 2.62695 -38.8936 15.6709 -42.0615 36.8857c-1.0957 7.33301 18.8633 8.01074 20.0049 0c4.57715 -32.0977 40.4326 -28.252 61.8623 -16.6221c74.9717 40.6777 98.957 147.871 64.1064 222.145c-19.6611 41.8975 -58.4639 69.8398 -105.002 73.1191
c-48.8311 3.43848 -95.0332 -20.2256 -129.224 -53.6562c-5.52832 -5.40527 -10.7412 -11.0986 -15.6758 -17.0117c3.61328 -16.5361 8.02832 -32.9102 13.2432 -49.0566c7.31543 -22.6445 16.3711 -44.6279 26.6895 -66.0625
c5.29102 -10.9863 10.9873 -21.7988 17.1309 -32.335c2.52246 -4.32227 5.15625 -8.29199 8.19238 -12.2441c1.18945 -1.54883 3.16797 -3.58105 4 -5.2793c0.37207 -0.758789 0.97168 -1.06543 1.34375 -1.18164c5.86328 -0.164062 15.8936 -2.54297 16.9668 -9.13965
c1.18945 -7.32324 -7.4082 -10.5195 -13.2529 -11.5723c-27.2217 -4.9043 -47.2314 10.8525 -60.9785 32.5449c-19.7441 31.1514 -35.6143 64.7266 -47.5527 99.6982c-24.9062 -54.7393 -30.0176 -118.534 -11.3457 -176.097
c27.2168 -83.8984 104.471 -158.468 195.465 -164.105zM117.416 56.3281c0.257812 -0.0654297 0.326172 -0.0351562 0 0zM450.593 -175.115c-37.4365 0.324219 -74.4854 -10.0293 -107.003 -28.3818c25.9463 -25.3945 58.5674 -45.4805 95.0801 -45.3486
c22.4189 0.0810547 51.6367 10.3721 61.748 32.2598c6.11816 13.2461 -0.580078 27.2617 -12.5869 34.4609c-10.9688 6.57422 -24.8223 6.90332 -37.2383 7.00977z" />
    <glyph glyph-name="R" unicode="R" horiz-adv-x="747" 
d="M811.221 -258.809c-37.6816 -11.5078 -79.3213 -5.38965 -115.103 9.74707c-65.415 27.6846 -113.381 83.8105 -145.03 146.045c-31.958 62.8438 -47.375 132.264 -70.5986 198.619c-0.424805 0.0351562 -0.847656 0.0556641 -1.27051 0.09375
c-34.4199 3.0791 -78.3291 20.8525 -71.2344 63.4658c2.49512 14.9873 11.8877 29.0488 28.3682 29.3652c17.4287 0.336914 28.7725 -14.7842 36.6162 -28.5869c6.84961 -12.0469 12.1504 -25.1865 17.0107 -38.4023c25.167 -1.81445 51.4902 3.36035 74.5215 11.6123
c70.4453 25.2432 120.6 86.3281 138.489 158.23c17.29 69.4961 5.69629 177.992 -79.7002 195.13c-81.9326 16.4443 -146.449 -58.3047 -182.281 -121.882c-35.7617 -63.4512 -55.0127 -135.493 -71.04 -206.052c-9.35742 -41.1895 -17.252 -82.7021 -25.7715 -124.078
c-2.46484 -21.376 -6.33887 -42.6211 -12.0977 -63.6562c-11.2451 -41.0703 -30.0684 -83.1328 -61.748 -112.602c-32.3301 -30.0781 -79.8779 -45.0527 -123.208 -34.1924c-80.4551 20.167 -95.9258 115.528 -79.4102 184.665
c20.3594 85.2373 78.2871 158.69 131.065 226.537c29.6992 38.1777 60.3164 75.8594 89.2285 114.73c-2.78809 49.0938 -5.05273 98.0186 -4.85742 147.196c0.154297 38.8154 3.08203 91.7227 45.6904 107.747c6.80371 2.55859 19.6836 -4.50586 8.90137 -8.67871
c-22.1152 -8.55762 -30.8955 -34.8857 -32.416 -56.5859c-1.66992 -23.7979 3.94531 -48.5898 8.17578 -71.8916c4.16504 -22.9229 6.2959 -46.293 8.8291 -69.5039c10.9893 16.29 21.5459 32.8711 31.4395 49.8975c22.1406 38.0996 46.3691 81.2324 50.7061 125.81
c4.12988 42.4189 -16.1104 81.6094 -50.085 106.519c-69.3164 50.8193 -170.153 30.0732 -238.379 -11.875c-65.2607 -40.126 -117.723 -107.979 -131.88 -184.206c-7.68262 -41.3633 -0.572266 -92.6885 38.9795 -116.094
c43.7324 -25.8809 92.6035 5.25781 123.529 36.3662c4.59766 4.62305 22.0137 1.07324 15.7383 -5.24219c-14.9492 -15.04 -31.5664 -28.7852 -50.7617 -38.0762c-34.3643 -16.6348 -78.0986 -18.834 -109.672 5.20215c-33.165 25.2451 -42.9375 68.9795 -37.5859 108.552
c10.5312 77.8818 61.3838 147.922 124.977 191.922c63.9775 44.2656 149.24 66.3857 225.576 45.4492c38.0518 -10.4355 72.7051 -33.8438 92.7783 -68.3145c23.0391 -39.5693 16.9658 -84.2148 0.632812 -125.08c-20.7793 -51.9961 -50.4902 -99.9766 -83.2207 -145.728
c5.03027 -45.0811 9.56738 -90.2354 13.9473 -135.379c3.3125 -34.1191 6.57129 -68.5518 7.98535 -102.975c6.93066 32.2646 14.4463 64.3926 23.3984 96.1836c19.8789 70.6016 47.2393 140.282 95.3486 196.722c46.8213 54.9287 127.633 94.6807 197.23 55.9863
c33.0059 -18.3506 52.8965 -54.2432 65.2822 -88.6992c13.1855 -36.6777 16.7842 -76.0781 9.84863 -114.453c-14.1094 -78.0537 -69.7012 -139.134 -142.54 -168.17c-30.4102 -12.123 -63.2695 -18.1348 -96.0049 -17.8564
c7.0166 -19.5391 13.623 -39.2227 20.3027 -58.8789c26.5234 -78.0664 59.3096 -158.82 118.203 -218.443c26.4805 -26.8086 58.2588 -48.5117 94.6982 -59.0762c39.6377 -11.4902 88.1045 -7.49219 113.699 28.9326c22.5635 32.1104 12.6494 73.709 -14.8154 99.4121
c-32.4521 30.3691 -80.9863 24.2207 -118.514 8.3584c-12.2393 -5.17188 -35.2705 7.57617 -16.083 15.6855c18.2207 7.70215 37.0488 12.1455 56.8057 13.375c35.7129 2.22656 71.1104 -7.52832 97.2744 -32.584c22.373 -21.4268 35.5508 -54.1719 27.6689 -84.9385
c-8.20605 -32.0293 -36.8467 -55.9717 -67.6387 -65.377zM298.141 45.3643c4.5752 46.5732 2.4541 93.377 -0.111328 140.004c-2.56836 46.7334 -5.75684 93.4385 -8.56543 140.161c-8.10449 -10.5439 -16.2568 -21.0098 -24.3896 -31.3965
c-28.7598 -36.7305 -57.9775 -73.124 -85.3281 -110.93c-27.1934 -37.5908 -54.043 -76.667 -72.4512 -119.447c-18.1475 -42.1787 -28.5166 -89.8096 -18.0078 -135.368c8.16309 -35.3994 34.3291 -76.5986 72.5303 -83.9775
c43.1201 -8.32715 79.1016 34.332 97.5811 67.5078c22.8291 40.9893 34.1826 87.0215 38.7422 133.446zM465.503 125.775c1.36426 -0.389648 2.74707 -0.720703 4.12891 -1.06445c-1.87012 4.68164 -3.79297 9.33984 -5.78906 13.9707
c-3.76758 8.74512 -7.91016 17.4727 -13.4062 25.2842c-2.41602 3.43359 -7.0166 11.2119 -11.708 11.7383c-4.4209 0.496094 -7.27734 -7.17871 -7.80078 -11.5059c-2.48242 -20.5537 17.7051 -33.5723 34.5752 -38.4229z" />
    <glyph glyph-name="S" unicode="S" horiz-adv-x="509" 
d="M227.821 -222.339c-25.8857 5.54102 -49.5557 16.5957 -70.1152 31.9199c-38.7422 -25.9971 -83.623 -41.3135 -130.842 -39.165c-51.1533 2.32812 -99.3389 27.0625 -120.563 75.4531c-19.9844 45.5645 -14.1094 102.067 22.8213 137.174
c4.60547 4.37793 21.6523 0.845703 15.3975 -5.12891c-20.4453 -19.5264 -30.668 -45.5586 -31.4199 -73.6611c-1.41699 -52.8662 29.7949 -102.868 81.7021 -117.972c52.6416 -15.3135 107.562 2.14062 151.408 32.6309c-14.959 13.1074 -27.9697 28.6162 -38.5391 46.0479
c-29.1748 48.1201 -39.6807 107.54 -30.5078 162.889c8.45117 50.999 32.5 111.492 83.7295 132.615c23.3877 9.64355 51.3535 11.7236 74.8936 1.47559c21.3232 -9.28418 35.2705 -28.2158 42.4268 -49.8809c15.9033 -48.1523 11.0479 -103.679 -5.02246 -151.069
c-18.3936 -54.2383 -55.2764 -106.336 -102.789 -142.346c11.7988 -9.30176 24.9014 -17.0273 39.251 -22.7129c51.1006 -20.2451 112.289 -11.9053 159.118 15.5771c46.5732 27.3301 79.1768 78.4023 78.5059 133.002c-0.713867 58.208 -33.8135 112.59 -71.334 155.082
c-84.6855 95.9102 -205.532 151.481 -304.469 230.391c-42.9326 34.2402 -89.1797 77.4941 -103.448 132.615c-13.0791 50.5156 6.16406 98.1719 46.166 130.502c84.6582 68.4229 221.09 60.3281 302.13 -10.0684c34.9111 -30.3262 60.5381 -74.251 61.4336 -121.272
c0.855469 -44.9316 -21.2568 -87.5098 -59.2275 -111.738c-22.8086 -14.5518 -50.6201 -22.6543 -77.7383 -21.3838c-23.0059 1.08008 -49.9082 10.0371 -62.0791 31.0361c-12.8311 22.1406 -1.37891 51.3711 16.751 66.9326c20 17.168 46.2344 26.0498 72.1025 19.3975
c12.748 -3.27637 -0.4375 -13.2158 -8.46875 -11.4492c-28.4561 6.25781 -54.2197 -29.0811 -55.627 -54.8633c-1.99121 -36.457 44.1494 -43.4707 70.5205 -36.1836c25.8857 7.15625 49.1982 23.7881 64.3271 45.9893c27.6191 40.5312 26.5996 92.4111 4.19043 134.894
c-52.7578 100.005 -206.555 138.378 -292.85 58.5527c-17.2266 -15.9385 -31.2646 -36.7764 -36.3936 -59.957c-5.6582 -25.5537 0.43457 -51.0928 11.5449 -74.2275c26.0322 -54.2051 77.4561 -94.4785 125.021 -128.995
c101.308 -73.5146 221.084 -134.213 289.155 -243.711c27.8916 -44.8682 40.5859 -101.57 28.2607 -153.566c-12.2139 -51.5381 -40.4629 -94.6475 -87.3555 -121.004c-45.1006 -25.3486 -101.365 -34.6729 -152.068 -23.8203zM106.189 -86.8848
c10.749 -31.8418 28.5449 -61.7656 52.8545 -84.668c2.68945 2.13574 5.33398 4.30664 7.91504 6.52832c42.9121 36.9199 75.8418 85.4395 91.8086 139.928c7.40332 25.2705 10.8545 51.6924 10.1738 78.0186c-0.650391 25.1924 -3.90723 52.7021 -16.6602 74.9082
c-15.5234 27.0312 -45.2598 35.5918 -74.1943 25.8398c-28.5098 -9.61328 -47.3252 -34.0215 -59.9951 -60.1777c-27.0947 -55.9463 -31.8213 -121.374 -11.9023 -180.377z" />
    <glyph glyph-name="T" unicode="T" horiz-adv-x="458" 
d="M811.303 605.17c-26.8447 -32.7959 -66.1211 -55.0029 -105.027 -70.3398c-113.785 -44.8379 -235.25 -40.9922 -356.345 -35.3848c-0.333984 -35.0889 -0.582031 -70.1768 -0.591797 -105.26c-0.0332031 -98.0762 2.60547 -196.064 6.62402 -294.007
c13.4668 -22.8135 24.2988 -46.9434 31.3125 -72.3506c20.4785 -74.1719 16.0225 -159.015 -15.959 -229.392c0.435547 -14.5391 -36.1006 -14.4863 -37.9912 0.225586c-7.1709 55.8701 -13.6611 111.88 -17.8184 168.066
c-4.35742 58.8916 -7.9502 117.902 -10.6934 176.971c-31.5361 39.3291 -69.3906 73.7979 -108.965 104.752c-68.499 53.5752 -143.504 98.3623 -210.465 153.977c-12.4238 10.3164 -26.1914 22.3027 -27.3174 39.6006c-0.923828 14.2334 7.66406 26.04 18.542 34.2686
c13.0312 9.8584 28.4893 14.6562 44.124 18.5908c20.6426 5.19238 41.5332 9.31445 62.6035 12.3486c71.9609 10.3643 144.354 8.8916 216.786 5.85254c0.397461 16.5684 0.850586 33.1299 1.42773 49.6855c0.677734 19.3652 49.293 19.0664 49.0654 0
c-0.205078 -17.2949 -0.397461 -34.5947 -0.572266 -51.8926c82.9092 -3.68457 165.753 -6.3418 247.946 7.42285c42.4189 7.10547 85.0811 18.2822 123.666 37.6543c35.7871 17.9658 73.7148 44.7139 89.5576 82.9902c35.5107 85.7891 -81.6016 125.018 -145.457 125.271
c-38.2637 0.149414 -76.5 -9.27344 -110.354 -27.1104c-32.9023 -17.333 -65.8574 -42.9297 -82.4189 -77.0537c-15.6299 -32.2012 -15.2627 -86.8848 25.5469 -100.452c40.3545 -13.4189 64.4844 36.5254 56.1973 69.6523c-2.14355 8.5625 17.3887 9.83789 19.0996 3.00098
c4.11719 -16.4551 3.01172 -33.2666 -4.16211 -48.7754c-14.0078 -30.2783 -47.958 -43.9297 -79.5371 -34.1699c-36.8164 11.376 -51.7832 50.3662 -45.2803 86.1729c7.0293 38.6836 35.6523 68.6963 66.4648 90.9453c31.8574 23.0029 69 38.3271 107.674 45.1309
c38.0156 6.69043 77.4287 4.89941 114.647 -5.32031c33.9443 -9.32227 69.7334 -25.9922 90.1787 -55.8936c23.5146 -34.3926 12.2139 -74.9697 -12.5098 -105.177zM370.983 -151.019c17.0469 67.3809 14.9111 145.135 -13.2393 209.634
c3.23926 -72.3809 7.13867 -144.739 11.1768 -217.095c0.696289 2.48438 1.42969 4.95605 2.0625 7.46094zM303.644 170.408c-4.63281 110.392 -6.16016 220.962 -3.78125 331.344c-49.1445 2.11328 -98.0439 3.44922 -146.158 0.847656
c-46.3809 -2.50781 -95.9736 -7.2373 -140.174 -22.3564c-16.0498 -5.49121 -35.9287 -17.1562 -35.5977 -36.5312c0.367188 -21.5254 26.1182 -36.9355 41.0244 -48.7344c73.5068 -58.1777 155.01 -105.66 225.885 -167.259
c20.2197 -17.5762 40.2471 -36.7061 58.8018 -57.3105z" />
    <glyph glyph-name="U" unicode="U" horiz-adv-x="736" 
d="M799.63 -260.167c-23.5449 -17.4521 -54.4492 -18.2188 -81.1924 -7.94824c-30.7539 11.8145 -52.6514 35.9131 -66.1758 65.4395c-14.5723 31.8115 -20.7871 68.165 -26.4453 102.454c-5.41797 32.8115 -8.22949 66.0879 -9.74023 99.3262
c-76.457 -19.6328 -143.157 -77.8818 -170.794 -152.049c-9.87891 -26.5078 -15.752 -56.0117 -11.4502 -84.2686c4.14746 -27.2363 20.9463 -56.3408 48.8662 -64.6963c30.1338 -9.01855 60.0557 15.0703 74.9619 39.2148c14.709 23.8281 19.666 51.8242 15.0127 79.3213
c-1.2168 7.18359 18.4697 7.90234 19.8086 0c10.7285 -63.3779 -38.4414 -143.229 -110.313 -130.6c-30.1191 5.29102 -54.2861 29.2383 -63.6943 57.793c-11.3613 34.4814 -4.72168 72.9551 7.70996 106.236c30.4248 81.4668 105.399 141.957 189.409 161.068
c-0.0429688 1.19434 -0.0986328 2.38574 -0.138672 3.58008c-2.58594 76.0088 1.86719 151.944 5.87988 227.819c1.56641 29.6484 2.80078 59.3018 3.9043 88.9551c-9.02344 -38.332 -19.3418 -76.3535 -31.3057 -113.898
c-13.1348 -41.2246 -27.9902 -82.125 -45.8574 -121.556c-15.6631 -34.5645 -34.8379 -68.5752 -61.4551 -95.9736c-22.1484 -22.7959 -50.6709 -41.3633 -82.9023 -44.7188c-30.9971 -3.22852 -63.9551 7.38379 -84.7676 30.8682
c-21.7686 24.5645 -31.834 55.6826 -38.9316 87.1377c-8.5752 38.0137 -11.541 77.0342 -12.3076 115.926c-1.51855 77.1934 6.21973 154.25 3.82324 231.438c-0.96875 31.1836 -1.04492 63.8457 -13.9346 92.9199c-15.6074 35.2051 -50.9639 45.0684 -86.3057 34.3955
c-34.0488 -10.2832 -66.4199 -31.543 -93.3174 -54.4297c-27.3633 -23.2822 -50.6299 -51.2852 -66.7764 -83.4785c-28.251 -56.3311 -44.873 -157.456 19.5645 -197.149c60.3994 -37.2061 151.525 7.08301 161.751 76.498
c5.11426 34.7188 -11.3838 71.8926 -46.0264 83.876c-35.9688 12.4443 -65.6445 -17.085 -85.5156 -43.3428c-3.80273 -5.02246 -20.5742 -2.01367 -15.2275 5.07422c10.0381 13.3096 21.1338 25.6855 34.8184 35.3438c56.126 39.623 133.038 -2.00879 130.867 -70.7607
c-2.25684 -71.4775 -76.7734 -115.761 -142.628 -110.584c-30.7539 2.41895 -60.7334 15.5488 -79.1113 41.0576c-20.9131 29.0303 -25.1387 67.5752 -21.5479 102.292c7.77832 75.207 53.5195 139.835 113.605 183.426c51.042 37.0312 132.906 76.5557 184.533 19.2275
c49.7393 -55.2295 48.0342 -141.451 48.3838 -211.149c0.422852 -84.415 -4.91895 -169.84 13.9502 -252.855c7.30469 -32.1377 17.1631 -65.624 41.7832 -88.7998c6.2168 -5.85254 11.0723 -10.3564 19.8555 -11.5967c9.0459 -1.27734 18.1904 0.192383 26.8594 2.85156
c18.9932 5.82715 35.499 17.5273 49.6465 31.1992c28.4541 27.4971 47.7432 62.3936 63.8184 98.1777c17.1787 38.2461 31.6953 77.7598 44.5547 117.648c23.2285 72.0693 40.2725 145.918 53.9619 220.349c0.424805 11.6016 0.860352 23.2031 1.33105 34.8047
c0.579102 14.3223 33.4482 13.5811 35.6221 0.000976562c11.8018 -73.7422 8.16309 -149.102 4.99219 -223.431c-3.10254 -72.7021 -6.88574 -145.485 -5.31738 -218.276c0.119141 -5.50586 0.28125 -11.0195 0.463867 -16.5381
c9.4834 0.212891 18.9902 -0.078125 28.4766 -0.994141c61.3457 -5.92578 115.161 -42.75 137.978 -100.867c12.4268 -31.6572 14.707 -67.166 7.96875 -100.399c-5.7207 -28.2236 -17.1299 -57.6797 -40.9814 -75.3594zM666.608 6.18066
c2.29297 -55.21 8.11621 -110.727 20.4365 -164.496c5.98438 -26.1035 13.9551 -54.335 32.0596 -74.8711c15.2373 -17.2852 41.5078 -29.8408 63.0029 -15.9541c23.4053 15.1191 34.0146 47.0625 38.6777 72.9805c5.42969 30.1768 2.82617 61.8994 -8.65625 90.4141
c-22.4219 55.6777 -73.6416 89.9434 -133.292 91.9141c-4.08398 0.133789 -8.16016 0.111328 -12.2285 0.0126953z" />
    <glyph glyph-name="U" unicode="&#xdc;" horiz-adv-x="736" 
d="M799.63 -260.167c-23.5449 -17.4521 -54.4492 -18.2188 -81.1924 -7.94824c-30.7539 11.8145 -52.6514 35.9131 -66.1758 65.4395c-14.5723 31.8115 -20.7871 68.165 -26.4453 102.454c-5.41797 32.8115 -8.22949 66.0879 -9.74023 99.3262
c-76.457 -19.6328 -143.157 -77.8818 -170.794 -152.049c-9.87891 -26.5078 -15.752 -56.0117 -11.4502 -84.2686c4.14746 -27.2363 20.9463 -56.3408 48.8662 -64.6963c30.1338 -9.01855 60.0557 15.0703 74.9619 39.2148c14.709 23.8281 19.666 51.8242 15.0127 79.3213
c-1.2168 7.18359 18.4697 7.90234 19.8086 0c10.7285 -63.3779 -38.4414 -143.229 -110.313 -130.6c-30.1191 5.29102 -54.2861 29.2383 -63.6943 57.793c-11.3613 34.4814 -4.72168 72.9551 7.70996 106.236c30.4248 81.4668 105.399 141.957 189.409 161.068
c-0.0429688 1.19434 -0.0986328 2.38574 -0.138672 3.58008c-2.58594 76.0088 1.86719 151.944 5.87988 227.819c1.56641 29.6484 2.80078 59.3018 3.9043 88.9551c-9.02344 -38.332 -19.3418 -76.3535 -31.3057 -113.898
c-13.1348 -41.2246 -27.9902 -82.125 -45.8574 -121.556c-15.6631 -34.5645 -34.8379 -68.5752 -61.4551 -95.9736c-22.1484 -22.7959 -50.6709 -41.3633 -82.9023 -44.7188c-30.9971 -3.22852 -63.9551 7.38379 -84.7676 30.8682
c-21.7686 24.5645 -31.834 55.6826 -38.9316 87.1377c-8.5752 38.0137 -11.541 77.0342 -12.3076 115.926c-1.51855 77.1934 6.21973 154.25 3.82324 231.438c-0.96875 31.1836 -1.04492 63.8457 -13.9346 92.9199c-15.6074 35.2051 -50.9639 45.0684 -86.3057 34.3955
c-34.0488 -10.2832 -66.4199 -31.543 -93.3174 -54.4297c-27.3633 -23.2822 -50.6299 -51.2852 -66.7764 -83.4785c-28.251 -56.3311 -44.873 -157.456 19.5645 -197.149c60.3994 -37.2061 151.525 7.08301 161.751 76.498
c5.11426 34.7188 -11.3838 71.8926 -46.0264 83.876c-35.9688 12.4443 -65.6445 -17.085 -85.5156 -43.3428c-3.80273 -5.02246 -20.5742 -2.01367 -15.2275 5.07422c10.0381 13.3096 21.1338 25.6855 34.8184 35.3438c56.126 39.623 133.038 -2.00879 130.867 -70.7607
c-2.25684 -71.4775 -76.7734 -115.761 -142.628 -110.584c-30.7539 2.41895 -60.7334 15.5488 -79.1113 41.0576c-20.9131 29.0303 -25.1387 67.5752 -21.5479 102.292c7.77832 75.207 53.5195 139.835 113.605 183.426c51.042 37.0312 132.906 76.5557 184.533 19.2275
c49.7393 -55.2295 48.0342 -141.451 48.3838 -211.149c0.422852 -84.415 -4.91895 -169.84 13.9502 -252.855c7.30469 -32.1377 17.1631 -65.624 41.7832 -88.7998c6.2168 -5.85254 11.0723 -10.3564 19.8555 -11.5967c9.0459 -1.27734 18.1904 0.192383 26.8594 2.85156
c18.9932 5.82715 35.499 17.5273 49.6465 31.1992c28.4541 27.4971 47.7432 62.3936 63.8184 98.1777c17.1787 38.2461 31.6953 77.7598 44.5547 117.648c23.2285 72.0693 40.2725 145.918 53.9619 220.349c0.424805 11.6016 0.860352 23.2031 1.33105 34.8047
c0.579102 14.3223 33.4482 13.5811 35.6221 0.000976562c11.8018 -73.7422 8.16309 -149.102 4.99219 -223.431c-3.10254 -72.7021 -6.88574 -145.485 -5.31738 -218.276c0.119141 -5.50586 0.28125 -11.0195 0.463867 -16.5381
c9.4834 0.212891 18.9902 -0.078125 28.4766 -0.994141c61.3457 -5.92578 115.161 -42.75 137.978 -100.867c12.4268 -31.6572 14.707 -67.166 7.96875 -100.399c-5.7207 -28.2236 -17.1299 -57.6797 -40.9814 -75.3594zM666.608 6.18066
c2.29297 -55.21 8.11621 -110.727 20.4365 -164.496c5.98438 -26.1035 13.9551 -54.335 32.0596 -74.8711c15.2373 -17.2852 41.5078 -29.8408 63.0029 -15.9541c23.4053 15.1191 34.0146 47.0625 38.6777 72.9805c5.42969 30.1768 2.82617 61.8994 -8.65625 90.4141
c-22.4219 55.6777 -73.6416 89.9434 -133.292 91.9141c-4.08398 0.133789 -8.16016 0.111328 -12.2285 0.0126953z" />
    <glyph glyph-name="U" unicode="&#xdb;" horiz-adv-x="736" 
d="M799.63 -260.167c-23.5449 -17.4521 -54.4492 -18.2188 -81.1924 -7.94824c-30.7539 11.8145 -52.6514 35.9131 -66.1758 65.4395c-14.5723 31.8115 -20.7871 68.165 -26.4453 102.454c-5.41797 32.8115 -8.22949 66.0879 -9.74023 99.3262
c-76.457 -19.6328 -143.157 -77.8818 -170.794 -152.049c-9.87891 -26.5078 -15.752 -56.0117 -11.4502 -84.2686c4.14746 -27.2363 20.9463 -56.3408 48.8662 -64.6963c30.1338 -9.01855 60.0557 15.0703 74.9619 39.2148c14.709 23.8281 19.666 51.8242 15.0127 79.3213
c-1.2168 7.18359 18.4697 7.90234 19.8086 0c10.7285 -63.3779 -38.4414 -143.229 -110.313 -130.6c-30.1191 5.29102 -54.2861 29.2383 -63.6943 57.793c-11.3613 34.4814 -4.72168 72.9551 7.70996 106.236c30.4248 81.4668 105.399 141.957 189.409 161.068
c-0.0429688 1.19434 -0.0986328 2.38574 -0.138672 3.58008c-2.58594 76.0088 1.86719 151.944 5.87988 227.819c1.56641 29.6484 2.80078 59.3018 3.9043 88.9551c-9.02344 -38.332 -19.3418 -76.3535 -31.3057 -113.898
c-13.1348 -41.2246 -27.9902 -82.125 -45.8574 -121.556c-15.6631 -34.5645 -34.8379 -68.5752 -61.4551 -95.9736c-22.1484 -22.7959 -50.6709 -41.3633 -82.9023 -44.7188c-30.9971 -3.22852 -63.9551 7.38379 -84.7676 30.8682
c-21.7686 24.5645 -31.834 55.6826 -38.9316 87.1377c-8.5752 38.0137 -11.541 77.0342 -12.3076 115.926c-1.51855 77.1934 6.21973 154.25 3.82324 231.438c-0.96875 31.1836 -1.04492 63.8457 -13.9346 92.9199c-15.6074 35.2051 -50.9639 45.0684 -86.3057 34.3955
c-34.0488 -10.2832 -66.4199 -31.543 -93.3174 -54.4297c-27.3633 -23.2822 -50.6299 -51.2852 -66.7764 -83.4785c-28.251 -56.3311 -44.873 -157.456 19.5645 -197.149c60.3994 -37.2061 151.525 7.08301 161.751 76.498
c5.11426 34.7188 -11.3838 71.8926 -46.0264 83.876c-35.9688 12.4443 -65.6445 -17.085 -85.5156 -43.3428c-3.80273 -5.02246 -20.5742 -2.01367 -15.2275 5.07422c10.0381 13.3096 21.1338 25.6855 34.8184 35.3438c56.126 39.623 133.038 -2.00879 130.867 -70.7607
c-2.25684 -71.4775 -76.7734 -115.761 -142.628 -110.584c-30.7539 2.41895 -60.7334 15.5488 -79.1113 41.0576c-20.9131 29.0303 -25.1387 67.5752 -21.5479 102.292c7.77832 75.207 53.5195 139.835 113.605 183.426c51.042 37.0312 132.906 76.5557 184.533 19.2275
c49.7393 -55.2295 48.0342 -141.451 48.3838 -211.149c0.422852 -84.415 -4.91895 -169.84 13.9502 -252.855c7.30469 -32.1377 17.1631 -65.624 41.7832 -88.7998c6.2168 -5.85254 11.0723 -10.3564 19.8555 -11.5967c9.0459 -1.27734 18.1904 0.192383 26.8594 2.85156
c18.9932 5.82715 35.499 17.5273 49.6465 31.1992c28.4541 27.4971 47.7432 62.3936 63.8184 98.1777c17.1787 38.2461 31.6953 77.7598 44.5547 117.648c23.2285 72.0693 40.2725 145.918 53.9619 220.349c0.424805 11.6016 0.860352 23.2031 1.33105 34.8047
c0.579102 14.3223 33.4482 13.5811 35.6221 0.000976562c11.8018 -73.7422 8.16309 -149.102 4.99219 -223.431c-3.10254 -72.7021 -6.88574 -145.485 -5.31738 -218.276c0.119141 -5.50586 0.28125 -11.0195 0.463867 -16.5381
c9.4834 0.212891 18.9902 -0.078125 28.4766 -0.994141c61.3457 -5.92578 115.161 -42.75 137.978 -100.867c12.4268 -31.6572 14.707 -67.166 7.96875 -100.399c-5.7207 -28.2236 -17.1299 -57.6797 -40.9814 -75.3594zM666.608 6.18066
c2.29297 -55.21 8.11621 -110.727 20.4365 -164.496c5.98438 -26.1035 13.9551 -54.335 32.0596 -74.8711c15.2373 -17.2852 41.5078 -29.8408 63.0029 -15.9541c23.4053 15.1191 34.0146 47.0625 38.6777 72.9805c5.42969 30.1768 2.82617 61.8994 -8.65625 90.4141
c-22.4219 55.6777 -73.6416 89.9434 -133.292 91.9141c-4.08398 0.133789 -8.16016 0.111328 -12.2285 0.0126953z" />
    <glyph glyph-name="U" unicode="&#xda;" horiz-adv-x="736" 
d="M799.63 -260.167c-23.5449 -17.4521 -54.4492 -18.2188 -81.1924 -7.94824c-30.7539 11.8145 -52.6514 35.9131 -66.1758 65.4395c-14.5723 31.8115 -20.7871 68.165 -26.4453 102.454c-5.41797 32.8115 -8.22949 66.0879 -9.74023 99.3262
c-76.457 -19.6328 -143.157 -77.8818 -170.794 -152.049c-9.87891 -26.5078 -15.752 -56.0117 -11.4502 -84.2686c4.14746 -27.2363 20.9463 -56.3408 48.8662 -64.6963c30.1338 -9.01855 60.0557 15.0703 74.9619 39.2148c14.709 23.8281 19.666 51.8242 15.0127 79.3213
c-1.2168 7.18359 18.4697 7.90234 19.8086 0c10.7285 -63.3779 -38.4414 -143.229 -110.313 -130.6c-30.1191 5.29102 -54.2861 29.2383 -63.6943 57.793c-11.3613 34.4814 -4.72168 72.9551 7.70996 106.236c30.4248 81.4668 105.399 141.957 189.409 161.068
c-0.0429688 1.19434 -0.0986328 2.38574 -0.138672 3.58008c-2.58594 76.0088 1.86719 151.944 5.87988 227.819c1.56641 29.6484 2.80078 59.3018 3.9043 88.9551c-9.02344 -38.332 -19.3418 -76.3535 -31.3057 -113.898
c-13.1348 -41.2246 -27.9902 -82.125 -45.8574 -121.556c-15.6631 -34.5645 -34.8379 -68.5752 -61.4551 -95.9736c-22.1484 -22.7959 -50.6709 -41.3633 -82.9023 -44.7188c-30.9971 -3.22852 -63.9551 7.38379 -84.7676 30.8682
c-21.7686 24.5645 -31.834 55.6826 -38.9316 87.1377c-8.5752 38.0137 -11.541 77.0342 -12.3076 115.926c-1.51855 77.1934 6.21973 154.25 3.82324 231.438c-0.96875 31.1836 -1.04492 63.8457 -13.9346 92.9199c-15.6074 35.2051 -50.9639 45.0684 -86.3057 34.3955
c-34.0488 -10.2832 -66.4199 -31.543 -93.3174 -54.4297c-27.3633 -23.2822 -50.6299 -51.2852 -66.7764 -83.4785c-28.251 -56.3311 -44.873 -157.456 19.5645 -197.149c60.3994 -37.2061 151.525 7.08301 161.751 76.498
c5.11426 34.7188 -11.3838 71.8926 -46.0264 83.876c-35.9688 12.4443 -65.6445 -17.085 -85.5156 -43.3428c-3.80273 -5.02246 -20.5742 -2.01367 -15.2275 5.07422c10.0381 13.3096 21.1338 25.6855 34.8184 35.3438c56.126 39.623 133.038 -2.00879 130.867 -70.7607
c-2.25684 -71.4775 -76.7734 -115.761 -142.628 -110.584c-30.7539 2.41895 -60.7334 15.5488 -79.1113 41.0576c-20.9131 29.0303 -25.1387 67.5752 -21.5479 102.292c7.77832 75.207 53.5195 139.835 113.605 183.426c51.042 37.0312 132.906 76.5557 184.533 19.2275
c49.7393 -55.2295 48.0342 -141.451 48.3838 -211.149c0.422852 -84.415 -4.91895 -169.84 13.9502 -252.855c7.30469 -32.1377 17.1631 -65.624 41.7832 -88.7998c6.2168 -5.85254 11.0723 -10.3564 19.8555 -11.5967c9.0459 -1.27734 18.1904 0.192383 26.8594 2.85156
c18.9932 5.82715 35.499 17.5273 49.6465 31.1992c28.4541 27.4971 47.7432 62.3936 63.8184 98.1777c17.1787 38.2461 31.6953 77.7598 44.5547 117.648c23.2285 72.0693 40.2725 145.918 53.9619 220.349c0.424805 11.6016 0.860352 23.2031 1.33105 34.8047
c0.579102 14.3223 33.4482 13.5811 35.6221 0.000976562c11.8018 -73.7422 8.16309 -149.102 4.99219 -223.431c-3.10254 -72.7021 -6.88574 -145.485 -5.31738 -218.276c0.119141 -5.50586 0.28125 -11.0195 0.463867 -16.5381
c9.4834 0.212891 18.9902 -0.078125 28.4766 -0.994141c61.3457 -5.92578 115.161 -42.75 137.978 -100.867c12.4268 -31.6572 14.707 -67.166 7.96875 -100.399c-5.7207 -28.2236 -17.1299 -57.6797 -40.9814 -75.3594zM666.608 6.18066
c2.29297 -55.21 8.11621 -110.727 20.4365 -164.496c5.98438 -26.1035 13.9551 -54.335 32.0596 -74.8711c15.2373 -17.2852 41.5078 -29.8408 63.0029 -15.9541c23.4053 15.1191 34.0146 47.0625 38.6777 72.9805c5.42969 30.1768 2.82617 61.8994 -8.65625 90.4141
c-22.4219 55.6777 -73.6416 89.9434 -133.292 91.9141c-4.08398 0.133789 -8.16016 0.111328 -12.2285 0.0126953z" />
    <glyph glyph-name="V" unicode="V" horiz-adv-x="615" 
d="M796.316 443.614c44.0889 -26.2832 85.7402 28.2549 93.3086 66.8652c8.45898 43.1758 -14.9463 83.4668 -59.4375 90.3721c-39.2051 6.08301 -80.2578 -11.0527 -112.502 -32.0264c-35.3389 -22.9883 -65.498 -54.9033 -89.3311 -89.498
c-55.3135 -80.291 -77.7979 -175.837 -95.252 -270.27c-9.60547 -51.9736 -17.2979 -104.299 -26.2607 -156.386c-4.57031 -26.5635 -9.42871 -53.084 -15.0508 -79.4473c-2.81152 -13.1855 -5.77441 -26.3506 -9.02344 -39.4346
c-2.43945 -9.81543 -5.04102 -19.2734 -13.0088 -26.1182c-18.3604 -15.7715 -49.0508 -9.75195 -62.6006 8.87891c-12.9424 17.793 -19.5918 42.1074 -27.0186 62.6182c-16.1533 44.6299 -28.749 90.4043 -40.2744 136.419
c-23.0898 92.1836 -42.0469 185.45 -71.2295 276.004c-14.0283 43.5225 -29.1523 88.583 -51.9102 128.421c-24.6123 43.084 -64.0986 71.0693 -115.525 58.3926c-86.5127 -21.3262 -127.405 -119.362 -110.715 -200.87c8.56738 -41.8389 33.7363 -90.1738 75.7734 -106.467
c46.8496 -18.1582 93.9697 25.5254 109.967 66.3828c15.0029 38.3174 7.63184 88.0488 -26.4824 114.2c-36.9736 28.3447 -83.1572 -4.2334 -87.9092 -45.7061c-0.820312 -7.14062 -18.5762 -6.64746 -17.832 0c2.19922 19.6328 11.5332 37.1533 26.9004 49.6738
c30.7539 25.0557 74.458 22.6162 102.244 -5.64062c31.7529 -32.2871 36.4922 -82.3301 17.8965 -122.446c-19.0127 -41.0244 -62.2061 -74.5996 -108.965 -71.7051c-47.5176 2.94043 -83.75 43.1094 -101.153 84.5615c-36.3408 86.5527 -5.32617 196.537 82.3223 238.321
c41.6826 19.8682 93.0713 21.5381 131.849 -5.87109c40.9355 -28.9346 66.5322 -75.0752 88.2881 -119.015c48.7217 -98.4023 70.2803 -208.422 97.5352 -314.019c13.6914 -53.0488 28.5576 -105.923 47.4463 -157.385c3.66113 -9.97168 7.54297 -19.8604 11.5537 -29.6963
c5.46777 21.7539 8.60254 44.7373 12.6006 66.1445c21.5791 115.556 35.291 232.693 79.0537 342.735c36.9482 92.9014 95.5459 183.142 187.929 228.364c38.3857 18.7881 82.7959 31.3027 125.395 20.7988c43.6787 -10.7695 69.2686 -47.1025 64.0186 -92.1328
c-4.91895 -42.1787 -35.083 -85.2246 -79.4277 -91.5352c-41.3311 -5.88281 -80.5518 26.4092 -80.7588 68.5596c-0.0380859 7.30762 18.6025 7.28027 18.6201 0c0.0478516 -21.0479 10.6553 -41.1289 28.9678 -52.0449z" />
    <glyph glyph-name="W" unicode="W" horiz-adv-x="870" 
d="M1024.95 510.464c26.0195 10.9746 44.7061 39.2588 49.3848 66.5459c8.7627 51.2041 -39.6455 95.9941 -89.7715 78.9492c-44.9414 -15.2832 -76.5 -60.7666 -99.0049 -100.086c-24.9492 -43.5957 -42.1729 -91.2217 -55.2217 -139.6
c-28.292 -104.878 -36.3994 -213.832 -59.4707 -319.809c-5.38672 -24.749 -11.5176 -49.374 -19.167 -73.5264c-6.80664 -21.4873 -15.3994 -42.9375 -30.5059 -60.0605c-31.6172 -35.835 -81.3008 -37.1885 -117.548 -6.56348
c-35.8271 30.2656 -49.0859 81.9355 -57.7578 125.953c-4.34961 22.0771 -7.68945 44.4453 -10.5332 66.8994c-6.73535 -39.7168 -16.543 -78.8359 -31.3408 -116.46c-11.0654 -28.1299 -24.833 -58.1475 -49.8662 -76.5254
c-23.9648 -17.5938 -55.5635 -20.2207 -83.7363 -12.7207c-53.585 14.2637 -90.6191 62.333 -109.409 112.179c-21.5967 57.2949 -28.3145 119.45 -33.6992 180.024c-5.57227 62.6768 -8.36035 125.573 -14.623 188.194c-2.9502 29.5039 -6.38867 59.0967 -11.2441 88.3525
c-4.09668 24.6738 -12.6494 48.793 -31.0068 66.6318c-40.7129 39.5645 -106.507 0.779297 -137.663 -32.7402c-34.6182 -37.2441 -52.7305 -88.6807 -49.4893 -139.369c3.27148 -51.1738 31.0117 -110.624 86.3223 -121.443
c55.3057 -10.8193 94.3672 48.2646 86.8213 98.0693c-0.981445 6.48828 16.498 6.99902 17.6338 0c8.67188 -53.3926 -30.9336 -106.895 -85.6602 -110.158c-60.582 -3.61328 -106.144 44.5674 -119.481 100.108c-22.7861 94.8906 35.7988 206.146 133.824 228.572
c25.1113 5.74609 52.416 5.16406 74.0205 -10.3447c19.957 -14.3242 29.9414 -36.5635 40.3584 -57.9854c27.8564 -57.2842 37.7246 -122.929 44.9463 -185.615c7.58301 -65.8223 11.9053 -132.141 23.3906 -197.457c10.0957 -57.4141 25.9785 -122.637 66.042 -167.267
c19.4131 -21.627 48.7979 -35.0908 76.1738 -19.0234c25.959 15.2324 41.6729 47.9824 53.9072 74.2217c27.3838 58.7324 37.9355 123.917 44.4355 187.866c0.0761719 0.739258 0.364258 1.37695 0.746094 1.96387c-0.192383 1.93848 -0.387695 3.88477 -0.580078 5.82031
c-1.20996 12.1055 28.916 12.4092 32.4609 2.50586c20.792 -58.0664 21.3818 -121.227 38.2646 -180.355c7.52539 -26.3564 17.5859 -53.4258 33.6943 -75.8604c6.75098 -9.40234 16.3408 -20.8955 27.71 -24.7314c10.9189 -3.68164 24.0156 2.62695 32.8613 8.95312
c20.9814 15.0098 32.3145 42.2012 40.1133 65.8477c9.37793 28.4492 16.3242 57.7939 22.4932 87.0801c12.0449 57.1787 19.7324 115.167 29.3096 172.785c17.3105 104.134 40.625 212.959 102.561 300.731c25.8857 36.6875 60.9385 72.8008 107.383 79.9238
c37.4873 5.74902 79.0889 -12.5938 95.9688 -47.5146c20.749 -42.9219 -5.24805 -96.3906 -43.6133 -119.807c-35.7939 -21.8467 -90.0527 -11.6875 -103.37 31.6191c-3.13477 10.1895 19.6182 11.4854 23.1025 3.63086c10.4102 -23.4668 34.6836 -39.0156 59.835 -28.4062z
" />
    <glyph glyph-name="X" unicode="X" horiz-adv-x="479" 
d="M250.429 217.877c-1.11328 12.1934 -2.19922 24.3984 -3.29785 36.5977c-13.3857 -28.8408 -25.4756 -58.0059 -37.2471 -85.999c-23.1045 -54.9463 -45.9893 -111.89 -79.9873 -161.211c-22.9043 -33.2314 -70.1025 -80.6504 -113.759 -51.9668
c-8.62109 5.66504 7.09766 10.6318 12.4697 7.10742c32.9102 -21.5918 70.835 27.5 86.5029 50.9941c20.0225 30.0205 35.9229 62.9121 50.7529 95.7354c26.2246 58.0332 49.0635 119.781 78.3828 177.385c-4.29102 47.8535 -8.55469 95.7129 -12.8281 143.56
c-5.08594 56.9355 -9.46875 128.924 -61.0908 164.85c-50.9893 35.4834 -118.671 18.2617 -155.936 -28.2363c-33.0264 -41.209 -48.5625 -113.655 -10.6855 -156.987c21.4014 -24.4834 56.7529 -29.3135 85.5811 -15.6221c26.9863 12.8164 45.7139 37.7656 56.8096 64.8535
c2.46973 6.03027 19.7949 4.39062 17.0039 -2.67188c-21.9023 -55.4551 -78.3848 -94.9717 -138.943 -76.4365c-61.748 18.8965 -71.4824 92.0713 -52.373 145.378c17.4414 48.6533 58.5518 87.4463 109.918 96.9961c52.4922 9.76172 105.741 -10.3447 135.544 -55.0361
c15.6123 -23.4131 25.7236 -50.9512 33.6436 -77.791c9.47363 -32.0996 17.4443 -64.6777 23.1377 -97.6562c2.43457 -14.084 4.6084 -28.2031 6.6123 -42.3428c18.8818 28.292 40.625 54.5928 66.7227 77.7129c36.6621 32.4775 94.8779 68.3936 145.511 46.9922
c20.9287 -8.84375 31.4141 -30.1924 20.2246 -51.2275c-12.4775 -23.4619 -41.1924 -29.1074 -65.5068 -28.0293c-11.9707 0.53125 -12.0234 11.9785 0.000976562 11.29c17.2344 -0.987305 35.8936 1.56055 46.1816 17.1299
c9.09375 13.7549 7.18066 31.4678 -7.56348 40.2959c-27.2568 16.3232 -66.0322 -1.49805 -89.835 -16.4248c-47.9248 -30.0557 -83.5449 -73.5625 -112.449 -122.054c6.22949 -48.5146 10.7939 -97.2471 16.4141 -145.838
c7.57129 -65.4551 16.1367 -132.023 34.5498 -195.452c15.6201 -53.8105 38.2461 -108.504 80.7715 -146.72c20.7061 -18.6084 46.4932 -36.2627 75.1289 -37.7939c29.833 -1.59375 58.3047 14.8564 71.7051 41.6426c12.7178 25.4229 7.67969 55.959 -15.0605 73.9375
c-26.9961 21.3438 -63.1348 9.45117 -78.8408 -19.3818c-3.24121 -5.94629 -20.9209 -3.78027 -17.3857 2.73242c27.3408 50.3643 104.006 50.6807 130.471 -0.870117c12.6318 -24.6025 6.20215 -52.6846 -9.68359 -74.0234
c-17.4717 -23.4688 -44.1719 -36.083 -73.043 -38.1406c-59.6172 -4.24316 -114.587 27.877 -150.869 73.2637c-36.2979 45.3994 -55.8525 99.9639 -68.7881 156.006c-15.4355 66.875 -22.6445 135.21 -28.8662 203.453z" />
    <glyph glyph-name="Y" unicode="Y" horiz-adv-x="673" 
d="M342.726 -64.7227c49.7441 -40.1514 133.909 31.2295 102.503 87.0312c-16.3311 29.0234 -50.6455 38.7148 -81.4775 29.9648c-31.209 -8.85645 -58.0283 -30.9795 -77.9678 -56.0068c-33.957 -42.6211 -52.542 -105.738 -31.9346 -158.245
c21.457 -54.6709 90.9023 -80.0654 145.718 -68.165c35.0879 7.61914 65.6748 25.916 87.0234 55.0527c20.1846 27.5479 32.5479 61.1436 39.9316 94.2432c7.19336 32.2363 10.7334 65.1406 12.7676 98.0703c2.33594 37.7432 4.87402 75.7334 5.03809 113.532
c0.381836 88.4814 -9.17578 176.53 -17.1211 264.64c-10.3086 -62.4971 -29.9111 -123.061 -65.1182 -176.483c-24.9521 -37.8643 -58.5654 -71.4873 -104.426 -81.0137c-45.875 -9.53223 -93.6182 6.2627 -118.008 47.459
c-11.8018 19.9346 -16.9688 43.6133 -21.2373 66.1406c-4.97461 26.2549 -7.61328 52.874 -9.11621 79.5312c-1.5918 28.2188 -2.80176 56.4424 -4.84082 84.6279c-1.83496 25.3643 -3.2041 52.1836 -10.4912 76.6953c-7.70215 25.9131 -30.6904 43.2559 -57.3076 45.7432
c-27.0947 2.53027 -54.4531 -8.93262 -76.9199 -23.2188c-37.7324 -23.998 -67.6865 -63.6133 -74.3291 -108.474c-6.92285 -46.7559 15.6045 -101.037 69.1592 -102.728c46.8643 -1.47754 78.4756 49.0107 68.248 92.0342
c-1.81641 7.64941 15.5166 8.75781 17.0049 2.67188c10.9844 -44.8965 -16.7939 -92.4648 -62.3936 -102.885c-48.5625 -11.0957 -98.1553 17.4062 -109.42 66.4014c-21.0654 91.6367 72.0645 187.646 161.968 187.013c22.4619 -0.15918 45.4883 -7.16113 62.1484 -22.6826
c17.6465 -16.4375 28.6738 -42.0293 36.374 -64.4355c19.0938 -55.5645 21.0342 -115.296 28.5742 -173.066c3.50195 -26.8213 7.99805 -54.1895 18.1367 -79.4092c8.17578 -20.3359 20.2988 -42.1299 41.9434 -50.3076c49.2305 -18.6006 96.8496 31.5967 122.346 67.249
c61.8369 86.4727 75.4756 197.626 76.8525 301.147c0.015625 1.30566 0.594727 2.37891 1.48535 3.26953c-0.139648 11.7256 26.8115 10.4531 29.291 -0.189453c19.9873 -85.8164 29.6104 -173.632 38.1279 -261.248c7.13086 -73.3652 7.4873 -145.824 4.28125 -219.354
c-3.26367 -74.9062 -7.2207 -159.326 -51.0361 -223.331c-25.9131 -37.8545 -62.8154 -63.2236 -107.539 -73.7578c-58.2383 -13.7168 -133.832 0.413086 -175.914 45.5898c-42.7148 45.8574 -36.2803 116.829 -9.45117 168.937
c27.1582 52.7451 81.9785 101.594 144.48 100.04c55.2549 -1.37402 104.604 -54.7695 71.1279 -108.183c-27.2236 -43.4385 -99.4375 -72.7324 -140.875 -31.3633c-4.35449 4.34668 0.427734 8.55469 4.65137 10.1133c5.72363 2.11328 12.998 1.17676 17.7422 -2.65137z" />
    <glyph glyph-name="Y" unicode="&#x178;" horiz-adv-x="673" 
d="M342.726 -64.7227c49.7441 -40.1514 133.909 31.2295 102.503 87.0312c-16.3311 29.0234 -50.6455 38.7148 -81.4775 29.9648c-31.209 -8.85645 -58.0283 -30.9795 -77.9678 -56.0068c-33.957 -42.6211 -52.542 -105.738 -31.9346 -158.245
c21.457 -54.6709 90.9023 -80.0654 145.718 -68.165c35.0879 7.61914 65.6748 25.916 87.0234 55.0527c20.1846 27.5479 32.5479 61.1436 39.9316 94.2432c7.19336 32.2363 10.7334 65.1406 12.7676 98.0703c2.33594 37.7432 4.87402 75.7334 5.03809 113.532
c0.381836 88.4814 -9.17578 176.53 -17.1211 264.64c-10.3086 -62.4971 -29.9111 -123.061 -65.1182 -176.483c-24.9521 -37.8643 -58.5654 -71.4873 -104.426 -81.0137c-45.875 -9.53223 -93.6182 6.2627 -118.008 47.459
c-11.8018 19.9346 -16.9688 43.6133 -21.2373 66.1406c-4.97461 26.2549 -7.61328 52.874 -9.11621 79.5312c-1.5918 28.2188 -2.80176 56.4424 -4.84082 84.6279c-1.83496 25.3643 -3.2041 52.1836 -10.4912 76.6953c-7.70215 25.9131 -30.6904 43.2559 -57.3076 45.7432
c-27.0947 2.53027 -54.4531 -8.93262 -76.9199 -23.2188c-37.7324 -23.998 -67.6865 -63.6133 -74.3291 -108.474c-6.92285 -46.7559 15.6045 -101.037 69.1592 -102.728c46.8643 -1.47754 78.4756 49.0107 68.248 92.0342
c-1.81641 7.64941 15.5166 8.75781 17.0049 2.67188c10.9844 -44.8965 -16.7939 -92.4648 -62.3936 -102.885c-48.5625 -11.0957 -98.1553 17.4062 -109.42 66.4014c-21.0654 91.6367 72.0645 187.646 161.968 187.013c22.4619 -0.15918 45.4883 -7.16113 62.1484 -22.6826
c17.6465 -16.4375 28.6738 -42.0293 36.374 -64.4355c19.0938 -55.5645 21.0342 -115.296 28.5742 -173.066c3.50195 -26.8213 7.99805 -54.1895 18.1367 -79.4092c8.17578 -20.3359 20.2988 -42.1299 41.9434 -50.3076c49.2305 -18.6006 96.8496 31.5967 122.346 67.249
c61.8369 86.4727 75.4756 197.626 76.8525 301.147c0.015625 1.30566 0.594727 2.37891 1.48535 3.26953c-0.139648 11.7256 26.8115 10.4531 29.291 -0.189453c19.9873 -85.8164 29.6104 -173.632 38.1279 -261.248c7.13086 -73.3652 7.4873 -145.824 4.28125 -219.354
c-3.26367 -74.9062 -7.2207 -159.326 -51.0361 -223.331c-25.9131 -37.8545 -62.8154 -63.2236 -107.539 -73.7578c-58.2383 -13.7168 -133.832 0.413086 -175.914 45.5898c-42.7148 45.8574 -36.2803 116.829 -9.45117 168.937
c27.1582 52.7451 81.9785 101.594 144.48 100.04c55.2549 -1.37402 104.604 -54.7695 71.1279 -108.183c-27.2236 -43.4385 -99.4375 -72.7324 -140.875 -31.3633c-4.35449 4.34668 0.427734 8.55469 4.65137 10.1133c5.72363 2.11328 12.998 1.17676 17.7422 -2.65137z" />
    <glyph glyph-name="Y" unicode="&#xdd;" horiz-adv-x="673" 
d="M342.726 -64.7227c49.7441 -40.1514 133.909 31.2295 102.503 87.0312c-16.3311 29.0234 -50.6455 38.7148 -81.4775 29.9648c-31.209 -8.85645 -58.0283 -30.9795 -77.9678 -56.0068c-33.957 -42.6211 -52.542 -105.738 -31.9346 -158.245
c21.457 -54.6709 90.9023 -80.0654 145.718 -68.165c35.0879 7.61914 65.6748 25.916 87.0234 55.0527c20.1846 27.5479 32.5479 61.1436 39.9316 94.2432c7.19336 32.2363 10.7334 65.1406 12.7676 98.0703c2.33594 37.7432 4.87402 75.7334 5.03809 113.532
c0.381836 88.4814 -9.17578 176.53 -17.1211 264.64c-10.3086 -62.4971 -29.9111 -123.061 -65.1182 -176.483c-24.9521 -37.8643 -58.5654 -71.4873 -104.426 -81.0137c-45.875 -9.53223 -93.6182 6.2627 -118.008 47.459
c-11.8018 19.9346 -16.9688 43.6133 -21.2373 66.1406c-4.97461 26.2549 -7.61328 52.874 -9.11621 79.5312c-1.5918 28.2188 -2.80176 56.4424 -4.84082 84.6279c-1.83496 25.3643 -3.2041 52.1836 -10.4912 76.6953c-7.70215 25.9131 -30.6904 43.2559 -57.3076 45.7432
c-27.0947 2.53027 -54.4531 -8.93262 -76.9199 -23.2188c-37.7324 -23.998 -67.6865 -63.6133 -74.3291 -108.474c-6.92285 -46.7559 15.6045 -101.037 69.1592 -102.728c46.8643 -1.47754 78.4756 49.0107 68.248 92.0342
c-1.81641 7.64941 15.5166 8.75781 17.0049 2.67188c10.9844 -44.8965 -16.7939 -92.4648 -62.3936 -102.885c-48.5625 -11.0957 -98.1553 17.4062 -109.42 66.4014c-21.0654 91.6367 72.0645 187.646 161.968 187.013c22.4619 -0.15918 45.4883 -7.16113 62.1484 -22.6826
c17.6465 -16.4375 28.6738 -42.0293 36.374 -64.4355c19.0938 -55.5645 21.0342 -115.296 28.5742 -173.066c3.50195 -26.8213 7.99805 -54.1895 18.1367 -79.4092c8.17578 -20.3359 20.2988 -42.1299 41.9434 -50.3076c49.2305 -18.6006 96.8496 31.5967 122.346 67.249
c61.8369 86.4727 75.4756 197.626 76.8525 301.147c0.015625 1.30566 0.594727 2.37891 1.48535 3.26953c-0.139648 11.7256 26.8115 10.4531 29.291 -0.189453c19.9873 -85.8164 29.6104 -173.632 38.1279 -261.248c7.13086 -73.3652 7.4873 -145.824 4.28125 -219.354
c-3.26367 -74.9062 -7.2207 -159.326 -51.0361 -223.331c-25.9131 -37.8545 -62.8154 -63.2236 -107.539 -73.7578c-58.2383 -13.7168 -133.832 0.413086 -175.914 45.5898c-42.7148 45.8574 -36.2803 116.829 -9.45117 168.937
c27.1582 52.7451 81.9785 101.594 144.48 100.04c55.2549 -1.37402 104.604 -54.7695 71.1279 -108.183c-27.2236 -43.4385 -99.4375 -72.7324 -140.875 -31.3633c-4.35449 4.34668 0.427734 8.55469 4.65137 10.1133c5.72363 2.11328 12.998 1.17676 17.7422 -2.65137z" />
    <glyph glyph-name="Z" unicode="Z" horiz-adv-x="563" 
d="M147.917 404.277c-39.6455 -39.1094 -100.638 -72.3398 -153.97 -37.7676c-18.7119 12.1357 -31.9883 31.7539 -30.8828 54.6895c1.25293 25.9365 18.6514 48.5498 38.5273 63.7852c43.5498 33.3809 102.406 37.2373 155.197 37.7764
c69.0107 0.706055 137.866 -6.17383 206.874 -2.3252c69.4453 3.87402 138.251 16.7432 204.625 37.4141c4.69629 1.46289 20.8555 1.08887 17.5684 -7.69629c-12.1865 -32.5684 -19.0361 -67.6445 -28.333 -101.131c-9.08887 -32.7402 -15.6855 -66.1738 -21.8242 -99.5742
c-2.50781 -13.6436 -5.06836 -27.2842 -7.73828 -40.9004c11.0576 0.900391 22.1377 1.59082 33.2412 2.05371c11.875 0.493164 11.6621 -10.6328 0 -11.0654c-11.8496 -0.4375 -23.6689 -1.18359 -35.4629 -2.16797c-9.64551 -47.8945 -20.9844 -95.417 -37.2041 -141.591
c-25.2373 -71.8447 -61.8311 -141.02 -111.939 -198.458c46.6064 -14.1748 101.824 -35.2227 125.891 -80.8828c21.3457 -40.501 5.0957 -92.9932 -42.8242 -102.211c-9.8457 -1.89258 -18.209 8.37012 -5.2666 10.8877c26.624 5.18262 40.1943 34.8916 37.6787 59.7627
c-2.69531 26.6416 -20.6885 49.5996 -41.8975 64.7031c-24.0107 17.1025 -52.8613 29.251 -82.6006 37.6592c-18.3223 -19.8477 -38.3574 -38.1543 -60.21 -54.5107c-44.1191 -33.0283 -97.2412 -61.8994 -153.399 -64.3613
c-25.5645 -1.11816 -56.0908 3.16602 -75.5674 21.4424c-18.9092 17.7432 -14.9893 45.2832 -0.292969 64.5293c15.5996 20.4297 41.1768 31.8672 64.5898 40.7939c25.2148 9.61523 51.708 15.8779 78.5527 18.6357c36.4951 3.74707 73.4434 1.64453 109.491 -5.16211
c6.05469 6.83691 11.9199 13.8281 17.5723 20.9531c60.4375 76.1914 95.4297 169.339 118.82 262.805c3.2666 13.0537 6.28027 26.1631 9.1875 39.2959c-12.2295 -1.80371 -24.4287 -3.86133 -36.585 -6.23242c-9.15723 -1.78613 -16.9199 7.72266 -4.89844 10.127
c14.5977 2.91797 29.2607 5.39746 43.9697 7.49512c7.36621 33.8994 14.2891 67.8975 23.1475 101.465c6.7666 25.6348 14.8008 51.3408 24.8896 75.8799c8.2998 20.1846 19.5957 39.0361 29.1836 58.6562c-55.126 -15.1318 -111.535 -25.0811 -168.584 -29.4307
c-60.4404 -4.61035 -120.592 -1.01758 -181.042 1.13281c-52.6543 1.87207 -110.433 5.04785 -160.377 -14.9521c-42.1963 -16.8975 -90.9766 -72.5117 -47.4346 -114.263c42.8848 -41.1133 99.6758 -5.58691 134.102 27.8115
c4.49121 4.35938 21.3613 0.981445 15.2256 -5.07129zM253.026 -100.499c24.623 16.6172 47.1777 36.375 67.6201 58.0498c-6.45996 1.04297 -12.8643 1.93848 -19.1699 2.69531c-45.584 5.4707 -93.666 1.66211 -136.236 -16.4375
c-19.4229 -8.25684 -43.5195 -20.2832 -54.3828 -39.291c-10.9238 -19.1172 -2.7002 -42.1943 19.0781 -47.6855c42.1855 -10.6328 89.8721 20.2529 123.091 42.6689z" />
    <glyph glyph-name="bracketleft" unicode="[" horiz-adv-x="222" 
d="M145.277 -75.709c9.80273 4.01074 38.8145 -5.32129 21.583 -15.9463c-19.5088 -12.0293 -40.7969 -20.3311 -64.1064 -16.6094c-20.8604 3.32715 -36.6367 16.0449 -42.6816 36.4092c-11.4902 38.707 -9.24121 82.4414 -9.78809 122.396
c-0.602539 43.9648 -0.349609 87.998 1.70215 131.925c1.03223 22.1074 2.89746 44.0205 6.13672 65.9229c2.72266 18.4033 4.20312 40.8398 13.2188 57.5195c8.125 15.0332 23.6787 22.6367 40.1768 24.6689c13.6738 1.68262 39.4229 0.632812 48.9824 -11.1309
c3.71973 -4.57715 -1.80371 -7.83398 -6.03711 -8.45898c-17.1631 -2.52734 -39.4551 9.94727 -49.1357 -10.4199c-8.15039 -17.1484 -7.44238 -40.8604 -8.6748 -59.4785c-2.81348 -42.5254 -3.30176 -85.1621 -2.89453 -127.766
c0.417969 -43.6963 0.600586 -87.626 3.82715 -131.227c1.32812 -17.9248 1.75586 -39.2383 9.93359 -55.6523c8.77539 -17.6133 23.3477 -8.05078 37.7578 -2.15234z" />
    <glyph glyph-name="backslash" unicode="\" horiz-adv-x="256" 
d="M204.735 -44.5244c8.09473 -21.3818 -43.8447 -25.9795 -50.7471 -7.97363c-45.4629 118.62 -62.5752 245.841 -103.506 366.005c-4.71875 13.8564 26.627 15.5264 31.6826 4.97754c55.3594 -115.487 77.373 -243.614 122.57 -363.009z" />
    <glyph glyph-name="bracketright" unicode="]" horiz-adv-x="222" 
d="M170.947 165.319c1.5127 -44.0986 1.57812 -88.2383 0.717773 -132.35c-0.424805 -21.7002 -0.766602 -43.4736 -2.81348 -65.0928c-1.63965 -17.3281 -3.02148 -37.9453 -12.4873 -53.1221c-22.5225 -36.1055 -70.9434 -24.9268 -100.981 -6.4043
c-17.2871 10.6602 11.7363 19.9746 21.584 15.9463c7.05957 -2.88965 18.9092 -9.9873 27.0059 -8.56543c5.91602 1.04004 9.25879 7.34863 11.4854 12.4014c7.53516 17.0947 8.08691 37.9678 9.36523 56.3457c2.98047 42.8311 3.24902 85.9326 3.66113 128.85
c0.415039 43.4053 -0.0332031 86.8789 -3.05469 130.198c-1.24023 17.75 -0.212891 42.9219 -9.31738 58.8027c-10.3945 18.127 -31.9072 6.23926 -48.334 8.66113c-4.2334 0.625 -9.75684 3.88184 -6.03711 8.45898c11.0781 13.6357 41.4326 13.3525 56.7285 9.73633
c20.3896 -4.82031 32.7451 -18.2266 37.7607 -38.2568c10.2432 -40.9111 13.2744 -83.6133 14.7168 -125.609z" />
    <glyph glyph-name="asciicircum" unicode="^" horiz-adv-x="217" 
d="M154.01 267.913c8.52441 -22.2422 13.4004 -46.0947 12.793 -69.9307c-0.412109 -16.1846 -40.2402 -16.1035 -41.1592 0c-0.928711 16.293 -2.61133 32.6943 -6.89746 48.4785c-1.77148 6.52344 -3.93262 12.9629 -6.44531 19.2432
c-1.73535 -2.23926 -3.3877 -4.41504 -4.52637 -6.39355c-3.64648 -6.33301 -7.08496 -12.8184 -10.334 -19.3643c-6.56836 -13.2334 -11.3359 -27.4365 -18.2764 -40.4502c-4.27344 -8.00879 -29.0732 -9.54492 -29.1621 2.24902
c-0.164062 21.6855 9.54785 44.7803 19.6133 63.5635c9.67871 18.0566 20.5361 35.6074 43.5674 35.6074c22.0625 0 33.5625 -14.0459 40.8271 -33.0029z" />
    <glyph glyph-name="underscore" unicode="_" horiz-adv-x="301" 
d="M231.61 -60.0762c6.14355 0.179688 19.3916 -2.6084 19.3916 -11.0576c0 -8.7832 -12.9912 -10.7617 -19.3926 -11.0527c-31.0576 -1.41406 -62.1807 -2.4209 -93.2637 -3.0918c-15.9619 -0.34375 -31.9287 -0.586914 -47.8926 -0.553711
c-12.3203 0.0273438 -26.4805 -2.09766 -37.6016 4.11133c-4.21777 2.35547 -3.36719 5.96875 0.000976562 8.38281c10.5088 7.53027 28.2344 5.65039 40.626 6.60156c14.9395 1.14648 29.9062 1.99414 44.8682 2.78906c31.0547 1.64941 62.1758 2.96777 93.2637 3.87109z
" />
    <glyph glyph-name="grave" unicode="`" horiz-adv-x="141" 
d="M91.1709 237.228c2.05957 -12.4287 -32.4795 -13.917 -34.4355 -0.00292969c-1.94043 13.8203 -3.79004 27.6465 -4.94434 41.5586c-1.02441 12.3457 -4.41211 27.2979 2.13379 38.4463c3.2334 5.50879 15.6777 6.54102 19.7266 1.46973
c8.41602 -10.541 8.58301 -24.4658 10.6172 -37.4639c2.29785 -14.6709 4.47363 -29.3594 6.90234 -44.0078z" />
    <glyph glyph-name="a" unicode="a" horiz-adv-x="220" 
d="M221.958 81.7666c2.56836 6.10352 20.167 4.5625 17.3857 -2.73535c-10.0605 -26.3633 -19.5625 -56.5127 -39.3799 -77.4307c-15.7969 -16.6748 -41.0498 -22.9453 -60.4648 -8.24609c-21.834 16.5312 -28.6836 47.3184 -32.2188 73.8291
c-3.66602 -16.4443 -8.25879 -32.5498 -14.4326 -47.874c-12.3105 -30.5469 -45.291 -43.8037 -74.2588 -25.1572c-30.377 19.5547 -36.5 65.1387 -30.5439 97.8135c6.42969 35.2783 29.3848 72.0371 67.9951 76.6748c20.4199 2.4541 35.1006 -7.48047 46.2314 -21.7822
c0.771484 4.9668 1.52832 9.93359 2.28711 14.9004c0 0.00292969 0.00292969 0.00585938 0.00292969 0.00878906c0.462891 3.9502 1.02246 7.87207 1.69336 11.749c3.23633 18.7041 46.6494 19.5039 48.6689 0c2.52734 -24.4277 0.0654297 -49.3975 0.209961 -73.9473
c0.139648 -23.8281 0.630859 -48.1807 4.3457 -71.7783c1.08301 -6.87793 2.74316 -21.0781 8.37598 -26.3789c4.85352 -4.56445 8.56348 0.319336 13.0449 4.60059c4.54492 4.34473 8.2793 9.43066 11.665 14.7041c12.1758 18.9727 20.6855 40.3545 29.3926 61.0498z
M80.9336 43.6543c7.39844 24.9238 12.5557 50.3682 16.9229 75.9648c-5.21289 10.7266 -11.458 20.959 -20.2812 28.7959c-19.1543 17.0117 -29.1445 -6.40137 -36.3584 -21.6592c-14.1299 -29.8809 -19.2461 -63.3672 -10.1826 -95.5508
c2.19922 -7.81152 4.9043 -15.8457 9.4082 -22.6924c5.22754 -7.94238 10.2051 -13.7979 19.2588 -6.80371c12.4062 9.58203 16.9912 27.6611 21.2324 41.9453z" />
    <glyph glyph-name="a" unicode="&#xe5;" horiz-adv-x="220" 
d="M221.958 81.7666c2.56836 6.10352 20.167 4.5625 17.3857 -2.73535c-10.0605 -26.3633 -19.5625 -56.5127 -39.3799 -77.4307c-15.7969 -16.6748 -41.0498 -22.9453 -60.4648 -8.24609c-21.834 16.5312 -28.6836 47.3184 -32.2188 73.8291
c-3.66602 -16.4443 -8.25879 -32.5498 -14.4326 -47.874c-12.3105 -30.5469 -45.291 -43.8037 -74.2588 -25.1572c-30.377 19.5547 -36.5 65.1387 -30.5439 97.8135c6.42969 35.2783 29.3848 72.0371 67.9951 76.6748c20.4199 2.4541 35.1006 -7.48047 46.2314 -21.7822
c0.771484 4.9668 1.52832 9.93359 2.28711 14.9004c0 0.00292969 0.00292969 0.00585938 0.00292969 0.00878906c0.462891 3.9502 1.02246 7.87207 1.69336 11.749c3.23633 18.7041 46.6494 19.5039 48.6689 0c2.52734 -24.4277 0.0654297 -49.3975 0.209961 -73.9473
c0.139648 -23.8281 0.630859 -48.1807 4.3457 -71.7783c1.08301 -6.87793 2.74316 -21.0781 8.37598 -26.3789c4.85352 -4.56445 8.56348 0.319336 13.0449 4.60059c4.54492 4.34473 8.2793 9.43066 11.665 14.7041c12.1758 18.9727 20.6855 40.3545 29.3926 61.0498z
M80.9336 43.6543c7.39844 24.9238 12.5557 50.3682 16.9229 75.9648c-5.21289 10.7266 -11.458 20.959 -20.2812 28.7959c-19.1543 17.0117 -29.1445 -6.40137 -36.3584 -21.6592c-14.1299 -29.8809 -19.2461 -63.3672 -10.1826 -95.5508
c2.19922 -7.81152 4.9043 -15.8457 9.4082 -22.6924c5.22754 -7.94238 10.2051 -13.7979 19.2588 -6.80371c12.4062 9.58203 16.9912 27.6611 21.2324 41.9453z" />
    <glyph glyph-name="a" unicode="&#xe4;" horiz-adv-x="220" 
d="M221.958 81.7666c2.56836 6.10352 20.167 4.5625 17.3857 -2.73535c-10.0605 -26.3633 -19.5625 -56.5127 -39.3799 -77.4307c-15.7969 -16.6748 -41.0498 -22.9453 -60.4648 -8.24609c-21.834 16.5312 -28.6836 47.3184 -32.2188 73.8291
c-3.66602 -16.4443 -8.25879 -32.5498 -14.4326 -47.874c-12.3105 -30.5469 -45.291 -43.8037 -74.2588 -25.1572c-30.377 19.5547 -36.5 65.1387 -30.5439 97.8135c6.42969 35.2783 29.3848 72.0371 67.9951 76.6748c20.4199 2.4541 35.1006 -7.48047 46.2314 -21.7822
c0.771484 4.9668 1.52832 9.93359 2.28711 14.9004c0 0.00292969 0.00292969 0.00585938 0.00292969 0.00878906c0.462891 3.9502 1.02246 7.87207 1.69336 11.749c3.23633 18.7041 46.6494 19.5039 48.6689 0c2.52734 -24.4277 0.0654297 -49.3975 0.209961 -73.9473
c0.139648 -23.8281 0.630859 -48.1807 4.3457 -71.7783c1.08301 -6.87793 2.74316 -21.0781 8.37598 -26.3789c4.85352 -4.56445 8.56348 0.319336 13.0449 4.60059c4.54492 4.34473 8.2793 9.43066 11.665 14.7041c12.1758 18.9727 20.6855 40.3545 29.3926 61.0498z
M80.9336 43.6543c7.39844 24.9238 12.5557 50.3682 16.9229 75.9648c-5.21289 10.7266 -11.458 20.959 -20.2812 28.7959c-19.1543 17.0117 -29.1445 -6.40137 -36.3584 -21.6592c-14.1299 -29.8809 -19.2461 -63.3672 -10.1826 -95.5508
c2.19922 -7.81152 4.9043 -15.8457 9.4082 -22.6924c5.22754 -7.94238 10.2051 -13.7979 19.2588 -6.80371c12.4062 9.58203 16.9912 27.6611 21.2324 41.9453z" />
    <glyph glyph-name="a" unicode="&#xe3;" horiz-adv-x="220" 
d="M221.958 81.7666c2.56836 6.10352 20.167 4.5625 17.3857 -2.73535c-10.0605 -26.3633 -19.5625 -56.5127 -39.3799 -77.4307c-15.7969 -16.6748 -41.0498 -22.9453 -60.4648 -8.24609c-21.834 16.5312 -28.6836 47.3184 -32.2188 73.8291
c-3.66602 -16.4443 -8.25879 -32.5498 -14.4326 -47.874c-12.3105 -30.5469 -45.291 -43.8037 -74.2588 -25.1572c-30.377 19.5547 -36.5 65.1387 -30.5439 97.8135c6.42969 35.2783 29.3848 72.0371 67.9951 76.6748c20.4199 2.4541 35.1006 -7.48047 46.2314 -21.7822
c0.771484 4.9668 1.52832 9.93359 2.28711 14.9004c0 0.00292969 0.00292969 0.00585938 0.00292969 0.00878906c0.462891 3.9502 1.02246 7.87207 1.69336 11.749c3.23633 18.7041 46.6494 19.5039 48.6689 0c2.52734 -24.4277 0.0654297 -49.3975 0.209961 -73.9473
c0.139648 -23.8281 0.630859 -48.1807 4.3457 -71.7783c1.08301 -6.87793 2.74316 -21.0781 8.37598 -26.3789c4.85352 -4.56445 8.56348 0.319336 13.0449 4.60059c4.54492 4.34473 8.2793 9.43066 11.665 14.7041c12.1758 18.9727 20.6855 40.3545 29.3926 61.0498z
M80.9336 43.6543c7.39844 24.9238 12.5557 50.3682 16.9229 75.9648c-5.21289 10.7266 -11.458 20.959 -20.2812 28.7959c-19.1543 17.0117 -29.1445 -6.40137 -36.3584 -21.6592c-14.1299 -29.8809 -19.2461 -63.3672 -10.1826 -95.5508
c2.19922 -7.81152 4.9043 -15.8457 9.4082 -22.6924c5.22754 -7.94238 10.2051 -13.7979 19.2588 -6.80371c12.4062 9.58203 16.9912 27.6611 21.2324 41.9453z" />
    <glyph glyph-name="a" unicode="&#xe2;" horiz-adv-x="220" 
d="M221.958 81.7666c2.56836 6.10352 20.167 4.5625 17.3857 -2.73535c-10.0605 -26.3633 -19.5625 -56.5127 -39.3799 -77.4307c-15.7969 -16.6748 -41.0498 -22.9453 -60.4648 -8.24609c-21.834 16.5312 -28.6836 47.3184 -32.2188 73.8291
c-3.66602 -16.4443 -8.25879 -32.5498 -14.4326 -47.874c-12.3105 -30.5469 -45.291 -43.8037 -74.2588 -25.1572c-30.377 19.5547 -36.5 65.1387 -30.5439 97.8135c6.42969 35.2783 29.3848 72.0371 67.9951 76.6748c20.4199 2.4541 35.1006 -7.48047 46.2314 -21.7822
c0.771484 4.9668 1.52832 9.93359 2.28711 14.9004c0 0.00292969 0.00292969 0.00585938 0.00292969 0.00878906c0.462891 3.9502 1.02246 7.87207 1.69336 11.749c3.23633 18.7041 46.6494 19.5039 48.6689 0c2.52734 -24.4277 0.0654297 -49.3975 0.209961 -73.9473
c0.139648 -23.8281 0.630859 -48.1807 4.3457 -71.7783c1.08301 -6.87793 2.74316 -21.0781 8.37598 -26.3789c4.85352 -4.56445 8.56348 0.319336 13.0449 4.60059c4.54492 4.34473 8.2793 9.43066 11.665 14.7041c12.1758 18.9727 20.6855 40.3545 29.3926 61.0498z
M80.9336 43.6543c7.39844 24.9238 12.5557 50.3682 16.9229 75.9648c-5.21289 10.7266 -11.458 20.959 -20.2812 28.7959c-19.1543 17.0117 -29.1445 -6.40137 -36.3584 -21.6592c-14.1299 -29.8809 -19.2461 -63.3672 -10.1826 -95.5508
c2.19922 -7.81152 4.9043 -15.8457 9.4082 -22.6924c5.22754 -7.94238 10.2051 -13.7979 19.2588 -6.80371c12.4062 9.58203 16.9912 27.6611 21.2324 41.9453z" />
    <glyph glyph-name="a" unicode="&#xe1;" horiz-adv-x="220" 
d="M221.958 81.7666c2.56836 6.10352 20.167 4.5625 17.3857 -2.73535c-10.0605 -26.3633 -19.5625 -56.5127 -39.3799 -77.4307c-15.7969 -16.6748 -41.0498 -22.9453 -60.4648 -8.24609c-21.834 16.5312 -28.6836 47.3184 -32.2188 73.8291
c-3.66602 -16.4443 -8.25879 -32.5498 -14.4326 -47.874c-12.3105 -30.5469 -45.291 -43.8037 -74.2588 -25.1572c-30.377 19.5547 -36.5 65.1387 -30.5439 97.8135c6.42969 35.2783 29.3848 72.0371 67.9951 76.6748c20.4199 2.4541 35.1006 -7.48047 46.2314 -21.7822
c0.771484 4.9668 1.52832 9.93359 2.28711 14.9004c0 0.00292969 0.00292969 0.00585938 0.00292969 0.00878906c0.462891 3.9502 1.02246 7.87207 1.69336 11.749c3.23633 18.7041 46.6494 19.5039 48.6689 0c2.52734 -24.4277 0.0654297 -49.3975 0.209961 -73.9473
c0.139648 -23.8281 0.630859 -48.1807 4.3457 -71.7783c1.08301 -6.87793 2.74316 -21.0781 8.37598 -26.3789c4.85352 -4.56445 8.56348 0.319336 13.0449 4.60059c4.54492 4.34473 8.2793 9.43066 11.665 14.7041c12.1758 18.9727 20.6855 40.3545 29.3926 61.0498z
M80.9336 43.6543c7.39844 24.9238 12.5557 50.3682 16.9229 75.9648c-5.21289 10.7266 -11.458 20.959 -20.2812 28.7959c-19.1543 17.0117 -29.1445 -6.40137 -36.3584 -21.6592c-14.1299 -29.8809 -19.2461 -63.3672 -10.1826 -95.5508
c2.19922 -7.81152 4.9043 -15.8457 9.4082 -22.6924c5.22754 -7.94238 10.2051 -13.7979 19.2588 -6.80371c12.4062 9.58203 16.9912 27.6611 21.2324 41.9453z" />
    <glyph glyph-name="b" unicode="b" horiz-adv-x="240" 
d="M244.046 76.1289c4.67383 4.84082 22.6562 1.24805 16.249 -5.41211c-19.8555 -20.6553 -43.2383 -34.2734 -68.5244 -43.8682c-7.89453 -48.8584 -33.4434 -101.206 -83.208 -109.551c-23.7832 -3.98828 -59.9775 2.71484 -68.7178 29.3213
c-8.51758 25.9336 13.7871 49.9492 35.1689 60.627c22.8418 11.4072 48.6562 13.0977 73.4258 18.2119c3.63086 14.5244 5.84277 29.3223 6.9082 44.5195c1.68555 24.0303 1.24023 51.4463 -6.57617 74.4189c-3.75 11.0195 -11.0957 23.9678 -23.0088 27.8516
c-13.0967 4.27148 -25.0049 -8.43359 -32.3906 -17.6592c-15.873 -19.8281 -24.7441 -45.585 -32.2217 -69.5273c-7.80078 -24.9746 -13.1699 -50.582 -17.5322 -76.3564c0.15918 -5.11133 0.27832 -10.2256 0.308594 -15.3398
c0.0761719 -12.7227 -30.4805 -13.3477 -34.0156 -2.62402c-21.5918 65.5107 -22.8037 139.342 -21.5889 207.771c1.02441 57.7246 5.32617 117.941 27.877 171.779c9.87598 23.5752 23.7422 48.8867 46.3076 62.5205c17.7129 10.7061 45.208 14.1748 59.251 -4.25586
c14.4004 -18.8994 12.4141 -48.9932 9.73438 -71.1006c-3.45117 -28.4941 -12.6543 -56.0879 -23.8662 -82.3936c-18.8457 -44.2129 -43.9365 -85.3232 -72.7012 -123.706c0.427734 -26.3154 2.58398 -52.5625 4.68457 -78.7949
c3.81836 14.0186 8.25195 27.8643 13.54 41.4248c10.2148 26.1943 26.1963 60.3789 56.1426 68.1621c25.0225 6.5 43.2939 -10.0381 57.1025 -28.7246c19.124 -25.8809 27.4385 -58.0645 28.0791 -89.9219c0.149414 -7.3125 -0.164062 -15.0752 -0.938477 -23.0508
c18.7295 8.7959 35.8799 20.5166 50.5107 35.6787zM43.7246 305.692c-6.2373 -41.3535 -8.6416 -83.4297 -8.90723 -125.335c21.791 31.9961 40.6904 65.9102 55.1895 101.896c9.71875 24.1221 17.6592 49.2559 20.4805 75.2021
c1.42676 13.1348 1.75098 26.5332 -0.124023 39.6377c-1.21973 8.53516 -3.81055 22.5508 -12.0469 27.4424c-13.7803 8.18555 -31.6777 -36.1084 -35.668 -46.1084c-9.29102 -23.2871 -15.1895 -47.9805 -18.9238 -72.7354zM140.228 -0.638672
c1.78418 4.6582 3.35742 9.34473 4.80957 14.0508c-6.57617 -1.41406 -13.2061 -2.70215 -19.876 -3.88672c-23.3047 -4.13672 -52.7178 -11.4111 -62.3379 -36.1533c-5.11426 -13.1523 -2.41211 -30.4951 12.9424 -35.0146
c8.57812 -2.52539 19.4229 0.543945 26.8115 5.13184c19.1172 11.8721 29.9121 35.6777 37.6504 55.8721z" />
    <glyph glyph-name="c" unicode="c" 
d="M153.512 84.5928c3.1709 5.7793 20.4502 3.74414 16.999 -2.67285c-18.3623 -34.1846 -39.9307 -69.4346 -68.6982 -95.9043c-26.7529 -24.6182 -65.1963 -32.8877 -91.2236 -1.69824c-28.1201 33.6992 -27.3105 88.0459 -17.042 128.235
c5.30078 20.7412 13.7441 41.46 30.2695 55.8223c13.6592 11.8672 32.6367 22.8037 51.4326 18.874c40.9639 -8.5625 32.9277 -71.4492 29.7852 -100.991c-0.751953 -7.04492 -18.29 -6.625 -17.6348 -0.000976562c2.20117 22.2822 4.58496 45.7314 -2.23438 67.4971
c-2.42676 7.75 -8.76562 24.1875 -19.3379 16.9756c-6.34863 -4.33203 -10.1924 -15.6426 -13.3047 -22.3301c-17.4014 -37.4014 -25.6582 -77.1982 -19.0918 -118.359c2.41113 -15.1162 6.18359 -46.8945 23.9395 -52.8564
c13.6338 -4.5752 32.3311 17.5557 40.7217 26.7207c22.0215 24.0615 39.7773 52.1641 55.4199 80.6885z" />
    <glyph glyph-name="d" unicode="d" horiz-adv-x="248" 
d="M249.304 84.1016c1.54883 6.13867 18.8154 4.92871 17.0039 -2.67285c-7.83691 -32.8613 -17.1484 -69.7666 -45.7646 -91.0137c-29.3545 -21.7969 -70.2246 -13.1182 -90.4395 16.6943c-11.8018 17.4033 -18.4238 38.8906 -22.6719 60.7354
c-3.69141 -16.6729 -8.32422 -33.0059 -14.582 -48.5342c-12.3105 -30.5469 -45.291 -43.8037 -74.2588 -25.1572c-30.377 19.5547 -36.5 65.1387 -30.5439 97.8135c6.42969 35.2783 29.3848 72.0371 67.9951 76.6748c17.9453 2.15625 31.4551 -5.25977 42.0244 -16.793
c-1.18945 25.3691 -1.01758 50.8828 -0.144531 76.1055c1.35352 39.2129 5.83496 78.3828 18.9502 115.562c10.6885 30.3008 29.7393 65.8799 63.6455 73.3896c71.2119 15.7715 48.9014 -100.326 39.6201 -136.561c-15.0098 -58.5928 -42.3779 -115.07 -72.7041 -167.504
c2.38379 -29.0303 7.0957 -57.6895 16.0098 -84.5869c3.66895 -11.0732 9.52441 -29.208 19.9473 -35.9336c11.8369 -7.6416 27.5635 8.09766 34.8105 16.7363c17.6387 21.0244 24.5391 49.0303 31.1025 75.0449zM80.9385 43.6562
c7.39844 24.9238 12.5576 50.3682 16.9229 75.9648c-5.21289 10.7266 -11.458 20.959 -20.2812 28.7959c-19.1543 17.0117 -29.1445 -6.40137 -36.3584 -21.6592c-14.1299 -29.8809 -19.2461 -63.3672 -10.1826 -95.5508c2.19922 -7.81152 4.9043 -15.8457 9.4082 -22.6924
c5.22754 -7.94238 10.2051 -13.7979 19.2588 -6.80371c12.4062 9.58203 16.9912 27.6611 21.2324 41.9453zM145.781 213.697c-0.460938 -20.4023 -0.775391 -41.4639 -0.287109 -62.6484c19.623 37.6543 38.2998 75.6094 50.7969 116.634
c7.97852 26.1895 13.3301 53.2012 13.6338 80.6504c0.146484 13.2266 -0.0664062 27.71 -4.62109 40.2559c-1.27051 3.49707 -5.21582 14.4277 -9.9248 14.3564c-3.10254 -0.0458984 -8.29199 -7.66016 -10.501 -10.4287
c-17.9199 -22.4541 -24.2588 -54.7871 -29.5215 -82.2539c-6.10059 -31.8369 -8.84375 -64.1875 -9.5752 -96.5654z" />
    <glyph glyph-name="e" unicode="e" 
d="M153.314 84.5928c3.16797 5.78223 20.4512 3.74512 17.0049 -2.67188c-20.999 -39.0713 -47.1982 -84.248 -85.2822 -108.916c-16.1387 -10.4531 -40.6348 -12.1309 -57.4795 -2.03223c-22.3887 13.4209 -32.3936 39.0605 -37.3301 63.4326
c-9.26855 45.7764 0.604492 112.952 40.2451 142.995c17.3857 13.1777 46.082 19.9287 63.0762 2.33789c10.5342 -10.9062 13.4268 -27.7988 9.23438 -41.9414c-9.03125 -30.4629 -39.0586 -40.2305 -66.8574 -33.9629c-8.07715 -33.3701 -6.72559 -69.4053 2.3584 -102.343
c2.32324 -8.42871 6.10352 -16.1436 12.8848 -21.8145c7.30762 -6.1084 14.2461 -3.26465 21.8066 1.77344c12.3281 8.21094 22.7402 19.4785 32.2061 30.7637c18.6182 22.1992 34.2256 47.0068 48.1328 72.3789zM38.7715 114.337l-0.0380859 -0.137695
c13.1631 -3.99023 26.1211 -3.13477 36.2529 8.36035c7.10547 8.06445 11.458 19.54 9.06445 30.292c-1.48828 6.67773 -6.34375 14.7344 -12.3613 18.376c-1.25293 -0.839844 -2.30566 -1.97363 -3.38086 -3.0166c-2.66406 -2.57812 -5.01465 -5.50586 -7.25684 -8.45117
c-10.2578 -13.4639 -17.3154 -29.3193 -22.2803 -45.4229z" />
    <glyph glyph-name="e" unicode="&#xeb;" 
d="M153.314 84.5928c3.16797 5.78223 20.4512 3.74512 17.0049 -2.67188c-20.999 -39.0713 -47.1982 -84.248 -85.2822 -108.916c-16.1387 -10.4531 -40.6348 -12.1309 -57.4795 -2.03223c-22.3887 13.4209 -32.3936 39.0605 -37.3301 63.4326
c-9.26855 45.7764 0.604492 112.952 40.2451 142.995c17.3857 13.1777 46.082 19.9287 63.0762 2.33789c10.5342 -10.9062 13.4268 -27.7988 9.23438 -41.9414c-9.03125 -30.4629 -39.0586 -40.2305 -66.8574 -33.9629c-8.07715 -33.3701 -6.72559 -69.4053 2.3584 -102.343
c2.32324 -8.42871 6.10352 -16.1436 12.8848 -21.8145c7.30762 -6.1084 14.2461 -3.26465 21.8066 1.77344c12.3281 8.21094 22.7402 19.4785 32.2061 30.7637c18.6182 22.1992 34.2256 47.0068 48.1328 72.3789zM38.7715 114.337l-0.0380859 -0.137695
c13.1631 -3.99023 26.1211 -3.13477 36.2529 8.36035c7.10547 8.06445 11.458 19.54 9.06445 30.292c-1.48828 6.67773 -6.34375 14.7344 -12.3613 18.376c-1.25293 -0.839844 -2.30566 -1.97363 -3.38086 -3.0166c-2.66406 -2.57812 -5.01465 -5.50586 -7.25684 -8.45117
c-10.2578 -13.4639 -17.3154 -29.3193 -22.2803 -45.4229z" />
    <glyph glyph-name="e" unicode="&#xea;" 
d="M153.314 84.5928c3.16797 5.78223 20.4512 3.74512 17.0049 -2.67188c-20.999 -39.0713 -47.1982 -84.248 -85.2822 -108.916c-16.1387 -10.4531 -40.6348 -12.1309 -57.4795 -2.03223c-22.3887 13.4209 -32.3936 39.0605 -37.3301 63.4326
c-9.26855 45.7764 0.604492 112.952 40.2451 142.995c17.3857 13.1777 46.082 19.9287 63.0762 2.33789c10.5342 -10.9062 13.4268 -27.7988 9.23438 -41.9414c-9.03125 -30.4629 -39.0586 -40.2305 -66.8574 -33.9629c-8.07715 -33.3701 -6.72559 -69.4053 2.3584 -102.343
c2.32324 -8.42871 6.10352 -16.1436 12.8848 -21.8145c7.30762 -6.1084 14.2461 -3.26465 21.8066 1.77344c12.3281 8.21094 22.7402 19.4785 32.2061 30.7637c18.6182 22.1992 34.2256 47.0068 48.1328 72.3789zM38.7715 114.337l-0.0380859 -0.137695
c13.1631 -3.99023 26.1211 -3.13477 36.2529 8.36035c7.10547 8.06445 11.458 19.54 9.06445 30.292c-1.48828 6.67773 -6.34375 14.7344 -12.3613 18.376c-1.25293 -0.839844 -2.30566 -1.97363 -3.38086 -3.0166c-2.66406 -2.57812 -5.01465 -5.50586 -7.25684 -8.45117
c-10.2578 -13.4639 -17.3154 -29.3193 -22.2803 -45.4229z" />
    </font>
</defs>
</svg>
