<?xml version="1.0" standalone="no"?>
<!DOCTYPE svg PUBLIC "-//W3C//DTD SVG 1.1//EN" "http://www.w3.org/Graphics/SVG/1.1/DTD/svg11.dtd" >
<svg xmlns="http://www.w3.org/2000/svg" xmlns:xlink="http://www.w3.org/1999/xlink" version="1.1">
<metadata>
Created by FontForge 20170812 at Tue May 24 08:07:00 2022
 By www-data
</metadata>
<defs>
<font id="HawaiiRegular" horiz-adv-x="0" >
  <font-face 
    font-family="Hawaii"
    font-weight="400"
    font-stretch="normal"
    units-per-em="1000"
    panose-1="0 0 0 0 0 0 0 0 0 0"
    ascent="800"
    descent="-200"
    x-height="198.918"
    cap-height="715.162"
    bbox="-208.483 -498.998 1601.62 929.034"
    underline-thickness="50"
    underline-position="-100"
    unicode-range="U+000A-20AC"
  />
<missing-glyph horiz-adv-x="527" 
d="M50 700h427v-700h-427v700zM78 680l185 -309l186 309h-371zM251 350l-180 300v-601zM264 329l-185 -308h370zM276 350l181 -303v605z" />
    <glyph glyph-name=".notdef" horiz-adv-x="527" 
d="M50 700h427v-700h-427v700zM78 680l185 -309l186 309h-371zM251 350l-180 300v-601zM264 329l-185 -308h370zM276 350l181 -303v605z" />
    <glyph glyph-name=".null" 
 />
    <glyph glyph-name=".null" 
 />
    <glyph glyph-name="LF" unicode="&#xa;" 
 />
    <glyph glyph-name="controlCR" unicode="&#xd;" 
 />
    <glyph glyph-name="space" unicode=" " horiz-adv-x="444" 
 />
    <glyph glyph-name="exclam" unicode="!" horiz-adv-x="162" 
d="M110.858 337.53c1.63477 -48.2139 1.44043 -96.6719 -0.0878906 -144.892c-1.45996 -45.9512 1.60938 -97.1338 -13.2578 -141.207c-3.23145 -9.57324 -28.3086 -9.55469 -31.5967 -0.000976562c-15.1416 43.998 -12.3916 95.2432 -14.1484 141.207
c-1.84375 48.208 -2.34961 96.666 -1.02148 144.893c0.650391 23.627 59.3125 23.5176 60.1123 0zM107.995 -0.682617c2.00977 -12.9766 0.131836 -26.7461 1.41309 -39.916c1.04395 -10.7324 -17.2393 -13.6143 -24.1963 -13.792
c-8.75684 -0.224609 -23.168 3.20996 -24.1963 13.792c-1.36621 14.0576 -2.19727 29.9619 3.28809 43.2881c5.87891 14.2861 41.207 12.6611 43.6914 -3.37207z" />
    <glyph glyph-name="quotedbl" unicode="&#x22;" horiz-adv-x="223" 
d="M79.6094 395.383c7.63867 0 26.7725 -3.39551 25.6602 -14.6211c-1.12793 -11.3789 -2.60938 -22.6865 -3.87793 -34.0439c-1.09082 -9.76074 -0.0722656 -22.3809 -4.88184 -31.0195c-5.77246 -10.3701 -24.293 -10.3701 -33.2998 -5.01367
c-12.3447 7.33789 -13.1758 17.8574 -13.21 31.4648c-0.03125 13.1914 1.06543 25.7334 3.94727 38.6064c2.53418 11.3232 15.2139 14.627 25.6621 14.627zM146.801 395.385c7.63867 0 26.7725 -3.39551 25.6602 -14.6211
c-1.12793 -11.3789 -2.60938 -22.6865 -3.87793 -34.0439c-1.09082 -9.76074 -0.0722656 -22.3809 -4.88184 -31.0195c-5.77246 -10.3701 -24.293 -10.3701 -33.2998 -5.01367c-12.3447 7.33789 -13.1758 17.8574 -13.21 31.4648
c-0.03125 13.1914 1.06543 25.7334 3.94727 38.6064c2.53418 11.3232 15.2139 14.627 25.6621 14.627z" />
    <glyph glyph-name="quotedbl" unicode="&#x201d;" horiz-adv-x="223" 
d="M79.6094 395.383c7.63867 0 26.7725 -3.39551 25.6602 -14.6211c-1.12793 -11.3789 -2.60938 -22.6865 -3.87793 -34.0439c-1.09082 -9.76074 -0.0722656 -22.3809 -4.88184 -31.0195c-5.77246 -10.3701 -24.293 -10.3701 -33.2998 -5.01367
c-12.3447 7.33789 -13.1758 17.8574 -13.21 31.4648c-0.03125 13.1914 1.06543 25.7334 3.94727 38.6064c2.53418 11.3232 15.2139 14.627 25.6621 14.627zM146.801 395.385c7.63867 0 26.7725 -3.39551 25.6602 -14.6211
c-1.12793 -11.3789 -2.60938 -22.6865 -3.87793 -34.0439c-1.09082 -9.76074 -0.0722656 -22.3809 -4.88184 -31.0195c-5.77246 -10.3701 -24.293 -10.3701 -33.2998 -5.01367c-12.3447 7.33789 -13.1758 17.8574 -13.21 31.4648
c-0.03125 13.1914 1.06543 25.7334 3.94727 38.6064c2.53418 11.3232 15.2139 14.627 25.6621 14.627z" />
    <glyph glyph-name="quotedbl" unicode="&#x201c;" horiz-adv-x="223" 
d="M79.6094 395.383c7.63867 0 26.7725 -3.39551 25.6602 -14.6211c-1.12793 -11.3789 -2.60938 -22.6865 -3.87793 -34.0439c-1.09082 -9.76074 -0.0722656 -22.3809 -4.88184 -31.0195c-5.77246 -10.3701 -24.293 -10.3701 -33.2998 -5.01367
c-12.3447 7.33789 -13.1758 17.8574 -13.21 31.4648c-0.03125 13.1914 1.06543 25.7334 3.94727 38.6064c2.53418 11.3232 15.2139 14.627 25.6621 14.627zM146.801 395.385c7.63867 0 26.7725 -3.39551 25.6602 -14.6211
c-1.12793 -11.3789 -2.60938 -22.6865 -3.87793 -34.0439c-1.09082 -9.76074 -0.0722656 -22.3809 -4.88184 -31.0195c-5.77246 -10.3701 -24.293 -10.3701 -33.2998 -5.01367c-12.3447 7.33789 -13.1758 17.8574 -13.21 31.4648
c-0.03125 13.1914 1.06543 25.7334 3.94727 38.6064c2.53418 11.3232 15.2139 14.627 25.6621 14.627z" />
    <glyph glyph-name="numbersign" unicode="#" horiz-adv-x="424" 
d="M364.157 187.392c20.749 -6.80371 3.47754 -21.5889 -10.2959 -21.6768c-17.458 -0.12207 -34.96 2.4502 -52.4775 3.72266c-3.05957 -11.4883 -6.06934 -22.9922 -8.96289 -34.5312c-3.30371 -13.1602 -6.44824 -26.3799 -9.53027 -39.6309
c9.34473 -0.275391 18.6797 -0.606445 28.002 -1.00977c6.46973 -0.28125 20.4121 -2.40625 20.4121 -11.6348c0 -8.79102 -13.6855 -11.998 -20.4111 -11.6357c-11.0918 0.59668 -22.1807 1.04395 -33.2656 1.38184c-13.0078 -57.1582 -25.4746 -114.616 -43.4668 -170.196
c-5.02832 -15.5391 -50.8516 -14.8457 -49.9268 3.84961c2.77246 55.9707 13.6455 111.926 26.3467 167.068c-6.78223 -0.0439453 -13.5645 -0.116211 -20.3467 -0.219727c-13.0479 -57.3271 -25.54 -114.957 -43.582 -170.703
c-5.02832 -15.5391 -50.8516 -14.8457 -49.9268 3.84961c2.7373 55.3047 13.3818 110.598 25.8857 165.097c-20.2773 -0.703125 -40.5576 -1.51855 -60.8506 -2.34375c-12.3359 -0.50293 -17.2734 11.7861 -3.35059 14.1055
c22.8643 3.80957 45.8789 6.62891 68.9746 8.68262c4.01953 16.9424 8.13867 33.7998 12.1895 50.5449c1.97852 8.17871 3.97266 16.3643 5.97266 24.5557c-15.833 0.0722656 -31.625 0.84375 -47.3047 2.9248c-13.1543 1.75 -13.6914 15.1445 0 16.4014
c17.6328 1.61914 35.334 2.88184 53.0547 3.96289c15.5361 62.5029 32.3096 124.956 53.5615 185.6c7.98535 22.7803 71.4316 18.0928 63.8525 -10.0312c-15.501 -57.5273 -32.5967 -114.563 -48.3516 -172c3.68164 0.174805 7.36328 0.34668 11.042 0.521484
c2.83496 0.134766 5.66992 0.234375 8.50488 0.353516c15.2266 61.0215 31.7129 121.952 52.4619 181.157c7.98535 22.7803 71.4316 18.0928 63.8525 -10.0312c-15.3984 -57.1494 -32.3652 -113.814 -48.0352 -170.87c18.7178 -0.640625 38.3916 -1.49707 55.9717 -7.26367z
M227.09 142.109c2.21582 9.16016 4.44434 18.3291 6.68848 27.499c-2.79102 -0.0878906 -5.58496 -0.163086 -8.37598 -0.262695c-3.8877 -0.137695 -7.78223 -0.299805 -11.6797 -0.46875c-3.00684 -11.3037 -5.96289 -22.623 -8.81348 -33.9775
c-3.28125 -13.0918 -6.41309 -26.2461 -9.47852 -39.4258c6.83203 0.193359 13.6641 0.349609 20.499 0.4375c3.69141 15.4766 7.45703 30.8877 11.1602 46.1982z" />
    <glyph glyph-name="dollar" unicode="$" horiz-adv-x="378" 
d="M297.36 19.6982c19.8672 -18.3584 40.2803 -40.917 24.6699 -68.2041c-12.873 -22.499 -46.332 -31.7998 -70.209 -33.9434c-4.52832 -0.40625 -9.06641 -0.515625 -13.582 -0.387695c2.10059 -27.5996 4.62891 -55.1738 7.68262 -82.7012
c1.03809 -9.35742 -23.9014 -9.96387 -24.9512 0c-3.02246 28.6523 -5.46973 57.3516 -7.46387 86.0732c-39.9189 9.89453 -72.9346 40.7354 -73.9258 85.7305c-0.197266 9.05664 22.8613 9.1377 23.2461 -0.000976562c1.29688 -30.9502 21.2988 -58.7744 49.623 -69.8906
c-1.98438 31.6094 -3.34082 63.2471 -4.08105 94.8936c-87.9268 53.3486 -186.026 115.545 -151.145 227.996c18.5957 59.9551 75.9199 107.719 138.045 115.885c9.74512 1.27832 19.749 1.47168 29.7002 0.618164c2.10645 17.5449 4.34082 35.0781 6.83496 52.583
c1.24414 8.7168 22.8809 8.0166 21.7803 0c-2.56543 -18.6924 -4.83789 -37.416 -6.95996 -56.1553c36.1348 -8.90723 68.3564 -32.2627 80.4824 -69.0752c3.72266 -11.3076 -22.1113 -12.9766 -25.9463 -4.0791c-10.2793 23.8525 -31.8408 43.1074 -57.1904 48.8799
c-9.56348 -92.7715 -13.7109 -186.008 -12.4824 -279.201c22.7588 -15.1924 45.6201 -30.3066 65.8721 -49.0205zM207.7 84.9102c-0.0996094 88.3115 4.62207 176.611 14.2012 264.463c-29.4961 -2.58789 -55.1299 -21.6426 -72.875 -44.4639
c-39.8066 -51.1895 -39.5566 -122.527 2.84375 -171.622c16.4326 -19.0303 35.7129 -34.2471 55.8301 -48.377zM290.525 -52.3799c17.2578 14.7236 3.07715 27.4492 -10.7715 37.7529c-13.9609 10.3887 -30.0342 20.6396 -47.0547 31.0938
c0.990234 -28.4307 2.52441 -56.8457 4.52148 -85.2363c18.5645 -0.693359 39.5068 4.62012 53.3047 16.3896z" />
    <glyph glyph-name="percent" unicode="%" horiz-adv-x="459" 
d="M385.069 386.095c8.38477 -1.34082 30.4717 -10.0293 22.4463 -22.5332c-52.2676 -81.4229 -106.938 -161.396 -161.071 -241.591c-27.5303 -40.7822 -55.1328 -81.5137 -83.4229 -121.776c-13.0293 -18.542 -26.252 -37.0156 -40.0225 -55.0107
c-12.9141 -16.8799 -25.8281 -33.5156 -45.7676 -42.4131c-5.36328 -2.39062 -32.3691 -4.27832 -26.3623 8.74805c17.2324 37.3691 41.3281 73.1191 63.3047 107.832c24.8613 39.2695 49.9727 78.3545 75.3281 117.309c51.5293 79.1602 102.709 158.684 156.042 236.644
c8.47266 12.3857 25.4961 15.0361 39.5254 12.792zM129.853 145.182c-53.8047 9.24121 -55.4863 68.0879 -48.9668 115.052c-4.61621 4.14453 -6.30078 11.4795 -2.91309 20.5273c8.03809 21.4521 34.4248 34.1904 55.1709 39.1592
c49.7637 11.917 87.3174 -27.6152 87.749 -76.3008c0.443359 -49.998 -33.9531 -108.241 -91.04 -98.4375zM176.15 295.896c-11.2607 14.5732 -28.749 13.8604 -44.1533 7.67188c8.22559 -2.57812 13.8203 -7.46289 12.3916 -14.3574
c-6.36035 -30.7119 -13.7363 -66.0371 -4.98828 -96.999c1.55957 -5.5166 5.37598 -10.3076 6.93555 -15.5859c0.0751953 -0.0878906 0.15332 -0.175781 0.228516 -0.259766c1.64062 1.1123 3.21875 2.21191 3.41895 2.38086c10.46 8.73242 17.9072 21.4551 23.4424 33.7129
c10.2852 22.7744 19.6514 61.5342 2.72461 83.4365zM319.399 133.669c49.7607 11.917 87.3145 -27.6143 87.749 -76.2998c0.443359 -49.998 -33.9531 -108.241 -91.04 -98.4375c-53.8047 9.24121 -55.4863 68.0869 -48.9668 115.051
c-4.61621 4.14453 -6.30371 11.4795 -2.91309 20.5273c8.03809 21.4521 34.4248 34.1904 55.1709 39.1592zM359.678 26.21c10.2852 22.7744 19.6523 61.5303 2.72559 83.4355c-11.2607 14.5703 -28.75 13.8574 -44.1543 7.67285
c8.22559 -2.57812 13.8203 -7.46289 12.3916 -14.3574c-6.36035 -30.7119 -13.7363 -66.0371 -4.98828 -96.999c1.55957 -5.51953 5.37598 -10.3076 6.93555 -15.5898c0.0751953 -0.0839844 0.15332 -0.171875 0.228516 -0.255859
c1.64062 1.1123 3.21875 2.21191 3.41895 2.38086c10.46 8.73242 17.9072 21.4551 23.4424 33.7129z" />
    <glyph glyph-name="ampersand" unicode="&#x26;" horiz-adv-x="451" 
d="M351.062 117.116c27.3467 -3.89746 51.7344 -22.4844 49.7842 -52.3125c-1.98145 -30.2031 -22.9268 -57.0059 -43.8037 -77.2832c-24.6211 -23.915 -54.9805 -41.5508 -87.6055 -52.7334c0.71875 -9.27246 1.47461 -18.5391 2.2998 -27.8027
c0.833984 -9.36914 -23.8779 -9.83789 -24.709 0.000976562c-0.587891 6.93848 -1.10352 13.877 -1.62891 20.8184c-20.2803 -4.84375 -41.085 -7.33105 -61.6777 -7.29688c-29.9688 0.0498047 -68.2256 3.15625 -89.9209 26.6768
c-21.5898 23.4082 -17.9609 57.6084 -4.10059 83.9609c12.1172 23.0361 29.4902 44.626 47.873 63.8652c-11.7891 0.46875 -23.4873 2.40332 -34.8975 6.11035c-48.5889 15.7891 -61.4873 63.5811 -47.1768 108.632c14.2451 44.8418 50.8076 80.5674 90.7861 103.563
c30.4844 17.5361 67.3662 32.7559 104.129 38.6318c1.38184 13.8887 2.8418 27.7646 4.4668 41.6318c1.05664 9.00977 23.4561 8.39746 22.5127 0c-1.47168 -13.0664 -2.79395 -26.1455 -4.05371 -39.2314c7.00977 0.31543 13.9668 0.268555 20.8203 -0.272461
c38.9189 -3.07227 82.5107 -30.6689 75.7793 -75.042c-1.57227 -10.3662 -27.4307 -10.0195 -26.418 0c2.21875 21.9209 -11.9326 41.6855 -31.9316 50.1768c-12.5605 5.33496 -26.5146 5.47852 -40.2852 3.35645c-4.6875 -53.8643 -7.53125 -107.854 -8.60938 -161.877
c2.54102 -0.612305 4.99414 -1.3623 7.18457 -2.33691c7.55664 -3.36328 17.3105 -14.042 7.53809 -21.5244c-4.84766 -3.70996 -9.91992 -7.33496 -15.1641 -10.8477c-0.0654297 -11.9512 -0.0498047 -23.9023 0.0595703 -35.8535
c27.5967 12.2451 59.5371 21.1553 88.749 16.9893zM181.31 -53.8848c21.0459 -1.20605 42.0723 1.2334 62.3301 6.65234c-2.46582 37.666 -4.06934 75.373 -4.77539 113.089c-15.6045 -10.4951 -29.5898 -21.5771 -25.3711 -24.8145
c8.53223 -6.54785 -12.7539 -12.4297 -18.6357 -8.19824c-22.5957 16.252 22.1455 43.7168 43.666 55.4863c-0.106445 11.0977 -0.131836 22.1924 -0.0849609 33.29c-8.58789 -4.61914 -17.4883 -8.81348 -26.6016 -12.4482
c-24.8994 -20.6523 -46.5166 -47.0264 -63.3086 -70.8691c-12.9072 -18.3271 -24.8486 -41.2266 -18.1484 -64.2041c6.80371 -23.333 29.7275 -26.7705 50.9297 -27.9834zM239.17 170.441c1.27832 52.3232 4.23438 104.608 8.89062 156.772
c-3.48438 -1.01855 -6.90039 -2.0752 -10.2012 -3.125c-41.1699 -13.1201 -80.6709 -35.3877 -104.555 -72.5508c-18.4326 -28.6836 -34.8994 -77.4229 -9.41602 -107.194c11.1943 -13.0791 25.0801 -10.7637 39.9404 -6.18848
c23.4424 7.21582 45.7285 17.957 67.6152 28.8984c2.30957 1.49414 4.94727 2.57227 7.72559 3.3877zM362.318 31.6709c14.2139 20.5645 21.7256 53.7285 -5.32715 67.7207c-23.752 12.2852 -60.7715 -2.2041 -83.2959 -12.374
c-1.42188 -0.640625 -5.59375 -2.95605 -11.1289 -6.23145c0.68457 -40.0508 2.35352 -80.0889 5.02246 -120.077c14.7793 5.87207 28.9521 13.3105 42.1533 22.1396c19.6299 13.126 39.0439 29.249 52.5762 48.8223z" />
    <glyph glyph-name="quotesingle" unicode="'" horiz-adv-x="155" 
d="M79.6094 395.383c7.63867 0 26.7725 -3.39551 25.6602 -14.6211c-1.12793 -11.3789 -2.60938 -22.6865 -3.87793 -34.0439c-1.09082 -9.76074 -0.0722656 -22.3809 -4.88184 -31.0195c-5.77246 -10.3701 -24.293 -10.3701 -33.2998 -5.01367
c-12.3447 7.33789 -13.1758 17.8574 -13.21 31.4648c-0.03125 13.1914 1.06543 25.7334 3.94727 38.6064c2.53418 11.3232 15.2139 14.627 25.6621 14.627z" />
    <glyph glyph-name="quotesingle" unicode="&#x2019;" horiz-adv-x="155" 
d="M79.6094 395.383c7.63867 0 26.7725 -3.39551 25.6602 -14.6211c-1.12793 -11.3789 -2.60938 -22.6865 -3.87793 -34.0439c-1.09082 -9.76074 -0.0722656 -22.3809 -4.88184 -31.0195c-5.77246 -10.3701 -24.293 -10.3701 -33.2998 -5.01367
c-12.3447 7.33789 -13.1758 17.8574 -13.21 31.4648c-0.03125 13.1914 1.06543 25.7334 3.94727 38.6064c2.53418 11.3232 15.2139 14.627 25.6621 14.627z" />
    <glyph glyph-name="quotesingle" unicode="&#x2018;" horiz-adv-x="155" 
d="M79.6094 395.383c7.63867 0 26.7725 -3.39551 25.6602 -14.6211c-1.12793 -11.3789 -2.60938 -22.6865 -3.87793 -34.0439c-1.09082 -9.76074 -0.0722656 -22.3809 -4.88184 -31.0195c-5.77246 -10.3701 -24.293 -10.3701 -33.2998 -5.01367
c-12.3447 7.33789 -13.1758 17.8574 -13.21 31.4648c-0.03125 13.1914 1.06543 25.7334 3.94727 38.6064c2.53418 11.3232 15.2139 14.627 25.6621 14.627z" />
    <glyph glyph-name="parenleft" unicode="(" horiz-adv-x="326" 
d="M270.232 -117.934c8.31641 -6.58496 7.72852 -16.9941 -2.29102 -21.9473c-51.7363 -25.5713 -118.934 -9.74512 -157.209 32.7148c-33.3066 36.9473 -47.624 87.4268 -55.1807 135.56c-8.78809 55.9775 -6.84082 112.799 3.7168 168.373
c9.99512 52.6201 26.2842 105.475 55.1494 151.001c23.333 36.7998 61.5645 68.9492 106.896 70.4365c14.1641 0.462891 13.7051 -12.3105 0.000976562 -13.1104c-28.0342 -1.6377 -44.6855 -23.4648 -57.9746 -45.7041
c-13.8916 -23.249 -24.0928 -48.5547 -31.5469 -74.5449c-15.6855 -54.6992 -21.7607 -112.717 -21.2734 -169.484c0.46582 -54.3145 8.04492 -111.982 30.2158 -162.021c14.9072 -33.6436 48.876 -80.7451 91.667 -66.9688
c11.5479 3.71875 27.8496 3.59668 37.8291 -4.30371z" />
    <glyph glyph-name="parenright" unicode=")" horiz-adv-x="327" 
d="M223.08 328.073c50.7607 -95.2021 66.2598 -217.458 43.0732 -322.515c-10.2041 -46.2451 -26.6777 -94.9277 -64.7002 -125.925c-39.3945 -32.1152 -97.165 -42.335 -143.341 -19.5107c-10.2793 5.08203 -10.501 15.4365 -2.29395 21.9463
c9.99512 7.92578 26.1846 8.05371 37.8291 4.30371c42.7822 -13.7705 76.7637 33.3271 91.6709 66.9678c22.1768 50.0488 29.749 107.694 30.2148 162.021c0.487305 56.7676 -5.58789 114.785 -21.2734 169.484c-7.4541 25.9902 -17.6553 51.2959 -31.5469 74.5449
c-13.2734 22.208 -29.9717 44.0664 -57.9746 45.7041c-13.7949 0.806641 -14.0703 13.5703 0 13.1113c54.3799 -1.78418 94.3926 -45.2168 118.342 -90.1338z" />
    <glyph glyph-name="asterisk" unicode="*" horiz-adv-x="235" 
d="M174.136 322.823c14.6514 0.3125 14.4609 -13.373 -0.00292969 -13.6572c-11.7764 -0.237305 -23.5557 0.00976562 -35.332 0.316406c10.2139 -12.1572 20.2832 -24.4268 29.7715 -37.1777c7.39453 -9.93555 -15.9043 -13.9395 -21.123 -7.03906
c-5.01953 6.6377 -10.1484 13.1914 -15.3115 19.7139c0.30957 -8.17871 0.603516 -16.3545 0.853516 -24.5332c0.287109 -9.41992 -23.9277 -9.53906 -24.2217 -0.000976562c-0.328125 10.7041 -0.59082 21.4141 -0.825195 32.124
c-6.22266 -7.27246 -12.2949 -14.7041 -18.0986 -22.4209c-5.3916 -7.16895 -33.8818 -4.07812 -27.7129 6.66016c7.02832 12.2383 16.2324 23.0205 26.3643 33.1055c-8.05664 -0.262695 -16.1104 -0.762695 -24.1582 -1.6748
c-11.6982 -1.3252 -22.0898 11.2383 -6.31055 13.0449c14.4229 1.65039 28.834 2.16895 43.2451 2.21289c-9.32617 11.6982 -18.5303 23.4961 -27.3438 35.5938c-4.78516 6.57227 15.623 10.3291 19.9043 4.78516c4.27246 -5.53223 8.65723 -10.9707 13.0791 -16.374
c-0.12793 7.44434 -0.255859 14.8887 -0.396484 22.333c-0.162109 8.5918 21.6582 8.6543 22.0234 0c0.322266 -7.62891 0.660156 -15.2549 0.994141 -22.8809c3.99414 3.6377 7.9043 7.31348 11.6387 11.0762c5.73828 5.78223 28.1934 2.00977 20.2832 -6.75684
c-8.61914 -9.55078 -17.3789 -18.877 -26.0801 -28.2373c12.9072 -0.262695 25.8213 -0.491211 38.7598 -0.212891z" />
    <glyph glyph-name="plus" unicode="+" horiz-adv-x="255" 
d="M196.926 152.645c16.1641 -1.71875 5.43457 -14.5742 -6.43555 -13.3086c-8.38867 0.890625 -16.793 1.5625 -25.2002 2.10645c-0.390625 -36.25 1.30664 -73.0156 -6.17188 -108.632c-2.97559 -14.1729 -37.3477 -18.1416 -41.7734 -3.22168
c-10.876 36.6631 -11.4639 74.873 -12.8672 112.839c-13.3076 -0.424805 -26.6084 -1.21582 -39.8818 -2.46289c-3.93457 -0.37207 -12.5732 -0.34668 -14.2988 4.62598c-1.67188 4.8125 4.10059 7.71582 8.11621 8.14746c15.2168 1.6377 30.4248 2.66602 45.6328 3.20312
c-0.9375 34.3096 -0.56543 68.6875 1.46582 102.932c1.40332 23.6367 59.749 23.499 60.1113 0c0.53125 -34.5371 0.34082 -69.1094 -0.15625 -103.656c10.4824 -0.619141 20.9678 -1.45703 31.459 -2.57227z" />
    <glyph glyph-name="comma" unicode="," horiz-adv-x="187" 
d="M87.9111 24.8701c8.46973 17.5137 57.8047 9.8252 48.0791 -7.55469c-16.2236 -28.9961 -34.7412 -71.6934 -70.8105 -78.0693c-8.81348 -1.55957 -23.3809 9.20996 -9.33301 12.6162c-1.7627 -0.427734 -0.984375 0.459961 0.0253906 3.00977
c0.927734 2.34668 1.41797 4.96582 2.21484 7.36621c2.2998 6.92285 5.60645 13.3984 8.75977 19.9521c6.87891 14.3018 14.1572 28.3906 21.0645 42.6797z" />
    <glyph glyph-name="hyphen" unicode="-" horiz-adv-x="274" 
d="M199.103 95.0391c7.80664 0.543945 24.6865 -3.5498 24.6836 -14.0693c0 -11.2822 -16.542 -13.5479 -24.6836 -14.0693c-42.1699 -2.69727 -84.333 -5.23145 -126.53 -7.42188c-6.85059 -0.356445 -21.043 2.66211 -22.4463 11.2939
c-1.39062 8.55078 9.05762 13.6914 16.3711 14.291c44.1855 3.62207 88.3799 6.88477 132.605 9.97559z" />
    <glyph glyph-name="period" unicode="." horiz-adv-x="149" 
d="M98.1973 18.8477c1.7373 -4.03125 0.862305 -7.35156 -0.178711 -11.1367c-0.518555 -2.5498 -0.887695 -5.10645 -1.02832 -7.71875c-0.568359 -10.5762 -15.3857 -13.167 -23.4648 -13.373c-5.30664 -0.137695 -11.9512 1.18164 -16.5918 3.91602
c-2.68164 1.57812 -7.5166 5.59082 -6.87305 9.45703c0.677734 4.06641 1.59961 8.15723 2.95898 12.0547c1.84668 5.30078 5.07812 9.16406 9.90625 12.1084c5.86035 3.5752 13.917 4.15918 20.5332 3.09375c5.10938 -0.822266 12.4443 -3.08496 14.7383 -8.40137z" />
    <glyph glyph-name="slash" unicode="/" horiz-adv-x="324" 
d="M209.349 387.488c9.4541 22.4053 74.0791 17.0684 64.0908 -10.0713c-29.1592 -79.2139 -60.9648 -157.502 -90.7705 -236.484c-14.751 -39.0879 -28.9678 -78.3604 -43.4414 -117.552c-7.43164 -20.1211 -14.832 -40.3262 -22.7764 -60.25
c-7.81934 -19.6113 -15.1201 -39.9541 -28.7021 -56.3525c-7.45703 -9.00684 -35.7129 -8.3877 -37.3535 5.7666c-2.33496 20.1172 6.2627 42.96 11.7881 62.1553c5.58789 19.417 11.8037 38.7441 18.0859 57.9463c12.9258 39.5166 26.6328 78.7949 40.3496 118.039
c27.7744 79.4541 56.0049 159.233 88.7295 236.803z" />
    <glyph glyph-name="zero" unicode="0" horiz-adv-x="353" 
d="M62.5312 54.3154c-7.34766 34.2217 -8.0166 69.5566 -5.97266 104.595c-7.75391 21.8145 -7.92285 47.3047 -4.18164 71.0693c6.59473 41.8916 23.8311 87.7051 58.2471 114.62c33.0283 25.8301 79.376 29.0586 113.647 3.84375
c37.2754 -27.4209 55.6338 -73.2939 67.0098 -116.67c12.001 -45.748 14.6357 -94.5654 9.73535 -141.542c-4.51562 -43.2881 -12.0449 -93.1807 -43.6543 -125.722c-32.9277 -33.8965 -85.5361 -40.4033 -127.024 -18.9609
c-41.1855 21.2861 -58.6123 65.9404 -67.8066 108.767zM132.528 328.097c-25.4395 -24.749 -38.8789 -63.9414 -44.958 -98.1191c-0.47168 -2.64746 -0.90625 -5.36914 -1.32227 -8.11914c20.0645 3.04102 44.1387 -3.7002 42.6602 -19.248
c-2.59375 -27.2871 -4.83496 -54.6836 -4.79395 -82.0732c26.5615 -5.7627 59.3457 13.2793 76.0566 31.54c5.5791 6.09473 27.7627 1.94727 20.0713 -6.6875c-22.8867 -25.6992 -60.6094 -42.7568 -95.8877 -39.2031c0.322266 -9.79492 0.96875 -19.5869 2.05664 -29.3691
c3.83496 -34.4844 10.9326 -78.7539 40.1914 -101.672c9.2666 -7.25684 16.123 -10.0225 26.749 -4.51855c12.6758 6.56348 22.2676 17.7734 29.1963 30.0371c17.5957 31.1406 22.9873 68.7344 27.4912 103.703c4.59766 35.7002 5.15039 71.7031 0.912109 107.46
c-4.10059 34.5752 -10.8916 71.5 -29.0342 101.797c-9.58496 16.0078 -24.7832 30.6592 -44.0977 33.3496c-17.0107 2.36914 -33.5371 -7.44141 -45.291 -18.877z" />
    <glyph glyph-name="one" unicode="1" horiz-adv-x="269" 
d="M73.3809 292.097c-4.83789 -7.23145 -27.7432 -4.34375 -22.6455 3.56348c19.6826 30.5371 57.3613 72.1289 97.9775 67.0566c47.1758 -5.8916 52.7422 -68.7227 58.4053 -105.448c7.87891 -51.1045 10.0137 -103.131 11.2451 -154.755
c1.25 -52.499 2.30664 -106.441 -2.21582 -158.769c-2.39355 -27.709 -68.7783 -27.7402 -70.6133 0c-2.8623 43.2852 1.00684 86.9893 2.7041 130.284c1.62207 41.373 4.04102 82.7051 5.44727 124.094c1.36914 40.2754 3.75684 82.0264 0.972656 122.249
c-0.619141 8.92285 -1.29688 21.7051 -9.96973 26.2178c-9.11328 4.74121 -21.9805 -5.52246 -29.6406 -10.9766c-16.502 -11.7422 -30.4375 -26.7246 -41.667 -43.5166z" />
    <glyph glyph-name="two" unicode="2" horiz-adv-x="409" 
d="M65.9922 -61.2109c-14.8359 11.7197 -20.1963 30.6123 -12.4766 48.1885c7.82617 17.8232 27.6406 28.9746 45.5518 33.9473c26.3623 7.31934 51.6143 3.73145 75.2949 -5.68457c33.9941 46.4795 55.3682 104.916 68.5664 159.443
c8.37305 34.5938 14.4297 72.2158 7.41309 107.622c-6.80957 34.3623 -34.2061 66.3525 -70.9785 68.8027c-34.8281 2.31934 -66.4971 -30.2744 -82.252 -58.374c-8.98242 -16.0205 -13.8203 -34.2695 -10.2354 -52.5684c3.40039 -17.3457 17.2422 -38.5449 37.5381 -36.957
c3.94434 0.30957 12.5547 0.387695 14.2959 -4.625c1.66602 -4.79688 -4.09375 -7.74707 -8.11621 -8.15039c-46.417 -4.65039 -78.3447 34.6748 -68.3096 79.6602c9.23828 41.4072 48.6543 82.1738 89.7646 92.7217c37.5439 9.63184 78.041 -5.12598 102.969 -34.2129
c30.0059 -35.0156 43.207 -77.4883 42.7637 -123.255c-0.71875 -73.8379 -22.1924 -160.324 -70.1719 -220.739c32.8027 -22.3955 74.3252 -48.6016 110.891 -22.7051c7.4043 5.24121 29.2559 -1.50293 17.4736 -9.95996
c-25.7773 -18.502 -59.8027 -18.0303 -89.0615 -8.83887c-18.8613 5.92578 -35.585 16.1797 -52.2803 26.4873c-4.13477 -4.37207 -8.41992 -8.5791 -12.8926 -12.5703c-34.0469 -30.3867 -95.9561 -49.6602 -135.747 -18.2324zM120.041 0.469727
c-11.4482 -3.71582 -24.8359 -16.4805 -17.9854 -29.4502c5.66016 -10.71 10.6328 -9.54102 21.5371 -4.4502c12.6416 5.90039 23.1953 16.0234 32.4932 26.1904c1.34668 1.47168 2.62207 3.01562 3.93457 4.52246c-12.7891 4.21582 -27.2344 7.3252 -39.9795 3.1875z" />
    <glyph glyph-name="three" unicode="3" horiz-adv-x="368" 
d="M87.8984 248.187c-16.8955 -4.05371 -35.5234 5.6377 -37.667 23.8711c-2.51562 21.418 15.9453 43.2012 30.5 56.9307c31.0908 29.3281 75.373 43.6924 117.755 38.417c21.2363 -2.64746 41.3848 -11.6484 55.7676 -27.8467
c16.0176 -18.0361 16.5547 -44.2666 9.99805 -66.3496c-8.10352 -27.2998 -25.1084 -55.5615 -46.5264 -78.3604c23.3018 -6.20996 45.0098 -18.0488 61.2773 -34.5693c63.5938 -64.5811 47.6016 -181.227 -33.1211 -223.455
c-38.0156 -19.8896 -89.7139 -22.2207 -128.43 -2.27148c-39.3604 20.2832 -40.707 63.0996 -36.5508 102.013c1.10938 10.3945 26.9961 9.93555 26.1738 0c-3.375 -40.7881 0.166016 -90.9463 52.1143 -94.4502c39.4971 -2.66602 68.1934 28.5088 80.7354 63.0088
c13.2979 36.5723 12.7568 80.042 -6.00391 114.626c-13.4639 24.8213 -39.8164 46.8203 -68.1631 36.8691c-13.4141 -4.70996 -36.1973 -4.29785 -46.6953 6.97852c-11.0889 11.9141 1.2002 21.8242 12.2451 26.6152c28.3838 12.3105 51.4014 41.373 69.3877 65.5566
c15.4453 20.7705 48.4297 70.9658 15.1738 90.7148c-27.6309 16.4111 -66.7471 7.02246 -92.6904 -8.16016c-13.0391 -7.63184 -24.6992 -17.6826 -34.0811 -29.5342c-4.97559 -6.28516 -9.80371 -13.3105 -12.7881 -20.8086
c-1.7998 -4.51562 -6.94043 -30.5742 5.79785 -27.8213c10.8574 2.34375 19.8174 -8.60449 5.79102 -11.9736z" />
    <glyph glyph-name="four" unicode="4" horiz-adv-x="387" 
d="M135.392 97.1631c-21.1328 -20.293 -75.0586 -30.7354 -84.6123 7.73047c-3.98828 16.0488 8 30.0781 21.626 36.7979c18.2334 8.99121 40.6543 7.20996 60.2627 5.72266c2.83496 -0.21875 5.66602 -0.474609 8.49414 -0.75
c14.9609 25.3457 24.9961 54.3857 33.0684 81.4229c13.417 44.9355 19.6016 91.5586 19.3457 138.41c-0.046875 8.52539 21.5518 8.53809 21.7803 0c1.40625 -52.7393 -5.55371 -105.359 -21.2422 -155.764c-6.74414 -21.668 -14.9102 -45.5479 -26.0264 -67.4404
c13.0322 -1.92871 26.0205 -4.18555 39.0156 -6.38867c16.9014 -2.8623 34.8184 -6.8623 52.3135 -6.56836c-0.168945 4.15332 -0.369141 8.30078 -0.512695 12.4541c-2.4502 70.6221 -3.69434 141.332 2.69043 211.767c2.40918 26.584 67.3936 26.668 67.9248 0
c1.40625 -70.5879 -0.46875 -141.173 1.22852 -211.767c0.859375 -35.7754 1.9873 -71.5635 3.44043 -107.32c1.30371 -32.0752 7.28516 -70.9004 -4.15625 -101.484c-5.66309 -15.1357 -38.3066 -12.123 -45.251 0c-16.748 29.2402 -16.9795 71.6133 -19.6953 104.548
c-2.13477 25.9121 -3.85059 51.8203 -5.08789 77.7695c-31.7871 -0.666016 -64.4463 8.08203 -95.2305 12.7324c-1.39746 0.212891 -2.79785 0.40625 -4.19824 0.609375c-7.2002 -12.0635 -15.4795 -23.1709 -25.1777 -32.4814zM87.4443 129.48
c-11.1758 -6.90039 -15.8564 -23.2998 -1.40527 -30.0352c9.43555 -4.40039 18.9551 3.73145 25.6309 9.85742c7.70703 7.07227 14.5166 15.0732 20.6357 23.6709c-1.55664 0.12793 -3.11035 0.27832 -4.66992 0.384766c-12.5732 0.84082 -29.04 3.00684 -40.1914 -3.87793z
" />
    <glyph glyph-name="five" unicode="5" horiz-adv-x="353" 
d="M62.1143 76.8516c3.17871 8.44727 27.2793 6.20801 23.5879 -3.70508c-12.0107 -32.2969 -19.1797 -72.8379 2.97559 -102.74c19.3545 -26.1211 51.3701 -26.6992 77.2695 -11.2041c47.9795 28.709 71.3193 87.2207 70.9414 141.288
c-0.333984 47.7861 -28.6426 114.617 -86.957 103.179c-13.6543 -2.67871 -26.2148 -8.54785 -39 -13.7891c-15.2607 -6.25391 -40.5283 -8.40723 -53.3516 4.97559c-11.3477 11.8447 -0.512695 28.7686 4.35938 41.1758c6.45996 16.4512 12.5234 33.1152 19.874 49.1953
c11.8633 25.9492 24.4961 60.4336 54.1455 69.7969c13.2891 4.19727 28.4463 3.09668 42.1855 3.57129c17.5391 0.606445 35.0596 1.19434 52.6045 1.4541c13.7666 0.203125 13.2139 -11.7979 0 -12.6914c-19.5859 -1.3252 -39.1846 -2.2373 -58.793 -3.1748
c-9.0918 -0.43457 -21.8496 1.91895 -24.8525 -7.70996c-2.17871 -6.99121 -1.44141 -16.2109 -2.35059 -23.5088c-2.28809 -18.3584 -6.62891 -36.4785 -11.7168 -54.2549c-1.84375 -6.4502 -3.74121 -12.8887 -5.62891 -19.3301
c13.1172 2.65625 26.4531 4.15625 39.8701 3.84082c32.29 -0.759766 64.1553 -10.4326 88.9297 -31.6318c84.5674 -72.3691 45.5791 -214.116 -42.6758 -264.28c-38 -21.5986 -94.2588 -29.0498 -131.597 -2c-41.8887 30.3438 -35.8252 88.9902 -19.8203 131.544z" />
    <glyph glyph-name="six" unicode="6" horiz-adv-x="325" 
d="M120.145 -51.0508c-68.1592 30.5 -75.8711 118.257 -67.3105 183.229c4.74414 36.0186 15.0889 70.8906 30.418 103.803c14.5732 31.2871 33.6777 65.29 59.1611 89.1016c23.9395 22.3682 57.7178 42.3389 91.2803 33.1064
c31.8408 -8.75391 44.3076 -37.0908 40.4541 -68.4316c-1.05957 -8.61621 -22.5117 -8.2666 -21.7803 0c1.3623 15.3916 0.00878906 31.418 -10.0645 43.8564c-11.6006 14.3291 -22.7793 10.082 -35.2832 -0.5c-20.0146 -16.9395 -34.0381 -42.8477 -45.7266 -65.9219
c-22.624 -44.6631 -38.5566 -92.7393 -42.5762 -142.856c-0.890625 -11.0918 -1.35352 -22.7676 -1.18164 -34.6504c51.1172 16.2451 120.374 -0.962891 134.685 -57.3086c8.11621 -31.9502 -10.1201 -63.3438 -37.0352 -79.8887
c-27.4619 -16.8828 -66.2656 -16.4141 -95.04 -3.53809zM228.084 35.1465c-15.417 44.6045 -71.0674 56.5674 -109.83 37.541c2.13477 -30.7373 9.15723 -61.665 24.834 -86.4766c12.6826 -20.0771 31.9844 -30.9785 54.9209 -19.4238
c23.6836 11.9297 38.9443 42.7012 30.0752 68.3594z" />
    <glyph glyph-name="seven" unicode="7" horiz-adv-x="306" 
d="M66.0254 329.128c-3.94141 -0.99707 -12.04 -1.87109 -14.8936 2.22949c-2.60645 3.73828 -0.47168 7.34766 3.90723 8.49121c25.4277 6.64746 50.8828 13.3105 76.6543 18.5107c22.4365 4.52539 47.1514 10.3818 70.1133 6.8252
c53.6055 -8.30371 50.6738 -67.7373 45.7734 -109.291c-4.82227 -40.8945 -14.1104 -81.1611 -24.4268 -121.056c8.02539 -0.431641 16.0547 -0.941406 24.0869 -1.58789c4.29688 -0.34668 10.1816 -3.54688 8.54395 -8.57812
c-1.72852 -5.30078 -10.7979 -5.23828 -15.0479 -4.86914c-7.03516 0.609375 -14.0732 1.08398 -21.1143 1.49316c-1.77832 -6.74121 -3.57227 -13.4727 -5.37207 -20.1953c-13.5674 -50.6582 -26.1094 -101.476 -38.498 -152.427
c-5.37598 -22.1084 -72.417 -18.7578 -68.1543 5.25684c10.1445 57.1299 27.5527 112.819 44.873 168.425c-8.83203 -0.231445 -17.6641 -0.587891 -26.4961 -1.09375c-14.2734 -0.818359 -13.8486 12.373 0 13.248c10.2354 0.646484 20.4678 1.08984 30.6934 1.3457
c7.87598 25.3838 15.6143 50.7705 22.5059 76.2949c5.90332 21.8672 11.4541 43.8535 16.6299 65.9023c2.32812 9.91699 4.19727 19.8838 6.3877 29.8164c1.86621 8.45703 8.88867 24.7461 7.17285 33.3691c-4.53516 22.7646 -60.0742 6.85645 -74.4854 4.00293
c-23.1338 -4.57812 -45.998 -10.3408 -68.8535 -16.1133z" />
    <glyph glyph-name="eight" unicode="8" horiz-adv-x="323" 
d="M97.9268 157.966c-25.415 23.6113 -50.5439 55.5752 -47.709 92.4971c2.95312 38.4814 31.165 67.9375 61.9336 87.9678c30.2305 19.6826 69.3594 33.9902 105.538 25.1582c31.5283 -7.69727 48.7363 -32.2773 53.5586 -63.2021
c10.3135 -66.1309 -21.6455 -131.894 -43.2158 -195.003c20.0674 -23.7988 39.7227 -51.626 43.0293 -81.6064c8.22559 -74.6035 -97.3965 -117.492 -146.529 -63.4805c-23.9736 26.3555 -25.0889 68.2656 -19.4229 101.372
c4.17188 24.3711 11.6602 47.3174 23.6953 68.0254c-10.2725 9.38867 -20.6143 18.7363 -30.8779 28.2715zM212.604 -27.4346c30.2217 31.6025 -5.64844 77.9346 -27.9229 102.402c-12.1641 13.3574 -24.9375 25.8896 -37.9639 38.1318
c-13.4512 -28.2334 -19.7832 -60.583 -17.5771 -90.7637c2.83105 -38.7256 46.4043 -88.5244 83.4639 -49.7705zM132.924 305.034c-22.8086 -30.75 -22.2393 -68.3057 -1.83105 -99.7871c20.4365 -31.5244 54.627 -52.833 79.8916 -80.4141
c8.95703 27.8896 18.5615 55.5918 25.415 84.0947c8.83496 36.7412 20.3232 93.3398 -8.41699 124.587c-27.1963 29.5654 -76.6416 -3.65332 -95.0586 -28.4805z" />
    <glyph glyph-name="nine" unicode="9" horiz-adv-x="324" 
d="M80.2656 135.16c-23.3799 14.5361 -30.6172 40.7646 -30.252 66.9111c0.71582 52.6738 32.1875 106.251 74.8008 136.413c21.4209 15.1611 47.9707 24.3994 73.8516 15.292c22.6768 -7.97852 36.2344 -30.7529 42.9443 -52.6738
c2.90918 -9.50684 -18.79 -11.0166 -21.709 -3.41309c-6.03809 15.7363 -21.5273 45.1201 -42.8828 35.7441c-13.6416 -5.98828 -25.5205 -22.0088 -33.6279 -33.8818c-19.4863 -28.5342 -32.5098 -62.6807 -32.2725 -97.4805
c0.109375 -16.2139 3.05957 -34.3965 13.7793 -47.2881c5.87598 -7.06348 8.23535 -6.86328 16.3301 -2.34082c8.28516 4.625 15.3984 11.5479 21.5771 18.6855c22.9023 26.4521 35.5469 61.7773 47.1016 94.915c0.65625 3.60645 1.59668 7.19434 2.9502 10.748
c4.09766 10.7637 27.5439 9.87012 33.96 2.53223c16.5732 -18.9521 20.3799 -44.3291 23.7803 -68.5908c3.49121 -24.9023 3.60352 -50.5645 2.49414 -75.6484c-2.02539 -45.792 -9.73828 -95.5371 -26.5215 -138.419c-16.4082 -41.9131 -53.624 -69.9971 -100.213 -62.1807
c-37.7344 6.3291 -66.5059 33.1846 -74.2852 70.6006c-1.7998 8.66602 23.0186 10.2158 25.2285 1.94629c7.41016 -27.7305 36.8096 -65.5557 66.2686 -39.2217c21.8398 19.5234 28.5186 59.3613 34.6162 86.4893c8.29785 36.9189 12.7295 74.9883 13.373 112.816
c0.234375 13.7549 -0.119141 27.5469 -0.709961 41.3076c-13.2793 -29.0029 -30.6123 -55.7959 -56.915 -73.0566c-22.043 -14.4639 -51.2334 -14.1514 -73.667 -0.206055z" />
    <glyph glyph-name="colon" unicode=":" horiz-adv-x="150" 
d="M85.751 169.549c-0.712891 -8.05078 -11.4678 -10.0098 -17.8525 -10.1758c-4.03516 -0.0996094 -9.0918 0.900391 -12.6201 2.98145c-1.99707 1.17871 -5.75977 4.27539 -5.22852 7.19434c1.37793 7.52539 1.11816 14.917 1.28418 22.5176
c0.259766 11.9951 28.0908 12.3486 31.751 2.45117c2.97559 -8.04785 3.41602 -16.4834 2.66602 -24.9688zM99.9297 -6.43848c0.0683594 -5.92871 0.206055 -11.8535 0.40918 -17.7793c0.349609 -9.95996 -15.333 -12.5039 -22.2432 -12.6787
c-7.27832 -0.18457 -22.3232 2.96582 -22.2422 12.6797c0.0654297 7.57227 -0.125 15.3105 0.578125 22.8613c0.818359 8.79492 3.33105 14.6299 11.1572 19.3428c8.22559 4.95312 36.1221 4.88086 31.8721 -10.5771c-1.00977 -3.66602 0.421875 -9.73242 0.46875 -13.8486z
" />
    <glyph glyph-name="semicolon" unicode=";" horiz-adv-x="197" 
d="M88.4443 43.4561c6.1416 19.9395 61.6191 15.7969 55.375 -8.70215c-6.86328 -26.9463 -15.4268 -53.3203 -25.7432 -79.1572c-9.73828 -24.3965 -20.3896 -55.3428 -41.5762 -72.0566c-5.16309 -4.07227 -21.543 -6.85352 -24.3652 1.81641
c-7.36035 22.6113 6.19043 53.752 12.2539 75.7197c7.61328 27.5811 15.6357 55.0371 24.0557 82.3799zM146.96 170.325c1.05273 -9.07617 -14.7764 -11.5576 -20.5332 -11.7012c-4.64453 -0.119141 -10.458 1.03711 -14.5205 3.42773
c-2.54102 1.49707 -6.36621 4.78223 -6.0127 8.27637c0.44043 4.35645 0.758789 8.71973 0.889648 13.0986c0.0595703 2.05664 0.0537109 4.05078 0.347656 6.08887c0.490234 3.42578 1.67773 5.43848 3.79688 8.11328c2.90039 3.66016 9.69824 4.55664 13.9365 4.55664
c4.97852 0 10.123 -1.20996 13.9355 -4.55762c6.87598 -6.03809 7.16309 -18.7021 8.16016 -27.3027z" />
    <glyph glyph-name="less" unicode="&#x3c;" horiz-adv-x="269" 
d="M187.251 115.004c9.26953 -0.671875 30.5049 -3.38574 30.1797 -17.1992c-0.31543 -13.2451 -19.9795 -17.3955 -30.1777 -17.2021c-20.6143 0.390625 -159.958 0.0683594 -134.056 45.9668c5.99121 10.6162 19.0674 15.5508 29.4531 20.457
c13.3418 6.30664 26.8398 12.2666 40.3037 18.3076c25.124 11.2764 55.9141 30.9062 84.2012 29.6777c3.44727 -0.146484 12.5078 -1.48145 12.1113 -6.90039c-1.0752 -14.6641 -25.2061 -24.1777 -36.207 -30.4971c-16.3545 -9.39453 -32.7188 -18.7988 -49.1855 -27.9902
c-2.55957 -1.42871 -8.38867 -5.58887 -13.7861 -8.82324c2.4502 -0.299805 4.89746 -0.618164 7.35059 -0.896484c19.9053 -2.25 39.8418 -3.45312 59.8125 -4.90039z" />
    <glyph glyph-name="equal" unicode="=" horiz-adv-x="371" 
d="M64.2354 163.687c-3.09668 2.20312 -5.10156 5.30371 -1.95117 8.62012c10.9512 11.5195 35.0693 10.8008 49.6709 12.1387c19.417 1.78125 38.9346 2.6377 58.4209 3.12207c40.5693 1.0127 81.1543 1.19727 121.695 -0.78125
c8.83496 -0.431641 29.0244 -3.37598 28.7148 -16.3682c-0.302734 -12.6172 -19.0107 -16.5332 -28.7148 -16.3672c-39.5479 0.671875 -79.0918 1.79395 -118.651 1.84375c-19.2646 0.0253906 -38.541 -0.118164 -57.7988 0.400391
c-15.5234 0.418945 -38.1191 -2.05957 -51.3857 7.3916zM293.464 113.238c8.11914 0.541016 25.6611 -3.6748 25.6611 -14.6289c0 -11.7227 -17.1953 -14.0947 -25.6621 -14.626c-38.6162 -2.42871 -77.3262 -4.18555 -116.023 -4.38867
c-37.2939 -0.200195 -78.3662 -3.00684 -114.941 5.21875c-15.8262 3.55957 -17.4893 17.7549 0 20.4268c37.4131 5.71973 77.1514 2.1416 114.942 3.03516c38.7158 0.918945 77.3789 2.38477 116.023 4.96289z" />
    <glyph glyph-name="greater" unicode="&#x3e;" horiz-adv-x="285" 
d="M233.347 137.615c11.1729 -25.2275 -32.8623 -41.9121 -49.376 -49.0537c-29.8965 -12.9141 -60.3682 -24.249 -91.002 -35.2656c-11.0293 -3.96582 -30.9404 -3.71875 -39.4541 5.89746c-8.70703 9.83496 0.30957 18.9697 10.3447 22.4893
c23.5205 8.24805 47.1035 16.3584 70.5244 24.8877c10.9482 3.98828 21.9082 8.0293 32.709 12.4014c4.84766 1.95996 9.73535 3.92578 14.1416 6.78809c5.60059 3.6377 7.03516 3.72559 2.25391 8.57324c-6.46289 6.55371 -21.7734 9.61621 -30.499 11.916
c-9.95703 2.625 -20.1514 4.3877 -30.29 6.14746c-20.4492 3.55078 -41.0234 6.43262 -60.5098 13.8926c-21.6768 8.29492 1.21289 21.4805 14.4111 19.4834c29.7061 -4.49707 59.9902 -7.29395 89.3115 -13.9541c20.6768 -4.69434 57.6963 -12.2139 67.4346 -34.2031z" />
    <glyph glyph-name="question" unicode="?" horiz-adv-x="318" 
d="M252.497 349.285c13.8984 -15.8857 17.1621 -37.6113 14.4775 -57.9727c-6.45703 -49.0479 -29.6494 -96.4365 -46.4355 -142.541c-17.373 -47.7295 -31.5869 -95.5186 -35.0684 -146.451c-1.70312 -24.9053 -63.7686 -24.3994 -63.0439 0
c3.07227 103.519 64.5811 191.583 97.0244 286.87c7.21582 21.1895 10.2285 53.3174 -16.4648 61.9492c-22.7432 7.35059 -49.293 -2.41895 -68.501 -14.4854c-18.8643 -11.8516 -37.2812 -29.5342 -49.4102 -48.2793c-11.9297 -18.4365 -17.0742 -47.917 3.40918 -62.8311
c11.6357 -8.46973 -10.0225 -15.042 -17.2979 -9.86035c-40.8633 29.1094 -14.7012 80.917 12.2793 109.91c29.2061 31.3877 70.9629 50.0928 114.102 46.6924c19.6611 -1.5498 41.4756 -7.625 54.9297 -23.001zM154.239 -37.6777
c4.59766 -0.325195 19.417 -3.63379 17.7012 -11.4287c-3.11621 -14.1611 -4.61328 -28.5938 -3.98242 -43.0859c0.75 -17.2051 -44.3701 -17.3955 -44.2422 0c0.115234 15.9395 2.75293 31.1719 8.12891 46.1797c2.76855 7.73535 15.7881 8.80078 22.3945 8.33496z" />
    <glyph glyph-name="at" unicode="@" horiz-adv-x="526" 
d="M474.643 260.329c6.64746 -54.2988 -14.498 -111.722 -47.085 -154.444c-32.2314 -42.2725 -84.2207 -75.3447 -138.588 -55.165c-32.1064 11.917 -42.3887 39.0947 -42.7168 69.041c-8.17871 -9.00391 -17.0859 -17.3389 -27.4521 -24.3711
c-17.4111 -11.8105 -40.1729 -19.9053 -60.8906 -11.9512c-15.6172 5.99707 -22.5928 20.252 -21.8086 36.4287c1.83105 37.6631 30.1621 75.6631 61.6494 94.4648c31.4902 18.8018 79.3135 23.0049 100.7 -12.6484c0.537109 -0.896484 0.699219 -1.71875 0.599609 -2.47168
c2.75 -1.89062 4.18457 -4.56934 3.34082 -8.20117c-5.76953 -24.8428 -27.4404 -135.588 29.2402 -117.227c22.3115 7.22559 41.0566 28.5684 54.498 46.9141c14.6201 19.9521 25.5996 42.8262 32.6562 66.5c11.8447 39.7383 14.5635 89.8027 -14.7549 122.766
c-26.0615 29.3057 -65.7715 41.9189 -104.216 40.6904c-84.2363 -2.6875 -152.349 -66.2559 -182.977 -141.038c-31.2998 -76.4258 -37.1875 -188.255 21.3838 -253.727c28.8525 -32.2529 71.2373 -45.8857 113.079 -32.7725
c42.7822 13.4072 75.8887 46.9287 106.217 78.4131c10.4043 10.8008 51.2646 3.5752 36.9385 -12.3076c-41.8506 -46.3945 -92.1367 -88.8486 -156.777 -95.3271c-61.9023 -6.2041 -120.12 18.6074 -154.461 71.0654c-30.4033 46.4453 -36.8008 106.729 -31.5781 160.878
c5.04688 52.3428 22.2578 104.107 53.1484 146.934c60.3965 83.7363 174.92 128.984 274.839 93.6846c48.417 -17.1045 88.5391 -53.2324 95.0146 -106.128zM261.897 197.265c1.87207 2.20996 6.44141 3.91602 11.8672 4.84082
c-39.0664 39.0508 -100.01 -48.1289 -97.5381 -86.1104c0.208984 -3.21289 0.586914 -8.84766 3.0498 -11.7197c-2.29395 3.125 6.41016 5.38477 10.001 7.94434c10.0508 7.16016 18.627 16.4668 26.5186 25.8799c16.0703 19.1709 29.9248 40.0537 46.1016 59.165z" />
    <glyph glyph-name="A" unicode="A" horiz-adv-x="717" 
d="M615.487 -77.6611c-4.66016 12.1699 -9.5791 24.2344 -14.7949 36.1641c-52.7646 -20.2207 -109.342 -29.4688 -165.516 -36.1943c-77.2324 -9.24805 -155.309 -14.373 -232.935 -7.06934c-17.6582 1.65918 -35.7256 3.92773 -53.8086 6.99023
c-9.39746 -17.6074 -19.2324 -34.9805 -29.6143 -52.0381c-23.4424 -38.5254 -50.2266 -78.4795 -95.1523 -93.1562c-8.74121 -2.85645 -25.3428 6.50098 -11.3604 11.0791c30.0156 9.82324 51.0703 34.2129 68.2686 59.625c17.0176 25.1367 32.0537 51.7451 46.293 78.541
c-40.4229 8.43555 -80.1455 21.5146 -114.714 42.1201c-50.9795 30.3867 -86.0605 83.8887 -70.1621 144.494c14.7451 56.2051 62.0811 100.375 111.751 127.237c49.3105 26.665 105.791 39.2822 161.702 38.9229c22.1924 -0.140625 44.041 -2.41895 65.4023 -6.60059
c21.3486 46.0791 44.5352 91.2461 71.4561 134.444c26.2246 42.0791 57.7686 89.7773 104.154 111.592c19.7705 9.29785 42.4824 12.4229 63.2344 4.34668c20.3301 -7.91309 33.2188 -25.1836 44.1787 -43.1729c15.1416 -24.8584 27.5742 -49.5635 36.3623 -77.4473
c8.62891 -27.3711 14.4482 -56.043 19.5264 -84.2607c10.8574 -60.3428 18.6582 -121.021 26.3994 -181.82c7.5791 -59.543 14.9297 -119.198 25.4678 -178.304c10.585 -59.3613 25.8145 -117.02 43.7441 -174.54c8.11035 -26.0244 -51.7764 -30.3467 -59.6143 -9.37012
c-17.9111 47.9326 -30.6465 97.7744 -40.2695 148.417zM323.147 310.62c-7.12207 -14.2607 -13.9834 -28.6377 -20.6836 -43.0859c83.6855 -21.6953 158.908 -72.3027 216.751 -137.187c32.9717 -36.9844 60.04 -77.8975 82.5264 -121.283
c-6.35645 48.2861 -10.9658 96.7344 -15.5381 144.42c-5.53223 57.7148 -10.6826 115.474 -17.2617 173.076c-3.08789 27.0303 -6.58789 53.8887 -11.1475 80.7158c-4.24121 24.9678 -8.17578 54.8545 -21.624 76.7314c-68.1934 110.96 -188.042 -123.39 -213.022 -173.388z
M-36.0742 81.6631c0.125 -64.0029 57.3057 -103.825 111.583 -123.523c19.3018 -7.00391 39.0312 -12.6328 59.0303 -17.1084c26.5215 51.4736 49.6201 104.635 72.0039 158.012c22.252 53.0645 43.9258 106.591 67.7314 159.077
c-23.7832 4.71875 -48.2197 6.85645 -73.1064 5.9375c-52.6084 -1.94043 -104.811 -17.626 -148.874 -46.6006c-45.0605 -29.6279 -88.4805 -78.8789 -88.3682 -135.794zM453.081 -60.4814c48.0732 6.45996 96.0547 15.7061 140.85 33.9639
c-27.0742 58.5371 -61.4648 113.32 -106.206 160.516c-52.5674 55.4521 -118.698 99.4248 -191.898 119.076c-36.0127 -79.3389 -67.1406 -160.871 -103.088 -240.25c-11.623 -25.668 -23.7832 -51.1172 -36.7314 -76.1504
c35.4287 -6.43457 71.5254 -9.46875 107.454 -10.1279c63.4023 -1.16309 126.833 4.53418 189.62 12.9727z" />
    <glyph glyph-name="A" unicode="&#xc5;" horiz-adv-x="717" 
d="M615.487 -77.6611c-4.66016 12.1699 -9.5791 24.2344 -14.7949 36.1641c-52.7646 -20.2207 -109.342 -29.4688 -165.516 -36.1943c-77.2324 -9.24805 -155.309 -14.373 -232.935 -7.06934c-17.6582 1.65918 -35.7256 3.92773 -53.8086 6.99023
c-9.39746 -17.6074 -19.2324 -34.9805 -29.6143 -52.0381c-23.4424 -38.5254 -50.2266 -78.4795 -95.1523 -93.1562c-8.74121 -2.85645 -25.3428 6.50098 -11.3604 11.0791c30.0156 9.82324 51.0703 34.2129 68.2686 59.625c17.0176 25.1367 32.0537 51.7451 46.293 78.541
c-40.4229 8.43555 -80.1455 21.5146 -114.714 42.1201c-50.9795 30.3867 -86.0605 83.8887 -70.1621 144.494c14.7451 56.2051 62.0811 100.375 111.751 127.237c49.3105 26.665 105.791 39.2822 161.702 38.9229c22.1924 -0.140625 44.041 -2.41895 65.4023 -6.60059
c21.3486 46.0791 44.5352 91.2461 71.4561 134.444c26.2246 42.0791 57.7686 89.7773 104.154 111.592c19.7705 9.29785 42.4824 12.4229 63.2344 4.34668c20.3301 -7.91309 33.2188 -25.1836 44.1787 -43.1729c15.1416 -24.8584 27.5742 -49.5635 36.3623 -77.4473
c8.62891 -27.3711 14.4482 -56.043 19.5264 -84.2607c10.8574 -60.3428 18.6582 -121.021 26.3994 -181.82c7.5791 -59.543 14.9297 -119.198 25.4678 -178.304c10.585 -59.3613 25.8145 -117.02 43.7441 -174.54c8.11035 -26.0244 -51.7764 -30.3467 -59.6143 -9.37012
c-17.9111 47.9326 -30.6465 97.7744 -40.2695 148.417zM323.147 310.62c-7.12207 -14.2607 -13.9834 -28.6377 -20.6836 -43.0859c83.6855 -21.6953 158.908 -72.3027 216.751 -137.187c32.9717 -36.9844 60.04 -77.8975 82.5264 -121.283
c-6.35645 48.2861 -10.9658 96.7344 -15.5381 144.42c-5.53223 57.7148 -10.6826 115.474 -17.2617 173.076c-3.08789 27.0303 -6.58789 53.8887 -11.1475 80.7158c-4.24121 24.9678 -8.17578 54.8545 -21.624 76.7314c-68.1934 110.96 -188.042 -123.39 -213.022 -173.388z
M-36.0742 81.6631c0.125 -64.0029 57.3057 -103.825 111.583 -123.523c19.3018 -7.00391 39.0312 -12.6328 59.0303 -17.1084c26.5215 51.4736 49.6201 104.635 72.0039 158.012c22.252 53.0645 43.9258 106.591 67.7314 159.077
c-23.7832 4.71875 -48.2197 6.85645 -73.1064 5.9375c-52.6084 -1.94043 -104.811 -17.626 -148.874 -46.6006c-45.0605 -29.6279 -88.4805 -78.8789 -88.3682 -135.794zM453.081 -60.4814c48.0732 6.45996 96.0547 15.7061 140.85 33.9639
c-27.0742 58.5371 -61.4648 113.32 -106.206 160.516c-52.5674 55.4521 -118.698 99.4248 -191.898 119.076c-36.0127 -79.3389 -67.1406 -160.871 -103.088 -240.25c-11.623 -25.668 -23.7832 -51.1172 -36.7314 -76.1504
c35.4287 -6.43457 71.5254 -9.46875 107.454 -10.1279c63.4023 -1.16309 126.833 4.53418 189.62 12.9727z" />
    <glyph glyph-name="A" unicode="&#xc4;" horiz-adv-x="717" 
d="M615.487 -77.6611c-4.66016 12.1699 -9.5791 24.2344 -14.7949 36.1641c-52.7646 -20.2207 -109.342 -29.4688 -165.516 -36.1943c-77.2324 -9.24805 -155.309 -14.373 -232.935 -7.06934c-17.6582 1.65918 -35.7256 3.92773 -53.8086 6.99023
c-9.39746 -17.6074 -19.2324 -34.9805 -29.6143 -52.0381c-23.4424 -38.5254 -50.2266 -78.4795 -95.1523 -93.1562c-8.74121 -2.85645 -25.3428 6.50098 -11.3604 11.0791c30.0156 9.82324 51.0703 34.2129 68.2686 59.625c17.0176 25.1367 32.0537 51.7451 46.293 78.541
c-40.4229 8.43555 -80.1455 21.5146 -114.714 42.1201c-50.9795 30.3867 -86.0605 83.8887 -70.1621 144.494c14.7451 56.2051 62.0811 100.375 111.751 127.237c49.3105 26.665 105.791 39.2822 161.702 38.9229c22.1924 -0.140625 44.041 -2.41895 65.4023 -6.60059
c21.3486 46.0791 44.5352 91.2461 71.4561 134.444c26.2246 42.0791 57.7686 89.7773 104.154 111.592c19.7705 9.29785 42.4824 12.4229 63.2344 4.34668c20.3301 -7.91309 33.2188 -25.1836 44.1787 -43.1729c15.1416 -24.8584 27.5742 -49.5635 36.3623 -77.4473
c8.62891 -27.3711 14.4482 -56.043 19.5264 -84.2607c10.8574 -60.3428 18.6582 -121.021 26.3994 -181.82c7.5791 -59.543 14.9297 -119.198 25.4678 -178.304c10.585 -59.3613 25.8145 -117.02 43.7441 -174.54c8.11035 -26.0244 -51.7764 -30.3467 -59.6143 -9.37012
c-17.9111 47.9326 -30.6465 97.7744 -40.2695 148.417zM323.147 310.62c-7.12207 -14.2607 -13.9834 -28.6377 -20.6836 -43.0859c83.6855 -21.6953 158.908 -72.3027 216.751 -137.187c32.9717 -36.9844 60.04 -77.8975 82.5264 -121.283
c-6.35645 48.2861 -10.9658 96.7344 -15.5381 144.42c-5.53223 57.7148 -10.6826 115.474 -17.2617 173.076c-3.08789 27.0303 -6.58789 53.8887 -11.1475 80.7158c-4.24121 24.9678 -8.17578 54.8545 -21.624 76.7314c-68.1934 110.96 -188.042 -123.39 -213.022 -173.388z
M-36.0742 81.6631c0.125 -64.0029 57.3057 -103.825 111.583 -123.523c19.3018 -7.00391 39.0312 -12.6328 59.0303 -17.1084c26.5215 51.4736 49.6201 104.635 72.0039 158.012c22.252 53.0645 43.9258 106.591 67.7314 159.077
c-23.7832 4.71875 -48.2197 6.85645 -73.1064 5.9375c-52.6084 -1.94043 -104.811 -17.626 -148.874 -46.6006c-45.0605 -29.6279 -88.4805 -78.8789 -88.3682 -135.794zM453.081 -60.4814c48.0732 6.45996 96.0547 15.7061 140.85 33.9639
c-27.0742 58.5371 -61.4648 113.32 -106.206 160.516c-52.5674 55.4521 -118.698 99.4248 -191.898 119.076c-36.0127 -79.3389 -67.1406 -160.871 -103.088 -240.25c-11.623 -25.668 -23.7832 -51.1172 -36.7314 -76.1504
c35.4287 -6.43457 71.5254 -9.46875 107.454 -10.1279c63.4023 -1.16309 126.833 4.53418 189.62 12.9727z" />
    <glyph glyph-name="A" unicode="&#xc3;" horiz-adv-x="717" 
d="M615.487 -77.6611c-4.66016 12.1699 -9.5791 24.2344 -14.7949 36.1641c-52.7646 -20.2207 -109.342 -29.4688 -165.516 -36.1943c-77.2324 -9.24805 -155.309 -14.373 -232.935 -7.06934c-17.6582 1.65918 -35.7256 3.92773 -53.8086 6.99023
c-9.39746 -17.6074 -19.2324 -34.9805 -29.6143 -52.0381c-23.4424 -38.5254 -50.2266 -78.4795 -95.1523 -93.1562c-8.74121 -2.85645 -25.3428 6.50098 -11.3604 11.0791c30.0156 9.82324 51.0703 34.2129 68.2686 59.625c17.0176 25.1367 32.0537 51.7451 46.293 78.541
c-40.4229 8.43555 -80.1455 21.5146 -114.714 42.1201c-50.9795 30.3867 -86.0605 83.8887 -70.1621 144.494c14.7451 56.2051 62.0811 100.375 111.751 127.237c49.3105 26.665 105.791 39.2822 161.702 38.9229c22.1924 -0.140625 44.041 -2.41895 65.4023 -6.60059
c21.3486 46.0791 44.5352 91.2461 71.4561 134.444c26.2246 42.0791 57.7686 89.7773 104.154 111.592c19.7705 9.29785 42.4824 12.4229 63.2344 4.34668c20.3301 -7.91309 33.2188 -25.1836 44.1787 -43.1729c15.1416 -24.8584 27.5742 -49.5635 36.3623 -77.4473
c8.62891 -27.3711 14.4482 -56.043 19.5264 -84.2607c10.8574 -60.3428 18.6582 -121.021 26.3994 -181.82c7.5791 -59.543 14.9297 -119.198 25.4678 -178.304c10.585 -59.3613 25.8145 -117.02 43.7441 -174.54c8.11035 -26.0244 -51.7764 -30.3467 -59.6143 -9.37012
c-17.9111 47.9326 -30.6465 97.7744 -40.2695 148.417zM323.147 310.62c-7.12207 -14.2607 -13.9834 -28.6377 -20.6836 -43.0859c83.6855 -21.6953 158.908 -72.3027 216.751 -137.187c32.9717 -36.9844 60.04 -77.8975 82.5264 -121.283
c-6.35645 48.2861 -10.9658 96.7344 -15.5381 144.42c-5.53223 57.7148 -10.6826 115.474 -17.2617 173.076c-3.08789 27.0303 -6.58789 53.8887 -11.1475 80.7158c-4.24121 24.9678 -8.17578 54.8545 -21.624 76.7314c-68.1934 110.96 -188.042 -123.39 -213.022 -173.388z
M-36.0742 81.6631c0.125 -64.0029 57.3057 -103.825 111.583 -123.523c19.3018 -7.00391 39.0312 -12.6328 59.0303 -17.1084c26.5215 51.4736 49.6201 104.635 72.0039 158.012c22.252 53.0645 43.9258 106.591 67.7314 159.077
c-23.7832 4.71875 -48.2197 6.85645 -73.1064 5.9375c-52.6084 -1.94043 -104.811 -17.626 -148.874 -46.6006c-45.0605 -29.6279 -88.4805 -78.8789 -88.3682 -135.794zM453.081 -60.4814c48.0732 6.45996 96.0547 15.7061 140.85 33.9639
c-27.0742 58.5371 -61.4648 113.32 -106.206 160.516c-52.5674 55.4521 -118.698 99.4248 -191.898 119.076c-36.0127 -79.3389 -67.1406 -160.871 -103.088 -240.25c-11.623 -25.668 -23.7832 -51.1172 -36.7314 -76.1504
c35.4287 -6.43457 71.5254 -9.46875 107.454 -10.1279c63.4023 -1.16309 126.833 4.53418 189.62 12.9727z" />
    <glyph glyph-name="A" unicode="&#xc2;" horiz-adv-x="717" 
d="M615.487 -77.6611c-4.66016 12.1699 -9.5791 24.2344 -14.7949 36.1641c-52.7646 -20.2207 -109.342 -29.4688 -165.516 -36.1943c-77.2324 -9.24805 -155.309 -14.373 -232.935 -7.06934c-17.6582 1.65918 -35.7256 3.92773 -53.8086 6.99023
c-9.39746 -17.6074 -19.2324 -34.9805 -29.6143 -52.0381c-23.4424 -38.5254 -50.2266 -78.4795 -95.1523 -93.1562c-8.74121 -2.85645 -25.3428 6.50098 -11.3604 11.0791c30.0156 9.82324 51.0703 34.2129 68.2686 59.625c17.0176 25.1367 32.0537 51.7451 46.293 78.541
c-40.4229 8.43555 -80.1455 21.5146 -114.714 42.1201c-50.9795 30.3867 -86.0605 83.8887 -70.1621 144.494c14.7451 56.2051 62.0811 100.375 111.751 127.237c49.3105 26.665 105.791 39.2822 161.702 38.9229c22.1924 -0.140625 44.041 -2.41895 65.4023 -6.60059
c21.3486 46.0791 44.5352 91.2461 71.4561 134.444c26.2246 42.0791 57.7686 89.7773 104.154 111.592c19.7705 9.29785 42.4824 12.4229 63.2344 4.34668c20.3301 -7.91309 33.2188 -25.1836 44.1787 -43.1729c15.1416 -24.8584 27.5742 -49.5635 36.3623 -77.4473
c8.62891 -27.3711 14.4482 -56.043 19.5264 -84.2607c10.8574 -60.3428 18.6582 -121.021 26.3994 -181.82c7.5791 -59.543 14.9297 -119.198 25.4678 -178.304c10.585 -59.3613 25.8145 -117.02 43.7441 -174.54c8.11035 -26.0244 -51.7764 -30.3467 -59.6143 -9.37012
c-17.9111 47.9326 -30.6465 97.7744 -40.2695 148.417zM323.147 310.62c-7.12207 -14.2607 -13.9834 -28.6377 -20.6836 -43.0859c83.6855 -21.6953 158.908 -72.3027 216.751 -137.187c32.9717 -36.9844 60.04 -77.8975 82.5264 -121.283
c-6.35645 48.2861 -10.9658 96.7344 -15.5381 144.42c-5.53223 57.7148 -10.6826 115.474 -17.2617 173.076c-3.08789 27.0303 -6.58789 53.8887 -11.1475 80.7158c-4.24121 24.9678 -8.17578 54.8545 -21.624 76.7314c-68.1934 110.96 -188.042 -123.39 -213.022 -173.388z
M-36.0742 81.6631c0.125 -64.0029 57.3057 -103.825 111.583 -123.523c19.3018 -7.00391 39.0312 -12.6328 59.0303 -17.1084c26.5215 51.4736 49.6201 104.635 72.0039 158.012c22.252 53.0645 43.9258 106.591 67.7314 159.077
c-23.7832 4.71875 -48.2197 6.85645 -73.1064 5.9375c-52.6084 -1.94043 -104.811 -17.626 -148.874 -46.6006c-45.0605 -29.6279 -88.4805 -78.8789 -88.3682 -135.794zM453.081 -60.4814c48.0732 6.45996 96.0547 15.7061 140.85 33.9639
c-27.0742 58.5371 -61.4648 113.32 -106.206 160.516c-52.5674 55.4521 -118.698 99.4248 -191.898 119.076c-36.0127 -79.3389 -67.1406 -160.871 -103.088 -240.25c-11.623 -25.668 -23.7832 -51.1172 -36.7314 -76.1504
c35.4287 -6.43457 71.5254 -9.46875 107.454 -10.1279c63.4023 -1.16309 126.833 4.53418 189.62 12.9727z" />
    <glyph glyph-name="A" unicode="&#xc1;" horiz-adv-x="717" 
d="M615.487 -77.6611c-4.66016 12.1699 -9.5791 24.2344 -14.7949 36.1641c-52.7646 -20.2207 -109.342 -29.4688 -165.516 -36.1943c-77.2324 -9.24805 -155.309 -14.373 -232.935 -7.06934c-17.6582 1.65918 -35.7256 3.92773 -53.8086 6.99023
c-9.39746 -17.6074 -19.2324 -34.9805 -29.6143 -52.0381c-23.4424 -38.5254 -50.2266 -78.4795 -95.1523 -93.1562c-8.74121 -2.85645 -25.3428 6.50098 -11.3604 11.0791c30.0156 9.82324 51.0703 34.2129 68.2686 59.625c17.0176 25.1367 32.0537 51.7451 46.293 78.541
c-40.4229 8.43555 -80.1455 21.5146 -114.714 42.1201c-50.9795 30.3867 -86.0605 83.8887 -70.1621 144.494c14.7451 56.2051 62.0811 100.375 111.751 127.237c49.3105 26.665 105.791 39.2822 161.702 38.9229c22.1924 -0.140625 44.041 -2.41895 65.4023 -6.60059
c21.3486 46.0791 44.5352 91.2461 71.4561 134.444c26.2246 42.0791 57.7686 89.7773 104.154 111.592c19.7705 9.29785 42.4824 12.4229 63.2344 4.34668c20.3301 -7.91309 33.2188 -25.1836 44.1787 -43.1729c15.1416 -24.8584 27.5742 -49.5635 36.3623 -77.4473
c8.62891 -27.3711 14.4482 -56.043 19.5264 -84.2607c10.8574 -60.3428 18.6582 -121.021 26.3994 -181.82c7.5791 -59.543 14.9297 -119.198 25.4678 -178.304c10.585 -59.3613 25.8145 -117.02 43.7441 -174.54c8.11035 -26.0244 -51.7764 -30.3467 -59.6143 -9.37012
c-17.9111 47.9326 -30.6465 97.7744 -40.2695 148.417zM323.147 310.62c-7.12207 -14.2607 -13.9834 -28.6377 -20.6836 -43.0859c83.6855 -21.6953 158.908 -72.3027 216.751 -137.187c32.9717 -36.9844 60.04 -77.8975 82.5264 -121.283
c-6.35645 48.2861 -10.9658 96.7344 -15.5381 144.42c-5.53223 57.7148 -10.6826 115.474 -17.2617 173.076c-3.08789 27.0303 -6.58789 53.8887 -11.1475 80.7158c-4.24121 24.9678 -8.17578 54.8545 -21.624 76.7314c-68.1934 110.96 -188.042 -123.39 -213.022 -173.388z
M-36.0742 81.6631c0.125 -64.0029 57.3057 -103.825 111.583 -123.523c19.3018 -7.00391 39.0312 -12.6328 59.0303 -17.1084c26.5215 51.4736 49.6201 104.635 72.0039 158.012c22.252 53.0645 43.9258 106.591 67.7314 159.077
c-23.7832 4.71875 -48.2197 6.85645 -73.1064 5.9375c-52.6084 -1.94043 -104.811 -17.626 -148.874 -46.6006c-45.0605 -29.6279 -88.4805 -78.8789 -88.3682 -135.794zM453.081 -60.4814c48.0732 6.45996 96.0547 15.7061 140.85 33.9639
c-27.0742 58.5371 -61.4648 113.32 -106.206 160.516c-52.5674 55.4521 -118.698 99.4248 -191.898 119.076c-36.0127 -79.3389 -67.1406 -160.871 -103.088 -240.25c-11.623 -25.668 -23.7832 -51.1172 -36.7314 -76.1504
c35.4287 -6.43457 71.5254 -9.46875 107.454 -10.1279c63.4023 -1.16309 126.833 4.53418 189.62 12.9727z" />
    <glyph glyph-name="B" unicode="B" horiz-adv-x="643" 
d="M376.362 -227.565c-102.341 -41.7637 -266.036 -42.2598 -328.211 67.1289c-52.5576 92.4648 2.83203 200.678 87.2305 251.367c-13.0947 15.3232 -15.2041 37.4414 -17.2383 57.1211c-0.30957 3.02246 -0.522461 6.04102 -0.788086 9.06348
c-3.79102 7.47852 -8.4668 14.5449 -14.0615 21.0146c-18.4893 21.3867 -44.6045 30.7842 -69.8066 41.7012c-43.0352 18.6426 -78.96 48.1201 -71.6279 99.6123c11.4131 80.167 76.3252 149.849 142.734 190.702c73.1064 44.9727 166.499 65.9746 250.363 41.75
c34.1348 -9.86035 69.5596 -29.3496 90.0986 -59.0898c24.5527 -35.5469 19.7773 -79.2949 -0.990234 -115.286c-26.5615 -46.0391 -65.6279 -83.2207 -110.438 -111.508c124.271 -8.0791 255.13 -69.2002 257.98 -203.835
c2.76562 -130.615 -100.19 -242.788 -215.245 -289.742zM127.118 -192.999c84.1611 -54.3047 193.32 -24.7031 270.206 28.002c82.001 56.2207 151.451 168.553 120.786 270.665c-34.6191 115.267 -179.302 133.396 -280.064 116.339
c-11.8262 -2.00293 -31.2344 -0.349609 -38.748 10.8389c-7.15332 10.6514 3.02539 20.4746 13.4385 23.3779c80.4824 22.4463 160.89 81.1738 199.04 156.8c18.0615 35.7998 12.5049 71.25 -17.1416 98.3936c-27.1523 24.8555 -65.4092 33.9092 -101.284 35.6777
c-81.6729 4.02832 -163.506 -31.5752 -222.843 -86.54c-27.8086 -25.7588 -50.9951 -56.2559 -67.1846 -90.5898c-17.123 -36.3125 -30.4707 -83.126 2.86719 -114.498c29.1719 -27.4492 72.3164 -32.2461 103.241 -57.4355
c1.96875 -1.60352 3.85352 -3.28516 5.69434 -5.01074c-0.40918 10.7041 -0.677734 21.4209 -0.796875 32.1592c-0.587891 52.4834 2.54395 104.876 8.8291 156.969c2.84375 23.5615 61.4678 22.1895 59.1367 0c-5.37598 -51.1768 -9.27637 -102.491 -11.8174 -153.884
c-1.26855 -25.6963 -1.9873 -51.4268 -3.00586 -77.1357c-0.56543 -14.3018 -0.168945 -30.0283 -1.66309 -45.002c11.2324 4.53125 22.7715 8.05664 34.4697 10.3945c52.667 10.5225 118.514 -1.55078 151.738 -47.4863
c43.7695 -60.5186 -6.56055 -128.841 -55.2559 -166.322c-4.69434 -3.61328 -11.7822 -4.81934 -17.4043 -2.60059c-3.50977 1.38477 -9.45703 6.14453 -4.5625 9.91992c26.709 20.5957 52.3115 45.1133 63.0342 78.0254c10.6914 32.8184 3.2627 67.5059 -23.2773 90.2734
c-43.2695 37.1191 -106.229 31.5156 -153.633 5.57227c-0.833984 -0.837891 -1.94043 -1.41895 -3.20312 -1.79688c-2.62793 -1.5127 -5.21875 -3.07227 -7.7373 -4.70703c-45.8984 -29.7773 -75.1914 -77.0596 -81.7393 -131.221
c-6.54785 -54.1299 11.6943 -108.731 58.8799 -139.178z" />
    <glyph glyph-name="C" unicode="C" horiz-adv-x="502" 
d="M123.576 -197.869c-168.2 56.1025 -186.248 281.779 -162.965 429.371c13.1104 83.0947 40.2158 165.996 89.3574 234.993c46.876 65.8154 116.985 125.858 200.55 133.472c38.8818 3.54395 75.3447 -5.13477 103.929 -32.7559
c23.6807 -22.8799 35.1816 -55.6982 39.6445 -87.6797c10.1826 -72.9541 -20.9795 -150.742 -69.7559 -204.25c-24.6396 -27.0273 -56.5518 -52.8672 -93.7334 -58.7236c-30.8594 -4.85938 -67.8662 5.10059 -82.9551 34.7285
c-33.8066 66.3779 44.6289 136.209 108.547 116.679c14.3701 -4.39062 -2.69434 -14.0293 -11.6074 -11.3193c-38.1162 11.582 -74.2354 -27.1436 -79.5605 -62.25c-6.62891 -43.7139 28.1367 -75.8164 71.0723 -61.874c36.5156 11.8574 67.8525 45.751 88.9668 76.6162
c21.0703 30.8027 36.2344 66.2783 42.2412 103.188c8.82617 54.2393 -1.9248 137.278 -64.0059 156.502c-62.7217 19.4238 -122.033 -27.7676 -161.152 -71.9971c-42.4824 -48.0293 -71.1973 -107.985 -91.2334 -168.473
c-24.4863 -73.9287 -34.8809 -152.799 -31.7178 -230.571c4.91602 -120.908 46.8418 -291.452 198.615 -286.992c154.674 4.54395 236.307 165.371 276.21 293.562c2.4375 7.83203 24.6113 6.02832 21.708 -3.41016c-28.4062 -92.3057 -69.7725 -184.562 -146.717 -246.573
c-68.6279 -55.3086 -159.883 -80.7793 -245.438 -52.2422z" />
    <glyph glyph-name="D" unicode="D" horiz-adv-x="650" 
d="M567.142 441.581c113.032 -180.18 16.2666 -425.356 -141.964 -545.324c-84.252 -63.875 -212.933 -102.856 -306.182 -34.5225c-86.752 63.5742 -84.5547 188.567 -12.873 262.912c16.0137 16.6113 34.7432 30.1748 55.0049 41.0195
c-4.75 1.9248 -10.1104 3.2373 -16.2676 3.77832c-26.6904 2.33789 -49.7617 -2.68164 -75.3857 -9.44434c-40.5752 -10.7139 -85.7666 -7.4541 -104.29 36.1035c-17.1953 40.4385 -6.66016 89.1621 8.0166 128.675c17.1143 46.0732 45.7266 87.5117 79.4609 122.99
c72.1162 75.8447 172.013 132.222 278.816 131.247c98.4375 -0.900391 184.005 -55.0898 235.663 -137.435zM295.429 -124.294c81.8828 28.7373 145.815 96.5137 192.329 167.536c52.2646 79.8135 86.2959 174.216 80.3486 270.594
c-4.93164 79.8828 -42.5947 159.603 -107.116 208.332c-81.5205 61.5684 -192.722 49.2363 -277.911 2.3291c-78.2451 -43.085 -148.68 -113.032 -182.064 -196.847c-14.6953 -36.8877 -26.043 -82.9639 -12.5703 -121.921
c6.88477 -19.9082 21.1143 -36.835 43.6543 -36.9854c21.6738 -0.143555 42.7949 10.0664 63.9658 13.7139c23.2676 4.00684 56.2988 5.20117 81.0234 -5.37207c-0.200195 2.98145 -0.397461 5.95703 -0.59082 8.91992c-3.1377 48.0166 -3.89746 95.9238 -1.95996 144.003
c1.01855 25.2832 64.6592 24.6016 63.7744 -0.000976562c-1.64062 -45.6104 -2.16895 -91.3838 -0.869141 -137.013c0.0253906 0.00585938 0.0537109 0.0117188 0.0791016 0.0175781c45.792 9.61621 101.304 11.8662 140.345 -18.3057
c35.2061 -27.209 42.791 -73.7598 20.7549 -112.142c-15.5322 -27.0527 -44.126 -43.7422 -74.2471 -49.3867c-12.8887 -2.41602 -23.8682 11.0723 -6.89453 14.251c11.9766 2.24414 23.3896 6.88477 33.5059 13.7041c30.8057 20.7676 46.7324 65.3096 29 99.4062
c-24.4336 46.9795 -82.3047 48.2607 -127.915 39.7041c-4.66602 -0.875 -9.36035 -1.95312 -14.0576 -3.16602c1.93164 -42.6035 6.6543 -86.042 3.03809 -128.384c-1.32812 -15.5449 -37.1787 -16.8486 -42.0137 -3.24121
c-12.0264 33.8467 -17.0391 70.6533 -20.0986 106.938c-0.0839844 0.106445 -0.180664 0.203125 -0.268555 0.30957c-57.8682 -33.4434 -102.116 -91.5518 -87.9932 -161.536c9.22852 -45.748 40.5342 -88.7832 81.2598 -111.71
c38.6035 -21.7305 82.9326 -17.9805 123.492 -3.74805z" />
    <glyph glyph-name="E" unicode="E" horiz-adv-x="487" 
d="M-34.1045 -67.248c-37.4258 83.3574 -15.0322 194.611 60.6025 248.298c-6.9541 4.14746 -13.5674 8.88184 -19.7051 14.2109c-32.1875 27.9434 -43.3291 71.2471 -40.0322 112.542c8.8291 110.569 92.749 218.985 190.552 267.915
c51.2949 25.6621 115.139 36.9287 165.722 3.3916c40.2627 -26.6963 57.1396 -77.3887 57.7705 -123.85c0.737305 -54.3018 -18.9395 -109.825 -50.3047 -153.738c-28.9717 -40.5596 -73.7754 -84.3447 -126.752 -86.0977
c-23.0205 -0.762695 -48.21 6.49707 -63.458 24.6455c-16.2705 19.3643 -17.4863 46.7197 -9.70703 69.9434c15.0293 44.876 65.5469 71.7568 110.729 57.9521c14.3701 -4.3877 -2.69434 -14.0293 -11.6074 -11.3193c-53.4238 16.2324 -98.6973 -59.7744 -73.2012 -103.841
c15.9609 -27.584 50.3799 -28.2061 76.2197 -15.5615c23.6396 11.5664 43.9102 30.5615 60.9277 50.3818c53.5332 62.3555 88.377 169.825 40.0879 244.957c-11.3135 17.6016 -28.2119 33.0371 -48.5391 39.2812c-20.3955 6.2627 -44.8164 2.14941 -64.459 -4.85156
c-41.2949 -14.7168 -76.0605 -47.0635 -104.679 -79.3477c-29.1406 -32.875 -52.5332 -71.5039 -67.2725 -112.945c-12.6543 -35.5811 -22.1553 -78.0254 -11.9326 -115.447c2.95605 -10.8135 9.1377 -23.9521 14.7324 -31.3525
c3.50684 -4.64062 7.66309 -8.8877 12.0068 -12.751c1.27246 -1.12793 2.59473 -2.19336 3.91699 -3.25879c0.765625 -0.56543 2.33496 -1.73145 3.18848 -2.25684c3.53125 -2.17871 7.14062 -4.11621 10.7656 -6.12305
c0.609375 -0.337891 1.03125 -0.584961 1.37207 -0.793945c0.393555 -0.103516 0.868164 -0.241211 1.53711 -0.447266c6.18848 -1.9248 11.8516 -3.18164 1.15723 -0.90332c7.82227 -1.66895 19.8359 -4.57227 23.1953 -13.2227
c2.90918 -7.49414 -1.3291 -15.1797 -8.54199 -18.418c-2.49121 -1.11914 -4.89453 -2.4502 -7.27246 -3.79102c-2.6123 -1.47559 -5.16895 -3.04785 -7.69141 -4.67578c-1.8252 -1.17871 -3.61328 -2.40723 -5.4043 -3.63574
c-0.268555 -0.18457 -0.481445 -0.328125 -0.6875 -0.46875c-0.0371094 -0.0283203 -0.0556641 -0.0439453 -0.0966797 -0.0751953c-17.5859 -13.4229 -32.9062 -29.7842 -44.0791 -48.9268c-64.4277 -110.376 7.71289 -278.804 137.912 -296.355
c76.4102 -10.3008 147.076 28.7002 197.527 83.4082c54.1299 58.6963 85.3174 133.847 108.748 209.132c2.4375 7.83203 24.6143 6.02832 21.708 -3.41016c-28.3623 -92.1465 -69.7129 -184.814 -146.732 -246.57c-60.4717 -48.4893 -138.52 -74.5195 -215.833 -59.3115
c-74.3916 14.6328 -141.319 68.4883 -172.391 137.688z" />
    <glyph glyph-name="E" unicode="&#xcb;" horiz-adv-x="487" 
d="M-34.1045 -67.248c-37.4258 83.3574 -15.0322 194.611 60.6025 248.298c-6.9541 4.14746 -13.5674 8.88184 -19.7051 14.2109c-32.1875 27.9434 -43.3291 71.2471 -40.0322 112.542c8.8291 110.569 92.749 218.985 190.552 267.915
c51.2949 25.6621 115.139 36.9287 165.722 3.3916c40.2627 -26.6963 57.1396 -77.3887 57.7705 -123.85c0.737305 -54.3018 -18.9395 -109.825 -50.3047 -153.738c-28.9717 -40.5596 -73.7754 -84.3447 -126.752 -86.0977
c-23.0205 -0.762695 -48.21 6.49707 -63.458 24.6455c-16.2705 19.3643 -17.4863 46.7197 -9.70703 69.9434c15.0293 44.876 65.5469 71.7568 110.729 57.9521c14.3701 -4.3877 -2.69434 -14.0293 -11.6074 -11.3193c-53.4238 16.2324 -98.6973 -59.7744 -73.2012 -103.841
c15.9609 -27.584 50.3799 -28.2061 76.2197 -15.5615c23.6396 11.5664 43.9102 30.5615 60.9277 50.3818c53.5332 62.3555 88.377 169.825 40.0879 244.957c-11.3135 17.6016 -28.2119 33.0371 -48.5391 39.2812c-20.3955 6.2627 -44.8164 2.14941 -64.459 -4.85156
c-41.2949 -14.7168 -76.0605 -47.0635 -104.679 -79.3477c-29.1406 -32.875 -52.5332 -71.5039 -67.2725 -112.945c-12.6543 -35.5811 -22.1553 -78.0254 -11.9326 -115.447c2.95605 -10.8135 9.1377 -23.9521 14.7324 -31.3525
c3.50684 -4.64062 7.66309 -8.8877 12.0068 -12.751c1.27246 -1.12793 2.59473 -2.19336 3.91699 -3.25879c0.765625 -0.56543 2.33496 -1.73145 3.18848 -2.25684c3.53125 -2.17871 7.14062 -4.11621 10.7656 -6.12305
c0.609375 -0.337891 1.03125 -0.584961 1.37207 -0.793945c0.393555 -0.103516 0.868164 -0.241211 1.53711 -0.447266c6.18848 -1.9248 11.8516 -3.18164 1.15723 -0.90332c7.82227 -1.66895 19.8359 -4.57227 23.1953 -13.2227
c2.90918 -7.49414 -1.3291 -15.1797 -8.54199 -18.418c-2.49121 -1.11914 -4.89453 -2.4502 -7.27246 -3.79102c-2.6123 -1.47559 -5.16895 -3.04785 -7.69141 -4.67578c-1.8252 -1.17871 -3.61328 -2.40723 -5.4043 -3.63574
c-0.268555 -0.18457 -0.481445 -0.328125 -0.6875 -0.46875c-0.0371094 -0.0283203 -0.0556641 -0.0439453 -0.0966797 -0.0751953c-17.5859 -13.4229 -32.9062 -29.7842 -44.0791 -48.9268c-64.4277 -110.376 7.71289 -278.804 137.912 -296.355
c76.4102 -10.3008 147.076 28.7002 197.527 83.4082c54.1299 58.6963 85.3174 133.847 108.748 209.132c2.4375 7.83203 24.6143 6.02832 21.708 -3.41016c-28.3623 -92.1465 -69.7129 -184.814 -146.732 -246.57c-60.4717 -48.4893 -138.52 -74.5195 -215.833 -59.3115
c-74.3916 14.6328 -141.319 68.4883 -172.391 137.688z" />
    <glyph glyph-name="E" unicode="&#xca;" horiz-adv-x="487" 
d="M-34.1045 -67.248c-37.4258 83.3574 -15.0322 194.611 60.6025 248.298c-6.9541 4.14746 -13.5674 8.88184 -19.7051 14.2109c-32.1875 27.9434 -43.3291 71.2471 -40.0322 112.542c8.8291 110.569 92.749 218.985 190.552 267.915
c51.2949 25.6621 115.139 36.9287 165.722 3.3916c40.2627 -26.6963 57.1396 -77.3887 57.7705 -123.85c0.737305 -54.3018 -18.9395 -109.825 -50.3047 -153.738c-28.9717 -40.5596 -73.7754 -84.3447 -126.752 -86.0977
c-23.0205 -0.762695 -48.21 6.49707 -63.458 24.6455c-16.2705 19.3643 -17.4863 46.7197 -9.70703 69.9434c15.0293 44.876 65.5469 71.7568 110.729 57.9521c14.3701 -4.3877 -2.69434 -14.0293 -11.6074 -11.3193c-53.4238 16.2324 -98.6973 -59.7744 -73.2012 -103.841
c15.9609 -27.584 50.3799 -28.2061 76.2197 -15.5615c23.6396 11.5664 43.9102 30.5615 60.9277 50.3818c53.5332 62.3555 88.377 169.825 40.0879 244.957c-11.3135 17.6016 -28.2119 33.0371 -48.5391 39.2812c-20.3955 6.2627 -44.8164 2.14941 -64.459 -4.85156
c-41.2949 -14.7168 -76.0605 -47.0635 -104.679 -79.3477c-29.1406 -32.875 -52.5332 -71.5039 -67.2725 -112.945c-12.6543 -35.5811 -22.1553 -78.0254 -11.9326 -115.447c2.95605 -10.8135 9.1377 -23.9521 14.7324 -31.3525
c3.50684 -4.64062 7.66309 -8.8877 12.0068 -12.751c1.27246 -1.12793 2.59473 -2.19336 3.91699 -3.25879c0.765625 -0.56543 2.33496 -1.73145 3.18848 -2.25684c3.53125 -2.17871 7.14062 -4.11621 10.7656 -6.12305
c0.609375 -0.337891 1.03125 -0.584961 1.37207 -0.793945c0.393555 -0.103516 0.868164 -0.241211 1.53711 -0.447266c6.18848 -1.9248 11.8516 -3.18164 1.15723 -0.90332c7.82227 -1.66895 19.8359 -4.57227 23.1953 -13.2227
c2.90918 -7.49414 -1.3291 -15.1797 -8.54199 -18.418c-2.49121 -1.11914 -4.89453 -2.4502 -7.27246 -3.79102c-2.6123 -1.47559 -5.16895 -3.04785 -7.69141 -4.67578c-1.8252 -1.17871 -3.61328 -2.40723 -5.4043 -3.63574
c-0.268555 -0.18457 -0.481445 -0.328125 -0.6875 -0.46875c-0.0371094 -0.0283203 -0.0556641 -0.0439453 -0.0966797 -0.0751953c-17.5859 -13.4229 -32.9062 -29.7842 -44.0791 -48.9268c-64.4277 -110.376 7.71289 -278.804 137.912 -296.355
c76.4102 -10.3008 147.076 28.7002 197.527 83.4082c54.1299 58.6963 85.3174 133.847 108.748 209.132c2.4375 7.83203 24.6143 6.02832 21.708 -3.41016c-28.3623 -92.1465 -69.7129 -184.814 -146.732 -246.57c-60.4717 -48.4893 -138.52 -74.5195 -215.833 -59.3115
c-74.3916 14.6328 -141.319 68.4883 -172.391 137.688z" />
    <glyph glyph-name="E" unicode="&#xc9;" horiz-adv-x="487" 
d="M-34.1045 -67.248c-37.4258 83.3574 -15.0322 194.611 60.6025 248.298c-6.9541 4.14746 -13.5674 8.88184 -19.7051 14.2109c-32.1875 27.9434 -43.3291 71.2471 -40.0322 112.542c8.8291 110.569 92.749 218.985 190.552 267.915
c51.2949 25.6621 115.139 36.9287 165.722 3.3916c40.2627 -26.6963 57.1396 -77.3887 57.7705 -123.85c0.737305 -54.3018 -18.9395 -109.825 -50.3047 -153.738c-28.9717 -40.5596 -73.7754 -84.3447 -126.752 -86.0977
c-23.0205 -0.762695 -48.21 6.49707 -63.458 24.6455c-16.2705 19.3643 -17.4863 46.7197 -9.70703 69.9434c15.0293 44.876 65.5469 71.7568 110.729 57.9521c14.3701 -4.3877 -2.69434 -14.0293 -11.6074 -11.3193c-53.4238 16.2324 -98.6973 -59.7744 -73.2012 -103.841
c15.9609 -27.584 50.3799 -28.2061 76.2197 -15.5615c23.6396 11.5664 43.9102 30.5615 60.9277 50.3818c53.5332 62.3555 88.377 169.825 40.0879 244.957c-11.3135 17.6016 -28.2119 33.0371 -48.5391 39.2812c-20.3955 6.2627 -44.8164 2.14941 -64.459 -4.85156
c-41.2949 -14.7168 -76.0605 -47.0635 -104.679 -79.3477c-29.1406 -32.875 -52.5332 -71.5039 -67.2725 -112.945c-12.6543 -35.5811 -22.1553 -78.0254 -11.9326 -115.447c2.95605 -10.8135 9.1377 -23.9521 14.7324 -31.3525
c3.50684 -4.64062 7.66309 -8.8877 12.0068 -12.751c1.27246 -1.12793 2.59473 -2.19336 3.91699 -3.25879c0.765625 -0.56543 2.33496 -1.73145 3.18848 -2.25684c3.53125 -2.17871 7.14062 -4.11621 10.7656 -6.12305
c0.609375 -0.337891 1.03125 -0.584961 1.37207 -0.793945c0.393555 -0.103516 0.868164 -0.241211 1.53711 -0.447266c6.18848 -1.9248 11.8516 -3.18164 1.15723 -0.90332c7.82227 -1.66895 19.8359 -4.57227 23.1953 -13.2227
c2.90918 -7.49414 -1.3291 -15.1797 -8.54199 -18.418c-2.49121 -1.11914 -4.89453 -2.4502 -7.27246 -3.79102c-2.6123 -1.47559 -5.16895 -3.04785 -7.69141 -4.67578c-1.8252 -1.17871 -3.61328 -2.40723 -5.4043 -3.63574
c-0.268555 -0.18457 -0.481445 -0.328125 -0.6875 -0.46875c-0.0371094 -0.0283203 -0.0556641 -0.0439453 -0.0966797 -0.0751953c-17.5859 -13.4229 -32.9062 -29.7842 -44.0791 -48.9268c-64.4277 -110.376 7.71289 -278.804 137.912 -296.355
c76.4102 -10.3008 147.076 28.7002 197.527 83.4082c54.1299 58.6963 85.3174 133.847 108.748 209.132c2.4375 7.83203 24.6143 6.02832 21.708 -3.41016c-28.3623 -92.1465 -69.7129 -184.814 -146.732 -246.57c-60.4717 -48.4893 -138.52 -74.5195 -215.833 -59.3115
c-74.3916 14.6328 -141.319 68.4883 -172.391 137.688z" />
    <glyph glyph-name="F" unicode="F" horiz-adv-x="427" 
d="M-31.1045 415.938c9.95117 28.1494 36.1133 46.6543 62.4717 57.9424c64.4971 27.6084 133.685 30.0586 203.432 27.5957c0.106445 3.05957 0.19043 6.12207 0.3125 9.17871c0.950195 23.8643 59.0029 23.6953 60.6035 -0.000976562
c0.271484 -4.03516 0.47168 -8.07617 0.724609 -12.1143c41.4727 -2.14746 82.7139 -3.92578 122.849 -1.0791c59.1182 4.19434 138.622 17.8613 175.278 70.2881c25.2588 36.1279 -12.9287 60.7617 -46.5166 63.4434c-31.5215 2.51855 -60.8057 -8.31055 -86.1084 -26.5156
c-6.35059 -4.57227 -30 1.67188 -20.5557 9.03809c25.3711 19.7861 56.4932 30.5156 88.5742 32.1064c28.4404 1.41309 64.1875 -3.29688 85.0391 -24.7705c46.6445 -48.0322 -36.2568 -97.8584 -73.9258 -112.763c-62.8525 -24.8711 -132.109 -27.9053 -198.9 -26.1328
c-14.9326 0.393555 -29.8906 1.06543 -44.8604 1.79004c4.83203 -84.3018 5.93262 -168.909 8.2832 -253.354c34.25 0.862305 72.166 -6.05078 69.96 -37.9033c-0.668945 -9.66309 -24.8584 -9.21973 -24.2207 0c1.53418 22.1299 -28.5283 24.2705 -45.3271 24.2959
c0.28418 -9.56348 0.5625 -19.127 0.893555 -28.6846c1.86621 -53.708 4.55078 -107.372 6.70996 -161.064c1.07812 -26.8242 1.95312 -53.6641 2.94727 -80.4912c0.990234 -26.7373 2.16797 -54.1182 -2.7793 -80.4609
c-2.80957 -14.9736 -38.0625 -18.2803 -42.9727 -3.31641c-9.18164 27.9902 -13.2354 58.1426 -15.6699 88.4424c-7.99414 48.0293 -9.20312 97.1992 -21.6357 144.476c-7.62305 28.9873 -20.3838 59.7432 -40.3477 83.3047
c-16.2793 -9.53809 -32.1621 -19.8301 -48.1855 -29.6182c-22.168 -13.542 -48.7109 -32.8779 -76.3037 -28.6182c-26.252 4.05078 -36.6934 28.6592 -31.1113 52.8018c12.8828 55.7148 80.2676 68.4062 126.472 48.7422
c12.7695 -5.43457 24.0889 -12.7754 34.1084 -21.5166c13.5547 7.00684 27.4531 13.2764 41.9668 18.2266c-4.24414 89.002 -8.12598 178.495 -5.76367 267.516c-34.5684 1.06836 -69.1211 0.84668 -103.515 -3.31641
c-34.8848 -4.22266 -73.0293 -11.3076 -103.291 -30.1777c-14.2324 -8.87598 -26.5176 -21.0244 -33.2715 -36.582c-3.2002 -7.37207 -5.16895 -15.207 -5.30664 -23.2676c-0.0410156 -2.40039 1.00586 -17.7988 4.375 -17.9961
c13.501 -0.793945 13.7695 -13.3174 -0.000976562 -12.833c-28.6592 1.00977 -32.4062 30.8184 -24.4307 53.3896zM107.849 147.894c24.6553 14.042 48.5078 29.8193 73.1885 43.8203c-11.0322 9.94434 -23.8428 17.8135 -38.6846 22.5547
c-29.54 9.43555 -62.0654 -1.60254 -75.751 -30.4268c-5.67871 -11.957 -8.82617 -28.3213 -1.76953 -40.4727c10.0918 -17.3799 30.5938 -2.55078 43.0166 4.52441zM210.402 188.846c14.4141 -15.9824 25.5078 -35.0996 33.8145 -55.3301
c-0.84375 17.2324 -1.66895 34.4619 -2.49121 51.6855c-0.28418 5.96973 -0.568359 11.9424 -0.855469 17.915c-10.4443 -4.15039 -20.5605 -8.99805 -30.4678 -14.2705z" />
    <glyph glyph-name="G" unicode="G" horiz-adv-x="437" 
d="M85.8604 567.324c35.6475 33.0723 82.6367 63.3213 132.994 62.1494c38.2314 -0.884766 79.6826 -21.1621 85.1396 -62.5254c5.55371 -42.082 -27.084 -79.0137 -66.9531 -87.6455c-18.5703 -4.01953 -40.4443 -3.04102 -56.4775 8.18848
c-14.2012 9.94141 -20.3271 28.8115 -10.5547 43.9004c5.13184 7.92285 29.4346 4.43457 24.0625 -3.78223c-5.96582 -9.12305 -5.34375 -20.4834 2.41602 -28.5342c9.14746 -9.49121 23.9082 -9.28809 35.7344 -6.18457c19.8896 5.21875 37.166 20.9297 44.6133 39.9912
c16.0801 41.1475 -19.5732 81.9854 -62.252 70.9346c-33.5938 -8.69727 -62.4404 -34.8809 -84.6113 -60.5146c-22.3711 -25.8652 -40.2793 -55.2461 -54.2773 -86.418c-16.2578 -36.2061 -26.1465 -74.6748 -29.8779 -114.16
c-3.15039 -33.3623 -4.9541 -71.0469 6.63477 -103.156c11.3887 -31.5469 36.1348 -55.0459 72.0537 -45.5449c35.7285 9.45117 63.6279 39.0635 84.7295 67.9189c42.4355 58.0273 66.3379 126.934 104.772 187.405c1.18457 13.123 34.9004 13.4297 38.6416 1.70996
c10.6006 -33.209 16.6289 -67.0938 21.6982 -101.541c5.2002 -35.3467 10.876 -70.7344 14.1543 -106.319c6.27832 -68.1504 7.52832 -137.275 -7.72266 -204.382c-23.502 -103.406 -88.0488 -200.368 -194.733 -230.431
c-91.8555 -25.8838 -206.172 2.39648 -245.71 96.9082c-17.6738 42.251 -16.7334 90.165 6.63477 130.034c24.9434 42.5508 69.3223 76.1104 115.227 93.0996c42.8506 15.8613 94.6807 14.9453 131.709 -14.4482c34.0938 -27.0684 43.1631 -77.9326 14.1543 -112.021
c-5.50684 -6.46973 -28.1406 -2.19727 -20.4932 6.82812c34.8662 41.1543 3.13184 99.1719 -43.1729 112.523c-52.0771 15.0166 -107.895 -17.8057 -144.183 -52.9775c-31.1719 -30.2119 -50.8232 -69.8936 -46.9883 -113.957
c3.46875 -39.8564 25.0547 -78.8096 56.4297 -103.527c33.9434 -26.7432 82.7979 -37.6445 124.799 -27.4248c40.2412 9.79199 73.8535 31.6162 102.856 60.7314c66.5059 66.7656 90.8271 161.105 95.1436 252.752c4.29395 91.168 -7.97559 182.786 -15.6299 273.791
c-19.1641 -35.7939 -35.8438 -72.9229 -55.7549 -108.352c-24.0244 -42.7441 -54.4834 -87.5391 -99.166 -110.744c-37.0039 -19.2139 -84.9932 -22.958 -122.344 -2.81836c-40.2627 21.7148 -54.1895 65.5752 -56.5713 108.573
c-5.39453 97.4775 30.5059 202.828 102.875 269.969z" />
    <glyph glyph-name="H" unicode="H" horiz-adv-x="656" 
d="M-50.6758 207.05c-8.38477 93.9053 74.3252 175.737 162.23 193.536c-0.177734 48.8643 1.00098 97.7314 3.6543 146.542c1.34082 24.6367 62.9531 24.1211 62.3125 0c-1.27832 -48.2666 -1.81543 -96.5459 -1.59082 -144.822
c70.3848 -10.251 133.003 -59.3213 149.742 -131.706c2.64746 -11.4541 -30.8213 -13.6289 -33.5 0c-3.80371 19.3389 -11.9043 37.5654 -23.499 53.5166c-21.9893 30.2529 -55.7959 52.1895 -92.6367 58.9873c0.541016 -58.8652 2.29102 -117.711 5.52539 -176.504
c3.04688 -55.4023 7.46289 -110.782 12.7451 -166.016c21.0459 -1.42188 42.1006 -1.03418 62.4873 0.87207c57.5244 5.38184 113.911 22.6084 164.388 50.5234c-1.10938 5.35059 -2.1748 10.6201 -3.1875 15.749c-20.9453 106.047 -25.9268 221.157 -9.28418 328.198
c15.0791 97.0029 53.458 204.066 131.206 268.932c35.1318 29.3086 91.918 45.2354 133.753 20.4424c37.0098 -21.9365 46.2354 -70.0938 46.3037 -109.757c0.0996094 -57.5928 -13.0293 -114.438 -29.959 -169.185c-15.6953 -50.7676 -34.0029 -101.022 -57.249 -148.852
c-36.1689 -74.4189 -85.8984 -141.403 -152.158 -189.745c1.79688 -10.5107 3.72852 -20.9902 5.84766 -31.4131c9.33203 -45.9014 20.1328 -95.0586 40.5439 -137.5c18.0391 -37.5068 52.6797 -79.9512 99.1436 -56.3369
c6.77539 3.44434 26.8926 -2.52832 15.5732 -8.87598c-18.2832 -10.2539 -38.791 -13.2666 -59.4863 -10.4131c-99.9375 13.7705 -137.075 121.131 -157.133 210.599c-69.8779 -35.375 -150.604 -53.1143 -229.252 -48.3105
c5.44727 -50.0674 14.042 -101.369 10.5225 -151.327c-0.84375 -12.001 -24.8271 -10.4316 -29.543 -2.27734c-13.5664 23.4619 -19.3389 48.7959 -24.4707 75.3262c-5.47559 28.3027 -10.1855 56.6426 -14.2676 85.1797
c-0.0439453 0.299805 -0.0810547 0.602539 -0.125 0.902344c-86.5518 18.8232 -180.042 77.4814 -188.637 173.734zM467.331 361.767c-4.66895 -77.1006 -1.65332 -155.628 9.79492 -232.356c6.76953 5.41895 13.4141 11.001 19.8145 16.8857
c66.7686 61.3867 110.025 143.275 141.909 227.127c17.3516 45.6416 32.6377 92.5898 42.9014 140.363c9.47559 44.1045 16.417 92.3281 8.43848 137.235c-7.00098 39.4102 -41.0381 88.793 -86.5176 60.4561c-35.0439 -21.833 -58.6807 -61.5801 -76.8789 -97.4805
c-39.4189 -77.7607 -54.2363 -165.979 -59.4619 -252.23zM56.4053 351.989c-36.6787 -26.5996 -65.8467 -67.9141 -74.126 -112.871c-8.5791 -46.5732 6.09082 -90.6836 38.2559 -125.012c31.0088 -33.0908 71.6035 -53.5615 115.161 -64.4531
c-6.93164 51.1387 -12.2324 102.415 -16.167 153.889c-4.47266 58.4932 -7.11328 117.117 -7.80664 175.757c-19.8828 -5.75391 -38.7812 -15.3174 -55.3174 -27.3096z" />
    <glyph glyph-name="I" unicode="I" horiz-adv-x="368" 
d="M-22.4854 519.9c0.299805 84.9395 70.0586 174.619 152.76 195.262c40.707 10.1572 84.2734 1.9502 116.229 -25.9619c30.4463 -26.5928 44.5508 -67.4121 52.458 -105.888c10.5264 -51.2266 12.2578 -104.941 12.627 -157.09
c0.393555 -55.5049 -1.83203 -111.004 -3.94434 -166.456c-2.06934 -54.2803 -3.31348 -108.566 -1.73535 -162.875c1.38184 -47.5049 6.95117 -94.165 13.3232 -141.069c36.7412 -1.49414 73.4697 -3.17871 110.139 0.953125
c11.6982 1.31543 22.0898 -11.2549 6.31055 -13.0459c-38.1973 -4.33203 -76.3506 -2.94141 -114.566 -1.56641c0.287109 -2.0752 0.568359 -4.14746 0.855469 -6.22266c3.31641 -23.8428 -60.79 -26.4775 -66.4717 -5.12891
c-1.10645 4.15039 -2.1377 8.31641 -3.13477 12.4922c-18.3545 -0.431641 -36.6719 -1.80078 -54.7734 -5.08887c-21.9678 -3.99121 -53.3203 -9.34766 -61.7461 -33.3184c-2.7998 -7.9668 -25.4395 -5.98242 -22.1797 3.48438
c7.06934 20.543 28.2402 29.6748 47.5762 35.541c27.0459 8.2041 55.2324 11.6455 83.3975 12.8047c1.55664 0.0625 3.11328 0.0878906 4.66992 0.137695c-20.0332 94.7686 -14.7168 195.24 -9.42578 291.012c5.14453 93.0771 12.8574 185.833 12.2227 279.123
c-0.458984 67.6904 1.06641 192.655 -100.627 179.092c-41.7256 -5.56641 -77.6885 -34.5908 -104.098 -65.8408c-26.7217 -31.6152 -45.5674 -71.3662 -47.5488 -113.12c-1.89355 -39.9316 11.1104 -81.8477 40.5283 -109.869
c29.0898 -27.709 71.8066 -38.1475 109.311 -22.5303c8.56348 3.56641 24.6807 -5.36914 11.2393 -10.96c-41.0537 -17.0801 -89.9736 -10.0205 -125.89 15.7783c-38.1504 27.4023 -57.668 74.1006 -57.5059 120.352z" />
    <glyph glyph-name="I" unicode="&#xcf;" horiz-adv-x="368" 
d="M-22.4854 519.9c0.299805 84.9395 70.0586 174.619 152.76 195.262c40.707 10.1572 84.2734 1.9502 116.229 -25.9619c30.4463 -26.5928 44.5508 -67.4121 52.458 -105.888c10.5264 -51.2266 12.2578 -104.941 12.627 -157.09
c0.393555 -55.5049 -1.83203 -111.004 -3.94434 -166.456c-2.06934 -54.2803 -3.31348 -108.566 -1.73535 -162.875c1.38184 -47.5049 6.95117 -94.165 13.3232 -141.069c36.7412 -1.49414 73.4697 -3.17871 110.139 0.953125
c11.6982 1.31543 22.0898 -11.2549 6.31055 -13.0459c-38.1973 -4.33203 -76.3506 -2.94141 -114.566 -1.56641c0.287109 -2.0752 0.568359 -4.14746 0.855469 -6.22266c3.31641 -23.8428 -60.79 -26.4775 -66.4717 -5.12891
c-1.10645 4.15039 -2.1377 8.31641 -3.13477 12.4922c-18.3545 -0.431641 -36.6719 -1.80078 -54.7734 -5.08887c-21.9678 -3.99121 -53.3203 -9.34766 -61.7461 -33.3184c-2.7998 -7.9668 -25.4395 -5.98242 -22.1797 3.48438
c7.06934 20.543 28.2402 29.6748 47.5762 35.541c27.0459 8.2041 55.2324 11.6455 83.3975 12.8047c1.55664 0.0625 3.11328 0.0878906 4.66992 0.137695c-20.0332 94.7686 -14.7168 195.24 -9.42578 291.012c5.14453 93.0771 12.8574 185.833 12.2227 279.123
c-0.458984 67.6904 1.06641 192.655 -100.627 179.092c-41.7256 -5.56641 -77.6885 -34.5908 -104.098 -65.8408c-26.7217 -31.6152 -45.5674 -71.3662 -47.5488 -113.12c-1.89355 -39.9316 11.1104 -81.8477 40.5283 -109.869
c29.0898 -27.709 71.8066 -38.1475 109.311 -22.5303c8.56348 3.56641 24.6807 -5.36914 11.2393 -10.96c-41.0537 -17.0801 -89.9736 -10.0205 -125.89 15.7783c-38.1504 27.4023 -57.668 74.1006 -57.5059 120.352z" />
    <glyph glyph-name="I" unicode="&#xce;" horiz-adv-x="368" 
d="M-22.4854 519.9c0.299805 84.9395 70.0586 174.619 152.76 195.262c40.707 10.1572 84.2734 1.9502 116.229 -25.9619c30.4463 -26.5928 44.5508 -67.4121 52.458 -105.888c10.5264 -51.2266 12.2578 -104.941 12.627 -157.09
c0.393555 -55.5049 -1.83203 -111.004 -3.94434 -166.456c-2.06934 -54.2803 -3.31348 -108.566 -1.73535 -162.875c1.38184 -47.5049 6.95117 -94.165 13.3232 -141.069c36.7412 -1.49414 73.4697 -3.17871 110.139 0.953125
c11.6982 1.31543 22.0898 -11.2549 6.31055 -13.0459c-38.1973 -4.33203 -76.3506 -2.94141 -114.566 -1.56641c0.287109 -2.0752 0.568359 -4.14746 0.855469 -6.22266c3.31641 -23.8428 -60.79 -26.4775 -66.4717 -5.12891
c-1.10645 4.15039 -2.1377 8.31641 -3.13477 12.4922c-18.3545 -0.431641 -36.6719 -1.80078 -54.7734 -5.08887c-21.9678 -3.99121 -53.3203 -9.34766 -61.7461 -33.3184c-2.7998 -7.9668 -25.4395 -5.98242 -22.1797 3.48438
c7.06934 20.543 28.2402 29.6748 47.5762 35.541c27.0459 8.2041 55.2324 11.6455 83.3975 12.8047c1.55664 0.0625 3.11328 0.0878906 4.66992 0.137695c-20.0332 94.7686 -14.7168 195.24 -9.42578 291.012c5.14453 93.0771 12.8574 185.833 12.2227 279.123
c-0.458984 67.6904 1.06641 192.655 -100.627 179.092c-41.7256 -5.56641 -77.6885 -34.5908 -104.098 -65.8408c-26.7217 -31.6152 -45.5674 -71.3662 -47.5488 -113.12c-1.89355 -39.9316 11.1104 -81.8477 40.5283 -109.869
c29.0898 -27.709 71.8066 -38.1475 109.311 -22.5303c8.56348 3.56641 24.6807 -5.36914 11.2393 -10.96c-41.0537 -17.0801 -89.9736 -10.0205 -125.89 15.7783c-38.1504 27.4023 -57.668 74.1006 -57.5059 120.352z" />
    <glyph glyph-name="I" unicode="&#xcd;" horiz-adv-x="368" 
d="M-22.4854 519.9c0.299805 84.9395 70.0586 174.619 152.76 195.262c40.707 10.1572 84.2734 1.9502 116.229 -25.9619c30.4463 -26.5928 44.5508 -67.4121 52.458 -105.888c10.5264 -51.2266 12.2578 -104.941 12.627 -157.09
c0.393555 -55.5049 -1.83203 -111.004 -3.94434 -166.456c-2.06934 -54.2803 -3.31348 -108.566 -1.73535 -162.875c1.38184 -47.5049 6.95117 -94.165 13.3232 -141.069c36.7412 -1.49414 73.4697 -3.17871 110.139 0.953125
c11.6982 1.31543 22.0898 -11.2549 6.31055 -13.0459c-38.1973 -4.33203 -76.3506 -2.94141 -114.566 -1.56641c0.287109 -2.0752 0.568359 -4.14746 0.855469 -6.22266c3.31641 -23.8428 -60.79 -26.4775 -66.4717 -5.12891
c-1.10645 4.15039 -2.1377 8.31641 -3.13477 12.4922c-18.3545 -0.431641 -36.6719 -1.80078 -54.7734 -5.08887c-21.9678 -3.99121 -53.3203 -9.34766 -61.7461 -33.3184c-2.7998 -7.9668 -25.4395 -5.98242 -22.1797 3.48438
c7.06934 20.543 28.2402 29.6748 47.5762 35.541c27.0459 8.2041 55.2324 11.6455 83.3975 12.8047c1.55664 0.0625 3.11328 0.0878906 4.66992 0.137695c-20.0332 94.7686 -14.7168 195.24 -9.42578 291.012c5.14453 93.0771 12.8574 185.833 12.2227 279.123
c-0.458984 67.6904 1.06641 192.655 -100.627 179.092c-41.7256 -5.56641 -77.6885 -34.5908 -104.098 -65.8408c-26.7217 -31.6152 -45.5674 -71.3662 -47.5488 -113.12c-1.89355 -39.9316 11.1104 -81.8477 40.5283 -109.869
c29.0898 -27.709 71.8066 -38.1475 109.311 -22.5303c8.56348 3.56641 24.6807 -5.36914 11.2393 -10.96c-41.0537 -17.0801 -89.9736 -10.0205 -125.89 15.7783c-38.1504 27.4023 -57.668 74.1006 -57.5059 120.352z" />
    <glyph glyph-name="J" unicode="J" horiz-adv-x="530" 
d="M109.372 296.39c-51.4238 -3.13477 -116.434 16.5264 -138.339 67.8467c-26.7305 62.6123 33.4531 99.5498 83.6426 117.692c67.6777 24.4619 140.088 35.6533 205.56 66.2686c58.3115 27.2686 116.438 72.8789 149.072 129.331
c4.72266 8.16992 30.2812 11.7168 33.2686 0c19.1738 -75.1914 25.5088 -151.32 30.9346 -228.509c5.41309 -76.9727 9.82617 -154.708 6.04102 -231.859c-3.1377 -63.9434 -10.9697 -129.937 -38.1758 -188.623c-23.1055 -49.8389 -63.0869 -92.3457 -111.798 -117.867
c-96.1182 -50.3613 -239.604 -29.0625 -279.254 84.1982c-34.9004 99.7002 49.5322 219.702 157.242 211.089c41.9131 -3.35059 103.278 -33.7939 96.1992 -84.6895c-7.41016 -53.2676 -71.9854 -78.5664 -115.949 -93.124
c-9.35059 -3.09668 -26.9678 7.00098 -12.1006 11.8018c42.251 13.6455 131.65 51.043 99.7666 110.992c-27.7559 52.1895 -99.6592 51.127 -142.345 20.543c-40.082 -28.7148 -65.7939 -79.3008 -65.2412 -128.574c0.509766 -45.6484 26.9248 -88.5459 65.2129 -112.745
c41.4102 -26.1709 93.2588 -27.2402 137.619 -7.47949c40.3164 17.9609 72.4033 51.7324 94.4707 89.3857c55.1738 94.1396 53.6455 212.163 52.0293 317.938c-1.54102 100.737 -5.71289 201.412 -7.79785 302.134c-31.2656 -34.75 -66.1562 -64.5742 -109.054 -87.0361
c-55.9336 -29.2871 -117.677 -42.9912 -178.079 -59.7021c-45.1387 -12.4883 -130.415 -29.1025 -133.04 -89.0586c-2.69727 -61.54 69.5439 -90.7334 121.233 -86.3857c51.2422 4.3125 98.7842 34.1367 124.349 78.7373c4.34375 7.5791 27.1055 4.7041 22.4141 -3.52148
c-30.1807 -52.9268 -87.6172 -85.1074 -147.882 -88.7832z" />
    <glyph glyph-name="K" unicode="K" horiz-adv-x="544" 
d="M-0.390625 322.058c28.8906 5.28809 57.1465 -3.02637 82.6084 -16.4023c39.1914 -20.5898 69.9502 -52.4053 101.719 -82.8926c-0.43457 7.92578 -0.900391 15.8516 -1.29688 23.7832c-6.24707 124.614 -9.64746 250.357 -3.05957 375.025
c1.3623 25.8027 65.5742 25.5029 65.4834 0.000976562c-0.43457 -124.071 -1.94727 -247.893 2.97852 -371.929c0.72168 -18.1357 1.56836 -36.2656 2.46484 -54.3955c34.5215 13.3105 67.1123 30.7559 94.877 48.4854c46.8945 29.9463 87.8516 66.6152 124.699 108.185
c40.1377 45.2852 74.8037 98.9775 86.9521 159.102c10.4326 51.6299 1.87891 108.998 -33.6904 149.651c-35.6064 40.6973 -90.6523 49.9639 -138.517 25.3271c-47.9014 -24.6523 -83.2236 -82.752 -66.0469 -137.082c19.2334 -60.834 86.3525 -80.9111 143.451 -84.3174
c13.9424 -0.833984 14.208 -13.8477 0 -13.251c-68.3691 2.86621 -154.668 27.6377 -170.436 105.095c-14.1641 69.585 41.6885 133.772 105.735 151.646c55.3271 15.4385 115.13 0.527344 151.546 -45.2959c40.1064 -50.4668 44.7695 -116.964 26.5273 -177.076
c-19.7207 -64.9775 -61.7656 -127.033 -108.61 -175.685c-46.2949 -48.083 -101.394 -87.7715 -161.834 -116.118c-16.2549 -7.62305 -33.0283 -14.6357 -50.1709 -20.6895c4.29395 -4.50977 8.2041 -9.47852 12.3672 -14.623
c10.8418 -13.4014 22.3115 -26.3057 33.4658 -39.4473c22.3711 -26.3623 42.5889 -54.7051 64.0254 -81.8389c37.2227 -47.1172 76.5137 -92.7744 118.911 -135.338c38.9004 -39.0508 81.3203 -76.9297 132.354 -99.2627c25.415 -11.123 56.4746 -19.4209 83.4307 -8.64453
c22.6396 9.05078 42.2793 31.7939 44.7578 56.4805c2.53418 25.2646 -13.8584 47.5859 -35.6543 58.6777c-27.9717 14.2354 -60.5273 6.15332 -89.5928 0.0625c-11.4512 -2.40039 -29.4502 9.78223 -11.9678 16.1797c57.6055 21.0771 162.521 17.2607 173.476 -61.8525
c8.91309 -64.3652 -62.6777 -100.009 -116.611 -98.7588c-69.6904 1.61621 -133.483 41.0137 -185.522 84.293c-53.3486 44.3662 -99.8027 98.6338 -142.413 153.146c-22.1768 28.3711 -43.2314 57.7363 -61.5391 88.7646
c-7.9541 13.4795 -14.5547 27.4805 -20.7275 41.8008c1.22168 -22.6963 2.4502 -45.3955 3.60059 -68.0947c3.06934 -60.5684 11.0947 -124.434 1.28711 -184.602c-2.24707 -13.7891 -35.2725 -16.6768 -39.376 -3.03809c-17.752 59.002 -19.0742 123.471 -24.1904 184.558
c-2.61914 31.2627 -4.98145 62.5371 -7.08496 93.8311c-31.6182 -5.35645 -63.8145 -6.26855 -95.7646 -0.755859c-32.7627 5.65332 -64.5527 17.7422 -91.499 37.4033c-24.6895 18.0146 -50.1543 45.3516 -50.917 77.8574
c-0.65625 27.9434 24.2871 47.3643 49.8047 52.0361zM186.655 176.556c-0.369141 5.81934 -0.75293 11.6348 -1.10254 17.4541c-38.3633 34.0156 -72.166 74.0479 -117.286 99.0498c-19.5615 10.8389 -60.3369 27.5 -76.0723 1.73242
c-17.002 -27.8398 6.16309 -62.1963 26.4521 -80.4668c47.5449 -42.8164 108.057 -49.3545 168.009 -37.7695z" />
    <glyph glyph-name="L" unicode="L" horiz-adv-x="202" 
d="M35.4385 583.81c26.9775 49.8926 65.7051 96.5723 117.626 121.668c50.5918 24.4619 110.016 28.2061 159.783 -0.387695c93.374 -53.6455 100.277 -185.607 21.8857 -256.045c-35.7783 -32.1494 -91.9863 -52.6768 -138.769 -33.2812
c-51.9951 21.5586 -41.3438 80.4795 -14.0479 117.939c5.49707 7.54785 29.9805 4.19434 24.2959 -3.81934c-14.4326 -20.3428 -27.4365 -47.3955 -21.0518 -72.8975c7.69434 -30.7344 40.6943 -37.7627 68.1035 -32.3311c55.0986 10.9131 96.4834 61.499 107.635 114.876
c9.63184 46.1074 -2.94141 93.8184 -36.2256 127.562c-34.9033 35.3848 -84.1357 44.9697 -129.649 24.543c-44.8633 -20.1367 -75.5225 -62.0059 -97.2217 -104.647c-23.3867 -45.9609 -36.9727 -96.2754 -46.3584 -146.768
c-41.123 -221.195 -7.86035 -447.704 11.1504 -669.394c44.7012 19.2549 87.6553 42.3008 131.797 62.7715c41.1416 19.0801 85.6797 38.957 132.062 37.3721c34.9473 -1.19434 72.4473 -14.0361 90.4111 -45.9668c4.78809 -8.51367 -17.7549 -10.3291 -22.1807 -3.48438
c-30.3125 46.8984 -94.665 30.1348 -137.109 13.0703c-95.0586 -38.2158 -180.788 -97.6182 -282.494 -118.82c-46.7197 -9.73828 -94.5957 -3.23145 -131.568 28.6055c-34.4404 29.6562 -52.0986 75.1104 -51.9951 119.937c0.0341797 15.3984 35.9346 14.5605 38.3818 0
c8.36035 -49.748 28.0117 -107.106 80.3701 -125.648c24.0742 -8.52539 50.5234 -2.65625 74.3291 3.99121c11.4355 3.19434 22.7393 6.82617 33.9307 10.7832c-0.234375 0.568359 -0.431641 1.14941 -0.566406 1.75586c-33.2783 149.849 -49.3174 305.235 -48.499 458.734
c0.65918 123.562 5.90332 258.786 65.9746 369.881z" />
    <glyph glyph-name="M" unicode="M" horiz-adv-x="889" 
d="M115.301 187.069c49.2607 -3.76562 99.4912 -42.6299 89.7305 -96.835c-1.57227 -8.7168 -23.1709 -7.81055 -21.7803 0c5.36328 30.1562 -10.5068 60.4775 -37.3936 74.9668c-31.8096 17.1426 -71.2129 9.6416 -101.669 -6.79395
c-49.542 -26.7373 -82.5791 -79.0645 -93.6924 -133.416c-11.2295 -54.9209 -1.76953 -118.955 38.0029 -160.734c19.583 -20.5703 45.6543 -35.0752 74.4443 -36.1133c31.1562 -1.12207 62.1436 12.2256 86.415 31.0742c44.8135 34.7998 71.9971 87.7734 95.3184 138.244
c25.5117 55.2148 45.6826 112.717 63.5254 170.812c35.4873 115.542 61.1396 234.619 104.938 347.495c12.8916 33.2188 47.6045 116.651 96.4463 79.585c10.9727 -8.3291 17.4795 -21.0615 24.168 -32.7441c7.57617 -13.2295 14.4893 -26.6904 21.0957 -40.4297
c10.585 -22.0146 19.998 -44.5039 28.5771 -67.3408c22.3174 46.873 48.707 91.7178 79.2783 133.747c14.8828 20.458 30.3057 45.0537 54.3203 55.6172c18.5547 8.16016 42.6631 8.17578 58.1797 -6.40039c17.002 -15.9736 26.8809 -42.1074 32.7969 -63.9033
c7.26953 -26.7842 10.8604 -54.9932 12.8135 -82.627c4.16895 -58.9746 0.196289 -118.174 -2.45703 -177.136c-5.22852 -116.073 -8.14746 -234.25 9.81348 -349.433c8.30371 -53.2676 21.958 -105.226 43.0664 -154.89c18.4326 -43.3662 44.126 -93.4648 85.8584 -118.664
c19.6738 -11.8789 47.1611 -19.1572 69.1064 -9.20312c20.9141 9.48828 36.459 27.918 44.6719 49.0889c17.4297 44.9326 -13.7354 99.6191 -60.4492 109.423c-16.5986 3.48145 -5.81934 16.623 6.7627 13.9824c46.6699 -9.79492 86.7607 -49.9609 85.542 -99.7559
c-1.23145 -50.3486 -41.1191 -91.8936 -89.7393 -100.973c-53.2988 -9.95117 -108.607 17.8604 -144.595 55.4893c-37.5879 39.2979 -63.5967 90.0371 -80.7793 141.22c-37.1318 110.61 -40.542 231.381 -36.5693 346.951c2.14355 62.3311 7.07812 124.405 12.6602 186.505
c5.41895 60.2773 10.7383 120.695 5.85938 181.179c-1.17188 14.5049 -2.49414 28.8936 -3.02832 43.3447c-0.543945 14.6299 -11.1172 29.9941 -27.459 28.5625c-15.8984 -1.39355 -28.7188 -17.4482 -37.9629 -28.9209
c-9.47852 -11.7637 -18.3574 -24.043 -27.0049 -36.4258c-31.8125 -45.5605 -58.8154 -94.2305 -81.1553 -145.085c0.299805 -18.3301 -46.1768 -21.1768 -51.6426 -4.02539c-11.9922 37.6318 -25.1523 74.9043 -39.0225 111.883
c-3.42578 9.12891 -6.56055 18.3643 -9.93555 27.5146c-2.27832 6.17871 -3.85938 17.2324 -8.11621 22.377c-1.16309 4.69434 -2.7793 5.40723 -4.85156 2.13867c-1.90625 -1.73438 -3.72168 -3.55957 -5.44727 -5.47559
c-2.96289 -3.30664 -5.65332 -7.16016 -8.10352 -10.7637c-5.07227 -7.4541 -9.55664 -15.3047 -13.6699 -23.3242c-32.75 -63.8594 -50.749 -137.241 -70.2354 -205.982c-35.7314 -126.033 -67.2402 -254.654 -126.265 -372.378
c-25.9961 -51.8545 -58.8398 -104.412 -111.176 -133.049c-47.6514 -26.0742 -107.129 -29.4932 -153.064 2.19727c-94.0059 64.8525 -83.2988 209.525 -14.4238 288.393c34.1152 39.0635 85.6885 65.0537 138.297 61.0312z" />
    <glyph glyph-name="N" unicode="N" horiz-adv-x="849" 
d="M219.209 452.563c-50.1074 -83.5176 -178.446 -83.7871 -226.329 2.4082c-45.876 82.5947 17.2236 193.802 88.7363 239.453c36.2686 23.1523 81.1543 32.9531 123.652 25.1523c42.7637 -7.84766 76.7012 -34.2031 100.694 -69.8193
c25.9619 -38.5439 36.6533 -84.2324 45.2139 -129.239c10.8008 -56.7861 16.751 -114.135 21.5234 -171.696c8.04785 -97.0557 11.9951 -194.418 21.9336 -291.289c42.6416 138.788 87.5234 277.379 150.636 408.366c14.7705 30.6621 30.9473 60.7559 51.3926 88.0557
c16.6016 22.165 37.3975 45.0264 66.2656 49.4053c64.875 9.8418 86.1367 -69.125 95.416 -117.208c14.1484 -73.3008 14.0361 -149.983 16.002 -224.375c1.99121 -75.3379 3.55371 -150.848 9.62891 -225.992c5.59082 -69.1406 13.3945 -140.069 35.2217 -206.241
c18.3799 -55.7178 52.1426 -123.796 110.048 -147.217c63.0898 -25.5146 114.557 39.498 119.501 97.3662c2.10645 24.6582 -3.51562 54.0293 -25.6582 68.5684c-30.0498 19.7334 -70.3252 -1.16895 -97.6367 -16.3643c-7.82227 -4.35352 -30.2559 2.90625 -17.6455 10.0566
c29.2529 16.5889 62.3682 31.3281 96.793 28.5c29.9336 -2.45996 56.5957 -19.793 67.8057 -48.1582c22.7588 -57.583 -8.11328 -133.702 -63.8408 -159.474c-63.4404 -29.3398 -138.903 -1.49707 -184.302 47.0791c-46.8232 50.1016 -70.6221 115.464 -83.9014 181.667
c-30.7559 153.333 -25.2178 312.589 -25.2363 468.116c-0.00292969 39.1504 0.494141 78.4727 -1.39648 117.579c-1.51562 31.3438 -1.26855 71.9971 -20.0391 98.8867c-43.626 62.4961 -123.843 -110.798 -137.325 -140.119
c-64.2432 -139.735 -109.876 -287.024 -155.337 -433.66c0.15332 -1.18457 0.291016 -2.36621 0.447266 -3.54785c1.8623 -14.0674 -23.374 -18.3867 -32.2529 -18.3867c-12.4072 0 -29.915 4.13184 -32.2529 18.3867c-17.9639 109.607 -19.7607 221.043 -22.8672 331.854
c-1.35645 48.3105 -3.62207 96.5713 -6.56934 144.811c-2.64062 43.2539 -5.29688 87.4951 -15.6943 129.728c-8.99414 36.5469 -25.9053 71.3438 -60.3301 89.8145c-37.5068 20.1211 -83.7207 16.4834 -120.611 -3.08691
c-70.0186 -37.1406 -130.924 -137.525 -102.149 -217.308c12.7666 -35.4033 44.7695 -64.209 82.2109 -70.7002c41.9629 -7.27539 83.8359 16.7705 105.132 52.2646c4.64746 7.74414 28.0869 4.64355 23.1211 -3.63574z" />
    <glyph glyph-name="O" unicode="O" horiz-adv-x="654" 
d="M539.783 -24.4316c-57.8145 -98.5312 -164.212 -167.845 -281.548 -154.466c-55.3271 6.30957 -106.673 34 -143.695 75.3789c-33.3184 37.2383 -51.6611 88.3398 -59.2646 137.291c-4.81934 31.0156 -3.86035 63.2588 2.65918 94.2148
c-63.7773 58.6865 -97.5371 148.18 -90.8682 234.601c8.45117 109.501 74.6885 210.741 166.757 268.987c94.2744 59.6426 220.655 69.4717 313.945 2.32129c96.2617 -69.2881 141.203 -187.918 155.57 -301.694c15.0391 -119.108 -2.04395 -251.802 -63.5557 -356.634z
M145.112 -74.3848c29.7275 -34.1279 69.6182 -61.9043 115.182 -68.4766c41.7168 -6.0166 83.9238 6.05664 120.033 26.709c83.8418 47.9512 129.803 142.285 153.846 232.3c28.2373 105.723 31.1504 219.739 6.29785 326.377
c-22.6494 97.1836 -80.833 188.896 -181.945 216.798c-103.45 28.5498 -210.645 -21.917 -279.854 -98.127c-64.6533 -71.1943 -101.322 -170.088 -86.0674 -266.315c8.57227 -54.0898 33.4121 -105.97 70.8184 -145.549c17.8857 59.4307 57.0518 111.626 115.948 137.416
c37.2539 16.3105 92.0244 22.7334 123.309 -9.63867c15.7607 -16.3076 17.6797 -39.8818 8.85742 -60.2432c-10.7324 -24.7676 -33.5781 -41.1973 -56.29 -54.1455c-7.1377 -4.06934 -20.9736 -4.92871 -27.5459 1.06543c-7.06641 6.44434 -2.61328 12.6045 5.17773 15.4609
c25.1426 9.21973 51.6699 22.4082 59.5928 50.2422c6.88184 24.1768 -7.38477 45.7598 -30.1152 53.6016c-22.2207 7.66602 -46.5547 2.75977 -67.5439 -6.39062c-42.9043 -18.7051 -75.4541 -57.5967 -93.5527 -100.004
c-6.75098 -15.8145 -11.5322 -32.2754 -14.5137 -49.0459c20.3984 -16.6328 43.5566 -29.9463 69.084 -38.7568c94.6025 -32.6436 196.946 2.23145 250.583 86.7051c4.72559 7.44141 27.6436 4.37891 22.6494 -3.55957
c-14.9951 -23.8398 -33.2627 -45.4141 -55.7246 -62.5566c-78.457 -59.874 -195.524 -61.918 -278.473 -9.79102c-3.70312 2.3252 -7.30957 4.77832 -10.8691 7.28516c-1.75684 -19.7334 -1.1416 -39.707 1.71191 -59.418
c3.36328 -23.2178 10.2041 -45.3857 20.1797 -66.6064c9.94141 -21.1426 23.9863 -37.8408 39.2256 -55.3359z" />
    <glyph glyph-name="O" unicode="&#xd6;" horiz-adv-x="654" 
d="M539.783 -24.4316c-57.8145 -98.5312 -164.212 -167.845 -281.548 -154.466c-55.3271 6.30957 -106.673 34 -143.695 75.3789c-33.3184 37.2383 -51.6611 88.3398 -59.2646 137.291c-4.81934 31.0156 -3.86035 63.2588 2.65918 94.2148
c-63.7773 58.6865 -97.5371 148.18 -90.8682 234.601c8.45117 109.501 74.6885 210.741 166.757 268.987c94.2744 59.6426 220.655 69.4717 313.945 2.32129c96.2617 -69.2881 141.203 -187.918 155.57 -301.694c15.0391 -119.108 -2.04395 -251.802 -63.5557 -356.634z
M145.112 -74.3848c29.7275 -34.1279 69.6182 -61.9043 115.182 -68.4766c41.7168 -6.0166 83.9238 6.05664 120.033 26.709c83.8418 47.9512 129.803 142.285 153.846 232.3c28.2373 105.723 31.1504 219.739 6.29785 326.377
c-22.6494 97.1836 -80.833 188.896 -181.945 216.798c-103.45 28.5498 -210.645 -21.917 -279.854 -98.127c-64.6533 -71.1943 -101.322 -170.088 -86.0674 -266.315c8.57227 -54.0898 33.4121 -105.97 70.8184 -145.549c17.8857 59.4307 57.0518 111.626 115.948 137.416
c37.2539 16.3105 92.0244 22.7334 123.309 -9.63867c15.7607 -16.3076 17.6797 -39.8818 8.85742 -60.2432c-10.7324 -24.7676 -33.5781 -41.1973 -56.29 -54.1455c-7.1377 -4.06934 -20.9736 -4.92871 -27.5459 1.06543c-7.06641 6.44434 -2.61328 12.6045 5.17773 15.4609
c25.1426 9.21973 51.6699 22.4082 59.5928 50.2422c6.88184 24.1768 -7.38477 45.7598 -30.1152 53.6016c-22.2207 7.66602 -46.5547 2.75977 -67.5439 -6.39062c-42.9043 -18.7051 -75.4541 -57.5967 -93.5527 -100.004
c-6.75098 -15.8145 -11.5322 -32.2754 -14.5137 -49.0459c20.3984 -16.6328 43.5566 -29.9463 69.084 -38.7568c94.6025 -32.6436 196.946 2.23145 250.583 86.7051c4.72559 7.44141 27.6436 4.37891 22.6494 -3.55957
c-14.9951 -23.8398 -33.2627 -45.4141 -55.7246 -62.5566c-78.457 -59.874 -195.524 -61.918 -278.473 -9.79102c-3.70312 2.3252 -7.30957 4.77832 -10.8691 7.28516c-1.75684 -19.7334 -1.1416 -39.707 1.71191 -59.418
c3.36328 -23.2178 10.2041 -45.3857 20.1797 -66.6064c9.94141 -21.1426 23.9863 -37.8408 39.2256 -55.3359z" />
    <glyph glyph-name="O" unicode="&#xd5;" horiz-adv-x="654" 
d="M539.783 -24.4316c-57.8145 -98.5312 -164.212 -167.845 -281.548 -154.466c-55.3271 6.30957 -106.673 34 -143.695 75.3789c-33.3184 37.2383 -51.6611 88.3398 -59.2646 137.291c-4.81934 31.0156 -3.86035 63.2588 2.65918 94.2148
c-63.7773 58.6865 -97.5371 148.18 -90.8682 234.601c8.45117 109.501 74.6885 210.741 166.757 268.987c94.2744 59.6426 220.655 69.4717 313.945 2.32129c96.2617 -69.2881 141.203 -187.918 155.57 -301.694c15.0391 -119.108 -2.04395 -251.802 -63.5557 -356.634z
M145.112 -74.3848c29.7275 -34.1279 69.6182 -61.9043 115.182 -68.4766c41.7168 -6.0166 83.9238 6.05664 120.033 26.709c83.8418 47.9512 129.803 142.285 153.846 232.3c28.2373 105.723 31.1504 219.739 6.29785 326.377
c-22.6494 97.1836 -80.833 188.896 -181.945 216.798c-103.45 28.5498 -210.645 -21.917 -279.854 -98.127c-64.6533 -71.1943 -101.322 -170.088 -86.0674 -266.315c8.57227 -54.0898 33.4121 -105.97 70.8184 -145.549c17.8857 59.4307 57.0518 111.626 115.948 137.416
c37.2539 16.3105 92.0244 22.7334 123.309 -9.63867c15.7607 -16.3076 17.6797 -39.8818 8.85742 -60.2432c-10.7324 -24.7676 -33.5781 -41.1973 -56.29 -54.1455c-7.1377 -4.06934 -20.9736 -4.92871 -27.5459 1.06543c-7.06641 6.44434 -2.61328 12.6045 5.17773 15.4609
c25.1426 9.21973 51.6699 22.4082 59.5928 50.2422c6.88184 24.1768 -7.38477 45.7598 -30.1152 53.6016c-22.2207 7.66602 -46.5547 2.75977 -67.5439 -6.39062c-42.9043 -18.7051 -75.4541 -57.5967 -93.5527 -100.004
c-6.75098 -15.8145 -11.5322 -32.2754 -14.5137 -49.0459c20.3984 -16.6328 43.5566 -29.9463 69.084 -38.7568c94.6025 -32.6436 196.946 2.23145 250.583 86.7051c4.72559 7.44141 27.6436 4.37891 22.6494 -3.55957
c-14.9951 -23.8398 -33.2627 -45.4141 -55.7246 -62.5566c-78.457 -59.874 -195.524 -61.918 -278.473 -9.79102c-3.70312 2.3252 -7.30957 4.77832 -10.8691 7.28516c-1.75684 -19.7334 -1.1416 -39.707 1.71191 -59.418
c3.36328 -23.2178 10.2041 -45.3857 20.1797 -66.6064c9.94141 -21.1426 23.9863 -37.8408 39.2256 -55.3359z" />
    <glyph glyph-name="O" unicode="&#xd4;" horiz-adv-x="654" 
d="M539.783 -24.4316c-57.8145 -98.5312 -164.212 -167.845 -281.548 -154.466c-55.3271 6.30957 -106.673 34 -143.695 75.3789c-33.3184 37.2383 -51.6611 88.3398 -59.2646 137.291c-4.81934 31.0156 -3.86035 63.2588 2.65918 94.2148
c-63.7773 58.6865 -97.5371 148.18 -90.8682 234.601c8.45117 109.501 74.6885 210.741 166.757 268.987c94.2744 59.6426 220.655 69.4717 313.945 2.32129c96.2617 -69.2881 141.203 -187.918 155.57 -301.694c15.0391 -119.108 -2.04395 -251.802 -63.5557 -356.634z
M145.112 -74.3848c29.7275 -34.1279 69.6182 -61.9043 115.182 -68.4766c41.7168 -6.0166 83.9238 6.05664 120.033 26.709c83.8418 47.9512 129.803 142.285 153.846 232.3c28.2373 105.723 31.1504 219.739 6.29785 326.377
c-22.6494 97.1836 -80.833 188.896 -181.945 216.798c-103.45 28.5498 -210.645 -21.917 -279.854 -98.127c-64.6533 -71.1943 -101.322 -170.088 -86.0674 -266.315c8.57227 -54.0898 33.4121 -105.97 70.8184 -145.549c17.8857 59.4307 57.0518 111.626 115.948 137.416
c37.2539 16.3105 92.0244 22.7334 123.309 -9.63867c15.7607 -16.3076 17.6797 -39.8818 8.85742 -60.2432c-10.7324 -24.7676 -33.5781 -41.1973 -56.29 -54.1455c-7.1377 -4.06934 -20.9736 -4.92871 -27.5459 1.06543c-7.06641 6.44434 -2.61328 12.6045 5.17773 15.4609
c25.1426 9.21973 51.6699 22.4082 59.5928 50.2422c6.88184 24.1768 -7.38477 45.7598 -30.1152 53.6016c-22.2207 7.66602 -46.5547 2.75977 -67.5439 -6.39062c-42.9043 -18.7051 -75.4541 -57.5967 -93.5527 -100.004
c-6.75098 -15.8145 -11.5322 -32.2754 -14.5137 -49.0459c20.3984 -16.6328 43.5566 -29.9463 69.084 -38.7568c94.6025 -32.6436 196.946 2.23145 250.583 86.7051c4.72559 7.44141 27.6436 4.37891 22.6494 -3.55957
c-14.9951 -23.8398 -33.2627 -45.4141 -55.7246 -62.5566c-78.457 -59.874 -195.524 -61.918 -278.473 -9.79102c-3.70312 2.3252 -7.30957 4.77832 -10.8691 7.28516c-1.75684 -19.7334 -1.1416 -39.707 1.71191 -59.418
c3.36328 -23.2178 10.2041 -45.3857 20.1797 -66.6064c9.94141 -21.1426 23.9863 -37.8408 39.2256 -55.3359z" />
    <glyph glyph-name="O" unicode="&#xd3;" horiz-adv-x="654" 
d="M539.783 -24.4316c-57.8145 -98.5312 -164.212 -167.845 -281.548 -154.466c-55.3271 6.30957 -106.673 34 -143.695 75.3789c-33.3184 37.2383 -51.6611 88.3398 -59.2646 137.291c-4.81934 31.0156 -3.86035 63.2588 2.65918 94.2148
c-63.7773 58.6865 -97.5371 148.18 -90.8682 234.601c8.45117 109.501 74.6885 210.741 166.757 268.987c94.2744 59.6426 220.655 69.4717 313.945 2.32129c96.2617 -69.2881 141.203 -187.918 155.57 -301.694c15.0391 -119.108 -2.04395 -251.802 -63.5557 -356.634z
M145.112 -74.3848c29.7275 -34.1279 69.6182 -61.9043 115.182 -68.4766c41.7168 -6.0166 83.9238 6.05664 120.033 26.709c83.8418 47.9512 129.803 142.285 153.846 232.3c28.2373 105.723 31.1504 219.739 6.29785 326.377
c-22.6494 97.1836 -80.833 188.896 -181.945 216.798c-103.45 28.5498 -210.645 -21.917 -279.854 -98.127c-64.6533 -71.1943 -101.322 -170.088 -86.0674 -266.315c8.57227 -54.0898 33.4121 -105.97 70.8184 -145.549c17.8857 59.4307 57.0518 111.626 115.948 137.416
c37.2539 16.3105 92.0244 22.7334 123.309 -9.63867c15.7607 -16.3076 17.6797 -39.8818 8.85742 -60.2432c-10.7324 -24.7676 -33.5781 -41.1973 -56.29 -54.1455c-7.1377 -4.06934 -20.9736 -4.92871 -27.5459 1.06543c-7.06641 6.44434 -2.61328 12.6045 5.17773 15.4609
c25.1426 9.21973 51.6699 22.4082 59.5928 50.2422c6.88184 24.1768 -7.38477 45.7598 -30.1152 53.6016c-22.2207 7.66602 -46.5547 2.75977 -67.5439 -6.39062c-42.9043 -18.7051 -75.4541 -57.5967 -93.5527 -100.004
c-6.75098 -15.8145 -11.5322 -32.2754 -14.5137 -49.0459c20.3984 -16.6328 43.5566 -29.9463 69.084 -38.7568c94.6025 -32.6436 196.946 2.23145 250.583 86.7051c4.72559 7.44141 27.6436 4.37891 22.6494 -3.55957
c-14.9951 -23.8398 -33.2627 -45.4141 -55.7246 -62.5566c-78.457 -59.874 -195.524 -61.918 -278.473 -9.79102c-3.70312 2.3252 -7.30957 4.77832 -10.8691 7.28516c-1.75684 -19.7334 -1.1416 -39.707 1.71191 -59.418
c3.36328 -23.2178 10.2041 -45.3857 20.1797 -66.6064c9.94141 -21.1426 23.9863 -37.8408 39.2256 -55.3359z" />
    <glyph glyph-name="P" unicode="P" horiz-adv-x="588" 
d="M519.808 134.774c-46.876 -73.7314 -130.107 -133.932 -220.888 -128.553c-43.5068 2.57812 -81.2881 20.6709 -105.862 57.2148c-19.5986 29.1494 -20.7305 74.335 -12.873 107.41c16.6357 70.041 91.7988 143.579 168.925 126.131
c32.9248 -7.44727 59.2148 -35.7842 61.4746 -69.9717c2.33789 -35.3564 -22.7178 -65.9814 -55.1211 -76.9609c-9.47949 -3.21289 -27.209 7.08203 -12.2266 11.9199c40.0947 12.9414 56.8994 60.6211 34.4414 96.0059c-27.8115 43.8164 -81.0479 28.624 -114.698 0.880859
c-29.9307 -24.6807 -52.1074 -61.4219 -54.1797 -100.767c-2.00293 -37.9785 17.8047 -73.6914 47.251 -97.2998c57.5674 -46.1543 134.206 1.81934 176.354 46.4326c52.1582 55.2109 78.4297 129.221 92.9619 202.503c13.623 68.6973 15.2451 140.998 -2.98828 208.995
c-16.6641 62.1367 -62.5586 147.485 -137.206 146.61c-78.1826 -0.918945 -136.119 -84.7393 -166.378 -147.392c-35.5381 -73.5791 -55.9404 -155.006 -70.7637 -235.01c-31.6592 -170.894 -34.8311 -345.66 -46.7324 -518.613
c-0.0683594 -1 -0.443359 -1.86914 -0.993164 -2.6377c0.0751953 -3.33203 0.0693359 -6.65137 -0.0371094 -9.95801c-0.518555 -16.1045 -36.0215 -15.6104 -41.5342 -3.20312c-12.792 28.7842 -18.5176 61.9092 -24.6621 92.6875
c-5.96582 29.8809 -11.6318 59.8271 -16.2383 89.9482c-33.4561 218.783 -43.7129 445.586 -21.1514 666.038c2.58789 25.2773 65.4717 24.5869 64.0186 0c-3.7002 -62.6055 -7.22559 -125.189 -8.58203 -187.898c-2.38477 -110.235 1.28711 -220.599 10.9756 -330.431
c4.79688 -54.3711 10.4697 -108.604 17.5605 -162.729c1.3252 -10.1201 2.65039 -20.2363 3.97852 -30.3525c9.92578 186.018 19.9834 375.857 78.0635 553.739c26.0332 79.7295 64.8652 163.344 136.916 211.479c33.1152 22.124 73.9688 34.2998 113.585 25.5928
c38.4219 -8.44434 70.5625 -35.3535 95.6182 -64.5811c53.8555 -62.8242 76.1074 -145.179 76.3857 -226.773c0.293945 -85.7803 -18.9639 -177.427 -65.3936 -250.459z" />
    <glyph glyph-name="Q" unicode="Q" horiz-adv-x="644" 
d="M539.783 -24.4316c-45.4639 -77.4795 -120.972 -136.869 -208.211 -152.214c8.4541 -51.0107 18.5117 -101.287 37.1826 -149.829c17.9736 -46.7354 43.623 -91.3672 82.3643 -123.979c18.8857 -15.8984 46.0293 -32.666 71.8945 -27.6777
c24.127 4.65625 39.7188 25.2334 43.6377 48.4102c2.22168 13.1387 33.7969 13.8545 34.4746 0c2.37793 -48.5479 -56.7275 -72.5215 -96.9717 -68.9238c-90.6992 8.10742 -148.311 105.691 -171.476 184.148c-12.9609 43.8887 -19.8584 89.4551 -26.6094 134.697
c-15.6729 -1.16309 -31.6465 -0.944336 -47.8359 0.902344c-55.3271 6.30957 -106.673 34 -143.695 75.3789c-33.3184 37.2383 -51.6611 88.3398 -59.2646 137.291c-4.81641 31.0156 -3.85742 63.2588 2.66211 94.2148c-63.7773 58.6865 -97.5371 148.18 -90.8682 234.601
c8.44727 109.501 74.6875 210.741 166.756 268.987c94.2744 59.6426 220.655 69.4717 313.945 2.32129c96.2617 -69.2881 141.203 -187.918 155.57 -301.694c15.0391 -119.108 -2.04395 -251.802 -63.5557 -356.634zM380.323 -116.152
c83.8418 47.9512 129.811 142.287 153.854 232.302c28.2373 105.723 31.1504 219.739 6.29785 326.377c-22.6494 97.1836 -80.833 188.896 -181.945 216.798c-103.45 28.5498 -210.642 -21.917 -279.854 -98.127c-64.6562 -71.1943 -101.322 -170.088 -86.0674 -266.315
c8.57227 -54.0898 33.4121 -105.97 70.8184 -145.549c17.8857 59.4307 57.0518 111.626 115.948 137.416c37.2539 16.3105 92.0244 22.7334 123.309 -9.63867c15.7607 -16.3076 17.6797 -39.8818 8.85742 -60.2432c-10.7324 -24.7676 -33.5781 -41.1973 -56.29 -54.1455
c-7.1377 -4.06934 -20.9736 -4.92871 -27.5459 1.06543c-7.06641 6.44434 -2.61328 12.6045 5.17773 15.4609c25.1426 9.21973 51.6699 22.4082 59.5928 50.2422c6.88184 24.1768 -7.38477 45.7598 -30.1152 53.6016c-22.2207 7.66602 -46.5547 2.75977 -67.5439 -6.39062
c-42.9043 -18.7051 -75.4541 -57.5967 -93.5527 -100.004c-6.75098 -15.8145 -11.5322 -32.2754 -14.5137 -49.0459c20.3984 -16.6328 43.5566 -29.9463 69.084 -38.7568c94.6025 -32.6436 196.946 2.23145 250.583 86.7051
c4.72559 7.44141 27.6436 4.37891 22.6494 -3.55957c-14.9951 -23.8398 -33.2627 -45.4141 -55.7246 -62.5566c-78.457 -59.874 -195.524 -61.918 -278.473 -9.79102c-3.70312 2.3252 -7.30957 4.77832 -10.8691 7.28516c-1.75684 -19.7334 -1.1416 -39.707 1.71191 -59.418
c3.36328 -23.2178 10.2041 -45.3857 20.1797 -66.6064c9.94141 -21.1426 23.9863 -37.8408 39.2256 -55.3359c29.7275 -34.1279 69.6152 -61.9053 115.179 -68.4775c13.4541 -1.94043 26.9551 -1.97461 40.2871 -0.47168c-2.95312 19.3047 -6.05371 38.585 -9.7793 57.7588
c-5.00391 25.7461 -10.3008 52.7236 -26.5059 74.0947c-7.40039 9.75684 15.6826 13.748 20.9141 6.96582c15.1855 -19.6865 22.0928 -42.292 27.4619 -66.2471c5.04102 -22.4961 9.02246 -45.2109 12.748 -67.9629c19.2051 4.91895 37.7441 12.7568 54.9023 22.5703z" />
    <glyph glyph-name="R" unicode="R" horiz-adv-x="587" 
d="M820.146 -245.055c-9.95117 -44.251 -48.6045 -76.4561 -87.9766 -95.1387c-100.584 -47.7266 -227.786 -33.1162 -320.767 25.0303c-83.6143 52.2891 -142.657 134.081 -196.156 215.389c-3.80664 -30.2656 -7.12305 -60.5967 -9.96387 -90.9717
c1.25293 -26.124 1.59668 -52.248 -0.650391 -78.2256c-1.24414 -14.3887 -35.2412 -16.0107 -39.376 -3.03809c-18.4326 57.8213 -23.3428 120.299 -28.0586 180.552c-2.06934 26.4336 -3.87891 52.9395 -5.41699 79.4893
c-42.1289 1.97852 -84.5986 14.3984 -119.771 37.3477c-37.1533 24.2402 -72.8848 66.9531 -71.8037 114.061c0.53418 23.3926 18.2793 41.4346 42.1475 39.709c23.79 -1.71875 47.4326 -20.9365 67.1748 -32.9844c28.1523 -17.1826 53.9863 -37.4912 77.9043 -59.9307
c-4.90039 155.93 0.262695 312.775 19.0703 466.968c3.06543 25.1494 65.6553 24.3555 63.7734 0c-4.65625 -60.2334 -9.47852 -120.482 -12.748 -180.81c-5.8252 -107.52 -6.38184 -215.017 -3.95996 -322.639c0.162109 -7.19434 0.417969 -14.3857 0.633789 -21.5771
c5.66309 1.47559 11.2764 3.1543 16.8428 5.01367c12.0195 70.0596 26.8428 139.645 45.085 208.16c15.9551 59.9238 35.6416 119.055 62.3506 175.106c23.79 49.9238 52.9678 100.938 96.4248 136.4c38.6094 31.5088 94.627 53.0635 141.375 25.3701
c48.9453 -28.9961 65.1152 -88.3174 58.5586 -141.723c-13.7168 -111.683 -80.667 -210.558 -158.53 -288.465c-63.0029 -63.0371 -139.807 -122.192 -226.599 -147.476c-1.53809 -9.46973 -3.03809 -18.9482 -4.47852 -28.4336
c48.7666 -66.7188 92.9053 -137.06 150.473 -196.699c78.2295 -81.042 185.424 -135.737 300.125 -106.694c47.3047 11.9766 95.415 42.0889 110.688 90.9219c15.8389 50.6455 -20.9619 111.148 -75.6045 114.202c-14.1172 0.791016 -14.3262 14.0703 0 13.3887
c21.2207 -1.00977 41.4668 -6.9541 59.0967 -19.043c36.7256 -25.1836 60.2246 -68.4033 50.1357 -113.261zM254.56 133.372c-6.36621 -29.9561 -12.2188 -60.0137 -17.5947 -90.1543c16.5137 7.24707 32.4434 15.7822 47.542 24.9453
c47.0703 28.5625 89.7988 64.9287 128.655 103.801c37.0352 37.0469 70.3789 78.0039 97.6035 122.814c28.6436 47.1387 55.7832 101.334 65.2344 156.111c4.79102 27.7715 5.4502 56.7588 -6.60742 82.8428c-11.4795 24.8301 -34.8438 43.9287 -63.2275 43.3291
c-58.79 -1.24414 -105.966 -61.7158 -133.703 -107.095c-62.3594 -102.025 -93.2715 -220.712 -117.902 -336.595zM21.3916 65.8857c30.5312 -25.6582 68.7842 -41.7812 108.635 -44.4062c-0.103516 2.13184 -0.234375 4.25977 -0.333984 6.3916
c-3.53516 4.79102 -7.10156 9.55078 -10.7334 14.2637c-30.9346 40.1504 -66.2969 82.1416 -110.522 108.031c-8.81641 5.16016 -26.5332 20.3428 -33.7148 8.17578c-7.36328 -12.4766 -0.619141 -28.2754 5.01562 -40.042
c9.81055 -20.4922 24.3184 -37.8438 41.6543 -52.4141z" />
    <glyph glyph-name="S" unicode="S" horiz-adv-x="520" 
d="M447.494 173.928c-55.6709 -45.2666 -107.691 -97.6309 -146.479 -158.421c3.13477 -1.88477 6.27246 -3.7666 9.40039 -5.6543c72.7158 -43.8232 174.663 -96.5098 195.615 -187.159c19.5703 -84.6797 -69.9883 -150.704 -146.014 -154.076
c-89.1641 -3.95312 -146.91 70.7041 -147.851 155.043c-0.637695 57.1299 17.5703 113.041 44.9541 163.724c-7.14746 4.02246 -14.2852 8.06348 -21.3887 12.1543c-83.4922 48.083 -170.226 102.226 -223.783 184.746c-49.5264 76.3135 -64.5244 175.701 -18.1855 257.015
c77.8662 136.647 317.183 232.253 437.979 97.1094c26.3965 -29.5312 41.6543 -67.835 38.7227 -107.707c-2.9873 -40.5947 -23.0332 -78.498 -49.2949 -108.936c-28.1592 -32.6348 -68.6846 -54.7363 -112.282 -55.6865
c-39.2471 -0.856445 -82.7607 18.1855 -96.8936 57.0488c-6.25391 17.1953 34.5088 20.374 40.3066 6.33496c7.34473 -17.7891 21.7021 -32.1152 40.3105 -37.8906c41.376 -12.8418 89.2305 21.9297 115.117 51.1387c29.0273 32.7529 43.3633 80.3135 34.6934 123.492
c-8.12305 40.46 -36.3408 74.9229 -71.1406 95.9932c-40.1758 24.3242 -87.874 28.7773 -133.45 20.2949c-83.5518 -15.5518 -160.277 -70.9629 -195.402 -148.836c-37.9316 -84.0889 -11.4385 -178.938 42.8506 -249.248
c52.4424 -67.9219 123.681 -113.345 195.978 -156.996c8.38867 12.5977 17.2266 24.7646 26.3555 36.4033c27.5371 35.1006 58.9717 67.0283 92.4844 96.4219c31.2559 27.4121 64.7686 57.29 107.866 61.6846c11.8359 1.20605 22.6309 -11.3672 6.43848 -13.3145
c-25.918 -3.11621 -47.167 -18.627 -66.9062 -34.6787zM368.668 -78.1084c-29.3086 19.2988 -59.874 36.5254 -90.4736 53.6709c-1.34668 -2.65039 -2.73438 -5.27539 -4.02832 -7.95703c-37.7881 -78.3545 -63.2656 -197.166 13.8887 -261.271
c72.1631 -59.9648 219.398 12.042 181.18 111.02c-17.502 45.3262 -61.2529 78.6514 -100.566 104.538z" />
    <glyph glyph-name="T" unicode="T" horiz-adv-x="587" 
d="M957.575 488.051c-37.457 -52.0732 -100.9 -79.5049 -164.541 -74.1133c-62.3086 5.26562 -121.045 48.7041 -124.589 114.616c-0.87793 16.3203 40.1318 16.4268 42.0449 0c3.56641 -30.6562 21.4863 -60.1621 48.0547 -76.2852
c58.0615 -35.2412 132.321 0.318359 165.118 53.4795c36.1436 58.584 18.8701 129.213 -36.957 168.491c-59.1934 41.6445 -143.839 41.3506 -212.771 33.0752c-76.2949 -9.15723 -149.711 -33.5811 -220.046 -63.8467
c-72.8564 -31.3525 -143.297 -69.5557 -211.604 -109.769c-31.0059 -18.2549 -61.2334 -37.6504 -90.8857 -57.999c4.07812 -0.69043 8.13477 -1.46191 12.1416 -2.35547c64.1963 -14.333 119.745 -53.4277 166.171 -98.71
c14.2266 -13.8799 27.8564 -28.416 40.9014 -43.4766c3.32227 69.5 8.66016 138.694 13.3105 208.179c1.24707 18.624 46.9854 18.5645 47.417 0c0.384766 -16.4736 0.597656 -32.9375 1.22266 -49.3984c3.02539 -79.5479 -0.125 -159.437 -1.19043 -239.091
c8.57617 -12.998 16.793 -26.2148 24.5938 -39.6348c34.5996 -59.5273 61.5303 -123.458 80.0137 -189.783c19.7549 -70.8877 33.1279 -146.304 25.2803 -219.951c-2.85352 -26.7773 -8.33496 -57.8643 -37.5596 -67.668
c-1.53418 -0.512695 -6.13184 -1.64062 -7.53809 -1.8623c-0.75293 -0.268555 -1.4873 -0.555664 -2.30273 -0.771484c-2.5127 -0.666016 -5.04395 -1.10059 -7.61914 -1.43164c-7.29395 -0.94043 -14.8135 -0.828125 -22.0918 0.200195
c-28.4092 4.01953 -49.2295 24.6562 -62.3779 44.8516c-18.0576 27.7432 -26.8271 60.3965 -33.5527 92.4365c-8.50977 40.5381 -13.1416 81.7168 -16.0576 122.999c-6.92871 98.0439 -6.65332 196.856 -3.43457 295.047
c0.150391 4.50977 0.350586 9.00977 0.519531 13.5166c-14.2666 18.0049 -29.334 35.3721 -45.2168 51.9766c-46.7197 48.8486 -104.15 95.4121 -172.01 109.261c-6.25977 1.27539 -12.585 2.25391 -18.9414 2.94727c-26.7871 -18.9922 -53.083 -38.7969 -81.4824 -55.3418
c-19.1865 -11.1787 -60.5625 -39.3281 -82.9805 -22.5488c-22.9619 17.1826 9.5166 47.126 22.9736 57.168c37.4502 27.9492 85.5332 38.9346 132.175 36.4629c14.0918 9.8916 28.2305 19.7178 42.5752 29.2559c63.8184 42.4316 128.327 83.2852 196.474 118.485
c129.303 66.791 272.338 117.336 419.924 105.176c65.709 -5.41309 134.919 -25.9336 175.748 -81.2354c36.6123 -49.5918 34.7402 -112.791 -0.910156 -162.352zM495.667 -242.564c0.762695 -0.700195 0.90332 -0.737305 0 0zM516.744 -2.4707
c-18.4795 73.6348 -47.3721 144.953 -85.7158 210.678c-0.271484 -89.2021 1.80371 -178.532 11.4238 -267.266c3.90039 -35.9717 9.36621 -71.8936 17.9229 -106.818c3.47266 -14.1826 7.66992 -28.3809 13.2236 -41.9004
c2.34082 -5.7002 4.99414 -11.2324 7.99414 -16.5928c1.22168 -2.18457 2.48145 -4.32812 3.82227 -6.44434c2.37793 -3.75684 1.02148 -1.73145 2.32129 -3.31641c1.89062 -2.30371 3.9873 -4.31641 6 -6.49512c0.799805 -0.865234 1.46875 -1.51855 1.9248 -1.9375
c0.646484 -0.521484 9.03516 -6.96289 4.59766 -3.48145c0.40918 -0.318359 2.28711 -1.5 3.31543 -2.16602c2.22168 -0.9375 4.43457 -1.24414 1.99023 -0.634766c1.46875 -0.365234 2.10645 -0.508789 2.35059 -0.542969
c0.03125 0.0126953 0.0625 0.0224609 0.09375 0.0351562c-0.150391 0.09375 -0.631836 0.275391 0.261719 0.09375c0.21582 0.078125 0.43457 0.15332 0.650391 0.231445c1.59082 2.0625 6.44141 3.91309 8.59766 6.2168c4.65332 4.96875 7.78809 11.3164 10.2666 17.5791
c13.2451 33.4746 10.5391 76.2256 7.7666 111.423c-2.95996 37.5439 -9.64453 74.832 -18.8076 111.339zM31.3184 416.502c14.9609 8.54102 29.3398 18.0508 43.4941 27.8545c9.34766 6.47852 18.6455 13.0225 27.9404 19.5762
c-15.3799 -0.71875 -30.6562 -3.3125 -45.376 -8.03516c-16.1357 -5.17578 -31.3711 -12.7832 -45.0947 -22.7529c-8.87598 -6.4502 -27.4404 -19.4893 -25.2559 -33.0156c1.25684 -7.78223 0.0664062 -2.35645 5.64551 -2.37793
c5.12891 -0.0185547 12.542 5.21582 17.1738 7.42578c7.30664 3.48438 14.4443 7.3125 21.4727 11.3252z" />
    <glyph glyph-name="U" unicode="U" horiz-adv-x="703" 
d="M937.259 -235.389c-4.6377 -22.7207 -15.2305 -42.5049 -32.1475 -58.5439c-40.2354 -38.1602 -99.3037 -46.373 -151.34 -32.0029c-56.1182 15.498 -100.663 56.7891 -129.229 106.422c-30.8096 53.5332 -45.2734 116.245 -56.3867 176.444
c-1.98145 10.7197 -3.73828 21.4766 -5.4043 32.2461c-20.4551 -38.582 -46.8574 -75.4072 -87.3428 -92.5117c-50.6611 -21.4082 -108.376 -3.45605 -141.085 39.9141c-37.9219 50.2764 -35.5439 120.076 -34.5127 180.028
c1.15625 67.2061 6.59766 134.372 5.81934 201.606c-0.712891 61.7842 -3.16602 125.131 -25.5342 183.468c-11.0225 28.7461 -29.7275 48.9922 -60.2207 56.8086c-28.4805 7.30078 -58.9834 2.62891 -85.3574 -9.77832
c-52.9141 -24.8926 -95.543 -75.9316 -122.127 -126.992c-26.6748 -51.2363 -36.0752 -115.492 -4.80957 -167.062c27.9248 -46.0576 87.7744 -66.7881 138.823 -51.2432c51.8232 15.7822 89.1582 61.3955 104.916 111.856c2.55371 8.16992 25.6992 6.2793 22.6523 -3.55957
c-6.92578 -22.3525 -17.583 -42.9951 -32.0127 -61.4434c-56.7676 -72.5723 -174.26 -92.0273 -241.272 -21.0459c-80.1797 84.9268 -18.3242 211.886 50.3945 281.333c36.4131 36.8008 82.877 63.6592 135.551 65.5342c51.2676 1.8252 98.0625 -23.0557 127.931 -64.3252
c16.5332 -22.8428 25.084 -48.9141 32.0469 -76.0166c7.90039 -30.75 14.1885 -62.3408 16.8418 -94.0127c5.36621 -64.0371 2.04102 -128.334 0.928711 -192.456c-0.56543 -32.5967 -0.727539 -65.2744 0.779297 -97.8496
c1.34375 -29.0215 2.14062 -59.8115 10.8418 -87.748c6.75391 -21.6797 20.2109 -47.4131 43.0283 -55.4609c29.1592 -10.2852 60.7842 10.7764 79.9668 31.0254c24.5215 25.8838 42.9141 58.4307 57.9375 92.249c-4.86914 40.8691 -7.82227 81.9795 -9.5166 123.083
c-2.79688 67.9531 -3.71582 135.972 -2.1875 203.962c1.44727 64.5439 3.36621 132.319 21.6865 194.685c6.39746 21.7832 13.6484 54.7305 39.9785 59.375c23.5205 4.15039 39.8906 -13.2139 49.3135 -32.6533c26.8809 -55.4492 27.3623 -120.89 22.5029 -181.021
c-5.23535 -64.79 -19.4707 -128.502 -36.0752 -191.217c-9.51367 -35.9375 -19.7549 -71.8154 -31.9502 -106.981c3.20703 -41.3008 7.63281 -82.5078 14.4209 -123.364c10.0693 -60.6309 23.5264 -123.446 52.0381 -178.401
c22.9678 -44.2666 61.8711 -88.249 113.392 -97.3027c45.5264 -8.00098 89.9648 23.4111 103.507 66.2871c4.31934 13.6797 46.3076 11.8232 43.2139 -3.33398zM597.701 556.297c-9.04492 -62.4404 -2.76758 -128.903 0.151367 -191.659
c3 -64.6152 5.00293 -129.293 8.38477 -193.89c10.9697 37.6602 20.4395 75.8135 28.5996 114.001c13.1885 61.7061 22.1953 125.35 19.0986 188.59c-1.50684 30.7656 -6.26953 61.5752 -17.7959 90.2842c-2.70605 6.74707 -13.9355 36.7188 -23.6709 33.04
c-10.2168 -3.85938 -13.5107 -31.6904 -14.7676 -40.3662z" />
    <glyph glyph-name="U" unicode="&#xdc;" horiz-adv-x="703" 
d="M937.259 -235.389c-4.6377 -22.7207 -15.2305 -42.5049 -32.1475 -58.5439c-40.2354 -38.1602 -99.3037 -46.373 -151.34 -32.0029c-56.1182 15.498 -100.663 56.7891 -129.229 106.422c-30.8096 53.5332 -45.2734 116.245 -56.3867 176.444
c-1.98145 10.7197 -3.73828 21.4766 -5.4043 32.2461c-20.4551 -38.582 -46.8574 -75.4072 -87.3428 -92.5117c-50.6611 -21.4082 -108.376 -3.45605 -141.085 39.9141c-37.9219 50.2764 -35.5439 120.076 -34.5127 180.028
c1.15625 67.2061 6.59766 134.372 5.81934 201.606c-0.712891 61.7842 -3.16602 125.131 -25.5342 183.468c-11.0225 28.7461 -29.7275 48.9922 -60.2207 56.8086c-28.4805 7.30078 -58.9834 2.62891 -85.3574 -9.77832
c-52.9141 -24.8926 -95.543 -75.9316 -122.127 -126.992c-26.6748 -51.2363 -36.0752 -115.492 -4.80957 -167.062c27.9248 -46.0576 87.7744 -66.7881 138.823 -51.2432c51.8232 15.7822 89.1582 61.3955 104.916 111.856c2.55371 8.16992 25.6992 6.2793 22.6523 -3.55957
c-6.92578 -22.3525 -17.583 -42.9951 -32.0127 -61.4434c-56.7676 -72.5723 -174.26 -92.0273 -241.272 -21.0459c-80.1797 84.9268 -18.3242 211.886 50.3945 281.333c36.4131 36.8008 82.877 63.6592 135.551 65.5342c51.2676 1.8252 98.0625 -23.0557 127.931 -64.3252
c16.5332 -22.8428 25.084 -48.9141 32.0469 -76.0166c7.90039 -30.75 14.1885 -62.3408 16.8418 -94.0127c5.36621 -64.0371 2.04102 -128.334 0.928711 -192.456c-0.56543 -32.5967 -0.727539 -65.2744 0.779297 -97.8496
c1.34375 -29.0215 2.14062 -59.8115 10.8418 -87.748c6.75391 -21.6797 20.2109 -47.4131 43.0283 -55.4609c29.1592 -10.2852 60.7842 10.7764 79.9668 31.0254c24.5215 25.8838 42.9141 58.4307 57.9375 92.249c-4.86914 40.8691 -7.82227 81.9795 -9.5166 123.083
c-2.79688 67.9531 -3.71582 135.972 -2.1875 203.962c1.44727 64.5439 3.36621 132.319 21.6865 194.685c6.39746 21.7832 13.6484 54.7305 39.9785 59.375c23.5205 4.15039 39.8906 -13.2139 49.3135 -32.6533c26.8809 -55.4492 27.3623 -120.89 22.5029 -181.021
c-5.23535 -64.79 -19.4707 -128.502 -36.0752 -191.217c-9.51367 -35.9375 -19.7549 -71.8154 -31.9502 -106.981c3.20703 -41.3008 7.63281 -82.5078 14.4209 -123.364c10.0693 -60.6309 23.5264 -123.446 52.0381 -178.401
c22.9678 -44.2666 61.8711 -88.249 113.392 -97.3027c45.5264 -8.00098 89.9648 23.4111 103.507 66.2871c4.31934 13.6797 46.3076 11.8232 43.2139 -3.33398zM597.701 556.297c-9.04492 -62.4404 -2.76758 -128.903 0.151367 -191.659
c3 -64.6152 5.00293 -129.293 8.38477 -193.89c10.9697 37.6602 20.4395 75.8135 28.5996 114.001c13.1885 61.7061 22.1953 125.35 19.0986 188.59c-1.50684 30.7656 -6.26953 61.5752 -17.7959 90.2842c-2.70605 6.74707 -13.9355 36.7188 -23.6709 33.04
c-10.2168 -3.85938 -13.5107 -31.6904 -14.7676 -40.3662z" />
    <glyph glyph-name="U" unicode="&#xdb;" horiz-adv-x="703" 
d="M937.259 -235.389c-4.6377 -22.7207 -15.2305 -42.5049 -32.1475 -58.5439c-40.2354 -38.1602 -99.3037 -46.373 -151.34 -32.0029c-56.1182 15.498 -100.663 56.7891 -129.229 106.422c-30.8096 53.5332 -45.2734 116.245 -56.3867 176.444
c-1.98145 10.7197 -3.73828 21.4766 -5.4043 32.2461c-20.4551 -38.582 -46.8574 -75.4072 -87.3428 -92.5117c-50.6611 -21.4082 -108.376 -3.45605 -141.085 39.9141c-37.9219 50.2764 -35.5439 120.076 -34.5127 180.028
c1.15625 67.2061 6.59766 134.372 5.81934 201.606c-0.712891 61.7842 -3.16602 125.131 -25.5342 183.468c-11.0225 28.7461 -29.7275 48.9922 -60.2207 56.8086c-28.4805 7.30078 -58.9834 2.62891 -85.3574 -9.77832
c-52.9141 -24.8926 -95.543 -75.9316 -122.127 -126.992c-26.6748 -51.2363 -36.0752 -115.492 -4.80957 -167.062c27.9248 -46.0576 87.7744 -66.7881 138.823 -51.2432c51.8232 15.7822 89.1582 61.3955 104.916 111.856c2.55371 8.16992 25.6992 6.2793 22.6523 -3.55957
c-6.92578 -22.3525 -17.583 -42.9951 -32.0127 -61.4434c-56.7676 -72.5723 -174.26 -92.0273 -241.272 -21.0459c-80.1797 84.9268 -18.3242 211.886 50.3945 281.333c36.4131 36.8008 82.877 63.6592 135.551 65.5342c51.2676 1.8252 98.0625 -23.0557 127.931 -64.3252
c16.5332 -22.8428 25.084 -48.9141 32.0469 -76.0166c7.90039 -30.75 14.1885 -62.3408 16.8418 -94.0127c5.36621 -64.0371 2.04102 -128.334 0.928711 -192.456c-0.56543 -32.5967 -0.727539 -65.2744 0.779297 -97.8496
c1.34375 -29.0215 2.14062 -59.8115 10.8418 -87.748c6.75391 -21.6797 20.2109 -47.4131 43.0283 -55.4609c29.1592 -10.2852 60.7842 10.7764 79.9668 31.0254c24.5215 25.8838 42.9141 58.4307 57.9375 92.249c-4.86914 40.8691 -7.82227 81.9795 -9.5166 123.083
c-2.79688 67.9531 -3.71582 135.972 -2.1875 203.962c1.44727 64.5439 3.36621 132.319 21.6865 194.685c6.39746 21.7832 13.6484 54.7305 39.9785 59.375c23.5205 4.15039 39.8906 -13.2139 49.3135 -32.6533c26.8809 -55.4492 27.3623 -120.89 22.5029 -181.021
c-5.23535 -64.79 -19.4707 -128.502 -36.0752 -191.217c-9.51367 -35.9375 -19.7549 -71.8154 -31.9502 -106.981c3.20703 -41.3008 7.63281 -82.5078 14.4209 -123.364c10.0693 -60.6309 23.5264 -123.446 52.0381 -178.401
c22.9678 -44.2666 61.8711 -88.249 113.392 -97.3027c45.5264 -8.00098 89.9648 23.4111 103.507 66.2871c4.31934 13.6797 46.3076 11.8232 43.2139 -3.33398zM597.701 556.297c-9.04492 -62.4404 -2.76758 -128.903 0.151367 -191.659
c3 -64.6152 5.00293 -129.293 8.38477 -193.89c10.9697 37.6602 20.4395 75.8135 28.5996 114.001c13.1885 61.7061 22.1953 125.35 19.0986 188.59c-1.50684 30.7656 -6.26953 61.5752 -17.7959 90.2842c-2.70605 6.74707 -13.9355 36.7188 -23.6709 33.04
c-10.2168 -3.85938 -13.5107 -31.6904 -14.7676 -40.3662z" />
    <glyph glyph-name="U" unicode="&#xda;" horiz-adv-x="703" 
d="M937.259 -235.389c-4.6377 -22.7207 -15.2305 -42.5049 -32.1475 -58.5439c-40.2354 -38.1602 -99.3037 -46.373 -151.34 -32.0029c-56.1182 15.498 -100.663 56.7891 -129.229 106.422c-30.8096 53.5332 -45.2734 116.245 -56.3867 176.444
c-1.98145 10.7197 -3.73828 21.4766 -5.4043 32.2461c-20.4551 -38.582 -46.8574 -75.4072 -87.3428 -92.5117c-50.6611 -21.4082 -108.376 -3.45605 -141.085 39.9141c-37.9219 50.2764 -35.5439 120.076 -34.5127 180.028
c1.15625 67.2061 6.59766 134.372 5.81934 201.606c-0.712891 61.7842 -3.16602 125.131 -25.5342 183.468c-11.0225 28.7461 -29.7275 48.9922 -60.2207 56.8086c-28.4805 7.30078 -58.9834 2.62891 -85.3574 -9.77832
c-52.9141 -24.8926 -95.543 -75.9316 -122.127 -126.992c-26.6748 -51.2363 -36.0752 -115.492 -4.80957 -167.062c27.9248 -46.0576 87.7744 -66.7881 138.823 -51.2432c51.8232 15.7822 89.1582 61.3955 104.916 111.856c2.55371 8.16992 25.6992 6.2793 22.6523 -3.55957
c-6.92578 -22.3525 -17.583 -42.9951 -32.0127 -61.4434c-56.7676 -72.5723 -174.26 -92.0273 -241.272 -21.0459c-80.1797 84.9268 -18.3242 211.886 50.3945 281.333c36.4131 36.8008 82.877 63.6592 135.551 65.5342c51.2676 1.8252 98.0625 -23.0557 127.931 -64.3252
c16.5332 -22.8428 25.084 -48.9141 32.0469 -76.0166c7.90039 -30.75 14.1885 -62.3408 16.8418 -94.0127c5.36621 -64.0371 2.04102 -128.334 0.928711 -192.456c-0.56543 -32.5967 -0.727539 -65.2744 0.779297 -97.8496
c1.34375 -29.0215 2.14062 -59.8115 10.8418 -87.748c6.75391 -21.6797 20.2109 -47.4131 43.0283 -55.4609c29.1592 -10.2852 60.7842 10.7764 79.9668 31.0254c24.5215 25.8838 42.9141 58.4307 57.9375 92.249c-4.86914 40.8691 -7.82227 81.9795 -9.5166 123.083
c-2.79688 67.9531 -3.71582 135.972 -2.1875 203.962c1.44727 64.5439 3.36621 132.319 21.6865 194.685c6.39746 21.7832 13.6484 54.7305 39.9785 59.375c23.5205 4.15039 39.8906 -13.2139 49.3135 -32.6533c26.8809 -55.4492 27.3623 -120.89 22.5029 -181.021
c-5.23535 -64.79 -19.4707 -128.502 -36.0752 -191.217c-9.51367 -35.9375 -19.7549 -71.8154 -31.9502 -106.981c3.20703 -41.3008 7.63281 -82.5078 14.4209 -123.364c10.0693 -60.6309 23.5264 -123.446 52.0381 -178.401
c22.9678 -44.2666 61.8711 -88.249 113.392 -97.3027c45.5264 -8.00098 89.9648 23.4111 103.507 66.2871c4.31934 13.6797 46.3076 11.8232 43.2139 -3.33398zM597.701 556.297c-9.04492 -62.4404 -2.76758 -128.903 0.151367 -191.659
c3 -64.6152 5.00293 -129.293 8.38477 -193.89c10.9697 37.6602 20.4395 75.8135 28.5996 114.001c13.1885 61.7061 22.1953 125.35 19.0986 188.59c-1.50684 30.7656 -6.26953 61.5752 -17.7959 90.2842c-2.70605 6.74707 -13.9355 36.7188 -23.6709 33.04
c-10.2168 -3.85938 -13.5107 -31.6904 -14.7676 -40.3662z" />
    <glyph glyph-name="V" unicode="V" horiz-adv-x="673" 
d="M527.875 -119.777c-5.43164 -16.252 -39.1455 -15.1445 -50.1562 -7.54102c-22.3955 15.4766 -28.4121 37.3408 -33.209 62.9492c-6.32227 33.7441 -12.3857 67.5352 -18.4678 101.322c-11.6484 64.7275 -23.7275 129.396 -34.7812 194.23
c-18.2764 107.191 -39.5342 214.782 -83.8037 314.745c-19.9492 45.0449 -49.5986 88.8057 -103.145 92.8125c-50.2295 3.75977 -100.725 -22.8682 -136.394 -56.4775c-32.3184 -30.4561 -56.1357 -69.8691 -67.543 -112.836
c-12.3789 -46.6357 -11.4131 -102.575 19.2334 -142.173c28.4375 -36.7441 76.2822 -56.8555 122.38 -51.208c48.8135 5.97852 92.0205 36.9971 119.852 76.5566c4.69434 6.67285 25.8496 3.65039 21.002 -3.2998c-31.4121 -45.0449 -79.6885 -78.4883 -134.865 -85.6328
c-51.8389 -6.71289 -107.284 10.9102 -142.731 50.1357c-69.7842 77.2295 -29.6523 202.816 35.4727 269.066c34.4629 35.0566 80.417 60.9805 129.394 68.1152c54.6328 7.95996 103.984 -12.1299 140.382 -53.0527c37.9004 -42.6133 62.6338 -97.6562 81.4795 -150.877
c20.7334 -58.5488 35.2344 -118.938 48.1172 -179.629c13.6572 -64.3438 25.5869 -129.05 38.0098 -193.641c3.10059 -16.1299 6.22949 -32.2529 9.3457 -48.3828c2.81543 34.7314 5.84961 69.4443 9.4873 104.098c8.16602 77.7666 19.2578 155.349 37.5469 231.434
c31.3027 130.222 84.8643 264.459 180.683 361.127c48.2949 48.7236 108.932 84.4922 176.322 98.8027c56.874 12.0791 121.377 8.24414 169.497 -27.3438c19.9014 -14.7197 36.4746 -34.5781 43.0156 -58.8184c8.40723 -31.1494 0.538086 -63.3027 -13.2637 -91.6426
c-24.7432 -50.8105 -70.8379 -90.0771 -123.946 -108.726c-50.752 -17.8203 -116.724 -18.7422 -158.74 19.6084c-35.2881 32.2061 -37.8164 93.7402 3.4502 121.833c7.56934 5.15332 29.7119 -1.82812 17.6455 -10.0566
c-22.5928 -15.4072 -27.5117 -46.3223 -20.1982 -71.2119c8.3418 -28.3936 32.6191 -46.9707 60.6406 -53.9932c59.4707 -14.9072 123.893 15.8955 164.003 58.9023c36.4717 39.1035 65.3779 103.513 32.1719 153.12c-27.5527 41.1602 -84.5615 54.127 -131.069 49.0293
c-118.283 -12.9668 -203.332 -112.695 -255.79 -211.474c-56.6426 -106.666 -87.5576 -224.83 -106.4 -343.525c-9.61621 -60.5928 -16.167 -121.627 -21.5957 -182.724c-5.37891 -60.499 -3.63184 -125.577 -23.0303 -183.623z" />
    <glyph glyph-name="W" unicode="W" horiz-adv-x="1213" 
d="M1319.29 853.25c51.2422 42.376 117.84 81.9092 186.774 74.9932c27.8184 -2.79102 58.7461 -13.6885 75.373 -37.4814c15.917 -22.7744 21.7021 -49.0986 19.8516 -76.5947c-3.79688 -56.4023 -38.0967 -114.648 -86.1387 -144.542
c-46.3789 -28.8555 -116.351 -29.8994 -154.895 12.8799c-10.6602 11.832 20.0488 17.667 27.6621 9.21582c22.8838 -25.3926 57.8838 -33.5312 89.7871 -20.9111c33.3027 13.1758 58.6426 42.791 74.8848 73.8662c26.6865 51.0605 32.0898 139.606 -39.2949 156.221
c-30.8467 7.17871 -61.5059 -7.89453 -87.2051 -23.458c-25.2744 -15.3076 -48.0449 -34.0186 -69.3379 -54.4482c-43.4668 -41.707 -78.3955 -91.9834 -106.789 -144.913c-65.4189 -121.945 -98.6846 -259.214 -127.375 -393.63
c-14.9824 -70.1973 -27.9863 -141.095 -53.2266 -208.535c-16.6172 -44.3945 -40.2041 -113.951 -98.5967 -112.223c-27.915 0.825195 -51.8301 20.4395 -70.6416 39.2725c-21.5615 21.5859 -38.7627 47.3633 -52.7861 74.3594
c-27.5186 52.9639 -42.9326 110.926 -64.2627 166.484c-12.7266 -54.1953 -28.6562 -108.132 -54.709 -157.39c-30.5654 -57.7803 -78.6797 -113.329 -142.823 -133.653c-63.8936 -20.2422 -134.847 -4.93164 -175.312 50.4014
c-35.5938 48.6768 -49.8955 112.62 -62.9404 170.419c-15.1514 67.1221 -23.9619 135.3 -34.4473 203.237c-10.0166 64.8994 -17.5889 132.152 -37.9316 194.836c-8.7666 27.0088 -21.1738 55.252 -43.3262 73.9541c-24.7432 20.8896 -58.1396 29.8994 -90.1367 26.0713
c-59.6777 -7.1377 -107.401 -54.583 -129.266 -108.517c-24.7773 -61.1152 -13.4482 -131.841 42.9883 -170.795c51.2549 -35.3779 142.301 -39.8252 187.83 8.07324c5.44727 5.73145 26.7246 1.6748 19.2266 -6.40723
c-46.2949 -49.917 -138.051 -51.6328 -196.822 -26.2773c-63.2275 27.2803 -100.019 90.2646 -87.9395 158.809c19.8955 112.889 149.198 202.122 257.289 138.51c55.7773 -32.8252 80.6797 -97.4092 99.9873 -155.724c22.1836 -67.0029 33.957 -137.053 46.9238 -206.259
c13.4541 -71.8008 26.8613 -143.714 51.5137 -212.698c17.5176 -49.0137 46.7764 -119.242 110.772 -109.842c59.9082 8.80078 104.269 69.3154 130.074 119.133c29.3467 56.6455 44.3984 119.083 61.2598 180.207c4.49707 16.2988 49.9668 15.0703 54.7549 0.34375
c1.9502 -0.8125 3.50391 -1.99707 4.22266 -3.625c33.1348 -74.8291 49.3555 -157.543 94.7939 -226.652c10.8232 -16.458 23.3936 -31.7783 37.8047 -45.2266c13.332 -12.4414 33.6123 -31.3369 53.4355 -25.9209c34.9092 9.53809 46.1035 58.6367 52.7539 88.3672
c16.6455 74.4316 24.1309 150.776 36.6162 225.955c12.4355 74.873 28.334 149.559 50.7549 222.131c38.3721 124.224 96.4463 253.285 198.868 337.983z" />
    <glyph glyph-name="X" unicode="X" horiz-adv-x="571" 
d="M774.275 -293.791c59.665 22.4736 104.781 88.4424 86.5732 152.849c-8.16992 28.8965 -28.4375 56.3086 -57.6992 66.166c-28.8779 9.72949 -60.2432 0.77832 -80.3643 -21.7305c-5.49121 -6.14453 -27.4492 -1.87891 -19.8574 6.61523
c41.3105 46.2168 120.205 40.9756 158.671 -5.99414c44.5449 -54.3896 28.9932 -131.484 -19.5117 -177.695c-45.5703 -43.4131 -108.792 -54.5889 -169.482 -49.6074c-66.75 5.47559 -127.196 39.1787 -173.919 86.1797
c-99.6807 100.271 -142.569 246.619 -171.416 381.147c-24.5088 114.298 -38.1035 230.643 -59.415 345.544c-31.6719 -54.9023 -59.5146 -111.985 -85.8643 -169.609c-36.8594 -80.6172 -70.7344 -162.649 -109.801 -242.244
c-17.8457 -36.3662 -35.3438 -74.5732 -58.2803 -108.073c-17.377 -25.3809 -39.9443 -45.4199 -72.0352 -46.0605c-13.3203 -0.265625 -13.1143 12.0732 -0.000976562 12.4141c23.8242 0.615234 40.9629 22.4551 52.7324 40.8379
c12.6758 19.7988 23.1328 41.2441 33.7646 62.1895c24.0459 47.3574 46.1729 95.6904 67.7812 144.198c51.0176 114.532 99.9473 232.037 165.385 339.272c-3.61914 18.0488 -7.46973 36.0566 -11.6328 54.0049c-8.6416 37.25 -19.6016 74.4502 -35.1279 109.466
c-13.5107 30.4717 -35.7344 57.9775 -66.1777 72.9131c-34.8936 17.1172 -72.7627 5.76953 -99.4648 -20.6982c-26.7559 -26.5215 -38.4668 -63.9121 -42.5703 -100.487c-0.978516 -8.72266 -22.6777 -8.12598 -21.7812 0c7.36328 66.6377 45.9102 135.676 119.43 142.039
c69.6592 6.03223 118.754 -55.498 151.601 -108.712c17.6387 -28.5713 30.8809 -60.4805 41.5977 -93.3926c17.0205 24.4805 35.125 48.2705 54.6172 71.1602c49.9043 58.5957 113.01 121.439 192.974 132.35c31.2471 4.2627 73.126 2.2627 94.2217 -24.9434
c23.1553 -29.8594 0.268555 -70.8262 -21.7275 -93.8975c-7.42578 -7.78809 -37.082 -3.4248 -27.0283 9.00488c13.5703 16.7734 34.9287 36.585 33.0381 60.2275c-2.06934 25.8301 -27.9463 35.8994 -50.5049 36.8838
c-44.8447 1.95312 -87.2422 -21.7334 -121.292 -48.7734c-58.0488 -46.0947 -105.541 -106.848 -146.147 -168.775c7.53516 -26.4717 13.7822 -53.1807 19.6299 -78.9736c15.5049 -68.3975 27.4434 -137.444 40.1602 -206.389
c24.8428 -134.703 53.6797 -272.135 119.955 -393.493c54.4805 -99.7627 163.506 -213.17 288.971 -165.912z" />
    <glyph glyph-name="Y" unicode="Y" horiz-adv-x="1022" 
d="M920.559 76.2871c-20.2207 -141.226 -80.8213 -281.926 -193.713 -373.479c-55.9395 -45.3633 -124.062 -79.1289 -196.568 -85.0547c-71.582 -5.84766 -140.976 18.6113 -180.789 80.7168c-37.3252 58.2207 -33.1377 129.562 1.7373 187.813
c34.3125 57.3115 92.877 97.8838 157.492 113.413c60.7061 14.5889 139.004 9.54785 178.642 -45.4639c19.624 -27.2305 21.8584 -59.9521 9.92871 -90.918c-13.9541 -36.2129 -41.0508 -60.6719 -71.0664 -83.8643c-6.64453 -5.13477 -17.4678 -6.72852 -25.1494 -2.7373
c-7.44141 3.86621 -8.75391 9.54785 -1.73145 14.5605c30.5 21.7861 65.6504 48.4199 77.1387 85.7988c11.2412 36.5596 -4.7666 74.0225 -35.8135 95.1992c-61.8555 42.1914 -152.992 15.6855 -207.554 -26.543c-49.6328 -38.4131 -87.0332 -99.625 -80.8232 -164.128
c5.71973 -59.3896 48.124 -113.032 105.602 -129.858c59.793 -17.5049 123.965 7.16309 174.298 39.085c48.8359 30.9688 90.4932 73.3135 123.515 120.618c77.1318 110.498 106.344 244.664 111.453 377.532c4.71582 122.746 -5.37305 245.683 -36.4482 364.206
c-15.9609 -123.437 -43.8262 -247.542 -119.692 -348.776c-36.6475 -48.9043 -85.1084 -88.1143 -145.036 -103.381c-57.3926 -14.6201 -123.718 -5.82227 -167.5 37.0068c-47.1289 46.1045 -61.9863 118.989 -75.1846 180.998
c-15.0674 70.8037 -23.6934 142.804 -38.5918 213.613c-6.97852 33.1719 -14.7949 68.7217 -33.3936 97.6367c-20.9736 32.6064 -59.4961 45.6953 -96.2529 35.2129c-59.2773 -16.9043 -108.926 -65.3154 -135.694 -119.733
c-24.7744 -50.3613 -37.9443 -123.074 -0.581055 -171.02c45.3916 -58.249 135.688 -36.8506 184.146 4.75c6.18164 5.30957 28.1582 0.53125 19.8574 -6.61621c-50.7451 -43.6885 -129.928 -63.4561 -191.768 -31.2559c-63.0898 32.8496 -67.0342 112.816 -48.2539 173.315
c17.4111 56.0986 55.6865 105.119 105.051 136.731c53.8242 34.4688 121.702 46.7637 172.338 0.262695c54.2549 -49.8262 75.2881 -123.114 91.4053 -192.93c17.0801 -73.9785 28.5498 -149.451 52.8682 -221.586c19.7705 -58.6426 54.4795 -116.711 122.808 -120.07
c68.9131 -3.3877 127.837 48.3516 166.188 100.71c82.4854 112.62 104.372 256.346 119.201 391.608c0.137695 1.24121 0.643555 2.31641 1.4248 3.22852c1.20605 14.3291 35.2715 13.626 42.0566 2.0498c45.7822 -78.1074 59.8711 -172.035 67.8877 -260.868
c8.31641 -92.1494 9.70703 -186.021 -3.43164 -277.785z" />
    <glyph glyph-name="Y" unicode="&#x178;" horiz-adv-x="1022" 
d="M920.559 76.2871c-20.2207 -141.226 -80.8213 -281.926 -193.713 -373.479c-55.9395 -45.3633 -124.062 -79.1289 -196.568 -85.0547c-71.582 -5.84766 -140.976 18.6113 -180.789 80.7168c-37.3252 58.2207 -33.1377 129.562 1.7373 187.813
c34.3125 57.3115 92.877 97.8838 157.492 113.413c60.7061 14.5889 139.004 9.54785 178.642 -45.4639c19.624 -27.2305 21.8584 -59.9521 9.92871 -90.918c-13.9541 -36.2129 -41.0508 -60.6719 -71.0664 -83.8643c-6.64453 -5.13477 -17.4678 -6.72852 -25.1494 -2.7373
c-7.44141 3.86621 -8.75391 9.54785 -1.73145 14.5605c30.5 21.7861 65.6504 48.4199 77.1387 85.7988c11.2412 36.5596 -4.7666 74.0225 -35.8135 95.1992c-61.8555 42.1914 -152.992 15.6855 -207.554 -26.543c-49.6328 -38.4131 -87.0332 -99.625 -80.8232 -164.128
c5.71973 -59.3896 48.124 -113.032 105.602 -129.858c59.793 -17.5049 123.965 7.16309 174.298 39.085c48.8359 30.9688 90.4932 73.3135 123.515 120.618c77.1318 110.498 106.344 244.664 111.453 377.532c4.71582 122.746 -5.37305 245.683 -36.4482 364.206
c-15.9609 -123.437 -43.8262 -247.542 -119.692 -348.776c-36.6475 -48.9043 -85.1084 -88.1143 -145.036 -103.381c-57.3926 -14.6201 -123.718 -5.82227 -167.5 37.0068c-47.1289 46.1045 -61.9863 118.989 -75.1846 180.998
c-15.0674 70.8037 -23.6934 142.804 -38.5918 213.613c-6.97852 33.1719 -14.7949 68.7217 -33.3936 97.6367c-20.9736 32.6064 -59.4961 45.6953 -96.2529 35.2129c-59.2773 -16.9043 -108.926 -65.3154 -135.694 -119.733
c-24.7744 -50.3613 -37.9443 -123.074 -0.581055 -171.02c45.3916 -58.249 135.688 -36.8506 184.146 4.75c6.18164 5.30957 28.1582 0.53125 19.8574 -6.61621c-50.7451 -43.6885 -129.928 -63.4561 -191.768 -31.2559c-63.0898 32.8496 -67.0342 112.816 -48.2539 173.315
c17.4111 56.0986 55.6865 105.119 105.051 136.731c53.8242 34.4688 121.702 46.7637 172.338 0.262695c54.2549 -49.8262 75.2881 -123.114 91.4053 -192.93c17.0801 -73.9785 28.5498 -149.451 52.8682 -221.586c19.7705 -58.6426 54.4795 -116.711 122.808 -120.07
c68.9131 -3.3877 127.837 48.3516 166.188 100.71c82.4854 112.62 104.372 256.346 119.201 391.608c0.137695 1.24121 0.643555 2.31641 1.4248 3.22852c1.20605 14.3291 35.2715 13.626 42.0566 2.0498c45.7822 -78.1074 59.8711 -172.035 67.8877 -260.868
c8.31641 -92.1494 9.70703 -186.021 -3.43164 -277.785z" />
    <glyph glyph-name="Y" unicode="&#xdd;" horiz-adv-x="1022" 
d="M920.559 76.2871c-20.2207 -141.226 -80.8213 -281.926 -193.713 -373.479c-55.9395 -45.3633 -124.062 -79.1289 -196.568 -85.0547c-71.582 -5.84766 -140.976 18.6113 -180.789 80.7168c-37.3252 58.2207 -33.1377 129.562 1.7373 187.813
c34.3125 57.3115 92.877 97.8838 157.492 113.413c60.7061 14.5889 139.004 9.54785 178.642 -45.4639c19.624 -27.2305 21.8584 -59.9521 9.92871 -90.918c-13.9541 -36.2129 -41.0508 -60.6719 -71.0664 -83.8643c-6.64453 -5.13477 -17.4678 -6.72852 -25.1494 -2.7373
c-7.44141 3.86621 -8.75391 9.54785 -1.73145 14.5605c30.5 21.7861 65.6504 48.4199 77.1387 85.7988c11.2412 36.5596 -4.7666 74.0225 -35.8135 95.1992c-61.8555 42.1914 -152.992 15.6855 -207.554 -26.543c-49.6328 -38.4131 -87.0332 -99.625 -80.8232 -164.128
c5.71973 -59.3896 48.124 -113.032 105.602 -129.858c59.793 -17.5049 123.965 7.16309 174.298 39.085c48.8359 30.9688 90.4932 73.3135 123.515 120.618c77.1318 110.498 106.344 244.664 111.453 377.532c4.71582 122.746 -5.37305 245.683 -36.4482 364.206
c-15.9609 -123.437 -43.8262 -247.542 -119.692 -348.776c-36.6475 -48.9043 -85.1084 -88.1143 -145.036 -103.381c-57.3926 -14.6201 -123.718 -5.82227 -167.5 37.0068c-47.1289 46.1045 -61.9863 118.989 -75.1846 180.998
c-15.0674 70.8037 -23.6934 142.804 -38.5918 213.613c-6.97852 33.1719 -14.7949 68.7217 -33.3936 97.6367c-20.9736 32.6064 -59.4961 45.6953 -96.2529 35.2129c-59.2773 -16.9043 -108.926 -65.3154 -135.694 -119.733
c-24.7744 -50.3613 -37.9443 -123.074 -0.581055 -171.02c45.3916 -58.249 135.688 -36.8506 184.146 4.75c6.18164 5.30957 28.1582 0.53125 19.8574 -6.61621c-50.7451 -43.6885 -129.928 -63.4561 -191.768 -31.2559c-63.0898 32.8496 -67.0342 112.816 -48.2539 173.315
c17.4111 56.0986 55.6865 105.119 105.051 136.731c53.8242 34.4688 121.702 46.7637 172.338 0.262695c54.2549 -49.8262 75.2881 -123.114 91.4053 -192.93c17.0801 -73.9785 28.5498 -149.451 52.8682 -221.586c19.7705 -58.6426 54.4795 -116.711 122.808 -120.07
c68.9131 -3.3877 127.837 48.3516 166.188 100.71c82.4854 112.62 104.372 256.346 119.201 391.608c0.137695 1.24121 0.643555 2.31641 1.4248 3.22852c1.20605 14.3291 35.2715 13.626 42.0566 2.0498c45.7822 -78.1074 59.8711 -172.035 67.8877 -260.868
c8.31641 -92.1494 9.70703 -186.021 -3.43164 -277.785z" />
    <glyph glyph-name="Z" unicode="Z" horiz-adv-x="534" 
d="M389.297 -233.473c-14.2324 -9.31348 -16.4629 -31.501 -9.5127 -45.8711c8.43164 -17.4238 27.1338 -26.4873 45.7637 -27.7998c22.3115 -1.57227 45.7197 4.69043 67.1064 10.4287c19.3301 5.1875 38.1191 11.7412 55.6553 21.5107
c29.2461 16.292 52.9385 40.2539 63.3672 72.5879c9.78516 30.3369 4.96875 64.7402 -19.0332 87.0957c-23.3555 21.7549 -57.4834 27.7588 -88.3145 28.0371c-38.3164 0.34668 -76.3164 -6.60742 -112.735 -18.2559c-70.7939 -22.6455 -135.271 -61.5986 -195.661 -104.259
c-32.1934 -22.7461 -63.5459 -46.9043 -93.0645 -73.0469c-14.6016 -12.9326 -28.9502 -26.0898 -42.4766 -40.1504c-12.2764 -12.7637 -18.4268 -29.3711 -29.7217 -43.1035c-7.00684 -8.52246 -23.3398 -9.30957 -33.2754 -7.71875
c-6.24707 1 -23.6396 6.48535 -21.6328 16.1953c13.6016 65.8623 46.2578 128.237 79.7988 186.015c33.9531 58.4932 72.8535 114.086 113.751 167.903c67.7686 89.1768 140.797 174.382 206.728 264.953c-10.0039 -1.92871 -20.002 -3.92285 -29.9746 -6.05078
c-8.13867 -1.73438 -20.8271 8.28516 -8.3916 11.3447c16.6387 4.09375 33.3525 7.72852 50.1289 11.0195c3.52246 4.9375 7.03809 9.87891 10.5107 14.8545c35.5 50.8672 71.2529 104.128 96.0117 161.211c23.0361 53.1084 38.3721 111.104 14.2539 166.885
c-25.5957 59.1963 -90.377 72.0977 -149.079 66.3037c-61.9873 -6.11914 -121.806 -30.5811 -175.529 -61.2344c-102.19 -58.3057 -186.479 -154.618 -200.003 -274.985c-1.07812 -9.60449 -24.9648 -8.94824 -23.9775 -0.000976562
c15.501 140.169 121.877 245.913 244.079 304.571c96.5869 46.3633 251.876 86.4385 326.533 -18.3057c77.7412 -109.069 -5.87891 -247.058 -67.3379 -341.657c-1.29395 -1.9873 -2.62207 -3.94727 -3.92578 -5.92871c13.4482 1.76562 26.9336 3.30371 40.457 4.61914
c4.30078 0.416016 13.7607 0.366211 15.6484 -5.06543c1.8125 -5.21875 -4.47266 -8.52539 -8.88574 -8.91895c-19.3389 -1.72852 -38.6035 -3.95703 -57.8115 -6.60059c-69.6875 -103.275 -151.188 -197.891 -225.664 -297.669
c-38.2656 -51.2676 -74.8223 -103.903 -106.794 -159.368c-18.4053 -31.9277 -33.9004 -64.7812 -48.4922 -98.0967c14.6699 12.3047 29.5742 24.3438 44.6162 36.1797c41.1816 32.4033 84.2266 62.6494 129.196 89.5771c75.7666 45.3701 159.722 81.1357 249.146 83.9951
c67.3408 2.15332 159.6 -23.7432 152.158 -108.295c-7.41992 -84.2793 -94.2783 -120.864 -165.704 -138.522c-40.3037 -9.96387 -88.2109 -12.9512 -121.401 16.8545c-27.0117 24.2559 -26.7021 64.9561 3.58789 85.8076
c12.9385 8.90723 50.4512 -3.59375 29.9023 -17.0449z" />
    <glyph glyph-name="bracketleft" unicode="[" horiz-adv-x="251" 
d="M167.68 -93.5098c12.1074 4.95312 47.9443 -6.57715 26.6611 -19.7002c-24.0957 -14.8574 -50.3887 -25.1113 -79.1787 -20.5137c-25.7646 4.10938 -45.251 19.8174 -52.7178 44.9697c-14.1924 47.8076 -11.4141 101.825 -12.0889 151.174
c-0.744141 54.3018 -0.431641 108.688 2.10254 162.943c1.27539 27.3057 3.5791 54.3711 7.5791 81.4238c3.36328 22.7305 5.19141 50.4424 16.3271 71.0439c10.0352 18.5674 29.2461 27.959 49.623 30.4688c16.8887 2.07812 48.6914 0.78125 60.499 -13.748
c4.59375 -5.65332 -2.22852 -9.67578 -7.45703 -10.4473c-21.1992 -3.12207 -48.7334 12.2852 -60.6904 -12.8701c-10.0664 -21.1797 -9.19141 -50.4668 -10.7139 -73.4629c-3.47559 -52.5234 -4.0791 -105.185 -3.57617 -157.805
c0.515625 -53.9707 0.740234 -108.229 4.72461 -162.08c1.64062 -22.1396 2.16895 -48.4639 12.2695 -68.7373c10.8389 -21.7549 28.8379 -9.94434 46.6367 -2.65918z" />
    <glyph glyph-name="backslash" unicode="\" horiz-adv-x="292" 
d="M241.116 -54.9932c9.99805 -26.4092 -54.1514 -32.0879 -62.6768 -9.84863c-56.1523 146.511 -77.2891 303.645 -127.844 452.062c-5.8291 17.1143 32.8867 19.1768 39.1309 6.14746c68.375 -142.642 95.5654 -300.894 151.39 -448.36z" />
    <glyph glyph-name="bracketright" unicode="]" horiz-adv-x="251" 
d="M199.385 204.19c1.86914 -54.4678 1.94922 -108.986 0.886719 -163.47c-0.525391 -26.8027 -0.947266 -53.6963 -3.47559 -80.3984c-2.02539 -21.4023 -3.73145 -46.8672 -15.4229 -65.6123c-27.8184 -44.5947 -87.624 -30.7871 -124.725 -7.91016
c-21.3516 13.167 14.4951 24.6709 26.6592 19.6953c8.71973 -3.56934 23.3555 -12.3359 33.3564 -10.5791c7.30664 1.28418 11.4355 9.0752 14.1855 15.3164c9.30664 21.1143 9.98828 46.8945 11.5664 69.5938c3.68164 52.9014 4.0127 106.138 4.52246 159.146
c0.512695 53.6113 -0.0400391 107.307 -3.77148 160.812c-1.53125 21.9238 -0.262695 53.0146 -11.5078 72.6289c-12.8389 22.3896 -39.4102 7.70703 -59.6992 10.6982c-5.22852 0.771484 -12.0508 4.79395 -7.45703 10.4473
c13.6826 16.8418 51.1738 16.4922 70.0664 12.0264c25.1836 -5.9541 40.4443 -22.5117 46.6387 -47.252c12.6514 -50.5293 16.3955 -103.271 18.1768 -155.142z" />
    <glyph glyph-name="asciicircum" unicode="^" horiz-adv-x="244" 
d="M178.465 330.905c10.5293 -27.4717 16.5518 -56.9297 15.8018 -86.3701c-0.509766 -19.9893 -49.7021 -19.8896 -50.8369 0c-1.14746 20.124 -3.22559 40.3818 -8.51953 59.877c-2.1875 8.05664 -4.85645 16.0107 -7.95996 23.7676
c-2.14355 -2.76562 -4.18457 -5.45312 -5.59082 -7.89746c-4.50391 -7.82227 -8.75098 -15.832 -12.7637 -23.917c-8.11328 -16.3457 -14.001 -33.8877 -22.5732 -49.9609c-5.27832 -9.8916 -35.9092 -11.7891 -36.0186 2.77832
c-0.203125 26.7842 11.792 55.3086 24.2246 78.5078c11.9541 22.3018 25.3643 43.9785 53.8105 43.9785c27.249 0 41.4531 -17.3486 50.4258 -40.7637z" />
    <glyph glyph-name="underscore" unicode="_" horiz-adv-x="348" 
d="M274.311 -74.2012c7.58789 0.22168 23.9512 -3.22168 23.9512 -13.6572c0 -10.8477 -16.0449 -13.292 -23.9521 -13.6514c-38.3594 -1.74707 -76.8008 -2.99121 -115.191 -3.81934c-19.7139 -0.424805 -39.4346 -0.724609 -59.1523 -0.683594
c-15.2168 0.0341797 -32.7061 -2.59082 -46.4414 5.0791c-5.20996 2.90918 -4.16016 7.37207 0 10.3535c12.9795 9.30078 34.8721 6.97852 50.1768 8.15332c18.4521 1.41602 36.9385 2.46289 55.418 3.44434c38.3564 2.03809 76.7939 3.66602 115.191 4.78125z" />
    <glyph glyph-name="grave" unicode="`" horiz-adv-x="151" 
d="M100.852 293.005c2.54395 -15.3516 -40.1152 -17.1895 -42.5312 -0.00390625c-2.39746 17.0703 -4.68164 34.1465 -6.10645 51.3291c-1.26562 15.248 -5.4502 33.7158 2.63477 47.4863c3.99414 6.80371 19.3643 8.0791 24.3643 1.81641
c10.3945 -13.0195 10.6006 -30.2178 13.1133 -46.2725c2.83789 -18.1201 5.52539 -36.2627 8.52539 -54.3555z" />
    <glyph glyph-name="a" unicode="a" horiz-adv-x="258" 
d="M256.838 106.472c1.58496 8.75684 23.3535 7.99023 22.0254 0.00195312c-8.13184 -48.8359 -37.6348 -139.091 -104.685 -111.479c-32.6973 13.4639 -42.7891 50.252 -46.3896 82.4707c-3.64453 -13.9014 -8.13574 -27.5088 -14.0986 -40.5879
c-16.1299 -35.3721 -54.9277 -55.752 -92.0254 -38.2158c-42.6348 20.1553 -45.3096 73.2539 -35.7686 113.642c9.94824 42.1074 34.6973 82.2549 76.9014 97.791c22.7363 8.36914 52.3857 8.39746 73.7061 -3.95703c16.9082 12.1758 56.7148 8.16895 55.9277 -11.6113
c-2.1377 -53.6328 -10.6787 -107.744 -2.45898 -161.296c1.02832 -6.7002 3 -25.7705 11.4287 -28.5303c10.667 -3.49414 23.8525 18.9795 28.0781 26.2305c13.6016 23.3301 22.5615 49.0195 27.3584 75.541zM101.115 74.7988
c10.3857 36.6436 15.6689 74.5254 24.8506 111.485c-24.9551 22.7148 -57.624 -14.123 -71.5225 -38.8975c-17.7764 -31.6934 -26.6367 -72.4189 -19.4521 -108.51c1.76562 -8.87598 5.89453 -18.627 12.5293 -24.9961c9.67285 -9.28516 21.1924 -1.40332 28.8271 6.67871
c13.5234 14.3105 19.5361 35.7812 24.7676 54.2393z" />
    <glyph glyph-name="a" unicode="&#xe5;" horiz-adv-x="258" 
d="M256.838 106.472c1.58496 8.75684 23.3535 7.99023 22.0254 0.00195312c-8.13184 -48.8359 -37.6348 -139.091 -104.685 -111.479c-32.6973 13.4639 -42.7891 50.252 -46.3896 82.4707c-3.64453 -13.9014 -8.13574 -27.5088 -14.0986 -40.5879
c-16.1299 -35.3721 -54.9277 -55.752 -92.0254 -38.2158c-42.6348 20.1553 -45.3096 73.2539 -35.7686 113.642c9.94824 42.1074 34.6973 82.2549 76.9014 97.791c22.7363 8.36914 52.3857 8.39746 73.7061 -3.95703c16.9082 12.1758 56.7148 8.16895 55.9277 -11.6113
c-2.1377 -53.6328 -10.6787 -107.744 -2.45898 -161.296c1.02832 -6.7002 3 -25.7705 11.4287 -28.5303c10.667 -3.49414 23.8525 18.9795 28.0781 26.2305c13.6016 23.3301 22.5615 49.0195 27.3584 75.541zM101.115 74.7988
c10.3857 36.6436 15.6689 74.5254 24.8506 111.485c-24.9551 22.7148 -57.624 -14.123 -71.5225 -38.8975c-17.7764 -31.6934 -26.6367 -72.4189 -19.4521 -108.51c1.76562 -8.87598 5.89453 -18.627 12.5293 -24.9961c9.67285 -9.28516 21.1924 -1.40332 28.8271 6.67871
c13.5234 14.3105 19.5361 35.7812 24.7676 54.2393z" />
    <glyph glyph-name="a" unicode="&#xe4;" horiz-adv-x="258" 
d="M256.838 106.472c1.58496 8.75684 23.3535 7.99023 22.0254 0.00195312c-8.13184 -48.8359 -37.6348 -139.091 -104.685 -111.479c-32.6973 13.4639 -42.7891 50.252 -46.3896 82.4707c-3.64453 -13.9014 -8.13574 -27.5088 -14.0986 -40.5879
c-16.1299 -35.3721 -54.9277 -55.752 -92.0254 -38.2158c-42.6348 20.1553 -45.3096 73.2539 -35.7686 113.642c9.94824 42.1074 34.6973 82.2549 76.9014 97.791c22.7363 8.36914 52.3857 8.39746 73.7061 -3.95703c16.9082 12.1758 56.7148 8.16895 55.9277 -11.6113
c-2.1377 -53.6328 -10.6787 -107.744 -2.45898 -161.296c1.02832 -6.7002 3 -25.7705 11.4287 -28.5303c10.667 -3.49414 23.8525 18.9795 28.0781 26.2305c13.6016 23.3301 22.5615 49.0195 27.3584 75.541zM101.115 74.7988
c10.3857 36.6436 15.6689 74.5254 24.8506 111.485c-24.9551 22.7148 -57.624 -14.123 -71.5225 -38.8975c-17.7764 -31.6934 -26.6367 -72.4189 -19.4521 -108.51c1.76562 -8.87598 5.89453 -18.627 12.5293 -24.9961c9.67285 -9.28516 21.1924 -1.40332 28.8271 6.67871
c13.5234 14.3105 19.5361 35.7812 24.7676 54.2393z" />
    <glyph glyph-name="a" unicode="&#xe3;" horiz-adv-x="258" 
d="M256.838 106.472c1.58496 8.75684 23.3535 7.99023 22.0254 0.00195312c-8.13184 -48.8359 -37.6348 -139.091 -104.685 -111.479c-32.6973 13.4639 -42.7891 50.252 -46.3896 82.4707c-3.64453 -13.9014 -8.13574 -27.5088 -14.0986 -40.5879
c-16.1299 -35.3721 -54.9277 -55.752 -92.0254 -38.2158c-42.6348 20.1553 -45.3096 73.2539 -35.7686 113.642c9.94824 42.1074 34.6973 82.2549 76.9014 97.791c22.7363 8.36914 52.3857 8.39746 73.7061 -3.95703c16.9082 12.1758 56.7148 8.16895 55.9277 -11.6113
c-2.1377 -53.6328 -10.6787 -107.744 -2.45898 -161.296c1.02832 -6.7002 3 -25.7705 11.4287 -28.5303c10.667 -3.49414 23.8525 18.9795 28.0781 26.2305c13.6016 23.3301 22.5615 49.0195 27.3584 75.541zM101.115 74.7988
c10.3857 36.6436 15.6689 74.5254 24.8506 111.485c-24.9551 22.7148 -57.624 -14.123 -71.5225 -38.8975c-17.7764 -31.6934 -26.6367 -72.4189 -19.4521 -108.51c1.76562 -8.87598 5.89453 -18.627 12.5293 -24.9961c9.67285 -9.28516 21.1924 -1.40332 28.8271 6.67871
c13.5234 14.3105 19.5361 35.7812 24.7676 54.2393z" />
    <glyph glyph-name="a" unicode="&#xe2;" horiz-adv-x="258" 
d="M256.838 106.472c1.58496 8.75684 23.3535 7.99023 22.0254 0.00195312c-8.13184 -48.8359 -37.6348 -139.091 -104.685 -111.479c-32.6973 13.4639 -42.7891 50.252 -46.3896 82.4707c-3.64453 -13.9014 -8.13574 -27.5088 -14.0986 -40.5879
c-16.1299 -35.3721 -54.9277 -55.752 -92.0254 -38.2158c-42.6348 20.1553 -45.3096 73.2539 -35.7686 113.642c9.94824 42.1074 34.6973 82.2549 76.9014 97.791c22.7363 8.36914 52.3857 8.39746 73.7061 -3.95703c16.9082 12.1758 56.7148 8.16895 55.9277 -11.6113
c-2.1377 -53.6328 -10.6787 -107.744 -2.45898 -161.296c1.02832 -6.7002 3 -25.7705 11.4287 -28.5303c10.667 -3.49414 23.8525 18.9795 28.0781 26.2305c13.6016 23.3301 22.5615 49.0195 27.3584 75.541zM101.115 74.7988
c10.3857 36.6436 15.6689 74.5254 24.8506 111.485c-24.9551 22.7148 -57.624 -14.123 -71.5225 -38.8975c-17.7764 -31.6934 -26.6367 -72.4189 -19.4521 -108.51c1.76562 -8.87598 5.89453 -18.627 12.5293 -24.9961c9.67285 -9.28516 21.1924 -1.40332 28.8271 6.67871
c13.5234 14.3105 19.5361 35.7812 24.7676 54.2393z" />
    <glyph glyph-name="a" unicode="&#xe1;" horiz-adv-x="258" 
d="M256.838 106.472c1.58496 8.75684 23.3535 7.99023 22.0254 0.00195312c-8.13184 -48.8359 -37.6348 -139.091 -104.685 -111.479c-32.6973 13.4639 -42.7891 50.252 -46.3896 82.4707c-3.64453 -13.9014 -8.13574 -27.5088 -14.0986 -40.5879
c-16.1299 -35.3721 -54.9277 -55.752 -92.0254 -38.2158c-42.6348 20.1553 -45.3096 73.2539 -35.7686 113.642c9.94824 42.1074 34.6973 82.2549 76.9014 97.791c22.7363 8.36914 52.3857 8.39746 73.7061 -3.95703c16.9082 12.1758 56.7148 8.16895 55.9277 -11.6113
c-2.1377 -53.6328 -10.6787 -107.744 -2.45898 -161.296c1.02832 -6.7002 3 -25.7705 11.4287 -28.5303c10.667 -3.49414 23.8525 18.9795 28.0781 26.2305c13.6016 23.3301 22.5615 49.0195 27.3584 75.541zM101.115 74.7988
c10.3857 36.6436 15.6689 74.5254 24.8506 111.485c-24.9551 22.7148 -57.624 -14.123 -71.5225 -38.8975c-17.7764 -31.6934 -26.6367 -72.4189 -19.4521 -108.51c1.76562 -8.87598 5.89453 -18.627 12.5293 -24.9961c9.67285 -9.28516 21.1924 -1.40332 28.8271 6.67871
c13.5234 14.3105 19.5361 35.7812 24.7676 54.2393z" />
    <glyph glyph-name="b" unicode="b" horiz-adv-x="273" 
d="M274.675 101.79c5.55371 6.30371 27.9658 2.03125 20.2871 -6.75977c-21.9648 -25.1182 -51.2363 -41.1162 -82.9238 -49.1826c-9.46973 -39.5322 -33.25 -74.7607 -75.0723 -82.6611c-21.3301 -4.02832 -55.7773 -0.706055 -64.2939 23.5654
c-8.52539 24.3115 12.6172 47.2227 32.9414 56.6396c17.1641 7.9541 35.8096 8.83496 54.4678 9.68164c6.55664 23.0674 8.60059 48.0664 8.77539 68.9092c0.168945 20.1143 -0.0371094 51.1855 -15.6787 65.793c-26.5771 24.8184 -48.6104 -16.8887 -58.6553 -37.3184
c-17.248 -35.085 -27.4707 -73.792 -32.7803 -112.762c0.140625 -15.4639 -0.572266 -30.9023 -3.04102 -46.2568c-2.39355 -14.8672 -36.5156 -17.249 -41.5352 -3.2041c-15.5049 43.3857 -18.2207 90.6152 -21.9961 136.197
c-3.66602 44.251 -5.0791 88.8613 -4.84766 133.256c0.380859 72.8789 3.34082 152.155 38.335 217.924c13.9141 26.1494 35.6377 49.7139 64.4717 58.9619c27.3271 8.7666 59.5518 4.57227 81.6416 -14.4854c49.9395 -43.0879 9.57324 -130.049 -12.8789 -177.413
c-27.8965 -58.8428 -65.9473 -112.264 -107.095 -162.537c0.706055 -19.5361 1.64648 -39.0664 2.70605 -58.5869c9.68555 28.3682 23.7998 64.3809 49.9746 80.7793c21.1396 13.2422 48.9609 9.25391 67.0186 -7.4541c22.2646 -20.5986 34.8311 -48.876 39.9531 -78.3252
c2.94727 -16.9395 3.25684 -35.9316 0.603516 -54.6611c22.8838 7.97852 43.3545 21.4424 59.6221 39.9004zM65.5615 395.901c-10.9727 -59.2871 -12.8408 -119.777 -11.7598 -179.971c32.5 42.2979 61.7871 87.0361 83.8643 135.76
c17.5488 38.7256 62.3213 136.913 1.28711 160.222c-49.3701 18.8516 -67.9971 -86.8643 -73.3916 -116.011zM124.931 -3.7168c14.0918 10.3975 23.8242 25.6523 30.4873 42.8447c-18.8486 -0.96875 -38.1562 -3.70996 -49.8447 -19.4707
c-5.72266 -7.7168 -10.3887 -27.2998 2.50586 -31.4717c3.99707 -1.29395 12.4668 4.86328 16.8516 8.09766z" />
    <glyph glyph-name="c" unicode="c" horiz-adv-x="157" 
d="M157.199 102.628c3.43457 7.28223 24.8779 5.45508 21.2373 -3.33301c-19.0049 -45.9258 -46.457 -101.628 -99.4805 -114.348c-26.1553 -6.27539 -53.2207 2.7627 -70.7158 23.0615c-18.3926 21.3359 -24.7559 48.0947 -25.0938 75.7129
c-0.681641 55.9834 23.6455 119.552 86.2891 127.756c21.6299 2.83105 44.251 -3.63477 51.7422 -25.8936c8.11914 -24.124 -1.23438 -50.1016 -8.96973 -73.041c-2.67871 -7.94141 -25.2656 -5.85059 -21.9434 3.44727c6.57227 18.3955 14.2607 39.0098 9.7793 58.7988
c-1.47852 6.52246 -5.94141 17.9893 -12.708 16.3047c-4.11914 -1.02539 -10.7227 -12.9238 -13.0264 -16.3496c-20.1924 -30.0215 -28.5244 -63.209 -28.624 -99.2812c-0.0751953 -27.874 8.70703 -95.918 50.5801 -62.793c28.4062 22.4736 45.8105 57.8867 60.9336 89.958
z" />
    <glyph glyph-name="d" unicode="d" horiz-adv-x="336" 
d="M335.477 109.872c2.87793 7.75684 24.9805 5.80371 21.7119 -3.41602c-14.3105 -40.2939 -34.1221 -91.833 -74.6387 -112.604c-43.1104 -22.0986 -87.3711 -9.68457 -114.646 29.71c-17.7393 25.6211 -27.418 56.0273 -32.875 87.002
c-4.69434 -25.377 -10.707 -50.3633 -21.3428 -73.6875c-16.1299 -35.3721 -54.9277 -55.752 -92.0254 -38.2158c-42.6348 20.1553 -45.3096 73.2539 -35.7686 113.642c9.94824 42.1074 34.6973 82.2549 76.9014 97.791c19.8457 7.30664 44.9609 8.24707 65.207 0.155273
c0.212891 30.0967 1.91309 60.2119 3.50391 90.2236c2.62793 49.6143 6.49121 99.4531 17.5674 148.001c9.49805 41.6289 27.0781 88.5391 67.9814 108.763c32.8535 16.2451 76.7266 9.16016 91.9033 -26.5654c17.0049 -40.0283 5.0166 -87.1387 -6.5498 -126.893
c-22.8486 -78.542 -58.752 -157.178 -106.581 -224.521c0.90332 -45.5947 6.08789 -90.8203 21.6865 -134.409c4.86328 -13.5918 11.0605 -27.9619 22.1182 -37.7627c14.501 -12.8516 31.7646 -1.92578 43.6875 9.30371c25.459 23.9775 40.248 61.3496 52.1582 93.4834z
M198.189 276.375c-0.856445 -18.4795 -1.71484 -37.0518 -2.17773 -55.625c32.3369 53.2646 57.4521 111.86 75.9229 170.304c11.1543 35.2881 23.749 75.9883 16.5264 113.305c-2.26855 11.7227 -13.5664 46.5889 -29.9678 36.6445
c-11.8418 -7.17871 -17.3984 -22.9961 -22.5146 -34.9814c-30.8252 -72.2031 -34.2041 -152.227 -37.7891 -229.646zM101.112 74.7979c10.3857 36.6436 15.6689 74.5254 24.8506 111.485c-24.9551 22.7148 -57.624 -14.123 -71.5225 -38.8975
c-17.7764 -31.6934 -26.6367 -72.4189 -19.4521 -108.51c1.76562 -8.87598 5.89453 -18.627 12.5293 -24.9961c9.67285 -9.28516 21.1924 -1.40332 28.8271 6.67871c13.5234 14.3105 19.5361 35.7812 24.7676 54.2393z" />
    <glyph glyph-name="e" unicode="e" horiz-adv-x="153" 
d="M152.513 106.51c2.70996 7.78516 24.7988 5.91602 21.7021 -3.41016c-14.4668 -43.5762 -38.4502 -110.961 -88.8389 -123.631c-50.0889 -12.5947 -85.9795 29.6279 -95.5771 74.3105c-9.44727 44.0039 -7.33789 108.122 25.5684 142.891
c15.4609 16.3359 38.0195 26.4092 60.6279 26.3467c16.8301 -0.046875 36.8193 -7.73535 42.2637 -25.2148c11.2168 -36.0068 -35.7344 -53.4053 -67.5527 -59.1621c-4.18457 -19.3203 -5.70996 -39.3066 -5.39746 -58.7959
c0.322266 -20.2734 2.75098 -41.6348 9.83301 -60.7432c2.625 -7.08496 6.27246 -14.9229 12.0732 -19.998c9.52539 -8.33203 18.0732 -3.15625 26.9395 4.15332c29.7842 24.5557 46.042 67.8662 58.3584 103.254zM67.9883 186.221
c-5.77246 -10.5537 -10.2412 -21.7432 -13.6475 -33.2852c15.5264 3.32227 31.5967 10.2041 38.6133 23.1055c4.5 8.27246 4.6123 28.1777 -9.08887 26.9873c-7.4043 -0.643555 -12.5234 -10.6758 -15.877 -16.8076z" />
    <glyph glyph-name="e" unicode="&#xeb;" horiz-adv-x="153" 
d="M152.513 106.51c2.70996 7.78516 24.7988 5.91602 21.7021 -3.41016c-14.4668 -43.5762 -38.4502 -110.961 -88.8389 -123.631c-50.0889 -12.5947 -85.9795 29.6279 -95.5771 74.3105c-9.44727 44.0039 -7.33789 108.122 25.5684 142.891
c15.4609 16.3359 38.0195 26.4092 60.6279 26.3467c16.8301 -0.046875 36.8193 -7.73535 42.2637 -25.2148c11.2168 -36.0068 -35.7344 -53.4053 -67.5527 -59.1621c-4.18457 -19.3203 -5.70996 -39.3066 -5.39746 -58.7959
c0.322266 -20.2734 2.75098 -41.6348 9.83301 -60.7432c2.625 -7.08496 6.27246 -14.9229 12.0732 -19.998c9.52539 -8.33203 18.0732 -3.15625 26.9395 4.15332c29.7842 24.5557 46.042 67.8662 58.3584 103.254zM67.9883 186.221
c-5.77246 -10.5537 -10.2412 -21.7432 -13.6475 -33.2852c15.5264 3.32227 31.5967 10.2041 38.6133 23.1055c4.5 8.27246 4.6123 28.1777 -9.08887 26.9873c-7.4043 -0.643555 -12.5234 -10.6758 -15.877 -16.8076z" />
    <glyph glyph-name="e" unicode="&#xea;" horiz-adv-x="153" 
d="M152.513 106.51c2.70996 7.78516 24.7988 5.91602 21.7021 -3.41016c-14.4668 -43.5762 -38.4502 -110.961 -88.8389 -123.631c-50.0889 -12.5947 -85.9795 29.6279 -95.5771 74.3105c-9.44727 44.0039 -7.33789 108.122 25.5684 142.891
c15.4609 16.3359 38.0195 26.4092 60.6279 26.3467c16.8301 -0.046875 36.8193 -7.73535 42.2637 -25.2148c11.2168 -36.0068 -35.7344 -53.4053 -67.5527 -59.1621c-4.18457 -19.3203 -5.70996 -39.3066 -5.39746 -58.7959
c0.322266 -20.2734 2.75098 -41.6348 9.83301 -60.7432c2.625 -7.08496 6.27246 -14.9229 12.0732 -19.998c9.52539 -8.33203 18.0732 -3.15625 26.9395 4.15332c29.7842 24.5557 46.042 67.8662 58.3584 103.254zM67.9883 186.221
c-5.77246 -10.5537 -10.2412 -21.7432 -13.6475 -33.2852c15.5264 3.32227 31.5967 10.2041 38.6133 23.1055c4.5 8.27246 4.6123 28.1777 -9.08887 26.9873c-7.4043 -0.643555 -12.5234 -10.6758 -15.877 -16.8076z" />
    <glyph glyph-name="e" unicode="&#xe9;" horiz-adv-x="153" 
d="M152.513 106.51c2.70996 7.78516 24.7988 5.91602 21.7021 -3.41016c-14.4668 -43.5762 -38.4502 -110.961 -88.8389 -123.631c-50.0889 -12.5947 -85.9795 29.6279 -95.5771 74.3105c-9.44727 44.0039 -7.33789 108.122 25.5684 142.891
c15.4609 16.3359 38.0195 26.4092 60.6279 26.3467c16.8301 -0.046875 36.8193 -7.73535 42.2637 -25.2148c11.2168 -36.0068 -35.7344 -53.4053 -67.5527 -59.1621c-4.18457 -19.3203 -5.70996 -39.3066 -5.39746 -58.7959
c0.322266 -20.2734 2.75098 -41.6348 9.83301 -60.7432c2.625 -7.08496 6.27246 -14.9229 12.0732 -19.998c9.52539 -8.33203 18.0732 -3.15625 26.9395 4.15332c29.7842 24.5557 46.042 67.8662 58.3584 103.254zM67.9883 186.221
c-5.77246 -10.5537 -10.2412 -21.7432 -13.6475 -33.2852c15.5264 3.32227 31.5967 10.2041 38.6133 23.1055c4.5 8.27246 4.6123 28.1777 -9.08887 26.9873c-7.4043 -0.643555 -12.5234 -10.6758 -15.877 -16.8076z" />
    <glyph glyph-name="f" unicode="f" horiz-adv-x="204" 
d="M217.959 109.316c11.0918 0.75 15.7002 -11.4297 3.02441 -12.7422c-48.7451 -5.03809 -94.2148 -31.5 -131.844 -62.9062c20.6797 1.1123 41.9316 1.42773 60.7988 -6.01074c20.0928 -7.92285 36.0752 -25.624 42.5693 -46.1514
c12.7764 -40.3945 -9.70996 -107.248 -58.127 -110.367c-50.2764 -3.2373 -87.5986 47.0459 -106.297 87.7119c-21.6611 47.1104 -31.5 100.387 -34.7695 151.876c-3.47852 54.8086 -0.803711 110.039 4.27832 164.666c4.80371 51.624 14.5049 104.704 41.2637 149.809
c20.083 33.8564 64.5967 82.3701 109.238 67.875c48.6953 -15.8105 35.7129 -85.5449 26.459 -122.352c-22.2959 -88.6582 -64.915 -170.788 -114.235 -247.464c0.962891 -27.6084 3.31641 -55.127 7.51074 -82.4072c42.748 35.8252 94.0742 64.6846 150.13 68.4629z
M85.8301 390.549c-18.1328 -74.1348 -25.8916 -152.559 -26.0635 -229.247c34.0156 56.8584 63.3213 116.521 83.2197 179.852c6.84082 21.7773 13.2129 44.0107 15.71 66.7656c2.22168 20.2334 3.2373 49.5801 -12.5176 65.1816
c-29.3525 29.0684 -56.2422 -65.7627 -60.3486 -82.5518zM133.264 16.9854c-18.2207 6.0752 -41.6934 2.90625 -61.5576 1.67773c0.546875 -2.84375 1.0625 -5.69434 1.65332 -8.53223c7.28223 -34.9717 20.5205 -74.9316 44.71 -102.1
c5.98145 -6.71582 13.8262 -15.3604 23.5518 -12.873c9.63867 2.46582 16.4551 14.208 20.4082 22.4092c8.84766 18.3613 12.4229 40.3506 6.37891 60.1553c-5.20703 17.0605 -17.749 33.4619 -35.1445 39.2627z" />
    <glyph glyph-name="g" unicode="g" horiz-adv-x="275" 
d="M278.587 105.572c5.11914 6.18457 26.5469 2.28906 19.4404 -6.46777c-25.6738 -31.6533 -59.4648 -53.4238 -94.4873 -73.5791c0.87793 -45.1416 2.14648 -90.293 2.55859 -135.435c0.599609 -65.5342 -4.26367 -172.656 -81.7236 -195.271
c-68.2471 -19.9238 -126.912 32.5781 -133.297 99.3311c-7.34082 76.7354 44.7139 142.382 103.066 185.229c13.373 9.81934 27.5869 18.6416 42.1289 27.0801c-1.92188 29.2119 -3.5625 58.6055 -4.44043 87.9648c-4.25684 -19.7959 -9.76953 -39.1855 -18.1426 -57.5439
c-16.1299 -35.3721 -54.9277 -55.752 -92.0254 -38.2158c-42.6348 20.1553 -45.3096 73.2539 -35.7686 113.642c9.94824 42.1074 34.6973 82.2549 76.9014 97.791c23.3428 8.5918 53.9736 8.39453 75.3945 -4.96875c16.2012 14.8135 61.7432 10.96 63.0029 -11.3701
c2.7998 -49.6113 1.30273 -99.6221 2.00586 -149.327c28.0029 16.8574 54.3682 35.7471 75.3857 61.1396zM101.115 74.8027c10.3857 36.6436 15.665 74.5254 24.8506 111.485c-24.9551 22.7148 -57.624 -14.123 -71.5225 -38.8975
c-17.7764 -31.6934 -26.6367 -72.4189 -19.4521 -108.51c1.76562 -8.87598 5.89453 -18.627 12.5293 -24.9961c9.67285 -9.28516 21.1924 -1.40332 28.8271 6.67871c13.5234 14.3105 19.5361 35.7812 24.7676 54.2393zM134.744 -262.522
c14.0391 31.5469 14.4268 69.4424 13.4639 103.327c-1.09375 38.5908 -5.70996 77.1758 -8.4668 115.683c-0.731445 10.2227 -1.46289 20.4863 -2.17578 30.7783c-5.99414 -3.78809 -11.8916 -7.68555 -17.6543 -11.7422
c-56.0957 -39.5098 -106.26 -98.8281 -104.494 -171.275c0.793945 -32.6123 13.9951 -67.6279 41.5068 -86.9893c29.2061 -20.5547 63.2344 -12.5566 77.8203 20.2188z" />
    <glyph glyph-name="h" unicode="h" horiz-adv-x="281" 
d="M278.215 109.438c2.22852 7.06934 23.8467 5.90137 22.1094 -1.69922c-6.30371 -27.6055 -13.0664 -54.9863 -20.3486 -82.3545c-5.85059 -21.9805 -11.5664 -47.4893 -29.002 -63.585c-31.6377 -29.2119 -81.292 -2.59082 -93.5459 32.9092
c-15.0762 43.667 -10.2666 94.04 -11.123 139.548c-0.15625 8.45117 2.90332 64.21 -4.41309 64.9443c-7.89746 0.791016 -18.3926 -20.9512 -21.9521 -27.0986c-5.80371 -10.0293 -10.7666 -20.5273 -15.2354 -31.21
c-18.6826 -44.6543 -30.9307 -92.0742 -44.5449 -138.473c-0.400391 -3.66309 -0.869141 -7.32324 -1.45703 -10.9766c-2.39355 -14.8672 -36.5156 -17.249 -41.5352 -3.2041c-15.5049 43.3857 -18.2207 90.6152 -21.9961 136.197
c-3.66602 44.251 -5.0791 88.8613 -4.84766 133.256c0.380859 72.8789 3.33691 152.155 38.334 217.924c13.9141 26.1494 35.6377 49.7139 64.4717 58.9619c27.3271 8.7666 59.5518 4.57227 81.6416 -14.4854c49.9395 -43.0879 9.57617 -130.049 -12.8789 -177.413
c-27.8936 -58.8428 -65.9473 -112.264 -107.095 -162.537c1.00684 -27.8711 2.52246 -55.7363 4.09766 -83.5732c0.299805 -5.31348 0.630859 -10.6328 0.961914 -15.9551c7.09473 23.3486 14.9141 46.4385 24.5303 68.7246c11.6699 27.043 36.0879 81.6797 74.585 63.2246
c40.7598 -19.542 46.6729 -81.4883 49.9609 -120.552c2.0625 -24.4834 3.58496 -48.9141 6.40723 -73.3379c1.4502 -12.5449 2.42188 -37.3691 12.0947 -48.9453c16.377 8.36621 24.4404 50.0918 27.8848 62.5146c7.18164 25.8994 14.8164 51.5615 22.8955 77.1953z
M65.5684 395.902c-10.9727 -59.2871 -12.8379 -119.777 -11.7568 -179.971c32.5 42.2979 61.7871 87.0361 83.8643 135.76c17.5488 38.7256 62.3213 136.913 1.28711 160.222c-49.373 18.8516 -68 -86.8643 -73.3945 -116.011z" />
    <glyph glyph-name="i" unicode="i" horiz-adv-x="122" 
d="M120.999 106.472c1.58496 8.75684 23.3555 7.99023 22.0205 -0.00390625c-8.13184 -48.8359 -37.6348 -139.091 -104.685 -111.479c-33.3691 13.7451 -43.2139 51.7959 -46.6201 84.4736c-3.94434 37.8564 -2.54102 77.2666 1.59082 115.063
c2.71289 24.8213 64.2656 24.543 63.2871 0c-2.1377 -53.6328 -10.6787 -107.744 -2.45898 -161.296c1.02832 -6.7002 3 -25.7705 11.4287 -28.5303c10.667 -3.49414 23.8525 18.9795 28.0781 26.2305c13.6016 23.3301 22.5615 49.0195 27.3584 75.541zM16.1768 234.792
c-16.248 4.83789 -26.2324 19.6514 -32.9707 34.5029c-5.3252 11.748 -11.335 32.4531 -2.8125 44.2852c6.16016 8.55371 20.3682 7.74121 27.3691 0.912109c3.36328 -3.27832 5.79492 -7.68457 7.63574 -12.6221c3.15625 6.44141 6.91895 12.6729 12.1943 18.4863
c9.4541 10.417 23.8809 18.7549 38.3193 13.8047c35.46 -12.1572 -18.7139 -80.3545 -28.3613 -96.5215c-2.99414 -5.01953 -13.4453 -5.53223 -19.624 -3.20703c-0.612305 0.078125 -1.2002 0.197266 -1.75 0.359375z" />
    <glyph glyph-name="i" unicode="&#xef;" horiz-adv-x="122" 
d="M120.999 106.472c1.58496 8.75684 23.3555 7.99023 22.0205 -0.00390625c-8.13184 -48.8359 -37.6348 -139.091 -104.685 -111.479c-33.3691 13.7451 -43.2139 51.7959 -46.6201 84.4736c-3.94434 37.8564 -2.54102 77.2666 1.59082 115.063
c2.71289 24.8213 64.2656 24.543 63.2871 0c-2.1377 -53.6328 -10.6787 -107.744 -2.45898 -161.296c1.02832 -6.7002 3 -25.7705 11.4287 -28.5303c10.667 -3.49414 23.8525 18.9795 28.0781 26.2305c13.6016 23.3301 22.5615 49.0195 27.3584 75.541zM16.1768 234.792
c-16.248 4.83789 -26.2324 19.6514 -32.9707 34.5029c-5.3252 11.748 -11.335 32.4531 -2.8125 44.2852c6.16016 8.55371 20.3682 7.74121 27.3691 0.912109c3.36328 -3.27832 5.79492 -7.68457 7.63574 -12.6221c3.15625 6.44141 6.91895 12.6729 12.1943 18.4863
c9.4541 10.417 23.8809 18.7549 38.3193 13.8047c35.46 -12.1572 -18.7139 -80.3545 -28.3613 -96.5215c-2.99414 -5.01953 -13.4453 -5.53223 -19.624 -3.20703c-0.612305 0.078125 -1.2002 0.197266 -1.75 0.359375z" />
    <glyph glyph-name="i" unicode="&#xee;" horiz-adv-x="122" 
d="M120.999 106.472c1.58496 8.75684 23.3555 7.99023 22.0205 -0.00390625c-8.13184 -48.8359 -37.6348 -139.091 -104.685 -111.479c-33.3691 13.7451 -43.2139 51.7959 -46.6201 84.4736c-3.94434 37.8564 -2.54102 77.2666 1.59082 115.063
c2.71289 24.8213 64.2656 24.543 63.2871 0c-2.1377 -53.6328 -10.6787 -107.744 -2.45898 -161.296c1.02832 -6.7002 3 -25.7705 11.4287 -28.5303c10.667 -3.49414 23.8525 18.9795 28.0781 26.2305c13.6016 23.3301 22.5615 49.0195 27.3584 75.541zM16.1768 234.792
c-16.248 4.83789 -26.2324 19.6514 -32.9707 34.5029c-5.3252 11.748 -11.335 32.4531 -2.8125 44.2852c6.16016 8.55371 20.3682 7.74121 27.3691 0.912109c3.36328 -3.27832 5.79492 -7.68457 7.63574 -12.6221c3.15625 6.44141 6.91895 12.6729 12.1943 18.4863
c9.4541 10.417 23.8809 18.7549 38.3193 13.8047c35.46 -12.1572 -18.7139 -80.3545 -28.3613 -96.5215c-2.99414 -5.01953 -13.4453 -5.53223 -19.624 -3.20703c-0.612305 0.078125 -1.2002 0.197266 -1.75 0.359375z" />
    <glyph glyph-name="i" unicode="&#xed;" horiz-adv-x="122" 
d="M120.999 106.472c1.58496 8.75684 23.3555 7.99023 22.0205 -0.00390625c-8.13184 -48.8359 -37.6348 -139.091 -104.685 -111.479c-33.3691 13.7451 -43.2139 51.7959 -46.6201 84.4736c-3.94434 37.8564 -2.54102 77.2666 1.59082 115.063
c2.71289 24.8213 64.2656 24.543 63.2871 0c-2.1377 -53.6328 -10.6787 -107.744 -2.45898 -161.296c1.02832 -6.7002 3 -25.7705 11.4287 -28.5303c10.667 -3.49414 23.8525 18.9795 28.0781 26.2305c13.6016 23.3301 22.5615 49.0195 27.3584 75.541zM16.1768 234.792
c-16.248 4.83789 -26.2324 19.6514 -32.9707 34.5029c-5.3252 11.748 -11.335 32.4531 -2.8125 44.2852c6.16016 8.55371 20.3682 7.74121 27.3691 0.912109c3.36328 -3.27832 5.79492 -7.68457 7.63574 -12.6221c3.15625 6.44141 6.91895 12.6729 12.1943 18.4863
c9.4541 10.417 23.8809 18.7549 38.3193 13.8047c35.46 -12.1572 -18.7139 -80.3545 -28.3613 -96.5215c-2.99414 -5.01953 -13.4453 -5.53223 -19.624 -3.20703c-0.612305 0.078125 -1.2002 0.197266 -1.75 0.359375z" />
    <glyph glyph-name="j" unicode="j" horiz-adv-x="137" 
d="M140.336 105.572c5.11914 6.18457 26.5449 2.28809 19.4385 -6.47168c-25.6738 -31.6533 -59.4609 -53.4238 -94.4863 -73.5791c0.875 -45.1416 2.14746 -90.293 2.55957 -135.435c0.59668 -65.5342 -4.2666 -172.656 -81.7266 -195.271
c-68.2471 -19.9238 -126.912 32.5781 -133.297 99.3311c-7.34082 76.7354 44.7139 142.382 103.066 185.229c13.373 9.81934 27.5869 18.6416 42.1289 27.0801c-4.09766 62.3125 -6.96387 125.453 -3.73535 187.303c1.41309 27.0117 67.1445 26.8809 68.6602 0
c2.7998 -49.6113 1.30273 -99.6221 2.00586 -149.327c28.0029 16.8574 54.3682 35.7471 75.3857 61.1396zM-3.5127 -262.523c14.042 31.5469 14.4287 69.4424 13.4629 103.327c-1.09375 38.5908 -5.71289 77.1758 -8.46582 115.683
c-0.731445 10.2227 -1.46289 20.4863 -2.17578 30.7783c-5.99414 -3.78809 -11.8916 -7.68555 -17.6543 -11.7422c-56.0986 -39.5098 -106.26 -98.8281 -104.494 -171.275c0.793945 -32.6123 13.9951 -67.6279 41.5068 -86.9893
c29.2061 -20.5547 63.2344 -12.5566 77.8203 20.2188zM22.6328 234.793c-16.248 4.83789 -26.2324 19.6514 -32.9707 34.5059c-5.3252 11.748 -11.335 32.4531 -2.8125 44.2852c6.16016 8.55371 20.3682 7.74121 27.3691 0.912109
c3.36328 -3.27832 5.79492 -7.68457 7.63574 -12.6221c3.15625 6.44141 6.91895 12.6729 12.1943 18.4863c9.4541 10.417 23.8809 18.7549 38.3193 13.8047c35.46 -12.1572 -18.7139 -80.3545 -28.3613 -96.5215c-2.99414 -5.01953 -13.4453 -5.53516 -19.624 -3.20703
c-0.612305 0.0751953 -1.2002 0.194336 -1.75 0.356445z" />
    <glyph glyph-name="k" unicode="k" horiz-adv-x="241" 
d="M237.724 101.746c4.7002 7.9541 28.875 4.97266 23.834 -3.73438c-24.6621 -42.5762 -33.1133 -117.773 -94.8125 -123.184c-28.6875 -2.51562 -54.4551 14.5078 -69.6787 37.6533c-8.41992 12.8008 -14.5107 27.5146 -20.7109 41.4912
c-4.22852 9.53223 -8.63184 21.668 -16.6387 29.0527c1.89746 -30.5596 3.86914 -61.2373 -1.0127 -91.5811c-2.39355 -14.8672 -36.5156 -17.249 -41.5352 -3.2041c-15.5049 43.3857 -18.2207 90.6152 -21.9961 136.197c-3.66602 44.251 -5.0791 88.8613 -4.84766 133.256
c0.380859 72.8789 3.34082 152.155 38.335 217.924c13.9141 26.1494 35.6377 49.7139 64.4717 58.9619c27.3271 8.7666 59.5518 4.57227 81.6416 -14.4854c49.9395 -43.0889 9.57324 -130.05 -12.8789 -177.414c-27.8965 -58.8428 -65.9473 -112.264 -107.095 -162.537
c0.474609 -13.1289 1.05273 -26.2549 1.71191 -39.3779c9.23242 18.5264 20.6611 35.7588 36.2158 49.8135c20.7549 18.7549 63.209 39.7725 87.8828 15.3262c24.5713 -24.3428 -13.4443 -62.7773 -32.3838 -76.7695c-22.543 -16.6514 -48.9521 -26.209 -76.3359 -30.4531
c19.7139 -6.75098 35.6406 -19.3584 48.2041 -36.832c13.7354 -19.1084 22.4795 -41.4043 37.3711 -59.8027c9.50391 -11.7422 15.6924 -10.7832 27.1094 -0.719727c8.83789 7.79102 15.3701 17.708 20.8174 28.0625c12.3477 23.4678 18.7764 49.4297 32.3311 72.3564z
M65.5713 395.904c-10.9727 -59.2871 -12.8379 -119.777 -11.7598 -179.971c32.5 42.2979 61.7871 87.0361 83.8643 135.76c17.5488 38.7256 62.3213 136.913 1.28711 160.222c-49.3701 18.8516 -67.9971 -86.8643 -73.3916 -116.011zM90.7559 157.025
c-8.89453 -13.542 -15.7139 -28.2471 -21.6797 -43.3105c18.7832 3.38477 36.9785 9.56055 53.4082 19.6367c16.3574 10.0322 51.7012 37.7471 41.96 60.8965c-14.0859 33.4717 -65.3281 -24.4961 -73.6885 -37.2227z" />
    <glyph glyph-name="l" unicode="l" horiz-adv-x="198" 
d="M197.576 109.872c2.875 7.75684 24.9814 5.80371 21.709 -3.41602c-14.3105 -40.2939 -34.1221 -91.833 -74.6387 -112.604c-43.1074 -22.0986 -87.3682 -9.68457 -114.643 29.71c-26.6465 38.4883 -35.1631 87.7549 -38.3887 133.56
c-3.36328 47.7197 -0.535156 95.6621 1.99023 143.351c2.62793 49.6143 6.49121 99.4531 17.5674 148.001c9.49805 41.6289 27.0781 88.5391 67.9814 108.763c32.8535 16.2451 76.7266 9.16016 91.9033 -26.5654c17.0049 -40.0283 5.0127 -87.1387 -6.55078 -126.893
c-22.8486 -78.542 -58.752 -157.178 -106.581 -224.521c0.90332 -45.5947 6.08789 -90.8203 21.6865 -134.409c4.86328 -13.5918 11.0605 -27.9619 22.1182 -37.7627c14.501 -12.8516 31.7646 -1.92578 43.6875 9.30371c25.459 23.9775 40.248 61.3496 52.1582 93.4834z
M60.293 276.375c-0.856445 -18.4795 -1.71484 -37.0518 -2.17773 -55.625c32.3369 53.2646 57.4521 111.86 75.9229 170.304c11.1543 35.2881 23.749 75.9883 16.5264 113.305c-2.26855 11.7227 -13.5664 46.5889 -29.9678 36.6445
c-11.8418 -7.17871 -17.3984 -22.9961 -22.5146 -34.9814c-30.8252 -72.2031 -34.2041 -152.227 -37.7891 -229.646z" />
    <glyph glyph-name="m" unicode="m" horiz-adv-x="361" 
d="M357.046 98.584c2.45996 8.5166 26.5381 6.66406 23.5879 -3.70898c-7.27539 -25.668 -15.9482 -50.9922 -26.7148 -75.4199c-8.11914 -18.4238 -18.8516 -35.3438 -39.8535 -39.8037c-21.2051 -4.50391 -46.5293 4.41895 -60.9561 20.208
c-15.2764 16.7168 -19.2578 38.6562 -21.1641 60.5488c-2.24121 25.749 -5.02539 51.8799 -4.87207 77.7383c0.0722656 12.2539 -0.261719 25.8584 1.8291 37.9873c-0.674805 2.85645 0.0654297 5.35352 2.22461 7.49121
c-2.94043 -1.98145 -5.55957 -4.31641 -7.85352 -7.00684c-3.64453 -4.04395 -6.50098 -8.82227 -9.23828 -13.4912c-24.6621 -42.0537 -33.9131 -90.5391 -51.208 -135.662c-0.474609 -3.35645 -1.03711 -6.69141 -1.81836 -9.97949
c-2.60645 -10.9756 -23.2959 -12.3633 -31.6377 -11.7725c-10.46 0.737305 -22.7646 4.66602 -25.002 16.1426c-2.99121 15.3447 -0.0878906 31.9404 1.03125 47.4385c1.14062 15.7949 2.34375 31.543 2.73438 47.3789c0.365234 14.7891 0.883789 29.6377 0.996094 44.417
c0.046875 6.30078 0.34082 13.5889 -0.94043 19.7803c-2.74121 13.251 -8.99805 -0.96582 -12.5078 -6.90039c-29.6807 -50.2207 -30.1592 -114.148 -45.4854 -169.466c-0.5625 -5.09082 -1.66895 -10.1318 -3.67578 -15.0947
c-4.36621 -10.8008 -29.0908 -10.8916 -35.5225 -2.64746c-20.8115 26.6748 -20.3584 68.6133 -21.4551 101.147c-1.19043 35.2881 -0.537109 71.6348 7.59766 106.085c4.18164 17.7109 55.5488 16.0049 54.9609 -4.24121
c-0.84668 -29.1436 -4.15625 -58.04 -4.82227 -87.1963c1.30664 5.59473 2.65039 11.1768 4.08203 16.7305c6.73145 26.1553 16.5322 73.585 46.9199 82.7979c32.0244 9.70996 52.9014 -37.498 58.2109 -61.8037c2.83105 -12.9639 4.4375 -26.1055 5.48145 -39.3096
c7.46289 22.8643 16.1328 45.2285 28.1055 65.9277c8.20117 14.1768 19.6299 30.1904 37.625 30.8877c17.7764 0.6875 29.668 -14.9268 37.5029 -29.2129c24.0303 -43.8193 17.6982 -97.1055 29.3271 -144.216c1.45312 -5.88477 3.0625 -12.1514 5.53125 -17.7021
c0.4375 -0.981445 4.71582 -10.7383 5.7002 -11.2412c9.95996 -5.09766 21.2637 21.3428 24.167 27.8125c10.9355 24.3711 19.7051 49.7139 27.1123 75.3564z" />
    <glyph glyph-name="n" unicode="n" horiz-adv-x="251" 
d="M250.639 106.396c2.65332 7.54492 24.1074 5.65137 21.0039 -3.30859c-15.1104 -43.582 -49.4014 -160.725 -117.061 -109.241c-31.4971 23.9648 -31.4941 69.3633 -32.0098 105.47c-0.293945 20.7334 0.571289 41.3857 1.01172 62.1006
c0.168945 7.94727 0.0966797 15.8262 -1.26953 23.6797c-0.799805 4.60059 -2.50977 8.85742 -3.73145 13.2549c-10.667 -8.34473 -36.2568 -81.0488 -38.2598 -87.3896c-10.8857 -34.4629 -20.3955 -69.4414 -29.1904 -104.491
c-0.00585938 -0.0214844 -0.0244141 -0.0400391 -0.0302734 -0.0654297c-0.28125 -2.96875 -0.668945 -5.93164 -1.32227 -8.87891c-3.47852 -15.7168 -33.4219 -15.5859 -40.8135 -3.14746c-16.9326 28.4932 -17.4043 68.9062 -18.7041 101.2
c-1.2998 32.3496 -3.6377 72.1191 9.97949 102.225c7.30371 16.1543 46.3574 14.4727 49.6855 -3.83203c3.01855 -16.5957 0.167969 -33.8564 -0.766602 -50.5801c-0.890625 -15.9111 -1.20605 -31.875 -1.1377 -47.8105
c0.015625 -3.52246 0.09375 -7.03809 0.181641 -10.5537c7.83203 28.4434 16.9893 56.5049 28.3809 83.5137c7.37891 17.4922 17.6553 40.2881 38.335 44.667c19.5459 4.14062 38.5635 -8.28223 47.4893 -25.0117c11.5479 -21.6426 14.3447 -50.2207 17.0977 -74.0664
c3.35645 -29.0527 7.3252 -57.8301 11.1504 -86.7891c0.416016 -3.15625 1.27832 -27.7178 4.83203 -28.502c7.91992 -1.74707 20.7871 25.1992 23.7588 30.7842c13.0195 24.459 22.2168 50.7021 31.3896 76.7734z" />
    <glyph glyph-name="o" unicode="o" horiz-adv-x="188" 
d="M193.631 113.278c6.74707 3.61328 27.0391 -1.9834 15.7441 -8.97461c-17.0605 -10.5635 -37.8623 -17.6201 -59.6738 -20.6982c-5.15332 -52.499 -31.1748 -113.052 -93.2148 -103.566c-78.1543 11.9482 -76.5352 107.207 -64.7588 166.422
c1.21582 6.10352 6.11621 10.4785 12.6045 13.251c-3.3252 14.6982 -2.58496 30.2031 3.41211 44.5547c10.1162 24.2178 34.1465 39.1504 60.2773 37.1191c62.8525 -4.8877 82.5576 -86.1514 82.6797 -137.509c0.00585938 -1.66602 -0.015625 -3.35352 -0.0566406 -5.05957
c15.4893 2.70312 30.3066 7.67578 42.9863 14.4609zM124.683 81.7607c0.00292969 0.0253906 0.00683594 0.0556641 0.00683594 0.0810547c-28.5273 0.00292969 -57.0117 6.90039 -79.6729 21.7207c-1.7373 -17.7236 -2.125 -35.5312 0.34082 -53.2949
c2.90918 -20.9453 14.8447 -58.6396 42.1816 -43.5039c25.9082 14.3447 33.7373 47.8477 37.1436 74.9971zM125.943 96.502c1.40332 25.8086 -1.91016 51.9062 -10.3955 76.3301c-8.36035 24.0801 -33.21 71.209 -65.7354 51.7168
c-20.5391 -12.3076 -25.8643 -38.8887 -21.5049 -61.4131c13.1855 -1.0752 24.4678 -6.78809 22.8018 -16.6826c-1.18457 -7.02832 -2.34082 -14.0879 -3.38184 -21.167c19.292 -20.5703 48.5791 -29.1309 78.2158 -28.7842z" />
    <glyph glyph-name="o" unicode="&#xf6;" horiz-adv-x="188" 
d="M193.631 113.278c6.74707 3.61328 27.0391 -1.9834 15.7441 -8.97461c-17.0605 -10.5635 -37.8623 -17.6201 -59.6738 -20.6982c-5.15332 -52.499 -31.1748 -113.052 -93.2148 -103.566c-78.1543 11.9482 -76.5352 107.207 -64.7588 166.422
c1.21582 6.10352 6.11621 10.4785 12.6045 13.251c-3.3252 14.6982 -2.58496 30.2031 3.41211 44.5547c10.1162 24.2178 34.1465 39.1504 60.2773 37.1191c62.8525 -4.8877 82.5576 -86.1514 82.6797 -137.509c0.00585938 -1.66602 -0.015625 -3.35352 -0.0566406 -5.05957
c15.4893 2.70312 30.3066 7.67578 42.9863 14.4609zM124.683 81.7607c0.00292969 0.0253906 0.00683594 0.0556641 0.00683594 0.0810547c-28.5273 0.00292969 -57.0117 6.90039 -79.6729 21.7207c-1.7373 -17.7236 -2.125 -35.5312 0.34082 -53.2949
c2.90918 -20.9453 14.8447 -58.6396 42.1816 -43.5039c25.9082 14.3447 33.7373 47.8477 37.1436 74.9971zM125.943 96.502c1.40332 25.8086 -1.91016 51.9062 -10.3955 76.3301c-8.36035 24.0801 -33.21 71.209 -65.7354 51.7168
c-20.5391 -12.3076 -25.8643 -38.8887 -21.5049 -61.4131c13.1855 -1.0752 24.4678 -6.78809 22.8018 -16.6826c-1.18457 -7.02832 -2.34082 -14.0879 -3.38184 -21.167c19.292 -20.5703 48.5791 -29.1309 78.2158 -28.7842z" />
    <glyph glyph-name="o" unicode="&#xf5;" horiz-adv-x="188" 
d="M193.631 113.278c6.74707 3.61328 27.0391 -1.9834 15.7441 -8.97461c-17.0605 -10.5635 -37.8623 -17.6201 -59.6738 -20.6982c-5.15332 -52.499 -31.1748 -113.052 -93.2148 -103.566c-78.1543 11.9482 -76.5352 107.207 -64.7588 166.422
c1.21582 6.10352 6.11621 10.4785 12.6045 13.251c-3.3252 14.6982 -2.58496 30.2031 3.41211 44.5547c10.1162 24.2178 34.1465 39.1504 60.2773 37.1191c62.8525 -4.8877 82.5576 -86.1514 82.6797 -137.509c0.00585938 -1.66602 -0.015625 -3.35352 -0.0566406 -5.05957
c15.4893 2.70312 30.3066 7.67578 42.9863 14.4609zM124.683 81.7607c0.00292969 0.0253906 0.00683594 0.0556641 0.00683594 0.0810547c-28.5273 0.00292969 -57.0117 6.90039 -79.6729 21.7207c-1.7373 -17.7236 -2.125 -35.5312 0.34082 -53.2949
c2.90918 -20.9453 14.8447 -58.6396 42.1816 -43.5039c25.9082 14.3447 33.7373 47.8477 37.1436 74.9971zM125.943 96.502c1.40332 25.8086 -1.91016 51.9062 -10.3955 76.3301c-8.36035 24.0801 -33.21 71.209 -65.7354 51.7168
c-20.5391 -12.3076 -25.8643 -38.8887 -21.5049 -61.4131c13.1855 -1.0752 24.4678 -6.78809 22.8018 -16.6826c-1.18457 -7.02832 -2.34082 -14.0879 -3.38184 -21.167c19.292 -20.5703 48.5791 -29.1309 78.2158 -28.7842z" />
    <glyph glyph-name="o" unicode="&#xf4;" horiz-adv-x="188" 
d="M193.631 113.278c6.74707 3.61328 27.0391 -1.9834 15.7441 -8.97461c-17.0605 -10.5635 -37.8623 -17.6201 -59.6738 -20.6982c-5.15332 -52.499 -31.1748 -113.052 -93.2148 -103.566c-78.1543 11.9482 -76.5352 107.207 -64.7588 166.422
c1.21582 6.10352 6.11621 10.4785 12.6045 13.251c-3.3252 14.6982 -2.58496 30.2031 3.41211 44.5547c10.1162 24.2178 34.1465 39.1504 60.2773 37.1191c62.8525 -4.8877 82.5576 -86.1514 82.6797 -137.509c0.00585938 -1.66602 -0.015625 -3.35352 -0.0566406 -5.05957
c15.4893 2.70312 30.3066 7.67578 42.9863 14.4609zM124.683 81.7607c0.00292969 0.0253906 0.00683594 0.0556641 0.00683594 0.0810547c-28.5273 0.00292969 -57.0117 6.90039 -79.6729 21.7207c-1.7373 -17.7236 -2.125 -35.5312 0.34082 -53.2949
c2.90918 -20.9453 14.8447 -58.6396 42.1816 -43.5039c25.9082 14.3447 33.7373 47.8477 37.1436 74.9971zM125.943 96.502c1.40332 25.8086 -1.91016 51.9062 -10.3955 76.3301c-8.36035 24.0801 -33.21 71.209 -65.7354 51.7168
c-20.5391 -12.3076 -25.8643 -38.8887 -21.5049 -61.4131c13.1855 -1.0752 24.4678 -6.78809 22.8018 -16.6826c-1.18457 -7.02832 -2.34082 -14.0879 -3.38184 -21.167c19.292 -20.5703 48.5791 -29.1309 78.2158 -28.7842z" />
    <glyph glyph-name="o" unicode="&#xf3;" horiz-adv-x="188" 
d="M193.631 113.278c6.74707 3.61328 27.0391 -1.9834 15.7441 -8.97461c-17.0605 -10.5635 -37.8623 -17.6201 -59.6738 -20.6982c-5.15332 -52.499 -31.1748 -113.052 -93.2148 -103.566c-78.1543 11.9482 -76.5352 107.207 -64.7588 166.422
c1.21582 6.10352 6.11621 10.4785 12.6045 13.251c-3.3252 14.6982 -2.58496 30.2031 3.41211 44.5547c10.1162 24.2178 34.1465 39.1504 60.2773 37.1191c62.8525 -4.8877 82.5576 -86.1514 82.6797 -137.509c0.00585938 -1.66602 -0.015625 -3.35352 -0.0566406 -5.05957
c15.4893 2.70312 30.3066 7.67578 42.9863 14.4609zM124.683 81.7607c0.00292969 0.0253906 0.00683594 0.0556641 0.00683594 0.0810547c-28.5273 0.00292969 -57.0117 6.90039 -79.6729 21.7207c-1.7373 -17.7236 -2.125 -35.5312 0.34082 -53.2949
c2.90918 -20.9453 14.8447 -58.6396 42.1816 -43.5039c25.9082 14.3447 33.7373 47.8477 37.1436 74.9971zM125.943 96.502c1.40332 25.8086 -1.91016 51.9062 -10.3955 76.3301c-8.36035 24.0801 -33.21 71.209 -65.7354 51.7168
c-20.5391 -12.3076 -25.8643 -38.8887 -21.5049 -61.4131c13.1855 -1.0752 24.4678 -6.78809 22.8018 -16.6826c-1.18457 -7.02832 -2.34082 -14.0879 -3.38184 -21.167c19.292 -20.5703 48.5791 -29.1309 78.2158 -28.7842z" />
    <glyph glyph-name="p" unicode="p" horiz-adv-x="319" 
d="M322.672 104.847c7.52246 4.35059 28.9883 -2.70312 16.9561 -9.66309c-27.5654 -15.9453 -58.5186 -23.2559 -89.8965 -26.9248c-0.416016 -28.4062 -5.94824 -57.6152 -22.0439 -80.0488c-22.1426 -30.8652 -63.665 -43.3223 -99.29 -29.1963
c-33.9062 13.4453 -38.2725 50.1953 -19.1553 78.4355c19.6172 28.9717 55.6484 37.9541 88.5264 40.9639c1.2998 0.119141 2.60352 0.225586 3.90332 0.337891c2.29395 22.7148 2.36914 45.7549 -0.708984 68.2568c-2.1123 15.4385 -4.61914 33.0684 -13.9727 45.9941
c-15.5518 21.4834 -34.5098 0.991211 -44.5322 -14.6035c-17.4082 -27.084 -25.6523 -60.9336 -32.5186 -91.9736c-7.34766 -33.2129 -12.167 -66.9756 -16.5332 -100.688c-7.76367 -59.9248 -13.0176 -120.174 -15.7617 -180.536
c1.61914 -14.5918 2.47852 -29.1523 1.45703 -43.4814c-1.17871 -16.4863 -36.207 -15.8301 -42.2549 -3.25977c-16.208 33.6973 -20.8271 74.0068 -26.8779 110.635c-5.91602 35.835 -9.64453 72.126 -12.6475 108.311c-6.15332 74.1064 -8.04395 149.514 -2.29004 223.711
c1.9375 24.9961 64.168 24.459 63.2871 0c-2.65332 -73.71 -3.78516 -147.001 0.59668 -220.692c0.924805 -15.5391 2.18164 -31.04 3.57227 -46.5254c4.70703 49.3574 11.6172 98.4678 21.7402 146.672c7.95996 37.9062 17.292 80.3105 41.4941 111.563
c19.3799 25.0244 50.8301 36.9229 77.1797 14.1426c29.6963 -25.6738 41.0879 -66.6279 45.1729 -104.26c0.666016 -6.1416 1.15039 -12.5049 1.43457 -18.9707c25.3613 3.04688 50.0859 8.4541 73.1631 21.8018zM197.702 50.4326
c0.831055 4.57227 1.55566 9.17773 2.21777 13.7939c-19.8301 -2.30957 -38.9971 -7.24414 -53.5293 -20.998c-11.957 -11.3135 -17.0166 -27.2617 -10.4033 -42.8066c3.52539 -8.29102 13.0703 -18.2764 19.7334 -17.4609c11.9199 1.45996 22.877 15.6641 28.2334 25.1963
c7.39746 13.1602 11.0693 27.5303 13.748 42.2754z" />
    <glyph glyph-name="q" unicode="q" horiz-adv-x="265" 
d="M245.425 -19.9463c50.4795 -34.3125 66.4951 -102.462 53.9092 -159.799c-5.27246 -24.0146 -19.1641 -49.667 -43.0566 -59.5898c-29.3057 -12.1729 -61.0146 3.20703 -77.4883 28.3594c-18.3672 28.043 -27.252 62.2617 -34.4834 94.5869
c-8.1416 36.3877 -12.6953 73.8604 -15.9268 110.982c-1.9873 22.8174 -3.55273 46.0762 -4.41211 69.4873c-2.8877 -9.25684 -6.23828 -18.3516 -10.2764 -27.2021c-16.1299 -35.3721 -54.9277 -55.752 -92.0254 -38.2158
c-42.6348 20.1553 -45.3096 73.2539 -35.7686 113.642c9.94824 42.1074 34.6973 82.2549 76.9014 97.791c20.6211 7.5918 46.9297 8.31641 67.5537 -0.828125c0.458984 3.16309 0.90918 6.32617 1.42188 9.46973c3.71289 22.8525 60.4521 23.5029 59.624 0.000976562
c-1.31934 -37.3691 -4.78809 -74.585 -5.3291 -112.011c-0.34668 -23.9805 0.137695 -47.9297 1.15039 -71.8662c3.69141 3.61328 7.37891 7.22656 11.0479 10.8584c23.418 23.1807 46.9609 46.2324 70.541 69.2441c5.72559 5.58789 27.5186 1.45605 19.6494 -6.54785
c-30.0469 -30.5557 -60.0586 -61.1465 -90.0361 -91.7715c-3.06934 -3.1377 -6.24121 -7.36328 -9.71973 -10.6006c0.137695 -2.2627 0.244141 -4.52246 0.390625 -6.78223c4.93457 -0.375 9.86035 -1.03418 14.5947 -1.94043
c14.9297 -2.85645 29.1621 -8.71973 41.7383 -17.2676zM101.109 74.7969c10.3857 36.6436 15.6689 74.5254 24.8506 111.485c-24.9551 22.7148 -57.624 -14.123 -71.5225 -38.8975c-17.7764 -31.6934 -26.6367 -72.4189 -19.4521 -108.51
c1.76562 -8.87598 5.89453 -18.627 12.5293 -24.9961c9.67285 -9.28516 21.1924 -1.40332 28.8271 6.67871c13.5234 14.3105 19.5361 35.7812 24.7676 54.2393zM269.042 -191.856c9.84473 26.2529 9.68457 57.8691 4.33398 85.0811
c-5.66016 28.7998 -20.2588 56.3145 -43.917 74.2256c-11.5918 8.77539 -24.918 14.6445 -39.3535 16.5225c4.03516 -58.1025 9.90137 -117.651 28.7969 -172.854c3.35645 -9.80371 10.6758 -34.6123 23.8271 -34.2002c12.9766 0.40625 22.4023 20.8018 26.3125 31.2246z
" />
    <glyph glyph-name="r" unicode="r" horiz-adv-x="206" 
d="M203.124 105c1.63184 8.61328 23.1025 7.93652 21.7871 0.00488281c-5.42871 -32.6719 -10.9512 -65.9004 -23.8027 -96.6377c-10.1289 -24.2246 -23.3115 -50.8955 -51.7959 -55.3711c-75.8291 -11.9102 -79.2578 89.4277 -74.9072 144.005
c-32.0938 -12.4883 -67.8066 -12.6289 -91.4746 18.1455c-25.2246 32.7998 -22.4902 80.7197 6.35645 110.379c21.877 22.4932 71.8037 31.75 80.2012 -8.12207c7.5166 -35.6943 -8.90332 -74.9639 -32.418 -101.892c1.59668 -1.44434 3.27832 -2.7793 5.11914 -3.86719
c12.7422 -7.51367 26.4346 -1.00098 38.5166 4.8623c0.331055 0.162109 0.706055 0.292969 1.09961 0.412109c15.6855 12.0039 53.6826 8.47852 54.2607 -10.9512c0.765625 -25.6934 -1.11621 -51.3955 -0.0195312 -77.0918
c0.46582 -10.9043 1.06543 -22.0332 2.69336 -32.8311c0.828125 -5.47559 1.47852 -12.1484 4.16309 -17.0986c2.83105 -5.22559 1.88379 -5.81348 7.86523 -4.28516c18.4922 4.71875 29.7617 42.0625 35.0469 57.5918c8.04785 23.6426 12.6768 48.2607 17.3086 72.7471z
M24.3916 133.857c11.0449 15.8359 18.1113 34.0342 20.1709 53.6953c1.00293 9.56641 2.72168 25.1836 -2.40723 33.7314c-9.08203 15.1328 -16.3799 -3.87207 -19.5391 -12.8193c-7.79785 -22.0869 -8.97266 -48.083 -0.206055 -70.0254
c0.606445 -1.50977 1.27539 -3.04395 1.98145 -4.58203z" />
    <glyph glyph-name="s" unicode="s" horiz-adv-x="153" 
d="M150.287 115.463c7.2041 4.14062 28.3701 -2.125 16.6064 -9.46973c-15.1729 -9.47266 -30.3115 -19.2139 -44.2627 -30.3809c22.4395 -14.6826 42.4355 -32.8848 41.1475 -57.8838c-0.987305 -19.1426 -16.6357 -38.7939 -30.6523 -50.7637
c-13.5732 -11.5918 -30.8369 -19.1992 -48.8672 -18.7363c-15.8301 0.40625 -33.5068 7.75977 -39.8516 23.249c-7.55078 18.4297 1.8252 41.5283 10.6758 57.8047c5.30371 9.74805 11.6289 18.6992 18.7168 26.9844c-6.50684 3.49707 -12.8828 6.81348 -18.6396 10.123
c-22.877 13.1572 -48.7168 28.6895 -62.5771 51.9795c-13.5889 22.833 -11.8516 52.542 7.58496 71.4941c24.6182 24.0049 97.3936 50.0762 108.113 -1.15332c1.7627 -8.42578 -22.2832 -9.88574 -24.5088 -1.8916c-5.18164 18.6172 -22.8047 17.4268 -35.4062 6.39453
c-8.79785 -7.70117 -13.4668 -20.0176 -12.9697 -31.6406c1.09375 -25.5928 24.002 -46.4443 43.7783 -59.7266c7.35059 -4.93164 16.6572 -10.1104 26.3926 -15.792c14.1387 10.957 29.3994 20.5986 44.7197 29.4092zM115.117 -22.4336
c11.8477 11.5947 14.1152 26.8994 5.55859 41.3633c-6.43457 10.876 -16.8945 19.3984 -28.4238 26.7246c-15.2012 -19.2334 -36.7812 -54.9082 -20.8799 -75.335c12.3389 -15.8545 32.6562 -3.60352 43.7451 7.24707z" />
    <glyph glyph-name="t" unicode="t" horiz-adv-x="132" 
d="M131.533 110.216c1.90625 7.57617 23.2598 6.08105 20.9971 -3.30078c-8.92285 -37.0352 -19.0518 -78.0889 -48.4385 -104.72c-28.2246 -25.5801 -64.1279 -14.4287 -83.4043 15.7305c-24.8926 38.9473 -26.3213 92.6426 -28.0059 137.391
c-0.90918 24.165 -1.15918 48.377 -1.41211 72.5576c-0.0371094 3.30664 -0.0898438 6.63184 -0.146484 9.96387l-19.5381 -0.805664c-14.9795 -0.619141 -14.6797 13.3389 0 13.9453c6.4541 0.265625 12.9111 0.53418 19.3652 0.799805
c-0.0996094 16.4922 0.43457 33.0527 4.02246 49.0195c5 22.2432 52.9824 22.8584 57.4268 0c2.91895 -15.0078 3.90918 -30.584 4.06543 -46.3105c8.51953 0.353516 17.0361 0.703125 25.5557 1.05664c14.9795 0.619141 14.6797 -13.3389 0 -13.9453
c-8.53516 -0.353516 -17.0674 -0.707031 -25.6025 -1.06055c-0.3125 -19.6201 -1.44336 -39.2939 -1.34668 -58.2363c0.1875 -37.3945 0.369141 -74.7666 2.09766 -112.126c0.806641 -17.4482 1.28809 -35.7559 6.00391 -52.6953
c0.887695 -3.18164 2.0127 -6.91992 3.54102 -9.89844c2.89746 -5.6416 3.56641 -6.2041 9.41113 -4.5791c7.43555 2.06934 15.1396 12.3701 19.7646 18.2676c19.8984 25.3711 27.9395 58.293 35.6436 88.9463z" />
    <glyph glyph-name="u" unicode="u" horiz-adv-x="257" 
d="M256.099 96.4395c2.3877 7.82617 24.4561 6.09863 21.709 -3.4082c-8.16309 -28.2646 -17.3105 -61.3682 -41.3779 -80.5947c-18.9268 -15.1201 -48.7861 -15.542 -66.7383 1.66309c-20.3047 19.4609 -26.1299 54.7646 -29.4863 83.0488
c-0.549805 -1.77832 -1.04688 -3.57227 -1.61914 -5.34473c-9.56641 -29.5557 -23.293 -79.4912 -57.7461 -88.4043c-39.7285 -10.2764 -69.5156 24.3613 -80.6289 58.6611c-13.0947 40.4033 -16.4043 89.8301 -7.3877 131.434c4.90332 22.6113 58.0176 24.668 60.3584 0
c3.29395 -34.7412 -2.09375 -69.957 1.00977 -104.892c1.34375 -15.0918 4.10352 -29.6523 7.61328 -44.3564c1.6123 -6.75977 2.94043 -14.0547 6.34082 -20.208c5.01953 -9.08496 8.55469 -6.52246 15.0801 0.525391c11.0352 11.9199 17.6797 30.3311 23.79 45.0791
c5.91602 14.2734 10.916 28.9189 15.1162 43.7861c6.60645 23.3711 11.0439 47.2295 14.3721 71.2539c0.299805 9.04785 0.771484 18.0703 1.39941 27.043c1.6123 23.0557 58.5586 22.9023 58.6494 0c0.200195 -50.7324 -1.91895 -101.037 2.18164 -151.727
c0.927734 -11.4697 0.292969 -25.0059 4.57422 -35.8135c3.55957 -8.97852 4.44434 -11.1191 14.5957 -3.26562c4.83203 3.74121 9.02637 9.21094 12.4424 14.127c12.7539 18.3516 19.3047 40.25 25.752 61.3926z" />
    <glyph glyph-name="u" unicode="&#xfc;" horiz-adv-x="257" 
d="M256.099 96.4395c2.3877 7.82617 24.4561 6.09863 21.709 -3.4082c-8.16309 -28.2646 -17.3105 -61.3682 -41.3779 -80.5947c-18.9268 -15.1201 -48.7861 -15.542 -66.7383 1.66309c-20.3047 19.4609 -26.1299 54.7646 -29.4863 83.0488
c-0.549805 -1.77832 -1.04688 -3.57227 -1.61914 -5.34473c-9.56641 -29.5557 -23.293 -79.4912 -57.7461 -88.4043c-39.7285 -10.2764 -69.5156 24.3613 -80.6289 58.6611c-13.0947 40.4033 -16.4043 89.8301 -7.3877 131.434c4.90332 22.6113 58.0176 24.668 60.3584 0
c3.29395 -34.7412 -2.09375 -69.957 1.00977 -104.892c1.34375 -15.0918 4.10352 -29.6523 7.61328 -44.3564c1.6123 -6.75977 2.94043 -14.0547 6.34082 -20.208c5.01953 -9.08496 8.55469 -6.52246 15.0801 0.525391c11.0352 11.9199 17.6797 30.3311 23.79 45.0791
c5.91602 14.2734 10.916 28.9189 15.1162 43.7861c6.60645 23.3711 11.0439 47.2295 14.3721 71.2539c0.299805 9.04785 0.771484 18.0703 1.39941 27.043c1.6123 23.0557 58.5586 22.9023 58.6494 0c0.200195 -50.7324 -1.91895 -101.037 2.18164 -151.727
c0.927734 -11.4697 0.292969 -25.0059 4.57422 -35.8135c3.55957 -8.97852 4.44434 -11.1191 14.5957 -3.26562c4.83203 3.74121 9.02637 9.21094 12.4424 14.127c12.7539 18.3516 19.3047 40.25 25.752 61.3926z" />
    <glyph glyph-name="u" unicode="&#xfb;" horiz-adv-x="257" 
d="M256.099 96.4395c2.3877 7.82617 24.4561 6.09863 21.709 -3.4082c-8.16309 -28.2646 -17.3105 -61.3682 -41.3779 -80.5947c-18.9268 -15.1201 -48.7861 -15.542 -66.7383 1.66309c-20.3047 19.4609 -26.1299 54.7646 -29.4863 83.0488
c-0.549805 -1.77832 -1.04688 -3.57227 -1.61914 -5.34473c-9.56641 -29.5557 -23.293 -79.4912 -57.7461 -88.4043c-39.7285 -10.2764 -69.5156 24.3613 -80.6289 58.6611c-13.0947 40.4033 -16.4043 89.8301 -7.3877 131.434c4.90332 22.6113 58.0176 24.668 60.3584 0
c3.29395 -34.7412 -2.09375 -69.957 1.00977 -104.892c1.34375 -15.0918 4.10352 -29.6523 7.61328 -44.3564c1.6123 -6.75977 2.94043 -14.0547 6.34082 -20.208c5.01953 -9.08496 8.55469 -6.52246 15.0801 0.525391c11.0352 11.9199 17.6797 30.3311 23.79 45.0791
c5.91602 14.2734 10.916 28.9189 15.1162 43.7861c6.60645 23.3711 11.0439 47.2295 14.3721 71.2539c0.299805 9.04785 0.771484 18.0703 1.39941 27.043c1.6123 23.0557 58.5586 22.9023 58.6494 0c0.200195 -50.7324 -1.91895 -101.037 2.18164 -151.727
c0.927734 -11.4697 0.292969 -25.0059 4.57422 -35.8135c3.55957 -8.97852 4.44434 -11.1191 14.5957 -3.26562c4.83203 3.74121 9.02637 9.21094 12.4424 14.127c12.7539 18.3516 19.3047 40.25 25.752 61.3926z" />
    <glyph glyph-name="u" unicode="&#xfa;" horiz-adv-x="257" 
d="M256.099 96.4395c2.3877 7.82617 24.4561 6.09863 21.709 -3.4082c-8.16309 -28.2646 -17.3105 -61.3682 -41.3779 -80.5947c-18.9268 -15.1201 -48.7861 -15.542 -66.7383 1.66309c-20.3047 19.4609 -26.1299 54.7646 -29.4863 83.0488
c-0.549805 -1.77832 -1.04688 -3.57227 -1.61914 -5.34473c-9.56641 -29.5557 -23.293 -79.4912 -57.7461 -88.4043c-39.7285 -10.2764 -69.5156 24.3613 -80.6289 58.6611c-13.0947 40.4033 -16.4043 89.8301 -7.3877 131.434c4.90332 22.6113 58.0176 24.668 60.3584 0
c3.29395 -34.7412 -2.09375 -69.957 1.00977 -104.892c1.34375 -15.0918 4.10352 -29.6523 7.61328 -44.3564c1.6123 -6.75977 2.94043 -14.0547 6.34082 -20.208c5.01953 -9.08496 8.55469 -6.52246 15.0801 0.525391c11.0352 11.9199 17.6797 30.3311 23.79 45.0791
c5.91602 14.2734 10.916 28.9189 15.1162 43.7861c6.60645 23.3711 11.0439 47.2295 14.3721 71.2539c0.299805 9.04785 0.771484 18.0703 1.39941 27.043c1.6123 23.0557 58.5586 22.9023 58.6494 0c0.200195 -50.7324 -1.91895 -101.037 2.18164 -151.727
c0.927734 -11.4697 0.292969 -25.0059 4.57422 -35.8135c3.55957 -8.97852 4.44434 -11.1191 14.5957 -3.26562c4.83203 3.74121 9.02637 9.21094 12.4424 14.127c12.7539 18.3516 19.3047 40.25 25.752 61.3926z" />
    <glyph glyph-name="v" unicode="v" horiz-adv-x="227" 
d="M235.615 111.988c8.41602 2.22852 24.7119 -7.00293 10.9951 -10.7217c-20.543 -5.56348 -44.2012 -5.29492 -66.6787 0.224609c-1.92188 -6.53516 -3.92871 -13.0361 -6.05664 -19.4648c-9.38574 -28.3623 -22.5498 -63.7812 -47.2178 -82.5957
c-21.124 -16.1113 -50.0205 -13.1865 -70.8193 1.65527c-27.7178 19.7803 -42.7627 52.6865 -51.5693 84.6084c-9.29785 33.7002 -14.917 69.2256 -16.4014 104.157c-1.03125 24.2021 58.6426 23.9521 61.8213 0c7.62598 -57.499 7.45996 -119.927 35.96 -172.266
c1.94434 -3.57227 4.66992 -10.21 8.5293 -12.0508c8.85742 -4.22559 17.0361 6.05664 21.833 11.832c9.83496 11.8418 17.1914 26.209 23.5107 40.1602c7.4541 16.4482 13.5137 33.6904 18.5957 51.1826c-32.7715 13.8291 -59.3018 39.7686 -63.6709 75.8125
c-3.26953 26.9463 7.85352 55.3213 28.4336 73.0293c15.7324 13.5352 42.4971 21.6045 59.8672 6.11523c20.999 -18.7266 16.252 -57.5518 13.6611 -82.1943c-2.35645 -22.4238 -6.87891 -44.7979 -12.751 -66.7314c17.8018 -5.30957 36.7158 -6.79395 51.958 -2.75293z
M167.15 144.198c6.12598 27.6396 11.6416 58.6006 7.76953 86.9502c-0.90332 6.60645 -2.27539 15.8193 -7.01367 21.0508c-10.792 11.9141 -20.54 3.23828 -28.4033 -4.54688c-9.42871 -9.3291 -16.1797 -21.8867 -19.6611 -34.6475
c-6.99414 -25.6367 0.550781 -54.0771 19.0928 -73.0664c6.17285 -6.32227 14.2207 -11.9131 23.2217 -16.5479c1.79395 6.93164 3.45996 13.876 4.99414 20.8076z" />
    <glyph glyph-name="w" unicode="w" horiz-adv-x="333" 
d="M347.933 109.866c13.1982 -0.581055 13.2236 -12.0781 -0.00585938 -12.4092c-14.4512 -0.365234 -31.4688 1.06934 -48.5986 4.69141c-1.01855 -6.28516 -2.18457 -12.5518 -3.625 -18.7676c-10.2041 -44.0068 -38.8252 -98.1338 -91.6611 -96.8184
c-35.2441 0.87793 -56.8145 25.002 -69.6309 54.8359c-3.64453 -11.8604 -8.5918 -23.0361 -15.3486 -32.709c-16.8516 -24.1182 -47.4697 -32.1436 -75.0977 -23.9678c-35.2754 10.4414 -46.9482 48.5234 -51.5234 81.3486
c-5.84082 41.916 -3.08105 84.9639 0.750977 126.908c2.32812 25.4961 65.8965 23.8086 63.5303 0c-2.99414 -30.1025 -5.12207 -60.3994 -5.31934 -90.665c-0.168945 -26.0898 -1.125 -55.5303 5.90723 -80.8447c3.06934 -11.0508 8.83203 -28.6494 23.2021 -21.377
c11.8232 5.98145 19.3086 17.9697 24.4873 29.6963c9.12305 20.6611 13.248 43.8506 14.8799 66.6523c-0.700195 5.07227 -1.23438 10.0195 -1.62793 14.7578c-1.81543 21.8711 54.5273 22.5117 57.1836 0c2.99414 -25.334 5.58203 -50.6143 15.1738 -74.4854
c3.90332 -9.7168 8.69727 -19.3643 16.4639 -26.6494c10.8701 -10.1982 24.209 0.75 32.8379 9.35352c22.6055 22.5361 33.0537 55.5361 37.6787 88.5732c-35.2969 11.7012 -66.4932 33.8496 -70.7939 70.1592c-2.82227 23.8271 6.86914 51.958 24.3203 68.5693
c14.1729 13.4922 37.6875 17.4023 52.458 2.35742c16.6201 -16.9268 18.0078 -48.0234 19.2705 -70.1318c1.19043 -20.7705 0.849609 -41.6533 -1.49414 -62.3115c16.1045 -4.125 32.5527 -6.14746 46.582 -6.7666zM280.971 158.521
c0.15918 24.0459 0.714844 53.1143 -10.5957 75.0693c-17.8984 34.7314 -40.6445 -30.9961 -40.8887 -45.5635c-0.549805 -32.7939 21.8994 -52.6709 49.918 -64.2031c1.05957 11.9482 1.49414 23.6904 1.56641 34.6973z" />
    <glyph glyph-name="x" unicode="x" horiz-adv-x="194" 
d="M193.27 106.766c2.82812 7.91309 25.2021 6.125 22.1797 -3.48535c-10.6074 -33.7246 -27.665 -67.2773 -51.8857 -93.4043c-21.8047 -23.5205 -55.7578 -26.8145 -85.001 -15.7666c-24.0332 9.0791 -40.8945 28.6338 -53.0117 50.8076
c-8.54492 -16.1016 -16.6738 -32.4346 -24.3467 -49.0049c-3.41602 -7.37598 -24.8428 -5.06055 -21.002 3.2998c10.7041 23.2988 22.3057 46.1162 34.7354 68.4531c-1.39355 3.49707 -2.72168 6.99414 -3.94336 10.4629c-12.873 36.5781 -19.2393 75.6572 -20.3672 114.326
c-0.712891 24.4551 60.0205 24.4082 62.5547 0c1.78418 -17.1641 3.54688 -34.8779 5.98438 -52.6201c13.5635 20.1738 27.8652 39.876 42.876 59.084c4.96582 6.35352 26.418 2.40332 19.4395 -6.47559c-20.6016 -26.2119 -39.8066 -53.4209 -57.5986 -81.5107
c5.74414 -29.9531 14.5107 -59.1592 29.7871 -85.0244c4.98145 -8.43164 14.5137 -22.0078 25.293 -22.7393c14.083 -0.956055 26.5059 16.9678 33.8379 26.709c17.4951 23.2432 30.7021 49.5518 40.4688 76.8887z" />
    </font>
</defs>
</svg>
