<?xml version="1.0" standalone="no"?>
<!DOCTYPE svg PUBLIC "-//W3C//DTD SVG 1.1//EN" "http://www.w3.org/Graphics/SVG/1.1/DTD/svg11.dtd" >
<svg xmlns="http://www.w3.org/2000/svg" xmlns:xlink="http://www.w3.org/1999/xlink" version="1.1">
<metadata>
Created by FontForge 20170812 at Fri Mar 25 17:28:00 2022
 By www-data
</metadata>
<defs>
<font id="HandshowRegular" horiz-adv-x="0" >
  <font-face 
    font-family="Handshow"
    font-weight="400"
    font-stretch="normal"
    units-per-em="1000"
    panose-1="0 0 0 0 0 0 0 0 0 0"
    ascent="800"
    descent="-200"
    x-height="316.876"
    cap-height="683.433"
    bbox="-133.308 -367.735 670.644 854.588"
    underline-thickness="50"
    underline-position="-100"
    unicode-range="U+000A-20AC"
  />
<missing-glyph horiz-adv-x="527" 
d="M50 700h427v-700h-427v700zM78 680l185 -309l186 309h-371zM251 350l-180 300v-601zM264 329l-185 -308h370zM276 350l181 -303v605z" />
    <glyph glyph-name=".notdef" horiz-adv-x="527" 
d="M50 700h427v-700h-427v700zM78 680l185 -309l186 309h-371zM251 350l-180 300v-601zM264 329l-185 -308h370zM276 350l181 -303v605z" />
    <glyph glyph-name=".null" 
 />
    <glyph glyph-name=".null" 
 />
    <glyph glyph-name="LF" unicode="&#xa;" 
 />
    <glyph glyph-name="controlCR" unicode="&#xd;" 
 />
    <glyph glyph-name="space" unicode=" " horiz-adv-x="286" 
 />
    <glyph glyph-name="exclam" unicode="!" horiz-adv-x="138" 
d="M71.5918 21.6201c-7.13574 0 -13.0371 5.6582 -13.2842 12.8428c-7.35938 213.938 -9.84766 430.924 -7.39355 644.919c0.0839844 7.34473 5.93945 13.2344 13.4512 13.1475c7.34473 -0.0839844 13.2266 -6.10645 13.1465 -13.4512
c-2.4502 -213.589 0.03125 -430.164 7.37988 -643.699c0.250977 -7.34082 -5.49414 -13.5 -12.835 -13.751c-0.15625 -0.00390625 -0.3125 -0.0078125 -0.464844 -0.0078125zM85.9414 -55.6914l2.19434 -33.9785c0.470703 -7.3291 -5.08789 -13.6514 -12.417 -14.126
c-0.292969 -0.0185547 -0.582031 -0.0263672 -0.871094 -0.0263672c-6.95312 0 -12.8008 5.39941 -13.2568 12.4395l-2.19629 33.9824c-0.470703 7.3291 5.08789 13.6514 12.417 14.126c7.35156 0.478516 13.6553 -5.08398 14.1299 -12.417z" />
    <glyph glyph-name="quotedbl" unicode="&#x22;" horiz-adv-x="199" 
d="M99.1094 621.86c-7.85742 -24.6934 -22.4453 -88.2725 -22.8213 -99.2451c1.01074 -6.23926 -2.55664 -12.4971 -8.73047 -14.6592c-1.45508 -0.512695 -2.94043 -0.751953 -4.39941 -0.751953c-5.49023 0 -10.6309 3.42676 -12.5498 8.90137
c-5.03809 14.3809 22.8613 112.875 23.1611 113.817c2.22266 6.99902 9.7002 10.8672 16.7031 8.64062c6.99512 -2.22266 10.8633 -9.7041 8.63672 -16.7031zM140.237 631.026c6.83105 -2.70117 10.1816 -10.4277 7.47266 -17.2559
c-8.30957 -21.0107 -13.876 -47.5918 -19.2598 -73.3027c-2.04004 -9.73828 -3.9668 -18.9404 -6.03418 -27.8271c-1.42871 -6.13965 -6.89648 -10.2891 -12.9414 -10.2891c-0.995117 0 -2.00977 0.110352 -3.02441 0.345703
c-7.1543 1.66406 -11.6035 8.81055 -9.93945 15.9648c2.00195 8.59863 3.89746 17.6602 5.90723 27.2539c5.61523 26.8018 11.417 54.5156 20.5625 77.6357c2.70117 6.82812 10.4258 10.1758 17.2568 7.47461z" />
    <glyph glyph-name="quotedbl" unicode="&#x201d;" horiz-adv-x="199" 
d="M99.1094 621.86c-7.85742 -24.6934 -22.4453 -88.2725 -22.8213 -99.2451c1.01074 -6.23926 -2.55664 -12.4971 -8.73047 -14.6592c-1.45508 -0.512695 -2.94043 -0.751953 -4.39941 -0.751953c-5.49023 0 -10.6309 3.42676 -12.5498 8.90137
c-5.03809 14.3809 22.8613 112.875 23.1611 113.817c2.22266 6.99902 9.7002 10.8672 16.7031 8.64062c6.99512 -2.22266 10.8633 -9.7041 8.63672 -16.7031zM140.237 631.026c6.83105 -2.70117 10.1816 -10.4277 7.47266 -17.2559
c-8.30957 -21.0107 -13.876 -47.5918 -19.2598 -73.3027c-2.04004 -9.73828 -3.9668 -18.9404 -6.03418 -27.8271c-1.42871 -6.13965 -6.89648 -10.2891 -12.9414 -10.2891c-0.995117 0 -2.00977 0.110352 -3.02441 0.345703
c-7.1543 1.66406 -11.6035 8.81055 -9.93945 15.9648c2.00195 8.59863 3.89746 17.6602 5.90723 27.2539c5.61523 26.8018 11.417 54.5156 20.5625 77.6357c2.70117 6.82812 10.4258 10.1758 17.2568 7.47461z" />
    <glyph glyph-name="quotedbl" unicode="&#x201c;" horiz-adv-x="199" 
d="M99.1094 621.86c-7.85742 -24.6934 -22.4453 -88.2725 -22.8213 -99.2451c1.01074 -6.23926 -2.55664 -12.4971 -8.73047 -14.6592c-1.45508 -0.512695 -2.94043 -0.751953 -4.39941 -0.751953c-5.49023 0 -10.6309 3.42676 -12.5498 8.90137
c-5.03809 14.3809 22.8613 112.875 23.1611 113.817c2.22266 6.99902 9.7002 10.8672 16.7031 8.64062c6.99512 -2.22266 10.8633 -9.7041 8.63672 -16.7031zM140.237 631.026c6.83105 -2.70117 10.1816 -10.4277 7.47266 -17.2559
c-8.30957 -21.0107 -13.876 -47.5918 -19.2598 -73.3027c-2.04004 -9.73828 -3.9668 -18.9404 -6.03418 -27.8271c-1.42871 -6.13965 -6.89648 -10.2891 -12.9414 -10.2891c-0.995117 0 -2.00977 0.110352 -3.02441 0.345703
c-7.1543 1.66406 -11.6035 8.81055 -9.93945 15.9648c2.00195 8.59863 3.89746 17.6602 5.90723 27.2539c5.61523 26.8018 11.417 54.5156 20.5625 77.6357c2.70117 6.82812 10.4258 10.1758 17.2568 7.47461z" />
    <glyph glyph-name="numbersign" unicode="#" horiz-adv-x="445" 
d="M382.033 339.611c7.34473 -0.174805 13.1465 -6.2666 12.9717 -13.6074s-6.13965 -13.1543 -13.6133 -12.9756c-26.8818 0.645508 -53.748 -0.136719 -80.542 -2.23438c-4.75293 -23.5566 -9.36523 -47.1592 -13.7002 -70.8604
c22.584 1.34082 45.21 1.79297 67.8477 1.25c7.34082 -0.174805 13.1504 -6.26953 12.9756 -13.6143c-0.174805 -7.34082 -6.17773 -13.1387 -13.6133 -12.9756c-24.0127 0.573242 -48.0137 0.0488281 -71.9619 -1.56641c-21 -119.406 -36.7568 -240.492 -46.9961 -362.589
c-0.581055 -6.94141 -6.39844 -12.1885 -13.2373 -12.1885c-0.37207 0 -0.744141 0.0185547 -1.12402 0.0488281c-7.31738 0.611328 -12.7549 7.04395 -12.1396 14.3613c10.1104 120.513 25.5479 240.06 46.0723 357.992
c-24.1572 -2.47754 -48.2422 -6.06445 -72.2168 -10.7568c-16.3379 -108.928 -27.4668 -219.314 -33.2842 -330.579c-0.368164 -7.09766 -6.24219 -12.6035 -13.2676 -12.6035c-0.235352 0 -0.470703 0.0078125 -0.706055 0.0195312
c-7.33691 0.383789 -12.9717 6.6416 -12.5879 13.9746c5.6875 108.779 16.4551 216.716 32.124 323.299c-29.3281 -6.8125 -58.4629 -15.2773 -87.3242 -25.4033c-1.45898 -0.512695 -2.94434 -0.755859 -4.40332 -0.755859c-5.49023 0 -10.627 3.42383 -12.5498 8.89844
c-2.43164 6.92676 1.21582 14.5186 8.14648 16.9502c33.1543 11.6338 66.6699 21.1025 100.425 28.4961c3.50684 22.5391 7.19629 45.0244 11.1436 67.4297c-25.4111 -6.2959 -50.6738 -13.7998 -75.7236 -22.5918
c-1.45898 -0.508789 -2.94434 -0.751953 -4.40332 -0.751953c-5.49023 0 -10.627 3.42676 -12.5498 8.89844c-2.43164 6.93066 1.21582 14.5225 8.14648 16.9541c29.6553 10.4072 59.5986 19.1045 89.7441 26.1221c18.7051 101.044 41.8438 200.671 69.4961 298.353
c2.00195 7.06738 9.36523 11.1709 16.417 9.17285c7.07129 -2.00195 11.1748 -9.35059 9.17578 -16.418c-26.4365 -93.3955 -48.7246 -188.58 -66.9238 -285.099c24.8486 4.88965 49.8193 8.62793 74.8652 11.2119c20.3496 98.2969 44.2861 195.279 71.8057 290.51
c2.04004 7.05566 9.40723 11.125 16.4668 9.08496c7.05566 -2.04004 11.125 -9.41113 9.08496 -16.4668c-26.6006 -92.0537 -49.8574 -185.745 -69.7178 -280.702c25.1826 1.73633 50.4229 2.31738 75.6777 1.71289zM259.78 237.875
c4.25879 23.5078 8.74316 46.9375 13.4131 70.3047c-24.9551 -2.83398 -49.8232 -6.88379 -74.5693 -12.0889c-4.07324 -22.6719 -7.87305 -45.4307 -11.4902 -68.2432c24.123 4.43066 48.3525 7.7666 72.6465 10.0273z" />
    <glyph glyph-name="dollar" unicode="$" horiz-adv-x="329" 
d="M264.762 58.418c11.9268 -31.9307 16.2295 -62.1514 12.7988 -89.8076c-5.03027 -40.4834 -28.3018 -76.6924 -59.29 -92.2441c-9.30469 -4.66992 -19.1836 -7.48145 -29.2637 -8.51855c1.35645 -27.6836 2.82715 -55.3438 4.52148 -82.9619
c0.448242 -7.33301 -5.12598 -13.6406 -12.459 -14.0889c-0.277344 -0.0185547 -0.554688 -0.0263672 -0.828125 -0.0263672c-6.97168 0 -12.8271 5.43359 -13.2607 12.4854c-1.75488 28.6367 -3.27832 57.3193 -4.67285 86.0244
c-13.4316 2.74707 -26.6914 8.49219 -38.96 17.2959c-25.7344 18.4658 -47.2129 49.8574 -60.4766 88.3955c-10.5059 30.5215 -14.7041 61.9619 -12.1396 90.918c2.99414 33.8115 15.4678 64.1621 34.2295 83.2617c5.14844 5.23926 13.5684 5.31543 18.8076 0.170898
c5.23535 -5.14844 5.31152 -13.5684 0.166992 -18.8076c-14.3047 -14.5635 -24.29 -39.5986 -26.7139 -66.9697c-2.23828 -25.2666 1.49316 -52.9004 10.7939 -79.9189c11.4863 -33.3672 29.5381 -60.1611 50.8301 -75.4385
c7.06738 -5.07227 14.541 -8.77637 22.1172 -11.1318c-4.19043 94.1025 -6.41699 188.505 -6.7168 282.938c-28.9941 35.7607 -57.9385 73.3799 -75.6328 121.668c-16.3457 44.6025 -21.7559 96.082 -15.2393 144.943c2.94824 22.0938 7.86816 40.1982 15.0381 55.3467
c13.9326 29.4346 38.4473 50.9395 67.2471 58.998c6.12109 1.71387 12.1738 2.7207 18.0898 3.0625c1.85449 35.0469 3.95898 70.0518 6.35254 104.992c0.501953 7.3252 6.85059 12.8613 14.1758 12.3564c7.3252 -0.501953 12.8574 -6.84668 12.3555 -14.1758
c-2.42773 -35.4453 -4.56641 -70.959 -6.43555 -106.519c6.84668 -2.26465 13.2793 -5.60449 19.127 -10.0459c22.0596 -16.7598 36.3535 -47.5244 44.9824 -96.8115c1.26562 -7.23438 -3.57129 -14.127 -10.8057 -15.3926
c-7.24609 -1.26855 -14.127 3.57227 -15.3926 10.8066c-7.29883 41.6953 -18.7051 67.9385 -34.8721 80.2188c-1.45508 1.10156 -2.93262 2.04785 -4.42578 2.89551c-5.5166 -114.016 -8.17969 -228.472 -7.9707 -342.901
c0.474609 -0.581055 0.945312 -1.16211 1.41992 -1.74707c31.0723 -38.1504 63.2041 -77.6045 82.502 -129.271zM154.221 222.88c0.319336 104.919 3.0791 209.821 8.19336 314.346c-3.4541 -0.391602 -6.69922 -1.0791 -9.59082 -1.88867
c-21.3799 -5.98047 -39.7393 -22.2959 -50.374 -44.7666c-5.98047 -12.626 -10.1367 -28.1621 -12.7168 -47.4863c-5.95801 -44.667 -1.03809 -91.6475 13.8486 -132.279c12.2568 -33.4434 30.2783 -61.1953 50.6396 -87.9248zM251.162 -28.1123
c2.86133 23.0361 -1.05176 49.7393 -11.3145 77.2207c-14.0049 37.4893 -35.2217 67.8242 -58.7939 97.6807c0.676758 -84.2041 2.85352 -168.359 6.63379 -252.271c6.45117 0.80957 12.7314 2.64844 18.6436 5.61621c22.9072 11.4971 40.9248 40.3281 44.8311 71.7539z" />
    <glyph glyph-name="percent" unicode="%" horiz-adv-x="418" 
d="M349.463 619.364c6.79395 -2.79297 10.0381 -10.5605 7.24512 -17.3545c-98.2666 -239.103 -180.754 -491.716 -245.167 -750.822c-1.50488 -6.04883 -6.93066 -10.0918 -12.8955 -10.0918c-1.06348 0 -2.13867 0.125 -3.21777 0.394531
c-7.12793 1.77051 -11.4668 8.98535 -9.69629 16.1133c64.7207 260.36 147.614 514.216 246.375 754.515c2.78906 6.79395 10.5518 10.0391 17.3564 7.24609zM364.907 85.7422c8.98535 -38.8418 0.134766 -84.0029 -22.0352 -112.378
c-12.7021 -16.2539 -28.6602 -25.1367 -44.0059 -25.1367c-4.71094 0 -9.36914 0.839844 -13.8564 2.56055c-15.377 5.90039 -28.2227 22.3027 -35.2559 45.0088c-13.1465 42.459 -4.30176 88.3154 6.7666 135.486c1.67969 7.14648 8.8418 11.5879 15.9844 9.9082
c5.48633 -1.28809 9.37695 -5.80176 10.1289 -11.0605c13.2832 7.46191 28.4395 9.59375 42.8809 5.11816c9.6543 -2.99023 18.1084 -8.62109 24.4424 -16.2773c6.69043 -8.08887 11.7207 -19.2666 14.9502 -33.2295zM321.914 -10.2598
c17.2197 22.0371 24.2412 59.0518 17.0791 90.0059c-2.25684 9.76074 -5.55469 17.4619 -9.5293 22.2686c-3.07422 3.71582 -7.05273 6.34863 -11.8252 7.83008c-14.3125 4.43359 -30.6504 -4.62793 -39.7422 -22.041c-1.04492 -2.00586 -2.53418 -3.63184 -4.27832 -4.8252
c-4.71094 -28.207 -5.95703 -55.0957 1.54297 -79.3174c4.46777 -14.4229 11.8916 -25.168 19.377 -28.04c9.28613 -3.56055 20.5479 5.37988 27.376 14.1191zM105.692 287.933c-4.71484 0 -9.36719 0.835938 -13.8584 2.56055
c-15.377 5.90039 -28.2266 22.3027 -35.2598 45.0088c-13.1465 42.459 -4.30176 88.3154 6.7666 135.486c1.67969 7.14648 8.83398 11.5879 15.9844 9.9082c5.48633 -1.28809 9.37695 -5.79785 10.1289 -11.0605c13.2793 7.45801 28.4395 9.59375 42.8809 5.11816
c9.6543 -2.99414 18.1084 -8.625 24.4424 -16.2812c6.69043 -8.08496 11.7207 -19.2666 14.9502 -33.2256c8.98535 -38.8457 0.128906 -84.0068 -22.0332 -112.378c-12.6982 -16.2539 -28.6562 -25.1367 -44.002 -25.1367zM80.4395 422.686
c-4.71094 -28.2109 -5.95312 -55.0967 1.54297 -79.3145c4.46777 -14.4268 11.8916 -25.1719 19.377 -28.0439c9.28613 -3.56348 20.5518 5.38086 27.376 14.1201c17.2197 22.0371 24.2412 59.0518 17.0791 90.0059c-2.25684 9.76074 -5.55469 17.4619 -9.5293 22.2686
c-3.07422 3.71582 -7.05273 6.34863 -11.8252 7.83008c-14.3164 4.43359 -30.6504 -4.62793 -39.7422 -22.041c-1.04492 -2.00586 -2.53418 -3.63574 -4.27832 -4.8252z" />
    <glyph glyph-name="ampersand" unicode="&#x26;" horiz-adv-x="482" 
d="M401.252 281.38c19.1455 -18.8984 30.791 -51.4834 31.1562 -87.1602c0.285156 -27.9268 -5.70703 -57.373 -18.3252 -90.0107c-23.0361 -59.584 -60.1992 -109.844 -104.646 -141.527c-36.6045 -26.0947 -78.3457 -39.7959 -120.019 -39.7959
c-9.78711 0 -19.5635 0.755859 -29.2783 2.2832c-35.7803 5.62695 -61.2939 22.1699 -75.8311 49.1689c-20.0352 37.2051 -14.2031 87.248 -5.7832 122.679c22.3027 93.8398 71.0654 170.681 115.679 227.757c-16.3037 -5.18652 -33.2871 -8.3252 -50.7002 -7.12793
c-34.8223 2.39355 -75.8906 27.0068 -89.1504 76.6055c-8.62109 32.2461 -2.83105 66.0693 3.54492 88.7676c20.2969 72.2627 65.959 118.586 100.694 144.723c43.2646 32.5498 84.96 45.9541 123.958 39.833c24.8105 -3.89844 44.4424 -16.0645 56.7676 -35.1914
c15.2891 -23.7275 17.9336 -55.8184 19.2139 -84.0371c0.330078 -7.33691 -5.34668 -13.5527 -12.6836 -13.8867c-7.43945 -0.331055 -13.5527 5.3457 -13.8867 12.6826c-1.12109 24.75 -3.29785 52.6768 -15 70.8379c-8.21875 12.751 -21.1865 20.5967 -38.5391 23.3213
c-31.6191 4.96191 -66.5479 -6.75195 -103.84 -34.8154c-31.4561 -23.6709 -72.7949 -65.5566 -91.082 -130.665c-5.47852 -19.4951 -10.5205 -48.2842 -3.45703 -74.71c9.87109 -36.9121 39.8984 -55.1953 65.2793 -56.9395
c29.4199 -2.0293 59.1582 12.1465 87.9316 25.8516c5.68359 2.70508 12.4961 1.05566 16.3066 -3.95996s3.5791 -12.0186 -0.550781 -16.7715c-49.1543 -56.5596 -117.621 -144.879 -144.609 -258.438c-7.35156 -30.9355 -12.7432 -74.0791 3.3252 -103.917
c10.3916 -19.2939 29.4121 -31.2393 56.5479 -35.5059c44.1582 -6.94531 90.2275 4.73828 129.728 32.8965c40.2637 28.6934 74.0986 74.6748 95.2773 129.46c11.3799 29.4346 16.7861 55.6514 16.5352 80.1465c-0.292969 28.3936 -9.19922 54.6553 -23.25 68.5273
c-22.7246 22.4434 -53.9492 9.17578 -62.9766 4.57422c-20.7451 -10.5781 -39.2334 -28.5615 -53.4697 -52.0049c-4.51758 -7.44336 -11.6152 -21.6113 -8.37793 -32.8994c2.02539 -7.05957 -2.05566 -14.4229 -9.11523 -16.4482
c-7.06348 -2.02539 -14.4268 2.05566 -16.4482 9.11523c-4.5332 15.8057 -0.658203 34.4912 11.208 54.0322c16.7979 27.6719 38.9717 49.0742 64.124 61.8936c34.8076 17.7402 69.8506 14.248 93.7422 -9.34277z" />
    <glyph glyph-name="quotesingle" unicode="'" horiz-adv-x="157" 
d="M99.3057 623.737c6.75586 -2.8877 9.88574 -10.6992 7.00195 -17.459c-7.2041 -16.8467 -22.8652 -62.79 -30.0537 -93.6494c-1.43262 -6.13965 -6.90039 -10.2852 -12.9414 -10.2852c-0.999023 0 -2.01367 0.114258 -3.02832 0.349609
c-7.1543 1.66797 -11.5996 8.81836 -9.93555 15.9688c6.91895 29.6973 22.8887 77.9355 31.502 98.0762c2.8916 6.75586 10.707 9.88672 17.4551 6.99902z" />
    <glyph glyph-name="quotesingle" unicode="&#x2019;" horiz-adv-x="157" 
d="M99.3057 623.737c6.75586 -2.8877 9.88574 -10.6992 7.00195 -17.459c-7.2041 -16.8467 -22.8652 -62.79 -30.0537 -93.6494c-1.43262 -6.13965 -6.90039 -10.2852 -12.9414 -10.2852c-0.999023 0 -2.01367 0.114258 -3.02832 0.349609
c-7.1543 1.66797 -11.5996 8.81836 -9.93555 15.9688c6.91895 29.6973 22.8887 77.9355 31.502 98.0762c2.8916 6.75586 10.707 9.88672 17.4551 6.99902z" />
    <glyph glyph-name="quotesingle" unicode="&#x2018;" horiz-adv-x="157" 
d="M99.3057 623.737c6.75586 -2.8877 9.88574 -10.6992 7.00195 -17.459c-7.2041 -16.8467 -22.8652 -62.79 -30.0537 -93.6494c-1.43262 -6.13965 -6.90039 -10.2852 -12.9414 -10.2852c-0.999023 0 -2.01367 0.114258 -3.02832 0.349609
c-7.1543 1.66797 -11.5996 8.81836 -9.93555 15.9688c6.91895 29.6973 22.8887 77.9355 31.502 98.0762c2.8916 6.75586 10.707 9.88672 17.4551 6.99902z" />
    <glyph glyph-name="parenleft" unicode="(" horiz-adv-x="317" 
d="M265.865 -168.724c2.80762 -6.79004 -0.422852 -14.5664 -7.20898 -17.3701c-12.2949 -5.08398 -25.1221 -7.56543 -37.9336 -7.56543c-27.8955 -0.00390625 -55.7266 11.752 -77.9307 33.9941c-37.4668 37.5352 -54.5078 98.7295 -64.0674 141.493
c-15.5205 69.4473 -24.2666 145.54 -27.5186 239.456c-5.27344 152.212 6.77832 289.37 35.8252 407.664c12.5576 51.1416 25.7227 87.4795 42.6836 117.822c21.2393 37.9951 48.7969 54.1387 73.7295 43.1768c6.72168 -2.95605 9.77637 -10.7979 6.82031 -17.5234
c-2.95605 -6.72461 -10.7979 -9.7793 -17.5264 -6.82324c-12.2158 5.36914 -28.7969 -12.1045 -39.8115 -31.8086c-15.749 -28.1699 -28.1055 -62.4639 -40.0703 -111.188c-28.4658 -115.919 -40.2637 -250.634 -35.0732 -400.398
c3.19531 -92.2363 11.7402 -166.774 26.8926 -234.576c8.83398 -39.5342 24.3516 -95.8652 56.9365 -128.503c24.6553 -24.6963 57.9463 -32.6064 86.8828 -20.6416c6.79688 2.80762 14.5664 -0.421875 17.3701 -7.20801z" />
    <glyph glyph-name="parenright" unicode=")" horiz-adv-x="317" 
d="M229.855 628.946c29.0469 -118.293 41.0977 -255.45 35.8203 -407.662c-3.25586 -93.9199 -12.002 -170.009 -27.5225 -239.456c-9.55566 -42.7637 -26.5967 -103.958 -64.0674 -141.493c-22.2041 -22.2383 -50.0391 -33.9941 -77.9307 -33.9941
c-12.8115 0 -25.6348 2.48145 -37.9336 7.56543c-6.78613 2.80762 -10.0156 10.5811 -7.20801 17.3711c2.80762 6.78613 10.5771 10.0117 17.3711 7.20801c28.9404 -11.9688 62.2314 -4.05469 86.8828 20.6416c32.5879 32.6455 48.1016 88.9727 56.9355 128.503
c15.1562 67.8018 23.7012 142.34 26.8965 234.576c5.19043 149.765 -6.61035 284.479 -35.0723 400.398c-11.9648 48.7246 -24.3213 83.0146 -40.0703 111.185c-11.0107 19.7041 -27.5996 37.1816 -39.8115 31.8096c-6.72168 -2.95605 -14.5713 0.0986328 -17.5273 6.82422
c-2.95605 6.72168 0.0947266 14.5674 6.82031 17.5234c24.9287 10.9619 52.4902 -5.18262 73.7334 -43.1777c16.9609 -30.3428 30.126 -66.6807 42.6836 -117.822z" />
    <glyph glyph-name="asterisk" unicode="*" horiz-adv-x="222" 
d="M171.571 537.048c-0.474609 -7.3252 -6.79395 -12.8887 -14.1309 -12.4062c-7.56836 0.490234 -15.1562 0.729492 -22.748 0.729492c7.2002 -9.73438 14.8369 -18.8574 22.9453 -27.0908c5.15234 -5.23535 5.08789 -13.6553 -0.143555 -18.8076
c-2.59082 -2.5498 -5.96094 -3.82227 -9.33105 -3.82227c-3.43848 0 -6.87305 1.32617 -9.47559 3.9668c-4.53613 4.6123 -8.90527 9.52148 -13.1914 14.5635c-0.205078 -10.5283 -0.494141 -20.9961 -0.946289 -31.1445
c-0.319336 -7.13574 -6.20508 -12.7061 -13.2764 -12.7061c-0.197266 0 -0.398438 0.00390625 -0.599609 0.0117188c-7.33691 0.330078 -13.0205 6.54199 -12.6934 13.8789c0.532227 11.9229 0.821289 24.3887 1.03418 36.9004
c-1.18945 -1.79688 -2.42383 -3.55566 -3.60547 -5.36035c-3.98145 -6.06445 -7.21484 -11.1562 -9.58594 -16.8555c-2.12793 -5.11035 -7.0752 -8.19141 -12.2842 -8.19141c-1.70215 0 -3.43457 0.327148 -5.10645 1.02637
c-6.77832 2.82324 -9.98926 10.6045 -7.16602 17.3867c3.25195 7.81152 7.31738 14.2363 11.9072 21.2275c2.38184 3.62891 4.84375 7.19238 7.26367 10.7939c-4.86328 -0.751953 -9.72266 -1.56934 -14.5596 -2.52344
c-0.870117 -0.170898 -1.73633 -0.250977 -2.59082 -0.250977c-6.22363 0 -11.7822 4.39258 -13.0322 10.7266c-1.4209 7.2041 3.26758 14.1992 10.4717 15.6201c9.18359 1.8125 18.4199 3.24902 27.6826 4.38086c-6.47461 12.1201 -12.3906 24.7539 -17.5166 37.915
c-2.66699 6.84277 0.72168 14.5518 7.56445 17.2148c6.83496 2.66699 14.5518 -0.71875 17.2148 -7.56543c1.58105 -4.05371 3.26758 -8.02832 4.98828 -11.9795c0.227539 5.52441 0.482422 11.0225 0.80957 16.4141c0.452148 7.33301 6.79395 12.9033 14.085 12.4668
c7.33301 -0.448242 12.9141 -6.75586 12.4658 -14.085c-0.265625 -4.3584 -0.456055 -8.83789 -0.65332 -13.3096c3.21777 4.15332 6.41699 8.35156 9.67285 12.4326c4.57812 5.74512 12.9404 6.69141 18.6895 2.10938c5.74512 -4.57812 6.6875 -12.9443 2.10938 -18.6855
c-7.80371 -9.78711 -15.4668 -19.8633 -23.0508 -30.0645c8.13086 -0.00390625 16.2617 -0.262695 24.3701 -0.787109c7.33301 -0.474609 12.8877 -6.80078 12.4131 -14.1299z" />
    <glyph glyph-name="plus" unicode="+" horiz-adv-x="243" 
d="M181.472 215.99c7.31055 -0.699219 12.6689 -7.19336 11.9619 -14.5078c-0.703125 -7.31055 -7.22266 -12.6641 -14.5059 -11.9648c-9.93945 0.954102 -25.0693 1.16309 -41.2549 0.859375c0.581055 -44.5684 2.22656 -89.1064 4.93945 -133.31
c0.448242 -7.33301 -5.12598 -13.6406 -12.459 -14.0889c-0.277344 -0.0185547 -0.554688 -0.0263672 -0.828125 -0.0263672c-6.97168 0 -12.8271 5.43359 -13.2607 12.4854c-2.72852 44.4385 -4.38867 89.2197 -4.97754 134.027
c-19.0283 -0.938477 -36.4189 -2.41602 -45.3896 -4.06152c-0.80957 -0.148438 -1.61914 -0.220703 -2.41309 -0.220703c-6.29199 0 -11.8887 4.4873 -13.0625 10.9004c-1.32617 7.22656 3.45703 14.1533 10.6797 15.4795c10.293 1.88867 29.3623 3.53809 49.9932 4.54102
c-0.132812 36.0645 0.391602 72.1025 1.64941 107.958c0.258789 7.34082 6.42578 13.082 13.7588 12.8232c7.33691 -0.254883 13.0781 -6.41406 12.8232 -13.7549c-1.23828 -35.252 -1.7627 -70.6826 -1.64062 -106.136
c17.0137 0.303711 33.0205 0.0488281 43.9863 -1.00391z" />
    <glyph glyph-name="comma" unicode="," horiz-adv-x="152" 
d="M92.375 61.5488c6.9873 -2.26074 10.8223 -9.75684 8.55762 -16.748l-24.9775 -77.1826c-1.82031 -5.62695 -7.03711 -9.20605 -12.6494 -9.20605c-1.36035 0 -2.73926 0.208984 -4.09961 0.649414c-6.9834 2.26074 -10.8174 9.76074 -8.55664 16.748l24.9775 77.1826
c2.26465 6.9873 9.76465 10.8174 16.748 8.55664z" />
    <glyph glyph-name="hyphen" unicode="-" horiz-adv-x="310" 
d="M246.06 249.1c7.37109 0.414062 13.6035 -5.21973 14.0029 -12.5566c0.399414 -7.33301 -5.21973 -13.6025 -12.5527 -14.002c-46.7949 -2.55371 -94.1143 -3.83789 -141.175 -3.83789c-14.4531 0 -28.876 0.12207 -43.2607 0.365234
c-7.34082 0.125 -13.1963 6.18164 -13.0713 13.5225s6.22656 13.1992 13.5215 13.0703c60.5869 -1.02246 121.998 0.132812 182.535 3.43848z" />
    <glyph glyph-name="period" unicode="." horiz-adv-x="130" 
d="M69.8984 33.1357c7.10156 -1.87695 11.3379 -9.15625 9.45703 -16.2539c-2.18457 -8.26758 -3.10059 -17.2842 -2.64844 -26.0801c0.375977 -7.33691 -5.2627 -13.5869 -12.5996 -13.9629c-0.231445 -0.0117188 -0.458984 -0.0195312 -0.69043 -0.0195312
c-7.0332 0 -12.9072 5.5127 -13.2725 12.6182c-0.588867 11.5088 0.619141 23.3477 3.49902 34.2412c1.87695 7.10156 9.15723 11.3301 16.2549 9.45703z" />
    <glyph glyph-name="slash" unicode="/" horiz-adv-x="419" 
d="M361.489 667.663c6.58496 -3.24902 9.28809 -11.2227 6.03906 -17.8076c-120.847 -244.79 -218.874 -509.471 -291.357 -786.682c-1.56543 -5.98047 -6.95703 -9.93945 -12.8574 -9.93945c-1.11719 0 -2.24609 0.140625 -3.375 0.436523
c-7.10547 1.85449 -11.3613 9.12305 -9.50293 16.2285c72.9355 278.951 171.597 545.326 293.241 791.728c3.24902 6.58789 11.2246 9.28516 17.8125 6.03613z" />
    <glyph glyph-name="zero" unicode="0" horiz-adv-x="352" 
d="M236.916 542.574c12.9375 -16.832 23.3076 -38.835 33.6152 -71.3477c48.0488 -151.463 46.2363 -396.056 -39.9629 -543.191c-12.5303 -21.3916 -33.4922 -34.6895 -54.1914 -34.6895c-1.16602 0 -2.3291 0.0458984 -3.49512 0.129883
c-14.3281 1.05273 -28.9219 8.95215 -43.3711 23.4775c-42.7979 43.0254 -61.7842 116.731 -70.1738 170.988c-24.0352 155.456 2.83105 316.197 29.9023 454.654c1.41309 7.20801 8.38867 11.916 15.6035 10.5029c7.20801 -1.40918 11.9082 -8.39258 10.499 -15.6006
c-26.6387 -136.25 -53.0986 -294.282 -29.7168 -445.494c11.1631 -72.209 32.8623 -126.253 62.7451 -156.292c9.80273 -9.85547 18.7051 -15.1406 26.4639 -15.7109c11.5996 -0.847656 24.7646 7.78516 32.7891 21.4824c82.46 140.745 83.8506 375.789 37.5615 521.709
c-9.33496 29.4229 -18.3887 48.9062 -29.3545 63.1738c-12.0752 15.7109 -26.4795 23.5947 -38.5166 21.0986c-13.9863 -2.89941 -27.7178 -18.8877 -40.583 -35.0127c-4.57812 -5.74121 -12.9482 -6.67969 -18.6895 -2.10156
c-5.74121 4.58203 -6.68359 12.9482 -2.10156 18.6895c15.8936 19.9248 33.3105 39.7695 55.9746 44.4658c22.2764 4.61621 46.5664 -6.94531 65.002 -30.9316z" />
    <glyph glyph-name="one" unicode="1" horiz-adv-x="291" 
d="M219.355 -61.998c5.57422 4.7832 13.9746 4.14355 18.7471 -1.43457c4.7832 -5.57812 4.14062 -13.9717 -1.43359 -18.7549c-13.002 -11.1553 -28.7588 -17.1357 -44.5039 -17.1357c-3.68164 0 -7.36328 0.327148 -11.0068 0.992188
c-11.6035 2.1123 -21.8506 7.25293 -31.7598 12.2227c-4.31641 2.16602 -8.39746 4.21387 -12.459 5.94629c-19.1455 8.17676 -26.8018 2.70898 -29.3213 0.916016c-5.97656 -4.2627 -14.2822 -2.87207 -18.5449 3.1084s-2.87207 14.2822 3.1084 18.5488
c10.1826 7.26074 28.0137 13.4805 55.1729 1.90332c-0.93457 86.0469 2.27637 175.719 5.4375 262.628c2.90625 79.9717 5.91504 162.664 5.58105 241.348c-0.148438 35.252 -0.919922 76.0508 -8.18848 114.076c-1.33789 6.9873 -2.84668 10.8594 -3.90332 12.8994
c-1.23438 -1.23145 -3.05859 -3.35938 -5.6875 -7.0293c-21.251 -29.6514 -43.9033 -58.1328 -67.3271 -84.6572c-4.85938 -5.50586 -13.2637 -6.02637 -18.7695 -1.16309c-5.50586 4.85938 -6.02637 13.2637 -1.16699 18.7695
c22.8311 25.8555 44.918 53.626 65.6445 82.5439c4.98828 6.96484 16.6904 23.2646 33.75 18.8232c17.7285 -4.61621 22.1318 -27.6299 23.5752 -35.1904c7.69824 -40.2598 8.50781 -82.5137 8.66406 -118.958c0.333984 -79.2236 -2.68262 -162.193 -5.60059 -242.428
c-3.30957 -90.9824 -6.72949 -185.058 -5.29688 -274.372c4.03906 -1.70605 7.98633 -3.0625 11.8613 -3.76953c11.4707 -2.08984 23.3477 1.51953 33.4277 10.167z" />
    <glyph glyph-name="two" unicode="2" horiz-adv-x="387" 
d="M314.407 -45.3594c5.19043 5.19727 13.6162 5.20215 18.8066 0.0234375c5.19434 -5.19434 5.20215 -13.6104 0.0117188 -18.8076c-27.4434 -27.4775 -63.96 -42.501 -103.129 -42.501c-1.05273 0 -2.10547 0.0078125 -3.1582 0.0302734
c-30.1035 0.619141 -61.7344 9.59375 -96.4238 27.3984c-2.56055 -2.6709 -5.21973 -5.23926 -7.98535 -7.65918c-11.9688 -10.4902 -23.3174 -15.6572 -34.6855 -15.8018c-16.1094 -0.201172 -30.3652 10.5176 -35.8438 26.6689
c-2.41309 7.1123 -2.64453 14.373 -0.65332 20.4404c2.01367 6.13574 6.16309 11.1738 12.333 14.9697c20.5703 12.6562 42.4551 4.29395 60.2637 -4.92773c7.31738 10.0986 13.5596 20.8623 18.7227 30.2734c22.9678 41.8633 43.0293 91.8496 59.6328 148.568
c23.7236 81.0664 38.0215 166.247 42.4824 253.172c2.83789 55.248 0.520508 95.998 -7.51172 132.135c-6.45508 29.0361 -17.9902 49.0439 -30.1035 52.2129c-11.4404 2.99023 -25.001 -9.58203 -32.0684 -17.3408c-29.416 -32.2998 -47.7754 -82.3623 -49.1094 -133.918
c-0.19043 -7.34082 -6.3418 -13.1621 -13.6367 -12.9531c-7.34473 0.19043 -13.1426 6.2959 -12.9521 13.6367c1.49707 57.7559 22.4434 114.254 56.0381 151.14c24.5898 26.9951 45.3652 28.583 58.4541 25.1631c30.7607 -8.04395 44.1162 -48.6719 49.3408 -72.1758
c8.5752 -38.5762 11.0752 -81.5293 8.11133 -139.271c-4.57422 -88.9951 -19.2139 -176.228 -43.5234 -259.28c-17.1396 -58.5654 -37.9453 -110.341 -61.8408 -153.887c-5.08789 -9.27441 -11.1553 -19.7607 -18.3252 -30.0195
c29.0166 -14.2559 55.248 -21.4561 79.8311 -21.9609c33.1396 -0.679688 63.916 11.6348 86.9219 34.6709zM105.008 -66.875c0.243164 0.212891 0.489258 0.431641 0.732422 0.648438c-7.16992 3.34375 -13.4658 5.44531 -18.9863 5.44531
c-3.32031 0 -6.36035 -0.759766 -9.1377 -2.46973c-0.874023 -0.539062 -1.12109 -0.854492 -1.12109 -0.854492c0.0419922 -0.0986328 0.0576172 -1.48926 0.692383 -3.36621c2.0293 -5.98438 6.71777 -8.68164 10.3193 -8.61719
c4.7002 0.0605469 10.5898 3.16113 17.501 9.21387z" />
    <glyph glyph-name="three" unicode="3" horiz-adv-x="337" 
d="M192.7 296.181c24.5254 -3.65918 48.583 -20.3945 64.3438 -44.7686c30.8447 -47.668 31.833 -111.575 29.6748 -145.425c-3.33594 -52.3457 -16.7705 -103.016 -38.8574 -146.527c-16.2656 -32.0566 -35.0166 -54.8389 -55.7275 -67.7158
c-13.1084 -8.15332 -27.083 -12.2031 -40.6094 -12.2031c-15.0918 0 -29.6289 5.04199 -41.8174 15.0654c-22.9375 18.8682 -37.1055 55.3506 -37.8994 97.5977c-0.665039 35.4033 7.20703 69.0293 16.0371 103.225c1.83496 7.1084 9.08789 11.3867 16.2002 9.55176
s11.3867 -9.08789 9.55176 -16.2002c-8.35156 -32.3408 -15.7988 -64.0205 -15.1943 -96.0732c0.642578 -34.0547 11.4482 -63.7744 28.2041 -77.5557c16.752 -13.7842 37.5811 -9.45996 51.4873 -0.816406c16.5273 10.2734 32.0215 29.5068 46.0566 57.167
c20.46 40.3203 32.9219 87.4111 36.0303 136.186c3.3623 52.7979 -5.67676 98.7148 -25.4609 129.285c-11.6836 18.0586 -28.8574 30.3613 -45.9434 32.9072c-12.041 1.79297 -22.8662 -1.28125 -32.1865 -9.13867c-5.12598 -4.32031 -12.6641 -4.15332 -17.5879 0.390625
c-4.92773 4.54395 -5.70312 12.0439 -1.80859 17.5c33.751 47.2852 55.7998 109.273 62.0879 174.549c3.64355 37.8584 -0.797852 66.9248 -12.8535 84.0605c-13.2412 18.8223 -33.8721 20.1631 -48.7588 15.1406c-37.8047 -12.7549 -65.5029 -68.9385 -60.4805 -122.687
c0.683594 -7.31445 -4.69238 -13.7969 -12.0029 -14.4805c-7.33691 -0.676758 -13.7959 4.69238 -14.4795 12.0029c-6.18555 66.2285 29.0088 133.677 78.4629 150.36c30.1455 10.1709 61.1611 0.337891 79.0146 -25.043c15.9844 -22.7207 21.8965 -57.0078 17.5723 -101.91
c-5.32715 -55.3164 -21.3418 -108.581 -45.8633 -153.692c4.19434 0.140625 8.47266 -0.106445 12.8076 -0.751953z" />
    <glyph glyph-name="four" unicode="4" horiz-adv-x="331" 
d="M263.52 541.518c-15.9619 -210.731 -10.0576 -423.323 17.5459 -631.885c0.960938 -7.28027 -4.15723 -13.9639 -11.4404 -14.9287c-0.588867 -0.0800781 -1.17773 -0.118164 -1.75879 -0.118164c-6.56934 0 -12.2803 4.86719 -13.166 11.5576
c-12.5957 95.166 -20.666 191.168 -24.2871 287.447c-21.0381 -6.33008 -60.4541 -11.3906 -108.7 -17.166c-19.8291 -2.375 -42.0029 -5.03125 -50.0654 -6.74902c-1.85059 -1.53125 -4.1875 -2.29883 -7.38281 -2.51562
c-0.299805 -0.0185547 -0.599609 -0.0302734 -0.895508 -0.0302734c-6.93066 0 -12.8232 5.47461 -13.3174 12.4844c-0.24707 3.48828 0.463867 6.22363 1.89648 8.4043c9.47559 32.7061 81.9697 337.034 78.3789 391.88c-0.478516 7.3291 5.07227 13.6592 12.4014 14.1377
c7.31055 0.478516 13.6592 -5.07227 14.1377 -12.4014c2.19629 -33.5986 -19.4727 -141.706 -38.0371 -226.48c-8.94043 -40.8223 -19.3135 -85.9189 -28.4629 -123.728c-3.09277 -12.793 -5.88965 -24.0889 -8.19629 -33.1396
c9.875 1.37207 22.292 2.85742 36.3809 4.54395c37.3828 4.47949 93.874 11.2393 109.304 18.0215c0.52832 0.231445 1.06738 0.360352 1.60645 0.519531c-3.07422 107.354 -0.578125 214.994 7.53809 322.155c0.554688 7.3252 6.95312 12.8193 14.2637 12.2568
c7.3252 -0.558594 12.8115 -6.94141 12.2568 -14.2666z" />
    <glyph glyph-name="five" unicode="5" horiz-adv-x="346" 
d="M244.556 248.212c28.166 -28.6104 46.5977 -73.1514 50.5566 -122.214c3.66992 -45.4229 -5.06543 -93.1064 -24.6104 -134.267c-16.5088 -34.7734 -38.8047 -61.0771 -64.4668 -76.0742c-15.6309 -9.13379 -32.5762 -13.7275 -49.1729 -13.7275
c-14.6357 0 -29.002 3.57129 -41.9541 10.7559c-29.4307 16.3223 -50.791 50.5752 -55.7383 89.3867c-5.24316 41.1484 9.49512 84.1279 35.8525 104.52c5.80957 4.49512 14.1611 3.42773 18.6562 -2.38184c4.49902 -5.80957 3.43164 -14.1611 -2.37793 -18.6562
c-18.6553 -14.4346 -29.7236 -48.8809 -25.7422 -80.1201c3.83789 -30.1074 20.4268 -57.3838 42.2588 -69.4932c19.6357 -10.8896 43.2568 -9.91309 64.8115 2.67871c20.7266 12.1123 39.8535 35.0234 53.8584 64.5186c17.5693 37.0029 25.4268 79.873 22.125 120.714
c-3.42383 42.3115 -19.499 81.8262 -43.0068 105.702c-26.8096 27.2275 -63.3037 37.5586 -118.366 33.501c-11.0186 -0.813477 -40.3047 -2.97559 -52.5312 23.2217c-7.24609 15.5283 -4.7041 33.4121 -1.75586 48.96c14.4189 75.9561 34.2861 150.335 58.9863 221.424
c-23.5039 3.49219 -35.6357 8.83789 -40.4307 19.0811c-3.11133 6.65332 -0.239258 14.5713 6.41016 17.6826c6.19336 2.89551 13.4658 0.616211 16.958 -5.06445c9.21777 -6.32617 55.9629 -9.05078 84.0791 -10.6924c62.6836 -3.65527 83.4863 -6.06055 89.9307 -20.582
c2.97852 -6.71387 -0.0498047 -14.5713 -6.76367 -17.5498c-1.75195 -0.775391 -3.58301 -1.14355 -5.38379 -1.14355c-4.08398 -0.00390625 -8.0166 1.88867 -10.5508 5.19043c-8.74219 4.03125 -44.708 6.12891 -68.7812 7.53516
c-14.499 0.847656 -27.2041 1.66406 -38.3369 2.58691c-25.2139 -71.6016 -45.4238 -146.688 -59.9873 -223.426c-2.33691 -12.3105 -3.98633 -24.7959 -0.274414 -32.752c3.29785 -7.06738 10.2129 -9.14941 26.4746 -7.94922
c39.4346 2.91016 96.7803 1.78516 139.273 -41.3652z" />
    <glyph glyph-name="six" unicode="6" horiz-adv-x="334" 
d="M190.766 583.221c-16.2314 -9.20215 -31.2285 -27.4795 -47.2012 -57.5107c-57.1221 -107.438 -67.916 -239.224 -66.9092 -330.859c0.178711 -16.4023 0.733398 -32.1055 1.66406 -47.1475c16.125 18.4805 33.7549 32.3408 51.9814 40.7227
c31.7598 14.6055 65.708 12.7324 93.1484 -5.14453c36.3008 -23.6445 59.8652 -76.1494 58.6416 -130.646c-1.17383 -52.1934 -25.0234 -102.845 -60.7656 -129.038c-15.8438 -11.6152 -32.5498 -17.6455 -48.6943 -17.6455c-2.15039 0 -4.29297 0.106445 -6.4248 0.323242
c-22.7021 2.29883 -44.7656 17.0293 -62.1182 41.4756c-13.1348 18.5039 -23.7695 42.5244 -32.5088 73.4404c-13.7314 48.5576 -20.7686 105.269 -21.5166 173.367c-1.03711 94.7295 10.2666 231.245 70.0215 343.634c18.4463 34.7012 36.7412 56.3623 57.5664 68.167
c29.7803 16.8848 64.1465 10.0605 83.5693 -16.6045c13.6816 -18.7773 18.5107 -44.7354 22.3936 -65.5908c1.34473 -7.22266 -3.41992 -14.1641 -10.6387 -15.5088c-7.23047 -1.34473 -14.165 3.42383 -15.5098 10.6426
c-3.39258 18.2148 -7.61035 40.8867 -17.7432 54.7969c-13.1348 18.0283 -34.0547 17.5762 -48.9561 9.12598zM141.414 164.252c-21.0869 -9.69629 -41.667 -28.9629 -59.6309 -55.8027c3.41211 -29.2217 8.52246 -55.7539 15.3877 -80.0322
c7.89941 -27.9453 17.2539 -49.2988 28.5996 -65.2832c12.6562 -17.8311 28.3711 -28.9102 43.1094 -30.4033c14.4531 -1.46289 27.9561 5.88574 36.7217 12.3105c28.8652 21.1553 48.9189 64.6328 49.8994 108.187c1.00684 44.9287 -18.1426 89.2422 -46.5703 107.761
c-19.6201 12.7852 -44.2334 13.9746 -67.5166 3.26367z" />
    <glyph glyph-name="seven" unicode="7" horiz-adv-x="297" 
d="M221.98 618.834c12.333 -7.99805 21.0049 -24.1221 23.7861 -44.2324c2.2041 -15.9121 0.634766 -31.9951 -1.16602 -47.1055c-10.2588 -86.127 -29.3398 -171.03 -47.79 -253.142c-3.04688 -13.5527 -6.10156 -27.1738 -9.13379 -40.8486
c14.6133 2.26855 29.0244 4.5791 39.5225 6.77539c7.2041 1.50488 14.2373 -3.10059 15.7422 -10.2891s-3.10352 -14.2363 -10.292 -15.7412c-12.9756 -2.7168 -30.1719 -5.37305 -48.375 -8.18457c-0.896484 -0.136719 -1.79688 -0.273438 -2.69336 -0.414062
c-17.417 -80.5488 -32.877 -162.952 -37.835 -246.404c-0.417969 -7.06348 -6.27637 -12.5117 -13.2598 -12.5117c-0.265625 0 -0.53125 0.0078125 -0.800781 0.0234375c-7.33301 0.436523 -12.9219 6.73242 -12.4854 14.0654
c4.85938 81.7725 19.4609 161.976 36.2012 240.321c-11.4443 -1.94531 -21.5127 -3.88672 -28.2646 -5.77539c-1.19727 -0.333984 -2.40137 -0.493164 -3.58691 -0.493164c-5.81738 0 -11.1592 3.84473 -12.8008 9.72266c-1.97949 7.07129 2.15039 14.4082 9.22461 16.3877
c9.90527 2.76562 25.0762 5.4707 41.501 8.11523c3.76562 17.1172 7.58789 34.1504 11.3916 51.085c18.3057 81.4531 37.2305 165.681 47.3262 250.451c1.66406 13.9482 3.00488 27.5234 1.23438 40.3125c-1.64941 11.9072 -6.32617 21.9414 -11.9189 25.5664
c-3.78809 2.45801 -9.19434 2.58008 -18.0742 0.410156c-17.8047 -4.35449 -35.0967 -12.6826 -53.3984 -21.4971c-22.4707 -10.8252 -45.7051 -22.0186 -70.793 -25.7266c-7.23828 -1.0752 -14.0244 3.94434 -15.0996 11.2129
c-1.07129 7.26465 3.94824 14.0244 11.2129 15.0996c21.0801 3.11523 41.5098 12.9561 63.1406 23.374c18.7314 9.02344 38.1055 18.3555 58.623 23.3711c10.2246 2.5 25.3809 4.81348 38.8613 -3.92871z" />
    <glyph glyph-name="eight" unicode="8" horiz-adv-x="278" 
d="M202.848 149.273c14.6162 -35.7422 22.4619 -65.8682 24.6768 -94.8125c2.90625 -37.9453 -4.73438 -74.0215 -20.9619 -98.9766c-15.9883 -24.5908 -41.1221 -38.5273 -66.4385 -38.5273c-8.54492 0 -17.1055 1.58398 -25.3428 4.88574
c-30.4717 12.2041 -54.8682 46.7949 -62.1445 88.1182c-5.02246 28.5303 -1.82324 58.0254 1.02637 77.7295c8.15723 56.4795 25.4492 111.317 50.002 158.579c3.40039 6.54688 7.42383 13.7812 13.0547 19.4883c-20.3389 41.373 -38.915 84.7822 -48.4326 133.37
c-7.83496 39.9971 -7.88086 76.3008 -0.129883 107.897c9.6543 39.3555 32.6602 70.1504 60.043 80.375c11.7061 4.37305 23.4082 4.80273 33.834 1.23926c23.7354 -8.1084 37.3984 -34.9102 44.6816 -55.9668c12.6826 -36.6572 15.5439 -77.0762 16.623 -108.19
c2.35156 -67.9121 -7.05566 -147.55 -15.3574 -217.813c-2.24902 -19.0654 -4.38477 -37.1396 -6.26562 -54.6396c0.379883 -0.919922 0.755859 -1.83594 1.13184 -2.75586zM94.3916 404.242c11.8008 -60.249 37.915 -111.144 65.5645 -165.024
c6.77051 -13.1992 13.6514 -26.6035 20.3418 -40.251c0.421875 3.5752 0.847656 7.18066 1.27734 10.8242c8.1875 69.3184 17.4736 147.888 15.1904 213.771c-1.01465 29.252 -3.65527 67.1064 -15.1758 100.413c-7.44727 21.5322 -17.7061 35.9326 -28.1475 39.4961
c-1.90332 0.65332 -3.93652 0.976562 -6.08691 0.976562c-3.05078 0 -6.34473 -0.657227 -9.84375 -1.96387c-18.9629 -7.07812 -36.0459 -31.334 -43.5156 -61.7949c-6.72852 -27.4248 -6.5918 -60.7764 0.395508 -96.4463zM184.269 -30.0215
c13.1084 20.1562 19.209 50.2041 16.7393 82.4502c-2.00195 26.0986 -9.24023 53.6758 -22.7773 86.7812c-0.737305 1.80469 -1.48535 3.60156 -2.24121 5.40234c-0.0839844 0.186523 -0.164062 0.373047 -0.240234 0.563477
c-11.8389 28.0635 -25.8662 55.4043 -39.4648 81.9023c-2.07031 4.03125 -4.14453 8.07422 -6.21484 12.1279c-0.976562 -1.70605 -1.91504 -3.48047 -2.80371 -5.19434c-23.1924 -44.6475 -39.542 -96.5596 -47.2812 -150.125
c-4.16406 -28.8271 -4.51758 -50.207 -1.15527 -69.3184c5.63086 -31.9727 24.0547 -59.3135 45.8408 -68.041c21.0527 -8.43066 44.9971 0.996094 59.5986 23.4512z" />
    <glyph glyph-name="nine" unicode="9" horiz-adv-x="337" 
d="M119.715 65.8633c7.34473 -0.0458984 13.2637 -6.04297 13.2109 -13.3916c-0.166992 -25.3691 0.638672 -52.0527 7.58008 -75.3242c6.78223 -22.7363 19.7383 -39.9062 33.0098 -43.7402c10.3799 -2.99805 23.0283 1.84668 33.8301 12.9639
c10.3652 10.665 19.2676 26.501 27.2158 48.4092c18.9561 52.2432 23.3867 112.868 25.127 159.849c2.91016 78.5625 -0.429688 157.756 -9.93262 235.384c-3.05078 24.9209 -6.91895 51.3164 -14.4727 75.5918c-18.9521 -59.9521 -56.457 -146.911 -92.0625 -175.803
c-21.2656 -17.2539 -40.6123 -22.2354 -57.5127 -14.8037c-22.7129 9.99316 -33.0479 39.6289 -35.1494 64.0332c-1.7666 20.5518 0.680664 43.3984 7.27637 67.9092c15.0381 55.8643 46.5508 103.427 86.4648 130.494c18.4961 12.542 35.248 17.9863 51.2285 16.6484
c21.1406 -1.77441 39.8799 -16.7676 47.7373 -38.2002c0.942383 -2.57227 1.04102 -5.25098 0.436523 -7.72461c8.60547 -10.2627 13.5029 -23.542 16.8545 -34.249c8.26367 -26.4062 12.3818 -54.374 15.5996 -80.6631c9.67383 -79.0215 13.0742 -159.632 10.1104 -239.596
c-1.8125 -48.9219 -6.48633 -112.218 -26.7031 -167.938c-9.25977 -25.5176 -20.0996 -44.4502 -33.1436 -57.8701c-13.8154 -14.2139 -30.5107 -21.8926 -46.6514 -21.8926c-4.61621 0 -9.19043 0.626953 -13.6396 1.91504
c-22.417 6.47461 -41.5244 29.5371 -51.1104 61.6885c-7.9375 26.6113 -8.86816 55.666 -8.68945 83.0986c0.0498047 7.31445 5.99609 13.2109 13.2988 13.2109h0.0869141zM218.615 504.746c0.0605469 0.254883 0.123047 0.506836 0.199219 0.765625
c-0.19043 0.395508 -0.361328 0.801758 -0.517578 1.21973c-5.23535 14.2783 -16.7324 20.1562 -24.9883 20.8477c-0.816406 0.0683594 -1.64453 0.102539 -2.48438 0.102539c-9.08496 0 -19.4541 -4.02734 -31.5938 -12.2607
c-34.708 -23.542 -62.3037 -65.6025 -75.708 -115.398c-5.79004 -21.5049 -7.96289 -41.2588 -6.45801 -58.71c1.73242 -20.1445 9.875 -37.793 19.3584 -41.9648c7.03711 -3.09277 17.1475 0.642578 30.0469 11.1064c33.3291 27.0488 78.8779 136.509 92.1455 194.292z" />
    <glyph glyph-name="colon" unicode=":" horiz-adv-x="139" 
d="M63.3164 364.532c-0.805664 0 -1.625 0.0712891 -2.44238 0.223633c-7.22266 1.34082 -11.9912 8.28613 -10.6465 15.5049l8.78809 47.2773c1.34473 7.22266 8.25586 11.9873 15.5049 10.6465c7.22266 -1.34082 11.9873 -8.28223 10.6465 -15.501l-8.78809 -47.2812
c-1.19336 -6.40234 -6.78223 -10.8701 -13.0625 -10.8701zM78.3936 203.125c7.16992 -1.5918 11.6875 -8.69824 10.0957 -15.8682c-2.68652 -12.0635 -4.14551 -24.5674 -4.35059 -37.1699c-0.118164 -7.26855 -6.05273 -13.082 -13.2949 -13.082h-0.220703
c-7.34082 0.118164 -13.1992 6.16699 -13.0811 13.5117c0.235352 14.3965 1.91113 28.7012 4.98145 42.5127c1.59961 7.16602 8.68164 11.6914 15.8701 10.0957z" />
    <glyph glyph-name="semicolon" unicode=";" horiz-adv-x="163" 
d="M83.5449 366.177c-7.26074 1.10156 -12.2559 7.87891 -11.1582 15.1436l6.72559 44.291c1.10156 7.26074 7.90625 12.2568 15.1406 11.1514c7.26465 -1.10156 12.2529 -7.88379 11.1514 -15.1445l-6.71777 -44.2832
c-0.999023 -6.58789 -6.66797 -11.3105 -13.1348 -11.3105c-0.661133 0 -1.33008 0.0498047 -2.00684 0.152344zM103.509 220.693c7.08203 -1.94531 11.2471 -9.26562 9.29785 -16.3438c-10.8135 -39.3359 -23.2686 -78.3682 -37.0117 -116.021
c-1.96777 -5.39551 -7.06641 -8.74316 -12.4922 -8.74316c-1.5127 0 -3.05566 0.258789 -4.56055 0.80957c-6.89941 2.51953 -10.4482 10.1523 -7.93262 17.0518c13.4961 36.9727 25.7266 75.3135 36.3496 113.95c1.95312 7.08594 9.27832 11.2422 16.3496 9.29688z" />
    <glyph glyph-name="less" unicode="&#x3c;" horiz-adv-x="288" 
d="M235.8 357.856c4.08789 -6.09863 2.45801 -14.3594 -3.63672 -18.4404c-37.9834 -25.4717 -75.9551 -50.9814 -113.912 -76.5293c-13.1465 -8.84863 -26.6914 -17.9678 -37.8545 -30.2363c44.7842 -14.5029 90.667 -24.9629 136.462 -31.1064
c7.28027 -0.976562 12.3906 -7.6709 11.4141 -14.9512c-0.892578 -6.67969 -6.60352 -11.5312 -13.1611 -11.5312c-0.592773 0 -1.18945 0.0380859 -1.78613 0.118164c-49.2451 6.60742 -98.5703 18.0322 -146.604 33.96c-10.9805 3.63965 -17.3711 12.1807 -16.668 22.2871
c0.467773 6.84668 4.21387 11.4863 5.81738 13.4658c14.3203 17.7021 31.9609 29.5752 47.5273 40.0508c37.9648 25.5557 75.9521 51.0732 113.951 76.5527c6.09082 4.08789 14.3545 2.46191 18.4502 -3.63965z" />
    <glyph glyph-name="equal" unicode="=" horiz-adv-x="309" 
d="M68.7891 220.288c-7.34473 0.0722656 -13.2412 6.08691 -13.1689 13.4277s6.06445 13.2109 13.4277 13.1689l158.021 -1.52344c7.34473 -0.0722656 13.2412 -6.08301 13.1689 -13.4277c-0.0722656 -7.29883 -6.01465 -13.1689 -13.2979 -13.1689h-0.129883z
M246.742 165.458c7.29492 -0.805664 12.5625 -7.37988 11.7607 -14.6787c-0.80957 -7.29883 -7.39062 -12.5645 -14.6816 -11.7549c-59.3477 6.56152 -119.486 5.82031 -178.735 -2.19629c-0.608398 -0.0839844 -1.20898 -0.12207 -1.80176 -0.12207
c-6.55371 0 -12.2607 4.84473 -13.1611 11.5166c-0.984375 7.28027 4.11426 13.9785 11.3945 14.9629c61.4033 8.30566 123.719 9.07324 185.225 2.27246z" />
    <glyph glyph-name="greater" unicode="&#x3e;" horiz-adv-x="269" 
d="M218.623 280.19c1.35645 -7.24902 0.930664 -21.3262 -17.1016 -34.21l-117.602 -83.9844c-2.34082 -1.67188 -5.04199 -2.47754 -7.7168 -2.47754c-4.14941 0 -8.2373 1.93359 -10.8359 5.56934c-4.27051 5.97266 -2.88379 14.2783 3.09277 18.5488l117.602 83.9844
c4.54785 3.24902 6.66797 6.32617 6.41699 7.68262c-0.0498047 0.273438 -0.459961 1.13184 -3.12695 3.15723c-11.8203 8.98242 -24.9287 14.8105 -38.8086 20.9844l-77.5098 34.4844c-3.65918 -2.07422 -8.24121 -2.38965 -12.3252 -0.428711
c-7.36328 3.5332 -11.7705 12.4502 -10.4863 21.208c0.604492 4.11523 3.09668 7.71289 6.74023 9.71875s8.0166 2.19238 11.8203 0.501953l92.5713 -41.1787c14.6543 -6.51953 29.8066 -13.2598 44.0811 -24.1074c4.77637 -3.625 11.3457 -9.58984 13.1885 -19.4531z" />
    <glyph glyph-name="question" unicode="?" horiz-adv-x="342" 
d="M270.229 691.099c21.5732 -31.1104 27.2959 -77.8564 17.5049 -142.911c-12.7734 -84.8506 -38.5527 -165.411 -63.4854 -243.316c-14.5332 -45.4111 -29.5645 -92.373 -41.7803 -139.502c-11.7256 -45.2441 -24.5566 -104.688 -19.667 -163.237
c0.608398 -7.31738 -4.8252 -13.7461 -12.1465 -14.3574c-0.375977 -0.0341797 -0.748047 -0.0498047 -1.12012 -0.0498047c-6.83887 0 -12.6562 5.25098 -13.2373 12.1924c-5.2207 62.5469 8.17285 124.84 20.4297 172.125c12.3975 47.8545 27.542 95.1768 42.1895 140.938
c24.6094 76.9053 50.0625 156.429 62.5176 239.166c8.61719 57.2275 4.22461 98.8779 -13.0557 123.799c-23.249 33.5264 -61.6162 24.3125 -72.8174 20.6875c-32.2578 -10.4297 -60.9512 -36.8623 -78.7295 -72.5127
c-19.0928 -38.2949 -25.1602 -86.5068 -16.2275 -128.966c5.14453 -24.4688 15.6953 -42.4326 26.873 -45.7725c7.04004 -2.10156 11.0449 -9.51074 8.94043 -16.5479c-2.09766 -7.0332 -9.49121 -11.042 -16.543 -8.9375
c-30.3008 9.04688 -41.7676 49.0176 -45.2939 65.7812c-10.126 48.1318 -3.22949 102.825 18.4502 146.307c20.9424 42.0068 55.3281 73.334 94.3418 85.9521c41.0498 13.2715 80.458 1.45898 102.856 -30.8369zM160.944 -86.2412
c-2.02148 -14.1836 -1.64062 -29.0547 1.10254 -43.0137c1.41309 -7.20801 -3.28711 -14.1953 -10.4912 -15.6084c-0.866211 -0.170898 -1.72461 -0.250977 -2.57617 -0.250977c-6.23145 0 -11.7939 4.39941 -13.0361 10.7412
c-3.30957 16.8467 -3.76953 34.7881 -1.33008 51.8818c1.0332 7.27246 7.73926 12.3291 15.042 11.292c7.26855 -1.03711 12.3223 -7.76953 11.2891 -15.042z" />
    <glyph glyph-name="at" unicode="@" horiz-adv-x="602" 
d="M538.73 522.887c23.542 -108.472 15.4023 -230.657 -22.9385 -344.038c-22.2158 -65.7158 -49.5762 -108.779 -83.6543 -131.656c-27.2656 -18.3096 -55.8525 -19.1113 -76.4805 -2.16211c-12.8232 10.54 -22.4434 27.6943 -29.4082 52.4443
c-16.3877 58.2354 -10.4336 120.475 -4.66992 180.666c0.908203 9.49902 1.82031 19.0771 2.65234 28.6865l-18.2451 -74.0488c-6.80859 -27.6182 -16.0566 -57.9385 -39.8037 -68.1553c-4.65039 -2.00195 -9.5293 -2.9668 -14.4531 -2.9668
c-14.4453 0 -29.2705 8.31348 -39.8555 23.2188c-9.60547 13.5225 -16.1104 31.9385 -19.8945 56.3086c-6.95312 44.7617 -3.69336 94.7559 9.68848 148.595c11.3076 45.5068 26.6953 77.9131 47.042 99.0684c16.8506 17.5195 31.4102 18.7959 40.6582 16.7822
c18.124 -3.94727 31.8633 -23.5674 36.7529 -52.4814c1.42871 -8.46484 2.13965 -16.9834 2.82324 -25.2168c0.486328 -5.84375 0.957031 -11.5127 1.66016 -16.9844c1.73633 0.779297 3.63184 1.15527 5.56152 1.13965
c0.922852 0.273438 1.87695 0.466797 2.87598 0.535156c7.375 0.501953 13.6709 -5.04199 14.1689 -12.3672c2.80762 -41.4678 -1.24219 -83.7559 -5.15527 -124.646c-5.7832 -60.416 -11.2432 -117.48 3.79883 -170.928
c5.36914 -19.0732 12.3301 -32.2275 20.6963 -39.1006c15.9385 -13.0967 36.6152 -1.77832 44.7686 3.69629c29.043 19.4951 53.0137 58.125 73.2842 118.093c36.2773 107.312 44.3477 227.552 22.1396 329.884c-15.2773 70.4082 -43.8535 126.394 -80.4619 157.645
c-38.2568 32.6533 -90.1201 40.8564 -138.73 21.9346c-44.1387 -17.1816 -86.8721 -55.5303 -123.571 -110.912c-46.084 -69.542 -77.5928 -158.591 -88.7217 -250.744c-11.1475 -92.3086 -2.17285 -190.438 25.2783 -276.311
c20.9502 -65.541 50.168 -113.518 84.5 -138.746c34.5645 -25.3955 72.4111 -26.9609 98.0693 -23.8037c30.0049 3.69336 62.3809 15.5518 101.888 37.3154c6.43262 3.54492 14.5176 1.2041 18.0625 -5.22852s1.2041 -14.5176 -5.22852 -18.0625
c-42.5732 -23.4541 -77.9922 -36.2998 -111.474 -40.418c-7.70117 -0.950195 -15.3115 -1.4209 -22.793 -1.4209c-34.9209 -0.00390625 -67.1562 10.2588 -94.2734 30.1836c-39.4385 28.9785 -71.0918 80.1426 -94.0859 152.078
c-28.5879 89.4365 -37.9463 191.574 -26.3506 287.599c11.6152 96.1846 44.625 189.321 92.9541 262.245c39.75 59.9824 86.8105 101.826 136.094 121.006c57.8965 22.5352 119.813 12.6299 165.646 -26.4932c41.0039 -35.0088 72.6807 -96.1729 89.1855 -172.231z
M308.218 352.983c2.29492 9.31641 4.63574 18.8018 7.42871 28.1602c-3.94043 1.47461 -7.11719 4.78809 -8.23438 9.16895c-3.00586 11.7666 -4.00488 23.7842 -4.96973 35.4033c-0.665039 8.04004 -1.2959 15.6318 -2.54199 22.9873
c-3.00879 17.8086 -10.5967 29.709 -16.1895 30.9287c-0.337891 0.0761719 -0.695312 0.110352 -1.07129 0.110352c-3.63965 0 -9.03516 -3.39258 -14.7568 -9.33887c-17.0293 -17.7061 -30.2441 -46.1836 -40.4004 -87.0469
c-12.5234 -50.3887 -15.624 -96.8525 -9.21777 -138.1c3.13867 -20.1982 8.14258 -34.9141 15.2969 -44.9941c5.43359 -7.64844 14.666 -14.4229 22.1133 -11.2197c13.5869 5.84766 21.2275 36.8555 24.4912 50.0928z" />
    <glyph glyph-name="A" unicode="A" horiz-adv-x="501" 
d="M513.481 219.79c7.23828 -1.24219 12.0996 -8.12012 10.8574 -15.373c-12.8955 -75.1689 -27.5117 -160.365 -62.3906 -230.755c-10.4863 -21.1553 -27.5762 -50.0547 -54.8379 -56.7188c-3.72363 -0.908203 -7.5 -1.35645 -11.2803 -1.35645
c-18.625 0 -37.4814 10.8359 -52.1475 30.4756c-15.1064 20.2285 -23.8076 46.6885 -29.6973 67.4795c-25.9619 91.625 -30.248 191.491 -31.0801 268.256c-0.0800781 7.29883 -0.160156 14.7158 -0.240234 22.2314c-32.1592 -7.74707 -68.7178 -18.7236 -106.512 -33.6865
c-1.97949 -8.24512 -3.95117 -16.4785 -5.91504 -24.6934c-16.6572 -69.6025 -33.8799 -141.576 -54.2607 -210.435c-11.7559 -39.7275 -26.5811 -84.7207 -53.7812 -115.88c-17.3223 -19.8447 -39.998 -31.9844 -62.2061 -33.3145
c-1.375 -0.0800781 -2.73926 -0.12207 -4.0957 -0.12207c-16.083 0 -30.9238 5.75293 -43.1465 16.7715c-24.3506 21.9492 -37.3945 64.3818 -34.9023 113.498c0.37207 7.33691 6.66016 12.9561 13.9551 12.6064c7.33301 -0.37207 12.9795 -6.62207 12.6074 -13.9551
c-2.05957 -40.5938 7.95605 -76.001 26.1484 -92.3994c7.94824 -7.16602 17.2988 -10.4795 27.8428 -9.85254c14.9209 0.888672 31.2773 9.95801 43.7588 24.2559c23.6787 27.125 37.3564 68.9043 48.3184 105.938c20.1787 68.1816 37.3223 139.81 53.8955 209.074
c0.452148 1.88867 0.908203 3.78809 1.36035 5.68066c-32.4707 -14.5674 -65.2188 -32.1631 -96.291 -53.2656c-2.28711 -1.55371 -4.88574 -2.29883 -7.45801 -2.29883c-4.25586 0 -8.43945 2.04004 -11.0117 5.82812c-4.12598 6.0752 -2.54492 14.3467 3.53027 18.4727
c37.832 25.6924 78.6729 46.7373 119.008 63.6338c30.5215 126.562 63.8545 255.193 118.875 367.791c6.5918 13.4961 14.3428 21.7334 23.0361 24.4883c5.66113 1.79688 11.6562 1.2002 16.8809 -1.67188c6.43652 -3.53711 8.78809 -11.6221 5.24707 -18.0586
c-0.870117 -1.58105 -2.03613 -2.88379 -3.3623 -3.94336c-6.18945 -106.804 -6.14355 -221.146 -5.24707 -321.072c48.6299 9.47168 85.0059 10.9463 97.0049 6.04102c7.54199 -3.07715 9.69629 -8.65527 10.3115 -11.7061
c1.45117 -7.2002 -3.21094 -14.21 -10.4111 -15.6611c-4.25879 -0.858398 -8.46094 0.421875 -11.4736 3.1084c-9.83301 1.82031 -41.6729 -0.44043 -85.166 -9.27051c0.0986328 -9.42285 0.197266 -18.7471 0.295898 -27.8389
c0.813477 -75.1123 4.96973 -172.694 30.0732 -261.291c5.26562 -18.5869 12.9141 -42.0752 25.4141 -58.8115c8.53027 -11.4248 22.417 -22.4619 35.8027 -19.1943c12.208 2.98633 24.7617 17.3486 37.3232 42.6953c33.1543 66.9053 47.4219 150.068 60.0098 223.44
c1.24219 7.24219 8.11914 12.0977 15.3574 10.8594zM183.767 301.854c34.7012 12.9111 68.3457 22.7666 98.624 29.8643c-0.84375 90.4434 -1.0752 193.17 3.3584 291.941c-45.1914 -99.334 -75.0098 -210.963 -101.982 -321.806z" />
    <glyph glyph-name="A" unicode="&#xc5;" horiz-adv-x="501" 
d="M513.481 219.79c7.23828 -1.24219 12.0996 -8.12012 10.8574 -15.373c-12.8955 -75.1689 -27.5117 -160.365 -62.3906 -230.755c-10.4863 -21.1553 -27.5762 -50.0547 -54.8379 -56.7188c-3.72363 -0.908203 -7.5 -1.35645 -11.2803 -1.35645
c-18.625 0 -37.4814 10.8359 -52.1475 30.4756c-15.1064 20.2285 -23.8076 46.6885 -29.6973 67.4795c-25.9619 91.625 -30.248 191.491 -31.0801 268.256c-0.0800781 7.29883 -0.160156 14.7158 -0.240234 22.2314c-32.1592 -7.74707 -68.7178 -18.7236 -106.512 -33.6865
c-1.97949 -8.24512 -3.95117 -16.4785 -5.91504 -24.6934c-16.6572 -69.6025 -33.8799 -141.576 -54.2607 -210.435c-11.7559 -39.7275 -26.5811 -84.7207 -53.7812 -115.88c-17.3223 -19.8447 -39.998 -31.9844 -62.2061 -33.3145
c-1.375 -0.0800781 -2.73926 -0.12207 -4.0957 -0.12207c-16.083 0 -30.9238 5.75293 -43.1465 16.7715c-24.3506 21.9492 -37.3945 64.3818 -34.9023 113.498c0.37207 7.33691 6.66016 12.9561 13.9551 12.6064c7.33301 -0.37207 12.9795 -6.62207 12.6074 -13.9551
c-2.05957 -40.5938 7.95605 -76.001 26.1484 -92.3994c7.94824 -7.16602 17.2988 -10.4795 27.8428 -9.85254c14.9209 0.888672 31.2773 9.95801 43.7588 24.2559c23.6787 27.125 37.3564 68.9043 48.3184 105.938c20.1787 68.1816 37.3223 139.81 53.8955 209.074
c0.452148 1.88867 0.908203 3.78809 1.36035 5.68066c-32.4707 -14.5674 -65.2188 -32.1631 -96.291 -53.2656c-2.28711 -1.55371 -4.88574 -2.29883 -7.45801 -2.29883c-4.25586 0 -8.43945 2.04004 -11.0117 5.82812c-4.12598 6.0752 -2.54492 14.3467 3.53027 18.4727
c37.832 25.6924 78.6729 46.7373 119.008 63.6338c30.5215 126.562 63.8545 255.193 118.875 367.791c6.5918 13.4961 14.3428 21.7334 23.0361 24.4883c5.66113 1.79688 11.6562 1.2002 16.8809 -1.67188c6.43652 -3.53711 8.78809 -11.6221 5.24707 -18.0586
c-0.870117 -1.58105 -2.03613 -2.88379 -3.3623 -3.94336c-6.18945 -106.804 -6.14355 -221.146 -5.24707 -321.072c48.6299 9.47168 85.0059 10.9463 97.0049 6.04102c7.54199 -3.07715 9.69629 -8.65527 10.3115 -11.7061
c1.45117 -7.2002 -3.21094 -14.21 -10.4111 -15.6611c-4.25879 -0.858398 -8.46094 0.421875 -11.4736 3.1084c-9.83301 1.82031 -41.6729 -0.44043 -85.166 -9.27051c0.0986328 -9.42285 0.197266 -18.7471 0.295898 -27.8389
c0.813477 -75.1123 4.96973 -172.694 30.0732 -261.291c5.26562 -18.5869 12.9141 -42.0752 25.4141 -58.8115c8.53027 -11.4248 22.417 -22.4619 35.8027 -19.1943c12.208 2.98633 24.7617 17.3486 37.3232 42.6953c33.1543 66.9053 47.4219 150.068 60.0098 223.44
c1.24219 7.24219 8.11914 12.0977 15.3574 10.8594zM183.767 301.854c34.7012 12.9111 68.3457 22.7666 98.624 29.8643c-0.84375 90.4434 -1.0752 193.17 3.3584 291.941c-45.1914 -99.334 -75.0098 -210.963 -101.982 -321.806z" />
    <glyph glyph-name="A" unicode="&#xc4;" horiz-adv-x="501" 
d="M513.481 219.79c7.23828 -1.24219 12.0996 -8.12012 10.8574 -15.373c-12.8955 -75.1689 -27.5117 -160.365 -62.3906 -230.755c-10.4863 -21.1553 -27.5762 -50.0547 -54.8379 -56.7188c-3.72363 -0.908203 -7.5 -1.35645 -11.2803 -1.35645
c-18.625 0 -37.4814 10.8359 -52.1475 30.4756c-15.1064 20.2285 -23.8076 46.6885 -29.6973 67.4795c-25.9619 91.625 -30.248 191.491 -31.0801 268.256c-0.0800781 7.29883 -0.160156 14.7158 -0.240234 22.2314c-32.1592 -7.74707 -68.7178 -18.7236 -106.512 -33.6865
c-1.97949 -8.24512 -3.95117 -16.4785 -5.91504 -24.6934c-16.6572 -69.6025 -33.8799 -141.576 -54.2607 -210.435c-11.7559 -39.7275 -26.5811 -84.7207 -53.7812 -115.88c-17.3223 -19.8447 -39.998 -31.9844 -62.2061 -33.3145
c-1.375 -0.0800781 -2.73926 -0.12207 -4.0957 -0.12207c-16.083 0 -30.9238 5.75293 -43.1465 16.7715c-24.3506 21.9492 -37.3945 64.3818 -34.9023 113.498c0.37207 7.33691 6.66016 12.9561 13.9551 12.6064c7.33301 -0.37207 12.9795 -6.62207 12.6074 -13.9551
c-2.05957 -40.5938 7.95605 -76.001 26.1484 -92.3994c7.94824 -7.16602 17.2988 -10.4795 27.8428 -9.85254c14.9209 0.888672 31.2773 9.95801 43.7588 24.2559c23.6787 27.125 37.3564 68.9043 48.3184 105.938c20.1787 68.1816 37.3223 139.81 53.8955 209.074
c0.452148 1.88867 0.908203 3.78809 1.36035 5.68066c-32.4707 -14.5674 -65.2188 -32.1631 -96.291 -53.2656c-2.28711 -1.55371 -4.88574 -2.29883 -7.45801 -2.29883c-4.25586 0 -8.43945 2.04004 -11.0117 5.82812c-4.12598 6.0752 -2.54492 14.3467 3.53027 18.4727
c37.832 25.6924 78.6729 46.7373 119.008 63.6338c30.5215 126.562 63.8545 255.193 118.875 367.791c6.5918 13.4961 14.3428 21.7334 23.0361 24.4883c5.66113 1.79688 11.6562 1.2002 16.8809 -1.67188c6.43652 -3.53711 8.78809 -11.6221 5.24707 -18.0586
c-0.870117 -1.58105 -2.03613 -2.88379 -3.3623 -3.94336c-6.18945 -106.804 -6.14355 -221.146 -5.24707 -321.072c48.6299 9.47168 85.0059 10.9463 97.0049 6.04102c7.54199 -3.07715 9.69629 -8.65527 10.3115 -11.7061
c1.45117 -7.2002 -3.21094 -14.21 -10.4111 -15.6611c-4.25879 -0.858398 -8.46094 0.421875 -11.4736 3.1084c-9.83301 1.82031 -41.6729 -0.44043 -85.166 -9.27051c0.0986328 -9.42285 0.197266 -18.7471 0.295898 -27.8389
c0.813477 -75.1123 4.96973 -172.694 30.0732 -261.291c5.26562 -18.5869 12.9141 -42.0752 25.4141 -58.8115c8.53027 -11.4248 22.417 -22.4619 35.8027 -19.1943c12.208 2.98633 24.7617 17.3486 37.3232 42.6953c33.1543 66.9053 47.4219 150.068 60.0098 223.44
c1.24219 7.24219 8.11914 12.0977 15.3574 10.8594zM183.767 301.854c34.7012 12.9111 68.3457 22.7666 98.624 29.8643c-0.84375 90.4434 -1.0752 193.17 3.3584 291.941c-45.1914 -99.334 -75.0098 -210.963 -101.982 -321.806z" />
    <glyph glyph-name="A" unicode="&#xc3;" horiz-adv-x="501" 
d="M513.481 219.79c7.23828 -1.24219 12.0996 -8.12012 10.8574 -15.373c-12.8955 -75.1689 -27.5117 -160.365 -62.3906 -230.755c-10.4863 -21.1553 -27.5762 -50.0547 -54.8379 -56.7188c-3.72363 -0.908203 -7.5 -1.35645 -11.2803 -1.35645
c-18.625 0 -37.4814 10.8359 -52.1475 30.4756c-15.1064 20.2285 -23.8076 46.6885 -29.6973 67.4795c-25.9619 91.625 -30.248 191.491 -31.0801 268.256c-0.0800781 7.29883 -0.160156 14.7158 -0.240234 22.2314c-32.1592 -7.74707 -68.7178 -18.7236 -106.512 -33.6865
c-1.97949 -8.24512 -3.95117 -16.4785 -5.91504 -24.6934c-16.6572 -69.6025 -33.8799 -141.576 -54.2607 -210.435c-11.7559 -39.7275 -26.5811 -84.7207 -53.7812 -115.88c-17.3223 -19.8447 -39.998 -31.9844 -62.2061 -33.3145
c-1.375 -0.0800781 -2.73926 -0.12207 -4.0957 -0.12207c-16.083 0 -30.9238 5.75293 -43.1465 16.7715c-24.3506 21.9492 -37.3945 64.3818 -34.9023 113.498c0.37207 7.33691 6.66016 12.9561 13.9551 12.6064c7.33301 -0.37207 12.9795 -6.62207 12.6074 -13.9551
c-2.05957 -40.5938 7.95605 -76.001 26.1484 -92.3994c7.94824 -7.16602 17.2988 -10.4795 27.8428 -9.85254c14.9209 0.888672 31.2773 9.95801 43.7588 24.2559c23.6787 27.125 37.3564 68.9043 48.3184 105.938c20.1787 68.1816 37.3223 139.81 53.8955 209.074
c0.452148 1.88867 0.908203 3.78809 1.36035 5.68066c-32.4707 -14.5674 -65.2188 -32.1631 -96.291 -53.2656c-2.28711 -1.55371 -4.88574 -2.29883 -7.45801 -2.29883c-4.25586 0 -8.43945 2.04004 -11.0117 5.82812c-4.12598 6.0752 -2.54492 14.3467 3.53027 18.4727
c37.832 25.6924 78.6729 46.7373 119.008 63.6338c30.5215 126.562 63.8545 255.193 118.875 367.791c6.5918 13.4961 14.3428 21.7334 23.0361 24.4883c5.66113 1.79688 11.6562 1.2002 16.8809 -1.67188c6.43652 -3.53711 8.78809 -11.6221 5.24707 -18.0586
c-0.870117 -1.58105 -2.03613 -2.88379 -3.3623 -3.94336c-6.18945 -106.804 -6.14355 -221.146 -5.24707 -321.072c48.6299 9.47168 85.0059 10.9463 97.0049 6.04102c7.54199 -3.07715 9.69629 -8.65527 10.3115 -11.7061
c1.45117 -7.2002 -3.21094 -14.21 -10.4111 -15.6611c-4.25879 -0.858398 -8.46094 0.421875 -11.4736 3.1084c-9.83301 1.82031 -41.6729 -0.44043 -85.166 -9.27051c0.0986328 -9.42285 0.197266 -18.7471 0.295898 -27.8389
c0.813477 -75.1123 4.96973 -172.694 30.0732 -261.291c5.26562 -18.5869 12.9141 -42.0752 25.4141 -58.8115c8.53027 -11.4248 22.417 -22.4619 35.8027 -19.1943c12.208 2.98633 24.7617 17.3486 37.3232 42.6953c33.1543 66.9053 47.4219 150.068 60.0098 223.44
c1.24219 7.24219 8.11914 12.0977 15.3574 10.8594zM183.767 301.854c34.7012 12.9111 68.3457 22.7666 98.624 29.8643c-0.84375 90.4434 -1.0752 193.17 3.3584 291.941c-45.1914 -99.334 -75.0098 -210.963 -101.982 -321.806z" />
    <glyph glyph-name="A" unicode="&#xc2;" horiz-adv-x="501" 
d="M513.481 219.79c7.23828 -1.24219 12.0996 -8.12012 10.8574 -15.373c-12.8955 -75.1689 -27.5117 -160.365 -62.3906 -230.755c-10.4863 -21.1553 -27.5762 -50.0547 -54.8379 -56.7188c-3.72363 -0.908203 -7.5 -1.35645 -11.2803 -1.35645
c-18.625 0 -37.4814 10.8359 -52.1475 30.4756c-15.1064 20.2285 -23.8076 46.6885 -29.6973 67.4795c-25.9619 91.625 -30.248 191.491 -31.0801 268.256c-0.0800781 7.29883 -0.160156 14.7158 -0.240234 22.2314c-32.1592 -7.74707 -68.7178 -18.7236 -106.512 -33.6865
c-1.97949 -8.24512 -3.95117 -16.4785 -5.91504 -24.6934c-16.6572 -69.6025 -33.8799 -141.576 -54.2607 -210.435c-11.7559 -39.7275 -26.5811 -84.7207 -53.7812 -115.88c-17.3223 -19.8447 -39.998 -31.9844 -62.2061 -33.3145
c-1.375 -0.0800781 -2.73926 -0.12207 -4.0957 -0.12207c-16.083 0 -30.9238 5.75293 -43.1465 16.7715c-24.3506 21.9492 -37.3945 64.3818 -34.9023 113.498c0.37207 7.33691 6.66016 12.9561 13.9551 12.6064c7.33301 -0.37207 12.9795 -6.62207 12.6074 -13.9551
c-2.05957 -40.5938 7.95605 -76.001 26.1484 -92.3994c7.94824 -7.16602 17.2988 -10.4795 27.8428 -9.85254c14.9209 0.888672 31.2773 9.95801 43.7588 24.2559c23.6787 27.125 37.3564 68.9043 48.3184 105.938c20.1787 68.1816 37.3223 139.81 53.8955 209.074
c0.452148 1.88867 0.908203 3.78809 1.36035 5.68066c-32.4707 -14.5674 -65.2188 -32.1631 -96.291 -53.2656c-2.28711 -1.55371 -4.88574 -2.29883 -7.45801 -2.29883c-4.25586 0 -8.43945 2.04004 -11.0117 5.82812c-4.12598 6.0752 -2.54492 14.3467 3.53027 18.4727
c37.832 25.6924 78.6729 46.7373 119.008 63.6338c30.5215 126.562 63.8545 255.193 118.875 367.791c6.5918 13.4961 14.3428 21.7334 23.0361 24.4883c5.66113 1.79688 11.6562 1.2002 16.8809 -1.67188c6.43652 -3.53711 8.78809 -11.6221 5.24707 -18.0586
c-0.870117 -1.58105 -2.03613 -2.88379 -3.3623 -3.94336c-6.18945 -106.804 -6.14355 -221.146 -5.24707 -321.072c48.6299 9.47168 85.0059 10.9463 97.0049 6.04102c7.54199 -3.07715 9.69629 -8.65527 10.3115 -11.7061
c1.45117 -7.2002 -3.21094 -14.21 -10.4111 -15.6611c-4.25879 -0.858398 -8.46094 0.421875 -11.4736 3.1084c-9.83301 1.82031 -41.6729 -0.44043 -85.166 -9.27051c0.0986328 -9.42285 0.197266 -18.7471 0.295898 -27.8389
c0.813477 -75.1123 4.96973 -172.694 30.0732 -261.291c5.26562 -18.5869 12.9141 -42.0752 25.4141 -58.8115c8.53027 -11.4248 22.417 -22.4619 35.8027 -19.1943c12.208 2.98633 24.7617 17.3486 37.3232 42.6953c33.1543 66.9053 47.4219 150.068 60.0098 223.44
c1.24219 7.24219 8.11914 12.0977 15.3574 10.8594zM183.767 301.854c34.7012 12.9111 68.3457 22.7666 98.624 29.8643c-0.84375 90.4434 -1.0752 193.17 3.3584 291.941c-45.1914 -99.334 -75.0098 -210.963 -101.982 -321.806z" />
    <glyph glyph-name="A" unicode="&#xc1;" horiz-adv-x="501" 
d="M513.481 219.79c7.23828 -1.24219 12.0996 -8.12012 10.8574 -15.373c-12.8955 -75.1689 -27.5117 -160.365 -62.3906 -230.755c-10.4863 -21.1553 -27.5762 -50.0547 -54.8379 -56.7188c-3.72363 -0.908203 -7.5 -1.35645 -11.2803 -1.35645
c-18.625 0 -37.4814 10.8359 -52.1475 30.4756c-15.1064 20.2285 -23.8076 46.6885 -29.6973 67.4795c-25.9619 91.625 -30.248 191.491 -31.0801 268.256c-0.0800781 7.29883 -0.160156 14.7158 -0.240234 22.2314c-32.1592 -7.74707 -68.7178 -18.7236 -106.512 -33.6865
c-1.97949 -8.24512 -3.95117 -16.4785 -5.91504 -24.6934c-16.6572 -69.6025 -33.8799 -141.576 -54.2607 -210.435c-11.7559 -39.7275 -26.5811 -84.7207 -53.7812 -115.88c-17.3223 -19.8447 -39.998 -31.9844 -62.2061 -33.3145
c-1.375 -0.0800781 -2.73926 -0.12207 -4.0957 -0.12207c-16.083 0 -30.9238 5.75293 -43.1465 16.7715c-24.3506 21.9492 -37.3945 64.3818 -34.9023 113.498c0.37207 7.33691 6.66016 12.9561 13.9551 12.6064c7.33301 -0.37207 12.9795 -6.62207 12.6074 -13.9551
c-2.05957 -40.5938 7.95605 -76.001 26.1484 -92.3994c7.94824 -7.16602 17.2988 -10.4795 27.8428 -9.85254c14.9209 0.888672 31.2773 9.95801 43.7588 24.2559c23.6787 27.125 37.3564 68.9043 48.3184 105.938c20.1787 68.1816 37.3223 139.81 53.8955 209.074
c0.452148 1.88867 0.908203 3.78809 1.36035 5.68066c-32.4707 -14.5674 -65.2188 -32.1631 -96.291 -53.2656c-2.28711 -1.55371 -4.88574 -2.29883 -7.45801 -2.29883c-4.25586 0 -8.43945 2.04004 -11.0117 5.82812c-4.12598 6.0752 -2.54492 14.3467 3.53027 18.4727
c37.832 25.6924 78.6729 46.7373 119.008 63.6338c30.5215 126.562 63.8545 255.193 118.875 367.791c6.5918 13.4961 14.3428 21.7334 23.0361 24.4883c5.66113 1.79688 11.6562 1.2002 16.8809 -1.67188c6.43652 -3.53711 8.78809 -11.6221 5.24707 -18.0586
c-0.870117 -1.58105 -2.03613 -2.88379 -3.3623 -3.94336c-6.18945 -106.804 -6.14355 -221.146 -5.24707 -321.072c48.6299 9.47168 85.0059 10.9463 97.0049 6.04102c7.54199 -3.07715 9.69629 -8.65527 10.3115 -11.7061
c1.45117 -7.2002 -3.21094 -14.21 -10.4111 -15.6611c-4.25879 -0.858398 -8.46094 0.421875 -11.4736 3.1084c-9.83301 1.82031 -41.6729 -0.44043 -85.166 -9.27051c0.0986328 -9.42285 0.197266 -18.7471 0.295898 -27.8389
c0.813477 -75.1123 4.96973 -172.694 30.0732 -261.291c5.26562 -18.5869 12.9141 -42.0752 25.4141 -58.8115c8.53027 -11.4248 22.417 -22.4619 35.8027 -19.1943c12.208 2.98633 24.7617 17.3486 37.3232 42.6953c33.1543 66.9053 47.4219 150.068 60.0098 223.44
c1.24219 7.24219 8.11914 12.0977 15.3574 10.8594zM183.767 301.854c34.7012 12.9111 68.3457 22.7666 98.624 29.8643c-0.84375 90.4434 -1.0752 193.17 3.3584 291.941c-45.1914 -99.334 -75.0098 -210.963 -101.982 -321.806z" />
    <glyph glyph-name="B" unicode="B" horiz-adv-x="457" 
d="M454.682 239.224c6.6875 3.02441 14.5635 0.0449219 17.5957 -6.65332c3.02051 -6.69043 0.0458984 -14.5703 -6.64844 -17.5908c-24.6016 -11.1055 -67.9951 -24.6357 -118.243 -40.3047c-13.291 -4.14551 -27.4707 -8.56445 -42.2695 -13.2568
c-10.4941 -55.1729 -28.7773 -107.678 -54.1045 -153.173c-31.6836 -56.9131 -71.248 -98.0771 -114.414 -119.047c-20.791 -10.0986 -45.8408 -17.1123 -71.1416 -17.1123c-27.7441 0 -55.7881 8.43066 -78.8662 30.4678c-30.293 28.9297 -42.0977 58.7822 -35.084 88.7334
c7.80078 33.3105 39.0098 63.0566 82.8975 89.7217c-9.6582 63.8086 -20.1445 159.936 -21.957 190.362c-6.94531 116.432 -5.17871 234.273 5.24316 350.261c0.65332 7.31445 7.08594 12.7285 14.4346 12.0518c7.31055 -0.657227 12.71 -7.12012 12.0527 -14.4346
c-10.3047 -114.673 -12.0488 -231.181 -5.18359 -346.294c0.524414 -8.78809 1.84277 -23.6367 3.67773 -41.7568c1.59961 91.7051 8.70508 197.727 33.1699 308.881c15.0576 68.4062 46.3271 159.939 109.798 207.551c5.65332 4.24023 20.4678 13.7461 35.9277 10.4326
c8.4082 -1.80078 15.1904 -6.9834 19.6133 -14.9814c5.53613 -10.0195 5.6123 -22.1699 5.18652 -30.4414c-1.21582 -23.6025 -7.41699 -45.8564 -13.3213 -64.5156c-15.6504 -49.4502 -36.126 -95.2793 -61.0928 -136.804c6.91895 1.26562 13.9863 1.72559 21.1064 1.3457
c25.6729 -1.37207 49.8867 -13.4697 68.1777 -34.0664c24.0664 -27.0938 40.4189 -69.6523 48.6035 -126.485c7.62988 -52.9951 7.45117 -107.997 0.0996094 -161.273c10.0234 3.14551 19.8906 6.22266 29.5303 9.22852c49.416 15.4072 92.0918 28.7129 115.212 39.1543z
M227.769 21.1846c21.7979 39.1533 38.0938 83.8223 48.3564 130.933c-69.4395 -22.5762 -147.269 -50.3047 -206.244 -81.6504c0.0908203 -12.9375 0.102539 -25.2246 -0.0566406 -36.6113c-0.00390625 -0.261719 -0.0683594 -0.508789 -0.0869141 -0.767578
c-0.0341797 -0.482422 -0.0800781 -0.953125 -0.164062 -1.42383c-0.0761719 -0.417969 -0.182617 -0.817383 -0.296875 -1.21973c-0.118164 -0.414062 -0.239258 -0.824219 -0.398438 -1.22656c-0.15918 -0.414062 -0.349609 -0.805664 -0.550781 -1.20117
c-0.186523 -0.361328 -0.376953 -0.71875 -0.597656 -1.06445c-0.239258 -0.375977 -0.500977 -0.733398 -0.774414 -1.08301c-0.254883 -0.319336 -0.509766 -0.634766 -0.791016 -0.930664c-0.307617 -0.323242 -0.630859 -0.623047 -0.96875 -0.916016
c-0.303711 -0.265625 -0.611328 -0.520508 -0.941406 -0.755859c-0.383789 -0.277344 -0.783203 -0.516602 -1.19727 -0.751953c-0.330078 -0.186523 -0.65332 -0.369141 -1.00293 -0.52832c-0.470703 -0.216797 -0.957031 -0.387695 -1.45508 -0.546875
c-0.224609 -0.0722656 -0.425781 -0.186523 -0.657227 -0.24707c-0.182617 -0.0498047 -0.369141 -0.0683594 -0.551758 -0.110352c-0.220703 -0.0498047 -0.445312 -0.0957031 -0.672852 -0.133789c-0.733398 -0.125 -1.4707 -0.208984 -2.19629 -0.208984
c-0.0380859 0 -0.0761719 0.0078125 -0.114258 0.0078125c-0.0185547 0 -0.0371094 -0.00390625 -0.0556641 -0.00390625c-0.106445 0 -0.201172 0.0302734 -0.307617 0.0341797c-0.710938 0.0263672 -1.40625 0.102539 -2.08984 0.239258
c-0.273438 0.0527344 -0.539062 0.132812 -0.808594 0.205078c-0.508789 0.132812 -1.00684 0.291992 -1.49316 0.485352c-0.289062 0.114258 -0.574219 0.236328 -0.851562 0.369141c-0.459961 0.220703 -0.900391 0.475586 -1.33398 0.749023
c-0.239258 0.152344 -0.486328 0.289062 -0.713867 0.456055c-0.520508 0.37207 -1.00293 0.790039 -1.46289 1.23828c-0.106445 0.102539 -0.224609 0.186523 -0.327148 0.292969c-0.554688 0.570312 -1.05273 1.19727 -1.50098 1.87012
c-0.114258 0.170898 -0.198242 0.364258 -0.304688 0.539062c-0.299805 0.501953 -0.581055 1.01074 -0.816406 1.55762c-0.128906 0.299805 -0.223633 0.611328 -0.330078 0.922852c-0.106445 0.307617 -0.24707 0.600586 -0.331055 0.919922
c-1.4248 5.36523 -2.98633 12.8994 -4.62012 21.9385c-33.0898 -21.1826 -56.1416 -43.7627 -61.6621 -67.335c-4.7832 -20.4111 4.2334 -41.1602 27.5547 -63.4326c34.2793 -32.7285 84.4707 -25.9346 120.019 -8.66602c38.2344 18.5723 73.7822 55.9365 102.799 108.058z
M281.763 181.92c8.7959 54.6484 9.63379 111.617 1.74219 166.395c-7.42773 51.5938 -21.6152 89.4824 -42.1631 112.617c-13.5381 15.2432 -31.1904 24.1836 -49.7129 25.1719c-17.6445 0.938477 -34.9697 -5.47461 -48.8223 -18.0742
c-5.0498 -4.58984 -12.748 -4.61621 -17.8242 -0.0605469c-5.08008 4.55176 -5.88965 12.2119 -1.87402 17.7246c35.4453 48.6943 64.6904 107.636 84.5693 170.453c5.39551 17.0518 11.0527 37.2578 12.1133 57.8584c0.399414 7.75098 -0.239258 13.2031 -1.89941 16.209
c-0.896484 1.62598 -1.50781 1.75879 -1.90723 1.84277c-0.311523 0.0644531 -0.672852 0.0986328 -1.06836 0.0986328c-2.94043 0 -8.05859 -1.85059 -13.3281 -5.80176c-44.4277 -33.3291 -79.8652 -101.515 -99.7822 -191.992
c-35.6807 -162.102 -33.7539 -314.153 -32.3477 -425.179c0.0380859 -2.92578 0.0761719 -5.83203 0.110352 -8.71973c62.0498 31.4785 139.783 58.3223 212.194 81.457z" />
    <glyph glyph-name="C" unicode="C" horiz-adv-x="326" 
d="M344.086 227.712c7.22266 -1.33008 12.0029 -8.26367 10.665 -15.4902c-16.6875 -90.6328 -45.2715 -175.487 -84.9609 -252.211c-13.7695 -26.6074 -32.9111 -60.2256 -58.9717 -84.2305c-22.1895 -20.4336 -47.3311 -31.3115 -71.3057 -31.3115
c-6.50488 0 -12.918 0.801758 -19.168 2.42773c-49.3291 12.8389 -79.4707 71.7275 -96.0703 118.868c-28.0664 79.71 -41.6494 176.11 -41.5127 294.712c0.170898 148.507 22.083 263.825 66.9814 352.543c16.1787 31.9648 32.2734 53.291 50.6475 67.125
c25.415 19.1309 55.667 21.958 78.9502 7.36816c25.2705 -15.832 42.1025 -49.7041 51.4531 -103.559c7.39746 -42.5996 19.2139 -149.487 -30.7041 -221.796c-13.6367 -19.7539 -31.5518 -32.9111 -49.1514 -36.1025c-11.9834 -2.16992 -23.5381 0.318359 -33.4248 7.19531
c-6.03027 4.19434 -7.51562 12.4814 -3.32129 18.5117c4.19434 6.0332 12.4844 7.51465 18.5107 3.32031c4.12598 -2.87207 8.41895 -3.77637 13.4873 -2.85645c10.3799 1.88086 22.6445 11.4785 32.0068 25.043c31.2207 45.2295 40.8408 118.905 26.3877 202.137
c-7.7666 44.709 -21.376 74.2998 -39.3662 85.5693c-13.9365 8.73145 -32.1895 6.45508 -48.835 -6.0752c-15.0039 -11.2959 -28.6367 -29.6895 -42.9072 -57.8857c-42.9795 -84.9189 -63.9531 -196.32 -64.1162 -340.564
c-0.128906 -115.535 12.9531 -209.033 40.0059 -285.848c20.4336 -58.0332 48.0215 -94.2461 77.6807 -101.963c20.3652 -5.29688 44.332 2.97461 65.7607 22.709c23.0059 21.1895 40.6055 52.2236 53.3643 76.8896c38.4814 74.3906 66.2139 156.752 82.4268 244.806
c1.33008 7.22266 8.26074 12.002 15.4873 10.668z" />
    <glyph glyph-name="D" unicode="D" horiz-adv-x="483" 
d="M487.988 221.207c6.75586 -2.88379 9.89941 -10.6836 7.01953 -17.4395s-10.6914 -9.89844 -17.4473 -7.01855c-40.0166 17.0557 -91.0859 31.5771 -145.396 41.1934c-5.63477 -27.1396 -12.3066 -53.9453 -20.0078 -80.2988
c-19.8145 -67.8018 -43.3066 -119.49 -71.8145 -158.01c-36.8174 -49.7471 -84.2842 -78.4678 -130.239 -78.8057c-0.273438 -0.00390625 -0.550781 -0.00390625 -0.820312 -0.00390625c-68.0947 -0.00390625 -135.183 61.9697 -159.754 147.721
c-17.8574 62.3193 -5.7793 114.263 34.9248 150.21c25.8477 22.8271 61.6504 38.1162 102.989 47.2764c-11.835 145.068 -7.09668 291.144 14.1768 434.335c1.0791 7.26465 7.84961 12.2803 15.1064 11.1973c7.26465 -1.08301 12.2803 -7.8457 11.2012 -15.1104
c-18.6514 -125.551 -24.4346 -253.362 -17.2803 -380.726c7.77734 87.9277 21.2393 183.474 46.1484 275.653c9.89355 36.6123 24.3848 83.5508 48.8008 121.85c21.6074 33.8994 47.873 48.8311 72.0605 40.9736c16.4326 -5.33789 30.5518 -21.1436 41.9658 -46.9805
c16.8545 -38.1543 23.6445 -82.3428 27.6797 -116.576c12.8311 -108.886 9.30176 -219.949 -10.0303 -326.457c55.9365 -9.93555 108.609 -25.0312 150.716 -42.9834zM286.628 165.104c7.38965 25.2969 13.8125 51.0176 19.2529 77.0742
c-58.79 8.51074 -119.848 11.0186 -173.747 4.65039c-1.74414 -27.9834 -3.00586 -54.7734 -4.0127 -79.9258c-0.00390625 -0.0839844 -0.0302734 -0.160156 -0.0341797 -0.244141c0.254883 -1.06055 0.475586 -2.12793 0.737305 -3.18457
c0.429688 -0.152344 0.859375 -0.323242 1.28125 -0.520508c6.65625 -3.10449 9.53613 -11.0146 6.43555 -17.6709c-2.65625 -5.70312 -8.03613 -9.20605 -13.9561 -9.20605c-0.456055 0 -0.912109 0.0185547 -1.37207 0.0605469
c-9.04297 0.820312 -15.1826 9.23633 -17.2568 17.208c-7.45117 28.6328 -11.3984 57.9912 -14.1797 86.2178c-35.4648 -8.22168 -65.8682 -21.4443 -87.7188 -40.7422c-32.9336 -29.085 -42.0029 -70.4502 -26.9609 -122.948
c21.4443 -74.8428 78.0527 -128.807 134.81 -128.445c37.5127 0.273438 77.2588 25.0723 109.053 68.0293c26.6113 35.9551 48.7471 84.9082 67.6689 149.647zM311.012 268.444c18.9482 104.068 22.4189 212.64 9.87305 319.102
c-3.81836 32.3828 -10.1709 74.0293 -25.5928 108.939c-7.99414 18.0967 -17.1777 29.6133 -25.8555 32.4326c-13.6211 4.42285 -30.3311 -12.584 -41.418 -29.9785c-22.4775 -35.2598 -36.1523 -79.71 -45.5527 -114.494
c-28.2188 -104.422 -41.5283 -213.691 -48.5342 -310.841c20.707 2.2793 42.2734 3.35059 64.2422 3.35059c37.1328 0 75.4355 -3.05469 112.838 -8.51074z" />
    <glyph glyph-name="E" unicode="E" horiz-adv-x="368" 
d="M383.389 224.459c7.04785 -2.06738 11.0859 -9.45312 9.02246 -16.501c-28.0479 -95.6328 -69.4814 -183.066 -119.817 -252.844c-22.6602 -31.4102 -53.5996 -67.4141 -92.21 -67.4141h-0.463867c-33.3711 0.250977 -65.6172 28.7891 -86.2676 76.3398
c-15.1523 34.8906 -24.3623 78.2695 -28.9863 136.508c-6.47461 81.5371 -2.25293 163.91 2.56836 228.448l-24.1309 -4.59766c-7.73242 -1.47461 -15.0312 -2.86523 -21.4375 -6.15137c-1.94531 -0.999023 -4.01562 -1.46973 -6.05957 -1.46973
c-4.8291 0 -9.4873 2.63672 -11.8428 7.23047c-3.35156 6.53516 -0.771484 14.5518 5.76367 17.9033c9.80664 5.03027 19.7881 6.93359 28.5957 8.61328l31.3496 5.97656c8.4043 101.647 21.2432 202.908 38.3564 301.927
c-17.8877 -1.99902 -33.5459 -3.13867 -46.6621 -3.13867c-20.1445 0 -34.4268 2.63672 -42.1777 8.78809c-5.75195 4.56738 -6.70898 12.9297 -2.1416 18.6816c4.55957 5.74512 12.915 6.70996 18.667 2.1582c1.61816 -1.15137 12.5186 -6.4707 69.7158 -0.0683594
c2.43555 0.273438 4.99219 0.600586 7.49219 0.904297c1.39453 7.6709 2.73535 15.3721 4.17871 23.0166c1.36035 7.21484 8.31738 11.9639 15.5322 10.5996s11.96 -8.32129 10.5996 -15.5361c-0.900391 -4.77637 -1.72852 -9.59766 -2.61035 -14.3848
c29.3135 4.24414 60.7314 9.63184 89.4863 14.5752c90.4199 15.5547 112.602 18.4199 122.868 10.8555c3.39258 -2.49609 5.55078 -6.11328 6.08691 -10.1787c0.957031 -7.2832 -4.16895 -13.959 -11.4521 -14.916c-3.61328 -0.474609 -7.08984 0.550781 -9.7832 2.60254
c-13.5107 0.854492 -62.9844 -7.65234 -103.21 -14.5713c-37.1328 -6.38672 -70.2988 -11.9189 -98.9961 -15.9082c-17.2568 -98.4033 -30.2393 -199.102 -38.8223 -300.24l76.0127 14.4873c7.22266 1.375 14.1758 -3.35938 15.5508 -10.5742
s-3.35938 -14.1797 -10.5742 -15.5547l-83.2891 -15.874c-4.96191 -64.5723 -9.69238 -148.735 -3.11914 -231.504c4.38477 -55.2217 12.9219 -95.9033 26.8701 -128.021c15.8438 -36.4902 40.2061 -60.1729 62.0684 -60.3359h0.250977
c26.8701 0 53.1777 32.1553 70.6514 56.377c48.5918 67.3613 88.6572 151.999 115.865 244.771c2.06348 7.04785 9.46094 11.083 16.501 9.01953z" />
    <glyph glyph-name="E" unicode="&#xcb;" horiz-adv-x="368" 
d="M383.389 224.459c7.04785 -2.06738 11.0859 -9.45312 9.02246 -16.501c-28.0479 -95.6328 -69.4814 -183.066 -119.817 -252.844c-22.6602 -31.4102 -53.5996 -67.4141 -92.21 -67.4141h-0.463867c-33.3711 0.250977 -65.6172 28.7891 -86.2676 76.3398
c-15.1523 34.8906 -24.3623 78.2695 -28.9863 136.508c-6.47461 81.5371 -2.25293 163.91 2.56836 228.448l-24.1309 -4.59766c-7.73242 -1.47461 -15.0312 -2.86523 -21.4375 -6.15137c-1.94531 -0.999023 -4.01562 -1.46973 -6.05957 -1.46973
c-4.8291 0 -9.4873 2.63672 -11.8428 7.23047c-3.35156 6.53516 -0.771484 14.5518 5.76367 17.9033c9.80664 5.03027 19.7881 6.93359 28.5957 8.61328l31.3496 5.97656c8.4043 101.647 21.2432 202.908 38.3564 301.927
c-17.8877 -1.99902 -33.5459 -3.13867 -46.6621 -3.13867c-20.1445 0 -34.4268 2.63672 -42.1777 8.78809c-5.75195 4.56738 -6.70898 12.9297 -2.1416 18.6816c4.55957 5.74512 12.915 6.70996 18.667 2.1582c1.61816 -1.15137 12.5186 -6.4707 69.7158 -0.0683594
c2.43555 0.273438 4.99219 0.600586 7.49219 0.904297c1.39453 7.6709 2.73535 15.3721 4.17871 23.0166c1.36035 7.21484 8.31738 11.9639 15.5322 10.5996s11.96 -8.32129 10.5996 -15.5361c-0.900391 -4.77637 -1.72852 -9.59766 -2.61035 -14.3848
c29.3135 4.24414 60.7314 9.63184 89.4863 14.5752c90.4199 15.5547 112.602 18.4199 122.868 10.8555c3.39258 -2.49609 5.55078 -6.11328 6.08691 -10.1787c0.957031 -7.2832 -4.16895 -13.959 -11.4521 -14.916c-3.61328 -0.474609 -7.08984 0.550781 -9.7832 2.60254
c-13.5107 0.854492 -62.9844 -7.65234 -103.21 -14.5713c-37.1328 -6.38672 -70.2988 -11.9189 -98.9961 -15.9082c-17.2568 -98.4033 -30.2393 -199.102 -38.8223 -300.24l76.0127 14.4873c7.22266 1.375 14.1758 -3.35938 15.5508 -10.5742
s-3.35938 -14.1797 -10.5742 -15.5547l-83.2891 -15.874c-4.96191 -64.5723 -9.69238 -148.735 -3.11914 -231.504c4.38477 -55.2217 12.9219 -95.9033 26.8701 -128.021c15.8438 -36.4902 40.2061 -60.1729 62.0684 -60.3359h0.250977
c26.8701 0 53.1777 32.1553 70.6514 56.377c48.5918 67.3613 88.6572 151.999 115.865 244.771c2.06348 7.04785 9.46094 11.083 16.501 9.01953z" />
    <glyph glyph-name="E" unicode="&#xca;" horiz-adv-x="368" 
d="M383.389 224.459c7.04785 -2.06738 11.0859 -9.45312 9.02246 -16.501c-28.0479 -95.6328 -69.4814 -183.066 -119.817 -252.844c-22.6602 -31.4102 -53.5996 -67.4141 -92.21 -67.4141h-0.463867c-33.3711 0.250977 -65.6172 28.7891 -86.2676 76.3398
c-15.1523 34.8906 -24.3623 78.2695 -28.9863 136.508c-6.47461 81.5371 -2.25293 163.91 2.56836 228.448l-24.1309 -4.59766c-7.73242 -1.47461 -15.0312 -2.86523 -21.4375 -6.15137c-1.94531 -0.999023 -4.01562 -1.46973 -6.05957 -1.46973
c-4.8291 0 -9.4873 2.63672 -11.8428 7.23047c-3.35156 6.53516 -0.771484 14.5518 5.76367 17.9033c9.80664 5.03027 19.7881 6.93359 28.5957 8.61328l31.3496 5.97656c8.4043 101.647 21.2432 202.908 38.3564 301.927
c-17.8877 -1.99902 -33.5459 -3.13867 -46.6621 -3.13867c-20.1445 0 -34.4268 2.63672 -42.1777 8.78809c-5.75195 4.56738 -6.70898 12.9297 -2.1416 18.6816c4.55957 5.74512 12.915 6.70996 18.667 2.1582c1.61816 -1.15137 12.5186 -6.4707 69.7158 -0.0683594
c2.43555 0.273438 4.99219 0.600586 7.49219 0.904297c1.39453 7.6709 2.73535 15.3721 4.17871 23.0166c1.36035 7.21484 8.31738 11.9639 15.5322 10.5996s11.96 -8.32129 10.5996 -15.5361c-0.900391 -4.77637 -1.72852 -9.59766 -2.61035 -14.3848
c29.3135 4.24414 60.7314 9.63184 89.4863 14.5752c90.4199 15.5547 112.602 18.4199 122.868 10.8555c3.39258 -2.49609 5.55078 -6.11328 6.08691 -10.1787c0.957031 -7.2832 -4.16895 -13.959 -11.4521 -14.916c-3.61328 -0.474609 -7.08984 0.550781 -9.7832 2.60254
c-13.5107 0.854492 -62.9844 -7.65234 -103.21 -14.5713c-37.1328 -6.38672 -70.2988 -11.9189 -98.9961 -15.9082c-17.2568 -98.4033 -30.2393 -199.102 -38.8223 -300.24l76.0127 14.4873c7.22266 1.375 14.1758 -3.35938 15.5508 -10.5742
s-3.35938 -14.1797 -10.5742 -15.5547l-83.2891 -15.874c-4.96191 -64.5723 -9.69238 -148.735 -3.11914 -231.504c4.38477 -55.2217 12.9219 -95.9033 26.8701 -128.021c15.8438 -36.4902 40.2061 -60.1729 62.0684 -60.3359h0.250977
c26.8701 0 53.1777 32.1553 70.6514 56.377c48.5918 67.3613 88.6572 151.999 115.865 244.771c2.06348 7.04785 9.46094 11.083 16.501 9.01953z" />
    <glyph glyph-name="E" unicode="&#xc9;" horiz-adv-x="368" 
d="M383.389 224.459c7.04785 -2.06738 11.0859 -9.45312 9.02246 -16.501c-28.0479 -95.6328 -69.4814 -183.066 -119.817 -252.844c-22.6602 -31.4102 -53.5996 -67.4141 -92.21 -67.4141h-0.463867c-33.3711 0.250977 -65.6172 28.7891 -86.2676 76.3398
c-15.1523 34.8906 -24.3623 78.2695 -28.9863 136.508c-6.47461 81.5371 -2.25293 163.91 2.56836 228.448l-24.1309 -4.59766c-7.73242 -1.47461 -15.0312 -2.86523 -21.4375 -6.15137c-1.94531 -0.999023 -4.01562 -1.46973 -6.05957 -1.46973
c-4.8291 0 -9.4873 2.63672 -11.8428 7.23047c-3.35156 6.53516 -0.771484 14.5518 5.76367 17.9033c9.80664 5.03027 19.7881 6.93359 28.5957 8.61328l31.3496 5.97656c8.4043 101.647 21.2432 202.908 38.3564 301.927
c-17.8877 -1.99902 -33.5459 -3.13867 -46.6621 -3.13867c-20.1445 0 -34.4268 2.63672 -42.1777 8.78809c-5.75195 4.56738 -6.70898 12.9297 -2.1416 18.6816c4.55957 5.74512 12.915 6.70996 18.667 2.1582c1.61816 -1.15137 12.5186 -6.4707 69.7158 -0.0683594
c2.43555 0.273438 4.99219 0.600586 7.49219 0.904297c1.39453 7.6709 2.73535 15.3721 4.17871 23.0166c1.36035 7.21484 8.31738 11.9639 15.5322 10.5996s11.96 -8.32129 10.5996 -15.5361c-0.900391 -4.77637 -1.72852 -9.59766 -2.61035 -14.3848
c29.3135 4.24414 60.7314 9.63184 89.4863 14.5752c90.4199 15.5547 112.602 18.4199 122.868 10.8555c3.39258 -2.49609 5.55078 -6.11328 6.08691 -10.1787c0.957031 -7.2832 -4.16895 -13.959 -11.4521 -14.916c-3.61328 -0.474609 -7.08984 0.550781 -9.7832 2.60254
c-13.5107 0.854492 -62.9844 -7.65234 -103.21 -14.5713c-37.1328 -6.38672 -70.2988 -11.9189 -98.9961 -15.9082c-17.2568 -98.4033 -30.2393 -199.102 -38.8223 -300.24l76.0127 14.4873c7.22266 1.375 14.1758 -3.35938 15.5508 -10.5742
s-3.35938 -14.1797 -10.5742 -15.5547l-83.2891 -15.874c-4.96191 -64.5723 -9.69238 -148.735 -3.11914 -231.504c4.38477 -55.2217 12.9219 -95.9033 26.8701 -128.021c15.8438 -36.4902 40.2061 -60.1729 62.0684 -60.3359h0.250977
c26.8701 0 53.1777 32.1553 70.6514 56.377c48.5918 67.3613 88.6572 151.999 115.865 244.771c2.06348 7.04785 9.46094 11.083 16.501 9.01953z" />
    <glyph glyph-name="F" unicode="F" horiz-adv-x="265" 
d="M265.751 230.839c5.38379 5.00391 13.7959 4.69434 18.7998 -0.677734c5 -5.37988 4.69629 -13.7959 -0.683594 -18.7959c-59.3818 -55.21 -121.352 -106.738 -184.822 -153.712c8.43848 0.87793 16.873 1.21191 25.4297 0.839844
c35.3994 -1.53516 66.9736 -16.3232 88.9004 -41.6357c43.5801 -50.3125 46.1787 -136.938 30.1484 -196.134c-6.66797 -24.6357 -22.8428 -68.2734 -56.2217 -83.7451c-8.14648 -3.77637 -16.6191 -5.62695 -25.252 -5.62695
c-29.2861 -0.00390625 -60.4307 21.2695 -87.1523 60.7314c-42.0488 62.0986 -70.0166 148.708 -85.5068 264.775c-17.0898 128.104 -23.8184 318.101 41.1758 495.784c18.4014 50.3096 38.0107 85.9375 61.7002 112.135c26.1748 28.9365 55.9131 38.249 79.5459 24.9131
c32.4893 -18.333 38.0215 -69.0908 38.8916 -90.0645c1.92969 -46.5664 -7.06348 -91.4346 -16.1182 -129.183c-1.70996 -7.14258 -8.89453 -11.5352 -16.0342 -9.8291c-7.13965 1.71387 -11.543 8.8916 -9.8291 16.0342c8.62891 35.9658 17.2041 78.5732 15.4072 121.88
c-1.38672 33.3857 -11.3486 60.0811 -25.3877 67.999c-17.8467 10.0684 -40.2939 -12.4512 -46.7529 -19.5908c-21.3193 -23.5762 -39.2568 -56.4414 -56.4453 -103.434c-63.1357 -172.592 -56.4863 -357.988 -39.791 -483.129
c14.9277 -111.892 41.4785 -194.773 81.1641 -253.381c20.5781 -30.3887 52.1865 -58.4102 79.2012 -45.8867c17.2305 7.98633 32.4434 32.2461 41.7334 66.5635c17.417 64.3174 7.31055 134.95 -24.5791 171.768c-21.9004 25.2852 -50.1309 31.6191 -69.9531 32.4775
c-25.5938 1.125 -51.6924 -5.52832 -80.6826 -13.6631c-6.25781 -1.75488 -12.8652 1.26953 -15.6279 7.14746c-2.76562 5.88184 -0.873047 12.8955 4.46875 16.5928c80.751 55.8525 159.567 119.388 234.273 188.847z" />
    <glyph glyph-name="G" unicode="G" horiz-adv-x="398" 
d="M265.002 -9.25195c-11.3486 -34.8984 -25.2861 -61.0068 -42.6123 -79.8223c-21.0078 -22.8164 -47.9346 -34.5605 -74.8916 -34.5605c-19.8789 0 -39.7695 6.38281 -57.3193 19.4268c-12.5879 9.35449 -21.5469 20.5664 -26.6309 33.3291
c-4.55566 11.4209 3.98535 19.3467 31.585 40.8896c17.96 14.0166 42.7783 32.3496 71.5176 53.5732c28.0664 20.7305 60.8633 44.9561 92.8018 69.3789c5.05371 42.0527 6.35352 85.416 6.6875 127.557c0.0947266 11.4932 0.128906 23.0098 0.15918 34.5303
c0.0947266 32.3486 0.189453 65.248 1.62598 98.1133c-8.87598 -29.1572 -17.1934 -58.7744 -25.2939 -87.6846c-15.7568 -56.2324 -32.0449 -114.372 -52.5693 -169.191c-14.8906 -39.7656 -37.0186 -86.7119 -76.3164 -96.917
c-4.69629 -1.21973 -9.4873 -1.81641 -14.3047 -1.81641c-23.3438 0 -47.4287 13.9785 -65.4688 38.793c-15.5176 21.3496 -27.1211 49.9521 -36.5098 90.0176c-26.7031 113.932 -21.8174 248.775 13.7461 379.684c15.7373 57.9346 34.4531 104.794 57.208 143.252
c17.4854 29.5449 35.4834 50.4307 55.0283 63.8584c23.2188 15.9463 40.415 13.207 50.7539 8.09277c29.043 -14.3584 33.0322 -59.3145 33.4004 -77.9775c0.501953 -25.6465 -2.36328 -50.9775 -8.52246 -75.29c-6.10547 -24.0928 -14.6084 -41.084 -25.9951 -51.9434
c-5.31543 -5.06836 -13.7354 -4.86719 -18.8037 0.448242s-4.86719 13.7314 0.448242 18.7998c7.65625 7.29883 13.7314 20.1338 18.5684 39.2266c5.57422 22.0107 8.16895 44.9678 7.70898 68.2393c-0.542969 27.4629 -8.0166 49.4316 -18.5986 54.6631
c-7.16992 3.54492 -16.957 -1.40234 -23.9062 -6.17871c-16.2881 -11.1895 -31.7256 -29.3359 -47.1973 -55.4805c-21.5244 -36.3721 -39.3291 -81.0811 -54.4355 -136.679c-34.4268 -126.725 -39.2256 -256.934 -13.5146 -366.644
c8.55273 -36.498 18.7617 -62.0615 32.1279 -80.4473c11.9043 -16.3721 31.6992 -32.041 51.5742 -26.874c20.833 5.41016 39.8379 31.7402 58.0947 80.499c20.1299 53.7549 36.2666 111.344 51.8672 167.037c11.2275 40.0732 22.8389 81.5107 35.9053 121.478
c7.80371 23.8643 14.9883 43.5 24.6963 61.7568c2.78516 5.24707 8.58301 7.79297 14.1338 6.77441c0.425781 -0.0302734 0.847656 -0.0146484 1.27734 -0.0869141c7.23828 -1.23438 12.1094 -8.09961 10.875 -15.3418
c-10.6387 -62.4404 -10.8291 -128.438 -11.0156 -192.266c-0.0341797 -11.5693 -0.0683594 -23.127 -0.15918 -34.666c-0.277344 -34.5225 -1.19336 -69.873 -4.2334 -104.855c53.2842 41.8213 98.8818 81.2295 108.088 101.313
c3.0625 6.67969 10.958 9.60938 17.6299 6.55078c6.67969 -3.0625 9.61328 -10.9541 6.55078 -17.6299c-12.2686 -26.7754 -64.9336 -72.043 -136.334 -127.014c-4.12598 -30.1904 -10.2695 -59.7656 -19.4268 -87.916zM202.822 -71.0645
c14.4795 15.7227 26.8936 39.291 36.8936 70.04c5.9043 18.1465 10.4902 37.0107 14.0576 56.3389c-22.5732 -17.0371 -46.5439 -34.8262 -71.3203 -53.1279c-38.4395 -28.3896 -78.0225 -57.627 -91.0283 -69.584c3.41602 -5.63086 8.24512 -10.7295 14.6172 -15.4678
c30.0312 -22.3184 69.8271 -17.4668 96.7803 11.8008z" />
    <glyph glyph-name="H" unicode="H" horiz-adv-x="500" 
d="M492.902 208.794c-14.9775 3.00195 -75.0518 -2.13184 -142.166 -9.04688c2.38574 -116.363 8.76465 -232.567 19.2627 -348.049c0.665039 -7.31445 -4.72656 -13.7812 -12.041 -14.4463c-0.410156 -0.0380859 -0.816406 -0.0566406 -1.21875 -0.0566406
c-6.80078 0 -12.5986 5.19043 -13.2295 12.0938c-10.4863 115.36 -16.8809 231.435 -19.3164 347.673c-22.7969 -2.42773 -45.8223 -4.96191 -67.666 -7.36328c-52.585 -5.7832 -106.325 -11.6914 -151.509 -15.7686c2.17285 -116.812 11.2842 -233.79 32.2383 -347.296
c1.33398 -7.21875 -3.44238 -14.1562 -10.665 -15.4902c-0.816406 -0.152344 -1.62598 -0.224609 -2.42773 -0.224609c-6.28809 0 -11.877 4.47949 -13.0625 10.8857c-21.1514 114.585 -30.3955 232.385 -32.6523 349.869
c-11.873 -0.93457 -22.8916 -1.68652 -32.7783 -2.19922c-5.07227 -0.261719 -10.2852 -0.44043 -15.5742 -0.44043c-25.9355 0 -53.8506 4.24023 -77.9736 23.2227c-5.77148 4.54395 -6.7666 12.9023 -2.22656 18.6738s12.9023 6.7666 18.6738 2.22656
c22.0596 -17.3604 49.4277 -18.4854 75.7207 -17.1211c10.1143 0.524414 21.4863 1.31055 33.7666 2.28711c-1.77441 170.602 10.4561 339.972 21.8467 497.282c0.532227 7.32129 6.83203 12.8154 14.2256 12.3027c7.3252 -0.52832 12.835 -6.89648 12.3027 -14.2217
c-11.2998 -156.091 -23.4355 -324.127 -21.7861 -493.087c44.4727 4.04688 97.2822 9.84863 148.979 15.5361c23.4014 2.57227 47.0986 5.17871 70.0479 7.62207c-2.43945 156.144 2.35547 312.5 14.4531 467.725c0.570312 7.32129 6.94629 12.7959 14.291 12.2227
c7.32129 -0.570312 12.793 -6.96875 12.2227 -14.29c-11.9727 -153.617 -16.7451 -308.348 -14.4004 -462.873c26.5391 2.73145 51.4102 5.11719 72.7441 6.80762c25.1035 1.99121 43.7363 2.90332 56.875 2.82324c13.6094 -0.0947266 32.25 -0.223633 35.0127 -14.9463
c1.35254 -7.21875 -3.40039 -14.168 -10.6191 -15.5205c-4.23242 -0.797852 -8.37793 0.516602 -11.3496 3.1875z" />
    <glyph glyph-name="I" unicode="I" horiz-adv-x="316" 
d="M148.254 664.991c-1.60352 -63.7441 -4.45117 -129.859 -7.22852 -193.919c-5.91602 -136.964 -12.0371 -278.594 -6.93066 -412.324c2.04395 -53.4736 6.41699 -115.777 23.3857 -172.42c4.32422 -14.4346 11.4258 -34.5947 23.1016 -42.9805
c12.8457 -9.22559 29.9131 -0.296875 40.3311 11.9111c14.4229 16.9043 23.165 41.9619 30.8857 66.1797c27.3066 85.6592 46.5098 173.526 57.0801 261.154c0.87793 7.29102 7.52344 12.4854 14.7959 11.6113c7.29492 -0.87793 12.4922 -7.50391 11.6104 -14.7949
c-10.7676 -89.2842 -30.3311 -178.797 -58.1475 -266.049c-8.54492 -26.8018 -18.3633 -54.7012 -35.9932 -75.3633c-14.001 -16.4141 -31.7139 -25.1074 -48.5879 -25.1074c-9.72656 0 -19.1797 2.8877 -27.4854 8.85254
c-18.0742 12.9795 -27.166 37.2549 -33.0664 56.9512c-17.8232 59.4961 -22.3789 123.894 -24.4834 179.039c-5.14453 134.813 0.999023 276.99 6.9375 414.486c2.70508 62.5889 5.47852 127.139 7.09668 189.401c-14.252 -1.88867 -27.6182 -3.77344 -37.9639 -5.23242
c-34.9473 -4.92773 -50.7725 -7.06641 -59.0967 -7.06641c-6.06738 0 -8.14551 1.13574 -10.7441 3.15723c-5.79785 4.50586 -6.84668 12.8613 -2.33691 18.6592c3.32422 4.27832 8.74219 5.96875 13.6855 4.75293c6.61133 0.0419922 32.1436 3.64355 54.7812 6.83496
c125.239 17.6641 148.386 17.7705 154.807 0.707031c2.58789 -6.87695 -0.888672 -14.5439 -7.76172 -17.1318c-4.85156 -1.82422 -10.1025 -0.630859 -13.6777 2.64844c-9.06934 1.88086 -36.2246 -0.535156 -64.9941 -3.95801z" />
    <glyph glyph-name="I" unicode="&#xcf;" horiz-adv-x="316" 
d="M148.254 664.991c-1.60352 -63.7441 -4.45117 -129.859 -7.22852 -193.919c-5.91602 -136.964 -12.0371 -278.594 -6.93066 -412.324c2.04395 -53.4736 6.41699 -115.777 23.3857 -172.42c4.32422 -14.4346 11.4258 -34.5947 23.1016 -42.9805
c12.8457 -9.22559 29.9131 -0.296875 40.3311 11.9111c14.4229 16.9043 23.165 41.9619 30.8857 66.1797c27.3066 85.6592 46.5098 173.526 57.0801 261.154c0.87793 7.29102 7.52344 12.4854 14.7959 11.6113c7.29492 -0.87793 12.4922 -7.50391 11.6104 -14.7949
c-10.7676 -89.2842 -30.3311 -178.797 -58.1475 -266.049c-8.54492 -26.8018 -18.3633 -54.7012 -35.9932 -75.3633c-14.001 -16.4141 -31.7139 -25.1074 -48.5879 -25.1074c-9.72656 0 -19.1797 2.8877 -27.4854 8.85254
c-18.0742 12.9795 -27.166 37.2549 -33.0664 56.9512c-17.8232 59.4961 -22.3789 123.894 -24.4834 179.039c-5.14453 134.813 0.999023 276.99 6.9375 414.486c2.70508 62.5889 5.47852 127.139 7.09668 189.401c-14.252 -1.88867 -27.6182 -3.77344 -37.9639 -5.23242
c-34.9473 -4.92773 -50.7725 -7.06641 -59.0967 -7.06641c-6.06738 0 -8.14551 1.13574 -10.7441 3.15723c-5.79785 4.50586 -6.84668 12.8613 -2.33691 18.6592c3.32422 4.27832 8.74219 5.96875 13.6855 4.75293c6.61133 0.0419922 32.1436 3.64355 54.7812 6.83496
c125.239 17.6641 148.386 17.7705 154.807 0.707031c2.58789 -6.87695 -0.888672 -14.5439 -7.76172 -17.1318c-4.85156 -1.82422 -10.1025 -0.630859 -13.6777 2.64844c-9.06934 1.88086 -36.2246 -0.535156 -64.9941 -3.95801z" />
    <glyph glyph-name="I" unicode="&#xce;" horiz-adv-x="316" 
d="M148.254 664.991c-1.60352 -63.7441 -4.45117 -129.859 -7.22852 -193.919c-5.91602 -136.964 -12.0371 -278.594 -6.93066 -412.324c2.04395 -53.4736 6.41699 -115.777 23.3857 -172.42c4.32422 -14.4346 11.4258 -34.5947 23.1016 -42.9805
c12.8457 -9.22559 29.9131 -0.296875 40.3311 11.9111c14.4229 16.9043 23.165 41.9619 30.8857 66.1797c27.3066 85.6592 46.5098 173.526 57.0801 261.154c0.87793 7.29102 7.52344 12.4854 14.7959 11.6113c7.29492 -0.87793 12.4922 -7.50391 11.6104 -14.7949
c-10.7676 -89.2842 -30.3311 -178.797 -58.1475 -266.049c-8.54492 -26.8018 -18.3633 -54.7012 -35.9932 -75.3633c-14.001 -16.4141 -31.7139 -25.1074 -48.5879 -25.1074c-9.72656 0 -19.1797 2.8877 -27.4854 8.85254
c-18.0742 12.9795 -27.166 37.2549 -33.0664 56.9512c-17.8232 59.4961 -22.3789 123.894 -24.4834 179.039c-5.14453 134.813 0.999023 276.99 6.9375 414.486c2.70508 62.5889 5.47852 127.139 7.09668 189.401c-14.252 -1.88867 -27.6182 -3.77344 -37.9639 -5.23242
c-34.9473 -4.92773 -50.7725 -7.06641 -59.0967 -7.06641c-6.06738 0 -8.14551 1.13574 -10.7441 3.15723c-5.79785 4.50586 -6.84668 12.8613 -2.33691 18.6592c3.32422 4.27832 8.74219 5.96875 13.6855 4.75293c6.61133 0.0419922 32.1436 3.64355 54.7812 6.83496
c125.239 17.6641 148.386 17.7705 154.807 0.707031c2.58789 -6.87695 -0.888672 -14.5439 -7.76172 -17.1318c-4.85156 -1.82422 -10.1025 -0.630859 -13.6777 2.64844c-9.06934 1.88086 -36.2246 -0.535156 -64.9941 -3.95801z" />
    <glyph glyph-name="I" unicode="&#xcd;" horiz-adv-x="316" 
d="M148.254 664.991c-1.60352 -63.7441 -4.45117 -129.859 -7.22852 -193.919c-5.91602 -136.964 -12.0371 -278.594 -6.93066 -412.324c2.04395 -53.4736 6.41699 -115.777 23.3857 -172.42c4.32422 -14.4346 11.4258 -34.5947 23.1016 -42.9805
c12.8457 -9.22559 29.9131 -0.296875 40.3311 11.9111c14.4229 16.9043 23.165 41.9619 30.8857 66.1797c27.3066 85.6592 46.5098 173.526 57.0801 261.154c0.87793 7.29102 7.52344 12.4854 14.7959 11.6113c7.29492 -0.87793 12.4922 -7.50391 11.6104 -14.7949
c-10.7676 -89.2842 -30.3311 -178.797 -58.1475 -266.049c-8.54492 -26.8018 -18.3633 -54.7012 -35.9932 -75.3633c-14.001 -16.4141 -31.7139 -25.1074 -48.5879 -25.1074c-9.72656 0 -19.1797 2.8877 -27.4854 8.85254
c-18.0742 12.9795 -27.166 37.2549 -33.0664 56.9512c-17.8232 59.4961 -22.3789 123.894 -24.4834 179.039c-5.14453 134.813 0.999023 276.99 6.9375 414.486c2.70508 62.5889 5.47852 127.139 7.09668 189.401c-14.252 -1.88867 -27.6182 -3.77344 -37.9639 -5.23242
c-34.9473 -4.92773 -50.7725 -7.06641 -59.0967 -7.06641c-6.06738 0 -8.14551 1.13574 -10.7441 3.15723c-5.79785 4.50586 -6.84668 12.8613 -2.33691 18.6592c3.32422 4.27832 8.74219 5.96875 13.6855 4.75293c6.61133 0.0419922 32.1436 3.64355 54.7812 6.83496
c125.239 17.6641 148.386 17.7705 154.807 0.707031c2.58789 -6.87695 -0.888672 -14.5439 -7.76172 -17.1318c-4.85156 -1.82422 -10.1025 -0.630859 -13.6777 2.64844c-9.06934 1.88086 -36.2246 -0.535156 -64.9941 -3.95801z" />
    <glyph glyph-name="J" unicode="J" horiz-adv-x="427" 
d="M-35.0049 -58.7852c-25.0078 95.6182 146.14 167.561 294.536 219.223c8.67383 162.843 -5.50586 327.376 -19.5645 487.399c-14.0127 -0.964844 -27.8086 -1.94922 -40.7539 -2.87207c-45.6172 -3.25195 -88.6992 -6.32617 -121.732 -7.64062
c-11 -0.436523 -20.3584 -0.702148 -28.2842 -0.702148c-29.3359 0 -39.123 3.64746 -40.54 15.7637c-0.854492 7.29492 4.36621 13.8984 11.6611 14.7529c3.77637 0.44043 7.37402 -0.745117 10.0791 -3.00977c17.5117 -3.29395 100.086 2.5957 166.919 7.36426
c189.317 13.5068 205.328 11.5312 210.214 -5.62305c2.00977 -7.06348 -2.08594 -14.4229 -9.14941 -16.4326c-4.59766 -1.31055 -9.31641 -0.0341797 -12.6064 2.96387c-13.1348 3.19531 -64.9297 0.72168 -119.271 -2.79297
c13.8184 -157.314 27.7285 -318.976 20.1221 -479.861c15.126 5.13672 29.8564 10.0537 43.9414 14.7578c40.5479 13.541 75.5674 25.2324 87.7676 32.1699c6.38281 3.63184 14.498 1.39355 18.1299 -4.98926c3.62891 -6.38281 1.39453 -14.498 -4.98828 -18.1309
c-14.4609 -8.22168 -47.1934 -19.1494 -92.4912 -34.2754c-16.7178 -5.58105 -34.9209 -11.6602 -53.9521 -18.1992c-1.41309 -22.208 -3.26367 -44.3936 -5.60449 -66.5449c-4.80664 -45.4648 -13.0742 -104.117 -34.541 -154.54
c-23.1426 -54.3633 -59.1279 -91.625 -98.7266 -102.229c-8.46875 -2.26855 -17.1963 -3.40039 -26.1406 -3.40039c-18.3555 0 -37.6533 4.76855 -57.6543 14.2744c-49.2988 23.4355 -84.7861 64.4658 -97.3701 112.575zM252.988 77.3311
c1.90332 18.0439 3.48145 36.124 4.76172 54.2324c-53.0596 -18.7881 -109.945 -40.833 -157.842 -65.4688c-81.9209 -42.1406 -118.65 -81.8906 -109.167 -118.149c15.042 -57.5166 63.0938 -85.7959 83.0527 -95.2832c23.8799 -11.3525 45.9131 -14.4492 65.499 -9.20605
c31.1748 8.35156 61.5059 40.8564 81.1338 86.9561c20.084 47.1748 27.9531 103.297 32.5615 146.919z" />
    <glyph glyph-name="K" unicode="K" horiz-adv-x="301" 
d="M52.1455 704.727c7.29492 -0.847656 12.5186 -7.44531 11.6709 -14.748c-14.6543 -125.995 -22.8271 -253.194 -24.6133 -380.568c61.6621 169.499 131.819 357.92 165.414 397.511c6.36035 7.49609 25.7227 30.3086 48.626 20.7793
c6.77832 -2.81934 9.99316 -10.6006 7.17383 -17.3828c-2.82324 -6.78223 -10.6045 -9.99316 -17.3867 -7.17383c-0.504883 0.208984 -5.35645 1.62598 -18.1299 -13.4316c-33.9785 -40.0469 -118.096 -271.915 -179.519 -441.221
c-2.21484 -6.10938 -4.36523 -12.04 -6.45898 -17.7959c0.337891 -49.7891 1.65625 -99.5742 3.9668 -149.291c28.3789 3.84863 60.1621 7.41211 91.0713 9.87012c145.141 11.5312 162.144 -8.19922 168.546 -15.627c4.79102 -5.5625 4.16797 -13.959 -1.39453 -18.7539
s-13.959 -4.17188 -18.7539 1.39453c-5.41016 6.27637 -45.7832 15.4707 -159.871 5.33008c-28.2344 -2.50781 -54.9375 -5.63477 -78.2627 -8.83789c1.32227 -24.7041 2.83398 -49.3936 4.64648 -74.0527c2.50391 -34.1045 5.52832 -68.752 8.4541 -102.264
l2.12793 -24.3545c0.638672 -7.31445 -4.77539 -13.7656 -12.0898 -14.4043c-0.395508 -0.0341797 -0.787109 -0.0498047 -1.1748 -0.0498047c-6.82031 0 -12.6299 5.2207 -13.2344 12.1436l-2.09766 24.0244c-2.96387 33.9297 -5.99609 68.6719 -8.51562 102.955
c-1.7666 24.0166 -3.2373 48.0674 -4.54395 72.1299c-26.0146 -4.06934 -45.252 -7.90723 -53.7441 -10.3613c-2.36719 -2.7207 -4.27051 -3.32129 -6.5918 -4.05078c-1.38281 -0.436523 -2.7959 -0.649414 -4.19824 -0.649414
c-2.7998 0 -5.55078 0.858398 -7.91406 2.52246c-4.47559 3.15332 -6.67969 8.41211 -5.75684 13.7236c0.797852 4.6084 3.38184 7.625 6.62305 9.72949c9.62402 18.5947 37.4443 94.5918 66.0693 173.438c-0.854492 153.146 7.49707 306.331 25.1152 457.794
c0.847656 7.29492 7.45898 12.5156 14.7461 11.6719zM16.4297 77.5918c-1.30664 27.7207 -2.33594 55.4561 -3.03516 83.208c-16.0146 -43.542 -26.6191 -71.5098 -34.0361 -89.5684c10.4258 2.03613 23.0479 4.20215 37.0713 6.36035z" />
    <glyph glyph-name="L" unicode="L" horiz-adv-x="400" 
d="M416.564 232.993c6.77051 -2.8418 9.95703 -10.6396 7.11133 -17.4102c-3.35156 -7.97559 -17.2197 -21.9121 -75.082 -78.0645c-46.8135 -45.4268 -108.631 -105.413 -161.919 -162.915c-3.60547 -39.8828 -10.2959 -75.3135 -20.2051 -107.248
c-17.542 -56.5439 -42.6338 -86.4727 -72.5703 -86.5566h-0.272461c-27.9375 0 -38.6602 11.9004 -42.7295 21.9004c-13.1426 32.2881 27.4209 93.1826 110.015 182.9c1.30371 16.7705 2.05957 34.377 2.28418 52.8877c1.0293 85.4814 -9.24414 172.151 -19.1836 255.968
c-3.07031 25.9199 -6.1748 52.0752 -8.96777 78.4023c-32.7822 -21.0908 -67.791 -27.6299 -99.8438 -18.3818c-27.3945 7.90332 -48.7705 27.4482 -58.6455 53.6191c-2.59082 6.86914 0.874023 14.54 7.74707 17.1348c6.86914 2.59473 14.54 -0.874023 17.1348 -7.74707
c6.88477 -18.249 21.8779 -31.9004 41.1338 -37.4551c27.6338 -7.96777 58.9307 -0.0605469 88.1338 22.2695c0.421875 0.323242 0.847656 0.650391 1.26953 0.981445c-5.77539 60.8945 -9.22949 122.515 -6.26172 183.986c2.11621 43.7285 7.18848 78.1445 15.9766 108.309
c8.42383 28.918 19.4766 49.8838 33.8008 64.0859c19.8984 19.7422 46.8896 24.3096 67.1562 11.3643c26.3115 -16.8018 34.1309 -55.7354 36.4521 -77.4453c8.9707 -83.9229 -23.8682 -162.861 -52.999 -214.307c-21.2852 -37.5918 -43.0869 -66.3271 -66.2939 -87.3076
c3.18359 -31.6953 6.91895 -63.2119 10.6162 -94.375c10.0381 -84.6602 20.418 -172.204 19.3652 -259.422c-0.0908203 -7.59473 -0.273438 -15.0498 -0.539062 -22.3643c39.625 41.5283 86.876 88.4482 140.825 140.802c33.3857 32.3984 64.9365 63.0146 69.3477 69.8691
c3.04004 6.36035 10.5742 9.27832 17.1436 6.51953zM152.282 585.984c-2.56445 -53.0332 -0.194336 -106.52 4.32715 -159.675c15.7949 17.3105 31.1221 39.1807 46.3467 66.0693c27.2119 48.0518 57.9189 121.474 49.7002 198.375
c-3.04004 28.4434 -12.1357 50.0742 -24.3242 57.8555c-3.52246 2.24512 -7.23828 3.19531 -10.9424 3.19531c-8.68164 0 -17.2988 -5.20117 -23.1689 -11.0254c-10.8818 -10.791 -19.9629 -28.5039 -26.9961 -52.6416
c-8.1875 -28.1084 -12.9326 -60.5674 -14.9424 -102.153zM141.065 -124.766c6.23145 20.084 11.1211 41.71 14.708 65.1455c-83.6191 -95.4473 -82.6387 -121.777 -80.2451 -127.655c1.36816 -3.36621 8.30176 -5.27344 18.2939 -5.33008
c16.418 0.0419922 34.0781 25.4033 47.2432 67.8398z" />
    <glyph glyph-name="M" unicode="M" horiz-adv-x="622" 
d="M634.718 211.248c6.95312 -2.37109 10.6719 -9.9209 8.30859 -16.874c-18.2031 -53.4395 -37.0254 -108.703 -60.7646 -159.779c-14.875 -32.0107 -34.2295 -51.4873 -55.9736 -56.3203c-2.78906 -0.619141 -5.57031 -0.926758 -8.31738 -0.926758
c-7.98633 0 -15.707 2.59863 -22.6904 7.69336c-44.5488 32.501 -60.4609 170.871 -78.0752 362.807c-5.61523 61.1533 -10.916 118.917 -17.6104 163.337c-8.85254 58.7363 -17.2041 71.7568 -19.9629 74.5498c-9.59375 -1.37891 -36.665 -19.8525 -58.8047 -173.272
c-14.9014 -103.289 -22.2568 -229.242 -27.626 -321.209c-1.7207 -29.5225 -3.21387 -55.0439 -4.69141 -75.375c0.0869141 -2.55664 0.163086 -5.01855 0.219727 -7.2832c0.178711 -7.34082 -5.62695 -13.4395 -12.9678 -13.6221
c-7.38574 -0.201172 -13.4424 5.62695 -13.6211 12.9678c-1.35645 55.1533 -12.835 203.907 -33.1543 348.037c-33.793 239.718 -63.4062 260.391 -66.9355 262.021c-3.77246 -1.81641 -37.0488 -25.9775 -65.0098 -317.486
c-15.3955 -160.514 -21.9766 -334.337 -17.5732 -382.519c0.0185547 -0.216797 -0.015625 -0.421875 -0.0078125 -0.638672c0.0224609 -0.470703 0.0185547 -0.93457 -0.0117188 -1.39844c-0.0263672 -0.421875 -0.0683594 -0.835938 -0.132812 -1.25
c-0.0722656 -0.44043 -0.163086 -0.870117 -0.277344 -1.2959c-0.110352 -0.417969 -0.231445 -0.824219 -0.379883 -1.22363s-0.31543 -0.783203 -0.501953 -1.16699c-0.19043 -0.387695 -0.387695 -0.763672 -0.612305 -1.12891
c-0.220703 -0.361328 -0.459961 -0.707031 -0.714844 -1.04492s-0.516602 -0.665039 -0.801758 -0.980469c-0.289062 -0.319336 -0.592773 -0.615234 -0.912109 -0.904297c-0.31543 -0.285156 -0.634766 -0.554688 -0.976562 -0.80957
s-0.695312 -0.486328 -1.06348 -0.710938c-0.379883 -0.231445 -0.759766 -0.44043 -1.16211 -0.630859c-0.379883 -0.178711 -0.771484 -0.337891 -1.1709 -0.482422c-0.433594 -0.15918 -0.874023 -0.291992 -1.33008 -0.40625
c-0.208984 -0.0498047 -0.399414 -0.144531 -0.616211 -0.186523c-0.239258 -0.0458984 -0.470703 -0.0341797 -0.709961 -0.0683594c-0.224609 -0.0341797 -0.429688 -0.110352 -0.657227 -0.128906c-0.399414 -0.0341797 -0.794922 -0.0527344 -1.19043 -0.0527344
c-0.0117188 0 -0.0234375 -0.00390625 -0.0351562 -0.00390625c-0.816406 0 -1.61426 0.0839844 -2.40039 0.228516c-0.265625 0.0498047 -0.516602 0.144531 -0.77832 0.208984c-0.501953 0.125 -1.00391 0.246094 -1.48242 0.428711
c-0.303711 0.114258 -0.588867 0.270508 -0.884766 0.407227c-0.414062 0.19043 -0.824219 0.380859 -1.21582 0.612305c-0.289062 0.170898 -0.554688 0.368164 -0.828125 0.561523c-0.365234 0.254883 -0.726562 0.509766 -1.06445 0.802734
c-0.254883 0.220703 -0.486328 0.459961 -0.725586 0.699219c-0.311523 0.311523 -0.615234 0.630859 -0.896484 0.976562c-0.220703 0.269531 -0.414062 0.546875 -0.611328 0.832031c-0.24707 0.357422 -0.482422 0.725586 -0.695312 1.10938
c-0.178711 0.31543 -0.334961 0.642578 -0.483398 0.972656c-0.178711 0.391602 -0.334961 0.787109 -0.475586 1.20117c-0.12207 0.357422 -0.228516 0.722656 -0.319336 1.09473c-0.0498047 0.201172 -0.129883 0.383789 -0.171875 0.588867
c-46.6885 236.157 -58.125 488.907 -33.083 730.932c0.755859 7.30273 7.30273 12.6182 14.5977 11.8584c7.30664 -0.755859 12.6143 -7.29102 11.8584 -14.5977c-19.457 -188.049 -16.5547 -382.602 7.92188 -570.635c2.73926 62.5967 7.42773 136.159 14.0312 209.178
c12.5723 139.046 35.1377 313.101 71.2402 352.657c6.70996 7.35156 14.21 11.0791 22.291 11.0791c22.4053 0.00390625 39.3057 -26.915 56.502 -90.0059c12.3564 -45.332 24.3594 -108.324 35.6777 -187.221c7.86133 -54.793 14.4463 -110.475 19.6973 -161.779
c18.5986 259.372 45.2637 406.747 106.986 406.747c35.5557 0 44.9629 -67.9502 62.7861 -262.143c12.2344 -133.286 28.9863 -315.825 67.2666 -343.752c3.24902 -2.37109 6.11035 -3.05859 9.56445 -2.28711c13.165 2.92969 26.5283 17.6904 37.627 41.5664
c23.1387 49.7891 41.7295 104.369 59.709 157.147c2.36719 6.95312 9.9209 10.665 16.874 8.29785z" />
    <glyph glyph-name="N" unicode="N" horiz-adv-x="434" 
d="M454.915 196.047c-14.7158 -47.6992 -32.7002 -93.9268 -53.4717 -137.424c-10.7598 -22.5312 -23.9102 -47.9648 -43.8877 -64.626c-24.2598 -20.2363 -54.3477 -21.4219 -74.876 -2.95215c-19.7764 17.793 -26.6074 49.2607 -30.6807 77.7002
c-7.58008 52.874 -11.8887 136.607 -16.4521 225.257c-4.20996 81.7275 -8.56055 166.239 -15.7832 232.875c-10.418 96.1084 -22.7773 112.044 -26.1318 114.635c-6.83105 -0.930664 -44.1953 -18.3252 -82.6123 -278.324
c-22.0449 -149.191 -36.7676 -326.598 -42.6836 -433.28c-0.00390625 -0.015625 -0.00390625 -0.0273438 -0.00390625 -0.0429688c-0.00390625 -0.0458984 -0.00390625 -0.0957031 -0.0078125 -0.141602c-0.0185547 -0.361328 -0.109375 -0.695312 -0.15918 -1.04883
c-0.0683594 -0.490234 -0.106445 -0.984375 -0.224609 -1.45508c-0.125 -0.504883 -0.326172 -0.972656 -0.508789 -1.45117c-0.118164 -0.311523 -0.198242 -0.634766 -0.338867 -0.93457c-0.289062 -0.619141 -0.650391 -1.18945 -1.02637 -1.75195
c-0.0908203 -0.136719 -0.155273 -0.289062 -0.25 -0.421875c-0.490234 -0.676758 -1.04492 -1.30762 -1.65332 -1.88086c-0.205078 -0.197266 -0.456055 -0.349609 -0.676758 -0.532227c-0.425781 -0.349609 -0.84375 -0.710938 -1.30762 -1.00684
c-0.277344 -0.174805 -0.588867 -0.299805 -0.881836 -0.456055c-0.459961 -0.24707 -0.916016 -0.505859 -1.40625 -0.699219c-0.289062 -0.114258 -0.604492 -0.178711 -0.904297 -0.269531c-0.52832 -0.166992 -1.06055 -0.333984 -1.61523 -0.432617
c-0.0722656 -0.0117188 -0.132812 -0.0419922 -0.205078 -0.0537109c-0.699219 -0.114258 -1.39453 -0.166992 -2.08203 -0.166992c-0.0078125 0 -0.015625 -0.00390625 -0.0234375 -0.00390625h-0.00390625h-0.0234375
c-0.015625 0 -0.0273438 0.00390625 -0.0429688 0.00390625c-0.224609 0 -0.449219 0.0078125 -0.676758 0.0195312c-0.216797 0.0117188 -0.417969 0.0761719 -0.630859 0.0986328c-0.539062 0.0566406 -1.07129 0.128906 -1.5918 0.25
c-0.330078 0.0761719 -0.645508 0.166992 -0.964844 0.265625c-0.470703 0.144531 -0.922852 0.311523 -1.37109 0.508789c-0.323242 0.140625 -0.638672 0.285156 -0.946289 0.448242c-0.417969 0.224609 -0.813477 0.479492 -1.20898 0.745117
c-0.28125 0.19043 -0.566406 0.373047 -0.828125 0.585938c-0.399414 0.31543 -0.760742 0.672852 -1.12207 1.03418c-0.212891 0.208984 -0.433594 0.40625 -0.630859 0.630859c-0.383789 0.444336 -0.717773 0.926758 -1.04492 1.4209
c-0.125 0.19043 -0.273438 0.361328 -0.387695 0.558594c-0.383789 0.649414 -0.707031 1.34082 -0.976562 2.0625c-0.0263672 0.0683594 -0.0644531 0.125 -0.0869141 0.189453c-0.265625 0.755859 -0.470703 1.54199 -0.603516 2.3623
c-0.0078125 0.0458984 -0.015625 0.0957031 -0.0234375 0.141602c-0.00390625 0.015625 -0.0078125 0.03125 -0.0078125 0.0429688c-38.6221 239.543 -45.3477 484.071 -19.9863 726.791c0.763672 7.30273 7.29492 12.6143 14.6094 11.8428
c7.30273 -0.763672 12.6064 -7.30664 11.8428 -14.6094c-20.6348 -197.521 -19.7764 -396.241 2.38965 -592.439c7.78906 95.4316 19.248 207.414 33.96 306.965c39.2832 265.851 79.0293 301.083 109.41 301.083c0.227539 0 0.452148 0 0.679688 -0.00390625
c43.6025 -0.745117 53.9941 -114.164 67.3076 -372.78c4.5332 -88.0264 8.81543 -171.175 16.2207 -222.852c3.19922 -22.3301 8.60547 -49.5234 22.1396 -61.7012c12.6865 -11.4102 29.5068 -5.19043 40.0547 3.60547c15.1064 12.5996 26.6719 34.2002 36.9229 55.6631
c20.21 42.3184 37.7256 87.335 52.0615 133.795c2.16602 7.01758 9.60938 10.9502 16.627 8.78809c7.02148 -2.16602 10.9541 -9.60938 8.78809 -16.627z" />
    <glyph glyph-name="O" unicode="O" horiz-adv-x="415" 
d="M48.0283 641.017c25.8936 31.8438 59.6582 48.1465 92.6797 44.7197c29.3398 -3.04688 58.585 -22.041 82.3428 -53.4668c17.9521 -23.7578 33.1465 -54.3057 47.8086 -96.1416c34.5264 -98.498 49.9756 -210.287 45.2227 -322.464
c36.6533 0.755859 73.6641 5.4707 104.497 15.8662c6.96094 2.34766 14.5068 -1.39453 16.8516 -8.35547c2.34766 -6.96094 -1.39062 -14.5068 -8.35156 -16.8516c-34.123 -11.5049 -74.6406 -16.6152 -114.501 -17.2842
c-1.62598 -22.873 -4.08789 -45.7236 -7.4082 -68.4297c-14.1953 -97.1113 -42.7754 -167.614 -84.9531 -209.553c-21.9004 -21.7822 -45.3242 -33.1504 -68.1094 -33.1504c-2.00195 0 -3.99707 0.0869141 -5.98438 0.261719
c-16.4746 1.45508 -33.4277 9.30078 -49.0205 22.6865c-54.7432 46.9805 -70.2373 136.998 -66.4873 205.571c3.25977 59.6562 12.2793 105.482 34.7803 169.667c-16.9648 18.8076 -31.2207 40.1719 -42.1865 63.5312c-26.8398 57.1748 -35.248 128.309 -23.0703 195.164
c7.95605 43.668 23.8223 81.0928 45.8896 108.229zM280.844 122.457c3.14551 21.4971 5.50293 43.1328 7.08008 64.7822c-53.9375 1.68652 -103.685 10.9531 -131.056 22.7393c-25.1719 10.8359 -48.2314 25.5176 -68.4717 43.3525
c-18.5869 -55.4912 -26.3262 -97.2861 -29.2285 -150.354c-4.27832 -78.2168 18.1953 -150.419 57.2539 -183.941c11.3525 -9.74902 23.123 -15.4102 34.0352 -16.375c16.3564 -1.42871 35.168 7.52246 52.9951 25.2549c38.0098 37.7969 64.0479 103.247 77.3916 194.541z
M201.827 616.222c-19.2637 25.4834 -41.9463 40.7725 -63.877 43.0557c-23.5723 2.44727 -49.4541 -10.6533 -69.2871 -35.0381c-18.9746 -23.333 -33.3105 -57.502 -40.3584 -96.2148c-11.0449 -60.6328 -3.19922 -127.584 20.9805 -179.098
c7.77734 -16.5693 17.3936 -32.0186 28.6025 -46.0996c1.9873 5.24707 4.05469 10.623 6.20508 16.1396c2.66309 6.84277 10.3682 10.2285 17.2188 7.56152c6.84277 -2.66699 10.2246 -10.376 7.55762 -17.2188c-3.90234 -10.0078 -7.51953 -19.5371 -10.8633 -28.6562
c19.9814 -19.3467 43.4277 -35.0762 69.3779 -46.2471c24.7959 -10.6768 71.5146 -19.127 122.082 -20.624c4.75684 109.152 -10.1787 217.875 -43.709 313.539c-13.7275 39.1611 -27.6865 67.4062 -43.9297 88.9004z" />
    <glyph glyph-name="O" unicode="&#xd6;" horiz-adv-x="415" 
d="M48.0283 641.017c25.8936 31.8438 59.6582 48.1465 92.6797 44.7197c29.3398 -3.04688 58.585 -22.041 82.3428 -53.4668c17.9521 -23.7578 33.1465 -54.3057 47.8086 -96.1416c34.5264 -98.498 49.9756 -210.287 45.2227 -322.464
c36.6533 0.755859 73.6641 5.4707 104.497 15.8662c6.96094 2.34766 14.5068 -1.39453 16.8516 -8.35547c2.34766 -6.96094 -1.39062 -14.5068 -8.35156 -16.8516c-34.123 -11.5049 -74.6406 -16.6152 -114.501 -17.2842
c-1.62598 -22.873 -4.08789 -45.7236 -7.4082 -68.4297c-14.1953 -97.1113 -42.7754 -167.614 -84.9531 -209.553c-21.9004 -21.7822 -45.3242 -33.1504 -68.1094 -33.1504c-2.00195 0 -3.99707 0.0869141 -5.98438 0.261719
c-16.4746 1.45508 -33.4277 9.30078 -49.0205 22.6865c-54.7432 46.9805 -70.2373 136.998 -66.4873 205.571c3.25977 59.6562 12.2793 105.482 34.7803 169.667c-16.9648 18.8076 -31.2207 40.1719 -42.1865 63.5312c-26.8398 57.1748 -35.248 128.309 -23.0703 195.164
c7.95605 43.668 23.8223 81.0928 45.8896 108.229zM280.844 122.457c3.14551 21.4971 5.50293 43.1328 7.08008 64.7822c-53.9375 1.68652 -103.685 10.9531 -131.056 22.7393c-25.1719 10.8359 -48.2314 25.5176 -68.4717 43.3525
c-18.5869 -55.4912 -26.3262 -97.2861 -29.2285 -150.354c-4.27832 -78.2168 18.1953 -150.419 57.2539 -183.941c11.3525 -9.74902 23.123 -15.4102 34.0352 -16.375c16.3564 -1.42871 35.168 7.52246 52.9951 25.2549c38.0098 37.7969 64.0479 103.247 77.3916 194.541z
M201.827 616.222c-19.2637 25.4834 -41.9463 40.7725 -63.877 43.0557c-23.5723 2.44727 -49.4541 -10.6533 -69.2871 -35.0381c-18.9746 -23.333 -33.3105 -57.502 -40.3584 -96.2148c-11.0449 -60.6328 -3.19922 -127.584 20.9805 -179.098
c7.77734 -16.5693 17.3936 -32.0186 28.6025 -46.0996c1.9873 5.24707 4.05469 10.623 6.20508 16.1396c2.66309 6.84277 10.3682 10.2285 17.2188 7.56152c6.84277 -2.66699 10.2246 -10.376 7.55762 -17.2188c-3.90234 -10.0078 -7.51953 -19.5371 -10.8633 -28.6562
c19.9814 -19.3467 43.4277 -35.0762 69.3779 -46.2471c24.7959 -10.6768 71.5146 -19.127 122.082 -20.624c4.75684 109.152 -10.1787 217.875 -43.709 313.539c-13.7275 39.1611 -27.6865 67.4062 -43.9297 88.9004z" />
    <glyph glyph-name="O" unicode="&#xd5;" horiz-adv-x="415" 
d="M48.0283 641.017c25.8936 31.8438 59.6582 48.1465 92.6797 44.7197c29.3398 -3.04688 58.585 -22.041 82.3428 -53.4668c17.9521 -23.7578 33.1465 -54.3057 47.8086 -96.1416c34.5264 -98.498 49.9756 -210.287 45.2227 -322.464
c36.6533 0.755859 73.6641 5.4707 104.497 15.8662c6.96094 2.34766 14.5068 -1.39453 16.8516 -8.35547c2.34766 -6.96094 -1.39062 -14.5068 -8.35156 -16.8516c-34.123 -11.5049 -74.6406 -16.6152 -114.501 -17.2842
c-1.62598 -22.873 -4.08789 -45.7236 -7.4082 -68.4297c-14.1953 -97.1113 -42.7754 -167.614 -84.9531 -209.553c-21.9004 -21.7822 -45.3242 -33.1504 -68.1094 -33.1504c-2.00195 0 -3.99707 0.0869141 -5.98438 0.261719
c-16.4746 1.45508 -33.4277 9.30078 -49.0205 22.6865c-54.7432 46.9805 -70.2373 136.998 -66.4873 205.571c3.25977 59.6562 12.2793 105.482 34.7803 169.667c-16.9648 18.8076 -31.2207 40.1719 -42.1865 63.5312c-26.8398 57.1748 -35.248 128.309 -23.0703 195.164
c7.95605 43.668 23.8223 81.0928 45.8896 108.229zM280.844 122.457c3.14551 21.4971 5.50293 43.1328 7.08008 64.7822c-53.9375 1.68652 -103.685 10.9531 -131.056 22.7393c-25.1719 10.8359 -48.2314 25.5176 -68.4717 43.3525
c-18.5869 -55.4912 -26.3262 -97.2861 -29.2285 -150.354c-4.27832 -78.2168 18.1953 -150.419 57.2539 -183.941c11.3525 -9.74902 23.123 -15.4102 34.0352 -16.375c16.3564 -1.42871 35.168 7.52246 52.9951 25.2549c38.0098 37.7969 64.0479 103.247 77.3916 194.541z
M201.827 616.222c-19.2637 25.4834 -41.9463 40.7725 -63.877 43.0557c-23.5723 2.44727 -49.4541 -10.6533 -69.2871 -35.0381c-18.9746 -23.333 -33.3105 -57.502 -40.3584 -96.2148c-11.0449 -60.6328 -3.19922 -127.584 20.9805 -179.098
c7.77734 -16.5693 17.3936 -32.0186 28.6025 -46.0996c1.9873 5.24707 4.05469 10.623 6.20508 16.1396c2.66309 6.84277 10.3682 10.2285 17.2188 7.56152c6.84277 -2.66699 10.2246 -10.376 7.55762 -17.2188c-3.90234 -10.0078 -7.51953 -19.5371 -10.8633 -28.6562
c19.9814 -19.3467 43.4277 -35.0762 69.3779 -46.2471c24.7959 -10.6768 71.5146 -19.127 122.082 -20.624c4.75684 109.152 -10.1787 217.875 -43.709 313.539c-13.7275 39.1611 -27.6865 67.4062 -43.9297 88.9004z" />
    <glyph glyph-name="O" unicode="&#xd4;" horiz-adv-x="415" 
d="M48.0283 641.017c25.8936 31.8438 59.6582 48.1465 92.6797 44.7197c29.3398 -3.04688 58.585 -22.041 82.3428 -53.4668c17.9521 -23.7578 33.1465 -54.3057 47.8086 -96.1416c34.5264 -98.498 49.9756 -210.287 45.2227 -322.464
c36.6533 0.755859 73.6641 5.4707 104.497 15.8662c6.96094 2.34766 14.5068 -1.39453 16.8516 -8.35547c2.34766 -6.96094 -1.39062 -14.5068 -8.35156 -16.8516c-34.123 -11.5049 -74.6406 -16.6152 -114.501 -17.2842
c-1.62598 -22.873 -4.08789 -45.7236 -7.4082 -68.4297c-14.1953 -97.1113 -42.7754 -167.614 -84.9531 -209.553c-21.9004 -21.7822 -45.3242 -33.1504 -68.1094 -33.1504c-2.00195 0 -3.99707 0.0869141 -5.98438 0.261719
c-16.4746 1.45508 -33.4277 9.30078 -49.0205 22.6865c-54.7432 46.9805 -70.2373 136.998 -66.4873 205.571c3.25977 59.6562 12.2793 105.482 34.7803 169.667c-16.9648 18.8076 -31.2207 40.1719 -42.1865 63.5312c-26.8398 57.1748 -35.248 128.309 -23.0703 195.164
c7.95605 43.668 23.8223 81.0928 45.8896 108.229zM280.844 122.457c3.14551 21.4971 5.50293 43.1328 7.08008 64.7822c-53.9375 1.68652 -103.685 10.9531 -131.056 22.7393c-25.1719 10.8359 -48.2314 25.5176 -68.4717 43.3525
c-18.5869 -55.4912 -26.3262 -97.2861 -29.2285 -150.354c-4.27832 -78.2168 18.1953 -150.419 57.2539 -183.941c11.3525 -9.74902 23.123 -15.4102 34.0352 -16.375c16.3564 -1.42871 35.168 7.52246 52.9951 25.2549c38.0098 37.7969 64.0479 103.247 77.3916 194.541z
M201.827 616.222c-19.2637 25.4834 -41.9463 40.7725 -63.877 43.0557c-23.5723 2.44727 -49.4541 -10.6533 -69.2871 -35.0381c-18.9746 -23.333 -33.3105 -57.502 -40.3584 -96.2148c-11.0449 -60.6328 -3.19922 -127.584 20.9805 -179.098
c7.77734 -16.5693 17.3936 -32.0186 28.6025 -46.0996c1.9873 5.24707 4.05469 10.623 6.20508 16.1396c2.66309 6.84277 10.3682 10.2285 17.2188 7.56152c6.84277 -2.66699 10.2246 -10.376 7.55762 -17.2188c-3.90234 -10.0078 -7.51953 -19.5371 -10.8633 -28.6562
c19.9814 -19.3467 43.4277 -35.0762 69.3779 -46.2471c24.7959 -10.6768 71.5146 -19.127 122.082 -20.624c4.75684 109.152 -10.1787 217.875 -43.709 313.539c-13.7275 39.1611 -27.6865 67.4062 -43.9297 88.9004z" />
    <glyph glyph-name="O" unicode="&#xd3;" horiz-adv-x="415" 
d="M48.0283 641.017c25.8936 31.8438 59.6582 48.1465 92.6797 44.7197c29.3398 -3.04688 58.585 -22.041 82.3428 -53.4668c17.9521 -23.7578 33.1465 -54.3057 47.8086 -96.1416c34.5264 -98.498 49.9756 -210.287 45.2227 -322.464
c36.6533 0.755859 73.6641 5.4707 104.497 15.8662c6.96094 2.34766 14.5068 -1.39453 16.8516 -8.35547c2.34766 -6.96094 -1.39062 -14.5068 -8.35156 -16.8516c-34.123 -11.5049 -74.6406 -16.6152 -114.501 -17.2842
c-1.62598 -22.873 -4.08789 -45.7236 -7.4082 -68.4297c-14.1953 -97.1113 -42.7754 -167.614 -84.9531 -209.553c-21.9004 -21.7822 -45.3242 -33.1504 -68.1094 -33.1504c-2.00195 0 -3.99707 0.0869141 -5.98438 0.261719
c-16.4746 1.45508 -33.4277 9.30078 -49.0205 22.6865c-54.7432 46.9805 -70.2373 136.998 -66.4873 205.571c3.25977 59.6562 12.2793 105.482 34.7803 169.667c-16.9648 18.8076 -31.2207 40.1719 -42.1865 63.5312c-26.8398 57.1748 -35.248 128.309 -23.0703 195.164
c7.95605 43.668 23.8223 81.0928 45.8896 108.229zM280.844 122.457c3.14551 21.4971 5.50293 43.1328 7.08008 64.7822c-53.9375 1.68652 -103.685 10.9531 -131.056 22.7393c-25.1719 10.8359 -48.2314 25.5176 -68.4717 43.3525
c-18.5869 -55.4912 -26.3262 -97.2861 -29.2285 -150.354c-4.27832 -78.2168 18.1953 -150.419 57.2539 -183.941c11.3525 -9.74902 23.123 -15.4102 34.0352 -16.375c16.3564 -1.42871 35.168 7.52246 52.9951 25.2549c38.0098 37.7969 64.0479 103.247 77.3916 194.541z
M201.827 616.222c-19.2637 25.4834 -41.9463 40.7725 -63.877 43.0557c-23.5723 2.44727 -49.4541 -10.6533 -69.2871 -35.0381c-18.9746 -23.333 -33.3105 -57.502 -40.3584 -96.2148c-11.0449 -60.6328 -3.19922 -127.584 20.9805 -179.098
c7.77734 -16.5693 17.3936 -32.0186 28.6025 -46.0996c1.9873 5.24707 4.05469 10.623 6.20508 16.1396c2.66309 6.84277 10.3682 10.2285 17.2188 7.56152c6.84277 -2.66699 10.2246 -10.376 7.55762 -17.2188c-3.90234 -10.0078 -7.51953 -19.5371 -10.8633 -28.6562
c19.9814 -19.3467 43.4277 -35.0762 69.3779 -46.2471c24.7959 -10.6768 71.5146 -19.127 122.082 -20.624c4.75684 109.152 -10.1787 217.875 -43.709 313.539c-13.7275 39.1611 -27.6865 67.4062 -43.9297 88.9004z" />
    <glyph glyph-name="P" unicode="P" horiz-adv-x="414" 
d="M272.166 405.828c2.58008 -78.0801 0.879883 -148.31 -5.21094 -213.802c2.14648 0.0185547 4.28516 0.0341797 6.4209 0.0498047c50.4385 0.364258 98.0762 0.709961 141.063 26.0674c6.33008 3.73535 14.4834 1.63086 18.2109 -4.69531
c3.73145 -6.32617 1.62988 -14.4795 -4.69629 -18.2109c-49.1543 -28.9941 -102.651 -29.3818 -154.386 -29.7539c-3.1084 -0.0224609 -6.22754 -0.0449219 -9.3584 -0.0751953c-5.14453 -45.3701 -13.5869 -97.1992 -36.1973 -140.574
c-11.1934 -21.4785 -30.3242 -47.4443 -57.874 -49.1924c-20.1719 -1.29199 -40.4531 11.6455 -54.1846 34.5791c-26.665 44.5303 -19.3584 115.945 15.3311 149.829c20.2061 19.7383 45.5635 25.4033 65.3965 28.1348c14.4346 1.9873 29.0205 2.91406 43.5117 3.37402
c6.2041 65.2188 7.96289 135.273 5.38281 213.402c-1.58398 48.083 -4.71875 99.2656 -16.7744 147.759c-3.25977 13.1162 -8.06641 29.7197 -16.3643 41.8213c-6.58105 9.58984 -15.1074 15.1025 -21.7109 14.0273c-5.06836 -0.816406 -13.4277 -5.71777 -24.4463 -24.4229
c-17.3789 -29.499 -28.0254 -65.2295 -36.1445 -96.2939c-50.0049 -191.263 -55.3701 -428.598 -53.9336 -635.845c0.581055 -2.08984 1.13965 -4.1875 1.73633 -6.26953c2.0293 -7.05957 -2.04785 -14.4268 -9.10742 -16.4561
c-1.22363 -0.353516 -2.46191 -0.520508 -3.67773 -0.520508c-5.7793 0 -11.0986 3.7959 -12.7744 9.62793c-21.1934 73.7402 -30.7715 151.725 -36.7441 211.43c-18.5 184.86 -18.5225 372.327 -0.0800781 557.191c0.733398 7.31055 7.27246 12.626 14.5557 11.9121
c7.30664 -0.729492 12.6416 -7.24609 11.9121 -14.5527c-18.2715 -183.109 -18.2451 -368.798 0.0761719 -551.903c2.06738 -20.6279 4.58301 -43.4971 7.85449 -67.5635c2.42773 173.158 14.1875 355.641 54.458 509.668c8.58301 32.835 19.9248 70.7578 38.96 103.064
c13.2412 22.4697 27.3486 34.6357 43.1201 37.1816c17.25 2.77734 35.1377 -6.65332 47.8848 -25.2441c10.707 -15.6123 16.4443 -35.1611 20.2441 -50.4463c12.6523 -50.8906 15.9121 -103.753 17.5459 -153.298zM204.438 37.1172
c20.042 38.4473 28.043 85.668 32.9404 127.721c-12.5039 -0.474609 -24.9512 -1.34082 -37.0635 -3.00879c-16.7705 -2.31055 -35.874 -6.58887 -50.4375 -20.8145c-25.8711 -25.2705 -31.3652 -83.2969 -11.0986 -117.143
c8.26367 -13.7998 19.9248 -22.3184 29.6816 -21.6992c11.6758 0.741211 24.7881 13.4775 35.9775 34.9443z" />
    <glyph glyph-name="Q" unicode="Q" horiz-adv-x="415" 
d="M140.702 685.722c29.3438 -3.04688 58.5898 -22.0332 82.3516 -53.459c17.9521 -23.7578 33.1465 -54.3057 47.8086 -96.1416c35.0732 -100.063 50.457 -213.87 44.9785 -327.836c0.623047 -0.015625 1.24219 -0.03125 1.86523 -0.046875
c34.1426 -0.793945 69.9941 0.0761719 99.7939 19.7764c6.12891 4.0498 14.3779 2.36621 18.4277 -3.7627s2.36328 -14.3779 -3.76172 -18.4277c-36.2168 -23.9404 -76.7002 -25.0693 -115.079 -24.1807c-0.964844 0.0224609 -1.93359 0.0488281 -2.90234 0.0712891
c-1.61816 -21.0986 -3.95117 -42.1553 -7.01367 -63.1094c-14.1953 -97.1113 -42.7793 -167.615 -84.9541 -209.554c-4.55176 -4.52148 -9.16406 -8.56836 -13.8262 -12.1855c16.0947 -29.4648 35.2441 -58.9111 59.9443 -69.8154
c6.78613 -2.99805 19.6699 -6.70996 29.6934 2.08594c5.52441 4.84082 13.9209 4.29395 18.7656 -1.22656s4.29785 -13.9209 -1.22266 -18.7656c-9.07715 -7.96387 -20.4639 -12.0293 -32.6523 -12.0293c-8.22559 0 -16.8203 1.85059 -25.3232 5.60449
c-31.585 13.9443 -53.7891 47.251 -71.9395 80.2988c-10.5137 -4.69629 -21.0986 -7.11621 -31.5508 -7.11621c-2.00195 0 -3.99707 0.0869141 -5.98438 0.261719c-16.4746 1.45508 -33.4277 9.30078 -49.0205 22.6865c-54.7432 46.9805 -70.2373 136.998 -66.4873 205.571
c3.22949 59.1016 18.8301 115.98 35.916 168.417c-17.4629 19.1113 -32.1104 40.9053 -43.3193 64.7812c-26.8398 57.1748 -35.248 128.309 -23.0703 195.164c7.95605 43.668 23.8223 81.0928 45.8896 108.229c25.8936 31.8438 59.6709 48.1436 92.6729 44.709z
M280.852 122.458c2.92578 20.0195 5.17188 40.1416 6.74512 60.2979c-43.0068 2.35547 -87.5938 8.65527 -130.718 27.2236c-24.6055 10.5928 -47.1855 24.8525 -67.0908 42.1445c-15.1641 -47.8545 -27.7744 -97.2441 -30.6123 -149.146
c-4.27832 -78.2168 18.1953 -150.419 57.2539 -183.941c11.3525 -9.74902 23.123 -15.4102 34.0352 -16.375c7.16602 -0.630859 14.8105 0.744141 22.6455 3.97754c-16.7939 31.9688 -34.4277 64.1318 -58.6914 80.3789c-6.10547 4.08789 -7.73926 12.3477 -3.65137 18.4492
s12.3477 7.73535 18.4463 3.65137c29.207 -19.5596 48.4248 -53.9795 66.4873 -88.293c2.60254 2.18457 5.19336 4.53613 7.76172 7.08984c38.0068 37.7979 64.0449 103.248 77.3887 194.542zM245.765 527.32c-13.7275 39.1611 -27.6885 67.4072 -43.9316 88.9014
c-19.2637 25.4834 -41.9502 40.7725 -63.877 43.0557c-23.5605 2.44727 -49.458 -10.6533 -69.2871 -35.0381c-18.9746 -23.333 -33.3105 -57.502 -40.3584 -96.2148c-11.0449 -60.6328 -3.19922 -127.584 20.9805 -179.098
c7.88379 -16.7979 17.6641 -32.4443 29.0703 -46.6807c1.8584 5.45605 3.7168 10.8662 5.54785 16.208c2.38184 6.94531 9.9502 10.6426 16.8916 8.26367c6.94531 -2.38184 10.6465 -9.94629 8.26465 -16.8916c-3.4082 -9.93945 -6.83887 -19.9316 -10.2129 -29.9814
c19.7949 -18.9785 42.9492 -34.4238 68.5391 -45.4385c39.5791 -17.041 81.3359 -22.8887 121.877 -25.1035c5.36914 110.652 -9.51367 221.047 -43.5039 318.018z" />
    <glyph glyph-name="R" unicode="R" horiz-adv-x="388" 
d="M15.5576 607.012c0.729492 7.30664 7.27832 12.6221 14.5615 11.915c7.30664 -0.729492 12.6416 -7.24609 11.9121 -14.5527c-18.2715 -183.113 -18.2451 -368.802 0.0761719 -551.903c0.231445 -2.31738 0.478516 -4.71484 0.72168 -7.08984
c7.05176 152.907 20.4717 301.103 59.793 439.389c15.3574 54.0059 31.6387 95.166 51.2363 129.528c20.1338 35.3008 42.2207 52.9111 65.5605 52.4551c22.998 -0.486328 44.9209 -19.9473 55.8447 -49.583c7.92188 -21.4902 10.5967 -47.3916 8.18359 -79.1709
c-4.89355 -64.4814 -27.9678 -128.286 -64.9707 -179.659c-31.8887 -44.2754 -74.8496 -80.1846 -124.392 -104.125c14.1611 -16.8428 19.8076 -41.7715 23.9717 -64.3633c3.15332 -17.1016 6.05957 -34.5566 8.86719 -51.4375
c7.21875 -43.3906 14.6885 -88.2588 26.8887 -129.855c10.707 -36.5166 22.7588 -61.498 37.9229 -78.6221c13.3291 -15.0459 34.6445 -27.8535 54.4893 -18.7002c13.2793 6.125 24.8184 21.6309 32.3379 32.7637c32.0068 47.3604 53.3564 107.324 74.0029 165.315
c8.46191 23.7656 17.2119 48.3369 26.6309 71.917c2.7207 6.82031 10.4561 10.1406 17.2803 7.41602c6.82031 -2.72461 10.1406 -10.4639 7.41602 -17.2842c-9.23242 -23.1084 -17.8955 -47.4404 -26.2734 -70.9707c-21.2012 -59.5566 -43.1279 -121.135 -77.0195 -171.288
c-10.0918 -14.9355 -24.127 -33.2109 -43.2344 -42.0215c-7.84961 -3.62109 -16.2275 -5.37988 -24.7607 -5.37988c-21.1025 0 -43.1855 10.7373 -60.7773 30.5977c-17.8496 20.1562 -31.6836 48.3633 -43.5342 88.7705c-12.6523 43.1396 -20.251 88.8096 -27.6025 132.975
c-2.79297 16.7676 -5.67676 34.1045 -8.78809 50.9785c-2.48535 13.4805 -5.44531 26.832 -9.88281 37.6299c-9.20605 -89.6836 -13.2559 -182.038 -16.4248 -275.783c-0.520508 -15.4258 1.12109 -46.335 3.99707 -69.3027
c2.51172 -10.4336 5.20898 -20.8369 8.16113 -31.1445c1.86914 -5.11816 0.432617 -11.0342 -4.03516 -14.7275c-2.4502 -2.02148 -5.42188 -3.00195 -8.38965 -3.00195c-0.611328 0 -1.21191 0.118164 -1.82031 0.198242
c-0.193359 0.0263672 -0.390625 0.0302734 -0.581055 0.0644531c-0.436523 0.0761719 -0.854492 0.194336 -1.28027 0.316406c-0.459961 0.125 -0.908203 0.277344 -1.35254 0.452148c-0.323242 0.128906 -0.642578 0.25 -0.958008 0.40625
c-0.751953 0.368164 -1.47754 0.790039 -2.15039 1.29492c-0.102539 0.0761719 -0.189453 0.170898 -0.288086 0.250977c-0.623047 0.494141 -1.19629 1.05664 -1.72461 1.66113c-0.0800781 0.0908203 -0.178711 0.155273 -0.258789 0.25
c-0.118164 0.140625 -0.224609 0.323242 -0.338867 0.47168c-0.166992 0.216797 -0.326172 0.433594 -0.478516 0.665039c-5.11426 7.21484 -8.50684 21.8086 -10.7451 38.2305c-15.0195 62.9424 -22.668 126.425 -27.7139 176.863
c-18.5 184.856 -18.5264 372.323 -0.0800781 557.191zM128.199 477.487c-18.002 -63.2998 -30.4854 -128.914 -39.3955 -196.26c43.3828 22.1172 79.71 53.2422 108.089 92.6426c34.1836 47.46 55.5029 106.459 60.0322 166.13
c2.11621 27.8926 -0.0498047 50.123 -6.62305 67.958c-6.89648 18.709 -19.8262 31.9463 -31.4492 32.1934c-0.125 0.00390625 -0.24707 0.00390625 -0.37207 0.00390625c-12.5996 0 -26.9463 -13.4844 -41.5254 -39.0439
c-18.5078 -32.4512 -34.002 -71.7344 -48.7559 -123.624z" />
    <glyph glyph-name="S" unicode="S" horiz-adv-x="316" 
d="M336.074 206.218c-29.7764 -33.1201 -64.2793 -58.3555 -97.6504 -82.7559c-26.0342 -19.0391 -51.2891 -37.5049 -74.0215 -59.1396c23.9443 -44.374 45.1875 -91.3506 57.2314 -144.163c8.73926 -38.3252 7.23047 -68.7021 -4.4834 -90.291
c-11.1816 -20.6084 -31.4785 -32.1895 -54.5146 -32.1895c-6.27344 0 -12.748 0.858398 -19.3018 2.625c-45.1377 12.1846 -79.918 62.668 -80.9023 117.43c-0.550781 30.7383 8.62109 62.7373 27.2617 95.1162c12.2607 21.3037 26.4707 39.6553 41.8506 56.043
c-8.89844 15.8213 -18.1729 31.5928 -27.5762 47.5889c-34.9404 59.4316 -71.0732 120.889 -90.793 193.102c-14.2939 52.3379 -19.9092 111.348 -16.2432 170.65c3.39648 54.9482 14.4873 96.4805 33.9141 126.968c12.918 20.2783 29.7988 35.7881 48.8271 44.8574
c25.4717 12.1396 52.501 11.1143 74.1318 -2.83008c22.8916 -14.7539 40.0498 -44.7129 45.8896 -80.1357c6.30371 -38.2422 -1.05176 -73.5088 -8.33496 -96.3623c-7.7168 -24.2031 -18.1162 -43.1396 -30.9209 -56.2861
c-5.12207 -5.25879 -13.542 -5.37695 -18.8047 -0.250977c-5.25879 5.12207 -5.37305 13.542 -0.24707 18.8047c9.89355 10.1602 18.1807 25.5752 24.6279 45.8076c9.04297 28.375 11.6836 58.1934 7.43555 83.958c-4.56738 27.7178 -17.6182 51.5176 -34.0547 62.1064
c-13.7158 8.8418 -31.3115 9.26758 -48.2842 1.17871c-14.5176 -6.91895 -27.6035 -19.0693 -37.8398 -35.1338c-16.9424 -26.5928 -26.6885 -63.9834 -29.7998 -114.319c-3.48828 -56.4229 1.81934 -112.446 15.3574 -162.003
c18.7852 -68.7939 54.0029 -128.7 88.0615 -186.631c8.08887 -13.7656 16.2461 -27.6338 24.2363 -41.7109c22.8574 21.042 47.4326 39.0137 71.5938 56.6816c32.2725 23.6025 65.6475 48.0029 93.5771 79.0674c4.90918 5.46387 13.3213 5.9082 18.7812 0.999023
c5.45996 -4.91309 5.9043 -13.3174 0.995117 -18.7812zM195.702 -85.7539c-10.8018 47.3721 -29.0918 89.2764 -50.6924 130.033c-11.8086 -13.3438 -22.6709 -28.0254 -32.2686 -44.6973c-16.2012 -28.1426 -24.1797 -55.5215 -23.7158 -81.3691
c0.854492 -47.6113 31.8086 -84.2842 61.2393 -92.2285c14.5557 -3.92871 33.6289 -1.6377 43.5117 16.5693c8.53711 15.7373 9.18652 39.8564 1.92578 71.6924z" />
    <glyph glyph-name="T" unicode="T" horiz-adv-x="515" 
d="M27.8408 629.451c-9.51367 0 -13.4453 1.83398 -16.6709 4.96875c-3.36621 3.26758 -4.9502 7.97559 -4.23633 12.5957c1.12109 7.25684 7.92188 12.2227 15.1748 11.1055c2.04785 -0.31543 3.91309 -1.08301 5.50879 -2.18457
c16.418 -0.174805 79.9346 11.5576 141.555 22.998c236.396 43.8877 435.919 76.666 483.177 33.002c8.625 -7.97168 12.5381 -18.3252 11.3184 -29.9443c-0.767578 -7.30273 -7.32129 -12.6025 -14.6123 -11.835c-7.30664 0.767578 -12.6035 7.31055 -11.8359 14.6172
c0.333984 3.2334 -0.479492 5.37598 -2.92285 7.62891c-9.64355 8.91016 -45.75 21.5625 -179.185 6.18945c-35.085 -4.04297 -72.4414 -9.47266 -109.977 -15.5137c0.15918 -99.6074 9.03906 -204.257 17.6602 -305.566
c7.39355 -86.9092 14.9619 -175.833 17.2305 -263.305c48.6221 31.1787 98.6045 63.7217 136.851 113.613c4.46484 5.82422 12.8086 6.93359 18.6406 2.46191c5.82812 -4.46777 6.93359 -12.8154 2.46191 -18.6436c-41.8438 -54.5908 -95.0635 -88.7061 -146.527 -121.701
c-3.62109 -2.32129 -7.23438 -4.63867 -10.8438 -6.96387c0.323242 -30.4678 -0.0791016 -60.7041 -1.44727 -90.5645c-1.92285 -41.9502 -6.08691 -90.6182 -22.4248 -133.541c-4.30078 -11.2959 -11.6494 -13.2109 -16.1289 -13.2109
c-0.273438 0 -0.539062 0.0078125 -0.786133 0.0195312c-12.8076 0.642578 -16.7285 15.168 -18.4004 21.3721c-9.36621 34.7197 -21.0762 190.807 32.3789 230.154c-1.66406 91.959 -9.67676 186.137 -17.5 278.054c-8.54492 100.395 -17.3408 204.053 -17.7471 303.447
c-50.4268 -8.46191 -100.295 -17.71 -144.524 -25.9209c-90.417 -16.7861 -128.237 -23.333 -146.187 -23.333zM352.596 -6.37207c0.892578 19.499 1.36914 39.1846 1.4873 59.0137c-7.63281 -19.1719 -12.5605 -47.6074 -13.8984 -82.1826
c-0.972656 -25.1455 0.15918 -48.6875 2.0625 -66.9248c6.69043 30.0811 9.0459 61.666 10.3486 90.0938z" />
    <glyph glyph-name="U" unicode="U" horiz-adv-x="409" 
d="M250.622 553.302c-4.29004 -62.7109 -6.08691 -188.975 0.132812 -305.015c13.1846 -246.018 50.3965 -261.063 54.5947 -261.968c5.28125 -1.13965 25.9121 12.6982 57.8359 89.2012c23.6064 56.5742 41.2852 117.423 46.1484 138.027
c1.68359 7.14648 8.82617 11.5801 15.9961 9.88965c7.15039 -1.68652 11.5771 -8.84863 9.89062 -15.9951c-5.02246 -21.2959 -23.2451 -84.0674 -47.4863 -142.162c-29.9209 -71.7119 -56.0762 -105.634 -81.7109 -105.634c-2.08984 0 -4.18359 0.227539 -6.26953 0.675781
c-24.3438 5.25098 -41.7109 36.6846 -54.6562 98.9316c-9.69238 46.624 -16.7256 109.749 -20.8975 187.612c-1.37207 25.6162 -2.35645 51.3877 -3.02148 76.708c-7.83789 -46.5967 -16.7139 -92.8477 -26.7061 -138.556
c-8.24121 -37.6914 -17.7627 -77.8633 -31.502 -116.272c-5.75977 -16.083 -13.1797 -34.5186 -24.6084 -49.2949c-12.7734 -16.5244 -29.043 -25.7686 -45.0957 -25.7686c-1.09473 0 -2.18945 0.0419922 -3.28418 0.128906
c-25.8135 2.05176 -43.6367 26.3799 -54.0439 46.4258c-22.2988 42.957 -29.7881 95.8652 -33.8271 137.158c-13.6094 139.271 -1.52344 277.902 13.1963 419.498c0.759766 7.30664 7.28711 12.6221 14.6045 11.8545c7.30273 -0.759766 12.6064 -7.29883 11.8506 -14.6016
c-14.5752 -140.19 -26.5508 -277.356 -13.1807 -414.161c3.80371 -38.9141 10.7607 -88.5732 30.9629 -127.491c10.1748 -19.6094 22.0371 -31.335 32.543 -32.167c7.87988 -0.626953 17.2988 5.13281 25.2363 15.3955c9.14941 11.835 15.5518 27.8652 20.6055 41.9844
c13.2295 36.999 22.5078 76.1719 30.5625 112.996c26 118.943 44.6211 241.508 55.6279 364.691c0.717773 10.4375 1.49707 19.2178 2.31445 25.9277c0.0458984 0.383789 0.166992 0.733398 0.24707 1.10547c0.0869141 0.417969 0.155273 0.84375 0.280273 1.24609
c0.144531 0.467773 0.341797 0.897461 0.535156 1.33789c0.152344 0.349609 0.285156 0.710938 0.467773 1.04102c0.250977 0.463867 0.550781 0.881836 0.850586 1.30762c0.19043 0.265625 0.357422 0.546875 0.566406 0.797852
c0.353516 0.429688 0.75293 0.80957 1.15527 1.18945c0.212891 0.201172 0.40625 0.417969 0.630859 0.604492c0.436523 0.357422 0.907227 0.657227 1.38184 0.960938c0.243164 0.15625 0.474609 0.327148 0.729492 0.467773
c0.478516 0.261719 0.983398 0.458984 1.49219 0.660156c0.295898 0.114258 0.581055 0.254883 0.884766 0.349609c0.486328 0.152344 0.991211 0.239258 1.49609 0.333984c0.361328 0.0683594 0.714844 0.15918 1.08691 0.197266
c0.467773 0.0498047 0.942383 0.03125 1.4209 0.03125c0.345703 0 0.683594 0.0498047 1.03711 0.0195312c0.0947266 -0.0078125 0.178711 -0.0419922 0.269531 -0.0498047s0.174805 0.0078125 0.265625 -0.00390625
c0.357422 -0.0458984 0.680664 -0.164062 1.02637 -0.232422c0.452148 -0.0908203 0.912109 -0.166992 1.34863 -0.303711c0.410156 -0.128906 0.793945 -0.311523 1.18555 -0.474609c0.410156 -0.174805 0.824219 -0.331055 1.21191 -0.543945
c0.375977 -0.208984 0.713867 -0.459961 1.06738 -0.699219c0.357422 -0.243164 0.71875 -0.470703 1.04883 -0.744141c0.327148 -0.269531 0.616211 -0.581055 0.912109 -0.880859c0.299805 -0.303711 0.611328 -0.59668 0.880859 -0.926758
c0.265625 -0.323242 0.486328 -0.68457 0.72168 -1.03418c0.239258 -0.357422 0.486328 -0.699219 0.691406 -1.0791s0.353516 -0.779297 0.520508 -1.1748c0.163086 -0.395508 0.341797 -0.775391 0.466797 -1.18555
c0.132812 -0.425781 0.205078 -0.870117 0.291992 -1.31055c0.0839844 -0.410156 0.182617 -0.816406 0.224609 -1.23828c0.0458984 -0.467773 0.0273438 -0.942383 0.0273438 -1.41699c-0.00390625 -0.345703 0.0458984 -0.675781 0.0195312 -1.02148
c-0.679688 -8.45801 -1.50391 -16.9004 -2.25586 -25.3506z" />
    <glyph glyph-name="U" unicode="&#xdc;" horiz-adv-x="409" 
d="M250.622 553.302c-4.29004 -62.7109 -6.08691 -188.975 0.132812 -305.015c13.1846 -246.018 50.3965 -261.063 54.5947 -261.968c5.28125 -1.13965 25.9121 12.6982 57.8359 89.2012c23.6064 56.5742 41.2852 117.423 46.1484 138.027
c1.68359 7.14648 8.82617 11.5801 15.9961 9.88965c7.15039 -1.68652 11.5771 -8.84863 9.89062 -15.9951c-5.02246 -21.2959 -23.2451 -84.0674 -47.4863 -142.162c-29.9209 -71.7119 -56.0762 -105.634 -81.7109 -105.634c-2.08984 0 -4.18359 0.227539 -6.26953 0.675781
c-24.3438 5.25098 -41.7109 36.6846 -54.6562 98.9316c-9.69238 46.624 -16.7256 109.749 -20.8975 187.612c-1.37207 25.6162 -2.35645 51.3877 -3.02148 76.708c-7.83789 -46.5967 -16.7139 -92.8477 -26.7061 -138.556
c-8.24121 -37.6914 -17.7627 -77.8633 -31.502 -116.272c-5.75977 -16.083 -13.1797 -34.5186 -24.6084 -49.2949c-12.7734 -16.5244 -29.043 -25.7686 -45.0957 -25.7686c-1.09473 0 -2.18945 0.0419922 -3.28418 0.128906
c-25.8135 2.05176 -43.6367 26.3799 -54.0439 46.4258c-22.2988 42.957 -29.7881 95.8652 -33.8271 137.158c-13.6094 139.271 -1.52344 277.902 13.1963 419.498c0.759766 7.30664 7.28711 12.6221 14.6045 11.8545c7.30273 -0.759766 12.6064 -7.29883 11.8506 -14.6016
c-14.5752 -140.19 -26.5508 -277.356 -13.1807 -414.161c3.80371 -38.9141 10.7607 -88.5732 30.9629 -127.491c10.1748 -19.6094 22.0371 -31.335 32.543 -32.167c7.87988 -0.626953 17.2988 5.13281 25.2363 15.3955c9.14941 11.835 15.5518 27.8652 20.6055 41.9844
c13.2295 36.999 22.5078 76.1719 30.5625 112.996c26 118.943 44.6211 241.508 55.6279 364.691c0.717773 10.4375 1.49707 19.2178 2.31445 25.9277c0.0458984 0.383789 0.166992 0.733398 0.24707 1.10547c0.0869141 0.417969 0.155273 0.84375 0.280273 1.24609
c0.144531 0.467773 0.341797 0.897461 0.535156 1.33789c0.152344 0.349609 0.285156 0.710938 0.467773 1.04102c0.250977 0.463867 0.550781 0.881836 0.850586 1.30762c0.19043 0.265625 0.357422 0.546875 0.566406 0.797852
c0.353516 0.429688 0.75293 0.80957 1.15527 1.18945c0.212891 0.201172 0.40625 0.417969 0.630859 0.604492c0.436523 0.357422 0.907227 0.657227 1.38184 0.960938c0.243164 0.15625 0.474609 0.327148 0.729492 0.467773
c0.478516 0.261719 0.983398 0.458984 1.49219 0.660156c0.295898 0.114258 0.581055 0.254883 0.884766 0.349609c0.486328 0.152344 0.991211 0.239258 1.49609 0.333984c0.361328 0.0683594 0.714844 0.15918 1.08691 0.197266
c0.467773 0.0498047 0.942383 0.03125 1.4209 0.03125c0.345703 0 0.683594 0.0498047 1.03711 0.0195312c0.0947266 -0.0078125 0.178711 -0.0419922 0.269531 -0.0498047s0.174805 0.0078125 0.265625 -0.00390625
c0.357422 -0.0458984 0.680664 -0.164062 1.02637 -0.232422c0.452148 -0.0908203 0.912109 -0.166992 1.34863 -0.303711c0.410156 -0.128906 0.793945 -0.311523 1.18555 -0.474609c0.410156 -0.174805 0.824219 -0.331055 1.21191 -0.543945
c0.375977 -0.208984 0.713867 -0.459961 1.06738 -0.699219c0.357422 -0.243164 0.71875 -0.470703 1.04883 -0.744141c0.327148 -0.269531 0.616211 -0.581055 0.912109 -0.880859c0.299805 -0.303711 0.611328 -0.59668 0.880859 -0.926758
c0.265625 -0.323242 0.486328 -0.68457 0.72168 -1.03418c0.239258 -0.357422 0.486328 -0.699219 0.691406 -1.0791s0.353516 -0.779297 0.520508 -1.1748c0.163086 -0.395508 0.341797 -0.775391 0.466797 -1.18555
c0.132812 -0.425781 0.205078 -0.870117 0.291992 -1.31055c0.0839844 -0.410156 0.182617 -0.816406 0.224609 -1.23828c0.0458984 -0.467773 0.0273438 -0.942383 0.0273438 -1.41699c-0.00390625 -0.345703 0.0458984 -0.675781 0.0195312 -1.02148
c-0.679688 -8.45801 -1.50391 -16.9004 -2.25586 -25.3506z" />
    <glyph glyph-name="U" unicode="&#xdb;" horiz-adv-x="409" 
d="M250.622 553.302c-4.29004 -62.7109 -6.08691 -188.975 0.132812 -305.015c13.1846 -246.018 50.3965 -261.063 54.5947 -261.968c5.28125 -1.13965 25.9121 12.6982 57.8359 89.2012c23.6064 56.5742 41.2852 117.423 46.1484 138.027
c1.68359 7.14648 8.82617 11.5801 15.9961 9.88965c7.15039 -1.68652 11.5771 -8.84863 9.89062 -15.9951c-5.02246 -21.2959 -23.2451 -84.0674 -47.4863 -142.162c-29.9209 -71.7119 -56.0762 -105.634 -81.7109 -105.634c-2.08984 0 -4.18359 0.227539 -6.26953 0.675781
c-24.3438 5.25098 -41.7109 36.6846 -54.6562 98.9316c-9.69238 46.624 -16.7256 109.749 -20.8975 187.612c-1.37207 25.6162 -2.35645 51.3877 -3.02148 76.708c-7.83789 -46.5967 -16.7139 -92.8477 -26.7061 -138.556
c-8.24121 -37.6914 -17.7627 -77.8633 -31.502 -116.272c-5.75977 -16.083 -13.1797 -34.5186 -24.6084 -49.2949c-12.7734 -16.5244 -29.043 -25.7686 -45.0957 -25.7686c-1.09473 0 -2.18945 0.0419922 -3.28418 0.128906
c-25.8135 2.05176 -43.6367 26.3799 -54.0439 46.4258c-22.2988 42.957 -29.7881 95.8652 -33.8271 137.158c-13.6094 139.271 -1.52344 277.902 13.1963 419.498c0.759766 7.30664 7.28711 12.6221 14.6045 11.8545c7.30273 -0.759766 12.6064 -7.29883 11.8506 -14.6016
c-14.5752 -140.19 -26.5508 -277.356 -13.1807 -414.161c3.80371 -38.9141 10.7607 -88.5732 30.9629 -127.491c10.1748 -19.6094 22.0371 -31.335 32.543 -32.167c7.87988 -0.626953 17.2988 5.13281 25.2363 15.3955c9.14941 11.835 15.5518 27.8652 20.6055 41.9844
c13.2295 36.999 22.5078 76.1719 30.5625 112.996c26 118.943 44.6211 241.508 55.6279 364.691c0.717773 10.4375 1.49707 19.2178 2.31445 25.9277c0.0458984 0.383789 0.166992 0.733398 0.24707 1.10547c0.0869141 0.417969 0.155273 0.84375 0.280273 1.24609
c0.144531 0.467773 0.341797 0.897461 0.535156 1.33789c0.152344 0.349609 0.285156 0.710938 0.467773 1.04102c0.250977 0.463867 0.550781 0.881836 0.850586 1.30762c0.19043 0.265625 0.357422 0.546875 0.566406 0.797852
c0.353516 0.429688 0.75293 0.80957 1.15527 1.18945c0.212891 0.201172 0.40625 0.417969 0.630859 0.604492c0.436523 0.357422 0.907227 0.657227 1.38184 0.960938c0.243164 0.15625 0.474609 0.327148 0.729492 0.467773
c0.478516 0.261719 0.983398 0.458984 1.49219 0.660156c0.295898 0.114258 0.581055 0.254883 0.884766 0.349609c0.486328 0.152344 0.991211 0.239258 1.49609 0.333984c0.361328 0.0683594 0.714844 0.15918 1.08691 0.197266
c0.467773 0.0498047 0.942383 0.03125 1.4209 0.03125c0.345703 0 0.683594 0.0498047 1.03711 0.0195312c0.0947266 -0.0078125 0.178711 -0.0419922 0.269531 -0.0498047s0.174805 0.0078125 0.265625 -0.00390625
c0.357422 -0.0458984 0.680664 -0.164062 1.02637 -0.232422c0.452148 -0.0908203 0.912109 -0.166992 1.34863 -0.303711c0.410156 -0.128906 0.793945 -0.311523 1.18555 -0.474609c0.410156 -0.174805 0.824219 -0.331055 1.21191 -0.543945
c0.375977 -0.208984 0.713867 -0.459961 1.06738 -0.699219c0.357422 -0.243164 0.71875 -0.470703 1.04883 -0.744141c0.327148 -0.269531 0.616211 -0.581055 0.912109 -0.880859c0.299805 -0.303711 0.611328 -0.59668 0.880859 -0.926758
c0.265625 -0.323242 0.486328 -0.68457 0.72168 -1.03418c0.239258 -0.357422 0.486328 -0.699219 0.691406 -1.0791s0.353516 -0.779297 0.520508 -1.1748c0.163086 -0.395508 0.341797 -0.775391 0.466797 -1.18555
c0.132812 -0.425781 0.205078 -0.870117 0.291992 -1.31055c0.0839844 -0.410156 0.182617 -0.816406 0.224609 -1.23828c0.0458984 -0.467773 0.0273438 -0.942383 0.0273438 -1.41699c-0.00390625 -0.345703 0.0458984 -0.675781 0.0195312 -1.02148
c-0.679688 -8.45801 -1.50391 -16.9004 -2.25586 -25.3506z" />
    <glyph glyph-name="U" unicode="&#xda;" horiz-adv-x="409" 
d="M250.622 553.302c-4.29004 -62.7109 -6.08691 -188.975 0.132812 -305.015c13.1846 -246.018 50.3965 -261.063 54.5947 -261.968c5.28125 -1.13965 25.9121 12.6982 57.8359 89.2012c23.6064 56.5742 41.2852 117.423 46.1484 138.027
c1.68359 7.14648 8.82617 11.5801 15.9961 9.88965c7.15039 -1.68652 11.5771 -8.84863 9.89062 -15.9951c-5.02246 -21.2959 -23.2451 -84.0674 -47.4863 -142.162c-29.9209 -71.7119 -56.0762 -105.634 -81.7109 -105.634c-2.08984 0 -4.18359 0.227539 -6.26953 0.675781
c-24.3438 5.25098 -41.7109 36.6846 -54.6562 98.9316c-9.69238 46.624 -16.7256 109.749 -20.8975 187.612c-1.37207 25.6162 -2.35645 51.3877 -3.02148 76.708c-7.83789 -46.5967 -16.7139 -92.8477 -26.7061 -138.556
c-8.24121 -37.6914 -17.7627 -77.8633 -31.502 -116.272c-5.75977 -16.083 -13.1797 -34.5186 -24.6084 -49.2949c-12.7734 -16.5244 -29.043 -25.7686 -45.0957 -25.7686c-1.09473 0 -2.18945 0.0419922 -3.28418 0.128906
c-25.8135 2.05176 -43.6367 26.3799 -54.0439 46.4258c-22.2988 42.957 -29.7881 95.8652 -33.8271 137.158c-13.6094 139.271 -1.52344 277.902 13.1963 419.498c0.759766 7.30664 7.28711 12.6221 14.6045 11.8545c7.30273 -0.759766 12.6064 -7.29883 11.8506 -14.6016
c-14.5752 -140.19 -26.5508 -277.356 -13.1807 -414.161c3.80371 -38.9141 10.7607 -88.5732 30.9629 -127.491c10.1748 -19.6094 22.0371 -31.335 32.543 -32.167c7.87988 -0.626953 17.2988 5.13281 25.2363 15.3955c9.14941 11.835 15.5518 27.8652 20.6055 41.9844
c13.2295 36.999 22.5078 76.1719 30.5625 112.996c26 118.943 44.6211 241.508 55.6279 364.691c0.717773 10.4375 1.49707 19.2178 2.31445 25.9277c0.0458984 0.383789 0.166992 0.733398 0.24707 1.10547c0.0869141 0.417969 0.155273 0.84375 0.280273 1.24609
c0.144531 0.467773 0.341797 0.897461 0.535156 1.33789c0.152344 0.349609 0.285156 0.710938 0.467773 1.04102c0.250977 0.463867 0.550781 0.881836 0.850586 1.30762c0.19043 0.265625 0.357422 0.546875 0.566406 0.797852
c0.353516 0.429688 0.75293 0.80957 1.15527 1.18945c0.212891 0.201172 0.40625 0.417969 0.630859 0.604492c0.436523 0.357422 0.907227 0.657227 1.38184 0.960938c0.243164 0.15625 0.474609 0.327148 0.729492 0.467773
c0.478516 0.261719 0.983398 0.458984 1.49219 0.660156c0.295898 0.114258 0.581055 0.254883 0.884766 0.349609c0.486328 0.152344 0.991211 0.239258 1.49609 0.333984c0.361328 0.0683594 0.714844 0.15918 1.08691 0.197266
c0.467773 0.0498047 0.942383 0.03125 1.4209 0.03125c0.345703 0 0.683594 0.0498047 1.03711 0.0195312c0.0947266 -0.0078125 0.178711 -0.0419922 0.269531 -0.0498047s0.174805 0.0078125 0.265625 -0.00390625
c0.357422 -0.0458984 0.680664 -0.164062 1.02637 -0.232422c0.452148 -0.0908203 0.912109 -0.166992 1.34863 -0.303711c0.410156 -0.128906 0.793945 -0.311523 1.18555 -0.474609c0.410156 -0.174805 0.824219 -0.331055 1.21191 -0.543945
c0.375977 -0.208984 0.713867 -0.459961 1.06738 -0.699219c0.357422 -0.243164 0.71875 -0.470703 1.04883 -0.744141c0.327148 -0.269531 0.616211 -0.581055 0.912109 -0.880859c0.299805 -0.303711 0.611328 -0.59668 0.880859 -0.926758
c0.265625 -0.323242 0.486328 -0.68457 0.72168 -1.03418c0.239258 -0.357422 0.486328 -0.699219 0.691406 -1.0791s0.353516 -0.779297 0.520508 -1.1748c0.163086 -0.395508 0.341797 -0.775391 0.466797 -1.18555
c0.132812 -0.425781 0.205078 -0.870117 0.291992 -1.31055c0.0839844 -0.410156 0.182617 -0.816406 0.224609 -1.23828c0.0458984 -0.467773 0.0273438 -0.942383 0.0273438 -1.41699c-0.00390625 -0.345703 0.0458984 -0.675781 0.0195312 -1.02148
c-0.679688 -8.45801 -1.50391 -16.9004 -2.25586 -25.3506z" />
    <glyph glyph-name="V" unicode="V" horiz-adv-x="434" 
d="M440.459 202.468c-52.2656 -21.2812 -111.943 -6.27832 -159.938 38.0234c-7.2041 -39.4277 -16.6611 -83.7031 -28.7324 -126.744c-34.0283 -121.383 -74.0029 -180.389 -122.207 -180.389c-11.1289 0 -21.5244 5.01953 -30.8936 14.9209
c-74.9375 79.208 -93.3389 519.421 -84.334 681.94c0.402344 7.33691 6.75488 12.9375 14.0117 12.542c7.33691 -0.402344 12.9492 -6.67871 12.543 -14.0117c-4.11914 -74.3486 -2.53516 -220.88 10.6797 -366.921c14.3047 -158.158 38.5146 -265.779 66.418 -295.271
c4.14941 -4.38477 8.04004 -6.60742 11.5732 -6.60742c33.1924 0 67.498 57.167 96.6025 160.969c12.8428 45.8291 23.4775 96.875 31.5859 143.894c-1.74023 2.14648 -3.45801 4.33887 -5.14844 6.57324c-42.8584 56.6318 -69.8008 139.644 -75.8682 233.753
c-3.50293 54.4053 -0.888672 132.701 31.4795 196.761c16.1973 32.0635 37.752 46.707 59.1162 40.1904c21.1367 -6.45508 31.707 -31.6377 36.8516 -51.6309c8.52637 -33.1396 9.68555 -68.8398 9.69727 -99.3877c0.0263672 -75.8193 -7.06348 -152.455 -14.7275 -223.98
c-1.23145 -11.4785 -5.32715 -47.418 -13.0703 -94.4668c42.3984 -46.7334 97.4756 -64.5947 144.335 -45.5254c6.80078 2.76562 14.5635 -0.498047 17.333 -7.30273c2.76562 -6.80078 -0.501953 -14.5596 -7.30664 -17.3291zM272.724 369.93
c7.58789 70.7881 14.6064 146.568 14.584 221.138c-0.0117188 28.8877 -1.06836 62.502 -8.85742 92.7725c-5.57031 21.6533 -13.3936 31.1484 -18.8574 32.8164c-0.611328 0.186523 -1.25391 0.277344 -1.91895 0.277344c-7.18848 0 -17.4014 -10.6045 -25.6953 -27.0225
c-29.666 -58.71 -31.9688 -131.953 -28.6748 -183.057c5.23145 -81.21 26.5537 -153.21 60.4639 -205.096c3.87598 25.4873 6.88184 48.8008 8.95605 68.1709z" />
    <glyph glyph-name="W" unicode="W" horiz-adv-x="658" 
d="M47.6191 -7.05176c-21.2051 25.1416 -36.001 61.7461 -46.5332 115.201c-31.7979 161.099 -8.83008 331.616 20.7227 491.883c1.33398 7.22656 8.2793 11.999 15.4912 10.6689c7.22656 -1.33008 12.0029 -8.26758 10.6689 -15.4902
c-29.0811 -157.672 -51.7256 -325.184 -20.79 -481.909c9.63965 -48.8467 22.5996 -81.6367 40.7803 -103.191c11.3379 -13.4424 26.4746 -22.0518 40.4873 -23.0322c10.1299 -0.717773 19.0967 2.41309 26.7568 9.26758c14.9814 13.4199 23.7812 39.3779 30.4072 63.0029
c26.3682 93.9688 53.2227 284.02 69.2676 397.571c10.3311 73.1064 12.9834 90.7666 15.2783 96.3818c0.0839844 0.201172 0.212891 0.37207 0.303711 0.569336c0.212891 0.456055 0.44043 0.892578 0.702148 1.31836
c0.197266 0.327148 0.410156 0.638672 0.634766 0.946289c0.289062 0.391602 0.59668 0.759766 0.923828 1.11328c0.254883 0.277344 0.513672 0.539062 0.791016 0.790039c0.361328 0.330078 0.737305 0.633789 1.13281 0.922852
c0.289062 0.208984 0.582031 0.410156 0.885742 0.59668c0.421875 0.261719 0.858398 0.489258 1.31055 0.702148c0.327148 0.152344 0.650391 0.289062 0.984375 0.414062c0.452148 0.170898 0.908203 0.307617 1.37891 0.428711
c0.391602 0.0947266 0.779297 0.174805 1.17871 0.239258c0.425781 0.0644531 0.851562 0.114258 1.28809 0.140625c0.470703 0.0263672 0.941406 0.0224609 1.41602 0.00390625c0.227539 -0.0117188 0.444336 0.0224609 0.671875 0
c0.186523 -0.0185547 0.357422 -0.0830078 0.543945 -0.109375c0.452148 -0.0605469 0.904297 -0.15918 1.35645 -0.269531c0.448242 -0.114258 0.881836 -0.235352 1.31152 -0.391602c0.174805 -0.0683594 0.357422 -0.0869141 0.532227 -0.15918
c0.212891 -0.0869141 0.395508 -0.223633 0.604492 -0.322266c0.421875 -0.197266 0.824219 -0.40625 1.21973 -0.645508c0.368164 -0.220703 0.713867 -0.459961 1.05176 -0.710938c0.333984 -0.24707 0.657227 -0.508789 0.96875 -0.790039
c0.330078 -0.299805 0.637695 -0.611328 0.933594 -0.938477c0.273438 -0.295898 0.52832 -0.603516 0.771484 -0.926758c0.265625 -0.353516 0.500977 -0.710938 0.728516 -1.08301c0.216797 -0.353516 0.417969 -0.710938 0.600586 -1.08691
c0.186523 -0.383789 0.345703 -0.771484 0.494141 -1.16699s0.285156 -0.794922 0.395508 -1.20508c0.114258 -0.421875 0.194336 -0.847656 0.266602 -1.28418c0.0644531 -0.399414 0.125 -0.798828 0.155273 -1.20898
c0.0341797 -0.482422 0.0224609 -0.96875 0.00390625 -1.45508c-0.0078125 -0.261719 0.0302734 -0.512695 0.00390625 -0.774414c-11.6533 -119.354 -22.1631 -257.651 0.838867 -388.616c10.5098 -59.8115 26.4521 -103.092 48.748 -132.306
c21.1143 -27.6641 58.0869 -49.0059 89.3525 -30.5137c22.3408 13.2148 40.8408 44.5869 56.5557 95.9102c12.5342 40.9395 22.5537 86.4189 30.8369 140.349c-0.926758 0.745117 -1.84277 1.49707 -2.75098 2.25293c-61.5137 51.251 -103.464 147.062 -115.087 262.863
c-5.55469 55.3438 -7.78125 160.084 39.6445 239.782c6.59961 11.083 15.9463 24.5518 29.8066 30.3799c17.0674 7.18066 36.8623 1.0293 51.627 -16.0498c12.6367 -14.6201 19.7227 -34.7041 23.9512 -48.542c15.5703 -50.9736 19.0166 -107.051 20.2783 -150.209
c2.46973 -84.2119 -1.89941 -171.524 -13.3584 -266.93c-1.73242 -14.4346 -3.54883 -28.3145 -5.46777 -41.708c17.5039 -11.957 38.0283 -21.7822 63.2725 -30.377c19.6514 -6.69434 40.4912 -12.1318 59.7627 -6.66406
c7.06348 2.00586 14.4189 -2.09375 16.4248 -9.16113c2.00195 -7.06738 -2.09766 -14.4189 -9.16113 -16.4248c-26.3418 -7.48145 -52.999 -0.623047 -75.5986 7.07129c-22.7324 7.73926 -42.0791 16.4746 -59.0967 26.7676
c-8.08105 -49.6514 -17.7617 -92.335 -29.6543 -131.185c-11.3223 -36.9727 -30.7305 -88.71 -68.4521 -111.017c-12.0439 -7.12402 -25.2734 -10.5547 -38.8105 -10.5547c-30.043 0 -61.6094 16.8926 -85.2197 47.8281c-24.9395 32.6797 -42.5391 79.7324 -53.8008 143.838
c-7.81152 44.4844 -11.8125 89.6416 -13.3135 134.552c-13.7773 -88.2969 -29.8262 -179.154 -45.8145 -236.143c-8.05078 -28.6865 -18.2559 -57.7031 -38.2715 -75.6289c-11.8584 -10.6162 -26.1943 -16.1523 -41.7119 -16.1523
c-1.54297 0 -3.08984 0.0527344 -4.64746 0.163086c-21.3574 1.49316 -42.8477 13.3057 -58.9648 32.4131zM410.648 499.562c10.126 -100.899 45.6445 -187.924 95.874 -236.318c1.09766 8.22949 2.16895 16.6494 3.20215 25.2666
c11.2959 94.0791 15.6084 180.1 13.1807 262.978c-1.21582 41.498 -4.49121 95.2725 -19.1348 143.219c-3.51855 11.5312 -9.28613 28.1084 -18.6328 38.9219c-4.23633 4.90137 -10.7676 9.75684 -16.9795 9.75684c-1.43262 0 -2.84961 -0.261719 -4.21777 -0.834961
c-7.56836 -3.18359 -14.8594 -15.4365 -17.2568 -19.4639c-32.2617 -54.207 -45.0586 -133.594 -36.0352 -223.524z" />
    <glyph glyph-name="X" unicode="X" horiz-adv-x="370" 
d="M386.535 229.611c7.24219 -1.21582 12.1318 -8.07227 10.9238 -15.3213c-12.4854 -74.4434 -25.3965 -151.421 -56.332 -218.558c-12.0371 -26.1289 -24.1533 -43.9756 -38.1318 -56.1641c-15.8662 -13.8379 -35.3916 -20.8896 -55.7109 -20.8896
c-14.9854 0 -30.3994 3.83398 -45.0918 11.6113c-26.9609 14.2744 -51.8701 41.0645 -74.0254 79.6289c-24.8564 43.2646 -44.4355 96.4648 -61.6133 167.432c-7.12402 29.4385 -13.332 59.6328 -18.6396 90.5381c-17.5156 -49.249 -33.8076 -99.3682 -48.6641 -149.887
c-11.4023 -38.7852 -22.6562 -80.2109 -24.1113 -122.728c-0.243164 -7.18457 -6.14746 -12.8418 -13.2832 -12.8418c-0.152344 0 -0.308594 0.00390625 -0.464844 0.0078125c-7.34082 0.250977 -13.0859 6.40625 -12.835 13.7471
c1.56152 45.624 13.2939 88.9043 25.1787 129.323c19.6279 66.7646 41.7451 132.842 65.8906 197.156c-16.1406 120.653 -19.1611 251.367 -8.81152 390.481c0.546875 7.3252 6.94922 12.793 14.248 12.2725c7.32129 -0.546875 12.8193 -6.92285 12.2725 -14.248
c-8.81152 -118.411 -7.80859 -230.561 2.81836 -335.407c37.1289 92.9355 84.835 197.319 157.154 268.769c5.2207 5.16309 13.6367 5.11328 18.8076 -0.111328c5.16309 -5.22461 5.11035 -13.6484 -0.114258 -18.8086
c-69.1543 -68.3223 -115.463 -170.244 -151.638 -260.931c-5.94629 -14.9092 -11.748 -29.9707 -17.4697 -45.1006c6.48926 -46.9316 14.9434 -92.3281 25.5059 -135.969c16.5693 -68.4482 35.2627 -119.426 58.8271 -160.441
c19.6133 -34.1465 40.9473 -57.4863 63.4062 -69.375c25.0234 -13.2451 51.5215 -11.0684 70.876 5.81641c11.0527 9.63965 21.0488 24.6514 31.459 47.251c29.4463 63.9111 42.0566 139.106 54.2529 211.829c1.21582 7.24219 8.05469 12.125 15.3154 10.917z" />
    <glyph glyph-name="Y" unicode="Y" horiz-adv-x="397" 
d="M415.22 226.583c5.82129 -4.47949 6.9043 -12.8311 2.4248 -18.6406c-31.2969 -40.6621 -69.4512 -69.0479 -107.302 -95.4316c-0.456055 -8.77637 -1.01855 -17.5498 -1.70996 -26.2998c-5.60059 -70.9365 -19.3057 -132.192 -40.7383 -182.072
c-14.1416 -32.9111 -29.9395 -55.2822 -48.3027 -68.3828c-11.9004 -8.48828 -25.1035 -12.6758 -37.8701 -12.6758c-15.2168 0 -29.8105 5.9541 -40.8252 17.668c-27.2119 28.9404 -26.1631 81.415 -13.6699 117.921c8.50293 24.8604 22.2148 48.3379 41.9189 71.7842
c33.5947 39.9707 73.8271 67.791 112.734 94.6992c0.828125 0.570312 1.65625 1.14746 2.48438 1.71777c1.94531 49.0439 0.703125 98.6543 -0.504883 146.957c-1.36426 54.5498 -4.62402 111.272 -7.77344 166.126c-1.66797 29.0361 -3.34766 58.5811 -4.78027 88.0957
c-15.5205 -61.9619 -25.9463 -126.896 -36.0078 -190.089c-13.3936 -84.1396 -27.2461 -171.145 -53.2881 -251.648c-6.34863 -19.6201 -14.499 -42.2158 -26.7715 -61.0381c-14.1914 -21.7598 -32.4062 -35.5596 -51.2861 -38.8496
c-3.02051 -0.52832 -6.06348 -0.787109 -9.12207 -0.787109c-20.874 0 -42.2344 12.0635 -58.6367 33.5537c-13.7461 18.002 -24.1875 41.6191 -32.8613 74.3135c-22.0488 83.125 -19.5752 173.299 -15.8027 233.896c5.74902 92.2822 19.3135 184.348 32.4297 273.385
c1.0752 7.26465 7.80078 12.2949 15.0957 11.2197c7.26855 -1.07129 12.2881 -7.82715 11.2207 -15.0957c-13.04 -88.4902 -26.5244 -179.993 -32.2012 -271.158c-3.65918 -58.752 -6.09082 -146.038 14.9619 -225.429c7.64062 -28.8037 16.9004 -50.0654 28.2988 -64.9932
c12.6709 -16.6035 28.3857 -25.0801 42.0488 -22.7051c11.3643 1.9834 23.6064 11.8887 33.5762 27.1777c10.5703 16.2051 17.9336 36.7451 23.7432 54.6973c25.4072 78.5352 39.0928 164.503 52.3301 247.64c12.25 76.9355 24.9141 156.489 46.8789 231.027
c3.22168 10.9238 7.63672 25.21 13.2676 38.9453c0.00390625 0.0185547 0.0117188 0.0371094 0.0195312 0.0527344c0.0224609 0.0527344 0.0410156 0.105469 0.0634766 0.158203c0.114258 0.289062 0.292969 0.52832 0.425781 0.801758
c0.239258 0.482422 0.463867 0.96875 0.756836 1.41699c0.258789 0.391602 0.5625 0.729492 0.851562 1.08691c0.250977 0.307617 0.475586 0.626953 0.75293 0.912109c0.337891 0.345703 0.713867 0.634766 1.08203 0.938477
c0.292969 0.243164 0.570312 0.501953 0.885742 0.722656c0.37207 0.254883 0.774414 0.456055 1.16992 0.672852c0.361328 0.197266 0.703125 0.414062 1.08301 0.577148c0.425781 0.186523 0.870117 0.304688 1.31055 0.445312
c0.379883 0.118164 0.744141 0.266602 1.13574 0.350586c0.570312 0.125 1.15918 0.170898 1.74805 0.220703c0.258789 0.0185547 0.505859 0.0869141 0.767578 0.0947266c0.0302734 0 0.0527344 -0.00390625 0.0791016 -0.00390625
c0.59668 0.0117188 1.19336 -0.0683594 1.79004 -0.136719c0.28125 -0.0341797 0.570312 -0.0224609 0.847656 -0.0751953c0.478516 -0.0908203 0.953125 -0.261719 1.42773 -0.40625c0.361328 -0.110352 0.733398 -0.182617 1.08301 -0.323242
c0.0566406 -0.0185547 0.113281 -0.0263672 0.166016 -0.0488281c0.546875 -0.220703 1.0293 -0.52832 1.52734 -0.813477c0.19043 -0.110352 0.399414 -0.194336 0.582031 -0.3125c0.623047 -0.399414 1.18555 -0.859375 1.72168 -1.3457
c0.0908203 -0.0839844 0.189453 -0.148438 0.276367 -0.232422c0.508789 -0.486328 0.949219 -1.01465 1.36719 -1.56543c0.106445 -0.140625 0.231445 -0.262695 0.330078 -0.407227c0.349609 -0.494141 0.626953 -1.01855 0.904297 -1.55469
c0.128906 -0.24707 0.28125 -0.478516 0.395508 -0.737305c0.212891 -0.482422 0.357422 -0.991211 0.513672 -1.49609c0.0986328 -0.330078 0.227539 -0.645508 0.303711 -0.987305c0.125 -0.566406 0.170898 -1.14355 0.220703 -1.7207
c0.0224609 -0.269531 0.0947266 -0.524414 0.102539 -0.801758c1.36426 -54.5498 4.62402 -111.272 7.77344 -166.126c3.16504 -55.0664 6.43652 -112.006 7.81152 -166.988c1.05273 -42.1973 2.13574 -85.375 1.125 -128.545
c31.167 22.4014 60.2598 46.0908 84.9902 78.2197c4.47949 5.82129 12.8311 6.91211 18.6484 2.42871zM282.116 88.293c0.128906 1.62988 0.254883 3.2627 0.376953 4.89258c-33.793 -23.5762 -65.583 -47.2588 -92.9814 -79.8623
c-17.5576 -20.8857 -29.6973 -41.585 -37.1211 -63.2803c-10.0615 -29.3965 -10.7188 -71.3125 7.87988 -91.0928c13.6436 -14.5137 32.1582 -9.9082 43.8721 -1.55664c14.29 10.1943 27.1514 28.918 39.3135 57.2314c20.2852 47.2051 33.291 105.634 38.6602 173.668z" />
    <glyph glyph-name="Y" unicode="&#x178;" horiz-adv-x="397" 
d="M415.22 226.583c5.82129 -4.47949 6.9043 -12.8311 2.4248 -18.6406c-31.2969 -40.6621 -69.4512 -69.0479 -107.302 -95.4316c-0.456055 -8.77637 -1.01855 -17.5498 -1.70996 -26.2998c-5.60059 -70.9365 -19.3057 -132.192 -40.7383 -182.072
c-14.1416 -32.9111 -29.9395 -55.2822 -48.3027 -68.3828c-11.9004 -8.48828 -25.1035 -12.6758 -37.8701 -12.6758c-15.2168 0 -29.8105 5.9541 -40.8252 17.668c-27.2119 28.9404 -26.1631 81.415 -13.6699 117.921c8.50293 24.8604 22.2148 48.3379 41.9189 71.7842
c33.5947 39.9707 73.8271 67.791 112.734 94.6992c0.828125 0.570312 1.65625 1.14746 2.48438 1.71777c1.94531 49.0439 0.703125 98.6543 -0.504883 146.957c-1.36426 54.5498 -4.62402 111.272 -7.77344 166.126c-1.66797 29.0361 -3.34766 58.5811 -4.78027 88.0957
c-15.5205 -61.9619 -25.9463 -126.896 -36.0078 -190.089c-13.3936 -84.1396 -27.2461 -171.145 -53.2881 -251.648c-6.34863 -19.6201 -14.499 -42.2158 -26.7715 -61.0381c-14.1914 -21.7598 -32.4062 -35.5596 -51.2861 -38.8496
c-3.02051 -0.52832 -6.06348 -0.787109 -9.12207 -0.787109c-20.874 0 -42.2344 12.0635 -58.6367 33.5537c-13.7461 18.002 -24.1875 41.6191 -32.8613 74.3135c-22.0488 83.125 -19.5752 173.299 -15.8027 233.896c5.74902 92.2822 19.3135 184.348 32.4297 273.385
c1.0752 7.26465 7.80078 12.2949 15.0957 11.2197c7.26855 -1.07129 12.2881 -7.82715 11.2207 -15.0957c-13.04 -88.4902 -26.5244 -179.993 -32.2012 -271.158c-3.65918 -58.752 -6.09082 -146.038 14.9619 -225.429c7.64062 -28.8037 16.9004 -50.0654 28.2988 -64.9932
c12.6709 -16.6035 28.3857 -25.0801 42.0488 -22.7051c11.3643 1.9834 23.6064 11.8887 33.5762 27.1777c10.5703 16.2051 17.9336 36.7451 23.7432 54.6973c25.4072 78.5352 39.0928 164.503 52.3301 247.64c12.25 76.9355 24.9141 156.489 46.8789 231.027
c3.22168 10.9238 7.63672 25.21 13.2676 38.9453c0.00390625 0.0185547 0.0117188 0.0371094 0.0195312 0.0527344c0.0224609 0.0527344 0.0410156 0.105469 0.0634766 0.158203c0.114258 0.289062 0.292969 0.52832 0.425781 0.801758
c0.239258 0.482422 0.463867 0.96875 0.756836 1.41699c0.258789 0.391602 0.5625 0.729492 0.851562 1.08691c0.250977 0.307617 0.475586 0.626953 0.75293 0.912109c0.337891 0.345703 0.713867 0.634766 1.08203 0.938477
c0.292969 0.243164 0.570312 0.501953 0.885742 0.722656c0.37207 0.254883 0.774414 0.456055 1.16992 0.672852c0.361328 0.197266 0.703125 0.414062 1.08301 0.577148c0.425781 0.186523 0.870117 0.304688 1.31055 0.445312
c0.379883 0.118164 0.744141 0.266602 1.13574 0.350586c0.570312 0.125 1.15918 0.170898 1.74805 0.220703c0.258789 0.0185547 0.505859 0.0869141 0.767578 0.0947266c0.0302734 0 0.0527344 -0.00390625 0.0791016 -0.00390625
c0.59668 0.0117188 1.19336 -0.0683594 1.79004 -0.136719c0.28125 -0.0341797 0.570312 -0.0224609 0.847656 -0.0751953c0.478516 -0.0908203 0.953125 -0.261719 1.42773 -0.40625c0.361328 -0.110352 0.733398 -0.182617 1.08301 -0.323242
c0.0566406 -0.0185547 0.113281 -0.0263672 0.166016 -0.0488281c0.546875 -0.220703 1.0293 -0.52832 1.52734 -0.813477c0.19043 -0.110352 0.399414 -0.194336 0.582031 -0.3125c0.623047 -0.399414 1.18555 -0.859375 1.72168 -1.3457
c0.0908203 -0.0839844 0.189453 -0.148438 0.276367 -0.232422c0.508789 -0.486328 0.949219 -1.01465 1.36719 -1.56543c0.106445 -0.140625 0.231445 -0.262695 0.330078 -0.407227c0.349609 -0.494141 0.626953 -1.01855 0.904297 -1.55469
c0.128906 -0.24707 0.28125 -0.478516 0.395508 -0.737305c0.212891 -0.482422 0.357422 -0.991211 0.513672 -1.49609c0.0986328 -0.330078 0.227539 -0.645508 0.303711 -0.987305c0.125 -0.566406 0.170898 -1.14355 0.220703 -1.7207
c0.0224609 -0.269531 0.0947266 -0.524414 0.102539 -0.801758c1.36426 -54.5498 4.62402 -111.272 7.77344 -166.126c3.16504 -55.0664 6.43652 -112.006 7.81152 -166.988c1.05273 -42.1973 2.13574 -85.375 1.125 -128.545
c31.167 22.4014 60.2598 46.0908 84.9902 78.2197c4.47949 5.82129 12.8311 6.91211 18.6484 2.42871zM282.116 88.293c0.128906 1.62988 0.254883 3.2627 0.376953 4.89258c-33.793 -23.5762 -65.583 -47.2588 -92.9814 -79.8623
c-17.5576 -20.8857 -29.6973 -41.585 -37.1211 -63.2803c-10.0615 -29.3965 -10.7188 -71.3125 7.87988 -91.0928c13.6436 -14.5137 32.1582 -9.9082 43.8721 -1.55664c14.29 10.1943 27.1514 28.918 39.3135 57.2314c20.2852 47.2051 33.291 105.634 38.6602 173.668z" />
    <glyph glyph-name="Y" unicode="&#xdd;" horiz-adv-x="397" 
d="M415.22 226.583c5.82129 -4.47949 6.9043 -12.8311 2.4248 -18.6406c-31.2969 -40.6621 -69.4512 -69.0479 -107.302 -95.4316c-0.456055 -8.77637 -1.01855 -17.5498 -1.70996 -26.2998c-5.60059 -70.9365 -19.3057 -132.192 -40.7383 -182.072
c-14.1416 -32.9111 -29.9395 -55.2822 -48.3027 -68.3828c-11.9004 -8.48828 -25.1035 -12.6758 -37.8701 -12.6758c-15.2168 0 -29.8105 5.9541 -40.8252 17.668c-27.2119 28.9404 -26.1631 81.415 -13.6699 117.921c8.50293 24.8604 22.2148 48.3379 41.9189 71.7842
c33.5947 39.9707 73.8271 67.791 112.734 94.6992c0.828125 0.570312 1.65625 1.14746 2.48438 1.71777c1.94531 49.0439 0.703125 98.6543 -0.504883 146.957c-1.36426 54.5498 -4.62402 111.272 -7.77344 166.126c-1.66797 29.0361 -3.34766 58.5811 -4.78027 88.0957
c-15.5205 -61.9619 -25.9463 -126.896 -36.0078 -190.089c-13.3936 -84.1396 -27.2461 -171.145 -53.2881 -251.648c-6.34863 -19.6201 -14.499 -42.2158 -26.7715 -61.0381c-14.1914 -21.7598 -32.4062 -35.5596 -51.2861 -38.8496
c-3.02051 -0.52832 -6.06348 -0.787109 -9.12207 -0.787109c-20.874 0 -42.2344 12.0635 -58.6367 33.5537c-13.7461 18.002 -24.1875 41.6191 -32.8613 74.3135c-22.0488 83.125 -19.5752 173.299 -15.8027 233.896c5.74902 92.2822 19.3135 184.348 32.4297 273.385
c1.0752 7.26465 7.80078 12.2949 15.0957 11.2197c7.26855 -1.07129 12.2881 -7.82715 11.2207 -15.0957c-13.04 -88.4902 -26.5244 -179.993 -32.2012 -271.158c-3.65918 -58.752 -6.09082 -146.038 14.9619 -225.429c7.64062 -28.8037 16.9004 -50.0654 28.2988 -64.9932
c12.6709 -16.6035 28.3857 -25.0801 42.0488 -22.7051c11.3643 1.9834 23.6064 11.8887 33.5762 27.1777c10.5703 16.2051 17.9336 36.7451 23.7432 54.6973c25.4072 78.5352 39.0928 164.503 52.3301 247.64c12.25 76.9355 24.9141 156.489 46.8789 231.027
c3.22168 10.9238 7.63672 25.21 13.2676 38.9453c0.00390625 0.0185547 0.0117188 0.0371094 0.0195312 0.0527344c0.0224609 0.0527344 0.0410156 0.105469 0.0634766 0.158203c0.114258 0.289062 0.292969 0.52832 0.425781 0.801758
c0.239258 0.482422 0.463867 0.96875 0.756836 1.41699c0.258789 0.391602 0.5625 0.729492 0.851562 1.08691c0.250977 0.307617 0.475586 0.626953 0.75293 0.912109c0.337891 0.345703 0.713867 0.634766 1.08203 0.938477
c0.292969 0.243164 0.570312 0.501953 0.885742 0.722656c0.37207 0.254883 0.774414 0.456055 1.16992 0.672852c0.361328 0.197266 0.703125 0.414062 1.08301 0.577148c0.425781 0.186523 0.870117 0.304688 1.31055 0.445312
c0.379883 0.118164 0.744141 0.266602 1.13574 0.350586c0.570312 0.125 1.15918 0.170898 1.74805 0.220703c0.258789 0.0185547 0.505859 0.0869141 0.767578 0.0947266c0.0302734 0 0.0527344 -0.00390625 0.0791016 -0.00390625
c0.59668 0.0117188 1.19336 -0.0683594 1.79004 -0.136719c0.28125 -0.0341797 0.570312 -0.0224609 0.847656 -0.0751953c0.478516 -0.0908203 0.953125 -0.261719 1.42773 -0.40625c0.361328 -0.110352 0.733398 -0.182617 1.08301 -0.323242
c0.0566406 -0.0185547 0.113281 -0.0263672 0.166016 -0.0488281c0.546875 -0.220703 1.0293 -0.52832 1.52734 -0.813477c0.19043 -0.110352 0.399414 -0.194336 0.582031 -0.3125c0.623047 -0.399414 1.18555 -0.859375 1.72168 -1.3457
c0.0908203 -0.0839844 0.189453 -0.148438 0.276367 -0.232422c0.508789 -0.486328 0.949219 -1.01465 1.36719 -1.56543c0.106445 -0.140625 0.231445 -0.262695 0.330078 -0.407227c0.349609 -0.494141 0.626953 -1.01855 0.904297 -1.55469
c0.128906 -0.24707 0.28125 -0.478516 0.395508 -0.737305c0.212891 -0.482422 0.357422 -0.991211 0.513672 -1.49609c0.0986328 -0.330078 0.227539 -0.645508 0.303711 -0.987305c0.125 -0.566406 0.170898 -1.14355 0.220703 -1.7207
c0.0224609 -0.269531 0.0947266 -0.524414 0.102539 -0.801758c1.36426 -54.5498 4.62402 -111.272 7.77344 -166.126c3.16504 -55.0664 6.43652 -112.006 7.81152 -166.988c1.05273 -42.1973 2.13574 -85.375 1.125 -128.545
c31.167 22.4014 60.2598 46.0908 84.9902 78.2197c4.47949 5.82129 12.8311 6.91211 18.6484 2.42871zM282.116 88.293c0.128906 1.62988 0.254883 3.2627 0.376953 4.89258c-33.793 -23.5762 -65.583 -47.2588 -92.9814 -79.8623
c-17.5576 -20.8857 -29.6973 -41.585 -37.1211 -63.2803c-10.0615 -29.3965 -10.7188 -71.3125 7.87988 -91.0928c13.6436 -14.5137 32.1582 -9.9082 43.8721 -1.55664c14.29 10.1943 27.1514 28.918 39.3135 57.2314c20.2852 47.2051 33.291 105.634 38.6602 173.668z" />
    <glyph glyph-name="Z" unicode="Z" horiz-adv-x="578" 
d="M579.654 223.285c5.70312 4.62402 14.0791 3.75586 18.7109 -1.94727c4.62402 -5.70703 3.74609 -14.0811 -1.95703 -18.7051c-50.9697 -41.3086 -165.57 -93.5439 -283.929 -144.039c-3.19531 -7.7207 -6.50879 -15.2705 -9.94336 -22.6602
c-53.2158 -114.372 -140.635 -188.698 -228.148 -193.972c-3.43066 -0.205078 -6.83105 -0.307617 -10.2129 -0.307617c-44.541 0 -84.6602 17.8467 -113.852 50.8828c-3.97461 4.49512 -5.47949 10.4492 -4.13477 16.3271c5.76758 25.1865 72.4639 55.1719 261.591 134.444
c27.6299 11.5811 55.9551 23.4502 84.1475 35.4336c31.8584 81.2178 50.4648 181.665 56.7148 305.646c-10.2285 -2.88379 -20.4531 -5.72559 -30.6436 -8.48047c-1.16309 -0.311523 -2.3291 -0.463867 -3.47656 -0.463867c-5.8623 0 -11.2275 3.90625 -12.8311 9.83301
c-1.91504 7.08984 2.2793 14.3926 9.36914 16.3076c12.9521 3.49902 25.958 7.14648 38.9639 10.8545c2.61816 57.0527 3.37793 114.938 -13.0205 166.722c-18.3555 57.9541 -64.626 63.2617 -100.212 57.5059c-49.4805 -8.00586 -108.862 -42.7217 -154.966 -90.6104
c-49.7051 -51.6279 -77.7871 -111.234 -77.0576 -163.542c0.102539 -7.34473 -5.76758 -13.3818 -13.1123 -13.4844c-7.31445 -0.0869141 -13.3818 5.76855 -13.4844 13.1133c-0.828125 59.2568 29.9668 125.722 84.4932 182.357
c50.6553 52.6152 114.164 89.4053 169.884 98.418c63.9951 10.3457 111.295 -17.2578 129.813 -75.7324c16.8506 -53.2158 16.9912 -110.44 14.624 -166.928c12.8916 3.80664 25.7607 7.6748 38.5381 11.6377c6.99902 2.18066 14.4648 -1.74414 16.6416 -8.75781
s-1.74414 -14.4648 -8.76172 -16.6416c-15.8174 -4.90918 -31.7598 -9.68848 -47.7324 -14.3545c-0.0498047 -0.93457 -0.0957031 -1.87305 -0.141602 -2.80762l-0.269531 -5.41797c-5.75977 -115.368 -22.0898 -211.191 -49.6816 -290.787
c107.978 46.5098 208.847 93.4941 254.076 130.155zM72.7842 -131.498c76.8262 4.63184 154.668 71.5127 203.864 174.886c-19.6816 -8.30566 -39.3057 -16.5312 -58.5879 -24.6123c-98.9346 -41.4678 -220.655 -92.4912 -243.312 -113.468
c25.5098 -26.0645 60.0742 -39.1045 98.0352 -36.8057z" />
    <glyph glyph-name="bracketleft" unicode="[" horiz-adv-x="222" 
d="M170.227 -185.392c3.47656 -6.4707 1.04785 -14.5332 -5.41504 -18.0098c-6.38672 -3.43457 -13.2451 -5.09863 -20.2061 -5.09863c-16.3564 0 -33.2793 9.16406 -46.0723 26.0107c-14.9473 19.6816 -22.4287 45.5225 -27.7705 68.209
c-24.1758 102.617 -21.7021 210.584 -19.3086 314.994l8.26758 360.317c1.00293 43.9336 2.04395 89.3643 6.44043 133.993c2.85742 28.998 7.74316 58.7744 24.0244 80.1387c10.6084 13.918 26.958 21.6426 42.6992 20.1494
c13.8457 -1.31445 25.5596 -9.63965 32.1328 -22.8467c3.2793 -6.57324 0.59668 -14.5557 -5.97266 -17.8311c-6.58105 -3.27539 -14.5596 -0.592773 -17.8311 5.97656c-2.5 5.01562 -6.14355 7.78125 -10.8398 8.22559
c-6.50488 0.626953 -14.0283 -3.22168 -19.0322 -9.79102c-12.2988 -16.1367 -16.3604 -42.7373 -18.7119 -66.6328c-4.30078 -43.6338 -5.32617 -88.5518 -6.32129 -131.995l-8.26758 -360.317c-2.35938 -102.738 -4.79102 -208.972 18.6025 -308.283
c4.43066 -18.7998 11.0566 -42.4102 23.0635 -58.2197c8.33984 -10.9766 21.6191 -19.4268 32.5088 -13.5752c6.4707 3.47656 14.5293 1.05273 18.0098 -5.41406z" />
    <glyph glyph-name="backslash" unicode="\" horiz-adv-x="351" 
d="M300.565 -129.22c1.82031 -7.1123 -2.47461 -14.3574 -9.59082 -16.1738c-1.10547 -0.28125 -2.21094 -0.417969 -3.30566 -0.417969c-5.93066 0 -11.3369 3.99316 -12.8721 10.0039l-85.1318 332.722c-20.6582 80.7471 -42.0225 164.245 -65.3555 245.171
c-22.3066 77.3613 -47.0488 154.578 -73.5469 229.504c-2.44727 6.92285 1.18164 14.5215 8.10449 16.9717c6.93066 2.44727 14.5254 -1.18164 16.9727 -8.10449c26.6689 -75.4199 51.5781 -153.143 74.0293 -231.006c23.4434 -81.3125 44.8574 -165.008 65.5645 -245.948z
" />
    <glyph glyph-name="bracketright" unicode="]" horiz-adv-x="222" 
d="M170.358 200.713c2.39355 -104.418 4.86523 -212.39 -19.3037 -314.995c-5.3457 -22.6865 -12.8232 -48.5303 -27.7705 -68.208c-12.793 -16.8467 -29.7197 -26.0107 -46.0723 -26.0107c-6.96094 0 -13.8193 1.66406 -20.21 5.09863
c-6.4668 3.47656 -8.89453 11.5391 -5.41797 18.0098c3.48047 6.4707 11.543 8.89453 18.0098 5.41797c10.8857 -5.85156 24.1768 2.59863 32.5127 13.5752c12.0068 15.8096 18.6328 39.4199 23.0635 58.2197c23.3936 99.2959 20.958 205.537 18.6025 308.283
l-8.26367 360.317c-0.999023 43.4658 -2.02832 88.4102 -6.32129 131.994c-2.35156 23.8877 -6.41699 50.4883 -18.7158 66.6289c-5.00781 6.56934 -12.4893 10.4141 -19.0322 9.79102c-4.7002 -0.448242 -8.34375 -3.21387 -10.8398 -8.22559
c-3.27539 -6.57324 -11.251 -9.24805 -17.832 -5.97656c-6.56934 3.27148 -9.24805 11.2578 -5.97266 17.8311c6.57324 13.207 18.2871 21.5352 32.1328 22.8457c15.7451 1.49707 32.0908 -6.22754 42.6992 -20.1484c16.2842 -21.3682 21.1699 -51.1445 24.0273 -80.1387
c4.38867 -44.5791 5.42969 -90.0361 6.44043 -133.992z" />
    <glyph glyph-name="asciicircum" unicode="^" horiz-adv-x="252" 
d="M131.476 609.349c8.44238 -4.88281 73.7344 -81.6055 70.7598 -115.334c-0.645508 -7.31445 -7.12012 -12.7246 -14.415 -12.0791c-7.31738 0.642578 -12.7236 7.09766 -12.0781 14.415c1.26855 14.377 -33.6943 62.5322 -51.2061 82.8066
c-2.44336 -3.30957 -4.77637 -7.09766 -7.02539 -10.8555c-15.6729 -26.1895 -29.7764 -54.3857 -41.916 -83.8086c-2.11621 -5.13281 -7.07422 -8.22949 -12.2988 -8.22949c-1.68652 0 -3.4043 0.323242 -5.06445 1.00684
c-6.79004 2.7998 -10.0195 10.5732 -7.21973 17.3633c12.6406 30.6318 27.333 60.0137 43.6787 87.3242c5.93848 9.91309 12.5342 20.1562 22.1465 26.874c4.23633 2.95996 10.167 3.10449 14.6387 0.516602z" />
    <glyph glyph-name="underscore" unicode="_" horiz-adv-x="295" 
d="M230.938 -50.3574c7.36328 0.402344 13.5986 -5.22656 13.9902 -12.5635c0.395508 -7.33691 -5.22754 -13.6025 -12.5605 -13.998c-55.9209 -3.02051 -112.644 -5.57715 -168.591 -7.61035c-0.163086 -0.0078125 -0.326172 -0.0078125 -0.489258 -0.0078125
c-7.12012 0 -13.0205 5.63867 -13.2793 12.8154c-0.265625 7.34082 5.46777 13.5078 12.8086 13.7734c55.7959 2.02539 112.355 4.58203 168.121 7.59082z" />
    <glyph glyph-name="grave" unicode="`" horiz-adv-x="153" 
d="M101.481 537.701c3.75391 -6.31055 1.67871 -14.4727 -4.63574 -18.2266c-2.13184 -1.26562 -4.47656 -1.87012 -6.78711 -1.87012c-4.53613 0 -8.95508 2.32129 -11.4434 6.50488c-13.9746 23.5078 -23.8115 51.415 -28.4512 80.7012
c-1.14746 7.25293 3.80371 14.0654 11.0566 15.2129c7.24219 1.15527 14.0625 -3.79883 15.2139 -11.0518c4.11523 -25.9883 12.7783 -50.6318 25.0469 -71.2705z" />
    <glyph glyph-name="a" unicode="a" horiz-adv-x="266" 
d="M280.645 223.763c7.03711 -2.10156 11.0381 -9.51367 8.94043 -16.5615c-15.7754 -52.8125 -35.8516 -103.464 -59.6748 -150.551c-6.70605 -13.249 -14.7842 -28.333 -25.8555 -39.6445c-9.4834 -9.68848 -19.415 -14.5938 -29.5449 -14.5938
c-0.452148 0 -0.904297 0.0117188 -1.36035 0.0302734c-14.3389 0.619141 -27.5459 11.4365 -35.3232 28.9336c-5.85547 13.1768 -8.00195 27.9834 -9.44531 42.0225c-2.42773 23.5801 -3.26758 47.1631 -3.04297 70.6777
c-9.52539 -34.9102 -20.6582 -69.0527 -33.375 -102.028c-3.71582 -9.63574 -7.51172 -18.9746 -13.0625 -27.3789c-7.38574 -11.1777 -16.5732 -18.29 -26.5732 -20.5771c-2.375 -0.542969 -4.77637 -0.808594 -7.17773 -0.808594
c-11.8203 0 -23.625 6.4668 -32.6484 18.1885c-7.1123 9.24023 -12.4814 21.3037 -16.8965 37.9648c-17.5654 66.3047 -4.66211 134.866 9.25879 180.707c4.30469 14.168 10.4824 32.501 20.1484 48.6299c10.4785 17.4893 23.5908 29.6934 37.915 35.29
c8.99316 3.51855 18.123 4.20996 26.3984 2.00293c23.2002 -6.18555 35.2139 -32.7441 40.3086 -48.0215c1.2041 -3.60547 2.25684 -7.25293 3.25586 -10.9043c1.77051 16.4668 3.68945 32.8467 5.60449 49.1006c0.862305 7.29492 7.47363 12.5117 14.7646 11.6533
s12.5078 -7.46582 11.6494 -14.7607c-8.77637 -74.4736 -17.8457 -151.481 -10.0762 -227c1.21973 -11.8506 2.94824 -24.1689 7.29102 -33.9453c3.72363 -8.36621 9.04688 -13.0283 12.1699 -13.1611c2.56445 -0.128906 6.5957 2.35254 10.749 6.59668
c8.42773 8.60547 15.0615 21.0449 21.1328 33.0479c23.1123 45.6777 42.5996 94.8545 57.9229 146.155c2.10156 7.04004 9.52148 11.0371 16.5469 8.93555zM67.1475 51.6309c20.3047 52.6533 36.5811 108.334 48.3711 165.505
c-1.53906 5.64648 -2.8916 11.3037 -4.22168 16.8623c-2.1543 9.0166 -4.19043 17.5312 -6.8916 25.6357c-5.61914 16.8545 -14.0234 28.6328 -21.9307 30.7412c-0.980469 0.258789 -1.9834 0.369141 -2.97461 0.369141c-2.55371 0 -5.04199 -0.72168 -6.89258 -1.44336
c-8.65918 -3.38574 -17.4629 -11.9766 -24.7803 -24.1924c-8.17285 -13.6436 -13.6514 -29.9775 -17.5117 -42.6865c-12.918 -42.5391 -24.9658 -105.903 -9 -166.167c3.43066 -12.9521 7.44336 -22.291 12.2607 -28.5527
c4.15332 -5.39551 9.32422 -8.46973 12.8232 -7.67188c3.06641 0.703125 6.92285 4.18359 10.3115 9.3125c4.08398 6.18164 7.26758 14.0693 10.4365 22.2881z" />
    <glyph glyph-name="a" unicode="&#xe5;" horiz-adv-x="266" 
d="M280.645 223.763c7.03711 -2.10156 11.0381 -9.51367 8.94043 -16.5615c-15.7754 -52.8125 -35.8516 -103.464 -59.6748 -150.551c-6.70605 -13.249 -14.7842 -28.333 -25.8555 -39.6445c-9.4834 -9.68848 -19.415 -14.5938 -29.5449 -14.5938
c-0.452148 0 -0.904297 0.0117188 -1.36035 0.0302734c-14.3389 0.619141 -27.5459 11.4365 -35.3232 28.9336c-5.85547 13.1768 -8.00195 27.9834 -9.44531 42.0225c-2.42773 23.5801 -3.26758 47.1631 -3.04297 70.6777
c-9.52539 -34.9102 -20.6582 -69.0527 -33.375 -102.028c-3.71582 -9.63574 -7.51172 -18.9746 -13.0625 -27.3789c-7.38574 -11.1777 -16.5732 -18.29 -26.5732 -20.5771c-2.375 -0.542969 -4.77637 -0.808594 -7.17773 -0.808594
c-11.8203 0 -23.625 6.4668 -32.6484 18.1885c-7.1123 9.24023 -12.4814 21.3037 -16.8965 37.9648c-17.5654 66.3047 -4.66211 134.866 9.25879 180.707c4.30469 14.168 10.4824 32.501 20.1484 48.6299c10.4785 17.4893 23.5908 29.6934 37.915 35.29
c8.99316 3.51855 18.123 4.20996 26.3984 2.00293c23.2002 -6.18555 35.2139 -32.7441 40.3086 -48.0215c1.2041 -3.60547 2.25684 -7.25293 3.25586 -10.9043c1.77051 16.4668 3.68945 32.8467 5.60449 49.1006c0.862305 7.29492 7.47363 12.5117 14.7646 11.6533
s12.5078 -7.46582 11.6494 -14.7607c-8.77637 -74.4736 -17.8457 -151.481 -10.0762 -227c1.21973 -11.8506 2.94824 -24.1689 7.29102 -33.9453c3.72363 -8.36621 9.04688 -13.0283 12.1699 -13.1611c2.56445 -0.128906 6.5957 2.35254 10.749 6.59668
c8.42773 8.60547 15.0615 21.0449 21.1328 33.0479c23.1123 45.6777 42.5996 94.8545 57.9229 146.155c2.10156 7.04004 9.52148 11.0371 16.5469 8.93555zM67.1475 51.6309c20.3047 52.6533 36.5811 108.334 48.3711 165.505
c-1.53906 5.64648 -2.8916 11.3037 -4.22168 16.8623c-2.1543 9.0166 -4.19043 17.5312 -6.8916 25.6357c-5.61914 16.8545 -14.0234 28.6328 -21.9307 30.7412c-0.980469 0.258789 -1.9834 0.369141 -2.97461 0.369141c-2.55371 0 -5.04199 -0.72168 -6.89258 -1.44336
c-8.65918 -3.38574 -17.4629 -11.9766 -24.7803 -24.1924c-8.17285 -13.6436 -13.6514 -29.9775 -17.5117 -42.6865c-12.918 -42.5391 -24.9658 -105.903 -9 -166.167c3.43066 -12.9521 7.44336 -22.291 12.2607 -28.5527
c4.15332 -5.39551 9.32422 -8.46973 12.8232 -7.67188c3.06641 0.703125 6.92285 4.18359 10.3115 9.3125c4.08398 6.18164 7.26758 14.0693 10.4365 22.2881z" />
    <glyph glyph-name="a" unicode="&#xe4;" horiz-adv-x="266" 
d="M280.645 223.763c7.03711 -2.10156 11.0381 -9.51367 8.94043 -16.5615c-15.7754 -52.8125 -35.8516 -103.464 -59.6748 -150.551c-6.70605 -13.249 -14.7842 -28.333 -25.8555 -39.6445c-9.4834 -9.68848 -19.415 -14.5938 -29.5449 -14.5938
c-0.452148 0 -0.904297 0.0117188 -1.36035 0.0302734c-14.3389 0.619141 -27.5459 11.4365 -35.3232 28.9336c-5.85547 13.1768 -8.00195 27.9834 -9.44531 42.0225c-2.42773 23.5801 -3.26758 47.1631 -3.04297 70.6777
c-9.52539 -34.9102 -20.6582 -69.0527 -33.375 -102.028c-3.71582 -9.63574 -7.51172 -18.9746 -13.0625 -27.3789c-7.38574 -11.1777 -16.5732 -18.29 -26.5732 -20.5771c-2.375 -0.542969 -4.77637 -0.808594 -7.17773 -0.808594
c-11.8203 0 -23.625 6.4668 -32.6484 18.1885c-7.1123 9.24023 -12.4814 21.3037 -16.8965 37.9648c-17.5654 66.3047 -4.66211 134.866 9.25879 180.707c4.30469 14.168 10.4824 32.501 20.1484 48.6299c10.4785 17.4893 23.5908 29.6934 37.915 35.29
c8.99316 3.51855 18.123 4.20996 26.3984 2.00293c23.2002 -6.18555 35.2139 -32.7441 40.3086 -48.0215c1.2041 -3.60547 2.25684 -7.25293 3.25586 -10.9043c1.77051 16.4668 3.68945 32.8467 5.60449 49.1006c0.862305 7.29492 7.47363 12.5117 14.7646 11.6533
s12.5078 -7.46582 11.6494 -14.7607c-8.77637 -74.4736 -17.8457 -151.481 -10.0762 -227c1.21973 -11.8506 2.94824 -24.1689 7.29102 -33.9453c3.72363 -8.36621 9.04688 -13.0283 12.1699 -13.1611c2.56445 -0.128906 6.5957 2.35254 10.749 6.59668
c8.42773 8.60547 15.0615 21.0449 21.1328 33.0479c23.1123 45.6777 42.5996 94.8545 57.9229 146.155c2.10156 7.04004 9.52148 11.0371 16.5469 8.93555zM67.1475 51.6309c20.3047 52.6533 36.5811 108.334 48.3711 165.505
c-1.53906 5.64648 -2.8916 11.3037 -4.22168 16.8623c-2.1543 9.0166 -4.19043 17.5312 -6.8916 25.6357c-5.61914 16.8545 -14.0234 28.6328 -21.9307 30.7412c-0.980469 0.258789 -1.9834 0.369141 -2.97461 0.369141c-2.55371 0 -5.04199 -0.72168 -6.89258 -1.44336
c-8.65918 -3.38574 -17.4629 -11.9766 -24.7803 -24.1924c-8.17285 -13.6436 -13.6514 -29.9775 -17.5117 -42.6865c-12.918 -42.5391 -24.9658 -105.903 -9 -166.167c3.43066 -12.9521 7.44336 -22.291 12.2607 -28.5527
c4.15332 -5.39551 9.32422 -8.46973 12.8232 -7.67188c3.06641 0.703125 6.92285 4.18359 10.3115 9.3125c4.08398 6.18164 7.26758 14.0693 10.4365 22.2881z" />
    <glyph glyph-name="a" unicode="&#xe3;" horiz-adv-x="266" 
d="M280.645 223.763c7.03711 -2.10156 11.0381 -9.51367 8.94043 -16.5615c-15.7754 -52.8125 -35.8516 -103.464 -59.6748 -150.551c-6.70605 -13.249 -14.7842 -28.333 -25.8555 -39.6445c-9.4834 -9.68848 -19.415 -14.5938 -29.5449 -14.5938
c-0.452148 0 -0.904297 0.0117188 -1.36035 0.0302734c-14.3389 0.619141 -27.5459 11.4365 -35.3232 28.9336c-5.85547 13.1768 -8.00195 27.9834 -9.44531 42.0225c-2.42773 23.5801 -3.26758 47.1631 -3.04297 70.6777
c-9.52539 -34.9102 -20.6582 -69.0527 -33.375 -102.028c-3.71582 -9.63574 -7.51172 -18.9746 -13.0625 -27.3789c-7.38574 -11.1777 -16.5732 -18.29 -26.5732 -20.5771c-2.375 -0.542969 -4.77637 -0.808594 -7.17773 -0.808594
c-11.8203 0 -23.625 6.4668 -32.6484 18.1885c-7.1123 9.24023 -12.4814 21.3037 -16.8965 37.9648c-17.5654 66.3047 -4.66211 134.866 9.25879 180.707c4.30469 14.168 10.4824 32.501 20.1484 48.6299c10.4785 17.4893 23.5908 29.6934 37.915 35.29
c8.99316 3.51855 18.123 4.20996 26.3984 2.00293c23.2002 -6.18555 35.2139 -32.7441 40.3086 -48.0215c1.2041 -3.60547 2.25684 -7.25293 3.25586 -10.9043c1.77051 16.4668 3.68945 32.8467 5.60449 49.1006c0.862305 7.29492 7.47363 12.5117 14.7646 11.6533
s12.5078 -7.46582 11.6494 -14.7607c-8.77637 -74.4736 -17.8457 -151.481 -10.0762 -227c1.21973 -11.8506 2.94824 -24.1689 7.29102 -33.9453c3.72363 -8.36621 9.04688 -13.0283 12.1699 -13.1611c2.56445 -0.128906 6.5957 2.35254 10.749 6.59668
c8.42773 8.60547 15.0615 21.0449 21.1328 33.0479c23.1123 45.6777 42.5996 94.8545 57.9229 146.155c2.10156 7.04004 9.52148 11.0371 16.5469 8.93555zM67.1475 51.6309c20.3047 52.6533 36.5811 108.334 48.3711 165.505
c-1.53906 5.64648 -2.8916 11.3037 -4.22168 16.8623c-2.1543 9.0166 -4.19043 17.5312 -6.8916 25.6357c-5.61914 16.8545 -14.0234 28.6328 -21.9307 30.7412c-0.980469 0.258789 -1.9834 0.369141 -2.97461 0.369141c-2.55371 0 -5.04199 -0.72168 -6.89258 -1.44336
c-8.65918 -3.38574 -17.4629 -11.9766 -24.7803 -24.1924c-8.17285 -13.6436 -13.6514 -29.9775 -17.5117 -42.6865c-12.918 -42.5391 -24.9658 -105.903 -9 -166.167c3.43066 -12.9521 7.44336 -22.291 12.2607 -28.5527
c4.15332 -5.39551 9.32422 -8.46973 12.8232 -7.67188c3.06641 0.703125 6.92285 4.18359 10.3115 9.3125c4.08398 6.18164 7.26758 14.0693 10.4365 22.2881z" />
    <glyph glyph-name="a" unicode="&#xe2;" horiz-adv-x="266" 
d="M280.645 223.763c7.03711 -2.10156 11.0381 -9.51367 8.94043 -16.5615c-15.7754 -52.8125 -35.8516 -103.464 -59.6748 -150.551c-6.70605 -13.249 -14.7842 -28.333 -25.8555 -39.6445c-9.4834 -9.68848 -19.415 -14.5938 -29.5449 -14.5938
c-0.452148 0 -0.904297 0.0117188 -1.36035 0.0302734c-14.3389 0.619141 -27.5459 11.4365 -35.3232 28.9336c-5.85547 13.1768 -8.00195 27.9834 -9.44531 42.0225c-2.42773 23.5801 -3.26758 47.1631 -3.04297 70.6777
c-9.52539 -34.9102 -20.6582 -69.0527 -33.375 -102.028c-3.71582 -9.63574 -7.51172 -18.9746 -13.0625 -27.3789c-7.38574 -11.1777 -16.5732 -18.29 -26.5732 -20.5771c-2.375 -0.542969 -4.77637 -0.808594 -7.17773 -0.808594
c-11.8203 0 -23.625 6.4668 -32.6484 18.1885c-7.1123 9.24023 -12.4814 21.3037 -16.8965 37.9648c-17.5654 66.3047 -4.66211 134.866 9.25879 180.707c4.30469 14.168 10.4824 32.501 20.1484 48.6299c10.4785 17.4893 23.5908 29.6934 37.915 35.29
c8.99316 3.51855 18.123 4.20996 26.3984 2.00293c23.2002 -6.18555 35.2139 -32.7441 40.3086 -48.0215c1.2041 -3.60547 2.25684 -7.25293 3.25586 -10.9043c1.77051 16.4668 3.68945 32.8467 5.60449 49.1006c0.862305 7.29492 7.47363 12.5117 14.7646 11.6533
s12.5078 -7.46582 11.6494 -14.7607c-8.77637 -74.4736 -17.8457 -151.481 -10.0762 -227c1.21973 -11.8506 2.94824 -24.1689 7.29102 -33.9453c3.72363 -8.36621 9.04688 -13.0283 12.1699 -13.1611c2.56445 -0.128906 6.5957 2.35254 10.749 6.59668
c8.42773 8.60547 15.0615 21.0449 21.1328 33.0479c23.1123 45.6777 42.5996 94.8545 57.9229 146.155c2.10156 7.04004 9.52148 11.0371 16.5469 8.93555zM67.1475 51.6309c20.3047 52.6533 36.5811 108.334 48.3711 165.505
c-1.53906 5.64648 -2.8916 11.3037 -4.22168 16.8623c-2.1543 9.0166 -4.19043 17.5312 -6.8916 25.6357c-5.61914 16.8545 -14.0234 28.6328 -21.9307 30.7412c-0.980469 0.258789 -1.9834 0.369141 -2.97461 0.369141c-2.55371 0 -5.04199 -0.72168 -6.89258 -1.44336
c-8.65918 -3.38574 -17.4629 -11.9766 -24.7803 -24.1924c-8.17285 -13.6436 -13.6514 -29.9775 -17.5117 -42.6865c-12.918 -42.5391 -24.9658 -105.903 -9 -166.167c3.43066 -12.9521 7.44336 -22.291 12.2607 -28.5527
c4.15332 -5.39551 9.32422 -8.46973 12.8232 -7.67188c3.06641 0.703125 6.92285 4.18359 10.3115 9.3125c4.08398 6.18164 7.26758 14.0693 10.4365 22.2881z" />
    <glyph glyph-name="a" unicode="&#xe1;" horiz-adv-x="266" 
d="M280.645 223.763c7.03711 -2.10156 11.0381 -9.51367 8.94043 -16.5615c-15.7754 -52.8125 -35.8516 -103.464 -59.6748 -150.551c-6.70605 -13.249 -14.7842 -28.333 -25.8555 -39.6445c-9.4834 -9.68848 -19.415 -14.5938 -29.5449 -14.5938
c-0.452148 0 -0.904297 0.0117188 -1.36035 0.0302734c-14.3389 0.619141 -27.5459 11.4365 -35.3232 28.9336c-5.85547 13.1768 -8.00195 27.9834 -9.44531 42.0225c-2.42773 23.5801 -3.26758 47.1631 -3.04297 70.6777
c-9.52539 -34.9102 -20.6582 -69.0527 -33.375 -102.028c-3.71582 -9.63574 -7.51172 -18.9746 -13.0625 -27.3789c-7.38574 -11.1777 -16.5732 -18.29 -26.5732 -20.5771c-2.375 -0.542969 -4.77637 -0.808594 -7.17773 -0.808594
c-11.8203 0 -23.625 6.4668 -32.6484 18.1885c-7.1123 9.24023 -12.4814 21.3037 -16.8965 37.9648c-17.5654 66.3047 -4.66211 134.866 9.25879 180.707c4.30469 14.168 10.4824 32.501 20.1484 48.6299c10.4785 17.4893 23.5908 29.6934 37.915 35.29
c8.99316 3.51855 18.123 4.20996 26.3984 2.00293c23.2002 -6.18555 35.2139 -32.7441 40.3086 -48.0215c1.2041 -3.60547 2.25684 -7.25293 3.25586 -10.9043c1.77051 16.4668 3.68945 32.8467 5.60449 49.1006c0.862305 7.29492 7.47363 12.5117 14.7646 11.6533
s12.5078 -7.46582 11.6494 -14.7607c-8.77637 -74.4736 -17.8457 -151.481 -10.0762 -227c1.21973 -11.8506 2.94824 -24.1689 7.29102 -33.9453c3.72363 -8.36621 9.04688 -13.0283 12.1699 -13.1611c2.56445 -0.128906 6.5957 2.35254 10.749 6.59668
c8.42773 8.60547 15.0615 21.0449 21.1328 33.0479c23.1123 45.6777 42.5996 94.8545 57.9229 146.155c2.10156 7.04004 9.52148 11.0371 16.5469 8.93555zM67.1475 51.6309c20.3047 52.6533 36.5811 108.334 48.3711 165.505
c-1.53906 5.64648 -2.8916 11.3037 -4.22168 16.8623c-2.1543 9.0166 -4.19043 17.5312 -6.8916 25.6357c-5.61914 16.8545 -14.0234 28.6328 -21.9307 30.7412c-0.980469 0.258789 -1.9834 0.369141 -2.97461 0.369141c-2.55371 0 -5.04199 -0.72168 -6.89258 -1.44336
c-8.65918 -3.38574 -17.4629 -11.9766 -24.7803 -24.1924c-8.17285 -13.6436 -13.6514 -29.9775 -17.5117 -42.6865c-12.918 -42.5391 -24.9658 -105.903 -9 -166.167c3.43066 -12.9521 7.44336 -22.291 12.2607 -28.5527
c4.15332 -5.39551 9.32422 -8.46973 12.8232 -7.67188c3.06641 0.703125 6.92285 4.18359 10.3115 9.3125c4.08398 6.18164 7.26758 14.0693 10.4365 22.2881z" />
    <glyph glyph-name="b" unicode="b" horiz-adv-x="279" 
d="M293.728 201.882c6.28027 -3.81445 8.27637 -11.9961 4.45801 -18.2695c-24.1572 -39.7773 -54.6104 -72.1533 -88.9883 -94.8291c-4.07715 -34.2334 -10.7793 -61.6924 -20.7227 -85.2451c-15.8633 -37.5654 -40.875 -64.2988 -68.6299 -73.3457
c-6.18164 -2.01367 -12.291 -2.99805 -18.1611 -2.99805c-15.6885 0 -29.6475 7.00977 -38.6064 20.0498c-13.9326 20.2783 -11.9795 50.0098 -4.2627 69.0527c7.19238 17.7588 19.7158 32.5156 38.2881 45.1143c16.1328 10.9424 33.1162 18.1846 49.5381 25.1904
c10.0879 4.30078 19.6133 8.36621 28.9678 13.2295c2.86816 1.48926 5.70996 3.05469 8.5293 4.69238c0.250977 2.63281 0.486328 5.31152 0.710938 8.03613c4.12598 50.332 1.33691 88.8779 -8.77344 121.311c-3.48047 11.1631 -7.28711 19.2754 -11.6338 24.792
c-3.7959 4.81738 -8.31738 7.71289 -11.585 7.38574c-6.45508 -0.661133 -15.0537 -12.3408 -17.877 -16.1787c-39.6328 -53.835 -68.2549 -131.261 -87.499 -236.704c-0.327148 -1.79004 -1.00391 -3.42773 -1.93848 -4.86035
c0.323242 -0.870117 0.612305 -1.7627 0.954102 -2.61719c2.73926 -6.81641 -0.570312 -14.5596 -7.38672 -17.2949c-1.62598 -0.65332 -3.30176 -0.960938 -4.95117 -0.960938c-5.27344 0 -10.2617 3.15723 -12.3438 8.35156
c-8.63965 21.5391 -12.0518 45.499 -14.8027 68.1934c-12.4619 102.803 -15.5469 207.559 -9.1709 311.357l0.862305 14.377c5.67285 95.5879 18.9561 319.438 69.5312 422.637c13.7656 28.0859 40.332 50.5752 64.4551 39.2266
c15.418 -7.25293 23.0059 -28.5605 23.8877 -67.0537c1.8584 -81.1572 -25.8057 -225.116 -52.3184 -332.782c-14.9014 -60.5186 -31.1289 -116.808 -45.6924 -158.499c-16.9912 -48.6484 -28.1543 -68.2383 -36.498 -76.9619
c1.52344 -48.0254 5.14062 -95.9219 10.7295 -143.419c19.4727 82.2061 46.0576 145.635 80.7656 192.782c9.10352 12.3633 20.5664 25.2246 36.5811 26.8662c12.6748 1.2998 25.4639 -5.03809 35.1904 -17.3828c6.47852 -8.22559 11.6074 -18.8184 16.1328 -33.3359
c10.2051 -32.7285 13.7041 -70.4385 10.8545 -117.814c23.9023 19.2744 45.3242 44.123 63.1367 73.4434c3.81055 6.27637 11.9951 8.27539 18.2686 4.46484zM21.2188 269.307c15.2363 37.2881 36.6689 103.711 59.7891 199.307
c26.0527 107.762 52.5312 249.156 48.7129 322.813c-1.62988 31.3799 -8.29785 36.0566 -8.36621 36.0947c-0.570312 0.269531 -1.22363 0.398438 -1.94531 0.398438c-6.70996 0 -19.415 -11.2197 -27.2842 -27.2725c-48.2236 -98.3994 -61.7646 -326.601 -66.8633 -412.507
l-0.866211 -14.4346c-2.13574 -34.7314 -3.19238 -69.5654 -3.17676 -104.399zM163.978 13.8818c7.0293 16.6455 12.2881 35.7031 16.0576 58.4434c-7.69434 -3.67773 -15.4229 -6.97168 -22.9531 -10.1865c-15.9619 -6.80469 -31.0342 -13.2373 -45.0391 -22.7363
c-14.0732 -9.54785 -23.416 -20.373 -28.5684 -33.0938c-6.07129 -14.9814 -5.41406 -33.8994 1.53125 -44.002c7.85742 -11.4326 21.2236 -8.58301 26.6074 -6.83105c20.1182 6.55762 39.6934 28.3936 52.3643 58.4062z" />
    <glyph glyph-name="c" unicode="c" horiz-adv-x="174" 
d="M193.388 231.415c7.02148 -2.16602 10.9551 -9.60938 8.79297 -16.6348c-21.6836 -70.2412 -44.1045 -142.872 -78.9189 -205.682c-10.7568 -19.415 -24.5723 -40.0693 -45.4277 -46.084c-3.82617 -1.10156 -7.73242 -1.64062 -11.6455 -1.64062
c-16.3945 0 -33.0137 9.44922 -45.3662 26.4023c-10.791 14.8066 -18.4736 34.7461 -23.4932 60.9668c-6.43262 33.6025 -7.8457 70.5752 -4.44141 116.359c4.71484 63.4365 16.999 108.552 38.6602 141.991c17.8125 27.501 35.3926 26.9844 44.2871 24.2256
c13.6934 -4.24805 23.8799 -16.3838 28.6865 -34.1768c5.97266 -22.1318 6.43652 -48.2344 6.84668 -71.2666l0.106445 -5.68359c0.144531 -7.34473 -5.69141 -13.4121 -13.0361 -13.5566c-7.27637 -0.152344 -13.4121 5.69141 -13.5566 13.0361l-0.102539 5.72949
c-0.383789 21.4902 -0.817383 45.8486 -5.93555 64.8076c-2.31055 8.55273 -6.27734 14.2783 -10.8857 15.707c-1.2002 0.383789 -6.82715 -2.07031 -14.0879 -13.2793c-18.876 -29.1387 -30.1494 -71.499 -34.4619 -129.502
c-3.22559 -43.3828 -1.94141 -78.1445 4.03906 -109.384c4.2666 -22.2842 10.4365 -38.7402 18.8643 -50.3057c8.4082 -11.5391 19.4492 -17.3711 28.1504 -14.8672c11.7441 3.38574 22.4814 20.6963 29.5332 33.4209c33.4736 60.3965 55.4805 131.687 76.7656 200.632
c2.16211 7.01758 9.61328 10.9541 16.627 8.78418z" />
    <glyph glyph-name="d" unicode="d" horiz-adv-x="212" 
d="M229.926 451.74c-14.9014 -60.5186 -31.125 -116.811 -45.6963 -158.499c-16.9912 -48.6484 -28.1543 -68.2383 -36.498 -76.9619c1.58398 -49.9404 5.37207 -99.748 11.3525 -149.104c0.295898 -2.45117 0.671875 -5.77148 1.12402 -9.79102
c3.37402 -29.9287 12.333 -109.437 25.8701 -135.482c3.38867 -6.5166 0.850586 -14.5488 -5.66602 -17.9346c-1.95703 -1.01855 -4.05859 -1.50098 -6.12207 -1.50098c-4.80273 0 -9.43848 2.61035 -11.8096 7.16602c-13.9404 26.8135 -22.3301 88.2285 -28.7021 144.772
c-0.444336 3.92871 -0.808594 7.17383 -1.09766 9.56738c-3.17285 26.1787 -5.72949 52.4824 -7.68652 78.8623c-9.44922 -34.4805 -20.4717 -68.2012 -33.0361 -100.778c-3.71191 -9.62793 -7.50391 -18.9668 -13.0625 -27.3789
c-7.38281 -11.1748 -16.5703 -18.291 -26.5742 -20.5781c-2.37891 -0.542969 -4.78027 -0.808594 -7.17773 -0.808594c-11.8164 0 -23.6211 6.4668 -32.6445 18.1885c-7.11621 9.24023 -12.4854 21.3037 -16.8965 37.9648
c-17.5693 66.3086 -4.66211 134.866 9.25879 180.707c4.30469 14.168 10.4824 32.501 20.1484 48.6299c10.4795 17.4893 23.5918 29.6934 37.916 35.29c8.99316 3.51855 18.123 4.20996 26.3984 2.00293c14.2676 -3.80664 24.291 -15.3193 31.0918 -27.1738
c0.31543 28.8457 1.33008 57.6768 3.09668 86.4355l0.862305 14.377c5.67285 95.5879 18.9561 319.438 69.5352 422.637c13.7617 28.0859 40.3125 50.5791 64.4502 39.2266c15.418 -7.25293 23.0059 -28.5605 23.8877 -67.0537
c1.85449 -81.1572 -25.8096 -225.116 -52.3223 -332.782zM67.1475 51.6279c20.3008 52.6416 36.5771 108.318 48.3711 165.509c-1.54297 5.64258 -2.89551 11.3076 -4.22168 16.8623c-2.1543 9.0166 -4.19043 17.5312 -6.8916 25.6357
c-5.62305 16.8545 -14.0234 28.6328 -21.9307 30.7412c-0.980469 0.258789 -1.9834 0.369141 -2.97461 0.369141c-2.55371 0 -5.04199 -0.72168 -6.89258 -1.44336c-8.65918 -3.38574 -17.4629 -11.9766 -24.7803 -24.1924
c-8.17285 -13.6436 -13.6514 -29.9775 -17.5117 -42.6865c-12.918 -42.5391 -24.9658 -105.896 -9 -166.167c3.43066 -12.9482 7.43945 -22.2871 12.2607 -28.5488c4.15332 -5.39551 9.32031 -8.46582 12.8193 -7.67578c3.07031 0.699219 6.92285 4.17969 10.3115 9.30859
c4.0918 6.18945 7.27539 14.0771 10.4404 22.2881zM146.887 269.304c15.2363 37.2881 36.668 103.711 59.7881 199.307c26.0527 107.762 52.5312 249.156 48.7129 322.813c-1.62988 31.3799 -8.29785 36.0566 -8.36621 36.0947
c-0.570312 0.269531 -1.22363 0.398438 -1.94531 0.398438c-6.70996 0 -19.415 -11.2158 -27.2803 -27.2686c-48.2266 -98.4033 -61.7676 -326.604 -66.8662 -412.511l-0.866211 -14.4346c-2.13574 -34.7314 -3.19238 -69.5654 -3.17676 -104.399z" />
    <glyph glyph-name="e" unicode="e" horiz-adv-x="155" 
d="M168.412 220.278c7.21875 -1.34473 11.9805 -8.29688 10.6318 -15.5156c-12.5684 -67.3389 -37.2197 -130.631 -71.29 -183.037c-7.19238 -11.0645 -28.3896 -43.6719 -57.7822 -43.6719c-1.45508 0 -2.92969 0.0800781 -4.42676 0.24707
c-14.6885 1.63379 -28.9023 11.8926 -38.9902 28.1504c-7.24609 11.6836 -12.6865 26.5508 -16.6338 45.457c-12.8691 61.6426 -2.51953 122.473 8.43066 162.648c10.2734 37.6943 22.9717 63.4854 39.9629 81.1641c8.12305 8.4502 16.0986 13.4316 24.3857 15.2217
c12.2871 2.65234 24.8291 -2.41602 31.9609 -12.9141c11.3867 -16.7598 6.75098 -41.7334 -3.70898 -57.7402c-15.3457 -23.4844 -41.7676 -33.374 -64.9443 -25.6836c-0.676758 -2.29102 -1.3418 -4.63867 -1.99512 -7.03613
c-10.1826 -37.3643 -19.8447 -93.7529 -8.05469 -150.221c3.30176 -15.8135 7.61816 -27.873 13.1992 -36.8701c5.66895 -9.1416 12.8994 -15.0273 19.332 -15.7412c7.01367 -0.775391 19.1299 4.0498 36.9648 31.4902c32.1855 49.5078 55.5068 109.479 67.4453 173.421
c1.34863 7.21875 8.28613 11.9873 15.5127 10.6309zM57.4873 277.291c-8.59863 -8.94434 -16.1357 -21.3496 -22.7734 -37.5547c11.8584 -3.74219 25.4268 2.01367 33.9756 15.0957c5.94238 9.0957 7.83496 22.5576 3.9707 28.2451
c-1.37207 2.02148 -3.12012 2.13184 -4.34375 1.86621c-1.99902 -0.429688 -5.50195 -2.10938 -10.8291 -7.65234z" />
    <glyph glyph-name="e" unicode="&#xeb;" horiz-adv-x="155" 
d="M168.412 220.278c7.21875 -1.34473 11.9805 -8.29688 10.6318 -15.5156c-12.5684 -67.3389 -37.2197 -130.631 -71.29 -183.037c-7.19238 -11.0645 -28.3896 -43.6719 -57.7822 -43.6719c-1.45508 0 -2.92969 0.0800781 -4.42676 0.24707
c-14.6885 1.63379 -28.9023 11.8926 -38.9902 28.1504c-7.24609 11.6836 -12.6865 26.5508 -16.6338 45.457c-12.8691 61.6426 -2.51953 122.473 8.43066 162.648c10.2734 37.6943 22.9717 63.4854 39.9629 81.1641c8.12305 8.4502 16.0986 13.4316 24.3857 15.2217
c12.2871 2.65234 24.8291 -2.41602 31.9609 -12.9141c11.3867 -16.7598 6.75098 -41.7334 -3.70898 -57.7402c-15.3457 -23.4844 -41.7676 -33.374 -64.9443 -25.6836c-0.676758 -2.29102 -1.3418 -4.63867 -1.99512 -7.03613
c-10.1826 -37.3643 -19.8447 -93.7529 -8.05469 -150.221c3.30176 -15.8135 7.61816 -27.873 13.1992 -36.8701c5.66895 -9.1416 12.8994 -15.0273 19.332 -15.7412c7.01367 -0.775391 19.1299 4.0498 36.9648 31.4902c32.1855 49.5078 55.5068 109.479 67.4453 173.421
c1.34863 7.21875 8.28613 11.9873 15.5127 10.6309zM57.4873 277.291c-8.59863 -8.94434 -16.1357 -21.3496 -22.7734 -37.5547c11.8584 -3.74219 25.4268 2.01367 33.9756 15.0957c5.94238 9.0957 7.83496 22.5576 3.9707 28.2451
c-1.37207 2.02148 -3.12012 2.13184 -4.34375 1.86621c-1.99902 -0.429688 -5.50195 -2.10938 -10.8291 -7.65234z" />
    <glyph glyph-name="e" unicode="&#xea;" horiz-adv-x="155" 
d="M168.412 220.278c7.21875 -1.34473 11.9805 -8.29688 10.6318 -15.5156c-12.5684 -67.3389 -37.2197 -130.631 -71.29 -183.037c-7.19238 -11.0645 -28.3896 -43.6719 -57.7822 -43.6719c-1.45508 0 -2.92969 0.0800781 -4.42676 0.24707
c-14.6885 1.63379 -28.9023 11.8926 -38.9902 28.1504c-7.24609 11.6836 -12.6865 26.5508 -16.6338 45.457c-12.8691 61.6426 -2.51953 122.473 8.43066 162.648c10.2734 37.6943 22.9717 63.4854 39.9629 81.1641c8.12305 8.4502 16.0986 13.4316 24.3857 15.2217
c12.2871 2.65234 24.8291 -2.41602 31.9609 -12.9141c11.3867 -16.7598 6.75098 -41.7334 -3.70898 -57.7402c-15.3457 -23.4844 -41.7676 -33.374 -64.9443 -25.6836c-0.676758 -2.29102 -1.3418 -4.63867 -1.99512 -7.03613
c-10.1826 -37.3643 -19.8447 -93.7529 -8.05469 -150.221c3.30176 -15.8135 7.61816 -27.873 13.1992 -36.8701c5.66895 -9.1416 12.8994 -15.0273 19.332 -15.7412c7.01367 -0.775391 19.1299 4.0498 36.9648 31.4902c32.1855 49.5078 55.5068 109.479 67.4453 173.421
c1.34863 7.21875 8.28613 11.9873 15.5127 10.6309zM57.4873 277.291c-8.59863 -8.94434 -16.1357 -21.3496 -22.7734 -37.5547c11.8584 -3.74219 25.4268 2.01367 33.9756 15.0957c5.94238 9.0957 7.83496 22.5576 3.9707 28.2451
c-1.37207 2.02148 -3.12012 2.13184 -4.34375 1.86621c-1.99902 -0.429688 -5.50195 -2.10938 -10.8291 -7.65234z" />
    <glyph glyph-name="e" unicode="&#xe9;" horiz-adv-x="155" 
d="M168.412 220.278c7.21875 -1.34473 11.9805 -8.29688 10.6318 -15.5156c-12.5684 -67.3389 -37.2197 -130.631 -71.29 -183.037c-7.19238 -11.0645 -28.3896 -43.6719 -57.7822 -43.6719c-1.45508 0 -2.92969 0.0800781 -4.42676 0.24707
c-14.6885 1.63379 -28.9023 11.8926 -38.9902 28.1504c-7.24609 11.6836 -12.6865 26.5508 -16.6338 45.457c-12.8691 61.6426 -2.51953 122.473 8.43066 162.648c10.2734 37.6943 22.9717 63.4854 39.9629 81.1641c8.12305 8.4502 16.0986 13.4316 24.3857 15.2217
c12.2871 2.65234 24.8291 -2.41602 31.9609 -12.9141c11.3867 -16.7598 6.75098 -41.7334 -3.70898 -57.7402c-15.3457 -23.4844 -41.7676 -33.374 -64.9443 -25.6836c-0.676758 -2.29102 -1.3418 -4.63867 -1.99512 -7.03613
c-10.1826 -37.3643 -19.8447 -93.7529 -8.05469 -150.221c3.30176 -15.8135 7.61816 -27.873 13.1992 -36.8701c5.66895 -9.1416 12.8994 -15.0273 19.332 -15.7412c7.01367 -0.775391 19.1299 4.0498 36.9648 31.4902c32.1855 49.5078 55.5068 109.479 67.4453 173.421
c1.34863 7.21875 8.28613 11.9873 15.5127 10.6309zM57.4873 277.291c-8.59863 -8.94434 -16.1357 -21.3496 -22.7734 -37.5547c11.8584 -3.74219 25.4268 2.01367 33.9756 15.0957c5.94238 9.0957 7.83496 22.5576 3.9707 28.2451
c-1.37207 2.02148 -3.12012 2.13184 -4.34375 1.86621c-1.99902 -0.429688 -5.50195 -2.10938 -10.8291 -7.65234z" />
    <glyph glyph-name="f" unicode="f" horiz-adv-x="205" 
d="M229.18 223.117c5.74512 -4.57812 6.68848 -12.9453 2.11035 -18.6943c-40.8066 -51.1719 -97.5713 -70.6328 -146.243 -84.6035c15.3389 -9.74902 28.8535 -23.5107 39.3252 -40.5586c23.0938 -37.5957 29.5146 -89.3906 16.3574 -131.952
c-8.30566 -26.8584 -24.0586 -43.5947 -42.1445 -44.7725c-0.691406 -0.0458984 -1.40234 -0.0683594 -2.12402 -0.0683594c-13.7314 0 -32.4932 8.72363 -47.8887 47.5996c-8.85645 22.3525 -16.2617 47.7373 -23.3096 79.8809
c-27.7285 126.451 -29.7002 260.847 -5.69922 388.662c9.85547 52.4785 22.1885 92.2324 38.8193 125.105c14.3164 28.2988 30.0576 45.7646 48.1162 53.4014c12.0977 5.11035 23.9258 4.61621 33.3145 -1.39453c13.2529 -8.48438 20.377 -26.5322 21.167 -53.6338
c3.39648 -116.819 -72.7383 -269.096 -130.878 -337.928c0.805664 -22.6943 2.41309 -45.3281 4.81836 -67.8555c0.995117 -0.0566406 1.99805 -0.128906 2.98926 -0.21582c8.37793 0.452148 17.2764 2.94824 25.9502 5.38379
c50.2441 14.0996 107.191 30.0801 146.634 79.5381c4.57812 5.74121 12.9443 6.68359 18.6855 2.10547zM45.7031 413.703c-10.2812 -54.751 -15.667 -110.741 -16.1719 -166.769c55.2939 78.1064 107.449 205.219 104.858 294.386
c-0.573242 19.7803 -5.16699 29.6055 -8.9248 32.0107c-0.793945 0.508789 -1.77051 0.706055 -2.7998 0.706055c-2.07031 0 -4.34961 -0.797852 -5.80859 -1.41309c-11.8545 -5.01172 -23.5459 -18.7773 -34.7432 -40.9131
c-15.4639 -30.5703 -27.0332 -68.0674 -36.4102 -118.008zM101.706 65.3457c-15.3193 24.9434 -38.5508 40.8525 -63.5098 43.9678c3.37012 -24.7842 7.7207 -49.3711 13.0479 -73.665c6.73242 -30.7109 13.7422 -54.792 22.0557 -75.7842
c8.61719 -21.7637 18.0176 -31.1328 23.5576 -30.7832c5.14453 0.333984 13.3633 9.58984 18.4619 26.0869c10.8252 35.0234 5.35742 79.2988 -13.6133 110.178z" />
    <glyph glyph-name="g" unicode="g" horiz-adv-x="236" 
d="M253.699 224.526c7.02539 -2.13867 10.9404 -9.7168 8.80176 -16.7539c-1.5918 -5.22461 -8.9209 -18.5264 -31.8584 -59.7852c-18.8682 -33.9404 -44.4619 -79.9824 -71.3203 -130.538c-3.44238 -117.758 -18.9023 -238.806 -55.8447 -316.494
c-1.04102 -2.18848 -2.06641 -4.38477 -3.08887 -6.57324c-6.80078 -14.5557 -13.8301 -29.6094 -24.7197 -41.3232c-12.5273 -13.4766 -27.8662 -20.7939 -43.083 -20.7939c-2.71289 0 -5.41406 0.231445 -8.10449 0.702148
c-11.6875 2.04395 -20.5742 8.80664 -25.7002 19.5557c-23.9258 50.1572 42.6113 199.04 134.415 372.198c1.21191 49.1504 0.307617 97.6318 -1.97949 141.873c-10.7031 -42.7744 -23.8193 -84.5156 -39.2568 -124.543
c-3.71191 -9.62402 -7.50391 -18.9629 -13.0625 -27.3789c-7.38281 -11.1748 -16.5742 -18.291 -26.5742 -20.5781c-2.375 -0.542969 -4.77637 -0.808594 -7.17773 -0.808594c-11.8164 0 -23.6211 6.4668 -32.6445 18.1885
c-7.11621 9.24023 -12.4854 21.3037 -16.8965 37.9648c-17.5693 66.3086 -4.66211 134.866 9.25879 180.707c4.30469 14.168 10.4824 32.501 20.1484 48.6299c10.4795 17.4893 23.5918 29.6934 37.916 35.29c8.99316 3.51855 18.123 4.20996 26.3984 2.00293
c13.9893 -3.72754 23.8867 -14.8711 30.6768 -26.4746c-0.84375 5.93066 -1.70605 11.5879 -2.5918 16.8994c-1.2041 7.24609 3.68945 14.0967 10.9355 15.3008c7.22656 1.2041 14.0918 -3.68945 15.2998 -10.9355c9.03125 -54.2988 16.2432 -141.493 16.4404 -236.002
c15.3691 28.3477 31.2324 57.1406 47.3076 86.0625c15.1025 27.166 28.1426 50.6279 29.7578 54.9023c2.13867 7.02539 9.51758 10.8438 16.5469 8.70508zM67.1455 51.6279c20.3047 52.6533 36.5771 108.331 48.3672 165.506
c-1.53906 5.64648 -2.8916 11.3037 -4.22168 16.8584c-2.15039 9.01953 -4.18652 17.5342 -6.8916 25.6426c-5.61914 16.8545 -14.0195 28.6328 -21.9268 30.7412c-0.980469 0.258789 -1.9834 0.369141 -2.97461 0.369141c-2.55371 0 -5.04199 -0.72168 -6.89258 -1.44336
c-8.65918 -3.38574 -17.4629 -11.9766 -24.7803 -24.1924c-8.17285 -13.6436 -13.6514 -29.9775 -17.5117 -42.6865c-12.918 -42.5391 -24.9658 -105.896 -9 -166.167c3.43066 -12.9482 7.43945 -22.2871 12.2607 -28.5488
c4.15332 -5.39551 9.31641 -8.46582 12.8193 -7.67578c3.07031 0.699219 6.92285 4.17969 10.3115 9.30859c4.0957 6.19727 7.27539 14.0771 10.4404 22.2881zM79.459 -287.613c29.6973 62.4561 44.9219 154.511 51.0088 249.825
c-14.4727 -28.2344 -28.7588 -57.0039 -42.0117 -85.1279c-72.3496 -153.522 -72.1973 -199.409 -65.6699 -213.099c1.40918 -2.95215 3.11133 -4.25488 6.28418 -4.80957c8.71973 -1.52734 18.6133 2.8418 27.1201 11.999c8.04395 8.65137 13.9023 21.1934 20.1035 34.4727
c1.04492 2.24512 2.09766 4.49414 3.16504 6.73926z" />
    <glyph glyph-name="h" unicode="h" horiz-adv-x="265" 
d="M277.076 211.616c7.21875 -1.35254 11.9707 -8.29785 10.6221 -15.5283c-8.39355 -44.8496 -19.2715 -89.2959 -32.3301 -132.098c-7.53027 -24.6816 -18.2676 -50.7578 -40.791 -57.0312c-19.8105 -5.5127 -41.2734 8.42773 -52.1699 33.915
c-8.32422 19.4688 -10.0527 41.7373 -11.5762 61.3848l-7.56055 97.3047c-1.53516 19.7197 -3.11621 40.1074 -7.0791 59.1357c-2.08984 10.0273 -4.57422 14.1494 -5.7334 15.624c-0.832031 -0.463867 -2.22266 -1.41406 -4.18652 -3.33301
c-12.459 -12.1699 -21.0615 -32.25 -27.1602 -48.3906c-25.2588 -66.8252 -36.9463 -141.938 -48.25 -214.58c-0.0185547 -0.12207 -0.0644531 -0.232422 -0.0869141 -0.354492c0.24707 -0.65332 0.463867 -1.33008 0.722656 -1.97559
c2.73535 -6.81641 -0.574219 -14.5596 -7.39062 -17.2949c-1.62207 -0.65332 -3.29785 -0.960938 -4.94727 -0.960938c-5.27344 0 -10.2617 3.15723 -12.3477 8.35156c-8.63965 21.5352 -12.0518 45.4951 -14.8027 68.1895
c-6.33789 52.2617 -10.248 105.033 -11.7256 157.922c0 0.0761719 -0.00390625 0.152344 -0.00390625 0.228516c-1.4209 51.0693 -0.569336 102.252 2.56152 153.207l0.858398 14.3467c5.67285 95.5957 18.9521 319.462 69.5352 422.671
c13.7695 28.0859 40.3398 50.5752 64.4551 39.2266c15.4141 -7.25293 23.0059 -28.5605 23.8916 -67.0537c1.85449 -81.1572 -25.8096 -225.116 -52.3223 -332.782c-14.9014 -60.5186 -31.1289 -116.808 -45.6924 -158.499
c-16.9912 -48.6445 -28.1543 -68.2383 -36.498 -76.9619c1.39453 -43.9561 4.59766 -87.7949 9.40039 -131.329c8.92871 50.2783 20.0918 100.279 37.7705 147.055c7.50781 19.8672 17.3525 42.292 33.4551 58.0146c12.4395 12.1504 23.1963 12.333 30.0088 10.3535
c12.166 -3.53711 20.1904 -15.3916 24.5332 -36.2471c4.30859 -20.6924 5.95801 -41.9463 7.55371 -62.498l7.56055 -97.3047c1.36426 -17.5996 2.91406 -37.5469 9.51758 -52.9844c5.15625 -12.0596 14.3965 -20.4717 20.582 -18.7471
c7.63672 2.12793 15.2012 15.3086 22.4844 39.1729c12.7705 41.8633 23.4131 85.3408 31.624 129.229c1.34863 7.21484 8.30566 11.9834 15.5176 10.623zM26.21 269.308c15.2363 37.292 36.668 103.711 59.7842 199.307c26.0527 107.762 52.5312 249.156 48.7129 322.813
c-1.62598 31.3799 -8.29395 36.0566 -8.3623 36.0947c-0.570312 0.269531 -1.22363 0.398438 -1.94531 0.398438c-6.70996 0 -19.415 -11.2197 -27.2842 -27.2725c-48.2305 -98.4141 -61.7715 -326.627 -66.8662 -412.541l-0.862305 -14.4043
c-2.13574 -34.7275 -3.19238 -69.5615 -3.17676 -104.396z" />
    </font>
</defs>
</svg>
